  0
SECTION
  2
HEADER
  9
$ACADVER
  1
AC1009
  9
$INSBASE
 10
0.0
 20
0.0
 30
0.0
  9
$EXTMIN
 10
14248.40797903828
 20
9662.2939192708309
 30
0.0
  9
$EXTMAX
 10
17528.087979038271
 20
11969.973919270829
 30
0.0
  9
$LIMMIN
 10
0.0
 20
0.0
  9
$LIMMAX
 10
0.0
 20
0.0
  9
$ORTHOMODE
 70
     0
  9
$REGENMODE
 70
     1
  9
$FILLMODE
 70
     1
  9
$QTEXTMODE
 70
     0
  9
$MIRRTEXT
 70
     1
  9
$DRAGMODE
 70
     2
  9
$LTSCALE
 40
1.0
  9
$OSMODE
 70
   183
  9
$ATTMODE
 70
     1
  9
$TEXTSIZE
 40
0.35
  9
$TRACEWID
 40
0.05
  9
$TEXTSTYLE
  7
STANDARD
  9
$CLAYER
  8
0
  9
$CELTYPE
  6
CONTINUOUS
  9
$CECOLOR
 62
   256
  9
$DIMSCALE
 40
1.0
  9
$DIMASZ
 40
2.5
  9
$DIMEXO
 40
0.5
  9
$DIMDLI
 40
0.38
  9
$DIMRND
 40
0.0
  9
$DIMDLE
 40
0.0
  9
$DIMEXE
 40
1.0
  9
$DIMTP
 40
0.0
  9
$DIMTM
 40
0.0
  9
$DIMTXT
 40
3.5277777777777768
  9
$DIMCEN
 40
0.09
  9
$DIMTSZ
 40
0.0
  9
$DIMTOL
 70
     0
  9
$DIMLIM
 70
     0
  9
$DIMTIH
 70
     0
  9
$DIMTOH
 70
     0
  9
$DIMSE1
 70
     0
  9
$DIMSE2
 70
     0
  9
$DIMTAD
 70
     1
  9
$DIMZIN
 70
     0
  9
$DIMBLK
  1

  9
$DIMASO
 70
     1
  9
$DIMSHO
 70
     1
  9
$DIMPOST
  1

  9
$DIMAPOST
  1

  9
$DIMALT
 70
     0
  9
$DIMALTD
 70
     3
  9
$DIMALTF
 40
25.399999999999999
  9
$DIMLFAC
 40
1.0
  9
$DIMTOFL
 70
     0
  9
$DIMTVP
 40
0.0
  9
$DIMTIX
 70
     0
  9
$DIMSOXD
 70
     0
  9
$DIMSAH
 70
     0
  9
$DIMBLK1
  1

  9
$DIMBLK2
  1

  9
$DIMSTYLE
  2
STANDARD
  9
$DIMCLRD
 70
     0
  9
$DIMCLRE
 70
     0
  9
$DIMCLRT
 70
     0
  9
$DIMTFAC
 40
1.0
  9
$DIMGAP
 40
0.09
  9
$LUNITS
 70
     2
  9
$LUPREC
 70
     4
  9
$SKETCHINC
 40
0.1
  9
$FILLETRAD
 40
0.0
  9
$AUNITS
 70
     0
  9
$AUPREC
 70
     0
  9
$MENU
  1
acad
  9
$ELEVATION
 40
0.0
  9
$PELEVATION
 40
0.0
  9
$THICKNESS
 40
0.0
  9
$LIMCHECK
 70
     0
  9
$BLIPMODE
 70
     0
  9
$CHAMFERA
 40
0.0
  9
$CHAMFERB
 40
0.0
  9
$SKPOLY
 70
     0
  9
$TDCREATE
 40
2454656.5418634261
  9
$TDUPDATE
 40
2454656.5602235189
  9
$TDINDWG
 40
0.0000976505
  9
$TDUSRTIMER
 40
0.0000976505
  9
$USRTIMER
 70
     1
  9
$ANGBASE
 50
0.0
  9
$ANGDIR
 70
     0
  9
$PDMODE
 70
     0
  9
$PDSIZE
 40
0.0
  9
$PLINEWID
 40
0.0
  9
$COORDS
 70
     1
  9
$SPLFRAME
 70
     0
  9
$SPLINETYPE
 70
     6
  9
$SPLINESEGS
 70
     8
  9
$ATTDIA
 70
     0
  9
$ATTREQ
 70
     1
  9
$HANDLING
 70
     1
  9
$HANDSEED
  5
A55
  9
$SURFTAB1
 70
     6
  9
$SURFTAB2
 70
     6
  9
$SURFTYPE
 70
     6
  9
$SURFU
 70
     6
  9
$SURFV
 70
     6
  9
$UCSNAME
  2

  9
$UCSORG
 10
0.0
 20
0.0
 30
0.0
  9
$UCSXDIR
 10
1.0
 20
0.0
 30
0.0
  9
$UCSYDIR
 10
0.0
 20
1.0
 30
0.0
  9
$PUCSNAME
  2

  9
$PUCSORG
 10
0.0
 20
0.0
 30
0.0
  9
$PUCSXDIR
 10
1.0
 20
0.0
 30
0.0
  9
$PUCSYDIR
 10
0.0
 20
1.0
 30
0.0
  9
$USERI1
 70
     0
  9
$USERI2
 70
     0
  9
$USERI3
 70
     0
  9
$USERI4
 70
     0
  9
$USERI5
 70
     0
  9
$USERR1
 40
0.0
  9
$USERR2
 40
0.0
  9
$USERR3
 40
0.0
  9
$USERR4
 40
0.0
  9
$USERR5
 40
0.0
  9
$WORLDVIEW
 70
     1
  9
$SHADEDGE
 70
     3
  9
$SHADEDIF
 70
    70
  9
$TILEMODE
 70
     1
  9
$MAXACTVP
 70
    64
  9
$PLIMCHECK
 70
     0
  9
$PEXTMIN
 10
1.0000000000000000E+020
 20
1.0000000000000000E+020
 30
1.0000000000000000E+020
  9
$PEXTMAX
 10
-1.0000000000000000E+020
 20
-1.0000000000000000E+020
 30
-1.0000000000000000E+020
  9
$PLIMMIN
 10
0.0
 20
0.0
  9
$PLIMMAX
 10
12.0
 20
9.0
  9
$UNITMODE
 70
     0
  9
$VISRETAIN
 70
     1
  9
$PLINEGEN
 70
     0
  9
$PSLTSCALE
 70
     0
  0
ENDSEC
  0
SECTION
  2
TABLES
  0
TABLE
  2
VPORT
 70
     2
  0
VPORT
  2
*ACTIVE
 70
     0
 10
0.0
 20
0.0
 11
1.0
 21
1.0
 12
15888.247979038269
 22
10816.133919270829
 13
0.0
 23
0.0
 14
1.0
 24
1.0
 15
0.0
 25
0.0
 16
0.0
 26
0.0
 36
1.0
 17
0.0
 27
0.0
 37
0.0
 40
2326.441626016267
 41
1.6377204884667571
 42
50.0
 43
0.0
 44
0.0
 50
0.0
 51
0.0
 71
     0
 72
   100
 73
     1
 74
     1
 75
     0
 76
     0
 77
     0
 78
     0
  0
ENDTAB
  0
TABLE
  2
LTYPE
 70
    11
  0
LTYPE
  2
CONTINUOUS
 70
     0
  3
Solid line
 72
    65
 73
     0
 40
0.0
  0
LTYPE
  2
DOT
 70
     0
  3

 72
    65
 73
     2
 40
1.0
 49
0.0
 49
-1.0
  0
LTYPE
  2
DASHEDX2
 70
     0
  3

 72
    65
 73
     2
 40
4.0
 49
3.0
 49
-1.0
  0
LTYPE
  2
DASHED
 70
     0
  3

 72
    65
 73
     2
 40
3.0
 49
2.0
 49
-1.0
  0
LTYPE
  2
DASHED2
 70
     0
  3

 72
    65
 73
     2
 40
2.0
 49
1.0
 49
-1.0
  0
LTYPE
  2
CENTERX2
 70
     0
  3

 72
    65
 73
     4
 40
43.0
 49
40.0
 49
-1.0
 49
1.0
 49
-1.0
  0
LTYPE
  2
CENTER
 70
     0
  3

 72
    65
 73
     4
 40
33.0
 49
30.0
 49
-1.0
 49
1.0
 49
-1.0
  0
LTYPE
  2
CENTER2
 70
     0
  3

 72
    65
 73
     4
 40
23.0
 49
20.0
 49
-1.0
 49
1.0
 49
-1.0
  0
LTYPE
  2
PHANTOMX2
 70
     0
  3

 72
    65
 73
     6
 40
45.0
 49
40.0
 49
-1.0
 49
1.0
 49
-1.0
 49
1.0
 49
-1.0
  0
LTYPE
  2
PHANTOM
 70
     0
  3

 72
    65
 73
     6
 40
35.0
 49
30.0
 49
-1.0
 49
1.0
 49
-1.0
 49
1.0
 49
-1.0
  0
LTYPE
  2
PHANTOM2
 70
     0
  3

 72
    65
 73
     6
 40
25.0
 49
20.0
 49
-1.0
 49
1.0
 49
-1.0
 49
1.0
 49
-1.0
  0
ENDTAB
  0
TABLE
  2
LAYER
 70
     8
  0
LAYER
  2
0
 70
     0
 62
     7
  6
CONTINUOUS
  0
LAYER
  2
DEFPOINTS
 70
     0
 62
     7
  6
CONTINUOUS
  0
LAYER
  2
____1
 70
     0
 62
     7
  6
DASHED2
  0
LAYER
  2
______
 70
     0
 62
     7
  6
CONTINUOUS
  0
LAYER
  2
補助線_1
 70
     0
 62
     7
  6
CONTINUOUS
  0
LAYER
  2
UNASSIGNED
 70
     0
 62
     7
  6
CONTINUOUS
  0
LAYER
  2
____
 70
     0
 62
     7
  6
DOT
  0
LAYER
  2
___G
 70
     0
 62
     7
  6
DOT
  0
ENDTAB
  0
TABLE
  2
STYLE
 70
     2
  0
STYLE
  2
STANDARD
 70
     0
 40
0.0
 41
1.0
 50
0.0
 71
     0
 42
0.35
  3
txt
  4

  0
STYLE
  2
STYLE1
 70
     0
 40
0.0
 41
1.0
 50
0.0
 71
     0
 42
0.35
  3
ＭＳ ゴシック
  4

  0
ENDTAB
  0
TABLE
  2
VIEW
 70
     0
  0
ENDTAB
  0
TABLE
  2
UCS
 70
     0
  0
ENDTAB
  0
TABLE
  2
APPID
 70
     1
  0
APPID
  2
ACAD
 70
     0
  0
ENDTAB
  0
TABLE
  2
DIMSTYLE
 70
     1
  0
DIMSTYLE
  2
STANDARD
 70
     0
  3

  4

  5

  6

  7

 40
1.0
 41
0.18
 42
0.0625
 43
0.38
 44
0.18
 45
0.0
 46
0.0
 47
0.0
 48
0.0
140
0.18
141
0.09
142
0.0
143
25.399999999999999
144
1.0
145
0.0
146
1.0
147
0.09
 71
     0
 72
     0
 73
     1
 74
     1
 75
     0
 76
     0
 77
     0
 78
     0
170
     0
171
     2
172
     0
173
     0
174
     0
175
     0
176
     0
177
     0
178
     0
  0
ENDTAB
  0
ENDSEC
  0
SECTION
  2
BLOCKS
  0
BLOCK
  8
0
  2
$MODEL_SPACE
 70
     0
 10
0.0
 20
0.0
 30
0.0
  3
$MODEL_SPACE
  1

  0
ENDBLK
  5
A43
  8
0
  0
BLOCK
 67
     1
  8
0
  2
$PAPER_SPACE
 70
     0
 10
0.0
 20
0.0
 30
0.0
  3
$PAPER_SPACE
  1

  0
ENDBLK
  5
A41
 67
     1
  8
0
  0
BLOCK
  8
0
  2
*D0
 70
     1
 10
0.0
 20
0.0
 30
0.0
  3
*D0
  1

  0
LINE
  5
30
  8
____1
  6
CONTINUOUS
 62
     7
 10
15752.292702391271
 20
11436.70714265533
 30
0.0
 11
16071.74515431713
 21
11436.70714265533
 31
0.0
  0
LINE
  5
31
  8
____1
  6
CONTINUOUS
 62
     7
 10
15752.292702391271
 20
10836.70714265533
 30
0.0
 11
16071.74515431713
 21
10836.70714265533
 31
0.0
  0
SOLID
  5
32
  8
____1
  6
CONTINUOUS
 62
     7
 10
16063.74515431713
 20
10836.70714265533
 30
0.0
 11
16063.74515431713
 21
10836.70714265533
 31
0.0
 12
16060.74515431713
 22
10851.70714265533
 32
0.0
 13
16066.74515431713
 23
10851.70714265533
 33
0.0
  0
SOLID
  5
33
  8
____1
  6
CONTINUOUS
 62
     7
 10
16060.74515431713
 20
10851.70714265533
 30
0.0
 11
16063.74515431713
 21
10851.70714265533
 31
0.0
 12
16059.74515431713
 22
10856.70714265533
 32
0.0
 13
16059.74515431713
 23
10856.70714265533
 33
0.0
  0
SOLID
  5
34
  8
____1
  6
CONTINUOUS
 62
     7
 10
16063.74515431713
 20
10851.70714265533
 30
0.0
 11
16066.74515431713
 21
10851.70714265533
 31
0.0
 12
16067.74515431713
 22
10856.70714265533
 32
0.0
 13
16067.74515431713
 23
10856.70714265533
 33
0.0
  0
LINE
  5
35
  8
____1
  6
CONTINUOUS
 62
     7
 10
16063.74515431713
 20
10836.70714265533
 30
0.0
 11
16063.74515431713
 21
11118.00227093049
 31
0.0
  0
SOLID
  5
36
  8
____1
  6
CONTINUOUS
 62
     7
 10
16059.74515431713
 20
11416.70714265533
 30
0.0
 11
16059.74515431713
 21
11416.70714265533
 31
0.0
 12
16060.74515431713
 22
11421.70714265533
 32
0.0
 13
16063.74515431713
 23
11421.70714265533
 33
0.0
  0
SOLID
  5
37
  8
____1
  6
CONTINUOUS
 62
     7
 10
16067.74515431713
 20
11416.70714265533
 30
0.0
 11
16067.74515431713
 21
11416.70714265533
 31
0.0
 12
16063.74515431713
 22
11421.70714265533
 32
0.0
 13
16066.74515431713
 23
11421.70714265533
 33
0.0
  0
SOLID
  5
38
  8
____1
  6
CONTINUOUS
 62
     7
 10
16060.74515431713
 20
11421.70714265533
 30
0.0
 11
16066.74515431713
 21
11421.70714265533
 31
0.0
 12
16063.74515431713
 22
11436.70714265533
 32
0.0
 13
16063.74515431713
 23
11436.70714265533
 33
0.0
  0
LINE
  5
39
  8
____1
  6
CONTINUOUS
 62
     7
 10
16063.74515431713
 20
11436.70714265533
 30
0.0
 11
16063.74515431713
 21
11118.00227093049
 31
0.0
  0
TEXT
  5
3B
  8
______
  6
DASHED2
 62
     7
 10
16055.62941370001
 20
11096.83560489961
 30
0.0
 40
28.222221374511719
  1
600
 50
90.0
  7
STYLE1
  0
ENDBLK
  5
3C
  8
0
  0
BLOCK
  8
0
  2
C0
 70
     0
 10
0.0
 20
0.0
 30
0.0
  3
C0
  1

  0
CIRCLE
  5
41
  8
____1
  6
CONTINUOUS
 62
     7
 10
15978.581889486441
 20
10579.49414079682
 30
0.0
 40
28.0
  0
TEXT
  5
42
  8
______
  6
CENTER2
 62
     7
 10
15971.52633414282
 20
10569.498770726679
 30
0.0
 40
28.222221374511719
  1
6
  7
STYLE1
  0
LINE
  5
43
  8
______
  6
CONTINUOUS
 62
     7
 10
15931.91522281978
 20
10579.49414079682
 30
0.0
 11
15950.581889486441
 21
10579.49414079682
 31
0.0
  0
LINE
  5
44
  8
______
  6
CONTINUOUS
 62
     7
 10
15543.84570775586
 20
10995.2378366214
 30
0.0
 11
15931.91522281978
 21
10579.49414079682
 31
0.0
  0
SOLID
  5
45
  8
______
 62
     7
 10
15543.84570775586
 20
10995.2378366214
 30
0.0
 11
15547.842533248981
 21
10988.024974084399
 31
0.0
 12
15543.84570775586
 22
10995.2378366214
 32
0.0
 13
15547.939854434
 23
10990.851726388189
 33
0.0
  0
SOLID
  5
46
  8
______
 62
     7
 10
15547.939854434
 20
10990.851726388189
 30
0.0
 11
15550.76660673778
 21
10990.75440520317
 31
0.0
 12
15543.84570775586
 22
10995.2378366214
 32
0.0
 13
15543.84570775586
 23
10995.2378366214
 33
0.0
  0
ENDBLK
  5
47
  8
0
  0
BLOCK
  8
0
  2
*D2
 70
     1
 10
0.0
 20
0.0
 30
0.0
  3
*D2
  1

  0
LINE
  5
51
  8
____1
  6
CONTINUOUS
 62
     7
 10
15748.292702391271
 20
10832.70714265533
 30
0.0
 11
15748.292702391271
 21
10564.445766254121
 31
0.0
  0
LINE
  5
52
  8
____1
  6
CONTINUOUS
 62
     7
 10
15148.29270239126
 20
10832.70714265533
 30
0.0
 11
15148.29270239126
 21
10564.445766254121
 31
0.0
  0
SOLID
  5
53
  8
____1
  6
CONTINUOUS
 62
     7
 10
15168.29270239126
 20
10568.445766254121
 30
0.0
 11
15168.29270239126
 21
10568.445766254121
 31
0.0
 12
15148.29270239126
 22
10572.445766254121
 32
0.0
 13
15163.29270239126
 23
10572.445766254121
 33
0.0
  0
SOLID
  5
54
  8
____1
  6
CONTINUOUS
 62
     7
 10
15148.29270239126
 20
10572.445766254121
 30
0.0
 11
15163.29270239126
 21
10572.445766254121
 31
0.0
 12
15168.29270239126
 22
10576.44576625413
 32
0.0
 13
15168.29270239126
 23
10576.44576625413
 33
0.0
  0
LINE
  5
55
  8
____1
  6
CONTINUOUS
 62
     7
 10
15148.29270239126
 20
10572.445766254121
 30
0.0
 11
15447.54270239126
 21
10572.445766254121
 31
0.0
  0
SOLID
  5
56
  8
____1
  6
CONTINUOUS
 62
     7
 10
15728.292702391271
 20
10568.445766254121
 30
0.0
 11
15728.292702391271
 21
10568.445766254121
 31
0.0
 12
15733.292702391271
 22
10572.445766254121
 32
0.0
 13
15748.292702391271
 23
10572.445766254121
 33
0.0
  0
SOLID
  5
57
  8
____1
  6
CONTINUOUS
 62
     7
 10
15733.292702391271
 20
10572.445766254121
 30
0.0
 11
15748.292702391271
 21
10572.445766254121
 31
0.0
 12
15728.292702391271
 22
10576.44576625413
 32
0.0
 13
15728.292702391271
 23
10576.44576625413
 33
0.0
  0
LINE
  5
58
  8
____1
  6
CONTINUOUS
 62
     7
 10
15748.292702391271
 20
10572.445766254121
 30
0.0
 11
15447.54270239126
 21
10572.445766254121
 31
0.0
  0
TEXT
  5
59
  8
______
  6
DASHED2
 62
     7
 10
15426.37603636038
 20
10580.56150687124
 30
0.0
 40
28.222221374511719
  1
600
  7
STYLE1
  0
ENDBLK
  5
5A
  8
0
  0
BLOCK
  8
0
  2
*D3
 70
     1
 10
0.0
 20
0.0
 30
0.0
  3
*D3
  1

  0
LINE
  5
5E
  8
____1
  6
CONTINUOUS
 62
     7
 10
15718.29253731085
 20
10856.207142655319
 30
0.0
 11
15718.29253731085
 21
10623.15019333746
 31
0.0
  0
LINE
  5
5F
  8
____1
  6
CONTINUOUS
 62
     7
 10
15178.29253731085
 20
10856.207142655319
 30
0.0
 11
15178.29253731085
 21
10623.15019333746
 31
0.0
  0
SOLID
  5
60
  8
____1
  6
CONTINUOUS
 62
     7
 10
15198.29253731085
 20
10627.15019333746
 30
0.0
 11
15198.29253731085
 21
10627.15019333746
 31
0.0
 12
15178.29253731085
 22
10631.15019333746
 32
0.0
 13
15193.29253731085
 23
10631.15019333746
 33
0.0
  0
SOLID
  5
61
  8
____1
  6
CONTINUOUS
 62
     7
 10
15178.29253731085
 20
10631.15019333746
 30
0.0
 11
15193.29253731085
 21
10631.15019333746
 31
0.0
 12
15198.29253731085
 22
10635.15019333746
 32
0.0
 13
15198.29253731085
 23
10635.15019333746
 33
0.0
  0
LINE
  5
62
  8
____1
  6
CONTINUOUS
 62
     7
 10
15178.29253731085
 20
10631.15019333746
 30
0.0
 11
15448.29253731085
 21
10631.15019333746
 31
0.0
  0
SOLID
  5
63
  8
____1
  6
CONTINUOUS
 62
     7
 10
15698.29253731085
 20
10627.15019333746
 30
0.0
 11
15698.29253731085
 21
10627.15019333746
 31
0.0
 12
15703.29253731085
 22
10631.15019333746
 32
0.0
 13
15718.29253731085
 23
10631.15019333746
 33
0.0
  0
SOLID
  5
64
  8
____1
  6
CONTINUOUS
 62
     7
 10
15703.29253731085
 20
10631.15019333746
 30
0.0
 11
15718.29253731085
 21
10631.15019333746
 31
0.0
 12
15698.29253731085
 22
10635.15019333746
 32
0.0
 13
15698.29253731085
 23
10635.15019333746
 33
0.0
  0
LINE
  5
65
  8
____1
  6
CONTINUOUS
 62
     7
 10
15718.29253731085
 20
10631.15019333746
 30
0.0
 11
15448.29253731085
 21
10631.15019333746
 31
0.0
  0
TEXT
  5
66
  8
______
  6
DASHED2
 62
     7
 10
15427.125871279961
 20
10639.265933954581
 30
0.0
 40
28.222221374511719
  1
540
  7
STYLE1
  0
ENDBLK
  5
67
  8
0
  0
BLOCK
  8
0
  2
*D4
 70
     1
 10
0.0
 20
0.0
 30
0.0
  3
*D4
  1

  0
LINE
  5
6B
  8
____1
  6
CONTINUOUS
 62
     7
 10
14994.29270239126
 20
10686.707142655319
 30
0.0
 11
14929.600956132061
 21
10686.707142655319
 31
0.0
  0
LINE
  5
6C
  8
____1
  6
CONTINUOUS
 62
     7
 10
15121.79270239126
 20
10936.707142655319
 30
0.0
 11
14929.600956132061
 21
10936.707142655319
 31
0.0
  0
SOLID
  5
6D
  8
____1
  6
CONTINUOUS
 62
     7
 10
14933.600956132061
 20
10916.707142655319
 30
0.0
 11
14933.600956132061
 21
10916.707142655319
 31
0.0
 12
14934.600956132061
 22
10921.707142655319
 32
0.0
 13
14937.600956132061
 23
10921.707142655319
 33
0.0
  0
SOLID
  5
6E
  8
____1
  6
CONTINUOUS
 62
     7
 10
14941.60095613205
 20
10916.707142655319
 30
0.0
 11
14941.60095613205
 21
10916.707142655319
 31
0.0
 12
14937.600956132061
 22
10921.707142655319
 32
0.0
 13
14940.60095613205
 23
10921.707142655319
 33
0.0
  0
SOLID
  5
6F
  8
____1
  6
CONTINUOUS
 62
     7
 10
14934.600956132061
 20
10921.707142655319
 30
0.0
 11
14940.60095613205
 21
10921.707142655319
 31
0.0
 12
14937.600956132061
 22
10936.707142655319
 32
0.0
 13
14937.600956132061
 23
10936.707142655319
 33
0.0
  0
LINE
  5
70
  8
____1
  6
CONTINUOUS
 62
     7
 10
14937.600956132061
 20
10936.707142655319
 30
0.0
 11
14937.600956132061
 21
10811.707142655319
 31
0.0
  0
SOLID
  5
71
  8
____1
  6
CONTINUOUS
 62
     7
 10
14937.600956132061
 20
10686.707142655319
 30
0.0
 11
14937.600956132061
 21
10686.707142655319
 31
0.0
 12
14934.600956132061
 22
10701.707142655319
 32
0.0
 13
14940.60095613205
 23
10701.707142655319
 33
0.0
  0
SOLID
  5
72
  8
____1
  6
CONTINUOUS
 62
     7
 10
14934.600956132061
 20
10701.707142655319
 30
0.0
 11
14937.600956132061
 21
10701.707142655319
 31
0.0
 12
14933.600956132061
 22
10706.707142655319
 32
0.0
 13
14933.600956132061
 23
10706.707142655319
 33
0.0
  0
SOLID
  5
73
  8
____1
  6
CONTINUOUS
 62
     7
 10
14937.600956132061
 20
10701.707142655319
 30
0.0
 11
14940.60095613205
 21
10701.707142655319
 31
0.0
 12
14941.60095613205
 22
10706.707142655319
 32
0.0
 13
14941.60095613205
 23
10706.707142655319
 33
0.0
  0
LINE
  5
74
  8
____1
  6
CONTINUOUS
 62
     7
 10
14937.600956132061
 20
10686.707142655319
 30
0.0
 11
14937.600956132061
 21
10811.707142655319
 31
0.0
  0
TEXT
  5
75
  8
______
  6
DASHED2
 62
     7
 10
14929.48521551494
 20
10790.540476624439
 30
0.0
 40
28.222221374511719
  1
250
 50
90.0
  7
STYLE1
  0
ENDBLK
  5
76
  8
0
  0
BLOCK
  8
0
  2
C1
 70
     0
 10
0.0
 20
0.0
 30
0.0
  3
C1
  1

  0
CIRCLE
  5
7A
  8
____1
  6
CONTINUOUS
 62
     7
 10
15847.5805857837
 20
10585.269849634409
 30
0.0
 40
28.0
  0
TEXT
  5
7B
  8
______
  6
CENTER2
 62
     7
 10
15840.525030440071
 20
10575.274479564279
 30
0.0
 40
28.222221374511719
  1
7
  7
STYLE1
  0
LINE
  5
7C
  8
______
  6
CONTINUOUS
 62
     7
 10
15800.913919117031
 20
10585.269849634409
 30
0.0
 11
15819.5805857837
 21
10585.269849634409
 31
0.0
  0
LINE
  5
7D
  8
______
  6
CONTINUOUS
 62
     7
 10
15466.29270239126
 20
10901.644406388241
 30
0.0
 11
15800.913919117031
 21
10585.269849634409
 31
0.0
  0
SOLID
  5
7E
  8
______
 62
     7
 10
15466.29270239126
 20
10901.644406388241
 30
0.0
 11
15470.731793577181
 21
10894.694984150159
 31
0.0
 12
15466.29270239126
 22
10901.644406388241
 32
0.0
 13
15470.652547152749
 23
10897.522300900049
 33
0.0
  0
SOLID
  5
7F
  8
______
 62
     7
 10
15470.652547152749
 20
10897.522300900049
 30
0.0
 11
15473.479863902639
 21
10897.601547324481
 31
0.0
 12
15466.29270239126
 22
10901.644406388241
 32
0.0
 13
15466.29270239126
 23
10901.644406388241
 33
0.0
  0
ENDBLK
  5
80
  8
0
  0
BLOCK
  8
0
  2
*D6
 70
     1
 10
0.0
 20
0.0
 30
0.0
  3
*D6
  1

  0
LINE
  5
85
  8
____1
  6
CONTINUOUS
 62
     7
 10
16934.867860128459
 20
10572.445766254121
 30
0.0
 11
16980.348337930631
 21
10572.445766254121
 31
0.0
  0
LINE
  5
86
  8
____1
  6
CONTINUOUS
 62
     7
 10
16980.348337930631
 20
10857.70874051944
 30
0.0
 11
16980.348337930631
 21
10564.445766254121
 31
0.0
  0
LINE
  5
87
  8
____1
  6
CONTINUOUS
 62
     7
 10
16934.867860128459
 20
10856.1365768655
 30
0.0
 11
16934.867860128459
 21
10564.445766254121
 31
0.0
  0
SOLID
  5
88
  8
____1
  6
CONTINUOUS
 62
     7
 10
16914.867860128459
 20
10568.445766254121
 30
0.0
 11
16914.867860128459
 21
10568.445766254121
 31
0.0
 12
16919.867860128459
 22
10572.445766254121
 32
0.0
 13
16934.867860128459
 23
10572.445766254121
 33
0.0
  0
SOLID
  5
89
  8
____1
  6
CONTINUOUS
 62
     7
 10
16919.867860128459
 20
10572.445766254121
 30
0.0
 11
16934.867860128459
 21
10572.445766254121
 31
0.0
 12
16914.867860128459
 22
10576.44576625413
 32
0.0
 13
16914.867860128459
 23
10576.44576625413
 33
0.0
  0
LINE
  5
8A
  8
____1
  6
CONTINUOUS
 62
     7
 10
16934.867860128459
 20
10572.445766254121
 30
0.0
 11
16850.286223618499
 21
10572.445766254121
 31
0.0
  0
SOLID
  5
8B
  8
____1
  6
CONTINUOUS
 62
     7
 10
17000.348337930631
 20
10568.445766254121
 30
0.0
 11
17000.348337930631
 21
10568.445766254121
 31
0.0
 12
16980.348337930631
 22
10572.445766254121
 32
0.0
 13
16995.348337930631
 23
10572.445766254121
 33
0.0
  0
SOLID
  5
8C
  8
____1
  6
CONTINUOUS
 62
     7
 10
16980.348337930631
 20
10572.445766254121
 30
0.0
 11
16995.348337930631
 21
10572.445766254121
 31
0.0
 12
17000.348337930631
 22
10576.44576625413
 32
0.0
 13
17000.348337930631
 23
10576.44576625413
 33
0.0
  0
LINE
  5
8D
  8
____1
  6
CONTINUOUS
 62
     7
 10
16980.348337930631
 20
10572.445766254121
 30
0.0
 11
17020.348337930631
 21
10572.445766254121
 31
0.0
  0
TEXT
  5
8E
  8
______
  6
DASHED2
 62
     7
 10
16864.397334305759
 20
10580.56150687124
 30
0.0
 40
28.222221374511719
  1
45.5
  7
STYLE1
  0
ENDBLK
  5
8F
  8
0
  0
BLOCK
  8
0
  2
*D7
 70
     1
 10
0.0
 20
0.0
 30
0.0
  3
*D7
  1

  0
LINE
  5
94
  8
____1
  6
CONTINUOUS
 62
     7
 10
16987.93824675768
 20
10572.445766254121
 30
0.0
 11
17017.93824675768
 21
10572.445766254121
 31
0.0
  0
LINE
  5
95
  8
____1
  6
CONTINUOUS
 62
     7
 10
17017.93824675768
 20
10682.70714265533
 30
0.0
 11
17017.93824675768
 21
10564.445766254121
 31
0.0
  0
LINE
  5
96
  8
____1
  6
CONTINUOUS
 62
     7
 10
16987.93824675768
 20
10832.70714265533
 30
0.0
 11
16987.93824675768
 21
10564.445766254121
 31
0.0
  0
SOLID
  5
97
  8
____1
  6
CONTINUOUS
 62
     7
 10
16987.18824675768
 20
10569.445766254121
 30
0.0
 11
16988.688246757691
 21
10569.445766254121
 31
0.0
 12
16985.688246757691
 22
10570.195766254121
 32
0.0
 13
16990.18824675768
 23
10570.195766254121
 33
0.0
  0
SOLID
  5
98
  8
____1
  6
CONTINUOUS
 62
     7
 10
16985.688246757691
 20
10570.195766254121
 30
0.0
 11
16990.18824675768
 21
10570.195766254121
 31
0.0
 12
16984.938246757691
 22
10571.695766254121
 32
0.0
 13
16990.93824675768
 23
10571.695766254121
 33
0.0
  0
SOLID
  5
99
  8
____1
  6
CONTINUOUS
 62
     7
 10
16984.938246757691
 20
10571.695766254121
 30
0.0
 11
16990.93824675768
 21
10571.695766254121
 31
0.0
 12
16984.938246757691
 22
10573.195766254121
 32
0.0
 13
16990.93824675768
 23
10573.195766254121
 33
0.0
  0
SOLID
  5
9A
  8
____1
  6
CONTINUOUS
 62
     7
 10
16984.938246757691
 20
10573.195766254121
 30
0.0
 11
16990.93824675768
 21
10573.195766254121
 31
0.0
 12
16985.688246757691
 22
10574.695766254121
 32
0.0
 13
16990.18824675768
 23
10574.695766254121
 33
0.0
  0
SOLID
  5
9B
  8
____1
  6
CONTINUOUS
 62
     7
 10
16985.688246757691
 20
10574.695766254121
 30
0.0
 11
16990.18824675768
 21
10574.695766254121
 31
0.0
 12
16987.18824675768
 22
10575.445766254121
 32
0.0
 13
16988.688246757691
 23
10575.445766254121
 33
0.0
  0
LINE
  5
9C
  8
____1
  6
CONTINUOUS
 62
     7
 10
16987.93824675768
 20
10572.445766254121
 30
0.0
 11
16947.938246757691
 21
10572.445766254121
 31
0.0
  0
SOLID
  5
9D
  8
____1
  6
CONTINUOUS
 62
     7
 10
17017.188246757691
 20
10569.445766254121
 30
0.0
 11
17018.68824675768
 21
10569.445766254121
 31
0.0
 12
17015.68824675768
 22
10570.195766254121
 32
0.0
 13
17020.188246757691
 23
10570.195766254121
 33
0.0
  0
SOLID
  5
9E
  8
____1
  6
CONTINUOUS
 62
     7
 10
17015.68824675768
 20
10570.195766254121
 30
0.0
 11
17020.188246757691
 21
10570.195766254121
 31
0.0
 12
17014.93824675768
 22
10571.695766254121
 32
0.0
 13
17020.938246757691
 23
10571.695766254121
 33
0.0
  0
SOLID
  5
9F
  8
____1
  6
CONTINUOUS
 62
     7
 10
17014.93824675768
 20
10571.695766254121
 30
0.0
 11
17020.938246757691
 21
10571.695766254121
 31
0.0
 12
17014.93824675768
 22
10573.195766254121
 32
0.0
 13
17020.938246757691
 23
10573.195766254121
 33
0.0
  0
SOLID
  5
A0
  8
____1
  6
CONTINUOUS
 62
     7
 10
17014.93824675768
 20
10573.195766254121
 30
0.0
 11
17020.938246757691
 21
10573.195766254121
 31
0.0
 12
17015.68824675768
 22
10574.695766254121
 32
0.0
 13
17020.188246757691
 23
10574.695766254121
 33
0.0
  0
SOLID
  5
A1
  8
____1
  6
CONTINUOUS
 62
     7
 10
17015.68824675768
 20
10574.695766254121
 30
0.0
 11
17020.188246757691
 21
10574.695766254121
 31
0.0
 12
17017.188246757691
 22
10575.445766254121
 32
0.0
 13
17018.68824675768
 23
10575.445766254121
 33
0.0
  0
LINE
  5
A2
  8
____1
  6
CONTINUOUS
 62
     7
 10
17017.93824675768
 20
10572.445766254121
 30
0.0
 11
17057.93824675768
 21
10572.445766254121
 31
0.0
  0
TEXT
  5
A3
  8
______
  6
DASHED2
 62
     7
 10
16988.827136070431
 20
10580.56150687124
 30
0.0
 40
28.222221374511719
  1
30
  7
STYLE1
  0
ENDBLK
  5
A4
  8
0
  0
BLOCK
  8
0
  2
*D8
 70
     1
 10
0.0
 20
0.0
 30
0.0
  3
*D8
  1

  0
LINE
  5
A8
  8
____1
  6
CONTINUOUS
 62
     7
 10
16980.34833591156
 20
10572.449825262631
 30
0.0
 11
16987.93824675768
 21
10572.449825262631
 31
0.0
  0
LINE
  5
A9
  8
____1
  6
CONTINUOUS
 62
     7
 10
16987.93824675768
 20
10832.855671925719
 30
0.0
 11
16987.93824675768
 21
10564.44982526264
 31
0.0
  0
LINE
  5
AA
  8
____1
  6
CONTINUOUS
 62
     7
 10
16980.34833591156
 20
10857.71120166384
 30
0.0
 11
16980.34833591156
 21
10564.44982526264
 31
0.0
  0
SOLID
  5
AB
  8
____1
  6
CONTINUOUS
 62
     7
 10
16979.59833591156
 20
10569.44982526264
 30
0.0
 11
16981.09833591156
 21
10569.44982526264
 31
0.0
 12
16978.09833591156
 22
10570.19982526264
 32
0.0
 13
16982.59833591156
 23
10570.19982526264
 33
0.0
  0
SOLID
  5
AC
  8
____1
  6
CONTINUOUS
 62
     7
 10
16978.09833591156
 20
10570.19982526264
 30
0.0
 11
16982.59833591156
 21
10570.19982526264
 31
0.0
 12
16977.34833591156
 22
10571.69982526264
 32
0.0
 13
16983.34833591156
 23
10571.69982526264
 33
0.0
  0
SOLID
  5
AD
  8
____1
  6
CONTINUOUS
 62
     7
 10
16977.34833591156
 20
10571.69982526264
 30
0.0
 11
16983.34833591156
 21
10571.69982526264
 31
0.0
 12
16977.34833591156
 22
10573.19982526264
 32
0.0
 13
16983.34833591156
 23
10573.19982526264
 33
0.0
  0
SOLID
  5
AE
  8
____1
  6
CONTINUOUS
 62
     7
 10
16977.34833591156
 20
10573.19982526264
 30
0.0
 11
16983.34833591156
 21
10573.19982526264
 31
0.0
 12
16978.09833591156
 22
10574.69982526264
 32
0.0
 13
16982.59833591156
 23
10574.69982526264
 33
0.0
  0
SOLID
  5
AF
  8
____1
  6
CONTINUOUS
 62
     7
 10
16978.09833591156
 20
10574.69982526264
 30
0.0
 11
16982.59833591156
 21
10574.69982526264
 31
0.0
 12
16979.59833591156
 22
10575.44982526264
 32
0.0
 13
16981.09833591156
 23
10575.44982526264
 33
0.0
  0
LINE
  5
B0
  8
____1
  6
CONTINUOUS
 62
     7
 10
16980.34833591156
 20
10572.449825262631
 30
0.0
 11
16940.34833591156
 21
10572.449825262631
 31
0.0
  0
SOLID
  5
B1
  8
____1
  6
CONTINUOUS
 62
     7
 10
16987.18824675768
 20
10569.44982526264
 30
0.0
 11
16988.688246757691
 21
10569.44982526264
 31
0.0
 12
16985.688246757691
 22
10570.19982526264
 32
0.0
 13
16990.18824675768
 23
10570.19982526264
 33
0.0
  0
SOLID
  5
B2
  8
____1
  6
CONTINUOUS
 62
     7
 10
16985.688246757691
 20
10570.19982526264
 30
0.0
 11
16990.18824675768
 21
10570.19982526264
 31
0.0
 12
16984.938246757691
 22
10571.69982526264
 32
0.0
 13
16990.93824675768
 23
10571.69982526264
 33
0.0
  0
SOLID
  5
B3
  8
____1
  6
CONTINUOUS
 62
     7
 10
16984.938246757691
 20
10571.69982526264
 30
0.0
 11
16990.93824675768
 21
10571.69982526264
 31
0.0
 12
16984.938246757691
 22
10573.19982526264
 32
0.0
 13
16990.93824675768
 23
10573.19982526264
 33
0.0
  0
SOLID
  5
B4
  8
____1
  6
CONTINUOUS
 62
     7
 10
16984.938246757691
 20
10573.19982526264
 30
0.0
 11
16990.93824675768
 21
10573.19982526264
 31
0.0
 12
16985.688246757691
 22
10574.69982526264
 32
0.0
 13
16990.18824675768
 23
10574.69982526264
 33
0.0
  0
SOLID
  5
B5
  8
____1
  6
CONTINUOUS
 62
     7
 10
16985.688246757691
 20
10574.69982526264
 30
0.0
 11
16990.18824675768
 21
10574.69982526264
 31
0.0
 12
16987.18824675768
 22
10575.44982526264
 32
0.0
 13
16988.688246757691
 23
10575.44982526264
 33
0.0
  0
LINE
  5
B6
  8
____1
  6
CONTINUOUS
 62
     7
 10
16987.93824675768
 20
10572.449825262631
 30
0.0
 11
17027.938246757691
 21
10572.449825262631
 31
0.0
  0
ENDBLK
  5
B7
  8
0
  0
BLOCK
  8
0
  2
C2
 70
     0
 10
0.0
 20
0.0
 30
0.0
  3
C2
  1

  0
CIRCLE
  5
BB
  8
____1
  6
CONTINUOUS
 62
     7
 10
16731.31290287714
 20
10715.99846544144
 30
0.0
 40
28.0
  0
TEXT
  5
BC
  8
____1
  6
DOT
 62
     7
 10
16724.257347533508
 20
10706.00309537131
 30
0.0
 40
28.222221374511719
  1
8
  7
STYLE1
  0
LINE
  5
BD
  8
______
  6
CONTINUOUS
 62
     7
 10
16777.979569543812
 20
10715.99846544144
 30
0.0
 11
16759.31290287714
 21
10715.99846544144
 31
0.0
  0
LINE
  5
BE
  8
______
  6
CONTINUOUS
 62
     7
 10
16938.68824675768
 20
10876.70714265533
 30
0.0
 11
16777.979569543812
 21
10715.99846544144
 31
0.0
  0
SOLID
  5
BF
  8
______
 62
     7
 10
16938.68824675768
 20
10876.70714265533
 30
0.0
 11
16931.61717894582
 21
10872.46450196821
 31
0.0
 12
16938.68824675768
 22
10876.70714265533
 32
0.0
 13
16934.44560607056
 23
10872.46450196821
 33
0.0
  0
SOLID
  5
C0
  8
______
 62
     7
 10
16934.44560607056
 20
10872.46450196821
 30
0.0
 11
16934.44560607056
 21
10869.63607484346
 31
0.0
 12
16938.68824675768
 22
10876.70714265533
 32
0.0
 13
16938.68824675768
 23
10876.70714265533
 33
0.0
  0
ENDBLK
  5
C1
  8
0
  0
BLOCK
  8
0
  2
C3
 70
     0
 10
0.0
 20
0.0
 30
0.0
  3
C3
  1

  0
LINE
  5
CC
  8
UNASSIGNED
  6
DASHED
 62
     7
 10
14999.79270239126
 20
10236.490510715639
 30
0.0
 11
14999.79270239126
 21
10283.76080486156
 31
0.0
  0
ARC
  5
CD
  8
UNASSIGNED
  6
DASHED
 62
     7
 10
15196.79270239126
 20
10363.490510715639
 30
0.0
 40
1.5
 50
0.0
 51
90.0
  0
LINE
  5
CE
  8
UNASSIGNED
  6
DASHED
 62
     7
 10
14999.79270239126
 20
10283.76080486156
 30
0.0
 11
15148.441231661651
 21
10313.490510715639
 31
0.0
  0
LINE
  5
CF
  8
UNASSIGNED
  6
DASHED
 62
     7
 10
15148.441231661651
 20
10313.490510715639
 30
0.0
 11
15196.79270239126
 21
10313.490510715639
 31
0.0
  0
LINE
  5
D0
  8
UNASSIGNED
  6
CONTINUOUS
 62
     5
 10
14998.29270239126
 20
10236.490510715639
 30
0.0
 11
14998.29270239126
 21
10283.76080486156
 31
0.0
  0
ARC
  5
D1
  8
UNASSIGNED
  6
CONTINUOUS
 62
     5
 10
15896.79270239126
 20
10236.490510715639
 30
0.0
 40
1.5
 50
-90.0
 51
0.0
  0
ARC
  5
D2
  8
UNASSIGNED
  6
DASHED
 62
     7
 10
15896.79270239126
 20
10236.490510715639
 30
0.0
 40
1.5
 50
180.0
 51
-90.0
  0
LINE
  5
D3
  8
UNASSIGNED
  6
CONTINUOUS
 62
     5
 10
15898.292702391271
 20
10236.490510715639
 30
0.0
 11
15898.292702391271
 21
10283.76080486156
 31
0.0
  0
ARC
  5
D4
  8
UNASSIGNED
  6
CONTINUOUS
 62
     5
 10
15896.79270239126
 20
10283.76080486156
 30
0.0
 40
1.499999999998219
 50
0.0
 51
78.690067525979785
  0
LINE
  5
D5
  8
UNASSIGNED
  6
CONTINUOUS
 62
     5
 10
15748.144173120871
 20
10314.990510715639
 30
0.0
 11
15699.79270239126
 21
10314.990510715639
 31
0.0
  0
ARC
  5
D6
  8
UNASSIGNED
  6
CONTINUOUS
 62
     5
 10
15748.144173120871
 20
10313.490510715639
 30
0.0
 40
1.5
 50
78.690067525979785
 51
90.0
  0
LINE
  5
D7
  8
UNASSIGNED
  6
DASHED
 62
     7
 10
15896.79270239126
 20
10283.76080486156
 30
0.0
 11
15748.144173120871
 21
10313.490510715639
 31
0.0
  0
LINE
  5
D8
  8
UNASSIGNED
  6
DASHED
 62
     7
 10
15748.144173120871
 20
10313.490510715639
 30
0.0
 11
15699.792702391271
 21
10313.490510715639
 31
0.0
  0
ARC
  5
D9
  8
UNASSIGNED
  6
DASHED
 62
     7
 10
15699.792702391271
 20
10314.990510715639
 30
0.0
 40
1.5
 50
180.0
 51
-90.0
  0
LINE
  5
DA
  8
UNASSIGNED
  6
DASHED
 62
     7
 10
15698.29270239126
 20
10314.990510715639
 30
0.0
 11
15698.29270239126
 21
10363.490510715639
 31
0.0
  0
LINE
  5
DB
  8
UNASSIGNED
  6
DASHED
 62
     7
 10
15896.79270239126
 20
10244.990510715639
 30
0.0
 11
15895.292702391271
 21
10244.990510715639
 31
0.0
  0
ARC
  5
DC
  8
UNASSIGNED
  6
DASHED
 62
     7
 10
15196.79270239126
 20
10314.990510715639
 30
0.0
 40
1.5
 50
-90.0
 51
0.0
  0
LINE
  5
DD
  8
UNASSIGNED
  6
DASHED
 62
     7
 10
14999.79270239126
 20
10244.990510715639
 30
0.0
 11
15001.29270239126
 21
10244.990510715639
 31
0.0
  0
ARC
  5
DE
  8
UNASSIGNED
  6
DASHED
 62
     7
 10
14999.79270239126
 20
10236.490510715639
 30
0.0
 40
1.5
 50
180.0
 51
0.0
  0
LINE
  5
DF
  8
UNASSIGNED
  6
DASHED
 62
     7
 10
15198.29270239126
 20
10314.990510715639
 30
0.0
 11
15198.29270239126
 21
10363.490510715639
 31
0.0
  0
LINE
  5
E0
  8
UNASSIGNED
  6
CONTINUOUS
 62
     5
 10
15699.792702391271
 20
10314.990510715639
 30
0.0
 11
15699.792702391271
 21
10321.490510715639
 31
0.0
  0
ARC
  5
E1
  8
UNASSIGNED
  6
CONTINUOUS
 62
     5
 10
15148.441231661651
 20
10313.490510715639
 30
0.0
 40
1.5
 50
90.0
 51
101.3099324740202
  0
LINE
  5
E2
  8
UNASSIGNED
  6
CONTINUOUS
 62
     5
 10
15190.29270239126
 20
10363.490510715639
 30
0.0
 11
15190.29270239126
 21
10364.990510715639
 31
0.0
  0
LINE
  5
E3
  8
____1
  6
CONTINUOUS
 62
     5
 10
15196.79270239126
 20
10314.990510715639
 30
0.0
 11
15196.79270239126
 21
10321.490510715639
 31
0.0
  0
LINE
  5
E4
  8
____1
  6
DASHED2
 62
     7
 10
15190.29270239126
 20
10363.490510715639
 30
0.0
 11
15706.29270239126
 21
10363.490510715639
 31
0.0
  0
LINE
  5
E5
  8
UNASSIGNED
  6
DASHED
 62
     7
 10
15001.29270239126
 20
10236.490510715639
 30
0.0
 11
15001.29270239126
 21
10244.990510715639
 31
0.0
  0
LINE
  5
E6
  8
UNASSIGNED
  6
DASHED2
 62
     7
 10
15196.79270239126
 20
10314.990510715639
 30
0.0
 11
15196.79270239126
 21
10363.490510715639
 31
0.0
  0
LINE
  5
E7
  8
____1
  6
CONTINUOUS
 62
     5
 10
14999.79270239126
 20
10284.990510715639
 30
0.0
 11
15148.29270239126
 21
10314.990510715639
 31
0.0
  0
LINE
  5
E8
  8
____1
  6
DASHED
 62
     7
 10
15001.592702391261
 20
10234.990510715639
 30
0.0
 11
15001.592702391261
 21
10244.990510715639
 31
0.0
  0
LINE
  5
E9
  8
____1
  6
CONTINUOUS
 62
     5
 10
14998.29270239126
 20
10234.990510715639
 30
0.0
 11
14998.29270239126
 21
10284.990510715639
 31
0.0
  0
LINE
  5
EA
  8
UNASSIGNED
  6
DASHED2
 62
     7
 10
15190.29270239126
 20
10364.990510715639
 30
0.0
 11
15196.79270239126
 21
10364.990510715639
 31
0.0
  0
LINE
  5
EB
  8
UNASSIGNED
  6
DASHED2
 62
     7
 10
15190.29270239126
 20
10363.490510715639
 30
0.0
 11
15196.79270239126
 21
10363.490510715639
 31
0.0
  0
LINE
  5
EC
  8
____1
  6
DASHED2
 62
     7
 10
15190.29270239126
 20
10363.490510715639
 30
0.0
 11
15190.29270239126
 21
10364.990510715639
 31
0.0
  0
LINE
  5
ED
  8
UNASSIGNED
  6
DASHED2
 62
     7
 10
15706.29270239126
 20
10363.490510715639
 30
0.0
 11
15699.792702391271
 21
10363.490510715639
 31
0.0
  0
LINE
  5
EE
  8
UNASSIGNED
  6
DASHED2
 62
     7
 10
15699.792702391271
 20
10321.490510715639
 30
0.0
 11
15699.792702391271
 21
10363.490510715639
 31
0.0
  0
LINE
  5
EF
  8
____1
  6
CONTINUOUS
 62
     5
 10
15896.79270239126
 20
10234.990510715639
 30
0.0
 11
15896.79270239126
 21
10284.990510715639
 31
0.0
  0
LINE
  5
F0
  8
UNASSIGNED
  6
DASHED
 62
     7
 10
15895.292702391271
 20
10236.490510715639
 30
0.0
 11
15895.292702391271
 21
10244.990510715639
 31
0.0
  0
LINE
  5
F1
  8
UNASSIGNED
  6
DASHED
 62
     7
 10
15896.79270239126
 20
10236.490510715639
 30
0.0
 11
15896.79270239126
 21
10283.76080486156
 31
0.0
  0
ARC
  5
F2
  8
UNASSIGNED
  6
DASHED
 62
     7
 10
15699.792702391271
 20
10363.490510715639
 30
0.0
 40
1.5
 50
90.0
 51
180.0
  0
LINE
  5
F3
  8
UNASSIGNED
  6
CONTINUOUS
 62
     5
 10
15897.08687659397
 20
10285.2316758751
 30
0.0
 11
15748.438347323579
 21
10314.96138172917
 31
0.0
  0
LINE
  5
F4
  8
UNASSIGNED
  6
DASHED2
 62
     7
 10
15706.29270239126
 20
10364.990510715639
 30
0.0
 11
15699.792702391271
 21
10364.990510715639
 31
0.0
  0
LINE
  5
F5
  8
____1
  6
DASHED2
 62
     7
 10
15706.29270239126
 20
10363.490510715639
 30
0.0
 11
15706.29270239126
 21
10364.990510715639
 31
0.0
  0
LINE
  5
F6
  8
____1
  6
CONTINUOUS
 62
     5
 10
15896.79270239126
 20
10284.990510715639
 30
0.0
 11
15748.29270239126
 21
10314.990510715639
 31
0.0
  0
LINE
  5
F7
  8
____1
  6
CONTINUOUS
 62
     5
 10
15148.29270239126
 20
10314.990510715639
 30
0.0
 11
15748.29270239126
 21
10314.990510715639
 31
0.0
  0
LINE
  5
F8
  8
____1
  6
CONTINUOUS
 62
     5
 10
14998.29270239126
 20
10284.990510715639
 30
0.0
 11
15896.79270239126
 21
10284.990510715639
 31
0.0
  0
LINE
  5
F9
  8
____1
  6
DASHED
 62
     7
 10
15001.592702391261
 20
10244.990510715639
 30
0.0
 11
15896.79270239126
 21
10244.990510715639
 31
0.0
  0
LINE
  5
FA
  8
____1
  6
CONTINUOUS
 62
     5
 10
14998.29270239126
 20
10234.990510715639
 30
0.0
 11
15896.79270239126
 21
10234.990510715639
 31
0.0
  0
LINE
  5
FB
  8
____1
  6
DASHED2
 62
     7
 10
15190.29270239126
 20
10364.990510715639
 30
0.0
 11
15706.29270239126
 21
10364.990510715639
 31
0.0
  0
ARC
  5
FC
  8
UNASSIGNED
  6
CONTINUOUS
 62
     5
 10
14999.79270239126
 20
10283.76080486156
 30
0.0
 40
1.499999999998219
 50
101.3099324740202
 51
180.0
  0
LINE
  5
FD
  8
UNASSIGNED
  6
CONTINUOUS
 62
     5
 10
15148.441231661651
 20
10314.990510715639
 30
0.0
 11
15196.79270239126
 21
10314.990510715639
 31
0.0
  0
LINE
  5
FE
  8
UNASSIGNED
  6
CONTINUOUS
 62
     5
 10
14999.498528188549
 20
10285.2316758751
 30
0.0
 11
15148.14705745894
 21
10314.96138172917
 31
0.0
  0
ENDBLK
  5
FF
  8
0
  0
BLOCK
  8
0
  2
*D11
 70
     1
 10
0.0
 20
0.0
 30
0.0
  3
*D11
  1

  0
LINE
  5
103
  8
____1
  6
CONTINUOUS
 62
     7
 10
15120.79270214025
 20
9922.4949363804972
 30
0.0
 11
15120.79270214025
 21
9831.2243608716144
 31
0.0
  0
LINE
  5
104
  8
____1
  6
CONTINUOUS
 62
     7
 10
14999.79270214025
 20
9901.9546425877652
 30
0.0
 11
14999.79270214025
 21
9831.2243608716144
 31
0.0
  0
SOLID
  5
105
  8
____1
  6
CONTINUOUS
 62
     7
 10
15019.79270214025
 20
9835.2243608716144
 30
0.0
 11
15019.79270214025
 21
9835.2243608716144
 31
0.0
 12
14999.79270214025
 22
9839.2243608716144
 32
0.0
 13
15014.79270214025
 23
9839.2243608716144
 33
0.0
  0
SOLID
  5
106
  8
____1
  6
CONTINUOUS
 62
     7
 10
14999.79270214025
 20
9839.2243608716144
 30
0.0
 11
15014.79270214025
 21
9839.2243608716144
 31
0.0
 12
15019.79270214025
 22
9843.2243608716162
 32
0.0
 13
15019.79270214025
 23
9843.2243608716162
 33
0.0
  0
LINE
  5
107
  8
____1
  6
CONTINUOUS
 62
     7
 10
14999.79270214025
 20
9839.2243608716144
 30
0.0
 11
15060.29270214025
 21
9839.2243608716144
 31
0.0
  0
SOLID
  5
108
  8
____1
  6
CONTINUOUS
 62
     7
 10
15100.79270214025
 20
9835.2243608716144
 30
0.0
 11
15100.79270214025
 21
9835.2243608716144
 31
0.0
 12
15105.79270214025
 22
9839.2243608716144
 32
0.0
 13
15120.79270214025
 23
9839.2243608716144
 33
0.0
  0
SOLID
  5
109
  8
____1
  6
CONTINUOUS
 62
     7
 10
15105.79270214025
 20
9839.2243608716144
 30
0.0
 11
15120.79270214025
 21
9839.2243608716144
 31
0.0
 12
15100.79270214025
 22
9843.2243608716162
 32
0.0
 13
15100.79270214025
 23
9843.2243608716162
 33
0.0
  0
LINE
  5
10A
  8
____1
  6
CONTINUOUS
 62
     7
 10
15120.79270214025
 20
9839.2243608716144
 30
0.0
 11
15060.29270214025
 21
9839.2243608716144
 31
0.0
  0
TEXT
  5
10B
  8
______
  6
CENTER2
 62
     7
 10
15039.12603610937
 20
9847.3401014887313
 30
0.0
 40
28.222221374511719
  1
121
  7
STYLE1
  0
ENDBLK
  5
10C
  8
0
  0
BLOCK
  8
0
  2
*D12
 70
     1
 10
0.0
 20
0.0
 30
0.0
  3
*D12
  1

  0
LINE
  5
111
  8
____1
  6
CONTINUOUS
 62
     7
 10
15898.292702391271
 20
10682.70714265533
 30
0.0
 11
15898.292702391271
 21
10508.61126704558
 31
0.0
  0
LINE
  5
112
  8
____1
  6
CONTINUOUS
 62
     7
 10
14998.29270239126
 20
10682.70714265533
 30
0.0
 11
14998.29270239126
 21
10508.61126704558
 31
0.0
  0
SOLID
  5
113
  8
____1
  6
CONTINUOUS
 62
     7
 10
15018.29270239126
 20
10512.61126704558
 30
0.0
 11
15018.29270239126
 21
10512.61126704558
 31
0.0
 12
14998.29270239126
 22
10516.61126704558
 32
0.0
 13
15013.29270239126
 23
10516.61126704558
 33
0.0
  0
SOLID
  5
114
  8
____1
  6
CONTINUOUS
 62
     7
 10
14998.29270239126
 20
10516.61126704558
 30
0.0
 11
15013.29270239126
 21
10516.61126704558
 31
0.0
 12
15018.29270239126
 22
10520.61126704558
 32
0.0
 13
15018.29270239126
 23
10520.61126704558
 33
0.0
  0
LINE
  5
115
  8
____1
  6
CONTINUOUS
 62
     7
 10
14998.29270239126
 20
10516.61126704558
 30
0.0
 11
15448.29270239126
 21
10516.61126704558
 31
0.0
  0
SOLID
  5
116
  8
____1
  6
CONTINUOUS
 62
     7
 10
15878.292702391271
 20
10512.61126704558
 30
0.0
 11
15878.292702391271
 21
10512.61126704558
 31
0.0
 12
15883.29270239126
 22
10516.61126704558
 32
0.0
 13
15898.292702391271
 23
10516.61126704558
 33
0.0
  0
SOLID
  5
117
  8
____1
  6
CONTINUOUS
 62
     7
 10
15883.29270239126
 20
10516.61126704558
 30
0.0
 11
15898.292702391271
 21
10516.61126704558
 31
0.0
 12
15878.292702391271
 22
10520.61126704558
 32
0.0
 13
15878.292702391271
 23
10520.61126704558
 33
0.0
  0
LINE
  5
118
  8
____1
  6
CONTINUOUS
 62
     7
 10
15898.292702391271
 20
10516.61126704558
 30
0.0
 11
15448.29270239126
 21
10516.61126704558
 31
0.0
  0
TEXT
  5
119
  8
______
  6
DASHED2
 62
     7
 10
15427.12603636038
 20
10524.727007662699
 30
0.0
 40
28.222221374511719
  1
900
  7
STYLE1
  0
ENDBLK
  5
11A
  8
0
  0
BLOCK
  8
0
  2
*D13
 70
     1
 10
0.0
 20
0.0
 30
0.0
  3
*D13
  1

  0
LINE
  5
11E
  8
____1
  6
CONTINUOUS
 62
     7
 10
14998.29270214025
 20
9931.2921789760585
 30
0.0
 11
14998.29270214025
 21
10063.503351478301
 31
0.0
  0
LINE
  5
11F
  8
____1
  6
CONTINUOUS
 62
     7
 10
15138.29270214025
 20
9936.9949363804972
 30
0.0
 11
15138.29270214025
 21
10063.503351478301
 31
0.0
  0
SOLID
  5
120
  8
____1
  6
CONTINUOUS
 62
     7
 10
15118.29270214025
 20
10051.50335147829
 30
0.0
 11
15118.29270214025
 21
10051.50335147829
 31
0.0
 12
15123.29270214025
 22
10055.503351478301
 32
0.0
 13
15138.29270214025
 23
10055.503351478301
 33
0.0
  0
SOLID
  5
121
  8
____1
  6
CONTINUOUS
 62
     7
 10
15123.29270214025
 20
10055.503351478301
 30
0.0
 11
15138.29270214025
 21
10055.503351478301
 31
0.0
 12
15118.29270214025
 22
10059.503351478301
 32
0.0
 13
15118.29270214025
 23
10059.503351478301
 33
0.0
  0
LINE
  5
122
  8
____1
  6
CONTINUOUS
 62
     7
 10
15138.29270214025
 20
10055.503351478301
 30
0.0
 11
15068.29270214025
 21
10055.503351478301
 31
0.0
  0
SOLID
  5
123
  8
____1
  6
CONTINUOUS
 62
     7
 10
15018.29270214025
 20
10051.50335147829
 30
0.0
 11
15018.29270214025
 21
10051.50335147829
 31
0.0
 12
14998.29270214025
 22
10055.503351478301
 32
0.0
 13
15013.29270214025
 23
10055.503351478301
 33
0.0
  0
SOLID
  5
124
  8
____1
  6
CONTINUOUS
 62
     7
 10
14998.29270214025
 20
10055.503351478301
 30
0.0
 11
15013.29270214025
 21
10055.503351478301
 31
0.0
 12
15018.29270214025
 22
10059.503351478301
 32
0.0
 13
15018.29270214025
 23
10059.503351478301
 33
0.0
  0
LINE
  5
125
  8
____1
  6
CONTINUOUS
 62
     7
 10
14998.29270214025
 20
10055.503351478301
 30
0.0
 11
15068.29270214025
 21
10055.503351478301
 31
0.0
  0
TEXT
  5
126
  8
______
  6
CENTER2
 62
     7
 10
15047.12603610937
 20
10063.61909209541
 30
0.0
 40
28.222221374511719
  1
140
  7
STYLE1
  0
ENDBLK
  5
127
  8
0
  0
BLOCK
  8
0
  2
*D14
 70
     1
 10
0.0
 20
0.0
 30
0.0
  3
*D14
  1

  0
LINE
  5
12E
  8
____1
  6
CONTINUOUS
 62
     7
 10
15121.79270239126
 20
11336.707142655319
 30
0.0
 11
14929.600956132061
 21
11336.707142655319
 31
0.0
  0
LINE
  5
12F
  8
____1
  6
CONTINUOUS
 62
     7
 10
14994.29270239126
 20
11586.70714265533
 30
0.0
 11
14929.600956132061
 21
11586.70714265533
 31
0.0
  0
SOLID
  5
130
  8
____1
  6
CONTINUOUS
 62
     7
 10
14933.600956132061
 20
11566.70714265533
 30
0.0
 11
14933.600956132061
 21
11566.70714265533
 31
0.0
 12
14934.600956132061
 22
11571.707142655319
 32
0.0
 13
14937.600956132061
 23
11571.707142655319
 33
0.0
  0
SOLID
  5
131
  8
____1
  6
CONTINUOUS
 62
     7
 10
14941.60095613205
 20
11566.70714265533
 30
0.0
 11
14941.60095613205
 21
11566.70714265533
 31
0.0
 12
14937.600956132061
 22
11571.707142655319
 32
0.0
 13
14940.60095613205
 23
11571.707142655319
 33
0.0
  0
SOLID
  5
132
  8
____1
  6
CONTINUOUS
 62
     7
 10
14934.600956132061
 20
11571.707142655319
 30
0.0
 11
14940.60095613205
 21
11571.707142655319
 31
0.0
 12
14937.600956132061
 22
11586.70714265533
 32
0.0
 13
14937.600956132061
 23
11586.70714265533
 33
0.0
  0
LINE
  5
133
  8
____1
  6
CONTINUOUS
 62
     7
 10
14937.600956132061
 20
11586.70714265533
 30
0.0
 11
14937.600956132061
 21
11461.707142655319
 31
0.0
  0
SOLID
  5
134
  8
____1
  6
CONTINUOUS
 62
     7
 10
14937.600956132061
 20
11336.707142655319
 30
0.0
 11
14937.600956132061
 21
11336.707142655319
 31
0.0
 12
14934.600956132061
 22
11351.707142655319
 32
0.0
 13
14940.60095613205
 23
11351.707142655319
 33
0.0
  0
SOLID
  5
135
  8
____1
  6
CONTINUOUS
 62
     7
 10
14934.600956132061
 20
11351.707142655319
 30
0.0
 11
14937.600956132061
 21
11351.707142655319
 31
0.0
 12
14933.600956132061
 22
11356.707142655319
 32
0.0
 13
14933.600956132061
 23
11356.707142655319
 33
0.0
  0
SOLID
  5
136
  8
____1
  6
CONTINUOUS
 62
     7
 10
14937.600956132061
 20
11351.707142655319
 30
0.0
 11
14940.60095613205
 21
11351.707142655319
 31
0.0
 12
14941.60095613205
 22
11356.707142655319
 32
0.0
 13
14941.60095613205
 23
11356.707142655319
 33
0.0
  0
LINE
  5
137
  8
____1
  6
CONTINUOUS
 62
     7
 10
14937.600956132061
 20
11336.707142655319
 30
0.0
 11
14937.600956132061
 21
11461.707142655319
 31
0.0
  0
TEXT
  5
138
  8
______
  6
DASHED2
 62
     7
 10
14929.48521551494
 20
11440.540476624439
 30
0.0
 40
28.222221374511719
  1
250
 50
90.0
  7
STYLE1
  0
ENDBLK
  5
139
  8
0
  0
BLOCK
  8
0
  2
C4
 70
     0
 10
0.0
 20
0.0
 30
0.0
  3
C4
  1

  0
CIRCLE
  5
13D
  8
____1
  6
CONTINUOUS
 62
     7
 10
14722.54782167898
 20
11309.08915886089
 30
0.0
 40
28.0
  0
TEXT
  5
13E
  8
____1
  6
CONTINUOUS
 62
     7
 10
14715.49226633535
 20
11299.093788790749
 30
0.0
 40
28.222221374511719
  1
4
  7
STYLE1
  0
LINE
  5
13F
  8
______
  6
CONTINUOUS
 62
     7
 10
14769.21448834564
 20
11309.08915886089
 30
0.0
 11
14750.54782167898
 21
11309.08915886089
 31
0.0
  0
LINE
  5
140
  8
______
  6
CONTINUOUS
 62
     7
 10
15215.29272029491
 20
11210.13343441192
 30
0.0
 11
14769.21448834564
 21
11309.08915886089
 31
0.0
  0
SOLID
  5
141
  8
______
 62
     7
 10
15215.29272029491
 20
11210.13343441192
 30
0.0
 11
15207.91572399902
 21
11213.818529478591
 31
0.0
 12
15215.29272029491
 22
11210.13343441192
 32
0.0
 13
15209.43511789781
 23
11211.432855112649
 33
0.0
  0
SOLID
  5
142
  8
______
 62
     7
 10
15209.43511789781
 20
11211.432855112649
 30
0.0
 11
15207.049443531871
 21
11209.913461213861
 31
0.0
 12
15215.29272029491
 22
11210.13343441192
 32
0.0
 13
15215.29272029491
 23
11210.13343441192
 33
0.0
  0
ENDBLK
  5
143
  8
0
  0
BLOCK
  8
0
  2
C5
 70
     0
 10
0.0
 20
0.0
 30
0.0
  3
C5
  1

  0
CIRCLE
  5
147
  8
____1
  6
CONTINUOUS
 62
     7
 10
14722.54782167898
 20
10982.03914390691
 30
0.0
 40
28.0
  0
TEXT
  5
148
  8
____1
  6
DOT
 62
     7
 10
14715.49226633535
 20
10972.043773836769
 30
0.0
 40
28.222221374511719
  1
5
  7
STYLE1
  0
LINE
  5
149
  8
______
  6
CONTINUOUS
 62
     7
 10
14769.21448834564
 20
10982.03914390691
 30
0.0
 11
14750.54782167898
 21
10982.03914390691
 31
0.0
  0
LINE
  5
14A
  8
______
  6
CONTINUOUS
 62
     7
 10
15198.79270239126
 20
11082.051643906911
 30
0.0
 11
14769.21448834564
 21
10982.03914390691
 31
0.0
  0
SOLID
  5
14B
  8
______
 62
     7
 10
15198.79270239126
 20
11082.051643906911
 30
0.0
 11
15190.54757824065
 21
11082.1855384214
 31
0.0
 12
15198.79270239126
 22
11082.051643906911
 32
0.0
 13
15192.9489863118
 23
11080.69113577292
 33
0.0
  0
SOLID
  5
14C
  8
______
 62
     7
 10
15192.9489863118
 20
11080.69113577292
 30
0.0
 11
15191.454583663321
 21
11078.289727701769
 31
0.0
 12
15198.79270239126
 22
11082.051643906911
 32
0.0
 13
15198.79270239126
 23
11082.051643906911
 33
0.0
  0
ENDBLK
  5
14D
  8
0
  0
BLOCK
  8
0
  2
*D17
 70
     1
 10
0.0
 20
0.0
 30
0.0
  3
*D17
  1

  0
LINE
  5
151
  8
____1
  6
CONTINUOUS
 62
     7
 10
14998.29270239126
 20
11590.707142655319
 30
0.0
 11
14998.29270239126
 21
11646.90750784276
 31
0.0
  0
LINE
  5
152
  8
____1
  6
CONTINUOUS
 62
     7
 10
15138.29270239126
 20
11362.457142655319
 30
0.0
 11
15138.29270239126
 21
11646.90750784276
 31
0.0
  0
SOLID
  5
153
  8
____1
  6
CONTINUOUS
 62
     7
 10
15118.29270239126
 20
11634.90750784275
 30
0.0
 11
15118.29270239126
 21
11634.90750784275
 31
0.0
 12
15123.29270239126
 22
11638.90750784275
 32
0.0
 13
15138.29270239126
 23
11638.90750784275
 33
0.0
  0
SOLID
  5
154
  8
____1
  6
CONTINUOUS
 62
     7
 10
15123.29270239126
 20
11638.90750784275
 30
0.0
 11
15138.29270239126
 21
11638.90750784275
 31
0.0
 12
15118.29270239126
 22
11642.90750784276
 32
0.0
 13
15118.29270239126
 23
11642.90750784276
 33
0.0
  0
LINE
  5
155
  8
____1
  6
CONTINUOUS
 62
     7
 10
15138.29270239126
 20
11638.90750784275
 30
0.0
 11
15068.29270239126
 21
11638.90750784275
 31
0.0
  0
SOLID
  5
156
  8
____1
  6
CONTINUOUS
 62
     7
 10
15018.29270239126
 20
11634.90750784275
 30
0.0
 11
15018.29270239126
 21
11634.90750784275
 31
0.0
 12
14998.29270239126
 22
11638.90750784275
 32
0.0
 13
15013.29270239126
 23
11638.90750784275
 33
0.0
  0
SOLID
  5
157
  8
____1
  6
CONTINUOUS
 62
     7
 10
14998.29270239126
 20
11638.90750784275
 30
0.0
 11
15013.29270239126
 21
11638.90750784275
 31
0.0
 12
15018.29270239126
 22
11642.90750784276
 32
0.0
 13
15018.29270239126
 23
11642.90750784276
 33
0.0
  0
LINE
  5
158
  8
____1
  6
CONTINUOUS
 62
     7
 10
14998.29270239126
 20
11638.90750784275
 30
0.0
 11
15068.29270239126
 21
11638.90750784275
 31
0.0
  0
TEXT
  5
159
  8
______
  6
DASHED2
 62
     7
 10
15047.12603636038
 20
11647.023248459869
 30
0.0
 40
28.222221374511719
  1
140
  7
STYLE1
  0
ENDBLK
  5
15A
  8
0
  0
BLOCK
  8
0
  2
*D18
 70
     1
 10
0.0
 20
0.0
 30
0.0
  3
*D18
  1

  0
LINE
  5
15E
  8
____1
  6
CONTINUOUS
 62
     7
 10
15121.79270239126
 20
10936.707142655319
 30
0.0
 11
14929.600956132061
 21
10936.707142655319
 31
0.0
  0
LINE
  5
15F
  8
____1
  6
CONTINUOUS
 62
     7
 10
15121.79270239126
 20
11336.707142655319
 30
0.0
 11
14929.600956132061
 21
11336.707142655319
 31
0.0
  0
SOLID
  5
160
  8
____1
  6
CONTINUOUS
 62
     7
 10
14933.600956132061
 20
11316.707142655319
 30
0.0
 11
14933.600956132061
 21
11316.707142655319
 31
0.0
 12
14934.600956132061
 22
11321.707142655319
 32
0.0
 13
14937.600956132061
 23
11321.707142655319
 33
0.0
  0
SOLID
  5
161
  8
____1
  6
CONTINUOUS
 62
     7
 10
14941.60095613205
 20
11316.707142655319
 30
0.0
 11
14941.60095613205
 21
11316.707142655319
 31
0.0
 12
14937.600956132061
 22
11321.707142655319
 32
0.0
 13
14940.60095613205
 23
11321.707142655319
 33
0.0
  0
SOLID
  5
162
  8
____1
  6
CONTINUOUS
 62
     7
 10
14934.600956132061
 20
11321.707142655319
 30
0.0
 11
14940.60095613205
 21
11321.707142655319
 31
0.0
 12
14937.600956132061
 22
11336.707142655319
 32
0.0
 13
14937.600956132061
 23
11336.707142655319
 33
0.0
  0
LINE
  5
163
  8
____1
  6
CONTINUOUS
 62
     7
 10
14937.600956132061
 20
11336.707142655319
 30
0.0
 11
14937.600956132061
 21
11136.707142655319
 31
0.0
  0
SOLID
  5
164
  8
____1
  6
CONTINUOUS
 62
     7
 10
14937.600956132061
 20
10936.707142655319
 30
0.0
 11
14937.600956132061
 21
10936.707142655319
 31
0.0
 12
14934.600956132061
 22
10951.707142655319
 32
0.0
 13
14940.60095613205
 23
10951.707142655319
 33
0.0
  0
SOLID
  5
165
  8
____1
  6
CONTINUOUS
 62
     7
 10
14934.600956132061
 20
10951.707142655319
 30
0.0
 11
14937.600956132061
 21
10951.707142655319
 31
0.0
 12
14933.600956132061
 22
10956.707142655319
 32
0.0
 13
14933.600956132061
 23
10956.707142655319
 33
0.0
  0
SOLID
  5
166
  8
____1
  6
CONTINUOUS
 62
     7
 10
14937.600956132061
 20
10951.707142655319
 30
0.0
 11
14940.60095613205
 21
10951.707142655319
 31
0.0
 12
14941.60095613205
 22
10956.707142655319
 32
0.0
 13
14941.60095613205
 23
10956.707142655319
 33
0.0
  0
LINE
  5
167
  8
____1
  6
CONTINUOUS
 62
     7
 10
14937.600956132061
 20
10936.707142655319
 30
0.0
 11
14937.600956132061
 21
11136.707142655319
 31
0.0
  0
TEXT
  5
168
  8
______
  6
DASHED2
 62
     7
 10
14929.48521551494
 20
11115.540476624439
 30
0.0
 40
28.222221374511719
  1
400
 50
90.0
  7
STYLE1
  0
ENDBLK
  5
169
  8
0
  0
BLOCK
  8
0
  2
C6
 70
     0
 10
0.0
 20
0.0
 30
0.0
  3
C6
  1

  0
LINE
  5
16D
  8
____1
  6
CONTINUOUS
 62
     7
 10
16800.247979038271
 20
10360.133919270829
 30
0.0
 11
16800.247979038271
 21
10400.133919270829
 31
0.0
  0
LINE
  5
16E
  8
____1
  6
CONTINUOUS
 62
     7
 10
16328.247979038269
 20
10360.133919270829
 30
0.0
 11
16328.247979038269
 21
10400.133919270829
 31
0.0
  0
LINE
  5
16F
  8
____1
  6
CONTINUOUS
 62
     7
 10
16400.247979038271
 20
10360.133919270829
 30
0.0
 11
16400.247979038271
 21
10400.133919270829
 31
0.0
  0
LINE
  5
170
  8
____1
  6
CONTINUOUS
 62
     7
 10
17240.247979038279
 20
10360.133919270829
 30
0.0
 11
17240.247979038279
 21
10400.133919270829
 31
0.0
  0
LINE
  5
171
  8
____1
  6
CONTINUOUS
 62
     7
 10
17168.247979038271
 20
10360.133919270829
 30
0.0
 11
17168.247979038271
 21
10400.133919270829
 31
0.0
  0
LINE
  5
172
  8
____1
  6
CONTINUOUS
 62
     7
 10
17488.247979038271
 20
10400.133919270829
 30
0.0
 11
16328.247979038269
 21
10400.133919270829
 31
0.0
  0
ENDBLK
  5
173
  8
0
  0
BLOCK
  8
0
  2
C7
 70
     0
 10
0.0
 20
0.0
 30
0.0
  3
C7
  1

  0
LINE
  5
177
  8
____1
  6
CONTINUOUS
 62
     7
 10
16800.247979038271
 20
10080.133919270829
 30
0.0
 11
16800.247979038271
 21
10120.133919270829
 31
0.0
  0
LINE
  5
178
  8
____1
  6
CONTINUOUS
 62
     7
 10
16328.247979038269
 20
10080.133919270829
 30
0.0
 11
16328.247979038269
 21
10120.133919270829
 31
0.0
  0
LINE
  5
179
  8
____1
  6
CONTINUOUS
 62
     7
 10
16400.247979038271
 20
10080.133919270829
 30
0.0
 11
16400.247979038271
 21
10120.133919270829
 31
0.0
  0
LINE
  5
17A
  8
____1
  6
CONTINUOUS
 62
     7
 10
17240.247979038279
 20
10080.133919270829
 30
0.0
 11
17240.247979038279
 21
10120.133919270829
 31
0.0
  0
LINE
  5
17B
  8
____1
  6
CONTINUOUS
 62
     7
 10
17168.247979038271
 20
10080.133919270829
 30
0.0
 11
17168.247979038271
 21
10120.133919270829
 31
0.0
  0
LINE
  5
17C
  8
____1
  6
CONTINUOUS
 62
     7
 10
17488.247979038271
 20
10120.133919270829
 30
0.0
 11
16328.247979038269
 21
10120.133919270829
 31
0.0
  0
ENDBLK
  5
17D
  8
0
  0
BLOCK
  8
0
  2
C8
 70
     0
 10
0.0
 20
0.0
 30
0.0
  3
C8
  1

  0
LINE
  5
181
  8
____1
  6
CONTINUOUS
 62
     7
 10
16800.247979038271
 20
10040.133919270829
 30
0.0
 11
16800.247979038271
 21
10080.133919270829
 31
0.0
  0
LINE
  5
182
  8
____1
  6
CONTINUOUS
 62
     7
 10
16328.247979038269
 20
10040.133919270829
 30
0.0
 11
16328.247979038269
 21
10080.133919270829
 31
0.0
  0
LINE
  5
183
  8
____1
  6
CONTINUOUS
 62
     7
 10
16400.247979038271
 20
10040.133919270829
 30
0.0
 11
16400.247979038271
 21
10080.133919270829
 31
0.0
  0
LINE
  5
184
  8
____1
  6
CONTINUOUS
 62
     7
 10
17240.247979038279
 20
10040.133919270829
 30
0.0
 11
17240.247979038279
 21
10080.133919270829
 31
0.0
  0
LINE
  5
185
  8
____1
  6
CONTINUOUS
 62
     7
 10
17168.247979038271
 20
10040.133919270829
 30
0.0
 11
17168.247979038271
 21
10080.133919270829
 31
0.0
  0
LINE
  5
186
  8
____1
  6
CONTINUOUS
 62
     7
 10
17488.247979038271
 20
10080.133919270829
 30
0.0
 11
16328.247979038269
 21
10080.133919270829
 31
0.0
  0
ENDBLK
  5
187
  8
0
  0
BLOCK
  8
0
  2
C9
 70
     0
 10
0.0
 20
0.0
 30
0.0
  3
C9
  1

  0
LINE
  5
18B
  8
____1
  6
CONTINUOUS
 62
     7
 10
16800.247979038271
 20
10160.133919270829
 30
0.0
 11
16800.247979038271
 21
10200.133919270829
 31
0.0
  0
LINE
  5
18C
  8
____1
  6
CONTINUOUS
 62
     7
 10
16328.247979038269
 20
10160.133919270829
 30
0.0
 11
16328.247979038269
 21
10200.133919270829
 31
0.0
  0
LINE
  5
18D
  8
____1
  6
CONTINUOUS
 62
     7
 10
16400.247979038271
 20
10160.133919270829
 30
0.0
 11
16400.247979038271
 21
10200.133919270829
 31
0.0
  0
LINE
  5
18E
  8
____1
  6
CONTINUOUS
 62
     7
 10
17240.247979038279
 20
10160.133919270829
 30
0.0
 11
17240.247979038279
 21
10200.133919270829
 31
0.0
  0
LINE
  5
18F
  8
____1
  6
CONTINUOUS
 62
     7
 10
17168.247979038271
 20
10160.133919270829
 30
0.0
 11
17168.247979038271
 21
10200.133919270829
 31
0.0
  0
LINE
  5
190
  8
____1
  6
CONTINUOUS
 62
     7
 10
17488.247979038271
 20
10200.133919270829
 30
0.0
 11
16328.247979038269
 21
10200.133919270829
 31
0.0
  0
ENDBLK
  5
191
  8
0
  0
BLOCK
  8
0
  2
C10
 70
     0
 10
0.0
 20
0.0
 30
0.0
  3
C10
  1

  0
TEXT
  5
196
  8
____1
  6
CONTINUOUS
 62
     7
 10
17176.02575766376
 20
10010.139437718701
 30
0.0
 40
28.222221374511719
  1
数量
  7
STYLE1
  0
TEXT
  5
197
  8
____1
  6
DOT
 62
     7
 10
17293.692425601999
 20
10010.139437718701
 30
0.0
 40
28.222221374511719
  1
備　　　考
  7
STYLE1
  0
LINE
  5
198
  8
____1
  6
CONTINUOUS
 62
     7
 10
16400.247979038271
 20
10000.133919270829
 30
0.0
 11
16400.247979038271
 21
10040.133919270829
 31
0.0
  0
LINE
  5
199
  8
____1
  6
CONTINUOUS
 62
     7
 10
16328.247979038269
 20
10000.133919270829
 30
0.0
 11
16328.247979038269
 21
10040.133919270829
 31
0.0
  0
LINE
  5
19A
  8
____1
  6
CONTINUOUS
 62
     7
 10
17240.247979038279
 20
10000.133919270829
 30
0.0
 11
17240.247979038279
 21
10040.133919270829
 31
0.0
  0
LINE
  5
19B
  8
____1
  6
CONTINUOUS
 62
     7
 10
17168.247979038271
 20
10000.133919270829
 30
0.0
 11
17168.247979038271
 21
10040.133919270829
 31
0.0
  0
LINE
  5
19C
  8
____1
  6
CONTINUOUS
 62
     7
 10
17488.247979038271
 20
10040.133919270829
 30
0.0
 11
16328.247979038269
 21
10040.133919270829
 31
0.0
  0
LINE
  5
19D
  8
____1
  6
CONTINUOUS
 62
     7
 10
16328.247979038269
 20
10000.133919270829
 30
0.0
 11
17488.247979038271
 21
10000.133919270829
 31
0.0
  0
LINE
  5
19E
  8
____1
  6
CONTINUOUS
 62
     7
 10
16800.247979038271
 20
10000.133919270829
 30
0.0
 11
16800.247979038271
 21
10040.133919270829
 31
0.0
  0
TEXT
  5
19F
  8
____1
  6
CONTINUOUS
 62
     7
 10
16913.692421787291
 20
10010.139437718701
 30
0.0
 40
28.222221374511719
  1
材　　　質
  7
STYLE1
  0
TEXT
  5
1A0
  8
____1
  6
CONTINUOUS
 62
     7
 10
16529.692421787291
 20
10010.139437718701
 30
0.0
 40
28.222221374511719
  1
品　　　名
  7
STYLE1
  0
CIRCLE
  5
1A1
  8
____1
  6
CONTINUOUS
 62
     7
 10
16795.447979038268
 20
9916.1339192708292
 30
0.0
 40
9.5999999999985448
  0
LINE
  5
1A2
  8
____1
  6
CONTINUOUS
 62
     7
 10
16839.33531913178
 20
9906.533919270827
 30
0.0
 11
16877.735319131789
 21
9896.9339192708285
 31
0.0
  0
LINE
  5
1A3
  8
____1
  6
CONTINUOUS
 62
     7
 10
16839.33531913178
 20
9925.7339192708314
 30
0.0
 11
16839.33531913178
 21
9906.533919270827
 31
0.0
  0
LINE
  5
1A4
  8
____1
  6
CONTINUOUS
 62
     7
 10
16877.735319131789
 20
9935.3339192708318
 30
0.0
 11
16877.735319131789
 21
9896.9339192708285
 31
0.0
  0
LINE
  5
1A5
  8
____1
  6
CENTER2
 62
     7
 10
16795.447979038268
 20
9944.9339192708303
 30
0.0
 11
16795.447979038268
 21
9887.3339192708299
 31
0.0
  0
LINE
  5
1A6
  8
____1
  6
CENTER2
 62
     7
 10
16795.447979038268
 20
9944.9339192708303
 30
0.0
 11
16795.447979038268
 21
9887.3339192708299
 31
0.0
  0
LINE
  5
1A7
  8
____1
  6
CONTINUOUS
 62
     7
 10
16877.735319131789
 20
9935.3339192708318
 30
0.0
 11
16877.735319131789
 21
9896.9339192708285
 31
0.0
  0
LINE
  5
1A8
  8
____1
  6
CONTINUOUS
 62
     7
 10
16839.33531913178
 20
9925.7339192708314
 30
0.0
 11
16839.33531913178
 21
9906.533919270827
 31
0.0
  0
LINE
  5
1A9
  8
____1
  6
CONTINUOUS
 62
     7
 10
16839.33531913178
 20
9906.533919270827
 30
0.0
 11
16877.735319131789
 21
9896.9339192708285
 31
0.0
  0
LINE
  5
1AA
  8
____1
  6
CONTINUOUS
 62
     7
 10
16839.33531913178
 20
9925.7339192708314
 30
0.0
 11
16877.735319131789
 21
9935.3339192708318
 31
0.0
  0
CIRCLE
  5
1AB
  8
____1
  6
CONTINUOUS
 62
     7
 10
16795.447979038268
 20
9916.1339192708292
 30
0.0
 40
19.19999999999709
  0
CIRCLE
  5
1AC
  8
____1
  6
CONTINUOUS
 62
     7
 10
16795.447979038268
 20
9916.1339192708292
 30
0.0
 40
9.5999999999985448
  0
CIRCLE
  5
1AD
  8
____1
  6
CONTINUOUS
 62
     7
 10
16795.447979038268
 20
9916.1339192708292
 30
0.0
 40
19.19999999999709
  0
LINE
  5
1AE
  8
____1
  6
CONTINUOUS
 62
     7
 10
16839.33531913178
 20
9925.7339192708314
 30
0.0
 11
16877.735319131789
 21
9935.3339192708318
 31
0.0
  0
LINE
  5
1AF
  8
____1
  6
CONTINUOUS
 62
     7
 10
16839.33531913178
 20
9906.533919270827
 30
0.0
 11
16877.735319131789
 21
9896.9339192708285
 31
0.0
  0
LINE
  5
1B0
  8
____1
  6
CONTINUOUS
 62
     7
 10
16839.33531913178
 20
9925.7339192708314
 30
0.0
 11
16839.33531913178
 21
9906.533919270827
 31
0.0
  0
LINE
  5
1B1
  8
____1
  6
CONTINUOUS
 62
     7
 10
16877.735319131789
 20
9935.3339192708318
 30
0.0
 11
16877.735319131789
 21
9896.9339192708285
 31
0.0
  0
LINE
  5
1B2
  8
____1
  6
CONTINUOUS
 62
     7
 10
16762.817999429411
 20
9750.1704208660813
 30
0.0
 11
16758.292516029818
 21
9745.644937466488
 31
0.0
  0
LINE
  5
1B3
  8
____1
  6
CENTER2
 62
     7
 10
16766.647979038269
 20
9916.1339192708292
 30
0.0
 11
16889.84797903827
 21
9916.1339192708292
 31
0.0
  0
CIRCLE
  5
1B4
  8
____1
  6
CONTINUOUS
 62
     7
 10
16795.447979038268
 20
9916.1339192708292
 30
0.0
 40
9.5999999999985448
  0
POLYLINE
  5
1B5
  8
____1
  6
CONTINUOUS
 62
     7
 66
     1
 10
0.0
 20
0.0
 30
0.0
 70
     8
  0
VERTEX
  5
1B6
  8
____1
 62
     7
 10
16784.294937767769
 20
9728.5592281806275
 30
0.0
 70
    32
  0
VERTEX
  5
1B7
  8
____1
 62
     7
 10
16786.53150899542
 20
9727.9558559425677
 30
0.0
 70
    32
  0
VERTEX
  5
1B8
  8
____1
 62
     7
 10
16788.799604815089
 20
9727.4032363409933
 30
0.0
 70
    32
  0
VERTEX
  5
1B9
  8
____1
 62
     7
 10
16793.41235617792
 20
9726.4212535407569
 30
0.0
 70
    32
  0
VERTEX
  5
1BA
  8
____1
 62
     7
 10
16798.097163751081
 20
9725.5552767667796
 30
0.0
 70
    32
  0
VERTEX
  5
1BB
  8
____1
 62
     7
 10
16802.817999429411
 20
9724.7473030059336
 30
0.0
 70
    32
  0
SEQEND
  5
1BC
  8
____1
 62
     7
  0
POLYLINE
  5
1BD
  8
____1
  6
CONTINUOUS
 62
     7
 66
     1
 10
0.0
 20
0.0
 30
0.0
 70
     8
  0
VERTEX
  5
1BE
  8
____1
 62
     7
 10
16758.292516029818
 20
9745.644937466488
 30
0.0
 70
    32
  0
VERTEX
  5
1BF
  8
____1
 62
     7
 10
16761.668269985959
 20
9741.9444217882155
 30
0.0
 70
    32
  0
VERTEX
  5
1C0
  8
____1
 62
     7
 10
16763.399806017242
 20
9740.1644523149153
 30
0.0
 70
    32
  0
VERTEX
  5
1C1
  8
____1
 62
     7
 10
16765.183732912359
 20
9738.4688288806228
 30
0.0
 70
    32
  0
SEQEND
  5
1C2
  8
____1
 62
     7
  0
POLYLINE
  5
1C3
  8
____1
  6
CONTINUOUS
 62
     7
 66
     1
 10
0.0
 20
0.0
 30
0.0
 70
     8
  0
VERTEX
  5
1C4
  8
____1
 62
     7
 10
16774.488293782211
 20
9719.6566415767848
 30
0.0
 70
    32
  0
VERTEX
  5
1C5
  8
____1
 62
     7
 10
16777.927825687471
 20
9718.6049601473424
 30
0.0
 70
    32
  0
VERTEX
  5
1C6
  8
____1
 62
     7
 10
16781.40803011298
 20
9717.6284843611338
 30
0.0
 70
    32
  0
VERTEX
  5
1C7
  8
____1
 62
     7
 10
16788.467215084642
 20
9715.8581750651429
 30
0.0
 70
    32
  0
VERTEX
  5
1C8
  8
____1
 62
     7
 10
16795.619365816881
 20
9714.2597643822592
 30
0.0
 70
    32
  0
VERTEX
  5
1C9
  8
____1
 62
     7
 10
16802.817999429411
 20
9712.7473030059336
 30
0.0
 70
    32
  0
SEQEND
  5
1CA
  8
____1
 62
     7
  0
POLYLINE
  5
1CB
  8
____1
  6
CONTINUOUS
 62
     7
 66
     1
 10
0.0
 20
0.0
 30
0.0
 70
     8
  0
VERTEX
  5
1CC
  8
____1
 62
     7
 10
16730.817999429411
 20
9747.5935387262307
 30
0.0
 70
    32
  0
VERTEX
  5
1CD
  8
____1
 62
     7
 10
16736.561277880541
 20
9742.3428469624596
 30
0.0
 70
    32
  0
VERTEX
  5
1CE
  8
____1
 62
     7
 10
16742.398461317251
 20
9737.2657904885273
 30
0.0
 70
    32
  0
VERTEX
  5
1CF
  8
____1
 62
     7
 10
16745.38161271319
 20
9734.8466365133245
 30
0.0
 70
    32
  0
VERTEX
  5
1D0
  8
____1
 62
     7
 10
16748.423454725122
 20
9732.5360045942689
 30
0.0
 70
    32
  0
VERTEX
  5
1D1
  8
____1
 62
     7
 10
16751.53572547622
 20
9730.3555991425928
 30
0.0
 70
    32
  0
VERTEX
  5
1D2
  8
____1
 62
     7
 10
16754.730163089709
 20
9728.3271245695232
 30
0.0
 70
    32
  0
VERTEX
  5
1D3
  8
____1
 62
     7
 10
16754.73016310604
 20
9728.3271245597261
 30
0.0
 70
    32
  0
SEQEND
  5
1D4
  8
____1
 62
     7
  0
TEXT
  5
1D5
  8
____1
  6
CONTINUOUS
 62
     7
 10
16336.02575766376
 20
10010.139437718701
 30
0.0
 40
28.222221374511719
  1
品番
  7
STYLE1
  0
LINE
  5
1D6
  8
____1
  6
CONTINUOUS
 62
     7
 10
16839.33531913178
 20
9925.7339192708314
 30
0.0
 11
16839.33531913178
 21
9906.533919270827
 31
0.0
  0
LINE
  5
1D7
  8
____1
  6
CONTINUOUS
 62
     7
 10
16709.533150944571
 20
9752.7473030059336
 30
0.0
 11
16709.533150944571
 21
9740.7473030059336
 31
0.0
  0
LINE
  5
1D8
  8
____1
  6
CONTINUOUS
 62
     7
 10
16839.33531913178
 20
9906.533919270827
 30
0.0
 11
16877.735319131789
 21
9896.9339192708285
 31
0.0
  0
LINE
  5
1D9
  8
____1
  6
CONTINUOUS
 62
     7
 10
16730.817999429411
 20
9768.7473030059336
 30
0.0
 11
16730.817999429411
 21
9754.3473030059322
 31
0.0
  0
ARC
  5
1DA
  8
____1
  6
CONTINUOUS
 62
     7
 10
16673.533150944571
 20
9736.7473030059336
 30
0.0
 40
24.0
 50
-90.0
 51
0.0
  0
LINE
  5
1DB
  8
____1
  6
CONTINUOUS
 62
     7
 10
16328.247979038269
 20
9960.1339192708292
 30
0.0
 11
16328.247979038269
 21
9696.1339192708292
 31
0.0
  0
TEXT
  5
1DC
  8
____1
  6
CONTINUOUS
 62
     7
 10
16328.247979038269
 20
9795.9503434011222
 30
0.0
 40
28.222221374511719
  1
 製図
  7
STYLE1
  0
TEXT
  5
1DD
  8
____1
  6
CONTINUOUS
 62
     7
 10
16328.247979038269
 20
9839.9503434011203
 30
0.0
 40
28.222221374511719
  1
 設計
  7
STYLE1
  0
TEXT
  5
1DE
  8
____1
  6
CONTINUOUS
 62
     7
 10
16628.247979038271
 20
9795.9503434011222
 30
0.0
 40
28.222221374511719
  1
 検図
  7
STYLE1
  0
TEXT
  5
1DF
  8
____1
  6
CONTINUOUS
 62
     7
 10
16628.247979038271
 20
9839.9503434011203
 30
0.0
 40
28.222221374511719
  1
 照査
  7
STYLE1
  0
LINE
  5
1E0
  8
____1
  6
CONTINUOUS
 62
     7
 10
16628.247979038271
 20
9872.1339192708292
 30
0.0
 11
16628.247979038271
 21
9784.1339192708274
 31
0.0
  0
LINE
  5
1E1
  8
____1
  6
CONTINUOUS
 62
     7
 10
16328.247979038269
 20
9784.1339192708274
 30
0.0
 11
17488.247979038271
 21
9784.1339192708274
 31
0.0
  0
LINE
  5
1E2
  8
____1
  6
CONTINUOUS
 62
     7
 10
16348.247979038269
 20
9828.1339192708292
 30
0.0
 11
16608.247979038271
 21
9828.1339192708292
 31
0.0
  0
LINE
  5
1E3
  8
____1
  6
CONTINUOUS
 62
     7
 10
16648.247979038271
 20
9828.1339192708292
 30
0.0
 11
16908.247979038271
 21
9828.1339192708292
 31
0.0
  0
TEXT
  5
1E4
  8
____1
  6
CONTINUOUS
 62
     7
 10
16371.80353628925
 20
9927.9503434011203
 30
0.0
 40
28.222221374511719
  1
日　　付
  7
STYLE1
  0
LINE
  5
1E5
  8
____1
  6
CONTINUOUS
 62
     7
 10
16348.247979038269
 20
9916.1339192708292
 30
0.0
 11
16508.247979038271
 21
9916.1339192708292
 31
0.0
  0
LINE
  5
1E6
  8
____1
  6
CONTINUOUS
 62
     7
 10
16528.247979038271
 20
9960.1339192708292
 30
0.0
 11
16528.247979038271
 21
9872.1339192708256
 31
0.0
  0
LINE
  5
1E7
  8
____1
  6
CONTINUOUS
 62
     7
 10
16328.247979038269
 20
9872.1339192708292
 30
0.0
 11
17488.247979038271
 21
9872.1339192708292
 31
0.0
  0
LINE
  5
1E8
  8
____1
  6
CONTINUOUS
 62
     7
 10
16728.247979038271
 20
9960.1339192708292
 30
0.0
 11
16728.247979038271
 21
9872.1339192708256
 31
0.0
  0
LINE
  5
1E9
  8
____1
  6
CENTER2
 62
     7
 10
16795.447979038268
 20
9944.9339192708303
 30
0.0
 11
16795.447979038268
 21
9887.3339192708299
 31
0.0
  0
LINE
  5
1EA
  8
____1
  6
CENTER2
 62
     7
 10
16795.447979038268
 20
9944.9339192708303
 30
0.0
 11
16795.447979038268
 21
9887.3339192708299
 31
0.0
  0
LINE
  5
1EB
  8
____1
  6
CONTINUOUS
 62
     7
 10
16892.557860615681
 20
9755.1473030059315
 30
0.0
 11
16892.557860615681
 21
9740.7473030059336
 31
0.0
  0
LINE
  5
1EC
  8
____1
  6
CONTINUOUS
 62
     7
 10
16548.247979038271
 20
9916.1339192708292
 30
0.0
 11
16708.247979038271
 21
9916.1339192708292
 31
0.0
  0
TEXT
  5
1ED
  8
____1
  6
CONTINUOUS
 62
     7
 10
16571.803536289251
 20
9927.9503434011203
 30
0.0
 40
28.222221374511719
  1
尺　　度
  7
STYLE1
  0
CIRCLE
  5
1EE
  8
____1
  6
CONTINUOUS
 62
     7
 10
16795.447979038268
 20
9916.1339192708292
 30
0.0
 40
19.19999999999709
  0
LINE
  5
1EF
  8
____1
  6
CONTINUOUS
 62
     7
 10
16839.33531913178
 20
9925.7339192708314
 30
0.0
 11
16877.735319131789
 21
9935.3339192708318
 31
0.0
  0
TEXT
  5
1F0
  8
____1
  6
DOT
 62
     7
 10
17330.14797961048
 20
11907.11808606466
 30
0.0
 40
25.39999961853027
  1
改訂者
  7
STYLE1
  0
CIRCLE
  5
1F1
  8
____1
  6
CONTINUOUS
 62
     7
 10
16795.447979038268
 20
9916.1339192708292
 30
0.0
 40
9.5999999999985448
  0
LINE
  5
1F2
  8
____1
  6
CONTINUOUS
 62
     7
 10
16876.557860615681
 20
9708.7473030059355
 30
0.0
 11
16873.334895234249
 21
9719.9473030059307
 31
0.0
  0
LINE
  5
1F3
  8
____1
  6
CONTINUOUS
 62
     7
 10
16869.191082600981
 20
9734.3473030059322
 30
0.0
 11
16892.557860615681
 21
9734.3473030059322
 31
0.0
  0
LINE
  5
1F4
  8
____1
  6
CONTINUOUS
 62
     7
 10
16730.817999429411
 20
9724.7473030059336
 30
0.0
 11
16740.41799942941
 21
9724.7473030059336
 31
0.0
  0
LINE
  5
1F5
  8
____1
  6
CONTINUOUS
 62
     7
 10
16836.557860615681
 20
9768.7473030059336
 30
0.0
 11
16868.557860615681
 21
9768.7473030059336
 31
0.0
  0
LINE
  5
1F6
  8
____1
  6
CONTINUOUS
 62
     7
 10
16641.533150944571
 20
9752.7473030059336
 30
0.0
 11
16632.324320452139
 21
9752.7473030059336
 31
0.0
  0
LINE
  5
1F7
  8
____1
  6
CONTINUOUS
 62
     7
 10
16730.817999429411
 20
9724.7473030059336
 30
0.0
 11
16730.817999429411
 21
9712.7473030059336
 31
0.0
  0
LINE
  5
1F8
  8
____1
  6
CONTINUOUS
 62
     7
 10
16641.533150944571
 20
9740.7473030059336
 30
0.0
 11
16640.324320452139
 21
9740.7473030059336
 31
0.0
  0
LINE
  5
1F9
  8
____1
  6
CONTINUOUS
 62
     7
 10
16641.533150944571
 20
9724.7473030059336
 30
0.0
 11
16641.533150944571
 21
9712.7473030059336
 31
0.0
  0
ARC
  5
1FA
  8
____1
  6
CONTINUOUS
 62
     7
 10
16740.41799942941
 20
9755.1473030059315
 30
0.0
 40
30.399999999999331
 50
-28.600718616738451
 51
-1.5079577542374809
  0
LINE
  5
1FB
  8
____1
  6
CONTINUOUS
 62
     7
 10
16697.533150944571
 20
9740.7473030059336
 30
0.0
 11
16709.533150944571
 21
9740.7473030059336
 31
0.0
  0
ARC
  5
1FC
  8
____1
  6
CONTINUOUS
 62
     7
 10
16750.817999429411
 20
9756.7473030059336
 30
0.0
 40
43.999999999999332
 50
-90.0
 51
-57.455041145959207
  0
LINE
  5
1FD
  8
____1
  6
CONTINUOUS
 62
     7
 10
16632.324320452139
 20
9740.7473030059336
 30
0.0
 11
16640.324320452139
 21
9740.7473030059336
 31
0.0
  0
ARC
  5
1FE
  8
____1
  6
CONTINUOUS
 62
     7
 10
16750.817999429411
 20
9756.7473030059336
 30
0.0
 40
44.0
 50
-37.512388020298822
 51
0.0
  0
LINE
  5
1FF
  8
____1
  6
CONTINUOUS
 62
     7
 10
16641.533150944571
 20
9712.7473030059336
 30
0.0
 11
16673.533150944571
 21
9712.7473030059336
 31
0.0
  0
LINE
  5
200
  8
____1
  6
CONTINUOUS
 62
     7
 10
16820.557860615681
 20
9719.9473030059307
 30
0.0
 11
16850.87252728235
 21
9719.9473030059307
 31
0.0
  0
ARC
  5
201
  8
____1
  6
CONTINUOUS
 62
     7
 10
16665.533150944571
 20
9736.7473030059336
 30
0.0
 40
12.0
 50
-90.0
 51
0.0
  0
LINE
  5
202
  8
____1
  6
CONTINUOUS
 62
     7
 10
16820.557860615681
 20
9734.3473030059322
 30
0.0
 11
16820.557860615681
 21
9719.9473030059307
 31
0.0
  0
LINE
  5
203
  8
____1
  6
CONTINUOUS
 62
     7
 10
16641.533150944571
 20
9728.7473030059355
 30
0.0
 11
16661.533150944571
 21
9728.7473030059355
 31
0.0
  0
LINE
  5
204
  8
____1
  6
CONTINUOUS
 62
     7
 10
16767.108499362901
 20
9740.5947357650512
 30
0.0
 11
16765.183732912359
 21
9738.4688288806228
 31
0.0
  0
LINE
  5
205
  8
____1
  6
CONTINUOUS
 62
     7
 10
16876.557860615681
 20
9708.7473030059355
 30
0.0
 11
16854.15786061568
 21
9708.7473030059355
 31
0.0
  0
LINE
  5
206
  8
____1
  6
CONTINUOUS
 62
     7
 10
16677.533150944571
 20
9740.7473030059336
 30
0.0
 11
16677.533150944571
 21
9736.7473030059336
 31
0.0
  0
LINE
  5
207
  8
____1
  6
CONTINUOUS
 62
     7
 10
17488.247979038271
 20
9960.1339192708292
 30
0.0
 11
16328.247979038269
 21
9960.1339192708292
 31
0.0
  0
LINE
  5
208
  8
____1
  6
CONTINUOUS
 62
     7
 10
16877.735319131789
 20
9935.3339192708318
 30
0.0
 11
16877.735319131789
 21
9896.9339192708285
 31
0.0
  0
LINE
  5
209
  8
____1
  6
CONTINUOUS
 62
     5
 10
16765.973695949931
 20
11893.874859268721
 30
0.0
 11
16746.173695949929
 21
11859.58025327886
 31
0.0
  0
LINE
  5
20A
  8
____1
  6
CONTINUOUS
 62
     7
 10
16709.533150944571
 20
9768.7473030059336
 30
0.0
 11
16677.533150944571
 21
9768.7473030059336
 31
0.0
  0
LINE
  5
20B
  8
____1
  6
CONTINUOUS
 62
     7
 10
16697.533150944571
 20
9736.7473030059336
 30
0.0
 11
16697.533150944571
 21
9740.7473030059336
 31
0.0
  0
LINE
  5
20C
  8
____1
  6
CONTINUOUS
 62
     7
 10
16820.557860615681
 20
9755.1473030059315
 30
0.0
 11
16820.557860615681
 21
9740.7473030059336
 31
0.0
  0
LINE
  5
20D
  8
____1
  6
CONTINUOUS
 62
     7
 10
16677.533150944571
 20
9752.7473030059336
 30
0.0
 11
16661.533150944571
 21
9752.7473030059336
 31
0.0
  0
LINE
  5
20E
  8
____1
  6
CONTINUOUS
 62
     7
 10
16673.533150944571
 20
9768.7473030059336
 30
0.0
 11
16641.533150944571
 21
9768.7473030059336
 31
0.0
  0
LINE
  5
20F
  8
____1
  6
CONTINUOUS
 62
     7
 10
16661.533150944571
 20
9756.7473030059336
 30
0.0
 11
16673.533150944571
 21
9768.7473030059336
 31
0.0
  0
LINE
  5
210
  8
____1
  6
CONTINUOUS
 62
     7
 10
16641.533150944571
 20
9768.7473030059336
 30
0.0
 11
16641.533150944571
 21
9752.7473030059336
 31
0.0
  0
LINE
  5
211
  8
____1
  6
CONTINUOUS
 62
     7
 10
16873.334895234249
 20
9719.9473030059307
 30
0.0
 11
16892.557860615681
 21
9719.9473030059307
 31
0.0
  0
LINE
  5
212
  8
____1
  6
CONTINUOUS
 62
     7
 10
16840.547193949009
 20
9755.1473030059351
 30
0.0
 11
16836.557860615681
 21
9768.7473030059336
 31
0.0
  0
LINE
  5
213
  8
____1
  6
CONTINUOUS
 62
     7
 10
16820.557860615681
 20
9734.3473030059322
 30
0.0
 11
16846.648527282348
 21
9734.3473030059322
 31
0.0
  0
LINE
  5
214
  8
____1
  6
CONTINUOUS
 62
     7
 10
16869.191082600981
 20
9734.3473030059322
 30
0.0
 11
16867.3493880973
 21
9740.7473030059336
 31
0.0
  0
ARC
  5
215
  8
____1
  6
CONTINUOUS
 62
     7
 10
16740.41799942941
 20
9755.1473030059315
 30
0.0
 40
30.399999999999519
 50
-90.0
 51
-61.914095184792771
  0
LINE
  5
216
  8
____1
  6
CONTINUOUS
 62
     7
 10
16794.817999429411
 20
9756.7473030059336
 30
0.0
 11
16802.817999429411
 21
9768.7473030059336
 31
0.0
  0
LINE
  5
217
  8
____1
  6
CONTINUOUS
 62
     7
 10
16892.557860615681
 20
9734.3473030059322
 30
0.0
 11
16892.557860615681
 21
9719.9473030059307
 31
0.0
  0
LINE
  5
218
  8
____1
  6
CONTINUOUS
 62
     7
 10
16802.817999429411
 20
9724.7473030059336
 30
0.0
 11
16802.817999429411
 21
9712.7473030059336
 31
0.0
  0
LINE
  5
219
  8
____1
  6
CONTINUOUS
 62
     7
 10
16863.205575464031
 20
9755.1473030059315
 30
0.0
 11
16892.557860615681
 21
9755.1473030059315
 31
0.0
  0
LINE
  5
21A
  8
____1
  6
CONTINUOUS
 62
     7
 10
16863.205575464031
 20
9755.1473030059351
 30
0.0
 11
16862.034421462238
 21
9759.2171341296707
 31
0.0
  0
LINE
  5
21B
  8
____1
  6
CONTINUOUS
 62
     7
 10
16802.817999429411
 20
9768.7473030059336
 30
0.0
 11
16730.817999429411
 21
9768.7473030059336
 31
0.0
  0
TEXT
  5
21C
  8
____1
  6
CONTINUOUS
 62
     7
 10
16371.76667364236
 20
9722.1409223225874
 30
0.0
 40
50.79999923706054
  1
株式会社
  7
STYLE1
  0
LINE
  5
21D
  8
____1
  6
CONTINUOUS
 62
     7
 10
16854.15786061568
 20
9708.7473030059355
 30
0.0
 11
16850.87252728235
 21
9719.9473030059307
 31
0.0
  0
LINE
  5
21E
  8
____1
  6
CONTINUOUS
 62
     7
 10
16665.533150944571
 20
9724.7473030059336
 30
0.0
 11
16641.533150944571
 21
9724.7473030059336
 31
0.0
  0
LINE
  5
21F
  8
____1
  6
CONTINUOUS
 62
     7
 10
16730.817999429411
 20
9754.3473030059322
 30
0.0
 11
16770.817999429411
 21
9754.3473030059322
 31
0.0
  0
LINE
  5
220
  8
____1
  6
CONTINUOUS
 62
     7
 10
16839.33531913178
 20
9925.7339192708314
 30
0.0
 11
16877.735319131789
 21
9935.3339192708318
 31
0.0
  0
CIRCLE
  5
221
  8
____1
  6
CONTINUOUS
 62
     7
 10
16795.447979038268
 20
9916.1339192708292
 30
0.0
 40
19.19999999999709
  0
TEXT
  5
222
  8
____1
  6
DOT
 62
     7
 10
17410.14797961048
 20
11907.11808606466
 30
0.0
 40
25.39999961853027
  1
検認者
  7
STYLE1
  0
LINE
  5
223
  8
____1
  6
CONTINUOUS
 62
     7
 10
16661.533150944571
 20
9740.7473030059336
 30
0.0
 11
16677.533150944571
 21
9740.7473030059336
 31
0.0
  0
LINE
  5
224
  8
____1
  6
CONTINUOUS
 62
     7
 10
16820.557860615681
 20
9740.7473030059336
 30
0.0
 11
16844.771193949011
 21
9740.7473030059336
 31
0.0
  0
LINE
  5
225
  8
____1
  6
CONTINUOUS
 62
     7
 10
16709.533150944571
 20
9752.7473030059336
 30
0.0
 11
16697.533150944571
 21
9752.7473030059336
 31
0.0
  0
LINE
  5
226
  8
____1
  6
CONTINUOUS
 62
     7
 10
16697.533150944571
 20
9752.7473030059336
 30
0.0
 11
16697.533150944571
 21
9756.7473030059336
 31
0.0
  0
LINE
  5
227
  8
____1
  6
CONTINUOUS
 62
     7
 10
16820.557860615681
 20
9755.1473030059315
 30
0.0
 11
16840.547193949009
 21
9755.1473030059315
 31
0.0
  0
LINE
  5
228
  8
____1
  6
CONTINUOUS
 62
     7
 10
16862.034421462238
 20
9759.2171341296707
 30
0.0
 11
16868.557860615681
 21
9768.7473030059336
 31
0.0
  0
LINE
  5
229
  8
____1
  6
CONTINUOUS
 62
     7
 10
16730.817999429411
 20
9712.7473030059336
 30
0.0
 11
16730.817999429411
 21
9724.7473030059336
 31
0.0
  0
LINE
  5
22A
  8
____1
  6
CONTINUOUS
 62
     7
 10
16928.247979038271
 20
9960.1339192708292
 30
0.0
 11
16928.247979038271
 21
9696.1339192708292
 31
0.0
  0
TEXT
  5
22B
  8
____1
  6
CONTINUOUS
 62
     7
 10
16940.970200412779
 20
9755.2274384816446
 30
0.0
 40
28.222221374511719
  1
図 番
  7
STYLE1
  0
TEXT
  5
22C
  8
____1
  6
CONTINUOUS
 62
     7
 10
16933.914645545989
 20
9931.2274384816446
 30
0.0
 40
28.222221374511719
  1
製品名
  7
STYLE1
  0
TEXT
  5
22D
  8
____1
  6
CONTINUOUS
 62
     7
 10
16933.914645545989
 20
9843.2274384816465
 30
0.0
 40
28.222221374511719
  1
図面名
  7
STYLE1
  0
LINE
  5
22E
  8
____1
  6
CONTINUOUS
 62
     5
 10
16746.173695949929
 20
11819.98025327886
 30
0.0
 11
16785.773695949931
 21
11819.98025327886
 31
0.0
  0
LINE
  5
22F
  8
____1
  6
CONTINUOUS
 62
     5
 10
16736.247979038271
 20
11816.133919270829
 30
0.0
 11
16736.247979038271
 21
11936.133919270829
 31
0.0
  0
LINE
  5
230
  8
____1
  6
CONTINUOUS
 62
     5
 10
17408.247979038271
 20
11816.133919270829
 30
0.0
 11
17408.247979038271
 21
11936.133919270829
 31
0.0
  0
LINE
  5
231
  8
____1
  6
CONTINUOUS
 62
     5
 10
16736.247979038271
 20
11896.133919270829
 30
0.0
 11
17488.247979038271
 21
11896.133919270829
 31
0.0
  0
LINE
  5
232
  8
____1
  6
CONTINUOUS
 62
     5
 10
16736.247979038271
 20
11856.133919270829
 30
0.0
 11
17488.247979038271
 21
11856.133919270829
 31
0.0
  0
LINE
  5
233
  8
____1
  6
CONTINUOUS
 62
     5
 10
16736.247979038271
 20
11816.133919270829
 30
0.0
 11
17488.247979038271
 21
11816.133919270829
 31
0.0
  0
TEXT
  5
234
  8
____1
  6
CONTINUOUS
 62
     7
 10
16826.14798056415
 20
11907.11808606466
 30
0.0
 40
25.39999961853027
  1
改訂日
  7
STYLE1
  0
LINE
  5
235
  8
____1
  6
CONTINUOUS
 62
     5
 10
14288.247979038269
 20
9696.1339192708292
 30
0.0
 11
14288.247979038269
 21
11936.133919270829
 31
0.0
  0
LINE
  5
236
  8
____1
  6
CONTINUOUS
 62
     5
 10
14288.247979038269
 20
9696.1339192708292
 30
0.0
 11
17488.247979038271
 21
9696.1339192708292
 31
0.0
  0
LINE
  5
237
  8
____1
  6
CONTINUOUS
 62
     5
 10
17488.247979038271
 20
11936.133919270829
 30
0.0
 11
14288.247979038269
 21
11936.133919270829
 31
0.0
  0
LINE
  5
238
  8
____1
  6
CONTINUOUS
 62
     5
 10
17488.247979038271
 20
9696.1339192708292
 30
0.0
 11
17488.247979038271
 21
11936.133919270829
 31
0.0
  0
LINE
  5
239
  8
____1
  6
CONTINUOUS
 62
     7
 10
16730.817999429411
 20
9747.5935387262307
 30
0.0
 11
16730.817999429411
 21
9750.1704208660813
 31
0.0
  0
LINE
  5
23A
  8
____1
  6
CONTINUOUS
 62
     7
 10
16632.324320452139
 20
9752.7473030059336
 30
0.0
 11
16632.324320452139
 21
9740.7473030059336
 31
0.0
  0
LINE
  5
23B
  8
____1
  6
CONTINUOUS
 62
     5
 10
16765.973695949931
 20
11893.874859268721
 30
0.0
 11
16785.773695949931
 21
11859.58025327886
 31
0.0
  0
LINE
  5
23C
  8
____1
  6
CONTINUOUS
 62
     5
 10
16765.973695949931
 20
11854.27485926872
 30
0.0
 11
16746.173695949929
 21
11819.98025327886
 31
0.0
  0
TEXT
  5
23D
  8
____1
  6
DOT
 62
     7
 10
16742.847979419741
 20
11907.11808606466
 30
0.0
 40
25.39999961853027
  1
副番
  7
STYLE1
  0
LINE
  5
23E
  8
____1
  6
DOT
 62
     7
 10
14248.40797903828
 20
9662.2939192708309
 30
0.0
 11
14248.40797903828
 21
11969.973919270829
 31
0.0
  0
LINE
  5
23F
  8
____1
  6
DOT
 62
     7
 10
17528.087979038271
 20
9662.2939192708309
 30
0.0
 11
17528.087979038271
 21
11969.973919270829
 31
0.0
  0
LINE
  5
240
  8
____1
  6
DOT
 62
     7
 10
14248.40797903828
 20
9662.2939192708309
 30
0.0
 11
17528.087979038271
 21
9662.2939192708309
 31
0.0
  0
LINE
  5
241
  8
____1
  6
CONTINUOUS
 62
     7
 10
16661.533150944571
 20
9728.7473030059355
 30
0.0
 11
16661.533150944571
 21
9740.7473030059336
 31
0.0
  0
LINE
  5
242
  8
____1
  6
DOT
 62
     7
 10
17528.087979038271
 20
11969.973919270829
 30
0.0
 11
14248.40797903828
 21
11969.973919270829
 31
0.0
  0
LINE
  5
243
  8
____1
  6
CONTINUOUS
 62
     7
 10
16641.533150944571
 20
9740.7473030059336
 30
0.0
 11
16641.533150944571
 21
9728.7473030059355
 31
0.0
  0
LINE
  5
244
  8
____1
  6
CONTINUOUS
 62
     7
 10
16697.533150944571
 20
9756.7473030059336
 30
0.0
 11
16709.533150944571
 21
9768.7473030059336
 31
0.0
  0
LINE
  5
245
  8
____1
  6
CONTINUOUS
 62
     7
 10
16846.648527282348
 20
9734.3473030059322
 30
0.0
 11
16844.771193949011
 21
9740.7473030059336
 31
0.0
  0
LINE
  5
246
  8
____1
  6
CONTINUOUS
 62
     7
 10
16661.533150944571
 20
9752.7473030059336
 30
0.0
 11
16661.533150944571
 21
9756.7473030059336
 31
0.0
  0
LINE
  5
247
  8
____1
  6
CONTINUOUS
 62
     7
 10
16785.719754246111
 20
9729.9542533341446
 30
0.0
 11
16784.294937767769
 21
9728.5592281806275
 31
0.0
  0
LINE
  5
248
  8
____1
  6
CONTINUOUS
 62
     7
 10
16794.817999429411
 20
9756.7473030059336
 30
0.0
 11
16802.817999429411
 21
9768.7473030059336
 31
0.0
  0
LINE
  5
249
  8
____1
  6
CONTINUOUS
 62
     7
 10
16677.533150944571
 20
9768.7473030059336
 30
0.0
 11
16677.533150944571
 21
9752.7473030059336
 31
0.0
  0
LINE
  5
24A
  8
____1
  6
CONTINUOUS
 62
     7
 10
16867.3493880973
 20
9740.7473030059336
 30
0.0
 11
16892.557860615681
 21
9740.7473030059336
 31
0.0
  0
LINE
  5
24B
  8
____1
  6
CONTINUOUS
 62
     7
 10
16730.817999429411
 20
9712.7473030059336
 30
0.0
 11
16750.817999429411
 21
9712.7473030059336
 31
0.0
  0
LINE
  5
24C
  8
____1
  6
CONTINUOUS
 62
     7
 10
16730.817999429411
 20
9750.1704208660813
 30
0.0
 11
16762.817999429411
 21
9750.1704208660813
 31
0.0
  0
TEXT
  5
24D
  8
____1
  6
CONTINUOUS
 62
     7
 10
17039.347977512389
 20
11907.11808606466
 30
0.0
 40
25.39999961853027
  1
改　訂　内　容
  7
STYLE1
  0
LINE
  5
24E
  8
____1
  6
CONTINUOUS
 62
     5
 10
16928.247979038271
 20
11816.133919270829
 30
0.0
 11
16928.247979038271
 21
11936.133919270829
 31
0.0
  0
LINE
  5
24F
  8
____1
  6
CONTINUOUS
 62
     5
 10
17328.247979038271
 20
11816.133919270829
 30
0.0
 11
17328.247979038271
 21
11936.133919270829
 31
0.0
  0
LINE
  5
250
  8
____1
  6
CONTINUOUS
 62
     5
 10
16800.247979038271
 20
11816.133919270829
 30
0.0
 11
16800.247979038271
 21
11936.133919270829
 31
0.0
  0
LINE
  5
251
  8
____1
  6
CONTINUOUS
 62
     5
 10
16746.173695949929
 20
11859.58025327886
 30
0.0
 11
16785.773695949931
 21
11859.58025327886
 31
0.0
  0
LINE
  5
252
  8
____1
  6
CONTINUOUS
 62
     5
 10
16765.973695949931
 20
11854.27485926872
 30
0.0
 11
16785.773695949931
 21
11819.98025327886
 31
0.0
  0
ENDBLK
  5
253
  8
0
  0
BLOCK
  8
0
  2
*D24
 70
     1
 10
0.0
 20
0.0
 30
0.0
  3
*D24
  1

  0
LINE
  5
257
  8
____1
  6
CONTINUOUS
 62
     7
 10
15722.29253731085
 20
10860.207142655319
 30
0.0
 11
15995.23096160879
 21
10860.207142655319
 31
0.0
  0
LINE
  5
258
  8
____1
  6
CONTINUOUS
 62
     7
 10
15722.29253731085
 20
11400.20714265533
 30
0.0
 11
15995.23096160879
 21
11400.20714265533
 31
0.0
  0
SOLID
  5
259
  8
____1
  6
CONTINUOUS
 62
     7
 10
15983.23096160879
 20
11380.20714265533
 30
0.0
 11
15983.23096160879
 21
11380.20714265533
 31
0.0
 12
15984.23096160879
 22
11385.20714265533
 32
0.0
 13
15987.23096160879
 23
11385.20714265533
 33
0.0
  0
SOLID
  5
25A
  8
____1
  6
CONTINUOUS
 62
     7
 10
15991.23096160879
 20
11380.20714265533
 30
0.0
 11
15991.23096160879
 21
11380.20714265533
 31
0.0
 12
15987.23096160879
 22
11385.20714265533
 32
0.0
 13
15990.23096160879
 23
11385.20714265533
 33
0.0
  0
SOLID
  5
25B
  8
____1
  6
CONTINUOUS
 62
     7
 10
15984.23096160879
 20
11385.20714265533
 30
0.0
 11
15990.23096160879
 21
11385.20714265533
 31
0.0
 12
15987.23096160879
 22
11400.20714265533
 32
0.0
 13
15987.23096160879
 23
11400.20714265533
 33
0.0
  0
LINE
  5
25C
  8
____1
  6
CONTINUOUS
 62
     7
 10
15987.23096160879
 20
11400.20714265533
 30
0.0
 11
15987.23096160879
 21
11118.00227093049
 31
0.0
  0
SOLID
  5
25D
  8
____1
  6
CONTINUOUS
 62
     7
 10
15987.23096160879
 20
10860.207142655319
 30
0.0
 11
15987.23096160879
 21
10860.207142655319
 31
0.0
 12
15984.23096160879
 22
10875.207142655319
 32
0.0
 13
15990.23096160879
 23
10875.207142655319
 33
0.0
  0
SOLID
  5
25E
  8
____1
  6
CONTINUOUS
 62
     7
 10
15984.23096160879
 20
10875.207142655319
 30
0.0
 11
15987.23096160879
 21
10875.207142655319
 31
0.0
 12
15983.23096160879
 22
10880.207142655319
 32
0.0
 13
15983.23096160879
 23
10880.207142655319
 33
0.0
  0
SOLID
  5
25F
  8
____1
  6
CONTINUOUS
 62
     7
 10
15987.23096160879
 20
10875.207142655319
 30
0.0
 11
15990.23096160879
 21
10875.207142655319
 31
0.0
 12
15991.23096160879
 22
10880.207142655319
 32
0.0
 13
15991.23096160879
 23
10880.207142655319
 33
0.0
  0
LINE
  5
260
  8
____1
  6
CONTINUOUS
 62
     7
 10
15987.23096160879
 20
10860.207142655319
 30
0.0
 11
15987.23096160879
 21
11118.00227093049
 31
0.0
  0
TEXT
  5
261
  8
______
  6
DASHED2
 62
     7
 10
15979.11522099168
 20
11096.83560489961
 30
0.0
 40
28.222221374511719
  1
540
 50
90.0
  7
STYLE1
  0
ENDBLK
  5
262
  8
0
  0
BLOCK
  8
0
  2
*D25
 70
     1
 10
0.0
 20
0.0
 30
0.0
  3
*D25
  1

  0
LINE
  5
266
  8
____1
  6
CONTINUOUS
 62
     7
 10
15902.29270239126
 20
11586.70714265533
 30
0.0
 11
16154.36736745376
 21
11586.70714265533
 31
0.0
  0
LINE
  5
267
  8
____1
  6
CONTINUOUS
 62
     7
 10
15902.29270239126
 20
10686.70714265533
 30
0.0
 11
16154.36736745376
 21
10686.70714265533
 31
0.0
  0
SOLID
  5
268
  8
____1
  6
CONTINUOUS
 62
     7
 10
16146.36736745376
 20
10686.70714265533
 30
0.0
 11
16146.36736745376
 21
10686.70714265533
 31
0.0
 12
16143.36736745376
 22
10701.70714265533
 32
0.0
 13
16149.36736745376
 23
10701.70714265533
 33
0.0
  0
SOLID
  5
269
  8
____1
  6
CONTINUOUS
 62
     7
 10
16143.36736745376
 20
10701.70714265533
 30
0.0
 11
16146.36736745376
 21
10701.70714265533
 31
0.0
 12
16142.36736745376
 22
10706.70714265533
 32
0.0
 13
16142.36736745376
 23
10706.70714265533
 33
0.0
  0
SOLID
  5
26A
  8
____1
  6
CONTINUOUS
 62
     7
 10
16146.36736745376
 20
10701.70714265533
 30
0.0
 11
16149.36736745376
 21
10701.70714265533
 31
0.0
 12
16150.36736745376
 22
10706.70714265533
 32
0.0
 13
16150.36736745376
 23
10706.70714265533
 33
0.0
  0
LINE
  5
26B
  8
____1
  6
CONTINUOUS
 62
     7
 10
16146.36736745376
 20
10686.70714265533
 30
0.0
 11
16146.36736745376
 21
11115.57532220441
 31
0.0
  0
SOLID
  5
26C
  8
____1
  6
CONTINUOUS
 62
     7
 10
16142.36736745376
 20
11566.70714265533
 30
0.0
 11
16142.36736745376
 21
11566.70714265533
 31
0.0
 12
16143.36736745376
 22
11571.70714265533
 32
0.0
 13
16146.36736745376
 23
11571.70714265533
 33
0.0
  0
SOLID
  5
26D
  8
____1
  6
CONTINUOUS
 62
     7
 10
16150.36736745376
 20
11566.70714265533
 30
0.0
 11
16150.36736745376
 21
11566.70714265533
 31
0.0
 12
16146.36736745376
 22
11571.70714265533
 32
0.0
 13
16149.36736745376
 23
11571.70714265533
 33
0.0
  0
SOLID
  5
26E
  8
____1
  6
CONTINUOUS
 62
     7
 10
16143.36736745376
 20
11571.70714265533
 30
0.0
 11
16149.36736745376
 21
11571.70714265533
 31
0.0
 12
16146.36736745376
 22
11586.70714265533
 32
0.0
 13
16146.36736745376
 23
11586.70714265533
 33
0.0
  0
LINE
  5
26F
  8
____1
  6
CONTINUOUS
 62
     7
 10
16146.36736745376
 20
11586.70714265533
 30
0.0
 11
16146.36736745376
 21
11115.57532220441
 31
0.0
  0
TEXT
  5
270
  8
______
  6
DASHED2
 62
     7
 10
16138.25162683664
 20
11094.408656173529
 30
0.0
 40
28.222221374511719
  1
900
 50
90.0
  7
STYLE1
  0
ENDBLK
  5
271
  8
0
  0
BLOCK
  8
0
  2
C11
 70
     0
 10
0.0
 20
0.0
 30
0.0
  3
C11
  1

  0
CIRCLE
  5
275
  8
____1
  6
CONTINUOUS
 62
     7
 10
15999.110718659191
 20
10768.50413232266
 30
0.0
 40
28.0
  0
TEXT
  5
276
  8
______
  6
CENTER2
 62
     7
 10
15992.055163315559
 20
10758.508762252521
 30
0.0
 40
28.222221374511719
  1
1
  7
STYLE1
  0
LINE
  5
277
  8
______
  6
CONTINUOUS
 62
     7
 10
15952.444051992519
 20
10768.50413232266
 30
0.0
 11
15971.11071865918
 21
10768.50413232266
 31
0.0
  0
LINE
  5
278
  8
______
  6
CONTINUOUS
 62
     7
 10
15718.29253731085
 20
10964.07255680183
 30
0.0
 11
15952.444051992519
 21
10768.50413232266
 31
0.0
  0
SOLID
  5
279
  8
______
 62
     7
 10
15718.29253731085
 20
10964.07255680183
 30
0.0
 11
15723.150522760459
 21
10957.40922600024
 31
0.0
 12
15718.29253731085
 22
10964.07255680183
 32
0.0
 13
15722.897585416729
 23
10960.22632072711
 33
0.0
  0
SOLID
  5
27A
  8
______
 62
     7
 10
15722.897585416729
 20
10960.22632072711
 30
0.0
 11
15725.714680143599
 21
10960.479258070831
 31
0.0
 12
15718.29253731085
 22
10964.07255680183
 32
0.0
 13
15718.29253731085
 23
10964.07255680183
 33
0.0
  0
ENDBLK
  5
27B
  8
0
  0
BLOCK
  8
0
  2
C12
 70
     0
 10
0.0
 20
0.0
 30
0.0
  3
C12
  1

  0
LINE
  5
27F
  8
____1
  6
CONTINUOUS
 62
     7
 10
16800.247979038271
 20
10280.133919270829
 30
0.0
 11
16800.247979038271
 21
10320.133919270829
 31
0.0
  0
LINE
  5
280
  8
____1
  6
CONTINUOUS
 62
     7
 10
16328.247979038269
 20
10280.133919270829
 30
0.0
 11
16328.247979038269
 21
10320.133919270829
 31
0.0
  0
LINE
  5
281
  8
____1
  6
CONTINUOUS
 62
     7
 10
16400.247979038271
 20
10280.133919270829
 30
0.0
 11
16400.247979038271
 21
10320.133919270829
 31
0.0
  0
LINE
  5
282
  8
____1
  6
CONTINUOUS
 62
     7
 10
17240.247979038279
 20
10280.133919270829
 30
0.0
 11
17240.247979038279
 21
10320.133919270829
 31
0.0
  0
LINE
  5
283
  8
____1
  6
CONTINUOUS
 62
     7
 10
17168.247979038271
 20
10280.133919270829
 30
0.0
 11
17168.247979038271
 21
10320.133919270829
 31
0.0
  0
LINE
  5
284
  8
____1
  6
CONTINUOUS
 62
     7
 10
17488.247979038271
 20
10320.133919270829
 30
0.0
 11
16328.247979038269
 21
10320.133919270829
 31
0.0
  0
ENDBLK
  5
285
  8
0
  0
BLOCK
  8
0
  2
C13
 70
     0
 10
0.0
 20
0.0
 30
0.0
  3
C13
  1

  0
LINE
  5
289
  8
____1
  6
CONTINUOUS
 62
     7
 10
16800.247979038271
 20
10240.133919270829
 30
0.0
 11
16800.247979038271
 21
10280.133919270829
 31
0.0
  0
LINE
  5
28A
  8
____1
  6
CONTINUOUS
 62
     7
 10
16328.247979038269
 20
10240.133919270829
 30
0.0
 11
16328.247979038269
 21
10280.133919270829
 31
0.0
  0
LINE
  5
28B
  8
____1
  6
CONTINUOUS
 62
     7
 10
16400.247979038271
 20
10240.133919270829
 30
0.0
 11
16400.247979038271
 21
10280.133919270829
 31
0.0
  0
LINE
  5
28C
  8
____1
  6
CONTINUOUS
 62
     7
 10
17240.247979038279
 20
10240.133919270829
 30
0.0
 11
17240.247979038279
 21
10280.133919270829
 31
0.0
  0
LINE
  5
28D
  8
____1
  6
CONTINUOUS
 62
     7
 10
17168.247979038271
 20
10240.133919270829
 30
0.0
 11
17168.247979038271
 21
10280.133919270829
 31
0.0
  0
LINE
  5
28E
  8
____1
  6
CONTINUOUS
 62
     7
 10
17488.247979038271
 20
10280.133919270829
 30
0.0
 11
16328.247979038269
 21
10280.133919270829
 31
0.0
  0
ENDBLK
  5
28F
  8
0
  0
BLOCK
  8
0
  2
C14
 70
     0
 10
0.0
 20
0.0
 30
0.0
  3
C14
  1

  0
LINE
  5
293
  8
____1
  6
DOT
 62
     4
 10
16939.816448931379
 20
11415.92734797823
 30
0.0
 11
16821.928141728698
 21
11174.424277051399
 31
0.0
  0
ARC
  5
294
  8
____1
  6
DOT
 62
     4
 10
16980.056305662929
 20
11398.03942361081
 30
0.0
 40
1.5000000000086
 50
-23.89429871346605
 51
66.105748201295668
  0
ARC
  5
295
  8
____1
  6
DOT
 62
     4
 10
16897.952772951849
 20
11209.10253339952
 30
0.0
 40
3.0000000000000471
 50
-113.8943460201842
 51
-23.89434602014521
  0
ARC
  5
296
  8
____1
  6
DOT
 62
     4
 10
16873.428365508909
 20
11254.967045165949
 30
0.0
 40
3.0000000000072471
 50
66.10565397980173
 51
156.10565397960789
  0
ARC
  5
297
  8
____1
  6
DOT
 62
     4
 10
16860.46672180614
 20
11225.70963939369
 30
0.0
 40
2.9999999999926579
 50
156.10565397983021
 51
-113.8943460201134
  0
ARC
  5
298
  8
____1
  6
DOT
 62
     4
 10
16762.54372227583
 20
10907.06358299513
 30
0.0
 40
1.499999999997939
 50
-113.8943271948848
 51
-23.894296848185629
  0
ARC
  5
299
  8
____1
  6
DOT
 62
     4
 10
16941.16442135159
 20
11415.269343149719
 30
0.0
 40
1.5000000000011291
 50
66.105653979759495
 51
153.9809546298124
  0
ARC
  5
29A
  8
____1
  6
DOT
 62
     4
 10
16723.651837964469
 20
10924.293502534039
 30
0.0
 40
1.5000000000107081
 50
158.23035333029449
 51
-113.8943460199864
  0
LINE
  5
29B
  8
____1
  6
DOT
 62
     4
 10
16763.915163692829
 20
10906.45600712355
 30
0.0
 11
16896.772011124802
 21
11206.344415112189
 31
0.0
  0
LINE
  5
29C
  8
____1
  6
DOT
 62
     4
 10
16857.723840015002
 20
11226.92479349082
 30
0.0
 11
16870.685483717771
 21
11256.18219926309
 31
0.0
  0
LINE
  5
29D
  8
____1
  6
DOT
 62
     4
 10
16896.73761885471
 20
11206.35965160836
 30
0.0
 11
16859.251567709009
 21
11222.96675760254
 31
0.0
  0
LINE
  5
29E
  8
____1
  6
DOT
 62
     4
 10
16723.044260915911
 20
10922.922061638459
 30
0.0
 11
16761.936145677872
 21
10905.69214189993
 31
0.0
  0
LINE
  5
29F
  8
____1
  6
DOT
 62
     4
 10
16722.258814312761
 20
10924.84981638952
 30
0.0
 11
16821.928141728698
 21
11174.424277051399
 31
0.0
  0
LINE
  5
2A0
  8
____1
  6
DOT
 62
     4
 10
16941.77199840016
 20
11416.64078404529
 30
0.0
 11
16980.663880456199
 21
11399.41086550553
 31
0.0
  0
LINE
  5
2A1
  8
____1
  6
DOT
 62
     4
 10
16874.643519606048
 20
11257.709926957101
 30
0.0
 11
16912.129570751749
 21
11241.10282096292
 31
0.0
  0
LINE
  5
2A2
  8
____1
  6
DOT
 62
     4
 10
16913.657298445771
 20
11237.144785074641
 30
0.0
 11
16900.695654743002
 21
11207.887379302379
 31
0.0
  0
ARC
  5
2A3
  8
____1
  6
DOT
 62
     4
 10
16910.914416654621
 20
11238.359939171771
 30
0.0
 40
2.9999999999993112
 50
-23.89434602014521
 51
66.105653979886554
  0
LINE
  5
2A4
  8
____1
  6
DOT
 62
     4
 10
16912.163963021831
 20
11241.08758446675
 30
0.0
 11
16981.427747060159
 21
11397.43184769457
 31
0.0
  0
CIRCLE
  5
2A5
  8
____1
  6
DOT
 62
     4
 10
16892.547773708258
 20
11228.996904039899
 30
0.0
 40
4.9999999999973612
  0
CIRCLE
  5
2A6
  8
____1
  6
DOT
 62
     4
 10
16892.547773708258
 20
11228.996904039899
 30
0.0
 40
4.2500000000001421
  0
ENDBLK
  5
2A7
  8
0
  0
BLOCK
  8
0
  2
C15
 70
     0
 10
0.0
 20
0.0
 30
0.0
  3
C15
  1

  0
LINE
  5
2AB
  8
____1
  6
CENTER2
 62
     4
 10
16981.221561453269
 20
11437.114860516571
 30
0.0
 11
16712.481815387058
 21
11437.69376160534
 31
0.0
  0
ARC
  5
2AC
  8
____1
  6
CENTER2
 62
     4
 10
16982.703819023591
 20
11393.10319364918
 30
0.0
 40
1.500000000011545
 50
-87.998675867102818
 51
2.0013710478362658
  0
ARC
  5
2AD
  8
____1
  6
CENTER2
 62
     4
 10
16776.880537948418
 20
11384.447817643149
 30
0.0
 40
3.0000000000006182
 50
-177.99872317377501
 51
-87.998723173670868
  0
ARC
  5
2AE
  8
____1
  6
CENTER2
 62
     4
 10
16807.429227032189
 20
11426.540306227969
 30
0.0
 40
3.0000000000004912
 50
2.0012768262596921
 51
92.001276826190264
  0
ARC
  5
2AF
  8
____1
  6
CENTER2
 62
     4
 10
16775.448745462851
 20
11425.42280965387
 30
0.0
 40
2.9999999999930931
 50
92.001276826195109
 51
-177.9987231736313
  0
ARC
  5
2B0
  8
____1
  6
CENTER2
 62
     4
 10
16446.031362688111
 20
11374.350204264991
 30
0.0
 40
1.4999999999979581
 50
-177.9987043484623
 51
-87.998674001942121
  0
ARC
  5
2B1
  8
____1
  6
CENTER2
 62
     4
 10
16981.21833026165
 20
11435.61486399678
 30
0.0
 40
1.4999999999928471
 50
2.001276826130522
 51
89.876577476053626
  0
ARC
  5
2B2
  8
____1
  6
CENTER2
 62
     4
 10
16444.545873926159
 20
11416.86187461259
 30
0.0
 40
1.5000000000027309
 50
94.125976176662476
 51
-177.99872317367081
  0
LINE
  5
2B3
  8
____1
  6
CENTER2
 62
     4
 10
16446.083746626551
 20
11372.85111923638
 30
0.0
 11
16773.883681425759
 21
11384.305459075989
 31
0.0
  0
LINE
  5
2B4
  8
____1
  6
CENTER2
 62
     4
 10
16775.343980159028
 20
11428.420979800991
 30
0.0
 11
16807.324461728371
 21
11429.53847637509
 31
0.0
  0
LINE
  5
2B5
  8
____1
  6
CENTER2
 62
     4
 10
16773.882367801289
 20
11384.343052339331
 30
0.0
 11
16772.450575315728
 21
11425.318044350041
 31
0.0
  0
LINE
  5
2B6
  8
____1
  6
CENTER2
 62
     4
 10
16443.046788852589
 20
11416.809491960679
 30
0.0
 11
16444.532277631752
 21
11374.29782112053
 31
0.0
  0
LINE
  5
2B7
  8
____1
  6
CENTER2
 62
     4
 10
16444.437949456398
 20
11418.35798701105
 30
0.0
 11
16712.481815387058
 21
11437.69376160534
 31
0.0
  0
LINE
  5
2B8
  8
____1
  6
CENTER2
 62
     4
 10
16982.71741533521
 20
11435.66724664868
 30
0.0
 11
16984.202904011021
 21
11393.1555787663
 31
0.0
  0
LINE
  5
2B9
  8
____1
  6
CENTER2
 62
     4
 10
16810.427397179312
 20
11426.64507153179
 30
0.0
 11
16811.85918966488
 21
11385.67007952108
 31
0.0
  0
LINE
  5
2BA
  8
____1
  6
CENTER2
 62
     4
 10
16808.965784821579
 20
11382.56714407013
 30
0.0
 11
16776.985303252241
 21
11381.44964749602
 31
0.0
  0
ARC
  5
2BB
  8
____1
  6
CENTER2
 62
     4
 10
16808.861019517761
 20
11385.56531421726
 30
0.0
 40
2.9999999999932832
 50
-87.998723173809751
 51
2.0012768262992631
  0
LINE
  5
2BC
  8
____1
  6
CENTER2
 62
     4
 10
16811.86050328935
 20
11385.63248625774
 30
0.0
 11
16982.75620291322
 21
11391.60410861886
 31
0.0
  0
CIRCLE
  5
2BD
  8
____1
  6
DOT
 62
     4
 10
16792.416795749868
 20
11397.99863656774
 30
0.0
 40
4.999999999994718
  0
CIRCLE
  5
2BE
  8
____1
  6
DOT
 62
     4
 10
16792.416795749868
 20
11397.99863656774
 30
0.0
 40
4.250000000000532
  0
ENDBLK
  5
2BF
  8
0
  0
BLOCK
  8
0
  2
C16
 70
     0
 10
0.0
 20
0.0
 30
0.0
  3
C16
  1

  0
LINE
  5
2C3
  8
____1
  6
DOT
 62
     4
 10
16957.991800156891
 20
11432.7273032552
 30
0.0
 11
16728.057321231779
 21
11293.61755649515
 31
0.0
  0
ARC
  5
2C4
  8
____1
  6
DOT
 62
     4
 10
16982.121461572289
 20
11395.890048363861
 30
0.0
 40
1.5000000000122791
 50
-56.701426962014942
 51
33.298619952970881
  0
ARC
  5
2C5
  8
____1
  6
DOT
 62
     4
 10
16810.745085683349
 20
11281.5734863375
 30
0.0
 40
3.000000000000576
 50
-146.7014742685524
 51
-56.701474268524208
  0
ARC
  5
2C6
  8
____1
  6
DOT
 62
     4
 10
16814.982319513048
 20
11333.41020931911
 30
0.0
 40
3.0000000000010529
 50
33.298525731552949
 51
123.29852573139949
  0
ARC
  5
2C7
  8
____1
  6
DOT
 62
     4
 10
16788.236031899931
 20
11315.842167341811
 30
0.0
 40
2.9999999999960152
 50
123.298525731533
 51
-146.70147426847609
  0
ARC
  5
2C8
  8
____1
  6
DOT
 62
     4
 10
16533.285322564669
 20
11101.076343932171
 30
0.0
 40
1.4999999999989051
 50
-146.70145544332991
 51
-56.701425096524282
  0
ARC
  5
2C9
  8
____1
  6
DOT
 62
     4
 10
16958.768254473998
 20
11431.443902034451
 30
0.0
 40
1.500000000007651
 50
33.298525731207917
 51
121.1738263812429
  0
ARC
  5
2CA
  8
____1
  6
DOT
 62
     4
 10
16509.932115466381
 20
11136.63019760275
 30
0.0
 40
1.5000000000090781
 50
125.42322508198519
 51
-146.70147426858139
  0
LINE
  5
2CB
  8
____1
  6
DOT
 62
     4
 10
16534.108825608331
 20
11099.82261240705
 30
0.0
 11
16808.258272566811
 21
11279.895041967709
 31
0.0
  0
LINE
  5
2CC
  8
____1
  6
DOT
 62
     4
 10
16786.58902796455
 20
11318.349631805529
 30
0.0
 11
16813.335315577679
 21
11335.917673782849
 31
0.0
  0
LINE
  5
2CD
  8
____1
  6
DOT
 62
     4
 10
16808.237621219621
 20
11279.92648240213
 30
0.0
 11
16785.728567436199
 21
11314.19516340643
 31
0.0
  0
LINE
  5
2CE
  8
____1
  6
DOT
 62
     4
 10
16508.67838323451
 20
11135.80669563507
 30
0.0
 11
16532.031590603379
 21
11100.25284155255
 31
0.0
  0
LINE
  5
2CF
  8
____1
  6
DOT
 62
     4
 10
16509.0626981561
 20
11137.85253697487
 30
0.0
 11
16728.057321231779
 21
11293.61755649515
 31
0.0
  0
LINE
  5
2D0
  8
____1
  6
DOT
 62
     4
 10
16960.021986705869
 20
11432.26740400213
 30
0.0
 11
16983.375192449941
 21
11396.71355239329
 31
0.0
  0
LINE
  5
2D1
  8
____1
  6
DOT
 62
     4
 10
16817.48978397678
 20
11335.057213254489
 30
0.0
 11
16839.998837760191
 21
11300.788532250181
 31
0.0
  0
LINE
  5
2D2
  8
____1
  6
DOT
 62
     4
 10
16839.13837723184
 20
11296.634063851079
 30
0.0
 11
16812.392089618719
 21
11279.06602187377
 31
0.0
  0
ARC
  5
2D3
  8
____1
  6
DOT
 62
     4
 10
16837.49137329646
 20
11299.141528314811
 30
0.0
 40
2.9999999999990559
 50
-56.701474268408063
 51
33.298525731494863
  0
LINE
  5
2D4
  8
____1
  6
DOT
 62
     4
 10
16840.019489107392
 20
11300.757091815771
 30
0.0
 11
16982.944964575119
 21
11394.636316811921
 31
0.0
  0
CIRCLE
  5
2D5
  8
____1
  6
DOT
 62
     4
 10
16816.98121243664
 20
11301.223186668991
 30
0.0
 40
4.9999999999984777
  0
CIRCLE
  5
2D6
  8
____1
  6
DOT
 62
     4
 10
16816.98121243664
 20
11301.223186668991
 30
0.0
 40
4.2499999999985851
  0
ENDBLK
  5
2D7
  8
0
  0
BLOCK
  8
0
  2
C17
 70
     0
 10
0.0
 20
0.0
 30
0.0
  3
C17
  1

  0
CIRCLE
  5
2E5
  8
____1
  6
CONTINUOUS
 62
     7
 10
14931.078373861439
 20
10579.49414079682
 30
0.0
 40
28.0
  0
TEXT
  5
2E6
  8
______
  6
CENTER2
 62
     7
 10
14924.02281851782
 20
10569.498770726679
 30
0.0
 40
28.222221374511719
  1
2
  7
STYLE1
  0
LINE
  5
2E7
  8
______
  6
CONTINUOUS
 62
     7
 10
14977.745040528111
 20
10579.49414079682
 30
0.0
 11
14959.07837386145
 21
10579.49414079682
 31
0.0
  0
LINE
  5
2E8
  8
______
  6
CONTINUOUS
 62
     7
 10
15102.209269081681
 20
10686.707142655319
 30
0.0
 11
14977.745040528111
 21
10579.49414079682
 31
0.0
  0
SOLID
  5
2E9
  8
______
 62
     7
 10
15102.209269081681
 20
10686.707142655319
 30
0.0
 11
15094.842678663999
 21
10683.001289768579
 31
0.0
 12
15102.209269081681
 22
10686.707142655319
 32
0.0
 13
15097.66329694333
 23
10682.79125995568
 33
0.0
  0
SOLID
  5
2EA
  8
______
 62
     7
 10
15097.66329694333
 20
10682.79125995568
 30
0.0
 11
15097.45326713043
 21
10679.970641676349
 31
0.0
 12
15102.209269081681
 22
10686.707142655319
 32
0.0
 13
15102.209269081681
 23
10686.707142655319
 33
0.0
  0
ENDBLK
  5
2EB
  8
0
  0
BLOCK
  8
0
  2
C18
 70
     0
 10
0.0
 20
0.0
 30
0.0
  3
C18
  1

  0
LINE
  5
2F0
  8
____1
  6
DASHED2
 62
     7
 10
15198.79270239126
 20
10314.990510715639
 30
0.0
 11
15228.29270239126
 21
10314.990510715639
 31
0.0
  0
ARC
  5
2F1
  8
____1
  6
DASHED2
 62
     7
 10
15228.29270239126
 20
10317.490510715639
 30
0.0
 40
2.5
 50
-90.0
 51
0.0
  0
LINE
  5
2F2
  8
____1
  6
DASHED2
 62
     7
 10
15230.79270239126
 20
10359.990510715639
 30
0.0
 11
15230.79270239126
 21
10317.490510715639
 31
0.0
  0
LINE
  5
2F3
  8
____1
  6
DASHED2
 62
     7
 10
15228.29270239126
 20
10317.69051071564
 30
0.0
 11
15230.79270239126
 21
10317.69051071564
 31
0.0
  0
LINE
  5
2F4
  8
____1
  6
DASHED2
 62
     7
 10
15230.79270239126
 20
10359.990510715639
 30
0.0
 11
15198.29270239126
 21
10359.990510715639
 31
0.0
  0
LINE
  5
2F5
  8
____1
  6
DASHED2
 62
     7
 10
15228.29270239126
 20
10317.69051071564
 30
0.0
 11
15198.29270239126
 21
10317.69051071564
 31
0.0
  0
LINE
  5
2F6
  8
____1
  6
DASHED2
 62
     7
 10
15228.29270239126
 20
10317.490510715639
 30
0.0
 11
15198.79270239126
 21
10317.490510715639
 31
0.0
  0
LINE
  5
2F7
  8
____1
  6
DASHED2
 62
     7
 10
15228.29270239126
 20
10359.990510715639
 30
0.0
 11
15228.29270239126
 21
10317.69051071564
 31
0.0
  0
LINE
  5
2F8
  8
____1
  6
DASHED2
 62
     7
 10
15198.79270239126
 20
10317.490510715639
 30
0.0
 11
15198.79270239126
 21
10314.990510715639
 31
0.0
  0
LINE
  5
2F9
  8
____1
  6
DASHED2
 62
     7
 10
15198.29270239126
 20
10359.990510715639
 30
0.0
 11
15198.29270239126
 21
10317.69051071564
 31
0.0
  0
ENDBLK
  5
2FA
  8
0
  0
BLOCK
  8
0
  2
C19
 70
     0
 10
0.0
 20
0.0
 30
0.0
  3
C19
  1

  0
LINE
  5
2FE
  8
____1
  6
DOT
 62
     7
 10
15203.54270239126
 20
10340.238021132311
 30
0.0
 11
15233.29270239126
 21
10340.238021132311
 31
0.0
  0
INSERT
  5
309
  8
____1
  6
DASHED2
 62
     7
  2
C20
 10
0.0
 20
0.0
 30
0.0
  0
INSERT
  5
314
  8
____1
  6
DASHED2
 62
     7
  2
C21
 10
0.0
 20
0.0
 30
0.0
  0
INSERT
  5
330
  8
____1
  6
DASHED2
 62
     7
  2
C22
 10
0.0
 20
0.0
 30
0.0
  0
INSERT
  5
339
  8
____1
  6
DASHED2
 62
     7
  2
C23
 10
0.0
 20
0.0
 30
0.0
  0
INSERT
  5
343
  8
____1
  6
DASHED2
 62
     7
  2
C24
 10
0.0
 20
0.0
 30
0.0
  0
LINE
  5
344
  8
____1
  6
DASHED2
 62
     7
 10
15233.54270239126
 20
10354.30297570853
 30
0.0
 11
15233.54270239126
 21
10334.673066556081
 31
0.0
  0
LINE
  5
345
  8
____1
  6
DASHED2
 62
     7
 10
15239.78369594875
 20
10339.580543844189
 30
0.0
 11
15233.54270239126
 21
10339.580543844189
 31
0.0
  0
LINE
  5
346
  8
____1
  6
DASHED2
 62
     7
 10
15239.7835130127
 20
10334.673066556081
 30
0.0
 11
15233.54270239126
 21
10334.673066556081
 31
0.0
  0
LINE
  5
347
  8
____1
  6
DASHED2
 62
     7
 10
15239.7835130127
 20
10354.30297570853
 30
0.0
 11
15233.54270239126
 21
10354.30297570853
 31
0.0
  0
LINE
  5
348
  8
____1
  6
DASHED2
 62
     7
 10
15240.54270239126
 20
10352.988021132311
 30
0.0
 11
15239.7835130127
 21
10354.30297570853
 31
0.0
  0
LINE
  5
349
  8
____1
  6
DASHED2
 62
     7
 10
15239.78369594875
 20
10349.395498420419
 30
0.0
 11
15233.54270239126
 21
10349.395498420419
 31
0.0
  0
LINE
  5
34A
  8
____1
  6
DASHED2
 62
     7
 10
15240.54270239126
 20
10352.988021132311
 30
0.0
 11
15240.54270239126
 21
10344.488021132311
 31
0.0
  0
LINE
  5
34B
  8
____1
  6
DASHED2
 62
     7
 10
15240.54270239126
 20
10335.988021132311
 30
0.0
 11
15239.7835130127
 21
10334.673066556081
 31
0.0
  0
LINE
  5
34C
  8
____1
  6
DASHED2
 62
     7
 10
15240.54270239126
 20
10335.988021132311
 30
0.0
 11
15240.54270239126
 21
10344.488021132311
 31
0.0
  0
ARC
  5
34D
  8
____1
  6
DASHED2
 62
     7
 10
15224.29816036101
 20
10344.488021132311
 30
0.0
 40
16.244542030249011
 50
-17.583976886999029
 51
0.0
  0
ARC
  5
34E
  8
____1
  6
DASHED2
 62
     7
 10
15236.197332616541
 20
10337.12680520014
 30
0.0
 40
4.3453697747213198
 50
-25.605116760745439
 51
34.379996836931312
  0
ARC
  5
34F
  8
____1
  6
DASHED2
 62
     7
 10
15236.197332616541
 20
10351.849237064471
 30
0.0
 40
4.3453697747213198
 50
-34.379996836970903
 51
25.605116760745439
  0
ARC
  5
350
  8
____1
  6
DASHED2
 62
     7
 10
15224.29816036101
 20
10344.488021132311
 30
0.0
 40
16.244542030247899
 50
0.0
 51
17.5839768869868
  0
LINE
  5
351
  8
____1
  6
DOT
 62
     7
 10
15203.54270239126
 20
10348.738021132311
 30
0.0
 11
15204.29270239126
 21
10349.488021132311
 31
0.0
  0
LINE
  5
352
  8
____1
  6
DOT
 62
     7
 10
15203.54270239126
 20
10348.738021132311
 30
0.0
 11
15203.54270239126
 21
10340.238021132311
 31
0.0
  0
LINE
  5
353
  8
____1
  6
DOT
 62
     7
 10
15204.29270239126
 20
10349.488021132311
 30
0.0
 11
15204.29270239126
 21
10339.488021132311
 31
0.0
  0
LINE
  5
354
  8
____1
  6
DOT
 62
     7
 10
15203.54270239126
 20
10340.238021132311
 30
0.0
 11
15204.29270239126
 21
10339.488021132311
 31
0.0
  0
LINE
  5
355
  8
____1
  6
DOT
 62
     7
 10
15204.29270239126
 20
10349.488021132311
 30
0.0
 11
15233.29270239126
 21
10349.488021132311
 31
0.0
  0
LINE
  5
356
  8
____1
  6
DOT
 62
     7
 10
15204.29270239126
 20
10339.488021132311
 30
0.0
 11
15233.29270239126
 21
10339.488021132311
 31
0.0
  0
LINE
  5
357
  8
____1
  6
DOT
 62
     7
 10
15233.29270239126
 20
10348.738021132311
 30
0.0
 11
15203.54270239126
 21
10348.738021132311
 31
0.0
  0
ENDBLK
  5
358
  8
0
  0
BLOCK
  8
0
  2
C20
 70
     0
 10
0.0
 20
0.0
 30
0.0
  3
C20
  1

  0
LINE
  5
301
  8
____1
  6
DASHED2
 62
     7
 10
15231.04270239126
 20
10329.488021132311
 30
0.0
 11
15232.54270239126
 21
10329.488021132311
 31
0.0
  0
LINE
  5
302
  8
____1
  6
DASHED2
 62
     7
 10
15232.54270239126
 20
10329.488021132311
 30
0.0
 11
15232.54270239126
 21
10359.488021132311
 31
0.0
  0
LINE
  5
303
  8
____1
  6
DASHED2
 62
     7
 10
15231.04270239126
 20
10359.488021132311
 30
0.0
 11
15232.54270239126
 21
10359.488021132311
 31
0.0
  0
LINE
  5
304
  8
____1
  6
DASHED2
 62
     7
 10
15231.04270239126
 20
10329.488021132311
 30
0.0
 11
15231.04270239126
 21
10359.488021132311
 31
0.0
  0
LINE
  5
305
  8
____1
  6
DASHED2
 62
     7
 10
15233.54270239126
 20
10339.4880211323
 30
0.0
 11
15232.54270239126
 21
10329.488021132311
 31
0.0
  0
LINE
  5
306
  8
____1
  6
DASHED2
 62
     7
 10
15233.54270239126
 20
10339.4880211323
 30
0.0
 11
15233.54270239126
 21
10349.488021132311
 31
0.0
  0
LINE
  5
307
  8
____1
  6
DASHED2
 62
     7
 10
15233.54270239126
 20
10349.488021132311
 30
0.0
 11
15232.54270239126
 21
10359.488021132311
 31
0.0
  0
ENDBLK
  5
308
  8
0
  0
BLOCK
  8
0
  2
C21
 70
     0
 10
0.0
 20
0.0
 30
0.0
  3
C21
  1

  0
LINE
  5
30C
  8
____1
  6
DASHED2
 62
     7
 10
15228.04270239126
 20
10329.488021132311
 30
0.0
 11
15226.54270239126
 21
10329.488021132311
 31
0.0
  0
LINE
  5
30D
  8
____1
  6
DASHED2
 62
     7
 10
15226.54270239126
 20
10329.488021132311
 30
0.0
 11
15226.54270239126
 21
10359.488021132311
 31
0.0
  0
LINE
  5
30E
  8
____1
  6
DASHED2
 62
     7
 10
15228.04270239126
 20
10359.488021132311
 30
0.0
 11
15226.54270239126
 21
10359.488021132311
 31
0.0
  0
LINE
  5
30F
  8
____1
  6
DASHED2
 62
     7
 10
15228.04270239126
 20
10329.488021132311
 30
0.0
 11
15228.04270239126
 21
10359.488021132311
 31
0.0
  0
LINE
  5
310
  8
____1
  6
DASHED2
 62
     7
 10
15225.54270239126
 20
10339.4880211323
 30
0.0
 11
15226.54270239126
 21
10329.488021132311
 31
0.0
  0
LINE
  5
311
  8
____1
  6
DASHED2
 62
     7
 10
15225.54270239126
 20
10339.4880211323
 30
0.0
 11
15225.54270239126
 21
10349.488021132311
 31
0.0
  0
LINE
  5
312
  8
____1
  6
DASHED2
 62
     7
 10
15225.54270239126
 20
10349.488021132311
 30
0.0
 11
15226.54270239126
 21
10359.488021132311
 31
0.0
  0
ENDBLK
  5
313
  8
0
  0
BLOCK
  8
0
  2
C22
 70
     0
 10
0.0
 20
0.0
 30
0.0
  3
C22
  1

  0
LINE
  5
317
  8
____1
  6
DASHED2
 62
     7
 10
15208.04270239126
 20
10335.988021132311
 30
0.0
 11
15208.04270239126
 21
10344.488021132311
 31
0.0
  0
LINE
  5
318
  8
____1
  6
DASHED2
 62
     7
 10
15207.28369594875
 20
10339.580543844189
 30
0.0
 11
15205.04270239126
 21
10339.580543844189
 31
0.0
  0
LINE
  5
319
  8
____1
  6
DASHED2
 62
     7
 10
15205.04270239126
 20
10334.673066556081
 30
0.0
 11
15207.2835130127
 21
10334.673066556081
 31
0.0
  0
LINE
  5
31A
  8
____1
  6
DASHED2
 62
     7
 10
15208.04270239126
 20
10335.988021132311
 30
0.0
 11
15207.2835130127
 21
10334.673066556081
 31
0.0
  0
ARC
  5
31B
  8
____1
  6
DASHED2
 62
     7
 10
15203.697518530431
 20
10337.12680520014
 30
0.0
 40
4.3451838608270634
 50
-25.60931067049609
 51
34.38167415245934
  0
ARC
  5
31C
  8
____1
  6
DASHED2
 62
     7
 10
15191.79816036101
 20
10344.488021132311
 30
0.0
 40
16.244542030247679
 50
-17.58378196092935
 51
0.0
  0
LINE
  5
31D
  8
____1
  6
DASHED2
 62
     7
 10
15208.04270239126
 20
10352.988021132311
 30
0.0
 11
15208.04270239126
 21
10344.488021132311
 31
0.0
  0
LINE
  5
31E
  8
____1
  6
DASHED2
 62
     7
 10
15207.28369594875
 20
10349.395498420419
 30
0.0
 11
15205.04270239126
 21
10349.395498420419
 31
0.0
  0
LINE
  5
31F
  8
____1
  6
DASHED2
 62
     7
 10
15205.04270239126
 20
10354.30297570853
 30
0.0
 11
15207.2835130127
 21
10354.30297570853
 31
0.0
  0
LINE
  5
320
  8
____1
  6
DASHED2
 62
     7
 10
15208.04270239126
 20
10352.988021132311
 30
0.0
 11
15207.2835130127
 21
10354.30297570853
 31
0.0
  0
ARC
  5
321
  8
____1
  6
DASHED2
 62
     7
 10
15203.697518530431
 20
10351.849237064471
 30
0.0
 40
4.3451838608254896
 50
-34.381674152498931
 51
25.609310670452839
  0
ARC
  5
322
  8
____1
  6
DASHED2
 62
     7
 10
15191.79816036101
 20
10344.488021132311
 30
0.0
 40
16.244542030246588
 50
0.0
 51
17.583781960917118
  0
LINE
  5
323
  8
____1
  6
DASHED2
 62
     7
 10
15202.04270239126
 20
10352.988021132311
 30
0.0
 11
15202.04270239126
 21
10344.488021132311
 31
0.0
  0
LINE
  5
324
  8
____1
  6
DASHED2
 62
     7
 10
15202.801708833769
 20
10349.395498420419
 30
0.0
 11
15205.04270239126
 21
10349.395498420419
 31
0.0
  0
LINE
  5
325
  8
____1
  6
DASHED2
 62
     7
 10
15205.04270239126
 20
10354.30297570853
 30
0.0
 11
15202.80189176981
 21
10354.30297570853
 31
0.0
  0
LINE
  5
326
  8
____1
  6
DASHED2
 62
     7
 10
15202.04270239126
 20
10352.988021132311
 30
0.0
 11
15202.80189176981
 21
10354.30297570853
 31
0.0
  0
ARC
  5
327
  8
____1
  6
DASHED2
 62
     7
 10
15206.387886252091
 20
10351.849237064471
 30
0.0
 40
4.3451838608254896
 50
154.3906893295472
 51
-145.61832584750101
  0
ARC
  5
328
  8
____1
  6
DASHED2
 62
     7
 10
15218.28724442151
 20
10344.488021132311
 30
0.0
 40
16.244542030246588
 50
162.41621803908291
 51
180.0
  0
LINE
  5
329
  8
____1
  6
DASHED2
 62
     7
 10
15202.04270239126
 20
10335.988021132311
 30
0.0
 11
15202.04270239126
 21
10344.488021132311
 31
0.0
  0
LINE
  5
32A
  8
____1
  6
DASHED2
 62
     7
 10
15202.801708833769
 20
10339.580543844189
 30
0.0
 11
15205.04270239126
 21
10339.580543844189
 31
0.0
  0
LINE
  5
32B
  8
____1
  6
DASHED2
 62
     7
 10
15205.04270239126
 20
10334.673066556081
 30
0.0
 11
15202.80189176981
 21
10334.673066556081
 31
0.0
  0
LINE
  5
32C
  8
____1
  6
DASHED2
 62
     7
 10
15202.04270239126
 20
10335.988021132311
 30
0.0
 11
15202.80189176981
 21
10334.673066556081
 31
0.0
  0
ARC
  5
32D
  8
____1
  6
DASHED2
 62
     7
 10
15206.387886252091
 20
10337.12680520014
 30
0.0
 40
4.3451838608270634
 50
145.6183258475406
 51
-154.39068932950391
  0
ARC
  5
32E
  8
____1
  6
DASHED2
 62
     7
 10
15218.28724442151
 20
10344.488021132311
 30
0.0
 40
16.244542030247679
 50
180.0
 51
-162.4162180390706
  0
ENDBLK
  5
32F
  8
0
  0
BLOCK
  8
0
  2
C23
 70
     0
 10
0.0
 20
0.0
 30
0.0
  3
C23
  1

  0
LINE
  5
333
  8
____1
  6
DASHED2
 62
     7
 10
15208.04270239126
 20
10353.688198215639
 30
0.0
 11
15210.54270239126
 21
10353.688198215639
 31
0.0
  0
LINE
  5
334
  8
____1
  6
DASHED2
 62
     7
 10
15208.04270239126
 20
10335.28819821564
 30
0.0
 11
15208.04270239126
 21
10353.688198215639
 31
0.0
  0
LINE
  5
335
  8
____1
  6
DASHED2
 62
     7
 10
15210.54270239126
 20
10335.28819821564
 30
0.0
 11
15208.04270239126
 21
10335.28819821564
 31
0.0
  0
LINE
  5
336
  8
____1
  6
DASHED2
 62
     7
 10
15208.042820880841
 20
10345.143445611469
 30
0.0
 11
15210.542723224589
 21
10344.23355556977
 31
0.0
  0
LINE
  5
337
  8
____1
  6
DASHED2
 62
     7
 10
15208.042820880841
 20
10344.74344561147
 30
0.0
 11
15210.542723224589
 21
10343.83355556977
 31
0.0
  0
ENDBLK
  5
338
  8
0
  0
BLOCK
  8
0
  2
C24
 70
     0
 10
0.0
 20
0.0
 30
0.0
  3
C24
  1

  0
LINE
  5
33C
  8
____1
  6
DASHED2
 62
     7
 10
15225.54270239126
 20
10350.988021132311
 30
0.0
 11
15225.54270239126
 21
10337.988021132311
 31
0.0
  0
LINE
  5
33D
  8
____1
  6
DASHED2
 62
     7
 10
15214.54270239126
 20
10350.988021132311
 30
0.0
 11
15214.54270239126
 21
10337.988021132311
 31
0.0
  0
LINE
  5
33E
  8
____1
  6
DASHED2
 62
     7
 10
15225.54270239126
 20
10350.988021132311
 30
0.0
 11
15214.54270239126
 21
10350.988021132311
 31
0.0
  0
LINE
  5
33F
  8
____1
  6
DASHED2
 62
     7
 10
15225.54270239126
 20
10337.988021132311
 30
0.0
 11
15214.54270239126
 21
10337.988021132311
 31
0.0
  0
LINE
  5
340
  8
____1
  6
DOT
 62
     7
 10
15225.54270239126
 20
10349.78802113231
 30
0.0
 11
15214.54270239126
 21
10349.78802113231
 31
0.0
  0
LINE
  5
341
  8
____1
  6
DOT
 62
     7
 10
15225.54270239126
 20
10339.1880211323
 30
0.0
 11
15214.54270239126
 21
10339.1880211323
 31
0.0
  0
ENDBLK
  5
342
  8
0
  0
BLOCK
  8
0
  2
C25
 70
     0
 10
0.0
 20
0.0
 30
0.0
  3
C25
  1

  0
LINE
  5
35C
  8
____1
  6
DASHED2
 62
     7
 10
15210.54270239126
 20
10331.988021132311
 30
0.0
 11
15210.54270239126
 21
10356.988021132311
 31
0.0
  0
LINE
  5
35D
  8
____1
  6
DASHED2
 62
     7
 10
15214.54270239126
 20
10331.988021132311
 30
0.0
 11
15210.54270239126
 21
10331.988021132311
 31
0.0
  0
LINE
  5
35E
  8
____1
  6
DASHED2
 62
     7
 10
15214.54270239126
 20
10356.988021132311
 30
0.0
 11
15214.54270239126
 21
10331.988021132311
 31
0.0
  0
LINE
  5
35F
  8
____1
  6
DASHED2
 62
     7
 10
15210.54270239126
 20
10356.988021132311
 30
0.0
 11
15214.54270239126
 21
10356.988021132311
 31
0.0
  0
ENDBLK
  5
360
  8
0
  0
BLOCK
  8
0
  2
*D41
 70
     1
 10
0.0
 20
0.0
 30
0.0
  3
*D41
  1

  0
LINE
  5
366
  8
____1
  6
CONTINUOUS
 62
     7
 10
16980.34833591156
 20
10572.44981865423
 30
0.0
 11
16987.93824675768
 21
10572.44981865423
 31
0.0
  0
LINE
  5
367
  8
____1
  6
CONTINUOUS
 62
     7
 10
16987.93824675768
 20
10832.85567192571
 30
0.0
 11
16987.93824675768
 21
10564.44981865423
 31
0.0
  0
LINE
  5
368
  8
____1
  6
CONTINUOUS
 62
     7
 10
16980.34833591156
 20
10857.71120166384
 30
0.0
 11
16980.34833591156
 21
10564.44981865423
 31
0.0
  0
SOLID
  5
369
  8
____1
  6
CONTINUOUS
 62
     7
 10
16979.59833591156
 20
10569.44981865423
 30
0.0
 11
16981.09833591156
 21
10569.44981865423
 31
0.0
 12
16978.09833591156
 22
10570.19981865423
 32
0.0
 13
16982.59833591156
 23
10570.19981865423
 33
0.0
  0
SOLID
  5
36A
  8
____1
  6
CONTINUOUS
 62
     7
 10
16978.09833591156
 20
10570.19981865423
 30
0.0
 11
16982.59833591156
 21
10570.19981865423
 31
0.0
 12
16977.34833591156
 22
10571.69981865423
 32
0.0
 13
16983.34833591156
 23
10571.69981865423
 33
0.0
  0
SOLID
  5
36B
  8
____1
  6
CONTINUOUS
 62
     7
 10
16977.34833591156
 20
10571.69981865423
 30
0.0
 11
16983.34833591156
 21
10571.69981865423
 31
0.0
 12
16977.34833591156
 22
10573.19981865423
 32
0.0
 13
16983.34833591156
 23
10573.19981865423
 33
0.0
  0
SOLID
  5
36C
  8
____1
  6
CONTINUOUS
 62
     7
 10
16977.34833591156
 20
10573.19981865423
 30
0.0
 11
16983.34833591156
 21
10573.19981865423
 31
0.0
 12
16978.09833591156
 22
10574.69981865423
 32
0.0
 13
16982.59833591156
 23
10574.69981865423
 33
0.0
  0
SOLID
  5
36D
  8
____1
  6
CONTINUOUS
 62
     7
 10
16978.09833591156
 20
10574.69981865423
 30
0.0
 11
16982.59833591156
 21
10574.69981865423
 31
0.0
 12
16979.59833591156
 22
10575.44981865423
 32
0.0
 13
16981.09833591156
 23
10575.44981865423
 33
0.0
  0
LINE
  5
36E
  8
____1
  6
CONTINUOUS
 62
     7
 10
16980.34833591156
 20
10572.44981865423
 30
0.0
 11
16940.34833591156
 21
10572.44981865423
 31
0.0
  0
SOLID
  5
36F
  8
____1
  6
CONTINUOUS
 62
     7
 10
16987.18824675768
 20
10569.44981865423
 30
0.0
 11
16988.688246757691
 21
10569.44981865423
 31
0.0
 12
16985.688246757691
 22
10570.19981865423
 32
0.0
 13
16990.18824675768
 23
10570.19981865423
 33
0.0
  0
SOLID
  5
370
  8
____1
  6
CONTINUOUS
 62
     7
 10
16985.688246757691
 20
10570.19981865423
 30
0.0
 11
16990.18824675768
 21
10570.19981865423
 31
0.0
 12
16984.938246757691
 22
10571.69981865423
 32
0.0
 13
16990.93824675768
 23
10571.69981865423
 33
0.0
  0
SOLID
  5
371
  8
____1
  6
CONTINUOUS
 62
     7
 10
16984.938246757691
 20
10571.69981865423
 30
0.0
 11
16990.93824675768
 21
10571.69981865423
 31
0.0
 12
16984.938246757691
 22
10573.19981865423
 32
0.0
 13
16990.93824675768
 23
10573.19981865423
 33
0.0
  0
SOLID
  5
372
  8
____1
  6
CONTINUOUS
 62
     7
 10
16984.938246757691
 20
10573.19981865423
 30
0.0
 11
16990.93824675768
 21
10573.19981865423
 31
0.0
 12
16985.688246757691
 22
10574.69981865423
 32
0.0
 13
16990.18824675768
 23
10574.69981865423
 33
0.0
  0
SOLID
  5
373
  8
____1
  6
CONTINUOUS
 62
     7
 10
16985.688246757691
 20
10574.69981865423
 30
0.0
 11
16990.18824675768
 21
10574.69981865423
 31
0.0
 12
16987.18824675768
 22
10575.44981865423
 32
0.0
 13
16988.688246757691
 23
10575.44981865423
 33
0.0
  0
LINE
  5
374
  8
____1
  6
CONTINUOUS
 62
     7
 10
16987.93824675768
 20
10572.44981865423
 30
0.0
 11
17027.938246757691
 21
10572.44981865423
 31
0.0
  0
ENDBLK
  5
375
  8
0
  0
BLOCK
  8
0
  2
*D42
 70
     1
 10
0.0
 20
0.0
 30
0.0
  3
*D42
  1

  0
LINE
  5
379
  8
____1
  6
CONTINUOUS
 62
     7
 10
16987.93824675768
 20
10572.445767228081
 30
0.0
 11
17017.93824675768
 21
10572.445767228081
 31
0.0
  0
LINE
  5
37A
  8
____1
  6
CONTINUOUS
 62
     7
 10
17017.93824675768
 20
10682.70714265533
 30
0.0
 11
17017.93824675768
 21
10564.445767228081
 31
0.0
  0
LINE
  5
37B
  8
____1
  6
CONTINUOUS
 62
     7
 10
16987.93824675768
 20
10832.70714265533
 30
0.0
 11
16987.93824675768
 21
10564.445767228081
 31
0.0
  0
SOLID
  5
37C
  8
____1
  6
CONTINUOUS
 62
     7
 10
16987.18824675768
 20
10569.445767228081
 30
0.0
 11
16988.688246757691
 21
10569.445767228081
 31
0.0
 12
16985.688246757691
 22
10570.195767228081
 32
0.0
 13
16990.18824675768
 23
10570.195767228081
 33
0.0
  0
SOLID
  5
37D
  8
____1
  6
CONTINUOUS
 62
     7
 10
16985.688246757691
 20
10570.195767228081
 30
0.0
 11
16990.18824675768
 21
10570.195767228081
 31
0.0
 12
16984.938246757691
 22
10571.695767228081
 32
0.0
 13
16990.93824675768
 23
10571.695767228081
 33
0.0
  0
SOLID
  5
37E
  8
____1
  6
CONTINUOUS
 62
     7
 10
16984.938246757691
 20
10571.695767228081
 30
0.0
 11
16990.93824675768
 21
10571.695767228081
 31
0.0
 12
16984.938246757691
 22
10573.195767228081
 32
0.0
 13
16990.93824675768
 23
10573.195767228081
 33
0.0
  0
SOLID
  5
37F
  8
____1
  6
CONTINUOUS
 62
     7
 10
16984.938246757691
 20
10573.195767228081
 30
0.0
 11
16990.93824675768
 21
10573.195767228081
 31
0.0
 12
16985.688246757691
 22
10574.695767228081
 32
0.0
 13
16990.18824675768
 23
10574.695767228081
 33
0.0
  0
SOLID
  5
380
  8
____1
  6
CONTINUOUS
 62
     7
 10
16985.688246757691
 20
10574.695767228081
 30
0.0
 11
16990.18824675768
 21
10574.695767228081
 31
0.0
 12
16987.18824675768
 22
10575.445767228081
 32
0.0
 13
16988.688246757691
 23
10575.445767228081
 33
0.0
  0
LINE
  5
381
  8
____1
  6
CONTINUOUS
 62
     7
 10
16987.93824675768
 20
10572.445767228081
 30
0.0
 11
16947.938246757691
 21
10572.445767228081
 31
0.0
  0
SOLID
  5
382
  8
____1
  6
CONTINUOUS
 62
     7
 10
17017.188246757691
 20
10569.445767228081
 30
0.0
 11
17018.68824675768
 21
10569.445767228081
 31
0.0
 12
17015.68824675768
 22
10570.195767228081
 32
0.0
 13
17020.188246757691
 23
10570.195767228081
 33
0.0
  0
SOLID
  5
383
  8
____1
  6
CONTINUOUS
 62
     7
 10
17015.68824675768
 20
10570.195767228081
 30
0.0
 11
17020.188246757691
 21
10570.195767228081
 31
0.0
 12
17014.93824675768
 22
10571.695767228081
 32
0.0
 13
17020.938246757691
 23
10571.695767228081
 33
0.0
  0
SOLID
  5
384
  8
____1
  6
CONTINUOUS
 62
     7
 10
17014.93824675768
 20
10571.695767228081
 30
0.0
 11
17020.938246757691
 21
10571.695767228081
 31
0.0
 12
17014.93824675768
 22
10573.195767228081
 32
0.0
 13
17020.938246757691
 23
10573.195767228081
 33
0.0
  0
SOLID
  5
385
  8
____1
  6
CONTINUOUS
 62
     7
 10
17014.93824675768
 20
10573.195767228081
 30
0.0
 11
17020.938246757691
 21
10573.195767228081
 31
0.0
 12
17015.68824675768
 22
10574.695767228081
 32
0.0
 13
17020.188246757691
 23
10574.695767228081
 33
0.0
  0
SOLID
  5
386
  8
____1
  6
CONTINUOUS
 62
     7
 10
17015.68824675768
 20
10574.695767228081
 30
0.0
 11
17020.188246757691
 21
10574.695767228081
 31
0.0
 12
17017.188246757691
 22
10575.445767228081
 32
0.0
 13
17018.68824675768
 23
10575.445767228081
 33
0.0
  0
LINE
  5
387
  8
____1
  6
CONTINUOUS
 62
     7
 10
17017.93824675768
 20
10572.445767228081
 30
0.0
 11
17057.93824675768
 21
10572.445767228081
 31
0.0
  0
TEXT
  5
388
  8
______
  6
DASHED2
 62
     7
 10
16988.827136070431
 20
10580.561507845199
 30
0.0
 40
28.222221374511719
  1
30
  7
STYLE1
  0
ENDBLK
  5
389
  8
0
  0
BLOCK
  8
0
  2
C26
 70
     0
 10
0.0
 20
0.0
 30
0.0
  3
C26
  1

  0
LINE
  5
3A4
  8
____1
  6
CONTINUOUS
 62
     7
 10
16800.247979038271
 20
10200.133919270829
 30
0.0
 11
16800.247979038271
 21
10240.133919270829
 31
0.0
  0
LINE
  5
3A5
  8
____1
  6
CONTINUOUS
 62
     7
 10
16328.247979038269
 20
10200.133919270829
 30
0.0
 11
16328.247979038269
 21
10240.133919270829
 31
0.0
  0
LINE
  5
3A6
  8
____1
  6
CONTINUOUS
 62
     7
 10
16400.247979038271
 20
10200.133919270829
 30
0.0
 11
16400.247979038271
 21
10240.133919270829
 31
0.0
  0
LINE
  5
3A7
  8
____1
  6
CONTINUOUS
 62
     7
 10
17240.247979038279
 20
10200.133919270829
 30
0.0
 11
17240.247979038279
 21
10240.133919270829
 31
0.0
  0
LINE
  5
3A8
  8
____1
  6
CONTINUOUS
 62
     7
 10
17168.247979038271
 20
10200.133919270829
 30
0.0
 11
17168.247979038271
 21
10240.133919270829
 31
0.0
  0
LINE
  5
3A9
  8
____1
  6
CONTINUOUS
 62
     7
 10
17488.247979038271
 20
10240.133919270829
 30
0.0
 11
16328.247979038269
 21
10240.133919270829
 31
0.0
  0
ENDBLK
  5
3AA
  8
0
  0
BLOCK
  8
0
  2
C27
 70
     0
 10
0.0
 20
0.0
 30
0.0
  3
C27
  1

  0
LINE
  5
3AE
  8
____1
  6
CONTINUOUS
 62
     7
 10
16800.247979038271
 20
10120.133919270829
 30
0.0
 11
16800.247979038271
 21
10160.133919270829
 31
0.0
  0
LINE
  5
3AF
  8
____1
  6
CONTINUOUS
 62
     7
 10
16328.247979038269
 20
10120.133919270829
 30
0.0
 11
16328.247979038269
 21
10160.133919270829
 31
0.0
  0
LINE
  5
3B0
  8
____1
  6
CONTINUOUS
 62
     7
 10
16400.247979038271
 20
10120.133919270829
 30
0.0
 11
16400.247979038271
 21
10160.133919270829
 31
0.0
  0
LINE
  5
3B1
  8
____1
  6
CONTINUOUS
 62
     7
 10
17240.247979038279
 20
10120.133919270829
 30
0.0
 11
17240.247979038279
 21
10160.133919270829
 31
0.0
  0
LINE
  5
3B2
  8
____1
  6
CONTINUOUS
 62
     7
 10
17168.247979038271
 20
10120.133919270829
 30
0.0
 11
17168.247979038271
 21
10160.133919270829
 31
0.0
  0
LINE
  5
3B3
  8
____1
  6
CONTINUOUS
 62
     7
 10
17488.247979038271
 20
10160.133919270829
 30
0.0
 11
16328.247979038269
 21
10160.133919270829
 31
0.0
  0
ENDBLK
  5
3B4
  8
0
  0
BLOCK
  8
0
  2
C28
 70
     0
 10
0.0
 20
0.0
 30
0.0
  3
C28
  1

  0
LINE
  5
3B8
  8
____1
  6
CONTINUOUS
 62
     7
 10
16800.247979038271
 20
10320.133919270829
 30
0.0
 11
16800.247979038271
 21
10360.133919270829
 31
0.0
  0
LINE
  5
3B9
  8
____1
  6
CONTINUOUS
 62
     7
 10
16328.247979038269
 20
10320.133919270829
 30
0.0
 11
16328.247979038269
 21
10360.133919270829
 31
0.0
  0
LINE
  5
3BA
  8
____1
  6
CONTINUOUS
 62
     7
 10
16400.247979038271
 20
10320.133919270829
 30
0.0
 11
16400.247979038271
 21
10360.133919270829
 31
0.0
  0
LINE
  5
3BB
  8
____1
  6
CONTINUOUS
 62
     7
 10
17240.247979038279
 20
10320.133919270829
 30
0.0
 11
17240.247979038279
 21
10360.133919270829
 31
0.0
  0
LINE
  5
3BC
  8
____1
  6
CONTINUOUS
 62
     7
 10
17168.247979038271
 20
10320.133919270829
 30
0.0
 11
17168.247979038271
 21
10360.133919270829
 31
0.0
  0
LINE
  5
3BD
  8
____1
  6
CONTINUOUS
 62
     7
 10
17488.247979038271
 20
10360.133919270829
 30
0.0
 11
16328.247979038269
 21
10360.133919270829
 31
0.0
  0
ENDBLK
  5
3BE
  8
0
  0
BLOCK
  8
0
  2
C29
 70
     0
 10
0.0
 20
0.0
 30
0.0
  3
C29
  1

  0
LINE
  5
3D6
  8
____1
  6
DASHED2
 62
     7
 10
15740.79270239126
 20
10282.963562266001
 30
0.0
 11
15774.562998078691
 21
10282.963562266001
 31
0.0
  0
LINE
  5
3D7
  8
____1
  6
DASHED2
 62
     7
 10
15764.29270239126
 20
10284.463562266001
 30
0.0
 11
15764.29270239126
 21
10282.963562266001
 31
0.0
  0
LINE
  5
3D8
  8
____1
  6
DASHED2
 62
     7
 10
15780.305721096071
 20
10305.5285175015
 30
0.0
 11
15798.446459320379
 21
10301.90034762166
 31
0.0
  0
LINE
  5
3D9
  8
____1
  6
DASHED2
 62
     7
 10
15798.740635256579
 20
10303.371218288499
 30
0.0
 11
15798.446459320379
 21
10301.90034762166
 31
0.0
  0
ARC
  5
3DA
  8
____1
  6
DASHED2
 62
     7
 10
15774.56299801515
 20
10284.463562266001
 30
0.0
 40
1.50000000000198
 50
-89.999997572914964
 51
-11.309961644097189
  0
LINE
  5
3DB
  8
____1
  6
DASHED2
 62
     7
 10
15780.305721096071
 20
10305.5285175015
 30
0.0
 11
15776.03386887892
 21
10284.16938731445
 31
0.0
  0
LINE
  5
3DC
  8
____1
  6
DASHED2
 62
     7
 10
15780.599895938491
 20
10306.99938838709
 30
0.0
 11
15798.740635256579
 21
10303.371218288499
 31
0.0
  0
ARC
  5
3DD
  8
____1
  6
DASHED2
 62
     7
 10
15780.305721096071
 20
10305.5285175015
 30
0.0
 40
1.5000000000011431
 50
78.690042606978508
 51
168.68994134104059
  0
LINE
  5
3DE
  8
____1
  6
DASHED2
 62
     7
 10
15740.79270239126
 20
10284.463562266001
 30
0.0
 11
15740.79270239126
 21
10282.963562266001
 31
0.0
  0
LINE
  5
3DF
  8
____1
  6
DASHED2
 62
     7
 10
15752.29270239126
 20
10284.463562266001
 30
0.0
 11
15752.29270239126
 21
10282.963562266001
 31
0.0
  0
LINE
  5
3E0
  8
____1
  6
DASHED2
 62
     7
 10
15740.79270239126
 20
10284.463562266001
 30
0.0
 11
15774.562998015161
 21
10284.463562266001
 31
0.0
  0
LINE
  5
3E1
  8
____1
  6
DASHED2
 62
     7
 10
15778.834850730411
 20
10305.82269494357
 30
0.0
 11
15774.562998015161
 21
10284.463562266001
 31
0.0
  0
LINE
  5
3E2
  8
____1
  6
DOT
 62
     3
 10
15758.29270239126
 20
10289.463562266001
 30
0.0
 11
15758.29270239126
 21
10277.963562266001
 31
0.0
  0
ENDBLK
  5
3E3
  8
0
  0
BLOCK
  8
0
  2
*D47
 70
     1
 10
0.0
 20
0.0
 30
0.0
  3
*D47
  1

  0
LINE
  5
404
  8
____1
  6
CONTINUOUS
 62
     7
 10
15740.79270214025
 20
9922.4949363804972
 30
0.0
 11
15740.79270214025
 21
9831.2243608716144
 31
0.0
  0
LINE
  5
405
  8
____1
  6
CONTINUOUS
 62
     7
 10
15155.79270214025
 20
9922.4949363804972
 30
0.0
 11
15155.79270214025
 21
9831.2243608716144
 31
0.0
  0
SOLID
  5
406
  8
____1
  6
CONTINUOUS
 62
     7
 10
15175.79270214025
 20
9835.2243608716144
 30
0.0
 11
15175.79270214025
 21
9835.2243608716144
 31
0.0
 12
15155.79270214025
 22
9839.2243608716144
 32
0.0
 13
15170.79270214025
 23
9839.2243608716144
 33
0.0
  0
SOLID
  5
407
  8
____1
  6
CONTINUOUS
 62
     7
 10
15155.79270214025
 20
9839.2243608716144
 30
0.0
 11
15170.79270214025
 21
9839.2243608716144
 31
0.0
 12
15175.79270214025
 22
9843.2243608716162
 32
0.0
 13
15175.79270214025
 23
9843.2243608716162
 33
0.0
  0
LINE
  5
408
  8
____1
  6
CONTINUOUS
 62
     7
 10
15155.79270214025
 20
9839.2243608716144
 30
0.0
 11
15448.29270214025
 21
9839.2243608716144
 31
0.0
  0
SOLID
  5
409
  8
____1
  6
CONTINUOUS
 62
     7
 10
15720.79270214025
 20
9835.2243608716144
 30
0.0
 11
15720.79270214025
 21
9835.2243608716144
 31
0.0
 12
15725.79270214025
 22
9839.2243608716144
 32
0.0
 13
15740.79270214025
 23
9839.2243608716144
 33
0.0
  0
SOLID
  5
40A
  8
____1
  6
CONTINUOUS
 62
     7
 10
15725.79270214025
 20
9839.2243608716144
 30
0.0
 11
15740.79270214025
 21
9839.2243608716144
 31
0.0
 12
15720.79270214025
 22
9843.2243608716162
 32
0.0
 13
15720.79270214025
 23
9843.2243608716162
 33
0.0
  0
LINE
  5
40B
  8
____1
  6
CONTINUOUS
 62
     7
 10
15740.79270214025
 20
9839.2243608716144
 30
0.0
 11
15448.29270214025
 21
9839.2243608716144
 31
0.0
  0
TEXT
  5
40C
  8
______
  6
CENTER2
 62
     7
 10
15427.12603610937
 20
9847.3401014887313
 30
0.0
 40
28.222221374511719
  1
585
  7
STYLE1
  0
ENDBLK
  5
40D
  8
0
  0
BLOCK
  8
0
  2
*D48
 70
     1
 10
0.0
 20
0.0
 30
0.0
  3
*D48
  1

  0
LINE
  5
411
  8
____1
  6
CONTINUOUS
 62
     7
 10
15896.792702140259
 20
9888.8229403211571
 30
0.0
 11
15896.792702140259
 21
9831.2243608716144
 31
0.0
  0
LINE
  5
412
  8
____1
  6
CONTINUOUS
 62
     7
 10
15775.79270214025
 20
9922.4949363804972
 30
0.0
 11
15775.79270214025
 21
9831.2243608716144
 31
0.0
  0
SOLID
  5
413
  8
____1
  6
CONTINUOUS
 62
     7
 10
15795.79270214025
 20
9835.2243608716144
 30
0.0
 11
15795.79270214025
 21
9835.2243608716144
 31
0.0
 12
15775.79270214025
 22
9839.2243608716144
 32
0.0
 13
15790.79270214025
 23
9839.2243608716144
 33
0.0
  0
SOLID
  5
414
  8
____1
  6
CONTINUOUS
 62
     7
 10
15775.79270214025
 20
9839.2243608716144
 30
0.0
 11
15790.79270214025
 21
9839.2243608716144
 31
0.0
 12
15795.79270214025
 22
9843.2243608716162
 32
0.0
 13
15795.79270214025
 23
9843.2243608716162
 33
0.0
  0
LINE
  5
415
  8
____1
  6
CONTINUOUS
 62
     7
 10
15775.79270214025
 20
9839.2243608716144
 30
0.0
 11
15836.29270214025
 21
9839.2243608716144
 31
0.0
  0
SOLID
  5
416
  8
____1
  6
CONTINUOUS
 62
     7
 10
15876.792702140259
 20
9835.2243608716144
 30
0.0
 11
15876.792702140259
 21
9835.2243608716144
 31
0.0
 12
15881.792702140259
 22
9839.2243608716144
 32
0.0
 13
15896.792702140259
 23
9839.2243608716144
 33
0.0
  0
SOLID
  5
417
  8
____1
  6
CONTINUOUS
 62
     7
 10
15881.792702140259
 20
9839.2243608716144
 30
0.0
 11
15896.792702140259
 21
9839.2243608716144
 31
0.0
 12
15876.792702140259
 22
9843.2243608716162
 32
0.0
 13
15876.792702140259
 23
9843.2243608716162
 33
0.0
  0
LINE
  5
418
  8
____1
  6
CONTINUOUS
 62
     7
 10
15896.792702140259
 20
9839.2243608716144
 30
0.0
 11
15836.29270214025
 21
9839.2243608716144
 31
0.0
  0
TEXT
  5
419
  8
______
  6
CENTER2
 62
     7
 10
15815.12603610937
 20
9847.3401014887313
 30
0.0
 40
28.222221374511719
  1
121
  7
STYLE1
  0
ENDBLK
  5
41A
  8
0
  0
BLOCK
  8
0
  2
*D49
 70
     1
 10
0.0
 20
0.0
 30
0.0
  3
*D49
  1

  0
LINE
  5
41E
  8
____1
  6
CONTINUOUS
 62
     7
 10
15740.79270214025
 20
9839.2243608716144
 30
0.0
 11
15775.79270214025
 21
9839.2243608716144
 31
0.0
  0
LINE
  5
41F
  8
____1
  6
CONTINUOUS
 62
     7
 10
15775.79270214025
 20
9922.4949363804972
 30
0.0
 11
15775.79270214025
 21
9831.2243608716144
 31
0.0
  0
LINE
  5
420
  8
____1
  6
CONTINUOUS
 62
     7
 10
15740.79270214025
 20
9922.4949363804972
 30
0.0
 11
15740.79270214025
 21
9831.2243608716144
 31
0.0
  0
SOLID
  5
421
  8
____1
  6
CONTINUOUS
 62
     7
 10
15720.79270214025
 20
9835.2243608716144
 30
0.0
 11
15720.79270214025
 21
9835.2243608716144
 31
0.0
 12
15725.79270214025
 22
9839.2243608716144
 32
0.0
 13
15740.79270214025
 23
9839.2243608716144
 33
0.0
  0
SOLID
  5
422
  8
____1
  6
CONTINUOUS
 62
     7
 10
15725.79270214025
 20
9839.2243608716144
 30
0.0
 11
15740.79270214025
 21
9839.2243608716144
 31
0.0
 12
15720.79270214025
 22
9843.2243608716162
 32
0.0
 13
15720.79270214025
 23
9843.2243608716162
 33
0.0
  0
LINE
  5
423
  8
____1
  6
CONTINUOUS
 62
     7
 10
15740.79270214025
 20
9839.2243608716144
 30
0.0
 11
15700.79270214025
 21
9839.2243608716144
 31
0.0
  0
SOLID
  5
424
  8
____1
  6
CONTINUOUS
 62
     7
 10
15795.79270214025
 20
9835.2243608716144
 30
0.0
 11
15795.79270214025
 21
9835.2243608716144
 31
0.0
 12
15775.79270214025
 22
9839.2243608716144
 32
0.0
 13
15790.79270214025
 23
9839.2243608716144
 33
0.0
  0
SOLID
  5
425
  8
____1
  6
CONTINUOUS
 62
     7
 10
15775.79270214025
 20
9839.2243608716144
 30
0.0
 11
15790.79270214025
 21
9839.2243608716144
 31
0.0
 12
15795.79270214025
 22
9843.2243608716162
 32
0.0
 13
15795.79270214025
 23
9843.2243608716162
 33
0.0
  0
LINE
  5
426
  8
____1
  6
CONTINUOUS
 62
     7
 10
15775.79270214025
 20
9839.2243608716144
 30
0.0
 11
15815.79270214025
 21
9839.2243608716144
 31
0.0
  0
TEXT
  5
427
  8
______
  6
CENTER2
 62
     7
 10
15744.181591452991
 20
9847.3401014887313
 30
0.0
 40
28.222221374511719
  1
35
  7
STYLE1
  0
ENDBLK
  5
428
  8
0
  0
BLOCK
  8
0
  2
*D50
 70
     1
 10
0.0
 20
0.0
 30
0.0
  3
*D50
  1

  0
LINE
  5
42E
  8
____1
  6
CONTINUOUS
 62
     7
 10
15898.292702140259
 20
9931.2921789760585
 30
0.0
 11
15898.292702140259
 21
10063.503351478301
 31
0.0
  0
LINE
  5
42F
  8
____1
  6
CONTINUOUS
 62
     7
 10
15758.29270214025
 20
9936.9949363804972
 30
0.0
 11
15758.29270214025
 21
10063.503351478301
 31
0.0
  0
SOLID
  5
430
  8
____1
  6
CONTINUOUS
 62
     7
 10
15778.29270214025
 20
10051.50335147829
 30
0.0
 11
15778.29270214025
 21
10051.50335147829
 31
0.0
 12
15758.29270214025
 22
10055.503351478301
 32
0.0
 13
15773.29270214025
 23
10055.503351478301
 33
0.0
  0
SOLID
  5
431
  8
____1
  6
CONTINUOUS
 62
     7
 10
15758.29270214025
 20
10055.503351478301
 30
0.0
 11
15773.29270214025
 21
10055.503351478301
 31
0.0
 12
15778.29270214025
 22
10059.503351478301
 32
0.0
 13
15778.29270214025
 23
10059.503351478301
 33
0.0
  0
LINE
  5
432
  8
____1
  6
CONTINUOUS
 62
     7
 10
15758.29270214025
 20
10055.503351478301
 30
0.0
 11
15828.29270214025
 21
10055.503351478301
 31
0.0
  0
SOLID
  5
433
  8
____1
  6
CONTINUOUS
 62
     7
 10
15878.292702140259
 20
10051.50335147829
 30
0.0
 11
15878.292702140259
 21
10051.50335147829
 31
0.0
 12
15883.292702140259
 22
10055.503351478301
 32
0.0
 13
15898.292702140259
 23
10055.503351478301
 33
0.0
  0
SOLID
  5
434
  8
____1
  6
CONTINUOUS
 62
     7
 10
15883.292702140259
 20
10055.503351478301
 30
0.0
 11
15898.292702140259
 21
10055.503351478301
 31
0.0
 12
15878.292702140259
 22
10059.503351478301
 32
0.0
 13
15878.292702140259
 23
10059.503351478301
 33
0.0
  0
LINE
  5
435
  8
____1
  6
CONTINUOUS
 62
     7
 10
15898.292702140259
 20
10055.503351478301
 30
0.0
 11
15828.29270214025
 21
10055.503351478301
 31
0.0
  0
TEXT
  5
436
  8
______
  6
DASHED2
 62
     7
 10
15807.12603610937
 20
10063.61909209541
 30
0.0
 40
28.222221374511719
  1
140
  7
STYLE1
  0
ENDBLK
  5
437
  8
0
  0
BLOCK
  8
0
  2
*D51
 70
     1
 10
0.0
 20
0.0
 30
0.0
  3
*D51
  1

  0
LINE
  5
43B
  8
____1
  6
CONTINUOUS
 62
     7
 10
15259.68734624691
 20
9926.4949363804972
 30
0.0
 11
15259.68734624691
 21
9957.0218848301392
 31
0.0
  0
LINE
  5
43C
  8
____1
  6
CONTINUOUS
 62
     7
 10
15195.007710682799
 20
9957.0218848301392
 30
0.0
 11
15267.68734624691
 21
9957.0218848301392
 31
0.0
  0
LINE
  5
43D
  8
____1
  6
CONTINUOUS
 62
     7
 10
15159.79270214025
 20
9926.4949363804972
 30
0.0
 11
15267.68734624691
 21
9926.4949363804972
 31
0.0
  0
SOLID
  5
43E
  8
____1
  6
CONTINUOUS
 62
     7
 10
15255.68734624691
 20
9906.4949363804972
 30
0.0
 11
15255.68734624691
 21
9906.4949363804972
 31
0.0
 12
15256.68734624691
 22
9911.4949363804972
 32
0.0
 13
15259.68734624691
 23
9911.4949363804972
 33
0.0
  0
SOLID
  5
43F
  8
____1
  6
CONTINUOUS
 62
     7
 10
15263.68734624691
 20
9906.4949363804972
 30
0.0
 11
15263.68734624691
 21
9906.4949363804972
 31
0.0
 12
15259.68734624691
 22
9911.4949363804972
 32
0.0
 13
15262.68734624691
 23
9911.4949363804972
 33
0.0
  0
SOLID
  5
440
  8
____1
  6
CONTINUOUS
 62
     7
 10
15256.68734624691
 20
9911.4949363804972
 30
0.0
 11
15262.68734624691
 21
9911.4949363804972
 31
0.0
 12
15259.68734624691
 22
9926.4949363804972
 32
0.0
 13
15259.68734624691
 23
9926.4949363804972
 33
0.0
  0
LINE
  5
441
  8
____1
  6
CONTINUOUS
 62
     7
 10
15259.68734624691
 20
9926.4949363804972
 30
0.0
 11
15259.68734624691
 21
9842.833367141011
 31
0.0
  0
SOLID
  5
442
  8
____1
  6
CONTINUOUS
 62
     7
 10
15259.68734624691
 20
9957.0218848301392
 30
0.0
 11
15259.68734624691
 21
9957.0218848301392
 31
0.0
 12
15256.68734624691
 22
9972.0218848301374
 32
0.0
 13
15262.68734624691
 23
9972.0218848301374
 33
0.0
  0
SOLID
  5
443
  8
____1
  6
CONTINUOUS
 62
     7
 10
15256.68734624691
 20
9972.0218848301374
 30
0.0
 11
15259.68734624691
 21
9972.0218848301374
 31
0.0
 12
15255.68734624691
 22
9977.0218848301374
 32
0.0
 13
15255.68734624691
 23
9977.0218848301374
 33
0.0
  0
SOLID
  5
444
  8
____1
  6
CONTINUOUS
 62
     7
 10
15259.68734624691
 20
9972.0218848301374
 30
0.0
 11
15262.68734624691
 21
9972.0218848301374
 31
0.0
 12
15263.68734624691
 22
9977.0218848301374
 32
0.0
 13
15263.68734624691
 23
9977.0218848301374
 33
0.0
  0
LINE
  5
445
  8
____1
  6
CONTINUOUS
 62
     7
 10
15259.68734624691
 20
9957.0218848301392
 30
0.0
 11
15259.68734624691
 21
9997.0218848301374
 31
0.0
  0
TEXT
  5
446
  8
______
  6
CENTER2
 62
     7
 10
15251.57160562979
 20
9856.9444778282668
 30
0.0
 40
28.222221374511719
  1
(30)
 50
90.0
  7
STYLE1
  0
ENDBLK
  5
447
  8
0
  0
BLOCK
  8
0
  2
C30
 70
     0
 10
0.0
 20
0.0
 30
0.0
  3
C30
  1

  0
LINE
  5
44E
  8
____1
  6
DASHED2
 62
     7
 10
15155.79270239126
 20
10282.963562266001
 30
0.0
 11
15122.022406703831
 21
10282.963562266001
 31
0.0
  0
LINE
  5
44F
  8
____1
  6
DASHED2
 62
     7
 10
15132.29270239126
 20
10284.463562266001
 30
0.0
 11
15132.29270239126
 21
10282.963562266001
 31
0.0
  0
LINE
  5
450
  8
____1
  6
DASHED2
 62
     7
 10
15116.27968368646
 20
10305.5285175015
 30
0.0
 11
15098.13894546214
 21
10301.90034762166
 31
0.0
  0
LINE
  5
451
  8
____1
  6
DASHED2
 62
     7
 10
15097.84476952594
 20
10303.371218288499
 30
0.0
 11
15098.13894546214
 21
10301.90034762166
 31
0.0
  0
ARC
  5
452
  8
____1
  6
DASHED2
 62
     7
 10
15122.02240676737
 20
10284.463562266001
 30
0.0
 40
1.5000000000001961
 50
-168.69003835588919
 51
-90.000002426946097
  0
LINE
  5
453
  8
____1
  6
DASHED2
 62
     7
 10
15116.27968368646
 20
10305.5285175015
 30
0.0
 11
15120.5515359036
 21
10284.16938731445
 31
0.0
  0
LINE
  5
454
  8
____1
  6
DASHED2
 62
     7
 10
15115.98550884404
 20
10306.99938838709
 30
0.0
 11
15097.84476952594
 21
10303.371218288499
 31
0.0
  0
ARC
  5
455
  8
____1
  6
DASHED2
 62
     7
 10
15116.279683686451
 20
10305.5285175015
 30
0.0
 40
1.5000000000011431
 50
11.31005865895931
 51
101.30995739302151
  0
LINE
  5
456
  8
____1
  6
DASHED2
 62
     7
 10
15155.79270239126
 20
10284.463562266001
 30
0.0
 11
15155.79270239126
 21
10282.963562266001
 31
0.0
  0
LINE
  5
457
  8
____1
  6
DASHED2
 62
     7
 10
15144.29270239126
 20
10284.463562266001
 30
0.0
 11
15144.29270239126
 21
10282.963562266001
 31
0.0
  0
LINE
  5
458
  8
____1
  6
DASHED2
 62
     7
 10
15155.79270239126
 20
10284.463562266001
 30
0.0
 11
15122.02240676737
 21
10284.463562266001
 31
0.0
  0
LINE
  5
459
  8
____1
  6
DASHED2
 62
     7
 10
15117.75055405212
 20
10305.82269494357
 30
0.0
 11
15122.02240676737
 21
10284.463562266001
 31
0.0
  0
LINE
  5
45A
  8
____1
  6
DOT
 62
     3
 10
15138.29270239126
 20
10289.463562266001
 30
0.0
 11
15138.29270239126
 21
10277.963562266001
 31
0.0
  0
ENDBLK
  5
45B
  8
0
  0
BLOCK
  8
0
  2
*D53
 70
     1
 10
0.0
 20
0.0
 30
0.0
  3
*D53
  1

  0
LINE
  5
45F
  8
____1
  6
CONTINUOUS
 62
     7
 10
15120.79270214025
 20
9839.2243608716144
 30
0.0
 11
15155.79270214025
 21
9839.2243608716144
 31
0.0
  0
LINE
  5
460
  8
____1
  6
CONTINUOUS
 62
     7
 10
15155.79270214025
 20
9922.4949363804972
 30
0.0
 11
15155.79270214025
 21
9831.2243608716144
 31
0.0
  0
LINE
  5
461
  8
____1
  6
CONTINUOUS
 62
     7
 10
15120.79270214025
 20
9922.4949363804972
 30
0.0
 11
15120.79270214025
 21
9831.2243608716144
 31
0.0
  0
SOLID
  5
462
  8
____1
  6
CONTINUOUS
 62
     7
 10
15100.79270214025
 20
9835.2243608716144
 30
0.0
 11
15100.79270214025
 21
9835.2243608716144
 31
0.0
 12
15105.79270214025
 22
9839.2243608716144
 32
0.0
 13
15120.79270214025
 23
9839.2243608716144
 33
0.0
  0
SOLID
  5
463
  8
____1
  6
CONTINUOUS
 62
     7
 10
15105.79270214025
 20
9839.2243608716144
 30
0.0
 11
15120.79270214025
 21
9839.2243608716144
 31
0.0
 12
15100.79270214025
 22
9843.2243608716162
 32
0.0
 13
15100.79270214025
 23
9843.2243608716162
 33
0.0
  0
LINE
  5
464
  8
____1
  6
CONTINUOUS
 62
     7
 10
15120.79270214025
 20
9839.2243608716144
 30
0.0
 11
15080.79270214025
 21
9839.2243608716144
 31
0.0
  0
SOLID
  5
465
  8
____1
  6
CONTINUOUS
 62
     7
 10
15175.79270214025
 20
9835.2243608716144
 30
0.0
 11
15175.79270214025
 21
9835.2243608716144
 31
0.0
 12
15155.79270214025
 22
9839.2243608716144
 32
0.0
 13
15170.79270214025
 23
9839.2243608716144
 33
0.0
  0
SOLID
  5
466
  8
____1
  6
CONTINUOUS
 62
     7
 10
15155.79270214025
 20
9839.2243608716144
 30
0.0
 11
15170.79270214025
 21
9839.2243608716144
 31
0.0
 12
15175.79270214025
 22
9843.2243608716162
 32
0.0
 13
15175.79270214025
 23
9843.2243608716162
 33
0.0
  0
LINE
  5
467
  8
____1
  6
CONTINUOUS
 62
     7
 10
15155.79270214025
 20
9839.2243608716144
 30
0.0
 11
15195.79270214025
 21
9839.2243608716144
 31
0.0
  0
TEXT
  5
468
  8
______
  6
CENTER2
 62
     7
 10
15124.181591453
 20
9847.3401014887313
 30
0.0
 40
28.222221374511719
  1
35
  7
STYLE1
  0
ENDBLK
  5
469
  8
0
  0
BLOCK
  8
0
  2
C31
 70
     0
 10
0.0
 20
0.0
 30
0.0
  3
C31
  1

  0
CIRCLE
  5
471
  8
____1
  6
CONTINUOUS
 62
     7
 10
14722.54782167898
 20
11446.88615367608
 30
0.0
 40
28.0
  0
TEXT
  5
472
  8
____1
  6
DOT
 62
     7
 10
14715.49226633535
 20
11436.890783605941
 30
0.0
 40
28.222221374511719
  1
9
  7
STYLE1
  0
LINE
  5
473
  8
______
  6
CONTINUOUS
 62
     7
 10
14769.21448834564
 20
11446.88615367608
 30
0.0
 11
14750.54782167898
 21
11446.88615367608
 31
0.0
  0
LINE
  5
474
  8
______
  6
CONTINUOUS
 62
     7
 10
15097.791759880471
 20
11352.66141409275
 30
0.0
 11
14769.21448834564
 21
11446.88615367608
 31
0.0
  0
SOLID
  5
475
  8
______
 62
     7
 10
15097.791759880471
 20
11352.66141409275
 30
0.0
 11
15090.65301906515
 21
11356.78917130118
 31
0.0
 12
15097.791759880471
 22
11352.66141409275
 32
0.0
 13
15092.02422097405
 23
11354.31534727247
 33
0.0
  0
SOLID
  5
476
  8
______
 62
     7
 10
15092.02422097405
 20
11354.31534727247
 30
0.0
 11
15089.55039694534
 21
11352.94414536357
 31
0.0
 12
15097.791759880471
 22
11352.66141409275
 32
0.0
 13
15097.791759880471
 23
11352.66141409275
 33
0.0
  0
ENDBLK
  5
477
  8
0
  0
BLOCK
  8
0
  2
C32
 70
     0
 10
0.0
 20
0.0
 30
0.0
  3
C32
  1

  0
INSERT
  5
4D8
  8
____1
  6
DASHED2
 62
     7
  2
C33
 10
0.0
 20
0.0
 30
0.0
  0
INSERT
  5
4E2
  8
____1
  6
CONTINUOUS
 62
     7
  2
C39
 10
0.0
 20
0.0
 30
0.0
  0
INSERT
  5
4EA
  8
____1
  6
CONTINUOUS
 62
     7
  2
C40
 10
0.0
 20
0.0
 30
0.0
  0
INSERT
  5
506
  8
____1
  6
CONTINUOUS
 62
     7
  2
C41
 10
0.0
 20
0.0
 30
0.0
  0
INSERT
  5
51B
  8
____1
  6
CONTINUOUS
 62
     7
  2
C42
 10
0.0
 20
0.0
 30
0.0
  0
ENDBLK
  5
51C
  8
0
  0
BLOCK
  8
0
  2
C33
 70
     0
 10
0.0
 20
0.0
 30
0.0
  3
C33
  1

  0
LINE
  5
47D
  8
____1
  6
DOT
 62
     7
 10
15203.54270239126
 20
10954.57691347274
 30
0.0
 11
15233.29270239126
 21
10954.57691347274
 31
0.0
  0
INSERT
  5
488
  8
____1
  6
DASHED2
 62
     7
  2
C34
 10
0.0
 20
0.0
 30
0.0
  0
INSERT
  5
493
  8
____1
  6
DASHED2
 62
     7
  2
C35
 10
0.0
 20
0.0
 30
0.0
  0
INSERT
  5
4AF
  8
____1
  6
DASHED2
 62
     7
  2
C36
 10
0.0
 20
0.0
 30
0.0
  0
INSERT
  5
4B8
  8
____1
  6
DASHED2
 62
     7
  2
C37
 10
0.0
 20
0.0
 30
0.0
  0
INSERT
  5
4C2
  8
____1
  6
DASHED2
 62
     7
  2
C38
 10
0.0
 20
0.0
 30
0.0
  0
LINE
  5
4C3
  8
____1
  6
DASHED2
 62
     7
 10
15233.54270239126
 20
10968.641868048961
 30
0.0
 11
15233.54270239126
 21
10949.011958896521
 31
0.0
  0
LINE
  5
4C4
  8
____1
  6
DASHED2
 62
     7
 10
15239.783695948759
 20
10953.919436184629
 30
0.0
 11
15233.54270239126
 21
10953.919436184629
 31
0.0
  0
LINE
  5
4C5
  8
____1
  6
DASHED2
 62
     7
 10
15239.78351301271
 20
10949.011958896521
 30
0.0
 11
15233.54270239126
 21
10949.011958896521
 31
0.0
  0
LINE
  5
4C6
  8
____1
  6
DASHED2
 62
     7
 10
15239.78351301271
 20
10968.641868048961
 30
0.0
 11
15233.54270239126
 21
10968.641868048961
 31
0.0
  0
LINE
  5
4C7
  8
____1
  6
DASHED2
 62
     7
 10
15240.54270239126
 20
10967.32691347274
 30
0.0
 11
15239.78351301271
 21
10968.641868048961
 31
0.0
  0
LINE
  5
4C8
  8
____1
  6
DASHED2
 62
     7
 10
15239.783695948759
 20
10963.73439076085
 30
0.0
 11
15233.54270239126
 21
10963.73439076085
 31
0.0
  0
LINE
  5
4C9
  8
____1
  6
DASHED2
 62
     7
 10
15240.54270239126
 20
10967.32691347274
 30
0.0
 11
15240.54270239126
 21
10958.82691347274
 31
0.0
  0
LINE
  5
4CA
  8
____1
  6
DASHED2
 62
     7
 10
15240.54270239126
 20
10950.32691347274
 30
0.0
 11
15239.78351301271
 21
10949.011958896521
 31
0.0
  0
LINE
  5
4CB
  8
____1
  6
DASHED2
 62
     7
 10
15240.54270239126
 20
10950.32691347274
 30
0.0
 11
15240.54270239126
 21
10958.82691347274
 31
0.0
  0
ARC
  5
4CC
  8
____1
  6
DASHED2
 62
     7
 10
15224.298160361021
 20
10958.82691347274
 30
0.0
 40
16.244542030249011
 50
-17.583976886999029
 51
0.0
  0
ARC
  5
4CD
  8
____1
  6
DASHED2
 62
     7
 10
15236.197332616541
 20
10951.465697540571
 30
0.0
 40
4.3453697747213198
 50
-25.605116760745439
 51
34.379996836931312
  0
ARC
  5
4CE
  8
____1
  6
DASHED2
 62
     7
 10
15236.197332616541
 20
10966.188129404911
 30
0.0
 40
4.3453697747213198
 50
-34.379996836970903
 51
25.605116760745439
  0
ARC
  5
4CF
  8
____1
  6
DASHED2
 62
     7
 10
15224.298160361021
 20
10958.82691347274
 30
0.0
 40
16.244542030247899
 50
0.0
 51
17.5839768869868
  0
LINE
  5
4D0
  8
____1
  6
DOT
 62
     7
 10
15203.54270239126
 20
10963.07691347274
 30
0.0
 11
15204.29270239126
 21
10963.82691347274
 31
0.0
  0
LINE
  5
4D1
  8
____1
  6
DOT
 62
     7
 10
15203.54270239126
 20
10963.07691347274
 30
0.0
 11
15203.54270239126
 21
10954.57691347274
 31
0.0
  0
LINE
  5
4D2
  8
____1
  6
DOT
 62
     7
 10
15204.29270239126
 20
10963.82691347274
 30
0.0
 11
15204.29270239126
 21
10953.82691347274
 31
0.0
  0
LINE
  5
4D3
  8
____1
  6
DOT
 62
     7
 10
15203.54270239126
 20
10954.57691347274
 30
0.0
 11
15204.29270239126
 21
10953.82691347274
 31
0.0
  0
LINE
  5
4D4
  8
____1
  6
DOT
 62
     7
 10
15204.29270239126
 20
10963.82691347274
 30
0.0
 11
15233.29270239126
 21
10963.82691347274
 31
0.0
  0
LINE
  5
4D5
  8
____1
  6
DOT
 62
     7
 10
15204.29270239126
 20
10953.82691347274
 30
0.0
 11
15233.29270239126
 21
10953.82691347274
 31
0.0
  0
LINE
  5
4D6
  8
____1
  6
DOT
 62
     7
 10
15233.29270239126
 20
10963.07691347274
 30
0.0
 11
15203.54270239126
 21
10963.07691347274
 31
0.0
  0
ENDBLK
  5
4D7
  8
0
  0
BLOCK
  8
0
  2
C34
 70
     0
 10
0.0
 20
0.0
 30
0.0
  3
C34
  1

  0
LINE
  5
480
  8
____1
  6
DASHED2
 62
     7
 10
15231.04270239126
 20
10943.82691347274
 30
0.0
 11
15232.54270239126
 21
10943.82691347274
 31
0.0
  0
LINE
  5
481
  8
____1
  6
DASHED2
 62
     7
 10
15232.54270239126
 20
10943.82691347274
 30
0.0
 11
15232.54270239126
 21
10973.82691347274
 31
0.0
  0
LINE
  5
482
  8
____1
  6
DASHED2
 62
     7
 10
15231.04270239126
 20
10973.82691347274
 30
0.0
 11
15232.54270239126
 21
10973.82691347274
 31
0.0
  0
LINE
  5
483
  8
____1
  6
DASHED2
 62
     7
 10
15231.04270239126
 20
10943.82691347274
 30
0.0
 11
15231.04270239126
 21
10973.82691347274
 31
0.0
  0
LINE
  5
484
  8
____1
  6
DASHED2
 62
     7
 10
15233.54270239126
 20
10953.826913472731
 30
0.0
 11
15232.54270239126
 21
10943.82691347274
 31
0.0
  0
LINE
  5
485
  8
____1
  6
DASHED2
 62
     7
 10
15233.54270239126
 20
10953.826913472731
 30
0.0
 11
15233.54270239126
 21
10963.82691347274
 31
0.0
  0
LINE
  5
486
  8
____1
  6
DASHED2
 62
     7
 10
15233.54270239126
 20
10963.82691347274
 30
0.0
 11
15232.54270239126
 21
10973.82691347274
 31
0.0
  0
ENDBLK
  5
487
  8
0
  0
BLOCK
  8
0
  2
C35
 70
     0
 10
0.0
 20
0.0
 30
0.0
  3
C35
  1

  0
LINE
  5
48B
  8
____1
  6
DASHED2
 62
     7
 10
15228.04270239126
 20
10943.82691347274
 30
0.0
 11
15226.54270239126
 21
10943.82691347274
 31
0.0
  0
LINE
  5
48C
  8
____1
  6
DASHED2
 62
     7
 10
15226.54270239126
 20
10943.82691347274
 30
0.0
 11
15226.54270239126
 21
10973.82691347274
 31
0.0
  0
LINE
  5
48D
  8
____1
  6
DASHED2
 62
     7
 10
15228.04270239126
 20
10973.82691347274
 30
0.0
 11
15226.54270239126
 21
10973.82691347274
 31
0.0
  0
LINE
  5
48E
  8
____1
  6
DASHED2
 62
     7
 10
15228.04270239126
 20
10943.82691347274
 30
0.0
 11
15228.04270239126
 21
10973.82691347274
 31
0.0
  0
LINE
  5
48F
  8
____1
  6
DASHED2
 62
     7
 10
15225.54270239126
 20
10953.826913472731
 30
0.0
 11
15226.54270239126
 21
10943.82691347274
 31
0.0
  0
LINE
  5
490
  8
____1
  6
DASHED2
 62
     7
 10
15225.54270239126
 20
10953.826913472731
 30
0.0
 11
15225.54270239126
 21
10963.82691347274
 31
0.0
  0
LINE
  5
491
  8
____1
  6
DASHED2
 62
     7
 10
15225.54270239126
 20
10963.82691347274
 30
0.0
 11
15226.54270239126
 21
10973.82691347274
 31
0.0
  0
ENDBLK
  5
492
  8
0
  0
BLOCK
  8
0
  2
C36
 70
     0
 10
0.0
 20
0.0
 30
0.0
  3
C36
  1

  0
LINE
  5
496
  8
____1
  6
DASHED2
 62
     7
 10
15208.04270239126
 20
10950.32691347274
 30
0.0
 11
15208.04270239126
 21
10958.82691347274
 31
0.0
  0
LINE
  5
497
  8
____1
  6
DASHED2
 62
     7
 10
15207.28369594875
 20
10953.919436184629
 30
0.0
 11
15205.04270239126
 21
10953.919436184629
 31
0.0
  0
LINE
  5
498
  8
____1
  6
DASHED2
 62
     7
 10
15205.04270239126
 20
10949.011958896521
 30
0.0
 11
15207.28351301271
 21
10949.011958896521
 31
0.0
  0
LINE
  5
499
  8
____1
  6
DASHED2
 62
     7
 10
15208.04270239126
 20
10950.32691347274
 30
0.0
 11
15207.28351301271
 21
10949.011958896521
 31
0.0
  0
ARC
  5
49A
  8
____1
  6
DASHED2
 62
     7
 10
15203.69751853044
 20
10951.465697540571
 30
0.0
 40
4.3451838608270634
 50
-25.60931067049609
 51
34.38167415245934
  0
ARC
  5
49B
  8
____1
  6
DASHED2
 62
     7
 10
15191.798160361021
 20
10958.82691347274
 30
0.0
 40
16.244542030247679
 50
-17.58378196092935
 51
0.0
  0
LINE
  5
49C
  8
____1
  6
DASHED2
 62
     7
 10
15208.04270239126
 20
10967.32691347274
 30
0.0
 11
15208.04270239126
 21
10958.82691347274
 31
0.0
  0
LINE
  5
49D
  8
____1
  6
DASHED2
 62
     7
 10
15207.28369594875
 20
10963.73439076085
 30
0.0
 11
15205.04270239126
 21
10963.73439076085
 31
0.0
  0
LINE
  5
49E
  8
____1
  6
DASHED2
 62
     7
 10
15205.04270239126
 20
10968.641868048961
 30
0.0
 11
15207.28351301271
 21
10968.641868048961
 31
0.0
  0
LINE
  5
49F
  8
____1
  6
DASHED2
 62
     7
 10
15208.04270239126
 20
10967.32691347274
 30
0.0
 11
15207.28351301271
 21
10968.641868048961
 31
0.0
  0
ARC
  5
4A0
  8
____1
  6
DASHED2
 62
     7
 10
15203.69751853044
 20
10966.188129404911
 30
0.0
 40
4.3451838608254896
 50
-34.381674152498931
 51
25.609310670452839
  0
ARC
  5
4A1
  8
____1
  6
DASHED2
 62
     7
 10
15191.798160361021
 20
10958.82691347274
 30
0.0
 40
16.244542030246588
 50
0.0
 51
17.583781960917118
  0
LINE
  5
4A2
  8
____1
  6
DASHED2
 62
     7
 10
15202.04270239126
 20
10967.32691347274
 30
0.0
 11
15202.04270239126
 21
10958.82691347274
 31
0.0
  0
LINE
  5
4A3
  8
____1
  6
DASHED2
 62
     7
 10
15202.801708833769
 20
10963.73439076085
 30
0.0
 11
15205.04270239126
 21
10963.73439076085
 31
0.0
  0
LINE
  5
4A4
  8
____1
  6
DASHED2
 62
     7
 10
15205.04270239126
 20
10968.641868048961
 30
0.0
 11
15202.801891769819
 21
10968.641868048961
 31
0.0
  0
LINE
  5
4A5
  8
____1
  6
DASHED2
 62
     7
 10
15202.04270239126
 20
10967.32691347274
 30
0.0
 11
15202.801891769819
 21
10968.641868048961
 31
0.0
  0
ARC
  5
4A6
  8
____1
  6
DASHED2
 62
     7
 10
15206.387886252091
 20
10966.188129404911
 30
0.0
 40
4.3451838608254896
 50
154.3906893295472
 51
-145.61832584750101
  0
ARC
  5
4A7
  8
____1
  6
DASHED2
 62
     7
 10
15218.28724442151
 20
10958.82691347274
 30
0.0
 40
16.244542030246588
 50
162.41621803908291
 51
180.0
  0
LINE
  5
4A8
  8
____1
  6
DASHED2
 62
     7
 10
15202.04270239126
 20
10950.32691347274
 30
0.0
 11
15202.04270239126
 21
10958.82691347274
 31
0.0
  0
LINE
  5
4A9
  8
____1
  6
DASHED2
 62
     7
 10
15202.801708833769
 20
10953.919436184629
 30
0.0
 11
15205.04270239126
 21
10953.919436184629
 31
0.0
  0
LINE
  5
4AA
  8
____1
  6
DASHED2
 62
     7
 10
15205.04270239126
 20
10949.011958896521
 30
0.0
 11
15202.801891769819
 21
10949.011958896521
 31
0.0
  0
LINE
  5
4AB
  8
____1
  6
DASHED2
 62
     7
 10
15202.04270239126
 20
10950.32691347274
 30
0.0
 11
15202.801891769819
 21
10949.011958896521
 31
0.0
  0
ARC
  5
4AC
  8
____1
  6
DASHED2
 62
     7
 10
15206.387886252091
 20
10951.465697540571
 30
0.0
 40
4.3451838608270634
 50
145.6183258475406
 51
-154.39068932950391
  0
ARC
  5
4AD
  8
____1
  6
DASHED2
 62
     7
 10
15218.28724442151
 20
10958.82691347274
 30
0.0
 40
16.244542030247679
 50
180.0
 51
-162.4162180390706
  0
ENDBLK
  5
4AE
  8
0
  0
BLOCK
  8
0
  2
C37
 70
     0
 10
0.0
 20
0.0
 30
0.0
  3
C37
  1

  0
LINE
  5
4B2
  8
____1
  6
DASHED2
 62
     7
 10
15208.04270239126
 20
10968.027090556079
 30
0.0
 11
15210.54270239126
 21
10968.027090556079
 31
0.0
  0
LINE
  5
4B3
  8
____1
  6
DASHED2
 62
     7
 10
15208.04270239126
 20
10949.62709055607
 30
0.0
 11
15208.04270239126
 21
10968.027090556079
 31
0.0
  0
LINE
  5
4B4
  8
____1
  6
DASHED2
 62
     7
 10
15210.54270239126
 20
10949.62709055607
 30
0.0
 11
15208.04270239126
 21
10949.62709055607
 31
0.0
  0
LINE
  5
4B5
  8
____1
  6
DASHED2
 62
     7
 10
15208.04282088085
 20
10959.482337951909
 30
0.0
 11
15210.5427232246
 21
10958.57244791021
 31
0.0
  0
LINE
  5
4B6
  8
____1
  6
DASHED2
 62
     7
 10
15208.04282088085
 20
10959.08233795191
 30
0.0
 11
15210.5427232246
 21
10958.17244791021
 31
0.0
  0
ENDBLK
  5
4B7
  8
0
  0
BLOCK
  8
0
  2
C38
 70
     0
 10
0.0
 20
0.0
 30
0.0
  3
C38
  1

  0
LINE
  5
4BB
  8
____1
  6
DASHED2
 62
     7
 10
15225.54270239126
 20
10965.32691347274
 30
0.0
 11
15225.54270239126
 21
10952.32691347274
 31
0.0
  0
LINE
  5
4BC
  8
____1
  6
DASHED2
 62
     7
 10
15214.54270239126
 20
10965.32691347274
 30
0.0
 11
15214.54270239126
 21
10952.32691347274
 31
0.0
  0
LINE
  5
4BD
  8
____1
  6
DASHED2
 62
     7
 10
15225.54270239126
 20
10965.32691347274
 30
0.0
 11
15214.54270239126
 21
10965.32691347274
 31
0.0
  0
LINE
  5
4BE
  8
____1
  6
DASHED2
 62
     7
 10
15225.54270239126
 20
10952.32691347274
 30
0.0
 11
15214.54270239126
 21
10952.32691347274
 31
0.0
  0
LINE
  5
4BF
  8
____1
  6
DOT
 62
     7
 10
15225.54270239126
 20
10964.126913472741
 30
0.0
 11
15214.54270239126
 21
10964.126913472741
 31
0.0
  0
LINE
  5
4C0
  8
____1
  6
DOT
 62
     7
 10
15225.54270239126
 20
10953.52691347274
 30
0.0
 11
15214.54270239126
 21
10953.52691347274
 31
0.0
  0
ENDBLK
  5
4C1
  8
0
  0
BLOCK
  8
0
  2
C39
 70
     0
 10
0.0
 20
0.0
 30
0.0
  3
C39
  1

  0
LINE
  5
4DB
  8
____1
  6
DOT
 62
     7
 10
15210.0425435371
 20
11203.43934294626
 30
0.0
 11
15208.0425435371
 21
11203.43934294626
 31
0.0
  0
LINE
  5
4DC
  8
____1
  6
DOT
 62
     7
 10
15208.0425435371
 20
11213.93934294626
 30
0.0
 11
15210.0425435371
 21
11213.93934294626
 31
0.0
  0
LINE
  5
4DD
  8
____1
  6
DASHED2
 62
     7
 10
15208.0425435371
 20
11219.68934294626
 30
0.0
 11
15210.0425435371
 21
11219.68934294626
 31
0.0
  0
LINE
  5
4DE
  8
____1
  6
DASHED2
 62
     7
 10
15208.0425435371
 20
11219.68934294626
 30
0.0
 11
15208.0425435371
 21
11197.68934294626
 31
0.0
  0
LINE
  5
4DF
  8
____1
  6
DASHED2
 62
     7
 10
15208.0425435371
 20
11197.68934294626
 30
0.0
 11
15210.0425435371
 21
11197.68934294626
 31
0.0
  0
LINE
  5
4E0
  8
____1
  6
DASHED2
 62
     7
 10
15210.0425435371
 20
11219.68934294626
 30
0.0
 11
15210.0425435371
 21
11197.68934294626
 31
0.0
  0
ENDBLK
  5
4E1
  8
0
  0
BLOCK
  8
0
  2
C40
 70
     0
 10
0.0
 20
0.0
 30
0.0
  3
C40
  1

  0
LINE
  5
4E5
  8
____1
  6
DASHED2
 62
     7
 10
15214.54272029491
 20
11221.327141071029
 30
0.0
 11
15214.54272029491
 21
10946.327141071029
 31
0.0
  0
LINE
  5
4E6
  8
____1
  6
DASHED2
 62
     7
 10
15210.54272029491
 20
11221.327141071029
 30
0.0
 11
15214.54272029491
 21
11221.327141071029
 31
0.0
  0
LINE
  5
4E7
  8
____1
  6
DASHED2
 62
     7
 10
15210.54272029491
 20
10946.327141071029
 30
0.0
 11
15210.54272029491
 21
11221.327141071029
 31
0.0
  0
LINE
  5
4E8
  8
____1
  6
DASHED2
 62
     7
 10
15214.54272029491
 20
10946.327141071029
 30
0.0
 11
15210.54272029491
 21
10946.327141071029
 31
0.0
  0
ENDBLK
  5
4E9
  8
0
  0
BLOCK
  8
0
  2
C41
 70
     0
 10
0.0
 20
0.0
 30
0.0
  3
C41
  1

  0
LINE
  5
4ED
  8
____1
  6
DASHED2
 62
     7
 10
15225.29272029491
 20
11200.18934294626
 30
0.0
 11
15225.29272029491
 21
11208.68934294626
 31
0.0
  0
LINE
  5
4EE
  8
____1
  6
DASHED2
 62
     7
 10
15224.533713852399
 20
11203.781865658149
 30
0.0
 11
15222.29272029491
 21
11203.781865658149
 31
0.0
  0
LINE
  5
4EF
  8
____1
  6
DASHED2
 62
     7
 10
15222.29272029491
 20
11198.87438837003
 30
0.0
 11
15224.533530916349
 21
11198.87438837003
 31
0.0
  0
LINE
  5
4F0
  8
____1
  6
DASHED2
 62
     7
 10
15225.29272029491
 20
11200.18934294626
 30
0.0
 11
15224.533530916349
 21
11198.87438837003
 31
0.0
  0
ARC
  5
4F1
  8
____1
  6
DASHED2
 62
     7
 10
15220.94753643408
 20
11201.328127014091
 30
0.0
 40
4.3451838608270634
 50
-25.60931067049609
 51
34.381674152498931
  0
ARC
  5
4F2
  8
____1
  6
DASHED2
 62
     7
 10
15209.04817826466
 20
11208.68934294626
 30
0.0
 40
16.244542030246588
 50
-17.583781960917118
 51
0.0
  0
LINE
  5
4F3
  8
____1
  6
DASHED2
 62
     7
 10
15225.29272029491
 20
11217.18934294626
 30
0.0
 11
15225.29272029491
 21
11208.68934294626
 31
0.0
  0
LINE
  5
4F4
  8
____1
  6
DASHED2
 62
     7
 10
15224.533713852399
 20
11213.59682023437
 30
0.0
 11
15222.29272029491
 21
11213.59682023437
 31
0.0
  0
LINE
  5
4F5
  8
____1
  6
DASHED2
 62
     7
 10
15222.29272029491
 20
11218.504297522481
 30
0.0
 11
15224.533530916349
 21
11218.504297522481
 31
0.0
  0
LINE
  5
4F6
  8
____1
  6
DASHED2
 62
     7
 10
15225.29272029491
 20
11217.18934294626
 30
0.0
 11
15224.533530916349
 21
11218.504297522481
 31
0.0
  0
ARC
  5
4F7
  8
____1
  6
DASHED2
 62
     7
 10
15220.94753643408
 20
11216.05055887842
 30
0.0
 40
4.3451838608270634
 50
-34.381674152498931
 51
25.60931067049609
  0
ARC
  5
4F8
  8
____1
  6
DASHED2
 62
     7
 10
15209.04817826466
 20
11208.68934294626
 30
0.0
 40
16.244542030246588
 50
0.0
 51
17.583781960917118
  0
LINE
  5
4F9
  8
____1
  6
DASHED2
 62
     7
 10
15219.29272029491
 20
11217.18934294626
 30
0.0
 11
15219.29272029491
 21
11208.68934294626
 31
0.0
  0
LINE
  5
4FA
  8
____1
  6
DASHED2
 62
     7
 10
15220.05172673742
 20
11213.59682023437
 30
0.0
 11
15222.29272029491
 21
11213.59682023437
 31
0.0
  0
LINE
  5
4FB
  8
____1
  6
DASHED2
 62
     7
 10
15222.29272029491
 20
11218.504297522481
 30
0.0
 11
15220.051909673461
 21
11218.504297522481
 31
0.0
  0
LINE
  5
4FC
  8
____1
  6
DASHED2
 62
     7
 10
15219.29272029491
 20
11217.18934294626
 30
0.0
 11
15220.051909673461
 21
11218.504297522481
 31
0.0
  0
ARC
  5
4FD
  8
____1
  6
DASHED2
 62
     7
 10
15223.63790415573
 20
11216.05055887842
 30
0.0
 40
4.3451838608270634
 50
154.39068932950391
 51
-145.61832584750101
  0
ARC
  5
4FE
  8
____1
  6
DASHED2
 62
     7
 10
15235.537262325161
 20
11208.68934294626
 30
0.0
 40
16.244542030246588
 50
162.41621803908291
 51
180.0
  0
LINE
  5
4FF
  8
____1
  6
DASHED2
 62
     7
 10
15219.29272029491
 20
11200.18934294626
 30
0.0
 11
15219.29272029491
 21
11208.68934294626
 31
0.0
  0
LINE
  5
500
  8
____1
  6
DASHED2
 62
     7
 10
15220.05172673742
 20
11203.781865658149
 30
0.0
 11
15222.29272029491
 21
11203.781865658149
 31
0.0
  0
LINE
  5
501
  8
____1
  6
DASHED2
 62
     7
 10
15222.29272029491
 20
11198.87438837003
 30
0.0
 11
15220.051909673461
 21
11198.87438837003
 31
0.0
  0
LINE
  5
502
  8
____1
  6
DASHED2
 62
     7
 10
15219.29272029491
 20
11200.18934294626
 30
0.0
 11
15220.051909673461
 21
11198.87438837003
 31
0.0
  0
ARC
  5
503
  8
____1
  6
DASHED2
 62
     7
 10
15223.63790415573
 20
11201.328127014091
 30
0.0
 40
4.3451838608270634
 50
145.61832584750101
 51
-154.39068932950391
  0
ARC
  5
504
  8
____1
  6
DASHED2
 62
     7
 10
15235.537262325161
 20
11208.68934294626
 30
0.0
 40
16.244542030246588
 50
180.0
 51
-162.41621803908291
  0
ENDBLK
  5
505
  8
0
  0
BLOCK
  8
0
  2
C42
 70
     0
 10
0.0
 20
0.0
 30
0.0
  3
C42
  1

  0
LINE
  5
509
  8
____1
  6
DOT
 62
     7
 10
15208.0425435371
 20
11213.68934294626
 30
0.0
 11
15223.2925435371
 21
11213.68934294626
 31
0.0
  0
LINE
  5
50A
  8
____1
  6
DOT
 62
     7
 10
15208.0425435371
 20
11212.93934294626
 30
0.0
 11
15224.0425435371
 21
11212.93934294626
 31
0.0
  0
LINE
  5
50B
  8
____1
  6
DOT
 62
     7
 10
15208.0425435371
 20
11204.43934294626
 30
0.0
 11
15224.0425435371
 21
11204.43934294626
 31
0.0
  0
LINE
  5
50C
  8
____1
  6
DOT
 62
     7
 10
15208.0425435371
 20
11203.68934294626
 30
0.0
 11
15223.2925435371
 21
11203.68934294626
 31
0.0
  0
LINE
  5
50D
  8
____1
  6
DOT
 62
     7
 10
15223.2925435371
 20
11213.68934294626
 30
0.0
 11
15224.0425435371
 21
11212.93934294626
 31
0.0
  0
LINE
  5
50E
  8
____1
  6
DOT
 62
     7
 10
15224.0425435371
 20
11204.43934294626
 30
0.0
 11
15224.0425435371
 21
11212.93934294626
 31
0.0
  0
LINE
  5
50F
  8
____1
  6
DOT
 62
     7
 10
15223.2925435371
 20
11203.68934294626
 30
0.0
 11
15224.0425435371
 21
11204.43934294626
 31
0.0
  0
LINE
  5
510
  8
____1
  6
DOT
 62
     7
 10
15223.2925435371
 20
11203.68934294626
 30
0.0
 11
15223.2925435371
 21
11213.68934294626
 31
0.0
  0
ARC
  5
511
  8
____1
  6
DASHED2
 62
     7
 10
15217.94254353709
 20
11208.68934294626
 30
0.0
 40
14.99999999999959
 50
-176.75149902696171
 51
-135.57299599919571
  0
ARC
  5
512
  8
____1
  6
DASHED2
 62
     7
 10
15217.94254353709
 20
11208.68934294626
 30
0.0
 40
15.000000000000339
 50
135.57299599918591
 51
176.75149902694821
  0
LINE
  5
513
  8
____1
  6
DASHED2
 62
     7
 10
15202.96664623467
 20
11207.839342946259
 30
0.0
 11
15203.557221155659
 21
11207.839342946259
 31
0.0
  0
LINE
  5
514
  8
____1
  6
DASHED2
 62
     7
 10
15203.557221155659
 20
11209.53934294626
 30
0.0
 11
15203.557221155659
 21
11207.839342946259
 31
0.0
  0
LINE
  5
515
  8
____1
  6
DASHED2
 62
     7
 10
15202.966646235171
 20
11209.53934294626
 30
0.0
 11
15203.557221155659
 21
11209.53934294626
 31
0.0
  0
LINE
  5
516
  8
____1
  6
DASHED2
 62
     7
 10
15207.230400894279
 20
11219.18934294626
 30
0.0
 11
15207.230400894279
 21
11198.18934294626
 31
0.0
  0
LINE
  5
517
  8
____1
  6
DASHED2
 62
     7
 10
15208.0425435371
 20
11198.18934294626
 30
0.0
 11
15207.230400894279
 21
11198.18934294626
 31
0.0
  0
LINE
  5
518
  8
____1
  6
DASHED2
 62
     7
 10
15207.230400894279
 20
11219.18934294626
 30
0.0
 11
15208.0425435371
 21
11219.18934294626
 31
0.0
  0
LINE
  5
519
  8
____1
  6
DASHED2
 62
     7
 10
15208.0425435371
 20
11198.18934294626
 30
0.0
 11
15208.0425435371
 21
11219.18934294626
 31
0.0
  0
ENDBLK
  5
51A
  8
0
  0
BLOCK
  8
0
  2
C43
 70
     0
 10
0.0
 20
0.0
 30
0.0
  3
C43
  1

  0
INSERT
  5
57E
  8
____1
  6
DASHED2
 62
   254
  2
C44
 10
0.0
 20
0.0
 30
0.0
  0
INSERT
  5
5A8
  8
____1
  6
DASHED2
 62
     7
  2
C45
 10
0.0
 20
0.0
 30
0.0
  0
ENDBLK
  5
5A9
  8
0
  0
BLOCK
  8
0
  2
C44
 70
     0
 10
0.0
 20
0.0
 30
0.0
  3
C44
  1

  0
LINE
  5
526
  8
____1
  6
DASHED2
 62
     7
 10
15179.79270239126
 20
10366.807464820969
 30
0.0
 11
15448.31888100092
 21
10371.49460670352
 31
0.0
  0
LINE
  5
527
  8
____1
  6
CONTINUOUS
 62
     5
 10
15716.79270239126
 20
10320.28151071564
 30
0.0
 11
15179.79270239126
 21
10320.28151071564
 31
0.0
  0
LINE
  5
528
  8
____1
  6
CONTINUOUS
 62
     5
 10
15718.29270239126
 20
10368.28151071564
 30
0.0
 11
15178.29270239126
 21
10368.28151071564
 31
0.0
  0
LINE
  5
529
  8
____1
  6
CONTINUOUS
 62
     5
 10
15178.29270239126
 20
10368.28151071564
 30
0.0
 11
15178.29270239126
 21
10321.78151071564
 31
0.0
  0
LINE
  5
52A
  8
____1
  6
DASHED2
 62
     7
 10
15179.79270239126
 20
10366.807464820969
 30
0.0
 11
15179.79270239126
 21
10320.28151071564
 31
0.0
  0
LINE
  5
52B
  8
____1
  6
CONTINUOUS
 62
     5
 10
15718.29270239126
 20
10321.78151071564
 30
0.0
 11
15718.29270239126
 21
10368.28151071564
 31
0.0
  0
LINE
  5
52C
  8
____1
  6
DASHED2
 62
     7
 10
15716.79270239126
 20
10320.28151071564
 30
0.0
 11
15716.79270239126
 21
10366.807464820969
 31
0.0
  0
LINE
  5
52D
  8
____1
  6
DASHED2
 62
     7
 10
15181.29270239126
 20
10330.28151071564
 30
0.0
 11
15181.29270239126
 21
10321.78151071564
 31
0.0
  0
ARC
  5
52E
  8
____1
  6
DASHED2
 62
     7
 10
15179.79270239126
 20
10321.78151071564
 30
0.0
 40
1.5
 50
-90.0
 51
0.0
  0
ARC
  5
52F
  8
____1
  6
CONTINUOUS
 62
     5
 10
15179.79270239126
 20
10321.78151071564
 30
0.0
 40
1.5
 50
180.0
 51
-90.0
  0
ARC
  5
530
  8
____1
  6
CONTINUOUS
 62
     5
 10
15716.79270239126
 20
10321.78151071564
 30
0.0
 40
1.5
 50
-90.0
 51
0.0
  0
LINE
  5
531
  8
____1
  6
DASHED2
 62
     7
 10
15715.29270239126
 20
10321.78151071564
 30
0.0
 11
15715.29270239126
 21
10330.28151071564
 31
0.0
  0
ARC
  5
532
  8
____1
  6
DASHED2
 62
     7
 10
15716.79270239126
 20
10321.78151071564
 30
0.0
 40
1.5
 50
180.0
 51
-90.0
  0
LINE
  5
533
  8
____1
  6
CONTINUOUS
 62
     5
 10
15718.29270239126
 20
10368.28151071564
 30
0.0
 11
15448.26958692928
 21
10372.99478172815
 31
0.0
  0
LINE
  5
534
  8
____1
  6
DASHED2
 62
     7
 10
15716.79270239126
 20
10366.807464820969
 30
0.0
 11
15448.24340831962
 21
10371.49501018541
 31
0.0
  0
LINE
  5
535
  8
____1
  6
DOT
 62
     2
 10
15718.23161896873
 20
10364.78204378259
 30
0.0
 11
15718.327607204141
 21
10370.28120610595
 31
0.0
  0
LINE
  5
536
  8
____1
  6
DASHED2
 62
     7
 10
15179.79270239126
 20
10330.28151071564
 30
0.0
 11
15716.79270239126
 21
10330.28151071564
 31
0.0
  0
ARC
  5
537
  8
____1
  6
DASHED2
 62
     7
 10
15432.79270239126
 20
10364.28151071564
 30
0.0
 40
2.5
 50
90.0
 51
180.0
  0
ARC
  5
538
  8
____1
  6
DASHED2
 62
     7
 10
15432.79270239126
 20
10364.28151071564
 30
0.0
 40
0.5
 50
90.0
 51
180.0
  0
LINE
  5
539
  8
____1
  6
DASHED2
 62
     7
 10
15433.29270239126
 20
10364.78151071564
 30
0.0
 11
15433.29270239126
 21
10366.78151071564
 31
0.0
  0
LINE
  5
53A
  8
____1
  6
DASHED2
 62
     7
 10
15430.29270239126
 20
10343.28151071564
 30
0.0
 11
15432.29270239126
 21
10343.28151071564
 31
0.0
  0
LINE
  5
53B
  8
____1
  6
DASHED2
 62
     7
 10
15430.29270239126
 20
10352.78151071564
 30
0.0
 11
15432.29270239126
 21
10352.78151071564
 31
0.0
  0
LINE
  5
53C
  8
____1
  6
DASHED2
 62
     7
 10
15432.29270239126
 20
10364.28151071564
 30
0.0
 11
15432.29270239126
 21
10343.28151071564
 31
0.0
  0
LINE
  5
53D
  8
____1
  6
DASHED2
 62
     7
 10
15430.29270239126
 20
10364.28151071564
 30
0.0
 11
15430.29270239126
 21
10343.28151071564
 31
0.0
  0
LINE
  5
53E
  8
____1
  6
DASHED2
 62
     7
 10
15436.442702391259
 20
10367.18151071564
 30
0.0
 11
15436.442702391259
 21
10366.78151071564
 31
0.0
  0
LINE
  5
53F
  8
____1
  6
DASHED2
 62
     7
 10
15440.14270239126
 20
10367.18151071564
 30
0.0
 11
15436.442702391259
 21
10367.18151071564
 31
0.0
  0
LINE
  5
540
  8
____1
  6
DASHED2
 62
     7
 10
15440.14270239126
 20
10367.18151071564
 30
0.0
 11
15440.14270239126
 21
10366.78151071564
 31
0.0
  0
LINE
  5
541
  8
____1
  6
DASHED2
 62
     7
 10
15463.79270239126
 20
10366.78151071564
 30
0.0
 11
15432.79270239126
 21
10366.78151071564
 31
0.0
  0
LINE
  5
542
  8
____1
  6
DASHED2
 62
     7
 10
15436.442702391259
 20
10365.18151071564
 30
0.0
 11
15436.442702391259
 21
10364.78151071564
 31
0.0
  0
LINE
  5
543
  8
____1
  6
DASHED2
 62
     7
 10
15436.442702391259
 20
10365.18151071564
 30
0.0
 11
15440.14270239126
 21
10365.18151071564
 31
0.0
  0
LINE
  5
544
  8
____1
  6
DASHED2
 62
     7
 10
15440.14270239126
 20
10365.18151071564
 30
0.0
 11
15440.14270239126
 21
10364.78151071564
 31
0.0
  0
LINE
  5
545
  8
____1
  6
DASHED2
 62
     7
 10
15456.442702391259
 20
10365.18151071564
 30
0.0
 11
15456.442702391259
 21
10364.78151071564
 31
0.0
  0
LINE
  5
546
  8
____1
  6
DASHED2
 62
     7
 10
15463.29270239126
 20
10364.78151071564
 30
0.0
 11
15463.29270239126
 21
10366.78151071564
 31
0.0
  0
LINE
  5
547
  8
____1
  6
DASHED2
 62
     7
 10
15466.29270239126
 20
10343.28151071564
 30
0.0
 11
15466.29270239126
 21
10364.28151071564
 31
0.0
  0
LINE
  5
548
  8
____1
  6
DASHED2
 62
     7
 10
15464.29270239126
 20
10343.28151071564
 30
0.0
 11
15464.29270239126
 21
10364.28151071564
 31
0.0
  0
LINE
  5
549
  8
____1
  6
DASHED2
 62
     7
 10
15460.14270239126
 20
10365.18151071564
 30
0.0
 11
15456.442702391259
 21
10365.18151071564
 31
0.0
  0
LINE
  5
54A
  8
____1
  6
DASHED2
 62
     7
 10
15460.14270239126
 20
10365.18151071564
 30
0.0
 11
15460.14270239126
 21
10364.78151071564
 31
0.0
  0
LINE
  5
54B
  8
____1
  6
DASHED2
 62
     7
 10
15460.14270239126
 20
10367.18151071564
 30
0.0
 11
15460.14270239126
 21
10366.78151071564
 31
0.0
  0
LINE
  5
54C
  8
____1
  6
DASHED2
 62
     7
 10
15460.14270239126
 20
10367.18151071564
 30
0.0
 11
15456.442702391259
 21
10367.18151071564
 31
0.0
  0
LINE
  5
54D
  8
____1
  6
DASHED2
 62
     7
 10
15456.442702391259
 20
10366.78151071564
 30
0.0
 11
15456.442702391259
 21
10367.18151071564
 31
0.0
  0
ARC
  5
54E
  8
____1
  6
DASHED2
 62
     7
 10
15463.79270239126
 20
10364.28151071564
 30
0.0
 40
2.5
 50
0.0
 51
90.0
  0
LINE
  5
54F
  8
____1
  6
CONTINUOUS
 62
     5
 10
15178.29270239126
 20
10368.28151071564
 30
0.0
 11
15448.29270239126
 21
10372.99437824626
 31
0.0
  0
LINE
  5
550
  8
____1
  6
DASHED2
 62
     7
 10
15433.29270239126
 20
10360.78151071564
 30
0.0
 11
15443.29270239126
 21
10360.78151071564
 31
0.0
  0
LINE
  5
551
  8
____1
  6
DASHED2
 62
     7
 10
15443.29270239126
 20
10360.78151071564
 30
0.0
 11
15453.29270239126
 21
10360.78151071564
 31
0.0
  0
LINE
  5
552
  8
____1
  6
DASHED2
 62
     7
 10
15463.29270239126
 20
10360.78151071564
 30
0.0
 11
15468.29270239126
 21
10360.78151071564
 31
0.0
  0
LINE
  5
553
  8
____1
  6
DASHED2
 62
     7
 10
15453.29270239126
 20
10360.78151071564
 30
0.0
 11
15463.29270239126
 21
10360.78151071564
 31
0.0
  0
LINE
  5
554
  8
____1
  6
DASHED2
 62
     7
 10
15433.29270239126
 20
10352.78151071564
 30
0.0
 11
15428.29270239126
 21
10352.78151071564
 31
0.0
  0
LINE
  5
555
  8
____1
  6
DASHED2
 62
     7
 10
15468.29270239126
 20
10352.78151071564
 30
0.0
 11
15463.29270239126
 21
10352.78151071564
 31
0.0
  0
POLYLINE
  5
556
  8
____1
  6
DASHED2
 62
     7
 66
     1
 10
0.0
 20
0.0
 30
0.0
 70
     8
  0
VERTEX
  5
557
  8
____1
 62
     7
 10
15463.29270239126
 20
10303.683094863991
 30
0.0
 70
    32
  0
VERTEX
  5
558
  8
____1
 62
     7
 10
15463.064818686449
 20
10301.189208210781
 30
0.0
 70
    32
  0
VERTEX
  5
559
  8
____1
 62
     7
 10
15462.388091703049
 20
10298.771097041559
 30
0.0
 70
    32
  0
VERTEX
  5
55A
  8
____1
 62
     7
 10
15461.28308344803
 20
10296.502234440581
 30
0.0
 70
    32
  0
VERTEX
  5
55B
  8
____1
 62
     7
 10
15459.78336903805
 20
10294.45155864988
 30
0.0
 70
    32
  0
VERTEX
  5
55C
  8
____1
 62
     7
 10
15457.934516536559
 20
10292.68137841566
 30
0.0
 70
    32
  0
VERTEX
  5
55D
  8
____1
 62
     7
 10
15455.79270239126
 20
10291.24547976859
 30
0.0
 70
    32
  0
VERTEX
  5
55E
  8
____1
 62
     7
 10
15453.42300454115
 20
10290.18749176245
 30
0.0
 70
    32
  0
VERTEX
  5
55F
  8
____1
 62
     7
 10
15450.89742505627
 20
10289.53956082745
 30
0.0
 70
    32
  0
VERTEX
  5
560
  8
____1
 62
     7
 10
15448.29270239126
 20
10289.32137401717
 30
0.0
 70
    32
  0
VERTEX
  5
561
  8
____1
 62
     7
 10
15445.687979726261
 20
10289.53956082745
 30
0.0
 70
    32
  0
VERTEX
  5
562
  8
____1
 62
     7
 10
15443.162400241379
 20
10290.18749176245
 30
0.0
 70
    32
  0
VERTEX
  5
563
  8
____1
 62
     7
 10
15440.79270239126
 20
10291.24547976859
 30
0.0
 70
    32
  0
VERTEX
  5
564
  8
____1
 62
     7
 10
15438.650888245969
 20
10292.68137841566
 30
0.0
 70
    32
  0
VERTEX
  5
565
  8
____1
 62
     7
 10
15436.80203574448
 20
10294.45155864988
 30
0.0
 70
    32
  0
VERTEX
  5
566
  8
____1
 62
     7
 10
15435.3023213345
 20
10296.502234440581
 30
0.0
 70
    32
  0
VERTEX
  5
567
  8
____1
 62
     7
 10
15434.19731307947
 20
10298.771097041559
 30
0.0
 70
    32
  0
VERTEX
  5
568
  8
____1
 62
     7
 10
15433.52058609608
 20
10301.189208210781
 30
0.0
 70
    32
  0
VERTEX
  5
569
  8
____1
 62
     7
 10
15433.29270239126
 20
10303.683094863991
 30
0.0
 70
    32
  0
SEQEND
  5
56A
  8
____1
 62
     7
  0
LINE
  5
56B
  8
____1
  6
DASHED2
 62
     7
 10
15433.29270239126
 20
10303.683094863991
 30
0.0
 11
15433.29270239126
 21
10362.78151071564
 31
0.0
  0
LINE
  5
56C
  8
____1
  6
DASHED2
 62
     7
 10
15463.29270239126
 20
10303.683094863991
 30
0.0
 11
15463.29270239126
 21
10362.78151071564
 31
0.0
  0
LINE
  5
56D
  8
____1
  6
DASHED2
 62
     7
 10
15433.29270239126
 20
10318.044815710809
 30
0.0
 11
15463.29270239126
 21
10318.044815710809
 31
0.0
  0
LINE
  5
56E
  8
____1
  6
DASHED2
 62
     7
 10
15428.29270239126
 20
10352.78151071564
 30
0.0
 11
15428.29270239126
 21
10362.78151071564
 31
0.0
  0
LINE
  5
56F
  8
____1
  6
DASHED2
 62
     7
 10
15428.29270239126
 20
10362.78151071564
 30
0.0
 11
15468.29270239126
 21
10362.78151071564
 31
0.0
  0
LINE
  5
570
  8
____1
  6
DASHED2
 62
     7
 10
15468.29270239126
 20
10362.78151071564
 30
0.0
 11
15468.29270239126
 21
10352.78151071564
 31
0.0
  0
LINE
  5
571
  8
____1
  6
DASHED2
 62
     7
 10
15443.29270239126
 20
10327.78151071564
 30
0.0
 11
15443.29270239126
 21
10362.78151071564
 31
0.0
  0
LINE
  5
572
  8
____1
  6
DASHED2
 62
     7
 10
15453.29270239126
 20
10327.78151071564
 30
0.0
 11
15453.29270239126
 21
10362.78151071564
 31
0.0
  0
ARC
  5
573
  8
____1
  6
DASHED2
 62
     7
 10
15448.29270239126
 20
10327.78151071564
 30
0.0
 40
5.0
 50
179.99999999995831
 51
0.0000000000416882
  0
LINE
  5
574
  8
____1
  6
DASHED2
 62
     7
 10
15468.29270239126
 20
10354.78151071564
 30
0.0
 11
15428.29270239126
 21
10354.78151071564
 31
0.0
  0
LINE
  5
575
  8
____1
  6
DASHED2
 62
     7
 10
15428.29270239126
 20
10360.78151071564
 30
0.0
 11
15433.29270239126
 21
10360.78151071564
 31
0.0
  0
LINE
  5
576
  8
____1
  6
DASHED2
 62
     7
 10
15453.29270239126
 20
10352.78151071564
 30
0.0
 11
15443.29270239126
 21
10352.78151071564
 31
0.0
  0
LINE
  5
577
  8
____1
  6
DASHED2
 62
     7
 10
15463.29270239126
 20
10352.78151071564
 30
0.0
 11
15453.29270239126
 21
10352.78151071564
 31
0.0
  0
LINE
  5
578
  8
____1
  6
DASHED2
 62
     7
 10
15443.29270239126
 20
10352.78151071564
 30
0.0
 11
15433.29270239126
 21
10352.78151071564
 31
0.0
  0
ARC
  5
579
  8
____1
  6
DASHED2
 62
     7
 10
15463.79270239126
 20
10364.28151071564
 30
0.0
 40
0.5
 50
0.0
 51
90.0
  0
LINE
  5
57A
  8
____1
  6
DASHED2
 62
     7
 10
15463.79270239126
 20
10364.78151071564
 30
0.0
 11
15432.79270239126
 21
10364.78151071564
 31
0.0
  0
LINE
  5
57B
  8
____1
  6
DASHED2
 62
     7
 10
15464.29270239126
 20
10352.78151071564
 30
0.0
 11
15466.29270239126
 21
10352.78151071564
 31
0.0
  0
LINE
  5
57C
  8
____1
  6
DASHED2
 62
     7
 10
15464.29270239126
 20
10343.28151071564
 30
0.0
 11
15466.29270239126
 21
10343.28151071564
 31
0.0
  0
ENDBLK
  5
57D
  8
0
  0
BLOCK
  8
0
  2
C45
 70
     0
 10
0.0
 20
0.0
 30
0.0
  3
C45
  1

  0
LINE
  5
581
  8
____1
  6
DASHED2
 62
     7
 10
15529.175388293441
 20
10365.28151071564
 30
0.0
 11
15529.608400995339
 21
10366.03151071564
 31
0.0
  0
LINE
  5
582
  8
____1
  6
DASHED2
 62
     7
 10
15519.36043371722
 20
10365.28151071564
 30
0.0
 11
15548.29270239126
 21
10365.28151071564
 31
0.0
  0
ARC
  5
583
  8
____1
  6
DASHED2
 62
     7
 10
15530.907439101011
 20
10365.28151071564
 30
0.0
 40
1.5000000000003191
 50
90.0
 51
150.00000000000699
  0
LINE
  5
584
  8
____1
  6
DASHED2
 62
     7
 10
15391.658727795049
 20
10323.28151071564
 30
0.0
 11
15504.926676987479
 21
10323.28151071564
 31
0.0
  0
LINE
  5
585
  8
____1
  6
DASHED2
 62
     7
 10
15395.700179679379
 20
10330.28151071564
 30
0.0
 11
15500.885225103149
 21
10330.28151071564
 31
0.0
  0
LINE
  5
586
  8
____1
  6
DASHED2
 62
     7
 10
15536.54270239126
 20
10365.28151071564
 30
0.0
 11
15536.54270239126
 21
10365.631510715641
 31
0.0
  0
LINE
  5
587
  8
____1
  6
DASHED2
 62
     7
 10
15536.54270239126
 20
10365.631510715641
 30
0.0
 11
15540.04270239126
 21
10365.631510715641
 31
0.0
  0
LINE
  5
588
  8
____1
  6
DASHED2
 62
     7
 10
15540.04270239126
 20
10365.28151071564
 30
0.0
 11
15540.04270239126
 21
10365.631510715641
 31
0.0
  0
LINE
  5
589
  8
____1
  6
DASHED2
 62
     7
 10
15540.04270239126
 20
10366.78151071564
 30
0.0
 11
15540.04270239126
 21
10367.131510715641
 31
0.0
  0
LINE
  5
58A
  8
____1
  6
DASHED2
 62
     7
 10
15536.54270239126
 20
10367.131510715641
 30
0.0
 11
15540.04270239126
 21
10367.131510715641
 31
0.0
  0
LINE
  5
58B
  8
____1
  6
DASHED2
 62
     7
 10
15536.54270239126
 20
10366.78151071564
 30
0.0
 11
15536.54270239126
 21
10367.131510715641
 31
0.0
  0
LINE
  5
58C
  8
____1
  6
DASHED2
 62
     7
 10
15391.658727795049
 20
10323.28151071564
 30
0.0
 11
15367.410016489081
 21
10365.28151071564
 31
0.0
  0
LINE
  5
58D
  8
____1
  6
DASHED2
 62
     7
 10
15360.04270239126
 20
10367.131510715641
 30
0.0
 11
15356.54270239126
 21
10367.131510715641
 31
0.0
  0
LINE
  5
58E
  8
____1
  6
DASHED2
 62
     7
 10
15356.54270239126
 20
10366.78151071564
 30
0.0
 11
15356.54270239126
 21
10367.131510715641
 31
0.0
  0
LINE
  5
58F
  8
____1
  6
DASHED2
 62
     7
 10
15396.56620508316
 20
10331.78151071564
 30
0.0
 11
15377.22497106531
 21
10365.28151071564
 31
0.0
  0
LINE
  5
590
  8
____1
  6
DASHED2
 62
     7
 10
15395.700179679379
 20
10330.28151071564
 30
0.0
 11
15375.92593295963
 21
10364.53151071564
 31
0.0
  0
LINE
  5
591
  8
____1
  6
DASHED2
 62
     7
 10
15367.410016489081
 20
10365.28151071564
 30
0.0
 11
15366.977003787189
 21
10366.03151071564
 31
0.0
  0
LINE
  5
592
  8
____1
  6
DASHED2
 62
     7
 10
15365.677965681511
 20
10366.78151071564
 30
0.0
 11
15348.29270239126
 21
10366.78151071564
 31
0.0
  0
LINE
  5
593
  8
____1
  6
DASHED2
 62
     7
 10
15348.29270239126
 20
10366.78151071564
 30
0.0
 11
15348.29270239126
 21
10365.28151071564
 31
0.0
  0
LINE
  5
594
  8
____1
  6
DASHED2
 62
     7
 10
15390.79270239126
 20
10321.78151071564
 30
0.0
 11
15365.677965681511
 21
10365.28151071564
 31
0.0
  0
ARC
  5
595
  8
____1
  6
DASHED2
 62
     7
 10
15390.79270239126
 20
10321.78151071564
 30
0.0
 40
1.5
 50
0.0
 51
119.99999999999289
  0
LINE
  5
596
  8
____1
  6
DASHED2
 62
     7
 10
15391.54270239126
 20
10323.08054882131
 30
0.0
 11
15396.56620508316
 21
10331.78151071564
 31
0.0
  0
ARC
  5
597
  8
____1
  6
DASHED2
 62
     7
 10
15365.677965681511
 20
10365.28151071564
 30
0.0
 40
1.5000000000007581
 50
29.999933376150828
 51
90.0
  0
LINE
  5
598
  8
____1
  6
DASHED2
 62
     7
 10
15377.22497106531
 20
10365.28151071564
 30
0.0
 11
15348.29270239126
 21
10365.28151071564
 31
0.0
  0
LINE
  5
599
  8
____1
  6
DASHED2
 62
     7
 10
15360.04270239126
 20
10365.631510715641
 30
0.0
 11
15356.54270239126
 21
10365.631510715641
 31
0.0
  0
LINE
  5
59A
  8
____1
  6
DASHED2
 62
     7
 10
15360.04270239126
 20
10366.78151071564
 30
0.0
 11
15360.04270239126
 21
10367.131510715641
 31
0.0
  0
LINE
  5
59B
  8
____1
  6
DASHED2
 62
     7
 10
15356.54270239126
 20
10365.28151071564
 30
0.0
 11
15356.54270239126
 21
10365.631510715641
 31
0.0
  0
LINE
  5
59C
  8
____1
  6
DASHED2
 62
     7
 10
15360.04270239126
 20
10365.28151071564
 30
0.0
 11
15360.04270239126
 21
10365.631510715641
 31
0.0
  0
LINE
  5
59D
  8
____1
  6
DASHED2
 62
     7
 10
15396.56620508316
 20
10331.78151071564
 30
0.0
 11
15500.019199699371
 21
10331.78151071564
 31
0.0
  0
LINE
  5
59E
  8
____1
  6
DASHED2
 62
     7
 10
15390.79270239126
 20
10321.78151071564
 30
0.0
 11
15505.79270239126
 21
10321.78151071564
 31
0.0
  0
ARC
  5
59F
  8
____1
  6
DASHED2
 62
     7
 10
15505.79270239126
 20
10321.78151071564
 30
0.0
 40
1.5
 50
60.000000000007063
 51
180.0
  0
LINE
  5
5A0
  8
____1
  6
DASHED2
 62
     7
 10
15505.04270239126
 20
10323.08054882131
 30
0.0
 11
15500.019199699371
 21
10331.78151071564
 31
0.0
  0
LINE
  5
5A1
  8
____1
  6
DASHED2
 62
     7
 10
15500.885225103149
 20
10330.28151071564
 30
0.0
 11
15520.65947182289
 21
10364.53151071564
 31
0.0
  0
LINE
  5
5A2
  8
____1
  6
DASHED2
 62
     7
 10
15505.79270239126
 20
10321.78151071564
 30
0.0
 11
15530.907439101011
 21
10365.28151071564
 31
0.0
  0
LINE
  5
5A3
  8
____1
  6
DASHED2
 62
     7
 10
15500.019199699371
 20
10331.78151071564
 30
0.0
 11
15519.36043371722
 21
10365.28151071564
 31
0.0
  0
LINE
  5
5A4
  8
____1
  6
DASHED2
 62
     7
 10
15504.926676987479
 20
10323.28151071564
 30
0.0
 11
15529.175388293441
 21
10365.28151071564
 31
0.0
  0
LINE
  5
5A5
  8
____1
  6
DASHED2
 62
     7
 10
15548.29270239126
 20
10366.78151071564
 30
0.0
 11
15548.29270239126
 21
10365.28151071564
 31
0.0
  0
LINE
  5
5A6
  8
____1
  6
DASHED2
 62
     7
 10
15530.907439101011
 20
10366.78151071564
 30
0.0
 11
15548.29270239126
 21
10366.78151071564
 31
0.0
  0
ENDBLK
  5
5A7
  8
0
  0
BLOCK
  8
0
  2
*D69
 70
     1
 10
0.0
 20
0.0
 30
0.0
  3
*D69
  1

  0
LINE
  5
5C7
  8
____1
  6
CONTINUOUS
 62
     7
 10
15758.29270214025
 20
9936.9949363804972
 30
0.0
 11
15758.29270214025
 21
10063.503351478301
 31
0.0
  0
LINE
  5
5C8
  8
____1
  6
CONTINUOUS
 62
     7
 10
15138.29270214025
 20
9936.9949363804972
 30
0.0
 11
15138.29270214025
 21
10063.503351478301
 31
0.0
  0
SOLID
  5
5C9
  8
____1
  6
CONTINUOUS
 62
     7
 10
15158.29270214025
 20
10051.50335147829
 30
0.0
 11
15158.29270214025
 21
10051.50335147829
 31
0.0
 12
15138.29270214025
 22
10055.503351478301
 32
0.0
 13
15153.29270214025
 23
10055.503351478301
 33
0.0
  0
SOLID
  5
5CA
  8
____1
  6
CONTINUOUS
 62
     7
 10
15138.29270214025
 20
10055.503351478301
 30
0.0
 11
15153.29270214025
 21
10055.503351478301
 31
0.0
 12
15158.29270214025
 22
10059.503351478301
 32
0.0
 13
15158.29270214025
 23
10059.503351478301
 33
0.0
  0
LINE
  5
5CB
  8
____1
  6
CONTINUOUS
 62
     7
 10
15138.29270214025
 20
10055.503351478301
 30
0.0
 11
15448.29270214025
 21
10055.503351478301
 31
0.0
  0
SOLID
  5
5CC
  8
____1
  6
CONTINUOUS
 62
     7
 10
15738.29270214025
 20
10051.50335147829
 30
0.0
 11
15738.29270214025
 21
10051.50335147829
 31
0.0
 12
15743.29270214025
 22
10055.503351478301
 32
0.0
 13
15758.29270214025
 23
10055.503351478301
 33
0.0
  0
SOLID
  5
5CD
  8
____1
  6
CONTINUOUS
 62
     7
 10
15743.29270214025
 20
10055.503351478301
 30
0.0
 11
15758.29270214025
 21
10055.503351478301
 31
0.0
 12
15738.29270214025
 22
10059.503351478301
 32
0.0
 13
15738.29270214025
 23
10059.503351478301
 33
0.0
  0
LINE
  5
5CE
  8
____1
  6
CONTINUOUS
 62
     7
 10
15758.29270214025
 20
10055.503351478301
 30
0.0
 11
15448.29270214025
 21
10055.503351478301
 31
0.0
  0
TEXT
  5
5CF
  8
______
  6
CENTER2
 62
     7
 10
15427.12603610937
 20
10063.61909209541
 30
0.0
 40
28.222221374511719
  1
620
  7
STYLE1
  0
ENDBLK
  5
5D0
  8
0
  0
BLOCK
  8
0
  2
*D70
 70
     1
 10
0.0
 20
0.0
 30
0.0
  3
*D70
  1

  0
LINE
  5
5EE
  8
____1
  6
CONTINUOUS
 62
     7
 10
15282.557583985879
 20
11739.571647256989
 30
0.0
 11
15298.143319497551
 21
11739.571647256989
 31
0.0
  0
SOLID
  5
5EF
  8
____1
  6
CONTINUOUS
 62
     7
 10
15140.34482325122
 20
11348.84529838004
 30
0.0
 11
15140.34482325122
 21
11348.84529838004
 31
0.0
 12
15142.49922026181
 22
11362.940687691829
 32
0.0
 13
15148.91830143615
 23
11362.940687691829
 33
0.0
  0
SOLID
  5
5F0
  8
____1
  6
CONTINUOUS
 62
     7
 10
15142.49922026181
 20
11362.940687691829
 30
0.0
 11
15145.475125401101
 21
11362.940687691829
 31
0.0
 12
15143.00824956277
 22
11366.271070222459
 32
0.0
 13
15144.35045633673
 23
11366.271070222459
 33
0.0
  0
SOLID
  5
5F1
  8
____1
  6
CONTINUOUS
 62
     7
 10
15145.475125401101
 20
11362.940687691829
 30
0.0
 11
15148.91830143615
 21
11362.940687691829
 31
0.0
 12
15150.94399660087
 22
11366.271070222459
 32
0.0
 13
15150.94399660087
 23
11366.271070222459
 33
0.0
  0
SOLID
  5
5F2
  8
____1
  6
CONTINUOUS
 62
     7
 10
15143.00824956277
 20
11366.271070222459
 30
0.0
 11
15144.35045633673
 21
11366.271070222459
 31
0.0
 12
15143.426455634581
 22
11369.00723136906
 32
0.0
 13
15143.426455634581
 23
11369.00723136906
 33
0.0
  0
LINE
  5
5F3
  8
____1
  6
CONTINUOUS
 62
     7
 10
15140.34482325122
 20
11348.84529838004
 30
0.0
 11
15282.557583985879
 21
11739.571647256989
 31
0.0
  0
TEXT
  5
5F4
  8
______
  6
DASHED2
 62
     7
 10
15312.25443018481
 20
11729.57627718685
 30
0.0
 40
28.222221374511719
  1
4－12×25長穴
  7
STYLE1
  0
ENDBLK
  5
5F5
  8
0
  0
BLOCK
  8
0
  2
C46
 70
     0
 10
0.0
 20
0.0
 30
0.0
  3
C46
  1

  0
CIRCLE
  5
5F9
  8
____1
  6
CONTINUOUS
 62
     7
 10
15775.45379186245
 20
11730.02339325942
 30
0.0
 40
28.0
  0
TEXT
  5
5FA
  8
______
  6
CENTER2
 62
     7
 10
15768.39823651882
 20
11720.028023189279
 30
0.0
 40
28.222221374511719
  1
3
  7
STYLE1
  0
LINE
  5
5FB
  8
______
  6
CONTINUOUS
 62
     7
 10
15728.78712519578
 20
11730.02339325942
 30
0.0
 11
15747.45379186245
 21
11730.02339325942
 31
0.0
  0
LINE
  5
5FC
  8
______
  6
CONTINUOUS
 62
     7
 10
15587.292537310839
 20
11398.707142655319
 30
0.0
 11
15728.78712519578
 21
11730.02339325942
 31
0.0
  0
SOLID
  5
5FD
  8
______
 62
     7
 10
15587.292537310839
 20
11398.707142655319
 30
0.0
 11
15592.273834656329
 21
11405.2787997337
 31
0.0
 12
15587.292537310839
 22
11398.707142655319
 32
0.0
 13
15589.64904301147
 23
11404.225011889261
 33
0.0
  0
SOLID
  5
5FE
  8
______
 62
     7
 10
15589.64904301147
 20
11404.225011889261
 30
0.0
 11
15588.59525516704
 21
11406.84980353412
 31
0.0
 12
15587.292537310839
 22
11398.707142655319
 32
0.0
 13
15587.292537310839
 23
11398.707142655319
 33
0.0
  0
ENDBLK
  5
5FF
  8
0
  0
BLOCK
  8
0
  2
C47
 70
     0
 10
0.0
 20
0.0
 30
0.0
  3
C47
  1

  0
ARC
  5
603
  8
____1
  6
DASHED2
 62
     7
 10
15758.29270239126
 20
10930.207142655319
 30
0.0
 40
6.0
 50
180.0
 51
0.0
  0
LINE
  5
604
  8
____1
  6
DASHED2
 62
     7
 10
15752.29270239126
 20
10930.207142655319
 30
0.0
 11
15752.29270239126
 21
10943.207142655319
 31
0.0
  0
ARC
  5
605
  8
____1
  6
DASHED2
 62
     7
 10
15758.29270239126
 20
10943.207142655319
 30
0.0
 40
6.0
 50
0.0
 51
180.0
  0
LINE
  5
606
  8
____1
  6
DASHED2
 62
     7
 10
15764.29270239126
 20
10930.207142655319
 30
0.0
 11
15764.29270239126
 21
10943.207142655319
 31
0.0
  0
LINE
  5
607
  8
____1
  6
DOT
 62
     3
 10
15758.29270239126
 20
10938.707142655319
 30
0.0
 11
15758.29270239126
 21
10934.707142655319
 31
0.0
  0
LINE
  5
608
  8
____1
  6
DOT
 62
     3
 10
15756.29270239126
 20
10936.707142655319
 30
0.0
 11
15760.29270239126
 21
10936.707142655319
 31
0.0
  0
LINE
  5
609
  8
____1
  6
DASHED2
 62
     7
 10
15774.562998015161
 20
10961.707142655319
 30
0.0
 11
15774.562998015161
 21
10911.707142655319
 31
0.0
  0
LINE
  5
60A
  8
____1
  6
DASHED2
 62
     7
 10
15779.129026365439
 20
10911.707142655319
 30
0.0
 11
15779.129026365439
 21
10961.707142655319
 31
0.0
  0
LINE
  5
60B
  8
____1
  6
DASHED2
 62
     7
 10
15743.79270239126
 20
10911.707142655319
 30
0.0
 11
15798.79364490206
 21
10911.707142655319
 31
0.0
  0
LINE
  5
60C
  8
____1
  6
DASHED2
 62
     7
 10
15798.79364490206
 20
10911.707142655319
 30
0.0
 11
15798.79364490206
 21
10961.707142655319
 31
0.0
  0
LINE
  5
60D
  8
____1
  6
DASHED2
 62
     7
 10
15743.79270239126
 20
10961.707142655319
 30
0.0
 11
15798.79364490206
 21
10961.707142655319
 31
0.0
  0
ARC
  5
60E
  8
____1
  6
DASHED2
 62
     7
 10
15743.79270239126
 20
10914.707142655319
 30
0.0
 40
3.0
 50
180.0
 51
-90.0
  0
ARC
  5
60F
  8
____1
  6
DASHED2
 62
     7
 10
15743.79270239126
 20
10958.707142655319
 30
0.0
 40
3.0
 50
90.0
 51
180.0
  0
LINE
  5
610
  8
____1
  6
DASHED2
 62
     7
 10
15740.79270239126
 20
10958.707142655319
 30
0.0
 11
15740.79270239126
 21
10914.707142655319
 31
0.0
  0
LINE
  5
611
  8
____1
  6
DASHED2
 62
     7
 10
15780.305721096071
 20
10911.707142655319
 30
0.0
 11
15780.305721096071
 21
10961.707142655319
 31
0.0
  0
ENDBLK
  5
612
  8
0
  0
BLOCK
  8
0
  2
C48
 70
     0
 10
0.0
 20
0.0
 30
0.0
  3
C48
  1

  0
LINE
  5
616
  8
____1
  6
DASHED2
 62
     7
 10
15433.29270239126
 20
10893.15302909576
 30
0.0
 11
15443.29270239126
 21
10893.15302909576
 31
0.0
  0
LINE
  5
617
  8
____1
  6
DASHED2
 62
     7
 10
15453.29270239126
 20
10893.15302909576
 30
0.0
 11
15463.29270239126
 21
10893.15302909576
 31
0.0
  0
LINE
  5
618
  8
____1
  6
DASHED2
 62
     7
 10
15428.29270239126
 20
10910.15302909576
 30
0.0
 11
15428.29270239126
 21
10920.15302909576
 31
0.0
  0
LINE
  5
619
  8
____1
  6
DASHED2
 62
     7
 10
15463.29270239126
 20
10910.15302909576
 30
0.0
 11
15468.29270239126
 21
10910.15302909576
 31
0.0
  0
LINE
  5
61A
  8
____1
  6
DASHED2
 62
     7
 10
15433.29270239126
 20
10891.15302909576
 30
0.0
 11
15433.29270239126
 21
10915.15302909576
 31
0.0
  0
LINE
  5
61B
  8
____1
  6
DASHED2
 62
     7
 10
15463.29270239126
 20
10891.15302909576
 30
0.0
 11
15463.29270239126
 21
10915.15302909576
 31
0.0
  0
LINE
  5
61C
  8
____1
  6
DASHED2
 62
     7
 10
15428.29270239126
 20
10915.15302909576
 30
0.0
 11
15433.29270239126
 21
10915.15302909576
 31
0.0
  0
LINE
  5
61D
  8
____1
  6
DASHED2
 62
     7
 10
15463.29270239126
 20
10915.15302909576
 30
0.0
 11
15468.29270239126
 21
10915.15302909576
 31
0.0
  0
LINE
  5
61E
  8
____1
  6
DASHED2
 62
     7
 10
15443.29270239126
 20
10893.15302909576
 30
0.0
 11
15453.29270239126
 21
10893.15302909576
 31
0.0
  0
LINE
  5
61F
  8
____1
  6
DASHED2
 62
     7
 10
15453.29270239126
 20
10898.15302909576
 30
0.0
 11
15453.29270239126
 21
10891.15302909576
 31
0.0
  0
LINE
  5
620
  8
____1
  6
DASHED2
 62
     7
 10
15443.29270239126
 20
10898.15302909576
 30
0.0
 11
15443.29270239126
 21
10891.15302909576
 31
0.0
  0
LINE
  5
621
  8
____1
  6
DASHED2
 62
     7
 10
15468.29270239126
 20
10910.15302909576
 30
0.0
 11
15468.29270239126
 21
10920.15302909576
 31
0.0
  0
LINE
  5
622
  8
____1
  6
DASHED2
 62
     7
 10
15428.29270239126
 20
10920.15302909576
 30
0.0
 11
15468.29270239126
 21
10920.15302909576
 31
0.0
  0
LINE
  5
623
  8
____1
  6
DASHED2
 62
     7
 10
15433.29270239126
 20
10891.15302909576
 30
0.0
 11
15463.29270239126
 21
10891.15302909576
 31
0.0
  0
LINE
  5
624
  8
____1
  6
DASHED2
 62
     7
 10
15428.43894628124
 20
10910.15302909576
 30
0.0
 11
15433.29270239126
 21
10910.15302909576
 31
0.0
  0
LINE
  5
625
  8
____1
  6
DASHED2
 62
     7
 10
15433.29270239126
 20
10910.15302909576
 30
0.0
 11
15463.29270239126
 21
10910.15302909576
 31
0.0
  0
ARC
  5
626
  8
____1
  6
DASHED2
 62
     7
 10
15448.29270239126
 20
10898.15302909576
 30
0.0
 40
5.0
 50
0.0
 51
180.0
  0
ENDBLK
  5
627
  8
0
  0
BLOCK
  8
0
  2
C49
 70
     0
 10
0.0
 20
0.0
 30
0.0
  3
C49
  1

  0
LINE
  5
62B
  8
____1
  6
DASHED2
 62
     7
 10
15464.29270239126
 20
10909.65302909576
 30
0.0
 11
15464.29270239126
 21
10920.65302909576
 31
0.0
  0
LINE
  5
62C
  8
____1
  6
DASHED2
 62
     7
 10
15464.29270239126
 20
10920.65302909576
 30
0.0
 11
15464.29270239126
 21
10930.15302909576
 31
0.0
  0
LINE
  5
62D
  8
____1
  6
DASHED2
 62
     7
 10
15464.29270239126
 20
10900.15302909576
 30
0.0
 11
15464.29270239126
 21
10909.65302909576
 31
0.0
  0
LINE
  5
62E
  8
____1
  6
DOT
 62
     2
 10
15430.29270239126
 20
10915.15302909576
 30
0.0
 11
15466.292702391271
 21
10915.15302909576
 31
0.0
  0
LINE
  5
62F
  8
____1
  6
DASHED2
 62
     7
 10
15466.29270239126
 20
10920.65302909576
 30
0.0
 11
15430.29270239126
 21
10920.65302909576
 31
0.0
  0
LINE
  5
630
  8
____1
  6
DASHED2
 62
     7
 10
15430.29270239126
 20
10909.65302909576
 30
0.0
 11
15466.29270239126
 21
10909.65302909576
 31
0.0
  0
LINE
  5
631
  8
____1
  6
DASHED2
 62
     7
 10
15430.29270239126
 20
10930.15302909576
 30
0.0
 11
15430.29270239126
 21
10900.15302909576
 31
0.0
  0
LINE
  5
632
  8
____1
  6
DASHED2
 62
     7
 10
15432.29270239126
 20
10920.65302909576
 30
0.0
 11
15432.29270239126
 21
10909.65302909576
 31
0.0
  0
LINE
  5
633
  8
____1
  6
DASHED2
 62
     7
 10
15432.29270239126
 20
10909.65302909576
 30
0.0
 11
15432.29270239126
 21
10900.15302909576
 31
0.0
  0
LINE
  5
634
  8
____1
  6
DASHED2
 62
     7
 10
15432.29270239126
 20
10930.15302909576
 30
0.0
 11
15432.29270239126
 21
10920.65302909576
 31
0.0
  0
ARC
  5
635
  8
____1
  6
DASHED2
 62
     7
 10
15436.29270239126
 20
10932.15302909576
 30
0.0
 40
3.0
 50
90.0
 51
180.0
  0
LINE
  5
636
  8
____1
  6
DASHED2
 62
     7
 10
15460.29270239126
 20
10935.15302909576
 30
0.0
 11
15436.29270239126
 21
10935.15302909576
 31
0.0
  0
ARC
  5
637
  8
____1
  6
DASHED2
 62
     7
 10
15460.29270239126
 20
10932.15302909576
 30
0.0
 40
3.0
 50
0.0
 51
90.0
  0
ARC
  5
638
  8
____1
  6
DASHED2
 62
     7
 10
15460.29270239126
 20
10898.15302909576
 30
0.0
 40
3.0
 50
-90.0
 51
0.0
  0
LINE
  5
639
  8
____1
  6
DASHED2
 62
     7
 10
15436.29270239126
 20
10895.15302909576
 30
0.0
 11
15460.29270239126
 21
10895.15302909576
 31
0.0
  0
ARC
  5
63A
  8
____1
  6
DASHED2
 62
     7
 10
15436.29270239126
 20
10898.15302909576
 30
0.0
 40
3.0
 50
180.0
 51
-90.0
  0
LINE
  5
63B
  8
____1
  6
DASHED2
 62
     7
 10
15432.29270239126
 20
10930.15302909576
 30
0.0
 11
15430.29270239126
 21
10930.15302909576
 31
0.0
  0
LINE
  5
63C
  8
____1
  6
DASHED2
 62
     7
 10
15463.29270239126
 20
10931.15302909576
 30
0.0
 11
15463.29270239126
 21
10932.15302909576
 31
0.0
  0
LINE
  5
63D
  8
____1
  6
DASHED2
 62
     7
 10
15466.29270239126
 20
10930.15302909576
 30
0.0
 11
15464.29270239126
 21
10930.15302909576
 31
0.0
  0
ARC
  5
63E
  8
____1
  6
DASHED2
 62
     7
 10
15464.29270239126
 20
10931.15302909576
 30
0.0
 40
1.0
 50
180.0
 51
-90.0
  0
LINE
  5
63F
  8
____1
  6
DASHED2
 62
     7
 10
15464.29270239126
 20
10900.15302909576
 30
0.0
 11
15466.29270239126
 21
10900.15302909576
 31
0.0
  0
LINE
  5
640
  8
____1
  6
DASHED2
 62
     7
 10
15463.29270239126
 20
10898.15302909576
 30
0.0
 11
15463.29270239126
 21
10899.15302909576
 31
0.0
  0
ARC
  5
641
  8
____1
  6
DASHED2
 62
     7
 10
15464.29270239126
 20
10899.15302909576
 30
0.0
 40
1.0
 50
90.0
 51
180.0
  0
LINE
  5
642
  8
____1
  6
DASHED2
 62
     7
 10
15433.29270239126
 20
10899.15302909576
 30
0.0
 11
15433.29270239126
 21
10898.15302909576
 31
0.0
  0
LINE
  5
643
  8
____1
  6
DASHED2
 62
     7
 10
15430.29270239126
 20
10900.15302909576
 30
0.0
 11
15432.29270239126
 21
10900.15302909576
 31
0.0
  0
ARC
  5
644
  8
____1
  6
DASHED2
 62
     7
 10
15432.29270239126
 20
10899.15302909576
 30
0.0
 40
1.0
 50
0.0
 51
90.0
  0
LINE
  5
645
  8
____1
  6
DASHED2
 62
     7
 10
15433.29270239126
 20
10932.15302909576
 30
0.0
 11
15433.29270239126
 21
10931.15302909576
 31
0.0
  0
ARC
  5
646
  8
____1
  6
DASHED2
 62
     7
 10
15432.29270239126
 20
10931.15302909576
 30
0.0
 40
1.0
 50
-90.0
 51
0.0
  0
LINE
  5
647
  8
____1
  6
DASHED2
 62
     7
 10
15466.29270239126
 20
10900.15302909576
 30
0.0
 11
15466.29270239126
 21
10930.15302909576
 31
0.0
  0
ENDBLK
  5
648
  8
0
  0
BLOCK
  8
0
  2
*D75
 70
     1
 10
0.0
 20
0.0
 30
0.0
  3
*D75
  1

  0
LINE
  5
652
  8
____1
  6
CONTINUOUS
 62
     7
 10
15758.29270239126
 20
11362.457142655319
 30
0.0
 11
15758.29270239126
 21
11646.90750784276
 31
0.0
  0
LINE
  5
653
  8
____1
  6
CONTINUOUS
 62
     7
 10
15138.29270239126
 20
11362.457142655319
 30
0.0
 11
15138.29270239126
 21
11646.90750784276
 31
0.0
  0
SOLID
  5
654
  8
____1
  6
CONTINUOUS
 62
     7
 10
15158.29270239126
 20
11634.90750784275
 30
0.0
 11
15158.29270239126
 21
11634.90750784275
 31
0.0
 12
15138.29270239126
 22
11638.90750784275
 32
0.0
 13
15153.29270239126
 23
11638.90750784275
 33
0.0
  0
SOLID
  5
655
  8
____1
  6
CONTINUOUS
 62
     7
 10
15138.29270239126
 20
11638.90750784275
 30
0.0
 11
15153.29270239126
 21
11638.90750784275
 31
0.0
 12
15158.29270239126
 22
11642.90750784276
 32
0.0
 13
15158.29270239126
 23
11642.90750784276
 33
0.0
  0
LINE
  5
656
  8
____1
  6
CONTINUOUS
 62
     7
 10
15138.29270239126
 20
11638.90750784275
 30
0.0
 11
15448.29270239126
 21
11638.90750784275
 31
0.0
  0
SOLID
  5
657
  8
____1
  6
CONTINUOUS
 62
     7
 10
15738.29270239126
 20
11634.90750784275
 30
0.0
 11
15738.29270239126
 21
11634.90750784275
 31
0.0
 12
15743.29270239126
 22
11638.90750784275
 32
0.0
 13
15758.29270239126
 23
11638.90750784275
 33
0.0
  0
SOLID
  5
658
  8
____1
  6
CONTINUOUS
 62
     7
 10
15743.29270239126
 20
11638.90750784275
 30
0.0
 11
15758.29270239126
 21
11638.90750784275
 31
0.0
 12
15738.29270239126
 22
11642.90750784276
 32
0.0
 13
15738.29270239126
 23
11642.90750784276
 33
0.0
  0
LINE
  5
659
  8
____1
  6
CONTINUOUS
 62
     7
 10
15758.29270239126
 20
11638.90750784275
 30
0.0
 11
15448.29270239126
 21
11638.90750784275
 31
0.0
  0
TEXT
  5
65A
  8
______
  6
DASHED2
 62
     7
 10
15427.12603636038
 20
11647.023248459869
 30
0.0
 40
28.222221374511719
  1
620
  7
STYLE1
  0
ENDBLK
  5
65B
  8
0
  0
BLOCK
  8
0
  2
*D76
 70
     1
 10
0.0
 20
0.0
 30
0.0
  3
*D76
  1

  0
LINE
  5
65F
  8
____1
  6
CONTINUOUS
 62
     7
 10
15898.29270239126
 20
11590.707142655319
 30
0.0
 11
15898.29270239126
 21
11646.90750784276
 31
0.0
  0
LINE
  5
660
  8
____1
  6
CONTINUOUS
 62
     7
 10
15758.29270239126
 20
11362.457142655319
 30
0.0
 11
15758.29270239126
 21
11646.90750784276
 31
0.0
  0
SOLID
  5
661
  8
____1
  6
CONTINUOUS
 62
     7
 10
15778.29270239126
 20
11634.90750784275
 30
0.0
 11
15778.29270239126
 21
11634.90750784275
 31
0.0
 12
15758.29270239126
 22
11638.90750784275
 32
0.0
 13
15773.29270239126
 23
11638.90750784275
 33
0.0
  0
SOLID
  5
662
  8
____1
  6
CONTINUOUS
 62
     7
 10
15758.29270239126
 20
11638.90750784275
 30
0.0
 11
15773.29270239126
 21
11638.90750784275
 31
0.0
 12
15778.29270239126
 22
11642.90750784276
 32
0.0
 13
15778.29270239126
 23
11642.90750784276
 33
0.0
  0
LINE
  5
663
  8
____1
  6
CONTINUOUS
 62
     7
 10
15758.29270239126
 20
11638.90750784275
 30
0.0
 11
15828.29270239126
 21
11638.90750784275
 31
0.0
  0
SOLID
  5
664
  8
____1
  6
CONTINUOUS
 62
     7
 10
15878.29270239126
 20
11634.90750784275
 30
0.0
 11
15878.29270239126
 21
11634.90750784275
 31
0.0
 12
15883.29270239126
 22
11638.90750784275
 32
0.0
 13
15898.29270239126
 23
11638.90750784275
 33
0.0
  0
SOLID
  5
665
  8
____1
  6
CONTINUOUS
 62
     7
 10
15883.29270239126
 20
11638.90750784275
 30
0.0
 11
15898.29270239126
 21
11638.90750784275
 31
0.0
 12
15878.29270239126
 22
11642.90750784276
 32
0.0
 13
15878.29270239126
 23
11642.90750784276
 33
0.0
  0
LINE
  5
666
  8
____1
  6
CONTINUOUS
 62
     7
 10
15898.29270239126
 20
11638.90750784275
 30
0.0
 11
15828.29270239126
 21
11638.90750784275
 31
0.0
  0
TEXT
  5
667
  8
______
  6
DASHED2
 62
     7
 10
15807.12603636038
 20
11647.023248459869
 30
0.0
 40
28.222221374511719
  1
140
  7
STYLE1
  0
ENDBLK
  5
668
  8
0
  0
BLOCK
  8
0
  2
C50
 70
     0
 10
0.0
 20
0.0
 30
0.0
  3
C50
  1

  0
INSERT
  5
680
  8
____1
  6
CONTINUOUS
 62
   254
  2
C51
 10
0.0
 20
0.0
 30
0.0
  0
INSERT
  5
694
  8
____1
  6
CONTINUOUS
 62
   254
  2
C52
 10
0.0
 20
0.0
 30
0.0
  0
ENDBLK
  5
695
  8
0
  0
BLOCK
  8
0
  2
C51
 70
     0
 10
0.0
 20
0.0
 30
0.0
  3
C51
  1

  0
LINE
  5
670
  8
____1
  6
DASHED2
 62
     7
 10
15316.29253731085
 20
11388.207142655319
 30
0.0
 11
15328.29253731085
 21
11388.207142655319
 31
0.0
  0
LINE
  5
671
  8
____1
  6
DASHED2
 62
     7
 10
15290.29253731085
 20
11388.207142655319
 30
0.0
 11
15302.29253731085
 21
11388.207142655319
 31
0.0
  0
LINE
  5
672
  8
____1
  6
DASHED2
 62
     7
 10
15264.29253731085
 20
11388.207142655319
 30
0.0
 11
15276.29253731085
 21
11388.207142655319
 31
0.0
  0
LINE
  5
673
  8
____1
  6
DASHED2
 62
     7
 10
15328.29253731085
 20
11388.207142655319
 30
0.0
 11
15328.29253731085
 21
11398.707142655319
 31
0.0
  0
LINE
  5
674
  8
____1
  6
DASHED2
 62
     7
 10
15316.29253731085
 20
11388.207142655319
 30
0.0
 11
15316.29253731085
 21
11398.707142655319
 31
0.0
  0
LINE
  5
675
  8
____1
  6
DASHED2
 62
     7
 10
15302.29253731085
 20
11388.207142655319
 30
0.0
 11
15302.29253731085
 21
11398.707142655319
 31
0.0
  0
LINE
  5
676
  8
____1
  6
DASHED2
 62
     7
 10
15290.29253731085
 20
11388.207142655319
 30
0.0
 11
15290.29253731085
 21
11398.707142655319
 31
0.0
  0
LINE
  5
677
  8
____1
  6
DASHED2
 62
     7
 10
15276.29253731085
 20
11388.207142655319
 30
0.0
 11
15276.29253731085
 21
11398.707142655319
 31
0.0
  0
LINE
  5
678
  8
____1
  6
DASHED2
 62
     7
 10
15264.29253731085
 20
11388.207142655319
 30
0.0
 11
15264.29253731085
 21
11398.707142655319
 31
0.0
  0
LINE
  5
679
  8
____1
  6
DASHED2
 62
     7
 10
15264.29253731085
 20
11398.707142655319
 30
0.0
 11
15328.29253731085
 21
11398.707142655319
 31
0.0
  0
LINE
  5
67A
  8
____1
  6
DASHED2
 62
     7
 10
15264.29253731085
 20
11396.707142655319
 30
0.0
 11
15328.29253731085
 21
11396.707142655319
 31
0.0
  0
LINE
  5
67B
  8
____1
  6
DASHED2
 62
     7
 10
15264.29253731085
 20
11390.207142655319
 30
0.0
 11
15276.29253731085
 21
11390.207142655319
 31
0.0
  0
LINE
  5
67C
  8
____1
  6
DASHED2
 62
     7
 10
15290.29253731085
 20
11390.207142655319
 30
0.0
 11
15302.29253731085
 21
11390.207142655319
 31
0.0
  0
LINE
  5
67D
  8
____1
  6
DASHED2
 62
     7
 10
15316.29253731085
 20
11390.207142655319
 30
0.0
 11
15328.29253731085
 21
11390.207142655319
 31
0.0
  0
LINE
  5
67E
  8
____1
  6
DOT
 62
     2
 10
15264.29253731085
 20
11393.457142655319
 30
0.0
 11
15328.29253731085
 21
11393.457142655319
 31
0.0
  0
ENDBLK
  5
67F
  8
0
  0
BLOCK
  8
0
  2
C52
 70
     0
 10
0.0
 20
0.0
 30
0.0
  3
C52
  1

  0
LINE
  5
683
  8
____1
  6
DASHED2
 62
     7
 10
15302.492537310851
 20
11396.707142655319
 30
0.0
 11
15316.092537310849
 21
11396.707142655319
 31
0.0
  0
LINE
  5
684
  8
____1
  6
DASHED2
 62
     7
 10
15276.492537310851
 20
11396.707142655319
 30
0.0
 11
15290.092537310849
 21
11396.707142655319
 31
0.0
  0
LINE
  5
685
  8
____1
  6
DASHED2
 62
     7
 10
15276.492537310851
 20
11398.707142655319
 30
0.0
 11
15290.092537310849
 21
11398.707142655319
 31
0.0
  0
LINE
  5
686
  8
____1
  6
DASHED2
 62
     7
 10
15302.492537310851
 20
11398.707142655319
 30
0.0
 11
15316.092537310849
 21
11398.707142655319
 31
0.0
  0
LINE
  5
687
  8
____1
  6
DASHED2
 62
     7
 10
15264.29253731085
 20
11388.207142655319
 30
0.0
 11
15264.29253731085
 21
11390.207142655319
 31
0.0
  0
LINE
  5
688
  8
____1
  6
DASHED2
 62
     7
 10
15264.29253731085
 20
11388.207142655319
 30
0.0
 11
15328.29253731085
 21
11388.207142655319
 31
0.0
  0
LINE
  5
689
  8
____1
  6
DASHED2
 62
     7
 10
15328.29253731085
 20
11388.207142655319
 30
0.0
 11
15328.29253731085
 21
11390.207142655319
 31
0.0
  0
LINE
  5
68A
  8
____1
  6
DASHED2
 62
     7
 10
15264.29253731085
 20
11390.207142655319
 30
0.0
 11
15328.29253731085
 21
11390.207142655319
 31
0.0
  0
LINE
  5
68B
  8
____1
  6
DASHED2
 62
     7
 10
15316.092537310849
 20
11388.207142655319
 30
0.0
 11
15316.092537310849
 21
11398.707142655319
 31
0.0
  0
LINE
  5
68C
  8
____1
  6
DASHED2
 62
     7
 10
15302.492537310851
 20
11388.207142655319
 30
0.0
 11
15302.492537310851
 21
11398.707142655319
 31
0.0
  0
LINE
  5
68D
  8
____1
  6
DASHED2
 62
     7
 10
15290.092537310849
 20
11388.207142655319
 30
0.0
 11
15290.092537310849
 21
11398.707142655319
 31
0.0
  0
LINE
  5
68E
  8
____1
  6
DASHED2
 62
     7
 10
15276.492537310851
 20
11388.207142655319
 30
0.0
 11
15276.492537310851
 21
11398.707142655319
 31
0.0
  0
LINE
  5
68F
  8
____1
  6
DOT
 62
     2
 10
15264.29253731085
 20
11393.457142655319
 30
0.0
 11
15328.29253731085
 21
11393.457142655319
 31
0.0
  0
LINE
  5
690
  8
____1
  6
DOT
 62
     2
 10
15274.29253731085
 20
11386.207142655319
 30
0.0
 11
15274.29253731085
 21
11392.207142655319
 31
0.0
  0
LINE
  5
691
  8
____1
  6
DOT
 62
     2
 10
15296.29253731085
 20
11386.207142655319
 30
0.0
 11
15296.29253731085
 21
11392.207142655319
 31
0.0
  0
LINE
  5
692
  8
____1
  6
DOT
 62
     2
 10
15318.29253731085
 20
11386.207142655319
 30
0.0
 11
15318.29253731085
 21
11392.207142655319
 31
0.0
  0
ENDBLK
  5
693
  8
0
  0
BLOCK
  8
0
  2
C53
 70
     0
 10
0.0
 20
0.0
 30
0.0
  3
C53
  1

  0
ARC
  5
69A
  8
____1
  6
DASHED2
 62
     7
 10
15758.29270239126
 20
11330.207142655319
 30
0.0
 40
6.0
 50
180.0
 51
0.0
  0
LINE
  5
69B
  8
____1
  6
DASHED2
 62
     7
 10
15752.29270239126
 20
11330.207142655319
 30
0.0
 11
15752.29270239126
 21
11343.207142655319
 31
0.0
  0
ARC
  5
69C
  8
____1
  6
DASHED2
 62
     7
 10
15758.29270239126
 20
11343.207142655319
 30
0.0
 40
6.0
 50
0.0
 51
180.0
  0
LINE
  5
69D
  8
____1
  6
DASHED2
 62
     7
 10
15764.29270239126
 20
11330.207142655319
 30
0.0
 11
15764.29270239126
 21
11343.207142655319
 31
0.0
  0
LINE
  5
69E
  8
____1
  6
DOT
 62
     3
 10
15758.29270239126
 20
11338.707142655319
 30
0.0
 11
15758.29270239126
 21
11334.707142655319
 31
0.0
  0
LINE
  5
69F
  8
____1
  6
DOT
 62
     3
 10
15756.29270239126
 20
11336.707142655319
 30
0.0
 11
15760.29270239126
 21
11336.707142655319
 31
0.0
  0
LINE
  5
6A0
  8
____1
  6
DASHED2
 62
     7
 10
15774.562998015161
 20
11361.707142655319
 30
0.0
 11
15774.562998015161
 21
11311.707142655319
 31
0.0
  0
LINE
  5
6A1
  8
____1
  6
DASHED2
 62
     7
 10
15779.129026365439
 20
11311.707142655319
 30
0.0
 11
15779.129026365439
 21
11361.707142655319
 31
0.0
  0
LINE
  5
6A2
  8
____1
  6
DASHED2
 62
     7
 10
15743.79270239126
 20
11311.707142655319
 30
0.0
 11
15798.79364490206
 21
11311.707142655319
 31
0.0
  0
LINE
  5
6A3
  8
____1
  6
DASHED2
 62
     7
 10
15798.79364490206
 20
11311.707142655319
 30
0.0
 11
15798.79364490206
 21
11361.707142655319
 31
0.0
  0
LINE
  5
6A4
  8
____1
  6
DASHED2
 62
     7
 10
15743.79270239126
 20
11361.707142655319
 30
0.0
 11
15798.79364490206
 21
11361.707142655319
 31
0.0
  0
ARC
  5
6A5
  8
____1
  6
DASHED2
 62
     7
 10
15743.79270239126
 20
11314.707142655319
 30
0.0
 40
3.0
 50
180.0
 51
-90.0
  0
ARC
  5
6A6
  8
____1
  6
DASHED2
 62
     7
 10
15743.79270239126
 20
11358.707142655319
 30
0.0
 40
3.0
 50
90.0
 51
180.0
  0
LINE
  5
6A7
  8
____1
  6
DASHED2
 62
     7
 10
15740.79270239126
 20
11358.707142655319
 30
0.0
 11
15740.79270239126
 21
11314.707142655319
 31
0.0
  0
LINE
  5
6A8
  8
____1
  6
DASHED2
 62
     7
 10
15780.305721096071
 20
11311.707142655319
 30
0.0
 11
15780.305721096071
 21
11361.707142655319
 31
0.0
  0
ENDBLK
  5
6A9
  8
0
  0
BLOCK
  8
0
  2
C54
 70
     0
 10
0.0
 20
0.0
 30
0.0
  3
C54
  1

  0
INSERT
  5
6C0
  8
____1
  6
CONTINUOUS
 62
   254
  2
C55
 10
0.0
 20
0.0
 30
0.0
  0
INSERT
  5
6D4
  8
____1
  6
CONTINUOUS
 62
   254
  2
C56
 10
0.0
 20
0.0
 30
0.0
  0
ENDBLK
  5
6D5
  8
0
  0
BLOCK
  8
0
  2
C55
 70
     0
 10
0.0
 20
0.0
 30
0.0
  3
C55
  1

  0
LINE
  5
6B0
  8
____1
  6
DASHED2
 62
     7
 10
15620.29253731085
 20
11388.207142655319
 30
0.0
 11
15632.29253731085
 21
11388.207142655319
 31
0.0
  0
LINE
  5
6B1
  8
____1
  6
DASHED2
 62
     7
 10
15594.29253731085
 20
11388.207142655319
 30
0.0
 11
15606.29253731085
 21
11388.207142655319
 31
0.0
  0
LINE
  5
6B2
  8
____1
  6
DASHED2
 62
     7
 10
15568.29253731085
 20
11388.207142655319
 30
0.0
 11
15580.29253731085
 21
11388.207142655319
 31
0.0
  0
LINE
  5
6B3
  8
____1
  6
DASHED2
 62
     7
 10
15632.29253731085
 20
11388.207142655319
 30
0.0
 11
15632.29253731085
 21
11398.707142655319
 31
0.0
  0
LINE
  5
6B4
  8
____1
  6
DASHED2
 62
     7
 10
15620.29253731085
 20
11388.207142655319
 30
0.0
 11
15620.29253731085
 21
11398.707142655319
 31
0.0
  0
LINE
  5
6B5
  8
____1
  6
DASHED2
 62
     7
 10
15606.29253731085
 20
11388.207142655319
 30
0.0
 11
15606.29253731085
 21
11398.707142655319
 31
0.0
  0
LINE
  5
6B6
  8
____1
  6
DASHED2
 62
     7
 10
15594.29253731085
 20
11388.207142655319
 30
0.0
 11
15594.29253731085
 21
11398.707142655319
 31
0.0
  0
LINE
  5
6B7
  8
____1
  6
DASHED2
 62
     7
 10
15580.29253731085
 20
11388.207142655319
 30
0.0
 11
15580.29253731085
 21
11398.707142655319
 31
0.0
  0
LINE
  5
6B8
  8
____1
  6
DASHED2
 62
     7
 10
15568.29253731085
 20
11388.207142655319
 30
0.0
 11
15568.29253731085
 21
11398.707142655319
 31
0.0
  0
LINE
  5
6B9
  8
____1
  6
DASHED2
 62
     7
 10
15568.29253731085
 20
11398.707142655319
 30
0.0
 11
15632.29253731085
 21
11398.707142655319
 31
0.0
  0
LINE
  5
6BA
  8
____1
  6
DASHED2
 62
     7
 10
15568.29253731085
 20
11396.707142655319
 30
0.0
 11
15632.29253731085
 21
11396.707142655319
 31
0.0
  0
LINE
  5
6BB
  8
____1
  6
DASHED2
 62
     7
 10
15568.29253731085
 20
11390.207142655319
 30
0.0
 11
15580.29253731085
 21
11390.207142655319
 31
0.0
  0
LINE
  5
6BC
  8
____1
  6
DASHED2
 62
     7
 10
15594.29253731085
 20
11390.207142655319
 30
0.0
 11
15606.29253731085
 21
11390.207142655319
 31
0.0
  0
LINE
  5
6BD
  8
____1
  6
DASHED2
 62
     7
 10
15620.29253731085
 20
11390.207142655319
 30
0.0
 11
15632.29253731085
 21
11390.207142655319
 31
0.0
  0
LINE
  5
6BE
  8
____1
  6
DOT
 62
     2
 10
15568.29253731085
 20
11393.457142655319
 30
0.0
 11
15632.29253731085
 21
11393.457142655319
 31
0.0
  0
ENDBLK
  5
6BF
  8
0
  0
BLOCK
  8
0
  2
C56
 70
     0
 10
0.0
 20
0.0
 30
0.0
  3
C56
  1

  0
LINE
  5
6C3
  8
____1
  6
DASHED2
 62
     7
 10
15606.492537310851
 20
11396.707142655319
 30
0.0
 11
15620.092537310849
 21
11396.707142655319
 31
0.0
  0
LINE
  5
6C4
  8
____1
  6
DASHED2
 62
     7
 10
15580.492537310851
 20
11396.707142655319
 30
0.0
 11
15594.092537310849
 21
11396.707142655319
 31
0.0
  0
LINE
  5
6C5
  8
____1
  6
DASHED2
 62
     7
 10
15580.492537310851
 20
11398.707142655319
 30
0.0
 11
15594.092537310849
 21
11398.707142655319
 31
0.0
  0
LINE
  5
6C6
  8
____1
  6
DASHED2
 62
     7
 10
15606.492537310851
 20
11398.707142655319
 30
0.0
 11
15620.092537310849
 21
11398.707142655319
 31
0.0
  0
LINE
  5
6C7
  8
____1
  6
DASHED2
 62
     7
 10
15568.29253731085
 20
11388.207142655319
 30
0.0
 11
15568.29253731085
 21
11390.207142655319
 31
0.0
  0
LINE
  5
6C8
  8
____1
  6
DASHED2
 62
     7
 10
15568.29253731085
 20
11388.207142655319
 30
0.0
 11
15632.29253731085
 21
11388.207142655319
 31
0.0
  0
LINE
  5
6C9
  8
____1
  6
DASHED2
 62
     7
 10
15632.29253731085
 20
11388.207142655319
 30
0.0
 11
15632.29253731085
 21
11390.207142655319
 31
0.0
  0
LINE
  5
6CA
  8
____1
  6
DASHED2
 62
     7
 10
15568.29253731085
 20
11390.207142655319
 30
0.0
 11
15632.29253731085
 21
11390.207142655319
 31
0.0
  0
LINE
  5
6CB
  8
____1
  6
DASHED2
 62
     7
 10
15620.092537310849
 20
11388.207142655319
 30
0.0
 11
15620.092537310849
 21
11398.707142655319
 31
0.0
  0
LINE
  5
6CC
  8
____1
  6
DASHED2
 62
     7
 10
15606.492537310851
 20
11388.207142655319
 30
0.0
 11
15606.492537310851
 21
11398.707142655319
 31
0.0
  0
LINE
  5
6CD
  8
____1
  6
DASHED2
 62
     7
 10
15594.092537310849
 20
11388.207142655319
 30
0.0
 11
15594.092537310849
 21
11398.707142655319
 31
0.0
  0
LINE
  5
6CE
  8
____1
  6
DASHED2
 62
     7
 10
15580.492537310851
 20
11388.207142655319
 30
0.0
 11
15580.492537310851
 21
11398.707142655319
 31
0.0
  0
LINE
  5
6CF
  8
____1
  6
DOT
 62
     2
 10
15568.29253731085
 20
11393.457142655319
 30
0.0
 11
15632.29253731085
 21
11393.457142655319
 31
0.0
  0
LINE
  5
6D0
  8
____1
  6
DOT
 62
     2
 10
15578.29253731085
 20
11386.207142655319
 30
0.0
 11
15578.29253731085
 21
11392.207142655319
 31
0.0
  0
LINE
  5
6D1
  8
____1
  6
DOT
 62
     2
 10
15600.29253731085
 20
11386.207142655319
 30
0.0
 11
15600.29253731085
 21
11392.207142655319
 31
0.0
  0
LINE
  5
6D2
  8
____1
  6
DOT
 62
     2
 10
15622.29253731085
 20
11386.207142655319
 30
0.0
 11
15622.29253731085
 21
11392.207142655319
 31
0.0
  0
ENDBLK
  5
6D3
  8
0
  0
BLOCK
  8
0
  2
C57
 70
     0
 10
0.0
 20
0.0
 30
0.0
  3
C57
  1

  0
LINE
  5
6E0
  8
____1
  6
DASHED2
 62
     7
 10
15530.907274020599
 20
11023.641686177691
 30
0.0
 11
15506.22175158231
 21
11016.26986219933
 31
0.0
  0
POLYLINE
  5
6E1
  8
____1
  6
DASHED2
 62
     7
 66
     1
 10
0.0
 20
0.0
 30
0.0
 70
     8
  0
VERTEX
  5
6E2
  8
____1
 62
     7
 10
15506.534313979229
 20
11002.48562629713
 30
0.0
 70
    32
  0
VERTEX
  5
6E3
  8
____1
 62
     7
 10
15506.532235004561
 20
11002.95491127252
 30
0.0
 70
    32
  0
VERTEX
  5
6E4
  8
____1
 62
     7
 10
15506.457749265841
 20
11003.399942929351
 30
0.0
 70
    32
  0
VERTEX
  5
6E5
  8
____1
 62
     7
 10
15506.318147946169
 20
11003.77715846834
 30
0.0
 70
    32
  0
VERTEX
  5
6E6
  8
____1
 62
     7
 10
15506.127096195371
 20
11004.04963340432
 30
0.0
 70
    32
  0
VERTEX
  5
6E7
  8
____1
 62
     7
 10
15505.903295489939
 20
11004.190695992091
 30
0.0
 70
    32
  0
VERTEX
  5
6E8
  8
____1
 62
     7
 10
15505.79253731085
 20
11004.207142655319
 30
0.0
 70
    32
  0
SEQEND
  5
6E9
  8
____1
 62
     7
  0
ARC
  5
6EA
  8
____1
  6
DASHED2
 62
     7
 10
15543.29253731085
 20
11000.207142655319
 30
0.0
 40
5.0
 50
-90.0
 51
0.0
  0
ARC
  5
6EB
  8
____1
  6
DASHED2
 62
     7
 10
15532.157274020599
 20
10995.957142655319
 30
0.0
 40
1.25
 50
0.0
 51
180.0
  0
LINE
  5
6EC
  8
____1
  6
DASHED2
 62
     7
 10
15533.407274020599
 20
10995.50714265532
 30
0.0
 11
15533.407274020599
 21
10995.957142655319
 31
0.0
  0
POLYLINE
  5
6ED
  8
____1
  6
DASHED2
 62
     7
 66
     1
 10
0.0
 20
0.0
 30
0.0
 70
     8
  0
VERTEX
  5
6EE
  8
____1
 62
     7
 10
15390.05076064246
 20
11002.48562629713
 30
0.0
 70
    32
  0
VERTEX
  5
6EF
  8
____1
 62
     7
 10
15390.052839617139
 20
11002.95491127252
 30
0.0
 70
    32
  0
VERTEX
  5
6F0
  8
____1
 62
     7
 10
15390.12732535585
 20
11003.399942929351
 30
0.0
 70
    32
  0
VERTEX
  5
6F1
  8
____1
 62
     7
 10
15390.26692667552
 20
11003.77715846834
 30
0.0
 70
    32
  0
VERTEX
  5
6F2
  8
____1
 62
     7
 10
15390.457978426321
 20
11004.04963340432
 30
0.0
 70
    32
  0
VERTEX
  5
6F3
  8
____1
 62
     7
 10
15390.68177913175
 20
11004.190695992091
 30
0.0
 70
    32
  0
VERTEX
  5
6F4
  8
____1
 62
     7
 10
15390.79253731085
 20
11004.207142655319
 30
0.0
 70
    32
  0
SEQEND
  5
6F5
  8
____1
 62
     7
  0
ARC
  5
6F6
  8
____1
  6
DASHED2
 62
     7
 10
15390.79253731085
 20
11002.707142655319
 30
0.0
 40
1.5
 50
0.0
 51
90.0
  0
LINE
  5
6F7
  8
____1
  6
DASHED2
 62
     7
 10
15390.79253731085
 20
11016.207142655319
 30
0.0
 11
15390.79253731085
 21
11004.207142655319
 31
0.0
  0
LINE
  5
6F8
  8
____1
  6
DASHED2
 62
     7
 10
15348.29253731085
 20
11020.207142655319
 30
0.0
 11
15348.29253731085
 21
11000.207142655319
 31
0.0
  0
LINE
  5
6F9
  8
____1
  6
DASHED2
 62
     7
 10
15530.52143102103
 20
10995.322366737901
 30
0.0
 11
15506.534313979229
 21
11002.48562629713
 31
0.0
  0
LINE
  5
6FA
  8
____1
  6
DASHED2
 62
     7
 10
15505.79253731085
 20
11016.207142655319
 30
0.0
 11
15505.79253731085
 21
11004.207142655319
 31
0.0
  0
LINE
  5
6FB
  8
____1
  6
DASHED2
 62
     7
 10
15548.29253731085
 20
11020.207142655319
 30
0.0
 11
15548.29253731085
 21
11000.207142655319
 31
0.0
  0
ARC
  5
6FC
  8
____1
  6
DASHED2
 62
     7
 10
15390.79253731085
 20
11017.707142655319
 30
0.0
 40
1.5
 50
-90.0
 51
0.0
  0
POLYLINE
  5
6FD
  8
____1
  6
DASHED2
 62
     7
 66
     1
 10
0.0
 20
0.0
 30
0.0
 70
     8
  0
VERTEX
  5
6FE
  8
____1
 62
     7
 10
15390.05076064246
 20
11017.928659013511
 30
0.0
 70
    32
  0
VERTEX
  5
6FF
  8
____1
 62
     7
 10
15390.052839617139
 20
11017.459374038121
 30
0.0
 70
    32
  0
VERTEX
  5
700
  8
____1
 62
     7
 10
15390.12732535585
 20
11017.014342381281
 30
0.0
 70
    32
  0
VERTEX
  5
701
  8
____1
 62
     7
 10
15390.26692667552
 20
11016.63712684229
 30
0.0
 70
    32
  0
VERTEX
  5
702
  8
____1
 62
     7
 10
15390.457978426321
 20
11016.36465190632
 30
0.0
 70
    32
  0
VERTEX
  5
703
  8
____1
 62
     7
 10
15390.68177913175
 20
11016.22358931855
 30
0.0
 70
    32
  0
VERTEX
  5
704
  8
____1
 62
     7
 10
15390.79253731085
 20
11016.207142655319
 30
0.0
 70
    32
  0
SEQEND
  5
705
  8
____1
 62
     7
  0
LINE
  5
706
  8
____1
  6
DASHED2
 62
     7
 10
15390.363323039381
 20
11004.144423111309
 30
0.0
 11
15365.677800601101
 21
10996.77259913295
 31
0.0
  0
LINE
  5
707
  8
____1
  6
DASHED2
 62
     7
 10
15505.79253731085
 20
11004.207142655319
 30
0.0
 11
15390.79253731085
 21
11004.207142655319
 31
0.0
  0
LINE
  5
708
  8
____1
  6
DASHED2
 62
     7
 10
15504.29253731085
 20
11002.707142655319
 30
0.0
 11
15392.29253731085
 21
11002.707142655319
 31
0.0
  0
LINE
  5
709
  8
____1
  6
DASHED2
 62
     7
 10
15530.907274020599
 20
10996.77259913295
 30
0.0
 11
15506.22175158231
 21
11004.144423111309
 31
0.0
  0
LINE
  5
70A
  8
____1
  6
DASHED2
 62
     7
 10
15390.79253731085
 20
11016.207142655319
 30
0.0
 11
15505.79253731085
 21
11016.207142655319
 31
0.0
  0
LINE
  5
70B
  8
____1
  6
DASHED2
 62
     7
 10
15392.29253731085
 20
11017.707142655319
 30
0.0
 11
15504.29253731085
 21
11017.707142655319
 31
0.0
  0
LINE
  5
70C
  8
____1
  6
DASHED2
 62
     7
 10
15362.8778006011
 20
11025.207142655319
 30
0.0
 11
15353.29253731085
 21
11025.207142655319
 31
0.0
  0
ARC
  5
70D
  8
____1
  6
DASHED2
 62
     7
 10
15362.8778006011
 20
11024.90714265532
 30
0.0
 40
0.2999999999992724
 50
0.0
 51
90.0
  0
POLYLINE
  5
70E
  8
____1
  6
DASHED2
 62
     7
 66
     1
 10
0.0
 20
0.0
 30
0.0
 70
     8
  0
VERTEX
  5
70F
  8
____1
 62
     7
 10
15366.063644148981
 20
11025.091918408991
 30
0.0
 70
    32
  0
VERTEX
  5
710
  8
____1
 62
     7
 10
15365.835239151011
 20
11025.068425084661
 30
0.0
 70
    32
  0
VERTEX
  5
711
  8
____1
 62
     7
 10
15365.69034471703
 20
11024.890306072801
 30
0.0
 70
    32
  0
VERTEX
  5
712
  8
____1
 62
     7
 10
15365.67780060111
 20
11024.804460170921
 30
0.0
 70
    32
  0
SEQEND
  5
713
  8
____1
 62
     7
  0
ARC
  5
714
  8
____1
  6
DASHED2
 62
     7
 10
15533.7072740206
 20
11024.90714265532
 30
0.0
 40
0.2999999999992724
 50
90.0
 51
180.0
  0
ARC
  5
715
  8
____1
  6
DASHED2
 62
     7
 10
15365.9778006011
 20
10995.60982278572
 30
0.0
 40
0.2999999999985377
 50
179.9996745981542
 51
-73.372686758660876
  0
ARC
  5
716
  8
____1
  6
DASHED2
 62
     7
 10
15543.29253731085
 20
11020.207142655319
 30
0.0
 40
5.0
 50
0.0
 51
90.0
  0
LINE
  5
717
  8
____1
  6
DASHED2
 62
     7
 10
15530.5214311663
 20
11025.091918616121
 30
0.0
 11
15506.534313979229
 21
11017.928659013511
 31
0.0
  0
POLYLINE
  5
718
  8
____1
  6
DASHED2
 62
     7
 66
     1
 10
0.0
 20
0.0
 30
0.0
 70
     8
  0
VERTEX
  5
719
  8
____1
 62
     7
 10
15530.5214311663
 20
11025.091918616121
 30
0.0
 70
    32
  0
VERTEX
  5
71A
  8
____1
 62
     7
 10
15530.74983610759
 20
11025.06842474069
 30
0.0
 70
    32
  0
VERTEX
  5
71B
  8
____1
 62
     7
 10
15530.89473011179
 20
11024.89030537922
 30
0.0
 70
    32
  0
VERTEX
  5
71C
  8
____1
 62
     7
 10
15530.907274020599
 20
11024.80446252492
 30
0.0
 70
    32
  0
SEQEND
  5
71D
  8
____1
 62
     7
  0
LINE
  5
71E
  8
____1
  6
DASHED2
 62
     7
 10
15533.7072740206
 20
11025.207142655319
 30
0.0
 11
15543.29253731085
 21
11025.207142655319
 31
0.0
  0
LINE
  5
71F
  8
____1
  6
DASHED2
 62
     7
 10
15533.407274020599
 20
11024.90714265532
 30
0.0
 11
15533.407274020599
 21
11024.457142655319
 31
0.0
  0
ARC
  5
720
  8
____1
  6
DASHED2
 62
     7
 10
15533.7072740206
 20
10995.50714265532
 30
0.0
 40
0.2999999999997293
 50
180.0
 51
-89.999900002942852
  0
LINE
  5
721
  8
____1
  6
DASHED2
 62
     7
 10
15543.29253731085
 20
10995.207142655319
 30
0.0
 11
15533.70727454418
 21
10995.207142655319
 31
0.0
  0
ARC
  5
722
  8
____1
  6
DASHED2
 62
     7
 10
15530.607274020589
 20
10995.60982278572
 30
0.0
 40
0.2999999999988682
 50
-106.62720314776099
 51
-0.0000197171130642
  0
ARC
  5
723
  8
____1
  6
DASHED2
 62
     7
 10
15505.79253731085
 20
11017.707142655319
 30
0.0
 40
1.5
 50
180.0
 51
-90.0
  0
POLYLINE
  5
724
  8
____1
  6
DASHED2
 62
     7
 66
     1
 10
0.0
 20
0.0
 30
0.0
 70
     8
  0
VERTEX
  5
725
  8
____1
 62
     7
 10
15506.534313979229
 20
11017.928659013511
 30
0.0
 70
    32
  0
VERTEX
  5
726
  8
____1
 62
     7
 10
15506.532235004561
 20
11017.459374038121
 30
0.0
 70
    32
  0
VERTEX
  5
727
  8
____1
 62
     7
 10
15506.457749265841
 20
11017.014342381281
 30
0.0
 70
    32
  0
VERTEX
  5
728
  8
____1
 62
     7
 10
15506.318147946169
 20
11016.63712684229
 30
0.0
 70
    32
  0
VERTEX
  5
729
  8
____1
 62
     7
 10
15506.127096195371
 20
11016.36465190632
 30
0.0
 70
    32
  0
VERTEX
  5
72A
  8
____1
 62
     7
 10
15505.903295489939
 20
11016.22358931855
 30
0.0
 70
    32
  0
VERTEX
  5
72B
  8
____1
 62
     7
 10
15505.79253731085
 20
11016.207142655319
 30
0.0
 70
    32
  0
SEQEND
  5
72C
  8
____1
 62
     7
  0
ARC
  5
72D
  8
____1
  6
DASHED2
 62
     7
 10
15505.79253731085
 20
11002.707142655319
 30
0.0
 40
1.5
 50
90.0
 51
180.0
  0
LINE
  5
72E
  8
____1
  6
DASHED2
 62
     7
 10
15353.29253731085
 20
10995.207142655319
 30
0.0
 11
15362.87780007752
 21
10995.207142655319
 31
0.0
  0
ARC
  5
72F
  8
____1
  6
DASHED2
 62
     7
 10
15362.8778006011
 20
10995.50714265532
 30
0.0
 40
0.2999999999997293
 50
-90.000099997057148
 51
0.0
  0
LINE
  5
730
  8
____1
  6
DASHED2
 62
     7
 10
15363.177800601101
 20
10995.50714265532
 30
0.0
 11
15363.177800601101
 21
10995.957142655319
 31
0.0
  0
ARC
  5
731
  8
____1
  6
DASHED2
 62
     7
 10
15364.427800601101
 20
10995.957142655319
 30
0.0
 40
1.25
 50
0.0
 51
180.0
  0
ARC
  5
732
  8
____1
  6
DASHED2
 62
     7
 10
15353.29253731085
 20
11000.207142655319
 30
0.0
 40
5.0
 50
180.0
 51
-90.0
  0
ARC
  5
733
  8
____1
  6
DASHED2
 62
     7
 10
15532.157274020599
 20
11024.457142655319
 30
0.0
 40
1.25
 50
180.0
 51
0.0
  0
LINE
  5
734
  8
____1
  6
DASHED2
 62
     7
 10
15365.677800601101
 20
11023.641686177691
 30
0.0
 11
15390.363323039381
 21
11016.26986219933
 31
0.0
  0
LINE
  5
735
  8
____1
  6
DASHED2
 62
     7
 10
15363.177800601101
 20
11024.90714265532
 30
0.0
 11
15363.177800601101
 21
11024.457142655319
 31
0.0
  0
LINE
  5
736
  8
____1
  6
DASHED2
 62
     7
 10
15365.677800601101
 20
11024.804460170921
 30
0.0
 11
15365.677800601101
 21
10995.60982448952
 31
0.0
  0
ARC
  5
737
  8
____1
  6
DASHED2
 62
     7
 10
15364.427800601101
 20
11024.457142655319
 30
0.0
 40
1.25
 50
180.0
 51
0.0
  0
LINE
  5
738
  8
____1
  6
DASHED2
 62
     7
 10
15366.063644148981
 20
11025.091918408991
 30
0.0
 11
15390.05076064246
 21
11017.928659013511
 31
0.0
  0
ARC
  5
739
  8
____1
  6
DASHED2
 62
     7
 10
15353.29253731085
 20
11020.207142655319
 30
0.0
 40
5.0
 50
90.0
 51
180.0
  0
LINE
  5
73A
  8
____1
  6
DASHED2
 62
     7
 10
15390.05076064246
 20
11002.48562629713
 30
0.0
 11
15366.06364415301
 21
10995.32236690285
 31
0.0
  0
LINE
  5
73B
  8
____1
  6
DASHED2
 62
     7
 10
15530.907274020599
 20
11024.80446252492
 30
0.0
 11
15530.907274020599
 21
10995.60982268248
 31
0.0
  0
ENDBLK
  5
73C
  8
0
  0
BLOCK
  8
0
  2
C58
 70
     0
 10
0.0
 20
0.0
 30
0.0
  3
C58
  1

  0
LINE
  5
740
  8
____1
  6
CONTINUOUS
 62
     5
 10
15718.29253731085
 20
11400.207142655319
 30
0.0
 11
15178.29253731085
 21
11400.207142655319
 31
0.0
  0
LINE
  5
741
  8
____1
  6
CONTINUOUS
 62
     5
 10
15718.29253731085
 20
10860.207142655319
 30
0.0
 11
15178.29253731085
 21
10860.207142655319
 31
0.0
  0
LINE
  5
742
  8
____1
  6
CONTINUOUS
 62
     5
 10
15718.29253731085
 20
11400.207142655319
 30
0.0
 11
15718.29253731085
 21
10860.207142655319
 31
0.0
  0
LINE
  5
743
  8
____1
  6
CONTINUOUS
 62
     5
 10
15178.29253731085
 20
11400.207142655319
 30
0.0
 11
15178.29253731085
 21
10860.207142655319
 31
0.0
  0
ENDBLK
  5
744
  8
0
  0
BLOCK
  8
0
  2
C59
 70
     0
 10
0.0
 20
0.0
 30
0.0
  3
C59
  1

  0
LINE
  5
774
  8
____1
  6
DASHED2
 62
     7
 10
15219.29272029491
 20
11202.18934294626
 30
0.0
 11
15217.29272029491
 21
11202.18934294626
 31
0.0
  0
LINE
  5
775
  8
____1
  6
DASHED2
 62
     7
 10
15219.29272029491
 20
11203.68934294626
 30
0.0
 11
15216.79272029491
 21
11203.68934294626
 31
0.0
  0
LINE
  5
776
  8
____1
  6
DASHED2
 62
     7
 10
15219.29272029491
 20
11213.68934294626
 30
0.0
 11
15216.79272029491
 21
11213.68934294626
 31
0.0
  0
LINE
  5
777
  8
____1
  6
DASHED2
 62
     7
 10
15219.29272029491
 20
11215.18934294626
 30
0.0
 11
15217.29272029491
 21
11215.18934294626
 31
0.0
  0
ARC
  5
778
  8
____1
  6
DASHED2
 62
     7
 10
15216.79272029491
 20
11226.18934294626
 30
0.0
 40
1.5
 50
90.0
 51
180.0
  0
LINE
  5
779
  8
____1
  6
DASHED2
 62
     7
 10
15219.29272029491
 20
11226.18934294626
 30
0.0
 11
15216.79272029491
 21
11226.18934294626
 31
0.0
  0
ARC
  5
77A
  8
____1
  6
DASHED2
 62
     7
 10
15216.79272029491
 20
11202.18934294626
 30
0.0
 40
1.5
 50
90.0
 51
180.0
  0
ARC
  5
77B
  8
____1
  6
DASHED2
 62
     7
 10
15216.79272029491
 20
11191.18934294626
 30
0.0
 40
1.5
 50
180.0
 51
-90.0
  0
LINE
  5
77C
  8
____1
  6
DASHED2
 62
     7
 10
15216.79272029491
 20
11191.18934294626
 30
0.0
 11
15219.29272029491
 21
11191.18934294626
 31
0.0
  0
LINE
  5
77D
  8
____1
  6
DASHED2
 62
     7
 10
15219.29272029491
 20
11189.68934294626
 30
0.0
 11
15219.29272029491
 21
11227.68934294626
 31
0.0
  0
LINE
  5
77E
  8
____1
  6
DASHED2
 62
     7
 10
15215.29272029491
 20
11191.18934294626
 30
0.0
 11
15215.29272029491
 21
11226.18934294626
 31
0.0
  0
ARC
  5
77F
  8
____1
  6
DASHED2
 62
     7
 10
15217.29272029491
 20
11215.68934294626
 30
0.0
 40
0.5
 50
180.0
 51
-90.0
  0
ARC
  5
780
  8
____1
  6
DASHED2
 62
     7
 10
15216.79272029491
 20
11215.18934294626
 30
0.0
 40
1.5
 50
180.0
 51
-90.0
  0
ARC
  5
781
  8
____1
  6
DASHED2
 62
     7
 10
15217.29272029491
 20
11201.68934294626
 30
0.0
 40
0.5
 50
90.0
 51
180.0
  0
LINE
  5
782
  8
____1
  6
DASHED2
 62
     7
 10
15216.79272029491
 20
11191.18934294626
 30
0.0
 11
15216.79272029491
 21
11226.18934294626
 31
0.0
  0
LINE
  5
783
  8
____1
  6
DASHED2
 62
     7
 10
15250.29272029491
 20
11189.68934294626
 30
0.0
 11
15250.29272029491
 21
11227.68934294626
 31
0.0
  0
LINE
  5
784
  8
____1
  6
DASHED2
 62
     7
 10
15250.29272029491
 20
11226.18934294626
 30
0.0
 11
15219.29272029491
 21
11226.18934294626
 31
0.0
  0
LINE
  5
785
  8
____1
  6
DASHED2
 62
     7
 10
15250.29272029491
 20
11227.68934294626
 30
0.0
 11
15216.79272029491
 21
11227.68934294626
 31
0.0
  0
LINE
  5
786
  8
____1
  6
DASHED2
 62
     7
 10
15219.29272029491
 20
11191.18934294626
 30
0.0
 11
15250.29272029491
 21
11191.18934294626
 31
0.0
  0
LINE
  5
787
  8
____1
  6
DASHED2
 62
     7
 10
15216.79272029491
 20
11189.68934294626
 30
0.0
 11
15250.29272029491
 21
11189.68934294626
 31
0.0
  0
ENDBLK
  5
788
  8
0
  0
BLOCK
  8
0
  2
C60
 70
     0
 10
0.0
 20
0.0
 30
0.0
  3
C60
  1

  0
LINE
  5
78C
  8
____1
  6
DASHED2
 62
     7
 10
15198.79270239126
 20
11264.00714265533
 30
0.0
 11
15228.29270239126
 21
11264.00714265533
 31
0.0
  0
LINE
  5
78D
  8
____1
  6
DASHED2
 62
     7
 10
15198.29270239126
 20
10916.707142655319
 30
0.0
 11
15228.29270239126
 21
10916.707142655319
 31
0.0
  0
LINE
  5
78E
  8
____1
  6
DASHED2
 62
     7
 10
15198.29270239126
 20
10916.707142655319
 30
0.0
 11
15198.29270239126
 21
10919.207142655319
 31
0.0
  0
LINE
  5
78F
  8
____1
  6
DASHED2
 62
     7
 10
15198.29270239126
 20
10919.207142655319
 30
0.0
 11
15228.29270239126
 21
10919.207142655319
 31
0.0
  0
LINE
  5
790
  8
____1
  6
DASHED2
 62
     7
 10
15198.29270239126
 20
11264.207142655319
 30
0.0
 11
15228.29270239126
 21
11264.207142655319
 31
0.0
  0
LINE
  5
791
  8
____1
  6
DASHED2
 62
     7
 10
15198.29270239126
 20
11264.207142655319
 30
0.0
 11
15198.29270239126
 21
11266.70714265533
 31
0.0
  0
LINE
  5
792
  8
____1
  6
DASHED2
 62
     7
 10
15198.29270239126
 20
11266.70714265533
 30
0.0
 11
15228.29270239126
 21
11266.70714265533
 31
0.0
  0
ARC
  5
793
  8
____1
  6
DASHED2
 62
     7
 10
15228.29270239126
 20
11264.207142655319
 30
0.0
 40
2.5000000000036371
 50
0.0000396924704228
 51
90.0
  0
ARC
  5
794
  8
____1
  6
DASHED2
 62
     7
 10
15228.29270239126
 20
10919.207142655319
 30
0.0
 40
2.5
 50
-90.0
 51
0.0
  0
LINE
  5
795
  8
____1
  6
DASHED2
 62
     7
 10
15230.79270239126
 20
10919.207142655319
 30
0.0
 11
15230.79270239126
 21
11264.20714438723
 31
0.0
  0
LINE
  5
796
  8
____1
  6
DASHED2
 62
     7
 10
15228.29270239126
 20
10919.207142655319
 30
0.0
 11
15228.29270239126
 21
11264.207142655319
 31
0.0
  0
LINE
  5
797
  8
____1
  6
DASHED2
 62
     7
 10
15198.79270239126
 20
10919.40714265532
 30
0.0
 11
15198.79270239126
 21
11264.00714265533
 31
0.0
  0
LINE
  5
798
  8
____1
  6
DASHED2
 62
     7
 10
15198.79270239126
 20
10919.40714265532
 30
0.0
 11
15228.29270239126
 21
10919.40714265532
 31
0.0
  0
ENDBLK
  5
799
  8
0
  0
BLOCK
  8
0
  2
C61
 70
     0
 10
0.0
 20
0.0
 30
0.0
  3
C61
  1

  0
ARC
  5
79D
  8
____1
  6
DASHED2
 62
     7
 10
15138.29270239126
 20
10930.207142655319
 30
0.0
 40
6.0
 50
180.0
 51
0.0
  0
LINE
  5
79E
  8
____1
  6
DASHED2
 62
     7
 10
15144.29270239126
 20
10930.207142655319
 30
0.0
 11
15144.29270239126
 21
10943.207142655319
 31
0.0
  0
ARC
  5
79F
  8
____1
  6
DASHED2
 62
     7
 10
15138.29270239126
 20
10943.207142655319
 30
0.0
 40
6.0
 50
0.0
 51
180.0
  0
LINE
  5
7A0
  8
____1
  6
DASHED2
 62
     7
 10
15132.29270239126
 20
10930.207142655319
 30
0.0
 11
15132.29270239126
 21
10943.207142655319
 31
0.0
  0
LINE
  5
7A1
  8
____1
  6
DOT
 62
     3
 10
15138.29270239126
 20
10938.707142655319
 30
0.0
 11
15138.29270239126
 21
10934.707142655319
 31
0.0
  0
LINE
  5
7A2
  8
____1
  6
DOT
 62
     3
 10
15140.29270239126
 20
10936.707142655319
 30
0.0
 11
15136.29270239126
 21
10936.707142655319
 31
0.0
  0
LINE
  5
7A3
  8
____1
  6
DASHED2
 62
     7
 10
15122.02240676737
 20
10961.707142655319
 30
0.0
 11
15122.02240676737
 21
10911.707142655319
 31
0.0
  0
LINE
  5
7A4
  8
____1
  6
DASHED2
 62
     7
 10
15117.45637841709
 20
10911.707142655319
 30
0.0
 11
15117.45637841709
 21
10961.707142655319
 31
0.0
  0
LINE
  5
7A5
  8
____1
  6
DASHED2
 62
     7
 10
15152.79270239126
 20
10911.707142655319
 30
0.0
 11
15097.791759880471
 21
10911.707142655319
 31
0.0
  0
LINE
  5
7A6
  8
____1
  6
DASHED2
 62
     7
 10
15097.791759880471
 20
10911.707142655319
 30
0.0
 11
15097.791759880471
 21
10961.707142655319
 31
0.0
  0
LINE
  5
7A7
  8
____1
  6
DASHED2
 62
     7
 10
15152.79270239126
 20
10961.707142655319
 30
0.0
 11
15097.791759880471
 21
10961.707142655319
 31
0.0
  0
ARC
  5
7A8
  8
____1
  6
DASHED2
 62
     7
 10
15152.79270239126
 20
10914.707142655319
 30
0.0
 40
3.0
 50
-90.0
 51
0.0
  0
ARC
  5
7A9
  8
____1
  6
DASHED2
 62
     7
 10
15152.79270239126
 20
10958.707142655319
 30
0.0
 40
3.0
 50
0.0
 51
90.0
  0
LINE
  5
7AA
  8
____1
  6
DASHED2
 62
     7
 10
15155.79270239126
 20
10958.707142655319
 30
0.0
 11
15155.79270239126
 21
10914.707142655319
 31
0.0
  0
LINE
  5
7AB
  8
____1
  6
DASHED2
 62
     7
 10
15116.279683686451
 20
10911.707142655319
 30
0.0
 11
15116.279683686451
 21
10961.707142655319
 31
0.0
  0
ENDBLK
  5
7AC
  8
0
  0
BLOCK
  8
0
  2
C62
 70
     0
 10
0.0
 20
0.0
 30
0.0
  3
C62
  1

  0
ARC
  5
7B0
  8
____1
  6
DASHED2
 62
     7
 10
15138.29270239126
 20
11330.207142655319
 30
0.0
 40
6.0
 50
180.0
 51
0.0
  0
LINE
  5
7B1
  8
____1
  6
DASHED2
 62
     7
 10
15144.29270239126
 20
11330.207142655319
 30
0.0
 11
15144.29270239126
 21
11343.207142655319
 31
0.0
  0
ARC
  5
7B2
  8
____1
  6
DASHED2
 62
     7
 10
15138.29270239126
 20
11343.207142655319
 30
0.0
 40
6.0
 50
0.0
 51
180.0
  0
LINE
  5
7B3
  8
____1
  6
DASHED2
 62
     7
 10
15132.29270239126
 20
11330.207142655319
 30
0.0
 11
15132.29270239126
 21
11343.207142655319
 31
0.0
  0
LINE
  5
7B4
  8
____1
  6
DOT
 62
     3
 10
15138.29270239126
 20
11338.707142655319
 30
0.0
 11
15138.29270239126
 21
11334.707142655319
 31
0.0
  0
LINE
  5
7B5
  8
____1
  6
DOT
 62
     3
 10
15140.29270239126
 20
11336.707142655319
 30
0.0
 11
15136.29270239126
 21
11336.707142655319
 31
0.0
  0
LINE
  5
7B6
  8
____1
  6
DASHED2
 62
     7
 10
15122.02240676737
 20
11361.707142655319
 30
0.0
 11
15122.02240676737
 21
11311.707142655319
 31
0.0
  0
LINE
  5
7B7
  8
____1
  6
DASHED2
 62
     7
 10
15117.45637841709
 20
11311.707142655319
 30
0.0
 11
15117.45637841709
 21
11361.707142655319
 31
0.0
  0
LINE
  5
7B8
  8
____1
  6
DASHED2
 62
     7
 10
15152.79270239126
 20
11311.707142655319
 30
0.0
 11
15097.791759880471
 21
11311.707142655319
 31
0.0
  0
LINE
  5
7B9
  8
____1
  6
DASHED2
 62
     7
 10
15097.791759880471
 20
11311.707142655319
 30
0.0
 11
15097.791759880471
 21
11361.707142655319
 31
0.0
  0
LINE
  5
7BA
  8
____1
  6
DASHED2
 62
     7
 10
15152.79270239126
 20
11361.707142655319
 30
0.0
 11
15097.791759880471
 21
11361.707142655319
 31
0.0
  0
ARC
  5
7BB
  8
____1
  6
DASHED2
 62
     7
 10
15152.79270239126
 20
11314.707142655319
 30
0.0
 40
3.0
 50
-90.0
 51
0.0
  0
ARC
  5
7BC
  8
____1
  6
DASHED2
 62
     7
 10
15152.79270239126
 20
11358.707142655319
 30
0.0
 40
3.0
 50
0.0
 51
90.0
  0
LINE
  5
7BD
  8
____1
  6
DASHED2
 62
     7
 10
15155.79270239126
 20
11358.707142655319
 30
0.0
 11
15155.79270239126
 21
11314.707142655319
 31
0.0
  0
LINE
  5
7BE
  8
____1
  6
DASHED2
 62
     7
 10
15116.279683686451
 20
11311.707142655319
 30
0.0
 11
15116.279683686451
 21
11361.707142655319
 31
0.0
  0
ENDBLK
  5
7BF
  8
0
  0
BLOCK
  8
0
  2
*D90
 70
     1
 10
0.0
 20
0.0
 30
0.0
  3
*D90
  1

  0
LINE
  5
7C4
  8
____1
  6
CONTINUOUS
 62
     7
 10
17017.93824675768
 20
10572.445767228081
 30
0.0
 11
17067.93824675768
 21
10572.445767228081
 31
0.0
  0
LINE
  5
7C5
  8
____1
  6
CONTINUOUS
 62
     7
 10
17067.93824675768
 20
10682.70714265533
 30
0.0
 11
17067.93824675768
 21
10564.445767228081
 31
0.0
  0
LINE
  5
7C6
  8
____1
  6
CONTINUOUS
 62
     7
 10
17017.93824675768
 20
10682.70714265533
 30
0.0
 11
17017.93824675768
 21
10564.445767228081
 31
0.0
  0
SOLID
  5
7C7
  8
____1
  6
CONTINUOUS
 62
     7
 10
16997.93824675768
 20
10568.445767228081
 30
0.0
 11
16997.93824675768
 21
10568.445767228081
 31
0.0
 12
17002.938246757691
 22
10572.445767228081
 32
0.0
 13
17017.93824675768
 23
10572.445767228081
 33
0.0
  0
SOLID
  5
7C8
  8
____1
  6
CONTINUOUS
 62
     7
 10
17002.938246757691
 20
10572.445767228081
 30
0.0
 11
17017.93824675768
 21
10572.445767228081
 31
0.0
 12
16997.93824675768
 22
10576.445767228081
 32
0.0
 13
16997.93824675768
 23
10576.445767228081
 33
0.0
  0
LINE
  5
7C9
  8
____1
  6
CONTINUOUS
 62
     7
 10
17017.93824675768
 20
10572.445767228081
 30
0.0
 11
16977.938246757691
 21
10572.445767228081
 31
0.0
  0
SOLID
  5
7CA
  8
____1
  6
CONTINUOUS
 62
     7
 10
17087.938246757691
 20
10568.445767228081
 30
0.0
 11
17087.938246757691
 21
10568.445767228081
 31
0.0
 12
17067.93824675768
 22
10572.445767228081
 32
0.0
 13
17082.938246757691
 23
10572.445767228081
 33
0.0
  0
SOLID
  5
7CB
  8
____1
  6
CONTINUOUS
 62
     7
 10
17067.93824675768
 20
10572.445767228081
 30
0.0
 11
17082.938246757691
 21
10572.445767228081
 31
0.0
 12
17087.938246757691
 22
10576.445767228081
 32
0.0
 13
17087.938246757691
 23
10576.445767228081
 33
0.0
  0
LINE
  5
7CC
  8
____1
  6
CONTINUOUS
 62
     7
 10
17067.93824675768
 20
10572.445767228081
 30
0.0
 11
17107.938246757691
 21
10572.445767228081
 31
0.0
  0
TEXT
  5
7CD
  8
______
  6
DASHED2
 62
     7
 10
17028.69198849886
 20
10580.561507845199
 30
0.0
 40
28.222221374511719
  1
50
  7
STYLE1
  0
ENDBLK
  5
7CE
  8
0
  0
BLOCK
  8
0
  2
C63
 70
     0
 10
0.0
 20
0.0
 30
0.0
  3
C63
  1

  0
LINE
  5
7D8
  8
____1
  6
DASHED2
 62
     7
 10
17001.028409851671
 20
10961.70714265533
 30
0.0
 11
17001.028409851671
 21
10911.70714265533
 31
0.0
  0
LINE
  5
7D9
  8
____1
  6
DASHED2
 62
     7
 10
16999.557539184829
 20
10961.70714265533
 30
0.0
 11
16999.557539184829
 21
10911.70714265533
 31
0.0
  0
LINE
  5
7DA
  8
____1
  6
DASHED2
 62
     7
 10
16995.63521648206
 20
10911.70714265533
 30
0.0
 11
16995.63521648206
 21
10961.70714265533
 31
0.0
  0
LINE
  5
7DB
  8
____1
  6
DASHED2
 62
     7
 10
17019.965195207329
 20
10911.70714265533
 30
0.0
 11
16995.63521648206
 21
10911.70714265533
 31
0.0
  0
LINE
  5
7DC
  8
____1
  6
DASHED2
 62
     7
 10
17019.965195207329
 20
10961.70714265533
 30
0.0
 11
17019.965195207329
 21
10911.70714265533
 31
0.0
  0
LINE
  5
7DD
  8
____1
  6
DASHED2
 62
     7
 10
16995.63521648206
 20
10961.70714265533
 30
0.0
 11
17019.965195207329
 21
10961.70714265533
 31
0.0
  0
ENDBLK
  5
7DE
  8
0
  0
BLOCK
  8
0
  2
C64
 70
     0
 10
0.0
 20
0.0
 30
0.0
  3
C64
  1

  0
LINE
  5
7E2
  8
____1
  6
DASHED2
 62
     7
 10
17001.028409851671
 20
11361.70714265533
 30
0.0
 11
17001.028409851671
 21
11311.70714265533
 31
0.0
  0
LINE
  5
7E3
  8
____1
  6
DASHED2
 62
     7
 10
16999.557539184829
 20
11361.70714265533
 30
0.0
 11
16999.557539184829
 21
11311.70714265533
 31
0.0
  0
LINE
  5
7E4
  8
____1
  6
DASHED2
 62
     7
 10
16995.63521648206
 20
11311.70714265533
 30
0.0
 11
16995.63521648206
 21
11361.70714265533
 31
0.0
  0
LINE
  5
7E5
  8
____1
  6
DASHED2
 62
     7
 10
17019.965195207329
 20
11311.70714265533
 30
0.0
 11
16995.63521648206
 21
11311.70714265533
 31
0.0
  0
LINE
  5
7E6
  8
____1
  6
DASHED2
 62
     7
 10
17019.965195207329
 20
11361.70714265533
 30
0.0
 11
17019.965195207329
 21
11311.70714265533
 31
0.0
  0
LINE
  5
7E7
  8
____1
  6
DASHED2
 62
     7
 10
16995.63521648206
 20
11361.70714265533
 30
0.0
 11
17019.965195207329
 21
11361.70714265533
 31
0.0
  0
ENDBLK
  5
7E8
  8
0
  0
BLOCK
  8
0
  2
C65
 70
     0
 10
0.0
 20
0.0
 30
0.0
  3
C65
  1

  0
INSERT
  5
7F7
  8
____1
  6
DASHED2
 62
     7
  2
C66
 10
0.0
 20
0.0
 30
0.0
  0
ENDBLK
  5
7F8
  8
0
  0
BLOCK
  8
0
  2
C66
 70
     0
 10
0.0
 20
0.0
 30
0.0
  3
C66
  1

  0
LINE
  5
7EE
  8
____1
  6
DASHED2
 62
     7
 10
16970.486400378541
 20
10885.20714265533
 30
0.0
 11
16976.105661826881
 21
10885.20714265533
 31
0.0
  0
LINE
  5
7EF
  8
____1
  6
DASHED2
 62
     7
 10
16953.628616033511
 20
10885.20714265533
 30
0.0
 11
16959.247877481859
 21
10885.20714265533
 31
0.0
  0
ARC
  5
7F0
  8
____1
  6
DASHED2
 62
     7
 10
16971.790993589919
 20
10898.707142655319
 30
0.0
 40
5.0000000000002851
 50
-27.152325537555772
 51
152.8477345665323
  0
ARC
  5
7F1
  8
____1
  6
DASHED2
 62
     7
 10
16971.790993589919
 20
10898.707142655319
 30
0.0
 40
10.0000000000014
 50
-27.152325537564561
 51
152.84773456652309
  0
LINE
  5
7F2
  8
____1
  6
DASHED2
 62
     7
 10
16976.239974421718
 20
10896.425351788859
 30
0.0
 11
16970.486400378541
 21
10885.20714265533
 31
0.0
  0
LINE
  5
7F3
  8
____1
  6
DASHED2
 62
     7
 10
16967.342007970859
 20
10900.988924187701
 30
0.0
 11
16959.247877481859
 21
10885.20714265533
 31
0.0
  0
LINE
  5
7F4
  8
____1
  6
DASHED2
 62
     7
 10
16980.688957647151
 20
10894.14356558944
 30
0.0
 11
16976.105661826881
 21
10885.20714265533
 31
0.0
  0
LINE
  5
7F5
  8
____1
  6
DASHED2
 62
     7
 10
16962.893024745441
 20
10903.27071038712
 30
0.0
 11
16953.628616033511
 21
10885.20714265533
 31
0.0
  0
ENDBLK
  5
7F6
  8
0
  0
BLOCK
  8
0
  2
C67
 70
     0
 10
0.0
 20
0.0
 30
0.0
  3
C67
  1

  0
ARC
  5
803
  8
____1
  6
DASHED2
 62
     7
 10
16958.43824675768
 20
10930.20714265533
 30
0.0
 40
5.4999999999981659
 50
-176.47768733401389
 51
-3.5538104361286771
  0
LINE
  5
804
  8
____1
  6
DASHED2
 62
     7
 10
16963.938246757691
 20
11024.17227689066
 30
0.0
 11
16963.938246757691
 21
11094.808163169761
 31
0.0
  0
LINE
  5
805
  8
____1
  6
DASHED2
 62
     7
 10
16985.43824675768
 20
11264.00714265533
 30
0.0
 11
16985.43824675768
 21
10919.407142655329
 31
0.0
  0
LINE
  5
806
  8
____1
  6
CONTINUOUS
 62
     7
 10
16952.93824675768
 20
11210.58202929059
 30
0.0
 11
16952.93824675768
 21
11211.08404311185
 31
0.0
  0
LINE
  5
807
  8
____1
  6
DASHED2
 62
     7
 10
16942.938246757691
 20
10916.70714265533
 30
0.0
 11
16985.43824675768
 21
10916.70714265533
 31
0.0
  0
LINE
  5
808
  8
____1
  6
DASHED2
 62
     7
 10
16985.43824675768
 20
11266.70714265533
 30
0.0
 11
16985.43824675768
 21
11264.00714265533
 31
0.0
  0
LINE
  5
809
  8
____1
  6
DASHED2
 62
     7
 10
16987.93824675768
 20
11264.00714265533
 30
0.0
 11
16985.43824675768
 21
11264.00714265533
 31
0.0
  0
LINE
  5
80A
  8
____1
  6
DASHED2
 62
     7
 10
16942.938246757691
 20
11266.70714265533
 30
0.0
 11
16985.43824675768
 21
11266.70714265533
 31
0.0
  0
LINE
  5
80B
  8
____1
  6
DASHED2
 62
     7
 10
16942.938246757691
 20
10916.70714265533
 30
0.0
 11
16942.938246757691
 21
11266.70714265533
 31
0.0
  0
LINE
  5
80C
  8
____1
  6
DASHED2
 62
     7
 10
16969.862285522751
 20
10990.575383543661
 30
0.0
 11
16963.938246757691
 21
11024.17227689066
 31
0.0
  0
LINE
  5
80D
  8
____1
  6
DASHED2
 62
     7
 10
16987.93824675768
 20
10919.407142655329
 30
0.0
 11
16987.93824675768
 21
11264.00714265533
 31
0.0
  0
LINE
  5
80E
  8
____1
  6
DASHED2
 62
     7
 10
16985.43824675768
 20
10916.70714265533
 30
0.0
 11
16985.43824675768
 21
10919.407142655329
 31
0.0
  0
LINE
  5
80F
  8
____1
  6
DASHED2
 62
     7
 10
16942.938246757691
 20
11264.207142655319
 30
0.0
 11
16985.43824675768
 21
11264.207142655319
 31
0.0
  0
ARC
  5
810
  8
____1
  6
DASHED2
 62
     7
 10
16964.93824675768
 20
11099.707142655319
 30
0.0
 40
4.9999999999997371
 50
-101.5369590328161
 51
10.00000000000872
  0
ARC
  5
811
  8
____1
  6
DASHED2
 62
     7
 10
16968.439434368662
 20
11209.707142655319
 30
0.0
 40
5.999999999996791
 50
-92.999999999937629
 51
84.999999999991516
  0
LINE
  5
812
  8
____1
  6
DASHED2
 62
     7
 10
16968.125418631211
 20
11203.7153654468
 30
0.0
 11
16963.93934361112
 21
11203.93474834251
 31
0.0
  0
LINE
  5
813
  8
____1
  6
DASHED2
 62
     7
 10
16968.962368825141
 20
11215.684310843881
 30
0.0
 11
16958.917603342801
 21
11216.563113951361
 31
0.0
  0
ARC
  5
814
  8
____1
  6
DASHED2
 62
     7
 10
16958.43824675768
 20
11211.08404311185
 30
0.0
 40
5.5
 50
84.99999999997921
 51
180.0
  0
LINE
  5
815
  8
____1
  6
DASHED2
 62
     7
 10
16987.93824675768
 20
10919.407142655329
 30
0.0
 11
16985.43824675768
 21
10919.407142655329
 31
0.0
  0
LINE
  5
816
  8
____1
  6
CONTINUOUS
 62
     7
 10
16952.93824675768
 20
11209.707142655319
 30
0.0
 11
16952.93824675768
 21
11210.58202929059
 31
0.0
  0
LINE
  5
817
  8
____1
  6
DASHED2
 62
     7
 10
16969.862285522751
 20
11100.575383543661
 30
0.0
 11
16963.938246757691
 21
11134.17227689066
 31
0.0
  0
LINE
  5
818
  8
____1
  6
DASHED2
 62
     7
 10
16963.938246757691
 20
11134.17227689066
 30
0.0
 11
16963.93934361112
 21
11203.93474834251
 31
0.0
  0
LINE
  5
819
  8
____1
  6
DASHED2
 62
     7
 10
16942.938246757691
 20
10919.20714265533
 30
0.0
 11
16985.43824675768
 21
10919.20714265533
 31
0.0
  0
ARC
  5
81A
  8
____1
  6
DASHED2
 62
     7
 10
16964.93824675768
 20
10989.70714265533
 30
0.0
 40
4.9999999989802957
 50
-101.5369590352006
 51
9.9999999999539693
  0
ENDBLK
  5
81B
  8
0
  0
BLOCK
  8
0
  2
C68
 70
     0
 10
0.0
 20
0.0
 30
0.0
  3
C68
  1

  0
LINE
  5
820
  8
____1
  6
CONTINUOUS
 62
     7
 10
16955.392669592798
 20
10968.15617883294
 30
0.0
 11
16964.996604905151
 21
10966.131886401159
 31
0.0
  0
LINE
  5
821
  8
____1
  6
CONTINUOUS
 62
     7
 10
16961.490427563931
 20
10949.497382487551
 30
0.0
 11
16951.886492251571
 21
10951.52167491933
 31
0.0
  0
LINE
  5
822
  8
____1
  6
CONTINUOUS
 62
     7
 10
16964.996604905151
 20
10966.131886401159
 30
0.0
 11
16968.045483890721
 21
10956.802488228461
 31
0.0
  0
ARC
  5
823
  8
____1
  6
DOT
 62
     7
 10
16958.44199048536
 20
10958.82714107104
 30
0.0
 40
12.499999999992481
 50
178.09756718738129
 51
-1.9024055216757469
  0
LINE
  5
824
  8
____1
  6
DOT
 62
     7
 10
16970.93510077368
 20
10958.41217682665
 30
0.0
 11
16971.210360604331
 21
10966.699162698629
 31
0.0
  0
LINE
  5
825
  8
____1
  6
DOT
 62
     7
 10
16945.94888039471
 20
10959.24211126609
 30
0.0
 11
16946.224140416802
 21
10967.529102901681
 31
0.0
  0
LINE
  5
826
  8
____1
  6
DASHED2
 62
     7
 10
16946.224140416802
 20
10967.529102901681
 30
0.0
 11
16954.248282422232
 21
11209.10431304779
 31
0.0
  0
CIRCLE
  5
827
  8
____1
  6
CONTINUOUS
 62
     7
 10
16958.44199048536
 20
10958.82714107104
 30
0.0
 40
14.999999999996669
  0
LINE
  5
828
  8
____1
  6
CONTINUOUS
 62
     7
 10
16968.045483890721
 20
10956.802488228461
 30
0.0
 11
16961.490427563931
 21
10949.497382487551
 31
0.0
  0
LINE
  5
829
  8
____1
  6
CONTINUOUS
 62
     7
 10
16948.837613266001
 20
10960.85107309203
 30
0.0
 11
16955.392669592798
 21
10968.15617883294
 31
0.0
  0
LINE
  5
82A
  8
____1
  6
CONTINUOUS
 62
     7
 10
16951.886492251571
 20
10951.52167491933
 30
0.0
 11
16948.837613266001
 21
10960.85107309203
 31
0.0
  0
INSERT
  5
835
  8
____1
  6
DASHED2
 62
     7
  2
C69
 10
0.0
 20
0.0
 30
0.0
  0
ARC
  5
836
  8
____1
  6
DASHED2
 62
     7
 10
16966.741392515989
 20
11208.68934294626
 30
0.0
 40
12.50000000000075
 50
-1.9024325746636721
 51
178.09757003132421
  0
LINE
  5
837
  8
____1
  6
DASHED2
 62
     7
 10
16971.210360604331
 20
10966.699162698629
 30
0.0
 11
16979.23450260975
 21
11208.274372844729
 31
0.0
  0
CIRCLE
  5
838
  8
____1
  6
CONTINUOUS
 62
     7
 10
16958.441548578368
 20
10958.82678066024
 30
0.0
 40
8.4999999999996696
  0
ENDBLK
  5
839
  8
0
  0
BLOCK
  8
0
  2
C69
 70
     0
 10
0.0
 20
0.0
 30
0.0
  3
C69
  1

  0
LINE
  5
82D
  8
____1
  6
DASHED2
 62
     7
 10
16966.741392515982
 20
11218.504297522481
 30
0.0
 11
16975.241392515989
 21
11213.59682023437
 31
0.0
  0
LINE
  5
82E
  8
____1
  6
DASHED2
 62
     7
 10
16975.241392515982
 20
11203.781865658149
 30
0.0
 11
16966.741392515982
 21
11198.87438837003
 31
0.0
  0
LINE
  5
82F
  8
____1
  6
DASHED2
 62
     7
 10
16958.241392515989
 20
11213.59682023437
 30
0.0
 11
16966.741392515982
 21
11218.504297522481
 31
0.0
  0
LINE
  5
830
  8
____1
  6
DASHED2
 62
     7
 10
16958.241392515982
 20
11203.781865658149
 30
0.0
 11
16958.241392515989
 21
11213.59682023437
 31
0.0
  0
LINE
  5
831
  8
____1
  6
DASHED2
 62
     7
 10
16966.741392515982
 20
11198.87438837003
 30
0.0
 11
16958.241392515982
 21
11203.781865658149
 31
0.0
  0
LINE
  5
832
  8
____1
  6
DASHED2
 62
     7
 10
16975.241392515989
 20
11213.59682023437
 30
0.0
 11
16975.241392515982
 21
11203.781865658149
 31
0.0
  0
CIRCLE
  5
833
  8
____1
  6
DASHED2
 62
     7
 10
16966.741392515989
 20
11208.68934294626
 30
0.0
 40
8.5000000000028635
  0
ENDBLK
  5
834
  8
0
  0
BLOCK
  8
0
  2
C70
 70
     0
 10
0.0
 20
0.0
 30
0.0
  3
C70
  1

  0
ARC
  5
84F
  8
____1
  6
DASHED2
 62
     7
 10
16945.349908664801
 20
10915.153029095751
 30
0.0
 40
5.0000000000043689
 50
-127.09400883342749
 51
179.90599116664291
  0
LINE
  5
850
  8
____1
  6
DASHED2
 62
     7
 10
16943.540534910939
 20
10912.76008809797
 30
0.0
 11
16942.334285741701
 21
10911.16479409945
 31
0.0
  0
LINE
  5
851
  8
____1
  6
DASHED2
 62
     7
 10
16942.349912702961
 20
10915.157951384541
 30
0.0
 11
16940.349915395062
 21
10915.16123291041
 31
0.0
  0
LINE
  5
852
  8
____1
  6
DASHED2
 62
     7
 10
16942.349912702961
 20
10915.157951384541
 30
0.0
 11
16942.313815918449
 21
10893.157980997699
 31
0.0
  0
LINE
  5
853
  8
____1
  6
DASHED2
 62
     7
 10
17013.7864844334
 20
10900.73714450013
 30
0.0
 11
17014.30095211626
 21
10898.804446126531
 31
0.0
  0
LINE
  5
854
  8
____1
  6
DASHED2
 62
     7
 10
16985.310476512332
 20
10891.08743088371
 30
0.0
 11
16942.310534392582
 21
10891.1579836898
 31
0.0
  0
LINE
  5
855
  8
____1
  6
DASHED2
 62
     7
 10
16985.310476512332
 20
10891.08743088371
 30
0.0
 11
17014.30095211626
 21
10898.804446126531
 31
0.0
  0
LINE
  5
856
  8
____1
  6
DASHED2
 62
     7
 10
16985.050453397449
 20
10893.08786021268
 30
0.0
 11
17013.7864844334
 21
10900.73714450013
 31
0.0
  0
LINE
  5
857
  8
____1
  6
DASHED2
 62
     7
 10
16985.050453397449
 20
10893.08786021268
 30
0.0
 11
16942.313815918449
 21
10893.157980997699
 31
0.0
  0
ARC
  5
858
  8
____1
  6
DASHED2
 62
     7
 10
16942.313815918449
 20
10893.157980997699
 30
0.0
 40
2.0000000000064322
 50
179.90596896078611
 51
-90.094008833461359
  0
LINE
  5
859
  8
____1
  6
DASHED2
 62
     7
 10
16940.313818611819
 20
10893.161263298691
 30
0.0
 11
16940.349915395062
 21
10915.16123291041
 31
0.0
  0
ARC
  5
85A
  8
____1
  6
DASHED2
 62
     7
 10
16945.349908664801
 20
10915.153029095751
 30
0.0
 40
2.9999999999990958
 50
-127.0940088332694
 51
179.90599116667761
  0
ENDBLK
  5
85B
  8
0
  0
BLOCK
  8
0
  2
*D99
 70
     1
 10
0.0
 20
0.0
 30
0.0
  3
*D99
  1

  0
LINE
  5
868
  8
____1
  6
CONTINUOUS
 62
     7
 10
17017.93824675768
 20
10572.445766254121
 30
0.0
 11
17067.93824675768
 21
10572.445766254121
 31
0.0
  0
LINE
  5
869
  8
____1
  6
CONTINUOUS
 62
     7
 10
17067.93824675768
 20
10682.70714265533
 30
0.0
 11
17067.93824675768
 21
10564.445766254121
 31
0.0
  0
LINE
  5
86A
  8
____1
  6
CONTINUOUS
 62
     7
 10
17017.93824675768
 20
10682.70714265533
 30
0.0
 11
17017.93824675768
 21
10564.445766254121
 31
0.0
  0
SOLID
  5
86B
  8
____1
  6
CONTINUOUS
 62
     7
 10
16997.93824675768
 20
10568.445766254121
 30
0.0
 11
16997.93824675768
 21
10568.445766254121
 31
0.0
 12
17002.938246757691
 22
10572.445766254121
 32
0.0
 13
17017.93824675768
 23
10572.445766254121
 33
0.0
  0
SOLID
  5
86C
  8
____1
  6
CONTINUOUS
 62
     7
 10
17002.938246757691
 20
10572.445766254121
 30
0.0
 11
17017.93824675768
 21
10572.445766254121
 31
0.0
 12
16997.93824675768
 22
10576.44576625413
 32
0.0
 13
16997.93824675768
 23
10576.44576625413
 33
0.0
  0
LINE
  5
86D
  8
____1
  6
CONTINUOUS
 62
     7
 10
17017.93824675768
 20
10572.445766254121
 30
0.0
 11
16977.938246757691
 21
10572.445766254121
 31
0.0
  0
SOLID
  5
86E
  8
____1
  6
CONTINUOUS
 62
     7
 10
17087.938246757691
 20
10568.445766254121
 30
0.0
 11
17087.938246757691
 21
10568.445766254121
 31
0.0
 12
17067.93824675768
 22
10572.445766254121
 32
0.0
 13
17082.938246757691
 23
10572.445766254121
 33
0.0
  0
SOLID
  5
86F
  8
____1
  6
CONTINUOUS
 62
     7
 10
17067.93824675768
 20
10572.445766254121
 30
0.0
 11
17082.938246757691
 21
10572.445766254121
 31
0.0
 12
17087.938246757691
 22
10576.44576625413
 32
0.0
 13
17087.938246757691
 23
10576.44576625413
 33
0.0
  0
LINE
  5
870
  8
____1
  6
CONTINUOUS
 62
     7
 10
17067.93824675768
 20
10572.445766254121
 30
0.0
 11
17107.938246757691
 21
10572.445766254121
 31
0.0
  0
TEXT
  5
871
  8
______
  6
DASHED2
 62
     7
 10
17028.691988997471
 20
10580.56150687124
 30
0.0
 40
28.222221374511719
  1
50
  7
STYLE1
  0
ENDBLK
  5
872
  8
0
  0
BLOCK
  8
0
  2
C71
 70
     0
 10
0.0
 20
0.0
 30
0.0
  3
C71
  1

  0
INSERT
  5
891
  8
____1
  6
DASHED2
 62
     4
  2
C72
 10
0.0
 20
0.0
 30
0.0
  0
INSERT
  5
89C
  8
____1
  6
DASHED2
 62
     4
  2
C73
 10
0.0
 20
0.0
 30
0.0
  0
ENDBLK
  5
89D
  8
0
  0
BLOCK
  8
0
  2
C72
 70
     0
 10
0.0
 20
0.0
 30
0.0
  3
C72
  1

  0
CIRCLE
  5
888
  8
____1
  6
DOT
 62
     4
 10
16964.938424996912
 20
10989.707069415101
 30
0.0
 40
14.999999999997129
  0
LINE
  5
889
  8
____1
  6
DOT
 62
     4
 10
16962.096395754419
 20
10999.101546682001
 30
0.0
 11
16971.65326634407
 21
10996.86557757085
 31
0.0
  0
LINE
  5
88A
  8
____1
  6
DOT
 62
     4
 10
16974.495295586559
 20
10987.471100303959
 30
0.0
 11
16967.780454239401
 21
10980.31259214821
 31
0.0
  0
LINE
  5
88B
  8
____1
  6
DOT
 62
     4
 10
16955.38155440726
 20
10991.943038526249
 30
0.0
 11
16962.096395754419
 21
10999.101546682001
 31
0.0
  0
LINE
  5
88C
  8
____1
  6
DOT
 62
     4
 10
16958.223583649749
 20
10982.54856125936
 30
0.0
 11
16955.38155440726
 21
10991.943038526249
 31
0.0
  0
LINE
  5
88D
  8
____1
  6
DOT
 62
     4
 10
16967.780454239401
 20
10980.31259214821
 30
0.0
 11
16958.223583649749
 21
10982.54856125936
 31
0.0
  0
LINE
  5
88E
  8
____1
  6
DOT
 62
     4
 10
16971.65326634407
 20
10996.86557757085
 30
0.0
 11
16974.495295586559
 21
10987.471100303959
 31
0.0
  0
CIRCLE
  5
88F
  8
____1
  6
DOT
 62
     4
 10
16964.938424996912
 20
10989.707069415101
 30
0.0
 40
8.4999999999974243
  0
ENDBLK
  5
890
  8
0
  0
BLOCK
  8
0
  2
C73
 70
     0
 10
0.0
 20
0.0
 30
0.0
  3
C73
  1

  0
CIRCLE
  5
894
  8
____1
  6
DOT
 62
     4
 10
16892.547733639891
 20
11228.996826414539
 30
0.0
 40
5.2500000000024407
  0
CIRCLE
  5
895
  8
____1
  6
DOT
 62
     4
 10
16964.938122258962
 20
10989.70658616831
 30
0.0
 40
4.9999999999982876
  0
CIRCLE
  5
896
  8
____1
  6
DOT
 62
     4
 10
16964.938122258962
 20
10989.70658616831
 30
0.0
 40
4.249999999997855
  0
LINE
  5
897
  8
____1
  6
DOT
 62
     4
 10
16976.902912692189
 20
10993.32660449429
 30
0.0
 11
16904.512221489858
 21
11232.6163609824
 31
0.0
  0
ARC
  5
898
  8
____1
  6
DOT
 62
     4
 10
16964.938424996912
 20
10989.707069415101
 30
0.0
 40
12.500000000004871
 50
-163.16820057516679
 51
16.831783690396549
  0
LINE
  5
899
  8
____1
  6
DOT
 62
     4
 10
16952.973938295621
 20
10986.08753105026
 30
0.0
 11
16880.583245789909
 21
11225.3772918467
 31
0.0
  0
ARC
  5
89A
  8
____1
  6
DOT
 62
     4
 10
16892.547733639891
 20
11228.996826414539
 30
0.0
 40
12.50000000000129
 50
16.831781050727461
 51
-163.168216343295
  0
ENDBLK
  5
89B
  8
0
  0
BLOCK
  8
0
  2
C74
 70
     0
 10
0.0
 20
0.0
 30
0.0
  3
C74
  1

  0
INSERT
  5
8AC
  8
____1
  6
DASHED2
 62
     4
  2
C75
 10
0.0
 20
0.0
 30
0.0
  0
INSERT
  5
8B7
  8
____1
  6
DASHED2
 62
     4
  2
C76
 10
0.0
 20
0.0
 30
0.0
  0
ENDBLK
  5
8B8
  8
0
  0
BLOCK
  8
0
  2
C75
 70
     0
 10
0.0
 20
0.0
 30
0.0
  3
C75
  1

  0
CIRCLE
  5
8A3
  8
____1
  6
DOT
 62
     4
 10
16964.938246757691
 20
11099.707142655319
 30
0.0
 40
14.999999999999361
  0
LINE
  5
8A4
  8
____1
  6
DOT
 62
     4
 10
16959.129494071509
 20
11107.61863591287
 30
0.0
 11
16968.885424557509
 21
11108.69341667463
 31
0.0
  0
LINE
  5
8A5
  8
____1
  6
DOT
 62
     4
 10
16974.694177243669
 20
11100.78192341708
 30
0.0
 11
16970.746999443862
 21
11091.795649397771
 31
0.0
  0
LINE
  5
8A6
  8
____1
  6
DOT
 62
     4
 10
16955.18231627169
 20
11098.632361893569
 30
0.0
 11
16959.129494071509
 21
11107.61863591287
 31
0.0
  0
LINE
  5
8A7
  8
____1
  6
DOT
 62
     4
 10
16960.991068957861
 20
11090.720868636021
 30
0.0
 11
16955.18231627169
 21
11098.632361893569
 31
0.0
  0
LINE
  5
8A8
  8
____1
  6
DOT
 62
     4
 10
16970.746999443862
 20
11091.795649397771
 30
0.0
 11
16960.991068957861
 21
11090.720868636021
 31
0.0
  0
LINE
  5
8A9
  8
____1
  6
DOT
 62
     4
 10
16968.885424557509
 20
11108.69341667463
 30
0.0
 11
16974.694177243669
 21
11100.78192341708
 31
0.0
  0
CIRCLE
  5
8AA
  8
____1
  6
DOT
 62
     4
 10
16964.938246757691
 20
11099.707142655319
 30
0.0
 40
8.5000000000003588
  0
ENDBLK
  5
8AB
  8
0
  0
BLOCK
  8
0
  2
C76
 70
     0
 10
0.0
 20
0.0
 30
0.0
  3
C76
  1

  0
CIRCLE
  5
8AF
  8
____1
  6
DOT
 62
     4
 10
16816.98121243664
 20
11301.223186668991
 30
0.0
 40
5.2499999999996811
  0
CIRCLE
  5
8B0
  8
____1
  6
DOT
 62
     4
 10
16964.938122258951
 20
11099.7065861683
 30
0.0
 40
5.0000000000007176
  0
CIRCLE
  5
8B1
  8
____1
  6
DOT
 62
     4
 10
16964.938122258951
 20
11099.7065861683
 30
0.0
 40
4.2500000000027063
  0
LINE
  5
8B2
  8
____1
  6
DOT
 62
     4
 10
16975.01404864221
 20
11107.10499480199
 30
0.0
 11
16827.057014637328
 21
11308.621038385039
 31
0.0
  0
ARC
  5
8B3
  8
____1
  6
DOT
 62
     4
 10
16964.938246757691
 20
11099.707142655319
 30
0.0
 40
12.500000000003091
 50
-143.7131358459059
 51
36.286848419664658
  0
LINE
  5
8B4
  8
____1
  6
DOT
 62
     4
 10
16954.86244690475
 20
11092.30928774166
 30
0.0
 11
16806.905410235951
 21
11293.82533495294
 31
0.0
  0
ARC
  5
8B5
  8
____1
  6
DOT
 62
     4
 10
16816.98121243664
 20
11301.223186668991
 30
0.0
 40
12.49999999999994
 50
36.28684577998046
 51
-143.71315161404701
  0
ENDBLK
  5
8B6
  8
0
  0
BLOCK
  8
0
  2
C77
 70
     0
 10
0.0
 20
0.0
 30
0.0
  3
C77
  1

  0
INSERT
  5
8C6
  8
____1
  6
DASHED2
 62
     4
  2
C78
 10
0.0
 20
0.0
 30
0.0
  0
INSERT
  5
8D1
  8
____1
  6
DASHED2
 62
     4
  2
C79
 10
0.0
 20
0.0
 30
0.0
  0
CIRCLE
  5
8D2
  8
____1
  6
CENTER2
 62
     4
 10
16958.43824675768
 20
11211.08404311185
 30
0.0
 40
14.99999999999776
  0
INSERT
  5
8DD
  8
____1
  6
DASHED2
 62
     4
  2
C80
 10
0.0
 20
0.0
 30
0.0
  0
ENDBLK
  5
8DE
  8
0
  0
BLOCK
  8
0
  2
C78
 70
     0
 10
0.0
 20
0.0
 30
0.0
  3
C78
  1

  0
LINE
  5
8BE
  8
____1
  6
CENTER2
 62
     4
 10
16951.918123936259
 20
11218.42034543161
 30
0.0
 11
16961.531609525729
 21
11220.398786270889
 31
0.0
  0
LINE
  5
8BF
  8
____1
  6
CENTER2
 62
     4
 10
16968.05173234715
 20
11213.06248395112
 30
0.0
 11
16964.958369579112
 21
11203.747740792091
 31
0.0
  0
LINE
  5
8C0
  8
____1
  6
CENTER2
 62
     4
 10
16948.82476116822
 20
11209.105602272581
 30
0.0
 11
16951.918123936259
 21
11218.42034543161
 31
0.0
  0
LINE
  5
8C1
  8
____1
  6
CENTER2
 62
     4
 10
16955.344883989641
 20
11201.76929995283
 30
0.0
 11
16948.82476116822
 21
11209.105602272581
 31
0.0
  0
LINE
  5
8C2
  8
____1
  6
CENTER2
 62
     4
 10
16964.958369579112
 20
11203.747740792091
 30
0.0
 11
16955.344883989641
 21
11201.76929995283
 31
0.0
  0
LINE
  5
8C3
  8
____1
  6
CENTER2
 62
     4
 10
16961.531609525729
 20
11220.398786270889
 30
0.0
 11
16968.05173234715
 21
11213.06248395112
 31
0.0
  0
CIRCLE
  5
8C4
  8
____1
  6
CENTER2
 62
     4
 10
16958.43824675768
 20
11211.08404311185
 30
0.0
 40
8.5000000000016485
  0
ENDBLK
  5
8C5
  8
0
  0
BLOCK
  8
0
  2
C79
 70
     0
 10
0.0
 20
0.0
 30
0.0
  3
C79
  1

  0
LINE
  5
8C9
  8
____1
  6
CENTER2
 62
     4
 10
16785.841639630751
 20
11405.286042664249
 30
0.0
 11
16795.455125220211
 21
11407.26448350353
 31
0.0
  0
LINE
  5
8CA
  8
____1
  6
CENTER2
 62
     4
 10
16801.975248041628
 20
11399.92818118377
 30
0.0
 11
16798.881885273589
 21
11390.61343802474
 31
0.0
  0
LINE
  5
8CB
  8
____1
  6
CENTER2
 62
     4
 10
16782.748276862701
 20
11395.97129950523
 30
0.0
 11
16785.841639630751
 21
11405.286042664249
 31
0.0
  0
LINE
  5
8CC
  8
____1
  6
CENTER2
 62
     4
 10
16789.268399684119
 20
11388.634997185471
 30
0.0
 11
16782.748276862701
 21
11395.97129950523
 31
0.0
  0
LINE
  5
8CD
  8
____1
  6
CENTER2
 62
     4
 10
16798.881885273589
 20
11390.61343802474
 30
0.0
 11
16789.268399684119
 21
11388.634997185471
 31
0.0
  0
LINE
  5
8CE
  8
____1
  6
CENTER2
 62
     4
 10
16795.455125220211
 20
11407.26448350353
 30
0.0
 11
16801.975248041628
 21
11399.92818118377
 31
0.0
  0
CIRCLE
  5
8CF
  8
____1
  6
CENTER2
 62
     4
 10
16792.361762452168
 20
11397.9497403445
 30
0.0
 40
8.5000000000033662
  0
ENDBLK
  5
8D0
  8
0
  0
BLOCK
  8
0
  2
C80
 70
     0
 10
0.0
 20
0.0
 30
0.0
  3
C80
  1

  0
CIRCLE
  5
8D5
  8
____1
  6
DOT
 62
     4
 10
16792.361762452168
 20
11397.9497403445
 30
0.0
 40
5.2500000000015721
  0
CIRCLE
  5
8D6
  8
____1
  6
DOT
 62
     4
 10
16958.43824675768
 20
11211.08404311185
 30
0.0
 40
4.9999999999976277
  0
CIRCLE
  5
8D7
  8
____1
  6
DOT
 62
     4
 10
16958.43824675768
 20
11211.08404311185
 30
0.0
 40
4.2499999999998428
  0
LINE
  5
8D8
  8
____1
  6
CENTER2
 62
     4
 10
16967.781575127439
 20
11219.388436995019
 30
0.0
 11
16801.705019030731
 21
11406.25356816708
 31
0.0
  0
ARC
  5
8D9
  8
____1
  6
CENTER2
 62
     4
 10
16958.438318903762
 20
11211.08460877313
 30
0.0
 40
12.50000000000365
 50
-138.37085889573959
 51
41.629125369895853
  0
LINE
  5
8DA
  8
____1
  6
CENTER2
 62
     4
 10
16949.095064960449
 20
11202.780777985419
 30
0.0
 11
16783.018505873599
 21
11389.645912521921
 31
0.0
  0
ARC
  5
8DB
  8
____1
  6
CENTER2
 62
     4
 10
16792.361762452168
 20
11397.9497403445
 30
0.0
 40
12.50000000000083
 50
41.629122730200351
 51
-138.370874663829
  0
ENDBLK
  5
8DC
  8
0
  0
BLOCK
  8
0
  2
C81
 70
     0
 10
0.0
 20
0.0
 30
0.0
  3
C81
  1

  0
INSERT
  5
8F9
  8
____1
  6
DASHED2
 62
     7
  2
C82
 10
0.0
 20
0.0
 30
0.0
  0
INSERT
  5
90B
  8
____1
  6
DASHED2
 62
     7
  2
C83
 10
0.0
 20
0.0
 30
0.0
  0
INSERT
  5
916
  8
____1
  6
DOT
 62
     7
  2
C84
 10
0.0
 20
0.0
 30
0.0
  0
INSERT
  5
92F
  8
____1
  6
DASHED2
 62
   254
  2
C85
 10
0.0
 20
0.0
 30
0.0
  0
ENDBLK
  5
930
  8
0
  0
BLOCK
  8
0
  2
C82
 70
     0
 10
0.0
 20
0.0
 30
0.0
  3
C82
  1

  0
CIRCLE
  5
8E4
  8
____1
  6
DOT
 62
     7
 10
16966.741392515982
 20
11208.689342946251
 30
0.0
 40
6.4999999999997877
  0
CIRCLE
  5
8E5
  8
____1
  6
DOT
 62
     7
 10
16966.741392515982
 20
11208.689342946251
 30
0.0
 40
4.9999999999994111
  0
LINE
  5
8E6
  8
____1
  6
DASHED2
 62
     7
 10
16937.267684431448
 20
11192.640961976589
 30
0.0
 11
16937.215180017611
 21
11224.640918902909
 31
0.0
  0
ARC
  5
8E7
  8
____1
  6
DASHED2
 62
     7
 10
16979.71512281039
 20
11224.71065132753
 30
0.0
 40
2.9999999999934661
 50
0.0940088333921061
 51
90.094008833391868
  0
ARC
  5
8E8
  8
____1
  6
DASHED2
 62
     7
 10
16938.71517799854
 20
11224.64338004731
 30
0.0
 40
3.0000000000007421
 50
90.094008833391868
 51
-179.90599116664291
  0
ARC
  5
8E9
  8
____1
  6
DASHED2
 62
     7
 10
16979.76762722421
 20
11192.71069440121
 30
0.0
 40
3.0000000000007421
 50
-89.905991166608075
 51
0.0940088333918781
  0
LINE
  5
8EA
  8
____1
  6
DASHED2
 62
     7
 10
16979.772549513011
 20
11189.71069843937
 30
0.0
 11
16938.77260470116
 21
11189.643427159141
 31
0.0
  0
LINE
  5
8EB
  8
____1
  6
DASHED2
 62
     7
 10
16982.715118772219
 20
11224.715573616329
 30
0.0
 11
16982.767623186061
 21
11192.715616690009
 31
0.0
  0
LINE
  5
8EC
  8
____1
  6
DASHED2
 62
     7
 10
16938.710255709739
 20
11227.64337600915
 30
0.0
 11
16979.710200521589
 21
11227.710647289379
 31
0.0
  0
LINE
  5
8ED
  8
____1
  6
DASHED2
 62
     7
 10
16935.767686450519
 20
11192.63850083219
 30
0.0
 11
16935.715182036689
 21
11224.63845775851
 31
0.0
  0
ARC
  5
8EE
  8
____1
  6
DASHED2
 62
     7
 10
16938.767682412359
 20
11192.64342312099
 30
0.0
 40
2.999999999993463
 50
-179.90599116664259
 51
-89.905991166608075
  0
ARC
  5
8EF
  8
____1
  6
DASHED2
 62
     7
 10
16938.71517799854
 20
11224.64338004731
 30
0.0
 40
1.500000000000377
 50
90.094008833530836
 51
-179.90599116660809
  0
ARC
  5
8F0
  8
____1
  6
DASHED2
 62
     7
 10
16938.767682412359
 20
11192.64342312099
 30
0.0
 40
1.499999999998558
 50
-179.90599116660761
 51
-89.90599116646905
  0
LINE
  5
8F1
  8
____1
  6
DASHED2
 62
     7
 10
16938.71271685413
 20
11226.14337802823
 30
0.0
 11
16979.712661665992
 21
11226.210649308459
 31
0.0
  0
LINE
  5
8F2
  8
____1
  6
DASHED2
 62
     7
 10
16979.770088368619
 20
11191.21069642029
 30
0.0
 11
16938.770143556761
 21
11191.14342514007
 31
0.0
  0
LINE
  5
8F3
  8
____1
  6
DASHED2
 62
     7
 10
16981.215120791308
 20
11224.713112471931
 30
0.0
 11
16981.267625205139
 21
11192.713155545611
 31
0.0
  0
ARC
  5
8F4
  8
____1
  6
DASHED2
 62
     7
 10
16979.71512281039
 20
11224.71065132753
 30
0.0
 40
1.500000000000371
 50
0.0940088333918781
 51
90.094008833530836
  0
ARC
  5
8F5
  8
____1
  6
DASHED2
 62
     7
 10
16979.76762722421
 20
11192.71069440121
 30
0.0
 40
1.500000000000371
 50
-89.90599116646905
 51
0.0940088333918781
  0
LINE
  5
8F6
  8
______
  6
DOT
 62
     7
 10
16966.75287785651
 20
11201.689352368619
 30
0.0
 11
16966.729907175461
 21
11215.689333523889
 31
0.0
  0
LINE
  5
8F7
  8
______
  6
DOT
 62
     7
 10
16973.741383093609
 20
11208.700828286779
 30
0.0
 11
16959.74140193835
 21
11208.67785760573
 31
0.0
  0
ENDBLK
  5
8F8
  8
0
  0
BLOCK
  8
0
  2
C83
 70
     0
 10
0.0
 20
0.0
 30
0.0
  3
C83
  1

  0
LINE
  5
8FC
  8
____1
  6
DASHED2
 62
     7
 10
16936.190182905601
 20
10935.138847440679
 30
0.0
 11
16936.213973968119
 21
10920.638866958439
 31
0.0
  0
LINE
  5
8FD
  8
____1
  6
DASHED2
 62
     7
 10
16938.190180213489
 20
10935.14212896654
 30
0.0
 11
16936.190182905601
 21
10935.138847440679
 31
0.0
  0
LINE
  5
8FE
  8
____1
  6
DASHED2
 62
     7
 10
16936.255813422889
 20
10895.13890128278
 30
0.0
 11
16938.255810730781
 21
10895.14218280864
 31
0.0
  0
LINE
  5
8FF
  8
____1
  6
DASHED2
 62
     7
 10
16936.232022360371
 20
10909.63888176502
 30
0.0
 11
16936.255813422889
 21
10895.13890128278
 31
0.0
  0
LINE
  5
900
  8
____1
  6
DASHED2
 62
     7
 10
16936.247609608228
 20
10900.13889455252
 30
0.0
 11
16944.874520108791
 21
10900.15304928654
 31
0.0
  0
LINE
  5
901
  8
____1
  6
DASHED2
 62
     7
 10
16944.82529722081
 20
10930.15300890497
 30
0.0
 11
16936.198386720262
 21
10930.13885417094
 31
0.0
  0
LINE
  5
902
  8
____1
  6
DASHED2
 62
     7
 10
16936.232022360371
 20
10909.63888176502
 30
0.0
 11
16944.858932860931
 21
10909.653036499039
 31
0.0
  0
LINE
  5
903
  8
____1
  6
DASHED2
 62
     7
 10
16936.213973968119
 20
10920.638866958439
 30
0.0
 11
16944.840884468678
 21
10920.653021692469
 31
0.0
  0
LINE
  5
904
  8
____1
  6
DASHED2
 62
     7
 10
16938.247606916131
 20
10900.14217607838
 30
0.0
 11
16938.255810730781
 21
10895.14218280864
 31
0.0
  0
LINE
  5
905
  8
____1
  6
DASHED2
 62
     7
 10
16938.190180213489
 20
10935.14212896654
 30
0.0
 11
16938.198384028161
 21
10930.142135696809
 31
0.0
  0
ARC
  5
906
  8
____1
  6
DASHED2
 62
     7
 10
16944.849908664801
 20
10915.153029095751
 30
0.0
 40
5.5000000000013634
 50
-89.905991166595484
 51
90.094008833328715
  0
ARC
  5
907
  8
____1
  6
DASHED2
 62
     7
 10
16944.849908664801
 20
10915.153029095751
 30
0.0
 40
15.000000000000069
 50
-89.905991166608104
 51
90.094008833391868
  0
LINE
  5
908
  8
____1
  6
DASHED2
 62
     7
 10
16938.198384028161
 20
10930.142135696809
 30
0.0
 11
16938.213971276011
 21
10920.64214848431
 31
0.0
  0
LINE
  5
909
  8
____1
  6
DASHED2
 62
     7
 10
16938.23201966827
 20
10909.64216329088
 30
0.0
 11
16938.247606916131
 21
10900.14217607838
 31
0.0
  0
ENDBLK
  5
90A
  8
0
  0
BLOCK
  8
0
  2
C84
 70
     0
 10
0.0
 20
0.0
 30
0.0
  3
C84
  1

  0
LINE
  5
90E
  8
____1
  6
DASHED
 62
     7
 10
16977.432914278161
 20
11396.70713828065
 30
0.0
 11
16935.432970812351
 21
11396.638226237499
 31
0.0
  0
ARC
  5
90F
  8
____1
  6
DASHED
 62
     7
 10
16977.438246757691
 20
11393.457142655319
 30
0.0
 40
3.2500000000026219
 50
145.90638149626881
 51
90.094008833381139
  0
ARC
  5
910
  8
____1
  6
DASHED
 62
     7
 10
16977.438246757691
 20
11393.457142655319
 30
0.0
 40
5.2499999999976756
 50
145.9063814962899
 51
90.094008833491216
  0
LINE
  5
911
  8
____1
  6
DASHED
 62
     7
 10
16974.74684774737
 20
11395.27891963599
 30
0.0
 11
16973.090602202559
 21
11396.400013162551
 31
0.0
  0
LINE
  5
912
  8
____1
  6
DASHED
 62
     7
 10
16935.432970812351
 20
11396.638226237499
 30
0.0
 11
16935.429689286491
 21
11398.638223545389
 31
0.0
  0
LINE
  5
913
  8
____1
  6
DASHED
 62
     7
 10
16977.429632752279
 20
11398.707135588549
 30
0.0
 11
16935.429689286491
 21
11398.638223545389
 31
0.0
  0
LINE
  5
914
  8
____1
  6
DASHED
 62
     7
 10
16971.43292235447
 20
11396.69729370306
 30
0.0
 11
16971.429640828599
 21
11398.697291010951
 31
0.0
  0
ENDBLK
  5
915
  8
0
  0
BLOCK
  8
0
  2
C85
 70
     0
 10
0.0
 20
0.0
 30
0.0
  3
C85
  1

  0
ARC
  5
919
  8
____1
  6
DASHED2
 62
     7
 10
16977.967248235989
 20
11398.708017689291
 30
0.0
 40
1.5000000000003679
 50
-89.906136692827417
 51
0.0940088333223979
  0
ARC
  5
91A
  8
____1
  6
CONTINUOUS
 62
     5
 10
16977.967248235989
 20
11398.708017689291
 30
0.0
 40
1.499999999998807
 50
0.0940088333223979
 51
90.094103055028043
  0
LINE
  5
91B
  8
____1
  6
DASHED2
 62
     7
 10
16935.429689286491
 20
11398.638223545389
 30
0.0
 11
16977.96724442613
 21
11398.70801768304
 31
0.0
  0
LINE
  5
91C
  8
____1
  6
DASHED2
 62
     7
 10
16977.969705570518
 20
11397.208019702121
 30
0.0
 11
16969.46972082182
 21
11397.194073223451
 31
0.0
  0
LINE
  5
91D
  8
____1
  6
DASHED2
 62
     7
 10
16970.097084148951
 20
11014.833849019369
 30
0.0
 11
16969.467259677422
 21
11398.694071204371
 31
0.0
  0
ARC
  5
91E
  8
____1
  6
DASHED2
 62
     7
 10
16978.848337930631
 20
10861.70874051944
 30
0.0
 40
1.4999999999967271
 50
0.0940088331139574
 51
90.094008833253142
  0
ARC
  5
91F
  8
____1
  6
CONTINUOUS
 62
     5
 10
16978.848337930631
 20
10861.70874051944
 30
0.0
 40
1.500000000000371
 50
-89.905972340901499
 51
0.0940088333918781
  0
LINE
  5
920
  8
____1
  6
DOT
 62
     7
 10
16935.429689286491
 20
11398.638223545389
 30
0.0
 11
16936.310778981118
 21
10861.638946375529
 31
0.0
  0
ARC
  5
921
  8
____1
  6
CONTINUOUS
 62
     5
 10
16936.310778981118
 20
10861.638946375529
 30
0.0
 40
1.5000000000022009
 50
-177.78129181600761
 51
-89.905991166747313
  0
LINE
  5
922
  8
____1
  6
DASHED2
 62
     7
 10
16936.310778981118
 20
10861.638946375529
 30
0.0
 11
16978.848337930631
 21
10861.70874051944
 31
0.0
  0
LINE
  5
923
  8
____1
  6
DASHED2
 62
     7
 10
16936.310778981118
 20
10861.638946375529
 30
0.0
 11
16925.906741263309
 21
11130.17784903467
 31
0.0
  0
LINE
  5
924
  8
____1
  6
DASHED2
 62
     7
 10
16970.345888227668
 20
10863.194792015431
 30
0.0
 11
16970.348349372081
 21
10861.694794034511
 31
0.0
  0
LINE
  5
925
  8
____1
  6
DASHED2
 62
     7
 10
16970.345888227668
 20
10863.194792015431
 30
0.0
 11
16970.128715633618
 21
10995.55535273261
 31
0.0
  0
LINE
  5
926
  8
____1
  6
CONTINUOUS
 62
     5
 10
16980.34839720761
 20
10861.673843447479
 30
0.0
 11
16979.467246211501
 21
11398.71048213044
 31
0.0
  0
ARC
  5
927
  8
____1
  6
CONTINUOUS
 62
     5
 10
16935.429689286491
 20
11398.638223545389
 30
0.0
 40
1.500000000000377
 50
90.094008833530836
 51
177.96930948287979
  0
LINE
  5
928
  8
____1
  6
CONTINUOUS
 62
     5
 10
16933.930631301919
 20
11398.6913757693
 30
0.0
 11
16924.407865770139
 21
11130.11977790602
 31
0.0
  0
LINE
  5
929
  8
____1
  6
DASHED2
 62
     7
 10
16935.429689286491
 20
11398.638223545389
 30
0.0
 11
16925.906923754708
 21
11130.06662568211
 31
0.0
  0
LINE
  5
92A
  8
____1
  6
CONTINUOUS
 62
     5
 10
16935.427228142082
 20
11400.138221526309
 30
0.0
 11
16977.96478462487
 21
11400.20801566616
 31
0.0
  0
LINE
  5
92B
  8
____1
  6
CONTINUOUS
 62
     5
 10
16934.811903487949
 20
10861.58087524688
 30
0.0
 11
16924.407865770139
 21
11130.11977790602
 31
0.0
  0
LINE
  5
92C
  8
____1
  6
CONTINUOUS
 62
     5
 10
16936.313240125521
 20
10860.13894839461
 30
0.0
 11
16978.85079956787
 21
10860.20874253932
 31
0.0
  0
LINE
  5
92D
  8
____1
  6
DASHED2
 62
     7
 10
16970.345888227668
 20
10863.194792015431
 30
0.0
 11
16978.845876786228
 21
10863.208738500351
 31
0.0
  0
ENDBLK
  5
92E
  8
0
  0
BLOCK
  8
0
  2
C86
 70
     0
 10
0.0
 20
0.0
 30
0.0
  3
C86
  1

  0
LINE
  5
934
  8
____1
  6
DASHED2
 62
     7
 10
16972.56461541036
 20
11011.69863231469
 30
0.0
 11
16971.064617429449
 21
11011.696171170301
 31
0.0
  0
LINE
  5
935
  8
____1
  6
DASHED2
 62
     7
 10
16977.07445393072
 20
11005.706023824199
 30
0.0
 11
16979.5744505656
 21
11005.710125731541
 31
0.0
  0
LINE
  5
936
  8
____1
  6
DASHED2
 62
     7
 10
16977.054764775541
 20
11017.706007671581
 30
0.0
 11
16979.554761410411
 21
11017.710109578909
 31
0.0
  0
LINE
  5
937
  8
____1
  6
DASHED2
 62
     7
 10
16936.040053097291
 20
11026.63872427688
 30
0.0
 11
16936.089275985261
 21
10996.638764658461
 31
0.0
  0
LINE
  5
938
  8
____1
  6
DASHED2
 62
     7
 10
16937.540051078209
 20
11026.64118542128
 30
0.0
 11
16979.806808059981
 21
11019.42520468204
 31
0.0
  0
LINE
  5
939
  8
____1
  6
DASHED2
 62
     7
 10
16971.064617429449
 20
11011.696171170301
 30
0.0
 11
16971.067078573851
 21
11010.196173189381
 31
0.0
  0
ARC
  5
93A
  8
____1
  6
DASHED2
 62
     7
 10
16977.067070497531
 20
11010.20601776697
 30
0.0
 40
4.499999999993844
 50
-179.90599116656159
 51
-89.905991166561819
  0
ARC
  5
93B
  8
____1
  6
DASHED2
 62
     7
 10
16977.06214820873
 20
11013.206013728821
 30
0.0
 40
4.499999999997458
 50
90.094008833253
 51
-179.90599116656179
  0
LINE
  5
93C
  8
____1
  6
DASHED2
 62
     7
 10
16971.06215628505
 20
11013.196169151221
 30
0.0
 11
16971.064617429449
 21
11011.696171170301
 31
0.0
  0
LINE
  5
93D
  8
____1
  6
DASHED2
 62
     7
 10
16977.076915075118
 20
11004.206025843279
 30
0.0
 11
16979.576911709992
 21
11004.21012775061
 31
0.0
  0
LINE
  5
93E
  8
____1
  6
DASHED2
 62
     7
 10
16979.83212397945
 20
11003.995866959311
 30
0.0
 11
16937.589273966179
 21
10996.641225802859
 31
0.0
  0
LINE
  5
93F
  8
____1
  6
DASHED2
 62
     7
 10
16937.589273966179
 20
10996.641225802859
 30
0.0
 11
16936.089275985261
 21
10996.638764658461
 31
0.0
  0
LINE
  5
940
  8
____1
  6
DASHED2
 62
     7
 10
16937.540051078209
 20
11026.64118542128
 30
0.0
 11
16937.589273966179
 21
10996.641225802859
 31
0.0
  0
POLYLINE
  5
941
  8
____1
  6
DASHED2
 62
     7
 66
     1
 10
0.0
 20
0.0
 30
0.0
 70
     8
  0
VERTEX
  5
942
  8
____1
 62
     7
 10
16979.576911709992
 20
11004.210127750621
 30
0.0
 70
    32
  0
VERTEX
  5
943
  8
____1
 62
     7
 10
16980.040316120649
 20
11004.2843034128
 30
0.0
 70
    32
  0
VERTEX
  5
944
  8
____1
 62
     7
 10
16980.458118364892
 20
11004.49804849783
 30
0.0
 70
    32
  0
VERTEX
  5
945
  8
____1
 62
     7
 10
16980.78942104807
 20
11004.830440147531
 30
0.0
 70
    32
  0
VERTEX
  5
946
  8
____1
 62
     7
 10
16981.001793955231
 20
11005.248941551319
 30
0.0
 70
    32
  0
VERTEX
  5
947
  8
____1
 62
     7
 10
16981.074448546518
 20
11005.71258687593
 30
0.0
 70
    32
  0
SEQEND
  5
948
  8
____1
 62
     7
  0
ARC
  5
949
  8
____1
  6
DASHED2
 62
     7
 10
16979.574838588102
 20
11005.473636977749
 30
0.0
 40
1.500000000000365
 50
-80.123584134737854
 51
0.0940088332529177
  0
LINE
  5
94A
  8
____1
  6
DASHED2
 62
     7
 10
16981.05437136882
 20
11017.94905947709
 30
0.0
 11
16981.07483656902
 21
11005.47609812215
 31
0.0
  0
LINE
  5
94B
  8
____1
  6
DASHED2
 62
     7
 10
16979.574838588102
 20
11005.473636977749
 30
0.0
 11
16937.331988574831
 21
10998.118995821291
 31
0.0
  0
LINE
  5
94C
  8
____1
  6
DASHED2
 62
     7
 10
16979.554373387899
 20
11017.946598332701
 30
0.0
 11
16979.574838588102
 21
11005.473636977749
 31
0.0
  0
ARC
  5
94D
  8
____1
  6
DASHED2
 62
     7
 10
16979.554373387899
 20
11017.94659833269
 30
0.0
 40
1.500000000000371
 50
0.0940088333918781
 51
80.311601801113767
  0
LINE
  5
94E
  8
____1
  6
DASHED2
 62
     7
 10
16937.540051078209
 20
11026.64118542128
 30
0.0
 11
16936.040053097291
 21
11026.63872427688
 31
0.0
  0
LINE
  5
94F
  8
____1
  6
DASHED2
 62
     7
 10
16937.287616406149
 20
11025.16257907193
 30
0.0
 11
16979.554373387899
 21
11017.946598332701
 31
0.0
  0
LINE
  5
950
  8
____1
  6
DASHED2
 62
     7
 10
16977.05230363115
 20
11019.206005652501
 30
0.0
 11
16979.552300266019
 21
11019.210107559829
 31
0.0
  0
POLYLINE
  5
951
  8
____1
  6
DASHED2
 62
     7
 66
     1
 10
0.0
 20
0.0
 30
0.0
 70
     8
  0
VERTEX
  5
952
  8
____1
 62
     7
 10
16979.552300266008
 20
11019.210107559829
 30
0.0
 70
    32
  0
VERTEX
  5
953
  8
____1
 62
     7
 10
16980.015945590621
 20
11019.13745296854
 30
0.0
 70
    32
  0
VERTEX
  5
954
  8
____1
 62
     7
 10
16980.434446994419
 20
11018.925080061381
 30
0.0
 70
    32
  0
VERTEX
  5
955
  8
____1
 62
     7
 10
16980.766838644118
 20
11018.59377737821
 30
0.0
 70
    32
  0
VERTEX
  5
956
  8
____1
 62
     7
 10
16980.98058372915
 20
11018.17597513396
 30
0.0
 70
    32
  0
VERTEX
  5
957
  8
____1
 62
     7
 10
16981.054759391329
 20
11017.71257072331
 30
0.0
 70
    32
  0
SEQEND
  5
958
  8
____1
 62
     7
  0
LINE
  5
959
  8
____1
  6
DASHED2
 62
     7
 10
16972.56461541036
 20
11011.69863231469
 30
0.0
 11
16972.567076554769
 21
11010.19863433377
 31
0.0
  0
ARC
  5
95A
  8
____1
  6
DASHED2
 62
     7
 10
16977.067070497531
 20
11010.20601776697
 30
0.0
 40
5.9999999999942091
 50
-179.905991166608
 51
-89.905991166608118
  0
ARC
  5
95B
  8
____1
  6
DASHED2
 62
     7
 10
16977.06214820873
 20
11013.206013728821
 30
0.0
 40
5.9999999999978231
 50
90.094008833252957
 51
-179.905991166608
  0
ENDBLK
  5
95C
  8
0
  0
BLOCK
  8
0
  2
C87
 70
     0
 10
0.0
 20
0.0
 30
0.0
  3
C87
  1

  0
LINE
  5
962
  8
____1
  6
DASHED2
 62
     7
 10
16955.93824675768
 20
11390.207142655319
 30
0.0
 11
16955.93824675768
 21
11388.207142655319
 31
0.0
  0
LINE
  5
963
  8
____1
  6
DASHED2
 62
     7
 10
16959.938246757691
 20
11390.207142655319
 30
0.0
 11
16959.938246757691
 21
11388.207142655319
 31
0.0
  0
LINE
  5
964
  8
____1
  6
DASHED2
 62
     7
 10
16964.93824675768
 20
11390.207142655319
 30
0.0
 11
16964.93824675768
 21
11388.207142655319
 31
0.0
  0
LINE
  5
965
  8
____1
  6
DASHED2
 62
     7
 10
16965.43824675768
 20
11390.207142655319
 30
0.0
 11
16965.43824675768
 21
11388.207142655319
 31
0.0
  0
LINE
  5
966
  8
____1
  6
DASHED2
 62
     7
 10
16946.43824675768
 20
11390.207142655319
 30
0.0
 11
16946.43824675768
 21
11388.207142655319
 31
0.0
  0
LINE
  5
967
  8
____1
  6
DASHED2
 62
     7
 10
16974.74984047428
 20
11391.63095217913
 30
0.0
 11
16973.095436607571
 21
11390.50714265533
 31
0.0
  0
LINE
  5
968
  8
____1
  6
DASHED2
 62
     7
 10
16977.438246757691
 20
11390.207142655319
 30
0.0
 11
16946.43824675768
 21
11390.207142655319
 31
0.0
  0
LINE
  5
969
  8
____1
  6
DASHED2
 62
     7
 10
16977.438246757691
 20
11388.207142655319
 30
0.0
 11
16946.43824675768
 21
11388.207142655319
 31
0.0
  0
LINE
  5
96A
  8
____1
  6
DASHED2
 62
     7
 10
16956.438246757691
 20
11390.207142655319
 30
0.0
 11
16956.438246757691
 21
11388.207142655319
 31
0.0
  0
LINE
  5
96B
  8
____1
  6
DASHED2
 62
     7
 10
16959.438246757691
 20
11390.207142655319
 30
0.0
 11
16959.438246757691
 21
11388.207142655319
 31
0.0
  0
LINE
  5
96C
  8
____1
  6
DASHED2
 62
     7
 10
16971.438246757691
 20
11390.207142655319
 30
0.0
 11
16971.438246757691
 21
11388.207142655319
 31
0.0
  0
ARC
  5
96D
  8
____1
  6
DASHED2
 62
     7
 10
16977.438246757691
 20
11393.457142655319
 30
0.0
 40
5.25
 50
-90.0
 51
-145.812372662889
  0
ARC
  5
96E
  8
____1
  6
DASHED2
 62
     7
 10
16977.438246757691
 20
11393.457142655319
 30
0.0
 40
3.25
 50
-90.0
 51
-145.8123726628919
  0
LINE
  5
96F
  8
____1
  6
DASHED2
 62
     7
 10
16950.438246757691
 20
11390.207142655319
 30
0.0
 11
16950.438246757691
 21
11388.207142655319
 31
0.0
  0
LINE
  5
970
  8
____1
  6
DASHED2
 62
     7
 10
16950.93824675768
 20
11390.207142655319
 30
0.0
 11
16950.93824675768
 21
11388.207142655319
 31
0.0
  0
LINE
  5
971
  8
____1
  6
DOT
 62
     2
 10
16984.938246757691
 20
11393.457142655319
 30
0.0
 11
16969.93824675768
 21
11393.457142655319
 31
0.0
  0
LINE
  5
972
  8
____1
  6
DOT
 62
     2
 10
16977.438246757691
 20
11400.95714265533
 30
0.0
 11
16977.438246757691
 21
11385.957142655319
 31
0.0
  0
LINE
  5
973
  8
____1
  6
DOT
 62
     2
 10
16953.438246757691
 20
11392.207142655319
 30
0.0
 11
16953.438246757691
 21
11386.207142655319
 31
0.0
  0
LINE
  5
974
  8
____1
  6
DOT
 62
     2
 10
16962.43824675768
 20
11392.207142655319
 30
0.0
 11
16962.43824675768
 21
11386.207142655319
 31
0.0
  0
ENDBLK
  5
975
  8
0
  0
BLOCK
  8
0
  2
C88
 70
     0
 10
0.0
 20
0.0
 30
0.0
  3
C88
  1

  0
LINE
  5
979
  8
____1
  6
DASHED2
 62
     7
 10
16937.888246757691
 20
10883.71613456987
 30
0.0
 11
16937.888246757691
 21
10878.70714265533
 31
0.0
  0
ARC
  5
97A
  8
____1
  6
DASHED2
 62
     7
 10
16937.193795909279
 20
10883.173568327509
 30
0.0
 40
0.5000000000016796
 50
93.433630362150907
 51
151.1023772631753
  0
LINE
  5
97B
  8
____1
  6
DASHED2
 62
     7
 10
16937.888246757691
 20
10883.71613456987
 30
0.0
 11
16937.163849763921
 21
10883.672670750249
 31
0.0
  0
LINE
  5
97C
  8
____1
  6
DASHED2
 62
     7
 10
16935.68824675768
 20
10878.730696252769
 30
0.0
 11
16935.68824675768
 21
10877.70714265533
 31
0.0
  0
LINE
  5
97D
  8
____1
  6
DASHED2
 62
     7
 10
16941.68824675768
 20
10878.635575269351
 30
0.0
 11
16941.68824675768
 21
10877.70714265533
 31
0.0
  0
ARC
  5
97E
  8
____1
  6
DASHED2
 62
     7
 10
16932.628871348508
 20
10879.121206149421
 30
0.0
 40
9.0723822756757837
 50
-3.0684227999064762
 51
28.211078854511001
  0
LINE
  5
97F
  8
____1
  6
DASHED2
 62
     7
 10
16939.48824675769
 20
10883.71613456987
 30
0.0
 11
16940.212904155262
 21
10883.67265512602
 31
0.0
  0
ARC
  5
980
  8
____1
  6
DASHED2
 62
     7
 10
16940.1829580099
 20
10883.17355270328
 30
0.0
 40
0.5000000000016796
 50
28.211078854445439
 51
86.566369637849107
  0
LINE
  5
981
  8
____1
  6
DASHED2
 62
     7
 10
16939.48824675769
 20
10883.71613456987
 30
0.0
 11
16939.48824675769
 21
10878.70714265533
 31
0.0
  0
ARC
  5
982
  8
____1
  6
DASHED2
 62
     7
 10
16940.68824675768
 20
10877.70714265533
 30
0.0
 40
1.0
 50
-90.0
 51
0.0
  0
LINE
  5
983
  8
____1
  6
DASHED2
 62
     7
 10
16940.68824675768
 20
10876.70714265533
 30
0.0
 11
16936.688246757691
 21
10876.70714265533
 31
0.0
  0
ARC
  5
984
  8
____1
  6
DASHED2
 62
     7
 10
16936.688246757691
 20
10877.70714265533
 30
0.0
 40
1.0
 50
180.0
 51
-90.0
  0
LINE
  5
985
  8
____1
  6
DASHED2
 62
     7
 10
16939.48824675769
 20
10878.70714265533
 30
0.0
 11
16937.888246757691
 21
10878.70714265533
 31
0.0
  0
POLYLINE
  5
986
  8
____1
  6
DASHED2
 62
     7
 66
     1
 10
0.0
 20
0.0
 30
0.0
 70
     8
  0
VERTEX
  5
987
  8
____1
 62
     7
 10
16936.7560536202
 20
10883.415191356949
 30
0.0
 70
    32
  0
VERTEX
  5
988
  8
____1
 62
     7
 10
16936.467069530379
 20
10882.86919179962
 30
0.0
 70
    32
  0
VERTEX
  5
989
  8
____1
 62
     7
 10
16936.217316613711
 20
10882.31086908056
 30
0.0
 70
    32
  0
VERTEX
  5
98A
  8
____1
 62
     7
 10
16936.07194207843
 20
10881.888238326759
 30
0.0
 70
    32
  0
VERTEX
  5
98B
  8
____1
 62
     7
 10
16935.95805092957
 20
10881.45571811946
 30
0.0
 70
    32
  0
VERTEX
  5
98C
  8
____1
 62
     7
 10
16935.807032477322
 20
10880.5665649087
 30
0.0
 70
    32
  0
VERTEX
  5
98D
  8
____1
 62
     7
 10
16935.728888629259
 20
10879.65452057692
 30
0.0
 70
    32
  0
VERTEX
  5
98E
  8
____1
 62
     7
 10
16935.68824675768
 20
10878.73069625274
 30
0.0
 70
    32
  0
SEQEND
  5
98F
  8
____1
 62
     7
  0
ENDBLK
  5
990
  8
0
  0
ENDSEC
  0
SECTION
  2
ENTITIES
  0
DIMENSION
  5
3D
  8
______
  6
CONTINUOUS
 62
     7
  2
*D0
 10
16063.74515431713
 20
11436.70714265533
 30
0.0
 11
16063.74515431713
 21
11118.00227093049
 31
0.0
 13
15748.292702391271
 23
10836.70714265533
 33
0.0
 14
15748.292702391271
 24
11436.70714265533
 34
0.0
 50
90.0
  0
INSERT
  5
48
  8
______
  6
CONTINUOUS
 62
     7
  2
C0
 10
0.0
 20
0.0
 30
0.0
  0
LINE
  5
49
  8
____1
  6
DASHED
 62
     7
 10
15896.79270239126
 20
10688.20714265533
 30
0.0
 11
15896.79270239126
 21
11585.20714265533
 31
0.0
  0
LINE
  5
4A
  8
____1
  6
DASHED
 62
     7
 10
14999.79270239126
 20
11585.207142655319
 30
0.0
 11
14999.79270239126
 21
10688.20714265533
 31
0.0
  0
LINE
  5
4B
  8
____1
  6
CONTINUOUS
 62
     5
 10
14998.29270239126
 20
11586.707142655319
 30
0.0
 11
14998.29270239126
 21
10688.20714265533
 31
0.0
  0
LINE
  5
4C
  8
____1
  6
CONTINUOUS
 62
     5
 10
15898.29270239126
 20
10686.70714265533
 30
0.0
 11
15898.29270239126
 21
11585.20714265533
 31
0.0
  0
LINE
  5
4D
  8
____1
  6
CONTINUOUS
 62
     5
 10
15896.79270239126
 20
10688.20714265533
 30
0.0
 11
15718.29253731085
 21
10866.70730773574
 31
0.0
  0
LINE
  5
4E
  8
____1
  6
CONTINUOUS
 62
     5
 10
14999.79270239126
 20
10688.20714265533
 30
0.0
 11
15178.29253731085
 21
10866.70697757491
 31
0.0
  0
DIMENSION
  5
5B
  8
______
  6
CONTINUOUS
 62
     7
  2
*D2
 10
15748.292702391271
 20
10572.445766254121
 30
0.0
 11
15447.54270239126
 21
10572.445766254121
 31
0.0
 13
15148.29270239126
 23
10836.70714265533
 33
0.0
 14
15748.292702391271
 24
10836.70714265533
 34
0.0
  0
DIMENSION
  5
68
  8
______
  6
CONTINUOUS
 62
     7
  2
*D3
 10
15718.29253731085
 20
10631.15019333746
 30
0.0
 11
15448.29253731085
 21
10631.15019333746
 31
0.0
 13
15178.29253731085
 23
10860.207142655319
 33
0.0
 14
15718.29253731085
 24
10860.207142655319
 34
0.0
  0
DIMENSION
  5
77
  8
______
  6
CONTINUOUS
 62
     7
  2
*D4
 10
14937.600956132061
 20
10686.707142655319
 30
0.0
 11
14937.600956132061
 21
10811.707142655319
 31
0.0
 13
15125.79270239126
 23
10936.707142655319
 33
0.0
 14
14998.29270239126
 24
10686.707142655319
 34
0.0
 50
90.0
  0
INSERT
  5
81
  8
______
  6
CONTINUOUS
 62
     7
  2
C1
 10
0.0
 20
0.0
 30
0.0
  0
LINE
  5
82
  8
____1
  6
DASHED
 62
     7
 10
17057.93824675768
 20
10690.00714265533
 30
0.0
 11
17057.93824675768
 21
11585.20714265533
 31
0.0
  0
DIMENSION
  5
90
  8
______
  6
CONTINUOUS
 62
     7
  2
*D6
 10
16980.348337930631
 20
10572.445766254121
 30
0.0
 11
16892.61955568027
 21
10572.445766254121
 31
0.0
 13
16934.867860128459
 23
10860.1365768655
 33
0.0
 14
16980.348337930631
 24
10861.70874051944
 34
0.0
  0
DIMENSION
  5
A5
  8
______
  6
CONTINUOUS
 62
     7
  2
*D7
 10
17017.93824675768
 20
10572.445766254121
 30
0.0
 11
17002.938246757691
 21
10572.445766254121
 31
0.0
 13
16987.93824675768
 23
10836.70714265533
 33
0.0
 14
17017.93824675768
 24
10686.70714265533
 34
0.0
  0
DIMENSION
  5
B8
  8
______
  6
CONTINUOUS
 62
     7
  2
*D8
 10
16987.93824675768
 20
10572.449825262631
 30
0.0
 11
16984.143291334629
 21
10572.449825262631
 31
0.0
 13
16980.34833591156
 23
10861.71120166384
 33
0.0
 14
16987.93824675768
 24
10836.855671925719
 34
0.0
  0
INSERT
  5
C2
  8
______
  6
CONTINUOUS
 62
     7
  2
C2
 10
0.0
 20
0.0
 30
0.0
  0
LINE
  5
C3
  8
____1
  6
CONTINUOUS
 62
     5
 10
17067.93824675768
 20
10686.70714265533
 30
0.0
 11
17067.93824675768
 21
11585.20714265533
 31
0.0
  0
LINE
  5
C4
  8
____1
  6
CONTINUOUS
 62
     5
 10
17017.93824675768
 20
10686.70714265533
 30
0.0
 11
17017.93824675768
 21
11585.20714265533
 31
0.0
  0
LINE
  5
C5
  8
____1
  6
CONTINUOUS
 62
     5
 10
17017.93824675768
 20
10688.20714265533
 30
0.0
 11
16987.93824675768
 21
10836.70714265533
 31
0.0
  0
LINE
  5
C6
  8
____1
  6
DASHED
 62
     7
 10
17019.167952611759
 20
10688.20714265533
 30
0.0
 11
16989.438246757691
 21
10836.855671925719
 31
0.0
  0
LINE
  5
C7
  8
____1
  6
CONTINUOUS
 62
     5
 10
14998.29270239126
 20
10686.70714265533
 30
0.0
 11
15896.79270239126
 21
10686.70714265533
 31
0.0
  0
LINE
  5
C8
  8
____1
  6
CONTINUOUS
 62
     5
 10
14999.498527937551
 20
9928.7630499895968
 30
0.0
 11
15148.14705720794
 21
9958.4927558436757
 31
0.0
  0
LINE
  5
C9
  8
____1
  6
CONTINUOUS
 62
     5
 10
14999.79270214025
 20
9927.2921789760603
 30
0.0
 11
15148.441231410639
 21
9957.0218848301392
 31
0.0
  0
INSERT
  5
100
  8
____1
  6
CONTINUOUS
 62
   254
  2
C3
 10
0.0
 20
0.0
 30
0.0
  0
DIMENSION
  5
10D
  8
______
  6
CONTINUOUS
 62
     7
  2
*D11
 10
15120.79270214025
 20
9839.2243608716144
 30
0.0
 11
15060.29270214025
 21
9839.2243608716144
 31
0.0
 13
14999.79270214025
 23
9905.9546425877652
 33
0.0
 14
15120.79270214025
 24
9926.4949363804972
 34
0.0
  0
LINE
  5
10E
  8
____1
  6
CONTINUOUS
 62
     5
 10
14999.79270214025
 20
9928.5218848301392
 30
0.0
 11
15148.29270214025
 21
9958.5218848301392
 31
0.0
  0
DIMENSION
  5
11B
  8
______
  6
CONTINUOUS
 62
     7
  2
*D12
 10
15898.292702391271
 20
10516.61126704558
 30
0.0
 11
15448.29270239126
 21
10516.61126704558
 31
0.0
 13
14998.29270239126
 23
10686.70714265533
 33
0.0
 14
15898.292702391271
 24
10686.70714265533
 34
0.0
  0
DIMENSION
  5
128
  8
______
  6
CONTINUOUS
 62
     7
  2
*D13
 10
14998.29270214025
 20
10055.503351478301
 30
0.0
 11
15068.29270214025
 21
10055.503351478301
 31
0.0
 13
15138.29270214025
 23
9932.9949363804972
 33
0.0
 14
14998.29270214025
 24
9927.2921789760603
 34
0.0
 50
180.0
  0
LINE
  5
129
  8
____1
  6
DASHED
 62
     7
 10
15896.79270239126
 20
11585.207142655319
 30
0.0
 11
14999.79270239126
 21
11585.207142655319
 31
0.0
  0
LINE
  5
12A
  8
____1
  6
CONTINUOUS
 62
     5
 10
15898.292702391271
 20
11586.707142655319
 30
0.0
 11
14999.79270239126
 21
11586.707142655319
 31
0.0
  0
LINE
  5
12B
  8
____1
  6
CONTINUOUS
 62
     5
 10
14999.79270239126
 20
11585.207142655319
 30
0.0
 11
15184.79270239126
 21
11400.207142655319
 31
0.0
  0
DIMENSION
  5
13A
  8
______
  6
CONTINUOUS
 62
     7
  2
*D14
 10
14937.600956132061
 20
11336.707142655319
 30
0.0
 11
14937.600956132061
 21
11461.707142655319
 31
0.0
 13
14998.29270239126
 23
11586.70714265533
 33
0.0
 14
15125.79270239126
 24
11336.707142655319
 34
0.0
 50
90.0
  0
INSERT
  5
144
  8
______
  6
CONTINUOUS
 62
     7
  2
C4
 10
0.0
 20
0.0
 30
0.0
  0
INSERT
  5
14E
  8
______
  6
CONTINUOUS
 62
     7
  2
C5
 10
0.0
 20
0.0
 30
0.0
  0
DIMENSION
  5
15B
  8
______
  6
CONTINUOUS
 62
     7
  2
*D17
 10
14998.29270239126
 20
11638.90750784275
 30
0.0
 11
15068.29270239126
 21
11638.90750784275
 31
0.0
 13
15138.29270239126
 23
11358.457142655319
 33
0.0
 14
14998.29270239126
 24
11586.70714265533
 34
0.0
 50
180.0
  0
DIMENSION
  5
16A
  8
______
  6
CONTINUOUS
 62
     7
  2
*D18
 10
14937.600956132061
 20
10936.707142655319
 30
0.0
 11
14937.600956132061
 21
11136.707142655319
 31
0.0
 13
15125.79270239126
 23
11336.707142655319
 33
0.0
 14
15125.79270239126
 24
10936.707142655319
 34
0.0
 50
90.0
  0
INSERT
  5
174
  8
____1
  6
CONTINUOUS
 62
     7
  2
C6
 10
0.0
 20
0.0
 30
0.0
  0
INSERT
  5
17E
  8
____1
  6
CONTINUOUS
 62
     7
  2
C7
 10
0.0
 20
0.0
 30
0.0
  0
INSERT
  5
188
  8
____1
  6
CONTINUOUS
 62
     7
  2
C8
 10
0.0
 20
0.0
 30
0.0
  0
INSERT
  5
192
  8
____1
  6
CONTINUOUS
 62
     7
  2
C9
 10
0.0
 20
0.0
 30
0.0
  0
TEXT
  5
193
  8
____1
  6
DOT
 62
     7
 10
16775.914650791201
 20
9795.9503434011222
 30
0.0
 40
28.222221374511719
  1
園　原
  7
STYLE1
  0
INSERT
  5
254
  8
____1
  6
CONTINUOUS
 62
   254
  2
C10
 10
0.0
 20
0.0
 30
0.0
  0
DIMENSION
  5
263
  8
______
  6
CONTINUOUS
 62
     7
  2
*D24
 10
15987.23096160879
 20
10860.207142655319
 30
0.0
 11
15987.23096160879
 21
11118.00227093049
 31
0.0
 13
15718.29253731085
 23
11400.20714265533
 33
0.0
 14
15718.29253731085
 24
10860.207142655319
 34
0.0
 50
90.0
  0
DIMENSION
  5
272
  8
______
  6
CONTINUOUS
 62
     7
  2
*D25
 10
16146.36736745376
 20
11586.70714265533
 30
0.0
 11
16146.36736745376
 21
11115.57532220441
 31
0.0
 13
15898.292702391271
 23
10686.70714265533
 33
0.0
 14
15898.292702391271
 24
11586.70714265533
 34
0.0
 50
90.0
  0
INSERT
  5
27C
  8
______
  6
CONTINUOUS
 62
     7
  2
C11
 10
0.0
 20
0.0
 30
0.0
  0
INSERT
  5
286
  8
____1
  6
CONTINUOUS
 62
     7
  2
C12
 10
0.0
 20
0.0
 30
0.0
  0
INSERT
  5
290
  8
____1
  6
CONTINUOUS
 62
     7
  2
C13
 10
0.0
 20
0.0
 30
0.0
  0
INSERT
  5
2A8
  8
____1
  6
DASHED2
 62
     4
  2
C14
 10
0.0
 20
0.0
 30
0.0
  0
INSERT
  5
2C0
  8
____1
  6
DASHED2
 62
     4
  2
C15
 10
0.0
 20
0.0
 30
0.0
  0
INSERT
  5
2D8
  8
____1
  6
DASHED2
 62
     4
  2
C16
 10
0.0
 20
0.0
 30
0.0
  0
LINE
  5
2D9
  8
____1
  6
CONTINUOUS
 62
     5
 10
14998.29270239126
 20
10686.70714265533
 30
0.0
 11
14998.29270239126
 21
10688.20714265533
 31
0.0
  0
LINE
  5
2DA
  8
____1
  6
CONTINUOUS
 62
     5
 10
14998.29270239126
 20
10688.20714265533
 30
0.0
 11
14999.79270239126
 21
10688.20714265533
 31
0.0
  0
LINE
  5
2DB
  8
____1
  6
CONTINUOUS
 62
     7
 10
14998.29270239126
 20
10688.20714265533
 30
0.0
 11
14999.79270239126
 21
10688.20714265533
 31
0.0
  0
LINE
  5
2DC
  8
____1
  6
CONTINUOUS
 62
     5
 10
14998.29270239126
 20
10688.20714265533
 30
0.0
 11
14999.79270239126
 21
10688.20714265533
 31
0.0
  0
ARC
  5
2DD
  8
____1
  6
CONTINUOUS
 62
     5
 10
14999.79270214025
 20
9927.2921789760603
 30
0.0
 40
1.500000000000002
 50
101.3099324740066
 51
180.0
  0
LINE
  5
2DE
  8
____1
  6
CONTINUOUS
 62
     5
 10
14998.29270214025
 20
9880.0218848301374
 30
0.0
 11
14998.29270214025
 21
9927.2921789760603
 31
0.0
  0
ARC
  5
2DF
  8
____1
  6
CONTINUOUS
 62
     5
 10
14999.79270214025
 20
9880.0218848301374
 30
0.0
 40
1.5
 50
180.0
 51
0.0
  0
LINE
  5
2E0
  8
____1
  6
CONTINUOUS
 62
     5
 10
15001.29270214025
 20
9880.0218848301374
 30
0.0
 11
15001.29270214025
 21
9888.5218848301374
 31
0.0
  0
LINE
  5
2E1
  8
____1
  6
CONTINUOUS
 62
     5
 10
14999.79270214025
 20
9888.5218848301374
 30
0.0
 11
15001.29270214025
 21
9888.5218848301374
 31
0.0
  0
LINE
  5
2E2
  8
____1
  6
CONTINUOUS
 62
     5
 10
14999.79270214025
 20
9880.0218848301374
 30
0.0
 11
14999.79270214025
 21
9927.2921789760603
 31
0.0
  0
INSERT
  5
2EC
  8
______
  6
CONTINUOUS
 62
     7
  2
C17
 10
0.0
 20
0.0
 30
0.0
  0
LINE
  5
2ED
  8
____1
  6
CONTINUOUS
 62
     5
 10
15097.844769274931
 20
9946.9025924029938
 30
0.0
 11
15098.138945211131
 21
9945.4317217361586
 31
0.0
  0
INSERT
  5
2FB
  8
____1
  6
DASHED2
 62
     7
  2
C18
 10
0.0
 20
0.0
 30
0.0
  0
INSERT
  5
359
  8
____1
  6
DASHED2
 62
     7
  2
C19
 10
0.0
 20
0.0
 30
0.0
  0
INSERT
  5
361
  8
____1
  6
DASHED2
 62
     7
  2
C25
 10
0.0
 20
0.0
 30
0.0
  0
LINE
  5
362
  8
____1
  6
DASHED
 62
     5
 10
15896.79270239126
 20
10686.70714265533
 30
0.0
 11
15896.79270239126
 21
10688.20714265533
 31
0.0
  0
LINE
  5
363
  8
____1
  6
CONTINUOUS
 62
     5
 10
17017.697081598231
 20
10687.91296845262
 30
0.0
 11
16987.967375744149
 21
10836.561497723011
 31
0.0
  0
DIMENSION
  5
376
  8
______
  6
CONTINUOUS
 62
     7
  2
*D41
 10
16987.93824675768
 20
10572.44981865423
 30
0.0
 11
16984.143291334629
 21
10572.44981865423
 31
0.0
 13
16980.34833591156
 23
10861.71120166384
 33
0.0
 14
16987.93824675768
 24
10836.85567192571
 34
0.0
  0
DIMENSION
  5
38A
  8
______
  6
CONTINUOUS
 62
     7
  2
*D42
 10
17017.93824675768
 20
10572.445767228081
 30
0.0
 11
17002.938246757691
 21
10572.445767228081
 31
0.0
 13
16987.93824675768
 23
10836.70714265533
 33
0.0
 14
17017.93824675768
 24
10686.70714265533
 34
0.0
  0
LINE
  5
38B
  8
____1
  6
DASHED
 62
     7
 10
14999.79270239126
 20
10688.20714265533
 30
0.0
 11
15896.79270239126
 21
10688.20714265533
 31
0.0
  0
LINE
  5
38C
  8
____1
  6
CONTINUOUS
 62
     5
 10
15699.792702140259
 20
9958.5218848301392
 30
0.0
 11
15699.792702140259
 21
10007.021884830139
 31
0.0
  0
ARC
  5
38D
  8
____1
  6
CONTINUOUS
 62
     5
 10
15699.792702140259
 20
9958.5218848301392
 30
0.0
 40
1.5
 50
180.0
 51
-90.0
  0
LINE
  5
38E
  8
____1
  6
CONTINUOUS
 62
     5
 10
15896.792702140259
 20
9888.5218848301374
 30
0.0
 11
15895.292702140259
 21
9888.5218848301374
 31
0.0
  0
LINE
  5
38F
  8
____1
  6
CONTINUOUS
 62
     5
 10
15198.29270214025
 20
9958.5218848301392
 30
0.0
 11
15198.29270214025
 21
10007.021884830139
 31
0.0
  0
LINE
  5
390
  8
____1
  6
CONTINUOUS
 62
     5
 10
15706.292702140259
 20
10008.52188483013
 30
0.0
 11
15699.792702140259
 21
10008.52188483013
 31
0.0
  0
LINE
  5
391
  8
____1
  6
CONTINUOUS
 62
     5
 10
15897.086876342961
 20
9928.7630499895968
 30
0.0
 11
15748.43834707257
 21
9958.4927558436757
 31
0.0
  0
LINE
  5
392
  8
____1
  6
CONTINUOUS
 62
     5
 10
15148.441231410639
 20
9958.5218848301392
 30
0.0
 11
15196.79270214025
 21
9958.5218848301392
 31
0.0
  0
ARC
  5
393
  8
____1
  6
CONTINUOUS
 62
     5
 10
15896.792702140259
 20
9927.2921789760603
 30
0.0
 40
1.500000000000002
 50
0.0
 51
78.690067525993413
  0
ARC
  5
394
  8
____1
  6
CONTINUOUS
 62
     5
 10
15148.441231410639
 20
9957.0218848301392
 30
0.0
 40
1.5
 50
90.0
 51
101.3099324740066
  0
ARC
  5
395
  8
____1
  6
CONTINUOUS
 62
     5
 10
15748.14417286987
 20
9957.0218848301392
 30
0.0
 40
1.5
 50
78.690067525993413
 51
90.0
  0
LINE
  5
396
  8
____1
  6
CONTINUOUS
 62
     5
 10
15148.441231410639
 20
9957.0218848301392
 30
0.0
 11
15196.79270214025
 21
9957.0218848301392
 31
0.0
  0
LINE
  5
397
  8
____1
  6
CONTINUOUS
 62
     5
 10
15706.292702140259
 20
10007.021884830139
 30
0.0
 11
15699.792702140259
 21
10007.021884830139
 31
0.0
  0
LINE
  5
398
  8
____1
  6
CONTINUOUS
 62
     5
 10
15748.14417286987
 20
9957.0218848301392
 30
0.0
 11
15699.792702140259
 21
9957.0218848301392
 31
0.0
  0
LINE
  5
399
  8
____1
  6
CONTINUOUS
 62
     5
 10
15190.29270214025
 20
10007.021884830139
 30
0.0
 11
15196.79270214025
 21
10007.021884830139
 31
0.0
  0
ARC
  5
39A
  8
____1
  6
CONTINUOUS
 62
     5
 10
15196.79270214025
 20
10007.021884830139
 30
0.0
 40
1.5
 50
0.0
 51
90.0
  0
LINE
  5
39B
  8
____1
  6
CONTINUOUS
 62
     5
 10
15190.29270214025
 20
10007.021884830139
 30
0.0
 11
15190.29270214025
 21
10008.52188483013
 31
0.0
  0
LINE
  5
39C
  8
____1
  6
CONTINUOUS
 62
     5
 10
15190.29270214025
 20
10008.52188483013
 30
0.0
 11
15196.79270214025
 21
10008.52188483013
 31
0.0
  0
ARC
  5
39D
  8
____1
  6
CONTINUOUS
 62
     5
 10
15196.79270214025
 20
9958.5218848301392
 30
0.0
 40
1.5
 50
-90.0
 51
0.0
  0
LINE
  5
39E
  8
____1
  6
CONTINUOUS
 62
     5
 10
15898.292702140259
 20
9880.0218848301374
 30
0.0
 11
15898.292702140259
 21
9927.2921789760603
 31
0.0
  0
LINE
  5
39F
  8
____1
  6
CONTINUOUS
 62
     5
 10
15895.292702140259
 20
9880.0218822508905
 30
0.0
 11
15895.292702140259
 21
9888.5218848301374
 31
0.0
  0
ARC
  5
3A0
  8
____1
  6
CONTINUOUS
 62
     5
 10
15896.792702140259
 20
9880.0218848301374
 30
0.0
 40
1.5
 50
-179.99990147995459
 51
0.0
  0
TEXT
  5
3A1
  8
____1
  6
DOT
 62
     7
 10
16775.914650791201
 20
9839.9503434011203
 30
0.0
 40
28.222221374511719
  1
園　原
  7
STYLE1
  0
INSERT
  5
3AB
  8
____1
  6
CONTINUOUS
 62
     7
  2
C26
 10
0.0
 20
0.0
 30
0.0
  0
INSERT
  5
3B5
  8
____1
  6
CONTINUOUS
 62
     7
  2
C27
 10
0.0
 20
0.0
 30
0.0
  0
INSERT
  5
3BF
  8
____1
  6
CONTINUOUS
 62
     7
  2
C28
 10
0.0
 20
0.0
 30
0.0
  0
LINE
  5
3C0
  8
____1
  6
CONTINUOUS
 62
     5
 10
15190.29270214025
 20
10007.021884830139
 30
0.0
 11
15196.79270214025
 21
10007.021884830139
 31
0.0
  0
LINE
  5
3C1
  8
____1
  6
DASHED2
 62
     7
 10
15706.29270239126
 20
10367.240510715639
 30
0.0
 11
15706.29270239126
 21
10361.240510715639
 31
0.0
  0
LINE
  5
3C2
  8
____1
  6
DASHED2
 62
     7
 10
15190.29270239126
 20
10367.240510715639
 30
0.0
 11
15706.29270239126
 21
10367.240510715639
 31
0.0
  0
LINE
  5
3C3
  8
____1
  6
DASHED2
 62
     7
 10
15190.29270239126
 20
10361.240510715639
 30
0.0
 11
15190.29270239126
 21
10367.240510715639
 31
0.0
  0
LINE
  5
3C4
  8
____1
  6
DASHED2
 62
     7
 10
15706.29270239126
 20
10361.240510715639
 30
0.0
 11
15190.29270239126
 21
10361.240510715639
 31
0.0
  0
LINE
  5
3C5
  8
____1
  6
CONTINUOUS
 62
     5
 10
15155.79270214025
 20
9927.9949363804972
 30
0.0
 11
15122.02240651636
 21
9927.9949363804972
 31
0.0
  0
LINE
  5
3C6
  8
____1
  6
CONTINUOUS
 62
     5
 10
15117.75055380111
 20
9949.3540690580649
 30
0.0
 11
15122.02240651636
 21
9927.9949363804972
 31
0.0
  0
LINE
  5
3C7
  8
____1
  6
CONTINUOUS
 62
     5
 10
15177.54270239126
 20
10010.14941188364
 30
0.0
 11
15177.54270239126
 21
9967.6117951834367
 31
0.0
  0
ARC
  5
3C8
  8
____1
  6
CONTINUOUS
 62
     5
 10
15716.04270239126
 20
10010.149411883631
 30
0.0
 40
1.499999999998181
 50
0.0
 51
87.875300649524476
  0
LINE
  5
3C9
  8
____1
  6
CONTINUOUS
 62
     5
 10
15179.04270239126
 20
10010.14941188364
 30
0.0
 11
15179.042702391271
 21
9967.6117956762791
 31
0.0
  0
LINE
  5
3CA
  8
____1
  6
CONTINUOUS
 62
     5
 10
15716.04270239126
 20
10010.149411883631
 30
0.0
 11
15447.48709064013
 21
10020.11282691972
 31
0.0
  0
LINE
  5
3CB
  8
____1
  6
CONTINUOUS
 62
     5
 10
15196.79270214025
 20
9958.5218848301392
 30
0.0
 11
15196.79270214025
 21
10007.021884830139
 31
0.0
  0
ARC
  5
3CC
  8
____1
  6
CONTINUOUS
 62
     5
 10
15716.04270239126
 20
9967.6117956762755
 30
0.0
 40
1.499999999999563
 50
-179.999958349492
 51
-0.0000777974832642
  0
ARC
  5
3CD
  8
____1
  6
CONTINUOUS
 62
     5
 10
15179.04270239126
 20
9967.6117956762791
 30
0.0
 40
1.5000000000025331
 50
-179.99998117466629
 51
-0.0001053151470497
  0
LINE
  5
3CE
  8
____1
  6
CONTINUOUS
 62
     5
 10
15706.29270214025
 20
10007.021884830139
 30
0.0
 11
15706.29270214025
 21
10008.52188483013
 31
0.0
  0
LINE
  5
3CF
  8
____1
  6
CONTINUOUS
 62
     5
 10
15716.0983141424
 20
10011.64838064019
 30
0.0
 11
15447.54270239126
 21
10021.61179567627
 31
0.0
  0
LINE
  5
3D0
  8
____1
  6
CONTINUOUS
 62
     5
 10
15155.79270214025
 20
9926.4949363804972
 30
0.0
 11
15120.79270214025
 21
9926.4949363804972
 31
0.0
  0
LINE
  5
3D1
  8
____1
  6
CONTINUOUS
 62
     5
 10
15116.27968343545
 20
9949.0598916159961
 30
0.0
 11
15120.79270214025
 21
9926.4949363804972
 31
0.0
  0
LINE
  5
3D2
  8
____1
  6
CENTER2
 62
     3
 10
15758.29270214025
 20
9932.9949363804972
 30
0.0
 11
15758.29270214025
 21
9921.4949363804972
 31
0.0
  0
LINE
  5
3D3
  8
____1
  6
CONTINUOUS
 62
     5
 10
15764.29270214025
 20
9927.9949363804972
 30
0.0
 11
15764.29270214025
 21
9926.4949363804972
 31
0.0
  0
INSERT
  5
3E4
  8
____1
  6
DASHED2
 62
   254
  2
C29
 10
0.0
 20
0.0
 30
0.0
  0
LINE
  5
3E5
  8
____1
  6
CONTINUOUS
 62
     5
 10
15898.29270239126
 20
10686.70714265533
 30
0.0
 11
15896.79270239126
 21
10686.70714265533
 31
0.0
  0
LINE
  5
3E6
  8
____1
  6
CONTINUOUS
 62
     5
 10
15896.79270239126
 20
10686.70714265533
 30
0.0
 11
15896.79270239126
 21
10688.20714265533
 31
0.0
  0
LINE
  5
3E7
  8
____1
  6
CONTINUOUS
 62
     5
 10
15698.292702140259
 20
9958.5218848301392
 30
0.0
 11
15698.292702140259
 21
10007.021884830139
 31
0.0
  0
LINE
  5
3E8
  8
____1
  6
CONTINUOUS
 62
     5
 10
15748.14417286987
 20
9958.5218848301392
 30
0.0
 11
15699.792702140259
 21
9958.5218848301392
 31
0.0
  0
LINE
  5
3E9
  8
____1
  6
CONTINUOUS
 62
     5
 10
15780.599895687479
 20
9950.5307625015903
 30
0.0
 11
15798.74063500557
 21
9946.9025924029938
 31
0.0
  0
ARC
  5
3EA
  8
____1
  6
CONTINUOUS
 62
     5
 10
15780.305720845059
 20
9949.0598916159961
 30
0.0
 40
1.5000000000011431
 50
78.690042606978508
 51
168.68994134104059
  0
LINE
  5
3EB
  8
____1
  6
CONTINUOUS
 62
     5
 10
15740.79270214025
 20
9927.9949363804972
 30
0.0
 11
15740.79270214025
 21
9926.4949363804972
 31
0.0
  0
LINE
  5
3EC
  8
____1
  6
CONTINUOUS
 62
     5
 10
15740.79270214025
 20
9927.9949363804972
 30
0.0
 11
15774.562997764149
 21
9927.9949363804972
 31
0.0
  0
LINE
  5
3ED
  8
____1
  6
CONTINUOUS
 62
     5
 10
15778.834850479399
 20
9949.3540690580649
 30
0.0
 11
15774.562997764149
 21
9927.9949363804972
 31
0.0
  0
LINE
  5
3EE
  8
____1
  6
CENTER2
 62
     3
 10
15138.29270214025
 20
9932.9949363804972
 30
0.0
 11
15138.29270214025
 21
9921.4949363804972
 31
0.0
  0
LINE
  5
3EF
  8
____1
  6
CONTINUOUS
 62
     5
 10
15190.29270214025
 20
10008.52188483013
 30
0.0
 11
15196.79270354009
 21
10008.52188483013
 31
0.0
  0
LINE
  5
3F0
  8
____1
  6
CONTINUOUS
 62
     5
 10
15780.305720845059
 20
9949.0598916159961
 30
0.0
 11
15798.44645906937
 21
9945.4317217361586
 31
0.0
  0
ARC
  5
3F1
  8
____1
  6
CONTINUOUS
 62
     5
 10
15179.04270239126
 20
10010.14941188364
 30
0.0
 40
1.499999999998354
 50
92.124699350547544
 51
-179.99999999993051
  0
ARC
  5
3F2
  8
____1
  6
CONTINUOUS
 62
     5
 10
15116.279683435439
 20
9949.0598916159961
 30
0.0
 40
1.5000000000011431
 50
11.31005865895931
 51
101.30995739302151
  0
LINE
  5
3F3
  8
____1
  6
CONTINUOUS
 62
     5
 10
15752.29270214025
 20
9927.9949363804972
 30
0.0
 11
15752.29270214025
 21
9926.4949363804972
 31
0.0
  0
LINE
  5
3F4
  8
____1
  6
CONTINUOUS
 62
     5
 10
15798.74063500557
 20
9946.9025924029938
 30
0.0
 11
15798.44645906937
 21
9945.4317217361586
 31
0.0
  0
LINE
  5
3F5
  8
____1
  6
CONTINUOUS
 62
     5
 10
15714.54270239126
 20
9976.1117956762755
 30
0.0
 11
15716.04270239126
 21
9976.1117956762755
 31
0.0
  0
LINE
  5
3F6
  8
____1
  6
CONTINUOUS
 62
     5
 10
15716.04270239126
 20
10010.149411883631
 30
0.0
 11
15716.04270239126
 21
9967.6117956762755
 31
0.0
  0
LINE
  5
3F7
  8
____1
  6
CONTINUOUS
 62
     5
 10
15180.54270239126
 20
9976.1117956762828
 30
0.0
 11
15179.04270239126
 21
9976.1117956762828
 31
0.0
  0
LINE
  5
3F8
  8
____1
  6
CONTINUOUS
 62
     5
 10
15179.04270239126
 20
10010.14941188364
 30
0.0
 11
15447.5983141424
 21
10020.11282691972
 31
0.0
  0
LINE
  5
3F9
  8
____1
  6
CONTINUOUS
 62
     5
 10
15180.54270239126
 20
9976.1117956762828
 30
0.0
 11
15180.54270239126
 21
9967.6117929191387
 31
0.0
  0
LINE
  5
3FA
  8
____1
  6
CONTINUOUS
 62
     5
 10
15178.98709064013
 20
10011.648380640199
 30
0.0
 11
15447.54270239126
 21
10021.61179567627
 31
0.0
  0
LINE
  5
3FB
  8
____1
  6
CONTINUOUS
 62
     5
 10
15780.305720845059
 20
9949.0598916159961
 30
0.0
 11
15775.79270214025
 21
9926.4949363804972
 31
0.0
  0
LINE
  5
3FC
  8
____1
  6
CONTINUOUS
 62
     5
 10
15740.79270214025
 20
9926.4949363804972
 30
0.0
 11
15775.79270214025
 21
9926.4949363804972
 31
0.0
  0
LINE
  5
3FD
  8
____1
  6
CONTINUOUS
 62
     5
 10
15717.54270239126
 20
10010.149411883631
 30
0.0
 11
15717.54270239126
 21
9967.6117936395422
 31
0.0
  0
LINE
  5
3FE
  8
____1
  6
CONTINUOUS
 62
     5
 10
15896.792702140259
 20
9927.2921789760603
 30
0.0
 11
15748.14417286987
 21
9957.0218848301392
 31
0.0
  0
ARC
  5
3FF
  8
____1
  6
CONTINUOUS
 62
     5
 10
15699.792702140259
 20
10007.021884830139
 30
0.0
 40
1.5
 50
90.0
 51
180.0
  0
LINE
  5
400
  8
____1
  6
CONTINUOUS
 62
     5
 10
15896.792702140259
 20
9880.0218848301374
 30
0.0
 11
15896.792702140259
 21
9927.2921789760603
 31
0.0
  0
LINE
  5
401
  8
____1
  6
CONTINUOUS
 62
     5
 10
15155.79270214025
 20
9927.9949363804972
 30
0.0
 11
15155.79270214025
 21
9926.4949363804972
 31
0.0
  0
DIMENSION
  5
40E
  8
______
  6
CONTINUOUS
 62
     7
  2
*D47
 10
15740.79270214025
 20
9839.2243608716144
 30
0.0
 11
15448.29270214025
 21
9839.2243608716144
 31
0.0
 13
15155.79270214025
 23
9926.4949363804972
 33
0.0
 14
15740.79270214025
 24
9926.4949363804972
 34
0.0
  0
DIMENSION
  5
41B
  8
______
  6
CONTINUOUS
 62
     7
  2
*D48
 10
15896.792702140259
 20
9839.2243608716144
 30
0.0
 11
15836.29270214025
 21
9839.2243608716144
 31
0.0
 13
15775.79270214025
 23
9926.4949363804972
 33
0.0
 14
15896.792702140259
 24
9892.8229403211571
 34
0.0
 50
0.0000008537736463
  0
DIMENSION
  5
429
  8
______
  6
CONTINUOUS
 62
     7
  2
*D49
 10
15775.79270214025
 20
9839.2243608716144
 30
0.0
 11
15758.29270214025
 21
9839.2243608716144
 31
0.0
 13
15740.79270214025
 23
9926.4949363804972
 33
0.0
 14
15775.79270214025
 24
9926.4949363804972
 34
0.0
  0
ARC
  5
42A
  8
____1
  6
CONTINUOUS
 62
     5
 10
15122.02240651636
 20
9927.9949363804972
 30
0.0
 40
1.5000000000001961
 50
-168.69003835588919
 51
-90.000002426946097
  0
LINE
  5
42B
  8
____1
  6
DASHED2
 62
     7
 10
15144.29270214025
 20
9927.9949363804972
 30
0.0
 11
15144.29270214025
 21
9926.4949363804972
 31
0.0
  0
DIMENSION
  5
438
  8
______
  6
CONTINUOUS
 62
     7
  2
*D50
 10
15898.292702140259
 20
10055.503351478301
 30
0.0
 11
15828.29270214025
 21
10055.503351478301
 31
0.0
 13
15758.29270214025
 23
9932.9949363804972
 33
0.0
 14
15898.292702140259
 24
9927.2921789760603
 34
0.0
  0
DIMENSION
  5
448
  8
______
  6
CONTINUOUS
 62
     7
  2
*D51
 10
15259.68734624691
 20
9957.0218848301392
 30
0.0
 11
15259.68734624691
 21
9885.1666992027785
 31
0.0
 13
15155.79270214025
 23
9926.4949363804972
 33
0.0
 14
15191.007710682799
 24
9957.0218848301392
 34
0.0
 50
90.0
  0
LINE
  5
44A
  8
____1
  6
CONTINUOUS
 62
     5
 10
15116.27968343545
 20
9949.0598916159961
 30
0.0
 11
15098.138945211131
 21
9945.4317217361586
 31
0.0
  0
LINE
  5
44B
  8
____1
  6
CONTINUOUS
 62
     5
 10
15115.98550859303
 20
9950.5307625015903
 30
0.0
 11
15097.844769274931
 21
9946.9025924029938
 31
0.0
  0
INSERT
  5
45C
  8
____1
  6
DASHED2
 62
   254
  2
C30
 10
0.0
 20
0.0
 30
0.0
  0
DIMENSION
  5
46A
  8
______
  6
CONTINUOUS
 62
     7
  2
*D53
 10
15155.79270214025
 20
9839.2243608716144
 30
0.0
 11
15138.29270214025
 21
9839.2243608716144
 31
0.0
 13
15120.79270214025
 23
9926.4949363804972
 33
0.0
 14
15155.79270214025
 24
9926.4949363804972
 34
0.0
  0
LINE
  5
46B
  8
____1
  6
CONTINUOUS
 62
     5
 10
14998.29270239126
 20
11586.707142655319
 30
0.0
 11
14999.79270239126
 21
11586.707142655319
 31
0.0
  0
LINE
  5
46C
  8
____1
  6
CONTINUOUS
 62
     5
 10
14999.79270239126
 20
11586.707142655319
 30
0.0
 11
14999.79270239126
 21
11585.207142655319
 31
0.0
  0
LINE
  5
46D
  8
____1
  6
CONTINUOUS
 62
     7
 10
14999.79270239126
 20
11586.707142655319
 30
0.0
 11
14999.79270239126
 21
11585.207142655319
 31
0.0
  0
LINE
  5
46E
  8
____1
  6
CONTINUOUS
 62
     5
 10
14999.79270239126
 20
11586.707142655319
 30
0.0
 11
14999.79270239126
 21
11585.207142655319
 31
0.0
  0
INSERT
  5
478
  8
______
  6
CONTINUOUS
 62
     7
  2
C31
 10
0.0
 20
0.0
 30
0.0
  0
INSERT
  5
51D
  8
____1
  6
DASHED2
 62
     7
  2
C32
 10
0.0
 20
0.0
 30
0.0
  0
LINE
  5
51E
  8
____1
  6
DASHED
 62
     7
 10
15699.792702391271
 20
11388.207142655319
 30
0.0
 11
15198.29270239126
 21
11388.207142655319
 31
0.0
  0
LINE
  5
51F
  8
____1
  6
CONTINUOUS
 62
     5
 10
15198.29270239126
 20
11388.207142655319
 30
0.0
 11
15196.79270239126
 21
11388.207142655319
 31
0.0
  0
LINE
  5
520
  8
____1
  6
CENTER2
 62
     3
 10
15758.29270239126
 20
11324.207142655319
 30
0.0
 11
15758.29270239126
 21
11349.207142655319
 31
0.0
  0
LINE
  5
521
  8
____1
  6
CENTER2
 62
     3
 10
15770.79270239126
 20
11336.707142655319
 30
0.0
 11
15745.79270239126
 21
11336.707142655319
 31
0.0
  0
INSERT
  5
5AA
  8
____1
  6
DASHED2
 62
   254
  2
C43
 10
0.0
 20
0.0
 30
0.0
  0
LINE
  5
5AB
  8
____1
  6
CONTINUOUS
 62
     5
 10
15148.29270214025
 20
9958.5218848301392
 30
0.0
 11
15196.79270214025
 21
9958.5218848301392
 31
0.0
  0
LINE
  5
5AC
  8
____1
  6
DASHED2
 62
     7
 10
15132.29270214025
 20
9927.9949363804972
 30
0.0
 11
15132.29270214025
 21
9926.4949363804972
 31
0.0
  0
ARC
  5
5AD
  8
____1
  6
CONTINUOUS
 62
     5
 10
15774.56299776414
 20
9927.9949363804972
 30
0.0
 40
1.50000000000198
 50
-89.999997572914964
 51
-11.309961644097189
  0
LINE
  5
5AE
  8
____1
  6
DASHED2
 62
     7
 10
15718.29253731085
 20
10866.70730773574
 30
0.0
 11
15699.792702391271
 21
10885.20714265533
 31
0.0
  0
LINE
  5
5AF
  8
____1
  6
DASHED2
 62
     7
 10
15698.29270239126
 20
10885.20714265533
 30
0.0
 11
15699.792702391271
 21
10885.20714265533
 31
0.0
  0
ARC
  5
5B0
  8
____1
  6
DASHED2
 62
     7
 10
15448.29270239126
 20
10907.70714265533
 30
0.0
 40
2.5
 50
0.0
 51
180.0
  0
LINE
  5
5B1
  8
____1
  6
DASHED2
 62
     7
 10
15178.29253731085
 20
10866.70697757491
 30
0.0
 11
15196.79270239126
 21
10885.20714265533
 31
0.0
  0
LINE
  5
5B2
  8
____1
  6
CENTER2
 62
     3
 10
15770.79270239126
 20
10936.707142655319
 30
0.0
 11
15745.79270239126
 21
10936.707142655319
 31
0.0
  0
LINE
  5
5B3
  8
____1
  6
CONTINUOUS
 62
     5
 10
15898.292702391271
 20
11585.207142655319
 30
0.0
 11
15896.79270239126
 21
11585.207142655319
 31
0.0
  0
LINE
  5
5B4
  8
____1
  6
CONTINUOUS
 62
     5
 10
15898.29270239126
 20
11585.20714265533
 30
0.0
 11
15896.79270239126
 21
11585.20714265533
 31
0.0
  0
LINE
  5
5B5
  8
____1
  6
DASHED2
 62
     7
 10
15184.79270239126
 20
11400.207142655319
 30
0.0
 11
15196.79270239126
 21
11388.207142655319
 31
0.0
  0
LINE
  5
5B6
  8
____1
  6
DASHED2
 62
     7
 10
15699.79270239126
 20
11386.70714265533
 30
0.0
 11
15699.79270239126
 21
11388.20714265533
 31
0.0
  0
LINE
  5
5B7
  8
____1
  6
DASHED2
 62
     7
 10
15711.79270239126
 20
11400.207142655319
 30
0.0
 11
15699.79270239126
 21
11388.20714265533
 31
0.0
  0
LINE
  5
5B8
  8
____1
  6
CENTER2
 62
     3
 10
15138.29270239126
 20
11324.207142655319
 30
0.0
 11
15138.29270239126
 21
11349.207142655319
 31
0.0
  0
LINE
  5
5B9
  8
____1
  6
DASHED2
 62
     7
 10
15698.29270239126
 20
10885.20714265533
 30
0.0
 11
15698.29270239126
 21
11386.70714265533
 31
0.0
  0
LINE
  5
5BA
  8
____1
  6
CONTINUOUS
 62
     5
 10
15748.292702391271
 20
10836.70714265533
 30
0.0
 11
15748.292702391271
 21
11436.70714265533
 31
0.0
  0
LINE
  5
5BB
  8
____1
  6
DASHED2
 62
     7
 10
15706.29270239126
 20
10878.70714265533
 30
0.0
 11
15706.29270239126
 21
11394.70714265533
 31
0.0
  0
LINE
  5
5BC
  8
____1
  6
DASHED2
 62
     7
 10
15198.29270239126
 20
11388.207142655319
 30
0.0
 11
15198.29270239126
 21
10886.707142655319
 31
0.0
  0
LINE
  5
5BD
  8
____1
  6
DASHED
 62
     7
 10
15699.79270239126
 20
10885.20714265533
 30
0.0
 11
15699.79270239126
 21
11386.70714265533
 31
0.0
  0
LINE
  5
5BE
  8
____1
  6
DASHED2
 62
     7
 10
15699.792702391271
 20
11386.707142655319
 30
0.0
 11
15198.29270239126
 21
11386.707142655319
 31
0.0
  0
LINE
  5
5BF
  8
____1
  6
DASHED2
 62
     7
 10
15706.29270239126
 20
11394.707142655319
 30
0.0
 11
15190.29270239126
 21
11394.707142655319
 31
0.0
  0
LINE
  5
5C0
  8
____1
  6
DASHED2
 62
     7
 10
15198.29270239126
 20
11386.707142655319
 30
0.0
 11
15198.29270239126
 21
11388.207142655319
 31
0.0
  0
LINE
  5
5C1
  8
____1
  6
DASHED2
 62
     7
 10
15198.29270239126
 20
11388.207142655319
 30
0.0
 11
15196.79270239126
 21
11388.207142655319
 31
0.0
  0
LINE
  5
5C2
  8
____1
  6
CONTINUOUS
 62
     5
 10
15699.792702391271
 20
11386.707142655319
 30
0.0
 11
15699.792702391271
 21
11388.207142655319
 31
0.0
  0
LINE
  5
5C3
  8
____1
  6
CONTINUOUS
 62
     5
 10
15714.54270239126
 20
9976.1117956762755
 30
0.0
 11
15714.54270239126
 21
9967.6117945858678
 31
0.0
  0
LINE
  5
5C4
  8
____1
  6
CONTINUOUS
 62
     5
 10
15699.79270074042
 20
10008.52188483013
 30
0.0
 11
15706.292702140259
 21
10008.52188483013
 31
0.0
  0
DIMENSION
  5
5D1
  8
______
  6
CONTINUOUS
 62
     7
  2
*D69
 10
15758.29270214025
 20
10055.503351478301
 30
0.0
 11
15448.29270214025
 21
10055.503351478301
 31
0.0
 13
15138.29270214025
 23
9932.9949363804972
 33
0.0
 14
15758.29270214025
 24
9932.9949363804972
 34
0.0
  0
TEXT
  5
5D2
  8
____1
  6
CONTINUOUS
 62
     7
 10
15294.543489768619
 20
9757.8576666304325
 30
0.0
 40
33.866664886474609
  1
ブラケット部断面図
  7
STYLE1
  0
LINE
  5
5D3
  8
____1
  6
DASHED2
 62
     7
 10
15450.79270239126
 20
10885.20714265533
 30
0.0
 11
15450.79270239126
 21
10886.70714265533
 31
0.0
  0
LINE
  5
5D4
  8
____1
  6
DASHED2
 62
     7
 10
15196.79270239126
 20
10886.70714265533
 30
0.0
 11
15698.29270239126
 21
10886.70714265533
 31
0.0
  0
LINE
  5
5D5
  8
____1
  6
CONTINUOUS
 62
     5
 10
15698.29270239126
 20
10886.70714265533
 30
0.0
 11
15698.29270239126
 21
10885.20714265533
 31
0.0
  0
LINE
  5
5D6
  8
____1
  6
DASHED2
 62
     7
 10
15196.79270239126
 20
10886.70714265533
 30
0.0
 11
15196.79270239126
 21
10885.20714265533
 31
0.0
  0
LINE
  5
5D7
  8
____1
  6
DASHED2
 62
     7
 10
15698.29270239126
 20
10885.20714265533
 30
0.0
 11
15699.79270239126
 21
10885.20714265533
 31
0.0
  0
LINE
  5
5D8
  8
____1
  6
CENTER2
 62
     3
 10
15150.79270239126
 20
10936.707142655319
 30
0.0
 11
15125.79270239126
 21
10936.707142655319
 31
0.0
  0
LINE
  5
5D9
  8
____1
  6
CONTINUOUS
 62
     5
 10
15896.79270239126
 20
11585.20714265533
 30
0.0
 11
15711.79270239126
 21
11400.207142655319
 31
0.0
  0
LINE
  5
5DA
  8
____1
  6
CENTER2
 62
     3
 10
15150.79270239126
 20
11336.707142655319
 30
0.0
 11
15125.79270239126
 21
11336.707142655319
 31
0.0
  0
LINE
  5
5DB
  8
____1
  6
CONTINUOUS
 62
     5
 10
15148.29270239126
 20
10836.70714265533
 30
0.0
 11
15748.29270239126
 21
10836.70714265533
 31
0.0
  0
LINE
  5
5DC
  8
____1
  6
DASHED2
 62
     7
 10
15190.29270239126
 20
10878.70714265533
 30
0.0
 11
15706.29270239126
 21
10878.70714265533
 31
0.0
  0
LINE
  5
5DD
  8
____1
  6
CONTINUOUS
 62
     5
 10
15148.29270239126
 20
11436.707142655319
 30
0.0
 11
15148.29270239126
 21
10836.707142655319
 31
0.0
  0
LINE
  5
5DE
  8
____1
  6
DASHED
 62
     7
 10
15196.79270239126
 20
11388.207142655319
 30
0.0
 11
15196.79270239126
 21
10886.707142655319
 31
0.0
  0
LINE
  5
5DF
  8
____1
  6
DASHED2
 62
     7
 10
15190.29270239126
 20
11394.707142655319
 30
0.0
 11
15190.29270239126
 21
10878.707142655319
 31
0.0
  0
LINE
  5
5E0
  8
____1
  6
DASHED2
 62
     7
 10
15450.79270239126
 20
10886.70714265533
 30
0.0
 11
15450.79270239126
 21
10907.70714265533
 31
0.0
  0
ARC
  5
5E1
  8
____1
  6
DASHED2
 62
     7
 10
15448.29270239126
 20
10907.70714265533
 30
0.0
 40
2.5
 50
180.0
 51
0.0
  0
LINE
  5
5E2
  8
____1
  6
DASHED2
 62
     7
 10
15445.79270239126
 20
10907.70714265533
 30
0.0
 11
15445.79270239126
 21
10886.70714265533
 31
0.0
  0
LINE
  5
5E3
  8
____1
  6
CONTINUOUS
 62
     5
 10
15196.79270239126
 20
10886.707142655319
 30
0.0
 11
15196.79270239126
 21
10885.207142655319
 31
0.0
  0
LINE
  5
5E4
  8
____1
  6
DASHED2
 62
     7
 10
15445.79270239126
 20
10888.461489804709
 30
0.0
 11
15450.79270239126
 21
10888.461489804709
 31
0.0
  0
LINE
  5
5E5
  8
____1
  6
DASHED2
 62
     7
 10
15445.79270239126
 20
10886.70714265533
 30
0.0
 11
15445.79270239126
 21
10885.20714265533
 31
0.0
  0
LINE
  5
5E6
  8
____1
  6
CONTINUOUS
 62
     5
 10
15718.29253731085
 20
11400.207142655319
 30
0.0
 11
15178.29253731085
 21
10860.207142655319
 31
0.0
  0
LINE
  5
5E7
  8
____1
  6
CONTINUOUS
 62
     5
 10
15178.29253731085
 20
11400.207142655319
 30
0.0
 11
15718.29253731085
 21
10860.207142655319
 31
0.0
  0
LINE
  5
5E8
  8
____1
  6
CONTINUOUS
 62
     5
 10
15898.292702391271
 20
11586.707142655319
 30
0.0
 11
15898.292702391271
 21
11585.207142655319
 31
0.0
  0
LINE
  5
5E9
  8
____1
  6
CONTINUOUS
 62
     5
 10
15698.29270239126
 20
11386.70714265533
 30
0.0
 11
15699.79270239126
 21
11386.70714265533
 31
0.0
  0
LINE
  5
5EA
  8
____1
  6
CONTINUOUS
 62
     5
 10
15748.292702391271
 20
11436.707142655319
 30
0.0
 11
15148.29270239126
 21
11436.707142655319
 31
0.0
  0
LINE
  5
5EB
  8
____1
  6
DASHED2
 62
     7
 10
15445.79270239126
 20
10885.20714265533
 30
0.0
 11
15450.79270239126
 21
10885.20714265533
 31
0.0
  0
DIMENSION
  5
5F6
  8
______
  6
CONTINUOUS
 62
     7
  2
*D70
 10
15136.24058153131
 20
11337.56898693061
 30
0.0
 11
15312.25443018481
 21
11739.571647256989
 31
0.0
 70
   131
 15
15140.34482325122
 25
11348.84529838004
 35
0.0
 40
0.0
  0
INSERT
  5
600
  8
______
  6
CONTINUOUS
 62
     7
  2
C46
 10
0.0
 20
0.0
 30
0.0
  0
INSERT
  5
613
  8
____1
  6
DASHED2
 62
   254
  2
C47
 10
0.0
 20
0.0
 30
0.0
  0
INSERT
  5
628
  8
____1
  6
CONTINUOUS
 62
     7
  2
C48
 10
0.0
 20
0.0
 30
0.0
  0
INSERT
  5
649
  8
____1
  6
CONTINUOUS
 62
   254
  2
C49
 10
0.0
 20
0.0
 30
0.0
  0
LINE
  5
64A
  8
____1
  6
DASHED2
 62
     7
 10
15328.39253731085
 20
11398.707142655319
 30
0.0
 11
15328.39253731085
 21
11397.207142655319
 31
0.0
  0
LINE
  5
64B
  8
____1
  6
DASHED2
 62
     7
 10
15264.19253731085
 20
11397.207142655319
 30
0.0
 11
15181.29253731085
 21
11397.207142655319
 31
0.0
  0
LINE
  5
64C
  8
____1
  6
DASHED2
 62
     7
 10
15632.39253731085
 20
11398.707142655319
 30
0.0
 11
15632.39253731085
 21
11397.207142655319
 31
0.0
  0
LINE
  5
64D
  8
____1
  6
DASHED2
 62
     7
 10
15568.19253731085
 20
11398.707142655319
 30
0.0
 11
15568.19253731085
 21
11397.207142655319
 31
0.0
  0
LINE
  5
64E
  8
____1
  6
DASHED2
 62
     7
 10
15716.79253731085
 20
11398.707142655319
 30
0.0
 11
15716.79253731085
 21
10861.707142655319
 31
0.0
  0
LINE
  5
64F
  8
____1
  6
DASHED2
 62
     7
 10
15715.29253731085
 20
11397.207142655319
 30
0.0
 11
15715.29253731085
 21
10863.207142655319
 31
0.0
  0
DIMENSION
  5
65C
  8
______
  6
CONTINUOUS
 62
     7
  2
*D75
 10
15758.29270239126
 20
11638.90750784275
 30
0.0
 11
15448.29270239126
 21
11638.90750784275
 31
0.0
 13
15138.29270239126
 23
11358.457142655319
 33
0.0
 14
15758.29270239126
 24
11358.457142655319
 34
0.0
  0
DIMENSION
  5
669
  8
______
  6
CONTINUOUS
 62
     7
  2
*D76
 10
15898.29270239126
 20
11638.90750784275
 30
0.0
 11
15828.29270239126
 21
11638.90750784275
 31
0.0
 13
15758.29270239126
 23
11358.457142655319
 33
0.0
 14
15898.29270239126
 24
11586.70714265533
 34
0.0
  0
LINE
  5
66A
  8
____1
  6
DASHED2
 62
     7
 10
15264.19253731085
 20
11398.707142655319
 30
0.0
 11
15264.19253731085
 21
11397.207142655319
 31
0.0
  0
LINE
  5
66B
  8
____1
  6
DASHED2
 62
     7
 10
15715.29253731085
 20
11397.207142655319
 30
0.0
 11
15632.39253731085
 21
11397.207142655319
 31
0.0
  0
INSERT
  5
696
  8
____1
  6
CONTINUOUS
 62
   254
  2
C50
 10
0.0
 20
0.0
 30
0.0
  0
LINE
  5
697
  8
____1
  6
DASHED2
 62
     7
 10
15568.19253731085
 20
11397.207142655319
 30
0.0
 11
15328.39253731085
 21
11397.207142655319
 31
0.0
  0
INSERT
  5
6AA
  8
____1
  6
DASHED2
 62
   254
  2
C53
 10
0.0
 20
0.0
 30
0.0
  0
LINE
  5
6AB
  8
____1
  6
DASHED2
 62
     7
 10
15716.79253731085
 20
11398.707142655319
 30
0.0
 11
15179.79253731085
 21
11398.707142655319
 31
0.0
  0
INSERT
  5
6D6
  8
____1
  6
CONTINUOUS
 62
   254
  2
C54
 10
0.0
 20
0.0
 30
0.0
  0
POLYLINE
  5
6D7
  8
____1
  6
CONTINUOUS
 62
     5
 66
     1
 10
0.0
 20
0.0
 30
0.0
 70
     8
  0
VERTEX
  5
6D8
  8
____1
 62
     5
 10
15763.01432617428
 20
11273.56293347156
 30
0.0
 70
    32
  0
SEQEND
  5
6D9
  8
____1
 62
     5
  0
LINE
  5
6DA
  8
____1
  6
CENTER2
 62
     3
 10
15758.29270239126
 20
10924.207142655319
 30
0.0
 11
15758.29270239126
 21
10949.207142655319
 31
0.0
  0
LINE
  5
6DB
  8
____1
  6
CENTER2
 62
     3
 10
15138.29270239126
 20
10924.207142655319
 30
0.0
 11
15138.29270239126
 21
10949.207142655319
 31
0.0
  0
LINE
  5
6DC
  8
____1
  6
DASHED
 62
     7
 10
15196.79270239126
 20
10885.20714265533
 30
0.0
 11
15698.29270239126
 21
10885.20714265533
 31
0.0
  0
LINE
  5
6DD
  8
____1
  6
CONTINUOUS
 62
     5
 10
15198.29270239126
 20
10886.707142655319
 30
0.0
 11
15196.79270239126
 21
10886.707142655319
 31
0.0
  0
INSERT
  5
73D
  8
____1
  6
DASHED2
 62
     7
  2
C57
 10
0.0
 20
0.0
 30
0.0
  0
INSERT
  5
745
  8
____1
  6
CONTINUOUS
 62
     5
  2
C58
 10
0.0
 20
0.0
 30
0.0
  0
TEXT
  5
746
  8
____1
  6
CONTINUOUS
 62
     7
 10
16600.02575766376
 20
9883.8930046515416
 30
0.0
 40
28.222221374511719
  1
1：8
  7
STYLE1
  0
TEXT
  5
747
  8
____1
  6
DOT
 62
     7
 10
16475.914650791201
 20
9839.9503434011203
 30
0.0
 40
28.222221374511719
  1
永　井
  7
STYLE1
  0
TEXT
  5
748
  8
____1
  6
DOT
 62
     7
 10
16475.914650791201
 20
9795.9503434011222
 30
0.0
 40
28.222221374511719
  1
永　井
  7
STYLE1
  0
TEXT
  5
749
  8
____1
  6
CONTINUOUS
 62
     7
 10
16371.80353628925
 20
9883.8930046515416
 30
0.0
 40
28.222221374511719
  1
H18.4.17
  7
STYLE1
  0
TEXT
  5
74A
  8
____1
  6
CONTINUOUS
 62
     7
 10
16357.19242369464
 20
10170.139437718701
 30
0.0
 40
28.222221374511719
  1
4
  7
STYLE1
  0
TEXT
  5
74B
  8
____1
  6
CONTINUOUS
 62
     7
 10
16357.19242369464
 20
10370.139437718701
 30
0.0
 40
28.222221374511719
  1
9
  7
STYLE1
  0
TEXT
  5
74C
  8
____1
  6
CONTINUOUS
 62
     7
 10
16357.19242369464
 20
10290.139437718701
 30
0.0
 40
28.222221374511719
  1
7
  7
STYLE1
  0
TEXT
  5
74D
  8
____1
  6
CONTINUOUS
 62
     7
 10
16357.19242369464
 20
10210.139437718701
 30
0.0
 40
28.222221374511719
  1
5
  7
STYLE1
  0
TEXT
  5
74E
  8
____1
  6
CONTINUOUS
 62
     7
 10
16357.19242369464
 20
10250.139437718701
 30
0.0
 40
28.222221374511719
  1
6
  7
STYLE1
  0
TEXT
  5
74F
  8
____1
  6
CONTINUOUS
 62
     7
 10
16357.19242369464
 20
10330.139437718701
 30
0.0
 40
28.222221374511719
  1
8
  7
STYLE1
  0
TEXT
  5
750
  8
____1
  6
CONTINUOUS
 62
     7
 10
16543.803536289241
 20
10130.139437718701
 30
0.0
 40
28.222221374511719
  1
丁　　番
  7
STYLE1
  0
TEXT
  5
751
  8
____1
  6
CONTINUOUS
 62
     7
 10
16529.692421787291
 20
10370.139437718701
 30
0.0
 40
28.222221374511719
  1
ブラケット
  7
STYLE1
  0
TEXT
  5
752
  8
____1
  6
CONTINUOUS
 62
     7
 10
16445.02576147846
 20
10170.139437718701
 30
0.0
 40
28.222221374511719
  1
天板側取付金具ユニット
  7
STYLE1
  0
TEXT
  5
753
  8
____1
  6
CONTINUOUS
 62
     7
 10
16543.803536289241
 20
10090.139437718701
 30
0.0
 40
28.222221374511719
  1
本　　体
  7
STYLE1
  0
TEXT
  5
754
  8
____1
  6
CONTINUOUS
 62
     7
 10
16543.803536289241
 20
10050.139437718701
 30
0.0
 40
28.222221374511719
  1
天　　板
  7
STYLE1
  0
TEXT
  5
755
  8
____1
  6
CONTINUOUS
 62
     7
 10
16529.692421787291
 20
10210.139437718701
 30
0.0
 40
28.222221374511719
  1
３段ステー
  7
STYLE1
  0
TEXT
  5
756
  8
____1
  6
CONTINUOUS
 62
     7
 10
16543.803536289241
 20
10250.139437718701
 30
0.0
 40
28.222221374511719
  1
取　　手
  7
STYLE1
  0
TEXT
  5
757
  8
____1
  6
CONTINUOUS
 62
     7
 10
16501.470208042181
 20
10290.139437718701
 30
0.0
 40
28.222221374511719
  1
フックユニット
  7
STYLE1
  0
TEXT
  5
758
  8
____1
  6
CONTINUOUS
 62
     7
 10
16543.803536289241
 20
10330.139437718701
 30
0.0
 40
28.222221374511719
  1
パッキン
  7
STYLE1
  0
LINE
  5
759
  8
____1
  6
DASHED2
 62
     7
 10
15181.29253731085
 20
11397.207142655319
 30
0.0
 11
15181.29253731085
 21
10863.207142655319
 31
0.0
  0
LINE
  5
75A
  8
____1
  6
DASHED2
 62
     7
 10
15179.79253731085
 20
11398.707142655319
 30
0.0
 11
15179.79253731085
 21
10861.707142655319
 31
0.0
  0
LINE
  5
75B
  8
____1
  6
DASHED2
 62
     7
 10
15715.29253731085
 20
10863.207142655319
 30
0.0
 11
15181.29253731085
 21
10863.207142655319
 31
0.0
  0
LINE
  5
75C
  8
____1
  6
DASHED2
 62
     7
 10
15716.79253731085
 20
10861.707142655319
 30
0.0
 11
15179.79253731085
 21
10861.707142655319
 31
0.0
  0
TEXT
  5
75D
  8
____1
  6
CONTINUOUS
 62
     7
 10
16941.914650791201
 20
10210.139437718701
 30
0.0
 40
28.222221374511719
  1
SUS304
  7
STYLE1
  0
TEXT
  5
75E
  8
____1
  6
CONTINUOUS
 62
     7
 10
16941.914650791201
 20
10250.139437718701
 30
0.0
 40
28.222221374511719
  1
SUS304
  7
STYLE1
  0
TEXT
  5
75F
  8
____1
  6
CONTINUOUS
 62
     7
 10
16906.636872165709
 20
10050.139437718701
 30
0.0
 40
28.222221374511719
  1
SUS304 1.5t
  7
STYLE1
  0
TEXT
  5
760
  8
____1
  6
CONTINUOUS
 62
     7
 10
16906.636872165709
 20
10370.139437718701
 30
0.0
 40
28.222221374511719
  1
SUS304 1.5t
  7
STYLE1
  0
TEXT
  5
761
  8
____1
  6
CONTINUOUS
 62
     7
 10
16941.914650791201
 20
10290.139437718701
 30
0.0
 40
28.222221374511719
  1
SUS304
  7
STYLE1
  0
TEXT
  5
762
  8
____1
  6
CONTINUOUS
 62
     7
 10
16956.025750034361
 20
10330.139437718701
 30
0.0
 40
28.222221374511719
  1
EPDM
  7
STYLE1
  0
TEXT
  5
763
  8
____1
  6
CONTINUOUS
 62
     7
 10
16906.636872165709
 20
10090.139437718701
 30
0.0
 40
28.222221374511719
  1
SUS304 1.5t
  7
STYLE1
  0
TEXT
  5
764
  8
____1
  6
CONTINUOUS
 62
     7
 10
16941.914650791201
 20
10170.139437718701
 30
0.0
 40
28.222221374511719
  1
SUS304
  7
STYLE1
  0
TEXT
  5
765
  8
____1
  6
CONTINUOUS
 62
     7
 10
17197.19242369464
 20
10290.139437718701
 30
0.0
 40
28.222221374511719
  1
1
  7
STYLE1
  0
TEXT
  5
766
  8
____1
  6
CONTINUOUS
 62
     7
 10
17197.19242369464
 20
10250.139437718701
 30
0.0
 40
28.222221374511719
  1
1
  7
STYLE1
  0
TEXT
  5
767
  8
____1
  6
CONTINUOUS
 62
     7
 10
17197.19242369464
 20
10370.139437718701
 30
0.0
 40
28.222221374511719
  1
4
  7
STYLE1
  0
TEXT
  5
768
  8
____1
  6
DOT
 62
     7
 10
17137.714653842959
 20
9904.13814293416
 30
0.0
 40
33.866664886474609
  1
らくらくハッチ
  7
STYLE1
  0
TEXT
  5
769
  8
____1
  6
DOT
 62
     7
 10
17086.914654605898
 20
9816.13814293416
 30
0.0
 40
33.866664886474609
  1
ＯＭ－６１５０２ＢＫ
  7
STYLE1
  0
TEXT
  5
76A
  8
____1
  6
CONTINUOUS
 62
     7
 10
17197.19242369464
 20
10330.139437718701
 30
0.0
 40
28.222221374511719
  1
1
  7
STYLE1
  0
TEXT
  5
76B
  8
____1
  6
CONTINUOUS
 62
     7
 10
17197.19242369464
 20
10210.139437718701
 30
0.0
 40
28.222221374511719
  1
1
  7
STYLE1
  0
TEXT
  5
76C
  8
____1
  6
CONTINUOUS
 62
     7
 10
17197.19242369464
 20
10170.139437718701
 30
0.0
 40
28.222221374511719
  1
1
  7
STYLE1
  0
TEXT
  5
76D
  8
____1
  6
CONTINUOUS
 62
     7
 10
17197.19242369464
 20
10130.139437718701
 30
0.0
 40
28.222221374511719
  1
2
  7
STYLE1
  0
TEXT
  5
76E
  8
____1
  6
CONTINUOUS
 62
     7
 10
17197.19242369464
 20
10090.139437718701
 30
0.0
 40
28.222221374511719
  1
1
  7
STYLE1
  0
TEXT
  5
76F
  8
____1
  6
CONTINUOUS
 62
     7
 10
17197.19242369464
 20
10050.139437718701
 30
0.0
 40
28.222221374511719
  1
1
  7
STYLE1
  0
TEXT
  5
770
  8
____1
  6
DOT
 62
     7
 10
17120.781319492369
 20
9728.1381429341618
 30
0.0
 40
33.866664886474609
  1
ＳＴＲ０００２０
  7
STYLE1
  0
LINE
  5
771
  8
____1
  6
DASHED
 62
     7
 10
17067.93824675768
 20
10690.00714265533
 30
0.0
 11
17057.93824675768
 21
10690.00714265533
 31
0.0
  0
INSERT
  5
789
  8
____1
  6
CONTINUOUS
 62
     7
  2
C59
 10
0.0
 20
0.0
 30
0.0
  0
INSERT
  5
79A
  8
____1
  6
DASHED2
 62
     7
  2
C60
 10
0.0
 20
0.0
 30
0.0
  0
INSERT
  5
7AD
  8
____1
  6
DASHED2
 62
   254
  2
C61
 10
0.0
 20
0.0
 30
0.0
  0
INSERT
  5
7C0
  8
____1
  6
DASHED2
 62
   254
  2
C62
 10
0.0
 20
0.0
 30
0.0
  0
LINE
  5
7C1
  8
______
  6
CONTINUOUS
 62
     7
 10
17015.924964398389
 20
10514.465442967101
 30
0.0
 11
17063.86615654124
 21
10514.465442967101
 31
0.0
  0
DIMENSION
  5
7CF
  8
______
  6
CONTINUOUS
 62
     7
  2
*D90
 10
17067.93824675768
 20
10572.445767228081
 30
0.0
 11
17042.80309918612
 21
10572.445767228081
 31
0.0
 13
17017.93824675768
 23
10686.70714265533
 33
0.0
 14
17067.93824675768
 24
10686.70714265533
 34
0.0
  0
LINE
  5
7D0
  8
____1
  6
DASHED
 62
     7
 10
17057.93824675768
 20
10688.20714265533
 30
0.0
 11
17057.93824675768
 21
10689.70714265533
 31
0.0
  0
LINE
  5
7D1
  8
____1
  6
CONTINUOUS
 62
     5
 10
17067.93824675768
 20
10686.70714265533
 30
0.0
 11
17017.93824675768
 21
10686.70714265533
 31
0.0
  0
LINE
  5
7D2
  8
____1
  6
DASHED
 62
     7
 10
17066.43824675768
 20
10688.20714265533
 30
0.0
 11
17019.167952611759
 21
10688.20714265533
 31
0.0
  0
LINE
  5
7D3
  8
____1
  6
CONTINUOUS
 62
     5
 10
17066.438247044582
 20
10686.70714265533
 30
0.0
 11
17019.167952611759
 21
10686.70714265533
 31
0.0
  0
ARC
  5
7D4
  8
____1
  6
CONTINUOUS
 62
     5
 10
17019.167952611759
 20
10688.20714265533
 30
0.0
 40
1.5000000000017859
 50
-168.690067526007
 51
-90.0
  0
ARC
  5
7D5
  8
____1
  6
DASHED
 62
     7
 10
17066.43824675768
 20
10688.20714265533
 30
0.0
 40
1.5000000000000271
 50
-89.999989041570686
 51
90.0
  0
INSERT
  5
7DF
  8
____1
  6
DASHED2
 62
     7
  2
C63
 10
0.0
 20
0.0
 30
0.0
  0
INSERT
  5
7E9
  8
____1
  6
DASHED2
 62
     7
  2
C64
 10
0.0
 20
0.0
 30
0.0
  0
INSERT
  5
7F9
  8
____1
  6
DASHED2
 62
     7
  2
C65
 10
0.0
 20
0.0
 30
0.0
  0
LINE
  5
7FA
  8
____1
  6
DASHED
 62
     7
 10
16989.438246757691
 20
10885.20714265533
 30
0.0
 11
16989.438246757691
 21
11388.207142655319
 31
0.0
  0
LINE
  5
7FB
  8
____1
  6
CONTINUOUS
 62
     5
 10
16987.93824675768
 20
10836.70714265533
 30
0.0
 11
16987.93824675768
 21
11436.70714265533
 31
0.0
  0
LINE
  5
7FC
  8
____1
  6
DASHED2
 62
     7
 10
16939.43824675768
 20
10878.70714265533
 30
0.0
 11
16939.43824675768
 21
11394.707142655319
 31
0.0
  0
LINE
  5
7FD
  8
____1
  6
DASHED2
 62
     7
 10
16937.938246757691
 20
10878.70714265533
 30
0.0
 11
16937.938246757691
 21
11394.707142655319
 31
0.0
  0
LINE
  5
7FE
  8
____1
  6
DASHED2
 62
     7
 10
16952.93824675768
 20
10972.78095076516
 30
0.0
 11
16952.93824675768
 21
11211.08404311185
 31
0.0
  0
LINE
  5
7FF
  8
____1
  6
DOT
 62
     7
 10
16963.938246757691
 20
10944.870380451581
 30
0.0
 11
16963.938246757691
 21
10972.783901690491
 31
0.0
  0
LINE
  5
800
  8
____1
  6
DOT
 62
     7
 10
16952.93824675768
 20
10944.87333137691
 30
0.0
 11
16952.93824675768
 21
10972.78095076516
 31
0.0
  0
INSERT
  5
81C
  8
____1
  6
DASHED2
 62
     7
  2
C67
 10
0.0
 20
0.0
 30
0.0
  0
LINE
  5
81D
  8
____1
  6
DASHED2
 62
     7
 10
16963.938246757691
 20
10972.783901690491
 30
0.0
 11
16963.938246757691
 21
10984.808163170799
 31
0.0
  0
INSERT
  5
83A
  8
____1
  6
DASHED2
 62
     7
  2
C68
 10
0.0
 20
0.0
 30
0.0
  0
TEXT
  5
83B
  8
____1
  6
CONTINUOUS
 62
     7
 10
16357.19242369464
 20
10130.139437718701
 30
0.0
 40
28.222221374511719
  1
3
  7
STYLE1
  0
TEXT
  5
83C
  8
____1
  6
CONTINUOUS
 62
     7
 10
16357.19242369464
 20
10090.139437718701
 30
0.0
 40
28.222221374511719
  1
2
  7
STYLE1
  0
TEXT
  5
83D
  8
____1
  6
CONTINUOUS
 62
     7
 10
16357.19242369464
 20
10050.139437718701
 30
0.0
 40
28.222221374511719
  1
1
  7
STYLE1
  0
TEXT
  5
83E
  8
____1
  6
CONTINUOUS
 62
     7
 10
16941.914650791201
 20
10130.139437718701
 30
0.0
 40
28.222221374511719
  1
SUS304
  7
STYLE1
  0
LINE
  5
83F
  8
____1
  6
CONTINUOUS
 62
     5
 10
16987.93824675768
 20
10836.85567192571
 30
0.0
 11
16987.93824675768
 21
10885.20714265533
 31
0.0
  0
LINE
  5
840
  8
____1
  6
CONTINUOUS
 62
     5
 10
16939.43824675768
 20
10878.70714265533
 30
0.0
 11
16937.938246757691
 21
10878.70714265533
 31
0.0
  0
LINE
  5
841
  8
____1
  6
DASHED
 62
     7
 10
16989.438246757691
 20
10836.855671925719
 30
0.0
 11
16989.438246757691
 21
10885.20714265533
 31
0.0
  0
LINE
  5
842
  8
____1
  6
DASHED
 62
     7
 10
16987.93824675768
 20
10886.70714265533
 30
0.0
 11
16939.43824675768
 21
10886.70714265533
 31
0.0
  0
ARC
  5
843
  8
____1
  6
DASHED2
 62
     7
 10
16939.43824675768
 20
10885.20714265533
 30
0.0
 40
1.5
 50
90.0
 51
180.0
  0
LINE
  5
844
  8
____1
  6
DASHED2
 62
     7
 10
16939.43824675768
 20
10878.70714265533
 30
0.0
 11
16939.43824675768
 21
10885.20714265533
 31
0.0
  0
LINE
  5
845
  8
____1
  6
CONTINUOUS
 62
     5
 10
16987.93824675768
 20
10885.20714265533
 30
0.0
 11
16980.30978459062
 21
10885.20714265533
 31
0.0
  0
LINE
  5
846
  8
____1
  6
DASHED2
 62
     7
 10
16980.30978459062
 20
10885.20714265533
 30
0.0
 11
16939.43824675768
 21
10885.20714265533
 31
0.0
  0
ARC
  5
847
  8
____1
  6
DOT
 62
     7
 10
16958.43824675768
 20
10945.20714265533
 30
0.0
 40
5.500000000001366
 50
-3.5538104361286771
 51
0.0
  0
ARC
  5
848
  8
____1
  6
DOT
 62
     7
 10
16958.43824675768
 20
10945.20714265533
 30
0.0
 40
5.5000000000006564
 50
-179.99997200969349
 51
-176.47768733403279
  0
LINE
  5
849
  8
____1
  6
DASHED2
 62
     7
 10
16952.93824675768
 20
10930.207138762589
 30
0.0
 11
16952.93824675768
 21
10944.87333137691
 31
0.0
  0
LINE
  5
84A
  8
____1
  6
DASHED2
 62
     7
 10
16963.938246757691
 20
10930.207142019581
 30
0.0
 11
16963.938246757691
 21
10944.870380451581
 31
0.0
  0
ARC
  5
84B
  8
____1
  6
DASHED
 62
     7
 10
16987.93824675768
 20
10885.20714265533
 30
0.0
 40
1.5
 50
0.0
 51
90.0
  0
ARC
  5
84C
  8
____1
  6
CONTINUOUS
 62
     5
 10
16989.438246757691
 20
10836.85567192571
 30
0.0
 40
1.5
 50
180.0
 51
-168.690067526007
  0
INSERT
  5
85C
  8
____1
  6
DASHED2
 62
     7
  2
C70
 10
0.0
 20
0.0
 30
0.0
  0
LINE
  5
85D
  8
____1
  6
DASHED2
 62
     7
 10
16979.484479724779
 20
11388.207142655319
 30
0.0
 11
16939.43824675768
 21
11388.207142655319
 31
0.0
  0
LINE
  5
85E
  8
____1
  6
CONTINUOUS
 62
     5
 10
16987.93824675768
 20
11388.207142655319
 30
0.0
 11
16979.484479724779
 21
11388.207142655319
 31
0.0
  0
LINE
  5
85F
  8
____1
  6
DASHED2
 62
     7
 10
16987.93824675768
 20
11386.70714265533
 30
0.0
 11
16939.43824675768
 21
11386.70714265533
 31
0.0
  0
LINE
  5
860
  8
____1
  6
DASHED2
 62
     7
 10
16937.938246757691
 20
11394.707142655319
 30
0.0
 11
16937.938246757691
 21
11388.207142655319
 31
0.0
  0
LINE
  5
861
  8
____1
  6
DASHED2
 62
     7
 10
16939.43824675768
 20
11394.707142655319
 30
0.0
 11
16937.938246757691
 21
11394.707142655319
 31
0.0
  0
LINE
  5
862
  8
____1
  6
DASHED2
 62
     7
 10
16939.43824675768
 20
11394.707142655319
 30
0.0
 11
16939.43824675768
 21
11388.207142655319
 31
0.0
  0
LINE
  5
863
  8
____1
  6
DASHED
 62
     7
 10
17066.43824675768
 20
10689.70714265533
 30
0.0
 11
17057.93824675768
 21
10689.70714265533
 31
0.0
  0
LINE
  5
864
  8
______
  6
CONTINUOUS
 62
     7
 10
16984.143291334629
 20
10572.449825262631
 30
0.0
 11
17015.924964398389
 21
10514.465442967101
 31
0.0
  0
TEXT
  5
865
  8
______
  6
CONTINUOUS
 62
     7
 10
17015.924964398389
 20
10523.077595140219
 30
0.0
 40
28.222221374511719
  1
7.6
  7
STYLE1
  0
DIMENSION
  5
873
  8
______
  6
CONTINUOUS
 62
     7
  2
*D99
 10
17067.93824675768
 20
10572.445766254121
 30
0.0
 11
17042.80309968473
 21
10572.445766254121
 31
0.0
 13
17017.93824675768
 23
10686.70714265533
 33
0.0
 14
17067.93824675768
 24
10686.70714265533
 34
0.0
  0
ARC
  5
874
  8
____1
  6
CONTINUOUS
 62
     5
 10
16989.438246757691
 20
11436.55861338493
 30
0.0
 40
1.5
 50
168.690067526007
 51
180.0
  0
ARC
  5
875
  8
____1
  6
DASHED
 62
     7
 10
16939.43824675768
 20
11388.207142655319
 30
0.0
 40
1.5
 50
180.0
 51
-90.0
  0
ARC
  5
876
  8
____1
  6
DASHED
 62
     7
 10
16987.93824675768
 20
11388.207142655319
 30
0.0
 40
1.5
 50
-90.0
 51
0.0
  0
LINE
  5
877
  8
____1
  6
DASHED
 62
     7
 10
17066.43824675768
 20
11583.70714265533
 30
0.0
 11
17057.93824675768
 21
11583.70714265533
 31
0.0
  0
LINE
  5
878
  8
____1
  6
DASHED
 62
     7
 10
17057.93824675768
 20
11585.20714265533
 30
0.0
 11
17057.93824675768
 21
11583.70714265533
 31
0.0
  0
LINE
  5
879
  8
____1
  6
DASHED
 62
     7
 10
17066.43824675768
 20
11585.20714265533
 30
0.0
 11
17019.167952611759
 21
11585.20714265533
 31
0.0
  0
ARC
  5
87A
  8
____1
  6
CONTINUOUS
 62
     5
 10
17066.43824675768
 20
11585.20714265533
 30
0.0
 40
1.5
 50
0.0
 51
90.0
  0
ARC
  5
87B
  8
____1
  6
DASHED
 62
     7
 10
17066.43824675768
 20
11585.20714265533
 30
0.0
 40
1.5
 50
-90.0
 51
0.0
  0
LINE
  5
87C
  8
____1
  6
DASHED
 62
     7
 10
16989.438246757691
 20
11436.55861338493
 30
0.0
 11
16989.438246757691
 21
11388.207142655319
 31
0.0
  0
LINE
  5
87D
  8
____1
  6
CONTINUOUS
 62
     5
 10
16987.93824675768
 20
11436.55861338493
 30
0.0
 11
16987.93824675768
 21
11388.207142655319
 31
0.0
  0
LINE
  5
87E
  8
____1
  6
DASHED
 62
     7
 10
17019.167952611759
 20
11585.20714265533
 30
0.0
 11
16989.438246757691
 21
11436.55861338493
 31
0.0
  0
LINE
  5
87F
  8
____1
  6
CONTINUOUS
 62
     5
 10
17017.697081598231
 20
11585.50131685803
 30
0.0
 11
16987.967375744149
 21
11436.852787587641
 31
0.0
  0
ARC
  5
880
  8
____1
  6
CONTINUOUS
 62
     5
 10
17019.167952611759
 20
11585.20714265533
 30
0.0
 40
1.5000000000017859
 50
90.0
 51
168.690067526007
  0
LINE
  5
881
  8
____1
  6
CONTINUOUS
 62
     5
 10
17066.43824675768
 20
11586.70714265533
 30
0.0
 11
17019.167952611759
 21
11586.70714265533
 31
0.0
  0
LINE
  5
882
  8
____1
  6
CONTINUOUS
 62
     5
 10
17017.93824675768
 20
11585.20714265533
 30
0.0
 11
16987.93824675768
 21
11436.70714265533
 31
0.0
  0
LINE
  5
883
  8
____1
  6
CONTINUOUS
 62
     5
 10
17067.93824675768
 20
11585.20714265533
 30
0.0
 11
17017.93824675768
 21
11585.20714265533
 31
0.0
  0
INSERT
  5
89E
  8
____1
  6
DASHED2
 62
     4
  2
C71
 10
0.0
 20
0.0
 30
0.0
  0
INSERT
  5
8B9
  8
____1
  6
DASHED2
 62
     4
  2
C74
 10
0.0
 20
0.0
 30
0.0
  0
INSERT
  5
8DF
  8
____1
  6
DASHED2
 62
     4
  2
C77
 10
0.0
 20
0.0
 30
0.0
  0
INSERT
  5
931
  8
____1
  6
DASHED2
 62
   254
  2
C81
 10
0.0
 20
0.0
 30
0.0
  0
INSERT
  5
95D
  8
____1
  6
DASHED2
 62
     7
  2
C86
 10
0.0
 20
0.0
 30
0.0
  0
LINE
  5
95E
  8
____1
  6
DASHED2
 62
     7
 10
16987.93824675768
 20
10885.20714265533
 30
0.0
 11
16939.43824675768
 21
10885.20714265533
 31
0.0
  0
LINE
  5
95F
  8
____1
  6
DASHED2
 62
     7
 10
16937.938246757691
 20
10878.70714265533
 30
0.0
 11
16937.938246757691
 21
10885.20714265533
 31
0.0
  0
INSERT
  5
976
  8
____1
  6
CONTINUOUS
 62
   254
  2
C87
 10
0.0
 20
0.0
 30
0.0
  0
INSERT
  5
991
  8
____1
  6
DOT
 62
     7
  2
C88
 10
0.0
 20
0.0
 30
0.0
  0
ENDSEC
  0
EOF
