  0
SECTION
  2
HEADER
  9
$ACADVER
  1
AC1009
  9
$INSBASE
 10
0.0
 20
0.0
 30
0.0
  9
$EXTMIN
 10
24595.574371631079
 20
11827.4125
 30
0.0
  9
$EXTMAX
 10
27875.254371631068
 20
14135.092500000001
 30
0.0
  9
$LIMMIN
 10
0.0
 20
0.0
  9
$LIMMAX
 10
0.0
 20
0.0
  9
$ORTHOMODE
 70
     0
  9
$REGENMODE
 70
     1
  9
$FILLMODE
 70
     1
  9
$QTEXTMODE
 70
     0
  9
$MIRRTEXT
 70
     1
  9
$DRAGMODE
 70
     2
  9
$LTSCALE
 40
1.0
  9
$OSMODE
 70
   183
  9
$ATTMODE
 70
     1
  9
$TEXTSIZE
 40
0.35
  9
$TRACEWID
 40
0.05
  9
$TEXTSTYLE
  7
STANDARD
  9
$CLAYER
  8
0
  9
$CELTYPE
  6
CONTINUOUS
  9
$CECOLOR
 62
   256
  9
$DIMSCALE
 40
1.0
  9
$DIMASZ
 40
2.5
  9
$DIMEXO
 40
0.5
  9
$DIMDLI
 40
0.38
  9
$DIMRND
 40
0.0
  9
$DIMDLE
 40
0.0
  9
$DIMEXE
 40
1.0
  9
$DIMTP
 40
0.0
  9
$DIMTM
 40
0.0
  9
$DIMTXT
 40
3.5277777777777768
  9
$DIMCEN
 40
0.09
  9
$DIMTSZ
 40
0.0
  9
$DIMTOL
 70
     0
  9
$DIMLIM
 70
     0
  9
$DIMTIH
 70
     0
  9
$DIMTOH
 70
     0
  9
$DIMSE1
 70
     0
  9
$DIMSE2
 70
     0
  9
$DIMTAD
 70
     1
  9
$DIMZIN
 70
     0
  9
$DIMBLK
  1

  9
$DIMASO
 70
     1
  9
$DIMSHO
 70
     1
  9
$DIMPOST
  1

  9
$DIMAPOST
  1

  9
$DIMALT
 70
     0
  9
$DIMALTD
 70
     3
  9
$DIMALTF
 40
25.399999999999999
  9
$DIMLFAC
 40
1.0
  9
$DIMTOFL
 70
     0
  9
$DIMTVP
 40
0.0
  9
$DIMTIX
 70
     0
  9
$DIMSOXD
 70
     0
  9
$DIMSAH
 70
     0
  9
$DIMBLK1
  1

  9
$DIMBLK2
  1

  9
$DIMSTYLE
  2
STANDARD
  9
$DIMCLRD
 70
     0
  9
$DIMCLRE
 70
     0
  9
$DIMCLRT
 70
     0
  9
$DIMTFAC
 40
1.0
  9
$DIMGAP
 40
0.09
  9
$LUNITS
 70
     2
  9
$LUPREC
 70
     4
  9
$SKETCHINC
 40
0.1
  9
$FILLETRAD
 40
0.0
  9
$AUNITS
 70
     0
  9
$AUPREC
 70
     0
  9
$MENU
  1
acad
  9
$ELEVATION
 40
0.0
  9
$PELEVATION
 40
0.0
  9
$THICKNESS
 40
0.0
  9
$LIMCHECK
 70
     0
  9
$BLIPMODE
 70
     0
  9
$CHAMFERA
 40
0.0
  9
$CHAMFERB
 40
0.0
  9
$SKPOLY
 70
     0
  9
$TDCREATE
 40
2454656.5516898148
  9
$TDUPDATE
 40
2454656.5606973381
  9
$TDINDWG
 40
0.0001600463
  9
$TDUSRTIMER
 40
0.0001600463
  9
$USRTIMER
 70
     1
  9
$ANGBASE
 50
0.0
  9
$ANGDIR
 70
     0
  9
$PDMODE
 70
     0
  9
$PDSIZE
 40
0.0
  9
$PLINEWID
 40
0.0
  9
$COORDS
 70
     1
  9
$SPLFRAME
 70
     0
  9
$SPLINETYPE
 70
     6
  9
$SPLINESEGS
 70
     8
  9
$ATTDIA
 70
     0
  9
$ATTREQ
 70
     1
  9
$HANDLING
 70
     1
  9
$HANDSEED
  5
9D2
  9
$SURFTAB1
 70
     6
  9
$SURFTAB2
 70
     6
  9
$SURFTYPE
 70
     6
  9
$SURFU
 70
     6
  9
$SURFV
 70
     6
  9
$UCSNAME
  2

  9
$UCSORG
 10
0.0
 20
0.0
 30
0.0
  9
$UCSXDIR
 10
1.0
 20
0.0
 30
0.0
  9
$UCSYDIR
 10
0.0
 20
1.0
 30
0.0
  9
$PUCSNAME
  2

  9
$PUCSORG
 10
0.0
 20
0.0
 30
0.0
  9
$PUCSXDIR
 10
1.0
 20
0.0
 30
0.0
  9
$PUCSYDIR
 10
0.0
 20
1.0
 30
0.0
  9
$USERI1
 70
     0
  9
$USERI2
 70
     0
  9
$USERI3
 70
     0
  9
$USERI4
 70
     0
  9
$USERI5
 70
     0
  9
$USERR1
 40
0.0
  9
$USERR2
 40
0.0
  9
$USERR3
 40
0.0
  9
$USERR4
 40
0.0
  9
$USERR5
 40
0.0
  9
$WORLDVIEW
 70
     1
  9
$SHADEDGE
 70
     3
  9
$SHADEDIF
 70
    70
  9
$TILEMODE
 70
     1
  9
$MAXACTVP
 70
    64
  9
$PLIMCHECK
 70
     0
  9
$PEXTMIN
 10
1.0000000000000000E+020
 20
1.0000000000000000E+020
 30
1.0000000000000000E+020
  9
$PEXTMAX
 10
-1.0000000000000000E+020
 20
-1.0000000000000000E+020
 30
-1.0000000000000000E+020
  9
$PLIMMIN
 10
0.0
 20
0.0
  9
$PLIMMAX
 10
12.0
 20
9.0
  9
$UNITMODE
 70
     0
  9
$VISRETAIN
 70
     1
  9
$PLINEGEN
 70
     0
  9
$PSLTSCALE
 70
     0
  0
ENDSEC
  0
SECTION
  2
TABLES
  0
TABLE
  2
VPORT
 70
     2
  0
VPORT
  2
*ACTIVE
 70
     0
 10
0.0
 20
0.0
 11
1.0
 21
1.0
 12
26235.414371631068
 22
12981.252500000001
 13
0.0
 23
0.0
 14
1.0
 24
1.0
 15
0.0
 25
0.0
 16
0.0
 26
0.0
 36
1.0
 17
0.0
 27
0.0
 37
0.0
 40
2326.4416260162611
 41
1.6377204884667571
 42
50.0
 43
0.0
 44
0.0
 50
0.0
 51
0.0
 71
     0
 72
   100
 73
     1
 74
     1
 75
     0
 76
     0
 77
     0
 78
     0
  0
ENDTAB
  0
TABLE
  2
LTYPE
 70
    11
  0
LTYPE
  2
CONTINUOUS
 70
     0
  3
Solid line
 72
    65
 73
     0
 40
0.0
  0
LTYPE
  2
DOT
 70
     0
  3

 72
    65
 73
     2
 40
1.0
 49
0.0
 49
-1.0
  0
LTYPE
  2
DASHEDX2
 70
     0
  3

 72
    65
 73
     2
 40
4.0
 49
3.0
 49
-1.0
  0
LTYPE
  2
DASHED
 70
     0
  3

 72
    65
 73
     2
 40
3.0
 49
2.0
 49
-1.0
  0
LTYPE
  2
DASHED2
 70
     0
  3

 72
    65
 73
     2
 40
2.0
 49
1.0
 49
-1.0
  0
LTYPE
  2
CENTERX2
 70
     0
  3

 72
    65
 73
     4
 40
43.0
 49
40.0
 49
-1.0
 49
1.0
 49
-1.0
  0
LTYPE
  2
CENTER
 70
     0
  3

 72
    65
 73
     4
 40
33.0
 49
30.0
 49
-1.0
 49
1.0
 49
-1.0
  0
LTYPE
  2
CENTER2
 70
     0
  3

 72
    65
 73
     4
 40
23.0
 49
20.0
 49
-1.0
 49
1.0
 49
-1.0
  0
LTYPE
  2
PHANTOMX2
 70
     0
  3

 72
    65
 73
     6
 40
45.0
 49
40.0
 49
-1.0
 49
1.0
 49
-1.0
 49
1.0
 49
-1.0
  0
LTYPE
  2
PHANTOM
 70
     0
  3

 72
    65
 73
     6
 40
35.0
 49
30.0
 49
-1.0
 49
1.0
 49
-1.0
 49
1.0
 49
-1.0
  0
LTYPE
  2
PHANTOM2
 70
     0
  3

 72
    65
 73
     6
 40
25.0
 49
20.0
 49
-1.0
 49
1.0
 49
-1.0
 49
1.0
 49
-1.0
  0
ENDTAB
  0
TABLE
  2
LAYER
 70
     8
  0
LAYER
  2
0
 70
     0
 62
     7
  6
CONTINUOUS
  0
LAYER
  2
DEFPOINTS
 70
     0
 62
     7
  6
CONTINUOUS
  0
LAYER
  2
____1
 70
     0
 62
     7
  6
DASHED2
  0
LAYER
  2
______
 70
     0
 62
     7
  6
CONTINUOUS
  0
LAYER
  2
補助線_1
 70
     0
 62
     7
  6
CONTINUOUS
  0
LAYER
  2
UNASSIGNED
 70
     0
 62
     7
  6
CONTINUOUS
  0
LAYER
  2
____
 70
     0
 62
     7
  6
DOT
  0
LAYER
  2
___G
 70
     0
 62
     7
  6
DOT
  0
ENDTAB
  0
TABLE
  2
STYLE
 70
     2
  0
STYLE
  2
STANDARD
 70
     0
 40
0.0
 41
1.0
 50
0.0
 71
     0
 42
0.35
  3
txt
  4

  0
STYLE
  2
STYLE1
 70
     0
 40
0.0
 41
1.0
 50
0.0
 71
     0
 42
0.35
  3
ＭＳ ゴシック
  4

  0
ENDTAB
  0
TABLE
  2
VIEW
 70
     0
  0
ENDTAB
  0
TABLE
  2
UCS
 70
     0
  0
ENDTAB
  0
TABLE
  2
APPID
 70
     1
  0
APPID
  2
ACAD
 70
     0
  0
ENDTAB
  0
TABLE
  2
DIMSTYLE
 70
     1
  0
DIMSTYLE
  2
STANDARD
 70
     0
  3

  4

  5

  6

  7

 40
1.0
 41
0.18
 42
0.0625
 43
0.38
 44
0.18
 45
0.0
 46
0.0
 47
0.0
 48
0.0
140
0.18
141
0.09
142
0.0
143
25.399999999999999
144
1.0
145
0.0
146
1.0
147
0.09
 71
     0
 72
     0
 73
     1
 74
     1
 75
     0
 76
     0
 77
     0
 78
     0
170
     0
171
     2
172
     0
173
     0
174
     0
175
     0
176
     0
177
     0
178
     0
  0
ENDTAB
  0
ENDSEC
  0
SECTION
  2
BLOCKS
  0
BLOCK
  8
0
  2
$MODEL_SPACE
 70
     0
 10
0.0
 20
0.0
 30
0.0
  3
$MODEL_SPACE
  1

  0
ENDBLK
  5
9C0
  8
0
  0
BLOCK
 67
     1
  8
0
  2
$PAPER_SPACE
 70
     0
 10
0.0
 20
0.0
 30
0.0
  3
$PAPER_SPACE
  1

  0
ENDBLK
  5
9BE
 67
     1
  8
0
  0
BLOCK
  8
0
  2
*D0
 70
     1
 10
0.0
 20
0.0
 30
0.0
  3
*D0
  1

  0
LINE
  5
30
  8
____1
  6
CONTINUOUS
 62
     7
 10
25118.45834682709
 20
12822.31078867995
 30
0.0
 11
25062.724467559579
 21
12822.31078867995
 31
0.0
  0
LINE
  5
31
  8
____1
  6
CONTINUOUS
 62
     7
 10
25245.958346827079
 20
13072.31078867995
 30
0.0
 11
25062.724467559579
 21
13072.31078867995
 31
0.0
  0
SOLID
  5
32
  8
____1
  6
CONTINUOUS
 62
     7
 10
25066.724467559579
 20
13052.31078867995
 30
0.0
 11
25066.724467559579
 21
13052.31078867995
 31
0.0
 12
25067.724467559579
 22
13057.31078867995
 32
0.0
 13
25070.724467559579
 23
13057.31078867995
 33
0.0
  0
SOLID
  5
33
  8
____1
  6
CONTINUOUS
 62
     7
 10
25074.724467559579
 20
13052.31078867995
 30
0.0
 11
25074.724467559579
 21
13052.31078867995
 31
0.0
 12
25070.724467559579
 22
13057.31078867995
 32
0.0
 13
25073.72446755959
 23
13057.31078867995
 33
0.0
  0
SOLID
  5
34
  8
____1
  6
CONTINUOUS
 62
     7
 10
25067.724467559579
 20
13057.31078867995
 30
0.0
 11
25073.72446755959
 21
13057.31078867995
 31
0.0
 12
25070.724467559579
 22
13072.31078867995
 32
0.0
 13
25070.724467559579
 23
13072.31078867995
 33
0.0
  0
LINE
  5
35
  8
____1
  6
CONTINUOUS
 62
     7
 10
25070.724467559579
 20
13072.31078867995
 30
0.0
 11
25070.724467559579
 21
12947.31078867995
 31
0.0
  0
SOLID
  5
36
  8
____1
  6
CONTINUOUS
 62
     7
 10
25070.724467559579
 20
12822.31078867995
 30
0.0
 11
25070.724467559579
 21
12822.31078867995
 31
0.0
 12
25067.724467559579
 22
12837.31078867995
 32
0.0
 13
25073.72446755959
 23
12837.31078867995
 33
0.0
  0
SOLID
  5
37
  8
____1
  6
CONTINUOUS
 62
     7
 10
25067.724467559579
 20
12837.31078867995
 30
0.0
 11
25070.724467559579
 21
12837.31078867995
 31
0.0
 12
25066.724467559579
 22
12842.31078867995
 32
0.0
 13
25066.724467559579
 23
12842.31078867995
 33
0.0
  0
SOLID
  5
38
  8
____1
  6
CONTINUOUS
 62
     7
 10
25070.724467559579
 20
12837.31078867995
 30
0.0
 11
25073.72446755959
 21
12837.31078867995
 31
0.0
 12
25074.724467559579
 22
12842.31078867995
 32
0.0
 13
25074.724467559579
 23
12842.31078867995
 33
0.0
  0
LINE
  5
39
  8
____1
  6
CONTINUOUS
 62
     7
 10
25070.724467559579
 20
12822.31078867995
 30
0.0
 11
25070.724467559579
 21
12947.31078867995
 31
0.0
  0
TEXT
  5
3B
  8
______
  6
DASHED2
 62
     7
 10
25062.608726942472
 20
12926.14412264907
 30
0.0
 40
28.222221374511719
  1
250
 50
90.0
  7
STYLE1
  0
ENDBLK
  5
3C
  8
0
  0
BLOCK
  8
0
  2
*D1
 70
     1
 10
0.0
 20
0.0
 30
0.0
  3
*D1
  1

  0
LINE
  5
41
  8
____1
  6
CONTINUOUS
 62
     7
 10
25942.45834682709
 20
12994.81078867995
 30
0.0
 11
25942.45834682709
 21
12755.870216288809
 31
0.0
  0
LINE
  5
42
  8
____1
  6
CONTINUOUS
 62
     7
 10
25302.45834682709
 20
12994.81078867995
 30
0.0
 11
25302.45834682709
 21
12755.870216288809
 31
0.0
  0
SOLID
  5
43
  8
____1
  6
CONTINUOUS
 62
     7
 10
25322.458346827079
 20
12759.870216288809
 30
0.0
 11
25322.458346827079
 21
12759.870216288809
 31
0.0
 12
25302.45834682709
 22
12763.870216288809
 32
0.0
 13
25317.45834682709
 23
12763.870216288809
 33
0.0
  0
SOLID
  5
44
  8
____1
  6
CONTINUOUS
 62
     7
 10
25302.45834682709
 20
12763.870216288809
 30
0.0
 11
25317.45834682709
 21
12763.870216288809
 31
0.0
 12
25322.458346827079
 22
12767.870216288809
 32
0.0
 13
25322.458346827079
 23
12767.870216288809
 33
0.0
  0
LINE
  5
45
  8
____1
  6
CONTINUOUS
 62
     7
 10
25302.45834682709
 20
12763.870216288809
 30
0.0
 11
25622.45834682709
 21
12763.870216288809
 31
0.0
  0
SOLID
  5
46
  8
____1
  6
CONTINUOUS
 62
     7
 10
25922.45834682709
 20
12759.870216288809
 30
0.0
 11
25922.45834682709
 21
12759.870216288809
 31
0.0
 12
25927.45834682709
 22
12763.870216288809
 32
0.0
 13
25942.45834682709
 23
12763.870216288809
 33
0.0
  0
SOLID
  5
47
  8
____1
  6
CONTINUOUS
 62
     7
 10
25927.45834682709
 20
12763.870216288809
 30
0.0
 11
25942.45834682709
 21
12763.870216288809
 31
0.0
 12
25922.45834682709
 22
12767.870216288809
 32
0.0
 13
25922.45834682709
 23
12767.870216288809
 33
0.0
  0
LINE
  5
48
  8
____1
  6
CONTINUOUS
 62
     7
 10
25942.45834682709
 20
12763.870216288809
 30
0.0
 11
25622.45834682709
 21
12763.870216288809
 31
0.0
  0
TEXT
  5
49
  8
______
  6
DASHED2
 62
     7
 10
25601.291680796199
 20
12771.98595690593
 30
0.0
 40
28.222221374511719
  1
640
  7
STYLE1
  0
ENDBLK
  5
4A
  8
0
  0
BLOCK
  8
0
  2
*D2
 70
     1
 10
0.0
 20
0.0
 30
0.0
  3
*D2
  1

  0
LINE
  5
4E
  8
____1
  6
CONTINUOUS
 62
     7
 10
25972.45834682709
 20
12968.31078867995
 30
0.0
 11
25972.45834682709
 21
12691.57646628881
 31
0.0
  0
LINE
  5
4F
  8
____1
  6
CONTINUOUS
 62
     7
 10
25272.458346827079
 20
12968.31078867995
 30
0.0
 11
25272.458346827079
 21
12691.57646628881
 31
0.0
  0
SOLID
  5
50
  8
____1
  6
CONTINUOUS
 62
     7
 10
25292.458346827079
 20
12695.57646628881
 30
0.0
 11
25292.458346827079
 21
12695.57646628881
 31
0.0
 12
25272.458346827079
 22
12699.57646628881
 32
0.0
 13
25287.458346827079
 23
12699.57646628881
 33
0.0
  0
SOLID
  5
51
  8
____1
  6
CONTINUOUS
 62
     7
 10
25272.458346827079
 20
12699.57646628881
 30
0.0
 11
25287.458346827079
 21
12699.57646628881
 31
0.0
 12
25292.458346827079
 22
12703.57646628881
 32
0.0
 13
25292.458346827079
 23
12703.57646628881
 33
0.0
  0
LINE
  5
52
  8
____1
  6
CONTINUOUS
 62
     7
 10
25272.458346827079
 20
12699.57646628881
 30
0.0
 11
25622.45834682709
 21
12699.57646628881
 31
0.0
  0
SOLID
  5
53
  8
____1
  6
CONTINUOUS
 62
     7
 10
25952.45834682709
 20
12695.57646628881
 30
0.0
 11
25952.45834682709
 21
12695.57646628881
 31
0.0
 12
25957.45834682709
 22
12699.57646628881
 32
0.0
 13
25972.45834682709
 23
12699.57646628881
 33
0.0
  0
SOLID
  5
54
  8
____1
  6
CONTINUOUS
 62
     7
 10
25957.45834682709
 20
12699.57646628881
 30
0.0
 11
25972.45834682709
 21
12699.57646628881
 31
0.0
 12
25952.45834682709
 22
12703.57646628881
 32
0.0
 13
25952.45834682709
 23
12703.57646628881
 33
0.0
  0
LINE
  5
55
  8
____1
  6
CONTINUOUS
 62
     7
 10
25972.45834682709
 20
12699.57646628881
 30
0.0
 11
25622.45834682709
 21
12699.57646628881
 31
0.0
  0
TEXT
  5
56
  8
______
  6
DASHED2
 62
     7
 10
25601.291680796199
 20
12707.692206905929
 30
0.0
 40
28.222221374511719
  1
700
  7
STYLE1
  0
ENDBLK
  5
57
  8
0
  0
BLOCK
  8
0
  2
*D3
 70
     1
 10
0.0
 20
0.0
 30
0.0
  3
*D3
  1

  0
LINE
  5
5E
  8
____1
  6
CONTINUOUS
 62
     7
 10
27324.11229206909
 20
12708.053464678849
 30
0.0
 11
27331.702202915221
 21
12708.053464678849
 31
0.0
  0
LINE
  5
5F
  8
____1
  6
CONTINUOUS
 62
     7
 10
27331.702202915221
 20
12968.459317950341
 30
0.0
 11
27331.702202915221
 21
12700.053464678849
 31
0.0
  0
LINE
  5
60
  8
____1
  6
CONTINUOUS
 62
     7
 10
27324.11229206909
 20
12993.31484768846
 30
0.0
 11
27324.11229206909
 21
12700.053464678849
 31
0.0
  0
SOLID
  5
61
  8
____1
  6
CONTINUOUS
 62
     7
 10
27323.36229206909
 20
12705.053464678849
 30
0.0
 11
27324.86229206909
 21
12705.053464678849
 31
0.0
 12
27321.86229206909
 22
12705.803464678849
 32
0.0
 13
27326.36229206909
 23
12705.803464678849
 33
0.0
  0
SOLID
  5
62
  8
____1
  6
CONTINUOUS
 62
     7
 10
27321.86229206909
 20
12705.803464678849
 30
0.0
 11
27326.36229206909
 21
12705.803464678849
 31
0.0
 12
27321.11229206909
 22
12707.303464678849
 32
0.0
 13
27327.11229206909
 23
12707.303464678849
 33
0.0
  0
SOLID
  5
63
  8
____1
  6
CONTINUOUS
 62
     7
 10
27321.11229206909
 20
12707.303464678849
 30
0.0
 11
27327.11229206909
 21
12707.303464678849
 31
0.0
 12
27321.11229206909
 22
12708.803464678849
 32
0.0
 13
27327.11229206909
 23
12708.803464678849
 33
0.0
  0
SOLID
  5
64
  8
____1
  6
CONTINUOUS
 62
     7
 10
27321.11229206909
 20
12708.803464678849
 30
0.0
 11
27327.11229206909
 21
12708.803464678849
 31
0.0
 12
27321.86229206909
 22
12710.303464678849
 32
0.0
 13
27326.36229206909
 23
12710.303464678849
 33
0.0
  0
SOLID
  5
65
  8
____1
  6
CONTINUOUS
 62
     7
 10
27321.86229206909
 20
12710.303464678849
 30
0.0
 11
27326.36229206909
 21
12710.303464678849
 31
0.0
 12
27323.36229206909
 22
12711.053464678849
 32
0.0
 13
27324.86229206909
 23
12711.053464678849
 33
0.0
  0
LINE
  5
66
  8
____1
  6
CONTINUOUS
 62
     7
 10
27324.11229206909
 20
12708.053464678849
 30
0.0
 11
27284.11229206909
 21
12708.053464678849
 31
0.0
  0
SOLID
  5
67
  8
____1
  6
CONTINUOUS
 62
     7
 10
27330.952202915221
 20
12705.053464678849
 30
0.0
 11
27332.452202915221
 21
12705.053464678849
 31
0.0
 12
27329.452202915221
 22
12705.803464678849
 32
0.0
 13
27333.952202915221
 23
12705.803464678849
 33
0.0
  0
SOLID
  5
68
  8
____1
  6
CONTINUOUS
 62
     7
 10
27329.452202915221
 20
12705.803464678849
 30
0.0
 11
27333.952202915221
 21
12705.803464678849
 31
0.0
 12
27328.702202915221
 22
12707.303464678849
 32
0.0
 13
27334.702202915221
 23
12707.303464678849
 33
0.0
  0
SOLID
  5
69
  8
____1
  6
CONTINUOUS
 62
     7
 10
27328.702202915221
 20
12707.303464678849
 30
0.0
 11
27334.702202915221
 21
12707.303464678849
 31
0.0
 12
27328.702202915221
 22
12708.803464678849
 32
0.0
 13
27334.702202915221
 23
12708.803464678849
 33
0.0
  0
SOLID
  5
6A
  8
____1
  6
CONTINUOUS
 62
     7
 10
27328.702202915221
 20
12708.803464678849
 30
0.0
 11
27334.702202915221
 21
12708.803464678849
 31
0.0
 12
27329.452202915221
 22
12710.303464678849
 32
0.0
 13
27333.952202915221
 23
12710.303464678849
 33
0.0
  0
SOLID
  5
6B
  8
____1
  6
CONTINUOUS
 62
     7
 10
27329.452202915221
 20
12710.303464678849
 30
0.0
 11
27333.952202915221
 21
12710.303464678849
 31
0.0
 12
27330.952202915221
 22
12711.053464678849
 32
0.0
 13
27332.452202915221
 23
12711.053464678849
 33
0.0
  0
LINE
  5
6C
  8
____1
  6
CONTINUOUS
 62
     7
 10
27331.702202915221
 20
12708.053464678849
 30
0.0
 11
27371.702202915221
 21
12708.053464678849
 31
0.0
  0
ENDBLK
  5
6D
  8
0
  0
BLOCK
  8
0
  2
*D4
 70
     1
 10
0.0
 20
0.0
 30
0.0
  3
*D4
  1

  0
LINE
  5
71
  8
____1
  6
CONTINUOUS
 62
     7
 10
27278.631816285979
 20
12708.049426991691
 30
0.0
 11
27324.112294088169
 21
12708.049426991691
 31
0.0
  0
LINE
  5
72
  8
____1
  6
CONTINUOUS
 62
     7
 10
27324.112294088169
 20
12993.312386544059
 30
0.0
 11
27324.112294088169
 21
12700.049426991691
 31
0.0
  0
LINE
  5
73
  8
____1
  6
CONTINUOUS
 62
     7
 10
27278.631816285979
 20
12991.740222890119
 30
0.0
 11
27278.631816285979
 21
12700.049426991691
 31
0.0
  0
SOLID
  5
74
  8
____1
  6
CONTINUOUS
 62
     7
 10
27258.63181628599
 20
12704.049426991691
 30
0.0
 11
27258.63181628599
 21
12704.049426991691
 31
0.0
 12
27263.63181628599
 22
12708.049426991691
 32
0.0
 13
27278.631816285979
 23
12708.049426991691
 33
0.0
  0
SOLID
  5
75
  8
____1
  6
CONTINUOUS
 62
     7
 10
27263.63181628599
 20
12708.049426991691
 30
0.0
 11
27278.631816285979
 21
12708.049426991691
 31
0.0
 12
27258.63181628599
 22
12712.049426991691
 32
0.0
 13
27258.63181628599
 23
12712.049426991691
 33
0.0
  0
LINE
  5
76
  8
____1
  6
CONTINUOUS
 62
     7
 10
27278.631816285979
 20
12708.049426991691
 30
0.0
 11
27194.050177949812
 21
12708.049426991691
 31
0.0
  0
SOLID
  5
77
  8
____1
  6
CONTINUOUS
 62
     7
 10
27344.112294088161
 20
12704.049426991691
 30
0.0
 11
27344.112294088161
 21
12704.049426991691
 31
0.0
 12
27324.112294088169
 22
12708.049426991691
 32
0.0
 13
27339.112294088169
 23
12708.049426991691
 33
0.0
  0
SOLID
  5
78
  8
____1
  6
CONTINUOUS
 62
     7
 10
27324.112294088169
 20
12708.049426991691
 30
0.0
 11
27339.112294088169
 21
12708.049426991691
 31
0.0
 12
27344.112294088161
 22
12712.049426991691
 32
0.0
 13
27344.112294088161
 23
12712.049426991691
 33
0.0
  0
LINE
  5
79
  8
____1
  6
CONTINUOUS
 62
     7
 10
27324.112294088169
 20
12708.049426991691
 30
0.0
 11
27364.112294088169
 21
12708.049426991691
 31
0.0
  0
TEXT
  5
7A
  8
______
  6
DASHED2
 62
     7
 10
27208.16128863706
 20
12716.1651676088
 30
0.0
 40
28.222221374511719
  1
45.5
  7
STYLE1
  0
ENDBLK
  5
7B
  8
0
  0
BLOCK
  8
0
  2
*D5
 70
     1
 10
0.0
 20
0.0
 30
0.0
  3
*D5
  1

  0
LINE
  5
80
  8
____1
  6
CONTINUOUS
 62
     7
 10
27278.631816285979
 20
12708.04941227875
 30
0.0
 11
27324.112294088169
 21
12708.04941227875
 31
0.0
  0
LINE
  5
81
  8
____1
  6
CONTINUOUS
 62
     7
 10
27324.112294088169
 20
12993.312386544059
 30
0.0
 11
27324.112294088169
 21
12700.04941227875
 31
0.0
  0
LINE
  5
82
  8
____1
  6
CONTINUOUS
 62
     7
 10
27278.631816285979
 20
12991.740222890119
 30
0.0
 11
27278.631816285979
 21
12700.04941227875
 31
0.0
  0
SOLID
  5
83
  8
____1
  6
CONTINUOUS
 62
     7
 10
27258.63181628599
 20
12704.04941227875
 30
0.0
 11
27258.63181628599
 21
12704.04941227875
 31
0.0
 12
27263.63181628599
 22
12708.04941227875
 32
0.0
 13
27278.631816285979
 23
12708.04941227875
 33
0.0
  0
SOLID
  5
84
  8
____1
  6
CONTINUOUS
 62
     7
 10
27263.63181628599
 20
12708.04941227875
 30
0.0
 11
27278.631816285979
 21
12708.04941227875
 31
0.0
 12
27258.63181628599
 22
12712.04941227875
 32
0.0
 13
27258.63181628599
 23
12712.04941227875
 33
0.0
  0
LINE
  5
85
  8
____1
  6
CONTINUOUS
 62
     7
 10
27278.631816285979
 20
12708.04941227875
 30
0.0
 11
27194.05017977603
 21
12708.04941227875
 31
0.0
  0
SOLID
  5
86
  8
____1
  6
CONTINUOUS
 62
     7
 10
27344.112294088161
 20
12704.04941227875
 30
0.0
 11
27344.112294088161
 21
12704.04941227875
 31
0.0
 12
27324.112294088169
 22
12708.04941227875
 32
0.0
 13
27339.112294088169
 23
12708.04941227875
 33
0.0
  0
SOLID
  5
87
  8
____1
  6
CONTINUOUS
 62
     7
 10
27324.112294088169
 20
12708.04941227875
 30
0.0
 11
27339.112294088169
 21
12708.04941227875
 31
0.0
 12
27344.112294088161
 22
12712.04941227875
 32
0.0
 13
27344.112294088161
 23
12712.04941227875
 33
0.0
  0
LINE
  5
88
  8
____1
  6
CONTINUOUS
 62
     7
 10
27324.112294088169
 20
12708.04941227875
 30
0.0
 11
27364.112294088169
 21
12708.04941227875
 31
0.0
  0
TEXT
  5
89
  8
______
  6
DASHED2
 62
     7
 10
27208.161290463289
 20
12716.165152895859
 30
0.0
 40
28.222221374511719
  1
45.5
  7
STYLE1
  0
ENDBLK
  5
8A
  8
0
  0
BLOCK
  8
0
  2
*D6
 70
     1
 10
0.0
 20
0.0
 30
0.0
  3
*D6
  1

  0
LINE
  5
8E
  8
____1
  6
CONTINUOUS
 62
     7
 10
27324.11229206909
 20
12708.05347128726
 30
0.0
 11
27331.702202915221
 21
12708.05347128726
 31
0.0
  0
LINE
  5
8F
  8
____1
  6
CONTINUOUS
 62
     7
 10
27331.702202915221
 20
12968.459317950341
 30
0.0
 11
27331.702202915221
 21
12700.05347128726
 31
0.0
  0
LINE
  5
90
  8
____1
  6
CONTINUOUS
 62
     7
 10
27324.11229206909
 20
12993.31484768846
 30
0.0
 11
27324.11229206909
 21
12700.05347128726
 31
0.0
  0
SOLID
  5
91
  8
____1
  6
CONTINUOUS
 62
     7
 10
27323.36229206909
 20
12705.05347128726
 30
0.0
 11
27324.86229206909
 21
12705.05347128726
 31
0.0
 12
27321.86229206909
 22
12705.80347128726
 32
0.0
 13
27326.36229206909
 23
12705.80347128726
 33
0.0
  0
SOLID
  5
92
  8
____1
  6
CONTINUOUS
 62
     7
 10
27321.86229206909
 20
12705.80347128726
 30
0.0
 11
27326.36229206909
 21
12705.80347128726
 31
0.0
 12
27321.11229206909
 22
12707.30347128726
 32
0.0
 13
27327.11229206909
 23
12707.30347128726
 33
0.0
  0
SOLID
  5
93
  8
____1
  6
CONTINUOUS
 62
     7
 10
27321.11229206909
 20
12707.30347128726
 30
0.0
 11
27327.11229206909
 21
12707.30347128726
 31
0.0
 12
27321.11229206909
 22
12708.80347128726
 32
0.0
 13
27327.11229206909
 23
12708.80347128726
 33
0.0
  0
SOLID
  5
94
  8
____1
  6
CONTINUOUS
 62
     7
 10
27321.11229206909
 20
12708.80347128726
 30
0.0
 11
27327.11229206909
 21
12708.80347128726
 31
0.0
 12
27321.86229206909
 22
12710.30347128726
 32
0.0
 13
27326.36229206909
 23
12710.30347128726
 33
0.0
  0
SOLID
  5
95
  8
____1
  6
CONTINUOUS
 62
     7
 10
27321.86229206909
 20
12710.30347128726
 30
0.0
 11
27326.36229206909
 21
12710.30347128726
 31
0.0
 12
27323.36229206909
 22
12711.05347128726
 32
0.0
 13
27324.86229206909
 23
12711.05347128726
 33
0.0
  0
LINE
  5
96
  8
____1
  6
CONTINUOUS
 62
     7
 10
27324.11229206909
 20
12708.05347128726
 30
0.0
 11
27284.11229206909
 21
12708.05347128726
 31
0.0
  0
SOLID
  5
97
  8
____1
  6
CONTINUOUS
 62
     7
 10
27330.952202915221
 20
12705.05347128726
 30
0.0
 11
27332.452202915221
 21
12705.05347128726
 31
0.0
 12
27329.452202915221
 22
12705.80347128726
 32
0.0
 13
27333.952202915221
 23
12705.80347128726
 33
0.0
  0
SOLID
  5
98
  8
____1
  6
CONTINUOUS
 62
     7
 10
27329.452202915221
 20
12705.80347128726
 30
0.0
 11
27333.952202915221
 21
12705.80347128726
 31
0.0
 12
27328.702202915221
 22
12707.30347128726
 32
0.0
 13
27334.702202915221
 23
12707.30347128726
 33
0.0
  0
SOLID
  5
99
  8
____1
  6
CONTINUOUS
 62
     7
 10
27328.702202915221
 20
12707.30347128726
 30
0.0
 11
27334.702202915221
 21
12707.30347128726
 31
0.0
 12
27328.702202915221
 22
12708.80347128726
 32
0.0
 13
27334.702202915221
 23
12708.80347128726
 33
0.0
  0
SOLID
  5
9A
  8
____1
  6
CONTINUOUS
 62
     7
 10
27328.702202915221
 20
12708.80347128726
 30
0.0
 11
27334.702202915221
 21
12708.80347128726
 31
0.0
 12
27329.452202915221
 22
12710.30347128726
 32
0.0
 13
27333.952202915221
 23
12710.30347128726
 33
0.0
  0
SOLID
  5
9B
  8
____1
  6
CONTINUOUS
 62
     7
 10
27329.452202915221
 20
12710.30347128726
 30
0.0
 11
27333.952202915221
 21
12710.30347128726
 31
0.0
 12
27330.952202915221
 22
12711.05347128726
 32
0.0
 13
27332.452202915221
 23
12711.05347128726
 33
0.0
  0
LINE
  5
9C
  8
____1
  6
CONTINUOUS
 62
     7
 10
27331.702202915221
 20
12708.05347128726
 30
0.0
 11
27371.702202915221
 21
12708.05347128726
 31
0.0
  0
ENDBLK
  5
9D
  8
0
  0
BLOCK
  8
0
  2
*D7
 70
     1
 10
0.0
 20
0.0
 30
0.0
  3
*D7
  1

  0
LINE
  5
A2
  8
____1
  6
CONTINUOUS
 62
     7
 10
27331.702202915221
 20
12708.0494132527
 30
0.0
 11
27361.702202915221
 21
12708.0494132527
 31
0.0
  0
LINE
  5
A3
  8
____1
  6
CONTINUOUS
 62
     7
 10
27361.702202915221
 20
12818.31078867995
 30
0.0
 11
27361.702202915221
 21
12700.0494132527
 31
0.0
  0
LINE
  5
A4
  8
____1
  6
CONTINUOUS
 62
     7
 10
27331.702202915221
 20
12968.31078867995
 30
0.0
 11
27331.702202915221
 21
12700.0494132527
 31
0.0
  0
SOLID
  5
A5
  8
____1
  6
CONTINUOUS
 62
     7
 10
27330.952202915221
 20
12705.0494132527
 30
0.0
 11
27332.452202915221
 21
12705.0494132527
 31
0.0
 12
27329.452202915221
 22
12705.7994132527
 32
0.0
 13
27333.952202915221
 23
12705.7994132527
 33
0.0
  0
SOLID
  5
A6
  8
____1
  6
CONTINUOUS
 62
     7
 10
27329.452202915221
 20
12705.7994132527
 30
0.0
 11
27333.952202915221
 21
12705.7994132527
 31
0.0
 12
27328.702202915221
 22
12707.2994132527
 32
0.0
 13
27334.702202915221
 23
12707.2994132527
 33
0.0
  0
SOLID
  5
A7
  8
____1
  6
CONTINUOUS
 62
     7
 10
27328.702202915221
 20
12707.2994132527
 30
0.0
 11
27334.702202915221
 21
12707.2994132527
 31
0.0
 12
27328.702202915221
 22
12708.7994132527
 32
0.0
 13
27334.702202915221
 23
12708.7994132527
 33
0.0
  0
SOLID
  5
A8
  8
____1
  6
CONTINUOUS
 62
     7
 10
27328.702202915221
 20
12708.7994132527
 30
0.0
 11
27334.702202915221
 21
12708.7994132527
 31
0.0
 12
27329.452202915221
 22
12710.2994132527
 32
0.0
 13
27333.952202915221
 23
12710.2994132527
 33
0.0
  0
SOLID
  5
A9
  8
____1
  6
CONTINUOUS
 62
     7
 10
27329.452202915221
 20
12710.2994132527
 30
0.0
 11
27333.952202915221
 21
12710.2994132527
 31
0.0
 12
27330.952202915221
 22
12711.0494132527
 32
0.0
 13
27332.452202915221
 23
12711.0494132527
 33
0.0
  0
LINE
  5
AA
  8
____1
  6
CONTINUOUS
 62
     7
 10
27331.702202915221
 20
12708.0494132527
 30
0.0
 11
27291.702202915221
 21
12708.0494132527
 31
0.0
  0
SOLID
  5
AB
  8
____1
  6
CONTINUOUS
 62
     7
 10
27360.952202915221
 20
12705.0494132527
 30
0.0
 11
27362.452202915221
 21
12705.0494132527
 31
0.0
 12
27359.452202915221
 22
12705.7994132527
 32
0.0
 13
27363.952202915221
 23
12705.7994132527
 33
0.0
  0
SOLID
  5
AC
  8
____1
  6
CONTINUOUS
 62
     7
 10
27359.452202915221
 20
12705.7994132527
 30
0.0
 11
27363.952202915221
 21
12705.7994132527
 31
0.0
 12
27358.702202915221
 22
12707.2994132527
 32
0.0
 13
27364.702202915221
 23
12707.2994132527
 33
0.0
  0
SOLID
  5
AD
  8
____1
  6
CONTINUOUS
 62
     7
 10
27358.702202915221
 20
12707.2994132527
 30
0.0
 11
27364.702202915221
 21
12707.2994132527
 31
0.0
 12
27358.702202915221
 22
12708.7994132527
 32
0.0
 13
27364.702202915221
 23
12708.7994132527
 33
0.0
  0
SOLID
  5
AE
  8
____1
  6
CONTINUOUS
 62
     7
 10
27358.702202915221
 20
12708.7994132527
 30
0.0
 11
27364.702202915221
 21
12708.7994132527
 31
0.0
 12
27359.452202915221
 22
12710.2994132527
 32
0.0
 13
27363.952202915221
 23
12710.2994132527
 33
0.0
  0
SOLID
  5
AF
  8
____1
  6
CONTINUOUS
 62
     7
 10
27359.452202915221
 20
12710.2994132527
 30
0.0
 11
27363.952202915221
 21
12710.2994132527
 31
0.0
 12
27360.952202915221
 22
12711.0494132527
 32
0.0
 13
27362.452202915221
 23
12711.0494132527
 33
0.0
  0
LINE
  5
B0
  8
____1
  6
CONTINUOUS
 62
     7
 10
27361.702202915221
 20
12708.0494132527
 30
0.0
 11
27401.702202915221
 21
12708.0494132527
 31
0.0
  0
TEXT
  5
B1
  8
______
  6
DASHED2
 62
     7
 10
27332.591092227962
 20
12716.165153869821
 30
0.0
 40
28.222221374511719
  1
30
  7
STYLE1
  0
ENDBLK
  5
B2
  8
0
  0
BLOCK
  8
0
  2
*D8
 70
     1
 10
0.0
 20
0.0
 30
0.0
  3
*D8
  1

  0
LINE
  5
B9
  8
____1
  6
CONTINUOUS
 62
     7
 10
26122.45834682709
 20
12818.31078867995
 30
0.0
 11
26122.45834682709
 21
12622.499023447421
 31
0.0
  0
LINE
  5
BA
  8
____1
  6
CONTINUOUS
 62
     7
 10
25122.45834682709
 20
12818.31078867995
 30
0.0
 11
25122.45834682709
 21
12622.499023447421
 31
0.0
  0
SOLID
  5
BB
  8
____1
  6
CONTINUOUS
 62
     7
 10
25142.45834682709
 20
12626.499023447421
 30
0.0
 11
25142.45834682709
 21
12626.499023447421
 31
0.0
 12
25122.45834682709
 22
12630.499023447421
 32
0.0
 13
25137.45834682709
 23
12630.499023447421
 33
0.0
  0
SOLID
  5
BC
  8
____1
  6
CONTINUOUS
 62
     7
 10
25122.45834682709
 20
12630.499023447421
 30
0.0
 11
25137.45834682709
 21
12630.499023447421
 31
0.0
 12
25142.45834682709
 22
12634.499023447421
 32
0.0
 13
25142.45834682709
 23
12634.499023447421
 33
0.0
  0
LINE
  5
BD
  8
____1
  6
CONTINUOUS
 62
     7
 10
25122.45834682709
 20
12630.499023447421
 30
0.0
 11
25622.45834682709
 21
12630.499023447421
 31
0.0
  0
SOLID
  5
BE
  8
____1
  6
CONTINUOUS
 62
     7
 10
26102.45834682709
 20
12626.499023447421
 30
0.0
 11
26102.45834682709
 21
12626.499023447421
 31
0.0
 12
26107.45834682709
 22
12630.499023447421
 32
0.0
 13
26122.45834682709
 23
12630.499023447421
 33
0.0
  0
SOLID
  5
BF
  8
____1
  6
CONTINUOUS
 62
     7
 10
26107.45834682709
 20
12630.499023447421
 30
0.0
 11
26122.45834682709
 21
12630.499023447421
 31
0.0
 12
26102.45834682709
 22
12634.499023447421
 32
0.0
 13
26102.45834682709
 23
12634.499023447421
 33
0.0
  0
LINE
  5
C0
  8
____1
  6
CONTINUOUS
 62
     7
 10
26122.45834682709
 20
12630.499023447421
 30
0.0
 11
25622.45834682709
 21
12630.499023447421
 31
0.0
  0
TEXT
  5
C1
  8
______
  6
DASHED2
 62
     7
 10
25594.236125452571
 20
12638.61476406453
 30
0.0
 40
28.222221374511719
  1
1000
  7
STYLE1
  0
ENDBLK
  5
C2
  8
0
  0
BLOCK
  8
0
  2
*D9
 70
     1
 10
0.0
 20
0.0
 30
0.0
  3
*D9
  1

  0
LINE
  5
C6
  8
____1
  6
CONTINUOUS
 62
     7
 10
25964.958346827079
 20
12084.05661424041
 30
0.0
 11
25964.958346827079
 21
11971.39716585667
 31
0.0
  0
LINE
  5
C7
  8
____1
  6
CONTINUOUS
 62
     7
 10
25279.95834682709
 20
12084.05661424041
 30
0.0
 11
25279.95834682709
 21
11971.39716585667
 31
0.0
  0
SOLID
  5
C8
  8
____1
  6
CONTINUOUS
 62
     7
 10
25299.95834682709
 20
11975.39716585667
 30
0.0
 11
25299.95834682709
 21
11975.39716585667
 31
0.0
 12
25279.95834682709
 22
11979.39716585667
 32
0.0
 13
25294.95834682709
 23
11979.39716585667
 33
0.0
  0
SOLID
  5
C9
  8
____1
  6
CONTINUOUS
 62
     7
 10
25279.95834682709
 20
11979.39716585667
 30
0.0
 11
25294.95834682709
 21
11979.39716585667
 31
0.0
 12
25299.95834682709
 22
11983.39716585667
 32
0.0
 13
25299.95834682709
 23
11983.39716585667
 33
0.0
  0
LINE
  5
CA
  8
____1
  6
CONTINUOUS
 62
     7
 10
25279.95834682709
 20
11979.39716585667
 30
0.0
 11
25622.45834682709
 21
11979.39716585667
 31
0.0
  0
SOLID
  5
CB
  8
____1
  6
CONTINUOUS
 62
     7
 10
25944.958346827079
 20
11975.39716585667
 30
0.0
 11
25944.958346827079
 21
11975.39716585667
 31
0.0
 12
25949.958346827079
 22
11979.39716585667
 32
0.0
 13
25964.958346827079
 23
11979.39716585667
 33
0.0
  0
SOLID
  5
CC
  8
____1
  6
CONTINUOUS
 62
     7
 10
25949.958346827079
 20
11979.39716585667
 30
0.0
 11
25964.958346827079
 21
11979.39716585667
 31
0.0
 12
25944.958346827079
 22
11983.39716585667
 32
0.0
 13
25944.958346827079
 23
11983.39716585667
 33
0.0
  0
LINE
  5
CD
  8
____1
  6
CONTINUOUS
 62
     7
 10
25964.958346827079
 20
11979.39716585667
 30
0.0
 11
25622.45834682709
 21
11979.39716585667
 31
0.0
  0
TEXT
  5
CE
  8
______
  6
CENTER2
 62
     7
 10
25601.291680796199
 20
11987.51290647379
 30
0.0
 40
28.222221374511719
  1
685
  7
STYLE1
  0
ENDBLK
  5
CF
  8
0
  0
BLOCK
  8
0
  2
*D10
 70
     1
 10
0.0
 20
0.0
 30
0.0
  3
*D10
  1

  0
LINE
  5
D3
  8
____1
  6
CONTINUOUS
 62
     7
 10
25982.45834682709
 20
12098.55661424041
 30
0.0
 11
25982.45834682709
 21
12238.58158215697
 31
0.0
  0
LINE
  5
D4
  8
____1
  6
CONTINUOUS
 62
     7
 10
25262.45834682709
 20
12098.55661424041
 30
0.0
 11
25262.45834682709
 21
12238.58158215697
 31
0.0
  0
SOLID
  5
D5
  8
____1
  6
CONTINUOUS
 62
     7
 10
25282.45834682709
 20
12226.58158215697
 30
0.0
 11
25282.45834682709
 21
12226.58158215697
 31
0.0
 12
25262.45834682709
 22
12230.58158215697
 32
0.0
 13
25277.45834682709
 23
12230.58158215697
 33
0.0
  0
SOLID
  5
D6
  8
____1
  6
CONTINUOUS
 62
     7
 10
25262.45834682709
 20
12230.58158215697
 30
0.0
 11
25277.45834682709
 21
12230.58158215697
 31
0.0
 12
25282.45834682709
 22
12234.58158215697
 32
0.0
 13
25282.45834682709
 23
12234.58158215697
 33
0.0
  0
LINE
  5
D7
  8
____1
  6
CONTINUOUS
 62
     7
 10
25262.45834682709
 20
12230.58158215697
 30
0.0
 11
25622.45834682709
 21
12230.58158215697
 31
0.0
  0
SOLID
  5
D8
  8
____1
  6
CONTINUOUS
 62
     7
 10
25962.458346827079
 20
12226.58158215697
 30
0.0
 11
25962.458346827079
 21
12226.58158215697
 31
0.0
 12
25967.45834682709
 22
12230.58158215697
 32
0.0
 13
25982.45834682709
 23
12230.58158215697
 33
0.0
  0
SOLID
  5
D9
  8
____1
  6
CONTINUOUS
 62
     7
 10
25967.45834682709
 20
12230.58158215697
 30
0.0
 11
25982.45834682709
 21
12230.58158215697
 31
0.0
 12
25962.458346827079
 22
12234.58158215697
 32
0.0
 13
25962.458346827079
 23
12234.58158215697
 33
0.0
  0
LINE
  5
DA
  8
____1
  6
CONTINUOUS
 62
     7
 10
25982.45834682709
 20
12230.58158215697
 30
0.0
 11
25622.45834682709
 21
12230.58158215697
 31
0.0
  0
TEXT
  5
DB
  8
______
  6
CENTER2
 62
     7
 10
25601.291680796199
 20
12238.697322774089
 30
0.0
 40
28.222221374511719
  1
720
  7
STYLE1
  0
ENDBLK
  5
DC
  8
0
  0
BLOCK
  8
0
  2
C0
 70
     0
 10
0.0
 20
0.0
 30
0.0
  3
C0
  1

  0
TEXT
  5
E6
  8
____1
  6
CONTINUOUS
 62
     7
 10
27523.19215025656
 20
12175.25801844787
 30
0.0
 40
28.222221374511719
  1
数量
  7
STYLE1
  0
TEXT
  5
E7
  8
____1
  6
DOT
 62
     7
 10
27640.8588181948
 20
12175.25801844787
 30
0.0
 40
28.222221374511719
  1
備　　　考
  7
STYLE1
  0
LINE
  5
E8
  8
____1
  6
CONTINUOUS
 62
     7
 10
26747.414371631068
 20
12165.252500000001
 30
0.0
 11
26747.414371631068
 21
12205.252500000001
 31
0.0
  0
LINE
  5
E9
  8
____1
  6
CONTINUOUS
 62
     7
 10
26675.414371631068
 20
12165.252500000001
 30
0.0
 11
26675.414371631068
 21
12205.252500000001
 31
0.0
  0
LINE
  5
EA
  8
____1
  6
CONTINUOUS
 62
     7
 10
27587.414371631079
 20
12165.252500000001
 30
0.0
 11
27587.414371631079
 21
12205.252500000001
 31
0.0
  0
LINE
  5
EB
  8
____1
  6
CONTINUOUS
 62
     7
 10
27515.414371631068
 20
12165.252500000001
 30
0.0
 11
27515.414371631068
 21
12205.252500000001
 31
0.0
  0
LINE
  5
EC
  8
____1
  6
CONTINUOUS
 62
     7
 10
27835.414371631068
 20
12205.252500000001
 30
0.0
 11
26675.414371631068
 21
12205.252500000001
 31
0.0
  0
LINE
  5
ED
  8
____1
  6
CONTINUOUS
 62
     7
 10
26675.414371631068
 20
12165.252500000001
 30
0.0
 11
27835.414371631068
 21
12165.252500000001
 31
0.0
  0
LINE
  5
EE
  8
____1
  6
CONTINUOUS
 62
     7
 10
27147.414371631068
 20
12165.252500000001
 30
0.0
 11
27147.414371631068
 21
12205.252500000001
 31
0.0
  0
TEXT
  5
EF
  8
____1
  6
CONTINUOUS
 62
     7
 10
27260.858814380099
 20
12175.25801844787
 30
0.0
 40
28.222221374511719
  1
材　　　質
  7
STYLE1
  0
TEXT
  5
F0
  8
____1
  6
CONTINUOUS
 62
     7
 10
26876.858814380099
 20
12175.25801844787
 30
0.0
 40
28.222221374511719
  1
品　　　名
  7
STYLE1
  0
CIRCLE
  5
F1
  8
____1
  6
CONTINUOUS
 62
     7
 10
27142.61437163108
 20
12081.252500000001
 30
0.0
 40
9.5999999999985448
  0
LINE
  5
F2
  8
____1
  6
CONTINUOUS
 62
     7
 10
27186.501711724592
 20
12071.652499999989
 30
0.0
 11
27224.901711724589
 21
12062.0525
 31
0.0
  0
LINE
  5
F3
  8
____1
  6
CONTINUOUS
 62
     7
 10
27186.501711724592
 20
12090.852500000001
 30
0.0
 11
27186.501711724592
 21
12071.652499999989
 31
0.0
  0
LINE
  5
F4
  8
____1
  6
CONTINUOUS
 62
     7
 10
27224.901711724589
 20
12100.452499999999
 30
0.0
 11
27224.901711724589
 21
12062.0525
 31
0.0
  0
LINE
  5
F5
  8
____1
  6
CENTER2
 62
     7
 10
27142.61437163108
 20
12110.0525
 30
0.0
 11
27142.61437163108
 21
12052.452499999999
 31
0.0
  0
LINE
  5
F6
  8
____1
  6
CENTER2
 62
     7
 10
27142.61437163108
 20
12110.0525
 30
0.0
 11
27142.61437163108
 21
12052.452499999999
 31
0.0
  0
LINE
  5
F7
  8
____1
  6
CONTINUOUS
 62
     7
 10
27224.901711724589
 20
12100.452499999999
 30
0.0
 11
27224.901711724589
 21
12062.0525
 31
0.0
  0
LINE
  5
F8
  8
____1
  6
CONTINUOUS
 62
     7
 10
27186.501711724592
 20
12090.852500000001
 30
0.0
 11
27186.501711724592
 21
12071.652499999989
 31
0.0
  0
LINE
  5
F9
  8
____1
  6
CONTINUOUS
 62
     7
 10
27186.501711724592
 20
12071.652499999989
 30
0.0
 11
27224.901711724589
 21
12062.0525
 31
0.0
  0
LINE
  5
FA
  8
____1
  6
CONTINUOUS
 62
     7
 10
27186.501711724592
 20
12090.852500000001
 30
0.0
 11
27224.901711724589
 21
12100.452499999999
 31
0.0
  0
CIRCLE
  5
FB
  8
____1
  6
CONTINUOUS
 62
     7
 10
27142.61437163108
 20
12081.252500000001
 30
0.0
 40
19.19999999999709
  0
CIRCLE
  5
FC
  8
____1
  6
CONTINUOUS
 62
     7
 10
27142.61437163108
 20
12081.252500000001
 30
0.0
 40
9.5999999999985448
  0
CIRCLE
  5
FD
  8
____1
  6
CONTINUOUS
 62
     7
 10
27142.61437163108
 20
12081.252500000001
 30
0.0
 40
19.19999999999709
  0
LINE
  5
FE
  8
____1
  6
CONTINUOUS
 62
     7
 10
27186.501711724592
 20
12090.852500000001
 30
0.0
 11
27224.901711724589
 21
12100.452499999999
 31
0.0
  0
LINE
  5
FF
  8
____1
  6
CONTINUOUS
 62
     7
 10
27186.501711724592
 20
12071.652499999989
 30
0.0
 11
27224.901711724589
 21
12062.0525
 31
0.0
  0
LINE
  5
100
  8
____1
  6
CONTINUOUS
 62
     7
 10
27186.501711724592
 20
12090.852500000001
 30
0.0
 11
27186.501711724592
 21
12071.652499999989
 31
0.0
  0
LINE
  5
101
  8
____1
  6
CONTINUOUS
 62
     7
 10
27224.901711724589
 20
12100.452499999999
 30
0.0
 11
27224.901711724589
 21
12062.0525
 31
0.0
  0
LINE
  5
102
  8
____1
  6
CONTINUOUS
 62
     7
 10
27109.984392022208
 20
11915.289001595251
 30
0.0
 11
27105.458908622619
 21
11910.76351819565
 31
0.0
  0
LINE
  5
103
  8
____1
  6
CENTER2
 62
     7
 10
27113.81437163107
 20
12081.252500000001
 30
0.0
 11
27237.01437163107
 21
12081.252500000001
 31
0.0
  0
CIRCLE
  5
104
  8
____1
  6
CONTINUOUS
 62
     7
 10
27142.61437163108
 20
12081.252500000001
 30
0.0
 40
9.5999999999985448
  0
POLYLINE
  5
105
  8
____1
  6
CONTINUOUS
 62
     7
 66
     1
 10
0.0
 20
0.0
 30
0.0
 70
     8
  0
VERTEX
  5
106
  8
____1
 62
     7
 10
27131.461330360569
 20
11893.67780890979
 30
0.0
 70
    32
  0
VERTEX
  5
107
  8
____1
 62
     7
 10
27133.697901588221
 20
11893.07443667173
 30
0.0
 70
    32
  0
VERTEX
  5
108
  8
____1
 62
     7
 10
27135.96599740789
 20
11892.521817070159
 30
0.0
 70
    32
  0
VERTEX
  5
109
  8
____1
 62
     7
 10
27140.57874877072
 20
11891.539834269921
 30
0.0
 70
    32
  0
VERTEX
  5
10A
  8
____1
 62
     7
 10
27145.263556343882
 20
11890.673857495951
 30
0.0
 70
    32
  0
VERTEX
  5
10B
  8
____1
 62
     7
 10
27149.984392022208
 20
11889.865883735099
 30
0.0
 70
    32
  0
SEQEND
  5
10C
  8
____1
 62
     7
  0
POLYLINE
  5
10D
  8
____1
  6
CONTINUOUS
 62
     7
 66
     1
 10
0.0
 20
0.0
 30
0.0
 70
     8
  0
VERTEX
  5
10E
  8
____1
 62
     7
 10
27105.458908622619
 20
11910.76351819565
 30
0.0
 70
    32
  0
VERTEX
  5
10F
  8
____1
 62
     7
 10
27108.834662578771
 20
11907.06300251738
 30
0.0
 70
    32
  0
VERTEX
  5
110
  8
____1
 62
     7
 10
27110.566198610039
 20
11905.283033044079
 30
0.0
 70
    32
  0
VERTEX
  5
111
  8
____1
 62
     7
 10
27112.350125505171
 20
11903.58740960979
 30
0.0
 70
    32
  0
SEQEND
  5
112
  8
____1
 62
     7
  0
POLYLINE
  5
113
  8
____1
  6
CONTINUOUS
 62
     7
 66
     1
 10
0.0
 20
0.0
 30
0.0
 70
     8
  0
VERTEX
  5
114
  8
____1
 62
     7
 10
27121.654686375012
 20
11884.775222305951
 30
0.0
 70
    32
  0
VERTEX
  5
115
  8
____1
 62
     7
 10
27125.094218280268
 20
11883.72354087651
 30
0.0
 70
    32
  0
VERTEX
  5
116
  8
____1
 62
     7
 10
27128.57442270578
 20
11882.7470650903
 30
0.0
 70
    32
  0
VERTEX
  5
117
  8
____1
 62
     7
 10
27135.633607677439
 20
11880.976755794311
 30
0.0
 70
    32
  0
VERTEX
  5
118
  8
____1
 62
     7
 10
27142.785758409678
 20
11879.37834511143
 30
0.0
 70
    32
  0
VERTEX
  5
119
  8
____1
 62
     7
 10
27149.984392022208
 20
11877.865883735099
 30
0.0
 70
    32
  0
SEQEND
  5
11A
  8
____1
 62
     7
  0
POLYLINE
  5
11B
  8
____1
  6
CONTINUOUS
 62
     7
 66
     1
 10
0.0
 20
0.0
 30
0.0
 70
     8
  0
VERTEX
  5
11C
  8
____1
 62
     7
 10
27077.984392022208
 20
11912.7121194554
 30
0.0
 70
    32
  0
VERTEX
  5
11D
  8
____1
 62
     7
 10
27083.727670473349
 20
11907.461427691631
 30
0.0
 70
    32
  0
VERTEX
  5
11E
  8
____1
 62
     7
 10
27089.564853910058
 20
11902.3843712177
 30
0.0
 70
    32
  0
VERTEX
  5
11F
  8
____1
 62
     7
 10
27092.548005305998
 20
11899.96521724249
 30
0.0
 70
    32
  0
VERTEX
  5
120
  8
____1
 62
     7
 10
27095.589847317919
 20
11897.65458532344
 30
0.0
 70
    32
  0
VERTEX
  5
121
  8
____1
 62
     7
 10
27098.702118069032
 20
11895.47417987176
 30
0.0
 70
    32
  0
VERTEX
  5
122
  8
____1
 62
     7
 10
27101.89655568251
 20
11893.445705298691
 30
0.0
 70
    32
  0
VERTEX
  5
123
  8
____1
 62
     7
 10
27101.896555698841
 20
11893.44570528889
 30
0.0
 70
    32
  0
SEQEND
  5
124
  8
____1
 62
     7
  0
TEXT
  5
125
  8
____1
  6
CONTINUOUS
 62
     7
 10
26683.19215025656
 20
12175.25801844787
 30
0.0
 40
28.222221374511719
  1
品番
  7
STYLE1
  0
LINE
  5
126
  8
____1
  6
CONTINUOUS
 62
     7
 10
27186.501711724592
 20
12090.852500000001
 30
0.0
 11
27186.501711724592
 21
12071.652499999989
 31
0.0
  0
LINE
  5
127
  8
____1
  6
CONTINUOUS
 62
     7
 10
27056.699543537368
 20
11917.865883735099
 30
0.0
 11
27056.699543537368
 21
11905.865883735099
 31
0.0
  0
LINE
  5
128
  8
____1
  6
CONTINUOUS
 62
     7
 10
27186.501711724592
 20
12071.652499999989
 30
0.0
 11
27224.901711724589
 21
12062.0525
 31
0.0
  0
LINE
  5
129
  8
____1
  6
CONTINUOUS
 62
     7
 10
27077.984392022208
 20
11933.865883735099
 30
0.0
 11
27077.984392022208
 21
11919.4658837351
 31
0.0
  0
ARC
  5
12A
  8
____1
  6
CONTINUOUS
 62
     7
 10
27020.699543537368
 20
11901.865883735099
 30
0.0
 40
24.0
 50
-90.0
 51
0.0
  0
LINE
  5
12B
  8
____1
  6
CONTINUOUS
 62
     7
 10
26675.414371631068
 20
12125.252500000001
 30
0.0
 11
26675.414371631068
 21
11861.252500000001
 31
0.0
  0
TEXT
  5
12C
  8
____1
  6
CONTINUOUS
 62
     7
 10
26675.414371631068
 20
11961.06892413029
 30
0.0
 40
28.222221374511719
  1
 製図
  7
STYLE1
  0
TEXT
  5
12D
  8
____1
  6
CONTINUOUS
 62
     7
 10
26675.414371631068
 20
12005.06892413029
 30
0.0
 40
28.222221374511719
  1
 設計
  7
STYLE1
  0
TEXT
  5
12E
  8
____1
  6
CONTINUOUS
 62
     7
 10
26975.414371631068
 20
11961.06892413029
 30
0.0
 40
28.222221374511719
  1
 検図
  7
STYLE1
  0
TEXT
  5
12F
  8
____1
  6
CONTINUOUS
 62
     7
 10
26975.414371631068
 20
12005.06892413029
 30
0.0
 40
28.222221374511719
  1
 照査
  7
STYLE1
  0
LINE
  5
130
  8
____1
  6
CONTINUOUS
 62
     7
 10
26975.414371631068
 20
12037.252500000001
 30
0.0
 11
26975.414371631068
 21
11949.252500000001
 31
0.0
  0
LINE
  5
131
  8
____1
  6
CONTINUOUS
 62
     7
 10
26675.414371631068
 20
11949.252500000001
 30
0.0
 11
27835.414371631068
 21
11949.252500000001
 31
0.0
  0
LINE
  5
132
  8
____1
  6
CONTINUOUS
 62
     7
 10
26695.414371631068
 20
11993.252500000001
 30
0.0
 11
26955.414371631068
 21
11993.252500000001
 31
0.0
  0
LINE
  5
133
  8
____1
  6
CONTINUOUS
 62
     7
 10
26995.414371631068
 20
11993.252500000001
 30
0.0
 11
27255.414371631068
 21
11993.252500000001
 31
0.0
  0
TEXT
  5
134
  8
____1
  6
CONTINUOUS
 62
     7
 10
26718.969928882048
 20
12093.06892413029
 30
0.0
 40
28.222221374511719
  1
日　　付
  7
STYLE1
  0
LINE
  5
135
  8
____1
  6
CONTINUOUS
 62
     7
 10
26695.414371631068
 20
12081.252500000001
 30
0.0
 11
26855.414371631068
 21
12081.252500000001
 31
0.0
  0
LINE
  5
136
  8
____1
  6
CONTINUOUS
 62
     7
 10
26875.414371631068
 20
12125.252500000001
 30
0.0
 11
26875.414371631068
 21
12037.25249999999
 31
0.0
  0
LINE
  5
137
  8
____1
  6
CONTINUOUS
 62
     7
 10
26675.414371631068
 20
12037.252500000001
 30
0.0
 11
27835.414371631068
 21
12037.252500000001
 31
0.0
  0
LINE
  5
138
  8
____1
  6
CONTINUOUS
 62
     7
 10
27075.414371631068
 20
12125.252500000001
 30
0.0
 11
27075.414371631068
 21
12037.25249999999
 31
0.0
  0
LINE
  5
139
  8
____1
  6
CENTER2
 62
     7
 10
27142.61437163108
 20
12110.0525
 30
0.0
 11
27142.61437163108
 21
12052.452499999999
 31
0.0
  0
LINE
  5
13A
  8
____1
  6
CENTER2
 62
     7
 10
27142.61437163108
 20
12110.0525
 30
0.0
 11
27142.61437163108
 21
12052.452499999999
 31
0.0
  0
LINE
  5
13B
  8
____1
  6
CONTINUOUS
 62
     7
 10
27239.724253208478
 20
11920.265883735099
 30
0.0
 11
27239.724253208478
 21
11905.865883735099
 31
0.0
  0
LINE
  5
13C
  8
____1
  6
CONTINUOUS
 62
     7
 10
26895.414371631068
 20
12081.252500000001
 30
0.0
 11
27055.414371631068
 21
12081.252500000001
 31
0.0
  0
TEXT
  5
13D
  8
____1
  6
CONTINUOUS
 62
     7
 10
26918.969928882048
 20
12093.06892413029
 30
0.0
 40
28.222221374511719
  1
尺　　度
  7
STYLE1
  0
CIRCLE
  5
13E
  8
____1
  6
CONTINUOUS
 62
     7
 10
27142.61437163108
 20
12081.252500000001
 30
0.0
 40
19.19999999999709
  0
LINE
  5
13F
  8
____1
  6
CONTINUOUS
 62
     7
 10
27186.501711724592
 20
12090.852500000001
 30
0.0
 11
27224.901711724589
 21
12100.452499999999
 31
0.0
  0
TEXT
  5
140
  8
____1
  6
DOT
 62
     7
 10
27677.31437220328
 20
14072.23666679382
 30
0.0
 40
25.39999961853027
  1
改訂者
  7
STYLE1
  0
CIRCLE
  5
141
  8
____1
  6
CONTINUOUS
 62
     7
 10
27142.61437163108
 20
12081.252500000001
 30
0.0
 40
9.5999999999985448
  0
LINE
  5
142
  8
____1
  6
CONTINUOUS
 62
     7
 10
27223.724253208478
 20
11873.865883735099
 30
0.0
 11
27220.50128782705
 21
11885.0658837351
 31
0.0
  0
LINE
  5
143
  8
____1
  6
CONTINUOUS
 62
     7
 10
27216.357475193781
 20
11899.4658837351
 30
0.0
 11
27239.724253208478
 21
11899.4658837351
 31
0.0
  0
LINE
  5
144
  8
____1
  6
CONTINUOUS
 62
     7
 10
27077.984392022208
 20
11889.865883735099
 30
0.0
 11
27087.584392022211
 21
11889.865883735099
 31
0.0
  0
LINE
  5
145
  8
____1
  6
CONTINUOUS
 62
     7
 10
27183.724253208478
 20
11933.865883735099
 30
0.0
 11
27215.724253208478
 21
11933.865883735099
 31
0.0
  0
LINE
  5
146
  8
____1
  6
CONTINUOUS
 62
     7
 10
26988.699543537368
 20
11917.865883735099
 30
0.0
 11
26979.490713044939
 21
11917.865883735099
 31
0.0
  0
LINE
  5
147
  8
____1
  6
CONTINUOUS
 62
     7
 10
27077.984392022208
 20
11889.865883735099
 30
0.0
 11
27077.984392022208
 21
11877.865883735099
 31
0.0
  0
LINE
  5
148
  8
____1
  6
CONTINUOUS
 62
     7
 10
26988.699543537368
 20
11905.865883735099
 30
0.0
 11
26987.49071304495
 21
11905.865883735099
 31
0.0
  0
LINE
  5
149
  8
____1
  6
CONTINUOUS
 62
     7
 10
26988.699543537368
 20
11889.865883735099
 30
0.0
 11
26988.699543537368
 21
11877.865883735099
 31
0.0
  0
ARC
  5
14A
  8
____1
  6
CONTINUOUS
 62
     7
 10
27087.584392022211
 20
11920.265883735099
 30
0.0
 40
30.399999999999331
 50
-28.600718616738451
 51
-1.5079577542374809
  0
LINE
  5
14B
  8
____1
  6
CONTINUOUS
 62
     7
 10
27044.699543537368
 20
11905.865883735099
 30
0.0
 11
27056.699543537368
 21
11905.865883735099
 31
0.0
  0
ARC
  5
14C
  8
____1
  6
CONTINUOUS
 62
     7
 10
27097.984392022208
 20
11921.865883735099
 30
0.0
 40
43.999999999999332
 50
-90.0
 51
-57.455041145959207
  0
LINE
  5
14D
  8
____1
  6
CONTINUOUS
 62
     7
 10
26979.490713044939
 20
11905.865883735099
 30
0.0
 11
26987.49071304495
 21
11905.865883735099
 31
0.0
  0
ARC
  5
14E
  8
____1
  6
CONTINUOUS
 62
     7
 10
27097.984392022208
 20
11921.865883735099
 30
0.0
 40
44.0
 50
-37.512388020298822
 51
0.0
  0
LINE
  5
14F
  8
____1
  6
CONTINUOUS
 62
     7
 10
26988.699543537368
 20
11877.865883735099
 30
0.0
 11
27020.699543537368
 21
11877.865883735099
 31
0.0
  0
LINE
  5
150
  8
____1
  6
CONTINUOUS
 62
     7
 10
27167.724253208478
 20
11885.0658837351
 30
0.0
 11
27198.038919875151
 21
11885.0658837351
 31
0.0
  0
ARC
  5
151
  8
____1
  6
CONTINUOUS
 62
     7
 10
27012.699543537368
 20
11901.865883735099
 30
0.0
 40
12.0
 50
-90.0
 51
0.0
  0
LINE
  5
152
  8
____1
  6
CONTINUOUS
 62
     7
 10
27167.724253208478
 20
11899.4658837351
 30
0.0
 11
27167.724253208478
 21
11885.0658837351
 31
0.0
  0
LINE
  5
153
  8
____1
  6
CONTINUOUS
 62
     7
 10
26988.699543537368
 20
11893.865883735099
 30
0.0
 11
27008.699543537368
 21
11893.865883735099
 31
0.0
  0
LINE
  5
154
  8
____1
  6
CONTINUOUS
 62
     7
 10
27114.274891955709
 20
11905.713316494221
 30
0.0
 11
27112.350125505171
 21
11903.58740960979
 31
0.0
  0
LINE
  5
155
  8
____1
  6
CONTINUOUS
 62
     7
 10
27223.724253208478
 20
11873.865883735099
 30
0.0
 11
27201.324253208491
 21
11873.865883735099
 31
0.0
  0
LINE
  5
156
  8
____1
  6
CONTINUOUS
 62
     7
 10
27024.699543537368
 20
11905.865883735099
 30
0.0
 11
27024.699543537368
 21
11901.865883735099
 31
0.0
  0
LINE
  5
157
  8
____1
  6
CONTINUOUS
 62
     7
 10
27835.414371631068
 20
12125.252500000001
 30
0.0
 11
26675.414371631068
 21
12125.252500000001
 31
0.0
  0
LINE
  5
158
  8
____1
  6
CONTINUOUS
 62
     7
 10
27224.901711724589
 20
12100.452499999999
 30
0.0
 11
27224.901711724589
 21
12062.0525
 31
0.0
  0
LINE
  5
159
  8
____1
  6
CONTINUOUS
 62
     5
 10
27113.140088542728
 20
14058.99343999789
 30
0.0
 11
27093.340088542729
 21
14024.698834008021
 31
0.0
  0
LINE
  5
15A
  8
____1
  6
CONTINUOUS
 62
     7
 10
27056.699543537368
 20
11933.865883735099
 30
0.0
 11
27024.699543537368
 21
11933.865883735099
 31
0.0
  0
LINE
  5
15B
  8
____1
  6
CONTINUOUS
 62
     7
 10
27044.699543537368
 20
11901.865883735099
 30
0.0
 11
27044.699543537368
 21
11905.865883735099
 31
0.0
  0
LINE
  5
15C
  8
____1
  6
CONTINUOUS
 62
     7
 10
27167.724253208478
 20
11920.265883735099
 30
0.0
 11
27167.724253208478
 21
11905.865883735099
 31
0.0
  0
LINE
  5
15D
  8
____1
  6
CONTINUOUS
 62
     7
 10
27024.699543537368
 20
11917.865883735099
 30
0.0
 11
27008.699543537368
 21
11917.865883735099
 31
0.0
  0
LINE
  5
15E
  8
____1
  6
CONTINUOUS
 62
     7
 10
27020.699543537368
 20
11933.865883735099
 30
0.0
 11
26988.699543537368
 21
11933.865883735099
 31
0.0
  0
LINE
  5
15F
  8
____1
  6
CONTINUOUS
 62
     7
 10
27008.699543537368
 20
11921.865883735099
 30
0.0
 11
27020.699543537368
 21
11933.865883735099
 31
0.0
  0
LINE
  5
160
  8
____1
  6
CONTINUOUS
 62
     7
 10
26988.699543537368
 20
11933.865883735099
 30
0.0
 11
26988.699543537368
 21
11917.865883735099
 31
0.0
  0
LINE
  5
161
  8
____1
  6
CONTINUOUS
 62
     7
 10
27220.50128782705
 20
11885.0658837351
 30
0.0
 11
27239.724253208478
 21
11885.0658837351
 31
0.0
  0
LINE
  5
162
  8
____1
  6
CONTINUOUS
 62
     7
 10
27187.713586541809
 20
11920.265883735099
 30
0.0
 11
27183.724253208478
 21
11933.865883735099
 31
0.0
  0
LINE
  5
163
  8
____1
  6
CONTINUOUS
 62
     7
 10
27167.724253208478
 20
11899.4658837351
 30
0.0
 11
27193.814919875149
 21
11899.4658837351
 31
0.0
  0
LINE
  5
164
  8
____1
  6
CONTINUOUS
 62
     7
 10
27216.357475193781
 20
11899.4658837351
 30
0.0
 11
27214.515780690101
 21
11905.865883735099
 31
0.0
  0
ARC
  5
165
  8
____1
  6
CONTINUOUS
 62
     7
 10
27087.584392022211
 20
11920.265883735099
 30
0.0
 40
30.399999999999519
 50
-90.0
 51
-61.914095184792771
  0
LINE
  5
166
  8
____1
  6
CONTINUOUS
 62
     7
 10
27141.984392022208
 20
11921.865883735099
 30
0.0
 11
27149.984392022208
 21
11933.865883735099
 31
0.0
  0
LINE
  5
167
  8
____1
  6
CONTINUOUS
 62
     7
 10
27239.724253208478
 20
11899.4658837351
 30
0.0
 11
27239.724253208478
 21
11885.0658837351
 31
0.0
  0
LINE
  5
168
  8
____1
  6
CONTINUOUS
 62
     7
 10
27149.984392022208
 20
11889.865883735099
 30
0.0
 11
27149.984392022208
 21
11877.865883735099
 31
0.0
  0
LINE
  5
169
  8
____1
  6
CONTINUOUS
 62
     7
 10
27210.371968056828
 20
11920.265883735099
 30
0.0
 11
27239.724253208478
 21
11920.265883735099
 31
0.0
  0
LINE
  5
16A
  8
____1
  6
CONTINUOUS
 62
     7
 10
27210.371968056828
 20
11920.265883735099
 30
0.0
 11
27209.200814055039
 21
11924.33571485884
 31
0.0
  0
LINE
  5
16B
  8
____1
  6
CONTINUOUS
 62
     7
 10
27149.984392022208
 20
11933.865883735099
 30
0.0
 11
27077.984392022208
 21
11933.865883735099
 31
0.0
  0
TEXT
  5
16C
  8
____1
  6
CONTINUOUS
 62
     7
 10
26718.933066235171
 20
11887.25950305175
 30
0.0
 40
50.79999923706054
  1
株式会社
  7
STYLE1
  0
LINE
  5
16D
  8
____1
  6
CONTINUOUS
 62
     7
 10
27201.324253208491
 20
11873.865883735099
 30
0.0
 11
27198.038919875151
 21
11885.0658837351
 31
0.0
  0
LINE
  5
16E
  8
____1
  6
CONTINUOUS
 62
     7
 10
27012.699543537368
 20
11889.865883735099
 30
0.0
 11
26988.699543537368
 21
11889.865883735099
 31
0.0
  0
LINE
  5
16F
  8
____1
  6
CONTINUOUS
 62
     7
 10
27077.984392022208
 20
11919.4658837351
 30
0.0
 11
27117.984392022208
 21
11919.4658837351
 31
0.0
  0
LINE
  5
170
  8
____1
  6
CONTINUOUS
 62
     7
 10
27186.501711724592
 20
12090.852500000001
 30
0.0
 11
27224.901711724589
 21
12100.452499999999
 31
0.0
  0
CIRCLE
  5
171
  8
____1
  6
CONTINUOUS
 62
     7
 10
27142.61437163108
 20
12081.252500000001
 30
0.0
 40
19.19999999999709
  0
TEXT
  5
172
  8
____1
  6
DOT
 62
     7
 10
27757.31437220328
 20
14072.23666679382
 30
0.0
 40
25.39999961853027
  1
検認者
  7
STYLE1
  0
LINE
  5
173
  8
____1
  6
CONTINUOUS
 62
     7
 10
27008.699543537368
 20
11905.865883735099
 30
0.0
 11
27024.699543537368
 21
11905.865883735099
 31
0.0
  0
LINE
  5
174
  8
____1
  6
CONTINUOUS
 62
     7
 10
27167.724253208478
 20
11905.865883735099
 30
0.0
 11
27191.937586541811
 21
11905.865883735099
 31
0.0
  0
LINE
  5
175
  8
____1
  6
CONTINUOUS
 62
     7
 10
27056.699543537368
 20
11917.865883735099
 30
0.0
 11
27044.699543537368
 21
11917.865883735099
 31
0.0
  0
LINE
  5
176
  8
____1
  6
CONTINUOUS
 62
     7
 10
27044.699543537368
 20
11917.865883735099
 30
0.0
 11
27044.699543537368
 21
11921.865883735099
 31
0.0
  0
LINE
  5
177
  8
____1
  6
CONTINUOUS
 62
     7
 10
27167.724253208478
 20
11920.265883735099
 30
0.0
 11
27187.713586541809
 21
11920.265883735099
 31
0.0
  0
LINE
  5
178
  8
____1
  6
CONTINUOUS
 62
     7
 10
27209.200814055039
 20
11924.33571485884
 30
0.0
 11
27215.724253208478
 21
11933.865883735099
 31
0.0
  0
LINE
  5
179
  8
____1
  6
CONTINUOUS
 62
     7
 10
27077.984392022208
 20
11877.865883735099
 30
0.0
 11
27077.984392022208
 21
11889.865883735099
 31
0.0
  0
LINE
  5
17A
  8
____1
  6
CONTINUOUS
 62
     7
 10
27275.414371631068
 20
12125.252500000001
 30
0.0
 11
27275.414371631068
 21
11861.252500000001
 31
0.0
  0
TEXT
  5
17B
  8
____1
  6
CONTINUOUS
 62
     7
 10
27288.13659300558
 20
11920.34601921081
 30
0.0
 40
28.222221374511719
  1
図 番
  7
STYLE1
  0
TEXT
  5
17C
  8
____1
  6
CONTINUOUS
 62
     7
 10
27281.081038138789
 20
12096.34601921081
 30
0.0
 40
28.222221374511719
  1
製品名
  7
STYLE1
  0
TEXT
  5
17D
  8
____1
  6
CONTINUOUS
 62
     7
 10
27281.081038138789
 20
12008.34601921081
 30
0.0
 40
28.222221374511719
  1
図面名
  7
STYLE1
  0
LINE
  5
17E
  8
____1
  6
CONTINUOUS
 62
     5
 10
27093.340088542729
 20
13985.09883400802
 30
0.0
 11
27132.940088542731
 21
13985.09883400802
 31
0.0
  0
LINE
  5
17F
  8
____1
  6
CONTINUOUS
 62
     5
 10
27083.414371631068
 20
13981.252500000001
 30
0.0
 11
27083.414371631068
 21
14101.252500000001
 31
0.0
  0
LINE
  5
180
  8
____1
  6
CONTINUOUS
 62
     5
 10
27755.414371631068
 20
13981.252500000001
 30
0.0
 11
27755.414371631068
 21
14101.252500000001
 31
0.0
  0
LINE
  5
181
  8
____1
  6
CONTINUOUS
 62
     5
 10
27083.414371631068
 20
14061.252500000001
 30
0.0
 11
27835.414371631068
 21
14061.252500000001
 31
0.0
  0
LINE
  5
182
  8
____1
  6
CONTINUOUS
 62
     5
 10
27083.414371631068
 20
14021.252500000001
 30
0.0
 11
27835.414371631068
 21
14021.252500000001
 31
0.0
  0
LINE
  5
183
  8
____1
  6
CONTINUOUS
 62
     5
 10
27083.414371631068
 20
13981.252500000001
 30
0.0
 11
27835.414371631068
 21
13981.252500000001
 31
0.0
  0
TEXT
  5
184
  8
____1
  6
CONTINUOUS
 62
     7
 10
27173.314373156951
 20
14072.23666679382
 30
0.0
 40
25.39999961853027
  1
改訂日
  7
STYLE1
  0
LINE
  5
185
  8
____1
  6
CONTINUOUS
 62
     5
 10
24635.414371631068
 20
11861.252500000001
 30
0.0
 11
24635.414371631068
 21
14101.252500000001
 31
0.0
  0
LINE
  5
186
  8
____1
  6
CONTINUOUS
 62
     5
 10
24635.414371631068
 20
11861.252500000001
 30
0.0
 11
27835.414371631068
 21
11861.252500000001
 31
0.0
  0
LINE
  5
187
  8
____1
  6
CONTINUOUS
 62
     5
 10
27835.414371631068
 20
14101.252500000001
 30
0.0
 11
24635.414371631068
 21
14101.252500000001
 31
0.0
  0
LINE
  5
188
  8
____1
  6
CONTINUOUS
 62
     5
 10
27835.414371631068
 20
11861.252500000001
 30
0.0
 11
27835.414371631068
 21
14101.252500000001
 31
0.0
  0
LINE
  5
189
  8
____1
  6
CONTINUOUS
 62
     7
 10
27077.984392022208
 20
11912.7121194554
 30
0.0
 11
27077.984392022208
 21
11915.289001595251
 31
0.0
  0
LINE
  5
18A
  8
____1
  6
CONTINUOUS
 62
     7
 10
26979.490713044939
 20
11917.865883735099
 30
0.0
 11
26979.490713044939
 21
11905.865883735099
 31
0.0
  0
LINE
  5
18B
  8
____1
  6
CONTINUOUS
 62
     5
 10
27113.140088542728
 20
14058.99343999789
 30
0.0
 11
27132.940088542731
 21
14024.698834008021
 31
0.0
  0
LINE
  5
18C
  8
____1
  6
CONTINUOUS
 62
     5
 10
27113.140088542728
 20
14019.39343999789
 30
0.0
 11
27093.340088542729
 21
13985.09883400802
 31
0.0
  0
TEXT
  5
18D
  8
____1
  6
DOT
 62
     7
 10
27090.014372012542
 20
14072.23666679382
 30
0.0
 40
25.39999961853027
  1
副番
  7
STYLE1
  0
LINE
  5
18E
  8
____1
  6
DOT
 62
     7
 10
24595.574371631079
 20
11827.4125
 30
0.0
 11
24595.574371631079
 21
14135.092500000001
 31
0.0
  0
LINE
  5
18F
  8
____1
  6
DOT
 62
     7
 10
27875.254371631068
 20
11827.4125
 30
0.0
 11
27875.254371631068
 21
14135.092500000001
 31
0.0
  0
LINE
  5
190
  8
____1
  6
DOT
 62
     7
 10
24595.574371631079
 20
11827.4125
 30
0.0
 11
27875.254371631068
 21
11827.4125
 31
0.0
  0
LINE
  5
191
  8
____1
  6
CONTINUOUS
 62
     7
 10
27008.699543537368
 20
11893.865883735099
 30
0.0
 11
27008.699543537368
 21
11905.865883735099
 31
0.0
  0
LINE
  5
192
  8
____1
  6
DOT
 62
     7
 10
27875.254371631068
 20
14135.092500000001
 30
0.0
 11
24595.574371631079
 21
14135.092500000001
 31
0.0
  0
LINE
  5
193
  8
____1
  6
CONTINUOUS
 62
     7
 10
26988.699543537368
 20
11905.865883735099
 30
0.0
 11
26988.699543537368
 21
11893.865883735099
 31
0.0
  0
LINE
  5
194
  8
____1
  6
CONTINUOUS
 62
     7
 10
27044.699543537368
 20
11921.865883735099
 30
0.0
 11
27056.699543537368
 21
11933.865883735099
 31
0.0
  0
LINE
  5
195
  8
____1
  6
CONTINUOUS
 62
     7
 10
27193.814919875149
 20
11899.4658837351
 30
0.0
 11
27191.937586541811
 21
11905.865883735099
 31
0.0
  0
LINE
  5
196
  8
____1
  6
CONTINUOUS
 62
     7
 10
27008.699543537368
 20
11917.865883735099
 30
0.0
 11
27008.699543537368
 21
11921.865883735099
 31
0.0
  0
LINE
  5
197
  8
____1
  6
CONTINUOUS
 62
     7
 10
27132.886146838919
 20
11895.07283406331
 30
0.0
 11
27131.461330360569
 21
11893.67780890979
 31
0.0
  0
LINE
  5
198
  8
____1
  6
CONTINUOUS
 62
     7
 10
27141.984392022208
 20
11921.865883735099
 30
0.0
 11
27149.984392022208
 21
11933.865883735099
 31
0.0
  0
LINE
  5
199
  8
____1
  6
CONTINUOUS
 62
     7
 10
27024.699543537368
 20
11933.865883735099
 30
0.0
 11
27024.699543537368
 21
11917.865883735099
 31
0.0
  0
LINE
  5
19A
  8
____1
  6
CONTINUOUS
 62
     7
 10
27214.515780690101
 20
11905.865883735099
 30
0.0
 11
27239.724253208478
 21
11905.865883735099
 31
0.0
  0
LINE
  5
19B
  8
____1
  6
CONTINUOUS
 62
     7
 10
27077.984392022208
 20
11877.865883735099
 30
0.0
 11
27097.984392022208
 21
11877.865883735099
 31
0.0
  0
LINE
  5
19C
  8
____1
  6
CONTINUOUS
 62
     7
 10
27077.984392022208
 20
11915.289001595251
 30
0.0
 11
27109.984392022208
 21
11915.289001595251
 31
0.0
  0
TEXT
  5
19D
  8
____1
  6
CONTINUOUS
 62
     7
 10
27386.514370105189
 20
14072.23666679382
 30
0.0
 40
25.39999961853027
  1
改　訂　内　容
  7
STYLE1
  0
LINE
  5
19E
  8
____1
  6
CONTINUOUS
 62
     5
 10
27275.414371631068
 20
13981.252500000001
 30
0.0
 11
27275.414371631068
 21
14101.252500000001
 31
0.0
  0
LINE
  5
19F
  8
____1
  6
CONTINUOUS
 62
     5
 10
27675.414371631068
 20
13981.252500000001
 30
0.0
 11
27675.414371631068
 21
14101.252500000001
 31
0.0
  0
LINE
  5
1A0
  8
____1
  6
CONTINUOUS
 62
     5
 10
27147.414371631068
 20
13981.252500000001
 30
0.0
 11
27147.414371631068
 21
14101.252500000001
 31
0.0
  0
LINE
  5
1A1
  8
____1
  6
CONTINUOUS
 62
     5
 10
27093.340088542729
 20
14024.698834008021
 30
0.0
 11
27132.940088542731
 21
14024.698834008021
 31
0.0
  0
LINE
  5
1A2
  8
____1
  6
CONTINUOUS
 62
     5
 10
27113.140088542728
 20
14019.39343999789
 30
0.0
 11
27132.940088542731
 21
13985.09883400802
 31
0.0
  0
ENDBLK
  5
1A3
  8
0
  0
BLOCK
  8
0
  2
C1
 70
     0
 10
0.0
 20
0.0
 30
0.0
  3
C1
  1

  0
CIRCLE
  5
1A7
  8
____1
  6
CONTINUOUS
 62
     7
 10
26342.28895198687
 20
12683.711520287739
 30
0.0
 40
28.0
  0
TEXT
  5
1A8
  8
____1
  6
DASHED2
 62
     7
 10
26335.233396643242
 20
12673.7161502176
 30
0.0
 40
28.222221374511719
  1
1
  7
STYLE1
  0
LINE
  5
1A9
  8
______
  6
CONTINUOUS
 62
     7
 10
26295.622285320209
 20
12683.711520287739
 30
0.0
 11
26314.28895198687
 21
12683.711520287739
 31
0.0
  0
LINE
  5
1AA
  8
______
  6
CONTINUOUS
 62
     7
 10
25942.45834682709
 20
13067.15891612107
 30
0.0
 11
26295.622285320209
 21
12683.711520287739
 31
0.0
  0
SOLID
  5
1AB
  8
______
 62
     7
 10
25942.45834682709
 20
13067.15891612107
 30
0.0
 11
25946.406947286661
 21
13059.919540843421
 31
0.0
 12
25942.45834682709
 22
13067.15891612107
 32
0.0
 13
25946.52313102402
 23
13062.74558071206
 33
0.0
  0
SOLID
  5
1AC
  8
______
 62
     7
 10
25946.52313102402
 20
13062.74558071206
 30
0.0
 11
25949.34917089267
 21
13062.6293969747
 31
0.0
 12
25942.45834682709
 22
13067.15891612107
 32
0.0
 13
25942.45834682709
 23
13067.15891612107
 33
0.0
  0
ENDBLK
  5
1AD
  8
0
  0
BLOCK
  8
0
  2
C2
 70
     0
 10
0.0
 20
0.0
 30
0.0
  3
C2
  1

  0
CIRCLE
  5
1B1
  8
____1
  6
CONTINUOUS
 62
     7
 10
26229.666666666672
 20
13750.90402369627
 30
0.0
 40
28.0
  0
TEXT
  5
1B2
  8
____1
  6
DASHED2
 62
     7
 10
26222.61111132304
 20
13740.908653626129
 30
0.0
 40
28.222221374511719
  1
9
  7
STYLE1
  0
LINE
  5
1B3
  8
______
  6
CONTINUOUS
 62
     7
 10
26183.0
 20
13750.90402369627
 30
0.0
 11
26201.666666666672
 21
13750.90402369627
 31
0.0
  0
LINE
  5
1B4
  8
______
  6
CONTINUOUS
 62
     7
 10
26013.763017448309
 20
13597.31078867995
 30
0.0
 11
26183.0
 21
13750.90402369627
 31
0.0
  0
SOLID
  5
1B5
  8
______
 62
     7
 10
26013.763017448309
 20
13597.31078867995
 30
0.0
 11
26021.03114720825
 21
13601.206207757879
 31
0.0
 12
26013.763017448309
 22
13597.31078867995
 32
0.0
 13
26018.206035088631
 23
13601.343107398479
 33
0.0
  0
SOLID
  5
1B6
  8
______
 62
     7
 10
26018.206035088631
 20
13601.343107398479
 30
0.0
 11
26018.342934729229
 21
13604.1682195181
 31
0.0
 12
26013.763017448309
 22
13597.31078867995
 32
0.0
 13
26013.763017448309
 23
13597.31078867995
 33
0.0
  0
ENDBLK
  5
1B7
  8
0
  0
BLOCK
  8
0
  2
*D14
 70
     1
 10
0.0
 20
0.0
 30
0.0
  3
*D14
  1

  0
LINE
  5
1BB
  8
____1
  6
CONTINUOUS
 62
     7
 10
25976.45834682709
 20
13672.31078867995
 30
0.0
 11
26287.081539456511
 21
13672.31078867995
 31
0.0
  0
LINE
  5
1BC
  8
____1
  6
CONTINUOUS
 62
     7
 10
25976.45834682709
 20
12972.31078867995
 30
0.0
 11
26287.081539456511
 21
12972.31078867995
 31
0.0
  0
SOLID
  5
1BD
  8
____1
  6
CONTINUOUS
 62
     7
 10
26279.081539456511
 20
12972.31078867995
 30
0.0
 11
26279.081539456511
 21
12972.31078867995
 31
0.0
 12
26276.081539456511
 22
12987.31078867995
 32
0.0
 13
26282.081539456511
 23
12987.31078867995
 33
0.0
  0
SOLID
  5
1BE
  8
____1
  6
CONTINUOUS
 62
     7
 10
26276.081539456511
 20
12987.31078867995
 30
0.0
 11
26279.081539456511
 21
12987.31078867995
 31
0.0
 12
26275.081539456511
 22
12992.31078867995
 32
0.0
 13
26275.081539456511
 23
12992.31078867995
 33
0.0
  0
SOLID
  5
1BF
  8
____1
  6
CONTINUOUS
 62
     7
 10
26279.081539456511
 20
12987.31078867995
 30
0.0
 11
26282.081539456511
 21
12987.31078867995
 31
0.0
 12
26283.081539456511
 22
12992.31078867995
 32
0.0
 13
26283.081539456511
 23
12992.31078867995
 33
0.0
  0
LINE
  5
1C0
  8
____1
  6
CONTINUOUS
 62
     7
 10
26279.081539456511
 20
12972.31078867995
 30
0.0
 11
26279.081539456511
 21
13322.31078867995
 31
0.0
  0
SOLID
  5
1C1
  8
____1
  6
CONTINUOUS
 62
     7
 10
26275.081539456511
 20
13652.31078867995
 30
0.0
 11
26275.081539456511
 21
13652.31078867995
 31
0.0
 12
26276.081539456511
 22
13657.31078867995
 32
0.0
 13
26279.081539456511
 23
13657.31078867995
 33
0.0
  0
SOLID
  5
1C2
  8
____1
  6
CONTINUOUS
 62
     7
 10
26283.081539456511
 20
13652.31078867995
 30
0.0
 11
26283.081539456511
 21
13652.31078867995
 31
0.0
 12
26279.081539456511
 22
13657.31078867995
 32
0.0
 13
26282.081539456511
 23
13657.31078867995
 33
0.0
  0
SOLID
  5
1C3
  8
____1
  6
CONTINUOUS
 62
     7
 10
26276.081539456511
 20
13657.31078867995
 30
0.0
 11
26282.081539456511
 21
13657.31078867995
 31
0.0
 12
26279.081539456511
 22
13672.31078867995
 32
0.0
 13
26279.081539456511
 23
13672.31078867995
 33
0.0
  0
LINE
  5
1C4
  8
____1
  6
CONTINUOUS
 62
     7
 10
26279.081539456511
 20
13672.31078867995
 30
0.0
 11
26279.081539456511
 21
13322.31078867995
 31
0.0
  0
TEXT
  5
1C5
  8
______
  6
DASHED2
 62
     7
 10
26270.965798839388
 20
13301.14412264907
 30
0.0
 40
28.222221374511719
  1
700
 50
90.0
  7
STYLE1
  0
ENDBLK
  5
1C6
  8
0
  0
BLOCK
  8
0
  2
*D15
 70
     1
 10
0.0
 20
0.0
 30
0.0
  3
*D15
  1

  0
LINE
  5
1CA
  8
____1
  6
CONTINUOUS
 62
     7
 10
26126.45834682709
 20
13822.31078867995
 30
0.0
 11
26363.600440490049
 21
13822.31078867995
 31
0.0
  0
LINE
  5
1CB
  8
____1
  6
CONTINUOUS
 62
     7
 10
26126.45834682709
 20
12822.31078867995
 30
0.0
 11
26363.600440490049
 21
12822.31078867995
 31
0.0
  0
SOLID
  5
1CC
  8
____1
  6
CONTINUOUS
 62
     7
 10
26355.600440490049
 20
12822.31078867995
 30
0.0
 11
26355.600440490049
 21
12822.31078867995
 31
0.0
 12
26352.600440490049
 22
12837.31078867995
 32
0.0
 13
26358.600440490041
 23
12837.31078867995
 33
0.0
  0
SOLID
  5
1CD
  8
____1
  6
CONTINUOUS
 62
     7
 10
26352.600440490049
 20
12837.31078867995
 30
0.0
 11
26355.600440490049
 21
12837.31078867995
 31
0.0
 12
26351.600440490049
 22
12842.31078867995
 32
0.0
 13
26351.600440490049
 23
12842.31078867995
 33
0.0
  0
SOLID
  5
1CE
  8
____1
  6
CONTINUOUS
 62
     7
 10
26355.600440490049
 20
12837.31078867995
 30
0.0
 11
26358.600440490041
 21
12837.31078867995
 31
0.0
 12
26359.600440490049
 22
12842.31078867995
 32
0.0
 13
26359.600440490049
 23
12842.31078867995
 33
0.0
  0
LINE
  5
1CF
  8
____1
  6
CONTINUOUS
 62
     7
 10
26355.600440490049
 20
12822.31078867995
 30
0.0
 11
26355.600440490049
 21
13322.31078867995
 31
0.0
  0
SOLID
  5
1D0
  8
____1
  6
CONTINUOUS
 62
     7
 10
26351.600440490049
 20
13802.31078867995
 30
0.0
 11
26351.600440490049
 21
13802.31078867995
 31
0.0
 12
26352.600440490049
 22
13807.31078867995
 32
0.0
 13
26355.600440490049
 23
13807.31078867995
 33
0.0
  0
SOLID
  5
1D1
  8
____1
  6
CONTINUOUS
 62
     7
 10
26359.600440490049
 20
13802.31078867995
 30
0.0
 11
26359.600440490049
 21
13802.31078867995
 31
0.0
 12
26355.600440490049
 22
13807.31078867995
 32
0.0
 13
26358.600440490041
 23
13807.31078867995
 33
0.0
  0
SOLID
  5
1D2
  8
____1
  6
CONTINUOUS
 62
     7
 10
26352.600440490049
 20
13807.31078867995
 30
0.0
 11
26358.600440490041
 21
13807.31078867995
 31
0.0
 12
26355.600440490049
 22
13822.31078867995
 32
0.0
 13
26355.600440490049
 23
13822.31078867995
 33
0.0
  0
LINE
  5
1D3
  8
____1
  6
CONTINUOUS
 62
     7
 10
26355.600440490049
 20
13822.31078867995
 30
0.0
 11
26355.600440490049
 21
13322.31078867995
 31
0.0
  0
TEXT
  5
1D4
  8
______
  6
DASHED2
 62
     7
 10
26347.48469987293
 20
13294.08856730544
 30
0.0
 40
28.222221374511719
  1
1000
 50
90.0
  7
STYLE1
  0
ENDBLK
  5
1D5
  8
0
  0
BLOCK
  8
0
  2
C3
 70
     0
 10
0.0
 20
0.0
 30
0.0
  3
C3
  1

  0
CIRCLE
  5
1D9
  8
____1
  6
CONTINUOUS
 62
     7
 10
26214.224281885959
 20
12683.711520287739
 30
0.0
 40
28.0
  0
TEXT
  5
1DA
  8
____1
  6
DASHED2
 62
     7
 10
26207.168726542339
 20
12673.7161502176
 30
0.0
 40
28.222221374511719
  1
6
  7
STYLE1
  0
LINE
  5
1DB
  8
______
  6
CONTINUOUS
 62
     7
 10
26167.557615219292
 20
12683.711520287739
 30
0.0
 11
26186.224281885959
 21
12683.711520287739
 31
0.0
  0
LINE
  5
1DC
  8
______
  6
CONTINUOUS
 62
     7
 10
25717.458346827079
 20
13183.81078867995
 30
0.0
 11
26167.557615219292
 21
12683.711520287739
 31
0.0
  0
SOLID
  5
1DD
  8
______
 62
     7
 10
25717.458346827079
 20
13183.81078867995
 30
0.0
 11
25721.323556271131
 21
13176.52654843448
 31
0.0
 12
25717.458346827079
 22
13183.81078867995
 32
0.0
 13
25721.472184125021
 23
13179.351067820329
 33
0.0
  0
SOLID
  5
1DE
  8
______
 62
     7
 10
25721.472184125021
 20
13179.351067820329
 30
0.0
 11
25724.296703510881
 21
13179.202439966441
 31
0.0
 12
25717.458346827079
 22
13183.81078867995
 32
0.0
 13
25717.458346827079
 23
13183.81078867995
 33
0.0
  0
ENDBLK
  5
1DF
  8
0
  0
BLOCK
  8
0
  2
C4
 70
     0
 10
0.0
 20
0.0
 30
0.0
  3
C4
  1

  0
CIRCLE
  5
1E9
  8
____1
  6
CONTINUOUS
 62
     7
 10
26075.658936941189
 20
12683.711520287739
 30
0.0
 40
28.0
  0
TEXT
  5
1EA
  8
____1
  6
DASHED2
 62
     7
 10
26068.603381597561
 20
12673.7161502176
 30
0.0
 40
28.222221374511719
  1
7
  7
STYLE1
  0
LINE
  5
1EB
  8
______
  6
CONTINUOUS
 62
     7
 10
26028.992270274532
 20
12683.711520287739
 30
0.0
 11
26047.658936941189
 21
12683.711520287739
 31
0.0
  0
LINE
  5
1EC
  8
______
  6
CONTINUOUS
 62
     7
 10
25642.45834682709
 20
13048.004301976969
 30
0.0
 11
26028.992270274532
 21
12683.711520287739
 31
0.0
  0
SOLID
  5
1ED
  8
______
 62
     7
 10
25642.45834682709
 20
13048.004301976969
 30
0.0
 11
25646.908496107601
 21
13041.061955732281
 31
0.0
 12
25642.45834682709
 22
13048.004301976969
 32
0.0
 13
25646.82474859769
 23
13043.8891427361
 33
0.0
  0
SOLID
  5
1EE
  8
______
 62
     7
 10
25646.82474859769
 20
13043.8891427361
 30
0.0
 11
25649.651935601509
 21
13043.97289024601
 31
0.0
 12
25642.45834682709
 22
13048.004301976969
 32
0.0
 13
25642.45834682709
 23
13048.004301976969
 33
0.0
  0
ENDBLK
  5
1EF
  8
0
  0
BLOCK
  8
0
  2
C5
 70
     0
 10
0.0
 20
0.0
 30
0.0
  3
C5
  1

  0
LINE
  5
1FB
  8
____1
  6
CONTINUOUS
 62
     7
 10
27147.414371631068
 20
12445.252500000001
 30
0.0
 11
27147.414371631068
 21
12485.252500000001
 31
0.0
  0
LINE
  5
1FC
  8
____1
  6
CONTINUOUS
 62
     7
 10
26675.414371631068
 20
12445.252500000001
 30
0.0
 11
26675.414371631068
 21
12485.252500000001
 31
0.0
  0
LINE
  5
1FD
  8
____1
  6
CONTINUOUS
 62
     7
 10
26747.414371631068
 20
12445.252500000001
 30
0.0
 11
26747.414371631068
 21
12485.252500000001
 31
0.0
  0
LINE
  5
1FE
  8
____1
  6
CONTINUOUS
 62
     7
 10
27587.414371631079
 20
12445.252500000001
 30
0.0
 11
27587.414371631079
 21
12485.252500000001
 31
0.0
  0
LINE
  5
1FF
  8
____1
  6
CONTINUOUS
 62
     7
 10
27515.414371631068
 20
12445.252500000001
 30
0.0
 11
27515.414371631068
 21
12485.252500000001
 31
0.0
  0
LINE
  5
200
  8
____1
  6
CONTINUOUS
 62
     7
 10
27835.414371631068
 20
12485.252500000001
 30
0.0
 11
26675.414371631068
 21
12485.252500000001
 31
0.0
  0
ENDBLK
  5
201
  8
0
  0
BLOCK
  8
0
  2
C6
 70
     0
 10
0.0
 20
0.0
 30
0.0
  3
C6
  1

  0
LINE
  5
205
  8
____1
  6
CONTINUOUS
 62
     7
 10
27147.414371631068
 20
12405.252500000001
 30
0.0
 11
27147.414371631068
 21
12445.252500000001
 31
0.0
  0
LINE
  5
206
  8
____1
  6
CONTINUOUS
 62
     7
 10
26675.414371631068
 20
12405.252500000001
 30
0.0
 11
26675.414371631068
 21
12445.252500000001
 31
0.0
  0
LINE
  5
207
  8
____1
  6
CONTINUOUS
 62
     7
 10
26747.414371631068
 20
12405.252500000001
 30
0.0
 11
26747.414371631068
 21
12445.252500000001
 31
0.0
  0
LINE
  5
208
  8
____1
  6
CONTINUOUS
 62
     7
 10
27587.414371631079
 20
12405.252500000001
 30
0.0
 11
27587.414371631079
 21
12445.252500000001
 31
0.0
  0
LINE
  5
209
  8
____1
  6
CONTINUOUS
 62
     7
 10
27515.414371631068
 20
12405.252500000001
 30
0.0
 11
27515.414371631068
 21
12445.252500000001
 31
0.0
  0
LINE
  5
20A
  8
____1
  6
CONTINUOUS
 62
     7
 10
27835.414371631068
 20
12445.252500000001
 30
0.0
 11
26675.414371631068
 21
12445.252500000001
 31
0.0
  0
ENDBLK
  5
20B
  8
0
  0
BLOCK
  8
0
  2
C7
 70
     0
 10
0.0
 20
0.0
 30
0.0
  3
C7
  1

  0
LINE
  5
20F
  8
____1
  6
CONTINUOUS
 62
     7
 10
27147.414371631068
 20
12365.252500000001
 30
0.0
 11
27147.414371631068
 21
12405.252500000001
 31
0.0
  0
LINE
  5
210
  8
____1
  6
CONTINUOUS
 62
     7
 10
26675.414371631068
 20
12365.252500000001
 30
0.0
 11
26675.414371631068
 21
12405.252500000001
 31
0.0
  0
LINE
  5
211
  8
____1
  6
CONTINUOUS
 62
     7
 10
26747.414371631068
 20
12365.252500000001
 30
0.0
 11
26747.414371631068
 21
12405.252500000001
 31
0.0
  0
LINE
  5
212
  8
____1
  6
CONTINUOUS
 62
     7
 10
27587.414371631079
 20
12365.252500000001
 30
0.0
 11
27587.414371631079
 21
12405.252500000001
 31
0.0
  0
LINE
  5
213
  8
____1
  6
CONTINUOUS
 62
     7
 10
27515.414371631068
 20
12365.252500000001
 30
0.0
 11
27515.414371631068
 21
12405.252500000001
 31
0.0
  0
LINE
  5
214
  8
____1
  6
CONTINUOUS
 62
     7
 10
27835.414371631068
 20
12405.252500000001
 30
0.0
 11
26675.414371631068
 21
12405.252500000001
 31
0.0
  0
ENDBLK
  5
215
  8
0
  0
BLOCK
  8
0
  2
C8
 70
     0
 10
0.0
 20
0.0
 30
0.0
  3
C8
  1

  0
CIRCLE
  5
219
  8
____1
  6
DOT
 62
     4
 10
27160.744959078591
 20
13536.82719718344
 30
0.0
 40
4.2499999999974163
  0
CIRCLE
  5
21A
  8
____1
  6
DOT
 62
     4
 10
27160.744959078591
 20
13536.82719718344
 30
0.0
 40
4.9999999999930953
  0
LINE
  5
21B
  8
____1
  6
DOT
 62
     4
 10
27182.90211344924
 20
13532.23802403397
 30
0.0
 11
27156.155785929139
 21
13514.670042812801
 31
0.0
  0
LINE
  5
21C
  8
____1
  6
DOT
 62
     4
 10
27161.253607475152
 20
13570.6612226136
 30
0.0
 11
27183.762583414769
 21
13536.392490478451
 31
0.0
  0
LINE
  5
21D
  8
____1
  6
DOT
 62
     4
 10
27152.001319484629
 20
13515.53051277833
 30
0.0
 11
27129.492343545018
 21
13549.799244913471
 31
0.0
  0
LINE
  5
21E
  8
____1
  6
DOT
 62
     4
 10
27130.352813510541
 20
13553.953711357961
 30
0.0
 11
27157.09914103066
 21
13571.521692579119
 31
0.0
  0
LINE
  5
21F
  8
____1
  6
DOT
 62
     4
 10
26768.859480621599
 20
13316.51146516567
 30
0.0
 11
26792.21728802739
 21
13280.95043176278
 31
0.0
  0
LINE
  5
220
  8
____1
  6
DOT
 62
     4
 10
27303.786031023759
 20
13667.87108958892
 30
0.0
 11
27327.14383842954
 21
13632.310056186039
 31
0.0
  0
LINE
  5
221
  8
____1
  6
DOT
 62
     4
 10
27301.748359680671
 20
13668.326434635919
 30
0.0
 11
27030.03459491775
 21
13501.7646716646
 31
0.0
  0
LINE
  5
222
  8
____1
  6
DOT
 62
     4
 10
26769.25095733504
 20
13318.56236486998
 30
0.0
 11
27030.03459491775
 21
13501.7646716646
 31
0.0
  0
ARC
  5
223
  8
____1
  6
DOT
 62
     4
 10
27154.50878768965
 20
13517.17751101781
 30
0.0
 40
3.0000000000044751
 50
-146.70160442007059
 51
-56.701604419944502
  0
ARC
  5
224
  8
____1
  6
DOT
 62
     4
 10
27181.255115209759
 20
13534.74549223897
 30
0.0
 40
2.9999999999924021
 50
-56.701604420042429
 51
33.298395579987456
  0
ARC
  5
225
  8
____1
  6
DOT
 62
     4
 10
27302.532296921261
 20
13667.04759046917
 30
0.0
 40
1.499999999997393
 50
33.298395580343289
 51
121.508484971569
  0
ARC
  5
226
  8
____1
  6
DOT
 62
     4
 10
26793.471022129888
 20
13281.773930882529
 30
0.0
 40
1.499999999996394
 50
-146.70160441971481
 51
-56.701604419789362
  0
ARC
  5
227
  8
____1
  6
DOT
 62
     4
 10
27325.890104327031
 20
13631.48655706631
 30
0.0
 40
1.4999999999954849
 50
-56.701604419709639
 51
33.298395579726133
  0
ARC
  5
228
  8
____1
  6
DOT
 62
     4
 10
27158.746139270141
 20
13569.01422437411
 30
0.0
 40
3.0000000000029541
 50
33.298395580074569
 51
123.2983955799575
  0
ARC
  5
229
  8
____1
  6
DOT
 62
     4
 10
27131.99981175004
 20
13551.44624315295
 30
0.0
 40
3.0000000000084688
 50
123.2983955801716
 51
-146.70160442023399
  0
ARC
  5
22A
  8
____1
  6
DOT
 62
     4
 10
26770.113214724101
 20
13317.33496428541
 30
0.0
 40
1.49999999999828
 50
125.0883061881124
 51
-146.70160441986729
  0
LINE
  5
22B
  8
____1
  6
DOT
 62
     4
 10
26794.294521249642
 20
13280.52019678002
 30
0.0
 11
27152.026948447841
 21
13515.49214044198
 31
0.0
  0
LINE
  5
22C
  8
____1
  6
DOT
 62
     4
 10
27183.787619144441
 20
13536.35372848429
 30
0.0
 11
27326.713603446791
 21
13630.23282296379
 31
0.0
  0
LINE
  5
22D
  8
____1
  6
DOT
 62
     2
 10
27322.913785512152
 20
13630.182031381361
 30
0.0
 11
27319.490620318338
 21
13627.939545978539
 31
0.0
  0
LINE
  5
22E
  8
____1
  6
DOT
 62
     2
 10
27322.323445616661
 20
13627.349206083039
 30
0.0
 11
27320.080960213851
 21
13630.772371276849
 31
0.0
  0
ENDBLK
  5
22F
  8
0
  0
BLOCK
  8
0
  2
*D22
 70
     1
 10
0.0
 20
0.0
 30
0.0
  3
*D22
  1

  0
LINE
  5
235
  8
____1
  6
CONTINUOUS
 62
     7
 10
27331.702202915221
 20
12708.04941227875
 30
0.0
 11
27361.702202915221
 21
12708.04941227875
 31
0.0
  0
LINE
  5
236
  8
____1
  6
CONTINUOUS
 62
     7
 10
27361.702202915221
 20
12818.31078867995
 30
0.0
 11
27361.702202915221
 21
12700.04941227875
 31
0.0
  0
LINE
  5
237
  8
____1
  6
CONTINUOUS
 62
     7
 10
27331.702202915221
 20
12968.31078867995
 30
0.0
 11
27331.702202915221
 21
12700.04941227875
 31
0.0
  0
SOLID
  5
238
  8
____1
  6
CONTINUOUS
 62
     7
 10
27330.952202915221
 20
12705.04941227875
 30
0.0
 11
27332.452202915221
 21
12705.04941227875
 31
0.0
 12
27329.452202915221
 22
12705.79941227875
 32
0.0
 13
27333.952202915221
 23
12705.79941227875
 33
0.0
  0
SOLID
  5
239
  8
____1
  6
CONTINUOUS
 62
     7
 10
27329.452202915221
 20
12705.79941227875
 30
0.0
 11
27333.952202915221
 21
12705.79941227875
 31
0.0
 12
27328.702202915221
 22
12707.29941227875
 32
0.0
 13
27334.702202915221
 23
12707.29941227875
 33
0.0
  0
SOLID
  5
23A
  8
____1
  6
CONTINUOUS
 62
     7
 10
27328.702202915221
 20
12707.29941227875
 30
0.0
 11
27334.702202915221
 21
12707.29941227875
 31
0.0
 12
27328.702202915221
 22
12708.79941227875
 32
0.0
 13
27334.702202915221
 23
12708.79941227875
 33
0.0
  0
SOLID
  5
23B
  8
____1
  6
CONTINUOUS
 62
     7
 10
27328.702202915221
 20
12708.79941227875
 30
0.0
 11
27334.702202915221
 21
12708.79941227875
 31
0.0
 12
27329.452202915221
 22
12710.29941227875
 32
0.0
 13
27333.952202915221
 23
12710.29941227875
 33
0.0
  0
SOLID
  5
23C
  8
____1
  6
CONTINUOUS
 62
     7
 10
27329.452202915221
 20
12710.29941227875
 30
0.0
 11
27333.952202915221
 21
12710.29941227875
 31
0.0
 12
27330.952202915221
 22
12711.04941227875
 32
0.0
 13
27332.452202915221
 23
12711.04941227875
 33
0.0
  0
LINE
  5
23D
  8
____1
  6
CONTINUOUS
 62
     7
 10
27331.702202915221
 20
12708.04941227875
 30
0.0
 11
27291.702202915221
 21
12708.04941227875
 31
0.0
  0
SOLID
  5
23E
  8
____1
  6
CONTINUOUS
 62
     7
 10
27360.952202915221
 20
12705.04941227875
 30
0.0
 11
27362.452202915221
 21
12705.04941227875
 31
0.0
 12
27359.452202915221
 22
12705.79941227875
 32
0.0
 13
27363.952202915221
 23
12705.79941227875
 33
0.0
  0
SOLID
  5
23F
  8
____1
  6
CONTINUOUS
 62
     7
 10
27359.452202915221
 20
12705.79941227875
 30
0.0
 11
27363.952202915221
 21
12705.79941227875
 31
0.0
 12
27358.702202915221
 22
12707.29941227875
 32
0.0
 13
27364.702202915221
 23
12707.29941227875
 33
0.0
  0
SOLID
  5
240
  8
____1
  6
CONTINUOUS
 62
     7
 10
27358.702202915221
 20
12707.29941227875
 30
0.0
 11
27364.702202915221
 21
12707.29941227875
 31
0.0
 12
27358.702202915221
 22
12708.79941227875
 32
0.0
 13
27364.702202915221
 23
12708.79941227875
 33
0.0
  0
SOLID
  5
241
  8
____1
  6
CONTINUOUS
 62
     7
 10
27358.702202915221
 20
12708.79941227875
 30
0.0
 11
27364.702202915221
 21
12708.79941227875
 31
0.0
 12
27359.452202915221
 22
12710.29941227875
 32
0.0
 13
27363.952202915221
 23
12710.29941227875
 33
0.0
  0
SOLID
  5
242
  8
____1
  6
CONTINUOUS
 62
     7
 10
27359.452202915221
 20
12710.29941227875
 30
0.0
 11
27363.952202915221
 21
12710.29941227875
 31
0.0
 12
27360.952202915221
 22
12711.04941227875
 32
0.0
 13
27362.452202915221
 23
12711.04941227875
 33
0.0
  0
LINE
  5
243
  8
____1
  6
CONTINUOUS
 62
     7
 10
27361.702202915221
 20
12708.04941227875
 30
0.0
 11
27401.702202915221
 21
12708.04941227875
 31
0.0
  0
TEXT
  5
244
  8
______
  6
DASHED2
 62
     7
 10
27332.591092227962
 20
12716.165152895859
 30
0.0
 40
28.222221374511719
  1
30
  7
STYLE1
  0
ENDBLK
  5
245
  8
0
  0
BLOCK
  8
0
  2
C9
 70
     0
 10
0.0
 20
0.0
 30
0.0
  3
C9
  1

  0
LINE
  5
251
  8
____1
  6
DASHED2
 62
     7
 10
25940.958346827079
 20
12481.83609288904
 30
0.0
 11
25622.45834682709
 21
12491.78921788904
 31
0.0
  0
LINE
  5
252
  8
____1
  6
CONTINUOUS
 62
     5
 10
25941.00519895566
 20
12483.33536100317
 30
0.0
 11
25622.45834682709
 21
12493.28995013219
 31
0.0
  0
LINE
  5
253
  8
____1
  6
DASHED2
 62
     7
 10
25303.958346827079
 20
12447.78995013219
 30
0.0
 11
25940.95834682709
 21
12447.78995013219
 31
0.0
  0
LINE
  5
254
  8
____1
  6
CONTINUOUS
 62
     5
 10
25303.958346827079
 20
12437.78995013219
 30
0.0
 11
25940.958346827079
 21
12437.78995013219
 31
0.0
  0
ARC
  5
255
  8
____1
  6
DASHED2
 62
     7
 10
25940.958346827079
 20
12439.28995013219
 30
0.0
 40
1.5
 50
180.0
 51
-90.0
  0
LINE
  5
256
  8
____1
  6
DASHED2
 62
     7
 10
25939.458346827079
 20
12447.78995013219
 30
0.0
 11
25940.95834682709
 21
12447.78995013219
 31
0.0
  0
LINE
  5
257
  8
____1
  6
DOT
 62
     7
 10
25303.958346827079
 20
12481.83609288904
 30
0.0
 11
25940.958346827079
 21
12481.83609288904
 31
0.0
  0
LINE
  5
258
  8
____1
  6
DASHED2
 62
     7
 10
25303.958346827079
 20
12481.83609288904
 30
0.0
 11
25622.45834682709
 21
12491.78921788904
 31
0.0
  0
LINE
  5
259
  8
____1
  6
DASHED2
 62
     7
 10
25305.458346827079
 20
12447.78995013219
 30
0.0
 11
25305.458346827079
 21
12437.78995013219
 31
0.0
  0
LINE
  5
25A
  8
____1
  6
DASHED2
 62
     7
 10
25939.458346827079
 20
12447.78995013219
 30
0.0
 11
25939.458346827079
 21
12437.78995013219
 31
0.0
  0
LINE
  5
25B
  8
____1
  6
CONTINUOUS
 62
     5
 10
25303.911494698521
 20
12483.33536100317
 30
0.0
 11
25622.45834682709
 21
12493.28995013219
 31
0.0
  0
LINE
  5
25C
  8
____1
  6
CONTINUOUS
 62
     5
 10
25302.45834682709
 20
12481.83609288904
 30
0.0
 11
25302.45834682709
 21
12439.28995013219
 31
0.0
  0
ARC
  5
25D
  8
____1
  6
DASHED2
 62
     7
 10
25303.958346827079
 20
12439.28995013219
 30
0.0
 40
1.5
 50
-90.0
 51
0.0
  0
ARC
  5
25E
  8
____1
  6
CONTINUOUS
 62
     5
 10
25303.958346827079
 20
12439.28995013219
 30
0.0
 40
1.5
 50
180.0
 51
-90.0
  0
LINE
  5
25F
  8
____1
  6
DASHED2
 62
     7
 10
25303.958346827079
 20
12481.83609288904
 30
0.0
 11
25303.958346827079
 21
12439.28995013219
 31
0.0
  0
ARC
  5
260
  8
____1
  6
CONTINUOUS
 62
     5
 10
25303.958346827079
 20
12481.83609288904
 30
0.0
 40
1.4999999999995981
 50
91.789910608211358
 51
180.0
  0
LINE
  5
261
  8
____1
  6
CONTINUOUS
 62
     5
 10
25942.45834682709
 20
12481.83609288904
 30
0.0
 11
25942.45834682709
 21
12439.28995013219
 31
0.0
  0
ARC
  5
262
  8
____1
  6
CONTINUOUS
 62
     5
 10
25940.958346827079
 20
12439.28995013219
 30
0.0
 40
1.5
 50
-90.0
 51
0.0
  0
LINE
  5
263
  8
____1
  6
DASHED2
 62
     7
 10
25940.958346827079
 20
12481.83609288904
 30
0.0
 11
25940.958346827079
 21
12439.28995013219
 31
0.0
  0
ARC
  5
264
  8
____1
  6
CONTINUOUS
 62
     5
 10
25940.958346827079
 20
12481.83609288904
 30
0.0
 40
1.5
 50
0.0
 51
88.210089391510863
  0
ENDBLK
  5
265
  8
0
  0
BLOCK
  8
0
  2
C10
 70
     0
 10
0.0
 20
0.0
 30
0.0
  3
C10
  1

  0
LINE
  5
27A
  8
____1
  6
DASHED2
 62
     7
 10
25388.358346827081
 20
13632.810788679941
 30
0.0
 11
25388.358346827081
 21
13635.81078867995
 31
0.0
  0
LINE
  5
27B
  8
____1
  6
DASHED2
 62
     7
 10
25792.358346827092
 20
13632.810788679941
 30
0.0
 11
25792.358346827092
 21
13635.81078867995
 31
0.0
  0
LINE
  5
27C
  8
____1
  6
DASHED2
 62
     7
 10
25856.558346827089
 20
13632.810788679941
 30
0.0
 11
25856.558346827089
 21
13635.81078867995
 31
0.0
  0
LINE
  5
27D
  8
____1
  6
DASHED2
 62
     7
 10
25856.558346827089
 20
13632.810788679941
 30
0.0
 11
25936.45834682709
 21
13632.810788679941
 31
0.0
  0
LINE
  5
27E
  8
____1
  6
DASHED2
 62
     7
 10
25452.558346827089
 20
13632.810788679941
 30
0.0
 11
25792.358346827092
 21
13632.810788679941
 31
0.0
  0
LINE
  5
27F
  8
____1
  6
CONTINUOUS
 62
     5
 10
25302.45834682709
 20
13638.81078867995
 30
0.0
 11
25942.45834682709
 21
13638.81078867995
 31
0.0
  0
LINE
  5
280
  8
____1
  6
CONTINUOUS
 62
     5
 10
25302.45834682709
 20
13638.81078867995
 30
0.0
 11
25942.45834682709
 21
12998.81078867995
 31
0.0
  0
LINE
  5
281
  8
____1
  6
CONTINUOUS
 62
     5
 10
25942.45834682709
 20
13638.81078867995
 30
0.0
 11
25302.45834682709
 21
12998.81078867995
 31
0.0
  0
LINE
  5
282
  8
____1
  6
CONTINUOUS
 62
     5
 10
25942.45834682709
 20
12998.81078867995
 30
0.0
 11
25302.45834682709
 21
12998.81078867995
 31
0.0
  0
LINE
  5
283
  8
____1
  6
DASHED2
 62
     7
 10
25936.45834682709
 20
13004.81078867995
 30
0.0
 11
25308.458346827079
 21
13004.81078867995
 31
0.0
  0
LINE
  5
284
  8
____1
  6
DASHED2
 62
     7
 10
25305.458346827079
 20
13635.81078867995
 30
0.0
 11
25939.45834682709
 21
13635.81078867995
 31
0.0
  0
LINE
  5
285
  8
____1
  6
DASHED2
 62
     7
 10
25939.45834682709
 20
13001.81078867995
 30
0.0
 11
25305.458346827079
 21
13001.81078867995
 31
0.0
  0
LINE
  5
286
  8
____1
  6
CONTINUOUS
 62
     5
 10
25942.45834682709
 20
13638.81078867995
 30
0.0
 11
25942.45834682709
 21
12998.81078867995
 31
0.0
  0
LINE
  5
287
  8
____1
  6
DASHED2
 62
     7
 10
25939.45834682709
 20
13635.81078867995
 30
0.0
 11
25939.45834682709
 21
13001.81078867995
 31
0.0
  0
LINE
  5
288
  8
____1
  6
DASHED2
 62
     7
 10
25936.45834682709
 20
13632.810788679941
 30
0.0
 11
25936.45834682709
 21
13004.81078867995
 31
0.0
  0
LINE
  5
289
  8
____1
  6
CONTINUOUS
 62
     5
 10
25302.45834682709
 20
12998.81078867995
 30
0.0
 11
25302.45834682709
 21
13638.81078867995
 31
0.0
  0
LINE
  5
28A
  8
____1
  6
DASHED2
 62
     7
 10
25308.458346827079
 20
13004.81078867995
 30
0.0
 11
25308.458346827079
 21
13632.810788679941
 31
0.0
  0
LINE
  5
28B
  8
____1
  6
DASHED2
 62
     7
 10
25305.458346827079
 20
13001.81078867995
 30
0.0
 11
25305.458346827079
 21
13635.81078867995
 31
0.0
  0
LINE
  5
28C
  8
____1
  6
DASHED2
 62
     7
 10
25452.558346827089
 20
13632.810788679941
 30
0.0
 11
25452.558346827089
 21
13635.81078867995
 31
0.0
  0
LINE
  5
28D
  8
____1
  6
DASHED2
 62
     7
 10
25308.458346827079
 20
13632.810788679941
 30
0.0
 11
25388.358346827081
 21
13632.810788679941
 31
0.0
  0
ENDBLK
  5
28E
  8
0
  0
BLOCK
  8
0
  2
*D25
 70
     1
 10
0.0
 20
0.0
 30
0.0
  3
*D25
  1

  0
LINE
  5
292
  8
____1
  6
CONTINUOUS
 62
     7
 10
25982.45834682709
 20
13588.81078867995
 30
0.0
 11
25982.45834682709
 21
13874.400818050361
 31
0.0
  0
LINE
  5
293
  8
____1
  6
CONTINUOUS
 62
     7
 10
25262.45834682709
 20
13588.81078867995
 30
0.0
 11
25262.45834682709
 21
13874.400818050361
 31
0.0
  0
SOLID
  5
294
  8
____1
  6
CONTINUOUS
 62
     7
 10
25282.458346827079
 20
13862.40081805037
 30
0.0
 11
25282.458346827079
 21
13862.40081805037
 31
0.0
 12
25262.45834682709
 22
13866.40081805037
 32
0.0
 13
25277.45834682709
 23
13866.40081805037
 33
0.0
  0
SOLID
  5
295
  8
____1
  6
CONTINUOUS
 62
     7
 10
25262.45834682709
 20
13866.40081805037
 30
0.0
 11
25277.45834682709
 21
13866.40081805037
 31
0.0
 12
25282.458346827079
 22
13870.40081805037
 32
0.0
 13
25282.458346827079
 23
13870.40081805037
 33
0.0
  0
LINE
  5
296
  8
____1
  6
CONTINUOUS
 62
     7
 10
25262.45834682709
 20
13866.40081805037
 30
0.0
 11
25622.45834682709
 21
13866.40081805037
 31
0.0
  0
SOLID
  5
297
  8
____1
  6
CONTINUOUS
 62
     7
 10
25962.458346827079
 20
13862.40081805037
 30
0.0
 11
25962.458346827079
 21
13862.40081805037
 31
0.0
 12
25967.45834682709
 22
13866.40081805037
 32
0.0
 13
25982.45834682709
 23
13866.40081805037
 33
0.0
  0
SOLID
  5
298
  8
____1
  6
CONTINUOUS
 62
     7
 10
25967.45834682709
 20
13866.40081805037
 30
0.0
 11
25982.45834682709
 21
13866.40081805037
 31
0.0
 12
25962.458346827079
 22
13870.40081805037
 32
0.0
 13
25962.458346827079
 23
13870.40081805037
 33
0.0
  0
LINE
  5
299
  8
____1
  6
CONTINUOUS
 62
     7
 10
25982.45834682709
 20
13866.40081805037
 30
0.0
 11
25622.45834682709
 21
13866.40081805037
 31
0.0
  0
TEXT
  5
29A
  8
______
  6
DASHED2
 62
     7
 10
25601.291680796199
 20
13874.516558667479
 30
0.0
 40
28.222221374511719
  1
720
  7
STYLE1
  0
ENDBLK
  5
29B
  8
0
  0
BLOCK
  8
0
  2
C11
 70
     0
 10
0.0
 20
0.0
 30
0.0
  3
C11
  1

  0
LINE
  5
29F
  8
____1
  6
CONTINUOUS
 62
     7
 10
27147.414371631068
 20
12325.252500000001
 30
0.0
 11
27147.414371631068
 21
12365.252500000001
 31
0.0
  0
LINE
  5
2A0
  8
____1
  6
CONTINUOUS
 62
     7
 10
26675.414371631068
 20
12325.252500000001
 30
0.0
 11
26675.414371631068
 21
12365.252500000001
 31
0.0
  0
LINE
  5
2A1
  8
____1
  6
CONTINUOUS
 62
     7
 10
26747.414371631068
 20
12325.252500000001
 30
0.0
 11
26747.414371631068
 21
12365.252500000001
 31
0.0
  0
LINE
  5
2A2
  8
____1
  6
CONTINUOUS
 62
     7
 10
27587.414371631079
 20
12325.252500000001
 30
0.0
 11
27587.414371631079
 21
12365.252500000001
 31
0.0
  0
LINE
  5
2A3
  8
____1
  6
CONTINUOUS
 62
     7
 10
27515.414371631068
 20
12325.252500000001
 30
0.0
 11
27515.414371631068
 21
12365.252500000001
 31
0.0
  0
LINE
  5
2A4
  8
____1
  6
CONTINUOUS
 62
     7
 10
27835.414371631068
 20
12365.252500000001
 30
0.0
 11
26675.414371631068
 21
12365.252500000001
 31
0.0
  0
ENDBLK
  5
2A5
  8
0
  0
BLOCK
  8
0
  2
C12
 70
     0
 10
0.0
 20
0.0
 30
0.0
  3
C12
  1

  0
LINE
  5
2A9
  8
____1
  6
CONTINUOUS
 62
     7
 10
27147.414371631068
 20
12525.252500000001
 30
0.0
 11
27147.414371631068
 21
12565.252500000001
 31
0.0
  0
LINE
  5
2AA
  8
____1
  6
CONTINUOUS
 62
     7
 10
26675.414371631068
 20
12525.252500000001
 30
0.0
 11
26675.414371631068
 21
12565.252500000001
 31
0.0
  0
LINE
  5
2AB
  8
____1
  6
CONTINUOUS
 62
     7
 10
26747.414371631068
 20
12525.252500000001
 30
0.0
 11
26747.414371631068
 21
12565.252500000001
 31
0.0
  0
LINE
  5
2AC
  8
____1
  6
CONTINUOUS
 62
     7
 10
27587.414371631079
 20
12525.252500000001
 30
0.0
 11
27587.414371631079
 21
12565.252500000001
 31
0.0
  0
LINE
  5
2AD
  8
____1
  6
CONTINUOUS
 62
     7
 10
27515.414371631068
 20
12525.252500000001
 30
0.0
 11
27515.414371631068
 21
12565.252500000001
 31
0.0
  0
LINE
  5
2AE
  8
____1
  6
CONTINUOUS
 62
     7
 10
27835.414371631068
 20
12565.252500000001
 30
0.0
 11
26675.414371631068
 21
12565.252500000001
 31
0.0
  0
ENDBLK
  5
2AF
  8
0
  0
BLOCK
  8
0
  2
C13
 70
     0
 10
0.0
 20
0.0
 30
0.0
  3
C13
  1

  0
LINE
  5
2B3
  8
____1
  6
CONTINUOUS
 62
     7
 10
27147.414371631068
 20
12485.252500000001
 30
0.0
 11
27147.414371631068
 21
12525.252500000001
 31
0.0
  0
LINE
  5
2B4
  8
____1
  6
CONTINUOUS
 62
     7
 10
26675.414371631068
 20
12485.252500000001
 30
0.0
 11
26675.414371631068
 21
12525.252500000001
 31
0.0
  0
LINE
  5
2B5
  8
____1
  6
CONTINUOUS
 62
     7
 10
26747.414371631068
 20
12485.252500000001
 30
0.0
 11
26747.414371631068
 21
12525.252500000001
 31
0.0
  0
LINE
  5
2B6
  8
____1
  6
CONTINUOUS
 62
     7
 10
27587.414371631079
 20
12485.252500000001
 30
0.0
 11
27587.414371631079
 21
12525.252500000001
 31
0.0
  0
LINE
  5
2B7
  8
____1
  6
CONTINUOUS
 62
     7
 10
27515.414371631068
 20
12485.252500000001
 30
0.0
 11
27515.414371631068
 21
12525.252500000001
 31
0.0
  0
LINE
  5
2B8
  8
____1
  6
CONTINUOUS
 62
     7
 10
27835.414371631068
 20
12525.252500000001
 30
0.0
 11
26675.414371631068
 21
12525.252500000001
 31
0.0
  0
ENDBLK
  5
2B9
  8
0
  0
BLOCK
  8
0
  2
C14
 70
     0
 10
0.0
 20
0.0
 30
0.0
  3
C14
  1

  0
LINE
  5
2BD
  8
____1
  6
CONTINUOUS
 62
     7
 10
27147.414371631068
 20
12285.252500000001
 30
0.0
 11
27147.414371631068
 21
12325.252500000001
 31
0.0
  0
LINE
  5
2BE
  8
____1
  6
CONTINUOUS
 62
     7
 10
26675.414371631068
 20
12285.252500000001
 30
0.0
 11
26675.414371631068
 21
12325.252500000001
 31
0.0
  0
LINE
  5
2BF
  8
____1
  6
CONTINUOUS
 62
     7
 10
26747.414371631068
 20
12285.252500000001
 30
0.0
 11
26747.414371631068
 21
12325.252500000001
 31
0.0
  0
LINE
  5
2C0
  8
____1
  6
CONTINUOUS
 62
     7
 10
27587.414371631079
 20
12285.252500000001
 30
0.0
 11
27587.414371631079
 21
12325.252500000001
 31
0.0
  0
LINE
  5
2C1
  8
____1
  6
CONTINUOUS
 62
     7
 10
27515.414371631068
 20
12285.252500000001
 30
0.0
 11
27515.414371631068
 21
12325.252500000001
 31
0.0
  0
LINE
  5
2C2
  8
____1
  6
CONTINUOUS
 62
     7
 10
27835.414371631068
 20
12325.252500000001
 30
0.0
 11
26675.414371631068
 21
12325.252500000001
 31
0.0
  0
ENDBLK
  5
2C3
  8
0
  0
BLOCK
  8
0
  2
C15
 70
     0
 10
0.0
 20
0.0
 30
0.0
  3
C15
  1

  0
LINE
  5
2C7
  8
____1
  6
CONTINUOUS
 62
     7
 10
27147.414371631068
 20
12245.252500000001
 30
0.0
 11
27147.414371631068
 21
12285.252500000001
 31
0.0
  0
LINE
  5
2C8
  8
____1
  6
CONTINUOUS
 62
     7
 10
26675.414371631068
 20
12245.252500000001
 30
0.0
 11
26675.414371631068
 21
12285.252500000001
 31
0.0
  0
LINE
  5
2C9
  8
____1
  6
CONTINUOUS
 62
     7
 10
26747.414371631068
 20
12245.252500000001
 30
0.0
 11
26747.414371631068
 21
12285.252500000001
 31
0.0
  0
LINE
  5
2CA
  8
____1
  6
CONTINUOUS
 62
     7
 10
27587.414371631079
 20
12245.252500000001
 30
0.0
 11
27587.414371631079
 21
12285.252500000001
 31
0.0
  0
LINE
  5
2CB
  8
____1
  6
CONTINUOUS
 62
     7
 10
27515.414371631068
 20
12245.252500000001
 30
0.0
 11
27515.414371631068
 21
12285.252500000001
 31
0.0
  0
LINE
  5
2CC
  8
____1
  6
CONTINUOUS
 62
     7
 10
27835.414371631068
 20
12285.252500000001
 30
0.0
 11
26675.414371631068
 21
12285.252500000001
 31
0.0
  0
ENDBLK
  5
2CD
  8
0
  0
BLOCK
  8
0
  2
C16
 70
     0
 10
0.0
 20
0.0
 30
0.0
  3
C16
  1

  0
LINE
  5
2D1
  8
____1
  6
CONTINUOUS
 62
     7
 10
27147.414371631068
 20
12205.252500000001
 30
0.0
 11
27147.414371631068
 21
12245.252500000001
 31
0.0
  0
LINE
  5
2D2
  8
____1
  6
CONTINUOUS
 62
     7
 10
26675.414371631068
 20
12205.252500000001
 30
0.0
 11
26675.414371631068
 21
12245.252500000001
 31
0.0
  0
LINE
  5
2D3
  8
____1
  6
CONTINUOUS
 62
     7
 10
26747.414371631068
 20
12205.252500000001
 30
0.0
 11
26747.414371631068
 21
12245.252500000001
 31
0.0
  0
LINE
  5
2D4
  8
____1
  6
CONTINUOUS
 62
     7
 10
27587.414371631079
 20
12205.252500000001
 30
0.0
 11
27587.414371631079
 21
12245.252500000001
 31
0.0
  0
LINE
  5
2D5
  8
____1
  6
CONTINUOUS
 62
     7
 10
27515.414371631068
 20
12205.252500000001
 30
0.0
 11
27515.414371631068
 21
12245.252500000001
 31
0.0
  0
LINE
  5
2D6
  8
____1
  6
CONTINUOUS
 62
     7
 10
27835.414371631068
 20
12245.252500000001
 30
0.0
 11
26675.414371631068
 21
12245.252500000001
 31
0.0
  0
ENDBLK
  5
2D7
  8
0
  0
BLOCK
  8
0
  2
C17
 70
     0
 10
0.0
 20
0.0
 30
0.0
  3
C17
  1

  0
CIRCLE
  5
2E2
  8
____1
  6
CONTINUOUS
 62
     7
 10
25025.99463151133
 20
12683.711520287739
 30
0.0
 40
28.0
  0
TEXT
  5
2E3
  8
____1
  6
DASHED2
 62
     7
 10
25018.939076167699
 20
12673.7161502176
 30
0.0
 40
28.222221374511719
  1
2
  7
STYLE1
  0
LINE
  5
2E4
  8
______
  6
CONTINUOUS
 62
     7
 10
25072.661298178002
 20
12683.711520287739
 30
0.0
 11
25053.99463151133
 21
12683.711520287739
 31
0.0
  0
LINE
  5
2E5
  8
______
  6
CONTINUOUS
 62
     7
 10
25211.26056657021
 20
12822.31078867995
 30
0.0
 11
25072.661298178002
 21
12683.711520287739
 31
0.0
  0
SOLID
  5
2E6
  8
______
 62
     7
 10
25211.26056657021
 20
12822.31078867995
 30
0.0
 11
25204.18949875834
 21
12818.06814799283
 31
0.0
 12
25211.26056657021
 22
12822.31078867995
 32
0.0
 13
25207.01792588309
 23
12818.06814799283
 33
0.0
  0
SOLID
  5
2E7
  8
______
 62
     7
 10
25207.01792588309
 20
12818.06814799283
 30
0.0
 11
25207.01792588309
 21
12815.23972086809
 31
0.0
 12
25211.26056657021
 22
12822.31078867995
 32
0.0
 13
25211.26056657021
 23
12822.31078867995
 33
0.0
  0
ENDBLK
  5
2E8
  8
0
  0
BLOCK
  8
0
  2
C18
 70
     0
 10
0.0
 20
0.0
 30
0.0
  3
C18
  1

  0
INSERT
  5
308
  8
____1
  6
DASHED2
 62
     4
  2
C19
 10
0.0
 20
0.0
 30
0.0
  0
LINE
  5
309
  8
____1
  6
DOT
 62
     2
 10
27321.271167273459
 20
13627.01580846029
 30
0.0
 11
27321.133238557039
 21
13631.105768899601
 31
0.0
  0
LINE
  5
30A
  8
____1
  6
DOT
 62
     2
 10
27323.24718313491
 20
13629.12975303816
 30
0.0
 11
27319.157222695601
 21
13628.991824321731
 31
0.0
  0
ENDBLK
  5
30B
  8
0
  0
BLOCK
  8
0
  2
C19
 70
     0
 10
0.0
 20
0.0
 30
0.0
  3
C19
  1

  0
CIRCLE
  5
2F3
  8
____1
  6
DOT
 62
     4
 10
27136.180739326341
 20
13633.60177000735
 30
0.0
 40
4.2499999999986828
  0
CIRCLE
  5
2F4
  8
____1
  6
DOT
 62
     4
 10
27136.180739326341
 20
13633.60177000735
 30
0.0
 40
4.9999999999956026
  0
LINE
  5
2F5
  8
____1
  6
CENTER2
 62
     4
 10
27152.72977114953
 20
13618.17032335725
 30
0.0
 11
27120.749292676239
 21
13617.05273818414
 31
0.0
  0
LINE
  5
2F6
  8
____1
  6
CENTER2
 62
     4
 10
27154.1912613934
 20
13662.248254868009
 30
0.0
 11
27155.623167396428
 21
13621.27326682409
 31
0.0
  0
LINE
  5
2F7
  8
____1
  6
CENTER2
 62
     4
 10
27117.64634920939
 20
13619.946134431049
 30
0.0
 11
27116.214443206369
 21
13660.92112247496
 31
0.0
  0
LINE
  5
2F8
  8
____1
  6
CENTER2
 62
     4
 10
27119.10783945326
 20
13664.0240659418
 30
0.0
 11
27151.088317926551
 21
13665.141651114889
 31
0.0
  0
LINE
  5
2F9
  8
____1
  6
CENTER2
 62
     4
 10
26686.87168508763
 20
13648.91920383664
 30
0.0
 11
26688.35758941005
 21
13606.399016256721
 31
0.0
  0
LINE
  5
2FA
  8
____1
  6
CENTER2
 62
     4
 10
27326.481254553521
 20
13671.27090729858
 30
0.0
 11
27327.967158875941
 21
13628.75071971867
 31
0.0
  0
LINE
  5
2FB
  8
____1
  6
CENTER2
 62
     4
 10
27324.97663192742
 20
13672.718510271519
 30
0.0
 11
27006.27644916339
 21
13671.54192541138
 31
0.0
  0
LINE
  5
2FC
  8
____1
  6
CENTER2
 62
     4
 10
26688.27158522532
 20
13650.4683078418
 30
0.0
 11
27006.27644916339
 21
13671.54192541138
 31
0.0
  0
ARC
  5
2FD
  8
____1
  6
CENTER2
 62
     4
 10
27120.644519066271
 20
13620.050908041019
 30
0.0
 40
3.0000000000040412
 50
-177.99856444114121
 51
-87.998564441005996
  0
ARC
  5
2FE
  8
____1
  6
CENTER2
 62
     4
 10
27152.624997539559
 20
13621.168493214111
 30
0.0
 40
2.9999999999930069
 50
-87.998564441068154
 51
2.0014355589976471
  0
ARC
  5
2FF
  8
____1
  6
CENTER2
 62
     4
 10
27324.982169625091
 20
13671.21852049359
 30
0.0
 40
1.4999999999977289
 50
2.0014355592778248
 51
90.211524950604527
  0
ARC
  5
300
  8
____1
  6
CENTER2
 62
     4
 10
26689.85667433848
 20
13606.451403061719
 30
0.0
 40
1.4999999999976019
 50
-177.998564440861
 51
-87.998564440870766
  0
ARC
  5
301
  8
____1
  6
CENTER2
 62
     4
 10
27326.468073947512
 20
13628.698332913689
 30
0.0
 40
1.4999999999971581
 50
-87.99856444101934
 51
2.0014355586528838
  0
ARC
  5
302
  8
____1
  6
CENTER2
 62
     4
 10
27151.19309153653
 20
13662.143481258019
 30
0.0
 40
2.9999999999987139
 50
2.0014355590670849
 51
92.001435559000086
  0
ARC
  5
303
  8
____1
  6
CENTER2
 62
     4
 10
27119.212613063231
 20
13661.025896084921
 30
0.0
 40
3.0000000000059859
 50
92.00143555906223
 51
-177.99856444121059
  0
ARC
  5
304
  8
____1
  6
CENTER2
 62
     4
 10
26688.370770016059
 20
13648.97159064163
 30
0.0
 40
1.4999999999965969
 50
93.791346166924058
 51
-177.9985644407916
  0
LINE
  5
305
  8
____1
  6
CENTER2
 62
     4
 10
26689.909061143469
 20
13604.952318133281
 30
0.0
 11
27117.64831538729
 21
13619.900032217471
 31
0.0
  0
LINE
  5
306
  8
____1
  6
CENTER2
 62
     4
 10
27155.624424247329
 20
13621.22713982248
 30
0.0
 11
27326.520460752501
 21
13627.19924798524
 31
0.0
  0
ENDBLK
  5
307
  8
0
  0
BLOCK
  8
0
  2
C20
 70
     0
 10
0.0
 20
0.0
 30
0.0
  3
C20
  1

  0
LINE
  5
30F
  8
____1
  6
DOT
 62
     7
 10
25327.708346827079
 20
12455.35660186148
 30
0.0
 11
25357.45834682709
 21
12455.35660186148
 31
0.0
  0
INSERT
  5
31A
  8
____1
  6
DASHED2
 62
     7
  2
C21
 10
0.0
 20
0.0
 30
0.0
  0
INSERT
  5
325
  8
____1
  6
DASHED2
 62
     7
  2
C22
 10
0.0
 20
0.0
 30
0.0
  0
INSERT
  5
341
  8
____1
  6
DASHED2
 62
     7
  2
C23
 10
0.0
 20
0.0
 30
0.0
  0
INSERT
  5
34A
  8
____1
  6
DASHED2
 62
     7
  2
C24
 10
0.0
 20
0.0
 30
0.0
  0
INSERT
  5
354
  8
____1
  6
DASHED2
 62
     7
  2
C25
 10
0.0
 20
0.0
 30
0.0
  0
LINE
  5
355
  8
____1
  6
DASHED2
 62
     7
 10
25357.70834682709
 20
12469.421556437699
 30
0.0
 11
25357.70834682709
 21
12449.79164728525
 31
0.0
  0
LINE
  5
356
  8
____1
  6
DASHED2
 62
     7
 10
25363.94934038457
 20
12454.699124573361
 30
0.0
 11
25357.70834682709
 21
12454.699124573361
 31
0.0
  0
LINE
  5
357
  8
____1
  6
DASHED2
 62
     7
 10
25363.949157448529
 20
12449.79164728525
 30
0.0
 11
25357.70834682709
 21
12449.79164728525
 31
0.0
  0
LINE
  5
358
  8
____1
  6
DASHED2
 62
     7
 10
25363.949157448529
 20
12469.421556437699
 30
0.0
 11
25357.70834682709
 21
12469.421556437699
 31
0.0
  0
LINE
  5
359
  8
____1
  6
DASHED2
 62
     7
 10
25364.708346827079
 20
12468.106601861469
 30
0.0
 11
25363.949157448529
 21
12469.421556437699
 31
0.0
  0
LINE
  5
35A
  8
____1
  6
DASHED2
 62
     7
 10
25363.94934038457
 20
12464.51407914958
 30
0.0
 11
25357.70834682709
 21
12464.51407914958
 31
0.0
  0
LINE
  5
35B
  8
____1
  6
DASHED2
 62
     7
 10
25364.708346827079
 20
12468.106601861469
 30
0.0
 11
25364.708346827079
 21
12459.606601861469
 31
0.0
  0
LINE
  5
35C
  8
____1
  6
DASHED2
 62
     7
 10
25364.708346827079
 20
12451.106601861469
 30
0.0
 11
25363.949157448529
 21
12449.79164728525
 31
0.0
  0
LINE
  5
35D
  8
____1
  6
DASHED2
 62
     7
 10
25364.708346827079
 20
12451.106601861469
 30
0.0
 11
25364.708346827079
 21
12459.606601861469
 31
0.0
  0
ARC
  5
35E
  8
____1
  6
DASHED2
 62
     7
 10
25348.463804796829
 20
12459.606601861469
 30
0.0
 40
16.244542030249011
 50
-17.583976886999029
 51
0.0
  0
ARC
  5
35F
  8
____1
  6
DASHED2
 62
     7
 10
25360.362977052358
 20
12452.245385929309
 30
0.0
 40
4.3453697747229603
 50
-25.605116760735079
 51
34.379996836904219
  0
ARC
  5
360
  8
____1
  6
DASHED2
 62
     7
 10
25360.362977052358
 20
12466.96781779364
 30
0.0
 40
4.3453697747229603
 50
-34.37999683694381
 51
25.605116760735079
  0
ARC
  5
361
  8
____1
  6
DASHED2
 62
     7
 10
25348.463804796829
 20
12459.606601861469
 30
0.0
 40
16.244542030247899
 50
0.0
 51
17.5839768869868
  0
LINE
  5
362
  8
____1
  6
DOT
 62
     7
 10
25327.708346827079
 20
12463.856601861469
 30
0.0
 11
25328.458346827079
 21
12464.606601861469
 31
0.0
  0
LINE
  5
363
  8
____1
  6
DOT
 62
     7
 10
25327.708346827079
 20
12463.856601861469
 30
0.0
 11
25327.708346827079
 21
12455.35660186148
 31
0.0
  0
LINE
  5
364
  8
____1
  6
DOT
 62
     7
 10
25328.458346827079
 20
12464.606601861469
 30
0.0
 11
25328.458346827079
 21
12454.606601861469
 31
0.0
  0
LINE
  5
365
  8
____1
  6
DOT
 62
     7
 10
25327.708346827079
 20
12455.35660186148
 30
0.0
 11
25328.458346827079
 21
12454.606601861469
 31
0.0
  0
LINE
  5
366
  8
____1
  6
DOT
 62
     7
 10
25328.458346827079
 20
12464.606601861469
 30
0.0
 11
25357.45834682709
 21
12464.606601861469
 31
0.0
  0
LINE
  5
367
  8
____1
  6
DOT
 62
     7
 10
25328.458346827079
 20
12454.606601861469
 30
0.0
 11
25357.45834682709
 21
12454.606601861469
 31
0.0
  0
LINE
  5
368
  8
____1
  6
DOT
 62
     7
 10
25357.45834682709
 20
12463.856601861469
 30
0.0
 11
25327.708346827079
 21
12463.856601861469
 31
0.0
  0
ENDBLK
  5
369
  8
0
  0
BLOCK
  8
0
  2
C21
 70
     0
 10
0.0
 20
0.0
 30
0.0
  3
C21
  1

  0
LINE
  5
312
  8
____1
  6
DASHED2
 62
     7
 10
25355.208346827079
 20
12444.606601861469
 30
0.0
 11
25356.708346827079
 21
12444.606601861469
 31
0.0
  0
LINE
  5
313
  8
____1
  6
DASHED2
 62
     7
 10
25356.708346827079
 20
12444.606601861469
 30
0.0
 11
25356.708346827079
 21
12474.606601861469
 31
0.0
  0
LINE
  5
314
  8
____1
  6
DASHED2
 62
     7
 10
25355.208346827079
 20
12474.606601861469
 30
0.0
 11
25356.708346827079
 21
12474.606601861469
 31
0.0
  0
LINE
  5
315
  8
____1
  6
DASHED2
 62
     7
 10
25355.208346827079
 20
12444.606601861469
 30
0.0
 11
25355.208346827079
 21
12474.606601861469
 31
0.0
  0
LINE
  5
316
  8
____1
  6
DASHED2
 62
     7
 10
25357.70834682709
 20
12454.606601861469
 30
0.0
 11
25356.708346827079
 21
12444.606601861469
 31
0.0
  0
LINE
  5
317
  8
____1
  6
DASHED2
 62
     7
 10
25357.70834682709
 20
12454.606601861469
 30
0.0
 11
25357.70834682709
 21
12464.60660186148
 31
0.0
  0
LINE
  5
318
  8
____1
  6
DASHED2
 62
     7
 10
25357.70834682709
 20
12464.60660186148
 30
0.0
 11
25356.708346827079
 21
12474.606601861469
 31
0.0
  0
ENDBLK
  5
319
  8
0
  0
BLOCK
  8
0
  2
C22
 70
     0
 10
0.0
 20
0.0
 30
0.0
  3
C22
  1

  0
LINE
  5
31D
  8
____1
  6
DASHED2
 62
     7
 10
25352.208346827079
 20
12444.606601861469
 30
0.0
 11
25350.708346827079
 21
12444.606601861469
 31
0.0
  0
LINE
  5
31E
  8
____1
  6
DASHED2
 62
     7
 10
25350.708346827079
 20
12444.606601861469
 30
0.0
 11
25350.708346827079
 21
12474.606601861469
 31
0.0
  0
LINE
  5
31F
  8
____1
  6
DASHED2
 62
     7
 10
25352.208346827079
 20
12474.606601861469
 30
0.0
 11
25350.708346827079
 21
12474.606601861469
 31
0.0
  0
LINE
  5
320
  8
____1
  6
DASHED2
 62
     7
 10
25352.208346827079
 20
12444.606601861469
 30
0.0
 11
25352.208346827079
 21
12474.606601861469
 31
0.0
  0
LINE
  5
321
  8
____1
  6
DASHED2
 62
     7
 10
25349.708346827079
 20
12454.606601861469
 30
0.0
 11
25350.708346827079
 21
12444.606601861469
 31
0.0
  0
LINE
  5
322
  8
____1
  6
DASHED2
 62
     7
 10
25349.708346827079
 20
12454.606601861469
 30
0.0
 11
25349.708346827079
 21
12464.60660186148
 31
0.0
  0
LINE
  5
323
  8
____1
  6
DASHED2
 62
     7
 10
25349.708346827079
 20
12464.60660186148
 30
0.0
 11
25350.708346827079
 21
12474.606601861469
 31
0.0
  0
ENDBLK
  5
324
  8
0
  0
BLOCK
  8
0
  2
C23
 70
     0
 10
0.0
 20
0.0
 30
0.0
  3
C23
  1

  0
LINE
  5
328
  8
____1
  6
DASHED2
 62
     7
 10
25332.208346827079
 20
12451.106601861469
 30
0.0
 11
25332.208346827079
 21
12459.606601861469
 31
0.0
  0
LINE
  5
329
  8
____1
  6
DASHED2
 62
     7
 10
25331.44934038457
 20
12454.699124573361
 30
0.0
 11
25329.20834682709
 21
12454.699124573361
 31
0.0
  0
LINE
  5
32A
  8
____1
  6
DASHED2
 62
     7
 10
25329.20834682709
 20
12449.79164728525
 30
0.0
 11
25331.449157448518
 21
12449.79164728525
 31
0.0
  0
LINE
  5
32B
  8
____1
  6
DASHED2
 62
     7
 10
25332.208346827079
 20
12451.106601861469
 30
0.0
 11
25331.449157448518
 21
12449.79164728525
 31
0.0
  0
ARC
  5
32C
  8
____1
  6
DASHED2
 62
     7
 10
25327.863162966249
 20
12452.245385929309
 30
0.0
 40
4.345183860828703
 50
-25.60931067048573
 51
34.381674152432247
  0
ARC
  5
32D
  8
____1
  6
DASHED2
 62
     7
 10
25315.963804796829
 20
12459.606601861469
 30
0.0
 40
16.24454203024942
 50
-17.583781960927411
 51
0.0
  0
LINE
  5
32E
  8
____1
  6
DASHED2
 62
     7
 10
25332.208346827079
 20
12468.106601861469
 30
0.0
 11
25332.208346827079
 21
12459.606601861469
 31
0.0
  0
LINE
  5
32F
  8
____1
  6
DASHED2
 62
     7
 10
25331.44934038457
 20
12464.51407914958
 30
0.0
 11
25329.20834682709
 21
12464.51407914958
 31
0.0
  0
LINE
  5
330
  8
____1
  6
DASHED2
 62
     7
 10
25329.20834682709
 20
12469.421556437699
 30
0.0
 11
25331.449157448518
 21
12469.421556437699
 31
0.0
  0
LINE
  5
331
  8
____1
  6
DASHED2
 62
     7
 10
25332.208346827079
 20
12468.106601861469
 30
0.0
 11
25331.449157448518
 21
12469.421556437699
 31
0.0
  0
ARC
  5
332
  8
____1
  6
DASHED2
 62
     7
 10
25327.863162966249
 20
12466.96781779364
 30
0.0
 40
4.34518386082713
 50
-34.381674152471838
 51
25.609310670442468
  0
ARC
  5
333
  8
____1
  6
DASHED2
 62
     7
 10
25315.963804796829
 20
12459.606601861469
 30
0.0
 40
16.244542030248319
 50
0.0
 51
17.583781960915179
  0
LINE
  5
334
  8
____1
  6
DASHED2
 62
     7
 10
25326.208346827079
 20
12468.106601861469
 30
0.0
 11
25326.208346827079
 21
12459.606601861469
 31
0.0
  0
LINE
  5
335
  8
____1
  6
DASHED2
 62
     7
 10
25326.967353269589
 20
12464.51407914958
 30
0.0
 11
25329.20834682709
 21
12464.51407914958
 31
0.0
  0
LINE
  5
336
  8
____1
  6
DASHED2
 62
     7
 10
25329.20834682709
 20
12469.421556437699
 30
0.0
 11
25326.96753620563
 21
12469.421556437699
 31
0.0
  0
LINE
  5
337
  8
____1
  6
DASHED2
 62
     7
 10
25326.208346827079
 20
12468.106601861469
 30
0.0
 11
25326.96753620563
 21
12469.421556437699
 31
0.0
  0
ARC
  5
338
  8
____1
  6
DASHED2
 62
     7
 10
25330.55353068791
 20
12466.96781779364
 30
0.0
 40
4.34518386082713
 50
154.39068932955749
 51
-145.61832584750101
  0
ARC
  5
339
  8
____1
  6
DASHED2
 62
     7
 10
25342.45288885733
 20
12459.606601861469
 30
0.0
 40
16.244542030248319
 50
162.41621803908481
 51
180.0
  0
LINE
  5
33A
  8
____1
  6
DASHED2
 62
     7
 10
25326.208346827079
 20
12451.106601861469
 30
0.0
 11
25326.208346827079
 21
12459.606601861469
 31
0.0
  0
LINE
  5
33B
  8
____1
  6
DASHED2
 62
     7
 10
25326.967353269589
 20
12454.699124573361
 30
0.0
 11
25329.20834682709
 21
12454.699124573361
 31
0.0
  0
LINE
  5
33C
  8
____1
  6
DASHED2
 62
     7
 10
25329.20834682709
 20
12449.79164728525
 30
0.0
 11
25326.96753620563
 21
12449.79164728525
 31
0.0
  0
LINE
  5
33D
  8
____1
  6
DASHED2
 62
     7
 10
25326.208346827079
 20
12451.106601861469
 30
0.0
 11
25326.96753620563
 21
12449.79164728525
 31
0.0
  0
ARC
  5
33E
  8
____1
  6
DASHED2
 62
     7
 10
25330.55353068791
 20
12452.245385929309
 30
0.0
 40
4.345183860828703
 50
145.6183258475406
 51
-154.39068932951429
  0
ARC
  5
33F
  8
____1
  6
DASHED2
 62
     7
 10
25342.45288885733
 20
12459.606601861469
 30
0.0
 40
16.24454203024942
 50
180.0
 51
-162.41621803907259
  0
ENDBLK
  5
340
  8
0
  0
BLOCK
  8
0
  2
C24
 70
     0
 10
0.0
 20
0.0
 30
0.0
  3
C24
  1

  0
LINE
  5
344
  8
____1
  6
DASHED2
 62
     7
 10
25332.208346827079
 20
12468.806778944811
 30
0.0
 11
25334.70834682709
 21
12468.806778944811
 31
0.0
  0
LINE
  5
345
  8
____1
  6
DASHED2
 62
     7
 10
25332.208346827079
 20
12450.406778944811
 30
0.0
 11
25332.208346827079
 21
12468.806778944811
 31
0.0
  0
LINE
  5
346
  8
____1
  6
DASHED2
 62
     7
 10
25334.70834682709
 20
12450.406778944811
 30
0.0
 11
25332.208346827079
 21
12450.406778944811
 31
0.0
  0
LINE
  5
347
  8
____1
  6
DASHED2
 62
     7
 10
25332.208465316671
 20
12460.262026340641
 30
0.0
 11
25334.708367660409
 21
12459.35213629894
 31
0.0
  0
LINE
  5
348
  8
____1
  6
DASHED2
 62
     7
 10
25332.208465316671
 20
12459.862026340639
 30
0.0
 11
25334.708367660409
 21
12458.95213629894
 31
0.0
  0
ENDBLK
  5
349
  8
0
  0
BLOCK
  8
0
  2
C25
 70
     0
 10
0.0
 20
0.0
 30
0.0
  3
C25
  1

  0
LINE
  5
34D
  8
____1
  6
DASHED2
 62
     7
 10
25349.708346827079
 20
12466.106601861469
 30
0.0
 11
25349.708346827079
 21
12453.106601861469
 31
0.0
  0
LINE
  5
34E
  8
____1
  6
DASHED2
 62
     7
 10
25338.70834682709
 20
12466.106601861469
 30
0.0
 11
25338.70834682709
 21
12453.106601861469
 31
0.0
  0
LINE
  5
34F
  8
____1
  6
DASHED2
 62
     7
 10
25349.708346827079
 20
12466.106601861469
 30
0.0
 11
25338.70834682709
 21
12466.106601861469
 31
0.0
  0
LINE
  5
350
  8
____1
  6
DASHED2
 62
     7
 10
25349.708346827079
 20
12453.106601861469
 30
0.0
 11
25338.70834682709
 21
12453.106601861469
 31
0.0
  0
LINE
  5
351
  8
____1
  6
DOT
 62
     7
 10
25349.708346827079
 20
12464.90660186147
 30
0.0
 11
25338.70834682709
 21
12464.90660186147
 31
0.0
  0
LINE
  5
352
  8
____1
  6
DOT
 62
     7
 10
25349.708346827079
 20
12454.30660186147
 30
0.0
 11
25338.70834682709
 21
12454.30660186147
 31
0.0
  0
ENDBLK
  5
353
  8
0
  0
BLOCK
  8
0
  2
C26
 70
     0
 10
0.0
 20
0.0
 30
0.0
  3
C26
  1

  0
LINE
  5
36D
  8
____1
  6
DASHED2
 62
     7
 10
25322.958346827079
 20
12430.10909144481
 30
0.0
 11
25352.458346827079
 21
12430.10909144481
 31
0.0
  0
ARC
  5
36E
  8
____1
  6
DASHED2
 62
     7
 10
25352.458346827079
 20
12432.60909144481
 30
0.0
 40
2.5
 50
-90.0
 51
0.0
  0
LINE
  5
36F
  8
____1
  6
DASHED2
 62
     7
 10
25354.958346827079
 20
12475.10909144481
 30
0.0
 11
25354.958346827079
 21
12432.60909144481
 31
0.0
  0
LINE
  5
370
  8
____1
  6
DASHED2
 62
     7
 10
25352.458346827079
 20
12432.809091444809
 30
0.0
 11
25354.958346827079
 21
12432.809091444809
 31
0.0
  0
LINE
  5
371
  8
____1
  6
DASHED2
 62
     7
 10
25354.958346827079
 20
12475.10909144481
 30
0.0
 11
25322.458346827079
 21
12475.10909144481
 31
0.0
  0
LINE
  5
372
  8
____1
  6
DASHED2
 62
     7
 10
25352.458346827079
 20
12432.809091444809
 30
0.0
 11
25322.458346827079
 21
12432.809091444809
 31
0.0
  0
LINE
  5
373
  8
____1
  6
DASHED2
 62
     7
 10
25352.458346827079
 20
12432.60909144481
 30
0.0
 11
25322.958346827079
 21
12432.60909144481
 31
0.0
  0
LINE
  5
374
  8
____1
  6
DASHED2
 62
     7
 10
25352.458346827079
 20
12475.10909144481
 30
0.0
 11
25352.458346827079
 21
12432.809091444809
 31
0.0
  0
LINE
  5
375
  8
____1
  6
DASHED2
 62
     7
 10
25322.958346827079
 20
12432.60909144481
 30
0.0
 11
25322.958346827079
 21
12430.10909144481
 31
0.0
  0
LINE
  5
376
  8
____1
  6
DASHED2
 62
     7
 10
25322.458346827079
 20
12475.10909144481
 30
0.0
 11
25322.458346827079
 21
12432.809091444809
 31
0.0
  0
ENDBLK
  5
377
  8
0
  0
BLOCK
  8
0
  2
*D42
 70
     1
 10
0.0
 20
0.0
 30
0.0
  3
*D42
  1

  0
LINE
  5
38E
  8
____1
  6
CONTINUOUS
 62
     7
 10
25373.079486237992
 20
12088.05661424041
 30
0.0
 11
25373.079486237992
 21
12118.58356269005
 31
0.0
  0
LINE
  5
38F
  8
____1
  6
CONTINUOUS
 62
     7
 10
25314.485295276729
 20
12118.58356269005
 30
0.0
 11
25381.079486237992
 21
12118.58356269005
 31
0.0
  0
LINE
  5
390
  8
____1
  6
CONTINUOUS
 62
     7
 10
25283.95834682709
 20
12088.05661424041
 30
0.0
 11
25381.079486237992
 21
12088.05661424041
 31
0.0
  0
SOLID
  5
391
  8
____1
  6
CONTINUOUS
 62
     7
 10
25369.079486237992
 20
12068.05661424041
 30
0.0
 11
25369.079486237992
 21
12068.05661424041
 31
0.0
 12
25370.079486237992
 22
12073.05661424042
 32
0.0
 13
25373.079486237992
 23
12073.05661424042
 33
0.0
  0
SOLID
  5
392
  8
____1
  6
CONTINUOUS
 62
     7
 10
25377.079486237992
 20
12068.05661424041
 30
0.0
 11
25377.079486237992
 21
12068.05661424041
 31
0.0
 12
25373.079486237992
 22
12073.05661424042
 32
0.0
 13
25376.079486237992
 23
12073.05661424042
 33
0.0
  0
SOLID
  5
393
  8
____1
  6
CONTINUOUS
 62
     7
 10
25370.079486237992
 20
12073.05661424042
 30
0.0
 11
25376.079486237992
 21
12073.05661424042
 31
0.0
 12
25373.079486237992
 22
12088.05661424041
 32
0.0
 13
25373.079486237992
 23
12088.05661424041
 33
0.0
  0
LINE
  5
394
  8
____1
  6
CONTINUOUS
 62
     7
 10
25373.079486237992
 20
12088.05661424041
 30
0.0
 11
25373.079486237992
 21
12005.00023538069
 31
0.0
  0
SOLID
  5
395
  8
____1
  6
CONTINUOUS
 62
     7
 10
25373.079486237992
 20
12118.58356269005
 30
0.0
 11
25373.079486237992
 21
12118.58356269005
 31
0.0
 12
25370.079486237992
 22
12133.583562690061
 32
0.0
 13
25376.079486237992
 23
12133.583562690061
 33
0.0
  0
SOLID
  5
396
  8
____1
  6
CONTINUOUS
 62
     7
 10
25370.079486237992
 20
12133.583562690061
 30
0.0
 11
25373.079486237992
 21
12133.583562690061
 31
0.0
 12
25369.079486237992
 22
12138.58356269005
 32
0.0
 13
25369.079486237992
 23
12138.58356269005
 33
0.0
  0
SOLID
  5
397
  8
____1
  6
CONTINUOUS
 62
     7
 10
25373.079486237992
 20
12133.583562690061
 30
0.0
 11
25376.079486237992
 21
12133.583562690061
 31
0.0
 12
25377.079486237992
 22
12138.58356269005
 32
0.0
 13
25377.079486237992
 23
12138.58356269005
 33
0.0
  0
LINE
  5
398
  8
____1
  6
CONTINUOUS
 62
     7
 10
25373.079486237992
 20
12118.58356269005
 30
0.0
 11
25373.079486237992
 21
12158.58356269005
 31
0.0
  0
TEXT
  5
399
  8
______
  6
CENTER2
 62
     7
 10
25364.96374562088
 20
12019.11134606795
 30
0.0
 40
28.222221374511719
  1
(30)
 50
90.0
  7
STYLE1
  0
ENDBLK
  5
39A
  8
0
  0
BLOCK
  8
0
  2
*D43
 70
     1
 10
0.0
 20
0.0
 30
0.0
  3
*D43
  1

  0
LINE
  5
39E
  8
____1
  6
CONTINUOUS
 62
     7
 10
25244.95834682709
 20
11979.39716585667
 30
0.0
 11
25279.95834682709
 21
11979.39716585667
 31
0.0
  0
LINE
  5
39F
  8
____1
  6
CONTINUOUS
 62
     7
 10
25279.95834682709
 20
12084.05661424041
 30
0.0
 11
25279.95834682709
 21
11971.39716585667
 31
0.0
  0
LINE
  5
3A0
  8
____1
  6
CONTINUOUS
 62
     7
 10
25244.95834682709
 20
12084.05661424041
 30
0.0
 11
25244.95834682709
 21
11971.39716585667
 31
0.0
  0
SOLID
  5
3A1
  8
____1
  6
CONTINUOUS
 62
     7
 10
25224.95834682709
 20
11975.39716585667
 30
0.0
 11
25224.95834682709
 21
11975.39716585667
 31
0.0
 12
25229.95834682709
 22
11979.39716585667
 32
0.0
 13
25244.95834682709
 23
11979.39716585667
 33
0.0
  0
SOLID
  5
3A2
  8
____1
  6
CONTINUOUS
 62
     7
 10
25229.95834682709
 20
11979.39716585667
 30
0.0
 11
25244.95834682709
 21
11979.39716585667
 31
0.0
 12
25224.95834682709
 22
11983.39716585667
 32
0.0
 13
25224.95834682709
 23
11983.39716585667
 33
0.0
  0
LINE
  5
3A3
  8
____1
  6
CONTINUOUS
 62
     7
 10
25244.95834682709
 20
11979.39716585667
 30
0.0
 11
25204.95834682709
 21
11979.39716585667
 31
0.0
  0
SOLID
  5
3A4
  8
____1
  6
CONTINUOUS
 62
     7
 10
25299.95834682709
 20
11975.39716585667
 30
0.0
 11
25299.95834682709
 21
11975.39716585667
 31
0.0
 12
25279.95834682709
 22
11979.39716585667
 32
0.0
 13
25294.95834682709
 23
11979.39716585667
 33
0.0
  0
SOLID
  5
3A5
  8
____1
  6
CONTINUOUS
 62
     7
 10
25279.95834682709
 20
11979.39716585667
 30
0.0
 11
25294.95834682709
 21
11979.39716585667
 31
0.0
 12
25299.95834682709
 22
11983.39716585667
 32
0.0
 13
25299.95834682709
 23
11983.39716585667
 33
0.0
  0
LINE
  5
3A6
  8
____1
  6
CONTINUOUS
 62
     7
 10
25279.95834682709
 20
11979.39716585667
 30
0.0
 11
25319.95834682709
 21
11979.39716585667
 31
0.0
  0
TEXT
  5
3A7
  8
______
  6
CENTER2
 62
     7
 10
25248.347236139831
 20
11987.51290647379
 30
0.0
 40
28.222221374511719
  1
35
  7
STYLE1
  0
ENDBLK
  5
3A8
  8
0
  0
BLOCK
  8
0
  2
*D44
 70
     1
 10
0.0
 20
0.0
 30
0.0
  3
*D44
  1

  0
LINE
  5
3AC
  8
____1
  6
CONTINUOUS
 62
     7
 10
25244.95834682709
 20
12084.05661424041
 30
0.0
 11
25244.95834682709
 21
11971.39716585667
 31
0.0
  0
LINE
  5
3AD
  8
____1
  6
CONTINUOUS
 62
     7
 10
25123.95834682709
 20
12061.218709763019
 30
0.0
 11
25123.95834682709
 21
11971.39716585667
 31
0.0
  0
SOLID
  5
3AE
  8
____1
  6
CONTINUOUS
 62
     7
 10
25143.95834682709
 20
11975.39716585667
 30
0.0
 11
25143.95834682709
 21
11975.39716585667
 31
0.0
 12
25123.95834682709
 22
11979.39716585667
 32
0.0
 13
25138.95834682709
 23
11979.39716585667
 33
0.0
  0
SOLID
  5
3AF
  8
____1
  6
CONTINUOUS
 62
     7
 10
25123.95834682709
 20
11979.39716585667
 30
0.0
 11
25138.95834682709
 21
11979.39716585667
 31
0.0
 12
25143.95834682709
 22
11983.39716585667
 32
0.0
 13
25143.95834682709
 23
11983.39716585667
 33
0.0
  0
LINE
  5
3B0
  8
____1
  6
CONTINUOUS
 62
     7
 10
25123.95834682709
 20
11979.39716585667
 30
0.0
 11
25184.45834682709
 21
11979.39716585667
 31
0.0
  0
SOLID
  5
3B1
  8
____1
  6
CONTINUOUS
 62
     7
 10
25224.95834682709
 20
11975.39716585667
 30
0.0
 11
25224.95834682709
 21
11975.39716585667
 31
0.0
 12
25229.95834682709
 22
11979.39716585667
 32
0.0
 13
25244.95834682709
 23
11979.39716585667
 33
0.0
  0
SOLID
  5
3B2
  8
____1
  6
CONTINUOUS
 62
     7
 10
25229.95834682709
 20
11979.39716585667
 30
0.0
 11
25244.95834682709
 21
11979.39716585667
 31
0.0
 12
25224.95834682709
 22
11983.39716585667
 32
0.0
 13
25224.95834682709
 23
11983.39716585667
 33
0.0
  0
LINE
  5
3B3
  8
____1
  6
CONTINUOUS
 62
     7
 10
25244.95834682709
 20
11979.39716585667
 30
0.0
 11
25184.45834682709
 21
11979.39716585667
 31
0.0
  0
TEXT
  5
3B4
  8
______
  6
CENTER2
 62
     7
 10
25163.291680796199
 20
11987.51290647379
 30
0.0
 40
28.222221374511719
  1
121
  7
STYLE1
  0
ENDBLK
  5
3B5
  8
0
  0
BLOCK
  8
0
  2
C27
 70
     0
 10
0.0
 20
0.0
 30
0.0
  3
C27
  1

  0
LINE
  5
3DC
  8
____1
  6
DASHED2
 62
     7
 10
25279.95834682709
 20
12398.08214299517
 30
0.0
 11
25246.188051139648
 21
12398.08214299517
 31
0.0
  0
LINE
  5
3DD
  8
____1
  6
DASHED2
 62
     7
 10
25256.45834682709
 20
12399.58214299517
 30
0.0
 11
25256.45834682709
 21
12398.08214299517
 31
0.0
  0
LINE
  5
3DE
  8
____1
  6
DASHED2
 62
     7
 10
25240.445328122281
 20
12420.647098230669
 30
0.0
 11
25222.304589897969
 21
12417.01892835083
 31
0.0
  0
LINE
  5
3DF
  8
____1
  6
DASHED2
 62
     7
 10
25222.010413961769
 20
12418.48979901766
 30
0.0
 11
25222.304589897969
 21
12417.01892835083
 31
0.0
  0
ARC
  5
3E0
  8
____1
  6
DASHED2
 62
     7
 10
25246.1880512032
 20
12399.58214299517
 30
0.0
 40
1.50000000000198
 50
-168.6900383559028
 51
-90.000002427085036
  0
LINE
  5
3E1
  8
____1
  6
DASHED2
 62
     7
 10
25240.445328122281
 20
12420.647098230669
 30
0.0
 11
25244.71718033943
 21
12399.28796804362
 31
0.0
  0
LINE
  5
3E2
  8
____1
  6
DASHED2
 62
     7
 10
25240.151153279861
 20
12422.11796911626
 30
0.0
 11
25222.010413961769
 21
12418.48979901766
 31
0.0
  0
ARC
  5
3E3
  8
____1
  6
DASHED2
 62
     7
 10
25240.445328122281
 20
12420.647098230669
 30
0.0
 40
1.5000000000011431
 50
11.31005865895931
 51
101.30995739302151
  0
LINE
  5
3E4
  8
____1
  6
DASHED2
 62
     7
 10
25279.95834682709
 20
12399.58214299517
 30
0.0
 11
25279.95834682709
 21
12398.08214299517
 31
0.0
  0
LINE
  5
3E5
  8
____1
  6
DASHED2
 62
     7
 10
25268.45834682709
 20
12399.58214299517
 30
0.0
 11
25268.45834682709
 21
12398.08214299517
 31
0.0
  0
LINE
  5
3E6
  8
____1
  6
DASHED2
 62
     7
 10
25279.95834682709
 20
12399.58214299517
 30
0.0
 11
25246.188051203189
 21
12399.58214299517
 31
0.0
  0
LINE
  5
3E7
  8
____1
  6
DASHED2
 62
     7
 10
25241.916198487939
 20
12420.94127567274
 30
0.0
 11
25246.188051203189
 21
12399.58214299517
 31
0.0
  0
LINE
  5
3E8
  8
____1
  6
DOT
 62
     3
 10
25262.45834682709
 20
12404.58214299517
 30
0.0
 11
25262.45834682709
 21
12393.08214299517
 31
0.0
  0
ENDBLK
  5
3E9
  8
0
  0
BLOCK
  8
0
  2
*D46
 70
     1
 10
0.0
 20
0.0
 30
0.0
  3
*D46
  1

  0
LINE
  5
3FB
  8
____1
  6
CONTINUOUS
 62
     7
 10
25122.45834682709
 20
12092.85385683598
 30
0.0
 11
25122.45834682709
 21
12238.58158215697
 31
0.0
  0
LINE
  5
3FC
  8
____1
  6
CONTINUOUS
 62
     7
 10
25262.45834682709
 20
12098.55661424041
 30
0.0
 11
25262.45834682709
 21
12238.58158215697
 31
0.0
  0
SOLID
  5
3FD
  8
____1
  6
CONTINUOUS
 62
     7
 10
25242.45834682709
 20
12226.58158215697
 30
0.0
 11
25242.45834682709
 21
12226.58158215697
 31
0.0
 12
25247.45834682709
 22
12230.58158215697
 32
0.0
 13
25262.45834682709
 23
12230.58158215697
 33
0.0
  0
SOLID
  5
3FE
  8
____1
  6
CONTINUOUS
 62
     7
 10
25247.45834682709
 20
12230.58158215697
 30
0.0
 11
25262.45834682709
 21
12230.58158215697
 31
0.0
 12
25242.45834682709
 22
12234.58158215697
 32
0.0
 13
25242.45834682709
 23
12234.58158215697
 33
0.0
  0
LINE
  5
3FF
  8
____1
  6
CONTINUOUS
 62
     7
 10
25262.45834682709
 20
12230.58158215697
 30
0.0
 11
25196.681503324678
 21
12230.58158215697
 31
0.0
  0
SOLID
  5
400
  8
____1
  6
CONTINUOUS
 62
     7
 10
25142.45834682709
 20
12226.58158215697
 30
0.0
 11
25142.45834682709
 21
12226.58158215697
 31
0.0
 12
25122.45834682709
 22
12230.58158215697
 32
0.0
 13
25137.45834682709
 23
12230.58158215697
 33
0.0
  0
SOLID
  5
401
  8
____1
  6
CONTINUOUS
 62
     7
 10
25122.45834682709
 20
12230.58158215697
 30
0.0
 11
25137.45834682709
 21
12230.58158215697
 31
0.0
 12
25142.45834682709
 22
12234.58158215697
 32
0.0
 13
25142.45834682709
 23
12234.58158215697
 33
0.0
  0
LINE
  5
402
  8
____1
  6
CONTINUOUS
 62
     7
 10
25122.45834682709
 20
12230.58158215697
 30
0.0
 11
25196.681503324678
 21
12230.58158215697
 31
0.0
  0
TEXT
  5
403
  8
______
  6
CENTER2
 62
     7
 10
25175.514837293798
 20
12238.697322774089
 30
0.0
 40
28.222221374511719
  1
140
  7
STYLE1
  0
ENDBLK
  5
404
  8
0
  0
BLOCK
  8
0
  2
C28
 70
     0
 10
0.0
 20
0.0
 30
0.0
  3
C28
  1

  0
LINE
  5
43B
  8
____1
  6
DASHED2
 62
     7
 10
25964.958346827079
 20
12398.08214299517
 30
0.0
 11
25998.728642514521
 21
12398.08214299517
 31
0.0
  0
LINE
  5
43C
  8
____1
  6
DASHED2
 62
     7
 10
25988.45834682709
 20
12399.58214299517
 30
0.0
 11
25988.45834682709
 21
12398.08214299517
 31
0.0
  0
LINE
  5
43D
  8
____1
  6
DASHED2
 62
     7
 10
26004.471365531899
 20
12420.647098230669
 30
0.0
 11
26022.612103756212
 21
12417.01892835083
 31
0.0
  0
LINE
  5
43E
  8
____1
  6
DASHED2
 62
     7
 10
26022.906279692412
 20
12418.48979901766
 30
0.0
 11
26022.612103756212
 21
12417.01892835083
 31
0.0
  0
ARC
  5
43F
  8
____1
  6
DASHED2
 62
     7
 10
25998.72864245098
 20
12399.58214299517
 30
0.0
 40
1.50000000000198
 50
-89.999997572914964
 51
-11.309961644097189
  0
LINE
  5
440
  8
____1
  6
DASHED2
 62
     7
 10
26004.471365531899
 20
12420.647098230669
 30
0.0
 11
26000.19951331475
 21
12399.28796804362
 31
0.0
  0
LINE
  5
441
  8
____1
  6
DASHED2
 62
     7
 10
26004.765540374308
 20
12422.11796911626
 30
0.0
 11
26022.906279692412
 21
12418.48979901766
 31
0.0
  0
ARC
  5
442
  8
____1
  6
DASHED2
 62
     7
 10
26004.471365531899
 20
12420.647098230669
 30
0.0
 40
1.5000000000011431
 50
78.690042606978508
 51
168.68994134104059
  0
LINE
  5
443
  8
____1
  6
DASHED2
 62
     7
 10
25964.958346827079
 20
12399.58214299517
 30
0.0
 11
25964.958346827079
 21
12398.08214299517
 31
0.0
  0
LINE
  5
444
  8
____1
  6
DASHED2
 62
     7
 10
25976.458346827079
 20
12399.58214299517
 30
0.0
 11
25976.458346827079
 21
12398.08214299517
 31
0.0
  0
LINE
  5
445
  8
____1
  6
DASHED2
 62
     7
 10
25964.958346827079
 20
12399.58214299517
 30
0.0
 11
25998.72864245098
 21
12399.58214299517
 31
0.0
  0
LINE
  5
446
  8
____1
  6
DASHED2
 62
     7
 10
26003.00049516623
 20
12420.94127567274
 30
0.0
 11
25998.72864245098
 21
12399.58214299517
 31
0.0
  0
LINE
  5
447
  8
____1
  6
DOT
 62
     3
 10
25982.45834682709
 20
12404.58214299517
 30
0.0
 11
25982.45834682709
 21
12393.08214299517
 31
0.0
  0
ENDBLK
  5
448
  8
0
  0
BLOCK
  8
0
  2
C29
 70
     0
 10
0.0
 20
0.0
 30
0.0
  3
C29
  1

  0
LINE
  5
450
  8
____1
  6
DASHED2
 62
     7
 10
25675.05086953898
 20
12445.33609288904
 30
0.0
 11
25694.825116258718
 21
12479.58609288904
 31
0.0
  0
LINE
  5
451
  8
____1
  6
DASHED2
 62
     7
 10
25564.958346827079
 20
12436.83609288904
 30
0.0
 11
25679.958346827079
 21
12436.83609288904
 31
0.0
  0
LINE
  5
452
  8
____1
  6
DASHED2
 62
     7
 10
25570.731849518979
 20
12446.83609288904
 30
0.0
 11
25674.18484413519
 21
12446.83609288904
 31
0.0
  0
LINE
  5
453
  8
____1
  6
DASHED2
 62
     7
 10
25569.865824115201
 20
12445.33609288904
 30
0.0
 11
25675.05086953898
 21
12445.33609288904
 31
0.0
  0
ARC
  5
454
  8
____1
  6
DASHED2
 62
     7
 10
25539.843610117339
 20
12480.33609288904
 30
0.0
 40
1.4999999999976079
 50
29.999933376220309
 51
90.0
  0
LINE
  5
455
  8
____1
  6
DASHED2
 62
     7
 10
25551.390615501128
 20
12480.33609288904
 30
0.0
 11
25522.458346827079
 21
12480.33609288904
 31
0.0
  0
LINE
  5
456
  8
____1
  6
DASHED2
 62
     7
 10
25565.824372230869
 20
12438.33609288904
 30
0.0
 11
25541.575660924911
 21
12480.33609288904
 31
0.0
  0
LINE
  5
457
  8
____1
  6
DASHED2
 62
     7
 10
25565.824372230869
 20
12438.33609288904
 30
0.0
 11
25679.092321423301
 21
12438.33609288904
 31
0.0
  0
ARC
  5
458
  8
____1
  6
DASHED2
 62
     7
 10
25705.073083536841
 20
12480.33609288904
 30
0.0
 40
1.5000000000034699
 50
90.0
 51
150.00000000007651
  0
LINE
  5
459
  8
____1
  6
DASHED2
 62
     7
 10
25565.708346827079
 20
12438.135130994709
 30
0.0
 11
25570.731849518979
 21
12446.83609288904
 31
0.0
  0
ARC
  5
45A
  8
____1
  6
DASHED2
 62
     7
 10
25564.958346827079
 20
12436.83609288904
 30
0.0
 40
1.5
 50
0.0
 51
119.99999999999289
  0
LINE
  5
45B
  8
____1
  6
DASHED2
 62
     7
 10
25564.958346827079
 20
12436.83609288904
 30
0.0
 11
25539.843610117339
 21
12480.33609288904
 31
0.0
  0
LINE
  5
45C
  8
____1
  6
DASHED2
 62
     7
 10
25522.458346827079
 20
12481.83609288904
 30
0.0
 11
25522.458346827079
 21
12480.33609288904
 31
0.0
  0
LINE
  5
45D
  8
____1
  6
DASHED2
 62
     7
 10
25693.526078153041
 20
12480.33609288904
 30
0.0
 11
25722.458346827079
 21
12480.33609288904
 31
0.0
  0
LINE
  5
45E
  8
____1
  6
DASHED2
 62
     7
 10
25703.341032729259
 20
12480.33609288904
 30
0.0
 11
25703.774045431161
 21
12481.08609288904
 31
0.0
  0
LINE
  5
45F
  8
____1
  6
DASHED2
 62
     7
 10
25539.843610117339
 20
12481.83609288904
 30
0.0
 11
25522.458346827079
 21
12481.83609288904
 31
0.0
  0
LINE
  5
460
  8
____1
  6
DASHED2
 62
     7
 10
25541.575660924911
 20
12480.33609288904
 30
0.0
 11
25541.142648223009
 21
12481.08609288904
 31
0.0
  0
LINE
  5
461
  8
____1
  6
DASHED2
 62
     7
 10
25569.865824115201
 20
12445.33609288904
 30
0.0
 11
25550.091577395451
 21
12479.58609288904
 31
0.0
  0
LINE
  5
462
  8
____1
  6
DASHED2
 62
     7
 10
25570.731849518979
 20
12446.83609288904
 30
0.0
 11
25551.390615501128
 21
12480.33609288904
 31
0.0
  0
LINE
  5
463
  8
____1
  6
DASHED2
 62
     7
 10
25679.208346827079
 20
12438.135130994709
 30
0.0
 11
25674.18484413519
 21
12446.83609288904
 31
0.0
  0
LINE
  5
464
  8
____1
  6
DASHED2
 62
     7
 10
25705.073083536841
 20
12481.83609288904
 30
0.0
 11
25722.458346827079
 21
12481.83609288904
 31
0.0
  0
LINE
  5
465
  8
____1
  6
DASHED2
 62
     7
 10
25722.458346827079
 20
12481.83609288904
 30
0.0
 11
25722.458346827079
 21
12480.33609288904
 31
0.0
  0
LINE
  5
466
  8
____1
  6
DASHED2
 62
     7
 10
25679.958346827079
 20
12436.83609288904
 30
0.0
 11
25705.073083536841
 21
12480.33609288904
 31
0.0
  0
ARC
  5
467
  8
____1
  6
DASHED2
 62
     7
 10
25679.958346827079
 20
12436.83609288904
 30
0.0
 40
1.5
 50
60.000000000007063
 51
180.0
  0
LINE
  5
468
  8
____1
  6
DASHED2
 62
     7
 10
25679.092321423301
 20
12438.33609288904
 30
0.0
 11
25703.341032729259
 21
12480.33609288904
 31
0.0
  0
LINE
  5
469
  8
____1
  6
DASHED2
 62
     7
 10
25674.18484413519
 20
12446.83609288904
 30
0.0
 11
25693.526078153041
 21
12480.33609288904
 31
0.0
  0
ENDBLK
  5
46A
  8
0
  0
BLOCK
  8
0
  2
C30
 70
     0
 10
0.0
 20
0.0
 30
0.0
  3
C30
  1

  0
LINE
  5
46E
  8
____1
  6
DASHED2
 62
     7
 10
25602.458346827079
 20
12475.83609288904
 30
0.0
 11
25642.458346827079
 21
12475.83609288904
 31
0.0
  0
LINE
  5
46F
  8
____1
  6
DASHED2
 62
     7
 10
25637.458346827079
 20
12418.73767703739
 30
0.0
 11
25637.458346827079
 21
12467.83609288904
 31
0.0
  0
LINE
  5
470
  8
____1
  6
DASHED2
 62
     7
 10
25627.458346827079
 20
12442.83609288904
 30
0.0
 11
25627.458346827079
 21
12467.83609288904
 31
0.0
  0
LINE
  5
471
  8
____1
  6
DASHED2
 62
     7
 10
25617.458346827079
 20
12442.83609288904
 30
0.0
 11
25617.458346827079
 21
12467.83609288904
 31
0.0
  0
LINE
  5
472
  8
____1
  6
DASHED2
 62
     7
 10
25607.458346827079
 20
12418.73767703739
 30
0.0
 11
25607.458346827079
 21
12467.83609288904
 31
0.0
  0
LINE
  5
473
  8
____1
  6
DASHED2
 62
     7
 10
25642.458346827079
 20
12467.83609288904
 30
0.0
 11
25602.458346827079
 21
12467.83609288904
 31
0.0
  0
LINE
  5
474
  8
____1
  6
DASHED2
 62
     7
 10
25602.458346827079
 20
12467.83609288904
 30
0.0
 11
25602.458346827079
 21
12477.83609288904
 31
0.0
  0
ARC
  5
475
  8
____1
  6
DASHED2
 62
     7
 10
25622.45834682709
 20
12442.83609288904
 30
0.0
 40
5.0
 50
180.0
 51
0.0
  0
LINE
  5
476
  8
____1
  6
DASHED2
 62
     7
 10
25607.458346827079
 20
12433.099397884211
 30
0.0
 11
25637.458346827079
 21
12433.099397884211
 31
0.0
  0
POLYLINE
  5
477
  8
____1
  6
DASHED2
 62
     7
 66
     1
 10
0.0
 20
0.0
 30
0.0
 70
     8
  0
VERTEX
  5
478
  8
____1
 62
     7
 10
25637.458346827079
 20
12418.73767703739
 30
0.0
 70
    32
  0
VERTEX
  5
479
  8
____1
 62
     7
 10
25637.230463122261
 20
12416.24379038418
 30
0.0
 70
    32
  0
VERTEX
  5
47A
  8
____1
 62
     7
 10
25636.553736138871
 20
12413.82567921496
 30
0.0
 70
    32
  0
VERTEX
  5
47B
  8
____1
 62
     7
 10
25635.44872788385
 20
12411.55681661398
 30
0.0
 70
    32
  0
VERTEX
  5
47C
  8
____1
 62
     7
 10
25633.94901347387
 20
12409.50614082328
 30
0.0
 70
    32
  0
VERTEX
  5
47D
  8
____1
 62
     7
 10
25632.100160972379
 20
12407.73596058906
 30
0.0
 70
    32
  0
VERTEX
  5
47E
  8
____1
 62
     7
 10
25629.95834682709
 20
12406.30006194198
 30
0.0
 70
    32
  0
VERTEX
  5
47F
  8
____1
 62
     7
 10
25627.588648976969
 20
12405.242073935849
 30
0.0
 70
    32
  0
VERTEX
  5
480
  8
____1
 62
     7
 10
25625.063069492091
 20
12404.594143000841
 30
0.0
 70
    32
  0
VERTEX
  5
481
  8
____1
 62
     7
 10
25622.45834682709
 20
12404.37595619057
 30
0.0
 70
    32
  0
VERTEX
  5
482
  8
____1
 62
     7
 10
25619.853624162079
 20
12404.594143000841
 30
0.0
 70
    32
  0
VERTEX
  5
483
  8
____1
 62
     7
 10
25617.328044677201
 20
12405.242073935849
 30
0.0
 70
    32
  0
VERTEX
  5
484
  8
____1
 62
     7
 10
25614.95834682709
 20
12406.30006194198
 30
0.0
 70
    32
  0
VERTEX
  5
485
  8
____1
 62
     7
 10
25612.81653268178
 20
12407.73596058906
 30
0.0
 70
    32
  0
VERTEX
  5
486
  8
____1
 62
     7
 10
25610.9676801803
 20
12409.50614082328
 30
0.0
 70
    32
  0
VERTEX
  5
487
  8
____1
 62
     7
 10
25609.46796577032
 20
12411.55681661398
 30
0.0
 70
    32
  0
VERTEX
  5
488
  8
____1
 62
     7
 10
25608.362957515299
 20
12413.82567921496
 30
0.0
 70
    32
  0
VERTEX
  5
489
  8
____1
 62
     7
 10
25607.686230531901
 20
12416.24379038418
 30
0.0
 70
    32
  0
VERTEX
  5
48A
  8
____1
 62
     7
 10
25607.458346827079
 20
12418.73767703739
 30
0.0
 70
    32
  0
SEQEND
  5
48B
  8
____1
 62
     7
  0
LINE
  5
48C
  8
____1
  6
DASHED2
 62
     7
 10
25642.458346827079
 20
12469.83609288904
 30
0.0
 11
25602.458346827079
 21
12469.83609288904
 31
0.0
  0
LINE
  5
48D
  8
____1
  6
DASHED2
 62
     7
 10
25642.458346827079
 20
12477.83609288904
 30
0.0
 11
25642.458346827079
 21
12467.83609288904
 31
0.0
  0
LINE
  5
48E
  8
____1
  6
DASHED2
 62
     7
 10
25602.458346827079
 20
12477.83609288904
 30
0.0
 11
25642.458346827079
 21
12477.83609288904
 31
0.0
  0
ENDBLK
  5
48F
  8
0
  0
BLOCK
  8
0
  2
C31
 70
     0
 10
0.0
 20
0.0
 30
0.0
  3
C31
  1

  0
LINE
  5
493
  8
____1
  6
CONTINUOUS
 62
     7
 10
25604.458346827079
 20
12479.33609288904
 30
0.0
 11
25604.458346827079
 21
12458.33609288904
 31
0.0
  0
LINE
  5
494
  8
____1
  6
CONTINUOUS
 62
     7
 10
25640.458346827079
 20
12458.33609288904
 30
0.0
 11
25640.458346827079
 21
12479.33609288904
 31
0.0
  0
LINE
  5
495
  8
____1
  6
CONTINUOUS
 62
     7
 10
25638.458346827079
 20
12458.33609288904
 30
0.0
 11
25640.458346827079
 21
12458.33609288904
 31
0.0
  0
ARC
  5
496
  8
____1
  6
CONTINUOUS
 62
     7
 10
25606.958346827079
 20
12479.33609288904
 30
0.0
 40
0.5
 50
90.0
 51
180.0
  0
LINE
  5
497
  8
____1
  6
CONTINUOUS
 62
     7
 10
25607.458346827079
 20
12479.83609288904
 30
0.0
 11
25607.458346827079
 21
12481.83609288904
 31
0.0
  0
LINE
  5
498
  8
____1
  6
CONTINUOUS
 62
     7
 10
25604.458346827079
 20
12458.33609288904
 30
0.0
 11
25606.458346827079
 21
12458.33609288904
 31
0.0
  0
LINE
  5
499
  8
____1
  6
CONTINUOUS
 62
     7
 10
25604.458346827079
 20
12467.83609288904
 30
0.0
 11
25606.458346827079
 21
12467.83609288904
 31
0.0
  0
LINE
  5
49A
  8
____1
  6
CONTINUOUS
 62
     7
 10
25606.458346827079
 20
12479.33609288904
 30
0.0
 11
25606.458346827079
 21
12458.33609288904
 31
0.0
  0
LINE
  5
49B
  8
____1
  6
CONTINUOUS
 62
     7
 10
25638.458346827079
 20
12458.33609288904
 30
0.0
 11
25638.458346827079
 21
12479.33609288904
 31
0.0
  0
ARC
  5
49C
  8
____1
  6
CONTINUOUS
 62
     7
 10
25637.958346827079
 20
12479.33609288904
 30
0.0
 40
2.5
 50
0.0
 51
90.0
  0
ARC
  5
49D
  8
____1
  6
CONTINUOUS
 62
     7
 10
25637.958346827079
 20
12479.33609288904
 30
0.0
 40
0.5
 50
0.0
 51
90.0
  0
LINE
  5
49E
  8
____1
  6
CONTINUOUS
 62
     7
 10
25637.458346827079
 20
12479.83609288904
 30
0.0
 11
25637.458346827079
 21
12481.83609288904
 31
0.0
  0
LINE
  5
49F
  8
____1
  6
CONTINUOUS
 62
     7
 10
25637.958346827079
 20
12479.83609288904
 30
0.0
 11
25606.958346827079
 21
12479.83609288904
 31
0.0
  0
LINE
  5
4A0
  8
____1
  6
CONTINUOUS
 62
     7
 10
25638.458346827079
 20
12467.83609288904
 30
0.0
 11
25640.458346827079
 21
12467.83609288904
 31
0.0
  0
ARC
  5
4A1
  8
____1
  6
CONTINUOUS
 62
     7
 10
25606.958346827079
 20
12479.33609288904
 30
0.0
 40
2.5
 50
90.0
 51
180.0
  0
LINE
  5
4A2
  8
____1
  6
CONTINUOUS
 62
     7
 10
25637.958346827079
 20
12481.83609288904
 30
0.0
 11
25606.958346827079
 21
12481.83609288904
 31
0.0
  0
ENDBLK
  5
4A3
  8
0
  0
BLOCK
  8
0
  2
*D51
 70
     1
 10
0.0
 20
0.0
 30
0.0
  3
*D51
  1

  0
LINE
  5
4B6
  8
____1
  6
CONTINUOUS
 62
     7
 10
25964.958346827079
 20
11979.39716585667
 30
0.0
 11
25999.95834682709
 21
11979.39716585667
 31
0.0
  0
LINE
  5
4B7
  8
____1
  6
CONTINUOUS
 62
     7
 10
25999.95834682709
 20
12084.05661424041
 30
0.0
 11
25999.95834682709
 21
11971.39716585667
 31
0.0
  0
LINE
  5
4B8
  8
____1
  6
CONTINUOUS
 62
     7
 10
25964.958346827079
 20
12084.05661424041
 30
0.0
 11
25964.958346827079
 21
11971.39716585667
 31
0.0
  0
SOLID
  5
4B9
  8
____1
  6
CONTINUOUS
 62
     7
 10
25944.958346827079
 20
11975.39716585667
 30
0.0
 11
25944.958346827079
 21
11975.39716585667
 31
0.0
 12
25949.958346827079
 22
11979.39716585667
 32
0.0
 13
25964.958346827079
 23
11979.39716585667
 33
0.0
  0
SOLID
  5
4BA
  8
____1
  6
CONTINUOUS
 62
     7
 10
25949.958346827079
 20
11979.39716585667
 30
0.0
 11
25964.958346827079
 21
11979.39716585667
 31
0.0
 12
25944.958346827079
 22
11983.39716585667
 32
0.0
 13
25944.958346827079
 23
11983.39716585667
 33
0.0
  0
LINE
  5
4BB
  8
____1
  6
CONTINUOUS
 62
     7
 10
25964.958346827079
 20
11979.39716585667
 30
0.0
 11
25924.958346827079
 21
11979.39716585667
 31
0.0
  0
SOLID
  5
4BC
  8
____1
  6
CONTINUOUS
 62
     7
 10
26019.95834682709
 20
11975.39716585667
 30
0.0
 11
26019.95834682709
 21
11975.39716585667
 31
0.0
 12
25999.95834682709
 22
11979.39716585667
 32
0.0
 13
26014.95834682709
 23
11979.39716585667
 33
0.0
  0
SOLID
  5
4BD
  8
____1
  6
CONTINUOUS
 62
     7
 10
25999.95834682709
 20
11979.39716585667
 30
0.0
 11
26014.95834682709
 21
11979.39716585667
 31
0.0
 12
26019.95834682709
 22
11983.39716585667
 32
0.0
 13
26019.95834682709
 23
11983.39716585667
 33
0.0
  0
LINE
  5
4BE
  8
____1
  6
CONTINUOUS
 62
     7
 10
25999.95834682709
 20
11979.39716585667
 30
0.0
 11
26039.95834682709
 21
11979.39716585667
 31
0.0
  0
TEXT
  5
4BF
  8
______
  6
CENTER2
 62
     7
 10
25968.347236139831
 20
11987.51290647379
 30
0.0
 40
28.222221374511719
  1
35
  7
STYLE1
  0
ENDBLK
  5
4C0
  8
0
  0
BLOCK
  8
0
  2
*D52
 70
     1
 10
0.0
 20
0.0
 30
0.0
  3
*D52
  1

  0
LINE
  5
4C5
  8
____1
  6
CONTINUOUS
 62
     7
 10
26122.45834682709
 20
12092.85385683598
 30
0.0
 11
26122.45834682709
 21
12238.58158215697
 31
0.0
  0
LINE
  5
4C6
  8
____1
  6
CONTINUOUS
 62
     7
 10
25982.45834682709
 20
12098.55661424041
 30
0.0
 11
25982.45834682709
 21
12238.58158215697
 31
0.0
  0
SOLID
  5
4C7
  8
____1
  6
CONTINUOUS
 62
     7
 10
26002.458346827079
 20
12226.58158215697
 30
0.0
 11
26002.458346827079
 21
12226.58158215697
 31
0.0
 12
25982.45834682709
 22
12230.58158215697
 32
0.0
 13
25997.458346827079
 23
12230.58158215697
 33
0.0
  0
SOLID
  5
4C8
  8
____1
  6
CONTINUOUS
 62
     7
 10
25982.45834682709
 20
12230.58158215697
 30
0.0
 11
25997.458346827079
 21
12230.58158215697
 31
0.0
 12
26002.458346827079
 22
12234.58158215697
 32
0.0
 13
26002.458346827079
 23
12234.58158215697
 33
0.0
  0
LINE
  5
4C9
  8
____1
  6
CONTINUOUS
 62
     7
 10
25982.45834682709
 20
12230.58158215697
 30
0.0
 11
26052.45834682709
 21
12230.58158215697
 31
0.0
  0
SOLID
  5
4CA
  8
____1
  6
CONTINUOUS
 62
     7
 10
26102.45834682709
 20
12226.58158215697
 30
0.0
 11
26102.45834682709
 21
12226.58158215697
 31
0.0
 12
26107.45834682709
 22
12230.58158215697
 32
0.0
 13
26122.45834682709
 23
12230.58158215697
 33
0.0
  0
SOLID
  5
4CB
  8
____1
  6
CONTINUOUS
 62
     7
 10
26107.45834682709
 20
12230.58158215697
 30
0.0
 11
26122.45834682709
 21
12230.58158215697
 31
0.0
 12
26102.45834682709
 22
12234.58158215697
 32
0.0
 13
26102.45834682709
 23
12234.58158215697
 33
0.0
  0
LINE
  5
4CC
  8
____1
  6
CONTINUOUS
 62
     7
 10
26122.45834682709
 20
12230.58158215697
 30
0.0
 11
26052.45834682709
 21
12230.58158215697
 31
0.0
  0
TEXT
  5
4CD
  8
______
  6
CENTER2
 62
     7
 10
26031.291680796199
 20
12238.697322774089
 30
0.0
 40
28.222221374511719
  1
140
  7
STYLE1
  0
ENDBLK
  5
4CE
  8
0
  0
BLOCK
  8
0
  2
*D53
 70
     1
 10
0.0
 20
0.0
 30
0.0
  3
*D53
  1

  0
LINE
  5
4D2
  8
____1
  6
CONTINUOUS
 62
     7
 10
26120.95834682709
 20
12037.58356269005
 30
0.0
 11
26120.95834682709
 21
11971.39716585667
 31
0.0
  0
LINE
  5
4D3
  8
____1
  6
CONTINUOUS
 62
     7
 10
25999.95834682709
 20
12084.05661424041
 30
0.0
 11
25999.95834682709
 21
11971.39716585667
 31
0.0
  0
SOLID
  5
4D4
  8
____1
  6
CONTINUOUS
 62
     7
 10
26019.95834682709
 20
11975.39716585667
 30
0.0
 11
26019.95834682709
 21
11975.39716585667
 31
0.0
 12
25999.95834682709
 22
11979.39716585667
 32
0.0
 13
26014.95834682709
 23
11979.39716585667
 33
0.0
  0
SOLID
  5
4D5
  8
____1
  6
CONTINUOUS
 62
     7
 10
25999.95834682709
 20
11979.39716585667
 30
0.0
 11
26014.95834682709
 21
11979.39716585667
 31
0.0
 12
26019.95834682709
 22
11983.39716585667
 32
0.0
 13
26019.95834682709
 23
11983.39716585667
 33
0.0
  0
LINE
  5
4D6
  8
____1
  6
CONTINUOUS
 62
     7
 10
25999.95834682709
 20
11979.39716585667
 30
0.0
 11
26060.45834682709
 21
11979.39716585667
 31
0.0
  0
SOLID
  5
4D7
  8
____1
  6
CONTINUOUS
 62
     7
 10
26100.95834682709
 20
11975.39716585667
 30
0.0
 11
26100.95834682709
 21
11975.39716585667
 31
0.0
 12
26105.95834682709
 22
11979.39716585667
 32
0.0
 13
26120.95834682709
 23
11979.39716585667
 33
0.0
  0
SOLID
  5
4D8
  8
____1
  6
CONTINUOUS
 62
     7
 10
26105.95834682709
 20
11979.39716585667
 30
0.0
 11
26120.95834682709
 21
11979.39716585667
 31
0.0
 12
26100.95834682709
 22
11983.39716585667
 32
0.0
 13
26100.95834682709
 23
11983.39716585667
 33
0.0
  0
LINE
  5
4D9
  8
____1
  6
CONTINUOUS
 62
     7
 10
26120.95834682709
 20
11979.39716585667
 30
0.0
 11
26060.45834682709
 21
11979.39716585667
 31
0.0
  0
TEXT
  5
4DA
  8
______
  6
CENTER2
 62
     7
 10
26039.291680796199
 20
11987.51290647379
 30
0.0
 40
28.222221374511719
  1
121
  7
STYLE1
  0
ENDBLK
  5
4DB
  8
0
  0
BLOCK
  8
0
  2
C32
 70
     0
 10
0.0
 20
0.0
 30
0.0
  3
C32
  1

  0
INSERT
  5
53C
  8
____1
  6
DASHED2
 62
     7
  2
C33
 10
0.0
 20
0.0
 30
0.0
  0
INSERT
  5
546
  8
____1
  6
CONTINUOUS
 62
     7
  2
C39
 10
0.0
 20
0.0
 30
0.0
  0
INSERT
  5
54E
  8
____1
  6
CONTINUOUS
 62
     7
  2
C40
 10
0.0
 20
0.0
 30
0.0
  0
INSERT
  5
563
  8
____1
  6
CONTINUOUS
 62
     7
  2
C41
 10
0.0
 20
0.0
 30
0.0
  0
ENDBLK
  5
564
  8
0
  0
BLOCK
  8
0
  2
C33
 70
     0
 10
0.0
 20
0.0
 30
0.0
  3
C33
  1

  0
LINE
  5
4E1
  8
____1
  6
DOT
 62
     7
 10
25327.70834682709
 20
13190.180559497359
 30
0.0
 11
25357.45834682709
 21
13190.180559497359
 31
0.0
  0
INSERT
  5
4EC
  8
____1
  6
DASHED2
 62
     7
  2
C34
 10
0.0
 20
0.0
 30
0.0
  0
INSERT
  5
4F7
  8
____1
  6
DASHED2
 62
     7
  2
C35
 10
0.0
 20
0.0
 30
0.0
  0
INSERT
  5
513
  8
____1
  6
DASHED2
 62
     7
  2
C36
 10
0.0
 20
0.0
 30
0.0
  0
INSERT
  5
51C
  8
____1
  6
DASHED2
 62
     7
  2
C37
 10
0.0
 20
0.0
 30
0.0
  0
INSERT
  5
526
  8
____1
  6
DASHED2
 62
     7
  2
C38
 10
0.0
 20
0.0
 30
0.0
  0
LINE
  5
527
  8
____1
  6
DASHED2
 62
     7
 10
25357.70834682709
 20
13204.245514073589
 30
0.0
 11
25357.70834682709
 21
13184.61560492114
 31
0.0
  0
LINE
  5
528
  8
____1
  6
DASHED2
 62
     7
 10
25363.949340384581
 20
13189.523082209251
 30
0.0
 11
25357.70834682709
 21
13189.523082209251
 31
0.0
  0
LINE
  5
529
  8
____1
  6
DASHED2
 62
     7
 10
25363.949157448529
 20
13184.61560492114
 30
0.0
 11
25357.70834682709
 21
13184.61560492114
 31
0.0
  0
LINE
  5
52A
  8
____1
  6
DASHED2
 62
     7
 10
25363.949157448529
 20
13204.245514073589
 30
0.0
 11
25357.70834682709
 21
13204.245514073589
 31
0.0
  0
LINE
  5
52B
  8
____1
  6
DASHED2
 62
     7
 10
25364.70834682709
 20
13202.930559497359
 30
0.0
 11
25363.949157448529
 21
13204.245514073589
 31
0.0
  0
LINE
  5
52C
  8
____1
  6
DASHED2
 62
     7
 10
25363.949340384581
 20
13199.33803678547
 30
0.0
 11
25357.70834682709
 21
13199.33803678547
 31
0.0
  0
LINE
  5
52D
  8
____1
  6
DASHED2
 62
     7
 10
25364.70834682709
 20
13202.930559497359
 30
0.0
 11
25364.70834682709
 21
13194.430559497359
 31
0.0
  0
LINE
  5
52E
  8
____1
  6
DASHED2
 62
     7
 10
25364.70834682709
 20
13185.930559497359
 30
0.0
 11
25363.949157448529
 21
13184.61560492114
 31
0.0
  0
LINE
  5
52F
  8
____1
  6
DASHED2
 62
     7
 10
25364.70834682709
 20
13185.930559497359
 30
0.0
 11
25364.70834682709
 21
13194.430559497359
 31
0.0
  0
ARC
  5
530
  8
____1
  6
DASHED2
 62
     7
 10
25348.46380479684
 20
13194.430559497359
 30
0.0
 40
16.24454203024553
 50
-17.583976887002908
 51
0.0
  0
ARC
  5
531
  8
____1
  6
DASHED2
 62
     7
 10
25360.362977052369
 20
13187.069343565199
 30
0.0
 40
4.3453697747229603
 50
-25.605116760735079
 51
34.379996836931312
  0
ARC
  5
532
  8
____1
  6
DASHED2
 62
     7
 10
25360.362977052369
 20
13201.79177542953
 30
0.0
 40
4.3453697747229603
 50
-34.379996836970903
 51
25.605116760735079
  0
ARC
  5
533
  8
____1
  6
DASHED2
 62
     7
 10
25348.46380479684
 20
13194.430559497359
 30
0.0
 40
16.244542030244439
 50
0.0
 51
17.58397688699068
  0
LINE
  5
534
  8
____1
  6
DOT
 62
     7
 10
25327.70834682709
 20
13198.680559497359
 30
0.0
 11
25328.45834682709
 21
13199.430559497359
 31
0.0
  0
LINE
  5
535
  8
____1
  6
DOT
 62
     7
 10
25327.70834682709
 20
13198.680559497359
 30
0.0
 11
25327.70834682709
 21
13190.180559497359
 31
0.0
  0
LINE
  5
536
  8
____1
  6
DOT
 62
     7
 10
25328.45834682709
 20
13199.430559497359
 30
0.0
 11
25328.45834682709
 21
13189.430559497359
 31
0.0
  0
LINE
  5
537
  8
____1
  6
DOT
 62
     7
 10
25327.70834682709
 20
13190.180559497359
 30
0.0
 11
25328.45834682709
 21
13189.430559497359
 31
0.0
  0
LINE
  5
538
  8
____1
  6
DOT
 62
     7
 10
25328.45834682709
 20
13199.430559497359
 30
0.0
 11
25357.45834682709
 21
13199.430559497359
 31
0.0
  0
LINE
  5
539
  8
____1
  6
DOT
 62
     7
 10
25328.45834682709
 20
13189.430559497359
 30
0.0
 11
25357.45834682709
 21
13189.430559497359
 31
0.0
  0
LINE
  5
53A
  8
____1
  6
DOT
 62
     7
 10
25357.45834682709
 20
13198.680559497359
 30
0.0
 11
25327.70834682709
 21
13198.680559497359
 31
0.0
  0
ENDBLK
  5
53B
  8
0
  0
BLOCK
  8
0
  2
C34
 70
     0
 10
0.0
 20
0.0
 30
0.0
  3
C34
  1

  0
LINE
  5
4E4
  8
____1
  6
DASHED2
 62
     7
 10
25355.20834682709
 20
13179.430559497359
 30
0.0
 11
25356.70834682709
 21
13179.430559497359
 31
0.0
  0
LINE
  5
4E5
  8
____1
  6
DASHED2
 62
     7
 10
25356.70834682709
 20
13179.430559497359
 30
0.0
 11
25356.70834682709
 21
13209.430559497359
 31
0.0
  0
LINE
  5
4E6
  8
____1
  6
DASHED2
 62
     7
 10
25355.20834682709
 20
13209.430559497359
 30
0.0
 11
25356.70834682709
 21
13209.430559497359
 31
0.0
  0
LINE
  5
4E7
  8
____1
  6
DASHED2
 62
     7
 10
25355.20834682709
 20
13179.430559497359
 30
0.0
 11
25355.20834682709
 21
13209.430559497359
 31
0.0
  0
LINE
  5
4E8
  8
____1
  6
DASHED2
 62
     7
 10
25357.70834682709
 20
13189.43055949735
 30
0.0
 11
25356.70834682709
 21
13179.430559497359
 31
0.0
  0
LINE
  5
4E9
  8
____1
  6
DASHED2
 62
     7
 10
25357.70834682709
 20
13189.43055949735
 30
0.0
 11
25357.70834682709
 21
13199.43055949737
 31
0.0
  0
LINE
  5
4EA
  8
____1
  6
DASHED2
 62
     7
 10
25357.70834682709
 20
13199.43055949737
 30
0.0
 11
25356.70834682709
 21
13209.430559497359
 31
0.0
  0
ENDBLK
  5
4EB
  8
0
  0
BLOCK
  8
0
  2
C35
 70
     0
 10
0.0
 20
0.0
 30
0.0
  3
C35
  1

  0
LINE
  5
4EF
  8
____1
  6
DASHED2
 62
     7
 10
25352.20834682709
 20
13179.430559497359
 30
0.0
 11
25350.70834682709
 21
13179.430559497359
 31
0.0
  0
LINE
  5
4F0
  8
____1
  6
DASHED2
 62
     7
 10
25350.70834682709
 20
13179.430559497359
 30
0.0
 11
25350.70834682709
 21
13209.430559497359
 31
0.0
  0
LINE
  5
4F1
  8
____1
  6
DASHED2
 62
     7
 10
25352.20834682709
 20
13209.430559497359
 30
0.0
 11
25350.70834682709
 21
13209.430559497359
 31
0.0
  0
LINE
  5
4F2
  8
____1
  6
DASHED2
 62
     7
 10
25352.20834682709
 20
13179.430559497359
 30
0.0
 11
25352.20834682709
 21
13209.430559497359
 31
0.0
  0
LINE
  5
4F3
  8
____1
  6
DASHED2
 62
     7
 10
25349.70834682709
 20
13189.43055949735
 30
0.0
 11
25350.70834682709
 21
13179.430559497359
 31
0.0
  0
LINE
  5
4F4
  8
____1
  6
DASHED2
 62
     7
 10
25349.70834682709
 20
13189.43055949735
 30
0.0
 11
25349.70834682709
 21
13199.43055949737
 31
0.0
  0
LINE
  5
4F5
  8
____1
  6
DASHED2
 62
     7
 10
25349.70834682709
 20
13199.43055949737
 30
0.0
 11
25350.70834682709
 21
13209.430559497359
 31
0.0
  0
ENDBLK
  5
4F6
  8
0
  0
BLOCK
  8
0
  2
C36
 70
     0
 10
0.0
 20
0.0
 30
0.0
  3
C36
  1

  0
LINE
  5
4FA
  8
____1
  6
DASHED2
 62
     7
 10
25332.20834682709
 20
13185.930559497359
 30
0.0
 11
25332.20834682709
 21
13194.430559497359
 31
0.0
  0
LINE
  5
4FB
  8
____1
  6
DASHED2
 62
     7
 10
25331.449340384581
 20
13189.523082209251
 30
0.0
 11
25329.20834682709
 21
13189.523082209251
 31
0.0
  0
LINE
  5
4FC
  8
____1
  6
DASHED2
 62
     7
 10
25329.20834682709
 20
13184.61560492114
 30
0.0
 11
25331.449157448529
 21
13184.61560492114
 31
0.0
  0
LINE
  5
4FD
  8
____1
  6
DASHED2
 62
     7
 10
25332.20834682709
 20
13185.930559497359
 30
0.0
 11
25331.449157448529
 21
13184.61560492114
 31
0.0
  0
ARC
  5
4FE
  8
____1
  6
DASHED2
 62
     7
 10
25327.86316296626
 20
13187.069343565199
 30
0.0
 40
4.3451838608254221
 50
-25.60931067050646
 51
34.38167415245934
  0
ARC
  5
4FF
  8
____1
  6
DASHED2
 62
     7
 10
25315.96380479684
 20
13194.430559497359
 30
0.0
 40
16.244542030245949
 50
-17.58378196093129
 51
0.0
  0
LINE
  5
500
  8
____1
  6
DASHED2
 62
     7
 10
25332.20834682709
 20
13202.930559497359
 30
0.0
 11
25332.20834682709
 21
13194.430559497359
 31
0.0
  0
LINE
  5
501
  8
____1
  6
DASHED2
 62
     7
 10
25331.449340384581
 20
13199.33803678547
 30
0.0
 11
25329.20834682709
 21
13199.33803678547
 31
0.0
  0
LINE
  5
502
  8
____1
  6
DASHED2
 62
     7
 10
25329.20834682709
 20
13204.24551407358
 30
0.0
 11
25331.449157448529
 21
13204.24551407358
 31
0.0
  0
LINE
  5
503
  8
____1
  6
DASHED2
 62
     7
 10
25332.20834682709
 20
13202.930559497359
 30
0.0
 11
25331.449157448529
 21
13204.24551407358
 31
0.0
  0
ARC
  5
504
  8
____1
  6
DASHED2
 62
     7
 10
25327.86316296626
 20
13201.79177542953
 30
0.0
 40
4.34518386082385
 50
-34.381674152498931
 51
25.609310670463209
  0
ARC
  5
505
  8
____1
  6
DASHED2
 62
     7
 10
25315.96380479684
 20
13194.430559497359
 30
0.0
 40
16.244542030244851
 50
0.0
 51
17.583781960919051
  0
LINE
  5
506
  8
____1
  6
DASHED2
 62
     7
 10
25326.20834682709
 20
13202.930559497359
 30
0.0
 11
25326.20834682709
 21
13194.430559497359
 31
0.0
  0
LINE
  5
507
  8
____1
  6
DASHED2
 62
     7
 10
25326.9673532696
 20
13199.33803678547
 30
0.0
 11
25329.20834682709
 21
13199.33803678547
 31
0.0
  0
LINE
  5
508
  8
____1
  6
DASHED2
 62
     7
 10
25329.20834682709
 20
13204.24551407358
 30
0.0
 11
25326.96753620564
 21
13204.24551407358
 31
0.0
  0
LINE
  5
509
  8
____1
  6
DASHED2
 62
     7
 10
25326.20834682709
 20
13202.930559497359
 30
0.0
 11
25326.96753620564
 21
13204.24551407358
 31
0.0
  0
ARC
  5
50A
  8
____1
  6
DASHED2
 62
     7
 10
25330.55353068791
 20
13201.79177542953
 30
0.0
 40
4.34518386082385
 50
154.3906893295368
 51
-145.61832584747401
  0
ARC
  5
50B
  8
____1
  6
DASHED2
 62
     7
 10
25342.45288885733
 20
13194.430559497359
 30
0.0
 40
16.244542030244851
 50
162.41621803908089
 51
180.0
  0
LINE
  5
50C
  8
____1
  6
DASHED2
 62
     7
 10
25326.20834682709
 20
13185.930559497359
 30
0.0
 11
25326.20834682709
 21
13194.430559497359
 31
0.0
  0
LINE
  5
50D
  8
____1
  6
DASHED2
 62
     7
 10
25326.9673532696
 20
13189.523082209251
 30
0.0
 11
25329.20834682709
 21
13189.523082209251
 31
0.0
  0
LINE
  5
50E
  8
____1
  6
DASHED2
 62
     7
 10
25329.20834682709
 20
13184.61560492114
 30
0.0
 11
25326.96753620564
 21
13184.61560492114
 31
0.0
  0
LINE
  5
50F
  8
____1
  6
DASHED2
 62
     7
 10
25326.20834682709
 20
13185.930559497359
 30
0.0
 11
25326.96753620564
 21
13184.61560492114
 31
0.0
  0
ARC
  5
510
  8
____1
  6
DASHED2
 62
     7
 10
25330.55353068791
 20
13187.069343565199
 30
0.0
 40
4.3451838608254221
 50
145.6183258475136
 51
-154.39068932949351
  0
ARC
  5
511
  8
____1
  6
DASHED2
 62
     7
 10
25342.45288885733
 20
13194.430559497359
 30
0.0
 40
16.244542030245949
 50
180.0
 51
-162.4162180390687
  0
ENDBLK
  5
512
  8
0
  0
BLOCK
  8
0
  2
C37
 70
     0
 10
0.0
 20
0.0
 30
0.0
  3
C37
  1

  0
LINE
  5
516
  8
____1
  6
DASHED2
 62
     7
 10
25332.20834682709
 20
13203.630736580701
 30
0.0
 11
25334.70834682709
 21
13203.630736580701
 31
0.0
  0
LINE
  5
517
  8
____1
  6
DASHED2
 62
     7
 10
25332.20834682709
 20
13185.23073658069
 30
0.0
 11
25332.20834682709
 21
13203.630736580701
 31
0.0
  0
LINE
  5
518
  8
____1
  6
DASHED2
 62
     7
 10
25334.70834682709
 20
13185.23073658069
 30
0.0
 11
25332.20834682709
 21
13185.23073658069
 31
0.0
  0
LINE
  5
519
  8
____1
  6
DASHED2
 62
     7
 10
25332.208465316671
 20
13195.085983976531
 30
0.0
 11
25334.70836766042
 21
13194.17609393483
 31
0.0
  0
LINE
  5
51A
  8
____1
  6
DASHED2
 62
     7
 10
25332.208465316671
 20
13194.685983976529
 30
0.0
 11
25334.70836766042
 21
13193.77609393483
 31
0.0
  0
ENDBLK
  5
51B
  8
0
  0
BLOCK
  8
0
  2
C38
 70
     0
 10
0.0
 20
0.0
 30
0.0
  3
C38
  1

  0
LINE
  5
51F
  8
____1
  6
DASHED2
 62
     7
 10
25349.70834682709
 20
13200.930559497359
 30
0.0
 11
25349.70834682709
 21
13187.930559497359
 31
0.0
  0
LINE
  5
520
  8
____1
  6
DASHED2
 62
     7
 10
25338.70834682709
 20
13200.930559497359
 30
0.0
 11
25338.70834682709
 21
13187.930559497359
 31
0.0
  0
LINE
  5
521
  8
____1
  6
DASHED2
 62
     7
 10
25349.70834682709
 20
13200.930559497359
 30
0.0
 11
25338.70834682709
 21
13200.930559497359
 31
0.0
  0
LINE
  5
522
  8
____1
  6
DASHED2
 62
     7
 10
25349.70834682709
 20
13187.930559497359
 30
0.0
 11
25338.70834682709
 21
13187.930559497359
 31
0.0
  0
LINE
  5
523
  8
____1
  6
DOT
 62
     7
 10
25349.70834682709
 20
13199.73055949736
 30
0.0
 11
25338.70834682709
 21
13199.73055949736
 31
0.0
  0
LINE
  5
524
  8
____1
  6
DOT
 62
     7
 10
25349.70834682709
 20
13189.13055949736
 30
0.0
 11
25338.70834682709
 21
13189.13055949736
 31
0.0
  0
ENDBLK
  5
525
  8
0
  0
BLOCK
  8
0
  2
C39
 70
     0
 10
0.0
 20
0.0
 30
0.0
  3
C39
  1

  0
LINE
  5
53F
  8
____1
  6
DOT
 62
     7
 10
25334.208187972919
 20
13439.042988970879
 30
0.0
 11
25332.208187972919
 21
13439.042988970879
 31
0.0
  0
LINE
  5
540
  8
____1
  6
DOT
 62
     7
 10
25332.208187972919
 20
13449.542988970879
 30
0.0
 11
25334.208187972919
 21
13449.542988970879
 31
0.0
  0
LINE
  5
541
  8
____1
  6
DASHED2
 62
     7
 10
25332.208187972919
 20
13455.292988970879
 30
0.0
 11
25334.208187972919
 21
13455.292988970879
 31
0.0
  0
LINE
  5
542
  8
____1
  6
DASHED2
 62
     7
 10
25332.208187972919
 20
13455.292988970879
 30
0.0
 11
25332.208187972919
 21
13433.292988970879
 31
0.0
  0
LINE
  5
543
  8
____1
  6
DASHED2
 62
     7
 10
25332.208187972919
 20
13433.292988970879
 30
0.0
 11
25334.208187972919
 21
13433.292988970879
 31
0.0
  0
LINE
  5
544
  8
____1
  6
DASHED2
 62
     7
 10
25334.208187972919
 20
13455.292988970879
 30
0.0
 11
25334.208187972919
 21
13433.292988970879
 31
0.0
  0
ENDBLK
  5
545
  8
0
  0
BLOCK
  8
0
  2
C40
 70
     0
 10
0.0
 20
0.0
 30
0.0
  3
C40
  1

  0
LINE
  5
549
  8
____1
  6
DASHED2
 62
     7
 10
25338.70836473073
 20
13456.93078709566
 30
0.0
 11
25338.70836473073
 21
13181.93078709566
 31
0.0
  0
LINE
  5
54A
  8
____1
  6
DASHED2
 62
     7
 10
25334.70836473073
 20
13456.93078709566
 30
0.0
 11
25338.70836473073
 21
13456.93078709566
 31
0.0
  0
LINE
  5
54B
  8
____1
  6
DASHED2
 62
     7
 10
25334.70836473073
 20
13181.93078709566
 30
0.0
 11
25334.70836473073
 21
13456.93078709566
 31
0.0
  0
LINE
  5
54C
  8
____1
  6
DASHED2
 62
     7
 10
25338.70836473073
 20
13181.93078709566
 30
0.0
 11
25334.70836473073
 21
13181.93078709566
 31
0.0
  0
ENDBLK
  5
54D
  8
0
  0
BLOCK
  8
0
  2
C41
 70
     0
 10
0.0
 20
0.0
 30
0.0
  3
C41
  1

  0
LINE
  5
551
  8
____1
  6
DOT
 62
     7
 10
25332.208187972919
 20
13449.292988970879
 30
0.0
 11
25347.458187972919
 21
13449.292988970879
 31
0.0
  0
LINE
  5
552
  8
____1
  6
DOT
 62
     7
 10
25332.208187972919
 20
13448.542988970879
 30
0.0
 11
25348.208187972919
 21
13448.542988970879
 31
0.0
  0
LINE
  5
553
  8
____1
  6
DOT
 62
     7
 10
25332.208187972919
 20
13440.042988970879
 30
0.0
 11
25348.208187972919
 21
13440.042988970879
 31
0.0
  0
LINE
  5
554
  8
____1
  6
DOT
 62
     7
 10
25332.208187972919
 20
13439.292988970879
 30
0.0
 11
25347.458187972919
 21
13439.292988970879
 31
0.0
  0
LINE
  5
555
  8
____1
  6
DOT
 62
     7
 10
25347.458187972919
 20
13449.292988970879
 30
0.0
 11
25348.208187972919
 21
13448.542988970879
 31
0.0
  0
LINE
  5
556
  8
____1
  6
DOT
 62
     7
 10
25348.208187972919
 20
13440.042988970879
 30
0.0
 11
25348.208187972919
 21
13448.542988970879
 31
0.0
  0
LINE
  5
557
  8
____1
  6
DOT
 62
     7
 10
25347.458187972919
 20
13439.292988970879
 30
0.0
 11
25348.208187972919
 21
13440.042988970879
 31
0.0
  0
LINE
  5
558
  8
____1
  6
DOT
 62
     7
 10
25347.458187972919
 20
13439.292988970879
 30
0.0
 11
25347.458187972919
 21
13449.292988970879
 31
0.0
  0
ARC
  5
559
  8
____1
  6
DASHED2
 62
     7
 10
25342.108187972921
 20
13444.292988970879
 30
0.0
 40
14.999999999997771
 50
-176.75149902696131
 51
-135.57299599919079
  0
ARC
  5
55A
  8
____1
  6
DASHED2
 62
     7
 10
25342.108187972921
 20
13444.292988970879
 30
0.0
 40
15.000000000000339
 50
135.57299599918591
 51
176.75149902694821
  0
LINE
  5
55B
  8
____1
  6
DASHED2
 62
     7
 10
25327.132290670492
 20
13443.442988970881
 30
0.0
 11
25327.722865591491
 21
13443.442988970881
 31
0.0
  0
LINE
  5
55C
  8
____1
  6
DASHED2
 62
     7
 10
25327.722865591491
 20
13445.14298897088
 30
0.0
 11
25327.722865591491
 21
13443.442988970881
 31
0.0
  0
LINE
  5
55D
  8
____1
  6
DASHED2
 62
     7
 10
25327.13229067099
 20
13445.14298897088
 30
0.0
 11
25327.722865591491
 21
13445.14298897088
 31
0.0
  0
LINE
  5
55E
  8
____1
  6
DASHED2
 62
     7
 10
25331.396045330112
 20
13454.792988970879
 30
0.0
 11
25331.396045330112
 21
13433.792988970879
 31
0.0
  0
LINE
  5
55F
  8
____1
  6
DASHED2
 62
     7
 10
25332.208187972919
 20
13433.792988970879
 30
0.0
 11
25331.396045330112
 21
13433.792988970879
 31
0.0
  0
LINE
  5
560
  8
____1
  6
DASHED2
 62
     7
 10
25331.396045330112
 20
13454.792988970879
 30
0.0
 11
25332.208187972919
 21
13454.792988970879
 31
0.0
  0
LINE
  5
561
  8
____1
  6
DASHED2
 62
     7
 10
25332.208187972919
 20
13433.792988970879
 30
0.0
 11
25332.208187972919
 21
13454.792988970879
 31
0.0
  0
ENDBLK
  5
562
  8
0
  0
BLOCK
  8
0
  2
C42
 70
     0
 10
0.0
 20
0.0
 30
0.0
  3
C42
  1

  0
LINE
  5
568
  8
____1
  6
DASHED2
 62
     7
 10
25322.958346827079
 20
13499.610788679949
 30
0.0
 11
25352.458346827079
 21
13499.610788679949
 31
0.0
  0
LINE
  5
569
  8
____1
  6
DASHED2
 62
     7
 10
25322.458346827079
 20
13152.310788679941
 30
0.0
 11
25352.458346827079
 21
13152.310788679941
 31
0.0
  0
LINE
  5
56A
  8
____1
  6
DASHED2
 62
     7
 10
25322.458346827079
 20
13152.310788679941
 30
0.0
 11
25322.458346827079
 21
13154.810788679941
 31
0.0
  0
LINE
  5
56B
  8
____1
  6
DASHED2
 62
     7
 10
25322.458346827079
 20
13154.810788679941
 30
0.0
 11
25352.458346827079
 21
13154.810788679941
 31
0.0
  0
LINE
  5
56C
  8
____1
  6
DASHED2
 62
     7
 10
25322.458346827079
 20
13499.810788679941
 30
0.0
 11
25352.458346827079
 21
13499.810788679941
 31
0.0
  0
LINE
  5
56D
  8
____1
  6
DASHED2
 62
     7
 10
25322.458346827079
 20
13499.810788679941
 30
0.0
 11
25322.458346827079
 21
13502.31078867995
 31
0.0
  0
LINE
  5
56E
  8
____1
  6
DASHED2
 62
     7
 10
25322.458346827079
 20
13502.31078867995
 30
0.0
 11
25352.458346827079
 21
13502.31078867995
 31
0.0
  0
ARC
  5
56F
  8
____1
  6
DASHED2
 62
     7
 10
25352.458346827079
 20
13499.810788679941
 30
0.0
 40
2.5000000000036371
 50
0.0000396924704228
 51
90.0
  0
ARC
  5
570
  8
____1
  6
DASHED2
 62
     7
 10
25352.458346827079
 20
13154.810788679941
 30
0.0
 40
2.5
 50
-90.0
 51
0.0
  0
LINE
  5
571
  8
____1
  6
DASHED2
 62
     7
 10
25354.958346827079
 20
13154.810788679941
 30
0.0
 11
25354.958346827079
 21
13499.81079041185
 31
0.0
  0
LINE
  5
572
  8
____1
  6
DASHED2
 62
     7
 10
25352.458346827079
 20
13154.810788679941
 30
0.0
 11
25352.458346827079
 21
13499.810788679941
 31
0.0
  0
LINE
  5
573
  8
____1
  6
DASHED2
 62
     7
 10
25322.958346827079
 20
13155.010788679951
 30
0.0
 11
25322.958346827079
 21
13499.610788679949
 31
0.0
  0
LINE
  5
574
  8
____1
  6
DASHED2
 62
     7
 10
25322.958346827079
 20
13155.010788679951
 30
0.0
 11
25352.458346827079
 21
13155.010788679951
 31
0.0
  0
ENDBLK
  5
575
  8
0
  0
BLOCK
  8
0
  2
C43
 70
     0
 10
0.0
 20
0.0
 30
0.0
  3
C43
  1

  0
LINE
  5
579
  8
____1
  6
DASHED2
 62
     7
 10
25343.45836473073
 20
13437.792988970879
 30
0.0
 11
25341.45836473073
 21
13437.792988970879
 31
0.0
  0
LINE
  5
57A
  8
____1
  6
DASHED2
 62
     7
 10
25343.45836473073
 20
13439.292988970879
 30
0.0
 11
25340.95836473073
 21
13439.292988970879
 31
0.0
  0
LINE
  5
57B
  8
____1
  6
DASHED2
 62
     7
 10
25343.45836473073
 20
13449.292988970879
 30
0.0
 11
25340.95836473073
 21
13449.292988970879
 31
0.0
  0
LINE
  5
57C
  8
____1
  6
DASHED2
 62
     7
 10
25343.45836473073
 20
13450.792988970879
 30
0.0
 11
25341.45836473073
 21
13450.792988970879
 31
0.0
  0
ARC
  5
57D
  8
____1
  6
DASHED2
 62
     7
 10
25340.95836473073
 20
13461.792988970879
 30
0.0
 40
1.5
 50
90.0
 51
180.0
  0
LINE
  5
57E
  8
____1
  6
DASHED2
 62
     7
 10
25343.45836473073
 20
13461.792988970879
 30
0.0
 11
25340.95836473073
 21
13461.792988970879
 31
0.0
  0
ARC
  5
57F
  8
____1
  6
DASHED2
 62
     7
 10
25340.95836473073
 20
13437.792988970879
 30
0.0
 40
1.5
 50
90.0
 51
180.0
  0
ARC
  5
580
  8
____1
  6
DASHED2
 62
     7
 10
25340.95836473073
 20
13426.792988970879
 30
0.0
 40
1.5
 50
180.0
 51
-90.0
  0
LINE
  5
581
  8
____1
  6
DASHED2
 62
     7
 10
25340.95836473073
 20
13426.792988970879
 30
0.0
 11
25343.45836473073
 21
13426.792988970879
 31
0.0
  0
LINE
  5
582
  8
____1
  6
DASHED2
 62
     7
 10
25343.45836473073
 20
13425.292988970879
 30
0.0
 11
25343.45836473073
 21
13463.292988970879
 31
0.0
  0
LINE
  5
583
  8
____1
  6
DASHED2
 62
     7
 10
25339.45836473073
 20
13426.792988970879
 30
0.0
 11
25339.45836473073
 21
13461.792988970879
 31
0.0
  0
ARC
  5
584
  8
____1
  6
DASHED2
 62
     7
 10
25341.45836473073
 20
13451.292988970879
 30
0.0
 40
0.5
 50
180.0
 51
-90.0
  0
ARC
  5
585
  8
____1
  6
DASHED2
 62
     7
 10
25340.95836473073
 20
13450.792988970879
 30
0.0
 40
1.5
 50
180.0
 51
-90.0
  0
ARC
  5
586
  8
____1
  6
DASHED2
 62
     7
 10
25341.45836473073
 20
13437.292988970879
 30
0.0
 40
0.5
 50
90.0
 51
180.0
  0
LINE
  5
587
  8
____1
  6
DASHED2
 62
     7
 10
25340.95836473073
 20
13426.792988970879
 30
0.0
 11
25340.95836473073
 21
13461.792988970879
 31
0.0
  0
LINE
  5
588
  8
____1
  6
DASHED2
 62
     7
 10
25374.45836473073
 20
13425.292988970879
 30
0.0
 11
25374.45836473073
 21
13463.292988970879
 31
0.0
  0
LINE
  5
589
  8
____1
  6
DASHED2
 62
     7
 10
25374.45836473073
 20
13461.792988970879
 30
0.0
 11
25343.45836473073
 21
13461.792988970879
 31
0.0
  0
LINE
  5
58A
  8
____1
  6
DASHED2
 62
     7
 10
25374.45836473073
 20
13463.292988970879
 30
0.0
 11
25340.95836473073
 21
13463.292988970879
 31
0.0
  0
LINE
  5
58B
  8
____1
  6
DASHED2
 62
     7
 10
25343.45836473073
 20
13426.792988970879
 30
0.0
 11
25374.45836473073
 21
13426.792988970879
 31
0.0
  0
LINE
  5
58C
  8
____1
  6
DASHED2
 62
     7
 10
25340.95836473073
 20
13425.292988970879
 30
0.0
 11
25374.45836473073
 21
13425.292988970879
 31
0.0
  0
ENDBLK
  5
58D
  8
0
  0
BLOCK
  8
0
  2
C44
 70
     0
 10
0.0
 20
0.0
 30
0.0
  3
C44
  1

  0
ARC
  5
597
  8
____1
  6
DASHED2
 62
     7
 10
25982.45834682709
 20
13078.81078867995
 30
0.0
 40
6.0
 50
0.0
 51
180.0
  0
LINE
  5
598
  8
____1
  6
DASHED2
 62
     7
 10
25976.458346827079
 20
13078.81078867995
 30
0.0
 11
25976.458346827079
 21
13065.81078867995
 31
0.0
  0
ARC
  5
599
  8
____1
  6
DASHED2
 62
     7
 10
25982.45834682709
 20
13065.81078867995
 30
0.0
 40
6.0
 50
180.0
 51
0.0
  0
LINE
  5
59A
  8
____1
  6
DASHED2
 62
     7
 10
25988.45834682709
 20
13078.81078867995
 30
0.0
 11
25988.45834682709
 21
13065.81078867995
 31
0.0
  0
LINE
  5
59B
  8
____1
  6
DOT
 62
     3
 10
25982.45834682709
 20
13070.31078867995
 30
0.0
 11
25982.45834682709
 21
13074.31078867995
 31
0.0
  0
LINE
  5
59C
  8
____1
  6
DOT
 62
     3
 10
25980.458346827079
 20
13072.31078867995
 30
0.0
 11
25984.45834682709
 21
13072.31078867995
 31
0.0
  0
LINE
  5
59D
  8
____1
  6
DASHED2
 62
     7
 10
25998.72864245098
 20
13047.31078867995
 30
0.0
 11
25998.72864245098
 21
13097.31078867995
 31
0.0
  0
LINE
  5
59E
  8
____1
  6
DASHED2
 62
     7
 10
26003.294670801261
 20
13097.31078867995
 30
0.0
 11
26003.294670801261
 21
13047.31078867995
 31
0.0
  0
LINE
  5
59F
  8
____1
  6
DASHED2
 62
     7
 10
25967.958346827079
 20
13097.31078867995
 30
0.0
 11
26022.959289337879
 21
13097.31078867995
 31
0.0
  0
LINE
  5
5A0
  8
____1
  6
DASHED2
 62
     7
 10
26022.959289337879
 20
13097.31078867995
 30
0.0
 11
26022.959289337879
 21
13047.31078867995
 31
0.0
  0
LINE
  5
5A1
  8
____1
  6
DASHED2
 62
     7
 10
25967.958346827079
 20
13047.31078867995
 30
0.0
 11
26022.959289337879
 21
13047.31078867995
 31
0.0
  0
ARC
  5
5A2
  8
____1
  6
DASHED2
 62
     7
 10
25967.958346827079
 20
13094.31078867995
 30
0.0
 40
3.0
 50
90.0
 51
180.0
  0
ARC
  5
5A3
  8
____1
  6
DASHED2
 62
     7
 10
25967.958346827079
 20
13050.31078867995
 30
0.0
 40
3.0
 50
180.0
 51
-90.0
  0
LINE
  5
5A4
  8
____1
  6
DASHED2
 62
     7
 10
25964.958346827079
 20
13050.31078867995
 30
0.0
 11
25964.958346827079
 21
13094.31078867995
 31
0.0
  0
LINE
  5
5A5
  8
____1
  6
DASHED2
 62
     7
 10
26004.471365531888
 20
13097.31078867995
 30
0.0
 11
26004.471365531888
 21
13047.31078867995
 31
0.0
  0
ENDBLK
  5
5A6
  8
0
  0
BLOCK
  8
0
  2
C45
 70
     0
 10
0.0
 20
0.0
 30
0.0
  3
C45
  1

  0
LINE
  5
5AA
  8
____1
  6
DASHED2
 62
     7
 10
25792.458181746661
 20
13623.81078867995
 30
0.0
 11
25856.458181746671
 21
13623.81078867995
 31
0.0
  0
LINE
  5
5AB
  8
____1
  6
DASHED2
 62
     7
 10
25792.458181746661
 20
13626.81078867995
 30
0.0
 11
25856.458181746671
 21
13626.81078867995
 31
0.0
  0
LINE
  5
5AC
  8
____1
  6
DASHED2
 62
     7
 10
25792.458181746661
 20
13632.810788679941
 30
0.0
 11
25856.458181746671
 21
13632.810788679941
 31
0.0
  0
LINE
  5
5AD
  8
____1
  6
DASHED2
 62
     7
 10
25792.458181746661
 20
13635.81078867995
 30
0.0
 11
25856.458181746671
 21
13635.81078867995
 31
0.0
  0
LINE
  5
5AE
  8
____1
  6
DASHED2
 62
     7
 10
25830.858181746658
 20
13626.81078867995
 30
0.0
 11
25830.858181746658
 21
13632.810788679941
 31
0.0
  0
LINE
  5
5AF
  8
____1
  6
DASHED2
 62
     7
 10
25843.658181746661
 20
13626.81078867995
 30
0.0
 11
25843.658181746661
 21
13632.810788679941
 31
0.0
  0
LINE
  5
5B0
  8
____1
  6
DASHED2
 62
     7
 10
25792.458181746661
 20
13635.81078867995
 30
0.0
 11
25792.458181746661
 21
13623.81078867995
 31
0.0
  0
LINE
  5
5B1
  8
____1
  6
DASHED2
 62
     7
 10
25856.458181746671
 20
13635.81078867995
 30
0.0
 11
25856.458181746671
 21
13623.81078867995
 31
0.0
  0
ARC
  5
5B2
  8
____1
  6
DASHED2
 62
     7
 10
25847.420233028719
 20
13629.81078867995
 30
0.0
 40
9.9999999999981242
 50
-25.338541490960839
 51
25.338541490979679
  0
ARC
  5
5B3
  8
____1
  6
DASHED2
 62
     7
 10
25801.496130464609
 20
13629.81078867995
 30
0.0
 40
9.9999999999981242
 50
154.66145850902029
 51
-154.66145850903911
  0
LINE
  5
5B4
  8
____1
  6
DASHED2
 62
     7
 10
25805.258181746671
 20
13626.81078867995
 30
0.0
 11
25805.258181746671
 21
13632.810788679941
 31
0.0
  0
LINE
  5
5B5
  8
____1
  6
DASHED2
 62
     7
 10
25818.058181746659
 20
13626.81078867995
 30
0.0
 11
25818.058181746659
 21
13632.810788679941
 31
0.0
  0
ENDBLK
  5
5B6
  8
0
  0
BLOCK
  8
0
  2
*D68
 70
     1
 10
0.0
 20
0.0
 30
0.0
  3
*D68
  1

  0
LINE
  5
5BA
  8
____1
  6
CONTINUOUS
 62
     7
 10
25946.45834682709
 20
12998.81078867995
 30
0.0
 11
26210.765784248171
 21
12998.81078867995
 31
0.0
  0
LINE
  5
5BB
  8
____1
  6
CONTINUOUS
 62
     7
 10
25946.45834682709
 20
13638.81078867995
 30
0.0
 11
26210.765784248171
 21
13638.81078867995
 31
0.0
  0
SOLID
  5
5BC
  8
____1
  6
CONTINUOUS
 62
     7
 10
26198.765784248171
 20
13618.81078867995
 30
0.0
 11
26198.765784248171
 21
13618.81078867995
 31
0.0
 12
26199.765784248171
 22
13623.81078867995
 32
0.0
 13
26202.765784248171
 23
13623.81078867995
 33
0.0
  0
SOLID
  5
5BD
  8
____1
  6
CONTINUOUS
 62
     7
 10
26206.765784248171
 20
13618.81078867995
 30
0.0
 11
26206.765784248171
 21
13618.81078867995
 31
0.0
 12
26202.765784248171
 22
13623.81078867995
 32
0.0
 13
26205.765784248171
 23
13623.81078867995
 33
0.0
  0
SOLID
  5
5BE
  8
____1
  6
CONTINUOUS
 62
     7
 10
26199.765784248171
 20
13623.81078867995
 30
0.0
 11
26205.765784248171
 21
13623.81078867995
 31
0.0
 12
26202.765784248171
 22
13638.81078867995
 32
0.0
 13
26202.765784248171
 23
13638.81078867995
 33
0.0
  0
LINE
  5
5BF
  8
____1
  6
CONTINUOUS
 62
     7
 10
26202.765784248171
 20
13638.81078867995
 30
0.0
 11
26202.765784248171
 21
13322.31078867995
 31
0.0
  0
SOLID
  5
5C0
  8
____1
  6
CONTINUOUS
 62
     7
 10
26202.765784248171
 20
12998.81078867995
 30
0.0
 11
26202.765784248171
 21
12998.81078867995
 31
0.0
 12
26199.765784248171
 22
13013.81078867995
 32
0.0
 13
26205.765784248171
 23
13013.81078867995
 33
0.0
  0
SOLID
  5
5C1
  8
____1
  6
CONTINUOUS
 62
     7
 10
26199.765784248171
 20
13013.81078867995
 30
0.0
 11
26202.765784248171
 21
13013.81078867995
 31
0.0
 12
26198.765784248171
 22
13018.81078867995
 32
0.0
 13
26198.765784248171
 23
13018.81078867995
 33
0.0
  0
SOLID
  5
5C2
  8
____1
  6
CONTINUOUS
 62
     7
 10
26202.765784248171
 20
13013.81078867995
 30
0.0
 11
26205.765784248171
 21
13013.81078867995
 31
0.0
 12
26206.765784248171
 22
13018.81078867995
 32
0.0
 13
26206.765784248171
 23
13018.81078867995
 33
0.0
  0
LINE
  5
5C3
  8
____1
  6
CONTINUOUS
 62
     7
 10
26202.765784248171
 20
12998.81078867995
 30
0.0
 11
26202.765784248171
 21
13322.31078867995
 31
0.0
  0
TEXT
  5
5C4
  8
______
  6
DASHED2
 62
     7
 10
26194.65004363106
 20
13301.14412264907
 30
0.0
 40
28.222221374511719
  1
640
 50
90.0
  7
STYLE1
  0
ENDBLK
  5
5C5
  8
0
  0
BLOCK
  8
0
  2
*D69
 70
     1
 10
0.0
 20
0.0
 30
0.0
  3
*D69
  1

  0
LINE
  5
5C9
  8
____1
  6
CONTINUOUS
 62
     7
 10
26122.45834682709
 20
13826.31078867995
 30
0.0
 11
26122.45834682709
 21
13874.400818050361
 31
0.0
  0
LINE
  5
5CA
  8
____1
  6
CONTINUOUS
 62
     7
 10
25982.45834682709
 20
13588.81078867995
 30
0.0
 11
25982.45834682709
 21
13874.400818050361
 31
0.0
  0
SOLID
  5
5CB
  8
____1
  6
CONTINUOUS
 62
     7
 10
26002.458346827079
 20
13862.40081805037
 30
0.0
 11
26002.458346827079
 21
13862.40081805037
 31
0.0
 12
25982.45834682709
 22
13866.40081805037
 32
0.0
 13
25997.458346827079
 23
13866.40081805037
 33
0.0
  0
SOLID
  5
5CC
  8
____1
  6
CONTINUOUS
 62
     7
 10
25982.45834682709
 20
13866.40081805037
 30
0.0
 11
25997.458346827079
 21
13866.40081805037
 31
0.0
 12
26002.458346827079
 22
13870.40081805037
 32
0.0
 13
26002.458346827079
 23
13870.40081805037
 33
0.0
  0
LINE
  5
5CD
  8
____1
  6
CONTINUOUS
 62
     7
 10
25982.45834682709
 20
13866.40081805037
 30
0.0
 11
26052.45834682709
 21
13866.40081805037
 31
0.0
  0
SOLID
  5
5CE
  8
____1
  6
CONTINUOUS
 62
     7
 10
26102.45834682709
 20
13862.40081805037
 30
0.0
 11
26102.45834682709
 21
13862.40081805037
 31
0.0
 12
26107.45834682709
 22
13866.40081805037
 32
0.0
 13
26122.45834682709
 23
13866.40081805037
 33
0.0
  0
SOLID
  5
5CF
  8
____1
  6
CONTINUOUS
 62
     7
 10
26107.45834682709
 20
13866.40081805037
 30
0.0
 11
26122.45834682709
 21
13866.40081805037
 31
0.0
 12
26102.45834682709
 22
13870.40081805037
 32
0.0
 13
26102.45834682709
 23
13870.40081805037
 33
0.0
  0
LINE
  5
5D0
  8
____1
  6
CONTINUOUS
 62
     7
 10
26122.45834682709
 20
13866.40081805037
 30
0.0
 11
26052.45834682709
 21
13866.40081805037
 31
0.0
  0
TEXT
  5
5D1
  8
______
  6
DASHED2
 62
     7
 10
26031.291680796199
 20
13874.516558667479
 30
0.0
 40
28.222221374511719
  1
140
  7
STYLE1
  0
ENDBLK
  5
5D2
  8
0
  0
BLOCK
  8
0
  2
C46
 70
     0
 10
0.0
 20
0.0
 30
0.0
  3
C46
  1

  0
LINE
  5
5D6
  8
____1
  6
DASHED2
 62
     7
 10
25705.073083536841
 20
13212.245332202319
 30
0.0
 11
25680.387561098549
 21
13204.87350822396
 31
0.0
  0
POLYLINE
  5
5D7
  8
____1
  6
DASHED2
 62
     7
 66
     1
 10
0.0
 20
0.0
 30
0.0
 70
     8
  0
VERTEX
  5
5D8
  8
____1
 62
     7
 10
25680.70012349547
 20
13191.089272321749
 30
0.0
 70
    32
  0
VERTEX
  5
5D9
  8
____1
 62
     7
 10
25680.698044520788
 20
13191.55855729715
 30
0.0
 70
    32
  0
VERTEX
  5
5DA
  8
____1
 62
     7
 10
25680.623558782081
 20
13192.003588953979
 30
0.0
 70
    32
  0
VERTEX
  5
5DB
  8
____1
 62
     7
 10
25680.483957462409
 20
13192.38080449297
 30
0.0
 70
    32
  0
VERTEX
  5
5DC
  8
____1
 62
     7
 10
25680.292905711609
 20
13192.65327942894
 30
0.0
 70
    32
  0
VERTEX
  5
5DD
  8
____1
 62
     7
 10
25680.06910500618
 20
13192.794342016719
 30
0.0
 70
    32
  0
VERTEX
  5
5DE
  8
____1
 62
     7
 10
25679.958346827079
 20
13192.81078867995
 30
0.0
 70
    32
  0
SEQEND
  5
5DF
  8
____1
 62
     7
  0
ARC
  5
5E0
  8
____1
  6
DASHED2
 62
     7
 10
25717.458346827079
 20
13188.810788679941
 30
0.0
 40
5.0
 50
-90.0
 51
0.0
  0
ARC
  5
5E1
  8
____1
  6
DASHED2
 62
     7
 10
25706.323083536841
 20
13184.56078867995
 30
0.0
 40
1.25
 50
0.0
 51
180.0
  0
LINE
  5
5E2
  8
____1
  6
DASHED2
 62
     7
 10
25707.57308353683
 20
13184.110788679949
 30
0.0
 11
25707.57308353683
 21
13184.56078867995
 31
0.0
  0
POLYLINE
  5
5E3
  8
____1
  6
DASHED2
 62
     7
 66
     1
 10
0.0
 20
0.0
 30
0.0
 70
     8
  0
VERTEX
  5
5E4
  8
____1
 62
     7
 10
25564.216570158689
 20
13191.089272321749
 30
0.0
 70
    32
  0
VERTEX
  5
5E5
  8
____1
 62
     7
 10
25564.21864913337
 20
13191.55855729715
 30
0.0
 70
    32
  0
VERTEX
  5
5E6
  8
____1
 62
     7
 10
25564.293134872089
 20
13192.003588953979
 30
0.0
 70
    32
  0
VERTEX
  5
5E7
  8
____1
 62
     7
 10
25564.43273619176
 20
13192.38080449297
 30
0.0
 70
    32
  0
VERTEX
  5
5E8
  8
____1
 62
     7
 10
25564.623787942561
 20
13192.65327942894
 30
0.0
 70
    32
  0
VERTEX
  5
5E9
  8
____1
 62
     7
 10
25564.84758864799
 20
13192.794342016719
 30
0.0
 70
    32
  0
VERTEX
  5
5EA
  8
____1
 62
     7
 10
25564.958346827079
 20
13192.81078867995
 30
0.0
 70
    32
  0
SEQEND
  5
5EB
  8
____1
 62
     7
  0
ARC
  5
5EC
  8
____1
  6
DASHED2
 62
     7
 10
25564.958346827079
 20
13191.31078867995
 30
0.0
 40
1.5
 50
0.0
 51
90.0
  0
LINE
  5
5ED
  8
____1
  6
DASHED2
 62
     7
 10
25564.958346827079
 20
13204.81078867995
 30
0.0
 11
25564.958346827079
 21
13192.81078867995
 31
0.0
  0
LINE
  5
5EE
  8
____1
  6
DASHED2
 62
     7
 10
25522.458346827079
 20
13208.810788679941
 30
0.0
 11
25522.458346827079
 21
13188.810788679941
 31
0.0
  0
LINE
  5
5EF
  8
____1
  6
DASHED2
 62
     7
 10
25704.687240537271
 20
13183.926012762529
 30
0.0
 11
25680.70012349547
 21
13191.089272321749
 31
0.0
  0
LINE
  5
5F0
  8
____1
  6
DASHED2
 62
     7
 10
25679.958346827079
 20
13204.81078867995
 30
0.0
 11
25679.958346827079
 21
13192.81078867995
 31
0.0
  0
LINE
  5
5F1
  8
____1
  6
DASHED2
 62
     7
 10
25722.458346827079
 20
13208.810788679941
 30
0.0
 11
25722.458346827079
 21
13188.810788679941
 31
0.0
  0
ARC
  5
5F2
  8
____1
  6
DASHED2
 62
     7
 10
25564.958346827079
 20
13206.31078867995
 30
0.0
 40
1.5
 50
-90.0
 51
0.0
  0
POLYLINE
  5
5F3
  8
____1
  6
DASHED2
 62
     7
 66
     1
 10
0.0
 20
0.0
 30
0.0
 70
     8
  0
VERTEX
  5
5F4
  8
____1
 62
     7
 10
25564.216570158689
 20
13206.532305038139
 30
0.0
 70
    32
  0
VERTEX
  5
5F5
  8
____1
 62
     7
 10
25564.21864913337
 20
13206.063020062749
 30
0.0
 70
    32
  0
VERTEX
  5
5F6
  8
____1
 62
     7
 10
25564.293134872089
 20
13205.617988405909
 30
0.0
 70
    32
  0
VERTEX
  5
5F7
  8
____1
 62
     7
 10
25564.43273619176
 20
13205.24077286692
 30
0.0
 70
    32
  0
VERTEX
  5
5F8
  8
____1
 62
     7
 10
25564.623787942561
 20
13204.968297930949
 30
0.0
 70
    32
  0
VERTEX
  5
5F9
  8
____1
 62
     7
 10
25564.84758864799
 20
13204.827235343169
 30
0.0
 70
    32
  0
VERTEX
  5
5FA
  8
____1
 62
     7
 10
25564.958346827079
 20
13204.81078867995
 30
0.0
 70
    32
  0
SEQEND
  5
5FB
  8
____1
 62
     7
  0
LINE
  5
5FC
  8
____1
  6
DASHED2
 62
     7
 10
25564.529132555621
 20
13192.74806913594
 30
0.0
 11
25539.843610117328
 21
13185.37624515758
 31
0.0
  0
LINE
  5
5FD
  8
____1
  6
DASHED2
 62
     7
 10
25679.958346827079
 20
13192.81078867995
 30
0.0
 11
25564.958346827079
 21
13192.81078867995
 31
0.0
  0
LINE
  5
5FE
  8
____1
  6
DASHED2
 62
     7
 10
25678.458346827079
 20
13191.31078867995
 30
0.0
 11
25566.458346827079
 21
13191.31078867995
 31
0.0
  0
LINE
  5
5FF
  8
____1
  6
DASHED2
 62
     7
 10
25705.073083536841
 20
13185.37624515758
 30
0.0
 11
25680.387561098549
 21
13192.74806913594
 31
0.0
  0
LINE
  5
600
  8
____1
  6
DASHED2
 62
     7
 10
25564.958346827079
 20
13204.81078867995
 30
0.0
 11
25679.958346827079
 21
13204.81078867995
 31
0.0
  0
LINE
  5
601
  8
____1
  6
DASHED2
 62
     7
 10
25566.458346827079
 20
13206.31078867995
 30
0.0
 11
25678.458346827079
 21
13206.31078867995
 31
0.0
  0
LINE
  5
602
  8
____1
  6
DASHED2
 62
     7
 10
25537.04361011734
 20
13213.81078867995
 30
0.0
 11
25527.458346827079
 21
13213.81078867995
 31
0.0
  0
ARC
  5
603
  8
____1
  6
DASHED2
 62
     7
 10
25537.04361011734
 20
13213.510788679951
 30
0.0
 40
0.2999999999992724
 50
0.0
 51
90.0
  0
ARC
  5
604
  8
____1
  6
DASHED2
 62
     7
 10
25540.143610117331
 20
13213.408108549551
 30
0.0
 40
0.2999999999989409
 50
73.372687562119992
 51
-179.99955041883391
  0
ARC
  5
605
  8
____1
  6
DASHED2
 62
     7
 10
25707.873083536841
 20
13213.510788679951
 30
0.0
 40
0.2999999999992724
 50
90.0
 51
180.0
  0
ARC
  5
606
  8
____1
  6
DASHED2
 62
     7
 10
25540.143610117331
 20
13184.213468810351
 30
0.0
 40
0.2999999999985377
 50
179.9996745981542
 51
-73.372686758660876
  0
ARC
  5
607
  8
____1
  6
DASHED2
 62
     7
 10
25717.458346827079
 20
13208.810788679941
 30
0.0
 40
5.0
 50
0.0
 51
90.0
  0
LINE
  5
608
  8
____1
  6
DASHED2
 62
     7
 10
25704.687240682539
 20
13213.69556464074
 30
0.0
 11
25680.70012349547
 21
13206.532305038139
 31
0.0
  0
ARC
  5
609
  8
____1
  6
DASHED2
 62
     7
 10
25704.773083536831
 20
13213.408108549551
 30
0.0
 40
0.2999999999987584
 50
0.0
 51
106.6271741918175
  0
LINE
  5
60A
  8
____1
  6
DASHED2
 62
     7
 10
25707.873083536841
 20
13213.81078867995
 30
0.0
 11
25717.458346827079
 21
13213.81078867995
 31
0.0
  0
LINE
  5
60B
  8
____1
  6
DASHED2
 62
     7
 10
25707.57308353683
 20
13213.510788679951
 30
0.0
 11
25707.57308353683
 21
13213.06078867995
 31
0.0
  0
ARC
  5
60C
  8
____1
  6
DASHED2
 62
     7
 10
25707.873083536841
 20
13184.110788679949
 30
0.0
 40
0.2999999999997293
 50
180.0
 51
-89.999900003290264
  0
LINE
  5
60D
  8
____1
  6
DASHED2
 62
     7
 10
25717.458346827079
 20
13183.81078867995
 30
0.0
 11
25707.873084060418
 21
13183.81078867995
 31
0.0
  0
ARC
  5
60E
  8
____1
  6
DASHED2
 62
     7
 10
25704.773083536831
 20
13184.213468810351
 30
0.0
 40
0.2999999999983477
 50
-106.62720314742811
 51
-0.000019717113064
  0
ARC
  5
60F
  8
____1
  6
DASHED2
 62
     7
 10
25679.958346827079
 20
13206.31078867995
 30
0.0
 40
1.5
 50
180.0
 51
-90.0
  0
POLYLINE
  5
610
  8
____1
  6
DASHED2
 62
     7
 66
     1
 10
0.0
 20
0.0
 30
0.0
 70
     8
  0
VERTEX
  5
611
  8
____1
 62
     7
 10
25680.70012349547
 20
13206.532305038139
 30
0.0
 70
    32
  0
VERTEX
  5
612
  8
____1
 62
     7
 10
25680.698044520788
 20
13206.063020062749
 30
0.0
 70
    32
  0
VERTEX
  5
613
  8
____1
 62
     7
 10
25680.623558782081
 20
13205.617988405909
 30
0.0
 70
    32
  0
VERTEX
  5
614
  8
____1
 62
     7
 10
25680.483957462409
 20
13205.24077286692
 30
0.0
 70
    32
  0
VERTEX
  5
615
  8
____1
 62
     7
 10
25680.292905711609
 20
13204.968297930949
 30
0.0
 70
    32
  0
VERTEX
  5
616
  8
____1
 62
     7
 10
25680.06910500618
 20
13204.827235343169
 30
0.0
 70
    32
  0
VERTEX
  5
617
  8
____1
 62
     7
 10
25679.958346827079
 20
13204.81078867995
 30
0.0
 70
    32
  0
SEQEND
  5
618
  8
____1
 62
     7
  0
ARC
  5
619
  8
____1
  6
DASHED2
 62
     7
 10
25679.958346827079
 20
13191.31078867995
 30
0.0
 40
1.5
 50
90.0
 51
180.0
  0
LINE
  5
61A
  8
____1
  6
DASHED2
 62
     7
 10
25527.458346827079
 20
13183.81078867995
 30
0.0
 11
25537.043609593751
 21
13183.81078867995
 31
0.0
  0
ARC
  5
61B
  8
____1
  6
DASHED2
 62
     7
 10
25537.04361011734
 20
13184.110788679949
 30
0.0
 40
0.2999999999997293
 50
-90.000099997404547
 51
0.0
  0
LINE
  5
61C
  8
____1
  6
DASHED2
 62
     7
 10
25537.343610117339
 20
13184.110788679949
 30
0.0
 11
25537.343610117339
 21
13184.56078867995
 31
0.0
  0
ARC
  5
61D
  8
____1
  6
DASHED2
 62
     7
 10
25538.593610117339
 20
13184.56078867995
 30
0.0
 40
1.25
 50
0.0
 51
180.0
  0
ARC
  5
61E
  8
____1
  6
DASHED2
 62
     7
 10
25527.458346827079
 20
13188.810788679941
 30
0.0
 40
5.0
 50
180.0
 51
-90.0
  0
ARC
  5
61F
  8
____1
  6
DASHED2
 62
     7
 10
25706.323083536841
 20
13213.06078867995
 30
0.0
 40
1.25
 50
180.0
 51
0.0
  0
LINE
  5
620
  8
____1
  6
DASHED2
 62
     7
 10
25539.843610117328
 20
13212.245332202319
 30
0.0
 11
25564.529132555621
 21
13204.87350822396
 31
0.0
  0
LINE
  5
621
  8
____1
  6
DASHED2
 62
     7
 10
25537.343610117339
 20
13213.510788679951
 30
0.0
 11
25537.343610117339
 21
13213.06078867995
 31
0.0
  0
LINE
  5
622
  8
____1
  6
DASHED2
 62
     7
 10
25539.843610117328
 20
13213.40810619554
 30
0.0
 11
25539.843610117328
 21
13184.213470514151
 31
0.0
  0
ARC
  5
623
  8
____1
  6
DASHED2
 62
     7
 10
25538.593610117339
 20
13213.06078867995
 30
0.0
 40
1.25
 50
180.0
 51
0.0
  0
LINE
  5
624
  8
____1
  6
DASHED2
 62
     7
 10
25540.229453665219
 20
13213.695564433619
 30
0.0
 11
25564.216570158689
 21
13206.532305038139
 31
0.0
  0
ARC
  5
625
  8
____1
  6
DASHED2
 62
     7
 10
25527.458346827079
 20
13208.810788679941
 30
0.0
 40
5.0
 50
90.0
 51
180.0
  0
LINE
  5
626
  8
____1
  6
DASHED2
 62
     7
 10
25564.216570158689
 20
13191.089272321749
 30
0.0
 11
25540.229453669239
 21
13183.926012927481
 31
0.0
  0
LINE
  5
627
  8
____1
  6
DASHED2
 62
     7
 10
25705.073083536841
 20
13213.408108549551
 30
0.0
 11
25705.073083536841
 21
13184.21346870711
 31
0.0
  0
ENDBLK
  5
628
  8
0
  0
BLOCK
  8
0
  2
C47
 70
     0
 10
0.0
 20
0.0
 30
0.0
  3
C47
  1

  0
ARC
  5
636
  8
____1
  6
DASHED2
 62
     7
 10
25262.45834682709
 20
13565.81078867995
 30
0.0
 40
6.0
 50
180.0
 51
0.0
  0
LINE
  5
637
  8
____1
  6
DASHED2
 62
     7
 10
25268.458346827079
 20
13565.81078867995
 30
0.0
 11
25268.458346827079
 21
13578.81078867995
 31
0.0
  0
ARC
  5
638
  8
____1
  6
DASHED2
 62
     7
 10
25262.45834682709
 20
13578.81078867995
 30
0.0
 40
6.0
 50
0.0
 51
180.0
  0
LINE
  5
639
  8
____1
  6
DASHED2
 62
     7
 10
25256.458346827079
 20
13565.81078867995
 30
0.0
 11
25256.458346827079
 21
13578.81078867995
 31
0.0
  0
LINE
  5
63A
  8
____1
  6
DOT
 62
     3
 10
25262.45834682709
 20
13574.31078867995
 30
0.0
 11
25262.45834682709
 21
13570.31078867995
 31
0.0
  0
LINE
  5
63B
  8
____1
  6
DOT
 62
     3
 10
25264.45834682709
 20
13572.31078867995
 30
0.0
 11
25260.45834682709
 21
13572.31078867995
 31
0.0
  0
LINE
  5
63C
  8
____1
  6
DASHED2
 62
     7
 10
25246.188051203189
 20
13597.31078867995
 30
0.0
 11
25246.188051203189
 21
13547.31078867995
 31
0.0
  0
LINE
  5
63D
  8
____1
  6
DASHED2
 62
     7
 10
25241.622022852909
 20
13547.31078867995
 30
0.0
 11
25241.622022852909
 21
13597.31078867995
 31
0.0
  0
LINE
  5
63E
  8
____1
  6
DASHED2
 62
     7
 10
25276.958346827079
 20
13547.31078867995
 30
0.0
 11
25221.95740431629
 21
13547.31078867995
 31
0.0
  0
LINE
  5
63F
  8
____1
  6
DASHED2
 62
     7
 10
25221.95740431629
 20
13547.31078867995
 30
0.0
 11
25221.95740431629
 21
13597.31078867995
 31
0.0
  0
LINE
  5
640
  8
____1
  6
DASHED2
 62
     7
 10
25276.958346827079
 20
13597.31078867995
 30
0.0
 11
25221.95740431629
 21
13597.31078867995
 31
0.0
  0
ARC
  5
641
  8
____1
  6
DASHED2
 62
     7
 10
25276.958346827079
 20
13550.31078867995
 30
0.0
 40
3.0
 50
-90.0
 51
0.0
  0
ARC
  5
642
  8
____1
  6
DASHED2
 62
     7
 10
25276.958346827079
 20
13594.31078867995
 30
0.0
 40
3.0
 50
0.0
 51
90.0
  0
LINE
  5
643
  8
____1
  6
DASHED2
 62
     7
 10
25279.958346827079
 20
13594.31078867995
 30
0.0
 11
25279.958346827079
 21
13550.31078867995
 31
0.0
  0
LINE
  5
644
  8
____1
  6
DASHED2
 62
     7
 10
25240.445328122281
 20
13547.31078867995
 30
0.0
 11
25240.445328122281
 21
13597.31078867995
 31
0.0
  0
ENDBLK
  5
645
  8
0
  0
BLOCK
  8
0
  2
C48
 70
     0
 10
0.0
 20
0.0
 30
0.0
  3
C48
  1

  0
CIRCLE
  5
649
  8
____1
  6
CONTINUOUS
 62
     7
 10
24936.136715364981
 20
13217.64278993154
 30
0.0
 40
28.0
  0
TEXT
  5
64A
  8
____1
  6
DOT
 62
     7
 10
24929.081160021349
 20
13207.6474198614
 30
0.0
 40
28.222221374511719
  1
5
  7
STYLE1
  0
LINE
  5
64B
  8
______
  6
CONTINUOUS
 62
     7
 10
24982.803382031649
 20
13217.64278993154
 30
0.0
 11
24964.136715364981
 21
13217.64278993154
 31
0.0
  0
LINE
  5
64C
  8
______
  6
CONTINUOUS
 62
     7
 10
25322.958346827079
 20
13317.655289931539
 30
0.0
 11
24982.803382031649
 21
13217.64278993154
 31
0.0
  0
SOLID
  5
64D
  8
______
 62
     7
 10
25322.958346827079
 20
13317.655289931539
 30
0.0
 11
25314.71905989365
 21
13317.317427787209
 31
0.0
 12
25322.958346827079
 22
13317.655289931539
 32
0.0
 13
25317.2020023113
 23
13315.96280719435
 33
0.0
  0
SOLID
  5
64E
  8
______
 62
     7
 10
25317.2020023113
 20
13315.96280719435
 30
0.0
 11
25315.847381718439
 21
13313.4798647767
 31
0.0
 12
25322.958346827079
 22
13317.655289931539
 32
0.0
 13
25322.958346827079
 23
13317.655289931539
 33
0.0
  0
ENDBLK
  5
64F
  8
0
  0
BLOCK
  8
0
  2
C49
 70
     0
 10
0.0
 20
0.0
 30
0.0
  3
C49
  1

  0
CIRCLE
  5
653
  8
____1
  6
CONTINUOUS
 62
     7
 10
24936.136715364981
 20
13511.915091858889
 30
0.0
 40
28.0
  0
TEXT
  5
654
  8
____1
  6
CONTINUOUS
 62
     7
 10
24929.081160021349
 20
13501.91972178875
 30
0.0
 40
28.222221374511719
  1
4
  7
STYLE1
  0
LINE
  5
655
  8
______
  6
CONTINUOUS
 62
     7
 10
24982.803382031649
 20
13511.915091858889
 30
0.0
 11
24964.136715364981
 21
13511.915091858889
 31
0.0
  0
LINE
  5
656
  8
______
  6
CONTINUOUS
 62
     7
 10
25339.45836473073
 20
13444.292988970879
 30
0.0
 11
24982.803382031649
 21
13511.915091858889
 31
0.0
  0
SOLID
  5
657
  8
______
 62
     7
 10
25339.45836473073
 20
13444.292988970879
 30
0.0
 11
25331.970958786282
 21
13447.748238921769
 31
0.0
 12
25339.45836473073
 22
13444.292988970879
 32
0.0
 13
25333.56338701391
 23
13445.41068200484
 33
0.0
  0
SOLID
  5
658
  8
______
 62
     7
 10
25333.56338701391
 20
13445.41068200484
 30
0.0
 11
25331.225830096981
 21
13443.818253777221
 31
0.0
 12
25339.45836473073
 22
13444.292988970879
 32
0.0
 13
25339.45836473073
 23
13444.292988970879
 33
0.0
  0
ENDBLK
  5
659
  8
0
  0
BLOCK
  8
0
  2
C50
 70
     0
 10
0.0
 20
0.0
 30
0.0
  3
C50
  1

  0
ARC
  5
65D
  8
____1
  6
DASHED2
 62
     7
 10
25262.45834682709
 20
13065.81078867995
 30
0.0
 40
6.0
 50
180.0
 51
0.0
  0
LINE
  5
65E
  8
____1
  6
DASHED2
 62
     7
 10
25268.458346827079
 20
13065.81078867995
 30
0.0
 11
25268.458346827079
 21
13078.81078867995
 31
0.0
  0
ARC
  5
65F
  8
____1
  6
DASHED2
 62
     7
 10
25262.45834682709
 20
13078.81078867995
 30
0.0
 40
6.0
 50
0.0
 51
180.0
  0
LINE
  5
660
  8
____1
  6
DASHED2
 62
     7
 10
25256.458346827079
 20
13065.81078867995
 30
0.0
 11
25256.458346827079
 21
13078.81078867995
 31
0.0
  0
LINE
  5
661
  8
____1
  6
DOT
 62
     3
 10
25262.45834682709
 20
13074.31078867995
 30
0.0
 11
25262.45834682709
 21
13070.31078867995
 31
0.0
  0
LINE
  5
662
  8
____1
  6
DOT
 62
     3
 10
25264.45834682709
 20
13072.31078867995
 30
0.0
 11
25260.45834682709
 21
13072.31078867995
 31
0.0
  0
LINE
  5
663
  8
____1
  6
DASHED2
 62
     7
 10
25246.188051203189
 20
13097.31078867995
 30
0.0
 11
25246.188051203189
 21
13047.31078867995
 31
0.0
  0
LINE
  5
664
  8
____1
  6
DASHED2
 62
     7
 10
25241.622022852909
 20
13047.31078867995
 30
0.0
 11
25241.622022852909
 21
13097.31078867995
 31
0.0
  0
LINE
  5
665
  8
____1
  6
DASHED2
 62
     7
 10
25276.958346827079
 20
13047.31078867995
 30
0.0
 11
25221.95740431629
 21
13047.31078867995
 31
0.0
  0
LINE
  5
666
  8
____1
  6
DASHED2
 62
     7
 10
25221.95740431629
 20
13047.31078867995
 30
0.0
 11
25221.95740431629
 21
13097.31078867995
 31
0.0
  0
LINE
  5
667
  8
____1
  6
DASHED2
 62
     7
 10
25276.958346827079
 20
13097.31078867995
 30
0.0
 11
25221.95740431629
 21
13097.31078867995
 31
0.0
  0
ARC
  5
668
  8
____1
  6
DASHED2
 62
     7
 10
25276.958346827079
 20
13050.31078867995
 30
0.0
 40
3.0
 50
-90.0
 51
0.0
  0
ARC
  5
669
  8
____1
  6
DASHED2
 62
     7
 10
25276.958346827079
 20
13094.31078867995
 30
0.0
 40
3.0
 50
0.0
 51
90.0
  0
LINE
  5
66A
  8
____1
  6
DASHED2
 62
     7
 10
25279.958346827079
 20
13094.31078867995
 30
0.0
 11
25279.958346827079
 21
13050.31078867995
 31
0.0
  0
LINE
  5
66B
  8
____1
  6
DASHED2
 62
     7
 10
25240.445328122281
 20
13047.31078867995
 30
0.0
 11
25240.445328122281
 21
13097.31078867995
 31
0.0
  0
ENDBLK
  5
66C
  8
0
  0
BLOCK
  8
0
  2
C51
 70
     0
 10
0.0
 20
0.0
 30
0.0
  3
C51
  1

  0
LINE
  5
670
  8
____1
  6
DASHED2
 62
     7
 10
25388.458181746661
 20
13623.81078867995
 30
0.0
 11
25452.458181746671
 21
13623.81078867995
 31
0.0
  0
LINE
  5
671
  8
____1
  6
DASHED2
 62
     7
 10
25388.458181746661
 20
13626.81078867995
 30
0.0
 11
25452.458181746671
 21
13626.81078867995
 31
0.0
  0
LINE
  5
672
  8
____1
  6
DASHED2
 62
     7
 10
25388.458181746661
 20
13632.810788679941
 30
0.0
 11
25452.458181746671
 21
13632.810788679941
 31
0.0
  0
LINE
  5
673
  8
____1
  6
DASHED2
 62
     7
 10
25388.458181746661
 20
13635.81078867995
 30
0.0
 11
25452.458181746671
 21
13635.81078867995
 31
0.0
  0
LINE
  5
674
  8
____1
  6
DASHED2
 62
     7
 10
25426.858181746658
 20
13626.81078867995
 30
0.0
 11
25426.858181746658
 21
13632.810788679941
 31
0.0
  0
LINE
  5
675
  8
____1
  6
DASHED2
 62
     7
 10
25439.658181746661
 20
13626.81078867995
 30
0.0
 11
25439.658181746661
 21
13632.810788679941
 31
0.0
  0
LINE
  5
676
  8
____1
  6
DASHED2
 62
     7
 10
25388.458181746661
 20
13635.81078867995
 30
0.0
 11
25388.458181746661
 21
13623.81078867995
 31
0.0
  0
LINE
  5
677
  8
____1
  6
DASHED2
 62
     7
 10
25452.458181746671
 20
13635.81078867995
 30
0.0
 11
25452.458181746671
 21
13623.81078867995
 31
0.0
  0
ARC
  5
678
  8
____1
  6
DASHED2
 62
     7
 10
25443.420233028719
 20
13629.81078867995
 30
0.0
 40
9.9999999999981242
 50
-25.338541490960839
 51
25.338541490979679
  0
ARC
  5
679
  8
____1
  6
DASHED2
 62
     7
 10
25397.496130464609
 20
13629.81078867995
 30
0.0
 40
9.9999999999981242
 50
154.66145850902029
 51
-154.66145850903911
  0
LINE
  5
67A
  8
____1
  6
DASHED2
 62
     7
 10
25401.258181746671
 20
13626.81078867995
 30
0.0
 11
25401.258181746671
 21
13632.810788679941
 31
0.0
  0
LINE
  5
67B
  8
____1
  6
DASHED2
 62
     7
 10
25414.058181746659
 20
13626.81078867995
 30
0.0
 11
25414.058181746659
 21
13632.810788679941
 31
0.0
  0
ENDBLK
  5
67C
  8
0
  0
BLOCK
  8
0
  2
*D76
 70
     1
 10
0.0
 20
0.0
 30
0.0
  3
*D76
  1

  0
LINE
  5
680
  8
____1
  6
CONTINUOUS
 62
     7
 10
25087.95480412956
 20
13645.796422707779
 30
0.0
 11
25002.96153574637
 21
13645.796422707779
 31
0.0
  0
SOLID
  5
681
  8
____1
  6
CONTINUOUS
 62
     7
 10
25256.856864268098
 20
13580.96099637722
 30
0.0
 11
25256.856864268098
 21
13580.96099637722
 31
0.0
 12
25236.75178393997
 22
13584.394033662131
 32
0.0
 13
25251.42841999717
 23
13584.394033662131
 33
0.0
  0
SOLID
  5
682
  8
____1
  6
CONTINUOUS
 62
     7
 10
25236.75178393997
 20
13584.394033662131
 30
0.0
 11
25251.42841999717
 21
13584.394033662131
 31
0.0
 12
25242.853157870639
 22
13586.3365156204
 32
0.0
 13
25248.356896392092
 23
13586.3365156204
 33
0.0
  0
SOLID
  5
683
  8
____1
  6
CONTINUOUS
 62
     7
 10
25242.853157870639
 20
13586.3365156204
 30
0.0
 11
25248.356896392092
 21
13586.3365156204
 31
0.0
 12
25239.61872753633
 22
13591.86267707411
 32
0.0
 13
25239.61872753633
 23
13591.86267707411
 33
0.0
  0
LINE
  5
684
  8
____1
  6
CONTINUOUS
 62
     7
 10
25256.856864268098
 20
13580.96099637722
 30
0.0
 11
25087.95480412956
 21
13645.796422707779
 31
0.0
  0
TEXT
  5
685
  8
______
  6
DASHED2
 62
     7
 10
24805.405986124792
 20
13635.801052637649
 30
0.0
 40
28.222221374511719
  1
4－12×25長穴
  7
STYLE1
  0
ENDBLK
  5
686
  8
0
  0
BLOCK
  8
0
  2
*D77
 70
     1
 10
0.0
 20
0.0
 30
0.0
  3
*D77
  1

  0
LINE
  5
68A
  8
____1
  6
CONTINUOUS
 62
     7
 10
25245.958346827079
 20
13072.31078867995
 30
0.0
 11
25062.724467559579
 21
13072.31078867995
 31
0.0
  0
LINE
  5
68B
  8
____1
  6
CONTINUOUS
 62
     7
 10
25245.958346827079
 20
13572.31078867995
 30
0.0
 11
25062.724467559579
 21
13572.31078867995
 31
0.0
  0
SOLID
  5
68C
  8
____1
  6
CONTINUOUS
 62
     7
 10
25066.724467559579
 20
13552.31078867995
 30
0.0
 11
25066.724467559579
 21
13552.31078867995
 31
0.0
 12
25067.724467559579
 22
13557.31078867995
 32
0.0
 13
25070.724467559579
 23
13557.31078867995
 33
0.0
  0
SOLID
  5
68D
  8
____1
  6
CONTINUOUS
 62
     7
 10
25074.724467559579
 20
13552.31078867995
 30
0.0
 11
25074.724467559579
 21
13552.31078867995
 31
0.0
 12
25070.724467559579
 22
13557.31078867995
 32
0.0
 13
25073.72446755959
 23
13557.31078867995
 33
0.0
  0
SOLID
  5
68E
  8
____1
  6
CONTINUOUS
 62
     7
 10
25067.724467559579
 20
13557.31078867995
 30
0.0
 11
25073.72446755959
 21
13557.31078867995
 31
0.0
 12
25070.724467559579
 22
13572.31078867995
 32
0.0
 13
25070.724467559579
 23
13572.31078867995
 33
0.0
  0
LINE
  5
68F
  8
____1
  6
CONTINUOUS
 62
     7
 10
25070.724467559579
 20
13572.31078867995
 30
0.0
 11
25070.724467559579
 21
13322.31078867995
 31
0.0
  0
SOLID
  5
690
  8
____1
  6
CONTINUOUS
 62
     7
 10
25070.724467559579
 20
13072.31078867995
 30
0.0
 11
25070.724467559579
 21
13072.31078867995
 31
0.0
 12
25067.724467559579
 22
13087.31078867995
 32
0.0
 13
25073.72446755959
 23
13087.31078867995
 33
0.0
  0
SOLID
  5
691
  8
____1
  6
CONTINUOUS
 62
     7
 10
25067.724467559579
 20
13087.31078867995
 30
0.0
 11
25070.724467559579
 21
13087.31078867995
 31
0.0
 12
25066.724467559579
 22
13092.31078867995
 32
0.0
 13
25066.724467559579
 23
13092.31078867995
 33
0.0
  0
SOLID
  5
692
  8
____1
  6
CONTINUOUS
 62
     7
 10
25070.724467559579
 20
13087.31078867995
 30
0.0
 11
25073.72446755959
 21
13087.31078867995
 31
0.0
 12
25074.724467559579
 22
13092.31078867995
 32
0.0
 13
25074.724467559579
 23
13092.31078867995
 33
0.0
  0
LINE
  5
693
  8
____1
  6
CONTINUOUS
 62
     7
 10
25070.724467559579
 20
13072.31078867995
 30
0.0
 11
25070.724467559579
 21
13322.31078867995
 31
0.0
  0
TEXT
  5
694
  8
______
  6
DASHED2
 62
     7
 10
25062.608726942472
 20
13301.144122649061
 30
0.0
 40
28.222221374511719
  1
500
 50
90.0
  7
STYLE1
  0
ENDBLK
  5
695
  8
0
  0
BLOCK
  8
0
  2
*D78
 70
     1
 10
0.0
 20
0.0
 30
0.0
  3
*D78
  1

  0
LINE
  5
699
  8
____1
  6
CONTINUOUS
 62
     7
 10
25245.958346827079
 20
13572.31078867995
 30
0.0
 11
25062.724467559579
 21
13572.31078867995
 31
0.0
  0
LINE
  5
69A
  8
____1
  6
CONTINUOUS
 62
     7
 10
25118.45834682709
 20
13822.31078867995
 30
0.0
 11
25062.724467559579
 21
13822.31078867995
 31
0.0
  0
SOLID
  5
69B
  8
____1
  6
CONTINUOUS
 62
     7
 10
25066.724467559579
 20
13802.31078867995
 30
0.0
 11
25066.724467559579
 21
13802.31078867995
 31
0.0
 12
25067.724467559579
 22
13807.31078867995
 32
0.0
 13
25070.724467559579
 23
13807.31078867995
 33
0.0
  0
SOLID
  5
69C
  8
____1
  6
CONTINUOUS
 62
     7
 10
25074.724467559579
 20
13802.31078867995
 30
0.0
 11
25074.724467559579
 21
13802.31078867995
 31
0.0
 12
25070.724467559579
 22
13807.31078867995
 32
0.0
 13
25073.72446755959
 23
13807.31078867995
 33
0.0
  0
SOLID
  5
69D
  8
____1
  6
CONTINUOUS
 62
     7
 10
25067.724467559579
 20
13807.31078867995
 30
0.0
 11
25073.72446755959
 21
13807.31078867995
 31
0.0
 12
25070.724467559579
 22
13822.31078867995
 32
0.0
 13
25070.724467559579
 23
13822.31078867995
 33
0.0
  0
LINE
  5
69E
  8
____1
  6
CONTINUOUS
 62
     7
 10
25070.724467559579
 20
13822.31078867995
 30
0.0
 11
25070.724467559579
 21
13697.31078867995
 31
0.0
  0
SOLID
  5
69F
  8
____1
  6
CONTINUOUS
 62
     7
 10
25070.724467559579
 20
13572.31078867995
 30
0.0
 11
25070.724467559579
 21
13572.31078867995
 31
0.0
 12
25067.724467559579
 22
13587.31078867995
 32
0.0
 13
25073.72446755959
 23
13587.31078867995
 33
0.0
  0
SOLID
  5
6A0
  8
____1
  6
CONTINUOUS
 62
     7
 10
25067.724467559579
 20
13587.31078867995
 30
0.0
 11
25070.724467559579
 21
13587.31078867995
 31
0.0
 12
25066.724467559579
 22
13592.31078867995
 32
0.0
 13
25066.724467559579
 23
13592.31078867995
 33
0.0
  0
SOLID
  5
6A1
  8
____1
  6
CONTINUOUS
 62
     7
 10
25070.724467559579
 20
13587.31078867995
 30
0.0
 11
25073.72446755959
 21
13587.31078867995
 31
0.0
 12
25074.724467559579
 22
13592.31078867995
 32
0.0
 13
25074.724467559579
 23
13592.31078867995
 33
0.0
  0
LINE
  5
6A2
  8
____1
  6
CONTINUOUS
 62
     7
 10
25070.724467559579
 20
13572.31078867995
 30
0.0
 11
25070.724467559579
 21
13697.31078867995
 31
0.0
  0
TEXT
  5
6A3
  8
______
  6
DASHED2
 62
     7
 10
25062.608726942472
 20
13676.144122649061
 30
0.0
 40
28.222221374511719
  1
250
 50
90.0
  7
STYLE1
  0
ENDBLK
  5
6A4
  8
0
  0
BLOCK
  8
0
  2
*D79
 70
     1
 10
0.0
 20
0.0
 30
0.0
  3
*D79
  1

  0
LINE
  5
6A8
  8
____1
  6
CONTINUOUS
 62
     7
 10
25262.45834682709
 20
13588.81078867995
 30
0.0
 11
25262.45834682709
 21
13874.400818050361
 31
0.0
  0
LINE
  5
6A9
  8
____1
  6
CONTINUOUS
 62
     7
 10
25122.45834682709
 20
13826.31078867995
 30
0.0
 11
25122.45834682709
 21
13874.400818050361
 31
0.0
  0
SOLID
  5
6AA
  8
____1
  6
CONTINUOUS
 62
     7
 10
25142.45834682709
 20
13862.40081805037
 30
0.0
 11
25142.45834682709
 21
13862.40081805037
 31
0.0
 12
25122.45834682709
 22
13866.40081805037
 32
0.0
 13
25137.45834682709
 23
13866.40081805037
 33
0.0
  0
SOLID
  5
6AB
  8
____1
  6
CONTINUOUS
 62
     7
 10
25122.45834682709
 20
13866.40081805037
 30
0.0
 11
25137.45834682709
 21
13866.40081805037
 31
0.0
 12
25142.45834682709
 22
13870.40081805037
 32
0.0
 13
25142.45834682709
 23
13870.40081805037
 33
0.0
  0
LINE
  5
6AC
  8
____1
  6
CONTINUOUS
 62
     7
 10
25122.45834682709
 20
13866.40081805037
 30
0.0
 11
25192.45834682709
 21
13866.40081805037
 31
0.0
  0
SOLID
  5
6AD
  8
____1
  6
CONTINUOUS
 62
     7
 10
25242.458346827079
 20
13862.40081805037
 30
0.0
 11
25242.458346827079
 21
13862.40081805037
 31
0.0
 12
25247.458346827079
 22
13866.40081805037
 32
0.0
 13
25262.45834682709
 23
13866.40081805037
 33
0.0
  0
SOLID
  5
6AE
  8
____1
  6
CONTINUOUS
 62
     7
 10
25247.458346827079
 20
13866.40081805037
 30
0.0
 11
25262.45834682709
 21
13866.40081805037
 31
0.0
 12
25242.458346827079
 22
13870.40081805037
 32
0.0
 13
25242.458346827079
 23
13870.40081805037
 33
0.0
  0
LINE
  5
6AF
  8
____1
  6
CONTINUOUS
 62
     7
 10
25262.45834682709
 20
13866.40081805037
 30
0.0
 11
25192.45834682709
 21
13866.40081805037
 31
0.0
  0
TEXT
  5
6B0
  8
______
  6
DASHED2
 62
     7
 10
25171.29168079621
 20
13874.516558667479
 30
0.0
 40
28.222221374511719
  1
140
  7
STYLE1
  0
ENDBLK
  5
6B1
  8
0
  0
BLOCK
  8
0
  2
C52
 70
     0
 10
0.0
 20
0.0
 30
0.0
  3
C52
  1

  0
LINE
  5
6CA
  8
____1
  6
DASHED2
 62
     7
 10
25638.458346827079
 20
13045.256675120379
 30
0.0
 11
25638.458346827079
 21
13056.256675120379
 31
0.0
  0
LINE
  5
6CB
  8
____1
  6
DASHED2
 62
     7
 10
25638.458346827079
 20
13056.256675120379
 30
0.0
 11
25638.458346827079
 21
13065.756675120379
 31
0.0
  0
LINE
  5
6CC
  8
____1
  6
DASHED2
 62
     7
 10
25638.458346827079
 20
13035.756675120379
 30
0.0
 11
25638.458346827079
 21
13045.256675120379
 31
0.0
  0
LINE
  5
6CD
  8
____1
  6
DOT
 62
     2
 10
25604.458346827079
 20
13050.756675120379
 30
0.0
 11
25640.45834682709
 21
13050.756675120379
 31
0.0
  0
LINE
  5
6CE
  8
____1
  6
DASHED2
 62
     7
 10
25640.458346827079
 20
13056.256675120379
 30
0.0
 11
25604.458346827079
 21
13056.256675120379
 31
0.0
  0
LINE
  5
6CF
  8
____1
  6
DASHED2
 62
     7
 10
25604.458346827079
 20
13045.256675120379
 30
0.0
 11
25640.458346827079
 21
13045.256675120379
 31
0.0
  0
LINE
  5
6D0
  8
____1
  6
DASHED2
 62
     7
 10
25604.458346827079
 20
13065.756675120379
 30
0.0
 11
25604.458346827079
 21
13035.756675120379
 31
0.0
  0
LINE
  5
6D1
  8
____1
  6
DASHED2
 62
     7
 10
25606.458346827079
 20
13056.256675120379
 30
0.0
 11
25606.458346827079
 21
13045.256675120379
 31
0.0
  0
LINE
  5
6D2
  8
____1
  6
DASHED2
 62
     7
 10
25606.458346827079
 20
13045.256675120379
 30
0.0
 11
25606.458346827079
 21
13035.756675120379
 31
0.0
  0
LINE
  5
6D3
  8
____1
  6
DASHED2
 62
     7
 10
25606.458346827079
 20
13065.756675120379
 30
0.0
 11
25606.458346827079
 21
13056.256675120379
 31
0.0
  0
ARC
  5
6D4
  8
____1
  6
DASHED2
 62
     7
 10
25610.458346827079
 20
13067.756675120379
 30
0.0
 40
3.0
 50
90.0
 51
180.0
  0
LINE
  5
6D5
  8
____1
  6
DASHED2
 62
     7
 10
25634.458346827079
 20
13070.756675120379
 30
0.0
 11
25610.458346827079
 21
13070.756675120379
 31
0.0
  0
ARC
  5
6D6
  8
____1
  6
DASHED2
 62
     7
 10
25634.458346827079
 20
13067.756675120379
 30
0.0
 40
3.0
 50
0.0
 51
90.0
  0
ARC
  5
6D7
  8
____1
  6
DASHED2
 62
     7
 10
25634.458346827079
 20
13033.756675120379
 30
0.0
 40
3.0
 50
-90.0
 51
0.0
  0
LINE
  5
6D8
  8
____1
  6
DASHED2
 62
     7
 10
25610.458346827079
 20
13030.756675120379
 30
0.0
 11
25634.458346827079
 21
13030.756675120379
 31
0.0
  0
ARC
  5
6D9
  8
____1
  6
DASHED2
 62
     7
 10
25610.458346827079
 20
13033.756675120379
 30
0.0
 40
3.0
 50
180.0
 51
-90.0
  0
LINE
  5
6DA
  8
____1
  6
DASHED2
 62
     7
 10
25606.458346827079
 20
13065.756675120379
 30
0.0
 11
25604.458346827079
 21
13065.756675120379
 31
0.0
  0
LINE
  5
6DB
  8
____1
  6
DASHED2
 62
     7
 10
25637.458346827079
 20
13066.756675120379
 30
0.0
 11
25637.458346827079
 21
13067.756675120379
 31
0.0
  0
LINE
  5
6DC
  8
____1
  6
DASHED2
 62
     7
 10
25640.458346827079
 20
13065.756675120379
 30
0.0
 11
25638.458346827079
 21
13065.756675120379
 31
0.0
  0
ARC
  5
6DD
  8
____1
  6
DASHED2
 62
     7
 10
25638.458346827079
 20
13066.756675120379
 30
0.0
 40
1.0
 50
180.0
 51
-90.0
  0
LINE
  5
6DE
  8
____1
  6
DASHED2
 62
     7
 10
25638.458346827079
 20
13035.756675120379
 30
0.0
 11
25640.458346827079
 21
13035.756675120379
 31
0.0
  0
LINE
  5
6DF
  8
____1
  6
DASHED2
 62
     7
 10
25637.458346827079
 20
13033.756675120379
 30
0.0
 11
25637.458346827079
 21
13034.756675120379
 31
0.0
  0
ARC
  5
6E0
  8
____1
  6
DASHED2
 62
     7
 10
25638.458346827079
 20
13034.756675120379
 30
0.0
 40
1.0
 50
90.0
 51
180.0
  0
LINE
  5
6E1
  8
____1
  6
DASHED2
 62
     7
 10
25607.458346827079
 20
13034.756675120379
 30
0.0
 11
25607.458346827079
 21
13033.756675120379
 31
0.0
  0
LINE
  5
6E2
  8
____1
  6
DASHED2
 62
     7
 10
25604.458346827079
 20
13035.756675120379
 30
0.0
 11
25606.458346827079
 21
13035.756675120379
 31
0.0
  0
ARC
  5
6E3
  8
____1
  6
DASHED2
 62
     7
 10
25606.458346827079
 20
13034.756675120379
 30
0.0
 40
1.0
 50
0.0
 51
90.0
  0
LINE
  5
6E4
  8
____1
  6
DASHED2
 62
     7
 10
25607.458346827079
 20
13067.756675120379
 30
0.0
 11
25607.458346827079
 21
13066.756675120379
 31
0.0
  0
ARC
  5
6E5
  8
____1
  6
DASHED2
 62
     7
 10
25606.458346827079
 20
13066.756675120379
 30
0.0
 40
1.0
 50
-90.0
 51
0.0
  0
LINE
  5
6E6
  8
____1
  6
DASHED2
 62
     7
 10
25640.458346827079
 20
13035.756675120379
 30
0.0
 11
25640.458346827079
 21
13065.756675120379
 31
0.0
  0
ENDBLK
  5
6E7
  8
0
  0
BLOCK
  8
0
  2
C53
 70
     0
 10
0.0
 20
0.0
 30
0.0
  3
C53
  1

  0
CIRCLE
  5
6EB
  8
____1
  6
CONTINUOUS
 62
     7
 10
25568.255053164849
 20
13966.404391591261
 30
0.0
 40
28.0
  0
TEXT
  5
6EC
  8
____1
  6
DASHED2
 62
     7
 10
25561.199497821221
 20
13956.40902152112
 30
0.0
 40
28.222221374511719
  1
3
  7
STYLE1
  0
LINE
  5
6ED
  8
______
  6
CONTINUOUS
 62
     7
 10
25521.588386498181
 20
13966.404391591261
 30
0.0
 11
25540.255053164849
 21
13966.404391591261
 31
0.0
  0
LINE
  5
6EE
  8
______
  6
CONTINUOUS
 62
     7
 10
25435.004414548759
 20
13635.81078867995
 30
0.0
 11
25521.588386498181
 21
13966.404391591261
 31
0.0
  0
SOLID
  5
6EF
  8
______
 62
     7
 10
25435.004414548759
 20
13635.81078867995
 30
0.0
 11
25438.966032760451
 21
13643.043048433639
 31
0.0
 12
25435.004414548759
 22
13635.81078867995
 32
0.0
 13
25436.52456980048
 23
13641.61502230814
 33
0.0
  0
SOLID
  5
6F0
  8
______
 62
     7
 10
25436.52456980048
 20
13641.61502230814
 30
0.0
 11
25435.09654367499
 21
13644.05648526812
 31
0.0
 12
25435.004414548759
 22
13635.81078867995
 32
0.0
 13
25435.004414548759
 23
13635.81078867995
 33
0.0
  0
ENDBLK
  5
6F1
  8
0
  0
BLOCK
  8
0
  2
C54
 70
     0
 10
0.0
 20
0.0
 30
0.0
  3
C54
  1

  0
LINE
  5
6F5
  8
____1
  6
DASHED2
 62
     7
 10
25607.458346827079
 20
13028.756675120379
 30
0.0
 11
25617.458346827079
 21
13028.756675120379
 31
0.0
  0
LINE
  5
6F6
  8
____1
  6
DASHED2
 62
     7
 10
25627.458346827079
 20
13028.756675120379
 30
0.0
 11
25637.458346827079
 21
13028.756675120379
 31
0.0
  0
LINE
  5
6F7
  8
____1
  6
DASHED2
 62
     7
 10
25602.458346827079
 20
13045.756675120379
 30
0.0
 11
25602.458346827079
 21
13055.756675120379
 31
0.0
  0
LINE
  5
6F8
  8
____1
  6
DASHED2
 62
     7
 10
25637.458346827079
 20
13045.756675120379
 30
0.0
 11
25642.458346827079
 21
13045.756675120379
 31
0.0
  0
LINE
  5
6F9
  8
____1
  6
DASHED2
 62
     7
 10
25607.458346827079
 20
13026.756675120379
 30
0.0
 11
25607.458346827079
 21
13050.756675120379
 31
0.0
  0
LINE
  5
6FA
  8
____1
  6
DASHED2
 62
     7
 10
25637.458346827079
 20
13026.756675120379
 30
0.0
 11
25637.458346827079
 21
13050.756675120379
 31
0.0
  0
LINE
  5
6FB
  8
____1
  6
DASHED2
 62
     7
 10
25602.458346827079
 20
13050.756675120379
 30
0.0
 11
25607.458346827079
 21
13050.756675120379
 31
0.0
  0
LINE
  5
6FC
  8
____1
  6
DASHED2
 62
     7
 10
25637.458346827079
 20
13050.756675120379
 30
0.0
 11
25642.458346827079
 21
13050.756675120379
 31
0.0
  0
LINE
  5
6FD
  8
____1
  6
DASHED2
 62
     7
 10
25617.458346827079
 20
13028.756675120379
 30
0.0
 11
25627.458346827079
 21
13028.756675120379
 31
0.0
  0
LINE
  5
6FE
  8
____1
  6
DASHED2
 62
     7
 10
25627.458346827079
 20
13033.756675120379
 30
0.0
 11
25627.458346827079
 21
13026.756675120379
 31
0.0
  0
LINE
  5
6FF
  8
____1
  6
DASHED2
 62
     7
 10
25617.458346827079
 20
13033.756675120379
 30
0.0
 11
25617.458346827079
 21
13026.756675120379
 31
0.0
  0
LINE
  5
700
  8
____1
  6
DASHED2
 62
     7
 10
25642.458346827079
 20
13045.756675120379
 30
0.0
 11
25642.458346827079
 21
13055.756675120379
 31
0.0
  0
LINE
  5
701
  8
____1
  6
DASHED2
 62
     7
 10
25602.458346827079
 20
13055.756675120379
 30
0.0
 11
25642.458346827079
 21
13055.756675120379
 31
0.0
  0
LINE
  5
702
  8
____1
  6
DASHED2
 62
     7
 10
25607.458346827079
 20
13026.756675120379
 30
0.0
 11
25637.458346827079
 21
13026.756675120379
 31
0.0
  0
LINE
  5
703
  8
____1
  6
DASHED2
 62
     7
 10
25602.604590717059
 20
13045.756675120379
 30
0.0
 11
25607.458346827079
 21
13045.756675120379
 31
0.0
  0
LINE
  5
704
  8
____1
  6
DASHED2
 62
     7
 10
25607.458346827079
 20
13045.756675120379
 30
0.0
 11
25637.458346827079
 21
13045.756675120379
 31
0.0
  0
ARC
  5
705
  8
____1
  6
DASHED2
 62
     7
 10
25622.45834682709
 20
13033.756675120379
 30
0.0
 40
5.0
 50
0.0
 51
180.0
  0
ENDBLK
  5
706
  8
0
  0
BLOCK
  8
0
  2
C55
 70
     0
 10
0.0
 20
0.0
 30
0.0
  3
C55
  1

  0
ARC
  5
70A
  8
UNASSIGNED
  6
DASHED2
 62
     7
 10
25622.45834682709
 20
13043.31078867995
 30
0.0
 40
2.5
 50
180.0
 51
0.0
  0
LINE
  5
70B
  8
UNASSIGNED
  6
DASHED2
 62
     7
 10
25624.958346827079
 20
13022.31078867995
 30
0.0
 11
25624.958346827079
 21
13043.31078867995
 31
0.0
  0
LINE
  5
70C
  8
UNASSIGNED
  6
DASHED2
 62
     7
 10
25619.958346827079
 20
13020.81078867995
 30
0.0
 11
25624.958346827079
 21
13020.81078867995
 31
0.0
  0
LINE
  5
70D
  8
UNASSIGNED
  6
DASHED2
 62
     7
 10
25619.958346827079
 20
13022.31078867995
 30
0.0
 11
25619.958346827079
 21
13020.81078867995
 31
0.0
  0
LINE
  5
70E
  8
UNASSIGNED
  6
DASHED2
 62
     7
 10
25624.958346827079
 20
13020.81078867995
 30
0.0
 11
25624.958346827079
 21
13022.31078867995
 31
0.0
  0
LINE
  5
70F
  8
UNASSIGNED
  6
DASHED2
 62
     7
 10
25619.958346827079
 20
13024.065135829331
 30
0.0
 11
25624.958346827079
 21
13024.065135829331
 31
0.0
  0
LINE
  5
710
  8
UNASSIGNED
  6
DASHED2
 62
     7
 10
25619.958346827079
 20
13043.31078867995
 30
0.0
 11
25619.958346827079
 21
13022.31078867995
 31
0.0
  0
ARC
  5
711
  8
UNASSIGNED
  6
DASHED2
 62
     7
 10
25622.45834682709
 20
13043.31078867995
 30
0.0
 40
2.5
 50
0.0
 51
180.0
  0
ENDBLK
  5
712
  8
0
  0
BLOCK
  8
0
  2
C56
 70
     0
 10
0.0
 20
0.0
 30
0.0
  3
C56
  1

  0
ARC
  5
716
  8
____1
  6
DASHED2
 62
     7
 10
25982.45834682709
 20
13578.81078867995
 30
0.0
 40
6.0
 50
0.0
 51
180.0
  0
LINE
  5
717
  8
____1
  6
DASHED2
 62
     7
 10
25976.458346827079
 20
13578.81078867995
 30
0.0
 11
25976.458346827079
 21
13565.81078867995
 31
0.0
  0
ARC
  5
718
  8
____1
  6
DASHED2
 62
     7
 10
25982.45834682709
 20
13565.81078867995
 30
0.0
 40
6.0
 50
180.0
 51
0.0
  0
LINE
  5
719
  8
____1
  6
DASHED2
 62
     7
 10
25988.45834682709
 20
13578.81078867995
 30
0.0
 11
25988.45834682709
 21
13565.81078867995
 31
0.0
  0
LINE
  5
71A
  8
____1
  6
DOT
 62
     3
 10
25982.45834682709
 20
13570.31078867995
 30
0.0
 11
25982.45834682709
 21
13574.31078867995
 31
0.0
  0
LINE
  5
71B
  8
____1
  6
DOT
 62
     3
 10
25980.458346827079
 20
13572.31078867995
 30
0.0
 11
25984.45834682709
 21
13572.31078867995
 31
0.0
  0
LINE
  5
71C
  8
____1
  6
DASHED2
 62
     7
 10
25998.72864245098
 20
13547.31078867995
 30
0.0
 11
25998.72864245098
 21
13597.31078867995
 31
0.0
  0
LINE
  5
71D
  8
____1
  6
DASHED2
 62
     7
 10
26003.294670801261
 20
13597.31078867995
 30
0.0
 11
26003.294670801261
 21
13547.31078867995
 31
0.0
  0
LINE
  5
71E
  8
____1
  6
DASHED2
 62
     7
 10
25967.958346827079
 20
13597.31078867995
 30
0.0
 11
26022.959289337879
 21
13597.31078867995
 31
0.0
  0
LINE
  5
71F
  8
____1
  6
DASHED2
 62
     7
 10
26022.959289337879
 20
13597.31078867995
 30
0.0
 11
26022.959289337879
 21
13547.31078867995
 31
0.0
  0
LINE
  5
720
  8
____1
  6
DASHED2
 62
     7
 10
25967.958346827079
 20
13547.31078867995
 30
0.0
 11
26022.959289337879
 21
13547.31078867995
 31
0.0
  0
ARC
  5
721
  8
____1
  6
DASHED2
 62
     7
 10
25967.958346827079
 20
13594.31078867995
 30
0.0
 40
3.0
 50
90.0
 51
180.0
  0
ARC
  5
722
  8
____1
  6
DASHED2
 62
     7
 10
25967.958346827079
 20
13550.31078867995
 30
0.0
 40
3.0
 50
180.0
 51
-90.0
  0
LINE
  5
723
  8
____1
  6
DASHED2
 62
     7
 10
25964.958346827079
 20
13550.31078867995
 30
0.0
 11
25964.958346827079
 21
13594.31078867995
 31
0.0
  0
LINE
  5
724
  8
____1
  6
DASHED2
 62
     7
 10
26004.471365531888
 20
13597.31078867995
 30
0.0
 11
26004.471365531888
 21
13547.31078867995
 31
0.0
  0
ENDBLK
  5
725
  8
0
  0
BLOCK
  8
0
  2
*D85
 70
     1
 10
0.0
 20
0.0
 30
0.0
  3
*D85
  1

  0
LINE
  5
72E
  8
____1
  6
CONTINUOUS
 62
     7
 10
27361.702202915221
 20
12708.04941227875
 30
0.0
 11
27411.702202915221
 21
12708.04941227875
 31
0.0
  0
LINE
  5
72F
  8
____1
  6
CONTINUOUS
 62
     7
 10
27411.702202915221
 20
12818.31078867995
 30
0.0
 11
27411.702202915221
 21
12700.04941227875
 31
0.0
  0
LINE
  5
730
  8
____1
  6
CONTINUOUS
 62
     7
 10
27361.702202915221
 20
12818.31078867995
 30
0.0
 11
27361.702202915221
 21
12700.04941227875
 31
0.0
  0
SOLID
  5
731
  8
____1
  6
CONTINUOUS
 62
     7
 10
27341.702202915221
 20
12704.04941227875
 30
0.0
 11
27341.702202915221
 21
12704.04941227875
 31
0.0
 12
27346.702202915221
 22
12708.04941227875
 32
0.0
 13
27361.702202915221
 23
12708.04941227875
 33
0.0
  0
SOLID
  5
732
  8
____1
  6
CONTINUOUS
 62
     7
 10
27346.702202915221
 20
12708.04941227875
 30
0.0
 11
27361.702202915221
 21
12708.04941227875
 31
0.0
 12
27341.702202915221
 22
12712.04941227875
 32
0.0
 13
27341.702202915221
 23
12712.04941227875
 33
0.0
  0
LINE
  5
733
  8
____1
  6
CONTINUOUS
 62
     7
 10
27361.702202915221
 20
12708.04941227875
 30
0.0
 11
27321.702202915221
 21
12708.04941227875
 31
0.0
  0
SOLID
  5
734
  8
____1
  6
CONTINUOUS
 62
     7
 10
27431.702202915221
 20
12704.04941227875
 30
0.0
 11
27431.702202915221
 21
12704.04941227875
 31
0.0
 12
27411.702202915221
 22
12708.04941227875
 32
0.0
 13
27426.702202915221
 23
12708.04941227875
 33
0.0
  0
SOLID
  5
735
  8
____1
  6
CONTINUOUS
 62
     7
 10
27411.702202915221
 20
12708.04941227875
 30
0.0
 11
27426.702202915221
 21
12708.04941227875
 31
0.0
 12
27431.702202915221
 22
12712.04941227875
 32
0.0
 13
27431.702202915221
 23
12712.04941227875
 33
0.0
  0
LINE
  5
736
  8
____1
  6
CONTINUOUS
 62
     7
 10
27411.702202915221
 20
12708.04941227875
 30
0.0
 11
27451.702202915221
 21
12708.04941227875
 31
0.0
  0
TEXT
  5
737
  8
______
  6
DASHED2
 62
     7
 10
27372.455945155001
 20
12716.165152895859
 30
0.0
 40
28.222221374511719
  1
50
  7
STYLE1
  0
ENDBLK
  5
738
  8
0
  0
BLOCK
  8
0
  2
C57
 70
     0
 10
0.0
 20
0.0
 30
0.0
  3
C57
  1

  0
CIRCLE
  5
73C
  8
____1
  6
CONTINUOUS
 62
     7
 10
27143.667146077521
 20
12920.19239850892
 30
0.0
 40
28.0
  0
TEXT
  5
73D
  8
____1
  6
DASHED2
 62
     7
 10
27136.61159073389
 20
12910.197028438781
 30
0.0
 40
28.222221374511719
  1
8
  7
STYLE1
  0
LINE
  5
73E
  8
______
  6
CONTINUOUS
 62
     7
 10
27190.333812744189
 20
12920.19239850892
 30
0.0
 11
27171.667146077521
 21
12920.19239850892
 31
0.0
  0
LINE
  5
73F
  8
______
  6
CONTINUOUS
 62
     7
 10
27282.452202915221
 20
13012.31078867995
 30
0.0
 11
27190.333812744189
 21
12920.19239850892
 31
0.0
  0
SOLID
  5
740
  8
______
 62
     7
 10
27282.452202915221
 20
13012.31078867995
 30
0.0
 11
27275.381135103351
 21
13008.06814799283
 31
0.0
 12
27282.452202915221
 22
13012.31078867995
 32
0.0
 13
27278.209562228101
 23
13008.06814799283
 33
0.0
  0
SOLID
  5
741
  8
______
 62
     7
 10
27278.209562228101
 20
13008.06814799283
 30
0.0
 11
27278.209562228101
 21
13005.23972086808
 31
0.0
 12
27282.452202915221
 22
13012.31078867995
 32
0.0
 13
27282.452202915221
 23
13012.31078867995
 33
0.0
  0
ENDBLK
  5
742
  8
0
  0
BLOCK
  8
0
  2
C58
 70
     0
 10
0.0
 20
0.0
 30
0.0
  3
C58
  1

  0
LINE
  5
747
  8
____1
  6
DASHED2
 62
     7
 10
27344.792366009198
 20
13097.31078867995
 30
0.0
 11
27344.792366009198
 21
13047.31078867995
 31
0.0
  0
LINE
  5
748
  8
____1
  6
DASHED2
 62
     7
 10
27343.321495342359
 20
13097.31078867995
 30
0.0
 11
27343.321495342359
 21
13047.31078867995
 31
0.0
  0
LINE
  5
749
  8
____1
  6
DASHED2
 62
     7
 10
27339.399172639602
 20
13047.31078867995
 30
0.0
 11
27339.399172639602
 21
13097.31078867995
 31
0.0
  0
LINE
  5
74A
  8
____1
  6
DASHED2
 62
     7
 10
27363.72915136486
 20
13047.31078867995
 30
0.0
 11
27339.399172639602
 21
13047.31078867995
 31
0.0
  0
LINE
  5
74B
  8
____1
  6
DASHED2
 62
     7
 10
27363.72915136486
 20
13097.31078867995
 30
0.0
 11
27363.72915136486
 21
13047.31078867995
 31
0.0
  0
LINE
  5
74C
  8
____1
  6
DASHED2
 62
     7
 10
27339.399172639602
 20
13097.31078867995
 30
0.0
 11
27363.72915136486
 21
13097.31078867995
 31
0.0
  0
ENDBLK
  5
74D
  8
0
  0
BLOCK
  8
0
  2
C59
 70
     0
 10
0.0
 20
0.0
 30
0.0
  3
C59
  1

  0
LINE
  5
751
  8
____1
  6
DASHED2
 62
     7
 10
27344.792366009198
 20
13597.31078867995
 30
0.0
 11
27344.792366009198
 21
13547.31078867995
 31
0.0
  0
LINE
  5
752
  8
____1
  6
DASHED2
 62
     7
 10
27343.321495342359
 20
13597.31078867995
 30
0.0
 11
27343.321495342359
 21
13547.31078867995
 31
0.0
  0
LINE
  5
753
  8
____1
  6
DASHED2
 62
     7
 10
27339.399172639602
 20
13547.31078867995
 30
0.0
 11
27339.399172639602
 21
13597.31078867995
 31
0.0
  0
LINE
  5
754
  8
____1
  6
DASHED2
 62
     7
 10
27363.72915136486
 20
13547.31078867995
 30
0.0
 11
27339.399172639602
 21
13547.31078867995
 31
0.0
  0
LINE
  5
755
  8
____1
  6
DASHED2
 62
     7
 10
27363.72915136486
 20
13597.31078867995
 30
0.0
 11
27363.72915136486
 21
13547.31078867995
 31
0.0
  0
LINE
  5
756
  8
____1
  6
DASHED2
 62
     7
 10
27339.399172639602
 20
13597.31078867995
 30
0.0
 11
27363.72915136486
 21
13597.31078867995
 31
0.0
  0
ENDBLK
  5
757
  8
0
  0
BLOCK
  8
0
  2
*D89
 70
     1
 10
0.0
 20
0.0
 30
0.0
  3
*D89
  1

  0
LINE
  5
765
  8
____1
  6
CONTINUOUS
 62
     7
 10
27361.702202915221
 20
12708.0494132527
 30
0.0
 11
27411.702202915221
 21
12708.0494132527
 31
0.0
  0
LINE
  5
766
  8
____1
  6
CONTINUOUS
 62
     7
 10
27411.702202915221
 20
12818.31078867995
 30
0.0
 11
27411.702202915221
 21
12700.0494132527
 31
0.0
  0
LINE
  5
767
  8
____1
  6
CONTINUOUS
 62
     7
 10
27361.702202915221
 20
12818.31078867995
 30
0.0
 11
27361.702202915221
 21
12700.0494132527
 31
0.0
  0
SOLID
  5
768
  8
____1
  6
CONTINUOUS
 62
     7
 10
27341.702202915221
 20
12704.0494132527
 30
0.0
 11
27341.702202915221
 21
12704.0494132527
 31
0.0
 12
27346.702202915221
 22
12708.0494132527
 32
0.0
 13
27361.702202915221
 23
12708.0494132527
 33
0.0
  0
SOLID
  5
769
  8
____1
  6
CONTINUOUS
 62
     7
 10
27346.702202915221
 20
12708.0494132527
 30
0.0
 11
27361.702202915221
 21
12708.0494132527
 31
0.0
 12
27341.702202915221
 22
12712.0494132527
 32
0.0
 13
27341.702202915221
 23
12712.0494132527
 33
0.0
  0
LINE
  5
76A
  8
____1
  6
CONTINUOUS
 62
     7
 10
27361.702202915221
 20
12708.0494132527
 30
0.0
 11
27321.702202915221
 21
12708.0494132527
 31
0.0
  0
SOLID
  5
76B
  8
____1
  6
CONTINUOUS
 62
     7
 10
27431.702202915221
 20
12704.0494132527
 30
0.0
 11
27431.702202915221
 21
12704.0494132527
 31
0.0
 12
27411.702202915221
 22
12708.0494132527
 32
0.0
 13
27426.702202915221
 23
12708.0494132527
 33
0.0
  0
SOLID
  5
76C
  8
____1
  6
CONTINUOUS
 62
     7
 10
27411.702202915221
 20
12708.0494132527
 30
0.0
 11
27426.702202915221
 21
12708.0494132527
 31
0.0
 12
27431.702202915221
 22
12712.0494132527
 32
0.0
 13
27431.702202915221
 23
12712.0494132527
 33
0.0
  0
LINE
  5
76D
  8
____1
  6
CONTINUOUS
 62
     7
 10
27411.702202915221
 20
12708.0494132527
 30
0.0
 11
27451.702202915221
 21
12708.0494132527
 31
0.0
  0
TEXT
  5
76E
  8
______
  6
DASHED2
 62
     7
 10
27372.455944656402
 20
12716.165153869821
 30
0.0
 40
28.222221374511719
  1
50
  7
STYLE1
  0
ENDBLK
  5
76F
  8
0
  0
BLOCK
  8
0
  2
C60
 70
     0
 10
0.0
 20
0.0
 30
0.0
  3
C60
  1

  0
INSERT
  5
78B
  8
____1
  6
DASHED2
 62
     4
  2
C61
 10
0.0
 20
0.0
 30
0.0
  0
INSERT
  5
796
  8
____1
  6
DASHED2
 62
     4
  2
C62
 10
0.0
 20
0.0
 30
0.0
  0
ENDBLK
  5
797
  8
0
  0
BLOCK
  8
0
  2
C61
 70
     0
 10
0.0
 20
0.0
 30
0.0
  3
C61
  1

  0
CIRCLE
  5
782
  8
____1
  6
DOT
 62
     4
 10
27308.702327413961
 20
13335.31134516696
 30
0.0
 40
15.00000000000043
  0
LINE
  5
783
  8
____1
  6
DOT
 62
     4
 10
27302.893574727779
 20
13343.22283842451
 30
0.0
 11
27312.64950521378
 21
13344.297619186271
 31
0.0
  0
LINE
  5
784
  8
____1
  6
DOT
 62
     4
 10
27318.45825789994
 20
13336.38612592871
 30
0.0
 11
27314.511080100121
 21
13327.399851909409
 31
0.0
  0
LINE
  5
785
  8
____1
  6
DOT
 62
     4
 10
27298.94639692796
 20
13334.23656440521
 30
0.0
 11
27302.893574727779
 21
13343.22283842451
 31
0.0
  0
LINE
  5
786
  8
____1
  6
DOT
 62
     4
 10
27304.75514961412
 20
13326.325071147659
 30
0.0
 11
27298.94639692796
 21
13334.23656440521
 31
0.0
  0
LINE
  5
787
  8
____1
  6
DOT
 62
     4
 10
27314.511080100121
 20
13327.399851909409
 30
0.0
 11
27304.75514961412
 21
13326.325071147659
 31
0.0
  0
LINE
  5
788
  8
____1
  6
DOT
 62
     4
 10
27312.64950521378
 20
13344.297619186271
 30
0.0
 11
27318.45825789994
 21
13336.38612592871
 31
0.0
  0
CIRCLE
  5
789
  8
____1
  6
DOT
 62
     4
 10
27308.702327413961
 20
13335.31134516696
 30
0.0
 40
8.5000000000003588
  0
ENDBLK
  5
78A
  8
0
  0
BLOCK
  8
0
  2
C62
 70
     0
 10
0.0
 20
0.0
 30
0.0
  3
C62
  1

  0
CIRCLE
  5
78E
  8
____1
  6
DOT
 62
     4
 10
27160.74529309291
 20
13536.827389180629
 30
0.0
 40
5.2499999999985558
  0
CIRCLE
  5
78F
  8
____1
  6
DOT
 62
     4
 10
27308.702202915221
 20
13335.310788679941
 30
0.0
 40
4.9999999999978586
  0
CIRCLE
  5
790
  8
____1
  6
DOT
 62
     4
 10
27308.702202915221
 20
13335.310788679941
 30
0.0
 40
4.2499999999998463
  0
LINE
  5
791
  8
____1
  6
DOT
 62
     4
 10
27318.778129298469
 20
13342.70919731363
 30
0.0
 11
27170.821095293591
 21
13544.225240896691
 31
0.0
  0
ARC
  5
792
  8
____1
  6
DOT
 62
     4
 10
27308.702327413961
 20
13335.31134516696
 30
0.0
 40
12.500000000002011
 50
-143.7131358459126
 51
36.28684841966151
  0
LINE
  5
793
  8
____1
  6
DOT
 62
     4
 10
27298.62652756102
 20
13327.913490253301
 30
0.0
 11
27150.669490892222
 21
13529.429537464581
 31
0.0
  0
ARC
  5
794
  8
____1
  6
DOT
 62
     4
 10
27160.74529309291
 20
13536.827389180629
 30
0.0
 40
12.49999999999886
 50
36.286845779973731
 51
-143.71315161403041
  0
ENDBLK
  5
795
  8
0
  0
BLOCK
  8
0
  2
C63
 70
     0
 10
0.0
 20
0.0
 30
0.0
  3
C63
  1

  0
INSERT
  5
7A6
  8
____1
  6
DASHED2
 62
     4
  2
C64
 10
0.0
 20
0.0
 30
0.0
  0
INSERT
  5
7B1
  8
____1
  6
DASHED2
 62
     4
  2
C65
 10
0.0
 20
0.0
 30
0.0
  0
ENDBLK
  5
7B2
  8
0
  0
BLOCK
  8
0
  2
C64
 70
     0
 10
0.0
 20
0.0
 30
0.0
  3
C64
  1

  0
CIRCLE
  5
79D
  8
____1
  6
DOT
 62
     4
 10
27308.702505653178
 20
13225.311271926739
 30
0.0
 40
14.999999999997129
  0
LINE
  5
79E
  8
____1
  6
DOT
 62
     4
 10
27305.860476410689
 20
13234.705749193639
 30
0.0
 11
27315.417347000341
 21
13232.469780082491
 31
0.0
  0
LINE
  5
79F
  8
____1
  6
DOT
 62
     4
 10
27318.259376242819
 20
13223.0753028156
 30
0.0
 11
27311.54453489566
 21
13215.91679465985
 31
0.0
  0
LINE
  5
7A0
  8
____1
  6
DOT
 62
     4
 10
27299.145635063531
 20
13227.54724103789
 30
0.0
 11
27305.860476410689
 21
13234.705749193639
 31
0.0
  0
LINE
  5
7A1
  8
____1
  6
DOT
 62
     4
 10
27301.987664306009
 20
13218.152763771001
 30
0.0
 11
27299.145635063531
 21
13227.54724103789
 31
0.0
  0
LINE
  5
7A2
  8
____1
  6
DOT
 62
     4
 10
27311.54453489566
 20
13215.91679465985
 30
0.0
 11
27301.987664306009
 21
13218.152763771001
 31
0.0
  0
LINE
  5
7A3
  8
____1
  6
DOT
 62
     4
 10
27315.417347000341
 20
13232.469780082491
 30
0.0
 11
27318.259376242819
 21
13223.0753028156
 31
0.0
  0
CIRCLE
  5
7A4
  8
____1
  6
DOT
 62
     4
 10
27308.702505653178
 20
13225.311271926739
 30
0.0
 40
8.4999999999974243
  0
ENDBLK
  5
7A5
  8
0
  0
BLOCK
  8
0
  2
C65
 70
     0
 10
0.0
 20
0.0
 30
0.0
  3
C65
  1

  0
CIRCLE
  5
7A9
  8
____1
  6
DOT
 62
     4
 10
27236.31181429615
 20
13464.601028926179
 30
0.0
 40
5.2500000000024407
  0
CIRCLE
  5
7AA
  8
____1
  6
DOT
 62
     4
 10
27308.702202915221
 20
13225.31078867995
 30
0.0
 40
4.9999999999982876
  0
CIRCLE
  5
7AB
  8
____1
  6
DOT
 62
     4
 10
27308.702202915221
 20
13225.31078867995
 30
0.0
 40
4.249999999997855
  0
LINE
  5
7AC
  8
____1
  6
DOT
 62
     4
 10
27320.666993348459
 20
13228.930807005931
 30
0.0
 11
27248.276302146129
 21
13468.22056349404
 31
0.0
  0
ARC
  5
7AD
  8
____1
  6
DOT
 62
     4
 10
27308.702505653178
 20
13225.311271926739
 30
0.0
 40
12.500000000001391
 50
-163.16820057516199
 51
16.83178369039172
  0
LINE
  5
7AE
  8
____1
  6
DOT
 62
     4
 10
27296.738018951881
 20
13221.6917335619
 30
0.0
 11
27224.347326446179
 21
13460.981494358341
 31
0.0
  0
ARC
  5
7AF
  8
____1
  6
DOT
 62
     4
 10
27236.31181429615
 20
13464.601028926179
 30
0.0
 40
12.50000000000129
 50
16.831781050727461
 51
-163.168216343295
  0
ENDBLK
  5
7B0
  8
0
  0
BLOCK
  8
0
  2
C66
 70
     0
 10
0.0
 20
0.0
 30
0.0
  3
C66
  1

  0
LINE
  5
7C9
  8
____1
  6
DASHED2
 62
     7
 10
27328.789964415391
 20
13028.828161236859
 30
0.0
 11
27357.503989784989
 21
13036.559640841961
 31
0.0
  0
LINE
  5
7CA
  8
____1
  6
DASHED2
 62
     7
 10
27329.055710588509
 20
13026.82848413994
 30
0.0
 11
27358.023985675842
 21
13034.628422502799
 31
0.0
  0
LINE
  5
7CB
  8
____1
  6
DASHED2
 62
     7
 10
27329.055710588509
 20
13026.82848413994
 30
0.0
 11
27286.055742625169
 21
13026.775994596401
 31
0.0
  0
LINE
  5
7CC
  8
____1
  6
DASHED2
 62
     7
 10
27324.055714313708
 20
13026.822380704651
 30
0.0
 11
27324.0532729396
 21
13028.822379214571
 31
0.0
  0
LINE
  5
7CD
  8
____1
  6
DASHED2
 62
     7
 10
27286.041094380471
 20
13038.77598565593
 30
0.0
 11
27284.04109587054
 21
13038.77354428181
 31
0.0
  0
LINE
  5
7CE
  8
____1
  6
DASHED2
 62
     7
 10
27284.053302740191
 20
13028.773552507329
 30
0.0
 11
27284.026447625842
 21
13050.77353534135
 31
0.0
  0
LINE
  5
7CF
  8
____1
  6
DASHED2
 62
     7
 10
27357.503989784989
 20
13036.559640841961
 30
0.0
 11
27358.023985675842
 21
13034.628422502799
 31
0.0
  0
LINE
  5
7D0
  8
____1
  6
DASHED2
 62
     7
 10
27286.026446135769
 20
13050.77597671546
 30
0.0
 11
27286.05330125106
 21
13028.775993106319
 31
0.0
  0
LINE
  5
7D1
  8
____1
  6
DASHED2
 62
     7
 10
27286.026446135769
 20
13050.77597671546
 30
0.0
 11
27284.026447625842
 21
13050.77353534135
 31
0.0
  0
LINE
  5
7D2
  8
____1
  6
DASHED2
 62
     7
 10
27287.223924828399
 20
13048.38153014811
 30
0.0
 11
27286.022245446929
 21
13046.78279106242
 31
0.0
  0
ARC
  5
7D3
  8
____1
  6
DASHED2
 62
     7
 10
27289.02644390065
 20
13050.779638776639
 30
0.0
 40
4.9999999999986997
 50
-126.93005976596361
 51
-179.93005976600429
  0
ARC
  5
7D4
  8
____1
  6
DASHED2
 62
     7
 10
27289.02644390065
 20
13050.779638776639
 30
0.0
 40
3.000000000001259
 50
-126.93005976600389
 51
-179.93005976600421
  0
LINE
  5
7D5
  8
____1
  6
DASHED2
 62
     7
 10
27284.053302740191
 20
13028.773552507329
 30
0.0
 11
27284.026447625842
 21
13050.77353534135
 31
0.0
  0
ARC
  5
7D6
  8
____1
  6
DASHED2
 62
     7
 10
27286.05330125106
 20
13028.775993106319
 30
0.0
 40
1.999999999997544
 50
-179.93008197189999
 51
-89.930059766108656
  0
LINE
  5
7D7
  8
____1
  6
DASHED2
 62
     7
 10
27328.789964415391
 20
13028.828161236859
 30
0.0
 11
27286.05330125106
 21
13028.775993106319
 31
0.0
  0
ENDBLK
  5
7D8
  8
0
  0
BLOCK
  8
0
  2
C67
 70
     0
 10
0.0
 20
0.0
 30
0.0
  3
C67
  1

  0
INSERT
  5
7E7
  8
____1
  6
DASHED2
 62
     7
  2
C68
 10
0.0
 20
0.0
 30
0.0
  0
ENDBLK
  5
7E8
  8
0
  0
BLOCK
  8
0
  2
C68
 70
     0
 10
0.0
 20
0.0
 30
0.0
  3
C68
  1

  0
LINE
  5
7DE
  8
____1
  6
DASHED2
 62
     7
 10
27314.250356536071
 20
13020.81078867995
 30
0.0
 11
27319.869617984419
 21
13020.81078867995
 31
0.0
  0
LINE
  5
7DF
  8
____1
  6
DASHED2
 62
     7
 10
27297.392572191049
 20
13020.81078867995
 30
0.0
 11
27303.01183363939
 21
13020.81078867995
 31
0.0
  0
ARC
  5
7E0
  8
____1
  6
DASHED2
 62
     7
 10
27315.554949747449
 20
13034.31078867995
 30
0.0
 40
5.0000000000002851
 50
-27.152325537555772
 51
152.8477345665323
  0
ARC
  5
7E1
  8
____1
  6
DASHED2
 62
     7
 10
27315.554949747449
 20
13034.31078867995
 30
0.0
 40
10.0000000000014
 50
-27.152325537564561
 51
152.84773456652309
  0
LINE
  5
7E2
  8
____1
  6
DASHED2
 62
     7
 10
27320.003930579249
 20
13032.028997813481
 30
0.0
 11
27314.250356536071
 21
13020.81078867995
 31
0.0
  0
LINE
  5
7E3
  8
____1
  6
DASHED2
 62
     7
 10
27311.105964128401
 20
13036.59257021232
 30
0.0
 11
27303.01183363939
 21
13020.81078867995
 31
0.0
  0
LINE
  5
7E4
  8
____1
  6
DASHED2
 62
     7
 10
27324.452913804678
 20
13029.74721161406
 30
0.0
 11
27319.869617984419
 21
13020.81078867995
 31
0.0
  0
LINE
  5
7E5
  8
____1
  6
DASHED2
 62
     7
 10
27306.656980902972
 20
13038.874356411739
 30
0.0
 11
27297.392572191049
 21
13020.81078867995
 31
0.0
  0
ENDBLK
  5
7E6
  8
0
  0
BLOCK
  8
0
  2
C69
 70
     0
 10
0.0
 20
0.0
 30
0.0
  3
C69
  1

  0
LINE
  5
7F1
  8
____1
  6
DASHED2
 62
     7
 10
27281.652202915218
 20
13019.3197805945
 30
0.0
 11
27281.652202915218
 21
13014.31078867995
 31
0.0
  0
ARC
  5
7F2
  8
____1
  6
DASHED2
 62
     7
 10
27280.957752066821
 20
13018.777214352131
 30
0.0
 40
0.5000000000016796
 50
93.433630362150907
 51
151.1023772631753
  0
LINE
  5
7F3
  8
____1
  6
DASHED2
 62
     7
 10
27281.652202915218
 20
13019.3197805945
 30
0.0
 11
27280.927805921448
 21
13019.276316774871
 31
0.0
  0
LINE
  5
7F4
  8
____1
  6
DASHED2
 62
     7
 10
27279.452202915221
 20
13014.3343422774
 30
0.0
 11
27279.452202915221
 21
13013.31078867995
 31
0.0
  0
POLYLINE
  5
7F5
  8
____1
  6
DASHED2
 62
     7
 66
     1
 10
0.0
 20
0.0
 30
0.0
 70
     8
  0
VERTEX
  5
7F6
  8
____1
 62
     7
 10
27280.520009777742
 20
13019.018837381571
 30
0.0
 70
    32
  0
VERTEX
  5
7F7
  8
____1
 62
     7
 10
27280.23102568791
 20
13018.47283782424
 30
0.0
 70
    32
  0
VERTEX
  5
7F8
  8
____1
 62
     7
 10
27279.981272771241
 20
13017.91451510518
 30
0.0
 70
    32
  0
VERTEX
  5
7F9
  8
____1
 62
     7
 10
27279.83589823596
 20
13017.491884351381
 30
0.0
 70
    32
  0
VERTEX
  5
7FA
  8
____1
 62
     7
 10
27279.722007087112
 20
13017.05936414409
 30
0.0
 70
    32
  0
VERTEX
  5
7FB
  8
____1
 62
     7
 10
27279.57098863486
 20
13016.170210933329
 30
0.0
 70
    32
  0
VERTEX
  5
7FC
  8
____1
 62
     7
 10
27279.49284478679
 20
13015.258166601539
 30
0.0
 70
    32
  0
VERTEX
  5
7FD
  8
____1
 62
     7
 10
27279.452202915221
 20
13014.334342277371
 30
0.0
 70
    32
  0
SEQEND
  5
7FE
  8
____1
 62
     7
  0
LINE
  5
7FF
  8
____1
  6
DASHED2
 62
     7
 10
27285.452202915221
 20
13014.23922129397
 30
0.0
 11
27285.452202915221
 21
13013.31078867995
 31
0.0
  0
ARC
  5
800
  8
____1
  6
DASHED2
 62
     7
 10
27276.39282750605
 20
13014.72485217404
 30
0.0
 40
9.0723822756758814
 50
-3.068422799917947
 51
28.211078854500879
  0
LINE
  5
801
  8
____1
  6
DASHED2
 62
     7
 10
27283.252202915221
 20
13019.3197805945
 30
0.0
 11
27283.976860312789
 21
13019.276301150639
 31
0.0
  0
ARC
  5
802
  8
____1
  6
DASHED2
 62
     7
 10
27283.94691416742
 20
13018.77719872791
 30
0.0
 40
0.5000000000021153
 50
28.211078854051308
 51
86.56636963701682
  0
LINE
  5
803
  8
____1
  6
DASHED2
 62
     7
 10
27283.252202915221
 20
13019.3197805945
 30
0.0
 11
27283.252202915221
 21
13014.31078867995
 31
0.0
  0
ARC
  5
804
  8
____1
  6
DASHED2
 62
     7
 10
27284.452202915221
 20
13013.31078867995
 30
0.0
 40
1.0
 50
-90.0
 51
0.0
  0
LINE
  5
805
  8
____1
  6
DASHED2
 62
     7
 10
27284.452202915221
 20
13012.31078867995
 30
0.0
 11
27280.452202915221
 21
13012.31078867995
 31
0.0
  0
ARC
  5
806
  8
____1
  6
DASHED2
 62
     7
 10
27280.452202915221
 20
13013.31078867995
 30
0.0
 40
1.0
 50
180.0
 51
-90.0
  0
LINE
  5
807
  8
____1
  6
DASHED2
 62
     7
 10
27283.252202915221
 20
13014.31078867995
 30
0.0
 11
27281.652202915218
 21
13014.31078867995
 31
0.0
  0
ENDBLK
  5
808
  8
0
  0
BLOCK
  8
0
  2
C70
 70
     0
 10
0.0
 20
0.0
 30
0.0
  3
C70
  1

  0
CIRCLE
  5
80C
  8
____1
  6
CONTINUOUS
 62
     7
 10
27310.42773304482
 20
13444.29749876821
 30
0.0
 40
8.0
  0
LINE
  5
80D
  8
____1
  6
CONTINUOUS
 62
     7
 10
27302.42773304482
 20
13448.916300921721
 30
0.0
 11
27302.42773304482
 21
13439.67869661469
 31
0.0
  0
LINE
  5
80E
  8
____1
  6
CONTINUOUS
 62
     7
 10
27310.42773304482
 20
13453.535103075241
 30
0.0
 11
27302.42773304482
 21
13448.916300921721
 31
0.0
  0
LINE
  5
80F
  8
____1
  6
CONTINUOUS
 62
     7
 10
27318.42773304482
 20
13448.916300921721
 30
0.0
 11
27310.42773304482
 21
13453.535103075241
 31
0.0
  0
LINE
  5
810
  8
____1
  6
CONTINUOUS
 62
     7
 10
27318.42773304482
 20
13439.67869661469
 30
0.0
 11
27318.42773304482
 21
13448.916300921721
 31
0.0
  0
LINE
  5
811
  8
____1
  6
CONTINUOUS
 62
     7
 10
27310.42773304482
 20
13435.05989446117
 30
0.0
 11
27318.42773304482
 21
13439.67869661469
 31
0.0
  0
LINE
  5
812
  8
____1
  6
CONTINUOUS
 62
     7
 10
27302.42773304482
 20
13439.67869661469
 30
0.0
 11
27310.42773304482
 21
13435.05989446117
 31
0.0
  0
ENDBLK
  5
813
  8
0
  0
BLOCK
  8
0
  2
C71
 70
     0
 10
0.0
 20
0.0
 30
0.0
  3
C71
  1

  0
CIRCLE
  5
817
  8
____1
  6
CONTINUOUS
 62
     7
 10
27302.202202915221
 20
13194.43285410216
 30
0.0
 40
14.999999999998529
  0
CIRCLE
  5
818
  8
____1
  6
CONTINUOUS
 62
     7
 10
27302.201761114811
 20
13194.432493560729
 30
0.0
 40
8.5000000000009504
  0
LINE
  5
819
  8
____1
  6
CONTINUOUS
 62
     7
 10
27311.806294487691
 20
13192.41104061238
 30
0.0
 11
27305.253398195411
 21
13185.103997194141
 31
0.0
  0
ARC
  5
81A
  8
____1
  6
CONTINUOUS
 62
     7
 10
27310.42773304482
 20
13444.297498768199
 30
0.0
 40
12.50000000000527
 50
-1.8854931280389871
 51
178.11450947794751
  0
LINE
  5
81B
  8
____1
  6
CONTINUOUS
 62
     7
 10
27295.64886482252
 20
13187.125450142499
 30
0.0
 11
27292.59722774191
 21
13196.4539465091
 31
0.0
  0
LINE
  5
81C
  8
____1
  6
CONTINUOUS
 62
     7
 10
27292.59722774191
 20
13196.4539465091
 30
0.0
 11
27299.15012403419
 21
13203.76098992733
 31
0.0
  0
LINE
  5
81D
  8
____1
  6
CONTINUOUS
 62
     7
 10
27299.15012403419
 20
13203.76098992733
 30
0.0
 11
27308.754657407069
 21
13201.739536978979
 31
0.0
  0
LINE
  5
81E
  8
____1
  6
CONTINUOUS
 62
     7
 10
27305.253398195411
 20
13185.103997194141
 30
0.0
 11
27295.64886482252
 21
13187.125450142499
 31
0.0
  0
LINE
  5
81F
  8
____1
  6
CONTINUOUS
 62
     7
 10
27308.754657407069
 20
13201.739536978979
 30
0.0
 11
27311.806294487691
 21
13192.41104061238
 31
0.0
  0
ARC
  5
820
  8
____1
  6
CONTINUOUS
 62
     7
 10
27310.42773304482
 20
13444.297498768199
 30
0.0
 40
12.50000000000527
 50
-1.8854931280389871
 51
178.11450947794751
  0
LINE
  5
821
  8
____1
  6
CONTINUOUS
 62
     7
 10
27289.981780653339
 20
13203.13120335597
 30
0.0
 11
27297.93450081152
 21
13444.70877527469
 31
0.0
  0
LINE
  5
822
  8
____1
  6
CONTINUOUS
 62
     7
 10
27314.968245119951
 20
13202.30865034301
 30
0.0
 11
27322.920965278128
 21
13443.88622226173
 31
0.0
  0
ENDBLK
  5
823
  8
0
  0
BLOCK
  8
0
  2
C72
 70
     0
 10
0.0
 20
0.0
 30
0.0
  3
C72
  1

  0
LINE
  5
827
  8
____1
  6
DASHED2
 62
     7
 10
27324.908191248818
 20
13460.31518680995
 30
0.0
 11
27324.94725323471
 21
13428.315210651181
 31
0.0
  0
ARC
  5
828
  8
____1
  6
DASHED2
 62
     7
 10
27323.40819236638
 20
13460.313355779361
 30
0.0
 40
2.9999999999929292
 50
0.069940233961038
 51
90.069940233995624
  0
LINE
  5
829
  8
____1
  6
DASHED2
 62
     7
 10
27326.408190131249
 20
13460.317017840531
 30
0.0
 11
27326.447252117159
 21
13428.317041681779
 31
0.0
  0
ARC
  5
82A
  8
____1
  6
DASHED2
 62
     7
 10
27323.447254352272
 20
13428.3133796206
 30
0.0
 40
1.500000000003737
 50
-89.930059765865437
 51
0.0699402338564784
  0
ARC
  5
82B
  8
____1
  6
DASHED2
 62
     7
 10
27323.447254352272
 20
13428.3133796206
 30
0.0
 40
3.000000000003848
 50
-89.930059766143359
 51
0.0699402340302638
  0
ARC
  5
82C
  8
____1
  6
DASHED2
 62
     7
 10
27323.40819236638
 20
13460.313355779361
 30
0.0
 40
1.500000000003743
 50
0.0699402340649191
 51
90.069940233995538
  0
CIRCLE
  5
82D
  8
____1
  6
DASHED2
 62
     7
 10
27310.427733044809
 20
13444.297498768199
 30
0.0
 40
4.2499999999960627
  0
LINE
  5
82E
  8
____1
  6
DASHED2
 62
     7
 10
27282.40639188237
 20
13461.76330649237
 30
0.0
 11
27323.40636133579
 21
13461.813354661799
 31
0.0
  0
LINE
  5
82F
  8
____1
  6
DASHED2
 62
     7
 10
27323.449085382861
 20
13426.813380738149
 30
0.0
 11
27282.449115929448
 21
13426.763332568729
 31
0.0
  0
LINE
  5
830
  8
____1
  6
DASHED2
 62
     7
 10
27282.404560851781
 20
13463.26330537482
 30
0.0
 11
27323.404530305201
 21
13463.313353544239
 31
0.0
  0
CIRCLE
  5
831
  8
____1
  6
DASHED2
 62
     7
 10
27310.427733044809
 20
13444.297498768199
 30
0.0
 40
4.9999999999979341
  0
LINE
  5
832
  8
____1
  6
DASHED2
 62
     7
 10
27323.45091641344
 20
13425.313381855711
 30
0.0
 11
27282.450946960031
 21
13425.263333686289
 31
0.0
  0
ARC
  5
833
  8
____1
  6
DASHED2
 62
     7
 10
27282.40822291296
 20
13460.263307609939
 30
0.0
 40
1.4999999999928271
 50
90.069940233995951
 51
-179.93005976586571
  0
ARC
  5
834
  8
____1
  6
DASHED2
 62
     7
 10
27282.447284898859
 20
13428.26333145118
 30
0.0
 40
3.000000000003852
 50
-179.93005976590021
 51
-89.930059766212835
  0
ARC
  5
835
  8
____1
  6
DASHED2
 62
     7
 10
27282.40822291296
 20
13460.263307609939
 30
0.0
 40
3.0000000000002109
 50
90.069940234065115
 51
-179.93005976596959
  0
LINE
  5
836
  8
____1
  6
DASHED2
 62
     7
 10
27279.447287133971
 20
13428.25966938999
 30
0.0
 11
27279.40822514808
 21
13460.259645548749
 31
0.0
  0
LINE
  5
837
  8
____1
  6
DASHED2
 62
     7
 10
27280.94728601641
 20
13428.261500420591
 30
0.0
 11
27280.908224030511
 21
13460.261476579341
 31
0.0
  0
ARC
  5
838
  8
____1
  6
DASHED2
 62
     7
 10
27282.447284898859
 20
13428.26333145118
 30
0.0
 40
1.500000000000099
 50
-179.9300597660046
 51
-89.930059766143359
  0
LINE
  5
839
  8
____1
  6
DASHED2
 62
     7
 10
27323.449085382861
 20
13426.813380738149
 30
0.0
 11
27282.449115929448
 21
13426.763332568729
 31
0.0
  0
ENDBLK
  5
83A
  8
0
  0
BLOCK
  8
0
  2
C73
 70
     0
 10
0.0
 20
0.0
 30
0.0
  3
C73
  1

  0
ARC
  5
841
  8
____1
  6
DASHED2
 62
     7
 10
27288.526444273492
 20
13050.77902843312
 30
0.0
 40
15.00000000000283
 50
-89.930059766073882
 51
90.069940234037318
  0
ARC
  5
842
  8
____1
  6
DASHED2
 62
     7
 10
27288.526444273492
 20
13050.77902843312
 30
0.0
 40
5.5000000000046017
 50
-89.930059766193935
 51
90.069940234109396
  0
LINE
  5
843
  8
____1
  6
DASHED2
 62
     7
 10
27281.881216792059
 20
13065.77092785947
 30
0.0
 11
27281.892813319129
 21
13056.27093493734
 31
0.0
  0
LINE
  5
844
  8
____1
  6
DASHED2
 62
     7
 10
27281.875113356749
 20
13070.770924134271
 30
0.0
 11
27281.881216792059
 21
13065.77092785947
 31
0.0
  0
LINE
  5
845
  8
____1
  6
DASHED2
 62
     7
 10
27281.917837403831
 20
13035.77095021063
 30
0.0
 11
27281.92394083913
 21
13030.77095393582
 31
0.0
  0
LINE
  5
846
  8
____1
  6
DASHED2
 62
     7
 10
27279.892814809202
 20
13056.268493563221
 30
0.0
 11
27288.519730494649
 21
13056.279024335399
 31
0.0
  0
LINE
  5
847
  8
____1
  6
DASHED2
 62
     7
 10
27279.906242366851
 20
13045.268501758639
 30
0.0
 11
27288.533158052291
 21
13045.279032530831
 31
0.0
  0
LINE
  5
848
  8
____1
  6
DASHED2
 62
     7
 10
27288.508133967582
 20
13065.77901725753
 30
0.0
 11
27279.881218282138
 21
13065.768486485351
 31
0.0
  0
LINE
  5
849
  8
____1
  6
DASHED2
 62
     7
 10
27279.917838893911
 20
13035.768508836511
 30
0.0
 11
27288.544754579361
 21
13035.7790396087
 31
0.0
  0
LINE
  5
84A
  8
____1
  6
DASHED2
 62
     7
 10
27279.906242366851
 20
13045.268501758639
 30
0.0
 11
27279.923942329198
 21
13030.76851256171
 31
0.0
  0
LINE
  5
84B
  8
____1
  6
DASHED2
 62
     7
 10
27279.923942329198
 20
13030.76851256171
 30
0.0
 11
27281.92394083913
 21
13030.77095393582
 31
0.0
  0
LINE
  5
84C
  8
____1
  6
DASHED2
 62
     7
 10
27281.875113356749
 20
13070.770924134271
 30
0.0
 11
27279.875114846829
 21
13070.768482760161
 31
0.0
  0
LINE
  5
84D
  8
____1
  6
DASHED2
 62
     7
 10
27279.875114846829
 20
13070.768482760161
 30
0.0
 11
27279.892814809202
 21
13056.268493563221
 31
0.0
  0
LINE
  5
84E
  8
____1
  6
DASHED2
 62
     7
 10
27281.906240876771
 20
13045.27094313276
 30
0.0
 11
27281.917837403831
 21
13035.77095021063
 31
0.0
  0
ENDBLK
  5
84F
  8
0
  0
BLOCK
  8
0
  2
C74
 70
     0
 10
0.0
 20
0.0
 30
0.0
  3
C74
  1

  0
CIRCLE
  5
853
  8
____1
  6
DOT
 62
     4
 10
27236.31160135808
 20
13464.60061639722
 30
0.0
 40
4.2499999999974802
  0
CIRCLE
  5
854
  8
____1
  6
DOT
 62
     4
 10
27236.31160135808
 20
13464.60061639722
 30
0.0
 40
4.9999999999946061
  0
LINE
  5
855
  8
____1
  6
DOT
 62
     4
 10
27257.421132462281
 20
13472.748480937171
 30
0.0
 11
27244.459465898039
 21
13443.49108529303
 31
0.0
  0
LINE
  5
856
  8
____1
  6
DOT
 62
     4
 10
27218.407369691999
 20
13493.31365330464
 30
0.0
 11
27255.89340786104
 21
13476.706518019209
 31
0.0
  0
LINE
  5
857
  8
____1
  6
DOT
 62
     4
 10
27240.501428815998
 20
13441.9633606918
 30
0.0
 11
27203.01539064696
 21
13458.57049597723
 31
0.0
  0
LINE
  5
858
  8
____1
  6
DOT
 62
     4
 10
27201.487666045719
 20
13462.52853305926
 30
0.0
 11
27214.449332609969
 21
13491.785928703401
 31
0.0
  0
LINE
  5
859
  8
____1
  6
DOT
 62
     4
 10
27026.302641388429
 20
13067.09654505648
 30
0.0
 11
27065.202308006221
 21
13049.8631414312
 31
0.0
  0
LINE
  5
85A
  8
____1
  6
DOT
 62
     4
 10
27285.535972673231
 20
13652.24445793919
 30
0.0
 11
27324.435639291009
 21
13635.011054313911
 31
0.0
  0
LINE
  5
85B
  8
____1
  6
DOT
 62
     4
 10
27283.576600842931
 20
13651.52313578863
 30
0.0
 11
27145.447118499142
 21
13364.30991019971
 31
0.0
  0
LINE
  5
85C
  8
____1
  6
DOT
 62
     4
 10
27025.52047069425
 20
13069.03243054367
 30
0.0
 11
27145.447118499142
 21
13364.30991019971
 31
0.0
  0
ARC
  5
85D
  8
____1
  6
DOT
 62
     4
 10
27241.716585056409
 20
13444.706241533429
 30
0.0
 40
3.000000000002927
 50
-113.8943907907103
 51
-23.894390790558791
  0
ARC
  5
85E
  8
____1
  6
DOT
 62
     4
 10
27254.678251620651
 20
13473.96363717757
 30
0.0
 40
2.999999999992212
 50
-23.89439079061146
 51
66.105609209522413
  0
ARC
  5
85F
  8
____1
  6
DOT
 62
     4
 10
27284.928394553041
 20
13650.873017518379
 30
0.0
 40
1.499999999996485
 50
66.105609209698926
 51
154.31569860107129
  0
ARC
  5
860
  8
____1
  6
DOT
 62
     4
 10
27065.809886126412
 20
13051.234581852021
 30
0.0
 40
1.499999999993348
 50
-113.8943907902021
 51
-23.894390790379081
  0
ARC
  5
861
  8
____1
  6
DOT
 62
     4
 10
27323.8280611708
 20
13633.6396138931
 30
0.0
 40
1.4999999999972
 50
-23.894390790273739
 51
66.105609208951094
  0
ARC
  5
862
  8
____1
  6
DOT
 62
     4
 10
27217.192213451599
 20
13490.570772462999
 30
0.0
 40
3.0000000000053269
 50
66.10560920942352
 51
156.10560920935669
  0
ARC
  5
863
  8
____1
  6
DOT
 62
     4
 10
27204.230546887371
 20
13461.313376818871
 30
0.0
 40
3.000000000008106
 50
156.10560920956101
 51
-113.8943907909009
  0
ARC
  5
864
  8
____1
  6
DOT
 62
     4
 10
27026.910219508631
 20
13068.467985477309
 30
0.0
 40
1.500000000001444
 50
157.89551981759709
 51
-113.8943907905978
  0
LINE
  5
865
  8
____1
  6
DOT
 62
     4
 10
27067.181326547241
 20
13050.627003731821
 30
0.0
 11
27240.543760588818
 21
13441.944994936641
 31
0.0
  0
LINE
  5
866
  8
____1
  6
DOT
 62
     4
 10
27255.935452144098
 20
13476.68750333503
 30
0.0
 11
27325.19950159164
 21
13633.0320357729
 31
0.0
  0
LINE
  5
867
  8
____1
  6
DOT
 62
     2
 10
27322.033280308831
 20
13630.930550843261
 30
0.0
 11
27320.37112552168
 21
13627.19102651663
 31
0.0
  0
LINE
  5
868
  8
____1
  6
DOT
 62
     2
 10
27323.071965078569
 20
13628.22971128636
 30
0.0
 11
27319.332440751939
 21
13629.89186607352
 31
0.0
  0
ENDBLK
  5
869
  8
0
  0
BLOCK
  8
0
  2
C75
 70
     0
 10
0.0
 20
0.0
 30
0.0
  3
C75
  1

  0
ARC
  5
86D
  8
____1
  6
DASHED2
 62
     7
 10
27308.702202915221
 20
13225.310788679941
 30
0.0
 40
4.9999999989802957
 50
-101.5369590352006
 51
9.9999999999612061
  0
LINE
  5
86E
  8
____1
  6
DASHED2
 62
     7
 10
27313.626241680278
 20
13226.17902956828
 30
0.0
 11
27307.702202915221
 21
13259.77592291528
 31
0.0
  0
LINE
  5
86F
  8
____1
  6
DASHED2
 62
     7
 10
27307.702202915221
 20
13259.77592291528
 30
0.0
 11
27307.702202915221
 21
13330.41180919438
 31
0.0
  0
ARC
  5
870
  8
____1
  6
DASHED2
 62
     7
 10
27308.702202915221
 20
13335.310788679941
 30
0.0
 40
4.9999999999997371
 50
-101.5369590328161
 51
10.000000000015961
  0
LINE
  5
871
  8
____1
  6
DASHED2
 62
     7
 10
27313.626241680278
 20
13336.17902956828
 30
0.0
 11
27307.702202915221
 21
13369.77592291528
 31
0.0
  0
LINE
  5
872
  8
____1
  6
DASHED2
 62
     7
 10
27307.702202915221
 20
13369.77592291528
 30
0.0
 11
27307.703299768651
 21
13439.53839436713
 31
0.0
  0
ARC
  5
873
  8
____1
  6
DASHED2
 62
     7
 10
27312.203390526189
 20
13445.310788679941
 30
0.0
 40
5.9999999999989893
 50
-93.000000000006111
 51
84.999999999991516
  0
LINE
  5
874
  8
____1
  6
DASHED2
 62
     7
 10
27311.88937478873
 20
13439.31901147142
 30
0.0
 11
27307.703299768651
 21
13439.53839436713
 31
0.0
  0
LINE
  5
875
  8
____1
  6
DASHED2
 62
     7
 10
27312.726324982679
 20
13451.287956868489
 30
0.0
 11
27302.681559500332
 21
13452.16675997598
 31
0.0
  0
ARC
  5
876
  8
____1
  6
DASHED2
 62
     7
 10
27302.202202915221
 20
13446.68768913647
 30
0.0
 40
5.5
 50
84.999999999977547
 51
180.0
  0
LINE
  5
877
  8
____1
  6
DASHED2
 62
     7
 10
27329.202202915221
 20
13499.61078867994
 30
0.0
 11
27329.202202915221
 21
13155.010788679951
 31
0.0
  0
LINE
  5
878
  8
____1
  6
DASHED2
 62
     7
 10
27331.702202915221
 20
13155.010788679951
 30
0.0
 11
27329.202202915221
 21
13155.010788679951
 31
0.0
  0
LINE
  5
879
  8
____1
  6
CONTINUOUS
 62
     7
 10
27296.702202915221
 20
13445.310788679941
 30
0.0
 11
27296.702202915221
 21
13446.185675315201
 31
0.0
  0
LINE
  5
87A
  8
____1
  6
CONTINUOUS
 62
     7
 10
27296.702202915221
 20
13446.185675315201
 30
0.0
 11
27296.702202915221
 21
13446.68768913647
 31
0.0
  0
LINE
  5
87B
  8
____1
  6
DASHED2
 62
     7
 10
27286.702202915221
 20
13152.310788679941
 30
0.0
 11
27329.202202915221
 21
13152.310788679941
 31
0.0
  0
LINE
  5
87C
  8
____1
  6
DASHED2
 62
     7
 10
27329.202202915221
 20
13502.310788679941
 30
0.0
 11
27329.202202915221
 21
13499.61078867994
 31
0.0
  0
LINE
  5
87D
  8
____1
  6
DASHED2
 62
     7
 10
27331.702202915221
 20
13499.61078867994
 30
0.0
 11
27329.202202915221
 21
13499.61078867994
 31
0.0
  0
LINE
  5
87E
  8
____1
  6
DASHED2
 62
     7
 10
27331.702202915221
 20
13155.010788679951
 30
0.0
 11
27331.702202915221
 21
13499.61078867994
 31
0.0
  0
LINE
  5
87F
  8
____1
  6
DASHED2
 62
     7
 10
27329.202202915221
 20
13152.310788679941
 30
0.0
 11
27329.202202915221
 21
13155.010788679951
 31
0.0
  0
LINE
  5
880
  8
____1
  6
DASHED2
 62
     7
 10
27286.702202915221
 20
13502.310788679941
 30
0.0
 11
27329.202202915221
 21
13502.310788679941
 31
0.0
  0
LINE
  5
881
  8
____1
  6
DASHED2
 62
     7
 10
27286.702202915221
 20
13152.310788679941
 30
0.0
 11
27286.702202915221
 21
13502.310788679941
 31
0.0
  0
LINE
  5
882
  8
____1
  6
DASHED2
 62
     7
 10
27286.702202915221
 20
13499.810788679941
 30
0.0
 11
27329.202202915221
 21
13499.810788679941
 31
0.0
  0
LINE
  5
883
  8
____1
  6
DASHED2
 62
     7
 10
27286.702202915221
 20
13154.810788679941
 30
0.0
 11
27329.202202915221
 21
13154.810788679941
 31
0.0
  0
LINE
  5
884
  8
____1
  6
DASHED2
 62
     7
 10
27296.702202915221
 20
13165.81078599307
 30
0.0
 11
27296.702202915221
 21
13446.68768913647
 31
0.0
  0
ARC
  5
885
  8
____1
  6
DASHED2
 62
     7
 10
27302.202202915221
 20
13165.810788679941
 30
0.0
 40
5.5000000000006564
 50
-179.99997200969349
 51
0.0
  0
LINE
  5
886
  8
____1
  6
DASHED2
 62
     7
 10
27307.702202915221
 20
13165.810788679941
 30
0.0
 11
27307.702202915221
 21
13220.411809195421
 31
0.0
  0
ENDBLK
  5
887
  8
0
  0
BLOCK
  8
0
  2
C76
 70
     0
 10
0.0
 20
0.0
 30
0.0
  3
C76
  1

  0
LINE
  5
88B
  8
____1
  6
DASHED2
 62
     7
 10
27313.243774021539
 20
13632.80107671545
 30
0.0
 11
27313.24194299095
 21
13634.301075597899
 31
0.0
  0
LINE
  5
88C
  8
____1
  6
DASHED2
 62
     7
 10
27279.195825599811
 20
13634.25951591201
 30
0.0
 11
27321.74193665812
 21
13634.31145143789
 31
0.0
  0
ARC
  5
88D
  8
____1
  6
DASHED2
 62
     7
 10
27321.74193665812
 20
13634.31145143789
 30
0.0
 40
1.5000000000110221
 50
-89.930059766143017
 51
0.0699402341340601
  0
ARC
  5
88E
  8
____1
  6
CONTINUOUS
 62
     5
 10
27321.74193665812
 20
13634.31145143789
 30
0.0
 40
1.5000000000000939
 50
0.0699402341340601
 51
90.069940233717688
  0
LINE
  5
88F
  8
____1
  6
DASHED2
 62
     7
 10
27279.973403256488
 20
12997.25999050168
 30
0.0
 11
27322.519514314819
 21
12997.31192602756
 31
0.0
  0
ARC
  5
890
  8
____1
  6
CONTINUOUS
 62
     5
 10
27322.51951431483
 20
12997.31192602756
 30
0.0
 40
1.5000000000001079
 50
-89.930059765865437
 51
0.0699402339954389
  0
ARC
  5
891
  8
____1
  6
DASHED2
 62
     7
 10
27322.51951431483
 20
12997.31192602756
 30
0.0
 40
1.500000000003741
 50
0.0699402339954389
 51
90.069940233995624
  0
LINE
  5
892
  8
____1
  6
CONTINUOUS
 62
     5
 10
27324.019513197269
 20
12997.313757058149
 30
0.0
 11
27323.241935540569
 21
13634.313282468491
 31
0.0
  0
LINE
  5
893
  8
____1
  6
CONTINUOUS
 62
     5
 10
27279.975234287089
 20
12995.759991619239
 30
0.0
 11
27322.52134534542
 21
12995.81192714512
 31
0.0
  0
LINE
  5
894
  8
____1
  6
CONTINUOUS
 62
     5
 10
27279.19399456921
 20
13635.759514794459
 30
0.0
 11
27321.740105627541
 21
13635.811450320331
 31
0.0
  0
LINE
  5
895
  8
____1
  6
DASHED2
 62
     7
 10
27314.01952064766
 20
12997.30155018756
 30
0.0
 11
27313.24194299095
 21
13634.301075597899
 31
0.0
  0
LINE
  5
896
  8
____1
  6
CONTINUOUS
 62
     5
 10
27277.696501410901
 20
13634.304537868489
 30
0.0
 11
27268.130765718572
 21
13315.745771631529
 31
0.0
  0
ARC
  5
897
  8
____1
  6
DASHED2
 62
     7
 10
27279.973403256488
 20
12997.25999050168
 30
0.0
 40
1.4999999999954039
 50
-178.1401491578599
 51
-89.930059765726455
  0
LINE
  5
898
  8
____1
  6
CONTINUOUS
 62
     5
 10
27278.474193451158
 20
12997.21130827084
 30
0.0
 11
27268.130765718572
 21
13315.745771631529
 31
0.0
  0
LINE
  5
899
  8
____1
  6
DASHED2
 62
     7
 10
27313.243774021539
 20
13632.80107671545
 30
0.0
 11
27323.243766571159
 21
13632.81328358604
 31
0.0
  0
LINE
  5
89A
  8
____1
  6
DASHED2
 62
     7
 10
27314.017689617081
 20
12998.80154907
 30
0.0
 11
27324.017682166668
 21
12998.81375594059
 31
0.0
  0
LINE
  5
89B
  8
____1
  6
DASHED2
 62
     7
 10
27279.973403256488
 20
12997.25999050168
 30
0.0
 11
27269.631496843609
 21
13315.747603555959
 31
0.0
  0
LINE
  5
89C
  8
____1
  6
DASHED2
 62
     7
 10
27279.195825599811
 20
13634.25951591201
 30
0.0
 11
27269.631496843609
 21
13315.747603555959
 31
0.0
  0
ARC
  5
89D
  8
____1
  6
CONTINUOUS
 62
     5
 10
27279.195825599811
 20
13634.25951591201
 30
0.0
 40
1.5000000000001119
 50
90.069940234273531
 51
178.28002962562169
  0
ENDBLK
  5
89E
  8
0
  0
BLOCK
  8
0
  2
C77
 70
     0
 10
0.0
 20
0.0
 30
0.0
  3
C77
  1

  0
LINE
  5
8AC
  8
____1
  6
DASHED2
 62
     7
 10
27299.702202915221
 20
13625.81078867995
 30
0.0
 11
27299.702202915221
 21
13623.81078867995
 31
0.0
  0
LINE
  5
8AD
  8
____1
  6
DASHED2
 62
     7
 10
27303.702202915221
 20
13625.81078867995
 30
0.0
 11
27303.702202915221
 21
13623.81078867995
 31
0.0
  0
LINE
  5
8AE
  8
____1
  6
DASHED2
 62
     7
 10
27308.702202915221
 20
13625.81078867995
 30
0.0
 11
27308.702202915221
 21
13623.81078867995
 31
0.0
  0
LINE
  5
8AF
  8
____1
  6
DASHED2
 62
     7
 10
27309.202202915221
 20
13625.81078867995
 30
0.0
 11
27309.202202915221
 21
13623.81078867995
 31
0.0
  0
LINE
  5
8B0
  8
____1
  6
DASHED2
 62
     7
 10
27290.202202915221
 20
13625.81078867995
 30
0.0
 11
27290.202202915221
 21
13623.81078867995
 31
0.0
  0
LINE
  5
8B1
  8
____1
  6
DASHED2
 62
     7
 10
27318.513796631811
 20
13627.23459820376
 30
0.0
 11
27316.859392765102
 21
13626.110788679949
 31
0.0
  0
LINE
  5
8B2
  8
____1
  6
DASHED2
 62
     7
 10
27321.202202915221
 20
13625.81078867995
 30
0.0
 11
27290.202202915221
 21
13625.81078867995
 31
0.0
  0
LINE
  5
8B3
  8
____1
  6
DASHED2
 62
     7
 10
27321.202202915221
 20
13623.81078867995
 30
0.0
 11
27290.202202915221
 21
13623.81078867995
 31
0.0
  0
LINE
  5
8B4
  8
____1
  6
DASHED2
 62
     7
 10
27300.202202915221
 20
13625.81078867995
 30
0.0
 11
27300.202202915221
 21
13623.81078867995
 31
0.0
  0
LINE
  5
8B5
  8
____1
  6
DASHED2
 62
     7
 10
27303.202202915221
 20
13625.81078867995
 30
0.0
 11
27303.202202915221
 21
13623.81078867995
 31
0.0
  0
LINE
  5
8B6
  8
____1
  6
DASHED2
 62
     7
 10
27315.202202915221
 20
13625.81078867995
 30
0.0
 11
27315.202202915221
 21
13623.81078867995
 31
0.0
  0
ARC
  5
8B7
  8
____1
  6
DASHED2
 62
     7
 10
27321.202202915221
 20
13629.06078867995
 30
0.0
 40
5.25
 50
-90.0
 51
-145.812372662889
  0
ARC
  5
8B8
  8
____1
  6
DASHED2
 62
     7
 10
27321.202202915221
 20
13629.06078867995
 30
0.0
 40
3.25
 50
-90.0
 51
-145.8123726628919
  0
LINE
  5
8B9
  8
____1
  6
DASHED2
 62
     7
 10
27294.202202915221
 20
13625.81078867995
 30
0.0
 11
27294.202202915221
 21
13623.81078867995
 31
0.0
  0
LINE
  5
8BA
  8
____1
  6
DASHED2
 62
     7
 10
27294.702202915221
 20
13625.81078867995
 30
0.0
 11
27294.702202915221
 21
13623.81078867995
 31
0.0
  0
LINE
  5
8BB
  8
____1
  6
DOT
 62
     2
 10
27328.702202915221
 20
13629.06078867995
 30
0.0
 11
27313.702202915221
 21
13629.06078867995
 31
0.0
  0
LINE
  5
8BC
  8
____1
  6
DOT
 62
     2
 10
27321.202202915221
 20
13636.56078867995
 30
0.0
 11
27321.202202915221
 21
13621.56078867995
 31
0.0
  0
LINE
  5
8BD
  8
____1
  6
DOT
 62
     2
 10
27297.202202915221
 20
13627.81078867995
 30
0.0
 11
27297.202202915221
 21
13621.81078867995
 31
0.0
  0
LINE
  5
8BE
  8
____1
  6
DOT
 62
     2
 10
27306.202202915221
 20
13627.81078867995
 30
0.0
 11
27306.202202915221
 21
13621.81078867995
 31
0.0
  0
ENDBLK
  5
8BF
  8
0
  0
BLOCK
  8
0
  2
C78
 70
     0
 10
0.0
 20
0.0
 30
0.0
  3
C78
  1

  0
ARC
  5
8C5
  8
____1
  6
DASHED2
 62
     7
 10
27320.716953567338
 20
13200.36083573181
 30
0.0
 40
4.5000000000003073
 50
90.069940233949296
 51
-179.9300597660505
  0
LINE
  5
8C6
  8
____1
  6
DASHED2
 62
     7
 10
27323.226395536851
 20
13192.627404141331
 30
0.0
 11
27280.98045974036
 21
13185.290508853661
 31
0.0
  0
LINE
  5
8C7
  8
____1
  6
DASHED2
 62
     7
 10
27316.218787950598
 20
13198.855343757599
 30
0.0
 11
27314.718789068182
 21
13198.853512727021
 31
0.0
  0
ARC
  5
8C8
  8
____1
  6
DASHED2
 62
     7
 10
27323.211169933838
 20
13205.100372992711
 30
0.0
 40
1.499999999996467
 50
0.0699402340652584
 51
80.287533201978434
  0
ARC
  5
8C9
  8
____1
  6
DASHED2
 62
     7
 10
27323.226395536851
 20
13192.627404141331
 30
0.0
 40
1.4999999999928271
 50
-80.14765273397019
 51
0.0699402339959478
  0
ARC
  5
8CA
  8
____1
  6
DASHED2
 62
     7
 10
27323.226106857699
 20
13192.863893037251
 30
0.0
 40
1.5000000000001119
 50
-89.930059765726455
 51
0.0699402339262979
  0
ARC
  5
8CB
  8
____1
  6
DASHED2
 62
     7
 10
27323.21145861299
 20
13204.863884096791
 30
0.0
 40
1.4999999999982749
 50
0.0699402339961174
 51
90.069940233717787
  0
LINE
  5
8CC
  8
____1
  6
DASHED2
 62
     7
 10
27323.211169933838
 20
13205.100372992711
 30
0.0
 11
27323.226395536851
 21
13192.627404141331
 31
0.0
  0
LINE
  5
8CD
  8
____1
  6
DASHED2
 62
     7
 10
27320.709629444991
 20
13206.36083126158
 30
0.0
 11
27323.209627582411
 21
13206.363882979231
 31
0.0
  0
LINE
  5
8CE
  8
____1
  6
DASHED2
 62
     7
 10
27314.716958037599
 20
13200.353511609461
 30
0.0
 11
27314.718789068182
 21
13198.853512727021
 31
0.0
  0
ARC
  5
8CF
  8
____1
  6
DASHED2
 62
     7
 10
27320.720615628521
 20
13197.360837966929
 30
0.0
 40
4.4999999999857527
 50
-179.93005976607361
 51
-89.930059765958063
  0
LINE
  5
8D0
  8
____1
  6
DASHED2
 62
     7
 10
27314.718789068182
 20
13198.853512727021
 30
0.0
 11
27314.72062009876
 21
13197.35351384458
 31
0.0
  0
LINE
  5
8D1
  8
____1
  6
DASHED2
 62
     7
 10
27320.727939750879
 20
13191.36084243716
 30
0.0
 11
27323.227937888289
 21
13191.363894154811
 31
0.0
  0
LINE
  5
8D2
  8
____1
  6
DASHED2
 62
     7
 10
27324.711168816269
 20
13205.1022040233
 30
0.0
 11
27324.726394419278
 21
13192.62923517192
 31
0.0
  0
LINE
  5
8D3
  8
____1
  6
DASHED2
 62
     7
 10
27323.483060129351
 20
13191.14952617378
 30
0.0
 11
27281.23712433286
 21
13183.812630886119
 31
0.0
  0
LINE
  5
8D4
  8
____1
  6
DASHED2
 62
     7
 10
27281.20050372108
 20
13213.81260853495
 30
0.0
 11
27279.700504838642
 21
13213.81077750437
 31
0.0
  0
LINE
  5
8D5
  8
____1
  6
DASHED2
 62
     7
 10
27281.20050372108
 20
13213.81260853495
 30
0.0
 11
27281.23712433286
 21
13183.812630886119
 31
0.0
  0
LINE
  5
8D6
  8
____1
  6
DASHED2
 62
     7
 10
27281.20050372108
 20
13213.81260853495
 30
0.0
 11
27323.464225711112
 21
13206.578873169779
 31
0.0
  0
LINE
  5
8D7
  8
____1
  6
DASHED2
 62
     7
 10
27281.23712433286
 20
13183.812630886119
 30
0.0
 11
27279.737125450411
 21
13183.81079985553
 31
0.0
  0
LINE
  5
8D8
  8
____1
  6
DASHED2
 62
     7
 10
27279.700504838642
 20
13213.81077750437
 30
0.0
 11
27279.737125450411
 21
13183.81079985553
 31
0.0
  0
LINE
  5
8D9
  8
____1
  6
DASHED2
 62
     7
 10
27320.711460475581
 20
13204.86083237914
 30
0.0
 11
27323.21145861299
 21
13204.863884096791
 31
0.0
  0
LINE
  5
8DA
  8
____1
  6
DASHED2
 62
     7
 10
27320.72610872029
 20
13192.8608413196
 30
0.0
 11
27323.226106857699
 21
13192.863893037251
 31
0.0
  0
ARC
  5
8DB
  8
____1
  6
DASHED2
 62
     7
 10
27320.716953567338
 20
13200.36083573181
 30
0.0
 40
5.9999999999985834
 50
90.069940233891415
 51
-179.93005976603891
  0
ARC
  5
8DC
  8
____1
  6
DASHED2
 62
     7
 10
27320.720615628521
 20
13197.360837966929
 30
0.0
 40
5.9999999999894937
 50
-179.9300597660563
 51
-89.930059765969631
  0
LINE
  5
8DD
  8
____1
  6
DASHED2
 62
     7
 10
27316.218787950598
 20
13198.855343757599
 30
0.0
 11
27316.22061898121
 21
13197.35534487517
 31
0.0
  0
LINE
  5
8DE
  8
____1
  6
DASHED2
 62
     7
 10
27316.21695692003
 20
13200.35534264005
 30
0.0
 11
27316.218787950598
 21
13198.855343757599
 31
0.0
  0
LINE
  5
8DF
  8
____1
  6
DASHED2
 62
     7
 10
27280.947447943821
 20
13212.334108357891
 30
0.0
 11
27323.211169933838
 21
13205.100372992711
 31
0.0
  0
ENDBLK
  5
8E0
  8
0
  0
BLOCK
  8
0
  2
C79
 70
     0
 10
0.0
 20
0.0
 30
0.0
  3
C79
  1

  0
INSERT
  5
8F1
  8
____1
  6
DASHED2
 62
     4
  2
C80
 10
0.0
 20
0.0
 30
0.0
  0
INSERT
  5
8FC
  8
____1
  6
DASHED2
 62
     4
  2
C81
 10
0.0
 20
0.0
 30
0.0
  0
CIRCLE
  5
8FD
  8
____1
  6
CENTER2
 62
     4
 10
27302.20213076915
 20
13446.6871234752
 30
0.0
 40
15.00000000000095
  0
INSERT
  5
908
  8
____1
  6
DASHED2
 62
     4
  2
C82
 10
0.0
 20
0.0
 30
0.0
  0
ENDBLK
  5
909
  8
0
  0
BLOCK
  8
0
  2
C80
 70
     0
 10
0.0
 20
0.0
 30
0.0
  3
C80
  1

  0
LINE
  5
8E9
  8
____1
  6
CENTER2
 62
     4
 10
27295.682007947718
 20
13454.023425794951
 30
0.0
 11
27305.2954935372
 21
13456.001866634229
 31
0.0
  0
LINE
  5
8EA
  8
____1
  6
CENTER2
 62
     4
 10
27311.815616358621
 20
13448.66556431446
 30
0.0
 11
27308.722253590571
 21
13439.350821155431
 31
0.0
  0
LINE
  5
8EB
  8
____1
  6
CENTER2
 62
     4
 10
27292.58864517968
 20
13444.708682635919
 30
0.0
 11
27295.682007947718
 21
13454.023425794951
 31
0.0
  0
LINE
  5
8EC
  8
____1
  6
CENTER2
 62
     4
 10
27299.10876800109
 20
13437.37238031617
 30
0.0
 11
27292.58864517968
 21
13444.708682635919
 31
0.0
  0
LINE
  5
8ED
  8
____1
  6
CENTER2
 62
     4
 10
27308.722253590571
 20
13439.350821155431
 30
0.0
 11
27299.10876800109
 21
13437.37238031617
 31
0.0
  0
LINE
  5
8EE
  8
____1
  6
CENTER2
 62
     4
 10
27305.2954935372
 20
13456.001866634229
 30
0.0
 11
27311.815616358621
 21
13448.66556431446
 31
0.0
  0
CIRCLE
  5
8EF
  8
____1
  6
CENTER2
 62
     4
 10
27302.20213076915
 20
13446.6871234752
 30
0.0
 40
8.5000000000010747
  0
ENDBLK
  5
8F0
  8
0
  0
BLOCK
  8
0
  2
C81
 70
     0
 10
0.0
 20
0.0
 30
0.0
  3
C81
  1

  0
LINE
  5
8F4
  8
____1
  6
CENTER2
 62
     4
 10
27129.605523642211
 20
13640.889123027589
 30
0.0
 11
27139.219009231681
 21
13642.86756386687
 31
0.0
  0
LINE
  5
8F5
  8
____1
  6
CENTER2
 62
     4
 10
27145.739132053091
 20
13635.53126154711
 30
0.0
 11
27142.645769285049
 21
13626.216518388081
 31
0.0
  0
LINE
  5
8F6
  8
____1
  6
CENTER2
 62
     4
 10
27126.512160874161
 20
13631.574379868571
 30
0.0
 11
27129.605523642211
 21
13640.889123027589
 31
0.0
  0
LINE
  5
8F7
  8
____1
  6
CENTER2
 62
     4
 10
27133.032283695578
 20
13624.238077548811
 30
0.0
 11
27126.512160874161
 21
13631.574379868571
 31
0.0
  0
LINE
  5
8F8
  8
____1
  6
CENTER2
 62
     4
 10
27142.645769285049
 20
13626.216518388081
 30
0.0
 11
27133.032283695578
 21
13624.238077548811
 31
0.0
  0
LINE
  5
8F9
  8
____1
  6
CENTER2
 62
     4
 10
27139.219009231681
 20
13642.86756386687
 30
0.0
 11
27145.739132053091
 21
13635.53126154711
 31
0.0
  0
CIRCLE
  5
8FA
  8
____1
  6
CENTER2
 62
     4
 10
27136.125646463632
 20
13633.552820707841
 30
0.0
 40
8.5000000000068212
  0
ENDBLK
  5
8FB
  8
0
  0
BLOCK
  8
0
  2
C82
 70
     0
 10
0.0
 20
0.0
 30
0.0
  3
C82
  1

  0
CIRCLE
  5
900
  8
____1
  6
DOT
 62
     4
 10
27136.125646463632
 20
13633.552820707841
 30
0.0
 40
5.2500000000015721
  0
CIRCLE
  5
901
  8
____1
  6
DOT
 62
     4
 10
27302.20213076915
 20
13446.6871234752
 30
0.0
 40
4.9999999999976277
  0
CIRCLE
  5
902
  8
____1
  6
DOT
 62
     4
 10
27302.20213076915
 20
13446.6871234752
 30
0.0
 40
4.2499999999959526
  0
LINE
  5
903
  8
____1
  6
CENTER2
 62
     4
 10
27311.545459138899
 20
13454.991517358359
 30
0.0
 11
27145.468903042201
 21
13641.85664853042
 31
0.0
  0
ARC
  5
904
  8
____1
  6
CENTER2
 62
     4
 10
27302.202202915221
 20
13446.68768913647
 30
0.0
 40
12.50000000000094
 50
-138.3708588957285
 51
41.629125369878537
  0
LINE
  5
905
  8
____1
  6
CENTER2
 62
     4
 10
27292.858948971909
 20
13438.38385834876
 30
0.0
 11
27126.782389885058
 21
13625.248992885259
 31
0.0
  0
ARC
  5
906
  8
____1
  6
CENTER2
 62
     4
 10
27136.125646463632
 20
13633.552820707841
 30
0.0
 40
12.49999999999962
 50
41.629122730194119
 51
-138.37087466381649
  0
ENDBLK
  5
907
  8
0
  0
ENDSEC
  0
SECTION
  2
ENTITIES
  0
DIMENSION
  5
3D
  8
______
  6
CONTINUOUS
 62
     7
  2
*D0
 10
25070.724467559579
 20
12822.31078867995
 30
0.0
 11
25070.724467559579
 21
12947.31078867995
 31
0.0
 13
25249.958346827079
 23
13072.31078867995
 33
0.0
 14
25122.45834682709
 24
12822.31078867995
 34
0.0
 50
90.0
  0
DIMENSION
  5
4B
  8
______
  6
CONTINUOUS
 62
     7
  2
*D1
 10
25942.45834682709
 20
12763.870216288809
 30
0.0
 11
25622.45834682709
 21
12763.870216288809
 31
0.0
 13
25302.45834682709
 23
12998.81078867995
 33
0.0
 14
25942.45834682709
 24
12998.81078867995
 34
0.0
  0
DIMENSION
  5
58
  8
______
  6
CONTINUOUS
 62
     7
  2
*D2
 10
25972.45834682709
 20
12699.57646628881
 30
0.0
 11
25622.45834682709
 21
12699.57646628881
 31
0.0
 13
25272.458346827079
 23
12972.31078867995
 33
0.0
 14
25972.45834682709
 24
12972.31078867995
 34
0.0
  0
LINE
  5
59
  8
____1
  6
CONTINUOUS
 62
     5
 10
27361.702202915221
 20
12822.31078867995
 30
0.0
 11
27361.702202915221
 21
13820.81078867995
 31
0.0
  0
LINE
  5
5A
  8
____1
  6
CONTINUOUS
 62
     5
 10
27411.702202915221
 20
12822.31078867995
 30
0.0
 11
27411.702202915221
 21
13820.81078867995
 31
0.0
  0
LINE
  5
5B
  8
____1
  6
DASHED
 62
     7
 10
27401.702202915221
 20
12825.610788679949
 30
0.0
 11
27401.702202915221
 21
13820.81078867995
 31
0.0
  0
DIMENSION
  5
6E
  8
______
  6
CONTINUOUS
 62
     7
  2
*D3
 10
27331.702202915221
 20
12708.053464678849
 30
0.0
 11
27327.90724749216
 21
12708.053464678849
 31
0.0
 13
27324.11229206909
 23
12997.31484768846
 33
0.0
 14
27331.702202915221
 24
12972.459317950341
 34
0.0
  0
DIMENSION
  5
7C
  8
______
  6
CONTINUOUS
 62
     7
  2
*D4
 10
27324.112294088169
 20
12708.049426991691
 30
0.0
 11
27236.383510011568
 21
12708.049426991691
 31
0.0
 13
27278.631816285979
 23
12995.740222890119
 33
0.0
 14
27324.112294088169
 24
12997.312386544059
 34
0.0
  0
DIMENSION
  5
8B
  8
______
  6
CONTINUOUS
 62
     7
  2
*D5
 10
27324.112294088169
 20
12708.04941227875
 30
0.0
 11
27236.383511837801
 21
12708.04941227875
 31
0.0
 13
27278.631816285979
 23
12995.740222890119
 33
0.0
 14
27324.112294088169
 24
12997.312386544059
 34
0.0
  0
DIMENSION
  5
9E
  8
______
  6
CONTINUOUS
 62
     7
  2
*D6
 10
27331.702202915221
 20
12708.05347128726
 30
0.0
 11
27327.907247492149
 21
12708.05347128726
 31
0.0
 13
27324.11229206909
 23
12997.31484768846
 33
0.0
 14
27331.702202915221
 24
12972.459317950341
 34
0.0
  0
LINE
  5
9F
  8
____1
  6
CONTINUOUS
 62
     5
 10
27361.461037755758
 20
12823.516614477239
 30
0.0
 11
27331.73133190169
 21
12972.16514374763
 31
0.0
  0
DIMENSION
  5
B3
  8
______
  6
CONTINUOUS
 62
     7
  2
*D7
 10
27361.702202915221
 20
12708.0494132527
 30
0.0
 11
27346.702202915221
 21
12708.0494132527
 31
0.0
 13
27331.702202915221
 23
12972.31078867995
 33
0.0
 14
27361.702202915221
 24
12822.31078867995
 34
0.0
  0
LINE
  5
B4
  8
____1
  6
CONTINUOUS
 62
     5
 10
25122.45834682709
 20
12350.10909144481
 30
0.0
 11
26120.95834682709
 21
12350.10909144481
 31
0.0
  0
LINE
  5
B5
  8
____1
  6
DASHED
 62
     7
 10
25125.758346827079
 20
12360.10909144481
 30
0.0
 11
26120.95834682709
 21
12360.10909144481
 31
0.0
  0
LINE
  5
B6
  8
____1
  6
CONTINUOUS
 62
     5
 10
25122.45834682709
 20
12400.10909144481
 30
0.0
 11
26120.95834682709
 21
12400.10909144481
 31
0.0
  0
DIMENSION
  5
C3
  8
______
  6
CONTINUOUS
 62
     7
  2
*D8
 10
26122.45834682709
 20
12630.499023447421
 30
0.0
 11
25622.45834682709
 21
12630.499023447421
 31
0.0
 13
25122.45834682709
 23
12822.31078867995
 33
0.0
 14
26122.45834682709
 24
12822.31078867995
 34
0.0
  0
DIMENSION
  5
D0
  8
______
  6
CONTINUOUS
 62
     7
  2
*D9
 10
25964.958346827079
 20
11979.39716585667
 30
0.0
 11
25622.45834682709
 21
11979.39716585667
 31
0.0
 13
25279.95834682709
 23
12088.05661424041
 33
0.0
 14
25964.958346827079
 24
12088.05661424041
 34
0.0
  0
DIMENSION
  5
DD
  8
______
  6
CONTINUOUS
 62
     7
  2
*D10
 10
25982.45834682709
 20
12230.58158215697
 30
0.0
 11
25622.45834682709
 21
12230.58158215697
 31
0.0
 13
25262.45834682709
 23
12094.55661424041
 33
0.0
 14
25982.45834682709
 24
12094.55661424041
 34
0.0
 50
0.0000008537736463
  0
LINE
  5
DE
  8
____1
  6
CONTINUOUS
 62
     5
 10
25272.458346827079
 20
12972.31078867995
 30
0.0
 11
25972.45834682709
 21
12972.31078867995
 31
0.0
  0
LINE
  5
DF
  8
____1
  6
DASHED2
 62
     7
 10
25930.458346827079
 20
13630.31078867995
 30
0.0
 11
25314.458346827079
 21
13630.31078867995
 31
0.0
  0
LINE
  5
E0
  8
____1
  6
DASHED2
 62
     7
 10
25923.958346827079
 20
13622.310788679941
 30
0.0
 11
25322.458346827079
 21
13622.310788679941
 31
0.0
  0
LINE
  5
E1
  8
____1
  6
DASHED2
 62
     7
 10
25314.458346827079
 20
13014.31078867995
 30
0.0
 11
25930.458346827079
 21
13014.31078867995
 31
0.0
  0
LINE
  5
E2
  8
____1
  6
DASHED2
 62
     7
 10
25320.958346827079
 20
13022.31078867995
 30
0.0
 11
25922.458346827079
 21
13022.31078867995
 31
0.0
  0
LINE
  5
E3
  8
____1
  6
DASHED
 62
     7
 10
25320.958346827079
 20
13020.81078867995
 30
0.0
 11
25922.458346827079
 21
13020.81078867995
 31
0.0
  0
INSERT
  5
1A4
  8
____1
  6
CONTINUOUS
 62
   254
  2
C0
 10
0.0
 20
0.0
 30
0.0
  0
INSERT
  5
1AE
  8
______
  6
CONTINUOUS
 62
     7
  2
C1
 10
0.0
 20
0.0
 30
0.0
  0
INSERT
  5
1B8
  8
______
  6
CONTINUOUS
 62
     7
  2
C2
 10
0.0
 20
0.0
 30
0.0
  0
DIMENSION
  5
1C7
  8
______
  6
CONTINUOUS
 62
     7
  2
*D14
 10
26279.081539456511
 20
13672.31078867995
 30
0.0
 11
26279.081539456511
 21
13322.31078867995
 31
0.0
 13
25972.45834682709
 23
12972.31078867995
 33
0.0
 14
25972.45834682709
 24
13672.31078867995
 34
0.0
 50
90.0
  0
DIMENSION
  5
1D6
  8
______
  6
CONTINUOUS
 62
     7
  2
*D15
 10
26355.600440490049
 20
13822.31078867995
 30
0.0
 11
26355.600440490049
 21
13322.31078867995
 31
0.0
 13
26122.45834682709
 23
12822.31078867995
 33
0.0
 14
26122.45834682709
 24
13822.31078867995
 34
0.0
 50
90.0
  0
INSERT
  5
1E0
  8
______
  6
CONTINUOUS
 62
     7
  2
C3
 10
0.0
 20
0.0
 30
0.0
  0
LINE
  5
1E1
  8
____1
  6
DASHED
 62
     7
 10
26120.95834682709
 20
12823.81078867995
 30
0.0
 11
26120.95834682709
 21
13820.81078867995
 31
0.0
  0
LINE
  5
1E2
  8
____1
  6
CONTINUOUS
 62
     5
 10
26122.45834682709
 20
12822.31078867995
 30
0.0
 11
26122.45834682709
 21
13820.81078867995
 31
0.0
  0
LINE
  5
1E3
  8
____1
  6
CONTINUOUS
 62
     5
 10
25123.95834682709
 20
12823.81078867995
 30
0.0
 11
25302.45834682709
 21
13002.310788679941
 31
0.0
  0
LINE
  5
1E4
  8
____1
  6
DASHED
 62
     7
 10
25123.95834682709
 20
13820.81078867995
 30
0.0
 11
25123.95834682709
 21
12823.81078867995
 31
0.0
  0
LINE
  5
1E5
  8
____1
  6
CONTINUOUS
 62
     5
 10
25122.45834682709
 20
13822.31078867995
 30
0.0
 11
25122.45834682709
 21
12823.81078867995
 31
0.0
  0
LINE
  5
1E6
  8
____1
  6
CONTINUOUS
 62
     5
 10
26120.95834682709
 20
12823.81078867995
 30
0.0
 11
25942.45834682709
 21
13002.31078867995
 31
0.0
  0
INSERT
  5
1F0
  8
______
  6
CONTINUOUS
 62
     7
  2
C4
 10
0.0
 20
0.0
 30
0.0
  0
TEXT
  5
1F1
  8
____1
  6
CONTINUOUS
 62
     7
 10
26890.969928882048
 20
12255.25801844787
 30
0.0
 40
28.222221374511719
  1
本　　体
  7
STYLE1
  0
TEXT
  5
1F2
  8
____1
  6
CONTINUOUS
 62
     7
 10
26890.969928882048
 20
12215.25801844787
 30
0.0
 40
28.222221374511719
  1
天　　板
  7
STYLE1
  0
TEXT
  5
1F3
  8
____1
  6
CONTINUOUS
 62
     7
 10
26890.969928882048
 20
12415.25801844787
 30
0.0
 40
28.222221374511719
  1
取　　手
  7
STYLE1
  0
TEXT
  5
1F4
  8
____1
  6
CONTINUOUS
 62
     7
 10
26876.858814380099
 20
12535.25801844787
 30
0.0
 40
28.222221374511719
  1
ブラケット
  7
STYLE1
  0
TEXT
  5
1F5
  8
____1
  6
CONTINUOUS
 62
     7
 10
26890.969928882048
 20
12495.25801844787
 30
0.0
 40
28.222221374511719
  1
パッキン
  7
STYLE1
  0
TEXT
  5
1F6
  8
____1
  6
CONTINUOUS
 62
     7
 10
26848.636600634982
 20
12455.25801844787
 30
0.0
 40
28.222221374511719
  1
フックユニット
  7
STYLE1
  0
TEXT
  5
1F7
  8
____1
  6
CONTINUOUS
 62
     7
 10
26792.192154071261
 20
12335.25801844787
 30
0.0
 40
28.222221374511719
  1
天板側取付金具ユニット
  7
STYLE1
  0
TEXT
  5
1F8
  8
____1
  6
CONTINUOUS
 62
     7
 10
26876.858814380099
 20
12375.25801844787
 30
0.0
 40
28.222221374511719
  1
三段ステー
  7
STYLE1
  0
INSERT
  5
202
  8
____1
  6
CONTINUOUS
 62
     7
  2
C5
 10
0.0
 20
0.0
 30
0.0
  0
INSERT
  5
20C
  8
____1
  6
CONTINUOUS
 62
     7
  2
C6
 10
0.0
 20
0.0
 30
0.0
  0
INSERT
  5
216
  8
____1
  6
CONTINUOUS
 62
     7
  2
C7
 10
0.0
 20
0.0
 30
0.0
  0
INSERT
  5
230
  8
____1
  6
DASHED2
 62
   254
  2
C8
 10
0.0
 20
0.0
 30
0.0
  0
LINE
  5
231
  8
____1
  6
DASHED
 62
     7
 10
27362.9319087693
 20
12823.81078867995
 30
0.0
 11
27333.202202915221
 21
12972.459317950341
 31
0.0
  0
LINE
  5
232
  8
____1
  6
CONTINUOUS
 62
     5
 10
27361.702202915221
 20
12823.81078867995
 30
0.0
 11
27331.702202915221
 21
12972.31078867995
 31
0.0
  0
DIMENSION
  5
246
  8
______
  6
CONTINUOUS
 62
     7
  2
*D22
 10
27361.702202915221
 20
12708.04941227875
 30
0.0
 11
27346.702202915221
 21
12708.04941227875
 31
0.0
 13
27331.702202915221
 23
12972.31078867995
 33
0.0
 14
27361.702202915221
 24
12822.31078867995
 34
0.0
  0
LINE
  5
247
  8
____1
  6
DASHED
 62
     7
 10
25123.95834682709
 20
12823.81078867995
 30
0.0
 11
26120.95834682709
 21
12823.81078867995
 31
0.0
  0
LINE
  5
248
  8
____1
  6
CONTINUOUS
 62
     5
 10
25122.45834682709
 20
12822.31078867995
 30
0.0
 11
26120.95834682709
 21
12822.31078867995
 31
0.0
  0
LINE
  5
249
  8
____1
  6
DASHED2
 62
     7
 10
25930.458346827079
 20
12476.35909144481
 30
0.0
 11
25314.458346827079
 21
12476.35909144481
 31
0.0
  0
LINE
  5
24A
  8
____1
  6
CONTINUOUS
 62
     5
 10
25303.958346827079
 20
12171.810564134281
 30
0.0
 11
25622.45834682709
 21
12181.763689134281
 31
0.0
  0
LINE
  5
24B
  8
____1
  6
CONTINUOUS
 62
     5
 10
25303.911494698521
 20
12173.30983224842
 30
0.0
 11
25622.45834682709
 21
12183.264421377429
 31
0.0
  0
LINE
  5
24C
  8
____1
  6
DASHED2
 62
     7
 10
25314.458346827079
 20
12478.60909144481
 30
0.0
 11
25930.458346827079
 21
12478.60909144481
 31
0.0
  0
LINE
  5
24D
  8
____1
  6
DASHED2
 62
     7
 10
25314.458346827079
 20
12480.10909144481
 30
0.0
 11
25930.458346827079
 21
12480.10909144481
 31
0.0
  0
LINE
  5
24E
  8
____1
  6
CONTINUOUS
 62
     5
 10
25272.458346827079
 20
12430.10909144481
 30
0.0
 11
25972.45834682709
 21
12430.10909144481
 31
0.0
  0
INSERT
  5
266
  8
____1
  6
DASHED2
 62
   254
  2
C9
 10
0.0
 20
0.0
 30
0.0
  0
LINE
  5
267
  8
____1
  6
DASHED2
 62
     7
 10
25314.458346827079
 20
12482.35909144481
 30
0.0
 11
25930.458346827079
 21
12482.35909144481
 31
0.0
  0
LINE
  5
268
  8
____1
  6
CONTINUOUS
 62
     5
 10
25314.458346827079
 20
12170.08356269005
 30
0.0
 11
25320.958346827079
 21
12170.08356269005
 31
0.0
  0
LINE
  5
269
  8
____1
  6
CONTINUOUS
 62
     5
 10
25314.458346827079
 20
12478.60909144481
 30
0.0
 11
25314.458346827079
 21
12480.10909144481
 31
0.0
  0
ARC
  5
26A
  8
____1
  6
CONTINUOUS
 62
     5
 10
25272.60687609747
 20
12428.60909144481
 30
0.0
 40
1.5
 50
90.0
 51
101.3099324741428
  0
LINE
  5
26B
  8
____1
  6
CONTINUOUS
 62
     5
 10
25123.66417262438
 20
12400.35025660427
 30
0.0
 11
25272.31270189476
 21
12430.07996245834
 31
0.0
  0
LINE
  5
26C
  8
____1
  6
CONTINUOUS
 62
     5
 10
25272.60687609747
 20
12430.10909144481
 30
0.0
 11
25320.958346827079
 21
12430.10909144481
 31
0.0
  0
LINE
  5
26D
  8
____1
  6
DASHED
 62
     7
 10
25123.95834682709
 20
12351.60909144481
 30
0.0
 11
25123.95834682709
 21
12398.87938559073
 31
0.0
  0
LINE
  5
26E
  8
____1
  6
CONTINUOUS
 62
     5
 10
25122.45834682709
 20
12823.81078867995
 30
0.0
 11
25123.95834682709
 21
12823.81078867995
 31
0.0
  0
LINE
  5
26F
  8
____1
  6
CONTINUOUS
 62
     5
 10
25122.45834682709
 20
12822.31078867995
 30
0.0
 11
25122.45834682709
 21
12823.81078867995
 31
0.0
  0
LINE
  5
270
  8
____1
  6
CONTINUOUS
 62
     5
 10
25122.45834682709
 20
12823.81078867995
 30
0.0
 11
25123.95834682709
 21
12823.81078867995
 31
0.0
  0
LINE
  5
271
  8
____1
  6
CONTINUOUS
 62
     7
 10
25122.45834682709
 20
12823.81078867995
 30
0.0
 11
25123.95834682709
 21
12823.81078867995
 31
0.0
  0
LINE
  5
272
  8
____1
  6
DASHED2
 62
     7
 10
25320.958346827079
 20
12430.10909144481
 30
0.0
 11
25320.958346827079
 21
12478.60909144481
 31
0.0
  0
ARC
  5
273
  8
____1
  6
CONTINUOUS
 62
     5
 10
25123.95834682709
 20
12041.58356269005
 30
0.0
 40
1.4999999999985469
 50
179.9992365748237
 51
0.0
  0
LINE
  5
274
  8
____1
  6
CONTINUOUS
 62
     5
 10
26122.45834682709
 20
13822.31078867995
 30
0.0
 11
25123.95834682709
 21
13822.31078867995
 31
0.0
  0
LINE
  5
275
  8
____1
  6
DASHED
 62
     7
 10
26120.95834682709
 20
13820.81078867995
 30
0.0
 11
25123.95834682709
 21
13820.81078867995
 31
0.0
  0
LINE
  5
276
  8
____1
  6
CONTINUOUS
 62
     5
 10
25972.45834682709
 20
13672.31078867995
 30
0.0
 11
25272.458346827079
 21
13672.31078867995
 31
0.0
  0
LINE
  5
277
  8
____1
  6
DASHED
 62
     7
 10
25923.958346827079
 20
13623.81078867995
 30
0.0
 11
25322.458346827079
 21
13623.81078867995
 31
0.0
  0
INSERT
  5
28F
  8
____1
  6
DASHED2
 62
   254
  2
C10
 10
0.0
 20
0.0
 30
0.0
  0
DIMENSION
  5
29C
  8
______
  6
CONTINUOUS
 62
     7
  2
*D25
 10
25982.45834682709
 20
13866.40081805037
 30
0.0
 11
25622.45834682709
 21
13866.40081805037
 31
0.0
 13
25262.45834682709
 23
13584.81078867995
 33
0.0
 14
25982.45834682709
 24
13584.81078867995
 34
0.0
  0
INSERT
  5
2A6
  8
____1
  6
CONTINUOUS
 62
     7
  2
C11
 10
0.0
 20
0.0
 30
0.0
  0
INSERT
  5
2B0
  8
____1
  6
CONTINUOUS
 62
     7
  2
C12
 10
0.0
 20
0.0
 30
0.0
  0
INSERT
  5
2BA
  8
____1
  6
CONTINUOUS
 62
     7
  2
C13
 10
0.0
 20
0.0
 30
0.0
  0
INSERT
  5
2C4
  8
____1
  6
CONTINUOUS
 62
     7
  2
C14
 10
0.0
 20
0.0
 30
0.0
  0
INSERT
  5
2CE
  8
____1
  6
CONTINUOUS
 62
     7
  2
C15
 10
0.0
 20
0.0
 30
0.0
  0
INSERT
  5
2D8
  8
____1
  6
CONTINUOUS
 62
     7
  2
C16
 10
0.0
 20
0.0
 30
0.0
  0
TEXT
  5
2D9
  8
____1
  6
CONTINUOUS
 62
     7
 10
26890.969928882048
 20
12295.25801844787
 30
0.0
 40
28.222221374511719
  1
丁　　番
  7
STYLE1
  0
LINE
  5
2DA
  8
____1
  6
DASHED
 62
     7
 10
25272.60687609747
 20
12428.60909144481
 30
0.0
 11
25320.958346827079
 21
12428.60909144481
 31
0.0
  0
LINE
  5
2DB
  8
____1
  6
DASHED
 62
     7
 10
25123.95834682709
 20
12398.87938559073
 30
0.0
 11
25272.60687609747
 21
12428.60909144481
 31
0.0
  0
LINE
  5
2DC
  8
____1
  6
DASHED
 62
     7
 10
25322.458346827079
 20
12430.10909144481
 30
0.0
 11
25322.458346827079
 21
12478.60909144481
 31
0.0
  0
ARC
  5
2DD
  8
____1
  6
DASHED
 62
     7
 10
25320.958346827079
 20
12478.60909144481
 30
0.0
 40
1.5
 50
0.0
 51
90.0
  0
ARC
  5
2DE
  8
____1
  6
CONTINUOUS
 62
     5
 10
25303.958346827079
 20
12129.264421377429
 30
0.0
 40
1.5
 50
180.0
 51
-90.0
  0
LINE
  5
2DF
  8
____1
  6
DASHED2
 62
     7
 10
25314.458346827079
 20
12476.35909144481
 30
0.0
 11
25314.458346827079
 21
12482.35909144481
 31
0.0
  0
INSERT
  5
2E9
  8
______
  6
CONTINUOUS
 62
     7
  2
C17
 10
0.0
 20
0.0
 30
0.0
  0
LINE
  5
2EA
  8
____1
  6
CONTINUOUS
 62
     5
 10
25302.45834682709
 20
12171.810564134281
 30
0.0
 11
25302.45834682709
 21
12129.264421377429
 31
0.0
  0
ARC
  5
2EB
  8
____1
  6
CONTINUOUS
 62
     5
 10
25303.958346827079
 20
12129.264421377429
 30
0.0
 40
1.5
 50
-90.0
 51
-0.000011367181791
  0
LINE
  5
2EC
  8
____1
  6
CONTINUOUS
 62
     5
 10
25305.458346827079
 20
12137.764421377429
 30
0.0
 11
25305.458346827079
 21
12129.264421079841
 31
0.0
  0
LINE
  5
2ED
  8
____1
  6
CONTINUOUS
 62
     5
 10
25305.458346827079
 20
12137.764421377429
 30
0.0
 11
25303.958346827079
 21
12137.764421377429
 31
0.0
  0
LINE
  5
2EE
  8
____1
  6
CONTINUOUS
 62
     5
 10
25314.458346827079
 20
12168.583562690061
 30
0.0
 11
25314.458346827079
 21
12170.08356269005
 31
0.0
  0
INSERT
  5
30C
  8
____1
  6
DASHED2
 62
   254
  2
C18
 10
0.0
 20
0.0
 30
0.0
  0
INSERT
  5
36A
  8
____1
  6
DASHED2
 62
     7
  2
C20
 10
0.0
 20
0.0
 30
0.0
  0
INSERT
  5
378
  8
____1
  6
DASHED2
 62
     7
  2
C26
 10
0.0
 20
0.0
 30
0.0
  0
LINE
  5
379
  8
____1
  6
DASHED
 62
     7
 10
25125.45834682709
 20
12351.60909144481
 30
0.0
 11
25125.45834682709
 21
12360.10909144481
 31
0.0
  0
ARC
  5
37A
  8
____1
  6
CONTINUOUS
 62
     5
 10
25320.958346827079
 20
12168.583562690061
 30
0.0
 40
1.5
 50
0.0
 51
90.0
  0
LINE
  5
37B
  8
____1
  6
CONTINUOUS
 62
     5
 10
25123.95834682709
 20
12041.58356269005
 30
0.0
 11
25123.95834682709
 21
12088.85385683598
 31
0.0
  0
LINE
  5
37C
  8
____1
  6
CONTINUOUS
 62
     5
 10
25320.958346827079
 20
12120.083562690061
 30
0.0
 11
25320.958346827079
 21
12168.583562690061
 31
0.0
  0
LINE
  5
37D
  8
____1
  6
CONTINUOUS
 62
     5
 10
25322.458346827079
 20
12120.083562690061
 30
0.0
 11
25322.458346827079
 21
12168.583562690061
 31
0.0
  0
LINE
  5
37E
  8
____1
  6
CONTINUOUS
 62
     5
 10
25272.60687609747
 20
12120.083562690061
 30
0.0
 11
25320.958346827079
 21
12120.083562690061
 31
0.0
  0
ARC
  5
37F
  8
____1
  6
CONTINUOUS
 62
     5
 10
25123.95834682709
 20
12088.85385683598
 30
0.0
 40
1.499999999998932
 50
101.3099324741564
 51
180.0
  0
LINE
  5
380
  8
____1
  6
CONTINUOUS
 62
     5
 10
25272.60687609747
 20
12118.58356269005
 30
0.0
 11
25320.958346827079
 21
12118.58356269005
 31
0.0
  0
LINE
  5
381
  8
____1
  6
CONTINUOUS
 62
     5
 10
25125.45834682709
 20
12041.58356269005
 30
0.0
 11
25125.45834682709
 21
12050.08356269005
 31
0.0
  0
LINE
  5
382
  8
____1
  6
CONTINUOUS
 62
     5
 10
25314.458346827079
 20
12168.583562690061
 30
0.0
 11
25320.958346827079
 21
12168.583562690061
 31
0.0
  0
LINE
  5
383
  8
____1
  6
CENTER2
 62
     3
 10
25262.45834682709
 20
12094.55661424041
 30
0.0
 11
25262.45834682709
 21
12083.05661424041
 31
0.0
  0
LINE
  5
384
  8
____1
  6
CONTINUOUS
 62
     5
 10
25241.916198487939
 20
12110.915746917981
 30
0.0
 11
25246.188051203189
 21
12089.55661424041
 31
0.0
  0
LINE
  5
385
  8
____1
  6
CONTINUOUS
 62
     5
 10
25279.95834682709
 20
12089.55661424041
 30
0.0
 11
25246.188051203189
 21
12089.55661424041
 31
0.0
  0
LINE
  5
386
  8
____1
  6
CONTINUOUS
 62
     5
 10
25268.45834682709
 20
12089.55661424041
 30
0.0
 11
25268.45834682709
 21
12088.05661424041
 31
0.0
  0
LINE
  5
387
  8
____1
  6
CONTINUOUS
 62
     5
 10
25279.95834682709
 20
12089.55661424041
 30
0.0
 11
25279.95834682709
 21
12088.05661424041
 31
0.0
  0
ARC
  5
388
  8
____1
  6
CONTINUOUS
 62
     5
 10
25240.445328122281
 20
12110.62156947591
 30
0.0
 40
1.5000000000011431
 50
11.31005865895931
 51
101.30995739302151
  0
LINE
  5
389
  8
____1
  6
CONTINUOUS
 62
     5
 10
25240.151153279861
 20
12112.09244036151
 30
0.0
 11
25222.010413961769
 21
12108.46427026291
 31
0.0
  0
ARC
  5
38A
  8
____1
  6
CONTINUOUS
 62
     5
 10
25246.1880512032
 20
12089.55661424041
 30
0.0
 40
1.50000000000198
 50
-168.6900383559028
 51
-90.000002427085036
  0
LINE
  5
38B
  8
____1
  6
CONTINUOUS
 62
     5
 10
25222.010413961769
 20
12108.46427026291
 30
0.0
 11
25222.304589897969
 21
12106.99339959608
 31
0.0
  0
DIMENSION
  5
39B
  8
______
  6
CONTINUOUS
 62
     7
  2
*D42
 10
25373.079486237992
 20
12118.58356269005
 30
0.0
 11
25373.079486237992
 21
12047.33356744246
 31
0.0
 13
25279.95834682709
 23
12088.05661424041
 33
0.0
 14
25310.485295276729
 24
12118.58356269005
 34
0.0
 50
90.0
  0
DIMENSION
  5
3A9
  8
______
  6
CONTINUOUS
 62
     7
  2
*D43
 10
25279.95834682709
 20
11979.39716585667
 30
0.0
 11
25262.45834682709
 21
11979.39716585667
 31
0.0
 13
25244.95834682709
 23
12088.05661424041
 33
0.0
 14
25279.95834682709
 24
12088.05661424041
 34
0.0
  0
DIMENSION
  5
3B6
  8
______
  6
CONTINUOUS
 62
     7
  2
*D44
 10
25244.95834682709
 20
11979.39716585667
 30
0.0
 11
25184.45834682709
 21
11979.39716585667
 31
0.0
 13
25123.95834682709
 23
12065.218709763019
 33
0.0
 14
25244.95834682709
 24
12088.05661424041
 34
0.0
  0
LINE
  5
3B7
  8
____1
  6
CONTINUOUS
 62
     5
 10
25122.45834682709
 20
12041.58358267648
 30
0.0
 11
25122.45834682709
 21
12088.85385683598
 31
0.0
  0
LINE
  5
3B8
  8
____1
  6
CONTINUOUS
 62
     5
 10
25123.95834682709
 20
12050.08356269005
 30
0.0
 11
25125.45834682709
 21
12050.08356269005
 31
0.0
  0
ARC
  5
3B9
  8
____1
  6
CONTINUOUS
 62
     5
 10
25320.958346827079
 20
12120.083562690061
 30
0.0
 40
1.5
 50
-90.0
 51
0.0
  0
LINE
  5
3BA
  8
____1
  6
CONTINUOUS
 62
     5
 10
25314.458346827079
 20
12168.583562690061
 30
0.0
 11
25314.458346827079
 21
12170.08356269005
 31
0.0
  0
ARC
  5
3BB
  8
____1
  6
CONTINUOUS
 62
     5
 10
25272.60687609747
 20
12118.58356269005
 30
0.0
 40
1.5
 50
90.0
 51
101.3099324741428
  0
LINE
  5
3BC
  8
____1
  6
CONTINUOUS
 62
     5
 10
25123.66417262438
 20
12090.324727849509
 30
0.0
 11
25272.31270189476
 21
12120.05443370359
 31
0.0
  0
LINE
  5
3BD
  8
____1
  6
CONTINUOUS
 62
     5
 10
25123.95834682709
 20
12088.85385683598
 30
0.0
 11
25272.60687609747
 21
12118.58356269005
 31
0.0
  0
LINE
  5
3BE
  8
____1
  6
DASHED2
 62
     7
 10
25314.458346827079
 20
12478.60909144481
 30
0.0
 11
25320.958346827079
 21
12478.60909144481
 31
0.0
  0
LINE
  5
3BF
  8
____1
  6
DASHED2
 62
     7
 10
25314.458346827079
 20
12480.10909144481
 30
0.0
 11
25320.958346827079
 21
12480.10909144481
 31
0.0
  0
ARC
  5
3C0
  8
____1
  6
DASHED
 62
     7
 10
25123.95834682709
 20
12351.60909144481
 30
0.0
 40
1.5
 50
180.0
 51
0.0
  0
LINE
  5
3C1
  8
____1
  6
DASHED
 62
     7
 10
25123.95834682709
 20
12360.10909144481
 30
0.0
 11
25125.45834682709
 21
12360.10909144481
 31
0.0
  0
ARC
  5
3C2
  8
____1
  6
CONTINUOUS
 62
     5
 10
25123.95834682709
 20
12398.87938559073
 30
0.0
 40
1.499999999998932
 50
101.3099324741564
 51
180.0
  0
LINE
  5
3C3
  8
____1
  6
CONTINUOUS
 62
     5
 10
25122.45834682709
 20
12351.60909144481
 30
0.0
 11
25122.45834682709
 21
12398.87938559073
 31
0.0
  0
LINE
  5
3C4
  8
____1
  6
CONTINUOUS
 62
     5
 10
25923.958346827079
 20
12120.083562690061
 30
0.0
 11
25923.958346827079
 21
12127.764421377429
 31
0.0
  0
LINE
  5
3C5
  8
____1
  6
DASHED2
 62
     7
 10
25930.458346827079
 20
12478.60909144481
 30
0.0
 11
25923.958346827079
 21
12478.60909144481
 31
0.0
  0
LINE
  5
3C6
  8
____1
  6
DASHED
 62
     7
 10
25922.458346827079
 20
12430.10909144481
 30
0.0
 11
25922.458346827079
 21
12478.60909144481
 31
0.0
  0
ARC
  5
3C7
  8
____1
  6
DASHED
 62
     7
 10
25923.958346827079
 20
12478.60909144481
 30
0.0
 40
1.5
 50
90.0
 51
180.0
  0
LINE
  5
3C8
  8
____1
  6
DASHED
 62
     7
 10
25972.309817556699
 20
12428.60909144481
 30
0.0
 11
25923.958346827079
 21
12428.60909144481
 31
0.0
  0
ARC
  5
3C9
  8
____1
  6
DASHED
 62
     7
 10
26120.95834682709
 20
12351.60909144481
 30
0.0
 40
1.5
 50
180.0
 51
-90.0
  0
ARC
  5
3CA
  8
____1
  6
CONTINUOUS
 62
     5
 10
26120.95834682709
 20
12351.60909144481
 30
0.0
 40
1.5
 50
-90.0
 51
0.0
  0
LINE
  5
3CB
  8
____1
  6
DASHED
 62
     7
 10
26120.95834682709
 20
12351.60909144481
 30
0.0
 11
26120.95834682709
 21
12398.87938559073
 31
0.0
  0
ARC
  5
3CC
  8
____1
  6
CONTINUOUS
 62
     5
 10
26120.95834682709
 20
12041.58356269005
 30
0.0
 40
1.5
 50
-90.0
 51
0.0
  0
LINE
  5
3CD
  8
____1
  6
DASHED
 62
     7
 10
26119.45834682709
 20
12351.60909144481
 30
0.0
 11
26119.45834682709
 21
12360.10909144481
 31
0.0
  0
LINE
  5
3CE
  8
____1
  6
DASHED
 62
     7
 10
26120.95834682709
 20
12360.10909144481
 30
0.0
 11
26119.45834682709
 21
12360.10909144481
 31
0.0
  0
LINE
  5
3CF
  8
____1
  6
CONTINUOUS
 62
     5
 10
26119.45834682709
 20
12041.58356269005
 30
0.0
 11
26119.45834682709
 21
12050.08356269005
 31
0.0
  0
LINE
  5
3D0
  8
____1
  6
CONTINUOUS
 62
     5
 10
25314.458346827079
 20
12478.60909144481
 30
0.0
 11
25314.458346827079
 21
12480.10909144481
 31
0.0
  0
LINE
  5
3D1
  8
____1
  6
CONTINUOUS
 62
     5
 10
25123.95834682709
 20
12400.10909144481
 30
0.0
 11
25272.458346827079
 21
12430.10909144481
 31
0.0
  0
LINE
  5
3D2
  8
____1
  6
CONTINUOUS
 62
     5
 10
25122.45834682709
 20
12350.10909144481
 30
0.0
 11
25122.45834682709
 21
12400.10909144481
 31
0.0
  0
LINE
  5
3D3
  8
____1
  6
DASHED
 62
     7
 10
25125.758346827079
 20
12350.10909144481
 30
0.0
 11
25125.758346827079
 21
12360.10909144481
 31
0.0
  0
LINE
  5
3D4
  8
____1
  6
CONTINUOUS
 62
     5
 10
25240.445328122281
 20
12110.62156947591
 30
0.0
 11
25222.304589897969
 21
12106.99339959608
 31
0.0
  0
LINE
  5
3D5
  8
____1
  6
CONTINUOUS
 62
     5
 10
25256.45834682709
 20
12089.55661424041
 30
0.0
 11
25256.45834682709
 21
12088.05661424041
 31
0.0
  0
LINE
  5
3D6
  8
____1
  6
CONTINUOUS
 62
     5
 10
25320.958346827079
 20
12120.083562690061
 30
0.0
 11
25320.958346827079
 21
12127.764421377429
 31
0.0
  0
LINE
  5
3D7
  8
____1
  6
CONTINUOUS
 62
     5
 10
25314.458346827079
 20
12168.583562690061
 30
0.0
 11
25314.458346827079
 21
12170.08356269005
 31
0.0
  0
LINE
  5
3D8
  8
____1
  6
CONTINUOUS
 62
     5
 10
25303.958346827079
 20
12171.810564134281
 30
0.0
 11
25303.958346827079
 21
12129.26442137744
 31
0.0
  0
ARC
  5
3D9
  8
____1
  6
CONTINUOUS
 62
     5
 10
25303.958346827079
 20
12171.810564134281
 30
0.0
 40
1.4999999999995981
 50
91.789910608211358
 51
180.0
  0
INSERT
  5
3EA
  8
____1
  6
DASHED2
 62
   254
  2
C27
 10
0.0
 20
0.0
 30
0.0
  0
LINE
  5
3EB
  8
____1
  6
CONTINUOUS
 62
     5
 10
25279.95834682709
 20
12088.05661424041
 30
0.0
 11
25244.95834682709
 21
12088.05661424041
 31
0.0
  0
LINE
  5
3EC
  8
____1
  6
CONTINUOUS
 62
     5
 10
25240.445328122281
 20
12110.62156947591
 30
0.0
 11
25244.95834682709
 21
12088.05661424041
 31
0.0
  0
LINE
  5
3ED
  8
____1
  6
CONTINUOUS
 62
     5
 10
26122.45834682709
 20
12822.31078867995
 30
0.0
 11
26120.95834682709
 21
12822.31078867995
 31
0.0
  0
LINE
  5
3EE
  8
____1
  6
DASHED
 62
     5
 10
26120.95834682709
 20
12822.31078867995
 30
0.0
 11
26120.95834682709
 21
12823.81078867995
 31
0.0
  0
LINE
  5
3EF
  8
____1
  6
CONTINUOUS
 62
     5
 10
26120.95834682709
 20
12822.31078867995
 30
0.0
 11
26120.95834682709
 21
12823.81078867995
 31
0.0
  0
LINE
  5
3F0
  8
____1
  6
CONTINUOUS
 62
     5
 10
26120.95834682709
 20
12041.58356269005
 30
0.0
 11
26120.95834682709
 21
12088.85385683598
 31
0.0
  0
ARC
  5
3F1
  8
____1
  6
CONTINUOUS
 62
     5
 10
26120.95834682709
 20
12398.87938559073
 30
0.0
 40
1.4999999999975051
 50
0.0
 51
78.690067526116053
  0
LINE
  5
3F2
  8
____1
  6
CONTINUOUS
 62
     5
 10
26122.45834682709
 20
12351.60909144481
 30
0.0
 11
26122.45834682709
 21
12398.87938559073
 31
0.0
  0
LINE
  5
3F3
  8
____1
  6
CONTINUOUS
 62
     5
 10
26120.95834682709
 20
12041.58356269005
 30
0.0
 11
26120.95834682709
 21
12088.85385683598
 31
0.0
  0
LINE
  5
3F4
  8
____1
  6
CONTINUOUS
 62
     5
 10
26120.95834682709
 20
12350.10909144481
 30
0.0
 11
26120.95834682709
 21
12400.10909144481
 31
0.0
  0
LINE
  5
3F5
  8
____1
  6
CONTINUOUS
 62
     5
 10
25930.458346827079
 20
12478.60909144481
 30
0.0
 11
25930.458346827079
 21
12480.10909144481
 31
0.0
  0
LINE
  5
3F6
  8
____1
  6
DASHED2
 62
     7
 10
25930.458346827079
 20
12482.35909144481
 30
0.0
 11
25930.458346827079
 21
12476.35909144481
 31
0.0
  0
LINE
  5
3F7
  8
____1
  6
CONTINUOUS
 62
     5
 10
25939.458346827079
 20
12137.764421377429
 30
0.0
 11
25940.95834682709
 21
12137.764421377429
 31
0.0
  0
LINE
  5
3F8
  8
____1
  6
CONTINUOUS
 62
     5
 10
25942.45834682709
 20
12171.810564134281
 30
0.0
 11
25942.45834682709
 21
12129.264421377429
 31
0.0
  0
DIMENSION
  5
405
  8
______
  6
CONTINUOUS
 62
     7
  2
*D46
 10
25122.45834682709
 20
12230.58158215697
 30
0.0
 11
25196.681503324678
 21
12230.58158215697
 31
0.0
 13
25262.45834682709
 23
12094.55661424041
 33
0.0
 14
25122.45834682709
 24
12088.85385683598
 34
0.0
 50
180.0
  0
LINE
  5
406
  8
____1
  6
CONTINUOUS
 62
     5
 10
25972.309817556699
 20
12118.58356269005
 30
0.0
 11
25923.958346827079
 21
12118.58356269005
 31
0.0
  0
LINE
  5
407
  8
____1
  6
CONTINUOUS
 62
     5
 10
25972.309817556699
 20
12120.083562690061
 30
0.0
 11
25923.958346827079
 21
12120.083562690061
 31
0.0
  0
ARC
  5
408
  8
____1
  6
CONTINUOUS
 62
     5
 10
25923.958346827079
 20
12120.083562690061
 30
0.0
 40
1.5
 50
180.0
 51
-90.0
  0
LINE
  5
409
  8
____1
  6
CONTINUOUS
 62
     5
 10
25930.458346827079
 20
12168.583562690061
 30
0.0
 11
25930.458346827079
 21
12170.08356269005
 31
0.0
  0
ARC
  5
40A
  8
____1
  6
CONTINUOUS
 62
     5
 10
25972.309817556699
 20
12118.58356269005
 30
0.0
 40
1.5
 50
78.690067525857145
 51
90.0
  0
LINE
  5
40B
  8
____1
  6
DASHED2
 62
     7
 10
25923.958346827079
 20
12437.78995013219
 30
0.0
 11
25923.958346827079
 21
12481.83609288904
 31
0.0
  0
LINE
  5
40C
  8
____1
  6
CONTINUOUS
 62
     5
 10
25923.958346827079
 20
12430.10909144481
 30
0.0
 11
25923.958346827079
 21
12437.78995013219
 31
0.0
  0
LINE
  5
40D
  8
____1
  6
DASHED2
 62
     7
 10
25930.458346827079
 20
12480.10909144481
 30
0.0
 11
25923.958346827079
 21
12480.10909144481
 31
0.0
  0
ARC
  5
40E
  8
____1
  6
CONTINUOUS
 62
     5
 10
25923.958346827079
 20
12168.583562690061
 30
0.0
 40
1.5
 50
90.0
 51
180.0
  0
ARC
  5
40F
  8
____1
  6
CONTINUOUS
 62
     5
 10
25972.309817556699
 20
12428.60909144481
 30
0.0
 40
1.5
 50
78.690067525857145
 51
90.0
  0
LINE
  5
410
  8
____1
  6
CONTINUOUS
 62
     5
 10
25923.958346827079
 20
12127.764421377429
 30
0.0
 11
25923.958346827079
 21
12168.583562690061
 31
0.0
  0
LINE
  5
411
  8
____1
  6
CONTINUOUS
 62
     5
 10
25930.458346827079
 20
12168.583562690061
 30
0.0
 11
25923.958346827079
 21
12168.583562690061
 31
0.0
  0
ARC
  5
412
  8
____1
  6
CONTINUOUS
 62
     5
 10
25998.72864245098
 20
12089.55661424041
 30
0.0
 40
1.50000000000198
 50
-89.999997572914964
 51
-11.309961644097189
  0
LINE
  5
413
  8
____1
  6
CONTINUOUS
 62
     5
 10
26022.906279692412
 20
12108.46427026291
 30
0.0
 11
26022.612103756212
 21
12106.99339959608
 31
0.0
  0
LINE
  5
414
  8
____1
  6
CONTINUOUS
 62
     5
 10
26004.471365531899
 20
12110.62156947591
 30
0.0
 11
26022.612103756212
 21
12106.99339959608
 31
0.0
  0
LINE
  5
415
  8
____1
  6
CONTINUOUS
 62
     5
 10
25988.45834682709
 20
12089.55661424041
 30
0.0
 11
25988.45834682709
 21
12088.05661424041
 31
0.0
  0
LINE
  5
416
  8
____1
  6
CONTINUOUS
 62
     5
 10
25939.458346827079
 20
12137.764421377429
 30
0.0
 11
25939.458346827079
 21
12129.264420401951
 31
0.0
  0
ARC
  5
417
  8
____1
  6
CONTINUOUS
 62
     5
 10
25940.958346827079
 20
12129.264421377429
 30
0.0
 40
1.5
 50
-179.99996273939479
 51
0.0
  0
LINE
  5
418
  8
____1
  6
CONTINUOUS
 62
     5
 10
26004.471365531899
 20
12110.62156947591
 30
0.0
 11
25999.95834682709
 21
12088.05661424041
 31
0.0
  0
LINE
  5
419
  8
____1
  6
CENTER2
 62
     3
 10
25982.45834682709
 20
12094.55661424041
 30
0.0
 11
25982.45834682709
 21
12083.05661424041
 31
0.0
  0
LINE
  5
41A
  8
____1
  6
CONTINUOUS
 62
     5
 10
26003.00049516623
 20
12110.915746917981
 30
0.0
 11
25998.72864245098
 21
12089.55661424041
 31
0.0
  0
LINE
  5
41B
  8
____1
  6
CONTINUOUS
 62
     5
 10
25964.958346827079
 20
12089.55661424041
 30
0.0
 11
25998.72864245098
 21
12089.55661424041
 31
0.0
  0
LINE
  5
41C
  8
____1
  6
CONTINUOUS
 62
     5
 10
25976.458346827079
 20
12089.55661424041
 30
0.0
 11
25976.458346827079
 21
12088.05661424041
 31
0.0
  0
LINE
  5
41D
  8
____1
  6
CONTINUOUS
 62
     5
 10
26120.95834682709
 20
12400.10909144481
 30
0.0
 11
25972.45834682709
 21
12430.10909144481
 31
0.0
  0
LINE
  5
41E
  8
____1
  6
CONTINUOUS
 62
     5
 10
26120.95834682709
 20
12050.08356269005
 30
0.0
 11
26119.45834682709
 21
12050.08356269005
 31
0.0
  0
ARC
  5
41F
  8
____1
  6
CONTINUOUS
 62
     5
 10
26120.95834682709
 20
12088.85385683598
 30
0.0
 40
1.4999999999975051
 50
0.0
 51
78.690067526116053
  0
LINE
  5
420
  8
____1
  6
CONTINUOUS
 62
     5
 10
26122.45834682709
 20
12041.58356269005
 30
0.0
 11
26122.45834682709
 21
12088.85385683598
 31
0.0
  0
ARC
  5
421
  8
____1
  6
CONTINUOUS
 62
     5
 10
26120.95834682709
 20
12041.58356269005
 30
0.0
 40
1.5
 50
180.0
 51
-90.0
  0
LINE
  5
422
  8
____1
  6
CONTINUOUS
 62
     5
 10
25930.458346827079
 20
12170.08356269005
 30
0.0
 11
25923.958346827079
 21
12170.08356269005
 31
0.0
  0
LINE
  5
423
  8
____1
  6
CONTINUOUS
 62
     5
 10
25922.458346827079
 20
12120.083562690061
 30
0.0
 11
25922.458346827079
 21
12168.583562690061
 31
0.0
  0
LINE
  5
424
  8
____1
  6
DASHED
 62
     7
 10
26120.95834682709
 20
12398.87938559073
 30
0.0
 11
25972.309817556699
 21
12428.60909144481
 31
0.0
  0
LINE
  5
425
  8
____1
  6
CONTINUOUS
 62
     5
 10
26121.252521029801
 20
12400.35025660427
 30
0.0
 11
25972.60399175941
 21
12430.07996245834
 31
0.0
  0
LINE
  5
426
  8
____1
  6
CONTINUOUS
 62
     5
 10
26120.95834682709
 20
12088.85385683598
 30
0.0
 11
25972.309817556699
 21
12118.58356269005
 31
0.0
  0
LINE
  5
427
  8
____1
  6
CONTINUOUS
 62
     5
 10
26121.252521029801
 20
12090.324727849509
 30
0.0
 11
25972.60399175941
 21
12120.05443370359
 31
0.0
  0
LINE
  5
428
  8
____1
  6
CONTINUOUS
 62
     5
 10
25930.458346827079
 20
12478.60909144481
 30
0.0
 11
25930.458346827079
 21
12480.10909144481
 31
0.0
  0
LINE
  5
429
  8
____1
  6
CONTINUOUS
 62
     5
 10
25972.309817556699
 20
12430.10909144481
 30
0.0
 11
25923.958346827079
 21
12430.10909144481
 31
0.0
  0
ARC
  5
42A
  8
____1
  6
DASHED
 62
     7
 10
25923.958346827079
 20
12430.10909144481
 30
0.0
 40
1.5
 50
180.0
 51
-90.0
  0
LINE
  5
42B
  8
____1
  6
CONTINUOUS
 62
     5
 10
25322.458346827079
 20
13623.81078867995
 30
0.0
 11
25320.958346827079
 21
13623.81078867995
 31
0.0
  0
LINE
  5
42C
  8
____1
  6
CENTER2
 62
     3
 10
25274.958346827079
 20
13072.31078867995
 30
0.0
 11
25249.958346827079
 21
13072.31078867995
 31
0.0
  0
LINE
  5
42D
  8
____1
  6
CONTINUOUS
 62
     5
 10
25122.45834682709
 20
13822.31078867995
 30
0.0
 11
25123.95834682709
 21
13822.31078867995
 31
0.0
  0
LINE
  5
42E
  8
____1
  6
CONTINUOUS
 62
     7
 10
25123.95834682709
 20
13822.31078867995
 30
0.0
 11
25123.95834682709
 21
13820.81078867995
 31
0.0
  0
LINE
  5
42F
  8
____1
  6
DASHED2
 62
     7
 10
25322.458346827079
 20
13622.310788679941
 30
0.0
 11
25322.458346827079
 21
13623.81078867995
 31
0.0
  0
LINE
  5
430
  8
____1
  6
DASHED2
 62
     7
 10
25322.458346827079
 20
13623.81078867995
 30
0.0
 11
25320.958346827079
 21
13623.81078867995
 31
0.0
  0
LINE
  5
431
  8
____1
  6
DASHED2
 62
     7
 10
25305.958346827079
 20
13638.81078867995
 30
0.0
 11
25320.958346827079
 21
13623.81078867995
 31
0.0
  0
LINE
  5
432
  8
____1
  6
CONTINUOUS
 62
     5
 10
25123.95834682709
 20
13820.81078867995
 30
0.0
 11
25305.958346827079
 21
13638.81078867995
 31
0.0
  0
LINE
  5
433
  8
____1
  6
CONTINUOUS
 62
     5
 10
25123.95834682709
 20
13822.31078867995
 30
0.0
 11
25123.95834682709
 21
13820.81078867995
 31
0.0
  0
LINE
  5
434
  8
____1
  6
DASHED
 62
     7
 10
25320.958346827079
 20
13623.81078867995
 30
0.0
 11
25320.958346827079
 21
13022.31078867995
 31
0.0
  0
LINE
  5
435
  8
____1
  6
DASHED2
 62
     7
 10
25322.458346827079
 20
13623.81078867995
 30
0.0
 11
25322.458346827079
 21
13022.31078867995
 31
0.0
  0
LINE
  5
436
  8
____1
  6
DASHED2
 62
     7
 10
25302.45834682709
 20
13002.31078867995
 30
0.0
 11
25320.958346827079
 21
13020.81078867995
 31
0.0
  0
LINE
  5
437
  8
____1
  6
CONTINUOUS
 62
     5
 10
25940.958346827079
 20
12171.810564134281
 30
0.0
 11
25940.958346827079
 21
12129.264421377429
 31
0.0
  0
ARC
  5
438
  8
____1
  6
CONTINUOUS
 62
     5
 10
25940.958346827079
 20
12171.810564134281
 30
0.0
 40
1.5
 50
0.0
 51
88.210089391510863
  0
INSERT
  5
449
  8
____1
  6
DASHED2
 62
   254
  2
C28
 10
0.0
 20
0.0
 30
0.0
  0
LINE
  5
44A
  8
____1
  6
CONTINUOUS
 62
     5
 10
25930.458346827079
 20
12168.583562690061
 30
0.0
 11
25930.458346827079
 21
12170.08356269005
 31
0.0
  0
LINE
  5
44B
  8
____1
  6
CONTINUOUS
 62
     5
 10
25964.958346827079
 20
12088.05661424041
 30
0.0
 11
25999.95834682709
 21
12088.05661424041
 31
0.0
  0
LINE
  5
44C
  8
____1
  6
CONTINUOUS
 62
     5
 10
25940.958346827079
 20
12171.810564134281
 30
0.0
 11
25622.45834682709
 21
12181.763689134281
 31
0.0
  0
LINE
  5
44D
  8
____1
  6
CONTINUOUS
 62
     5
 10
25941.00519895566
 20
12173.30983224842
 30
0.0
 11
25622.45834682709
 21
12183.264421377429
 31
0.0
  0
INSERT
  5
46B
  8
____1
  6
DASHED2
 62
     7
  2
C29
 10
0.0
 20
0.0
 30
0.0
  0
INSERT
  5
490
  8
____1
  6
DASHED2
 62
     7
  2
C30
 10
0.0
 20
0.0
 30
0.0
  0
INSERT
  5
4A4
  8
____1
  6
DASHED2
 62
     7
  2
C31
 10
0.0
 20
0.0
 30
0.0
  0
LINE
  5
4A5
  8
____1
  6
CONTINUOUS
 62
     5
 10
25964.958346827079
 20
12089.55661424041
 30
0.0
 11
25964.958346827079
 21
12088.05661424041
 31
0.0
  0
ARC
  5
4A6
  8
____1
  6
CONTINUOUS
 62
     5
 10
26004.471365531899
 20
12110.62156947591
 30
0.0
 40
1.5000000000011431
 50
78.690042606978508
 51
168.68994134104059
  0
LINE
  5
4A7
  8
____1
  6
CONTINUOUS
 62
     5
 10
26004.765540374308
 20
12112.09244036151
 30
0.0
 11
26022.906279692412
 21
12108.46427026291
 31
0.0
  0
LINE
  5
4A8
  8
____1
  6
DASHED2
 62
     7
 10
25923.958346827079
 20
13622.310788679941
 30
0.0
 11
25923.958346827079
 21
13623.81078867995
 31
0.0
  0
LINE
  5
4A9
  8
____1
  6
DASHED2
 62
     7
 10
25938.95834682709
 20
13638.81078867995
 30
0.0
 11
25923.958346827079
 21
13623.81078867995
 31
0.0
  0
LINE
  5
4AA
  8
____1
  6
DASHED2
 62
     7
 10
25930.458346827079
 20
13014.31078867995
 30
0.0
 11
25930.458346827079
 21
13630.31078867995
 31
0.0
  0
LINE
  5
4AB
  8
____1
  6
DASHED2
 62
     7
 10
25922.458346827079
 20
13020.81078867995
 30
0.0
 11
25922.458346827079
 21
13622.31078867995
 31
0.0
  0
LINE
  5
4AC
  8
____1
  6
DASHED
 62
     7
 10
25923.958346827079
 20
13020.81078867995
 30
0.0
 11
25923.958346827079
 21
13622.31078867995
 31
0.0
  0
LINE
  5
4AD
  8
____1
  6
CENTER2
 62
     3
 10
25982.45834682709
 20
13084.81078867995
 30
0.0
 11
25982.45834682709
 21
13059.81078867995
 31
0.0
  0
LINE
  5
4AE
  8
____1
  6
DASHED2
 62
     7
 10
25942.45834682709
 20
13002.31078867995
 30
0.0
 11
25923.958346827079
 21
13020.81078867995
 31
0.0
  0
LINE
  5
4AF
  8
____1
  6
CONTINUOUS
 62
     5
 10
25922.458346827079
 20
13022.31078867995
 30
0.0
 11
25922.458346827079
 21
13020.81078867995
 31
0.0
  0
LINE
  5
4B0
  8
____1
  6
DASHED2
 62
     7
 10
25619.958346827079
 20
13020.81078867995
 30
0.0
 11
25624.958346827079
 21
13020.81078867995
 31
0.0
  0
LINE
  5
4B1
  8
____1
  6
DASHED2
 62
     7
 10
25922.458346827079
 20
13020.81078867995
 30
0.0
 11
25923.958346827079
 21
13020.81078867995
 31
0.0
  0
LINE
  5
4B2
  8
____1
  6
CONTINUOUS
 62
     5
 10
25972.45834682709
 20
12972.31078867995
 30
0.0
 11
25972.45834682709
 21
13672.31078867995
 31
0.0
  0
LINE
  5
4B3
  8
____1
  6
CONTINUOUS
 62
     5
 10
26120.95834682709
 20
13820.81078867995
 30
0.0
 11
25938.95834682709
 21
13638.81078867995
 31
0.0
  0
DIMENSION
  5
4C1
  8
______
  6
CONTINUOUS
 62
     7
  2
*D51
 10
25999.95834682709
 20
11979.39716585667
 30
0.0
 11
25982.45834682709
 21
11979.39716585667
 31
0.0
 13
25964.958346827079
 23
12088.05661424041
 33
0.0
 14
25999.95834682709
 24
12088.05661424041
 34
0.0
  0
TEXT
  5
4C2
  8
____1
  6
CONTINUOUS
 62
     7
 10
25468.70913420444
 20
11905.321780512189
 30
0.0
 40
33.866664886474609
  1
ブラケット部断面図
  7
STYLE1
  0
DIMENSION
  5
4CF
  8
______
  6
CONTINUOUS
 62
     7
  2
*D52
 10
26122.45834682709
 20
12230.58158215697
 30
0.0
 11
26052.45834682709
 21
12230.58158215697
 31
0.0
 13
25982.45834682709
 23
12094.55661424041
 33
0.0
 14
26122.45834682709
 24
12088.85385683598
 34
0.0
  0
DIMENSION
  5
4DC
  8
______
  6
CONTINUOUS
 62
     7
  2
*D53
 10
26120.95834682709
 20
11979.39716585667
 30
0.0
 11
26060.45834682709
 21
11979.39716585667
 31
0.0
 13
25999.95834682709
 23
12088.05661424041
 33
0.0
 14
26120.95834682709
 24
12041.58356269005
 34
0.0
  0
INSERT
  5
565
  8
____1
  6
DASHED2
 62
     7
  2
C32
 10
0.0
 20
0.0
 30
0.0
  0
INSERT
  5
576
  8
____1
  6
DASHED2
 62
     7
  2
C42
 10
0.0
 20
0.0
 30
0.0
  0
INSERT
  5
58E
  8
____1
  6
CONTINUOUS
 62
     7
  2
C43
 10
0.0
 20
0.0
 30
0.0
  0
LINE
  5
58F
  8
____1
  6
CONTINUOUS
 62
     5
 10
25322.458346827079
 20
13022.31078867995
 30
0.0
 11
25320.958346827079
 21
13022.31078867995
 31
0.0
  0
LINE
  5
590
  8
____1
  6
CONTINUOUS
 62
     5
 10
25320.958346827079
 20
13022.31078867995
 30
0.0
 11
25320.958346827079
 21
13020.81078867995
 31
0.0
  0
LINE
  5
591
  8
____1
  6
CONTINUOUS
 62
     5
 10
25272.458346827079
 20
13672.31078867995
 30
0.0
 11
25272.458346827079
 21
12972.31078867995
 31
0.0
  0
LINE
  5
592
  8
____1
  6
CENTER2
 62
     3
 10
25262.45834682709
 20
13559.81078867995
 30
0.0
 11
25262.45834682709
 21
13584.81078867995
 31
0.0
  0
LINE
  5
593
  8
____1
  6
CENTER2
 62
     3
 10
25274.958346827079
 20
13572.31078867995
 30
0.0
 11
25249.958346827079
 21
13572.31078867995
 31
0.0
  0
LINE
  5
594
  8
____1
  6
CONTINUOUS
 62
     5
 10
25123.95834682709
 20
13822.31078867995
 30
0.0
 11
25123.95834682709
 21
13820.81078867995
 31
0.0
  0
INSERT
  5
5A7
  8
____1
  6
DASHED2
 62
   254
  2
C44
 10
0.0
 20
0.0
 30
0.0
  0
INSERT
  5
5B7
  8
____1
  6
CONTINUOUS
 62
     7
  2
C45
 10
0.0
 20
0.0
 30
0.0
  0
DIMENSION
  5
5C6
  8
______
  6
CONTINUOUS
 62
     7
  2
*D68
 10
26202.765784248171
 20
12998.81078867995
 30
0.0
 11
26202.765784248171
 21
13322.31078867995
 31
0.0
 13
25942.45834682709
 23
13638.81078867995
 33
0.0
 14
25942.45834682709
 24
12998.81078867995
 34
0.0
 50
90.0
  0
DIMENSION
  5
5D3
  8
______
  6
CONTINUOUS
 62
     7
  2
*D69
 10
26122.45834682709
 20
13866.40081805037
 30
0.0
 11
26052.45834682709
 21
13866.40081805037
 31
0.0
 13
25982.45834682709
 23
13584.81078867995
 33
0.0
 14
26122.45834682709
 24
13822.31078867995
 34
0.0
  0
INSERT
  5
629
  8
____1
  6
CONTINUOUS
 62
     7
  2
C46
 10
0.0
 20
0.0
 30
0.0
  0
TEXT
  5
62A
  8
____1
  6
DOT
 62
     7
 10
26823.081043384002
 20
12005.06892413029
 30
0.0
 40
28.222221374511719
  1
永　井
  7
STYLE1
  0
TEXT
  5
62B
  8
____1
  6
CONTINUOUS
 62
     7
 10
26704.358816287451
 20
12335.25801844787
 30
0.0
 40
28.222221374511719
  1
4
  7
STYLE1
  0
TEXT
  5
62C
  8
____1
  6
CONTINUOUS
 62
     7
 10
26718.969928882048
 20
12049.011585380709
 30
0.0
 40
28.222221374511719
  1
H18.4.12
  7
STYLE1
  0
TEXT
  5
62D
  8
____1
  6
CONTINUOUS
 62
     7
 10
26947.19215025656
 20
12049.011585380709
 30
0.0
 40
28.222221374511719
  1
1：8
  7
STYLE1
  0
TEXT
  5
62E
  8
____1
  6
DOT
 62
     7
 10
26823.081043384002
 20
11961.06892413029
 30
0.0
 40
28.222221374511719
  1
永　井
  7
STYLE1
  0
TEXT
  5
62F
  8
____1
  6
CONTINUOUS
 62
     7
 10
26704.358816287451
 20
12415.25801844787
 30
0.0
 40
28.222221374511719
  1
6
  7
STYLE1
  0
TEXT
  5
630
  8
____1
  6
CONTINUOUS
 62
     7
 10
26704.358816287451
 20
12495.25801844787
 30
0.0
 40
28.222221374511719
  1
8
  7
STYLE1
  0
LINE
  5
631
  8
____1
  6
DASHED2
 62
     7
 10
25314.458346827079
 20
13630.31078867995
 30
0.0
 11
25314.458346827079
 21
13014.31078867995
 31
0.0
  0
LINE
  5
632
  8
____1
  6
CENTER2
 62
     3
 10
25262.45834682709
 20
13059.81078867995
 30
0.0
 11
25262.45834682709
 21
13084.81078867995
 31
0.0
  0
LINE
  5
633
  8
____1
  6
DASHED2
 62
     7
 10
25320.958346827079
 20
13022.31078867995
 30
0.0
 11
25320.958346827079
 21
13020.81078867995
 31
0.0
  0
INSERT
  5
646
  8
____1
  6
DASHED2
 62
   254
  2
C47
 10
0.0
 20
0.0
 30
0.0
  0
INSERT
  5
650
  8
______
  6
CONTINUOUS
 62
     7
  2
C48
 10
0.0
 20
0.0
 30
0.0
  0
INSERT
  5
65A
  8
______
  6
CONTINUOUS
 62
     7
  2
C49
 10
0.0
 20
0.0
 30
0.0
  0
INSERT
  5
66D
  8
____1
  6
DASHED2
 62
   254
  2
C50
 10
0.0
 20
0.0
 30
0.0
  0
INSERT
  5
67D
  8
____1
  6
CONTINUOUS
 62
     7
  2
C51
 10
0.0
 20
0.0
 30
0.0
  0
DIMENSION
  5
687
  8
______
  6
CONTINUOUS
 62
     7
  2
*D76
 10
25262.45834682709
 20
13578.81078867995
 30
0.0
 11
24988.850425059121
 21
13645.796422707779
 31
0.0
 70
   132
 15
25256.856864268098
 25
13580.96099637722
 35
0.0
 40
0.0
  0
DIMENSION
  5
696
  8
______
  6
CONTINUOUS
 62
     7
  2
*D77
 10
25070.724467559579
 20
13072.31078867995
 30
0.0
 11
25070.724467559579
 21
13322.31078867995
 31
0.0
 13
25249.958346827079
 23
13572.31078867995
 33
0.0
 14
25249.958346827079
 24
13072.31078867995
 34
0.0
 50
90.0
  0
DIMENSION
  5
6A5
  8
______
  6
CONTINUOUS
 62
     7
  2
*D78
 10
25070.724467559579
 20
13572.31078867995
 30
0.0
 11
25070.724467559579
 21
13697.31078867995
 31
0.0
 13
25122.45834682709
 23
13822.31078867995
 33
0.0
 14
25249.958346827079
 24
13572.31078867995
 34
0.0
 50
90.0
  0
DIMENSION
  5
6B2
  8
______
  6
CONTINUOUS
 62
     7
  2
*D79
 10
25262.45834682709
 20
13866.40081805037
 30
0.0
 11
25192.45834682709
 21
13866.40081805037
 31
0.0
 13
25122.45834682709
 23
13822.31078867995
 33
0.0
 14
25262.45834682709
 24
13584.81078867995
 34
0.0
  0
LINE
  5
6B3
  8
____1
  6
CONTINUOUS
 62
     5
 10
25922.458346827079
 20
13622.31078867995
 30
0.0
 11
25923.958346827079
 21
13622.31078867995
 31
0.0
  0
LINE
  5
6B4
  8
____1
  6
DASHED
 62
     7
 10
27411.702202915221
 20
12825.610788679949
 30
0.0
 11
27401.702202915221
 21
12825.610788679949
 31
0.0
  0
LINE
  5
6B5
  8
____1
  6
CONTINUOUS
 62
     5
 10
27411.702202915221
 20
12822.31078867995
 30
0.0
 11
27361.702202915221
 21
12822.31078867995
 31
0.0
  0
TEXT
  5
6B6
  8
____1
  6
CONTINUOUS
 62
     7
 10
27303.192142627169
 20
12495.25801844787
 30
0.0
 40
28.222221374511719
  1
EPDM
  7
STYLE1
  0
TEXT
  5
6B7
  8
____1
  6
CONTINUOUS
 62
     7
 10
27544.358816287451
 20
12455.25801844787
 30
0.0
 40
28.222221374511719
  1
1
  7
STYLE1
  0
TEXT
  5
6B8
  8
____1
  6
CONTINUOUS
 62
     7
 10
27544.358816287451
 20
12495.25801844787
 30
0.0
 40
28.222221374511719
  1
1
  7
STYLE1
  0
TEXT
  5
6B9
  8
____1
  6
CONTINUOUS
 62
     7
 10
27544.358816287451
 20
12375.25801844787
 30
0.0
 40
28.222221374511719
  1
1
  7
STYLE1
  0
TEXT
  5
6BA
  8
____1
  6
CONTINUOUS
 62
     7
 10
27544.358816287451
 20
12415.25801844787
 30
0.0
 40
28.222221374511719
  1
1
  7
STYLE1
  0
TEXT
  5
6BB
  8
____1
  6
DOT
 62
     7
 10
27419.438883965478
 20
11873.312043944061
 30
0.0
 40
0.8819444179534912
  1
＊＊＊＊＊＊＊＊
  7
STYLE1
  0
TEXT
  5
6BC
  8
____1
  6
DOT
 62
     7
 10
27419.438883965478
 20
11877.562043944061
 30
0.0
 40
0.8819444179534912
  1
＊＊＊＊＊＊＊＊
  7
STYLE1
  0
TEXT
  5
6BD
  8
____1
  6
CONTINUOUS
 62
     7
 10
27253.803264758521
 20
12215.25801844787
 30
0.0
 40
28.222221374511719
  1
SUS304 1.5t
  7
STYLE1
  0
TEXT
  5
6BE
  8
____1
  6
CONTINUOUS
 62
     7
 10
27289.081043384002
 20
12335.25801844787
 30
0.0
 40
28.222221374511719
  1
SUS304
  7
STYLE1
  0
TEXT
  5
6BF
  8
____1
  6
CONTINUOUS
 62
     7
 10
27289.081043384002
 20
12295.25801844787
 30
0.0
 40
28.222221374511719
  1
SUS304
  7
STYLE1
  0
LINE
  5
6C0
  8
____1
  6
CONTINUOUS
 62
     5
 10
26122.45834682709
 20
13822.31078867995
 30
0.0
 11
26122.45834682709
 21
13820.81078867995
 31
0.0
  0
LINE
  5
6C1
  8
____1
  6
CONTINUOUS
 62
     5
 10
26122.45834682709
 20
13820.81078867995
 30
0.0
 11
26120.95834682709
 21
13820.81078867995
 31
0.0
  0
LINE
  5
6C2
  8
____1
  6
CONTINUOUS
 62
     5
 10
26122.45834682709
 20
13820.81078867995
 30
0.0
 11
26120.95834682709
 21
13820.81078867995
 31
0.0
  0
LINE
  5
6C3
  8
____1
  6
CONTINUOUS
 62
     5
 10
25923.958346827079
 20
13622.31078867995
 30
0.0
 11
25923.958346827079
 21
13623.81078867995
 31
0.0
  0
LINE
  5
6C4
  8
____1
  6
CONTINUOUS
 62
     5
 10
25922.458346827079
 20
13020.81078867995
 30
0.0
 11
25923.958346827079
 21
13020.81078867995
 31
0.0
  0
LINE
  5
6C5
  8
____1
  6
CENTER2
 62
     3
 10
25969.958346827079
 20
13072.31078867995
 30
0.0
 11
25994.958346827079
 21
13072.31078867995
 31
0.0
  0
LINE
  5
6C6
  8
____1
  6
CENTER2
 62
     3
 10
25982.45834682709
 20
13584.81078867995
 30
0.0
 11
25982.45834682709
 21
13559.81078867995
 31
0.0
  0
LINE
  5
6C7
  8
____1
  6
CENTER2
 62
     3
 10
25969.958346827079
 20
13572.31078867995
 30
0.0
 11
25994.958346827079
 21
13572.31078867995
 31
0.0
  0
INSERT
  5
6E8
  8
____1
  6
CONTINUOUS
 62
   254
  2
C52
 10
0.0
 20
0.0
 30
0.0
  0
INSERT
  5
6F2
  8
______
  6
CONTINUOUS
 62
     7
  2
C53
 10
0.0
 20
0.0
 30
0.0
  0
INSERT
  5
707
  8
____1
  6
CONTINUOUS
 62
     7
  2
C54
 10
0.0
 20
0.0
 30
0.0
  0
INSERT
  5
713
  8
____1
  6
CONTINUOUS
 62
     7
  2
C55
 10
0.0
 20
0.0
 30
0.0
  0
INSERT
  5
726
  8
____1
  6
DASHED2
 62
   254
  2
C56
 10
0.0
 20
0.0
 30
0.0
  0
TEXT
  5
727
  8
____1
  6
CONTINUOUS
 62
     7
 10
27289.081043384002
 20
12455.25801844787
 30
0.0
 40
28.222221374511719
  1
SUS304
  7
STYLE1
  0
TEXT
  5
728
  8
____1
  6
CONTINUOUS
 62
     7
 10
27289.081043384002
 20
12375.25801844787
 30
0.0
 40
28.222221374511719
  1
SUS304
  7
STYLE1
  0
LINE
  5
729
  8
______
  6
CONTINUOUS
 62
     7
 10
27359.68892055592
 20
12650.06908899172
 30
0.0
 11
27407.630112698771
 21
12650.06908899172
 31
0.0
  0
LINE
  5
72A
  8
______
  6
CONTINUOUS
 62
     7
 10
27327.907247492149
 20
12708.05347128726
 30
0.0
 11
27359.68892055592
 21
12650.06908899172
 31
0.0
  0
TEXT
  5
72B
  8
______
  6
CONTINUOUS
 62
     7
 10
27359.68892055592
 20
12658.681241164841
 30
0.0
 40
28.222221374511719
  1
7.6
  7
STYLE1
  0
DIMENSION
  5
739
  8
______
  6
CONTINUOUS
 62
     7
  2
*D85
 10
27411.702202915221
 20
12708.04941227875
 30
0.0
 11
27386.567055842261
 21
12708.04941227875
 31
0.0
 13
27361.702202915221
 23
12822.31078867995
 33
0.0
 14
27411.702202915221
 24
12822.31078867995
 34
0.0
  0
INSERT
  5
743
  8
______
  6
CONTINUOUS
 62
     7
  2
C57
 10
0.0
 20
0.0
 30
0.0
  0
ARC
  5
744
  8
____1
  6
CONTINUOUS
 62
     5
 10
27333.202202915221
 20
12972.459317950341
 30
0.0
 40
1.5
 50
180.0
 51
-168.69006752595249
  0
INSERT
  5
74E
  8
____1
  6
DASHED2
 62
     7
  2
C58
 10
0.0
 20
0.0
 30
0.0
  0
INSERT
  5
758
  8
____1
  6
DASHED2
 62
     7
  2
C59
 10
0.0
 20
0.0
 30
0.0
  0
ARC
  5
759
  8
____1
  6
DASHED
 62
     7
 10
27331.702202915221
 20
13020.81078867995
 30
0.0
 40
1.5
 50
0.0
 51
90.0
  0
LINE
  5
75A
  8
____1
  6
DASHED
 62
     7
 10
27331.702202915221
 20
13022.31078867995
 30
0.0
 11
27283.202202915221
 21
13022.31078867995
 31
0.0
  0
TEXT
  5
75B
  8
____1
  6
CONTINUOUS
 62
     7
 10
26704.358816287451
 20
12455.25801844787
 30
0.0
 40
28.222221374511719
  1
7
  7
STYLE1
  0
TEXT
  5
75C
  8
____1
  6
CONTINUOUS
 62
     7
 10
26704.358816287451
 20
12375.25801844787
 30
0.0
 40
28.222221374511719
  1
5
  7
STYLE1
  0
TEXT
  5
75D
  8
____1
  6
CONTINUOUS
 62
     7
 10
26704.358816287451
 20
12255.25801844787
 30
0.0
 40
28.222221374511719
  1
2
  7
STYLE1
  0
TEXT
  5
75E
  8
____1
  6
CONTINUOUS
 62
     7
 10
26704.358816287451
 20
12215.25801844787
 30
0.0
 40
28.222221374511719
  1
1
  7
STYLE1
  0
TEXT
  5
75F
  8
____1
  6
CONTINUOUS
 62
     7
 10
26704.358816287451
 20
12295.25801844787
 30
0.0
 40
28.222221374511719
  1
3
  7
STYLE1
  0
TEXT
  5
760
  8
____1
  6
CONTINUOUS
 62
     7
 10
26704.358816287451
 20
12535.25801844787
 30
0.0
 40
28.222221374511719
  1
9
  7
STYLE1
  0
LINE
  5
761
  8
____1
  6
CONTINUOUS
 62
     5
 10
27410.202203202109
 20
12822.31078867995
 30
0.0
 11
27362.9319087693
 21
12822.31078867995
 31
0.0
  0
LINE
  5
762
  8
____1
  6
DASHED
 62
     7
 10
27410.202202915221
 20
12825.31078867995
 30
0.0
 11
27401.702202915221
 21
12825.31078867995
 31
0.0
  0
DIMENSION
  5
770
  8
______
  6
CONTINUOUS
 62
     7
  2
*D89
 10
27411.702202915221
 20
12708.0494132527
 30
0.0
 11
27386.56705534365
 21
12708.0494132527
 31
0.0
 13
27361.702202915221
 23
12822.31078867995
 33
0.0
 14
27411.702202915221
 24
12822.31078867995
 34
0.0
  0
ARC
  5
771
  8
____1
  6
DASHED
 62
     7
 10
27410.202202915221
 20
12823.81078867995
 30
0.0
 40
1.5000000000000271
 50
-89.999989041570686
 51
90.0
  0
ARC
  5
772
  8
____1
  6
CONTINUOUS
 62
     5
 10
27362.9319087693
 20
12823.81078867995
 30
0.0
 40
1.5000000000017859
 50
-168.690067526007
 51
-90.0
  0
LINE
  5
773
  8
____1
  6
DASHED
 62
     7
 10
27401.702202915221
 20
12823.81078867995
 30
0.0
 11
27401.702202915221
 21
12825.31078867995
 31
0.0
  0
LINE
  5
774
  8
____1
  6
DASHED
 62
     7
 10
27410.202202915221
 20
12823.81078867995
 30
0.0
 11
27362.9319087693
 21
12823.81078867995
 31
0.0
  0
LINE
  5
775
  8
____1
  6
DASHED2
 62
     7
 10
27283.202202915221
 20
13014.31078867995
 30
0.0
 11
27283.202202915221
 21
13630.31078867995
 31
0.0
  0
LINE
  5
776
  8
____1
  6
DASHED
 62
     7
 10
27333.202202915221
 20
13020.81078867995
 30
0.0
 11
27333.202202915221
 21
13623.81078867995
 31
0.0
  0
LINE
  5
777
  8
____1
  6
CONTINUOUS
 62
     5
 10
27331.702202915221
 20
12972.31078867995
 30
0.0
 11
27331.702202915221
 21
13672.31078867995
 31
0.0
  0
LINE
  5
778
  8
____1
  6
DASHED2
 62
     7
 10
27281.702202915221
 20
13630.31078867995
 30
0.0
 11
27281.702202915221
 21
13623.81078867995
 31
0.0
  0
LINE
  5
779
  8
____1
  6
CONTINUOUS
 62
     5
 10
27361.702202915221
 20
13820.81078867995
 30
0.0
 11
27331.702202915221
 21
13672.31078867995
 31
0.0
  0
LINE
  5
77A
  8
____1
  6
CONTINUOUS
 62
     5
 10
27361.461037755758
 20
13821.104962882649
 30
0.0
 11
27331.73133190169
 21
13672.456433612269
 31
0.0
  0
LINE
  5
77B
  8
____1
  6
DASHED
 62
     7
 10
27362.9319087693
 20
13820.81078867995
 30
0.0
 11
27333.202202915221
 21
13672.162259409561
 31
0.0
  0
LINE
  5
77C
  8
____1
  6
CONTINUOUS
 62
     5
 10
27411.702202915221
 20
13820.81078867995
 30
0.0
 11
27361.702202915221
 21
13820.81078867995
 31
0.0
  0
LINE
  5
77D
  8
____1
  6
CONTINUOUS
 62
     5
 10
27283.202202915221
 20
13014.31078867995
 30
0.0
 11
27281.702202915221
 21
13014.31078867995
 31
0.0
  0
INSERT
  5
798
  8
____1
  6
DASHED2
 62
     4
  2
C60
 10
0.0
 20
0.0
 30
0.0
  0
INSERT
  5
7B3
  8
____1
  6
DASHED2
 62
     4
  2
C63
 10
0.0
 20
0.0
 30
0.0
  0
ARC
  5
7B4
  8
____1
  6
DASHED2
 62
     7
 10
27302.202202915221
 20
13194.43285410216
 30
0.0
 40
12.499999999998259
 50
178.11450947796411
 51
-1.8854931280217719
  0
TEXT
  5
7B5
  8
____1
  6
CONTINUOUS
 62
     7
 10
27253.803264758521
 20
12255.25801844787
 30
0.0
 40
28.222221374511719
  1
SUS304 1.5t
  7
STYLE1
  0
TEXT
  5
7B6
  8
____1
  6
CONTINUOUS
 62
     7
 10
27544.358816287451
 20
12295.25801844787
 30
0.0
 40
28.222221374511719
  1
2
  7
STYLE1
  0
TEXT
  5
7B7
  8
____1
  6
CONTINUOUS
 62
     7
 10
27544.358816287451
 20
12255.25801844787
 30
0.0
 40
28.222221374511719
  1
1
  7
STYLE1
  0
TEXT
  5
7B8
  8
____1
  6
CONTINUOUS
 62
     7
 10
27544.358816287451
 20
12215.25801844787
 30
0.0
 40
28.222221374511719
  1
1
  7
STYLE1
  0
TEXT
  5
7B9
  8
____1
  6
DOT
 62
     7
 10
27123.081043384002
 20
11961.06892413029
 30
0.0
 40
28.222221374511719
  1
園　原
  7
STYLE1
  0
TEXT
  5
7BA
  8
____1
  6
DOT
 62
     7
 10
27123.081043384002
 20
12005.06892413029
 30
0.0
 40
28.222221374511719
  1
園　原
  7
STYLE1
  0
TEXT
  5
7BB
  8
____1
  6
CONTINUOUS
 62
     7
 10
27253.803264758521
 20
12535.25801844787
 30
0.0
 40
28.222221374511719
  1
SUS304 1.5t
  7
STYLE1
  0
TEXT
  5
7BC
  8
____1
  6
CONTINUOUS
 62
     7
 10
27544.358816287451
 20
12335.25801844787
 30
0.0
 40
28.222221374511719
  1
1
  7
STYLE1
  0
TEXT
  5
7BD
  8
____1
  6
DOT
 62
     7
 10
27484.881046435759
 20
12069.256723663329
 30
0.0
 40
33.866664886474609
  1
らくらくハッチ
  7
STYLE1
  0
TEXT
  5
7BE
  8
____1
  6
DOT
 62
     7
 10
27434.081047198699
 20
11981.256723663329
 30
0.0
 40
33.866664886474609
  1
ＯＭ－６１６０２ＢＫ
  7
STYLE1
  0
TEXT
  5
7BF
  8
____1
  6
DOT
 62
     7
 10
27467.94771208517
 20
11893.256723663329
 30
0.0
 40
33.866664886474609
  1
ＳＴＲ０００２２
  7
STYLE1
  0
TEXT
  5
7C0
  8
____1
  6
CONTINUOUS
 62
     7
 10
27544.358816287451
 20
12535.25801844787
 30
0.0
 40
28.222221374511719
  1
4
  7
STYLE1
  0
TEXT
  5
7C1
  8
____1
  6
CONTINUOUS
 62
     7
 10
27289.081043384002
 20
12415.25801844787
 30
0.0
 40
28.222221374511719
  1
SUS304
  7
STYLE1
  0
LINE
  5
7C2
  8
____1
  6
DASHED
 62
     7
 10
27331.702202915221
 20
13622.31078867995
 30
0.0
 11
27283.202202915221
 21
13622.31078867995
 31
0.0
  0
LINE
  5
7C3
  8
____1
  6
CONTINUOUS
 62
     5
 10
27410.202202915221
 20
13822.31078867995
 30
0.0
 11
27362.9319087693
 21
13822.31078867995
 31
0.0
  0
LINE
  5
7C4
  8
____1
  6
DASHED2
 62
     7
 10
27283.202202915221
 20
13630.31078867995
 30
0.0
 11
27281.702202915221
 21
13630.31078867995
 31
0.0
  0
LINE
  5
7C5
  8
____1
  6
DASHED2
 62
     7
 10
27323.256586840329
 20
13623.81078867995
 30
0.0
 11
27283.202202915221
 21
13623.81078867995
 31
0.0
  0
LINE
  5
7C6
  8
____1
  6
DASHED2
 62
     7
 10
27283.202202915221
 20
13630.31078867995
 30
0.0
 11
27283.202202915221
 21
13623.81078867995
 31
0.0
  0
INSERT
  5
7D9
  8
____1
  6
DASHED2
 62
     7
  2
C66
 10
0.0
 20
0.0
 30
0.0
  0
INSERT
  5
7E9
  8
____1
  6
DASHED2
 62
     7
  2
C67
 10
0.0
 20
0.0
 30
0.0
  0
LINE
  5
7EA
  8
____1
  6
CONTINUOUS
 62
     5
 10
27331.702202915221
 20
13020.81078867995
 30
0.0
 11
27323.990830653482
 21
13020.81078867995
 31
0.0
  0
LINE
  5
7EB
  8
____1
  6
DASHED2
 62
     7
 10
27323.990830653482
 20
13020.81078867995
 30
0.0
 11
27283.202202915221
 21
13020.81078867995
 31
0.0
  0
LINE
  5
7EC
  8
____1
  6
DASHED2
 62
     7
 10
27281.702202915221
 20
13014.31078867995
 30
0.0
 11
27281.702202915221
 21
13020.81078867995
 31
0.0
  0
LINE
  5
7ED
  8
____1
  6
DASHED2
 62
     7
 10
27283.202202915221
 20
13014.31078867995
 30
0.0
 11
27283.202202915221
 21
13020.81078867995
 31
0.0
  0
ARC
  5
7EE
  8
____1
  6
DASHED
 62
     7
 10
27331.702202915221
 20
13623.81078867995
 30
0.0
 40
1.5
 50
-90.0
 51
0.0
  0
INSERT
  5
809
  8
____1
  6
DASHED2
 62
     7
  2
C69
 10
0.0
 20
0.0
 30
0.0
  0
INSERT
  5
814
  8
____1
  6
DASHED2
 62
     7
  2
C70
 10
0.0
 20
0.0
 30
0.0
  0
INSERT
  5
824
  8
____1
  6
DASHED2
 62
     7
  2
C71
 10
0.0
 20
0.0
 30
0.0
  0
INSERT
  5
83B
  8
____1
  6
DASHED2
 62
     7
  2
C72
 10
0.0
 20
0.0
 30
0.0
  0
LINE
  5
83C
  8
____1
  6
DASHED2
 62
     7
 10
27315.198240152531
 20
13632.30346213622
 30
0.0
 11
27315.195798778412
 21
13634.303460646141
 31
0.0
  0
LINE
  5
83D
  8
____1
  6
DASHED2
 62
     7
 10
27321.195794308169
 20
13634.31078476849
 30
0.0
 11
27279.195825599811
 21
13634.25951591201
 31
0.0
  0
LINE
  5
83E
  8
____1
  6
CONTINUOUS
 62
     5
 10
27283.202202915221
 20
13014.31078867995
 30
0.0
 11
27281.702202915221
 21
13014.31078867995
 31
0.0
  0
INSERT
  5
850
  8
____1
  6
CONTINUOUS
 62
     7
  2
C73
 10
0.0
 20
0.0
 30
0.0
  0
INSERT
  5
86A
  8
____1
  6
DASHED2
 62
   254
  2
C74
 10
0.0
 20
0.0
 30
0.0
  0
INSERT
  5
888
  8
____1
  6
DASHED2
 62
     7
  2
C75
 10
0.0
 20
0.0
 30
0.0
  0
INSERT
  5
89F
  8
____1
  6
CONTINUOUS
 62
   254
  2
C76
 10
0.0
 20
0.0
 30
0.0
  0
LINE
  5
8A0
  8
____1
  6
DOT
 62
     7
 10
27279.964929920348
 20
12997.191060997109
 30
0.0
 11
27279.187352263642
 21
13634.190586407431
 31
0.0
  0
LINE
  5
8A1
  8
____1
  6
DASHED2
 62
     7
 10
27281.702202915221
 20
13014.31078867995
 30
0.0
 11
27281.702202915221
 21
13630.31078867995
 31
0.0
  0
ARC
  5
8A2
  8
____1
  6
DASHED
 62
     7
 10
27283.202202915221
 20
13623.81078867995
 30
0.0
 40
1.5
 50
180.0
 51
-90.0
  0
ARC
  5
8A3
  8
____1
  6
CONTINUOUS
 62
     5
 10
27333.202202915221
 20
13672.162259409561
 30
0.0
 40
1.5
 50
168.69006752595249
 51
180.0
  0
ARC
  5
8A4
  8
____1
  6
DASHED
 62
     7
 10
27410.202202915221
 20
13820.81078867995
 30
0.0
 40
1.5
 50
-90.0
 51
0.0
  0
LINE
  5
8A5
  8
____1
  6
DASHED2
 62
     7
 10
27279.19826697393
 20
13632.25951740209
 30
0.0
 11
27279.195825599811
 21
13634.25951591201
 31
0.0
  0
ARC
  5
8A6
  8
____1
  6
DASHED2
 62
     7
 10
27321.20220291525
 20
13629.06078867995
 30
0.0
 40
5.2499999999985567
 50
145.8823128968435
 51
90.069940234114739
  0
ARC
  5
8A7
  8
____1
  6
DASHED2
 62
     7
 10
27321.20220291525
 20
13629.06078867995
 30
0.0
 40
3.2500000000026592
 50
145.88231289686081
 51
90.069940234123834
  0
LINE
  5
8A8
  8
____1
  6
DASHED2
 62
     7
 10
27321.198235682299
 20
13632.310786258569
 30
0.0
 11
27279.19826697393
 21
13632.25951740209
 31
0.0
  0
LINE
  5
8A9
  8
____1
  6
DASHED2
 62
     7
 10
27318.511569427719
 20
13630.8836960928
 30
0.0
 11
27316.855794973861
 21
13632.00548526994
 31
0.0
  0
INSERT
  5
8C0
  8
____1
  6
CONTINUOUS
 62
   254
  2
C77
 10
0.0
 20
0.0
 30
0.0
  0
LINE
  5
8C1
  8
____1
  6
DASHED
 62
     7
 10
27401.702202915221
 20
13820.81078867995
 30
0.0
 11
27401.702202915221
 21
13819.31078867995
 31
0.0
  0
LINE
  5
8C2
  8
____1
  6
DASHED
 62
     7
 10
27410.202202915221
 20
13819.31078867995
 30
0.0
 11
27401.702202915221
 21
13819.31078867995
 31
0.0
  0
INSERT
  5
8E1
  8
____1
  6
CONTINUOUS
 62
     7
  2
C78
 10
0.0
 20
0.0
 30
0.0
  0
LINE
  5
8E2
  8
____1
  6
DASHED2
 62
     7
 10
27289.708970664589
 20
13194.84413008205
 30
0.0
 11
27289.981780653339
 21
13203.13120335597
 31
0.0
  0
LINE
  5
8E3
  8
____1
  6
DASHED2
 62
     7
 10
27314.695435147161
 20
13194.02157755404
 30
0.0
 11
27314.968245119951
 21
13202.30865034301
 31
0.0
  0
ARC
  5
8E4
  8
____1
  6
CONTINUOUS
 62
     5
 10
27410.202202915221
 20
13820.81078867995
 30
0.0
 40
1.5
 50
0.0
 51
90.0
  0
INSERT
  5
90A
  8
____1
  6
DASHED2
 62
     4
  2
C79
 10
0.0
 20
0.0
 30
0.0
  0
LINE
  5
90B
  8
____1
  6
CONTINUOUS
 62
     5
 10
27331.702202915221
 20
12972.459317950341
 30
0.0
 11
27331.702202915221
 21
13020.81078867995
 31
0.0
  0
LINE
  5
90C
  8
____1
  6
DASHED
 62
     7
 10
27333.202202915221
 20
12972.459317950341
 30
0.0
 11
27333.202202915221
 21
13020.81078867995
 31
0.0
  0
ARC
  5
90D
  8
____1
  6
DASHED
 62
     7
 10
27283.202202915221
 20
13020.81078867995
 30
0.0
 40
1.5
 50
90.0
 51
180.0
  0
LINE
  5
90E
  8
____1
  6
CONTINUOUS
 62
     5
 10
27331.702202915221
 20
13672.162259409561
 30
0.0
 11
27331.702202915221
 21
13623.81078867995
 31
0.0
  0
LINE
  5
90F
  8
____1
  6
CONTINUOUS
 62
     5
 10
27283.202202915221
 20
13630.31078867995
 30
0.0
 11
27281.702202915221
 21
13630.31078867995
 31
0.0
  0
ARC
  5
910
  8
____1
  6
CONTINUOUS
 62
     5
 10
27362.9319087693
 20
13820.81078867995
 30
0.0
 40
1.5000000000017859
 50
90.0
 51
168.690067526007
  0
LINE
  5
911
  8
____1
  6
DASHED
 62
     7
 10
27410.202202915221
 20
13820.81078867995
 30
0.0
 11
27362.9319087693
 21
13820.81078867995
 31
0.0
  0
LINE
  5
912
  8
____1
  6
CONTINUOUS
 62
     5
 10
27331.702202915221
 20
13623.81078867995
 30
0.0
 11
27323.256586840329
 21
13623.81078867995
 31
0.0
  0
LINE
  5
913
  8
____1
  6
DASHED
 62
     7
 10
27333.202202915221
 20
13672.162259409561
 30
0.0
 11
27333.202202915221
 21
13623.81078867995
 31
0.0
  0
ENDSEC
  0
EOF
