  0
SECTION
  2
HEADER
  9
$ACADVER
  1
AC1015
  9
$ACADMAINTVER
 70
    20
  9
$DWGCODEPAGE
  3
ANSI_932
  9
$INSBASE
 10
0.0
 20
0.0
 30
0.0
  9
$EXTMIN
 10
1176.563136767
 20
-598.6550483297
 30
0.0
  9
$EXTMAX
 10
1314.063136767
 20
-503.6550483297
 30
0.0
  9
$LIMMIN
 10
0.0
 20
0.0
  9
$LIMMAX
 10
0.0
 20
0.0
  9
$ORTHOMODE
 70
     0
  9
$REGENMODE
 70
     1
  9
$FILLMODE
 70
     1
  9
$QTEXTMODE
 70
     0
  9
$MIRRTEXT
 70
     1
  9
$LTSCALE
 40
1.0
  9
$ATTMODE
 70
     1
  9
$TEXTSIZE
 40
1.767676767676765
  9
$TRACEWID
 40
0.05
  9
$TEXTSTYLE
  7
ゴシック
  9
$CLAYER
  8
0
  9
$CELTYPE
  6
CONTINUOUS
  9
$CECOLOR
 62
   256
  9
$CELTSCALE
 40
1.0
  9
$DISPSILH
 70
     0
  9
$DIMSCALE
 40
1.0
  9
$DIMASZ
 40
0.18
  9
$DIMEXO
 40
0.0625
  9
$DIMDLI
 40
0.38
  9
$DIMRND
 40
0.0
  9
$DIMDLE
 40
0.0
  9
$DIMEXE
 40
0.18
  9
$DIMTP
 40
0.0
  9
$DIMTM
 40
0.0
  9
$DIMTXT
 40
0.18
  9
$DIMCEN
 40
0.09
  9
$DIMTSZ
 40
0.0
  9
$DIMTOL
 70
     0
  9
$DIMLIM
 70
     0
  9
$DIMTIH
 70
     1
  9
$DIMTOH
 70
     1
  9
$DIMSE1
 70
     0
  9
$DIMSE2
 70
     0
  9
$DIMTAD
 70
     0
  9
$DIMZIN
 70
     0
  9
$DIMBLK
  1

  9
$DIMASO
 70
     1
  9
$DIMSHO
 70
     1
  9
$DIMPOST
  1

  9
$DIMAPOST
  1

  9
$DIMALT
 70
     0
  9
$DIMALTD
 70
     2
  9
$DIMALTF
 40
25.4
  9
$DIMLFAC
 40
1.0
  9
$DIMTOFL
 70
     0
  9
$DIMTVP
 40
0.0
  9
$DIMTIX
 70
     0
  9
$DIMSOXD
 70
     0
  9
$DIMSAH
 70
     0
  9
$DIMBLK1
  1

  9
$DIMBLK2
  1

  9
$DIMSTYLE
  2
STANDARD
  9
$DIMCLRD
 70
     0
  9
$DIMCLRE
 70
     0
  9
$DIMCLRT
 70
     0
  9
$DIMTFAC
 40
1.0
  9
$DIMGAP
 40
0.09
  9
$DIMJUST
 70
     0
  9
$DIMSD1
 70
     0
  9
$DIMSD2
 70
     0
  9
$DIMTOLJ
 70
     1
  9
$DIMTZIN
 70
     0
  9
$DIMALTZ
 70
     0
  9
$DIMALTTZ
 70
     0
  9
$DIMUPT
 70
     0
  9
$DIMDEC
 70
     4
  9
$DIMTDEC
 70
     4
  9
$DIMALTU
 70
     2
  9
$DIMALTTD
 70
     2
  9
$DIMTXSTY
  7
STANDARD
  9
$DIMAUNIT
 70
     0
  9
$DIMADEC
 70
     0
  9
$DIMALTRND
 40
0.0
  9
$DIMAZIN
 70
     0
  9
$DIMDSEP
 70
    46
  9
$DIMATFIT
 70
     3
  9
$DIMFRAC
 70
     0
  9
$DIMLDRBLK
  1

  9
$DIMLUNIT
 70
     2
  9
$DIMLWD
 70
    -2
  9
$DIMLWE
 70
    -2
  9
$DIMTMOVE
 70
     0
  9
$LUNITS
 70
     2
  9
$LUPREC
 70
     4
  9
$SKETCHINC
 40
0.1
  9
$FILLETRAD
 40
0.0
  9
$AUNITS
 70
     0
  9
$AUPREC
 70
     0
  9
$MENU
  1
acad
  9
$ELEVATION
 40
0.0
  9
$PELEVATION
 40
0.0
  9
$THICKNESS
 40
0.0
  9
$LIMCHECK
 70
     0
  9
$CHAMFERA
 40
0.0
  9
$CHAMFERB
 40
0.0
  9
$CHAMFERC
 40
0.0
  9
$CHAMFERD
 40
0.0
  9
$SKPOLY
 70
     0
  9
$TDCREATE
 40
2454858.701748044
  9
$TDUCREATE
 40
2454858.326748044
  9
$TDUPDATE
 40
2457301.645824468
  9
$TDUUPDATE
 40
2457301.270824468
  9
$TDINDWG
 40
0.0106983333
  9
$TDUSRTIMER
 40
0.0106930440
  9
$USRTIMER
 70
     1
  9
$ANGBASE
 50
0.0
  9
$ANGDIR
 70
     0
  9
$PDMODE
 70
     3
  9
$PDSIZE
 40
-1.0
  9
$PLINEWID
 40
0.0
  9
$SPLFRAME
 70
     0
  9
$SPLINETYPE
 70
     6
  9
$SPLINESEGS
 70
     8
  9
$HANDSEED
  5
A8E
  9
$SURFTAB1
 70
     6
  9
$SURFTAB2
 70
     6
  9
$SURFTYPE
 70
     6
  9
$SURFU
 70
     6
  9
$SURFV
 70
     6
  9
$UCSBASE
  2

  9
$UCSNAME
  2

  9
$UCSORG
 10
0.0
 20
0.0
 30
0.0
  9
$UCSXDIR
 10
1.0
 20
0.0
 30
0.0
  9
$UCSYDIR
 10
0.0
 20
1.0
 30
0.0
  9
$UCSORTHOREF
  2

  9
$UCSORTHOVIEW
 70
     0
  9
$UCSORGTOP
 10
0.0
 20
0.0
 30
0.0
  9
$UCSORGBOTTOM
 10
0.0
 20
0.0
 30
0.0
  9
$UCSORGLEFT
 10
0.0
 20
0.0
 30
0.0
  9
$UCSORGRIGHT
 10
0.0
 20
0.0
 30
0.0
  9
$UCSORGFRONT
 10
0.0
 20
0.0
 30
0.0
  9
$UCSORGBACK
 10
0.0
 20
0.0
 30
0.0
  9
$PUCSBASE
  2

  9
$PUCSNAME
  2

  9
$PUCSORG
 10
0.0
 20
0.0
 30
0.0
  9
$PUCSXDIR
 10
1.0
 20
0.0
 30
0.0
  9
$PUCSYDIR
 10
0.0
 20
1.0
 30
0.0
  9
$PUCSORTHOREF
  2

  9
$PUCSORTHOVIEW
 70
     0
  9
$PUCSORGTOP
 10
0.0
 20
0.0
 30
0.0
  9
$PUCSORGBOTTOM
 10
0.0
 20
0.0
 30
0.0
  9
$PUCSORGLEFT
 10
0.0
 20
0.0
 30
0.0
  9
$PUCSORGRIGHT
 10
0.0
 20
0.0
 30
0.0
  9
$PUCSORGFRONT
 10
0.0
 20
0.0
 30
0.0
  9
$PUCSORGBACK
 10
0.0
 20
0.0
 30
0.0
  9
$USERI1
 70
     0
  9
$USERI2
 70
     0
  9
$USERI3
 70
     0
  9
$USERI4
 70
     0
  9
$USERI5
 70
     0
  9
$USERR1
 40
0.0
  9
$USERR2
 40
0.0
  9
$USERR3
 40
0.0
  9
$USERR4
 40
0.0
  9
$USERR5
 40
0.0
  9
$WORLDVIEW
 70
     1
  9
$SHADEDGE
 70
     3
  9
$SHADEDIF
 70
    70
  9
$TILEMODE
 70
     1
  9
$MAXACTVP
 70
    16
  9
$PINSBASE
 10
0.0
 20
0.0
 30
0.0
  9
$PLIMCHECK
 70
     0
  9
$PEXTMIN
 10
1.000000000000000E+20
 20
1.000000000000000E+20
 30
1.000000000000000E+20
  9
$PEXTMAX
 10
-1.000000000000000E+20
 20
-1.000000000000000E+20
 30
-1.000000000000000E+20
  9
$PLIMMIN
 10
0.0
 20
0.0
  9
$PLIMMAX
 10
12.0
 20
9.0
  9
$UNITMODE
 70
     0
  9
$VISRETAIN
 70
     0
  9
$PLINEGEN
 70
     1
  9
$PSLTSCALE
 70
     0
  9
$TREEDEPTH
 70
  3020
  9
$CMLSTYLE
  2
Standard
  9
$CMLJUST
 70
     0
  9
$CMLSCALE
 40
1.0
  9
$PROXYGRAPHICS
 70
     1
  9
$MEASUREMENT
 70
     0
  9
$CELWEIGHT
370
    -1
  9
$ENDCAPS
280
     0
  9
$JOINSTYLE
280
     0
  9
$LWDISPLAY
290
     0
  9
$INSUNITS
 70
     0
  9
$HYPERLINKBASE
  1

  9
$STYLESHEET
  1

  9
$XEDIT
290
     1
  9
$CEPSNTYPE
380
     0
  9
$PSTYLEMODE
290
     1
  9
$FINGERPRINTGUID
  2
{C23B068B-2349-4A78-861D-AF57BA6F831C}
  9
$VERSIONGUID
  2
{F533D257-FA4E-4643-A29E-6F34E376FAED}
  9
$EXTNAMES
290
     1
  9
$PSVPSCALE
 40
0.0
  9
$OLESTARTUP
290
     0
  0
ENDSEC
  0
SECTION
  2
CLASSES
  0
CLASS
  1
ACDBDICTIONARYWDFLT
  2
AcDbDictionaryWithDefault
  3
ObjectDBX Classes
 90
        0
280
     0
281
     0
  0
CLASS
  1
MATERIAL
  2
AcDbMaterial
  3
ObjectDBX Classes
 90
     1153
280
     0
281
     0
  0
CLASS
  1
VISUALSTYLE
  2
AcDbVisualStyle
  3
ObjectDBX Classes
 90
     4095
280
     0
281
     0
  0
CLASS
  1
SCALE
  2
AcDbScale
  3
ObjectDBX Classes
 90
     1153
280
     0
281
     0
  0
CLASS
  1
TABLESTYLE
  2
AcDbTableStyle
  3
ObjectDBX Classes
 90
     4095
280
     0
281
     0
  0
CLASS
  1
MLEADERSTYLE
  2
AcDbMLeaderStyle
  3
ACDB_MLEADERSTYLE_CLASS
 90
     4095
280
     0
281
     0
  0
CLASS
  1
ACDBSECTIONVIEWSTYLE
  2
AcDbSectionViewStyle
  3
ObjectDBX Classes
 90
     1025
280
     0
281
     0
  0
CLASS
  1
ACDBDETAILVIEWSTYLE
  2
AcDbDetailViewStyle
  3
ObjectDBX Classes
 90
     1025
280
     0
281
     0
  0
CLASS
  1
SORTENTSTABLE
  2
AcDbSortentsTable
  3
ObjectDBX Classes
 90
        0
280
     0
281
     0
  0
CLASS
  1
ACAD_EVALUATION_GRAPH
  2
AcDbEvalGraph
  3
ObjectDBX Classes
 90
     1153
280
     0
281
     0
  0
CLASS
  1
ACAECUSTOBJ
  2
AcAeEditorObj
  3
AcAeEditorObj
 90
     1024
280
     0
281
     0
  0
CLASS
  1
DICTIONARYVAR
  2
AcDbDictionaryVar
  3
ObjectDBX Classes
 90
        0
280
     0
281
     0
  0
CLASS
  1
CELLSTYLEMAP
  2
AcDbCellStyleMap
  3
ObjectDBX Classes
 90
     1152
280
     0
281
     0
  0
CLASS
  1
ACDBPLACEHOLDER
  2
AcDbPlaceHolder
  3
ObjectDBX Classes
 90
        0
280
     0
281
     0
  0
CLASS
  1
LAYOUT
  2
AcDbLayout
  3
ObjectDBX Classes
 90
        0
280
     0
281
     0
  0
ENDSEC
  0
SECTION
  2
TABLES
  0
TABLE
  2
VPORT
  5
5AF
330
0
100
AcDbSymbolTable
 70
     1
  0
VPORT
  5
61B
330
5AF
100
AcDbSymbolTableRecord
100
AcDbViewportTableRecord
  2
*ACTIVE
 70
     0
 10
0.0
 20
0.0
 11
1.0
 21
1.0
 12
1287.458742494265
 22
-564.6437069180691
 13
0.0
 23
0.0
 14
1.0
 24
1.0
 15
0.0
 25
0.0
 16
0.0
 26
0.0
 36
1.0
 17
0.0
 27
0.0
 37
0.0
 40
148.3117561189575
 41
2.488859764089121
 42
50.0
 43
0.0
 44
0.0
 50
0.0
 51
0.0
 71
     0
 72
   100
 73
     1
 74
     1
 75
     0
 76
     0
 77
     0
 78
     0
281
     0
 65
     1
110
0.0
120
0.0
130
0.0
111
1.0
121
0.0
131
0.0
112
0.0
122
1.0
132
0.0
 79
     0
146
0.0
1001
ACAD_NAV_VCDISPLAY
1070
     3
  0
ENDTAB
  0
TABLE
  2
LTYPE
  5
5AC
330
0
100
AcDbSymbolTable
 70
    12
  0
LTYPE
  5
601
330
5AC
100
AcDbSymbolTableRecord
100
AcDbLinetypeTableRecord
  2
ByBlock
 70
     0
  3

 72
    65
 73
     0
 40
0.0
  0
LTYPE
  5
602
330
5AC
100
AcDbSymbolTableRecord
100
AcDbLinetypeTableRecord
  2
ByLayer
 70
     0
  3

 72
    65
 73
     0
 40
0.0
  0
LTYPE
  5
603
330
5AC
100
AcDbSymbolTableRecord
100
AcDbLinetypeTableRecord
  2
CONTINUOUS
 70
     0
  3
Solid line
 72
    65
 73
     0
 40
0.0
  0
LTYPE
  5
61C
330
5AC
100
AcDbSymbolTableRecord
100
AcDbLinetypeTableRecord
  2
DOT
 70
     0
  3
. . . . . . . . 
 72
    65
 73
     2
 40
1.0
 49
0.0
 74
     0
 49
-1.0
 74
     0
  0
LTYPE
  5
61D
330
5AC
100
AcDbSymbolTableRecord
100
AcDbLinetypeTableRecord
  2
DASHED
 70
     0
  3
___  ___  ___  ___  
 72
    65
 73
     2
 40
4.0
 49
3.0
 74
     0
 49
-1.0
 74
     0
  0
LTYPE
  5
61E
330
5AC
100
AcDbSymbolTableRecord
100
AcDbLinetypeTableRecord
  2
HIDDEN
 70
     0
  3
__ __ __ __ 
 72
    65
 73
     2
 40
3.0
 49
2.0
 74
     0
 49
-1.0
 74
     0
  0
LTYPE
  5
61F
330
5AC
100
AcDbSymbolTableRecord
100
AcDbLinetypeTableRecord
  2
STITCH
 70
     0
  3
_ _ _ _ 
 72
    65
 73
     2
 40
2.0
 49
1.0
 74
     0
 49
-1.0
 74
     0
  0
LTYPE
  5
620
330
5AC
100
AcDbSymbolTableRecord
100
AcDbLinetypeTableRecord
  2
CENTER
 70
     0
  3
______  __  ______  __  
 72
    65
 73
     4
 40
43.0
 49
40.0
 74
     0
 49
-1.0
 74
     0
 49
1.0
 74
     0
 49
-1.0
 74
     0
  0
LTYPE
  5
621
330
5AC
100
AcDbSymbolTableRecord
100
AcDbLinetypeTableRecord
  2
DASHDOT
 70
     0
  3
____ . ____ . 
 72
    65
 73
     4
 40
32.0
 49
30.0
 74
     0
 49
-1.0
 74
     0
 49
0.0
 74
     0
 49
-1.0
 74
     0
  0
LTYPE
  5
622
330
5AC
100
AcDbSymbolTableRecord
100
AcDbLinetypeTableRecord
  2
BORDER
 70
     0
  3
__ . __ . 
 72
    65
 73
     4
 40
22.0
 49
20.0
 74
     0
 49
-1.0
 74
     0
 49
0.0
 74
     0
 49
-1.0
 74
     0
  0
LTYPE
  5
623
330
5AC
100
AcDbSymbolTableRecord
100
AcDbLinetypeTableRecord
  2
CUTTING
 70
     0
  3
________   ___   ___   
 72
    65
 73
     6
 40
45.0
 49
40.0
 74
     0
 49
-1.0
 74
     0
 49
1.0
 74
     0
 49
-1.0
 74
     0
 49
1.0
 74
     0
 49
-1.0
 74
     0
  0
LTYPE
  5
624
330
5AC
100
AcDbSymbolTableRecord
100
AcDbLinetypeTableRecord
  2
PHANTOM
 70
     0
  3
______  __  __  
 72
    65
 73
     6
 40
35.0
 49
30.0
 74
     0
 49
-1.0
 74
     0
 49
1.0
 74
     0
 49
-1.0
 74
     0
 49
1.0
 74
     0
 49
-1.0
 74
     0
  0
LTYPE
  5
625
330
5AC
100
AcDbSymbolTableRecord
100
AcDbLinetypeTableRecord
  2
DIVIDE
 70
     0
  3
____ . . ____ . . 
 72
    65
 73
     6
 40
23.0
 49
20.0
 74
     0
 49
-1.0
 74
     0
 49
0.0
 74
     0
 49
-1.0
 74
     0
 49
0.0
 74
     0
 49
-1.0
 74
     0
  0
ENDTAB
  0
TABLE
  2
LAYER
  5
5A9
102
{ACAD_XDICTIONARY
360
A15
102
}
330
0
100
AcDbSymbolTable
 70
     5
  0
LAYER
  5
5FB
102
{ACAD_XDICTIONARY
360
A35
102
}
330
5A9
100
AcDbSymbolTableRecord
100
AcDbLayerTableRecord
  2
0
 70
     0
 62
     7
  6
CONTINUOUS
370
    -3
390
5B6
  0
LAYER
  5
626
102
{ACAD_XDICTIONARY
360
A37
102
}
330
5A9
100
AcDbSymbolTableRecord
100
AcDbLayerTableRecord
  2
ﾚｲﾔ_1
 70
     0
 62
     7
  6
CONTINUOUS
370
    -3
390
5B6
  0
LAYER
  5
627
102
{ACAD_XDICTIONARY
360
A39
102
}
330
5A9
100
AcDbSymbolTableRecord
100
AcDbLayerTableRecord
  2
寸法線
 70
     0
 62
     7
  6
CONTINUOUS
370
    -3
390
5B6
  0
LAYER
  5
628
102
{ACAD_XDICTIONARY
360
A3B
102
}
330
5A9
100
AcDbSymbolTableRecord
100
AcDbLayerTableRecord
  2
寸法線_引き出し線
 70
     0
 62
   251
  6
CONTINUOUS
370
    -3
390
5B6
  0
LAYER
  5
A0F
102
{ACAD_XDICTIONARY
360
A3D
102
}
330
5A9
100
AcDbSymbolTableRecord
100
AcDbLayerTableRecord
  2
寸法線・引き出し線
 70
     0
 62
   251
  6
CONTINUOUS
370
     0
390
5B6
  0
ENDTAB
  0
TABLE
  2
STYLE
  5
5AA
330
0
100
AcDbSymbolTable
 70
     3
  0
STYLE
  5
5FC
330
5AA
100
AcDbSymbolTableRecord
100
AcDbTextStyleTableRecord
  2
STANDARD
 70
     0
 40
0.0
 41
1.0
 50
0.0
 71
     0
 42
0.0
  3
txt
  4
extfont
  0
STYLE
  5
600
330
5AA
100
AcDbSymbolTableRecord
100
AcDbTextStyleTableRecord
  2
Annotative
 70
     0
 40
0.0
 41
1.0
 50
0.0
 71
     0
 42
0.2
  3
txt
  4

1001
AcadAnnotative
1000
AnnotativeData
1002
{
1070
     1
1070
     1
1002
}
  0
STYLE
  5
61A
330
5AA
100
AcDbSymbolTableRecord
100
AcDbTextStyleTableRecord
  2
ゴシック
 70
     0
 40
0.0
 41
1.0
 50
0.0
 71
     0
 42
1.767676767676765
  3
txt
  4

  0
ENDTAB
  0
TABLE
  2
VIEW
  5
5AD
330
0
100
AcDbSymbolTable
 70
     0
  0
ENDTAB
  0
TABLE
  2
UCS
  5
5AE
330
0
100
AcDbSymbolTable
 70
     0
  0
ENDTAB
  0
TABLE
  2
APPID
  5
5B0
330
0
100
AcDbSymbolTable
 70
     6
  0
APPID
  5
5FD
330
5B0
100
AcDbSymbolTableRecord
100
AcDbRegAppTableRecord
  2
ACAD
 70
     0
  0
APPID
  5
604
330
5B0
100
AcDbSymbolTableRecord
100
AcDbRegAppTableRecord
  2
AcadAnnotative
 70
     0
  0
APPID
  5
629
330
5B0
100
AcDbSymbolTableRecord
100
AcDbRegAppTableRecord
  2
DCO15
 70
     0
  0
APPID
  5
A14
330
5B0
100
AcDbSymbolTableRecord
100
AcDbRegAppTableRecord
  2
ACAD_NAV_VCDISPLAY
 70
     0
  0
APPID
  5
A1D
330
5B0
100
AcDbSymbolTableRecord
100
AcDbRegAppTableRecord
  2
ACAD_EXEMPT_FROM_CAD_STANDARDS
 70
     0
  0
APPID
  5
A81
330
5B0
100
AcDbSymbolTableRecord
100
AcDbRegAppTableRecord
  2
ACAD_MLEADERVER
 70
     0
  0
ENDTAB
  0
TABLE
  2
DIMSTYLE
  5
5B1
330
0
100
AcDbSymbolTable
 70
    11
100
AcDbDimStyleTable
 71
     0
  0
DIMSTYLE
105
5FE
102
{ACAD_REACTORS
330
F1
330
100
330
10F
330
11E
330
12D
330
13C
330
14B
330
15A
330
169
102
}
330
5B1
100
AcDbSymbolTableRecord
100
AcDbDimStyleTableRecord
  2
STANDARD
 70
     0
279
     2
340
61A
  0
DIMSTYLE
105
5FF
330
5B1
100
AcDbSymbolTableRecord
100
AcDbDimStyleTableRecord
  2
Annotative
 70
     0
340
5FC
1001
AcadAnnotative
1000
AnnotativeData
1002
{
1070
     1
1070
     1
1002
}
  0
DIMSTYLE
105
62A
330
5B1
100
AcDbSymbolTableRecord
100
AcDbDimStyleTableRecord
  2
VELDIM0
 70
     0
 41
1.5
 44
0.5
 46
3.0
 73
     0
 74
     0
 78
     8
140
1.499305510499999
279
     2
340
61A
  0
DIMSTYLE
105
62B
330
5B1
100
AcDbSymbolTableRecord
100
AcDbDimStyleTableRecord
  2
基本_１_１_
 70
     0
 40
0.0
 41
3.5
 42
5.0
 43
7.0
 44
3.0
 73
     0
 74
     0
 77
     1
 78
     8
140
5.0
141
1.0
143
0.0394
147
1.0
171
     4
172
     1
176
     4
177
     4
178
     4
279
     2
340
61A
  0
DIMSTYLE
105
62C
330
5B1
100
AcDbSymbolTableRecord
100
AcDbDimStyleTableRecord
  2
基本_１_４_
 70
     0
 40
0.0
 41
8.0
 42
5.0
 43
28.0
 44
4.0
 73
     0
 74
     0
 77
     1
 78
     8
140
12.5
141
4.0
143
0.0394
147
5.0
171
     4
172
     1
176
     4
177
     4
178
     4
279
     2
340
61A
  0
DIMSTYLE
105
62D
330
5B1
100
AcDbSymbolTableRecord
100
AcDbDimStyleTableRecord
  2
基本_１_２_
 70
     0
 40
0.0
 41
2.5
 42
5.0
 43
14.0
 44
2.0
 73
     0
 74
     0
 77
     1
 78
     8
140
5.0
141
2.0
143
0.0394
147
1.0
171
     4
172
     1
176
     4
177
     4
178
     4
279
     2
340
61A
  0
DIMSTYLE
105
62E
330
5B1
100
AcDbSymbolTableRecord
100
AcDbDimStyleTableRecord
  2
基本_２_１_
 70
     0
 40
0.0
 41
1.0
 42
0.5
 43
3.5
 44
0.5
 73
     0
 74
     0
 77
     1
 78
     8
140
1.0
141
0.5
143
0.0394
147
0.25
171
     4
172
     1
176
     4
177
     4
178
     4
279
     2
340
61A
  0
DIMSTYLE
105
A10
330
5B1
100
AcDbSymbolTableRecord
100
AcDbDimStyleTableRecord
  2
基本（１：１）
 70
     0
 40
0.0
 41
3.5
 42
5.0
 43
7.0
 44
3.0
 73
     0
 74
     0
 77
     1
 78
     8
140
5.0
141
1.0
143
0.0394
147
1.0
171
     4
172
     1
176
     4
177
     4
178
     4
271
     2
272
     2
273
     8
274
     4
340
61A
371
     0
372
     0
  0
DIMSTYLE
105
A11
330
5B1
100
AcDbSymbolTableRecord
100
AcDbDimStyleTableRecord
  2
基本（１：４）
 70
     0
 40
0.0
 41
8.0
 42
5.0
 43
28.0
 44
4.0
 73
     0
 74
     0
 77
     1
 78
     8
140
12.5
141
4.0
143
0.0394
147
5.0
171
     4
172
     1
176
     4
177
     4
178
     4
271
     1
272
     1
273
     8
274
     4
340
61A
371
     0
372
     0
  0
DIMSTYLE
105
A12
330
5B1
100
AcDbSymbolTableRecord
100
AcDbDimStyleTableRecord
  2
基本（１：２）
 70
     0
 40
0.0
 41
2.5
 42
5.0
 43
14.0
 44
2.0
 73
     0
 74
     0
 77
     1
 78
     8
140
5.0
141
2.0
143
0.0394
147
1.0
171
     4
172
     1
176
     4
177
     4
178
     4
271
     1
272
     1
273
     8
274
     4
340
61A
371
     0
372
     0
  0
DIMSTYLE
105
A13
330
5B1
100
AcDbSymbolTableRecord
100
AcDbDimStyleTableRecord
  2
基本（２：１）
 70
     0
 40
0.0
 41
1.0
 42
0.5
 43
3.5
 44
0.5
 73
     0
 74
     0
 77
     1
 78
     8
140
1.0
141
0.5
143
0.0394
147
0.25
171
     4
172
     1
176
     4
177
     4
178
     4
273
     8
274
     4
340
61A
371
    13
372
    13
  0
ENDTAB
  0
TABLE
  2
BLOCK_RECORD
  5
5A8
330
0
100
AcDbSymbolTable
 70
    31
  0
BLOCK_RECORD
  5
616
102
{ACAD_XDICTIONARY
360
A31
102
}
330
5A8
100
AcDbSymbolTableRecord
100
AcDbBlockTableRecord
  2
*Model_Space
340
619
  0
BLOCK_RECORD
  5
612
330
5A8
100
AcDbSymbolTableRecord
100
AcDbBlockTableRecord
  2
*Paper_Space
340
615
  0
BLOCK_RECORD
  5
631
330
5A8
100
AcDbSymbolTableRecord
100
AcDbBlockTableRecord
  2
$MODEL_SPACE
340
0
  0
BLOCK_RECORD
  5
633
330
5A8
100
AcDbSymbolTableRecord
100
AcDbBlockTableRecord
  2
$PAPER_SPACE
340
0
  0
BLOCK_RECORD
  5
635
330
5A8
100
AcDbSymbolTableRecord
100
AcDbBlockTableRecord
  2
*D2
340
0
  0
BLOCK_RECORD
  5
637
330
5A8
100
AcDbSymbolTableRecord
100
AcDbBlockTableRecord
  2
*D3
340
0
  0
BLOCK_RECORD
  5
639
330
5A8
100
AcDbSymbolTableRecord
100
AcDbBlockTableRecord
  2
*D4
340
0
  0
BLOCK_RECORD
  5
63B
330
5A8
100
AcDbSymbolTableRecord
100
AcDbBlockTableRecord
  2
*D5
340
0
  0
BLOCK_RECORD
  5
63D
330
5A8
100
AcDbSymbolTableRecord
100
AcDbBlockTableRecord
  2
*D6
340
0
  0
BLOCK_RECORD
  5
63F
330
5A8
100
AcDbSymbolTableRecord
100
AcDbBlockTableRecord
  2
*D7
340
0
  0
BLOCK_RECORD
  5
641
330
5A8
100
AcDbSymbolTableRecord
100
AcDbBlockTableRecord
  2
*D8
340
0
  0
BLOCK_RECORD
  5
643
330
5A8
100
AcDbSymbolTableRecord
100
AcDbBlockTableRecord
  2
*D9
340
0
  0
BLOCK_RECORD
  5
645
330
5A8
100
AcDbSymbolTableRecord
100
AcDbBlockTableRecord
  2
*D10
340
0
  0
BLOCK_RECORD
  5
647
330
5A8
100
AcDbSymbolTableRecord
100
AcDbBlockTableRecord
  2
*U11
340
0
102
{BLKREFS
331
B2
102
}
  0
BLOCK_RECORD
  5
649
330
5A8
100
AcDbSymbolTableRecord
100
AcDbBlockTableRecord
  2
*U12
340
0
102
{BLKREFS
331
B3
102
}
  0
BLOCK_RECORD
  5
64B
330
5A8
100
AcDbSymbolTableRecord
100
AcDbBlockTableRecord
  2
*U13
340
0
102
{BLKREFS
331
BE
102
}
  0
BLOCK_RECORD
  5
64D
330
5A8
100
AcDbSymbolTableRecord
100
AcDbBlockTableRecord
  2
*U14
340
0
102
{BLKREFS
331
C8
102
}
  0
BLOCK_RECORD
  5
64F
330
5A8
100
AcDbSymbolTableRecord
100
AcDbBlockTableRecord
  2
*U15
340
0
102
{BLKREFS
331
C9
102
}
  0
BLOCK_RECORD
  5
651
330
5A8
100
AcDbSymbolTableRecord
100
AcDbBlockTableRecord
  2
*U16
340
0
  0
BLOCK_RECORD
  5
653
330
5A8
100
AcDbSymbolTableRecord
100
AcDbBlockTableRecord
  2
*U17
340
0
102
{BLKREFS
331
16B
102
}
  0
BLOCK_RECORD
  5
655
330
5A8
100
AcDbSymbolTableRecord
100
AcDbBlockTableRecord
  2
*U18
340
0
102
{BLKREFS
331
170
102
}
  0
BLOCK_RECORD
  5
657
330
5A8
100
AcDbSymbolTableRecord
100
AcDbBlockTableRecord
  2
*U19
340
0
102
{BLKREFS
331
171
102
}
  0
BLOCK_RECORD
  5
659
330
5A8
100
AcDbSymbolTableRecord
100
AcDbBlockTableRecord
  2
*U20
340
0
102
{BLKREFS
331
172
102
}
  0
BLOCK_RECORD
  5
65B
330
5A8
100
AcDbSymbolTableRecord
100
AcDbBlockTableRecord
  2
*U21
340
0
102
{BLKREFS
331
173
102
}
  0
BLOCK_RECORD
  5
65D
330
5A8
100
AcDbSymbolTableRecord
100
AcDbBlockTableRecord
  2
*U22
340
0
  0
BLOCK_RECORD
  5
65F
330
5A8
100
AcDbSymbolTableRecord
100
AcDbBlockTableRecord
  2
*U23
340
0
102
{BLKREFS
331
175
102
}
  0
BLOCK_RECORD
  5
661
330
5A8
100
AcDbSymbolTableRecord
100
AcDbBlockTableRecord
  2
*U24
340
0
102
{BLKREFS
331
176
102
}
  0
BLOCK_RECORD
  5
663
330
5A8
100
AcDbSymbolTableRecord
100
AcDbBlockTableRecord
  2
*U25
340
0
102
{BLKREFS
331
177
102
}
  0
BLOCK_RECORD
  5
665
330
5A8
100
AcDbSymbolTableRecord
100
AcDbBlockTableRecord
  2
*U26
340
0
102
{BLKREFS
331
178
102
}
  0
BLOCK_RECORD
  5
667
330
5A8
100
AcDbSymbolTableRecord
100
AcDbBlockTableRecord
  2
*U27
340
0
102
{BLKREFS
331
179
102
}
  0
BLOCK_RECORD
  5
669
330
5A8
100
AcDbSymbolTableRecord
100
AcDbBlockTableRecord
  2
*U28
340
0
  0
BLOCK_RECORD
  5
66B
330
5A8
100
AcDbSymbolTableRecord
100
AcDbBlockTableRecord
  2
*U29
340
0
  0
ENDTAB
  0
ENDSEC
  0
SECTION
  2
BLOCKS
  0
BLOCK
  5
617
330
616
100
AcDbEntity
  8
0
100
AcDbBlockBegin
  2
*Model_Space
 70
     0
 10
0.0
 20
0.0
 30
0.0
  3
*Model_Space
  1

  0
ENDBLK
  5
618
330
616
100
AcDbEntity
  8
0
100
AcDbBlockEnd
  0
BLOCK
  5
613
330
612
100
AcDbEntity
 67
     1
  8
0
100
AcDbBlockBegin
  2
*Paper_Space
 70
     0
 10
0.0
 20
0.0
 30
0.0
  3
*Paper_Space
  1

  0
ENDBLK
  5
614
330
612
100
AcDbEntity
 67
     1
  8
0
100
AcDbBlockEnd
  0
BLOCK
  5
632
330
631
100
AcDbEntity
  8
0
100
AcDbBlockBegin
  2
$MODEL_SPACE
 70
     0
 10
0.0
 20
0.0
 30
0.0
  3
$MODEL_SPACE
  1

  0
ENDBLK
  5
543
330
631
100
AcDbEntity
  8
0
100
AcDbBlockEnd
  0
BLOCK
  5
634
330
633
100
AcDbEntity
  8
0
100
AcDbBlockBegin
  2
$PAPER_SPACE
 70
     0
 10
0.0
 20
0.0
 30
0.0
  3
$PAPER_SPACE
  1

  0
ENDBLK
  5
53F
330
633
100
AcDbEntity
  8
0
100
AcDbBlockEnd
  0
BLOCK
  5
636
330
635
100
AcDbEntity
  8
0
100
AcDbBlockBegin
  2
*D2
 70
     1
 10
0.0
 20
0.0
 30
0.0
  3
*D2
  1

  0
TEXT
  5
E4
330
635
100
AcDbEntity
  8
0
 62
     0
100
AcDbText
 10
1225.3267635644
 20
-529.9711628629999
 30
0.0
 40
1.499305510499999
  1
6
 50
90.0
100
AcDbText
  0
LINE
  5
E5
330
635
100
AcDbEntity
  8
0
 62
     0
100
AcDbLine
 10
1222.5913468898
 20
-532.530190654
 30
0.0
 11
1227.0913468898
 21
-532.530190654
 31
0.0
  0
LINE
  5
E6
330
635
100
AcDbEntity
  8
0
 62
     0
100
AcDbLine
 10
1222.5913468898
 20
-526.5301906539999
 30
0.0
 11
1227.0913468898
 21
-526.5301906539999
 31
0.0
  0
LINE
  5
E7
330
635
100
AcDbEntity
  8
0
 62
     0
100
AcDbLine
 10
1226.5913468898
 20
-532.530190654
 30
0.0
 11
1226.5913468898
 21
-528.2072740270999
 31
0.0
  0
LINE
  5
E8
330
635
100
AcDbEntity
  8
0
 62
     0
100
AcDbLine
 10
1226.5913468898
 20
-532.530190654
 30
0.0
 11
1226.5913468898
 21
-530.8531072809
 31
0.0
  0
LINE
  5
E9
330
635
100
AcDbEntity
  8
0
 62
     0
100
AcDbLine
 10
1226.5913468898
 20
-526.5301906539999
 30
0.0
 11
1226.5913468898
 21
-528.2072740270999
 31
0.0
  0
LINE
  5
EA
330
635
100
AcDbEntity
  8
0
 62
     0
100
AcDbLine
 10
1226.5913468898
 20
-526.5301906539999
 30
0.0
 11
1226.5913468898
 21
-530.8531072809
 31
0.0
  0
LINE
  5
EB
330
635
100
AcDbEntity
  8
0
 62
     0
100
AcDbLine
 10
1226.5913468898
 20
-526.5301906539999
 30
0.0
 11
1226.5913468898
 21
-529.5301906539999
 31
0.0
  0
SOLID
  5
EC
330
635
100
AcDbEntity
  8
0
 62
     0
100
AcDbTrace
 10
1226.5913468898
 20
-526.5301906539999
 30
0.0
 11
1226.9663468898
 21
-528.030190654
 31
0.0
 12
1226.2163468898
 22
-528.030190654
 32
0.0
 13
1226.5913468898
 23
-527.6551906539999
 33
0.0
  0
LINE
  5
ED
330
635
100
AcDbEntity
  8
0
 62
     0
100
AcDbLine
 10
1226.5913468898
 20
-532.530190654
 30
0.0
 11
1226.5913468898
 21
-529.5301906539999
 31
0.0
  0
SOLID
  5
EE
330
635
100
AcDbEntity
  8
0
 62
     0
100
AcDbTrace
 10
1226.5913468898
 20
-532.530190654
 30
0.0
 11
1226.2163468898
 21
-531.0301906539999
 31
0.0
 12
1226.9663468898
 22
-531.0301906539999
 32
0.0
 13
1226.5913468898
 23
-531.4051906539999
 33
0.0
  0
ENDBLK
  5
EF
330
635
100
AcDbEntity
  8
0
100
AcDbBlockEnd
  0
BLOCK
  5
638
330
637
100
AcDbEntity
  8
0
100
AcDbBlockBegin
  2
*D3
 70
     1
 10
0.0
 20
0.0
 30
0.0
  3
*D3
  1

  0
TEXT
  5
F4
330
637
100
AcDbEntity
  8
0
 62
     0
100
AcDbText
 10
1225.3267635644
 20
-534.471162863
 30
0.0
 40
1.499305510499999
  1
3
 50
90.0
100
AcDbText
  0
LINE
  5
F5
330
637
100
AcDbEntity
  8
0
 62
     0
100
AcDbLine
 10
1219.7913470022
 20
-535.5301906539999
 30
0.0
 11
1227.0913468898
 21
-535.5301906539999
 31
0.0
  0
LINE
  5
F6
330
637
100
AcDbEntity
  8
0
 62
     0
100
AcDbLine
 10
1222.5913468898
 20
-532.530190654
 30
0.0
 11
1227.0913468898
 21
-532.530190654
 31
0.0
  0
LINE
  5
F7
330
637
100
AcDbEntity
  8
0
 62
     0
100
AcDbLine
 10
1226.5913468898
 20
-535.5301906539999
 30
0.0
 11
1226.5913468898
 21
-532.7072740270999
 31
0.0
  0
LINE
  5
F8
330
637
100
AcDbEntity
  8
0
 62
     0
100
AcDbLine
 10
1226.5913468898
 20
-535.5301906539999
 30
0.0
 11
1226.5913468898
 21
-535.3531072808999
 31
0.0
  0
LINE
  5
F9
330
637
100
AcDbEntity
  8
0
 62
     0
100
AcDbLine
 10
1226.5913468898
 20
-532.530190654
 30
0.0
 11
1226.5913468898
 21
-532.7072740270999
 31
0.0
  0
LINE
  5
FA
330
637
100
AcDbEntity
  8
0
 62
     0
100
AcDbLine
 10
1226.5913468898
 20
-532.530190654
 30
0.0
 11
1226.5913468898
 21
-535.3531072808999
 31
0.0
  0
LINE
  5
FB
330
637
100
AcDbEntity
  8
0
 62
     0
100
AcDbLine
 10
1226.5913468898
 20
-532.530190654
 30
0.0
 11
1226.5913468898
 21
-529.5301906539999
 31
0.0
  0
SOLID
  5
FC
330
637
100
AcDbEntity
  8
0
 62
     0
100
AcDbTrace
 10
1226.5913468898
 20
-532.530190654
 30
0.0
 11
1226.2163468898
 21
-531.0301906539999
 31
0.0
 12
1226.9663468898
 22
-531.0301906539999
 32
0.0
 13
1226.5913468898
 23
-531.4051906539999
 33
0.0
  0
LINE
  5
FD
330
637
100
AcDbEntity
  8
0
 62
     0
100
AcDbLine
 10
1226.5913468898
 20
-535.5301906539999
 30
0.0
 11
1226.5913468898
 21
-538.5301906539999
 31
0.0
  0
SOLID
  5
FE
330
637
100
AcDbEntity
  8
0
 62
     0
100
AcDbTrace
 10
1226.5913468898
 20
-535.5301906539999
 30
0.0
 11
1226.9663468898
 21
-537.0301906539999
 31
0.0
 12
1226.2163468898
 22
-537.0301906539999
 32
0.0
 13
1226.5913468898
 23
-536.6551906539999
 33
0.0
  0
ENDBLK
  5
FF
330
637
100
AcDbEntity
  8
0
100
AcDbBlockEnd
  0
BLOCK
  5
63A
330
639
100
AcDbEntity
  8
0
100
AcDbBlockBegin
  2
*D4
 70
     1
 10
0.0
 20
0.0
 30
0.0
  3
*D4
  1

  0
TEXT
  5
103
330
639
100
AcDbEntity
  8
0
 62
     0
100
AcDbText
 10
1229.4348444011
 20
-530.412135072
 30
0.0
 40
1.499305510499999
  1
12
 50
90.0
100
AcDbText
  0
LINE
  5
104
330
639
100
AcDbEntity
  8
0
 62
     0
100
AcDbLine
 10
1219.7913470022
 20
-535.5301906539999
 30
0.0
 11
1231.1994277265
 21
-535.5301906539999
 31
0.0
  0
LINE
  5
105
330
639
100
AcDbEntity
  8
0
 62
     0
100
AcDbLine
 10
1219.7913466923
 20
-523.530190654
 30
0.0
 11
1231.1994277265
 21
-523.530190654
 31
0.0
  0
LINE
  5
106
330
639
100
AcDbEntity
  8
0
 62
     0
100
AcDbLine
 10
1230.6994277265
 20
-535.5301906539999
 30
0.0
 11
1230.6994277265
 21
-527.7663018180999
 31
0.0
  0
LINE
  5
107
330
639
100
AcDbEntity
  8
0
 62
     0
100
AcDbLine
 10
1230.6994277265
 20
-535.5301906539999
 30
0.0
 11
1230.6994277265
 21
-531.2940794899
 31
0.0
  0
LINE
  5
108
330
639
100
AcDbEntity
  8
0
 62
     0
100
AcDbLine
 10
1230.6994277265
 20
-523.530190654
 30
0.0
 11
1230.6994277265
 21
-527.7663018180999
 31
0.0
  0
LINE
  5
109
330
639
100
AcDbEntity
  8
0
 62
     0
100
AcDbLine
 10
1230.6994277265
 20
-523.530190654
 30
0.0
 11
1230.6994277265
 21
-531.2940794899
 31
0.0
  0
LINE
  5
10A
330
639
100
AcDbEntity
  8
0
 62
     0
100
AcDbLine
 10
1230.6994277265
 20
-523.530190654
 30
0.0
 11
1230.6994277265
 21
-526.5301906539999
 31
0.0
  0
SOLID
  5
10B
330
639
100
AcDbEntity
  8
0
 62
     0
100
AcDbTrace
 10
1230.6994277265
 20
-523.530190654
 30
0.0
 11
1231.0744277265
 21
-525.0301906539999
 31
0.0
 12
1230.3244277265
 22
-525.0301906539999
 32
0.0
 13
1230.6994277265
 23
-524.6551906539999
 33
0.0
  0
LINE
  5
10C
330
639
100
AcDbEntity
  8
0
 62
     0
100
AcDbLine
 10
1230.6994277265
 20
-535.5301906539999
 30
0.0
 11
1230.6994277265
 21
-532.530190654
 31
0.0
  0
SOLID
  5
10D
330
639
100
AcDbEntity
  8
0
 62
     0
100
AcDbTrace
 10
1230.6994277265
 20
-535.5301906539999
 30
0.0
 11
1230.3244277265
 21
-534.0301906539999
 31
0.0
 12
1231.0744277265
 22
-534.0301906539999
 32
0.0
 13
1230.6994277265
 23
-534.4051906539999
 33
0.0
  0
ENDBLK
  5
10E
330
639
100
AcDbEntity
  8
0
100
AcDbBlockEnd
  0
BLOCK
  5
63C
330
63B
100
AcDbEntity
  8
0
100
AcDbBlockBegin
  2
*D5
 70
     1
 10
0.0
 20
0.0
 30
0.0
  3
*D5
  1

  0
TEXT
  5
112
330
63B
100
AcDbEntity
  8
0
 62
     0
100
AcDbText
 10
1226.3869544229
 20
-568.980934478
 30
0.0
 40
1.499305510499999
  1
23.5
 50
90.0
100
AcDbText
  0
LINE
  5
113
330
63B
100
AcDbEntity
  8
0
 62
     0
100
AcDbLine
 10
1223.6515377483
 20
-578.9670456420999
 30
0.0
 11
1228.1515377483
 21
-578.9670456420999
 31
0.0
  0
LINE
  5
114
330
63B
100
AcDbEntity
  8
0
 62
     0
100
AcDbLine
 10
1222.5913468898
 20
-555.4670456420999
 30
0.0
 11
1228.1515377483
 21
-555.4670456420999
 31
0.0
  0
LINE
  5
115
330
63B
100
AcDbEntity
  8
0
 62
     0
100
AcDbLine
 10
1227.6515377483
 20
-578.9670456420999
 30
0.0
 11
1227.6515377483
 21
-564.5712123882
 31
0.0
  0
LINE
  5
116
330
63B
100
AcDbEntity
  8
0
 62
     0
100
AcDbLine
 10
1227.6515377483
 20
-578.9670456420999
 30
0.0
 11
1227.6515377483
 21
-569.8628788958999
 31
0.0
  0
LINE
  5
117
330
63B
100
AcDbEntity
  8
0
 62
     0
100
AcDbLine
 10
1227.6515377483
 20
-555.4670456420999
 30
0.0
 11
1227.6515377483
 21
-564.5712123882
 31
0.0
  0
LINE
  5
118
330
63B
100
AcDbEntity
  8
0
 62
     0
100
AcDbLine
 10
1227.6515377483
 20
-555.4670456420999
 30
0.0
 11
1227.6515377483
 21
-569.8628788958999
 31
0.0
  0
LINE
  5
119
330
63B
100
AcDbEntity
  8
0
 62
     0
100
AcDbLine
 10
1227.6515377483
 20
-555.4670456420999
 30
0.0
 11
1227.6515377483
 21
-558.4670456420999
 31
0.0
  0
SOLID
  5
11A
330
63B
100
AcDbEntity
  8
0
 62
     0
100
AcDbTrace
 10
1227.6515377483
 20
-555.4670456420999
 30
0.0
 11
1228.0265377483
 21
-556.9670456421
 31
0.0
 12
1227.2765377483
 22
-556.9670456421
 32
0.0
 13
1227.6515377483
 23
-556.5920456420999
 33
0.0
  0
LINE
  5
11B
330
63B
100
AcDbEntity
  8
0
 62
     0
100
AcDbLine
 10
1227.6515377483
 20
-578.9670456420999
 30
0.0
 11
1227.6515377483
 21
-575.9670456420999
 31
0.0
  0
SOLID
  5
11C
330
63B
100
AcDbEntity
  8
0
 62
     0
100
AcDbTrace
 10
1227.6515377483
 20
-578.9670456420999
 30
0.0
 11
1227.2765377483
 21
-577.4670456420999
 31
0.0
 12
1228.0265377483
 22
-577.4670456420999
 32
0.0
 13
1227.6515377483
 23
-577.8420456420999
 33
0.0
  0
ENDBLK
  5
11D
330
63B
100
AcDbEntity
  8
0
100
AcDbBlockEnd
  0
BLOCK
  5
63E
330
63D
100
AcDbEntity
  8
0
100
AcDbBlockBegin
  2
*D6
 70
     1
 10
0.0
 20
0.0
 30
0.0
  3
*D6
  1

  0
TEXT
  5
121
330
63D
100
AcDbEntity
  8
0
 62
     0
100
AcDbText
 10
1194.7287122453
 20
-557.9080178509999
 30
0.0
 40
1.499305510499999
  1
4
 50
90.0
100
AcDbText
  0
LINE
  5
122
330
63D
100
AcDbEntity
  8
0
 62
     0
100
AcDbLine
 10
1219.7913468898
 20
-555.4670456420999
 30
0.0
 11
1195.4932955707
 21
-555.4670456420999
 31
0.0
  0
LINE
  5
123
330
63D
100
AcDbEntity
  8
0
 62
     0
100
AcDbLine
 10
1202.4913468188
 20
-559.4670456420999
 30
0.0
 11
1195.4932955707
 21
-559.4670456420999
 31
0.0
  0
LINE
  5
124
330
63D
100
AcDbEntity
  8
0
 62
     0
100
AcDbLine
 10
1195.9932955707
 20
-555.4670456420999
 30
0.0
 11
1195.9932955707
 21
-556.1441290151
 31
0.0
  0
LINE
  5
125
330
63D
100
AcDbEntity
  8
0
 62
     0
100
AcDbLine
 10
1195.9932955707
 20
-555.4670456420999
 30
0.0
 11
1195.9932955707
 21
-558.7899622690001
 31
0.0
  0
LINE
  5
126
330
63D
100
AcDbEntity
  8
0
 62
     0
100
AcDbLine
 10
1195.9932955707
 20
-559.4670456420999
 30
0.0
 11
1195.9932955707
 21
-556.1441290151
 31
0.0
  0
LINE
  5
127
330
63D
100
AcDbEntity
  8
0
 62
     0
100
AcDbLine
 10
1195.9932955707
 20
-559.4670456420999
 30
0.0
 11
1195.9932955707
 21
-558.7899622690001
 31
0.0
  0
LINE
  5
128
330
63D
100
AcDbEntity
  8
0
 62
     0
100
AcDbLine
 10
1195.9932955707
 20
-559.4670456420999
 30
0.0
 11
1195.9932955707
 21
-562.4670456420999
 31
0.0
  0
SOLID
  5
129
330
63D
100
AcDbEntity
  8
0
 62
     0
100
AcDbTrace
 10
1195.9932955707
 20
-559.4670456420999
 30
0.0
 11
1196.3682955707
 21
-560.9670456420999
 31
0.0
 12
1195.6182955707
 22
-560.9670456420999
 32
0.0
 13
1195.9932955707
 23
-560.5920456420999
 33
0.0
  0
LINE
  5
12A
330
63D
100
AcDbEntity
  8
0
 62
     0
100
AcDbLine
 10
1195.9932955707
 20
-555.4670456420999
 30
0.0
 11
1195.9932955707
 21
-552.4670456420999
 31
0.0
  0
SOLID
  5
12B
330
63D
100
AcDbEntity
  8
0
 62
     0
100
AcDbTrace
 10
1195.9932955707
 20
-555.4670456420999
 30
0.0
 11
1195.6182955707
 21
-553.9670456420999
 31
0.0
 12
1196.3682955707
 22
-553.9670456420999
 32
0.0
 13
1195.9932955707
 23
-554.3420456420999
 33
0.0
  0
ENDBLK
  5
12C
330
63D
100
AcDbEntity
  8
0
100
AcDbBlockEnd
  0
BLOCK
  5
640
330
63F
100
AcDbEntity
  8
0
100
AcDbBlockBegin
  2
*D7
 70
     1
 10
0.0
 20
0.0
 30
0.0
  3
*D7
  1

  0
TEXT
  5
130
330
63F
100
AcDbEntity
  8
0
 62
     0
100
AcDbText
 10
1194.7287122453
 20
-569.980934478
 30
0.0
 40
1.499305510499999
  1
17.5
 50
90.0
100
AcDbText
  0
LINE
  5
131
330
63F
100
AcDbEntity
  8
0
 62
     0
100
AcDbLine
 10
1202.4913468188
 20
-559.4670456420999
 30
0.0
 11
1195.4932955707
 21
-559.4670456420999
 31
0.0
  0
LINE
  5
132
330
63F
100
AcDbEntity
  8
0
 62
     0
100
AcDbLine
 10
1218.2858277777
 20
-576.9670456420999
 30
0.0
 11
1195.4932955707
 21
-576.9670456420999
 31
0.0
  0
LINE
  5
133
330
63F
100
AcDbEntity
  8
0
 62
     0
100
AcDbLine
 10
1195.9932955707
 20
-559.4670456420999
 30
0.0
 11
1195.9932955707
 21
-565.5712123882
 31
0.0
  0
LINE
  5
134
330
63F
100
AcDbEntity
  8
0
 62
     0
100
AcDbLine
 10
1195.9932955707
 20
-559.4670456420999
 30
0.0
 11
1195.9932955707
 21
-570.8628788958999
 31
0.0
  0
LINE
  5
135
330
63F
100
AcDbEntity
  8
0
 62
     0
100
AcDbLine
 10
1195.9932955707
 20
-576.9670456420999
 30
0.0
 11
1195.9932955707
 21
-565.5712123882
 31
0.0
  0
LINE
  5
136
330
63F
100
AcDbEntity
  8
0
 62
     0
100
AcDbLine
 10
1195.9932955707
 20
-576.9670456420999
 30
0.0
 11
1195.9932955707
 21
-570.8628788958999
 31
0.0
  0
LINE
  5
137
330
63F
100
AcDbEntity
  8
0
 62
     0
100
AcDbLine
 10
1195.9932955707
 20
-576.9670456420999
 30
0.0
 11
1195.9932955707
 21
-573.9670456420999
 31
0.0
  0
SOLID
  5
138
330
63F
100
AcDbEntity
  8
0
 62
     0
100
AcDbTrace
 10
1195.9932955707
 20
-576.9670456420999
 30
0.0
 11
1195.6182955707
 21
-575.4670456420999
 31
0.0
 12
1196.3682955707
 22
-575.4670456420999
 32
0.0
 13
1195.9932955707
 23
-575.8420456420999
 33
0.0
  0
LINE
  5
139
330
63F
100
AcDbEntity
  8
0
 62
     0
100
AcDbLine
 10
1195.9932955707
 20
-559.4670456420999
 30
0.0
 11
1195.9932955707
 21
-562.4670456420999
 31
0.0
  0
SOLID
  5
13A
330
63F
100
AcDbEntity
  8
0
 62
     0
100
AcDbTrace
 10
1195.9932955707
 20
-559.4670456420999
 30
0.0
 11
1196.3682955707
 21
-560.9670456420999
 31
0.0
 12
1195.6182955707
 22
-560.9670456420999
 32
0.0
 13
1195.9932955707
 23
-560.5920456420999
 33
0.0
  0
ENDBLK
  5
13B
330
63F
100
AcDbEntity
  8
0
100
AcDbBlockEnd
  0
BLOCK
  5
642
330
641
100
AcDbEntity
  8
0
100
AcDbBlockBegin
  2
*D8
 70
     1
 10
0.0
 20
0.0
 30
0.0
  3
*D8
  1

  0
TEXT
  5
13F
330
641
100
AcDbEntity
  8
0
 62
     0
100
AcDbText
 10
1194.7287122453
 20
-578.408017851
 30
0.0
 40
1.499305510499999
  1
2
 50
90.0
100
AcDbText
  0
LINE
  5
140
330
641
100
AcDbEntity
  8
0
 62
     0
100
AcDbLine
 10
1218.2858277777
 20
-576.9670456420999
 30
0.0
 11
1195.4932955707
 21
-576.9670456420999
 31
0.0
  0
LINE
  5
141
330
641
100
AcDbEntity
  8
0
 62
     0
100
AcDbLine
 10
1220.8515377483
 20
-578.9670456420999
 30
0.0
 11
1195.4932955707
 21
-578.9670456420999
 31
0.0
  0
LINE
  5
142
330
641
100
AcDbEntity
  8
0
 62
     0
100
AcDbLine
 10
1195.9932955707
 20
-576.9670456420999
 30
0.0
 11
1195.9932955707
 21
-576.9670456420999
 31
0.0
  0
LINE
  5
143
330
641
100
AcDbEntity
  8
0
 62
     0
100
AcDbLine
 10
1195.9932955707
 20
-576.9670456420999
 30
0.0
 11
1195.9932955707
 21
-578.9670456420999
 31
0.0
  0
LINE
  5
144
330
641
100
AcDbEntity
  8
0
 62
     0
100
AcDbLine
 10
1195.9932955707
 20
-578.9670456420999
 30
0.0
 11
1195.9932955707
 21
-576.9670456420999
 31
0.0
  0
LINE
  5
145
330
641
100
AcDbEntity
  8
0
 62
     0
100
AcDbLine
 10
1195.9932955707
 20
-578.9670456420999
 30
0.0
 11
1195.9932955707
 21
-578.9670456420999
 31
0.0
  0
LINE
  5
146
330
641
100
AcDbEntity
  8
0
 62
     0
100
AcDbLine
 10
1195.9932955707
 20
-578.9670456420999
 30
0.0
 11
1195.9932955707
 21
-581.9670456421
 31
0.0
  0
SOLID
  5
147
330
641
100
AcDbEntity
  8
0
 62
     0
100
AcDbTrace
 10
1195.9932955707
 20
-578.9670456420999
 30
0.0
 11
1196.3682955707
 21
-580.4670456420999
 31
0.0
 12
1195.6182955707
 22
-580.4670456420999
 32
0.0
 13
1195.9932955707
 23
-580.0920456420999
 33
0.0
  0
LINE
  5
148
330
641
100
AcDbEntity
  8
0
 62
     0
100
AcDbLine
 10
1195.9932955707
 20
-576.9670456420999
 30
0.0
 11
1195.9932955707
 21
-573.9670456420999
 31
0.0
  0
SOLID
  5
149
330
641
100
AcDbEntity
  8
0
 62
     0
100
AcDbTrace
 10
1195.9932955707
 20
-576.9670456420999
 30
0.0
 11
1195.6182955707
 21
-575.4670456420999
 31
0.0
 12
1196.3682955707
 22
-575.4670456420999
 32
0.0
 13
1195.9932955707
 23
-575.8420456420999
 33
0.0
  0
ENDBLK
  5
14A
330
641
100
AcDbEntity
  8
0
100
AcDbBlockEnd
  0
BLOCK
  5
644
330
643
100
AcDbEntity
  8
0
100
AcDbBlockBegin
  2
*D9
 70
     1
 10
0.0
 20
0.0
 30
0.0
  3
*D9
  1

  0
TEXT
  5
14E
330
643
100
AcDbEntity
  8
0
 62
     0
100
AcDbText
 10
1209.7774580539
 20
-517.2656073286
 30
0.0
 40
1.499305510499999
  1
20.1
100
AcDbText
  0
LINE
  5
14F
330
643
100
AcDbEntity
  8
0
 62
     0
100
AcDbLine
 10
1221.5913468898
 20
-525.5301906539999
 30
0.0
 11
1221.5913468898
 21
-518.0301906539999
 31
0.0
  0
LINE
  5
150
330
643
100
AcDbEntity
  8
0
 62
     0
100
AcDbLine
 10
1201.4913468898
 20
-522.5301906539999
 30
0.0
 11
1201.4913468898
 21
-518.0301906539999
 31
0.0
  0
LINE
  5
151
330
643
100
AcDbEntity
  8
0
 62
     0
100
AcDbLine
 10
1221.5913468898
 20
-518.5301906539999
 30
0.0
 11
1214.1871801436
 21
-518.5301906539999
 31
0.0
  0
LINE
  5
152
330
643
100
AcDbEntity
  8
0
 62
     0
100
AcDbLine
 10
1221.5913468898
 20
-518.5301906539999
 30
0.0
 11
1208.8955136359
 21
-518.5301906539999
 31
0.0
  0
LINE
  5
153
330
643
100
AcDbEntity
  8
0
 62
     0
100
AcDbLine
 10
1201.4913468898
 20
-518.5301906539999
 30
0.0
 11
1214.1871801436
 21
-518.5301906539999
 31
0.0
  0
LINE
  5
154
330
643
100
AcDbEntity
  8
0
 62
     0
100
AcDbLine
 10
1201.4913468898
 20
-518.5301906539999
 30
0.0
 11
1208.8955136359
 21
-518.5301906539999
 31
0.0
  0
LINE
  5
155
330
643
100
AcDbEntity
  8
0
 62
     0
100
AcDbLine
 10
1201.4913468898
 20
-518.5301906539999
 30
0.0
 11
1204.4913468898
 21
-518.5301906539999
 31
0.0
  0
SOLID
  5
156
330
643
100
AcDbEntity
  8
0
 62
     0
100
AcDbTrace
 10
1201.4913468898
 20
-518.5301906539999
 30
0.0
 11
1202.9913468898
 21
-518.155190654
 31
0.0
 12
1202.9913468898
 22
-518.9051906539999
 32
0.0
 13
1202.6163468898
 23
-518.5301906539999
 33
0.0
  0
LINE
  5
157
330
643
100
AcDbEntity
  8
0
 62
     0
100
AcDbLine
 10
1221.5913468898
 20
-518.5301906539999
 30
0.0
 11
1218.5913468898
 21
-518.5301906539999
 31
0.0
  0
SOLID
  5
158
330
643
100
AcDbEntity
  8
0
 62
     0
100
AcDbTrace
 10
1221.5913468898
 20
-518.5301906539999
 30
0.0
 11
1220.0913468898
 21
-518.9051906539999
 31
0.0
 12
1220.0913468898
 22
-518.155190654
 32
0.0
 13
1220.4663468898
 23
-518.5301906539999
 33
0.0
  0
ENDBLK
  5
159
330
643
100
AcDbEntity
  8
0
100
AcDbBlockEnd
  0
BLOCK
  5
646
330
645
100
AcDbEntity
  8
0
100
AcDbBlockBegin
  2
*D10
 70
     1
 10
0.0
 20
0.0
 30
0.0
  3
*D10
  1

  0
TEXT
  5
15D
330
645
100
AcDbEntity
  8
0
 62
     0
100
AcDbText
 10
1225.3267635644
 20
-525.4711628629999
 30
0.0
 40
1.499305510499999
  1
3
 50
90.0
100
AcDbText
  0
LINE
  5
15E
330
645
100
AcDbEntity
  8
0
 62
     0
100
AcDbLine
 10
1222.5913468898
 20
-526.5301906539999
 30
0.0
 11
1227.0913468898
 21
-526.5301906539999
 31
0.0
  0
LINE
  5
15F
330
645
100
AcDbEntity
  8
0
 62
     0
100
AcDbLine
 10
1219.7913466923
 20
-523.530190654
 30
0.0
 11
1227.0913468898
 21
-523.530190654
 31
0.0
  0
LINE
  5
160
330
645
100
AcDbEntity
  8
0
 62
     0
100
AcDbLine
 10
1226.5913468898
 20
-526.5301906539999
 30
0.0
 11
1226.5913468898
 21
-523.7072740270999
 31
0.0
  0
LINE
  5
161
330
645
100
AcDbEntity
  8
0
 62
     0
100
AcDbLine
 10
1226.5913468898
 20
-526.5301906539999
 30
0.0
 11
1226.5913468898
 21
-526.3531072809
 31
0.0
  0
LINE
  5
162
330
645
100
AcDbEntity
  8
0
 62
     0
100
AcDbLine
 10
1226.5913468898
 20
-523.530190654
 30
0.0
 11
1226.5913468898
 21
-523.7072740270999
 31
0.0
  0
LINE
  5
163
330
645
100
AcDbEntity
  8
0
 62
     0
100
AcDbLine
 10
1226.5913468898
 20
-523.530190654
 30
0.0
 11
1226.5913468898
 21
-526.3531072809
 31
0.0
  0
LINE
  5
164
330
645
100
AcDbEntity
  8
0
 62
     0
100
AcDbLine
 10
1226.5913468898
 20
-523.530190654
 30
0.0
 11
1226.5913468898
 21
-520.5301906539999
 31
0.0
  0
SOLID
  5
165
330
645
100
AcDbEntity
  8
0
 62
     0
100
AcDbTrace
 10
1226.5913468898
 20
-523.530190654
 30
0.0
 11
1226.2163468898
 21
-522.0301906539999
 31
0.0
 12
1226.9663468898
 22
-522.0301906539999
 32
0.0
 13
1226.5913468898
 23
-522.4051906539999
 33
0.0
  0
LINE
  5
166
330
645
100
AcDbEntity
  8
0
 62
     0
100
AcDbLine
 10
1226.5913468898
 20
-526.5301906539999
 30
0.0
 11
1226.5913468898
 21
-529.5301906539999
 31
0.0
  0
SOLID
  5
167
330
645
100
AcDbEntity
  8
0
 62
     0
100
AcDbTrace
 10
1226.5913468898
 20
-526.5301906539999
 30
0.0
 11
1226.9663468898
 21
-528.030190654
 31
0.0
 12
1226.2163468898
 22
-528.030190654
 32
0.0
 13
1226.5913468898
 23
-527.6551906539999
 33
0.0
  0
ENDBLK
  5
168
330
645
100
AcDbEntity
  8
0
100
AcDbBlockEnd
  0
BLOCK
  5
648
330
647
100
AcDbEntity
  8
0
100
AcDbBlockBegin
  2
*U11
 70
     1
 10
0.0
 20
0.0
 30
0.0
  3
*U11
  1

  0
TEXT
  5
193
330
647
100
AcDbEntity
  8
ﾚｲﾔ_1
  6
Continuous
100
AcDbText
 10
1254.063136767
 20
-591.7240269623341
 30
0.0
 40
1.168749999999999
  1
 設計　　 園原
100
AcDbText
  0
ENDBLK
  5
195
330
647
100
AcDbEntity
  8
0
100
AcDbBlockEnd
  0
BLOCK
  5
64A
330
649
100
AcDbEntity
  8
0
100
AcDbBlockBegin
  2
*U12
 70
     1
 10
0.0
 20
0.0
 30
0.0
  3
*U12
  1

  0
TEXT
  5
197
330
649
100
AcDbEntity
  8
ﾚｲﾔ_1
  6
Continuous
100
AcDbText
 10
1254.063136767
 20
-593.8608924445675
 30
0.0
 40
1.168749999999999
  1
 製図　　 園原
100
AcDbText
  0
ENDBLK
  5
199
330
649
100
AcDbEntity
  8
0
100
AcDbBlockEnd
  0
BLOCK
  5
64C
330
64B
100
AcDbEntity
  8
0
100
AcDbBlockBegin
  2
*U13
 70
     1
 10
0.0
 20
0.0
 30
0.0
  3
*U13
  1

  0
TEXT
  5
19B
330
64B
100
AcDbEntity
  8
ﾚｲﾔ_1
  6
Continuous
100
AcDbText
 10
1257.6734136294
 20
-597.5312682616833
 30
0.0
 40
2.158999967599998
  1
株式会社
100
AcDbText
  0
ENDBLK
  5
19D
330
64B
100
AcDbEntity
  8
0
100
AcDbBlockEnd
  0
BLOCK
  5
64E
330
64D
100
AcDbEntity
  8
0
100
AcDbBlockBegin
  2
*U14
 70
     1
 10
0.0
 20
0.0
 30
0.0
  3
*U14
  1

  0
TEXT
  5
19F
330
64D
100
AcDbEntity
  8
ﾚｲﾔ_1
  6
Continuous
100
AcDbText
 10
1270.2958296726
 20
-591.7358924445675
 30
0.0
 40
1.168749999999999
  1
　尺 　度
100
AcDbText
  0
ENDBLK
  5
1A1
330
64D
100
AcDbEntity
  8
0
100
AcDbBlockEnd
  0
BLOCK
  5
650
330
64F
100
AcDbEntity
  8
0
100
AcDbBlockBegin
  2
*U15
 70
     1
 10
0.0
 20
0.0
 30
0.0
  3
*U15
  1

  0
TEXT
  5
1A3
330
64F
100
AcDbEntity
  8
ﾚｲﾔ_1
  6
Continuous
100
AcDbText
 10
1278.2958296726
 20
-587.4918251856841
 30
0.0
 40
1.168749999999999
  1
　検 　印
100
AcDbText
  0
ENDBLK
  5
1A5
330
64F
100
AcDbEntity
  8
0
100
AcDbBlockEnd
  0
BLOCK
  5
652
330
651
100
AcDbEntity
  8
0
100
AcDbBlockBegin
  2
*U16
 70
     1
 10
0.0
 20
0.0
 30
0.0
  3
*U16
  1

  0
TEXT
  5
1A7
330
651
100
AcDbEntity
  8
ﾚｲﾔ_1
  6
Continuous
100
AcDbText
 10
1294.7300968617
 20
-588.6676373474997
 30
0.0
 40
1.7991665721
  1
ＬＳ-７１９
100
AcDbText
  0
ENDBLK
  5
1A9
330
651
100
AcDbEntity
  8
0
100
AcDbBlockEnd
  0
BLOCK
  5
654
330
653
100
AcDbEntity
  8
0
100
AcDbBlockBegin
  2
*U17
 70
     1
 10
0.0
 20
0.0
 30
0.0
  3
*U17
  1

  0
TEXT
  5
1AB
330
653
100
AcDbEntity
  8
ﾚｲﾔ_1
  6
Continuous
100
AcDbText
 10
1291.3795956382
 20
-593.1100228103908
 30
0.0
 40
1.7991665721
  1
ＳＵＳ棚柱用フック
100
AcDbText
  0
ENDBLK
  5
1AD
330
653
100
AcDbEntity
  8
0
100
AcDbBlockEnd
  0
BLOCK
  5
656
330
655
100
AcDbEntity
  8
0
100
AcDbBlockBegin
  2
*U18
 70
     1
 10
0.0
 20
0.0
 30
0.0
  3
*U18
  1

  0
TEXT
  5
1AF
330
655
100
AcDbEntity
  8
ﾚｲﾔ_1
  6
Continuous
100
AcDbText
 10
1254.2958296726
 20
-587.4502959978666
 30
0.0
 40
1.168749999999999
  1
　日 　付
100
AcDbText
  0
ENDBLK
  5
1B1
330
655
100
AcDbEntity
  8
0
100
AcDbBlockEnd
  0
BLOCK
  5
658
330
657
100
AcDbEntity
  8
0
100
AcDbBlockBegin
  2
*U19
 70
     1
 10
0.0
 20
0.0
 30
0.0
  3
*U19
  1

  0
TEXT
  5
1B3
330
657
100
AcDbEntity
  8
ﾚｲﾔ_1
  6
Continuous
100
AcDbText
 10
1286.5083864938
 20
-587.4536449138003
 30
0.0
 40
1.168749999999999
  1
型番
100
AcDbText
  0
ENDBLK
  5
1B5
330
657
100
AcDbEntity
  8
0
100
AcDbBlockEnd
  0
BLOCK
  5
65A
330
659
100
AcDbEntity
  8
0
100
AcDbBlockBegin
  2
*U20
 70
     1
 10
0.0
 20
0.0
 30
0.0
  3
*U20
  1

  0
TEXT
  5
1B7
330
659
100
AcDbEntity
  8
ﾚｲﾔ_1
  6
Continuous
100
AcDbText
 10
1286.5083864938
 20
-591.715510396034
 30
0.0
 40
1.168749999999999
  1
品名
100
AcDbText
  0
ENDBLK
  5
1B9
330
659
100
AcDbEntity
  8
0
100
AcDbBlockEnd
  0
BLOCK
  5
65C
330
65B
100
AcDbEntity
  8
0
100
AcDbBlockBegin
  2
*U21
 70
     1
 10
0.0
 20
0.0
 30
0.0
  3
*U21
  1

  0
TEXT
  5
1BB
330
65B
100
AcDbEntity
  8
ﾚｲﾔ_1
  6
Continuous
100
AcDbText
 10
1286.5083864938
 20
-595.9536449138003
 30
0.0
 40
1.168749999999999
  1
図番
100
AcDbText
  0
ENDBLK
  5
1BD
330
65B
100
AcDbEntity
  8
0
100
AcDbBlockEnd
  0
BLOCK
  5
65E
330
65D
100
AcDbEntity
  8
0
100
AcDbBlockBegin
  2
*U22
 70
     1
 10
0.0
 20
0.0
 30
0.0
  3
*U22
  1

  0
TEXT
  5
1BF
330
65D
100
AcDbEntity
  8
ﾚｲﾔ_1
  6
Continuous
 62
     5
100
AcDbText
 10
1256.173558721315
 20
-589.5515650333999
 30
0.0
 40
1.168749999999999
  1
H13.3
100
AcDbText
  0
ENDBLK
  5
1C1
330
65D
100
AcDbEntity
  8
0
100
AcDbBlockEnd
  0
BLOCK
  5
660
330
65F
100
AcDbEntity
  8
0
100
AcDbBlockBegin
  2
*U23
 70
     1
 10
0.0
 20
0.0
 30
0.0
  3
*U23
  1

  0
TEXT
  5
1C3
330
65F
100
AcDbEntity
  8
ﾚｲﾔ_1
  6
Continuous
 62
     5
100
AcDbText
 10
1262.64884425431
 20
-589.5515650333999
 30
0.0
 40
1.168749999999999
  1
SUS304 HL
100
AcDbText
  0
ENDBLK
  5
1C5
330
65F
100
AcDbEntity
  8
0
100
AcDbBlockEnd
  0
BLOCK
  5
662
330
661
100
AcDbEntity
  8
0
100
AcDbBlockBegin
  2
*U24
 70
     1
 10
0.0
 20
0.0
 30
0.0
  3
*U24
  1

  0
TEXT
  5
1C7
330
661
100
AcDbEntity
  8
ﾚｲﾔ_1
  6
Continuous
 62
     5
100
AcDbText
 10
1272.56511963502
 20
-589.5515650333999
 30
0.0
 40
1.168749999999999
  1
0.8t
100
AcDbText
  0
ENDBLK
  5
1C9
330
661
100
AcDbEntity
  8
0
100
AcDbBlockEnd
  0
BLOCK
  5
664
330
663
100
AcDbEntity
  8
0
100
AcDbBlockBegin
  2
*U25
 70
     1
 10
0.0
 20
0.0
 30
0.0
  3
*U25
  1

  0
TEXT
  5
1CB
330
663
100
AcDbEntity
  8
ﾚｲﾔ_1
  6
Continuous
 62
     5
100
AcDbText
 10
1272.65707712233
 20
-593.8015650333999
 30
0.0
 40
1.168749999999999
  1
2：1
100
AcDbText
  0
ENDBLK
  5
1CD
330
663
100
AcDbEntity
  8
0
100
AcDbBlockEnd
  0
BLOCK
  5
666
330
665
100
AcDbEntity
  8
0
100
AcDbBlockBegin
  2
*U26
 70
     1
 10
0.0
 20
0.0
 30
0.0
  3
*U26
  1

  0
TEXT
  5
1CF
330
665
100
AcDbEntity
  8
ﾚｲﾔ_1
  6
Continuous
100
AcDbText
 10
1262.2958296726
 20
-587.4680942212172
 30
0.0
 40
1.168749999999999
  1
　材 　質
100
AcDbText
  0
ENDBLK
  5
1D1
330
665
100
AcDbEntity
  8
0
100
AcDbBlockEnd
  0
BLOCK
  5
668
330
667
100
AcDbEntity
  8
0
100
AcDbBlockBegin
  2
*U27
 70
     1
 10
0.0
 20
0.0
 30
0.0
  3
*U27
  1

  0
TEXT
  5
1D3
330
667
100
AcDbEntity
  8
ﾚｲﾔ_1
  6
Continuous
100
AcDbText
 10
1270.2958296726
 20
-587.4918251856841
 30
0.0
 40
1.168749999999999
  1
　板 　厚
100
AcDbText
  0
ENDBLK
  5
1D5
330
667
100
AcDbEntity
  8
0
100
AcDbBlockEnd
  0
BLOCK
  5
66A
330
669
100
AcDbEntity
  8
0
100
AcDbBlockBegin
  2
*U28
 70
     1
 10
0.0
 20
0.0
 30
0.0
  3
*U28
  1

  0
TEXT
  5
489
330
669
100
AcDbEntity
  8
0
  6
Continuous
100
AcDbText
 10
0.2681303364527759
 20
4.01127195727436
 30
0.0
 40
0.984375
  1
■品　番
  7
ゴシック
100
AcDbText
  0
TEXT
  5
48A
330
669
100
AcDbEntity
  8
0
  6
Continuous
100
AcDbText
 10
0.2849094557709577
 20
2.20844880386527
 30
0.0
 40
0.984375
  1
　 ＬＳ-744  ・・・\U+21164生地
  7
ゴシック
100
AcDbText
  0
TEXT
  5
48B
330
669
100
AcDbEntity
  8
0
  6
Continuous
100
AcDbText
 10
0.2849094557709577
 20
0.3832534913652701
 30
0.0
 40
0.984375
  1
　 ＬＳ-744Ｗ・・・白塗装
  7
ゴシック
100
AcDbText
  0
ENDBLK
  5
48D
330
669
100
AcDbEntity
  8
0
100
AcDbBlockEnd
  0
BLOCK
  5
66C
330
66B
100
AcDbEntity
  8
0
100
AcDbBlockBegin
  2
*U29
 70
     1
 10
0.0
 20
0.0
 30
0.0
  3
*U29
  1

  0
TEXT
  5
48F
330
66B
100
AcDbEntity
  8
0
  6
Continuous
100
AcDbText
 10
1254.388847087331
 20
-580.7427481215301
 30
0.0
 40
0.984375
  1
■品　番
  7
ゴシック
100
AcDbText
  0
TEXT
  5
490
330
66B
100
AcDbEntity
  8
0
  6
Continuous
100
AcDbText
 10
1254.405626206649
 20
-582.5455712749392
 30
0.0
 40
0.984375
  1
　 ＬＳ-719 ・・・\U+21164生地
  7
ゴシック
100
AcDbText
  0
TEXT
  5
491
330
66B
100
AcDbEntity
  8
0
  6
Continuous
100
AcDbText
 10
1254.405626206649
 20
-584.3707665874392
 30
0.0
 40
0.984375
  1
　 ＬＳ-719Ｗ・・・白塗装
  7
ゴシック
100
AcDbText
  0
ENDBLK
  5
493
330
66B
100
AcDbEntity
  8
0
100
AcDbBlockEnd
  0
ENDSEC
  0
SECTION
  2
ENTITIES
  0
ARC
  5
2F
330
616
100
AcDbEntity
  8
ﾚｲﾔ_1
  6
STITCH
100
AcDbCircle
 10
1269.4506118223
 20
-530.930190654
 30
0.0
 40
0.8
100
AcDbArc
 50
120.5102374061
 51
180.0
  0
ARC
  5
30
330
616
100
AcDbEntity
  8
ﾚｲﾔ_1
  6
STITCH
100
AcDbCircle
 10
1269.4506118223
 20
-528.130190654
 30
0.0
 40
0.8
100
AcDbArc
 50
180.0
 51
239.4897625939
  0
LINE
  5
31
330
616
100
AcDbEntity
  8
ﾚｲﾔ_1
 62
     5
100
AcDbLine
 10
1269.4506118223
 20
-532.530190654
 30
0.0
 11
1265.6506118223
 21
-532.530190654
 31
0.0
  0
LINE
  5
32
330
616
100
AcDbEntity
  8
ﾚｲﾔ_1
100
AcDbLine
 10
1270.6506118223
 20
-524.5301906539999
 30
0.0
 11
1270.6506118223
 21
-534.5301906539999
 31
0.0
  0
LINE
  5
33
330
616
100
AcDbEntity
  8
ﾚｲﾔ_1
 62
     5
100
AcDbLine
 10
1285.3506118223
 20
-527.1301906539999
 30
0.0
 11
1287.1506118223
 21
-527.1301906539999
 31
0.0
  0
LINE
  5
34
330
616
100
AcDbEntity
  8
ﾚｲﾔ_1
 62
     5
100
AcDbLine
 10
1269.4506118223
 20
-526.5301906539999
 30
0.0
 11
1265.6506118223
 21
-526.5301906539999
 31
0.0
  0
ARC
  5
35
330
616
100
AcDbEntity
  8
ﾚｲﾔ_1
 62
     5
100
AcDbCircle
 10
1265.6506118223
 20
-531.5301906539999
 30
0.0
 40
1.0
100
AcDbArc
 50
180.0
 51
270.0
  0
LINE
  5
36
330
616
100
AcDbEntity
  8
ﾚｲﾔ_1
 62
     5
100
AcDbLine
 10
1264.6506118223
 20
-531.5301906539999
 30
0.0
 11
1264.6506118223
 21
-527.530190654
 31
0.0
  0
ARC
  5
37
330
616
100
AcDbEntity
  8
ﾚｲﾔ_1
 62
     5
100
AcDbCircle
 10
1265.6506118223
 20
-527.530190654
 30
0.0
 40
1.0
100
AcDbArc
 50
90.0
 51
180.0
  0
ARC
  5
38
330
616
100
AcDbEntity
  8
ﾚｲﾔ_1
  6
STITCH
100
AcDbCircle
 10
1266.2506118223
 20
-529.5301906539999
 30
0.0
 40
0.7107692308
100
AcDbArc
 50
90.00000514079998
 51
270.0000065473
  0
LINE
  5
39
330
616
100
AcDbEntity
  8
ﾚｲﾔ_1
  6
STITCH
100
AcDbLine
 10
1266.2506117742
 20
-530.2409598848
 30
0.0
 11
1269.0444579762
 21
-530.2409598848
 31
0.0
  0
LINE
  5
3A
330
616
100
AcDbEntity
  8
ﾚｲﾔ_1
  6
STITCH
100
AcDbLine
 10
1266.2506117586
 20
-528.8194214231999
 30
0.0
 11
1269.0444579762
 21
-528.8194214231999
 31
0.0
  0
ARC
  5
3B
330
616
100
AcDbEntity
  8
ﾚｲﾔ_1
 62
     5
100
AcDbCircle
 10
1266.2506118223
 20
-529.5301906539999
 30
0.0
 40
1.399999999999999
100
AcDbArc
 50
90.00000203579997
 51
270.0000113507
  0
LINE
  5
3C
330
616
100
AcDbEntity
  8
ﾚｲﾔ_1
 62
     5
100
AcDbLine
 10
1266.2506116318
 20
-530.930190654
 30
0.0
 11
1269.4506118223
 21
-530.930190654
 31
0.0
  0
LINE
  5
3D
330
616
100
AcDbEntity
  8
ﾚｲﾔ_1
 62
     5
100
AcDbLine
 10
1266.2506117726
 20
-528.130190654
 30
0.0
 11
1269.4506118223
 21
-528.130190654
 31
0.0
  0
LINE
  5
3E
330
616
100
AcDbEntity
  8
ﾚｲﾔ_1
 62
     5
100
AcDbLine
 10
1285.3506118223
 20
-531.930190654
 30
0.0
 11
1285.3506118223
 21
-527.1301906539999
 31
0.0
  0
ARC
  5
3F
330
616
100
AcDbEntity
  8
ﾚｲﾔ_1
 62
     5
100
AcDbCircle
 10
1287.1506118223
 20
-530.930190654
 30
0.0
 40
1.0
100
AcDbArc
 50
270.0
 51
0.0
  0
LINE
  5
40
330
616
100
AcDbEntity
  8
ﾚｲﾔ_1
 62
     5
100
AcDbLine
 10
1285.3506118223
 20
-531.930190654
 30
0.0
 11
1287.1506118223
 21
-531.930190654
 31
0.0
  0
LINE
  5
41
330
616
100
AcDbEntity
  8
ﾚｲﾔ_1
 62
     5
100
AcDbLine
 10
1288.1506118223
 20
-530.930190654
 30
0.0
 11
1288.1506118223
 21
-528.130190654
 31
0.0
  0
ARC
  5
42
330
616
100
AcDbEntity
  8
ﾚｲﾔ_1
 62
     5
100
AcDbCircle
 10
1287.1506118223
 20
-528.130190654
 30
0.0
 40
1.0
100
AcDbArc
 50
0.0
 51
90.0
  0
LINE
  5
43
330
616
100
AcDbEntity
  8
ﾚｲﾔ_1
  6
STITCH
100
AcDbLine
 10
1286.1506118223
 20
-531.930190654
 30
0.0
 11
1286.1506118223
 21
-527.1301906539999
 31
0.0
  0
LINE
  5
44
330
616
100
AcDbEntity
  8
ﾚｲﾔ_1
 62
     5
100
AcDbLine
 10
1286.1506118223
 20
-527.1301906539999
 30
0.0
 11
1286.1506118223
 21
-523.530190654
 31
0.0
  0
LINE
  5
45
330
616
100
AcDbEntity
  8
ﾚｲﾔ_1
 62
     5
100
AcDbLine
 10
1286.1506118223
 20
-535.5301906539999
 30
0.0
 11
1286.1506118223
 21
-531.930190654
 31
0.0
  0
LINE
  5
46
330
616
100
AcDbEntity
  8
ﾚｲﾔ_1
 62
     5
100
AcDbLine
 10
1285.6253526333
 20
-527.1301906539999
 30
0.0
 11
1285.6253526333
 21
-523.530190654
 31
0.0
  0
LINE
  5
47
330
616
100
AcDbEntity
  8
ﾚｲﾔ_1
 62
     5
100
AcDbLine
 10
1285.6253526333
 20
-535.5301906539999
 30
0.0
 11
1285.6253526333
 21
-531.930190654
 31
0.0
  0
LINE
  5
48
330
616
100
AcDbEntity
  8
ﾚｲﾔ_1
 62
     5
100
AcDbLine
 10
1269.4506118223
 20
-530.930190654
 30
0.0
 11
1269.4506118223
 21
-535.5301906539999
 31
0.0
  0
LINE
  5
49
330
616
100
AcDbEntity
  8
ﾚｲﾔ_1
 62
     5
100
AcDbLine
 10
1269.4506118223
 20
-523.530190654
 30
0.0
 11
1269.4506118223
 21
-528.130190654
 31
0.0
  0
ARC
  5
4A
330
616
100
AcDbEntity
  8
ﾚｲﾔ_1
 62
     5
100
AcDbCircle
 10
1268.6256118223
 20
-529.5301906539999
 30
0.0
 40
1.625
100
AcDbArc
 50
300.5102374061
 51
59.48976259390001
  0
ARC
  5
4B
330
616
100
AcDbEntity
  8
ﾚｲﾔ_1
  6
STITCH
100
AcDbCircle
 10
1221.5913468898
 20
-528.130190654
 30
0.0
 40
0.8
100
AcDbArc
 50
180.0
 51
239.4897625939
  0
ARC
  5
4C
330
616
100
AcDbEntity
  8
ﾚｲﾔ_1
  6
STITCH
100
AcDbCircle
 10
1220.7663468898
 20
-529.5301906539999
 30
0.0
 40
0.825
100
AcDbArc
 50
300.5102374061
 51
59.48976259390001
  0
ARC
  5
4D
330
616
100
AcDbEntity
  8
ﾚｲﾔ_1
  6
STITCH
100
AcDbCircle
 10
1221.5913468898
 20
-530.930190654
 30
0.0
 40
0.8
100
AcDbArc
 50
120.5102374061
 51
180.0
  0
LINE
  5
4E
330
616
100
AcDbEntity
  8
ﾚｲﾔ_1
 62
     5
100
AcDbLine
 10
1221.5913468898
 20
-528.130190654
 30
0.0
 11
1221.5913468898
 21
-530.930190654
 31
0.0
  0
LINE
  5
4F
330
616
100
AcDbEntity
  8
ﾚｲﾔ_1
 62
     5
100
AcDbLine
 10
1220.7913468898
 20
-528.130190654
 30
0.0
 11
1220.7913468898
 21
-530.930190654
 31
0.0
  0
ARC
  5
50
330
616
100
AcDbEntity
  8
ﾚｲﾔ_1
 62
     5
100
AcDbCircle
 10
1220.7913468898
 20
-559.4670456420999
 30
0.0
 40
1.6
100
AcDbArc
 50
270.0
 51
0.0
  0
ARC
  5
51
330
616
100
AcDbEntity
  8
ﾚｲﾔ_1
 62
     5
100
AcDbCircle
 10
1216.8913468898
 20
-559.2607956421
 30
0.0
 40
1.80625
100
AcDbArc
 50
213.8550261283
 51
270.0
  0
LINE
  5
52
330
616
100
AcDbEntity
  8
ﾚｲﾔ_1
 62
     5
100
AcDbLine
 10
1216.8913468898
 20
-561.0670456420999
 30
0.0
 11
1220.7913468898
 21
-561.0670456420999
 31
0.0
  0
LINE
  5
53
330
616
100
AcDbEntity
  8
ﾚｲﾔ_1
 62
     5
100
AcDbLine
 10
1203.4913468188
 20
-559.4670456420999
 30
0.0
 11
1220.7913468898
 21
-559.4670456420999
 31
0.0
  0
ARC
  5
54
330
616
100
AcDbEntity
  8
ﾚｲﾔ_1
  6
STITCH
100
AcDbCircle
 10
1215.2882249356
 20
-560.4670456420999
 30
0.0
 40
1.0
100
AcDbArc
 50
36.959195635
 51
90.0
  0
ARC
  5
55
330
616
100
AcDbEntity
  8
ﾚｲﾔ_1
  6
STITCH
100
AcDbCircle
 10
1216.8913468898
 20
-559.2607956421
 30
0.0
 40
1.00625
100
AcDbArc
 50
216.959195635
 51
270.0
  0
ARC
  5
56
330
616
100
AcDbEntity
  8
ﾚｲﾔ_1
 62
     5
100
AcDbCircle
 10
1203.4913468898
 20
-561.4670456420999
 30
0.0
 40
1.199999999999999
100
AcDbArc
 50
90.00000426440001
 51
240.2637716806
  0
ARC
  5
57
330
616
100
AcDbEntity
  8
ﾚｲﾔ_1
 62
     5
100
AcDbCircle
 10
1203.4913468898
 20
-561.4670456420999
 30
0.0
 40
2.0
100
AcDbArc
 50
90.00000187900001
 51
240.2637698512
  0
LINE
  5
58
330
616
100
AcDbEntity
  8
ﾚｲﾔ_1
  6
STITCH
100
AcDbLine
 10
1221.5913468898
 20
-530.930190654
 30
0.0
 11
1216.7913470405
 21
-530.930190654
 31
0.0
  0
ARC
  5
59
330
616
100
AcDbEntity
  8
ﾚｲﾔ_1
  6
STITCH
100
AcDbCircle
 10
1216.7913468898
 20
-529.5301906539999
 30
0.0
 40
1.399999999999999
100
AcDbArc
 50
90.0000016703
 51
270.0000953398
  0
LINE
  5
5A
330
616
100
AcDbEntity
  8
ﾚｲﾔ_1
 62
     5
100
AcDbLine
 10
1221.5913468898
 20
-528.130190654
 30
0.0
 11
1221.5913468898
 21
-526.5301906539999
 31
0.0
  0
LINE
  5
5B
330
616
100
AcDbEntity
  8
ﾚｲﾔ_1
 62
     5
100
AcDbLine
 10
1221.5913468898
 20
-532.530190654
 30
0.0
 11
1221.5913468898
 21
-530.930190654
 31
0.0
  0
ARC
  5
5C
330
616
100
AcDbEntity
  8
ﾚｲﾔ_1
 62
     5
100
AcDbCircle
 10
1220.7663468898
 20
-529.5301906539999
 30
0.0
 40
1.625
100
AcDbArc
 50
300.5102374061
 51
59.48976259390001
  0
LINE
  5
5D
330
616
100
AcDbEntity
  8
ﾚｲﾔ_1
  6
STITCH
100
AcDbLine
 10
1268.6506118223
 20
-528.1301906687
 30
0.0
 11
1268.6506118223
 21
-526.5301906539999
 31
0.0
  0
LINE
  5
5E
330
616
100
AcDbEntity
  8
ﾚｲﾔ_1
  6
STITCH
100
AcDbLine
 10
1268.6506118223
 20
-532.530190654
 30
0.0
 11
1268.6506118223
 21
-530.9301905908999
 31
0.0
  0
LINE
  5
5F
330
616
100
AcDbEntity
  8
ﾚｲﾔ_1
 62
     5
100
AcDbLine
 10
1268.6506118223
 20
-535.5301906539999
 30
0.0
 11
1268.6506118223
 21
-532.530190654
 31
0.0
  0
LINE
  5
60
330
616
100
AcDbEntity
  8
ﾚｲﾔ_1
 62
     5
100
AcDbLine
 10
1268.6506118223
 20
-526.5301906539999
 30
0.0
 11
1268.6506118223
 21
-523.530190654
 31
0.0
  0
LINE
  5
61
330
616
100
AcDbEntity
  8
ﾚｲﾔ_1
 62
     5
100
AcDbLine
 10
1268.6506118223
 20
-535.5301906539999
 30
0.0
 11
1286.1506118223
 21
-535.5301906539999
 31
0.0
  0
LINE
  5
62
330
616
100
AcDbEntity
  8
ﾚｲﾔ_1
 62
     5
100
AcDbLine
 10
1286.1506118223
 20
-523.530190654
 30
0.0
 11
1268.6506118223
 21
-523.530190654
 31
0.0
  0
ARC
  5
63
330
616
100
AcDbEntity
  8
ﾚｲﾔ_1
  6
STITCH
100
AcDbCircle
 10
1268.6256118223
 20
-529.5301906539999
 30
0.0
 40
0.825
100
AcDbArc
 50
300.5102374061
 51
59.48976259390001
  0
LINE
  5
64
330
616
100
AcDbEntity
  8
ﾚｲﾔ_1
 62
     5
100
AcDbLine
 10
1221.8515377483
 20
-577.9670456420999
 30
0.0
 11
1221.8515377483
 21
-578.9670456420999
 31
0.0
  0
LINE
  5
65
330
616
100
AcDbEntity
  8
ﾚｲﾔ_1
 62
     5
100
AcDbLine
 10
1222.6515377483
 20
-577.9670456420999
 30
0.0
 11
1222.6515377483
 21
-578.9670456420999
 31
0.0
  0
LINE
  5
66
330
616
100
AcDbEntity
  8
ﾚｲﾔ_1
 62
     5
100
AcDbLine
 10
1221.8515377483
 20
-578.9670456420999
 30
0.0
 11
1222.6515377483
 21
-578.9670456420999
 31
0.0
  0
ARC
  5
67
330
616
100
AcDbEntity
  8
ﾚｲﾔ_1
 62
     5
100
AcDbCircle
 10
1220.8515377483
 20
-577.9670456420999
 30
0.0
 40
1.0
100
AcDbArc
 50
0.0
 51
90.0
  0
ARC
  5
68
330
616
100
AcDbEntity
  8
ﾚｲﾔ_1
 62
     5
100
AcDbCircle
 10
1220.8515377483
 20
-577.9670456420999
 30
0.0
 40
1.8
100
AcDbArc
 50
0.0
 51
90.0
  0
LINE
  5
69
330
616
100
AcDbEntity
  8
ﾚｲﾔ_1
 62
     5
100
AcDbLine
 10
1219.2858277777
 20
-576.9670456420999
 30
0.0
 11
1220.8515377483
 21
-576.9670456420999
 31
0.0
  0
LINE
  5
6A
330
616
100
AcDbEntity
  8
ﾚｲﾔ_1
 62
     5
100
AcDbLine
 10
1219.2858277777
 20
-576.9670456420999
 30
0.0
 11
1219.8892370785
 21
-576.4417864530001
 31
0.0
  0
LINE
  5
6B
330
616
100
AcDbEntity
  8
ﾚｲﾔ_1
 62
     5
100
AcDbLine
 10
1219.6487359604
 20
-576.1670456421
 30
0.0
 11
1220.8515377483
 21
-576.1670456421
 31
0.0
  0
LINE
  5
6C
330
616
100
AcDbEntity
  8
ﾚｲﾔ_1
 62
     5
100
AcDbLine
 10
1201.4913468898
 20
-535.5301906539999
 30
0.0
 11
1201.4913468898
 21
-523.530190654
 31
0.0
  0
LINE
  5
6D
330
616
100
AcDbEntity
  8
ﾚｲﾔ_1
 62
     5
100
AcDbLine
 10
1219.7913468898
 20
-526.5301906539999
 30
0.0
 11
1221.5913468898
 21
-526.5301906539999
 31
0.0
  0
LINE
  5
6E
330
616
100
AcDbEntity
  8
ﾚｲﾔ_1
 62
     5
100
AcDbLine
 10
1219.7913468898
 20
-532.530190654
 30
0.0
 11
1221.5913468898
 21
-532.530190654
 31
0.0
  0
LINE
  5
6F
330
616
100
AcDbEntity
  8
ﾚｲﾔ_1
 62
     5
100
AcDbLine
 10
1220.7913468898
 20
-532.530190654
 30
0.0
 11
1220.7913468898
 21
-530.9301905908999
 31
0.0
  0
LINE
  5
70
330
616
100
AcDbEntity
  8
ﾚｲﾔ_1
 62
     5
100
AcDbLine
 10
1220.7913468898
 20
-528.1301906687
 30
0.0
 11
1220.7913468898
 21
-526.5301906539999
 31
0.0
  0
LINE
  5
71
330
616
100
AcDbEntity
  8
ﾚｲﾔ_1
 62
     5
100
AcDbLine
 10
1219.7913468898
 20
-526.5301906539999
 30
0.0
 11
1219.7913468898
 21
-524.5301906539999
 31
0.0
  0
LINE
  5
72
330
616
100
AcDbEntity
  8
ﾚｲﾔ_1
 62
     5
100
AcDbLine
 10
1219.7913468898
 20
-534.5301906539999
 30
0.0
 11
1219.7913468898
 21
-532.530190654
 31
0.0
  0
LINE
  5
73
330
616
100
AcDbEntity
  8
ﾚｲﾔ_1
 62
     5
100
AcDbLine
 10
1220.7913468898
 20
-555.4670456420999
 30
0.0
 11
1221.5913468898
 21
-555.4670456420999
 31
0.0
  0
LINE
  5
74
330
616
100
AcDbEntity
  8
ﾚｲﾔ_1
 62
     5
100
AcDbLine
 10
1222.3913468898
 20
-559.4670456420999
 30
0.0
 11
1222.3913468898
 21
-556.8670456421
 31
0.0
  0
ARC
  5
75
330
616
100
AcDbEntity
  8
ﾚｲﾔ_1
 62
     5
100
AcDbCircle
 10
1221.0913468898
 20
-556.8670456421
 30
0.0
 40
1.3
100
AcDbArc
 50
0.0
 51
67.380135052
  0
LINE
  5
76
330
616
100
AcDbEntity
  8
ﾚｲﾔ_1
 62
     5
100
AcDbLine
 10
1221.5913468898
 20
-559.4670456420999
 30
0.0
 11
1221.5913468898
 21
-555.4670456420999
 31
0.0
  0
LINE
  5
77
330
616
100
AcDbEntity
  8
ﾚｲﾔ_1
 62
     5
100
AcDbLine
 10
1220.7913468898
 20
-559.4670456420999
 30
0.0
 11
1220.7913468898
 21
-555.4670456420999
 31
0.0
  0
LINE
  5
78
330
616
100
AcDbEntity
  8
ﾚｲﾔ_1
 62
     5
100
AcDbLine
 10
1201.4913468898
 20
-523.530190654
 30
0.0
 11
1218.7913466923
 21
-523.530190654
 31
0.0
  0
LINE
  5
79
330
616
100
AcDbEntity
  8
ﾚｲﾔ_1
 62
     5
100
AcDbLine
 10
1201.4913468898
 20
-535.5301906539999
 30
0.0
 11
1218.7913470022
 21
-535.5301906539999
 31
0.0
  0
ARC
  5
7A
330
616
100
AcDbEntity
  8
ﾚｲﾔ_1
 62
     5
100
AcDbCircle
 10
1218.7913468898
 20
-534.5301906539999
 30
0.0
 40
1.0
100
AcDbArc
 50
270.0
 51
0.0
  0
ARC
  5
7B
330
616
100
AcDbEntity
  8
ﾚｲﾔ_1
 62
     5
100
AcDbCircle
 10
1218.7913468898
 20
-524.5301906539999
 30
0.0
 40
1.0
100
AcDbArc
 50
0.0
 51
90.0
  0
LINE
  5
7C
330
616
100
AcDbEntity
  8
ﾚｲﾔ_1
  6
STITCH
100
AcDbLine
 10
1202.2913468898
 20
-535.5301906539999
 30
0.0
 11
1202.2913468898
 21
-523.530190654
 31
0.0
  0
LINE
  5
7D
330
616
100
AcDbEntity
  8
ﾚｲﾔ_1
 62
     5
100
AcDbLine
 10
1274.56173745
 20
-595.8909791429999
 30
0.0
 11
1273.96173745
 21
-595.8909791429999
 31
0.0
  0
LINE
  5
7E
330
616
100
AcDbEntity
  8
ﾚｲﾔ_1
 62
     5
100
AcDbLine
 10
1280.1129729335
 20
-596.810979143
 30
0.0
 11
1281.4175062669
 21
-596.810979143
 31
0.0
  0
LINE
  5
7F
330
616
100
AcDbEntity
  8
ﾚｲﾔ_1
 62
     5
100
AcDbLine
 10
1270.7012959254
 20
-596.490979143
 30
0.0
 11
1271.1012959254
 21
-596.490979143
 31
0.0
  0
ARC
  5
80
330
616
100
AcDbEntity
  8
ﾚｲﾔ_1
 62
     5
100
AcDbCircle
 10
1276.6259798742
 20
-595.6909791430001
 30
0.0
 40
2.2
100
AcDbArc
 50
270.0
 51
302.544958854
  0
LINE
  5
81
330
616
100
AcDbEntity
  8
ﾚｲﾔ_1
 62
     5
100
AcDbLine
 10
1273.96173745
 20
-596.490979143
 30
0.0
 11
1274.56173745
 21
-596.490979143
 31
0.0
  0
LINE
  5
82
330
616
100
AcDbEntity
  8
ﾚｲﾔ_1
100
AcDbLine
 10
1254.063136767
 20
-585.9050483296997
 30
0.0
 11
1254.063136767
 21
-598.6550483297
 31
0.0
  0
LINE
  5
83
330
616
100
AcDbEntity
  8
ﾚｲﾔ_1
100
AcDbLine
 10
1286.063136767
 20
-585.9050483296997
 30
0.0
 11
1286.063136767
 21
-598.6550483297
 31
0.0
  0
LINE
  5
84
330
616
100
AcDbEntity
  8
ﾚｲﾔ_1
100
AcDbLine
 10
1254.063136767
 20
-585.9050483296997
 30
0.0
 11
1314.063136767
 21
-585.9050483296997
 31
0.0
  0
LINE
  5
85
330
616
100
AcDbEntity
  8
ﾚｲﾔ_1
100
AcDbLine
 10
1254.063136767
 20
-594.4050483296997
 30
0.0
 11
1314.063136767
 21
-594.4050483296997
 31
0.0
  0
LINE
  5
86
330
616
100
AcDbEntity
  8
ﾚｲﾔ_1
100
AcDbLine
 10
1262.063136767
 20
-585.9050483296997
 30
0.0
 11
1262.063136767
 21
-590.1550483297
 31
0.0
  0
LINE
  5
87
330
616
100
AcDbEntity
  8
ﾚｲﾔ_1
100
AcDbLine
 10
1278.063136767
 20
-585.9050483296997
 30
0.0
 11
1278.063136767
 21
-594.4050483296997
 31
0.0
  0
LINE
  5
88
330
616
100
AcDbEntity
  8
ﾚｲﾔ_1
 62
     5
100
AcDbLine
 10
1280.1129729335
 20
-595.770979143
 30
0.0
 11
1280.1129729335
 21
-596.490979143
 31
0.0
  0
POLYLINE
  5
1D6
330
616
100
AcDbEntity
  8
ﾚｲﾔ_1
 62
     5
100
AcDb3dPolyline
 66
     1
 10
0.0
 20
0.0
 30
0.0
 70
     8
  0
VERTEX
  5
1D7
330
1D6
100
AcDbEntity
  8
ﾚｲﾔ_1
 62
     5
100
AcDbVertex
100
AcDb3dPolylineVertex
 10
1277.0
 20
-596.246
 30
0.0
 70
    32
  0
VERTEX
  5
1D8
330
1D6
100
AcDbEntity
  8
ﾚｲﾔ_1
 62
     5
100
AcDbVertex
100
AcDb3dPolylineVertex
 10
1277.0
 20
-596.249
 30
0.0
 70
    32
  0
VERTEX
  5
1D9
330
1D6
100
AcDbEntity
  8
ﾚｲﾔ_1
 62
     5
100
AcDbVertex
100
AcDb3dPolylineVertex
 10
1277.0
 20
-596.2519999999999
 30
0.0
 70
    32
  0
VERTEX
  5
1DA
330
1D6
100
AcDbEntity
  8
ﾚｲﾔ_1
 62
     5
100
AcDbVertex
100
AcDb3dPolylineVertex
 10
1277.01
 20
-596.255
 30
0.0
 70
    32
  0
VERTEX
  5
1DB
330
1D6
100
AcDbEntity
  8
ﾚｲﾔ_1
 62
     5
100
AcDbVertex
100
AcDb3dPolylineVertex
 10
1277.01
 20
-596.258
 30
0.0
 70
    32
  0
VERTEX
  5
1DC
330
1D6
100
AcDbEntity
  8
ﾚｲﾔ_1
 62
     5
100
AcDbVertex
100
AcDb3dPolylineVertex
 10
1277.01
 20
-596.2609999999998
 30
0.0
 70
    32
  0
VERTEX
  5
1DD
330
1D6
100
AcDbEntity
  8
ﾚｲﾔ_1
 62
     5
100
AcDbVertex
100
AcDb3dPolylineVertex
 10
1277.02
 20
-596.264
 30
0.0
 70
    32
  0
VERTEX
  5
1DE
330
1D6
100
AcDbEntity
  8
ﾚｲﾔ_1
 62
     5
100
AcDbVertex
100
AcDb3dPolylineVertex
 10
1277.02
 20
-596.2670000000001
 30
0.0
 70
    32
  0
VERTEX
  5
1DF
330
1D6
100
AcDbEntity
  8
ﾚｲﾔ_1
 62
     5
100
AcDbVertex
100
AcDb3dPolylineVertex
 10
1277.02
 20
-596.2699999999999
 30
0.0
 70
    32
  0
VERTEX
  5
1E0
330
1D6
100
AcDbEntity
  8
ﾚｲﾔ_1
 62
     5
100
AcDbVertex
100
AcDb3dPolylineVertex
 10
1277.02
 20
-596.273
 30
0.0
 70
    32
  0
VERTEX
  5
1E1
330
1D6
100
AcDbEntity
  8
ﾚｲﾔ_1
 62
     5
100
AcDbVertex
100
AcDb3dPolylineVertex
 10
1277.03
 20
-596.2759999999999
 30
0.0
 70
    32
  0
VERTEX
  5
1E2
330
1D6
100
AcDbEntity
  8
ﾚｲﾔ_1
 62
     5
100
AcDbVertex
100
AcDb3dPolylineVertex
 10
1277.03
 20
-596.278
 30
0.0
 70
    32
  0
VERTEX
  5
1E3
330
1D6
100
AcDbEntity
  8
ﾚｲﾔ_1
 62
     5
100
AcDbVertex
100
AcDb3dPolylineVertex
 10
1277.03
 20
-596.2809999999999
 30
0.0
 70
    32
  0
VERTEX
  5
1E4
330
1D6
100
AcDbEntity
  8
ﾚｲﾔ_1
 62
     5
100
AcDbVertex
100
AcDb3dPolylineVertex
 10
1277.03
 20
-596.2839999999999
 30
0.0
 70
    32
  0
VERTEX
  5
1E5
330
1D6
100
AcDbEntity
  8
ﾚｲﾔ_1
 62
     5
100
AcDbVertex
100
AcDb3dPolylineVertex
 10
1277.04
 20
-596.2869999999996
 30
0.0
 70
    32
  0
VERTEX
  5
1E6
330
1D6
100
AcDbEntity
  8
ﾚｲﾔ_1
 62
     5
100
AcDbVertex
100
AcDb3dPolylineVertex
 10
1277.04
 20
-596.2899999999998
 30
0.0
 70
    32
  0
VERTEX
  5
1E7
330
1D6
100
AcDbEntity
  8
ﾚｲﾔ_1
 62
     5
100
AcDbVertex
100
AcDb3dPolylineVertex
 10
1277.04
 20
-596.293
 30
0.0
 70
    32
  0
VERTEX
  5
1E8
330
1D6
100
AcDbEntity
  8
ﾚｲﾔ_1
 62
     5
100
AcDbVertex
100
AcDb3dPolylineVertex
 10
1277.04
 20
-596.2960000000001
 30
0.0
 70
    32
  0
VERTEX
  5
1E9
330
1D6
100
AcDbEntity
  8
ﾚｲﾔ_1
 62
     5
100
AcDbVertex
100
AcDb3dPolylineVertex
 10
1277.05
 20
-596.2989999999997
 30
0.0
 70
    32
  0
VERTEX
  5
1EA
330
1D6
100
AcDbEntity
  8
ﾚｲﾔ_1
 62
     5
100
AcDbVertex
100
AcDb3dPolylineVertex
 10
1277.05
 20
-596.302
 30
0.0
 70
    32
  0
VERTEX
  5
1EB
330
1D6
100
AcDbEntity
  8
ﾚｲﾔ_1
 62
     5
100
AcDbVertex
100
AcDb3dPolylineVertex
 10
1277.05
 20
-596.3049999999999
 30
0.0
 70
    32
  0
VERTEX
  5
1EC
330
1D6
100
AcDbEntity
  8
ﾚｲﾔ_1
 62
     5
100
AcDbVertex
100
AcDb3dPolylineVertex
 10
1277.06
 20
-596.3079999999997
 30
0.0
 70
    32
  0
VERTEX
  5
1ED
330
1D6
100
AcDbEntity
  8
ﾚｲﾔ_1
 62
     5
100
AcDbVertex
100
AcDb3dPolylineVertex
 10
1277.06
 20
-596.311
 30
0.0
 70
    32
  0
VERTEX
  5
1EE
330
1D6
100
AcDbEntity
  8
ﾚｲﾔ_1
 62
     5
100
AcDbVertex
100
AcDb3dPolylineVertex
 10
1277.06
 20
-596.314
 30
0.0
 70
    32
  0
VERTEX
  5
1EF
330
1D6
100
AcDbEntity
  8
ﾚｲﾔ_1
 62
     5
100
AcDbVertex
100
AcDb3dPolylineVertex
 10
1277.06
 20
-596.3169999999998
 30
0.0
 70
    32
  0
VERTEX
  5
1F0
330
1D6
100
AcDbEntity
  8
ﾚｲﾔ_1
 62
     5
100
AcDbVertex
100
AcDb3dPolylineVertex
 10
1277.07
 20
-596.3200000000001
 30
0.0
 70
    32
  0
VERTEX
  5
1F1
330
1D6
100
AcDbEntity
  8
ﾚｲﾔ_1
 62
     5
100
AcDbVertex
100
AcDb3dPolylineVertex
 10
1277.07
 20
-596.3219999999997
 30
0.0
 70
    32
  0
VERTEX
  5
1F2
330
1D6
100
AcDbEntity
  8
ﾚｲﾔ_1
 62
     5
100
AcDbVertex
100
AcDb3dPolylineVertex
 10
1277.07
 20
-596.3250000000001
 30
0.0
 70
    32
  0
VERTEX
  5
1F3
330
1D6
100
AcDbEntity
  8
ﾚｲﾔ_1
 62
     5
100
AcDbVertex
100
AcDb3dPolylineVertex
 10
1277.07
 20
-596.328
 30
0.0
 70
    32
  0
VERTEX
  5
1F4
330
1D6
100
AcDbEntity
  8
ﾚｲﾔ_1
 62
     5
100
AcDbVertex
100
AcDb3dPolylineVertex
 10
1277.08
 20
-596.3309999999999
 30
0.0
 70
    32
  0
VERTEX
  5
1F5
330
1D6
100
AcDbEntity
  8
ﾚｲﾔ_1
 62
     5
100
AcDbVertex
100
AcDb3dPolylineVertex
 10
1277.08
 20
-596.3339999999999
 30
0.0
 70
    32
  0
VERTEX
  5
1F6
330
1D6
100
AcDbEntity
  8
ﾚｲﾔ_1
 62
     5
100
AcDbVertex
100
AcDb3dPolylineVertex
 10
1277.08
 20
-596.337
 30
0.0
 70
    32
  0
VERTEX
  5
1F7
330
1D6
100
AcDbEntity
  8
ﾚｲﾔ_1
 62
     5
100
AcDbVertex
100
AcDb3dPolylineVertex
 10
1277.08
 20
-596.34
 30
0.0
 70
    32
  0
VERTEX
  5
1F8
330
1D6
100
AcDbEntity
  8
ﾚｲﾔ_1
 62
     5
100
AcDbVertex
100
AcDb3dPolylineVertex
 10
1277.09
 20
-596.3429999999998
 30
0.0
 70
    32
  0
VERTEX
  5
1F9
330
1D6
100
AcDbEntity
  8
ﾚｲﾔ_1
 62
     5
100
AcDbVertex
100
AcDb3dPolylineVertex
 10
1277.09
 20
-596.346
 30
0.0
 70
    32
  0
VERTEX
  5
1FA
330
1D6
100
AcDbEntity
  8
ﾚｲﾔ_1
 62
     5
100
AcDbVertex
100
AcDb3dPolylineVertex
 10
1277.09
 20
-596.3490000000001
 30
0.0
 70
    32
  0
VERTEX
  5
1FB
330
1D6
100
AcDbEntity
  8
ﾚｲﾔ_1
 62
     5
100
AcDbVertex
100
AcDb3dPolylineVertex
 10
1277.09
 20
-596.3519999999999
 30
0.0
 70
    32
  0
VERTEX
  5
1FC
330
1D6
100
AcDbEntity
  8
ﾚｲﾔ_1
 62
     5
100
AcDbVertex
100
AcDb3dPolylineVertex
 10
1277.1
 20
-596.355
 30
0.0
 70
    32
  0
VERTEX
  5
1FD
330
1D6
100
AcDbEntity
  8
ﾚｲﾔ_1
 62
     5
100
AcDbVertex
100
AcDb3dPolylineVertex
 10
1277.1
 20
-596.3579999999999
 30
0.0
 70
    32
  0
VERTEX
  5
1FE
330
1D6
100
AcDbEntity
  8
ﾚｲﾔ_1
 62
     5
100
AcDbVertex
100
AcDb3dPolylineVertex
 10
1277.1
 20
-596.36
 30
0.0
 70
    32
  0
VERTEX
  5
1FF
330
1D6
100
AcDbEntity
  8
ﾚｲﾔ_1
 62
     5
100
AcDbVertex
100
AcDb3dPolylineVertex
 10
1277.11
 20
-596.3630000000001
 30
0.0
 70
    32
  0
VERTEX
  5
200
330
1D6
100
AcDbEntity
  8
ﾚｲﾔ_1
 62
     5
100
AcDbVertex
100
AcDb3dPolylineVertex
 10
1277.11
 20
-596.3659999999999
 30
0.0
 70
    32
  0
VERTEX
  5
201
330
1D6
100
AcDbEntity
  8
ﾚｲﾔ_1
 62
     5
100
AcDbVertex
100
AcDb3dPolylineVertex
 10
1277.11
 20
-596.369
 30
0.0
 70
    32
  0
VERTEX
  5
202
330
1D6
100
AcDbEntity
  8
ﾚｲﾔ_1
 62
     5
100
AcDbVertex
100
AcDb3dPolylineVertex
 10
1277.11
 20
-596.3719999999998
 30
0.0
 70
    32
  0
VERTEX
  5
203
330
1D6
100
AcDbEntity
  8
ﾚｲﾔ_1
 62
     5
100
AcDbVertex
100
AcDb3dPolylineVertex
 10
1277.12
 20
-596.375
 30
0.0
 70
    32
  0
VERTEX
  5
204
330
1D6
100
AcDbEntity
  8
ﾚｲﾔ_1
 62
     5
100
AcDbVertex
100
AcDb3dPolylineVertex
 10
1277.12
 20
-596.378
 30
0.0
 70
    32
  0
VERTEX
  5
205
330
1D6
100
AcDbEntity
  8
ﾚｲﾔ_1
 62
     5
100
AcDbVertex
100
AcDb3dPolylineVertex
 10
1277.12
 20
-596.3809999999996
 30
0.0
 70
    32
  0
VERTEX
  5
206
330
1D6
100
AcDbEntity
  8
ﾚｲﾔ_1
 62
     5
100
AcDbVertex
100
AcDb3dPolylineVertex
 10
1277.12
 20
-596.384
 30
0.0
 70
    32
  0
VERTEX
  5
207
330
1D6
100
AcDbEntity
  8
ﾚｲﾔ_1
 62
     5
100
AcDbVertex
100
AcDb3dPolylineVertex
 10
1277.13
 20
-596.3869999999999
 30
0.0
 70
    32
  0
VERTEX
  5
208
330
1D6
100
AcDbEntity
  8
ﾚｲﾔ_1
 62
     5
100
AcDbVertex
100
AcDb3dPolylineVertex
 10
1277.13
 20
-596.389
 30
0.0
 70
    32
  0
VERTEX
  5
209
330
1D6
100
AcDbEntity
  8
ﾚｲﾔ_1
 62
     5
100
AcDbVertex
100
AcDb3dPolylineVertex
 10
1277.13
 20
-596.3920000000001
 30
0.0
 70
    32
  0
VERTEX
  5
20A
330
1D6
100
AcDbEntity
  8
ﾚｲﾔ_1
 62
     5
100
AcDbVertex
100
AcDb3dPolylineVertex
 10
1277.13
 20
-596.3949999999997
 30
0.0
 70
    32
  0
VERTEX
  5
20B
330
1D6
100
AcDbEntity
  8
ﾚｲﾔ_1
 62
     5
100
AcDbVertex
100
AcDb3dPolylineVertex
 10
1277.14
 20
-596.398
 30
0.0
 70
    32
  0
VERTEX
  5
20C
330
1D6
100
AcDbEntity
  8
ﾚｲﾔ_1
 62
     5
100
AcDbVertex
100
AcDb3dPolylineVertex
 10
1277.14
 20
-596.401
 30
0.0
 70
    32
  0
VERTEX
  5
20D
330
1D6
100
AcDbEntity
  8
ﾚｲﾔ_1
 62
     5
100
AcDbVertex
100
AcDb3dPolylineVertex
 10
1277.14
 20
-596.4039999999998
 30
0.0
 70
    32
  0
VERTEX
  5
20E
330
1D6
100
AcDbEntity
  8
ﾚｲﾔ_1
 62
     5
100
AcDbVertex
100
AcDb3dPolylineVertex
 10
1277.15
 20
-596.4069999999998
 30
0.0
 70
    32
  0
VERTEX
  5
20F
330
1D6
100
AcDbEntity
  8
ﾚｲﾔ_1
 62
     5
100
AcDbVertex
100
AcDb3dPolylineVertex
 10
1277.15
 20
-596.41
 30
0.0
 70
    32
  0
VERTEX
  5
210
330
1D6
100
AcDbEntity
  8
ﾚｲﾔ_1
 62
     5
100
AcDbVertex
100
AcDb3dPolylineVertex
 10
1277.15
 20
-596.4129999999999
 30
0.0
 70
    32
  0
VERTEX
  5
211
330
1D6
100
AcDbEntity
  8
ﾚｲﾔ_1
 62
     5
100
AcDbVertex
100
AcDb3dPolylineVertex
 10
1277.15
 20
-596.415
 30
0.0
 70
    32
  0
VERTEX
  5
212
330
1D6
100
AcDbEntity
  8
ﾚｲﾔ_1
 62
     5
100
AcDbVertex
100
AcDb3dPolylineVertex
 10
1277.16
 20
-596.4179999999998
 30
0.0
 70
    32
  0
VERTEX
  5
213
330
1D6
100
AcDbEntity
  8
ﾚｲﾔ_1
 62
     5
100
AcDbVertex
100
AcDb3dPolylineVertex
 10
1277.16
 20
-596.4210000000001
 30
0.0
 70
    32
  0
VERTEX
  5
214
330
1D6
100
AcDbEntity
  8
ﾚｲﾔ_1
 62
     5
100
AcDbVertex
100
AcDb3dPolylineVertex
 10
1277.16
 20
-596.424
 30
0.0
 70
    32
  0
VERTEX
  5
215
330
1D6
100
AcDbEntity
  8
ﾚｲﾔ_1
 62
     5
100
AcDbVertex
100
AcDb3dPolylineVertex
 10
1277.16
 20
-596.4269999999998
 30
0.0
 70
    32
  0
VERTEX
  5
216
330
1D6
100
AcDbEntity
  8
ﾚｲﾔ_1
 62
     5
100
AcDbVertex
100
AcDb3dPolylineVertex
 10
1277.17
 20
-596.4299999999999
 30
0.0
 70
    32
  0
VERTEX
  5
217
330
1D6
100
AcDbEntity
  8
ﾚｲﾔ_1
 62
     5
100
AcDbVertex
100
AcDb3dPolylineVertex
 10
1277.17
 20
-596.433
 30
0.0
 70
    32
  0
VERTEX
  5
218
330
1D6
100
AcDbEntity
  8
ﾚｲﾔ_1
 62
     5
100
AcDbVertex
100
AcDb3dPolylineVertex
 10
1277.17
 20
-596.4349999999999
 30
0.0
 70
    32
  0
VERTEX
  5
219
330
1D6
100
AcDbEntity
  8
ﾚｲﾔ_1
 62
     5
100
AcDbVertex
100
AcDb3dPolylineVertex
 10
1277.18
 20
-596.438
 30
0.0
 70
    32
  0
VERTEX
  5
21A
330
1D6
100
AcDbEntity
  8
ﾚｲﾔ_1
 62
     5
100
AcDbVertex
100
AcDb3dPolylineVertex
 10
1277.18
 20
-596.4409999999998
 30
0.0
 70
    32
  0
VERTEX
  5
21B
330
1D6
100
AcDbEntity
  8
ﾚｲﾔ_1
 62
     5
100
AcDbVertex
100
AcDb3dPolylineVertex
 10
1277.18
 20
-596.4439999999998
 30
0.0
 70
    32
  0
VERTEX
  5
21C
330
1D6
100
AcDbEntity
  8
ﾚｲﾔ_1
 62
     5
100
AcDbVertex
100
AcDb3dPolylineVertex
 10
1277.18
 20
-596.447
 30
0.0
 70
    32
  0
VERTEX
  5
21D
330
1D6
100
AcDbEntity
  8
ﾚｲﾔ_1
 62
     5
100
AcDbVertex
100
AcDb3dPolylineVertex
 10
1277.19
 20
-596.4500000000001
 30
0.0
 70
    32
  0
VERTEX
  5
21E
330
1D6
100
AcDbEntity
  8
ﾚｲﾔ_1
 62
     5
100
AcDbVertex
100
AcDb3dPolylineVertex
 10
1277.19
 20
-596.452
 30
0.0
 70
    32
  0
VERTEX
  5
21F
330
1D6
100
AcDbEntity
  8
ﾚｲﾔ_1
 62
     5
100
AcDbVertex
100
AcDb3dPolylineVertex
 10
1277.19
 20
-596.455
 30
0.0
 70
    32
  0
VERTEX
  5
220
330
1D6
100
AcDbEntity
  8
ﾚｲﾔ_1
 62
     5
100
AcDbVertex
100
AcDb3dPolylineVertex
 10
1277.19
 20
-596.4579999999998
 30
0.0
 70
    32
  0
VERTEX
  5
221
330
1D6
100
AcDbEntity
  8
ﾚｲﾔ_1
 62
     5
100
AcDbVertex
100
AcDb3dPolylineVertex
 10
1277.2
 20
-596.461
 30
0.0
 70
    32
  0
VERTEX
  5
222
330
1D6
100
AcDbEntity
  8
ﾚｲﾔ_1
 62
     5
100
AcDbVertex
100
AcDb3dPolylineVertex
 10
1277.2
 20
-596.4640000000001
 30
0.0
 70
    32
  0
VERTEX
  5
223
330
1D6
100
AcDbEntity
  8
ﾚｲﾔ_1
 62
     5
100
AcDbVertex
100
AcDb3dPolylineVertex
 10
1277.2
 20
-596.4669999999999
 30
0.0
 70
    32
  0
VERTEX
  5
224
330
1D6
100
AcDbEntity
  8
ﾚｲﾔ_1
 62
     5
100
AcDbVertex
100
AcDb3dPolylineVertex
 10
1277.21
 20
-596.4690000000001
 30
0.0
 70
    32
  0
VERTEX
  5
225
330
1D6
100
AcDbEntity
  8
ﾚｲﾔ_1
 62
     5
100
AcDbVertex
100
AcDb3dPolylineVertex
 10
1277.21
 20
-596.4719999999998
 30
0.0
 70
    32
  0
VERTEX
  5
226
330
1D6
100
AcDbEntity
  8
ﾚｲﾔ_1
 62
     5
100
AcDbVertex
100
AcDb3dPolylineVertex
 10
1277.21
 20
-596.475
 30
0.0
 70
    32
  0
VERTEX
  5
227
330
1D6
100
AcDbEntity
  8
ﾚｲﾔ_1
 62
     5
100
AcDbVertex
100
AcDb3dPolylineVertex
 10
1277.21
 20
-596.4780000000001
 30
0.0
 70
    32
  0
VERTEX
  5
228
330
1D6
100
AcDbEntity
  8
ﾚｲﾔ_1
 62
     5
100
AcDbVertex
100
AcDb3dPolylineVertex
 10
1277.22
 20
-596.4809999999999
 30
0.0
 70
    32
  0
VERTEX
  5
229
330
1D6
100
AcDbEntity
  8
ﾚｲﾔ_1
 62
     5
100
AcDbVertex
100
AcDb3dPolylineVertex
 10
1277.22
 20
-596.4829999999999
 30
0.0
 70
    32
  0
VERTEX
  5
22A
330
1D6
100
AcDbEntity
  8
ﾚｲﾔ_1
 62
     5
100
AcDbVertex
100
AcDb3dPolylineVertex
 10
1277.22
 20
-596.4859999999998
 30
0.0
 70
    32
  0
VERTEX
  5
22B
330
1D6
100
AcDbEntity
  8
ﾚｲﾔ_1
 62
     5
100
AcDbVertex
100
AcDb3dPolylineVertex
 10
1277.22
 20
-596.489
 30
0.0
 70
    32
  0
VERTEX
  5
22C
330
1D6
100
AcDbEntity
  8
ﾚｲﾔ_1
 62
     5
100
AcDbVertex
100
AcDb3dPolylineVertex
 10
1277.23
 20
-596.4919999999998
 30
0.0
 70
    32
  0
VERTEX
  5
22D
330
1D6
100
AcDbEntity
  8
ﾚｲﾔ_1
 62
     5
100
AcDbVertex
100
AcDb3dPolylineVertex
 10
1277.23
 20
-596.4949999999999
 30
0.0
 70
    32
  0
VERTEX
  5
22E
330
1D6
100
AcDbEntity
  8
ﾚｲﾔ_1
 62
     5
100
AcDbVertex
100
AcDb3dPolylineVertex
 10
1277.23
 20
-596.497
 30
0.0
 70
    32
  0
VERTEX
  5
22F
330
1D6
100
AcDbEntity
  8
ﾚｲﾔ_1
 62
     5
100
AcDbVertex
100
AcDb3dPolylineVertex
 10
1277.24
 20
-596.4999999999998
 30
0.0
 70
    32
  0
VERTEX
  5
230
330
1D6
100
AcDbEntity
  8
ﾚｲﾔ_1
 62
     5
100
AcDbVertex
100
AcDb3dPolylineVertex
 10
1277.24
 20
-596.503
 30
0.0
 70
    32
  0
VERTEX
  5
231
330
1D6
100
AcDbEntity
  8
ﾚｲﾔ_1
 62
     5
100
AcDbVertex
100
AcDb3dPolylineVertex
 10
1277.24
 20
-596.506
 30
0.0
 70
    32
  0
VERTEX
  5
232
330
1D6
100
AcDbEntity
  8
ﾚｲﾔ_1
 62
     5
100
AcDbVertex
100
AcDb3dPolylineVertex
 10
1277.24
 20
-596.508
 30
0.0
 70
    32
  0
VERTEX
  5
233
330
1D6
100
AcDbEntity
  8
ﾚｲﾔ_1
 62
     5
100
AcDbVertex
100
AcDb3dPolylineVertex
 10
1277.25
 20
-596.511
 30
0.0
 70
    32
  0
VERTEX
  5
234
330
1D6
100
AcDbEntity
  8
ﾚｲﾔ_1
 62
     5
100
AcDbVertex
100
AcDb3dPolylineVertex
 10
1277.25
 20
-596.5139999999998
 30
0.0
 70
    32
  0
VERTEX
  5
235
330
1D6
100
AcDbEntity
  8
ﾚｲﾔ_1
 62
     5
100
AcDbVertex
100
AcDb3dPolylineVertex
 10
1277.25
 20
-596.5170000000001
 30
0.0
 70
    32
  0
VERTEX
  5
236
330
1D6
100
AcDbEntity
  8
ﾚｲﾔ_1
 62
     5
100
AcDbVertex
100
AcDb3dPolylineVertex
 10
1277.25
 20
-596.5189999999997
 30
0.0
 70
    32
  0
VERTEX
  5
237
330
1D6
100
AcDbEntity
  8
ﾚｲﾔ_1
 62
     5
100
AcDbVertex
100
AcDb3dPolylineVertex
 10
1277.26
 20
-596.5219999999998
 30
0.0
 70
    32
  0
VERTEX
  5
238
330
1D6
100
AcDbEntity
  8
ﾚｲﾔ_1
 62
     5
100
AcDbVertex
100
AcDb3dPolylineVertex
 10
1277.26
 20
-596.525
 30
0.0
 70
    32
  0
VERTEX
  5
239
330
1D6
100
AcDbEntity
  8
ﾚｲﾔ_1
 62
     5
100
AcDbVertex
100
AcDb3dPolylineVertex
 10
1277.26
 20
-596.5279999999998
 30
0.0
 70
    32
  0
VERTEX
  5
23A
330
1D6
100
AcDbEntity
  8
ﾚｲﾔ_1
 62
     5
100
AcDbVertex
100
AcDb3dPolylineVertex
 10
1277.27
 20
-596.53
 30
0.0
 70
    32
  0
VERTEX
  5
23B
330
1D6
100
AcDbEntity
  8
ﾚｲﾔ_1
 62
     5
100
AcDbVertex
100
AcDb3dPolylineVertex
 10
1277.27
 20
-596.533
 30
0.0
 70
    32
  0
VERTEX
  5
23C
330
1D6
100
AcDbEntity
  8
ﾚｲﾔ_1
 62
     5
100
AcDbVertex
100
AcDb3dPolylineVertex
 10
1277.27
 20
-596.5359999999999
 30
0.0
 70
    32
  0
VERTEX
  5
23D
330
1D6
100
AcDbEntity
  8
ﾚｲﾔ_1
 62
     5
100
AcDbVertex
100
AcDb3dPolylineVertex
 10
1277.27
 20
-596.539
 30
0.0
 70
    32
  0
VERTEX
  5
23E
330
1D6
100
AcDbEntity
  8
ﾚｲﾔ_1
 62
     5
100
AcDbVertex
100
AcDb3dPolylineVertex
 10
1277.28
 20
-596.5410000000002
 30
0.0
 70
    32
  0
VERTEX
  5
23F
330
1D6
100
AcDbEntity
  8
ﾚｲﾔ_1
 62
     5
100
AcDbVertex
100
AcDb3dPolylineVertex
 10
1277.28
 20
-596.544
 30
0.0
 70
    32
  0
VERTEX
  5
240
330
1D6
100
AcDbEntity
  8
ﾚｲﾔ_1
 62
     5
100
AcDbVertex
100
AcDb3dPolylineVertex
 10
1277.28
 20
-596.547
 30
0.0
 70
    32
  0
VERTEX
  5
241
330
1D6
100
AcDbEntity
  8
ﾚｲﾔ_1
 62
     5
100
AcDbVertex
100
AcDb3dPolylineVertex
 10
1277.28
 20
-596.5489999999999
 30
0.0
 70
    32
  0
VERTEX
  5
242
330
1D6
100
AcDbEntity
  8
ﾚｲﾔ_1
 62
     5
100
AcDbVertex
100
AcDb3dPolylineVertex
 10
1277.29
 20
-596.552
 30
0.0
 70
    32
  0
VERTEX
  5
243
330
1D6
100
AcDbEntity
  8
ﾚｲﾔ_1
 62
     5
100
AcDbVertex
100
AcDb3dPolylineVertex
 10
1277.29
 20
-596.5549999999999
 30
0.0
 70
    32
  0
VERTEX
  5
244
330
1D6
100
AcDbEntity
  8
ﾚｲﾔ_1
 62
     5
100
AcDbVertex
100
AcDb3dPolylineVertex
 10
1277.29
 20
-596.557
 30
0.0
 70
    32
  0
VERTEX
  5
245
330
1D6
100
AcDbEntity
  8
ﾚｲﾔ_1
 62
     5
100
AcDbVertex
100
AcDb3dPolylineVertex
 10
1277.3
 20
-596.5599999999999
 30
0.0
 70
    32
  0
VERTEX
  5
246
330
1D6
100
AcDbEntity
  8
ﾚｲﾔ_1
 62
     5
100
AcDbVertex
100
AcDb3dPolylineVertex
 10
1277.3
 20
-596.5629999999999
 30
0.0
 70
    32
  0
VERTEX
  5
247
330
1D6
100
AcDbEntity
  8
ﾚｲﾔ_1
 62
     5
100
AcDbVertex
100
AcDb3dPolylineVertex
 10
1277.3
 20
-596.5650000000001
 30
0.0
 70
    32
  0
VERTEX
  5
248
330
1D6
100
AcDbEntity
  8
ﾚｲﾔ_1
 62
     5
100
AcDbVertex
100
AcDb3dPolylineVertex
 10
1277.3
 20
-596.5679999999998
 30
0.0
 70
    32
  0
VERTEX
  5
249
330
1D6
100
AcDbEntity
  8
ﾚｲﾔ_1
 62
     5
100
AcDbVertex
100
AcDb3dPolylineVertex
 10
1277.31
 20
-596.571
 30
0.0
 70
    32
  0
VERTEX
  5
24A
330
1D6
100
AcDbEntity
  8
ﾚｲﾔ_1
 62
     5
100
AcDbVertex
100
AcDb3dPolylineVertex
 10
1277.31
 20
-596.5729999999997
 30
0.0
 70
    32
  0
VERTEX
  5
24B
330
1D6
100
AcDbEntity
  8
ﾚｲﾔ_1
 62
     5
100
AcDbVertex
100
AcDb3dPolylineVertex
 10
1277.31
 20
-596.576
 30
0.0
 70
    32
  0
VERTEX
  5
24C
330
1D6
100
AcDbEntity
  8
ﾚｲﾔ_1
 62
     5
100
AcDbVertex
100
AcDb3dPolylineVertex
 10
1277.32
 20
-596.5790000000001
 30
0.0
 70
    32
  0
VERTEX
  5
24D
330
1D6
100
AcDbEntity
  8
ﾚｲﾔ_1
 62
     5
100
AcDbVertex
100
AcDb3dPolylineVertex
 10
1277.32
 20
-596.581
 30
0.0
 70
    32
  0
VERTEX
  5
24E
330
1D6
100
AcDbEntity
  8
ﾚｲﾔ_1
 62
     5
100
AcDbVertex
100
AcDb3dPolylineVertex
 10
1277.32
 20
-596.5839999999999
 30
0.0
 70
    32
  0
VERTEX
  5
24F
330
1D6
100
AcDbEntity
  8
ﾚｲﾔ_1
 62
     5
100
AcDbVertex
100
AcDb3dPolylineVertex
 10
1277.32
 20
-596.5869999999998
 30
0.0
 70
    32
  0
VERTEX
  5
250
330
1D6
100
AcDbEntity
  8
ﾚｲﾔ_1
 62
     5
100
AcDbVertex
100
AcDb3dPolylineVertex
 10
1277.33
 20
-596.5890000000001
 30
0.0
 70
    32
  0
VERTEX
  5
251
330
1D6
100
AcDbEntity
  8
ﾚｲﾔ_1
 62
     5
100
AcDbVertex
100
AcDb3dPolylineVertex
 10
1277.33
 20
-596.5919999999996
 30
0.0
 70
    32
  0
VERTEX
  5
252
330
1D6
100
AcDbEntity
  8
ﾚｲﾔ_1
 62
     5
100
AcDbVertex
100
AcDb3dPolylineVertex
 10
1277.33
 20
-596.595
 30
0.0
 70
    32
  0
VERTEX
  5
253
330
1D6
100
AcDbEntity
  8
ﾚｲﾔ_1
 62
     5
100
AcDbVertex
100
AcDb3dPolylineVertex
 10
1277.34
 20
-596.5969999999997
 30
0.0
 70
    32
  0
VERTEX
  5
254
330
1D6
100
AcDbEntity
  8
ﾚｲﾔ_1
 62
     5
100
AcDbVertex
100
AcDb3dPolylineVertex
 10
1277.34
 20
-596.6
 30
0.0
 70
    32
  0
VERTEX
  5
255
330
1D6
100
AcDbEntity
  8
ﾚｲﾔ_1
 62
     5
100
AcDbVertex
100
AcDb3dPolylineVertex
 10
1277.34
 20
-596.6019999999997
 30
0.0
 70
    32
  0
VERTEX
  5
256
330
1D6
100
AcDbEntity
  8
ﾚｲﾔ_1
 62
     5
100
AcDbVertex
100
AcDb3dPolylineVertex
 10
1277.34
 20
-596.605
 30
0.0
 70
    32
  0
SEQEND
  5
257
330
1D6
100
AcDbEntity
  8
ﾚｲﾔ_1
 62
     5
  0
POLYLINE
  5
258
330
616
100
AcDbEntity
  8
ﾚｲﾔ_1
 62
     5
100
AcDb3dPolyline
 66
     1
 10
0.0
 20
0.0
 30
0.0
 70
     8
  0
VERTEX
  5
259
330
258
100
AcDbEntity
  8
ﾚｲﾔ_1
 62
     5
100
AcDbVertex
100
AcDb3dPolylineVertex
 10
1277.81
 20
-597.5460000000001
 30
0.0
 70
    32
  0
VERTEX
  5
25A
330
258
100
AcDbEntity
  8
ﾚｲﾔ_1
 62
     5
100
AcDbVertex
100
AcDb3dPolylineVertex
 10
1277.82
 20
-597.5489999999997
 30
0.0
 70
    32
  0
VERTEX
  5
25B
330
258
100
AcDbEntity
  8
ﾚｲﾔ_1
 62
     5
100
AcDbVertex
100
AcDb3dPolylineVertex
 10
1277.83
 20
-597.552
 30
0.0
 70
    32
  0
VERTEX
  5
25C
330
258
100
AcDbEntity
  8
ﾚｲﾔ_1
 62
     5
100
AcDbVertex
100
AcDb3dPolylineVertex
 10
1277.84
 20
-597.556
 30
0.0
 70
    32
  0
VERTEX
  5
25D
330
258
100
AcDbEntity
  8
ﾚｲﾔ_1
 62
     5
100
AcDbVertex
100
AcDb3dPolylineVertex
 10
1277.85
 20
-597.5589999999998
 30
0.0
 70
    32
  0
VERTEX
  5
25E
330
258
100
AcDbEntity
  8
ﾚｲﾔ_1
 62
     5
100
AcDbVertex
100
AcDb3dPolylineVertex
 10
1277.86
 20
-597.5629999999996
 30
0.0
 70
    32
  0
VERTEX
  5
25F
330
258
100
AcDbEntity
  8
ﾚｲﾔ_1
 62
     5
100
AcDbVertex
100
AcDb3dPolylineVertex
 10
1277.87
 20
-597.566
 30
0.0
 70
    32
  0
VERTEX
  5
260
330
258
100
AcDbEntity
  8
ﾚｲﾔ_1
 62
     5
100
AcDbVertex
100
AcDb3dPolylineVertex
 10
1277.89
 20
-597.569
 30
0.0
 70
    32
  0
VERTEX
  5
261
330
258
100
AcDbEntity
  8
ﾚｲﾔ_1
 62
     5
100
AcDbVertex
100
AcDb3dPolylineVertex
 10
1277.9
 20
-597.5729999999997
 30
0.0
 70
    32
  0
VERTEX
  5
262
330
258
100
AcDbEntity
  8
ﾚｲﾔ_1
 62
     5
100
AcDbVertex
100
AcDb3dPolylineVertex
 10
1277.91
 20
-597.576
 30
0.0
 70
    32
  0
VERTEX
  5
263
330
258
100
AcDbEntity
  8
ﾚｲﾔ_1
 62
     5
100
AcDbVertex
100
AcDb3dPolylineVertex
 10
1277.92
 20
-597.5789999999999
 30
0.0
 70
    32
  0
VERTEX
  5
264
330
258
100
AcDbEntity
  8
ﾚｲﾔ_1
 62
     5
100
AcDbVertex
100
AcDb3dPolylineVertex
 10
1277.93
 20
-597.5819999999997
 30
0.0
 70
    32
  0
VERTEX
  5
265
330
258
100
AcDbEntity
  8
ﾚｲﾔ_1
 62
     5
100
AcDbVertex
100
AcDb3dPolylineVertex
 10
1277.94
 20
-597.5859999999999
 30
0.0
 70
    32
  0
VERTEX
  5
266
330
258
100
AcDbEntity
  8
ﾚｲﾔ_1
 62
     5
100
AcDbVertex
100
AcDb3dPolylineVertex
 10
1277.95
 20
-597.5890000000001
 30
0.0
 70
    32
  0
VERTEX
  5
267
330
258
100
AcDbEntity
  8
ﾚｲﾔ_1
 62
     5
100
AcDbVertex
100
AcDb3dPolylineVertex
 10
1277.96
 20
-597.592
 30
0.0
 70
    32
  0
VERTEX
  5
268
330
258
100
AcDbEntity
  8
ﾚｲﾔ_1
 62
     5
100
AcDbVertex
100
AcDb3dPolylineVertex
 10
1277.97
 20
-597.595
 30
0.0
 70
    32
  0
VERTEX
  5
269
330
258
100
AcDbEntity
  8
ﾚｲﾔ_1
 62
     5
100
AcDbVertex
100
AcDb3dPolylineVertex
 10
1277.98
 20
-597.5979999999999
 30
0.0
 70
    32
  0
VERTEX
  5
26A
330
258
100
AcDbEntity
  8
ﾚｲﾔ_1
 62
     5
100
AcDbVertex
100
AcDb3dPolylineVertex
 10
1277.99
 20
-597.602
 30
0.0
 70
    32
  0
VERTEX
  5
26B
330
258
100
AcDbEntity
  8
ﾚｲﾔ_1
 62
     5
100
AcDbVertex
100
AcDb3dPolylineVertex
 10
1278.0
 20
-597.605
 30
0.0
 70
    32
  0
VERTEX
  5
26C
330
258
100
AcDbEntity
  8
ﾚｲﾔ_1
 62
     5
100
AcDbVertex
100
AcDb3dPolylineVertex
 10
1278.02
 20
-597.6079999999999
 30
0.0
 70
    32
  0
VERTEX
  5
26D
330
258
100
AcDbEntity
  8
ﾚｲﾔ_1
 62
     5
100
AcDbVertex
100
AcDb3dPolylineVertex
 10
1278.03
 20
-597.611
 30
0.0
 70
    32
  0
VERTEX
  5
26E
330
258
100
AcDbEntity
  8
ﾚｲﾔ_1
 62
     5
100
AcDbVertex
100
AcDb3dPolylineVertex
 10
1278.04
 20
-597.614
 30
0.0
 70
    32
  0
VERTEX
  5
26F
330
258
100
AcDbEntity
  8
ﾚｲﾔ_1
 62
     5
100
AcDbVertex
100
AcDb3dPolylineVertex
 10
1278.05
 20
-597.6169999999998
 30
0.0
 70
    32
  0
VERTEX
  5
270
330
258
100
AcDbEntity
  8
ﾚｲﾔ_1
 62
     5
100
AcDbVertex
100
AcDb3dPolylineVertex
 10
1278.06
 20
-597.62
 30
0.0
 70
    32
  0
VERTEX
  5
271
330
258
100
AcDbEntity
  8
ﾚｲﾔ_1
 62
     5
100
AcDbVertex
100
AcDb3dPolylineVertex
 10
1278.07
 20
-597.624
 30
0.0
 70
    32
  0
VERTEX
  5
272
330
258
100
AcDbEntity
  8
ﾚｲﾔ_1
 62
     5
100
AcDbVertex
100
AcDb3dPolylineVertex
 10
1278.08
 20
-597.6269999999999
 30
0.0
 70
    32
  0
VERTEX
  5
273
330
258
100
AcDbEntity
  8
ﾚｲﾔ_1
 62
     5
100
AcDbVertex
100
AcDb3dPolylineVertex
 10
1278.09
 20
-597.63
 30
0.0
 70
    32
  0
VERTEX
  5
274
330
258
100
AcDbEntity
  8
ﾚｲﾔ_1
 62
     5
100
AcDbVertex
100
AcDb3dPolylineVertex
 10
1278.1
 20
-597.633
 30
0.0
 70
    32
  0
VERTEX
  5
275
330
258
100
AcDbEntity
  8
ﾚｲﾔ_1
 62
     5
100
AcDbVertex
100
AcDb3dPolylineVertex
 10
1278.11
 20
-597.6359999999998
 30
0.0
 70
    32
  0
VERTEX
  5
276
330
258
100
AcDbEntity
  8
ﾚｲﾔ_1
 62
     5
100
AcDbVertex
100
AcDb3dPolylineVertex
 10
1278.13
 20
-597.639
 30
0.0
 70
    32
  0
VERTEX
  5
277
330
258
100
AcDbEntity
  8
ﾚｲﾔ_1
 62
     5
100
AcDbVertex
100
AcDb3dPolylineVertex
 10
1278.14
 20
-597.6420000000001
 30
0.0
 70
    32
  0
VERTEX
  5
278
330
258
100
AcDbEntity
  8
ﾚｲﾔ_1
 62
     5
100
AcDbVertex
100
AcDb3dPolylineVertex
 10
1278.15
 20
-597.6449999999998
 30
0.0
 70
    32
  0
VERTEX
  5
279
330
258
100
AcDbEntity
  8
ﾚｲﾔ_1
 62
     5
100
AcDbVertex
100
AcDb3dPolylineVertex
 10
1278.16
 20
-597.648
 30
0.0
 70
    32
  0
VERTEX
  5
27A
330
258
100
AcDbEntity
  8
ﾚｲﾔ_1
 62
     5
100
AcDbVertex
100
AcDb3dPolylineVertex
 10
1278.17
 20
-597.6509999999999
 30
0.0
 70
    32
  0
VERTEX
  5
27B
330
258
100
AcDbEntity
  8
ﾚｲﾔ_1
 62
     5
100
AcDbVertex
100
AcDb3dPolylineVertex
 10
1278.18
 20
-597.6539999999999
 30
0.0
 70
    32
  0
VERTEX
  5
27C
330
258
100
AcDbEntity
  8
ﾚｲﾔ_1
 62
     5
100
AcDbVertex
100
AcDb3dPolylineVertex
 10
1278.19
 20
-597.6569999999997
 30
0.0
 70
    32
  0
VERTEX
  5
27D
330
258
100
AcDbEntity
  8
ﾚｲﾔ_1
 62
     5
100
AcDbVertex
100
AcDb3dPolylineVertex
 10
1278.2
 20
-597.6589999999998
 30
0.0
 70
    32
  0
VERTEX
  5
27E
330
258
100
AcDbEntity
  8
ﾚｲﾔ_1
 62
     5
100
AcDbVertex
100
AcDb3dPolylineVertex
 10
1278.21
 20
-597.6619999999996
 30
0.0
 70
    32
  0
VERTEX
  5
27F
330
258
100
AcDbEntity
  8
ﾚｲﾔ_1
 62
     5
100
AcDbVertex
100
AcDb3dPolylineVertex
 10
1278.22
 20
-597.6649999999998
 30
0.0
 70
    32
  0
VERTEX
  5
280
330
258
100
AcDbEntity
  8
ﾚｲﾔ_1
 62
     5
100
AcDbVertex
100
AcDb3dPolylineVertex
 10
1278.24
 20
-597.6679999999999
 30
0.0
 70
    32
  0
VERTEX
  5
281
330
258
100
AcDbEntity
  8
ﾚｲﾔ_1
 62
     5
100
AcDbVertex
100
AcDb3dPolylineVertex
 10
1278.25
 20
-597.6710000000001
 30
0.0
 70
    32
  0
VERTEX
  5
282
330
258
100
AcDbEntity
  8
ﾚｲﾔ_1
 62
     5
100
AcDbVertex
100
AcDb3dPolylineVertex
 10
1278.26
 20
-597.6739999999997
 30
0.0
 70
    32
  0
VERTEX
  5
283
330
258
100
AcDbEntity
  8
ﾚｲﾔ_1
 62
     5
100
AcDbVertex
100
AcDb3dPolylineVertex
 10
1278.27
 20
-597.677
 30
0.0
 70
    32
  0
VERTEX
  5
284
330
258
100
AcDbEntity
  8
ﾚｲﾔ_1
 62
     5
100
AcDbVertex
100
AcDb3dPolylineVertex
 10
1278.28
 20
-597.6799999999999
 30
0.0
 70
    32
  0
VERTEX
  5
285
330
258
100
AcDbEntity
  8
ﾚｲﾔ_1
 62
     5
100
AcDbVertex
100
AcDb3dPolylineVertex
 10
1278.29
 20
-597.682
 30
0.0
 70
    32
  0
VERTEX
  5
286
330
258
100
AcDbEntity
  8
ﾚｲﾔ_1
 62
     5
100
AcDbVertex
100
AcDb3dPolylineVertex
 10
1278.3
 20
-597.6849999999999
 30
0.0
 70
    32
  0
VERTEX
  5
287
330
258
100
AcDbEntity
  8
ﾚｲﾔ_1
 62
     5
100
AcDbVertex
100
AcDb3dPolylineVertex
 10
1278.31
 20
-597.688
 30
0.0
 70
    32
  0
VERTEX
  5
288
330
258
100
AcDbEntity
  8
ﾚｲﾔ_1
 62
     5
100
AcDbVertex
100
AcDb3dPolylineVertex
 10
1278.32
 20
-597.691
 30
0.0
 70
    32
  0
VERTEX
  5
289
330
258
100
AcDbEntity
  8
ﾚｲﾔ_1
 62
     5
100
AcDbVertex
100
AcDb3dPolylineVertex
 10
1278.34
 20
-597.6939999999999
 30
0.0
 70
    32
  0
VERTEX
  5
28A
330
258
100
AcDbEntity
  8
ﾚｲﾔ_1
 62
     5
100
AcDbVertex
100
AcDb3dPolylineVertex
 10
1278.35
 20
-597.696
 30
0.0
 70
    32
  0
VERTEX
  5
28B
330
258
100
AcDbEntity
  8
ﾚｲﾔ_1
 62
     5
100
AcDbVertex
100
AcDb3dPolylineVertex
 10
1278.36
 20
-597.6989999999999
 30
0.0
 70
    32
  0
VERTEX
  5
28C
330
258
100
AcDbEntity
  8
ﾚｲﾔ_1
 62
     5
100
AcDbVertex
100
AcDb3dPolylineVertex
 10
1278.37
 20
-597.702
 30
0.0
 70
    32
  0
VERTEX
  5
28D
330
258
100
AcDbEntity
  8
ﾚｲﾔ_1
 62
     5
100
AcDbVertex
100
AcDb3dPolylineVertex
 10
1278.38
 20
-597.705
 30
0.0
 70
    32
  0
VERTEX
  5
28E
330
258
100
AcDbEntity
  8
ﾚｲﾔ_1
 62
     5
100
AcDbVertex
100
AcDb3dPolylineVertex
 10
1278.39
 20
-597.707
 30
0.0
 70
    32
  0
VERTEX
  5
28F
330
258
100
AcDbEntity
  8
ﾚｲﾔ_1
 62
     5
100
AcDbVertex
100
AcDb3dPolylineVertex
 10
1278.4
 20
-597.71
 30
0.0
 70
    32
  0
VERTEX
  5
290
330
258
100
AcDbEntity
  8
ﾚｲﾔ_1
 62
     5
100
AcDbVertex
100
AcDb3dPolylineVertex
 10
1278.41
 20
-597.7129999999998
 30
0.0
 70
    32
  0
VERTEX
  5
291
330
258
100
AcDbEntity
  8
ﾚｲﾔ_1
 62
     5
100
AcDbVertex
100
AcDb3dPolylineVertex
 10
1278.42
 20
-597.715
 30
0.0
 70
    32
  0
VERTEX
  5
292
330
258
100
AcDbEntity
  8
ﾚｲﾔ_1
 62
     5
100
AcDbVertex
100
AcDb3dPolylineVertex
 10
1278.44
 20
-597.7179999999998
 30
0.0
 70
    32
  0
VERTEX
  5
293
330
258
100
AcDbEntity
  8
ﾚｲﾔ_1
 62
     5
100
AcDbVertex
100
AcDb3dPolylineVertex
 10
1278.45
 20
-597.721
 30
0.0
 70
    32
  0
VERTEX
  5
294
330
258
100
AcDbEntity
  8
ﾚｲﾔ_1
 62
     5
100
AcDbVertex
100
AcDb3dPolylineVertex
 10
1278.46
 20
-597.7240000000001
 30
0.0
 70
    32
  0
VERTEX
  5
295
330
258
100
AcDbEntity
  8
ﾚｲﾔ_1
 62
     5
100
AcDbVertex
100
AcDb3dPolylineVertex
 10
1278.47
 20
-597.726
 30
0.0
 70
    32
  0
VERTEX
  5
296
330
258
100
AcDbEntity
  8
ﾚｲﾔ_1
 62
     5
100
AcDbVertex
100
AcDb3dPolylineVertex
 10
1278.48
 20
-597.729
 30
0.0
 70
    32
  0
VERTEX
  5
297
330
258
100
AcDbEntity
  8
ﾚｲﾔ_1
 62
     5
100
AcDbVertex
100
AcDb3dPolylineVertex
 10
1278.49
 20
-597.731
 30
0.0
 70
    32
  0
VERTEX
  5
298
330
258
100
AcDbEntity
  8
ﾚｲﾔ_1
 62
     5
100
AcDbVertex
100
AcDb3dPolylineVertex
 10
1278.5
 20
-597.734
 30
0.0
 70
    32
  0
VERTEX
  5
299
330
258
100
AcDbEntity
  8
ﾚｲﾔ_1
 62
     5
100
AcDbVertex
100
AcDb3dPolylineVertex
 10
1278.51
 20
-597.7369999999998
 30
0.0
 70
    32
  0
VERTEX
  5
29A
330
258
100
AcDbEntity
  8
ﾚｲﾔ_1
 62
     5
100
AcDbVertex
100
AcDb3dPolylineVertex
 10
1278.53
 20
-597.739
 30
0.0
 70
    32
  0
VERTEX
  5
29B
330
258
100
AcDbEntity
  8
ﾚｲﾔ_1
 62
     5
100
AcDbVertex
100
AcDb3dPolylineVertex
 10
1278.54
 20
-597.7419999999998
 30
0.0
 70
    32
  0
VERTEX
  5
29C
330
258
100
AcDbEntity
  8
ﾚｲﾔ_1
 62
     5
100
AcDbVertex
100
AcDb3dPolylineVertex
 10
1278.55
 20
-597.745
 30
0.0
 70
    32
  0
VERTEX
  5
29D
330
258
100
AcDbEntity
  8
ﾚｲﾔ_1
 62
     5
100
AcDbVertex
100
AcDb3dPolylineVertex
 10
1278.56
 20
-597.7469999999998
 30
0.0
 70
    32
  0
VERTEX
  5
29E
330
258
100
AcDbEntity
  8
ﾚｲﾔ_1
 62
     5
100
AcDbVertex
100
AcDb3dPolylineVertex
 10
1278.57
 20
-597.75
 30
0.0
 70
    32
  0
VERTEX
  5
29F
330
258
100
AcDbEntity
  8
ﾚｲﾔ_1
 62
     5
100
AcDbVertex
100
AcDb3dPolylineVertex
 10
1278.58
 20
-597.7519999999999
 30
0.0
 70
    32
  0
VERTEX
  5
2A0
330
258
100
AcDbEntity
  8
ﾚｲﾔ_1
 62
     5
100
AcDbVertex
100
AcDb3dPolylineVertex
 10
1278.59
 20
-597.7549999999999
 30
0.0
 70
    32
  0
VERTEX
  5
2A1
330
258
100
AcDbEntity
  8
ﾚｲﾔ_1
 62
     5
100
AcDbVertex
100
AcDb3dPolylineVertex
 10
1278.6
 20
-597.757
 30
0.0
 70
    32
  0
VERTEX
  5
2A2
330
258
100
AcDbEntity
  8
ﾚｲﾔ_1
 62
     5
100
AcDbVertex
100
AcDb3dPolylineVertex
 10
1278.62
 20
-597.7599999999998
 30
0.0
 70
    32
  0
VERTEX
  5
2A3
330
258
100
AcDbEntity
  8
ﾚｲﾔ_1
 62
     5
100
AcDbVertex
100
AcDb3dPolylineVertex
 10
1278.63
 20
-597.763
 30
0.0
 70
    32
  0
VERTEX
  5
2A4
330
258
100
AcDbEntity
  8
ﾚｲﾔ_1
 62
     5
100
AcDbVertex
100
AcDb3dPolylineVertex
 10
1278.64
 20
-597.7649999999997
 30
0.0
 70
    32
  0
VERTEX
  5
2A5
330
258
100
AcDbEntity
  8
ﾚｲﾔ_1
 62
     5
100
AcDbVertex
100
AcDb3dPolylineVertex
 10
1278.65
 20
-597.768
 30
0.0
 70
    32
  0
VERTEX
  5
2A6
330
258
100
AcDbEntity
  8
ﾚｲﾔ_1
 62
     5
100
AcDbVertex
100
AcDb3dPolylineVertex
 10
1278.66
 20
-597.7699999999997
 30
0.0
 70
    32
  0
VERTEX
  5
2A7
330
258
100
AcDbEntity
  8
ﾚｲﾔ_1
 62
     5
100
AcDbVertex
100
AcDb3dPolylineVertex
 10
1278.67
 20
-597.773
 30
0.0
 70
    32
  0
VERTEX
  5
2A8
330
258
100
AcDbEntity
  8
ﾚｲﾔ_1
 62
     5
100
AcDbVertex
100
AcDb3dPolylineVertex
 10
1278.68
 20
-597.775
 30
0.0
 70
    32
  0
VERTEX
  5
2A9
330
258
100
AcDbEntity
  8
ﾚｲﾔ_1
 62
     5
100
AcDbVertex
100
AcDb3dPolylineVertex
 10
1278.69
 20
-597.778
 30
0.0
 70
    32
  0
VERTEX
  5
2AA
330
258
100
AcDbEntity
  8
ﾚｲﾔ_1
 62
     5
100
AcDbVertex
100
AcDb3dPolylineVertex
 10
1278.71
 20
-597.78
 30
0.0
 70
    32
  0
VERTEX
  5
2AB
330
258
100
AcDbEntity
  8
ﾚｲﾔ_1
 62
     5
100
AcDbVertex
100
AcDb3dPolylineVertex
 10
1278.72
 20
-597.7829999999999
 30
0.0
 70
    32
  0
VERTEX
  5
2AC
330
258
100
AcDbEntity
  8
ﾚｲﾔ_1
 62
     5
100
AcDbVertex
100
AcDb3dPolylineVertex
 10
1278.73
 20
-597.785
 30
0.0
 70
    32
  0
VERTEX
  5
2AD
330
258
100
AcDbEntity
  8
ﾚｲﾔ_1
 62
     5
100
AcDbVertex
100
AcDb3dPolylineVertex
 10
1278.74
 20
-597.7879999999998
 30
0.0
 70
    32
  0
VERTEX
  5
2AE
330
258
100
AcDbEntity
  8
ﾚｲﾔ_1
 62
     5
100
AcDbVertex
100
AcDb3dPolylineVertex
 10
1278.75
 20
-597.7899999999998
 30
0.0
 70
    32
  0
VERTEX
  5
2AF
330
258
100
AcDbEntity
  8
ﾚｲﾔ_1
 62
     5
100
AcDbVertex
100
AcDb3dPolylineVertex
 10
1278.76
 20
-597.793
 30
0.0
 70
    32
  0
VERTEX
  5
2B0
330
258
100
AcDbEntity
  8
ﾚｲﾔ_1
 62
     5
100
AcDbVertex
100
AcDb3dPolylineVertex
 10
1278.77
 20
-597.7949999999998
 30
0.0
 70
    32
  0
VERTEX
  5
2B1
330
258
100
AcDbEntity
  8
ﾚｲﾔ_1
 62
     5
100
AcDbVertex
100
AcDb3dPolylineVertex
 10
1278.78
 20
-597.798
 30
0.0
 70
    32
  0
VERTEX
  5
2B2
330
258
100
AcDbEntity
  8
ﾚｲﾔ_1
 62
     5
100
AcDbVertex
100
AcDb3dPolylineVertex
 10
1278.8
 20
-597.7999999999999
 30
0.0
 70
    32
  0
VERTEX
  5
2B3
330
258
100
AcDbEntity
  8
ﾚｲﾔ_1
 62
     5
100
AcDbVertex
100
AcDb3dPolylineVertex
 10
1278.81
 20
-597.803
 30
0.0
 70
    32
  0
VERTEX
  5
2B4
330
258
100
AcDbEntity
  8
ﾚｲﾔ_1
 62
     5
100
AcDbVertex
100
AcDb3dPolylineVertex
 10
1278.82
 20
-597.8049999999999
 30
0.0
 70
    32
  0
VERTEX
  5
2B5
330
258
100
AcDbEntity
  8
ﾚｲﾔ_1
 62
     5
100
AcDbVertex
100
AcDb3dPolylineVertex
 10
1278.83
 20
-597.807
 30
0.0
 70
    32
  0
VERTEX
  5
2B6
330
258
100
AcDbEntity
  8
ﾚｲﾔ_1
 62
     5
100
AcDbVertex
100
AcDb3dPolylineVertex
 10
1278.84
 20
-597.8099999999999
 30
0.0
 70
    32
  0
VERTEX
  5
2B7
330
258
100
AcDbEntity
  8
ﾚｲﾔ_1
 62
     5
100
AcDbVertex
100
AcDb3dPolylineVertex
 10
1278.85
 20
-597.812
 30
0.0
 70
    32
  0
VERTEX
  5
2B8
330
258
100
AcDbEntity
  8
ﾚｲﾔ_1
 62
     5
100
AcDbVertex
100
AcDb3dPolylineVertex
 10
1278.86
 20
-597.8150000000002
 30
0.0
 70
    32
  0
VERTEX
  5
2B9
330
258
100
AcDbEntity
  8
ﾚｲﾔ_1
 62
     5
100
AcDbVertex
100
AcDb3dPolylineVertex
 10
1278.87
 20
-597.817
 30
0.0
 70
    32
  0
VERTEX
  5
2BA
330
258
100
AcDbEntity
  8
ﾚｲﾔ_1
 62
     5
100
AcDbVertex
100
AcDb3dPolylineVertex
 10
1278.89
 20
-597.8200000000001
 30
0.0
 70
    32
  0
VERTEX
  5
2BB
330
258
100
AcDbEntity
  8
ﾚｲﾔ_1
 62
     5
100
AcDbVertex
100
AcDb3dPolylineVertex
 10
1278.9
 20
-597.822
 30
0.0
 70
    32
  0
VERTEX
  5
2BC
330
258
100
AcDbEntity
  8
ﾚｲﾔ_1
 62
     5
100
AcDbVertex
100
AcDb3dPolylineVertex
 10
1278.91
 20
-597.8239999999999
 30
0.0
 70
    32
  0
VERTEX
  5
2BD
330
258
100
AcDbEntity
  8
ﾚｲﾔ_1
 62
     5
100
AcDbVertex
100
AcDb3dPolylineVertex
 10
1278.92
 20
-597.827
 30
0.0
 70
    32
  0
VERTEX
  5
2BE
330
258
100
AcDbEntity
  8
ﾚｲﾔ_1
 62
     5
100
AcDbVertex
100
AcDb3dPolylineVertex
 10
1278.93
 20
-597.8290000000002
 30
0.0
 70
    32
  0
VERTEX
  5
2BF
330
258
100
AcDbEntity
  8
ﾚｲﾔ_1
 62
     5
100
AcDbVertex
100
AcDb3dPolylineVertex
 10
1278.94
 20
-597.832
 30
0.0
 70
    32
  0
VERTEX
  5
2C0
330
258
100
AcDbEntity
  8
ﾚｲﾔ_1
 62
     5
100
AcDbVertex
100
AcDb3dPolylineVertex
 10
1278.95
 20
-597.8340000000001
 30
0.0
 70
    32
  0
VERTEX
  5
2C1
330
258
100
AcDbEntity
  8
ﾚｲﾔ_1
 62
     5
100
AcDbVertex
100
AcDb3dPolylineVertex
 10
1278.97
 20
-597.836
 30
0.0
 70
    32
  0
VERTEX
  5
2C2
330
258
100
AcDbEntity
  8
ﾚｲﾔ_1
 62
     5
100
AcDbVertex
100
AcDb3dPolylineVertex
 10
1278.98
 20
-597.8390000000001
 30
0.0
 70
    32
  0
VERTEX
  5
2C3
330
258
100
AcDbEntity
  8
ﾚｲﾔ_1
 62
     5
100
AcDbVertex
100
AcDb3dPolylineVertex
 10
1278.99
 20
-597.841
 30
0.0
 70
    32
  0
VERTEX
  5
2C4
330
258
100
AcDbEntity
  8
ﾚｲﾔ_1
 62
     5
100
AcDbVertex
100
AcDb3dPolylineVertex
 10
1279.0
 20
-597.8440000000001
 30
0.0
 70
    32
  0
VERTEX
  5
2C5
330
258
100
AcDbEntity
  8
ﾚｲﾔ_1
 62
     5
100
AcDbVertex
100
AcDb3dPolylineVertex
 10
1279.01
 20
-597.846
 30
0.0
 70
    32
  0
VERTEX
  5
2C6
330
258
100
AcDbEntity
  8
ﾚｲﾔ_1
 62
     5
100
AcDbVertex
100
AcDb3dPolylineVertex
 10
1279.02
 20
-597.8480000000002
 30
0.0
 70
    32
  0
VERTEX
  5
2C7
330
258
100
AcDbEntity
  8
ﾚｲﾔ_1
 62
     5
100
AcDbVertex
100
AcDb3dPolylineVertex
 10
1279.03
 20
-597.8509999999999
 30
0.0
 70
    32
  0
VERTEX
  5
2C8
330
258
100
AcDbEntity
  8
ﾚｲﾔ_1
 62
     5
100
AcDbVertex
100
AcDb3dPolylineVertex
 10
1279.04
 20
-597.8530000000001
 30
0.0
 70
    32
  0
VERTEX
  5
2C9
330
258
100
AcDbEntity
  8
ﾚｲﾔ_1
 62
     5
100
AcDbVertex
100
AcDb3dPolylineVertex
 10
1279.06
 20
-597.8559999999998
 30
0.0
 70
    32
  0
VERTEX
  5
2CA
330
258
100
AcDbEntity
  8
ﾚｲﾔ_1
 62
     5
100
AcDbVertex
100
AcDb3dPolylineVertex
 10
1279.07
 20
-597.858
 30
0.0
 70
    32
  0
VERTEX
  5
2CB
330
258
100
AcDbEntity
  8
ﾚｲﾔ_1
 62
     5
100
AcDbVertex
100
AcDb3dPolylineVertex
 10
1279.08
 20
-597.86
 30
0.0
 70
    32
  0
VERTEX
  5
2CC
330
258
100
AcDbEntity
  8
ﾚｲﾔ_1
 62
     5
100
AcDbVertex
100
AcDb3dPolylineVertex
 10
1279.09
 20
-597.8630000000001
 30
0.0
 70
    32
  0
VERTEX
  5
2CD
330
258
100
AcDbEntity
  8
ﾚｲﾔ_1
 62
     5
100
AcDbVertex
100
AcDb3dPolylineVertex
 10
1279.1
 20
-597.865
 30
0.0
 70
    32
  0
VERTEX
  5
2CE
330
258
100
AcDbEntity
  8
ﾚｲﾔ_1
 62
     5
100
AcDbVertex
100
AcDb3dPolylineVertex
 10
1279.11
 20
-597.867
 30
0.0
 70
    32
  0
VERTEX
  5
2CF
330
258
100
AcDbEntity
  8
ﾚｲﾔ_1
 62
     5
100
AcDbVertex
100
AcDb3dPolylineVertex
 10
1279.12
 20
-597.8699999999999
 30
0.0
 70
    32
  0
VERTEX
  5
2D0
330
258
100
AcDbEntity
  8
ﾚｲﾔ_1
 62
     5
100
AcDbVertex
100
AcDb3dPolylineVertex
 10
1279.14
 20
-597.872
 30
0.0
 70
    32
  0
VERTEX
  5
2D1
330
258
100
AcDbEntity
  8
ﾚｲﾔ_1
 62
     5
100
AcDbVertex
100
AcDb3dPolylineVertex
 10
1279.15
 20
-597.874
 30
0.0
 70
    32
  0
VERTEX
  5
2D2
330
258
100
AcDbEntity
  8
ﾚｲﾔ_1
 62
     5
100
AcDbVertex
100
AcDb3dPolylineVertex
 10
1279.16
 20
-597.8769999999999
 30
0.0
 70
    32
  0
VERTEX
  5
2D3
330
258
100
AcDbEntity
  8
ﾚｲﾔ_1
 62
     5
100
AcDbVertex
100
AcDb3dPolylineVertex
 10
1279.17
 20
-597.879
 30
0.0
 70
    32
  0
VERTEX
  5
2D4
330
258
100
AcDbEntity
  8
ﾚｲﾔ_1
 62
     5
100
AcDbVertex
100
AcDb3dPolylineVertex
 10
1279.18
 20
-597.8819999999999
 30
0.0
 70
    32
  0
VERTEX
  5
2D5
330
258
100
AcDbEntity
  8
ﾚｲﾔ_1
 62
     5
100
AcDbVertex
100
AcDb3dPolylineVertex
 10
1279.19
 20
-597.8839999999999
 30
0.0
 70
    32
  0
VERTEX
  5
2D6
330
258
100
AcDbEntity
  8
ﾚｲﾔ_1
 62
     5
100
AcDbVertex
100
AcDb3dPolylineVertex
 10
1279.2
 20
-597.886
 30
0.0
 70
    32
  0
VERTEX
  5
2D7
330
258
100
AcDbEntity
  8
ﾚｲﾔ_1
 62
     5
100
AcDbVertex
100
AcDb3dPolylineVertex
 10
1279.21
 20
-597.8889999999998
 30
0.0
 70
    32
  0
VERTEX
  5
2D8
330
258
100
AcDbEntity
  8
ﾚｲﾔ_1
 62
     5
100
AcDbVertex
100
AcDb3dPolylineVertex
 10
1279.23
 20
-597.8909999999999
 30
0.0
 70
    32
  0
SEQEND
  5
2D9
330
258
100
AcDbEntity
  8
ﾚｲﾔ_1
 62
     5
  0
POLYLINE
  5
2DA
330
616
100
AcDbEntity
  8
ﾚｲﾔ_1
 62
     5
100
AcDb3dPolyline
 66
     1
 10
0.0
 20
0.0
 30
0.0
 70
     8
  0
VERTEX
  5
2DB
330
2DA
100
AcDbEntity
  8
ﾚｲﾔ_1
 62
     5
100
AcDbVertex
100
AcDb3dPolylineVertex
 10
1275.63
 20
-596.149
 30
0.0
 70
    32
  0
VERTEX
  5
2DC
330
2DA
100
AcDbEntity
  8
ﾚｲﾔ_1
 62
     5
100
AcDbVertex
100
AcDb3dPolylineVertex
 10
1275.63
 20
-596.1549999999999
 30
0.0
 70
    32
  0
VERTEX
  5
2DD
330
2DA
100
AcDbEntity
  8
ﾚｲﾔ_1
 62
     5
100
AcDbVertex
100
AcDb3dPolylineVertex
 10
1275.64
 20
-596.1619999999998
 30
0.0
 70
    32
  0
VERTEX
  5
2DE
330
2DA
100
AcDbEntity
  8
ﾚｲﾔ_1
 62
     5
100
AcDbVertex
100
AcDb3dPolylineVertex
 10
1275.65
 20
-596.1689999999999
 30
0.0
 70
    32
  0
VERTEX
  5
2DF
330
2DA
100
AcDbEntity
  8
ﾚｲﾔ_1
 62
     5
100
AcDbVertex
100
AcDb3dPolylineVertex
 10
1275.65
 20
-596.1749999999999
 30
0.0
 70
    32
  0
VERTEX
  5
2E0
330
2DA
100
AcDbEntity
  8
ﾚｲﾔ_1
 62
     5
100
AcDbVertex
100
AcDb3dPolylineVertex
 10
1275.66
 20
-596.182
 30
0.0
 70
    32
  0
VERTEX
  5
2E1
330
2DA
100
AcDbEntity
  8
ﾚｲﾔ_1
 62
     5
100
AcDbVertex
100
AcDb3dPolylineVertex
 10
1275.67
 20
-596.1889999999998
 30
0.0
 70
    32
  0
VERTEX
  5
2E2
330
2DA
100
AcDbEntity
  8
ﾚｲﾔ_1
 62
     5
100
AcDbVertex
100
AcDb3dPolylineVertex
 10
1275.68
 20
-596.1950000000001
 30
0.0
 70
    32
  0
VERTEX
  5
2E3
330
2DA
100
AcDbEntity
  8
ﾚｲﾔ_1
 62
     5
100
AcDbVertex
100
AcDb3dPolylineVertex
 10
1275.68
 20
-596.2019999999998
 30
0.0
 70
    32
  0
VERTEX
  5
2E4
330
2DA
100
AcDbEntity
  8
ﾚｲﾔ_1
 62
     5
100
AcDbVertex
100
AcDb3dPolylineVertex
 10
1275.69
 20
-596.2080000000002
 30
0.0
 70
    32
  0
VERTEX
  5
2E5
330
2DA
100
AcDbEntity
  8
ﾚｲﾔ_1
 62
     5
100
AcDbVertex
100
AcDb3dPolylineVertex
 10
1275.7
 20
-596.215
 30
0.0
 70
    32
  0
VERTEX
  5
2E6
330
2DA
100
AcDbEntity
  8
ﾚｲﾔ_1
 62
     5
100
AcDbVertex
100
AcDb3dPolylineVertex
 10
1275.71
 20
-596.222
 30
0.0
 70
    32
  0
VERTEX
  5
2E7
330
2DA
100
AcDbEntity
  8
ﾚｲﾔ_1
 62
     5
100
AcDbVertex
100
AcDb3dPolylineVertex
 10
1275.71
 20
-596.2279999999999
 30
0.0
 70
    32
  0
VERTEX
  5
2E8
330
2DA
100
AcDbEntity
  8
ﾚｲﾔ_1
 62
     5
100
AcDbVertex
100
AcDb3dPolylineVertex
 10
1275.72
 20
-596.2349999999998
 30
0.0
 70
    32
  0
VERTEX
  5
2E9
330
2DA
100
AcDbEntity
  8
ﾚｲﾔ_1
 62
     5
100
AcDbVertex
100
AcDb3dPolylineVertex
 10
1275.73
 20
-596.2419999999998
 30
0.0
 70
    32
  0
VERTEX
  5
2EA
330
2DA
100
AcDbEntity
  8
ﾚｲﾔ_1
 62
     5
100
AcDbVertex
100
AcDb3dPolylineVertex
 10
1275.73
 20
-596.2480000000002
 30
0.0
 70
    32
  0
VERTEX
  5
2EB
330
2DA
100
AcDbEntity
  8
ﾚｲﾔ_1
 62
     5
100
AcDbVertex
100
AcDb3dPolylineVertex
 10
1275.74
 20
-596.255
 30
0.0
 70
    32
  0
VERTEX
  5
2EC
330
2DA
100
AcDbEntity
  8
ﾚｲﾔ_1
 62
     5
100
AcDbVertex
100
AcDb3dPolylineVertex
 10
1275.75
 20
-596.2609999999998
 30
0.0
 70
    32
  0
VERTEX
  5
2ED
330
2DA
100
AcDbEntity
  8
ﾚｲﾔ_1
 62
     5
100
AcDbVertex
100
AcDb3dPolylineVertex
 10
1275.76
 20
-596.268
 30
0.0
 70
    32
  0
VERTEX
  5
2EE
330
2DA
100
AcDbEntity
  8
ﾚｲﾔ_1
 62
     5
100
AcDbVertex
100
AcDb3dPolylineVertex
 10
1275.76
 20
-596.2749999999997
 30
0.0
 70
    32
  0
VERTEX
  5
2EF
330
2DA
100
AcDbEntity
  8
ﾚｲﾔ_1
 62
     5
100
AcDbVertex
100
AcDb3dPolylineVertex
 10
1275.77
 20
-596.2809999999999
 30
0.0
 70
    32
  0
VERTEX
  5
2F0
330
2DA
100
AcDbEntity
  8
ﾚｲﾔ_1
 62
     5
100
AcDbVertex
100
AcDb3dPolylineVertex
 10
1275.78
 20
-596.288
 30
0.0
 70
    32
  0
VERTEX
  5
2F1
330
2DA
100
AcDbEntity
  8
ﾚｲﾔ_1
 62
     5
100
AcDbVertex
100
AcDb3dPolylineVertex
 10
1275.78
 20
-596.2949999999998
 30
0.0
 70
    32
  0
VERTEX
  5
2F2
330
2DA
100
AcDbEntity
  8
ﾚｲﾔ_1
 62
     5
100
AcDbVertex
100
AcDb3dPolylineVertex
 10
1275.79
 20
-596.3009999999997
 30
0.0
 70
    32
  0
VERTEX
  5
2F3
330
2DA
100
AcDbEntity
  8
ﾚｲﾔ_1
 62
     5
100
AcDbVertex
100
AcDb3dPolylineVertex
 10
1275.8
 20
-596.3079999999997
 30
0.0
 70
    32
  0
VERTEX
  5
2F4
330
2DA
100
AcDbEntity
  8
ﾚｲﾔ_1
 62
     5
100
AcDbVertex
100
AcDb3dPolylineVertex
 10
1275.81
 20
-596.314
 30
0.0
 70
    32
  0
VERTEX
  5
2F5
330
2DA
100
AcDbEntity
  8
ﾚｲﾔ_1
 62
     5
100
AcDbVertex
100
AcDb3dPolylineVertex
 10
1275.81
 20
-596.321
 30
0.0
 70
    32
  0
VERTEX
  5
2F6
330
2DA
100
AcDbEntity
  8
ﾚｲﾔ_1
 62
     5
100
AcDbVertex
100
AcDb3dPolylineVertex
 10
1275.82
 20
-596.328
 30
0.0
 70
    32
  0
VERTEX
  5
2F7
330
2DA
100
AcDbEntity
  8
ﾚｲﾔ_1
 62
     5
100
AcDbVertex
100
AcDb3dPolylineVertex
 10
1275.83
 20
-596.3339999999999
 30
0.0
 70
    32
  0
VERTEX
  5
2F8
330
2DA
100
AcDbEntity
  8
ﾚｲﾔ_1
 62
     5
100
AcDbVertex
100
AcDb3dPolylineVertex
 10
1275.84
 20
-596.341
 30
0.0
 70
    32
  0
VERTEX
  5
2F9
330
2DA
100
AcDbEntity
  8
ﾚｲﾔ_1
 62
     5
100
AcDbVertex
100
AcDb3dPolylineVertex
 10
1275.84
 20
-596.347
 30
0.0
 70
    32
  0
VERTEX
  5
2FA
330
2DA
100
AcDbEntity
  8
ﾚｲﾔ_1
 62
     5
100
AcDbVertex
100
AcDb3dPolylineVertex
 10
1275.85
 20
-596.354
 30
0.0
 70
    32
  0
VERTEX
  5
2FB
330
2DA
100
AcDbEntity
  8
ﾚｲﾔ_1
 62
     5
100
AcDbVertex
100
AcDb3dPolylineVertex
 10
1275.86
 20
-596.36
 30
0.0
 70
    32
  0
VERTEX
  5
2FC
330
2DA
100
AcDbEntity
  8
ﾚｲﾔ_1
 62
     5
100
AcDbVertex
100
AcDb3dPolylineVertex
 10
1275.86
 20
-596.3669999999998
 30
0.0
 70
    32
  0
VERTEX
  5
2FD
330
2DA
100
AcDbEntity
  8
ﾚｲﾔ_1
 62
     5
100
AcDbVertex
100
AcDb3dPolylineVertex
 10
1275.87
 20
-596.374
 30
0.0
 70
    32
  0
VERTEX
  5
2FE
330
2DA
100
AcDbEntity
  8
ﾚｲﾔ_1
 62
     5
100
AcDbVertex
100
AcDb3dPolylineVertex
 10
1275.88
 20
-596.3799999999999
 30
0.0
 70
    32
  0
VERTEX
  5
2FF
330
2DA
100
AcDbEntity
  8
ﾚｲﾔ_1
 62
     5
100
AcDbVertex
100
AcDb3dPolylineVertex
 10
1275.89
 20
-596.3869999999999
 30
0.0
 70
    32
  0
VERTEX
  5
300
330
2DA
100
AcDbEntity
  8
ﾚｲﾔ_1
 62
     5
100
AcDbVertex
100
AcDb3dPolylineVertex
 10
1275.89
 20
-596.393
 30
0.0
 70
    32
  0
VERTEX
  5
301
330
2DA
100
AcDbEntity
  8
ﾚｲﾔ_1
 62
     5
100
AcDbVertex
100
AcDb3dPolylineVertex
 10
1275.9
 20
-596.3999999999997
 30
0.0
 70
    32
  0
VERTEX
  5
302
330
2DA
100
AcDbEntity
  8
ﾚｲﾔ_1
 62
     5
100
AcDbVertex
100
AcDb3dPolylineVertex
 10
1275.91
 20
-596.4059999999999
 30
0.0
 70
    32
  0
VERTEX
  5
303
330
2DA
100
AcDbEntity
  8
ﾚｲﾔ_1
 62
     5
100
AcDbVertex
100
AcDb3dPolylineVertex
 10
1275.91
 20
-596.4129999999999
 30
0.0
 70
    32
  0
VERTEX
  5
304
330
2DA
100
AcDbEntity
  8
ﾚｲﾔ_1
 62
     5
100
AcDbVertex
100
AcDb3dPolylineVertex
 10
1275.92
 20
-596.419
 30
0.0
 70
    32
  0
VERTEX
  5
305
330
2DA
100
AcDbEntity
  8
ﾚｲﾔ_1
 62
     5
100
AcDbVertex
100
AcDb3dPolylineVertex
 10
1275.93
 20
-596.4259999999998
 30
0.0
 70
    32
  0
VERTEX
  5
306
330
2DA
100
AcDbEntity
  8
ﾚｲﾔ_1
 62
     5
100
AcDbVertex
100
AcDb3dPolylineVertex
 10
1275.94
 20
-596.4319999999998
 30
0.0
 70
    32
  0
VERTEX
  5
307
330
2DA
100
AcDbEntity
  8
ﾚｲﾔ_1
 62
     5
100
AcDbVertex
100
AcDb3dPolylineVertex
 10
1275.94
 20
-596.4389999999998
 30
0.0
 70
    32
  0
VERTEX
  5
308
330
2DA
100
AcDbEntity
  8
ﾚｲﾔ_1
 62
     5
100
AcDbVertex
100
AcDb3dPolylineVertex
 10
1275.95
 20
-596.4450000000002
 30
0.0
 70
    32
  0
VERTEX
  5
309
330
2DA
100
AcDbEntity
  8
ﾚｲﾔ_1
 62
     5
100
AcDbVertex
100
AcDb3dPolylineVertex
 10
1275.96
 20
-596.452
 30
0.0
 70
    32
  0
VERTEX
  5
30A
330
2DA
100
AcDbEntity
  8
ﾚｲﾔ_1
 62
     5
100
AcDbVertex
100
AcDb3dPolylineVertex
 10
1275.97
 20
-596.4579999999998
 30
0.0
 70
    32
  0
VERTEX
  5
30B
330
2DA
100
AcDbEntity
  8
ﾚｲﾔ_1
 62
     5
100
AcDbVertex
100
AcDb3dPolylineVertex
 10
1275.97
 20
-596.465
 30
0.0
 70
    32
  0
VERTEX
  5
30C
330
2DA
100
AcDbEntity
  8
ﾚｲﾔ_1
 62
     5
100
AcDbVertex
100
AcDb3dPolylineVertex
 10
1275.98
 20
-596.471
 30
0.0
 70
    32
  0
VERTEX
  5
30D
330
2DA
100
AcDbEntity
  8
ﾚｲﾔ_1
 62
     5
100
AcDbVertex
100
AcDb3dPolylineVertex
 10
1275.99
 20
-596.4780000000001
 30
0.0
 70
    32
  0
VERTEX
  5
30E
330
2DA
100
AcDbEntity
  8
ﾚｲﾔ_1
 62
     5
100
AcDbVertex
100
AcDb3dPolylineVertex
 10
1276.0
 20
-596.484
 30
0.0
 70
    32
  0
VERTEX
  5
30F
330
2DA
100
AcDbEntity
  8
ﾚｲﾔ_1
 62
     5
100
AcDbVertex
100
AcDb3dPolylineVertex
 10
1276.0
 20
-596.4909999999996
 30
0.0
 70
    32
  0
VERTEX
  5
310
330
2DA
100
AcDbEntity
  8
ﾚｲﾔ_1
 62
     5
100
AcDbVertex
100
AcDb3dPolylineVertex
 10
1276.01
 20
-596.497
 30
0.0
 70
    32
  0
VERTEX
  5
311
330
2DA
100
AcDbEntity
  8
ﾚｲﾔ_1
 62
     5
100
AcDbVertex
100
AcDb3dPolylineVertex
 10
1276.02
 20
-596.504
 30
0.0
 70
    32
  0
VERTEX
  5
312
330
2DA
100
AcDbEntity
  8
ﾚｲﾔ_1
 62
     5
100
AcDbVertex
100
AcDb3dPolylineVertex
 10
1276.02
 20
-596.5099999999996
 30
0.0
 70
    32
  0
VERTEX
  5
313
330
2DA
100
AcDbEntity
  8
ﾚｲﾔ_1
 62
     5
100
AcDbVertex
100
AcDb3dPolylineVertex
 10
1276.03
 20
-596.5170000000001
 30
0.0
 70
    32
  0
VERTEX
  5
314
330
2DA
100
AcDbEntity
  8
ﾚｲﾔ_1
 62
     5
100
AcDbVertex
100
AcDb3dPolylineVertex
 10
1276.04
 20
-596.523
 30
0.0
 70
    32
  0
VERTEX
  5
315
330
2DA
100
AcDbEntity
  8
ﾚｲﾔ_1
 62
     5
100
AcDbVertex
100
AcDb3dPolylineVertex
 10
1276.05
 20
-596.529
 30
0.0
 70
    32
  0
VERTEX
  5
316
330
2DA
100
AcDbEntity
  8
ﾚｲﾔ_1
 62
     5
100
AcDbVertex
100
AcDb3dPolylineVertex
 10
1276.05
 20
-596.5359999999999
 30
0.0
 70
    32
  0
VERTEX
  5
317
330
2DA
100
AcDbEntity
  8
ﾚｲﾔ_1
 62
     5
100
AcDbVertex
100
AcDb3dPolylineVertex
 10
1276.06
 20
-596.5419999999998
 30
0.0
 70
    32
  0
VERTEX
  5
318
330
2DA
100
AcDbEntity
  8
ﾚｲﾔ_1
 62
     5
100
AcDbVertex
100
AcDb3dPolylineVertex
 10
1276.07
 20
-596.5489999999999
 30
0.0
 70
    32
  0
VERTEX
  5
319
330
2DA
100
AcDbEntity
  8
ﾚｲﾔ_1
 62
     5
100
AcDbVertex
100
AcDb3dPolylineVertex
 10
1276.08
 20
-596.5549999999999
 30
0.0
 70
    32
  0
VERTEX
  5
31A
330
2DA
100
AcDbEntity
  8
ﾚｲﾔ_1
 62
     5
100
AcDbVertex
100
AcDb3dPolylineVertex
 10
1276.08
 20
-596.561
 30
0.0
 70
    32
  0
VERTEX
  5
31B
330
2DA
100
AcDbEntity
  8
ﾚｲﾔ_1
 62
     5
100
AcDbVertex
100
AcDb3dPolylineVertex
 10
1276.09
 20
-596.5679999999998
 30
0.0
 70
    32
  0
VERTEX
  5
31C
330
2DA
100
AcDbEntity
  8
ﾚｲﾔ_1
 62
     5
100
AcDbVertex
100
AcDb3dPolylineVertex
 10
1276.1
 20
-596.5740000000002
 30
0.0
 70
    32
  0
VERTEX
  5
31D
330
2DA
100
AcDbEntity
  8
ﾚｲﾔ_1
 62
     5
100
AcDbVertex
100
AcDb3dPolylineVertex
 10
1276.11
 20
-596.58
 30
0.0
 70
    32
  0
VERTEX
  5
31E
330
2DA
100
AcDbEntity
  8
ﾚｲﾔ_1
 62
     5
100
AcDbVertex
100
AcDb3dPolylineVertex
 10
1276.11
 20
-596.5869999999998
 30
0.0
 70
    32
  0
VERTEX
  5
31F
330
2DA
100
AcDbEntity
  8
ﾚｲﾔ_1
 62
     5
100
AcDbVertex
100
AcDb3dPolylineVertex
 10
1276.12
 20
-596.5930000000001
 30
0.0
 70
    32
  0
VERTEX
  5
320
330
2DA
100
AcDbEntity
  8
ﾚｲﾔ_1
 62
     5
100
AcDbVertex
100
AcDb3dPolylineVertex
 10
1276.13
 20
-596.5990000000001
 30
0.0
 70
    32
  0
VERTEX
  5
321
330
2DA
100
AcDbEntity
  8
ﾚｲﾔ_1
 62
     5
100
AcDbVertex
100
AcDb3dPolylineVertex
 10
1276.13
 20
-596.6059999999997
 30
0.0
 70
    32
  0
VERTEX
  5
322
330
2DA
100
AcDbEntity
  8
ﾚｲﾔ_1
 62
     5
100
AcDbVertex
100
AcDb3dPolylineVertex
 10
1276.14
 20
-596.612
 30
0.0
 70
    32
  0
VERTEX
  5
323
330
2DA
100
AcDbEntity
  8
ﾚｲﾔ_1
 62
     5
100
AcDbVertex
100
AcDb3dPolylineVertex
 10
1276.15
 20
-596.6180000000001
 30
0.0
 70
    32
  0
VERTEX
  5
324
330
2DA
100
AcDbEntity
  8
ﾚｲﾔ_1
 62
     5
100
AcDbVertex
100
AcDb3dPolylineVertex
 10
1276.16
 20
-596.625
 30
0.0
 70
    32
  0
VERTEX
  5
325
330
2DA
100
AcDbEntity
  8
ﾚｲﾔ_1
 62
     5
100
AcDbVertex
100
AcDb3dPolylineVertex
 10
1276.16
 20
-596.631
 30
0.0
 70
    32
  0
VERTEX
  5
326
330
2DA
100
AcDbEntity
  8
ﾚｲﾔ_1
 62
     5
100
AcDbVertex
100
AcDb3dPolylineVertex
 10
1276.17
 20
-596.6369999999999
 30
0.0
 70
    32
  0
VERTEX
  5
327
330
2DA
100
AcDbEntity
  8
ﾚｲﾔ_1
 62
     5
100
AcDbVertex
100
AcDb3dPolylineVertex
 10
1276.18
 20
-596.643
 30
0.0
 70
    32
  0
VERTEX
  5
328
330
2DA
100
AcDbEntity
  8
ﾚｲﾔ_1
 62
     5
100
AcDbVertex
100
AcDb3dPolylineVertex
 10
1276.19
 20
-596.6499999999999
 30
0.0
 70
    32
  0
VERTEX
  5
329
330
2DA
100
AcDbEntity
  8
ﾚｲﾔ_1
 62
     5
100
AcDbVertex
100
AcDb3dPolylineVertex
 10
1276.19
 20
-596.6559999999999
 30
0.0
 70
    32
  0
VERTEX
  5
32A
330
2DA
100
AcDbEntity
  8
ﾚｲﾔ_1
 62
     5
100
AcDbVertex
100
AcDb3dPolylineVertex
 10
1276.2
 20
-596.6619999999998
 30
0.0
 70
    32
  0
VERTEX
  5
32B
330
2DA
100
AcDbEntity
  8
ﾚｲﾔ_1
 62
     5
100
AcDbVertex
100
AcDb3dPolylineVertex
 10
1276.21
 20
-596.668
 30
0.0
 70
    32
  0
VERTEX
  5
32C
330
2DA
100
AcDbEntity
  8
ﾚｲﾔ_1
 62
     5
100
AcDbVertex
100
AcDb3dPolylineVertex
 10
1276.22
 20
-596.6739999999997
 30
0.0
 70
    32
  0
VERTEX
  5
32D
330
2DA
100
AcDbEntity
  8
ﾚｲﾔ_1
 62
     5
100
AcDbVertex
100
AcDb3dPolylineVertex
 10
1276.22
 20
-596.681
 30
0.0
 70
    32
  0
VERTEX
  5
32E
330
2DA
100
AcDbEntity
  8
ﾚｲﾔ_1
 62
     5
100
AcDbVertex
100
AcDb3dPolylineVertex
 10
1276.23
 20
-596.687
 30
0.0
 70
    32
  0
VERTEX
  5
32F
330
2DA
100
AcDbEntity
  8
ﾚｲﾔ_1
 62
     5
100
AcDbVertex
100
AcDb3dPolylineVertex
 10
1276.24
 20
-596.6929999999997
 30
0.0
 70
    32
  0
VERTEX
  5
330
330
2DA
100
AcDbEntity
  8
ﾚｲﾔ_1
 62
     5
100
AcDbVertex
100
AcDb3dPolylineVertex
 10
1276.25
 20
-596.699
 30
0.0
 70
    32
  0
VERTEX
  5
331
330
2DA
100
AcDbEntity
  8
ﾚｲﾔ_1
 62
     5
100
AcDbVertex
100
AcDb3dPolylineVertex
 10
1276.25
 20
-596.705
 30
0.0
 70
    32
  0
VERTEX
  5
332
330
2DA
100
AcDbEntity
  8
ﾚｲﾔ_1
 62
     5
100
AcDbVertex
100
AcDb3dPolylineVertex
 10
1276.26
 20
-596.7109999999999
 30
0.0
 70
    32
  0
VERTEX
  5
333
330
2DA
100
AcDbEntity
  8
ﾚｲﾔ_1
 62
     5
100
AcDbVertex
100
AcDb3dPolylineVertex
 10
1276.27
 20
-596.717
 30
0.0
 70
    32
  0
VERTEX
  5
334
330
2DA
100
AcDbEntity
  8
ﾚｲﾔ_1
 62
     5
100
AcDbVertex
100
AcDb3dPolylineVertex
 10
1276.28
 20
-596.7229999999999
 30
0.0
 70
    32
  0
VERTEX
  5
335
330
2DA
100
AcDbEntity
  8
ﾚｲﾔ_1
 62
     5
100
AcDbVertex
100
AcDb3dPolylineVertex
 10
1276.28
 20
-596.73
 30
0.0
 70
    32
  0
VERTEX
  5
336
330
2DA
100
AcDbEntity
  8
ﾚｲﾔ_1
 62
     5
100
AcDbVertex
100
AcDb3dPolylineVertex
 10
1276.29
 20
-596.736
 30
0.0
 70
    32
  0
VERTEX
  5
337
330
2DA
100
AcDbEntity
  8
ﾚｲﾔ_1
 62
     5
100
AcDbVertex
100
AcDb3dPolylineVertex
 10
1276.3
 20
-596.7419999999998
 30
0.0
 70
    32
  0
VERTEX
  5
338
330
2DA
100
AcDbEntity
  8
ﾚｲﾔ_1
 62
     5
100
AcDbVertex
100
AcDb3dPolylineVertex
 10
1276.31
 20
-596.7480000000001
 30
0.0
 70
    32
  0
VERTEX
  5
339
330
2DA
100
AcDbEntity
  8
ﾚｲﾔ_1
 62
     5
100
AcDbVertex
100
AcDb3dPolylineVertex
 10
1276.31
 20
-596.754
 30
0.0
 70
    32
  0
VERTEX
  5
33A
330
2DA
100
AcDbEntity
  8
ﾚｲﾔ_1
 62
     5
100
AcDbVertex
100
AcDb3dPolylineVertex
 10
1276.32
 20
-596.76
 30
0.0
 70
    32
  0
VERTEX
  5
33B
330
2DA
100
AcDbEntity
  8
ﾚｲﾔ_1
 62
     5
100
AcDbVertex
100
AcDb3dPolylineVertex
 10
1276.33
 20
-596.7659999999998
 30
0.0
 70
    32
  0
VERTEX
  5
33C
330
2DA
100
AcDbEntity
  8
ﾚｲﾔ_1
 62
     5
100
AcDbVertex
100
AcDb3dPolylineVertex
 10
1276.34
 20
-596.7719999999998
 30
0.0
 70
    32
  0
VERTEX
  5
33D
330
2DA
100
AcDbEntity
  8
ﾚｲﾔ_1
 62
     5
100
AcDbVertex
100
AcDb3dPolylineVertex
 10
1276.34
 20
-596.778
 30
0.0
 70
    32
  0
VERTEX
  5
33E
330
2DA
100
AcDbEntity
  8
ﾚｲﾔ_1
 62
     5
100
AcDbVertex
100
AcDb3dPolylineVertex
 10
1276.35
 20
-596.7839999999998
 30
0.0
 70
    32
  0
VERTEX
  5
33F
330
2DA
100
AcDbEntity
  8
ﾚｲﾔ_1
 62
     5
100
AcDbVertex
100
AcDb3dPolylineVertex
 10
1276.36
 20
-596.7899999999998
 30
0.0
 70
    32
  0
VERTEX
  5
340
330
2DA
100
AcDbEntity
  8
ﾚｲﾔ_1
 62
     5
100
AcDbVertex
100
AcDb3dPolylineVertex
 10
1276.37
 20
-596.7960000000001
 30
0.0
 70
    32
  0
VERTEX
  5
341
330
2DA
100
AcDbEntity
  8
ﾚｲﾔ_1
 62
     5
100
AcDbVertex
100
AcDb3dPolylineVertex
 10
1276.37
 20
-596.802
 30
0.0
 70
    32
  0
VERTEX
  5
342
330
2DA
100
AcDbEntity
  8
ﾚｲﾔ_1
 62
     5
100
AcDbVertex
100
AcDb3dPolylineVertex
 10
1276.38
 20
-596.8079999999996
 30
0.0
 70
    32
  0
VERTEX
  5
343
330
2DA
100
AcDbEntity
  8
ﾚｲﾔ_1
 62
     5
100
AcDbVertex
100
AcDb3dPolylineVertex
 10
1276.39
 20
-596.813
 30
0.0
 70
    32
  0
VERTEX
  5
344
330
2DA
100
AcDbEntity
  8
ﾚｲﾔ_1
 62
     5
100
AcDbVertex
100
AcDb3dPolylineVertex
 10
1276.4
 20
-596.8189999999998
 30
0.0
 70
    32
  0
VERTEX
  5
345
330
2DA
100
AcDbEntity
  8
ﾚｲﾔ_1
 62
     5
100
AcDbVertex
100
AcDb3dPolylineVertex
 10
1276.4
 20
-596.8250000000002
 30
0.0
 70
    32
  0
VERTEX
  5
346
330
2DA
100
AcDbEntity
  8
ﾚｲﾔ_1
 62
     5
100
AcDbVertex
100
AcDb3dPolylineVertex
 10
1276.41
 20
-596.831
 30
0.0
 70
    32
  0
VERTEX
  5
347
330
2DA
100
AcDbEntity
  8
ﾚｲﾔ_1
 62
     5
100
AcDbVertex
100
AcDb3dPolylineVertex
 10
1276.42
 20
-596.837
 30
0.0
 70
    32
  0
VERTEX
  5
348
330
2DA
100
AcDbEntity
  8
ﾚｲﾔ_1
 62
     5
100
AcDbVertex
100
AcDb3dPolylineVertex
 10
1276.43
 20
-596.8429999999998
 30
0.0
 70
    32
  0
VERTEX
  5
349
330
2DA
100
AcDbEntity
  8
ﾚｲﾔ_1
 62
     5
100
AcDbVertex
100
AcDb3dPolylineVertex
 10
1276.44
 20
-596.8490000000001
 30
0.0
 70
    32
  0
VERTEX
  5
34A
330
2DA
100
AcDbEntity
  8
ﾚｲﾔ_1
 62
     5
100
AcDbVertex
100
AcDb3dPolylineVertex
 10
1276.44
 20
-596.854
 30
0.0
 70
    32
  0
VERTEX
  5
34B
330
2DA
100
AcDbEntity
  8
ﾚｲﾔ_1
 62
     5
100
AcDbVertex
100
AcDb3dPolylineVertex
 10
1276.45
 20
-596.86
 30
0.0
 70
    32
  0
VERTEX
  5
34C
330
2DA
100
AcDbEntity
  8
ﾚｲﾔ_1
 62
     5
100
AcDbVertex
100
AcDb3dPolylineVertex
 10
1276.46
 20
-596.8659999999998
 30
0.0
 70
    32
  0
VERTEX
  5
34D
330
2DA
100
AcDbEntity
  8
ﾚｲﾔ_1
 62
     5
100
AcDbVertex
100
AcDb3dPolylineVertex
 10
1276.47
 20
-596.8719999999998
 30
0.0
 70
    32
  0
VERTEX
  5
34E
330
2DA
100
AcDbEntity
  8
ﾚｲﾔ_1
 62
     5
100
AcDbVertex
100
AcDb3dPolylineVertex
 10
1276.47
 20
-596.8769999999999
 30
0.0
 70
    32
  0
VERTEX
  5
34F
330
2DA
100
AcDbEntity
  8
ﾚｲﾔ_1
 62
     5
100
AcDbVertex
100
AcDb3dPolylineVertex
 10
1276.48
 20
-596.883
 30
0.0
 70
    32
  0
VERTEX
  5
350
330
2DA
100
AcDbEntity
  8
ﾚｲﾔ_1
 62
     5
100
AcDbVertex
100
AcDb3dPolylineVertex
 10
1276.49
 20
-596.889
 30
0.0
 70
    32
  0
VERTEX
  5
351
330
2DA
100
AcDbEntity
  8
ﾚｲﾔ_1
 62
     5
100
AcDbVertex
100
AcDb3dPolylineVertex
 10
1276.5
 20
-596.8939999999999
 30
0.0
 70
    32
  0
VERTEX
  5
352
330
2DA
100
AcDbEntity
  8
ﾚｲﾔ_1
 62
     5
100
AcDbVertex
100
AcDb3dPolylineVertex
 10
1276.5
 20
-596.9
 30
0.0
 70
    32
  0
VERTEX
  5
353
330
2DA
100
AcDbEntity
  8
ﾚｲﾔ_1
 62
     5
100
AcDbVertex
100
AcDb3dPolylineVertex
 10
1276.51
 20
-596.9059999999999
 30
0.0
 70
    32
  0
VERTEX
  5
354
330
2DA
100
AcDbEntity
  8
ﾚｲﾔ_1
 62
     5
100
AcDbVertex
100
AcDb3dPolylineVertex
 10
1276.52
 20
-596.9109999999999
 30
0.0
 70
    32
  0
VERTEX
  5
355
330
2DA
100
AcDbEntity
  8
ﾚｲﾔ_1
 62
     5
100
AcDbVertex
100
AcDb3dPolylineVertex
 10
1276.53
 20
-596.9169999999998
 30
0.0
 70
    32
  0
VERTEX
  5
356
330
2DA
100
AcDbEntity
  8
ﾚｲﾔ_1
 62
     5
100
AcDbVertex
100
AcDb3dPolylineVertex
 10
1276.54
 20
-596.923
 30
0.0
 70
    32
  0
VERTEX
  5
357
330
2DA
100
AcDbEntity
  8
ﾚｲﾔ_1
 62
     5
100
AcDbVertex
100
AcDb3dPolylineVertex
 10
1276.54
 20
-596.928
 30
0.0
 70
    32
  0
VERTEX
  5
358
330
2DA
100
AcDbEntity
  8
ﾚｲﾔ_1
 62
     5
100
AcDbVertex
100
AcDb3dPolylineVertex
 10
1276.55
 20
-596.9339999999998
 30
0.0
 70
    32
  0
VERTEX
  5
359
330
2DA
100
AcDbEntity
  8
ﾚｲﾔ_1
 62
     5
100
AcDbVertex
100
AcDb3dPolylineVertex
 10
1276.56
 20
-596.9389999999998
 30
0.0
 70
    32
  0
VERTEX
  5
35A
330
2DA
100
AcDbEntity
  8
ﾚｲﾔ_1
 62
     5
100
AcDbVertex
100
AcDb3dPolylineVertex
 10
1276.57
 20
-596.9450000000001
 30
0.0
 70
    32
  0
VERTEX
  5
35B
330
2DA
100
AcDbEntity
  8
ﾚｲﾔ_1
 62
     5
100
AcDbVertex
100
AcDb3dPolylineVertex
 10
1276.57
 20
-596.9500000000001
 30
0.0
 70
    32
  0
VERTEX
  5
35C
330
2DA
100
AcDbEntity
  8
ﾚｲﾔ_1
 62
     5
100
AcDbVertex
100
AcDb3dPolylineVertex
 10
1276.58
 20
-596.956
 30
0.0
 70
    32
  0
VERTEX
  5
35D
330
2DA
100
AcDbEntity
  8
ﾚｲﾔ_1
 62
     5
100
AcDbVertex
100
AcDb3dPolylineVertex
 10
1276.59
 20
-596.961
 30
0.0
 70
    32
  0
VERTEX
  5
35E
330
2DA
100
AcDbEntity
  8
ﾚｲﾔ_1
 62
     5
100
AcDbVertex
100
AcDb3dPolylineVertex
 10
1276.6
 20
-596.9669999999998
 30
0.0
 70
    32
  0
VERTEX
  5
35F
330
2DA
100
AcDbEntity
  8
ﾚｲﾔ_1
 62
     5
100
AcDbVertex
100
AcDb3dPolylineVertex
 10
1276.61
 20
-596.9719999999997
 30
0.0
 70
    32
  0
VERTEX
  5
360
330
2DA
100
AcDbEntity
  8
ﾚｲﾔ_1
 62
     5
100
AcDbVertex
100
AcDb3dPolylineVertex
 10
1276.61
 20
-596.9779999999999
 30
0.0
 70
    32
  0
VERTEX
  5
361
330
2DA
100
AcDbEntity
  8
ﾚｲﾔ_1
 62
     5
100
AcDbVertex
100
AcDb3dPolylineVertex
 10
1276.62
 20
-596.9829999999999
 30
0.0
 70
    32
  0
VERTEX
  5
362
330
2DA
100
AcDbEntity
  8
ﾚｲﾔ_1
 62
     5
100
AcDbVertex
100
AcDb3dPolylineVertex
 10
1276.63
 20
-596.989
 30
0.0
 70
    32
  0
VERTEX
  5
363
330
2DA
100
AcDbEntity
  8
ﾚｲﾔ_1
 62
     5
100
AcDbVertex
100
AcDb3dPolylineVertex
 10
1276.64
 20
-596.994
 30
0.0
 70
    32
  0
VERTEX
  5
364
330
2DA
100
AcDbEntity
  8
ﾚｲﾔ_1
 62
     5
100
AcDbVertex
100
AcDb3dPolylineVertex
 10
1276.65
 20
-596.999
 30
0.0
 70
    32
  0
VERTEX
  5
365
330
2DA
100
AcDbEntity
  8
ﾚｲﾔ_1
 62
     5
100
AcDbVertex
100
AcDb3dPolylineVertex
 10
1276.65
 20
-597.0049999999996
 30
0.0
 70
    32
  0
VERTEX
  5
366
330
2DA
100
AcDbEntity
  8
ﾚｲﾔ_1
 62
     5
100
AcDbVertex
100
AcDb3dPolylineVertex
 10
1276.66
 20
-597.01
 30
0.0
 70
    32
  0
VERTEX
  5
367
330
2DA
100
AcDbEntity
  8
ﾚｲﾔ_1
 62
     5
100
AcDbVertex
100
AcDb3dPolylineVertex
 10
1276.67
 20
-597.015
 30
0.0
 70
    32
  0
VERTEX
  5
368
330
2DA
100
AcDbEntity
  8
ﾚｲﾔ_1
 62
     5
100
AcDbVertex
100
AcDb3dPolylineVertex
 10
1276.68
 20
-597.02
 30
0.0
 70
    32
  0
VERTEX
  5
369
330
2DA
100
AcDbEntity
  8
ﾚｲﾔ_1
 62
     5
100
AcDbVertex
100
AcDb3dPolylineVertex
 10
1276.68
 20
-597.0259999999999
 30
0.0
 70
    32
  0
VERTEX
  5
36A
330
2DA
100
AcDbEntity
  8
ﾚｲﾔ_1
 62
     5
100
AcDbVertex
100
AcDb3dPolylineVertex
 10
1276.69
 20
-597.0309999999999
 30
0.0
 70
    32
  0
VERTEX
  5
36B
330
2DA
100
AcDbEntity
  8
ﾚｲﾔ_1
 62
     5
100
AcDbVertex
100
AcDb3dPolylineVertex
 10
1276.7
 20
-597.0359999999999
 30
0.0
 70
    32
  0
VERTEX
  5
36C
330
2DA
100
AcDbEntity
  8
ﾚｲﾔ_1
 62
     5
100
AcDbVertex
100
AcDb3dPolylineVertex
 10
1276.71
 20
-597.0410000000001
 30
0.0
 70
    32
  0
VERTEX
  5
36D
330
2DA
100
AcDbEntity
  8
ﾚｲﾔ_1
 62
     5
100
AcDbVertex
100
AcDb3dPolylineVertex
 10
1276.72
 20
-597.047
 30
0.0
 70
    32
  0
VERTEX
  5
36E
330
2DA
100
AcDbEntity
  8
ﾚｲﾔ_1
 62
     5
100
AcDbVertex
100
AcDb3dPolylineVertex
 10
1276.72
 20
-597.052
 30
0.0
 70
    32
  0
VERTEX
  5
36F
330
2DA
100
AcDbEntity
  8
ﾚｲﾔ_1
 62
     5
100
AcDbVertex
100
AcDb3dPolylineVertex
 10
1276.73
 20
-597.057
 30
0.0
 70
    32
  0
VERTEX
  5
370
330
2DA
100
AcDbEntity
  8
ﾚｲﾔ_1
 62
     5
100
AcDbVertex
100
AcDb3dPolylineVertex
 10
1276.74
 20
-597.062
 30
0.0
 70
    32
  0
VERTEX
  5
371
330
2DA
100
AcDbEntity
  8
ﾚｲﾔ_1
 62
     5
100
AcDbVertex
100
AcDb3dPolylineVertex
 10
1276.75
 20
-597.067
 30
0.0
 70
    32
  0
VERTEX
  5
372
330
2DA
100
AcDbEntity
  8
ﾚｲﾔ_1
 62
     5
100
AcDbVertex
100
AcDb3dPolylineVertex
 10
1276.76
 20
-597.072
 30
0.0
 70
    32
  0
VERTEX
  5
373
330
2DA
100
AcDbEntity
  8
ﾚｲﾔ_1
 62
     5
100
AcDbVertex
100
AcDb3dPolylineVertex
 10
1276.76
 20
-597.0769999999999
 30
0.0
 70
    32
  0
VERTEX
  5
374
330
2DA
100
AcDbEntity
  8
ﾚｲﾔ_1
 62
     5
100
AcDbVertex
100
AcDb3dPolylineVertex
 10
1276.77
 20
-597.0819999999998
 30
0.0
 70
    32
  0
VERTEX
  5
375
330
2DA
100
AcDbEntity
  8
ﾚｲﾔ_1
 62
     5
100
AcDbVertex
100
AcDb3dPolylineVertex
 10
1276.78
 20
-597.0869999999997
 30
0.0
 70
    32
  0
VERTEX
  5
376
330
2DA
100
AcDbEntity
  8
ﾚｲﾔ_1
 62
     5
100
AcDbVertex
100
AcDb3dPolylineVertex
 10
1276.79
 20
-597.0919999999996
 30
0.0
 70
    32
  0
VERTEX
  5
377
330
2DA
100
AcDbEntity
  8
ﾚｲﾔ_1
 62
     5
100
AcDbVertex
100
AcDb3dPolylineVertex
 10
1276.8
 20
-597.097
 30
0.0
 70
    32
  0
VERTEX
  5
378
330
2DA
100
AcDbEntity
  8
ﾚｲﾔ_1
 62
     5
100
AcDbVertex
100
AcDb3dPolylineVertex
 10
1276.81
 20
-597.102
 30
0.0
 70
    32
  0
VERTEX
  5
379
330
2DA
100
AcDbEntity
  8
ﾚｲﾔ_1
 62
     5
100
AcDbVertex
100
AcDb3dPolylineVertex
 10
1276.81
 20
-597.107
 30
0.0
 70
    32
  0
VERTEX
  5
37A
330
2DA
100
AcDbEntity
  8
ﾚｲﾔ_1
 62
     5
100
AcDbVertex
100
AcDb3dPolylineVertex
 10
1276.82
 20
-597.1119999999998
 30
0.0
 70
    32
  0
SEQEND
  5
37B
330
2DA
100
AcDbEntity
  8
ﾚｲﾔ_1
 62
     5
  0
POLYLINE
  5
37C
330
616
100
AcDbEntity
  8
ﾚｲﾔ_1
 62
     5
100
AcDb3dPolyline
 66
     1
 10
0.0
 20
0.0
 30
0.0
 70
     8
  0
VERTEX
  5
37D
330
37C
100
AcDbEntity
  8
ﾚｲﾔ_1
 62
     5
100
AcDbVertex
100
AcDb3dPolylineVertex
 10
1278.3
 20
-597.1
 30
0.0
 70
    32
  0
VERTEX
  5
37E
330
37C
100
AcDbEntity
  8
ﾚｲﾔ_1
 62
     5
100
AcDbVertex
100
AcDb3dPolylineVertex
 10
1278.31
 20
-597.102
 30
0.0
 70
    32
  0
VERTEX
  5
37F
330
37C
100
AcDbEntity
  8
ﾚｲﾔ_1
 62
     5
100
AcDbVertex
100
AcDb3dPolylineVertex
 10
1278.31
 20
-597.104
 30
0.0
 70
    32
  0
VERTEX
  5
380
330
37C
100
AcDbEntity
  8
ﾚｲﾔ_1
 62
     5
100
AcDbVertex
100
AcDb3dPolylineVertex
 10
1278.32
 20
-597.106
 30
0.0
 70
    32
  0
VERTEX
  5
381
330
37C
100
AcDbEntity
  8
ﾚｲﾔ_1
 62
     5
100
AcDbVertex
100
AcDb3dPolylineVertex
 10
1278.33
 20
-597.1079999999999
 30
0.0
 70
    32
  0
VERTEX
  5
382
330
37C
100
AcDbEntity
  8
ﾚｲﾔ_1
 62
     5
100
AcDbVertex
100
AcDb3dPolylineVertex
 10
1278.33
 20
-597.1099999999998
 30
0.0
 70
    32
  0
VERTEX
  5
383
330
37C
100
AcDbEntity
  8
ﾚｲﾔ_1
 62
     5
100
AcDbVertex
100
AcDb3dPolylineVertex
 10
1278.34
 20
-597.1119999999998
 30
0.0
 70
    32
  0
VERTEX
  5
384
330
37C
100
AcDbEntity
  8
ﾚｲﾔ_1
 62
     5
100
AcDbVertex
100
AcDb3dPolylineVertex
 10
1278.35
 20
-597.114
 30
0.0
 70
    32
  0
VERTEX
  5
385
330
37C
100
AcDbEntity
  8
ﾚｲﾔ_1
 62
     5
100
AcDbVertex
100
AcDb3dPolylineVertex
 10
1278.36
 20
-597.116
 30
0.0
 70
    32
  0
VERTEX
  5
386
330
37C
100
AcDbEntity
  8
ﾚｲﾔ_1
 62
     5
100
AcDbVertex
100
AcDb3dPolylineVertex
 10
1278.36
 20
-597.1180000000002
 30
0.0
 70
    32
  0
VERTEX
  5
387
330
37C
100
AcDbEntity
  8
ﾚｲﾔ_1
 62
     5
100
AcDbVertex
100
AcDb3dPolylineVertex
 10
1278.37
 20
-597.12
 30
0.0
 70
    32
  0
VERTEX
  5
388
330
37C
100
AcDbEntity
  8
ﾚｲﾔ_1
 62
     5
100
AcDbVertex
100
AcDb3dPolylineVertex
 10
1278.38
 20
-597.1219999999998
 30
0.0
 70
    32
  0
VERTEX
  5
389
330
37C
100
AcDbEntity
  8
ﾚｲﾔ_1
 62
     5
100
AcDbVertex
100
AcDb3dPolylineVertex
 10
1278.38
 20
-597.1230000000002
 30
0.0
 70
    32
  0
VERTEX
  5
38A
330
37C
100
AcDbEntity
  8
ﾚｲﾔ_1
 62
     5
100
AcDbVertex
100
AcDb3dPolylineVertex
 10
1278.39
 20
-597.125
 30
0.0
 70
    32
  0
VERTEX
  5
38B
330
37C
100
AcDbEntity
  8
ﾚｲﾔ_1
 62
     5
100
AcDbVertex
100
AcDb3dPolylineVertex
 10
1278.4
 20
-597.1269999999999
 30
0.0
 70
    32
  0
VERTEX
  5
38C
330
37C
100
AcDbEntity
  8
ﾚｲﾔ_1
 62
     5
100
AcDbVertex
100
AcDb3dPolylineVertex
 10
1278.41
 20
-597.129
 30
0.0
 70
    32
  0
VERTEX
  5
38D
330
37C
100
AcDbEntity
  8
ﾚｲﾔ_1
 62
     5
100
AcDbVertex
100
AcDb3dPolylineVertex
 10
1278.41
 20
-597.1309999999999
 30
0.0
 70
    32
  0
VERTEX
  5
38E
330
37C
100
AcDbEntity
  8
ﾚｲﾔ_1
 62
     5
100
AcDbVertex
100
AcDb3dPolylineVertex
 10
1278.42
 20
-597.133
 30
0.0
 70
    32
  0
VERTEX
  5
38F
330
37C
100
AcDbEntity
  8
ﾚｲﾔ_1
 62
     5
100
AcDbVertex
100
AcDb3dPolylineVertex
 10
1278.43
 20
-597.134
 30
0.0
 70
    32
  0
VERTEX
  5
390
330
37C
100
AcDbEntity
  8
ﾚｲﾔ_1
 62
     5
100
AcDbVertex
100
AcDb3dPolylineVertex
 10
1278.43
 20
-597.1359999999998
 30
0.0
 70
    32
  0
VERTEX
  5
391
330
37C
100
AcDbEntity
  8
ﾚｲﾔ_1
 62
     5
100
AcDbVertex
100
AcDb3dPolylineVertex
 10
1278.44
 20
-597.138
 30
0.0
 70
    32
  0
VERTEX
  5
392
330
37C
100
AcDbEntity
  8
ﾚｲﾔ_1
 62
     5
100
AcDbVertex
100
AcDb3dPolylineVertex
 10
1278.45
 20
-597.14
 30
0.0
 70
    32
  0
VERTEX
  5
393
330
37C
100
AcDbEntity
  8
ﾚｲﾔ_1
 62
     5
100
AcDbVertex
100
AcDb3dPolylineVertex
 10
1278.46
 20
-597.1409999999998
 30
0.0
 70
    32
  0
VERTEX
  5
394
330
37C
100
AcDbEntity
  8
ﾚｲﾔ_1
 62
     5
100
AcDbVertex
100
AcDb3dPolylineVertex
 10
1278.46
 20
-597.143
 30
0.0
 70
    32
  0
VERTEX
  5
395
330
37C
100
AcDbEntity
  8
ﾚｲﾔ_1
 62
     5
100
AcDbVertex
100
AcDb3dPolylineVertex
 10
1278.47
 20
-597.1449999999999
 30
0.0
 70
    32
  0
VERTEX
  5
396
330
37C
100
AcDbEntity
  8
ﾚｲﾔ_1
 62
     5
100
AcDbVertex
100
AcDb3dPolylineVertex
 10
1278.48
 20
-597.1469999999998
 30
0.0
 70
    32
  0
VERTEX
  5
397
330
37C
100
AcDbEntity
  8
ﾚｲﾔ_1
 62
     5
100
AcDbVertex
100
AcDb3dPolylineVertex
 10
1278.48
 20
-597.148
 30
0.0
 70
    32
  0
VERTEX
  5
398
330
37C
100
AcDbEntity
  8
ﾚｲﾔ_1
 62
     5
100
AcDbVertex
100
AcDb3dPolylineVertex
 10
1278.49
 20
-597.1499999999998
 30
0.0
 70
    32
  0
VERTEX
  5
399
330
37C
100
AcDbEntity
  8
ﾚｲﾔ_1
 62
     5
100
AcDbVertex
100
AcDb3dPolylineVertex
 10
1278.5
 20
-597.1519999999998
 30
0.0
 70
    32
  0
VERTEX
  5
39A
330
37C
100
AcDbEntity
  8
ﾚｲﾔ_1
 62
     5
100
AcDbVertex
100
AcDb3dPolylineVertex
 10
1278.51
 20
-597.154
 30
0.0
 70
    32
  0
VERTEX
  5
39B
330
37C
100
AcDbEntity
  8
ﾚｲﾔ_1
 62
     5
100
AcDbVertex
100
AcDb3dPolylineVertex
 10
1278.51
 20
-597.1549999999997
 30
0.0
 70
    32
  0
VERTEX
  5
39C
330
37C
100
AcDbEntity
  8
ﾚｲﾔ_1
 62
     5
100
AcDbVertex
100
AcDb3dPolylineVertex
 10
1278.52
 20
-597.1569999999998
 30
0.0
 70
    32
  0
VERTEX
  5
39D
330
37C
100
AcDbEntity
  8
ﾚｲﾔ_1
 62
     5
100
AcDbVertex
100
AcDb3dPolylineVertex
 10
1278.53
 20
-597.1589999999999
 30
0.0
 70
    32
  0
VERTEX
  5
39E
330
37C
100
AcDbEntity
  8
ﾚｲﾔ_1
 62
     5
100
AcDbVertex
100
AcDb3dPolylineVertex
 10
1278.53
 20
-597.1599999999998
 30
0.0
 70
    32
  0
VERTEX
  5
39F
330
37C
100
AcDbEntity
  8
ﾚｲﾔ_1
 62
     5
100
AcDbVertex
100
AcDb3dPolylineVertex
 10
1278.54
 20
-597.1619999999996
 30
0.0
 70
    32
  0
VERTEX
  5
3A0
330
37C
100
AcDbEntity
  8
ﾚｲﾔ_1
 62
     5
100
AcDbVertex
100
AcDb3dPolylineVertex
 10
1278.55
 20
-597.1639999999998
 30
0.0
 70
    32
  0
VERTEX
  5
3A1
330
37C
100
AcDbEntity
  8
ﾚｲﾔ_1
 62
     5
100
AcDbVertex
100
AcDb3dPolylineVertex
 10
1278.56
 20
-597.1649999999998
 30
0.0
 70
    32
  0
VERTEX
  5
3A2
330
37C
100
AcDbEntity
  8
ﾚｲﾔ_1
 62
     5
100
AcDbVertex
100
AcDb3dPolylineVertex
 10
1278.56
 20
-597.1669999999996
 30
0.0
 70
    32
  0
VERTEX
  5
3A3
330
37C
100
AcDbEntity
  8
ﾚｲﾔ_1
 62
     5
100
AcDbVertex
100
AcDb3dPolylineVertex
 10
1278.57
 20
-597.168
 30
0.0
 70
    32
  0
VERTEX
  5
3A4
330
37C
100
AcDbEntity
  8
ﾚｲﾔ_1
 62
     5
100
AcDbVertex
100
AcDb3dPolylineVertex
 10
1278.58
 20
-597.1699999999998
 30
0.0
 70
    32
  0
VERTEX
  5
3A5
330
37C
100
AcDbEntity
  8
ﾚｲﾔ_1
 62
     5
100
AcDbVertex
100
AcDb3dPolylineVertex
 10
1278.58
 20
-597.172
 30
0.0
 70
    32
  0
VERTEX
  5
3A6
330
37C
100
AcDbEntity
  8
ﾚｲﾔ_1
 62
     5
100
AcDbVertex
100
AcDb3dPolylineVertex
 10
1278.59
 20
-597.1729999999999
 30
0.0
 70
    32
  0
VERTEX
  5
3A7
330
37C
100
AcDbEntity
  8
ﾚｲﾔ_1
 62
     5
100
AcDbVertex
100
AcDb3dPolylineVertex
 10
1278.6
 20
-597.1749999999999
 30
0.0
 70
    32
  0
VERTEX
  5
3A8
330
37C
100
AcDbEntity
  8
ﾚｲﾔ_1
 62
     5
100
AcDbVertex
100
AcDb3dPolylineVertex
 10
1278.61
 20
-597.1759999999997
 30
0.0
 70
    32
  0
VERTEX
  5
3A9
330
37C
100
AcDbEntity
  8
ﾚｲﾔ_1
 62
     5
100
AcDbVertex
100
AcDb3dPolylineVertex
 10
1278.61
 20
-597.1779999999998
 30
0.0
 70
    32
  0
VERTEX
  5
3AA
330
37C
100
AcDbEntity
  8
ﾚｲﾔ_1
 62
     5
100
AcDbVertex
100
AcDb3dPolylineVertex
 10
1278.62
 20
-597.1799999999999
 30
0.0
 70
    32
  0
VERTEX
  5
3AB
330
37C
100
AcDbEntity
  8
ﾚｲﾔ_1
 62
     5
100
AcDbVertex
100
AcDb3dPolylineVertex
 10
1278.63
 20
-597.181
 30
0.0
 70
    32
  0
VERTEX
  5
3AC
330
37C
100
AcDbEntity
  8
ﾚｲﾔ_1
 62
     5
100
AcDbVertex
100
AcDb3dPolylineVertex
 10
1278.64
 20
-597.1829999999996
 30
0.0
 70
    32
  0
VERTEX
  5
3AD
330
37C
100
AcDbEntity
  8
ﾚｲﾔ_1
 62
     5
100
AcDbVertex
100
AcDb3dPolylineVertex
 10
1278.64
 20
-597.1839999999998
 30
0.0
 70
    32
  0
VERTEX
  5
3AE
330
37C
100
AcDbEntity
  8
ﾚｲﾔ_1
 62
     5
100
AcDbVertex
100
AcDb3dPolylineVertex
 10
1278.65
 20
-597.186
 30
0.0
 70
    32
  0
VERTEX
  5
3AF
330
37C
100
AcDbEntity
  8
ﾚｲﾔ_1
 62
     5
100
AcDbVertex
100
AcDb3dPolylineVertex
 10
1278.66
 20
-597.187
 30
0.0
 70
    32
  0
VERTEX
  5
3B0
330
37C
100
AcDbEntity
  8
ﾚｲﾔ_1
 62
     5
100
AcDbVertex
100
AcDb3dPolylineVertex
 10
1278.66
 20
-597.189
 30
0.0
 70
    32
  0
VERTEX
  5
3B1
330
37C
100
AcDbEntity
  8
ﾚｲﾔ_1
 62
     5
100
AcDbVertex
100
AcDb3dPolylineVertex
 10
1278.67
 20
-597.1900000000001
 30
0.0
 70
    32
  0
VERTEX
  5
3B2
330
37C
100
AcDbEntity
  8
ﾚｲﾔ_1
 62
     5
100
AcDbVertex
100
AcDb3dPolylineVertex
 10
1278.68
 20
-597.1919999999999
 30
0.0
 70
    32
  0
VERTEX
  5
3B3
330
37C
100
AcDbEntity
  8
ﾚｲﾔ_1
 62
     5
100
AcDbVertex
100
AcDb3dPolylineVertex
 10
1278.69
 20
-597.1929999999997
 30
0.0
 70
    32
  0
VERTEX
  5
3B4
330
37C
100
AcDbEntity
  8
ﾚｲﾔ_1
 62
     5
100
AcDbVertex
100
AcDb3dPolylineVertex
 10
1278.69
 20
-597.1950000000001
 30
0.0
 70
    32
  0
VERTEX
  5
3B5
330
37C
100
AcDbEntity
  8
ﾚｲﾔ_1
 62
     5
100
AcDbVertex
100
AcDb3dPolylineVertex
 10
1278.7
 20
-597.196
 30
0.0
 70
    32
  0
VERTEX
  5
3B6
330
37C
100
AcDbEntity
  8
ﾚｲﾔ_1
 62
     5
100
AcDbVertex
100
AcDb3dPolylineVertex
 10
1278.71
 20
-597.198
 30
0.0
 70
    32
  0
VERTEX
  5
3B7
330
37C
100
AcDbEntity
  8
ﾚｲﾔ_1
 62
     5
100
AcDbVertex
100
AcDb3dPolylineVertex
 10
1278.72
 20
-597.1989999999999
 30
0.0
 70
    32
  0
VERTEX
  5
3B8
330
37C
100
AcDbEntity
  8
ﾚｲﾔ_1
 62
     5
100
AcDbVertex
100
AcDb3dPolylineVertex
 10
1278.72
 20
-597.201
 30
0.0
 70
    32
  0
VERTEX
  5
3B9
330
37C
100
AcDbEntity
  8
ﾚｲﾔ_1
 62
     5
100
AcDbVertex
100
AcDb3dPolylineVertex
 10
1278.73
 20
-597.2019999999996
 30
0.0
 70
    32
  0
VERTEX
  5
3BA
330
37C
100
AcDbEntity
  8
ﾚｲﾔ_1
 62
     5
100
AcDbVertex
100
AcDb3dPolylineVertex
 10
1278.74
 20
-597.2039999999999
 30
0.0
 70
    32
  0
VERTEX
  5
3BB
330
37C
100
AcDbEntity
  8
ﾚｲﾔ_1
 62
     5
100
AcDbVertex
100
AcDb3dPolylineVertex
 10
1278.74
 20
-597.205
 30
0.0
 70
    32
  0
VERTEX
  5
3BC
330
37C
100
AcDbEntity
  8
ﾚｲﾔ_1
 62
     5
100
AcDbVertex
100
AcDb3dPolylineVertex
 10
1278.75
 20
-597.207
 30
0.0
 70
    32
  0
VERTEX
  5
3BD
330
37C
100
AcDbEntity
  8
ﾚｲﾔ_1
 62
     5
100
AcDbVertex
100
AcDb3dPolylineVertex
 10
1278.76
 20
-597.208
 30
0.0
 70
    32
  0
VERTEX
  5
3BE
330
37C
100
AcDbEntity
  8
ﾚｲﾔ_1
 62
     5
100
AcDbVertex
100
AcDb3dPolylineVertex
 10
1278.77
 20
-597.2089999999999
 30
0.0
 70
    32
  0
VERTEX
  5
3BF
330
37C
100
AcDbEntity
  8
ﾚｲﾔ_1
 62
     5
100
AcDbVertex
100
AcDb3dPolylineVertex
 10
1278.77
 20
-597.2109999999998
 30
0.0
 70
    32
  0
VERTEX
  5
3C0
330
37C
100
AcDbEntity
  8
ﾚｲﾔ_1
 62
     5
100
AcDbVertex
100
AcDb3dPolylineVertex
 10
1278.78
 20
-597.212
 30
0.0
 70
    32
  0
VERTEX
  5
3C1
330
37C
100
AcDbEntity
  8
ﾚｲﾔ_1
 62
     5
100
AcDbVertex
100
AcDb3dPolylineVertex
 10
1278.79
 20
-597.2140000000002
 30
0.0
 70
    32
  0
VERTEX
  5
3C2
330
37C
100
AcDbEntity
  8
ﾚｲﾔ_1
 62
     5
100
AcDbVertex
100
AcDb3dPolylineVertex
 10
1278.8
 20
-597.215
 30
0.0
 70
    32
  0
VERTEX
  5
3C3
330
37C
100
AcDbEntity
  8
ﾚｲﾔ_1
 62
     5
100
AcDbVertex
100
AcDb3dPolylineVertex
 10
1278.8
 20
-597.217
 30
0.0
 70
    32
  0
VERTEX
  5
3C4
330
37C
100
AcDbEntity
  8
ﾚｲﾔ_1
 62
     5
100
AcDbVertex
100
AcDb3dPolylineVertex
 10
1278.81
 20
-597.2179999999998
 30
0.0
 70
    32
  0
VERTEX
  5
3C5
330
37C
100
AcDbEntity
  8
ﾚｲﾔ_1
 62
     5
100
AcDbVertex
100
AcDb3dPolylineVertex
 10
1278.82
 20
-597.2190000000002
 30
0.0
 70
    32
  0
VERTEX
  5
3C6
330
37C
100
AcDbEntity
  8
ﾚｲﾔ_1
 62
     5
100
AcDbVertex
100
AcDb3dPolylineVertex
 10
1278.83
 20
-597.221
 30
0.0
 70
    32
  0
VERTEX
  5
3C7
330
37C
100
AcDbEntity
  8
ﾚｲﾔ_1
 62
     5
100
AcDbVertex
100
AcDb3dPolylineVertex
 10
1278.83
 20
-597.222
 30
0.0
 70
    32
  0
VERTEX
  5
3C8
330
37C
100
AcDbEntity
  8
ﾚｲﾔ_1
 62
     5
100
AcDbVertex
100
AcDb3dPolylineVertex
 10
1278.84
 20
-597.2229999999999
 30
0.0
 70
    32
  0
VERTEX
  5
3C9
330
37C
100
AcDbEntity
  8
ﾚｲﾔ_1
 62
     5
100
AcDbVertex
100
AcDb3dPolylineVertex
 10
1278.85
 20
-597.225
 30
0.0
 70
    32
  0
VERTEX
  5
3CA
330
37C
100
AcDbEntity
  8
ﾚｲﾔ_1
 62
     5
100
AcDbVertex
100
AcDb3dPolylineVertex
 10
1278.85
 20
-597.226
 30
0.0
 70
    32
  0
VERTEX
  5
3CB
330
37C
100
AcDbEntity
  8
ﾚｲﾔ_1
 62
     5
100
AcDbVertex
100
AcDb3dPolylineVertex
 10
1278.86
 20
-597.2279999999999
 30
0.0
 70
    32
  0
VERTEX
  5
3CC
330
37C
100
AcDbEntity
  8
ﾚｲﾔ_1
 62
     5
100
AcDbVertex
100
AcDb3dPolylineVertex
 10
1278.87
 20
-597.229
 30
0.0
 70
    32
  0
VERTEX
  5
3CD
330
37C
100
AcDbEntity
  8
ﾚｲﾔ_1
 62
     5
100
AcDbVertex
100
AcDb3dPolylineVertex
 10
1278.88
 20
-597.23
 30
0.0
 70
    32
  0
VERTEX
  5
3CE
330
37C
100
AcDbEntity
  8
ﾚｲﾔ_1
 62
     5
100
AcDbVertex
100
AcDb3dPolylineVertex
 10
1278.88
 20
-597.2319999999996
 30
0.0
 70
    32
  0
VERTEX
  5
3CF
330
37C
100
AcDbEntity
  8
ﾚｲﾔ_1
 62
     5
100
AcDbVertex
100
AcDb3dPolylineVertex
 10
1278.89
 20
-597.2329999999999
 30
0.0
 70
    32
  0
VERTEX
  5
3D0
330
37C
100
AcDbEntity
  8
ﾚｲﾔ_1
 62
     5
100
AcDbVertex
100
AcDb3dPolylineVertex
 10
1278.9
 20
-597.234
 30
0.0
 70
    32
  0
VERTEX
  5
3D1
330
37C
100
AcDbEntity
  8
ﾚｲﾔ_1
 62
     5
100
AcDbVertex
100
AcDb3dPolylineVertex
 10
1278.91
 20
-597.236
 30
0.0
 70
    32
  0
VERTEX
  5
3D2
330
37C
100
AcDbEntity
  8
ﾚｲﾔ_1
 62
     5
100
AcDbVertex
100
AcDb3dPolylineVertex
 10
1278.91
 20
-597.2369999999998
 30
0.0
 70
    32
  0
VERTEX
  5
3D3
330
37C
100
AcDbEntity
  8
ﾚｲﾔ_1
 62
     5
100
AcDbVertex
100
AcDb3dPolylineVertex
 10
1278.92
 20
-597.2380000000002
 30
0.0
 70
    32
  0
VERTEX
  5
3D4
330
37C
100
AcDbEntity
  8
ﾚｲﾔ_1
 62
     5
100
AcDbVertex
100
AcDb3dPolylineVertex
 10
1278.93
 20
-597.24
 30
0.0
 70
    32
  0
VERTEX
  5
3D5
330
37C
100
AcDbEntity
  8
ﾚｲﾔ_1
 62
     5
100
AcDbVertex
100
AcDb3dPolylineVertex
 10
1278.94
 20
-597.2409999999999
 30
0.0
 70
    32
  0
VERTEX
  5
3D6
330
37C
100
AcDbEntity
  8
ﾚｲﾔ_1
 62
     5
100
AcDbVertex
100
AcDb3dPolylineVertex
 10
1278.94
 20
-597.2419999999998
 30
0.0
 70
    32
  0
VERTEX
  5
3D7
330
37C
100
AcDbEntity
  8
ﾚｲﾔ_1
 62
     5
100
AcDbVertex
100
AcDb3dPolylineVertex
 10
1278.95
 20
-597.244
 30
0.0
 70
    32
  0
VERTEX
  5
3D8
330
37C
100
AcDbEntity
  8
ﾚｲﾔ_1
 62
     5
100
AcDbVertex
100
AcDb3dPolylineVertex
 10
1278.96
 20
-597.245
 30
0.0
 70
    32
  0
VERTEX
  5
3D9
330
37C
100
AcDbEntity
  8
ﾚｲﾔ_1
 62
     5
100
AcDbVertex
100
AcDb3dPolylineVertex
 10
1278.97
 20
-597.2459999999997
 30
0.0
 70
    32
  0
VERTEX
  5
3DA
330
37C
100
AcDbEntity
  8
ﾚｲﾔ_1
 62
     5
100
AcDbVertex
100
AcDb3dPolylineVertex
 10
1278.97
 20
-597.2480000000001
 30
0.0
 70
    32
  0
VERTEX
  5
3DB
330
37C
100
AcDbEntity
  8
ﾚｲﾔ_1
 62
     5
100
AcDbVertex
100
AcDb3dPolylineVertex
 10
1278.98
 20
-597.249
 30
0.0
 70
    32
  0
VERTEX
  5
3DC
330
37C
100
AcDbEntity
  8
ﾚｲﾔ_1
 62
     5
100
AcDbVertex
100
AcDb3dPolylineVertex
 10
1278.99
 20
-597.25
 30
0.0
 70
    32
  0
VERTEX
  5
3DD
330
37C
100
AcDbEntity
  8
ﾚｲﾔ_1
 62
     5
100
AcDbVertex
100
AcDb3dPolylineVertex
 10
1279.0
 20
-597.2519999999999
 30
0.0
 70
    32
  0
VERTEX
  5
3DE
330
37C
100
AcDbEntity
  8
ﾚｲﾔ_1
 62
     5
100
AcDbVertex
100
AcDb3dPolylineVertex
 10
1279.0
 20
-597.253
 30
0.0
 70
    32
  0
VERTEX
  5
3DF
330
37C
100
AcDbEntity
  8
ﾚｲﾔ_1
 62
     5
100
AcDbVertex
100
AcDb3dPolylineVertex
 10
1279.01
 20
-597.254
 30
0.0
 70
    32
  0
VERTEX
  5
3E0
330
37C
100
AcDbEntity
  8
ﾚｲﾔ_1
 62
     5
100
AcDbVertex
100
AcDb3dPolylineVertex
 10
1279.02
 20
-597.255
 30
0.0
 70
    32
  0
VERTEX
  5
3E1
330
37C
100
AcDbEntity
  8
ﾚｲﾔ_1
 62
     5
100
AcDbVertex
100
AcDb3dPolylineVertex
 10
1279.03
 20
-597.2569999999999
 30
0.0
 70
    32
  0
VERTEX
  5
3E2
330
37C
100
AcDbEntity
  8
ﾚｲﾔ_1
 62
     5
100
AcDbVertex
100
AcDb3dPolylineVertex
 10
1279.03
 20
-597.258
 30
0.0
 70
    32
  0
VERTEX
  5
3E3
330
37C
100
AcDbEntity
  8
ﾚｲﾔ_1
 62
     5
100
AcDbVertex
100
AcDb3dPolylineVertex
 10
1279.04
 20
-597.259
 30
0.0
 70
    32
  0
VERTEX
  5
3E4
330
37C
100
AcDbEntity
  8
ﾚｲﾔ_1
 62
     5
100
AcDbVertex
100
AcDb3dPolylineVertex
 10
1279.05
 20
-597.2609999999998
 30
0.0
 70
    32
  0
VERTEX
  5
3E5
330
37C
100
AcDbEntity
  8
ﾚｲﾔ_1
 62
     5
100
AcDbVertex
100
AcDb3dPolylineVertex
 10
1279.05
 20
-597.2619999999999
 30
0.0
 70
    32
  0
VERTEX
  5
3E6
330
37C
100
AcDbEntity
  8
ﾚｲﾔ_1
 62
     5
100
AcDbVertex
100
AcDb3dPolylineVertex
 10
1279.06
 20
-597.263
 30
0.0
 70
    32
  0
VERTEX
  5
3E7
330
37C
100
AcDbEntity
  8
ﾚｲﾔ_1
 62
     5
100
AcDbVertex
100
AcDb3dPolylineVertex
 10
1279.07
 20
-597.264
 30
0.0
 70
    32
  0
VERTEX
  5
3E8
330
37C
100
AcDbEntity
  8
ﾚｲﾔ_1
 62
     5
100
AcDbVertex
100
AcDb3dPolylineVertex
 10
1279.08
 20
-597.2659999999998
 30
0.0
 70
    32
  0
VERTEX
  5
3E9
330
37C
100
AcDbEntity
  8
ﾚｲﾔ_1
 62
     5
100
AcDbVertex
100
AcDb3dPolylineVertex
 10
1279.08
 20
-597.2670000000001
 30
0.0
 70
    32
  0
VERTEX
  5
3EA
330
37C
100
AcDbEntity
  8
ﾚｲﾔ_1
 62
     5
100
AcDbVertex
100
AcDb3dPolylineVertex
 10
1279.09
 20
-597.268
 30
0.0
 70
    32
  0
VERTEX
  5
3EB
330
37C
100
AcDbEntity
  8
ﾚｲﾔ_1
 62
     5
100
AcDbVertex
100
AcDb3dPolylineVertex
 10
1279.1
 20
-597.2699999999997
 30
0.0
 70
    32
  0
VERTEX
  5
3EC
330
37C
100
AcDbEntity
  8
ﾚｲﾔ_1
 62
     5
100
AcDbVertex
100
AcDb3dPolylineVertex
 10
1279.11
 20
-597.2709999999998
 30
0.0
 70
    32
  0
VERTEX
  5
3ED
330
37C
100
AcDbEntity
  8
ﾚｲﾔ_1
 62
     5
100
AcDbVertex
100
AcDb3dPolylineVertex
 10
1279.11
 20
-597.2719999999998
 30
0.0
 70
    32
  0
VERTEX
  5
3EE
330
37C
100
AcDbEntity
  8
ﾚｲﾔ_1
 62
     5
100
AcDbVertex
100
AcDb3dPolylineVertex
 10
1279.12
 20
-597.273
 30
0.0
 70
    32
  0
VERTEX
  5
3EF
330
37C
100
AcDbEntity
  8
ﾚｲﾔ_1
 62
     5
100
AcDbVertex
100
AcDb3dPolylineVertex
 10
1279.13
 20
-597.2749999999997
 30
0.0
 70
    32
  0
VERTEX
  5
3F0
330
37C
100
AcDbEntity
  8
ﾚｲﾔ_1
 62
     5
100
AcDbVertex
100
AcDb3dPolylineVertex
 10
1279.14
 20
-597.276
 30
0.0
 70
    32
  0
VERTEX
  5
3F1
330
37C
100
AcDbEntity
  8
ﾚｲﾔ_1
 62
     5
100
AcDbVertex
100
AcDb3dPolylineVertex
 10
1279.14
 20
-597.2769999999997
 30
0.0
 70
    32
  0
VERTEX
  5
3F2
330
37C
100
AcDbEntity
  8
ﾚｲﾔ_1
 62
     5
100
AcDbVertex
100
AcDb3dPolylineVertex
 10
1279.15
 20
-597.278
 30
0.0
 70
    32
  0
VERTEX
  5
3F3
330
37C
100
AcDbEntity
  8
ﾚｲﾔ_1
 62
     5
100
AcDbVertex
100
AcDb3dPolylineVertex
 10
1279.16
 20
-597.2799999999997
 30
0.0
 70
    32
  0
VERTEX
  5
3F4
330
37C
100
AcDbEntity
  8
ﾚｲﾔ_1
 62
     5
100
AcDbVertex
100
AcDb3dPolylineVertex
 10
1279.17
 20
-597.2809999999999
 30
0.0
 70
    32
  0
VERTEX
  5
3F5
330
37C
100
AcDbEntity
  8
ﾚｲﾔ_1
 62
     5
100
AcDbVertex
100
AcDb3dPolylineVertex
 10
1279.17
 20
-597.2819999999997
 30
0.0
 70
    32
  0
VERTEX
  5
3F6
330
37C
100
AcDbEntity
  8
ﾚｲﾔ_1
 62
     5
100
AcDbVertex
100
AcDb3dPolylineVertex
 10
1279.18
 20
-597.283
 30
0.0
 70
    32
  0
VERTEX
  5
3F7
330
37C
100
AcDbEntity
  8
ﾚｲﾔ_1
 62
     5
100
AcDbVertex
100
AcDb3dPolylineVertex
 10
1279.19
 20
-597.285
 30
0.0
 70
    32
  0
VERTEX
  5
3F8
330
37C
100
AcDbEntity
  8
ﾚｲﾔ_1
 62
     5
100
AcDbVertex
100
AcDb3dPolylineVertex
 10
1279.2
 20
-597.2859999999999
 30
0.0
 70
    32
  0
VERTEX
  5
3F9
330
37C
100
AcDbEntity
  8
ﾚｲﾔ_1
 62
     5
100
AcDbVertex
100
AcDb3dPolylineVertex
 10
1279.2
 20
-597.2869999999998
 30
0.0
 70
    32
  0
VERTEX
  5
3FA
330
37C
100
AcDbEntity
  8
ﾚｲﾔ_1
 62
     5
100
AcDbVertex
100
AcDb3dPolylineVertex
 10
1279.21
 20
-597.2879999999999
 30
0.0
 70
    32
  0
VERTEX
  5
3FB
330
37C
100
AcDbEntity
  8
ﾚｲﾔ_1
 62
     5
100
AcDbVertex
100
AcDb3dPolylineVertex
 10
1279.22
 20
-597.29
 30
0.0
 70
    32
  0
VERTEX
  5
3FC
330
37C
100
AcDbEntity
  8
ﾚｲﾔ_1
 62
     5
100
AcDbVertex
100
AcDb3dPolylineVertex
 10
1279.23
 20
-597.2910000000001
 30
0.0
 70
    32
  0
SEQEND
  5
3FD
330
37C
100
AcDbEntity
  8
ﾚｲﾔ_1
 62
     5
  0
ARC
  5
8D
330
616
100
AcDbEntity
  8
ﾚｲﾔ_1
 62
     5
100
AcDbCircle
 10
1170.2588220835
 20
-619.6443547497
 30
0.0
 40
65.8
100
AcDbArc
 50
41.03910595179999
 51
60.26377003970001
  0
ARC
  5
8E
330
616
100
AcDbEntity
  8
ﾚｲﾔ_1
 62
     5
100
AcDbCircle
 10
1170.2588220835
 20
-619.6443547497
 30
0.0
 40
65.0
100
AcDbArc
 50
41.03910595179999
 51
60.26377003970001
  0
ARC
  5
8F
330
616
100
AcDbEntity
  8
ﾚｲﾔ_1
100
AcDbCircle
 10
1216.7913487969
 20
-529.5301906539999
 30
0.0
 40
0.7107692308
100
AcDbArc
 50
90.00000424410002
 51
270.0000340545
  0
LINE
  5
90
330
616
100
AcDbEntity
  8
ﾚｲﾔ_1
100
AcDbLine
 10
1221.1851930436
 20
-530.2409598848
 30
0.0
 11
1216.7913487899
 21
-530.2409598848
 31
0.0
  0
LINE
  5
91
330
616
100
AcDbEntity
  8
ﾚｲﾔ_1
100
AcDbLine
 10
1221.1851930436
 20
-528.8194214231999
 30
0.0
 11
1216.7913487443
 21
-528.8194214231999
 31
0.0
  0
LINE
  5
92
330
616
100
AcDbEntity
  8
ﾚｲﾔ_1
  6
STITCH
100
AcDbLine
 10
1221.5913468898
 20
-528.130190654
 30
0.0
 11
1216.791346849
 21
-528.130190654
 31
0.0
  0
ARC
  5
93
330
616
100
AcDbEntity
  8
ﾚｲﾔ_1
 62
     5
100
AcDbCircle
 10
1220.7913468898
 20
-559.4670456420999
 30
0.0
 40
0.8
100
AcDbArc
 50
270.0
 51
0.0
  0
LINE
  5
94
330
616
100
AcDbEntity
  8
ﾚｲﾔ_1
 62
     5
100
AcDbLine
 10
1219.7913468898
 20
-559.4670456420999
 30
0.0
 11
1219.7913468898
 21
-560.2670456421
 31
0.0
  0
LINE
  5
95
330
616
100
AcDbEntity
  8
ﾚｲﾔ_1
 62
     5
100
AcDbLine
 10
1203.4913467823
 20
-560.2670456421
 30
0.0
 11
1220.7913468898
 21
-560.2670456421
 31
0.0
  0
LINE
  5
96
330
616
100
AcDbEntity
  8
ﾚｲﾔ_1
 62
     5
100
AcDbLine
 10
1274.56173745
 20
-595.0909791429999
 30
0.0
 11
1272.96173745
 21
-595.0909791429999
 31
0.0
  0
LINE
  5
97
330
616
100
AcDbEntity
  8
ﾚｲﾔ_1
 62
     5
100
AcDbLine
 10
1282.7518246645
 20
-597.530979143
 30
0.0
 11
1283.7129729335
 21
-597.530979143
 31
0.0
  0
LINE
  5
98
330
616
100
AcDbEntity
  8
ﾚｲﾔ_1
 62
     5
100
AcDbLine
 10
1272.16173745
 20
-597.090979143
 30
0.0
 11
1272.16173745
 21
-596.490979143
 31
0.0
  0
LINE
  5
99
330
616
100
AcDbEntity
  8
ﾚｲﾔ_1
 62
     5
100
AcDbLine
 10
1280.1129729335
 20
-596.810979143
 30
0.0
 11
1280.1129729335
 21
-597.530979143
 31
0.0
  0
LINE
  5
9A
330
616
100
AcDbEntity
  8
ﾚｲﾔ_1
 62
     5
100
AcDbLine
 10
1280.1129729335
 20
-596.490979143
 30
0.0
 11
1281.3236396002
 21
-596.490979143
 31
0.0
  0
LINE
  5
9B
330
616
100
AcDbEntity
  8
ﾚｲﾔ_1
 62
     5
100
AcDbLine
 10
1273.96173745
 20
-596.6909791430001
 30
0.0
 11
1273.96173745
 21
-596.490979143
 31
0.0
  0
LINE
  5
9C
330
616
100
AcDbEntity
  8
ﾚｲﾔ_1
 62
     5
100
AcDbLine
 10
1275.6259798742
 20
-596.0198232499999
 30
0.0
 11
1277.2259798742
 21
-596.0198232499999
 31
0.0
  0
LINE
  5
9D
330
616
100
AcDbEntity
  8
ﾚｲﾔ_1
 62
     5
100
AcDbLine
 10
1277.4405048709
 20
-596.4986075049997
 30
0.0
 11
1277.3442665484
 21
-596.6049028492
 31
0.0
  0
ARC
  5
9E
330
616
100
AcDbEntity
  8
ﾚｲﾔ_1
 62
     5
100
AcDbCircle
 10
1272.36173745
 20
-596.6909791430001
 30
0.0
 40
0.6
100
AcDbArc
 50
270.0
 51
0.0
  0
LINE
  5
9F
330
616
100
AcDbEntity
  8
ﾚｲﾔ_1
 62
     5
100
AcDbLine
 10
1272.96173745
 20
-595.0909791429999
 30
0.0
 11
1272.96173745
 21
-595.8909791429999
 31
0.0
  0
LINE
  5
A0
330
616
100
AcDbEntity
  8
ﾚｲﾔ_1
 62
     5
100
AcDbLine
 10
1282.4525493076
 20
-596.490979143
 30
0.0
 11
1283.7129729335
 21
-596.490979143
 31
0.0
  0
LINE
  5
A1
330
616
100
AcDbEntity
  8
ﾚｲﾔ_1
 62
     5
100
AcDbLine
 10
1278.8259798742
 20
-595.6909791430001
 30
0.0
 11
1279.2259798742
 21
-595.0909791429999
 31
0.0
  0
LINE
  5
A2
330
616
100
AcDbEntity
  8
ﾚｲﾔ_1
 62
     5
100
AcDbLine
 10
1281.4175062669
 20
-596.810979143
 30
0.0
 11
1281.3236396002
 21
-596.490979143
 31
0.0
  0
LINE
  5
A3
330
616
100
AcDbEntity
  8
ﾚｲﾔ_1
 62
     5
100
AcDbLine
 10
1273.96173745
 20
-595.6909791430001
 30
0.0
 11
1274.56173745
 21
-595.0909791429999
 31
0.0
  0
LINE
  5
A4
330
616
100
AcDbEntity
  8
ﾚｲﾔ_1
 62
     5
100
AcDbLine
 10
1271.16173745
 20
-597.090979143
 30
0.0
 11
1272.16173745
 21
-597.090979143
 31
0.0
  0
LINE
  5
A5
330
616
100
AcDbEntity
  8
ﾚｲﾔ_1
 62
     5
100
AcDbLine
 10
1279.2259798742
 20
-595.0909791429999
 30
0.0
 11
1275.6259798742
 21
-595.0909791429999
 31
0.0
  0
LINE
  5
A6
330
616
100
AcDbEntity
  8
ﾚｲﾔ_1
 62
     5
100
AcDbLine
 10
1282.245358676
 20
-595.770979143
 30
0.0
 11
1282.1868009759
 21
-595.5674875867996
 31
0.0
  0
LINE
  5
A7
330
616
100
AcDbEntity
  8
ﾚｲﾔ_1
 62
     5
100
AcDbLine
 10
1280.1129729335
 20
-597.530979143
 30
0.0
 11
1281.6287062669
 21
-597.530979143
 31
0.0
  0
ARC
  5
A8
330
616
100
AcDbEntity
  8
ﾚｲﾔ_1
 62
     5
100
AcDbCircle
 10
1276.6259798742
 20
-595.6909791430001
 30
0.0
 40
2.2
100
AcDbArc
 50
322.4876119797
 51
0.0
  0
LINE
  5
A9
330
616
100
AcDbEntity
  8
ﾚｲﾔ_1
 62
     5
100
AcDbLine
 10
1282.5446340328
 20
-596.810979143
 30
0.0
 11
1283.7129729335
 21
-596.810979143
 31
0.0
  0
LINE
  5
AA
330
616
100
AcDbEntity
  8
ﾚｲﾔ_1
 62
     5
100
AcDbLine
 10
1282.9129729335
 20
-598.090979143
 30
0.0
 11
1282.7518246645
 21
-597.530979143
 31
0.0
  0
LINE
  5
AB
330
616
100
AcDbEntity
  8
ﾚｲﾔ_1
 62
     5
100
AcDbLine
 10
1272.16173745
 20
-596.490979143
 30
0.0
 11
1272.96173745
 21
-596.490979143
 31
0.0
  0
LINE
  5
AC
330
616
100
AcDbEntity
  8
ﾚｲﾔ_1
 62
     5
100
AcDbLine
 10
1272.96173745
 20
-596.490979143
 30
0.0
 11
1272.96173745
 21
-596.6909791430001
 31
0.0
  0
LINE
  5
AD
330
616
100
AcDbEntity
  8
ﾚｲﾔ_1
 62
     5
100
AcDbLine
 10
1280.1129729335
 20
-595.770979143
 30
0.0
 11
1281.1124396002
 21
-595.770979143
 31
0.0
  0
LINE
  5
AE
330
616
100
AcDbEntity
  8
ﾚｲﾔ_1
 62
     5
100
AcDbLine
 10
1273.96173745
 20
-595.8909791429999
 30
0.0
 11
1273.96173745
 21
-595.6909791430001
 31
0.0
  0
LINE
  5
AF
330
616
100
AcDbEntity
  8
ﾚｲﾔ_1
100
AcDbLine
 10
1255.063136767
 20
-592.2800483297
 30
0.0
 11
1269.063136767
 21
-592.2800483297
 31
0.0
  0
LINE
  5
B0
330
616
100
AcDbEntity
  8
ﾚｲﾔ_1
100
AcDbLine
 10
1271.063136767
 20
-588.0300483296998
 30
0.0
 11
1277.063136767
 21
-588.0300483296998
 31
0.0
  0
LINE
  5
B1
330
616
100
AcDbEntity
  8
ﾚｲﾔ_1
100
AcDbLine
 10
1271.063136767
 20
-592.2800483297
 30
0.0
 11
1277.063136767
 21
-592.2800483297
 31
0.0
  0
INSERT
  5
B2
330
616
100
AcDbEntity
  8
0
  6
Continuous
100
AcDbBlockReference
  2
*U11
 10
0.0
 20
0.0
 30
0.0
  0
INSERT
  5
B3
330
616
100
AcDbEntity
  8
0
  6
Continuous
100
AcDbBlockReference
  2
*U12
 10
0.0
 20
0.0
 30
0.0
  0
ARC
  5
B4
330
616
100
AcDbEntity
  8
ﾚｲﾔ_1
 62
     5
100
AcDbCircle
 10
1276.1059798742
 20
-595.770979143
 30
0.0
 40
1.52
100
AcDbArc
 50
331.3992813833
 51
358.4920422458
  0
LINE
  5
B5
330
616
100
AcDbEntity
  8
ﾚｲﾔ_1
 62
     5
100
AcDbLine
 10
1275.6259798742
 20
-597.8909791429997
 30
0.0
 11
1276.6259798742
 21
-597.8909791429997
 31
0.0
  0
LINE
  5
B6
330
616
100
AcDbEntity
  8
ﾚｲﾔ_1
 62
     5
100
AcDbLine
 10
1271.16173745
 20
-597.8909791429997
 30
0.0
 11
1272.76173745
 21
-597.8909791429997
 31
0.0
  0
LINE
  5
B7
330
616
100
AcDbEntity
  8
ﾚｲﾔ_1
 62
     5
100
AcDbLine
 10
1278.8259798742
 20
-595.6909791430001
 30
0.0
 11
1279.2259798742
 21
-595.0909791429999
 31
0.0
  0
LINE
  5
B8
330
616
100
AcDbEntity
  8
ﾚｲﾔ_1
 62
     5
100
AcDbLine
 10
1280.9129729335
 20
-595.0909791429999
 30
0.0
 11
1282.5129729335
 21
-595.0909791429999
 31
0.0
  0
LINE
  5
B9
330
616
100
AcDbEntity
  8
ﾚｲﾔ_1
 62
     5
100
AcDbLine
 10
1275.6259798742
 20
-597.2909791430001
 30
0.0
 11
1276.1059798742
 21
-597.2909791430001
 31
0.0
  0
LINE
  5
BA
330
616
100
AcDbEntity
  8
ﾚｲﾔ_1
 62
     5
100
AcDbLine
 10
1275.6259798742
 20
-597.2909791430001
 30
0.0
 11
1275.6259798742
 21
-597.8909791429997
 31
0.0
  0
ARC
  5
BB
330
616
100
AcDbEntity
  8
ﾚｲﾔ_1
 62
     5
100
AcDbCircle
 10
1276.1059798742
 20
-595.770979143
 30
0.0
 40
1.52
100
AcDbArc
 50
270.0
 51
298.0859048152
  0
LINE
  5
BC
330
616
100
AcDbEntity
  8
ﾚｲﾔ_1
 62
     5
100
AcDbLine
 10
1278.3710676151
 20
-597.0306316265999
 30
0.0
 11
1278.2998267911
 21
-597.1003828841999
 31
0.0
  0
LINE
  5
BD
330
616
100
AcDbEntity
  8
ﾚｲﾔ_1
 62
     5
100
AcDbLine
 10
1271.16173745
 20
-596.490979143
 30
0.0
 11
1271.16173745
 21
-597.090979143
 31
0.0
  0
INSERT
  5
BE
330
616
100
AcDbEntity
  8
0
  6
Continuous
100
AcDbBlockReference
  2
*U13
 10
0.0
 20
0.0
 30
0.0
  0
LINE
  5
BF
330
616
100
AcDbEntity
  8
ﾚｲﾔ_1
 62
     5
100
AcDbLine
 10
1282.245358676
 20
-595.770979143
 30
0.0
 11
1283.7129729335
 21
-595.770979143
 31
0.0
  0
LINE
  5
C0
330
616
100
AcDbEntity
  8
ﾚｲﾔ_1
 62
     5
100
AcDbLine
 10
1281.1124396002
 20
-595.770979143
 30
0.0
 11
1280.9129729335
 21
-595.0909791429999
 31
0.0
  0
LINE
  5
C1
330
616
100
AcDbEntity
  8
ﾚｲﾔ_1
 62
     5
100
AcDbLine
 10
1271.16173745
 20
-595.0909791429999
 30
0.0
 11
1271.16173745
 21
-595.8909791429999
 31
0.0
  0
LINE
  5
C2
330
616
100
AcDbEntity
  8
ﾚｲﾔ_1
 62
     5
100
AcDbLine
 10
1272.16173745
 20
-595.6909791430001
 30
0.0
 11
1272.76173745
 21
-595.0909791429999
 31
0.0
  0
LINE
  5
C3
330
616
100
AcDbEntity
  8
ﾚｲﾔ_1
 62
     5
100
AcDbLine
 10
1272.76173745
 20
-595.0909791429999
 30
0.0
 11
1271.16173745
 21
-595.0909791429999
 31
0.0
  0
LINE
  5
C4
330
616
100
AcDbEntity
  8
ﾚｲﾔ_1
 62
     5
100
AcDbLine
 10
1272.96173745
 20
-595.8909791429999
 30
0.0
 11
1272.16173745
 21
-595.8909791429999
 31
0.0
  0
LINE
  5
C5
330
616
100
AcDbEntity
  8
ﾚｲﾔ_1
 62
     5
100
AcDbLine
 10
1282.1868009759
 20
-595.5674875867996
 30
0.0
 11
1282.5129729335
 21
-595.0909791429999
 31
0.0
  0
ARC
  5
C6
330
616
100
AcDbEntity
  8
ﾚｲﾔ_1
 62
     5
100
AcDbCircle
 10
1272.76173745
 20
-596.6909791430001
 30
0.0
 40
1.199999999999999
100
AcDbArc
 50
270.0
 51
0.0
  0
LINE
  5
C7
330
616
100
AcDbEntity
  8
ﾚｲﾔ_1
 62
     5
100
AcDbLine
 10
1275.6259798742
 20
-595.0909791429999
 30
0.0
 11
1275.6259798742
 21
-595.810979143
 31
0.0
  0
INSERT
  5
C8
330
616
100
AcDbEntity
  8
0
  6
Continuous
100
AcDbBlockReference
  2
*U14
 10
0.0
 20
0.0
 30
0.0
  0
INSERT
  5
C9
330
616
100
AcDbEntity
  8
0
  6
Continuous
100
AcDbBlockReference
  2
*U15
 10
0.0
 20
0.0
 30
0.0
  0
LINE
  5
CA
330
616
100
AcDbEntity
  8
ﾚｲﾔ_1
100
AcDbLine
 10
1254.063136767
 20
-590.1550483297
 30
0.0
 11
1278.063136767
 21
-590.1550483297
 31
0.0
  0
LINE
  5
CB
330
616
100
AcDbEntity
  8
ﾚｲﾔ_1
100
AcDbLine
 10
1286.063136767
 20
-590.1550483297
 30
0.0
 11
1314.063136767
 21
-590.1550483297
 31
0.0
  0
LINE
  5
CC
330
616
100
AcDbEntity
  8
ﾚｲﾔ_1
100
AcDbLine
 10
1278.063136767
 20
-588.0300483296998
 30
0.0
 11
1286.063136767
 21
-588.0300483296998
 31
0.0
  0
LINE
  5
CD
330
616
100
AcDbEntity
  8
ﾚｲﾔ_1
 62
     5
100
AcDbLine
 10
1283.7129729335
 20
-595.770979143
 30
0.0
 11
1283.7129729335
 21
-596.490979143
 31
0.0
  0
LINE
  5
CE
330
616
100
AcDbEntity
  8
ﾚｲﾔ_1
 62
     5
100
AcDbLine
 10
1275.6259798742
 20
-595.810979143
 30
0.0
 11
1277.6259798742
 21
-595.810979143
 31
0.0
  0
LINE
  5
CF
330
616
100
AcDbEntity
  8
ﾚｲﾔ_1
 62
     5
100
AcDbLine
 10
1272.36173745
 20
-597.2909791430001
 30
0.0
 11
1271.16173745
 21
-597.2909791430001
 31
0.0
  0
LINE
  5
D0
330
616
100
AcDbEntity
  8
ﾚｲﾔ_1
 62
     5
100
AcDbLine
 10
1281.7929729335
 20
-598.090979143
 30
0.0
 11
1281.6287062669
 21
-597.530979143
 31
0.0
  0
LINE
  5
D1
330
616
100
AcDbEntity
  8
ﾚｲﾔ_1
 62
     5
100
AcDbLine
 10
1282.5446340328
 20
-596.810979143
 30
0.0
 11
1282.4525493076
 21
-596.490979143
 31
0.0
  0
LINE
  5
D2
330
616
100
AcDbEntity
  8
ﾚｲﾔ_1
 62
     5
100
AcDbLine
 10
1271.16173745
 20
-597.2909791430001
 30
0.0
 11
1271.16173745
 21
-597.8909791429997
 31
0.0
  0
LINE
  5
D3
330
616
100
AcDbEntity
  8
ﾚｲﾔ_1
 62
     5
100
AcDbLine
 10
1271.16173745
 20
-596.490979143
 30
0.0
 11
1271.1012959254
 21
-596.490979143
 31
0.0
  0
LINE
  5
D4
330
616
100
AcDbEntity
  8
ﾚｲﾔ_1
 62
     5
100
AcDbLine
 10
1279.2259798742
 20
-597.2909791430001
 30
0.0
 11
1279.2259798742
 21
-597.8909791429997
 31
0.0
  0
LINE
  5
D5
330
616
100
AcDbEntity
  8
ﾚｲﾔ_1
 62
     5
100
AcDbLine
 10
1283.7129729335
 20
-596.810979143
 30
0.0
 11
1283.7129729335
 21
-597.530979143
 31
0.0
  0
LINE
  5
D6
330
616
100
AcDbEntity
  8
ﾚｲﾔ_1
 62
     5
100
AcDbLine
 10
1271.16173745
 20
-595.8909791429999
 30
0.0
 11
1270.7012959254
 21
-595.8909791429999
 31
0.0
  0
LINE
  5
D7
330
616
100
AcDbEntity
  8
ﾚｲﾔ_1
 62
     5
100
AcDbLine
 10
1275.6259798742
 20
-597.8909791429997
 30
0.0
 11
1275.6259798742
 21
-597.2909791430001
 31
0.0
  0
LINE
  5
D8
330
616
100
AcDbEntity
  8
ﾚｲﾔ_1
 62
     5
100
AcDbLine
 10
1272.16173745
 20
-595.8909791429999
 30
0.0
 11
1272.16173745
 21
-595.6909791430001
 31
0.0
  0
LINE
  5
D9
330
616
100
AcDbEntity
  8
ﾚｲﾔ_1
 62
     5
100
AcDbLine
 10
1281.7929729335
 20
-598.090979143
 30
0.0
 11
1282.9129729335
 21
-598.090979143
 31
0.0
  0
LINE
  5
DA
330
616
100
AcDbEntity
  8
ﾚｲﾔ_1
 62
     5
100
AcDbLine
 10
1274.56173745
 20
-595.8909791429999
 30
0.0
 11
1274.56173745
 21
-596.490979143
 31
0.0
  0
LINE
  5
DB
330
616
100
AcDbEntity
  8
ﾚｲﾔ_1
 62
     5
100
AcDbLine
 10
1270.7012959254
 20
-595.8909791429999
 30
0.0
 11
1270.7012959254
 21
-596.490979143
 31
0.0
  0
LINE
  5
DC
330
616
100
AcDbEntity
  8
ﾚｲﾔ_1
 62
     5
100
AcDbLine
 10
1275.6259798742
 20
-596.148667357
 30
0.0
 11
1275.6259798742
 21
-596.0198232499999
 31
0.0
  0
LINE
  5
DD
330
616
100
AcDbEntity
  8
ﾚｲﾔ_1
 62
     5
100
AcDbLine
 10
1277.2259798742
 20
-596.0198232499999
 30
0.0
 11
1276.9997057042
 21
-596.2460974199
 31
0.0
  0
LINE
  5
DE
330
616
100
AcDbEntity
  8
ﾚｲﾔ_1
100
AcDbLine
 10
1270.063136767
 20
-585.9050483296997
 30
0.0
 11
1270.063136767
 21
-594.4050483296997
 31
0.0
  0
LINE
  5
DF
330
616
100
AcDbEntity
  8
ﾚｲﾔ_1
100
AcDbLine
 10
1255.063136767
 20
-588.0300483296998
 30
0.0
 11
1261.063136767
 21
-588.0300483296998
 31
0.0
  0
LINE
  5
E0
330
616
100
AcDbEntity
  8
ﾚｲﾔ_1
100
AcDbLine
 10
1263.063136767
 20
-588.0300483296998
 30
0.0
 11
1269.063136767
 21
-588.0300483296998
 31
0.0
  0
DIMENSION
  5
F1
330
616
100
AcDbEntity
  8
寸法線
100
AcDbDimension
  2
*D2
 10
1226.5913468898
 20
-532.530190654
 30
0.0
 11
1226.5913468898
 21
-529.5301906539999
 31
0.0
 70
   128
  1
<>
 71
     5
 42
-1.0
  3
STANDARD
100
AcDbAlignedDimension
 13
1221.5913468898
 23
-532.530190654
 33
0.0
 14
1221.5913468898
 24
-526.5301906539999
 34
0.0
 50
90.0
100
AcDbRotatedDimension
  0
DIMENSION
  5
100
330
616
100
AcDbEntity
  8
寸法線
100
AcDbDimension
  2
*D3
 10
1226.5913468898
 20
-535.5301906539999
 30
0.0
 11
1226.5913468898
 21
-534.0301906539999
 31
0.0
 70
   128
  1
<>
 71
     5
 42
-1.0
  3
STANDARD
100
AcDbAlignedDimension
 13
1218.7913470022
 23
-535.5301906539999
 33
0.0
 14
1221.5913468898
 24
-532.530190654
 34
0.0
 50
90.0
100
AcDbRotatedDimension
  0
DIMENSION
  5
10F
330
616
100
AcDbEntity
  8
寸法線
100
AcDbDimension
  2
*D4
 10
1230.6994277265
 20
-535.5301906539999
 30
0.0
 11
1230.6994277265
 21
-529.5301906539999
 31
0.0
 70
   128
  1
<>
 71
     5
 42
-1.0
  3
STANDARD
100
AcDbAlignedDimension
 13
1218.7913470022
 23
-535.5301906539999
 33
0.0
 14
1218.7913466923
 24
-523.530190654
 34
0.0
 50
90.0
100
AcDbRotatedDimension
  0
DIMENSION
  5
11E
330
616
100
AcDbEntity
  8
寸法線
100
AcDbDimension
  2
*D5
 10
1227.6515377483
 20
-578.9670456420999
 30
0.0
 11
1227.6515377483
 21
-567.2170456420999
 31
0.0
 70
   128
  1
<>
 71
     5
 42
-1.0
  3
STANDARD
100
AcDbAlignedDimension
 13
1222.6515377483
 23
-578.9670456420999
 33
0.0
 14
1221.5913468898
 24
-555.4670456420999
 34
0.0
 50
90.0
100
AcDbRotatedDimension
  0
DIMENSION
  5
12D
330
616
100
AcDbEntity
  8
寸法線
100
AcDbDimension
  2
*D6
 10
1195.9932955707
 20
-555.4670456420999
 30
0.0
 11
1195.9932955707
 21
-557.4670456420999
 31
0.0
 70
   128
  1
<>
 71
     5
 42
-1.0
  3
STANDARD
100
AcDbAlignedDimension
 13
1220.7913468898
 23
-555.4670456420999
 33
0.0
 14
1203.4913468188
 24
-559.4670456420999
 34
0.0
 50
90.0
100
AcDbRotatedDimension
  0
DIMENSION
  5
13C
330
616
100
AcDbEntity
  8
寸法線
100
AcDbDimension
  2
*D7
 10
1195.9932955707
 20
-559.4670456420999
 30
0.0
 11
1195.9932955707
 21
-568.2170456420999
 31
0.0
 70
   128
  1
<>
 71
     5
 42
-1.0
  3
STANDARD
100
AcDbAlignedDimension
 13
1203.4913468188
 23
-559.4670456420999
 33
0.0
 14
1219.2858277777
 24
-576.9670456420999
 34
0.0
 50
90.0
100
AcDbRotatedDimension
  0
DIMENSION
  5
14B
330
616
100
AcDbEntity
  8
寸法線
100
AcDbDimension
  2
*D8
 10
1195.9932955707
 20
-576.9670456420999
 30
0.0
 11
1195.9932955707
 21
-577.9670456420999
 31
0.0
 70
   128
  1
<>
 71
     5
 42
-1.0
  3
STANDARD
100
AcDbAlignedDimension
 13
1219.2858277777
 23
-576.9670456420999
 33
0.0
 14
1221.8515377483
 24
-578.9670456420999
 34
0.0
 50
90.0
100
AcDbRotatedDimension
  0
DIMENSION
  5
15A
330
616
100
AcDbEntity
  8
寸法線
100
AcDbDimension
  2
*D9
 10
1221.5913468898
 20
-518.5301906539999
 30
0.0
 11
1211.5413468898
 21
-518.5301906539999
 31
0.0
 70
   128
  1
<>
 71
     5
 42
-1.0
  3
STANDARD
100
AcDbAlignedDimension
 13
1221.5913468898
 23
-526.5301906539999
 33
0.0
 14
1201.4913468898
 24
-523.530190654
 34
0.0
100
AcDbRotatedDimension
  0
DIMENSION
  5
169
330
616
100
AcDbEntity
  8
寸法線
100
AcDbDimension
  2
*D10
 10
1226.5913468898
 20
-526.5301906539999
 30
0.0
 11
1226.5913468898
 21
-525.0301906539999
 31
0.0
 70
   128
  1
<>
 71
     5
 42
-1.0
  3
STANDARD
100
AcDbAlignedDimension
 13
1221.5913468898
 23
-526.5301906539999
 33
0.0
 14
1218.7913466923
 24
-523.530190654
 34
0.0
 50
90.0
100
AcDbRotatedDimension
  0
INSERT
  5
16B
330
616
100
AcDbEntity
  8
0
  6
Continuous
100
AcDbBlockReference
  2
*U17
 10
0.0
 20
0.0
 30
0.0
  0
LINE
  5
16C
330
616
100
AcDbEntity
  8
ﾚｲﾔ_1
 62
     5
100
AcDbLine
 10
1176.563136767
 20
-503.6550483297
 30
0.0
 11
1314.063136767
 21
-503.6550483297
 31
0.0
  0
LINE
  5
16D
330
616
100
AcDbEntity
  8
ﾚｲﾔ_1
 62
     5
100
AcDbLine
 10
1176.563136767
 20
-598.6550483297
 30
0.0
 11
1314.063136767
 21
-598.6550483297
 31
0.0
  0
LINE
  5
16E
330
616
100
AcDbEntity
  8
ﾚｲﾔ_1
 62
     5
100
AcDbLine
 10
1176.563136767
 20
-598.6550483297
 30
0.0
 11
1176.563136767
 21
-503.6550483297
 31
0.0
  0
LINE
  5
16F
330
616
100
AcDbEntity
  8
ﾚｲﾔ_1
 62
     5
100
AcDbLine
 10
1314.063136767
 20
-598.6550483297
 30
0.0
 11
1314.063136767
 21
-503.6550483297
 31
0.0
  0
INSERT
  5
170
330
616
100
AcDbEntity
  8
0
  6
Continuous
100
AcDbBlockReference
  2
*U18
 10
0.0
 20
0.0
 30
0.0
  0
INSERT
  5
171
330
616
100
AcDbEntity
  8
0
  6
Continuous
100
AcDbBlockReference
  2
*U19
 10
0.0
 20
0.0
 30
0.0
  0
INSERT
  5
172
330
616
100
AcDbEntity
  8
0
  6
Continuous
100
AcDbBlockReference
  2
*U20
 10
0.0
 20
0.0
 30
0.0
  0
INSERT
  5
173
330
616
100
AcDbEntity
  8
0
  6
Continuous
100
AcDbBlockReference
  2
*U21
 10
0.0
 20
0.0
 30
0.0
  0
INSERT
  5
175
330
616
100
AcDbEntity
  8
0
  6
Continuous
100
AcDbBlockReference
  2
*U23
 10
0.0
 20
0.0
 30
0.0
  0
INSERT
  5
176
330
616
100
AcDbEntity
  8
0
  6
Continuous
100
AcDbBlockReference
  2
*U24
 10
0.0
 20
0.0
 30
0.0
  0
INSERT
  5
177
330
616
100
AcDbEntity
  8
0
  6
Continuous
100
AcDbBlockReference
  2
*U25
 10
0.0
 20
0.0
 30
0.0
  0
INSERT
  5
178
330
616
100
AcDbEntity
  8
0
  6
Continuous
100
AcDbBlockReference
  2
*U26
 10
0.0
 20
0.0
 30
0.0
  0
INSERT
  5
179
330
616
100
AcDbEntity
  8
0
  6
Continuous
100
AcDbBlockReference
  2
*U27
 10
0.0
 20
0.0
 30
0.0
  0
MTEXT
  5
A1C
102
{ACAD_XDICTIONARY
360
A8C
102
}
330
616
100
AcDbEntity
  8
0
  6
Continuous
370
     0
100
AcDbMText
 10
1254.562644475086
 20
-583.4688040197502
 30
0.0
 40
0.984375
 41
33.75
 71
     4
 72
     5
  1
{\fMS PGothic|b0|i0|c0|p50;\U+25A0\fMS PGothic|b0|i0|c128|p50;品　番\P　　 ＬＳ\fMS PGothic|b0|i0|c0|p50;-7\fMS PGothic|b0|i0|c128|p50;19Ｂ・・・黒塗装}
  7
ゴシック
 73
     1
 44
1.0
1001
ACAD
1000
MTEXTBEGIN
1070
    73
1070
     1
1070
    44
1040
1.0
1070
    74
1070
     0
1000
MTEXTEND
  0
TEXT
  5
A33
330
616
100
AcDbEntity
  8
ﾚｲﾔ_1
  6
Continuous
 62
     5
100
AcDbText
 10
1256.173558721315
 20
-589.5515650333999
 30
0.0
 40
1.168749999999999
  1
H13.3
  7
ゴシック
100
AcDbText
  0
MTEXT
  5
A34
330
616
100
AcDbEntity
  8
0
  6
Continuous
370
     0
100
AcDbMText
 10
1291.577564217743
 20
-588.3985108151622
 30
0.0
 40
1.96875
 41
67.5
 71
     4
 72
     5
  1
{\fMS PGothic|b0|i0|c128|p50;ＬＳ\fMS PGothic|b0|i0|c0|p50;-7\fMS PGothic|b0|i0|c128|p50;19Ｂ}
  7
ゴシック
 73
     1
 44
1.0
1001
ACAD
1000
MTEXTBEGIN
1070
    73
1070
     1
1070
    44
1040
1.0
1070
    74
1070
     0
1000
MTEXTEND
  0
ENDSEC
  0
SECTION
  2
OBJECTS
  0
DICTIONARY
  5
5B3
330
0
100
AcDbDictionary
281
     1
  3
ACAD_CIP_PREVIOUS_PRODUCT_INFO
350
66E
  3
ACAD_COLOR
350
609
  3
ACAD_DETAILVIEWSTYLE
350
610
  3
ACAD_GROUP
350
5B4
  3
ACAD_LAYOUT
350
608
  3
ACAD_MATERIAL
350
5B7
  3
ACAD_MLEADERSTYLE
350
60C
  3
ACAD_MLINESTYLE
350
605
  3
ACAD_PLOTSETTINGS
350
607
  3
ACAD_PLOTSTYLENAME
350
5B5
  3
ACAD_SCALELIST
350
5E9
  3
ACAD_SECTIONVIEWSTYLE
350
60E
  3
ACAD_TABLESTYLE
350
60A
  3
ACAD_VISUALSTYLE
350
5D0
  3
ACDB_RECOMPOSE_DATA
350
A4B
  3
AcDbVariableDictionary
350
A3F
  3
DWGPROPS
350
A4C
  0
DICTIONARY
  5
A15
330
5A9
100
AcDbDictionary
280
     1
281
     1
  3
ACAD_LAYERSTATES
360
A16
  0
DICTIONARY
  5
A35
330
5FB
100
AcDbDictionary
280
     1
281
     1
  3
ADSK_XREC_LAYER_RECONCILED
360
A36
  0
DICTIONARY
  5
A37
330
626
100
AcDbDictionary
280
     1
281
     1
  3
ADSK_XREC_LAYER_RECONCILED
360
A38
  0
DICTIONARY
  5
A39
330
627
100
AcDbDictionary
280
     1
281
     1
  3
ADSK_XREC_LAYER_RECONCILED
360
A3A
  0
DICTIONARY
  5
A3B
330
628
100
AcDbDictionary
280
     1
281
     1
  3
ADSK_XREC_LAYER_RECONCILED
360
A3C
  0
DICTIONARY
  5
A3D
330
A0F
100
AcDbDictionary
280
     1
281
     1
  3
ADSK_XREC_LAYER_RECONCILED
360
A3E
  0
DICTIONARY
  5
A31
330
616
100
AcDbDictionary
280
     1
281
     1
  3
ACAD_SORTENTS
360
A32
  0
DICTIONARY
  5
A8C
330
A1C
100
AcDbDictionary
280
     1
281
     1
  3
ACAD_MTEXT_RT
360
A8D
  0
XRECORD
  5
66E
102
{ACAD_REACTORS
330
5B3
102
}
330
5B3
100
AcDbXrecord
280
     1
300
ACDLT
300
2015
300
ACDLT_F_S
  0
DICTIONARY
  5
609
102
{ACAD_REACTORS
330
5B3
102
}
330
5B3
100
AcDbDictionary
281
     1
  0
DICTIONARY
  5
610
102
{ACAD_REACTORS
330
5B3
102
}
330
5B3
100
AcDbDictionary
281
     1
  3
Imperial24
350
611
  0
DICTIONARY
  5
5B4
102
{ACAD_REACTORS
330
5B3
102
}
330
5B3
100
AcDbDictionary
281
     1
  0
DICTIONARY
  5
608
102
{ACAD_REACTORS
330
5B3
102
}
330
5B3
100
AcDbDictionary
281
     1
  3
Model
350
619
  3
レイアウト1
350
615
  0
DICTIONARY
  5
5B7
102
{ACAD_REACTORS
330
5B3
102
}
330
5B3
100
AcDbDictionary
281
     1
  3
ByBlock
350
5C0
  3
ByLayer
350
5B8
  3
Global
350
5C8
  0
DICTIONARY
  5
60C
102
{ACAD_REACTORS
330
5B3
102
}
330
5B3
100
AcDbDictionary
281
     1
  3
Standard
350
60D
  0
DICTIONARY
  5
605
102
{ACAD_REACTORS
330
5B3
102
}
330
5B3
100
AcDbDictionary
281
     1
  3
Standard
350
606
  0
DICTIONARY
  5
607
102
{ACAD_REACTORS
330
5B3
102
}
330
5B3
100
AcDbDictionary
281
     1
  0
ACDBDICTIONARYWDFLT
  5
5B5
102
{ACAD_REACTORS
330
5B3
102
}
330
5B3
100
AcDbDictionary
281
     1
  3
Normal
350
5B6
100
AcDbDictionaryWithDefault
340
5B6
  0
DICTIONARY
  5
5E9
102
{ACAD_REACTORS
330
5B3
102
}
330
5B3
100
AcDbDictionary
281
     1
  3
A0
350
5EA
  3
A1
350
5EB
  3
A2
350
5EC
  3
A3
350
5ED
  3
A4
350
5EE
  3
A5
350
5EF
  3
A6
350
5F0
  3
A7
350
5F1
  3
A8
350
5F2
  3
A9
350
5F3
  3
B0
350
5F4
  3
B1
350
5F5
  3
B2
350
5F6
  3
B3
350
5F7
  3
B4
350
5F8
  3
B5
350
5F9
  3
B6
350
5FA
  0
DICTIONARY
  5
60E
102
{ACAD_REACTORS
330
5B3
102
}
330
5B3
100
AcDbDictionary
281
     1
  3
Imperial24
350
60F
  0
DICTIONARY
  5
60A
102
{ACAD_REACTORS
330
5B3
102
}
330
5B3
100
AcDbDictionary
281
     1
  3
Standard
350
60B
  0
DICTIONARY
  5
5D0
102
{ACAD_REACTORS
330
5B3
102
}
330
5B3
100
AcDbDictionary
281
     1
  3
2dWireframe
350
5D6
  3
Basic
350
5D5
  3
Brighten
350
5DC
  3
ColorChange
350
5E0
  3
Conceptual
350
5D9
  3
Dim
350
5DB
  3
EdgeColorOff
350
5E8
  3
Facepattern
350
5DF
  3
Flat
350
5D1
  3
FlatWithEdges
350
5D2
  3
Gouraud
350
5D3
  3
GouraudWithEdges
350
5D4
  3
Hidden
350
5D8
  3
JitterOff
350
5E6
  3
Linepattern
350
5DE
  3
OverhangOff
350
5E7
  3
Realistic
350
5DA
  3
Shaded
350
5E5
  3
Shaded with edges
350
5E4
  3
Shades of Gray
350
5E1
  3
Sketchy
350
5E2
  3
Thicken
350
5DD
  3
Wireframe
350
5D7
  3
X-Ray
350
5E3
  0
XRECORD
  5
A4B
102
{ACAD_REACTORS
330
5B3
102
}
330
5B3
100
AcDbXrecord
280
     1
 90
        1
330
60B
  0
DICTIONARY
  5
A3F
102
{ACAD_REACTORS
330
5B3
102
}
330
5B3
100
AcDbDictionary
281
     1
  3
CANNOSCALE
350
A44
  3
CMLEADERSTYLE
350
A41
  3
CTABLESTYLE
350
A40
  3
CVIEWDETAILSTYLE
350
A42
  3
CVIEWSECTIONSTYLE
350
A43
  3
DIMASSOC
350
A47
  3
INDEXCTL
350
A46
  3
SORTENTS
350
A45
  3
XCLIPFRAME
350
A48
  0
XRECORD
  5
A4C
102
{ACAD_REACTORS
330
5B3
102
}
330
5B3
100
AcDbXrecord
280
     1
  1
DWGPROPS COOKIE
  2

  3

  4

  6

  7

  8
MINATO
  9

300
=
301
=
302
=
303
=
304
=
305
=
306
=
307
=
308
=
309
=
 40
0.0106974189814815
 41
2454858.701748044
 42
2457301.645824468
  1

 90
        0
  0
DICTIONARY
  5
A16
102
{ACAD_REACTORS
330
A15
102
}
330
A15
100
AcDbDictionary
281
     1
  0
XRECORD
  5
A36
102
{ACAD_REACTORS
330
A35
102
}
330
A35
100
AcDbXrecord
280
     1
290
     1
  0
XRECORD
  5
A38
102
{ACAD_REACTORS
330
A37
102
}
330
A37
100
AcDbXrecord
280
     1
290
     1
  0
XRECORD
  5
A3A
102
{ACAD_REACTORS
330
A39
102
}
330
A39
100
AcDbXrecord
280
     1
290
     1
  0
XRECORD
  5
A3C
102
{ACAD_REACTORS
330
A3B
102
}
330
A3B
100
AcDbXrecord
280
     1
290
     1
  0
XRECORD
  5
A3E
102
{ACAD_REACTORS
330
A3D
102
}
330
A3D
100
AcDbXrecord
280
     1
290
     1
  0
SORTENTSTABLE
  5
A32
102
{ACAD_REACTORS
330
A31
102
}
330
A31
100
AcDbSortentsTable
330
616
331
97
  5
97
331
A8
  5
A8
331
B9
  5
B9
331
DB
  5
DB
331
CA
  5
CA
331
82
  5
82
331
71
  5
71
331
60
  5
60
331
4F
  5
4F
331
3E
  5
3E
331
16B
  5
16B
331
15A
  5
15A
331
98
  5
98
331
A9
  5
A9
331
BA
  5
BA
331
DC
  5
DC
331
CB
  5
CB
331
83
  5
83
331
72
  5
72
331
61
  5
61
331
50
  5
50
331
3F
  5
3F
331
258
  5
2DA
331
E0
  5
E0
331
12D
  5
12D
331
16C
  5
16C
331
99
  5
99
331
AA
  5
AA
331
BB
  5
BB
331
DD
  5
DD
331
CC
  5
CC
331
84
  5
84
331
73
  5
73
331
62
  5
62
331
51
  5
51
331
40
  5
40
331
2F
  5
2F
331
16D
  5
16D
331
14B
  5
14B
331
9A
  5
9A
331
AB
  5
AB
331
BC
  5
BC
331
DE
  5
DE
331
CD
  5
CD
331
85
  5
85
331
74
  5
74
331
63
  5
63
331
52
  5
52
331
41
  5
41
331
30
  5
30
331
16E
  5
16E
331
11E
  5
11E
331
9B
  5
9B
331
AC
  5
AC
331
BD
  5
BD
331
DF
  5
DF
331
CE
  5
CE
331
86
  5
86
331
75
  5
75
331
64
  5
64
331
53
  5
53
331
42
  5
42
331
31
  5
31
331
170
  5
170
331
16F
  5
16F
331
9C
  5
9C
331
AD
  5
AD
331
BE
  5
BE
331
CF
  5
CF
331
87
  5
87
331
76
  5
76
331
65
  5
65
331
54
  5
54
331
43
  5
43
331
32
  5
32
331
171
  5
171
331
10F
  5
10F
331
D0
  5
D0
331
88
  5
88
331
9D
  5
9D
331
1D6
  5
258
331
AE
  5
AE
331
BF
  5
BF
331
77
  5
77
331
66
  5
66
331
55
  5
55
331
44
  5
44
331
33
  5
33
331
37C
  5
A2F
331
172
  5
172
331
D1
  5
D1
331
C0
  5
C0
331
2DA
  5
37C
331
78
  5
78
331
9E
  5
9E
331
AF
  5
AF
331
67
  5
67
331
56
  5
56
331
45
  5
45
331
34
  5
34
331
B0
  5
B0
331
173
  5
173
331
13C
  5
13C
331
100
  5
100
331
D2
  5
D2
331
C1
  5
C1
331
79
  5
79
331
68
  5
68
331
9F
  5
9F
331
57
  5
57
331
46
  5
46
331
35
  5
35
331
A0
  5
A0
331
B1
  5
B1
331
D3
  5
D3
331
C2
  5
C2
331
7A
  5
7A
331
69
  5
69
331
58
  5
58
331
47
  5
47
331
36
  5
36
331
90
  5
90
331
A1
  5
A1
331
B2
  5
B2
331
175
  5
176
331
F1
  5
F1
331
D4
  5
D4
331
C3
  5
C3
331
7B
  5
7B
331
6A
  5
6A
331
59
  5
59
331
48
  5
48
331
37
  5
37
331
91
  5
91
331
A2
  5
A2
331
B3
  5
B3
331
C4
  5
C4
331
176
  5
177
331
D5
  5
D5
331
8D
  5
8D
331
7C
  5
7C
331
6B
  5
6B
331
5A
  5
5A
331
49
  5
49
331
38
  5
38
331
92
  5
92
331
A3
  5
A3
331
B4
  5
B4
331
C5
  5
C5
331
177
  5
178
331
A33
  5
175
331
D6
  5
D6
331
8E
  5
8E
331
7D
  5
7D
331
6C
  5
6C
331
5B
  5
5B
331
4A
  5
4A
331
39
  5
39
331
93
  5
93
331
A4
  5
A4
331
B5
  5
B5
331
C6
  5
C6
331
178
  5
179
331
D7
  5
D7
331
8F
  5
8F
331
7E
  5
7E
331
6D
  5
6D
331
5C
  5
5C
331
4B
  5
4B
331
3A
  5
3A
331
94
  5
94
331
A5
  5
A5
331
B6
  5
B6
331
179
  5
1D6
331
D8
  5
D8
331
C7
  5
C7
331
7F
  5
7F
331
6E
  5
6E
331
5D
  5
5D
331
4C
  5
4C
331
3B
  5
3B
331
95
  5
95
331
A6
  5
A6
331
B7
  5
B7
331
A1C
  5
A33
331
D9
  5
D9
331
C8
  5
C8
331
80
  5
80
331
6F
  5
6F
331
5E
  5
5E
331
4D
  5
4D
331
3C
  5
3C
331
169
  5
169
331
96
  5
96
331
A7
  5
A7
331
B8
  5
B8
331
DA
  5
DA
331
C9
  5
C9
331
81
  5
81
331
70
  5
70
331
5F
  5
5F
331
4E
  5
4E
331
3D
  5
3D
  0
XRECORD
  5
A8D
102
{ACAD_REACTORS
330
A8C
102
}
330
A8C
100
AcDbXrecord
280
     1
 40
600105.0
  1
{\fMS PGothic|b0|i0|c0|p50;■\fMS PGothic|b0|i0|c128|p50;品　番\P　　 ＬＳ\fMS PGothic|b0|i0|c0|p50;-7\fMS PGothic|b0|i0|c128|p50;19Ｂ・・・黒塗装}
  0
ACDBDETAILVIEWSTYLE
  5
611
102
{ACAD_XDICTIONARY
360
A84
102
}
102
{ACAD_REACTORS
330
610
102
}
330
610
100
AcDbModelDocViewStyle
 70
     0
  3
Imperial24
290
     0
100
AcDbDetailViewStyle
 70
     0
 71
     0
 90
        3
 71
     1
340
5FC
 40
0.24
340
0
 40
0.24
300

 40
0.36
280
     3
 71
     2
340
603
 90
       25
 71
     3
340
5FC
 40
0.24
 90
        1
 40
0.75
 90
        1
300
%<\AcVar ViewType \f "%tc1">% %<\AcVar ViewDetailId>%\PSCALE %<\AcVar ViewScale \f "%sn">%
 71
     4
340
603
 90
       25
340
603
 90
       25
280
     0
  0
LAYOUT
  5
619
102
{ACAD_XDICTIONARY
360
A88
102
}
102
{ACAD_REACTORS
330
608
102
}
330
608
100
AcDbPlotSettings
  1

  2
EPSON PX-1700F
  4

  6

 40
0.0
 41
0.0
 42
0.0
 43
0.0
 44
0.0
 45
0.0
 46
0.0
 47
0.0
 48
0.0
 49
0.0
140
0.0
141
0.0
142
1.0
143
1.0
 70
  1712
 72
     0
 73
     0
 74
     0
  7

 75
     0
147
1.0
148
0.0
149
0.0
100
AcDbLayout
  1
Model
 70
     1
 71
     0
 10
0.0
 20
0.0
 11
12.0
 21
9.0
 12
0.0
 22
0.0
 32
0.0
 14
0.0
 24
0.0
 34
0.0
 15
0.0
 25
0.0
 35
0.0
146
0.0
 13
0.0
 23
0.0
 33
0.0
 16
1.0
 26
0.0
 36
0.0
 17
0.0
 27
1.0
 37
0.0
 76
     0
330
616
331
61B
  0
LAYOUT
  5
615
102
{ACAD_XDICTIONARY
360
A86
102
}
102
{ACAD_REACTORS
330
608
102
}
330
608
100
AcDbPlotSettings
  1

  2
EPSON PX-1700F
  4

  6

 40
0.0
 41
0.0
 42
0.0
 43
0.0
 44
0.0
 45
0.0
 46
0.0
 47
0.0
 48
0.0
 49
0.0
140
0.0
141
0.0
142
1.0
143
1.0
 70
   688
 72
     0
 73
     0
 74
     5
  7

 75
    16
147
1.0
148
0.0
149
0.0
100
AcDbLayout
  1
レイアウト1
 70
     0
 71
     1
 10
0.0
 20
0.0
 11
12.0
 21
9.0
 12
0.0
 22
0.0
 32
0.0
 14
1.000000000000000E+20
 24
1.000000000000000E+20
 34
1.000000000000000E+20
 15
-1.000000000000000E+20
 25
-1.000000000000000E+20
 35
-1.000000000000000E+20
146
0.0
 13
0.0
 23
0.0
 33
0.0
 16
1.0
 26
0.0
 36
0.0
 17
0.0
 27
1.0
 37
0.0
 76
     0
330
612
  0
MATERIAL
  5
5C0
102
{ACAD_XDICTIONARY
360
5C1
102
}
102
{ACAD_REACTORS
330
5B7
102
}
330
5B7
100
AcDbMaterial
  1
ByBlock
 72
     0
 43
0.0208333333333333
 43
0.0
 43
0.0
 43
0.0
 43
0.0
 43
0.0208333333333333
 43
0.0
 43
0.0
 43
0.0
 43
0.0
 43
1.0
 43
0.0
 43
0.0
 43
0.0
 43
0.0
 43
1.0
 77
     0
 47
0.0208333333333333
 47
0.0
 47
0.0
 47
0.0
 47
0.0
 47
0.0208333333333333
 47
0.0
 47
0.0
 47
0.0
 47
0.0
 47
1.0
 47
0.0
 47
0.0
 47
0.0
 47
0.0
 47
1.0
171
     0
 49
0.0208333333333333
 49
0.0
 49
0.0
 49
0.0
 49
0.0
 49
0.0208333333333333
 49
0.0
 49
0.0
 49
0.0
 49
0.0
 49
1.0
 49
0.0
 49
0.0
 49
0.0
 49
0.0
 49
1.0
175
     0
142
0.0208333333333333
142
0.0
142
0.0
142
0.0
142
0.0
142
0.0208333333333333
142
0.0
142
0.0
142
0.0
142
0.0
142
1.0
142
0.0
142
0.0
142
0.0
142
0.0
142
1.0
179
     0
144
0.0208333333333333
144
0.0
144
0.0
144
0.0
144
0.0
144
0.0208333333333333
144
0.0
144
0.0
144
0.0
144
0.0
144
1.0
144
0.0
144
0.0
144
0.0
144
0.0
144
1.0
147
0.0208333333333333
147
0.0
147
0.0
147
0.0
147
0.0
147
0.0208333333333333
147
0.0
147
0.0
147
0.0
147
0.0
147
1.0
147
0.0
147
0.0
147
0.0
147
0.0
147
1.0
  0
MATERIAL
  5
5B8
102
{ACAD_XDICTIONARY
360
5B9
102
}
102
{ACAD_REACTORS
330
5B7
102
}
330
5B7
100
AcDbMaterial
  1
ByLayer
 72
     0
 43
0.0208333333333333
 43
0.0
 43
0.0
 43
0.0
 43
0.0
 43
0.0208333333333333
 43
0.0
 43
0.0
 43
0.0
 43
0.0
 43
1.0
 43
0.0
 43
0.0
 43
0.0
 43
0.0
 43
1.0
 77
     0
 47
0.0208333333333333
 47
0.0
 47
0.0
 47
0.0
 47
0.0
 47
0.0208333333333333
 47
0.0
 47
0.0
 47
0.0
 47
0.0
 47
1.0
 47
0.0
 47
0.0
 47
0.0
 47
0.0
 47
1.0
171
     0
 49
0.0208333333333333
 49
0.0
 49
0.0
 49
0.0
 49
0.0
 49
0.0208333333333333
 49
0.0
 49
0.0
 49
0.0
 49
0.0
 49
1.0
 49
0.0
 49
0.0
 49
0.0
 49
0.0
 49
1.0
175
     0
142
0.0208333333333333
142
0.0
142
0.0
142
0.0
142
0.0
142
0.0208333333333333
142
0.0
142
0.0
142
0.0
142
0.0
142
1.0
142
0.0
142
0.0
142
0.0
142
0.0
142
1.0
179
     0
144
0.0208333333333333
144
0.0
144
0.0
144
0.0
144
0.0
144
0.0208333333333333
144
0.0
144
0.0
144
0.0
144
0.0
144
1.0
144
0.0
144
0.0
144
0.0
144
0.0
144
1.0
147
0.0208333333333333
147
0.0
147
0.0
147
0.0
147
0.0
147
0.0208333333333333
147
0.0
147
0.0
147
0.0
147
0.0
147
1.0
147
0.0
147
0.0
147
0.0
147
0.0
147
1.0
  0
MATERIAL
  5
5C8
102
{ACAD_XDICTIONARY
360
5C9
102
}
102
{ACAD_REACTORS
330
5B7
102
}
330
5B7
100
AcDbMaterial
  1
Global
 72
     0
 43
0.0208333333333333
 43
0.0
 43
0.0
 43
0.0
 43
0.0
 43
0.0208333333333333
 43
0.0
 43
0.0
 43
0.0
 43
0.0
 43
1.0
 43
0.0
 43
0.0
 43
0.0
 43
0.0
 43
1.0
 77
     0
 47
0.0208333333333333
 47
0.0
 47
0.0
 47
0.0
 47
0.0
 47
0.0208333333333333
 47
0.0
 47
0.0
 47
0.0
 47
0.0
 47
1.0
 47
0.0
 47
0.0
 47
0.0
 47
0.0
 47
1.0
171
     0
 49
0.0208333333333333
 49
0.0
 49
0.0
 49
0.0
 49
0.0
 49
0.0208333333333333
 49
0.0
 49
0.0
 49
0.0
 49
0.0
 49
1.0
 49
0.0
 49
0.0
 49
0.0
 49
0.0
 49
1.0
175
     0
142
0.0208333333333333
142
0.0
142
0.0
142
0.0
142
0.0
142
0.0208333333333333
142
0.0
142
0.0
142
0.0
142
0.0
142
1.0
142
0.0
142
0.0
142
0.0
142
0.0
142
1.0
179
     0
144
0.0208333333333333
144
0.0
144
0.0
144
0.0
144
0.0
144
0.0208333333333333
144
0.0
144
0.0
144
0.0
144
0.0
144
1.0
144
0.0
144
0.0
144
0.0
144
0.0
144
1.0
147
0.0208333333333333
147
0.0
147
0.0
147
0.0
147
0.0
147
0.0208333333333333
147
0.0
147
0.0
147
0.0
147
0.0
147
1.0
147
0.0
147
0.0
147
0.0
147
0.0
147
1.0
  0
MLEADERSTYLE
  5
60D
102
{ACAD_REACTORS
330
60C
102
}
330
60C
100
AcDbMLeaderStyle
170
     2
171
     1
172
     0
 90
        2
 40
0.0
 41
0.0
173
     1
 91
-1056964608
340
601
 92
       -2
290
     1
 42
0.09
291
     1
 43
0.36
  3
Standard
 44
0.18
300

342
5FC
174
     1
178
     6
175
     1
176
     0
 93
-1056964608
 45
0.18
292
     0
297
     0
 46
0.18
 94
-1056964608
 47
1.0
 49
1.0
140
1.0
293
     1
141
0.0
294
     1
177
     0
142
1.0
295
     0
296
     0
143
0.125
1001
ACAD_MLEADERVER
1070
     2
  0
MLINESTYLE
  5
606
102
{ACAD_REACTORS
330
605
102
}
330
605
100
AcDbMlineStyle
  2
STANDARD
 70
     0
  3

 62
   256
 51
90.0
 52
90.0
 71
     2
 49
0.5
 62
   256
  6
BYLAYER
 49
-0.5
 62
   256
  6
BYLAYER
  0
ACDBPLACEHOLDER
  5
5B6
102
{ACAD_REACTORS
330
5B5
102
}
330
5B5
  0
SCALE
  5
5EA
102
{ACAD_REACTORS
330
5E9
102
}
330
5E9
100
AcDbScale
 70
     0
300
1:1
140
1.0
141
1.0
290
     1
  0
SCALE
  5
5EB
102
{ACAD_REACTORS
330
5E9
102
}
330
5E9
100
AcDbScale
 70
     0
300
1/128" = 1'-0"
140
0.0078125
141
12.0
290
     0
  0
SCALE
  5
5EC
102
{ACAD_REACTORS
330
5E9
102
}
330
5E9
100
AcDbScale
 70
     0
300
1/64" = 1'-0"
140
0.015625
141
12.0
290
     0
  0
SCALE
  5
5ED
102
{ACAD_REACTORS
330
5E9
102
}
330
5E9
100
AcDbScale
 70
     0
300
1/32" = 1'-0"
140
0.03125
141
12.0
290
     0
  0
SCALE
  5
5EE
102
{ACAD_REACTORS
330
5E9
102
}
330
5E9
100
AcDbScale
 70
     0
300
1/16" = 1'-0"
140
0.0625
141
12.0
290
     0
  0
SCALE
  5
5EF
102
{ACAD_REACTORS
330
5E9
102
}
330
5E9
100
AcDbScale
 70
     0
300
3/32" = 1'-0"
140
0.09375
141
12.0
290
     0
  0
SCALE
  5
5F0
102
{ACAD_REACTORS
330
5E9
102
}
330
5E9
100
AcDbScale
 70
     0
300
1/8" = 1'-0"
140
0.125
141
12.0
290
     0
  0
SCALE
  5
5F1
102
{ACAD_REACTORS
330
5E9
102
}
330
5E9
100
AcDbScale
 70
     0
300
3/16" = 1'-0"
140
0.1875
141
12.0
290
     0
  0
SCALE
  5
5F2
102
{ACAD_REACTORS
330
5E9
102
}
330
5E9
100
AcDbScale
 70
     0
300
1/4" = 1'-0"
140
0.25
141
12.0
290
     0
  0
SCALE
  5
5F3
102
{ACAD_REACTORS
330
5E9
102
}
330
5E9
100
AcDbScale
 70
     0
300
3/8" = 1'-0"
140
0.375
141
12.0
290
     0
  0
SCALE
  5
5F4
102
{ACAD_REACTORS
330
5E9
102
}
330
5E9
100
AcDbScale
 70
     0
300
1/2" = 1'-0"
140
0.5
141
12.0
290
     0
  0
SCALE
  5
5F5
102
{ACAD_REACTORS
330
5E9
102
}
330
5E9
100
AcDbScale
 70
     0
300
3/4" = 1'-0"
140
0.75
141
12.0
290
     0
  0
SCALE
  5
5F6
102
{ACAD_REACTORS
330
5E9
102
}
330
5E9
100
AcDbScale
 70
     0
300
1" = 1'-0"
140
1.0
141
12.0
290
     0
  0
SCALE
  5
5F7
102
{ACAD_REACTORS
330
5E9
102
}
330
5E9
100
AcDbScale
 70
     0
300
1-1/2" = 1'-0"
140
1.5
141
12.0
290
     0
  0
SCALE
  5
5F8
102
{ACAD_REACTORS
330
5E9
102
}
330
5E9
100
AcDbScale
 70
     0
300
3" = 1'-0"
140
3.0
141
12.0
290
     0
  0
SCALE
  5
5F9
102
{ACAD_REACTORS
330
5E9
102
}
330
5E9
100
AcDbScale
 70
     0
300
6" = 1'-0"
140
6.0
141
12.0
290
     0
  0
SCALE
  5
5FA
102
{ACAD_REACTORS
330
5E9
102
}
330
5E9
100
AcDbScale
 70
     0
300
1'-0" = 1'-0"
140
12.0
141
12.0
290
     0
  0
ACDBSECTIONVIEWSTYLE
  5
60F
102
{ACAD_XDICTIONARY
360
A82
102
}
102
{ACAD_REACTORS
330
60E
102
}
330
60E
100
AcDbModelDocViewStyle
 70
     0
  3
Imperial24
290
     0
100
AcDbSectionViewStyle
 70
     0
 71
     0
 90
       78
 71
     1
340
5FC
 40
0.24
340
0
340
0
 40
0.24
300
I, O, Q, S, X, Z
 40
0.48
 90
        3
 40
0.18
 90
        1
 71
     2
340
603
 90
       25
340
603
 90
       50
 40
0.24
 40
0.0
 40
0.24
 71
     3
340
5FC
 40
0.24
 90
        1
 40
0.75
 90
        1
300
%<\AcVar ViewType \f "%tc1">% %<\AcVar ViewSectionStartId>%-%<\AcVar ViewSectionEndId>%\PSCALE %<\AcVar ViewScale \f "%sn">%
 71
     4
300
ANSI31
 40
1.0
 90
        0
290
     0
290
     0
 90
        6
 40
0.0
 40
1.570796326794896
 40
0.2617993877991494
 40
1.308996938995747
 40
-0.2617993877991494
 40
1.832595714594046
  0
TABLESTYLE
  5
60B
102
{ACAD_XDICTIONARY
360
A49
102
}
102
{ACAD_REACTORS
330
60A
102
}
330
60A
100
AcDbTableStyle
  3
Standard
 70
     0
 71
     0
 40
0.06
 41
0.06
280
     0
281
     0
  7
STANDARD
140
0.18
170
     2
 62
     0
 63
     7
283
     0
274
    -2
284
     1
 64
     0
275
    -2
285
     1
 65
     0
276
    -2
286
     1
 66
     0
277
    -2
287
     1
 67
     0
278
    -2
288
     1
 68
     0
279
    -2
289
     1
 69
     0
  7
STANDARD
140
0.25
170
     5
 62
     0
 63
     7
283
     0
274
    -2
284
     1
 64
     0
275
    -2
285
     1
 65
     0
276
    -2
286
     1
 66
     0
277
    -2
287
     1
 67
     0
278
    -2
288
     1
 68
     0
279
    -2
289
     1
 69
     0
  7
STANDARD
140
0.18
170
     5
 62
     0
 63
     7
283
     0
274
    -2
284
     1
 64
     0
275
    -2
285
     1
 65
     0
276
    -2
286
     1
 66
     0
277
    -2
287
     1
 67
     0
278
    -2
288
     1
 68
     0
279
    -2
289
     1
 69
     0
  0
VISUALSTYLE
  5
5D6
102
{ACAD_XDICTIONARY
360
A5A
102
}
102
{ACAD_REACTORS
330
5D0
102
}
330
5D0
100
AcDbVisualStyle
  2
2dWireframe
 70
     4
 71
     0
 72
     2
 73
     0
 90
        0
 40
-0.6
 41
-30.0
 62
     5
 63
     7
 74
     1
 91
        4
 64
     7
 65
   257
 75
     1
175
     1
 42
1.0
 92
        0
 66
   257
 43
1.0
 76
     1
 77
     6
 78
     2
 67
     7
 79
     5
170
     0
171
     0
290
     0
174
     0
 93
        1
 44
0.0
173
     0
291
     0
 45
0.0
1001
ACAD
1000
AcDbSavedByObjectVersion
1070
     0
  0
VISUALSTYLE
  5
5D5
102
{ACAD_XDICTIONARY
360
A58
102
}
102
{ACAD_REACTORS
330
5D0
102
}
330
5D0
100
AcDbVisualStyle
  2
Basic
 70
     7
 71
     1
 72
     0
 73
     1
 90
        0
 40
-0.6
 41
-30.0
 62
     5
 63
     7
 74
     0
 91
        4
 64
     7
 65
   257
 75
     1
175
     1
 42
1.0
 92
        8
 66
     7
 43
1.0
 76
     1
 77
     6
 78
     2
 67
     7
 79
     5
170
     0
171
     0
290
     0
174
     0
 93
        1
 44
0.0
173
     0
291
     1
 45
0.0
1001
ACAD
1000
AcDbSavedByObjectVersion
1070
     0
  0
VISUALSTYLE
  5
5DC
102
{ACAD_XDICTIONARY
360
A66
102
}
102
{ACAD_REACTORS
330
5D0
102
}
330
5D0
100
AcDbVisualStyle
  2
Brighten
 70
    12
 71
     2
 72
     2
 73
     0
 90
        0
 40
-0.6
 41
-30.0
 62
     5
 63
     7
 74
     1
 91
        4
 64
     7
 65
   257
 75
     1
175
     1
 42
1.0
 92
        8
 66
     7
 43
1.0
 76
     1
 77
     6
 78
     2
 67
     7
 79
     5
170
     0
171
     0
290
     0
174
     0
 93
        1
 44
50.0
173
     0
291
     1
 45
0.0
1001
ACAD
1000
AcDbSavedByObjectVersion
1070
     0
  0
VISUALSTYLE
  5
5E0
102
{ACAD_XDICTIONARY
360
A6E
102
}
102
{ACAD_REACTORS
330
5D0
102
}
330
5D0
100
AcDbVisualStyle
  2
ColorChange
 70
    16
 71
     2
 72
     2
 73
     3
 90
        0
 40
-0.6
 41
-30.0
 62
     5
 63
     8
 74
     1
 91
        4
 64
     7
 65
   257
 75
     1
175
     1
 42
1.0
 92
        8
 66
     8
 43
1.0
 76
     1
 77
     6
 78
     2
 67
     7
 79
     5
170
     0
171
     0
290
     0
174
     0
 93
        1
 44
0.0
173
     0
291
     1
 45
0.0
1001
ACAD
1000
AcDbSavedByObjectVersion
1070
     0
  0
VISUALSTYLE
  5
5D9
102
{ACAD_XDICTIONARY
360
A60
102
}
102
{ACAD_REACTORS
330
5D0
102
}
330
5D0
100
AcDbVisualStyle
  2
Conceptual
 70
     9
 71
     3
 72
     2
 73
     0
 90
        0
 40
-0.6
 41
-30.0
 62
     5
 63
     7
 74
     2
 91
        2
 64
     7
 65
   257
 75
     1
175
     1
 42
179.0
 92
        8
 66
     7
 43
1.0
 76
     1
 77
     6
 78
     2
 67
     7
 79
     3
170
     0
171
     0
290
     0
174
     0
 93
        1
 44
0.0
173
     0
291
     0
 45
0.0
1001
ACAD
1000
AcDbSavedByObjectVersion
1070
     0
  0
VISUALSTYLE
  5
5DB
102
{ACAD_XDICTIONARY
360
A64
102
}
102
{ACAD_REACTORS
330
5D0
102
}
330
5D0
100
AcDbVisualStyle
  2
Dim
 70
    11
 71
     2
 72
     2
 73
     0
 90
        0
 40
-0.6
 41
-30.0
 62
     5
 63
     7
 74
     1
 91
        4
 64
     7
 65
   257
 75
     1
175
     1
 42
1.0
 92
        8
 66
     7
 43
1.0
 76
     1
 77
     6
 78
     2
 67
     7
 79
     5
170
     0
171
     0
290
     0
174
     0
 93
        1
 44
-50.0
173
     0
291
     1
 45
0.0
1001
ACAD
1000
AcDbSavedByObjectVersion
1070
     0
  0
VISUALSTYLE
  5
5E8
102
{ACAD_XDICTIONARY
360
A7E
102
}
102
{ACAD_REACTORS
330
5D0
102
}
330
5D0
100
AcDbVisualStyle
  2
EdgeColorOff
 70
    22
 71
     2
 72
     2
 73
     0
 90
        0
 40
-0.6
 41
-30.0
 62
     5
 63
     7
 74
     1
 91
        4
 64
     7
 65
   257
 75
     1
175
     1
 42
1.0
 92
        8
 66
     7
 43
1.0
 76
     1
 77
     6
 78
     2
 67
     7
 79
     5
170
     0
171
     0
290
     0
174
     0
 93
        1
 44
0.0
173
     0
291
     1
 45
0.0
1001
ACAD
1000
AcDbSavedByObjectVersion
1070
     0
  0
VISUALSTYLE
  5
5DF
102
{ACAD_XDICTIONARY
360
A6C
102
}
102
{ACAD_REACTORS
330
5D0
102
}
330
5D0
100
AcDbVisualStyle
  2
Facepattern
 70
    15
 71
     2
 72
     2
 73
     0
 90
        0
 40
-0.6
 41
-30.0
 62
     5
 63
     7
 74
     1
 91
        4
 64
     7
 65
   257
 75
     1
175
     1
 42
1.0
 92
        8
 66
     7
 43
1.0
 76
     1
 77
     6
 78
     2
 67
     7
 79
     5
170
     0
171
     0
290
     0
174
     0
 93
        1
 44
0.0
173
     0
291
     1
 45
0.0
1001
ACAD
1000
AcDbSavedByObjectVersion
1070
     0
  0
VISUALSTYLE
  5
5D1
102
{ACAD_XDICTIONARY
360
A50
102
}
102
{ACAD_REACTORS
330
5D0
102
}
330
5D0
100
AcDbVisualStyle
  2
Flat
 70
     0
 71
     2
 72
     1
 73
     1
 90
        2
 40
-0.6
 41
30.0
 62
     5
 63
     7
 74
     0
 91
        0
 64
     7
 65
   257
 75
     1
175
     1
 42
1.0
 92
        8
 66
     7
 43
1.0
 76
     1
 77
     6
 78
     2
 67
     7
 79
     5
170
     0
171
     0
290
     0
174
     0
 93
       13
 44
0.0
173
     0
291
     1
 45
0.0
1001
ACAD
1000
AcDbSavedByObjectVersion
1070
     0
  0
VISUALSTYLE
  5
5D2
102
{ACAD_XDICTIONARY
360
A52
102
}
102
{ACAD_REACTORS
330
5D0
102
}
330
5D0
100
AcDbVisualStyle
  2
FlatWithEdges
 70
     1
 71
     2
 72
     1
 73
     1
 90
        2
 40
-0.6
 41
30.0
 62
     5
 63
     7
 74
     1
 91
        0
 64
     7
 65
   257
 75
     1
175
     1
 42
1.0
 92
        0
 66
   257
 43
1.0
 76
     1
 77
     6
 78
     2
 67
     7
 79
     5
170
     0
171
     0
290
     0
174
     0
 93
       13
 44
0.0
173
     0
291
     1
 45
0.0
1001
ACAD
1000
AcDbSavedByObjectVersion
1070
     0
  0
VISUALSTYLE
  5
5D3
102
{ACAD_XDICTIONARY
360
A54
102
}
102
{ACAD_REACTORS
330
5D0
102
}
330
5D0
100
AcDbVisualStyle
  2
Gouraud
 70
     2
 71
     2
 72
     2
 73
     1
 90
        2
 40
-0.6
 41
30.0
 62
     5
 63
     7
 74
     0
 91
        0
 64
     7
 65
   257
 75
     1
175
     1
 42
1.0
 92
        0
 66
     7
 43
1.0
 76
     1
 77
     6
 78
     2
 67
     7
 79
     5
170
     0
171
     0
290
     0
174
     0
 93
       13
 44
0.0
173
     0
291
     1
 45
0.0
1001
ACAD
1000
AcDbSavedByObjectVersion
1070
     0
  0
VISUALSTYLE
  5
5D4
102
{ACAD_XDICTIONARY
360
A56
102
}
102
{ACAD_REACTORS
330
5D0
102
}
330
5D0
100
AcDbVisualStyle
  2
GouraudWithEdges
 70
     3
 71
     2
 72
     2
 73
     1
 90
        2
 40
-0.6
 41
30.0
 62
     5
 63
     7
 74
     1
 91
        0
 64
     7
 65
   257
 75
     1
175
     1
 42
1.0
 92
        0
 66
   257
 43
1.0
 76
     1
 77
     6
 78
     2
 67
     7
 79
     5
170
     0
171
     0
290
     0
174
     0
 93
       13
 44
0.0
173
     0
291
     1
 45
0.0
1001
ACAD
1000
AcDbSavedByObjectVersion
1070
     0
  0
VISUALSTYLE
  5
5D8
102
{ACAD_XDICTIONARY
360
A5E
102
}
102
{ACAD_REACTORS
330
5D0
102
}
330
5D0
100
AcDbVisualStyle
  2
Hidden
 70
     6
 71
     1
 72
     2
 73
     2
 90
        0
 40
-0.6
 41
-30.0
 62
     5
 63
     7
 74
     2
 91
        2
 64
     7
 65
   257
 75
     2
175
     1
 42
40.0
 92
        0
 66
   257
 43
1.0
 76
     1
 77
     6
 78
     2
 67
     7
 79
     3
170
     0
171
     0
290
     0
174
     0
 93
        1
 44
0.0
173
     0
291
     0
 45
0.0
1001
ACAD
1000
AcDbSavedByObjectVersion
1070
     0
  0
VISUALSTYLE
  5
5E6
102
{ACAD_XDICTIONARY
360
A7A
102
}
102
{ACAD_REACTORS
330
5D0
102
}
330
5D0
100
AcDbVisualStyle
  2
JitterOff
 70
    20
 71
     2
 72
     2
 73
     0
 90
        0
 40
-0.6
 41
-30.0
 62
     5
 63
     7
 74
     1
 91
        4
 64
     7
 65
   257
 75
     1
175
     1
 42
1.0
 92
       10
 66
     7
 43
1.0
 76
     1
 77
     6
 78
     2
 67
     7
 79
     5
170
     0
171
     0
290
     0
174
     0
 93
        1
 44
0.0
173
     0
291
     1
 45
0.0
1001
ACAD
1000
AcDbSavedByObjectVersion
1070
     0
  0
VISUALSTYLE
  5
5DE
102
{ACAD_XDICTIONARY
360
A6A
102
}
102
{ACAD_REACTORS
330
5D0
102
}
330
5D0
100
AcDbVisualStyle
  2
Linepattern
 70
    14
 71
     2
 72
     2
 73
     0
 90
        0
 40
-0.6
 41
-30.0
 62
     5
 63
     7
 74
     1
 91
        4
 64
     7
 65
   257
 75
     7
175
     7
 42
1.0
 92
        8
 66
     7
 43
1.0
 76
     1
 77
     6
 78
     2
 67
     7
 79
     5
170
     0
171
     0
290
     0
174
     0
 93
        1
 44
0.0
173
     0
291
     1
 45
0.0
1001
ACAD
1000
AcDbSavedByObjectVersion
1070
     0
  0
VISUALSTYLE
  5
5E7
102
{ACAD_XDICTIONARY
360
A7C
102
}
102
{ACAD_REACTORS
330
5D0
102
}
330
5D0
100
AcDbVisualStyle
  2
OverhangOff
 70
    21
 71
     2
 72
     2
 73
     0
 90
        0
 40
-0.6
 41
-30.0
 62
     5
 63
     7
 74
     1
 91
        4
 64
     7
 65
   257
 75
     1
175
     1
 42
1.0
 92
        9
 66
     7
 43
1.0
 76
     1
 77
     6
 78
     2
 67
     7
 79
     5
170
     0
171
     0
290
     0
174
     0
 93
        1
 44
0.0
173
     0
291
     1
 45
0.0
1001
ACAD
1000
AcDbSavedByObjectVersion
1070
     0
  0
VISUALSTYLE
  5
5DA
102
{ACAD_XDICTIONARY
360
A62
102
}
102
{ACAD_REACTORS
330
5D0
102
}
330
5D0
100
AcDbVisualStyle
  2
Realistic
 70
     8
 71
     2
 72
     3
 73
     0
 90
        2
 40
-0.6
 41
30.0
 62
     5
 63
     7
 74
     0
 91
        0
 64
     7
 65
   257
 75
     1
175
     1
 42
1.0
 92
        8
 66
   257
 43
1.0
 76
     1
 77
     6
 78
     2
 67
     7
 79
     3
170
     0
171
     0
290
     0
174
     0
 93
       13
 44
0.0
173
     0
291
     0
 45
0.0
1001
ACAD
1000
AcDbSavedByObjectVersion
1070
     0
  0
VISUALSTYLE
  5
5E5
102
{ACAD_XDICTIONARY
360
A78
102
}
102
{ACAD_REACTORS
330
5D0
102
}
330
5D0
100
AcDbVisualStyle
  2
Shaded
 70
    27
 71
     2
 72
     2
 73
     1
 90
        2
 40
-0.6
 41
30.0
 62
     5
 63
     7
 74
     0
 91
        4
 64
     7
 65
   257
 75
     1
175
     1
 42
1.0
 92
        8
 66
   257
 43
1.0
 76
     1
 77
     6
 78
     2
 67
     8
 79
     3
170
     0
171
     0
290
     0
174
     0
 93
        5
 44
0.0
173
     0
291
     0
 45
0.0
1001
ACAD
1000
AcDbSavedByObjectVersion
1070
     0
  0
VISUALSTYLE
  5
5E4
102
{ACAD_XDICTIONARY
360
A76
102
}
102
{ACAD_REACTORS
330
5D0
102
}
330
5D0
100
AcDbVisualStyle
  2
Shaded with edges
 70
    26
 71
     2
 72
     2
 73
     1
 90
        2
 40
-0.6
 41
30.0
 62
     5
 63
     7
 74
     1
 91
       10
 64
     7
 65
   257
 75
     2
175
     1
 42
1.0
 92
        8
 66
   257
 43
1.0
 76
     1
 77
     6
 78
     2
 67
     7
 79
     3
170
     0
171
     0
290
     0
174
     0
 93
        5
 44
0.0
173
     0
291
     0
 45
0.0
1001
ACAD
1000
AcDbSavedByObjectVersion
1070
     0
  0
VISUALSTYLE
  5
5E1
102
{ACAD_XDICTIONARY
360
A70
102
}
102
{ACAD_REACTORS
330
5D0
102
}
330
5D0
100
AcDbVisualStyle
  2
Shades of Gray
 70
    23
 71
     2
 72
     2
 73
     3
 90
        0
 40
-0.6
 41
-30.0
 62
     5
 63
     7
 74
     2
 91
        2
 64
     7
 65
     7
 75
     1
175
     1
 42
40.0
 92
        8
 66
     7
 43
1.0
 76
     1
 77
     6
 78
     2
 67
     7
 79
     3
170
     0
171
     0
290
     0
174
     0
 93
        1
 44
0.0
173
     0
291
     0
 45
0.0
1001
ACAD
1000
AcDbSavedByObjectVersion
1070
     0
  0
VISUALSTYLE
  5
5E2
102
{ACAD_XDICTIONARY
360
A72
102
}
102
{ACAD_REACTORS
330
5D0
102
}
330
5D0
100
AcDbVisualStyle
  2
Sketchy
 70
    24
 71
     1
 72
     2
 73
     2
 90
        0
 40
-0.6
 41
-30.0
 62
     5
 63
     7
 74
     2
 91
        2
 64
     7
 65
     7
 75
     1
175
     1
 42
40.0
 92
       11
 66
     7
 43
1.0
 76
     1
 77
     6
 78
     2
 67
     7
 79
     6
170
     0
171
     0
290
     0
174
     0
 93
        1
 44
0.0
173
     0
291
     0
 45
0.0
1001
ACAD
1000
AcDbSavedByObjectVersion
1070
     0
  0
VISUALSTYLE
  5
5DD
102
{ACAD_XDICTIONARY
360
A68
102
}
102
{ACAD_REACTORS
330
5D0
102
}
330
5D0
100
AcDbVisualStyle
  2
Thicken
 70
    13
 71
     2
 72
     2
 73
     0
 90
        0
 40
-0.6
 41
-30.0
 62
     5
 63
     7
 74
     1
 91
        4
 64
     7
 65
   257
 75
     1
175
     1
 42
1.0
 92
       12
 66
     7
 43
1.0
 76
     1
 77
     6
 78
     2
 67
     7
 79
     5
170
     0
171
     0
290
     0
174
     0
 93
        1
 44
0.0
173
     0
291
     1
 45
0.0
1001
ACAD
1000
AcDbSavedByObjectVersion
1070
     0
  0
VISUALSTYLE
  5
5D7
102
{ACAD_XDICTIONARY
360
A5C
102
}
102
{ACAD_REACTORS
330
5D0
102
}
330
5D0
100
AcDbVisualStyle
  2
Wireframe
 70
     5
 71
     0
 72
     2
 73
     0
 90
        0
 40
-0.6
 41
-30.0
 62
     5
 63
     7
 74
     1
 91
        4
 64
     7
 65
   257
 75
     1
175
     1
 42
1.0
 92
        0
 66
   257
 43
1.0
 76
     1
 77
     6
 78
     2
 67
     7
 79
     3
170
     0
171
     0
290
     0
174
     0
 93
        1
 44
0.0
173
     0
291
     0
 45
0.0
1001
ACAD
1000
AcDbSavedByObjectVersion
1070
     0
  0
VISUALSTYLE
  5
5E3
102
{ACAD_XDICTIONARY
360
A74
102
}
102
{ACAD_REACTORS
330
5D0
102
}
330
5D0
100
AcDbVisualStyle
  2
X-Ray
 70
    25
 71
     2
 72
     2
 73
     1
 90
        1
 40
0.5
 41
-30.0
 62
     5
 63
     7
 74
     1
 91
        0
 64
     7
 65
   257
 75
     1
175
     1
 42
1.0
 92
        8
 66
     7
 43
1.0
 76
     1
 77
     6
 78
     2
 67
     7
 79
     3
170
     0
171
     0
290
     0
174
     0
 93
       13
 44
0.0
173
     0
291
     0
 45
0.0
1001
ACAD
1000
AcDbSavedByObjectVersion
1070
     0
  0
DICTIONARYVAR
  5
A44
102
{ACAD_REACTORS
330
A3F
102
}
330
A3F
100
DictionaryVariables
280
     0
  1
1:1
  0
DICTIONARYVAR
  5
A41
102
{ACAD_REACTORS
330
A3F
102
}
330
A3F
100
DictionaryVariables
280
     0
  1
STANDARD
  0
DICTIONARYVAR
  5
A40
102
{ACAD_REACTORS
330
A3F
102
}
330
A3F
100
DictionaryVariables
280
     0
  1
STANDARD
  0
DICTIONARYVAR
  5
A42
102
{ACAD_REACTORS
330
A3F
102
}
330
A3F
100
DictionaryVariables
280
     0
  1
Imperial24
  0
DICTIONARYVAR
  5
A43
102
{ACAD_REACTORS
330
A3F
102
}
330
A3F
100
DictionaryVariables
280
     0
  1
Imperial24
  0
DICTIONARYVAR
  5
A47
102
{ACAD_REACTORS
330
A3F
102
}
330
A3F
100
DictionaryVariables
280
     0
  1
1
  0
DICTIONARYVAR
  5
A46
102
{ACAD_REACTORS
330
A3F
102
}
330
A3F
100
DictionaryVariables
280
     0
  1
0
  0
DICTIONARYVAR
  5
A45
102
{ACAD_REACTORS
330
A3F
102
}
330
A3F
100
DictionaryVariables
280
     0
  1
127
  0
DICTIONARYVAR
  5
A48
102
{ACAD_REACTORS
330
A3F
102
}
330
A3F
100
DictionaryVariables
280
     0
  1
2
  0
DICTIONARY
  5
A84
330
611
100
AcDbDictionary
280
     1
281
     1
  3
ACAD_XREC_ROUNDTRIP
360
A85
  0
DICTIONARY
  5
A88
330
619
100
AcDbDictionary
280
     1
281
     1
  3
ACAD_XREC_ROUNDTRIP
360
A89
  0
DICTIONARY
  5
A86
330
615
100
AcDbDictionary
280
     1
281
     1
  3
ACAD_XREC_ROUNDTRIP
360
A87
  0
DICTIONARY
  5
5C1
330
5C0
100
AcDbDictionary
280
     1
281
     1
  3
ACAD_XREC_ROUNDTRIP
360
A4E
  3
BUMPTILE
360
5C3
  3
DIFFUSETILE
360
5C2
  3
OPACITYTILE
360
5C6
  3
REFLECTIONTILE
360
5C5
  3
REFRACTIONTILE
360
5C7
  3
SPECULARTILE
360
5C4
  0
DICTIONARY
  5
5B9
330
5B8
100
AcDbDictionary
280
     1
281
     1
  3
ACAD_XREC_ROUNDTRIP
360
A4D
  3
BUMPTILE
360
5BB
  3
DIFFUSETILE
360
5BA
  3
OPACITYTILE
360
5BE
  3
REFLECTIONTILE
360
5BD
  3
REFRACTIONTILE
360
5BF
  3
SPECULARTILE
360
5BC
  0
DICTIONARY
  5
5C9
330
5C8
100
AcDbDictionary
280
     1
281
     1
  3
ACAD_XREC_ROUNDTRIP
360
A4F
  3
BUMPTILE
360
5CB
  3
DIFFUSETILE
360
5CA
  3
OPACITYTILE
360
5CE
  3
REFLECTIONTILE
360
5CD
  3
REFRACTIONTILE
360
5CF
  3
SPECULARTILE
360
5CC
  0
DICTIONARY
  5
A82
330
60F
100
AcDbDictionary
280
     1
281
     1
  3
ACAD_XREC_ROUNDTRIP
360
A83
  0
DICTIONARY
  5
A49
330
60B
100
AcDbDictionary
280
     1
281
     1
  3
ACAD_ROUNDTRIP_2008_TABLESTYLE_CELLSTYLEMAP
360
A4A
  3
ACAD_XREC_ROUNDTRIP
360
A80
  0
DICTIONARY
  5
A5A
330
5D6
100
AcDbDictionary
280
     1
281
     1
  3
ACAD_XREC_ROUNDTRIP
360
A5B
  0
DICTIONARY
  5
A58
330
5D5
100
AcDbDictionary
280
     1
281
     1
  3
ACAD_XREC_ROUNDTRIP
360
A59
  0
DICTIONARY
  5
A66
330
5DC
100
AcDbDictionary
280
     1
281
     1
  3
ACAD_XREC_ROUNDTRIP
360
A67
  0
DICTIONARY
  5
A6E
330
5E0
100
AcDbDictionary
280
     1
281
     1
  3
ACAD_XREC_ROUNDTRIP
360
A6F
  0
DICTIONARY
  5
A60
330
5D9
100
AcDbDictionary
280
     1
281
     1
  3
ACAD_XREC_ROUNDTRIP
360
A61
  0
DICTIONARY
  5
A64
330
5DB
100
AcDbDictionary
280
     1
281
     1
  3
ACAD_XREC_ROUNDTRIP
360
A65
  0
DICTIONARY
  5
A7E
330
5E8
100
AcDbDictionary
280
     1
281
     1
  3
ACAD_XREC_ROUNDTRIP
360
A7F
  0
DICTIONARY
  5
A6C
330
5DF
100
AcDbDictionary
280
     1
281
     1
  3
ACAD_XREC_ROUNDTRIP
360
A6D
  0
DICTIONARY
  5
A50
330
5D1
100
AcDbDictionary
280
     1
281
     1
  3
ACAD_XREC_ROUNDTRIP
360
A51
  0
DICTIONARY
  5
A52
330
5D2
100
AcDbDictionary
280
     1
281
     1
  3
ACAD_XREC_ROUNDTRIP
360
A53
  0
DICTIONARY
  5
A54
330
5D3
100
AcDbDictionary
280
     1
281
     1
  3
ACAD_XREC_ROUNDTRIP
360
A55
  0
DICTIONARY
  5
A56
330
5D4
100
AcDbDictionary
280
     1
281
     1
  3
ACAD_XREC_ROUNDTRIP
360
A57
  0
DICTIONARY
  5
A5E
330
5D8
100
AcDbDictionary
280
     1
281
     1
  3
ACAD_XREC_ROUNDTRIP
360
A5F
  0
DICTIONARY
  5
A7A
330
5E6
100
AcDbDictionary
280
     1
281
     1
  3
ACAD_XREC_ROUNDTRIP
360
A7B
  0
DICTIONARY
  5
A6A
330
5DE
100
AcDbDictionary
280
     1
281
     1
  3
ACAD_XREC_ROUNDTRIP
360
A6B
  0
DICTIONARY
  5
A7C
330
5E7
100
AcDbDictionary
280
     1
281
     1
  3
ACAD_XREC_ROUNDTRIP
360
A7D
  0
DICTIONARY
  5
A62
330
5DA
100
AcDbDictionary
280
     1
281
     1
  3
ACAD_XREC_ROUNDTRIP
360
A63
  0
DICTIONARY
  5
A78
330
5E5
100
AcDbDictionary
280
     1
281
     1
  3
ACAD_XREC_ROUNDTRIP
360
A79
  0
DICTIONARY
  5
A76
330
5E4
100
AcDbDictionary
280
     1
281
     1
  3
ACAD_XREC_ROUNDTRIP
360
A77
  0
DICTIONARY
  5
A70
330
5E1
100
AcDbDictionary
280
     1
281
     1
  3
ACAD_XREC_ROUNDTRIP
360
A71
  0
DICTIONARY
  5
A72
330
5E2
100
AcDbDictionary
280
     1
281
     1
  3
ACAD_XREC_ROUNDTRIP
360
A73
  0
DICTIONARY
  5
A68
330
5DD
100
AcDbDictionary
280
     1
281
     1
  3
ACAD_XREC_ROUNDTRIP
360
A69
  0
DICTIONARY
  5
A5C
330
5D7
100
AcDbDictionary
280
     1
281
     1
  3
ACAD_XREC_ROUNDTRIP
360
A5D
  0
DICTIONARY
  5
A74
330
5E3
100
AcDbDictionary
280
     1
281
     1
  3
ACAD_XREC_ROUNDTRIP
360
A75
  0
XRECORD
  5
A85
102
{ACAD_REACTORS
330
A84
102
}
330
A84
100
AcDbXrecord
280
     1
102
DISPLAYNAME
  1
Imperial24
102
FLAGS
 90
        0
  0
XRECORD
  5
A89
102
{ACAD_REACTORS
330
A88
102
}
330
A88
100
AcDbXrecord
280
     1
102
SHADEPLOT
 70
     0
102
SHADEPLOTRESLEVEL
 70
     2
102
SHADEPLOTCUSTOMDPI
 70
   300
  0
XRECORD
  5
A87
102
{ACAD_REACTORS
330
A86
102
}
330
A86
100
AcDbXrecord
280
     1
102
SHADEPLOT
 70
     0
102
SHADEPLOTRESLEVEL
 70
     2
102
SHADEPLOTCUSTOMDPI
 70
   300
  0
XRECORD
  5
A4E
102
{ACAD_REACTORS
330
5C1
102
}
330
5C1
100
AcDbXrecord
280
     1
102
MATERIAL
148
0.0
149
0.0
149
0.0
 93
        0
 94
      127
282
     0
 72
     0
 77
     0
171
     0
175
     0
179
     0
273
     0
  0
XRECORD
  5
5C3
102
{ACAD_REACTORS
330
5C1
102
}
330
5C1
100
AcDbXrecord
280
     1
270
     1
271
     1
  0
XRECORD
  5
5C2
102
{ACAD_REACTORS
330
5C1
102
}
330
5C1
100
AcDbXrecord
280
     1
270
     1
271
     1
  0
XRECORD
  5
5C6
102
{ACAD_REACTORS
330
5C1
102
}
330
5C1
100
AcDbXrecord
280
     1
270
     1
271
     1
  0
XRECORD
  5
5C5
102
{ACAD_REACTORS
330
5C1
102
}
330
5C1
100
AcDbXrecord
280
     1
270
     1
271
     1
  0
XRECORD
  5
5C7
102
{ACAD_REACTORS
330
5C1
102
}
330
5C1
100
AcDbXrecord
280
     1
270
     1
271
     1
  0
XRECORD
  5
5C4
102
{ACAD_REACTORS
330
5C1
102
}
330
5C1
100
AcDbXrecord
280
     1
270
     1
271
     1
  0
XRECORD
  5
A4D
102
{ACAD_REACTORS
330
5B9
102
}
330
5B9
100
AcDbXrecord
280
     1
102
MATERIAL
148
0.0
149
0.0
149
0.0
 93
        0
 94
      127
282
     0
 72
     0
 77
     0
171
     0
175
     0
179
     0
273
     0
  0
XRECORD
  5
5BB
102
{ACAD_REACTORS
330
5B9
102
}
330
5B9
100
AcDbXrecord
280
     1
270
     1
271
     1
  0
XRECORD
  5
5BA
102
{ACAD_REACTORS
330
5B9
102
}
330
5B9
100
AcDbXrecord
280
     1
270
     1
271
     1
  0
XRECORD
  5
5BE
102
{ACAD_REACTORS
330
5B9
102
}
330
5B9
100
AcDbXrecord
280
     1
270
     1
271
     1
  0
XRECORD
  5
5BD
102
{ACAD_REACTORS
330
5B9
102
}
330
5B9
100
AcDbXrecord
280
     1
270
     1
271
     1
  0
XRECORD
  5
5BF
102
{ACAD_REACTORS
330
5B9
102
}
330
5B9
100
AcDbXrecord
280
     1
270
     1
271
     1
  0
XRECORD
  5
5BC
102
{ACAD_REACTORS
330
5B9
102
}
330
5B9
100
AcDbXrecord
280
     1
270
     1
271
     1
  0
XRECORD
  5
A4F
102
{ACAD_REACTORS
330
5C9
102
}
330
5C9
100
AcDbXrecord
280
     1
102
MATERIAL
148
0.0
149
0.0
149
0.0
 93
        0
 94
      127
282
     0
 72
     0
 77
     0
171
     0
175
     0
179
     0
273
     0
  0
XRECORD
  5
5CB
102
{ACAD_REACTORS
330
5C9
102
}
330
5C9
100
AcDbXrecord
280
     1
270
     1
271
     1
  0
XRECORD
  5
5CA
102
{ACAD_REACTORS
330
5C9
102
}
330
5C9
100
AcDbXrecord
280
     1
270
     1
271
     1
  0
XRECORD
  5
5CE
102
{ACAD_REACTORS
330
5C9
102
}
330
5C9
100
AcDbXrecord
280
     1
270
     1
271
     1
  0
XRECORD
  5
5CD
102
{ACAD_REACTORS
330
5C9
102
}
330
5C9
100
AcDbXrecord
280
     1
270
     1
271
     1
  0
XRECORD
  5
5CF
102
{ACAD_REACTORS
330
5C9
102
}
330
5C9
100
AcDbXrecord
280
     1
270
     1
271
     1
  0
XRECORD
  5
5CC
102
{ACAD_REACTORS
330
5C9
102
}
330
5C9
100
AcDbXrecord
280
     1
270
     1
271
     1
  0
XRECORD
  5
A83
102
{ACAD_REACTORS
330
A82
102
}
330
A82
100
AcDbXrecord
280
     1
102
DISPLAYNAME
  1
Imperial24
102
FLAGS
 90
        0
  0
CELLSTYLEMAP
  5
A4A
102
{ACAD_REACTORS
330
A49
102
}
330
A49
100
AcDbCellStyleMap
 90
        3
300
CELLSTYLE
  1
TABLEFORMAT_BEGIN
 90
        5
170
     1
 91
        0
 92
    32768
 62
   257
 93
        1
300
CONTENTFORMAT
  1
CONTENTFORMAT_BEGIN
 90
        0
 91
        0
 92
      512
 93
        0
300

 40
0.0
140
1.0
 94
        5
 62
     0
340
5FC
144
0.25
309
CONTENTFORMAT_END
171
     0
 94
        0
309
TABLEFORMAT_END
  1
CELLSTYLE_BEGIN
 90
        1
 91
        1
300
_TITLE
309
CELLSTYLE_END
300
CELLSTYLE
  1
TABLEFORMAT_BEGIN
 90
        5
170
     1
 91
        0
 92
        0
 62
   257
 93
        1
300
CONTENTFORMAT
  1
CONTENTFORMAT_BEGIN
 90
        0
 91
        0
 92
      512
 93
        0
300

 40
0.0
140
1.0
 94
        5
 62
     0
340
5FC
144
0.18
309
CONTENTFORMAT_END
171
     0
 94
        0
309
TABLEFORMAT_END
  1
CELLSTYLE_BEGIN
 90
        2
 91
        1
300
_HEADER
309
CELLSTYLE_END
300
CELLSTYLE
  1
TABLEFORMAT_BEGIN
 90
        5
170
     1
 91
        0
 92
        0
 62
   257
 93
        1
300
CONTENTFORMAT
  1
CONTENTFORMAT_BEGIN
 90
        0
 91
        0
 92
      512
 93
        0
300

 40
0.0
140
1.0
 94
        2
 62
     0
340
5FC
144
0.18
309
CONTENTFORMAT_END
171
     0
 94
        0
309
TABLEFORMAT_END
  1
CELLSTYLE_BEGIN
 90
        3
 91
        2
300
_DATA
309
CELLSTYLE_END
  0
XRECORD
  5
A80
102
{ACAD_REACTORS
330
A49
102
}
330
A49
100
AcDbXrecord
280
     1
102
ACAD_ROUNDTRIP_PRE2007_TABLESTYLE
 90
      512
 91
        0
  1

 92
      512
 93
        0
  2

 94
      512
 95
        0
  3

  0
XRECORD
  5
A5B
102
{ACAD_REACTORS
330
A5A
102
}
330
A5A
100
AcDbXrecord
280
     1
102
RTVSPost2010Prop28
280
     1
102
RTVSPost2010PropOp28
 70
     1
102
RTVSPost2010Prop29
280
     1
102
RTVSPost2010PropOp29
 70
     1
102
RTVSPost2010Prop30
280
     0
102
RTVSPost2010PropOp30
 70
     1
102
RTVSPost2010Prop31
280
     0
102
RTVSPost2010PropOp31
 70
     1
102
RTVSPost2010Prop32
280
     0
102
RTVSPost2010PropOp32
 70
     1
102
RTVSPost2010Prop33
280
     0
102
RTVSPost2010PropOp33
 70
     1
102
RTVSPost2010Prop34
280
     0
102
RTVSPost2010PropOp34
 70
     1
102
RTVSPost2010Prop35
280
     0
102
RTVSPost2010PropOp35
 70
     1
102
RTVSPost2010Prop36
280
     0
102
RTVSPost2010PropOp36
 70
     1
102
RTVSPost2010Prop37
 90
       50
102
RTVSPost2010PropOp37
 70
     1
102
RTVSPost2010Prop38
140
0.0
102
RTVSPost2010PropOp38
 70
     1
102
RTVSPost2010Prop39
140
1.0
102
RTVSPost2010PropOp39
 70
     1
102
RTVSPost2010Prop40
 90
        0
102
RTVSPost2010PropOp40
 70
     1
102
RTVSPost2010Prop41ColorIndex
 90
       18
102
RTVSPost2010Prop41ColorRGB
 90
        0
102
RTVSPost2010PropOp41
 70
     1
102
RTVSPost2010Prop42
 90
       50
102
RTVSPost2010PropOp42
 70
     1
102
RTVSPost2010Prop43
 90
        3
102
RTVSPost2010PropOp43
 70
     1
102
RTVSPost2010Prop44ColorIndex
 90
        5
102
RTVSPost2010Prop44ColorRGB
 90
      255
102
RTVSPost2010PropOp44
 70
     1
102
RTVSPost2010Prop45
280
     0
102
RTVSPost2010PropOp45
 70
     1
102
RTVSPost2010Prop46
 90
       50
102
RTVSPost2010PropOp46
 70
     1
102
RTVSPost2010Prop47
 90
       50
102
RTVSPost2010PropOp47
 70
     1
102
RTVSPost2010Prop48
 90
       50
102
RTVSPost2010PropOp48
 70
     1
102
RTVSPost2010Prop49
280
     0
102
RTVSPost2010PropOp49
 70
     1
102
RTVSPost2010Prop50
 90
       50
102
RTVSPost2010PropOp50
 70
     1
102
RTVSPost2010Prop51ColorIndex
 90
      256
102
RTVSPost2010Prop51ColorRGB
 90
-16777216
102
RTVSPost2010PropOp51
 70
     0
102
RTVSPost2010Prop52
140
1.0
102
RTVSPost2010PropOp52
 70
     0
102
RTVSPost2010Prop53
 90
        2
102
RTVSPost2010PropOp53
 70
     1
102
RTVSPost2010Prop54
  1
strokes_ogs.tif
102
RTVSPost2010PropOp54
 70
     1
102
RTVSPost2010Prop55
280
     0
102
RTVSPost2010PropOp55
 70
     1
102
RTVSPost2010Prop56
140
1.0
102
RTVSPost2010PropOp56
 70
     1
102
RTVSPost2010Prop57
140
1.0
102
RTVSPost2010PropOp57
 70
     1
102
RTVSPropertyOp0
 70
     1
102
RTVSPropertyOp1
 70
     1
102
RTVSPropertyOp2
 70
     1
102
RTVSPropertyOp3
 70
     1
102
RTVSPropertyOp4
 70
     1
102
RTVSPropertyOp5
 70
     1
102
RTVSPropertyOp6
 70
     1
102
RTVSPropertyOp7
 70
     1
102
RTVSPropertyOp8
 70
     1
102
RTVSPropertyOp9
 70
     1
102
RTVSPropertyOp10
 70
     1
102
RTVSPropertyOp11
 70
     1
102
RTVSPropertyOp12
 70
     1
102
RTVSPropertyOp13
 70
     1
102
RTVSPropertyOp14
 70
     1
102
RTVSPropertyOp15
 70
     1
102
RTVSPropertyOp16
 70
     1
102
RTVSPropertyOp17
 70
     1
102
RTVSPropertyOp18
 70
     1
102
RTVSPropertyOp19
 70
     1
102
RTVSPropertyOp20
 70
     1
102
RTVSPropertyOp21
 70
     1
102
RTVSPropertyOp22
 70
     1
102
RTVSPropertyOp23
 70
     1
102
RTVSPropertyOp24
 70
     1
102
RTVSPropertyOp25
 70
     1
102
RTVSPropertyOp26
 70
     1
102
RTVSPropertyOp27
 70
     1
102
RTVSPropertyOp28
 70
     1
102
RTVSPropertyOp29
 70
     1
102
RTVSPropertyOp30
 70
     1
102
RTVSPropertyOp31
 70
     1
102
RTVSPropertyOp32
 70
     1
102
RTVSPropertyOp33
 70
     1
102
RTVSPropertyOp34
 70
     1
102
RTVSPropertyOp35
 70
     1
102
RTVSPropertyOp36
 70
     1
102
RTVSPropertyOp37
 70
     1
102
RTVSPropertyOp38
 70
     1
102
RTVSPropertyOp39
 70
     1
102
RTVSPropertyOp40
 70
     1
102
RTVSPropertyOp41
 70
     1
102
RTVSPropertyOp42
 70
     1
102
RTVSPropertyOp43
 70
     1
102
RTVSPropertyOp44
 70
     1
102
RTVSPropertyOp45
 70
     1
102
RTVSPropertyOp46
 70
     1
102
RTVSPropertyOp47
 70
     1
102
RTVSPropertyOp48
 70
     1
102
RTVSPropertyOp49
 70
     1
102
RTVSPropertyOp50
 70
     1
102
RTVSPropertyOp51
 70
     0
102
RTVSPropertyOp52
 70
     0
102
RTVSPropertyOp53
 70
     1
102
RTVSPropertyOp54
 70
     1
102
RTVSPropertyOp55
 70
     1
102
RTVSPropertyOp56
 70
     1
102
RTVSPropertyOp57
 70
     1
102
RTVSPropertyOp58
 70
     1
102
RTVSPropertyOp59
 70
     1
102
RTVSPropertyOp60
 70
     1
102
RTVSPropertyOp61
 70
     1
102
RTVSPropertyOp62
 70
     1
  0
XRECORD
  5
A59
102
{ACAD_REACTORS
330
A58
102
}
330
A58
100
AcDbXrecord
280
     1
102
RTVSPost2010Prop28
280
     0
102
RTVSPost2010PropOp28
 70
     1
102
RTVSPost2010Prop29
280
     1
102
RTVSPost2010PropOp29
 70
     1
102
RTVSPost2010Prop30
280
     1
102
RTVSPost2010PropOp30
 70
     1
102
RTVSPost2010Prop31
280
     0
102
RTVSPost2010PropOp31
 70
     1
102
RTVSPost2010Prop32
280
     0
102
RTVSPost2010PropOp32
 70
     1
102
RTVSPost2010Prop33
280
     0
102
RTVSPost2010PropOp33
 70
     1
102
RTVSPost2010Prop34
280
     0
102
RTVSPost2010PropOp34
 70
     1
102
RTVSPost2010Prop35
280
     0
102
RTVSPost2010PropOp35
 70
     1
102
RTVSPost2010Prop36
280
     0
102
RTVSPost2010PropOp36
 70
     1
102
RTVSPost2010Prop37
 90
       50
102
RTVSPost2010PropOp37
 70
     1
102
RTVSPost2010Prop38
140
0.0
102
RTVSPost2010PropOp38
 70
     1
102
RTVSPost2010Prop39
140
1.0
102
RTVSPost2010PropOp39
 70
     1
102
RTVSPost2010Prop40
 90
        0
102
RTVSPost2010PropOp40
 70
     1
102
RTVSPost2010Prop41ColorIndex
 90
       18
102
RTVSPost2010Prop41ColorRGB
 90
        0
102
RTVSPost2010PropOp41
 70
     1
102
RTVSPost2010Prop42
 90
       50
102
RTVSPost2010PropOp42
 70
     1
102
RTVSPost2010Prop43
 90
        3
102
RTVSPost2010PropOp43
 70
     1
102
RTVSPost2010Prop44ColorIndex
 90
        5
102
RTVSPost2010Prop44ColorRGB
 90
      255
102
RTVSPost2010PropOp44
 70
     1
102
RTVSPost2010Prop45
280
     0
102
RTVSPost2010PropOp45
 70
     1
102
RTVSPost2010Prop46
 90
       50
102
RTVSPost2010PropOp46
 70
     1
102
RTVSPost2010Prop47
 90
       50
102
RTVSPost2010PropOp47
 70
     1
102
RTVSPost2010Prop48
 90
       50
102
RTVSPost2010PropOp48
 70
     1
102
RTVSPost2010Prop49
280
     0
102
RTVSPost2010PropOp49
 70
     1
102
RTVSPost2010Prop50
 90
       50
102
RTVSPost2010PropOp50
 70
     1
102
RTVSPost2010Prop51ColorIndex
 90
      256
102
RTVSPost2010Prop51ColorRGB
 90
-16777216
102
RTVSPost2010PropOp51
 70
     0
102
RTVSPost2010Prop52
140
1.0
102
RTVSPost2010PropOp52
 70
     0
102
RTVSPost2010Prop53
 90
        2
102
RTVSPost2010PropOp53
 70
     1
102
RTVSPost2010Prop54
  1
strokes_ogs.tif
102
RTVSPost2010PropOp54
 70
     1
102
RTVSPost2010Prop55
280
     0
102
RTVSPost2010PropOp55
 70
     1
102
RTVSPost2010Prop56
140
1.0
102
RTVSPost2010PropOp56
 70
     1
102
RTVSPost2010Prop57
140
1.0
102
RTVSPost2010PropOp57
 70
     1
102
RTVSPropertyOp0
 70
     1
102
RTVSPropertyOp1
 70
     1
102
RTVSPropertyOp2
 70
     1
102
RTVSPropertyOp3
 70
     1
102
RTVSPropertyOp4
 70
     1
102
RTVSPropertyOp5
 70
     1
102
RTVSPropertyOp6
 70
     1
102
RTVSPropertyOp7
 70
     1
102
RTVSPropertyOp8
 70
     1
102
RTVSPropertyOp9
 70
     1
102
RTVSPropertyOp10
 70
     1
102
RTVSPropertyOp11
 70
     1
102
RTVSPropertyOp12
 70
     1
102
RTVSPropertyOp13
 70
     1
102
RTVSPropertyOp14
 70
     1
102
RTVSPropertyOp15
 70
     1
102
RTVSPropertyOp16
 70
     1
102
RTVSPropertyOp17
 70
     1
102
RTVSPropertyOp18
 70
     1
102
RTVSPropertyOp19
 70
     1
102
RTVSPropertyOp20
 70
     1
102
RTVSPropertyOp21
 70
     1
102
RTVSPropertyOp22
 70
     1
102
RTVSPropertyOp23
 70
     1
102
RTVSPropertyOp24
 70
     1
102
RTVSPropertyOp25
 70
     1
102
RTVSPropertyOp26
 70
     1
102
RTVSPropertyOp27
 70
     1
102
RTVSPropertyOp28
 70
     1
102
RTVSPropertyOp29
 70
     1
102
RTVSPropertyOp30
 70
     1
102
RTVSPropertyOp31
 70
     1
102
RTVSPropertyOp32
 70
     1
102
RTVSPropertyOp33
 70
     1
102
RTVSPropertyOp34
 70
     1
102
RTVSPropertyOp35
 70
     1
102
RTVSPropertyOp36
 70
     1
102
RTVSPropertyOp37
 70
     1
102
RTVSPropertyOp38
 70
     1
102
RTVSPropertyOp39
 70
     1
102
RTVSPropertyOp40
 70
     1
102
RTVSPropertyOp41
 70
     1
102
RTVSPropertyOp42
 70
     1
102
RTVSPropertyOp43
 70
     1
102
RTVSPropertyOp44
 70
     1
102
RTVSPropertyOp45
 70
     1
102
RTVSPropertyOp46
 70
     1
102
RTVSPropertyOp47
 70
     1
102
RTVSPropertyOp48
 70
     1
102
RTVSPropertyOp49
 70
     1
102
RTVSPropertyOp50
 70
     1
102
RTVSPropertyOp51
 70
     0
102
RTVSPropertyOp52
 70
     0
102
RTVSPropertyOp53
 70
     1
102
RTVSPropertyOp54
 70
     1
102
RTVSPropertyOp55
 70
     1
102
RTVSPropertyOp56
 70
     1
102
RTVSPropertyOp57
 70
     1
102
RTVSPropertyOp58
 70
     1
102
RTVSPropertyOp59
 70
     1
102
RTVSPropertyOp60
 70
     1
102
RTVSPropertyOp61
 70
     1
102
RTVSPropertyOp62
 70
     1
  0
XRECORD
  5
A67
102
{ACAD_REACTORS
330
A66
102
}
330
A66
100
AcDbXrecord
280
     1
102
RTVSPost2010Prop28
280
     0
102
RTVSPost2010PropOp28
 70
     1
102
RTVSPost2010Prop29
280
     1
102
RTVSPost2010PropOp29
 70
     1
102
RTVSPost2010Prop30
280
     1
102
RTVSPost2010PropOp30
 70
     1
102
RTVSPost2010Prop31
280
     0
102
RTVSPost2010PropOp31
 70
     1
102
RTVSPost2010Prop32
280
     0
102
RTVSPost2010PropOp32
 70
     1
102
RTVSPost2010Prop33
280
     0
102
RTVSPost2010PropOp33
 70
     1
102
RTVSPost2010Prop34
280
     0
102
RTVSPost2010PropOp34
 70
     1
102
RTVSPost2010Prop35
280
     0
102
RTVSPost2010PropOp35
 70
     1
102
RTVSPost2010Prop36
280
     0
102
RTVSPost2010PropOp36
 70
     1
102
RTVSPost2010Prop37
 90
       50
102
RTVSPost2010PropOp37
 70
     1
102
RTVSPost2010Prop38
140
0.0
102
RTVSPost2010PropOp38
 70
     1
102
RTVSPost2010Prop39
140
1.0
102
RTVSPost2010PropOp39
 70
     1
102
RTVSPost2010Prop40
 90
        0
102
RTVSPost2010PropOp40
 70
     1
102
RTVSPost2010Prop41ColorIndex
 90
       18
102
RTVSPost2010Prop41ColorRGB
 90
        0
102
RTVSPost2010PropOp41
 70
     1
102
RTVSPost2010Prop42
 90
       50
102
RTVSPost2010PropOp42
 70
     1
102
RTVSPost2010Prop43
 90
        3
102
RTVSPost2010PropOp43
 70
     1
102
RTVSPost2010Prop44ColorIndex
 90
        5
102
RTVSPost2010Prop44ColorRGB
 90
      255
102
RTVSPost2010PropOp44
 70
     1
102
RTVSPost2010Prop45
280
     0
102
RTVSPost2010PropOp45
 70
     1
102
RTVSPost2010Prop46
 90
       50
102
RTVSPost2010PropOp46
 70
     1
102
RTVSPost2010Prop47
 90
       50
102
RTVSPost2010PropOp47
 70
     1
102
RTVSPost2010Prop48
 90
       50
102
RTVSPost2010PropOp48
 70
     1
102
RTVSPost2010Prop49
280
     0
102
RTVSPost2010PropOp49
 70
     1
102
RTVSPost2010Prop50
 90
       50
102
RTVSPost2010PropOp50
 70
     1
102
RTVSPost2010Prop51ColorIndex
 90
      256
102
RTVSPost2010Prop51ColorRGB
 90
-16777216
102
RTVSPost2010PropOp51
 70
     0
102
RTVSPost2010Prop52
140
1.0
102
RTVSPost2010PropOp52
 70
     0
102
RTVSPost2010Prop53
 90
        2
102
RTVSPost2010PropOp53
 70
     1
102
RTVSPost2010Prop54
  1
strokes_ogs.tif
102
RTVSPost2010PropOp54
 70
     1
102
RTVSPost2010Prop55
280
     0
102
RTVSPost2010PropOp55
 70
     1
102
RTVSPost2010Prop56
140
1.0
102
RTVSPost2010PropOp56
 70
     1
102
RTVSPost2010Prop57
140
1.0
102
RTVSPost2010PropOp57
 70
     1
102
RTVSPropertyOp0
 70
     1
102
RTVSPropertyOp1
 70
     1
102
RTVSPropertyOp2
 70
     1
102
RTVSPropertyOp3
 70
     1
102
RTVSPropertyOp4
 70
     1
102
RTVSPropertyOp5
 70
     1
102
RTVSPropertyOp6
 70
     1
102
RTVSPropertyOp7
 70
     1
102
RTVSPropertyOp8
 70
     1
102
RTVSPropertyOp9
 70
     1
102
RTVSPropertyOp10
 70
     1
102
RTVSPropertyOp11
 70
     1
102
RTVSPropertyOp12
 70
     1
102
RTVSPropertyOp13
 70
     1
102
RTVSPropertyOp14
 70
     1
102
RTVSPropertyOp15
 70
     1
102
RTVSPropertyOp16
 70
     1
102
RTVSPropertyOp17
 70
     1
102
RTVSPropertyOp18
 70
     1
102
RTVSPropertyOp19
 70
     1
102
RTVSPropertyOp20
 70
     1
102
RTVSPropertyOp21
 70
     1
102
RTVSPropertyOp22
 70
     1
102
RTVSPropertyOp23
 70
     1
102
RTVSPropertyOp24
 70
     1
102
RTVSPropertyOp25
 70
     1
102
RTVSPropertyOp26
 70
     1
102
RTVSPropertyOp27
 70
     1
102
RTVSPropertyOp28
 70
     1
102
RTVSPropertyOp29
 70
     1
102
RTVSPropertyOp30
 70
     1
102
RTVSPropertyOp31
 70
     1
102
RTVSPropertyOp32
 70
     1
102
RTVSPropertyOp33
 70
     1
102
RTVSPropertyOp34
 70
     1
102
RTVSPropertyOp35
 70
     1
102
RTVSPropertyOp36
 70
     1
102
RTVSPropertyOp37
 70
     1
102
RTVSPropertyOp38
 70
     1
102
RTVSPropertyOp39
 70
     1
102
RTVSPropertyOp40
 70
     1
102
RTVSPropertyOp41
 70
     1
102
RTVSPropertyOp42
 70
     1
102
RTVSPropertyOp43
 70
     1
102
RTVSPropertyOp44
 70
     1
102
RTVSPropertyOp45
 70
     1
102
RTVSPropertyOp46
 70
     1
102
RTVSPropertyOp47
 70
     1
102
RTVSPropertyOp48
 70
     1
102
RTVSPropertyOp49
 70
     1
102
RTVSPropertyOp50
 70
     1
102
RTVSPropertyOp51
 70
     0
102
RTVSPropertyOp52
 70
     0
102
RTVSPropertyOp53
 70
     1
102
RTVSPropertyOp54
 70
     1
102
RTVSPropertyOp55
 70
     1
102
RTVSPropertyOp56
 70
     1
102
RTVSPropertyOp57
 70
     1
102
RTVSPropertyOp58
 70
     1
102
RTVSPropertyOp59
 70
     1
102
RTVSPropertyOp60
 70
     1
102
RTVSPropertyOp61
 70
     1
102
RTVSPropertyOp62
 70
     1
  0
XRECORD
  5
A6F
102
{ACAD_REACTORS
330
A6E
102
}
330
A6E
100
AcDbXrecord
280
     1
102
RTVSPost2010Prop28
280
     0
102
RTVSPost2010PropOp28
 70
     1
102
RTVSPost2010Prop29
280
     1
102
RTVSPost2010PropOp29
 70
     1
102
RTVSPost2010Prop30
280
     1
102
RTVSPost2010PropOp30
 70
     1
102
RTVSPost2010Prop31
280
     0
102
RTVSPost2010PropOp31
 70
     1
102
RTVSPost2010Prop32
280
     0
102
RTVSPost2010PropOp32
 70
     1
102
RTVSPost2010Prop33
280
     0
102
RTVSPost2010PropOp33
 70
     1
102
RTVSPost2010Prop34
280
     0
102
RTVSPost2010PropOp34
 70
     1
102
RTVSPost2010Prop35
280
     0
102
RTVSPost2010PropOp35
 70
     1
102
RTVSPost2010Prop36
280
     0
102
RTVSPost2010PropOp36
 70
     1
102
RTVSPost2010Prop37
 90
       50
102
RTVSPost2010PropOp37
 70
     1
102
RTVSPost2010Prop38
140
0.0
102
RTVSPost2010PropOp38
 70
     1
102
RTVSPost2010Prop39
140
1.0
102
RTVSPost2010PropOp39
 70
     1
102
RTVSPost2010Prop40
 90
        0
102
RTVSPost2010PropOp40
 70
     1
102
RTVSPost2010Prop41ColorIndex
 90
       18
102
RTVSPost2010Prop41ColorRGB
 90
        0
102
RTVSPost2010PropOp41
 70
     1
102
RTVSPost2010Prop42
 90
       50
102
RTVSPost2010PropOp42
 70
     1
102
RTVSPost2010Prop43
 90
        3
102
RTVSPost2010PropOp43
 70
     1
102
RTVSPost2010Prop44ColorIndex
 90
        5
102
RTVSPost2010Prop44ColorRGB
 90
      255
102
RTVSPost2010PropOp44
 70
     1
102
RTVSPost2010Prop45
280
     0
102
RTVSPost2010PropOp45
 70
     1
102
RTVSPost2010Prop46
 90
       50
102
RTVSPost2010PropOp46
 70
     1
102
RTVSPost2010Prop47
 90
       50
102
RTVSPost2010PropOp47
 70
     1
102
RTVSPost2010Prop48
 90
       50
102
RTVSPost2010PropOp48
 70
     1
102
RTVSPost2010Prop49
280
     0
102
RTVSPost2010PropOp49
 70
     1
102
RTVSPost2010Prop50
 90
       50
102
RTVSPost2010PropOp50
 70
     1
102
RTVSPost2010Prop51ColorIndex
 90
      256
102
RTVSPost2010Prop51ColorRGB
 90
-16777216
102
RTVSPost2010PropOp51
 70
     0
102
RTVSPost2010Prop52
140
1.0
102
RTVSPost2010PropOp52
 70
     0
102
RTVSPost2010Prop53
 90
        2
102
RTVSPost2010PropOp53
 70
     1
102
RTVSPost2010Prop54
  1
strokes_ogs.tif
102
RTVSPost2010PropOp54
 70
     1
102
RTVSPost2010Prop55
280
     0
102
RTVSPost2010PropOp55
 70
     1
102
RTVSPost2010Prop56
140
1.0
102
RTVSPost2010PropOp56
 70
     1
102
RTVSPost2010Prop57
140
1.0
102
RTVSPost2010PropOp57
 70
     1
102
RTVSPropertyOp0
 70
     1
102
RTVSPropertyOp1
 70
     1
102
RTVSPropertyOp2
 70
     1
102
RTVSPropertyOp3
 70
     1
102
RTVSPropertyOp4
 70
     1
102
RTVSPropertyOp5
 70
     1
102
RTVSPropertyOp6
 70
     1
102
RTVSPropertyOp7
 70
     1
102
RTVSPropertyOp8
 70
     1
102
RTVSPropertyOp9
 70
     1
102
RTVSPropertyOp10
 70
     1
102
RTVSPropertyOp11
 70
     1
102
RTVSPropertyOp12
 70
     1
102
RTVSPropertyOp13
 70
     1
102
RTVSPropertyOp14
 70
     1
102
RTVSPropertyOp15
 70
     1
102
RTVSPropertyOp16
 70
     1
102
RTVSPropertyOp17
 70
     1
102
RTVSPropertyOp18
 70
     1
102
RTVSPropertyOp19
 70
     1
102
RTVSPropertyOp20
 70
     1
102
RTVSPropertyOp21
 70
     1
102
RTVSPropertyOp22
 70
     1
102
RTVSPropertyOp23
 70
     1
102
RTVSPropertyOp24
 70
     1
102
RTVSPropertyOp25
 70
     1
102
RTVSPropertyOp26
 70
     1
102
RTVSPropertyOp27
 70
     1
102
RTVSPropertyOp28
 70
     1
102
RTVSPropertyOp29
 70
     1
102
RTVSPropertyOp30
 70
     1
102
RTVSPropertyOp31
 70
     1
102
RTVSPropertyOp32
 70
     1
102
RTVSPropertyOp33
 70
     1
102
RTVSPropertyOp34
 70
     1
102
RTVSPropertyOp35
 70
     1
102
RTVSPropertyOp36
 70
     1
102
RTVSPropertyOp37
 70
     1
102
RTVSPropertyOp38
 70
     1
102
RTVSPropertyOp39
 70
     1
102
RTVSPropertyOp40
 70
     1
102
RTVSPropertyOp41
 70
     1
102
RTVSPropertyOp42
 70
     1
102
RTVSPropertyOp43
 70
     1
102
RTVSPropertyOp44
 70
     1
102
RTVSPropertyOp45
 70
     1
102
RTVSPropertyOp46
 70
     1
102
RTVSPropertyOp47
 70
     1
102
RTVSPropertyOp48
 70
     1
102
RTVSPropertyOp49
 70
     1
102
RTVSPropertyOp50
 70
     1
102
RTVSPropertyOp51
 70
     0
102
RTVSPropertyOp52
 70
     0
102
RTVSPropertyOp53
 70
     1
102
RTVSPropertyOp54
 70
     1
102
RTVSPropertyOp55
 70
     1
102
RTVSPropertyOp56
 70
     1
102
RTVSPropertyOp57
 70
     1
102
RTVSPropertyOp58
 70
     1
102
RTVSPropertyOp59
 70
     1
102
RTVSPropertyOp60
 70
     1
102
RTVSPropertyOp61
 70
     1
102
RTVSPropertyOp62
 70
     1
  0
XRECORD
  5
A61
102
{ACAD_REACTORS
330
A60
102
}
330
A60
100
AcDbXrecord
280
     1
102
RTVSPost2010Prop28
280
     0
102
RTVSPost2010PropOp28
 70
     1
102
RTVSPost2010Prop29
280
     1
102
RTVSPost2010PropOp29
 70
     1
102
RTVSPost2010Prop30
280
     1
102
RTVSPost2010PropOp30
 70
     1
102
RTVSPost2010Prop31
280
     0
102
RTVSPost2010PropOp31
 70
     1
102
RTVSPost2010Prop32
280
     0
102
RTVSPost2010PropOp32
 70
     1
102
RTVSPost2010Prop33
280
     0
102
RTVSPost2010PropOp33
 70
     1
102
RTVSPost2010Prop34
280
     0
102
RTVSPost2010PropOp34
 70
     1
102
RTVSPost2010Prop35
280
     0
102
RTVSPost2010PropOp35
 70
     1
102
RTVSPost2010Prop36
280
     0
102
RTVSPost2010PropOp36
 70
     1
102
RTVSPost2010Prop37
 90
       50
102
RTVSPost2010PropOp37
 70
     1
102
RTVSPost2010Prop38
140
0.0
102
RTVSPost2010PropOp38
 70
     1
102
RTVSPost2010Prop39
140
1.0
102
RTVSPost2010PropOp39
 70
     1
102
RTVSPost2010Prop40
 90
        0
102
RTVSPost2010PropOp40
 70
     1
102
RTVSPost2010Prop41ColorIndex
 90
       18
102
RTVSPost2010Prop41ColorRGB
 90
        0
102
RTVSPost2010PropOp41
 70
     1
102
RTVSPost2010Prop42
 90
       50
102
RTVSPost2010PropOp42
 70
     1
102
RTVSPost2010Prop43
 90
        3
102
RTVSPost2010PropOp43
 70
     1
102
RTVSPost2010Prop44ColorIndex
 90
        5
102
RTVSPost2010Prop44ColorRGB
 90
      255
102
RTVSPost2010PropOp44
 70
     1
102
RTVSPost2010Prop45
280
     0
102
RTVSPost2010PropOp45
 70
     1
102
RTVSPost2010Prop46
 90
       50
102
RTVSPost2010PropOp46
 70
     1
102
RTVSPost2010Prop47
 90
       50
102
RTVSPost2010PropOp47
 70
     1
102
RTVSPost2010Prop48
 90
       50
102
RTVSPost2010PropOp48
 70
     1
102
RTVSPost2010Prop49
280
     0
102
RTVSPost2010PropOp49
 70
     1
102
RTVSPost2010Prop50
 90
       50
102
RTVSPost2010PropOp50
 70
     1
102
RTVSPost2010Prop51ColorIndex
 90
      256
102
RTVSPost2010Prop51ColorRGB
 90
-16777216
102
RTVSPost2010PropOp51
 70
     0
102
RTVSPost2010Prop52
140
1.0
102
RTVSPost2010PropOp52
 70
     0
102
RTVSPost2010Prop53
 90
        2
102
RTVSPost2010PropOp53
 70
     1
102
RTVSPost2010Prop54
  1
strokes_ogs.tif
102
RTVSPost2010PropOp54
 70
     1
102
RTVSPost2010Prop55
280
     0
102
RTVSPost2010PropOp55
 70
     1
102
RTVSPost2010Prop56
140
1.0
102
RTVSPost2010PropOp56
 70
     1
102
RTVSPost2010Prop57
140
1.0
102
RTVSPost2010PropOp57
 70
     1
102
RTVSPropertyOp0
 70
     1
102
RTVSPropertyOp1
 70
     1
102
RTVSPropertyOp2
 70
     1
102
RTVSPropertyOp3
 70
     1
102
RTVSPropertyOp4
 70
     1
102
RTVSPropertyOp5
 70
     1
102
RTVSPropertyOp6
 70
     1
102
RTVSPropertyOp7
 70
     1
102
RTVSPropertyOp8
 70
     1
102
RTVSPropertyOp9
 70
     1
102
RTVSPropertyOp10
 70
     1
102
RTVSPropertyOp11
 70
     1
102
RTVSPropertyOp12
 70
     1
102
RTVSPropertyOp13
 70
     1
102
RTVSPropertyOp14
 70
     1
102
RTVSPropertyOp15
 70
     1
102
RTVSPropertyOp16
 70
     1
102
RTVSPropertyOp17
 70
     1
102
RTVSPropertyOp18
 70
     1
102
RTVSPropertyOp19
 70
     1
102
RTVSPropertyOp20
 70
     1
102
RTVSPropertyOp21
 70
     1
102
RTVSPropertyOp22
 70
     1
102
RTVSPropertyOp23
 70
     1
102
RTVSPropertyOp24
 70
     1
102
RTVSPropertyOp25
 70
     1
102
RTVSPropertyOp26
 70
     1
102
RTVSPropertyOp27
 70
     1
102
RTVSPropertyOp28
 70
     1
102
RTVSPropertyOp29
 70
     1
102
RTVSPropertyOp30
 70
     1
102
RTVSPropertyOp31
 70
     1
102
RTVSPropertyOp32
 70
     1
102
RTVSPropertyOp33
 70
     1
102
RTVSPropertyOp34
 70
     1
102
RTVSPropertyOp35
 70
     1
102
RTVSPropertyOp36
 70
     1
102
RTVSPropertyOp37
 70
     1
102
RTVSPropertyOp38
 70
     1
102
RTVSPropertyOp39
 70
     1
102
RTVSPropertyOp40
 70
     1
102
RTVSPropertyOp41
 70
     1
102
RTVSPropertyOp42
 70
     1
102
RTVSPropertyOp43
 70
     1
102
RTVSPropertyOp44
 70
     1
102
RTVSPropertyOp45
 70
     1
102
RTVSPropertyOp46
 70
     1
102
RTVSPropertyOp47
 70
     1
102
RTVSPropertyOp48
 70
     1
102
RTVSPropertyOp49
 70
     1
102
RTVSPropertyOp50
 70
     1
102
RTVSPropertyOp51
 70
     0
102
RTVSPropertyOp52
 70
     0
102
RTVSPropertyOp53
 70
     1
102
RTVSPropertyOp54
 70
     1
102
RTVSPropertyOp55
 70
     1
102
RTVSPropertyOp56
 70
     1
102
RTVSPropertyOp57
 70
     1
102
RTVSPropertyOp58
 70
     1
102
RTVSPropertyOp59
 70
     1
102
RTVSPropertyOp60
 70
     1
102
RTVSPropertyOp61
 70
     1
102
RTVSPropertyOp62
 70
     1
  0
XRECORD
  5
A65
102
{ACAD_REACTORS
330
A64
102
}
330
A64
100
AcDbXrecord
280
     1
102
RTVSPost2010Prop28
280
     0
102
RTVSPost2010PropOp28
 70
     1
102
RTVSPost2010Prop29
280
     1
102
RTVSPost2010PropOp29
 70
     1
102
RTVSPost2010Prop30
280
     1
102
RTVSPost2010PropOp30
 70
     1
102
RTVSPost2010Prop31
280
     0
102
RTVSPost2010PropOp31
 70
     1
102
RTVSPost2010Prop32
280
     0
102
RTVSPost2010PropOp32
 70
     1
102
RTVSPost2010Prop33
280
     0
102
RTVSPost2010PropOp33
 70
     1
102
RTVSPost2010Prop34
280
     0
102
RTVSPost2010PropOp34
 70
     1
102
RTVSPost2010Prop35
280
     0
102
RTVSPost2010PropOp35
 70
     1
102
RTVSPost2010Prop36
280
     0
102
RTVSPost2010PropOp36
 70
     1
102
RTVSPost2010Prop37
 90
       50
102
RTVSPost2010PropOp37
 70
     1
102
RTVSPost2010Prop38
140
0.0
102
RTVSPost2010PropOp38
 70
     1
102
RTVSPost2010Prop39
140
1.0
102
RTVSPost2010PropOp39
 70
     1
102
RTVSPost2010Prop40
 90
        0
102
RTVSPost2010PropOp40
 70
     1
102
RTVSPost2010Prop41ColorIndex
 90
       18
102
RTVSPost2010Prop41ColorRGB
 90
        0
102
RTVSPost2010PropOp41
 70
     1
102
RTVSPost2010Prop42
 90
       50
102
RTVSPost2010PropOp42
 70
     1
102
RTVSPost2010Prop43
 90
        3
102
RTVSPost2010PropOp43
 70
     1
102
RTVSPost2010Prop44ColorIndex
 90
        5
102
RTVSPost2010Prop44ColorRGB
 90
      255
102
RTVSPost2010PropOp44
 70
     1
102
RTVSPost2010Prop45
280
     0
102
RTVSPost2010PropOp45
 70
     1
102
RTVSPost2010Prop46
 90
       50
102
RTVSPost2010PropOp46
 70
     1
102
RTVSPost2010Prop47
 90
       50
102
RTVSPost2010PropOp47
 70
     1
102
RTVSPost2010Prop48
 90
       50
102
RTVSPost2010PropOp48
 70
     1
102
RTVSPost2010Prop49
280
     0
102
RTVSPost2010PropOp49
 70
     1
102
RTVSPost2010Prop50
 90
       50
102
RTVSPost2010PropOp50
 70
     1
102
RTVSPost2010Prop51ColorIndex
 90
      256
102
RTVSPost2010Prop51ColorRGB
 90
-16777216
102
RTVSPost2010PropOp51
 70
     0
102
RTVSPost2010Prop52
140
1.0
102
RTVSPost2010PropOp52
 70
     0
102
RTVSPost2010Prop53
 90
        2
102
RTVSPost2010PropOp53
 70
     1
102
RTVSPost2010Prop54
  1
strokes_ogs.tif
102
RTVSPost2010PropOp54
 70
     1
102
RTVSPost2010Prop55
280
     0
102
RTVSPost2010PropOp55
 70
     1
102
RTVSPost2010Prop56
140
1.0
102
RTVSPost2010PropOp56
 70
     1
102
RTVSPost2010Prop57
140
1.0
102
RTVSPost2010PropOp57
 70
     1
102
RTVSPropertyOp0
 70
     1
102
RTVSPropertyOp1
 70
     1
102
RTVSPropertyOp2
 70
     1
102
RTVSPropertyOp3
 70
     1
102
RTVSPropertyOp4
 70
     1
102
RTVSPropertyOp5
 70
     1
102
RTVSPropertyOp6
 70
     1
102
RTVSPropertyOp7
 70
     1
102
RTVSPropertyOp8
 70
     1
102
RTVSPropertyOp9
 70
     1
102
RTVSPropertyOp10
 70
     1
102
RTVSPropertyOp11
 70
     1
102
RTVSPropertyOp12
 70
     1
102
RTVSPropertyOp13
 70
     1
102
RTVSPropertyOp14
 70
     1
102
RTVSPropertyOp15
 70
     1
102
RTVSPropertyOp16
 70
     1
102
RTVSPropertyOp17
 70
     1
102
RTVSPropertyOp18
 70
     1
102
RTVSPropertyOp19
 70
     1
102
RTVSPropertyOp20
 70
     1
102
RTVSPropertyOp21
 70
     1
102
RTVSPropertyOp22
 70
     1
102
RTVSPropertyOp23
 70
     1
102
RTVSPropertyOp24
 70
     1
102
RTVSPropertyOp25
 70
     1
102
RTVSPropertyOp26
 70
     1
102
RTVSPropertyOp27
 70
     1
102
RTVSPropertyOp28
 70
     1
102
RTVSPropertyOp29
 70
     1
102
RTVSPropertyOp30
 70
     1
102
RTVSPropertyOp31
 70
     1
102
RTVSPropertyOp32
 70
     1
102
RTVSPropertyOp33
 70
     1
102
RTVSPropertyOp34
 70
     1
102
RTVSPropertyOp35
 70
     1
102
RTVSPropertyOp36
 70
     1
102
RTVSPropertyOp37
 70
     1
102
RTVSPropertyOp38
 70
     1
102
RTVSPropertyOp39
 70
     1
102
RTVSPropertyOp40
 70
     1
102
RTVSPropertyOp41
 70
     1
102
RTVSPropertyOp42
 70
     1
102
RTVSPropertyOp43
 70
     1
102
RTVSPropertyOp44
 70
     1
102
RTVSPropertyOp45
 70
     1
102
RTVSPropertyOp46
 70
     1
102
RTVSPropertyOp47
 70
     1
102
RTVSPropertyOp48
 70
     1
102
RTVSPropertyOp49
 70
     1
102
RTVSPropertyOp50
 70
     1
102
RTVSPropertyOp51
 70
     0
102
RTVSPropertyOp52
 70
     0
102
RTVSPropertyOp53
 70
     1
102
RTVSPropertyOp54
 70
     1
102
RTVSPropertyOp55
 70
     1
102
RTVSPropertyOp56
 70
     1
102
RTVSPropertyOp57
 70
     1
102
RTVSPropertyOp58
 70
     1
102
RTVSPropertyOp59
 70
     1
102
RTVSPropertyOp60
 70
     1
102
RTVSPropertyOp61
 70
     1
102
RTVSPropertyOp62
 70
     1
  0
XRECORD
  5
A7F
102
{ACAD_REACTORS
330
A7E
102
}
330
A7E
100
AcDbXrecord
280
     1
102
RTVSPost2010Prop28
280
     0
102
RTVSPost2010PropOp28
 70
     1
102
RTVSPost2010Prop29
280
     1
102
RTVSPost2010PropOp29
 70
     1
102
RTVSPost2010Prop30
280
     1
102
RTVSPost2010PropOp30
 70
     1
102
RTVSPost2010Prop31
280
     0
102
RTVSPost2010PropOp31
 70
     1
102
RTVSPost2010Prop32
280
     0
102
RTVSPost2010PropOp32
 70
     1
102
RTVSPost2010Prop33
280
     0
102
RTVSPost2010PropOp33
 70
     1
102
RTVSPost2010Prop34
280
     0
102
RTVSPost2010PropOp34
 70
     1
102
RTVSPost2010Prop35
280
     0
102
RTVSPost2010PropOp35
 70
     1
102
RTVSPost2010Prop36
280
     0
102
RTVSPost2010PropOp36
 70
     1
102
RTVSPost2010Prop37
 90
       50
102
RTVSPost2010PropOp37
 70
     0
102
RTVSPost2010Prop38
140
0.0
102
RTVSPost2010PropOp38
 70
     0
102
RTVSPost2010Prop39
140
1.0
102
RTVSPost2010PropOp39
 70
     0
102
RTVSPost2010Prop40
 90
        0
102
RTVSPost2010PropOp40
 70
     0
102
RTVSPost2010Prop41ColorIndex
 90
       18
102
RTVSPost2010Prop41ColorRGB
 90
        0
102
RTVSPost2010PropOp41
 70
     0
102
RTVSPost2010Prop42
 90
       50
102
RTVSPost2010PropOp42
 70
     0
102
RTVSPost2010Prop43
 90
        3
102
RTVSPost2010PropOp43
 70
     0
102
RTVSPost2010Prop44ColorIndex
 90
        5
102
RTVSPost2010Prop44ColorRGB
 90
      255
102
RTVSPost2010PropOp44
 70
     0
102
RTVSPost2010Prop45
280
     0
102
RTVSPost2010PropOp45
 70
     1
102
RTVSPost2010Prop46
 90
       50
102
RTVSPost2010PropOp46
 70
     0
102
RTVSPost2010Prop47
 90
       50
102
RTVSPost2010PropOp47
 70
     0
102
RTVSPost2010Prop48
 90
       50
102
RTVSPost2010PropOp48
 70
     0
102
RTVSPost2010Prop49
280
     0
102
RTVSPost2010PropOp49
 70
     1
102
RTVSPost2010Prop50
 90
       50
102
RTVSPost2010PropOp50
 70
     0
102
RTVSPost2010Prop51ColorIndex
 90
      256
102
RTVSPost2010Prop51ColorRGB
 90
-16777216
102
RTVSPost2010PropOp51
 70
     0
102
RTVSPost2010Prop52
140
1.0
102
RTVSPost2010PropOp52
 70
     0
102
RTVSPost2010Prop53
 90
        2
102
RTVSPost2010PropOp53
 70
     0
102
RTVSPost2010Prop54
  1
strokes_ogs.tif
102
RTVSPost2010PropOp54
 70
     0
102
RTVSPost2010Prop55
280
     0
102
RTVSPost2010PropOp55
 70
     1
102
RTVSPost2010Prop56
140
1.0
102
RTVSPost2010PropOp56
 70
     0
102
RTVSPost2010Prop57
140
1.0
102
RTVSPost2010PropOp57
 70
     0
102
RTVSPropertyOp0
 70
     0
102
RTVSPropertyOp1
 70
     0
102
RTVSPropertyOp2
 70
     0
102
RTVSPropertyOp3
 70
     0
102
RTVSPropertyOp4
 70
     0
102
RTVSPropertyOp5
 70
     0
102
RTVSPropertyOp6
 70
     0
102
RTVSPropertyOp7
 70
     0
102
RTVSPropertyOp8
 70
     0
102
RTVSPropertyOp9
 70
     0
102
RTVSPropertyOp10
 70
     0
102
RTVSPropertyOp11
 70
     0
102
RTVSPropertyOp12
 70
     0
102
RTVSPropertyOp13
 70
     0
102
RTVSPropertyOp14
 70
     2
102
RTVSPropertyOp15
 70
     0
102
RTVSPropertyOp16
 70
     0
102
RTVSPropertyOp17
 70
     0
102
RTVSPropertyOp18
 70
     0
102
RTVSPropertyOp19
 70
     0
102
RTVSPropertyOp20
 70
     0
102
RTVSPropertyOp21
 70
     0
102
RTVSPropertyOp22
 70
     0
102
RTVSPropertyOp23
 70
     0
102
RTVSPropertyOp24
 70
     0
102
RTVSPropertyOp25
 70
     0
102
RTVSPropertyOp26
 70
     0
102
RTVSPropertyOp27
 70
     0
102
RTVSPropertyOp28
 70
     1
102
RTVSPropertyOp29
 70
     1
102
RTVSPropertyOp30
 70
     1
102
RTVSPropertyOp31
 70
     1
102
RTVSPropertyOp32
 70
     1
102
RTVSPropertyOp33
 70
     1
102
RTVSPropertyOp34
 70
     1
102
RTVSPropertyOp35
 70
     1
102
RTVSPropertyOp36
 70
     1
102
RTVSPropertyOp37
 70
     0
102
RTVSPropertyOp38
 70
     0
102
RTVSPropertyOp39
 70
     0
102
RTVSPropertyOp40
 70
     0
102
RTVSPropertyOp41
 70
     0
102
RTVSPropertyOp42
 70
     0
102
RTVSPropertyOp43
 70
     0
102
RTVSPropertyOp44
 70
     0
102
RTVSPropertyOp45
 70
     1
102
RTVSPropertyOp46
 70
     0
102
RTVSPropertyOp47
 70
     0
102
RTVSPropertyOp48
 70
     0
102
RTVSPropertyOp49
 70
     1
102
RTVSPropertyOp50
 70
     0
102
RTVSPropertyOp51
 70
     0
102
RTVSPropertyOp52
 70
     0
102
RTVSPropertyOp53
 70
     0
102
RTVSPropertyOp54
 70
     0
102
RTVSPropertyOp55
 70
     1
102
RTVSPropertyOp56
 70
     0
102
RTVSPropertyOp57
 70
     0
102
RTVSPropertyOp58
 70
     0
102
RTVSPropertyOp59
 70
     0
102
RTVSPropertyOp60
 70
     0
102
RTVSPropertyOp61
 70
     0
102
RTVSPropertyOp62
 70
     0
  0
XRECORD
  5
A6D
102
{ACAD_REACTORS
330
A6C
102
}
330
A6C
100
AcDbXrecord
280
     1
102
RTVSPost2010Prop28
280
     0
102
RTVSPost2010PropOp28
 70
     1
102
RTVSPost2010Prop29
280
     1
102
RTVSPost2010PropOp29
 70
     1
102
RTVSPost2010Prop30
280
     1
102
RTVSPost2010PropOp30
 70
     1
102
RTVSPost2010Prop31
280
     0
102
RTVSPost2010PropOp31
 70
     1
102
RTVSPost2010Prop32
280
     0
102
RTVSPost2010PropOp32
 70
     1
102
RTVSPost2010Prop33
280
     0
102
RTVSPost2010PropOp33
 70
     1
102
RTVSPost2010Prop34
280
     0
102
RTVSPost2010PropOp34
 70
     1
102
RTVSPost2010Prop35
280
     0
102
RTVSPost2010PropOp35
 70
     1
102
RTVSPost2010Prop36
280
     0
102
RTVSPost2010PropOp36
 70
     1
102
RTVSPost2010Prop37
 90
       50
102
RTVSPost2010PropOp37
 70
     1
102
RTVSPost2010Prop38
140
0.0
102
RTVSPost2010PropOp38
 70
     1
102
RTVSPost2010Prop39
140
1.0
102
RTVSPost2010PropOp39
 70
     1
102
RTVSPost2010Prop40
 90
        0
102
RTVSPost2010PropOp40
 70
     1
102
RTVSPost2010Prop41ColorIndex
 90
       18
102
RTVSPost2010Prop41ColorRGB
 90
        0
102
RTVSPost2010PropOp41
 70
     1
102
RTVSPost2010Prop42
 90
       50
102
RTVSPost2010PropOp42
 70
     1
102
RTVSPost2010Prop43
 90
        3
102
RTVSPost2010PropOp43
 70
     1
102
RTVSPost2010Prop44ColorIndex
 90
        5
102
RTVSPost2010Prop44ColorRGB
 90
      255
102
RTVSPost2010PropOp44
 70
     1
102
RTVSPost2010Prop45
280
     0
102
RTVSPost2010PropOp45
 70
     1
102
RTVSPost2010Prop46
 90
       50
102
RTVSPost2010PropOp46
 70
     1
102
RTVSPost2010Prop47
 90
       50
102
RTVSPost2010PropOp47
 70
     1
102
RTVSPost2010Prop48
 90
       50
102
RTVSPost2010PropOp48
 70
     1
102
RTVSPost2010Prop49
280
     0
102
RTVSPost2010PropOp49
 70
     1
102
RTVSPost2010Prop50
 90
       50
102
RTVSPost2010PropOp50
 70
     1
102
RTVSPost2010Prop51ColorIndex
 90
      256
102
RTVSPost2010Prop51ColorRGB
 90
-16777216
102
RTVSPost2010PropOp51
 70
     0
102
RTVSPost2010Prop52
140
1.0
102
RTVSPost2010PropOp52
 70
     0
102
RTVSPost2010Prop53
 90
        2
102
RTVSPost2010PropOp53
 70
     1
102
RTVSPost2010Prop54
  1
strokes_ogs.tif
102
RTVSPost2010PropOp54
 70
     1
102
RTVSPost2010Prop55
280
     0
102
RTVSPost2010PropOp55
 70
     1
102
RTVSPost2010Prop56
140
1.0
102
RTVSPost2010PropOp56
 70
     1
102
RTVSPost2010Prop57
140
1.0
102
RTVSPost2010PropOp57
 70
     1
102
RTVSPropertyOp0
 70
     1
102
RTVSPropertyOp1
 70
     1
102
RTVSPropertyOp2
 70
     1
102
RTVSPropertyOp3
 70
     1
102
RTVSPropertyOp4
 70
     1
102
RTVSPropertyOp5
 70
     1
102
RTVSPropertyOp6
 70
     1
102
RTVSPropertyOp7
 70
     1
102
RTVSPropertyOp8
 70
     1
102
RTVSPropertyOp9
 70
     1
102
RTVSPropertyOp10
 70
     1
102
RTVSPropertyOp11
 70
     1
102
RTVSPropertyOp12
 70
     1
102
RTVSPropertyOp13
 70
     1
102
RTVSPropertyOp14
 70
     1
102
RTVSPropertyOp15
 70
     1
102
RTVSPropertyOp16
 70
     1
102
RTVSPropertyOp17
 70
     1
102
RTVSPropertyOp18
 70
     1
102
RTVSPropertyOp19
 70
     1
102
RTVSPropertyOp20
 70
     1
102
RTVSPropertyOp21
 70
     1
102
RTVSPropertyOp22
 70
     1
102
RTVSPropertyOp23
 70
     1
102
RTVSPropertyOp24
 70
     1
102
RTVSPropertyOp25
 70
     1
102
RTVSPropertyOp26
 70
     1
102
RTVSPropertyOp27
 70
     1
102
RTVSPropertyOp28
 70
     1
102
RTVSPropertyOp29
 70
     1
102
RTVSPropertyOp30
 70
     1
102
RTVSPropertyOp31
 70
     1
102
RTVSPropertyOp32
 70
     1
102
RTVSPropertyOp33
 70
     1
102
RTVSPropertyOp34
 70
     1
102
RTVSPropertyOp35
 70
     1
102
RTVSPropertyOp36
 70
     1
102
RTVSPropertyOp37
 70
     1
102
RTVSPropertyOp38
 70
     1
102
RTVSPropertyOp39
 70
     1
102
RTVSPropertyOp40
 70
     1
102
RTVSPropertyOp41
 70
     1
102
RTVSPropertyOp42
 70
     1
102
RTVSPropertyOp43
 70
     1
102
RTVSPropertyOp44
 70
     1
102
RTVSPropertyOp45
 70
     1
102
RTVSPropertyOp46
 70
     1
102
RTVSPropertyOp47
 70
     1
102
RTVSPropertyOp48
 70
     1
102
RTVSPropertyOp49
 70
     1
102
RTVSPropertyOp50
 70
     1
102
RTVSPropertyOp51
 70
     0
102
RTVSPropertyOp52
 70
     0
102
RTVSPropertyOp53
 70
     1
102
RTVSPropertyOp54
 70
     1
102
RTVSPropertyOp55
 70
     1
102
RTVSPropertyOp56
 70
     1
102
RTVSPropertyOp57
 70
     1
102
RTVSPropertyOp58
 70
     1
102
RTVSPropertyOp59
 70
     1
102
RTVSPropertyOp60
 70
     1
102
RTVSPropertyOp61
 70
     1
102
RTVSPropertyOp62
 70
     1
  0
XRECORD
  5
A51
102
{ACAD_REACTORS
330
A50
102
}
330
A50
100
AcDbXrecord
280
     1
102
RTVSPost2010Prop28
280
     0
102
RTVSPost2010PropOp28
 70
     1
102
RTVSPost2010Prop29
280
     1
102
RTVSPost2010PropOp29
 70
     1
102
RTVSPost2010Prop30
280
     1
102
RTVSPost2010PropOp30
 70
     1
102
RTVSPost2010Prop31
280
     0
102
RTVSPost2010PropOp31
 70
     1
102
RTVSPost2010Prop32
280
     0
102
RTVSPost2010PropOp32
 70
     1
102
RTVSPost2010Prop33
280
     0
102
RTVSPost2010PropOp33
 70
     1
102
RTVSPost2010Prop34
280
     0
102
RTVSPost2010PropOp34
 70
     1
102
RTVSPost2010Prop35
280
     0
102
RTVSPost2010PropOp35
 70
     1
102
RTVSPost2010Prop36
280
     0
102
RTVSPost2010PropOp36
 70
     1
102
RTVSPost2010Prop37
 90
       50
102
RTVSPost2010PropOp37
 70
     1
102
RTVSPost2010Prop38
140
0.0
102
RTVSPost2010PropOp38
 70
     1
102
RTVSPost2010Prop39
140
1.0
102
RTVSPost2010PropOp39
 70
     1
102
RTVSPost2010Prop40
 90
        0
102
RTVSPost2010PropOp40
 70
     1
102
RTVSPost2010Prop41ColorIndex
 90
       18
102
RTVSPost2010Prop41ColorRGB
 90
        0
102
RTVSPost2010PropOp41
 70
     1
102
RTVSPost2010Prop42
 90
       50
102
RTVSPost2010PropOp42
 70
     1
102
RTVSPost2010Prop43
 90
        3
102
RTVSPost2010PropOp43
 70
     1
102
RTVSPost2010Prop44ColorIndex
 90
        5
102
RTVSPost2010Prop44ColorRGB
 90
      255
102
RTVSPost2010PropOp44
 70
     1
102
RTVSPost2010Prop45
280
     0
102
RTVSPost2010PropOp45
 70
     1
102
RTVSPost2010Prop46
 90
       50
102
RTVSPost2010PropOp46
 70
     1
102
RTVSPost2010Prop47
 90
       50
102
RTVSPost2010PropOp47
 70
     1
102
RTVSPost2010Prop48
 90
       50
102
RTVSPost2010PropOp48
 70
     1
102
RTVSPost2010Prop49
280
     0
102
RTVSPost2010PropOp49
 70
     1
102
RTVSPost2010Prop50
 90
       50
102
RTVSPost2010PropOp50
 70
     1
102
RTVSPost2010Prop51ColorIndex
 90
      256
102
RTVSPost2010Prop51ColorRGB
 90
-16777216
102
RTVSPost2010PropOp51
 70
     0
102
RTVSPost2010Prop52
140
1.0
102
RTVSPost2010PropOp52
 70
     0
102
RTVSPost2010Prop53
 90
        2
102
RTVSPost2010PropOp53
 70
     1
102
RTVSPost2010Prop54
  1
strokes_ogs.tif
102
RTVSPost2010PropOp54
 70
     1
102
RTVSPost2010Prop55
280
     0
102
RTVSPost2010PropOp55
 70
     1
102
RTVSPost2010Prop56
140
1.0
102
RTVSPost2010PropOp56
 70
     1
102
RTVSPost2010Prop57
140
1.0
102
RTVSPost2010PropOp57
 70
     1
102
RTVSPropertyOp0
 70
     1
102
RTVSPropertyOp1
 70
     1
102
RTVSPropertyOp2
 70
     1
102
RTVSPropertyOp3
 70
     1
102
RTVSPropertyOp4
 70
     1
102
RTVSPropertyOp5
 70
     1
102
RTVSPropertyOp6
 70
     1
102
RTVSPropertyOp7
 70
     1
102
RTVSPropertyOp8
 70
     1
102
RTVSPropertyOp9
 70
     1
102
RTVSPropertyOp10
 70
     1
102
RTVSPropertyOp11
 70
     1
102
RTVSPropertyOp12
 70
     1
102
RTVSPropertyOp13
 70
     1
102
RTVSPropertyOp14
 70
     1
102
RTVSPropertyOp15
 70
     1
102
RTVSPropertyOp16
 70
     1
102
RTVSPropertyOp17
 70
     1
102
RTVSPropertyOp18
 70
     1
102
RTVSPropertyOp19
 70
     1
102
RTVSPropertyOp20
 70
     1
102
RTVSPropertyOp21
 70
     1
102
RTVSPropertyOp22
 70
     1
102
RTVSPropertyOp23
 70
     1
102
RTVSPropertyOp24
 70
     1
102
RTVSPropertyOp25
 70
     1
102
RTVSPropertyOp26
 70
     1
102
RTVSPropertyOp27
 70
     1
102
RTVSPropertyOp28
 70
     1
102
RTVSPropertyOp29
 70
     1
102
RTVSPropertyOp30
 70
     1
102
RTVSPropertyOp31
 70
     1
102
RTVSPropertyOp32
 70
     1
102
RTVSPropertyOp33
 70
     1
102
RTVSPropertyOp34
 70
     1
102
RTVSPropertyOp35
 70
     1
102
RTVSPropertyOp36
 70
     1
102
RTVSPropertyOp37
 70
     1
102
RTVSPropertyOp38
 70
     1
102
RTVSPropertyOp39
 70
     1
102
RTVSPropertyOp40
 70
     1
102
RTVSPropertyOp41
 70
     1
102
RTVSPropertyOp42
 70
     1
102
RTVSPropertyOp43
 70
     1
102
RTVSPropertyOp44
 70
     1
102
RTVSPropertyOp45
 70
     1
102
RTVSPropertyOp46
 70
     1
102
RTVSPropertyOp47
 70
     1
102
RTVSPropertyOp48
 70
     1
102
RTVSPropertyOp49
 70
     1
102
RTVSPropertyOp50
 70
     1
102
RTVSPropertyOp51
 70
     0
102
RTVSPropertyOp52
 70
     0
102
RTVSPropertyOp53
 70
     1
102
RTVSPropertyOp54
 70
     1
102
RTVSPropertyOp55
 70
     1
102
RTVSPropertyOp56
 70
     1
102
RTVSPropertyOp57
 70
     1
102
RTVSPropertyOp58
 70
     1
102
RTVSPropertyOp59
 70
     1
102
RTVSPropertyOp60
 70
     1
102
RTVSPropertyOp61
 70
     1
102
RTVSPropertyOp62
 70
     1
  0
XRECORD
  5
A53
102
{ACAD_REACTORS
330
A52
102
}
330
A52
100
AcDbXrecord
280
     1
102
RTVSPost2010Prop28
280
     0
102
RTVSPost2010PropOp28
 70
     1
102
RTVSPost2010Prop29
280
     1
102
RTVSPost2010PropOp29
 70
     1
102
RTVSPost2010Prop30
280
     1
102
RTVSPost2010PropOp30
 70
     1
102
RTVSPost2010Prop31
280
     0
102
RTVSPost2010PropOp31
 70
     1
102
RTVSPost2010Prop32
280
     0
102
RTVSPost2010PropOp32
 70
     1
102
RTVSPost2010Prop33
280
     0
102
RTVSPost2010PropOp33
 70
     1
102
RTVSPost2010Prop34
280
     0
102
RTVSPost2010PropOp34
 70
     1
102
RTVSPost2010Prop35
280
     0
102
RTVSPost2010PropOp35
 70
     1
102
RTVSPost2010Prop36
280
     0
102
RTVSPost2010PropOp36
 70
     1
102
RTVSPost2010Prop37
 90
       50
102
RTVSPost2010PropOp37
 70
     1
102
RTVSPost2010Prop38
140
0.0
102
RTVSPost2010PropOp38
 70
     1
102
RTVSPost2010Prop39
140
1.0
102
RTVSPost2010PropOp39
 70
     1
102
RTVSPost2010Prop40
 90
        0
102
RTVSPost2010PropOp40
 70
     1
102
RTVSPost2010Prop41ColorIndex
 90
       18
102
RTVSPost2010Prop41ColorRGB
 90
        0
102
RTVSPost2010PropOp41
 70
     1
102
RTVSPost2010Prop42
 90
       50
102
RTVSPost2010PropOp42
 70
     1
102
RTVSPost2010Prop43
 90
        3
102
RTVSPost2010PropOp43
 70
     1
102
RTVSPost2010Prop44ColorIndex
 90
        5
102
RTVSPost2010Prop44ColorRGB
 90
      255
102
RTVSPost2010PropOp44
 70
     1
102
RTVSPost2010Prop45
280
     0
102
RTVSPost2010PropOp45
 70
     1
102
RTVSPost2010Prop46
 90
       50
102
RTVSPost2010PropOp46
 70
     1
102
RTVSPost2010Prop47
 90
       50
102
RTVSPost2010PropOp47
 70
     1
102
RTVSPost2010Prop48
 90
       50
102
RTVSPost2010PropOp48
 70
     1
102
RTVSPost2010Prop49
280
     0
102
RTVSPost2010PropOp49
 70
     1
102
RTVSPost2010Prop50
 90
       50
102
RTVSPost2010PropOp50
 70
     1
102
RTVSPost2010Prop51ColorIndex
 90
      256
102
RTVSPost2010Prop51ColorRGB
 90
-16777216
102
RTVSPost2010PropOp51
 70
     0
102
RTVSPost2010Prop52
140
1.0
102
RTVSPost2010PropOp52
 70
     0
102
RTVSPost2010Prop53
 90
        2
102
RTVSPost2010PropOp53
 70
     1
102
RTVSPost2010Prop54
  1
strokes_ogs.tif
102
RTVSPost2010PropOp54
 70
     1
102
RTVSPost2010Prop55
280
     0
102
RTVSPost2010PropOp55
 70
     1
102
RTVSPost2010Prop56
140
1.0
102
RTVSPost2010PropOp56
 70
     1
102
RTVSPost2010Prop57
140
1.0
102
RTVSPost2010PropOp57
 70
     1
102
RTVSPropertyOp0
 70
     1
102
RTVSPropertyOp1
 70
     1
102
RTVSPropertyOp2
 70
     1
102
RTVSPropertyOp3
 70
     1
102
RTVSPropertyOp4
 70
     1
102
RTVSPropertyOp5
 70
     1
102
RTVSPropertyOp6
 70
     1
102
RTVSPropertyOp7
 70
     1
102
RTVSPropertyOp8
 70
     1
102
RTVSPropertyOp9
 70
     1
102
RTVSPropertyOp10
 70
     1
102
RTVSPropertyOp11
 70
     1
102
RTVSPropertyOp12
 70
     1
102
RTVSPropertyOp13
 70
     1
102
RTVSPropertyOp14
 70
     1
102
RTVSPropertyOp15
 70
     1
102
RTVSPropertyOp16
 70
     1
102
RTVSPropertyOp17
 70
     1
102
RTVSPropertyOp18
 70
     1
102
RTVSPropertyOp19
 70
     1
102
RTVSPropertyOp20
 70
     1
102
RTVSPropertyOp21
 70
     1
102
RTVSPropertyOp22
 70
     1
102
RTVSPropertyOp23
 70
     1
102
RTVSPropertyOp24
 70
     1
102
RTVSPropertyOp25
 70
     1
102
RTVSPropertyOp26
 70
     1
102
RTVSPropertyOp27
 70
     1
102
RTVSPropertyOp28
 70
     1
102
RTVSPropertyOp29
 70
     1
102
RTVSPropertyOp30
 70
     1
102
RTVSPropertyOp31
 70
     1
102
RTVSPropertyOp32
 70
     1
102
RTVSPropertyOp33
 70
     1
102
RTVSPropertyOp34
 70
     1
102
RTVSPropertyOp35
 70
     1
102
RTVSPropertyOp36
 70
     1
102
RTVSPropertyOp37
 70
     1
102
RTVSPropertyOp38
 70
     1
102
RTVSPropertyOp39
 70
     1
102
RTVSPropertyOp40
 70
     1
102
RTVSPropertyOp41
 70
     1
102
RTVSPropertyOp42
 70
     1
102
RTVSPropertyOp43
 70
     1
102
RTVSPropertyOp44
 70
     1
102
RTVSPropertyOp45
 70
     1
102
RTVSPropertyOp46
 70
     1
102
RTVSPropertyOp47
 70
     1
102
RTVSPropertyOp48
 70
     1
102
RTVSPropertyOp49
 70
     1
102
RTVSPropertyOp50
 70
     1
102
RTVSPropertyOp51
 70
     0
102
RTVSPropertyOp52
 70
     0
102
RTVSPropertyOp53
 70
     1
102
RTVSPropertyOp54
 70
     1
102
RTVSPropertyOp55
 70
     1
102
RTVSPropertyOp56
 70
     1
102
RTVSPropertyOp57
 70
     1
102
RTVSPropertyOp58
 70
     1
102
RTVSPropertyOp59
 70
     1
102
RTVSPropertyOp60
 70
     1
102
RTVSPropertyOp61
 70
     1
102
RTVSPropertyOp62
 70
     1
  0
XRECORD
  5
A55
102
{ACAD_REACTORS
330
A54
102
}
330
A54
100
AcDbXrecord
280
     1
102
RTVSPost2010Prop28
280
     0
102
RTVSPost2010PropOp28
 70
     1
102
RTVSPost2010Prop29
280
     1
102
RTVSPost2010PropOp29
 70
     1
102
RTVSPost2010Prop30
280
     1
102
RTVSPost2010PropOp30
 70
     1
102
RTVSPost2010Prop31
280
     0
102
RTVSPost2010PropOp31
 70
     1
102
RTVSPost2010Prop32
280
     0
102
RTVSPost2010PropOp32
 70
     1
102
RTVSPost2010Prop33
280
     0
102
RTVSPost2010PropOp33
 70
     1
102
RTVSPost2010Prop34
280
     0
102
RTVSPost2010PropOp34
 70
     1
102
RTVSPost2010Prop35
280
     0
102
RTVSPost2010PropOp35
 70
     1
102
RTVSPost2010Prop36
280
     0
102
RTVSPost2010PropOp36
 70
     1
102
RTVSPost2010Prop37
 90
       50
102
RTVSPost2010PropOp37
 70
     1
102
RTVSPost2010Prop38
140
0.0
102
RTVSPost2010PropOp38
 70
     1
102
RTVSPost2010Prop39
140
1.0
102
RTVSPost2010PropOp39
 70
     1
102
RTVSPost2010Prop40
 90
        0
102
RTVSPost2010PropOp40
 70
     1
102
RTVSPost2010Prop41ColorIndex
 90
       18
102
RTVSPost2010Prop41ColorRGB
 90
        0
102
RTVSPost2010PropOp41
 70
     1
102
RTVSPost2010Prop42
 90
       50
102
RTVSPost2010PropOp42
 70
     1
102
RTVSPost2010Prop43
 90
        3
102
RTVSPost2010PropOp43
 70
     1
102
RTVSPost2010Prop44ColorIndex
 90
        5
102
RTVSPost2010Prop44ColorRGB
 90
      255
102
RTVSPost2010PropOp44
 70
     1
102
RTVSPost2010Prop45
280
     0
102
RTVSPost2010PropOp45
 70
     1
102
RTVSPost2010Prop46
 90
       50
102
RTVSPost2010PropOp46
 70
     1
102
RTVSPost2010Prop47
 90
       50
102
RTVSPost2010PropOp47
 70
     1
102
RTVSPost2010Prop48
 90
       50
102
RTVSPost2010PropOp48
 70
     1
102
RTVSPost2010Prop49
280
     0
102
RTVSPost2010PropOp49
 70
     1
102
RTVSPost2010Prop50
 90
       50
102
RTVSPost2010PropOp50
 70
     1
102
RTVSPost2010Prop51ColorIndex
 90
      256
102
RTVSPost2010Prop51ColorRGB
 90
-16777216
102
RTVSPost2010PropOp51
 70
     0
102
RTVSPost2010Prop52
140
1.0
102
RTVSPost2010PropOp52
 70
     0
102
RTVSPost2010Prop53
 90
        2
102
RTVSPost2010PropOp53
 70
     1
102
RTVSPost2010Prop54
  1
strokes_ogs.tif
102
RTVSPost2010PropOp54
 70
     1
102
RTVSPost2010Prop55
280
     0
102
RTVSPost2010PropOp55
 70
     1
102
RTVSPost2010Prop56
140
1.0
102
RTVSPost2010PropOp56
 70
     1
102
RTVSPost2010Prop57
140
1.0
102
RTVSPost2010PropOp57
 70
     1
102
RTVSPropertyOp0
 70
     1
102
RTVSPropertyOp1
 70
     1
102
RTVSPropertyOp2
 70
     1
102
RTVSPropertyOp3
 70
     1
102
RTVSPropertyOp4
 70
     1
102
RTVSPropertyOp5
 70
     1
102
RTVSPropertyOp6
 70
     1
102
RTVSPropertyOp7
 70
     1
102
RTVSPropertyOp8
 70
     1
102
RTVSPropertyOp9
 70
     1
102
RTVSPropertyOp10
 70
     1
102
RTVSPropertyOp11
 70
     1
102
RTVSPropertyOp12
 70
     1
102
RTVSPropertyOp13
 70
     1
102
RTVSPropertyOp14
 70
     1
102
RTVSPropertyOp15
 70
     1
102
RTVSPropertyOp16
 70
     1
102
RTVSPropertyOp17
 70
     1
102
RTVSPropertyOp18
 70
     1
102
RTVSPropertyOp19
 70
     1
102
RTVSPropertyOp20
 70
     1
102
RTVSPropertyOp21
 70
     1
102
RTVSPropertyOp22
 70
     1
102
RTVSPropertyOp23
 70
     1
102
RTVSPropertyOp24
 70
     1
102
RTVSPropertyOp25
 70
     1
102
RTVSPropertyOp26
 70
     1
102
RTVSPropertyOp27
 70
     1
102
RTVSPropertyOp28
 70
     1
102
RTVSPropertyOp29
 70
     1
102
RTVSPropertyOp30
 70
     1
102
RTVSPropertyOp31
 70
     1
102
RTVSPropertyOp32
 70
     1
102
RTVSPropertyOp33
 70
     1
102
RTVSPropertyOp34
 70
     1
102
RTVSPropertyOp35
 70
     1
102
RTVSPropertyOp36
 70
     1
102
RTVSPropertyOp37
 70
     1
102
RTVSPropertyOp38
 70
     1
102
RTVSPropertyOp39
 70
     1
102
RTVSPropertyOp40
 70
     1
102
RTVSPropertyOp41
 70
     1
102
RTVSPropertyOp42
 70
     1
102
RTVSPropertyOp43
 70
     1
102
RTVSPropertyOp44
 70
     1
102
RTVSPropertyOp45
 70
     1
102
RTVSPropertyOp46
 70
     1
102
RTVSPropertyOp47
 70
     1
102
RTVSPropertyOp48
 70
     1
102
RTVSPropertyOp49
 70
     1
102
RTVSPropertyOp50
 70
     1
102
RTVSPropertyOp51
 70
     0
102
RTVSPropertyOp52
 70
     0
102
RTVSPropertyOp53
 70
     1
102
RTVSPropertyOp54
 70
     1
102
RTVSPropertyOp55
 70
     1
102
RTVSPropertyOp56
 70
     1
102
RTVSPropertyOp57
 70
     1
102
RTVSPropertyOp58
 70
     1
102
RTVSPropertyOp59
 70
     1
102
RTVSPropertyOp60
 70
     1
102
RTVSPropertyOp61
 70
     1
102
RTVSPropertyOp62
 70
     1
  0
XRECORD
  5
A57
102
{ACAD_REACTORS
330
A56
102
}
330
A56
100
AcDbXrecord
280
     1
102
RTVSPost2010Prop28
280
     0
102
RTVSPost2010PropOp28
 70
     1
102
RTVSPost2010Prop29
280
     1
102
RTVSPost2010PropOp29
 70
     1
102
RTVSPost2010Prop30
280
     1
102
RTVSPost2010PropOp30
 70
     1
102
RTVSPost2010Prop31
280
     0
102
RTVSPost2010PropOp31
 70
     1
102
RTVSPost2010Prop32
280
     0
102
RTVSPost2010PropOp32
 70
     1
102
RTVSPost2010Prop33
280
     0
102
RTVSPost2010PropOp33
 70
     1
102
RTVSPost2010Prop34
280
     0
102
RTVSPost2010PropOp34
 70
     1
102
RTVSPost2010Prop35
280
     0
102
RTVSPost2010PropOp35
 70
     1
102
RTVSPost2010Prop36
280
     0
102
RTVSPost2010PropOp36
 70
     1
102
RTVSPost2010Prop37
 90
       50
102
RTVSPost2010PropOp37
 70
     1
102
RTVSPost2010Prop38
140
0.0
102
RTVSPost2010PropOp38
 70
     1
102
RTVSPost2010Prop39
140
1.0
102
RTVSPost2010PropOp39
 70
     1
102
RTVSPost2010Prop40
 90
        0
102
RTVSPost2010PropOp40
 70
     1
102
RTVSPost2010Prop41ColorIndex
 90
       18
102
RTVSPost2010Prop41ColorRGB
 90
        0
102
RTVSPost2010PropOp41
 70
     1
102
RTVSPost2010Prop42
 90
       50
102
RTVSPost2010PropOp42
 70
     1
102
RTVSPost2010Prop43
 90
        3
102
RTVSPost2010PropOp43
 70
     1
102
RTVSPost2010Prop44ColorIndex
 90
        5
102
RTVSPost2010Prop44ColorRGB
 90
      255
102
RTVSPost2010PropOp44
 70
     1
102
RTVSPost2010Prop45
280
     0
102
RTVSPost2010PropOp45
 70
     1
102
RTVSPost2010Prop46
 90
       50
102
RTVSPost2010PropOp46
 70
     1
102
RTVSPost2010Prop47
 90
       50
102
RTVSPost2010PropOp47
 70
     1
102
RTVSPost2010Prop48
 90
       50
102
RTVSPost2010PropOp48
 70
     1
102
RTVSPost2010Prop49
280
     0
102
RTVSPost2010PropOp49
 70
     1
102
RTVSPost2010Prop50
 90
       50
102
RTVSPost2010PropOp50
 70
     1
102
RTVSPost2010Prop51ColorIndex
 90
      256
102
RTVSPost2010Prop51ColorRGB
 90
-16777216
102
RTVSPost2010PropOp51
 70
     0
102
RTVSPost2010Prop52
140
1.0
102
RTVSPost2010PropOp52
 70
     0
102
RTVSPost2010Prop53
 90
        2
102
RTVSPost2010PropOp53
 70
     1
102
RTVSPost2010Prop54
  1
strokes_ogs.tif
102
RTVSPost2010PropOp54
 70
     1
102
RTVSPost2010Prop55
280
     0
102
RTVSPost2010PropOp55
 70
     1
102
RTVSPost2010Prop56
140
1.0
102
RTVSPost2010PropOp56
 70
     1
102
RTVSPost2010Prop57
140
1.0
102
RTVSPost2010PropOp57
 70
     1
102
RTVSPropertyOp0
 70
     1
102
RTVSPropertyOp1
 70
     1
102
RTVSPropertyOp2
 70
     1
102
RTVSPropertyOp3
 70
     1
102
RTVSPropertyOp4
 70
     1
102
RTVSPropertyOp5
 70
     1
102
RTVSPropertyOp6
 70
     1
102
RTVSPropertyOp7
 70
     1
102
RTVSPropertyOp8
 70
     1
102
RTVSPropertyOp9
 70
     1
102
RTVSPropertyOp10
 70
     1
102
RTVSPropertyOp11
 70
     1
102
RTVSPropertyOp12
 70
     1
102
RTVSPropertyOp13
 70
     1
102
RTVSPropertyOp14
 70
     1
102
RTVSPropertyOp15
 70
     1
102
RTVSPropertyOp16
 70
     1
102
RTVSPropertyOp17
 70
     1
102
RTVSPropertyOp18
 70
     1
102
RTVSPropertyOp19
 70
     1
102
RTVSPropertyOp20
 70
     1
102
RTVSPropertyOp21
 70
     1
102
RTVSPropertyOp22
 70
     1
102
RTVSPropertyOp23
 70
     1
102
RTVSPropertyOp24
 70
     1
102
RTVSPropertyOp25
 70
     1
102
RTVSPropertyOp26
 70
     1
102
RTVSPropertyOp27
 70
     1
102
RTVSPropertyOp28
 70
     1
102
RTVSPropertyOp29
 70
     1
102
RTVSPropertyOp30
 70
     1
102
RTVSPropertyOp31
 70
     1
102
RTVSPropertyOp32
 70
     1
102
RTVSPropertyOp33
 70
     1
102
RTVSPropertyOp34
 70
     1
102
RTVSPropertyOp35
 70
     1
102
RTVSPropertyOp36
 70
     1
102
RTVSPropertyOp37
 70
     1
102
RTVSPropertyOp38
 70
     1
102
RTVSPropertyOp39
 70
     1
102
RTVSPropertyOp40
 70
     1
102
RTVSPropertyOp41
 70
     1
102
RTVSPropertyOp42
 70
     1
102
RTVSPropertyOp43
 70
     1
102
RTVSPropertyOp44
 70
     1
102
RTVSPropertyOp45
 70
     1
102
RTVSPropertyOp46
 70
     1
102
RTVSPropertyOp47
 70
     1
102
RTVSPropertyOp48
 70
     1
102
RTVSPropertyOp49
 70
     1
102
RTVSPropertyOp50
 70
     1
102
RTVSPropertyOp51
 70
     0
102
RTVSPropertyOp52
 70
     0
102
RTVSPropertyOp53
 70
     1
102
RTVSPropertyOp54
 70
     1
102
RTVSPropertyOp55
 70
     1
102
RTVSPropertyOp56
 70
     1
102
RTVSPropertyOp57
 70
     1
102
RTVSPropertyOp58
 70
     1
102
RTVSPropertyOp59
 70
     1
102
RTVSPropertyOp60
 70
     1
102
RTVSPropertyOp61
 70
     1
102
RTVSPropertyOp62
 70
     1
  0
XRECORD
  5
A5F
102
{ACAD_REACTORS
330
A5E
102
}
330
A5E
100
AcDbXrecord
280
     1
102
RTVSPost2010Prop28
280
     0
102
RTVSPost2010PropOp28
 70
     1
102
RTVSPost2010Prop29
280
     1
102
RTVSPost2010PropOp29
 70
     1
102
RTVSPost2010Prop30
280
     1
102
RTVSPost2010PropOp30
 70
     1
102
RTVSPost2010Prop31
280
     0
102
RTVSPost2010PropOp31
 70
     1
102
RTVSPost2010Prop32
280
     0
102
RTVSPost2010PropOp32
 70
     1
102
RTVSPost2010Prop33
280
     0
102
RTVSPost2010PropOp33
 70
     1
102
RTVSPost2010Prop34
280
     0
102
RTVSPost2010PropOp34
 70
     1
102
RTVSPost2010Prop35
280
     0
102
RTVSPost2010PropOp35
 70
     1
102
RTVSPost2010Prop36
280
     0
102
RTVSPost2010PropOp36
 70
     1
102
RTVSPost2010Prop37
 90
       50
102
RTVSPost2010PropOp37
 70
     1
102
RTVSPost2010Prop38
140
0.0
102
RTVSPost2010PropOp38
 70
     1
102
RTVSPost2010Prop39
140
1.0
102
RTVSPost2010PropOp39
 70
     1
102
RTVSPost2010Prop40
 90
        0
102
RTVSPost2010PropOp40
 70
     1
102
RTVSPost2010Prop41ColorIndex
 90
       18
102
RTVSPost2010Prop41ColorRGB
 90
        0
102
RTVSPost2010PropOp41
 70
     1
102
RTVSPost2010Prop42
 90
       50
102
RTVSPost2010PropOp42
 70
     1
102
RTVSPost2010Prop43
 90
        3
102
RTVSPost2010PropOp43
 70
     1
102
RTVSPost2010Prop44ColorIndex
 90
        5
102
RTVSPost2010Prop44ColorRGB
 90
      255
102
RTVSPost2010PropOp44
 70
     1
102
RTVSPost2010Prop45
280
     0
102
RTVSPost2010PropOp45
 70
     1
102
RTVSPost2010Prop46
 90
       50
102
RTVSPost2010PropOp46
 70
     1
102
RTVSPost2010Prop47
 90
       50
102
RTVSPost2010PropOp47
 70
     1
102
RTVSPost2010Prop48
 90
       50
102
RTVSPost2010PropOp48
 70
     1
102
RTVSPost2010Prop49
280
     0
102
RTVSPost2010PropOp49
 70
     1
102
RTVSPost2010Prop50
 90
       50
102
RTVSPost2010PropOp50
 70
     1
102
RTVSPost2010Prop51ColorIndex
 90
      256
102
RTVSPost2010Prop51ColorRGB
 90
-16777216
102
RTVSPost2010PropOp51
 70
     0
102
RTVSPost2010Prop52
140
1.0
102
RTVSPost2010PropOp52
 70
     0
102
RTVSPost2010Prop53
 90
        2
102
RTVSPost2010PropOp53
 70
     1
102
RTVSPost2010Prop54
  1
strokes_ogs.tif
102
RTVSPost2010PropOp54
 70
     1
102
RTVSPost2010Prop55
280
     0
102
RTVSPost2010PropOp55
 70
     1
102
RTVSPost2010Prop56
140
1.0
102
RTVSPost2010PropOp56
 70
     1
102
RTVSPost2010Prop57
140
1.0
102
RTVSPost2010PropOp57
 70
     1
102
RTVSPropertyOp0
 70
     1
102
RTVSPropertyOp1
 70
     1
102
RTVSPropertyOp2
 70
     1
102
RTVSPropertyOp3
 70
     1
102
RTVSPropertyOp4
 70
     1
102
RTVSPropertyOp5
 70
     1
102
RTVSPropertyOp6
 70
     1
102
RTVSPropertyOp7
 70
     1
102
RTVSPropertyOp8
 70
     1
102
RTVSPropertyOp9
 70
     1
102
RTVSPropertyOp10
 70
     1
102
RTVSPropertyOp11
 70
     1
102
RTVSPropertyOp12
 70
     1
102
RTVSPropertyOp13
 70
     1
102
RTVSPropertyOp14
 70
     1
102
RTVSPropertyOp15
 70
     1
102
RTVSPropertyOp16
 70
     1
102
RTVSPropertyOp17
 70
     1
102
RTVSPropertyOp18
 70
     1
102
RTVSPropertyOp19
 70
     1
102
RTVSPropertyOp20
 70
     1
102
RTVSPropertyOp21
 70
     1
102
RTVSPropertyOp22
 70
     1
102
RTVSPropertyOp23
 70
     1
102
RTVSPropertyOp24
 70
     1
102
RTVSPropertyOp25
 70
     1
102
RTVSPropertyOp26
 70
     1
102
RTVSPropertyOp27
 70
     1
102
RTVSPropertyOp28
 70
     1
102
RTVSPropertyOp29
 70
     1
102
RTVSPropertyOp30
 70
     1
102
RTVSPropertyOp31
 70
     1
102
RTVSPropertyOp32
 70
     1
102
RTVSPropertyOp33
 70
     1
102
RTVSPropertyOp34
 70
     1
102
RTVSPropertyOp35
 70
     1
102
RTVSPropertyOp36
 70
     1
102
RTVSPropertyOp37
 70
     1
102
RTVSPropertyOp38
 70
     1
102
RTVSPropertyOp39
 70
     1
102
RTVSPropertyOp40
 70
     1
102
RTVSPropertyOp41
 70
     1
102
RTVSPropertyOp42
 70
     1
102
RTVSPropertyOp43
 70
     1
102
RTVSPropertyOp44
 70
     1
102
RTVSPropertyOp45
 70
     1
102
RTVSPropertyOp46
 70
     1
102
RTVSPropertyOp47
 70
     1
102
RTVSPropertyOp48
 70
     1
102
RTVSPropertyOp49
 70
     1
102
RTVSPropertyOp50
 70
     1
102
RTVSPropertyOp51
 70
     0
102
RTVSPropertyOp52
 70
     0
102
RTVSPropertyOp53
 70
     1
102
RTVSPropertyOp54
 70
     1
102
RTVSPropertyOp55
 70
     1
102
RTVSPropertyOp56
 70
     1
102
RTVSPropertyOp57
 70
     1
102
RTVSPropertyOp58
 70
     1
102
RTVSPropertyOp59
 70
     1
102
RTVSPropertyOp60
 70
     1
102
RTVSPropertyOp61
 70
     1
102
RTVSPropertyOp62
 70
     1
  0
XRECORD
  5
A7B
102
{ACAD_REACTORS
330
A7A
102
}
330
A7A
100
AcDbXrecord
280
     1
102
RTVSPost2010Prop28
280
     0
102
RTVSPost2010PropOp28
 70
     1
102
RTVSPost2010Prop29
280
     1
102
RTVSPost2010PropOp29
 70
     1
102
RTVSPost2010Prop30
280
     1
102
RTVSPost2010PropOp30
 70
     1
102
RTVSPost2010Prop31
280
     0
102
RTVSPost2010PropOp31
 70
     1
102
RTVSPost2010Prop32
280
     0
102
RTVSPost2010PropOp32
 70
     1
102
RTVSPost2010Prop33
280
     0
102
RTVSPost2010PropOp33
 70
     1
102
RTVSPost2010Prop34
280
     0
102
RTVSPost2010PropOp34
 70
     1
102
RTVSPost2010Prop35
280
     0
102
RTVSPost2010PropOp35
 70
     1
102
RTVSPost2010Prop36
280
     0
102
RTVSPost2010PropOp36
 70
     1
102
RTVSPost2010Prop37
 90
       50
102
RTVSPost2010PropOp37
 70
     0
102
RTVSPost2010Prop38
140
0.0
102
RTVSPost2010PropOp38
 70
     0
102
RTVSPost2010Prop39
140
1.0
102
RTVSPost2010PropOp39
 70
     0
102
RTVSPost2010Prop40
 90
        0
102
RTVSPost2010PropOp40
 70
     0
102
RTVSPost2010Prop41ColorIndex
 90
       18
102
RTVSPost2010Prop41ColorRGB
 90
        0
102
RTVSPost2010PropOp41
 70
     0
102
RTVSPost2010Prop42
 90
       50
102
RTVSPost2010PropOp42
 70
     0
102
RTVSPost2010Prop43
 90
        3
102
RTVSPost2010PropOp43
 70
     0
102
RTVSPost2010Prop44ColorIndex
 90
        5
102
RTVSPost2010Prop44ColorRGB
 90
      255
102
RTVSPost2010PropOp44
 70
     0
102
RTVSPost2010Prop45
280
     0
102
RTVSPost2010PropOp45
 70
     1
102
RTVSPost2010Prop46
 90
       50
102
RTVSPost2010PropOp46
 70
     0
102
RTVSPost2010Prop47
 90
       50
102
RTVSPost2010PropOp47
 70
     0
102
RTVSPost2010Prop48
 90
       50
102
RTVSPost2010PropOp48
 70
     0
102
RTVSPost2010Prop49
280
     0
102
RTVSPost2010PropOp49
 70
     1
102
RTVSPost2010Prop50
 90
       50
102
RTVSPost2010PropOp50
 70
     0
102
RTVSPost2010Prop51ColorIndex
 90
      256
102
RTVSPost2010Prop51ColorRGB
 90
-16777216
102
RTVSPost2010PropOp51
 70
     0
102
RTVSPost2010Prop52
140
1.0
102
RTVSPost2010PropOp52
 70
     0
102
RTVSPost2010Prop53
 90
        2
102
RTVSPost2010PropOp53
 70
     0
102
RTVSPost2010Prop54
  1
strokes_ogs.tif
102
RTVSPost2010PropOp54
 70
     0
102
RTVSPost2010Prop55
280
     0
102
RTVSPost2010PropOp55
 70
     1
102
RTVSPost2010Prop56
140
1.0
102
RTVSPost2010PropOp56
 70
     0
102
RTVSPost2010Prop57
140
1.0
102
RTVSPost2010PropOp57
 70
     0
102
RTVSPropertyOp0
 70
     0
102
RTVSPropertyOp1
 70
     0
102
RTVSPropertyOp2
 70
     0
102
RTVSPropertyOp3
 70
     0
102
RTVSPropertyOp4
 70
     0
102
RTVSPropertyOp5
 70
     0
102
RTVSPropertyOp6
 70
     0
102
RTVSPropertyOp7
 70
     0
102
RTVSPropertyOp8
 70
     0
102
RTVSPropertyOp9
 70
     0
102
RTVSPropertyOp10
 70
     0
102
RTVSPropertyOp11
 70
     0
102
RTVSPropertyOp12
 70
     0
102
RTVSPropertyOp13
 70
     0
102
RTVSPropertyOp14
 70
     2
102
RTVSPropertyOp15
 70
     0
102
RTVSPropertyOp16
 70
     0
102
RTVSPropertyOp17
 70
     0
102
RTVSPropertyOp18
 70
     0
102
RTVSPropertyOp19
 70
     0
102
RTVSPropertyOp20
 70
     0
102
RTVSPropertyOp21
 70
     0
102
RTVSPropertyOp22
 70
     0
102
RTVSPropertyOp23
 70
     0
102
RTVSPropertyOp24
 70
     0
102
RTVSPropertyOp25
 70
     0
102
RTVSPropertyOp26
 70
     0
102
RTVSPropertyOp27
 70
     0
102
RTVSPropertyOp28
 70
     1
102
RTVSPropertyOp29
 70
     1
102
RTVSPropertyOp30
 70
     1
102
RTVSPropertyOp31
 70
     1
102
RTVSPropertyOp32
 70
     1
102
RTVSPropertyOp33
 70
     1
102
RTVSPropertyOp34
 70
     1
102
RTVSPropertyOp35
 70
     1
102
RTVSPropertyOp36
 70
     1
102
RTVSPropertyOp37
 70
     0
102
RTVSPropertyOp38
 70
     0
102
RTVSPropertyOp39
 70
     0
102
RTVSPropertyOp40
 70
     0
102
RTVSPropertyOp41
 70
     0
102
RTVSPropertyOp42
 70
     0
102
RTVSPropertyOp43
 70
     0
102
RTVSPropertyOp44
 70
     0
102
RTVSPropertyOp45
 70
     1
102
RTVSPropertyOp46
 70
     0
102
RTVSPropertyOp47
 70
     0
102
RTVSPropertyOp48
 70
     0
102
RTVSPropertyOp49
 70
     1
102
RTVSPropertyOp50
 70
     0
102
RTVSPropertyOp51
 70
     0
102
RTVSPropertyOp52
 70
     0
102
RTVSPropertyOp53
 70
     0
102
RTVSPropertyOp54
 70
     0
102
RTVSPropertyOp55
 70
     1
102
RTVSPropertyOp56
 70
     0
102
RTVSPropertyOp57
 70
     0
102
RTVSPropertyOp58
 70
     0
102
RTVSPropertyOp59
 70
     0
102
RTVSPropertyOp60
 70
     0
102
RTVSPropertyOp61
 70
     0
102
RTVSPropertyOp62
 70
     0
  0
XRECORD
  5
A6B
102
{ACAD_REACTORS
330
A6A
102
}
330
A6A
100
AcDbXrecord
280
     1
102
RTVSPost2010Prop28
280
     0
102
RTVSPost2010PropOp28
 70
     1
102
RTVSPost2010Prop29
280
     1
102
RTVSPost2010PropOp29
 70
     1
102
RTVSPost2010Prop30
280
     1
102
RTVSPost2010PropOp30
 70
     1
102
RTVSPost2010Prop31
280
     0
102
RTVSPost2010PropOp31
 70
     1
102
RTVSPost2010Prop32
280
     0
102
RTVSPost2010PropOp32
 70
     1
102
RTVSPost2010Prop33
280
     0
102
RTVSPost2010PropOp33
 70
     1
102
RTVSPost2010Prop34
280
     0
102
RTVSPost2010PropOp34
 70
     1
102
RTVSPost2010Prop35
280
     0
102
RTVSPost2010PropOp35
 70
     1
102
RTVSPost2010Prop36
280
     0
102
RTVSPost2010PropOp36
 70
     1
102
RTVSPost2010Prop37
 90
       50
102
RTVSPost2010PropOp37
 70
     1
102
RTVSPost2010Prop38
140
0.0
102
RTVSPost2010PropOp38
 70
     1
102
RTVSPost2010Prop39
140
1.0
102
RTVSPost2010PropOp39
 70
     1
102
RTVSPost2010Prop40
 90
        0
102
RTVSPost2010PropOp40
 70
     1
102
RTVSPost2010Prop41ColorIndex
 90
       18
102
RTVSPost2010Prop41ColorRGB
 90
        0
102
RTVSPost2010PropOp41
 70
     1
102
RTVSPost2010Prop42
 90
       50
102
RTVSPost2010PropOp42
 70
     1
102
RTVSPost2010Prop43
 90
        3
102
RTVSPost2010PropOp43
 70
     1
102
RTVSPost2010Prop44ColorIndex
 90
        5
102
RTVSPost2010Prop44ColorRGB
 90
      255
102
RTVSPost2010PropOp44
 70
     1
102
RTVSPost2010Prop45
280
     0
102
RTVSPost2010PropOp45
 70
     1
102
RTVSPost2010Prop46
 90
       50
102
RTVSPost2010PropOp46
 70
     1
102
RTVSPost2010Prop47
 90
       50
102
RTVSPost2010PropOp47
 70
     1
102
RTVSPost2010Prop48
 90
       50
102
RTVSPost2010PropOp48
 70
     1
102
RTVSPost2010Prop49
280
     0
102
RTVSPost2010PropOp49
 70
     1
102
RTVSPost2010Prop50
 90
       50
102
RTVSPost2010PropOp50
 70
     1
102
RTVSPost2010Prop51ColorIndex
 90
      256
102
RTVSPost2010Prop51ColorRGB
 90
-16777216
102
RTVSPost2010PropOp51
 70
     0
102
RTVSPost2010Prop52
140
1.0
102
RTVSPost2010PropOp52
 70
     0
102
RTVSPost2010Prop53
 90
        2
102
RTVSPost2010PropOp53
 70
     1
102
RTVSPost2010Prop54
  1
strokes_ogs.tif
102
RTVSPost2010PropOp54
 70
     1
102
RTVSPost2010Prop55
280
     0
102
RTVSPost2010PropOp55
 70
     1
102
RTVSPost2010Prop56
140
1.0
102
RTVSPost2010PropOp56
 70
     1
102
RTVSPost2010Prop57
140
1.0
102
RTVSPost2010PropOp57
 70
     1
102
RTVSPropertyOp0
 70
     1
102
RTVSPropertyOp1
 70
     1
102
RTVSPropertyOp2
 70
     1
102
RTVSPropertyOp3
 70
     1
102
RTVSPropertyOp4
 70
     1
102
RTVSPropertyOp5
 70
     1
102
RTVSPropertyOp6
 70
     1
102
RTVSPropertyOp7
 70
     1
102
RTVSPropertyOp8
 70
     1
102
RTVSPropertyOp9
 70
     1
102
RTVSPropertyOp10
 70
     1
102
RTVSPropertyOp11
 70
     1
102
RTVSPropertyOp12
 70
     1
102
RTVSPropertyOp13
 70
     1
102
RTVSPropertyOp14
 70
     1
102
RTVSPropertyOp15
 70
     1
102
RTVSPropertyOp16
 70
     1
102
RTVSPropertyOp17
 70
     1
102
RTVSPropertyOp18
 70
     1
102
RTVSPropertyOp19
 70
     1
102
RTVSPropertyOp20
 70
     1
102
RTVSPropertyOp21
 70
     1
102
RTVSPropertyOp22
 70
     1
102
RTVSPropertyOp23
 70
     1
102
RTVSPropertyOp24
 70
     1
102
RTVSPropertyOp25
 70
     1
102
RTVSPropertyOp26
 70
     1
102
RTVSPropertyOp27
 70
     1
102
RTVSPropertyOp28
 70
     1
102
RTVSPropertyOp29
 70
     1
102
RTVSPropertyOp30
 70
     1
102
RTVSPropertyOp31
 70
     1
102
RTVSPropertyOp32
 70
     1
102
RTVSPropertyOp33
 70
     1
102
RTVSPropertyOp34
 70
     1
102
RTVSPropertyOp35
 70
     1
102
RTVSPropertyOp36
 70
     1
102
RTVSPropertyOp37
 70
     1
102
RTVSPropertyOp38
 70
     1
102
RTVSPropertyOp39
 70
     1
102
RTVSPropertyOp40
 70
     1
102
RTVSPropertyOp41
 70
     1
102
RTVSPropertyOp42
 70
     1
102
RTVSPropertyOp43
 70
     1
102
RTVSPropertyOp44
 70
     1
102
RTVSPropertyOp45
 70
     1
102
RTVSPropertyOp46
 70
     1
102
RTVSPropertyOp47
 70
     1
102
RTVSPropertyOp48
 70
     1
102
RTVSPropertyOp49
 70
     1
102
RTVSPropertyOp50
 70
     1
102
RTVSPropertyOp51
 70
     0
102
RTVSPropertyOp52
 70
     0
102
RTVSPropertyOp53
 70
     1
102
RTVSPropertyOp54
 70
     1
102
RTVSPropertyOp55
 70
     1
102
RTVSPropertyOp56
 70
     1
102
RTVSPropertyOp57
 70
     1
102
RTVSPropertyOp58
 70
     1
102
RTVSPropertyOp59
 70
     1
102
RTVSPropertyOp60
 70
     1
102
RTVSPropertyOp61
 70
     1
102
RTVSPropertyOp62
 70
     1
  0
XRECORD
  5
A7D
102
{ACAD_REACTORS
330
A7C
102
}
330
A7C
100
AcDbXrecord
280
     1
102
RTVSPost2010Prop28
280
     0
102
RTVSPost2010PropOp28
 70
     1
102
RTVSPost2010Prop29
280
     1
102
RTVSPost2010PropOp29
 70
     1
102
RTVSPost2010Prop30
280
     1
102
RTVSPost2010PropOp30
 70
     1
102
RTVSPost2010Prop31
280
     0
102
RTVSPost2010PropOp31
 70
     1
102
RTVSPost2010Prop32
280
     0
102
RTVSPost2010PropOp32
 70
     1
102
RTVSPost2010Prop33
280
     0
102
RTVSPost2010PropOp33
 70
     1
102
RTVSPost2010Prop34
280
     0
102
RTVSPost2010PropOp34
 70
     1
102
RTVSPost2010Prop35
280
     0
102
RTVSPost2010PropOp35
 70
     1
102
RTVSPost2010Prop36
280
     0
102
RTVSPost2010PropOp36
 70
     1
102
RTVSPost2010Prop37
 90
       50
102
RTVSPost2010PropOp37
 70
     0
102
RTVSPost2010Prop38
140
0.0
102
RTVSPost2010PropOp38
 70
     0
102
RTVSPost2010Prop39
140
1.0
102
RTVSPost2010PropOp39
 70
     0
102
RTVSPost2010Prop40
 90
        0
102
RTVSPost2010PropOp40
 70
     0
102
RTVSPost2010Prop41ColorIndex
 90
       18
102
RTVSPost2010Prop41ColorRGB
 90
        0
102
RTVSPost2010PropOp41
 70
     0
102
RTVSPost2010Prop42
 90
       50
102
RTVSPost2010PropOp42
 70
     0
102
RTVSPost2010Prop43
 90
        3
102
RTVSPost2010PropOp43
 70
     0
102
RTVSPost2010Prop44ColorIndex
 90
        5
102
RTVSPost2010Prop44ColorRGB
 90
      255
102
RTVSPost2010PropOp44
 70
     0
102
RTVSPost2010Prop45
280
     0
102
RTVSPost2010PropOp45
 70
     1
102
RTVSPost2010Prop46
 90
       50
102
RTVSPost2010PropOp46
 70
     0
102
RTVSPost2010Prop47
 90
       50
102
RTVSPost2010PropOp47
 70
     0
102
RTVSPost2010Prop48
 90
       50
102
RTVSPost2010PropOp48
 70
     0
102
RTVSPost2010Prop49
280
     0
102
RTVSPost2010PropOp49
 70
     1
102
RTVSPost2010Prop50
 90
       50
102
RTVSPost2010PropOp50
 70
     0
102
RTVSPost2010Prop51ColorIndex
 90
      256
102
RTVSPost2010Prop51ColorRGB
 90
-16777216
102
RTVSPost2010PropOp51
 70
     0
102
RTVSPost2010Prop52
140
1.0
102
RTVSPost2010PropOp52
 70
     0
102
RTVSPost2010Prop53
 90
        2
102
RTVSPost2010PropOp53
 70
     0
102
RTVSPost2010Prop54
  1
strokes_ogs.tif
102
RTVSPost2010PropOp54
 70
     0
102
RTVSPost2010Prop55
280
     0
102
RTVSPost2010PropOp55
 70
     1
102
RTVSPost2010Prop56
140
1.0
102
RTVSPost2010PropOp56
 70
     0
102
RTVSPost2010Prop57
140
1.0
102
RTVSPost2010PropOp57
 70
     0
102
RTVSPropertyOp0
 70
     0
102
RTVSPropertyOp1
 70
     0
102
RTVSPropertyOp2
 70
     0
102
RTVSPropertyOp3
 70
     0
102
RTVSPropertyOp4
 70
     0
102
RTVSPropertyOp5
 70
     0
102
RTVSPropertyOp6
 70
     0
102
RTVSPropertyOp7
 70
     0
102
RTVSPropertyOp8
 70
     0
102
RTVSPropertyOp9
 70
     0
102
RTVSPropertyOp10
 70
     0
102
RTVSPropertyOp11
 70
     0
102
RTVSPropertyOp12
 70
     0
102
RTVSPropertyOp13
 70
     0
102
RTVSPropertyOp14
 70
     2
102
RTVSPropertyOp15
 70
     0
102
RTVSPropertyOp16
 70
     0
102
RTVSPropertyOp17
 70
     0
102
RTVSPropertyOp18
 70
     0
102
RTVSPropertyOp19
 70
     0
102
RTVSPropertyOp20
 70
     0
102
RTVSPropertyOp21
 70
     0
102
RTVSPropertyOp22
 70
     0
102
RTVSPropertyOp23
 70
     0
102
RTVSPropertyOp24
 70
     0
102
RTVSPropertyOp25
 70
     0
102
RTVSPropertyOp26
 70
     0
102
RTVSPropertyOp27
 70
     0
102
RTVSPropertyOp28
 70
     1
102
RTVSPropertyOp29
 70
     1
102
RTVSPropertyOp30
 70
     1
102
RTVSPropertyOp31
 70
     1
102
RTVSPropertyOp32
 70
     1
102
RTVSPropertyOp33
 70
     1
102
RTVSPropertyOp34
 70
     1
102
RTVSPropertyOp35
 70
     1
102
RTVSPropertyOp36
 70
     1
102
RTVSPropertyOp37
 70
     0
102
RTVSPropertyOp38
 70
     0
102
RTVSPropertyOp39
 70
     0
102
RTVSPropertyOp40
 70
     0
102
RTVSPropertyOp41
 70
     0
102
RTVSPropertyOp42
 70
     0
102
RTVSPropertyOp43
 70
     0
102
RTVSPropertyOp44
 70
     0
102
RTVSPropertyOp45
 70
     1
102
RTVSPropertyOp46
 70
     0
102
RTVSPropertyOp47
 70
     0
102
RTVSPropertyOp48
 70
     0
102
RTVSPropertyOp49
 70
     1
102
RTVSPropertyOp50
 70
     0
102
RTVSPropertyOp51
 70
     0
102
RTVSPropertyOp52
 70
     0
102
RTVSPropertyOp53
 70
     0
102
RTVSPropertyOp54
 70
     0
102
RTVSPropertyOp55
 70
     1
102
RTVSPropertyOp56
 70
     0
102
RTVSPropertyOp57
 70
     0
102
RTVSPropertyOp58
 70
     0
102
RTVSPropertyOp59
 70
     0
102
RTVSPropertyOp60
 70
     0
102
RTVSPropertyOp61
 70
     0
102
RTVSPropertyOp62
 70
     0
  0
XRECORD
  5
A63
102
{ACAD_REACTORS
330
A62
102
}
330
A62
100
AcDbXrecord
280
     1
102
RTVSPost2010Prop28
280
     0
102
RTVSPost2010PropOp28
 70
     1
102
RTVSPost2010Prop29
280
     1
102
RTVSPost2010PropOp29
 70
     1
102
RTVSPost2010Prop30
280
     1
102
RTVSPost2010PropOp30
 70
     1
102
RTVSPost2010Prop31
280
     0
102
RTVSPost2010PropOp31
 70
     1
102
RTVSPost2010Prop32
280
     0
102
RTVSPost2010PropOp32
 70
     1
102
RTVSPost2010Prop33
280
     0
102
RTVSPost2010PropOp33
 70
     1
102
RTVSPost2010Prop34
280
     0
102
RTVSPost2010PropOp34
 70
     1
102
RTVSPost2010Prop35
280
     0
102
RTVSPost2010PropOp35
 70
     1
102
RTVSPost2010Prop36
280
     0
102
RTVSPost2010PropOp36
 70
     1
102
RTVSPost2010Prop37
 90
       50
102
RTVSPost2010PropOp37
 70
     1
102
RTVSPost2010Prop38
140
0.0
102
RTVSPost2010PropOp38
 70
     1
102
RTVSPost2010Prop39
140
1.0
102
RTVSPost2010PropOp39
 70
     1
102
RTVSPost2010Prop40
 90
        0
102
RTVSPost2010PropOp40
 70
     1
102
RTVSPost2010Prop41ColorIndex
 90
       18
102
RTVSPost2010Prop41ColorRGB
 90
        0
102
RTVSPost2010PropOp41
 70
     1
102
RTVSPost2010Prop42
 90
       50
102
RTVSPost2010PropOp42
 70
     1
102
RTVSPost2010Prop43
 90
        3
102
RTVSPost2010PropOp43
 70
     1
102
RTVSPost2010Prop44ColorIndex
 90
        5
102
RTVSPost2010Prop44ColorRGB
 90
      255
102
RTVSPost2010PropOp44
 70
     1
102
RTVSPost2010Prop45
280
     0
102
RTVSPost2010PropOp45
 70
     1
102
RTVSPost2010Prop46
 90
       50
102
RTVSPost2010PropOp46
 70
     1
102
RTVSPost2010Prop47
 90
       50
102
RTVSPost2010PropOp47
 70
     1
102
RTVSPost2010Prop48
 90
       50
102
RTVSPost2010PropOp48
 70
     1
102
RTVSPost2010Prop49
280
     0
102
RTVSPost2010PropOp49
 70
     1
102
RTVSPost2010Prop50
 90
       50
102
RTVSPost2010PropOp50
 70
     1
102
RTVSPost2010Prop51ColorIndex
 90
      256
102
RTVSPost2010Prop51ColorRGB
 90
-16777216
102
RTVSPost2010PropOp51
 70
     0
102
RTVSPost2010Prop52
140
1.0
102
RTVSPost2010PropOp52
 70
     0
102
RTVSPost2010Prop53
 90
        2
102
RTVSPost2010PropOp53
 70
     1
102
RTVSPost2010Prop54
  1
strokes_ogs.tif
102
RTVSPost2010PropOp54
 70
     1
102
RTVSPost2010Prop55
280
     0
102
RTVSPost2010PropOp55
 70
     1
102
RTVSPost2010Prop56
140
1.0
102
RTVSPost2010PropOp56
 70
     1
102
RTVSPost2010Prop57
140
1.0
102
RTVSPost2010PropOp57
 70
     1
102
RTVSPropertyOp0
 70
     1
102
RTVSPropertyOp1
 70
     1
102
RTVSPropertyOp2
 70
     1
102
RTVSPropertyOp3
 70
     1
102
RTVSPropertyOp4
 70
     1
102
RTVSPropertyOp5
 70
     1
102
RTVSPropertyOp6
 70
     1
102
RTVSPropertyOp7
 70
     1
102
RTVSPropertyOp8
 70
     1
102
RTVSPropertyOp9
 70
     1
102
RTVSPropertyOp10
 70
     1
102
RTVSPropertyOp11
 70
     1
102
RTVSPropertyOp12
 70
     1
102
RTVSPropertyOp13
 70
     1
102
RTVSPropertyOp14
 70
     1
102
RTVSPropertyOp15
 70
     1
102
RTVSPropertyOp16
 70
     1
102
RTVSPropertyOp17
 70
     1
102
RTVSPropertyOp18
 70
     1
102
RTVSPropertyOp19
 70
     1
102
RTVSPropertyOp20
 70
     1
102
RTVSPropertyOp21
 70
     1
102
RTVSPropertyOp22
 70
     1
102
RTVSPropertyOp23
 70
     1
102
RTVSPropertyOp24
 70
     1
102
RTVSPropertyOp25
 70
     1
102
RTVSPropertyOp26
 70
     1
102
RTVSPropertyOp27
 70
     1
102
RTVSPropertyOp28
 70
     1
102
RTVSPropertyOp29
 70
     1
102
RTVSPropertyOp30
 70
     1
102
RTVSPropertyOp31
 70
     1
102
RTVSPropertyOp32
 70
     1
102
RTVSPropertyOp33
 70
     1
102
RTVSPropertyOp34
 70
     1
102
RTVSPropertyOp35
 70
     1
102
RTVSPropertyOp36
 70
     1
102
RTVSPropertyOp37
 70
     1
102
RTVSPropertyOp38
 70
     1
102
RTVSPropertyOp39
 70
     1
102
RTVSPropertyOp40
 70
     1
102
RTVSPropertyOp41
 70
     1
102
RTVSPropertyOp42
 70
     1
102
RTVSPropertyOp43
 70
     1
102
RTVSPropertyOp44
 70
     1
102
RTVSPropertyOp45
 70
     1
102
RTVSPropertyOp46
 70
     1
102
RTVSPropertyOp47
 70
     1
102
RTVSPropertyOp48
 70
     1
102
RTVSPropertyOp49
 70
     1
102
RTVSPropertyOp50
 70
     1
102
RTVSPropertyOp51
 70
     0
102
RTVSPropertyOp52
 70
     0
102
RTVSPropertyOp53
 70
     1
102
RTVSPropertyOp54
 70
     1
102
RTVSPropertyOp55
 70
     1
102
RTVSPropertyOp56
 70
     1
102
RTVSPropertyOp57
 70
     1
102
RTVSPropertyOp58
 70
     1
102
RTVSPropertyOp59
 70
     1
102
RTVSPropertyOp60
 70
     1
102
RTVSPropertyOp61
 70
     1
102
RTVSPropertyOp62
 70
     1
  0
XRECORD
  5
A79
102
{ACAD_REACTORS
330
A78
102
}
330
A78
100
AcDbXrecord
280
     1
102
RTVSPost2010Prop28
280
     0
102
RTVSPost2010PropOp28
 70
     1
102
RTVSPost2010Prop29
280
     1
102
RTVSPost2010PropOp29
 70
     1
102
RTVSPost2010Prop30
280
     1
102
RTVSPost2010PropOp30
 70
     1
102
RTVSPost2010Prop31
280
     0
102
RTVSPost2010PropOp31
 70
     1
102
RTVSPost2010Prop32
280
     0
102
RTVSPost2010PropOp32
 70
     1
102
RTVSPost2010Prop33
280
     0
102
RTVSPost2010PropOp33
 70
     1
102
RTVSPost2010Prop34
280
     0
102
RTVSPost2010PropOp34
 70
     1
102
RTVSPost2010Prop35
280
     0
102
RTVSPost2010PropOp35
 70
     1
102
RTVSPost2010Prop36
280
     0
102
RTVSPost2010PropOp36
 70
     1
102
RTVSPost2010Prop37
 90
       50
102
RTVSPost2010PropOp37
 70
     1
102
RTVSPost2010Prop38
140
0.0
102
RTVSPost2010PropOp38
 70
     1
102
RTVSPost2010Prop39
140
1.0
102
RTVSPost2010PropOp39
 70
     1
102
RTVSPost2010Prop40
 90
        0
102
RTVSPost2010PropOp40
 70
     1
102
RTVSPost2010Prop41ColorIndex
 90
       18
102
RTVSPost2010Prop41ColorRGB
 90
        0
102
RTVSPost2010PropOp41
 70
     1
102
RTVSPost2010Prop42
 90
       50
102
RTVSPost2010PropOp42
 70
     1
102
RTVSPost2010Prop43
 90
        3
102
RTVSPost2010PropOp43
 70
     1
102
RTVSPost2010Prop44ColorIndex
 90
        5
102
RTVSPost2010Prop44ColorRGB
 90
      255
102
RTVSPost2010PropOp44
 70
     1
102
RTVSPost2010Prop45
280
     0
102
RTVSPost2010PropOp45
 70
     1
102
RTVSPost2010Prop46
 90
       50
102
RTVSPost2010PropOp46
 70
     1
102
RTVSPost2010Prop47
 90
       50
102
RTVSPost2010PropOp47
 70
     1
102
RTVSPost2010Prop48
 90
       50
102
RTVSPost2010PropOp48
 70
     1
102
RTVSPost2010Prop49
280
     0
102
RTVSPost2010PropOp49
 70
     1
102
RTVSPost2010Prop50
 90
       50
102
RTVSPost2010PropOp50
 70
     1
102
RTVSPost2010Prop51ColorIndex
 90
      256
102
RTVSPost2010Prop51ColorRGB
 90
-16777216
102
RTVSPost2010PropOp51
 70
     0
102
RTVSPost2010Prop52
140
1.0
102
RTVSPost2010PropOp52
 70
     0
102
RTVSPost2010Prop53
 90
        2
102
RTVSPost2010PropOp53
 70
     1
102
RTVSPost2010Prop54
  1
strokes_ogs.tif
102
RTVSPost2010PropOp54
 70
     1
102
RTVSPost2010Prop55
280
     0
102
RTVSPost2010PropOp55
 70
     1
102
RTVSPost2010Prop56
140
1.0
102
RTVSPost2010PropOp56
 70
     1
102
RTVSPost2010Prop57
140
1.0
102
RTVSPost2010PropOp57
 70
     1
102
RTVSPropertyOp0
 70
     1
102
RTVSPropertyOp1
 70
     1
102
RTVSPropertyOp2
 70
     1
102
RTVSPropertyOp3
 70
     1
102
RTVSPropertyOp4
 70
     1
102
RTVSPropertyOp5
 70
     1
102
RTVSPropertyOp6
 70
     1
102
RTVSPropertyOp7
 70
     1
102
RTVSPropertyOp8
 70
     1
102
RTVSPropertyOp9
 70
     1
102
RTVSPropertyOp10
 70
     1
102
RTVSPropertyOp11
 70
     1
102
RTVSPropertyOp12
 70
     1
102
RTVSPropertyOp13
 70
     1
102
RTVSPropertyOp14
 70
     1
102
RTVSPropertyOp15
 70
     1
102
RTVSPropertyOp16
 70
     1
102
RTVSPropertyOp17
 70
     1
102
RTVSPropertyOp18
 70
     1
102
RTVSPropertyOp19
 70
     1
102
RTVSPropertyOp20
 70
     1
102
RTVSPropertyOp21
 70
     1
102
RTVSPropertyOp22
 70
     1
102
RTVSPropertyOp23
 70
     1
102
RTVSPropertyOp24
 70
     1
102
RTVSPropertyOp25
 70
     1
102
RTVSPropertyOp26
 70
     1
102
RTVSPropertyOp27
 70
     1
102
RTVSPropertyOp28
 70
     1
102
RTVSPropertyOp29
 70
     1
102
RTVSPropertyOp30
 70
     1
102
RTVSPropertyOp31
 70
     1
102
RTVSPropertyOp32
 70
     1
102
RTVSPropertyOp33
 70
     1
102
RTVSPropertyOp34
 70
     1
102
RTVSPropertyOp35
 70
     1
102
RTVSPropertyOp36
 70
     1
102
RTVSPropertyOp37
 70
     1
102
RTVSPropertyOp38
 70
     1
102
RTVSPropertyOp39
 70
     1
102
RTVSPropertyOp40
 70
     1
102
RTVSPropertyOp41
 70
     1
102
RTVSPropertyOp42
 70
     1
102
RTVSPropertyOp43
 70
     1
102
RTVSPropertyOp44
 70
     1
102
RTVSPropertyOp45
 70
     1
102
RTVSPropertyOp46
 70
     1
102
RTVSPropertyOp47
 70
     1
102
RTVSPropertyOp48
 70
     1
102
RTVSPropertyOp49
 70
     1
102
RTVSPropertyOp50
 70
     1
102
RTVSPropertyOp51
 70
     0
102
RTVSPropertyOp52
 70
     0
102
RTVSPropertyOp53
 70
     1
102
RTVSPropertyOp54
 70
     1
102
RTVSPropertyOp55
 70
     1
102
RTVSPropertyOp56
 70
     1
102
RTVSPropertyOp57
 70
     1
102
RTVSPropertyOp58
 70
     1
102
RTVSPropertyOp59
 70
     1
102
RTVSPropertyOp60
 70
     1
102
RTVSPropertyOp61
 70
     1
102
RTVSPropertyOp62
 70
     1
  0
XRECORD
  5
A77
102
{ACAD_REACTORS
330
A76
102
}
330
A76
100
AcDbXrecord
280
     1
102
RTVSPost2010Prop28
280
     0
102
RTVSPost2010PropOp28
 70
     1
102
RTVSPost2010Prop29
280
     1
102
RTVSPost2010PropOp29
 70
     1
102
RTVSPost2010Prop30
280
     1
102
RTVSPost2010PropOp30
 70
     1
102
RTVSPost2010Prop31
280
     0
102
RTVSPost2010PropOp31
 70
     1
102
RTVSPost2010Prop32
280
     0
102
RTVSPost2010PropOp32
 70
     1
102
RTVSPost2010Prop33
280
     0
102
RTVSPost2010PropOp33
 70
     1
102
RTVSPost2010Prop34
280
     0
102
RTVSPost2010PropOp34
 70
     1
102
RTVSPost2010Prop35
280
     0
102
RTVSPost2010PropOp35
 70
     1
102
RTVSPost2010Prop36
280
     0
102
RTVSPost2010PropOp36
 70
     1
102
RTVSPost2010Prop37
 90
       50
102
RTVSPost2010PropOp37
 70
     1
102
RTVSPost2010Prop38
140
0.0
102
RTVSPost2010PropOp38
 70
     1
102
RTVSPost2010Prop39
140
1.0
102
RTVSPost2010PropOp39
 70
     1
102
RTVSPost2010Prop40
 90
        0
102
RTVSPost2010PropOp40
 70
     1
102
RTVSPost2010Prop41ColorIndex
 90
       18
102
RTVSPost2010Prop41ColorRGB
 90
        0
102
RTVSPost2010PropOp41
 70
     1
102
RTVSPost2010Prop42
 90
       50
102
RTVSPost2010PropOp42
 70
     1
102
RTVSPost2010Prop43
 90
        3
102
RTVSPost2010PropOp43
 70
     1
102
RTVSPost2010Prop44ColorIndex
 90
        5
102
RTVSPost2010Prop44ColorRGB
 90
      255
102
RTVSPost2010PropOp44
 70
     1
102
RTVSPost2010Prop45
280
     0
102
RTVSPost2010PropOp45
 70
     1
102
RTVSPost2010Prop46
 90
       50
102
RTVSPost2010PropOp46
 70
     1
102
RTVSPost2010Prop47
 90
       50
102
RTVSPost2010PropOp47
 70
     1
102
RTVSPost2010Prop48
 90
       50
102
RTVSPost2010PropOp48
 70
     1
102
RTVSPost2010Prop49
280
     0
102
RTVSPost2010PropOp49
 70
     1
102
RTVSPost2010Prop50
 90
       50
102
RTVSPost2010PropOp50
 70
     1
102
RTVSPost2010Prop51ColorIndex
 90
      256
102
RTVSPost2010Prop51ColorRGB
 90
-16777216
102
RTVSPost2010PropOp51
 70
     0
102
RTVSPost2010Prop52
140
1.0
102
RTVSPost2010PropOp52
 70
     0
102
RTVSPost2010Prop53
 90
        2
102
RTVSPost2010PropOp53
 70
     1
102
RTVSPost2010Prop54
  1
strokes_ogs.tif
102
RTVSPost2010PropOp54
 70
     1
102
RTVSPost2010Prop55
280
     0
102
RTVSPost2010PropOp55
 70
     1
102
RTVSPost2010Prop56
140
1.0
102
RTVSPost2010PropOp56
 70
     1
102
RTVSPost2010Prop57
140
1.0
102
RTVSPost2010PropOp57
 70
     1
102
RTVSPropertyOp0
 70
     1
102
RTVSPropertyOp1
 70
     1
102
RTVSPropertyOp2
 70
     1
102
RTVSPropertyOp3
 70
     1
102
RTVSPropertyOp4
 70
     1
102
RTVSPropertyOp5
 70
     1
102
RTVSPropertyOp6
 70
     1
102
RTVSPropertyOp7
 70
     1
102
RTVSPropertyOp8
 70
     1
102
RTVSPropertyOp9
 70
     1
102
RTVSPropertyOp10
 70
     1
102
RTVSPropertyOp11
 70
     1
102
RTVSPropertyOp12
 70
     1
102
RTVSPropertyOp13
 70
     1
102
RTVSPropertyOp14
 70
     1
102
RTVSPropertyOp15
 70
     1
102
RTVSPropertyOp16
 70
     1
102
RTVSPropertyOp17
 70
     1
102
RTVSPropertyOp18
 70
     1
102
RTVSPropertyOp19
 70
     1
102
RTVSPropertyOp20
 70
     1
102
RTVSPropertyOp21
 70
     1
102
RTVSPropertyOp22
 70
     1
102
RTVSPropertyOp23
 70
     1
102
RTVSPropertyOp24
 70
     1
102
RTVSPropertyOp25
 70
     1
102
RTVSPropertyOp26
 70
     1
102
RTVSPropertyOp27
 70
     1
102
RTVSPropertyOp28
 70
     1
102
RTVSPropertyOp29
 70
     1
102
RTVSPropertyOp30
 70
     1
102
RTVSPropertyOp31
 70
     1
102
RTVSPropertyOp32
 70
     1
102
RTVSPropertyOp33
 70
     1
102
RTVSPropertyOp34
 70
     1
102
RTVSPropertyOp35
 70
     1
102
RTVSPropertyOp36
 70
     1
102
RTVSPropertyOp37
 70
     1
102
RTVSPropertyOp38
 70
     1
102
RTVSPropertyOp39
 70
     1
102
RTVSPropertyOp40
 70
     1
102
RTVSPropertyOp41
 70
     1
102
RTVSPropertyOp42
 70
     1
102
RTVSPropertyOp43
 70
     1
102
RTVSPropertyOp44
 70
     1
102
RTVSPropertyOp45
 70
     1
102
RTVSPropertyOp46
 70
     1
102
RTVSPropertyOp47
 70
     1
102
RTVSPropertyOp48
 70
     1
102
RTVSPropertyOp49
 70
     1
102
RTVSPropertyOp50
 70
     1
102
RTVSPropertyOp51
 70
     0
102
RTVSPropertyOp52
 70
     0
102
RTVSPropertyOp53
 70
     1
102
RTVSPropertyOp54
 70
     1
102
RTVSPropertyOp55
 70
     1
102
RTVSPropertyOp56
 70
     1
102
RTVSPropertyOp57
 70
     1
102
RTVSPropertyOp58
 70
     1
102
RTVSPropertyOp59
 70
     1
102
RTVSPropertyOp60
 70
     1
102
RTVSPropertyOp61
 70
     1
102
RTVSPropertyOp62
 70
     1
  0
XRECORD
  5
A71
102
{ACAD_REACTORS
330
A70
102
}
330
A70
100
AcDbXrecord
280
     1
102
RTVSPost2010Prop28
280
     0
102
RTVSPost2010PropOp28
 70
     1
102
RTVSPost2010Prop29
280
     1
102
RTVSPost2010PropOp29
 70
     1
102
RTVSPost2010Prop30
280
     1
102
RTVSPost2010PropOp30
 70
     1
102
RTVSPost2010Prop31
280
     0
102
RTVSPost2010PropOp31
 70
     1
102
RTVSPost2010Prop32
280
     0
102
RTVSPost2010PropOp32
 70
     1
102
RTVSPost2010Prop33
280
     0
102
RTVSPost2010PropOp33
 70
     1
102
RTVSPost2010Prop34
280
     0
102
RTVSPost2010PropOp34
 70
     1
102
RTVSPost2010Prop35
280
     0
102
RTVSPost2010PropOp35
 70
     1
102
RTVSPost2010Prop36
280
     0
102
RTVSPost2010PropOp36
 70
     1
102
RTVSPost2010Prop37
 90
       50
102
RTVSPost2010PropOp37
 70
     1
102
RTVSPost2010Prop38
140
0.0
102
RTVSPost2010PropOp38
 70
     1
102
RTVSPost2010Prop39
140
1.0
102
RTVSPost2010PropOp39
 70
     1
102
RTVSPost2010Prop40
 90
        0
102
RTVSPost2010PropOp40
 70
     1
102
RTVSPost2010Prop41ColorIndex
 90
       18
102
RTVSPost2010Prop41ColorRGB
 90
        0
102
RTVSPost2010PropOp41
 70
     1
102
RTVSPost2010Prop42
 90
       50
102
RTVSPost2010PropOp42
 70
     1
102
RTVSPost2010Prop43
 90
        3
102
RTVSPost2010PropOp43
 70
     1
102
RTVSPost2010Prop44ColorIndex
 90
        5
102
RTVSPost2010Prop44ColorRGB
 90
      255
102
RTVSPost2010PropOp44
 70
     1
102
RTVSPost2010Prop45
280
     0
102
RTVSPost2010PropOp45
 70
     1
102
RTVSPost2010Prop46
 90
       50
102
RTVSPost2010PropOp46
 70
     1
102
RTVSPost2010Prop47
 90
       50
102
RTVSPost2010PropOp47
 70
     1
102
RTVSPost2010Prop48
 90
       50
102
RTVSPost2010PropOp48
 70
     1
102
RTVSPost2010Prop49
280
     0
102
RTVSPost2010PropOp49
 70
     1
102
RTVSPost2010Prop50
 90
       50
102
RTVSPost2010PropOp50
 70
     1
102
RTVSPost2010Prop51ColorIndex
 90
      256
102
RTVSPost2010Prop51ColorRGB
 90
-16777216
102
RTVSPost2010PropOp51
 70
     0
102
RTVSPost2010Prop52
140
1.0
102
RTVSPost2010PropOp52
 70
     0
102
RTVSPost2010Prop53
 90
        2
102
RTVSPost2010PropOp53
 70
     1
102
RTVSPost2010Prop54
  1
strokes_ogs.tif
102
RTVSPost2010PropOp54
 70
     1
102
RTVSPost2010Prop55
280
     0
102
RTVSPost2010PropOp55
 70
     1
102
RTVSPost2010Prop56
140
1.0
102
RTVSPost2010PropOp56
 70
     1
102
RTVSPost2010Prop57
140
1.0
102
RTVSPost2010PropOp57
 70
     1
102
RTVSPropertyOp0
 70
     1
102
RTVSPropertyOp1
 70
     1
102
RTVSPropertyOp2
 70
     1
102
RTVSPropertyOp3
 70
     1
102
RTVSPropertyOp4
 70
     1
102
RTVSPropertyOp5
 70
     1
102
RTVSPropertyOp6
 70
     1
102
RTVSPropertyOp7
 70
     1
102
RTVSPropertyOp8
 70
     1
102
RTVSPropertyOp9
 70
     1
102
RTVSPropertyOp10
 70
     1
102
RTVSPropertyOp11
 70
     1
102
RTVSPropertyOp12
 70
     1
102
RTVSPropertyOp13
 70
     1
102
RTVSPropertyOp14
 70
     1
102
RTVSPropertyOp15
 70
     1
102
RTVSPropertyOp16
 70
     1
102
RTVSPropertyOp17
 70
     1
102
RTVSPropertyOp18
 70
     1
102
RTVSPropertyOp19
 70
     1
102
RTVSPropertyOp20
 70
     1
102
RTVSPropertyOp21
 70
     1
102
RTVSPropertyOp22
 70
     1
102
RTVSPropertyOp23
 70
     1
102
RTVSPropertyOp24
 70
     1
102
RTVSPropertyOp25
 70
     1
102
RTVSPropertyOp26
 70
     1
102
RTVSPropertyOp27
 70
     1
102
RTVSPropertyOp28
 70
     1
102
RTVSPropertyOp29
 70
     1
102
RTVSPropertyOp30
 70
     1
102
RTVSPropertyOp31
 70
     1
102
RTVSPropertyOp32
 70
     1
102
RTVSPropertyOp33
 70
     1
102
RTVSPropertyOp34
 70
     1
102
RTVSPropertyOp35
 70
     1
102
RTVSPropertyOp36
 70
     1
102
RTVSPropertyOp37
 70
     1
102
RTVSPropertyOp38
 70
     1
102
RTVSPropertyOp39
 70
     1
102
RTVSPropertyOp40
 70
     1
102
RTVSPropertyOp41
 70
     1
102
RTVSPropertyOp42
 70
     1
102
RTVSPropertyOp43
 70
     1
102
RTVSPropertyOp44
 70
     1
102
RTVSPropertyOp45
 70
     1
102
RTVSPropertyOp46
 70
     1
102
RTVSPropertyOp47
 70
     1
102
RTVSPropertyOp48
 70
     1
102
RTVSPropertyOp49
 70
     1
102
RTVSPropertyOp50
 70
     1
102
RTVSPropertyOp51
 70
     0
102
RTVSPropertyOp52
 70
     0
102
RTVSPropertyOp53
 70
     1
102
RTVSPropertyOp54
 70
     1
102
RTVSPropertyOp55
 70
     1
102
RTVSPropertyOp56
 70
     1
102
RTVSPropertyOp57
 70
     1
102
RTVSPropertyOp58
 70
     1
102
RTVSPropertyOp59
 70
     1
102
RTVSPropertyOp60
 70
     1
102
RTVSPropertyOp61
 70
     1
102
RTVSPropertyOp62
 70
     1
  0
XRECORD
  5
A73
102
{ACAD_REACTORS
330
A72
102
}
330
A72
100
AcDbXrecord
280
     1
102
RTVSPost2010Prop28
280
     0
102
RTVSPost2010PropOp28
 70
     1
102
RTVSPost2010Prop29
280
     1
102
RTVSPost2010PropOp29
 70
     1
102
RTVSPost2010Prop30
280
     1
102
RTVSPost2010PropOp30
 70
     1
102
RTVSPost2010Prop31
280
     0
102
RTVSPost2010PropOp31
 70
     1
102
RTVSPost2010Prop32
280
     0
102
RTVSPost2010PropOp32
 70
     1
102
RTVSPost2010Prop33
280
     0
102
RTVSPost2010PropOp33
 70
     1
102
RTVSPost2010Prop34
280
     0
102
RTVSPost2010PropOp34
 70
     1
102
RTVSPost2010Prop35
280
     0
102
RTVSPost2010PropOp35
 70
     1
102
RTVSPost2010Prop36
280
     0
102
RTVSPost2010PropOp36
 70
     1
102
RTVSPost2010Prop37
 90
       50
102
RTVSPost2010PropOp37
 70
     1
102
RTVSPost2010Prop38
140
0.0
102
RTVSPost2010PropOp38
 70
     1
102
RTVSPost2010Prop39
140
1.0
102
RTVSPost2010PropOp39
 70
     1
102
RTVSPost2010Prop40
 90
        0
102
RTVSPost2010PropOp40
 70
     1
102
RTVSPost2010Prop41ColorIndex
 90
       18
102
RTVSPost2010Prop41ColorRGB
 90
        0
102
RTVSPost2010PropOp41
 70
     1
102
RTVSPost2010Prop42
 90
       50
102
RTVSPost2010PropOp42
 70
     1
102
RTVSPost2010Prop43
 90
        3
102
RTVSPost2010PropOp43
 70
     1
102
RTVSPost2010Prop44ColorIndex
 90
        5
102
RTVSPost2010Prop44ColorRGB
 90
      255
102
RTVSPost2010PropOp44
 70
     1
102
RTVSPost2010Prop45
280
     0
102
RTVSPost2010PropOp45
 70
     1
102
RTVSPost2010Prop46
 90
       50
102
RTVSPost2010PropOp46
 70
     1
102
RTVSPost2010Prop47
 90
       50
102
RTVSPost2010PropOp47
 70
     1
102
RTVSPost2010Prop48
 90
       50
102
RTVSPost2010PropOp48
 70
     1
102
RTVSPost2010Prop49
280
     0
102
RTVSPost2010PropOp49
 70
     1
102
RTVSPost2010Prop50
 90
       50
102
RTVSPost2010PropOp50
 70
     1
102
RTVSPost2010Prop51ColorIndex
 90
      256
102
RTVSPost2010Prop51ColorRGB
 90
-16777216
102
RTVSPost2010PropOp51
 70
     0
102
RTVSPost2010Prop52
140
1.0
102
RTVSPost2010PropOp52
 70
     0
102
RTVSPost2010Prop53
 90
        2
102
RTVSPost2010PropOp53
 70
     1
102
RTVSPost2010Prop54
  1
strokes_ogs.tif
102
RTVSPost2010PropOp54
 70
     1
102
RTVSPost2010Prop55
280
     0
102
RTVSPost2010PropOp55
 70
     1
102
RTVSPost2010Prop56
140
1.0
102
RTVSPost2010PropOp56
 70
     1
102
RTVSPost2010Prop57
140
1.0
102
RTVSPost2010PropOp57
 70
     1
102
RTVSPropertyOp0
 70
     1
102
RTVSPropertyOp1
 70
     1
102
RTVSPropertyOp2
 70
     1
102
RTVSPropertyOp3
 70
     1
102
RTVSPropertyOp4
 70
     1
102
RTVSPropertyOp5
 70
     1
102
RTVSPropertyOp6
 70
     1
102
RTVSPropertyOp7
 70
     1
102
RTVSPropertyOp8
 70
     1
102
RTVSPropertyOp9
 70
     1
102
RTVSPropertyOp10
 70
     1
102
RTVSPropertyOp11
 70
     1
102
RTVSPropertyOp12
 70
     1
102
RTVSPropertyOp13
 70
     1
102
RTVSPropertyOp14
 70
     1
102
RTVSPropertyOp15
 70
     1
102
RTVSPropertyOp16
 70
     1
102
RTVSPropertyOp17
 70
     1
102
RTVSPropertyOp18
 70
     1
102
RTVSPropertyOp19
 70
     1
102
RTVSPropertyOp20
 70
     1
102
RTVSPropertyOp21
 70
     1
102
RTVSPropertyOp22
 70
     1
102
RTVSPropertyOp23
 70
     1
102
RTVSPropertyOp24
 70
     1
102
RTVSPropertyOp25
 70
     1
102
RTVSPropertyOp26
 70
     1
102
RTVSPropertyOp27
 70
     1
102
RTVSPropertyOp28
 70
     1
102
RTVSPropertyOp29
 70
     1
102
RTVSPropertyOp30
 70
     1
102
RTVSPropertyOp31
 70
     1
102
RTVSPropertyOp32
 70
     1
102
RTVSPropertyOp33
 70
     1
102
RTVSPropertyOp34
 70
     1
102
RTVSPropertyOp35
 70
     1
102
RTVSPropertyOp36
 70
     1
102
RTVSPropertyOp37
 70
     1
102
RTVSPropertyOp38
 70
     1
102
RTVSPropertyOp39
 70
     1
102
RTVSPropertyOp40
 70
     1
102
RTVSPropertyOp41
 70
     1
102
RTVSPropertyOp42
 70
     1
102
RTVSPropertyOp43
 70
     1
102
RTVSPropertyOp44
 70
     1
102
RTVSPropertyOp45
 70
     1
102
RTVSPropertyOp46
 70
     1
102
RTVSPropertyOp47
 70
     1
102
RTVSPropertyOp48
 70
     1
102
RTVSPropertyOp49
 70
     1
102
RTVSPropertyOp50
 70
     1
102
RTVSPropertyOp51
 70
     0
102
RTVSPropertyOp52
 70
     0
102
RTVSPropertyOp53
 70
     1
102
RTVSPropertyOp54
 70
     1
102
RTVSPropertyOp55
 70
     1
102
RTVSPropertyOp56
 70
     1
102
RTVSPropertyOp57
 70
     1
102
RTVSPropertyOp58
 70
     1
102
RTVSPropertyOp59
 70
     1
102
RTVSPropertyOp60
 70
     1
102
RTVSPropertyOp61
 70
     1
102
RTVSPropertyOp62
 70
     1
  0
XRECORD
  5
A69
102
{ACAD_REACTORS
330
A68
102
}
330
A68
100
AcDbXrecord
280
     1
102
RTVSPost2010Prop28
280
     0
102
RTVSPost2010PropOp28
 70
     1
102
RTVSPost2010Prop29
280
     1
102
RTVSPost2010PropOp29
 70
     1
102
RTVSPost2010Prop30
280
     1
102
RTVSPost2010PropOp30
 70
     1
102
RTVSPost2010Prop31
280
     0
102
RTVSPost2010PropOp31
 70
     1
102
RTVSPost2010Prop32
280
     0
102
RTVSPost2010PropOp32
 70
     1
102
RTVSPost2010Prop33
280
     0
102
RTVSPost2010PropOp33
 70
     1
102
RTVSPost2010Prop34
280
     0
102
RTVSPost2010PropOp34
 70
     1
102
RTVSPost2010Prop35
280
     0
102
RTVSPost2010PropOp35
 70
     1
102
RTVSPost2010Prop36
280
     0
102
RTVSPost2010PropOp36
 70
     1
102
RTVSPost2010Prop37
 90
       50
102
RTVSPost2010PropOp37
 70
     1
102
RTVSPost2010Prop38
140
0.0
102
RTVSPost2010PropOp38
 70
     1
102
RTVSPost2010Prop39
140
1.0
102
RTVSPost2010PropOp39
 70
     1
102
RTVSPost2010Prop40
 90
        0
102
RTVSPost2010PropOp40
 70
     1
102
RTVSPost2010Prop41ColorIndex
 90
       18
102
RTVSPost2010Prop41ColorRGB
 90
        0
102
RTVSPost2010PropOp41
 70
     1
102
RTVSPost2010Prop42
 90
       50
102
RTVSPost2010PropOp42
 70
     1
102
RTVSPost2010Prop43
 90
        3
102
RTVSPost2010PropOp43
 70
     1
102
RTVSPost2010Prop44ColorIndex
 90
        5
102
RTVSPost2010Prop44ColorRGB
 90
      255
102
RTVSPost2010PropOp44
 70
     1
102
RTVSPost2010Prop45
280
     0
102
RTVSPost2010PropOp45
 70
     1
102
RTVSPost2010Prop46
 90
       50
102
RTVSPost2010PropOp46
 70
     1
102
RTVSPost2010Prop47
 90
       50
102
RTVSPost2010PropOp47
 70
     1
102
RTVSPost2010Prop48
 90
       50
102
RTVSPost2010PropOp48
 70
     1
102
RTVSPost2010Prop49
280
     0
102
RTVSPost2010PropOp49
 70
     1
102
RTVSPost2010Prop50
 90
       50
102
RTVSPost2010PropOp50
 70
     1
102
RTVSPost2010Prop51ColorIndex
 90
      256
102
RTVSPost2010Prop51ColorRGB
 90
-16777216
102
RTVSPost2010PropOp51
 70
     0
102
RTVSPost2010Prop52
140
1.0
102
RTVSPost2010PropOp52
 70
     0
102
RTVSPost2010Prop53
 90
        2
102
RTVSPost2010PropOp53
 70
     1
102
RTVSPost2010Prop54
  1
strokes_ogs.tif
102
RTVSPost2010PropOp54
 70
     1
102
RTVSPost2010Prop55
280
     0
102
RTVSPost2010PropOp55
 70
     1
102
RTVSPost2010Prop56
140
1.0
102
RTVSPost2010PropOp56
 70
     1
102
RTVSPost2010Prop57
140
1.0
102
RTVSPost2010PropOp57
 70
     1
102
RTVSPropertyOp0
 70
     1
102
RTVSPropertyOp1
 70
     1
102
RTVSPropertyOp2
 70
     1
102
RTVSPropertyOp3
 70
     1
102
RTVSPropertyOp4
 70
     1
102
RTVSPropertyOp5
 70
     1
102
RTVSPropertyOp6
 70
     1
102
RTVSPropertyOp7
 70
     1
102
RTVSPropertyOp8
 70
     1
102
RTVSPropertyOp9
 70
     1
102
RTVSPropertyOp10
 70
     1
102
RTVSPropertyOp11
 70
     1
102
RTVSPropertyOp12
 70
     1
102
RTVSPropertyOp13
 70
     1
102
RTVSPropertyOp14
 70
     1
102
RTVSPropertyOp15
 70
     1
102
RTVSPropertyOp16
 70
     1
102
RTVSPropertyOp17
 70
     1
102
RTVSPropertyOp18
 70
     1
102
RTVSPropertyOp19
 70
     1
102
RTVSPropertyOp20
 70
     1
102
RTVSPropertyOp21
 70
     1
102
RTVSPropertyOp22
 70
     1
102
RTVSPropertyOp23
 70
     1
102
RTVSPropertyOp24
 70
     1
102
RTVSPropertyOp25
 70
     1
102
RTVSPropertyOp26
 70
     1
102
RTVSPropertyOp27
 70
     1
102
RTVSPropertyOp28
 70
     1
102
RTVSPropertyOp29
 70
     1
102
RTVSPropertyOp30
 70
     1
102
RTVSPropertyOp31
 70
     1
102
RTVSPropertyOp32
 70
     1
102
RTVSPropertyOp33
 70
     1
102
RTVSPropertyOp34
 70
     1
102
RTVSPropertyOp35
 70
     1
102
RTVSPropertyOp36
 70
     1
102
RTVSPropertyOp37
 70
     1
102
RTVSPropertyOp38
 70
     1
102
RTVSPropertyOp39
 70
     1
102
RTVSPropertyOp40
 70
     1
102
RTVSPropertyOp41
 70
     1
102
RTVSPropertyOp42
 70
     1
102
RTVSPropertyOp43
 70
     1
102
RTVSPropertyOp44
 70
     1
102
RTVSPropertyOp45
 70
     1
102
RTVSPropertyOp46
 70
     1
102
RTVSPropertyOp47
 70
     1
102
RTVSPropertyOp48
 70
     1
102
RTVSPropertyOp49
 70
     1
102
RTVSPropertyOp50
 70
     1
102
RTVSPropertyOp51
 70
     0
102
RTVSPropertyOp52
 70
     0
102
RTVSPropertyOp53
 70
     1
102
RTVSPropertyOp54
 70
     1
102
RTVSPropertyOp55
 70
     1
102
RTVSPropertyOp56
 70
     1
102
RTVSPropertyOp57
 70
     1
102
RTVSPropertyOp58
 70
     1
102
RTVSPropertyOp59
 70
     1
102
RTVSPropertyOp60
 70
     1
102
RTVSPropertyOp61
 70
     1
102
RTVSPropertyOp62
 70
     1
  0
XRECORD
  5
A5D
102
{ACAD_REACTORS
330
A5C
102
}
330
A5C
100
AcDbXrecord
280
     1
102
RTVSPost2010Prop28
280
     0
102
RTVSPost2010PropOp28
 70
     1
102
RTVSPost2010Prop29
280
     1
102
RTVSPost2010PropOp29
 70
     1
102
RTVSPost2010Prop30
280
     1
102
RTVSPost2010PropOp30
 70
     1
102
RTVSPost2010Prop31
280
     0
102
RTVSPost2010PropOp31
 70
     1
102
RTVSPost2010Prop32
280
     0
102
RTVSPost2010PropOp32
 70
     1
102
RTVSPost2010Prop33
280
     0
102
RTVSPost2010PropOp33
 70
     1
102
RTVSPost2010Prop34
280
     0
102
RTVSPost2010PropOp34
 70
     1
102
RTVSPost2010Prop35
280
     0
102
RTVSPost2010PropOp35
 70
     1
102
RTVSPost2010Prop36
280
     0
102
RTVSPost2010PropOp36
 70
     1
102
RTVSPost2010Prop37
 90
       50
102
RTVSPost2010PropOp37
 70
     1
102
RTVSPost2010Prop38
140
0.0
102
RTVSPost2010PropOp38
 70
     1
102
RTVSPost2010Prop39
140
1.0
102
RTVSPost2010PropOp39
 70
     1
102
RTVSPost2010Prop40
 90
        0
102
RTVSPost2010PropOp40
 70
     1
102
RTVSPost2010Prop41ColorIndex
 90
       18
102
RTVSPost2010Prop41ColorRGB
 90
        0
102
RTVSPost2010PropOp41
 70
     1
102
RTVSPost2010Prop42
 90
       50
102
RTVSPost2010PropOp42
 70
     1
102
RTVSPost2010Prop43
 90
        3
102
RTVSPost2010PropOp43
 70
     1
102
RTVSPost2010Prop44ColorIndex
 90
        5
102
RTVSPost2010Prop44ColorRGB
 90
      255
102
RTVSPost2010PropOp44
 70
     1
102
RTVSPost2010Prop45
280
     0
102
RTVSPost2010PropOp45
 70
     1
102
RTVSPost2010Prop46
 90
       50
102
RTVSPost2010PropOp46
 70
     1
102
RTVSPost2010Prop47
 90
       50
102
RTVSPost2010PropOp47
 70
     1
102
RTVSPost2010Prop48
 90
       50
102
RTVSPost2010PropOp48
 70
     1
102
RTVSPost2010Prop49
280
     0
102
RTVSPost2010PropOp49
 70
     1
102
RTVSPost2010Prop50
 90
       50
102
RTVSPost2010PropOp50
 70
     1
102
RTVSPost2010Prop51ColorIndex
 90
      256
102
RTVSPost2010Prop51ColorRGB
 90
-16777216
102
RTVSPost2010PropOp51
 70
     0
102
RTVSPost2010Prop52
140
1.0
102
RTVSPost2010PropOp52
 70
     0
102
RTVSPost2010Prop53
 90
        2
102
RTVSPost2010PropOp53
 70
     1
102
RTVSPost2010Prop54
  1
strokes_ogs.tif
102
RTVSPost2010PropOp54
 70
     1
102
RTVSPost2010Prop55
280
     0
102
RTVSPost2010PropOp55
 70
     1
102
RTVSPost2010Prop56
140
1.0
102
RTVSPost2010PropOp56
 70
     1
102
RTVSPost2010Prop57
140
1.0
102
RTVSPost2010PropOp57
 70
     1
102
RTVSPropertyOp0
 70
     1
102
RTVSPropertyOp1
 70
     1
102
RTVSPropertyOp2
 70
     1
102
RTVSPropertyOp3
 70
     1
102
RTVSPropertyOp4
 70
     1
102
RTVSPropertyOp5
 70
     1
102
RTVSPropertyOp6
 70
     1
102
RTVSPropertyOp7
 70
     1
102
RTVSPropertyOp8
 70
     1
102
RTVSPropertyOp9
 70
     1
102
RTVSPropertyOp10
 70
     1
102
RTVSPropertyOp11
 70
     1
102
RTVSPropertyOp12
 70
     1
102
RTVSPropertyOp13
 70
     1
102
RTVSPropertyOp14
 70
     1
102
RTVSPropertyOp15
 70
     1
102
RTVSPropertyOp16
 70
     1
102
RTVSPropertyOp17
 70
     1
102
RTVSPropertyOp18
 70
     1
102
RTVSPropertyOp19
 70
     1
102
RTVSPropertyOp20
 70
     1
102
RTVSPropertyOp21
 70
     1
102
RTVSPropertyOp22
 70
     1
102
RTVSPropertyOp23
 70
     1
102
RTVSPropertyOp24
 70
     1
102
RTVSPropertyOp25
 70
     1
102
RTVSPropertyOp26
 70
     1
102
RTVSPropertyOp27
 70
     1
102
RTVSPropertyOp28
 70
     1
102
RTVSPropertyOp29
 70
     1
102
RTVSPropertyOp30
 70
     1
102
RTVSPropertyOp31
 70
     1
102
RTVSPropertyOp32
 70
     1
102
RTVSPropertyOp33
 70
     1
102
RTVSPropertyOp34
 70
     1
102
RTVSPropertyOp35
 70
     1
102
RTVSPropertyOp36
 70
     1
102
RTVSPropertyOp37
 70
     1
102
RTVSPropertyOp38
 70
     1
102
RTVSPropertyOp39
 70
     1
102
RTVSPropertyOp40
 70
     1
102
RTVSPropertyOp41
 70
     1
102
RTVSPropertyOp42
 70
     1
102
RTVSPropertyOp43
 70
     1
102
RTVSPropertyOp44
 70
     1
102
RTVSPropertyOp45
 70
     1
102
RTVSPropertyOp46
 70
     1
102
RTVSPropertyOp47
 70
     1
102
RTVSPropertyOp48
 70
     1
102
RTVSPropertyOp49
 70
     1
102
RTVSPropertyOp50
 70
     1
102
RTVSPropertyOp51
 70
     0
102
RTVSPropertyOp52
 70
     0
102
RTVSPropertyOp53
 70
     1
102
RTVSPropertyOp54
 70
     1
102
RTVSPropertyOp55
 70
     1
102
RTVSPropertyOp56
 70
     1
102
RTVSPropertyOp57
 70
     1
102
RTVSPropertyOp58
 70
     1
102
RTVSPropertyOp59
 70
     1
102
RTVSPropertyOp60
 70
     1
102
RTVSPropertyOp61
 70
     1
102
RTVSPropertyOp62
 70
     1
  0
XRECORD
  5
A75
102
{ACAD_REACTORS
330
A74
102
}
330
A74
100
AcDbXrecord
280
     1
102
RTVSPost2010Prop28
280
     0
102
RTVSPost2010PropOp28
 70
     1
102
RTVSPost2010Prop29
280
     1
102
RTVSPost2010PropOp29
 70
     1
102
RTVSPost2010Prop30
280
     1
102
RTVSPost2010PropOp30
 70
     1
102
RTVSPost2010Prop31
280
     0
102
RTVSPost2010PropOp31
 70
     1
102
RTVSPost2010Prop32
280
     0
102
RTVSPost2010PropOp32
 70
     1
102
RTVSPost2010Prop33
280
     0
102
RTVSPost2010PropOp33
 70
     1
102
RTVSPost2010Prop34
280
     0
102
RTVSPost2010PropOp34
 70
     1
102
RTVSPost2010Prop35
280
     0
102
RTVSPost2010PropOp35
 70
     1
102
RTVSPost2010Prop36
280
     0
102
RTVSPost2010PropOp36
 70
     1
102
RTVSPost2010Prop37
 90
       50
102
RTVSPost2010PropOp37
 70
     1
102
RTVSPost2010Prop38
140
0.0
102
RTVSPost2010PropOp38
 70
     1
102
RTVSPost2010Prop39
140
1.0
102
RTVSPost2010PropOp39
 70
     1
102
RTVSPost2010Prop40
 90
        0
102
RTVSPost2010PropOp40
 70
     1
102
RTVSPost2010Prop41ColorIndex
 90
       18
102
RTVSPost2010Prop41ColorRGB
 90
        0
102
RTVSPost2010PropOp41
 70
     1
102
RTVSPost2010Prop42
 90
       50
102
RTVSPost2010PropOp42
 70
     1
102
RTVSPost2010Prop43
 90
        3
102
RTVSPost2010PropOp43
 70
     1
102
RTVSPost2010Prop44ColorIndex
 90
        5
102
RTVSPost2010Prop44ColorRGB
 90
      255
102
RTVSPost2010PropOp44
 70
     1
102
RTVSPost2010Prop45
280
     0
102
RTVSPost2010PropOp45
 70
     1
102
RTVSPost2010Prop46
 90
       50
102
RTVSPost2010PropOp46
 70
     1
102
RTVSPost2010Prop47
 90
       50
102
RTVSPost2010PropOp47
 70
     1
102
RTVSPost2010Prop48
 90
       50
102
RTVSPost2010PropOp48
 70
     1
102
RTVSPost2010Prop49
280
     0
102
RTVSPost2010PropOp49
 70
     1
102
RTVSPost2010Prop50
 90
       50
102
RTVSPost2010PropOp50
 70
     1
102
RTVSPost2010Prop51ColorIndex
 90
      256
102
RTVSPost2010Prop51ColorRGB
 90
-16777216
102
RTVSPost2010PropOp51
 70
     0
102
RTVSPost2010Prop52
140
1.0
102
RTVSPost2010PropOp52
 70
     0
102
RTVSPost2010Prop53
 90
        2
102
RTVSPost2010PropOp53
 70
     1
102
RTVSPost2010Prop54
  1
strokes_ogs.tif
102
RTVSPost2010PropOp54
 70
     1
102
RTVSPost2010Prop55
280
     0
102
RTVSPost2010PropOp55
 70
     1
102
RTVSPost2010Prop56
140
1.0
102
RTVSPost2010PropOp56
 70
     1
102
RTVSPost2010Prop57
140
1.0
102
RTVSPost2010PropOp57
 70
     1
102
RTVSPropertyOp0
 70
     1
102
RTVSPropertyOp1
 70
     1
102
RTVSPropertyOp2
 70
     1
102
RTVSPropertyOp3
 70
     1
102
RTVSPropertyOp4
 70
     1
102
RTVSPropertyOp5
 70
     1
102
RTVSPropertyOp6
 70
     1
102
RTVSPropertyOp7
 70
     1
102
RTVSPropertyOp8
 70
     1
102
RTVSPropertyOp9
 70
     1
102
RTVSPropertyOp10
 70
     1
102
RTVSPropertyOp11
 70
     1
102
RTVSPropertyOp12
 70
     1
102
RTVSPropertyOp13
 70
     1
102
RTVSPropertyOp14
 70
     1
102
RTVSPropertyOp15
 70
     1
102
RTVSPropertyOp16
 70
     1
102
RTVSPropertyOp17
 70
     1
102
RTVSPropertyOp18
 70
     1
102
RTVSPropertyOp19
 70
     1
102
RTVSPropertyOp20
 70
     1
102
RTVSPropertyOp21
 70
     1
102
RTVSPropertyOp22
 70
     1
102
RTVSPropertyOp23
 70
     1
102
RTVSPropertyOp24
 70
     1
102
RTVSPropertyOp25
 70
     1
102
RTVSPropertyOp26
 70
     1
102
RTVSPropertyOp27
 70
     1
102
RTVSPropertyOp28
 70
     1
102
RTVSPropertyOp29
 70
     1
102
RTVSPropertyOp30
 70
     1
102
RTVSPropertyOp31
 70
     1
102
RTVSPropertyOp32
 70
     1
102
RTVSPropertyOp33
 70
     1
102
RTVSPropertyOp34
 70
     1
102
RTVSPropertyOp35
 70
     1
102
RTVSPropertyOp36
 70
     1
102
RTVSPropertyOp37
 70
     1
102
RTVSPropertyOp38
 70
     1
102
RTVSPropertyOp39
 70
     1
102
RTVSPropertyOp40
 70
     1
102
RTVSPropertyOp41
 70
     1
102
RTVSPropertyOp42
 70
     1
102
RTVSPropertyOp43
 70
     1
102
RTVSPropertyOp44
 70
     1
102
RTVSPropertyOp45
 70
     1
102
RTVSPropertyOp46
 70
     1
102
RTVSPropertyOp47
 70
     1
102
RTVSPropertyOp48
 70
     1
102
RTVSPropertyOp49
 70
     1
102
RTVSPropertyOp50
 70
     1
102
RTVSPropertyOp51
 70
     0
102
RTVSPropertyOp52
 70
     0
102
RTVSPropertyOp53
 70
     1
102
RTVSPropertyOp54
 70
     1
102
RTVSPropertyOp55
 70
     1
102
RTVSPropertyOp56
 70
     1
102
RTVSPropertyOp57
 70
     1
102
RTVSPropertyOp58
 70
     1
102
RTVSPropertyOp59
 70
     1
102
RTVSPropertyOp60
 70
     1
102
RTVSPropertyOp61
 70
     1
102
RTVSPropertyOp62
 70
     1
  0
ENDSEC
  0
EOF
