  0
SECTION
  2
HEADER
  9
$ACADVER
  1
AC1015
  9
$ACADMAINTVER
 70
    20
  9
$DWGCODEPAGE
  3
ANSI_932
  9
$INSBASE
 10
0.0
 20
0.0
 30
0.0
  9
$EXTMIN
 10
793.6269640239352
 20
355.3756113765808
 30
-0.0000000000112498
  9
$EXTMAX
 10
998.746570074752
 20
499.6590386645234
 30
0.0000000000002956
  9
$LIMMIN
 10
0.0
 20
0.0
  9
$LIMMAX
 10
420.0
 20
297.0
  9
$ORTHOMODE
 70
     0
  9
$REGENMODE
 70
     1
  9
$FILLMODE
 70
     1
  9
$QTEXTMODE
 70
     0
  9
$MIRRTEXT
 70
     0
  9
$LTSCALE
 40
1.0
  9
$ATTMODE
 70
     1
  9
$TEXTSIZE
 40
2.5
  9
$TRACEWID
 40
1.0
  9
$TEXTSTYLE
  7
Standard
  9
$CLAYER
  8
0
  9
$CELTYPE
  6
ByLayer
  9
$CECOLOR
 62
   256
  9
$CELTSCALE
 40
1.0
  9
$DISPSILH
 70
     0
  9
$DIMSCALE
 40
1.0
  9
$DIMASZ
 40
2.5
  9
$DIMEXO
 40
0.625
  9
$DIMDLI
 40
3.75
  9
$DIMRND
 40
0.0
  9
$DIMDLE
 40
0.0
  9
$DIMEXE
 40
1.25
  9
$DIMTP
 40
0.0
  9
$DIMTM
 40
0.0
  9
$DIMTXT
 40
2.5
  9
$DIMCEN
 40
2.5
  9
$DIMTSZ
 40
0.0
  9
$DIMTOL
 70
     0
  9
$DIMLIM
 70
     0
  9
$DIMTIH
 70
     0
  9
$DIMTOH
 70
     0
  9
$DIMSE1
 70
     0
  9
$DIMSE2
 70
     0
  9
$DIMTAD
 70
     1
  9
$DIMZIN
 70
     8
  9
$DIMBLK
  1

  9
$DIMASO
 70
     1
  9
$DIMSHO
 70
     1
  9
$DIMPOST
  1

  9
$DIMAPOST
  1

  9
$DIMALT
 70
     0
  9
$DIMALTD
 70
     3
  9
$DIMALTF
 40
0.03937007874016
  9
$DIMLFAC
 40
1.0
  9
$DIMTOFL
 70
     1
  9
$DIMTVP
 40
0.0
  9
$DIMTIX
 70
     0
  9
$DIMSOXD
 70
     0
  9
$DIMSAH
 70
     0
  9
$DIMBLK1
  1

  9
$DIMBLK2
  1

  9
$DIMSTYLE
  2
ISO-25
  9
$DIMCLRD
 70
     0
  9
$DIMCLRE
 70
     0
  9
$DIMCLRT
 70
     0
  9
$DIMTFAC
 40
1.0
  9
$DIMGAP
 40
0.625
  9
$DIMJUST
 70
     0
  9
$DIMSD1
 70
     0
  9
$DIMSD2
 70
     0
  9
$DIMTOLJ
 70
     0
  9
$DIMTZIN
 70
     8
  9
$DIMALTZ
 70
     0
  9
$DIMALTTZ
 70
     0
  9
$DIMUPT
 70
     0
  9
$DIMDEC
 70
     2
  9
$DIMTDEC
 70
     2
  9
$DIMALTU
 70
     2
  9
$DIMALTTD
 70
     3
  9
$DIMTXSTY
  7
Standard
  9
$DIMAUNIT
 70
     0
  9
$DIMADEC
 70
     0
  9
$DIMALTRND
 40
0.0
  9
$DIMAZIN
 70
     0
  9
$DIMDSEP
 70
    44
  9
$DIMATFIT
 70
     3
  9
$DIMFRAC
 70
     0
  9
$DIMLDRBLK
  1

  9
$DIMLUNIT
 70
     2
  9
$DIMLWD
 70
    -2
  9
$DIMLWE
 70
    -2
  9
$DIMTMOVE
 70
     0
  9
$LUNITS
 70
     2
  9
$LUPREC
 70
     4
  9
$SKETCHINC
 40
1.0
  9
$FILLETRAD
 40
0.0
  9
$AUNITS
 70
     0
  9
$AUPREC
 70
     0
  9
$MENU
  1
.
  9
$ELEVATION
 40
0.0
  9
$PELEVATION
 40
0.0
  9
$THICKNESS
 40
0.0
  9
$LIMCHECK
 70
     0
  9
$CHAMFERA
 40
0.0
  9
$CHAMFERB
 40
0.0
  9
$CHAMFERC
 40
0.0
  9
$CHAMFERD
 40
0.0
  9
$SKPOLY
 70
     0
  9
$TDCREATE
 40
2455419.549782801
  9
$TDUCREATE
 40
2455419.174782801
  9
$TDUPDATE
 40
2457301.672370428
  9
$TDUUPDATE
 40
2457301.297370428
  9
$TDINDWG
 40
0.0063122801
  9
$TDUSRTIMER
 40
0.0063122685
  9
$USRTIMER
 70
     1
  9
$ANGBASE
 50
0.0
  9
$ANGDIR
 70
     0
  9
$PDMODE
 70
     0
  9
$PDSIZE
 40
0.0
  9
$PLINEWID
 40
0.0
  9
$SPLFRAME
 70
     0
  9
$SPLINETYPE
 70
     6
  9
$SPLINESEGS
 70
     8
  9
$HANDSEED
  5
728
  9
$SURFTAB1
 70
     6
  9
$SURFTAB2
 70
     6
  9
$SURFTYPE
 70
     6
  9
$SURFU
 70
     6
  9
$SURFV
 70
     6
  9
$UCSBASE
  2

  9
$UCSNAME
  2

  9
$UCSORG
 10
0.0
 20
0.0
 30
0.0
  9
$UCSXDIR
 10
1.0
 20
0.0
 30
0.0
  9
$UCSYDIR
 10
0.0
 20
1.0
 30
0.0
  9
$UCSORTHOREF
  2

  9
$UCSORTHOVIEW
 70
     0
  9
$UCSORGTOP
 10
0.0
 20
0.0
 30
0.0
  9
$UCSORGBOTTOM
 10
0.0
 20
0.0
 30
0.0
  9
$UCSORGLEFT
 10
0.0
 20
0.0
 30
0.0
  9
$UCSORGRIGHT
 10
0.0
 20
0.0
 30
0.0
  9
$UCSORGFRONT
 10
0.0
 20
0.0
 30
0.0
  9
$UCSORGBACK
 10
0.0
 20
0.0
 30
0.0
  9
$PUCSBASE
  2

  9
$PUCSNAME
  2

  9
$PUCSORG
 10
0.0
 20
0.0
 30
0.0
  9
$PUCSXDIR
 10
1.0
 20
0.0
 30
0.0
  9
$PUCSYDIR
 10
0.0
 20
1.0
 30
0.0
  9
$PUCSORTHOREF
  2

  9
$PUCSORTHOVIEW
 70
     0
  9
$PUCSORGTOP
 10
0.0
 20
0.0
 30
0.0
  9
$PUCSORGBOTTOM
 10
0.0
 20
0.0
 30
0.0
  9
$PUCSORGLEFT
 10
0.0
 20
0.0
 30
0.0
  9
$PUCSORGRIGHT
 10
0.0
 20
0.0
 30
0.0
  9
$PUCSORGFRONT
 10
0.0
 20
0.0
 30
0.0
  9
$PUCSORGBACK
 10
0.0
 20
0.0
 30
0.0
  9
$USERI1
 70
     0
  9
$USERI2
 70
     0
  9
$USERI3
 70
     0
  9
$USERI4
 70
     0
  9
$USERI5
 70
     0
  9
$USERR1
 40
0.0
  9
$USERR2
 40
0.0
  9
$USERR3
 40
0.0
  9
$USERR4
 40
0.0
  9
$USERR5
 40
0.0
  9
$WORLDVIEW
 70
     1
  9
$SHADEDGE
 70
     3
  9
$SHADEDIF
 70
    70
  9
$TILEMODE
 70
     1
  9
$MAXACTVP
 70
    64
  9
$PINSBASE
 10
0.0
 20
0.0
 30
0.0
  9
$PLIMCHECK
 70
     0
  9
$PEXTMIN
 10
0.0
 20
0.0
 30
0.0
  9
$PEXTMAX
 10
0.0
 20
0.0
 30
0.0
  9
$PLIMMIN
 10
0.0
 20
0.0
  9
$PLIMMAX
 10
12.0
 20
9.0
  9
$UNITMODE
 70
     0
  9
$VISRETAIN
 70
     1
  9
$PLINEGEN
 70
     0
  9
$PSLTSCALE
 70
     1
  9
$TREEDEPTH
 70
  3020
  9
$CMLSTYLE
  2
Standard
  9
$CMLJUST
 70
     0
  9
$CMLSCALE
 40
20.0
  9
$PROXYGRAPHICS
 70
     1
  9
$MEASUREMENT
 70
     1
  9
$CELWEIGHT
370
    -1
  9
$ENDCAPS
280
     0
  9
$JOINSTYLE
280
     0
  9
$LWDISPLAY
290
     0
  9
$INSUNITS
 70
     4
  9
$HYPERLINKBASE
  1

  9
$STYLESHEET
  1
monochrome.ctb
  9
$XEDIT
290
     1
  9
$CEPSNTYPE
380
     0
  9
$PSTYLEMODE
290
     1
  9
$FINGERPRINTGUID
  2
{FDEAD578-A652-11D2-9A35-0060089B3A3F}
  9
$VERSIONGUID
  2
{B3542596-11F1-450C-84B1-83E221BD750F}
  9
$EXTNAMES
290
     1
  9
$PSVPSCALE
 40
0.0
  9
$OLESTARTUP
290
     0
  0
ENDSEC
  0
SECTION
  2
CLASSES
  0
CLASS
  1
ACDBDICTIONARYWDFLT
  2
AcDbDictionaryWithDefault
  3
ObjectDBX Classes
 90
        0
280
     0
281
     0
  0
CLASS
  1
ACDBPLACEHOLDER
  2
AcDbPlaceHolder
  3
ObjectDBX Classes
 90
        0
280
     0
281
     0
  0
CLASS
  1
LAYOUT
  2
AcDbLayout
  3
ObjectDBX Classes
 90
        0
280
     0
281
     0
  0
CLASS
  1
DICTIONARYVAR
  2
AcDbDictionaryVar
  3
ObjectDBX Classes
 90
        0
280
     0
281
     0
  0
CLASS
  1
DIMASSOC
  2
AcDbDimAssoc
  3
"AcDbDimAssoc|Product Desc:     AcDim ARX App For Dimension|Company:          Autodesk, Inc.|WEB Address:      www.autodesk.com"
 90
        0
280
     0
281
     0
  0
CLASS
  1
MATERIAL
  2
AcDbMaterial
  3
ObjectDBX Classes
 90
     1153
280
     0
281
     0
  0
CLASS
  1
VISUALSTYLE
  2
AcDbVisualStyle
  3
ObjectDBX Classes
 90
     4095
280
     0
281
     0
  0
CLASS
  1
TABLESTYLE
  2
AcDbTableStyle
  3
ObjectDBX Classes
 90
     4095
280
     0
281
     0
  0
CLASS
  1
SCALE
  2
AcDbScale
  3
ObjectDBX Classes
 90
     1153
280
     0
281
     0
  0
CLASS
  1
MLEADERSTYLE
  2
AcDbMLeaderStyle
  3
ACDB_MLEADERSTYLE_CLASS
 90
     4095
280
     0
281
     0
  0
CLASS
  1
ACDBSECTIONVIEWSTYLE
  2
AcDbSectionViewStyle
  3
ObjectDBX Classes
 90
     1025
280
     0
281
     0
  0
CLASS
  1
ACDBDETAILVIEWSTYLE
  2
AcDbDetailViewStyle
  3
ObjectDBX Classes
 90
     1025
280
     0
281
     0
  0
CLASS
  1
CELLSTYLEMAP
  2
AcDbCellStyleMap
  3
ObjectDBX Classes
 90
     1152
280
     0
281
     0
  0
ENDSEC
  0
SECTION
  2
TABLES
  0
TABLE
  2
VPORT
  5
8
330
0
100
AcDbSymbolTable
 70
     1
  0
VPORT
  5
604
330
8
100
AcDbSymbolTableRecord
100
AcDbViewportTableRecord
  2
*Active
 70
     0
 10
0.0
 20
0.0
 11
1.0
 21
1.0
 12
896.1867670493436
 22
427.517325020552
 13
0.0
 23
0.0
 14
10.0
 24
10.0
 15
10.0
 25
10.0
 16
0.0
 26
0.0
 36
1.0
 17
0.0
 27
0.0
 37
0.0
 40
145.4165432090522
 41
2.488859764089121
 42
50.0
 43
0.0
 44
0.0
 50
0.0
 51
0.0
 71
     0
 72
  1000
 73
     1
 74
     3
 75
     0
 76
     0
 77
     0
 78
     0
281
     0
 65
     1
110
0.0
120
0.0
130
0.0
111
1.0
121
0.0
131
0.0
112
0.0
122
1.0
132
0.0
 79
     0
146
0.0
1001
ACAD_NAV_VCDISPLAY
1070
     3
  0
ENDTAB
  0
TABLE
  2
LTYPE
  5
5
330
0
100
AcDbSymbolTable
 70
     4
  0
LTYPE
  5
14
330
5
100
AcDbSymbolTableRecord
100
AcDbLinetypeTableRecord
  2
ByBlock
 70
     0
  3

 72
    65
 73
     0
 40
0.0
  0
LTYPE
  5
15
330
5
100
AcDbSymbolTableRecord
100
AcDbLinetypeTableRecord
  2
ByLayer
 70
     0
  3

 72
    65
 73
     0
 40
0.0
  0
LTYPE
  5
16
330
5
100
AcDbSymbolTableRecord
100
AcDbLinetypeTableRecord
  2
Continuous
 70
     0
  3
Solid line
 72
    65
 73
     0
 40
0.0
  0
LTYPE
  5
15D
330
5
100
AcDbSymbolTableRecord
100
AcDbLinetypeTableRecord
  2
BORDER
 70
     0
  3
__ . __ . 
 72
    65
 73
     4
 40
22.0
 49
20.0
 74
     0
 49
-1.0
 74
     0
 49
0.0
 74
     0
 49
-1.0
 74
     0
  0
LTYPE
  5
15E
330
5
100
AcDbSymbolTableRecord
100
AcDbLinetypeTableRecord
  2
DOT
 70
     0
  3

 72
    65
 73
     2
 40
1.0
 49
0.0
 74
     0
 49
-1.0
 74
     0
  0
ENDTAB
  0
TABLE
  2
LAYER
  5
2
102
{ACAD_XDICTIONARY
360
168
102
}
330
0
100
AcDbSymbolTable
 70
     6
  0
LAYER
  5
10
102
{ACAD_XDICTIONARY
360
675
102
}
330
2
100
AcDbSymbolTableRecord
100
AcDbLayerTableRecord
  2
0
 70
     0
 62
     7
  6
Continuous
370
    -3
390
F
  0
LAYER
  5
15F
330
2
100
AcDbSymbolTableRecord
100
AcDbLayerTableRecord
  2
Defpoints
 70
     0
 62
     7
  6
Continuous
290
     0
370
    -3
390
F
  0
LAYER
  5
160
102
{ACAD_XDICTIONARY
360
677
102
}
330
2
100
AcDbSymbolTableRecord
100
AcDbLayerTableRecord
  2
図枠
 70
     0
 62
     7
  6
Continuous
370
    50
390
F
  0
LAYER
  5
161
102
{ACAD_XDICTIONARY
360
679
102
}
330
2
100
AcDbSymbolTableRecord
100
AcDbLayerTableRecord
  2
寸法線・引き出し線
 70
     0
 62
     4
  6
Continuous
370
     0
390
F
  0
LAYER
  5
162
102
{ACAD_XDICTIONARY
360
67B
102
}
330
2
100
AcDbSymbolTableRecord
100
AcDbLayerTableRecord
  2
レイヤー 1
 70
     0
 62
     7
  6
Continuous
370
    -3
390
F
  0
LAYER
  5
163
102
{ACAD_XDICTIONARY
360
67D
102
}
330
2
100
AcDbSymbolTableRecord
100
AcDbLayerTableRecord
  2
改訂
 70
     0
 62
     7
  6
Continuous
370
    -3
390
F
  0
ENDTAB
  0
TABLE
  2
STYLE
  5
3
330
0
100
AcDbSymbolTable
 70
     5
  0
STYLE
  5
11
330
3
100
AcDbSymbolTableRecord
100
AcDbTextStyleTableRecord
  2
Standard
 70
     0
 40
0.0
 41
1.0
 50
0.0
 71
     0
 42
2.5
  3
txt
  4

  0
STYLE
  5
164
330
3
100
AcDbSymbolTableRecord
100
AcDbTextStyleTableRecord
  2
ゴシック
 70
     0
 40
0.0
 41
1.0
 50
0.0
 71
     0
 42
1.767676767676765
  3
MS PGothic.ttf
  4

1001
ACAD
1000
MS PGothic
1071
    32818
  0
ENDTAB
  0
TABLE
  2
VIEW
  5
6
330
0
100
AcDbSymbolTable
 70
     0
  0
ENDTAB
  0
TABLE
  2
UCS
  5
7
330
0
100
AcDbSymbolTable
 70
     0
  0
ENDTAB
  0
TABLE
  2
APPID
  5
9
330
0
100
AcDbSymbolTable
 70
     5
  0
APPID
  5
12
330
9
100
AcDbSymbolTableRecord
100
AcDbRegAppTableRecord
  2
ACAD
 70
     0
  0
APPID
  5
663
330
9
100
AcDbSymbolTableRecord
100
AcDbRegAppTableRecord
  2
ACAD_EXEMPT_FROM_CAD_STANDARDS
 70
     0
  0
APPID
  5
687
330
9
100
AcDbSymbolTableRecord
100
AcDbRegAppTableRecord
  2
ACAD_NAV_VCDISPLAY
 70
     0
  0
APPID
  5
6D4
330
9
100
AcDbSymbolTableRecord
100
AcDbRegAppTableRecord
  2
ACAD_PSEXT
 70
     0
  0
APPID
  5
723
330
9
100
AcDbSymbolTableRecord
100
AcDbRegAppTableRecord
  2
ACAD_MLEADERVER
 70
     0
  0
ENDTAB
  0
TABLE
  2
DIMSTYLE
  5
A
330
0
100
AcDbSymbolTable
 70
     7
100
AcDbDimStyleTable
 71
     1
340
27
  0
DIMSTYLE
105
27
330
A
100
AcDbSymbolTableRecord
100
AcDbDimStyleTableRecord
  2
ISO-25
 70
     0
 41
2.5
 42
0.625
 43
3.75
 44
1.25
 73
     0
 74
     0
 77
     1
 78
     8
140
2.5
141
2.5
143
0.03937007874016
147
0.625
171
     3
172
     1
271
     2
272
     2
274
     3
278
    44
283
     0
284
     8
340
11
  0
DIMSTYLE
105
165
102
{ACAD_REACTORS
330
3D7
330
3DA
330
3DD
330
3E0
330
3E3
330
3EE
330
3FB
330
420
330
423
330
440
330
443
330
44F
330
459
102
}
330
A
100
AcDbSymbolTableRecord
100
AcDbDimStyleTableRecord
  2
基本（１：１）
 70
     0
 40
0.0
 41
1.5
 42
1.0
 43
7.0
 44
0.1
 73
     0
 74
     0
 77
     1
 78
     8
140
2.5
141
1.0
143
0.0394
147
0.5
171
     4
172
     1
176
     4
177
     4
178
     4
273
     8
274
     4
340
164
371
     0
372
     0
  0
DIMSTYLE
105
166
330
A
100
AcDbSymbolTableRecord
100
AcDbDimStyleTableRecord
  2
基本（２：１）
 70
     0
 40
0.0
 41
1.0
 42
0.5
 43
3.5
 44
0.5
 73
     0
 74
     0
 77
     1
 78
     8
140
1.25
141
0.5
143
0.0394
147
0.5
171
     4
172
     1
176
     4
177
     4
178
     4
271
     2
272
     2
273
     8
274
     4
340
164
371
    13
372
    13
  0
DIMSTYLE
105
167
330
A
100
AcDbSymbolTableRecord
100
AcDbDimStyleTableRecord
  2
基本（1：8）
 70
     0
 40
0.0
 41
10.0
 42
10.0
 43
28.0
 44
4.0
 73
     0
 74
     0
 77
     1
 78
     8
140
20.0
141
4.0
143
0.0394
147
5.0
171
     4
172
     1
176
     4
177
     4
178
     4
271
     1
272
     1
273
     8
274
     4
340
164
371
     0
372
     0
  0
ENDTAB
  0
TABLE
  2
BLOCK_RECORD
  5
1
330
0
100
AcDbSymbolTable
 70
    21
  0
BLOCK_RECORD
  5
1F
330
1
100
AcDbSymbolTableRecord
100
AcDbBlockTableRecord
  2
*Model_Space
340
22
  0
BLOCK_RECORD
  5
50
330
1
100
AcDbSymbolTableRecord
100
AcDbBlockTableRecord
  2
*Paper_Space
340
51
  0
BLOCK_RECORD
  5
55
330
1
100
AcDbSymbolTableRecord
100
AcDbBlockTableRecord
  2
*Paper_Space0
340
56
  0
BLOCK_RECORD
  5
87
102
{ACAD_XDICTIONARY
360
88
102
}
330
1
100
AcDbSymbolTableRecord
100
AcDbBlockTableRecord
  2
A$C66767C9E
340
0
102
{BLKREFS
331
C1
102
}
  0
BLOCK_RECORD
  5
9A
102
{ACAD_XDICTIONARY
360
9B
102
}
330
1
100
AcDbSymbolTableRecord
100
AcDbBlockTableRecord
  2
A$C4D0D3DBA
340
0
102
{BLKREFS
331
C0
102
}
  0
BLOCK_RECORD
  5
A9
102
{ACAD_XDICTIONARY
360
AA
102
}
330
1
100
AcDbSymbolTableRecord
100
AcDbBlockTableRecord
  2
A$C35B26000
340
0
102
{BLKREFS
331
BF
102
}
  0
BLOCK_RECORD
  5
BC
102
{ACAD_XDICTIONARY
360
BD
102
}
330
1
100
AcDbSymbolTableRecord
100
AcDbBlockTableRecord
  2
A$C33767BF9
340
0
102
{BLKREFS
331
426
102
}
  0
BLOCK_RECORD
  5
528
330
1
100
AcDbSymbolTableRecord
100
AcDbBlockTableRecord
  2
*D5
340
0
  0
BLOCK_RECORD
  5
534
330
1
100
AcDbSymbolTableRecord
100
AcDbBlockTableRecord
  2
*D6
340
0
  0
BLOCK_RECORD
  5
53C
330
1
100
AcDbSymbolTableRecord
100
AcDbBlockTableRecord
  2
*D7
340
0
  0
BLOCK_RECORD
  5
548
330
1
100
AcDbSymbolTableRecord
100
AcDbBlockTableRecord
  2
*D8
340
0
  0
BLOCK_RECORD
  5
550
330
1
100
AcDbSymbolTableRecord
100
AcDbBlockTableRecord
  2
*D9
340
0
  0
BLOCK_RECORD
  5
55C
330
1
100
AcDbSymbolTableRecord
100
AcDbBlockTableRecord
  2
*D10
340
0
  0
BLOCK_RECORD
  5
568
330
1
100
AcDbSymbolTableRecord
100
AcDbBlockTableRecord
  2
*D11
340
0
  0
BLOCK_RECORD
  5
574
330
1
100
AcDbSymbolTableRecord
100
AcDbBlockTableRecord
  2
*D12
340
0
  0
BLOCK_RECORD
  5
599
330
1
100
AcDbSymbolTableRecord
100
AcDbBlockTableRecord
  2
*D13
340
0
  0
BLOCK_RECORD
  5
5A5
330
1
100
AcDbSymbolTableRecord
100
AcDbBlockTableRecord
  2
*D14
340
0
  0
BLOCK_RECORD
  5
5B1
330
1
100
AcDbSymbolTableRecord
100
AcDbBlockTableRecord
  2
*D15
340
0
  0
BLOCK_RECORD
  5
5BF
330
1
100
AcDbSymbolTableRecord
100
AcDbBlockTableRecord
  2
*D16
340
0
  0
BLOCK_RECORD
  5
5CB
330
1
100
AcDbSymbolTableRecord
100
AcDbBlockTableRecord
  2
*D17
340
0
  0
ENDTAB
  0
ENDSEC
  0
SECTION
  2
BLOCKS
  0
BLOCK
  5
20
330
1F
100
AcDbEntity
  8
0
100
AcDbBlockBegin
  2
*Model_Space
 70
     0
 10
0.0
 20
0.0
 30
0.0
  3
*Model_Space
  1

  0
ENDBLK
  5
21
330
1F
100
AcDbEntity
  8
0
100
AcDbBlockEnd
  0
BLOCK
  5
52
330
50
100
AcDbEntity
 67
     1
  8
0
100
AcDbBlockBegin
  2
*Paper_Space
 70
     0
 10
0.0
 20
0.0
 30
0.0
  3
*Paper_Space
  1

  0
ENDBLK
  5
53
330
50
100
AcDbEntity
 67
     1
  8
0
100
AcDbBlockEnd
  0
BLOCK
  5
57
330
55
100
AcDbEntity
 67
     1
  8
0
100
AcDbBlockBegin
  2
*Paper_Space0
 70
     0
 10
0.0
 20
0.0
 30
0.0
  3
*Paper_Space0
  1

  0
ENDBLK
  5
58
330
55
100
AcDbEntity
 67
     1
  8
0
100
AcDbBlockEnd
  0
BLOCK
  5
89
330
87
100
AcDbEntity
  8
0
 62
     2
100
AcDbBlockBegin
  2
A$C66767C9E
 70
     0
 10
0.0
 20
0.0
 30
0.0
  3
A$C66767C9E
  1

  0
SPLINE
  5
8A
330
87
100
AcDbEntity
  8
レイヤー 1
 62
     4
370
    35
100
AcDbSpline
210
0.0
220
0.0
230
1.0
 70
     8
 71
     3
 72
     8
 73
     4
 74
     0
 42
0.000000001
 43
0.0000000001
 40
0.0
 40
0.0
 40
0.0
 40
0.0
 40
1.0
 40
1.0
 40
1.0
 40
1.0
 10
2.318927029915356
 20
2.662690465992425
 30
0.0
 10
1.73036495517408
 20
2.781828803488592
 30
0.0
 10
1.57971598350923
 20
2.842134202007002
 30
0.0
 10
1.610124999799154
 20
2.995513586301654
 30
0.0
  0
SPLINE
  5
8B
330
87
100
AcDbEntity
  8
レイヤー 1
 62
     4
370
    35
100
AcDbSpline
210
0.0
220
0.0
230
1.0
 70
     8
 71
     3
 72
     8
 73
     4
 74
     0
 42
0.000000001
 43
0.0000000001
 40
0.0
 40
0.0
 40
0.0
 40
0.0
 40
1.0
 40
1.0
 40
1.0
 40
1.0
 10
1.610124999799154
 20
2.995513586301654
 30
0.0
 10
1.639915946651854
 20
3.145435417452858
 30
0.0
 10
1.797789059322894
 20
3.251205276601409
 30
0.0
 10
2.127576367986874
 20
3.251205276601409
 30
0.0
  0
SPLINE
  5
8C
330
87
100
AcDbEntity
  8
レイヤー 1
 62
     4
370
    35
100
AcDbSpline
210
0.0
220
0.0
230
1.0
 70
     8
 71
     3
 72
     8
 73
     4
 74
     0
 42
0.000000001
 43
0.0000000001
 40
0.0
 40
0.0
 40
0.0
 40
0.0
 40
1.0
 40
1.0
 40
1.0
 40
1.0
 10
0.4230390252741927
 20
3.028747543488435
 30
0.0
 10
0.2280635678826002
 20
1.979632845769144
 30
0.0
 10
1.11412427677078
 20
1.812136028397588
 30
0.0
 10
1.589303331184054
 20
1.681868805336534
 30
0.0
  0
SPLINE
  5
8D
330
87
100
AcDbEntity
  8
レイヤー 1
 62
     4
370
    35
100
AcDbSpline
210
0.0
220
0.0
230
1.0
 70
     8
 71
     3
 72
     8
 73
     4
 74
     0
 42
0.000000001
 43
0.0000000001
 40
0.0
 40
0.0
 40
0.0
 40
0.0
 40
1.0
 40
1.0
 40
1.0
 40
1.0
 10
2.305260423958315
 20
4.191852423865611
 30
0.0
 10
1.098836147466499
 20
4.191408868152136
 30
0.0
 10
0.5389961230221161
 20
3.652943139113318
 30
0.0
 10
0.4230390252741927
 20
3.028747543488435
 30
0.0
  0
LINE
  5
8E
330
87
100
AcDbEntity
  8
レイヤー 1
 62
     4
370
    35
100
AcDbLine
 10
2.555727609665153
 20
2.861254361818622
 30
0.0
 11
3.816436561219233
 21
2.861254361818622
 31
0.0
  0
SPLINE
  5
8F
330
87
100
AcDbEntity
  8
レイヤー 1
 62
     4
370
    35
100
AcDbSpline
210
0.0
220
0.0
230
1.0
 70
     8
 71
     3
 72
     8
 73
     4
 74
     0
 42
0.000000001
 43
0.0000000001
 40
0.0
 40
0.0
 40
0.0
 40
0.0
 40
1.0
 40
1.0
 40
1.0
 40
1.0
 10
2.127576367986874
 20
3.251205276601409
 30
0.0
 10
2.524678709722138
 20
3.251205276601409
 30
0.0
 10
2.555727609665153
 20
3.004799170663885
 30
0.0
 10
2.555727609665153
 20
2.861254361819391
 30
0.0
  0
SPLINE
  5
90
330
87
100
AcDbEntity
  8
レイヤー 1
 62
     4
370
    35
100
AcDbSpline
210
0.0
220
0.0
230
1.0
 70
     8
 71
     3
 72
     8
 73
     4
 74
     0
 42
0.000000001
 43
0.0000000001
 40
0.0
 40
0.0
 40
0.0
 40
0.0
 40
1.0
 40
1.0
 40
1.0
 40
1.0
 10
1.589303331184054
 20
1.681868805336534
 30
0.0
 10
2.034302418568585
 20
1.559803727271968
 30
0.0
 10
2.392353679007101
 20
1.502355990973114
 30
0.0
 10
2.3476345374047
 20
1.263264918605186
 30
0.0
  0
SPLINE
  5
91
330
87
100
AcDbEntity
  8
レイヤー 1
 62
     4
370
    35
100
AcDbSpline
210
0.0
220
0.0
230
1.0
 70
     8
 71
     3
 72
     8
 73
     4
 74
     0
 42
0.000000001
 43
0.0000000001
 40
0.0
 40
0.0
 40
0.0
 40
0.0
 40
1.0
 40
1.0
 40
1.0
 40
1.0
 10
2.3476345374047
 20
1.263264918605186
 30
0.0
 10
2.292582729098285
 20
0.9689293456955001
 30
0.0
 10
2.024645992545629
 20
0.954659213110659
 30
0.0
 10
1.702082824886929
 20
0.9519578861015816
 30
0.0
  0
SPLINE
  5
92
330
87
100
AcDbEntity
  8
レイヤー 1
 62
     4
370
    35
100
AcDbSpline
210
0.0
220
0.0
230
1.0
 70
     8
 71
     3
 72
     8
 73
     4
 74
     0
 42
0.000000001
 43
0.0000000001
 40
0.0
 40
0.0
 40
0.0
 40
0.0
 40
1.0
 40
1.0
 40
1.0
 40
1.0
 10
1.702082824886929
 20
0.9519578861015816
 30
0.0
 10
1.460119547488829
 20
0.9498273643959294
 30
0.0
 10
1.213677084525442
 20
1.059538325129693
 30
0.0
 10
1.213677084525442
 20
1.315779006517401
 30
0.0
  0
SPLINE
  5
93
330
87
100
AcDbEntity
  8
レイヤー 1
 62
     4
370
    35
100
AcDbSpline
210
0.0
220
0.0
230
1.0
 70
    24
 71
     3
 72
     8
 73
     4
 74
     0
 42
0.000000001
 43
0.0000000001
 40
0.0
 40
0.0
 40
0.0
 40
0.0
 40
1.0
 40
1.0
 40
1.0
 40
1.0
 10
1.213677084525442
 20
1.315779006517401
 30
0.0
 10
1.213677084525442
 20
1.509671024542711
 30
0.0
 10
1.213677084525442
 20
1.559803727271968
 30
0.0
 10
1.213677084525442
 20
1.559803727271968
 30
0.0
  0
SPLINE
  5
94
330
87
100
AcDbEntity
  8
レイヤー 1
 62
     4
370
    35
100
AcDbSpline
210
0.0
220
0.0
230
1.0
 70
     8
 71
     3
 72
     8
 73
     4
 74
     0
 42
0.000000001
 43
0.0000000001
 40
0.0
 40
0.0
 40
0.0
 40
0.0
 40
1.0
 40
1.0
 40
1.0
 40
1.0
 10
3.816436561220142
 20
2.861254361819391
 30
0.0
 10
3.818850667726109
 20
3.547845884940102
 30
0.0
 10
3.684875028044189
 20
4.192546843056361
 30
0.0
 10
2.305260423958315
 20
4.191852423865611
 30
0.0
  0
SPLINE
  5
95
330
87
100
AcDbEntity
  8
レイヤー 1
 62
     4
370
    35
100
AcDbSpline
210
0.0
220
0.0
230
1.0
 70
     8
 71
     3
 72
     8
 73
     4
 74
     0
 42
0.000000001
 43
0.0000000001
 40
0.0
 40
0.0
 40
0.0
 40
0.0
 40
1.0
 40
1.0
 40
1.0
 40
1.0
 10
1.522428218122513
 20
0.0000000681440042
 30
0.0
 10
2.27827623948724
 20
0.0000000681440042
 30
0.0
 10
3.408663432443063
 20
0.1148955407417418
 30
0.0
 10
3.630655795626806
 20
1.315779006517401
 30
0.0
  0
SPLINE
  5
96
330
87
100
AcDbEntity
  8
レイヤー 1
 62
     4
370
    35
100
AcDbSpline
210
0.0
220
0.0
230
1.0
 70
     8
 71
     3
 72
     8
 73
     4
 74
     0
 42
0.000000001
 43
0.0000000001
 40
0.0
 40
0.0
 40
0.0
 40
0.0
 40
1.0
 40
1.0
 40
1.0
 40
1.0
 10
3.630655795626806
 20
1.315779006517401
 30
0.0
 10
3.814520545965933
 20
2.309950967008119
 30
0.0
 10
2.92180286567418
 20
2.540698101979272
 30
0.0
 10
2.318927029915356
 20
2.662690465992425
 30
0.0
  0
LINE
  5
97
330
87
100
AcDbEntity
  8
レイヤー 1
 62
     4
370
    35
100
AcDbLine
 10
1.213677084526352
 20
1.559803727269865
 30
0.0
 11
0.0271219225769528
 21
1.559803727269865
 31
0.0
  0
SPLINE
  5
98
330
87
100
AcDbEntity
  8
レイヤー 1
 62
     4
370
    35
100
AcDbSpline
210
0.0
220
0.0
230
1.0
 70
     8
 71
     3
 72
     8
 73
     4
 74
     0
 42
0.000000001
 43
0.0000000001
 40
0.0
 40
0.0
 40
0.0
 40
0.0
 40
1.0
 40
1.0
 40
1.0
 40
1.0
 10
0.0271219225751338
 20
1.559803727271968
 30
0.0
 10
-0.1236506629766154
 20
0.7129395277850393
 30
0.0
 10
0.3500559318954401
 20
0.0000727821954172
 30
0.0
 10
1.522428218122513
 20
0.0000000681440042
 30
0.0
  0
ENDBLK
  5
99
330
87
100
AcDbEntity
  8
0
 62
     2
100
AcDbBlockEnd
  0
BLOCK
  5
9C
330
9A
100
AcDbEntity
  8
0
 62
     2
100
AcDbBlockBegin
  2
A$C4D0D3DBA
 70
     0
 10
0.0
 20
0.0
 30
0.0
  3
A$C4D0D3DBA
  1

  0
SPLINE
  5
9D
330
9A
100
AcDbEntity
  8
レイヤー 1
 62
     4
370
    35
100
AcDbSpline
210
0.0
220
0.0
230
1.0
 70
     8
 71
     3
 72
     8
 73
     4
 74
     0
 42
0.000000001
 43
0.0000000001
 40
0.0
 40
0.0
 40
0.0
 40
0.0
 40
1.0
 40
1.0
 40
1.0
 40
1.0
 10
4.025155020377495
 20
2.602366975765589
 30
0.0
 10
4.09801086416428
 20
2.994004856539788
 30
0.0
 10
4.04784180441038
 20
4.000000121786115
 30
0.0
 10
2.62679473384196
 20
4.000000121786115
 30
0.0
  0
LINE
  5
9E
330
9A
100
AcDbEntity
  8
レイヤー 1
 62
     4
370
    35
100
AcDbLine
 10
1.234451535062362
 20
0.0000001549466901
 30
0.0
 11
1.459341553191734
 21
1.224882893386932
 31
0.0
  0
LINE
  5
9F
330
9A
100
AcDbEntity
  8
レイヤー 1
 62
     4
370
    35
100
AcDbLine
 10
1.459341553191734
 20
1.224882893386932
 30
0.0
 11
2.112451891353885
 21
1.224882893386932
 31
0.0
  0
LINE
  5
A0
330
9A
100
AcDbEntity
  8
レイヤー 1
 62
     4
370
    35
100
AcDbLine
 10
2.626794733841051
 20
4.000000121787478
 30
0.0
 11
0.7368692814125099
 21
4.000000121787478
 31
0.0
  0
LINE
  5
A1
330
9A
100
AcDbEntity
  8
レイヤー 1
 62
     4
370
    35
100
AcDbLine
 10
0.7368692814125099
 20
4.000000121787478
 30
0.0
 11
-0.0000003725399438
 21
0.0000001549466901
 31
0.0
  0
LINE
  5
A2
330
9A
100
AcDbEntity
  8
レイヤー 1
 62
     4
370
    35
100
AcDbLine
 10
2.296705661868144
 20
2.200930876565394
 30
0.0
 11
1.639937806923626
 21
2.200930876565394
 31
0.0
  0
LINE
  5
A3
330
9A
100
AcDbEntity
  8
レイヤー 1
 62
     4
370
    35
100
AcDbLine
 10
1.639937806923626
 20
2.200930876565394
 30
0.0
 11
1.789499703515502
 21
3.023915781579858
 31
0.0
  0
LINE
  5
A4
330
9A
100
AcDbEntity
  8
レイヤー 1
 62
     4
370
    35
100
AcDbLine
 10
1.789499703515502
 20
3.023915781579858
 30
0.0
 11
2.443820730633888
 21
3.023915781579858
 31
0.0
  0
SPLINE
  5
A5
330
9A
100
AcDbEntity
  8
レイヤー 1
 62
     4
370
    35
100
AcDbSpline
210
0.0
220
0.0
230
1.0
 70
     8
 71
     3
 72
     8
 73
     4
 74
     0
 42
0.000000001
 43
0.0000000001
 40
0.0
 40
0.0
 40
0.0
 40
0.0
 40
1.0
 40
1.0
 40
1.0
 40
1.0
 10
2.443820730632978
 20
3.023915781578124
 30
0.0
 10
2.882751830430606
 20
3.023915781578124
 30
0.0
 10
2.858854357440576
 20
2.200930876566928
 30
0.0
 10
2.296705661865416
 20
2.200930876566928
 30
0.0
  0
SPLINE
  5
A6
330
9A
100
AcDbEntity
  8
レイヤー 1
 62
     4
370
    35
100
AcDbSpline
210
0.0
220
0.0
230
1.0
 70
     8
 71
     3
 72
     8
 73
     4
 74
     0
 42
0.000000001
 43
0.0000000001
 40
0.0
 40
0.0
 40
0.0
 40
0.0
 40
1.0
 40
1.0
 40
1.0
 40
1.0
 10
2.112451891351156
 20
1.224882893384602
 30
0.0
 10
3.710510412914118
 20
1.224882893384602
 30
0.0
 10
3.889775999502488
 20
1.874462964348991
 30
0.0
 10
4.025155020377495
 20
2.602366975765589
 30
0.0
  0
LINE
  5
A7
330
9A
100
AcDbEntity
  8
レイヤー 1
 62
     4
370
    35
100
AcDbLine
 10
-0.0000003725399438
 20
0.0000001549466901
 30
0.0
 11
1.234451535062362
 21
0.0000001549466901
 31
0.0
  0
ENDBLK
  5
A8
330
9A
100
AcDbEntity
  8
0
 62
     2
100
AcDbBlockEnd
  0
BLOCK
  5
AB
330
A9
100
AcDbEntity
  8
0
 62
     2
100
AcDbBlockBegin
  2
A$C35B26000
 70
     0
 10
0.0
 20
0.0
 30
0.0
  3
A$C35B26000
  1

  0
SPLINE
  5
AC
330
A9
100
AcDbEntity
  8
レイヤー 1
 62
     4
370
    35
100
AcDbSpline
210
0.0
220
0.0
230
1.0
 70
     8
 71
     3
 72
     8
 73
     4
 74
     0
 42
0.000000001
 43
0.0000000001
 40
0.0
 40
0.0
 40
0.0
 40
0.0
 40
1.0
 40
1.0
 40
1.0
 40
1.0
 10
3.935556335454748
 20
2.804922489287149
 30
0.0
 10
3.935556335454748
 20
3.608754513162806
 30
0.0
 10
3.421162593128428
 20
4.190092446899797
 30
0.0
 10
2.392513265172055
 20
4.190092446899797
 30
0.0
  0
SPLINE
  5
AD
330
A9
100
AcDbEntity
  8
レイヤー 1
 62
     4
370
    35
100
AcDbSpline
210
0.0
220
0.0
230
1.0
 70
     8
 71
     3
 72
     8
 73
     4
 74
     0
 42
0.000000001
 43
0.0000000001
 40
0.0
 40
0.0
 40
0.0
 40
0.0
 40
1.0
 40
1.0
 40
1.0
 40
1.0
 10
2.392513265172055
 20
4.190092446899797
 30
0.0
 10
1.373414927865269
 20
4.190092446899797
 30
0.0
 10
0.3590066468732402
 20
3.821639441410582
 30
0.0
 10
0.0554036681151047
 20
2.190099734886103
 30
0.0
  0
LINE
  5
AE
330
A9
100
AcDbEntity
  8
レイヤー 1
 62
     4
370
    35
100
AcDbLine
 10
2.121006268697783
 20
1.517832879886156
 30
0.0
 11
2.670019170888734
 21
1.520246986395108
 31
0.0
  0
LINE
  5
AF
330
A9
100
AcDbEntity
  8
レイヤー 1
 62
     4
370
    35
100
AcDbLine
 10
2.799824659725345
 20
2.803075552384256
 30
0.0
 11
3.935556335454748
 21
2.80492248928462
 31
0.0
  0
LINE
  5
B0
330
A9
100
AcDbEntity
  8
レイヤー 1
 62
     4
370
    35
100
AcDbLine
 10
3.547950448827576
 20
0.1422320914391264
 30
0.0
 11
3.959911906966226
 21
2.371921220382374
 31
0.0
  0
LINE
  5
B1
330
A9
100
AcDbEntity
  8
レイヤー 1
 62
     4
370
    35
100
AcDbLine
 10
3.959911906966226
 20
2.371921220382374
 30
0.0
 11
2.279322937077266
 21
2.371921220382374
 31
0.0
  0
LINE
  5
B2
330
A9
100
AcDbEntity
  8
レイヤー 1
 62
     4
370
    35
100
AcDbLine
 10
2.279322937077266
 20
2.371921220382374
 30
0.0
 11
2.121006268697783
 21
1.517832879886156
 31
0.0
  0
SPLINE
  5
B3
330
A9
100
AcDbEntity
  8
レイヤー 1
 62
     4
370
    35
100
AcDbSpline
210
0.0
220
0.0
230
1.0
 70
     8
 71
     3
 72
     8
 73
     4
 74
     0
 42
0.000000001
 43
0.0000000001
 40
0.0
 40
0.0
 40
0.0
 40
0.0
 40
1.0
 40
1.0
 40
1.0
 40
1.0
 10
2.670019170888734
 20
1.520246986394851
 30
0.0
 10
2.622122425239466
 20
1.233262804080395
 30
0.0
 10
2.220173691977834
 20
1.013095563586148
 30
0.0
 10
1.904427466637571
 20
1.013095563586148
 30
0.0
  0
SPLINE
  5
B4
330
A9
100
AcDbEntity
  8
レイヤー 1
 62
     4
370
    35
100
AcDbSpline
210
0.0
220
0.0
230
1.0
 70
     8
 71
     3
 72
     8
 73
     4
 74
     0
 42
0.000000001
 43
0.0000000001
 40
0.0
 40
0.0
 40
0.0
 40
0.0
 40
1.0
 40
1.0
 40
1.0
 40
1.0
 10
1.904427466637571
 20
1.013095563586148
 30
0.0
 10
1.58864488427116
 20
1.013095563586148
 30
0.0
 10
1.086997915152096
 20
1.163886327651396
 30
0.0
 10
1.275280044112149
 20
2.178101916407114
 30
0.0
  0
SPLINE
  5
B5
330
A9
100
AcDbEntity
  8
レイヤー 1
 62
     4
370
    35
100
AcDbSpline
210
0.0
220
0.0
230
1.0
 70
     8
 71
     3
 72
     8
 73
     4
 74
     0
 42
0.000000001
 43
0.0000000001
 40
0.0
 40
0.0
 40
0.0
 40
0.0
 40
1.0
 40
1.0
 40
1.0
 40
1.0
 10
1.275280044112149
 20
2.178101916407114
 30
0.0
 10
1.427205147379936
 20
2.996276786918997
 30
0.0
 10
1.924805579538769
 20
3.213993563881529
 30
0.0
 10
2.211935189956419
 20
3.213993563881529
 30
0.0
  0
SPLINE
  5
B6
330
A9
100
AcDbEntity
  8
レイヤー 1
 62
     4
370
    35
100
AcDbSpline
210
0.0
220
0.0
230
1.0
 70
     8
 71
     3
 72
     8
 73
     4
 74
     0
 42
0.000000001
 43
0.0000000001
 40
0.0
 40
0.0
 40
0.0
 40
0.0
 40
1.0
 40
1.0
 40
1.0
 40
1.0
 10
2.211935189956419
 20
3.213993563881529
 30
0.0
 10
2.681915189695246
 20
3.213993563881529
 30
0.0
 10
2.799824659723525
 20
2.900679623559596
 30
0.0
 10
2.799824659723525
 20
2.803075552381868
 30
0.0
  0
SPLINE
  5
B7
330
A9
100
AcDbEntity
  8
レイヤー 1
 62
     4
370
    35
100
AcDbSpline
210
0.0
220
0.0
230
1.0
 70
     8
 71
     3
 72
     8
 73
     4
 74
     0
 42
0.000000001
 43
0.0000000001
 40
0.0
 40
0.0
 40
0.0
 40
0.0
 40
1.0
 40
1.0
 40
1.0
 40
1.0
 10
0.0554036681151047
 20
2.190099734886103
 30
0.0
 10
-0.1731765881249885
 20
0.9623593342303989
 30
0.0
 10
0.2967997759114951
 20
0.0020212218503843
 30
0.0
 10
1.617370570271304
 20
-0.0000002287782195
 30
0.0
  0
LINE
  5
B8
330
A9
100
AcDbEntity
  8
レイヤー 1
 62
     4
370
    35
100
AcDbLine
 10
2.760911735123953
 20
0.536938505183116
 30
0.0
 11
2.760911735123953
 21
0.1422320914391264
 31
0.0
  0
LINE
  5
B9
330
A9
100
AcDbEntity
  8
レイヤー 1
 62
     4
370
    35
100
AcDbLine
 10
2.760911735123953
 20
0.1422320914391264
 30
0.0
 11
3.547950448827576
 21
0.1422320914391264
 31
0.0
  0
SPLINE
  5
BA
330
A9
100
AcDbEntity
  8
レイヤー 1
 62
     4
370
    35
100
AcDbSpline
210
0.0
220
0.0
230
1.0
 70
     8
 71
     3
 72
     8
 73
     4
 74
     0
 42
0.000000001
 43
0.0000000001
 40
0.0
 40
0.0
 40
0.0
 40
0.0
 40
1.0
 40
1.0
 40
1.0
 40
1.0
 10
1.617370570271304
 20
-0.0000002287782195
 30
0.0
 10
2.417970454563145
 20
-0.0013163531083364
 30
0.0
 10
2.760911735122134
 20
0.5083946043092169
 30
0.0
 10
2.760911735122134
 20
0.5369385051814675
 30
0.0
  0
ENDBLK
  5
BB
330
A9
100
AcDbEntity
  8
0
 62
     2
100
AcDbBlockEnd
  0
BLOCK
  5
BE
330
BC
100
AcDbEntity
  8
0
 62
     4
100
AcDbBlockBegin
  2
A$C33767BF9
 70
     0
 10
0.0
 20
0.0
 30
0.0
  3
A$C33767BF9
  1

  0
INSERT
  5
BF
330
BC
100
AcDbEntity
  8
0
 62
     2
100
AcDbBlockReference
  2
A$C35B26000
 10
7.915339911141018
 20
0.0013162186374984
 30
0.0
  0
INSERT
  5
C0
330
BC
100
AcDbEntity
  8
0
 62
     2
100
AcDbBlockReference
  2
A$C4D0D3DBA
 10
3.690696723144355
 20
0.0957241235300899
 30
0.0
  0
INSERT
  5
C1
330
BC
100
AcDbEntity
  8
0
 62
     2
100
AcDbBlockReference
  2
A$C66767C9E
 10
0.0000005627498467
 20
-0.0000002026169454
 30
0.0
  0
ENDBLK
  5
C2
330
BC
100
AcDbEntity
  8
0
 62
     4
100
AcDbBlockEnd
  0
BLOCK
  5
532
330
528
100
AcDbEntity
  8
0
100
AcDbBlockBegin
  2
*D5
 70
     1
 10
0.0
 20
0.0
 30
0.0
  3
*D5
  1

  0
LINE
  5
582
330
528
100
AcDbEntity
  8
0
 62
     4
370
     0
100
AcDbLine
 10
820.0313951543758
 20
450.5747313933713
 30
0.0
 11
814.9793407416714
 21
450.5747313933713
 31
0.0
  0
LINE
  5
583
330
528
100
AcDbEntity
  8
0
 62
     4
370
     0
100
AcDbLine
 10
820.5404986200047
 20
431.6747313933737
 30
0.0
 11
814.9793407416714
 21
431.6747313933737
 31
0.0
  0
LINE
  5
584
330
528
100
AcDbEntity
  8
0
 62
     4
370
     0
100
AcDbLine
 10
815.0793407416713
 20
449.0747313933713
 30
0.0
 11
815.0793407416713
 21
433.1747313933736
 31
0.0
  0
SOLID
  5
585
330
528
100
AcDbEntity
  8
0
 62
     4
100
AcDbTrace
 10
814.8293407416714
 20
449.0747313933713
 30
0.0
 11
815.3293407416715
 21
449.0747313933713
 31
0.0
 12
815.0793407416713
 22
450.5747313933713
 32
0.0
 13
815.0793407416713
 23
450.5747313933713
 33
0.0
  0
SOLID
  5
586
330
528
100
AcDbEntity
  8
0
 62
     4
100
AcDbTrace
 10
814.8293407416714
 20
433.1747313933736
 30
0.0
 11
815.3293407416715
 21
433.1747313933736
 31
0.0
 12
815.0793407416713
 22
431.6747313933737
 32
0.0
 13
815.0793407416713
 23
431.6747313933737
 33
0.0
  0
MTEXT
  5
587
330
528
100
AcDbEntity
  8
0
 62
     4
100
AcDbMText
 10
813.3293407416713
 20
441.1247313933738
 30
0.0
 40
2.5
 41
0.0
 71
     5
 72
     1
  1
\A1;19
  7
ゴシック
 11
0.0000000000000001
 21
1.0
 31
0.0
 73
     1
 44
1.0
1001
ACAD
1000
MTEXTBEGIN
1070
    73
1070
     1
1070
    44
1040
1.0
1070
    74
1070
     0
1000
MTEXTEND
  0
POINT
  5
588
330
528
100
AcDbEntity
  8
Defpoints
 62
     0
100
AcDbPoint
 10
821.0313951543758
 20
450.5747313933713
 30
0.0
  0
POINT
  5
589
330
528
100
AcDbEntity
  8
Defpoints
 62
     0
100
AcDbPoint
 10
821.5404986200047
 20
431.6747313933737
 30
0.0
  0
POINT
  5
58A
330
528
100
AcDbEntity
  8
Defpoints
 62
     0
100
AcDbPoint
 10
815.0793407416713
 20
431.6747313933737
 30
0.0
  0
ENDBLK
  5
533
330
528
100
AcDbEntity
  8
0
100
AcDbBlockEnd
  0
BLOCK
  5
53A
330
534
100
AcDbEntity
  8
0
100
AcDbBlockBegin
  2
*D6
 70
     1
 10
0.0
 20
0.0
 30
0.0
  3
*D6
  1

  0
LINE
  5
58B
330
534
100
AcDbEntity
  8
0
 62
     4
370
     0
100
AcDbLine
 10
832.6445740029637
 20
440.6908709306449
 30
0.0
 11
827.5178228462145
 21
444.6569136924932
 31
0.0
  0
MTEXT
  5
58C
330
534
100
AcDbEntity
  8
0
 62
     4
100
AcDbMText
 10
831.7712858120772
 20
443.6328697613303
 30
0.0
 40
2.5
 41
0.0
 71
     5
 72
     1
  1
\A1;{\fArial|b0|i0|c0|p32;C}3
  7
ゴシック
 11
0.7909517945572271
 21
-0.611878467252037
 31
0.0
 73
     1
 44
1.0
1001
ACAD
1000
MTEXTBEGIN
1070
    73
1070
     1
1070
    44
1040
1.0
1070
    74
1070
     0
1000
MTEXTEND
  0
SOLID
  5
58D
330
534
100
AcDbEntity
  8
0
 62
     4
100
AcDbTrace
 10
827.6707924630274
 20
444.8546516411323
 30
0.0
 11
827.3648532294014
 21
444.4591757438538
 31
0.0
 12
826.3313951543787
 22
445.5747313933712
 32
0.0
 13
826.3313951543787
 23
445.5747313933712
 33
0.0
  0
POINT
  5
58E
330
534
100
AcDbEntity
  8
Defpoints
 62
     0
100
AcDbPoint
 10
826.3313951543787
 20
445.5747313933712
 30
0.0
  0
POINT
  5
58F
330
534
100
AcDbEntity
  8
Defpoints
 62
     0
100
AcDbPoint
 10
829.4952023326041
 20
443.1272175243658
 30
0.0
  0
ENDBLK
  5
53B
330
534
100
AcDbEntity
  8
0
100
AcDbBlockEnd
  0
BLOCK
  5
546
330
53C
100
AcDbEntity
  8
0
100
AcDbBlockBegin
  2
*D7
 70
     1
 10
0.0
 20
0.0
 30
0.0
  3
*D7
  1

  0
LINE
  5
590
330
53C
100
AcDbEntity
  8
0
 62
     4
370
     0
100
AcDbLine
 10
912.6128674995817
 20
450.5747313933713
 30
0.0
 11
907.560813086879
 21
450.5747313933713
 31
0.0
  0
LINE
  5
591
330
53C
100
AcDbEntity
  8
0
 62
     4
370
     0
100
AcDbLine
 10
913.1219709652103
 20
431.6747313933736
 30
0.0
 11
907.560813086879
 21
431.6747313933736
 31
0.0
  0
LINE
  5
592
330
53C
100
AcDbEntity
  8
0
 62
     4
370
     0
100
AcDbLine
 10
907.6608130868791
 20
449.0747313933713
 30
0.0
 11
907.6608130868791
 21
433.1747313933736
 31
0.0
  0
SOLID
  5
593
330
53C
100
AcDbEntity
  8
0
 62
     4
100
AcDbTrace
 10
907.4108130868792
 20
449.0747313933713
 30
0.0
 11
907.9108130868792
 21
449.0747313933713
 31
0.0
 12
907.6608130868791
 22
450.5747313933713
 32
0.0
 13
907.6608130868791
 23
450.5747313933713
 33
0.0
  0
SOLID
  5
594
330
53C
100
AcDbEntity
  8
0
 62
     4
100
AcDbTrace
 10
907.4108130868792
 20
433.1747313933736
 30
0.0
 11
907.9108130868792
 21
433.1747313933736
 31
0.0
 12
907.6608130868791
 22
431.6747313933736
 32
0.0
 13
907.6608130868791
 23
431.6747313933736
 33
0.0
  0
MTEXT
  5
595
330
53C
100
AcDbEntity
  8
0
 62
     4
100
AcDbMText
 10
905.9108130868787
 20
441.1247313933738
 30
0.0
 40
2.5
 41
0.0
 71
     5
 72
     1
  1
\A1;19
  7
ゴシック
 11
0.0000000000000001
 21
1.0
 31
0.0
 73
     1
 44
1.0
1001
ACAD
1000
MTEXTBEGIN
1070
    73
1070
     1
1070
    44
1040
1.0
1070
    74
1070
     0
1000
MTEXTEND
  0
POINT
  5
596
330
53C
100
AcDbEntity
  8
Defpoints
 62
     0
100
AcDbPoint
 10
913.6128674995816
 20
450.5747313933713
 30
0.0
  0
POINT
  5
597
330
53C
100
AcDbEntity
  8
Defpoints
 62
     0
100
AcDbPoint
 10
914.1219709652103
 20
431.6747313933736
 30
0.0
  0
POINT
  5
598
330
53C
100
AcDbEntity
  8
Defpoints
 62
     0
100
AcDbPoint
 10
907.6608130868791
 20
431.6747313933736
 30
0.0
  0
ENDBLK
  5
547
330
53C
100
AcDbEntity
  8
0
100
AcDbBlockEnd
  0
BLOCK
  5
54E
330
548
100
AcDbEntity
  8
0
100
AcDbBlockBegin
  2
*D8
 70
     1
 10
0.0
 20
0.0
 30
0.0
  3
*D8
  1

  0
LINE
  5
5D9
330
548
100
AcDbEntity
  8
0
 62
     4
370
     0
100
AcDbLine
 10
925.2260463481745
 20
440.6908709306485
 30
0.0
 11
920.0992951914207
 21
444.6569136924943
 31
0.0
  0
MTEXT
  5
5DA
330
548
100
AcDbEntity
  8
0
 62
     4
100
AcDbMText
 10
924.3527581572861
 20
443.6328697613332
 30
0.0
 40
2.5
 41
0.0
 71
     5
 72
     1
  1
\A1;{\fArial|b0|i0|c0|p32;C}3
  7
ゴシック
 11
0.7909517945576221
 21
-0.6118784672515263
 31
0.0
 73
     1
 44
1.0
1001
ACAD
1000
MTEXTBEGIN
1070
    73
1070
     1
1070
    44
1040
1.0
1070
    74
1070
     0
1000
MTEXTEND
  0
SOLID
  5
5DB
330
548
100
AcDbEntity
  8
0
 62
     4
100
AcDbTrace
 10
920.2522648082338
 20
444.8546516411338
 30
0.0
 11
919.946325574608
 21
444.459175743855
 31
0.0
 12
918.9128674995842
 22
445.5747313933716
 32
0.0
 13
918.9128674995842
 23
445.5747313933716
 33
0.0
  0
POINT
  5
5DC
330
548
100
AcDbEntity
  8
Defpoints
 62
     0
100
AcDbPoint
 10
918.9128674995842
 20
445.5747313933716
 30
0.0
  0
POINT
  5
5DD
330
548
100
AcDbEntity
  8
Defpoints
 62
     0
100
AcDbPoint
 10
922.0766746778135
 20
443.1272175243667
 30
0.0
  0
ENDBLK
  5
54F
330
548
100
AcDbEntity
  8
0
100
AcDbBlockEnd
  0
BLOCK
  5
55A
330
550
100
AcDbEntity
  8
0
100
AcDbBlockBegin
  2
*D9
 70
     1
 10
0.0
 20
0.0
 30
0.0
  3
*D9
  1

  0
LINE
  5
5DE
330
550
100
AcDbEntity
  8
0
 62
     4
370
     0
100
AcDbLine
 10
821.0313951543742
 20
469.9584928594824
 30
0.0
 11
821.0313951543742
 21
480.1241331666703
 31
0.0
  0
LINE
  5
5DF
330
550
100
AcDbEntity
  8
0
 62
     4
370
     0
100
AcDbLine
 10
843.8313951543772
 20
471.9584928594833
 30
0.0
 11
843.8313951543772
 21
480.1241331666703
 31
0.0
  0
LINE
  5
5E0
330
550
100
AcDbEntity
  8
0
 62
     4
370
     0
100
AcDbLine
 10
822.5313951543741
 20
480.0241331666701
 30
0.0
 11
842.3313951543773
 21
480.0241331666701
 31
0.0
  0
SOLID
  5
5E1
330
550
100
AcDbEntity
  8
0
 62
     4
100
AcDbTrace
 10
822.5313951543741
 20
480.2741331666701
 30
0.0
 11
822.5313951543741
 21
479.7741331666701
 31
0.0
 12
821.0313951543742
 22
480.0241331666701
 32
0.0
 13
821.0313951543742
 23
480.0241331666701
 33
0.0
  0
SOLID
  5
5E2
330
550
100
AcDbEntity
  8
0
 62
     4
100
AcDbTrace
 10
842.3313951543773
 20
480.2741331666701
 30
0.0
 11
842.3313951543773
 21
479.7741331666701
 31
0.0
 12
843.8313951543772
 22
480.0241331666701
 32
0.0
 13
843.8313951543772
 23
480.0241331666701
 33
0.0
  0
MTEXT
  5
5E3
330
550
100
AcDbEntity
  8
0
 62
     4
100
AcDbMText
 10
833.9313951543758
 20
481.7741331666701
 30
0.0
 40
2.5
 41
0.0
 71
     5
 72
     1
  1
\A1;23
  7
ゴシック
 73
     1
 44
1.0
1001
ACAD
1000
MTEXTBEGIN
1070
    73
1070
     1
1070
    44
1040
1.0
1070
    74
1070
     0
1000
MTEXTEND
  0
POINT
  5
5E4
330
550
100
AcDbEntity
  8
Defpoints
 62
     0
100
AcDbPoint
 10
821.0313951543742
 20
468.9584928594825
 30
0.0
  0
POINT
  5
5E5
330
550
100
AcDbEntity
  8
Defpoints
 62
     0
100
AcDbPoint
 10
843.8313951543772
 20
470.9584928594833
 30
0.0
  0
POINT
  5
5E6
330
550
100
AcDbEntity
  8
Defpoints
 62
     0
100
AcDbPoint
 10
843.8313951543772
 20
480.0241331666701
 30
0.0
  0
ENDBLK
  5
55B
330
550
100
AcDbEntity
  8
0
100
AcDbBlockEnd
  0
BLOCK
  5
566
330
55C
100
AcDbEntity
  8
0
100
AcDbBlockBegin
  2
*D10
 70
     1
 10
0.0
 20
0.0
 30
0.0
  3
*D10
  1

  0
LINE
  5
55D
330
55C
100
AcDbEntity
  8
0
 62
     4
370
     0
100
AcDbLine
 10
844.8313951543751
 20
470.9584928594833
 30
0.0
 11
851.0629776618021
 21
470.9584928594833
 31
0.0
  0
LINE
  5
55E
330
55C
100
AcDbEntity
  8
0
 62
     4
370
     0
100
AcDbLine
 10
844.8313951543767
 20
462.9584928594831
 30
0.0
 11
851.0629776618021
 21
462.9584928594831
 31
0.0
  0
LINE
  5
55F
330
55C
100
AcDbEntity
  8
0
 62
     4
370
     0
100
AcDbLine
 10
850.9629776618023
 20
469.4584928594833
 30
0.0
 11
850.9629776618023
 21
464.4584928594833
 31
0.0
  0
SOLID
  5
560
330
55C
100
AcDbEntity
  8
0
 62
     4
100
AcDbTrace
 10
850.7129776618022
 20
469.4584928594833
 30
0.0
 11
851.2129776618023
 21
469.4584928594833
 31
0.0
 12
850.9629776618023
 22
470.9584928594833
 32
0.0
 13
850.9629776618023
 23
470.9584928594833
 33
0.0
  0
SOLID
  5
561
330
55C
100
AcDbEntity
  8
0
 62
     4
100
AcDbTrace
 10
850.7129776618022
 20
464.4584928594833
 30
0.0
 11
851.2129776618023
 21
464.4584928594833
 31
0.0
 12
850.9629776618023
 22
462.9584928594831
 32
0.0
 13
850.9629776618023
 23
462.9584928594831
 33
0.0
  0
MTEXT
  5
562
330
55C
100
AcDbEntity
  8
0
 62
     4
100
AcDbMText
 10
849.2129776618019
 20
466.9584928594846
 30
0.0
 40
2.5
 41
0.0
 71
     5
 72
     1
  1
\A1;8
  7
ゴシック
 11
0.0000000000000001
 21
1.0
 31
0.0
 73
     1
 44
1.0
1001
ACAD
1000
MTEXTBEGIN
1070
    73
1070
     1
1070
    44
1040
1.0
1070
    74
1070
     0
1000
MTEXTEND
  0
POINT
  5
563
330
55C
100
AcDbEntity
  8
Defpoints
 62
     0
100
AcDbPoint
 10
843.8313951543751
 20
470.9584928594833
 30
0.0
  0
POINT
  5
564
330
55C
100
AcDbEntity
  8
Defpoints
 62
     0
100
AcDbPoint
 10
843.8313951543769
 20
462.9584928594831
 30
0.0
  0
POINT
  5
565
330
55C
100
AcDbEntity
  8
Defpoints
 62
     0
100
AcDbPoint
 10
850.9629776618023
 20
462.9584928594831
 30
0.0
  0
ENDBLK
  5
567
330
55C
100
AcDbEntity
  8
0
100
AcDbBlockEnd
  0
BLOCK
  5
572
330
568
100
AcDbEntity
  8
0
100
AcDbBlockBegin
  2
*D11
 70
     1
 10
0.0
 20
0.0
 30
0.0
  3
*D11
  1

  0
LINE
  5
5E7
330
568
100
AcDbEntity
  8
0
 62
     4
370
     0
100
AcDbLine
 10
824.031395154374
 20
471.3584928594845
 30
0.0
 11
824.031395154374
 21
475.5028753056034
 31
0.0
  0
LINE
  5
5E8
330
568
100
AcDbEntity
  8
0
 62
     4
370
     0
100
AcDbLine
 10
843.8313951543751
 20
471.9584928594833
 30
0.0
 11
843.8313951543751
 21
475.5028753056034
 31
0.0
  0
LINE
  5
5E9
330
568
100
AcDbEntity
  8
0
 62
     4
370
     0
100
AcDbLine
 10
825.5313951543739
 20
475.4028753056034
 30
0.0
 11
842.3313951543748
 21
475.4028753056034
 31
0.0
  0
SOLID
  5
5EA
330
568
100
AcDbEntity
  8
0
 62
     4
100
AcDbTrace
 10
825.5313951543739
 20
475.6528753056033
 30
0.0
 11
825.5313951543739
 21
475.1528753056033
 31
0.0
 12
824.031395154374
 22
475.4028753056034
 32
0.0
 13
824.031395154374
 23
475.4028753056034
 33
0.0
  0
SOLID
  5
5EB
330
568
100
AcDbEntity
  8
0
 62
     4
100
AcDbTrace
 10
842.3313951543748
 20
475.6528753056033
 30
0.0
 11
842.3313951543748
 21
475.1528753056033
 31
0.0
 12
843.8313951543751
 22
475.4028753056034
 32
0.0
 13
843.8313951543751
 23
475.4028753056034
 33
0.0
  0
MTEXT
  5
5EC
330
568
100
AcDbEntity
  8
0
 62
     4
100
AcDbMText
 10
833.931395154374
 20
477.1528753056034
 30
0.0
 40
2.5
 41
0.0
 71
     5
 72
     1
  1
\A1;20
  7
ゴシック
 73
     1
 44
1.0
1001
ACAD
1000
MTEXTBEGIN
1070
    73
1070
     1
1070
    44
1040
1.0
1070
    74
1070
     0
1000
MTEXTEND
  0
POINT
  5
5ED
330
568
100
AcDbEntity
  8
Defpoints
 62
     0
100
AcDbPoint
 10
824.031395154374
 20
470.3584928594843
 30
0.0
  0
POINT
  5
5EE
330
568
100
AcDbEntity
  8
Defpoints
 62
     0
100
AcDbPoint
 10
843.8313951543751
 20
470.9584928594833
 30
0.0
  0
POINT
  5
5EF
330
568
100
AcDbEntity
  8
Defpoints
 62
     0
100
AcDbPoint
 10
843.8313951543751
 20
475.4028753056034
 30
0.0
  0
ENDBLK
  5
573
330
568
100
AcDbEntity
  8
0
100
AcDbBlockEnd
  0
BLOCK
  5
580
330
574
100
AcDbEntity
  8
0
100
AcDbBlockBegin
  2
*D12
 70
     1
 10
0.0
 20
0.0
 30
0.0
  3
*D12
  1

  0
LINE
  5
575
330
574
100
AcDbEntity
  8
0
 62
     4
370
     0
100
AcDbLine
 10
843.0813951543751
 20
450.5747313933722
 30
0.0
 11
851.0629776618021
 21
450.5747313933722
 31
0.0
  0
LINE
  5
576
330
574
100
AcDbEntity
  8
0
 62
     4
370
     0
100
AcDbLine
 10
843.0813951543751
 20
447.0747313933721
 30
0.0
 11
851.0629776618021
 21
447.0747313933721
 31
0.0
  0
LINE
  5
577
330
574
100
AcDbEntity
  8
0
 62
     4
370
     0
100
AcDbLine
 10
850.962977661802
 20
452.0747313933723
 30
0.0
 11
850.962977661802
 21
453.5747313933724
 31
0.0
  0
LINE
  5
578
330
574
100
AcDbEntity
  8
0
 62
     4
370
     0
100
AcDbLine
 10
850.962977661802
 20
445.5747313933724
 30
0.0
 11
850.962977661802
 21
439.0690495751903
 31
0.0
  0
LINE
  5
579
330
574
100
AcDbEntity
  8
0
 62
     4
370
     0
100
AcDbLine
 10
850.962977661802
 20
450.5747313933722
 30
0.0
 11
850.962977661802
 21
447.0747313933721
 31
0.0
  0
SOLID
  5
57A
330
574
100
AcDbEntity
  8
0
 62
     4
100
AcDbTrace
 10
850.7129776618022
 20
452.0747313933723
 30
0.0
 11
851.2129776618021
 21
452.0747313933723
 31
0.0
 12
850.962977661802
 22
450.5747313933722
 32
0.0
 13
850.962977661802
 23
450.5747313933722
 33
0.0
  0
SOLID
  5
57B
330
574
100
AcDbEntity
  8
0
 62
     4
100
AcDbTrace
 10
850.7129776618022
 20
445.5747313933724
 30
0.0
 11
851.2129776618021
 21
445.5747313933724
 31
0.0
 12
850.962977661802
 22
447.0747313933721
 32
0.0
 13
850.962977661802
 23
447.0747313933721
 33
0.0
  0
MTEXT
  5
57C
330
574
100
AcDbEntity
  8
0
 62
     4
100
AcDbMText
 10
849.2129776618019
 20
441.5718904842814
 30
0.0
 40
2.5
 41
0.0
 71
     5
 72
     1
  1
\A1;3.5
  7
ゴシック
 11
0.0000000000000001
 21
1.0
 31
0.0
 73
     1
 44
1.0
1001
ACAD
1000
MTEXTBEGIN
1070
    73
1070
     1
1070
    44
1040
1.0
1070
    74
1070
     0
1000
MTEXTEND
  0
POINT
  5
57D
330
574
100
AcDbEntity
  8
Defpoints
 62
     0
100
AcDbPoint
 10
842.0813951543751
 20
450.5747313933722
 30
0.0
  0
POINT
  5
57E
330
574
100
AcDbEntity
  8
Defpoints
 62
     0
100
AcDbPoint
 10
842.0813951543751
 20
447.0747313933721
 30
0.0
  0
POINT
  5
57F
330
574
100
AcDbEntity
  8
Defpoints
 62
     0
100
AcDbPoint
 10
850.962977661802
 20
447.0747313933721
 30
0.0
  0
ENDBLK
  5
581
330
574
100
AcDbEntity
  8
0
100
AcDbBlockEnd
  0
BLOCK
  5
5A3
330
599
100
AcDbEntity
  8
0
100
AcDbBlockBegin
  2
*D13
 70
     1
 10
0.0
 20
0.0
 30
0.0
  3
*D13
  1

  0
LINE
  5
59A
330
599
100
AcDbEntity
  8
0
 62
     4
370
     0
100
AcDbLine
 10
940.3128674995803
 20
472.9584928594833
 30
0.0
 11
946.4634237305487
 21
472.9584928594833
 31
0.0
  0
LINE
  5
59B
330
599
100
AcDbEntity
  8
0
 62
     4
370
     0
100
AcDbLine
 10
940.3128674995803
 20
460.9584928594833
 30
0.0
 11
946.4634237305487
 21
460.9584928594833
 31
0.0
  0
LINE
  5
59C
330
599
100
AcDbEntity
  8
0
 62
     4
370
     0
100
AcDbLine
 10
946.3634237305486
 20
471.4584928594833
 30
0.0
 11
946.3634237305486
 21
462.4584928594833
 31
0.0
  0
SOLID
  5
59D
330
599
100
AcDbEntity
  8
0
 62
     4
100
AcDbTrace
 10
946.1134237305484
 20
471.4584928594833
 30
0.0
 11
946.6134237305487
 21
471.4584928594833
 31
0.0
 12
946.3634237305486
 22
472.9584928594833
 32
0.0
 13
946.3634237305486
 23
472.9584928594833
 33
0.0
  0
SOLID
  5
59E
330
599
100
AcDbEntity
  8
0
 62
     4
100
AcDbTrace
 10
946.1134237305484
 20
462.4584928594833
 30
0.0
 11
946.6134237305487
 21
462.4584928594833
 31
0.0
 12
946.3634237305486
 22
460.9584928594833
 32
0.0
 13
946.3634237305486
 23
460.9584928594833
 33
0.0
  0
MTEXT
  5
59F
330
599
100
AcDbEntity
  8
0
 62
     4
100
AcDbMText
 10
944.6134237305486
 20
466.9584928594835
 30
0.0
 40
2.5
 41
0.0
 71
     5
 72
     1
  1
\A1;12
  7
ゴシック
 11
0.0000000000000001
 21
1.0
 31
0.0
 73
     1
 44
1.0
1001
ACAD
1000
MTEXTBEGIN
1070
    73
1070
     1
1070
    44
1040
1.0
1070
    74
1070
     0
1000
MTEXTEND
  0
POINT
  5
5A0
330
599
100
AcDbEntity
  8
Defpoints
 62
     0
100
AcDbPoint
 10
939.3128674995804
 20
472.9584928594833
 30
0.0
  0
POINT
  5
5A1
330
599
100
AcDbEntity
  8
Defpoints
 62
     0
100
AcDbPoint
 10
939.3128674995804
 20
460.9584928594833
 30
0.0
  0
POINT
  5
5A2
330
599
100
AcDbEntity
  8
Defpoints
 62
     0
100
AcDbPoint
 10
946.3634237305486
 20
460.9584928594833
 30
0.0
  0
ENDBLK
  5
5A4
330
599
100
AcDbEntity
  8
0
100
AcDbBlockEnd
  0
BLOCK
  5
5AF
330
5A5
100
AcDbEntity
  8
0
100
AcDbBlockBegin
  2
*D14
 70
     1
 10
0.0
 20
0.0
 30
0.0
  3
*D14
  1

  0
LINE
  5
5F0
330
5A5
100
AcDbEntity
  8
0
 62
     4
370
     0
100
AcDbLine
 10
916.6128674995798
 20
473.658492859483
 30
0.0
 11
916.6128674995798
 21
479.4438853909223
 31
0.0
  0
LINE
  5
5F1
330
5A5
100
AcDbEntity
  8
0
 62
     4
370
     0
100
AcDbLine
 10
939.6128674995816
 20
473.6584928594833
 30
0.0
 11
939.6128674995816
 21
479.4438853909223
 31
0.0
  0
LINE
  5
5F2
330
5A5
100
AcDbEntity
  8
0
 62
     4
370
     0
100
AcDbLine
 10
918.1128674995798
 20
479.3438853909223
 30
0.0
 11
938.1128674995816
 21
479.3438853909223
 31
0.0
  0
SOLID
  5
5F3
330
5A5
100
AcDbEntity
  8
0
 62
     4
100
AcDbTrace
 10
918.1128674995798
 20
479.5938853909221
 30
0.0
 11
918.1128674995798
 21
479.0938853909223
 31
0.0
 12
916.6128674995798
 22
479.3438853909223
 32
0.0
 13
916.6128674995798
 23
479.3438853909223
 33
0.0
  0
SOLID
  5
5F4
330
5A5
100
AcDbEntity
  8
0
 62
     4
100
AcDbTrace
 10
938.1128674995816
 20
479.5938853909221
 30
0.0
 11
938.1128674995816
 21
479.0938853909223
 31
0.0
 12
939.6128674995816
 22
479.3438853909223
 32
0.0
 13
939.6128674995816
 23
479.3438853909223
 33
0.0
  0
MTEXT
  5
5F5
330
5A5
100
AcDbEntity
  8
0
 62
     4
100
AcDbMText
 10
928.1128674995807
 20
481.0938853909223
 30
0.0
 40
2.5
 41
0.0
 71
     5
 72
     1
  1
\A1;23
  7
ゴシック
 73
     1
 44
1.0
1001
ACAD
1000
MTEXTBEGIN
1070
    73
1070
     1
1070
    44
1040
1.0
1070
    74
1070
     0
1000
MTEXTEND
  0
POINT
  5
5F6
330
5A5
100
AcDbEntity
  8
Defpoints
 62
     0
100
AcDbPoint
 10
916.6128674995798
 20
472.6584928594831
 30
0.0
  0
POINT
  5
5F7
330
5A5
100
AcDbEntity
  8
Defpoints
 62
     0
100
AcDbPoint
 10
939.6128674995816
 20
472.6584928594832
 30
0.0
  0
POINT
  5
5F8
330
5A5
100
AcDbEntity
  8
Defpoints
 62
     0
100
AcDbPoint
 10
939.6128674995816
 20
479.3438853909223
 30
0.0
  0
ENDBLK
  5
5B0
330
5A5
100
AcDbEntity
  8
0
100
AcDbBlockEnd
  0
BLOCK
  5
5BD
330
5B1
100
AcDbEntity
  8
0
100
AcDbBlockBegin
  2
*D15
 70
     1
 10
0.0
 20
0.0
 30
0.0
  3
*D15
  1

  0
LINE
  5
5B2
330
5B1
100
AcDbEntity
  8
0
 62
     4
370
     0
100
AcDbLine
 10
916.6128674995798
 20
474.6584928594832
 30
0.0
 11
916.6128674995798
 21
479.4438853909223
 31
0.0
  0
LINE
  5
5B3
330
5B1
100
AcDbEntity
  8
0
 62
     4
370
     0
100
AcDbLine
 10
913.6128674995816
 20
469.6717309352788
 30
0.0
 11
913.6128674995816
 21
479.4438853909223
 31
0.0
  0
LINE
  5
5B4
330
5B1
100
AcDbEntity
  8
0
 62
     4
370
     0
100
AcDbLine
 10
918.1128674995798
 20
479.3438853909223
 30
0.0
 11
919.6128674995796
 21
479.3438853909223
 31
0.0
  0
LINE
  5
5B5
330
5B1
100
AcDbEntity
  8
0
 62
     4
370
     0
100
AcDbLine
 10
912.1128674995816
 20
479.3438853909223
 30
0.0
 11
910.6128674995815
 21
479.3438853909223
 31
0.0
  0
LINE
  5
5B6
330
5B1
100
AcDbEntity
  8
0
 62
     4
370
     0
100
AcDbLine
 10
916.6128674995798
 20
479.3438853909223
 30
0.0
 11
913.6128674995816
 21
479.3438853909223
 31
0.0
  0
SOLID
  5
5B7
330
5B1
100
AcDbEntity
  8
0
 62
     4
100
AcDbTrace
 10
918.1128674995798
 20
479.5938853909223
 30
0.0
 11
918.1128674995798
 21
479.0938853909223
 31
0.0
 12
916.6128674995798
 22
479.3438853909223
 32
0.0
 13
916.6128674995798
 23
479.3438853909223
 33
0.0
  0
SOLID
  5
5B8
330
5B1
100
AcDbEntity
  8
0
 62
     4
100
AcDbTrace
 10
912.1128674995816
 20
479.5938853909223
 30
0.0
 11
912.1128674995816
 21
479.0938853909223
 31
0.0
 12
913.6128674995816
 22
479.3438853909223
 32
0.0
 13
913.6128674995816
 23
479.3438853909223
 33
0.0
  0
MTEXT
  5
5B9
330
5B1
100
AcDbEntity
  8
0
 62
     4
100
AcDbMText
 10
915.1128674995806
 20
481.0938853909223
 30
0.0
 40
2.5
 41
0.0
 71
     5
 72
     1
  1
\A1;3
  7
ゴシック
 73
     1
 44
1.0
1001
ACAD
1000
MTEXTBEGIN
1070
    73
1070
     1
1070
    44
1040
1.0
1070
    74
1070
     0
1000
MTEXTEND
  0
POINT
  5
5BA
330
5B1
100
AcDbEntity
  8
Defpoints
 62
     0
100
AcDbPoint
 10
916.6128674995798
 20
473.658492859483
 30
0.0
  0
POINT
  5
5BB
330
5B1
100
AcDbEntity
  8
Defpoints
 62
     0
100
AcDbPoint
 10
913.6128674995816
 20
468.6717309352788
 30
0.0
  0
POINT
  5
5BC
330
5B1
100
AcDbEntity
  8
Defpoints
 62
     0
100
AcDbPoint
 10
913.6128674995816
 20
479.3438853909223
 30
0.0
  0
ENDBLK
  5
5BE
330
5B1
100
AcDbEntity
  8
0
100
AcDbBlockEnd
  0
BLOCK
  5
5C9
330
5BF
100
AcDbEntity
  8
0
100
AcDbBlockBegin
  2
*D16
 70
     1
 10
0.0
 20
0.0
 30
0.0
  3
*D16
  1

  0
LINE
  5
5C0
330
5BF
100
AcDbEntity
  8
0
 62
     4
370
     0
100
AcDbLine
 10
939.1128674995835
 20
452.5747313933719
 30
0.0
 11
946.563423730549
 21
452.5747313933719
 31
0.0
  0
LINE
  5
5C1
330
5BF
100
AcDbEntity
  8
0
 62
     4
370
     0
100
AcDbLine
 10
936.3798743908974
 20
447.074731393372
 30
0.0
 11
946.563423730549
 21
447.074731393372
 31
0.0
  0
LINE
  5
5C2
330
5BF
100
AcDbEntity
  8
0
 62
     4
370
     0
100
AcDbLine
 10
946.4634237305492
 20
451.0747313933721
 30
0.0
 11
946.4634237305492
 21
448.5747313933718
 31
0.0
  0
SOLID
  5
5C3
330
5BF
100
AcDbEntity
  8
0
 62
     4
100
AcDbTrace
 10
946.2134237305487
 20
451.0747313933721
 30
0.0
 11
946.713423730549
 21
451.0747313933721
 31
0.0
 12
946.4634237305492
 22
452.5747313933719
 32
0.0
 13
946.4634237305492
 23
452.5747313933719
 33
0.0
  0
SOLID
  5
5C4
330
5BF
100
AcDbEntity
  8
0
 62
     4
100
AcDbTrace
 10
946.2134237305487
 20
448.5747313933718
 30
0.0
 11
946.713423730549
 21
448.5747313933718
 31
0.0
 12
946.4634237305492
 22
447.074731393372
 32
0.0
 13
946.4634237305492
 23
447.074731393372
 33
0.0
  0
MTEXT
  5
5C5
330
5BF
100
AcDbEntity
  8
0
 62
     4
100
AcDbMText
 10
944.7134237305487
 20
449.8247313933721
 30
0.0
 40
2.5
 41
0.0
 71
     5
 72
     1
  1
\A1;5.5
  7
ゴシック
 11
0.0000000000000001
 21
1.0
 31
0.0
 73
     1
 44
1.0
1001
ACAD
1000
MTEXTBEGIN
1070
    73
1070
     1
1070
    44
1040
1.0
1070
    74
1070
     0
1000
MTEXTEND
  0
POINT
  5
5C6
330
5BF
100
AcDbEntity
  8
Defpoints
 62
     0
100
AcDbPoint
 10
938.1128674995833
 20
452.5747313933719
 30
0.0
  0
POINT
  5
5C7
330
5BF
100
AcDbEntity
  8
Defpoints
 62
     0
100
AcDbPoint
 10
935.3798743908974
 20
447.074731393372
 30
0.0
  0
POINT
  5
5C8
330
5BF
100
AcDbEntity
  8
Defpoints
 62
     0
100
AcDbPoint
 10
946.4634237305492
 20
447.074731393372
 30
0.0
  0
ENDBLK
  5
5CA
330
5BF
100
AcDbEntity
  8
0
100
AcDbBlockEnd
  0
BLOCK
  5
5D7
330
5CB
100
AcDbEntity
  8
0
100
AcDbBlockBegin
  2
*D17
 70
     1
 10
0.0
 20
0.0
 30
0.0
  3
*D17
  1

  0
LINE
  5
5CC
330
5CB
100
AcDbEntity
  8
0
 62
     4
370
     0
100
AcDbLine
 10
912.6128674995817
 20
450.5747313933713
 30
0.0
 11
907.560813086879
 21
450.5747313933713
 31
0.0
  0
LINE
  5
5CD
330
5CB
100
AcDbEntity
  8
0
 62
     4
370
     0
100
AcDbLine
 10
916.6128674995798
 20
452.5747313933719
 30
0.0
 11
907.560813086879
 21
452.5747313933719
 31
0.0
  0
LINE
  5
5CE
330
5CB
100
AcDbEntity
  8
0
 62
     4
370
     0
100
AcDbLine
 10
907.6608130868788
 20
449.0747313933713
 30
0.0
 11
907.6608130868788
 21
447.5747313933712
 31
0.0
  0
LINE
  5
5CF
330
5CB
100
AcDbEntity
  8
0
 62
     4
370
     0
100
AcDbLine
 10
907.6608130868788
 20
454.0747313933719
 30
0.0
 11
907.6608130868788
 21
458.0235950297357
 31
0.0
  0
LINE
  5
5D0
330
5CB
100
AcDbEntity
  8
0
 62
     4
370
     0
100
AcDbLine
 10
907.6608130868788
 20
450.5747313933713
 30
0.0
 11
907.6608130868788
 21
452.5747313933719
 31
0.0
  0
SOLID
  5
5D1
330
5CB
100
AcDbEntity
  8
0
 62
     4
100
AcDbTrace
 10
907.410813086879
 20
449.0747313933713
 30
0.0
 11
907.9108130868787
 21
449.0747313933713
 31
0.0
 12
907.6608130868788
 22
450.5747313933713
 32
0.0
 13
907.6608130868788
 23
450.5747313933713
 33
0.0
  0
SOLID
  5
5D2
330
5CB
100
AcDbEntity
  8
0
 62
     4
100
AcDbTrace
 10
907.410813086879
 20
454.0747313933719
 30
0.0
 11
907.9108130868787
 21
454.0747313933719
 31
0.0
 12
907.6608130868788
 22
452.5747313933719
 32
0.0
 13
907.6608130868788
 23
452.5747313933719
 33
0.0
  0
MTEXT
  5
5D3
330
5CB
100
AcDbEntity
  8
0
 62
     4
100
AcDbMText
 10
905.9108130868787
 20
456.799163211554
 30
0.0
 40
2.5
 41
0.0
 71
     5
 72
     1
  1
\A1;2
  7
ゴシック
 11
0.0000000000000001
 21
1.0
 31
0.0
 73
     1
 44
1.0
1001
ACAD
1000
MTEXTBEGIN
1070
    73
1070
     1
1070
    44
1040
1.0
1070
    74
1070
     0
1000
MTEXTEND
  0
POINT
  5
5D4
330
5CB
100
AcDbEntity
  8
Defpoints
 62
     0
100
AcDbPoint
 10
913.6128674995816
 20
450.5747313933713
 30
0.0
  0
POINT
  5
5D5
330
5CB
100
AcDbEntity
  8
Defpoints
 62
     0
100
AcDbPoint
 10
917.6128674995798
 20
452.5747313933719
 30
0.0
  0
POINT
  5
5D6
330
5CB
100
AcDbEntity
  8
Defpoints
 62
     0
100
AcDbPoint
 10
907.6608130868788
 20
452.5747313933719
 30
0.0
  0
ENDBLK
  5
5D8
330
5CB
100
AcDbEntity
  8
0
100
AcDbBlockEnd
  0
ENDSEC
  0
SECTION
  2
ENTITIES
  0
MTEXT
  5
34E
330
1F
100
AcDbEntity
  8
0
  6
Continuous
370
     0
100
AcDbMText
 10
886.5249889886328
 20
374.4561392254521
 30
-0.0000000000000036
 40
1.75
 41
12.5
 71
     6
 72
     5
  1
{\fMS Gothic|b0|i0|c128|p48;3.8ｇ}
  7
ゴシック
 73
     1
 44
1.0
1001
ACAD
1000
MTEXTBEGIN
1070
    73
1070
     1
1070
    44
1040
1.0
1070
    74
1070
     0
1000
MTEXTEND
  0
MTEXT
  5
34F
330
1F
100
AcDbEntity
  8
0
  6
Continuous
370
     0
100
AcDbMText
 10
886.5249889886328
 20
378.6041909933262
 30
-0.0000000000000036
 40
1.75
 41
12.5
 71
     6
 72
     5
  1
{\fMS Gothic|b0|i0|c128|p48;3.8ｇ}
  7
ゴシック
 73
     1
 44
1.0
1001
ACAD
1000
MTEXTBEGIN
1070
    73
1070
     1
1070
    44
1040
1.0
1070
    74
1070
     0
1000
MTEXTEND
  0
MTEXT
  5
350
330
1F
100
AcDbEntity
  8
0
  6
Continuous
370
     0
100
AcDbMText
 10
886.5249889886328
 20
386.9002945290745
 30
-0.0000000000000036
 40
1.75
 41
12.5
 71
     6
 72
     5
  1
{\fMS Gothic|b0|i0|c128|p48;3.8ｇ}
  7
ゴシック
 73
     1
 44
1.0
1001
ACAD
1000
MTEXTBEGIN
1070
    73
1070
     1
1070
    44
1040
1.0
1070
    74
1070
     0
1000
MTEXTEND
  0
MTEXT
  5
351
330
1F
100
AcDbEntity
  8
0
  6
Continuous
370
     0
100
AcDbMText
 10
886.5249889886328
 20
391.0483462969486
 30
-0.0000000000000036
 40
1.75
 41
12.5
 71
     6
 72
     5
  1
{\fMS Gothic|b0|i0|c128|p48;3.8ｇ}
  7
ゴシック
 73
     1
 44
1.0
1001
ACAD
1000
MTEXTBEGIN
1070
    73
1070
     1
1070
    44
1040
1.0
1070
    74
1070
     0
1000
MTEXTEND
  0
MTEXT
  5
352
330
1F
100
AcDbEntity
  8
0
  6
Continuous
370
     0
100
AcDbMText
 10
886.5249889886328
 20
395.1963980648226
 30
-0.0000000000000036
 40
1.75
 41
12.5
 71
     6
 72
     5
  1
{\fMS Gothic|b0|i0|c128|p48;3.8ｇ}
  7
ゴシック
 73
     1
 44
1.0
1001
ACAD
1000
MTEXTBEGIN
1070
    73
1070
     1
1070
    44
1040
1.0
1070
    74
1070
     0
1000
MTEXTEND
  0
LINE
  5
353
330
1F
100
AcDbEntity
  8
図枠
370
     5
100
AcDbLine
 10
993.2840976897168
 20
385.4476006721567
 30
0.0
 11
902.6364378849883
 21
385.4476006721567
 31
0.0
  0
MTEXT
  5
354
330
1F
100
AcDbEntity
  8
0
  6
Continuous
370
     0
100
AcDbMText
 10
903.2048160617012
 20
387.1976006721567
 30
0.0
 40
1.75
 41
88.71047861441395
 71
     4
 72
     5
  1
{\fMS Gothic|b0|i0|c128|p48;【棚　受】材質：\fArial|b0|i0|c0|p32;SUS\fMS Gothic|b0|i0|c128|p48;304 \fArial|b0|i0|c0|p32;t\fMS Gothic|b0|i0|c128|p48;=1.0  表面仕上：\U+21164仕上/ホワイト・ブラック焼付仕上}
  7
ゴシック
 73
     1
 44
1.0
1001
ACAD
1000
MTEXTBEGIN
1070
    73
1070
     1
1070
    44
1040
1.0
1070
    74
1070
     0
1000
MTEXTEND
  0
LINE
  5
355
330
1F
100
AcDbEntity
  8
図枠
370
     5
100
AcDbLine
 10
933.6805917194467
 20
429.1280079664331
 30
0.0
 11
933.6805917194467
 21
423.9549470670028
 31
0.0
  0
LINE
  5
356
330
1F
100
AcDbEntity
  8
図枠
370
     5
100
AcDbLine
 10
959.0385501345226
 20
429.1280079664331
 30
0.0
 11
959.0385501345226
 21
423.9549470670028
 31
0.0
  0
LINE
  5
357
330
1F
100
AcDbEntity
  8
図枠
370
     5
100
AcDbLine
 10
866.7330006867377
 20
429.1280079664331
 30
0.0
 11
866.7330006867377
 21
423.9549470670028
 31
0.0
  0
LINE
  5
358
330
1F
100
AcDbEntity
  8
図枠
370
     5
100
AcDbLine
 10
841.3750422716621
 20
429.1280079664331
 30
0.0
 11
841.3750422716621
 21
423.9549470670028
 31
0.0
  0
LINE
  5
359
330
1F
100
AcDbEntity
  8
図枠
370
     5
100
AcDbLine
 10
933.6805917194467
 20
429.1280079664331
 30
0.0
 11
959.0385501345226
 21
429.1280079664331
 31
0.0
  0
LINE
  5
35A
330
1F
100
AcDbEntity
  8
図枠
370
     5
100
AcDbLine
 10
841.3750422716621
 20
429.1280079664331
 30
0.0
 11
866.7330006867377
 21
429.1280079664331
 31
0.0
  0
MTEXT
  5
35B
330
1F
100
AcDbEntity
  8
0
  6
Continuous
370
     0
100
AcDbMText
 10
946.2112381268923
 20
426.5740496384472
 30
0.0
 40
2.1
 41
42.0
 71
     5
 72
     5
  1
{\fMS Gothic|b0|i0|c128|p48;ラバー付タイプ}
  7
ゴシック
 73
     1
 44
1.0
1001
ACAD
1000
MTEXTBEGIN
1070
    73
1070
     1
1070
    44
1040
1.0
1070
    74
1070
     0
1000
MTEXTEND
  0
LINE
  5
35C
330
1F
100
AcDbEntity
  8
図枠
370
     5
100
AcDbLine
 10
933.6805917194467
 20
423.9549470670028
 30
0.0
 11
959.0385501345226
 21
423.9549470670028
 31
0.0
  0
LINE
  5
35D
330
1F
100
AcDbEntity
  8
図枠
370
     5
100
AcDbLine
 10
841.3750422716621
 20
423.9549470670028
 30
0.0
 11
866.7330006867377
 21
423.9549470670028
 31
0.0
  0
MTEXT
  5
35E
330
1F
100
AcDbEntity
  8
0
  6
Continuous
370
     0
100
AcDbMText
 10
853.9056886791076
 20
426.5740496384472
 30
0.0
 40
2.1
 41
42.0
 71
     5
 72
     5
  1
{\fMS Gothic|b0|i0|c128|p48;ラバーなしタイプ}
  7
ゴシック
 73
     1
 44
1.0
1001
ACAD
1000
MTEXTBEGIN
1070
    73
1070
     1
1070
    44
1040
1.0
1070
    74
1070
     0
1000
MTEXTEND
  0
MTEXT
  5
35F
330
1F
100
AcDbEntity
  8
0
  6
Continuous
370
     0
100
AcDbMText
 10
886.5249889886328
 20
382.7522427612001
 30
-0.0000000000000036
 40
1.75
 41
12.5
 71
     6
 72
     5
  1
{\fMS Gothic|b0|i0|c128|p48;3.1ｇ}
  7
ゴシック
 73
     1
 44
1.0
1001
ACAD
1000
MTEXTBEGIN
1070
    73
1070
     1
1070
    44
1040
1.0
1070
    74
1070
     0
1000
MTEXTEND
  0
MTEXT
  5
360
330
1F
100
AcDbEntity
  8
0
  6
Continuous
370
     0
100
AcDbMText
 10
903.2048160617012
 20
382.7577731654471
 30
0.0
 40
1.75
 41
102.0901960784313
 71
     4
 72
     5
  1
{\fMS Gothic|b0|i0|c128|p48;【化粧ﾗﾊﾞｰ】材質：エラストマー(軟質樹脂)　色：ブラック/ホワイト/ライムグリーン}
  7
ゴシック
 73
     1
 44
1.0
1001
ACAD
1000
MTEXTBEGIN
1070
    73
1070
     1
1070
    44
1040
1.0
1070
    74
1070
     0
1000
MTEXTEND
  0
MTEXT
  5
361
330
1F
100
AcDbEntity
  8
0
  6
Continuous
370
     0
100
AcDbMText
 10
871.6932300667052
 20
378.6551888495304
 30
-0.0000000000000036
 40
1.75
 41
17.98222222222222
 71
     5
 72
     5
  1
{\fMS Gothic|b0|i0|c128|p48;ﾎﾜｲﾄ}
  7
ゴシック
 73
     1
 44
1.0
1001
ACAD
1000
MTEXTBEGIN
1070
    73
1070
     1
1070
    44
1040
1.0
1070
    74
1070
     0
1000
MTEXTEND
  0
MTEXT
  5
362
330
1F
100
AcDbEntity
  8
0
  6
Continuous
370
     0
100
AcDbMText
 10
871.6932300667052
 20
374.5071370816563
 30
-0.0000000000000036
 40
1.75
 41
17.98222222222222
 71
     5
 72
     5
  1
{\fMS Gothic|b0|i0|c128|p48;ﾗｲﾑｸﾞﾘｰﾝ}
  7
ゴシック
 73
     1
 44
1.0
1001
ACAD
1000
MTEXTBEGIN
1070
    73
1070
     1
1070
    44
1040
1.0
1070
    74
1070
     0
1000
MTEXTEND
  0
MTEXT
  5
363
330
1F
100
AcDbEntity
  8
0
  6
Continuous
370
     0
100
AcDbMText
 10
871.6932300667052
 20
386.9512923852786
 30
-0.0000000000000036
 40
1.75
 41
17.98222222222222
 71
     5
 72
     5
  1
{\fMS Gothic|b0|i0|c128|p48;ﾗｲﾑｸﾞﾘｰﾝ}
  7
ゴシック
 73
     1
 44
1.0
1001
ACAD
1000
MTEXTBEGIN
1070
    73
1070
     1
1070
    44
1040
1.0
1070
    74
1070
     0
1000
MTEXTEND
  0
MTEXT
  5
364
330
1F
100
AcDbEntity
  8
0
  6
Continuous
370
     0
100
AcDbMText
 10
871.6932300667052
 20
391.0993441531527
 30
-0.0000000000000036
 40
1.75
 41
17.98222222222222
 71
     5
 72
     5
  1
{\fMS Gothic|b0|i0|c128|p48;ﾎﾜｲﾄ}
  7
ゴシック
 73
     1
 44
1.0
1001
ACAD
1000
MTEXTBEGIN
1070
    73
1070
     1
1070
    44
1040
1.0
1070
    74
1070
     0
1000
MTEXTEND
  0
MTEXT
  5
365
330
1F
100
AcDbEntity
  8
0
  6
Continuous
370
     0
100
AcDbMText
 10
871.6932300667052
 20
395.2473959210268
 30
-0.0000000000000036
 40
1.75
 41
17.98222222222222
 71
     5
 72
     5
  1
{\fMS Gothic|b0|i0|c128|p48;ﾌﾞﾗｯｸ}
  7
ゴシック
 73
     1
 44
1.0
1001
ACAD
1000
MTEXTBEGIN
1070
    73
1070
     1
1070
    44
1040
1.0
1070
    74
1070
     0
1000
MTEXTEND
  0
MTEXT
  5
366
330
1F
100
AcDbEntity
  8
0
  6
Continuous
370
     0
100
AcDbMText
 10
871.7766172077881
 20
382.7522427612001
 30
-0.0000000000000036
 40
1.75
 41
12.5
 71
     5
 72
     5
  1
{\fArial|b0|i0|c128|p32;\U+2015}
  7
ゴシック
 73
     1
 44
1.0
1001
ACAD
1000
MTEXTBEGIN
1070
    73
1070
     1
1070
    44
1040
1.0
1070
    74
1070
     0
1000
MTEXTEND
  0
MTEXT
  5
367
330
1F
100
AcDbEntity
  8
0
  6
Continuous
370
     0
100
AcDbMText
 10
871.7766172077881
 20
399.3444498326967
 30
-0.0000000000000036
 40
1.75
 41
12.5
 71
     5
 72
     5
  1
{\fArial|b0|i0|c128|p32;\U+2015}
  7
ゴシック
 73
     1
 44
1.0
1001
ACAD
1000
MTEXTBEGIN
1070
    73
1070
     1
1070
    44
1040
1.0
1070
    74
1070
     0
1000
MTEXTEND
  0
MTEXT
  5
368
330
1F
100
AcDbEntity
  8
0
  6
Continuous
370
     0
100
AcDbMText
 10
871.6932300667052
 20
403.5434994567751
 30
-0.0000000000000036
 40
1.75
 41
17.98222222222222
 71
     5
 72
     5
  1
{\fMS Gothic|b0|i0|c128|p48;化粧ﾗﾊﾞｰ色}
  7
ゴシック
 73
     1
 44
1.0
1001
ACAD
1000
MTEXTBEGIN
1070
    73
1070
     1
1070
    44
1040
1.0
1070
    74
1070
     0
1000
MTEXTEND
  0
MTEXT
  5
369
330
1F
100
AcDbEntity
  8
0
  6
Continuous
370
     0
100
AcDbMText
 10
856.710135035979
 20
374.4561392254521
 30
-0.0000000000000036
 40
1.75
 41
15.8463768115942
 71
     5
 72
     5
  1
{\fArial|b0|i0|c128|p32;ﾎﾜｲﾄ焼付塗装}
  7
ゴシック
 73
     1
 44
1.0
1001
ACAD
1000
MTEXTBEGIN
1070
    73
1070
     1
1070
    44
1040
1.0
1070
    74
1070
     0
1000
MTEXTEND
  0
MTEXT
  5
36A
330
1F
100
AcDbEntity
  8
0
  6
Continuous
370
     0
100
AcDbMText
 10
856.710135035979
 20
378.6041909933262
 30
-0.0000000000000036
 40
1.75
 41
15.8463768115942
 71
     5
 72
     5
  1
{\fArial|b0|i0|c128|p32;ﾎﾜｲﾄ焼付塗装}
  7
ゴシック
 73
     1
 44
1.0
1001
ACAD
1000
MTEXTBEGIN
1070
    73
1070
     1
1070
    44
1040
1.0
1070
    74
1070
     0
1000
MTEXTEND
  0
MTEXT
  5
36B
330
1F
100
AcDbEntity
  8
0
  6
Continuous
370
     0
100
AcDbMText
 10
856.227733711532
 20
391.0483462969485
 30
-0.0000000000000036
 40
1.75
 41
12.5
 71
     5
 72
     5
  1
{\fArial|b0|i0|c128|p32;No\fMS Gothic|b0|i0|c128|p48;.4仕上}
  7
ゴシック
 73
     1
 44
1.0
1001
ACAD
1000
MTEXTBEGIN
1070
    73
1070
     1
1070
    44
1040
1.0
1070
    74
1070
     0
1000
MTEXTEND
  0
MTEXT
  5
36C
330
1F
100
AcDbEntity
  8
0
  6
Continuous
370
     0
100
AcDbMText
 10
856.227733711532
 20
386.9002945290745
 30
-0.0000000000000036
 40
1.75
 41
12.5
 71
     5
 72
     5
  1
{\fArial|b0|i0|c128|p32;No\fMS Gothic|b0|i0|c128|p48;.4仕上}
  7
ゴシック
 73
     1
 44
1.0
1001
ACAD
1000
MTEXTBEGIN
1070
    73
1070
     1
1070
    44
1040
1.0
1070
    74
1070
     0
1000
MTEXTEND
  0
MTEXT
  5
36D
330
1F
100
AcDbEntity
  8
0
  6
Continuous
370
     0
100
AcDbMText
 10
856.227733711532
 20
395.1963980648226
 30
-0.0000000000000036
 40
1.75
 41
12.5
 71
     5
 72
     5
  1
{\fArial|b0|i0|c128|p32;No\fMS Gothic|b0|i0|c128|p48;.4仕上}
  7
ゴシック
 73
     1
 44
1.0
1001
ACAD
1000
MTEXTBEGIN
1070
    73
1070
     1
1070
    44
1040
1.0
1070
    74
1070
     0
1000
MTEXTEND
  0
MTEXT
  5
36E
330
1F
100
AcDbEntity
  8
0
  6
Continuous
370
     0
100
AcDbMText
 10
856.710135035979
 20
382.7522427612003
 30
-0.0000000000000036
 40
1.75
 41
15.8463768115942
 71
     5
 72
     5
  1
{\fArial|b0|i0|c128|p32;ﾎﾜｲﾄ焼付塗装}
  7
ゴシック
 73
     1
 44
1.0
1001
ACAD
1000
MTEXTBEGIN
1070
    73
1070
     1
1070
    44
1040
1.0
1070
    74
1070
     0
1000
MTEXTEND
  0
MTEXT
  5
36F
330
1F
100
AcDbEntity
  8
0
  6
Continuous
370
     0
100
AcDbMText
 10
840.8516422759221
 20
378.6041909933268
 30
-0.0000000000000036
 40
1.75
 41
12.5
 71
     5
 72
     5
  1
付
  7
ゴシック
 73
     1
 44
1.0
1001
ACAD
1000
MTEXTBEGIN
1070
    73
1070
     1
1070
    44
1040
1.0
1070
    74
1070
     0
1000
MTEXTEND
  0
MTEXT
  5
370
330
1F
100
AcDbEntity
  8
0
  6
Continuous
370
     0
100
AcDbMText
 10
840.8516422759221
 20
374.4561392254525
 30
-0.0000000000000036
 40
1.75
 41
12.5
 71
     5
 72
     5
  1
付
  7
ゴシック
 73
     1
 44
1.0
1001
ACAD
1000
MTEXTBEGIN
1070
    73
1070
     1
1070
    44
1040
1.0
1070
    74
1070
     0
1000
MTEXTEND
  0
MTEXT
  5
371
330
1F
100
AcDbEntity
  8
0
  6
Continuous
370
     0
100
AcDbMText
 10
840.8516422759221
 20
386.9002945290749
 30
-0.0000000000000036
 40
1.75
 41
12.5
 71
     5
 72
     5
  1
付
  7
ゴシック
 73
     1
 44
1.0
1001
ACAD
1000
MTEXTBEGIN
1070
    73
1070
     1
1070
    44
1040
1.0
1070
    74
1070
     0
1000
MTEXTEND
  0
MTEXT
  5
372
330
1F
100
AcDbEntity
  8
0
  6
Continuous
370
     0
100
AcDbMText
 10
840.8516422759221
 20
391.0483462969491
 30
-0.0000000000000036
 40
1.75
 41
12.5
 71
     5
 72
     5
  1
付
  7
ゴシック
 73
     1
 44
1.0
1001
ACAD
1000
MTEXTBEGIN
1070
    73
1070
     1
1070
    44
1040
1.0
1070
    74
1070
     0
1000
MTEXTEND
  0
MTEXT
  5
373
330
1F
100
AcDbEntity
  8
0
  6
Continuous
370
     0
100
AcDbMText
 10
840.8516422759221
 20
395.1963980648232
 30
-0.0000000000000036
 40
1.75
 41
12.5
 71
     5
 72
     5
  1
付
  7
ゴシック
 73
     1
 44
1.0
1001
ACAD
1000
MTEXTBEGIN
1070
    73
1070
     1
1070
    44
1040
1.0
1070
    74
1070
     0
1000
MTEXTEND
  0
MTEXT
  5
374
330
1F
100
AcDbEntity
  8
0
  6
Continuous
370
     0
100
AcDbMText
 10
840.8516422759221
 20
382.7522427612008
 30
-0.0000000000000036
 40
1.75
 41
12.5
 71
     5
 72
     5
  1
なし
  7
ゴシック
 73
     1
 44
1.0
1001
ACAD
1000
MTEXTBEGIN
1070
    73
1070
     1
1070
    44
1040
1.0
1070
    74
1070
     0
1000
MTEXTEND
  0
MTEXT
  5
375
330
1F
100
AcDbEntity
  8
0
  6
Continuous
370
     0
100
AcDbMText
 10
818.9867078629923
 20
374.4859823359574
 30
-0.0000000000000036
 40
1.75
 41
16.2575
 71
     4
 72
     5
  1
{\fArial|b0|i0|c0|p32;LS}-911{\fArial|b0|i0|c0|p32;GRW}
  7
ゴシック
 73
     1
 44
1.0
1001
ACAD
1000
MTEXTBEGIN
1070
    73
1070
     1
1070
    44
1040
1.0
1070
    74
1070
     0
1000
MTEXTEND
  0
LINE
  5
376
330
1F
100
AcDbEntity
  8
0
  6
Continuous
370
     0
100
AcDbLine
 10
887.0712307211599
 20
380.8436504569879
 30
0.0
 11
817.7631394254477
 21
380.8436504569881
 31
0.0
  0
MTEXT
  5
377
330
1F
100
AcDbEntity
  8
0
  6
Continuous
370
     0
100
AcDbMText
 10
818.9867078629923
 20
382.7820858717056
 30
-0.0000000000000036
 40
1.75
 41
12.5
 71
     4
 72
     5
  1
{\fArial|b0|i0|c0|p32;LS}-911{\fArial|b0|i0|c0|p32;W}
  7
ゴシック
 73
     1
 44
1.0
1001
ACAD
1000
MTEXTBEGIN
1070
    73
1070
     1
1070
    44
1040
1.0
1070
    74
1070
     0
1000
MTEXTEND
  0
LINE
  5
378
330
1F
100
AcDbEntity
  8
0
  6
Continuous
370
     0
100
AcDbLine
 10
887.0712307211599
 20
376.6955986891139
 30
0.0
 11
817.7631394254477
 21
376.6955986891139
 31
0.0
  0
LINE
  5
379
330
1F
100
AcDbEntity
  8
0
  6
Continuous
370
     0
100
AcDbLine
 10
887.0712307211599
 20
372.5475469212397
 30
0.0
 11
817.7631394254477
 21
372.5475469212398
 31
0.0
  0
MTEXT
  5
37A
330
1F
100
AcDbEntity
  8
0
  6
Continuous
370
     0
100
AcDbMText
 10
818.9867078629923
 20
378.6340341038315
 30
-0.0000000000000036
 40
1.75
 41
16.2575
 71
     4
 72
     5
  1
{\fArial|b0|i0|c0|p32;LS}-911{\fArial|b0|i0|c0|p32;HRW}
  7
ゴシック
 73
     1
 44
1.0
1001
ACAD
1000
MTEXTBEGIN
1070
    73
1070
     1
1070
    44
1040
1.0
1070
    74
1070
     0
1000
MTEXTEND
  0
LINE
  5
37B
330
1F
100
AcDbEntity
  8
0
  6
Continuous
370
     0
100
AcDbLine
 10
887.0712307211599
 20
384.9917022248622
 30
0.0
 11
817.7631394254477
 21
384.9917022248622
 31
0.0
  0
MTEXT
  5
37C
330
1F
100
AcDbEntity
  8
0
  6
Continuous
370
     0
100
AcDbMText
 10
818.9867078629923
 20
386.9301376395797
 30
-0.0000000000000036
 40
1.75
 41
12.5
 71
     4
 72
     5
  1
{\fArial|b0|i0|c0|p32;LS}-911{\fArial|b0|i0|c0|p32;GR}
  7
ゴシック
 73
     1
 44
1.0
1001
ACAD
1000
MTEXTBEGIN
1070
    73
1070
     1
1070
    44
1040
1.0
1070
    74
1070
     0
1000
MTEXTEND
  0
MTEXT
  5
37D
330
1F
100
AcDbEntity
  8
0
  6
Continuous
370
     0
100
AcDbMText
 10
818.9867078629923
 20
391.0781894074538
 30
-0.0000000000000036
 40
1.75
 41
12.5
 71
     4
 72
     5
  1
{\fArial|b0|i0|c0|p32;LS}-911{\fArial|b0|i0|c0|p32;HR}
  7
ゴシック
 73
     1
 44
1.0
1001
ACAD
1000
MTEXTBEGIN
1070
    73
1070
     1
1070
    44
1040
1.0
1070
    74
1070
     0
1000
MTEXTEND
  0
LINE
  5
37E
330
1F
100
AcDbEntity
  8
0
  6
Continuous
370
     0
100
AcDbLine
 10
887.0712307211599
 20
389.1397539927361
 30
0.0
 11
817.7631394254477
 21
389.1397539927361
 31
0.0
  0
LINE
  5
37F
330
1F
100
AcDbEntity
  8
0
  6
Continuous
370
     0
100
AcDbLine
 10
887.0712307211599
 20
393.2878057606103
 30
0.0
 11
817.7631394254477
 21
393.2878057606104
 31
0.0
  0
MTEXT
  5
380
330
1F
100
AcDbEntity
  8
0
  6
Continuous
370
     0
100
AcDbMText
 10
818.9867078629923
 20
395.2262411753279
 30
-0.0000000000000036
 40
1.75
 41
12.5
 71
     4
 72
     5
  1
{\fArial|b0|i0|c0|p32;LS}-911{\fArial|b0|i0|c0|p32;BR}
  7
ゴシック
 73
     1
 44
1.0
1001
ACAD
1000
MTEXTBEGIN
1070
    73
1070
     1
1070
    44
1040
1.0
1070
    74
1070
     0
1000
MTEXTEND
  0
LINE
  5
381
330
1F
100
AcDbEntity
  8
0
  6
Continuous
370
     0
100
AcDbLine
 10
887.0712307211599
 20
405.7319610642326
 30
0.0
 11
817.7631394254477
 21
405.7319610642326
 31
0.0
  0
LINE
  5
382
330
1F
100
AcDbEntity
  8
0
  6
Continuous
370
     0
100
AcDbLine
 10
878.4912736407989
 20
364.2514433854916
 30
0.0
 11
878.4912736407989
 21
405.7319610642326
 31
0.0
  0
LINE
  5
383
330
1F
100
AcDbEntity
  8
0
  6
Continuous
370
     0
100
AcDbLine
 10
865.3872319828984
 20
364.2514433854916
 30
0.0
 11
865.3872319829005
 21
405.7319610642326
 31
0.0
  0
LINE
  5
384
330
1F
100
AcDbEntity
  8
0
  6
Continuous
370
     0
100
AcDbLine
 10
847.6578091791997
 20
364.2514433854916
 30
0.0
 11
847.6578091791997
 21
405.7319610642326
 31
0.0
  0
LINE
  5
385
330
1F
100
AcDbEntity
  8
0
  6
Continuous
370
     0
100
AcDbLine
 10
834.5126358198069
 20
364.2514433854916
 30
0.0
 11
834.5126358198069
 21
405.7319610642326
 31
0.0
  0
LINE
  5
386
330
1F
100
AcDbEntity
  8
0
  6
Continuous
370
     0
100
AcDbLine
 10
817.7631394254476
 20
364.2514433854917
 30
0.0
 11
817.7631394254477
 21
405.7319610642326
 31
0.0
  0
MTEXT
  5
387
330
1F
100
AcDbEntity
  8
0
  6
Continuous
370
     0
100
AcDbMText
 10
818.9867078629923
 20
399.3742929432021
 30
-0.0000000000000036
 40
1.75
 41
12.5
 71
     4
 72
     5
  1
{\fArial|b0|i0|c0|p32;LS}-911
  7
ゴシック
 73
     1
 44
1.0
1001
ACAD
1000
MTEXTBEGIN
1070
    73
1070
     1
1070
    44
1040
1.0
1070
    74
1070
     0
1000
MTEXTEND
  0
MTEXT
  5
388
330
1F
100
AcDbEntity
  8
0
  6
Continuous
370
     0
100
AcDbMText
 10
856.227733711532
 20
399.3444498326967
 30
-0.0000000000000036
 40
1.75
 41
12.5
 71
     5
 72
     5
  1
{\fArial|b0|i0|c128|p32;No\fMS Gothic|b0|i0|c128|p48;.4仕上}
  7
ゴシック
 73
     1
 44
1.0
1001
ACAD
1000
MTEXTBEGIN
1070
    73
1070
     1
1070
    44
1040
1.0
1070
    74
1070
     0
1000
MTEXTEND
  0
MTEXT
  5
389
330
1F
100
AcDbEntity
  8
0
  6
Continuous
370
     0
100
AcDbMText
 10
856.265485866834
 20
403.5434994567751
 30
-0.0000000000000036
 40
1.75
 41
17.98222222222222
 71
     5
 72
     5
  1
{\fMS Gothic|b0|i0|c128|p48;棚受仕上／色}
  7
ゴシック
 73
     1
 44
1.0
1001
ACAD
1000
MTEXTBEGIN
1070
    73
1070
     1
1070
    44
1040
1.0
1070
    74
1070
     0
1000
MTEXTEND
  0
LINE
  5
38A
330
1F
100
AcDbEntity
  8
0
  6
Continuous
370
     0
100
AcDbLine
 10
887.0712307211599
 20
397.4358575284844
 30
0.0
 11
817.7631394254477
 21
397.4358575284845
 31
0.0
  0
MTEXT
  5
38B
330
1F
100
AcDbEntity
  8
0
  6
Continuous
370
     0
100
AcDbMText
 10
840.8516422759221
 20
399.3444498326973
 30
-0.0000000000000036
 40
1.75
 41
12.5
 71
     5
 72
     5
  1
なし
  7
ゴシック
 73
     1
 44
1.0
1001
ACAD
1000
MTEXTBEGIN
1070
    73
1070
     1
1070
    44
1040
1.0
1070
    74
1070
     0
1000
MTEXTEND
  0
MTEXT
  5
38C
330
1F
100
AcDbEntity
  8
0
  6
Continuous
370
     0
100
AcDbMText
 10
840.8516422759221
 20
403.5434994567756
 30
-0.0000000000000036
 40
1.75
 41
12.5
 71
     5
 72
     5
  1
化粧ﾗﾊﾞｰ
  7
ゴシック
 73
     1
 44
1.0
1001
ACAD
1000
MTEXTBEGIN
1070
    73
1070
     1
1070
    44
1040
1.0
1070
    74
1070
     0
1000
MTEXTEND
  0
MTEXT
  5
38D
330
1F
100
AcDbEntity
  8
0
  6
Continuous
370
     0
100
AcDbMText
 10
825.8877506106909
 20
403.4590643713555
 30
0.0
 40
1.75
 41
12.5
 71
     5
 72
     5
  1
{\fMS Gothic|b0|i0|c128|p48;品　番}
  7
ゴシック
 73
     1
 44
1.0
1001
ACAD
1000
MTEXTBEGIN
1070
    73
1070
     1
1070
    44
1040
1.0
1070
    74
1070
     0
1000
MTEXTEND
  0
LINE
  5
38E
330
1F
100
AcDbEntity
  8
0
  6
Continuous
370
     0
100
AcDbLine
 10
887.0712307211599
 20
401.5839092963585
 30
0.0
 11
817.7631394254477
 21
401.5839092963585
 31
0.0
  0
MTEXT
  5
38F
330
1F
100
AcDbEntity
  8
0
  6
Continuous
370
     0
100
AcDbMText
 10
886.5249889886328
 20
399.3444498326967
 30
-0.0000000000000036
 40
1.75
 41
12.5
 71
     6
 72
     5
  1
{\fMS Gothic|b0|i0|c128|p48;3.1ｇ}
  7
ゴシック
 73
     1
 44
1.0
1001
ACAD
1000
MTEXTBEGIN
1070
    73
1070
     1
1070
    44
1040
1.0
1070
    74
1070
     0
1000
MTEXTEND
  0
LINE
  5
390
330
1F
100
AcDbEntity
  8
0
  6
Continuous
370
     0
100
AcDbLine
 10
878.4912736407989
 20
364.2514433854916
 30
0.0
 11
878.4912736407989
 21
405.7319610642326
 31
0.0
  0
LINE
  5
391
330
1F
100
AcDbEntity
  8
0
  6
Continuous
370
     0
100
AcDbLine
 10
887.0712307211599
 20
364.2514433854917
 30
0.0
 11
887.0712307211599
 21
405.7319610642326
 31
0.0
  0
MTEXT
  5
392
330
1F
100
AcDbEntity
  8
0
  6
Continuous
370
     0
100
AcDbMText
 10
882.3537623945577
 20
403.5434994567751
 30
-0.0000000000000036
 40
1.75
 41
12.5
 71
     5
 72
     5
  1
{\fMS Gothic|b0|i0|c128|p48;質量}
  7
ゴシック
 73
     1
 44
1.0
1001
ACAD
1000
MTEXTBEGIN
1070
    73
1070
     1
1070
    44
1040
1.0
1070
    74
1070
     0
1000
MTEXTEND
  0
LINE
  5
393
330
1F
100
AcDbEntity
  8
0
 62
     0
100
AcDbLine
 10
859.5718749872792
 20
462.9584928594831
 30
0.0
 11
859.5718749872792
 21
470.9584928594831
 31
0.0
  0
ARC
  5
394
330
1F
100
AcDbEntity
  8
0
 62
     0
100
AcDbCircle
 10
874.5718749872777
 20
463.9584928594826
 30
0.0
 40
1.0
100
AcDbArc
 50
270.0
 51
0.0
  0
ARC
  5
395
330
1F
100
AcDbEntity
  8
0
 62
     0
100
AcDbCircle
 10
874.5718749872777
 20
469.9584928594828
 30
0.0
 40
1.0
100
AcDbArc
 50
0.0
 51
90.0
  0
ARC
  5
396
330
1F
100
AcDbEntity
  8
0
 62
     0
100
AcDbCircle
 10
876.1718749872798
 20
469.058492859485
 30
0.0
 40
0.6
100
AcDbArc
 50
180.0
 51
270.0
  0
ARC
  5
397
330
1F
100
AcDbEntity
  8
0
 62
     0
100
AcDbCircle
 10
876.1718749872798
 20
464.8584928594823
 30
0.0
 40
0.6
100
AcDbArc
 50
90.0
 51
180.0
  0
LINE
  5
398
330
1F
100
AcDbEntity
  8
0
 62
     0
100
AcDbLine
 10
876.5718749872776
 20
465.4584928594831
 30
0.0
 11
876.5718749872776
 21
468.4584928594868
 31
0.0
  0
LINE
  5
399
330
1F
100
AcDbEntity
  8
0
 62
     0
100
AcDbLine
 10
878.4718749872791
 20
467.3739347953925
 30
0.0
 11
878.4718749872791
 21
466.5430509235758
 31
0.0
  0
LINE
  5
39A
330
1F
100
AcDbEntity
  8
0
 62
     0
100
AcDbLine
 10
878.0915212176424
 20
465.6259975819939
 30
0.0
 11
878.2483551527256
 21
465.8455650911109
 31
0.0
  0
LINE
  5
39B
330
1F
100
AcDbEntity
  8
0
 62
     0
100
AcDbLine
 10
878.2483551527256
 20
468.0714206278554
 30
0.0
 11
878.0915212176424
 21
468.2909881369725
 31
0.0
  0
ARC
  5
39C
330
1F
100
AcDbEntity
  8
0
 62
     0
100
AcDbCircle
 10
877.2718749872781
 20
467.3739347953921
 30
0.0
 40
1.199999999999999
100
AcDbArc
 50
0.0
 51
35.53767779200127
  0
ARC
  5
39D
330
1F
100
AcDbEntity
  8
0
 62
     0
100
AcDbCircle
 10
877.2718749872781
 20
466.5430509235752
 30
0.0
 40
1.199999999999999
100
AcDbArc
 50
324.4623222079987
 51
0.0
  0
ARC
  5
39E
330
1F
100
AcDbEntity
  8
0
 62
     0
100
AcDbCircle
 10
877.7660278291604
 20
468.058492859485
 30
0.0
 40
0.4
100
AcDbArc
 50
35.53767779200127
 51
90.0
  0
ARC
  5
39F
330
1F
100
AcDbEntity
  8
0
 62
     0
100
AcDbCircle
 10
877.7660278291604
 20
465.8584928594805
 30
0.0
 40
0.4
100
AcDbArc
 50
270.0
 51
324.4623222079987
  0
LINE
  5
3A0
330
1F
100
AcDbEntity
  8
0
 62
     0
100
AcDbLine
 10
859.5718749872792
 20
470.9584928594831
 30
0.0
 11
874.5718749872777
 21
470.9584928594831
 31
0.0
  0
LINE
  5
3A1
330
1F
100
AcDbEntity
  8
0
 62
     0
100
AcDbLine
 10
859.5718749872792
 20
462.9584928594831
 30
0.0
 11
874.5718749872777
 21
462.9584928594796
 31
0.0
  0
LINE
  5
3A2
330
1F
100
AcDbEntity
  8
0
 62
     0
100
AcDbLine
 10
875.5718749872777
 20
469.9584928594831
 30
0.0
 11
875.5718749872777
 21
469.0584928594853
 31
0.0
  0
LINE
  5
3A3
330
1F
100
AcDbEntity
  8
0
 62
     0
100
AcDbLine
 10
876.171874987278
 20
468.4584928594868
 30
0.0
 11
877.7660278291604
 21
468.4584928594868
 31
0.0
  0
LINE
  5
3A4
330
1F
100
AcDbEntity
  8
0
 62
     0
100
AcDbLine
 10
876.171874987278
 20
465.4584928594831
 30
0.0
 11
877.7660278291604
 21
465.4584928594831
 31
0.0
  0
LINE
  5
3A5
330
1F
100
AcDbEntity
  8
0
 62
     0
100
AcDbLine
 10
875.5718749872777
 20
464.8584928594829
 30
0.0
 11
875.5718749872777
 21
463.9584928594833
 31
0.0
  0
LINE
  5
3A6
330
1F
100
AcDbEntity
  8
0
 62
     0
100
AcDbLine
 10
863.0718749872793
 20
462.9584928594831
 30
0.0
 11
863.0718749872793
 21
470.9584928594831
 31
0.0
  0
LINE
  5
3A7
330
1F
100
AcDbEntity
  8
0
 62
     0
100
AcDbLine
 10
866.0781810132867
 20
462.9584928594831
 30
0.0
 11
866.0781810132867
 21
470.9584928594831
 31
0.0
  0
LINE
  5
3A8
330
1F
100
AcDbEntity
  8
0
 62
     0
100
AcDbLine
 10
821.0313951543758
 20
450.5747313933722
 30
0.0
 11
821.0313951543739
 21
448.5747313933723
 31
0.0
  0
ARC
  5
3A9
330
1F
100
AcDbEntity
  8
0
 62
     0
100
AcDbCircle
 10
823.031395154374
 20
465.6364933616676
 30
0.0
 40
0.2
100
AcDbArc
 50
90.0
 51
180.0000000001041
  0
ARC
  5
3AA
330
1F
100
AcDbEntity
  8
0
 62
     0
100
AcDbCircle
 10
823.8313951543712
 20
465.6364933616677
 30
0.0
 40
0.2
100
AcDbArc
 50
0.0000000000846791
 51
90.0
  0
ARC
  5
3AB
330
1F
100
AcDbEntity
  8
0
 62
     0
100
AcDbCircle
 10
823.8313951543712
 20
465.1584928594838
 30
0.0
 40
0.2
100
AcDbArc
 50
0.0000000000716515
 51
90.0
  0
ARC
  5
3AC
330
1F
100
AcDbEntity
  8
0
 62
     0
100
AcDbCircle
 10
823.0313951543758
 20
465.1584928594836
 30
0.0
 40
0.2
100
AcDbArc
 50
90.0
 51
180.0000000001172
  0
ARC
  5
3AD
330
1F
100
AcDbEntity
  8
0
 62
     0
100
AcDbCircle
 10
823.0313951543683
 20
468.2804923572988
 30
0.0
 40
0.2
100
AcDbArc
 50
179.9999999996873
 51
270.0
  0
ARC
  5
3AE
330
1F
100
AcDbEntity
  8
0
 62
     0
100
AcDbCircle
 10
823.8313951543712
 20
468.2804923572986
 30
0.0
 40
0.2
100
AcDbArc
 50
270.0
 51
359.9999999998893
  0
ARC
  5
3AF
330
1F
100
AcDbEntity
  8
0
 62
     0
100
AcDbCircle
 10
823.8313951543712
 20
468.7584928594827
 30
0.0
 40
0.2
100
AcDbArc
 50
270.0
 51
359.9999999999283
  0
ARC
  5
3B0
330
1F
100
AcDbEntity
  8
0
 62
     0
100
AcDbCircle
 10
823.0313951543719
 20
468.7584928594827
 30
0.0
 40
0.2
100
AcDbArc
 50
179.9999999997003
 51
270.0
  0
LINE
  5
3B1
330
1F
100
AcDbEntity
  8
0
 62
     0
100
AcDbLine
 10
823.0313951543683
 20
468.0804923572988
 30
0.0
 11
823.8313951543712
 21
468.0804923572987
 31
0.0
  0
LINE
  5
3B2
330
1F
100
AcDbEntity
  8
0
 62
     0
100
AcDbLine
 10
823.031395154374
 20
465.8364933616676
 30
0.0
 11
823.8313951543712
 21
465.8364933616676
 31
0.0
  0
LINE
  5
3B3
330
1F
100
AcDbEntity
  8
0
 62
     0
100
AcDbLine
 10
823.1327445327478
 20
468.0804923572988
 30
0.0
 11
823.7327445327446
 21
468.0804923572988
 31
0.0
  0
LINE
  5
3B4
330
1F
100
AcDbEntity
  8
0
 62
     0
100
AcDbLine
 10
821.0313951543739
 20
465.2452547836873
 30
0.0
 11
822.831395154375
 21
465.2452547836873
 31
0.0
  0
LINE
  5
3B5
330
1F
100
AcDbEntity
  8
0
 62
     0
100
AcDbLine
 10
821.0313951543758
 20
468.6717309352788
 30
0.0
 11
822.8313951543734
 21
468.6717309352786
 31
0.0
  0
LINE
  5
3B6
330
1F
100
AcDbEntity
  8
0
 62
     0
100
AcDbLine
 10
821.0313951543721
 20
468.9584928594825
 30
0.0
 11
821.0313951543721
 21
464.9584928594837
 31
0.0
  0
LINE
  5
3B7
330
1F
100
AcDbEntity
  8
0
 62
     0
100
AcDbLine
 10
822.831395154375
 20
469.2584928594831
 30
0.0
 11
822.8313951543695
 21
468.2804923572998
 31
0.0
  0
LINE
  5
3B8
330
1F
100
AcDbEntity
  8
0
 62
     0
100
AcDbLine
 10
824.031395154374
 20
470.3584928594843
 30
0.0
 11
824.0313951543702
 21
468.2804923572982
 31
0.0
  0
LINE
  5
3B9
330
1F
100
AcDbEntity
  8
0
 62
     0
100
AcDbLine
 10
823.0313951543719
 20
468.5584928594828
 30
0.0
 11
823.8313951543712
 21
468.5584928594827
 31
0.0
  0
LINE
  5
3BA
330
1F
100
AcDbEntity
  8
0
 62
     0
100
AcDbLine
 10
821.6313951543742
 20
469.5584928594827
 30
0.0
 11
822.5313951543757
 21
469.5584928594827
 31
0.0
  0
LINE
  5
3BB
330
1F
100
AcDbEntity
  8
0
 62
     0
100
AcDbLine
 10
821.6313951543742
 20
464.3584928594837
 30
0.0
 11
822.5313951543721
 21
464.3584928594837
 31
0.0
  0
ARC
  5
3BC
330
1F
100
AcDbEntity
  8
0
 62
     0
100
AcDbCircle
 10
822.5313951543757
 20
469.2584928594825
 30
0.0
 40
0.3
100
AcDbArc
 50
0.000000000117248
 51
90.0
  0
ARC
  5
3BD
330
1F
100
AcDbEntity
  8
0
 62
     0
100
AcDbCircle
 10
822.5313951543721
 20
464.6584928594836
 30
0.0
 40
0.3
100
AcDbArc
 50
270.0
 51
0.000000000117248
  0
LINE
  5
3BE
330
1F
100
AcDbEntity
  8
0
 62
     0
100
AcDbLine
 10
823.0313951543758
 20
465.3584928594836
 30
0.0
 11
823.8313951543712
 21
465.3584928594836
 31
0.0
  0
LINE
  5
3BF
330
1F
100
AcDbEntity
  8
0
 62
     0
100
AcDbLine
 10
824.031395154374
 20
463.5584928594822
 30
0.0
 11
824.0313951543722
 21
465.6364933616679
 31
0.0
  0
LINE
  5
3C0
330
1F
100
AcDbEntity
  8
0
 62
     0
100
AcDbLine
 10
822.831395154375
 20
464.6584928594831
 30
0.0
 11
822.831395154375
 21
465.6364933616672
 31
0.0
  0
LINE
  5
3C1
330
1F
100
AcDbEntity
  8
0
 62
     0
100
AcDbLine
 10
824.031395154374
 20
450.5747313933722
 30
0.0
 11
827.614237866841
 21
450.5747313933722
 31
0.0
  0
LINE
  5
3C2
330
1F
100
AcDbEntity
  8
0
 62
     0
100
AcDbLine
 10
822.8313951543734
 20
450.4189712814766
 30
0.0
 11
824.0313951543722
 21
450.4189712814768
 31
0.0
  0
LINE
  5
3C3
330
1F
100
AcDbEntity
  8
0
 62
     0
100
AcDbLine
 10
821.0313951543758
 20
450.5747313933722
 30
0.0
 11
822.831395154375
 21
450.5747313933722
 31
0.0
  0
LINE
  5
3C4
330
1F
100
AcDbEntity
  8
0
 62
     0
100
AcDbLine
 10
824.031395154374
 20
450.5747313933723
 30
0.0
 11
824.0313951543793
 21
449.5747313933726
 31
0.0
  0
LINE
  5
3C5
330
1F
100
AcDbEntity
  8
0
 62
     0
100
AcDbLine
 10
822.831395154375
 20
450.5747313933723
 30
0.0
 11
822.8313951543841
 21
449.5747313933728
 31
0.0
  0
LINE
  5
3C6
330
1F
100
AcDbEntity
  8
0
 62
     0
100
AcDbLine
 10
824.6313951543744
 20
470.9584928594833
 30
0.0
 11
843.8313951543731
 21
470.9584928594833
 31
0.0
  0
LINE
  5
3C7
102
{ACAD_REACTORS
330
3DC
102
}
330
1F
100
AcDbEntity
  8
0
 62
     0
100
AcDbLine
 10
824.6313951543744
 20
462.958492859483
 30
0.0
 11
843.8313951543769
 21
462.9584928594831
 31
0.0
  0
LINE
  5
3C8
102
{ACAD_REACTORS
330
3D9
102
}
330
1F
100
AcDbEntity
  8
0
 62
     0
100
AcDbLine
 10
843.8313951543751
 20
470.9584928594833
 30
0.0
 11
843.8313951543751
 21
462.958492859483
 31
0.0
  0
LINE
  5
3C9
330
1F
100
AcDbEntity
  8
0
 62
     0
100
AcDbLine
 10
827.6446332301675
 20
450.5747313933722
 30
0.0
 11
842.0813951543751
 21
450.5747313933723
 31
0.0
  0
ARC
  5
3CA
102
{ACAD_REACTORS
330
3E2
102
}
330
1F
100
AcDbEntity
  8
0
 62
     0
100
AcDbCircle
 10
842.0813951543751
 20
448.8247313933722
 30
0.0
 40
1.75
100
AcDbArc
 50
270.0
 51
90.0
  0
ARC
  5
3CB
330
1F
100
AcDbEntity
  8
0
 62
     0
100
AcDbCircle
 10
842.0813951543751
 20
448.8247313933722
 30
0.0
 40
0.75
100
AcDbArc
 50
270.0
 51
90.0
  0
LINE
  5
3CC
330
1F
100
AcDbEntity
  8
0
 62
     0
100
AcDbLine
 10
821.0313951543721
 20
449.574731393373
 30
0.0
 11
842.0813951543751
 21
449.5747313933715
 31
0.0
  0
ARC
  5
3CD
330
1F
100
AcDbEntity
  8
0
 62
     0
100
AcDbCircle
 10
821.6313951543742
 20
464.9584928594837
 30
0.0
 40
0.6
100
AcDbArc
 50
180.0
 51
270.0
  0
ARC
  5
3CE
102
{ACAD_REACTORS
330
3D9
102
}
330
1F
100
AcDbEntity
  8
0
 62
     0
100
AcDbCircle
 10
821.6313951543742
 20
468.9584928594825
 30
0.0
 40
0.6
100
AcDbArc
 50
90.0
 51
180.0
  0
ARC
  5
3CF
330
1F
100
AcDbEntity
  8
0
 62
     0
100
AcDbCircle
 10
824.6313951543744
 20
463.558492859483
 30
0.0
 40
0.6
100
AcDbArc
 50
180.0000000000846
 51
270.0
  0
ARC
  5
3D0
102
{ACAD_REACTORS
330
3DF
102
}
330
1F
100
AcDbEntity
  8
0
 62
     0
100
AcDbCircle
 10
824.6313951543744
 20
470.3584928594834
 30
0.0
 40
0.6
100
AcDbArc
 50
90.0
 51
179.9999999998892
  0
LINE
  5
3D1
330
1F
100
AcDbEntity
  8
0
 62
     0
100
AcDbLine
 10
821.0404986200064
 20
432.5407567971593
 30
0.0
 11
823.7313951543875
 21
434.0943466356476
 31
0.0
  0
LINE
  5
3D2
330
1F
100
AcDbEntity
  8
0
 62
     0
100
AcDbLine
 10
821.5404986200047
 20
431.6747313933744
 30
0.0
 11
824.2313951543874
 21
433.2283212318603
 31
0.0
  0
LINE
  5
3D3
330
1F
100
AcDbEntity
  8
0
 62
     0
100
AcDbLine
 10
821.5404986200047
 20
431.6747313933745
 30
0.0
 11
821.0404986200044
 21
432.5407567971601
 31
0.0
  0
ARC
  5
3D4
330
1F
100
AcDbEntity
  8
0
 62
     0
100
AcDbCircle
 10
823.631395154387
 20
434.2675517164045
 30
0.0
 40
0.2
100
AcDbArc
 50
300.0000000000079
 51
359.9999999999935
  0
ARC
  5
3D5
330
1F
100
AcDbEntity
  8
0
 62
     0
100
AcDbCircle
 10
823.6313951543888
 20
434.2675517164021
 30
0.0
 40
1.199999999999999
100
AcDbArc
 50
299.9999999999916
 51
0.0000000000097707
  0
LINE
  5
3D6
330
1F
100
AcDbEntity
  8
0
 62
     0
100
AcDbLine
 10
824.8313951543877
 20
434.5747313933741
 30
0.0
 11
823.831395154386
 21
434.5747313933741
 31
0.0
  0
DIMENSION
  5
3D7
102
{ACAD_XDICTIONARY
360
3D8
102
}
102
{ACAD_REACTORS
330
3D9
102
}
330
1F
100
AcDbEntity
  8
0
 62
     4
100
AcDbDimension
  2
*D9
 10
843.8313951543772
 20
480.0241331666701
 30
0.0
 11
833.9313951543758
 21
480.0241331666701
 31
0.0
 70
   160
  1
23
 71
     5
 42
22.80000000000291
  3
基本（１：１）
100
AcDbAlignedDimension
 13
821.0313951543742
 23
468.9584928594825
 33
0.0
 14
843.8313951543772
 24
470.9584928594833
 34
0.0
100
AcDbRotatedDimension
1001
ACAD
1000
DSTYLE
1002
{
1070
    40
1040
1.0
1002
}
  0
DIMENSION
  5
3DA
102
{ACAD_XDICTIONARY
360
3DB
102
}
102
{ACAD_REACTORS
330
3DC
102
}
330
1F
100
AcDbEntity
  8
0
 62
     4
100
AcDbDimension
  2
*D10
 10
850.9629776618023
 20
462.9584928594831
 30
0.0
 11
850.962977661802
 21
466.9584928594846
 31
0.0
 70
   160
 71
     5
 42
8.000000000000111
  3
基本（１：１）
100
AcDbAlignedDimension
 13
843.8313951543751
 23
470.9584928594833
 33
0.0
 14
843.8313951543769
 24
462.9584928594831
 34
0.0
 50
90.0
100
AcDbRotatedDimension
1001
ACAD
1000
DSTYLE
1002
{
1070
    40
1040
1.0
1002
}
  0
DIMENSION
  5
3DD
102
{ACAD_XDICTIONARY
360
3DE
102
}
102
{ACAD_REACTORS
330
3DF
102
}
330
1F
100
AcDbEntity
  8
0
 62
     4
100
AcDbDimension
  2
*D11
 10
843.8313951543751
 20
475.4028753056034
 30
0.0
 11
833.931395154374
 21
475.4028753056034
 31
0.0
 70
   160
  1
20
 71
     5
 42
19.80000000000108
  3
基本（１：１）
100
AcDbAlignedDimension
 13
824.031395154374
 23
470.3584928594843
 33
0.0
 14
843.8313951543751
 24
470.9584928594833
 34
0.0
100
AcDbRotatedDimension
1001
ACAD
1000
DSTYLE
1002
{
1070
    40
1040
1.0
1002
}
  0
DIMENSION
  5
3E0
102
{ACAD_XDICTIONARY
360
3E1
102
}
102
{ACAD_REACTORS
330
3E2
102
}
330
1F
100
AcDbEntity
  8
0
 62
     4
100
AcDbDimension
  2
*D12
 10
850.962977661802
 20
447.0747313933721
 30
0.0
 11
849.2129776618019
 21
441.5718904842814
 31
0.0
 70
    32
 71
     5
 42
3.5
  3
基本（１：１）
100
AcDbAlignedDimension
 13
842.0813951543751
 23
450.5747313933722
 33
0.0
 14
842.0813951543751
 24
447.0747313933721
 34
0.0
 50
90.0
100
AcDbRotatedDimension
1001
ACAD
1000
DSTYLE
1002
{
1070
    40
1040
1.0
1002
}
  0
DIMENSION
  5
3E3
330
1F
100
AcDbEntity
  8
0
 62
     4
100
AcDbDimension
  2
*D5
 10
815.0793407416713
 20
431.6747313933737
 30
0.0
 11
815.0793407416713
 21
441.1247313933738
 31
0.0
 70
   160
  1
19
 71
     5
 42
18.89999999999776
  3
基本（１：１）
100
AcDbAlignedDimension
 13
821.0313951543758
 23
450.5747313933713
 33
0.0
 14
821.5404986200047
 24
431.6747313933737
 34
0.0
 50
90.0
100
AcDbRotatedDimension
1001
ACAD
1000
DSTYLE
1002
{
1070
    40
1040
1.0
1002
}
  0
ARC
  5
3E4
330
1F
100
AcDbEntity
  8
0
 62
     0
100
AcDbCircle
 10
827.9142378668549
 20
446.8747313933723
 30
0.0
 40
0.2
100
AcDbArc
 50
90.0
 51
135.0000000000115
  0
LINE
  5
3E5
330
1F
100
AcDbEntity
  8
0
 62
     0
100
AcDbLine
 10
824.1828670169615
 20
444.8404168183258
 30
0.0
 11
827.0657097294279
 21
447.7232595307968
 31
0.0
  0
LINE
  5
3E6
330
1F
100
AcDbEntity
  8
0
 62
     0
100
AcDbLine
 10
824.8899737981446
 20
444.1333100371302
 30
0.0
 11
827.7728165106198
 21
447.0161527496088
 31
0.0
  0
LINE
  5
3E7
330
1F
100
AcDbEntity
  8
0
 62
     0
100
AcDbLine
 10
827.9142378668549
 20
447.0747313933723
 30
0.0
 11
842.0813951543751
 21
447.0747313933723
 31
0.0
  0
ARC
  5
3E8
330
1F
100
AcDbEntity
  8
0
 62
     0
100
AcDbCircle
 10
827.9142378668549
 20
446.8747313933721
 30
0.0
 40
1.199999999999999
100
AcDbArc
 50
90.0
 51
135.0000000000115
  0
LINE
  5
3E9
330
1F
100
AcDbEntity
  8
0
 62
     0
100
AcDbLine
 10
827.9142378668549
 20
448.0747313933721
 30
0.0
 11
842.0813951543751
 21
448.0747313933723
 31
0.0
  0
ARC
  5
3EA
330
1F
100
AcDbEntity
  8
0
 62
     0
100
AcDbCircle
 10
825.0313951543867
 20
443.9918886809016
 30
0.0
 40
1.199999999999999
100
AcDbArc
 50
135.0000000000115
 51
179.999999999987
  0
LINE
  5
3EB
330
1F
100
AcDbEntity
  8
0
 62
     0
100
AcDbLine
 10
823.831395154386
 20
443.9918886809016
 30
0.0
 11
823.831395154386
 21
434.2675517164045
 31
0.0
  0
LINE
  5
3EC
330
1F
100
AcDbEntity
  8
0
 62
     0
100
AcDbLine
 10
824.8313951543822
 20
434.2675517164023
 30
0.0
 11
824.8313951543822
 21
443.9918886808928
 31
0.0
  0
ARC
  5
3ED
330
1F
100
AcDbEntity
  8
0
 62
     0
100
AcDbCircle
 10
825.0313951543828
 20
443.9918886808928
 30
0.0
 40
0.2
100
AcDbArc
 50
135.0000000000115
 51
180.0000000000032
  0
DIMENSION
  5
3EE
330
1F
100
AcDbEntity
  8
0
 62
     3
100
AcDbDimension
  2
*D6
 10
829.4952023326041
 20
443.1272175243658
 30
0.0
 11
830.6744122705097
 21
442.2149834611281
 31
0.0
 70
   164
  1
{\fArial|b0|i0|c0|p32;C}3
 71
     5
 42
3.999999999995566
  3
基本（１：１）
100
AcDbRadialDimension
 15
826.3313951543787
 25
445.5747313933712
 35
0.0
 40
0.0
1001
ACAD
1000
DSTYLE
1002
{
1070
    40
1040
1.0
1070
   288
1070
     1
1002
}
  0
LINE
  5
3EF
330
1F
100
AcDbEntity
  8
0
 62
     0
100
AcDbLine
 10
821.0313951543739
 20
448.5747313933723
 30
0.0
 11
831.7519666996085
 21
448.5747313933718
 31
0.0
  0
LINE
  5
3F0
330
1F
100
AcDbEntity
  8
0
 62
     0
100
AcDbLine
 10
832.9731346450243
 20
449.4776305444581
 30
0.0
 11
832.7809582104636
 21
449.1573364868583
 31
0.0
  0
ARC
  5
3F1
330
1F
100
AcDbEntity
  8
0
 62
     0
100
AcDbCircle
 10
833.1446332301675
 20
449.3747313933725
 30
0.0
 40
0.2
100
AcDbArc
 50
90.0
 51
149.0362434678639
  0
ARC
  5
3F2
330
1F
100
AcDbEntity
  8
0
 62
     0
100
AcDbCircle
 10
831.7519666996085
 20
449.7747313933721
 30
0.0
 40
1.199999999999999
100
AcDbArc
 50
270.0
 51
329.0362434678695
  0
LINE
  5
3F3
330
1F
100
AcDbEntity
  8
0
 62
     0
100
AcDbLine
 10
821.0313951543721
 20
466.5393815512477
 30
0.0
 11
831.4313951543699
 21
466.5393815512477
 31
0.0
  0
LINE
  5
3F4
330
1F
100
AcDbEntity
  8
0
 62
     0
100
AcDbLine
 10
821.0313951543721
 20
467.3776041677192
 30
0.0
 11
831.4313951543699
 21
467.3776041677192
 31
0.0
  0
ARC
  5
3F5
330
1F
100
AcDbEntity
  8
0
 62
     0
100
AcDbCircle
 10
831.4313951543699
 20
466.958492859483
 30
0.0
 40
0.4191113082360971
100
AcDbArc
 50
270.0
 51
90.0
  0
ARC
  5
3F6
330
1F
100
AcDbEntity
  8
0
 62
     0
100
AcDbCircle
 10
831.4313951543699
 20
466.958492859483
 30
0.0
 40
1.713238075795628
100
AcDbArc
 50
270.0
 51
90.0
  0
LINE
  5
3F7
330
1F
100
AcDbEntity
  8
0
 62
     0
100
AcDbLine
 10
824.0313951543722
 20
468.6717309352786
 30
0.0
 11
831.4313951543699
 21
468.6717309352792
 31
0.0
  0
LINE
  5
3F8
330
1F
100
AcDbEntity
  8
0
 62
     0
100
AcDbLine
 10
824.0313951543722
 20
465.2452547836873
 30
0.0
 11
831.4313951543699
 21
465.2452547836876
 31
0.0
  0
LINE
  5
3F9
330
1F
100
AcDbEntity
  8
0
 62
     0
100
AcDbLine
 10
913.6128674995816
 20
467.3776041677192
 30
0.0
 11
916.6128674995816
 21
467.3776041677192
 31
0.0
  0
LINE
  5
3FA
330
1F
100
AcDbEntity
  8
0
 62
     0
100
AcDbLine
 10
913.6128674995816
 20
466.5393815512477
 30
0.0
 11
916.6128674995816
 21
466.5393815512477
 31
0.0
  0
DIMENSION
  5
3FB
330
1F
100
AcDbEntity
  8
0
 62
     4
100
AcDbDimension
  2
*D7
 10
907.6608130868791
 20
431.6747313933736
 30
0.0
 11
907.6608130868788
 21
441.1247313933738
 31
0.0
 70
   160
  1
19
 71
     5
 42
18.89999999999776
  3
基本（１：１）
100
AcDbAlignedDimension
 13
913.6128674995816
 23
450.5747313933713
 33
0.0
 14
914.1219709652103
 24
431.6747313933736
 34
0.0
 50
90.0
100
AcDbRotatedDimension
1001
ACAD
1000
DSTYLE
1002
{
1070
    40
1040
1.0
1002
}
  0
LINE
  5
3FC
330
1F
100
AcDbEntity
  8
0
 62
     0
100
AcDbLine
 10
917.4128674995952
 20
434.5747313933741
 30
0.0
 11
916.4128674995936
 21
434.5747313933741
 31
0.0
  0
ARC
  5
3FD
330
1F
100
AcDbEntity
  8
0
 62
     0
100
AcDbCircle
 10
916.2128674995948
 20
434.2675517164019
 30
0.0
 40
1.199999999999999
100
AcDbArc
 50
299.9999999999916
 51
0.0000000000097707
  0
ARC
  5
3FE
330
1F
100
AcDbEntity
  8
0
 62
     0
100
AcDbCircle
 10
916.2128674995948
 20
434.2675517164045
 30
0.0
 40
0.2
100
AcDbArc
 50
300.0000000000079
 51
359.9999999999935
  0
LINE
  5
3FF
330
1F
100
AcDbEntity
  8
0
 62
     0
100
AcDbLine
 10
914.1219709652139
 20
431.6747313933745
 30
0.0
 11
913.6219709652142
 21
432.5407567971601
 31
0.0
  0
LINE
  5
400
330
1F
100
AcDbEntity
  8
0
 62
     0
100
AcDbLine
 10
914.1219709652103
 20
431.6747313933744
 30
0.0
 11
916.8128674995951
 21
433.2283212318603
 31
0.0
  0
LINE
  5
401
330
1F
100
AcDbEntity
  8
0
 62
     0
100
AcDbLine
 10
913.6219709652142
 20
432.5407567971593
 30
0.0
 11
916.3128674995952
 21
434.0943466356476
 31
0.0
  0
ARC
  5
402
330
1F
100
AcDbEntity
  8
0
 62
     0
100
AcDbCircle
 10
914.2128674995799
 20
468.9584928594825
 30
0.0
 40
0.6
100
AcDbArc
 50
90.0
 51
180.0
  0
ARC
  5
403
330
1F
100
AcDbEntity
  8
0
 62
     0
100
AcDbCircle
 10
914.2128674995799
 20
464.9584928594836
 30
0.0
 40
0.6
100
AcDbArc
 50
180.0
 51
270.0
  0
LINE
  5
404
330
1F
100
AcDbEntity
  8
0
 62
     0
100
AcDbLine
 10
913.6128674995816
 20
449.574731393373
 30
0.0
 11
916.6128674995887
 21
449.5747313933726
 31
0.0
  0
LINE
  5
405
330
1F
100
AcDbEntity
  8
0
 62
     0
100
AcDbLine
 10
915.4128674995806
 20
450.5747313933723
 30
0.0
 11
915.4128674995916
 21
449.5747313933728
 31
0.0
  0
LINE
  5
406
330
1F
100
AcDbEntity
  8
0
 62
     0
100
AcDbLine
 10
913.6128674995816
 20
448.5747313933721
 30
0.0
 11
916.6128674995816
 21
448.5747313933719
 31
0.0
  0
LINE
  5
407
330
1F
100
AcDbEntity
  8
0
 62
     0
100
AcDbLine
 10
913.6128674995816
 20
450.5747313933721
 30
0.0
 11
915.4128674995828
 21
450.5747313933722
 31
0.0
  0
LINE
  5
408
330
1F
100
AcDbEntity
  8
0
 62
     0
100
AcDbLine
 10
915.4128674995806
 20
450.4189712814766
 30
0.0
 11
916.6128674995816
 21
450.4189712814768
 31
0.0
  0
LINE
  5
409
330
1F
100
AcDbEntity
  8
0
 62
     0
100
AcDbLine
 10
915.4128674995844
 20
464.6584928594831
 30
0.0
 11
915.4128674995806
 21
465.6364933616672
 31
0.0
  0
LINE
  5
40A
330
1F
100
AcDbEntity
  8
0
 62
     0
100
AcDbLine
 10
915.6128674995816
 20
465.3584928594836
 30
0.0
 11
916.4128674995806
 21
465.3584928594836
 31
0.0
  0
ARC
  5
40B
330
1F
100
AcDbEntity
  8
0
 62
     0
100
AcDbCircle
 10
915.1128674995815
 20
464.6584928594836
 30
0.0
 40
0.3
100
AcDbArc
 50
270.0
 51
0.000000000117248
  0
ARC
  5
40C
330
1F
100
AcDbEntity
  8
0
 62
     0
100
AcDbCircle
 10
915.1128674995835
 20
469.2584928594825
 30
0.0
 40
0.3
100
AcDbArc
 50
0.000000000117248
 51
90.0
  0
LINE
  5
40D
330
1F
100
AcDbEntity
  8
0
 62
     0
100
AcDbLine
 10
914.2128674995799
 20
464.3584928594836
 30
0.0
 11
915.1128674995815
 21
464.3584928594837
 31
0.0
  0
LINE
  5
40E
330
1F
100
AcDbEntity
  8
0
 62
     0
100
AcDbLine
 10
914.2128674995799
 20
469.5584928594827
 30
0.0
 11
915.1128674995835
 21
469.5584928594827
 31
0.0
  0
LINE
  5
40F
330
1F
100
AcDbEntity
  8
0
 62
     0
100
AcDbLine
 10
915.6128674995816
 20
468.5584928594828
 30
0.0
 11
916.412867499579
 21
468.5584928594827
 31
0.0
  0
LINE
  5
410
330
1F
100
AcDbEntity
  8
0
 62
     0
100
AcDbLine
 10
915.4128674995844
 20
469.2584928594831
 30
0.0
 11
915.4128674995771
 21
468.2804923572998
 31
0.0
  0
LINE
  5
411
102
{ACAD_REACTORS
330
442
102
}
330
1F
100
AcDbEntity
  8
0
 62
     0
100
AcDbLine
 10
913.6128674995816
 20
468.9584928594825
 30
0.0
 11
913.6128674995816
 21
464.9584928594836
 31
0.0
  0
LINE
  5
412
102
{ACAD_REACTORS
330
442
102
}
330
1F
100
AcDbEntity
  8
0
 62
     0
100
AcDbLine
 10
913.6128674995816
 20
468.6717309352788
 30
0.0
 11
915.4128674995806
 21
468.6717309352786
 31
0.0
  0
LINE
  5
413
330
1F
100
AcDbEntity
  8
0
 62
     0
100
AcDbLine
 10
913.6128674995816
 20
465.2452547836873
 30
0.0
 11
915.4128674995806
 21
465.2452547836873
 31
0.0
  0
LINE
  5
414
330
1F
100
AcDbEntity
  8
0
 62
     0
100
AcDbLine
 10
915.7142168779538
 20
468.0804923572988
 30
0.0
 11
916.3142168779522
 21
468.0804923572988
 31
0.0
  0
LINE
  5
415
330
1F
100
AcDbEntity
  8
0
 62
     0
100
AcDbLine
 10
915.6128674995816
 20
465.8364933616676
 30
0.0
 11
916.412867499579
 21
465.8364933616676
 31
0.0
  0
LINE
  5
416
330
1F
100
AcDbEntity
  8
0
 62
     0
100
AcDbLine
 10
915.612867499578
 20
468.0804923572988
 30
0.0
 11
916.4128674995771
 21
468.0804923572987
 31
0.0
  0
ARC
  5
417
330
1F
100
AcDbEntity
  8
0
 62
     0
100
AcDbCircle
 10
915.6128674995816
 20
468.7584928594827
 30
0.0
 40
0.2
100
AcDbArc
 50
179.9999999997003
 51
270.0
  0
ARC
  5
418
330
1F
100
AcDbEntity
  8
0
 62
     0
100
AcDbCircle
 10
916.412867499579
 20
468.7584928594827
 30
0.0
 40
0.2
100
AcDbArc
 50
270.0
 51
359.9999999999283
  0
ARC
  5
419
330
1F
100
AcDbEntity
  8
0
 62
     0
100
AcDbCircle
 10
916.4128674995771
 20
468.2804923572986
 30
0.0
 40
0.2
100
AcDbArc
 50
270.0
 51
359.9999999998893
  0
ARC
  5
41A
330
1F
100
AcDbEntity
  8
0
 62
     0
100
AcDbCircle
 10
915.612867499578
 20
468.2804923572988
 30
0.0
 40
0.2
100
AcDbArc
 50
179.9999999996873
 51
270.0
  0
ARC
  5
41B
330
1F
100
AcDbEntity
  8
0
 62
     0
100
AcDbCircle
 10
915.6128674995816
 20
465.1584928594836
 30
0.0
 40
0.2
100
AcDbArc
 50
90.0
 51
180.0000000001172
  0
ARC
  5
41C
330
1F
100
AcDbEntity
  8
0
 62
     0
100
AcDbCircle
 10
916.4128674995806
 20
465.1584928594838
 30
0.0
 40
0.2
100
AcDbArc
 50
0.0000000000716515
 51
90.0
  0
ARC
  5
41D
330
1F
100
AcDbEntity
  8
0
 62
     0
100
AcDbCircle
 10
916.412867499579
 20
465.6364933616677
 30
0.0
 40
0.2
100
AcDbArc
 50
0.0000000000846791
 51
90.0
  0
ARC
  5
41E
330
1F
100
AcDbEntity
  8
0
 62
     0
100
AcDbCircle
 10
915.6128674995816
 20
465.6364933616676
 30
0.0
 40
0.2
100
AcDbArc
 50
90.0
 51
180.0000000001041
  0
LINE
  5
41F
330
1F
100
AcDbEntity
  8
0
 62
     0
100
AcDbLine
 10
913.6128674995816
 20
450.5747313933721
 30
0.0
 11
913.6128674995816
 21
448.5747313933721
 31
0.0
  0
DIMENSION
  5
420
102
{ACAD_XDICTIONARY
360
421
102
}
102
{ACAD_REACTORS
330
422
102
}
330
1F
100
AcDbEntity
  8
0
 62
     4
100
AcDbDimension
  2
*D13
 10
946.3634237305486
 20
460.9584928594833
 30
0.0
 11
944.6134237305486
 21
466.9584928594835
 31
0.0
 70
    32
 71
     5
 42
12.0
  3
基本（１：１）
100
AcDbAlignedDimension
 13
939.3128674995804
 23
472.9584928594833
 33
0.0
 14
939.3128674995804
 24
460.9584928594833
 34
0.0
 50
90.0
100
AcDbRotatedDimension
1001
ACAD
1000
DSTYLE
1002
{
1070
    40
1040
1.0
1002
}
  0
DIMENSION
  5
423
102
{ACAD_XDICTIONARY
360
424
102
}
102
{ACAD_REACTORS
330
425
102
}
330
1F
100
AcDbEntity
  8
0
 62
     4
100
AcDbDimension
  2
*D14
 10
939.6128674995816
 20
479.3438853909223
 30
0.0
 11
928.1128674995807
 21
481.0938853909223
 31
0.0
 70
    32
 71
     5
 42
23.00000000000182
  3
基本（１：１）
100
AcDbAlignedDimension
 13
916.6128674995798
 23
472.6584928594831
 33
0.0
 14
939.6128674995816
 24
472.6584928594832
 34
0.0
100
AcDbRotatedDimension
1001
ACAD
1000
DSTYLE
1002
{
1070
    40
1040
1.0
1002
}
  0
INSERT
  5
426
330
1F
100
AcDbEntity
  8
寸法線・引き出し線
 62
     2
370
    25
100
AcDbBlockReference
  2
A$C33767BF9
 10
919.4221711489772
 20
464.8627683419348
 30
0.0
  0
ARC
  5
427
330
1F
100
AcDbEntity
  8
寸法線・引き出し線
 62
     2
370
    25
100
AcDbCircle
 10
934.7128674995856
 20
464.8054110201614
 30
0.0
 40
0.4
100
AcDbArc
 50
278.1301023541154
 51
0.0
  0
ARC
  5
428
330
1F
100
AcDbEntity
  8
寸法線・引き出し線
 62
     2
370
    25
100
AcDbCircle
 10
934.7128674995856
 20
469.1115746988051
 30
0.0
 40
0.4
100
AcDbArc
 50
359.9999999999902
 51
81.86989764577955
  0
ARC
  5
429
330
1F
100
AcDbEntity
  8
寸法線・引き出し線
 62
     2
370
    25
100
AcDbCircle
 10
934.7128674995836
 20
464.8054110201615
 30
0.0
 40
0.2
100
AcDbArc
 50
278.1301023541154
 51
0.0
  0
ARC
  5
42A
330
1F
100
AcDbEntity
  8
寸法線・引き出し線
 62
     2
370
    25
100
AcDbCircle
 10
934.7128674995856
 20
469.1115746988051
 30
0.0
 40
0.2
100
AcDbArc
 50
359.9999999999902
 51
81.86989764577955
  0
LINE
  5
42B
330
1F
100
AcDbEntity
  8
寸法線・引き出し線
 62
     2
370
    25
100
AcDbLine
 10
917.4167675281841
 20
462.1325090867659
 30
0.0
 11
934.7411517708312
 21
464.6074211214292
 31
0.0
  0
LINE
  5
42C
330
1F
100
AcDbEntity
  8
寸法線・引き出し線
 62
     2
370
    25
100
AcDbLine
 10
934.9128674995846
 20
469.1115746988051
 30
0.0
 11
934.9128674995826
 21
464.8054110201615
 31
0.0
  0
LINE
  5
42D
330
1F
100
AcDbEntity
  8
寸法線・引き出し線
 62
     2
370
    25
100
AcDbLine
 10
917.4167675281861
 20
471.7844766322006
 30
0.0
 11
934.7411517708334
 21
469.3095645975374
 31
0.0
  0
LINE
  5
42E
330
1F
100
AcDbEntity
  8
寸法線・引き出し線
 62
     2
370
    25
100
AcDbLine
 10
917.6128674995815
 20
461.9584928594837
 30
0.0
 11
934.769436042081
 21
464.4094312226966
 31
0.0
  0
LINE
  5
42F
330
1F
100
AcDbEntity
  8
寸法線・引き出し線
 62
     2
370
    25
100
AcDbLine
 10
917.6128674995798
 20
471.9584928594833
 30
0.0
 11
934.769436042081
 21
469.5075544962698
 31
0.0
  0
LINE
  5
430
330
1F
100
AcDbEntity
  8
寸法線・引き出し線
 62
     2
370
    25
100
AcDbLine
 10
935.1128674995834
 20
469.1115746988053
 30
0.0
 11
935.1128674995852
 21
464.8054110201615
 31
0.0
  0
LINE
  5
431
330
1F
100
AcDbEntity
  8
寸法線・引き出し線
 62
     2
370
    25
100
AcDbLine
 10
917.4128674995827
 20
471.7810158042376
 30
0.0
 11
917.412867499579
 21
462.1359699147259
 31
0.0
  0
LINE
  5
432
330
1F
100
AcDbEntity
  8
寸法線・引き出し線
 62
     2
370
    25
100
AcDbLine
 10
917.6128674995798
 20
461.2584928594833
 30
0.0
 11
917.6128674995815
 21
461.9584928594837
 31
0.0
  0
LINE
  5
433
102
{ACAD_REACTORS
330
425
102
}
330
1F
100
AcDbEntity
  8
寸法線・引き出し線
 62
     2
370
    25
100
AcDbLine
 10
916.6128674995833
 20
461.2584928594831
 30
0.0
 11
916.6128674995798
 21
472.6584928594832
 31
0.0
  0
LINE
  5
434
102
{ACAD_REACTORS
330
425
102
}
330
1F
100
AcDbEntity
  8
寸法線・引き出し線
 62
     2
370
    25
100
AcDbLine
 10
939.6128674995816
 20
472.6584928594832
 30
0.0
 11
939.6128674995816
 21
461.2584928594833
 31
0.0
  0
LINE
  5
435
330
1F
100
AcDbEntity
  8
寸法線・引き出し線
 62
     2
370
    25
100
AcDbLine
 10
916.9128674995807
 20
472.9584928594833
 30
0.0
 11
939.3128674995804
 21
472.9584928594833
 31
0.0
  0
LINE
  5
436
102
{ACAD_REACTORS
330
422
102
}
330
1F
100
AcDbEntity
  8
寸法線・引き出し線
 62
     2
370
    25
100
AcDbLine
 10
916.9128674995826
 20
460.9584928594832
 30
0.0
 11
939.3128674995804
 21
460.9584928594832
 31
0.0
  0
LINE
  5
437
330
1F
100
AcDbEntity
  8
寸法線・引き出し線
 62
     2
370
    25
100
AcDbLine
 10
917.6128674995798
 20
471.9584928594835
 30
0.0
 11
917.6128674995815
 21
472.6584928594831
 31
0.0
  0
LINE
  5
438
330
1F
100
AcDbEntity
  8
寸法線・引き出し線
 62
     2
370
    25
100
AcDbLine
 10
917.412867499579
 20
462.1359699147269
 30
0.0
 11
917.6128674995815
 21
461.9584928594831
 31
0.0
  0
LINE
  5
439
330
1F
100
AcDbEntity
  8
寸法線・引き出し線
 62
     2
370
    25
100
AcDbLine
 10
917.4128674995827
 20
471.7810158042391
 30
0.0
 11
917.6128674995798
 21
471.9584928594833
 31
0.0
  0
ARC
  5
43A
102
{ACAD_REACTORS
330
422
102
}
330
1F
100
AcDbEntity
  8
寸法線・引き出し線
 62
     2
370
    25
100
AcDbCircle
 10
939.3128674995804
 20
472.6584928594832
 30
0.0
 40
0.3
100
AcDbArc
 50
0.0
 51
90.0
  0
ARC
  5
43B
330
1F
100
AcDbEntity
  8
寸法線・引き出し線
 62
     2
370
    25
100
AcDbCircle
 10
939.3128674995804
 20
461.2584928594833
 30
0.0
 40
0.3
100
AcDbArc
 50
270.0
 51
0.0
  0
ARC
  5
43C
330
1F
100
AcDbEntity
  8
寸法線・引き出し線
 62
     2
370
    25
100
AcDbCircle
 10
917.9128674995792
 20
461.2584928594832
 30
0.0
 40
0.3
100
AcDbArc
 50
179.9999999999641
 51
270.0
  0
ARC
  5
43D
330
1F
100
AcDbEntity
  8
寸法線・引き出し線
 62
     2
370
    25
100
AcDbCircle
 10
917.9128674995826
 20
472.6584928594832
 30
0.0
 40
0.3
100
AcDbArc
 50
90.0
 51
180.0000000000358
  0
ARC
  5
43E
102
{ACAD_REACTORS
330
425
102
}
330
1F
100
AcDbEntity
  8
寸法線・引き出し線
 62
     2
370
    25
100
AcDbCircle
 10
916.9128674995807
 20
472.6584928594832
 30
0.0
 40
0.3
100
AcDbArc
 50
90.0
 51
180.0000000000098
  0
ARC
  5
43F
330
1F
100
AcDbEntity
  8
寸法線・引き出し線
 62
     2
370
    25
100
AcDbCircle
 10
916.9128674995826
 20
461.2584928594832
 30
0.0
 40
0.3
100
AcDbArc
 50
180.0000000000098
 51
270.0
  0
DIMENSION
  5
440
102
{ACAD_XDICTIONARY
360
441
102
}
102
{ACAD_REACTORS
330
442
102
}
330
1F
100
AcDbEntity
  8
0
 62
     4
100
AcDbDimension
  2
*D15
 10
913.6128674995816
 20
479.3438853909223
 30
0.0
 11
915.1128674995806
 21
481.0938853909223
 31
0.0
 70
    32
 71
     5
 42
2.999999999998181
  3
基本（１：１）
100
AcDbAlignedDimension
 13
916.6128674995798
 23
473.658492859483
 33
0.0
 14
913.6128674995816
 24
468.6717309352788
 34
0.0
100
AcDbRotatedDimension
1001
ACAD
1000
DSTYLE
1002
{
1070
    40
1040
1.0
1002
}
  0
DIMENSION
  5
443
102
{ACAD_XDICTIONARY
360
444
102
}
102
{ACAD_REACTORS
330
445
102
}
330
1F
100
AcDbEntity
  8
0
 62
     4
100
AcDbDimension
  2
*D16
 10
946.4634237305492
 20
447.074731393372
 30
0.0
 11
944.7134237305487
 21
449.8247313933721
 31
0.0
 70
    32
 71
     5
 42
5.500000000000113
  3
基本（１：１）
100
AcDbAlignedDimension
 13
938.1128674995833
 23
452.5747313933719
 33
0.0
 14
935.3798743908974
 24
447.074731393372
 34
0.0
 50
90.0
100
AcDbRotatedDimension
1001
ACAD
1000
DSTYLE
1002
{
1070
    40
1040
1.0
1002
}
  0
ARC
  5
446
330
1F
100
AcDbEntity
  8
寸法線・引き出し線
 62
     2
370
    25
100
AcDbCircle
 10
935.3798743908974
 20
447.574731393372
 30
0.0
 40
0.5
100
AcDbArc
 50
270.0
 51
319.9697407282078
  0
LINE
  5
447
102
{ACAD_REACTORS
330
445
102
}
330
1F
100
AcDbEntity
  8
寸法線・引き出し線
 62
     2
370
    25
100
AcDbLine
 10
935.3798743908974
 20
447.074731393372
 30
0.0
 11
917.6128674995798
 21
447.0747313933716
 31
0.0
  0
LINE
  5
448
102
{ACAD_REACTORS
330
445
102
}
330
1F
100
AcDbEntity
  8
寸法線・引き出し線
 62
     2
370
    25
100
AcDbLine
 10
917.6128674995798
 20
452.5747313933717
 30
0.0
 11
938.1128674995833
 21
452.5747313933719
 31
0.0
  0
LINE
  5
449
330
1F
100
AcDbEntity
  8
寸法線・引き出し線
 62
     2
370
    25
100
AcDbLine
 10
935.7627268232915
 20
447.2531353501606
 30
0.0
 11
937.7128674995821
 21
449.5747313933718
 31
0.0
  0
ARC
  5
44A
330
1F
100
AcDbEntity
  8
寸法線・引き出し線
 62
     2
370
    25
100
AcDbCircle
 10
938.1128674995833
 20
451.0747313933719
 30
0.0
 40
1.5
100
AcDbArc
 50
270.0
 51
90.0
  0
LINE
  5
44B
102
{ACAD_REACTORS
330
451
102
}
330
1F
100
AcDbEntity
  8
寸法線・引き出し線
 62
     2
370
    25
100
AcDbLine
 10
916.6128674995816
 20
451.5747313933723
 30
0.0
 11
917.6128674995798
 21
452.5747313933719
 31
0.0
  0
LINE
  5
44C
330
1F
100
AcDbEntity
  8
寸法線・引き出し線
 62
     2
370
    25
100
AcDbLine
 10
916.6128674995833
 20
451.5747313933736
 30
0.0
 11
916.6128674995798
 21
448.0747313933726
 31
0.0
  0
ARC
  5
44D
330
1F
100
AcDbEntity
  8
寸法線・引き出し線
 62
     2
370
    25
100
AcDbCircle
 10
917.6128674995798
 20
448.0747313933717
 30
0.0
 40
1.0
100
AcDbArc
 50
179.9999999999348
 51
270.0
  0
LINE
  5
44E
330
1F
100
AcDbEntity
  8
0
 62
     2
100
AcDbLine
 10
938.1128674995833
 20
449.5747313933718
 30
0.0
 11
916.6128674995887
 21
449.5747313933726
 31
0.0
  0
DIMENSION
  5
44F
102
{ACAD_XDICTIONARY
360
450
102
}
102
{ACAD_REACTORS
330
451
102
}
330
1F
100
AcDbEntity
  8
0
 62
     4
100
AcDbDimension
  2
*D17
 10
907.6608130868788
 20
452.5747313933719
 30
0.0
 11
905.9108130868787
 21
456.799163211554
 31
0.0
 70
    32
 71
     5
 42
2.000000000000681
  3
基本（１：１）
100
AcDbAlignedDimension
 13
913.6128674995816
 23
450.5747313933713
 33
0.0
 14
917.6128674995798
 24
452.5747313933719
 34
0.0
 50
90.0
100
AcDbRotatedDimension
1001
ACAD
1000
DSTYLE
1002
{
1070
    40
1040
1.0
1002
}
  0
LINE
  5
452
330
1F
100
AcDbEntity
  8
0
 62
     0
100
AcDbLine
 10
916.7643393621691
 20
444.8404168183258
 30
0.0
 11
918.9986539372112
 21
447.0747313933716
 31
0.0
  0
LINE
  5
453
330
1F
100
AcDbEntity
  8
0
 62
     0
100
AcDbLine
 10
917.4714461433522
 20
444.1333100371302
 30
0.0
 11
920.3542888558258
 21
447.0161527496088
 31
0.0
  0
ARC
  5
454
330
1F
100
AcDbEntity
  8
0
 62
     0
100
AcDbCircle
 10
917.6128674995959
 20
443.9918886809016
 30
0.0
 40
1.199999999999999
100
AcDbArc
 50
135.0000000000115
 51
179.999999999987
  0
LINE
  5
455
330
1F
100
AcDbEntity
  8
0
 62
     0
100
AcDbLine
 10
916.4128674995954
 20
443.9918886809016
 30
0.0
 11
916.4128674995936
 21
434.2675517164043
 31
0.0
  0
LINE
  5
456
330
1F
100
AcDbEntity
  8
0
 62
     0
100
AcDbLine
 10
917.41286749959
 20
434.2675517164023
 30
0.0
 11
917.41286749959
 21
443.9918886808928
 31
0.0
  0
ARC
  5
457
330
1F
100
AcDbEntity
  8
0
 62
     0
100
AcDbCircle
 10
917.6128674995888
 20
443.9918886808928
 30
0.0
 40
0.2
100
AcDbArc
 50
135.0000000000115
 51
180.0000000000032
  0
ARC
  5
458
330
1F
100
AcDbEntity
  8
0
 62
     6
100
AcDbCircle
 10
920.4957102120642
 20
446.8747313933723
 30
0.0
 40
0.2
100
AcDbArc
 50
90.0
 51
135.0000000000115
  0
DIMENSION
  5
459
330
1F
100
AcDbEntity
  8
0
 62
     3
100
AcDbDimension
  2
*D8
 10
922.0766746778135
 20
443.1272175243667
 30
0.0
 11
923.2558846157187
 21
442.2149834611301
 31
0.0
 70
   164
  1
{\fArial|b0|i0|c0|p32;C}3
 71
     5
 42
3.999999999998236
  3
基本（１：１）
100
AcDbRadialDimension
 15
918.9128674995842
 25
445.5747313933716
 35
0.0
 40
0.0
1001
ACAD
1000
DSTYLE
1002
{
1070
    40
1040
1.0
1070
   288
1070
     1
1002
}
  0
LINE
  5
45A
330
1F
100
AcDbEntity
  8
0
 62
     0
100
AcDbLine
 10
961.998771574048
 20
462.9584928594831
 30
0.0
 11
961.998771574048
 21
470.9584928594831
 31
0.0
  0
LINE
  5
45B
330
1F
100
AcDbEntity
  8
0
 62
     0
100
AcDbLine
 10
958.9924655480407
 20
462.9584928594831
 30
0.0
 11
958.9924655480407
 21
470.9584928594831
 31
0.0
  0
LINE
  5
45C
330
1F
100
AcDbEntity
  8
0
 62
     0
100
AcDbLine
 10
971.4924655480388
 20
464.8584928594829
 30
0.0
 11
971.4924655480388
 21
463.9584928594833
 31
0.0
  0
LINE
  5
45D
330
1F
100
AcDbEntity
  8
0
 62
     0
100
AcDbLine
 10
972.0924655480393
 20
465.4584928594831
 30
0.0
 11
973.686618389922
 21
465.4584928594831
 31
0.0
  0
LINE
  5
45E
330
1F
100
AcDbEntity
  8
0
 62
     0
100
AcDbLine
 10
972.0924655480393
 20
468.4584928594868
 30
0.0
 11
973.686618389922
 21
468.4584928594868
 31
0.0
  0
LINE
  5
45F
330
1F
100
AcDbEntity
  8
0
 62
     0
100
AcDbLine
 10
971.4924655480388
 20
469.9584928594831
 30
0.0
 11
971.4924655480388
 21
469.0584928594853
 31
0.0
  0
LINE
  5
460
330
1F
100
AcDbEntity
  8
0
 62
     0
100
AcDbLine
 10
957.4924655480463
 20
462.9584928594828
 30
0.0
 11
970.492465548039
 21
462.9584928594796
 31
0.0
  0
LINE
  5
461
330
1F
100
AcDbEntity
  8
0
 62
     0
100
AcDbLine
 10
957.4924655480426
 20
470.9584928594831
 30
0.0
 11
970.492465548039
 21
470.9584928594831
 31
0.0
  0
ARC
  5
462
330
1F
100
AcDbEntity
  8
0
 62
     0
100
AcDbCircle
 10
973.686618389922
 20
465.8584928594805
 30
0.0
 40
0.4
100
AcDbArc
 50
270.0
 51
324.4623222079987
  0
ARC
  5
463
330
1F
100
AcDbEntity
  8
0
 62
     0
100
AcDbCircle
 10
973.686618389922
 20
468.058492859485
 30
0.0
 40
0.4
100
AcDbArc
 50
35.53767779200127
 51
90.0
  0
ARC
  5
464
330
1F
100
AcDbEntity
  8
0
 62
     0
100
AcDbCircle
 10
973.1924655480396
 20
466.5430509235752
 30
0.0
 40
1.199999999999999
100
AcDbArc
 50
324.4623222079987
 51
0.0
  0
ARC
  5
465
330
1F
100
AcDbEntity
  8
0
 62
     0
100
AcDbCircle
 10
973.1924655480396
 20
467.3739347953921
 30
0.0
 40
1.199999999999999
100
AcDbArc
 50
0.0
 51
35.53767779200127
  0
LINE
  5
466
330
1F
100
AcDbEntity
  8
0
 62
     0
100
AcDbLine
 10
974.1689457134873
 20
468.0714206278554
 30
0.0
 11
974.0121117784038
 21
468.2909881369725
 31
0.0
  0
LINE
  5
467
330
1F
100
AcDbEntity
  8
0
 62
     0
100
AcDbLine
 10
974.0121117784038
 20
465.6259975819939
 30
0.0
 11
974.1689457134873
 21
465.8455650911109
 31
0.0
  0
LINE
  5
468
330
1F
100
AcDbEntity
  8
0
 62
     0
100
AcDbLine
 10
974.3924655480402
 20
467.3739347953925
 30
0.0
 11
974.3924655480402
 21
466.5430509235758
 31
0.0
  0
LINE
  5
469
330
1F
100
AcDbEntity
  8
0
 62
     0
100
AcDbLine
 10
972.4924655480393
 20
465.4584928594831
 30
0.0
 11
972.4924655480393
 21
468.4584928594868
 31
0.0
  0
ARC
  5
46A
330
1F
100
AcDbEntity
  8
0
 62
     0
100
AcDbCircle
 10
972.0924655480413
 20
464.8584928594823
 30
0.0
 40
0.6
100
AcDbArc
 50
90.0
 51
180.0
  0
ARC
  5
46B
330
1F
100
AcDbEntity
  8
0
 62
     0
100
AcDbCircle
 10
972.0924655480413
 20
469.058492859485
 30
0.0
 40
0.6
100
AcDbArc
 50
180.0
 51
270.0
  0
ARC
  5
46C
330
1F
100
AcDbEntity
  8
0
 62
     0
100
AcDbCircle
 10
970.492465548039
 20
469.9584928594828
 30
0.0
 40
1.0
100
AcDbArc
 50
0.0
 51
90.0
  0
ARC
  5
46D
330
1F
100
AcDbEntity
  8
0
 62
     0
100
AcDbCircle
 10
970.492465548039
 20
463.9584928594826
 30
0.0
 40
1.0
100
AcDbArc
 50
270.0
 51
0.0
  0
LINE
  5
46E
330
1F
100
AcDbEntity
  8
寸法線・引き出し線
 62
     2
370
    25
100
AcDbLine
 10
957.4924655480426
 20
471.0584928594805
 30
0.0
 11
958.6924655480434
 21
471.0584928594805
 31
0.0
  0
LINE
  5
46F
330
1F
100
AcDbEntity
  8
寸法線・引き出し線
 62
     2
370
    25
100
AcDbLine
 10
957.4924655480444
 20
462.8584928594864
 30
0.0
 11
958.6924655480451
 21
462.8584928594854
 31
0.0
  0
LINE
  5
470
330
1F
100
AcDbEntity
  8
寸法線・引き出し線
 62
     2
370
    25
100
AcDbLine
 10
956.4924655480425
 20
461.2584928594828
 30
0.0
 11
956.4924655480444
 21
472.6584928594838
 31
0.0
  0
LINE
  5
471
330
1F
100
AcDbEntity
  8
寸法線・引き出し線
 62
     2
370
    25
100
AcDbLine
 10
953.7924655480438
 20
460.9584928594828
 30
0.0
 11
956.1924655480432
 21
460.9584928594828
 31
0.0
  0
LINE
  5
472
330
1F
100
AcDbEntity
  8
寸法線・引き出し線
 62
     2
370
    25
100
AcDbLine
 10
953.7924655480438
 20
472.9584928594838
 30
0.0
 11
956.1924655480432
 21
472.9584928594838
 31
0.0
  0
LINE
  5
473
330
1F
100
AcDbEntity
  8
寸法線・引き出し線
 62
     2
370
    25
100
AcDbLine
 10
953.4924655480427
 20
461.2584928594828
 30
0.0
 11
953.4924655480427
 21
472.6584928594838
 31
0.0
  0
ARC
  5
474
330
1F
100
AcDbEntity
  8
寸法線・引き出し線
 62
     2
370
    25
100
AcDbCircle
 10
953.7924655480438
 20
461.2584928594828
 30
0.0
 40
0.3
100
AcDbArc
 50
180.0
 51
270.0
  0
ARC
  5
475
330
1F
100
AcDbEntity
  8
寸法線・引き出し線
 62
     2
370
    25
100
AcDbCircle
 10
953.7924655480438
 20
472.6584928594838
 30
0.0
 40
0.3
100
AcDbArc
 50
90.0
 51
180.0
  0
ARC
  5
476
330
1F
100
AcDbEntity
  8
寸法線・引き出し線
 62
     2
370
    25
100
AcDbCircle
 10
956.1924655480432
 20
472.6584928594838
 30
0.0
 40
0.3
100
AcDbArc
 50
0.0
 51
90.0
  0
ARC
  5
477
330
1F
100
AcDbEntity
  8
寸法線・引き出し線
 62
     2
370
    25
100
AcDbCircle
 10
956.1924655480432
 20
461.2584928594828
 30
0.0
 40
0.3
100
AcDbArc
 50
270.0
 51
359.9999999999935
  0
LINE
  5
478
330
1F
100
AcDbEntity
  8
寸法線・引き出し線
 62
     2
370
    25
100
AcDbLine
 10
956.4924655480444
 20
471.9584928594844
 30
0.0
 11
958.9924655480443
 21
471.7584928594847
 31
0.0
  0
LINE
  5
479
330
1F
100
AcDbEntity
  8
寸法線・引き出し線
 62
     2
370
    25
100
AcDbLine
 10
958.9924655480443
 20
462.1584928594863
 30
0.0
 11
956.4924655480425
 21
461.9584928594838
 31
0.0
  0
LINE
  5
47A
330
1F
100
AcDbEntity
  8
寸法線・引き出し線
 62
     2
370
    25
100
AcDbLine
 10
958.9924655480443
 20
471.7584928594847
 30
0.0
 11
958.9924655480428
 21
471.3584928594803
 31
0.0
  0
LINE
  5
47B
330
1F
100
AcDbEntity
  8
寸法線・引き出し線
 62
     2
370
    25
100
AcDbLine
 10
958.9924655480462
 20
462.5584928594851
 30
0.0
 11
958.9924655480443
 21
462.1584928594863
 31
0.0
  0
LINE
  5
47C
330
1F
100
AcDbEntity
  8
寸法線・引き出し線
 62
     2
370
    25
100
AcDbLine
 10
958.6924655480434
 20
471.0584928594805
 30
0.0
 11
958.6924655480416
 21
471.0584928594805
 31
0.0
  0
LINE
  5
47D
330
1F
100
AcDbEntity
  8
寸法線・引き出し線
 62
     2
370
    25
100
AcDbLine
 10
958.6924655480416
 20
471.0584928594805
 30
0.0
 11
958.9924655480428
 21
471.3584928594803
 31
0.0
  0
LINE
  5
47E
330
1F
100
AcDbEntity
  8
寸法線・引き出し線
 62
     2
370
    25
100
AcDbLine
 10
958.6924655480451
 20
462.8584928594854
 30
0.0
 11
958.9924655480462
 21
462.5584928594851
 31
0.0
  0
LINE
  5
47F
330
1F
100
AcDbEntity
  8
寸法線・引き出し線
 62
     2
370
    25
100
AcDbLine
 10
957.4924655480444
 20
462.8584928594864
 30
0.0
 11
957.4924655480426
 21
471.0584928594805
 31
0.0
  0
LINE
  5
480
330
1F
100
AcDbEntity
  8
図枠
 62
     5
370
    18
100
AcDbLine
 10
996.1852871437804
 20
497.5077731654471
 30
0.0
 11
796.1852871437803
 21
497.5077731654471
 31
0.0
  0
LINE
  5
481
330
1F
100
AcDbEntity
  8
図枠
  6
DOT
370
     5
100
AcDbLine
 10
998.6752871437785
 20
355.3927731654472
 30
0.0
 11
998.6752871437785
 21
499.6227731654471
 31
0.0
  0
LINE
  5
482
330
1F
100
AcDbEntity
  8
図枠
  6
DOT
370
     5
100
AcDbLine
 10
998.6752871437785
 20
499.6227731654471
 30
0.0
 11
793.6952871437787
 21
499.6227731654471
 31
0.0
  0
LINE
  5
483
330
1F
100
AcDbEntity
  8
図枠
  6
DOT
370
     5
100
AcDbLine
 10
793.6952871437787
 20
355.3927731654472
 30
0.0
 11
998.6752871437785
 21
355.3927731654472
 31
0.0
  0
LINE
  5
484
330
1F
100
AcDbEntity
  8
図枠
  6
DOT
370
     5
100
AcDbLine
 10
793.6952871437787
 20
355.3927731654472
 30
0.0
 11
793.6952871437787
 21
499.6227731654471
 31
0.0
  0
LINE
  5
485
330
1F
100
AcDbEntity
  8
図枠
 62
     5
370
    18
100
AcDbLine
 10
796.1852871437803
 20
357.5077731654471
 30
0.0
 11
796.1852871437803
 21
497.5077731654471
 31
0.0
  0
LINE
  5
486
330
1F
100
AcDbEntity
  8
図枠
 62
     5
370
    18
100
AcDbLine
 10
996.1852871437804
 20
357.5077731654471
 30
0.0
 11
796.1852871437803
 21
357.5077731654471
 31
0.0
  0
LINE
  5
487
330
1F
100
AcDbEntity
  8
図枠
 62
     5
370
    18
100
AcDbLine
 10
996.1852871437804
 20
357.5077731654471
 30
0.0
 11
996.1852871437804
 21
497.5077731654471
 31
0.0
  0
MTEXT
  5
488
330
1F
100
AcDbEntity
  8
0
  6
Continuous
370
     0
100
AcDbMText
 10
966.1852871437803
 20
375.7577731654472
 30
0.0
 40
1.75
 41
60.0
 71
     5
 72
     5
  1
{\fMS Gothic|b0|i0|c128|p48;指定無き公差はJIS B0408-Bによること}
  7
ゴシック
 73
     1
 44
1.0
1001
ACAD
1000
MTEXTBEGIN
1070
    73
1070
     1
1070
    44
1040
1.0
1070
    74
1070
     0
1000
MTEXTEND
  0
MTEXT
  5
489
330
1F
100
AcDbEntity
  8
0
  6
Continuous
370
     0
100
AcDbMText
 10
929.9352871437802
 20
375.7577731654472
 30
0.0
 40
1.75
 41
12.5
 71
     5
 72
     5
  1
{\fMS Gothic|b0|i0|c128|p48;一般公差}
  7
ゴシック
 73
     1
 44
1.0
1001
ACAD
1000
MTEXTBEGIN
1070
    73
1070
     1
1070
    44
1040
1.0
1070
    74
1070
     0
1000
MTEXTEND
  0
LINE
  5
48A
330
1F
100
AcDbEntity
  8
図枠
370
     5
100
AcDbLine
 10
996.1852871437804
 20
377.5077731654473
 30
0.0
 11
923.6852871437802
 21
377.5077731654473
 31
0.0
  0
LINE
  5
48B
330
1F
100
AcDbEntity
  8
図枠
370
     5
100
AcDbLine
 10
996.1852871437804
 20
374.0077731654471
 30
0.0
 11
923.6852871437802
 21
374.0077731654471
 31
0.0
  0
LINE
  5
48C
330
1F
100
AcDbEntity
  8
図枠
370
     5
100
AcDbLine
 10
923.6852871437802
 20
377.5077731654473
 30
0.0
 11
923.6852871437802
 21
374.0077731654471
 31
0.0
  0
LINE
  5
48D
330
1F
100
AcDbEntity
  8
図枠
370
     5
100
AcDbLine
 10
993.2840976897168
 20
381.0077731654473
 30
0.0
 11
902.6364378849883
 21
381.0077731654473
 31
0.0
  0
LINE
  5
48E
330
1F
100
AcDbEntity
  8
図枠
370
    18
100
AcDbLine
 10
948.8459134182267
 20
360.8850545151505
 30
0.0
 11
950.8459134182269
 21
360.8850545151505
 31
0.0
  0
LINE
  5
48F
330
1F
100
AcDbEntity
  8
図枠
370
    18
100
AcDbLine
 10
948.8459134182267
 20
358.5461096488911
 30
0.0
 11
950.0959134182268
 21
358.5461096488911
 31
0.0
  0
LINE
  5
490
330
1F
100
AcDbEntity
  8
図枠
370
    18
100
AcDbLine
 10
957.379125209969
 20
360.2961096488912
 30
0.0
 11
958.9546547423667
 21
360.2961096488912
 31
0.0
  0
LINE
  5
491
330
1F
100
AcDbEntity
  8
図枠
370
    18
100
AcDbLine
 10
945.5156103879234
 20
362.0461096488912
 30
0.0
 11
945.5156103879234
 21
361.0461096488912
 31
0.0
  0
LINE
  5
492
330
1F
100
AcDbEntity
  8
図枠
370
    18
100
AcDbLine
 10
952.8459134182266
 20
361.2961096488912
 30
0.0
 11
953.3459134182267
 21
362.0461096488912
 31
0.0
  0
LINE
  5
493
330
1F
100
AcDbEntity
  8
図枠
370
    18
100
AcDbLine
 10
952.2772730942689
 20
359.6215440444043
 30
0.0
 11
952.1882220643727
 21
359.5343549723096
 31
0.0
  0
LINE
  5
494
330
1F
100
AcDbEntity
  8
図枠
370
    18
100
AcDbLine
 10
944.5156103879234
 20
361.0461096488912
 30
0.0
 11
944.5156103879234
 21
361.2961096488912
 31
0.0
  0
LINE
  5
495
330
1F
100
AcDbEntity
  8
図枠
370
    18
100
AcDbLine
 10
956.0853214090347
 20
359.8961096488912
 30
0.0
 11
955.9679880756993
 21
360.2961096488912
 31
0.0
  0
LINE
  5
496
330
1F
100
AcDbEntity
  8
図枠
370
    18
100
AcDbLine
 10
946.7656103879235
 20
361.2961096488912
 30
0.0
 11
947.5156103879236
 21
362.0461096488912
 31
0.0
  0
LINE
  5
497
330
1F
100
AcDbEntity
  8
図枠
370
    18
100
AcDbLine
 10
943.2656103879237
 20
360.2961096488912
 30
0.0
 11
943.2656103879237
 21
359.5461096488912
 31
0.0
  0
SPLINE
  5
498
330
1F
100
AcDbEntity
  8
図枠
370
    18
100
AcDbSpline
210
0.0
220
0.0
230
1.0
 70
     8
 71
     3
 72
     9
 73
     5
 74
     0
 42
0.000000001
 43
0.0000000001
 40
0.0
 40
0.0
 40
0.0
 40
0.0
 40
0.5
 40
1.0
 40
1.0
 40
1.0
 40
1.0
 10
948.8459134182267
 20
360.7239993814098
 30
0.0
 10
949.323215719909
 20
360.2840301331811
 30
0.0
 10
949.8005180218932
 20
359.8440608846755
 30
0.0
 10
950.3404236476743
 20
359.5198484962073
 30
0.0
 10
950.3404236480147
 20
359.5198484960032
 30
0.0
  0
SPLINE
  5
499
330
1F
100
AcDbEntity
  8
図枠
370
    18
100
AcDbSpline
210
0.0
220
0.0
230
1.0
 70
     8
 71
     3
 72
     8
 73
     4
 74
     0
 42
0.000000001
 43
0.0000000001
 40
0.0
 40
0.0
 40
0.0
 40
0.0
 40
1.0
 40
1.0
 40
1.0
 40
1.0
 10
951.5753068152752
 20
358.9779433095694
 30
0.0
 10
952.1448499583492
 20
358.7957990642081
 30
0.0
 10
952.7453816882879
 20
358.6709543565496
 30
0.0
 10
953.3459134182267
 20
358.5461096488911
 30
0.0
  0
SPLINE
  5
49A
330
1F
100
AcDbEntity
  8
図枠
370
    18
100
AcDbSpline
210
0.0
220
0.0
230
1.0
 70
     8
 71
     3
 72
     8
 73
     4
 74
     0
 42
0.000000001
 43
0.0000000001
 40
0.0
 40
0.0
 40
0.0
 40
0.0
 40
1.0
 40
1.0
 40
1.0
 40
1.0
 10
950.5630707057498
 20
360.6022118026759
 30
0.0
 10
950.702756919407
 20
360.4464616857293
 30
0.0
 10
950.842443133064
 20
360.2907115687826
 30
0.0
 10
950.99377176091
 20
360.1537050160592
 30
0.0
  0
SPLINE
  5
49B
330
1F
100
AcDbEntity
  8
図枠
370
    18
100
AcDbSpline
210
0.0
220
0.0
230
1.0
 70
     8
 71
     3
 72
     8
 73
     4
 74
     0
 42
0.000000001
 43
0.0000000001
 40
0.0
 40
0.0
 40
0.0
 40
0.0
 40
1.0
 40
1.0
 40
1.0
 40
1.0
 10
952.1882220643727
 20
359.5343549723096
 30
0.0
 10
952.5581066911383
 20
359.4291607475563
 30
0.0
 10
952.9520100546815
 20
359.3626351982238
 30
0.0
 10
953.3459134182267
 20
359.2961096488912
 30
0.0
  0
LINE
  5
49C
330
1F
100
AcDbEntity
  8
図枠
370
    18
100
AcDbLine
 10
944.5156103879234
 20
359.5461096488912
 30
0.0
 11
944.5156103879234
 21
360.2961096488912
 31
0.0
  0
LINE
  5
49D
330
1F
100
AcDbEntity
  8
図枠
370
     5
100
AcDbLine
 10
961.1852871437802
 20
374.0077731654471
 30
0.0
 11
961.1852871437802
 21
357.5077731654471
 31
0.0
  0
LINE
  5
49E
330
1F
100
AcDbEntity
  8
図枠
370
    18
100
AcDbLine
 10
948.8459134182267
 20
358.5461096488911
 30
0.0
 11
948.8459134182267
 21
359.2961096488912
 31
0.0
  0
LINE
  5
49F
330
1F
100
AcDbEntity
  8
図枠
370
    18
100
AcDbLine
 10
957.0469397952763
 20
361.4504740941247
 30
0.0
 11
957.454654742367
 21
362.0461096488912
 31
0.0
  0
LINE
  5
4A0
330
1F
100
AcDbEntity
  8
図枠
370
    18
100
AcDbLine
 10
954.4546547423667
 20
361.1961096488911
 30
0.0
 11
955.7039880757001
 21
361.1961096488911
 31
0.0
  0
LINE
  5
4A1
330
1F
100
AcDbEntity
  8
図枠
370
    18
100
AcDbLine
 10
946.7656103879235
 20
361.0461096488912
 30
0.0
 11
946.7656103879235
 21
361.2961096488912
 31
0.0
  0
LINE
  5
4A2
330
1F
100
AcDbEntity
  8
図枠
370
    18
100
AcDbLine
 10
947.5156103879236
 20
361.0461096488912
 30
0.0
 11
946.7656103879235
 21
361.0461096488912
 31
0.0
  0
LINE
  5
4A3
330
1F
100
AcDbEntity
  8
図枠
370
    18
100
AcDbLine
 10
954.4546547423667
 20
360.2961096488912
 30
0.0
 11
955.9679880756993
 21
360.2961096488912
 31
0.0
  0
LINE
  5
4A4
330
1F
100
AcDbEntity
  8
図枠
370
    18
100
AcDbLine
 10
944.5156103879234
 20
360.2961096488912
 30
0.0
 11
945.5156103879234
 21
360.2961096488912
 31
0.0
  0
LINE
  5
4A5
330
1F
100
AcDbEntity
  8
図枠
370
    18
100
AcDbLine
 10
948.8459134182267
 20
361.1461096488913
 30
0.0
 11
951.3459134182268
 21
361.1461096488913
 31
0.0
  0
LINE
  5
4A6
330
1F
100
AcDbEntity
  8
図枠
370
    18
100
AcDbLine
 10
944.7656103879236
 20
359.2961096488912
 30
0.0
 11
943.2656103879237
 21
359.2961096488912
 31
0.0
  0
LINE
  5
4A7
330
1F
100
AcDbEntity
  8
図枠
370
    18
100
AcDbLine
 10
956.5546547423672
 20
358.2961096488912
 30
0.0
 11
956.3493214090341
 21
358.9961096488912
 31
0.0
  0
LINE
  5
4A8
330
1F
100
AcDbEntity
  8
図枠
370
    18
100
AcDbLine
 10
953.3459134182267
 20
362.0461096488912
 30
0.0
 11
948.8459134182267
 21
362.0461096488912
 31
0.0
  0
LINE
  5
4A9
330
1F
100
AcDbEntity
  8
図枠
370
    18
100
AcDbLine
 10
957.120136920388
 20
361.1961096488911
 30
0.0
 11
957.0469397952763
 21
361.4504740941247
 31
0.0
  0
LINE
  5
4AA
330
1F
100
AcDbEntity
  8
図枠
370
    18
100
AcDbLine
 10
957.120136920388
 20
361.1961096488911
 30
0.0
 11
958.9546547423667
 21
361.1961096488911
 31
0.0
  0
LINE
  5
4AB
330
1F
100
AcDbEntity
  8
図枠
370
    18
100
AcDbLine
 10
953.3459134182267
 20
359.2961096488912
 30
0.0
 11
953.3459134182267
 21
358.5461096488911
 31
0.0
  0
LINE
  5
4AC
330
1F
100
AcDbEntity
  8
図枠
370
    18
100
AcDbLine
 10
958.9546547423667
 20
359.8961096488912
 30
0.0
 11
958.9546547423667
 21
358.9961096488912
 31
0.0
  0
LINE
  5
4AD
330
1F
100
AcDbEntity
  8
図枠
370
    18
100
AcDbLine
 10
952.8459134182266
 20
361.2961096488912
 30
0.0
 11
953.3459134182267
 21
362.0461096488912
 31
0.0
  0
ARC
  5
4AE
330
1F
100
AcDbEntity
  8
図枠
370
    18
100
AcDbCircle
 10
949.4459134182251
 20
361.1961096488911
 30
0.0
 40
1.899999999999995
100
AcDbArc
 50
270.0
 51
298.0859048152069
  0
LINE
  5
4AF
330
1F
100
AcDbEntity
  8
図枠
370
    18
100
AcDbLine
 10
957.4942311164486
 20
359.8961096488912
 30
0.0
 11
957.379125209969
 21
360.2961096488912
 31
0.0
  0
LINE
  5
4B0
330
1F
100
AcDbEntity
  8
図枠
370
    18
100
AcDbLine
 10
954.4546547423667
 20
359.8961096488912
 30
0.0
 11
956.0853214090347
 21
359.8961096488912
 31
0.0
  0
LINE
  5
4B1
330
1F
100
AcDbEntity
  8
図枠
370
    18
100
AcDbLine
 10
955.7039880757001
 20
361.1961096488911
 30
0.0
 11
955.4546547423667
 21
362.0461096488912
 31
0.0
  0
LINE
  5
4B2
330
1F
100
AcDbEntity
  8
図枠
370
    18
100
AcDbLine
 10
957.7532194060276
 20
358.9961096488912
 30
0.0
 11
958.9546547423667
 21
358.9961096488912
 31
0.0
  0
LINE
  5
4B3
330
1F
100
AcDbEntity
  8
図枠
370
    18
100
AcDbLine
 10
943.2656103879237
 20
362.0461096488912
 30
0.0
 11
943.2656103879237
 21
361.0461096488912
 31
0.0
  0
LINE
  5
4B4
330
1F
100
AcDbEntity
  8
図枠
370
    18
100
AcDbLine
 10
944.5156103879234
 20
361.2961096488912
 30
0.0
 11
945.2656103879236
 21
362.0461096488912
 31
0.0
  0
LINE
  5
4B5
330
1F
100
AcDbEntity
  8
図枠
370
    18
100
AcDbLine
 10
945.2656103879236
 20
362.0461096488912
 30
0.0
 11
943.2656103879237
 21
362.0461096488912
 31
0.0
  0
LINE
  5
4B6
330
1F
100
AcDbEntity
  8
図枠
370
    18
100
AcDbLine
 10
945.5156103879234
 20
361.0461096488912
 30
0.0
 11
944.5156103879234
 21
361.0461096488912
 31
0.0
  0
LINE
  5
4B7
330
1F
100
AcDbEntity
  8
図枠
370
    18
100
AcDbLine
 10
954.4546547423667
 20
361.1961096488911
 30
0.0
 11
954.4546547423667
 21
360.2961096488912
 31
0.0
  0
LINE
  5
4B8
330
1F
100
AcDbEntity
  8
図枠
370
    18
100
AcDbLine
 10
946.7656103879235
 20
360.0461096488912
 30
0.0
 11
946.7656103879235
 21
360.2961096488912
 31
0.0
  0
LINE
  5
4B9
330
1F
100
AcDbEntity
  8
図枠
370
    18
100
AcDbLine
 10
947.5156103879236
 20
362.0461096488912
 30
0.0
 11
945.5156103879234
 21
362.0461096488912
 31
0.0
  0
LINE
  5
4BA
330
1F
100
AcDbEntity
  8
図枠
370
    18
100
AcDbLine
 10
947.5156103879236
 20
361.0461096488912
 30
0.0
 11
947.5156103879236
 21
360.2961096488912
 31
0.0
  0
LINE
  5
4BB
330
1F
100
AcDbEntity
  8
図枠
370
    18
100
AcDbLine
 10
942.6900584821451
 20
361.0461096488912
 30
0.0
 11
942.6900584821451
 21
360.2961096488912
 31
0.0
  0
LINE
  5
4BC
330
1F
100
AcDbEntity
  8
図枠
370
    18
100
AcDbLine
 10
948.8459134182267
 20
360.7239993814098
 30
0.0
 11
948.8459134182267
 21
360.8850545151505
 31
0.0
  0
LINE
  5
4BD
330
1F
100
AcDbEntity
  8
図枠
370
    18
100
AcDbLine
 10
945.5156103879234
 20
360.2961096488912
 30
0.0
 11
945.5156103879234
 21
360.0461096488912
 31
0.0
  0
LINE
  5
4BE
330
1F
100
AcDbEntity
  8
図枠
370
    18
100
AcDbLine
 10
957.9546547423667
 20
358.2961096488912
 30
0.0
 11
956.5546547423672
 21
358.2961096488912
 31
0.0
  0
LINE
  5
4BF
330
1F
100
AcDbEntity
  8
図枠
370
    18
100
AcDbLine
 10
951.1140696640687
 20
360.2865741963362
 30
0.0
 11
950.99377176091
 21
360.1537050160593
 31
0.0
  0
LINE
  5
4C0
330
1F
100
AcDbEntity
  8
図枠
370
    18
100
AcDbLine
 10
943.2656103879237
 20
359.5461096488912
 30
0.0
 11
944.5156103879234
 21
359.5461096488912
 31
0.0
  0
LINE
  5
4C1
330
1F
100
AcDbEntity
  8
図枠
370
    18
100
AcDbLine
 10
954.4546547423667
 20
359.8961096488912
 30
0.0
 11
954.4546547423667
 21
358.9961096488912
 31
0.0
  0
ARC
  5
4C2
330
1F
100
AcDbEntity
  8
図枠
370
    18
100
AcDbCircle
 10
944.7656103879236
 20
360.0461096488912
 30
0.0
 40
0.75
100
AcDbArc
 50
270.0
 51
0.0
  0
LINE
  5
4C3
330
1F
100
AcDbEntity
  8
図枠
370
    18
100
AcDbLine
 10
954.4546547423667
 20
358.9961096488912
 30
0.0
 11
956.3493214090341
 21
358.9961096488912
 31
0.0
  0
LINE
  5
4C4
330
1F
100
AcDbEntity
  8
図枠
370
    18
100
AcDbLine
 10
943.2656103879237
 20
358.5461096488911
 30
0.0
 11
945.2656103879236
 21
358.5461096488911
 31
0.0
  0
ARC
  5
4C5
330
1F
100
AcDbEntity
  8
図枠
370
    18
100
AcDbCircle
 10
950.0959134182268
 20
361.2961096488912
 30
0.0
 40
2.75
100
AcDbArc
 50
322.4876119797228
 51
0.0
  0
LINE
  5
4C6
330
1F
100
AcDbEntity
  8
図枠
370
    18
100
AcDbLine
 10
942.6900584821451
 20
360.2961096488912
 30
0.0
 11
943.1900584821448
 21
360.2961096488912
 31
0.0
  0
ARC
  5
4C7
330
1F
100
AcDbEntity
  8
図枠
370
    18
100
AcDbCircle
 10
950.0959134182268
 20
361.2961096488912
 30
0.0
 40
2.750000000000031
100
AcDbArc
 50
270.0
 51
302.5449588540892
  0
LINE
  5
4C8
330
1F
100
AcDbEntity
  8
図枠
370
    18
100
AcDbLine
 10
946.7656103879235
 20
360.2961096488912
 30
0.0
 11
947.5156103879236
 21
360.2961096488912
 31
0.0
  0
ARC
  5
4C9
330
1F
100
AcDbEntity
  8
図枠
370
    18
100
AcDbCircle
 10
949.4459134182251
 20
361.1961096488911
 30
0.0
 40
1.900000000000014
100
AcDbArc
 50
331.3992813832665
 51
358.4920422457636
  0
LINE
  5
4CA
330
1F
100
AcDbEntity
  8
図枠
370
    18
100
AcDbLine
 10
943.2656103879237
 20
359.2961096488912
 30
0.0
 11
943.2656103879237
 21
358.5461096488911
 31
0.0
  0
LINE
  5
4CB
330
1F
100
AcDbEntity
  8
図枠
370
    18
100
AcDbLine
 10
943.2656103879237
 20
360.2961096488912
 30
0.0
 11
943.1900584821448
 21
360.2961096488912
 31
0.0
  0
LINE
  5
4CC
330
1F
100
AcDbEntity
  8
図枠
370
    18
100
AcDbLine
 10
948.8459134182267
 20
359.2961096488912
 30
0.0
 11
948.8459134182267
 21
358.5461096488911
 31
0.0
  0
LINE
  5
4CD
330
1F
100
AcDbEntity
  8
図枠
370
    18
100
AcDbLine
 10
943.2656103879237
 20
361.0461096488912
 30
0.0
 11
942.6900584821451
 21
361.0461096488912
 31
0.0
  0
LINE
  5
4CE
330
1F
100
AcDbEntity
  8
図枠
370
    18
100
AcDbLine
 10
955.4546547423667
 20
362.0461096488912
 30
0.0
 11
957.454654742367
 21
362.0461096488912
 31
0.0
  0
LINE
  5
4CF
330
1F
100
AcDbEntity
  8
図枠
370
    18
100
AcDbLine
 10
948.8459134182267
 20
359.2961096488912
 30
0.0
 11
949.4459134182251
 21
359.2961096488912
 31
0.0
  0
LINE
  5
4D0
330
1F
100
AcDbEntity
  8
図枠
370
    18
100
AcDbLine
 10
957.4942311164486
 20
359.8961096488912
 30
0.0
 11
958.9546547423667
 21
359.8961096488912
 31
0.0
  0
LINE
  5
4D1
330
1F
100
AcDbEntity
  8
図枠
370
    18
100
AcDbLine
 10
957.9546547423667
 20
358.2961096488912
 30
0.0
 11
957.7532194060276
 21
358.9961096488912
 31
0.0
  0
CIRCLE
  5
4D2
330
1F
100
AcDbEntity
  8
図枠
370
    18
100
AcDbCircle
 10
952.8852871437793
 20
371.2577731654473
 30
0.0
 40
0.5999999999999944
  0
CIRCLE
  5
4D3
330
1F
100
AcDbEntity
  8
図枠
370
    18
100
AcDbCircle
 10
952.8852871437793
 20
371.2577731654473
 30
0.0
 40
0.5999999999999944
  0
CIRCLE
  5
4D4
330
1F
100
AcDbEntity
  8
図枠
370
    18
100
AcDbCircle
 10
952.8852871437793
 20
371.2577731654473
 30
0.0
 40
1.199999999999988
  0
LINE
  5
4D5
330
1F
100
AcDbEntity
  8
図枠
370
    18
100
AcDbLine
 10
955.6282458996248
 20
371.8577731654471
 30
0.0
 11
958.0282458996244
 21
372.4577731654472
 31
0.0
  0
LINE
  5
4D6
330
1F
100
AcDbEntity
  8
図枠
370
     5
100
AcDbLine
 10
937.4352871437803
 20
371.2577731654473
 30
0.0
 11
947.4352871437803
 21
371.2577731654473
 31
0.0
  0
LINE
  5
4D7
330
1F
100
AcDbEntity
  8
図枠
370
    18
100
AcDbLine
 10
958.9546547423667
 20
361.1961096488911
 30
0.0
 11
958.9546547423667
 21
360.2961096488912
 31
0.0
  0
LINE
  5
4D8
330
1F
100
AcDbEntity
  8
図枠
  6
BORDER
370
    18
100
AcDbLine
 10
952.8852871437793
 20
373.0577731654471
 30
0.0
 11
952.8852871437793
 21
369.4577731654472
 31
0.0
  0
LINE
  5
4D9
330
1F
100
AcDbEntity
  8
図枠
  6
BORDER
370
    18
100
AcDbLine
 10
952.8852871437793
 20
373.0577731654471
 30
0.0
 11
952.8852871437793
 21
369.4577731654472
 31
0.0
  0
LINE
  5
4DA
330
1F
100
AcDbEntity
  8
図枠
370
     5
100
AcDbLine
 10
948.6852871437802
 20
374.0077731654471
 30
0.0
 11
948.6852871437802
 21
368.5077731654471
 31
0.0
  0
LINE
  5
4DB
330
1F
100
AcDbEntity
  8
図枠
370
     5
100
AcDbLine
 10
923.6852871437802
 20
368.5077731654473
 30
0.0
 11
996.1852871437804
 21
368.5077731654473
 31
0.0
  0
LINE
  5
4DC
330
1F
100
AcDbEntity
  8
図枠
370
     5
100
AcDbLine
 10
936.1852871437822
 20
377.5077731654473
 30
0.0
 11
936.1852871437802
 21
368.5077731654471
 31
0.0
  0
LINE
  5
4DD
330
1F
100
AcDbEntity
  8
図枠
370
     5
100
AcDbLine
 10
924.9352871437803
 20
371.2577731654473
 30
0.0
 11
934.9352871437803
 21
371.2577731654473
 31
0.0
  0
LINE
  5
4DE
330
1F
100
AcDbEntity
  8
図枠
370
     5
100
AcDbLine
 10
943.6852871437803
 20
365.7577731654471
 30
0.0
 11
959.9352871437803
 21
365.7577731654471
 31
0.0
  0
LINE
  5
4DF
330
1F
100
AcDbEntity
  8
図枠
370
     5
100
AcDbLine
 10
924.9352871437803
 20
365.7577731654471
 30
0.0
 11
941.1852871437803
 21
365.7577731654471
 31
0.0
  0
LINE
  5
4E0
330
1F
100
AcDbEntity
  8
図枠
370
     5
100
AcDbLine
 10
923.6852871437802
 20
363.0077731654473
 30
0.0
 11
996.1852871437804
 21
363.0077731654473
 31
0.0
  0
LINE
  5
4E1
330
1F
100
AcDbEntity
  8
図枠
370
     5
100
AcDbLine
 10
942.4352871437802
 20
368.5077731654473
 30
0.0
 11
942.4352871437802
 21
363.0077731654473
 31
0.0
  0
LINE
  5
4E2
330
1F
100
AcDbEntity
  8
図枠
370
     5
100
AcDbLine
 10
923.6852871437802
 20
374.0077731654471
 30
0.0
 11
923.6852871437802
 21
357.5077731654471
 31
0.0
  0
ARC
  5
4E3
330
1F
100
AcDbEntity
  8
図枠
370
    18
100
AcDbCircle
 10
945.2656103879236
 20
360.0461096488912
 30
0.0
 40
1.5
100
AcDbArc
 50
270.0
 51
0.0
  0
LINE
  5
4E4
330
1F
100
AcDbEntity
  8
図枠
370
    18
100
AcDbLine
 10
948.8459134182267
 20
362.0461096488912
 30
0.0
 11
948.8459134182267
 21
361.1461096488913
 31
0.0
  0
LINE
  5
4E5
330
1F
100
AcDbEntity
  8
図枠
370
    18
100
AcDbLine
 10
955.6282458996248
 20
370.6577731654472
 30
0.0
 11
958.0282458996244
 21
370.0577731654472
 31
0.0
  0
LINE
  5
4E6
330
1F
100
AcDbEntity
  8
図枠
370
    18
100
AcDbLine
 10
955.6282458996248
 20
371.8577731654471
 30
0.0
 11
955.6282458996248
 21
370.6577731654472
 31
0.0
  0
LINE
  5
4E7
330
1F
100
AcDbEntity
  8
図枠
370
    18
100
AcDbLine
 10
958.0282458996244
 20
372.4577731654472
 30
0.0
 11
958.0282458996244
 21
370.0577731654472
 31
0.0
  0
LINE
  5
4E8
330
1F
100
AcDbEntity
  8
図枠
370
     5
100
AcDbLine
 10
996.1852871437804
 20
374.0077731654471
 30
0.0
 11
923.6852871437802
 21
374.0077731654471
 31
0.0
  0
CIRCLE
  5
4E9
330
1F
100
AcDbEntity
  8
図枠
370
    18
100
AcDbCircle
 10
952.8852871437793
 20
371.2577731654473
 30
0.0
 40
0.5999999999999944
  0
LINE
  5
4EA
330
1F
100
AcDbEntity
  8
図枠
  6
BORDER
370
    18
100
AcDbLine
 10
951.0852871437782
 20
371.2577731654473
 30
0.0
 11
958.7852871437787
 21
371.2577731654473
 31
0.0
  0
LINE
  5
4EB
330
1F
100
AcDbEntity
  8
図枠
370
    18
100
AcDbLine
 10
950.8459134182269
 20
360.8850545151505
 30
0.0
 11
950.5630707057498
 21
360.6022118026759
 31
0.0
  0
LINE
  5
4EC
330
1F
100
AcDbEntity
  8
図枠
370
    18
100
AcDbLine
 10
958.0282458996244
 20
372.4577731654472
 30
0.0
 11
958.0282458996244
 21
370.0577731654472
 31
0.0
  0
LINE
  5
4ED
330
1F
100
AcDbEntity
  8
図枠
370
    18
100
AcDbLine
 10
955.6282458996248
 20
371.8577731654471
 30
0.0
 11
955.6282458996248
 21
370.6577731654472
 31
0.0
  0
LINE
  5
4EE
330
1F
100
AcDbEntity
  8
図枠
370
    18
100
AcDbLine
 10
955.6282458996248
 20
370.6577731654472
 30
0.0
 11
958.0282458996244
 21
370.0577731654472
 31
0.0
  0
LINE
  5
4EF
330
1F
100
AcDbEntity
  8
図枠
370
    18
100
AcDbLine
 10
955.6282458996248
 20
371.8577731654471
 30
0.0
 11
958.0282458996244
 21
372.4577731654472
 31
0.0
  0
CIRCLE
  5
4F0
330
1F
100
AcDbEntity
  8
図枠
370
    18
100
AcDbCircle
 10
952.8852871437793
 20
371.2577731654473
 30
0.0
 40
1.199999999999988
  0
CIRCLE
  5
4F1
330
1F
100
AcDbEntity
  8
図枠
370
    18
100
AcDbCircle
 10
952.8852871437793
 20
371.2577731654473
 30
0.0
 40
0.5999999999999944
  0
CIRCLE
  5
4F2
330
1F
100
AcDbEntity
  8
図枠
370
    18
100
AcDbCircle
 10
952.8852871437793
 20
371.2577731654473
 30
0.0
 40
1.199999999999988
  0
LINE
  5
4F3
330
1F
100
AcDbEntity
  8
図枠
370
    18
100
AcDbLine
 10
955.6282458996248
 20
371.8577731654471
 30
0.0
 11
958.0282458996244
 21
372.4577731654472
 31
0.0
  0
LINE
  5
4F4
330
1F
100
AcDbEntity
  8
図枠
370
    18
100
AcDbLine
 10
955.6282458996248
 20
370.6577731654472
 30
0.0
 11
958.0282458996244
 21
370.0577731654472
 31
0.0
  0
LINE
  5
4F5
330
1F
100
AcDbEntity
  8
図枠
370
    18
100
AcDbLine
 10
955.6282458996248
 20
371.8577731654471
 30
0.0
 11
955.6282458996248
 21
370.6577731654472
 31
0.0
  0
LINE
  5
4F6
330
1F
100
AcDbEntity
  8
図枠
370
    18
100
AcDbLine
 10
958.0282458996244
 20
372.4577731654472
 30
0.0
 11
958.0282458996244
 21
370.0577731654472
 31
0.0
  0
LINE
  5
4F7
330
1F
100
AcDbEntity
  8
図枠
  6
BORDER
370
    18
100
AcDbLine
 10
952.8852871437793
 20
373.0577731654471
 30
0.0
 11
952.8852871437793
 21
369.4577731654472
 31
0.0
  0
LINE
  5
4F8
330
1F
100
AcDbEntity
  8
図枠
  6
BORDER
370
    18
100
AcDbLine
 10
952.8852871437793
 20
373.0577731654471
 30
0.0
 11
952.8852871437793
 21
369.4577731654472
 31
0.0
  0
LINE
  5
4F9
330
1F
100
AcDbEntity
  8
図枠
370
    18
100
AcDbLine
 10
958.0282458996244
 20
372.4577731654472
 30
0.0
 11
958.0282458996244
 21
370.0577731654472
 31
0.0
  0
LINE
  5
4FA
330
1F
100
AcDbEntity
  8
図枠
370
    18
100
AcDbLine
 10
955.6282458996248
 20
371.8577731654471
 30
0.0
 11
955.6282458996248
 21
370.6577731654472
 31
0.0
  0
LINE
  5
4FB
330
1F
100
AcDbEntity
  8
図枠
370
    18
100
AcDbLine
 10
955.6282458996248
 20
370.6577731654472
 30
0.0
 11
958.0282458996244
 21
370.0577731654472
 31
0.0
  0
LINE
  5
4FC
330
1F
100
AcDbEntity
  8
図枠
370
    18
100
AcDbLine
 10
955.6282458996248
 20
371.8577731654471
 30
0.0
 11
958.0282458996244
 21
372.4577731654472
 31
0.0
  0
CIRCLE
  5
4FD
330
1F
100
AcDbEntity
  8
図枠
370
    18
100
AcDbCircle
 10
952.8852871437793
 20
371.2577731654473
 30
0.0
 40
1.199999999999988
  0
MTEXT
  5
4FE
330
1F
100
AcDbEntity
  8
0
  6
Continuous
370
     0
100
AcDbMText
 10
929.9352871437802
 20
372.6327731654472
 30
0.0
 40
1.5
 41
12.5
 71
     5
 72
     5
  1
{\fMS Gothic|b0|i0|c128|p48;日　　付}
  7
ゴシック
 73
     1
 44
1.0
1001
ACAD
1000
MTEXTBEGIN
1070
    73
1070
     1
1070
    44
1040
1.0
1070
    74
1070
     0
1000
MTEXTEND
  0
MTEXT
  5
4FF
330
1F
100
AcDbEntity
  8
0
  6
Continuous
370
     0
100
AcDbMText
 10
942.4352871437802
 20
372.6327731654472
 30
0.0
 40
1.5
 41
12.5
 71
     5
 72
     5
  1
{\fMS Gothic|b0|i0|c128|p48;尺　　度}
  7
ゴシック
 73
     1
 44
1.0
1001
ACAD
1000
MTEXTBEGIN
1070
    73
1070
     1
1070
    44
1040
1.0
1070
    74
1070
     0
1000
MTEXTEND
  0
MTEXT
  5
500
330
1F
100
AcDbEntity
  8
0
  6
Continuous
370
     0
100
AcDbMText
 10
929.9352871437802
 20
369.8827731654473
 30
0.0
 40
1.5
 41
12.5
 71
     5
 72
     5
  1
{\fMS Gothic|b0|i0|c128|p48;H22.02.05}
  7
ゴシック
 73
     1
 44
1.0
1001
ACAD
1000
MTEXTBEGIN
1070
    73
1070
     1
1070
    44
1040
1.0
1070
    74
1070
     0
1000
MTEXTEND
  0
MTEXT
  5
501
330
1F
100
AcDbEntity
  8
0
  6
Continuous
370
     0
100
AcDbMText
 10
942.4352871437802
 20
369.8827731654473
 30
0.0
 40
1.5
 41
12.5
 71
     5
 72
     5
  1
{\fMS Gothic|b0|i0|c128|p48;2：1}
  7
ゴシック
 73
     1
 44
1.0
1001
ACAD
1000
MTEXTBEGIN
1070
    73
1070
     1
1070
    44
1040
1.0
1070
    74
1070
     0
1000
MTEXTEND
  0
MTEXT
  5
502
330
1F
100
AcDbEntity
  8
0
  6
Continuous
370
     0
100
AcDbMText
 10
926.5466859879598
 20
367.1327731654471
 30
0.0
 40
1.5
 41
12.5
 71
     5
 72
     5
  1
{\fMS Gothic|b0|i0|c128|p48;設計}
  7
ゴシック
 73
     1
 44
1.0
1001
ACAD
1000
MTEXTBEGIN
1070
    73
1070
     1
1070
    44
1040
1.0
1070
    74
1070
     0
1000
MTEXTEND
  0
MTEXT
  5
503
330
1F
100
AcDbEntity
  8
0
  6
Continuous
370
     0
100
AcDbMText
 10
926.5466859879598
 20
364.3827731654472
 30
0.0
 40
1.5
 41
12.5
 71
     5
 72
     5
  1
{\fMS Gothic|b0|i0|c128|p48;製図}
  7
ゴシック
 73
     1
 44
1.0
1001
ACAD
1000
MTEXTBEGIN
1070
    73
1070
     1
1070
    44
1040
1.0
1070
    74
1070
     0
1000
MTEXTEND
  0
MTEXT
  5
504
330
1F
100
AcDbEntity
  8
0
  6
Continuous
370
     0
100
AcDbMText
 10
935.2931260304393
 20
367.1327731654471
 30
0.0
 40
1.5
 41
12.5
 71
     5
 72
     5
  1
{\fMS Gothic|b0|i0|c128|p48;＊＊＊}
  7
ゴシック
 73
     1
 44
1.0
1001
ACAD
1000
MTEXTBEGIN
1070
    73
1070
     1
1070
    44
1040
1.0
1070
    74
1070
     0
1000
MTEXTEND
  0
MTEXT
  5
505
330
1F
100
AcDbEntity
  8
0
  6
Continuous
370
     0
100
AcDbMText
 10
935.2931260304393
 20
364.3827731654472
 30
0.0
 40
1.5
 41
12.5
 71
     5
 72
     5
  1
{\fMS Gothic|b0|i0|c128|p48;＊＊＊}
  7
ゴシック
 73
     1
 44
1.0
1001
ACAD
1000
MTEXTBEGIN
1070
    73
1070
     1
1070
    44
1040
1.0
1070
    74
1070
     0
1000
MTEXTEND
  0
MTEXT
  5
506
330
1F
100
AcDbEntity
  8
0
  6
Continuous
370
     0
100
AcDbMText
 10
945.2966859879598
 20
367.1327731654471
 30
0.0
 40
1.5
 41
12.5
 71
     5
 72
     5
  1
{\fMS Gothic|b0|i0|c128|p48;照査}
  7
ゴシック
 73
     1
 44
1.0
1001
ACAD
1000
MTEXTBEGIN
1070
    73
1070
     1
1070
    44
1040
1.0
1070
    74
1070
     0
1000
MTEXTEND
  0
MTEXT
  5
507
330
1F
100
AcDbEntity
  8
0
  6
Continuous
370
     0
100
AcDbMText
 10
945.2966859879598
 20
364.3827731654472
 30
0.0
 40
1.5
 41
12.5
 71
     5
 72
     5
  1
{\fMS Gothic|b0|i0|c128|p48;検図}
  7
ゴシック
 73
     1
 44
1.0
1001
ACAD
1000
MTEXTBEGIN
1070
    73
1070
     1
1070
    44
1040
1.0
1070
    74
1070
     0
1000
MTEXTEND
  0
MTEXT
  5
508
330
1F
100
AcDbEntity
  8
0
  6
Continuous
370
     0
100
AcDbMText
 10
954.0431260304393
 20
367.1327731654471
 30
0.0
 40
1.5
 41
12.5
 71
     5
 72
     5
  1
{\fMS Gothic|b0|i0|c128|p48;＊＊＊}
  7
ゴシック
 73
     1
 44
1.0
1001
ACAD
1000
MTEXTBEGIN
1070
    73
1070
     1
1070
    44
1040
1.0
1070
    74
1070
     0
1000
MTEXTEND
  0
MTEXT
  5
509
330
1F
100
AcDbEntity
  8
0
  6
Continuous
370
     0
100
AcDbMText
 10
954.0431260304393
 20
364.3827731654472
 30
0.0
 40
1.5
 41
12.5
 71
     5
 72
     5
  1
{\fMS Gothic|b0|i0|c128|p48;＊＊＊}
  7
ゴシック
 73
     1
 44
1.0
1001
ACAD
1000
MTEXTBEGIN
1070
    73
1070
     1
1070
    44
1040
1.0
1070
    74
1070
     0
1000
MTEXTEND
  0
MTEXT
  5
50A
330
1F
100
AcDbEntity
  8
0
  6
Continuous
370
     0
100
AcDbMText
 10
964.2095646142042
 20
372.8142774070629
 30
0.0
 40
1.5
 41
12.5
 71
     5
 72
     5
  1
{\fMS Gothic|b0|i0|c128|p48;製品名}
  7
ゴシック
 73
     1
 44
1.0
1001
ACAD
1000
MTEXTBEGIN
1070
    73
1070
     1
1070
    44
1040
1.0
1070
    74
1070
     0
1000
MTEXTEND
  0
MTEXT
  5
50B
330
1F
100
AcDbEntity
  8
0
  6
Continuous
370
     0
100
AcDbMText
 10
964.2095646142042
 20
367.314277407063
 30
0.0
 40
1.5
 41
12.5
 71
     5
 72
     5
  1
{\fMS Gothic|b0|i0|c128|p48;図面名}
  7
ゴシック
 73
     1
 44
1.0
1001
ACAD
1000
MTEXTBEGIN
1070
    73
1070
     1
1070
    44
1040
1.0
1070
    74
1070
     0
1000
MTEXTEND
  0
MTEXT
  5
50C
330
1F
100
AcDbEntity
  8
0
  6
Continuous
370
     0
100
AcDbMText
 10
964.2095646142042
 20
361.814277407063
 30
0.0
 40
1.5
 41
12.5
 71
     5
 72
     5
  1
{\fMS Gothic|b0|i0|c128|p48;図 番}
  7
ゴシック
 73
     1
 44
1.0
1001
ACAD
1000
MTEXTBEGIN
1070
    73
1070
     1
1070
    44
1040
1.0
1070
    74
1070
     0
1000
MTEXTEND
  0
MTEXT
  5
50D
330
1F
100
AcDbEntity
  8
0
  6
Continuous
370
     0
100
AcDbMText
 10
978.6852871437803
 20
370.3313537006577
 30
0.0
 40
1.75
 41
35.0
 71
     5
 72
     5
  1
{\fMS Gothic|b0|i0|c128|p48;フィット棚柱}
  7
ゴシック
 73
     1
 44
1.0
1001
ACAD
1000
MTEXTBEGIN
1070
    73
1070
     1
1070
    44
1040
1.0
1070
    74
1070
     0
1000
MTEXTEND
  0
MTEXT
  5
50E
330
1F
100
AcDbEntity
  8
0
  6
Continuous
370
     0
100
AcDbMText
 10
978.6852871437803
 20
364.8313537006576
 30
0.0
 40
1.75
 41
35.0
 71
     5
 72
     5
  1
{\fMS Gothic|b0|i0|c128|p48;棚受(Ｌ型)：承認図}
  7
ゴシック
 73
     1
 44
1.0
1001
ACAD
1000
MTEXTBEGIN
1070
    73
1070
     1
1070
    44
1040
1.0
1070
    74
1070
     0
1000
MTEXTEND
  0
MTEXT
  5
50F
330
1F
100
AcDbEntity
  8
0
  6
Continuous
370
     0
100
AcDbMText
 10
978.6852871437803
 20
359.3313537006576
 30
0.0
 40
1.75
 41
35.0
 71
     5
 72
     5
  1
{\fMS Gothic|b0|i0|c128|p48;ＳＬＳ００４２３}
  7
ゴシック
 73
     1
 44
1.0
1001
ACAD
1000
MTEXTBEGIN
1070
    73
1070
     1
1070
    44
1040
1.0
1070
    74
1070
     0
1000
MTEXTEND
  0
MTEXT
  5
510
330
1F
100
AcDbEntity
  8
0
  6
Continuous
370
     0
100
AcDbMText
 10
926.1081895784407
 20
360.2577731654473
 30
0.0
 40
2.75
 41
37.5
 71
     4
 72
     5
  1
{\fMS Gothic|b0|i0|c128|p48;株式会社}
  7
ゴシック
 73
     1
 44
1.0
1001
ACAD
1000
MTEXTBEGIN
1070
    73
1070
     1
1070
    44
1040
1.0
1070
    74
1070
     0
1000
MTEXTEND
  0
MTEXT
  5
511
330
1F
100
AcDbEntity
  8
改訂
370
     5
100
AcDbMText
 10
951.0431444507576
 20
494.248077035857
 30
0.0
 40
1.349374983787535
 41
1.820154478508428
 71
     2
 72
     1
  1
\W0.8;\fＭＳ ゴシック;\W1.0;1
 73
     1
 44
1.0
1001
ACAD
1000
MTEXTBEGIN
1070
    73
1070
     1
1070
    44
1040
1.0
1070
    74
1070
     0
1000
MTEXTEND
  0
LINE
  5
512
330
1F
100
AcDbEntity
  8
図枠
 62
     5
370
    18
100
AcDbLine
 10
951.0431444507576
 20
492.3915819153154
 30
0.0
 11
949.8056444507565
 21
490.2481690409488
 31
0.0
  0
LINE
  5
513
330
1F
100
AcDbEntity
  8
図枠
 62
     5
370
    18
100
AcDbLine
 10
951.0431444507576
 20
494.8665819153153
 30
0.0
 11
949.8056444507565
 21
492.7231690409487
 31
0.0
  0
LINE
  5
514
330
1F
100
AcDbEntity
  8
図枠
 62
     5
370
    18
100
AcDbLine
 10
951.0431444507576
 20
494.8665819153153
 30
0.0
 11
952.2806444507589
 21
492.7231690409487
 31
0.0
  0
LINE
  5
515
330
1F
100
AcDbEntity
  8
図枠
 62
     5
370
    18
100
AcDbLine
 10
949.8056444507565
 20
492.7231690409487
 30
0.0
 11
952.2806444507589
 21
492.7231690409487
 31
0.0
  0
LINE
  5
516
330
1F
100
AcDbEntity
  8
図枠
 62
     5
370
    18
100
AcDbLine
 10
953.1852871437804
 20
490.0077731654471
 30
0.0
 11
953.1852871437804
 21
497.5077731654471
 31
0.0
  0
LINE
  5
517
330
1F
100
AcDbEntity
  8
図枠
 62
     5
370
    18
100
AcDbLine
 10
986.1852871437802
 20
490.0077731654471
 30
0.0
 11
986.1852871437802
 21
497.5077731654471
 31
0.0
  0
LINE
  5
518
330
1F
100
AcDbEntity
  8
図枠
 62
     5
370
    18
100
AcDbLine
 10
961.1852871437802
 20
490.0077731654471
 30
0.0
 11
961.1852871437802
 21
497.5077731654471
 31
0.0
  0
LINE
  5
519
330
1F
100
AcDbEntity
  8
図枠
 62
     5
370
    18
100
AcDbLine
 10
949.1852871437803
 20
490.0077731654471
 30
0.0
 11
996.1852871437804
 21
490.0077731654471
 31
0.0
  0
LINE
  5
51A
330
1F
100
AcDbEntity
  8
図枠
 62
     5
370
    18
100
AcDbLine
 10
949.1852871437803
 20
492.5077731654471
 30
0.0
 11
996.1852871437804
 21
492.5077731654471
 31
0.0
  0
LINE
  5
51B
330
1F
100
AcDbEntity
  8
図枠
 62
     5
370
    18
100
AcDbLine
 10
949.1852871437803
 20
495.0077731654471
 30
0.0
 11
996.1852871437804
 21
495.0077731654471
 31
0.0
  0
LINE
  5
51C
330
1F
100
AcDbEntity
  8
図枠
 62
     5
370
    18
100
AcDbLine
 10
991.1852871437803
 20
490.0077731654471
 30
0.0
 11
991.1852871437803
 21
497.5077731654471
 31
0.0
  0
LINE
  5
51D
330
1F
100
AcDbEntity
  8
図枠
 62
     5
370
    18
100
AcDbLine
 10
949.1852871437803
 20
490.0077731654471
 30
0.0
 11
949.1852871437803
 21
497.5077731654471
 31
0.0
  0
LINE
  5
51E
330
1F
100
AcDbEntity
  8
図枠
 62
     5
370
    18
100
AcDbLine
 10
949.8056444507565
 20
490.2481690409488
 30
0.0
 11
952.2806444507589
 21
490.2481690409488
 31
0.0
  0
LINE
  5
51F
330
1F
100
AcDbEntity
  8
図枠
 62
     5
370
    18
100
AcDbLine
 10
951.0431444507576
 20
492.3915819153154
 30
0.0
 11
952.2806444507589
 21
490.2481690409488
 31
0.0
  0
MTEXT
  5
520
330
1F
100
AcDbEntity
  8
0
  6
Continuous
370
     0
100
AcDbMText
 10
993.6852871437803
 20
496.2577731654471
 30
0.0
 40
1.25
 41
5.000000000000056
 71
     5
 72
     5
  1
{\fMS Gothic|b0|i0|c128|p48;検認者}
  7
ゴシック
 73
     1
 44
1.0
1001
ACAD
1000
MTEXTBEGIN
1070
    73
1070
     1
1070
    44
1040
1.0
1070
    74
1070
     0
1000
MTEXTEND
  0
MTEXT
  5
521
330
1F
100
AcDbEntity
  8
0
  6
Continuous
370
     0
100
AcDbMText
 10
988.6852871437803
 20
496.2577731654471
 30
0.0
 40
1.25
 41
5.000000000000056
 71
     5
 72
     5
  1
{\fMS Gothic|b0|i0|c128|p48;改訂者}
  7
ゴシック
 73
     1
 44
1.0
1001
ACAD
1000
MTEXTBEGIN
1070
    73
1070
     1
1070
    44
1040
1.0
1070
    74
1070
     0
1000
MTEXTEND
  0
MTEXT
  5
522
330
1F
100
AcDbEntity
  8
0
  6
Continuous
370
     0
100
AcDbMText
 10
988.6852871437803
 20
493.7577731654471
 30
0.0
 40
1.25
 41
5.000000000000056
 71
     5
 72
     5
  1
{\fMS Gothic|b0|i0|c128|p48;湊}
  7
ゴシック
 73
     1
 44
1.0
1001
ACAD
1000
MTEXTBEGIN
1070
    73
1070
     1
1070
    44
1040
1.0
1070
    74
1070
     0
1000
MTEXTEND
  0
MTEXT
  5
523
330
1F
100
AcDbEntity
  8
0
  6
Continuous
370
     0
100
AcDbMText
 10
973.6852871437802
 20
496.2577731654471
 30
0.0
 40
1.25
 41
25.0
 71
     5
 72
     5
  1
{\fMS Gothic|b0|i0|c128|p48;改　訂　内　容\fArial|b0|i0|c0|p32;}
  7
ゴシック
 73
     1
 44
1.0
1001
ACAD
1000
MTEXTBEGIN
1070
    73
1070
     1
1070
    44
1040
1.0
1070
    74
1070
     0
1000
MTEXTEND
  0
MTEXT
  5
524
330
1F
100
AcDbEntity
  8
0
  6
Continuous
370
     0
100
AcDbMText
 10
973.6852871437802
 20
493.7577731654471
 30
0.0
 40
1.25
 41
25.0
 71
     5
 72
     5
  1
{\fMS Gothic|b0|i0|c128|p48;LS-911B/LS-911BRB 黒塗装を追加}
  7
ゴシック
 73
     1
 44
1.0
1001
ACAD
1000
MTEXTBEGIN
1070
    73
1070
     1
1070
    44
1040
1.0
1070
    74
1070
     0
1000
MTEXTEND
  0
MTEXT
  5
525
330
1F
100
AcDbEntity
  8
0
  6
Continuous
370
     0
100
AcDbMText
 10
951.1852871437803
 20
496.2577731654471
 30
0.0
 40
1.25
 41
4.0
 71
     5
 72
     5
  1
{\fMS Gothic|b0|i0|c128|p48;副番\fArial|b0|i0|c0|p32;}
  7
ゴシック
 73
     1
 44
1.0
1001
ACAD
1000
MTEXTBEGIN
1070
    73
1070
     1
1070
    44
1040
1.0
1070
    74
1070
     0
1000
MTEXTEND
  0
MTEXT
  5
526
330
1F
100
AcDbEntity
  8
0
  6
Continuous
370
     0
100
AcDbMText
 10
957.1852871437803
 20
496.2577731654471
 30
0.0
 40
1.25
 41
8.0
 71
     5
 72
     5
  1
{\fMS Gothic|b0|i0|c128|p48;改訂日\fArial|b0|i0|c0|p32;}
  7
ゴシック
 73
     1
 44
1.0
1001
ACAD
1000
MTEXTBEGIN
1070
    73
1070
     1
1070
    44
1040
1.0
1070
    74
1070
     0
1000
MTEXTEND
  0
MTEXT
  5
527
330
1F
100
AcDbEntity
  8
0
  6
Continuous
370
     0
100
AcDbMText
 10
957.1852871437803
 20
493.7577731654471
 30
0.0
 40
1.25
 41
8.0
 71
     5
 72
     5
  1
{\fMS Gothic|b0|i0|c128|p48;H27.09}
  7
ゴシック
 73
     1
 44
1.0
1001
ACAD
1000
MTEXTBEGIN
1070
    73
1070
     1
1070
    44
1040
1.0
1070
    74
1070
     0
1000
MTEXTEND
  0
MTEXT
  5
669
330
1F
100
AcDbEntity
  8
0
  6
Continuous
370
     0
100
AcDbMText
 10
856.710135035979
 20
366.160035689704
 30
-0.0000000000000036
 40
1.75
 41
24.26604994166273
 71
     5
 72
     5
  1
ﾌﾞﾗｯｸ焼付塗装
  7
ゴシック
 73
     1
 44
1.0
1001
ACAD
1000
MTEXTBEGIN
1070
    73
1070
     1
1070
    44
1040
1.0
1070
    74
1070
     0
1000
MTEXTEND
  0
MTEXT
  5
66A
330
1F
100
AcDbEntity
  8
0
  6
Continuous
370
     0
100
AcDbMText
 10
840.8516422759221
 20
370.3080874575787
 30
-0.0000000000000036
 40
1.75
 41
12.5
 71
     5
 72
     5
  1
なし
  7
ゴシック
 73
     1
 44
1.0
1001
ACAD
1000
MTEXTBEGIN
1070
    73
1070
     1
1070
    44
1040
1.0
1070
    74
1070
     0
1000
MTEXTEND
  0
MTEXT
  5
66B
330
1F
100
AcDbEntity
  8
0
  6
Continuous
370
     0
100
AcDbMText
 10
840.8516422759221
 20
366.1600356897044
 30
-0.0000000000000036
 40
1.75
 41
12.5
 71
     5
 72
     5
  1
付
  7
ゴシック
 73
     1
 44
1.0
1001
ACAD
1000
MTEXTBEGIN
1070
    73
1070
     1
1070
    44
1040
1.0
1070
    74
1070
     0
1000
MTEXTEND
  0
MTEXT
  5
66C
330
1F
100
AcDbEntity
  8
0
  6
Continuous
370
     0
100
AcDbMText
 10
818.9867078629923
 20
366.1898788002093
 30
-0.0000000000000036
 40
1.75
 41
16.2575
 71
     4
 72
     5
  1
{\fArial|b0|i0|c0|p32;LS}-911{\fArial|b0|i0|c0|p32;BRB}
  7
ゴシック
 73
     1
 44
1.0
1001
ACAD
1000
MTEXTBEGIN
1070
    73
1070
     1
1070
    44
1040
1.0
1070
    74
1070
     0
1000
MTEXTEND
  0
LINE
  5
66D
330
1F
100
AcDbEntity
  8
0
  6
Continuous
370
     0
100
AcDbLine
 10
887.0712307211599
 20
368.3994951533658
 30
0.0
 11
817.7631394254477
 21
368.3994951533658
 31
0.0
  0
LINE
  5
66E
330
1F
100
AcDbEntity
  8
0
  6
Continuous
370
     0
100
AcDbLine
 10
887.0712307211599
 20
364.2514433854916
 30
0.0
 11
817.7631394254477
 21
364.2514433854917
 31
0.0
  0
MTEXT
  5
66F
330
1F
100
AcDbEntity
  8
0
  6
Continuous
370
     0
100
AcDbMText
 10
818.9867078629923
 20
370.3379305680834
 30
-0.0000000000000036
 40
1.75
 41
16.2575
 71
     4
 72
     5
  1
{\fArial|b0|i0|c0|p32;LS}-911{\fArial|b0|i0|c0|p32;B}
  7
ゴシック
 73
     1
 44
1.0
1001
ACAD
1000
MTEXTBEGIN
1070
    73
1070
     1
1070
    44
1040
1.0
1070
    74
1070
     0
1000
MTEXTEND
  0
MTEXT
  5
670
330
1F
100
AcDbEntity
  8
0
  6
Continuous
370
     0
100
AcDbMText
 10
856.710135035979
 20
370.3080874575781
 30
-0.0000000000000036
 40
1.75
 41
25.17628387014797
 71
     5
 72
     5
  1
ﾌﾞﾗｯｸ焼付塗装
  7
ゴシック
 73
     1
 44
1.0
1001
ACAD
1000
MTEXTBEGIN
1070
    73
1070
     1
1070
    44
1040
1.0
1070
    74
1070
     0
1000
MTEXTEND
  0
MTEXT
  5
671
330
1F
100
AcDbEntity
  8
0
  6
Continuous
370
     0
100
AcDbMText
 10
886.5249889886328
 20
366.1600356897037
 30
-0.0000000000000036
 40
1.75
 41
12.5
 71
     6
 72
     5
  1
{\fMS Gothic|b0|i0|c128|p48;3.8ｇ}
  7
ゴシック
 73
     1
 44
1.0
1001
ACAD
1000
MTEXTBEGIN
1070
    73
1070
     1
1070
    44
1040
1.0
1070
    74
1070
     0
1000
MTEXTEND
  0
MTEXT
  5
672
330
1F
100
AcDbEntity
  8
0
  6
Continuous
370
     0
100
AcDbMText
 10
871.6932300667052
 20
366.2110335459079
 30
-0.0000000000000036
 40
1.75
 41
17.98222222222222
 71
     5
 72
     5
  1
{\fMS Gothic|b0|i0|c128|p48;ﾌﾞﾗｯｸ}
  7
ゴシック
 73
     1
 44
1.0
1001
ACAD
1000
MTEXTBEGIN
1070
    73
1070
     1
1070
    44
1040
1.0
1070
    74
1070
     0
1000
MTEXTEND
  0
MTEXT
  5
673
330
1F
100
AcDbEntity
  8
0
  6
Continuous
370
     0
100
AcDbMText
 10
871.7766172077881
 20
370.3080874575778
 30
-0.0000000000000036
 40
1.75
 41
12.5
 71
     5
 72
     5
  1
{\fArial|b0|i0|c128|p32;\U+2015}
  7
ゴシック
 73
     1
 44
1.0
1001
ACAD
1000
MTEXTBEGIN
1070
    73
1070
     1
1070
    44
1040
1.0
1070
    74
1070
     0
1000
MTEXTEND
  0
MTEXT
  5
674
330
1F
100
AcDbEntity
  8
0
  6
Continuous
370
     0
100
AcDbMText
 10
886.5249889886328
 20
370.3080874575778
 30
-0.0000000000000036
 40
1.75
 41
12.5
 71
     6
 72
     5
  1
{\fMS Gothic|b0|i0|c128|p48;3.1ｇ}
  7
ゴシック
 73
     1
 44
1.0
1001
ACAD
1000
MTEXTBEGIN
1070
    73
1070
     1
1070
    44
1040
1.0
1070
    74
1070
     0
1000
MTEXTEND
  0
ENDSEC
  0
SECTION
  2
OBJECTS
  0
DICTIONARY
  5
C
330
0
100
AcDbDictionary
281
     1
  3
ACAD_CIP_PREVIOUS_PRODUCT_INFO
350
65E
  3
ACAD_COLOR
350
6B
  3
ACAD_DETAILVIEWSTYLE
350
659
  3
ACAD_GROUP
350
D
  3
ACAD_LAYOUT
350
1A
  3
ACAD_MATERIAL
350
6A
  3
ACAD_MLEADERSTYLE
350
655
  3
ACAD_MLINESTYLE
350
17
  3
ACAD_PLOTSETTINGS
350
19
  3
ACAD_PLOTSTYLENAME
350
E
  3
ACAD_SCALELIST
350
643
  3
ACAD_SECTIONVIEWSTYLE
350
657
  3
ACAD_TABLESTYLE
350
641
  3
ACAD_VISUALSTYLE
350
628
  3
ACDB_RECOMPOSE_DATA
350
6E7
  3
AcDbVariableDictionary
350
5E
  3
DWGPROPS
350
6E8
  0
DICTIONARY
  5
168
330
2
100
AcDbDictionary
280
     1
281
     1
  3
ACAD_LAYERSTATES
360
169
  0
DICTIONARY
  5
675
330
10
100
AcDbDictionary
280
     1
281
     1
  3
ADSK_XREC_LAYER_RECONCILED
360
676
  0
DICTIONARY
  5
677
330
160
100
AcDbDictionary
280
     1
281
     1
  3
ADSK_XREC_LAYER_RECONCILED
360
678
  0
DICTIONARY
  5
679
330
161
100
AcDbDictionary
280
     1
281
     1
  3
ADSK_XREC_LAYER_RECONCILED
360
67A
  0
DICTIONARY
  5
67B
330
162
100
AcDbDictionary
280
     1
281
     1
  3
ADSK_XREC_LAYER_RECONCILED
360
67C
  0
DICTIONARY
  5
67D
330
163
100
AcDbDictionary
280
     1
281
     1
  3
ADSK_XREC_LAYER_RECONCILED
360
67E
  0
DICTIONARY
  5
88
330
87
100
AcDbDictionary
280
     1
281
     1
  0
DICTIONARY
  5
9B
330
9A
100
AcDbDictionary
280
     1
281
     1
  0
DICTIONARY
  5
AA
330
A9
100
AcDbDictionary
280
     1
281
     1
  0
DICTIONARY
  5
BD
330
BC
100
AcDbDictionary
280
     1
281
     1
  0
DICTIONARY
  5
3D8
330
3D7
100
AcDbDictionary
280
     1
281
     1
  3
ACAD_DIMASSOC
360
3D9
  0
DICTIONARY
  5
3DB
330
3DA
100
AcDbDictionary
280
     1
281
     1
  3
ACAD_DIMASSOC
360
3DC
  0
DICTIONARY
  5
3DE
330
3DD
100
AcDbDictionary
280
     1
281
     1
  3
ACAD_DIMASSOC
360
3DF
  0
DICTIONARY
  5
3E1
330
3E0
100
AcDbDictionary
280
     1
281
     1
  3
ACAD_DIMASSOC
360
3E2
  0
DICTIONARY
  5
421
330
420
100
AcDbDictionary
280
     1
281
     1
  3
ACAD_DIMASSOC
360
422
  0
DICTIONARY
  5
424
330
423
100
AcDbDictionary
280
     1
281
     1
  3
ACAD_DIMASSOC
360
425
  0
DICTIONARY
  5
441
330
440
100
AcDbDictionary
280
     1
281
     1
  3
ACAD_DIMASSOC
360
442
  0
DICTIONARY
  5
444
330
443
100
AcDbDictionary
280
     1
281
     1
  3
ACAD_DIMASSOC
360
445
  0
DICTIONARY
  5
450
330
44F
100
AcDbDictionary
280
     1
281
     1
  3
ACAD_DIMASSOC
360
451
  0
XRECORD
  5
65E
102
{ACAD_REACTORS
330
C
102
}
330
C
100
AcDbXrecord
280
     1
300
ACDLT
300
2015
300
ACDLT_F_S
  0
DICTIONARY
  5
6B
102
{ACAD_REACTORS
330
C
102
}
330
C
100
AcDbDictionary
281
     1
  0
DICTIONARY
  5
659
102
{ACAD_REACTORS
330
C
102
}
330
C
100
AcDbDictionary
281
     1
  3
Metric50
350
65A
  0
DICTIONARY
  5
D
102
{ACAD_REACTORS
330
C
102
}
330
C
100
AcDbDictionary
281
     1
  0
DICTIONARY
  5
1A
102
{ACAD_REACTORS
330
C
102
}
330
C
100
AcDbDictionary
281
     1
  3
Model
350
22
  3
レイアウト1
350
51
  3
レイアウト2
350
56
  0
DICTIONARY
  5
6A
102
{ACAD_REACTORS
330
C
102
}
330
C
100
AcDbDictionary
281
     1
  3
ByBlock
350
618
  3
ByLayer
350
610
  3
Global
350
620
  0
DICTIONARY
  5
655
102
{ACAD_REACTORS
330
C
102
}
330
C
100
AcDbDictionary
281
     1
  3
Standard
350
656
  0
DICTIONARY
  5
17
102
{ACAD_REACTORS
330
C
102
}
330
C
100
AcDbDictionary
281
     1
  3
Standard
350
18
  0
DICTIONARY
  5
19
102
{ACAD_REACTORS
330
C
102
}
330
C
100
AcDbDictionary
281
     1
  0
ACDBDICTIONARYWDFLT
  5
E
102
{ACAD_REACTORS
330
C
102
}
330
C
100
AcDbDictionary
281
     1
  3
Normal
350
F
100
AcDbDictionaryWithDefault
340
F
  0
DICTIONARY
  5
643
102
{ACAD_REACTORS
330
C
102
}
330
C
100
AcDbDictionary
281
     1
  3
A0
350
644
  3
A1
350
645
  3
A2
350
646
  3
A3
350
647
  3
A4
350
648
  3
A5
350
649
  3
A6
350
64A
  3
A7
350
64B
  3
A8
350
64C
  3
A9
350
64D
  3
B0
350
64E
  3
B1
350
64F
  3
B2
350
650
  3
B3
350
651
  3
B4
350
652
  3
B5
350
653
  3
B6
350
654
  0
DICTIONARY
  5
657
102
{ACAD_REACTORS
330
C
102
}
330
C
100
AcDbDictionary
281
     1
  3
Metric50
350
658
  0
DICTIONARY
  5
641
102
{ACAD_REACTORS
330
C
102
}
330
C
100
AcDbDictionary
281
     1
  3
Standard
350
642
  0
DICTIONARY
  5
628
102
{ACAD_REACTORS
330
C
102
}
330
C
100
AcDbDictionary
281
     1
  3
2dWireframe
350
62E
  3
Basic
350
62D
  3
Brighten
350
634
  3
ColorChange
350
638
  3
Conceptual
350
631
  3
Dim
350
633
  3
EdgeColorOff
350
640
  3
Facepattern
350
637
  3
Flat
350
629
  3
FlatWithEdges
350
62A
  3
Gouraud
350
62B
  3
GouraudWithEdges
350
62C
  3
Hidden
350
630
  3
JitterOff
350
63E
  3
Linepattern
350
636
  3
OverhangOff
350
63F
  3
Realistic
350
632
  3
Shaded
350
63D
  3
Shaded with edges
350
63C
  3
Shades of Gray
350
639
  3
Sketchy
350
63A
  3
Thicken
350
635
  3
Wireframe
350
62F
  3
X-Ray
350
63B
  0
XRECORD
  5
6E7
102
{ACAD_REACTORS
330
C
102
}
330
C
100
AcDbXrecord
280
     1
 90
        1
330
642
  0
DICTIONARY
  5
5E
102
{ACAD_REACTORS
330
C
102
}
330
C
100
AcDbDictionary
281
     1
  3
CANNOSCALE
350
683
  3
CMLEADERSTYLE
350
680
  3
CTABLESTYLE
350
67F
  3
CVIEWDETAILSTYLE
350
681
  3
CVIEWSECTIONSTYLE
350
682
  3
DIMASSOC
350
5F
  3
HIDETEXT
350
63
  3
INDEXCTL
350
685
  3
PROJECTNAME
350
603
  3
SORTENTS
350
684
  3
XCLIPFRAME
350
686
  0
XRECORD
  5
6E8
102
{ACAD_REACTORS
330
C
102
}
330
C
100
AcDbXrecord
280
     1
  1
DWGPROPS COOKIE
  2

  3

  4

  6

  7

  8
MINATO
  9

300
=
301
=
302
=
303
=
304
=
305
=
306
=
307
=
308
=
309
=
 40
0.0063106481481481
 41
2455419.549782801
 42
2457301.672370428
  1

 90
        0
  0
DICTIONARY
  5
169
102
{ACAD_REACTORS
330
168
102
}
330
168
100
AcDbDictionary
281
     1
  0
XRECORD
  5
676
102
{ACAD_REACTORS
330
675
102
}
330
675
100
AcDbXrecord
280
     1
290
     1
  0
XRECORD
  5
678
102
{ACAD_REACTORS
330
677
102
}
330
677
100
AcDbXrecord
280
     1
290
     1
  0
XRECORD
  5
67A
102
{ACAD_REACTORS
330
679
102
}
330
679
100
AcDbXrecord
280
     1
290
     1
  0
XRECORD
  5
67C
102
{ACAD_REACTORS
330
67B
102
}
330
67B
100
AcDbXrecord
280
     1
290
     1
  0
XRECORD
  5
67E
102
{ACAD_REACTORS
330
67D
102
}
330
67D
100
AcDbXrecord
280
     1
290
     1
  0
DIMASSOC
  5
3D9
102
{ACAD_REACTORS
330
3D8
102
}
330
3D8
100
AcDbDimAssoc
330
3D7
 90
        3
 70
     0
 71
     0
  1
AcDbOsnapPointRef
 72
     1
331
3CE
 73
     2
 91
        0
 40
3.141592653589792
 10
0.0
 20
0.0
 30
2.000000000000000E+50
 75
     0
  1
AcDbOsnapPointRef
 72
    13
331
3C8
 73
     2
 91
        0
 40
0.0
 10
0.0
 20
0.0
 30
2.000000000000000E+50
 75
     0
  0
DIMASSOC
  5
3DC
102
{ACAD_REACTORS
330
3DB
102
}
330
3DB
100
AcDbDimAssoc
330
3DA
 90
        2
 70
     0
 71
     0
  1
AcDbOsnapPointRef
 72
     1
331
3C7
 73
     2
 91
        0
 40
1.0
 10
0.0
 20
0.0
 30
2.000000000000000E+50
 75
     0
  0
DIMASSOC
  5
3DF
102
{ACAD_REACTORS
330
3DE
102
}
330
3DE
100
AcDbDimAssoc
330
3DD
 90
        1
 70
     0
 71
     0
  1
AcDbOsnapPointRef
 72
     1
331
3D0
 73
     2
 91
        0
 40
3.141592653587863
 10
0.0
 20
0.0
 30
2.000000000000000E+50
 75
     0
  0
DIMASSOC
  5
3E2
102
{ACAD_REACTORS
330
3E1
102
}
330
3E1
100
AcDbDimAssoc
330
3E0
 90
        3
 70
     0
 71
     0
  1
AcDbOsnapPointRef
 72
     1
331
3CA
 73
     2
 91
        0
 40
7.853981633974482
 10
0.0
 20
0.0
 30
2.000000000000000E+50
 75
     0
  1
AcDbOsnapPointRef
 72
    13
331
3CA
 73
     2
 91
        0
 40
4.712388980384688
 10
0.0
 20
0.0
 30
2.000000000000000E+50
 75
     0
  0
DIMASSOC
  5
422
102
{ACAD_REACTORS
330
421
102
}
330
421
100
AcDbDimAssoc
330
420
 90
        3
 70
     0
 71
     0
  1
AcDbOsnapPointRef
 72
     1
331
43A
 73
     2
 91
        0
 40
1.570796326794896
 10
0.0
 20
0.0
 30
2.000000000000000E+50
 75
     0
  1
AcDbOsnapPointRef
 72
     1
331
436
 73
     2
 91
        0
 40
1.0
 10
0.0
 20
0.0
 30
2.000000000000000E+50
 75
     0
  0
DIMASSOC
  5
425
102
{ACAD_REACTORS
330
424
102
}
330
424
100
AcDbDimAssoc
330
423
 90
        3
 70
     0
 71
     0
  1
AcDbOsnapPointRef
 72
    11
331
433
 73
     2
 91
        0
 40
0.9999999999999978
 10
0.0
 20
0.0
 30
0.0
332
43E
 74
     2
 92
        0
 75
     0
  1
AcDbOsnapPointRef
 72
    13
331
434
 73
     2
 91
        0
 40
0.0
 10
0.0
 20
0.0
 30
2.000000000000000E+50
 75
     0
  0
DIMASSOC
  5
442
102
{ACAD_REACTORS
330
441
102
}
330
441
100
AcDbDimAssoc
330
440
 90
        2
 70
     0
 71
     0
  1
AcDbOsnapPointRef
 72
    11
331
412
 73
     2
 91
        0
 40
-0.0000000000010105
 10
0.0
 20
0.0
 30
0.0
332
411
 74
     2
 92
        0
 75
     0
  0
DIMASSOC
  5
445
102
{ACAD_REACTORS
330
444
102
}
330
444
100
AcDbDimAssoc
330
443
 90
        3
 70
     0
 71
     0
  1
AcDbOsnapPointRef
 72
     1
331
448
 73
     2
 91
        0
 40
1.0
 10
0.0
 20
0.0
 30
2.000000000000000E+50
 75
     0
  1
AcDbOsnapPointRef
 72
    13
331
447
 73
     2
 91
        0
 40
0.0
 10
0.0
 20
0.0
 30
2.000000000000000E+50
 75
     0
  0
DIMASSOC
  5
451
102
{ACAD_REACTORS
330
450
102
}
330
450
100
AcDbDimAssoc
330
44F
 90
        2
 70
     0
 71
     0
  1
AcDbOsnapPointRef
 72
     1
331
44B
 73
     2
 91
        0
 40
1.0
 10
0.0
 20
0.0
 30
2.000000000000000E+50
 75
     0
  0
ACDBDETAILVIEWSTYLE
  5
65A
102
{ACAD_XDICTIONARY
360
726
102
}
102
{ACAD_REACTORS
330
659
102
}
330
659
100
AcDbModelDocViewStyle
 70
     0
  3
Metric50
290
     0
100
AcDbDetailViewStyle
 70
     0
 71
     0
 90
        3
 71
     1
340
11
 40
5.0
340
0
 40
5.0
300

 40
0.0
280
     1
 71
     2
340
16
 90
       25
 71
     3
340
11
 40
5.0
 90
        0
 40
15.0
 90
        1
300
%<\AcVar ViewDetailId>% (%<\AcVar ViewScale \f "%sn">%)
 71
     4
340
16
 90
       25
340
16
 90
       25
280
     0
  0
LAYOUT
  5
22
102
{ACAD_XDICTIONARY
360
6E9
102
}
102
{ACAD_REACTORS
330
1A
102
}
330
1A
100
AcDbPlotSettings
  1

  2
Adobe PDF (一時).pc3
  4
A4
  6

 40
3.174999952316284
 41
3.174999952316284
 42
3.17498779296875
 43
3.175003051757812
 44
297.0318298339844
 45
209.9733276367187
 46
0.0
 47
0.0
 48
796.1852871437803
 49
357.5077731654471
140
996.1852871437804
141
496.9906411857516
142
1.0
143
1.0
 70
 11936
 72
     1
 73
     1
 74
     4
  7
monochrome.ctb
 75
     0
147
1.018116623163223
148
-796.1852871437803
149
-357.5077731654471
100
AcDbLayout
  1
Model
 70
     1
 71
     0
 10
0.0
 20
0.0
 11
12.0
 21
9.0
 12
0.0
 22
0.0
 32
0.0
 14
0.0
 24
0.0
 34
0.0
 15
0.0
 25
0.0
 35
0.0
146
0.0
 13
0.0
 23
0.0
 33
0.0
 16
1.0
 26
0.0
 36
0.0
 17
0.0
 27
1.0
 37
0.0
 76
     0
330
1F
331
604
1001
ACAD_PSEXT
1000
Adobe PDF (一時).pc3
1000
Adobe PDF Converter
1000
Documents\*.pdf
1000

1070
     0
  0
LAYOUT
  5
51
102
{ACAD_XDICTIONARY
360
6EB
102
}
102
{ACAD_REACTORS
330
1A
102
}
330
1A
100
AcDbPlotSettings
  1

  2
None
  4

  6

 40
0.0
 41
0.0
 42
0.0
 43
0.0
 44
0.0
 45
0.0
 46
0.0
 47
0.0
 48
0.0
 49
0.0
140
0.0
141
0.0
142
1.0
143
1.0
 70
   688
 72
     0
 73
     0
 74
     5
  7
monochrome.ctb
 75
    16
147
1.0
148
0.0
149
0.0
100
AcDbLayout
  1
レイアウト1
 70
     1
 71
     1
 10
0.0
 20
0.0
 11
12.0
 21
9.0
 12
0.0
 22
0.0
 32
0.0
 14
0.0
 24
0.0
 34
0.0
 15
0.0
 25
0.0
 35
0.0
146
0.0
 13
0.0
 23
0.0
 33
0.0
 16
1.0
 26
0.0
 36
0.0
 17
0.0
 27
1.0
 37
0.0
 76
     0
330
50
  0
LAYOUT
  5
56
102
{ACAD_XDICTIONARY
360
6ED
102
}
102
{ACAD_REACTORS
330
1A
102
}
330
1A
100
AcDbPlotSettings
  1

  2
None
  4

  6

 40
0.0
 41
0.0
 42
0.0
 43
0.0
 44
0.0
 45
0.0
 46
0.0
 47
0.0
 48
0.0
 49
0.0
140
0.0
141
0.0
142
1.0
143
1.0
 70
   688
 72
     0
 73
     0
 74
     5
  7
monochrome.ctb
 75
    16
147
1.0
148
0.0
149
0.0
100
AcDbLayout
  1
レイアウト2
 70
     1
 71
     2
 10
0.0
 20
0.0
 11
12.0
 21
9.0
 12
0.0
 22
0.0
 32
0.0
 14
0.0
 24
0.0
 34
0.0
 15
0.0
 25
0.0
 35
0.0
146
0.0
 13
0.0
 23
0.0
 33
0.0
 16
1.0
 26
0.0
 36
0.0
 17
0.0
 27
1.0
 37
0.0
 76
     0
330
55
  0
MATERIAL
  5
618
102
{ACAD_XDICTIONARY
360
619
102
}
102
{ACAD_REACTORS
330
6A
102
}
330
6A
100
AcDbMaterial
  1
ByBlock
 72
     0
 43
0.0008202099737533
 43
0.0
 43
0.0
 43
0.0
 43
0.0
 43
0.0008202099737533
 43
0.0
 43
0.0
 43
0.0
 43
0.0
 43
1.0
 43
0.0
 43
0.0
 43
0.0
 43
0.0
 43
1.0
 77
     0
 47
0.0008202099737533
 47
0.0
 47
0.0
 47
0.0
 47
0.0
 47
0.0008202099737533
 47
0.0
 47
0.0
 47
0.0
 47
0.0
 47
1.0
 47
0.0
 47
0.0
 47
0.0
 47
0.0
 47
1.0
171
     0
 49
0.0008202099737533
 49
0.0
 49
0.0
 49
0.0
 49
0.0
 49
0.0008202099737533
 49
0.0
 49
0.0
 49
0.0
 49
0.0
 49
1.0
 49
0.0
 49
0.0
 49
0.0
 49
0.0
 49
1.0
175
     0
142
0.0008202099737533
142
0.0
142
0.0
142
0.0
142
0.0
142
0.0008202099737533
142
0.0
142
0.0
142
0.0
142
0.0
142
1.0
142
0.0
142
0.0
142
0.0
142
0.0
142
1.0
179
     0
144
0.0008202099737533
144
0.0
144
0.0
144
0.0
144
0.0
144
0.0008202099737533
144
0.0
144
0.0
144
0.0
144
0.0
144
1.0
144
0.0
144
0.0
144
0.0
144
0.0
144
1.0
147
0.0008202099737533
147
0.0
147
0.0
147
0.0
147
0.0
147
0.0008202099737533
147
0.0
147
0.0
147
0.0
147
0.0
147
1.0
147
0.0
147
0.0
147
0.0
147
0.0
147
1.0
  0
MATERIAL
  5
610
102
{ACAD_XDICTIONARY
360
611
102
}
102
{ACAD_REACTORS
330
6A
102
}
330
6A
100
AcDbMaterial
  1
ByLayer
 72
     0
 43
0.0008202099737533
 43
0.0
 43
0.0
 43
0.0
 43
0.0
 43
0.0008202099737533
 43
0.0
 43
0.0
 43
0.0
 43
0.0
 43
1.0
 43
0.0
 43
0.0
 43
0.0
 43
0.0
 43
1.0
 77
     0
 47
0.0008202099737533
 47
0.0
 47
0.0
 47
0.0
 47
0.0
 47
0.0008202099737533
 47
0.0
 47
0.0
 47
0.0
 47
0.0
 47
1.0
 47
0.0
 47
0.0
 47
0.0
 47
0.0
 47
1.0
171
     0
 49
0.0008202099737533
 49
0.0
 49
0.0
 49
0.0
 49
0.0
 49
0.0008202099737533
 49
0.0
 49
0.0
 49
0.0
 49
0.0
 49
1.0
 49
0.0
 49
0.0
 49
0.0
 49
0.0
 49
1.0
175
     0
142
0.0008202099737533
142
0.0
142
0.0
142
0.0
142
0.0
142
0.0008202099737533
142
0.0
142
0.0
142
0.0
142
0.0
142
1.0
142
0.0
142
0.0
142
0.0
142
0.0
142
1.0
179
     0
144
0.0008202099737533
144
0.0
144
0.0
144
0.0
144
0.0
144
0.0008202099737533
144
0.0
144
0.0
144
0.0
144
0.0
144
1.0
144
0.0
144
0.0
144
0.0
144
0.0
144
1.0
147
0.0008202099737533
147
0.0
147
0.0
147
0.0
147
0.0
147
0.0008202099737533
147
0.0
147
0.0
147
0.0
147
0.0
147
1.0
147
0.0
147
0.0
147
0.0
147
0.0
147
1.0
  0
MATERIAL
  5
620
102
{ACAD_XDICTIONARY
360
621
102
}
102
{ACAD_REACTORS
330
6A
102
}
330
6A
100
AcDbMaterial
  1
Global
 72
     0
 43
0.0008202099737533
 43
0.0
 43
0.0
 43
0.0
 43
0.0
 43
0.0008202099737533
 43
0.0
 43
0.0
 43
0.0
 43
0.0
 43
1.0
 43
0.0
 43
0.0
 43
0.0
 43
0.0
 43
1.0
 77
     0
 47
0.0008202099737533
 47
0.0
 47
0.0
 47
0.0
 47
0.0
 47
0.0008202099737533
 47
0.0
 47
0.0
 47
0.0
 47
0.0
 47
1.0
 47
0.0
 47
0.0
 47
0.0
 47
0.0
 47
1.0
171
     0
 49
0.0008202099737533
 49
0.0
 49
0.0
 49
0.0
 49
0.0
 49
0.0008202099737533
 49
0.0
 49
0.0
 49
0.0
 49
0.0
 49
1.0
 49
0.0
 49
0.0
 49
0.0
 49
0.0
 49
1.0
175
     0
142
0.0008202099737533
142
0.0
142
0.0
142
0.0
142
0.0
142
0.0008202099737533
142
0.0
142
0.0
142
0.0
142
0.0
142
1.0
142
0.0
142
0.0
142
0.0
142
0.0
142
1.0
179
     0
144
0.0008202099737533
144
0.0
144
0.0
144
0.0
144
0.0
144
0.0008202099737533
144
0.0
144
0.0
144
0.0
144
0.0
144
1.0
144
0.0
144
0.0
144
0.0
144
0.0
144
1.0
147
0.0008202099737533
147
0.0
147
0.0
147
0.0
147
0.0
147
0.0008202099737533
147
0.0
147
0.0
147
0.0
147
0.0
147
1.0
147
0.0
147
0.0
147
0.0
147
0.0
147
1.0
  0
MLEADERSTYLE
  5
656
102
{ACAD_REACTORS
330
655
102
}
330
655
100
AcDbMLeaderStyle
170
     2
171
     1
172
     0
 90
        2
 40
0.0
 41
0.0
173
     1
 91
-1056964608
340
14
 92
       -2
290
     1
 42
2.0
291
     1
 43
0.36
  3
Standard
 44
4.0
300

342
11
174
     1
178
     6
175
     1
176
     0
 93
-1056964608
 45
4.0
292
     0
297
     0
 46
4.0
 94
-1056964608
 47
1.0
 49
1.0
140
1.0
293
     1
141
0.0
294
     1
177
     0
142
1.0
295
     0
296
     0
143
0.125
1001
ACAD_MLEADERVER
1070
     2
  0
MLINESTYLE
  5
18
102
{ACAD_REACTORS
330
17
102
}
330
17
100
AcDbMlineStyle
  2
STANDARD
 70
     0
  3

 62
   256
 51
90.0
 52
90.0
 71
     2
 49
0.5
 62
   256
  6
BYLAYER
 49
-0.5
 62
   256
  6
BYLAYER
  0
ACDBPLACEHOLDER
  5
F
102
{ACAD_REACTORS
330
E
102
}
330
E
  0
SCALE
  5
644
102
{ACAD_REACTORS
330
643
102
}
330
643
100
AcDbScale
 70
     0
300
1:1
140
1.0
141
1.0
290
     1
  0
SCALE
  5
645
102
{ACAD_REACTORS
330
643
102
}
330
643
100
AcDbScale
 70
     0
300
1:2
140
1.0
141
2.0
290
     0
  0
SCALE
  5
646
102
{ACAD_REACTORS
330
643
102
}
330
643
100
AcDbScale
 70
     0
300
1:4
140
1.0
141
4.0
290
     0
  0
SCALE
  5
647
102
{ACAD_REACTORS
330
643
102
}
330
643
100
AcDbScale
 70
     0
300
1:5
140
1.0
141
5.0
290
     0
  0
SCALE
  5
648
102
{ACAD_REACTORS
330
643
102
}
330
643
100
AcDbScale
 70
     0
300
1:8
140
1.0
141
8.0
290
     0
  0
SCALE
  5
649
102
{ACAD_REACTORS
330
643
102
}
330
643
100
AcDbScale
 70
     0
300
1:10
140
1.0
141
10.0
290
     0
  0
SCALE
  5
64A
102
{ACAD_REACTORS
330
643
102
}
330
643
100
AcDbScale
 70
     0
300
1:16
140
1.0
141
16.0
290
     0
  0
SCALE
  5
64B
102
{ACAD_REACTORS
330
643
102
}
330
643
100
AcDbScale
 70
     0
300
1:20
140
1.0
141
20.0
290
     0
  0
SCALE
  5
64C
102
{ACAD_REACTORS
330
643
102
}
330
643
100
AcDbScale
 70
     0
300
1:30
140
1.0
141
30.0
290
     0
  0
SCALE
  5
64D
102
{ACAD_REACTORS
330
643
102
}
330
643
100
AcDbScale
 70
     0
300
1:40
140
1.0
141
40.0
290
     0
  0
SCALE
  5
64E
102
{ACAD_REACTORS
330
643
102
}
330
643
100
AcDbScale
 70
     0
300
1:50
140
1.0
141
50.0
290
     0
  0
SCALE
  5
64F
102
{ACAD_REACTORS
330
643
102
}
330
643
100
AcDbScale
 70
     0
300
1:100
140
1.0
141
100.0
290
     0
  0
SCALE
  5
650
102
{ACAD_REACTORS
330
643
102
}
330
643
100
AcDbScale
 70
     0
300
2:1
140
2.0
141
1.0
290
     0
  0
SCALE
  5
651
102
{ACAD_REACTORS
330
643
102
}
330
643
100
AcDbScale
 70
     0
300
4:1
140
4.0
141
1.0
290
     0
  0
SCALE
  5
652
102
{ACAD_REACTORS
330
643
102
}
330
643
100
AcDbScale
 70
     0
300
8:1
140
8.0
141
1.0
290
     0
  0
SCALE
  5
653
102
{ACAD_REACTORS
330
643
102
}
330
643
100
AcDbScale
 70
     0
300
10:1
140
10.0
141
1.0
290
     0
  0
SCALE
  5
654
102
{ACAD_REACTORS
330
643
102
}
330
643
100
AcDbScale
 70
     0
300
100:1
140
100.0
141
1.0
290
     0
  0
ACDBSECTIONVIEWSTYLE
  5
658
102
{ACAD_XDICTIONARY
360
724
102
}
102
{ACAD_REACTORS
330
657
102
}
330
657
100
AcDbModelDocViewStyle
 70
     0
  3
Metric50
290
     0
100
AcDbSectionViewStyle
 70
     0
 71
     0
 90
      102
 71
     1
340
11
 40
5.0
340
0
340
0
 40
5.0
300
I, O, Q, S, X, Z
 40
10.0
 90
        0
 40
2.5
 90
        0
 71
     2
340
16
 90
       25
340
16
 90
       50
 40
5.0
 40
2.5
 40
5.0
 71
     3
340
11
 40
5.0
 90
        0
 40
15.0
 90
        1
300
%<\AcVar ViewSectionStartId>%-%<\AcVar ViewSectionEndId>% (%<\AcVar ViewScale \f "%sn">%)
 71
     4
300
ANSI31
 40
1.0
 90
        0
290
     0
290
     0
 90
        6
 40
0.0
 40
1.570796326794896
 40
0.2617993877991494
 40
1.308996938995747
 40
-0.2617993877991494
 40
1.832595714594046
  0
TABLESTYLE
  5
642
102
{ACAD_XDICTIONARY
360
6E5
102
}
102
{ACAD_REACTORS
330
641
102
}
330
641
100
AcDbTableStyle
  3
Standard
 70
     0
 71
     0
 40
1.5
 41
1.5
280
     0
281
     0
  7
Standard
140
4.5
170
     2
 62
     0
 63
     7
283
     0
274
    -2
284
     1
 64
     0
275
    -2
285
     1
 65
     0
276
    -2
286
     1
 66
     0
277
    -2
287
     1
 67
     0
278
    -2
288
     1
 68
     0
279
    -2
289
     1
 69
     0
  7
Standard
140
6.0
170
     5
 62
     0
 63
     7
283
     0
274
    -2
284
     1
 64
     0
275
    -2
285
     1
 65
     0
276
    -2
286
     1
 66
     0
277
    -2
287
     1
 67
     0
278
    -2
288
     1
 68
     0
279
    -2
289
     1
 69
     0
  7
Standard
140
4.5
170
     5
 62
     0
 63
     7
283
     0
274
    -2
284
     1
 64
     0
275
    -2
285
     1
 65
     0
276
    -2
286
     1
 66
     0
277
    -2
287
     1
 67
     0
278
    -2
288
     1
 68
     0
279
    -2
289
     1
 69
     0
  0
VISUALSTYLE
  5
62E
102
{ACAD_XDICTIONARY
360
6FC
102
}
102
{ACAD_REACTORS
330
628
102
}
330
628
100
AcDbVisualStyle
  2
2dWireframe
 70
     4
 71
     0
 72
     2
 73
     0
 90
        0
 40
-0.6
 41
-30.0
 62
     5
 63
     7
 74
     1
 91
        4
 64
     7
 65
   257
 75
     1
175
     1
 42
1.0
 92
        0
 66
   257
 43
1.0
 76
     1
 77
     6
 78
     2
 67
     7
 79
     5
170
     0
171
     0
290
     0
174
     0
 93
        1
 44
0.0
173
     0
291
     0
 45
0.0
1001
ACAD
1000
AcDbSavedByObjectVersion
1070
     0
  0
VISUALSTYLE
  5
62D
102
{ACAD_XDICTIONARY
360
6FA
102
}
102
{ACAD_REACTORS
330
628
102
}
330
628
100
AcDbVisualStyle
  2
Basic
 70
     7
 71
     1
 72
     0
 73
     1
 90
        0
 40
-0.6
 41
-30.0
 62
     5
 63
     7
 74
     0
 91
        4
 64
     7
 65
   257
 75
     1
175
     1
 42
1.0
 92
        8
 66
     7
 43
1.0
 76
     1
 77
     6
 78
     2
 67
     7
 79
     5
170
     0
171
     0
290
     0
174
     0
 93
        1
 44
0.0
173
     0
291
     1
 45
0.0
1001
ACAD
1000
AcDbSavedByObjectVersion
1070
     0
  0
VISUALSTYLE
  5
634
102
{ACAD_XDICTIONARY
360
708
102
}
102
{ACAD_REACTORS
330
628
102
}
330
628
100
AcDbVisualStyle
  2
Brighten
 70
    12
 71
     2
 72
     2
 73
     0
 90
        0
 40
-0.6
 41
-30.0
 62
     5
 63
     7
 74
     1
 91
        4
 64
     7
 65
   257
 75
     1
175
     1
 42
1.0
 92
        8
 66
     7
 43
1.0
 76
     1
 77
     6
 78
     2
 67
     7
 79
     5
170
     0
171
     0
290
     0
174
     0
 93
        1
 44
50.0
173
     0
291
     1
 45
0.0
1001
ACAD
1000
AcDbSavedByObjectVersion
1070
     0
  0
VISUALSTYLE
  5
638
102
{ACAD_XDICTIONARY
360
710
102
}
102
{ACAD_REACTORS
330
628
102
}
330
628
100
AcDbVisualStyle
  2
ColorChange
 70
    16
 71
     2
 72
     2
 73
     3
 90
        0
 40
-0.6
 41
-30.0
 62
     5
 63
     8
 74
     1
 91
        4
 64
     7
 65
   257
 75
     1
175
     1
 42
1.0
 92
        8
 66
     8
 43
1.0
 76
     1
 77
     6
 78
     2
 67
     7
 79
     5
170
     0
171
     0
290
     0
174
     0
 93
        1
 44
0.0
173
     0
291
     1
 45
0.0
1001
ACAD
1000
AcDbSavedByObjectVersion
1070
     0
  0
VISUALSTYLE
  5
631
102
{ACAD_XDICTIONARY
360
702
102
}
102
{ACAD_REACTORS
330
628
102
}
330
628
100
AcDbVisualStyle
  2
Conceptual
 70
     9
 71
     3
 72
     2
 73
     0
 90
        0
 40
-0.6
 41
-30.0
 62
     5
 63
     7
 74
     2
 91
        2
 64
     7
 65
   257
 75
     1
175
     1
 42
179.0
 92
        8
 66
     7
 43
1.0
 76
     1
 77
     6
 78
     2
 67
     7
 79
     3
170
     0
171
     0
290
     0
174
     0
 93
        1
 44
0.0
173
     0
291
     0
 45
0.0
1001
ACAD
1000
AcDbSavedByObjectVersion
1070
     0
  0
VISUALSTYLE
  5
633
102
{ACAD_XDICTIONARY
360
706
102
}
102
{ACAD_REACTORS
330
628
102
}
330
628
100
AcDbVisualStyle
  2
Dim
 70
    11
 71
     2
 72
     2
 73
     0
 90
        0
 40
-0.6
 41
-30.0
 62
     5
 63
     7
 74
     1
 91
        4
 64
     7
 65
   257
 75
     1
175
     1
 42
1.0
 92
        8
 66
     7
 43
1.0
 76
     1
 77
     6
 78
     2
 67
     7
 79
     5
170
     0
171
     0
290
     0
174
     0
 93
        1
 44
-50.0
173
     0
291
     1
 45
0.0
1001
ACAD
1000
AcDbSavedByObjectVersion
1070
     0
  0
VISUALSTYLE
  5
640
102
{ACAD_XDICTIONARY
360
720
102
}
102
{ACAD_REACTORS
330
628
102
}
330
628
100
AcDbVisualStyle
  2
EdgeColorOff
 70
    22
 71
     2
 72
     2
 73
     0
 90
        0
 40
-0.6
 41
-30.0
 62
     5
 63
     7
 74
     1
 91
        4
 64
     7
 65
   257
 75
     1
175
     1
 42
1.0
 92
        8
 66
     7
 43
1.0
 76
     1
 77
     6
 78
     2
 67
     7
 79
     5
170
     0
171
     0
290
     0
174
     0
 93
        1
 44
0.0
173
     0
291
     1
 45
0.0
1001
ACAD
1000
AcDbSavedByObjectVersion
1070
     0
  0
VISUALSTYLE
  5
637
102
{ACAD_XDICTIONARY
360
70E
102
}
102
{ACAD_REACTORS
330
628
102
}
330
628
100
AcDbVisualStyle
  2
Facepattern
 70
    15
 71
     2
 72
     2
 73
     0
 90
        0
 40
-0.6
 41
-30.0
 62
     5
 63
     7
 74
     1
 91
        4
 64
     7
 65
   257
 75
     1
175
     1
 42
1.0
 92
        8
 66
     7
 43
1.0
 76
     1
 77
     6
 78
     2
 67
     7
 79
     5
170
     0
171
     0
290
     0
174
     0
 93
        1
 44
0.0
173
     0
291
     1
 45
0.0
1001
ACAD
1000
AcDbSavedByObjectVersion
1070
     0
  0
VISUALSTYLE
  5
629
102
{ACAD_XDICTIONARY
360
6F2
102
}
102
{ACAD_REACTORS
330
628
102
}
330
628
100
AcDbVisualStyle
  2
Flat
 70
     0
 71
     2
 72
     1
 73
     1
 90
        2
 40
-0.6
 41
30.0
 62
     5
 63
     7
 74
     0
 91
        0
 64
     7
 65
   257
 75
     1
175
     1
 42
1.0
 92
        8
 66
     7
 43
1.0
 76
     1
 77
     6
 78
     2
 67
     7
 79
     5
170
     0
171
     0
290
     0
174
     0
 93
       13
 44
0.0
173
     0
291
     1
 45
0.0
1001
ACAD
1000
AcDbSavedByObjectVersion
1070
     0
  0
VISUALSTYLE
  5
62A
102
{ACAD_XDICTIONARY
360
6F4
102
}
102
{ACAD_REACTORS
330
628
102
}
330
628
100
AcDbVisualStyle
  2
FlatWithEdges
 70
     1
 71
     2
 72
     1
 73
     1
 90
        2
 40
-0.6
 41
30.0
 62
     5
 63
     7
 74
     1
 91
        0
 64
     7
 65
   257
 75
     1
175
     1
 42
1.0
 92
        0
 66
   257
 43
1.0
 76
     1
 77
     6
 78
     2
 67
     7
 79
     5
170
     0
171
     0
290
     0
174
     0
 93
       13
 44
0.0
173
     0
291
     1
 45
0.0
1001
ACAD
1000
AcDbSavedByObjectVersion
1070
     0
  0
VISUALSTYLE
  5
62B
102
{ACAD_XDICTIONARY
360
6F6
102
}
102
{ACAD_REACTORS
330
628
102
}
330
628
100
AcDbVisualStyle
  2
Gouraud
 70
     2
 71
     2
 72
     2
 73
     1
 90
        2
 40
-0.6
 41
30.0
 62
     5
 63
     7
 74
     0
 91
        0
 64
     7
 65
   257
 75
     1
175
     1
 42
1.0
 92
        0
 66
     7
 43
1.0
 76
     1
 77
     6
 78
     2
 67
     7
 79
     5
170
     0
171
     0
290
     0
174
     0
 93
       13
 44
0.0
173
     0
291
     1
 45
0.0
1001
ACAD
1000
AcDbSavedByObjectVersion
1070
     0
  0
VISUALSTYLE
  5
62C
102
{ACAD_XDICTIONARY
360
6F8
102
}
102
{ACAD_REACTORS
330
628
102
}
330
628
100
AcDbVisualStyle
  2
GouraudWithEdges
 70
     3
 71
     2
 72
     2
 73
     1
 90
        2
 40
-0.6
 41
30.0
 62
     5
 63
     7
 74
     1
 91
        0
 64
     7
 65
   257
 75
     1
175
     1
 42
1.0
 92
        0
 66
   257
 43
1.0
 76
     1
 77
     6
 78
     2
 67
     7
 79
     5
170
     0
171
     0
290
     0
174
     0
 93
       13
 44
0.0
173
     0
291
     1
 45
0.0
1001
ACAD
1000
AcDbSavedByObjectVersion
1070
     0
  0
VISUALSTYLE
  5
630
102
{ACAD_XDICTIONARY
360
700
102
}
102
{ACAD_REACTORS
330
628
102
}
330
628
100
AcDbVisualStyle
  2
Hidden
 70
     6
 71
     1
 72
     2
 73
     2
 90
        0
 40
-0.6
 41
-30.0
 62
     5
 63
     7
 74
     2
 91
        2
 64
     7
 65
   257
 75
     2
175
     1
 42
40.0
 92
        0
 66
   257
 43
1.0
 76
     1
 77
     6
 78
     2
 67
     7
 79
     3
170
     0
171
     0
290
     0
174
     0
 93
        1
 44
0.0
173
     0
291
     0
 45
0.0
1001
ACAD
1000
AcDbSavedByObjectVersion
1070
     0
  0
VISUALSTYLE
  5
63E
102
{ACAD_XDICTIONARY
360
71C
102
}
102
{ACAD_REACTORS
330
628
102
}
330
628
100
AcDbVisualStyle
  2
JitterOff
 70
    20
 71
     2
 72
     2
 73
     0
 90
        0
 40
-0.6
 41
-30.0
 62
     5
 63
     7
 74
     1
 91
        4
 64
     7
 65
   257
 75
     1
175
     1
 42
1.0
 92
       10
 66
     7
 43
1.0
 76
     1
 77
     6
 78
     2
 67
     7
 79
     5
170
     0
171
     0
290
     0
174
     0
 93
        1
 44
0.0
173
     0
291
     1
 45
0.0
1001
ACAD
1000
AcDbSavedByObjectVersion
1070
     0
  0
VISUALSTYLE
  5
636
102
{ACAD_XDICTIONARY
360
70C
102
}
102
{ACAD_REACTORS
330
628
102
}
330
628
100
AcDbVisualStyle
  2
Linepattern
 70
    14
 71
     2
 72
     2
 73
     0
 90
        0
 40
-0.6
 41
-30.0
 62
     5
 63
     7
 74
     1
 91
        4
 64
     7
 65
   257
 75
     7
175
     7
 42
1.0
 92
        8
 66
     7
 43
1.0
 76
     1
 77
     6
 78
     2
 67
     7
 79
     5
170
     0
171
     0
290
     0
174
     0
 93
        1
 44
0.0
173
     0
291
     1
 45
0.0
1001
ACAD
1000
AcDbSavedByObjectVersion
1070
     0
  0
VISUALSTYLE
  5
63F
102
{ACAD_XDICTIONARY
360
71E
102
}
102
{ACAD_REACTORS
330
628
102
}
330
628
100
AcDbVisualStyle
  2
OverhangOff
 70
    21
 71
     2
 72
     2
 73
     0
 90
        0
 40
-0.6
 41
-30.0
 62
     5
 63
     7
 74
     1
 91
        4
 64
     7
 65
   257
 75
     1
175
     1
 42
1.0
 92
        9
 66
     7
 43
1.0
 76
     1
 77
     6
 78
     2
 67
     7
 79
     5
170
     0
171
     0
290
     0
174
     0
 93
        1
 44
0.0
173
     0
291
     1
 45
0.0
1001
ACAD
1000
AcDbSavedByObjectVersion
1070
     0
  0
VISUALSTYLE
  5
632
102
{ACAD_XDICTIONARY
360
704
102
}
102
{ACAD_REACTORS
330
628
102
}
330
628
100
AcDbVisualStyle
  2
Realistic
 70
     8
 71
     2
 72
     3
 73
     0
 90
        2
 40
-0.6
 41
30.0
 62
     5
 63
     7
 74
     0
 91
        0
 64
     7
 65
   257
 75
     1
175
     1
 42
1.0
 92
        8
 66
   257
 43
1.0
 76
     1
 77
     6
 78
     2
 67
     7
 79
     3
170
     0
171
     0
290
     0
174
     0
 93
       13
 44
0.0
173
     0
291
     0
 45
0.0
1001
ACAD
1000
AcDbSavedByObjectVersion
1070
     0
  0
VISUALSTYLE
  5
63D
102
{ACAD_XDICTIONARY
360
71A
102
}
102
{ACAD_REACTORS
330
628
102
}
330
628
100
AcDbVisualStyle
  2
Shaded
 70
    27
 71
     2
 72
     2
 73
     1
 90
        2
 40
-0.6
 41
30.0
 62
     5
 63
     7
 74
     0
 91
        4
 64
     7
 65
   257
 75
     1
175
     1
 42
1.0
 92
        8
 66
   257
 43
1.0
 76
     1
 77
     6
 78
     2
 67
     8
 79
     3
170
     0
171
     0
290
     0
174
     0
 93
        5
 44
0.0
173
     0
291
     0
 45
0.0
1001
ACAD
1000
AcDbSavedByObjectVersion
1070
     0
  0
VISUALSTYLE
  5
63C
102
{ACAD_XDICTIONARY
360
718
102
}
102
{ACAD_REACTORS
330
628
102
}
330
628
100
AcDbVisualStyle
  2
Shaded with edges
 70
    26
 71
     2
 72
     2
 73
     1
 90
        2
 40
-0.6
 41
30.0
 62
     5
 63
     7
 74
     1
 91
       10
 64
     7
 65
   257
 75
     2
175
     1
 42
1.0
 92
        8
 66
   257
 43
1.0
 76
     1
 77
     6
 78
     2
 67
     7
 79
     3
170
     0
171
     0
290
     0
174
     0
 93
        5
 44
0.0
173
     0
291
     0
 45
0.0
1001
ACAD
1000
AcDbSavedByObjectVersion
1070
     0
  0
VISUALSTYLE
  5
639
102
{ACAD_XDICTIONARY
360
712
102
}
102
{ACAD_REACTORS
330
628
102
}
330
628
100
AcDbVisualStyle
  2
Shades of Gray
 70
    23
 71
     2
 72
     2
 73
     3
 90
        0
 40
-0.6
 41
-30.0
 62
     5
 63
     7
 74
     2
 91
        2
 64
     7
 65
     7
 75
     1
175
     1
 42
40.0
 92
        8
 66
     7
 43
1.0
 76
     1
 77
     6
 78
     2
 67
     7
 79
     3
170
     0
171
     0
290
     0
174
     0
 93
        1
 44
0.0
173
     0
291
     0
 45
0.0
1001
ACAD
1000
AcDbSavedByObjectVersion
1070
     0
  0
VISUALSTYLE
  5
63A
102
{ACAD_XDICTIONARY
360
714
102
}
102
{ACAD_REACTORS
330
628
102
}
330
628
100
AcDbVisualStyle
  2
Sketchy
 70
    24
 71
     1
 72
     2
 73
     2
 90
        0
 40
-0.6
 41
-30.0
 62
     5
 63
     7
 74
     2
 91
        2
 64
     7
 65
     7
 75
     1
175
     1
 42
40.0
 92
       11
 66
     7
 43
1.0
 76
     1
 77
     6
 78
     2
 67
     7
 79
     6
170
     0
171
     0
290
     0
174
     0
 93
        1
 44
0.0
173
     0
291
     0
 45
0.0
1001
ACAD
1000
AcDbSavedByObjectVersion
1070
     0
  0
VISUALSTYLE
  5
635
102
{ACAD_XDICTIONARY
360
70A
102
}
102
{ACAD_REACTORS
330
628
102
}
330
628
100
AcDbVisualStyle
  2
Thicken
 70
    13
 71
     2
 72
     2
 73
     0
 90
        0
 40
-0.6
 41
-30.0
 62
     5
 63
     7
 74
     1
 91
        4
 64
     7
 65
   257
 75
     1
175
     1
 42
1.0
 92
       12
 66
     7
 43
1.0
 76
     1
 77
     6
 78
     2
 67
     7
 79
     5
170
     0
171
     0
290
     0
174
     0
 93
        1
 44
0.0
173
     0
291
     1
 45
0.0
1001
ACAD
1000
AcDbSavedByObjectVersion
1070
     0
  0
VISUALSTYLE
  5
62F
102
{ACAD_XDICTIONARY
360
6FE
102
}
102
{ACAD_REACTORS
330
628
102
}
330
628
100
AcDbVisualStyle
  2
Wireframe
 70
     5
 71
     0
 72
     2
 73
     0
 90
        0
 40
-0.6
 41
-30.0
 62
     5
 63
     7
 74
     1
 91
        4
 64
     7
 65
   257
 75
     1
175
     1
 42
1.0
 92
        0
 66
   257
 43
1.0
 76
     1
 77
     6
 78
     2
 67
     7
 79
     3
170
     0
171
     0
290
     0
174
     0
 93
        1
 44
0.0
173
     0
291
     0
 45
0.0
1001
ACAD
1000
AcDbSavedByObjectVersion
1070
     0
  0
VISUALSTYLE
  5
63B
102
{ACAD_XDICTIONARY
360
716
102
}
102
{ACAD_REACTORS
330
628
102
}
330
628
100
AcDbVisualStyle
  2
X-Ray
 70
    25
 71
     2
 72
     2
 73
     1
 90
        1
 40
0.5
 41
-30.0
 62
     5
 63
     7
 74
     1
 91
        0
 64
     7
 65
   257
 75
     1
175
     1
 42
1.0
 92
        8
 66
     7
 43
1.0
 76
     1
 77
     6
 78
     2
 67
     7
 79
     3
170
     0
171
     0
290
     0
174
     0
 93
       13
 44
0.0
173
     0
291
     0
 45
0.0
1001
ACAD
1000
AcDbSavedByObjectVersion
1070
     0
  0
DICTIONARYVAR
  5
683
102
{ACAD_REACTORS
330
5E
102
}
330
5E
100
DictionaryVariables
280
     0
  1
1:1
  0
DICTIONARYVAR
  5
680
102
{ACAD_REACTORS
330
5E
102
}
330
5E
100
DictionaryVariables
280
     0
  1
STANDARD
  0
DICTIONARYVAR
  5
67F
102
{ACAD_REACTORS
330
5E
102
}
330
5E
100
DictionaryVariables
280
     0
  1
STANDARD
  0
DICTIONARYVAR
  5
681
102
{ACAD_REACTORS
330
5E
102
}
330
5E
100
DictionaryVariables
280
     0
  1
Metric50
  0
DICTIONARYVAR
  5
682
102
{ACAD_REACTORS
330
5E
102
}
330
5E
100
DictionaryVariables
280
     0
  1
Metric50
  0
DICTIONARYVAR
  5
5F
102
{ACAD_REACTORS
330
5E
102
}
330
5E
100
DictionaryVariables
280
     0
  1
2
  0
DICTIONARYVAR
  5
63
102
{ACAD_REACTORS
330
5E
102
}
330
5E
100
DictionaryVariables
280
     0
  1
1
  0
DICTIONARYVAR
  5
685
102
{ACAD_REACTORS
330
5E
102
}
330
5E
100
DictionaryVariables
280
     0
  1
0
  0
DICTIONARYVAR
  5
603
102
{ACAD_REACTORS
330
5E
102
}
330
5E
100
DictionaryVariables
280
     0
  1

  0
DICTIONARYVAR
  5
684
102
{ACAD_REACTORS
330
5E
102
}
330
5E
100
DictionaryVariables
280
     0
  1
127
  0
DICTIONARYVAR
  5
686
102
{ACAD_REACTORS
330
5E
102
}
330
5E
100
DictionaryVariables
280
     0
  1
2
  0
DICTIONARY
  5
726
330
65A
100
AcDbDictionary
280
     1
281
     1
  3
ACAD_XREC_ROUNDTRIP
360
727
  0
DICTIONARY
  5
6E9
330
22
100
AcDbDictionary
280
     1
281
     1
  3
ACAD_XREC_ROUNDTRIP
360
6EA
  0
DICTIONARY
  5
6EB
330
51
100
AcDbDictionary
280
     1
281
     1
  3
ACAD_XREC_ROUNDTRIP
360
6EC
  0
DICTIONARY
  5
6ED
330
56
100
AcDbDictionary
280
     1
281
     1
  3
ACAD_XREC_ROUNDTRIP
360
6EE
  0
DICTIONARY
  5
619
330
618
100
AcDbDictionary
280
     1
281
     1
  3
ACAD_XREC_ROUNDTRIP
360
6F0
  3
BUMPTILE
360
61B
  3
DIFFUSETILE
360
61A
  3
OPACITYTILE
360
61E
  3
REFLECTIONTILE
360
61D
  3
REFRACTIONTILE
360
61F
  3
SPECULARTILE
360
61C
  0
DICTIONARY
  5
611
330
610
100
AcDbDictionary
280
     1
281
     1
  3
ACAD_XREC_ROUNDTRIP
360
6EF
  3
BUMPTILE
360
613
  3
DIFFUSETILE
360
612
  3
OPACITYTILE
360
616
  3
REFLECTIONTILE
360
615
  3
REFRACTIONTILE
360
617
  3
SPECULARTILE
360
614
  0
DICTIONARY
  5
621
330
620
100
AcDbDictionary
280
     1
281
     1
  3
ACAD_XREC_ROUNDTRIP
360
6F1
  3
BUMPTILE
360
623
  3
DIFFUSETILE
360
622
  3
FBXASSET
360
6D3
  3
OPACITYTILE
360
626
  3
REFLECTIONTILE
360
625
  3
REFRACTIONTILE
360
627
  3
SPECULARTILE
360
624
  0
DICTIONARY
  5
724
330
658
100
AcDbDictionary
280
     1
281
     1
  3
ACAD_XREC_ROUNDTRIP
360
725
  0
DICTIONARY
  5
6E5
330
642
100
AcDbDictionary
280
     1
281
     1
  3
ACAD_ROUNDTRIP_2008_TABLESTYLE_CELLSTYLEMAP
360
6E6
  3
ACAD_XREC_ROUNDTRIP
360
722
  0
DICTIONARY
  5
6FC
330
62E
100
AcDbDictionary
280
     1
281
     1
  3
ACAD_XREC_ROUNDTRIP
360
6FD
  0
DICTIONARY
  5
6FA
330
62D
100
AcDbDictionary
280
     1
281
     1
  3
ACAD_XREC_ROUNDTRIP
360
6FB
  0
DICTIONARY
  5
708
330
634
100
AcDbDictionary
280
     1
281
     1
  3
ACAD_XREC_ROUNDTRIP
360
709
  0
DICTIONARY
  5
710
330
638
100
AcDbDictionary
280
     1
281
     1
  3
ACAD_XREC_ROUNDTRIP
360
711
  0
DICTIONARY
  5
702
330
631
100
AcDbDictionary
280
     1
281
     1
  3
ACAD_XREC_ROUNDTRIP
360
703
  0
DICTIONARY
  5
706
330
633
100
AcDbDictionary
280
     1
281
     1
  3
ACAD_XREC_ROUNDTRIP
360
707
  0
DICTIONARY
  5
720
330
640
100
AcDbDictionary
280
     1
281
     1
  3
ACAD_XREC_ROUNDTRIP
360
721
  0
DICTIONARY
  5
70E
330
637
100
AcDbDictionary
280
     1
281
     1
  3
ACAD_XREC_ROUNDTRIP
360
70F
  0
DICTIONARY
  5
6F2
330
629
100
AcDbDictionary
280
     1
281
     1
  3
ACAD_XREC_ROUNDTRIP
360
6F3
  0
DICTIONARY
  5
6F4
330
62A
100
AcDbDictionary
280
     1
281
     1
  3
ACAD_XREC_ROUNDTRIP
360
6F5
  0
DICTIONARY
  5
6F6
330
62B
100
AcDbDictionary
280
     1
281
     1
  3
ACAD_XREC_ROUNDTRIP
360
6F7
  0
DICTIONARY
  5
6F8
330
62C
100
AcDbDictionary
280
     1
281
     1
  3
ACAD_XREC_ROUNDTRIP
360
6F9
  0
DICTIONARY
  5
700
330
630
100
AcDbDictionary
280
     1
281
     1
  3
ACAD_XREC_ROUNDTRIP
360
701
  0
DICTIONARY
  5
71C
330
63E
100
AcDbDictionary
280
     1
281
     1
  3
ACAD_XREC_ROUNDTRIP
360
71D
  0
DICTIONARY
  5
70C
330
636
100
AcDbDictionary
280
     1
281
     1
  3
ACAD_XREC_ROUNDTRIP
360
70D
  0
DICTIONARY
  5
71E
330
63F
100
AcDbDictionary
280
     1
281
     1
  3
ACAD_XREC_ROUNDTRIP
360
71F
  0
DICTIONARY
  5
704
330
632
100
AcDbDictionary
280
     1
281
     1
  3
ACAD_XREC_ROUNDTRIP
360
705
  0
DICTIONARY
  5
71A
330
63D
100
AcDbDictionary
280
     1
281
     1
  3
ACAD_XREC_ROUNDTRIP
360
71B
  0
DICTIONARY
  5
718
330
63C
100
AcDbDictionary
280
     1
281
     1
  3
ACAD_XREC_ROUNDTRIP
360
719
  0
DICTIONARY
  5
712
330
639
100
AcDbDictionary
280
     1
281
     1
  3
ACAD_XREC_ROUNDTRIP
360
713
  0
DICTIONARY
  5
714
330
63A
100
AcDbDictionary
280
     1
281
     1
  3
ACAD_XREC_ROUNDTRIP
360
715
  0
DICTIONARY
  5
70A
330
635
100
AcDbDictionary
280
     1
281
     1
  3
ACAD_XREC_ROUNDTRIP
360
70B
  0
DICTIONARY
  5
6FE
330
62F
100
AcDbDictionary
280
     1
281
     1
  3
ACAD_XREC_ROUNDTRIP
360
6FF
  0
DICTIONARY
  5
716
330
63B
100
AcDbDictionary
280
     1
281
     1
  3
ACAD_XREC_ROUNDTRIP
360
717
  0
XRECORD
  5
727
102
{ACAD_REACTORS
330
726
102
}
330
726
100
AcDbXrecord
280
     1
102
DISPLAYNAME
  1
Metric50
102
FLAGS
 90
        0
  0
XRECORD
  5
6EA
102
{ACAD_REACTORS
330
6E9
102
}
330
6E9
100
AcDbXrecord
280
     1
102
SHADEPLOT
 70
     0
102
SHADEPLOTRESLEVEL
 70
     4
102
SHADEPLOTCUSTOMDPI
 70
   300
  0
XRECORD
  5
6EC
102
{ACAD_REACTORS
330
6EB
102
}
330
6EB
100
AcDbXrecord
280
     1
102
SHADEPLOT
 70
     0
102
SHADEPLOTRESLEVEL
 70
     2
102
SHADEPLOTCUSTOMDPI
 70
   300
  0
XRECORD
  5
6EE
102
{ACAD_REACTORS
330
6ED
102
}
330
6ED
100
AcDbXrecord
280
     1
102
SHADEPLOT
 70
     0
102
SHADEPLOTRESLEVEL
 70
     2
102
SHADEPLOTCUSTOMDPI
 70
   300
  0
XRECORD
  5
6F0
102
{ACAD_REACTORS
330
619
102
}
330
619
100
AcDbXrecord
280
     1
102
MATERIAL
148
0.0
149
0.0
149
0.0
 93
        0
 94
      127
282
     0
 72
     0
 77
     0
171
     0
175
     0
179
     0
273
     0
  0
XRECORD
  5
61B
102
{ACAD_REACTORS
330
619
102
}
330
619
100
AcDbXrecord
280
     1
270
     1
271
     1
  0
XRECORD
  5
61A
102
{ACAD_REACTORS
330
619
102
}
330
619
100
AcDbXrecord
280
     1
270
     1
271
     1
  0
XRECORD
  5
61E
102
{ACAD_REACTORS
330
619
102
}
330
619
100
AcDbXrecord
280
     1
270
     1
271
     1
  0
XRECORD
  5
61D
102
{ACAD_REACTORS
330
619
102
}
330
619
100
AcDbXrecord
280
     1
270
     1
271
     1
  0
XRECORD
  5
61F
102
{ACAD_REACTORS
330
619
102
}
330
619
100
AcDbXrecord
280
     1
270
     1
271
     1
  0
XRECORD
  5
61C
102
{ACAD_REACTORS
330
619
102
}
330
619
100
AcDbXrecord
280
     1
270
     1
271
     1
  0
XRECORD
  5
6EF
102
{ACAD_REACTORS
330
611
102
}
330
611
100
AcDbXrecord
280
     1
102
MATERIAL
148
0.0
149
0.0
149
0.0
 93
        0
 94
      127
282
     0
 72
     0
 77
     0
171
     0
175
     0
179
     0
273
     0
  0
XRECORD
  5
613
102
{ACAD_REACTORS
330
611
102
}
330
611
100
AcDbXrecord
280
     1
270
     1
271
     1
  0
XRECORD
  5
612
102
{ACAD_REACTORS
330
611
102
}
330
611
100
AcDbXrecord
280
     1
270
     1
271
     1
  0
XRECORD
  5
616
102
{ACAD_REACTORS
330
611
102
}
330
611
100
AcDbXrecord
280
     1
270
     1
271
     1
  0
XRECORD
  5
615
102
{ACAD_REACTORS
330
611
102
}
330
611
100
AcDbXrecord
280
     1
270
     1
271
     1
  0
XRECORD
  5
617
102
{ACAD_REACTORS
330
611
102
}
330
611
100
AcDbXrecord
280
     1
270
     1
271
     1
  0
XRECORD
  5
614
102
{ACAD_REACTORS
330
611
102
}
330
611
100
AcDbXrecord
280
     1
270
     1
271
     1
  0
XRECORD
  5
6F1
102
{ACAD_REACTORS
330
621
102
}
330
621
100
AcDbXrecord
280
     1
102
MATERIAL
148
0.0
149
0.0
149
0.0
 93
        0
 94
      127
282
     0
 72
     0
 77
     0
171
     0
175
     0
179
     0
273
     0
  0
XRECORD
  5
623
102
{ACAD_REACTORS
330
621
102
}
330
621
100
AcDbXrecord
280
     1
270
     1
271
     1
  0
XRECORD
  5
622
102
{ACAD_REACTORS
330
621
102
}
330
621
100
AcDbXrecord
280
     1
270
     1
271
     1
  0
XRECORD
  5
6D3
102
{ACAD_REACTORS
330
621
102
}
330
621
100
AcDbXrecord
280
     1
 70
     1
 90
-1506045146
 71
     1
  1
8DBA6784-C1D1-481C-8FED-FE023E876E8F
311
504B0304140006080800888045476E952F28B9000000200100004F00000033373330454342392D433343302D343235342D413631322D3734443946323034443843302F4173736574446174612F446566696E6974696F6E4974657261746F7250726F706572746965732E62696EEB606060F80F0540260323103700495E20ED
311
9E9A975A94991C9C9C919A9BC8C00612C9C94F4ACC6147C831019920AE4B6A5A62694E0948976F6671726A4E4E625E6A7E69B12042A9426E6209D0B8C41C3D90264E20860914834C48875806B2DF0F88414E02D189290556F689C5C5A925B6FA694915FA4E168E8EA6E6CE96BAC6E606AEBA264EC646BA8E968626BA16E68E
311
964E6606A616A6A6CEFA45A9C5F9A545C9A9C5FA46FA06F15093E30BF2D28106E200C86180AC0400504B0304140006080800888045477354DA65F6000000300200004500000033373330454342392D433343302D343235342D413631322D3734443946323034443843302F4173736574446174612F496E7374616E63655072
311
6F706572746965732E62696EEB606060F80F0540260323103700495E20ED9E9A975A94991C9C9C919A9BA80214B07071723433B730D175367431D435B13074D6B5707375D1757335303276B5303773B570634768046931363471713532B5D435353131D635313332D475727372D13534373670367376B67474B5042A03DBCB
311
A019D37FE8ABC6157B20CD04146B0062181F4C03F940F0C11EA29A8141C08141002C0426541C106CAC2CA046088033B02A030AC2157C6006F21A8018AAF50194E6010A610250382264E08660284CD9E98021862280A91564B406929A0FF62C401E28B6F88038B83CB1243943D7A928312F25350524432CF803543805885940
311
46110100504B03041400060808008880454728BB58AF800100009E0500003D00000033373330454342392D433343302D343235342D413631322D3734443946323034443843302F536368656D61732F436F6D6D6F6E536368656D612E786D6CBD544D4FC23018BEFB2B96DE15493C78601010A34B880709DEDFB52FD0D8B54B
311
D70DF6EFED3AC0B12E6442E2716BFB3CEFF3D18E26FB440405EA8C2B1992E1C323095052C5B8DC842437EBFB673219DF8DA659866649B798C078B48AE6410122242F2A4994AC7F93815DF85C049C8564CA0A901499DD886B2EB9B1E02448F358701A9235880C49A0119892A20C89D1B9FD768815CAD268CB5E0355B40B1E47
311
F3E37A2020464BED06AA57CE8FCC20C3C3446D46761A2632A8C1283D07031EFF2AE7CCB1BFEEE916E406DFAC8E36FFD99A9D60A6944090EEDC3B670C7DC13DE86B6B2C5C240D6E503BB85ACD579D513F1B9F9A69DC9CC22AFA80C426D40AF0B21EA168559156B6276F0F726A6BFF04DCD513A87A62CAD41FB24FCB2858B395
311
2E3D852084DA25B9303C15687973CC8E8AAE11DF2836C38C6A9E765E8C1BA1BFB1DC29CDFE518C8B5A7655A4ED7E77291ABEB80DBD82EC866ADE1B8D05AF9E35CF09D7A061F38A986D9EC412B8F0F65E5D81534D9B231D1E5A8FE577A241F3A5FD01504B0304140006080800888045472CCEBD668A040000E01200003E0000
311
0033373330454342392D433343302D343235342D413631322D3734443946323034443843302F536368656D61732F47656E65726963536368656D612E786D6CD5586D6FDB380CFE7EBF42F0F7A649B70E1B90744856B4970F450FCD7A5F05459613EDE4174872DADCAF3F522F8ED3B88D2F1D06AC4050DBA2493EE4438AF2F8
311
EB73AEC8466823CB62928C06C384888297A92C5693A4B6D9D9E7E4EBD51FE3A931C22EF85AE4EC6AFC38BF261BA626C9AD288496DC3F4FCEAFC63366845F7A10452AF41DB320C0D44EC26EAB20918735565582695670811A6A49643A49A6E9069FA4604A64B29016DC4B48552F95E4932463CA888468C1D2B250DB4962750D
311
F7CE273069CE8363F1FF4EDB00E0A21999574AE4A2B00C353B93F3BD4777B8A61ED8F604ABFEDD79CE56A2B7BDFBDBC50996E0ADDE16FED26223C5D30956C29BDF4A55EA686E5E58B112DA45CE67F76F4FA27EFA3FB672FD7372FC388FAECDCA5209E693CAD167BADCD272F943701B3812F8A3D852008B1D2E32DB927B2F83
311
3C6EA95879925356D254582695095A3CE982924720BE5774A3CB9CDCDB350427D2DF20DA1B5532EBE2D5D6288D75D4F7E4FD9890A0EF8E3D93EBB8F8BA4758158EF6FB90A6F9520281C93DE7AAC6D24607DA296BB96018123F821A7D6A5C5884050C475DA4865442732C8B95684A50165CBB3A32F25F783A4A480ED59AD7F9
311
24B968AEA50131F46303223E6A397B0E52976030DC1DCA81D7E7C1EDEEA42C19FF27635C505E2BD5198A599020DF50A2330FCB3AAF28CB0124108429553EF1B228802E2265D8F7CC2401042B155BCC7070F1E5C55F13B4A9577362CCCE46C32174E010C3C378C44841A4BDA00FE3A12006CE11EE6AEC59894D3526DDE1CD59
311
D503ECC324017F8061B7F162162FA62EDD81AE3308617770796DCBDAD2B2625C5AE8A63DE20B2C8AA5E95E76E5730823955956E33E705425A2187C185D36489A1B44D3DCEC2172F6BA2105C3546287A7194B2331768EBBE64F6E70A9930ABE0ADEA89E9E2C38523B810287AD67A54A039C1606EAFE68F8304610BB9093DBDD
311
ABC0B2AE4E290DCDA15376D7E39F72B556F0B32EAB5D3D498B4C41ABADEC3A1434C422D87E8025A84BDCB2B1417ED750FAE4DA8976863974C577C7F902D3F156AD354DEA3540DE6BEAE2BEA52F7A2EB4CA43802ECE5BF2CE2EDC9347179FFB023CE412E60BE16DA0BE29B374988A553F561DC04615DD35F7D2C8979F60E595
311
5CE93DF29DED8AFA1EE6642D53418086C03C47C377910F75F7E8F5EF665F70B60FFB22AEDF897D119E8423C773E819A3C1E55E550599EE6EDCA34D0C86FD72057DF2CD46F16A470682471C164E4346D5306BF12D7D12D82CFF673D41636C347443FEB51B50D72EA171A8E4A58623A4A16E0FA2B8B10A0D23268D87C33896EE
311
8FB73305A74BF224EDBADFA0BD674AB354D63DB7BD5D83426761C077DE767728235446A552754EB93B755891C3C4CC6CADE37CF0E912A7BB38DBA010F9DE1282EDF470CA69A9CDA482E334C4A6EA4107987980B17E72F31730EBF88BBD39E7C629F56797A3C0009C2C5AE7951D9A05A02773440F02EEB4DE396A3B6A570C72
311
CCFBCD823B0B8ED3F1D5CEDDFED772FA70236C83FB7D86C385D570B87107535572A60A96035F8F7C6A7192F13007246BBE0521855E6AC46F3E27689CEE7D186A6FD679D98CDCAD13333E04EBE7ED6F55FF01504B0304140006080800888045476180134D5F0100006B0300004500000033373330454342392D433343302D34
311
3235342D413631322D3734443946323034443843302F536368656D61732F52656E6465724D6174657269616C536368656D612E786D6CA5934D6FC2300C86EFFB1551EEE343DBA41D1A103009551ADAD40EAE28A4A68D9426284961FCFBE5A340113B2071746D3F765EBF4DC6BFB5407BD0862B49F0B037C0082453059725C1
311
8DDD3EBFE3F1E829991803366715D474942CD30FB4A782E00C64017A412D684E454CE3FE28995203B162A6EA5AC94B66997D225E109CD63B0135484BAD1B3C07E9080CA35DB3119C11BCA5C200461A68A1A438126C75E3E230D40FF81FB3F03C91D1E3A3A0AF79FE28E25BC39EC3E17E4C2A2D94A0833A51AF55BCCA7D8857
311
2FCBAC529C4140B020FC3AAFA886621DCED7EAD7664CC86024E806DC297DA1BB393E4156543457A4537DB8817349A70F8ACBF09B3EEE2CB2F33E91B65D60786E4E3B39B77E3FEEEF5650424525DA657FB8B46BE6BF064646F0A0F7327C0BC1BC1B4CBBC1C419FA3CCB23500007872A2580CAAE5461865565294E4EDB4617B6
311
2FF579DF9A5B2F54E834076A597573A020912FED777F9B3F504B0304140006080800888045477E632FB451000000570000004700000033373330454342392D433343302D343235342D413631322D3734443946323034443843302F4173736574446174612F41737365745461626C654F66436F6E74656E74732E62696E5361
311
6060B07071723433B730D175367431D435B13074D6B5707375D1757335303276B5303773B5701302AACB4D2C492DCA4CCC492C28484D2C4ACC4B4E050A82012F90744FCD03CA26072767A4E6260200504B030414000608080088804547F865834058000000680000004500000033373330454342392D433343302D34323534
311
2D413631322D3734443946323034443843302F4173736574446174612F53747265616D56657273696F6E5461626C652E696E66558CBD0A80300C06F73E4B117FB66E451741D041DC5BF98480A492E4FDD18EAEC7DD4555D89EF28DF51A0B1BD8340C4DE7DD848B988C0ACF0649566493F2408C508DDEBB99D5129FF8F1AF8C
311
F5B9503E20FAE5A16B5AF702504B030414000608080088804547793C910E340100009A0400003600000033373330454342392D433343302D343235342D413631322D3734443946323034443843302F4173736574446174612F636E782E786D6CCD94314FC3301085FF4AE43D768268852AC71582A51348540C6C57E752AC3A
311
76645F10FC7BEC2403A888A943D7F3BBF3F327BF93DBCFDE161F18A2F1AE6135AF58814EFBD6B863C346EACA3B566C950CDED30F192B1CF4D8B05C664A1E831F87A5D46207A3CD556BDC6929DEC788B48783C5A7EEC13B42479115DA428C0D8BFA1D7BE030926F319E780B04BCE601A31F83C634894C8FCB241D10085BA66E
311
AA7A55D65559ADF6F57A53DD6EEAF59B1459A9E4C17BBBE84DBA2CF8A1D0F3AD4C5552E46325C760164D7E0B537F79E407E3A4484A252385C464E9A0AF2175C03058A381123AE13521954984D04B318B951499C12F128FD8196772CB2E1903F2E139D9C34006AF8EC87F5E2F4F66E72281D378BD3CCE1D5E9EC2CBF4835EE7
311
404E89B9B69C9C3BE4C67517488998D6480A4DDE2AEA1B504B030414000608080088804547E8814194080100004F0300003400000033373330454342392D433343302D343235342D413631322D3734443946323034443843302F536368656D61732F636E782E786D6CCD93BD4E042114855F85D00F30C6DD980DC316165636
311
6A6587CCDD952C7027FC187D7B61A4D84DECB4D80E0E5FC839878BDC7F7A473E20268B61A2231394403038DB709C68C987E18E92BD9211319F619404ED61A24DA64A1E2396A54B331C74714D75369CBA788FDE637836EFE03525C6E994269AD62DD325E30CE9C4669D351B598484251AA83764EBA1DF6022E80C33553762DC
311
0CA318C4E665DCEEC4ED6EDCBE4ADE4825DF105DE76DC810712106EB22543B42F276AC6489B6332D0355E7DE586D43F24A289972AC1D74327F2D95D4CBE2ACD1B956C557F0875192B7A817811F2040B4E63A135F98FBB7C84F1066888FF595A2D5EE3A93FFE6F16F05F075F6EB08B4AFA0BE01504B03041400060808008880
311
4547410A3D5871000000A40000002C00000033373330454342392D433343302D343235342D413631322D3734443946323034443843302F636E782E786D6C55CC4D0E82301086E1AB34B31774E7A22D31F1069E60020334B633A63FC6E34B0909B07DDE2F9FEE7EC1AB2FC5E4840DDC9A2B28E25E06C7938192C7CB1D546775
311
14C9871928C640062A83D55394F2D968A0118BAFEA1DBF377CA444F98919176EAB9FEAAB9F2960DA5BBB1E2ED3FA6FFF504B030414000608080088804547A02587977F000000A300000007000000636E782E786D6C4D8CD10E822018465F85FDF71402A56E802BACF770898E89D0485A8F1F342FBAFAB6B3EF1CD17D5687DE
311
26BE6CF012AA030164FC238CD6CF12D236E10650A7440C61FBBB01F2C36A24140C4ACC31A4E78E46330DC915EAAC5F76C86A466EFADA62CD34C19C9E38BE9C2B8A6BDEB7774A78DF68928D6351F2FC7A794B5E7D01504B03041400060808008880454716E99B5DA600000035010000130000005B436F6E74656E745F547970
311
65735D2E786D6C9590410E82301045AFD2740F4517C6180A0BF5065E60AC53688469D30E066F6F91AD9AB89CF9FFFD3F99BA9DC7413C3026E749CB4D59498164FCCD51A7E5C4B6D84BD136F5E5193089ECA5A465CF1C0E4A25D3E308A9F401292BD6C711388FB15301CC1D3A54DBAADA29E38991B8E0254336F5092D4C038B
311
F39CD76B6FC6A538AEBEA54A4B08617006389FA516557DE4AE8E7E70DE30729138228C5F021CD93F02D4FB0DCD0B504B0304140006080800888045473DEE336E64000000790000001B0000006175746F6465736B2D64657369676E2D7061636B6167652E786D6C35CBC10E83200C00D05F21DCA56CA76D41FC96062B120735
311
B69A7DBE268BB7777961F8D5AF396893C2ADB70FE7ADA196782C2DF776D7A97B5933C430F15651E5469C55D70F80A4992A3ADC954792C525AE70A1E4D6AD9816CC044FEFDF01FE3FDE907802504B030414000608080088804547F3ACDDDAF8000000960100003700000033373330454342392D433343302D343235342D4136
311
31322D3734443946323034443843302F4173736574446174612F636F72652E786D6C8550CB6EC32010FC156BEFD8106CF21026B255F50B7AEA0D61E2A2C460F1A8FAF985D895DA534FBB9A9D99DD1D7EFD5A1ED5A7F6C138DB03A93154DA2A37193BF790E20D9DA0BA0AEE9D8BBF685059B9E81E0A0C82CFDEA5758794B351
311
DB825A37E91D9421E808957AE4A687A03EF4226B996266847BBD4A7597B3AE49BDF1044FC94CBBD44CD9CDDC8CF6208E18D3F1CC4634E0D7136A69CBD0308E674487A1A31DA347369E7853C48247B3FC6C575ECBA82710074C3A4430C2DD1B6117DC5E087BE74D610A1EA2CF3FEF4BCB77208672F58B8C9237DBF48F6B5AA7
311
FF5D93B1911E76D74D1140907CE47320785352CAE51961AE2551F10D504B0304140006080800888045473DE3F53BF6000000940100003500000033373330454342392D433343302D343235342D413631322D3734443946323034443843302F536368656D61732F636F72652E786D6C8550C16E842010FD153377141675DD0D
311
B2D1437FA03DF54680B5645730024D3FBFA036694F3DCDE4CD7B6F661EBB7DCDCFE253AFDE38DB03293114DA4AA78C9D7A88E18E3A286E9CADCE855F3428AC98750F1906CEA6D5C5E580A4B341DB8C5AA7F4010AEF7580423E53D383971F7A16A5882131FCA35C847C884997A4DC799CC568D421352AB999BBD12BF033C674
311
BCB4231AF04B876A5AB76818C70BA2C3D0D0A6A5E776EC5895C59C0533FF6C97AB16412BE0274C1A4430C2CD1B69AFB8BE92F69D5599C9990F6BFAF9589ABF03FEBADDE959B5CFFE78C645FDEF198D0DF47478EE0A0F9CA413B7016755CE28952DC054739EFC1B504B0304140006080800888045473BFDE30D01010000D701
311
00002D00000033373330454342392D433343302D343235342D413631322D3734443946323034443843302F636F72652E786D6C9591CB52C42010457F85EA3D09E4358F224C6946BFC0953B0C3D919A09A402B1FC7CC1C45277BA82BA9CDBCDED16A7F7F146DE70F6C6D91678C680A0ED9D367668610917BA07729262762EFC
311
C0805835620B49062986D92DD326F5CE06B449B54EE3262AEF3100E96FF1D282EF5F7154995A4224FC359B547F5503663C5B39298219BFACFD8C2AA00659305E53CE28AB9F787364D59137CF224FA4148BB1A12CB66638BEA0266E0A3112C85AE4EB6BA416A337C6E8F847733138832C77257BE8EE0FB42B3B46ABA2AEE85D
311
C30BBAABCE87C78255E77DC762916896C287394E662B9266F057FB6AFC956C99F43F93AD0E0F927F87CAD398A5C83F7710CFB412F901504B03041400060808008880454748B80D0E06010000B201000008000000636F72652E786D6C8D504D6F842014FC2BE4DD5158D4FD08B2D1437F414FBD51612D590523B869FF7D61A5
311
497BEBE99199796F86E1D7CF79420FBD7AE36C0BB42080B41D9C32766C610B377C0274157C752EFC9201B272D62D2418041F57B72D191A9C0DDA26D43AA53328BDD701D030C5470B7EF8D0B32CE416A2C2DF8B450E7739EA8216BB4EF060E69FD561D5326805E240688D29C1A47EA5CD855417DABCF1322905DF36A3B29551
311
D1DDDC8C5E411C0961FDB9E971475E4EB8625583BBBE3F63D67535AB1B766CFA132FD3B2E03EACF1CFF948CC1990978FE4CBCB9D12FCDDB9290B6228859C9DBE40105E26E24FE86D51FF086D6C60877C70DFF020680CF424A2716A308E67BD71A6B6C537504B01021400140006080800888045476E952F28B9000000200100
311
004F000000000000000000000000000000000033373330454342392D433343302D343235342D413631322D3734443946323034443843302F4173736574446174612F446566696E6974696F6E4974657261746F7250726F706572746965732E62696E504B01021400140006080800888045477354DA65F60000003002000045
311
000000000000000000000000002601000033373330454342392D433343302D343235342D413631322D3734443946323034443843302F4173736574446174612F496E7374616E636550726F706572746965732E62696E504B010214001400060808008880454728BB58AF800100009E0500003D000000000000000000000000
311
007F02000033373330454342392D433343302D343235342D413631322D3734443946323034443843302F536368656D61732F436F6D6D6F6E536368656D612E786D6C504B01021400140006080800888045472CCEBD668A040000E01200003E000000000000000000000000005A04000033373330454342392D433343302D34
311
3235342D413631322D3734443946323034443843302F536368656D61732F47656E65726963536368656D612E786D6C504B01021400140006080800888045476180134D5F0100006B03000045000000000000000000000000004009000033373330454342392D433343302D343235342D413631322D37344439463230344438
311
43302F536368656D61732F52656E6465724D6174657269616C536368656D612E786D6C504B01021400140006080800888045477E632FB451000000570000004700000000000000000000000000020B000033373330454342392D433343302D343235342D413631322D3734443946323034443843302F417373657444617461
311
2F41737365745461626C654F66436F6E74656E74732E62696E504B0102140014000608080088804547F865834058000000680000004500000000000000000000000000B80B000033373330454342392D433343302D343235342D413631322D3734443946323034443843302F4173736574446174612F53747265616D566572
311
73696F6E5461626C652E696E66504B0102140014000608080088804547793C910E340100009A0400003600000000000000000000000000730C000033373330454342392D433343302D343235342D413631322D3734443946323034443843302F4173736574446174612F636E782E786D6C504B010214001400060808008880
311
4547E8814194080100004F0300003400000000000000000000000000FB0D000033373330454342392D433343302D343235342D413631322D3734443946323034443843302F536368656D61732F636E782E786D6C504B0102140014000608080088804547410A3D5871000000A40000002C0000000000000000000000000055
311
0F000033373330454342392D433343302D343235342D413631322D3734443946323034443843302F636E782E786D6C504B0102140014000608080088804547A02587977F000000A3000000070000000000000000000000000010100000636E782E786D6C504B010214001400060808008880454716E99B5DA6000000350100
311
001300000000000000000000000000B41000005B436F6E74656E745F54797065735D2E786D6C504B01021400140006080800888045473DEE336E64000000790000001B000000000000000000000000008B1100006175746F6465736B2D64657369676E2D7061636B6167652E786D6C504B0102140014000608080088804547
311
F3ACDDDAF80000009601000037000000000000000000000000002812000033373330454342392D433343302D343235342D413631322D3734443946323034443843302F4173736574446174612F636F72652E786D6C504B01021400140006080800888045473DE3F53BF6000000940100003500000000000000000000000000
311
7513000033373330454342392D433343302D343235342D413631322D3734443946323034443843302F536368656D61732F636F72652E786D6C504B01021400140006080800888045473BFDE30D01010000D70100002D00000000000000000000000000BE14000033373330454342392D433343302D343235342D413631322D
311
3734443946323034443843302F636F72652E786D6C504B010214001400060808008880454748B80D0E06010000B201000008000000000000000000000000000A160000636F72652E786D6C504B050600000000110011005A060000361700000000
310
504B030414000608080088804547000000000000000000000000370000006662782F41314639413834342D333636342D343644412D413532332D4532414132464334424438442F617474726962757465732E62696E504B030414000608080088804547000000000000000000000000350000006662782F4131463941383434
310
2D333636342D343644412D413532332D4532414132464334424438442F76657274696365732E62696E504B030414000608080088804547F270F1330600000004000000360000006662782F41314639413834342D333636342D343644412D413532332D4532414132464334424438442F747269616E676C65732E62696E6366
310
60600000504B03041400060808008880454751464CB48900000043010000360000006662782F41314639413834342D333636342D343644412D413532332D4532414132464334424438442F6469726563746F72792E786D6C9D8F310EC2300C45AF127987122606C71DD918B841D4B851A43646695A717C52A85029031293A5
310
A76FBF6FACEF7DA7264E43906840EF0FA03836E242F406C6DCEE4EA06AC22492573150D1F66C60C640E8938CB705396EEDD86DE9B5042FE27813D640EA63BB001C722AF6E55CB61E4863F58284D5D3F53DD715CE1C3985E63FD7F1B7EBDD617E9F1E504B030414000608080088804547B12C5C7139070000201C0000340000
310
006662782F41314639413834342D333636342D343644412D413532332D4532414132464334424438442F6F626A656374732E786D6CDD59DB6EDB3810FD1542FBB2FBA09B6FB10BC5852F496114698B1A5DEC9B40CBB4C38D6E20A5C4D9AFDF2145CA922CDB4AB7058A4D80C461A8E1CC999933C391F7FE1085E899304E93F8
310
D6702DC740240E922D8DF7B7469EEDCCB181DE4F91C79224ABEC33508C23726B886563EAED5992A76A694B76380F9BABF7F3BF100F484C0C148498F35B83078F24C216CEB3644BF893B5C519B6F6BB83E55AC5C6BAD83DC3E963E3A814331267A02AACC7204569E0D6FF0493ECA9678B0DB56DBD6EDBFA17B6D9D2F0BAA234
310
E6198E8313AD1A727ADDB4EABB83E55D6F3831878341DF1C8C7AAE39BF9F2F4DF7A6EF2C468BC564763731D0D4DB2449583A2025F116BCF86A4C5DCF16FF29CD5728B4E91D24714C028566DB862D517229E14D4C6AC0BAD2B48A430A5B2B0BFD8EC69FD9D609949A4A35B4B571FA77357A93CDDF0002EF12A58C1311E53C63
310
E06B857D910F8E6717AB35BF508E229C1146718842BA61988183606BE1A09A18912D42141298492F6A79555D21B0AFE7529B96BB3C0C45FE1A5399693EE423C9B8D48CFE43D851FBEA69A013589BD3381B2B63B3D714444C3C5B2E16FFEBF7D43F0B20D12EC47B881630536CEAF71A782D0417AC96C6F4E3FDE6B016FCD07E
310
78CA9294B04C449E4C669577DA8395D082E0EB004A816BDD774754BE02F49F00F95217E481E7183D0C0E036D3BC331DF252C02EF2007990EFC7090F878F2C9B3CB87A708D5B8F21CA690B63F08D39A19B5B32B904EBD6708FA84F59571EB008710D30F3416790E8182C2049680EF779B83315D0199C2223C8543B01EBE3D5B
310
7C44F0AB90037CD3F0501BFD7670944E98669E1D7DF5016286D1A07455CDC673F80E7F08BEB3E5FAE33A673B1C900795D84BB2A331CDA098B62B5403BD96F2DF569F64469ED853DB15C039FB4410478B5FD6CA2F483A06541175B8708D5C79A090EE61886392E45CADB71155908409F337AF7E91C3AD67FDA983A0380CF25B
310
44402B9941750F184D0528C654995732A175C449F0A00AC07DE1547F83832701AF1F00637D8F1E10B5983585E651EAE328C96341DFA7E1DD34CDEA3BF2CB75273D67D21B4F46DA582EC5EBECD1D4502A2FCE89707AE69045CD5B8A35B4E4228F06C0966D1604D033E5999FA438A0597B2C348C50190A605F54794B77BB9C03
310
A9B7C2D2D0D8EABB43E4547E96875CD65E1DE2D308EF89BFC3A2C2B59E5703A814AE2D6845661F269CD39870D9A19C30570315C7022228E2564B6D0942CAFD8864F87BE24F96BC46F831B20B7DE8A532D1CD5E8F3EADA0AA9EE7248ACE2D897D69FFABCF7194864597760D03B7D738A11557A1B438E219E2CDC799EF6C896C
310
BAAF492F7941E3DB49FAE4BBC59F8187E19F0E8F3E8242EB0D35F2BA675D6BE84EC4D71848653474FB37DA11D7B0D24765A2070973E89A8257FF85D0FD633742EB740E27E1CEA76198477E510F3212410B86B39C75CAD7D1D03971BEE2854642544EDAD1101AE4CEA4297B0FDD7D8055B2F938479A9563C0281AC31DAD9321
310
2756B486B0F485BC8F8A6BD775EFBF5DEA7FE6CBEA3DE589BCBE246CDBAA69BD8DD01D986E18045DAA0A57C691943CF5AAC917C98BCB751C065A88E2B7E296A0228491672A0613F206D47A7FE02F380B8048D7F2B739878CD892EDB1A7A88953630E630A876A69BA4FADDE7480EC44F9A8355E2B41A8114C1BB0E0D907F121
310
FC8AC1D5D0F9715B753576B1BE1285CD82C1CA518F0BB23E7F5837A4C04AE7A7BF088CC84B43825A5D8846EE82A86FAB63BFDA90A02CFAB6BAF078F698479B185351194558E06DFAEEBDBC4BDEDA7051B0E7E3D96C78B39898FD1BE7CE1CCCFB3D73367107E6F86636998F9CE178385CD88CF0246701E176CF767CDD3BA5F1
310
5E0746015D971B054C15AE5FFD743C371DFC3FBE5184C9069F8BC55FF54251B67BA2216BE462D70B452B516FDED6FDBB2744DD5EC4DED43917B3021DE097CB169091AEF7DD5B0B2D5A7712ED3A572AE21B0BEFD9DBCA4FAF3135426FAD0FB51D6D945FE762983DB554297DBB95BC365ECE67A39BF1C05CB84BD71C8CDD8539
310
BEBF5B9AF7774EAF7F37BE19DD8DEF4BC4552DEC5A577E090ED5CA56C668300DE6494861284FB6684F12B801C1D4A103BFB2887079B38106409571FD46A0C3D3CFC54C35C39B503F1D3C62184C87AA22E7010C45E1D6716BA875F41B8C41C524520EA7AC27283C2ADA0D94337A6B40086414EA8BB58171961C1E4AE98D7125
310
B80DC77B71672A9E2AFF3E3E26D0815839DA55EEE9828BB2AC169D301C48E57B02603BDD907CBFE95A1D8433F8B8C9B3D298E3C2D11A05827E2150180753BF2705EF0188E7B25DAE25F7D420E93499BF1807855433C36C2FC7EB15BC67CB2FB6988CAF3EA334CCF7C29D97EA7D4D9229FA8C302F86501E04863233C5E21EBE
310
78677F6109BC628AD03D852040BF1FC6A33FEC451245495C2CD933F5A20AAD1FE1B5D3D6D6233F685C1C7768CBBE478DF5616EC58985B7FC0916C0B58C8AD96801712D004A7AAA0480F688F0053C56DBBF5A2255042A2D6CB57515F0C8993E824412EF7244DA5437540690900BA05531A72D3FE805CF6630049FFE0B504B03
310
04140006080800888045471AC4C3DD3E01000046050000300000006662782F41314639413834342D333636342D343644412D413532332D4532414132464334424438442F636E782E786D6CCD94C14EC3300C865FA5CABD6983D884A6349338F0041C10B734F54A581B57898BD8DB938C6C80D0108749DB2D727E4BFF67FFB2
310
5CBF8F43F1063E58740D13BC660538839D757DC366DA9477AC582BE911E99B8C154E8FD0B054664AF61EE729973AD8E87948D5C1BA6D2E6A226FDB9920B0C20C3A848605F302A3E67A26EC206C79A74973C13D049CBD81D84F7684DC6F3C68828EA99B5A2C4A5197F5E2512C57F5ED4A2C9F6595944AB68843D65B47E0712A
310
0CC6878B666A59A56F25676FB3261130F5E58CB7D6C92AFE2B19A25BD7671DEDA6A49BA6C11A4D714C151A022AA308F428AB4FB19255E2FD41FD70FF74705074D68321F4BB0B0D409C1AC0D1188F49F81FFF5EF83736B6AF11F752DB3E099B6D9D0DF590D610E3FA7BFF3145DAF5C3F585FE68ECFC998FA784ACB93EE483AF
310
331157FB9317979E2EA0FA00504B030414000608080088804547EC19031E7E000000A30000000B0000006662782F636E782E786D6C4D8CD10AC22018465F45FE7BAB3913037558B6F718CD0D99D3B0193D7E1ABBE8EA83C3778EE83EAB476F9B5E2E0609CDE104C886471C5D9825E46DC21C50A7448A71FBBB010AC36A2554
310
0C4ACC29E6E78E463B0DD957EA5D5876A89BFEA239A5B8658C62CA8CC6FA4C5A7C275A93FE46AF869B621CAB52E6D72B5BF3EA0B504B030414000608080088804547A6D797065F0000008200000007000000636E782E786D6C4DCB3B0E80201045D1AD90E9FD7516806B51190811670C8A61F982B1B0BAC9C97B72CA7B1037
310
C6D3332918DA1E04D2CAC69353902EDB8C20262D23F3F59B81A079470595414B17391D1F19B4730A5583A7ED43BBE4025D9592775E5ADFFA01504B0304140006080800888045474FEB6A7CA0000000F4000000130000005B436F6E74656E745F54797065735D2E786D6C7D8F4B0EC2300C44AF1279DFA6B0400835ED02B801
310
1730C16D239A8F121795DB93D02D6269CFBC19BBED573B8B17C564BC53B0AB1B10E4B47F18372A5878A88E20FAAEBDBD032591BD2E299898C349CAA427B2986A1FC86565F0D122E7318E32A07EE24872DF3407A9BD63725C71C980AEBDD080CBCCE2BAE6F5D69B7110E7CD57AA146008B3D1C8F92C5954F993BB1BF787F39A
310
89ABC491D09600F9FDA2FB00504B0304140006080800888045473DEE336E64000000790000001B0000006175746F6465736B2D64657369676E2D7061636B6167652E786D6C35CBC10E83200C00D05F21DCA56CA76D41FC96062B120735B69A7DBE268BB7777961F8D5AF396893C2ADB70FE7ADA196782C2DF776D7A97B5933
310
C430F15651E5469C55D70F80A4992A3ADC954792C525AE70A1E4D6AD9816CC044FEFDF01FE3FDE907802504B03041400060808008880454700D043CDF9000000960100003B0000006662782F41314639413834342D333636342D343644412D413532332D4532414132464334424438442F7265736F75726365732F636F7265
310
2E786D6C8550CB6EC32010FC156BEFD810C7AE1B61A2D46ABEA0A7DE106C5C9418221E553FBF10BB527BEA6957B333B3BBC38F5FCBADFA441F8CB323B09A428556396DEC3C428A1732407514DC3B177FD1A0B272C1110A0C82CFDEA5FB06296723DA825AA77103650818A152B7DC8C10D4072EB296296646B8D677A9AE72C6
310
9AD52B4FF0948CDEA44667377331E841B4FD74A2A7734BD82B3B93FD9E3D93819E27F2D476A769A22F1D1B7ADE14B1E0D12C3FDB9547195183D851D6114609EDDE587FA0FB03EBDF7953988287E8F3CFDBD2F21D088FC125AF30F0669DFE714D77FDBF6B3236B6BBCD755504102C1FF91808DE9494727944986B49547C0350
310
4B030414000608080088804547E3986B4AF3000000B1010000310000006662782F41314639413834342D333636342D343644412D413532332D4532414132464334424438442F636F72652E786D6C8D50CB6EC32010FC156BEFD8C626961B61225A375FD0536F08130725068B47D5CF2FC4AED4DE725A343BC3CC0E3D7D2FF7
310
E24B39AFAD1900973514CA483B69330F10C305F5509C1875D6863F34288C58D4001906466767E3BA43D29AA04C468D9DD40E0AEF558042DED363002FAF6A11A5882131FCAD5C85BC895995B8DC788C06BDFC4AA55322A8095853E303C235AA0F1FB83BD6E488BB4F5A6526A331EA69B7D25372D717AD1C308ECF2FBC2704B5
310
5D4710E9468EF8A169D17BC379737E23AF633FD22A8B19F5C1A59BF74FF275CFCA37E1BFCC719D9EC8AC4D689BDD7053786038E5792C18AD7281693CDA4D3397CD7E00504B03041400060808008880454780A295C854010000DD0200000C0000006662782F636F72652E786D6C8D52CB6EC32010FC158B3B36C48FA611264A
310
ADE60B7AEA8D60E2A2D86061B0F2F9053FE4E6D0B4B284D1ECEECCCE0872BC776D340A3348AD4A80630422A1B8AEA56A4AE0EC15EE4174A4C4686D7FB48148B14E9420C08092C668D72F10D7CA0A1550A56BB1806C188405116FFDA50403FF121D8B99B3BE63B8C53DE337D68818C7731F25CEC97A1995B5679357290CA069
310
519DD0E99C42FC8ECF30CBF02BDCA373055FD2FC5455E82DC7FB82246198122BBB559D1BC1ACA801DD219C438C20CA3F707140D901179F24099D940CD678CF8B687007E8F57227C98C3FF0B9BEFE9BCF4965D3DDC2374F0C8062BFDE54A02409F9F8DF14DE63865ED8E767D9A55D2DDC3C340A6EB5C97CA5D66E2B8DAC75C2
310
53A368FA4832573DF344F01BCFEE09CF730E1F14538D5F8D597FBD381BD41F77EA8581A3BD474A9B8EB5DB72F38ADBB9093D585AC7B96EB5F9CFF46A750D33090F937E03504B03041400060808008880454709678A8007010000B201000008000000636F72652E786D6C8D50CB6EC32010FC15B4776C881F4D234CE45AF517
310
F4D41B35C441B1C1021CB57F5F885DA9BDF5B4686676671876FE9C277457CE6B6B1AA01901A4CC60A53663036BB8E023A03367CEDAF04B06C88859359060E06C74765D7668B02628935063A5DA41E1BD0A8086293E1AF0C355CD22136B880A7FCB1631DCC4A8329A6D3ACE829E7F5607A7445012F881D00A538249F546EB13
310
294FB47E67795272B6AE5AEE565A46777DD1CA012FEAAE256D5F60FA4A7B5C96F4191F49DFE1A7A26ABB8EBC54F458B33C2D73E6838B7FDE8FC49C0179714FBE2CDF28CE3EAC9D76410C259135D31770C2F244FC09BD2EF21FA1B509C5613FB86D78E034067A10D1383518C7A3DE3853DBFC1B504B01021400140006080800
310
888045470000000000000000000000003700000000000000000000000000000000006662782F41314639413834342D333636342D343644412D413532332D4532414132464334424438442F617474726962757465732E62696E504B010214001400060808008880454700000000000000000000000035000000000000000000
310
00000000550000006662782F41314639413834342D333636342D343644412D413532332D4532414132464334424438442F76657274696365732E62696E504B0102140014000608080088804547F270F13306000000040000003600000000000000000000000000A80000006662782F41314639413834342D333636342D3436
310
44412D413532332D4532414132464334424438442F747269616E676C65732E62696E504B010214001400060808008880454751464CB489000000430100003600000000000000000000000000020100006662782F41314639413834342D333636342D343644412D413532332D4532414132464334424438442F646972656374
310
6F72792E786D6C504B0102140014000608080088804547B12C5C7139070000201C00003400000000000000000000000000DF0100006662782F41314639413834342D333636342D343644412D413532332D4532414132464334424438442F6F626A656374732E786D6C504B01021400140006080800888045471AC4C3DD3E01
310
00004605000030000000000000000000000000006A0900006662782F41314639413834342D333636342D343644412D413532332D4532414132464334424438442F636E782E786D6C504B0102140014000608080088804547EC19031E7E000000A30000000B00000000000000000000000000F60A00006662782F636E782E78
310
6D6C504B0102140014000608080088804547A6D797065F0000008200000007000000000000000000000000009D0B0000636E782E786D6C504B01021400140006080800888045474FEB6A7CA0000000F40000001300000000000000000000000000210C00005B436F6E74656E745F54797065735D2E786D6C504B0102140014
310
0006080800888045473DEE336E64000000790000001B00000000000000000000000000F20C00006175746F6465736B2D64657369676E2D7061636B6167652E786D6C504B010214001400060808008880454700D043CDF9000000960100003B000000000000000000000000008F0D00006662782F41314639413834342D3336
310
36342D343644412D413532332D4532414132464334424438442F7265736F75726365732F636F72652E786D6C504B0102140014000608080088804547E3986B4AF3000000B10100003100000000000000000000000000E10E00006662782F41314639413834342D333636342D343644412D413532332D453241413246433442
310
4438442F636F72652E786D6C504B010214001400060808008880454780A295C854010000DD0200000C00000000000000000000000000231000006662782F636F72652E786D6C504B010214001400060808008880454709678A8007010000B20100000800000000000000000000000000A1110000636F72652E786D6C504B05
310
06000000000E000E0080040000CE1200000000
  0
XRECORD
  5
626
102
{ACAD_REACTORS
330
621
102
}
330
621
100
AcDbXrecord
280
     1
270
     1
271
     1
  0
XRECORD
  5
625
102
{ACAD_REACTORS
330
621
102
}
330
621
100
AcDbXrecord
280
     1
270
     1
271
     1
  0
XRECORD
  5
627
102
{ACAD_REACTORS
330
621
102
}
330
621
100
AcDbXrecord
280
     1
270
     1
271
     1
  0
XRECORD
  5
624
102
{ACAD_REACTORS
330
621
102
}
330
621
100
AcDbXrecord
280
     1
270
     1
271
     1
  0
XRECORD
  5
725
102
{ACAD_REACTORS
330
724
102
}
330
724
100
AcDbXrecord
280
     1
102
DISPLAYNAME
  1
Metric50
102
FLAGS
 90
        0
  0
CELLSTYLEMAP
  5
6E6
102
{ACAD_REACTORS
330
6E5
102
}
330
6E5
100
AcDbCellStyleMap
 90
        3
300
CELLSTYLE
  1
TABLEFORMAT_BEGIN
 90
        5
170
     1
 91
        0
 92
    32768
 62
   257
 93
        1
300
CONTENTFORMAT
  1
CONTENTFORMAT_BEGIN
 90
        0
 91
        0
 92
      512
 93
        0
300

 40
0.0
140
1.0
 94
        5
 62
     0
340
11
144
6.0
309
CONTENTFORMAT_END
171
     1
301
MARGIN
  1
CELLMARGIN_BEGIN
 40
1.5
 40
1.5
 40
1.5
 40
1.5
 40
4.5
 40
4.5
309
CELLMARGIN_END
 94
        6
 95
        1
302
GRIDFORMAT
  1
GRIDFORMAT_BEGIN
 90
        0
 91
        1
 62
     0
 92
       -2
340
0
 93
        0
 40
1.125
309
GRIDFORMAT_END
 95
        2
302
GRIDFORMAT
  1
GRIDFORMAT_BEGIN
 90
        0
 91
        1
 62
     0
 92
       -2
340
0
 93
        0
 40
1.125
309
GRIDFORMAT_END
 95
        4
302
GRIDFORMAT
  1
GRIDFORMAT_BEGIN
 90
        0
 91
        1
 62
     0
 92
       -2
340
0
 93
        0
 40
1.125
309
GRIDFORMAT_END
 95
        8
302
GRIDFORMAT
  1
GRIDFORMAT_BEGIN
 90
        0
 91
        1
 62
     0
 92
       -2
340
0
 93
        0
 40
1.125
309
GRIDFORMAT_END
 95
       16
302
GRIDFORMAT
  1
GRIDFORMAT_BEGIN
 90
        0
 91
        1
 62
     0
 92
       -2
340
0
 93
        0
 40
1.125
309
GRIDFORMAT_END
 95
       32
302
GRIDFORMAT
  1
GRIDFORMAT_BEGIN
 90
        0
 91
        1
 62
     0
 92
       -2
340
0
 93
        0
 40
1.125
309
GRIDFORMAT_END
309
TABLEFORMAT_END
  1
CELLSTYLE_BEGIN
 90
        1
 91
        1
300
_TITLE
309
CELLSTYLE_END
300
CELLSTYLE
  1
TABLEFORMAT_BEGIN
 90
        5
170
     1
 91
        0
 92
        0
 62
   257
 93
        1
300
CONTENTFORMAT
  1
CONTENTFORMAT_BEGIN
 90
        0
 91
        0
 92
      512
 93
        0
300

 40
0.0
140
1.0
 94
        5
 62
     0
340
11
144
4.5
309
CONTENTFORMAT_END
171
     1
301
MARGIN
  1
CELLMARGIN_BEGIN
 40
1.5
 40
1.5
 40
1.5
 40
1.5
 40
4.5
 40
4.5
309
CELLMARGIN_END
 94
        6
 95
        1
302
GRIDFORMAT
  1
GRIDFORMAT_BEGIN
 90
        0
 91
        1
 62
     0
 92
       -2
340
0
 93
        0
 40
1.125
309
GRIDFORMAT_END
 95
        2
302
GRIDFORMAT
  1
GRIDFORMAT_BEGIN
 90
        0
 91
        1
 62
     0
 92
       -2
340
0
 93
        0
 40
1.125
309
GRIDFORMAT_END
 95
        4
302
GRIDFORMAT
  1
GRIDFORMAT_BEGIN
 90
        0
 91
        1
 62
     0
 92
       -2
340
0
 93
        0
 40
1.125
309
GRIDFORMAT_END
 95
        8
302
GRIDFORMAT
  1
GRIDFORMAT_BEGIN
 90
        0
 91
        1
 62
     0
 92
       -2
340
0
 93
        0
 40
1.125
309
GRIDFORMAT_END
 95
       16
302
GRIDFORMAT
  1
GRIDFORMAT_BEGIN
 90
        0
 91
        1
 62
     0
 92
       -2
340
0
 93
        0
 40
1.125
309
GRIDFORMAT_END
 95
       32
302
GRIDFORMAT
  1
GRIDFORMAT_BEGIN
 90
        0
 91
        1
 62
     0
 92
       -2
340
0
 93
        0
 40
1.125
309
GRIDFORMAT_END
309
TABLEFORMAT_END
  1
CELLSTYLE_BEGIN
 90
        2
 91
        1
300
_HEADER
309
CELLSTYLE_END
300
CELLSTYLE
  1
TABLEFORMAT_BEGIN
 90
        5
170
     1
 91
        0
 92
        0
 62
   257
 93
        1
300
CONTENTFORMAT
  1
CONTENTFORMAT_BEGIN
 90
        0
 91
        0
 92
      512
 93
        0
300

 40
0.0
140
1.0
 94
        2
 62
     0
340
11
144
4.5
309
CONTENTFORMAT_END
171
     1
301
MARGIN
  1
CELLMARGIN_BEGIN
 40
1.5
 40
1.5
 40
1.5
 40
1.5
 40
4.5
 40
4.5
309
CELLMARGIN_END
 94
        6
 95
        1
302
GRIDFORMAT
  1
GRIDFORMAT_BEGIN
 90
        0
 91
        1
 62
     0
 92
       -2
340
0
 93
        0
 40
1.125
309
GRIDFORMAT_END
 95
        2
302
GRIDFORMAT
  1
GRIDFORMAT_BEGIN
 90
        0
 91
        1
 62
     0
 92
       -2
340
0
 93
        0
 40
1.125
309
GRIDFORMAT_END
 95
        4
302
GRIDFORMAT
  1
GRIDFORMAT_BEGIN
 90
        0
 91
        1
 62
     0
 92
       -2
340
0
 93
        0
 40
1.125
309
GRIDFORMAT_END
 95
        8
302
GRIDFORMAT
  1
GRIDFORMAT_BEGIN
 90
        0
 91
        1
 62
     0
 92
       -2
340
0
 93
        0
 40
1.125
309
GRIDFORMAT_END
 95
       16
302
GRIDFORMAT
  1
GRIDFORMAT_BEGIN
 90
        0
 91
        1
 62
     0
 92
       -2
340
0
 93
        0
 40
1.125
309
GRIDFORMAT_END
 95
       32
302
GRIDFORMAT
  1
GRIDFORMAT_BEGIN
 90
        0
 91
        1
 62
     0
 92
       -2
340
0
 93
        0
 40
1.125
309
GRIDFORMAT_END
309
TABLEFORMAT_END
  1
CELLSTYLE_BEGIN
 90
        3
 91
        2
300
_DATA
309
CELLSTYLE_END
  0
XRECORD
  5
722
102
{ACAD_REACTORS
330
6E5
102
}
330
6E5
100
AcDbXrecord
280
     1
102
ACAD_ROUNDTRIP_PRE2007_TABLESTYLE
 90
      512
 91
        0
  1

 92
      512
 93
        0
  2

 94
      512
 95
        0
  3

  0
XRECORD
  5
6FD
102
{ACAD_REACTORS
330
6FC
102
}
330
6FC
100
AcDbXrecord
280
     1
102
RTVSPost2010Prop28
280
     1
102
RTVSPost2010PropOp28
 70
     1
102
RTVSPost2010Prop29
280
     1
102
RTVSPost2010PropOp29
 70
     1
102
RTVSPost2010Prop30
280
     0
102
RTVSPost2010PropOp30
 70
     1
102
RTVSPost2010Prop31
280
     0
102
RTVSPost2010PropOp31
 70
     1
102
RTVSPost2010Prop32
280
     0
102
RTVSPost2010PropOp32
 70
     1
102
RTVSPost2010Prop33
280
     0
102
RTVSPost2010PropOp33
 70
     1
102
RTVSPost2010Prop34
280
     0
102
RTVSPost2010PropOp34
 70
     1
102
RTVSPost2010Prop35
280
     0
102
RTVSPost2010PropOp35
 70
     1
102
RTVSPost2010Prop36
280
     0
102
RTVSPost2010PropOp36
 70
     1
102
RTVSPost2010Prop37
 90
       50
102
RTVSPost2010PropOp37
 70
     1
102
RTVSPost2010Prop38
140
0.0
102
RTVSPost2010PropOp38
 70
     1
102
RTVSPost2010Prop39
140
1.0
102
RTVSPost2010PropOp39
 70
     1
102
RTVSPost2010Prop40
 90
        0
102
RTVSPost2010PropOp40
 70
     1
102
RTVSPost2010Prop41ColorIndex
 90
       18
102
RTVSPost2010Prop41ColorRGB
 90
        0
102
RTVSPost2010PropOp41
 70
     1
102
RTVSPost2010Prop42
 90
       50
102
RTVSPost2010PropOp42
 70
     1
102
RTVSPost2010Prop43
 90
        3
102
RTVSPost2010PropOp43
 70
     1
102
RTVSPost2010Prop44ColorIndex
 90
        5
102
RTVSPost2010Prop44ColorRGB
 90
      255
102
RTVSPost2010PropOp44
 70
     1
102
RTVSPost2010Prop45
280
     0
102
RTVSPost2010PropOp45
 70
     1
102
RTVSPost2010Prop46
 90
       50
102
RTVSPost2010PropOp46
 70
     1
102
RTVSPost2010Prop47
 90
       50
102
RTVSPost2010PropOp47
 70
     1
102
RTVSPost2010Prop48
 90
       50
102
RTVSPost2010PropOp48
 70
     1
102
RTVSPost2010Prop49
280
     0
102
RTVSPost2010PropOp49
 70
     1
102
RTVSPost2010Prop50
 90
       50
102
RTVSPost2010PropOp50
 70
     1
102
RTVSPost2010Prop51ColorIndex
 90
      256
102
RTVSPost2010Prop51ColorRGB
 90
-16777216
102
RTVSPost2010PropOp51
 70
     0
102
RTVSPost2010Prop52
140
1.0
102
RTVSPost2010PropOp52
 70
     0
102
RTVSPost2010Prop53
 90
        2
102
RTVSPost2010PropOp53
 70
     1
102
RTVSPost2010Prop54
  1
strokes_ogs.tif
102
RTVSPost2010PropOp54
 70
     1
102
RTVSPost2010Prop55
280
     0
102
RTVSPost2010PropOp55
 70
     1
102
RTVSPost2010Prop56
140
1.0
102
RTVSPost2010PropOp56
 70
     1
102
RTVSPost2010Prop57
140
1.0
102
RTVSPost2010PropOp57
 70
     1
102
RTVSPropertyOp0
 70
     1
102
RTVSPropertyOp1
 70
     1
102
RTVSPropertyOp2
 70
     1
102
RTVSPropertyOp3
 70
     1
102
RTVSPropertyOp4
 70
     1
102
RTVSPropertyOp5
 70
     1
102
RTVSPropertyOp6
 70
     1
102
RTVSPropertyOp7
 70
     1
102
RTVSPropertyOp8
 70
     1
102
RTVSPropertyOp9
 70
     1
102
RTVSPropertyOp10
 70
     1
102
RTVSPropertyOp11
 70
     1
102
RTVSPropertyOp12
 70
     1
102
RTVSPropertyOp13
 70
     1
102
RTVSPropertyOp14
 70
     1
102
RTVSPropertyOp15
 70
     1
102
RTVSPropertyOp16
 70
     1
102
RTVSPropertyOp17
 70
     1
102
RTVSPropertyOp18
 70
     1
102
RTVSPropertyOp19
 70
     1
102
RTVSPropertyOp20
 70
     1
102
RTVSPropertyOp21
 70
     1
102
RTVSPropertyOp22
 70
     1
102
RTVSPropertyOp23
 70
     1
102
RTVSPropertyOp24
 70
     1
102
RTVSPropertyOp25
 70
     1
102
RTVSPropertyOp26
 70
     1
102
RTVSPropertyOp27
 70
     1
102
RTVSPropertyOp28
 70
     1
102
RTVSPropertyOp29
 70
     1
102
RTVSPropertyOp30
 70
     1
102
RTVSPropertyOp31
 70
     1
102
RTVSPropertyOp32
 70
     1
102
RTVSPropertyOp33
 70
     1
102
RTVSPropertyOp34
 70
     1
102
RTVSPropertyOp35
 70
     1
102
RTVSPropertyOp36
 70
     1
102
RTVSPropertyOp37
 70
     1
102
RTVSPropertyOp38
 70
     1
102
RTVSPropertyOp39
 70
     1
102
RTVSPropertyOp40
 70
     1
102
RTVSPropertyOp41
 70
     1
102
RTVSPropertyOp42
 70
     1
102
RTVSPropertyOp43
 70
     1
102
RTVSPropertyOp44
 70
     1
102
RTVSPropertyOp45
 70
     1
102
RTVSPropertyOp46
 70
     1
102
RTVSPropertyOp47
 70
     1
102
RTVSPropertyOp48
 70
     1
102
RTVSPropertyOp49
 70
     1
102
RTVSPropertyOp50
 70
     1
102
RTVSPropertyOp51
 70
     0
102
RTVSPropertyOp52
 70
     0
102
RTVSPropertyOp53
 70
     1
102
RTVSPropertyOp54
 70
     1
102
RTVSPropertyOp55
 70
     1
102
RTVSPropertyOp56
 70
     1
102
RTVSPropertyOp57
 70
     1
102
RTVSPropertyOp58
 70
     1
102
RTVSPropertyOp59
 70
     1
102
RTVSPropertyOp60
 70
     1
102
RTVSPropertyOp61
 70
     1
102
RTVSPropertyOp62
 70
     1
  0
XRECORD
  5
6FB
102
{ACAD_REACTORS
330
6FA
102
}
330
6FA
100
AcDbXrecord
280
     1
102
RTVSPost2010Prop28
280
     0
102
RTVSPost2010PropOp28
 70
     1
102
RTVSPost2010Prop29
280
     1
102
RTVSPost2010PropOp29
 70
     1
102
RTVSPost2010Prop30
280
     1
102
RTVSPost2010PropOp30
 70
     1
102
RTVSPost2010Prop31
280
     0
102
RTVSPost2010PropOp31
 70
     1
102
RTVSPost2010Prop32
280
     0
102
RTVSPost2010PropOp32
 70
     1
102
RTVSPost2010Prop33
280
     0
102
RTVSPost2010PropOp33
 70
     1
102
RTVSPost2010Prop34
280
     0
102
RTVSPost2010PropOp34
 70
     1
102
RTVSPost2010Prop35
280
     0
102
RTVSPost2010PropOp35
 70
     1
102
RTVSPost2010Prop36
280
     0
102
RTVSPost2010PropOp36
 70
     1
102
RTVSPost2010Prop37
 90
       50
102
RTVSPost2010PropOp37
 70
     1
102
RTVSPost2010Prop38
140
0.0
102
RTVSPost2010PropOp38
 70
     1
102
RTVSPost2010Prop39
140
1.0
102
RTVSPost2010PropOp39
 70
     1
102
RTVSPost2010Prop40
 90
        0
102
RTVSPost2010PropOp40
 70
     1
102
RTVSPost2010Prop41ColorIndex
 90
       18
102
RTVSPost2010Prop41ColorRGB
 90
        0
102
RTVSPost2010PropOp41
 70
     1
102
RTVSPost2010Prop42
 90
       50
102
RTVSPost2010PropOp42
 70
     1
102
RTVSPost2010Prop43
 90
        3
102
RTVSPost2010PropOp43
 70
     1
102
RTVSPost2010Prop44ColorIndex
 90
        5
102
RTVSPost2010Prop44ColorRGB
 90
      255
102
RTVSPost2010PropOp44
 70
     1
102
RTVSPost2010Prop45
280
     0
102
RTVSPost2010PropOp45
 70
     1
102
RTVSPost2010Prop46
 90
       50
102
RTVSPost2010PropOp46
 70
     1
102
RTVSPost2010Prop47
 90
       50
102
RTVSPost2010PropOp47
 70
     1
102
RTVSPost2010Prop48
 90
       50
102
RTVSPost2010PropOp48
 70
     1
102
RTVSPost2010Prop49
280
     0
102
RTVSPost2010PropOp49
 70
     1
102
RTVSPost2010Prop50
 90
       50
102
RTVSPost2010PropOp50
 70
     1
102
RTVSPost2010Prop51ColorIndex
 90
      256
102
RTVSPost2010Prop51ColorRGB
 90
-16777216
102
RTVSPost2010PropOp51
 70
     0
102
RTVSPost2010Prop52
140
1.0
102
RTVSPost2010PropOp52
 70
     0
102
RTVSPost2010Prop53
 90
        2
102
RTVSPost2010PropOp53
 70
     1
102
RTVSPost2010Prop54
  1
strokes_ogs.tif
102
RTVSPost2010PropOp54
 70
     1
102
RTVSPost2010Prop55
280
     0
102
RTVSPost2010PropOp55
 70
     1
102
RTVSPost2010Prop56
140
1.0
102
RTVSPost2010PropOp56
 70
     1
102
RTVSPost2010Prop57
140
1.0
102
RTVSPost2010PropOp57
 70
     1
102
RTVSPropertyOp0
 70
     1
102
RTVSPropertyOp1
 70
     1
102
RTVSPropertyOp2
 70
     1
102
RTVSPropertyOp3
 70
     1
102
RTVSPropertyOp4
 70
     1
102
RTVSPropertyOp5
 70
     1
102
RTVSPropertyOp6
 70
     1
102
RTVSPropertyOp7
 70
     1
102
RTVSPropertyOp8
 70
     1
102
RTVSPropertyOp9
 70
     1
102
RTVSPropertyOp10
 70
     1
102
RTVSPropertyOp11
 70
     1
102
RTVSPropertyOp12
 70
     1
102
RTVSPropertyOp13
 70
     1
102
RTVSPropertyOp14
 70
     1
102
RTVSPropertyOp15
 70
     1
102
RTVSPropertyOp16
 70
     1
102
RTVSPropertyOp17
 70
     1
102
RTVSPropertyOp18
 70
     1
102
RTVSPropertyOp19
 70
     1
102
RTVSPropertyOp20
 70
     1
102
RTVSPropertyOp21
 70
     1
102
RTVSPropertyOp22
 70
     1
102
RTVSPropertyOp23
 70
     1
102
RTVSPropertyOp24
 70
     1
102
RTVSPropertyOp25
 70
     1
102
RTVSPropertyOp26
 70
     1
102
RTVSPropertyOp27
 70
     1
102
RTVSPropertyOp28
 70
     1
102
RTVSPropertyOp29
 70
     1
102
RTVSPropertyOp30
 70
     1
102
RTVSPropertyOp31
 70
     1
102
RTVSPropertyOp32
 70
     1
102
RTVSPropertyOp33
 70
     1
102
RTVSPropertyOp34
 70
     1
102
RTVSPropertyOp35
 70
     1
102
RTVSPropertyOp36
 70
     1
102
RTVSPropertyOp37
 70
     1
102
RTVSPropertyOp38
 70
     1
102
RTVSPropertyOp39
 70
     1
102
RTVSPropertyOp40
 70
     1
102
RTVSPropertyOp41
 70
     1
102
RTVSPropertyOp42
 70
     1
102
RTVSPropertyOp43
 70
     1
102
RTVSPropertyOp44
 70
     1
102
RTVSPropertyOp45
 70
     1
102
RTVSPropertyOp46
 70
     1
102
RTVSPropertyOp47
 70
     1
102
RTVSPropertyOp48
 70
     1
102
RTVSPropertyOp49
 70
     1
102
RTVSPropertyOp50
 70
     1
102
RTVSPropertyOp51
 70
     0
102
RTVSPropertyOp52
 70
     0
102
RTVSPropertyOp53
 70
     1
102
RTVSPropertyOp54
 70
     1
102
RTVSPropertyOp55
 70
     1
102
RTVSPropertyOp56
 70
     1
102
RTVSPropertyOp57
 70
     1
102
RTVSPropertyOp58
 70
     1
102
RTVSPropertyOp59
 70
     1
102
RTVSPropertyOp60
 70
     1
102
RTVSPropertyOp61
 70
     1
102
RTVSPropertyOp62
 70
     1
  0
XRECORD
  5
709
102
{ACAD_REACTORS
330
708
102
}
330
708
100
AcDbXrecord
280
     1
102
RTVSPost2010Prop28
280
     0
102
RTVSPost2010PropOp28
 70
     1
102
RTVSPost2010Prop29
280
     1
102
RTVSPost2010PropOp29
 70
     1
102
RTVSPost2010Prop30
280
     1
102
RTVSPost2010PropOp30
 70
     1
102
RTVSPost2010Prop31
280
     0
102
RTVSPost2010PropOp31
 70
     1
102
RTVSPost2010Prop32
280
     0
102
RTVSPost2010PropOp32
 70
     1
102
RTVSPost2010Prop33
280
     0
102
RTVSPost2010PropOp33
 70
     1
102
RTVSPost2010Prop34
280
     0
102
RTVSPost2010PropOp34
 70
     1
102
RTVSPost2010Prop35
280
     0
102
RTVSPost2010PropOp35
 70
     1
102
RTVSPost2010Prop36
280
     0
102
RTVSPost2010PropOp36
 70
     1
102
RTVSPost2010Prop37
 90
       50
102
RTVSPost2010PropOp37
 70
     1
102
RTVSPost2010Prop38
140
0.0
102
RTVSPost2010PropOp38
 70
     1
102
RTVSPost2010Prop39
140
1.0
102
RTVSPost2010PropOp39
 70
     1
102
RTVSPost2010Prop40
 90
        0
102
RTVSPost2010PropOp40
 70
     1
102
RTVSPost2010Prop41ColorIndex
 90
       18
102
RTVSPost2010Prop41ColorRGB
 90
        0
102
RTVSPost2010PropOp41
 70
     1
102
RTVSPost2010Prop42
 90
       50
102
RTVSPost2010PropOp42
 70
     1
102
RTVSPost2010Prop43
 90
        3
102
RTVSPost2010PropOp43
 70
     1
102
RTVSPost2010Prop44ColorIndex
 90
        5
102
RTVSPost2010Prop44ColorRGB
 90
      255
102
RTVSPost2010PropOp44
 70
     1
102
RTVSPost2010Prop45
280
     0
102
RTVSPost2010PropOp45
 70
     1
102
RTVSPost2010Prop46
 90
       50
102
RTVSPost2010PropOp46
 70
     1
102
RTVSPost2010Prop47
 90
       50
102
RTVSPost2010PropOp47
 70
     1
102
RTVSPost2010Prop48
 90
       50
102
RTVSPost2010PropOp48
 70
     1
102
RTVSPost2010Prop49
280
     0
102
RTVSPost2010PropOp49
 70
     1
102
RTVSPost2010Prop50
 90
       50
102
RTVSPost2010PropOp50
 70
     1
102
RTVSPost2010Prop51ColorIndex
 90
      256
102
RTVSPost2010Prop51ColorRGB
 90
-16777216
102
RTVSPost2010PropOp51
 70
     0
102
RTVSPost2010Prop52
140
1.0
102
RTVSPost2010PropOp52
 70
     0
102
RTVSPost2010Prop53
 90
        2
102
RTVSPost2010PropOp53
 70
     1
102
RTVSPost2010Prop54
  1
strokes_ogs.tif
102
RTVSPost2010PropOp54
 70
     1
102
RTVSPost2010Prop55
280
     0
102
RTVSPost2010PropOp55
 70
     1
102
RTVSPost2010Prop56
140
1.0
102
RTVSPost2010PropOp56
 70
     1
102
RTVSPost2010Prop57
140
1.0
102
RTVSPost2010PropOp57
 70
     1
102
RTVSPropertyOp0
 70
     1
102
RTVSPropertyOp1
 70
     1
102
RTVSPropertyOp2
 70
     1
102
RTVSPropertyOp3
 70
     1
102
RTVSPropertyOp4
 70
     1
102
RTVSPropertyOp5
 70
     1
102
RTVSPropertyOp6
 70
     1
102
RTVSPropertyOp7
 70
     1
102
RTVSPropertyOp8
 70
     1
102
RTVSPropertyOp9
 70
     1
102
RTVSPropertyOp10
 70
     1
102
RTVSPropertyOp11
 70
     1
102
RTVSPropertyOp12
 70
     1
102
RTVSPropertyOp13
 70
     1
102
RTVSPropertyOp14
 70
     1
102
RTVSPropertyOp15
 70
     1
102
RTVSPropertyOp16
 70
     1
102
RTVSPropertyOp17
 70
     1
102
RTVSPropertyOp18
 70
     1
102
RTVSPropertyOp19
 70
     1
102
RTVSPropertyOp20
 70
     1
102
RTVSPropertyOp21
 70
     1
102
RTVSPropertyOp22
 70
     1
102
RTVSPropertyOp23
 70
     1
102
RTVSPropertyOp24
 70
     1
102
RTVSPropertyOp25
 70
     1
102
RTVSPropertyOp26
 70
     1
102
RTVSPropertyOp27
 70
     1
102
RTVSPropertyOp28
 70
     1
102
RTVSPropertyOp29
 70
     1
102
RTVSPropertyOp30
 70
     1
102
RTVSPropertyOp31
 70
     1
102
RTVSPropertyOp32
 70
     1
102
RTVSPropertyOp33
 70
     1
102
RTVSPropertyOp34
 70
     1
102
RTVSPropertyOp35
 70
     1
102
RTVSPropertyOp36
 70
     1
102
RTVSPropertyOp37
 70
     1
102
RTVSPropertyOp38
 70
     1
102
RTVSPropertyOp39
 70
     1
102
RTVSPropertyOp40
 70
     1
102
RTVSPropertyOp41
 70
     1
102
RTVSPropertyOp42
 70
     1
102
RTVSPropertyOp43
 70
     1
102
RTVSPropertyOp44
 70
     1
102
RTVSPropertyOp45
 70
     1
102
RTVSPropertyOp46
 70
     1
102
RTVSPropertyOp47
 70
     1
102
RTVSPropertyOp48
 70
     1
102
RTVSPropertyOp49
 70
     1
102
RTVSPropertyOp50
 70
     1
102
RTVSPropertyOp51
 70
     0
102
RTVSPropertyOp52
 70
     0
102
RTVSPropertyOp53
 70
     1
102
RTVSPropertyOp54
 70
     1
102
RTVSPropertyOp55
 70
     1
102
RTVSPropertyOp56
 70
     1
102
RTVSPropertyOp57
 70
     1
102
RTVSPropertyOp58
 70
     1
102
RTVSPropertyOp59
 70
     1
102
RTVSPropertyOp60
 70
     1
102
RTVSPropertyOp61
 70
     1
102
RTVSPropertyOp62
 70
     1
  0
XRECORD
  5
711
102
{ACAD_REACTORS
330
710
102
}
330
710
100
AcDbXrecord
280
     1
102
RTVSPost2010Prop28
280
     0
102
RTVSPost2010PropOp28
 70
     1
102
RTVSPost2010Prop29
280
     1
102
RTVSPost2010PropOp29
 70
     1
102
RTVSPost2010Prop30
280
     1
102
RTVSPost2010PropOp30
 70
     1
102
RTVSPost2010Prop31
280
     0
102
RTVSPost2010PropOp31
 70
     1
102
RTVSPost2010Prop32
280
     0
102
RTVSPost2010PropOp32
 70
     1
102
RTVSPost2010Prop33
280
     0
102
RTVSPost2010PropOp33
 70
     1
102
RTVSPost2010Prop34
280
     0
102
RTVSPost2010PropOp34
 70
     1
102
RTVSPost2010Prop35
280
     0
102
RTVSPost2010PropOp35
 70
     1
102
RTVSPost2010Prop36
280
     0
102
RTVSPost2010PropOp36
 70
     1
102
RTVSPost2010Prop37
 90
       50
102
RTVSPost2010PropOp37
 70
     1
102
RTVSPost2010Prop38
140
0.0
102
RTVSPost2010PropOp38
 70
     1
102
RTVSPost2010Prop39
140
1.0
102
RTVSPost2010PropOp39
 70
     1
102
RTVSPost2010Prop40
 90
        0
102
RTVSPost2010PropOp40
 70
     1
102
RTVSPost2010Prop41ColorIndex
 90
       18
102
RTVSPost2010Prop41ColorRGB
 90
        0
102
RTVSPost2010PropOp41
 70
     1
102
RTVSPost2010Prop42
 90
       50
102
RTVSPost2010PropOp42
 70
     1
102
RTVSPost2010Prop43
 90
        3
102
RTVSPost2010PropOp43
 70
     1
102
RTVSPost2010Prop44ColorIndex
 90
        5
102
RTVSPost2010Prop44ColorRGB
 90
      255
102
RTVSPost2010PropOp44
 70
     1
102
RTVSPost2010Prop45
280
     0
102
RTVSPost2010PropOp45
 70
     1
102
RTVSPost2010Prop46
 90
       50
102
RTVSPost2010PropOp46
 70
     1
102
RTVSPost2010Prop47
 90
       50
102
RTVSPost2010PropOp47
 70
     1
102
RTVSPost2010Prop48
 90
       50
102
RTVSPost2010PropOp48
 70
     1
102
RTVSPost2010Prop49
280
     0
102
RTVSPost2010PropOp49
 70
     1
102
RTVSPost2010Prop50
 90
       50
102
RTVSPost2010PropOp50
 70
     1
102
RTVSPost2010Prop51ColorIndex
 90
      256
102
RTVSPost2010Prop51ColorRGB
 90
-16777216
102
RTVSPost2010PropOp51
 70
     0
102
RTVSPost2010Prop52
140
1.0
102
RTVSPost2010PropOp52
 70
     0
102
RTVSPost2010Prop53
 90
        2
102
RTVSPost2010PropOp53
 70
     1
102
RTVSPost2010Prop54
  1
strokes_ogs.tif
102
RTVSPost2010PropOp54
 70
     1
102
RTVSPost2010Prop55
280
     0
102
RTVSPost2010PropOp55
 70
     1
102
RTVSPost2010Prop56
140
1.0
102
RTVSPost2010PropOp56
 70
     1
102
RTVSPost2010Prop57
140
1.0
102
RTVSPost2010PropOp57
 70
     1
102
RTVSPropertyOp0
 70
     1
102
RTVSPropertyOp1
 70
     1
102
RTVSPropertyOp2
 70
     1
102
RTVSPropertyOp3
 70
     1
102
RTVSPropertyOp4
 70
     1
102
RTVSPropertyOp5
 70
     1
102
RTVSPropertyOp6
 70
     1
102
RTVSPropertyOp7
 70
     1
102
RTVSPropertyOp8
 70
     1
102
RTVSPropertyOp9
 70
     1
102
RTVSPropertyOp10
 70
     1
102
RTVSPropertyOp11
 70
     1
102
RTVSPropertyOp12
 70
     1
102
RTVSPropertyOp13
 70
     1
102
RTVSPropertyOp14
 70
     1
102
RTVSPropertyOp15
 70
     1
102
RTVSPropertyOp16
 70
     1
102
RTVSPropertyOp17
 70
     1
102
RTVSPropertyOp18
 70
     1
102
RTVSPropertyOp19
 70
     1
102
RTVSPropertyOp20
 70
     1
102
RTVSPropertyOp21
 70
     1
102
RTVSPropertyOp22
 70
     1
102
RTVSPropertyOp23
 70
     1
102
RTVSPropertyOp24
 70
     1
102
RTVSPropertyOp25
 70
     1
102
RTVSPropertyOp26
 70
     1
102
RTVSPropertyOp27
 70
     1
102
RTVSPropertyOp28
 70
     1
102
RTVSPropertyOp29
 70
     1
102
RTVSPropertyOp30
 70
     1
102
RTVSPropertyOp31
 70
     1
102
RTVSPropertyOp32
 70
     1
102
RTVSPropertyOp33
 70
     1
102
RTVSPropertyOp34
 70
     1
102
RTVSPropertyOp35
 70
     1
102
RTVSPropertyOp36
 70
     1
102
RTVSPropertyOp37
 70
     1
102
RTVSPropertyOp38
 70
     1
102
RTVSPropertyOp39
 70
     1
102
RTVSPropertyOp40
 70
     1
102
RTVSPropertyOp41
 70
     1
102
RTVSPropertyOp42
 70
     1
102
RTVSPropertyOp43
 70
     1
102
RTVSPropertyOp44
 70
     1
102
RTVSPropertyOp45
 70
     1
102
RTVSPropertyOp46
 70
     1
102
RTVSPropertyOp47
 70
     1
102
RTVSPropertyOp48
 70
     1
102
RTVSPropertyOp49
 70
     1
102
RTVSPropertyOp50
 70
     1
102
RTVSPropertyOp51
 70
     0
102
RTVSPropertyOp52
 70
     0
102
RTVSPropertyOp53
 70
     1
102
RTVSPropertyOp54
 70
     1
102
RTVSPropertyOp55
 70
     1
102
RTVSPropertyOp56
 70
     1
102
RTVSPropertyOp57
 70
     1
102
RTVSPropertyOp58
 70
     1
102
RTVSPropertyOp59
 70
     1
102
RTVSPropertyOp60
 70
     1
102
RTVSPropertyOp61
 70
     1
102
RTVSPropertyOp62
 70
     1
  0
XRECORD
  5
703
102
{ACAD_REACTORS
330
702
102
}
330
702
100
AcDbXrecord
280
     1
102
RTVSPost2010Prop28
280
     0
102
RTVSPost2010PropOp28
 70
     1
102
RTVSPost2010Prop29
280
     1
102
RTVSPost2010PropOp29
 70
     1
102
RTVSPost2010Prop30
280
     1
102
RTVSPost2010PropOp30
 70
     1
102
RTVSPost2010Prop31
280
     0
102
RTVSPost2010PropOp31
 70
     1
102
RTVSPost2010Prop32
280
     0
102
RTVSPost2010PropOp32
 70
     1
102
RTVSPost2010Prop33
280
     0
102
RTVSPost2010PropOp33
 70
     1
102
RTVSPost2010Prop34
280
     0
102
RTVSPost2010PropOp34
 70
     1
102
RTVSPost2010Prop35
280
     0
102
RTVSPost2010PropOp35
 70
     1
102
RTVSPost2010Prop36
280
     0
102
RTVSPost2010PropOp36
 70
     1
102
RTVSPost2010Prop37
 90
       50
102
RTVSPost2010PropOp37
 70
     1
102
RTVSPost2010Prop38
140
0.0
102
RTVSPost2010PropOp38
 70
     1
102
RTVSPost2010Prop39
140
1.0
102
RTVSPost2010PropOp39
 70
     1
102
RTVSPost2010Prop40
 90
        0
102
RTVSPost2010PropOp40
 70
     1
102
RTVSPost2010Prop41ColorIndex
 90
       18
102
RTVSPost2010Prop41ColorRGB
 90
        0
102
RTVSPost2010PropOp41
 70
     1
102
RTVSPost2010Prop42
 90
       50
102
RTVSPost2010PropOp42
 70
     1
102
RTVSPost2010Prop43
 90
        3
102
RTVSPost2010PropOp43
 70
     1
102
RTVSPost2010Prop44ColorIndex
 90
        5
102
RTVSPost2010Prop44ColorRGB
 90
      255
102
RTVSPost2010PropOp44
 70
     1
102
RTVSPost2010Prop45
280
     0
102
RTVSPost2010PropOp45
 70
     1
102
RTVSPost2010Prop46
 90
       50
102
RTVSPost2010PropOp46
 70
     1
102
RTVSPost2010Prop47
 90
       50
102
RTVSPost2010PropOp47
 70
     1
102
RTVSPost2010Prop48
 90
       50
102
RTVSPost2010PropOp48
 70
     1
102
RTVSPost2010Prop49
280
     0
102
RTVSPost2010PropOp49
 70
     1
102
RTVSPost2010Prop50
 90
       50
102
RTVSPost2010PropOp50
 70
     1
102
RTVSPost2010Prop51ColorIndex
 90
      256
102
RTVSPost2010Prop51ColorRGB
 90
-16777216
102
RTVSPost2010PropOp51
 70
     0
102
RTVSPost2010Prop52
140
1.0
102
RTVSPost2010PropOp52
 70
     0
102
RTVSPost2010Prop53
 90
        2
102
RTVSPost2010PropOp53
 70
     1
102
RTVSPost2010Prop54
  1
strokes_ogs.tif
102
RTVSPost2010PropOp54
 70
     1
102
RTVSPost2010Prop55
280
     0
102
RTVSPost2010PropOp55
 70
     1
102
RTVSPost2010Prop56
140
1.0
102
RTVSPost2010PropOp56
 70
     1
102
RTVSPost2010Prop57
140
1.0
102
RTVSPost2010PropOp57
 70
     1
102
RTVSPropertyOp0
 70
     1
102
RTVSPropertyOp1
 70
     1
102
RTVSPropertyOp2
 70
     1
102
RTVSPropertyOp3
 70
     1
102
RTVSPropertyOp4
 70
     1
102
RTVSPropertyOp5
 70
     1
102
RTVSPropertyOp6
 70
     1
102
RTVSPropertyOp7
 70
     1
102
RTVSPropertyOp8
 70
     1
102
RTVSPropertyOp9
 70
     1
102
RTVSPropertyOp10
 70
     1
102
RTVSPropertyOp11
 70
     1
102
RTVSPropertyOp12
 70
     1
102
RTVSPropertyOp13
 70
     1
102
RTVSPropertyOp14
 70
     1
102
RTVSPropertyOp15
 70
     1
102
RTVSPropertyOp16
 70
     1
102
RTVSPropertyOp17
 70
     1
102
RTVSPropertyOp18
 70
     1
102
RTVSPropertyOp19
 70
     1
102
RTVSPropertyOp20
 70
     1
102
RTVSPropertyOp21
 70
     1
102
RTVSPropertyOp22
 70
     1
102
RTVSPropertyOp23
 70
     1
102
RTVSPropertyOp24
 70
     1
102
RTVSPropertyOp25
 70
     1
102
RTVSPropertyOp26
 70
     1
102
RTVSPropertyOp27
 70
     1
102
RTVSPropertyOp28
 70
     1
102
RTVSPropertyOp29
 70
     1
102
RTVSPropertyOp30
 70
     1
102
RTVSPropertyOp31
 70
     1
102
RTVSPropertyOp32
 70
     1
102
RTVSPropertyOp33
 70
     1
102
RTVSPropertyOp34
 70
     1
102
RTVSPropertyOp35
 70
     1
102
RTVSPropertyOp36
 70
     1
102
RTVSPropertyOp37
 70
     1
102
RTVSPropertyOp38
 70
     1
102
RTVSPropertyOp39
 70
     1
102
RTVSPropertyOp40
 70
     1
102
RTVSPropertyOp41
 70
     1
102
RTVSPropertyOp42
 70
     1
102
RTVSPropertyOp43
 70
     1
102
RTVSPropertyOp44
 70
     1
102
RTVSPropertyOp45
 70
     1
102
RTVSPropertyOp46
 70
     1
102
RTVSPropertyOp47
 70
     1
102
RTVSPropertyOp48
 70
     1
102
RTVSPropertyOp49
 70
     1
102
RTVSPropertyOp50
 70
     1
102
RTVSPropertyOp51
 70
     0
102
RTVSPropertyOp52
 70
     0
102
RTVSPropertyOp53
 70
     1
102
RTVSPropertyOp54
 70
     1
102
RTVSPropertyOp55
 70
     1
102
RTVSPropertyOp56
 70
     1
102
RTVSPropertyOp57
 70
     1
102
RTVSPropertyOp58
 70
     1
102
RTVSPropertyOp59
 70
     1
102
RTVSPropertyOp60
 70
     1
102
RTVSPropertyOp61
 70
     1
102
RTVSPropertyOp62
 70
     1
  0
XRECORD
  5
707
102
{ACAD_REACTORS
330
706
102
}
330
706
100
AcDbXrecord
280
     1
102
RTVSPost2010Prop28
280
     0
102
RTVSPost2010PropOp28
 70
     1
102
RTVSPost2010Prop29
280
     1
102
RTVSPost2010PropOp29
 70
     1
102
RTVSPost2010Prop30
280
     1
102
RTVSPost2010PropOp30
 70
     1
102
RTVSPost2010Prop31
280
     0
102
RTVSPost2010PropOp31
 70
     1
102
RTVSPost2010Prop32
280
     0
102
RTVSPost2010PropOp32
 70
     1
102
RTVSPost2010Prop33
280
     0
102
RTVSPost2010PropOp33
 70
     1
102
RTVSPost2010Prop34
280
     0
102
RTVSPost2010PropOp34
 70
     1
102
RTVSPost2010Prop35
280
     0
102
RTVSPost2010PropOp35
 70
     1
102
RTVSPost2010Prop36
280
     0
102
RTVSPost2010PropOp36
 70
     1
102
RTVSPost2010Prop37
 90
       50
102
RTVSPost2010PropOp37
 70
     1
102
RTVSPost2010Prop38
140
0.0
102
RTVSPost2010PropOp38
 70
     1
102
RTVSPost2010Prop39
140
1.0
102
RTVSPost2010PropOp39
 70
     1
102
RTVSPost2010Prop40
 90
        0
102
RTVSPost2010PropOp40
 70
     1
102
RTVSPost2010Prop41ColorIndex
 90
       18
102
RTVSPost2010Prop41ColorRGB
 90
        0
102
RTVSPost2010PropOp41
 70
     1
102
RTVSPost2010Prop42
 90
       50
102
RTVSPost2010PropOp42
 70
     1
102
RTVSPost2010Prop43
 90
        3
102
RTVSPost2010PropOp43
 70
     1
102
RTVSPost2010Prop44ColorIndex
 90
        5
102
RTVSPost2010Prop44ColorRGB
 90
      255
102
RTVSPost2010PropOp44
 70
     1
102
RTVSPost2010Prop45
280
     0
102
RTVSPost2010PropOp45
 70
     1
102
RTVSPost2010Prop46
 90
       50
102
RTVSPost2010PropOp46
 70
     1
102
RTVSPost2010Prop47
 90
       50
102
RTVSPost2010PropOp47
 70
     1
102
RTVSPost2010Prop48
 90
       50
102
RTVSPost2010PropOp48
 70
     1
102
RTVSPost2010Prop49
280
     0
102
RTVSPost2010PropOp49
 70
     1
102
RTVSPost2010Prop50
 90
       50
102
RTVSPost2010PropOp50
 70
     1
102
RTVSPost2010Prop51ColorIndex
 90
      256
102
RTVSPost2010Prop51ColorRGB
 90
-16777216
102
RTVSPost2010PropOp51
 70
     0
102
RTVSPost2010Prop52
140
1.0
102
RTVSPost2010PropOp52
 70
     0
102
RTVSPost2010Prop53
 90
        2
102
RTVSPost2010PropOp53
 70
     1
102
RTVSPost2010Prop54
  1
strokes_ogs.tif
102
RTVSPost2010PropOp54
 70
     1
102
RTVSPost2010Prop55
280
     0
102
RTVSPost2010PropOp55
 70
     1
102
RTVSPost2010Prop56
140
1.0
102
RTVSPost2010PropOp56
 70
     1
102
RTVSPost2010Prop57
140
1.0
102
RTVSPost2010PropOp57
 70
     1
102
RTVSPropertyOp0
 70
     1
102
RTVSPropertyOp1
 70
     1
102
RTVSPropertyOp2
 70
     1
102
RTVSPropertyOp3
 70
     1
102
RTVSPropertyOp4
 70
     1
102
RTVSPropertyOp5
 70
     1
102
RTVSPropertyOp6
 70
     1
102
RTVSPropertyOp7
 70
     1
102
RTVSPropertyOp8
 70
     1
102
RTVSPropertyOp9
 70
     1
102
RTVSPropertyOp10
 70
     1
102
RTVSPropertyOp11
 70
     1
102
RTVSPropertyOp12
 70
     1
102
RTVSPropertyOp13
 70
     1
102
RTVSPropertyOp14
 70
     1
102
RTVSPropertyOp15
 70
     1
102
RTVSPropertyOp16
 70
     1
102
RTVSPropertyOp17
 70
     1
102
RTVSPropertyOp18
 70
     1
102
RTVSPropertyOp19
 70
     1
102
RTVSPropertyOp20
 70
     1
102
RTVSPropertyOp21
 70
     1
102
RTVSPropertyOp22
 70
     1
102
RTVSPropertyOp23
 70
     1
102
RTVSPropertyOp24
 70
     1
102
RTVSPropertyOp25
 70
     1
102
RTVSPropertyOp26
 70
     1
102
RTVSPropertyOp27
 70
     1
102
RTVSPropertyOp28
 70
     1
102
RTVSPropertyOp29
 70
     1
102
RTVSPropertyOp30
 70
     1
102
RTVSPropertyOp31
 70
     1
102
RTVSPropertyOp32
 70
     1
102
RTVSPropertyOp33
 70
     1
102
RTVSPropertyOp34
 70
     1
102
RTVSPropertyOp35
 70
     1
102
RTVSPropertyOp36
 70
     1
102
RTVSPropertyOp37
 70
     1
102
RTVSPropertyOp38
 70
     1
102
RTVSPropertyOp39
 70
     1
102
RTVSPropertyOp40
 70
     1
102
RTVSPropertyOp41
 70
     1
102
RTVSPropertyOp42
 70
     1
102
RTVSPropertyOp43
 70
     1
102
RTVSPropertyOp44
 70
     1
102
RTVSPropertyOp45
 70
     1
102
RTVSPropertyOp46
 70
     1
102
RTVSPropertyOp47
 70
     1
102
RTVSPropertyOp48
 70
     1
102
RTVSPropertyOp49
 70
     1
102
RTVSPropertyOp50
 70
     1
102
RTVSPropertyOp51
 70
     0
102
RTVSPropertyOp52
 70
     0
102
RTVSPropertyOp53
 70
     1
102
RTVSPropertyOp54
 70
     1
102
RTVSPropertyOp55
 70
     1
102
RTVSPropertyOp56
 70
     1
102
RTVSPropertyOp57
 70
     1
102
RTVSPropertyOp58
 70
     1
102
RTVSPropertyOp59
 70
     1
102
RTVSPropertyOp60
 70
     1
102
RTVSPropertyOp61
 70
     1
102
RTVSPropertyOp62
 70
     1
  0
XRECORD
  5
721
102
{ACAD_REACTORS
330
720
102
}
330
720
100
AcDbXrecord
280
     1
102
RTVSPost2010Prop28
280
     0
102
RTVSPost2010PropOp28
 70
     1
102
RTVSPost2010Prop29
280
     1
102
RTVSPost2010PropOp29
 70
     1
102
RTVSPost2010Prop30
280
     1
102
RTVSPost2010PropOp30
 70
     1
102
RTVSPost2010Prop31
280
     0
102
RTVSPost2010PropOp31
 70
     1
102
RTVSPost2010Prop32
280
     0
102
RTVSPost2010PropOp32
 70
     1
102
RTVSPost2010Prop33
280
     0
102
RTVSPost2010PropOp33
 70
     1
102
RTVSPost2010Prop34
280
     0
102
RTVSPost2010PropOp34
 70
     1
102
RTVSPost2010Prop35
280
     0
102
RTVSPost2010PropOp35
 70
     1
102
RTVSPost2010Prop36
280
     0
102
RTVSPost2010PropOp36
 70
     1
102
RTVSPost2010Prop37
 90
       50
102
RTVSPost2010PropOp37
 70
     0
102
RTVSPost2010Prop38
140
0.0
102
RTVSPost2010PropOp38
 70
     0
102
RTVSPost2010Prop39
140
1.0
102
RTVSPost2010PropOp39
 70
     0
102
RTVSPost2010Prop40
 90
        0
102
RTVSPost2010PropOp40
 70
     0
102
RTVSPost2010Prop41ColorIndex
 90
       18
102
RTVSPost2010Prop41ColorRGB
 90
        0
102
RTVSPost2010PropOp41
 70
     0
102
RTVSPost2010Prop42
 90
       50
102
RTVSPost2010PropOp42
 70
     0
102
RTVSPost2010Prop43
 90
        3
102
RTVSPost2010PropOp43
 70
     0
102
RTVSPost2010Prop44ColorIndex
 90
        5
102
RTVSPost2010Prop44ColorRGB
 90
      255
102
RTVSPost2010PropOp44
 70
     0
102
RTVSPost2010Prop45
280
     0
102
RTVSPost2010PropOp45
 70
     1
102
RTVSPost2010Prop46
 90
       50
102
RTVSPost2010PropOp46
 70
     0
102
RTVSPost2010Prop47
 90
       50
102
RTVSPost2010PropOp47
 70
     0
102
RTVSPost2010Prop48
 90
       50
102
RTVSPost2010PropOp48
 70
     0
102
RTVSPost2010Prop49
280
     0
102
RTVSPost2010PropOp49
 70
     1
102
RTVSPost2010Prop50
 90
       50
102
RTVSPost2010PropOp50
 70
     0
102
RTVSPost2010Prop51ColorIndex
 90
      256
102
RTVSPost2010Prop51ColorRGB
 90
-16777216
102
RTVSPost2010PropOp51
 70
     0
102
RTVSPost2010Prop52
140
1.0
102
RTVSPost2010PropOp52
 70
     0
102
RTVSPost2010Prop53
 90
        2
102
RTVSPost2010PropOp53
 70
     0
102
RTVSPost2010Prop54
  1
strokes_ogs.tif
102
RTVSPost2010PropOp54
 70
     0
102
RTVSPost2010Prop55
280
     0
102
RTVSPost2010PropOp55
 70
     1
102
RTVSPost2010Prop56
140
1.0
102
RTVSPost2010PropOp56
 70
     0
102
RTVSPost2010Prop57
140
1.0
102
RTVSPost2010PropOp57
 70
     0
102
RTVSPropertyOp0
 70
     0
102
RTVSPropertyOp1
 70
     0
102
RTVSPropertyOp2
 70
     0
102
RTVSPropertyOp3
 70
     0
102
RTVSPropertyOp4
 70
     0
102
RTVSPropertyOp5
 70
     0
102
RTVSPropertyOp6
 70
     0
102
RTVSPropertyOp7
 70
     0
102
RTVSPropertyOp8
 70
     0
102
RTVSPropertyOp9
 70
     0
102
RTVSPropertyOp10
 70
     0
102
RTVSPropertyOp11
 70
     0
102
RTVSPropertyOp12
 70
     0
102
RTVSPropertyOp13
 70
     0
102
RTVSPropertyOp14
 70
     2
102
RTVSPropertyOp15
 70
     0
102
RTVSPropertyOp16
 70
     0
102
RTVSPropertyOp17
 70
     0
102
RTVSPropertyOp18
 70
     0
102
RTVSPropertyOp19
 70
     0
102
RTVSPropertyOp20
 70
     0
102
RTVSPropertyOp21
 70
     0
102
RTVSPropertyOp22
 70
     0
102
RTVSPropertyOp23
 70
     0
102
RTVSPropertyOp24
 70
     0
102
RTVSPropertyOp25
 70
     0
102
RTVSPropertyOp26
 70
     0
102
RTVSPropertyOp27
 70
     0
102
RTVSPropertyOp28
 70
     1
102
RTVSPropertyOp29
 70
     1
102
RTVSPropertyOp30
 70
     1
102
RTVSPropertyOp31
 70
     1
102
RTVSPropertyOp32
 70
     1
102
RTVSPropertyOp33
 70
     1
102
RTVSPropertyOp34
 70
     1
102
RTVSPropertyOp35
 70
     1
102
RTVSPropertyOp36
 70
     1
102
RTVSPropertyOp37
 70
     0
102
RTVSPropertyOp38
 70
     0
102
RTVSPropertyOp39
 70
     0
102
RTVSPropertyOp40
 70
     0
102
RTVSPropertyOp41
 70
     0
102
RTVSPropertyOp42
 70
     0
102
RTVSPropertyOp43
 70
     0
102
RTVSPropertyOp44
 70
     0
102
RTVSPropertyOp45
 70
     1
102
RTVSPropertyOp46
 70
     0
102
RTVSPropertyOp47
 70
     0
102
RTVSPropertyOp48
 70
     0
102
RTVSPropertyOp49
 70
     1
102
RTVSPropertyOp50
 70
     0
102
RTVSPropertyOp51
 70
     0
102
RTVSPropertyOp52
 70
     0
102
RTVSPropertyOp53
 70
     0
102
RTVSPropertyOp54
 70
     0
102
RTVSPropertyOp55
 70
     1
102
RTVSPropertyOp56
 70
     0
102
RTVSPropertyOp57
 70
     0
102
RTVSPropertyOp58
 70
     0
102
RTVSPropertyOp59
 70
     0
102
RTVSPropertyOp60
 70
     0
102
RTVSPropertyOp61
 70
     0
102
RTVSPropertyOp62
 70
     0
  0
XRECORD
  5
70F
102
{ACAD_REACTORS
330
70E
102
}
330
70E
100
AcDbXrecord
280
     1
102
RTVSPost2010Prop28
280
     0
102
RTVSPost2010PropOp28
 70
     1
102
RTVSPost2010Prop29
280
     1
102
RTVSPost2010PropOp29
 70
     1
102
RTVSPost2010Prop30
280
     1
102
RTVSPost2010PropOp30
 70
     1
102
RTVSPost2010Prop31
280
     0
102
RTVSPost2010PropOp31
 70
     1
102
RTVSPost2010Prop32
280
     0
102
RTVSPost2010PropOp32
 70
     1
102
RTVSPost2010Prop33
280
     0
102
RTVSPost2010PropOp33
 70
     1
102
RTVSPost2010Prop34
280
     0
102
RTVSPost2010PropOp34
 70
     1
102
RTVSPost2010Prop35
280
     0
102
RTVSPost2010PropOp35
 70
     1
102
RTVSPost2010Prop36
280
     0
102
RTVSPost2010PropOp36
 70
     1
102
RTVSPost2010Prop37
 90
       50
102
RTVSPost2010PropOp37
 70
     1
102
RTVSPost2010Prop38
140
0.0
102
RTVSPost2010PropOp38
 70
     1
102
RTVSPost2010Prop39
140
1.0
102
RTVSPost2010PropOp39
 70
     1
102
RTVSPost2010Prop40
 90
        0
102
RTVSPost2010PropOp40
 70
     1
102
RTVSPost2010Prop41ColorIndex
 90
       18
102
RTVSPost2010Prop41ColorRGB
 90
        0
102
RTVSPost2010PropOp41
 70
     1
102
RTVSPost2010Prop42
 90
       50
102
RTVSPost2010PropOp42
 70
     1
102
RTVSPost2010Prop43
 90
        3
102
RTVSPost2010PropOp43
 70
     1
102
RTVSPost2010Prop44ColorIndex
 90
        5
102
RTVSPost2010Prop44ColorRGB
 90
      255
102
RTVSPost2010PropOp44
 70
     1
102
RTVSPost2010Prop45
280
     0
102
RTVSPost2010PropOp45
 70
     1
102
RTVSPost2010Prop46
 90
       50
102
RTVSPost2010PropOp46
 70
     1
102
RTVSPost2010Prop47
 90
       50
102
RTVSPost2010PropOp47
 70
     1
102
RTVSPost2010Prop48
 90
       50
102
RTVSPost2010PropOp48
 70
     1
102
RTVSPost2010Prop49
280
     0
102
RTVSPost2010PropOp49
 70
     1
102
RTVSPost2010Prop50
 90
       50
102
RTVSPost2010PropOp50
 70
     1
102
RTVSPost2010Prop51ColorIndex
 90
      256
102
RTVSPost2010Prop51ColorRGB
 90
-16777216
102
RTVSPost2010PropOp51
 70
     0
102
RTVSPost2010Prop52
140
1.0
102
RTVSPost2010PropOp52
 70
     0
102
RTVSPost2010Prop53
 90
        2
102
RTVSPost2010PropOp53
 70
     1
102
RTVSPost2010Prop54
  1
strokes_ogs.tif
102
RTVSPost2010PropOp54
 70
     1
102
RTVSPost2010Prop55
280
     0
102
RTVSPost2010PropOp55
 70
     1
102
RTVSPost2010Prop56
140
1.0
102
RTVSPost2010PropOp56
 70
     1
102
RTVSPost2010Prop57
140
1.0
102
RTVSPost2010PropOp57
 70
     1
102
RTVSPropertyOp0
 70
     1
102
RTVSPropertyOp1
 70
     1
102
RTVSPropertyOp2
 70
     1
102
RTVSPropertyOp3
 70
     1
102
RTVSPropertyOp4
 70
     1
102
RTVSPropertyOp5
 70
     1
102
RTVSPropertyOp6
 70
     1
102
RTVSPropertyOp7
 70
     1
102
RTVSPropertyOp8
 70
     1
102
RTVSPropertyOp9
 70
     1
102
RTVSPropertyOp10
 70
     1
102
RTVSPropertyOp11
 70
     1
102
RTVSPropertyOp12
 70
     1
102
RTVSPropertyOp13
 70
     1
102
RTVSPropertyOp14
 70
     1
102
RTVSPropertyOp15
 70
     1
102
RTVSPropertyOp16
 70
     1
102
RTVSPropertyOp17
 70
     1
102
RTVSPropertyOp18
 70
     1
102
RTVSPropertyOp19
 70
     1
102
RTVSPropertyOp20
 70
     1
102
RTVSPropertyOp21
 70
     1
102
RTVSPropertyOp22
 70
     1
102
RTVSPropertyOp23
 70
     1
102
RTVSPropertyOp24
 70
     1
102
RTVSPropertyOp25
 70
     1
102
RTVSPropertyOp26
 70
     1
102
RTVSPropertyOp27
 70
     1
102
RTVSPropertyOp28
 70
     1
102
RTVSPropertyOp29
 70
     1
102
RTVSPropertyOp30
 70
     1
102
RTVSPropertyOp31
 70
     1
102
RTVSPropertyOp32
 70
     1
102
RTVSPropertyOp33
 70
     1
102
RTVSPropertyOp34
 70
     1
102
RTVSPropertyOp35
 70
     1
102
RTVSPropertyOp36
 70
     1
102
RTVSPropertyOp37
 70
     1
102
RTVSPropertyOp38
 70
     1
102
RTVSPropertyOp39
 70
     1
102
RTVSPropertyOp40
 70
     1
102
RTVSPropertyOp41
 70
     1
102
RTVSPropertyOp42
 70
     1
102
RTVSPropertyOp43
 70
     1
102
RTVSPropertyOp44
 70
     1
102
RTVSPropertyOp45
 70
     1
102
RTVSPropertyOp46
 70
     1
102
RTVSPropertyOp47
 70
     1
102
RTVSPropertyOp48
 70
     1
102
RTVSPropertyOp49
 70
     1
102
RTVSPropertyOp50
 70
     1
102
RTVSPropertyOp51
 70
     0
102
RTVSPropertyOp52
 70
     0
102
RTVSPropertyOp53
 70
     1
102
RTVSPropertyOp54
 70
     1
102
RTVSPropertyOp55
 70
     1
102
RTVSPropertyOp56
 70
     1
102
RTVSPropertyOp57
 70
     1
102
RTVSPropertyOp58
 70
     1
102
RTVSPropertyOp59
 70
     1
102
RTVSPropertyOp60
 70
     1
102
RTVSPropertyOp61
 70
     1
102
RTVSPropertyOp62
 70
     1
  0
XRECORD
  5
6F3
102
{ACAD_REACTORS
330
6F2
102
}
330
6F2
100
AcDbXrecord
280
     1
102
RTVSPost2010Prop28
280
     0
102
RTVSPost2010PropOp28
 70
     1
102
RTVSPost2010Prop29
280
     1
102
RTVSPost2010PropOp29
 70
     1
102
RTVSPost2010Prop30
280
     1
102
RTVSPost2010PropOp30
 70
     1
102
RTVSPost2010Prop31
280
     0
102
RTVSPost2010PropOp31
 70
     1
102
RTVSPost2010Prop32
280
     0
102
RTVSPost2010PropOp32
 70
     1
102
RTVSPost2010Prop33
280
     0
102
RTVSPost2010PropOp33
 70
     1
102
RTVSPost2010Prop34
280
     0
102
RTVSPost2010PropOp34
 70
     1
102
RTVSPost2010Prop35
280
     0
102
RTVSPost2010PropOp35
 70
     1
102
RTVSPost2010Prop36
280
     0
102
RTVSPost2010PropOp36
 70
     1
102
RTVSPost2010Prop37
 90
       50
102
RTVSPost2010PropOp37
 70
     1
102
RTVSPost2010Prop38
140
0.0
102
RTVSPost2010PropOp38
 70
     1
102
RTVSPost2010Prop39
140
1.0
102
RTVSPost2010PropOp39
 70
     1
102
RTVSPost2010Prop40
 90
        0
102
RTVSPost2010PropOp40
 70
     1
102
RTVSPost2010Prop41ColorIndex
 90
       18
102
RTVSPost2010Prop41ColorRGB
 90
        0
102
RTVSPost2010PropOp41
 70
     1
102
RTVSPost2010Prop42
 90
       50
102
RTVSPost2010PropOp42
 70
     1
102
RTVSPost2010Prop43
 90
        3
102
RTVSPost2010PropOp43
 70
     1
102
RTVSPost2010Prop44ColorIndex
 90
        5
102
RTVSPost2010Prop44ColorRGB
 90
      255
102
RTVSPost2010PropOp44
 70
     1
102
RTVSPost2010Prop45
280
     0
102
RTVSPost2010PropOp45
 70
     1
102
RTVSPost2010Prop46
 90
       50
102
RTVSPost2010PropOp46
 70
     1
102
RTVSPost2010Prop47
 90
       50
102
RTVSPost2010PropOp47
 70
     1
102
RTVSPost2010Prop48
 90
       50
102
RTVSPost2010PropOp48
 70
     1
102
RTVSPost2010Prop49
280
     0
102
RTVSPost2010PropOp49
 70
     1
102
RTVSPost2010Prop50
 90
       50
102
RTVSPost2010PropOp50
 70
     1
102
RTVSPost2010Prop51ColorIndex
 90
      256
102
RTVSPost2010Prop51ColorRGB
 90
-16777216
102
RTVSPost2010PropOp51
 70
     0
102
RTVSPost2010Prop52
140
1.0
102
RTVSPost2010PropOp52
 70
     0
102
RTVSPost2010Prop53
 90
        2
102
RTVSPost2010PropOp53
 70
     1
102
RTVSPost2010Prop54
  1
strokes_ogs.tif
102
RTVSPost2010PropOp54
 70
     1
102
RTVSPost2010Prop55
280
     0
102
RTVSPost2010PropOp55
 70
     1
102
RTVSPost2010Prop56
140
1.0
102
RTVSPost2010PropOp56
 70
     1
102
RTVSPost2010Prop57
140
1.0
102
RTVSPost2010PropOp57
 70
     1
102
RTVSPropertyOp0
 70
     1
102
RTVSPropertyOp1
 70
     1
102
RTVSPropertyOp2
 70
     1
102
RTVSPropertyOp3
 70
     1
102
RTVSPropertyOp4
 70
     1
102
RTVSPropertyOp5
 70
     1
102
RTVSPropertyOp6
 70
     1
102
RTVSPropertyOp7
 70
     1
102
RTVSPropertyOp8
 70
     1
102
RTVSPropertyOp9
 70
     1
102
RTVSPropertyOp10
 70
     1
102
RTVSPropertyOp11
 70
     1
102
RTVSPropertyOp12
 70
     1
102
RTVSPropertyOp13
 70
     1
102
RTVSPropertyOp14
 70
     1
102
RTVSPropertyOp15
 70
     1
102
RTVSPropertyOp16
 70
     1
102
RTVSPropertyOp17
 70
     1
102
RTVSPropertyOp18
 70
     1
102
RTVSPropertyOp19
 70
     1
102
RTVSPropertyOp20
 70
     1
102
RTVSPropertyOp21
 70
     1
102
RTVSPropertyOp22
 70
     1
102
RTVSPropertyOp23
 70
     1
102
RTVSPropertyOp24
 70
     1
102
RTVSPropertyOp25
 70
     1
102
RTVSPropertyOp26
 70
     1
102
RTVSPropertyOp27
 70
     1
102
RTVSPropertyOp28
 70
     1
102
RTVSPropertyOp29
 70
     1
102
RTVSPropertyOp30
 70
     1
102
RTVSPropertyOp31
 70
     1
102
RTVSPropertyOp32
 70
     1
102
RTVSPropertyOp33
 70
     1
102
RTVSPropertyOp34
 70
     1
102
RTVSPropertyOp35
 70
     1
102
RTVSPropertyOp36
 70
     1
102
RTVSPropertyOp37
 70
     1
102
RTVSPropertyOp38
 70
     1
102
RTVSPropertyOp39
 70
     1
102
RTVSPropertyOp40
 70
     1
102
RTVSPropertyOp41
 70
     1
102
RTVSPropertyOp42
 70
     1
102
RTVSPropertyOp43
 70
     1
102
RTVSPropertyOp44
 70
     1
102
RTVSPropertyOp45
 70
     1
102
RTVSPropertyOp46
 70
     1
102
RTVSPropertyOp47
 70
     1
102
RTVSPropertyOp48
 70
     1
102
RTVSPropertyOp49
 70
     1
102
RTVSPropertyOp50
 70
     1
102
RTVSPropertyOp51
 70
     0
102
RTVSPropertyOp52
 70
     0
102
RTVSPropertyOp53
 70
     1
102
RTVSPropertyOp54
 70
     1
102
RTVSPropertyOp55
 70
     1
102
RTVSPropertyOp56
 70
     1
102
RTVSPropertyOp57
 70
     1
102
RTVSPropertyOp58
 70
     1
102
RTVSPropertyOp59
 70
     1
102
RTVSPropertyOp60
 70
     1
102
RTVSPropertyOp61
 70
     1
102
RTVSPropertyOp62
 70
     1
  0
XRECORD
  5
6F5
102
{ACAD_REACTORS
330
6F4
102
}
330
6F4
100
AcDbXrecord
280
     1
102
RTVSPost2010Prop28
280
     0
102
RTVSPost2010PropOp28
 70
     1
102
RTVSPost2010Prop29
280
     1
102
RTVSPost2010PropOp29
 70
     1
102
RTVSPost2010Prop30
280
     1
102
RTVSPost2010PropOp30
 70
     1
102
RTVSPost2010Prop31
280
     0
102
RTVSPost2010PropOp31
 70
     1
102
RTVSPost2010Prop32
280
     0
102
RTVSPost2010PropOp32
 70
     1
102
RTVSPost2010Prop33
280
     0
102
RTVSPost2010PropOp33
 70
     1
102
RTVSPost2010Prop34
280
     0
102
RTVSPost2010PropOp34
 70
     1
102
RTVSPost2010Prop35
280
     0
102
RTVSPost2010PropOp35
 70
     1
102
RTVSPost2010Prop36
280
     0
102
RTVSPost2010PropOp36
 70
     1
102
RTVSPost2010Prop37
 90
       50
102
RTVSPost2010PropOp37
 70
     1
102
RTVSPost2010Prop38
140
0.0
102
RTVSPost2010PropOp38
 70
     1
102
RTVSPost2010Prop39
140
1.0
102
RTVSPost2010PropOp39
 70
     1
102
RTVSPost2010Prop40
 90
        0
102
RTVSPost2010PropOp40
 70
     1
102
RTVSPost2010Prop41ColorIndex
 90
       18
102
RTVSPost2010Prop41ColorRGB
 90
        0
102
RTVSPost2010PropOp41
 70
     1
102
RTVSPost2010Prop42
 90
       50
102
RTVSPost2010PropOp42
 70
     1
102
RTVSPost2010Prop43
 90
        3
102
RTVSPost2010PropOp43
 70
     1
102
RTVSPost2010Prop44ColorIndex
 90
        5
102
RTVSPost2010Prop44ColorRGB
 90
      255
102
RTVSPost2010PropOp44
 70
     1
102
RTVSPost2010Prop45
280
     0
102
RTVSPost2010PropOp45
 70
     1
102
RTVSPost2010Prop46
 90
       50
102
RTVSPost2010PropOp46
 70
     1
102
RTVSPost2010Prop47
 90
       50
102
RTVSPost2010PropOp47
 70
     1
102
RTVSPost2010Prop48
 90
       50
102
RTVSPost2010PropOp48
 70
     1
102
RTVSPost2010Prop49
280
     0
102
RTVSPost2010PropOp49
 70
     1
102
RTVSPost2010Prop50
 90
       50
102
RTVSPost2010PropOp50
 70
     1
102
RTVSPost2010Prop51ColorIndex
 90
      256
102
RTVSPost2010Prop51ColorRGB
 90
-16777216
102
RTVSPost2010PropOp51
 70
     0
102
RTVSPost2010Prop52
140
1.0
102
RTVSPost2010PropOp52
 70
     0
102
RTVSPost2010Prop53
 90
        2
102
RTVSPost2010PropOp53
 70
     1
102
RTVSPost2010Prop54
  1
strokes_ogs.tif
102
RTVSPost2010PropOp54
 70
     1
102
RTVSPost2010Prop55
280
     0
102
RTVSPost2010PropOp55
 70
     1
102
RTVSPost2010Prop56
140
1.0
102
RTVSPost2010PropOp56
 70
     1
102
RTVSPost2010Prop57
140
1.0
102
RTVSPost2010PropOp57
 70
     1
102
RTVSPropertyOp0
 70
     1
102
RTVSPropertyOp1
 70
     1
102
RTVSPropertyOp2
 70
     1
102
RTVSPropertyOp3
 70
     1
102
RTVSPropertyOp4
 70
     1
102
RTVSPropertyOp5
 70
     1
102
RTVSPropertyOp6
 70
     1
102
RTVSPropertyOp7
 70
     1
102
RTVSPropertyOp8
 70
     1
102
RTVSPropertyOp9
 70
     1
102
RTVSPropertyOp10
 70
     1
102
RTVSPropertyOp11
 70
     1
102
RTVSPropertyOp12
 70
     1
102
RTVSPropertyOp13
 70
     1
102
RTVSPropertyOp14
 70
     1
102
RTVSPropertyOp15
 70
     1
102
RTVSPropertyOp16
 70
     1
102
RTVSPropertyOp17
 70
     1
102
RTVSPropertyOp18
 70
     1
102
RTVSPropertyOp19
 70
     1
102
RTVSPropertyOp20
 70
     1
102
RTVSPropertyOp21
 70
     1
102
RTVSPropertyOp22
 70
     1
102
RTVSPropertyOp23
 70
     1
102
RTVSPropertyOp24
 70
     1
102
RTVSPropertyOp25
 70
     1
102
RTVSPropertyOp26
 70
     1
102
RTVSPropertyOp27
 70
     1
102
RTVSPropertyOp28
 70
     1
102
RTVSPropertyOp29
 70
     1
102
RTVSPropertyOp30
 70
     1
102
RTVSPropertyOp31
 70
     1
102
RTVSPropertyOp32
 70
     1
102
RTVSPropertyOp33
 70
     1
102
RTVSPropertyOp34
 70
     1
102
RTVSPropertyOp35
 70
     1
102
RTVSPropertyOp36
 70
     1
102
RTVSPropertyOp37
 70
     1
102
RTVSPropertyOp38
 70
     1
102
RTVSPropertyOp39
 70
     1
102
RTVSPropertyOp40
 70
     1
102
RTVSPropertyOp41
 70
     1
102
RTVSPropertyOp42
 70
     1
102
RTVSPropertyOp43
 70
     1
102
RTVSPropertyOp44
 70
     1
102
RTVSPropertyOp45
 70
     1
102
RTVSPropertyOp46
 70
     1
102
RTVSPropertyOp47
 70
     1
102
RTVSPropertyOp48
 70
     1
102
RTVSPropertyOp49
 70
     1
102
RTVSPropertyOp50
 70
     1
102
RTVSPropertyOp51
 70
     0
102
RTVSPropertyOp52
 70
     0
102
RTVSPropertyOp53
 70
     1
102
RTVSPropertyOp54
 70
     1
102
RTVSPropertyOp55
 70
     1
102
RTVSPropertyOp56
 70
     1
102
RTVSPropertyOp57
 70
     1
102
RTVSPropertyOp58
 70
     1
102
RTVSPropertyOp59
 70
     1
102
RTVSPropertyOp60
 70
     1
102
RTVSPropertyOp61
 70
     1
102
RTVSPropertyOp62
 70
     1
  0
XRECORD
  5
6F7
102
{ACAD_REACTORS
330
6F6
102
}
330
6F6
100
AcDbXrecord
280
     1
102
RTVSPost2010Prop28
280
     0
102
RTVSPost2010PropOp28
 70
     1
102
RTVSPost2010Prop29
280
     1
102
RTVSPost2010PropOp29
 70
     1
102
RTVSPost2010Prop30
280
     1
102
RTVSPost2010PropOp30
 70
     1
102
RTVSPost2010Prop31
280
     0
102
RTVSPost2010PropOp31
 70
     1
102
RTVSPost2010Prop32
280
     0
102
RTVSPost2010PropOp32
 70
     1
102
RTVSPost2010Prop33
280
     0
102
RTVSPost2010PropOp33
 70
     1
102
RTVSPost2010Prop34
280
     0
102
RTVSPost2010PropOp34
 70
     1
102
RTVSPost2010Prop35
280
     0
102
RTVSPost2010PropOp35
 70
     1
102
RTVSPost2010Prop36
280
     0
102
RTVSPost2010PropOp36
 70
     1
102
RTVSPost2010Prop37
 90
       50
102
RTVSPost2010PropOp37
 70
     1
102
RTVSPost2010Prop38
140
0.0
102
RTVSPost2010PropOp38
 70
     1
102
RTVSPost2010Prop39
140
1.0
102
RTVSPost2010PropOp39
 70
     1
102
RTVSPost2010Prop40
 90
        0
102
RTVSPost2010PropOp40
 70
     1
102
RTVSPost2010Prop41ColorIndex
 90
       18
102
RTVSPost2010Prop41ColorRGB
 90
        0
102
RTVSPost2010PropOp41
 70
     1
102
RTVSPost2010Prop42
 90
       50
102
RTVSPost2010PropOp42
 70
     1
102
RTVSPost2010Prop43
 90
        3
102
RTVSPost2010PropOp43
 70
     1
102
RTVSPost2010Prop44ColorIndex
 90
        5
102
RTVSPost2010Prop44ColorRGB
 90
      255
102
RTVSPost2010PropOp44
 70
     1
102
RTVSPost2010Prop45
280
     0
102
RTVSPost2010PropOp45
 70
     1
102
RTVSPost2010Prop46
 90
       50
102
RTVSPost2010PropOp46
 70
     1
102
RTVSPost2010Prop47
 90
       50
102
RTVSPost2010PropOp47
 70
     1
102
RTVSPost2010Prop48
 90
       50
102
RTVSPost2010PropOp48
 70
     1
102
RTVSPost2010Prop49
280
     0
102
RTVSPost2010PropOp49
 70
     1
102
RTVSPost2010Prop50
 90
       50
102
RTVSPost2010PropOp50
 70
     1
102
RTVSPost2010Prop51ColorIndex
 90
      256
102
RTVSPost2010Prop51ColorRGB
 90
-16777216
102
RTVSPost2010PropOp51
 70
     0
102
RTVSPost2010Prop52
140
1.0
102
RTVSPost2010PropOp52
 70
     0
102
RTVSPost2010Prop53
 90
        2
102
RTVSPost2010PropOp53
 70
     1
102
RTVSPost2010Prop54
  1
strokes_ogs.tif
102
RTVSPost2010PropOp54
 70
     1
102
RTVSPost2010Prop55
280
     0
102
RTVSPost2010PropOp55
 70
     1
102
RTVSPost2010Prop56
140
1.0
102
RTVSPost2010PropOp56
 70
     1
102
RTVSPost2010Prop57
140
1.0
102
RTVSPost2010PropOp57
 70
     1
102
RTVSPropertyOp0
 70
     1
102
RTVSPropertyOp1
 70
     1
102
RTVSPropertyOp2
 70
     1
102
RTVSPropertyOp3
 70
     1
102
RTVSPropertyOp4
 70
     1
102
RTVSPropertyOp5
 70
     1
102
RTVSPropertyOp6
 70
     1
102
RTVSPropertyOp7
 70
     1
102
RTVSPropertyOp8
 70
     1
102
RTVSPropertyOp9
 70
     1
102
RTVSPropertyOp10
 70
     1
102
RTVSPropertyOp11
 70
     1
102
RTVSPropertyOp12
 70
     1
102
RTVSPropertyOp13
 70
     1
102
RTVSPropertyOp14
 70
     1
102
RTVSPropertyOp15
 70
     1
102
RTVSPropertyOp16
 70
     1
102
RTVSPropertyOp17
 70
     1
102
RTVSPropertyOp18
 70
     1
102
RTVSPropertyOp19
 70
     1
102
RTVSPropertyOp20
 70
     1
102
RTVSPropertyOp21
 70
     1
102
RTVSPropertyOp22
 70
     1
102
RTVSPropertyOp23
 70
     1
102
RTVSPropertyOp24
 70
     1
102
RTVSPropertyOp25
 70
     1
102
RTVSPropertyOp26
 70
     1
102
RTVSPropertyOp27
 70
     1
102
RTVSPropertyOp28
 70
     1
102
RTVSPropertyOp29
 70
     1
102
RTVSPropertyOp30
 70
     1
102
RTVSPropertyOp31
 70
     1
102
RTVSPropertyOp32
 70
     1
102
RTVSPropertyOp33
 70
     1
102
RTVSPropertyOp34
 70
     1
102
RTVSPropertyOp35
 70
     1
102
RTVSPropertyOp36
 70
     1
102
RTVSPropertyOp37
 70
     1
102
RTVSPropertyOp38
 70
     1
102
RTVSPropertyOp39
 70
     1
102
RTVSPropertyOp40
 70
     1
102
RTVSPropertyOp41
 70
     1
102
RTVSPropertyOp42
 70
     1
102
RTVSPropertyOp43
 70
     1
102
RTVSPropertyOp44
 70
     1
102
RTVSPropertyOp45
 70
     1
102
RTVSPropertyOp46
 70
     1
102
RTVSPropertyOp47
 70
     1
102
RTVSPropertyOp48
 70
     1
102
RTVSPropertyOp49
 70
     1
102
RTVSPropertyOp50
 70
     1
102
RTVSPropertyOp51
 70
     0
102
RTVSPropertyOp52
 70
     0
102
RTVSPropertyOp53
 70
     1
102
RTVSPropertyOp54
 70
     1
102
RTVSPropertyOp55
 70
     1
102
RTVSPropertyOp56
 70
     1
102
RTVSPropertyOp57
 70
     1
102
RTVSPropertyOp58
 70
     1
102
RTVSPropertyOp59
 70
     1
102
RTVSPropertyOp60
 70
     1
102
RTVSPropertyOp61
 70
     1
102
RTVSPropertyOp62
 70
     1
  0
XRECORD
  5
6F9
102
{ACAD_REACTORS
330
6F8
102
}
330
6F8
100
AcDbXrecord
280
     1
102
RTVSPost2010Prop28
280
     0
102
RTVSPost2010PropOp28
 70
     1
102
RTVSPost2010Prop29
280
     1
102
RTVSPost2010PropOp29
 70
     1
102
RTVSPost2010Prop30
280
     1
102
RTVSPost2010PropOp30
 70
     1
102
RTVSPost2010Prop31
280
     0
102
RTVSPost2010PropOp31
 70
     1
102
RTVSPost2010Prop32
280
     0
102
RTVSPost2010PropOp32
 70
     1
102
RTVSPost2010Prop33
280
     0
102
RTVSPost2010PropOp33
 70
     1
102
RTVSPost2010Prop34
280
     0
102
RTVSPost2010PropOp34
 70
     1
102
RTVSPost2010Prop35
280
     0
102
RTVSPost2010PropOp35
 70
     1
102
RTVSPost2010Prop36
280
     0
102
RTVSPost2010PropOp36
 70
     1
102
RTVSPost2010Prop37
 90
       50
102
RTVSPost2010PropOp37
 70
     1
102
RTVSPost2010Prop38
140
0.0
102
RTVSPost2010PropOp38
 70
     1
102
RTVSPost2010Prop39
140
1.0
102
RTVSPost2010PropOp39
 70
     1
102
RTVSPost2010Prop40
 90
        0
102
RTVSPost2010PropOp40
 70
     1
102
RTVSPost2010Prop41ColorIndex
 90
       18
102
RTVSPost2010Prop41ColorRGB
 90
        0
102
RTVSPost2010PropOp41
 70
     1
102
RTVSPost2010Prop42
 90
       50
102
RTVSPost2010PropOp42
 70
     1
102
RTVSPost2010Prop43
 90
        3
102
RTVSPost2010PropOp43
 70
     1
102
RTVSPost2010Prop44ColorIndex
 90
        5
102
RTVSPost2010Prop44ColorRGB
 90
      255
102
RTVSPost2010PropOp44
 70
     1
102
RTVSPost2010Prop45
280
     0
102
RTVSPost2010PropOp45
 70
     1
102
RTVSPost2010Prop46
 90
       50
102
RTVSPost2010PropOp46
 70
     1
102
RTVSPost2010Prop47
 90
       50
102
RTVSPost2010PropOp47
 70
     1
102
RTVSPost2010Prop48
 90
       50
102
RTVSPost2010PropOp48
 70
     1
102
RTVSPost2010Prop49
280
     0
102
RTVSPost2010PropOp49
 70
     1
102
RTVSPost2010Prop50
 90
       50
102
RTVSPost2010PropOp50
 70
     1
102
RTVSPost2010Prop51ColorIndex
 90
      256
102
RTVSPost2010Prop51ColorRGB
 90
-16777216
102
RTVSPost2010PropOp51
 70
     0
102
RTVSPost2010Prop52
140
1.0
102
RTVSPost2010PropOp52
 70
     0
102
RTVSPost2010Prop53
 90
        2
102
RTVSPost2010PropOp53
 70
     1
102
RTVSPost2010Prop54
  1
strokes_ogs.tif
102
RTVSPost2010PropOp54
 70
     1
102
RTVSPost2010Prop55
280
     0
102
RTVSPost2010PropOp55
 70
     1
102
RTVSPost2010Prop56
140
1.0
102
RTVSPost2010PropOp56
 70
     1
102
RTVSPost2010Prop57
140
1.0
102
RTVSPost2010PropOp57
 70
     1
102
RTVSPropertyOp0
 70
     1
102
RTVSPropertyOp1
 70
     1
102
RTVSPropertyOp2
 70
     1
102
RTVSPropertyOp3
 70
     1
102
RTVSPropertyOp4
 70
     1
102
RTVSPropertyOp5
 70
     1
102
RTVSPropertyOp6
 70
     1
102
RTVSPropertyOp7
 70
     1
102
RTVSPropertyOp8
 70
     1
102
RTVSPropertyOp9
 70
     1
102
RTVSPropertyOp10
 70
     1
102
RTVSPropertyOp11
 70
     1
102
RTVSPropertyOp12
 70
     1
102
RTVSPropertyOp13
 70
     1
102
RTVSPropertyOp14
 70
     1
102
RTVSPropertyOp15
 70
     1
102
RTVSPropertyOp16
 70
     1
102
RTVSPropertyOp17
 70
     1
102
RTVSPropertyOp18
 70
     1
102
RTVSPropertyOp19
 70
     1
102
RTVSPropertyOp20
 70
     1
102
RTVSPropertyOp21
 70
     1
102
RTVSPropertyOp22
 70
     1
102
RTVSPropertyOp23
 70
     1
102
RTVSPropertyOp24
 70
     1
102
RTVSPropertyOp25
 70
     1
102
RTVSPropertyOp26
 70
     1
102
RTVSPropertyOp27
 70
     1
102
RTVSPropertyOp28
 70
     1
102
RTVSPropertyOp29
 70
     1
102
RTVSPropertyOp30
 70
     1
102
RTVSPropertyOp31
 70
     1
102
RTVSPropertyOp32
 70
     1
102
RTVSPropertyOp33
 70
     1
102
RTVSPropertyOp34
 70
     1
102
RTVSPropertyOp35
 70
     1
102
RTVSPropertyOp36
 70
     1
102
RTVSPropertyOp37
 70
     1
102
RTVSPropertyOp38
 70
     1
102
RTVSPropertyOp39
 70
     1
102
RTVSPropertyOp40
 70
     1
102
RTVSPropertyOp41
 70
     1
102
RTVSPropertyOp42
 70
     1
102
RTVSPropertyOp43
 70
     1
102
RTVSPropertyOp44
 70
     1
102
RTVSPropertyOp45
 70
     1
102
RTVSPropertyOp46
 70
     1
102
RTVSPropertyOp47
 70
     1
102
RTVSPropertyOp48
 70
     1
102
RTVSPropertyOp49
 70
     1
102
RTVSPropertyOp50
 70
     1
102
RTVSPropertyOp51
 70
     0
102
RTVSPropertyOp52
 70
     0
102
RTVSPropertyOp53
 70
     1
102
RTVSPropertyOp54
 70
     1
102
RTVSPropertyOp55
 70
     1
102
RTVSPropertyOp56
 70
     1
102
RTVSPropertyOp57
 70
     1
102
RTVSPropertyOp58
 70
     1
102
RTVSPropertyOp59
 70
     1
102
RTVSPropertyOp60
 70
     1
102
RTVSPropertyOp61
 70
     1
102
RTVSPropertyOp62
 70
     1
  0
XRECORD
  5
701
102
{ACAD_REACTORS
330
700
102
}
330
700
100
AcDbXrecord
280
     1
102
RTVSPost2010Prop28
280
     0
102
RTVSPost2010PropOp28
 70
     1
102
RTVSPost2010Prop29
280
     1
102
RTVSPost2010PropOp29
 70
     1
102
RTVSPost2010Prop30
280
     1
102
RTVSPost2010PropOp30
 70
     1
102
RTVSPost2010Prop31
280
     0
102
RTVSPost2010PropOp31
 70
     1
102
RTVSPost2010Prop32
280
     0
102
RTVSPost2010PropOp32
 70
     1
102
RTVSPost2010Prop33
280
     0
102
RTVSPost2010PropOp33
 70
     1
102
RTVSPost2010Prop34
280
     0
102
RTVSPost2010PropOp34
 70
     1
102
RTVSPost2010Prop35
280
     0
102
RTVSPost2010PropOp35
 70
     1
102
RTVSPost2010Prop36
280
     0
102
RTVSPost2010PropOp36
 70
     1
102
RTVSPost2010Prop37
 90
       50
102
RTVSPost2010PropOp37
 70
     1
102
RTVSPost2010Prop38
140
0.0
102
RTVSPost2010PropOp38
 70
     1
102
RTVSPost2010Prop39
140
1.0
102
RTVSPost2010PropOp39
 70
     1
102
RTVSPost2010Prop40
 90
        0
102
RTVSPost2010PropOp40
 70
     1
102
RTVSPost2010Prop41ColorIndex
 90
       18
102
RTVSPost2010Prop41ColorRGB
 90
        0
102
RTVSPost2010PropOp41
 70
     1
102
RTVSPost2010Prop42
 90
       50
102
RTVSPost2010PropOp42
 70
     1
102
RTVSPost2010Prop43
 90
        3
102
RTVSPost2010PropOp43
 70
     1
102
RTVSPost2010Prop44ColorIndex
 90
        5
102
RTVSPost2010Prop44ColorRGB
 90
      255
102
RTVSPost2010PropOp44
 70
     1
102
RTVSPost2010Prop45
280
     0
102
RTVSPost2010PropOp45
 70
     1
102
RTVSPost2010Prop46
 90
       50
102
RTVSPost2010PropOp46
 70
     1
102
RTVSPost2010Prop47
 90
       50
102
RTVSPost2010PropOp47
 70
     1
102
RTVSPost2010Prop48
 90
       50
102
RTVSPost2010PropOp48
 70
     1
102
RTVSPost2010Prop49
280
     0
102
RTVSPost2010PropOp49
 70
     1
102
RTVSPost2010Prop50
 90
       50
102
RTVSPost2010PropOp50
 70
     1
102
RTVSPost2010Prop51ColorIndex
 90
      256
102
RTVSPost2010Prop51ColorRGB
 90
-16777216
102
RTVSPost2010PropOp51
 70
     0
102
RTVSPost2010Prop52
140
1.0
102
RTVSPost2010PropOp52
 70
     0
102
RTVSPost2010Prop53
 90
        2
102
RTVSPost2010PropOp53
 70
     1
102
RTVSPost2010Prop54
  1
strokes_ogs.tif
102
RTVSPost2010PropOp54
 70
     1
102
RTVSPost2010Prop55
280
     0
102
RTVSPost2010PropOp55
 70
     1
102
RTVSPost2010Prop56
140
1.0
102
RTVSPost2010PropOp56
 70
     1
102
RTVSPost2010Prop57
140
1.0
102
RTVSPost2010PropOp57
 70
     1
102
RTVSPropertyOp0
 70
     1
102
RTVSPropertyOp1
 70
     1
102
RTVSPropertyOp2
 70
     1
102
RTVSPropertyOp3
 70
     1
102
RTVSPropertyOp4
 70
     1
102
RTVSPropertyOp5
 70
     1
102
RTVSPropertyOp6
 70
     1
102
RTVSPropertyOp7
 70
     1
102
RTVSPropertyOp8
 70
     1
102
RTVSPropertyOp9
 70
     1
102
RTVSPropertyOp10
 70
     1
102
RTVSPropertyOp11
 70
     1
102
RTVSPropertyOp12
 70
     1
102
RTVSPropertyOp13
 70
     1
102
RTVSPropertyOp14
 70
     1
102
RTVSPropertyOp15
 70
     1
102
RTVSPropertyOp16
 70
     1
102
RTVSPropertyOp17
 70
     1
102
RTVSPropertyOp18
 70
     1
102
RTVSPropertyOp19
 70
     1
102
RTVSPropertyOp20
 70
     1
102
RTVSPropertyOp21
 70
     1
102
RTVSPropertyOp22
 70
     1
102
RTVSPropertyOp23
 70
     1
102
RTVSPropertyOp24
 70
     1
102
RTVSPropertyOp25
 70
     1
102
RTVSPropertyOp26
 70
     1
102
RTVSPropertyOp27
 70
     1
102
RTVSPropertyOp28
 70
     1
102
RTVSPropertyOp29
 70
     1
102
RTVSPropertyOp30
 70
     1
102
RTVSPropertyOp31
 70
     1
102
RTVSPropertyOp32
 70
     1
102
RTVSPropertyOp33
 70
     1
102
RTVSPropertyOp34
 70
     1
102
RTVSPropertyOp35
 70
     1
102
RTVSPropertyOp36
 70
     1
102
RTVSPropertyOp37
 70
     1
102
RTVSPropertyOp38
 70
     1
102
RTVSPropertyOp39
 70
     1
102
RTVSPropertyOp40
 70
     1
102
RTVSPropertyOp41
 70
     1
102
RTVSPropertyOp42
 70
     1
102
RTVSPropertyOp43
 70
     1
102
RTVSPropertyOp44
 70
     1
102
RTVSPropertyOp45
 70
     1
102
RTVSPropertyOp46
 70
     1
102
RTVSPropertyOp47
 70
     1
102
RTVSPropertyOp48
 70
     1
102
RTVSPropertyOp49
 70
     1
102
RTVSPropertyOp50
 70
     1
102
RTVSPropertyOp51
 70
     0
102
RTVSPropertyOp52
 70
     0
102
RTVSPropertyOp53
 70
     1
102
RTVSPropertyOp54
 70
     1
102
RTVSPropertyOp55
 70
     1
102
RTVSPropertyOp56
 70
     1
102
RTVSPropertyOp57
 70
     1
102
RTVSPropertyOp58
 70
     1
102
RTVSPropertyOp59
 70
     1
102
RTVSPropertyOp60
 70
     1
102
RTVSPropertyOp61
 70
     1
102
RTVSPropertyOp62
 70
     1
  0
XRECORD
  5
71D
102
{ACAD_REACTORS
330
71C
102
}
330
71C
100
AcDbXrecord
280
     1
102
RTVSPost2010Prop28
280
     0
102
RTVSPost2010PropOp28
 70
     1
102
RTVSPost2010Prop29
280
     1
102
RTVSPost2010PropOp29
 70
     1
102
RTVSPost2010Prop30
280
     1
102
RTVSPost2010PropOp30
 70
     1
102
RTVSPost2010Prop31
280
     0
102
RTVSPost2010PropOp31
 70
     1
102
RTVSPost2010Prop32
280
     0
102
RTVSPost2010PropOp32
 70
     1
102
RTVSPost2010Prop33
280
     0
102
RTVSPost2010PropOp33
 70
     1
102
RTVSPost2010Prop34
280
     0
102
RTVSPost2010PropOp34
 70
     1
102
RTVSPost2010Prop35
280
     0
102
RTVSPost2010PropOp35
 70
     1
102
RTVSPost2010Prop36
280
     0
102
RTVSPost2010PropOp36
 70
     1
102
RTVSPost2010Prop37
 90
       50
102
RTVSPost2010PropOp37
 70
     0
102
RTVSPost2010Prop38
140
0.0
102
RTVSPost2010PropOp38
 70
     0
102
RTVSPost2010Prop39
140
1.0
102
RTVSPost2010PropOp39
 70
     0
102
RTVSPost2010Prop40
 90
        0
102
RTVSPost2010PropOp40
 70
     0
102
RTVSPost2010Prop41ColorIndex
 90
       18
102
RTVSPost2010Prop41ColorRGB
 90
        0
102
RTVSPost2010PropOp41
 70
     0
102
RTVSPost2010Prop42
 90
       50
102
RTVSPost2010PropOp42
 70
     0
102
RTVSPost2010Prop43
 90
        3
102
RTVSPost2010PropOp43
 70
     0
102
RTVSPost2010Prop44ColorIndex
 90
        5
102
RTVSPost2010Prop44ColorRGB
 90
      255
102
RTVSPost2010PropOp44
 70
     0
102
RTVSPost2010Prop45
280
     0
102
RTVSPost2010PropOp45
 70
     1
102
RTVSPost2010Prop46
 90
       50
102
RTVSPost2010PropOp46
 70
     0
102
RTVSPost2010Prop47
 90
       50
102
RTVSPost2010PropOp47
 70
     0
102
RTVSPost2010Prop48
 90
       50
102
RTVSPost2010PropOp48
 70
     0
102
RTVSPost2010Prop49
280
     0
102
RTVSPost2010PropOp49
 70
     1
102
RTVSPost2010Prop50
 90
       50
102
RTVSPost2010PropOp50
 70
     0
102
RTVSPost2010Prop51ColorIndex
 90
      256
102
RTVSPost2010Prop51ColorRGB
 90
-16777216
102
RTVSPost2010PropOp51
 70
     0
102
RTVSPost2010Prop52
140
1.0
102
RTVSPost2010PropOp52
 70
     0
102
RTVSPost2010Prop53
 90
        2
102
RTVSPost2010PropOp53
 70
     0
102
RTVSPost2010Prop54
  1
strokes_ogs.tif
102
RTVSPost2010PropOp54
 70
     0
102
RTVSPost2010Prop55
280
     0
102
RTVSPost2010PropOp55
 70
     1
102
RTVSPost2010Prop56
140
1.0
102
RTVSPost2010PropOp56
 70
     0
102
RTVSPost2010Prop57
140
1.0
102
RTVSPost2010PropOp57
 70
     0
102
RTVSPropertyOp0
 70
     0
102
RTVSPropertyOp1
 70
     0
102
RTVSPropertyOp2
 70
     0
102
RTVSPropertyOp3
 70
     0
102
RTVSPropertyOp4
 70
     0
102
RTVSPropertyOp5
 70
     0
102
RTVSPropertyOp6
 70
     0
102
RTVSPropertyOp7
 70
     0
102
RTVSPropertyOp8
 70
     0
102
RTVSPropertyOp9
 70
     0
102
RTVSPropertyOp10
 70
     0
102
RTVSPropertyOp11
 70
     0
102
RTVSPropertyOp12
 70
     0
102
RTVSPropertyOp13
 70
     0
102
RTVSPropertyOp14
 70
     2
102
RTVSPropertyOp15
 70
     0
102
RTVSPropertyOp16
 70
     0
102
RTVSPropertyOp17
 70
     0
102
RTVSPropertyOp18
 70
     0
102
RTVSPropertyOp19
 70
     0
102
RTVSPropertyOp20
 70
     0
102
RTVSPropertyOp21
 70
     0
102
RTVSPropertyOp22
 70
     0
102
RTVSPropertyOp23
 70
     0
102
RTVSPropertyOp24
 70
     0
102
RTVSPropertyOp25
 70
     0
102
RTVSPropertyOp26
 70
     0
102
RTVSPropertyOp27
 70
     0
102
RTVSPropertyOp28
 70
     1
102
RTVSPropertyOp29
 70
     1
102
RTVSPropertyOp30
 70
     1
102
RTVSPropertyOp31
 70
     1
102
RTVSPropertyOp32
 70
     1
102
RTVSPropertyOp33
 70
     1
102
RTVSPropertyOp34
 70
     1
102
RTVSPropertyOp35
 70
     1
102
RTVSPropertyOp36
 70
     1
102
RTVSPropertyOp37
 70
     0
102
RTVSPropertyOp38
 70
     0
102
RTVSPropertyOp39
 70
     0
102
RTVSPropertyOp40
 70
     0
102
RTVSPropertyOp41
 70
     0
102
RTVSPropertyOp42
 70
     0
102
RTVSPropertyOp43
 70
     0
102
RTVSPropertyOp44
 70
     0
102
RTVSPropertyOp45
 70
     1
102
RTVSPropertyOp46
 70
     0
102
RTVSPropertyOp47
 70
     0
102
RTVSPropertyOp48
 70
     0
102
RTVSPropertyOp49
 70
     1
102
RTVSPropertyOp50
 70
     0
102
RTVSPropertyOp51
 70
     0
102
RTVSPropertyOp52
 70
     0
102
RTVSPropertyOp53
 70
     0
102
RTVSPropertyOp54
 70
     0
102
RTVSPropertyOp55
 70
     1
102
RTVSPropertyOp56
 70
     0
102
RTVSPropertyOp57
 70
     0
102
RTVSPropertyOp58
 70
     0
102
RTVSPropertyOp59
 70
     0
102
RTVSPropertyOp60
 70
     0
102
RTVSPropertyOp61
 70
     0
102
RTVSPropertyOp62
 70
     0
  0
XRECORD
  5
70D
102
{ACAD_REACTORS
330
70C
102
}
330
70C
100
AcDbXrecord
280
     1
102
RTVSPost2010Prop28
280
     0
102
RTVSPost2010PropOp28
 70
     1
102
RTVSPost2010Prop29
280
     1
102
RTVSPost2010PropOp29
 70
     1
102
RTVSPost2010Prop30
280
     1
102
RTVSPost2010PropOp30
 70
     1
102
RTVSPost2010Prop31
280
     0
102
RTVSPost2010PropOp31
 70
     1
102
RTVSPost2010Prop32
280
     0
102
RTVSPost2010PropOp32
 70
     1
102
RTVSPost2010Prop33
280
     0
102
RTVSPost2010PropOp33
 70
     1
102
RTVSPost2010Prop34
280
     0
102
RTVSPost2010PropOp34
 70
     1
102
RTVSPost2010Prop35
280
     0
102
RTVSPost2010PropOp35
 70
     1
102
RTVSPost2010Prop36
280
     0
102
RTVSPost2010PropOp36
 70
     1
102
RTVSPost2010Prop37
 90
       50
102
RTVSPost2010PropOp37
 70
     1
102
RTVSPost2010Prop38
140
0.0
102
RTVSPost2010PropOp38
 70
     1
102
RTVSPost2010Prop39
140
1.0
102
RTVSPost2010PropOp39
 70
     1
102
RTVSPost2010Prop40
 90
        0
102
RTVSPost2010PropOp40
 70
     1
102
RTVSPost2010Prop41ColorIndex
 90
       18
102
RTVSPost2010Prop41ColorRGB
 90
        0
102
RTVSPost2010PropOp41
 70
     1
102
RTVSPost2010Prop42
 90
       50
102
RTVSPost2010PropOp42
 70
     1
102
RTVSPost2010Prop43
 90
        3
102
RTVSPost2010PropOp43
 70
     1
102
RTVSPost2010Prop44ColorIndex
 90
        5
102
RTVSPost2010Prop44ColorRGB
 90
      255
102
RTVSPost2010PropOp44
 70
     1
102
RTVSPost2010Prop45
280
     0
102
RTVSPost2010PropOp45
 70
     1
102
RTVSPost2010Prop46
 90
       50
102
RTVSPost2010PropOp46
 70
     1
102
RTVSPost2010Prop47
 90
       50
102
RTVSPost2010PropOp47
 70
     1
102
RTVSPost2010Prop48
 90
       50
102
RTVSPost2010PropOp48
 70
     1
102
RTVSPost2010Prop49
280
     0
102
RTVSPost2010PropOp49
 70
     1
102
RTVSPost2010Prop50
 90
       50
102
RTVSPost2010PropOp50
 70
     1
102
RTVSPost2010Prop51ColorIndex
 90
      256
102
RTVSPost2010Prop51ColorRGB
 90
-16777216
102
RTVSPost2010PropOp51
 70
     0
102
RTVSPost2010Prop52
140
1.0
102
RTVSPost2010PropOp52
 70
     0
102
RTVSPost2010Prop53
 90
        2
102
RTVSPost2010PropOp53
 70
     1
102
RTVSPost2010Prop54
  1
strokes_ogs.tif
102
RTVSPost2010PropOp54
 70
     1
102
RTVSPost2010Prop55
280
     0
102
RTVSPost2010PropOp55
 70
     1
102
RTVSPost2010Prop56
140
1.0
102
RTVSPost2010PropOp56
 70
     1
102
RTVSPost2010Prop57
140
1.0
102
RTVSPost2010PropOp57
 70
     1
102
RTVSPropertyOp0
 70
     1
102
RTVSPropertyOp1
 70
     1
102
RTVSPropertyOp2
 70
     1
102
RTVSPropertyOp3
 70
     1
102
RTVSPropertyOp4
 70
     1
102
RTVSPropertyOp5
 70
     1
102
RTVSPropertyOp6
 70
     1
102
RTVSPropertyOp7
 70
     1
102
RTVSPropertyOp8
 70
     1
102
RTVSPropertyOp9
 70
     1
102
RTVSPropertyOp10
 70
     1
102
RTVSPropertyOp11
 70
     1
102
RTVSPropertyOp12
 70
     1
102
RTVSPropertyOp13
 70
     1
102
RTVSPropertyOp14
 70
     1
102
RTVSPropertyOp15
 70
     1
102
RTVSPropertyOp16
 70
     1
102
RTVSPropertyOp17
 70
     1
102
RTVSPropertyOp18
 70
     1
102
RTVSPropertyOp19
 70
     1
102
RTVSPropertyOp20
 70
     1
102
RTVSPropertyOp21
 70
     1
102
RTVSPropertyOp22
 70
     1
102
RTVSPropertyOp23
 70
     1
102
RTVSPropertyOp24
 70
     1
102
RTVSPropertyOp25
 70
     1
102
RTVSPropertyOp26
 70
     1
102
RTVSPropertyOp27
 70
     1
102
RTVSPropertyOp28
 70
     1
102
RTVSPropertyOp29
 70
     1
102
RTVSPropertyOp30
 70
     1
102
RTVSPropertyOp31
 70
     1
102
RTVSPropertyOp32
 70
     1
102
RTVSPropertyOp33
 70
     1
102
RTVSPropertyOp34
 70
     1
102
RTVSPropertyOp35
 70
     1
102
RTVSPropertyOp36
 70
     1
102
RTVSPropertyOp37
 70
     1
102
RTVSPropertyOp38
 70
     1
102
RTVSPropertyOp39
 70
     1
102
RTVSPropertyOp40
 70
     1
102
RTVSPropertyOp41
 70
     1
102
RTVSPropertyOp42
 70
     1
102
RTVSPropertyOp43
 70
     1
102
RTVSPropertyOp44
 70
     1
102
RTVSPropertyOp45
 70
     1
102
RTVSPropertyOp46
 70
     1
102
RTVSPropertyOp47
 70
     1
102
RTVSPropertyOp48
 70
     1
102
RTVSPropertyOp49
 70
     1
102
RTVSPropertyOp50
 70
     1
102
RTVSPropertyOp51
 70
     0
102
RTVSPropertyOp52
 70
     0
102
RTVSPropertyOp53
 70
     1
102
RTVSPropertyOp54
 70
     1
102
RTVSPropertyOp55
 70
     1
102
RTVSPropertyOp56
 70
     1
102
RTVSPropertyOp57
 70
     1
102
RTVSPropertyOp58
 70
     1
102
RTVSPropertyOp59
 70
     1
102
RTVSPropertyOp60
 70
     1
102
RTVSPropertyOp61
 70
     1
102
RTVSPropertyOp62
 70
     1
  0
XRECORD
  5
71F
102
{ACAD_REACTORS
330
71E
102
}
330
71E
100
AcDbXrecord
280
     1
102
RTVSPost2010Prop28
280
     0
102
RTVSPost2010PropOp28
 70
     1
102
RTVSPost2010Prop29
280
     1
102
RTVSPost2010PropOp29
 70
     1
102
RTVSPost2010Prop30
280
     1
102
RTVSPost2010PropOp30
 70
     1
102
RTVSPost2010Prop31
280
     0
102
RTVSPost2010PropOp31
 70
     1
102
RTVSPost2010Prop32
280
     0
102
RTVSPost2010PropOp32
 70
     1
102
RTVSPost2010Prop33
280
     0
102
RTVSPost2010PropOp33
 70
     1
102
RTVSPost2010Prop34
280
     0
102
RTVSPost2010PropOp34
 70
     1
102
RTVSPost2010Prop35
280
     0
102
RTVSPost2010PropOp35
 70
     1
102
RTVSPost2010Prop36
280
     0
102
RTVSPost2010PropOp36
 70
     1
102
RTVSPost2010Prop37
 90
       50
102
RTVSPost2010PropOp37
 70
     0
102
RTVSPost2010Prop38
140
0.0
102
RTVSPost2010PropOp38
 70
     0
102
RTVSPost2010Prop39
140
1.0
102
RTVSPost2010PropOp39
 70
     0
102
RTVSPost2010Prop40
 90
        0
102
RTVSPost2010PropOp40
 70
     0
102
RTVSPost2010Prop41ColorIndex
 90
       18
102
RTVSPost2010Prop41ColorRGB
 90
        0
102
RTVSPost2010PropOp41
 70
     0
102
RTVSPost2010Prop42
 90
       50
102
RTVSPost2010PropOp42
 70
     0
102
RTVSPost2010Prop43
 90
        3
102
RTVSPost2010PropOp43
 70
     0
102
RTVSPost2010Prop44ColorIndex
 90
        5
102
RTVSPost2010Prop44ColorRGB
 90
      255
102
RTVSPost2010PropOp44
 70
     0
102
RTVSPost2010Prop45
280
     0
102
RTVSPost2010PropOp45
 70
     1
102
RTVSPost2010Prop46
 90
       50
102
RTVSPost2010PropOp46
 70
     0
102
RTVSPost2010Prop47
 90
       50
102
RTVSPost2010PropOp47
 70
     0
102
RTVSPost2010Prop48
 90
       50
102
RTVSPost2010PropOp48
 70
     0
102
RTVSPost2010Prop49
280
     0
102
RTVSPost2010PropOp49
 70
     1
102
RTVSPost2010Prop50
 90
       50
102
RTVSPost2010PropOp50
 70
     0
102
RTVSPost2010Prop51ColorIndex
 90
      256
102
RTVSPost2010Prop51ColorRGB
 90
-16777216
102
RTVSPost2010PropOp51
 70
     0
102
RTVSPost2010Prop52
140
1.0
102
RTVSPost2010PropOp52
 70
     0
102
RTVSPost2010Prop53
 90
        2
102
RTVSPost2010PropOp53
 70
     0
102
RTVSPost2010Prop54
  1
strokes_ogs.tif
102
RTVSPost2010PropOp54
 70
     0
102
RTVSPost2010Prop55
280
     0
102
RTVSPost2010PropOp55
 70
     1
102
RTVSPost2010Prop56
140
1.0
102
RTVSPost2010PropOp56
 70
     0
102
RTVSPost2010Prop57
140
1.0
102
RTVSPost2010PropOp57
 70
     0
102
RTVSPropertyOp0
 70
     0
102
RTVSPropertyOp1
 70
     0
102
RTVSPropertyOp2
 70
     0
102
RTVSPropertyOp3
 70
     0
102
RTVSPropertyOp4
 70
     0
102
RTVSPropertyOp5
 70
     0
102
RTVSPropertyOp6
 70
     0
102
RTVSPropertyOp7
 70
     0
102
RTVSPropertyOp8
 70
     0
102
RTVSPropertyOp9
 70
     0
102
RTVSPropertyOp10
 70
     0
102
RTVSPropertyOp11
 70
     0
102
RTVSPropertyOp12
 70
     0
102
RTVSPropertyOp13
 70
     0
102
RTVSPropertyOp14
 70
     2
102
RTVSPropertyOp15
 70
     0
102
RTVSPropertyOp16
 70
     0
102
RTVSPropertyOp17
 70
     0
102
RTVSPropertyOp18
 70
     0
102
RTVSPropertyOp19
 70
     0
102
RTVSPropertyOp20
 70
     0
102
RTVSPropertyOp21
 70
     0
102
RTVSPropertyOp22
 70
     0
102
RTVSPropertyOp23
 70
     0
102
RTVSPropertyOp24
 70
     0
102
RTVSPropertyOp25
 70
     0
102
RTVSPropertyOp26
 70
     0
102
RTVSPropertyOp27
 70
     0
102
RTVSPropertyOp28
 70
     1
102
RTVSPropertyOp29
 70
     1
102
RTVSPropertyOp30
 70
     1
102
RTVSPropertyOp31
 70
     1
102
RTVSPropertyOp32
 70
     1
102
RTVSPropertyOp33
 70
     1
102
RTVSPropertyOp34
 70
     1
102
RTVSPropertyOp35
 70
     1
102
RTVSPropertyOp36
 70
     1
102
RTVSPropertyOp37
 70
     0
102
RTVSPropertyOp38
 70
     0
102
RTVSPropertyOp39
 70
     0
102
RTVSPropertyOp40
 70
     0
102
RTVSPropertyOp41
 70
     0
102
RTVSPropertyOp42
 70
     0
102
RTVSPropertyOp43
 70
     0
102
RTVSPropertyOp44
 70
     0
102
RTVSPropertyOp45
 70
     1
102
RTVSPropertyOp46
 70
     0
102
RTVSPropertyOp47
 70
     0
102
RTVSPropertyOp48
 70
     0
102
RTVSPropertyOp49
 70
     1
102
RTVSPropertyOp50
 70
     0
102
RTVSPropertyOp51
 70
     0
102
RTVSPropertyOp52
 70
     0
102
RTVSPropertyOp53
 70
     0
102
RTVSPropertyOp54
 70
     0
102
RTVSPropertyOp55
 70
     1
102
RTVSPropertyOp56
 70
     0
102
RTVSPropertyOp57
 70
     0
102
RTVSPropertyOp58
 70
     0
102
RTVSPropertyOp59
 70
     0
102
RTVSPropertyOp60
 70
     0
102
RTVSPropertyOp61
 70
     0
102
RTVSPropertyOp62
 70
     0
  0
XRECORD
  5
705
102
{ACAD_REACTORS
330
704
102
}
330
704
100
AcDbXrecord
280
     1
102
RTVSPost2010Prop28
280
     0
102
RTVSPost2010PropOp28
 70
     1
102
RTVSPost2010Prop29
280
     1
102
RTVSPost2010PropOp29
 70
     1
102
RTVSPost2010Prop30
280
     1
102
RTVSPost2010PropOp30
 70
     1
102
RTVSPost2010Prop31
280
     0
102
RTVSPost2010PropOp31
 70
     1
102
RTVSPost2010Prop32
280
     0
102
RTVSPost2010PropOp32
 70
     1
102
RTVSPost2010Prop33
280
     0
102
RTVSPost2010PropOp33
 70
     1
102
RTVSPost2010Prop34
280
     0
102
RTVSPost2010PropOp34
 70
     1
102
RTVSPost2010Prop35
280
     0
102
RTVSPost2010PropOp35
 70
     1
102
RTVSPost2010Prop36
280
     0
102
RTVSPost2010PropOp36
 70
     1
102
RTVSPost2010Prop37
 90
       50
102
RTVSPost2010PropOp37
 70
     1
102
RTVSPost2010Prop38
140
0.0
102
RTVSPost2010PropOp38
 70
     1
102
RTVSPost2010Prop39
140
1.0
102
RTVSPost2010PropOp39
 70
     1
102
RTVSPost2010Prop40
 90
        0
102
RTVSPost2010PropOp40
 70
     1
102
RTVSPost2010Prop41ColorIndex
 90
       18
102
RTVSPost2010Prop41ColorRGB
 90
        0
102
RTVSPost2010PropOp41
 70
     1
102
RTVSPost2010Prop42
 90
       50
102
RTVSPost2010PropOp42
 70
     1
102
RTVSPost2010Prop43
 90
        3
102
RTVSPost2010PropOp43
 70
     1
102
RTVSPost2010Prop44ColorIndex
 90
        5
102
RTVSPost2010Prop44ColorRGB
 90
      255
102
RTVSPost2010PropOp44
 70
     1
102
RTVSPost2010Prop45
280
     0
102
RTVSPost2010PropOp45
 70
     1
102
RTVSPost2010Prop46
 90
       50
102
RTVSPost2010PropOp46
 70
     1
102
RTVSPost2010Prop47
 90
       50
102
RTVSPost2010PropOp47
 70
     1
102
RTVSPost2010Prop48
 90
       50
102
RTVSPost2010PropOp48
 70
     1
102
RTVSPost2010Prop49
280
     0
102
RTVSPost2010PropOp49
 70
     1
102
RTVSPost2010Prop50
 90
       50
102
RTVSPost2010PropOp50
 70
     1
102
RTVSPost2010Prop51ColorIndex
 90
      256
102
RTVSPost2010Prop51ColorRGB
 90
-16777216
102
RTVSPost2010PropOp51
 70
     0
102
RTVSPost2010Prop52
140
1.0
102
RTVSPost2010PropOp52
 70
     0
102
RTVSPost2010Prop53
 90
        2
102
RTVSPost2010PropOp53
 70
     1
102
RTVSPost2010Prop54
  1
strokes_ogs.tif
102
RTVSPost2010PropOp54
 70
     1
102
RTVSPost2010Prop55
280
     0
102
RTVSPost2010PropOp55
 70
     1
102
RTVSPost2010Prop56
140
1.0
102
RTVSPost2010PropOp56
 70
     1
102
RTVSPost2010Prop57
140
1.0
102
RTVSPost2010PropOp57
 70
     1
102
RTVSPropertyOp0
 70
     1
102
RTVSPropertyOp1
 70
     1
102
RTVSPropertyOp2
 70
     1
102
RTVSPropertyOp3
 70
     1
102
RTVSPropertyOp4
 70
     1
102
RTVSPropertyOp5
 70
     1
102
RTVSPropertyOp6
 70
     1
102
RTVSPropertyOp7
 70
     1
102
RTVSPropertyOp8
 70
     1
102
RTVSPropertyOp9
 70
     1
102
RTVSPropertyOp10
 70
     1
102
RTVSPropertyOp11
 70
     1
102
RTVSPropertyOp12
 70
     1
102
RTVSPropertyOp13
 70
     1
102
RTVSPropertyOp14
 70
     1
102
RTVSPropertyOp15
 70
     1
102
RTVSPropertyOp16
 70
     1
102
RTVSPropertyOp17
 70
     1
102
RTVSPropertyOp18
 70
     1
102
RTVSPropertyOp19
 70
     1
102
RTVSPropertyOp20
 70
     1
102
RTVSPropertyOp21
 70
     1
102
RTVSPropertyOp22
 70
     1
102
RTVSPropertyOp23
 70
     1
102
RTVSPropertyOp24
 70
     1
102
RTVSPropertyOp25
 70
     1
102
RTVSPropertyOp26
 70
     1
102
RTVSPropertyOp27
 70
     1
102
RTVSPropertyOp28
 70
     1
102
RTVSPropertyOp29
 70
     1
102
RTVSPropertyOp30
 70
     1
102
RTVSPropertyOp31
 70
     1
102
RTVSPropertyOp32
 70
     1
102
RTVSPropertyOp33
 70
     1
102
RTVSPropertyOp34
 70
     1
102
RTVSPropertyOp35
 70
     1
102
RTVSPropertyOp36
 70
     1
102
RTVSPropertyOp37
 70
     1
102
RTVSPropertyOp38
 70
     1
102
RTVSPropertyOp39
 70
     1
102
RTVSPropertyOp40
 70
     1
102
RTVSPropertyOp41
 70
     1
102
RTVSPropertyOp42
 70
     1
102
RTVSPropertyOp43
 70
     1
102
RTVSPropertyOp44
 70
     1
102
RTVSPropertyOp45
 70
     1
102
RTVSPropertyOp46
 70
     1
102
RTVSPropertyOp47
 70
     1
102
RTVSPropertyOp48
 70
     1
102
RTVSPropertyOp49
 70
     1
102
RTVSPropertyOp50
 70
     1
102
RTVSPropertyOp51
 70
     0
102
RTVSPropertyOp52
 70
     0
102
RTVSPropertyOp53
 70
     1
102
RTVSPropertyOp54
 70
     1
102
RTVSPropertyOp55
 70
     1
102
RTVSPropertyOp56
 70
     1
102
RTVSPropertyOp57
 70
     1
102
RTVSPropertyOp58
 70
     1
102
RTVSPropertyOp59
 70
     1
102
RTVSPropertyOp60
 70
     1
102
RTVSPropertyOp61
 70
     1
102
RTVSPropertyOp62
 70
     1
  0
XRECORD
  5
71B
102
{ACAD_REACTORS
330
71A
102
}
330
71A
100
AcDbXrecord
280
     1
102
RTVSPost2010Prop28
280
     0
102
RTVSPost2010PropOp28
 70
     1
102
RTVSPost2010Prop29
280
     1
102
RTVSPost2010PropOp29
 70
     1
102
RTVSPost2010Prop30
280
     1
102
RTVSPost2010PropOp30
 70
     1
102
RTVSPost2010Prop31
280
     0
102
RTVSPost2010PropOp31
 70
     1
102
RTVSPost2010Prop32
280
     0
102
RTVSPost2010PropOp32
 70
     1
102
RTVSPost2010Prop33
280
     0
102
RTVSPost2010PropOp33
 70
     1
102
RTVSPost2010Prop34
280
     0
102
RTVSPost2010PropOp34
 70
     1
102
RTVSPost2010Prop35
280
     0
102
RTVSPost2010PropOp35
 70
     1
102
RTVSPost2010Prop36
280
     0
102
RTVSPost2010PropOp36
 70
     1
102
RTVSPost2010Prop37
 90
       50
102
RTVSPost2010PropOp37
 70
     1
102
RTVSPost2010Prop38
140
0.0
102
RTVSPost2010PropOp38
 70
     1
102
RTVSPost2010Prop39
140
1.0
102
RTVSPost2010PropOp39
 70
     1
102
RTVSPost2010Prop40
 90
        0
102
RTVSPost2010PropOp40
 70
     1
102
RTVSPost2010Prop41ColorIndex
 90
       18
102
RTVSPost2010Prop41ColorRGB
 90
        0
102
RTVSPost2010PropOp41
 70
     1
102
RTVSPost2010Prop42
 90
       50
102
RTVSPost2010PropOp42
 70
     1
102
RTVSPost2010Prop43
 90
        3
102
RTVSPost2010PropOp43
 70
     1
102
RTVSPost2010Prop44ColorIndex
 90
        5
102
RTVSPost2010Prop44ColorRGB
 90
      255
102
RTVSPost2010PropOp44
 70
     1
102
RTVSPost2010Prop45
280
     0
102
RTVSPost2010PropOp45
 70
     1
102
RTVSPost2010Prop46
 90
       50
102
RTVSPost2010PropOp46
 70
     1
102
RTVSPost2010Prop47
 90
       50
102
RTVSPost2010PropOp47
 70
     1
102
RTVSPost2010Prop48
 90
       50
102
RTVSPost2010PropOp48
 70
     1
102
RTVSPost2010Prop49
280
     0
102
RTVSPost2010PropOp49
 70
     1
102
RTVSPost2010Prop50
 90
       50
102
RTVSPost2010PropOp50
 70
     1
102
RTVSPost2010Prop51ColorIndex
 90
      256
102
RTVSPost2010Prop51ColorRGB
 90
-16777216
102
RTVSPost2010PropOp51
 70
     0
102
RTVSPost2010Prop52
140
1.0
102
RTVSPost2010PropOp52
 70
     0
102
RTVSPost2010Prop53
 90
        2
102
RTVSPost2010PropOp53
 70
     1
102
RTVSPost2010Prop54
  1
strokes_ogs.tif
102
RTVSPost2010PropOp54
 70
     1
102
RTVSPost2010Prop55
280
     0
102
RTVSPost2010PropOp55
 70
     1
102
RTVSPost2010Prop56
140
1.0
102
RTVSPost2010PropOp56
 70
     1
102
RTVSPost2010Prop57
140
1.0
102
RTVSPost2010PropOp57
 70
     1
102
RTVSPropertyOp0
 70
     1
102
RTVSPropertyOp1
 70
     1
102
RTVSPropertyOp2
 70
     1
102
RTVSPropertyOp3
 70
     1
102
RTVSPropertyOp4
 70
     1
102
RTVSPropertyOp5
 70
     1
102
RTVSPropertyOp6
 70
     1
102
RTVSPropertyOp7
 70
     1
102
RTVSPropertyOp8
 70
     1
102
RTVSPropertyOp9
 70
     1
102
RTVSPropertyOp10
 70
     1
102
RTVSPropertyOp11
 70
     1
102
RTVSPropertyOp12
 70
     1
102
RTVSPropertyOp13
 70
     1
102
RTVSPropertyOp14
 70
     1
102
RTVSPropertyOp15
 70
     1
102
RTVSPropertyOp16
 70
     1
102
RTVSPropertyOp17
 70
     1
102
RTVSPropertyOp18
 70
     1
102
RTVSPropertyOp19
 70
     1
102
RTVSPropertyOp20
 70
     1
102
RTVSPropertyOp21
 70
     1
102
RTVSPropertyOp22
 70
     1
102
RTVSPropertyOp23
 70
     1
102
RTVSPropertyOp24
 70
     1
102
RTVSPropertyOp25
 70
     1
102
RTVSPropertyOp26
 70
     1
102
RTVSPropertyOp27
 70
     1
102
RTVSPropertyOp28
 70
     1
102
RTVSPropertyOp29
 70
     1
102
RTVSPropertyOp30
 70
     1
102
RTVSPropertyOp31
 70
     1
102
RTVSPropertyOp32
 70
     1
102
RTVSPropertyOp33
 70
     1
102
RTVSPropertyOp34
 70
     1
102
RTVSPropertyOp35
 70
     1
102
RTVSPropertyOp36
 70
     1
102
RTVSPropertyOp37
 70
     1
102
RTVSPropertyOp38
 70
     1
102
RTVSPropertyOp39
 70
     1
102
RTVSPropertyOp40
 70
     1
102
RTVSPropertyOp41
 70
     1
102
RTVSPropertyOp42
 70
     1
102
RTVSPropertyOp43
 70
     1
102
RTVSPropertyOp44
 70
     1
102
RTVSPropertyOp45
 70
     1
102
RTVSPropertyOp46
 70
     1
102
RTVSPropertyOp47
 70
     1
102
RTVSPropertyOp48
 70
     1
102
RTVSPropertyOp49
 70
     1
102
RTVSPropertyOp50
 70
     1
102
RTVSPropertyOp51
 70
     0
102
RTVSPropertyOp52
 70
     0
102
RTVSPropertyOp53
 70
     1
102
RTVSPropertyOp54
 70
     1
102
RTVSPropertyOp55
 70
     1
102
RTVSPropertyOp56
 70
     1
102
RTVSPropertyOp57
 70
     1
102
RTVSPropertyOp58
 70
     1
102
RTVSPropertyOp59
 70
     1
102
RTVSPropertyOp60
 70
     1
102
RTVSPropertyOp61
 70
     1
102
RTVSPropertyOp62
 70
     1
  0
XRECORD
  5
719
102
{ACAD_REACTORS
330
718
102
}
330
718
100
AcDbXrecord
280
     1
102
RTVSPost2010Prop28
280
     0
102
RTVSPost2010PropOp28
 70
     1
102
RTVSPost2010Prop29
280
     1
102
RTVSPost2010PropOp29
 70
     1
102
RTVSPost2010Prop30
280
     1
102
RTVSPost2010PropOp30
 70
     1
102
RTVSPost2010Prop31
280
     0
102
RTVSPost2010PropOp31
 70
     1
102
RTVSPost2010Prop32
280
     0
102
RTVSPost2010PropOp32
 70
     1
102
RTVSPost2010Prop33
280
     0
102
RTVSPost2010PropOp33
 70
     1
102
RTVSPost2010Prop34
280
     0
102
RTVSPost2010PropOp34
 70
     1
102
RTVSPost2010Prop35
280
     0
102
RTVSPost2010PropOp35
 70
     1
102
RTVSPost2010Prop36
280
     0
102
RTVSPost2010PropOp36
 70
     1
102
RTVSPost2010Prop37
 90
       50
102
RTVSPost2010PropOp37
 70
     1
102
RTVSPost2010Prop38
140
0.0
102
RTVSPost2010PropOp38
 70
     1
102
RTVSPost2010Prop39
140
1.0
102
RTVSPost2010PropOp39
 70
     1
102
RTVSPost2010Prop40
 90
        0
102
RTVSPost2010PropOp40
 70
     1
102
RTVSPost2010Prop41ColorIndex
 90
       18
102
RTVSPost2010Prop41ColorRGB
 90
        0
102
RTVSPost2010PropOp41
 70
     1
102
RTVSPost2010Prop42
 90
       50
102
RTVSPost2010PropOp42
 70
     1
102
RTVSPost2010Prop43
 90
        3
102
RTVSPost2010PropOp43
 70
     1
102
RTVSPost2010Prop44ColorIndex
 90
        5
102
RTVSPost2010Prop44ColorRGB
 90
      255
102
RTVSPost2010PropOp44
 70
     1
102
RTVSPost2010Prop45
280
     0
102
RTVSPost2010PropOp45
 70
     1
102
RTVSPost2010Prop46
 90
       50
102
RTVSPost2010PropOp46
 70
     1
102
RTVSPost2010Prop47
 90
       50
102
RTVSPost2010PropOp47
 70
     1
102
RTVSPost2010Prop48
 90
       50
102
RTVSPost2010PropOp48
 70
     1
102
RTVSPost2010Prop49
280
     0
102
RTVSPost2010PropOp49
 70
     1
102
RTVSPost2010Prop50
 90
       50
102
RTVSPost2010PropOp50
 70
     1
102
RTVSPost2010Prop51ColorIndex
 90
      256
102
RTVSPost2010Prop51ColorRGB
 90
-16777216
102
RTVSPost2010PropOp51
 70
     0
102
RTVSPost2010Prop52
140
1.0
102
RTVSPost2010PropOp52
 70
     0
102
RTVSPost2010Prop53
 90
        2
102
RTVSPost2010PropOp53
 70
     1
102
RTVSPost2010Prop54
  1
strokes_ogs.tif
102
RTVSPost2010PropOp54
 70
     1
102
RTVSPost2010Prop55
280
     0
102
RTVSPost2010PropOp55
 70
     1
102
RTVSPost2010Prop56
140
1.0
102
RTVSPost2010PropOp56
 70
     1
102
RTVSPost2010Prop57
140
1.0
102
RTVSPost2010PropOp57
 70
     1
102
RTVSPropertyOp0
 70
     1
102
RTVSPropertyOp1
 70
     1
102
RTVSPropertyOp2
 70
     1
102
RTVSPropertyOp3
 70
     1
102
RTVSPropertyOp4
 70
     1
102
RTVSPropertyOp5
 70
     1
102
RTVSPropertyOp6
 70
     1
102
RTVSPropertyOp7
 70
     1
102
RTVSPropertyOp8
 70
     1
102
RTVSPropertyOp9
 70
     1
102
RTVSPropertyOp10
 70
     1
102
RTVSPropertyOp11
 70
     1
102
RTVSPropertyOp12
 70
     1
102
RTVSPropertyOp13
 70
     1
102
RTVSPropertyOp14
 70
     1
102
RTVSPropertyOp15
 70
     1
102
RTVSPropertyOp16
 70
     1
102
RTVSPropertyOp17
 70
     1
102
RTVSPropertyOp18
 70
     1
102
RTVSPropertyOp19
 70
     1
102
RTVSPropertyOp20
 70
     1
102
RTVSPropertyOp21
 70
     1
102
RTVSPropertyOp22
 70
     1
102
RTVSPropertyOp23
 70
     1
102
RTVSPropertyOp24
 70
     1
102
RTVSPropertyOp25
 70
     1
102
RTVSPropertyOp26
 70
     1
102
RTVSPropertyOp27
 70
     1
102
RTVSPropertyOp28
 70
     1
102
RTVSPropertyOp29
 70
     1
102
RTVSPropertyOp30
 70
     1
102
RTVSPropertyOp31
 70
     1
102
RTVSPropertyOp32
 70
     1
102
RTVSPropertyOp33
 70
     1
102
RTVSPropertyOp34
 70
     1
102
RTVSPropertyOp35
 70
     1
102
RTVSPropertyOp36
 70
     1
102
RTVSPropertyOp37
 70
     1
102
RTVSPropertyOp38
 70
     1
102
RTVSPropertyOp39
 70
     1
102
RTVSPropertyOp40
 70
     1
102
RTVSPropertyOp41
 70
     1
102
RTVSPropertyOp42
 70
     1
102
RTVSPropertyOp43
 70
     1
102
RTVSPropertyOp44
 70
     1
102
RTVSPropertyOp45
 70
     1
102
RTVSPropertyOp46
 70
     1
102
RTVSPropertyOp47
 70
     1
102
RTVSPropertyOp48
 70
     1
102
RTVSPropertyOp49
 70
     1
102
RTVSPropertyOp50
 70
     1
102
RTVSPropertyOp51
 70
     0
102
RTVSPropertyOp52
 70
     0
102
RTVSPropertyOp53
 70
     1
102
RTVSPropertyOp54
 70
     1
102
RTVSPropertyOp55
 70
     1
102
RTVSPropertyOp56
 70
     1
102
RTVSPropertyOp57
 70
     1
102
RTVSPropertyOp58
 70
     1
102
RTVSPropertyOp59
 70
     1
102
RTVSPropertyOp60
 70
     1
102
RTVSPropertyOp61
 70
     1
102
RTVSPropertyOp62
 70
     1
  0
XRECORD
  5
713
102
{ACAD_REACTORS
330
712
102
}
330
712
100
AcDbXrecord
280
     1
102
RTVSPost2010Prop28
280
     0
102
RTVSPost2010PropOp28
 70
     1
102
RTVSPost2010Prop29
280
     1
102
RTVSPost2010PropOp29
 70
     1
102
RTVSPost2010Prop30
280
     1
102
RTVSPost2010PropOp30
 70
     1
102
RTVSPost2010Prop31
280
     0
102
RTVSPost2010PropOp31
 70
     1
102
RTVSPost2010Prop32
280
     0
102
RTVSPost2010PropOp32
 70
     1
102
RTVSPost2010Prop33
280
     0
102
RTVSPost2010PropOp33
 70
     1
102
RTVSPost2010Prop34
280
     0
102
RTVSPost2010PropOp34
 70
     1
102
RTVSPost2010Prop35
280
     0
102
RTVSPost2010PropOp35
 70
     1
102
RTVSPost2010Prop36
280
     0
102
RTVSPost2010PropOp36
 70
     1
102
RTVSPost2010Prop37
 90
       50
102
RTVSPost2010PropOp37
 70
     1
102
RTVSPost2010Prop38
140
0.0
102
RTVSPost2010PropOp38
 70
     1
102
RTVSPost2010Prop39
140
1.0
102
RTVSPost2010PropOp39
 70
     1
102
RTVSPost2010Prop40
 90
        0
102
RTVSPost2010PropOp40
 70
     1
102
RTVSPost2010Prop41ColorIndex
 90
       18
102
RTVSPost2010Prop41ColorRGB
 90
        0
102
RTVSPost2010PropOp41
 70
     1
102
RTVSPost2010Prop42
 90
       50
102
RTVSPost2010PropOp42
 70
     1
102
RTVSPost2010Prop43
 90
        3
102
RTVSPost2010PropOp43
 70
     1
102
RTVSPost2010Prop44ColorIndex
 90
        5
102
RTVSPost2010Prop44ColorRGB
 90
      255
102
RTVSPost2010PropOp44
 70
     1
102
RTVSPost2010Prop45
280
     0
102
RTVSPost2010PropOp45
 70
     1
102
RTVSPost2010Prop46
 90
       50
102
RTVSPost2010PropOp46
 70
     1
102
RTVSPost2010Prop47
 90
       50
102
RTVSPost2010PropOp47
 70
     1
102
RTVSPost2010Prop48
 90
       50
102
RTVSPost2010PropOp48
 70
     1
102
RTVSPost2010Prop49
280
     0
102
RTVSPost2010PropOp49
 70
     1
102
RTVSPost2010Prop50
 90
       50
102
RTVSPost2010PropOp50
 70
     1
102
RTVSPost2010Prop51ColorIndex
 90
      256
102
RTVSPost2010Prop51ColorRGB
 90
-16777216
102
RTVSPost2010PropOp51
 70
     0
102
RTVSPost2010Prop52
140
1.0
102
RTVSPost2010PropOp52
 70
     0
102
RTVSPost2010Prop53
 90
        2
102
RTVSPost2010PropOp53
 70
     1
102
RTVSPost2010Prop54
  1
strokes_ogs.tif
102
RTVSPost2010PropOp54
 70
     1
102
RTVSPost2010Prop55
280
     0
102
RTVSPost2010PropOp55
 70
     1
102
RTVSPost2010Prop56
140
1.0
102
RTVSPost2010PropOp56
 70
     1
102
RTVSPost2010Prop57
140
1.0
102
RTVSPost2010PropOp57
 70
     1
102
RTVSPropertyOp0
 70
     1
102
RTVSPropertyOp1
 70
     1
102
RTVSPropertyOp2
 70
     1
102
RTVSPropertyOp3
 70
     1
102
RTVSPropertyOp4
 70
     1
102
RTVSPropertyOp5
 70
     1
102
RTVSPropertyOp6
 70
     1
102
RTVSPropertyOp7
 70
     1
102
RTVSPropertyOp8
 70
     1
102
RTVSPropertyOp9
 70
     1
102
RTVSPropertyOp10
 70
     1
102
RTVSPropertyOp11
 70
     1
102
RTVSPropertyOp12
 70
     1
102
RTVSPropertyOp13
 70
     1
102
RTVSPropertyOp14
 70
     1
102
RTVSPropertyOp15
 70
     1
102
RTVSPropertyOp16
 70
     1
102
RTVSPropertyOp17
 70
     1
102
RTVSPropertyOp18
 70
     1
102
RTVSPropertyOp19
 70
     1
102
RTVSPropertyOp20
 70
     1
102
RTVSPropertyOp21
 70
     1
102
RTVSPropertyOp22
 70
     1
102
RTVSPropertyOp23
 70
     1
102
RTVSPropertyOp24
 70
     1
102
RTVSPropertyOp25
 70
     1
102
RTVSPropertyOp26
 70
     1
102
RTVSPropertyOp27
 70
     1
102
RTVSPropertyOp28
 70
     1
102
RTVSPropertyOp29
 70
     1
102
RTVSPropertyOp30
 70
     1
102
RTVSPropertyOp31
 70
     1
102
RTVSPropertyOp32
 70
     1
102
RTVSPropertyOp33
 70
     1
102
RTVSPropertyOp34
 70
     1
102
RTVSPropertyOp35
 70
     1
102
RTVSPropertyOp36
 70
     1
102
RTVSPropertyOp37
 70
     1
102
RTVSPropertyOp38
 70
     1
102
RTVSPropertyOp39
 70
     1
102
RTVSPropertyOp40
 70
     1
102
RTVSPropertyOp41
 70
     1
102
RTVSPropertyOp42
 70
     1
102
RTVSPropertyOp43
 70
     1
102
RTVSPropertyOp44
 70
     1
102
RTVSPropertyOp45
 70
     1
102
RTVSPropertyOp46
 70
     1
102
RTVSPropertyOp47
 70
     1
102
RTVSPropertyOp48
 70
     1
102
RTVSPropertyOp49
 70
     1
102
RTVSPropertyOp50
 70
     1
102
RTVSPropertyOp51
 70
     0
102
RTVSPropertyOp52
 70
     0
102
RTVSPropertyOp53
 70
     1
102
RTVSPropertyOp54
 70
     1
102
RTVSPropertyOp55
 70
     1
102
RTVSPropertyOp56
 70
     1
102
RTVSPropertyOp57
 70
     1
102
RTVSPropertyOp58
 70
     1
102
RTVSPropertyOp59
 70
     1
102
RTVSPropertyOp60
 70
     1
102
RTVSPropertyOp61
 70
     1
102
RTVSPropertyOp62
 70
     1
  0
XRECORD
  5
715
102
{ACAD_REACTORS
330
714
102
}
330
714
100
AcDbXrecord
280
     1
102
RTVSPost2010Prop28
280
     0
102
RTVSPost2010PropOp28
 70
     1
102
RTVSPost2010Prop29
280
     1
102
RTVSPost2010PropOp29
 70
     1
102
RTVSPost2010Prop30
280
     1
102
RTVSPost2010PropOp30
 70
     1
102
RTVSPost2010Prop31
280
     0
102
RTVSPost2010PropOp31
 70
     1
102
RTVSPost2010Prop32
280
     0
102
RTVSPost2010PropOp32
 70
     1
102
RTVSPost2010Prop33
280
     0
102
RTVSPost2010PropOp33
 70
     1
102
RTVSPost2010Prop34
280
     0
102
RTVSPost2010PropOp34
 70
     1
102
RTVSPost2010Prop35
280
     0
102
RTVSPost2010PropOp35
 70
     1
102
RTVSPost2010Prop36
280
     0
102
RTVSPost2010PropOp36
 70
     1
102
RTVSPost2010Prop37
 90
       50
102
RTVSPost2010PropOp37
 70
     1
102
RTVSPost2010Prop38
140
0.0
102
RTVSPost2010PropOp38
 70
     1
102
RTVSPost2010Prop39
140
1.0
102
RTVSPost2010PropOp39
 70
     1
102
RTVSPost2010Prop40
 90
        0
102
RTVSPost2010PropOp40
 70
     1
102
RTVSPost2010Prop41ColorIndex
 90
       18
102
RTVSPost2010Prop41ColorRGB
 90
        0
102
RTVSPost2010PropOp41
 70
     1
102
RTVSPost2010Prop42
 90
       50
102
RTVSPost2010PropOp42
 70
     1
102
RTVSPost2010Prop43
 90
        3
102
RTVSPost2010PropOp43
 70
     1
102
RTVSPost2010Prop44ColorIndex
 90
        5
102
RTVSPost2010Prop44ColorRGB
 90
      255
102
RTVSPost2010PropOp44
 70
     1
102
RTVSPost2010Prop45
280
     0
102
RTVSPost2010PropOp45
 70
     1
102
RTVSPost2010Prop46
 90
       50
102
RTVSPost2010PropOp46
 70
     1
102
RTVSPost2010Prop47
 90
       50
102
RTVSPost2010PropOp47
 70
     1
102
RTVSPost2010Prop48
 90
       50
102
RTVSPost2010PropOp48
 70
     1
102
RTVSPost2010Prop49
280
     0
102
RTVSPost2010PropOp49
 70
     1
102
RTVSPost2010Prop50
 90
       50
102
RTVSPost2010PropOp50
 70
     1
102
RTVSPost2010Prop51ColorIndex
 90
      256
102
RTVSPost2010Prop51ColorRGB
 90
-16777216
102
RTVSPost2010PropOp51
 70
     0
102
RTVSPost2010Prop52
140
1.0
102
RTVSPost2010PropOp52
 70
     0
102
RTVSPost2010Prop53
 90
        2
102
RTVSPost2010PropOp53
 70
     1
102
RTVSPost2010Prop54
  1
strokes_ogs.tif
102
RTVSPost2010PropOp54
 70
     1
102
RTVSPost2010Prop55
280
     0
102
RTVSPost2010PropOp55
 70
     1
102
RTVSPost2010Prop56
140
1.0
102
RTVSPost2010PropOp56
 70
     1
102
RTVSPost2010Prop57
140
1.0
102
RTVSPost2010PropOp57
 70
     1
102
RTVSPropertyOp0
 70
     1
102
RTVSPropertyOp1
 70
     1
102
RTVSPropertyOp2
 70
     1
102
RTVSPropertyOp3
 70
     1
102
RTVSPropertyOp4
 70
     1
102
RTVSPropertyOp5
 70
     1
102
RTVSPropertyOp6
 70
     1
102
RTVSPropertyOp7
 70
     1
102
RTVSPropertyOp8
 70
     1
102
RTVSPropertyOp9
 70
     1
102
RTVSPropertyOp10
 70
     1
102
RTVSPropertyOp11
 70
     1
102
RTVSPropertyOp12
 70
     1
102
RTVSPropertyOp13
 70
     1
102
RTVSPropertyOp14
 70
     1
102
RTVSPropertyOp15
 70
     1
102
RTVSPropertyOp16
 70
     1
102
RTVSPropertyOp17
 70
     1
102
RTVSPropertyOp18
 70
     1
102
RTVSPropertyOp19
 70
     1
102
RTVSPropertyOp20
 70
     1
102
RTVSPropertyOp21
 70
     1
102
RTVSPropertyOp22
 70
     1
102
RTVSPropertyOp23
 70
     1
102
RTVSPropertyOp24
 70
     1
102
RTVSPropertyOp25
 70
     1
102
RTVSPropertyOp26
 70
     1
102
RTVSPropertyOp27
 70
     1
102
RTVSPropertyOp28
 70
     1
102
RTVSPropertyOp29
 70
     1
102
RTVSPropertyOp30
 70
     1
102
RTVSPropertyOp31
 70
     1
102
RTVSPropertyOp32
 70
     1
102
RTVSPropertyOp33
 70
     1
102
RTVSPropertyOp34
 70
     1
102
RTVSPropertyOp35
 70
     1
102
RTVSPropertyOp36
 70
     1
102
RTVSPropertyOp37
 70
     1
102
RTVSPropertyOp38
 70
     1
102
RTVSPropertyOp39
 70
     1
102
RTVSPropertyOp40
 70
     1
102
RTVSPropertyOp41
 70
     1
102
RTVSPropertyOp42
 70
     1
102
RTVSPropertyOp43
 70
     1
102
RTVSPropertyOp44
 70
     1
102
RTVSPropertyOp45
 70
     1
102
RTVSPropertyOp46
 70
     1
102
RTVSPropertyOp47
 70
     1
102
RTVSPropertyOp48
 70
     1
102
RTVSPropertyOp49
 70
     1
102
RTVSPropertyOp50
 70
     1
102
RTVSPropertyOp51
 70
     0
102
RTVSPropertyOp52
 70
     0
102
RTVSPropertyOp53
 70
     1
102
RTVSPropertyOp54
 70
     1
102
RTVSPropertyOp55
 70
     1
102
RTVSPropertyOp56
 70
     1
102
RTVSPropertyOp57
 70
     1
102
RTVSPropertyOp58
 70
     1
102
RTVSPropertyOp59
 70
     1
102
RTVSPropertyOp60
 70
     1
102
RTVSPropertyOp61
 70
     1
102
RTVSPropertyOp62
 70
     1
  0
XRECORD
  5
70B
102
{ACAD_REACTORS
330
70A
102
}
330
70A
100
AcDbXrecord
280
     1
102
RTVSPost2010Prop28
280
     0
102
RTVSPost2010PropOp28
 70
     1
102
RTVSPost2010Prop29
280
     1
102
RTVSPost2010PropOp29
 70
     1
102
RTVSPost2010Prop30
280
     1
102
RTVSPost2010PropOp30
 70
     1
102
RTVSPost2010Prop31
280
     0
102
RTVSPost2010PropOp31
 70
     1
102
RTVSPost2010Prop32
280
     0
102
RTVSPost2010PropOp32
 70
     1
102
RTVSPost2010Prop33
280
     0
102
RTVSPost2010PropOp33
 70
     1
102
RTVSPost2010Prop34
280
     0
102
RTVSPost2010PropOp34
 70
     1
102
RTVSPost2010Prop35
280
     0
102
RTVSPost2010PropOp35
 70
     1
102
RTVSPost2010Prop36
280
     0
102
RTVSPost2010PropOp36
 70
     1
102
RTVSPost2010Prop37
 90
       50
102
RTVSPost2010PropOp37
 70
     1
102
RTVSPost2010Prop38
140
0.0
102
RTVSPost2010PropOp38
 70
     1
102
RTVSPost2010Prop39
140
1.0
102
RTVSPost2010PropOp39
 70
     1
102
RTVSPost2010Prop40
 90
        0
102
RTVSPost2010PropOp40
 70
     1
102
RTVSPost2010Prop41ColorIndex
 90
       18
102
RTVSPost2010Prop41ColorRGB
 90
        0
102
RTVSPost2010PropOp41
 70
     1
102
RTVSPost2010Prop42
 90
       50
102
RTVSPost2010PropOp42
 70
     1
102
RTVSPost2010Prop43
 90
        3
102
RTVSPost2010PropOp43
 70
     1
102
RTVSPost2010Prop44ColorIndex
 90
        5
102
RTVSPost2010Prop44ColorRGB
 90
      255
102
RTVSPost2010PropOp44
 70
     1
102
RTVSPost2010Prop45
280
     0
102
RTVSPost2010PropOp45
 70
     1
102
RTVSPost2010Prop46
 90
       50
102
RTVSPost2010PropOp46
 70
     1
102
RTVSPost2010Prop47
 90
       50
102
RTVSPost2010PropOp47
 70
     1
102
RTVSPost2010Prop48
 90
       50
102
RTVSPost2010PropOp48
 70
     1
102
RTVSPost2010Prop49
280
     0
102
RTVSPost2010PropOp49
 70
     1
102
RTVSPost2010Prop50
 90
       50
102
RTVSPost2010PropOp50
 70
     1
102
RTVSPost2010Prop51ColorIndex
 90
      256
102
RTVSPost2010Prop51ColorRGB
 90
-16777216
102
RTVSPost2010PropOp51
 70
     0
102
RTVSPost2010Prop52
140
1.0
102
RTVSPost2010PropOp52
 70
     0
102
RTVSPost2010Prop53
 90
        2
102
RTVSPost2010PropOp53
 70
     1
102
RTVSPost2010Prop54
  1
strokes_ogs.tif
102
RTVSPost2010PropOp54
 70
     1
102
RTVSPost2010Prop55
280
     0
102
RTVSPost2010PropOp55
 70
     1
102
RTVSPost2010Prop56
140
1.0
102
RTVSPost2010PropOp56
 70
     1
102
RTVSPost2010Prop57
140
1.0
102
RTVSPost2010PropOp57
 70
     1
102
RTVSPropertyOp0
 70
     1
102
RTVSPropertyOp1
 70
     1
102
RTVSPropertyOp2
 70
     1
102
RTVSPropertyOp3
 70
     1
102
RTVSPropertyOp4
 70
     1
102
RTVSPropertyOp5
 70
     1
102
RTVSPropertyOp6
 70
     1
102
RTVSPropertyOp7
 70
     1
102
RTVSPropertyOp8
 70
     1
102
RTVSPropertyOp9
 70
     1
102
RTVSPropertyOp10
 70
     1
102
RTVSPropertyOp11
 70
     1
102
RTVSPropertyOp12
 70
     1
102
RTVSPropertyOp13
 70
     1
102
RTVSPropertyOp14
 70
     1
102
RTVSPropertyOp15
 70
     1
102
RTVSPropertyOp16
 70
     1
102
RTVSPropertyOp17
 70
     1
102
RTVSPropertyOp18
 70
     1
102
RTVSPropertyOp19
 70
     1
102
RTVSPropertyOp20
 70
     1
102
RTVSPropertyOp21
 70
     1
102
RTVSPropertyOp22
 70
     1
102
RTVSPropertyOp23
 70
     1
102
RTVSPropertyOp24
 70
     1
102
RTVSPropertyOp25
 70
     1
102
RTVSPropertyOp26
 70
     1
102
RTVSPropertyOp27
 70
     1
102
RTVSPropertyOp28
 70
     1
102
RTVSPropertyOp29
 70
     1
102
RTVSPropertyOp30
 70
     1
102
RTVSPropertyOp31
 70
     1
102
RTVSPropertyOp32
 70
     1
102
RTVSPropertyOp33
 70
     1
102
RTVSPropertyOp34
 70
     1
102
RTVSPropertyOp35
 70
     1
102
RTVSPropertyOp36
 70
     1
102
RTVSPropertyOp37
 70
     1
102
RTVSPropertyOp38
 70
     1
102
RTVSPropertyOp39
 70
     1
102
RTVSPropertyOp40
 70
     1
102
RTVSPropertyOp41
 70
     1
102
RTVSPropertyOp42
 70
     1
102
RTVSPropertyOp43
 70
     1
102
RTVSPropertyOp44
 70
     1
102
RTVSPropertyOp45
 70
     1
102
RTVSPropertyOp46
 70
     1
102
RTVSPropertyOp47
 70
     1
102
RTVSPropertyOp48
 70
     1
102
RTVSPropertyOp49
 70
     1
102
RTVSPropertyOp50
 70
     1
102
RTVSPropertyOp51
 70
     0
102
RTVSPropertyOp52
 70
     0
102
RTVSPropertyOp53
 70
     1
102
RTVSPropertyOp54
 70
     1
102
RTVSPropertyOp55
 70
     1
102
RTVSPropertyOp56
 70
     1
102
RTVSPropertyOp57
 70
     1
102
RTVSPropertyOp58
 70
     1
102
RTVSPropertyOp59
 70
     1
102
RTVSPropertyOp60
 70
     1
102
RTVSPropertyOp61
 70
     1
102
RTVSPropertyOp62
 70
     1
  0
XRECORD
  5
6FF
102
{ACAD_REACTORS
330
6FE
102
}
330
6FE
100
AcDbXrecord
280
     1
102
RTVSPost2010Prop28
280
     0
102
RTVSPost2010PropOp28
 70
     1
102
RTVSPost2010Prop29
280
     1
102
RTVSPost2010PropOp29
 70
     1
102
RTVSPost2010Prop30
280
     1
102
RTVSPost2010PropOp30
 70
     1
102
RTVSPost2010Prop31
280
     0
102
RTVSPost2010PropOp31
 70
     1
102
RTVSPost2010Prop32
280
     0
102
RTVSPost2010PropOp32
 70
     1
102
RTVSPost2010Prop33
280
     0
102
RTVSPost2010PropOp33
 70
     1
102
RTVSPost2010Prop34
280
     0
102
RTVSPost2010PropOp34
 70
     1
102
RTVSPost2010Prop35
280
     0
102
RTVSPost2010PropOp35
 70
     1
102
RTVSPost2010Prop36
280
     0
102
RTVSPost2010PropOp36
 70
     1
102
RTVSPost2010Prop37
 90
       50
102
RTVSPost2010PropOp37
 70
     1
102
RTVSPost2010Prop38
140
0.0
102
RTVSPost2010PropOp38
 70
     1
102
RTVSPost2010Prop39
140
1.0
102
RTVSPost2010PropOp39
 70
     1
102
RTVSPost2010Prop40
 90
        0
102
RTVSPost2010PropOp40
 70
     1
102
RTVSPost2010Prop41ColorIndex
 90
       18
102
RTVSPost2010Prop41ColorRGB
 90
        0
102
RTVSPost2010PropOp41
 70
     1
102
RTVSPost2010Prop42
 90
       50
102
RTVSPost2010PropOp42
 70
     1
102
RTVSPost2010Prop43
 90
        3
102
RTVSPost2010PropOp43
 70
     1
102
RTVSPost2010Prop44ColorIndex
 90
        5
102
RTVSPost2010Prop44ColorRGB
 90
      255
102
RTVSPost2010PropOp44
 70
     1
102
RTVSPost2010Prop45
280
     0
102
RTVSPost2010PropOp45
 70
     1
102
RTVSPost2010Prop46
 90
       50
102
RTVSPost2010PropOp46
 70
     1
102
RTVSPost2010Prop47
 90
       50
102
RTVSPost2010PropOp47
 70
     1
102
RTVSPost2010Prop48
 90
       50
102
RTVSPost2010PropOp48
 70
     1
102
RTVSPost2010Prop49
280
     0
102
RTVSPost2010PropOp49
 70
     1
102
RTVSPost2010Prop50
 90
       50
102
RTVSPost2010PropOp50
 70
     1
102
RTVSPost2010Prop51ColorIndex
 90
      256
102
RTVSPost2010Prop51ColorRGB
 90
-16777216
102
RTVSPost2010PropOp51
 70
     0
102
RTVSPost2010Prop52
140
1.0
102
RTVSPost2010PropOp52
 70
     0
102
RTVSPost2010Prop53
 90
        2
102
RTVSPost2010PropOp53
 70
     1
102
RTVSPost2010Prop54
  1
strokes_ogs.tif
102
RTVSPost2010PropOp54
 70
     1
102
RTVSPost2010Prop55
280
     0
102
RTVSPost2010PropOp55
 70
     1
102
RTVSPost2010Prop56
140
1.0
102
RTVSPost2010PropOp56
 70
     1
102
RTVSPost2010Prop57
140
1.0
102
RTVSPost2010PropOp57
 70
     1
102
RTVSPropertyOp0
 70
     1
102
RTVSPropertyOp1
 70
     1
102
RTVSPropertyOp2
 70
     1
102
RTVSPropertyOp3
 70
     1
102
RTVSPropertyOp4
 70
     1
102
RTVSPropertyOp5
 70
     1
102
RTVSPropertyOp6
 70
     1
102
RTVSPropertyOp7
 70
     1
102
RTVSPropertyOp8
 70
     1
102
RTVSPropertyOp9
 70
     1
102
RTVSPropertyOp10
 70
     1
102
RTVSPropertyOp11
 70
     1
102
RTVSPropertyOp12
 70
     1
102
RTVSPropertyOp13
 70
     1
102
RTVSPropertyOp14
 70
     1
102
RTVSPropertyOp15
 70
     1
102
RTVSPropertyOp16
 70
     1
102
RTVSPropertyOp17
 70
     1
102
RTVSPropertyOp18
 70
     1
102
RTVSPropertyOp19
 70
     1
102
RTVSPropertyOp20
 70
     1
102
RTVSPropertyOp21
 70
     1
102
RTVSPropertyOp22
 70
     1
102
RTVSPropertyOp23
 70
     1
102
RTVSPropertyOp24
 70
     1
102
RTVSPropertyOp25
 70
     1
102
RTVSPropertyOp26
 70
     1
102
RTVSPropertyOp27
 70
     1
102
RTVSPropertyOp28
 70
     1
102
RTVSPropertyOp29
 70
     1
102
RTVSPropertyOp30
 70
     1
102
RTVSPropertyOp31
 70
     1
102
RTVSPropertyOp32
 70
     1
102
RTVSPropertyOp33
 70
     1
102
RTVSPropertyOp34
 70
     1
102
RTVSPropertyOp35
 70
     1
102
RTVSPropertyOp36
 70
     1
102
RTVSPropertyOp37
 70
     1
102
RTVSPropertyOp38
 70
     1
102
RTVSPropertyOp39
 70
     1
102
RTVSPropertyOp40
 70
     1
102
RTVSPropertyOp41
 70
     1
102
RTVSPropertyOp42
 70
     1
102
RTVSPropertyOp43
 70
     1
102
RTVSPropertyOp44
 70
     1
102
RTVSPropertyOp45
 70
     1
102
RTVSPropertyOp46
 70
     1
102
RTVSPropertyOp47
 70
     1
102
RTVSPropertyOp48
 70
     1
102
RTVSPropertyOp49
 70
     1
102
RTVSPropertyOp50
 70
     1
102
RTVSPropertyOp51
 70
     0
102
RTVSPropertyOp52
 70
     0
102
RTVSPropertyOp53
 70
     1
102
RTVSPropertyOp54
 70
     1
102
RTVSPropertyOp55
 70
     1
102
RTVSPropertyOp56
 70
     1
102
RTVSPropertyOp57
 70
     1
102
RTVSPropertyOp58
 70
     1
102
RTVSPropertyOp59
 70
     1
102
RTVSPropertyOp60
 70
     1
102
RTVSPropertyOp61
 70
     1
102
RTVSPropertyOp62
 70
     1
  0
XRECORD
  5
717
102
{ACAD_REACTORS
330
716
102
}
330
716
100
AcDbXrecord
280
     1
102
RTVSPost2010Prop28
280
     0
102
RTVSPost2010PropOp28
 70
     1
102
RTVSPost2010Prop29
280
     1
102
RTVSPost2010PropOp29
 70
     1
102
RTVSPost2010Prop30
280
     1
102
RTVSPost2010PropOp30
 70
     1
102
RTVSPost2010Prop31
280
     0
102
RTVSPost2010PropOp31
 70
     1
102
RTVSPost2010Prop32
280
     0
102
RTVSPost2010PropOp32
 70
     1
102
RTVSPost2010Prop33
280
     0
102
RTVSPost2010PropOp33
 70
     1
102
RTVSPost2010Prop34
280
     0
102
RTVSPost2010PropOp34
 70
     1
102
RTVSPost2010Prop35
280
     0
102
RTVSPost2010PropOp35
 70
     1
102
RTVSPost2010Prop36
280
     0
102
RTVSPost2010PropOp36
 70
     1
102
RTVSPost2010Prop37
 90
       50
102
RTVSPost2010PropOp37
 70
     1
102
RTVSPost2010Prop38
140
0.0
102
RTVSPost2010PropOp38
 70
     1
102
RTVSPost2010Prop39
140
1.0
102
RTVSPost2010PropOp39
 70
     1
102
RTVSPost2010Prop40
 90
        0
102
RTVSPost2010PropOp40
 70
     1
102
RTVSPost2010Prop41ColorIndex
 90
       18
102
RTVSPost2010Prop41ColorRGB
 90
        0
102
RTVSPost2010PropOp41
 70
     1
102
RTVSPost2010Prop42
 90
       50
102
RTVSPost2010PropOp42
 70
     1
102
RTVSPost2010Prop43
 90
        3
102
RTVSPost2010PropOp43
 70
     1
102
RTVSPost2010Prop44ColorIndex
 90
        5
102
RTVSPost2010Prop44ColorRGB
 90
      255
102
RTVSPost2010PropOp44
 70
     1
102
RTVSPost2010Prop45
280
     0
102
RTVSPost2010PropOp45
 70
     1
102
RTVSPost2010Prop46
 90
       50
102
RTVSPost2010PropOp46
 70
     1
102
RTVSPost2010Prop47
 90
       50
102
RTVSPost2010PropOp47
 70
     1
102
RTVSPost2010Prop48
 90
       50
102
RTVSPost2010PropOp48
 70
     1
102
RTVSPost2010Prop49
280
     0
102
RTVSPost2010PropOp49
 70
     1
102
RTVSPost2010Prop50
 90
       50
102
RTVSPost2010PropOp50
 70
     1
102
RTVSPost2010Prop51ColorIndex
 90
      256
102
RTVSPost2010Prop51ColorRGB
 90
-16777216
102
RTVSPost2010PropOp51
 70
     0
102
RTVSPost2010Prop52
140
1.0
102
RTVSPost2010PropOp52
 70
     0
102
RTVSPost2010Prop53
 90
        2
102
RTVSPost2010PropOp53
 70
     1
102
RTVSPost2010Prop54
  1
strokes_ogs.tif
102
RTVSPost2010PropOp54
 70
     1
102
RTVSPost2010Prop55
280
     0
102
RTVSPost2010PropOp55
 70
     1
102
RTVSPost2010Prop56
140
1.0
102
RTVSPost2010PropOp56
 70
     1
102
RTVSPost2010Prop57
140
1.0
102
RTVSPost2010PropOp57
 70
     1
102
RTVSPropertyOp0
 70
     1
102
RTVSPropertyOp1
 70
     1
102
RTVSPropertyOp2
 70
     1
102
RTVSPropertyOp3
 70
     1
102
RTVSPropertyOp4
 70
     1
102
RTVSPropertyOp5
 70
     1
102
RTVSPropertyOp6
 70
     1
102
RTVSPropertyOp7
 70
     1
102
RTVSPropertyOp8
 70
     1
102
RTVSPropertyOp9
 70
     1
102
RTVSPropertyOp10
 70
     1
102
RTVSPropertyOp11
 70
     1
102
RTVSPropertyOp12
 70
     1
102
RTVSPropertyOp13
 70
     1
102
RTVSPropertyOp14
 70
     1
102
RTVSPropertyOp15
 70
     1
102
RTVSPropertyOp16
 70
     1
102
RTVSPropertyOp17
 70
     1
102
RTVSPropertyOp18
 70
     1
102
RTVSPropertyOp19
 70
     1
102
RTVSPropertyOp20
 70
     1
102
RTVSPropertyOp21
 70
     1
102
RTVSPropertyOp22
 70
     1
102
RTVSPropertyOp23
 70
     1
102
RTVSPropertyOp24
 70
     1
102
RTVSPropertyOp25
 70
     1
102
RTVSPropertyOp26
 70
     1
102
RTVSPropertyOp27
 70
     1
102
RTVSPropertyOp28
 70
     1
102
RTVSPropertyOp29
 70
     1
102
RTVSPropertyOp30
 70
     1
102
RTVSPropertyOp31
 70
     1
102
RTVSPropertyOp32
 70
     1
102
RTVSPropertyOp33
 70
     1
102
RTVSPropertyOp34
 70
     1
102
RTVSPropertyOp35
 70
     1
102
RTVSPropertyOp36
 70
     1
102
RTVSPropertyOp37
 70
     1
102
RTVSPropertyOp38
 70
     1
102
RTVSPropertyOp39
 70
     1
102
RTVSPropertyOp40
 70
     1
102
RTVSPropertyOp41
 70
     1
102
RTVSPropertyOp42
 70
     1
102
RTVSPropertyOp43
 70
     1
102
RTVSPropertyOp44
 70
     1
102
RTVSPropertyOp45
 70
     1
102
RTVSPropertyOp46
 70
     1
102
RTVSPropertyOp47
 70
     1
102
RTVSPropertyOp48
 70
     1
102
RTVSPropertyOp49
 70
     1
102
RTVSPropertyOp50
 70
     1
102
RTVSPropertyOp51
 70
     0
102
RTVSPropertyOp52
 70
     0
102
RTVSPropertyOp53
 70
     1
102
RTVSPropertyOp54
 70
     1
102
RTVSPropertyOp55
 70
     1
102
RTVSPropertyOp56
 70
     1
102
RTVSPropertyOp57
 70
     1
102
RTVSPropertyOp58
 70
     1
102
RTVSPropertyOp59
 70
     1
102
RTVSPropertyOp60
 70
     1
102
RTVSPropertyOp61
 70
     1
102
RTVSPropertyOp62
 70
     1
  0
ENDSEC
  0
EOF
