  0
SECTION
  2
HEADER
  9
$ACADVER
  1
AC1015
  9
$ACADMAINTVER
 70
               6
  9
$DWGCODEPAGE
  3
ANSI_932
  9
$INSBASE
 10
0.0
 20
0.0
 30
0.0
  9
$EXTMIN
 10
-213.40659119445345
 20
104.25094806196067
 30
0.0
  9
$EXTMAX
 10
217.34957318910816
 20
-108.22759075082472
 30
0.0
  9
$LIMMIN
 10
0.0
 20
0.0
  9
$LIMMAX
 10
0.0
 20
0.0
  9
$ORTHOMODE
 70
               0
  9
$REGENMODE
 70
               1
  9
$FILLMODE
 70
               1
  9
$QTEXTMODE
 70
               0
  9
$MIRRTEXT
 70
               1
  9
$LTSCALE
 40
1.0
  9
$ATTMODE
 70
               1
  9
$TEXTSIZE
 40
0.2
  9
$TRACEWID
 40
0.05
  9
$TEXTSTYLE
  7
Standard
  9
$CLAYER
  8
0
  9
$CELTYPE
  6
Continuous
  9
$CECOLOR
 62
             256
  9
$CELTSCALE
 40
1.0
  9
$DISPSILH
 70
               0
  9
$DIMSCALE
 40
1.0
  9
$DIMASZ
 40
2.4148145657226707
  9
$DIMEXO
 40
1.0
  9
$DIMDLI
 40
0.38
  9
$DIMRND
 40
0.0
  9
$DIMDLE
 40
0.0
  9
$DIMEXE
 40
2.0
  9
$DIMTP
 40
0.0
  9
$DIMTM
 40
0.0
  9
$DIMTXT
 40
3.5277777777777777
  9
$DIMCEN
 40
0.09
  9
$DIMTSZ
 40
0.0
  9
$DIMTOL
 70
               0
  9
$DIMLIM
 70
               0
  9
$DIMTIH
 70
               0
  9
$DIMTOH
 70
               0
  9
$DIMSE1
 70
               0
  9
$DIMSE2
 70
               0
  9
$DIMTAD
 70
               1
  9
$DIMZIN
 70
               0
  9
$DIMBLK
  1

  9
$DIMASO
 70
               1
  9
$DIMSHO
 70
               1
  9
$DIMPOST
  1

  9
$DIMAPOST
  1

  9
$DIMALT
 70
               0
  9
$DIMALTD
 70
               2
  9
$DIMALTF
 40
25.399999999999999
  9
$DIMLFAC
 40
1.0
  9
$DIMTOFL
 70
               0
  9
$DIMTVP
 40
0.0
  9
$DIMTIX
 70
               0
  9
$DIMSOXD
 70
               0
  9
$DIMSAH
 70
               0
  9
$DIMBLK1
  1

  9
$DIMBLK2
  1

  9
$DIMSTYLE
  2
Standard
  9
$DIMCLRD
 70
               7
  9
$DIMCLRE
 70
               7
  9
$DIMCLRT
 70
               7
  9
$DIMTFAC
 40
1.0
  9
$DIMGAP
 40
1.0
  9
$DIMJUST
 70
               0
  9
$DIMSD1
 70
               0
  9
$DIMSD2
 70
               0
  9
$DIMTOLJ
 70
               1
  9
$DIMTZIN
 70
               0
  9
$DIMALTZ
 70
               0
  9
$DIMALTTZ
 70
               0
  9
$DIMUPT
 70
               0
  9
$DIMDEC
 70
               2
  9
$DIMTDEC
 70
               4
  9
$DIMALTU
 70
               2
  9
$DIMALTTD
 70
               2
  9
$DIMTXSTY
  7
Standard
  9
$DIMAUNIT
 70
               0
  9
$DIMADEC
 70
               0
  9
$DIMALTRND
 40
0.0
  9
$DIMAZIN
 70
               0
  9
$DIMDSEP
 70
               0
  9
$DIMATFIT
 70
               3
  9
$DIMFRAC
 70
               0
  9
$DIMLDRBLK
  1

  9
$DIMLUNIT
 70
               2
  9
$DIMLWD
 70
               0
  9
$DIMLWE
 70
               0
  9
$DIMTMOVE
 70
               0
  9
$LUNITS
 70
               2
  9
$LUPREC
 70
               4
  9
$SKETCHINC
 40
0.1
  9
$FILLETRAD
 40
0.0
  9
$AUNITS
 70
               0
  9
$AUPREC
 70
               0
  9
$MENU
  1
acad
  9
$ELEVATION
 40
0.0
  9
$PELEVATION
 40
0.0
  9
$THICKNESS
 40
0.0
  9
$LIMCHECK
 70
               0
  9
$CHAMFERA
 40
0.0
  9
$CHAMFERB
 40
0.0
  9
$CHAMFERC
 40
0.0
  9
$CHAMFERD
 40
0.0
  9
$SKPOLY
 70
               0
  9
$TDCREATE
 40
2457296.813553241
  9
$TDUCREATE
 40
0.000000000
  9
$TDUPDATE
 40
2457296.813553241
  9
$TDUUPDATE
 40
0.000000000
  9
$TDINDWG
 40
0.0000000000
  9
$TDUSRTIMER
 40
0.0000000000
  9
$USRTIMER
 70
               1
  9
$ANGBASE
 50
0.0
  9
$ANGDIR
 70
               0
  9
$PDMODE
 70
               0
  9
$PDSIZE
 40
0.0
  9
$PLINEWID
 40
0.0
  9
$SPLFRAME
 70
               0
  9
$SPLINETYPE
 70
               6
  9
$SPLINESEGS
 70
               8
  9
$HANDSEED
  5
2B2
  9
$SURFTAB1
 70
               6
  9
$SURFTAB2
 70
               6
  9
$SURFTYPE
 70
               6
  9
$SURFU
 70
               6
  9
$SURFV
 70
               6
  9
$UCSBASE
  2

  9
$UCSNAME
  2

  9
$UCSORG
 10
0.0
 20
0.0
 30
0.0
  9
$UCSXDIR
 10
1.0
 20
0.0
 30
0.0
  9
$UCSYDIR
 10
0.0
 20
1.0
 30
0.0
  9
$UCSORTHOREF
  2

  9
$UCSORTHOVIEW
 70
               0
  9
$UCSORGTOP
 10
0.0
 20
0.0
 30
0.0
  9
$UCSORGBOTTOM
 10
0.0
 20
0.0
 30
0.0
  9
$UCSORGLEFT
 10
0.0
 20
0.0
 30
0.0
  9
$UCSORGRIGHT
 10
0.0
 20
0.0
 30
0.0
  9
$UCSORGFRONT
 10
0.0
 20
0.0
 30
0.0
  9
$UCSORGBACK
 10
0.0
 20
0.0
 30
0.0
  9
$PUCSBASE
  2

  9
$PUCSNAME
  2

  9
$PUCSORG
 10
0.0
 20
0.0
 30
0.0
  9
$PUCSXDIR
 10
1.0
 20
0.0
 30
0.0
  9
$PUCSYDIR
 10
0.0
 20
1.0
 30
0.0
  9
$PUCSORTHOREF
  2

  9
$PUCSORTHOVIEW
 70
               0
  9
$PUCSORGTOP
 10
0.0
 20
0.0
 30
0.0
  9
$PUCSORGBOTTOM
 10
0.0
 20
0.0
 30
0.0
  9
$PUCSORGLEFT
 10
0.0
 20
0.0
 30
0.0
  9
$PUCSORGRIGHT
 10
0.0
 20
0.0
 30
0.0
  9
$PUCSORGFRONT
 10
0.0
 20
0.0
 30
0.0
  9
$PUCSORGBACK
 10
0.0
 20
0.0
 30
0.0
  9
$USERI1
 70
               0
  9
$USERI2
 70
               0
  9
$USERI3
 70
               0
  9
$USERI4
 70
               0
  9
$USERI5
 70
               0
  9
$USERR1
 40
0.0
  9
$USERR2
 40
0.0
  9
$USERR3
 40
0.0
  9
$USERR4
 40
0.0
  9
$USERR5
 40
0.0
  9
$WORLDVIEW
 70
               1
  9
$SHADEDGE
 70
               3
  9
$SHADEDIF
 70
              70
  9
$TILEMODE
 70
               1
  9
$MAXACTVP
 70
              16
  9
$PINSBASE
 10
0.0
 20
0.0
 30
0.0
  9
$PLIMCHECK
 70
               0
  9
$PEXTMIN
 10
1.0000000000000000E+20
 20
1.0000000000000000E+20
 30
1.0000000000000000E+20
  9
$PEXTMAX
 10
-1.0000000000000000E+20
 20
-1.0000000000000000E+20
 30
-1.0000000000000000E+20
  9
$PLIMMIN
 10
0.0
 20
0.0
  9
$PLIMMAX
 10
12.0
 20
9.0
  9
$UNITMODE
 70
               0
  9
$VISRETAIN
 70
               0
  9
$PLINEGEN
 70
               1
  9
$PSLTSCALE
 70
               0
  9
$TREEDEPTH
 70
            3020
  9
$CMLSTYLE
  2
Standard
  9
$CMLJUST
 70
               0
  9
$CMLSCALE
 40
1.0
  9
$PROXYGRAPHICS
 70
               0
  9
$MEASUREMENT
 70
               0
  9
$CELWEIGHT
370
               0
  9
$ENDCAPS
280
               0
  9
$JOINSTYLE
280
               0
  9
$LWDISPLAY
290
               0
  9
$INSUNITS
 70
               0
  9
$HYPERLINKBASE
  1

  9
$STYLESHEET
  1

  9
$XEDIT
290
               1
  9
$CEPSNTYPE
380
               0
  9
$PSTYLEMODE
290
               1
  9
$FINGERPRINTGUID
  2

  9
$VERSIONGUID
  2

  9
$EXTNAMES
290
               1
  9
$PSVPSCALE
 40
0.0
  0
ENDSEC
  0
SECTION
  2
CLASSES
  0
CLASS
  1
LWPOLYLINE
  2
AcDbPolyline
  3
AutoCAD 2000
 90
        0
280
               0
281
               1
  0
CLASS
  1
IMAGE
  2
AcDbRasterImage
  3
ISM
 90
      127
280
               0
281
               1
  0
CLASS
  1
OLE2FRAME
  2
AcDbOle2Frame
  3
AutoCAD 2000
 90
        0
280
               0
281
               1
  0
CLASS
  1
HATCH
  2
AcDbHatch
  3
AutoCAD 2000
 90
        0
280
               0
281
               1
  0
CLASS
  1
DICTIONARYVAR
  2
AcDbDictionaryVar
  3
AutoCAD 2000
 90
        0
280
               0
281
               0
  0
CLASS
  1
RASTERVARIABLES
  2
AcDbRasterVariables
  3
ISM
 90
        0
280
               0
281
               0
  0
CLASS
  1
IMAGEDEF
  2
AcDbRasterImageDef
  3
ISM
 90
        0
280
               0
281
               0
  0
CLASS
  1
IMAGEDEF_REACTOR
  2
AcDbRasterImageDefReactor
  3
ISM
 90
        1
280
               0
281
               0
  0
CLASS
  1
IDBUFFER
  2
AcDbIdBuffer
  3
AutoCAD 2000
 90
        0
280
               0
281
               0
  0
CLASS
  1
SPATIAL_FILTER
  2
AcDbSpatialFilter
  3
AutoCAD 2000
 90
        0
280
               0
281
               0
  0
CLASS
  1
XRECORD
  2
AcDbXrecord
  3
AutoCAD 2000
 90
        0
280
               0
281
               0
  0
CLASS
  1
SORTENTSTABLE
  2
AcDbSortentsTable
  3
AutoCAD 2000
 90
        0
280
               0
281
               0
  0
CLASS
  1
LAYER_INDEX
  2
AcDbLayerIndex
  3
AutoCAD 2000
 90
        0
280
               0
281
               0
  0
CLASS
  1
SPATIAL_INDEX
  2
AcDbSpatialIndex
  3
AutoCAD 2000
 90
        0
280
               0
281
               0
  0
CLASS
  1
OBJECT_PTR
  2
CAseDLPNTableRecord
  3
"ASE-LPNTableRecord"
 90
        1
280
               0
281
               0
  0
CLASS
  1
LAYOUT
  2
AcDbLayout
  3
AutoCAD 2000
 90
        0
280
               0
281
               0
  0
CLASS
  1
PLOTSETTINGS
  2
AcDbPlotSettings
  3
AutoCAD 2000
 90
        0
280
               0
281
               0
  0
CLASS
  1
ACDBDICTIONARYWDFLT
  2
AcDbDictionaryWithDefault
  3
AutoCAD 2000
 90
        0
280
               0
281
               0
  0
CLASS
  1
ACDBPLACEHOLDER
  2
AcDbPlaceHolder
  3
AutoCAD 2000
 90
        0
280
               0
281
               0
  0
CLASS
  1
VBA_PROJECT
  2
AcDbVbaProject
  3
acadvba
 90
        0
280
               0
281
               0
  0
CLASS
  1
WIPEOUT
  2
AcDbWipeout
  3
WipeOut|AutoCAD Express Tool|expresstools@autodesk.com
 90
      127
280
               0
281
               1
  0
CLASS
  1
WIPEOUTVARIABLES
  2
AcDbWipeoutVariables
  3
WipeOut|AutoCAD Express Tool|expresstools@autodesk.com
 90
        0
280
               0
281
               0
  0
CLASS
  1
RTEXT
  2
RText
  3
RText|AutoCAD Express Tool|expresstools@autodesk.com
 90
        0
280
               0
281
               1
  0
CLASS
  1
ARCALIGNEDTEXT
  2
AcDbArcAlignedText
  3
ATEXT|AutoCAD Express Tool|expresstools@autodesk.com
 90
        0
280
               0
281
               1
  0
ENDSEC
  0
SECTION
  2
TABLES
  0
TABLE
  2
VPORT
  5
7
100
AcDbSymbolTable
 70
               1
  0
VPORT
  5
15
100
AcDbSymbolTableRecord
100
AcDbViewportTableRecord
  2
*ACTIVE
 70
               0
 10
0.0
 20
0.0
 11
1.0
 21
1.0
 12
6.5912879999999996
 22
4.5791839999999997
 13
0.0
 23
0.0
 14
1.0
 24
1.0
 15
0.0
 25
0.0
 16
0.0
 26
0.0
 36
1.0
 17
0.0
 27
0.0
 37
0.0
 40
9.1583690000000004
 41
0.688564
 42
50.0
 43
0.0
 44
0.0
 50
0.0
 51
0.0
 71
               0
 72
             100
 73
               1
 74
               1
 75
               0
 76
               0
 77
               0
 78
               0
281
               0
 65
               0
110
0.0
120
0.0
130
0.0
111
1.0
121
0.0
131
0.0
112
0.0
122
1.0
132
0.0
345
0
346
0
 79
               0
146
0.0
  0
ENDTAB
  0
TABLE
  2
LTYPE
  5
4
100
AcDbSymbolTable
 70
              13
  0
LTYPE
  5
11
100
AcDbSymbolTableRecord
100
AcDbLinetypeTableRecord
  2
ByBlock
 70
              64
  3

 72
              65
 73
               0
 40
0.0
  0
LTYPE
  5
12
100
AcDbSymbolTableRecord
100
AcDbLinetypeTableRecord
  2
ByLayer
 70
              64
  3

 72
              65
 73
               0
 40
0.0
  0
LTYPE
  5
13
100
AcDbSymbolTableRecord
100
AcDbLinetypeTableRecord
  2
Continuous
 70
              64
  3
Solid line
 72
              65
 73
               0
 40
0.0
  0
LTYPE
  5
24
100
AcDbSymbolTableRecord
100
AcDbLinetypeTableRecord
  2
DOT
 70
              64
  3

 72
              65
 73
               2
 40
1.0
 49
0.0
 74
               0
 49
-1.0
 74
               0
  0
LTYPE
  5
25
100
AcDbSymbolTableRecord
100
AcDbLinetypeTableRecord
  2
DASHEDX2
 70
              64
  3

 72
              65
 73
               2
 40
4.0
 49
3.0
 74
               0
 49
-1.0
 74
               0
  0
LTYPE
  5
26
100
AcDbSymbolTableRecord
100
AcDbLinetypeTableRecord
  2
DASHED
 70
              64
  3

 72
              65
 73
               2
 40
3.0
 49
2.0
 74
               0
 49
-1.0
 74
               0
  0
LTYPE
  5
27
100
AcDbSymbolTableRecord
100
AcDbLinetypeTableRecord
  2
DASHED2
 70
              64
  3

 72
              65
 73
               2
 40
2.0
 49
1.0
 74
               0
 49
-1.0
 74
               0
  0
LTYPE
  5
28
100
AcDbSymbolTableRecord
100
AcDbLinetypeTableRecord
  2
CENTERX2
 70
              64
  3

 72
              65
 73
               4
 40
43.0
 49
40.0
 74
               0
 49
-1.0
 74
               0
 49
1.0
 74
               0
 49
-1.0
 74
               0
  0
LTYPE
  5
29
100
AcDbSymbolTableRecord
100
AcDbLinetypeTableRecord
  2
CENTER
 70
              64
  3

 72
              65
 73
               4
 40
33.0
 49
30.0
 74
               0
 49
-1.0
 74
               0
 49
1.0
 74
               0
 49
-1.0
 74
               0
  0
LTYPE
  5
2A
100
AcDbSymbolTableRecord
100
AcDbLinetypeTableRecord
  2
CENTER2
 70
              64
  3

 72
              65
 73
               4
 40
23.0
 49
20.0
 74
               0
 49
-1.0
 74
               0
 49
1.0
 74
               0
 49
-1.0
 74
               0
  0
LTYPE
  5
2B
100
AcDbSymbolTableRecord
100
AcDbLinetypeTableRecord
  2
PHANTOMX2
 70
              64
  3

 72
              65
 73
               6
 40
45.0
 49
40.0
 74
               0
 49
-1.0
 74
               0
 49
1.0
 74
               0
 49
-1.0
 74
               0
 49
1.0
 74
               0
 49
-1.0
 74
               0
  0
LTYPE
  5
2C
100
AcDbSymbolTableRecord
100
AcDbLinetypeTableRecord
  2
PHANTOM
 70
              64
  3

 72
              65
 73
               6
 40
35.0
 49
30.0
 74
               0
 49
-1.0
 74
               0
 49
1.0
 74
               0
 49
-1.0
 74
               0
 49
1.0
 74
               0
 49
-1.0
 74
               0
  0
LTYPE
  5
2D
100
AcDbSymbolTableRecord
100
AcDbLinetypeTableRecord
  2
PHANTOM2
 70
              64
  3

 72
              65
 73
               6
 40
25.0
 49
20.0
 74
               0
 49
-1.0
 74
               0
 49
1.0
 74
               0
 49
-1.0
 74
               0
 49
1.0
 74
               0
 49
-1.0
 74
               0
  0
ENDTAB
  0
TABLE
  2
LAYER
  5
2
100
AcDbSymbolTable
 70
              15
  0
LAYER
  5
14
100
AcDbSymbolTableRecord
100
AcDbLayerTableRecord
  2
0
 70
               0
 62
               7
  6
Continuous
290
               1
370
              -3
390
1D
  0
LAYER
  5
2E
100
AcDbSymbolTableRecord
100
AcDbLayerTableRecord
  2
DEFPOINTS
 70
               0
 62
               7
  6
Continuous
290
               0
370
              -3
390
1D
  0
LAYER
  5
2F
100
AcDbSymbolTableRecord
100
AcDbLayerTableRecord
  2
____1
 70
               0
 62
               7
  6
Continuous
290
               1
370
              -3
390
1D
  0
LAYER
  5
30
100
AcDbSymbolTableRecord
100
AcDbLayerTableRecord
  2
______
 70
               0
 62
               7
  6
Continuous
290
               1
370
              -3
390
1D
  0
LAYER
  5
31
100
AcDbSymbolTableRecord
100
AcDbLayerTableRecord
  2
寸法線_1
 70
               0
 62
               7
  6
Continuous
290
               1
370
              -3
390
1D
  0
LAYER
  5
32
100
AcDbSymbolTableRecord
100
AcDbLayerTableRecord
  2
CONSTRUCTION
 70
               0
 62
               7
  6
Continuous
290
               1
370
              -3
390
1D
  0
LAYER
  5
33
100
AcDbSymbolTableRecord
100
AcDbLayerTableRecord
  2
DIMENSION
 70
               0
 62
               7
  6
Continuous
290
               1
370
              -3
390
1D
  0
LAYER
  5
34
100
AcDbSymbolTableRecord
100
AcDbLayerTableRecord
  2
FORMAT
 70
               0
 62
               7
  6
Continuous
290
               1
370
              -3
390
1D
  0
LAYER
  5
35
100
AcDbSymbolTableRecord
100
AcDbLayerTableRecord
  2
____
 70
               0
 62
               7
  6
DOT
290
               1
370
              -3
390
1D
  0
LAYER
  5
36
100
AcDbSymbolTableRecord
100
AcDbLayerTableRecord
  2
___G
 70
               0
 62
               7
  6
DOT
290
               1
370
              -3
390
1D
  0
LAYER
  5
37
100
AcDbSymbolTableRecord
100
AcDbLayerTableRecord
  2
0_1
 70
               0
 62
               7
  6
Continuous
290
               1
370
              -3
390
1D
  0
LAYER
  5
38
100
AcDbSymbolTableRecord
100
AcDbLayerTableRecord
  2
____1_1
 70
               0
 62
              -7
  6
Continuous
290
               1
370
              -3
390
1D
  0
LAYER
  5
39
100
AcDbSymbolTableRecord
100
AcDbLayerTableRecord
  2
________1
 70
               0
 62
               7
  6
Continuous
290
               1
370
              -3
390
1D
  0
LAYER
  5
3A
100
AcDbSymbolTableRecord
100
AcDbLayerTableRecord
  2
________1_____1
 70
               0
 62
               7
  6
Continuous
290
               1
370
              -3
390
1D
  0
LAYER
  5
3B
100
AcDbSymbolTableRecord
100
AcDbLayerTableRecord
  2
________1________1
 70
               0
 62
               7
  6
Continuous
290
               1
370
              -3
390
1D
  0
ENDTAB
  0
TABLE
  2
STYLE
  5
3
100
AcDbSymbolTable
 70
               2
  0
STYLE
  5
17
100
AcDbSymbolTableRecord
100
AcDbTextStyleTableRecord
  2
Standard
 70
               0
 40
0.0
 41
1.0
 50
0.0
 71
               0
 42
0.35
  3
txt
  4

  0
STYLE
  5
50
100
AcDbSymbolTableRecord
100
AcDbTextStyleTableRecord
  2
Style1
 70
               0
 40
0.0
 41
1.0
 50
0.0
 71
               0
 42
0.35
  3
ＭＳ ゴシック
  4

  0
ENDTAB
  0
TABLE
  2
VIEW
  5
5
100
AcDbSymbolTable
 70
               0
  0
ENDTAB
  0
TABLE
  2
UCS
  5
6
100
AcDbSymbolTable
 70
               0
  0
ENDTAB
  0
TABLE
  2
APPID
  5
8
100
AcDbSymbolTable
 70
               1
  0
APPID
  5
16
100
AcDbSymbolTableRecord
100
AcDbRegAppTableRecord
  2
ACAD
 70
               0
  0
ENDTAB
  0
TABLE
  2
DIMSTYLE
  5
9
100
AcDbSymbolTable
 70
               2
100
AcDbDimStyleTable
 71
               0
  0
DIMSTYLE
105
18
100
AcDbSymbolTableRecord
100
AcDbDimStyleTableRecord
  2
Standard
 70
               0
  3

  4

 40
1.0
 41
2.4148145657226707
 42
1.0
 43
0.38
 44
2.0
 45
0.0
 46
0.0
 47
0.0
 48
0.0
 71
               0
 72
               0
 73
               0
 74
               0
 75
               0
 76
               0
 77
               1
 78
               0
 79
               0
140
3.5277777777777777
141
0.09
142
0.0
143
25.399999999999999
144
1.0
145
0.0
146
1.0
147
1.0
148
0.0
170
               0
171
               2
172
               0
173
               0
174
               0
175
               0
176
               7
177
               7
178
               7
179
               0
271
               2
272
               4
273
               2
274
               2
275
               0
276
               0
277
               2
278
              46
279
               0
280
               0
281
               0
282
               0
283
               1
284
               0
285
               0
286
               0
288
               0
289
               0
340
17
341
0
342
0
343
0
344
0
371
              -2
372
              -2
  0
DIMSTYLE
105
53
100
AcDbSymbolTableRecord
100
AcDbDimStyleTableRecord
  2
DS1
 70
               0
  3

  4

 40
1.0
 41
2.4148145657226707
 42
1.0
 43
0.38
 44
2.0
 45
0.0
 46
0.0
 47
0.0
 48
0.0
 71
               0
 72
               0
 73
               0
 74
               0
 75
               0
 76
               0
 77
               1
 78
               8
 79
               0
140
3.5277776718139648
141
0.09
142
0.0
143
25.399999999999999
144
1.0
145
0.0
146
1.0
147
1.0
148
0.0
170
               0
171
               2
172
               0
173
               0
174
               0
175
               0
176
               7
177
               7
178
               7
179
               0
271
               2
272
               4
273
               2
274
               2
275
               0
276
               0
277
               2
278
              46
279
               0
280
               0
281
               0
282
               0
283
               1
284
               0
285
               0
286
               0
288
               0
289
               3
340
17
341
0
342
0
343
0
344
0
371
              -2
372
              -2
  0
ENDTAB
  0
TABLE
  2
BLOCK_RECORD
  5
1
100
AcDbSymbolTable
 70
              17
  0
BLOCK_RECORD
  5
A
100
AcDbSymbolTableRecord
100
AcDbBlockTableRecord
  2
*MODEL_SPACE
340
20
  0
BLOCK_RECORD
  5
B
100
AcDbSymbolTableRecord
100
AcDbBlockTableRecord
  2
*PAPER_SPACE
340
21
  0
BLOCK_RECORD
  5
42
100
AcDbSymbolTableRecord
100
AcDbBlockTableRecord
  2
*D0
340
0
  0
BLOCK_RECORD
  5
75
100
AcDbSymbolTableRecord
100
AcDbBlockTableRecord
  2
C0
340
0
102
{BLKREFS
331
7E
102
}
  0
BLOCK_RECORD
  5
9B
100
AcDbSymbolTableRecord
100
AcDbBlockTableRecord
  2
*D2
340
0
  0
BLOCK_RECORD
  5
A8
100
AcDbSymbolTableRecord
100
AcDbBlockTableRecord
  2
*D3
340
0
  0
BLOCK_RECORD
  5
DE
100
AcDbSymbolTableRecord
100
AcDbBlockTableRecord
  2
C1
340
0
102
{BLKREFS
331
E5
102
}
  0
BLOCK_RECORD
  5
E7
100
AcDbSymbolTableRecord
100
AcDbBlockTableRecord
  2
C2
340
0
102
{BLKREFS
331
EE
102
}
  0
BLOCK_RECORD
  5
FB
100
AcDbSymbolTableRecord
100
AcDbBlockTableRecord
  2
C3
340
0
102
{BLKREFS
331
102
102
}
  0
BLOCK_RECORD
  5
115
100
AcDbSymbolTableRecord
100
AcDbBlockTableRecord
  2
C4
340
0
102
{BLKREFS
331
11C
102
}
  0
BLOCK_RECORD
  5
121
100
AcDbSymbolTableRecord
100
AcDbBlockTableRecord
  2
C5
340
0
102
{BLKREFS
331
128
102
}
  0
BLOCK_RECORD
  5
129
100
AcDbSymbolTableRecord
100
AcDbBlockTableRecord
  2
C6
340
0
102
{BLKREFS
331
130
102
}
  0
BLOCK_RECORD
  5
136
100
AcDbSymbolTableRecord
100
AcDbBlockTableRecord
  2
C7
340
0
102
{BLKREFS
331
13F
102
}
  0
BLOCK_RECORD
  5
141
100
AcDbSymbolTableRecord
100
AcDbBlockTableRecord
  2
C8
340
0
102
{BLKREFS
331
148
102
}
  0
BLOCK_RECORD
  5
16C
100
AcDbSymbolTableRecord
100
AcDbBlockTableRecord
  2
C9
340
0
102
{BLKREFS
331
173
102
}
  0
BLOCK_RECORD
  5
17E
100
AcDbSymbolTableRecord
100
AcDbBlockTableRecord
  2
C10
340
0
102
{BLKREFS
331
187
102
}
  0
BLOCK_RECORD
  5
1B2
100
AcDbSymbolTableRecord
100
AcDbBlockTableRecord
  2
*D14
340
0
  0
BLOCK_RECORD
  5
1C2
100
AcDbSymbolTableRecord
100
AcDbBlockTableRecord
  2
C11
340
0
102
{BLKREFS
331
1E5
102
}
  0
BLOCK_RECORD
  5
1EC
100
AcDbSymbolTableRecord
100
AcDbBlockTableRecord
  2
C12
340
0
102
{BLKREFS
331
299
102
}
  0
ENDTAB
  0
ENDSEC
  0
SECTION
  2
BLOCKS
  0
BLOCK
  5
D
100
AcDbEntity
  8
0
390
0
100
AcDbBlockBegin
  2
*MODEL_SPACE
 70
               0
 10
0.0
 20
0.0
 30
0.0
  3
*MODEL_SPACE
  1

  0
ENDBLK
  5
E
100
AcDbEntity
  8
0
390
0
100
AcDbBlockEnd
  0
BLOCK
  5
F
100
AcDbEntity
 67
               1
  8
0
390
0
100
AcDbBlockBegin
  2
*PAPER_SPACE
 70
               0
 10
0.0
 20
0.0
 30
0.0
  3
*PAPER_SPACE
  1

  0
ENDBLK
  5
10
100
AcDbEntity
 67
               1
  8
0
390
0
100
AcDbBlockEnd
  0
BLOCK
  5
43
100
AcDbEntity
  8
0
390
0
100
AcDbBlockBegin
  2
*D0
 70
              65
 10
0.0
 20
0.0
 30
0.0
  3
*D0
  1

  0
LINE
  5
44
100
AcDbEntity
  8
____1
370
              50
390
0
  6
Continuous
 62
               7
100
AcDbLine
 10
96.543578921247303
 20
63.102648342964969
 30
0.0
 11
96.543578921247303
 21
52.102653661630356
 31
0.0
  0
LINE
  5
45
100
AcDbEntity
  8
____1
370
              50
390
0
  6
Continuous
 62
               7
100
AcDbLine
 10
87.543578921247303
 20
52.102653661630356
 30
0.0
 11
98.543578921247303
 21
52.102653661630356
 31
0.0
  0
LINE
  5
46
100
AcDbEntity
  8
____1
370
              50
390
0
  6
Continuous
 62
               7
100
AcDbLine
 10
77.543578452933701
 20
63.102648342964969
 30
0.0
 11
98.543578921247303
 21
63.102648342964969
 31
0.0
  0
SOLID
  5
47
100
AcDbEntity
  8
____1
370
               5
390
0
  6
Continuous
 62
               7
100
AcDbTrace
 10
96.543578921247303
 20
63.102648342964969
 30
0.0
 11
96.543578921247303
 21
63.102648342964969
 31
0.0
 12
96.058293192077457
 22
64.913759197113833
 32
0.0
 13
97.028864650417148
 23
64.913759197113833
 33
0.0
  0
SOLID
  5
48
100
AcDbEntity
  8
____1
370
               5
390
0
  6
Continuous
 62
               7
100
AcDbTrace
 10
96.058293192077457
 20
64.913759197113833
 30
0.0
 11
96.543578921247303
 21
64.913759197113833
 31
0.0
 12
95.896531282354175
 22
65.517462815163455
 32
0.0
 13
95.896531282354175
 23
65.517462815163455
 33
0.0
  0
SOLID
  5
49
100
AcDbEntity
  8
____1
370
               5
390
0
  6
Continuous
 62
               7
100
AcDbTrace
 10
96.543578921247303
 20
64.913759197113833
 30
0.0
 11
97.028864650417148
 21
64.913759197113833
 31
0.0
 12
97.19062656014043
 22
65.517462815163455
 32
0.0
 13
97.19062656014043
 23
65.517462815163455
 33
0.0
  0
LINE
  5
4A
100
AcDbEntity
  8
____1
370
              50
390
0
  6
Continuous
 62
               7
100
AcDbLine
 10
96.543578921247303
 20
63.102648342964969
 30
0.0
 11
96.543578921247303
 21
68.102648342964969
 31
0.0
  0
SOLID
  5
4B
100
AcDbEntity
  8
____1
370
               5
390
0
  6
Continuous
 62
               7
100
AcDbTrace
 10
95.896531282354175
 20
49.68783918943187
 30
0.0
 11
95.896531282354175
 21
49.68783918943187
 31
0.0
 12
96.058293192077457
 22
50.291542807481491
 32
0.0
 13
96.543578921247303
 23
50.291542807481491
 33
0.0
  0
SOLID
  5
4C
100
AcDbEntity
  8
____1
370
               5
390
0
  6
Continuous
 62
               7
100
AcDbTrace
 10
97.19062656014043
 20
49.68783918943187
 30
0.0
 11
97.19062656014043
 21
49.68783918943187
 31
0.0
 12
96.543578921247303
 22
50.291542807481491
 32
0.0
 13
97.028864650417148
 23
50.291542807481491
 33
0.0
  0
SOLID
  5
4D
100
AcDbEntity
  8
____1
370
               5
390
0
  6
Continuous
 62
               7
100
AcDbTrace
 10
96.058293192077457
 20
50.291542807481491
 30
0.0
 11
97.028864650417148
 21
50.291542807481491
 31
0.0
 12
96.543578921247303
 22
52.102653661630356
 32
0.0
 13
96.543578921247303
 23
52.102653661630356
 33
0.0
  0
LINE
  5
4E
100
AcDbEntity
  8
____1
370
              50
390
0
  6
Continuous
 62
               7
100
AcDbLine
 10
96.543578921247303
 20
52.102653661630356
 30
0.0
 11
96.543578921247303
 21
47.102653661630356
 31
0.0
  0
MTEXT
  5
4F
100
AcDbEntity
  8
寸法線_1
370
              50
390
0
  6
Continuous
 62
               7
100
AcDbMText
 10
92.015801249433338
 20
46.781354668914034
 30
0.0
 40
3.5277776718139648
 41
14.166232213377953
 71
               1
 72
               1
  1
約  11㎜
  7
Style1
 11
0.0
 21
1.0
 31
0.0
 73
               1
 44
1.0
  0
ENDBLK
  5
51
100
AcDbEntity
  8
0
390
0
100
AcDbBlockEnd
  0
BLOCK
  5
76
100
AcDbEntity
  8
0
390
0
100
AcDbBlockBegin
  2
C0
 70
               0
 10
0.0
 20
0.0
 30
0.0
  3
C0
  1

  0
CIRCLE
  5
77
100
AcDbEntity
  8
____1
370
               5
390
0
  6
Continuous
 62
               7
100
AcDbCircle
 10
1349.6546260129589
 20
-321.10833333333335
 30
0.0
 40
4.0
  0
MTEXT
  5
78
100
AcDbEntity
  8
____1
370
               5
390
0
  6
Continuous
 62
               7
100
AcDbMText
 10
21.04104097000527
 20
-18.236111164093018
 30
0.0
 40
3.5277776718139648
 41
1.7638888359069824
 71
               1
 72
               1
  1
2
  7
Style1
 73
               1
 44
1.0
  0
LINE
  5
79
100
AcDbEntity
  8
寸法線_1
370
               5
390
0
  6
Continuous
 62
               7
100
AcDbLine
 10
28.589652054625503
 20
-20.0
 30
0.0
 11
25.922985387958761
 21
-20.0
 31
0.0
  0
LINE
  5
7A
100
AcDbEntity
  8
寸法線_1
370
               5
390
0
  6
Continuous
 62
               7
100
AcDbLine
 10
41.690931797842723
 20
-0.399006963865304
 30
0.0
 11
28.589652054625503
 21
-20.0
 31
0.0
  0
SOLID
  5
7B
100
AcDbEntity
  8
寸法線_1
390
0
 62
               7
100
AcDbTrace
 10
41.690931797842723
 20
-0.399006963865304
 30
0.0
 11
40.70283442115597
 21
-1.2951172696718389
 31
0.0
 12
41.690931797842723
 22
-0.399006963865304
 32
0.0
 13
41.151588409441459
 23
-1.2059255403205202
 33
0.0
  0
SOLID
  5
7C
100
AcDbEntity
  8
寸法線_1
390
0
 62
               7
100
AcDbTrace
 10
41.151588409441459
 20
-1.2059255403205202
 30
0.0
 11
41.240780138792786
 21
-1.6546795286060125
 31
0.0
 12
41.690931797842723
 22
-0.399006963865304
 32
0.0
 13
41.690931797842723
 23
-0.399006963865304
 33
0.0
  0
ENDBLK
  5
7D
100
AcDbEntity
  8
0
390
0
100
AcDbBlockEnd
  0
BLOCK
  5
9C
100
AcDbEntity
  8
0
390
0
100
AcDbBlockBegin
  2
*D2
 70
              65
 10
0.0
 20
0.0
 30
0.0
  3
*D2
  1

  0
LINE
  5
9D
100
AcDbEntity
  8
____1
370
              50
390
0
  6
Continuous
 62
               7
100
AcDbLine
 10
-61.353934854019585
 20
8.1471131207249314
 30
0.0000000000000002
 11
-61.353934854019585
 21
19.147113120724928
 31
0.0000000000000028
  0
LINE
  5
9E
100
AcDbEntity
  8
____1
370
              50
390
0
  6
Continuous
 62
               7
100
AcDbLine
 10
-81.353935511904851
 20
8.1471078020595442
 30
0.0000000000000023
 11
-81.353935511904851
 21
19.147113120724928
 31
0.0000000000000023
  0
SOLID
  5
9F
100
AcDbEntity
  8
____1
370
               5
390
0
  6
Continuous
 62
               7
100
AcDbTrace
 10
-78.939121039706365
 20
16.5000654818318
 30
0.0000000000000023
 11
-78.939121039706365
 21
16.5000654818318
 31
0.0000000000000023
 12
-81.353935511904851
 22
17.147113120724928
 32
0.0000000000000023
 13
-79.542824657755986
 23
17.147113120724928
 33
0.0000000000000023
  0
SOLID
  5
A0
100
AcDbEntity
  8
____1
370
               5
390
0
  6
Continuous
 62
               7
100
AcDbTrace
 10
-81.353935511904851
 20
17.147113120724928
 30
0.0000000000000023
 11
-79.542824657755986
 21
17.147113120724928
 31
0.0000000000000023
 12
-78.939121039706365
 22
17.794160759618055
 32
0.0000000000000023
 13
-78.939121039706365
 23
17.794160759618055
 33
0.0000000000000023
  0
LINE
  5
A1
100
AcDbEntity
  8
____1
370
              50
390
0
  6
Continuous
 62
               7
100
AcDbLine
 10
-81.353935511904851
 20
17.147113120724928
 30
0.0000000000000023
 11
-71.353935182962232
 21
17.147113120724928
 31
0.0000000000000023
  0
SOLID
  5
A2
100
AcDbEntity
  8
____1
370
               5
390
0
  6
Continuous
 62
               7
100
AcDbTrace
 10
-63.768749326218071
 20
16.5000654818318
 30
0.0000000000000023
 11
-63.768749326218071
 21
16.5000654818318
 31
0.0000000000000023
 12
-63.165045708168449
 22
17.147113120724928
 32
0.0000000000000023
 13
-61.353934854019585
 23
17.147113120724928
 33
0.0000000000000023
  0
SOLID
  5
A3
100
AcDbEntity
  8
____1
370
               5
390
0
  6
Continuous
 62
               7
100
AcDbTrace
 10
-63.165045708168449
 20
17.147113120724928
 30
0.0000000000000023
 11
-61.353934854019585
 21
17.147113120724928
 31
0.0000000000000023
 12
-63.768749326218071
 22
17.794160759618055
 32
0.0000000000000023
 13
-63.768749326218071
 23
17.794160759618055
 33
0.0000000000000023
  0
LINE
  5
A4
100
AcDbEntity
  8
____1
370
              50
390
0
  6
Continuous
 62
               7
100
AcDbLine
 10
-61.353934854019585
 20
17.147113120724928
 30
0.0000000000000023
 11
-71.353935182962232
 21
17.147113120724928
 31
0.0000000000000023
  0
MTEXT
  5
A5
100
AcDbEntity
  8
寸法線_1
370
               5
390
0
  6
CENTER2
 62
               7
100
AcDbMText
 10
-73.117824018869214
 20
21.674890792538893
 30
0.0000000000000023
 40
3.5277776718139648
 41
3.5415580533444881
 71
               1
 72
               1
  1
20
  7
Style1
 73
               1
 44
1.0
  0
ENDBLK
  5
A6
100
AcDbEntity
  8
0
390
0
100
AcDbBlockEnd
  0
BLOCK
  5
A9
100
AcDbEntity
  8
0
390
0
100
AcDbBlockBegin
  2
*D3
 70
              65
 10
0.0
 20
0.0
 30
0.0
  3
*D3
  1

  0
LINE
  5
AA
100
AcDbEntity
  8
____1
370
              50
390
0
  6
Continuous
 62
               7
100
AcDbLine
 10
-14.098830421053925
 20
8.1471131207249314
 30
0.0
 11
-14.098830421053925
 21
19.147113120724928
 31
0.0
  0
LINE
  5
AB
100
AcDbEntity
  8
____1
370
              50
390
0
  6
Continuous
 62
               7
100
AcDbLine
 10
-26.098829997860822
 20
8.1471131207249314
 30
0.0
 11
-26.098829997860822
 21
19.147113120724928
 31
0.0
  0
SOLID
  5
AC
100
AcDbEntity
  8
____1
370
               5
390
0
  6
Continuous
 62
               7
100
AcDbTrace
 10
-23.684015525662335
 20
16.5000654818318
 30
0.0
 11
-23.684015525662335
 21
16.5000654818318
 31
0.0
 12
-26.098829997860822
 22
17.147113120724928
 32
0.0
 13
-24.287719143711957
 23
17.147113120724928
 33
0.0
  0
SOLID
  5
AD
100
AcDbEntity
  8
____1
370
               5
390
0
  6
Continuous
 62
               7
100
AcDbTrace
 10
-26.098829997860822
 20
17.147113120724928
 30
0.0
 11
-24.287719143711957
 21
17.147113120724928
 31
0.0
 12
-23.684015525662335
 22
17.794160759618055
 32
0.0
 13
-23.684015525662335
 23
17.794160759618055
 33
0.0
  0
LINE
  5
AE
100
AcDbEntity
  8
____1
370
              50
390
0
  6
Continuous
 62
               7
100
AcDbLine
 10
-26.098829997860822
 20
17.147113120724928
 30
0.0
 11
-20.098830209457379
 21
17.147113120724928
 31
0.0
  0
SOLID
  5
AF
100
AcDbEntity
  8
____1
370
               5
390
0
  6
Continuous
 62
               7
100
AcDbTrace
 10
-16.513644893252412
 20
16.5000654818318
 30
0.0
 11
-16.513644893252412
 21
16.5000654818318
 31
0.0
 12
-15.90994127520279
 22
17.147113120724928
 32
0.0
 13
-14.098830421053925
 23
17.147113120724928
 33
0.0
  0
SOLID
  5
B0
100
AcDbEntity
  8
____1
370
               5
390
0
  6
Continuous
 62
               7
100
AcDbTrace
 10
-15.90994127520279
 20
17.147113120724928
 30
0.0
 11
-14.098830421053925
 21
17.147113120724928
 31
0.0
 12
-16.513644893252412
 22
17.794160759618055
 32
0.0
 13
-16.513644893252412
 23
17.794160759618055
 33
0.0
  0
LINE
  5
B1
100
AcDbEntity
  8
____1
370
              50
390
0
  6
Continuous
 62
               7
100
AcDbLine
 10
-14.098830421053925
 20
17.147113120724928
 30
0.0
 11
-20.098830209457379
 21
17.147113120724928
 31
0.0
  0
MTEXT
  5
B2
100
AcDbEntity
  8
寸法線_1
370
               5
390
0
  6
CENTER2
 62
               7
100
AcDbMText
 10
-21.862719045364361
 20
21.674890792538893
 30
0.0
 40
3.5277776718139648
 41
3.5415580533444881
 71
               1
 72
               1
  1
12
  7
Style1
 73
               1
 44
1.0
  0
ENDBLK
  5
B3
100
AcDbEntity
  8
0
390
0
100
AcDbBlockEnd
  0
BLOCK
  5
DF
100
AcDbEntity
  8
0
390
0
100
AcDbBlockBegin
  2
C1
 70
              64
 10
0.0
 20
0.0
 30
0.0
  3
C1
  1

  0
LINE
  5
E0
100
AcDbEntity
  8
____1
370
               5
390
0
  6
CENTER
 62
               7
100
AcDbLine
 10
-77.153935322334974
 20
45.090584977702051
 30
0.0
 11
-80.153935322334974
 21
45.090584977702051
 31
0.0
  0
LINE
  5
E1
100
AcDbEntity
  8
____1
370
               5
390
0
  6
CENTER
 62
               7
100
AcDbLine
 10
-77.153935322334974
 20
45.090584977702051
 30
0.0
 11
-77.153935322334974
 21
42.090584977702051
 31
0.0
  0
LINE
  5
E2
100
AcDbEntity
  8
____1
370
               5
390
0
  6
CENTER
 62
               7
100
AcDbLine
 10
-77.153935322334974
 20
45.090584977702051
 30
0.0
 11
-74.153935322334974
 21
45.090584977702051
 31
0.0
  0
LINE
  5
E3
100
AcDbEntity
  8
____1
370
               5
390
0
  6
CENTER
 62
               7
100
AcDbLine
 10
-77.153935322334974
 20
45.090584977702051
 30
0.0
 11
-77.153935322334974
 21
48.090584977702051
 31
0.0
  0
ENDBLK
  5
E4
100
AcDbEntity
  8
0
390
0
100
AcDbBlockEnd
  0
BLOCK
  5
E8
100
AcDbEntity
  8
0
390
0
100
AcDbBlockBegin
  2
C2
 70
              64
 10
0.0
 20
0.0
 30
0.0
  3
C2
  1

  0
LINE
  5
E9
100
AcDbEntity
  8
____1
370
               5
390
0
  6
CENTER
 62
               7
100
AcDbLine
 10
-79.353935322332973
 20
48.090584977700573
 30
0.0
 11
-81.846951168434529
 21
48.090584977700573
 31
0.0
  0
LINE
  5
EA
100
AcDbEntity
  8
____1
370
               5
390
0
  6
CENTER
 62
               7
100
AcDbLine
 10
-79.353935322332973
 20
48.090584977700573
 30
0.0
 11
-79.353935322332973
 21
45.597569131598917
 31
0.0
  0
LINE
  5
EB
100
AcDbEntity
  8
____1
370
               5
390
0
  6
CENTER
 62
               7
100
AcDbLine
 10
-79.353935322332973
 20
48.090584977700573
 30
0.0
 11
-76.860919476231402
 21
48.090584977700573
 31
0.0
  0
LINE
  5
EC
100
AcDbEntity
  8
____1
370
               5
390
0
  6
CENTER
 62
               7
100
AcDbLine
 10
-79.353935322332973
 20
48.090584977700573
 30
0.0
 11
-79.353935322332973
 21
50.583600823802229
 31
0.0
  0
ENDBLK
  5
ED
100
AcDbEntity
  8
0
390
0
100
AcDbBlockEnd
  0
BLOCK
  5
FC
100
AcDbEntity
  8
0
390
0
100
AcDbBlockBegin
  2
C3
 70
              64
 10
0.0
 20
0.0
 30
0.0
  3
C3
  1

  0
LINE
  5
FD
100
AcDbEntity
  8
____1
370
               5
390
0
  6
CENTER
 62
               7
100
AcDbLine
 10
-71.3539353223332
 20
48.090584977700772
 30
0.0
 11
-75.871030002115958
 21
48.090584977700772
 31
0.0
  0
LINE
  5
FE
100
AcDbEntity
  8
____1
370
               5
390
0
  6
CENTER
 62
               7
100
AcDbLine
 10
-71.3539353223332
 20
48.090584977700772
 30
0.0
 11
-71.3539353223332
 21
43.573490297917928
 31
0.0
  0
LINE
  5
FF
100
AcDbEntity
  8
____1
370
               5
390
0
  6
CENTER
 62
               7
100
AcDbLine
 10
-71.3539353223332
 20
48.090584977700772
 30
0.0
 11
-66.836840642550442
 21
48.090584977700772
 31
0.0
  0
LINE
  5
100
100
AcDbEntity
  8
____1
370
               5
390
0
  6
CENTER
 62
               7
100
AcDbLine
 10
-71.3539353223332
 20
48.090584977700772
 30
0.0
 11
-71.3539353223332
 21
52.607679657483601
 31
0.0
  0
ENDBLK
  5
101
100
AcDbEntity
  8
0
390
0
100
AcDbBlockEnd
  0
BLOCK
  5
116
100
AcDbEntity
  8
0
390
0
100
AcDbBlockBegin
  2
C4
 70
              64
 10
0.0
 20
0.0
 30
0.0
  3
C4
  1

  0
LINE
  5
117
100
AcDbEntity
  8
____1
370
               5
390
0
  6
CENTER
 62
               7
100
AcDbLine
 10
-77.153935322334974
 20
51.090584977699308
 30
0.0
 11
-80.061271161771629
 21
51.090584977699308
 31
0.0
  0
LINE
  5
118
100
AcDbEntity
  8
____1
370
               5
390
0
  6
CENTER
 62
               7
100
AcDbLine
 10
-77.153935322334974
 20
51.090584977699308
 30
0.0
 11
-77.153935322334974
 21
48.183249138262639
 31
0.0
  0
LINE
  5
119
100
AcDbEntity
  8
____1
370
               5
390
0
  6
CENTER
 62
               7
100
AcDbLine
 10
-77.153935322334974
 20
51.090584977699308
 30
0.0
 11
-74.246599482898318
 21
51.090584977699308
 31
0.0
  0
LINE
  5
11A
100
AcDbEntity
  8
____1
370
               5
390
0
  6
CENTER
 62
               7
100
AcDbLine
 10
-77.153935322334974
 20
51.090584977699308
 30
0.0
 11
-77.153935322334974
 21
53.997920817135991
 31
0.0
  0
ENDBLK
  5
11B
100
AcDbEntity
  8
0
390
0
100
AcDbBlockEnd
  0
BLOCK
  5
122
100
AcDbEntity
  8
0
390
0
100
AcDbBlockBegin
  2
C5
 70
              64
 10
0.0
 20
0.0
 30
0.0
  3
C5
  1

  0
LINE
  5
123
100
AcDbEntity
  8
____1
370
               5
390
0
  6
CENTER
 62
               7
100
AcDbLine
 10
-65.553935322333245
 20
51.090584977700729
 30
0.0
 11
-68.461271161769901
 21
51.090584977700729
 31
0.0
  0
LINE
  5
124
100
AcDbEntity
  8
____1
370
               5
390
0
  6
CENTER
 62
               7
100
AcDbLine
 10
-65.553935322333245
 20
51.090584977700729
 30
0.0
 11
-65.553935322333245
 21
48.18324913826406
 31
0.0
  0
LINE
  5
125
100
AcDbEntity
  8
____1
370
               5
390
0
  6
CENTER
 62
               7
100
AcDbLine
 10
-65.553935322333245
 20
51.090584977700729
 30
0.0
 11
-62.646599482896576
 21
51.090584977700729
 31
0.0
  0
LINE
  5
126
100
AcDbEntity
  8
____1
370
               5
390
0
  6
CENTER
 62
               7
100
AcDbLine
 10
-65.553935322333245
 20
51.090584977700729
 30
0.0
 11
-65.553935322333245
 21
53.997920817137413
 31
0.0
  0
ENDBLK
  5
127
100
AcDbEntity
  8
0
390
0
100
AcDbBlockEnd
  0
BLOCK
  5
12A
100
AcDbEntity
  8
0
390
0
100
AcDbBlockBegin
  2
C6
 70
              64
 10
0.0
 20
0.0
 30
0.0
  3
C6
  1

  0
LINE
  5
12B
100
AcDbEntity
  8
____1
370
               5
390
0
  6
CENTER
 62
               7
100
AcDbLine
 10
-63.353935322333186
 20
48.090584977700772
 30
0.0
 11
-65.846951168434771
 21
48.090584977700772
 31
0.0
  0
LINE
  5
12C
100
AcDbEntity
  8
____1
370
               5
390
0
  6
CENTER
 62
               7
100
AcDbLine
 10
-63.353935322333186
 20
48.090584977700772
 30
0.0
 11
-63.353935322333186
 21
45.597569131599116
 31
0.0
  0
LINE
  5
12D
100
AcDbEntity
  8
____1
370
               5
390
0
  6
CENTER
 62
               7
100
AcDbLine
 10
-63.353935322333186
 20
48.090584977700772
 30
0.0
 11
-60.860919476231615
 21
48.090584977700772
 31
0.0
  0
LINE
  5
12E
100
AcDbEntity
  8
____1
370
               5
390
0
  6
CENTER
 62
               7
100
AcDbLine
 10
-63.353935322333186
 20
48.090584977700772
 30
0.0
 11
-63.353935322333186
 21
50.583600823802428
 31
0.0
  0
ENDBLK
  5
12F
100
AcDbEntity
  8
0
390
0
100
AcDbBlockEnd
  0
BLOCK
  5
137
100
AcDbEntity
  8
0
390
0
100
AcDbBlockBegin
  2
C7
 70
               0
 10
0.0
 20
0.0
 30
0.0
  3
C7
  1

  0
CIRCLE
  5
138
100
AcDbEntity
  8
____1
370
               5
390
0
  6
Continuous
 62
               7
100
AcDbCircle
 10
1298.4498718557131
 20
-321.10833333333335
 30
0.0
 40
4.0
  0
MTEXT
  5
139
100
AcDbEntity
  8
____1
370
               5
390
0
  6
Continuous
 62
               7
100
AcDbMText
 10
-30.163713187240546
 20
-18.236111164093018
 30
0.0
 40
3.5277776718139648
 41
1.7638888359069824
 71
               1
 72
               1
  1
1
  7
Style1
 73
               1
 44
1.0
  0
LINE
  5
13A
100
AcDbEntity
  8
寸法線_1
370
               5
390
0
  6
Continuous
 62
               7
100
AcDbLine
 10
-35.948435435953797
 20
-20.0
 30
0.0
 11
-33.281768769287055
 21
-20.0
 31
0.0
  0
LINE
  5
13B
100
AcDbEntity
  8
寸法線_1
370
               5
390
0
  6
Continuous
 62
               7
100
AcDbLine
 10
-61.814018949487263
 20
-0.2715519354775893
 30
0.0
 11
-35.948435435953797
 21
-20.0
 31
0.0
  0
SOLID
  5
13C
100
AcDbEntity
  8
寸法線_1
390
0
 62
               7
100
AcDbTrace
 10
-61.814018949487263
 20
-0.2715519354775893
 30
0.0
 11
-60.981267516606131
 21
-1.3136052724149787
 31
0.0
 12
-61.814018949487263
 22
-0.2715519354775893
 32
0.0
 13
-61.042302643288103
 23
-0.8601628616308411
 33
0.0
  0
SOLID
  5
13D
100
AcDbEntity
  8
寸法線_1
390
0
 62
               7
100
AcDbTrace
 10
-61.042302643288103
 20
-0.8601628616308411
 30
0.0
 11
-60.588860232503968
 21
-0.7991277349488717
 31
0.0
 12
-61.814018949487263
 22
-0.2715519354775893
 32
0.0
 13
-61.814018949487263
 23
-0.2715519354775893
 33
0.0
  0
ENDBLK
  5
13E
100
AcDbEntity
  8
0
390
0
100
AcDbBlockEnd
  0
BLOCK
  5
142
100
AcDbEntity
  8
0
390
0
100
AcDbBlockBegin
  2
C8
 70
              64
 10
0.0
 20
0.0
 30
0.0
  3
C8
  1

  0
LINE
  5
143
100
AcDbEntity
  8
____1
370
               5
390
0
  6
CENTER
 62
               7
100
AcDbLine
 10
-65.553935322333245
 20
45.090584977700772
 30
0.0
 11
-68.553935322333245
 21
45.090584977700772
 31
0.0
  0
LINE
  5
144
100
AcDbEntity
  8
____1
370
               5
390
0
  6
CENTER
 62
               7
100
AcDbLine
 10
-65.553935322333245
 20
45.090584977700772
 30
0.0
 11
-65.553935322333245
 21
42.090584977700772
 31
0.0
  0
LINE
  5
145
100
AcDbEntity
  8
____1
370
               5
390
0
  6
CENTER
 62
               7
100
AcDbLine
 10
-65.553935322333245
 20
45.090584977700772
 30
0.0
 11
-62.553935322333231
 21
45.090584977700772
 31
0.0
  0
LINE
  5
146
100
AcDbEntity
  8
____1
370
               5
390
0
  6
CENTER
 62
               7
100
AcDbLine
 10
-65.553935322333245
 20
45.090584977700772
 30
0.0
 11
-65.553935322333245
 21
48.090584977700772
 31
0.0
  0
ENDBLK
  5
147
100
AcDbEntity
  8
0
390
0
100
AcDbBlockEnd
  0
BLOCK
  5
16D
100
AcDbEntity
  8
0
390
0
100
AcDbBlockBegin
  2
C9
 70
              64
 10
0.0
 20
0.0
 30
0.0
  3
C9
  1

  0
LINE
  5
16E
100
AcDbEntity
  8
____1
370
               5
390
0
  6
CENTER
 62
               7
100
AcDbLine
 10
-71.3539353223332
 20
-29.724833360113166
 30
0.0
 11
-77.434304785025006
 21
-29.724833360113166
 31
0.0
  0
LINE
  5
16F
100
AcDbEntity
  8
____1
370
               5
390
0
  6
CENTER
 62
               7
100
AcDbLine
 10
-71.3539353223332
 20
-29.724833360113166
 30
0.0
 11
-71.3539353223332
 21
-35.805202822804915
 31
0.0
  0
LINE
  5
170
100
AcDbEntity
  8
____1
370
               5
390
0
  6
CENTER
 62
               7
100
AcDbLine
 10
-71.3539353223332
 20
-29.724833360113166
 30
0.0
 11
-65.273565859641394
 21
-29.724833360113166
 31
0.0
  0
LINE
  5
171
100
AcDbEntity
  8
____1
370
               5
390
0
  6
CENTER
 62
               7
100
AcDbLine
 10
-71.3539353223332
 20
-29.724833360113166
 30
0.0
 11
-71.3539353223332
 21
-23.644463897421414
 31
0.0
  0
ENDBLK
  5
172
100
AcDbEntity
  8
0
390
0
100
AcDbBlockEnd
  0
BLOCK
  5
17F
100
AcDbEntity
  8
0
390
0
100
AcDbBlockBegin
  2
C10
 70
               0
 10
0.0
 20
0.0
 30
0.0
  3
C10
  1

  0
CIRCLE
  5
180
100
AcDbEntity
  8
____1
370
               5
390
0
  6
Continuous
 62
               7
100
AcDbCircle
 10
1298.4498718557131
 20
-321.10833333333335
 30
0.0
 40
4.0
  0
MTEXT
  5
181
100
AcDbEntity
  8
____1
370
               5
390
0
  6
Continuous
 62
               7
100
AcDbMText
 10
-30.163713187240546
 20
-18.236111164093018
 30
0.0
 40
3.5277776718139648
 41
1.7638888359069824
 71
               1
 72
               1
  1
1
  7
Style1
 73
               1
 44
1.0
  0
LINE
  5
182
100
AcDbEntity
  8
寸法線_1
370
               5
390
0
  6
Continuous
 62
               7
100
AcDbLine
 10
-35.948435435953797
 20
-20.0
 30
0.0
 11
-33.281768769287055
 21
-20.0
 31
0.0
  0
LINE
  5
183
100
AcDbEntity
  8
寸法線_1
370
               5
390
0
  6
Continuous
 62
               7
100
AcDbLine
 10
-61.814018949487263
 20
-0.2715519354775893
 30
0.0
 11
-35.948435435953797
 21
-20.0
 31
0.0
  0
SOLID
  5
184
100
AcDbEntity
  8
寸法線_1
390
0
 62
               7
100
AcDbTrace
 10
-61.814018949487263
 20
-0.2715519354775893
 30
0.0
 11
-60.981267516606131
 21
-1.3136052724149787
 31
0.0
 12
-61.814018949487263
 22
-0.2715519354775893
 32
0.0
 13
-61.042302643288103
 23
-0.8601628616308411
 33
0.0
  0
SOLID
  5
185
100
AcDbEntity
  8
寸法線_1
390
0
 62
               7
100
AcDbTrace
 10
-61.042302643288103
 20
-0.8601628616308411
 30
0.0
 11
-60.588860232503968
 21
-0.7991277349488717
 31
0.0
 12
-61.814018949487263
 22
-0.2715519354775893
 32
0.0
 13
-61.814018949487263
 23
-0.2715519354775893
 33
0.0
  0
ENDBLK
  5
186
100
AcDbEntity
  8
0
390
0
100
AcDbBlockEnd
  0
BLOCK
  5
1B3
100
AcDbEntity
  8
0
390
0
100
AcDbBlockBegin
  2
*D14
 70
              65
 10
0.0
 20
0.0
 30
0.0
  3
*D14
  1

  0
LINE
  5
1B4
100
AcDbEntity
  8
____1
370
              50
390
0
  6
Continuous
 62
               7
100
AcDbLine
 10
-50.276940279896593
 20
7.1471131207249634
 30
0.0
 11
-50.276940279896593
 21
-0.8528921979411628
 31
0.0
  0
LINE
  5
1B5
100
AcDbEntity
  8
____1
370
              50
390
0
  6
Continuous
 62
               7
100
AcDbLine
 10
-61.72216212331476
 20
-0.8528921979411628
 30
0.0
 11
-48.276940279896593
 21
-0.8528921979411628
 31
0.0
  0
LINE
  5
1B6
100
AcDbEntity
  8
____1
370
              50
390
0
  6
Continuous
 62
               7
100
AcDbLine
 10
-60.353934854019585
 20
7.1471131207249634
 30
0.0
 11
-48.276940279896593
 21
7.1471131207249634
 31
0.0
  0
SOLID
  5
1B7
100
AcDbEntity
  8
____1
370
               5
390
0
  6
Continuous
 62
               7
100
AcDbTrace
 10
-50.276940279896593
 20
7.1471131207249634
 30
0.0
 11
-50.276940279896593
 21
7.1471131207249634
 31
0.0
 12
-50.762226009066438
 22
8.9582239748738282
 32
0.0
 13
-49.791654550726747
 23
8.9582239748738282
 33
0.0
  0
SOLID
  5
1B8
100
AcDbEntity
  8
____1
370
               5
390
0
  6
Continuous
 62
               7
100
AcDbTrace
 10
-50.762226009066438
 20
8.9582239748738282
 30
0.0
 11
-50.276940279896593
 21
8.9582239748738282
 31
0.0
 12
-50.92398791878972
 22
9.5619275929234497
 32
0.0
 13
-50.92398791878972
 23
9.5619275929234497
 33
0.0
  0
SOLID
  5
1B9
100
AcDbEntity
  8
____1
370
               5
390
0
  6
Continuous
 62
               7
100
AcDbTrace
 10
-50.276940279896593
 20
8.9582239748738282
 30
0.0
 11
-49.791654550726747
 21
8.9582239748738282
 31
0.0
 12
-49.629892641003465
 22
9.5619275929234497
 32
0.0
 13
-49.629892641003465
 23
9.5619275929234497
 33
0.0
  0
LINE
  5
1BA
100
AcDbEntity
  8
____1
370
              50
390
0
  6
Continuous
 62
               7
100
AcDbLine
 10
-50.276940279896593
 20
7.1471131207249634
 30
0.0
 11
-50.276940279896593
 21
12.147113120724963
 31
0.0
  0
SOLID
  5
1BB
100
AcDbEntity
  8
____1
370
               5
390
0
  6
Continuous
 62
               7
100
AcDbTrace
 10
-50.92398791878972
 20
-3.2677066701396491
 30
0.0
 11
-50.92398791878972
 21
-3.2677066701396491
 31
0.0
 12
-50.762226009066438
 22
-2.6640030520900275
 32
0.0
 13
-50.276940279896593
 23
-2.6640030520900275
 33
0.0
  0
SOLID
  5
1BC
100
AcDbEntity
  8
____1
370
               5
390
0
  6
Continuous
 62
               7
100
AcDbTrace
 10
-49.629892641003465
 20
-3.2677066701396491
 30
0.0
 11
-49.629892641003465
 21
-3.2677066701396491
 31
0.0
 12
-50.276940279896593
 22
-2.6640030520900275
 32
0.0
 13
-49.791654550726747
 23
-2.6640030520900275
 33
0.0
  0
SOLID
  5
1BD
100
AcDbEntity
  8
____1
370
               5
390
0
  6
Continuous
 62
               7
100
AcDbTrace
 10
-50.762226009066438
 20
-2.6640030520900275
 30
0.0
 11
-49.791654550726747
 21
-2.6640030520900275
 31
0.0
 12
-50.276940279896593
 22
-0.8528921979411628
 32
0.0
 13
-50.276940279896593
 23
-0.8528921979411628
 33
0.0
  0
LINE
  5
1BE
100
AcDbEntity
  8
____1
370
              50
390
0
  6
Continuous
 62
               7
100
AcDbLine
 10
-50.276940279896593
 20
-0.8528921979411628
 30
0.0
 11
-50.276940279896593
 21
-5.8528921979411628
 31
0.0
  0
MTEXT
  5
1BF
100
AcDbEntity
  8
寸法線_1
370
               5
390
0
  6
CENTER2
 62
               7
100
AcDbMText
 10
-54.804717951710558
 20
2.2967684136284401
 30
0.0
 40
3.5277776718139648
 41
1.7707790266722441
 71
               1
 72
               1
  1
8
  7
Style1
 11
0.0
 21
1.0
 31
0.0
 73
               1
 44
1.0
  0
ENDBLK
  5
1C0
100
AcDbEntity
  8
0
390
0
100
AcDbBlockEnd
  0
BLOCK
  5
1C3
100
AcDbEntity
  8
0
390
0
100
AcDbBlockBegin
  2
C11
 70
              64
 10
0.0
 20
0.0
 30
0.0
  3
C11
  1

  0
ARC
  5
1C4
100
AcDbEntity
  8
0_1
370
               5
390
0
  6
Continuous
 62
               7
100
AcDbCircle
 10
38.588485860341066
 20
1.4166180361347172
 30
0.0
 40
5.3374999999999924
100
AcDbArc
 50
129.60192699999993
 51
174.01013100000006
  0
ARC
  5
1C5
100
AcDbEntity
  8
0_1
370
               5
390
0
  6
Continuous
 62
               7
100
AcDbCircle
 10
35.875985860341075
 20
3.1666180361347172
 30
0.0
 40
0.4375000000000142
100
AcDbArc
 50
180.0
 51
-90.0
  0
LINE
  5
1C6
100
AcDbEntity
  8
0_1
370
               5
390
0
  6
Continuous
 62
               7
100
AcDbLine
 10
33.506008110341057
 20
1.8286537861347156
 30
0.0
 11
33.410660235341055
 21
1.8286537861347156
 31
0.0
  0
LINE
  5
1C7
100
AcDbEntity
  8
0_1
370
               5
390
0
  6
Continuous
 62
               7
100
AcDbLine
 10
35.438485860341061
 20
5.5291180361347134
 30
0.0
 11
35.186096485341054
 21
5.5291180361347134
 31
0.0
  0
LINE
  5
1C8
100
AcDbEntity
  8
0_1
370
               5
390
0
  6
PHANTOM2
 62
               7
100
AcDbLine
 10
33.593508110341062
 20
3.2978689111347137
 30
0.0
 11
35.357263985341049
 21
2.4184930361347141
 31
0.0
  0
LINE
  5
1C9
100
AcDbEntity
  8
0_1
370
               5
390
0
  6
Continuous
 62
               7
100
AcDbLine
 10
35.875985860341075
 20
2.7291180361347172
 30
0.0
 11
36.82973586034106
 21
3.2322430361347134
 31
0.0
  0
ARC
  5
1CA
100
AcDbEntity
  8
0_1
370
               5
390
0
  6
Continuous
 62
               7
100
AcDbCircle
 10
33.410660235341055
 20
1.9599037861347146
 30
0.0
 40
0.1312499999999957
100
AcDbArc
 50
174.01013099999986
 51
-90.0
  0
LINE
  5
1CB
100
AcDbEntity
  8
0_1
370
               5
390
0
  6
Continuous
 62
               7
100
AcDbLine
 10
46.55212773534106
 20
0.1041180361347171
 30
0.0
 11
35.875985860341075
 21
0.1041180361347171
 31
0.0
  0
LINE
  5
1CC
100
AcDbEntity
  8
0_1
370
               5
390
0
  6
Continuous
 62
               7
100
AcDbLine
 10
36.82973586034106
 20
-0.3990069638652855
 30
0.0
 11
46.55212773534106
 21
-0.3990069638652855
 31
0.0
  0
LINE
  5
1CD
100
AcDbEntity
  8
0_1
370
               5
390
0
  6
Continuous
 62
               7
100
AcDbLine
 10
33.593508110341062
 20
1.7411537861347144
 30
0.0
 11
33.593508110341062
 21
1.0920822861347137
 31
0.0
  0
ARC
  5
1CE
100
AcDbEntity
  8
0_1
370
               5
390
0
  6
Continuous
 62
               7
100
AcDbCircle
 10
38.588485860341066
 20
1.4166180361347172
 30
0.0
 40
5.3374999999999995
100
AcDbArc
 50
-174.01013099999997
 51
-129.60192699999988
  0
LINE
  5
1CF
100
AcDbEntity
  8
0_1
370
               5
390
0
  6
Continuous
 62
               7
100
AcDbLine
 10
35.438485860341061
 20
5.5291180361347134
 30
0.0
 11
35.438485860341061
 21
-2.6958819638652858
 31
0.0
  0
LINE
  5
1D0
100
AcDbEntity
  8
0_1
370
               5
390
0
  6
Continuous
 62
               7
100
AcDbLine
 10
35.186096485341054
 20
5.5291180361347134
 30
0.0
 11
35.186096485341054
 21
-2.6958819638652858
 31
0.0
  0
ARC
  5
1D1
100
AcDbEntity
  8
0_1
370
               5
390
0
  6
Continuous
 62
               7
100
AcDbCircle
 10
35.875985860341075
 20
-0.333381963865283
 30
0.0
 40
0.4375
100
AcDbArc
 50
90.0
 51
180.0
  0
LINE
  5
1D2
100
AcDbEntity
  8
0_1
370
               5
390
0
  6
Continuous
 62
               7
100
AcDbLine
 10
33.506008110341057
 20
1.0045822861347125
 30
0.0
 11
33.410660235341055
 21
1.0045822861347125
 31
0.0
  0
ARC
  5
1D3
100
AcDbEntity
  8
0_1
370
               5
390
0
  6
Continuous
 62
               7
100
AcDbCircle
 10
33.506008110341057
 20
1.7411537861347144
 30
0.0
 40
0.0875000000000057
100
AcDbArc
 50
0.0
 51
90.0
  0
LINE
  5
1D4
100
AcDbEntity
  8
0_1
370
               5
390
0
  6
PHANTOM2
 62
               7
100
AcDbLine
 10
33.593508110341062
 20
-0.4646328388652857
 30
0.0
 11
35.357263985341049
 21
0.4147430361347144
 31
0.0
  0
LINE
  5
1D5
100
AcDbEntity
  8
0_1
370
               5
390
0
  6
Continuous
 62
               7
100
AcDbLine
 10
49.330455735341047
 20
1.5782970361347166
 30
0.0
 11
46.55212773534106
 21
2.7291180361347172
 31
0.0
  0
LINE
  5
1D6
100
AcDbEntity
  8
0_1
370
               5
390
0
  6
Continuous
 62
               7
100
AcDbLine
 10
49.330455735341047
 20
1.5782970361347166
 30
0.0
 11
46.55212773534106
 21
3.2322430361347134
 31
0.0
  0
LINE
  5
1D7
100
AcDbEntity
  8
0_1
370
               5
390
0
  6
Continuous
 62
               7
100
AcDbLine
 10
35.875985860341075
 20
0.1041180361347171
 30
0.0
 11
36.82973586034106
 21
-0.3990069638652855
 31
0.0
  0
LINE
  5
1D8
100
AcDbEntity
  8
0_1
370
               5
390
0
  6
Continuous
 62
               7
100
AcDbLine
 10
36.82973586034106
 20
3.2322430361347134
 30
0.0
 11
36.82973586034106
 21
-0.3990069638652855
 31
0.0
  0
ARC
  5
1D9
100
AcDbEntity
  8
0_1
370
               5
390
0
  6
Continuous
 62
               7
100
AcDbCircle
 10
33.506008110341057
 20
1.0920822861347137
 30
0.0
 40
0.0875000000000012
100
AcDbArc
 50
-90.0
 51
0.0
  0
LINE
  5
1DA
100
AcDbEntity
  8
0_1
370
               5
390
0
  6
PHANTOM2
 62
               7
100
AcDbLine
 10
35.357263985341049
 20
2.4184930361347141
 30
0.0
 11
35.889970110341054
 21
1.4166180361347172
 31
0.0
  0
LINE
  5
1DB
100
AcDbEntity
  8
0_1
370
               5
390
0
  6
PHANTOM2
 62
               7
100
AcDbLine
 10
35.889970110341054
 20
1.4166180361347172
 30
0.0
 11
35.357263985341049
 21
0.4147430361347144
 31
0.0
  0
ARC
  5
1DC
100
AcDbEntity
  8
0_1
370
               5
390
0
  6
Continuous
 62
               7
100
AcDbCircle
 10
33.410660235341055
 20
0.8733322861347137
 30
0.0
 40
0.1312499999999988
100
AcDbArc
 50
90.0
 51
-174.01013099999969
  0
LINE
  5
1DD
100
AcDbEntity
  8
0_1
370
               5
390
0
  6
Continuous
 62
               7
100
AcDbLine
 10
46.55212773534106
 20
3.2322430361347134
 30
0.0
 11
46.55212773534106
 21
-0.3990069638652855
 31
0.0
  0
ARC
  5
1DE
100
AcDbEntity
  8
0_1
370
               5
390
0
  6
Continuous
 62
               7
100
AcDbCircle
 10
49.263485860341063
 20
1.4166180361347172
 30
0.0
 40
0.1749999999999932
100
AcDbArc
 50
-67.500000000007347
 51
67.50000000000658
  0
LINE
  5
1DF
100
AcDbEntity
  8
0_1
370
               5
390
0
  6
Continuous
 62
               7
100
AcDbLine
 10
49.330455735341047
 20
1.2549390361347177
 30
0.0
 11
46.55212773534106
 21
0.1041180361347171
 31
0.0
  0
LINE
  5
1E0
100
AcDbEntity
  8
0_1
370
               5
390
0
  6
Continuous
 62
               7
100
AcDbLine
 10
49.330455735341047
 20
1.2549390361347177
 30
0.0
 11
46.55212773534106
 21
-0.3990069638652855
 31
0.0
  0
LINE
  5
1E1
100
AcDbEntity
  8
0_1
370
               5
390
0
  6
Continuous
 62
               7
100
AcDbLine
 10
35.186096485341054
 20
-2.6958819638652858
 30
0.0
 11
35.438485860341061
 21
-2.6958819638652858
 31
0.0
  0
LINE
  5
1E2
100
AcDbEntity
  8
0_1
370
               5
390
0
  6
Continuous
 62
               7
100
AcDbLine
 10
46.55212773534106
 20
2.7291180361347172
 30
0.0
 11
35.875985860341075
 21
2.7291180361347172
 31
0.0
  0
LINE
  5
1E3
100
AcDbEntity
  8
0_1
370
               5
390
0
  6
Continuous
 62
               7
100
AcDbLine
 10
36.82973586034106
 20
3.2322430361347134
 30
0.0
 11
46.55212773534106
 21
3.2322430361347134
 31
0.0
  0
ENDBLK
  5
1E4
100
AcDbEntity
  8
0
390
0
100
AcDbBlockEnd
  0
BLOCK
  5
1ED
100
AcDbEntity
  8
0
390
0
100
AcDbBlockBegin
  2
C12
 70
              64
 10
0.0
 20
0.0
 30
0.0
  3
C12
  1

  0
SPLINE
  5
1EE
100
AcDbEntity
  8
___G
370
              18
390
0
  6
Continuous
 62
               7
100
AcDbSpline
210
0.0
220
0.0
230
1.0
 70
               0
 71
               3
 72
               8
 73
               4
 74
               0
 42
0.0000001
 43
0.0000001
 12
0.6676726695721045
 22
-0.7444549726521138
 32
0.0
 13
0.741315969719885
 23
-0.6711561912388697
 33
0.0
 40
0.0
 40
0.0
 40
0.0
 40
0.0
 40
1.0
 40
1.0
 40
1.0
 40
1.0
 10
67.493942156663309
 20
-93.578364055148853
 30
0.0
 10
67.717440098514487
 20
-93.827564242263378
 30
0.0
 10
67.940938040365666
 20
-94.076764429377789
 30
0.0
 10
68.183063844918649
 20
-94.295974913735535
 30
0.0
  0
MTEXT
  5
1EF
100
AcDbEntity
  8
____1
370
               5
390
0
  6
DOT
 62
               7
100
AcDbMText
 10
46.620804282144661
 20
90.688734125285336
 30
0.0
 40
3.1749999523162842
 41
8.0
 71
               1
 72
               1
  1
副番
  7
Style1
 73
               1
 44
1.0
  0
MTEXT
  5
1F0
100
AcDbEntity
  8
____1
370
               5
390
0
  6
DOT
 62
               7
100
AcDbMText
 10
120.62080428214466
 20
90.688734125285336
 30
0.0
 40
3.1749999523162842
 41
10.0
 71
               1
 72
               1
  1
改訂者
  7
Style1
 73
               1
 44
1.0
  0
MTEXT
  5
1F1
100
AcDbEntity
  8
____1
370
               5
390
0
  6
DOT
 62
               7
100
AcDbMText
 10
130.62080428214466
 20
90.688734125285336
 30
0.0
 40
3.1749999523162842
 41
10.000000000000028
 71
               1
 72
               1
  1
検認者
  7
Style1
 73
               1
 44
1.0
  0
MTEXT
  5
1F2
100
AcDbEntity
  8
____1
370
               5
390
0
  6
Continuous
 62
               7
100
AcDbMText
 10
70.620804282144661
 20
90.688734125285336
 30
0.0
 40
3.1749999523162842
 41
50.0
 71
               1
 72
               1
  1
改　訂　内　容
  7
Style1
 73
               1
 44
1.0
  0
MTEXT
  5
1F3
100
AcDbEntity
  8
____1
370
               5
390
0
  6
Continuous
 62
               7
100
AcDbMText
 10
54.620804282144661
 20
90.688734125285336
 30
0.0
 40
3.1749999523162842
 41
16.0
 71
               1
 72
               1
  1
改訂日
  7
Style1
 73
               1
 44
1.0
  0
LINE
  5
1F4
100
AcDbEntity
  8
____1
370
              18
390
0
  6
Continuous
 62
               7
100
AcDbLine
 10
46.620804282144661
 20
76.603734125285371
 30
0.0
 11
140.62080428214477
 21
76.603734125285371
 31
0.0
  0
LINE
  5
1F5
100
AcDbEntity
  8
____1
370
              18
390
0
  6
Continuous
 62
               7
100
AcDbLine
 10
46.620804282144661
 20
81.603734125285371
 30
0.0
 11
140.62080428214477
 21
81.603734125285371
 31
0.0
  0
LINE
  5
1F6
100
AcDbEntity
  8
____1
370
              18
390
0
  6
Continuous
 62
               7
100
AcDbLine
 10
46.620804282144661
 20
86.603734125285371
 30
0.0
 11
140.62080428214477
 21
86.603734125285371
 31
0.0
  0
LINE
  5
1F7
100
AcDbEntity
  8
____1
370
              18
390
0
  6
Continuous
 62
               7
100
AcDbLine
 10
130.62080428214466
 20
76.603734125285371
 30
0.0
 11
130.62080428214466
 21
91.603734125285371
 31
0.0
  0
LINE
  5
1F8
100
AcDbEntity
  8
____1
370
              18
390
0
  6
Continuous
 62
               7
100
AcDbLine
 10
46.620804282144661
 20
76.603734125285371
 30
0.0
 11
46.620804282144661
 21
91.603734125285371
 31
0.0
  0
LINE
  5
1F9
100
AcDbEntity
  8
____1
370
              18
390
0
  6
Continuous
 62
               7
100
AcDbLine
 10
47.861518896101927
 20
77.084525876288751
 30
0.0
 11
52.811518896102086
 21
77.084525876288751
 31
0.0
  0
LINE
  5
1FA
100
AcDbEntity
  8
____1
370
              18
390
0
  6
Continuous
 62
               7
100
AcDbLine
 10
50.33651889610195
 20
81.371351625021646
 30
0.0
 11
52.811518896102086
 21
77.084525876288751
 31
0.0
  0
LINE
  5
1FB
100
AcDbEntity
  8
____1
370
              18
390
0
  6
Continuous
 62
               7
100
AcDbLine
 10
50.33651889610195
 20
81.371351625021646
 30
0.0
 11
47.861518896101927
 21
77.084525876288751
 31
0.0
  0
LINE
  5
1FC
100
AcDbEntity
  8
____1
370
              18
390
0
  6
Continuous
 62
               7
100
AcDbLine
 10
50.33651889610195
 20
86.321351625021578
 30
0.0
 11
47.861518896101927
 21
82.034525876288569
 31
0.0
  0
LINE
  5
1FD
100
AcDbEntity
  8
____1
370
              18
390
0
  6
Continuous
 62
               7
100
AcDbLine
 10
50.33651889610195
 20
86.321351625021578
 30
0.0
 11
52.811518896102086
 21
82.034525876288569
 31
0.0
  0
LINE
  5
1FE
100
AcDbEntity
  8
____1
370
              18
390
0
  6
Continuous
 62
               7
100
AcDbLine
 10
47.861518896101927
 20
82.034525876288569
 30
0.0
 11
52.811518896102086
 21
82.034525876288569
 31
0.0
  0
LINE
  5
1FF
100
AcDbEntity
  8
____1
370
              18
390
0
  6
Continuous
 62
               7
100
AcDbLine
 10
54.620804282144661
 20
76.603734125285371
 30
0.0
 11
54.620804282144661
 21
91.603734125285371
 31
0.0
  0
LINE
  5
200
100
AcDbEntity
  8
____1
370
              18
390
0
  6
Continuous
 62
               7
100
AcDbLine
 10
120.62080428214466
 20
76.603734125285371
 30
0.0
 11
120.62080428214466
 21
91.603734125285371
 31
0.0
  0
LINE
  5
201
100
AcDbEntity
  8
____1
370
              18
390
0
  6
Continuous
 62
               7
100
AcDbLine
 10
70.620804282144661
 20
76.603734125285371
 30
0.0
 11
70.620804282144661
 21
91.603734125285371
 31
0.0
  0
LINE
  5
202
100
AcDbEntity
  8
___G
370
              18
390
0
  6
Continuous
 62
               7
100
AcDbLine
 10
62.618005648137853
 20
-92.868127501204384
 30
0.0
 11
62.618005648137853
 21
-94.06812750120443
 31
0.0
  0
LINE
  5
203
100
AcDbEntity
  8
___G
370
              18
390
0
  6
Continuous
 62
               7
100
AcDbLine
 10
77.080476615249552
 20
-97.268127501204361
 30
0.0
 11
79.320476615249447
 21
-97.268127501204361
 31
0.0
  0
LINE
  5
204
100
AcDbEntity
  8
___G
370
              18
390
0
  6
Continuous
 62
               7
100
AcDbLine
 10
57.818005648137898
 20
-92.868127501204384
 30
0.0
 11
57.818005648137898
 21
-92.468127501204435
 31
0.0
  0
LINE
  5
205
100
AcDbEntity
  8
___G
370
              18
390
0
  6
Continuous
 62
               7
100
AcDbLine
 10
68.375540489971911
 20
-94.083384225292406
 30
0.0
 11
68.183063844918649
 21
-94.295974913735535
 31
0.0
  0
LINE
  5
206
100
AcDbEntity
  8
___G
370
              18
390
0
  6
Continuous
 62
               7
100
AcDbLine
 10
70.23666597829282
 20
-95.147432468383357
 30
0.0
 11
70.094184330458972
 21
-95.286934983734881
 31
0.0
  0
LINE
  5
207
100
AcDbEntity
  8
___G
370
              18
390
0
  6
Continuous
 62
               7
100
AcDbLine
 10
78.583798813779197
 20
-94.708127501204416
 30
0.0
 11
78.399629363411748
 21
-94.06812750120443
 31
0.0
  0
LINE
  5
208
100
AcDbEntity
  8
___G
370
              18
390
0
  6
Continuous
 62
               7
100
AcDbLine
 10
54.897122598895351
 20
-92.868127501204384
 30
0.0
 11
54.897122598895351
 21
-94.06812750120443
 31
0.0
  0
LINE
  5
209
100
AcDbEntity
  8
___G
370
              18
390
0
  6
Continuous
 62
               7
100
AcDbLine
 10
64.746490496622698
 20
-95.668127501204452
 30
0.0
 11
64.746490496622698
 21
-96.868127501204384
 31
0.0
  0
CIRCLE
  5
20A
100
AcDbEntity
  8
___G
370
              18
390
0
  6
Continuous
 62
               7
100
AcDbCircle
 10
70.684804282144626
 20
-77.146265874714658
 30
0.0
 40
2.3039999999998599
  0
LINE
  5
20B
100
AcDbEntity
  8
___G
370
              18
390
0
  6
Continuous
 62
               7
100
AcDbLine
 10
75.951285093366607
 20
-75.994265874714714
 30
0.0
 11
80.559285093366668
 21
-74.84226587471467
 31
0.0
  0
LINE
  5
20C
100
AcDbEntity
  8
___G
370
              18
390
0
  6
Continuous
 62
               7
100
AcDbLine
 10
73.720476615249538
 20
-94.708127501204416
 30
0.0
 11
73.720476615249538
 21
-96.14812750120447
 31
0.0
  0
LINE
  5
20D
100
AcDbEntity
  8
___G
370
               5
390
0
  6
Continuous
 62
               7
100
AcDbLine
 10
24.620804282144547
 20
-61.896265874714658
 30
0.0
 11
24.620804282144547
 21
-72.896265874714658
 31
0.0
  0
LINE
  5
20E
100
AcDbEntity
  8
___G
370
               5
390
0
  6
Continuous
 62
               7
100
AcDbLine
 10
24.620804282144547
 20
-61.896265874714658
 30
0.0
 11
24.620804282144547
 21
-72.896265874714658
 31
0.0
  0
LINE
  5
20F
100
AcDbEntity
  8
____1
370
               5
390
0
  6
Continuous
 62
               7
100
AcDbLine
 10
123.12080428214466
 20
-56.396265874714658
 30
0.0
 11
123.12080428214466
 21
-39.896265874714658
 31
0.0
  0
LINE
  5
210
100
AcDbEntity
  8
____1
370
               5
390
0
  6
Continuous
 62
               7
100
AcDbLine
 10
113.12080428214455
 20
-56.396265874714658
 30
0.0
 11
113.12080428214455
 21
-39.896265874714658
 31
0.0
  0
LINE
  5
211
100
AcDbEntity
  8
____1
370
               5
390
0
  6
Continuous
 62
               7
100
AcDbLine
 10
73.120804282144661
 20
-56.396265874714658
 30
0.0
 11
73.120804282144661
 21
-39.896265874714658
 31
0.0
  0
LINE
  5
212
100
AcDbEntity
  8
____1
370
               5
390
0
  6
Continuous
 62
               7
100
AcDbLine
 10
33.120804282144661
 20
-56.396265874714658
 30
0.0
 11
33.120804282144661
 21
-39.896265874714658
 31
0.0
  0
LINE
  5
213
100
AcDbEntity
  8
____1
370
               5
390
0
  6
Continuous
 62
               7
100
AcDbLine
 10
24.620804282144661
 20
-39.896265874714658
 30
0.0
 11
24.620804282144661
 21
-56.396265874714658
 31
0.0
  0
LINE
  5
214
100
AcDbEntity
  8
____1
370
               5
390
0
  6
Continuous
 62
               7
100
AcDbLine
 10
24.620804282144661
 20
-39.896265874714658
 30
0.0
 11
140.62080428214466
 21
-39.896265874714658
 31
0.0
  0
LINE
  5
215
100
AcDbEntity
  8
____1
370
               5
390
0
  6
Continuous
 62
               7
100
AcDbLine
 10
24.620804282144661
 20
-45.396265874714658
 30
0.0
 11
140.62080428214466
 21
-45.396265874714658
 31
0.0
  0
LINE
  5
216
100
AcDbEntity
  8
____1
370
               5
390
0
  6
Continuous
 62
               7
100
AcDbLine
 10
24.620804282144661
 20
-50.896265874714658
 30
0.0
 11
140.62080428214466
 21
-50.896265874714658
 31
0.0
  0
LINE
  5
217
100
AcDbEntity
  8
____1
370
               5
390
0
  6
Continuous
 62
               7
100
AcDbLine
 10
24.620804282144661
 20
-56.396265874714658
 30
0.0
 11
140.62080428214466
 21
-56.396265874714658
 31
0.0
  0
SPLINE
  5
218
100
AcDbEntity
  8
___G
370
              18
390
0
  6
Continuous
 62
               7
100
AcDbSpline
210
0.0
220
0.0
230
1.0
 70
               0
 71
               3
 72
               8
 73
               4
 74
               0
 42
0.0000001
 43
0.0000001
 12
0.9618578240638687
 22
-0.2735498606965832
 32
0.0
 13
0.9860364361537883
 23
-0.1665297167989425
 33
0.0
 40
0.0
 40
0.0
 40
0.0
 40
0.0
 40
1.0
 40
1.0
 40
1.0
 40
1.0
 10
70.094184330458972
 20
-95.286934983734881
 30
0.0
 10
70.685999733282699
 20
-95.455245743340214
 30
0.0
 10
71.316245114952665
 20
-95.561686622272276
 30
0.0
 10
71.946490496622744
 20
-95.668127501204452
 30
0.0
  0
SPLINE
  5
219
100
AcDbEntity
  8
___G
370
              18
390
0
  6
Continuous
 62
               7
100
AcDbSpline
210
0.0
220
0.0
230
1.0
 70
               0
 71
               3
 72
               9
 73
               5
 74
               0
 42
0.0000001
 43
0.0000001
 12
0.7352773642103246
 22
-0.6777663297036209
 32
0.0
 13
0.8573032032596254
 23
-0.5148118274484234
 33
0.0
 40
0.0
 40
0.0
 40
0.0
 40
0.0
 40
0.9999999993702069
 40
1.0
 40
1.0
 40
1.0
 40
1.0
 10
64.746490496622698
 20
-93.383503929174566
 30
0.0
 10
65.51017417931638
 20
-94.087454726340383
 30
0.0
 10
66.273857862490843
 20
-94.791405523949464
 30
0.0
 10
67.13770686374113
 20
-95.310145345498512
 30
0.0
 10
67.137706864285235
 20
-95.310145345825248
 30
0.0
  0
SPLINE
  5
21A
100
AcDbEntity
  8
___G
370
              18
390
0
  6
Continuous
 62
               7
100
AcDbSpline
210
0.0
220
0.0
230
1.0
 70
               0
 71
               3
 72
               8
 73
               4
 74
               0
 42
0.0000001
 43
0.0000001
 12
0.952477318104519
 22
-0.3046095180660361
 32
0.0
 13
0.979066943480174
 23
-0.2035384980400263
 33
0.0
 40
0.0
 40
0.0
 40
0.0
 40
0.0
 40
1.0
 40
1.0
 40
1.0
 40
1.0
 10
69.113519931903113
 20
-96.177193644119228
 30
0.0
 10
70.024788960822605
 20
-96.468624436697127
 30
0.0
 10
70.985639728722674
 20
-96.668375968950812
 30
0.0
 10
71.946490496622744
 20
-96.868127501204384
 30
0.0
  0
MTEXT
  5
21B
100
AcDbEntity
  8
____1
370
               5
390
0
  6
Continuous
 62
               7
100
AcDbMText
 10
113.12080428214455
 20
-51.881265874714657
 30
0.0
 40
3.2999999523162842
 41
10.0
 71
               1
 72
               1
  1
数量
  7
Style1
 73
               1
 44
1.0
  0
MTEXT
  5
21C
100
AcDbEntity
  8
____1
370
               5
390
0
  6
Continuous
 62
               7
100
AcDbMText
 10
73.120804282144661
 20
-51.881265874714657
 30
0.0
 40
3.2999999523162842
 41
40.0
 71
               1
 72
               1
  1
材　　　質
  7
Style1
 73
               1
 44
1.0
  0
LINE
  5
21D
100
AcDbEntity
  8
___G
370
              18
390
0
  6
Continuous
 62
               7
100
AcDbLine
 10
59.418005648137921
 20
-92.868127501204384
 30
0.0
 11
57.818005648137898
 21
-92.868127501204384
 31
0.0
  0
LINE
  5
21E
100
AcDbEntity
  8
___G
370
              18
390
0
  6
Continuous
 62
               7
100
AcDbLine
 10
59.018005648137944
 20
-91.26812750120439
 30
0.0
 11
55.818005648137898
 21
-91.26812750120439
 31
0.0
  0
LINE
  5
21F
100
AcDbEntity
  8
___G
370
              18
390
0
  6
Continuous
 62
               7
100
AcDbLine
 10
57.818005648137898
 20
-92.468127501204435
 30
0.0
 11
59.018005648137944
 21
-91.26812750120439
 31
0.0
  0
LINE
  5
220
100
AcDbEntity
  8
___G
370
              18
390
0
  6
Continuous
 62
               7
100
AcDbLine
 10
55.818005648137898
 20
-92.868127501204384
 30
0.0
 11
54.897122598895351
 21
-92.868127501204384
 31
0.0
  0
ARC
  5
221
100
AcDbEntity
  8
___G
370
              18
390
0
  6
Continuous
 62
               7
100
AcDbCircle
 10
59.018005648137944
 20
-94.468127501204407
 30
0.0
 40
2.3999999999999773
210
-0.0
220
-0.0
230
1.0
100
AcDbArc
 50
-90.0
 51
0.0
  0
ARC
  5
222
100
AcDbEntity
  8
___G
370
              18
390
0
  6
Continuous
 62
               7
100
AcDbCircle
 10
65.706490496622735
 20
-92.628127501204517
 30
0.0
 40
3.0399999999998575
210
-0.0
220
0.0
230
1.0
100
AcDbArc
 50
-90.0
 51
-61.914095184791336
  0
LINE
  5
223
100
AcDbEntity
  8
___G
370
              18
390
0
  6
Continuous
 62
               7
100
AcDbLine
 10
78.399629363411748
 20
-94.06812750120443
 30
0.0
 11
80.92047661524947
 21
-94.06812750120443
 31
0.0
  0
LINE
  5
224
100
AcDbEntity
  8
___G
370
              18
390
0
  6
Continuous
 62
               7
100
AcDbLine
 10
59.418005648137921
 20
-91.26812750120439
 30
0.0
 11
59.418005648137921
 21
-92.868127501204384
 31
0.0
  0
LINE
  5
225
100
AcDbEntity
  8
___G
370
              18
390
0
  6
Continuous
 62
               7
100
AcDbLine
 10
80.92047661524947
 20
-94.708127501204416
 30
0.0
 11
80.92047661524947
 21
-96.14812750120447
 31
0.0
  0
LINE
  5
226
100
AcDbEntity
  8
___G
370
              18
390
0
  6
Continuous
 62
               7
100
AcDbLine
 10
71.946490496622744
 20
-95.668127501204452
 30
0.0
 11
71.946490496622744
 21
-96.868127501204384
 31
0.0
  0
LINE
  5
227
100
AcDbEntity
  8
___G
370
              18
390
0
  6
Continuous
 62
               7
100
AcDbLine
 10
55.818005648137898
 20
-94.06812750120443
 30
0.0
 11
55.697122598895305
 21
-94.06812750120443
 31
0.0
  0
LINE
  5
228
100
AcDbEntity
  8
___G
370
              18
390
0
  6
Continuous
 62
               7
100
AcDbLine
 10
55.818005648137898
 20
-95.668127501204452
 30
0.0
 11
55.818005648137898
 21
-96.868127501204384
 31
0.0
  0
ARC
  5
229
100
AcDbEntity
  8
___G
370
              18
390
0
  6
Continuous
 62
               7
100
AcDbCircle
 10
58.218005648137876
 20
-94.468127501204407
 30
0.0
 40
1.2000000000000455
210
-0.0
220
-0.0
230
1.0
100
AcDbArc
 50
-90.0
 51
0.0
  0
LINE
  5
22A
100
AcDbEntity
  8
___G
370
               5
390
0
  6
Continuous
 62
               7
100
AcDbLine
 10
24.620804282144661
 20
-72.896265874714658
 30
0.0
 11
140.62080428214466
 21
-72.896265874714658
 31
0.0
  0
LINE
  5
22B
100
AcDbEntity
  8
___G
370
               5
390
0
  6
Continuous
 62
               7
100
AcDbLine
 10
26.620804282144434
 20
-77.146265874714658
 30
0.0
 11
42.620804282144547
 21
-77.146265874714658
 31
0.0
  0
LINE
  5
22C
100
AcDbEntity
  8
___G
370
              18
390
0
  6
Continuous
 62
               7
100
AcDbLine
 10
73.720476615249538
 20
-94.06812750120443
 30
0.0
 11
76.141809948582761
 21
-94.06812750120443
 31
0.0
  0
LINE
  5
22D
100
AcDbEntity
  8
___G
370
              18
390
0
  6
Continuous
 62
               7
100
AcDbLine
 10
64.746490496622698
 20
-93.125815715189418
 30
0.0
 11
67.946490496622744
 21
-93.125815715189418
 31
0.0
  0
LINE
  5
22E
100
AcDbEntity
  8
___G
370
              18
390
0
  6
Continuous
 62
               7
100
AcDbLine
 10
61.418005648137921
 20
-94.468127501204407
 30
0.0
 11
61.418005648137921
 21
-94.06812750120443
 31
0.0
  0
LINE
  5
22F
100
AcDbEntity
  8
___G
370
              18
390
0
  6
Continuous
 62
               7
100
AcDbLine
 10
61.418005648137921
 20
-92.868127501204384
 30
0.0
 11
61.418005648137921
 21
-92.468127501204435
 31
0.0
  0
LINE
  5
230
100
AcDbEntity
  8
___G
370
              18
390
0
  6
Continuous
 62
               7
100
AcDbLine
 10
77.985248100084789
 20
-92.628127501204403
 30
0.0
 11
77.868132699905516
 21
-92.22114438883068
 31
0.0
  0
LINE
  5
231
100
AcDbEntity
  8
___G
370
              18
390
0
  6
Continuous
 62
               7
100
AcDbLine
 10
62.618005648137853
 20
-91.26812750120439
 30
0.0
 11
59.418005648137921
 21
-91.26812750120439
 31
0.0
  0
LINE
  5
232
100
AcDbEntity
  8
___G
370
              18
390
0
  6
Continuous
 62
               7
100
AcDbLine
 10
76.329543281916187
 20
-94.708127501204416
 30
0.0
 11
76.141809948582761
 21
-94.06812750120443
 31
0.0
  0
LINE
  5
233
100
AcDbEntity
  8
___G
370
              18
390
0
  6
Continuous
 62
               7
100
AcDbLine
 10
71.146490496622789
 20
-92.468127501204435
 30
0.0
 11
71.946490496622744
 21
-91.26812750120439
 31
0.0
  0
LINE
  5
234
100
AcDbEntity
  8
___G
370
              18
390
0
  6
Continuous
 62
               7
100
AcDbLine
 10
71.146490496622789
 20
-92.468127501204435
 30
0.0
 11
71.946490496622744
 21
-91.26812750120439
 31
0.0
  0
LINE
  5
235
100
AcDbEntity
  8
___G
370
              18
390
0
  6
Continuous
 62
               7
100
AcDbLine
 10
55.818005648137898
 20
-96.868127501204384
 30
0.0
 11
59.018005648137944
 21
-96.868127501204384
 31
0.0
  0
LINE
  5
236
100
AcDbEntity
  8
___G
370
              18
390
0
  6
Continuous
 62
               7
100
AcDbLine
 10
64.746490496622698
 20
-96.868127501204384
 30
0.0
 11
66.746490496622812
 21
-96.868127501204384
 31
0.0
  0
ARC
  5
237
100
AcDbEntity
  8
___G
370
              18
390
0
  6
Continuous
 62
               7
100
AcDbCircle
 10
65.706490496622735
 20
-92.628127501204517
 30
0.0
 40
3.0399999999999774
210
-0.0
220
0.0
230
1.0
100
AcDbArc
 50
-28.600718616738757
 51
-1.5079577542369229
  0
LINE
  5
238
100
AcDbEntity
  8
___G
370
              18
390
0
  6
Continuous
 62
               7
100
AcDbLine
 10
62.618005648137853
 20
-92.868127501204384
 30
0.0
 11
61.418005648137921
 21
-92.868127501204384
 31
0.0
  0
LINE
  5
239
100
AcDbEntity
  8
___G
370
              18
390
0
  6
Continuous
 62
               7
100
AcDbLine
 10
64.746490496622698
 20
-96.868127501204384
 30
0.0
 11
64.746490496622698
 21
-95.668127501204452
 31
0.0
  0
LINE
  5
23A
100
AcDbEntity
  8
___G
370
              18
390
0
  6
Continuous
 62
               7
100
AcDbLine
 10
79.320476615249447
 20
-97.268127501204361
 30
0.0
 11
78.998180077106269
 21
-96.14812750120447
 31
0.0
  0
LINE
  5
23B
100
AcDbEntity
  8
___G
370
              18
390
0
  6
Continuous
 62
               7
100
AcDbLine
 10
78.583798813779197
 20
-94.708127501204416
 30
0.0
 11
80.92047661524947
 21
-94.708127501204416
 31
0.0
  0
LINE
  5
23C
100
AcDbEntity
  8
___G
370
              18
390
0
  6
Continuous
 62
               7
100
AcDbLine
 10
73.720476615249538
 20
-92.628127501204517
 30
0.0
 11
75.719409948582722
 21
-92.628127501204517
 31
0.0
  0
LINE
  5
23D
100
AcDbEntity
  8
___G
370
              18
390
0
  6
Continuous
 62
               7
100
AcDbLine
 10
73.720476615249538
 20
-96.14812750120447
 30
0.0
 11
76.751943281916226
 21
-96.14812750120447
 31
0.0
  0
LINE
  5
23E
100
AcDbEntity
  8
___G
370
              18
390
0
  6
Continuous
 62
               7
100
AcDbLine
 10
71.946490496622744
 20
-91.26812750120439
 30
0.0
 11
64.746490496622698
 21
-91.26812750120439
 31
0.0
  0
LINE
  5
23F
100
AcDbEntity
  8
___G
370
              18
390
0
  6
Continuous
 62
               7
100
AcDbLine
 10
55.818005648137898
 20
-95.268127501204361
 30
0.0
 11
57.818005648137898
 21
-95.268127501204361
 31
0.0
  0
LINE
  5
240
100
AcDbEntity
  8
___G
370
              18
390
0
  6
Continuous
 62
               7
100
AcDbLine
 10
61.418005648137921
 20
-92.468127501204435
 30
0.0
 11
62.618005648137853
 21
-91.26812750120439
 31
0.0
  0
ARC
  5
241
100
AcDbEntity
  8
___G
370
              18
390
0
  6
Continuous
 62
               7
100
AcDbCircle
 10
66.746490496622698
 20
-92.468127501204435
 30
0.0
 40
4.4000000000000838
210
-0.0
220
0.0
230
1.0
100
AcDbArc
 50
-90.0
 51
-57.455041145953793
  0
LINE
  5
242
100
AcDbEntity
  8
___G
370
              18
390
0
  6
Continuous
 62
               7
100
AcDbLine
 10
54.897122598895351
 20
-94.06812750120443
 30
0.0
 11
55.697122598895305
 21
-94.06812750120443
 31
0.0
  0
LINE
  5
243
100
AcDbEntity
  8
___G
370
              18
390
0
  6
Continuous
 62
               7
100
AcDbLine
 10
73.720476615249538
 20
-94.708127501204416
 30
0.0
 11
76.329543281916187
 21
-94.708127501204416
 31
0.0
  0
LINE
  5
244
100
AcDbEntity
  8
___G
370
              18
390
0
  6
Continuous
 62
               7
100
AcDbLine
 10
64.746490496622698
 20
-91.26812750120439
 30
0.0
 11
64.746490496622698
 21
-92.708127501204416
 31
0.0
  0
LINE
  5
245
100
AcDbEntity
  8
___G
370
               5
390
0
  6
Continuous
 62
               7
100
AcDbLine
 10
84.620804282144547
 20
-72.896265874714629
 30
0.0
 11
84.620804282144547
 21
-98.396265874714658
 31
0.0
  0
LINE
  5
246
100
AcDbEntity
  8
___G
370
              18
390
0
  6
Continuous
 62
               7
100
AcDbLine
 10
80.559285093366668
 20
-74.84226587471467
 30
0.0
 11
80.559285093366668
 21
-79.450265874714759
 31
0.0
  0
LINE
  5
247
100
AcDbEntity
  8
___G
370
              18
390
0
  6
Continuous
 62
               7
100
AcDbLine
 10
57.818005648137898
 20
-95.268127501204361
 30
0.0
 11
57.818005648137898
 21
-94.06812750120443
 31
0.0
  0
LINE
  5
248
100
AcDbEntity
  8
___G
370
              18
390
0
  6
Continuous
 62
               7
100
AcDbLine
 10
78.998180077106269
 20
-96.14812750120447
 30
0.0
 11
80.92047661524947
 21
-96.14812750120447
 31
0.0
  0
LINE
  5
249
100
AcDbEntity
  8
___G
370
               5
390
0
  6
Continuous
 62
               7
100
AcDbLine
 10
44.620804282144547
 20
-72.896265874714658
 30
0.0
 11
44.620804282144547
 21
-61.896265874714658
 31
0.0
  0
LINE
  5
24A
100
AcDbEntity
  8
____1
370
               5
390
0
  6
Continuous
 62
               7
100
AcDbLine
 10
24.620804282144661
 20
-61.896265874714658
 30
0.0
 11
140.62080428214466
 21
-61.896265874714658
 31
0.0
  0
MTEXT
  5
24B
100
AcDbEntity
  8
____1
370
               5
390
0
  6
Continuous
 62
               7
100
AcDbMText
 10
24.620804282144661
 20
-51.881265874714657
 30
0.0
 40
3.2999999523162842
 41
8.5
 71
               1
 72
               1
  1
品番
  7
Style1
 73
               1
 44
1.0
  0
MTEXT
  5
24C
100
AcDbEntity
  8
____1
370
               5
390
0
  6
Continuous
 62
               7
100
AcDbMText
 10
33.120804282144661
 20
-51.881265874714657
 30
0.0
 40
3.2999999523162842
 41
39.999999999999972
 71
               1
 72
               1
  1
品　　　名
  7
Style1
 73
               1
 44
1.0
  0
MTEXT
  5
24D
100
AcDbEntity
  8
___G
370
               5
390
0
  6
Continuous
 62
               7
100
AcDbMText
 10
85.120804282144547
 20
-90.396265874714629
 30
0.0
 40
2.75
 41
9.3000000000000007
 71
               1
 72
               1
  1
図　番
  7
Style1
 73
               1
 44
1.0
  0
MTEXT
  5
24E
100
AcDbEntity
  8
___G
370
               5
390
0
  6
Continuous
 62
               7
100
AcDbMText
 10
85.120804282144547
 20
-73.396265874714629
 30
0.0
 40
2.75
 41
9.3000000000000007
 71
               1
 72
               1
  1
製品名
  7
Style1
 73
               1
 44
1.0
  0
LINE
  5
24F
100
AcDbEntity
  8
___G
370
              18
390
0
  6
Continuous
 62
               7
100
AcDbLine
 10
73.720476615249538
 20
-92.628127501204517
 30
0.0
 11
73.720476615249538
 21
-94.06812750120443
 31
0.0
  0
LINE
  5
250
100
AcDbEntity
  8
___G
370
              18
390
0
  6
Continuous
 62
               7
100
AcDbLine
 10
61.418005648137921
 20
-94.06812750120443
 30
0.0
 11
62.618005648137853
 21
-94.06812750120443
 31
0.0
  0
LINE
  5
251
100
AcDbEntity
  8
___G
370
              18
390
0
  6
Continuous
 62
               7
100
AcDbLine
 10
77.080476615249552
 20
-97.268127501204361
 30
0.0
 11
76.751943281916226
 21
-96.14812750120447
 31
0.0
  0
LINE
  5
252
100
AcDbEntity
  8
___G
370
              18
390
0
  6
Continuous
 62
               7
100
AcDbLine
 10
58.218005648137876
 20
-95.668127501204452
 30
0.0
 11
55.818005648137898
 21
-95.668127501204452
 31
0.0
  0
LINE
  5
253
100
AcDbEntity
  8
___G
370
              18
390
0
  6
Continuous
 62
               7
100
AcDbLine
 10
64.746490496622698
 20
-92.708127501204416
 30
0.0
 11
68.746490496622698
 21
-92.708127501204416
 31
0.0
  0
LINE
  5
254
100
AcDbEntity
  8
___G
370
              18
390
0
  6
Continuous
 62
               7
100
AcDbLine
 10
80.92047661524947
 20
-92.628127501204517
 30
0.0
 11
80.92047661524947
 21
-94.06812750120443
 31
0.0
  0
LINE
  5
255
100
AcDbEntity
  8
___G
370
              18
390
0
  6
Continuous
 62
               7
100
AcDbLine
 10
77.868132699905516
 20
-92.22114438883068
 30
0.0
 11
78.520476615249493
 21
-91.26812750120439
 31
0.0
  0
LINE
  5
256
100
AcDbEntity
  8
___G
370
              18
390
0
  6
Continuous
 62
               7
100
AcDbLine
 10
80.559285093366668
 20
-74.84226587471467
 30
0.0
 11
80.559285093366668
 21
-79.450265874714759
 31
0.0
  0
MTEXT
  5
257
100
AcDbEntity
  8
___G
370
               5
390
0
  6
Continuous
 62
               7
100
AcDbMText
 10
44.620804282144547
 20
-73.601799282071482
 30
0.0
 40
2.75
 41
20.0
 71
               1
 72
               1
  1
尺 　度
  7
Style1
 73
               1
 44
1.0
  0
LINE
  5
258
100
AcDbEntity
  8
___G
370
               5
390
0
  6
Continuous
 62
               7
100
AcDbLine
 10
46.620804282144547
 20
-77.146265874714658
 30
0.0
 11
60.620804282144547
 21
-77.146265874714658
 31
0.0
  0
LINE
  5
259
100
AcDbEntity
  8
___G
370
               5
390
0
  6
Continuous
 62
               7
100
AcDbLine
 10
56.620804282144547
 20
-85.646265874714658
 30
0.0
 11
82.620804282144547
 21
-85.646265874714658
 31
0.0
  0
LINE
  5
25A
100
AcDbEntity
  8
___G
370
               5
390
0
  6
Continuous
 62
               7
100
AcDbLine
 10
26.620804282144547
 20
-85.646265874714658
 30
0.0
 11
52.620804282144547
 21
-85.646265874714658
 31
0.0
  0
LINE
  5
25B
100
AcDbEntity
  8
___G
370
               5
390
0
  6
Continuous
 62
               7
100
AcDbLine
 10
64.620804282144547
 20
-72.896265874714658
 30
0.0
 11
64.620804282144547
 21
-81.396265874714658
 31
0.0
  0
LINE
  5
25C
100
AcDbEntity
  8
___G
370
               5
390
0
  6
Continuous
 62
               7
100
AcDbLine
 10
44.620804282144547
 20
-72.896265874714658
 30
0.0
 11
44.620804282144547
 21
-81.396265874714658
 31
0.0
  0
LINE
  5
25D
100
AcDbEntity
  8
___G
370
               5
390
0
  6
Continuous
 62
               7
100
AcDbLine
 10
54.620804282144547
 20
-81.396265874714672
 30
0.0
 11
54.620804282144547
 21
-89.896265874714686
 31
0.0
  0
MTEXT
  5
25E
100
AcDbEntity
  8
___G
370
               5
390
0
  6
Continuous
 62
               7
100
AcDbMText
 10
28.841358006927184
 20
-91.622932795694467
 30
0.0
 40
5.0799999237060547
 41
24.996311053240746
 71
               1
 72
               1
  1
株式会社
  7
Style1
 73
               1
 44
1.0
  0
LINE
  5
25F
100
AcDbEntity
  8
___G
370
               5
390
0
  6
Continuous
 62
               7
100
AcDbLine
 10
24.620804282144434
 20
-81.396265874714658
 30
0.0
 11
140.62080428214466
 21
-81.396265874714658
 31
0.0
  0
MTEXT
  5
260
100
AcDbEntity
  8
___G
370
               5
390
0
  6
Continuous
 62
               7
100
AcDbMText
 10
24.620804282144547
 20
-82.101799282071511
 30
0.0
 40
2.75
 41
8.0
 71
               1
 72
               1
  1
 設計
  7
Style1
 73
               1
 44
1.0
  0
LINE
  5
261
100
AcDbEntity
  8
___G
370
               5
390
0
  6
Continuous
 62
               7
100
AcDbLine
 10
24.620804282144661
 20
-89.896265874714658
 30
0.0
 11
140.62080428214466
 21
-89.896265874714658
 31
0.0
  0
LINE
  5
262
100
AcDbEntity
  8
___G
370
              18
390
0
  6
Continuous
 62
               7
100
AcDbLine
 10
55.818005648137898
 20
-94.06812750120443
 30
0.0
 11
55.818005648137898
 21
-95.268127501204361
 31
0.0
  0
LINE
  5
263
100
AcDbEntity
  8
___G
370
              18
390
0
  6
Continuous
 62
               7
100
AcDbLine
 10
55.818005648137898
 20
-91.26812750120439
 30
0.0
 11
55.818005648137898
 21
-92.868127501204384
 31
0.0
  0
LINE
  5
264
100
AcDbEntity
  8
___G
370
              18
390
0
  6
Continuous
 62
               7
100
AcDbLine
 10
64.746490496622698
 20
-95.668127501204452
 30
0.0
 11
65.706490496622735
 21
-95.668127501204452
 31
0.0
  0
LINE
  5
265
100
AcDbEntity
  8
___G
370
              18
390
0
  6
Continuous
 62
               7
100
AcDbLine
 10
75.320476615249447
 20
-91.26812750120439
 30
0.0
 11
78.520476615249493
 21
-91.26812750120439
 31
0.0
  0
LINE
  5
266
100
AcDbEntity
  8
___G
370
              18
390
0
  6
Continuous
 62
               7
100
AcDbLine
 10
75.951285093366607
 20
-75.994265874714714
 30
0.0
 11
75.951285093366607
 21
-78.298265874714701
 31
0.0
  0
CIRCLE
  5
267
100
AcDbEntity
  8
___G
370
              18
390
0
  6
Continuous
 62
               7
100
AcDbCircle
 10
70.684804282144626
 20
-77.146265874714658
 30
0.0
 40
2.3039999999998599
  0
CIRCLE
  5
268
100
AcDbEntity
  8
___G
370
              18
390
0
  6
Continuous
 62
               7
100
AcDbCircle
 10
70.684804282144626
 20
-77.146265874714658
 30
0.0
 40
1.1520000000000437
  0
LINE
  5
269
100
AcDbEntity
  8
___G
370
              18
390
0
  6
Continuous
 62
               7
100
AcDbLine
 10
75.951285093366607
 20
-78.298265874714701
 30
0.0
 11
80.559285093366668
 21
-79.450265874714759
 31
0.0
  0
LINE
  5
26A
100
AcDbEntity
  8
___G
370
              18
390
0
  6
Continuous
 62
               7
100
AcDbLine
 10
75.951285093366607
 20
-75.994265874714714
 30
0.0
 11
80.559285093366668
 21
-74.84226587471467
 31
0.0
  0
CIRCLE
  5
26B
100
AcDbEntity
  8
___G
370
              18
390
0
  6
Continuous
 62
               7
100
AcDbCircle
 10
70.684804282144626
 20
-77.146265874714658
 30
0.0
 40
1.1520000000000437
  0
LINE
  5
26C
100
AcDbEntity
  8
___G
370
              18
390
0
  6
Continuous
 62
               7
100
AcDbLine
 10
75.719409948582722
 20
-92.628127501204403
 30
0.0
 11
75.320476615249447
 21
-91.26812750120439
 31
0.0
  0
LINE
  5
26D
100
AcDbEntity
  8
___G
370
              18
390
0
  6
Continuous
 62
               7
100
AcDbLine
 10
77.985248100084789
 20
-92.628127501204517
 30
0.0
 11
80.92047661524947
 21
-92.628127501204517
 31
0.0
  0
LINE
  5
26E
100
AcDbEntity
  8
___G
370
              18
390
0
  6
Continuous
 62
               7
100
AcDbLine
 10
67.946490496622744
 20
-93.125815715189418
 30
0.0
 11
67.493942156663309
 21
-93.578364055148853
 31
0.0
  0
LINE
  5
26F
100
AcDbEntity
  8
___G
370
              18
390
0
  6
Continuous
 62
               7
100
AcDbLine
 10
64.746490496622698
 20
-93.383503929174566
 30
0.0
 11
64.746490496622698
 21
-93.125815715189418
 31
0.0
  0
LINE
  5
270
100
AcDbEntity
  8
___G
370
              18
390
0
  6
Continuous
 62
               7
100
AcDbLine
 10
59.418005648137921
 20
-94.06812750120443
 30
0.0
 11
59.418005648137921
 21
-94.468127501204407
 31
0.0
  0
LINE
  5
271
100
AcDbEntity
  8
___G
370
              18
390
0
  6
Continuous
 62
               7
100
AcDbLine
 10
57.818005648137898
 20
-94.06812750120443
 30
0.0
 11
59.418005648137921
 21
-94.06812750120443
 31
0.0
  0
ARC
  5
272
100
AcDbEntity
  8
___G
370
              18
390
0
  6
Continuous
 62
               7
100
AcDbCircle
 10
66.746490496622698
 20
-92.468127501204435
 30
0.0
 40
4.4000000000000909
210
-0.0
220
-0.0
230
1.0
100
AcDbArc
 50
-37.512388020300442
 51
0.0
  0
LINE
  5
273
100
AcDbEntity
  8
___G
370
              18
390
0
  6
CENTER2
 62
               7
100
AcDbLine
 10
70.684804282144626
 20
-73.69026587471474
 30
0.0
 11
70.684804282144626
 21
-80.602265874714703
 31
0.0
  0
LINE
  5
274
100
AcDbEntity
  8
___G
370
              18
390
0
  6
Continuous
 62
               7
100
AcDbLine
 10
80.559285093366668
 20
-74.84226587471467
 30
0.0
 11
80.559285093366668
 21
-79.450265874714759
 31
0.0
  0
LINE
  5
275
100
AcDbEntity
  8
___G
370
              18
390
0
  6
Continuous
 62
               7
100
AcDbLine
 10
75.951285093366607
 20
-75.994265874714714
 30
0.0
 11
75.951285093366607
 21
-78.298265874714701
 31
0.0
  0
LINE
  5
276
100
AcDbEntity
  8
___G
370
              18
390
0
  6
Continuous
 62
               7
100
AcDbLine
 10
75.951285093366607
 20
-78.298265874714701
 30
0.0
 11
80.559285093366668
 21
-79.450265874714759
 31
0.0
  0
LINE
  5
277
100
AcDbEntity
  8
___G
370
              18
390
0
  6
Continuous
 62
               7
100
AcDbLine
 10
75.951285093366607
 20
-75.994265874714714
 30
0.0
 11
80.559285093366668
 21
-74.84226587471467
 31
0.0
  0
CIRCLE
  5
278
100
AcDbEntity
  8
___G
370
              18
390
0
  6
Continuous
 62
               7
100
AcDbCircle
 10
70.684804282144626
 20
-77.146265874714658
 30
0.0
 40
2.3039999999998599
  0
CIRCLE
  5
279
100
AcDbEntity
  8
___G
370
              18
390
0
  6
Continuous
 62
               7
100
AcDbCircle
 10
70.684804282144626
 20
-77.146265874714658
 30
0.0
 40
1.1520000000000437
  0
LINE
  5
27A
100
AcDbEntity
  8
___G
370
              18
390
0
  6
CENTER2
 62
               7
100
AcDbLine
 10
67.228804282144495
 20
-77.146265874714658
 30
0.0
 11
82.0128042821446
 21
-77.146265874714658
 31
0.0
  0
CIRCLE
  5
27B
100
AcDbEntity
  8
___G
370
              18
390
0
  6
Continuous
 62
               7
100
AcDbCircle
 10
70.684804282144626
 20
-77.146265874714658
 30
0.0
 40
1.1520000000000437
  0
MTEXT
  5
27C
100
AcDbEntity
  8
___G
370
               5
390
0
  6
Continuous
 62
               7
100
AcDbMText
 10
24.620804282144547
 20
-73.601799282071482
 30
0.0
 40
2.75
 41
20.0
 71
               1
 72
               1
  1
日 　付
  7
Style1
 73
               1
 44
1.0
  0
LINE
  5
27D
100
AcDbEntity
  8
___G
370
               5
390
0
  6
Continuous
 62
               7
100
AcDbLine
 10
24.620804282144547
 20
-72.896265874714658
 30
0.0
 11
24.620804282144547
 21
-98.396265874714658
 31
0.0
  0
MTEXT
  5
27E
100
AcDbEntity
  8
___G
370
               5
390
0
  6
Continuous
 62
               7
100
AcDbMText
 10
85.120804282144547
 20
-81.896265874714658
 30
0.0
 40
2.75
 41
9.3000000000000007
 71
               1
 72
               1
  1
図面名
  7
Style1
 73
               1
 44
1.0
  0
LINE
  5
27F
100
AcDbEntity
  8
____1
370
              18
390
0
  6
Continuous
 62
               7
100
AcDbLine
 10
-134.37919571785534
 20
91.603734125285342
 30
0.0
 11
140.62080428214466
 21
91.603734125285342
 31
0.0
  0
LINE
  5
280
100
AcDbEntity
  8
____1
370
               5
390
0
  6
DOT
 62
               7
100
AcDbLine
 10
-140.37919571785534
 20
-104.14626587471466
 30
0.0
 11
146.62080428214466
 21
-104.14626587471466
 31
0.0
  0
LINE
  5
281
100
AcDbEntity
  8
____1
370
               5
390
0
  6
DOT
 62
               7
100
AcDbLine
 10
-140.37919571785534
 20
97.353734125285342
 30
0.0
 11
146.62080428214466
 21
97.353734125285342
 31
0.0
  0
LINE
  5
282
100
AcDbEntity
  8
____1
370
              18
390
0
  6
Continuous
 62
               7
100
AcDbLine
 10
-134.37919571785534
 20
-98.396265874714658
 30
0.0
 11
140.62080428214466
 21
-98.396265874714658
 31
0.0
  0
LINE
  5
283
100
AcDbEntity
  8
____1
370
               5
390
0
  6
DOT
 62
               7
100
AcDbLine
 10
-140.37619571785532
 20
-104.14626587471466
 30
0.0
 11
-140.37619571785532
 21
97.353734125285342
 31
0.0
  0
LINE
  5
284
100
AcDbEntity
  8
____1
370
              18
390
0
  6
Continuous
 62
               7
100
AcDbLine
 10
-134.37919571785534
 20
-98.396265874714658
 30
0.0
 11
-134.37919571785534
 21
91.603734125285314
 31
0.0
  0
LINE
  5
285
100
AcDbEntity
  8
____1
370
              18
390
0
  6
Continuous
 62
               7
100
AcDbLine
 10
140.62080428214466
 20
-98.396265874714658
 30
0.0
 11
140.62080428214466
 21
91.603734125285314
 31
0.0
  0
LINE
  5
286
100
AcDbEntity
  8
____1
370
               5
390
0
  6
DOT
 62
               7
100
AcDbLine
 10
146.62080428214466
 20
-104.14626587471466
 30
0.0
 11
146.62080428214466
 21
97.353734125285342
 31
0.0
  0
MTEXT
  5
287
100
AcDbEntity
  8
___G
370
               5
390
0
  6
Continuous
 62
               7
100
AcDbMText
 10
54.620804282144547
 20
-86.351799282071482
 30
0.0
 40
2.75
 41
7.9999999999999716
 71
               1
 72
               1
  1
 検図
  7
Style1
 73
               1
 44
1.0
  0
MTEXT
  5
288
100
AcDbEntity
  8
___G
370
               5
390
0
  6
Continuous
 62
               7
100
AcDbMText
 10
54.620804282144547
 20
-82.101799282071482
 30
0.0
 40
2.75
 41
8.0
 71
               1
 72
               1
  1
 照査
  7
Style1
 73
               1
 44
1.0
  0
MTEXT
  5
289
100
AcDbEntity
  8
___G
370
               5
390
0
  6
Continuous
 62
               7
100
AcDbMText
 10
24.620804282144547
 20
-86.351799282071511
 30
0.0
 40
2.75
 41
7.9999999999999716
 71
               1
 72
               1
  1
製図
  7
Style1
 73
               1
 44
1.0
  0
MTEXT
  5
28A
100
AcDbEntity
  8
___G
370
              18
390
0
  6
Continuous
 62
               7
100
AcDbMText
 10
24.620804282144434
 20
-62.996265874714652
 30
0.0
 40
3.2999999523162842
 41
20.000000000000114
 71
               1
 72
               1
  1
表面処理
  7
Style1
 73
               1
 44
1.0
  0
MTEXT
  5
28B
100
AcDbEntity
  8
___G
370
              18
390
0
  6
Continuous
 62
               7
100
AcDbMText
 10
24.620804282144434
 20
-68.496265874714652
 30
0.0
 40
3.2999999523162842
 41
20.000000000000114
 71
               1
 72
               1
  1
一般公差
  7
Style1
 73
               1
 44
1.0
  0
LINE
  5
28C
100
AcDbEntity
  8
___G
370
               5
390
0
  6
Continuous
 62
               7
100
AcDbLine
 10
24.620804282144434
 20
-67.396265874714658
 30
0.0
 11
140.62080428214466
 21
-67.396265874714658
 31
0.0
  0
LINE
  5
28D
100
AcDbEntity
  8
___G
370
               5
390
0
  6
Continuous
 62
               7
100
AcDbLine
 10
24.620804282144434
 20
-61.896265874714658
 30
0.0
 11
140.62080428214466
 21
-61.896265874714658
 31
0.0
  0
LINE
  5
28E
100
AcDbEntity
  8
___G
370
              18
390
0
  6
CENTER2
 62
               7
100
AcDbLine
 10
70.684804282144626
 20
-73.69026587471474
 30
0.0
 11
70.684804282144626
 21
-80.602265874714703
 31
0.0
  0
LINE
  5
28F
100
AcDbEntity
  8
___G
370
              18
390
0
  6
CENTER2
 62
               7
100
AcDbLine
 10
70.684804282144626
 20
-73.69026587471474
 30
0.0
 11
70.684804282144626
 21
-80.602265874714703
 31
0.0
  0
LINE
  5
290
100
AcDbEntity
  8
___G
370
              18
390
0
  6
Continuous
 62
               7
100
AcDbLine
 10
80.559285093366668
 20
-74.84226587471467
 30
0.0
 11
80.559285093366668
 21
-79.450265874714759
 31
0.0
  0
LINE
  5
291
100
AcDbEntity
  8
___G
370
              18
390
0
  6
Continuous
 62
               7
100
AcDbLine
 10
75.951285093366607
 20
-78.298265874714701
 30
0.0
 11
80.559285093366668
 21
-79.450265874714759
 31
0.0
  0
LINE
  5
292
100
AcDbEntity
  8
___G
370
              18
390
0
  6
Continuous
 62
               7
100
AcDbLine
 10
75.951285093366607
 20
-75.994265874714714
 30
0.0
 11
75.951285093366607
 21
-78.298265874714701
 31
0.0
  0
LINE
  5
293
100
AcDbEntity
  8
___G
370
              18
390
0
  6
CENTER2
 62
               7
100
AcDbLine
 10
70.684804282144626
 20
-73.69026587471474
 30
0.0
 11
70.684804282144626
 21
-80.602265874714703
 31
0.0
  0
LINE
  5
294
100
AcDbEntity
  8
___G
370
              18
390
0
  6
Continuous
 62
               7
100
AcDbLine
 10
75.951285093366607
 20
-75.994265874714714
 30
0.0
 11
75.951285093366607
 21
-78.298265874714701
 31
0.0
  0
CIRCLE
  5
295
100
AcDbEntity
  8
___G
370
              18
390
0
  6
Continuous
 62
               7
100
AcDbCircle
 10
70.684804282144626
 20
-77.146265874714658
 30
0.0
 40
2.3039999999998599
  0
LINE
  5
296
100
AcDbEntity
  8
___G
370
              18
390
0
  6
Continuous
 62
               7
100
AcDbLine
 10
75.951285093366607
 20
-75.994265874714714
 30
0.0
 11
80.559285093366668
 21
-74.84226587471467
 31
0.0
  0
LINE
  5
297
100
AcDbEntity
  8
___G
370
              18
390
0
  6
Continuous
 62
               7
100
AcDbLine
 10
75.951285093366607
 20
-78.298265874714701
 30
0.0
 11
80.559285093366668
 21
-79.450265874714759
 31
0.0
  0
ENDBLK
  5
298
100
AcDbEntity
  8
0
390
0
100
AcDbBlockEnd
  0
ENDSEC
  0
SECTION
  2
ENTITIES
  0
ARC
  5
3C
100
AcDbEntity
  8
________1________1
370
              18
390
0
  6
Continuous
 62
               7
100
AcDbCircle
 10
85.175351651954458
 20
45.102648342964955
 30
0.0
 40
1.0000000000000122
100
AcDbArc
 50
-46.500000000000917
 51
-2.9999999999574509
  0
LINE
  5
3D
100
AcDbEntity
  8
________1________1
370
              18
390
0
  6
Continuous
 62
               7
100
AcDbLine
 10
86.543578921244972
 20
52.10265366163037
 30
0.0000000000000023
 11
86.173980902121684
 21
45.050310388467537
 31
0.0000000000000023
  0
LINE
  5
3E
100
AcDbEntity
  8
____1
370
              50
390
0
  6
Continuous
 62
               7
100
AcDbLine
 10
57.5
 20
33.5
 30
0.0
 11
134.0
 21
33.5
 31
0.0
  0
LINE
  5
3F
100
AcDbEntity
  8
____1
370
              50
390
0
  6
Continuous
 62
               7
100
AcDbLine
 10
134.0
 20
33.5
 30
0.0
 11
134.0
 21
71.5
 31
0.0
  0
LINE
  5
40
100
AcDbEntity
  8
____1
370
              50
390
0
  6
Continuous
 62
               7
100
AcDbLine
 10
134.0
 20
71.5
 30
0.0
 11
57.5
 21
71.5
 31
0.0
  0
LINE
  5
41
100
AcDbEntity
  8
____1
370
              50
390
0
  6
Continuous
 62
               7
100
AcDbLine
 10
57.5
 20
71.5
 30
0.0
 11
57.5
 21
33.5
 31
0.0
  0
DIMENSION
  5
52
100
AcDbEntity
  8
寸法線_1
370
               5
390
0
  6
Continuous
 62
               7
100
AcDbDimension
  2
*D0
 10
96.543578921247303
 20
52.102653661630356
 30
0.0
 11
96.543578921247303
 21
53.836910012541964
 31
0.0
 71
               5
 72
               1
 41
1.0
 42
0.0
  3
DS1
100
AcDbAlignedDimension
 13
76.543578452933701
 23
63.102648342964969
 33
0.0
 14
86.543578921247303
 24
52.102653661630356
 34
0.0
 50
90.0
100
AcDbRotatedDimension
  0
MTEXT
  5
54
100
AcDbEntity
  8
____1
370
              50
390
0
  6
Continuous
 62
               7
100
AcDbMText
 10
98.660245587913963
 20
60.777651073823236
 30
0.0
 40
3.1749999523162842
 41
32.622684716871561
 71
               1
 72
               1
  1
＊ビス突出寸法。\P（棚板 厚み注意）
  7
Style1
 73
               1
 44
1.0
  0
LINE
  5
55
100
AcDbEntity
  8
________1________1
370
              18
390
0
  6
Continuous
 62
               7
100
AcDbLine
 10
85.175351651951985
 20
44.102648342964258
 30
0.0
 11
83.12842761440524
 21
44.102648342964258
 31
0.0
  0
LINE
  5
56
100
AcDbEntity
  8
________1________1
370
              18
390
0
  6
Continuous
 62
               7
100
AcDbLine
 10
66.543578263362065
 20
52.102648342964969
 30
0.0000000000000023
 11
66.913176003745633
 21
45.050310388467537
 31
0.0000000000000023
  0
LINE
  5
57
100
AcDbEntity
  8
________1________1
370
              18
390
0
  6
Continuous
 62
               7
100
AcDbLine
 10
69.958729291461765
 20
45.050312386723903
 30
0.0
 11
69.958729291461765
 21
52.102648342964969
 31
0.0
  0
LINE
  5
58
100
AcDbEntity
  8
0_1
370
               5
390
0
  6
Continuous
 62
               7
100
AcDbLine
 10
78.359203452933713
 20
52.102648342964969
 30
0.0
 11
78.359203452933713
 21
60.216290217964968
 31
0.0
  0
LINE
  5
59
100
AcDbEntity
  8
0_1
370
               5
390
0
  6
Continuous
 62
               7
100
AcDbLine
 10
77.85607845293373
 20
60.216290217964968
 30
0.0
 11
77.85607845293373
 21
52.102648342964962
 31
0.0
  0
LINE
  5
5A
100
AcDbEntity
  8
0_1
370
               5
390
0
  6
Continuous
 62
               7
100
AcDbLine
 10
75.23107845293373
 20
60.216290217964968
 30
0.0
 11
75.23107845293373
 21
52.102648342964962
 31
0.0
  0
LINE
  5
5B
100
AcDbEntity
  8
0_1
370
               5
390
0
  6
Continuous
 62
               7
100
AcDbLine
 10
74.727953452933718
 20
52.102648342964969
 30
0.0
 11
74.727953452933718
 21
60.216290217964968
 31
0.0
  0
LINE
  5
5C
100
AcDbEntity
  8
0_1
370
               5
390
0
  6
Continuous
 62
               7
100
AcDbLine
 10
76.381899452933709
 20
62.994618217964955
 30
0.0
 11
74.727953452933718
 21
60.216290217964968
 31
0.0
  0
LINE
  5
5D
100
AcDbEntity
  8
0_1
370
               5
390
0
  6
Continuous
 62
               7
100
AcDbLine
 10
76.381899452933709
 20
62.994618217964955
 30
0.0
 11
75.23107845293373
 21
60.216290217964968
 31
0.0
  0
LINE
  5
5E
100
AcDbEntity
  8
0_1
370
               5
390
0
  6
Continuous
 62
               7
100
AcDbLine
 10
76.705257452933722
 20
62.994618217964955
 30
0.0
 11
78.359203452933713
 21
60.216290217964968
 31
0.0
  0
LINE
  5
5F
100
AcDbEntity
  8
0_1
370
               5
390
0
  6
Continuous
 62
               7
100
AcDbLine
 10
76.705257452933722
 20
62.994618217964955
 30
0.0
 11
77.85607845293373
 21
60.216290217964968
 31
0.0
  0
ARC
  5
60
100
AcDbEntity
  8
0_1
370
               5
390
0
  6
Continuous
 62
               7
100
AcDbCircle
 10
76.54357845293373
 20
62.927648342964972
 30
0.0
 40
0.1749999999999826
100
AcDbArc
 50
22.499999999994092
 51
157.5000000000077
  0
LINE
  5
61
100
AcDbEntity
  8
0_1
370
               5
390
0
  6
Continuous
 62
               7
100
AcDbLine
 10
74.727953452933718
 20
60.216290217964968
 30
0.0
 11
78.359203452933713
 21
60.216290217964968
 31
0.0
  0
LINE
  5
62
100
AcDbEntity
  8
________1________1
370
              18
390
0
  6
Continuous
 62
               7
100
AcDbLine
 10
66.913175719160648
 20
45.05031238672413
 30
0.0
 11
69.958729291462845
 21
45.05031238672413
 31
0.0
  0
LINE
  5
63
100
AcDbEntity
  8
________1________1
370
              18
390
0
  6
Continuous
 62
               7
100
AcDbLine
 10
69.958729291461935
 20
45.05031238672413
 30
0.0
 11
69.958729291461935
 21
44.37727397195502
 31
0.0
  0
LINE
  5
64
100
AcDbEntity
  8
________1________1
370
              18
390
0
  6
Continuous
 62
               7
100
AcDbLine
 10
69.958729291461765
 20
44.102648342964955
 30
0.0
 11
83.128427614405638
 21
44.102648342964955
 31
0.0
  0
ARC
  5
65
100
AcDbEntity
  8
________1________1
370
              18
390
0
  6
Continuous
 62
               7
100
AcDbCircle
 10
67.911805253912831
 20
45.102648342964955
 30
0.0
 40
1.0000000000000111
100
AcDbArc
 50
-133.50000000000139
 51
-90.0
  0
LINE
  5
66
100
AcDbEntity
  8
________1________1
370
              18
390
0
  6
Continuous
 62
               7
100
AcDbLine
 10
83.128427614405638
 20
45.050312386721998
 30
0.0
 11
69.958729291461765
 21
45.050312386721998
 31
0.0
  0
LINE
  5
67
100
AcDbEntity
  8
________1________1
370
              18
390
0
  6
Continuous
 62
               7
100
AcDbLine
 10
83.12842761440433
 20
44.37727397195502
 30
0.0
 11
83.12842761440433
 21
45.05031238672413
 31
0.0
  0
LINE
  5
68
100
AcDbEntity
  8
________1________1
370
              18
390
0
  6
Continuous
 62
               7
100
AcDbLine
 10
69.958729291463868
 20
44.37727397195502
 30
0.0
 11
69.958729291463868
 21
44.102648342964258
 31
0.0
  0
LINE
  5
69
100
AcDbEntity
  8
________1________1
370
              18
390
0
  6
Continuous
 62
               7
100
AcDbLine
 10
69.958729291462845
 20
44.102648342964258
 30
0.0
 11
67.911805253910558
 21
44.102648342964258
 31
0.0
  0
ARC
  5
6A
100
AcDbEntity
  8
________1________1
370
              18
390
0
  6
Continuous
 62
               7
100
AcDbCircle
 10
67.911805253912831
 20
45.102648342964955
 30
0.0
 40
0.9999999999999959
100
AcDbArc
 50
-177.00000000000094
 51
-133.49999999999847
  0
LINE
  5
6B
100
AcDbEntity
  8
________1________1
370
              18
390
0
  6
Continuous
 62
               7
100
AcDbLine
 10
83.12842761440524
 20
45.05031238672413
 30
0.0
 11
86.173981186707465
 21
45.05031238672413
 31
0.0
  0
LINE
  5
6C
100
AcDbEntity
  8
________1________1
370
              18
390
0
  6
Continuous
 62
               7
100
AcDbLine
 10
83.128427614406263
 20
44.102648342964258
 30
0.0
 11
83.128427614406263
 21
44.37727397195502
 31
0.0
  0
LINE
  5
6D
100
AcDbEntity
  8
________1________1
370
              18
390
0
  6
Continuous
 62
               7
100
AcDbLine
 10
83.128427614405638
 20
45.050312386721998
 30
0.0
 11
83.128427614405638
 21
52.102648342964969
 31
0.0
  0
MTEXT
  5
6E
100
AcDbEntity
  8
___G
370
              18
390
0
  6
Continuous
 62
               7
100
AcDbMText
 10
44.620804282144547
 20
-77.851799282071482
 30
0.0
 40
2.75
 41
20.0
 71
               1
 72
               1
  1
1：1
  7
Style1
 73
               1
 44
1.0
  0
MTEXT
  5
6F
100
AcDbEntity
  8
___G
370
               5
390
0
  6
DOT
 62
               7
100
AcDbMText
 10
32.620804282144547
 20
-82.101799282071511
 30
0.0
 40
2.75
 41
22.0
 71
               1
 72
               1
  1
園原
  7
Style1
 73
               1
 44
1.0
  0
MTEXT
  5
70
100
AcDbEntity
  8
___G
370
               5
390
0
  6
DOT
 62
               7
100
AcDbMText
 10
92.511303735852778
 20
-75.381265874714643
 30
0.0
 40
3.1749999523162842
 41
47.109500546291798
 71
               1
 72
               1
  1
棚ストッパー（ビス付）
  7
Style1
 73
               1
 44
1.0
  0
MTEXT
  5
71
100
AcDbEntity
  8
___G
370
               5
390
0
  6
DOT
 62
               7
100
AcDbMText
 10
92.511303735852778
 20
-83.881265874714643
 30
0.0
 40
3.5277776718139648
 41
47.109500546291798
 71
               1
 72
               1
  1
承認図
  7
Style1
 73
               1
 44
1.0
  0
MTEXT
  5
72
100
AcDbEntity
  8
____1
370
               5
390
0
  6
Continuous
 62
               7
100
AcDbMText
 10
113.12080428214455
 20
-40.881265874714657
 30
0.0
 40
3.5277776718139648
 41
10.0
 71
               1
 72
               1
  1
1
  7
Style1
 73
               1
 44
1.0
  0
MTEXT
  5
73
100
AcDbEntity
  8
____1
370
               5
390
0
  6
Continuous
 62
               7
100
AcDbMText
 10
113.12080428214455
 20
-46.271265874714658
 30
0.0
 40
3.2999999523162842
 41
10.0
 71
               1
 72
               1
  1
1
  7
Style1
 73
               1
 44
1.0
  0
MTEXT
  5
74
100
AcDbEntity
  8
____1
370
               5
390
0
  6
Continuous
 62
               7
100
AcDbMText
 10
123.12080428214466
 20
-46.271265874714658
 30
0.0
 40
3.2999999523162842
 41
17.499999999999886
 71
               1
 72
               1
  1
透明
  7
Style1
 73
               1
 44
1.0
  0
INSERT
  5
7E
100
AcDbEntity
  8
寸法線_1
370
               5
390
0
  6
Continuous
 62
               7
100
AcDbBlockReference
  2
C0
 10
0.0
 20
0.0
 30
0.0
  0
LINE
  5
7F
100
AcDbEntity
  8
____1_1
370
              50
390
0
  6
Continuous
 62
               7
100
AcDbLine
 10
10.09974620002513
 20
7.9999999999996918
 30
-122.0055669565438
 11
10.09974620002513
 21
19.999999999999691
 31
-122.0055669565438
  0
LINE
  5
80
100
AcDbEntity
  8
____1_1
370
              50
390
0
  6
Continuous
 62
               7
100
AcDbLine
 10
16.59974620002513
 20
7.9999999999996918
 30
-122.0055669565438
 11
16.59974620002513
 21
19.999999999999691
 31
-122.0055669565438
  0
LINE
  5
81
100
AcDbEntity
  8
____1_1
370
              50
390
0
  6
Continuous
 62
               7
100
AcDbLine
 10
3.5997462000251348
 20
7.9999999999996918
 30
-122.0055669565438
 11
3.5997462000251339
 21
19.999999999999691
 31
-122.0055669565438
  0
CIRCLE
  5
82
100
AcDbEntity
  8
____1_1
370
              50
390
0
  6
Continuous
 62
               7
100
AcDbCircle
 10
16.59974620002513
 20
16.699999999999701
 30
-122.0055669565438
 40
1.5000000000000036
  0
CIRCLE
  5
83
100
AcDbEntity
  8
____1_1
370
              50
390
0
  6
Continuous
 62
               7
100
AcDbCircle
 10
16.59974620002513
 20
11.299999999999701
 30
-122.0055669565438
 40
1.5000000000000036
  0
CIRCLE
  5
84
100
AcDbEntity
  8
____1_1
370
              50
390
0
  6
Continuous
 62
               7
100
AcDbCircle
 10
18.09974620002501
 20
13.999999999999719
 30
-122.20556695654379
 40
0.993015846101649
210
-0.0
220
-0.0
230
0.9999999999999999
  0
CIRCLE
  5
85
100
AcDbEntity
  8
____1_1
370
              50
390
0
  6
Continuous
 62
               7
100
AcDbCircle
 10
10.09974620002502
 20
13.999999999999719
 30
-122.0055669565438
 40
1.8499999999999996
210
0.0
220
0.0
230
1.0
  0
ARC
  5
86
100
AcDbEntity
  8
____1_1
370
              50
390
0
  6
Continuous
 62
               7
100
AcDbCircle
 10
16.686291690084818
 20
11.41345450994001
 30
-122.0055669565438
 40
3.4134549314386113
100
AcDbArc
 50
-90.028473342902601
 51
0.0284733428961622
  0
MTEXT
  5
87
100
AcDbEntity
  8
____
370
               5
390
0
  6
Continuous
 62
               7
100
AcDbMText
 10
48.75377587131203
 20
85.084341866104921
 30
0.0
 40
3.174999961853028
 41
3.1654860495798762
 71
               1
 72
               1
  1
1
  7
Style1
 73
               1
 44
1.0
  0
ARC
  5
88
100
AcDbEntity
  8
________1________1
370
              18
390
0
  6
Continuous
 62
               7
100
AcDbCircle
 10
85.175351651954458
 20
45.102648342964955
 30
0.0
 40
1.0000000000000142
100
AcDbArc
 50
-90.0
 51
-46.499999999999176
  0
LINE
  5
89
100
AcDbEntity
  8
________1________1
370
              18
390
0
  6
Continuous
 62
               7
100
AcDbLine
 10
69.958729291461765
 20
52.102648342964969
 30
0.0
 11
83.128427614405638
 21
52.102648342964969
 31
0.0
  0
LINE
  5
8A
100
AcDbEntity
  8
________1________1
370
              18
390
0
  6
Continuous
 62
               7
100
AcDbLine
 10
84.543578360963664
 20
52.602647367379859
 30
0.0
 11
84.793578241754375
 21
52.10265366163037
 31
0.0
  0
LINE
  5
8B
100
AcDbEntity
  8
____1
370
              18
390
0
  6
Continuous
 62
               7
100
AcDbLine
 10
69.958729291461765
 20
52.102648342964969
 30
0.0
 11
66.543578263362065
 21
52.102648342964969
 31
0.0000000000000023
  0
LINE
  5
8C
100
AcDbEntity
  8
________1________1
370
              18
390
0
  6
Continuous
 62
               7
100
AcDbLine
 10
68.543832197774265
 20
52.602211347482466
 30
0.0
 11
68.793615014839958
 21
52.10265366163037
 31
0.0
  0
LINE
  5
8D
100
AcDbEntity
  8
________1________1
370
              18
390
0
  6
Continuous
 62
               7
100
AcDbLine
 10
68.294048812974239
 20
52.10265366163037
 30
0.0
 11
68.543832197774265
 21
52.602211347482466
 31
0.0
  0
LINE
  5
8E
100
AcDbEntity
  8
________1________1
370
              18
390
0
  6
Continuous
 62
               7
100
AcDbLine
 10
84.293578480172982
 20
52.10265366163037
 30
0.0
 11
84.543578360963664
 21
52.602647367379859
 31
0.0
  0
LINE
  5
8F
100
AcDbEntity
  8
________1________1
370
              18
390
0
  6
Continuous
 62
               7
100
AcDbLine
 10
83.128427337098884
 20
52.10265366163037
 30
0.0
 11
86.543578921247359
 21
52.10265366163037
 31
0.0
  0
SPLINE
  5
90
100
AcDbEntity
  8
________1________1
370
              18
390
0
  6
Continuous
 62
               7
100
AcDbSpline
210
0.0
220
0.0
230
1.0
 70
               0
 71
               3
 72
              15
 73
              11
 74
               0
 42
0.0000001
 43
0.0000001
 12
-0.0000004780608081
 22
0.9999999999998858
 32
0.0
 13
-0.981360671693427
 23
-0.1921750037164713
 33
0.0
 40
0.0
 40
0.0
 40
0.0
 40
0.0
 40
0.1251106881678678
 40
0.250133428142002
 40
0.3750861288808704
 40
0.5000000939405165
 40
0.6249140439196653
 40
0.749866702305838
 40
0.8748893807611492
 40
1.0
 40
1.0
 40
1.0
 40
1.0
 10
-62.360548446261433
 20
45.621079625821352
 30
0.0
 10
-62.360548464159834
 20
45.658519216047239
 30
0.0
 10
-62.368828291120892
 20
45.733633404001438
 30
0.0
 10
-62.405522820518527
 20
45.840632506244347
 30
0.0
 10
-62.464720448042996
 20
45.937015622075947
 30
0.0
 10
-62.543566467082215
 20
46.018056002850457
 30
0.0
 10
-62.638248521384256
 20
46.079858461064461
 30
0.0
 10
-62.74421138925085
 20
46.119430255721468
 30
0.0
 10
-62.8562678232921
 20
46.134878251526274
 30
0.0
 10
-62.931573069087548
 20
46.128568654979361
 30
0.0
 10
-62.968314790256997
 20
46.121373705552557
 30
0.0
  0
SPLINE
  5
91
100
AcDbEntity
  8
________1________1
370
              18
390
0
  6
Continuous
 62
               7
100
AcDbSpline
210
0.0
220
0.0
230
1.0
 70
               0
 71
               3
 72
             138
 73
             134
 74
               0
 42
0.0000001
 43
0.0000001
 12
0.9999955606857387
 22
-0.0029796994504583
 32
0.0
 13
0.0029627673762226
 23
-0.9999956109951056
 33
0.0
 40
0.0
 40
0.0
 40
0.0
 40
0.0
 40
0.0076336744466425
 40
0.0152672713287339
 40
0.0229007658350489
 40
0.0305344028346748
 40
0.0381678846880022
 40
0.0458014341245238
 40
0.0534350395808949
 40
0.061068677284611
 40
0.0687022982466362
 40
0.076335847250269
 40
0.083969613962863
 40
0.0916029857770767
 40
0.099236701321347
 40
0.1068702693460105
 40
0.1145038184748162
 40
0.1221373831876227
 40
0.1297711811768234
 40
0.1374045391434582
 40
0.145038338801574
 40
0.1526718400046816
 40
0.1603053822489771
 40
0.167938905529548
 40
0.1755724718695979
 40
0.1832061642312877
 40
0.1908396529848248
 40
0.198473250868292
 40
0.2061070636326057
 40
0.2137405868714527
 40
0.2213741188098357
 40
0.2290077723477145
 40
0.2366411245197437
 40
0.2442747462849548
 40
0.2519085866227966
 40
0.259542009659794
 40
0.2671757038468861
 40
0.274809137961854
 40
0.282442779655407
 40
0.2900764648458685
 40
0.2977099014851936
 40
0.3053435580949793
 40
0.3129772771492263
 40
0.3206106339058286
 40
0.3282442302924451
 40
0.3358777668883106
 40
0.3435114677615889
 40
0.3511450294493899
 40
0.3587786812870282
 40
0.3664121179524309
 40
0.3740458117379331
 40
0.3816792960947399
 40
0.38931296765724
 40
0.3969465867156132
 40
0.4045801680346306
 40
0.4122136302929933
 40
0.419847281374389
 40
0.4274809811680733
 40
0.4351146413869589
 40
0.4427481688608315
 40
0.4503818302688418
 40
0.4580153499663264
 40
0.4656488157139247
 40
0.4732825289686247
 40
0.4809159775569079
 40
0.4885496826703282
 40
0.4961831288594309
 40
0.503816826134059
 40
0.5114504742322095
 40
0.5190839750806591
 40
0.5267176302509777
 40
0.5343511346303633
 40
0.5419847875893273
 40
0.5496183072868126
 40
0.5572517866053643
 40
0.5648854935702659
 40
0.5725189769256787
 40
0.5801526767193637
 40
0.5877863278007589
 40
0.595419790059124
 40
0.6030533713781394
 40
0.6106869904365104
 40
0.6183206619990131
 40
0.625954304151525
 40
0.6335878429587813
 40
0.6412212796241819
 40
0.6488549314618219
 40
0.6564884931496211
 40
0.6641221940229021
 40
0.6717557306187643
 40
0.6793893270053846
 40
0.6870230663945223
 40
0.6946566537843948
 40
0.7022901879133037
 40
0.7099237515830081
 40
0.7175571826155482
 40
0.725190824309101
 40
0.7328245154503792
 40
0.7404579512343399
 40
0.7480917442793755
 40
0.7557252164265012
 40
0.7633588381917096
 40
0.7709925547529886
 40
0.778625943554573
 40
0.7862596468947505
 40
0.7938932614312919
 40
0.8015267180307357
 40
0.8091604007751534
 40
0.8167940780172778
 40
0.8244274993018288
 40
0.8320611407606862
 40
0.8396945921862549
 40
0.847328408152793
 40
0.8549619746388806
 40
0.8625954370224158
 40
0.8702291296813862
 40
0.8778625956115298
 40
0.8854961603243341
 40
0.893129758160863
 40
0.9007632808155677
 40
0.9083970383803708
 40
0.9160306510393412
 40
0.9236641377900954
 40
0.9312977187492404
 40
0.9389313111251392
 40
0.9465649488288541
 40
0.9541985542852265
 40
0.9618321221899322
 40
0.9694655889545665
 40
0.9770992376629248
 40
0.9847330059088435
 40
0.9923666077300162
 40
1.0
 40
1.0
 40
1.0
 40
1.0
 10
-64.769086438167903
 20
54.090584524705633
 30
0.0
 10
-64.755434427962541
 20
54.09054384563774
 30
0.0
 10
-64.728129984590524
 20
54.090462486241535
 30
0.0
 10
-64.687179578451875
 20
54.089719212874257
 30
0.0
 10
-64.646240736422882
 20
54.08851774479416
 30
0.0
 10
-64.605319480709184
 20
54.086817987920938
 30
0.0
 10
-64.564421611820549
 20
54.084626639907555
 30
0.0
 10
-64.523552829826102
 20
54.08194748843934
 30
0.0
 10
-64.482718926703015
 20
54.078777188169937
 30
0.0
 10
-64.441925962820434
 20
54.075116196394646
 30
0.0
 10
-64.401179970614251
 20
54.070966028048758
 30
0.0
 10
-64.360486256413495
 20
54.066329168030933
 30
0.0
 10
-64.31985171429109
 20
54.06120297926995
 30
0.0
 10
-64.279281587556127
 20
54.055587761215151
 30
0.0
 10
-64.238781324670683
 20
54.049491290692345
 30
0.0
 10
-64.19835771223886
 20
54.042903733501959
 30
0.0
 10
-64.158015573111399
 20
54.035836006736133
 30
0.0
 10
-64.117761161568851
 20
54.028282269215254
 30
0.0
 10
-64.077600704670502
 20
54.020245827358934
 30
0.0
 10
-64.037538700120749
 20
54.011730072223457
 30
0.0
 10
-63.997582882437442
 20
54.002731684462645
 30
0.0
 10
-63.957736793249254
 20
53.993257830542746
 30
0.0
 10
-63.918008146440727
 20
53.983304897649134
 30
0.0
 10
-63.878402226374575
 20
53.972873936460132
 30
0.0
 10
-63.838922920154587
 20
53.961972561708734
 30
0.0
 10
-63.79957771811381
 20
53.950596796854057
 30
0.0
 10
-63.76037267661026
 20
53.938746901666832
 30
0.0
 10
-63.72131102940493
 20
53.926431819582234
 30
0.0
 10
-63.682401033310171
 20
53.913645446088935
 30
0.0
 10
-63.643646572662831
 20
53.900395519889543
 30
0.0
 10
-63.605054842730979
 20
53.886679668638237
 30
0.0
 10
-63.56663036754135
 20
53.872502932095045
 30
0.0
 10
-63.528378295073665
 20
53.857866931054758
 30
0.0
 10
-63.490304288187488
 20
53.842772825223648
 30
0.0
 10
-63.452415006428353
 20
53.827220541769748
 30
0.0
 10
-63.414713490858205
 20
53.811218115960855
 30
0.0
 10
-63.377208412707304
 20
53.794762346554052
 30
0.0
 10
-63.33990275009289
 20
53.777858438987835
 30
0.0
 10
-63.302802732671509
 20
53.760507888141348
 30
0.0
 10
-63.265912803117956
 20
53.74271497849864
 30
0.0
 10
-63.229240738151859
 20
53.724477236772543
 30
0.0
 10
-63.19278785498652
 20
53.705805116746546
 30
0.0
 10
-63.156563744385792
 20
53.686693248670849
 30
0.0
 10
-63.120570228860046
 20
53.667150813042838
 30
0.0
 10
-63.084814975296368
 20
53.647176436534352
 30
0.0
 10
-63.049300619066727
 20
53.626775592159959
 30
0.0
 10
-63.01403433151647
 20
53.605948974850037
 30
0.0
 10
-62.979019589444007
 20
53.58470177006555
 30
0.0
 10
-62.944263482310603
 20
53.563034968482839
 30
0.0
 10
-62.909769228358627
 20
53.540953227947938
 30
0.0
 10
-62.87554350712621
 20
53.518458085074855
 30
0.0
 10
-62.841587941894446
 20
53.49555642313544
 30
0.0
 10
-62.8079116429371
 20
53.472246287265733
 30
0.0
 10
-62.774515381770485
 20
53.448536395695953
 30
0.0
 10
-62.741407729334227
 20
53.424425752254848
 30
0.0
 10
-62.708591553248411
 20
53.399919799654242
 30
0.0
 10
-62.676070907432674
 20
53.375022636997954
 30
0.0
 10
-62.643851852312693
 20
53.349735822658232
 30
0.0
 10
-62.611938679101414
 20
53.324064424276656
 30
0.0
 10
-62.580334760438589
 20
53.298013341474956
 30
0.0
 10
-62.549047385898504
 20
53.27158332052224
 30
0.0
 10
-62.518078218265245
 20
53.244781321862035
 30
0.0
 10
-62.48743333091231
 20
53.217609004765933
 30
0.0
 10
-62.457115655500772
 20
53.190072244435441
 30
0.0
 10
-62.427132852632596
 20
53.16217063252725
 30
0.0
 10
-62.397483765030969
 20
53.133915342796342
 30
0.0
 10
-62.368179219575282
 20
53.105302223433455
 30
0.0
 10
-62.339217943447025
 20
53.076341879657349
 30
0.0
 10
-62.310606722050025
 20
53.047035493707142
 30
0.0
 10
-62.282349068330362
 20
53.017388154927943
 30
0.0
 10
-62.254449724551264
 20
52.987403737065137
 30
0.0
 10
-62.226911317787497
 20
52.957087130179644
 30
0.0
 10
-62.199738184853985
 20
52.92644301106904
 30
0.0
 10
-62.172935889898454
 20
52.89547407088844
 30
0.0
 10
-62.146507865705715
 20
52.864185030907151
 30
0.0
 10
-62.120454608026407
 20
52.83258331990865
 30
0.0
 10
-62.094785320666418
 20
52.800668430242951
 30
0.0
 10
-62.069498135575159
 20
52.768450082479234
 30
0.0
 10
-62.044601127535216
 20
52.735929311824236
 30
0.0
 10
-62.02009512250963
 20
52.70311317656504
 30
0.0
 10
-61.995984534156193
 20
52.670005485658351
 30
0.0
 10
-61.972274474659301
 20
52.636609337547839
 30
0.0
 10
-61.948964794797618
 20
52.602932392790734
 30
0.0
 10
-61.926060835709805
 20
52.568978362454033
 30
0.0
 10
-61.903568003362452
 20
52.53475110837735
 30
0.0
 10
-61.881485792939188
 20
52.50025749704804
 30
0.0
 10
-61.859819159586394
 20
52.465501279057349
 30
0.0
 10
-61.838571901219311
 20
52.430486571219149
 30
0.0
 10
-61.817745330009728
 20
52.395220257588647
 30
0.0
 10
-61.797344354818776
 20
52.359705971444157
 30
0.0
 10
-61.777370121739864
 20
52.323949866201644
 30
0.0
 10
-61.757825704884979
 20
52.287956897236342
 30
0.0
 10
-61.738717110659209
 20
52.251730816368735
 30
0.0
 10
-61.720040428867648
 20
52.215280521503956
 30
0.0
 10
-61.701807292448208
 20
52.178606650290646
 30
0.0
 10
-61.684012421377034
 20
52.141717943047354
 30
0.0
 10
-61.666662144373632
 20
52.10461777334254
 30
0.0
 10
-61.649759208889094
 20
52.06731167900935
 30
0.0
 10
-61.633302421618254
 20
52.029806336555055
 30
0.0
 10
-61.617298877330484
 20
51.992105784754045
 30
0.0
 10
-61.601748103992279
 20
51.954215876515917
 30
0.0
 10
-61.586653825716269
 20
51.916141951972605
 30
0.0
 10
-61.572016971405418
 20
51.877890023720511
 30
0.0
 10
-61.557838500559726
 20
51.839465649656631
 30
0.0
 10
-61.544126750506521
 20
51.800872479512009
 30
0.0
 10
-61.53087298711516
 20
51.762119507100209
 30
0.0
 10
-61.518090030264162
 20
51.723208726559506
 30
0.0
 10
-61.505771123995473
 20
51.68414844321822
 30
0.0
 10
-61.493925140837561
 20
51.644942197672606
 30
0.0
 10
-61.482548423543889
 20
51.605597314194711
 30
0.0
 10
-61.471644660410945
 20
51.566119148878727
 30
0.0
 10
-61.461216158953874
 20
51.526512056265631
 30
0.0
 10
-61.451263783363615
 20
51.486782802382805
 30
0.0
 10
-61.441786794737979
 20
51.446937440534725
 30
0.0
 10
-61.43279162816701
 20
51.406980784707315
 30
0.0
 10
-61.424272855427034
 20
51.366920040156913
 30
0.0
 10
-61.416238891897962
 20
51.326759063597308
 30
0.0
 10
-61.408685448859146
 20
51.286505140121932
 30
0.0
 10
-61.401614449761041
 20
51.246163547835607
 30
0.0
 10
-61.395030949206998
 20
51.20573919909711
 30
0.0
 10
-61.388930256755458
 20
51.165239146997123
 30
0.0
 10
-61.383318729799569
 20
51.124668484435404
 30
0.0
 10
-61.378192070139576
 20
51.084034044416228
 30
0.0
 10
-61.373552329671455
 20
51.043341138111828
 30
0.0
 10
-61.369405419868528
 20
51.00259480596381
 30
0.0
 10
-61.365743322019839
 20
50.96180199701331
 30
0.0
 10
-61.362574203506611
 20
50.92096797877312
 30
0.0
 10
-61.359891425661829
 20
50.880099415439105
 30
0.0
 10
-61.357704350491105
 20
50.839201296285211
 30
0.0
 10
-61.356000159867236
 20
50.798279741048106
 30
0.0
 10
-61.354802998278572
 20
50.757340245144007
 30
0.0
 10
-61.354056196084045
 20
50.716389925043828
 30
0.0
 10
-61.353975300434371
 20
50.689085960764643
 30
0.0
 10
-61.353934854019499
 20
50.675434454515241
 30
0.0
  0
SPLINE
  5
92
100
AcDbEntity
  8
________1________1
370
              18
390
0
  6
Continuous
 62
               7
100
AcDbSpline
210
0.0
220
0.0
230
1.0
 70
               0
 71
               3
 72
              16
 73
              12
 74
               0
 42
0.0000001
 43
0.0000001
 12
-0.0000000000052111
 22
-1.0
 32
0.0
 13
0.9813607060908586
 23
0.1921748280625001
 33
0.0
 40
0.0
 40
0.0
 40
0.0
 40
0.0
 40
0.2215695230800298
 40
0.2215695230800298
 40
0.4423352151671851
 40
0.4423352151671851
 40
0.6626891047149595
 40
0.6626891047149595
 40
0.8313139083457644
 40
0.8313139083457644
 40
1.0
 40
1.0
 40
1.0
 40
1.0
 10
-80.336840642548538
 20
50.560090329579836
 30
0.0000000000007209
 10
-80.336840642548879
 20
50.494833995975839
 30
0.0000000000007209
 10
-80.324099446440414
 20
50.430204550124031
 30
0.0000000000007209
 10
-80.274571928395517
 20
50.309717835021431
 30
0.0000000000007209
 10
-80.238351290658983
 20
50.254995396538632
 30
0.0000000000007209
 10
-80.147009868661257
 20
50.162623260764221
 30
0.0000000000007209
 10
-80.092814351235859
 20
50.125842302696029
 30
0.0000000000007209
 10
-79.987378162215776
 20
50.081058169728934
 30
0.0000000000007209
 10
-79.939030297142381
 20
50.068580823024931
 30
-0.000000000000001
 10
-79.840226060957093
 20
50.058287912736645
 30
-0.000000000000001
 10
-79.790323837992617
 20
50.060535251660738
 30
-0.000000000000001
 10
-79.741570145603788
 20
50.070082436904741
 30
-0.000000000000001
  0
SPLINE
  5
93
100
AcDbEntity
  8
________1________1
370
              18
390
0
  6
Continuous
 62
               7
100
AcDbSpline
210
0.0
220
0.0
230
1.0
 70
               0
 71
               3
 72
              15
 73
              11
 74
               0
 42
0.0000001
 43
0.0000001
 12
-1.0
 22
0.0
 32
0.0
 13
-0.7071067705918651
 23
-0.7071067917812299
 33
0.0
 40
0.0
 40
0.0
 40
0.0
 40
0.0
 40
0.12509226965548
 40
0.2501516602319015
 40
0.3751800830602197
 40
0.5001806372486917
 40
0.6251574915612073
 40
0.7501157249678636
 40
0.8750611319434926
 40
1.0
 40
1.0
 40
1.0
 40
1.0
 10
-77.940129759139353
 20
53.073490297917857
 30
-0.0000000000000005
 10
-78.018597994083535
 20
53.073490297917857
 30
-0.0000000000000005
 10
-78.175622683415241
 20
53.06579290033514
 30
-0.0000000000000005
 10
-78.408781851513737
 20
53.031254321025358
 30
-0.0000000000000005
 10
-78.637404467057564
 20
52.974056041344653
 30
-0.0000000000000005
 10
-78.859266985109457
 20
52.89474632654975
 30
-0.0000000000000005
 10
-79.072246303343292
 20
52.79408763981985
 30
-0.0000000000000005
 10
-79.274301623786869
 20
52.67304027731484
 30
-0.0000000000000005
 10
-79.463472988033629
 20
52.532786992536955
 30
-0.0000000000000005
 10
-79.579840643743097
 20
52.427325006083947
 30
-0.0000000000000005
 10
-79.635258021756954
 20
52.371907626409438
 30
-0.0000000000000005
  0
SPLINE
  5
94
100
AcDbEntity
  8
________1________1
370
              18
390
0
  6
Continuous
 62
               7
100
AcDbSpline
210
0.0
220
0.0
230
1.0
 70
               0
 71
               3
 72
              15
 73
              11
 74
               0
 42
0.0000001
 43
0.0000001
 12
-0.7071067662034265
 22
-0.7071067961696683
 32
0.0
 13
0.0
 23
-1.0
 33
0.0
 40
0.0
 40
0.0
 40
0.0
 40
0.0
 40
0.1249388680547622
 40
0.2498842750304231
 40
0.3748425084382122
 40
0.4998193627522441
 40
0.6248199169420249
 40
0.7498483397708785
 40
0.8749077303466341
 40
1.0
 40
1.0
 40
1.0
 40
1.0
 10
-79.645739588116953
 20
52.382389171762753
 30
-0.0000000000000001
 10
-79.70115696323964
 20
52.326971794291552
 30
-0.0000000000000001
 10
-79.806618940880924
 20
52.210604140373732
 30
-0.0000000000000001
 10
-79.946872213635402
 20
52.021432780725149
 30
-0.0000000000000001
 10
-80.067919565537494
 20
51.819377466585507
 30
-0.0000000000000001
 10
-80.168578243297702
 20
51.60639815612052
 30
-0.0000000000000001
 10
-80.247887950929794
 20
51.384535647040309
 30
0.0
 10
-80.305086225393751
 20
51.155913041389823
 30
0.0
 10
-80.339624801532977
 20
50.922753883805314
 30
0.0
 10
-80.347322198406914
 20
50.765729201700708
 30
0.0
 10
-80.347322198406914
 20
50.687260970363539
 30
0.0
  0
SPLINE
  5
95
100
AcDbEntity
  8
________1________1
370
              18
390
0
  6
Continuous
 62
               7
100
AcDbSpline
210
0.0
220
0.0
230
1.0
 70
               0
 71
               3
 72
              15
 73
              11
 74
               0
 42
0.0000001
 43
0.0000001
 12
-0.7071067811869043
 22
-0.7071067811861908
 32
0.0000000000000013
 13
0.0
 23
-1.0
 33
0.0000000000000013
 40
0.0
 40
0.0
 40
0.0
 40
0.0
 40
0.1249388680557919
 40
0.2498842750314191
 40
0.3748425084385395
 40
0.4998193627516804
 40
0.6248199169407014
 40
0.7498483397692424
 40
0.8749077303453884
 40
1.0
 40
1.0
 40
1.0
 40
1.0
 10
-79.635257996399474
 20
52.371907651766946
 30
-0.0000000000000005
 10
-79.690675374188544
 20
52.316490273977934
 30
-0.0000000000000004
 10
-79.796137356991608
 20
52.200122619010557
 30
-0.0000000000000004
 10
-79.93639063678927
 20
52.010951256668449
 30
-0.0000000000000004
 10
-80.05743799490233
 20
51.808895938836031
 30
-0.0000000000000004
 10
-80.158096677916888
 20
51.595916623820216
 30
-0.0000000000000003
 10
-80.23740638974482
 20
51.374054109484319
 30
-0.0000000000000003
 10
-80.294604667264736
 20
51.145431498038619
 30
-0.0000000000000002
 10
-80.329143245261236
 20
50.912272334295125
 30
-0.0000000000000002
 10
-80.336840642550328
 20
50.755247647956907
 30
-0.0000000000000002
 10
-80.336840642550328
 20
50.676779414506839
 30
-0.0000000000000001
  0
SPLINE
  5
96
100
AcDbEntity
  8
________1________1
370
              18
390
0
  6
Continuous
 62
               7
100
AcDbSpline
210
0.0
220
0.0
230
1.0
 70
               0
 71
               3
 72
              15
 73
              11
 74
               0
 42
0.0000001
 43
0.0000001
 12
0.7071067917814058
 22
-0.7071067705916891
 32
0.0
 13
1.0
 23
0.0
 33
0.0
 40
0.0
 40
0.0
 40
0.0
 40
0.0
 40
0.1249388680550539
 40
0.2498842750307255
 40
0.3748425084383072
 40
0.4998193627520843
 40
0.6248199169416446
 40
0.7498483397703932
 40
0.8749077303462691
 40
1.0
 40
1.0
 40
1.0
 40
1.0
 10
-79.645739526898609
 20
43.798780722420247
 30
0.0000000000000001
 10
-79.590322149334327
 20
43.743363346516645
 30
0.0000000000000001
 10
-79.473954495109126
 20
43.63790136736344
 30
0.0000000000000001
 10
-79.284783134671585
 20
43.497648092546257
 30
0.0000000000000001
 10
-79.082727819450326
 20
43.376600738824834
 30
0.0000000000000001
 10
-78.86974850765256
 20
43.275942059525732
 30
0.0000000000000001
 10
-78.647885997032915
 20
43.196632350664657
 30
0.0000000000000001
 10
-78.419263389684971
 20
43.139434075305644
 30
0.0000000000000001
 10
-78.18610423029665
 20
43.104895498622454
 30
0.0000000000000001
 10
-78.029079546952062
 20
43.097198101626958
 30
0.0000000000000001
 10
-77.950611314995967
 20
43.097198101626958
 30
0.0000000000000001
  0
SPLINE
  5
97
100
AcDbEntity
  8
________1________1
370
              18
390
0
  6
Continuous
 62
               7
100
AcDbSpline
210
0.0
220
0.0
230
1.0
 70
               0
 71
               3
 72
              15
 73
              11
 74
               0
 42
0.0000001
 43
0.0000001
 12
-0.9813606732986058
 22
0.1921749955194672
 32
0.0
 13
-0.0000004869070319
 23
-0.9999999999998814
 33
0.0
 40
0.0
 40
0.0
 40
0.0
 40
0.0
 40
0.1251106202837556
 40
0.2501332989354655
 40
0.3750859568477003
 40
0.4999999059886437
 40
0.6249138702214103
 40
0.7498665705182848
 40
0.8748893107351876
 40
1.0
 40
1.0
 40
1.0
 40
1.0
 10
-79.739555854409218
 20
46.121373705552671
 30
0.0
 10
-79.776297575930755
 20
46.128568654729762
 30
0.0
 10
-79.851602822057743
 20
46.134878250978247
 30
0.0
 10
-79.963659256262133
 20
46.119430255142774
 30
0.0
 10
-80.069622123817254
 20
46.079858460752448
 30
0.0
 10
-80.164304177587638
 20
46.018056002971448
 30
0.0
 10
-80.243150196105091
 20
45.937015622627754
 30
0.0
 10
-80.302347823328319
 20
45.840632507032453
 30
0.0
 10
-80.339042352822872
 20
45.73363340460736
 30
0.0
 10
-80.347322180173649
 20
45.658519216360133
 30
0.0
 10
-80.347322198403248
 20
45.621079625821039
 30
0.0
  0
SPLINE
  5
98
100
AcDbEntity
  8
________1________1
370
              18
390
0
  6
Continuous
 62
               7
100
AcDbSpline
210
0.0
220
0.0
230
1.0
 70
               0
 71
               3
 72
             138
 73
             134
 74
               0
 42
0.0000001
 43
0.0000001
 12
-0.0029626744165433
 22
-0.9999956112705204
 32
0.0
 13
-0.999995586161136
 23
-0.002971137534012
 33
0.0
 40
0.0
 40
0.0
 40
0.0
 40
0.0
 40
0.0076335330490472
 40
0.0152671345609499
 40
0.0229007614683709
 40
0.0305344098674565
 40
0.0381678763228321
 40
0.045801584706063
 40
0.0534350491860334
 40
0.0610686865804768
 40
0.0687022786471007
 40
0.0763358592969812
 40
0.0839694857193614
 40
0.0916030980690611
 40
0.0992365762907973
 40
0.1068702378915196
 40
0.1145038354187783
 40
0.1221373998223142
 40
0.1297710037920213
 40
0.1374045581361089
 40
0.1450381578551795
 40
0.1526717240319984
 40
0.1603054028280657
 40
0.1679388539443701
 40
0.1755724950939562
 40
0.1832060516077065
 40
0.1908395934814501
 40
0.1984732759165947
 40
0.2061068662477592
 40
0.2137404804750351
 40
0.2213740505595784
 40
0.2290075714198898
 40
0.2366412876718937
 40
0.244274777968998
 40
0.2519083803323265
 40
0.2595420431951911
 40
0.2671756078712397
 40
0.2748091701898747
 40
0.2824428115741557
 40
0.2900763693761397
 40
0.2977098064011812
 40
0.3053434657905505
 40
0.3129770528711537
 40
0.3206106679602885
 40
0.3282442640376344
 40
0.3358778003242333
 40
0.3435115008882359
 40
0.3511450622667711
 40
0.3587785940640875
 40
0.3664122680762858
 40
0.3740456886669183
 40
0.3816793305101629
 40
0.3893130017633881
 40
0.3969465054697223
 40
0.4045802005327492
 40
0.4122137755303104
 40
0.4198473142747337
 40
0.4274810137591443
 40
0.4351143868666036
 40
0.4427480935222306
 40
0.4503815725315172
 40
0.4580151986044652
 40
0.4656488512541568
 40
0.4732824597613381
 40
0.4809160113307662
 40
0.4885496140018102
 40
0.4961831608355318
 40
0.5038168578008855
 40
0.5114502051168941
 40
0.5190840072624718
 40
0.5267174555414873
 40
0.5343511684869129
 40
0.5419847275301941
 40
0.5496182469184157
 40
0.5572518169716667
 40
0.5648854338810061
 40
0.5725190937906191
 40
0.5801527061676977
 40
0.5877863569398207
 40
0.5954198188889222
 40
0.6030533998986702
 40
0.6106871003283754
 40
0.6183206912854016
 40
0.6259542542298973
 40
0.6335878702160946
 40
0.6412213065722341
 40
0.6488549581005998
 40
0.6564885194791326
 40
0.6641222200431365
 40
0.6717557563297345
 40
0.679389352407084
 40
0.6870227761792451
 40
0.6946564290910122
 40
0.7022901497200556
 40
0.7099235232291257
 40
0.7175572081103114
 40
0.7251908494945925
 40
0.7328243415336977
 40
0.7404579787260435
 40
0.7480914565839938
 40
0.7557252430417463
 40
0.7633588644976865
 40
0.7709922667814646
 40
0.7786259200100711
 40
0.7862594043927125
 40
0.7938929729699713
 40
0.8015267413825149
 40
0.8091603813860009
 40
0.8167937882008602
 40
0.8244275194432698
 40
0.8320611230322421
 40
0.8396946100748259
 40
0.8473281520098555
 40
0.8549616855439486
 40
0.8625954538991234
 40
0.8702288408958623
 40
0.8778626108938847
 40
0.8854961752974213
 40
0.8931297484695548
 40
0.9007632934987009
 40
0.9083970297426869
 40
0.9160303819092674
 40
0.9236641483125849
 40
0.9312977129834197
 40
0.9389313193418181
 40
0.9465649567362631
 40
0.9541985618833637
 40
0.9618321202434119
 40
0.9694655942418287
 40
0.9770992367852474
 40
0.9847327268215729
 40
0.9923663258626307
 40
1.0
 40
1.0
 40
1.0
 40
1.0
 10
-61.353934854019499
 20
45.505735775068132
 30
0.0
 10
-61.353975299912875
 20
45.49208401649355
 30
0.0
 10
-61.354056193771754
 20
45.464779799935059
 30
0.0
 10
-61.354802984208632
 20
45.423829479344334
 30
0.0
 10
-61.356000179331161
 20
45.382890236861755
 30
0.0
 10
-61.35770434186847
 20
45.341968932784937
 30
0.0
 10
-61.359891464628774
 20
45.301070564433758
 30
0.0
 10
-61.362574128072708
 20
45.26020199306376
 30
0.0
 10
-61.365743369023377
 20
45.219367983820746
 30
0.0
 10
-61.369405415201854
 20
45.178575423360144
 30
0.0
 10
-61.373552323828903
 20
45.137829090690843
 30
0.0
 10
-61.378192126537115
 20
45.097135939813256
 30
0.0
 10
-61.383318687655262
 20
45.056501235818757
 30
0.0
 10
-61.388930102169368
 20
45.015930806615245
 30
0.0
 10
-61.395031187348948
 20
44.97543106736876
 30
0.0
 10
-61.401614348292469
 20
44.935006917994542
 30
0.0
 10
-61.408685446233818
 20
44.894665088161133
 30
0.0
 10
-61.416239006501897
 20
44.854410937066547
 30
0.0
 10
-61.424272632272036
 20
44.814249890722749
 30
0.0
 10
-61.432791858129804
 20
44.774188990182353
 30
0.0
 10
-61.441786679016062
 20
44.734232259089453
 30
0.0
 10
-61.451263679332172
 20
44.694386895805337
 30
0.0
 10
-61.461216286918969
 20
44.654657953494251
 30
0.0
 10
-61.471644619402227
 20
44.615051069357236
 30
0.0
 10
-61.482548586473115
 20
44.575572710246149
 30
0.0
 10
-61.493924857244721
 20
44.536227695919649
 30
0.0
 10
-61.505771272232195
 20
44.497021578100657
 30
0.0
 10
-61.518090151849051
 20
44.457961291177043
 30
0.0
 10
-61.530872864609321
 20
44.419050178216452
 30
0.0
 10
-61.544126583436551
 20
44.380297185348155
 30
0.0
 10
-61.5578388247189
 20
44.341704192488152
 30
0.0
 10
-61.572016811197415
 20
44.303279643504453
 30
0.0
 10
-61.586653639867976
 20
44.26502769770255
 30
0.0
 10
-61.601748499481332
 20
44.226954009196533
 30
0.0
 10
-61.617298443556791
 20
44.189064011016455
 30
0.0
 10
-61.633302864177594
 20
44.151363579119959
 30
0.0
 10
-61.649758790529233
 20
44.11385811298544
 30
0.0
 10
-61.666662342338952
 20
44.076552291605537
 30
0.0
 10
-61.684012626715358
 20
44.03945213519944
 30
0.0
 10
-61.701806856178024
 20
44.002563112280455
 30
0.0
 10
-61.720040872547344
 20
43.965889426593549
 30
0.0
 10
-61.738716889057756
 20
43.929438796601744
 30
0.0
 10
-61.757825524448705
 20
43.893212728347436
 30
0.0
 10
-61.77737033366283
 20
43.857220226417638
 30
0.0
 10
-61.797344330615999
 20
43.821464245238133
 30
0.0
 10
-61.817745323044406
 20
43.785949966971856
 30
0.0
 10
-61.838571953284884
 20
43.750683691357551
 30
0.0
 10
-61.859818847208999
 20
43.715669006643139
 30
0.0
 10
-61.881486543240328
 20
43.680913209401751
 30
0.0
 10
-61.903567248007008
 20
43.646418634282554
 30
0.0
 10
-61.926061144965118
 20
43.612191816013336
 30
0.0
 10
-61.948964781973174
 20
43.578237830973848
 30
0.0
 10
-61.97227421752639
 20
43.544560960785134
 30
0.0
 10
-61.995984985980655
 20
43.511165319946542
 30
0.0
 10
-62.020095126549606
 20
43.478057062743943
 30
0.0
 10
-62.044600652448722
 20
43.445240304294458
 30
0.0
 10
-62.069498453184494
 20
43.412720139256237
 30
0.0
 10
-62.094785018469551
 20
43.380501810068836
 30
0.0
 10
-62.120454889943701
 20
43.348587641363054
 30
0.0
 10
-62.146507786077748
 20
43.316985889069059
 30
0.0
 10
-62.172936174681226
 20
43.285696909835451
 30
0.0
 10
-62.199737868398515
 20
43.254727194573746
 30
0.0
 10
-62.226911667529848
 20
43.224083164601836
 30
0.0
 10
-62.25444913893692
 20
43.193765700403446
 30
0.0
 10
-62.282349676864996
 20
43.163782143254139
 30
0.0
 10
-62.310606132945068
 20
43.134133916321844
 30
0.0
 10
-62.339218305822882
 20
43.104828452370157
 30
0.0
 10
-62.368178869119546
 20
43.075867901465642
 30
0.0
 10
-62.397484305122575
 20
43.047255697907445
 30
0.0
 10
-62.42713255569852
 20
43.018999539695443
 30
0.0
 10
-62.457115669656176
 20
42.991097997227854
 30
0.0
 10
-62.487433567710909
 20
42.963561239909552
 30
0.0
 10
-62.518078003801705
 20
42.936388163683745
 30
0.0
 10
-62.549047127645636
 20
42.909586095902256
 30
0.0
 10
-62.580335262045551
 20
42.883156984529933
 30
0.0
 10
-62.611938420421964
 20
42.857104989854236
 30
0.0
 10
-62.643851642330887
 20
42.831433631839246
 30
0.0
 10
-62.676071149744146
 20
42.806147649319257
 30
0.0
 10
-62.70859153330484
 20
42.781250406174735
 30
0.0
 10
-62.741407690499344
 20
42.756744420916846
 30
0.0
 10
-62.774515675144599
 20
42.732633997298734
 30
0.0
 10
-62.807911102261912
 20
42.708922915805459
 30
0.0
 10
-62.841588504018617
 20
42.685614124593741
 30
0.0
 10
-62.875542974708779
 20
42.662711095361033
 30
0.0
 10
-62.909769518135093
 20
42.640217187916335
 30
0.0
 10
-62.944263435737284
 20
42.618135190788934
 30
0.0
 10
-62.979019602676274
 20
42.596468479758641
 30
0.0
 10
-63.014034325160608
 20
42.575221244082144
 30
0.0
 10
-63.049300631257765
 20
42.554394659787732
 30
0.0
 10
-63.08481493288896
 20
42.533993714244758
 30
0.0
 10
-63.120570491415137
 20
42.514019650671742
 30
0.0
 10
-63.156563265555789
 20
42.494475830226236
 30
0.0
 10
-63.192788349764569
 20
42.475365560178659
 30
0.0
 10
-63.229240270637277
 20
42.456691817331659
 30
0.0
 10
-63.265913065186524
 20
42.438455524912655
 30
0.0
 10
-63.302802654592952
 20
42.420662176958842
 30
0.0
 10
-63.339902995869821
 20
42.403312081761158
 30
0.0
 10
-63.37720798269028
 20
42.386406662823958
 30
0.0
 10
-63.414713929198925
 20
42.369952623988837
 30
0.0
 10
-63.45241460113526
 20
42.353948470391742
 30
0.0
 10
-63.490304487934068
 20
42.338397631499248
 30
0.0
 10
-63.528378427298705
 20
42.323303397054133
 30
0.0
 10
-63.566630231919802
 20
42.308666444087152
 30
0.0
 10
-63.605054667052045
 20
42.294489553175453
 30
0.0
 10
-63.643646926806397
 20
42.280775229253749
 30
0.0
 10
-63.68240065911273
 20
42.267523410339635
 30
0.0
 10
-63.721311411577673
 20
42.254739096040538
 30
0.0
 10
-63.760372188586231
 20
42.242421742017456
 30
0.0
 10
-63.799578158422307
 20
42.230574897597734
 30
0.0
 10
-63.838922882222946
 20
42.219197572362134
 30
0.0
 10
-63.878401999033869
 20
42.208295190859047
 30
0.0
 10
-63.918008264832324
 20
42.197865518633733
 30
0.0
 10
-63.957736912194534
 20
42.187912661867244
 30
0.0
 10
-63.997582636833656
 20
42.178437220899042
 30
0.0
 10
-64.037538949539325
 20
42.169440791968157
 30
0.0
 10
-64.077600479655544
 20
42.160923072712251
 30
0.0
 10
-64.117761267181422
 20
42.152888214029247
 30
0.0
 10
-64.158015658692747
 20
42.145334483711451
 30
0.0
 10
-64.198357530065962
 20
42.138265149930135
 30
0.0
 10
-64.238781507178615
 20
42.131679598856152
 30
0.0
 10
-64.279281425733799
 20
42.125581114257159
 30
0.0
 10
-64.319851790699019
 20
42.119967520799435
 30
0.0
 10
-64.360486309489104
 20
42.11484130836385
 30
0.0
 10
-64.401179861014825
 20
42.110202921808735
 30
0.0
 10
-64.44192602519648
 20
42.106054398249938
 30
0.0
 10
-64.482718911074201
 20
42.102392849324445
 30
0.0
 10
-64.523552871890288
 20
42.099223140873448
 30
0.0
 10
-64.564421544539627
 20
42.096542176570836
 30
0.0
 10
-64.605319538499586
 20
42.094352962621542
 30
0.0
 10
-64.64624069223261
 20
42.092651008443255
 30
0.0
 10
-64.687179607932919
 20
42.091451662353734
 30
0.0
 10
-64.728129971505766
 20
42.090706635730839
 30
0.0
 10
-64.755434427614745
 20
42.090625510078638
 30
0.0
 10
-64.769086438167903
 20
42.090584947898634
 30
0.0
  0
SPLINE
  5
99
100
AcDbEntity
  8
________1________1
370
              18
390
0
  6
Continuous
 62
               7
100
AcDbSpline
210
0.0
220
0.0
230
1.0
 70
               0
 71
               3
 72
              15
 73
              11
 74
               0
 42
0.0000001
 43
0.0000001
 12
1.0
 22
0.0
 32
0.0
 13
0.7071067811863663
 23
0.7071067811867288
 33
0.0
 40
0.0
 40
0.0
 40
0.0
 40
0.0
 40
0.1250922696546099
 40
0.2501516602307544
 40
0.3751800830592937
 40
0.5001806372483042
 40
0.625157491561454
 40
0.7501157249685707
 40
0.8750611319442166
 40
1.0
 40
1.0
 40
1.0
 40
1.0
 10
-64.767740885526962
 20
43.107679657483544
 30
0.0000000000000005
 10
-64.689272652076781
 20
43.107679657483544
 30
0.0000000000000005
 10
-64.532247965738648
 20
43.115377054772637
 30
0.0000000000000005
 10
-64.299088801995211
 20
43.149915632769137
 30
0.0000000000000005
 10
-64.070466190549368
 20
43.207113910289053
 30
0.0000000000000005
 10
-63.848603676213585
 20
43.286423622116956
 30
0.0000000000000005
 10
-63.63562436119777
 20
43.387082305131543
 30
0.0000000000000005
 10
-63.433569043365381
 20
43.508129663244659
 30
0.0000000000000005
 10
-63.244397681023187
 20
43.648382943042236
 30
0.0000000000000005
 10
-63.128030026055896
 20
43.753844925845357
 30
0.0000000000000005
 10
-63.072612648266826
 20
43.809262303634455
 30
0.0000000000000005
  0
SPLINE
  5
9A
100
AcDbEntity
  8
________1________1
370
              18
390
0
  6
Continuous
 62
               7
100
AcDbSpline
210
0.0
220
0.0
230
1.0
 70
               0
 71
               3
 72
              15
 73
              11
 74
               0
 42
0.0000001
 43
0.0000001
 12
-0.7071067961694871
 22
0.7071067662036077
 32
0.0
 13
-1.0
 23
0.0
 33
0.0
 40
0.0
 40
0.0
 40
0.0
 40
0.0
 40
0.1249388680547713
 40
0.2498842750304332
 40
0.3748425084382043
 40
0.4998193627522493
 40
0.6248199169420285
 40
0.7498483397708722
 40
0.8749077303466325
 40
1.0
 40
1.0
 40
1.0
 40
1.0
 10
-63.072612684127691
 20
52.371907687627839
 30
-0.0000000000000003
 10
-63.128030061598892
 20
52.427325062750555
 30
-0.0000000000000003
 10
-63.244397715516627
 20
52.532787040391838
 30
-0.0000000000000003
 10
-63.433569075165352
 20
52.673040313146259
 30
-0.0000000000000003
 10
-63.635624389304908
 20
52.794087665048352
 30
-0.0000000000000004
 10
-63.848603699769811
 20
52.894746342808645
 30
-0.0000000000000004
 10
-64.070466208850107
 20
52.974056050440652
 30
-0.0000000000000004
 10
-64.299088814500678
 20
53.031254324904637
 30
-0.0000000000000005
 10
-64.532247972085074
 20
53.065792901043835
 30
-0.0000000000000005
 10
-64.689272654189708
 20
53.073490297917857
 30
-0.0000000000000005
 10
-64.767740885526962
 20
53.073490297917857
 30
-0.0000000000000005
  0
DIMENSION
  5
A7
100
AcDbEntity
  8
寸法線_1
370
               5
390
0
  6
Continuous
 62
               7
100
AcDbDimension
  2
*D2
 10
-61.353934854019585
 20
17.147113120724928
 30
0.0000000000000023
 11
-71.353935182962232
 21
17.147113120724928
 31
0.0000000000000023
 71
               5
 72
               1
 41
1.0
 42
0.0
  3
DS1
100
AcDbAlignedDimension
 13
-81.353935511904851
 23
7.1471078020595442
 33
0.0000000000000023
 14
-61.353934854019585
 24
7.1471131207249314
 34
0.0
100
AcDbRotatedDimension
  0
DIMENSION
  5
B4
100
AcDbEntity
  8
寸法線_1
370
               5
390
0
  6
Continuous
 62
               7
100
AcDbDimension
  2
*D3
 10
-14.098830421053925
 20
17.147113120724928
 30
0.0
 11
-20.098830209457379
 21
17.147113120724928
 31
0.0
 71
               5
 72
               1
 41
1.0
 42
0.0
  3
DS1
100
AcDbAlignedDimension
 13
-26.098829997860822
 23
7.1471131207249314
 33
0.0
 14
-14.098830421053925
 24
7.1471131207249314
 34
0.0
 50
0.0000008537736463
100
AcDbRotatedDimension
  0
MTEXT
  5
B5
100
AcDbEntity
  8
___G
370
               5
390
0
  6
DOT
 62
               7
100
AcDbMText
 10
62.620804282144547
 20
-86.351799282071482
 30
0.0
 40
2.75
 41
22.0
 71
               1
 72
               1
  1
＊＊＊
  7
Style1
 73
               1
 44
1.0
  0
MTEXT
  5
B6
100
AcDbEntity
  8
___G
370
               5
390
0
  6
DOT
 62
               7
100
AcDbMText
 10
32.620804282144547
 20
-86.351799282071511
 30
0.0
 40
2.75
 41
22.000000000000028
 71
               1
 72
               1
  1
園原
  7
Style1
 73
               1
 44
1.0
  0
MTEXT
  5
B7
100
AcDbEntity
  8
____1
370
               5
390
0
  6
Continuous
 62
               7
100
AcDbMText
 10
73.120804282144661
 20
-40.881265874714657
 30
0.0
 40
3.5277776718139648
 41
40.0
 71
               1
 72
               1
  1
Aﾄﾗｽﾀｯﾋﾟﾝ　φ3.5ｘ14
  7
Style1
 73
               1
 44
1.0
  0
MTEXT
  5
B8
100
AcDbEntity
  8
___G
370
               5
390
0
  6
DOT
 62
               7
100
AcDbMText
 10
62.620804282144547
 20
-82.101799282071482
 30
0.0
 40
2.75
 41
22.0
 71
               1
 72
               1
  1
＊＊＊
  7
Style1
 73
               1
 44
1.0
  0
MTEXT
  5
B9
100
AcDbEntity
  8
___G
370
              18
390
0
  6
Continuous
 62
               7
100
AcDbMText
 10
44.620804282144547
 20
-68.496265874714652
 30
0.0
 40
3.2999999523162842
 41
96.0
 71
               1
 72
               1
  1
指定無き公差はJIS 0408-Bによること
  7
Style1
 73
               1
 44
1.0
  0
MTEXT
  5
BA
100
AcDbEntity
  8
____1
370
               5
390
0
  6
Continuous
 62
               7
100
AcDbMText
 10
73.120804282144661
 20
-46.271265874714658
 30
0.0
 40
3.5277776718139648
 41
40.0
 71
               1
 72
               1
  1
PC樹脂
  7
Style1
 73
               1
 44
1.0
  0
MTEXT
  5
BB
100
AcDbEntity
  8
___G
370
               5
390
0
  6
DOT
 62
               7
100
AcDbMText
 10
92.511303735852778
 20
-92.381265874714643
 30
0.0
 40
3.5277776718139648
 41
47.109500546291798
 71
               1
 72
               1
  1
SLZ00167
  7
Style1
 73
               1
 44
1.0
  0
MTEXT
  5
BC
100
AcDbEntity
  8
____1
370
               5
390
0
  6
Continuous
 62
               7
100
AcDbMText
 10
24.620804282144661
 20
-46.271265874714658
 30
0.0
 40
3.5277776718139648
 41
8.4999999999999716
 71
               1
 72
               1
  1
1
  7
Style1
 73
               1
 44
1.0
  0
MTEXT
  5
BD
100
AcDbEntity
  8
____1
370
               5
390
0
  6
Continuous
 62
               7
100
AcDbMText
 10
24.620804282144661
 20
-40.881265874714657
 30
0.0
 40
3.5277776718139648
 41
8.4999999999999716
 71
               1
 72
               1
  1
2
  7
Style1
 73
               1
 44
1.0
  0
MTEXT
  5
BE
100
AcDbEntity
  8
___G
370
              18
390
0
  6
Continuous
 62
               7
100
AcDbMText
 10
24.620804282144547
 20
-77.851799282071482
 30
0.0
 40
2.75
 41
20.000000000000028
 71
               1
 72
               1
  1
H27.9
  7
Style1
 73
               1
 44
1.0
  0
MTEXT
  5
BF
100
AcDbEntity
  8
____1
370
               5
390
0
  6
Continuous
 62
               7
100
AcDbMText
 10
33.120804282144661
 20
-40.881265874714657
 30
0.0
 40
3.5277776718139648
 41
40.000000000000007
 71
               1
 72
               1
  1
固定ビス
  7
Style1
 73
               1
 44
1.0
  0
MTEXT
  5
C0
100
AcDbEntity
  8
____1
370
               5
390
0
  6
Continuous
 62
               7
100
AcDbMText
 10
33.120804282144661
 20
-46.271265874714658
 30
0.0
 40
3.5277776718139648
 41
40.000000000000014
 71
               1
 72
               1
  1
棚ストッパー
  7
Style1
 73
               1
 44
1.0
  0
LINE
  5
C1
100
AcDbEntity
  8
________1________1
370
              18
390
0
  6
Continuous
 62
               7
100
AcDbLine
 10
-77.938784483805108
 20
42.090584977700644
 30
0.0
 11
-64.769086160861207
 21
42.090584977700644
 31
0.0
  0
LINE
  5
C2
100
AcDbEntity
  8
________1________1
370
              18
390
0
  6
Continuous
 62
               7
100
AcDbLine
 10
-64.769086160861207
 20
54.090584977700757
 30
0.0
 11
-77.938784483805108
 21
54.090584977700757
 31
0.0
  0
LINE
  5
C3
100
AcDbEntity
  8
________1________1
370
              18
390
0
  6
Continuous
 62
               7
100
AcDbLine
 10
-20.098830482270511
 20
7.6471067736362421
 30
0.0
 11
-20.348832785394006
 21
7.1471021673893347
 31
0.0
  0
LINE
  5
C4
100
AcDbEntity
  8
________1________1
370
              18
390
0
  6
Continuous
 62
               7
100
AcDbLine
 10
-17.092216844135194
 20
7.147107802057036
 30
0.0
 11
-19.848831801331315
 21
7.147107802057036
 31
0.0
  0
LINE
  5
C5
100
AcDbEntity
  8
________1________1
370
              18
390
0
  6
Continuous
 62
               7
100
AcDbLine
 10
-20.348828134774816
 20
7.147107802057036
 30
0.0
 11
-23.105443091982476
 21
7.147107802057036
 31
0.0
  0
LINE
  5
C6
100
AcDbEntity
  8
________1________1
370
              18
390
0
  6
Continuous
 62
               7
100
AcDbLine
 10
-79.603464962292605
 20
7.1471131207249385
 30
0.0
 11
-79.353681577492608
 21
7.6466708065770383
 31
0.0
  0
LINE
  5
C7
100
AcDbEntity
  8
________1________1
370
              18
390
0
  6
Continuous
 62
               7
100
AcDbLine
 10
-79.353681577492608
 20
7.6466708065770383
 30
0.0
 11
-79.103898760426915
 21
7.1471131207249385
 31
0.0
  0
LINE
  5
C8
100
AcDbEntity
  8
____1
370
              18
390
0
  6
Continuous
 62
               7
100
AcDbLine
 10
-77.938784483805108
 20
7.1471078020595371
 30
0.0
 11
-81.353935511904794
 21
7.1471078020595371
 31
0.0000000000000023
  0
LINE
  5
C9
100
AcDbEntity
  8
________1________1
370
              18
390
0
  6
Continuous
 62
               7
100
AcDbLine
 10
-77.950611314995939
 20
53.083971853774443
 30
0.0
 11
-64.757259329670347
 21
53.083971853774443
 31
0.0
  0
LINE
  5
CA
100
AcDbEntity
  8
________1________1
370
              18
390
0
  6
Continuous
 62
               7
100
AcDbLine
 10
-77.938784483805108
 20
7.1471078020595371
 30
0.0
 11
-64.769086160861207
 21
7.1471078020595371
 31
0.0
  0
SPLINE
  5
CB
100
AcDbEntity
  8
________1________1
370
              18
390
0
  6
Continuous
 62
               7
100
AcDbSpline
210
0.0
220
0.0
230
1.0
 70
               0
 71
               3
 72
              15
 73
              11
 74
               0
 42
0.0000001
 43
0.0000001
 12
-1.0
 22
0.0
 32
0.0
 13
-0.7071067662034329
 23
-0.7071067961696619
 33
0.0
 40
0.0
 40
0.0
 40
0.0
 40
0.0
 40
0.1250922696558468
 40
0.2501516602323735
 40
0.3751800830606038
 40
0.5001806372488604
 40
0.6251574915611181
 40
0.7501157249675676
 40
0.8750611319431944
 40
1.0
 40
1.0
 40
1.0
 40
1.0
 10
-77.950611314995939
 20
53.083971853774443
 30
-0.0000000000000001
 10
-78.029079550559004
 20
53.083971853774443
 30
-0.0000000000000001
 10
-78.186104241130693
 20
53.076274456070252
 30
-0.0000000000000001
 10
-78.419263411033114
 20
53.04173587621645
 30
-0.0000000000000001
 10
-78.647886028274314
 20
52.98453759564066
 30
-0.0000000000000001
 10
-78.869748547865527
 20
52.905227879616746
 30
-0.0000000000000001
 10
-79.082727867432283
 20
52.804569191347952
 30
-0.0000000000000001
 10
-79.284783188957448
 20
52.683521827023839
 30
-0.0000000000000001
 10
-79.473954553993167
 20
52.54326854018305
 30
-0.0000000000000001
 10
-79.590322210009987
 20
52.437806552218234
 30
-0.0000000000000001
 10
-79.645739588116953
 20
52.382389171762753
 30
-0.0000000000000001
  0
SPLINE
  5
CC
100
AcDbEntity
  8
________1________1
370
              18
390
0
  6
Continuous
 62
               7
100
AcDbSpline
210
0.0
220
0.0
230
1.0
 70
               0
 71
               3
 72
              15
 73
              11
 74
               0
 42
0.0000001
 43
0.0000001
 12
0.7071067961696683
 22
-0.7071067662034265
 32
0.0
 13
1.0
 23
0.0
 33
0.0
 40
0.0
 40
0.0
 40
0.0
 40
0.0
 40
0.1249388680547717
 40
0.249884275030434
 40
0.3748425084382023
 40
0.4998193627522442
 40
0.6248199169420342
 40
0.7498483397708788
 40
0.8749077303466278
 40
1.0
 40
1.0
 40
1.0
 40
1.0
 10
-79.635257960538581
 20
43.809262267773533
 30
0.0000000000000003
 10
-79.57984058306738
 20
43.753844892650847
 30
0.0000000000000003
 10
-79.463472929149646
 20
43.648382915009535
 30
0.0000000000000003
 10
-79.274301569500949
 20
43.508129642255057
 30
0.0000000000000003
 10
-79.072246255361335
 20
43.387082290352936
 30
0.0000000000000004
 10
-78.85926694489649
 20
43.286423612592756
 30
0.0000000000000004
 10
-78.637404435816165
 20
43.207113904960636
 30
0.0000000000000004
 10
-78.408781830165623
 20
43.149915630496736
 30
0.0000000000000005
 10
-78.175622672581198
 20
43.115377054357452
 30
0.0000000000000005
 10
-78.018597990476593
 20
43.107679657483544
 30
0.0000000000000005
 10
-77.940129759139353
 20
43.107679657483544
 30
0.0000000000000005
  0
SPLINE
  5
CD
100
AcDbEntity
  8
________1________1
370
              18
390
0
  6
Continuous
 62
               7
100
AcDbSpline
210
0.0
220
0.0
230
1.0
 70
               0
 71
               3
 72
              15
 73
              11
 74
               0
 42
0.0000001
 43
0.0000001
 12
0.0
 22
-1.0
 32
0.0
 13
0.7071067917813998
 23
-0.7071067705916951
 33
0.0000000000000013
 40
0.0
 40
0.0
 40
0.0
 40
0.0
 40
0.125092269655494
 40
0.2501516602318976
 40
0.3751800830602176
 40
0.5001806372486948
 40
0.6251574915612224
 40
0.7501157249678601
 40
0.8750611319434944
 40
1.0
 40
1.0
 40
1.0
 40
1.0
 10
-80.336840642550328
 20
45.504390540894548
 30
-0.0000000000000001
 10
-80.336840642550328
 20
45.425922305950337
 30
-0.0000000000000001
 10
-80.329143244967639
 20
45.268897616618744
 30
-0.0000000000000001
 10
-80.294604665657886
 20
45.035738448520135
 30
0.0
 10
-80.237406385977096
 20
44.807115832976336
 30
0.0
 10
-80.15809667118225
 20
44.585253314924358
 30
0.0000000000000001
 10
-80.057437984452292
 20
44.372273996690552
 30
0.0000000000000001
 10
-79.936390621947396
 20
44.170218676246947
 30
0.0000000000000002
 10
-79.796137337169455
 20
43.981047312000243
 30
0.0000000000000002
 10
-79.690675350716475
 20
43.864679656290747
 30
0.0000000000000002
 10
-79.635257971041995
 20
43.809262278276947
 30
0.0000000000000003
  0
SPLINE
  5
CE
100
AcDbEntity
  8
________1________1
370
              18
390
0
  6
Continuous
 62
               7
100
AcDbSpline
210
0.0
220
0.0
230
1.0
 70
               0
 71
               3
 72
              15
 73
              11
 74
               0
 42
0.0000001
 43
0.0000001
 12
0.0000004780479151
 22
-0.9999999999998857
 32
0.0
 13
0.9813606716915723
 23
0.192175003725943
 33
0.0
 40
0.0
 40
0.0
 40
0.0
 40
0.0
 40
0.1251106881662631
 40
0.2501334281398726
 40
0.3750861288792786
 40
0.5000000939400665
 40
0.6249140439203806
 40
0.7498667023072902
 40
0.8748893807624586
 40
1.0
 40
1.0
 40
1.0
 40
1.0
 10
-80.347322198405152
 20
50.560090329579836
 30
0.0
 10
-80.347322180507234
 20
50.522650739354319
 30
0.0
 10
-80.339042353546887
 20
50.447536551400631
 30
0.0
 10
-80.302347824149393
 20
50.34053744915802
 30
0.0
 10
-80.243150196624526
 20
50.244154333326023
 30
0.0
 10
-80.164304177584569
 20
50.163113952550944
 30
0.0
 10
-80.069622123281675
 20
50.101311494336343
 30
0.0
 10
-79.963659255414598
 20
50.061739699678739
 30
0.0
 10
-79.851602821373376
 20
50.046291703874132
 30
0.0
 10
-79.776297575578269
 20
50.052601300421244
 30
0.0
 10
-79.739555854409247
 20
50.059796249848333
 30
0.0
  0
SPLINE
  5
CF
100
AcDbEntity
  8
________1________1
370
              18
390
0
  6
Continuous
 62
               7
100
AcDbSpline
210
0.0
220
0.0
230
1.0
 70
               0
 71
               3
 72
              15
 73
              11
 74
               0
 42
0.0000001
 43
0.0000001
 12
0.0
 22
-1.0
 32
0.0
 13
0.7071067811863606
 23
-0.7071067811867344
 33
0.0
 40
0.0
 40
0.0
 40
0.0
 40
0.0
 40
0.1250922696546117
 40
0.2501516602307575
 40
0.3751800830592982
 40
0.5001806372483195
 40
0.6251574915614604
 40
0.750115724968581
 40
0.8750611319442078
 40
1.0
 40
1.0
 40
1.0
 40
1.0
 10
-80.347322198406943
 20
45.493908985037933
 30
0.0
 10
-80.347322198406943
 20
45.415440751587738
 30
0.0
 10
-80.33962480111785
 20
45.258416065249634
 30
0.0
 10
-80.30508622312135
 20
45.025256901506054
 30
0.0
 10
-80.247887945601434
 20
44.79663429006024
 30
0.0
 10
-80.168578233773502
 20
44.574771775724543
 30
0.0000000000000001
 10
-80.067919550758944
 20
44.361792460708642
 30
0.0000000000000001
 10
-79.946872192645884
 20
44.159737142876338
 30
0.0000000000000001
 10
-79.806618912848251
 20
43.970565780534145
 30
0.0000000000000001
 10
-79.701156930045158
 20
43.854198125566853
 30
0.0000000000000001
 10
-79.645739552256089
 20
43.798780747777755
 30
0.0000000000000001
  0
SPLINE
  5
D0
100
AcDbEntity
  8
________1________1
370
              18
390
0
  6
Continuous
 62
               7
100
AcDbSpline
210
0.0
220
0.0
230
1.0
 70
               0
 71
               3
 72
              16
 73
              12
 74
               0
 42
0.0000001
 43
0.0000001
 12
-0.9813607060909775
 22
0.1921748280618933
 32
0.0
 13
0.0000000000108568
 23
-1.0
 33
0.0
 40
0.0
 40
0.0
 40
0.0
 40
0.0
 40
0.2216028159949613
 40
0.2216028159949613
 40
0.442409739203275
 40
0.442409739203275
 40
0.6628078375676489
 40
0.6628078375676489
 40
0.8313517347899658
 40
0.8313517347899658
 40
1.0
 40
1.0
 40
1.0
 40
1.0
 10
-79.741570145603788
 20
46.111087518496348
 30
-0.0000000000000007
 10
-79.805619807137987
 20
46.123630034837547
 30
-0.0000000000000007
 10
-79.871503241882579
 20
46.123544580756871
 30
-0.0000000000000007
 10
-79.999282220083956
 20
46.098082982929853
 30
-0.0000000000000007
 10
-80.05995453928449
 20
46.073043217483061
 30
-0.0000000000000007
 10
-80.168169995688288
 20
46.00112773793505
 30
-0.0000000000000007
 10
-80.2146820544109
 20
45.954993370749563
 30
0.0000000000007212
 10
-80.278867769717863
 20
45.86012430863785
 30
0.0000000000007212
 10
-80.300387175299306
 20
45.815094308454448
 30
0.0000000000007212
 10
-80.329459423155754
 20
45.720141224898754
 30
0.0000000000007212
 10
-80.336840642547202
 20
45.670748192380358
 30
0.0000000000007212
 10
-80.336840642546662
 20
45.621079625821153
 30
0.0000000000007212
  0
SPLINE
  5
D1
100
AcDbEntity
  8
________1________1
370
              18
390
0
  6
Continuous
 62
               7
100
AcDbSpline
210
0.0
220
0.0
230
1.0
 70
               0
 71
               3
 72
              15
 73
              11
 74
               0
 42
0.0000001
 43
0.0000001
 12
-0.7071067961689435
 22
0.7071067662041515
 32
0.0
 13
-1.0
 23
0.0
 33
0.0
 40
0.0
 40
0.0
 40
0.0
 40
0.0
 40
0.1249388680547713
 40
0.2498842750304332
 40
0.3748425084382043
 40
0.4998193627522493
 40
0.6248199169420285
 40
0.7498483397708722
 40
0.8749077303466325
 40
1.0
 40
1.0
 40
1.0
 40
1.0
 10
-63.062131128271076
 20
52.382389243484454
 30
-0.0000000000000001
 10
-63.117548505742278
 20
52.437806618607254
 30
-0.0000000000000001
 10
-63.233916159660012
 20
52.543268596248453
 30
-0.0000000000000001
 10
-63.423087519308709
 20
52.683521869002959
 30
-0.0000000000000001
 10
-63.625142833448322
 20
52.804569220904938
 30
-0.0000000000000001
 10
-63.838122143913196
 20
52.90522789866526
 30
-0.0000000000000001
 10
-64.059984652993521
 20
52.984537606297351
 30
-0.0000000000000001
 10
-64.288607258644092
 20
53.041735880761337
 30
-0.0000000000000001
 10
-64.521766416228488
 20
53.076274456900649
 30
-0.0000000000000001
 10
-64.678791098333093
 20
53.083971853774443
 30
-0.0000000000000001
 10
-64.757259329670347
 20
53.083971853774443
 30
-0.0000000000000001
  0
SPLINE
  5
D2
100
AcDbEntity
  8
________1________1
370
              18
390
0
  6
Continuous
 62
               7
100
AcDbSpline
210
0.0
220
0.0
230
1.0
 70
               0
 71
               3
 72
              15
 73
              11
 74
               0
 42
0.0000001
 43
0.0000001
 12
0.7071067811870913
 22
0.7071067811860039
 32
-0.0000000000000013
 13
0.0
 23
1.0
 33
-0.0000000000000013
 40
0.0
 40
0.0
 40
0.0
 40
0.0
 40
0.1249388680557868
 40
0.2498842750314187
 40
0.3748425084385392
 40
0.4998193627516818
 40
0.6248199169407018
 40
0.7498483397692418
 40
0.8749077303453879
 40
1.0
 40
1.0
 40
1.0
 40
1.0
 10
-63.072612648266826
 20
43.809262303634455
 30
0.0000000000000005
 10
-63.017195270477757
 20
43.864679681423439
 30
0.0000000000000004
 10
-62.911733287674693
 20
43.981047336390759
 30
0.0000000000000004
 10
-62.771480007877031
 20
44.170218698732953
 30
0.0000000000000004
 10
-62.650432649763971
 20
44.372274016565342
 30
0.0000000000000004
 10
-62.549773966749385
 20
44.585253331581157
 30
0.0000000000000003
 10
-62.470464254921453
 20
44.80711584591694
 30
0.0000000000000003
 10
-62.413265977401537
 20
45.035738457362754
 30
0.0000000000000002
 10
-62.378727399405065
 20
45.268897621106248
 30
0.0000000000000002
 10
-62.371030002115972
 20
45.425922307444353
 30
0.0000000000000002
 10
-62.371030002115972
 20
45.504390540894548
 30
0.0000000000000001
  0
SPLINE
  5
D3
100
AcDbEntity
  8
________1________1
370
              18
390
0
  6
Continuous
 62
               7
100
AcDbSpline
210
0.0
220
0.0
230
1.0
 70
               0
 71
               3
 72
              15
 73
              11
 74
               0
 42
0.0000001
 43
0.0000001
 12
0.7071067662036077
 22
0.707106796169487
 32
0.0
 13
0.0
 23
1.0
 33
0.0
 40
0.0
 40
0.0
 40
0.0
 40
0.0
 40
0.1249388680547651
 40
0.2498842750304237
 40
0.3748425084382086
 40
0.4998193627522535
 40
0.6248199169420317
 40
0.7498483397708676
 40
0.8749077303466215
 40
1.0
 40
1.0
 40
1.0
 40
1.0
 10
-63.062131056549347
 20
43.798780783638648
 30
0.0000000000000001
 10
-63.006713681426632
 20
43.854198161109849
 30
0.0000000000000001
 10
-62.90125170378532
 20
43.970565815027641
 30
0.0000000000000001
 10
-62.760998431030899
 20
44.159737174676138
 30
0.0000000000000001
 10
-62.639951079128778
 20
44.361792488815951
 30
0.0000000000000001
 10
-62.53929240136857
 20
44.574771799280654
 30
0.0000000000000001
 10
-62.459982693736478
 20
44.796634308361149
 30
0.0
 10
-62.40278441927255
 20
45.025256914011635
 30
0.0
 10
-62.368245843133266
 20
45.258416071596059
 30
0.0
 10
-62.360548446259358
 20
45.415440753700636
 30
0.0
 10
-62.360548446259358
 20
45.493908985037933
 30
0.0
  0
SPLINE
  5
D4
100
AcDbEntity
  8
________1________1
370
              18
390
0
  6
Continuous
 62
               7
100
AcDbSpline
210
0.0
220
0.0
230
1.0
 70
               0
 71
               3
 72
              15
 73
              11
 74
               0
 42
0.0000001
 43
0.0000001
 12
0.0
 22
1.0
 32
0.0
 13
-0.7071067961700298
 23
0.7071067662030647
 33
-0.0000000000000013
 40
0.0
 40
0.0
 40
0.0
 40
0.0
 40
0.1250922696558459
 40
0.2501516602323852
 40
0.3751800830605991
 40
0.500180637248878
 40
0.6251574915611152
 40
0.7501157249675849
 40
0.875061131943202
 40
1.0
 40
1.0
 40
1.0
 40
1.0
 10
-62.371030002115944
 20
50.676779414506839
 30
0.0000000000000001
 10
-62.371030002115944
 20
50.755247650069805
 30
0.0000000000000001
 10
-62.378727399820249
 20
50.912272340641522
 30
0.0000000000000001
 10
-62.413265979673966
 20
51.145431510544029
 30
0.0
 10
-62.470464260249841
 20
51.374054127785229
 30
0.0
 10
-62.549773976273613
 20
51.595916647376413
 30
-0.0000000000000001
 10
-62.650432664542549
 20
51.808895966943226
 30
-0.0000000000000001
 10
-62.771480028866549
 20
52.010951288468334
 30
-0.0000000000000002
 10
-62.911733315707451
 20
52.200122653504138
 30
-0.0000000000000002
 10
-63.017195303672239
 20
52.316490309520958
 30
-0.0000000000000002
 10
-63.072612684127691
 20
52.371907687627839
 30
-0.0000000000000003
  0
SPLINE
  5
D5
100
AcDbEntity
  8
________1________1
370
              18
390
0
  6
Continuous
 62
               7
100
AcDbSpline
210
0.0
220
0.0
230
1.0
 70
               0
 71
               3
 72
              15
 73
              11
 74
               0
 42
0.0000001
 43
0.0000001
 12
0.0
 22
1.0
 32
0.0
 13
-0.7071067961698488
 23
0.7071067662032461
 33
0.0
 40
0.0
 40
0.0
 40
0.0
 40
0.0
 40
0.1250922696558459
 40
0.2501516602323852
 40
0.3751800830605991
 40
0.500180637248878
 40
0.6251574915611152
 40
0.7501157249675849
 40
0.875061131943202
 40
1.0
 40
1.0
 40
1.0
 40
1.0
 10
-62.360548446259358
 20
50.687260970363425
 30
0.0
 10
-62.360548446259358
 20
50.765729205926505
 30
0.0
 10
-62.368245843963635
 20
50.922753896498108
 30
0.0
 10
-62.40278442381738
 20
51.155913066400615
 30
0.0
 10
-62.459982704393227
 20
51.384535683641815
 30
0.0
 10
-62.539292420416999
 20
51.606398203233027
 30
-0.0000000000000001
 10
-62.639951108685935
 20
51.819377522799812
 30
-0.0000000000000001
 10
-62.760998473009934
 20
52.021432844325034
 30
-0.0000000000000001
 10
-62.901251759850837
 20
52.210604209360753
 30
-0.0000000000000001
 10
-63.006713747815624
 20
52.326971865377544
 30
-0.0000000000000001
 10
-63.062131128271076
 20
52.382389243484454
 30
-0.0000000000000001
  0
SPLINE
  5
D6
100
AcDbEntity
  8
________1________1
370
              18
390
0
  6
Continuous
 62
               7
100
AcDbSpline
210
0.0
220
0.0
230
1.0
 70
               0
 71
               3
 72
              15
 73
              11
 74
               0
 42
0.0000001
 43
0.0000001
 12
1.0
 22
0.0
 32
0.0
 13
0.7071067662030648
 23
0.7071067961700299
 33
0.0
 40
0.0
 40
0.0
 40
0.0
 40
0.0
 40
0.1250922696558471
 40
0.250151660232378
 40
0.3751800830606085
 40
0.5001806372488655
 40
0.6251574915611198
 40
0.7501157249675766
 40
0.8750611319431946
 40
1.0
 40
1.0
 40
1.0
 40
1.0
 10
-64.757259329670347
 20
43.097198101626958
 30
0.0000000000000001
 10
-64.678791094107268
 20
43.097198101626958
 30
0.0000000000000001
 10
-64.521766403535608
 20
43.10489549933115
 30
0.0000000000000001
 10
-64.288607233633186
 20
43.139434079184952
 30
0.0000000000000001
 10
-64.059984616391958
 20
43.196632359760741
 30
0.0000000000000001
 10
-63.838122096800745
 20
43.275942075784542
 30
0.0000000000000001
 10
-63.625142777234018
 20
43.37660076405345
 30
0.0000000000000001
 10
-63.423087455708824
 20
43.497648128377449
 30
0.0000000000000001
 10
-63.233916090673105
 20
43.637901415218352
 30
0.0000000000000001
 10
-63.117548434656285
 20
43.743363403183139
 30
0.0000000000000001
 10
-63.062131056549347
 20
43.798780783638648
 30
0.0000000000000001
  0
SPLINE
  5
D7
100
AcDbEntity
  8
________1________1
370
              18
390
0
  6
Continuous
 62
               7
100
AcDbSpline
210
0.0
220
0.0
230
1.0
 70
               0
 71
               3
 72
              15
 73
              11
 74
               0
 42
0.0000001
 43
0.0000001
 12
0.981360673296468
 22
-0.1921749955303836
 32
0.0
 13
0.0000004868895564
 23
0.9999999999998814
 33
0.0
 40
0.0
 40
0.0
 40
0.0
 40
0.0
 40
0.1251106202821181
 40
0.2501332989336503
 40
0.3750859568468679
 40
0.4999999059892999
 40
0.6249138702235129
 40
0.7498665705210557
 40
0.8748893107373629
 40
1.0
 40
1.0
 40
1.0
 40
1.0
 10
-62.968314790257025
 20
50.059796249848731
 30
0.0
 10
-62.931573068736057
 20
50.052601300671327
 30
0.0
 10
-62.856267822609524
 20
50.04629170442233
 30
0.0
 10
-62.744211388405361
 20
50.061739700257945
 30
0.0
 10
-62.638248520849672
 20
50.10131149464884
 30
0.0
 10
-62.543566467078321
 20
50.163113952430521
 30
0.0
 10
-62.464720448559987
 20
50.244154332774926
 30
0.0
 10
-62.405522821336305
 20
50.34053744837054
 30
0.0
 10
-62.368828291842064
 20
50.44753655079522
 30
0.0
 10
-62.360548464492112
 20
50.522650739041737
 30
0.0
 10
-62.360548446263167
 20
50.56009032958012
 30
0.0
  0
SPLINE
  5
D8
100
AcDbEntity
  8
________1________1
370
              18
390
0
  6
Continuous
 62
               7
100
AcDbSpline
210
0.0
220
0.0
230
1.0
 70
               0
 71
               3
 72
              16
 73
              12
 74
               0
 42
0.0000001
 43
0.0000001
 12
0.981360706091044
 22
-0.1921748280615535
 32
0.0
 13
-0.000000000010881
 23
0.9999999999999999
 33
0.0
 40
0.0
 40
0.0
 40
0.0
 40
0.0
 40
0.2216028159948636
 40
0.2216028159948636
 40
0.4424097392034582
 40
0.4424097392034582
 40
0.6628078375681199
 40
0.6628078375681199
 40
0.8313517347904759
 40
0.8313517347904759
 40
1.0
 40
1.0
 40
1.0
 40
1.0
 10
-62.966300499062484
 20
50.07008243690494
 30
0.0000000000007209
 10
-62.902250837528172
 20
50.057539920563741
 30
0.0000000000007209
 10
-62.836367402783637
 20
50.057625374644445
 30
0.0000000000007209
 10
-62.708588424582317
 20
50.083086972471435
 30
0.0000000000007209
 10
-62.64791610538181
 20
50.108126737918226
 30
0.0000000000007209
 10
-62.539700648978041
 20
50.180042217466237
 30
0.0000000000007209
 10
-62.493188590255428
 20
50.22617658465164
 30
0.0000000000014428
 10
-62.429002874948466
 20
50.321045646763324
 30
0.0000000000014428
 10
-62.407483469367023
 20
50.36607564694684
 30
0.0000000000007209
 10
-62.378411221510575
 20
50.461028730502321
 30
0.0000000000007209
 10
-62.37103000211907
 20
50.510421763020631
 30
0.0000000000014428
 10
-62.37103000211961
 20
50.560090329580035
 30
0.0000000000014428
  0
SPLINE
  5
D9
100
AcDbEntity
  8
________1________1
370
              18
390
0
  6
Continuous
 62
               7
100
AcDbSpline
210
0.0
220
0.0
230
1.0
 70
               0
 71
               3
 72
              16
 73
              12
 74
               0
 42
0.0000001
 43
0.0000001
 12
0.0000000000052352
 22
1.0
 32
0.0
 13
-0.9813607060907953
 23
-0.1921748280628237
 33
0.0
 40
0.0
 40
0.0
 40
0.0
 40
0.0
 40
0.2215695230802255
 40
0.2215695230802255
 40
0.4423352151673124
 40
0.4423352151673124
 40
0.662689104714961
 40
0.662689104714961
 40
0.8313139083457839
 40
0.8313139083457839
 40
1.0
 40
1.0
 40
1.0
 40
1.0
 10
-62.371030002117735
 20
45.621079625821437
 30
-0.0000000000001812
 10
-62.371030002117394
 20
45.686335959425435
 30
-0.0000000000001812
 10
-62.383771198225915
 20
45.750965405277242
 30
-0.0000000000009031
 10
-62.433298716270755
 20
45.871452120379658
 30
-0.0000000000009031
 10
-62.469519354007261
 20
45.92617455886257
 30
-0.0000000000001812
 10
-62.560860776005072
 20
46.018546694637067
 30
-0.0000000000001812
 10
-62.615056293430527
 20
46.055327652705259
 30
-0.0000000000001812
 10
-62.720492482450524
 20
46.100111785672269
 30
-0.0000000000001812
 10
-62.768840347523891
 20
46.112589132376357
 30
-0.0000000000009031
 10
-62.867644583709236
 20
46.122882042664557
 30
-0.0000000000009031
 10
-62.917546806673741
 20
46.120634703740464
 30
-0.0000000000001812
 10
-62.966300499062484
 20
46.111087518496461
 30
-0.0000000000001812
  0
LINE
  5
DA
100
AcDbEntity
  8
________1________1
370
              18
390
0
  6
Continuous
 62
               7
100
AcDbLine
 10
-80.3368406425503
 20
50.560090329579921
 30
0.0
 11
-80.347322198406914
 21
50.560090329579921
 31
0.0
  0
CIRCLE
  5
DB
100
AcDbEntity
  8
________1________1
370
              18
390
0
  6
Continuous
 62
               7
100
AcDbCircle
 10
-77.153935322335002
 20
51.090584977699308
 30
0.0
 40
1.4073358394366835
  0
CIRCLE
  5
DC
100
AcDbEntity
  8
________1________1
370
              18
390
0
  6
Continuous
 62
               7
100
AcDbCircle
 10
-77.153935322335002
 20
45.090584977702036
 30
0.0
 40
1.4073358394366835
  0
ARC
  5
DD
100
AcDbEntity
  8
________1________1
370
              18
390
0
  6
Continuous
 62
               7
100
AcDbCircle
 10
-79.353935322332973
 20
48.090584977700559
 30
0.0
 40
2.0170946797828151
100
AcDbArc
 50
0.0
 51
101.07973195978566
  0
INSERT
  5
E5
100
AcDbEntity
  8
____1
370
               5
390
0
  6
CENTER2
 62
               7
100
AcDbBlockReference
  2
C1
 10
0.0
 20
0.0
 30
0.0
  0
LINE
  5
E6
100
AcDbEntity
  8
________1________1
370
              18
390
0
  6
Continuous
 62
               7
100
AcDbLine
 10
-17.513980491244311
 20
7.1471131207249385
 30
0.0
 11
-14.09883042105389
 21
7.1471131207249385
 31
0.0
  0
INSERT
  5
EE
100
AcDbEntity
  8
____1
370
               5
390
0
  6
CENTER2
 62
               7
100
AcDbBlockReference
  2
C2
 10
0.0
 20
0.0
 30
0.0
  0
LINE
  5
EF
100
AcDbEntity
  8
________1________1
370
              18
390
0
  6
Continuous
 62
               7
100
AcDbLine
 10
-77.940129759139325
 20
53.073490297917857
 30
0.0
 11
-77.950611314995939
 21
53.083971853774443
 31
0.0
  0
LINE
  5
F0
100
AcDbEntity
  8
________1________1
370
              18
390
0
  6
Continuous
 62
               7
100
AcDbLine
 10
-80.336840642550328
 20
45.504390540894434
 30
0.0
 11
-80.347322198406914
 21
45.493908985037933
 31
0.0
  0
ARC
  5
F1
100
AcDbEntity
  8
________1________1
370
              18
390
0
  6
Continuous
 62
               7
100
AcDbCircle
 10
-79.353935322332973
 20
48.090584977700559
 30
0.0
 40
2.0170946797828004
100
AcDbArc
 50
-101.07973195978407
 51
0.0
  0
LINE
  5
F2
100
AcDbEntity
  8
________1________1
370
              18
390
0
  6
Continuous
 62
               7
100
AcDbLine
 10
-80.336840642550328
 20
50.560090329579921
 30
0.0
 11
-80.336840642550328
 21
50.676779414506839
 31
0.0
  0
LINE
  5
F3
100
AcDbEntity
  8
________1________1
370
              18
390
0
  6
Continuous
 62
               7
100
AcDbLine
 10
-79.741570145603788
 20
50.070082436904741
 30
0.0
 11
-79.739555854409218
 21
50.059796249848333
 31
0.0
  0
CIRCLE
  5
F4
100
AcDbEntity
  8
________1________1
370
              18
390
0
  6
Continuous
 62
               7
100
AcDbCircle
 10
-79.353935322332973
 20
48.090584977700559
 30
0.0000000000000029
 40
0.9930158461016561
210
0.0
220
0.0000000000000001
230
1.0
  0
CIRCLE
  5
F5
100
AcDbEntity
  8
________1________1
370
              18
390
0
  6
Continuous
 62
               7
100
AcDbCircle
 10
-77.153935322335002
 20
45.090584977702036
 30
0.0000000000000027
 40
1.5
210
0.0
220
0.0000000000000001
230
1.0
  0
LINE
  5
F6
100
AcDbEntity
  8
________1________1
370
              18
390
0
  6
Continuous
 62
               7
100
AcDbLine
 10
-63.353935414303194
 20
7.6471068264744311
 30
0.0
 11
-63.103935533512484
 21
7.1471131207249385
 31
0.0
  0
LINE
  5
F7
100
AcDbEntity
  8
________1________1
370
              18
390
0
  6
Continuous
 62
               7
100
AcDbLine
 10
-63.603935295093876
 20
7.1471131207249385
 30
0.0
 11
-63.353935414303194
 21
7.6471068264744311
 31
0.0
  0
CIRCLE
  5
F8
100
AcDbEntity
  8
________1________1
370
              18
390
0
  6
Continuous
 62
               7
100
AcDbCircle
 10
-71.353935322333257
 20
48.090584977700757
 30
0.0000000000000029
 40
1.8499999999999943
210
0.0
220
0.0000000000000001
230
1.0
  0
CIRCLE
  5
F9
100
AcDbEntity
  8
________1________1
370
              18
390
0
  6
Continuous
 62
               7
100
AcDbCircle
 10
-71.353935322333257
 20
48.090584977700757
 30
0.0000000000000029
 40
3.0170946797828435
210
0.0
220
0.0000000000000001
230
1.0
  0
CIRCLE
  5
FA
100
AcDbEntity
  8
________1________1
370
              18
390
0
  6
Continuous
 62
               7
100
AcDbCircle
 10
-71.353935322333257
 20
48.090584977700757
 30
0.0
 40
3.006613123926229
  0
INSERT
  5
102
100
AcDbEntity
  8
____1
370
               5
390
0
  6
CENTER2
 62
               7
100
AcDbBlockReference
  2
C3
 10
0.0
 20
0.0
 30
0.0
  0
LINE
  5
103
100
AcDbEntity
  8
________1________1
370
              18
390
0
  6
Continuous
 62
               7
100
AcDbLine
 10
-64.767740885526962
 20
43.107679657483544
 30
0.0
 11
-77.940129759139325
 21
43.107679657483544
 31
0.0
  0
LINE
  5
104
100
AcDbEntity
  8
________1________1
370
              18
390
0
  6
Continuous
 62
               7
100
AcDbLine
 10
-64.757259329670347
 20
43.097198101626958
 30
0.0
 11
-77.950611314995939
 21
43.097198101626958
 31
0.0
  0
LINE
  5
105
100
AcDbEntity
  8
________1________1
370
              18
390
0
  6
Continuous
 62
               7
100
AcDbLine
 10
-22.683679129530798
 20
7.1471078020595371
 30
0.0
 11
-17.513980806586872
 21
7.1471078020595371
 31
0.0
  0
LINE
  5
106
100
AcDbEntity
  8
________1________1
370
              18
390
0
  6
Continuous
 62
               7
100
AcDbLine
 10
-19.848827095887273
 20
7.1471020577165376
 30
0.0
 11
-20.098829701802412
 21
7.6471072695467406
 31
0.0
  0
LINE
  5
107
100
AcDbEntity
  8
________1________1
370
              18
390
0
  6
Continuous
 62
               7
100
AcDbLine
 10
-77.940129759139325
 20
53.073490297917857
 30
0.0
 11
-64.767740885526962
 21
53.073490297917857
 31
0.0
  0
LINE
  5
108
100
AcDbEntity
  8
________1________1
370
              18
390
0
  6
Continuous
 62
               7
100
AcDbLine
 10
-62.371030002115972
 20
50.676779414506839
 30
0.0
 11
-62.360548446259358
 21
50.687260970363539
 31
0.0
  0
ARC
  5
109
100
AcDbEntity
  8
________1________1
370
              18
390
0
  6
Continuous
 62
               7
100
AcDbCircle
 10
-63.353935322333271
 20
48.090584977700757
 30
0.0
 40
2.0170946797828284
100
AcDbArc
 50
78.920268040216101
 51
180.0
  0
CIRCLE
  5
10A
100
AcDbEntity
  8
________1________1
370
              18
390
0
  6
Continuous
 62
               7
100
AcDbCircle
 10
-63.353935322333271
 20
48.090584977700757
 30
0.0000000000000029
 40
1.0034974019582421
210
0.0
220
0.0000000000000001
230
1.0
  0
CIRCLE
  5
10B
100
AcDbEntity
  8
________1________1
370
              18
390
0
  6
Continuous
 62
               7
100
AcDbCircle
 10
-65.55393532233316
 20
45.090584977700757
 30
0.0000000000000027
 40
0.9074119918584813
210
0.0
220
0.0000000000000001
230
1.0
  0
LINE
  5
10C
100
AcDbEntity
  8
________1________1
370
              18
390
0
  6
Continuous
 62
               7
100
AcDbLine
 10
-64.767740885526962
 20
43.107679657483544
 30
0.0
 11
-64.757259329670347
 21
43.097198101626958
 31
0.0
  0
ARC
  5
10D
100
AcDbEntity
  8
________1________1
370
              18
390
0
  6
Continuous
 62
               7
100
AcDbCircle
 10
-63.353935322333271
 20
48.090584977700757
 30
0.0
 40
2.0066131239262432
100
AcDbArc
 50
180.0
 51
-78.920268040215561
  0
LINE
  5
10E
100
AcDbEntity
  8
________1________1
370
              18
390
0
  6
Continuous
 62
               7
100
AcDbLine
 10
-62.966300499062484
 20
46.111087518496461
 30
0.0
 11
-62.968314790257054
 21
46.12137370555287
 31
0.0
  0
LINE
  5
10F
100
AcDbEntity
  8
________1________1
370
              18
390
0
  6
Continuous
 62
               7
100
AcDbLine
 10
-62.966300499062513
 20
50.07008243690494
 30
0.0
 11
-62.968314790257054
 21
50.059796249848645
 31
0.0
  0
CIRCLE
  5
110
100
AcDbEntity
  8
________1________1
370
              18
390
0
  6
Continuous
 62
               7
100
AcDbCircle
 10
-77.153935322335002
 20
51.090584977699308
 30
0.0000000000000031
 40
0.9074119918585097
210
0.0
220
0.0000000000000001
230
1.0
  0
CIRCLE
  5
111
100
AcDbEntity
  8
________1________1
370
              18
390
0
  6
Continuous
 62
               7
100
AcDbCircle
 10
-77.153935322335002
 20
51.090584977699308
 30
0.0000000000000031
 40
1.5
210
0.0
220
0.0000000000000001
230
1.0
  0
ARC
  5
112
100
AcDbEntity
  8
________1________1
370
              18
390
0
  6
Continuous
 62
               7
100
AcDbCircle
 10
-77.940480812392821
 20
50.677130467760335
 30
0.0
 40
3.41345493143863
100
AcDbArc
 50
89.971526657097399
 51
-179.97152665710408
  0
ARC
  5
113
100
AcDbEntity
  8
________1________1
370
              18
390
0
  6
Continuous
 62
               7
100
AcDbCircle
 10
-77.940480812392849
 20
45.504039487641052
 30
0.0
 40
3.41345493143863
100
AcDbArc
 50
179.97152665710408
 51
-89.971526657097399
  0
LINE
  5
114
100
AcDbEntity
  8
________1________1
370
              18
390
0
  6
Continuous
 62
               7
100
AcDbLine
 10
-79.741570145603788
 20
46.111087518496262
 30
0.0
 11
-79.739555854409218
 21
46.121373705552671
 31
0.0
  0
INSERT
  5
11C
100
AcDbEntity
  8
____1
370
               5
390
0
  6
CENTER2
 62
               7
100
AcDbBlockReference
  2
C4
 10
0.0
 20
0.0
 30
0.0
  0
CIRCLE
  5
11D
100
AcDbEntity
  8
________1________1
370
              18
390
0
  6
Continuous
 62
               7
100
AcDbCircle
 10
-63.353935322333271
 20
48.090584977700757
 30
0.0000000000000029
 40
0.9930158461016561
210
0.0
220
0.0000000000000001
230
0.9999999999999999
  0
CIRCLE
  5
11E
100
AcDbEntity
  8
________1________1
370
              18
390
0
  6
Continuous
 62
               7
100
AcDbCircle
 10
-63.353935322333271
 20
48.090584977700757
 30
0.0000000000000029
 40
0.3499999999999943
210
0.0
220
0.0000000000000001
230
1.0
  0
ARC
  5
11F
100
AcDbEntity
  8
________1________1
370
              18
390
0
  6
Continuous
 62
               7
100
AcDbCircle
 10
-63.353935322333271
 20
48.090584977700757
 30
0.0
 40
2.0066131239261846
100
AcDbArc
 50
78.9202680402162
 51
180.0
  0
ARC
  5
120
100
AcDbEntity
  8
________1________1
370
              18
390
0
  6
Continuous
 62
               7
100
AcDbCircle
 10
-63.353935322333271
 20
48.090584977700757
 30
0.0
 40
2.0170946797828293
100
AcDbArc
 50
180.0
 51
-78.92026804021593
  0
INSERT
  5
128
100
AcDbEntity
  8
____1
370
               5
390
0
  6
CENTER2
 62
               7
100
AcDbBlockReference
  2
C5
 10
0.0
 20
0.0
 30
0.0
  0
INSERT
  5
130
100
AcDbEntity
  8
____1
370
               5
390
0
  6
CENTER2
 62
               7
100
AcDbBlockReference
  2
C6
 10
0.0
 20
0.0
 30
0.0
  0
CIRCLE
  5
131
100
AcDbEntity
  8
________1________1
370
              18
390
0
  6
Continuous
 62
               7
100
AcDbCircle
 10
-65.55393532233316
 20
45.090584977700757
 30
0.0000000000000027
 40
1.5
210
0.0
220
0.0000000000000001
230
1.0
  0
CIRCLE
  5
132
100
AcDbEntity
  8
________1________1
370
              18
390
0
  6
Continuous
 62
               7
100
AcDbCircle
 10
-65.55393532233316
 20
51.090584977700729
 30
0.0000000000000031
 40
0.9074119918584813
210
0.0
220
0.0000000000000001
230
1.0
  0
CIRCLE
  5
133
100
AcDbEntity
  8
________1________1
370
              18
390
0
  6
Continuous
 62
               7
100
AcDbCircle
 10
-79.353681522358301
 20
48.090584977700956
 30
0.0000000000000029
 40
0.3497834782718883
210
0.0
220
0.0000000000000001
230
0.9999999999999999
  0
LINE
  5
134
100
AcDbEntity
  8
________1________1
370
              18
390
0
  6
Continuous
 62
               7
100
AcDbLine
 10
-64.769086438167989
 20
7.1471131207249385
 30
0.0
 11
-61.353934854019499
 21
7.1471131207249385
 31
0.0
  0
LINE
  5
135
100
AcDbEntity
  8
________1________1
370
              18
390
0
  6
Continuous
 62
               7
100
AcDbLine
 10
-26.0988299978609
 20
7.1471131207249385
 30
0.0
 11
-22.683679170691516
 21
7.1471131207249385
 31
0.0
  0
INSERT
  5
13F
100
AcDbEntity
  8
寸法線_1
370
               5
390
0
  6
Continuous
 62
               7
100
AcDbBlockReference
  2
C7
 10
0.0
 20
0.0
 30
0.0
  0
LINE
  5
140
100
AcDbEntity
  8
________1________1
370
              18
390
0
  6
Continuous
 62
               7
100
AcDbLine
 10
-64.757259329670347
 20
53.083971853774443
 30
0.0
 11
-64.767740885526962
 21
53.073490297917857
 31
0.0
  0
INSERT
  5
148
100
AcDbEntity
  8
____1
370
               5
390
0
  6
CENTER2
 62
               7
100
AcDbBlockReference
  2
C8
 10
0.0
 20
0.0
 30
0.0
  0
ARC
  5
149
100
AcDbEntity
  8
________1________1
370
              18
390
0
  6
Continuous
 62
               7
100
AcDbCircle
 10
-79.353935322332973
 20
48.090584977700559
 30
0.0
 40
2.0066131239262006
100
AcDbArc
 50
0.0
 51
101.07973195978541
  0
CIRCLE
  5
14A
100
AcDbEntity
  8
________1________1
370
              18
390
0
  6
Continuous
 62
               7
100
AcDbCircle
 10
-79.353935322332973
 20
48.090584977700559
 30
0.0000000000000029
 40
1.0034974019582705
210
0.0
220
0.0000000000000001
230
1.0
  0
ARC
  5
14B
100
AcDbEntity
  8
________1________1
370
              18
390
0
  6
Continuous
 62
               7
100
AcDbCircle
 10
-79.353935322332973
 20
48.090584977700559
 30
0.0
 40
2.0066131239261957
100
AcDbArc
 50
-101.07973195978541
 51
0.0
  0
LINE
  5
14C
100
AcDbEntity
  8
________1________1
370
              18
390
0
  6
Continuous
 62
               7
100
AcDbLine
 10
-62.371030002115972
 20
45.621079625821352
 30
0.0
 11
-62.371030002115972
 21
45.504390540894434
 31
0.0
  0
LINE
  5
14D
100
AcDbEntity
  8
________1________1
370
              18
390
0
  6
Continuous
 62
               7
100
AcDbLine
 10
-62.371030002119639
 20
50.560090329580035
 30
0.0
 11
-62.360548446263024
 21
50.56009032958012
 31
0.0
  0
LINE
  5
14E
100
AcDbEntity
  8
________1________1
370
              18
390
0
  6
Continuous
 62
               7
100
AcDbLine
 10
-62.360548446259358
 20
50.687260970363539
 30
0.0
 11
-62.360548446259358
 21
50.56009032958012
 31
0.0
  0
LINE
  5
14F
100
AcDbEntity
  8
________1________1
370
              18
390
0
  6
Continuous
 62
               7
100
AcDbLine
 10
-61.353935322333129
 20
45.505735816228736
 30
0.0
 11
-61.353935322333129
 21
50.675434139172623
 31
0.0
  0
LINE
  5
150
100
AcDbEntity
  8
________1________1
370
              18
390
0
  6
Continuous
 62
               7
100
AcDbLine
 10
-62.371030002116001
 20
45.621079625821352
 30
0.0
 11
-62.360548446259358
 21
45.621079625821352
 31
0.0
  0
LINE
  5
151
100
AcDbEntity
  8
________1________1
370
              18
390
0
  6
Continuous
 62
               7
100
AcDbLine
 10
-62.360548446259358
 20
45.621079625821352
 30
0.0
 11
-62.360548446259358
 21
45.493908985037933
 31
0.0
  0
LINE
  5
152
100
AcDbEntity
  8
________1________1
370
              18
390
0
  6
Continuous
 62
               7
100
AcDbLine
 10
-62.360548446259358
 20
45.493908985037933
 30
0.0
 11
-62.371030002115972
 21
45.504390540894434
 31
0.0
  0
LINE
  5
153
100
AcDbEntity
  8
________1________1
370
              18
390
0
  6
Continuous
 62
               7
100
AcDbLine
 10
-62.371030002115972
 20
50.676779414506839
 30
0.0
 11
-62.371030002115972
 21
50.560090329580035
 31
0.0
  0
CIRCLE
  5
154
100
AcDbEntity
  8
________1________1
370
              18
390
0
  6
Continuous
 62
               7
100
AcDbCircle
 10
-65.55393532233316
 20
51.090584977700729
 30
0.0000000000000031
 40
1.5
210
0.0
220
0.0000000000000001
230
1.0
  0
CIRCLE
  5
155
100
AcDbEntity
  8
________1________1
370
              18
390
0
  6
Continuous
 62
               7
100
AcDbCircle
 10
-65.55393532233316
 20
45.090584977700757
 30
0.0
 40
1.4073358394367261
  0
CIRCLE
  5
156
100
AcDbEntity
  8
________1________1
370
              18
390
0
  6
Continuous
 62
               7
100
AcDbCircle
 10
-65.55393532233316
 20
51.090584977700729
 30
0.0
 40
1.4073358394367261
  0
LINE
  5
157
100
AcDbEntity
  8
________1________1
370
              18
390
0
  6
Continuous
 62
               7
100
AcDbLine
 10
-80.336840642546662
 20
45.621079625821153
 30
0.0
 11
-80.347322198403276
 21
45.621079625821153
 31
0.0
  0
LINE
  5
158
100
AcDbEntity
  8
________1________1
370
              18
390
0
  6
Continuous
 62
               7
100
AcDbLine
 10
-80.347322198406914
 20
45.493908985037933
 30
0.0
 11
-80.347322198406914
 21
45.621079625821153
 31
0.0
  0
LINE
  5
159
100
AcDbEntity
  8
________1________1
370
              18
390
0
  6
Continuous
 62
               7
100
AcDbLine
 10
-81.353935322333129
 20
50.675434139172623
 30
0.0
 11
-81.353935322333129
 21
45.505735816228736
 31
0.0
  0
CIRCLE
  5
15A
100
AcDbEntity
  8
________1________1
370
              18
390
0
  6
Continuous
 62
               7
100
AcDbCircle
 10
-77.153935322335002
 20
45.090584977702036
 30
0.0000000000000027
 40
0.9074119918585097
210
0.0
220
0.0000000000000001
230
1.0
  0
LINE
  5
15B
100
AcDbEntity
  8
________1________1
370
              18
390
0
  6
Continuous
 62
               7
100
AcDbLine
 10
-77.950611314995939
 20
43.097198101626958
 30
0.0
 11
-77.940129759139325
 21
43.107679657483544
 31
0.0
  0
LINE
  5
15C
100
AcDbEntity
  8
________1________1
370
              18
390
0
  6
Continuous
 62
               7
100
AcDbLine
 10
-80.336840642550328
 20
45.504390540894434
 30
0.0
 11
-80.336840642550328
 21
45.621079625821153
 31
0.0
  0
LINE
  5
15D
100
AcDbEntity
  8
________1________1
370
              18
390
0
  6
Continuous
 62
               7
100
AcDbLine
 10
-80.347322198406914
 20
50.560090329579921
 30
0.0
 11
-80.347322198406914
 21
50.687260970363539
 31
0.0
  0
LINE
  5
15E
100
AcDbEntity
  8
________1________1
370
              18
390
0
  6
Continuous
 62
               7
100
AcDbLine
 10
-80.347322198406914
 20
50.687260970363539
 30
0.0
 11
-80.336840642550328
 21
50.676779414506839
 31
0.0
  0
LINE
  5
15F
100
AcDbEntity
  8
________1________1
370
              18
390
0
  6
Continuous
 62
               7
100
AcDbLine
 10
-64.769086160861519
 20
-25.093060161094431
 30
0.0
 11
-64.769086160861519
 21
-24.404705585396311
 31
0.0
  0
LINE
  5
160
100
AcDbEntity
  8
________1________1
370
              18
390
0
  6
Continuous
 62
               7
100
AcDbLine
 10
-64.769086160861519
 20
-35.04496113482999
 30
0.0
 11
-64.769086160861519
 21
-35.355236093887456
 31
0.0
  0
LINE
  5
161
100
AcDbEntity
  8
________1________1
370
              18
390
0
  6
Continuous
 62
               7
100
AcDbLine
 10
-64.769086160861519
 20
-34.356606559131862
 30
0.0
 11
-64.769086160861519
 21
-35.04496113482999
 31
0.0
  0
LINE
  5
162
100
AcDbEntity
  8
________1________1
370
              18
390
0
  6
Continuous
 62
               7
100
AcDbLine
 10
-77.938784483803914
 20
-24.404705585396311
 30
0.0
 11
-77.938784483803914
 21
-25.093060161094431
 31
0.0
  0
LINE
  5
163
100
AcDbEntity
  8
________1________1
370
              18
390
0
  6
Continuous
 62
               7
100
AcDbLine
 10
-77.938784483803914
 20
-35.355236093887456
 30
0.0
 11
-77.938784483803914
 21
-35.04496113482999
 31
0.0
  0
LINE
  5
164
100
AcDbEntity
  8
________1________1
370
              18
390
0
  6
Continuous
 62
               7
100
AcDbLine
 10
-77.938784483803914
 20
-35.04496113482999
 30
0.0
 11
-77.938784483803914
 21
-34.356606559131862
 31
0.0
  0
ARC
  5
165
100
AcDbEntity
  8
________1________1
370
              18
390
0
  6
Continuous
 62
               7
100
AcDbCircle
 10
-77.940480812392821
 20
-27.138287870053446
 30
0.0
 40
3.4134549314386051
100
AcDbArc
 50
89.971526657097399
 51
-179.97152665710408
  0
LINE
  5
166
100
AcDbEntity
  8
________1________1
370
              18
390
0
  6
Continuous
 62
               7
100
AcDbLine
 10
-77.938784483803914
 20
-24.094430626338838
 30
0.0
 11
-77.938784483803914
 21
-24.404705585396311
 31
0.0
  0
CIRCLE
  5
167
100
AcDbEntity
  8
________1________1
370
              18
390
0
  6
Continuous
 62
               7
100
AcDbCircle
 10
-71.353935322333257
 20
-29.724833360113166
 30
0.0
 40
4.1804303846291759
210
-0.0
220
-0.0
230
1.0
  0
LINE
  5
168
100
AcDbEntity
  8
________1________1
370
              18
390
0
  6
Continuous
 62
               7
100
AcDbLine
 10
-64.769086160861207
 20
-24.094430626337779
 30
0.0
 11
-77.93878448380508
 21
-24.094430626337779
 31
0.0
  0
LINE
  5
169
100
AcDbEntity
  8
________1________1
370
              18
390
0
  6
Continuous
 62
               7
100
AcDbLine
 10
-64.769086160861207
 20
-35.724833360113138
 30
0.0
 11
-77.93878448380508
 21
-35.724833360113138
 31
0.0
  0
LINE
  5
16A
100
AcDbEntity
  8
________1________1
370
              18
390
0
  6
Continuous
 62
               7
100
AcDbLine
 10
-79.985708521353928
 20
-32.309682521585088
 30
0.0
 11
-79.985708521353928
 21
-27.139984198641187
 31
0.0
  0
LINE
  5
16B
100
AcDbEntity
  8
________1________1
370
              18
390
0
  6
Continuous
 62
               7
100
AcDbLine
 10
-80.674063097048645
 20
-32.309682521585259
 30
0.0
 11
-79.985708521356287
 21
-32.309682521585259
 31
0.0
  0
INSERT
  5
173
100
AcDbEntity
  8
____1
370
               5
390
0
  6
CENTER2
 62
               7
100
AcDbBlockReference
  2
C9
 10
0.0
 20
0.0
 30
0.0
  0
SPLINE
  5
174
100
AcDbEntity
  8
________1________1
370
              18
390
0
  6
Continuous
 62
               7
100
AcDbSpline
210
0.0
220
0.0
230
1.0
 70
               0
 71
               3
 72
              15
 73
              11
 74
               0
 42
0.0000001
 43
0.0000001
 12
1.0
 22
0.0000000087165561
 32
0.0
 13
-0.0000000103415445
 23
-0.9999999999999999
 33
0.0
 40
0.0
 40
0.0
 40
0.0
 40
0.0
 40
0.1250749530219217
 40
0.2500892742171695
 40
0.3750571935859979
 40
0.5000000002604348
 40
0.6249428068952261
 40
0.7499107261511528
 40
0.8749250471774288
 40
1.0
 40
1.0
 40
1.0
 40
1.0
 10
-64.769086160861178
 20
-24.094430626337779
 30
0.0
 10
-64.569931709190271
 20
-24.094430624601838
 30
0.0
 10
-64.170615818348281
 20
-24.133636063486588
 30
0.0
 10
-63.595582591792649
 20
-24.307925335945331
 30
0.0
 10
-63.065562958956022
 20
-24.591013542287453
 30
0.0
 10
-62.601167922118535
 20
-24.972065961859091
 30
0.0
 10
-62.220115502643935
 20
-25.436460998548569
 30
0.0
 10
-61.937027296655188
 20
-25.966480631006306
 30
0.0
 10
-61.762738024809124
 20
-26.541513856963391
 30
0.0
 10
-61.723532586498195
 20
-26.940829747287694
 30
0.0
 10
-61.723532588557759
 20
-27.139984198641187
 30
0.0
  0
SPLINE
  5
175
100
AcDbEntity
  8
________1________1
370
              18
390
0
  6
Continuous
 62
               7
100
AcDbSpline
210
0.0
220
0.0
230
1.0
 70
               0
 71
               3
 72
             138
 73
             134
 74
               0
 42
0.0000001
 43
0.0000001
 12
-0.00296267441655
 22
0.9999956112705202
 32
0.0
 13
-0.9999955861611531
 23
0.0029711375282869
 33
0.0
 40
0.0
 40
0.0
 40
0.0
 40
0.0
 40
0.0076335330490485
 40
0.0152671345609486
 40
0.0229007614683709
 40
0.0305344098674578
 40
0.0381678763228308
 40
0.0458015847060643
 40
0.0534350491860321
 40
0.0610686865804755
 40
0.068702278647102
 40
0.0763358592969798
 40
0.0839694857193626
 40
0.0916030980690599
 40
0.099236576290796
 40
0.1068702378915209
 40
0.1145038354187783
 40
0.1221373998223168
 40
0.12977100379202
 40
0.1374045581361089
 40
0.1450381578551807
 40
0.1526717240319971
 40
0.1603054028280644
 40
0.1679388539443689
 40
0.175572495093955
 40
0.1832060516077052
 40
0.1908395934814501
 40
0.1984732759165947
 40
0.2061068662477619
 40
0.2137404804750351
 40
0.221374050559581
 40
0.2290075714198898
 40
0.2366412876718924
 40
0.2442747779689967
 40
0.2519083803323265
 40
0.2595420431951923
 40
0.2671756078712408
 40
0.2748091701898734
 40
0.2824428115741544
 40
0.2900763693761397
 40
0.2977098064011809
 40
0.3053434657905516
 40
0.3129770528711524
 40
0.3206106679602874
 40
0.3282442640376355
 40
0.3358778003242322
 40
0.3435115008882359
 40
0.35114506226677
 40
0.3587785940640864
 40
0.3664122680762858
 40
0.3740456886669195
 40
0.3816793305101618
 40
0.3893130017633881
 40
0.3969465054697223
 40
0.4045802005327481
 40
0.4122137755303117
 40
0.4198473142747328
 40
0.4274810137591434
 40
0.4351143868666056
 40
0.4427480935222297
 40
0.4503815725315192
 40
0.4580151986044641
 40
0.4656488512541559
 40
0.4732824597613394
 40
0.4809160113307649
 40
0.4885496140018093
 40
0.4961831608355318
 40
0.5038168578008868
 40
0.511450205116895
 40
0.519084007262471
 40
0.5267174555414886
 40
0.5343511684869151
 40
0.5419847275301959
 40
0.5496182469184148
 40
0.5572518169716667
 40
0.5648854338810061
 40
0.5725190937906186
 40
0.5801527061676977
 40
0.5877863569398207
 40
0.5954198188889217
 40
0.6030533998986694
 40
0.6106871003283754
 40
0.6183206912854029
 40
0.6259542542298986
 40
0.633587870216096
 40
0.6412213065722354
 40
0.6488549581006007
 40
0.6564885194791339
 40
0.6641222200431374
 40
0.6717557563297354
 40
0.6793893524070835
 40
0.6870227761792465
 40
0.6946564290910136
 40
0.702290149720056
 40
0.7099235232291252
 40
0.7175572081103114
 40
0.7251908494945929
 40
0.732824341533699
 40
0.7404579787260444
 40
0.7480914565839938
 40
0.7557252430417463
 40
0.7633588644976861
 40
0.7709922667814646
 40
0.7786259200100716
 40
0.786259404392712
 40
0.7938929729699713
 40
0.8015267413825162
 40
0.8091603813860009
 40
0.8167937882008602
 40
0.8244275194432706
 40
0.8320611230322421
 40
0.8396946100748273
 40
0.8473281520098555
 40
0.8549616855439499
 40
0.8625954538991247
 40
0.8702288408958627
 40
0.8778626108938847
 40
0.8854961752974222
 40
0.8931297484695557
 40
0.9007632934987018
 40
0.9083970297426873
 40
0.9160303819092683
 40
0.9236641483125858
 40
0.9312977129834197
 40
0.938931319341819
 40
0.946564956736264
 40
0.9541985618833646
 40
0.9618321202434119
 40
0.9694655942418295
 40
0.9770992367852482
 40
0.9847327268215738
 40
0.9923663258626307
 40
1.0
 40
1.0
 40
1.0
 40
1.0
 10
-61.353934854019499
 20
-27.139984157480541
 30
0.0
 10
-61.353975299912875
 20
-27.126332398905987
 30
0.0
 10
-61.354056193771754
 20
-27.099028182347524
 30
0.0
 10
-61.354802984208618
 20
-27.058077861756715
 30
0.0
 10
-61.356000179331133
 20
-27.01713861927422
 30
0.0
 10
-61.357704341868484
 20
-26.976217315197417
 30
0.0
 10
-61.359891464628788
 20
-26.935318946846081
 30
0.0
 10
-61.36257412807268
 20
-26.894450375476197
 30
0.0
 10
-61.365743369023406
 20
-26.853616366233183
 30
0.0
 10
-61.369405415201825
 20
-26.812823805772609
 30
0.0
 10
-61.373552323828889
 20
-26.772077473103167
 30
0.0
 10
-61.378192126537115
 20
-26.731384322225722
 30
0.0
 10
-61.383318687655304
 20
-26.690749618231209
 30
0.0
 10
-61.388930102169368
 20
-26.650179189027654
 30
0.0
 10
-61.395031187348948
 20
-26.60967944978114
 30
0.0
 10
-61.401614348292455
 20
-26.569255300407022
 30
0.0
 10
-61.408685446233861
 20
-26.528913470573542
 30
0.0
 10
-61.416239006501897
 20
-26.488659319479012
 30
0.0
 10
-61.424272632272036
 20
-26.448498273135215
 30
0.0
 10
-61.432791858129789
 20
-26.408437372594719
 30
0.0
 10
-61.441786679016062
 20
-26.368480641501947
 30
0.0
 10
-61.4512636793322
 20
-26.328635278217789
 30
0.0
 10
-61.461216286918969
 20
-26.288906335906717
 30
0.0
 10
-61.471644619402227
 20
-26.249299451769687
 30
0.0
 10
-61.482548586473115
 20
-26.209821092658586
 30
0.0
 10
-61.49392485724475
 20
-26.170476078332086
 30
0.0
 10
-61.505771272232195
 20
-26.131269960513109
 30
0.0
 10
-61.518090151849023
 20
-26.09220967358948
 30
0.0
 10
-61.530872864609321
 20
-26.053298560628932
 30
0.0
 10
-61.544126583436523
 20
-26.01454556776055
 30
0.0
 10
-61.5578388247189
 20
-25.97595257490066
 30
0.0
 10
-61.572016811197372
 20
-25.937528025916833
 30
0.0
 10
-61.586653639867976
 20
-25.899276080114987
 30
0.0
 10
-61.60174849948136
 20
-25.861202391609027
 30
0.0
 10
-61.617298443556805
 20
-25.823312393428878
 30
0.0
 10
-61.633302864177594
 20
-25.785611961532354
 30
0.0
 10
-61.649758790529233
 20
-25.748106495397948
 30
0.0
 10
-61.666662342338967
 20
-25.710800674017875
 30
0.0
 10
-61.684012626715358
 20
-25.673700517611977
 30
0.0
 10
-61.70180685617801
 20
-25.636811494692779
 30
0.0
 10
-61.720040872547358
 20
-25.600137809005986
 30
0.0
 10
-61.738716889057756
 20
-25.563687179014082
 30
0.0
 10
-61.757825524448734
 20
-25.527461110759887
 30
0.0
 10
-61.777370333662844
 20
-25.491468608830047
 30
0.0
 10
-61.797344330615985
 20
-25.455712627650584
 30
0.0
 10
-61.817745323044406
 20
-25.420198349384236
 30
0.0
 10
-61.838571953284898
 20
-25.384932073770017
 30
0.0
 10
-61.859818847208984
 20
-25.349917389055506
 30
0.0
 10
-61.881486543240371
 20
-25.315161591814263
 30
0.0
 10
-61.903567248006979
 20
-25.280667016694867
 30
0.0
 10
-61.926061144965118
 20
-25.24644019842582
 30
0.0
 10
-61.948964781973174
 20
-25.212486213386331
 30
0.0
 10
-61.97227421752639
 20
-25.178809343197646
 30
0.0
 10
-61.995984985980655
 20
-25.14541370235894
 30
0.0
 10
-62.020095126549606
 20
-25.112305445156412
 30
0.0
 10
-62.04460065244875
 20
-25.07948868670687
 30
0.0
 10
-62.069498453184465
 20
-25.046968521668592
 30
0.0
 10
-62.094785018469551
 20
-25.014750192481262
 30
0.0
 10
-62.120454889943701
 20
-24.98283602377548
 30
0.0
 10
-62.146507786077748
 20
-24.951234271481486
 30
0.0
 10
-62.172936174681197
 20
-24.919945292247856
 30
0.0
 10
-62.199737868398515
 20
-24.888975576986237
 30
0.0
 10
-62.226911667529848
 20
-24.858331547014227
 30
0.0
 10
-62.254449138936948
 20
-24.828014082815908
 30
0.0
 10
-62.282349676864996
 20
-24.798030525666586
 30
0.0
 10
-62.310606132945097
 20
-24.768382298734249
 30
0.0
 10
-62.339218305822882
 20
-24.739076834782576
 30
0.0
 10
-62.368178869119546
 20
-24.710116283878076
 30
0.0
 10
-62.397484305122575
 20
-24.68150408031978
 30
0.0
 10
-62.427132555698549
 20
-24.653247922107948
 30
0.0
 10
-62.457115669656147
 20
-24.625346379640273
 30
0.0
 10
-62.487433567710937
 20
-24.597809622322043
 30
0.0
 10
-62.518078003801705
 20
-24.570636546096193
 30
0.0
 10
-62.549047127645665
 20
-24.543834478314775
 30
0.0
 10
-62.580335262045551
 20
-24.517405366942324
 30
0.0
 10
-62.611938420421964
 20
-24.491353372266683
 30
0.0
 10
-62.643851642330915
 20
-24.46568201425173
 30
0.0
 10
-62.676071149744146
 20
-24.440396031731691
 30
0.0
 10
-62.70859153330484
 20
-24.415498788587197
 30
0.0
 10
-62.741407690499372
 20
-24.390992803329343
 30
0.0
 10
-62.774515675144571
 20
-24.366882379711139
 30
0.0
 10
-62.807911102261912
 20
-24.343171298217943
 30
0.0
 10
-62.841588504018588
 20
-24.319862507006103
 30
0.0
 10
-62.875542974708807
 20
-24.296959477773523
 30
0.0
 10
-62.909769518135064
 20
-24.274465570328747
 30
0.0
 10
-62.944263435737284
 20
-24.25238357320141
 30
0.0
 10
-62.979019602676274
 20
-24.230716862170997
 30
0.0
 10
-63.014034325160608
 20
-24.209469626494577
 30
0.0
 10
-63.049300631257765
 20
-24.188643042200138
 30
0.0
 10
-63.08481493288896
 20
-24.168242096657178
 30
0.0
 10
-63.120570491415137
 20
-24.148268033084182
 30
0.0
 10
-63.156563265555789
 20
-24.12872421263862
 30
0.0
 10
-63.192788349764569
 20
-24.10961394259105
 30
0.0
 10
-63.229240270637248
 20
-24.090940199744058
 30
0.0
 10
-63.265913065186496
 20
-24.072703907325067
 30
0.0
 10
-63.302802654592952
 20
-24.054910559371347
 30
0.0
 10
-63.339902995869821
 20
-24.037560464173492
 30
0.0
 10
-63.377207982690251
 20
-24.020655045236428
 30
0.0
 10
-63.414713929198925
 20
-24.004201006401271
 30
0.0
 10
-63.452414601135231
 20
-23.988196852804268
 30
0.0
 10
-63.490304487934097
 20
-23.972646013911653
 30
0.0
 10
-63.528378427298705
 20
-23.957551779466574
 30
0.0
 10
-63.566630231919831
 20
-23.942914826499663
 30
0.0
 10
-63.605054667052045
 20
-23.92873793558795
 30
0.0
 10
-63.643646926806397
 20
-23.915023611666133
 30
0.0
 10
-63.68240065911273
 20
-23.901771792752182
 30
0.0
 10
-63.721311411577645
 20
-23.888987478452972
 30
0.0
 10
-63.760372188586231
 20
-23.876670124429904
 30
0.0
 10
-63.799578158422307
 20
-23.864823280010253
 30
0.0
 10
-63.838922882222946
 20
-23.853445954774553
 30
0.0
 10
-63.878401999033898
 20
-23.842543573271467
 30
0.0
 10
-63.918008264832295
 20
-23.832113901046188
 30
0.0
 10
-63.957736912194562
 20
-23.822161044279671
 30
0.0
 10
-63.997582636833656
 20
-23.812685603311383
 30
0.0
 10
-64.037538949539325
 20
-23.803689174380541
 30
0.0
 10
-64.077600479655544
 20
-23.795171455124727
 30
0.0
 10
-64.117761267181422
 20
-23.787136596441687
 30
0.0
 10
-64.158015658692747
 20
-23.779582866123871
 30
0.0
 10
-64.198357530065991
 20
-23.772513532342689
 30
0.0
 10
-64.238781507178587
 20
-23.765927981268593
 30
0.0
 10
-64.279281425733799
 20
-23.759829496669578
 30
0.0
 10
-64.319851790699019
 20
-23.754215903211861
 30
0.0
 10
-64.360486309489104
 20
-23.749089690776326
 30
0.0
 10
-64.401179861014796
 20
-23.74445130422124
 30
0.0
 10
-64.441926025196452
 20
-23.740302780662422
 30
0.0
 10
-64.48271891107423
 20
-23.736641231736929
 30
0.0
 10
-64.52355287189026
 20
-23.733471523285839
 30
0.0
 10
-64.564421544539627
 20
-23.730790558983362
 30
0.0
 10
-64.605319538499586
 20
-23.728601345033969
 30
0.0
 10
-64.64624069223261
 20
-23.726899390855653
 30
0.0
 10
-64.687179607932919
 20
-23.725700044766118
 30
0.0
 10
-64.728129971505766
 20
-23.724955018143323
 30
0.0
 10
-64.755434427614745
 20
-23.724873892491043
 30
0.0
 10
-64.769086438167903
 20
-23.724833330311117
 30
0.0
  0
SPLINE
  5
176
100
AcDbEntity
  8
________1________1
370
              18
390
0
  6
Continuous
 62
               7
100
AcDbSpline
210
0.0
220
0.0
230
1.0
 70
               0
 71
               3
 72
             138
 73
             134
 74
               0
 42
0.0000001
 43
0.0000001
 12
0.9999955606857294
 22
0.0029796994535811
 32
0.0
 13
0.0029627673762244
 23
0.9999956109951055
 33
0.0
 40
0.0
 40
0.0
 40
0.0
 40
0.0
 40
0.0076336744466425
 40
0.0152672713287339
 40
0.0229007658350488
 40
0.0305344028346748
 40
0.0381678846880021
 40
0.0458014341245237
 40
0.0534350395808948
 40
0.0610686772846112
 40
0.0687022982466362
 40
0.0763358472502687
 40
0.0839696139628631
 40
0.0916029857770764
 40
0.099236701321347
 40
0.1068702693460106
 40
0.1145038184748164
 40
0.1221373831876221
 40
0.1297711811768232
 40
0.137404539143458
 40
0.1450383388015741
 40
0.152671840004681
 40
0.1603053822489768
 40
0.1679389055295482
 40
0.1755724718695977
 40
0.1832061642312877
 40
0.1908396529848244
 40
0.1984732508682916
 40
0.2061070636326053
 40
0.2137405868714518
 40
0.2213741188098349
 40
0.2290077723477141
 40
0.2366411245197426
 40
0.2442747462849535
 40
0.2519085866227968
 40
0.259542009659794
 40
0.2671757038468865
 40
0.2748091379618545
 40
0.2824427796554072
 40
0.2900764648458676
 40
0.2977099014851925
 40
0.3053435580949788
 40
0.3129772771492265
 40
0.3206106339058275
 40
0.3282442302924453
 40
0.3358777668883106
 40
0.3435114677615885
 40
0.3511450294493901
 40
0.3587786812870273
 40
0.3664121179524302
 40
0.3740458117379333
 40
0.3816792960947391
 40
0.3893129676572384
 40
0.3969465867156112
 40
0.4045801680346286
 40
0.4122136302929935
 40
0.4198472813743892
 40
0.4274809811680724
 40
0.4351146413869573
 40
0.4427481688608319
 40
0.4503818302688409
 40
0.4580153499663269
 40
0.4656488157139234
 40
0.4732825289686242
 40
0.4809159775569056
 40
0.4885496826703264
 40
0.4961831288594309
 40
0.503816826134059
 40
0.5114504742322086
 40
0.5190839750806569
 40
0.5267176302509751
 40
0.5343511346303616
 40
0.5419847875893247
 40
0.5496183072868104
 40
0.5572517866053648
 40
0.5648854935702632
 40
0.5725189769256769
 40
0.5801526767193606
 40
0.5877863278007562
 40
0.5954197900591214
 40
0.6030533713781381
 40
0.6106869904365109
 40
0.6183206619990105
 40
0.625954304151525
 40
0.6335878429587791
 40
0.6412212796241819
 40
0.6488549314618193
 40
0.6564884931496215
 40
0.6641221940228994
 40
0.6717557306187643
 40
0.6793893270053819
 40
0.6870230663945205
 40
0.6946566537843917
 40
0.7022901879133041
 40
0.7099237515830055
 40
0.717557182615546
 40
0.7251908243090983
 40
0.7328245154503761
 40
0.7404579512343399
 40
0.7480917442793729
 40
0.755725216426498
 40
0.7633588381917082
 40
0.7709925547529859
 40
0.7786259435545717
 40
0.7862596468947478
 40
0.7938932614312924
 40
0.8015267180307362
 40
0.8091604007751538
 40
0.8167940780172769
 40
0.8244274993018261
 40
0.8320611407606831
 40
0.8396945921862513
 40
0.8473284081527917
 40
0.854961974638877
 40
0.8625954370224158
 40
0.8702291296813849
 40
0.8778625956115276
 40
0.8854961603243345
 40
0.8931297581608617
 40
0.9007632808155668
 40
0.9083970383803686
 40
0.9160306510393372
 40
0.9236641377900927
 40
0.9312977187492386
 40
0.9389313111251347
 40
0.9465649488288515
 40
0.9541985542852229
 40
0.9618321221899295
 40
0.9694655889545656
 40
0.9770992376629248
 40
0.9847330059088417
 40
0.9923666077300117
 40
1.0
 40
1.0
 40
1.0
 40
1.0
 10
-64.769086438167903
 20
-35.724832907118142
 30
0.0
 10
-64.755434427962541
 20
-35.724792228050205
 30
0.0
 10
-64.728129984590495
 20
-35.724710868654
 30
0.0
 10
-64.687179578451875
 20
-35.723967595286751
 30
0.0
 10
-64.646240736422882
 20
-35.722766127206569
 30
0.0
 10
-64.605319480709213
 20
-35.721066370333489
 30
0.0
 10
-64.564421611820549
 20
-35.718875022319907
 30
0.0
 10
-64.523552829826102
 20
-35.716195870851763
 30
0.0
 10
-64.482718926702987
 20
-35.713025570582332
 30
0.0
 10
-64.441925962820491
 20
-35.709364578807069
 30
0.0
 10
-64.401179970614194
 20
-35.705214410461139
 30
0.0
 10
-64.360486256413552
 20
-35.700577550443427
 30
0.0
 10
-64.319851714291062
 20
-35.695451361682373
 30
0.0
 10
-64.279281587556156
 20
-35.689836143627673
 30
0.0
 10
-64.238781324670711
 20
-35.683739673104711
 30
0.0
 10
-64.19835771223886
 20
-35.677152115914438
 30
0.0
 10
-64.158015573111399
 20
-35.670084389148641
 30
0.0
 10
-64.117761161568851
 20
-35.662530651627733
 30
0.0
 10
-64.077600704670502
 20
-35.6544942097713
 30
0.0
 10
-64.037538700120777
 20
-35.645978454635923
 30
0.0
 10
-63.997582882437442
 20
-35.636980066875097
 30
0.0
 10
-63.957736793249282
 20
-35.627506212955211
 30
0.0
 10
-63.918008146440698
 20
-35.617553280061543
 30
0.0
 10
-63.878402226374604
 20
-35.607122318872626
 30
0.0
 10
-63.838922920154559
 20
-35.596220944121143
 30
0.0
 10
-63.79957771811381
 20
-35.584845179266452
 30
0.0
 10
-63.76037267661026
 20
-35.572995284079354
 30
0.0
 10
-63.721311029404959
 20
-35.560680201994714
 30
0.0
 10
-63.682401033310143
 20
-35.547893828501273
 30
0.0
 10
-63.643646572662831
 20
-35.534643902302065
 30
0.0
 10
-63.605054842730951
 20
-35.520928051050646
 30
0.0
 10
-63.56663036754135
 20
-35.506751314507554
 30
0.0
 10
-63.528378295073665
 20
-35.492115313467252
 30
0.0
 10
-63.49030428818746
 20
-35.477021207636042
 30
0.0
 10
-63.452415006428382
 20
-35.461468924182171
 30
0.0
 10
-63.414713490858176
 20
-35.445466498373335
 30
0.0
 10
-63.377208412707333
 20
-35.429010728966446
 30
0.0
 10
-63.33990275009289
 20
-35.4121068214003
 30
0.0
 10
-63.302802732671537
 20
-35.394756270553785
 30
0.0
 10
-63.265912803117899
 20
-35.376963360910992
 30
0.0
 10
-63.229240738151887
 20
-35.358725619185023
 30
0.0
 10
-63.19278785498652
 20
-35.340053499158998
 30
0.0
 10
-63.156563744385764
 20
-35.320941631083201
 30
0.0
 10
-63.120570228860046
 20
-35.301399195455417
 30
0.0
 10
-63.084814975296368
 20
-35.281424818946647
 30
0.0
 10
-63.049300619066756
 20
-35.261023974572424
 30
0.0
 10
-63.014034331516442
 20
-35.240197357262446
 30
0.0
 10
-62.979019589444036
 20
-35.218950152477873
 30
0.0
 10
-62.944263482310575
 20
-35.197283350895404
 30
0.0
 10
-62.909769228358655
 20
-35.175201610360432
 30
0.0
 10
-62.875543507126238
 20
-35.152706467487263
 30
0.0
 10
-62.841587941894446
 20
-35.129804805547849
 30
0.0
 10
-62.8079116429371
 20
-35.106494669678142
 30
0.0
 10
-62.774515381770485
 20
-35.082784778108476
 30
0.0
 10
-62.741407729334227
 20
-35.058674134667285
 30
0.0
 10
-62.708591553248411
 20
-35.034168182066693
 30
0.0
 10
-62.676070907432674
 20
-35.00927101941042
 30
0.0
 10
-62.643851852312721
 20
-34.983984205070655
 30
0.0
 10
-62.611938679101414
 20
-34.958312806689122
 30
0.0
 10
-62.580334760438589
 20
-34.932261723887422
 30
0.0
 10
-62.549047385898504
 20
-34.905831702934648
 30
0.0
 10
-62.518078218265273
 20
-34.879029704274501
 30
0.0
 10
-62.487433330912282
 20
-34.851857387178313
 30
0.0
 10
-62.4571156555008
 20
-34.824320626847907
 30
0.0
 10
-62.427132852632596
 20
-34.796419014939673
 30
0.0
 10
-62.397483765030941
 20
-34.76816372520868
 30
0.0
 10
-62.368179219575282
 20
-34.73955060584592
 30
0.0
 10
-62.339217943447025
 20
-34.710590262069815
 30
0.0
 10
-62.310606722050025
 20
-34.681283876119579
 30
0.0
 10
-62.282349068330333
 20
-34.65163653734038
 30
0.0
 10
-62.254449724551321
 20
-34.621652119477574
 30
0.0
 10
-62.226911317787469
 20
-34.591335512592025
 30
0.0
 10
-62.199738184854013
 20
-34.560691393481477
 30
0.0
 10
-62.172935889898426
 20
-34.529722453300863
 30
0.0
 10
-62.146507865705715
 20
-34.498433413319603
 30
0.0
 10
-62.120454608026407
 20
-34.466831702321031
 30
0.0
 10
-62.094785320666446
 20
-34.43491681265553
 30
0.0
 10
-62.069498135575131
 20
-34.402698464891543
 30
0.0
 10
-62.044601127535216
 20
-34.370177694236745
 30
0.0
 10
-62.02009512250963
 20
-34.337361558977534
 30
0.0
 10
-61.995984534156165
 20
-34.304253868070759
 30
0.0
 10
-61.972274474659329
 20
-34.270857719960304
 30
0.0
 10
-61.948964794797604
 20
-34.237180775203157
 30
0.0
 10
-61.926060835709805
 20
-34.203226744866541
 30
0.0
 10
-61.903568003362409
 20
-34.168999490789844
 30
0.0
 10
-61.88148579293923
 20
-34.134505879460463
 30
0.0
 10
-61.859819159586365
 20
-34.099749661469687
 30
0.0
 10
-61.838571901219339
 20
-34.064734953631643
 30
0.0
 10
-61.817745330009714
 20
-34.029468640001141
 30
0.0
 10
-61.797344354818776
 20
-33.99395435385658
 30
0.0
 10
-61.777370121739892
 20
-33.958198248614082
 30
0.0
 10
-61.757825704884979
 20
-33.922205279648821
 30
0.0
 10
-61.738717110659209
 20
-33.885979198781243
 30
0.0
 10
-61.720040428867648
 20
-33.849528903916351
 30
0.0
 10
-61.701807292448208
 20
-33.812855032703055
 30
0.0
 10
-61.68401242137702
 20
-33.775966325459819
 30
0.0
 10
-61.666662144373632
 20
-33.738866155755034
 30
0.0
 10
-61.649759208889094
 20
-33.701560061421759
 30
0.0
 10
-61.633302421618268
 20
-33.664054718967535
 30
0.0
 10
-61.61729887733047
 20
-33.626354167166525
 30
0.0
 10
-61.601748103992279
 20
-33.588464258928354
 30
0.0
 10
-61.586653825716269
 20
-33.550390334385199
 30
0.0
 10
-61.572016971405404
 20
-33.512138406132962
 30
0.0
 10
-61.557838500559726
 20
-33.47371403206904
 30
0.0
 10
-61.544126750506521
 20
-33.435120861924432
 30
0.0
 10
-61.530872987115174
 20
-33.396367889512845
 30
0.0
 10
-61.518090030264162
 20
-33.357457108972056
 30
0.0
 10
-61.505771123995473
 20
-33.318396825630586
 30
0.0
 10
-61.493925140837604
 20
-33.279190580085114
 30
0.0
 10
-61.482548423543889
 20
-33.239845696607233
 30
0.0
 10
-61.471644660410945
 20
-33.200367531291164
 30
0.0
 10
-61.461216158953874
 20
-33.160760438678139
 30
0.0
 10
-61.451263783363643
 20
-33.121031184795285
 30
0.0
 10
-61.441786794737951
 20
-33.08118582294712
 30
0.0
 10
-61.432791628167038
 20
-33.041229167119823
 30
0.0
 10
-61.42427285542702
 20
-33.00116842256935
 30
0.0
 10
-61.416238891897976
 20
-32.961007446009774
 30
0.0
 10
-61.408685448859146
 20
-32.920753522534326
 30
0.0
 10
-61.401614449761055
 20
-32.880411930248044
 30
0.0
 10
-61.395030949206969
 20
-32.839987581509575
 30
0.0
 10
-61.388930256755472
 20
-32.799487529409646
 30
0.0
 10
-61.383318729799569
 20
-32.758916866847855
 30
0.0
 10
-61.378192070139576
 20
-32.718282426828793
 30
0.0
 10
-61.373552329671469
 20
-32.677589520524236
 30
0.0
 10
-61.369405419868514
 20
-32.636843188376275
 30
0.0
 10
-61.365743322019867
 20
-32.596050379425833
 30
0.0
 10
-61.362574203506611
 20
-32.555216361185487
 30
0.0
 10
-61.359891425661829
 20
-32.514347797851656
 30
0.0
 10
-61.357704350491105
 20
-32.473449678697691
 30
0.0
 10
-61.356000159867207
 20
-32.432528123460614
 30
0.0
 10
-61.354802998278572
 20
-32.391588627556459
 30
0.0
 10
-61.354056196084031
 20
-32.350638307456236
 30
0.0
 10
-61.353975300434371
 20
-32.323334343177123
 30
0.0
 10
-61.353934854019499
 20
-32.30968283692772
 30
0.0
  0
SPLINE
  5
177
100
AcDbEntity
  8
________1________1
370
              18
390
0
  6
Continuous
 62
               7
100
AcDbSpline
210
0.0
220
0.0
230
1.0
 70
               0
 71
               3
 72
              15
 73
              11
 74
               0
 42
0.0000001
 43
0.0000001
 12
0.9999999999998952
 22
0.0000004578107907
 32
0.0
 13
0.0000004585544498
 23
0.9999999999998949
 33
0.0
 40
0.0
 40
0.0
 40
0.0
 40
0.0
 40
0.125111585792829
 40
0.2501329048496439
 40
0.3750851451425263
 40
0.4999999998807911
 40
0.6249148546371992
 40
0.7498670949817599
 40
0.8748884141159166
 40
1.0
 40
1.0
 40
1.0
 40
1.0
 10
-64.769086160861178
 20
-34.356606559133965
 30
0.0
 10
-64.63518684048681
 20
-34.356606497833411
 30
0.0
 10
-64.366742946805132
 20
-34.330275667021937
 30
0.0
 10
-63.980191881738207
 20
-34.213180545357488
 30
0.0
 10
-63.62395158075519
 20
-34.022970240276521
 30
0.0
 10
-63.31185660888822
 20
-33.76691207416124
 30
0.0
 10
-63.055798442743125
 20
-33.454817102248754
 30
0.0
 10
-62.865588137553445
 20
-33.098576801149193
 30
0.0
 10
-62.748493015700447
 20
-32.712025735898109
 30
0.0
 10
-62.722162184712417
 20
-32.443581842057114
 30
0.0
 10
-62.722162123312287
 20
-32.309682521585074
 30
0.0
  0
SPLINE
  5
178
100
AcDbEntity
  8
________1________1
370
              18
390
0
  6
Continuous
 62
               7
100
AcDbSpline
210
0.0
220
0.0
230
1.0
 70
               0
 71
               3
 72
              15
 73
              11
 74
               0
 42
0.0000001
 43
0.0000001
 12
-0.0000004578108969
 22
0.9999999999998952
 32
0.0
 13
-0.9999999999998949
 23
0.0000004585543436
 33
0.0
 40
0.0
 40
0.0
 40
0.0
 40
0.0
 40
0.125111585792835
 40
0.2501329048496521
 40
0.3750851451425336
 40
0.4999999998807916
 40
0.6249148546371968
 40
0.7498670949817523
 40
0.8748884141159106
 40
1.0
 40
1.0
 40
1.0
 40
1.0
 10
-62.722162123312316
 20
-27.139984198641187
 30
0.0
 10
-62.722162184612884
 20
-27.006084878266805
 30
0.0
 10
-62.748493015424359
 20
-26.737640984585113
 30
0.0
 10
-62.865588137088807
 20
-26.351089919518202
 30
0.0
 10
-63.055798442169774
 20
-25.994849618535184
 30
0.0
 10
-63.311856608285083
 20
-25.682754646668258
 30
0.0
 10
-63.623951580197499
 20
-25.426696480523134
 30
0.0
 10
-63.980191881297074
 20
-25.236486175333471
 30
0.0
 10
-64.366742946548143
 20
-25.119391053480488
 30
0.0
 10
-64.635186840389125
 20
-25.093060222492444
 30
0.0
 10
-64.769086160861207
 20
-25.093060161092328
 30
0.0
  0
SPLINE
  5
179
100
AcDbEntity
  8
________1________1
370
              18
390
0
  6
Continuous
 62
               7
100
AcDbSpline
210
0.0
220
0.0
230
1.0
 70
               0
 71
               3
 72
              15
 73
              11
 74
               0
 42
0.0000001
 43
0.0000001
 12
0.0000000087167012
 22
-1.0
 32
0.0
 13
-1.0
 23
0.0000000103416159
 33
0.0
 40
0.0
 40
0.0
 40
0.0
 40
0.0
 40
0.1250749530219079
 40
0.2500892742171523
 40
0.3750571935859843
 40
0.5000000002604288
 40
0.6249428068952287
 40
0.7499107261511617
 40
0.8749250471774377
 40
1.0
 40
1.0
 40
1.0
 40
1.0
 10
-61.723532588557774
 20
-32.309682521585074
 30
0.0
 10
-61.723532586821804
 20
-32.508836973255981
 30
0.0
 10
-61.762738025706525
 20
-32.908152864097971
 30
0.0
 10
-61.937027298165262
 20
-33.483186090653547
 30
0.0
 10
-62.220115504507348
 20
-34.013205723490231
 30
0.0
 10
-62.601167924079064
 20
-34.477600760327675
 30
0.0
 10
-63.065562960768531
 20
-34.85865317980236
 30
0.0
 10
-63.595582593226325
 20
-35.141741385791136
 30
0.0
 10
-64.170615819183425
 20
-35.316030657637185
 30
0.0
 10
-64.569931709507685
 20
-35.355236095948101
 30
0.0
 10
-64.769086160861178
 20
-35.355236093888522
 30
0.0
  0
SPLINE
  5
17A
100
AcDbEntity
  8
________1________1
370
              18
390
0
  6
Continuous
 62
               7
100
AcDbSpline
210
0.0
220
0.0
230
1.0
 70
               0
 71
               3
 72
              15
 73
              11
 74
               0
 42
0.0000001
 43
0.0000001
 12
-0.0000000104338095
 22
0.9999999999999999
 32
0.0
 13
0.9999999999999999
 23
-0.0000000101088895
 33
0.0
 40
0.0
 40
0.0
 40
0.0
 40
0.0
 40
0.1250749528221398
 40
0.250089273900699
 40
0.3750571932361038
 40
0.4999999999479226
 40
0.6249428066676703
 40
0.7499107260256506
 40
0.8749250471379995
 40
1.0
 40
1.0
 40
1.0
 40
1.0
 10
-80.984338056108498
 20
-27.139984198641187
 30
0.0
 10
-80.984338058186438
 20
-26.940829747274378
 30
0.0
 10
-80.945132619834084
 20
-26.541513856836247
 30
0.0
 10
-80.770843347825604
 20
-25.966480630664819
 30
0.0
 10
-80.487755141607295
 20
-25.436460997906011
 30
0.0
 10
-80.106702721899524
 20
-24.972065960938753
 30
0.0
 10
-79.642307684902676
 20
-24.591013541211634
 30
0.0
 10
-79.112288052068124
 20
-24.307925334922611
 30
0.0
 10
-78.537254825777012
 20
-24.133636062791648
 30
0.0
 10
-78.137938935235354
 20
-24.094430624324541
 30
0.0
 10
-77.93878448380508
 20
-24.094430626337772
 30
0.0
  0
SPLINE
  5
17B
100
AcDbEntity
  8
________1________1
370
              18
390
0
  6
Continuous
 62
               7
100
AcDbSpline
210
0.0
220
0.0
230
1.0
 70
               0
 71
               3
 72
              15
 73
              11
 74
               0
 42
0.0000001
 43
0.0000001
 12
0.0000004502902612
 22
-0.9999999999998985
 32
0.0
 13
0.999999999999899
 23
-0.0000004495481888
 33
0.0
 40
0.0
 40
0.0
 40
0.0
 40
0.0
 40
0.1251115845898692
 40
0.2501329034768729
 40
0.3750851443752733
 40
0.5000000001189751
 40
0.6249148558445699
 40
0.7498670966913936
 40
0.874888415501206
 40
1.0
 40
1.0
 40
1.0
 40
1.0
 10
-79.985708521353928
 20
-32.309682521585074
 30
0.0
 10
-79.985708461060369
 20
-32.443581840689916
 30
0.0
 10
-79.959377631269035
 20
-32.712025733145296
 30
0.0
 10
-79.842282509539842
 20
-33.098576797443101
 30
0.0
 10
-79.652072203098413
 20
-33.454817099520511
 30
0.0
 10
-79.396014034972325
 20
-33.766912073354334
 30
0.0
 10
-79.083919061183934
 20
-34.022970241450665
 30
0.0
 10
-78.72767875922284
 20
-34.213180547783594
 30
0.0
 10
-78.34112769510881
 20
-34.330275669324593
 30
0.0
 10
-78.072683802812463
 20
-34.35660649893974
 30
0.0
 10
-77.93878448380508
 20
-34.356606559133937
 30
0.0
  0
SPLINE
  5
17C
100
AcDbEntity
  8
________1________1
370
              18
390
0
  6
Continuous
 62
               7
100
AcDbSpline
210
0.0
220
0.0
230
1.0
 70
               0
 71
               3
 72
              15
 73
              11
 74
               0
 42
0.0000001
 43
0.0000001
 12
-0.9999999999998985
 22
-0.0000004502902545
 32
0.0
 13
-0.0000004495481821
 23
-0.999999999999899
 33
0.0
 40
0.0
 40
0.0
 40
0.0
 40
0.0
 40
0.1251115845898594
 40
0.2501329034768602
 40
0.3750851443752583
 40
0.5000000001189724
 40
0.6249148558445703
 40
0.7498670966913974
 40
0.8748884155012131
 40
1.0
 40
1.0
 40
1.0
 40
1.0
 10
-77.93878448380508
 20
-25.093060161092357
 30
0.0
 10
-78.072683802909893
 20
-25.093060221385915
 30
0.0
 10
-78.341127695365259
 20
-25.119391051177249
 30
0.0
 10
-78.727678759663036
 20
-25.2364861729064
 30
0.0
 10
-79.083919061740488
 20
-25.426696479347825
 30
0.0
 10
-79.396014035574296
 20
-25.682754647473956
 30
0.0
 10
-79.652072203670684
 20
-25.994849621262333
 30
0.0
 10
-79.842282510003599
 20
-26.351089923223455
 30
0.0
 10
-79.959377631544555
 20
-26.737640987337457
 30
0.0
 10
-79.985708461159732
 20
-27.006084879633846
 30
0.0
 10
-79.985708521353928
 20
-27.139984198641187
 30
0.0
  0
SPLINE
  5
17D
100
AcDbEntity
  8
________1________1
370
              18
390
0
  6
Continuous
 62
               7
100
AcDbSpline
210
0.0
220
0.0
230
1.0
 70
               0
 71
               3
 72
              15
 73
              11
 74
               0
 42
0.0000001
 43
0.0000001
 12
-1.0
 22
-0.0000000104338095
 32
0.0
 13
0.000000010108856
 23
0.9999999999999999
 33
0.0
 40
0.0
 40
0.0
 40
0.0
 40
0.0
 40
0.1250749528221387
 40
0.2500892739006949
 40
0.3750571932361
 40
0.4999999999479217
 40
0.6249428066676694
 40
0.7499107260256537
 40
0.8749250471380021
 40
1.0
 40
1.0
 40
1.0
 40
1.0
 10
-77.93878448380508
 20
-35.355236093888522
 30
0.0
 10
-78.137938935171888
 20
-35.355236095966461
 30
0.0
 10
-78.537254825610006
 20
-35.316030657614121
 30
0.0
 10
-79.112288051781434
 20
-35.141741385605641
 30
0.0
 10
-79.642307684540214
 20
-34.858653179387304
 30
0.0
 10
-80.106702721507503
 20
-34.477600759679561
 30
0.0
 10
-80.487755141234629
 20
-34.01320572268267
 30
0.0
 10
-80.77084334752368
 20
-33.483186089848132
 30
0.0
 10
-80.945132619654657
 20
-32.908152863557021
 30
0.0
 10
-80.984338058121722
 20
-32.508836973015363
 30
0.0
 10
-80.984338056108498
 20
-32.309682521585088
 30
0.0
  0
INSERT
  5
187
100
AcDbEntity
  8
寸法線_1
370
               5
390
0
  6
Continuous
 62
               7
100
AcDbBlockReference
  2
C10
 10
0.0
 20
0.0
 30
0.0
  0
LINE
  5
188
100
AcDbEntity
  8
________1________1
370
              18
390
0
  6
Continuous
 62
               7
100
AcDbLine
 10
-61.353935322333129
 20
-27.139984198641187
 30
0.0
 11
-61.353935322333129
 21
-32.309682521585088
 31
0.0
  0
LINE
  5
189
100
AcDbEntity
  8
________1________1
370
              18
390
0
  6
Continuous
 62
               7
100
AcDbLine
 10
-62.033807547616775
 20
-27.139984198641045
 30
0.0
 11
-61.723532588559323
 21
-27.139984198641045
 31
0.0
  0
LINE
  5
18A
100
AcDbEntity
  8
________1________1
370
              18
390
0
  6
Continuous
 62
               7
100
AcDbLine
 10
-80.984338056106111
 20
-27.139984198641045
 30
0.0
 11
-80.674063097048645
 21
-27.139984198641045
 31
0.0
  0
LINE
  5
18B
100
AcDbEntity
  8
________1________1
370
              18
390
0
  6
Continuous
 62
               7
100
AcDbLine
 10
-77.93878448380508
 20
-35.355236093888493
 30
0.0
 11
-77.93878448380508
 21
-35.724833360113138
 31
0.0
  0
LINE
  5
18C
100
AcDbEntity
  8
________1________1
370
              18
390
0
  6
Continuous
 62
               7
100
AcDbLine
 10
-81.353935322333129
 20
-32.309682521585088
 30
0.0
 11
-81.353935322333129
 21
-27.139984198641187
 31
0.0
  0
LINE
  5
18D
100
AcDbEntity
  8
________1________1
370
              18
390
0
  6
Continuous
 62
               7
100
AcDbLine
 10
-80.984338056108612
 20
-32.309682521585088
 30
0.0
 11
-81.353935322333129
 21
-32.309682521585088
 31
0.0
  0
LINE
  5
18E
100
AcDbEntity
  8
________1________1
370
              18
390
0
  6
Continuous
 62
               7
100
AcDbLine
 10
-80.984338056108498
 20
-27.139984198641187
 30
0.0
 11
-81.353935322333129
 21
-27.139984198641187
 31
0.0
  0
LINE
  5
18F
100
AcDbEntity
  8
________1________1
370
              18
390
0
  6
Continuous
 62
               7
100
AcDbLine
 10
-77.93878448380508
 20
-24.094430626337672
 30
0.0
 11
-77.93878448380508
 21
-23.724833360113141
 31
0.0
  0
LINE
  5
190
100
AcDbEntity
  8
________1________1
370
              18
390
0
  6
Continuous
 62
               7
100
AcDbLine
 10
-80.674063097048645
 20
-27.139984198641045
 30
0.0
 11
-79.985708521356287
 21
-27.139984198641045
 31
0.0
  0
LINE
  5
191
100
AcDbEntity
  8
________1________1
370
              18
390
0
  6
Continuous
 62
               7
100
AcDbLine
 10
-80.984338056108498
 20
-27.139984198641187
 30
0.0
 11
-80.984338056108498
 21
-32.309682521585088
 31
0.0
  0
LINE
  5
192
100
AcDbEntity
  8
________1________1
370
              18
390
0
  6
Continuous
 62
               7
100
AcDbLine
 10
-61.723532588557731
 20
-27.139984198641187
 30
0.0
 11
-61.353935322333129
 21
-27.139984198641187
 31
0.0
  0
ARC
  5
193
100
AcDbEntity
  8
________1________1
370
              18
390
0
  6
Continuous
 62
               7
100
AcDbCircle
 10
-71.353935322333257
 20
-29.724833360113166
 30
0.0
 40
4.1000152328043953
100
AcDbArc
 50
180.0
 51
0.0
  0
ARC
  5
194
100
AcDbEntity
  8
________1________1
370
              18
390
0
  6
Continuous
 62
               7
100
AcDbCircle
 10
-77.940480812392821
 20
-32.311378850172829
 30
0.0
 40
3.4134549314386016
100
AcDbArc
 50
179.97152665710408
 51
-89.971526657097399
  0
CIRCLE
  5
195
100
AcDbEntity
  8
________1________1
370
              18
390
0
  6
Continuous
 62
               7
100
AcDbCircle
 10
-71.353935322333257
 20
-29.724833360113166
 30
0.0
 40
4.580369462691749
  0
ARC
  5
196
100
AcDbEntity
  8
________1________1
370
              18
390
0
  6
Continuous
 62
               7
100
AcDbCircle
 10
-71.353935322333257
 20
-29.724833360113166
 30
0.0
 40
4.1000152328043953
100
AcDbArc
 50
0.0
 51
180.0
  0
CIRCLE
  5
197
100
AcDbEntity
  8
________1________1
370
              18
390
0
  6
Continuous
 62
               7
100
AcDbCircle
 10
-71.353935322333257
 20
-29.724833360113166
 30
0.0
 40
1.9547623084752388
210
-0.0
220
-0.0
230
1.0
  0
CIRCLE
  5
198
100
AcDbEntity
  8
________1________1
370
              18
390
0
  6
Continuous
 62
               7
100
AcDbCircle
 10
-71.353935322333257
 20
-29.724833360113166
 30
0.0
 40
1.8499999999999943
  0
LINE
  5
199
100
AcDbEntity
  8
________1________1
370
              18
390
0
  6
Continuous
 62
               7
100
AcDbLine
 10
-64.769086160861207
 20
-34.356606559133922
 30
0.0
 11
-77.93878448380508
 21
-34.356606559133922
 31
0.0
  0
LINE
  5
19A
100
AcDbEntity
  8
________1________1
370
              18
390
0
  6
Continuous
 62
               7
100
AcDbLine
 10
-77.93878448380508
 20
-25.093060161092342
 30
0.0
 11
-64.769086160861207
 21
-25.093060161092342
 31
0.0
  0
LINE
  5
19B
100
AcDbEntity
  8
________1________1
370
              18
390
0
  6
Continuous
 62
               7
100
AcDbLine
 10
-77.93878448380508
 20
-35.355236093888493
 30
0.0
 11
-64.769086160861207
 21
-35.355236093888493
 31
0.0
  0
LINE
  5
19C
100
AcDbEntity
  8
________1________1
370
              18
390
0
  6
Continuous
 62
               7
100
AcDbLine
 10
-77.93878448380508
 20
-23.724833360113141
 30
0.0
 11
-64.769086160861207
 21
-23.724833360113141
 31
0.0
  0
LINE
  5
19D
100
AcDbEntity
  8
________1________1
370
              18
390
0
  6
Continuous
 62
               7
100
AcDbLine
 10
-80.984338056106111
 20
-32.309682521585259
 30
0.0
 11
-80.674063097048645
 21
-32.309682521585259
 31
0.0
  0
LINE
  5
19E
100
AcDbEntity
  8
________1________1
370
              18
390
0
  6
Continuous
 62
               7
100
AcDbLine
 10
-64.769086160861207
 20
-35.35523609388855
 30
0.0
 11
-64.769086160861207
 21
-35.724833360113138
 31
0.0
  0
LINE
  5
19F
100
AcDbEntity
  8
________1________1
370
              18
390
0
  6
Continuous
 62
               7
100
AcDbLine
 10
-64.769086160861519
 20
-24.404705585396311
 30
0.0
 11
-64.769086160861519
 21
-24.094430626338838
 31
0.0
  0
LINE
  5
1A0
100
AcDbEntity
  8
________1________1
370
              18
390
0
  6
Continuous
 62
               7
100
AcDbLine
 10
-64.769086160861207
 20
-24.094430626337779
 30
0.0
 11
-64.769086160861207
 21
-23.724833360113141
 31
0.0
  0
LINE
  5
1A1
100
AcDbEntity
  8
________1________1
370
              18
390
0
  6
Continuous
 62
               7
100
AcDbLine
 10
-64.76908616086061
 20
-0.8528921979411717
 30
0.0
 11
-64.76908616086061
 21
-0.5782665689504096
 31
0.0
  0
LINE
  5
1A2
100
AcDbEntity
  8
________1________1
370
              18
390
0
  6
Continuous
 62
               7
100
AcDbLine
 10
-64.769086160861605
 20
0.0947718458187001
 30
0.0
 11
-61.723532588559394
 21
0.0947718458187001
 31
0.0
  0
ARC
  5
1A3
100
AcDbEntity
  8
________1________1
370
              18
390
0
  6
Continuous
 62
               7
100
AcDbCircle
 10
-79.985708521354013
 20
0.1471078020595247
 30
0.0
 40
0.9999999999999959
100
AcDbArc
 50
-177.00000000000094
 51
-133.49999999999966
  0
LINE
  5
1A4
100
AcDbEntity
  8
________1________1
370
              18
390
0
  6
Continuous
 62
               7
100
AcDbLine
 10
-17.513980806586872
 20
0.0947718458165685
 30
0.0
 11
-17.513980806586872
 21
7.1471078020595371
 31
0.0
  0
LINE
  5
1A5
100
AcDbEntity
  8
________1________1
370
              18
390
0
  6
Continuous
 62
               7
100
AcDbLine
 10
-26.098829997862492
 20
7.1471131207365346
 30
0.0
 11
-25.729232735718096
 21
0.094769847562107
 31
0.0
  0
LINE
  5
1A6
100
AcDbEntity
  8
____1
370
               5
390
0
  6
CENTER2
 62
               7
100
AcDbLine
 10
-71.353935322333143
 20
10.817908288306187
 30
0.0
 11
-71.353935322333143
 21
-4.7607583783604799
 31
0.0
  0
LINE
  5
1A7
100
AcDbEntity
  8
________1________1
370
              18
390
0
  6
Continuous
 62
               7
100
AcDbLine
 10
-77.938784483804
 20
-0.8528921979411717
 30
0.0
 11
-79.985708521356315
 21
-0.8528921979411717
 31
0.0
  0
LINE
  5
1A8
100
AcDbEntity
  8
________1________1
370
              18
390
0
  6
Continuous
 62
               7
100
AcDbLine
 10
-77.938784483803005
 20
-0.5782665689504096
 30
0.0
 11
-77.938784483803005
 21
-0.8528921979411717
 31
0.0
  0
LINE
  5
1A9
100
AcDbEntity
  8
________1________1
370
              18
390
0
  6
Continuous
 62
               7
100
AcDbLine
 10
-64.769086160862514
 20
-0.5782665689504096
 30
0.0
 11
-64.769086160862514
 21
0.0947718458187001
 31
0.0
  0
LINE
  5
1AA
100
AcDbEntity
  8
________1________1
370
              18
390
0
  6
Continuous
 62
               7
100
AcDbLine
 10
-22.683679129530969
 20
-0.8528921979411717
 30
0.0
 11
-24.730603167077572
 21
-0.8528921979411717
 31
0.0
  0
LINE
  5
1AB
100
AcDbEntity
  8
________1________1
370
              18
390
0
  6
Continuous
 62
               7
100
AcDbLine
 10
-17.513980806586815
 20
-0.8528921979411717
 30
0.0
 11
-17.513980806586815
 21
-0.5782665689504096
 31
0.0
  0
LINE
  5
1AC
100
AcDbEntity
  8
________1________1
370
              18
390
0
  6
Continuous
 62
               7
100
AcDbLine
 10
-22.683679129530969
 20
-0.8528921979411717
 30
0.0
 11
-22.683679129530969
 21
-0.5782665689504096
 31
0.0
  0
LINE
  5
1AD
100
AcDbEntity
  8
________1________1
370
              18
390
0
  6
Continuous
 62
               7
100
AcDbLine
 10
-17.513980806586872
 20
0.0947718458165685
 30
0.0
 11
-22.683679129530798
 21
0.0947718458165685
 31
0.0
  0
LINE
  5
1AE
100
AcDbEntity
  8
________1________1
370
              18
390
0
  6
Continuous
 62
               7
100
AcDbLine
 10
-64.769086160861207
 20
0.0947718458165685
 30
0.0
 11
-77.938784483805108
 21
0.0947718458165685
 31
0.0
  0
ARC
  5
1AF
100
AcDbEntity
  8
________1________1
370
              18
390
0
  6
Continuous
 62
               7
100
AcDbCircle
 10
-79.985708521354013
 20
0.1471078020595247
 30
0.0
 40
1.0000000000000111
100
AcDbArc
 50
-133.50000000000139
 51
-90.0
  0
LINE
  5
1B0
100
AcDbEntity
  8
________1________1
370
              18
390
0
  6
Continuous
 62
               7
100
AcDbLine
 10
-77.938784483805108
 20
-0.8528921979404753
 30
0.0
 11
-64.769086160861207
 21
-0.8528921979404753
 31
0.0
  0
SPLINE
  5
1B1
100
AcDbEntity
  8
________1________1
370
              18
390
0
  6
Continuous
 62
               7
100
AcDbSpline
210
0.0
220
0.0
230
1.0
 70
               0
 71
               3
 72
              42
 73
              38
 74
               0
 42
0.0000001
 43
0.0000001
 12
0.0586100552111229
 22
-0.9982809531530436
 32
0.0
 13
0.7209690526243205
 23
-0.6929672612454285
 33
0.0
 40
0.0
 40
0.0
 40
0.0
 40
0.0
 40
0.0285654625562678
 40
0.0571448417631503
 40
0.0857195909344323
 40
0.1142873164239197
 40
0.1428612323248234
 40
0.1714228077781456
 40
0.2000008289097241
 40
0.2285769854525284
 40
0.2571485380908308
 40
0.2857125420383236
 40
0.3142819485507878
 40
0.3428534550328741
 40
0.3714240599660825
 40
0.4000061851300188
 40
0.4285663044737831
 40
0.4571462182137732
 40
0.4857127502601236
 40
0.514292382237888
 40
0.5428526839823206
 40
0.5714327004604924
 40
0.6000009503831103
 40
0.6285672181275975
 40
0.6571428891215854
 40
0.6857094577791405
 40
0.7142900531635223
 40
0.742854371378004
 40
0.7714245828283584
 40
0.7999964051824352
 40
0.8285788742571764
 40
0.8571418977231013
 40
0.8857191135279736
 40
0.914293133528111
 40
0.942859742607692
 40
0.9714263637459081
 40
1.0
 40
1.0
 40
1.0
 40
1.0
 10
-25.729232735716788
 20
0.094769847562107
 30
0.0
 10
-25.728809046214575
 20
0.0875533186135034
 30
0.0
 10
-25.72796140332947
 20
0.0731157661423669
 30
0.0
 10
-25.7260955628151
 20
0.0515010038125485
 30
0.0
 10
-25.72379588721817
 20
0.0299285477573523
 30
0.0
 10
-25.721017505271913
 20
0.0084134402057447
 30
0.0
 10
-25.717777991809907
 20
-0.0130335405598299
 30
0.0
 10
-25.714069506388466
 20
-0.0344071116960532
 30
0.0
 10
-25.709903269301901
 20
-0.0556967342851049
 30
0.0
 10
-25.705273927605912
 20
-0.0768931053100896
 30
0.0
 10
-25.700186228906897
 20
-0.0979804900626799
 30
0.0
 10
-25.694641256664806
 20
-0.1189505117185217
 30
0.0
 10
-25.688643294874804
 20
-0.1397954455009351
 30
0.0
 10
-25.682195674849492
 20
-0.1605074998138019
 30
0.0
 10
-25.675297218386969
 20
-0.1810771117985421
 30
0.0
 10
-25.667962588952161
 20
-0.2014923094144177
 30
0.0
 10
-25.660172556526515
 20
-0.2217405590611161
 30
0.0
 10
-25.651960936289992
 20
-0.2418172833000636
 30
0.0
 10
-25.643301974607777
 20
-0.2617105443726597
 30
0.0
 10
-25.634228278828015
 20
-0.281412681594615
 30
0.0
 10
-25.624710348165774
 20
-0.3009078586971992
 30
0.0
 10
-25.614791133750668
 20
-0.3201986388181819
 30
0.0
 10
-25.604443621959387
 20
-0.3392650115816576
 30
0.0
 10
-25.593686971182716
 20
-0.3581021084247578
 30
0.0
 10
-25.582530295627702
 20
-0.3767047555569132
 30
0.0
 10
-25.570960569826479
 20
-0.3950575074267686
 30
0.0
 10
-25.55901280650421
 20
-0.4131630622406117
 30
0.0
 10
-25.54665800698201
 20
-0.430994524721994
 30
0.0
 10
-25.533929726989367
 20
-0.4485584935805189
 30
0.0
 10
-25.520816678315679
 20
-0.4658428156157566
 30
0.0
 10
-25.507345520853914
 20
-0.4828473504382611
 30
0.0
 10
-25.493487986003696
 20
-0.4995402931243103
 30
0.0
 10
-25.479288091649561
 20
-0.5159398819212964
 30
0.0
 10
-25.464732185413379
 20
-0.5320260476484702
 30
0.0
 10
-25.449822266810497
 20
-0.5477802147733382
 30
0.0
 10
-25.434597087930864
 20
-0.563231179104319
 30
0.0
 10
-25.424170990751076
 20
-0.5732523360206283
 30
0.0
 10
-25.418957645976104
 20
-0.5782631991603022
 30
0.0
  0
DIMENSION
  5
1C1
100
AcDbEntity
  8
寸法線_1
370
               5
390
0
  6
Continuous
 62
               7
100
AcDbDimension
  2
*D14
 10
-50.276940279896593
 20
-0.8528921979411628
 30
0.0
 11
-50.276940279896593
 21
3.1787128315819313
 31
0.0
 71
               5
 72
               1
 41
1.0
 42
0.0
  3
DS1
100
AcDbAlignedDimension
 13
-61.353934854019585
 23
7.1471131207249634
 33
0.0
 14
-62.72216212331476
 24
-0.8528921979411628
 34
0.0
 50
90.0
100
AcDbRotatedDimension
  0
INSERT
  5
1E5
100
AcDbEntity
  8
____1
370
              50
390
0
  6
Continuous
 62
               7
100
AcDbBlockReference
  2
C11
 10
0.0
 20
0.0
 30
0.0
  0
LINE
  5
1E6
100
AcDbEntity
  8
________1________1
370
              18
390
0
  6
Continuous
 62
               7
100
AcDbLine
 10
-62.722162123314902
 20
-27.139984198641045
 30
0.0
 11
-62.033807547616775
 21
-27.139984198641045
 31
0.0
  0
LINE
  5
1E7
100
AcDbEntity
  8
________1________1
370
              18
390
0
  6
Continuous
 62
               7
100
AcDbLine
 10
-62.033807547616775
 20
-32.309682521585259
 30
0.0
 11
-61.723532588559323
 21
-32.309682521585259
 31
0.0
  0
LINE
  5
1E8
100
AcDbEntity
  8
________1________1
370
              18
390
0
  6
Continuous
 62
               7
100
AcDbLine
 10
-61.723532588557774
 20
-32.309682521585088
 30
0.0
 11
-61.723532588557774
 21
-27.139984198641187
 31
0.0
  0
LINE
  5
1E9
100
AcDbEntity
  8
________1________1
370
              18
390
0
  6
Continuous
 62
               7
100
AcDbLine
 10
-62.722162123312344
 20
-27.139984198641187
 30
0.0
 11
-62.722162123312344
 21
-32.309682521585088
 31
0.0
  0
LINE
  5
1EA
100
AcDbEntity
  8
________1________1
370
              18
390
0
  6
Continuous
 62
               7
100
AcDbLine
 10
-62.722162123314902
 20
-32.309682521585259
 30
0.0
 11
-62.033807547616775
 21
-32.309682521585259
 31
0.0
  0
LINE
  5
1EB
100
AcDbEntity
  8
________1________1
370
              18
390
0
  6
Continuous
 62
               7
100
AcDbLine
 10
-61.723532588557774
 20
-32.309682521585088
 30
0.0
 11
-61.353935322333157
 21
-32.309682521585088
 31
0.0
  0
INSERT
  5
299
100
AcDbEntity
  8
____1
370
               5
390
0
  6
DOT
 62
               7
100
AcDbBlockReference
  2
C12
 10
0.0
 20
0.0
 30
0.0
  0
LINE
  5
29A
100
AcDbEntity
  8
____1_1
370
              50
390
0
  6
Continuous
 62
               7
100
AcDbLine
 10
20.09974620002513
 20
13.999999999999689
 30
-122.0055669565438
 11
0.0997462000251334
 21
13.999999999999689
 31
-122.0055669565438
  0
LINE
  5
29B
100
AcDbEntity
  8
____1_1
370
              50
390
0
  6
Continuous
 62
               7
100
AcDbLine
 10
20.09974620002513
 20
16.699999999999701
 30
-122.0055669565438
 11
0.0997462000251334
 21
16.69999999999969
 31
-122.0055669565438
  0
LINE
  5
29C
100
AcDbEntity
  8
____1_1
370
              50
390
0
  6
Continuous
 62
               7
100
AcDbLine
 10
20.09974620002513
 20
11.299999999999701
 30
-122.0055669565438
 11
0.0997462000251334
 21
11.29999999999969
 31
-122.0055669565438
  0
ARC
  5
29D
100
AcDbEntity
  8
________1________1
370
              18
390
0
  6
Continuous
 62
               7
100
AcDbCircle
 10
-15.467056769038098
 20
0.1471078020595247
 30
0.0
 40
0.9999999999999858
100
AcDbArc
 50
-90.0
 51
-46.500000000001464
  0
ARC
  5
29E
100
AcDbEntity
  8
________1________1
370
              18
390
0
  6
Continuous
 62
               7
100
AcDbCircle
 10
-62.722162123312401
 20
0.1471078020595247
 30
0.0
 40
1.0000000000000142
100
AcDbArc
 50
-90.0
 51
-46.499999999999176
  0
LINE
  5
29F
100
AcDbEntity
  8
________1________1
370
              18
390
0
  6
Continuous
 62
               7
100
AcDbLine
 10
-61.353934854021887
 20
7.1471131207249385
 30
0.0000000000000023
 11
-61.723532873145174
 21
0.094769847562107
 31
0.0000000000000023
  0
ARC
  5
2A0
100
AcDbEntity
  8
________1________1
370
              18
390
0
  6
Continuous
 62
               7
100
AcDbCircle
 10
-62.722162123312401
 20
0.1471078020595247
 30
0.0
 40
1.0000000000000122
100
AcDbArc
 50
-46.500000000000917
 51
-2.9999999999574509
  0
LINE
  5
2A1
100
AcDbEntity
  8
________1________1
370
              18
390
0
  6
Continuous
 62
               7
100
AcDbLine
 10
-64.769086160861207
 20
0.0947718458165685
 30
0.0
 11
-64.769086160861207
 21
7.1471078020595371
 31
0.0
  0
LINE
  5
2A2
100
AcDbEntity
  8
________1________1
370
              18
390
0
  6
Continuous
 62
               7
100
AcDbLine
 10
-17.513980806586815
 20
0.0947718458187001
 30
0.0
 11
-14.468427234284604
 21
0.0947718458187001
 31
0.0
  0
LINE
  5
2A3
100
AcDbEntity
  8
________1________1
370
              18
390
0
  6
Continuous
 62
               7
100
AcDbLine
 10
-14.098830421051673
 20
7.1471131207191263
 30
0.0
 11
-14.46842692621675
 21
0.094769847562107
 31
0.0
  0
ARC
  5
2A4
100
AcDbEntity
  8
________1________1
370
              18
390
0
  6
Continuous
 62
               7
100
AcDbCircle
 10
-15.467056769038098
 20
0.1471078020595247
 30
0.0
 40
0.9999999999999424
100
AcDbArc
 50
-46.499999999999218
 51
-2.9999999999576108
  0
LINE
  5
2A5
100
AcDbEntity
  8
________1________1
370
              18
390
0
  6
Continuous
 62
               7
100
AcDbLine
 10
-15.458807503033373
 20
-0.8528921979411717
 30
0.0
 11
-17.505731540579987
 21
-0.8528921979411717
 31
0.0
  0
LINE
  5
2A6
100
AcDbEntity
  8
________1________1
370
              18
390
0
  6
Continuous
 62
               7
100
AcDbLine
 10
-22.683679129530798
 20
-0.8528921979404753
 30
0.0
 11
-17.513980806586872
 21
-0.8528921979404753
 31
0.0
  0
ARC
  5
2A7
100
AcDbEntity
  8
________1________1
370
              18
390
0
  6
Continuous
 62
               7
100
AcDbCircle
 10
-24.730603167079561
 20
0.1471078020595247
 30
0.0
 40
1.0000000000000213
100
AcDbArc
 50
-133.50000000000082
 51
-90.000000000003254
  0
LINE
  5
2A8
100
AcDbEntity
  8
________1________1
370
              18
390
0
  6
Continuous
 62
               7
100
AcDbLine
 10
-22.683679129530969
 20
-0.5782665689504096
 30
0.0
 11
-22.683679129530969
 21
0.0947718458187001
 31
0.0
  0
LINE
  5
2A9
100
AcDbEntity
  8
________1________1
370
              18
390
0
  6
Continuous
 62
               7
100
AcDbLine
 10
-17.513980806586815
 20
-0.5782665689504096
 30
0.0
 11
-17.513980806586815
 21
0.0947718458187001
 31
0.0
  0
LINE
  5
2AA
100
AcDbEntity
  8
________1________1
370
              18
390
0
  6
Continuous
 62
               7
100
AcDbLine
 10
-22.683679129530798
 20
0.0947718458173217
 30
0.0
 11
-22.683679129530798
 21
7.1471078020595371
 31
0.0
  0
LINE
  5
2AB
100
AcDbEntity
  8
____1
370
               5
390
0
  6
CENTER2
 62
               7
100
AcDbLine
 10
-20.098830482270511
 20
10.112352732750646
 30
0.0
 11
-20.098830482270511
 21
-3.3496472672493525
 31
0.0
  0
LINE
  5
2AC
100
AcDbEntity
  8
________1________1
370
              18
390
0
  6
Continuous
 62
               7
100
AcDbLine
 10
-77.938784483804909
 20
0.0947718458187001
 30
0.0
 11
-77.938784483804909
 21
-0.5782665689504096
 31
0.0
  0
LINE
  5
2AD
100
AcDbEntity
  8
________1________1
370
              18
390
0
  6
Continuous
 62
               7
100
AcDbLine
 10
-80.984338056106196
 20
0.0947718458187001
 30
0.0
 11
-77.938784483804
 21
0.0947718458187001
 31
0.0
  0
LINE
  5
2AE
100
AcDbEntity
  8
________1________1
370
              18
390
0
  6
Continuous
 62
               7
100
AcDbLine
 10
-77.938784483805108
 20
0.0947718458184728
 30
0.0
 11
-77.938784483805108
 21
7.1471078020595371
 31
0.0
  0
LINE
  5
2AF
100
AcDbEntity
  8
________1________1
370
              18
390
0
  6
Continuous
 62
               7
100
AcDbLine
 10
-81.353935511904794
 20
7.1471078020595371
 30
0.0000000000000023
 11
-80.98433777152124
 21
0.094769847562107
 31
0.0000000000000023
  0
LINE
  5
2B0
100
AcDbEntity
  8
________1________1
370
              18
390
0
  6
Continuous
 62
               7
100
AcDbLine
 10
-25.737460423152196
 20
0.0947718458187001
 30
0.0
 11
-22.69190685085
 21
0.0947718458187001
 31
0.0
  0
LINE
  5
2B1
100
AcDbEntity
  8
________1________1
370
              18
390
0
  6
Continuous
 62
               7
100
AcDbLine
 10
-62.722162123314874
 20
-0.8528921979411717
 30
0.0
 11
-64.769086160861605
 21
-0.8528921979411717
 31
0.0
  0
ENDSEC
  0
SECTION
  2
OBJECTS
  0
DICTIONARY
  5
19
100
AcDbDictionary
280
               0
281
               1
  3
ACAD_GROUP
350
1A
  3
ACAD_MLINESTYLE
350
1B
  3
ACAD_LAYOUT
350
1E
  3
ACAD_PLOTSETTINGS
350
22
  3
ACAD_PLOTSTYLENAME
350
1F
  3
ACAD_WIPEOUT_VARS
350
23
  0
DICTIONARY
  5
1A
102
{ACAD_REACTORS
330
19
102
}
100
AcDbDictionary
280
               0
281
               1
  0
DICTIONARY
  5
1B
102
{ACAD_REACTORS
330
19
102
}
100
AcDbDictionary
280
               0
281
               1
  3
Standard
350
1C
  0
MLINESTYLE
  5
1C
102
{ACAD_REACTORS
330
1B
102
}
100
AcDbMlineStyle
  2
Standard
 70
               0
  3

 62
               0
 51
90.0
 52
90.0
 71
               2
 49
0.5
 62
             256
  6
ByLayer
 49
-0.5
 62
             256
  6
ByLayer
  0
ACDBDICTIONARYWDFLT
  5
1F
102
{ACAD_REACTORS
330
19
102
}
100
AcDbDictionary
281
               1
  3
Normal
350
1D
100
AcDbDictionaryWithDefault
340
1D
  0
ACDBPLACEHOLDER
  5
1D
102
{ACAD_REACTORS
330
1F
102
}
  0
LAYOUT
  5
20
102
{ACAD_REACTORS
330
1E
102
}
100
AcDbPlotSettings
  1

  2

  4

  6

 40
0.0
 41
0.0
 42
0.0
 43
0.0
 44
0.0
 45
0.0
 46
0.0
 47
0.0
 48
0.0
 49
0.0
140
0.0
141
0.0
142
1.0
143
1.0
 70
            1024
 72
               0
 73
               0
 74
               0
  7

 75
               0
147
1.0
148
0.0
149
0.0
100
AcDbLayout
  1
Model
 70
               0
 71
               0
 10
0.0
 20
0.0
 11
0.0
 21
0.0
 12
0.0
 22
0.0
 32
0.0
 14
0.0
 24
0.0
 34
0.0
 15
0.0
 25
0.0
 35
0.0
146
0.0
 13
0.0
 23
0.0
 33
0.0
 16
0.0
 26
0.0
 36
0.0
 17
0.0
 27
0.0
 37
0.0
 76
               0
330
A
331
0
345
0
346
0
  0
LAYOUT
  5
21
102
{ACAD_REACTORS
330
1E
102
}
100
AcDbPlotSettings
  1

  2

  4

  6

 40
0.0
 41
0.0
 42
0.0
 43
0.0
 44
0.0
 45
0.0
 46
0.0
 47
0.0
 48
0.0
 49
0.0
140
0.0
141
0.0
142
1.0
143
1.0
 70
               0
 72
               0
 73
               0
 74
               0
  7

 75
               0
147
1.0
148
0.0
149
0.0
100
AcDbLayout
  1
Layout1
 70
               0
 71
               0
 10
0.0
 20
0.0
 11
0.0
 21
0.0
 12
0.0
 22
0.0
 32
0.0
 14
0.0
 24
0.0
 34
0.0
 15
0.0
 25
0.0
 35
0.0
146
0.0
 13
0.0
 23
0.0
 33
0.0
 16
0.0
 26
0.0
 36
0.0
 17
0.0
 27
0.0
 37
0.0
 76
               0
330
B
331
0
345
0
346
0
  0
DICTIONARY
  5
1E
102
{ACAD_REACTORS
330
19
102
}
100
AcDbDictionary
280
               0
281
               1
  3
Layout1
350
21
  3
Model
350
20
  0
DICTIONARY
  5
22
102
{ACAD_REACTORS
330
19
102
}
100
AcDbDictionary
280
               0
281
               1
  0
WIPEOUTVARIABLES
  5
23
100
AcDbWipeoutVariables
 70
               1
  0
ENDSEC
  0
EOF
