  0
SECTION
  2
HEADER
  9
$ACADVER
  1
AC1009
  9
$INSBASE
 10
0.0
 20
0.0
 30
0.0
  9
$EXTMIN
 10
-363.59296875000001
 20
-300.72382812500001
 30
0.0
  9
$EXTMAX
 10
436.40703124999987
 20
259.27617187499999
 30
0.0
  9
$LIMMIN
 10
0.0
 20
0.0
  9
$LIMMAX
 10
0.0
 20
0.0
  9
$ORTHOMODE
 70
     0
  9
$REGENMODE
 70
     1
  9
$FILLMODE
 70
     1
  9
$QTEXTMODE
 70
     0
  9
$MIRRTEXT
 70
     1
  9
$DRAGMODE
 70
     2
  9
$LTSCALE
 40
1.0
  9
$OSMODE
 70
    31
  9
$ATTMODE
 70
     1
  9
$TEXTSIZE
 40
0.0
  9
$TRACEWID
 40
0.05
  9
$TEXTSTYLE
  7
STANDARD
  9
$CLAYER
  8
0
  9
$CELTYPE
  6
CONTINUOUS
  9
$CECOLOR
 62
   256
  9
$DIMSCALE
 40
1.0
  9
$DIMASZ
 40
0.18
  9
$DIMEXO
 40
0.0625
  9
$DIMDLI
 40
0.38
  9
$DIMRND
 40
0.0
  9
$DIMDLE
 40
0.0
  9
$DIMEXE
 40
0.18
  9
$DIMTP
 40
0.0
  9
$DIMTM
 40
0.0
  9
$DIMTXT
 40
0.18
  9
$DIMCEN
 40
0.09
  9
$DIMTSZ
 40
0.0
  9
$DIMTOL
 70
     0
  9
$DIMLIM
 70
     0
  9
$DIMTIH
 70
     1
  9
$DIMTOH
 70
     1
  9
$DIMSE1
 70
     0
  9
$DIMSE2
 70
     0
  9
$DIMTAD
 70
     0
  9
$DIMZIN
 70
     0
  9
$DIMBLK
  1

  9
$DIMASO
 70
     1
  9
$DIMSHO
 70
     1
  9
$DIMPOST
  1

  9
$DIMAPOST
  1

  9
$DIMALT
 70
     0
  9
$DIMALTD
 70
     2
  9
$DIMALTF
 40
25.399999999999999
  9
$DIMLFAC
 40
1.0
  9
$DIMTOFL
 70
     0
  9
$DIMTVP
 40
0.0
  9
$DIMTIX
 70
     0
  9
$DIMSOXD
 70
     0
  9
$DIMSAH
 70
     0
  9
$DIMBLK1
  1

  9
$DIMBLK2
  1

  9
$DIMSTYLE
  2
STANDARD
  9
$DIMCLRD
 70
     0
  9
$DIMCLRE
 70
     0
  9
$DIMCLRT
 70
     0
  9
$DIMTFAC
 40
1.0
  9
$DIMGAP
 40
0.09
  9
$LUNITS
 70
     2
  9
$LUPREC
 70
     4
  9
$SKETCHINC
 40
0.1
  9
$FILLETRAD
 40
0.0
  9
$AUNITS
 70
     0
  9
$AUPREC
 70
     0
  9
$MENU
  1
acad
  9
$ELEVATION
 40
0.0
  9
$PELEVATION
 40
0.0
  9
$THICKNESS
 40
0.0
  9
$LIMCHECK
 70
     0
  9
$BLIPMODE
 70
     0
  9
$CHAMFERA
 40
0.0
  9
$CHAMFERB
 40
0.0
  9
$SKPOLY
 70
     0
  9
$TDCREATE
 40
2454860.594277523
  9
$TDUPDATE
 40
2454860.594457997
  9
$TDINDWG
 40
0.0001949537
  9
$TDUSRTIMER
 40
0.0001945949
  9
$USRTIMER
 70
     1
  9
$ANGBASE
 50
0.0
  9
$ANGDIR
 70
     0
  9
$PDMODE
 70
     3
  9
$PDSIZE
 40
-1.0
  9
$PLINEWID
 40
0.0
  9
$COORDS
 70
     2
  9
$SPLFRAME
 70
     0
  9
$SPLINETYPE
 70
     6
  9
$SPLINESEGS
 70
     8
  9
$ATTDIA
 70
     0
  9
$ATTREQ
 70
     1
  9
$HANDLING
 70
     1
  9
$HANDSEED
  5
9C1
  9
$SURFTAB1
 70
     6
  9
$SURFTAB2
 70
     6
  9
$SURFTYPE
 70
     6
  9
$SURFU
 70
     6
  9
$SURFV
 70
     6
  9
$UCSNAME
  2

  9
$UCSORG
 10
0.0
 20
0.0
 30
0.0
  9
$UCSXDIR
 10
1.0
 20
0.0
 30
0.0
  9
$UCSYDIR
 10
0.0
 20
1.0
 30
0.0
  9
$PUCSNAME
  2

  9
$PUCSORG
 10
0.0
 20
0.0
 30
0.0
  9
$PUCSXDIR
 10
1.0
 20
0.0
 30
0.0
  9
$PUCSYDIR
 10
0.0
 20
1.0
 30
0.0
  9
$USERI1
 70
     0
  9
$USERI2
 70
     0
  9
$USERI3
 70
     0
  9
$USERI4
 70
     0
  9
$USERI5
 70
     0
  9
$USERR1
 40
0.0
  9
$USERR2
 40
0.0
  9
$USERR3
 40
0.0
  9
$USERR4
 40
0.0
  9
$USERR5
 40
0.0
  9
$WORLDVIEW
 70
     1
  9
$SHADEDGE
 70
     3
  9
$SHADEDIF
 70
    70
  9
$TILEMODE
 70
     1
  9
$MAXACTVP
 70
    16
  9
$PLIMCHECK
 70
     0
  9
$PEXTMIN
 10
1.0000000000000000E+020
 20
1.0000000000000000E+020
 30
1.0000000000000000E+020
  9
$PEXTMAX
 10
-1.0000000000000000E+020
 20
-1.0000000000000000E+020
 30
-1.0000000000000000E+020
  9
$PLIMMIN
 10
0.0
 20
0.0
  9
$PLIMMAX
 10
12.0
 20
9.0
  9
$UNITMODE
 70
     0
  9
$VISRETAIN
 70
     0
  9
$PLINEGEN
 70
     1
  9
$PSLTSCALE
 70
     0
  0
ENDSEC
  0
SECTION
  2
TABLES
  0
TABLE
  2
VPORT
 70
     2
  0
VPORT
  2
*ACTIVE
 70
     0
 10
0.0
 20
0.0
 11
1.0
 21
1.0
 12
36.407031250000031
 22
-20.723828125000011
 13
0.0
 23
0.0
 14
1.0
 24
1.0
 15
0.0
 25
0.0
 16
0.0
 26
0.0
 36
1.0
 17
0.0
 27
0.0
 37
0.0
 40
564.6473029045643
 41
1.6343490304709141
 42
50.0
 43
0.0
 44
0.0
 50
0.0
 51
0.0
 71
     0
 72
   100
 73
     1
 74
     1
 75
     0
 76
     0
 77
     0
 78
     0
  0
ENDTAB
  0
TABLE
  2
LTYPE
 70
    11
  0
LTYPE
  2
CONTINUOUS
 70
     0
  3
Solid line
 72
    65
 73
     0
 40
0.0
  0
LTYPE
  2
DOT
 70
     0
  3
. . . . . . . . 
 72
    65
 73
     2
 40
1.0
 49
0.0
 49
-1.0
  0
LTYPE
  2
DASHED
 70
     0
  3
___  ___  ___  ___  
 72
    65
 73
     2
 40
4.0
 49
3.0
 49
-1.0
  0
LTYPE
  2
HIDDEN
 70
     0
  3
__ __ __ __ 
 72
    65
 73
     2
 40
3.0
 49
2.0
 49
-1.0
  0
LTYPE
  2
STITCH
 70
     0
  3
_ _ _ _ 
 72
    65
 73
     2
 40
2.0
 49
1.0
 49
-1.0
  0
LTYPE
  2
CENTER
 70
     0
  3
______  __  ______  __  
 72
    65
 73
     4
 40
43.0
 49
40.0
 49
-1.0
 49
1.0
 49
-1.0
  0
LTYPE
  2
DASHDOT
 70
     0
  3
____ . ____ . 
 72
    65
 73
     4
 40
32.0
 49
30.0
 49
-1.0
 49
0.0
 49
-1.0
  0
LTYPE
  2
BORDER
 70
     0
  3
__ . __ . 
 72
    65
 73
     4
 40
22.0
 49
20.0
 49
-1.0
 49
0.0
 49
-1.0
  0
LTYPE
  2
CUTTING
 70
     0
  3
________   ___   ___   
 72
    65
 73
     6
 40
45.0
 49
40.0
 49
-1.0
 49
1.0
 49
-1.0
 49
1.0
 49
-1.0
  0
LTYPE
  2
PHANTOM
 70
     0
  3
______  __  __  
 72
    65
 73
     6
 40
35.0
 49
30.0
 49
-1.0
 49
1.0
 49
-1.0
 49
1.0
 49
-1.0
  0
LTYPE
  2
DIVIDE
 70
     0
  3
____ . . ____ . . 
 72
    65
 73
     6
 40
23.0
 49
20.0
 49
-1.0
 49
0.0
 49
-1.0
 49
0.0
 49
-1.0
  0
ENDTAB
  0
TABLE
  2
LAYER
 70
     9
  0
LAYER
  2
0
 70
     0
 62
     7
  6
CONTINUOUS
  0
LAYER
  2
┌▓È_1
 70
     0
 62
     7
  6
CONTINUOUS
  0
LAYER
  2
1
 70
     0
 62
     7
  6
CONTINUOUS
  0
LAYER
  2
5
 70
     0
 62
     7
  6
CONTINUOUS
  0
LAYER
  2
6
 70
     0
 62
     7
  6
CONTINUOUS
  0
LAYER
  2
12
 70
     0
 62
     7
  6
CONTINUOUS
  0
LAYER
  2
Éíû@É³
 70
     0
 62
     7
  6
CONTINUOUS
  0
LAYER
  2
4
 70
     0
 62
     7
  6
CONTINUOUS
  0
LAYER
  2
2
 70
     0
 62
     7
  6
CONTINUOUS
  0
ENDTAB
  0
TABLE
  2
STYLE
 70
     1
  0
STYLE
  2
STANDARD
 70
     0
 40
0.0
 41
1.0
 50
0.0
 71
     0
 42
0.0
  3
txt
  4
extfont
  0
ENDTAB
  0
TABLE
  2
VIEW
 70
     0
  0
ENDTAB
  0
TABLE
  2
UCS
 70
     0
  0
ENDTAB
  0
TABLE
  2
APPID
 70
     2
  0
APPID
  2
ACAD
 70
     0
  0
APPID
  2
DCO15
 70
     0
  0
ENDTAB
  0
TABLE
  2
DIMSTYLE
 70
     2
  0
DIMSTYLE
  2
STANDARD
 70
     0
  3

  4

  5

  6

  7

 40
1.0
 41
0.18
 42
0.0625
 43
0.38
 44
0.18
 45
0.0
 46
0.0
 47
0.0
 48
0.0
140
0.18
141
0.09
142
0.0
143
25.399999999999999
144
1.0
145
0.0
146
1.0
147
0.09
 71
     0
 72
     0
 73
     1
 74
     1
 75
     0
 76
     0
 77
     0
 78
     0
170
     0
171
     2
172
     0
173
     0
174
     0
175
     0
176
     0
177
     0
178
     0
  0
DIMSTYLE
  2
VELDIM0
 70
     0
  3

  4

  5

  6

  7

 40
1.0
 41
3.8637032508999991
 42
0.0625
 43
0.38
 44
2.0
 45
0.0
 46
10.0
 47
0.0
 48
0.0
140
7.1966662884000003
141
0.09
142
0.0
143
25.399999999999999
144
1.0
145
0.0
146
1.0
147
0.09
 71
     0
 72
     0
 73
     0
 74
     0
 75
     0
 76
     0
 77
     0
 78
     8
170
     0
171
     2
172
     0
173
     0
174
     0
175
     0
176
     0
177
     0
178
     0
  0
ENDTAB
  0
ENDSEC
  0
SECTION
  2
BLOCKS
  0
BLOCK
  8
0
  2
$MODEL_SPACE
 70
     0
 10
0.0
 20
0.0
 30
0.0
  3
$MODEL_SPACE
  1

  0
ENDBLK
  5
E
  8
0
  0
BLOCK
 67
     1
  8
0
  2
$PAPER_SPACE
 70
     0
 10
0.0
 20
0.0
 30
0.0
  3
$PAPER_SPACE
  1

  0
ENDBLK
  5
10
 67
     1
  8
0
  0
BLOCK
  8
0
  2
CLUMP0
 70
     0
 10
0.0
 20
0.0
 30
0.0
  3
CLUMP0
  1

  0
INSERT
  5
32
  8
0
  6
CONTINUOUS
  2
*U23
 10
0.0
 20
0.0
 30
0.0
  0
LINE
  5
33
  8
┌▓È_1
 62
     5
 10
145.5733860963
 20
248.7454132204
 30
0.0
 11
150.5733860963
 21
240.08515918250001
 31
0.0
  0
LINE
  5
34
  8
┌▓È_1
 62
     5
 10
140.5733860963
 20
240.08515918250001
 30
0.0
 11
145.5733860963
 21
248.7454132204
 31
0.0
  0
LINE
  5
35
  8
┌▓È_1
 62
     5
 10
140.5733860963
 20
240.08515918250001
 30
0.0
 11
150.5733860963
 21
240.08515918250001
 31
0.0
  0
ENDBLK
  5
36
  8
0
  0
BLOCK
  8
0
  2
BALLON0
 70
     0
 10
0.0
 20
0.0
 30
0.0
  3
BALLON0
  1

  0
INSERT
  5
CD
  8
0
  6
CONTINUOUS
  2
*U26
 10
0.0
 20
0.0
 30
0.0
  0
CIRCLE
  5
CE
  8
┌▓È_1
 10
29.437909961300001
 20
117.6752813292
 30
0.0
 40
8.0
  0
LINE
  5
CF
  8
Éíû@É³
 10
42.771243294599998
 20
117.6752813292
 30
0.0
 11
37.437909961300001
 21
117.6752813292
 31
0.0
  0
LINE
  5
D0
  8
Éíû@É³
 10
66.541698131099992
 20
76.503645833299998
 30
0.0
 11
42.771243294599998
 21
117.6752813292
 31
0.0
  0
SOLID
  5
D1
  8
Éíû@É³
 10
66.541698131099992
 20
76.503645833299998
 30
0.0
 11
61.1560574851
 21
82.631849063600015
 31
0.0
 12
63.341698131099989
 22
82.046208417599999
 32
0.0
 13
63.341698131099989
 23
82.046208417599999
 33
0.0
  0
SOLID
  5
D2
  8
Éíû@É³
 10
63.341698131099989
 20
82.046208417599999
 30
0.0
 11
63.927338777199999
 21
84.231849063599995
 31
0.0
 12
66.541698131099992
 22
76.503645833299998
 32
0.0
 13
66.541698131099992
 23
76.503645833299998
 33
0.0
  0
ENDBLK
  5
D3
  8
0
  0
BLOCK
  8
0
  2
CLUMP1
 70
     0
 10
0.0
 20
0.0
 30
0.0
  3
CLUMP1
  1

  0
INSERT
  5
102
  8
┌▓È_1
 62
     5
  2
CLUMP2
 10
0.0
 20
0.0
 30
0.0
  0
ENDBLK
  5
10D
  8
0
  0
BLOCK
  8
0
  2
CLUMP2
 70
     0
 10
0.0
 20
0.0
 30
0.0
  3
CLUMP2
  1

  0
LINE
  5
105
  8
4
 62
     5
 10
94.205910931100007
 20
58.346791433299991
 30
0.0
 11
95.549056531100007
 21
57.003645833299991
 31
0.0
  0
LINE
  5
106
  8
4
 62
     5
 10
94.205910931100007
 20
59.761005833299997
 30
0.0
 11
96.963270931100013
 21
57.003645833299991
 31
0.0
  0
LINE
  5
107
  8
4
 62
     5
 10
94.3774837311
 20
61.003645833299998
 30
0.0
 11
98.377483731100014
 21
57.003645833299991
 31
0.0
  0
LINE
  5
108
  8
4
 62
     5
 10
95.791698131100006
 20
61.003645833299998
 30
0.0
 11
99.791698131100006
 21
57.003645833299991
 31
0.0
  0
LINE
  5
109
  8
4
 62
     5
 10
97.205910931100021
 20
61.003645833299998
 30
0.0
 11
101.20591093109999
 21
57.003645833299991
 31
0.0
  0
LINE
  5
10A
  8
4
 62
     5
 10
98.620125331100013
 20
61.003645833299998
 30
0.0
 11
102.6201253311
 21
57.003645833299991
 31
0.0
  0
LINE
  5
10B
  8
4
 62
     5
 10
101.2769797311
 20
59.761005833299997
 30
0.0
 11
104.0343381311
 21
57.003645833299991
 31
0.0
  0
ENDBLK
  5
10C
  8
0
  0
BLOCK
  8
0
  2
BALLON1
 70
     0
 10
0.0
 20
0.0
 30
0.0
  3
BALLON1
  1

  0
INSERT
  5
140
  8
0
  6
CONTINUOUS
  2
*U41
 10
0.0
 20
0.0
 30
0.0
  0
CIRCLE
  5
141
  8
┌▓È_1
 10
132.36087976030001
 20
117.6752813292
 30
0.0
 40
8.0
  0
LINE
  5
142
  8
Éíû@É³
 10
119.027546427
 20
117.6752813292
 30
0.0
 11
124.36087976029999
 21
117.6752813292
 31
0.0
  0
LINE
  5
143
  8
Éíû@É³
 10
83.955910931099993
 20
82.603645833300007
 30
0.0
 11
119.027546427
 21
117.6752813292
 31
0.0
  0
SOLID
  5
144
  8
Éíû@É³
 10
83.955910931099993
 20
82.603645833300007
 30
0.0
 11
88.481394330699999
 21
89.391870932700002
 31
0.0
 12
88.481394330699999
 22
87.129129232900013
 32
0.0
 13
88.481394330699999
 23
87.129129232900013
 33
0.0
  0
SOLID
  5
145
  8
Éíû@É³
 10
88.481394330699999
 20
87.129129232900013
 30
0.0
 11
90.744136030499988
 21
87.129129232900013
 31
0.0
 12
83.955910931099993
 22
82.603645833300007
 32
0.0
 13
83.955910931099993
 23
82.603645833300007
 33
0.0
  0
ENDBLK
  5
146
  8
0
  0
BLOCK
  8
0
  2
CLUMP3
 70
     0
 10
0.0
 20
0.0
 30
0.0
  3
CLUMP3
  1

  0
ARC
  5
2CD
  8
1
 62
     5
 10
-129.6878434386
 20
48.553645833300003
 30
0.0
 40
1.3
 50
0.0
 51
90.0
  0
LINE
  5
2CE
  8
1
 62
     5
 10
-130.6878434386
 20
49.853645833299993
 30
0.0
 11
-129.6878434386
 21
49.853645833299993
 31
0.0
  0
ARC
  5
2CF
  8
1
 62
     5
 10
-130.6878434386
 20
48.553645833300003
 30
0.0
 40
1.3
 50
90.0
 51
180.0
  0
LINE
  5
2D0
  8
1
 62
     5
 10
-130.6878434386
 20
49.553645833300003
 30
0.0
 11
-129.6878434386
 21
49.553645833300003
 31
0.0
  0
LINE
  5
2D1
  8
1
 62
     5
 10
-129.6348434386
 20
47.555645833299991
 30
0.0
 11
-127.7398434386
 21
47.654645833300002
 31
0.0
  0
LINE
  5
2D2
  8
1
 62
     5
 10
-130.6878434386
 20
47.553645833300003
 30
0.0
 11
-129.6878434386
 21
47.553645833300003
 31
0.0
  0
LINE
  5
2D3
  8
1
 62
     5
 10
-130.73384343859999
 20
47.5546458333
 30
0.0
 11
-132.13584343860001
 21
47.6186458333
 31
0.0
  0
ARC
  5
2D4
  8
1
 62
     5
 10
-132.88784343859999
 20
48.553645833300003
 30
0.0
 40
1.1999999999999991
 50
308.80000000000001
 51
359.99000000000001
  0
ARC
  5
2D5
  8
1
 62
     5
 10
-132.88784343859999
 20
48.553645833300003
 30
0.0
 40
0.9
 50
270.0
 51
0.0
  0
ARC
  5
2D6
  8
1
 62
     5
 10
-130.6878434386
 20
48.553645833300003
 30
0.0
 40
1.0
 50
90.0
 51
270.0
  0
ARC
  5
2D7
  8
1
 62
     5
 10
-127.78784343860001
 20
48.553645833300003
 30
0.0
 40
0.9
 50
179.99000000000001
 51
273.00999999999999
  0
ARC
  5
2D8
  8
1
 62
     5
 10
-127.78784343860001
 20
48.553645833300003
 30
0.0
 40
0.6
 50
180.0
 51
270.0
  0
ARC
  5
2D9
  8
1
 62
     5
 10
-129.6878434386
 20
48.553645833300003
 30
0.0
 40
1.0
 50
270.0
 51
90.0
  0
LINE
  5
2DA
  8
1
 62
     5
 10
-124.6878434386
 20
47.953645833300001
 30
0.0
 11
-124.3348434386
 21
47.653645833299997
 31
0.0
  0
LINE
  5
2DB
  8
1
 62
     5
 10
-127.7888434386
 20
47.953645833300001
 30
0.0
 11
-124.6878434386
 21
47.953645833300001
 31
0.0
  0
LINE
  5
2DC
  8
1
 62
     5
 10
-124.3348434386
 20
47.653645833299997
 30
0.0
 11
-121.8878434386
 21
47.653645833299997
 31
0.0
  0
ENDBLK
  5
2DD
  8
0
  0
BLOCK
  8
0
  2
CLUMP4
 70
     0
 10
0.0
 20
0.0
 30
0.0
  3
CLUMP4
  1

  0
ARC
  5
2FC
  8
1
 62
     5
 10
-151.6878434386
 20
48.553645833300003
 30
0.0
 40
1.3
 50
0.0
 51
90.0
  0
LINE
  5
2FD
  8
1
 62
     5
 10
-152.6878434386
 20
49.853645833299993
 30
0.0
 11
-151.6878434386
 21
49.853645833299993
 31
0.0
  0
ARC
  5
2FE
  8
1
 62
     5
 10
-152.6878434386
 20
48.553645833300003
 30
0.0
 40
1.3
 50
90.0
 51
180.0
  0
LINE
  5
2FF
  8
1
 62
     5
 10
-152.6878434386
 20
49.553645833300003
 30
0.0
 11
-151.6878434386
 21
49.553645833300003
 31
0.0
  0
LINE
  5
300
  8
1
 62
     5
 10
-151.6348434386
 20
47.555645833299991
 30
0.0
 11
-149.73984343859999
 21
47.654645833300002
 31
0.0
  0
LINE
  5
301
  8
1
 62
     5
 10
-152.6878434386
 20
47.553645833300003
 30
0.0
 11
-151.6878434386
 21
47.553645833300003
 31
0.0
  0
LINE
  5
302
  8
1
 62
     5
 10
-152.73384343859999
 20
47.5546458333
 30
0.0
 11
-154.13584343860001
 21
47.6186458333
 31
0.0
  0
ARC
  5
303
  8
1
 62
     5
 10
-154.88784343859999
 20
48.553645833300003
 30
0.0
 40
1.1999999999999991
 50
308.80000000000001
 51
359.99000000000001
  0
ARC
  5
304
  8
1
 62
     5
 10
-154.88784343859999
 20
48.553645833300003
 30
0.0
 40
0.9
 50
270.0
 51
0.0
  0
ARC
  5
305
  8
1
 62
     5
 10
-152.6878434386
 20
48.553645833300003
 30
0.0
 40
1.0
 50
90.0
 51
270.0
  0
ARC
  5
306
  8
1
 62
     5
 10
-149.78784343859999
 20
48.553645833300003
 30
0.0
 40
0.9
 50
179.99000000000001
 51
273.00999999999999
  0
ARC
  5
307
  8
1
 62
     5
 10
-149.78784343859999
 20
48.553645833300003
 30
0.0
 40
0.6
 50
180.0
 51
270.0
  0
ARC
  5
308
  8
1
 62
     5
 10
-151.6878434386
 20
48.553645833300003
 30
0.0
 40
1.0
 50
270.0
 51
90.0
  0
LINE
  5
309
  8
1
 62
     5
 10
-146.6878434386
 20
47.953645833300001
 30
0.0
 11
-146.33484343859999
 21
47.653645833299997
 31
0.0
  0
LINE
  5
30A
  8
1
 62
     5
 10
-149.7888434386
 20
47.953645833300001
 30
0.0
 11
-146.6878434386
 21
47.953645833300001
 31
0.0
  0
LINE
  5
30B
  8
1
 62
     5
 10
-146.33484343859999
 20
47.653645833299997
 30
0.0
 11
-143.88784343859999
 21
47.653645833299997
 31
0.0
  0
ENDBLK
  5
30C
  8
0
  0
BLOCK
  8
0
  2
CLUMP5
 70
     0
 10
0.0
 20
0.0
 30
0.0
  3
CLUMP5
  1

  0
ARC
  5
31A
  8
1
 62
     5
 10
-140.6878434386
 20
48.553645833300003
 30
0.0
 40
1.3
 50
0.0
 51
90.0
  0
LINE
  5
31B
  8
1
 62
     5
 10
-141.6878434386
 20
49.853645833299993
 30
0.0
 11
-140.6878434386
 21
49.853645833299993
 31
0.0
  0
ARC
  5
31C
  8
1
 62
     5
 10
-141.6878434386
 20
48.553645833300003
 30
0.0
 40
1.3
 50
90.0
 51
180.0
  0
LINE
  5
31D
  8
1
 62
     5
 10
-141.6878434386
 20
49.553645833300003
 30
0.0
 11
-140.6878434386
 21
49.553645833300003
 31
0.0
  0
LINE
  5
31E
  8
1
 62
     5
 10
-140.6348434386
 20
47.555645833299991
 30
0.0
 11
-138.73984343859999
 21
47.654645833300002
 31
0.0
  0
LINE
  5
31F
  8
1
 62
     5
 10
-141.6878434386
 20
47.553645833300003
 30
0.0
 11
-140.6878434386
 21
47.553645833300003
 31
0.0
  0
LINE
  5
320
  8
1
 62
     5
 10
-141.73384343859999
 20
47.5546458333
 30
0.0
 11
-143.13584343860001
 21
47.6186458333
 31
0.0
  0
ARC
  5
321
  8
1
 62
     5
 10
-143.88784343859999
 20
48.553645833300003
 30
0.0
 40
1.1999999999999991
 50
308.80000000000001
 51
359.99000000000001
  0
ARC
  5
322
  8
1
 62
     5
 10
-143.88784343859999
 20
48.553645833300003
 30
0.0
 40
0.9
 50
270.0
 51
0.0
  0
ARC
  5
323
  8
1
 62
     5
 10
-141.6878434386
 20
48.553645833300003
 30
0.0
 40
1.0
 50
90.0
 51
270.0
  0
ARC
  5
324
  8
1
 62
     5
 10
-138.78784343859999
 20
48.553645833300003
 30
0.0
 40
0.9
 50
179.99000000000001
 51
273.00999999999999
  0
ARC
  5
325
  8
1
 62
     5
 10
-138.78784343859999
 20
48.553645833300003
 30
0.0
 40
0.6
 50
180.0
 51
270.0
  0
ARC
  5
326
  8
1
 62
     5
 10
-140.6878434386
 20
48.553645833300003
 30
0.0
 40
1.0
 50
270.0
 51
90.0
  0
LINE
  5
327
  8
1
 62
     5
 10
-135.6878434386
 20
47.953645833300001
 30
0.0
 11
-135.33484343859999
 21
47.653645833299997
 31
0.0
  0
LINE
  5
328
  8
1
 62
     5
 10
-138.7888434386
 20
47.953645833300001
 30
0.0
 11
-135.6878434386
 21
47.953645833300001
 31
0.0
  0
LINE
  5
329
  8
1
 62
     5
 10
-135.33484343859999
 20
47.653645833299997
 30
0.0
 11
-132.88784343859999
 21
47.653645833299997
 31
0.0
  0
ENDBLK
  5
32A
  8
0
  0
BLOCK
  8
0
  2
*D8
 70
     1
 10
0.0
 20
0.0
 30
0.0
  3
*D8
  1

  0
TEXT
  5
389
  8
0
 62
     0
 10
-294.68204420410001
 20
15.403646500900001
 30
0.0
 40
7.1966662884000003
  1
%%c43.5
 50
90.0
  0
LINE
  5
38A
  8
0
 62
     0
 10
-254.7058434386
 20
49.853645833299993
 30
0.0
 11
-293.41204427079998
 21
49.853645833299993
 31
0.0
  0
LINE
  5
38B
  8
0
 62
     0
 10
-250.27384343860001
 20
6.3536458332999999
 30
0.0
 11
-293.41204427079998
 21
6.3536458332999999
 31
0.0
  0
LINE
  5
38C
  8
0
 62
     0
 10
-291.41204427079998
 20
49.853645833299993
 30
0.0
 11
-291.41204427079998
 21
45.036978276599989
 31
0.0
  0
LINE
  5
38D
  8
0
 62
     0
 10
-291.41204427079998
 20
49.853645833299993
 30
0.0
 11
-291.41204427079998
 21
11.1703133901
 31
0.0
  0
LINE
  5
38E
  8
0
 62
     0
 10
-291.41204427079998
 20
6.3536458332999999
 30
0.0
 11
-291.41204427079998
 21
45.036978276599989
 31
0.0
  0
LINE
  5
38F
  8
0
 62
     0
 10
-291.41204427079998
 20
6.3536458332999999
 30
0.0
 11
-291.41204427079998
 21
11.1703133901
 31
0.0
  0
LINE
  5
390
  8
0
 62
     0
 10
-291.41204427079998
 20
6.3536458332999999
 30
0.0
 11
-291.41204427079998
 21
16.3536458333
 31
0.0
  0
SOLID
  5
391
  8
0
 62
     0
 10
-291.41204427079998
 20
6.3536458332999999
 30
0.0
 11
-292.44732044540001
 21
10.2173490842
 31
0.0
 12
-290.3767680963
 22
10.2173490842
 32
0.0
 13
-291.41204427079998
 23
9.2514232715000002
 33
0.0
  0
LINE
  5
392
  8
0
 62
     0
 10
-291.41204427079998
 20
49.853645833299993
 30
0.0
 11
-291.41204427079998
 21
39.8536458333
 31
0.0
  0
SOLID
  5
393
  8
0
 62
     0
 10
-291.41204427079998
 20
49.853645833299993
 30
0.0
 11
-290.3767680963
 21
45.989942582399998
 31
0.0
 12
-292.44732044540001
 22
45.989942582399998
 32
0.0
 13
-291.41204427079998
 23
46.9558683952
 33
0.0
  0
ENDBLK
  5
394
  8
0
  0
BLOCK
  8
0
  2
CLUMP6
 70
     0
 10
0.0
 20
0.0
 30
0.0
  3
CLUMP6
  1

  0
ARC
  5
3BA
  8
1
 62
     5
 10
-184.6878434386
 20
48.553645833300003
 30
0.0
 40
1.3
 50
0.0
 51
90.0
  0
LINE
  5
3BB
  8
1
 62
     5
 10
-185.6878434386
 20
49.853645833299993
 30
0.0
 11
-184.6878434386
 21
49.853645833299993
 31
0.0
  0
ARC
  5
3BC
  8
1
 62
     5
 10
-185.6878434386
 20
48.553645833300003
 30
0.0
 40
1.3
 50
90.0
 51
180.0
  0
LINE
  5
3BD
  8
1
 62
     5
 10
-185.6878434386
 20
49.553645833300003
 30
0.0
 11
-184.6878434386
 21
49.553645833300003
 31
0.0
  0
LINE
  5
3BE
  8
1
 62
     5
 10
-184.6348434386
 20
47.555645833299991
 30
0.0
 11
-182.73984343859999
 21
47.654645833300002
 31
0.0
  0
LINE
  5
3BF
  8
1
 62
     5
 10
-185.6878434386
 20
47.553645833300003
 30
0.0
 11
-184.6878434386
 21
47.553645833300003
 31
0.0
  0
LINE
  5
3C0
  8
1
 62
     5
 10
-185.73384343859999
 20
47.5546458333
 30
0.0
 11
-187.13584343860001
 21
47.6186458333
 31
0.0
  0
ARC
  5
3C1
  8
1
 62
     5
 10
-187.88784343859999
 20
48.553645833300003
 30
0.0
 40
1.1999999999999991
 50
308.80000000000001
 51
359.99000000000001
  0
ARC
  5
3C2
  8
1
 62
     5
 10
-187.88784343859999
 20
48.553645833300003
 30
0.0
 40
0.9
 50
270.0
 51
0.0
  0
ARC
  5
3C3
  8
1
 62
     5
 10
-185.6878434386
 20
48.553645833300003
 30
0.0
 40
1.0
 50
90.0
 51
270.0
  0
ARC
  5
3C4
  8
1
 62
     5
 10
-182.78784343859999
 20
48.553645833300003
 30
0.0
 40
0.9
 50
179.99000000000001
 51
273.00999999999999
  0
ARC
  5
3C5
  8
1
 62
     5
 10
-182.78784343859999
 20
48.553645833300003
 30
0.0
 40
0.6
 50
180.0
 51
270.0
  0
ARC
  5
3C6
  8
1
 62
     5
 10
-184.6878434386
 20
48.553645833300003
 30
0.0
 40
1.0
 50
270.0
 51
90.0
  0
LINE
  5
3C7
  8
1
 62
     5
 10
-179.6878434386
 20
47.953645833300001
 30
0.0
 11
-179.33484343859999
 21
47.653645833299997
 31
0.0
  0
LINE
  5
3C8
  8
1
 62
     5
 10
-182.7888434386
 20
47.953645833300001
 30
0.0
 11
-179.6878434386
 21
47.953645833300001
 31
0.0
  0
LINE
  5
3C9
  8
1
 62
     5
 10
-179.33484343859999
 20
47.653645833299997
 30
0.0
 11
-176.88784343859999
 21
47.653645833299997
 31
0.0
  0
ENDBLK
  5
3CA
  8
0
  0
BLOCK
  8
0
  2
CLUMP7
 70
     0
 10
0.0
 20
0.0
 30
0.0
  3
CLUMP7
  1

  0
ARC
  5
3E9
  8
1
 62
     5
 10
-206.6878434386
 20
48.553645833300003
 30
0.0
 40
1.3
 50
0.0
 51
90.0
  0
LINE
  5
3EA
  8
1
 62
     5
 10
-207.6878434386
 20
49.853645833299993
 30
0.0
 11
-206.6878434386
 21
49.853645833299993
 31
0.0
  0
ARC
  5
3EB
  8
1
 62
     5
 10
-207.6878434386
 20
48.553645833300003
 30
0.0
 40
1.3
 50
90.0
 51
180.0
  0
LINE
  5
3EC
  8
1
 62
     5
 10
-207.6878434386
 20
49.553645833300003
 30
0.0
 11
-206.6878434386
 21
49.553645833300003
 31
0.0
  0
LINE
  5
3ED
  8
1
 62
     5
 10
-206.6348434386
 20
47.555645833299991
 30
0.0
 11
-204.73984343859999
 21
47.654645833300002
 31
0.0
  0
LINE
  5
3EE
  8
1
 62
     5
 10
-207.6878434386
 20
47.553645833300003
 30
0.0
 11
-206.6878434386
 21
47.553645833300003
 31
0.0
  0
LINE
  5
3EF
  8
1
 62
     5
 10
-207.73384343859999
 20
47.5546458333
 30
0.0
 11
-209.13584343860001
 21
47.6186458333
 31
0.0
  0
ARC
  5
3F0
  8
1
 62
     5
 10
-209.88784343859999
 20
48.553645833300003
 30
0.0
 40
1.1999999999999991
 50
308.80000000000001
 51
359.99000000000001
  0
ARC
  5
3F1
  8
1
 62
     5
 10
-209.88784343859999
 20
48.553645833300003
 30
0.0
 40
0.9
 50
270.0
 51
0.0
  0
ARC
  5
3F2
  8
1
 62
     5
 10
-207.6878434386
 20
48.553645833300003
 30
0.0
 40
1.0
 50
90.0
 51
270.0
  0
ARC
  5
3F3
  8
1
 62
     5
 10
-204.78784343859999
 20
48.553645833300003
 30
0.0
 40
0.9
 50
179.99000000000001
 51
273.00999999999999
  0
ARC
  5
3F4
  8
1
 62
     5
 10
-204.78784343859999
 20
48.553645833300003
 30
0.0
 40
0.6
 50
180.0
 51
270.0
  0
ARC
  5
3F5
  8
1
 62
     5
 10
-206.6878434386
 20
48.553645833300003
 30
0.0
 40
1.0
 50
270.0
 51
90.0
  0
LINE
  5
3F6
  8
1
 62
     5
 10
-201.6878434386
 20
47.953645833300001
 30
0.0
 11
-201.33484343859999
 21
47.653645833299997
 31
0.0
  0
LINE
  5
3F7
  8
1
 62
     5
 10
-204.7888434386
 20
47.953645833300001
 30
0.0
 11
-201.6878434386
 21
47.953645833300001
 31
0.0
  0
LINE
  5
3F8
  8
1
 62
     5
 10
-201.33484343859999
 20
47.653645833299997
 30
0.0
 11
-198.88784343859999
 21
47.653645833299997
 31
0.0
  0
ENDBLK
  5
3F9
  8
0
  0
BLOCK
  8
0
  2
CLUMP8
 70
     0
 10
0.0
 20
0.0
 30
0.0
  3
CLUMP8
  1

  0
ARC
  5
407
  8
1
 62
     5
 10
-195.6878434386
 20
48.553645833300003
 30
0.0
 40
1.3
 50
0.0
 51
90.0
  0
LINE
  5
408
  8
1
 62
     5
 10
-196.6878434386
 20
49.853645833299993
 30
0.0
 11
-195.6878434386
 21
49.853645833299993
 31
0.0
  0
ARC
  5
409
  8
1
 62
     5
 10
-196.6878434386
 20
48.553645833300003
 30
0.0
 40
1.3
 50
90.0
 51
180.0
  0
LINE
  5
40A
  8
1
 62
     5
 10
-196.6878434386
 20
49.553645833300003
 30
0.0
 11
-195.6878434386
 21
49.553645833300003
 31
0.0
  0
LINE
  5
40B
  8
1
 62
     5
 10
-195.6348434386
 20
47.555645833299991
 30
0.0
 11
-193.73984343859999
 21
47.654645833300002
 31
0.0
  0
LINE
  5
40C
  8
1
 62
     5
 10
-196.6878434386
 20
47.553645833300003
 30
0.0
 11
-195.6878434386
 21
47.553645833300003
 31
0.0
  0
LINE
  5
40D
  8
1
 62
     5
 10
-196.73384343859999
 20
47.5546458333
 30
0.0
 11
-198.13584343860001
 21
47.6186458333
 31
0.0
  0
ARC
  5
40E
  8
1
 62
     5
 10
-198.88784343859999
 20
48.553645833300003
 30
0.0
 40
1.1999999999999991
 50
308.80000000000001
 51
359.99000000000001
  0
ARC
  5
40F
  8
1
 62
     5
 10
-198.88784343859999
 20
48.553645833300003
 30
0.0
 40
0.9
 50
270.0
 51
0.0
  0
ARC
  5
410
  8
1
 62
     5
 10
-196.6878434386
 20
48.553645833300003
 30
0.0
 40
1.0
 50
90.0
 51
270.0
  0
ARC
  5
411
  8
1
 62
     5
 10
-193.78784343859999
 20
48.553645833300003
 30
0.0
 40
0.9
 50
179.99000000000001
 51
273.00999999999999
  0
ARC
  5
412
  8
1
 62
     5
 10
-193.78784343859999
 20
48.553645833300003
 30
0.0
 40
0.6
 50
180.0
 51
270.0
  0
ARC
  5
413
  8
1
 62
     5
 10
-195.6878434386
 20
48.553645833300003
 30
0.0
 40
1.0
 50
270.0
 51
90.0
  0
LINE
  5
414
  8
1
 62
     5
 10
-190.6878434386
 20
47.953645833300001
 30
0.0
 11
-190.33484343859999
 21
47.653645833299997
 31
0.0
  0
LINE
  5
415
  8
1
 62
     5
 10
-193.7888434386
 20
47.953645833300001
 30
0.0
 11
-190.6878434386
 21
47.953645833300001
 31
0.0
  0
LINE
  5
416
  8
1
 62
     5
 10
-190.33484343859999
 20
47.653645833299997
 30
0.0
 11
-187.88784343859999
 21
47.653645833299997
 31
0.0
  0
ENDBLK
  5
417
  8
0
  0
BLOCK
  8
0
  2
*D12
 70
     1
 10
0.0
 20
0.0
 30
0.0
  3
*D12
  1

  0
TEXT
  5
429
  8
0
 62
     0
 10
-276.89397777189998
 20
19.636979611699999
 30
0.0
 40
7.1966662884000003
  1
%%c38
 50
90.0
  0
LINE
  5
42A
  8
0
 62
     0
 10
-257.62397783860001
 20
47.1036458333
 30
0.0
 11
-275.62397783860001
 21
47.1036458333
 31
0.0
  0
LINE
  5
42B
  8
0
 62
     0
 10
-257.62397783860001
 20
9.1036458332999999
 30
0.0
 11
-275.62397783860001
 21
9.1036458332999999
 31
0.0
  0
LINE
  5
42C
  8
0
 62
     0
 10
-273.62397783860001
 20
47.1036458333
 30
0.0
 11
-273.62397783860001
 21
40.803645165799999
 31
0.0
  0
LINE
  5
42D
  8
0
 62
     0
 10
-273.62397783860001
 20
47.1036458333
 30
0.0
 11
-273.62397783860001
 21
15.403646500900001
 31
0.0
  0
LINE
  5
42E
  8
0
 62
     0
 10
-273.62397783860001
 20
9.1036458332999999
 30
0.0
 11
-273.62397783860001
 21
40.803645165799999
 31
0.0
  0
LINE
  5
42F
  8
0
 62
     0
 10
-273.62397783860001
 20
9.1036458332999999
 30
0.0
 11
-273.62397783860001
 21
15.403646500900001
 31
0.0
  0
LINE
  5
430
  8
0
 62
     0
 10
-273.62397783860001
 20
9.1036458332999999
 30
0.0
 11
-273.62397783860001
 21
19.1036458333
 31
0.0
  0
SOLID
  5
431
  8
0
 62
     0
 10
-273.62397783860001
 20
9.1036458332999999
 30
0.0
 11
-274.65925401319998
 21
12.9673490842
 31
0.0
 12
-272.58870166409997
 22
12.9673490842
 32
0.0
 13
-273.62397783860001
 23
12.0014232715
 33
0.0
  0
LINE
  5
432
  8
0
 62
     0
 10
-273.62397783860001
 20
47.1036458333
 30
0.0
 11
-273.62397783860001
 21
37.1036458333
 31
0.0
  0
SOLID
  5
433
  8
0
 62
     0
 10
-273.62397783860001
 20
47.1036458333
 30
0.0
 11
-272.58870166409997
 21
43.239942582399991
 31
0.0
 12
-274.65925401319998
 22
43.239942582399991
 32
0.0
 13
-273.62397783860001
 23
44.205868395200007
 33
0.0
  0
ENDBLK
  5
434
  8
0
  0
BLOCK
  8
0
  2
CLUMP9
 70
     0
 10
0.0
 20
0.0
 30
0.0
  3
CLUMP9
  1

  0
ARC
  5
439
  8
1
 62
     5
 10
-228.6878434386
 20
48.553645833300003
 30
0.0
 40
1.3
 50
0.0
 51
90.0
  0
LINE
  5
43A
  8
1
 62
     5
 10
-229.6878434386
 20
49.853645833299993
 30
0.0
 11
-228.6878434386
 21
49.853645833299993
 31
0.0
  0
ARC
  5
43B
  8
1
 62
     5
 10
-229.6878434386
 20
48.553645833300003
 30
0.0
 40
1.3
 50
90.0
 51
180.0
  0
LINE
  5
43C
  8
1
 62
     5
 10
-229.6878434386
 20
49.553645833300003
 30
0.0
 11
-228.6878434386
 21
49.553645833300003
 31
0.0
  0
LINE
  5
43D
  8
1
 62
     5
 10
-228.6348434386
 20
47.555645833299991
 30
0.0
 11
-226.73984343859999
 21
47.654645833300002
 31
0.0
  0
LINE
  5
43E
  8
1
 62
     5
 10
-229.6878434386
 20
47.553645833300003
 30
0.0
 11
-228.6878434386
 21
47.553645833300003
 31
0.0
  0
LINE
  5
43F
  8
1
 62
     5
 10
-229.73384343859999
 20
47.5546458333
 30
0.0
 11
-231.13584343860001
 21
47.6186458333
 31
0.0
  0
ARC
  5
440
  8
1
 62
     5
 10
-231.88784343859999
 20
48.553645833300003
 30
0.0
 40
1.1999999999999991
 50
308.80000000000001
 51
359.99000000000001
  0
ARC
  5
441
  8
1
 62
     5
 10
-231.88784343859999
 20
48.553645833300003
 30
0.0
 40
0.9
 50
270.0
 51
0.0
  0
ARC
  5
442
  8
1
 62
     5
 10
-229.6878434386
 20
48.553645833300003
 30
0.0
 40
1.0
 50
90.0
 51
270.0
  0
ARC
  5
443
  8
1
 62
     5
 10
-226.78784343859999
 20
48.553645833300003
 30
0.0
 40
0.9
 50
179.99000000000001
 51
273.00999999999999
  0
ARC
  5
444
  8
1
 62
     5
 10
-226.78784343859999
 20
48.553645833300003
 30
0.0
 40
0.6
 50
180.0
 51
270.0
  0
ARC
  5
445
  8
1
 62
     5
 10
-228.6878434386
 20
48.553645833300003
 30
0.0
 40
1.0
 50
270.0
 51
90.0
  0
LINE
  5
446
  8
1
 62
     5
 10
-223.6878434386
 20
47.953645833300001
 30
0.0
 11
-223.33484343859999
 21
47.653645833299997
 31
0.0
  0
LINE
  5
447
  8
1
 62
     5
 10
-226.7888434386
 20
47.953645833300001
 30
0.0
 11
-223.6878434386
 21
47.953645833300001
 31
0.0
  0
LINE
  5
448
  8
1
 62
     5
 10
-223.33484343859999
 20
47.653645833299997
 30
0.0
 11
-220.88784343859999
 21
47.653645833299997
 31
0.0
  0
ENDBLK
  5
449
  8
0
  0
BLOCK
  8
0
  2
CLUMP10
 70
     0
 10
0.0
 20
0.0
 30
0.0
  3
CLUMP10
  1

  0
ARC
  5
457
  8
1
 62
     5
 10
-217.6878434386
 20
48.553645833300003
 30
0.0
 40
1.3
 50
0.0
 51
90.0
  0
LINE
  5
458
  8
1
 62
     5
 10
-218.6878434386
 20
49.853645833299993
 30
0.0
 11
-217.6878434386
 21
49.853645833299993
 31
0.0
  0
ARC
  5
459
  8
1
 62
     5
 10
-218.6878434386
 20
48.553645833300003
 30
0.0
 40
1.3
 50
90.0
 51
180.0
  0
LINE
  5
45A
  8
1
 62
     5
 10
-218.6878434386
 20
49.553645833300003
 30
0.0
 11
-217.6878434386
 21
49.553645833300003
 31
0.0
  0
LINE
  5
45B
  8
1
 62
     5
 10
-217.6348434386
 20
47.555645833299991
 30
0.0
 11
-215.73984343859999
 21
47.654645833300002
 31
0.0
  0
LINE
  5
45C
  8
1
 62
     5
 10
-218.6878434386
 20
47.553645833300003
 30
0.0
 11
-217.6878434386
 21
47.553645833300003
 31
0.0
  0
LINE
  5
45D
  8
1
 62
     5
 10
-218.73384343859999
 20
47.5546458333
 30
0.0
 11
-220.13584343860001
 21
47.6186458333
 31
0.0
  0
ARC
  5
45E
  8
1
 62
     5
 10
-220.88784343859999
 20
48.553645833300003
 30
0.0
 40
1.1999999999999991
 50
308.80000000000001
 51
359.99000000000001
  0
ARC
  5
45F
  8
1
 62
     5
 10
-220.88784343859999
 20
48.553645833300003
 30
0.0
 40
0.9
 50
270.0
 51
0.0
  0
ARC
  5
460
  8
1
 62
     5
 10
-218.6878434386
 20
48.553645833300003
 30
0.0
 40
1.0
 50
90.0
 51
270.0
  0
ARC
  5
461
  8
1
 62
     5
 10
-215.78784343859999
 20
48.553645833300003
 30
0.0
 40
0.9
 50
179.99000000000001
 51
273.00999999999999
  0
ARC
  5
462
  8
1
 62
     5
 10
-215.78784343859999
 20
48.553645833300003
 30
0.0
 40
0.6
 50
180.0
 51
270.0
  0
ARC
  5
463
  8
1
 62
     5
 10
-217.6878434386
 20
48.553645833300003
 30
0.0
 40
1.0
 50
270.0
 51
90.0
  0
LINE
  5
464
  8
1
 62
     5
 10
-212.6878434386
 20
47.953645833300001
 30
0.0
 11
-212.33484343859999
 21
47.653645833299997
 31
0.0
  0
LINE
  5
465
  8
1
 62
     5
 10
-215.7888434386
 20
47.953645833300001
 30
0.0
 11
-212.6878434386
 21
47.953645833300001
 31
0.0
  0
LINE
  5
466
  8
1
 62
     5
 10
-212.33484343859999
 20
47.653645833299997
 30
0.0
 11
-209.88784343859999
 21
47.653645833299997
 31
0.0
  0
ENDBLK
  5
467
  8
0
  0
BLOCK
  8
0
  2
*X15
 70
     1
 10
0.0
 20
0.0
 30
0.0
  3
*X15
  1

  0
LINE
  5
486
  8
┌▓È_1
 62
     5
 10
237.0109956961
 20
40.06074868719999
 30
0.0
 11
255.72209013969999
 21
58.771843130800001
 31
0.0
  0
LINE
  5
487
  8
┌▓È_1
 62
     5
 10
255.4924515708
 20
54.299563874799993
 30
0.0
 11
261.63874234790001
 21
60.445854651899992
 31
0.0
  0
LINE
  5
488
  8
┌▓È_1
 62
     5
 10
235.3098028993
 20
34.116915203300003
 30
0.0
 11
241.4036048374
 21
40.210717141399989
 31
0.0
  0
LINE
  5
489
  8
┌▓È_1
 62
     5
 10
261.82490709780001
 20
56.389378714700001
 30
0.0
 11
266.37718220869999
 21
60.9416538256
 31
0.0
  0
LINE
  5
48A
  8
┌▓È_1
 62
     5
 10
234.76654371289999
 20
29.3310153298
 30
0.0
 11
239.32255151609999
 21
33.887023132899998
 31
0.0
  0
LINE
  5
48B
  8
┌▓È_1
 62
     5
 10
266.63036669849998
 20
56.95219762819999
 30
0.0
 11
270.52031590619998
 21
60.842146835999998
 31
0.0
  0
LINE
  5
48C
  8
┌▓È_1
 62
     5
 10
234.86469540530001
 20
25.186526335
 30
0.0
 11
238.75358520079999
 21
29.075416130600001
 31
0.0
  0
LINE
  5
48D
  8
┌▓È_1
 62
     5
 10
270.74299487010001
 20
56.822185112700012
 30
0.0
 11
274.23371252210001
 21
60.312902764699999
 31
0.0
  0
LINE
  5
48E
  8
┌▓È_1
 62
     5
 10
235.42088826829999
 20
21.5000785109
 30
0.0
 11
238.91705541429999
 21
24.996245656999999
 31
0.0
  0
LINE
  5
48F
  8
┌▓È_1
 62
     5
 10
274.35004007949999
 20
56.18658963499999
 30
0.0
 11
277.60595817670003
 21
59.442507732199999
 31
0.0
  0
LINE
  5
490
  8
┌▓È_1
 62
     5
 10
236.30264989139999
 20
18.139199446900001
 30
0.0
 11
239.5469177491
 21
21.3834673046
 31
0.0
  0
LINE
  5
491
  8
┌▓È_1
 62
     5
 10
277.59742379440002
 20
55.191332662699999
 30
0.0
 11
280.69432212800001
 21
58.28823099640001
 31
0.0
  0
LINE
  5
492
  8
┌▓È_1
 62
     5
 10
237.45911183230001
 20
15.053020700699999
 30
0.0
 11
240.52417118880001
 21
18.1180800572
 31
0.0
  0
LINE
  5
493
  8
┌▓È_1
 62
     5
 10
280.55659144769999
 20
53.907859628899999
 30
0.0
 11
283.53664292949998
 21
56.887911110699989
 31
0.0
  0
LINE
  5
494
  8
┌▓È_1
 62
     5
 10
238.8561237694
 20
12.2073919507
 30
0.0
 11
241.79631443970001
 21
15.1475826209
 31
0.0
  0
LINE
  5
495
  8
┌▓È_1
 62
     5
 10
283.25931224409999
 20
52.367939738300002
 30
0.0
 11
286.15791378569998
 21
55.266541279799988
 31
0.0
  0
LINE
  5
496
  8
┌▓È_1
 62
     5
 10
240.47091387099999
 20
9.5795413651000008
 30
0.0
 11
243.335740872
 21
12.444368366100001
 31
0.0
  0
LINE
  5
497
  8
┌▓È_1
 62
     5
 10
285.72586653339999
 20
50.591853340500002
 30
0.0
 11
288.57405184570001
 21
53.440038652799998
 31
0.0
  0
LINE
  5
498
  8
┌▓È_1
 62
     5
 10
242.28897926869999
 20
7.1549660757
 30
0.0
 11
245.12068352750001
 21
9.9866703345000012
 31
0.0
  0
LINE
  5
499
  8
┌▓È_1
 62
     5
 10
287.96780694300003
 20
48.591153062899998
 30
0.0
 11
290.7940528222
 21
51.4173989421
 31
0.0
  0
LINE
  5
49A
  8
┌▓È_1
 62
     5
 10
244.3023081092
 20
4.9256542291000001
 30
0.0
 11
247.1285539884
 21
7.7519001083000001
 31
0.0
  0
LINE
  5
49B
  8
┌▓È_1
 62
     5
 10
289.98942669759998
 20
46.370132130400002
 30
0.0
 11
292.82113095649999
 21
49.201836389200011
 31
0.0
  0
LINE
  5
49C
  8
┌▓È_1
 62
     5
 10
246.5084797685
 20
2.8891852013000001
 30
0.0
 11
249.35666508080001
 21
5.7373705136000002
 31
0.0
  0
LINE
  5
49D
  8
┌▓È_1
 62
     5
 10
291.78830633860002
 20
43.926371084300001
 30
0.0
 11
294.6531333396
 21
46.791198085299989
 31
0.0
  0
LINE
  5
49E
  8
┌▓È_1
 62
     5
 10
248.91043446239999
 20
1.0484992080999991
 30
0.0
 11
251.80903600389999
 21
3.9471007495999988
 31
0.0
  0
LINE
  5
49F
  8
┌▓È_1
 62
     5
 10
293.35507217079999
 20
41.250496229299991
 30
0.0
 11
296.28233072259991
 21
44.177754781099999
 31
0.0
  0
LINE
  5
4A0
  8
┌▓È_1
 62
     5
 10
251.5190634711
 20
-0.5855124704
 30
0.0
 11
254.49691676840001
 21
2.3923408268999991
 31
0.0
  0
LINE
  5
4A1
  8
┌▓È_1
 62
     5
 10
294.64586328140001
 20
38.298646652899997
 30
0.0
 11
297.69454150370001
 21
41.347324875199988
 31
0.0
  0
LINE
  5
4A2
  8
┌▓È_1
 62
     5
 10
254.3505434921
 20
-1.9966731364999999
 30
0.0
 11
257.44022916530002
 21
1.0930125367000001
 31
0.0
  0
LINE
  5
4A3
  8
┌▓È_1
 62
     5
 10
295.64118490480001
 20
35.051327589099998
 30
0.0
 11
298.8673845788
 21
38.277527263099998
 31
0.0
  0
LINE
  5
4A4
  8
┌▓È_1
 62
     5
 10
257.4174541182
 20
-3.1724031974999991
 30
0.0
 11
260.6702898854
 21
0.0804325697
 31
0.0
  0
LINE
  5
4A5
  8
┌▓È_1
 62
     5
 10
296.2914913939
 20
31.458993391100002
 30
0.0
 11
299.76721438570002
 21
34.9347163829
 31
0.0
  0
LINE
  5
4A6
  8
┌▓È_1
 62
     5
 10
260.7672222539
 20
-4.0652757489999987
 30
0.0
 11
264.2356209175
 21
-0.5968770853000001
 31
0.0
  0
LINE
  5
4A7
  8
┌▓È_1
 62
     5
 10
296.5074592316999
 20
27.432320541700001
 30
0.0
 11
300.34385140299997
 21
31.268712713100001
 31
0.0
  0
LINE
  5
4A8
  8
┌▓È_1
 62
     5
 10
264.45829988140002
 20
-4.6168388084999989
 30
0.0
 11
268.32174038860001
 21
-0.7533983013
 31
0.0
  0
LINE
  5
4A9
  8
┌▓È_1
 62
     5
 10
295.97449181830001
 20
22.656712441300002
 30
0.0
 11
300.49450071960001
 21
27.176721342499999
 31
0.0
  0
LINE
  5
4AA
  8
┌▓È_1
 62
     5
 10
268.5749248784
 20
-4.742854498599999
 30
0.0
 11
273.0522584181
 21
-0.265520959
 31
0.0
  0
LINE
  5
4AB
  8
┌▓È_1
 62
     5
 10
294.10757381330001
 20
16.5471537492
 30
0.0
 11
299.98724043509998
 21
22.4268203709
 31
0.0
  0
LINE
  5
4AC
  8
┌▓È_1
 62
     5
 10
273.2576693858
 20
-4.3027506783999989
 30
0.0
 11
279.2400288188
 21
1.6796087546
 31
0.0
  0
LINE
  5
4AD
  8
┌▓È_1
 62
     5
 10
279.09706271829998
 20
-2.7059980330000002
 30
0.0
 11
298.40092086229998
 21
16.597860110999999
 31
0.0
  0
ENDBLK
  5
4AE
  8
0
  0
BLOCK
  8
0
  2
CLUMP11
 70
     0
 10
0.0
 20
0.0
 30
0.0
  3
CLUMP11
  1

  0
ARC
  5
4B7
  8
1
 62
     5
 10
-173.6878434386
 20
48.553645833300003
 30
0.0
 40
1.3
 50
0.0
 51
90.0
  0
LINE
  5
4B8
  8
1
 62
     5
 10
-174.6878434386
 20
49.853645833299993
 30
0.0
 11
-173.6878434386
 21
49.853645833299993
 31
0.0
  0
ARC
  5
4B9
  8
1
 62
     5
 10
-174.6878434386
 20
48.553645833300003
 30
0.0
 40
1.3
 50
90.0
 51
180.0
  0
LINE
  5
4BA
  8
1
 62
     5
 10
-174.6878434386
 20
49.553645833300003
 30
0.0
 11
-173.6878434386
 21
49.553645833300003
 31
0.0
  0
LINE
  5
4BB
  8
1
 62
     5
 10
-173.6348434386
 20
47.555645833299991
 30
0.0
 11
-171.73984343859999
 21
47.654645833300002
 31
0.0
  0
LINE
  5
4BC
  8
1
 62
     5
 10
-174.6878434386
 20
47.553645833300003
 30
0.0
 11
-173.6878434386
 21
47.553645833300003
 31
0.0
  0
LINE
  5
4BD
  8
1
 62
     5
 10
-174.73384343859999
 20
47.5546458333
 30
0.0
 11
-176.13584343860001
 21
47.6186458333
 31
0.0
  0
ARC
  5
4BE
  8
1
 62
     5
 10
-176.88784343859999
 20
48.553645833300003
 30
0.0
 40
1.1999999999999991
 50
308.80000000000001
 51
359.99000000000001
  0
ARC
  5
4BF
  8
1
 62
     5
 10
-176.88784343859999
 20
48.553645833300003
 30
0.0
 40
0.9
 50
270.0
 51
0.0
  0
ARC
  5
4C0
  8
1
 62
     5
 10
-174.6878434386
 20
48.553645833300003
 30
0.0
 40
1.0
 50
90.0
 51
270.0
  0
ARC
  5
4C1
  8
1
 62
     5
 10
-171.78784343859999
 20
48.553645833300003
 30
0.0
 40
0.9
 50
179.99000000000001
 51
273.00999999999999
  0
ARC
  5
4C2
  8
1
 62
     5
 10
-171.78784343859999
 20
48.553645833300003
 30
0.0
 40
0.6
 50
180.0
 51
270.0
  0
ARC
  5
4C3
  8
1
 62
     5
 10
-173.6878434386
 20
48.553645833300003
 30
0.0
 40
1.0
 50
270.0
 51
90.0
  0
LINE
  5
4C4
  8
1
 62
     5
 10
-168.6878434386
 20
47.953645833300001
 30
0.0
 11
-168.33484343859999
 21
47.653645833299997
 31
0.0
  0
LINE
  5
4C5
  8
1
 62
     5
 10
-171.7888434386
 20
47.953645833300001
 30
0.0
 11
-168.6878434386
 21
47.953645833300001
 31
0.0
  0
LINE
  5
4C6
  8
1
 62
     5
 10
-168.33484343859999
 20
47.653645833299997
 30
0.0
 11
-165.88784343859999
 21
47.653645833299997
 31
0.0
  0
ENDBLK
  5
4C7
  8
0
  0
BLOCK
  8
0
  2
CLUMP12
 70
     0
 10
0.0
 20
0.0
 30
0.0
  3
CLUMP12
  1

  0
ARC
  5
4CD
  8
1
 62
     5
 10
-162.6878434386
 20
48.553645833300003
 30
0.0
 40
1.3
 50
0.0
 51
90.0
  0
LINE
  5
4CE
  8
1
 62
     5
 10
-163.6878434386
 20
49.853645833299993
 30
0.0
 11
-162.6878434386
 21
49.853645833299993
 31
0.0
  0
ARC
  5
4CF
  8
1
 62
     5
 10
-163.6878434386
 20
48.553645833300003
 30
0.0
 40
1.3
 50
90.0
 51
180.0
  0
LINE
  5
4D0
  8
1
 62
     5
 10
-163.6878434386
 20
49.553645833300003
 30
0.0
 11
-162.6878434386
 21
49.553645833300003
 31
0.0
  0
LINE
  5
4D1
  8
1
 62
     5
 10
-162.6348434386
 20
47.555645833299991
 30
0.0
 11
-160.73984343859999
 21
47.654645833300002
 31
0.0
  0
LINE
  5
4D2
  8
1
 62
     5
 10
-163.6878434386
 20
47.553645833300003
 30
0.0
 11
-162.6878434386
 21
47.553645833300003
 31
0.0
  0
LINE
  5
4D3
  8
1
 62
     5
 10
-163.73384343859999
 20
47.5546458333
 30
0.0
 11
-165.13584343860001
 21
47.6186458333
 31
0.0
  0
ARC
  5
4D4
  8
1
 62
     5
 10
-165.88784343859999
 20
48.553645833300003
 30
0.0
 40
1.1999999999999991
 50
308.80000000000001
 51
359.99000000000001
  0
ARC
  5
4D5
  8
1
 62
     5
 10
-165.88784343859999
 20
48.553645833300003
 30
0.0
 40
0.9
 50
270.0
 51
0.0
  0
ARC
  5
4D6
  8
1
 62
     5
 10
-163.6878434386
 20
48.553645833300003
 30
0.0
 40
1.0
 50
90.0
 51
270.0
  0
ARC
  5
4D7
  8
1
 62
     5
 10
-160.78784343859999
 20
48.553645833300003
 30
0.0
 40
0.9
 50
179.99000000000001
 51
273.00999999999999
  0
ARC
  5
4D8
  8
1
 62
     5
 10
-160.78784343859999
 20
48.553645833300003
 30
0.0
 40
0.6
 50
180.0
 51
270.0
  0
ARC
  5
4D9
  8
1
 62
     5
 10
-162.6878434386
 20
48.553645833300003
 30
0.0
 40
1.0
 50
270.0
 51
90.0
  0
LINE
  5
4DA
  8
1
 62
     5
 10
-157.6878434386
 20
47.953645833300001
 30
0.0
 11
-157.33484343859999
 21
47.653645833299997
 31
0.0
  0
LINE
  5
4DB
  8
1
 62
     5
 10
-160.7888434386
 20
47.953645833300001
 30
0.0
 11
-157.6878434386
 21
47.953645833300001
 31
0.0
  0
LINE
  5
4DC
  8
1
 62
     5
 10
-157.33484343859999
 20
47.653645833299997
 30
0.0
 11
-154.88784343859999
 21
47.653645833299997
 31
0.0
  0
ENDBLK
  5
4DD
  8
0
  0
BLOCK
  8
0
  2
BALLON2
 70
     0
 10
0.0
 20
0.0
 30
0.0
  3
BALLON2
  1

  0
INSERT
  5
503
  8
0
  6
CONTINUOUS
  2
*U66
 10
0.0
 20
0.0
 30
0.0
  0
CIRCLE
  5
504
  8
┌▓È_1
 10
2.033604273299999
 20
-40.306296101400001
 30
0.0
 40
8.0
  0
LINE
  5
505
  8
Éíû@É³
 10
-11.299729060000001
 20
-40.306296101400001
 30
0.0
 11
-5.9663957266999992
 21
-40.306296101400001
 31
0.0
  0
LINE
  5
506
  8
Éíû@É³
 10
-47.1877882689
 20
21.8536458333
 30
0.0
 11
-11.299729060000001
 21
-40.306296101400001
 31
0.0
  0
SOLID
  5
507
  8
Éíû@É³
 10
-47.1877882689
 20
21.8536458333
 30
0.0
 11
-41.8021476228
 21
15.725442603099999
 31
0.0
 12
-43.987788268899997
 22
16.311083249100001
 32
0.0
 13
-43.987788268899997
 23
16.311083249100001
 33
0.0
  0
SOLID
  5
508
  8
Éíû@É³
 10
-43.987788268899997
 20
16.311083249100001
 30
0.0
 11
-44.573428914899992
 21
14.1254426031
 31
0.0
 12
-47.1877882689
 22
21.8536458333
 32
0.0
 13
-47.1877882689
 23
21.8536458333
 33
0.0
  0
ENDBLK
  5
509
  8
0
  0
BLOCK
  8
0
  2
*D19
 70
     1
 10
0.0
 20
0.0
 30
0.0
  3
*D19
  1

  0
TEXT
  5
50C
  8
0
 62
     0
 10
-79.599965920000002
 20
118.61173170409999
 30
0.0
 40
7.1966662884000003
  1
620
  0
LINE
  5
50D
  8
0
 62
     0
 10
104.20591093109999
 20
62.003645833299991
 30
0.0
 11
104.20591093109999
 21
117.3417317708
 31
0.0
  0
LINE
  5
50E
  8
0
 62
     0
 10
-250.7058434386
 20
53.8536458333
 30
0.0
 11
-250.7058434386
 21
117.3417317708
 31
0.0
  0
LINE
  5
50F
  8
0
 62
     0
 10
104.20591093109999
 20
115.3417317708
 30
0.0
 11
-62.6666334767
 21
115.3417317708
 31
0.0
  0
LINE
  5
510
  8
0
 62
     0
 10
104.20591093109999
 20
115.3417317708
 30
0.0
 11
-83.833299030800006
 21
115.3417317708
 31
0.0
  0
LINE
  5
511
  8
0
 62
     0
 10
-250.7058434386
 20
115.3417317708
 30
0.0
 11
-62.6666334767
 21
115.3417317708
 31
0.0
  0
LINE
  5
512
  8
0
 62
     0
 10
-250.7058434386
 20
115.3417317708
 30
0.0
 11
-83.833299030800006
 21
115.3417317708
 31
0.0
  0
LINE
  5
513
  8
0
 62
     0
 10
-250.7058434386
 20
115.3417317708
 30
0.0
 11
-240.7058434386
 21
115.3417317708
 31
0.0
  0
SOLID
  5
514
  8
0
 62
     0
 10
-250.7058434386
 20
115.3417317708
 30
0.0
 11
-246.84214018770001
 21
116.3770079454
 31
0.0
 12
-246.84214018770001
 22
114.3064555963
 32
0.0
 13
-247.8080660004
 23
115.3417317708
 33
0.0
  0
LINE
  5
515
  8
0
 62
     0
 10
104.20591093109999
 20
115.3417317708
 30
0.0
 11
94.205910931100007
 21
115.3417317708
 31
0.0
  0
SOLID
  5
516
  8
0
 62
     0
 10
104.20591093109999
 20
115.3417317708
 30
0.0
 11
100.34220768030001
 21
114.3064555963
 31
0.0
 12
100.34220768030001
 22
116.3770079454
 32
0.0
 13
101.308133493
 23
115.3417317708
 33
0.0
  0
ENDBLK
  5
517
  8
0
  0
BLOCK
  8
0
  2
*D20
 70
     1
 10
0.0
 20
0.0
 30
0.0
  3
*D20
  1

  0
TEXT
  5
521
  8
0
 62
     0
 10
96.472577820300003
 20
-37.103828191799998
 30
0.0
 40
7.1966662884000003
  1
30
  0
LINE
  5
522
  8
0
 62
     0
 10
85.705910931099993
 20
-9.8963541667000001
 30
0.0
 11
85.705910931099993
 21
-42.373828125000003
 31
0.0
  0
LINE
  5
523
  8
0
 62
     0
 10
115.70591093109999
 20
-14.8963541667
 30
0.0
 11
115.70591093109999
 21
-42.373828125000003
 31
0.0
  0
LINE
  5
524
  8
0
 62
     0
 10
85.705910931099993
 20
-40.373828125000003
 30
0.0
 11
109.1725771528
 21
-40.373828125000003
 31
0.0
  0
LINE
  5
525
  8
0
 62
     0
 10
85.705910931099993
 20
-40.373828125000003
 30
0.0
 11
92.239244709500014
 21
-40.373828125000003
 31
0.0
  0
LINE
  5
526
  8
0
 62
     0
 10
115.70591093109999
 20
-40.373828125000003
 30
0.0
 11
109.1725771528
 21
-40.373828125000003
 31
0.0
  0
LINE
  5
527
  8
0
 62
     0
 10
115.70591093109999
 20
-40.373828125000003
 30
0.0
 11
92.239244709500014
 21
-40.373828125000003
 31
0.0
  0
LINE
  5
528
  8
0
 62
     0
 10
115.70591093109999
 20
-40.373828125000003
 30
0.0
 11
105.70591093109999
 21
-40.373828125000003
 31
0.0
  0
SOLID
  5
529
  8
0
 62
     0
 10
115.70591093109999
 20
-40.373828125000003
 30
0.0
 11
111.84220768030001
 21
-41.409104299499987
 31
0.0
 12
111.84220768030001
 22
-39.338551950499998
 32
0.0
 13
112.808133493
 23
-40.373828125000003
 33
0.0
  0
LINE
  5
52A
  8
0
 62
     0
 10
85.705910931099993
 20
-40.373828125000003
 30
0.0
 11
95.705910931100007
 21
-40.373828125000003
 31
0.0
  0
SOLID
  5
52B
  8
0
 62
     0
 10
85.705910931099993
 20
-40.373828125000003
 30
0.0
 11
89.569614181999995
 21
-39.338551950499998
 31
0.0
 12
89.569614181999995
 22
-41.409104299499987
 32
0.0
 13
88.603688369300002
 23
-40.373828125000003
 33
0.0
  0
ENDBLK
  5
52C
  8
0
  0
BLOCK
  8
0
  2
BALLON3
 70
     0
 10
0.0
 20
0.0
 30
0.0
  3
BALLON3
  1

  0
INSERT
  5
531
  8
0
  6
CONTINUOUS
  2
*U67
 10
0.0
 20
0.0
 30
0.0
  0
CIRCLE
  5
532
  8
┌▓È_1
 10
132.36087976030001
 20
-40.306296101400001
 30
0.0
 40
8.0
  0
LINE
  5
533
  8
Éíû@É³
 10
119.027546427
 20
-40.306296101400001
 30
0.0
 11
124.36087976029999
 21
-40.306296101400001
 31
0.0
  0
LINE
  5
534
  8
Éíû@É³
 10
63.9559109311
 20
55.080574633300003
 30
0.0
 11
119.027546427
 21
-40.306296101400001
 31
0.0
  0
SOLID
  5
535
  8
Éíû@É³
 10
63.9559109311
 20
55.080574633300003
 30
0.0
 11
69.341551577200008
 21
48.952371403100003
 31
0.0
 12
67.155910931099996
 22
49.538012049099997
 32
0.0
 13
67.155910931099996
 23
49.538012049099997
 33
0.0
  0
SOLID
  5
536
  8
Éíû@É³
 10
67.155910931099996
 20
49.538012049099997
 30
0.0
 11
66.570270285099994
 21
47.352371403100001
 31
0.0
 12
63.9559109311
 22
55.080574633300003
 32
0.0
 13
63.9559109311
 23
55.080574633300003
 33
0.0
  0
ENDBLK
  5
537
  8
0
  0
BLOCK
  8
0
  2
*D22
 70
     1
 10
0.0
 20
0.0
 30
0.0
  3
*D22
  1

  0
TEXT
  5
53B
  8
0
 62
     0
 10
314.97949566120002
 20
-15.300551651099999
 30
0.0
 40
7.1966662884000003
  1
78
 50
54.0
  0
LINE
  5
53C
  8
0
 62
     0
 10
258.18438211609998
 20
-13.247495175799999
 30
0.0
 11
300.597072406
 21
-44.062118398599999
 31
0.0
  0
LINE
  5
53D
  8
0
 62
     0
 10
304.03163179490002
 20
49.85583038539999
 30
0.0
 11
346.44432208479998
 21
19.041207162700001
 31
0.0
  0
LINE
  5
53E
  8
0
 62
     0
 10
298.97903841729999
 20
-42.886547894000003
 30
0.0
 11
325.08985349059998
 21
-6.9480940984000004
 31
0.0
  0
LINE
  5
53F
  8
0
 62
     0
 10
298.97903841729999
 20
-42.886547894000003
 30
0.0
 11
315.13669040830001
 21
-20.647447816300001
 31
0.0
  0
LINE
  5
540
  8
0
 62
     0
 10
344.82628809609997
 20
20.216777667199999
 30
0.0
 11
325.08985349059998
 21
-6.9480940984000004
 31
0.0
  0
LINE
  5
541
  8
0
 62
     0
 10
344.82628809609997
 20
20.216777667199999
 30
0.0
 11
315.13669040830001
 21
-20.647447816300001
 31
0.0
  0
LINE
  5
542
  8
0
 62
     0
 10
344.82628809609997
 20
20.216777667199999
 30
0.0
 11
338.94843557310003
 21
12.126607723499999
 31
0.0
  0
SOLID
  5
543
  8
0
 62
     0
 10
344.82628809609997
 20
20.216777667199999
 30
0.0
 11
343.39281632500001
 21
16.4824560086
 31
0.0
 12
341.71770428690002
 22
17.699496143499999
 32
0.0
 13
343.1230172535
 23
17.872426473899999
 33
0.0
  0
LINE
  5
544
  8
0
 62
     0
 10
298.97903841729999
 20
-42.886547894000003
 30
0.0
 11
304.8568909402
 21
-34.796377950300013
 31
0.0
  0
SOLID
  5
545
  8
0
 62
     0
 10
298.97903841729999
 20
-42.886547894000003
 30
0.0
 11
300.41251018830002
 21
-39.152226235400001
 31
0.0
 12
302.08762222640001
 22
-40.369266370299997
 32
0.0
 13
300.68230925979998
 23
-40.542196700600002
 33
0.0
  0
ENDBLK
  5
546
  8
0
  0
BLOCK
  8
0
  2
*U23
 70
     1
 10
0.0
 20
0.0
 30
0.0
  3
*U23
  1

  0
TEXT
  5
561
  8
┌▓È_1
  6
CONTINUOUS
 10
143.0618590989738
 20
241.14349248400001
 30
0.0
 40
5.9972220420999998
  1
éP
  0
ENDBLK
  5
563
  8
0
  0
BLOCK
  8
0
  2
*U24
 70
     1
 10
0.0
 20
0.0
 30
0.0
  3
*U24
  1

  0
TEXT
  5
565
  8
┌▓È_1
  6
CONTINUOUS
 10
164.97577806823071
 20
251.59115574523801
 30
0.0
 40
5.9972220420999998
  1
ë³Æ¨ô·
  0
ENDBLK
  5
567
  8
0
  0
BLOCK
  8
0
  2
*U25
 70
     1
 10
0.0
 20
0.0
 30
0.0
  3
*U25
  1

  0
TEXT
  5
569
  8
┌▓È_1
  6
CONTINUOUS
 10
262.60933686573247
 20
251.53027024227259
 30
0.0
 40
5.9972220420999998
  1
ë³ü@ü@Æ¨ü@ü@ôÓü@ü@ùe
  0
ENDBLK
  5
56B
  8
0
  0
BLOCK
  8
0
  2
*U26
 70
     1
 10
0.0
 20
0.0
 30
0.0
  3
*U26
  1

  0
TEXT
  5
56D
  8
┌▓È_1
  6
CONTINUOUS
 10
27.207351702894918
 20
114.7119481516
 30
0.0
 40
7.1966662884000003
  1
4
  0
ENDBLK
  5
56F
  8
0
  0
BLOCK
  8
0
  2
*U27
 70
     1
 10
0.0
 20
0.0
 30
0.0
  3
*U27
  1

  0
TEXT
  5
571
  8
1
  6
CONTINUOUS
 10
336.29282603129337
 20
-267.92148935556298
 30
0.0
 40
7.1966664504999986
  1
âgâëâbâvÉ┌æ▒âzü[âX
  0
TEXT
  5
572
  8
1
  6
CONTINUOUS
 10
333.53471274696471
 20
-280.68309077709262
 30
0.0
 40
7.1966664504999986
  1
üiûhÅLâLâââbâvé╚éÁüj
  0
ENDBLK
  5
574
  8
0
  0
BLOCK
  8
0
  2
*U28
 70
     1
 10
0.0
 20
0.0
 30
0.0
  3
*U28
  1

  0
TEXT
  5
576
  8
1
  6
CONTINUOUS
 10
358.21460950863701
 20
-249.23039933530001
 30
0.0
 40
8.3961111832000004
  1
éaés-ég
  0
ENDBLK
  5
578
  8
0
  0
BLOCK
  8
0
  2
*U29
 70
     1
 10
0.0
 20
0.0
 30
0.0
  3
*U29
  1

  0
TEXT
  5
57A
  8
┌▓È_1
  6
CONTINUOUS
 62
     5
 10
298.57080070109407
 20
-192.31758890149999
 30
0.0
 40
5.9972220420999998
  1
édéoécél
  0
ENDBLK
  5
57C
  8
0
  0
BLOCK
  8
0
  2
*U30
 70
     1
 10
0.0
 20
0.0
 30
0.0
  3
*U30
  1

  0
TEXT
  5
57E
  8
┌▓È_1
  6
CONTINUOUS
 62
     5
 10
301.73684685529918
 20
-202.31758890149999
 30
0.0
 40
5.9972220420999998
  1
é`éaér
  0
ENDBLK
  5
580
  8
0
  0
BLOCK
  8
0
  2
*U31
 70
     1
 10
0.0
 20
0.0
 30
0.0
  3
*U31
  1

  0
TEXT
  5
582
  8
┌▓È_1
  6
CONTINUOUS
 62
     5
 10
301.73684685529918
 20
-212.31758890149999
 30
0.0
 40
5.9972220420999998
  1
é`éaér
  0
ENDBLK
  5
584
  8
0
  0
BLOCK
  8
0
  2
*U32
 70
     1
 10
0.0
 20
0.0
 30
0.0
  3
*U32
  1

  0
TEXT
  5
586
  8
┌▓È_1
  6
CONTINUOUS
 10
295.0987064835
 20
-232.28168277237921
 30
0.0
 40
5.9972220420999998
  1
ìÌü@ü@ü@Ä┐
  0
ENDBLK
  5
588
  8
0
  0
BLOCK
  8
0
  2
*U33
 70
     1
 10
0.0
 20
0.0
 30
0.0
  3
*U33
  1

  0
TEXT
  5
58A
  8
┌▓È_1
  6
CONTINUOUS
 10
298.64037492360001
 20
-286.92413240859639
 30
0.0
 40
5.9972220420999998
  1
É}öÈ
  0
ENDBLK
  5
58C
  8
0
  0
BLOCK
  8
0
  2
*U34
 70
     1
 10
0.0
 20
0.0
 30
0.0
  3
*U34
  1

  0
TEXT
  5
58E
  8
┌▓È_1
  6
CONTINUOUS
 10
298.64037492360001
 20
-264.9850179115619
 30
0.0
 40
5.9972220420999998
  1
òiû╝
  0
ENDBLK
  5
590
  8
0
  0
BLOCK
  8
0
  2
*U35
 70
     1
 10
0.0
 20
0.0
 30
0.0
  3
*U35
  1

  0
TEXT
  5
592
  8
┌▓È_1
  6
CONTINUOUS
 10
298.64037492360001
 20
-242.92413240859639
 30
0.0
 40
5.9972220420999998
  1
òiöÈ
  0
ENDBLK
  5
594
  8
0
  0
BLOCK
  8
0
  2
*U36
 70
     1
 10
0.0
 20
0.0
 30
0.0
  3
*U36
  1

  0
TEXT
  5
596
  8
┌▓È_1
  6
CONTINUOUS
 62
     5
 10
374.8392295486388
 20
-192.31758890149999
 30
0.0
 40
5.9972220420999998
  1
1
  0
ENDBLK
  5
598
  8
0
  0
BLOCK
  8
0
  2
*U37
 70
     1
 10
0.0
 20
0.0
 30
0.0
  3
*U37
  1

  0
TEXT
  5
59A
  8
┌▓È_1
  6
CONTINUOUS
 62
     5
 10
374.8392295486388
 20
-202.31758890149999
 30
0.0
 40
5.9972220420999998
  1
1
  0
ENDBLK
  5
59C
  8
0
  0
BLOCK
  8
0
  2
*U38
 70
     1
 10
0.0
 20
0.0
 30
0.0
  3
*U38
  1

  0
TEXT
  5
59E
  8
┌▓È_1
  6
CONTINUOUS
 62
     5
 10
374.8392295486388
 20
-212.31758890149999
 30
0.0
 40
5.9972220420999998
  1
1
  0
ENDBLK
  5
5A0
  8
0
  0
BLOCK
  8
0
  2
*U39
 70
     1
 10
0.0
 20
0.0
 30
0.0
  3
*U39
  1

  0
TEXT
  5
5A2
  8
┌▓È_1
  6
CONTINUOUS
 62
     5
 10
374.8392295486388
 20
-222.31758890149999
 30
0.0
 40
5.9972220420999998
  1
1
  0
ENDBLK
  5
5A4
  8
0
  0
BLOCK
  8
0
  2
*U40
 70
     1
 10
0.0
 20
0.0
 30
0.0
  3
*U40
  1

  0
TEXT
  5
5A6
  8
┌▓È_1
  6
CONTINUOUS
 10
369.54251115839998
 20
-232.0956238757569
 30
0.0
 40
5.3974999188999986
  1
Éöù╩
  0
ENDBLK
  5
5A8
  8
0
  0
BLOCK
  8
0
  2
*U41
 70
     1
 10
0.0
 20
0.0
 30
0.0
  3
*U41
  1

  0
TEXT
  5
5AA
  8
┌▓È_1
  6
CONTINUOUS
 10
130.34950930773289
 20
114.7119481516
 30
0.0
 40
7.1966662884000003
  1
3
  0
ENDBLK
  5
5AC
  8
0
  0
BLOCK
  8
0
  2
*U42
 70
     1
 10
0.0
 20
0.0
 30
0.0
  3
*U42
  1

  0
TEXT
  5
5AE
  8
┌▓È_1
  6
CONTINUOUS
 10
258.51739446729999
 20
-243.0751940128101
 30
0.0
 40
5.9972220420999998
  1
 îƒü@ü@ê¾
  0
ENDBLK
  5
5B0
  8
0
  0
BLOCK
  8
0
  2
*U43
 70
     1
 10
0.0
 20
0.0
 30
0.0
  3
*U43
  1

  0
TEXT
  5
5B2
  8
┌▓È_1
  6
CONTINUOUS
 10
147.28670512350001
 20
-294.3549277846106
 30
0.0
 40
10.794999837900001
  1
èöÄ«ë´Äð
  0
ENDBLK
  5
5B4
  8
0
  0
BLOCK
  8
0
  2
*U44
 70
     1
 10
0.0
 20
0.0
 30
0.0
  3
*U44
  1

  0
TEXT
  5
5B6
  8
┌▓È_1
  6
CONTINUOUS
 10
178.51739446729999
 20
-242.95342300687921
 30
0.0
 40
5.9972220420999998
  1
 ìÌü@ü@Ä┐
  0
ENDBLK
  5
5B8
  8
0
  0
BLOCK
  8
0
  2
*U45
 70
     1
 10
0.0
 20
0.0
 30
0.0
  3
*U45
  1

  0
TEXT
  5
5BA
  8
┌▓È_1
  6
CONTINUOUS
 10
172.03300527600001
 20
-275.89253750391367
 30
0.0
 40
5.9972220420999998
  1
 ëÇî┤
  0
ENDBLK
  5
5BC
  8
0
  0
BLOCK
  8
0
  2
*U46
 70
     1
 10
0.0
 20
0.0
 30
0.0
  3
*U46
  1

  0
TEXT
  5
5BE
  8
┌▓È_1
  6
CONTINUOUS
 10
172.03300527600001
 20
-264.89253750391367
 30
0.0
 40
5.9972220420999998
  1
 ëÇî┤
  0
ENDBLK
  5
5C0
  8
0
  0
BLOCK
  8
0
  2
*U47
 70
     1
 10
0.0
 20
0.0
 30
0.0
  3
*U47
  1

  0
TEXT
  5
5C2
  8
┌▓È_1
  6
CONTINUOUS
 10
138.51739446729999
 20
-242.86209475243101
 30
0.0
 40
5.9972220420999998
  1
 ô·ü@ü@òt
  0
ENDBLK
  5
5C4
  8
0
  0
BLOCK
  8
0
  2
*U48
 70
     1
 10
0.0
 20
0.0
 30
0.0
  3
*U48
  1

  0
TEXT
  5
5C6
  8
┌▓È_1
  6
CONTINUOUS
 10
139.11979177910001
 20
-232.25124002089649
 30
0.0
 40
5.9972220420999998
  1
É}öÈ
  0
ENDBLK
  5
5C8
  8
0
  0
BLOCK
  8
0
  2
*U49
 70
     1
 10
0.0
 20
0.0
 30
0.0
  3
*U49
  1

  0
TEXT
  5
5CA
  8
┌▓È_1
  6
CONTINUOUS
 62
     5
 10
-60.663671657485793
 20
122.3724461036
 30
0.0
 40
4.25
  1
ü{30
  0
ENDBLK
  5
5CC
  8
0
  0
BLOCK
  8
0
  2
*U50
 70
     1
 10
0.0
 20
0.0
 30
0.0
  3
*U50
  1

  0
TEXT
  5
5CE
  8
┌▓È_1
  6
CONTINUOUS
 10
144.47391653084591
 20
-192.31758890149999
 30
0.0
 40
5.9972220420999998
  1
4
  0
ENDBLK
  5
5D0
  8
0
  0
BLOCK
  8
0
  2
*U51
 70
     1
 10
0.0
 20
0.0
 30
0.0
  3
*U51
  1

  0
TEXT
  5
5D2
  8
┌▓È_1
  6
CONTINUOUS
 10
144.51958065807
 20
-202.31758890149999
 30
0.0
 40
5.9972220420999998
  1
3
  0
ENDBLK
  5
5D4
  8
0
  0
BLOCK
  8
0
  2
*U52
 70
     1
 10
0.0
 20
0.0
 30
0.0
  3
*U52
  1

  0
TEXT
  5
5D6
  8
┌▓È_1
  6
CONTINUOUS
 10
144.4891379065873
 20
-212.31758890149999
 30
0.0
 40
5.9972220420999998
  1
2
  0
ENDBLK
  5
5D8
  8
0
  0
BLOCK
  8
0
  2
*U53
 70
     1
 10
0.0
 20
0.0
 30
0.0
  3
*U53
  1

  0
TEXT
  5
5DA
  8
┌▓È_1
  6
CONTINUOUS
 10
144.8392295486388
 20
-222.31758890149999
 30
0.0
 40
5.9972220420999998
  1
1
  0
ENDBLK
  5
5DC
  8
0
  0
BLOCK
  8
0
  2
*U54
 70
     1
 10
0.0
 20
0.0
 30
0.0
  3
*U54
  1

  0
TEXT
  5
5DE
  8
┌▓È_1
  6
CONTINUOUS
 62
     5
 10
138.8415636444584
 20
-253.7546584339
 30
0.0
 40
5.9972220420999998
  1
H16.11.10
  0
ENDBLK
  5
5E0
  8
0
  0
BLOCK
  8
0
  2
*U55
 70
     1
 10
0.0
 20
0.0
 30
0.0
  3
*U55
  1

  0
TEXT
  5
5E2
  8
┌▓È_1
  6
CONTINUOUS
 10
136.40703124999999
 20
-264.9838657583619
 30
0.0
 40
5.9972220420999998
  1
 É¦îv
  0
ENDBLK
  5
5E4
  8
0
  0
BLOCK
  8
0
  2
*U56
 70
     1
 10
0.0
 20
0.0
 30
0.0
  3
*U56
  1

  0
TEXT
  5
5E6
  8
┌▓È_1
  6
CONTINUOUS
 10
136.40703124999999
 20
-276.04475126132741
 30
0.0
 40
5.9972220420999998
  1
 É╗É}
  0
ENDBLK
  5
5E8
  8
0
  0
BLOCK
  8
0
  2
*U57
 70
     1
 10
0.0
 20
0.0
 30
0.0
  3
*U57
  1

  0
TEXT
  5
5EA
  8
┌▓È_1
  6
CONTINUOUS
 10
187.30354579999999
 20
-232.31212552386199
 30
0.0
 40
5.9972220420999998
  1
òiü@ü@ü@û╝
  0
ENDBLK
  5
5EC
  8
0
  0
BLOCK
  8
0
  2
*U58
 70
     1
 10
0.0
 20
0.0
 30
0.0
  3
*U58
  1

  0
TEXT
  5
5EE
  8
┌▓È_1
  6
CONTINUOUS
 62
     5
 10
-53.156057444287818
 20
117.3724461036
 30
0.0
 40
4.25
  1
0
  0
ENDBLK
  5
5F0
  8
0
  0
BLOCK
  8
0
  2
*U59
 70
     1
 10
0.0
 20
0.0
 30
0.0
  3
*U59
  1

  0
TEXT
  5
5F2
  8
┌▓È_1
  6
CONTINUOUS
 10
218.51739446729999
 20
-243.0751940128101
 30
0.0
 40
5.9972220420999998
  1
 ö┬ü@ü@î·
  0
ENDBLK
  5
5F4
  8
0
  0
BLOCK
  8
0
  2
*U60
 70
     1
 10
0.0
 20
0.0
 30
0.0
  3
*U60
  1

  0
TEXT
  5
5F6
  8
┌▓È_1
  6
CONTINUOUS
 10
218.51739446729999
 20
-265.04475126132741
 30
0.0
 40
5.9972220420999998
  1
 Ä┌ü@ü@ôx
  0
ENDBLK
  5
5F8
  8
0
  0
BLOCK
  8
0
  2
*U61
 70
     1
 10
0.0
 20
0.0
 30
0.0
  3
*U61
  1

  0
TEXT
  5
5FA
  8
┌▓È_1
  6
CONTINUOUS
 62
     5
 10
228.4462517372632
 20
-275.75465843389998
 30
0.0
 40
5.9972220420999998
  1
1üF2
  0
ENDBLK
  5
5FC
  8
0
  0
BLOCK
  8
0
  2
*U62
 70
     1
 10
0.0
 20
0.0
 30
0.0
  3
*U62
  1

  0
TEXT
  5
5FE
  8
┌▓È_1
  6
CONTINUOUS
 62
     5
 10
170.3383705208322
 20
-222.5915736648447
 30
0.0
 40
5.9972220420999998
  1
âË38PPÅcê°é½ùpâzü[âX
  0
ENDBLK
  5
600
  8
0
  0
BLOCK
  8
0
  2
*U63
 70
     1
 10
0.0
 20
0.0
 30
0.0
  3
*U63
  1

  0
TEXT
  5
602
  8
┌▓È_1
  6
CONTINUOUS
 62
     5
 10
193.41397614475
 20
-212.31758890149999
 30
0.0
 40
5.9972220420999998
  1
âCâôâiü[
  0
ENDBLK
  5
604
  8
0
  0
BLOCK
  8
0
  2
*U64
 70
     1
 10
0.0
 20
0.0
 30
0.0
  3
*U64
  1

  0
TEXT
  5
606
  8
┌▓È_1
  6
CONTINUOUS
 62
     5
 10
181.51086031499821
 20
-202.7133446707756
 30
0.0
 40
5.9972220420999998
  1
æ▄âiâbâgéPéOèp
  0
ENDBLK
  5
608
  8
0
  0
BLOCK
  8
0
  2
*U65
 70
     1
 10
0.0
 20
0.0
 30
0.0
  3
*U65
  1

  0
TEXT
  5
60A
  8
┌▓È_1
  6
CONTINUOUS
 62
     5
 10
193.6575181566119
 20
-192.7133446707756
 30
0.0
 40
5.9972220420999998
  1
ÄOèpéoéj
  0
ENDBLK
  5
60C
  8
0
  0
BLOCK
  8
0
  2
*U66
 70
     1
 10
0.0
 20
0.0
 30
0.0
  3
*U66
  1

  0
TEXT
  5
60E
  8
┌▓È_1
  6
CONTINUOUS
 10
1.3008293541050759
 20
-43.269629279
 30
0.0
 40
7.1966662884000003
  1
1
  0
ENDBLK
  5
610
  8
0
  0
BLOCK
  8
0
  2
*U67
 70
     1
 10
0.0
 20
0.0
 30
0.0
  3
*U67
  1

  0
TEXT
  5
612
  8
┌▓È_1
  6
CONTINUOUS
 10
130.3129780067766
 20
-43.269629279
 30
0.0
 40
7.1966662884000003
  1
2
  0
ENDBLK
  5
614
  8
0
  0
ENDSEC
  0
SECTION
  2
ENTITIES
  0
INSERT
  5
30
  8
┌▓È_1
  2
CLUMP0
 10
0.0
 20
0.0
 30
0.0
  0
LINE
  5
37
  8
┌▓È_1
 10
196.40703124999999
 20
219.27617187499999
 30
0.0
 11
196.40703124999999
 21
259.27617187499999
 31
0.0
  0
INSERT
  5
38
  8
0
  6
CONTINUOUS
  2
*U24
 10
0.0
 20
0.0
 30
0.0
  0
CIRCLE
  5
39
  8
┌▓È_1
 62
     5
 10
267.62018229170002
 20
28.1036458333
 30
0.0
 40
21.5
  0
CIRCLE
  5
3A
  8
┌▓È_1
 62
     5
 10
267.62018229170002
 20
28.1036458333
 30
0.0
 40
17.0
  0
LINE
  5
3B
  8
┌▓È_1
 62
     5
 10
254.94831413860001
 20
67.103645833299993
 30
0.0
 11
280.2920504448
 21
67.103645833299993
 31
0.0
  0
LINE
  5
3C
  8
┌▓È_1
 62
     5
 10
280.2920504448
 20
-10.8963541667
 30
0.0
 11
254.94831413860001
 21
-10.8963541667
 31
0.0
  0
LINE
  5
3D
  8
┌▓È_1
 62
     5
 10
308.627209037
 20
28.1036458333
 30
0.0
 11
300.79556381740002
 21
4.0003202720999989
 31
0.0
  0
LINE
  5
3E
  8
┌▓È_1
 62
     5
 10
300.79556381740002
 20
4.0003202720999989
 30
0.0
 11
280.2920504448
 21
-10.8963541667
 31
0.0
  0
LINE
  5
3F
  8
┌▓È_1
 62
     5
 10
300.79556381740002
 20
52.206971394599996
 30
0.0
 11
308.627209037
 21
28.1036458333
 31
0.0
  0
LINE
  5
40
  8
┌▓È_1
 62
     5
 10
280.2920504448
 20
67.103645833299993
 30
0.0
 11
300.79556381740002
 21
52.206971394599996
 31
0.0
  0
INSERT
  5
41
  8
0
  6
CONTINUOUS
  2
*U25
 10
0.0
 20
0.0
 30
0.0
  0
LINE
  5
43
  8
1
 62
     5
 10
70.000211731099995
 20
47.653645833299997
 30
0.0
 11
72.448211731100002
 21
47.653645833299997
 31
0.0
  0
LINE
  5
44
  8
1
 62
     5
 10
70.0012117311
 20
47.653645833299997
 30
0.0
 11
72.448211731100002
 21
47.653645833299997
 31
0.0
  0
LINE
  5
45
  8
1
 62
     5
 10
77.548211731099997
 20
47.953645833300001
 30
0.0
 11
80.648211731099991
 21
47.953645833300001
 31
0.0
  0
LINE
  5
46
  8
1
 62
     5
 10
77.548211731099997
 20
47.953645833300001
 30
0.0
 11
80.648211731099991
 21
47.953645833300001
 31
0.0
  0
ARC
  5
47
  8
1
 62
     5
 10
75.648211731099991
 20
48.553645833300003
 30
0.0
 40
1.0
 50
270.0
 51
90.0
  0
ARC
  5
48
  8
1
 62
     5
 10
75.648211731099991
 20
48.553645833300003
 30
0.0
 40
1.3
 50
0.0
 51
90.0
  0
LINE
  5
4A
  8
5
 62
     5
 10
94.205910931100007
 20
57.003645833299991
 30
0.0
 11
94.205910931100007
 21
61.003645833299998
 31
0.0
  0
LINE
  5
4B
  8
5
 62
     5
 10
93.205910931100007
 20
55.003645833299998
 30
0.0
 11
93.205910931100007
 21
51.057503433299999
 31
0.0
  0
LINE
  5
4C
  8
5
 62
     5
 10
93.205910931100007
 20
28.1036458333
 30
0.0
 11
93.205910931100007
 21
51.057503433299999
 31
0.0
  0
LINE
  5
4E
  8
6
 62
     5
 10
115.70591093109999
 20
63.1036458333
 30
0.0
 11
115.70591093109999
 21
28.1036458333
 31
0.0
  0
LINE
  5
4F
  8
6
 62
     5
 10
113.20591093109999
 20
63.1036458333
 30
0.0
 11
111.6559109311
 21
61.553645833300003
 31
0.0
  0
LINE
  5
50
  8
6
 62
     5
 10
113.20591093109999
 20
61.553645833300003
 30
0.0
 11
111.6559109311
 21
61.553645833300003
 31
0.0
  0
LINE
  5
51
  8
6
 62
     5
 10
115.70591093109999
 20
67.103645833299993
 30
0.0
 11
115.70591093109999
 21
63.1036458333
 31
0.0
  0
LINE
  5
52
  8
6
 62
     5
 10
115.70591093109999
 20
63.1036458333
 30
0.0
 11
113.20591093109999
 21
63.1036458333
 31
0.0
  0
LINE
  5
53
  8
6
 62
     5
 10
113.20591093109999
 20
63.1036458333
 30
0.0
 11
113.20591093109999
 21
61.553645833300003
 31
0.0
  0
LINE
  5
54
  8
6
 62
     5
 10
113.20591093109999
 20
61.553645833300003
 30
0.0
 11
113.20591093109999
 21
28.1036458333
 31
0.0
  0
LINE
  5
55
  8
┌▓È_1
 62
     5
 10
234.4448007659
 20
4.0003202720999989
 30
0.0
 11
226.61315554640001
 21
28.1036458333
 31
0.0
  0
LINE
  5
56
  8
┌▓È_1
 62
     5
 10
226.61315554640001
 20
28.1036458333
 30
0.0
 11
234.4448007659
 21
52.206971394599996
 31
0.0
  0
ARC
  5
57
  8
6
 62
     5
 10
90.705910931100007
 20
-5.8963541666999992
 30
0.0
 40
5.0
 50
180.0
 51
270.0
  0
LINE
  5
58
  8
6
 62
     5
 10
115.70591093109999
 20
-10.8963541667
 30
0.0
 11
90.705910931100007
 21
-10.8963541667
 31
0.0
  0
LINE
  5
59
  8
6
 62
     5
 10
85.705910931099993
 20
-5.8963541666999992
 30
0.0
 11
85.705910931099993
 21
28.1036458333
 31
0.0
  0
ARC
  5
5A
  8
6
 62
     5
 10
93.74720693110001
 20
-3.4480165666999998
 30
0.0
 40
8.0453215999999994
 50
112.211118
 51
247.788882
  0
LINE
  5
5B
  8
6
 62
     5
 10
115.70591093109999
 20
-10.8963541667
 30
0.0
 11
115.70591093109999
 21
28.1036458333
 31
0.0
  0
LINE
  5
5C
  8
┌▓È_1
 10
136.40703124999999
 20
219.27617187499999
 30
0.0
 11
136.40703124999999
 21
259.27617187499999
 31
0.0
  0
LINE
  5
5D
  8
┌▓È_1
 10
156.40703124999999
 20
219.27617187499999
 30
0.0
 11
156.40703124999999
 21
259.27617187499999
 31
0.0
  0
ARC
  5
5E
  8
1
 62
     5
 10
72.448211731100002
 20
48.553645833300003
 30
0.0
 40
0.9
 50
270.0
 51
0.0
  0
ARC
  5
5F
  8
1
 62
     5
 10
72.448211731100002
 20
48.553645833300003
 30
0.0
 40
1.1999999999999991
 50
308.80000000000001
 51
359.99000000000001
  0
LINE
  5
60
  8
1
 62
     5
 10
74.603211731100004
 20
47.5546458333
 30
0.0
 11
73.200211731099984
 21
47.6186458333
 31
0.0
  0
LINE
  5
61
  8
1
 62
     5
 10
69.648211731099991
 20
47.953645833300001
 30
0.0
 11
70.0012117311
 21
47.653645833299997
 31
0.0
  0
LINE
  5
62
  8
1
 62
     5
 10
74.648211731099991
 20
49.853645833299993
 30
0.0
 11
75.648211731099991
 21
49.853645833299993
 31
0.0
  0
LINE
  5
63
  8
1
 62
     5
 10
74.648211731099991
 20
49.853645833299993
 30
0.0
 11
75.648211731099991
 21
49.853645833299993
 31
0.0
  0
LINE
  5
64
  8
1
 62
     5
 10
74.648211731099991
 20
49.553645833300003
 30
0.0
 11
75.648211731099991
 21
49.553645833300003
 31
0.0
  0
LINE
  5
65
  8
1
 62
     5
 10
74.648211731099991
 20
49.553645833300003
 30
0.0
 11
75.648211731099991
 21
49.553645833300003
 31
0.0
  0
LINE
  5
66
  8
1
 62
     5
 10
74.648211731099991
 20
47.553645833300003
 30
0.0
 11
75.648211731099991
 21
47.553645833300003
 31
0.0
  0
ARC
  5
67
  8
1
 62
     5
 10
77.548211731099997
 20
48.553645833300003
 30
0.0
 40
0.6
 50
180.0
 51
270.0
  0
ARC
  5
68
  8
1
 62
     5
 10
77.548211731099997
 20
48.553645833300003
 30
0.0
 40
0.9
 50
179.99000000000001
 51
273.00999999999999
  0
LINE
  5
6A
  8
12
 62
     5
 10
99.205910931100007
 20
61.003645833299998
 30
0.0
 11
94.205910931100007
 21
61.003645833299998
 31
0.0
  0
LINE
  5
6B
  8
1
 62
     5
 10
80.648211731099991
 20
47.953645833300001
 30
0.0
 11
81.000211731099995
 21
47.653645833299997
 31
0.0
  0
ARC
  5
6C
  8
5
 62
     5
 10
91.705910931100007
 20
51.057503433299999
 30
0.0
 40
1.5
 50
271.78991100000002
 51
0.0
  0
LINE
  5
6D
  8
1
 62
     5
 10
74.648211731099991
 20
47.553645833300003
 30
0.0
 11
75.648211731099991
 21
47.553645833300003
 31
0.0
  0
ARC
  5
6E
  8
1
 62
     5
 10
77.548211731099997
 20
48.553645833300003
 30
0.0
 40
0.6
 50
180.0
 51
270.0
  0
ARC
  5
6F
  8
1
 62
     5
 10
77.548211731099997
 20
48.553645833300003
 30
0.0
 40
0.9
 50
179.99000000000001
 51
273.00999999999999
  0
LINE
  5
70
  8
5
 62
     5
 10
74.205910931099993
 20
8.9036458333000006
 30
0.0
 11
74.205910931099993
 21
28.1036458333
 31
0.0
  0
LINE
  5
71
  8
6
 62
     5
 10
92.890589331100003
 20
61.553645833300003
 30
0.0
 11
92.890589331100003
 21
61.553645833300003
 31
0.0
  0
LINE
  5
72
  8
12
 62
     5
 10
94.205910931100007
 20
61.003645833299998
 30
0.0
 11
94.205910931100007
 21
57.003645833299991
 31
0.0
  0
LINE
  5
73
  8
6
 62
     5
 10
92.890589331100003
 20
61.553645833300003
 30
0.0
 11
92.890589331100003
 21
63.1036458333
 31
0.0
  0
ARC
  5
74
  8
1
 62
     5
 10
72.448211731100002
 20
48.553645833300003
 30
0.0
 40
1.1999999999999991
 50
308.80000000000001
 51
359.99000000000001
  0
LINE
  5
75
  8
1
 62
     5
 10
74.602211731099985
 20
47.5546458333
 30
0.0
 11
73.200211731099984
 21
47.6186458333
 31
0.0
  0
ARC
  5
76
  8
1
 62
     5
 10
74.648211731099991
 20
48.553645833300003
 30
0.0
 40
1.0
 50
90.0
 51
270.0
  0
LINE
  5
77
  8
1
 62
     5
 10
69.648211731099991
 20
47.953645833300001
 30
0.0
 11
70.000211731099995
 21
47.653645833299997
 31
0.0
  0
LINE
  5
78
  8
1
 62
     5
 10
63.648211731099998
 20
47.553645833300003
 30
0.0
 11
64.648211731099991
 21
47.553645833300003
 31
0.0
  0
ARC
  5
79
  8
1
 62
     5
 10
63.648211731099998
 20
48.553645833300003
 30
0.0
 40
1.0
 50
90.0
 51
270.0
  0
ARC
  5
7A
  8
1
 62
     5
 10
61.448211731099988
 20
48.553645833300003
 30
0.0
 40
0.9
 50
270.0
 51
0.0
  0
LINE
  5
7B
  8
1
 62
     5
 10
66.548211731099997
 20
47.953645833300001
 30
0.0
 11
69.648211731099991
 21
47.953645833300001
 31
0.0
  0
ARC
  5
7C
  8
1
 62
     5
 10
64.648211731099991
 20
48.553645833300003
 30
0.0
 40
1.0
 50
270.0
 51
90.0
  0
LINE
  5
7D
  8
1
 62
     5
 10
63.648211731099998
 20
49.853645833299993
 30
0.0
 11
64.648211731099991
 21
49.853645833299993
 31
0.0
  0
ARC
  5
7E
  8
1
 62
     5
 10
66.548211731099997
 20
48.553645833300003
 30
0.0
 40
0.6
 50
180.0
 51
270.0
  0
ARC
  5
7F
  8
1
 62
     5
 10
61.448211731099988
 20
48.553645833300003
 30
0.0
 40
1.1999999999999991
 50
308.80000000000001
 51
359.99000000000001
  0
LINE
  5
80
  8
1
 62
     5
 10
63.602211731099999
 20
47.5546458333
 30
0.0
 11
62.200211731099998
 21
47.6186458333
 31
0.0
  0
ARC
  5
81
  8
1
 62
     5
 10
63.648211731099998
 20
48.553645833300003
 30
0.0
 40
1.3
 50
90.0
 51
180.0
  0
LINE
  5
82
  8
1
 62
     5
 10
59.000211731099988
 20
47.653645833299997
 30
0.0
 11
61.448211731099988
 21
47.653645833299997
 31
0.0
  0
LINE
  5
83
  8
5
 62
     5
 10
74.205910931099993
 20
51.583101833299999
 30
0.0
 11
74.205910931099993
 21
51.8536458333
 31
0.0
  0
ARC
  5
84
  8
5
 62
     5
 10
74.955910931099993
 20
51.583101833299999
 30
0.0
 40
0.75
 50
180.0
 51
268.40886
  0
ARC
  5
85
  8
1
 62
     5
 10
72.448211731100002
 20
48.553645833300003
 30
0.0
 40
0.9
 50
270.0
 51
0.0
  0
LINE
  5
86
  8
1
 62
     5
 10
75.700211731099984
 20
47.555645833299991
 30
0.0
 11
77.595211731099994
 21
47.654645833300002
 31
0.0
  0
LINE
  5
87
  8
1
 62
     5
 10
80.648211731099991
 20
47.953645833300001
 30
0.0
 11
81.000211731099995
 21
47.653645833299997
 31
0.0
  0
LINE
  5
88
  8
1
 62
     5
 10
75.701211731100003
 20
47.555645833299991
 30
0.0
 11
77.596211731099999
 21
47.654645833300002
 31
0.0
  0
LINE
  5
89
  8
1
 62
     5
 10
58.648211731099998
 20
47.953645833300001
 30
0.0
 11
59.000211731099988
 21
47.653645833299997
 31
0.0
  0
ARC
  5
8A
  8
1
 62
     5
 10
75.648211731099991
 20
48.553645833300003
 30
0.0
 40
1.0
 50
270.0
 51
90.0
  0
ARC
  5
8B
  8
1
 62
     5
 10
75.648211731099991
 20
48.553645833300003
 30
0.0
 40
1.3
 50
0.0
 51
90.0
  0
LINE
  5
8C
  8
5
 62
     5
 10
74.205910931099993
 20
49.776090633300001
 30
0.0
 11
74.205910931099993
 21
51.583101833299999
 31
0.0
  0
ARC
  5
8D
  8
5
 62
     5
 10
74.955910931099993
 20
51.8536458333
 30
0.0
 40
0.75
 50
90.0
 51
180.0
  0
ARC
  5
8E
  8
1
 62
     5
 10
74.648211731099991
 20
48.553645833300003
 30
0.0
 40
1.3
 50
90.0
 51
180.0
  0
ARC
  5
8F
  8
1
 62
     5
 10
74.648211731099991
 20
48.553645833300003
 30
0.0
 40
1.0
 50
90.0
 51
270.0
  0
ARC
  5
90
  8
1
 62
     5
 10
74.648211731099991
 20
48.553645833300003
 30
0.0
 40
1.3
 50
90.0
 51
180.0
  0
ARC
  5
91
  8
5
 62
     5
 10
84.205910931099993
 20
46.091225033299999
 30
0.0
 40
1.0
 50
270.71616
 51
0.0
  0
LINE
  5
92
  8
1
 62
     5
 10
81.000211731099995
 20
47.653645833299997
 30
0.0
 11
83.205910931099993
 21
47.653645833299997
 31
0.0
  0
LINE
  5
93
  8
1
 62
     5
 10
83.205910931099993
 20
47.653645833299997
 30
0.0
 11
83.205910931099993
 21
47.203645833300001
 31
0.0
  0
ARC
  5
94
  8
5
 62
     5
 10
88.705910931099993
 20
54.1036458333
 30
0.0
 40
1.5
 50
270.0
 51
0.0
  0
LINE
  5
95
  8
1
 62
     5
 10
64.389211731099991
 20
47.203645833300001
 30
0.0
 11
83.205910931099993
 21
47.203645833300001
 31
0.0
  0
LINE
  5
96
  8
5
 62
     5
 10
88.705910931099993
 20
52.6036458333
 30
0.0
 11
74.955910931099993
 21
52.6036458333
 31
0.0
  0
LINE
  5
97
  8
5
 62
     5
 10
83.205910931099993
 20
50.6036458333
 30
0.0
 11
74.935085331099984
 21
50.833391433300001
 31
0.0
  0
ARC
  5
98
  8
6
 62
     5
 10
102.1720933311
 20
16.051983433299998
 30
0.0
 40
16.634780800000001
 50
133.57390699999999
 51
171.83561820840001
  0
LINE
  5
99
  8
5
 62
     5
 10
85.205910931099993
 20
46.091225033299999
 30
0.0
 11
85.205910931099993
 21
49.3536458333
 31
0.0
  0
LINE
  5
9A
  8
5
 62
     5
 10
94.205910931100007
 20
61.003645833299998
 30
0.0
 11
90.205910931100007
 21
61.003645833299998
 31
0.0
  0
LINE
  5
9B
  8
5
 62
     5
 10
91.752763731099989
 20
49.558234633299989
 30
0.0
 11
85.205910931099993
 21
49.3536458333
 31
0.0
  0
ARC
  5
9C
  8
6
 62
     5
 10
90.705910931100007
 20
62.1036458333
 30
0.0
 40
5.0
 50
90.0
 51
180.0
  0
LINE
  5
9D
  8
6
 62
     5
 10
85.705910931099993
 20
54.6036458333
 30
0.0
 11
85.705910931099993
 21
62.1036458333
 31
0.0
  0
ARC
  5
9E
  8
6
 62
     5
 10
86.205910931099993
 20
54.6036458333
 30
0.0
 40
0.5
 50
180.0
 51
270.0
  0
LINE
  5
9F
  8
6
 62
     5
 10
90.205910931100007
 20
61.553645833300003
 30
0.0
 11
92.890589331100003
 21
63.1036458333
 31
0.0
  0
ARC
  5
A0
  8
1
 62
     5
 10
64.648211731099991
 20
48.553645833300003
 30
0.0
 40
1.0
 50
270.0
 51
90.0
  0
ARC
  5
A1
  8
1
 62
     5
 10
64.648211731099991
 20
48.553645833300003
 30
0.0
 40
1.3
 50
0.0
 51
90.0
  0
ARC
  5
A2
  8
1
 62
     5
 10
64.648211731099991
 20
48.553645833300003
 30
0.0
 40
1.3
 50
0.0
 51
90.0
  0
ARC
  5
A3
  8
1
 62
     5
 10
66.548211731099997
 20
48.553645833300003
 30
0.0
 40
0.6
 50
180.0
 51
270.0
  0
ARC
  5
A4
  8
1
 62
     5
 10
66.548211731099997
 20
48.553645833300003
 30
0.0
 40
0.9
 50
179.99000000000001
 51
273.00999999999999
  0
LINE
  5
A5
  8
1
 62
     5
 10
64.700211731099998
 20
47.555645833299991
 30
0.0
 11
66.595211731099994
 21
47.654645833300002
 31
0.0
  0
ARC
  5
A6
  8
1
 62
     5
 10
66.548211731099997
 20
48.553645833300003
 30
0.0
 40
0.9
 50
179.99000000000001
 51
273.00999999999999
  0
LINE
  5
A7
  8
1
 62
     5
 10
64.701211731100003
 20
47.555645833299991
 30
0.0
 11
66.596211731099999
 21
47.654645833300002
 31
0.0
  0
LINE
  5
A8
  8
1
 62
     5
 10
63.648211731099998
 20
49.553645833300003
 30
0.0
 11
64.648211731099991
 21
49.553645833300003
 31
0.0
  0
LINE
  5
A9
  8
1
 62
     5
 10
66.547211731099992
 20
47.953645833300001
 30
0.0
 11
69.648211731099991
 21
47.953645833300001
 31
0.0
  0
ARC
  5
AA
  8
1
 62
     5
 10
41.648211731099991
 20
48.553645833300003
 30
0.0
 40
1.0
 50
90.0
 51
270.0
  0
LINE
  5
AB
  8
1
 62
     5
 10
41.602211731099999
 20
47.5546458333
 30
0.0
 11
40.200211731099991
 21
47.6186458333
 31
0.0
  0
LINE
  5
AC
  8
1
 62
     5
 10
41.648211731099991
 20
49.853645833299993
 30
0.0
 11
42.648211731099991
 21
49.853645833299993
 31
0.0
  0
ARC
  5
AD
  8
1
 62
     5
 10
44.548211731099997
 20
48.553645833300003
 30
0.0
 40
0.9
 50
179.99000000000001
 51
273.00999999999999
  0
ARC
  5
AE
  8
1
 62
     5
 10
42.648211731099991
 20
48.553645833300003
 30
0.0
 40
1.3
 50
0.0
 51
90.0
  0
ARC
  5
AF
  8
1
 62
     5
 10
44.548211731099997
 20
48.553645833300003
 30
0.0
 40
0.6
 50
180.0
 51
270.0
  0
LINE
  5
B0
  8
1
 62
     5
 10
47.648211731099991
 20
47.953645833300001
 30
0.0
 11
48.001211731099993
 21
47.653645833299997
 31
0.0
  0
LINE
  5
B1
  8
1
 62
     5
 10
48.001211731099993
 20
47.653645833299997
 30
0.0
 11
50.448211731099988
 21
47.653645833299997
 31
0.0
  0
ARC
  5
B2
  8
1
 62
     5
 10
39.448211731100002
 20
48.553645833300003
 30
0.0
 40
0.9
 50
270.0
 51
0.0
  0
ARC
  5
B3
  8
1
 62
     5
 10
39.448211731100002
 20
48.553645833300003
 30
0.0
 40
1.1999999999999991
 50
308.80000000000001
 51
359.99000000000001
  0
LINE
  5
B4
  8
1
 62
     5
 10
42.701211731100003
 20
47.555645833299991
 30
0.0
 11
44.596211731099999
 21
47.654645833300002
 31
0.0
  0
ARC
  5
B5
  8
1
 62
     5
 10
52.648211731099998
 20
48.553645833300003
 30
0.0
 40
1.0
 50
90.0
 51
270.0
  0
ARC
  5
B6
  8
1
 62
     5
 10
52.648211731099998
 20
48.553645833300003
 30
0.0
 40
1.3
 50
90.0
 51
180.0
  0
ARC
  5
B7
  8
1
 62
     5
 10
50.448211731099988
 20
48.553645833300003
 30
0.0
 40
0.9
 50
270.0
 51
0.0
  0
ARC
  5
B8
  8
1
 62
     5
 10
50.448211731099988
 20
48.553645833300003
 30
0.0
 40
1.1999999999999991
 50
308.80000000000001
 51
359.99000000000001
  0
LINE
  5
B9
  8
1
 62
     5
 10
52.603211731099996
 20
47.5546458333
 30
0.0
 11
51.200211731099998
 21
47.6186458333
 31
0.0
  0
LINE
  5
BA
  8
1
 62
     5
 10
44.547211731099999
 20
47.953645833300001
 30
0.0
 11
47.648211731099991
 21
47.953645833300001
 31
0.0
  0
LINE
  5
BB
  8
6
 62
     5
 10
89.705910931099993
 20
54.1036458333
 30
0.0
 11
86.205910931099993
 21
54.1036458333
 31
0.0
  0
LINE
  5
BC
  8
6
 62
     5
 10
85.705910931099993
 20
54.6036458333
 30
0.0
 11
85.705910931099993
 21
52.6036458333
 31
0.0
  0
LINE
  5
BD
  8
6
 62
     5
 10
90.205910931100007
 20
54.6036458333
 30
0.0
 11
90.205910931100007
 21
54.1036458333
 31
0.0
  0
LINE
  5
BE
  8
5
 62
     5
 10
90.205910931100007
 20
61.003645833299998
 30
0.0
 11
90.205910931100007
 21
54.1036458333
 31
0.0
  0
ARC
  5
BF
  8
6
 62
     5
 10
89.705910931099993
 20
54.6036458333
 30
0.0
 40
0.5
 50
270.0
 51
0.0
  0
LINE
  5
C0
  8
6
 62
     5
 10
90.205910931100007
 20
54.6036458333
 30
0.0
 11
90.205910931100007
 21
61.553645833300003
 31
0.0
  0
LINE
  5
C1
  8
5
 62
     5
 10
83.205910931099993
 20
47.6036458333
 30
0.0
 11
83.205910931099993
 21
50.6036458333
 31
0.0
  0
LINE
  5
C2
  8
5
 62
     5
 10
85.205910931099993
 20
28.1036458333
 30
0.0
 11
85.205910931099993
 21
45.1036458333
 31
0.0
  0
ARC
  5
C3
  8
5
 62
     5
 10
103.45591093109999
 20
55.986794633300001
 30
0.0
 40
0.75
 50
271.30195300000003
 51
0.0
  0
LINE
  5
C4
  8
12
 62
     5
 10
104.20591093109999
 20
57.003645833299991
 30
0.0
 11
94.205910931100007
 21
57.003645833299991
 31
0.0
  0
LINE
  5
C5
  8
5
 62
     5
 10
104.20591093109999
 20
28.1036458333
 30
0.0
 11
104.20591093109999
 21
56.253645833299998
 31
0.0
  0
LINE
  5
C6
  8
5
 62
     5
 10
93.205910931100007
 20
55.003645833299998
 30
0.0
 11
103.47295253110001
 21
55.236988233300004
 31
0.0
  0
LINE
  5
C7
  8
5
 62
     5
 10
104.20591093109999
 20
55.986794633300001
 30
0.0
 11
104.20591093109999
 21
56.253645833299998
 31
0.0
  0
ARC
  5
C8
  8
5
 62
     5
 10
103.45591093109999
 20
56.253645833299998
 30
0.0
 40
0.75
 50
0.0
 51
90.0
  0
INSERT
  5
CB
  8
Éíû@É³
  2
BALLON0
 10
0.0
 20
0.0
 30
0.0
  0
LINE
  5
D4
  8
5
 62
     5
 10
84.218410131100001
 20
45.091301833299987
 30
0.0
 11
53.2059109311
 21
44.703645833300001
 31
0.0
  0
LINE
  5
D5
  8
5
 62
     5
 10
71.823240531099998
 20
47.22422343329999
 30
0.0
 11
54.172595731099989
 21
46.635868233300002
 31
0.0
  0
LINE
  5
D6
  8
5
 62
     5
 10
53.2059109311
 20
44.703645833300001
 30
0.0
 11
53.2059109311
 21
45.636423433300003
 31
0.0
  0
ARC
  5
D7
  8
1
 62
     5
 10
55.54821173109999
 20
48.553645833300003
 30
0.0
 40
0.9
 50
179.99000000000001
 51
273.00999999999999
  0
LINE
  5
D8
  8
1
 62
     5
 10
55.54821173109999
 20
47.953645833300001
 30
0.0
 11
58.648211731099998
 21
47.953645833300001
 31
0.0
  0
ARC
  5
D9
  8
5
 62
     5
 10
54.2059109311
 20
45.636423433300003
 30
0.0
 40
1.0
 50
91.90915200000002
 51
180.0
  0
ARC
  5
DA
  8
1
 62
     5
 10
53.648211731099998
 20
48.553645833300003
 30
0.0
 40
1.0
 50
270.0
 51
90.0
  0
ARC
  5
DB
  8
1
 62
     5
 10
53.648211731099998
 20
48.553645833300003
 30
0.0
 40
1.3
 50
0.0
 51
90.0
  0
LINE
  5
DC
  8
1
 62
     5
 10
52.648211731099998
 20
49.853645833299993
 30
0.0
 11
53.648211731099998
 21
49.853645833299993
 31
0.0
  0
LINE
  5
DD
  8
1
 62
     5
 10
52.648211731099998
 20
49.553645833300003
 30
0.0
 11
53.648211731099998
 21
49.553645833300003
 31
0.0
  0
LINE
  5
DE
  8
1
 62
     5
 10
53.701211731100003
 20
47.555645833299991
 30
0.0
 11
55.596211731099999
 21
47.654645833300002
 31
0.0
  0
LINE
  5
DF
  8
1
 62
     5
 10
52.648211731099998
 20
47.553645833300003
 30
0.0
 11
53.648211731099998
 21
47.553645833300003
 31
0.0
  0
ARC
  5
E0
  8
1
 62
     5
 10
55.54821173109999
 20
48.553645833300003
 30
0.0
 40
0.6
 50
180.0
 51
270.0
  0
LINE
  5
E1
  8
5
 62
     5
 10
53.2059109311
 20
28.1036458333
 30
0.0
 11
53.2059109311
 21
44.703645833300001
 31
0.0
  0
LINE
  5
E2
  8
1
 62
     5
 10
41.648211731099991
 20
47.553645833300003
 30
0.0
 11
42.648211731099991
 21
47.553645833300003
 31
0.0
  0
ARC
  5
E3
  8
1
 62
     5
 10
41.648211731099991
 20
48.553645833300003
 30
0.0
 40
1.3
 50
90.0
 51
180.0
  0
ARC
  5
E4
  8
1
 62
     5
 10
42.648211731099991
 20
48.553645833300003
 30
0.0
 40
1.0
 50
270.0
 51
90.0
  0
LINE
  5
E5
  8
1
 62
     5
 10
41.648211731099991
 20
49.553645833300003
 30
0.0
 11
42.648211731099991
 21
49.553645833300003
 31
0.0
  0
ARC
  5
E6
  8
1
 62
     5
 10
69.062211731099993
 20
7.6536458332999997
 30
0.0
 40
1.3
 50
180.0
 51
270.0
  0
ARC
  5
E7
  8
1
 62
     5
 10
70.062211731099993
 20
7.6536458332999997
 30
0.0
 40
1.3
 50
270.0
 51
0.0
  0
LINE
  5
E8
  8
1
 62
     5
 10
53.415211731099987
 20
8.5536458332999992
 30
0.0
 11
55.862211731099997
 21
8.5536458332999992
 31
0.0
  0
LINE
  5
E9
  8
1
 62
     5
 10
69.062211731099993
 20
6.3536458332999999
 30
0.0
 11
70.062211731099993
 21
6.3536458332999999
 31
0.0
  0
ARC
  5
EA
  8
1
 62
     5
 10
70.062211731099993
 20
7.6536458332999997
 30
0.0
 40
1.3
 50
270.0
 51
0.0
  0
LINE
  5
EB
  8
1
 62
     5
 10
68.659326931099997
 20
28.1036458333
 30
0.0
 11
71.366309331099998
 21
7.7236458332999991
 31
0.0
  0
LINE
  5
EC
  8
1
 62
     5
 10
71.962211731099998
 20
8.2536458333000002
 30
0.0
 11
74.205910931099993
 21
8.2536458333000002
 31
0.0
  0
ARC
  5
ED
  8
5
 62
     5
 10
74.955910931099993
 20
4.353645833299999
 30
0.0
 40
0.75
 50
180.0
 51
270.0
  0
LINE
  5
EE
  8
5
 62
     5
 10
74.205910931099993
 20
8.9036458333000006
 30
0.0
 11
74.205910931099993
 21
4.6241898332999991
 31
0.0
  0
LINE
  5
EF
  8
1
 62
     5
 10
68.659326931099997
 20
28.1036458333
 30
0.0
 11
71.366309331099998
 21
7.7236458332999991
 31
0.0
  0
ARC
  5
F0
  8
1
 62
     5
 10
71.962211731099998
 20
7.6536458332999997
 30
0.0
 40
0.6
 50
90.0
 51
180.0
  0
ARC
  5
F1
  8
1
 62
     5
 10
69.062211731099993
 20
7.6536458332999997
 30
0.0
 40
1.3
 50
180.0
 51
270.0
  0
ARC
  5
F2
  8
1
 62
     5
 10
55.862211731099997
 20
7.6536458332999997
 30
0.0
 40
0.9
 50
0.0
 51
90.0
  0
LINE
  5
F3
  8
1
 62
     5
 10
58.062211731099993
 20
6.3536458332999999
 30
0.0
 11
59.0622117311
 21
6.3536458332999999
 31
0.0
  0
LINE
  5
F4
  8
1
 62
     5
 10
53.062211731099993
 20
8.2536458333000002
 30
0.0
 11
53.415211731099987
 21
8.5536458332999992
 31
0.0
  0
LINE
  5
F5
  8
1
 62
     5
 10
69.062211731099993
 20
6.3536458332999999
 30
0.0
 11
70.062211731099993
 21
6.3536458332999999
 31
0.0
  0
ARC
  5
F6
  8
1
 62
     5
 10
71.962211731099998
 20
7.6536458332999997
 30
0.0
 40
0.6
 50
90.0
 51
180.0
  0
LINE
  5
F7
  8
6
 62
     5
 10
115.70591093109999
 20
4.0003210332999988
 30
0.0
 11
90.705910931100007
 21
4.0003210332999988
 31
0.0
  0
LINE
  5
F8
  8
6
 62
     5
 10
90.205910931100007
 20
61.553645833300003
 30
0.0
 11
111.6559109311
 21
61.553645833300003
 31
0.0
  0
LINE
  5
F9
  8
12
 62
     5
 10
104.20591093109999
 20
58.003645833299998
 30
0.0
 11
99.205910931100007
 21
61.003645833299998
 31
0.0
  0
LINE
  5
FA
  8
5
 62
     5
 10
103.45591093109999
 20
57.003645833299991
 30
0.0
 11
94.205910931100007
 21
57.003645833299991
 31
0.0
  0
LINE
  5
FB
  8
12
 62
     5
 10
104.20591093109999
 20
58.003645833299998
 30
0.0
 11
104.20591093109999
 21
57.003645833299991
 31
0.0
  0
LINE
  5
FC
  8
6
 62
     5
 10
115.70591093109999
 20
67.103645833299993
 30
0.0
 11
90.705910931100007
 21
67.103645833299993
 31
0.0
  0
LINE
  5
FD
  8
6
 62
     5
 10
113.20591093109999
 20
63.1036458333
 30
0.0
 11
92.890589331100003
 21
63.1036458333
 31
0.0
  0
INSERT
  5
FF
  8
┌▓È_1
 62
     5
  2
CLUMP1
 10
0.0
 20
0.0
 30
0.0
  0
LINE
  5
10E
  8
1
 62
     5
 10
57.65932693109999
 20
28.1036458333
 30
0.0
 11
60.366309331099998
 21
7.7236458332999991
 31
0.0
  0
LINE
  5
10F
  8
1
 62
     5
 10
64.414211731099996
 20
8.5536458332999992
 30
0.0
 11
66.862211731099976
 21
8.5536458332999992
 31
0.0
  0
ARC
  5
110
  8
1
 62
     5
 10
48.062211731099993
 20
7.6536458332999997
 30
0.0
 40
1.3
 50
270.0
 51
0.0
  0
ARC
  5
111
  8
1
 62
     5
 10
49.962211731099998
 20
7.6536458332999997
 30
0.0
 40
0.6
 50
90.0
 51
180.0
  0
LINE
  5
112
  8
1
 62
     5
 10
65.052704531099991
 20
28.1036458333
 30
0.0
 11
67.759485331099995
 21
7.7236458332999991
 31
0.0
  0
ARC
  5
113
  8
1
 62
     5
 10
66.862211731099976
 20
7.6536458332999997
 30
0.0
 40
0.9
 50
0.0
 51
90.0
  0
LINE
  5
114
  8
1
 62
     5
 10
64.63021173109999
 20
8.5536458332999992
 30
0.0
 11
66.862211731099976
 21
8.5536458332999992
 31
0.0
  0
ARC
  5
115
  8
1
 62
     5
 10
66.862211731099976
 20
7.6536458332999997
 30
0.0
 40
0.9
 50
0.0
 51
90.0
  0
LINE
  5
116
  8
1
 62
     5
 10
64.062211731099993
 20
8.2536458333000002
 30
0.0
 11
64.414211731099996
 21
8.5536458332999992
 31
0.0
  0
LINE
  5
117
  8
1
 62
     5
 10
46.659326931099997
 20
28.1036458333
 30
0.0
 11
49.366309331099998
 21
7.7236458332999991
 31
0.0
  0
LINE
  5
118
  8
1
 62
     5
 10
43.052704531099998
 20
28.1036458333
 30
0.0
 11
45.759485331100002
 21
7.7236458332999991
 31
0.0
  0
ARC
  5
119
  8
1
 62
     5
 10
59.0622117311
 20
7.6536458332999997
 30
0.0
 40
1.3
 50
270.0
 51
0.0
  0
LINE
  5
11A
  8
1
 62
     5
 10
65.052704531099991
 20
28.1036458333
 30
0.0
 11
67.759485331099995
 21
7.7236458332999991
 31
0.0
  0
ARC
  5
11B
  8
1
 62
     5
 10
44.86221173109999
 20
7.6536458332999997
 30
0.0
 40
0.9
 50
0.0
 51
90.0
  0
ARC
  5
11C
  8
1
 62
     5
 10
47.0622117311
 20
7.6536458332999997
 30
0.0
 40
1.3
 50
180.0
 51
270.0
  0
LINE
  5
11D
  8
1
 62
     5
 10
47.0622117311
 20
6.3536458332999999
 30
0.0
 11
48.062211731099993
 21
6.3536458332999999
 31
0.0
  0
ARC
  5
11E
  8
1
 62
     5
 10
60.962211731099998
 20
7.6536458332999997
 30
0.0
 40
0.6
 50
90.0
 51
180.0
  0
LINE
  5
11F
  8
1
 62
     5
 10
60.962211731099998
 20
8.2536458333000002
 30
0.0
 11
64.062211731099993
 21
8.2536458333000002
 31
0.0
  0
LINE
  5
120
  8
1
 62
     5
 10
38.962211731099998
 20
8.2536458333000002
 30
0.0
 11
42.0622117311
 21
8.2536458333000002
 31
0.0
  0
LINE
  5
121
  8
1
 62
     5
 10
42.0622117311
 20
8.2536458333000002
 30
0.0
 11
42.414211731100004
 21
8.5536458332999992
 31
0.0
  0
LINE
  5
122
  8
1
 62
     5
 10
42.414211731100004
 20
8.5536458332999992
 30
0.0
 11
44.86221173109999
 21
8.5536458332999992
 31
0.0
  0
LINE
  5
123
  8
1
 62
     5
 10
49.961211731099993
 20
8.2536458333000002
 30
0.0
 11
53.062211731099993
 21
8.2536458333000002
 31
0.0
  0
ARC
  5
124
  8
1
 62
     5
 10
58.062211731099993
 20
7.6536458332999997
 30
0.0
 40
1.3
 50
180.0
 51
270.0
  0
LINE
  5
125
  8
1
 62
     5
 10
54.052704531099991
 20
28.1036458333
 30
0.0
 11
56.759485331099988
 21
7.7236458332999991
 31
0.0
  0
LINE
  5
126
  8
5
 62
     5
 10
74.205910931099993
 20
4.6241898332999991
 30
0.0
 11
74.205910931099993
 21
4.353645833299999
 31
0.0
  0
POLYLINE
  8
┌▓È_1
  5
615
  62
5
  66
     1
 10
0.000000
 20
0.000000
 30
0.000000
  70
     8
  0
VERTEX
  8
┌▓È_1
  5
616
 10
243.918
 20
-287.929
 30
0.000000
  70
    32
  0
VERTEX
  8
┌▓È_1
  5
617
 10
243.931
 20
-287.944
 30
0.000000
  70
    32
  0
VERTEX
  8
┌▓È_1
  5
618
 10
243.945
 20
-287.959
 30
0.000000
  70
    32
  0
VERTEX
  8
┌▓È_1
  5
619
 10
243.958
 20
-287.973
 30
0.000000
  70
    32
  0
VERTEX
  8
┌▓È_1
  5
61A
 10
243.971
 20
-287.988
 30
0.000000
  70
    32
  0
VERTEX
  8
┌▓È_1
  5
61B
 10
243.984
 20
-288.003
 30
0.000000
  70
    32
  0
VERTEX
  8
┌▓È_1
  5
61C
 10
243.997
 20
-288.017
 30
0.000000
  70
    32
  0
VERTEX
  8
┌▓È_1
  5
61D
 10
244.011
 20
-288.032
 30
0.000000
  70
    32
  0
VERTEX
  8
┌▓È_1
  5
61E
 10
244.024
 20
-288.047
 30
0.000000
  70
    32
  0
VERTEX
  8
┌▓È_1
  5
61F
 10
244.037
 20
-288.061
 30
0.000000
  70
    32
  0
VERTEX
  8
┌▓È_1
  5
620
 10
244.050
 20
-288.076
 30
0.000000
  70
    32
  0
VERTEX
  8
┌▓È_1
  5
621
 10
244.063
 20
-288.091
 30
0.000000
  70
    32
  0
VERTEX
  8
┌▓È_1
  5
622
 10
244.077
 20
-288.106
 30
0.000000
  70
    32
  0
VERTEX
  8
┌▓È_1
  5
623
 10
244.090
 20
-288.120
 30
0.000000
  70
    32
  0
VERTEX
  8
┌▓È_1
  5
624
 10
244.103
 20
-288.135
 30
0.000000
  70
    32
  0
VERTEX
  8
┌▓È_1
  5
625
 10
244.116
 20
-288.150
 30
0.000000
  70
    32
  0
VERTEX
  8
┌▓È_1
  5
626
 10
244.129
 20
-288.164
 30
0.000000
  70
    32
  0
VERTEX
  8
┌▓È_1
  5
627
 10
244.143
 20
-288.179
 30
0.000000
  70
    32
  0
VERTEX
  8
┌▓È_1
  5
628
 10
244.156
 20
-288.194
 30
0.000000
  70
    32
  0
VERTEX
  8
┌▓È_1
  5
629
 10
244.169
 20
-288.208
 30
0.000000
  70
    32
  0
VERTEX
  8
┌▓È_1
  5
62A
 10
244.182
 20
-288.223
 30
0.000000
  70
    32
  0
VERTEX
  8
┌▓È_1
  5
62B
 10
244.196
 20
-288.238
 30
0.000000
  70
    32
  0
VERTEX
  8
┌▓È_1
  5
62C
 10
244.209
 20
-288.252
 30
0.000000
  70
    32
  0
VERTEX
  8
┌▓È_1
  5
62D
 10
244.222
 20
-288.267
 30
0.000000
  70
    32
  0
VERTEX
  8
┌▓È_1
  5
62E
 10
244.235
 20
-288.282
 30
0.000000
  70
    32
  0
VERTEX
  8
┌▓È_1
  5
62F
 10
244.248
 20
-288.296
 30
0.000000
  70
    32
  0
VERTEX
  8
┌▓È_1
  5
630
 10
244.262
 20
-288.311
 30
0.000000
  70
    32
  0
VERTEX
  8
┌▓È_1
  5
631
 10
244.275
 20
-288.326
 30
0.000000
  70
    32
  0
VERTEX
  8
┌▓È_1
  5
632
 10
244.288
 20
-288.340
 30
0.000000
  70
    32
  0
VERTEX
  8
┌▓È_1
  5
633
 10
244.301
 20
-288.355
 30
0.000000
  70
    32
  0
VERTEX
  8
┌▓È_1
  5
634
 10
244.315
 20
-288.370
 30
0.000000
  70
    32
  0
VERTEX
  8
┌▓È_1
  5
635
 10
244.328
 20
-288.384
 30
0.000000
  70
    32
  0
VERTEX
  8
┌▓È_1
  5
636
 10
244.341
 20
-288.399
 30
0.000000
  70
    32
  0
VERTEX
  8
┌▓È_1
  5
637
 10
244.355
 20
-288.413
 30
0.000000
  70
    32
  0
VERTEX
  8
┌▓È_1
  5
638
 10
244.368
 20
-288.428
 30
0.000000
  70
    32
  0
VERTEX
  8
┌▓È_1
  5
639
 10
244.381
 20
-288.443
 30
0.000000
  70
    32
  0
VERTEX
  8
┌▓È_1
  5
63A
 10
244.394
 20
-288.457
 30
0.000000
  70
    32
  0
VERTEX
  8
┌▓È_1
  5
63B
 10
244.408
 20
-288.472
 30
0.000000
  70
    32
  0
VERTEX
  8
┌▓È_1
  5
63C
 10
244.421
 20
-288.486
 30
0.000000
  70
    32
  0
VERTEX
  8
┌▓È_1
  5
63D
 10
244.434
 20
-288.501
 30
0.000000
  70
    32
  0
VERTEX
  8
┌▓È_1
  5
63E
 10
244.448
 20
-288.515
 30
0.000000
  70
    32
  0
VERTEX
  8
┌▓È_1
  5
63F
 10
244.461
 20
-288.530
 30
0.000000
  70
    32
  0
VERTEX
  8
┌▓È_1
  5
640
 10
244.474
 20
-288.544
 30
0.000000
  70
    32
  0
VERTEX
  8
┌▓È_1
  5
641
 10
244.488
 20
-288.559
 30
0.000000
  70
    32
  0
VERTEX
  8
┌▓È_1
  5
642
 10
244.501
 20
-288.573
 30
0.000000
  70
    32
  0
VERTEX
  8
┌▓È_1
  5
643
 10
244.514
 20
-288.588
 30
0.000000
  70
    32
  0
VERTEX
  8
┌▓È_1
  5
644
 10
244.528
 20
-288.602
 30
0.000000
  70
    32
  0
VERTEX
  8
┌▓È_1
  5
645
 10
244.541
 20
-288.617
 30
0.000000
  70
    32
  0
VERTEX
  8
┌▓È_1
  5
646
 10
244.554
 20
-288.631
 30
0.000000
  70
    32
  0
VERTEX
  8
┌▓È_1
  5
647
 10
244.568
 20
-288.646
 30
0.000000
  70
    32
  0
VERTEX
  8
┌▓È_1
  5
648
 10
244.581
 20
-288.660
 30
0.000000
  70
    32
  0
VERTEX
  8
┌▓È_1
  5
649
 10
244.594
 20
-288.675
 30
0.000000
  70
    32
  0
VERTEX
  8
┌▓È_1
  5
64A
 10
244.608
 20
-288.689
 30
0.000000
  70
    32
  0
VERTEX
  8
┌▓È_1
  5
64B
 10
244.621
 20
-288.704
 30
0.000000
  70
    32
  0
VERTEX
  8
┌▓È_1
  5
64C
 10
244.634
 20
-288.718
 30
0.000000
  70
    32
  0
VERTEX
  8
┌▓È_1
  5
64D
 10
244.648
 20
-288.732
 30
0.000000
  70
    32
  0
VERTEX
  8
┌▓È_1
  5
64E
 10
244.661
 20
-288.747
 30
0.000000
  70
    32
  0
VERTEX
  8
┌▓È_1
  5
64F
 10
244.675
 20
-288.761
 30
0.000000
  70
    32
  0
VERTEX
  8
┌▓È_1
  5
650
 10
244.688
 20
-288.775
 30
0.000000
  70
    32
  0
VERTEX
  8
┌▓È_1
  5
651
 10
244.702
 20
-288.790
 30
0.000000
  70
    32
  0
VERTEX
  8
┌▓È_1
  5
652
 10
244.715
 20
-288.804
 30
0.000000
  70
    32
  0
VERTEX
  8
┌▓È_1
  5
653
 10
244.728
 20
-288.818
 30
0.000000
  70
    32
  0
VERTEX
  8
┌▓È_1
  5
654
 10
244.742
 20
-288.833
 30
0.000000
  70
    32
  0
VERTEX
  8
┌▓È_1
  5
655
 10
244.755
 20
-288.847
 30
0.000000
  70
    32
  0
VERTEX
  8
┌▓È_1
  5
656
 10
244.769
 20
-288.861
 30
0.000000
  70
    32
  0
VERTEX
  8
┌▓È_1
  5
657
 10
244.782
 20
-288.876
 30
0.000000
  70
    32
  0
VERTEX
  8
┌▓È_1
  5
658
 10
244.796
 20
-288.890
 30
0.000000
  70
    32
  0
VERTEX
  8
┌▓È_1
  5
659
 10
244.809
 20
-288.904
 30
0.000000
  70
    32
  0
VERTEX
  8
┌▓È_1
  5
65A
 10
244.823
 20
-288.918
 30
0.000000
  70
    32
  0
VERTEX
  8
┌▓È_1
  5
65B
 10
244.836
 20
-288.932
 30
0.000000
  70
    32
  0
VERTEX
  8
┌▓È_1
  5
65C
 10
244.850
 20
-288.947
 30
0.000000
  70
    32
  0
VERTEX
  8
┌▓È_1
  5
65D
 10
244.863
 20
-288.961
 30
0.000000
  70
    32
  0
VERTEX
  8
┌▓È_1
  5
65E
 10
244.877
 20
-288.975
 30
0.000000
  70
    32
  0
VERTEX
  8
┌▓È_1
  5
65F
 10
244.891
 20
-288.989
 30
0.000000
  70
    32
  0
VERTEX
  8
┌▓È_1
  5
660
 10
244.904
 20
-289.003
 30
0.000000
  70
    32
  0
VERTEX
  8
┌▓È_1
  5
661
 10
244.918
 20
-289.017
 30
0.000000
  70
    32
  0
VERTEX
  8
┌▓È_1
  5
662
 10
244.931
 20
-289.031
 30
0.000000
  70
    32
  0
VERTEX
  8
┌▓È_1
  5
663
 10
244.945
 20
-289.046
 30
0.000000
  70
    32
  0
VERTEX
  8
┌▓È_1
  5
664
 10
244.958
 20
-289.060
 30
0.000000
  70
    32
  0
VERTEX
  8
┌▓È_1
  5
665
 10
244.972
 20
-289.074
 30
0.000000
  70
    32
  0
VERTEX
  8
┌▓È_1
  5
666
 10
244.986
 20
-289.088
 30
0.000000
  70
    32
  0
VERTEX
  8
┌▓È_1
  5
667
 10
244.999
 20
-289.102
 30
0.000000
  70
    32
  0
VERTEX
  8
┌▓È_1
  5
668
 10
245.013
 20
-289.116
 30
0.000000
  70
    32
  0
VERTEX
  8
┌▓È_1
  5
669
 10
245.027
 20
-289.130
 30
0.000000
  70
    32
  0
VERTEX
  8
┌▓È_1
  5
66A
 10
245.040
 20
-289.144
 30
0.000000
  70
    32
  0
VERTEX
  8
┌▓È_1
  5
66B
 10
245.054
 20
-289.158
 30
0.000000
  70
    32
  0
VERTEX
  8
┌▓È_1
  5
66C
 10
245.068
 20
-289.171
 30
0.000000
  70
    32
  0
VERTEX
  8
┌▓È_1
  5
66D
 10
245.081
 20
-289.185
 30
0.000000
  70
    32
  0
VERTEX
  8
┌▓È_1
  5
66E
 10
245.095
 20
-289.199
 30
0.000000
  70
    32
  0
VERTEX
  8
┌▓È_1
  5
66F
 10
245.109
 20
-289.213
 30
0.000000
  70
    32
  0
VERTEX
  8
┌▓È_1
  5
670
 10
245.123
 20
-289.227
 30
0.000000
  70
    32
  0
VERTEX
  8
┌▓È_1
  5
671
 10
245.136
 20
-289.241
 30
0.000000
  70
    32
  0
VERTEX
  8
┌▓È_1
  5
672
 10
245.150
 20
-289.254
 30
0.000000
  70
    32
  0
VERTEX
  8
┌▓È_1
  5
673
 10
245.164
 20
-289.268
 30
0.000000
  70
    32
  0
VERTEX
  8
┌▓È_1
  5
674
 10
245.178
 20
-289.282
 30
0.000000
  70
    32
  0
VERTEX
  8
┌▓È_1
  5
675
 10
245.192
 20
-289.296
 30
0.000000
  70
    32
  0
VERTEX
  8
┌▓È_1
  5
676
 10
245.205
 20
-289.309
 30
0.000000
  70
    32
  0
VERTEX
  8
┌▓È_1
  5
677
 10
245.219
 20
-289.323
 30
0.000000
  70
    32
  0
VERTEX
  8
┌▓È_1
  5
678
 10
245.233
 20
-289.337
 30
0.000000
  70
    32
  0
VERTEX
  8
┌▓È_1
  5
679
 10
245.247
 20
-289.350
 30
0.000000
  70
    32
  0
VERTEX
  8
┌▓È_1
  5
67A
 10
245.261
 20
-289.364
 30
0.000000
  70
    32
  0
VERTEX
  8
┌▓È_1
  5
67B
 10
245.275
 20
-289.378
 30
0.000000
  70
    32
  0
VERTEX
  8
┌▓È_1
  5
67C
 10
245.289
 20
-289.391
 30
0.000000
  70
    32
  0
VERTEX
  8
┌▓È_1
  5
67D
 10
245.302
 20
-289.405
 30
0.000000
  70
    32
  0
VERTEX
  8
┌▓È_1
  5
67E
 10
245.316
 20
-289.418
 30
0.000000
  70
    32
  0
VERTEX
  8
┌▓È_1
  5
67F
 10
245.330
 20
-289.432
 30
0.000000
  70
    32
  0
VERTEX
  8
┌▓È_1
  5
680
 10
245.344
 20
-289.445
 30
0.000000
  70
    32
  0
VERTEX
  8
┌▓È_1
  5
681
 10
245.358
 20
-289.459
 30
0.000000
  70
    32
  0
VERTEX
  8
┌▓È_1
  5
682
 10
245.372
 20
-289.472
 30
0.000000
  70
    32
  0
VERTEX
  8
┌▓È_1
  5
683
 10
245.386
 20
-289.486
 30
0.000000
  70
    32
  0
VERTEX
  8
┌▓È_1
  5
684
 10
245.400
 20
-289.499
 30
0.000000
  70
    32
  0
VERTEX
  8
┌▓È_1
  5
685
 10
245.414
 20
-289.513
 30
0.000000
  70
    32
  0
VERTEX
  8
┌▓È_1
  5
686
 10
245.428
 20
-289.526
 30
0.000000
  70
    32
  0
VERTEX
  8
┌▓È_1
  5
687
 10
245.442
 20
-289.539
 30
0.000000
  70
    32
  0
VERTEX
  8
┌▓È_1
  5
688
 10
245.456
 20
-289.553
 30
0.000000
  70
    32
  0
VERTEX
  8
┌▓È_1
  5
689
 10
245.471
 20
-289.566
 30
0.000000
  70
    32
  0
VERTEX
  8
┌▓È_1
  5
68A
 10
245.485
 20
-289.579
 30
0.000000
  70
    32
  0
VERTEX
  8
┌▓È_1
  5
68B
 10
245.499
 20
-289.592
 30
0.000000
  70
    32
  0
VERTEX
  8
┌▓È_1
  5
68C
 10
245.513
 20
-289.605
 30
0.000000
  70
    32
  0
VERTEX
  8
┌▓È_1
  5
68D
 10
245.527
 20
-289.619
 30
0.000000
  70
    32
  0
VERTEX
  8
┌▓È_1
  5
68E
 10
245.541
 20
-289.632
 30
0.000000
  70
    32
  0
VERTEX
  8
┌▓È_1
  5
68F
 10
245.555
 20
-289.645
 30
0.000000
  70
    32
  0
VERTEX
  8
┌▓È_1
  5
690
 10
245.570
 20
-289.658
 30
0.000000
  70
    32
  0
VERTEX
  8
┌▓È_1
  5
691
 10
245.584
 20
-289.671
 30
0.000000
  70
    32
  0
VERTEX
  8
┌▓È_1
  5
692
 10
245.598
 20
-289.684
 30
0.000000
  70
    32
  0
VERTEX
  8
┌▓È_1
  5
693
 10
245.612
 20
-289.697
 30
0.000000
  70
    32
  0
VERTEX
  8
┌▓È_1
  5
694
 10
245.627
 20
-289.710
 30
0.000000
  70
    32
  0
VERTEX
  8
┌▓È_1
  5
695
 10
245.641
 20
-289.723
 30
0.000000
  70
    32
  0
SEQEND
  8
┌▓È_1
  5
696
  0
POLYLINE
  8
┌▓È_1
  5
697
  62
5
  66
     1
 10
0.000000
 20
0.000000
 30
0.000000
  70
     8
  0
VERTEX
  8
┌▓È_1
  5
698
 10
250.419
 20
-292.201
 30
0.000000
  70
    32
  0
VERTEX
  8
┌▓È_1
  5
699
 10
250.454
 20
-292.210
 30
0.000000
  70
    32
  0
VERTEX
  8
┌▓È_1
  5
69A
 10
250.489
 20
-292.220
 30
0.000000
  70
    32
  0
VERTEX
  8
┌▓È_1
  5
69B
 10
250.524
 20
-292.230
 30
0.000000
  70
    32
  0
VERTEX
  8
┌▓È_1
  5
69C
 10
250.559
 20
-292.240
 30
0.000000
  70
    32
  0
VERTEX
  8
┌▓È_1
  5
69D
 10
250.594
 20
-292.249
 30
0.000000
  70
    32
  0
VERTEX
  8
┌▓È_1
  5
69E
 10
250.629
 20
-292.259
 30
0.000000
  70
    32
  0
VERTEX
  8
┌▓È_1
  5
69F
 10
250.664
 20
-292.269
 30
0.000000
  70
    32
  0
VERTEX
  8
┌▓È_1
  5
6A0
 10
250.699
 20
-292.278
 30
0.000000
  70
    32
  0
VERTEX
  8
┌▓È_1
  5
6A1
 10
250.735
 20
-292.288
 30
0.000000
  70
    32
  0
VERTEX
  8
┌▓È_1
  5
6A2
 10
250.770
 20
-292.297
 30
0.000000
  70
    32
  0
VERTEX
  8
┌▓È_1
  5
6A3
 10
250.805
 20
-292.306
 30
0.000000
  70
    32
  0
VERTEX
  8
┌▓È_1
  5
6A4
 10
250.841
 20
-292.316
 30
0.000000
  70
    32
  0
VERTEX
  8
┌▓È_1
  5
6A5
 10
250.876
 20
-292.325
 30
0.000000
  70
    32
  0
VERTEX
  8
┌▓È_1
  5
6A6
 10
250.911
 20
-292.334
 30
0.000000
  70
    32
  0
VERTEX
  8
┌▓È_1
  5
6A7
 10
250.947
 20
-292.343
 30
0.000000
  70
    32
  0
VERTEX
  8
┌▓È_1
  5
6A8
 10
250.982
 20
-292.352
 30
0.000000
  70
    32
  0
VERTEX
  8
┌▓È_1
  5
6A9
 10
251.018
 20
-292.362
 30
0.000000
  70
    32
  0
VERTEX
  8
┌▓È_1
  5
6AA
 10
251.053
 20
-292.371
 30
0.000000
  70
    32
  0
VERTEX
  8
┌▓È_1
  5
6AB
 10
251.089
 20
-292.379
 30
0.000000
  70
    32
  0
VERTEX
  8
┌▓È_1
  5
6AC
 10
251.125
 20
-292.388
 30
0.000000
  70
    32
  0
VERTEX
  8
┌▓È_1
  5
6AD
 10
251.160
 20
-292.397
 30
0.000000
  70
    32
  0
VERTEX
  8
┌▓È_1
  5
6AE
 10
251.196
 20
-292.406
 30
0.000000
  70
    32
  0
VERTEX
  8
┌▓È_1
  5
6AF
 10
251.231
 20
-292.415
 30
0.000000
  70
    32
  0
VERTEX
  8
┌▓È_1
  5
6B0
 10
251.267
 20
-292.424
 30
0.000000
  70
    32
  0
VERTEX
  8
┌▓È_1
  5
6B1
 10
251.303
 20
-292.432
 30
0.000000
  70
    32
  0
VERTEX
  8
┌▓È_1
  5
6B2
 10
251.339
 20
-292.441
 30
0.000000
  70
    32
  0
VERTEX
  8
┌▓È_1
  5
6B3
 10
251.375
 20
-292.449
 30
0.000000
  70
    32
  0
VERTEX
  8
┌▓È_1
  5
6B4
 10
251.410
 20
-292.458
 30
0.000000
  70
    32
  0
VERTEX
  8
┌▓È_1
  5
6B5
 10
251.446
 20
-292.466
 30
0.000000
  70
    32
  0
VERTEX
  8
┌▓È_1
  5
6B6
 10
251.482
 20
-292.475
 30
0.000000
  70
    32
  0
VERTEX
  8
┌▓È_1
  5
6B7
 10
251.518
 20
-292.483
 30
0.000000
  70
    32
  0
VERTEX
  8
┌▓È_1
  5
6B8
 10
251.554
 20
-292.492
 30
0.000000
  70
    32
  0
VERTEX
  8
┌▓È_1
  5
6B9
 10
251.590
 20
-292.500
 30
0.000000
  70
    32
  0
VERTEX
  8
┌▓È_1
  5
6BA
 10
251.626
 20
-292.508
 30
0.000000
  70
    32
  0
VERTEX
  8
┌▓È_1
  5
6BB
 10
251.662
 20
-292.516
 30
0.000000
  70
    32
  0
VERTEX
  8
┌▓È_1
  5
6BC
 10
251.698
 20
-292.525
 30
0.000000
  70
    32
  0
VERTEX
  8
┌▓È_1
  5
6BD
 10
251.734
 20
-292.533
 30
0.000000
  70
    32
  0
VERTEX
  8
┌▓È_1
  5
6BE
 10
251.770
 20
-292.541
 30
0.000000
  70
    32
  0
VERTEX
  8
┌▓È_1
  5
6BF
 10
251.806
 20
-292.549
 30
0.000000
  70
    32
  0
VERTEX
  8
┌▓È_1
  5
6C0
 10
251.842
 20
-292.557
 30
0.000000
  70
    32
  0
VERTEX
  8
┌▓È_1
  5
6C1
 10
251.879
 20
-292.565
 30
0.000000
  70
    32
  0
VERTEX
  8
┌▓È_1
  5
6C2
 10
251.915
 20
-292.573
 30
0.000000
  70
    32
  0
VERTEX
  8
┌▓È_1
  5
6C3
 10
251.951
 20
-292.581
 30
0.000000
  70
    32
  0
VERTEX
  8
┌▓È_1
  5
6C4
 10
251.987
 20
-292.589
 30
0.000000
  70
    32
  0
VERTEX
  8
┌▓È_1
  5
6C5
 10
252.023
 20
-292.596
 30
0.000000
  70
    32
  0
VERTEX
  8
┌▓È_1
  5
6C6
 10
252.060
 20
-292.604
 30
0.000000
  70
    32
  0
VERTEX
  8
┌▓È_1
  5
6C7
 10
252.096
 20
-292.612
 30
0.000000
  70
    32
  0
VERTEX
  8
┌▓È_1
  5
6C8
 10
252.132
 20
-292.620
 30
0.000000
  70
    32
  0
VERTEX
  8
┌▓È_1
  5
6C9
 10
252.169
 20
-292.627
 30
0.000000
  70
    32
  0
VERTEX
  8
┌▓È_1
  5
6CA
 10
252.205
 20
-292.635
 30
0.000000
  70
    32
  0
VERTEX
  8
┌▓È_1
  5
6CB
 10
252.241
 20
-292.643
 30
0.000000
  70
    32
  0
VERTEX
  8
┌▓È_1
  5
6CC
 10
252.278
 20
-292.650
 30
0.000000
  70
    32
  0
VERTEX
  8
┌▓È_1
  5
6CD
 10
252.314
 20
-292.658
 30
0.000000
  70
    32
  0
VERTEX
  8
┌▓È_1
  5
6CE
 10
252.351
 20
-292.665
 30
0.000000
  70
    32
  0
VERTEX
  8
┌▓È_1
  5
6CF
 10
252.387
 20
-292.673
 30
0.000000
  70
    32
  0
VERTEX
  8
┌▓È_1
  5
6D0
 10
252.424
 20
-292.680
 30
0.000000
  70
    32
  0
VERTEX
  8
┌▓È_1
  5
6D1
 10
252.460
 20
-292.688
 30
0.000000
  70
    32
  0
VERTEX
  8
┌▓È_1
  5
6D2
 10
252.497
 20
-292.695
 30
0.000000
  70
    32
  0
VERTEX
  8
┌▓È_1
  5
6D3
 10
252.533
 20
-292.702
 30
0.000000
  70
    32
  0
VERTEX
  8
┌▓È_1
  5
6D4
 10
252.570
 20
-292.710
 30
0.000000
  70
    32
  0
VERTEX
  8
┌▓È_1
  5
6D5
 10
252.607
 20
-292.717
 30
0.000000
  70
    32
  0
VERTEX
  8
┌▓È_1
  5
6D6
 10
252.643
 20
-292.724
 30
0.000000
  70
    32
  0
VERTEX
  8
┌▓È_1
  5
6D7
 10
252.680
 20
-292.731
 30
0.000000
  70
    32
  0
VERTEX
  8
┌▓È_1
  5
6D8
 10
252.716
 20
-292.739
 30
0.000000
  70
    32
  0
VERTEX
  8
┌▓È_1
  5
6D9
 10
252.753
 20
-292.746
 30
0.000000
  70
    32
  0
VERTEX
  8
┌▓È_1
  5
6DA
 10
252.790
 20
-292.753
 30
0.000000
  70
    32
  0
VERTEX
  8
┌▓È_1
  5
6DB
 10
252.827
 20
-292.760
 30
0.000000
  70
    32
  0
VERTEX
  8
┌▓È_1
  5
6DC
 10
252.863
 20
-292.767
 30
0.000000
  70
    32
  0
VERTEX
  8
┌▓È_1
  5
6DD
 10
252.900
 20
-292.774
 30
0.000000
  70
    32
  0
VERTEX
  8
┌▓È_1
  5
6DE
 10
252.937
 20
-292.781
 30
0.000000
  70
    32
  0
VERTEX
  8
┌▓È_1
  5
6DF
 10
252.973
 20
-292.788
 30
0.000000
  70
    32
  0
VERTEX
  8
┌▓È_1
  5
6E0
 10
253.010
 20
-292.795
 30
0.000000
  70
    32
  0
VERTEX
  8
┌▓È_1
  5
6E1
 10
253.047
 20
-292.802
 30
0.000000
  70
    32
  0
VERTEX
  8
┌▓È_1
  5
6E2
 10
253.084
 20
-292.809
 30
0.000000
  70
    32
  0
VERTEX
  8
┌▓È_1
  5
6E3
 10
253.121
 20
-292.816
 30
0.000000
  70
    32
  0
VERTEX
  8
┌▓È_1
  5
6E4
 10
253.158
 20
-292.823
 30
0.000000
  70
    32
  0
VERTEX
  8
┌▓È_1
  5
6E5
 10
253.194
 20
-292.830
 30
0.000000
  70
    32
  0
VERTEX
  8
┌▓È_1
  5
6E6
 10
253.231
 20
-292.837
 30
0.000000
  70
    32
  0
VERTEX
  8
┌▓È_1
  5
6E7
 10
253.268
 20
-292.843
 30
0.000000
  70
    32
  0
VERTEX
  8
┌▓È_1
  5
6E8
 10
253.305
 20
-292.850
 30
0.000000
  70
    32
  0
VERTEX
  8
┌▓È_1
  5
6E9
 10
253.342
 20
-292.857
 30
0.000000
  70
    32
  0
VERTEX
  8
┌▓È_1
  5
6EA
 10
253.379
 20
-292.864
 30
0.000000
  70
    32
  0
VERTEX
  8
┌▓È_1
  5
6EB
 10
253.416
 20
-292.870
 30
0.000000
  70
    32
  0
VERTEX
  8
┌▓È_1
  5
6EC
 10
253.453
 20
-292.877
 30
0.000000
  70
    32
  0
VERTEX
  8
┌▓È_1
  5
6ED
 10
253.490
 20
-292.884
 30
0.000000
  70
    32
  0
VERTEX
  8
┌▓È_1
  5
6EE
 10
253.527
 20
-292.891
 30
0.000000
  70
    32
  0
VERTEX
  8
┌▓È_1
  5
6EF
 10
253.564
 20
-292.897
 30
0.000000
  70
    32
  0
VERTEX
  8
┌▓È_1
  5
6F0
 10
253.601
 20
-292.904
 30
0.000000
  70
    32
  0
VERTEX
  8
┌▓È_1
  5
6F1
 10
253.638
 20
-292.910
 30
0.000000
  70
    32
  0
VERTEX
  8
┌▓È_1
  5
6F2
 10
253.675
 20
-292.917
 30
0.000000
  70
    32
  0
VERTEX
  8
┌▓È_1
  5
6F3
 10
253.712
 20
-292.924
 30
0.000000
  70
    32
  0
VERTEX
  8
┌▓È_1
  5
6F4
 10
253.749
 20
-292.930
 30
0.000000
  70
    32
  0
VERTEX
  8
┌▓È_1
  5
6F5
 10
253.786
 20
-292.937
 30
0.000000
  70
    32
  0
VERTEX
  8
┌▓È_1
  5
6F6
 10
253.823
 20
-292.943
 30
0.000000
  70
    32
  0
VERTEX
  8
┌▓È_1
  5
6F7
 10
253.860
 20
-292.950
 30
0.000000
  70
    32
  0
VERTEX
  8
┌▓È_1
  5
6F8
 10
253.897
 20
-292.956
 30
0.000000
  70
    32
  0
VERTEX
  8
┌▓È_1
  5
6F9
 10
253.934
 20
-292.963
 30
0.000000
  70
    32
  0
VERTEX
  8
┌▓È_1
  5
6FA
 10
253.971
 20
-292.969
 30
0.000000
  70
    32
  0
VERTEX
  8
┌▓È_1
  5
6FB
 10
254.008
 20
-292.976
 30
0.000000
  70
    32
  0
VERTEX
  8
┌▓È_1
  5
6FC
 10
254.046
 20
-292.982
 30
0.000000
  70
    32
  0
VERTEX
  8
┌▓È_1
  5
6FD
 10
254.083
 20
-292.989
 30
0.000000
  70
    32
  0
VERTEX
  8
┌▓È_1
  5
6FE
 10
254.120
 20
-292.995
 30
0.000000
  70
    32
  0
VERTEX
  8
┌▓È_1
  5
6FF
 10
254.157
 20
-293.002
 30
0.000000
  70
    32
  0
VERTEX
  8
┌▓È_1
  5
700
 10
254.194
 20
-293.008
 30
0.000000
  70
    32
  0
VERTEX
  8
┌▓È_1
  5
701
 10
254.231
 20
-293.014
 30
0.000000
  70
    32
  0
VERTEX
  8
┌▓È_1
  5
702
 10
254.268
 20
-293.021
 30
0.000000
  70
    32
  0
VERTEX
  8
┌▓È_1
  5
703
 10
254.306
 20
-293.027
 30
0.000000
  70
    32
  0
VERTEX
  8
┌▓È_1
  5
704
 10
254.343
 20
-293.034
 30
0.000000
  70
    32
  0
VERTEX
  8
┌▓È_1
  5
705
 10
254.380
 20
-293.040
 30
0.000000
  70
    32
  0
VERTEX
  8
┌▓È_1
  5
706
 10
254.417
 20
-293.046
 30
0.000000
  70
    32
  0
VERTEX
  8
┌▓È_1
  5
707
 10
254.454
 20
-293.053
 30
0.000000
  70
    32
  0
VERTEX
  8
┌▓È_1
  5
708
 10
254.491
 20
-293.059
 30
0.000000
  70
    32
  0
VERTEX
  8
┌▓È_1
  5
709
 10
254.529
 20
-293.065
 30
0.000000
  70
    32
  0
VERTEX
  8
┌▓È_1
  5
70A
 10
254.566
 20
-293.072
 30
0.000000
  70
    32
  0
VERTEX
  8
┌▓È_1
  5
70B
 10
254.603
 20
-293.078
 30
0.000000
  70
    32
  0
VERTEX
  8
┌▓È_1
  5
70C
 10
254.640
 20
-293.084
 30
0.000000
  70
    32
  0
VERTEX
  8
┌▓È_1
  5
70D
 10
254.677
 20
-293.091
 30
0.000000
  70
    32
  0
VERTEX
  8
┌▓È_1
  5
70E
 10
254.715
 20
-293.097
 30
0.000000
  70
    32
  0
VERTEX
  8
┌▓È_1
  5
70F
 10
254.752
 20
-293.103
 30
0.000000
  70
    32
  0
VERTEX
  8
┌▓È_1
  5
710
 10
254.789
 20
-293.109
 30
0.000000
  70
    32
  0
VERTEX
  8
┌▓È_1
  5
711
 10
254.826
 20
-293.116
 30
0.000000
  70
    32
  0
VERTEX
  8
┌▓È_1
  5
712
 10
254.863
 20
-293.122
 30
0.000000
  70
    32
  0
VERTEX
  8
┌▓È_1
  5
713
 10
254.901
 20
-293.128
 30
0.000000
  70
    32
  0
VERTEX
  8
┌▓È_1
  5
714
 10
254.938
 20
-293.135
 30
0.000000
  70
    32
  0
VERTEX
  8
┌▓È_1
  5
715
 10
254.975
 20
-293.141
 30
0.000000
  70
    32
  0
VERTEX
  8
┌▓È_1
  5
716
 10
255.012
 20
-293.147
 30
0.000000
  70
    32
  0
VERTEX
  8
┌▓È_1
  5
717
 10
255.050
 20
-293.153
 30
0.000000
  70
    32
  0
SEQEND
  8
┌▓È_1
  5
718
  0
INSERT
  5
129
  8
0
  6
CONTINUOUS
  2
*U27
 10
0.0
 20
0.0
 30
0.0
  0
INSERT
  5
12A
  8
0
  6
CONTINUOUS
  2
*U28
 10
0.0
 20
0.0
 30
0.0
  0
INSERT
  5
12B
  8
0
  6
CONTINUOUS
  2
*U29
 10
0.0
 20
0.0
 30
0.0
  0
INSERT
  5
12C
  8
0
  6
CONTINUOUS
  2
*U30
 10
0.0
 20
0.0
 30
0.0
  0
INSERT
  5
12D
  8
0
  6
CONTINUOUS
  2
*U31
 10
0.0
 20
0.0
 30
0.0
  0
LINE
  5
12E
  8
┌▓È_1
 10
296.40703124999999
 20
-256.72382812500001
 30
0.0
 11
436.40703124999987
 21
-256.72382812500001
 31
0.0
  0
LINE
  5
12F
  8
┌▓È_1
 62
     5
 10
305.68198540200001
 20
-219.84814453120001
 30
0.0
 11
322.13832343019999
 21
-219.84814453120001
 31
0.0
  0
INSERT
  5
130
  8
0
  6
CONTINUOUS
  2
*U32
 10
0.0
 20
0.0
 30
0.0
  0
INSERT
  5
131
  8
0
  6
CONTINUOUS
  2
*U33
 10
0.0
 20
0.0
 30
0.0
  0
INSERT
  5
132
  8
0
  6
CONTINUOUS
  2
*U34
 10
0.0
 20
0.0
 30
0.0
  0
INSERT
  5
133
  8
0
  6
CONTINUOUS
  2
*U35
 10
0.0
 20
0.0
 30
0.0
  0
LINE
  5
134
  8
┌▓È_1
 10
296.40703124999999
 20
-234.72382812500001
 30
0.0
 11
296.40703124999999
 21
-300.72382812500001
 31
0.0
  0
INSERT
  5
135
  8
0
  6
CONTINUOUS
  2
*U36
 10
0.0
 20
0.0
 30
0.0
  0
INSERT
  5
136
  8
0
  6
CONTINUOUS
  2
*U37
 10
0.0
 20
0.0
 30
0.0
  0
INSERT
  5
137
  8
0
  6
CONTINUOUS
  2
*U38
 10
0.0
 20
0.0
 30
0.0
  0
INSERT
  5
138
  8
0
  6
CONTINUOUS
  2
*U39
 10
0.0
 20
0.0
 30
0.0
  0
LINE
  5
139
  8
┌▓È_1
 10
388.40703124999999
 20
-234.72382812500001
 30
0.0
 11
388.40703124999999
 21
-174.72382812500001
 31
0.0
  0
LINE
  5
13A
  8
┌▓È_1
 10
364.40703124999999
 20
-234.72382812500001
 30
0.0
 11
364.40703124999999
 21
-174.72382812500001
 31
0.0
  0
INSERT
  5
13B
  8
0
  6
CONTINUOUS
  2
*U40
 10
0.0
 20
0.0
 30
0.0
  0
LINE
  5
13C
  8
┌▓È_1
 62
     5
 10
436.40703124999987
 20
-300.72382812500001
 30
0.0
 11
436.40703124999987
 21
-234.72382812500001
 31
0.0
  0
INSERT
  5
13E
  8
Éíû@É³
  2
BALLON1
 10
0.0
 20
0.0
 30
0.0
  0
LINE
  5
147
  8
5
 62
     5
 10
85.705910931099993
 20
3.603645833299999
 30
0.0
 11
74.955910931099993
 21
3.603645833299999
 31
0.0
  0
ARC
  5
148
  8
6
 62
     5
 10
102.1720933311
 20
16.051983433299998
 30
0.0
 40
16.634780800000001
 50
188.16438179159999
 51
226.42609300000001
  0
ARC
  5
149
  8
┌▓È_1
 62
     5
 10
239.44953634780001
 20
-285.55348219119998
 30
0.0
 40
7.5999999999999988
 50
331.39928138329998
 51
358.49204224580001
  0
LINE
  5
14A
  8
┌▓È_1
 62
     5
 10
255.0495363478
 20
-293.1534821912
 30
0.0
 11
255.0495363478
 21
-296.1534821912
 31
0.0
  0
LINE
  5
14B
  8
┌▓È_1
 62
     5
 10
277.48450164439998
 20
-290.75348219120002
 30
0.0
 11
277.48450164439998
 21
-294.35348219119999
 31
0.0
  0
LINE
  5
14C
  8
┌▓È_1
 62
     5
 10
263.48450164439998
 20
-282.1534821912
 30
0.0
 11
271.48450164439998
 21
-282.1534821912
 31
0.0
  0
LINE
  5
14D
  8
┌▓È_1
 62
     5
 10
253.0495363478
 20
-285.1534821912
 30
0.0
 11
255.0495363478
 21
-282.1534821912
 31
0.0
  0
LINE
  5
14E
  8
┌▓È_1
 62
     5
 10
246.1221613312
 20
-289.19162400139999
 30
0.0
 11
245.6409697185
 21
-289.72310072260001
 31
0.0
  0
LINE
  5
14F
  8
┌▓È_1
 62
     5
 10
271.18238351479999
 20
-289.1534821912
 30
0.0
 11
277.48450164439998
 21
-289.1534821912
 31
0.0
  0
LINE
  5
150
  8
┌▓È_1
 62
     5
 10
253.0495363478
 20
-285.1534821912
 30
0.0
 11
255.0495363478
 21
-282.1534821912
 31
0.0
  0
LINE
  5
151
  8
┌▓È_1
 62
     5
 10
250.774975052
 20
-291.85174460920001
 30
0.0
 11
250.41877093240001
 21
-292.20050089760002
 31
0.0
  0
LINE
  5
152
  8
┌▓È_1
 62
     5
 10
266.00716831099999
 20
-290.75348219120002
 30
0.0
 11
265.53783497770002
 21
-289.1534821912
 31
0.0
  0
LINE
  5
153
  8
┌▓È_1
 62
     5
 10
270.1464303564
 20
-285.55348219119998
 30
0.0
 11
269.85364185600002
 21
-284.5360244103
 31
0.0
  0
LINE
  5
154
  8
┌▓È_1
 62
     5
 10
270.1464303564
 20
-285.55348219119998
 30
0.0
 11
277.48450164439998
 21
-285.55348219119998
 31
0.0
  0
LINE
  5
155
  8
┌▓È_1
 62
     5
 10
264.48183497770009
 20
-285.55348219119998
 30
0.0
 11
263.48450164439998
 21
-282.1534821912
 31
0.0
  0
LINE
  5
156
  8
┌▓È_1
 62
     5
 10
272.67876029899998
 20
-294.35348219119999
 30
0.0
 11
277.48450164439998
 21
-294.35348219119999
 31
0.0
  0
LINE
  5
157
  8
┌▓È_1
 62
     5
 10
259.48450164439998
 20
-285.55348219119998
 30
0.0
 11
259.48450164439998
 21
-289.1534821912
 31
0.0
  0
LINE
  5
158
  8
┌▓È_1
 10
256.40703124999999
 20
-234.72382812500001
 30
0.0
 11
256.40703124999999
 21
-278.72382812500001
 31
0.0
  0
LINE
  5
159
  8
┌▓È_1
 62
     5
 10
259.48450164439998
 20
-294.35348219119999
 30
0.0
 11
267.06316831100003
 21
-294.35348219119999
 31
0.0
  0
ARC
  5
15A
  8
┌▓È_1
 62
     5
 10
242.0495363478
 20
-285.1534821912
 30
0.0
 40
11.0
 50
322.48761197969998
 51
0.0
  0
LINE
  5
15B
  8
┌▓È_1
 62
     5
 10
271.64280714069997
 20
-290.75348219120002
 30
0.0
 11
277.48450164439998
 21
-290.75348219120002
 31
0.0
  0
LINE
  5
15C
  8
┌▓È_1
 62
     5
 10
273.48450164439998
 20
-297.1534821912
 30
0.0
 11
272.67876029899998
 21
-294.35348219119999
 31
0.0
  0
LINE
  5
15D
  8
┌▓È_1
 62
     5
 10
245.0495363478
 20
-286.79770272619999
 30
0.0
 11
243.91816549789999
 21
-287.9290735761
 31
0.0
  0
LINE
  5
15E
  8
┌▓È_1
 62
     5
 10
273.48450164439998
 20
-297.1534821912
 30
0.0
 11
267.88450164440002
 21
-297.1534821912
 31
0.0
  0
LINE
  5
15F
  8
┌▓È_1
 10
256.40703124999999
 20
-245.72382812500001
 30
0.0
 11
296.40703124999999
 21
-245.72382812500001
 31
0.0
  0
INSERT
  5
160
  8
0
  6
CONTINUOUS
  2
*U42
 10
0.0
 20
0.0
 30
0.0
  0
POLYLINE
  8
┌▓È_1
  5
719
  62
5
  66
     1
 10
0.000000
 20
0.000000
 30
0.000000
  70
     8
  0
VERTEX
  8
┌▓È_1
  5
71A
 10
247.967
 20
-294.426
 30
0.000000
  70
    32
  0
VERTEX
  8
┌▓È_1
  5
71B
 10
248.021
 20
-294.443
 30
0.000000
  70
    32
  0
VERTEX
  8
┌▓È_1
  5
71C
 10
248.075
 20
-294.460
 30
0.000000
  70
    32
  0
VERTEX
  8
┌▓È_1
  5
71D
 10
248.129
 20
-294.477
 30
0.000000
  70
    32
  0
VERTEX
  8
┌▓È_1
  5
71E
 10
248.183
 20
-294.494
 30
0.000000
  70
    32
  0
VERTEX
  8
┌▓È_1
  5
71F
 10
248.237
 20
-294.511
 30
0.000000
  70
    32
  0
VERTEX
  8
┌▓È_1
  5
720
 10
248.291
 20
-294.528
 30
0.000000
  70
    32
  0
VERTEX
  8
┌▓È_1
  5
721
 10
248.345
 20
-294.545
 30
0.000000
  70
    32
  0
VERTEX
  8
┌▓È_1
  5
722
 10
248.399
 20
-294.561
 30
0.000000
  70
    32
  0
VERTEX
  8
┌▓È_1
  5
723
 10
248.453
 20
-294.578
 30
0.000000
  70
    32
  0
VERTEX
  8
┌▓È_1
  5
724
 10
248.508
 20
-294.594
 30
0.000000
  70
    32
  0
VERTEX
  8
┌▓È_1
  5
725
 10
248.562
 20
-294.610
 30
0.000000
  70
    32
  0
VERTEX
  8
┌▓È_1
  5
726
 10
248.616
 20
-294.627
 30
0.000000
  70
    32
  0
VERTEX
  8
┌▓È_1
  5
727
 10
248.670
 20
-294.643
 30
0.000000
  70
    32
  0
VERTEX
  8
┌▓È_1
  5
728
 10
248.725
 20
-294.659
 30
0.000000
  70
    32
  0
VERTEX
  8
┌▓È_1
  5
729
 10
248.779
 20
-294.675
 30
0.000000
  70
    32
  0
VERTEX
  8
┌▓È_1
  5
72A
 10
248.834
 20
-294.691
 30
0.000000
  70
    32
  0
VERTEX
  8
┌▓È_1
  5
72B
 10
248.888
 20
-294.707
 30
0.000000
  70
    32
  0
VERTEX
  8
┌▓È_1
  5
72C
 10
248.943
 20
-294.723
 30
0.000000
  70
    32
  0
VERTEX
  8
┌▓È_1
  5
72D
 10
248.998
 20
-294.739
 30
0.000000
  70
    32
  0
VERTEX
  8
┌▓È_1
  5
72E
 10
249.052
 20
-294.754
 30
0.000000
  70
    32
  0
VERTEX
  8
┌▓È_1
  5
72F
 10
249.107
 20
-294.770
 30
0.000000
  70
    32
  0
VERTEX
  8
┌▓È_1
  5
730
 10
249.162
 20
-294.785
 30
0.000000
  70
    32
  0
VERTEX
  8
┌▓È_1
  5
731
 10
249.216
 20
-294.801
 30
0.000000
  70
    32
  0
VERTEX
  8
┌▓È_1
  5
732
 10
249.271
 20
-294.816
 30
0.000000
  70
    32
  0
VERTEX
  8
┌▓È_1
  5
733
 10
249.326
 20
-294.832
 30
0.000000
  70
    32
  0
VERTEX
  8
┌▓È_1
  5
734
 10
249.381
 20
-294.847
 30
0.000000
  70
    32
  0
VERTEX
  8
┌▓È_1
  5
735
 10
249.436
 20
-294.862
 30
0.000000
  70
    32
  0
VERTEX
  8
┌▓È_1
  5
736
 10
249.491
 20
-294.877
 30
0.000000
  70
    32
  0
VERTEX
  8
┌▓È_1
  5
737
 10
249.546
 20
-294.892
 30
0.000000
  70
    32
  0
VERTEX
  8
┌▓È_1
  5
738
 10
249.601
 20
-294.907
 30
0.000000
  70
    32
  0
VERTEX
  8
┌▓È_1
  5
739
 10
249.656
 20
-294.922
 30
0.000000
  70
    32
  0
VERTEX
  8
┌▓È_1
  5
73A
 10
249.711
 20
-294.937
 30
0.000000
  70
    32
  0
VERTEX
  8
┌▓È_1
  5
73B
 10
249.766
 20
-294.952
 30
0.000000
  70
    32
  0
VERTEX
  8
┌▓È_1
  5
73C
 10
249.821
 20
-294.966
 30
0.000000
  70
    32
  0
VERTEX
  8
┌▓È_1
  5
73D
 10
249.876
 20
-294.981
 30
0.000000
  70
    32
  0
VERTEX
  8
┌▓È_1
  5
73E
 10
249.932
 20
-294.996
 30
0.000000
  70
    32
  0
VERTEX
  8
┌▓È_1
  5
73F
 10
249.987
 20
-295.010
 30
0.000000
  70
    32
  0
VERTEX
  8
┌▓È_1
  5
740
 10
250.042
 20
-295.025
 30
0.000000
  70
    32
  0
VERTEX
  8
┌▓È_1
  5
741
 10
250.097
 20
-295.039
 30
0.000000
  70
    32
  0
VERTEX
  8
┌▓È_1
  5
742
 10
250.153
 20
-295.054
 30
0.000000
  70
    32
  0
VERTEX
  8
┌▓È_1
  5
743
 10
250.208
 20
-295.068
 30
0.000000
  70
    32
  0
VERTEX
  8
┌▓È_1
  5
744
 10
250.264
 20
-295.082
 30
0.000000
  70
    32
  0
VERTEX
  8
┌▓È_1
  5
745
 10
250.319
 20
-295.096
 30
0.000000
  70
    32
  0
VERTEX
  8
┌▓È_1
  5
746
 10
250.374
 20
-295.110
 30
0.000000
  70
    32
  0
VERTEX
  8
┌▓È_1
  5
747
 10
250.430
 20
-295.124
 30
0.000000
  70
    32
  0
VERTEX
  8
┌▓È_1
  5
748
 10
250.485
 20
-295.139
 30
0.000000
  70
    32
  0
VERTEX
  8
┌▓È_1
  5
749
 10
250.541
 20
-295.152
 30
0.000000
  70
    32
  0
VERTEX
  8
┌▓È_1
  5
74A
 10
250.597
 20
-295.166
 30
0.000000
  70
    32
  0
VERTEX
  8
┌▓È_1
  5
74B
 10
250.652
 20
-295.180
 30
0.000000
  70
    32
  0
VERTEX
  8
┌▓È_1
  5
74C
 10
250.708
 20
-295.194
 30
0.000000
  70
    32
  0
VERTEX
  8
┌▓È_1
  5
74D
 10
250.764
 20
-295.208
 30
0.000000
  70
    32
  0
VERTEX
  8
┌▓È_1
  5
74E
 10
250.819
 20
-295.222
 30
0.000000
  70
    32
  0
VERTEX
  8
┌▓È_1
  5
74F
 10
250.875
 20
-295.235
 30
0.000000
  70
    32
  0
VERTEX
  8
┌▓È_1
  5
750
 10
250.931
 20
-295.249
 30
0.000000
  70
    32
  0
VERTEX
  8
┌▓È_1
  5
751
 10
250.987
 20
-295.262
 30
0.000000
  70
    32
  0
VERTEX
  8
┌▓È_1
  5
752
 10
251.042
 20
-295.276
 30
0.000000
  70
    32
  0
VERTEX
  8
┌▓È_1
  5
753
 10
251.098
 20
-295.289
 30
0.000000
  70
    32
  0
VERTEX
  8
┌▓È_1
  5
754
 10
251.154
 20
-295.303
 30
0.000000
  70
    32
  0
VERTEX
  8
┌▓È_1
  5
755
 10
251.210
 20
-295.316
 30
0.000000
  70
    32
  0
VERTEX
  8
┌▓È_1
  5
756
 10
251.266
 20
-295.329
 30
0.000000
  70
    32
  0
VERTEX
  8
┌▓È_1
  5
757
 10
251.322
 20
-295.343
 30
0.000000
  70
    32
  0
VERTEX
  8
┌▓È_1
  5
758
 10
251.378
 20
-295.356
 30
0.000000
  70
    32
  0
VERTEX
  8
┌▓È_1
  5
759
 10
251.434
 20
-295.369
 30
0.000000
  70
    32
  0
VERTEX
  8
┌▓È_1
  5
75A
 10
251.490
 20
-295.382
 30
0.000000
  70
    32
  0
VERTEX
  8
┌▓È_1
  5
75B
 10
251.546
 20
-295.395
 30
0.000000
  70
    32
  0
VERTEX
  8
┌▓È_1
  5
75C
 10
251.602
 20
-295.409
 30
0.000000
  70
    32
  0
VERTEX
  8
┌▓È_1
  5
75D
 10
251.658
 20
-295.422
 30
0.000000
  70
    32
  0
VERTEX
  8
┌▓È_1
  5
75E
 10
251.714
 20
-295.435
 30
0.000000
  70
    32
  0
VERTEX
  8
┌▓È_1
  5
75F
 10
251.770
 20
-295.447
 30
0.000000
  70
    32
  0
VERTEX
  8
┌▓È_1
  5
760
 10
251.826
 20
-295.460
 30
0.000000
  70
    32
  0
VERTEX
  8
┌▓È_1
  5
761
 10
251.883
 20
-295.473
 30
0.000000
  70
    32
  0
VERTEX
  8
┌▓È_1
  5
762
 10
251.939
 20
-295.486
 30
0.000000
  70
    32
  0
VERTEX
  8
┌▓È_1
  5
763
 10
251.995
 20
-295.499
 30
0.000000
  70
    32
  0
VERTEX
  8
┌▓È_1
  5
764
 10
252.051
 20
-295.512
 30
0.000000
  70
    32
  0
VERTEX
  8
┌▓È_1
  5
765
 10
252.107
 20
-295.524
 30
0.000000
  70
    32
  0
VERTEX
  8
┌▓È_1
  5
766
 10
252.164
 20
-295.537
 30
0.000000
  70
    32
  0
VERTEX
  8
┌▓È_1
  5
767
 10
252.220
 20
-295.550
 30
0.000000
  70
    32
  0
VERTEX
  8
┌▓È_1
  5
768
 10
252.276
 20
-295.562
 30
0.000000
  70
    32
  0
VERTEX
  8
┌▓È_1
  5
769
 10
252.333
 20
-295.575
 30
0.000000
  70
    32
  0
VERTEX
  8
┌▓È_1
  5
76A
 10
252.389
 20
-295.587
 30
0.000000
  70
    32
  0
VERTEX
  8
┌▓È_1
  5
76B
 10
252.445
 20
-295.600
 30
0.000000
  70
    32
  0
VERTEX
  8
┌▓È_1
  5
76C
 10
252.502
 20
-295.612
 30
0.000000
  70
    32
  0
VERTEX
  8
┌▓È_1
  5
76D
 10
252.558
 20
-295.625
 30
0.000000
  70
    32
  0
VERTEX
  8
┌▓È_1
  5
76E
 10
252.614
 20
-295.637
 30
0.000000
  70
    32
  0
VERTEX
  8
┌▓È_1
  5
76F
 10
252.671
 20
-295.650
 30
0.000000
  70
    32
  0
VERTEX
  8
┌▓È_1
  5
770
 10
252.727
 20
-295.662
 30
0.000000
  70
    32
  0
VERTEX
  8
┌▓È_1
  5
771
 10
252.784
 20
-295.674
 30
0.000000
  70
    32
  0
VERTEX
  8
┌▓È_1
  5
772
 10
252.840
 20
-295.687
 30
0.000000
  70
    32
  0
VERTEX
  8
┌▓È_1
  5
773
 10
252.897
 20
-295.699
 30
0.000000
  70
    32
  0
VERTEX
  8
┌▓È_1
  5
774
 10
252.953
 20
-295.711
 30
0.000000
  70
    32
  0
VERTEX
  8
┌▓È_1
  5
775
 10
253.010
 20
-295.724
 30
0.000000
  70
    32
  0
VERTEX
  8
┌▓È_1
  5
776
 10
253.066
 20
-295.736
 30
0.000000
  70
    32
  0
VERTEX
  8
┌▓È_1
  5
777
 10
253.123
 20
-295.748
 30
0.000000
  70
    32
  0
VERTEX
  8
┌▓È_1
  5
778
 10
253.179
 20
-295.760
 30
0.000000
  70
    32
  0
VERTEX
  8
┌▓È_1
  5
779
 10
253.236
 20
-295.772
 30
0.000000
  70
    32
  0
VERTEX
  8
┌▓È_1
  5
77A
 10
253.292
 20
-295.784
 30
0.000000
  70
    32
  0
VERTEX
  8
┌▓È_1
  5
77B
 10
253.349
 20
-295.797
 30
0.000000
  70
    32
  0
VERTEX
  8
┌▓È_1
  5
77C
 10
253.405
 20
-295.809
 30
0.000000
  70
    32
  0
VERTEX
  8
┌▓È_1
  5
77D
 10
253.462
 20
-295.821
 30
0.000000
  70
    32
  0
VERTEX
  8
┌▓È_1
  5
77E
 10
253.519
 20
-295.833
 30
0.000000
  70
    32
  0
VERTEX
  8
┌▓È_1
  5
77F
 10
253.575
 20
-295.845
 30
0.000000
  70
    32
  0
VERTEX
  8
┌▓È_1
  5
780
 10
253.632
 20
-295.857
 30
0.000000
  70
    32
  0
VERTEX
  8
┌▓È_1
  5
781
 10
253.689
 20
-295.869
 30
0.000000
  70
    32
  0
VERTEX
  8
┌▓È_1
  5
782
 10
253.745
 20
-295.881
 30
0.000000
  70
    32
  0
VERTEX
  8
┌▓È_1
  5
783
 10
253.802
 20
-295.893
 30
0.000000
  70
    32
  0
VERTEX
  8
┌▓È_1
  5
784
 10
253.858
 20
-295.905
 30
0.000000
  70
    32
  0
VERTEX
  8
┌▓È_1
  5
785
 10
253.915
 20
-295.917
 30
0.000000
  70
    32
  0
VERTEX
  8
┌▓È_1
  5
786
 10
253.972
 20
-295.929
 30
0.000000
  70
    32
  0
VERTEX
  8
┌▓È_1
  5
787
 10
254.029
 20
-295.940
 30
0.000000
  70
    32
  0
VERTEX
  8
┌▓È_1
  5
788
 10
254.085
 20
-295.952
 30
0.000000
  70
    32
  0
VERTEX
  8
┌▓È_1
  5
789
 10
254.142
 20
-295.964
 30
0.000000
  70
    32
  0
VERTEX
  8
┌▓È_1
  5
78A
 10
254.199
 20
-295.976
 30
0.000000
  70
    32
  0
VERTEX
  8
┌▓È_1
  5
78B
 10
254.255
 20
-295.988
 30
0.000000
  70
    32
  0
VERTEX
  8
┌▓È_1
  5
78C
 10
254.312
 20
-296.000
 30
0.000000
  70
    32
  0
VERTEX
  8
┌▓È_1
  5
78D
 10
254.369
 20
-296.012
 30
0.000000
  70
    32
  0
VERTEX
  8
┌▓È_1
  5
78E
 10
254.425
 20
-296.024
 30
0.000000
  70
    32
  0
VERTEX
  8
┌▓È_1
  5
78F
 10
254.482
 20
-296.035
 30
0.000000
  70
    32
  0
VERTEX
  8
┌▓È_1
  5
790
 10
254.539
 20
-296.047
 30
0.000000
  70
    32
  0
VERTEX
  8
┌▓È_1
  5
791
 10
254.596
 20
-296.059
 30
0.000000
  70
    32
  0
VERTEX
  8
┌▓È_1
  5
792
 10
254.652
 20
-296.071
 30
0.000000
  70
    32
  0
VERTEX
  8
┌▓È_1
  5
793
 10
254.709
 20
-296.083
 30
0.000000
  70
    32
  0
VERTEX
  8
┌▓È_1
  5
794
 10
254.766
 20
-296.094
 30
0.000000
  70
    32
  0
VERTEX
  8
┌▓È_1
  5
795
 10
254.823
 20
-296.106
 30
0.000000
  70
    32
  0
VERTEX
  8
┌▓È_1
  5
796
 10
254.879
 20
-296.118
 30
0.000000
  70
    32
  0
VERTEX
  8
┌▓È_1
  5
797
 10
254.936
 20
-296.130
 30
0.000000
  70
    32
  0
VERTEX
  8
┌▓È_1
  5
798
 10
254.993
 20
-296.142
 30
0.000000
  70
    32
  0
VERTEX
  8
┌▓È_1
  5
799
 10
255.050
 20
-296.153
 30
0.000000
  70
    32
  0
SEQEND
  8
┌▓È_1
  5
79A
  0
INSERT
  5
162
  8
0
  6
CONTINUOUS
  2
*U43
 10
0.0
 20
0.0
 30
0.0
  0
LINE
  5
163
  8
┌▓È_1
 10
216.40703124999999
 20
-234.72382812500001
 30
0.0
 11
216.40703124999999
 21
-256.72382812500001
 31
0.0
  0
LINE
  5
164
  8
┌▓È_1
 62
     5
 10
228.72832422659999
 20
-290.1534821912
 30
0.0
 11
228.72832422659999
 21
-289.1534821912
 31
0.0
  0
ARC
  5
165
  8
┌▓È_1
 62
     5
 10
220.72832422659999
 20
-290.1534821912
 30
0.0
 40
3.0
 50
270.0
 51
0.0
  0
LINE
  5
166
  8
┌▓È_1
 62
     5
 10
214.72832422659999
 20
-296.1534821912
 30
0.0
 11
222.72832422659999
 21
-296.1534821912
 31
0.0
  0
LINE
  5
167
  8
┌▓È_1
 62
     5
 10
219.72832422659999
 20
-289.1534821912
 30
0.0
 11
223.72832422659999
 21
-289.1534821912
 31
0.0
  0
ARC
  5
168
  8
┌▓È_1
 62
     5
 10
222.72832422659999
 20
-290.1534821912
 30
0.0
 40
6.0
 50
270.0
 51
0.0
  0
LINE
  5
169
  8
┌▓È_1
 62
     5
 10
231.72832422659999
 20
-282.1534821912
 30
0.0
 11
223.72832422659999
 21
-282.1534821912
 31
0.0
  0
LINE
  5
16A
  8
┌▓È_1
 62
     5
 10
231.72832422659999
 20
-286.1534821912
 30
0.0
 11
231.72832422659999
 21
-289.1534821912
 31
0.0
  0
LINE
  5
16B
  8
┌▓È_1
 62
     5
 10
212.42611660349999
 20
-286.1534821912
 30
0.0
 11
212.42611660349999
 21
-289.1534821912
 31
0.0
  0
LINE
  5
16C
  8
┌▓È_1
 62
     5
 10
223.72832422659999
 20
-289.1534821912
 30
0.0
 11
223.72832422659999
 21
-290.1534821912
 31
0.0
  0
INSERT
  5
16D
  8
0
  6
CONTINUOUS
  2
*U44
 10
0.0
 20
0.0
 30
0.0
  0
INSERT
  5
16E
  8
0
  6
CONTINUOUS
  2
*U45
 10
0.0
 20
0.0
 30
0.0
  0
INSERT
  5
16F
  8
0
  6
CONTINUOUS
  2
*U46
 10
0.0
 20
0.0
 30
0.0
  0
LINE
  5
170
  8
┌▓È_1
 10
136.40703124999999
 20
-234.72382812500001
 30
0.0
 11
136.40703124999999
 21
-300.72382812500001
 31
0.0
  0
LINE
  5
171
  8
┌▓È_1
 10
260.40703124999999
 20
-234.72382812500001
 30
0.0
 11
260.40703124999999
 21
-174.72382812500001
 31
0.0
  0
LINE
  5
172
  8
┌▓È_1
 62
     5
 10
269.85364185600002
 20
-284.5360244103
 30
0.0
 11
271.48450164439998
 21
-282.1534821912
 31
0.0
  0
LINE
  5
173
  8
┌▓È_1
 62
     5
 10
259.48450164439998
 20
-285.55348219119998
 30
0.0
 11
264.48183497770009
 21
-285.55348219119998
 31
0.0
  0
LINE
  5
174
  8
┌▓È_1
 62
     5
 10
259.48450164439998
 20
-290.75348219120002
 30
0.0
 11
259.48450164439998
 21
-294.35348219119999
 31
0.0
  0
LINE
  5
175
  8
┌▓È_1
 62
     5
 10
259.48450164439998
 20
-289.1534821912
 30
0.0
 11
265.53783497770002
 21
-289.1534821912
 31
0.0
  0
LINE
  5
176
  8
┌▓È_1
 62
     5
 10
277.48450164439998
 20
-285.55348219119998
 30
0.0
 11
277.48450164439998
 21
-289.1534821912
 31
0.0
  0
LINE
  5
177
  8
┌▓È_1
 62
     5
 10
267.88450164440002
 20
-297.1534821912
 30
0.0
 11
267.06316831100003
 21
-294.35348219119999
 31
0.0
  0
LINE
  5
178
  8
┌▓È_1
 62
     5
 10
271.64280714069997
 20
-290.75348219120002
 30
0.0
 11
271.18238351479999
 21
-289.1534821912
 31
0.0
  0
LINE
  5
179
  8
┌▓È_1
 62
     5
 10
259.48450164439998
 20
-290.75348219120002
 30
0.0
 11
266.00716831099999
 21
-290.75348219120002
 31
0.0
  0
ARC
  5
17A
  8
┌▓È_1
 62
     5
 10
242.0495363478
 20
-285.1534821912
 30
0.0
 40
11.0
 50
270.0
 51
302.54495885400001
  0
INSERT
  5
17B
  8
0
  6
CONTINUOUS
  2
*U47
 10
0.0
 20
0.0
 30
0.0
  0
INSERT
  5
17C
  8
0
  6
CONTINUOUS
  2
*U48
 10
0.0
 20
0.0
 30
0.0
  0
LINE
  5
17D
  8
┌▓È_1
 10
141.4070312499999
 20
-267.72382812500001
 30
0.0
 11
211.40703124999999
 21
-267.72382812500001
 31
0.0
  0
LINE
  5
17E
  8
┌▓È_1
 10
181.40703124999999
 20
-245.72382812500001
 30
0.0
 11
211.40703124999999
 21
-245.72382812500001
 31
0.0
  0
LINE
  5
17F
  8
┌▓È_1
 10
141.4070312499999
 20
-245.72382812500001
 30
0.0
 11
171.40703124999999
 21
-245.72382812500001
 31
0.0
  0
LINE
  5
180
  8
┌▓È_1
 62
     5
 10
214.72832422659999
 20
-289.1534821912
 30
0.0
 11
214.72832422659999
 21
-292.1534821912
 31
0.0
  0
LINE
  5
181
  8
┌▓È_1
 62
     5
 10
228.72832422659999
 20
-286.1534821912
 30
0.0
 11
228.72832422659999
 21
-285.1534821912
 31
0.0
  0
LINE
  5
182
  8
┌▓È_1
 62
     5
 10
231.72832422659999
 20
-286.1534821912
 30
0.0
 11
228.72832422659999
 21
-286.1534821912
 31
0.0
  0
LINE
  5
183
  8
┌▓È_1
 62
     5
 10
219.72832422659999
 20
-292.1534821912
 30
0.0
 11
219.72832422659999
 21
-289.1534821912
 31
0.0
  0
LINE
  5
184
  8
┌▓È_1
 62
     5
 10
220.72832422659999
 20
-293.1534821912
 30
0.0
 11
214.72832422659999
 21
-293.1534821912
 31
0.0
  0
LINE
  5
185
  8
┌▓È_1
 62
     5
 10
212.42611660349999
 20
-289.1534821912
 30
0.0
 11
214.42611660349999
 21
-289.1534821912
 31
0.0
  0
LINE
  5
186
  8
┌▓È_1
 62
     5
 10
228.72832422659999
 20
-289.1534821912
 30
0.0
 11
231.72832422659999
 21
-289.1534821912
 31
0.0
  0
LINE
  5
187
  8
┌▓È_1
 62
     5
 10
214.72832422659999
 20
-293.1534821912
 30
0.0
 11
214.72832422659999
 21
-296.1534821912
 31
0.0
  0
LINE
  5
188
  8
┌▓È_1
 62
     5
 10
214.72832422659999
 20
-289.1534821912
 30
0.0
 11
214.42611660349999
 21
-289.1534821912
 31
0.0
  0
LINE
  5
189
  8
┌▓È_1
 62
     5
 10
214.72832422659999
 20
-286.1534821912
 30
0.0
 11
212.42611660349999
 21
-286.1534821912
 31
0.0
  0
LINE
  5
18A
  8
┌▓È_1
 62
     5
 10
223.72832422659999
 20
-282.1534821912
 30
0.0
 11
223.72832422659999
 21
-286.1534821912
 31
0.0
  0
LINE
  5
18B
  8
┌▓È_1
 62
     5
 10
219.72832422659999
 20
-286.1534821912
 30
0.0
 11
219.72832422659999
 21
-285.1534821912
 31
0.0
  0
LINE
  5
18C
  8
┌▓È_1
 62
     5
 10
228.72832422659999
 20
-285.1534821912
 30
0.0
 11
231.72832422659999
 21
-282.1534821912
 31
0.0
  0
LINE
  5
18D
  8
┌▓È_1
 62
     5
 10
214.72832422659999
 20
-292.1534821912
 30
0.0
 11
219.72832422659999
 21
-292.1534821912
 31
0.0
  0
LINE
  5
18E
  8
┌▓È_1
 10
176.40703124999999
 20
-234.72382812500001
 30
0.0
 11
176.40703124999999
 21
-256.72382812500001
 31
0.0
  0
LINE
  5
18F
  8
┌▓È_1
 10
216.40703124999999
 20
-256.72382812500001
 30
0.0
 11
216.40703124999999
 21
-278.72382812500001
 31
0.0
  0
LINE
  5
190
  8
┌▓È_1
 62
     5
 10
214.72832422659999
 20
-282.1534821912
 30
0.0
 11
214.72832422659999
 21
-286.1534821912
 31
0.0
  0
LINE
  5
191
  8
┌▓È_1
 62
     5
 10
219.72832422659999
 20
-285.1534821912
 30
0.0
 11
222.72832422659999
 21
-282.1534821912
 31
0.0
  0
LINE
  5
192
  8
┌▓È_1
 62
     5
 10
222.72832422659999
 20
-282.1534821912
 30
0.0
 11
214.72832422659999
 21
-282.1534821912
 31
0.0
  0
LINE
  5
193
  8
┌▓È_1
 62
     5
 10
223.72832422659999
 20
-286.1534821912
 30
0.0
 11
219.72832422659999
 21
-286.1534821912
 31
0.0
  0
LINE
  5
194
  8
1
 62
     5
 10
-1.5857882688999989
 20
8.5536458332999992
 30
0.0
 11
0.8622117311000001
 21
8.5536458332999992
 31
0.0
  0
LINE
  5
195
  8
1
 62
     5
 10
-5.0377882688999991
 20
8.2536458333000002
 30
0.0
 11
-1.937788268899999
 21
8.2536458333000002
 31
0.0
  0
ARC
  5
196
  8
1
 62
     5
 10
-2.3517882689
 20
48.553645833300003
 30
0.0
 40
1.3
 50
90.0
 51
180.0
  0
LINE
  5
197
  8
1
 62
     5
 10
-2.3517882689
 20
49.853645833299993
 30
0.0
 11
-1.3517882688999989
 21
49.853645833299993
 31
0.0
  0
ARC
  5
198
  8
1
 62
     5
 10
-1.3517882688999989
 20
48.553645833300003
 30
0.0
 40
1.0
 50
270.0
 51
90.0
  0
ARC
  5
199
  8
1
 62
     5
 10
-1.3517882688999989
 20
48.553645833300003
 30
0.0
 40
1.3
 50
0.0
 51
90.0
  0
ARC
  5
19A
  8
1
 62
     5
 10
0.5482117311
 20
48.553645833300003
 30
0.0
 40
0.6
 50
180.0
 51
270.0
  0
ARC
  5
19B
  8
1
 62
     5
 10
0.5482117311
 20
48.553645833300003
 30
0.0
 40
0.9
 50
179.99000000000001
 51
273.00999999999999
  0
ARC
  5
19C
  8
1
 62
     5
 10
-2.3517882689
 20
48.553645833300003
 30
0.0
 40
1.0
 50
90.0
 51
270.0
  0
LINE
  5
19D
  8
1
 62
     5
 10
-2.397788268899999
 20
47.5546458333
 30
0.0
 11
-3.7997882688999991
 21
47.6186458333
 31
0.0
  0
LINE
  5
19E
  8
1
 62
     5
 10
-2.3517882689
 20
47.553645833300003
 30
0.0
 11
-1.3517882688999989
 21
47.553645833300003
 31
0.0
  0
LINE
  5
19F
  8
1
 62
     5
 10
-1.2987882689000001
 20
47.555645833299991
 30
0.0
 11
0.5962117311
 21
47.654645833300002
 31
0.0
  0
LINE
  5
1A0
  8
1
 62
     5
 10
0.5472117311
 20
47.953645833300001
 30
0.0
 11
3.6482117310999991
 21
47.953645833300001
 31
0.0
  0
LINE
  5
1A1
  8
1
 62
     5
 10
-2.3517882689
 20
49.553645833300003
 30
0.0
 11
-1.3517882688999989
 21
49.553645833300003
 31
0.0
  0
INSERT
  5
1A2
  8
0
  6
CONTINUOUS
  2
*U49
 10
0.0
 20
0.0
 30
0.0
  0
INSERT
  5
1A3
  8
0
  6
CONTINUOUS
  2
*U50
 10
0.0
 20
0.0
 30
0.0
  0
INSERT
  5
1A4
  8
0
  6
CONTINUOUS
  2
*U51
 10
0.0
 20
0.0
 30
0.0
  0
INSERT
  5
1A5
  8
0
  6
CONTINUOUS
  2
*U52
 10
0.0
 20
0.0
 30
0.0
  0
INSERT
  5
1A6
  8
0
  6
CONTINUOUS
  2
*U53
 10
0.0
 20
0.0
 30
0.0
  0
LINE
  5
1A7
  8
┌▓È_1
 10
136.40703124999999
 20
-234.72382812500001
 30
0.0
 11
136.40703124999999
 21
-174.72382812500001
 31
0.0
  0
INSERT
  5
1A8
  8
0
  6
CONTINUOUS
  2
*U54
 10
0.0
 20
0.0
 30
0.0
  0
INSERT
  5
1A9
  8
0
  6
CONTINUOUS
  2
*U55
 10
0.0
 20
0.0
 30
0.0
  0
INSERT
  5
1AA
  8
0
  6
CONTINUOUS
  2
*U56
 10
0.0
 20
0.0
 30
0.0
  0
LINE
  5
1AB
  8
┌▓È_1
 10
156.40703124999999
 20
-234.72382812500001
 30
0.0
 11
156.40703124999999
 21
-174.72382812500001
 31
0.0
  0
INSERT
  5
1AC
  8
0
  6
CONTINUOUS
  2
*U57
 10
0.0
 20
0.0
 30
0.0
  0
ARC
  5
1AD
  8
1
 62
     5
 10
-61.473843438599999
 20
7.6536458332999997
 30
0.0
 40
0.9
 50
0.0
 51
90.0
  0
LINE
  5
1AE
  8
1
 62
     5
 10
-56.373843438599991
 20
8.2536458333000002
 30
0.0
 11
-53.273843438599997
 21
8.2536458333000002
 31
0.0
  0
ARC
  5
1AF
  8
1
 62
     5
 10
-56.373843438599991
 20
7.6536458332999997
 30
0.0
 40
0.6
 50
90.0
 51
180.0
  0
ARC
  5
1B0
  8
1
 62
     5
 10
-58.273843438599997
 20
7.6536458332999997
 30
0.0
 40
1.3
 50
270.0
 51
0.0
  0
LINE
  5
1B1
  8
1
 62
     5
 10
-52.9218434386
 20
8.5536458332999992
 30
0.0
 11
-50.473843438599999
 21
8.5536458332999992
 31
0.0
  0
LINE
  5
1B2
  8
1
 62
     5
 10
-53.273843438599997
 20
8.2536458333000002
 30
0.0
 11
-52.9218434386
 21
8.5536458332999992
 31
0.0
  0
LINE
  5
1B3
  8
1
 62
     5
 10
-58.687843438599991
 20
47.953645833300001
 30
0.0
 11
-58.335843438600001
 21
47.653645833299997
 31
0.0
  0
LINE
  5
1B4
  8
1
 62
     5
 10
-61.7878434386
 20
47.953645833300001
 30
0.0
 11
-58.687843438599991
 21
47.953645833300001
 31
0.0
  0
LINE
  5
1B5
  8
1
 62
     5
 10
-58.687843438599991
 20
47.953645833300001
 30
0.0
 11
-58.335843438600001
 21
47.653645833299997
 31
0.0
  0
LINE
  5
1B6
  8
1
 62
     5
 10
-61.7878434386
 20
47.953645833300001
 30
0.0
 11
-58.687843438599991
 21
47.953645833300001
 31
0.0
  0
LINE
  5
1B7
  8
1
 62
     5
 10
-59.676728238599999
 20
28.1036458333
 30
0.0
 11
-56.969745838599998
 21
7.7236458332999991
 31
0.0
  0
LINE
  5
1B8
  8
1
 62
     5
 10
-59.676728238599999
 20
28.1036458333
 30
0.0
 11
-56.969745838599998
 21
7.7236458332999991
 31
0.0
  0
LINE
  5
1B9
  8
1
 62
     5
 10
-56.373843438599991
 20
8.2536458333000002
 30
0.0
 11
-53.273843438599997
 21
8.2536458333000002
 31
0.0
  0
ARC
  5
1BA
  8
1
 62
     5
 10
-56.373843438599991
 20
7.6536458332999997
 30
0.0
 40
0.6
 50
90.0
 51
180.0
  0
ARC
  5
1BB
  8
1
 62
     5
 10
-58.273843438599997
 20
7.6536458332999997
 30
0.0
 40
1.3
 50
270.0
 51
0.0
  0
ARC
  5
1BC
  8
1
 62
     5
 10
-61.7878434386
 20
48.553645833300003
 30
0.0
 40
0.6
 50
180.0
 51
270.0
  0
LINE
  5
1BD
  8
1
 62
     5
 10
-59.273843438599997
 20
6.3536458332999999
 30
0.0
 11
-58.273843438599997
 21
6.3536458332999999
 31
0.0
  0
ARC
  5
1BE
  8
1
 62
     5
 10
-61.473843438599999
 20
7.6536458332999997
 30
0.0
 40
0.9
 50
0.0
 51
90.0
  0
POLYLINE
  8
┌▓È_1
  5
79B
  66
     1
 10
0.000000
 20
0.000000
 30
0.000000
  70
     8
  0
VERTEX
  8
┌▓È_1
  5
79C
 10
-30.7036
 20
62.3593
 30
0.000000
  70
    32
  0
VERTEX
  8
┌▓È_1
  5
79D
 10
-30.9509
 20
62.0029
 30
0.000000
  70
    32
  0
VERTEX
  8
┌▓È_1
  5
79E
 10
-31.1980
 20
61.6465
 30
0.000000
  70
    32
  0
VERTEX
  8
┌▓È_1
  5
79F
 10
-31.4447
 20
61.2901
 30
0.000000
  70
    32
  0
VERTEX
  8
┌▓È_1
  5
7A0
 10
-31.6910
 20
60.9338
 30
0.000000
  70
    32
  0
VERTEX
  8
┌▓È_1
  5
7A1
 10
-31.9365
 20
60.5775
 30
0.000000
  70
    32
  0
VERTEX
  8
┌▓È_1
  5
7A2
 10
-32.1812
 20
60.2213
 30
0.000000
  70
    32
  0
VERTEX
  8
┌▓È_1
  5
7A3
 10
-32.4248
 20
59.8652
 30
0.000000
  70
    32
  0
VERTEX
  8
┌▓È_1
  5
7A4
 10
-32.6672
 20
59.5092
 30
0.000000
  70
    32
  0
VERTEX
  8
┌▓È_1
  5
7A5
 10
-32.9081
 20
59.1533
 30
0.000000
  70
    32
  0
VERTEX
  8
┌▓È_1
  5
7A6
 10
-33.1476
 20
58.7975
 30
0.000000
  70
    32
  0
VERTEX
  8
┌▓È_1
  5
7A7
 10
-33.3852
 20
58.4419
 30
0.000000
  70
    32
  0
VERTEX
  8
┌▓È_1
  5
7A8
 10
-33.6210
 20
58.0864
 30
0.000000
  70
    32
  0
VERTEX
  8
┌▓È_1
  5
7A9
 10
-33.8546
 20
57.7310
 30
0.000000
  70
    32
  0
VERTEX
  8
┌▓È_1
  5
7AA
 10
-34.0860
 20
57.3759
 30
0.000000
  70
    32
  0
VERTEX
  8
┌▓È_1
  5
7AB
 10
-34.3149
 20
57.0209
 30
0.000000
  70
    32
  0
VERTEX
  8
┌▓È_1
  5
7AC
 10
-34.5412
 20
56.6662
 30
0.000000
  70
    32
  0
VERTEX
  8
┌▓È_1
  5
7AD
 10
-34.7647
 20
56.3116
 30
0.000000
  70
    32
  0
VERTEX
  8
┌▓È_1
  5
7AE
 10
-34.9852
 20
55.9573
 30
0.000000
  70
    32
  0
VERTEX
  8
┌▓È_1
  5
7AF
 10
-35.2026
 20
55.6033
 30
0.000000
  70
    32
  0
VERTEX
  8
┌▓È_1
  5
7B0
 10
-35.4166
 20
55.2495
 30
0.000000
  70
    32
  0
VERTEX
  8
┌▓È_1
  5
7B1
 10
-35.6272
 20
54.8959
 30
0.000000
  70
    32
  0
VERTEX
  8
┌▓È_1
  5
7B2
 10
-35.8340
 20
54.5427
 30
0.000000
  70
    32
  0
VERTEX
  8
┌▓È_1
  5
7B3
 10
-36.0371
 20
54.1898
 30
0.000000
  70
    32
  0
VERTEX
  8
┌▓È_1
  5
7B4
 10
-36.2361
 20
53.8371
 30
0.000000
  70
    32
  0
VERTEX
  8
┌▓È_1
  5
7B5
 10
-36.4309
 20
53.4848
 30
0.000000
  70
    32
  0
VERTEX
  8
┌▓È_1
  5
7B6
 10
-36.6213
 20
53.1329
 30
0.000000
  70
    32
  0
VERTEX
  8
┌▓È_1
  5
7B7
 10
-36.8072
 20
52.7813
 30
0.000000
  70
    32
  0
VERTEX
  8
┌▓È_1
  5
7B8
 10
-36.9884
 20
52.4301
 30
0.000000
  70
    32
  0
VERTEX
  8
┌▓È_1
  5
7B9
 10
-37.1646
 20
52.0792
 30
0.000000
  70
    32
  0
VERTEX
  8
┌▓È_1
  5
7BA
 10
-37.3358
 20
51.7288
 30
0.000000
  70
    32
  0
VERTEX
  8
┌▓È_1
  5
7BB
 10
-37.5018
 20
51.3787
 30
0.000000
  70
    32
  0
VERTEX
  8
┌▓È_1
  5
7BC
 10
-37.6623
 20
51.0291
 30
0.000000
  70
    32
  0
VERTEX
  8
┌▓È_1
  5
7BD
 10
-37.8172
 20
50.6800
 30
0.000000
  70
    32
  0
VERTEX
  8
┌▓È_1
  5
7BE
 10
-37.9663
 20
50.3312
 30
0.000000
  70
    32
  0
VERTEX
  8
┌▓È_1
  5
7BF
 10
-38.1096
 20
49.9830
 30
0.000000
  70
    32
  0
VERTEX
  8
┌▓È_1
  5
7C0
 10
-38.2466
 20
49.6352
 30
0.000000
  70
    32
  0
VERTEX
  8
┌▓È_1
  5
7C1
 10
-38.3774
 20
49.2879
 30
0.000000
  70
    32
  0
VERTEX
  8
┌▓È_1
  5
7C2
 10
-38.5017
 20
48.9411
 30
0.000000
  70
    32
  0
VERTEX
  8
┌▓È_1
  5
7C3
 10
-38.6194
 20
48.5949
 30
0.000000
  70
    32
  0
VERTEX
  8
┌▓È_1
  5
7C4
 10
-38.7302
 20
48.2491
 30
0.000000
  70
    32
  0
VERTEX
  8
┌▓È_1
  5
7C5
 10
-38.8341
 20
47.9040
 30
0.000000
  70
    32
  0
VERTEX
  8
┌▓È_1
  5
7C6
 10
-38.9308
 20
47.5593
 30
0.000000
  70
    32
  0
VERTEX
  8
┌▓È_1
  5
7C7
 10
-39.0201
 20
47.2153
 30
0.000000
  70
    32
  0
VERTEX
  8
┌▓È_1
  5
7C8
 10
-39.1019
 20
46.8718
 30
0.000000
  70
    32
  0
VERTEX
  8
┌▓È_1
  5
7C9
 10
-39.1760
 20
46.5290
 30
0.000000
  70
    32
  0
VERTEX
  8
┌▓È_1
  5
7CA
 10
-39.2422
 20
46.1867
 30
0.000000
  70
    32
  0
VERTEX
  8
┌▓È_1
  5
7CB
 10
-39.3004
 20
45.8451
 30
0.000000
  70
    32
  0
VERTEX
  8
┌▓È_1
  5
7CC
 10
-39.3504
 20
45.5042
 30
0.000000
  70
    32
  0
VERTEX
  8
┌▓È_1
  5
7CD
 10
-39.3920
 20
45.1639
 30
0.000000
  70
    32
  0
VERTEX
  8
┌▓È_1
  5
7CE
 10
-39.4250
 20
44.8242
 30
0.000000
  70
    32
  0
VERTEX
  8
┌▓È_1
  5
7CF
 10
-39.4492
 20
44.4853
 30
0.000000
  70
    32
  0
VERTEX
  8
┌▓È_1
  5
7D0
 10
-39.4645
 20
44.1470
 30
0.000000
  70
    32
  0
VERTEX
  8
┌▓È_1
  5
7D1
 10
-39.4708
 20
43.8095
 30
0.000000
  70
    32
  0
VERTEX
  8
┌▓È_1
  5
7D2
 10
-39.4677
 20
43.4726
 30
0.000000
  70
    32
  0
VERTEX
  8
┌▓È_1
  5
7D3
 10
-39.4553
 20
43.1366
 30
0.000000
  70
    32
  0
VERTEX
  8
┌▓È_1
  5
7D4
 10
-39.4332
 20
42.8012
 30
0.000000
  70
    32
  0
VERTEX
  8
┌▓È_1
  5
7D5
 10
-39.4013
 20
42.4667
 30
0.000000
  70
    32
  0
VERTEX
  8
┌▓È_1
  5
7D6
 10
-39.3594
 20
42.1329
 30
0.000000
  70
    32
  0
VERTEX
  8
┌▓È_1
  5
7D7
 10
-39.3074
 20
41.7999
 30
0.000000
  70
    32
  0
VERTEX
  8
┌▓È_1
  5
7D8
 10
-39.2451
 20
41.4677
 30
0.000000
  70
    32
  0
VERTEX
  8
┌▓È_1
  5
7D9
 10
-39.1722
 20
41.1364
 30
0.000000
  70
    32
  0
VERTEX
  8
┌▓È_1
  5
7DA
 10
-39.0889
 20
40.8058
 30
0.000000
  70
    32
  0
VERTEX
  8
┌▓È_1
  5
7DB
 10
-38.9953
 20
40.4761
 30
0.000000
  70
    32
  0
VERTEX
  8
┌▓È_1
  5
7DC
 10
-38.8920
 20
40.1471
 30
0.000000
  70
    32
  0
VERTEX
  8
┌▓È_1
  5
7DD
 10
-38.7791
 20
39.8188
 30
0.000000
  70
    32
  0
VERTEX
  8
┌▓È_1
  5
7DE
 10
-38.6571
 20
39.4912
 30
0.000000
  70
    32
  0
VERTEX
  8
┌▓È_1
  5
7DF
 10
-38.5264
 20
39.1643
 30
0.000000
  70
    32
  0
VERTEX
  8
┌▓È_1
  5
7E0
 10
-38.3872
 20
38.8381
 30
0.000000
  70
    32
  0
VERTEX
  8
┌▓È_1
  5
7E1
 10
-38.2400
 20
38.5124
 30
0.000000
  70
    32
  0
VERTEX
  8
┌▓È_1
  5
7E2
 10
-38.0851
 20
38.1873
 30
0.000000
  70
    32
  0
VERTEX
  8
┌▓È_1
  5
7E3
 10
-37.9229
 20
37.8627
 30
0.000000
  70
    32
  0
VERTEX
  8
┌▓È_1
  5
7E4
 10
-37.7537
 20
37.5386
 30
0.000000
  70
    32
  0
VERTEX
  8
┌▓È_1
  5
7E5
 10
-37.5780
 20
37.2150
 30
0.000000
  70
    32
  0
VERTEX
  8
┌▓È_1
  5
7E6
 10
-37.3959
 20
36.8918
 30
0.000000
  70
    32
  0
VERTEX
  8
┌▓È_1
  5
7E7
 10
-37.2080
 20
36.5690
 30
0.000000
  70
    32
  0
VERTEX
  8
┌▓È_1
  5
7E8
 10
-37.0145
 20
36.2466
 30
0.000000
  70
    32
  0
VERTEX
  8
┌▓È_1
  5
7E9
 10
-36.8159
 20
35.9245
 30
0.000000
  70
    32
  0
VERTEX
  8
┌▓È_1
  5
7EA
 10
-36.6125
 20
35.6027
 30
0.000000
  70
    32
  0
VERTEX
  8
┌▓È_1
  5
7EB
 10
-36.4046
 20
35.2812
 30
0.000000
  70
    32
  0
VERTEX
  8
┌▓È_1
  5
7EC
 10
-36.1926
 20
34.9599
 30
0.000000
  70
    32
  0
VERTEX
  8
┌▓È_1
  5
7ED
 10
-35.9769
 20
34.6388
 30
0.000000
  70
    32
  0
VERTEX
  8
┌▓È_1
  5
7EE
 10
-35.7578
 20
34.3179
 30
0.000000
  70
    32
  0
VERTEX
  8
┌▓È_1
  5
7EF
 10
-35.5356
 20
33.9972
 30
0.000000
  70
    32
  0
VERTEX
  8
┌▓È_1
  5
7F0
 10
-35.3109
 20
33.6765
 30
0.000000
  70
    32
  0
VERTEX
  8
┌▓È_1
  5
7F1
 10
-35.0838
 20
33.3559
 30
0.000000
  70
    32
  0
VERTEX
  8
┌▓È_1
  5
7F2
 10
-34.8548
 20
33.0354
 30
0.000000
  70
    32
  0
VERTEX
  8
┌▓È_1
  5
7F3
 10
-34.6242
 20
32.7148
 30
0.000000
  70
    32
  0
VERTEX
  8
┌▓È_1
  5
7F4
 10
-34.3923
 20
32.3943
 30
0.000000
  70
    32
  0
VERTEX
  8
┌▓È_1
  5
7F5
 10
-34.1596
 20
32.0737
 30
0.000000
  70
    32
  0
VERTEX
  8
┌▓È_1
  5
7F6
 10
-33.9265
 20
31.7530
 30
0.000000
  70
    32
  0
VERTEX
  8
┌▓È_1
  5
7F7
 10
-33.6931
 20
31.4321
 30
0.000000
  70
    32
  0
VERTEX
  8
┌▓È_1
  5
7F8
 10
-33.4600
 20
31.1111
 30
0.000000
  70
    32
  0
VERTEX
  8
┌▓È_1
  5
7F9
 10
-33.2275
 20
30.7900
 30
0.000000
  70
    32
  0
VERTEX
  8
┌▓È_1
  5
7FA
 10
-32.9958
 20
30.4686
 30
0.000000
  70
    32
  0
VERTEX
  8
┌▓È_1
  5
7FB
 10
-32.7655
 20
30.1469
 30
0.000000
  70
    32
  0
VERTEX
  8
┌▓È_1
  5
7FC
 10
-32.5368
 20
29.8250
 30
0.000000
  70
    32
  0
VERTEX
  8
┌▓È_1
  5
7FD
 10
-32.3102
 20
29.5028
 30
0.000000
  70
    32
  0
VERTEX
  8
┌▓È_1
  5
7FE
 10
-32.0859
 20
29.1802
 30
0.000000
  70
    32
  0
VERTEX
  8
┌▓È_1
  5
7FF
 10
-31.8643
 20
28.8572
 30
0.000000
  70
    32
  0
VERTEX
  8
┌▓È_1
  5
800
 10
-31.6458
 20
28.5338
 30
0.000000
  70
    32
  0
VERTEX
  8
┌▓È_1
  5
801
 10
-31.4308
 20
28.2099
 30
0.000000
  70
    32
  0
VERTEX
  8
┌▓È_1
  5
802
 10
-31.2195
 20
27.8856
 30
0.000000
  70
    32
  0
VERTEX
  8
┌▓È_1
  5
803
 10
-31.0125
 20
27.5607
 30
0.000000
  70
    32
  0
VERTEX
  8
┌▓È_1
  5
804
 10
-30.8099
 20
27.2353
 30
0.000000
  70
    32
  0
VERTEX
  8
┌▓È_1
  5
805
 10
-30.6123
 20
26.9094
 30
0.000000
  70
    32
  0
VERTEX
  8
┌▓È_1
  5
806
 10
-30.4198
 20
26.5828
 30
0.000000
  70
    32
  0
VERTEX
  8
┌▓È_1
  5
807
 10
-30.2330
 20
26.2555
 30
0.000000
  70
    32
  0
VERTEX
  8
┌▓È_1
  5
808
 10
-30.0522
 20
25.9276
 30
0.000000
  70
    32
  0
VERTEX
  8
┌▓È_1
  5
809
 10
-29.8776
 20
25.5990
 30
0.000000
  70
    32
  0
VERTEX
  8
┌▓È_1
  5
80A
 10
-29.7098
 20
25.2697
 30
0.000000
  70
    32
  0
VERTEX
  8
┌▓È_1
  5
80B
 10
-29.5489
 20
24.9395
 30
0.000000
  70
    32
  0
VERTEX
  8
┌▓È_1
  5
80C
 10
-29.3955
 20
24.6086
 30
0.000000
  70
    32
  0
VERTEX
  8
┌▓È_1
  5
80D
 10
-29.2498
 20
24.2768
 30
0.000000
  70
    32
  0
VERTEX
  8
┌▓È_1
  5
80E
 10
-29.1122
 20
23.9441
 30
0.000000
  70
    32
  0
VERTEX
  8
┌▓È_1
  5
80F
 10
-28.9831
 20
23.6105
 30
0.000000
  70
    32
  0
VERTEX
  8
┌▓È_1
  5
810
 10
-28.8629
 20
23.2760
 30
0.000000
  70
    32
  0
VERTEX
  8
┌▓È_1
  5
811
 10
-28.7516
 20
22.9406
 30
0.000000
  70
    32
  0
VERTEX
  8
┌▓È_1
  5
812
 10
-28.6493
 20
22.6042
 30
0.000000
  70
    32
  0
VERTEX
  8
┌▓È_1
  5
813
 10
-28.5557
 20
22.2668
 30
0.000000
  70
    32
  0
VERTEX
  8
┌▓È_1
  5
814
 10
-28.4708
 20
21.9286
 30
0.000000
  70
    32
  0
VERTEX
  8
┌▓È_1
  5
815
 10
-28.3944
 20
21.5894
 30
0.000000
  70
    32
  0
VERTEX
  8
┌▓È_1
  5
816
 10
-28.3265
 20
21.2494
 30
0.000000
  70
    32
  0
VERTEX
  8
┌▓È_1
  5
817
 10
-28.2668
 20
20.9084
 30
0.000000
  70
    32
  0
VERTEX
  8
┌▓È_1
  5
818
 10
-28.2154
 20
20.5666
 30
0.000000
  70
    32
  0
VERTEX
  8
┌▓È_1
  5
819
 10
-28.1720
 20
20.2240
 30
0.000000
  70
    32
  0
VERTEX
  8
┌▓È_1
  5
81A
 10
-28.1365
 20
19.8805
 30
0.000000
  70
    32
  0
VERTEX
  8
┌▓È_1
  5
81B
 10
-28.1089
 20
19.5362
 30
0.000000
  70
    32
  0
VERTEX
  8
┌▓È_1
  5
81C
 10
-28.0890
 20
19.1910
 30
0.000000
  70
    32
  0
VERTEX
  8
┌▓È_1
  5
81D
 10
-28.0766
 20
18.8451
 30
0.000000
  70
    32
  0
VERTEX
  8
┌▓È_1
  5
81E
 10
-28.0717
 20
18.4984
 30
0.000000
  70
    32
  0
VERTEX
  8
┌▓È_1
  5
81F
 10
-28.0742
 20
18.1508
 30
0.000000
  70
    32
  0
VERTEX
  8
┌▓È_1
  5
820
 10
-28.0839
 20
17.8026
 30
0.000000
  70
    32
  0
VERTEX
  8
┌▓È_1
  5
821
 10
-28.1006
 20
17.4535
 30
0.000000
  70
    32
  0
VERTEX
  8
┌▓È_1
  5
822
 10
-28.1244
 20
17.1038
 30
0.000000
  70
    32
  0
VERTEX
  8
┌▓È_1
  5
823
 10
-28.1550
 20
16.7533
 30
0.000000
  70
    32
  0
VERTEX
  8
┌▓È_1
  5
824
 10
-28.1924
 20
16.4021
 30
0.000000
  70
    32
  0
VERTEX
  8
┌▓È_1
  5
825
 10
-28.2363
 20
16.0502
 30
0.000000
  70
    32
  0
VERTEX
  8
┌▓È_1
  5
826
 10
-28.2868
 20
15.6976
 30
0.000000
  70
    32
  0
VERTEX
  8
┌▓È_1
  5
827
 10
-28.3437
 20
15.3443
 30
0.000000
  70
    32
  0
VERTEX
  8
┌▓È_1
  5
828
 10
-28.4068
 20
14.9904
 30
0.000000
  70
    32
  0
VERTEX
  8
┌▓È_1
  5
829
 10
-28.4760
 20
14.6358
 30
0.000000
  70
    32
  0
VERTEX
  8
┌▓È_1
  5
82A
 10
-28.5513
 20
14.2806
 30
0.000000
  70
    32
  0
VERTEX
  8
┌▓È_1
  5
82B
 10
-28.6324
 20
13.9247
 30
0.000000
  70
    32
  0
VERTEX
  8
┌▓È_1
  5
82C
 10
-28.7194
 20
13.5683
 30
0.000000
  70
    32
  0
VERTEX
  8
┌▓È_1
  5
82D
 10
-28.8119
 20
13.2112
 30
0.000000
  70
    32
  0
VERTEX
  8
┌▓È_1
  5
82E
 10
-28.9101
 20
12.8535
 30
0.000000
  70
    32
  0
VERTEX
  8
┌▓È_1
  5
82F
 10
-29.0136
 20
12.4953
 30
0.000000
  70
    32
  0
VERTEX
  8
┌▓È_1
  5
830
 10
-29.1224
 20
12.1365
 30
0.000000
  70
    32
  0
VERTEX
  8
┌▓È_1
  5
831
 10
-29.2364
 20
11.7772
 30
0.000000
  70
    32
  0
VERTEX
  8
┌▓È_1
  5
832
 10
-29.3555
 20
11.4174
 30
0.000000
  70
    32
  0
VERTEX
  8
┌▓È_1
  5
833
 10
-29.4795
 20
11.0570
 30
0.000000
  70
    32
  0
VERTEX
  8
┌▓È_1
  5
834
 10
-29.6083
 20
10.6961
 30
0.000000
  70
    32
  0
VERTEX
  8
┌▓È_1
  5
835
 10
-29.7418
 20
10.3347
 30
0.000000
  70
    32
  0
VERTEX
  8
┌▓È_1
  5
836
 10
-29.8799
 20
9.97280
 30
0.000000
  70
    32
  0
VERTEX
  8
┌▓È_1
  5
837
 10
-30.0224
 20
9.61045
 30
0.000000
  70
    32
  0
VERTEX
  8
┌▓È_1
  5
838
 10
-30.1693
 20
9.24764
 30
0.000000
  70
    32
  0
VERTEX
  8
┌▓È_1
  5
839
 10
-30.3203
 20
8.88439
 30
0.000000
  70
    32
  0
VERTEX
  8
┌▓È_1
  5
83A
 10
-30.4755
 20
8.52070
 30
0.000000
  70
    32
  0
VERTEX
  8
┌▓È_1
  5
83B
 10
-30.6346
 20
8.15659
 30
0.000000
  70
    32
  0
VERTEX
  8
┌▓È_1
  5
83C
 10
-30.7976
 20
7.79208
 30
0.000000
  70
    32
  0
VERTEX
  8
┌▓È_1
  5
83D
 10
-30.9643
 20
7.42716
 30
0.000000
  70
    32
  0
VERTEX
  8
┌▓È_1
  5
83E
 10
-31.1347
 20
7.06187
 30
0.000000
  70
    32
  0
VERTEX
  8
┌▓È_1
  5
83F
 10
-31.3085
 20
6.69620
 30
0.000000
  70
    32
  0
VERTEX
  8
┌▓È_1
  5
840
 10
-31.4857
 20
6.33018
 30
0.000000
  70
    32
  0
VERTEX
  8
┌▓È_1
  5
841
 10
-31.6661
 20
5.96382
 30
0.000000
  70
    32
  0
VERTEX
  8
┌▓È_1
  5
842
 10
-31.8497
 20
5.59712
 30
0.000000
  70
    32
  0
VERTEX
  8
┌▓È_1
  5
843
 10
-32.0362
 20
5.23011
 30
0.000000
  70
    32
  0
VERTEX
  8
┌▓È_1
  5
844
 10
-32.2257
 20
4.86278
 30
0.000000
  70
    32
  0
VERTEX
  8
┌▓È_1
  5
845
 10
-32.4179
 20
4.49517
 30
0.000000
  70
    32
  0
VERTEX
  8
┌▓È_1
  5
846
 10
-32.6128
 20
4.12727
 30
0.000000
  70
    32
  0
VERTEX
  8
┌▓È_1
  5
847
 10
-32.8102
 20
3.75911
 30
0.000000
  70
    32
  0
VERTEX
  8
┌▓È_1
  5
848
 10
-33.0100
 20
3.39069
 30
0.000000
  70
    32
  0
VERTEX
  8
┌▓È_1
  5
849
 10
-33.2121
 20
3.02203
 30
0.000000
  70
    32
  0
VERTEX
  8
┌▓È_1
  5
84A
 10
-33.4164
 20
2.65314
 30
0.000000
  70
    32
  0
VERTEX
  8
┌▓È_1
  5
84B
 10
-33.6227
 20
2.28404
 30
0.000000
  70
    32
  0
VERTEX
  8
┌▓È_1
  5
84C
 10
-33.8309
 20
1.91473
 30
0.000000
  70
    32
  0
VERTEX
  8
┌▓È_1
  5
84D
 10
-34.0409
 20
1.54522
 30
0.000000
  70
    32
  0
VERTEX
  8
┌▓È_1
  5
84E
 10
-34.2526
 20
1.17554
 30
0.000000
  70
    32
  0
VERTEX
  8
┌▓È_1
  5
84F
 10
-34.4659
 20
0.805699
 30
0.000000
  70
    32
  0
VERTEX
  8
┌▓È_1
  5
850
 10
-34.6807
 20
0.435700
 30
0.000000
  70
    32
  0
VERTEX
  8
┌▓È_1
  5
851
 10
-34.8967
 20
0.0655609
 30
0.000000
  70
    32
  0
VERTEX
  8
┌▓È_1
  5
852
 10
-35.1140
 20
-0.304706
 30
0.000000
  70
    32
  0
VERTEX
  8
┌▓È_1
  5
853
 10
-35.3323
 20
-0.675087
 30
0.000000
  70
    32
  0
VERTEX
  8
┌▓È_1
  5
854
 10
-35.5516
 20
-1.04557
 30
0.000000
  70
    32
  0
VERTEX
  8
┌▓È_1
  5
855
 10
-35.7718
 20
-1.41614
 30
0.000000
  70
    32
  0
VERTEX
  8
┌▓È_1
  5
856
 10
-35.9926
 20
-1.78679
 30
0.000000
  70
    32
  0
VERTEX
  8
┌▓È_1
  5
857
 10
-36.2141
 20
-2.15750
 30
0.000000
  70
    32
  0
VERTEX
  8
┌▓È_1
  5
858
 10
-36.4360
 20
-2.52827
 30
0.000000
  70
    32
  0
VERTEX
  8
┌▓È_1
  5
859
 10
-36.6584
 20
-2.89907
 30
0.000000
  70
    32
  0
VERTEX
  8
┌▓È_1
  5
85A
 10
-36.8809
 20
-3.26990
 30
0.000000
  70
    32
  0
VERTEX
  8
┌▓È_1
  5
85B
 10
-37.1036
 20
-3.64074
 30
0.000000
  70
    32
  0
SEQEND
  8
┌▓È_1
  5
85C
  0
POLYLINE
  8
┌▓È_1
  5
85D
  66
     1
 10
0.000000
 20
0.000000
 30
0.000000
  70
     8
  0
VERTEX
  8
┌▓È_1
  5
85E
 10
-49.8510
 20
62.3593
 30
0.000000
  70
    32
  0
VERTEX
  8
┌▓È_1
  5
85F
 10
-50.0983
 20
62.0029
 30
0.000000
  70
    32
  0
VERTEX
  8
┌▓È_1
  5
860
 10
-50.3454
 20
61.6465
 30
0.000000
  70
    32
  0
VERTEX
  8
┌▓È_1
  5
861
 10
-50.5922
 20
61.2901
 30
0.000000
  70
    32
  0
VERTEX
  8
┌▓È_1
  5
862
 10
-50.8384
 20
60.9338
 30
0.000000
  70
    32
  0
VERTEX
  8
┌▓È_1
  5
863
 10
-51.0839
 20
60.5775
 30
0.000000
  70
    32
  0
VERTEX
  8
┌▓È_1
  5
864
 10
-51.3286
 20
60.2213
 30
0.000000
  70
    32
  0
VERTEX
  8
┌▓È_1
  5
865
 10
-51.5722
 20
59.8652
 30
0.000000
  70
    32
  0
VERTEX
  8
┌▓È_1
  5
866
 10
-51.8146
 20
59.5092
 30
0.000000
  70
    32
  0
VERTEX
  8
┌▓È_1
  5
867
 10
-52.0556
 20
59.1533
 30
0.000000
  70
    32
  0
VERTEX
  8
┌▓È_1
  5
868
 10
-52.2950
 20
58.7975
 30
0.000000
  70
    32
  0
VERTEX
  8
┌▓È_1
  5
869
 10
-52.5327
 20
58.4419
 30
0.000000
  70
    32
  0
VERTEX
  8
┌▓È_1
  5
86A
 10
-52.7684
 20
58.0864
 30
0.000000
  70
    32
  0
VERTEX
  8
┌▓È_1
  5
86B
 10
-53.0020
 20
57.7310
 30
0.000000
  70
    32
  0
VERTEX
  8
┌▓È_1
  5
86C
 10
-53.2334
 20
57.3759
 30
0.000000
  70
    32
  0
VERTEX
  8
┌▓È_1
  5
86D
 10
-53.4623
 20
57.0209
 30
0.000000
  70
    32
  0
VERTEX
  8
┌▓È_1
  5
86E
 10
-53.6886
 20
56.6662
 30
0.000000
  70
    32
  0
VERTEX
  8
┌▓È_1
  5
86F
 10
-53.9121
 20
56.3116
 30
0.000000
  70
    32
  0
VERTEX
  8
┌▓È_1
  5
870
 10
-54.1326
 20
55.9573
 30
0.000000
  70
    32
  0
VERTEX
  8
┌▓È_1
  5
871
 10
-54.3500
 20
55.6033
 30
0.000000
  70
    32
  0
VERTEX
  8
┌▓È_1
  5
872
 10
-54.5641
 20
55.2495
 30
0.000000
  70
    32
  0
VERTEX
  8
┌▓È_1
  5
873
 10
-54.7746
 20
54.8959
 30
0.000000
  70
    32
  0
VERTEX
  8
┌▓È_1
  5
874
 10
-54.9815
 20
54.5427
 30
0.000000
  70
    32
  0
VERTEX
  8
┌▓È_1
  5
875
 10
-55.1845
 20
54.1898
 30
0.000000
  70
    32
  0
VERTEX
  8
┌▓È_1
  5
876
 10
-55.3835
 20
53.8371
 30
0.000000
  70
    32
  0
VERTEX
  8
┌▓È_1
  5
877
 10
-55.5783
 20
53.4848
 30
0.000000
  70
    32
  0
VERTEX
  8
┌▓È_1
  5
878
 10
-55.7688
 20
53.1329
 30
0.000000
  70
    32
  0
VERTEX
  8
┌▓È_1
  5
879
 10
-55.9546
 20
52.7813
 30
0.000000
  70
    32
  0
VERTEX
  8
┌▓È_1
  5
87A
 10
-56.1358
 20
52.4301
 30
0.000000
  70
    32
  0
VERTEX
  8
┌▓È_1
  5
87B
 10
-56.3121
 20
52.0792
 30
0.000000
  70
    32
  0
VERTEX
  8
┌▓È_1
  5
87C
 10
-56.4833
 20
51.7288
 30
0.000000
  70
    32
  0
VERTEX
  8
┌▓È_1
  5
87D
 10
-56.6492
 20
51.3787
 30
0.000000
  70
    32
  0
VERTEX
  8
┌▓È_1
  5
87E
 10
-56.8097
 20
51.0291
 30
0.000000
  70
    32
  0
VERTEX
  8
┌▓È_1
  5
87F
 10
-56.9646
 20
50.6800
 30
0.000000
  70
    32
  0
VERTEX
  8
┌▓È_1
  5
880
 10
-57.1138
 20
50.3312
 30
0.000000
  70
    32
  0
VERTEX
  8
┌▓È_1
  5
881
 10
-57.2570
 20
49.9830
 30
0.000000
  70
    32
  0
VERTEX
  8
┌▓È_1
  5
882
 10
-57.3941
 20
49.6352
 30
0.000000
  70
    32
  0
VERTEX
  8
┌▓È_1
  5
883
 10
-57.5249
 20
49.2879
 30
0.000000
  70
    32
  0
VERTEX
  8
┌▓È_1
  5
884
 10
-57.6492
 20
48.9411
 30
0.000000
  70
    32
  0
VERTEX
  8
┌▓È_1
  5
885
 10
-57.7668
 20
48.5949
 30
0.000000
  70
    32
  0
VERTEX
  8
┌▓È_1
  5
886
 10
-57.8777
 20
48.2491
 30
0.000000
  70
    32
  0
VERTEX
  8
┌▓È_1
  5
887
 10
-57.9815
 20
47.9040
 30
0.000000
  70
    32
  0
VERTEX
  8
┌▓È_1
  5
888
 10
-58.0782
 20
47.5593
 30
0.000000
  70
    32
  0
VERTEX
  8
┌▓È_1
  5
889
 10
-58.1675
 20
47.2153
 30
0.000000
  70
    32
  0
VERTEX
  8
┌▓È_1
  5
88A
 10
-58.2493
 20
46.8718
 30
0.000000
  70
    32
  0
VERTEX
  8
┌▓È_1
  5
88B
 10
-58.3234
 20
46.5290
 30
0.000000
  70
    32
  0
VERTEX
  8
┌▓È_1
  5
88C
 10
-58.3897
 20
46.1867
 30
0.000000
  70
    32
  0
VERTEX
  8
┌▓È_1
  5
88D
 10
-58.4479
 20
45.8451
 30
0.000000
  70
    32
  0
VERTEX
  8
┌▓È_1
  5
88E
 10
-58.4978
 20
45.5042
 30
0.000000
  70
    32
  0
VERTEX
  8
┌▓È_1
  5
88F
 10
-58.5394
 20
45.1639
 30
0.000000
  70
    32
  0
VERTEX
  8
┌▓È_1
  5
890
 10
-58.5724
 20
44.8242
 30
0.000000
  70
    32
  0
VERTEX
  8
┌▓È_1
  5
891
 10
-58.5967
 20
44.4853
 30
0.000000
  70
    32
  0
VERTEX
  8
┌▓È_1
  5
892
 10
-58.6120
 20
44.1470
 30
0.000000
  70
    32
  0
VERTEX
  8
┌▓È_1
  5
893
 10
-58.6182
 20
43.8095
 30
0.000000
  70
    32
  0
VERTEX
  8
┌▓È_1
  5
894
 10
-58.6152
 20
43.4726
 30
0.000000
  70
    32
  0
VERTEX
  8
┌▓È_1
  5
895
 10
-58.6027
 20
43.1366
 30
0.000000
  70
    32
  0
VERTEX
  8
┌▓È_1
  5
896
 10
-58.5806
 20
42.8012
 30
0.000000
  70
    32
  0
VERTEX
  8
┌▓È_1
  5
897
 10
-58.5487
 20
42.4667
 30
0.000000
  70
    32
  0
VERTEX
  8
┌▓È_1
  5
898
 10
-58.5069
 20
42.1329
 30
0.000000
  70
    32
  0
VERTEX
  8
┌▓È_1
  5
899
 10
-58.4548
 20
41.7999
 30
0.000000
  70
    32
  0
VERTEX
  8
┌▓È_1
  5
89A
 10
-58.3925
 20
41.4677
 30
0.000000
  70
    32
  0
VERTEX
  8
┌▓È_1
  5
89B
 10
-58.3197
 20
41.1364
 30
0.000000
  70
    32
  0
VERTEX
  8
┌▓È_1
  5
89C
 10
-58.2363
 20
40.8058
 30
0.000000
  70
    32
  0
VERTEX
  8
┌▓È_1
  5
89D
 10
-58.1428
 20
40.4761
 30
0.000000
  70
    32
  0
VERTEX
  8
┌▓È_1
  5
89E
 10
-58.0394
 20
40.1471
 30
0.000000
  70
    32
  0
VERTEX
  8
┌▓È_1
  5
89F
 10
-57.9265
 20
39.8188
 30
0.000000
  70
    32
  0
VERTEX
  8
┌▓È_1
  5
8A0
 10
-57.8046
 20
39.4912
 30
0.000000
  70
    32
  0
VERTEX
  8
┌▓È_1
  5
8A1
 10
-57.6738
 20
39.1643
 30
0.000000
  70
    32
  0
VERTEX
  8
┌▓È_1
  5
8A2
 10
-57.5347
 20
38.8381
 30
0.000000
  70
    32
  0
VERTEX
  8
┌▓È_1
  5
8A3
 10
-57.3875
 20
38.5124
 30
0.000000
  70
    32
  0
VERTEX
  8
┌▓È_1
  5
8A4
 10
-57.2326
 20
38.1873
 30
0.000000
  70
    32
  0
VERTEX
  8
┌▓È_1
  5
8A5
 10
-57.0704
 20
37.8627
 30
0.000000
  70
    32
  0
VERTEX
  8
┌▓È_1
  5
8A6
 10
-56.9012
 20
37.5386
 30
0.000000
  70
    32
  0
VERTEX
  8
┌▓È_1
  5
8A7
 10
-56.7254
 20
37.2150
 30
0.000000
  70
    32
  0
VERTEX
  8
┌▓È_1
  5
8A8
 10
-56.5434
 20
36.8918
 30
0.000000
  70
    32
  0
VERTEX
  8
┌▓È_1
  5
8A9
 10
-56.3554
 20
36.5690
 30
0.000000
  70
    32
  0
VERTEX
  8
┌▓È_1
  5
8AA
 10
-56.1620
 20
36.2466
 30
0.000000
  70
    32
  0
VERTEX
  8
┌▓È_1
  5
8AB
 10
-55.9634
 20
35.9245
 30
0.000000
  70
    32
  0
VERTEX
  8
┌▓È_1
  5
8AC
 10
-55.7599
 20
35.6027
 30
0.000000
  70
    32
  0
VERTEX
  8
┌▓È_1
  5
8AD
 10
-55.5520
 20
35.2812
 30
0.000000
  70
    32
  0
VERTEX
  8
┌▓È_1
  5
8AE
 10
-55.3400
 20
34.9599
 30
0.000000
  70
    32
  0
VERTEX
  8
┌▓È_1
  5
8AF
 10
-55.1243
 20
34.6388
 30
0.000000
  70
    32
  0
VERTEX
  8
┌▓È_1
  5
8B0
 10
-54.9052
 20
34.3179
 30
0.000000
  70
    32
  0
VERTEX
  8
┌▓È_1
  5
8B1
 10
-54.6831
 20
33.9972
 30
0.000000
  70
    32
  0
VERTEX
  8
┌▓È_1
  5
8B2
 10
-54.4583
 20
33.6765
 30
0.000000
  70
    32
  0
VERTEX
  8
┌▓È_1
  5
8B3
 10
-54.2312
 20
33.3559
 30
0.000000
  70
    32
  0
VERTEX
  8
┌▓È_1
  5
8B4
 10
-54.0022
 20
33.0354
 30
0.000000
  70
    32
  0
VERTEX
  8
┌▓È_1
  5
8B5
 10
-53.7716
 20
32.7148
 30
0.000000
  70
    32
  0
VERTEX
  8
┌▓È_1
  5
8B6
 10
-53.5398
 20
32.3943
 30
0.000000
  70
    32
  0
VERTEX
  8
┌▓È_1
  5
8B7
 10
-53.3071
 20
32.0737
 30
0.000000
  70
    32
  0
VERTEX
  8
┌▓È_1
  5
8B8
 10
-53.0739
 20
31.7530
 30
0.000000
  70
    32
  0
VERTEX
  8
┌▓È_1
  5
8B9
 10
-52.8406
 20
31.4321
 30
0.000000
  70
    32
  0
VERTEX
  8
┌▓È_1
  5
8BA
 10
-52.6074
 20
31.1111
 30
0.000000
  70
    32
  0
VERTEX
  8
┌▓È_1
  5
8BB
 10
-52.3749
 20
30.7900
 30
0.000000
  70
    32
  0
VERTEX
  8
┌▓È_1
  5
8BC
 10
-52.1433
 20
30.4686
 30
0.000000
  70
    32
  0
VERTEX
  8
┌▓È_1
  5
8BD
 10
-51.9130
 20
30.1469
 30
0.000000
  70
    32
  0
VERTEX
  8
┌▓È_1
  5
8BE
 10
-51.6843
 20
29.8250
 30
0.000000
  70
    32
  0
VERTEX
  8
┌▓È_1
  5
8BF
 10
-51.4576
 20
29.5028
 30
0.000000
  70
    32
  0
VERTEX
  8
┌▓È_1
  5
8C0
 10
-51.2333
 20
29.1802
 30
0.000000
  70
    32
  0
VERTEX
  8
┌▓È_1
  5
8C1
 10
-51.0117
 20
28.8572
 30
0.000000
  70
    32
  0
VERTEX
  8
┌▓È_1
  5
8C2
 10
-50.7933
 20
28.5338
 30
0.000000
  70
    32
  0
VERTEX
  8
┌▓È_1
  5
8C3
 10
-50.5782
 20
28.2099
 30
0.000000
  70
    32
  0
VERTEX
  8
┌▓È_1
  5
8C4
 10
-50.3670
 20
27.8856
 30
0.000000
  70
    32
  0
VERTEX
  8
┌▓È_1
  5
8C5
 10
-50.1599
 20
27.5607
 30
0.000000
  70
    32
  0
VERTEX
  8
┌▓È_1
  5
8C6
 10
-49.9574
 20
27.2353
 30
0.000000
  70
    32
  0
VERTEX
  8
┌▓È_1
  5
8C7
 10
-49.7597
 20
26.9094
 30
0.000000
  70
    32
  0
VERTEX
  8
┌▓È_1
  5
8C8
 10
-49.5673
 20
26.5828
 30
0.000000
  70
    32
  0
VERTEX
  8
┌▓È_1
  5
8C9
 10
-49.3805
 20
26.2555
 30
0.000000
  70
    32
  0
VERTEX
  8
┌▓È_1
  5
8CA
 10
-49.1996
 20
25.9276
 30
0.000000
  70
    32
  0
VERTEX
  8
┌▓È_1
  5
8CB
 10
-49.0251
 20
25.5990
 30
0.000000
  70
    32
  0
VERTEX
  8
┌▓È_1
  5
8CC
 10
-48.8572
 20
25.2697
 30
0.000000
  70
    32
  0
VERTEX
  8
┌▓È_1
  5
8CD
 10
-48.6964
 20
24.9395
 30
0.000000
  70
    32
  0
VERTEX
  8
┌▓È_1
  5
8CE
 10
-48.5429
 20
24.6086
 30
0.000000
  70
    32
  0
VERTEX
  8
┌▓È_1
  5
8CF
 10
-48.3973
 20
24.2768
 30
0.000000
  70
    32
  0
VERTEX
  8
┌▓È_1
  5
8D0
 10
-48.2597
 20
23.9441
 30
0.000000
  70
    32
  0
VERTEX
  8
┌▓È_1
  5
8D1
 10
-48.1306
 20
23.6105
 30
0.000000
  70
    32
  0
VERTEX
  8
┌▓È_1
  5
8D2
 10
-48.0103
 20
23.2760
 30
0.000000
  70
    32
  0
VERTEX
  8
┌▓È_1
  5
8D3
 10
-47.8991
 20
22.9406
 30
0.000000
  70
    32
  0
VERTEX
  8
┌▓È_1
  5
8D4
 10
-47.7967
 20
22.6042
 30
0.000000
  70
    32
  0
VERTEX
  8
┌▓È_1
  5
8D5
 10
-47.7031
 20
22.2668
 30
0.000000
  70
    32
  0
VERTEX
  8
┌▓È_1
  5
8D6
 10
-47.6182
 20
21.9286
 30
0.000000
  70
    32
  0
VERTEX
  8
┌▓È_1
  5
8D7
 10
-47.5419
 20
21.5894
 30
0.000000
  70
    32
  0
VERTEX
  8
┌▓È_1
  5
8D8
 10
-47.4739
 20
21.2494
 30
0.000000
  70
    32
  0
VERTEX
  8
┌▓È_1
  5
8D9
 10
-47.4143
 20
20.9084
 30
0.000000
  70
    32
  0
VERTEX
  8
┌▓È_1
  5
8DA
 10
-47.3628
 20
20.5666
 30
0.000000
  70
    32
  0
VERTEX
  8
┌▓È_1
  5
8DB
 10
-47.3194
 20
20.2240
 30
0.000000
  70
    32
  0
VERTEX
  8
┌▓È_1
  5
8DC
 10
-47.2840
 20
19.8805
 30
0.000000
  70
    32
  0
VERTEX
  8
┌▓È_1
  5
8DD
 10
-47.2563
 20
19.5362
 30
0.000000
  70
    32
  0
VERTEX
  8
┌▓È_1
  5
8DE
 10
-47.2364
 20
19.1910
 30
0.000000
  70
    32
  0
VERTEX
  8
┌▓È_1
  5
8DF
 10
-47.2241
 20
18.8451
 30
0.000000
  70
    32
  0
VERTEX
  8
┌▓È_1
  5
8E0
 10
-47.2192
 20
18.4984
 30
0.000000
  70
    32
  0
VERTEX
  8
┌▓È_1
  5
8E1
 10
-47.2216
 20
18.1508
 30
0.000000
  70
    32
  0
VERTEX
  8
┌▓È_1
  5
8E2
 10
-47.2313
 20
17.8026
 30
0.000000
  70
    32
  0
VERTEX
  8
┌▓È_1
  5
8E3
 10
-47.2481
 20
17.4535
 30
0.000000
  70
    32
  0
VERTEX
  8
┌▓È_1
  5
8E4
 10
-47.2719
 20
17.1038
 30
0.000000
  70
    32
  0
VERTEX
  8
┌▓È_1
  5
8E5
 10
-47.3025
 20
16.7533
 30
0.000000
  70
    32
  0
VERTEX
  8
┌▓È_1
  5
8E6
 10
-47.3398
 20
16.4021
 30
0.000000
  70
    32
  0
VERTEX
  8
┌▓È_1
  5
8E7
 10
-47.3838
 20
16.0502
 30
0.000000
  70
    32
  0
VERTEX
  8
┌▓È_1
  5
8E8
 10
-47.4343
 20
15.6976
 30
0.000000
  70
    32
  0
VERTEX
  8
┌▓È_1
  5
8E9
 10
-47.4911
 20
15.3443
 30
0.000000
  70
    32
  0
VERTEX
  8
┌▓È_1
  5
8EA
 10
-47.5542
 20
14.9904
 30
0.000000
  70
    32
  0
VERTEX
  8
┌▓È_1
  5
8EB
 10
-47.6235
 20
14.6358
 30
0.000000
  70
    32
  0
VERTEX
  8
┌▓È_1
  5
8EC
 10
-47.6987
 20
14.2806
 30
0.000000
  70
    32
  0
VERTEX
  8
┌▓È_1
  5
8ED
 10
-47.7799
 20
13.9247
 30
0.000000
  70
    32
  0
VERTEX
  8
┌▓È_1
  5
8EE
 10
-47.8668
 20
13.5683
 30
0.000000
  70
    32
  0
VERTEX
  8
┌▓È_1
  5
8EF
 10
-47.9594
 20
13.2112
 30
0.000000
  70
    32
  0
VERTEX
  8
┌▓È_1
  5
8F0
 10
-48.0575
 20
12.8535
 30
0.000000
  70
    32
  0
VERTEX
  8
┌▓È_1
  5
8F1
 10
-48.1611
 20
12.4953
 30
0.000000
  70
    32
  0
VERTEX
  8
┌▓È_1
  5
8F2
 10
-48.2699
 20
12.1365
 30
0.000000
  70
    32
  0
VERTEX
  8
┌▓È_1
  5
8F3
 10
-48.3839
 20
11.7772
 30
0.000000
  70
    32
  0
VERTEX
  8
┌▓È_1
  5
8F4
 10
-48.5030
 20
11.4174
 30
0.000000
  70
    32
  0
VERTEX
  8
┌▓È_1
  5
8F5
 10
-48.6269
 20
11.0570
 30
0.000000
  70
    32
  0
VERTEX
  8
┌▓È_1
  5
8F6
 10
-48.7558
 20
10.6961
 30
0.000000
  70
    32
  0
VERTEX
  8
┌▓È_1
  5
8F7
 10
-48.8893
 20
10.3347
 30
0.000000
  70
    32
  0
VERTEX
  8
┌▓È_1
  5
8F8
 10
-49.0273
 20
9.97280
 30
0.000000
  70
    32
  0
VERTEX
  8
┌▓È_1
  5
8F9
 10
-49.1699
 20
9.61045
 30
0.000000
  70
    32
  0
VERTEX
  8
┌▓È_1
  5
8FA
 10
-49.3167
 20
9.24764
 30
0.000000
  70
    32
  0
VERTEX
  8
┌▓È_1
  5
8FB
 10
-49.4678
 20
8.88439
 30
0.000000
  70
    32
  0
VERTEX
  8
┌▓È_1
  5
8FC
 10
-49.6230
 20
8.52070
 30
0.000000
  70
    32
  0
VERTEX
  8
┌▓È_1
  5
8FD
 10
-49.7821
 20
8.15659
 30
0.000000
  70
    32
  0
VERTEX
  8
┌▓È_1
  5
8FE
 10
-49.9451
 20
7.79208
 30
0.000000
  70
    32
  0
VERTEX
  8
┌▓È_1
  5
8FF
 10
-50.1118
 20
7.42716
 30
0.000000
  70
    32
  0
VERTEX
  8
┌▓È_1
  5
900
 10
-50.2821
 20
7.06187
 30
0.000000
  70
    32
  0
VERTEX
  8
┌▓È_1
  5
901
 10
-50.4559
 20
6.69620
 30
0.000000
  70
    32
  0
VERTEX
  8
┌▓È_1
  5
902
 10
-50.6331
 20
6.33018
 30
0.000000
  70
    32
  0
VERTEX
  8
┌▓È_1
  5
903
 10
-50.8135
 20
5.96382
 30
0.000000
  70
    32
  0
VERTEX
  8
┌▓È_1
  5
904
 10
-50.9971
 20
5.59712
 30
0.000000
  70
    32
  0
VERTEX
  8
┌▓È_1
  5
905
 10
-51.1837
 20
5.23011
 30
0.000000
  70
    32
  0
VERTEX
  8
┌▓È_1
  5
906
 10
-51.3731
 20
4.86278
 30
0.000000
  70
    32
  0
VERTEX
  8
┌▓È_1
  5
907
 10
-51.5654
 20
4.49517
 30
0.000000
  70
    32
  0
VERTEX
  8
┌▓È_1
  5
908
 10
-51.7602
 20
4.12727
 30
0.000000
  70
    32
  0
VERTEX
  8
┌▓È_1
  5
909
 10
-51.9576
 20
3.75911
 30
0.000000
  70
    32
  0
VERTEX
  8
┌▓È_1
  5
90A
 10
-52.1574
 20
3.39069
 30
0.000000
  70
    32
  0
VERTEX
  8
┌▓È_1
  5
90B
 10
-52.3595
 20
3.02203
 30
0.000000
  70
    32
  0
VERTEX
  8
┌▓È_1
  5
90C
 10
-52.5638
 20
2.65314
 30
0.000000
  70
    32
  0
VERTEX
  8
┌▓È_1
  5
90D
 10
-52.7701
 20
2.28404
 30
0.000000
  70
    32
  0
VERTEX
  8
┌▓È_1
  5
90E
 10
-52.9783
 20
1.91473
 30
0.000000
  70
    32
  0
VERTEX
  8
┌▓È_1
  5
90F
 10
-53.1884
 20
1.54522
 30
0.000000
  70
    32
  0
VERTEX
  8
┌▓È_1
  5
910
 10
-53.4001
 20
1.17554
 30
0.000000
  70
    32
  0
VERTEX
  8
┌▓È_1
  5
911
 10
-53.6134
 20
0.805699
 30
0.000000
  70
    32
  0
VERTEX
  8
┌▓È_1
  5
912
 10
-53.8281
 20
0.435700
 30
0.000000
  70
    32
  0
VERTEX
  8
┌▓È_1
  5
913
 10
-54.0442
 20
0.0655609
 30
0.000000
  70
    32
  0
VERTEX
  8
┌▓È_1
  5
914
 10
-54.2614
 20
-0.304706
 30
0.000000
  70
    32
  0
VERTEX
  8
┌▓È_1
  5
915
 10
-54.4798
 20
-0.675087
 30
0.000000
  70
    32
  0
VERTEX
  8
┌▓È_1
  5
916
 10
-54.6991
 20
-1.04557
 30
0.000000
  70
    32
  0
VERTEX
  8
┌▓È_1
  5
917
 10
-54.9192
 20
-1.41614
 30
0.000000
  70
    32
  0
VERTEX
  8
┌▓È_1
  5
918
 10
-55.1401
 20
-1.78679
 30
0.000000
  70
    32
  0
VERTEX
  8
┌▓È_1
  5
919
 10
-55.3615
 20
-2.15750
 30
0.000000
  70
    32
  0
VERTEX
  8
┌▓È_1
  5
91A
 10
-55.5835
 20
-2.52827
 30
0.000000
  70
    32
  0
VERTEX
  8
┌▓È_1
  5
91B
 10
-55.8058
 20
-2.89907
 30
0.000000
  70
    32
  0
VERTEX
  8
┌▓È_1
  5
91C
 10
-56.0284
 20
-3.26990
 30
0.000000
  70
    32
  0
VERTEX
  8
┌▓È_1
  5
91D
 10
-56.2510
 20
-3.64074
 30
0.000000
  70
    32
  0
SEQEND
  8
┌▓È_1
  5
91E
  0
LINE
  5
1C1
  8
1
 62
     5
 10
-5.0377882688999991
 20
8.2536458333000002
 30
0.0
 11
-1.937788268899999
 21
8.2536458333000002
 31
0.0
  0
ARC
  5
1C2
  8
1
 62
     5
 10
0.8622117311000001
 20
7.6536458332999997
 30
0.0
 40
0.9
 50
0.0
 51
90.0
  0
ARC
  5
1C3
  8
1
 62
     5
 10
3.0622117311000001
 20
7.6536458332999997
 30
0.0
 40
1.3
 50
180.0
 51
270.0
  0
LINE
  5
1C4
  8
1
 62
     5
 10
-0.9472954688999999
 20
28.1036458333
 30
0.0
 11
1.7594853311
 21
7.7236458332999991
 31
0.0
  0
LINE
  5
1C5
  8
1
 62
     5
 10
-1.937788268899999
 20
8.2536458333000002
 30
0.0
 11
-1.5857882688999989
 21
8.5536458332999992
 31
0.0
  0
ARC
  5
1C6
  8
1
 62
     5
 10
-10.4517882689
 20
48.553645833300003
 30
0.0
 40
0.6
 50
180.0
 51
270.0
  0
ARC
  5
1C7
  8
1
 62
     5
 10
-10.4517882689
 20
48.553645833300003
 30
0.0
 40
0.9
 50
179.99000000000001
 51
273.00999999999999
  0
LINE
  5
1C8
  8
1
 62
     5
 10
-10.4517882689
 20
47.953645833300001
 30
0.0
 11
-7.3517882689
 21
47.953645833300001
 31
0.0
  0
LINE
  5
1C9
  8
1
 62
     5
 10
-7.3517882689
 20
47.953645833300001
 30
0.0
 11
-6.9997882688999988
 21
47.653645833299997
 31
0.0
  0
LINE
  5
1CA
  8
1
 62
     5
 10
-6.9997882688999988
 20
47.653645833299997
 30
0.0
 11
-4.324788268899999
 21
47.653645833299997
 31
0.0
  0
ARC
  5
1CB
  8
1
 62
     5
 10
-12.3517882689
 20
48.553645833300003
 30
0.0
 40
1.0
 50
270.0
 51
90.0
  0
ARC
  5
1CC
  8
1
 62
     5
 10
-12.3517882689
 20
48.553645833300003
 30
0.0
 40
1.3
 50
0.0
 51
90.0
  0
ARC
  5
1CD
  8
1
 62
     5
 10
-4.5517882689000002
 20
48.553645833300003
 30
0.0
 40
0.9
 50
270.0
 51
0.0
  0
ARC
  5
1CE
  8
1
 62
     5
 10
-4.5517882689000002
 20
48.553645833300003
 30
0.0
 40
1.1999999999999991
 50
308.80000000000001
 51
359.99000000000001
  0
LINE
  5
1CF
  8
1
 62
     5
 10
-27.037788268900002
 20
8.2536458333000002
 30
0.0
 11
-23.9377882689
 21
8.2536458333000002
 31
0.0
  0
LINE
  5
1D0
  8
1
 62
     5
 10
-7.3517882689
 20
47.953645833300001
 30
0.0
 11
-6.9997882688999988
 21
47.653645833299997
 31
0.0
  0
LINE
  5
1D1
  8
1
 62
     5
 10
-6.9997882688999988
 20
47.653645833299997
 30
0.0
 11
-4.5517882689000002
 21
47.653645833299997
 31
0.0
  0
ARC
  5
1D2
  8
1
 62
     5
 10
-12.3517882689
 20
48.553645833300003
 30
0.0
 40
1.0
 50
270.0
 51
90.0
  0
ARC
  5
1D3
  8
1
 62
     5
 10
-12.3517882689
 20
48.553645833300003
 30
0.0
 40
1.3
 50
0.0
 51
90.0
  0
ARC
  5
1D4
  8
1
 62
     5
 10
-10.4517882689
 20
48.553645833300003
 30
0.0
 40
0.6
 50
180.0
 51
270.0
  0
ARC
  5
1D5
  8
1
 62
     5
 10
-50.473843438599999
 20
7.6536458332999997
 30
0.0
 40
0.9
 50
37.660763117000002
 51
90.0
  0
LINE
  5
1D6
  8
1
 62
     5
 10
-52.283350638599998
 20
28.1036458333
 30
0.0
 11
-49.6684800389
 21
8.4156597128000001
 31
0.0
  0
LINE
  5
1D7
  8
1
 62
     5
 10
-48.050868696999999
 20
23.3917506035
 30
0.0
 11
-47.252466961099998
 21
17.380840677399998
 31
0.0
  0
LINE
  5
1D8
  8
1
 62
     5
 10
-58.335843438600001
 20
47.653645833299997
 30
0.0
 11
-58.0524509241
 21
47.653645833299997
 31
0.0
  0
LINE
  5
1D9
  8
1
 62
     5
 10
-58.335843438600001
 20
47.653645833299997
 30
0.0
 11
-58.0524509241
 21
47.653645833299997
 31
0.0
  0
ARC
  5
1DA
  8
1
 62
     5
 10
-61.7878434386
 20
48.553645833300003
 30
0.0
 40
0.6
 50
180.0
 51
270.0
  0
ARC
  5
1DB
  8
1
 62
     5
 10
-7.9377882688999986
 20
7.6536458332999997
 30
0.0
 40
1.3
 50
180.0
 51
270.0
  0
ARC
  5
1DC
  8
1
 62
     5
 10
-59.273843438599997
 20
7.6536458332999997
 30
0.0
 40
1.3
 50
180.0
 51
270.0
  0
ARC
  5
1DD
  8
1
 62
     5
 10
-59.273843438599997
 20
7.6536458332999997
 30
0.0
 40
1.3
 50
180.0
 51
270.0
  0
LINE
  5
1DE
  8
1
 62
     5
 10
-59.273843438599997
 20
6.3536458332999999
 30
0.0
 11
-58.273843438599997
 21
6.3536458332999999
 31
0.0
  0
ARC
  5
1DF
  8
1
 62
     5
 10
-28.9377882689
 20
7.6536458332999997
 30
0.0
 40
1.3
 50
270.0
 51
0.0
  0
LINE
  5
1E0
  8
1
 62
     5
 10
-29.9377882689
 20
6.3536458332999999
 30
0.0
 11
-28.9377882689
 21
6.3536458332999999
 31
0.0
  0
ARC
  5
1E1
  8
1
 62
     5
 10
-27.037788268900002
 20
7.6536458332999997
 30
0.0
 40
0.6
 50
90.0
 51
180.0
  0
ARC
  5
1E2
  8
1
 62
     5
 10
-21.1377882689
 20
7.6536458332999997
 30
0.0
 40
0.9
 50
0.0
 51
90.0
  0
LINE
  5
1E3
  8
1
 62
     5
 10
-23.9377882689
 20
8.2536458333000002
 30
0.0
 11
-23.5857882689
 21
8.5536458332999992
 31
0.0
  0
LINE
  5
1E4
  8
1
 62
     5
 10
-7.9377882688999986
 20
6.3536458332999999
 30
0.0
 11
-6.9377882688999986
 21
6.3536458332999999
 31
0.0
  0
ARC
  5
1E5
  8
1
 62
     5
 10
-5.0377882688999991
 20
7.6536458332999997
 30
0.0
 40
0.6
 50
90.0
 51
180.0
  0
LINE
  5
1E6
  8
1
 62
     5
 10
-8.3406730688999993
 20
28.1036458333
 30
0.0
 11
-5.633690668899999
 21
7.7236458332999991
 31
0.0
  0
LINE
  5
1E7
  8
1
 62
     5
 10
-11.9472954689
 20
28.1036458333
 30
0.0
 11
-9.2405146688999995
 21
7.7236458332999991
 31
0.0
  0
LINE
  5
1E8
  8
1
 62
     5
 10
-35.351788268900002
 20
49.853645833299993
 30
0.0
 11
-34.351788268900002
 21
49.853645833299993
 31
0.0
  0
LINE
  5
1E9
  8
1
 62
     5
 10
-35.351788268900002
 20
49.553645833300003
 30
0.0
 11
-34.351788268900002
 21
49.553645833300003
 31
0.0
  0
LINE
  5
1EA
  8
1
 62
     5
 10
-34.298788268899997
 20
47.555645833299991
 30
0.0
 11
-32.403788268900001
 21
47.654645833300002
 31
0.0
  0
LINE
  5
1EB
  8
1
 62
     5
 10
-35.351788268900002
 20
47.553645833300003
 30
0.0
 11
-34.351788268900002
 21
47.553645833300003
 31
0.0
  0
LINE
  5
1EC
  8
1
 62
     5
 10
-11.9472954689
 20
28.1036458333
 30
0.0
 11
-9.2405146688999995
 21
7.7236458332999991
 31
0.0
  0
ARC
  5
1ED
  8
1
 62
     5
 10
-7.9377882688999986
 20
7.6536458332999997
 30
0.0
 40
1.3
 50
180.0
 51
270.0
  0
ARC
  5
1EE
  8
1
 62
     5
 10
-10.1377882689
 20
7.6536458332999997
 30
0.0
 40
0.9
 50
0.0
 51
90.0
  0
ARC
  5
1EF
  8
1
 62
     5
 10
-6.9377882688999986
 20
7.6536458332999997
 30
0.0
 40
1.3
 50
270.0
 51
0.0
  0
ARC
  5
1F0
  8
1
 62
     5
 10
-6.9377882688999986
 20
7.6536458332999997
 30
0.0
 40
1.3
 50
270.0
 51
0.0
  0
LINE
  5
1F1
  8
1
 62
     5
 10
-7.9377882688999986
 20
6.3536458332999999
 30
0.0
 11
-6.9377882688999986
 21
6.3536458332999999
 31
0.0
  0
ARC
  5
1F2
  8
1
 62
     5
 10
-5.0377882688999991
 20
7.6536458332999997
 30
0.0
 40
0.6
 50
90.0
 51
180.0
  0
ARC
  5
1F3
  8
1
 62
     5
 10
-15.551788268899999
 20
48.553645833300003
 30
0.0
 40
0.9
 50
270.0
 51
0.0
  0
ARC
  5
1F4
  8
1
 62
     5
 10
-10.1377882689
 20
7.6536458332999997
 30
0.0
 40
0.9
 50
0.0
 51
90.0
  0
LINE
  5
1F5
  8
1
 62
     5
 10
-12.2997882689
 20
47.555645833299991
 30
0.0
 11
-10.404788268900001
 21
47.654645833300002
 31
0.0
  0
LINE
  5
1F6
  8
1
 62
     5
 10
-10.4517882689
 20
47.953645833300001
 30
0.0
 11
-7.3517882689
 21
47.953645833300001
 31
0.0
  0
LINE
  5
1F7
  8
1
 62
     5
 10
-12.298788268899999
 20
47.555645833299991
 30
0.0
 11
-10.4037882689
 21
47.654645833300002
 31
0.0
  0
LINE
  5
1F8
  8
1
 62
     5
 10
-21.452788268900001
 20
47.953645833300001
 30
0.0
 11
-18.351788268899998
 21
47.953645833300001
 31
0.0
  0
ARC
  5
1F9
  8
1
 62
     5
 10
-13.3517882689
 20
48.553645833300003
 30
0.0
 40
1.0
 50
90.0
 51
270.0
  0
ARC
  5
1FA
  8
1
 62
     5
 10
-13.3517882689
 20
48.553645833300003
 30
0.0
 40
1.3
 50
90.0
 51
180.0
  0
LINE
  5
1FB
  8
1
 62
     5
 10
-13.3967882689
 20
47.5546458333
 30
0.0
 11
-14.7997882689
 21
47.6186458333
 31
0.0
  0
ARC
  5
1FC
  8
1
 62
     5
 10
-15.551788268899999
 20
48.553645833300003
 30
0.0
 40
1.1999999999999991
 50
308.80000000000001
 51
359.99000000000001
  0
ARC
  5
1FD
  8
1
 62
     5
 10
-32.451788268900003
 20
48.553645833300003
 30
0.0
 40
0.6
 50
180.0
 51
270.0
  0
LINE
  5
1FE
  8
1
 62
     5
 10
-24.397788268900001
 20
47.5546458333
 30
0.0
 11
-25.799788268899999
 21
47.6186458333
 31
0.0
  0
LINE
  5
1FF
  8
1
 62
     5
 10
-24.351788268899998
 20
47.553645833300003
 30
0.0
 11
-23.351788268899998
 21
47.553645833300003
 31
0.0
  0
ARC
  5
200
  8
1
 62
     5
 10
-24.351788268899998
 20
48.553645833300003
 30
0.0
 40
1.3
 50
90.0
 51
180.0
  0
LINE
  5
201
  8
1
 62
     5
 10
-24.351788268899998
 20
49.853645833299993
 30
0.0
 11
-23.351788268899998
 21
49.853645833299993
 31
0.0
  0
ARC
  5
202
  8
1
 62
     5
 10
-23.351788268899998
 20
48.553645833300003
 30
0.0
 40
1.0
 50
270.0
 51
90.0
  0
ARC
  5
203
  8
1
 62
     5
 10
-23.351788268899998
 20
48.553645833300003
 30
0.0
 40
1.3
 50
0.0
 51
90.0
  0
ARC
  5
204
  8
1
 62
     5
 10
-34.351788268900002
 20
48.553645833300003
 30
0.0
 40
1.3
 50
0.0
 51
90.0
  0
ARC
  5
205
  8
1
 62
     5
 10
-32.451788268900003
 20
48.553645833300003
 30
0.0
 40
0.9
 50
179.99000000000001
 51
273.00999999999999
  0
LINE
  5
206
  8
1
 62
     5
 10
-32.451788268900003
 20
47.953645833300001
 30
0.0
 11
-29.351788268899998
 21
47.953645833300001
 31
0.0
  0
ARC
  5
207
  8
1
 62
     5
 10
-24.351788268899998
 20
48.553645833300003
 30
0.0
 40
1.0
 50
90.0
 51
270.0
  0
ARC
  5
208
  8
1
 62
     5
 10
-26.551788268900001
 20
48.553645833300003
 30
0.0
 40
0.9
 50
270.0
 51
0.0
  0
ARC
  5
209
  8
1
 62
     5
 10
-10.4517882689
 20
48.553645833300003
 30
0.0
 40
0.9
 50
179.99000000000001
 51
273.00999999999999
  0
ARC
  5
20A
  8
1
 62
     5
 10
-21.4517882689
 20
48.553645833300003
 30
0.0
 40
0.6
 50
180.0
 51
270.0
  0
ARC
  5
20B
  8
1
 62
     5
 10
-21.4517882689
 20
48.553645833300003
 30
0.0
 40
0.9
 50
179.99000000000001
 51
273.00999999999999
  0
LINE
  5
20C
  8
1
 62
     5
 10
-23.298788268900001
 20
47.555645833299991
 30
0.0
 11
-21.403788268900001
 21
47.654645833300002
 31
0.0
  0
LINE
  5
20D
  8
1
 62
     5
 10
-24.351788268899998
 20
49.553645833300003
 30
0.0
 11
-23.351788268899998
 21
49.553645833300003
 31
0.0
  0
LINE
  5
20E
  8
1
 62
     5
 10
-29.351788268899998
 20
47.953645833300001
 30
0.0
 11
-28.999788268900001
 21
47.653645833299997
 31
0.0
  0
LINE
  5
20F
  8
1
 62
     5
 10
-28.999788268900001
 20
47.653645833299997
 30
0.0
 11
-26.551788268900001
 21
47.653645833299997
 31
0.0
  0
ARC
  5
210
  8
1
 62
     5
 10
-34.351788268900002
 20
48.553645833300003
 30
0.0
 40
1.0
 50
270.0
 51
90.0
  0
LINE
  5
211
  8
1
 62
     5
 10
-12.5857882689
 20
8.5536458332999992
 30
0.0
 11
-10.1377882689
 21
8.5536458332999992
 31
0.0
  0
LINE
  5
212
  8
1
 62
     5
 10
-12.9377882689
 20
8.2536458333000002
 30
0.0
 11
-12.584788268900001
 21
8.5536458332999992
 31
0.0
  0
LINE
  5
213
  8
1
 62
     5
 10
-12.584788268900001
 20
8.5536458332999992
 30
0.0
 11
-10.1377882689
 21
8.5536458332999992
 31
0.0
  0
ARC
  5
214
  8
1
 62
     5
 10
-26.551788268900001
 20
48.553645833300003
 30
0.0
 40
1.1999999999999991
 50
308.80000000000001
 51
359.99000000000001
  0
ARC
  5
215
  8
1
 62
     5
 10
-18.9377882689
 20
7.6536458332999997
 30
0.0
 40
1.3
 50
180.0
 51
270.0
  0
LINE
  5
216
  8
1
 62
     5
 10
-18.9377882689
 20
6.3536458332999999
 30
0.0
 11
-17.9377882689
 21
6.3536458332999999
 31
0.0
  0
LINE
  5
217
  8
1
 62
     5
 10
-23.5857882689
 20
8.5536458332999992
 30
0.0
 11
-21.1377882689
 21
8.5536458332999992
 31
0.0
  0
ARC
  5
218
  8
1
 62
     5
 10
-35.351788268900002
 20
48.553645833300003
 30
0.0
 40
1.0
 50
90.0
 51
270.0
  0
ARC
  5
219
  8
1
 62
     5
 10
-35.351788268900002
 20
48.553645833300003
 30
0.0
 40
1.3
 50
90.0
 51
180.0
  0
ARC
  5
21A
  8
1
 62
     5
 10
-37.551788268899998
 20
48.553645833300003
 30
0.0
 40
0.9
 50
270.0
 51
0.0
  0
ARC
  5
21B
  8
1
 62
     5
 10
-37.551788268899998
 20
48.553645833300003
 30
0.0
 40
1.1999999999999991
 50
308.80000000000001
 51
359.99000000000001
  0
LINE
  5
21C
  8
1
 62
     5
 10
-35.396788268900004
 20
47.5546458333
 30
0.0
 11
-36.799788268900002
 21
47.6186458333
 31
0.0
  0
LINE
  5
21D
  8
1
 62
     5
 10
-38.905003007399998
 20
47.653645833299997
 30
0.0
 11
-37.551788268899998
 21
47.653645833299997
 31
0.0
  0
LINE
  5
21E
  8
1
 62
     5
 10
-30.340673068899999
 20
28.1036458333
 30
0.0
 11
-30.051475129899998
 21
25.926367548599998
 31
0.0
  0
LINE
  5
21F
  8
1
 62
     5
 10
-28.522329183699998
 20
14.4139194506
 30
0.0
 11
-27.633690668900002
 21
7.7236458332999991
 31
0.0
  0
ARC
  5
220
  8
1
 62
     5
 10
-29.9377882689
 20
7.6536458332999997
 30
0.0
 40
1.3
 50
205.0649871288
 51
270.0
  0
ARC
  5
221
  8
1
 62
     5
 10
-17.9377882689
 20
7.6536458332999997
 30
0.0
 40
1.3
 50
270.0
 51
0.0
  0
LINE
  5
222
  8
1
 62
     5
 10
-8.3406730688999993
 20
28.1036458333
 30
0.0
 11
-5.633690668899999
 21
7.7236458332999991
 31
0.0
  0
LINE
  5
223
  8
1
 62
     5
 10
-16.038788268899999
 20
8.2536458333000002
 30
0.0
 11
-12.9377882689
 21
8.2536458333000002
 31
0.0
  0
LINE
  5
224
  8
1
 62
     5
 10
-13.3517882689
 20
47.553645833300003
 30
0.0
 11
-12.3517882689
 21
47.553645833300003
 31
0.0
  0
LINE
  5
225
  8
1
 62
     5
 10
-18.351788268899998
 20
47.953645833300001
 30
0.0
 11
-17.9987882689
 21
47.653645833299997
 31
0.0
  0
LINE
  5
226
  8
1
 62
     5
 10
-17.9987882689
 20
47.653645833299997
 30
0.0
 11
-15.551788268899999
 21
47.653645833299997
 31
0.0
  0
LINE
  5
227
  8
1
 62
     5
 10
-13.3517882689
 20
49.853645833299993
 30
0.0
 11
-12.3517882689
 21
49.853645833299993
 31
0.0
  0
LINE
  5
228
  8
1
 62
     5
 10
-13.3517882689
 20
49.553645833300003
 30
0.0
 11
-12.3517882689
 21
49.553645833300003
 31
0.0
  0
LINE
  5
229
  8
1
 62
     5
 10
-19.340673068899999
 20
28.1036458333
 30
0.0
 11
-16.633690668900002
 21
7.7236458332999991
 31
0.0
  0
LINE
  5
22A
  8
1
 62
     5
 10
-113.6878434386
 20
47.953645833300001
 30
0.0
 11
-113.3348434386
 21
47.653645833299997
 31
0.0
  0
LINE
  5
22B
  8
1
 62
     5
 10
-108.6878434386
 20
49.853645833299993
 30
0.0
 11
-107.6878434386
 21
49.853645833299993
 31
0.0
  0
ARC
  5
22C
  8
1
 62
     5
 10
-108.6878434386
 20
48.553645833300003
 30
0.0
 40
1.3
 50
90.0
 51
180.0
  0
LINE
  5
22D
  8
1
 62
     5
 10
-116.7888434386
 20
47.953645833300001
 30
0.0
 11
-113.6878434386
 21
47.953645833300001
 31
0.0
  0
LINE
  5
22E
  8
1
 62
     5
 10
-118.6348434386
 20
47.555645833299991
 30
0.0
 11
-116.7398434386
 21
47.654645833300002
 31
0.0
  0
ARC
  5
22F
  8
1
 62
     5
 10
-116.78784343860001
 20
48.553645833300003
 30
0.0
 40
0.9
 50
179.99000000000001
 51
273.00999999999999
  0
ARC
  5
230
  8
1
 62
     5
 10
-116.78784343860001
 20
48.553645833300003
 30
0.0
 40
0.6
 50
180.0
 51
270.0
  0
ARC
  5
231
  8
1
 62
     5
 10
-118.6878434386
 20
48.553645833300003
 30
0.0
 40
1.3
 50
0.0
 51
90.0
  0
ARC
  5
232
  8
1
 62
     5
 10
-118.6878434386
 20
48.553645833300003
 30
0.0
 40
1.0
 50
270.0
 51
90.0
  0
ARC
  5
233
  8
1
 62
     5
 10
-119.6878434386
 20
48.553645833300003
 30
0.0
 40
1.3
 50
90.0
 51
180.0
  0
LINE
  5
234
  8
1
 62
     5
 10
-119.7338434386
 20
47.5546458333
 30
0.0
 11
-121.13584343860001
 21
47.6186458333
 31
0.0
  0
ARC
  5
235
  8
1
 62
     5
 10
-121.8878434386
 20
48.553645833300003
 30
0.0
 40
1.1999999999999991
 50
308.80000000000001
 51
359.99000000000001
  0
ARC
  5
236
  8
1
 62
     5
 10
-121.8878434386
 20
48.553645833300003
 30
0.0
 40
0.9
 50
270.0
 51
0.0
  0
LINE
  5
237
  8
1
 62
     5
 10
-86.7328434386
 20
47.5546458333
 30
0.0
 11
-88.135843438600006
 21
47.6186458333
 31
0.0
  0
ARC
  5
238
  8
1
 62
     5
 10
-88.887843438600015
 20
48.553645833300003
 30
0.0
 40
1.1999999999999991
 50
308.80000000000001
 51
359.99000000000001
  0
ARC
  5
239
  8
1
 62
     5
 10
-88.887843438600015
 20
48.553645833300003
 30
0.0
 40
0.9
 50
270.0
 51
0.0
  0
ARC
  5
23A
  8
1
 62
     5
 10
-86.687843438600027
 20
48.553645833300003
 30
0.0
 40
1.3
 50
90.0
 51
180.0
  0
ARC
  5
23B
  8
1
 62
     5
 10
-105.78784343860001
 20
48.553645833300003
 30
0.0
 40
0.9
 50
179.99000000000001
 51
273.00999999999999
  0
ARC
  5
23C
  8
1
 62
     5
 10
-105.78784343860001
 20
48.553645833300003
 30
0.0
 40
0.6
 50
180.0
 51
270.0
  0
LINE
  5
23D
  8
1
 62
     5
 10
-108.6878434386
 20
47.553645833300003
 30
0.0
 11
-107.6878434386
 21
47.553645833300003
 31
0.0
  0
LINE
  5
23E
  8
1
 62
     5
 10
-107.6348434386
 20
47.555645833299991
 30
0.0
 11
-105.7398434386
 21
47.654645833300002
 31
0.0
  0
LINE
  5
23F
  8
1
 62
     5
 10
-108.6878434386
 20
49.553645833300003
 30
0.0
 11
-107.6878434386
 21
49.553645833300003
 31
0.0
  0
ARC
  5
240
  8
1
 62
     5
 10
-119.6878434386
 20
48.553645833300003
 30
0.0
 40
1.0
 50
90.0
 51
270.0
  0
ARC
  5
241
  8
1
 62
     5
 10
-16.037788268900002
 20
7.6536458332999997
 30
0.0
 40
0.6
 50
90.0
 51
180.0
  0
LINE
  5
242
  8
1
 62
     5
 10
-22.947295468899998
 20
28.1036458333
 30
0.0
 11
-20.240514668900001
 21
7.7236458332999991
 31
0.0
  0
LINE
  5
243
  8
1
 62
     5
 10
-125.2738434386
 20
6.3536458332999999
 30
0.0
 11
-124.2738434386
 21
6.3536458332999999
 31
0.0
  0
ARC
  5
244
  8
1
 62
     5
 10
-83.787843438599992
 20
48.553645833300003
 30
0.0
 40
0.6
 50
180.0
 51
270.0
  0
LINE
  5
245
  8
1
 62
     5
 10
-86.687843438600027
 20
47.553645833300003
 30
0.0
 11
-85.687843438599998
 21
47.553645833300003
 31
0.0
  0
LINE
  5
246
  8
1
 62
     5
 10
-85.634843438600001
 20
47.555645833299991
 30
0.0
 11
-83.739843438600005
 21
47.654645833300002
 31
0.0
  0
LINE
  5
247
  8
1
 62
     5
 10
-86.687843438600027
 20
49.553645833300003
 30
0.0
 11
-85.687843438599998
 21
49.553645833300003
 31
0.0
  0
LINE
  5
248
  8
1
 62
     5
 10
-86.687843438600027
 20
49.853645833299993
 30
0.0
 11
-85.687843438599998
 21
49.853645833299993
 31
0.0
  0
ARC
  5
249
  8
1
 62
     5
 10
-85.687843438599998
 20
48.553645833300003
 30
0.0
 40
1.3
 50
0.0
 51
90.0
  0
ARC
  5
24A
  8
1
 62
     5
 10
-85.687843438599998
 20
48.553645833300003
 30
0.0
 40
1.0
 50
270.0
 51
90.0
  0
ARC
  5
24B
  8
1
 62
     5
 10
-91.273843438600011
 20
7.6536458332999997
 30
0.0
 40
1.3
 50
270.0
 51
0.0
  0
LINE
  5
24C
  8
1
 62
     5
 10
-92.273843438599997
 20
6.3536458332999999
 30
0.0
 11
-91.273843438600011
 21
6.3536458332999999
 31
0.0
  0
ARC
  5
24D
  8
1
 62
     5
 10
-92.273843438599997
 20
7.6536458332999997
 30
0.0
 40
1.3
 50
180.0
 51
270.0
  0
ARC
  5
24E
  8
1
 62
     5
 10
-94.473843438599985
 20
7.6536458332999997
 30
0.0
 40
0.9
 50
0.0
 51
90.0
  0
ARC
  5
24F
  8
1
 62
     5
 10
-86.687843438600027
 20
48.553645833300003
 30
0.0
 40
1.0
 50
90.0
 51
270.0
  0
ARC
  5
250
  8
1
 62
     5
 10
-94.787843438600007
 20
48.553645833300003
 30
0.0
 40
0.9
 50
179.99000000000001
 51
273.00999999999999
  0
ARC
  5
251
  8
1
 62
     5
 10
-96.687843438600027
 20
48.553645833300003
 30
0.0
 40
1.3
 50
0.0
 51
90.0
  0
ARC
  5
252
  8
1
 62
     5
 10
-96.687843438600027
 20
48.553645833300003
 30
0.0
 40
1.0
 50
270.0
 51
90.0
  0
LINE
  5
253
  8
1
 62
     5
 10
-97.687843438600012
 20
49.853645833299993
 30
0.0
 11
-96.687843438600027
 21
49.853645833299993
 31
0.0
  0
ARC
  5
254
  8
1
 62
     5
 10
-97.687843438600012
 20
48.553645833300003
 30
0.0
 40
1.3
 50
90.0
 51
180.0
  0
LINE
  5
255
  8
1
 62
     5
 10
-97.687843438600012
 20
47.553645833300003
 30
0.0
 11
-96.687843438600027
 21
47.553645833300003
 31
0.0
  0
LINE
  5
256
  8
1
 62
     5
 10
-97.733843438600005
 20
47.5546458333
 30
0.0
 11
-99.135843438600006
 21
47.6186458333
 31
0.0
  0
ARC
  5
257
  8
1
 62
     5
 10
-99.887843438600001
 20
48.553645833300003
 30
0.0
 40
1.1999999999999991
 50
308.80000000000001
 51
359.99000000000001
  0
ARC
  5
258
  8
1
 62
     5
 10
-99.887843438600001
 20
48.553645833300003
 30
0.0
 40
0.9
 50
270.0
 51
0.0
  0
ARC
  5
259
  8
1
 62
     5
 10
-97.687843438600012
 20
48.553645833300003
 30
0.0
 40
1.0
 50
90.0
 51
270.0
  0
LINE
  5
25A
  8
1
 62
     5
 10
-105.78784343860001
 20
47.953645833300001
 30
0.0
 11
-102.6878434386
 21
47.953645833300001
 31
0.0
  0
LINE
  5
25B
  8
1
 62
     5
 10
-113.3348434386
 20
47.653645833299997
 30
0.0
 11
-110.8878434386
 21
47.653645833299997
 31
0.0
  0
LINE
  5
25C
  8
1
 62
     5
 10
-97.687843438600012
 20
49.553645833300003
 30
0.0
 11
-96.687843438600027
 21
49.553645833300003
 31
0.0
  0
LINE
  5
25D
  8
1
 62
     5
 10
-96.634843438600001
 20
47.555645833299991
 30
0.0
 11
-94.739843438600005
 21
47.654645833300002
 31
0.0
  0
LINE
  5
25E
  8
1
 62
     5
 10
-118.2833506386
 20
28.1036458333
 30
0.0
 11
-115.57656983859999
 21
7.7236458332999991
 31
0.0
  0
ARC
  5
25F
  8
1
 62
     5
 10
-94.787843438600007
 20
48.553645833300003
 30
0.0
 40
0.6
 50
180.0
 51
270.0
  0
LINE
  5
260
  8
1
 62
     5
 10
-111.3748434386
 20
8.2536458333000002
 30
0.0
 11
-108.2738434386
 21
8.2536458333000002
 31
0.0
  0
LINE
  5
261
  8
1
 62
     5
 10
-118.92184343860001
 20
8.5536458332999992
 30
0.0
 11
-116.4738434386
 21
8.5536458332999992
 31
0.0
  0
ARC
  5
262
  8
1
 62
     5
 10
-111.37384343860001
 20
7.6536458332999997
 30
0.0
 40
0.6
 50
90.0
 51
180.0
  0
ARC
  5
263
  8
1
 62
     5
 10
-113.2738434386
 20
7.6536458332999997
 30
0.0
 40
1.3
 50
270.0
 51
0.0
  0
LINE
  5
264
  8
1
 62
     5
 10
-114.2738434386
 20
6.3536458332999999
 30
0.0
 11
-113.2738434386
 21
6.3536458332999999
 31
0.0
  0
ARC
  5
265
  8
1
 62
     5
 10
-114.2738434386
 20
7.6536458332999997
 30
0.0
 40
1.3
 50
180.0
 51
270.0
  0
LINE
  5
266
  8
1
 62
     5
 10
-91.334843438600004
 20
47.653645833299997
 30
0.0
 11
-88.887843438600015
 21
47.653645833299997
 31
0.0
  0
LINE
  5
267
  8
1
 62
     5
 10
-91.687843438600027
 20
47.953645833300001
 30
0.0
 11
-91.334843438600004
 21
47.653645833299997
 31
0.0
  0
ARC
  5
268
  8
1
 62
     5
 10
-83.787843438599992
 20
48.553645833300003
 30
0.0
 40
0.9
 50
179.99000000000001
 51
273.00999999999999
  0
LINE
  5
269
  8
1
 62
     5
 10
-119.1878434386
 20
8.3269418333000012
 30
0.0
 11
-118.92184343860001
 21
8.5536458332999992
 31
0.0
  0
LINE
  5
26A
  8
1
 62
     5
 10
-119.2738434386
 20
8.2536458333000002
 30
0.0
 11
-119.1878434386
 21
8.3269418333000012
 31
0.0
  0
LINE
  5
26B
  8
1
 62
     5
 10
-129.28335063860001
 20
28.1036458333
 30
0.0
 11
-126.57656983859999
 21
7.7236458332999991
 31
0.0
  0
ARC
  5
26C
  8
1
 62
     5
 10
-107.6878434386
 20
48.553645833300003
 30
0.0
 40
1.3
 50
0.0
 51
90.0
  0
ARC
  5
26D
  8
1
 62
     5
 10
-107.6878434386
 20
48.553645833300003
 30
0.0
 40
1.0
 50
270.0
 51
90.0
  0
LINE
  5
26E
  8
1
 62
     5
 10
-108.7328434386
 20
47.5546458333
 30
0.0
 11
-110.13584343860001
 21
47.6186458333
 31
0.0
  0
ARC
  5
26F
  8
1
 62
     5
 10
-110.8878434386
 20
48.553645833300003
 30
0.0
 40
1.1999999999999991
 50
308.80000000000001
 51
359.99000000000001
  0
ARC
  5
270
  8
1
 62
     5
 10
-110.8878434386
 20
48.553645833300003
 30
0.0
 40
0.9
 50
270.0
 51
0.0
  0
ARC
  5
271
  8
1
 62
     5
 10
-108.6878434386
 20
48.553645833300003
 30
0.0
 40
1.0
 50
90.0
 51
270.0
  0
LINE
  5
272
  8
1
 62
     5
 10
-119.6878434386
 20
49.553645833300003
 30
0.0
 11
-119.1878434386
 21
49.553645833300003
 31
0.0
  0
LINE
  5
273
  8
1
 62
     5
 10
-119.1878434386
 20
47.553645833300003
 30
0.0
 11
-118.6878434386
 21
47.553645833300003
 31
0.0
  0
LINE
  5
274
  8
1
 62
     5
 10
-119.6878434386
 20
47.553645833300003
 30
0.0
 11
-119.1878434386
 21
47.553645833300003
 31
0.0
  0
LINE
  5
275
  8
1
 62
     5
 10
-122.37384343860001
 20
8.2536458333000002
 30
0.0
 11
-119.2738434386
 21
8.2536458333000002
 31
0.0
  0
ARC
  5
276
  8
1
 62
     5
 10
-122.37384343860001
 20
7.6536458332999997
 30
0.0
 40
0.6
 50
90.0
 51
180.0
  0
LINE
  5
277
  8
1
 62
     5
 10
-85.920843438599988
 20
8.5536458332999992
 30
0.0
 11
-83.473843438599985
 21
8.5536458332999992
 31
0.0
  0
LINE
  5
278
  8
1
 62
     5
 10
-86.273843438600011
 20
8.2536458333000002
 30
0.0
 11
-85.920843438599988
 21
8.5536458332999992
 31
0.0
  0
ARC
  5
279
  8
1
 62
     5
 10
-83.473843438599985
 20
7.6536458332999997
 30
0.0
 40
0.9
 50
0.0
 51
90.0
  0
LINE
  5
27A
  8
1
 62
     5
 10
-125.67672823860001
 20
28.1036458333
 30
0.0
 11
-122.96974583860001
 21
7.7236458332999991
 31
0.0
  0
LINE
  5
27B
  8
1
 62
     5
 10
-119.1878434386
 20
49.853645833299993
 30
0.0
 11
-118.6878434386
 21
49.853645833299993
 31
0.0
  0
LINE
  5
27C
  8
1
 62
     5
 10
-119.6878434386
 20
49.853645833299993
 30
0.0
 11
-119.1878434386
 21
49.853645833299993
 31
0.0
  0
LINE
  5
27D
  8
1
 62
     5
 10
-119.1878434386
 20
49.553645833300003
 30
0.0
 11
-118.6878434386
 21
49.553645833300003
 31
0.0
  0
LINE
  5
27E
  8
1
 62
     5
 10
-80.335843438599994
 20
47.653645833299997
 30
0.0
 11
-77.887843438600001
 21
47.653645833299997
 31
0.0
  0
LINE
  5
27F
  8
1
 62
     5
 10
-80.687843438599998
 20
47.953645833300001
 30
0.0
 11
-80.335843438599994
 21
47.653645833299997
 31
0.0
  0
ARC
  5
280
  8
1
 62
     5
 10
-77.887843438600001
 20
48.553645833300003
 30
0.0
 40
1.1999999999999991
 50
308.80000000000001
 51
359.99000000000001
  0
ARC
  5
281
  8
1
 62
     5
 10
-77.887843438600001
 20
48.553645833300003
 30
0.0
 40
0.9
 50
270.0
 51
0.0
  0
LINE
  5
282
  8
1
 62
     5
 10
-83.787843438599992
 20
47.953645833300001
 30
0.0
 11
-80.687843438599998
 21
47.953645833300001
 31
0.0
  0
ARC
  5
283
  8
1
 62
     5
 10
-78.373843438599991
 20
7.6536458332999997
 30
0.0
 40
0.6
 50
90.0
 51
180.0
  0
ARC
  5
284
  8
1
 62
     5
 10
-124.2738434386
 20
7.6536458332999997
 30
0.0
 40
1.3
 50
270.0
 51
0.0
  0
ARC
  5
285
  8
1
 62
     5
 10
-89.373843438600005
 20
7.6536458332999997
 30
0.0
 40
0.6
 50
90.0
 51
180.0
  0
ARC
  5
286
  8
1
 62
     5
 10
-125.2738434386
 20
7.6536458332999997
 30
0.0
 40
1.3
 50
180.0
 51
270.0
  0
LINE
  5
287
  8
1
 62
     5
 10
-89.37484343860001
 20
8.2536458333000002
 30
0.0
 11
-86.273843438600011
 21
8.2536458333000002
 31
0.0
  0
LINE
  5
288
  8
1
 62
     5
 10
-96.921843438600007
 20
8.5536458332999992
 30
0.0
 11
-94.473843438599985
 21
8.5536458332999992
 31
0.0
  0
LINE
  5
289
  8
1
 62
     5
 10
-97.273843438600025
 20
8.2536458333000002
 30
0.0
 11
-96.921843438600007
 21
8.5536458332999992
 31
0.0
  0
LINE
  5
28A
  8
1
 62
     5
 10
-100.37384343860001
 20
8.2536458333000002
 30
0.0
 11
-97.273843438600025
 21
8.2536458333000002
 31
0.0
  0
LINE
  5
28B
  8
1
 62
     5
 10
-94.788843438599997
 20
47.953645833300001
 30
0.0
 11
-91.687843438600027
 21
47.953645833300001
 31
0.0
  0
LINE
  5
28C
  8
1
 62
     5
 10
-102.33584343859999
 20
47.653645833299997
 30
0.0
 11
-99.887843438600001
 21
47.653645833299997
 31
0.0
  0
LINE
  5
28D
  8
1
 62
     5
 10
-102.6878434386
 20
47.953645833300001
 30
0.0
 11
-102.33584343859999
 21
47.653645833299997
 31
0.0
  0
ARC
  5
28E
  8
1
 62
     5
 10
-70.273843438599997
 20
7.6536458332999997
 30
0.0
 40
1.3
 50
180.0
 51
270.0
  0
ARC
  5
28F
  8
1
 62
     5
 10
-72.473843438599999
 20
7.6536458332999997
 30
0.0
 40
0.9
 50
0.0
 51
90.0
  0
LINE
  5
290
  8
1
 62
     5
 10
-78.373843438599991
 20
8.2536458333000002
 30
0.0
 11
-75.273843438599997
 21
8.2536458333000002
 31
0.0
  0
LINE
  5
291
  8
1
 62
     5
 10
-74.283350638599998
 20
28.1036458333
 30
0.0
 11
-71.576569838599994
 21
7.7236458332999991
 31
0.0
  0
LINE
  5
292
  8
1
 62
     5
 10
-70.676728238599992
 20
28.1036458333
 30
0.0
 11
-67.969745838599991
 21
7.7236458332999991
 31
0.0
  0
ARC
  5
293
  8
1
 62
     5
 10
-74.687843438599998
 20
48.553645833300003
 30
0.0
 40
1.3
 50
0.0
 51
90.0
  0
ARC
  5
294
  8
1
 62
     5
 10
-102.2738434386
 20
7.6536458332999997
 30
0.0
 40
1.3
 50
270.0
 51
0.0
  0
ARC
  5
295
  8
1
 62
     5
 10
-127.4738434386
 20
7.6536458332999997
 30
0.0
 40
0.9
 50
0.0
 51
90.0
  0
LINE
  5
296
  8
1
 62
     5
 10
-114.67672823860001
 20
28.1036458333
 30
0.0
 11
-111.96974583860001
 21
7.7236458332999991
 31
0.0
  0
LINE
  5
297
  8
1
 62
     5
 10
-107.2833506386
 20
28.1036458333
 30
0.0
 11
-104.57656983859999
 21
7.7236458332999991
 31
0.0
  0
LINE
  5
298
  8
1
 62
     5
 10
-103.67672823860001
 20
28.1036458333
 30
0.0
 11
-100.96974583860001
 21
7.7236458332999991
 31
0.0
  0
LINE
  5
299
  8
1
 62
     5
 10
-96.283350638600012
 20
28.1036458333
 30
0.0
 11
-93.576569838600008
 21
7.7236458332999991
 31
0.0
  0
LINE
  5
29A
  8
1
 62
     5
 10
-92.676728238600006
 20
28.1036458333
 30
0.0
 11
-89.969745838600005
 21
7.7236458332999991
 31
0.0
  0
LINE
  5
29B
  8
1
 62
     5
 10
-85.283350638599998
 20
28.1036458333
 30
0.0
 11
-82.576569838599994
 21
7.7236458332999991
 31
0.0
  0
LINE
  5
29C
  8
1
 62
     5
 10
-81.273843438599997
 20
6.3536458332999999
 30
0.0
 11
-80.273843438599997
 21
6.3536458332999999
 31
0.0
  0
ARC
  5
29D
  8
1
 62
     5
 10
-80.273843438599997
 20
7.6536458332999997
 30
0.0
 40
1.3
 50
270.0
 51
0.0
  0
LINE
  5
29E
  8
1
 62
     5
 10
-81.676728238600006
 20
28.1036458333
 30
0.0
 11
-78.969745838599991
 21
7.7236458332999991
 31
0.0
  0
LINE
  5
29F
  8
1
 62
     5
 10
-107.9208434386
 20
8.5536458332999992
 30
0.0
 11
-105.4738434386
 21
8.5536458332999992
 31
0.0
  0
LINE
  5
2A0
  8
1
 62
     5
 10
-108.2738434386
 20
8.2536458333000002
 30
0.0
 11
-107.9208434386
 21
8.5536458332999992
 31
0.0
  0
ARC
  5
2A1
  8
1
 62
     5
 10
-100.37384343860001
 20
7.6536458332999997
 30
0.0
 40
0.6
 50
90.0
 51
180.0
  0
LINE
  5
2A2
  8
1
 62
     5
 10
-103.2738434386
 20
6.3536458332999999
 30
0.0
 11
-102.2738434386
 21
6.3536458332999999
 31
0.0
  0
ARC
  5
2A3
  8
1
 62
     5
 10
-81.273843438599997
 20
7.6536458332999997
 30
0.0
 40
1.3
 50
180.0
 51
270.0
  0
ARC
  5
2A4
  8
1
 62
     5
 10
-105.4738434386
 20
7.6536458332999997
 30
0.0
 40
0.9
 50
0.0
 51
90.0
  0
ARC
  5
2A5
  8
1
 62
     5
 10
-103.2738434386
 20
7.6536458332999997
 30
0.0
 40
1.3
 50
180.0
 51
270.0
  0
ARC
  5
2A6
  8
1
 62
     5
 10
-116.4738434386
 20
7.6536458332999997
 30
0.0
 40
0.9
 50
0.0
 51
90.0
  0
ARC
  5
2A7
  8
1
 62
     5
 10
-155.37384343860001
 20
7.6536458332999997
 30
0.0
 40
0.6
 50
90.0
 51
180.0
  0
ARC
  5
2A8
  8
1
 62
     5
 10
-157.27384343860001
 20
7.6536458332999997
 30
0.0
 40
1.3
 50
270.0
 51
0.0
  0
LINE
  5
2A9
  8
1
 62
     5
 10
-158.27384343860001
 20
6.3536458332999999
 30
0.0
 11
-157.27384343860001
 21
6.3536458332999999
 31
0.0
  0
ARC
  5
2AA
  8
1
 62
     5
 10
-158.27384343860001
 20
7.6536458332999997
 30
0.0
 40
1.3
 50
180.0
 51
270.0
  0
ARC
  5
2AB
  8
1
 62
     5
 10
-160.4738434386
 20
7.6536458332999997
 30
0.0
 40
0.9
 50
0.0
 51
90.0
  0
LINE
  5
2AC
  8
1
 62
     5
 10
-151.92184343860001
 20
8.5536458332999992
 30
0.0
 11
-149.4738434386
 21
8.5536458332999992
 31
0.0
  0
LINE
  5
2AD
  8
1
 62
     5
 10
-152.27384343860001
 20
8.2536458333000002
 30
0.0
 11
-151.92184343860001
 21
8.5536458332999992
 31
0.0
  0
LINE
  5
2AE
  8
1
 62
     5
 10
-155.37484343860001
 20
8.2536458333000002
 30
0.0
 11
-152.27384343860001
 21
8.2536458333000002
 31
0.0
  0
LINE
  5
2AF
  8
1
 62
     5
 10
-162.7058434386
 20
47.203645833300001
 30
0.0
 11
-119.1878434386
 21
47.203645833300001
 31
0.0
  0
ARC
  5
2B0
  8
1
 62
     5
 10
-72.787843438599992
 20
48.553645833300003
 30
0.0
 40
0.6
 50
180.0
 51
270.0
  0
ARC
  5
2B1
  8
1
 62
     5
 10
-74.687843438599998
 20
48.553645833300003
 30
0.0
 40
1.0
 50
270.0
 51
90.0
  0
LINE
  5
2B2
  8
1
 62
     5
 10
-75.687843438599984
 20
49.853645833299993
 30
0.0
 11
-74.687843438599998
 21
49.853645833299993
 31
0.0
  0
ARC
  5
2B3
  8
1
 62
     5
 10
-75.687843438599984
 20
48.553645833300003
 30
0.0
 40
1.3
 50
90.0
 51
180.0
  0
LINE
  5
2B4
  8
1
 62
     5
 10
-75.687843438599984
 20
47.553645833300003
 30
0.0
 11
-74.687843438599998
 21
47.553645833300003
 31
0.0
  0
ARC
  5
2B5
  8
1
 62
     5
 10
-69.273843438599997
 20
7.6536458332999997
 30
0.0
 40
1.3
 50
270.0
 51
0.0
  0
LINE
  5
2B6
  8
1
 62
     5
 10
-72.788843438599983
 20
47.953645833300001
 30
0.0
 11
-69.687843438599998
 21
47.953645833300001
 31
0.0
  0
LINE
  5
2B7
  8
1
 62
     5
 10
-75.687843438599984
 20
49.553645833300003
 30
0.0
 11
-74.687843438599998
 21
49.553645833300003
 31
0.0
  0
LINE
  5
2B8
  8
1
 62
     5
 10
-74.634843438600001
 20
47.555645833299991
 30
0.0
 11
-72.739843438599991
 21
47.654645833300002
 31
0.0
  0
ARC
  5
2B9
  8
1
 62
     5
 10
-72.787843438599992
 20
48.553645833300003
 30
0.0
 40
0.9
 50
179.99000000000001
 51
273.00999999999999
  0
LINE
  5
2BA
  8
1
 62
     5
 10
-75.73384343859999
 20
47.5546458333
 30
0.0
 11
-77.135843438599991
 21
47.6186458333
 31
0.0
  0
ARC
  5
2BB
  8
1
 62
     5
 10
-75.687843438599984
 20
48.553645833300003
 30
0.0
 40
1.0
 50
90.0
 51
270.0
  0
LINE
  5
2BC
  8
1
 62
     5
 10
-69.687843438599998
 20
47.953645833300001
 30
0.0
 11
-69.334843438600004
 21
47.653645833299997
 31
0.0
  0
LINE
  5
2BD
  8
1
 62
     5
 10
-74.921843438599993
 20
8.5536458332999992
 30
0.0
 11
-72.473843438599999
 21
8.5536458332999992
 31
0.0
  0
LINE
  5
2BE
  8
1
 62
     5
 10
-75.273843438599997
 20
8.2536458333000002
 30
0.0
 11
-74.921843438599993
 21
8.5536458332999992
 31
0.0
  0
LINE
  5
2BF
  8
1
 62
     5
 10
-70.273843438599997
 20
6.3536458332999999
 30
0.0
 11
-69.273843438599997
 21
6.3536458332999999
 31
0.0
  0
LINE
  5
2C0
  8
1
 62
     5
 10
-140.28335063860001
 20
28.1036458333
 30
0.0
 11
-137.57656983859999
 21
7.7236458332999991
 31
0.0
  0
LINE
  5
2C1
  8
1
 62
     5
 10
-136.67672823859999
 20
28.1036458333
 30
0.0
 11
-133.96974583860001
 21
7.7236458332999991
 31
0.0
  0
ARC
  5
2C2
  8
1
 62
     5
 10
-133.37384343860001
 20
7.6536458332999997
 30
0.0
 40
0.6
 50
90.0
 51
180.0
  0
ARC
  5
2C3
  8
1
 62
     5
 10
-135.27384343860001
 20
7.6536458332999997
 30
0.0
 40
1.3
 50
270.0
 51
0.0
  0
LINE
  5
2C4
  8
1
 62
     5
 10
-136.27384343860001
 20
6.3536458332999999
 30
0.0
 11
-135.27384343860001
 21
6.3536458332999999
 31
0.0
  0
ARC
  5
2C5
  8
1
 62
     5
 10
-136.27384343860001
 20
7.6536458332999997
 30
0.0
 40
1.3
 50
180.0
 51
270.0
  0
ARC
  5
2C6
  8
1
 62
     5
 10
-138.4738434386
 20
7.6536458332999997
 30
0.0
 40
0.9
 50
0.0
 51
90.0
  0
LINE
  5
2C7
  8
1
 62
     5
 10
-129.92184343860001
 20
8.5536458332999992
 30
0.0
 11
-127.4738434386
 21
8.5536458332999992
 31
0.0
  0
LINE
  5
2C8
  8
1
 62
     5
 10
-130.27384343860001
 20
8.2536458333000002
 30
0.0
 11
-129.92184343860001
 21
8.5536458332999992
 31
0.0
  0
LINE
  5
2C9
  8
1
 62
     5
 10
-133.37484343860001
 20
8.2536458333000002
 30
0.0
 11
-130.27384343860001
 21
8.2536458333000002
 31
0.0
  0
INSERT
  5
2CB
  8
┌▓È_1
 62
     5
  2
CLUMP3
 10
0.0
 20
0.0
 30
0.0
  0
LINE
  5
2DE
  8
1
 62
     5
 10
-129.28335063860001
 20
28.1036458333
 30
0.0
 11
-126.57656983859999
 21
7.7236458332999991
 31
0.0
  0
LINE
  5
2DF
  8
1
 62
     5
 10
-125.67672823860001
 20
28.1036458333
 30
0.0
 11
-122.96974583860001
 21
7.7236458332999991
 31
0.0
  0
ARC
  5
2E0
  8
1
 62
     5
 10
-122.37384343860001
 20
7.6536458332999997
 30
0.0
 40
0.6
 50
90.0
 51
180.0
  0
ARC
  5
2E1
  8
1
 62
     5
 10
-124.2738434386
 20
7.6536458332999997
 30
0.0
 40
1.3
 50
270.0
 51
0.0
  0
LINE
  5
2E2
  8
1
 62
     5
 10
-125.2738434386
 20
6.3536458332999999
 30
0.0
 11
-124.2738434386
 21
6.3536458332999999
 31
0.0
  0
ARC
  5
2E3
  8
1
 62
     5
 10
-125.2738434386
 20
7.6536458332999997
 30
0.0
 40
1.3
 50
180.0
 51
270.0
  0
ARC
  5
2E4
  8
1
 62
     5
 10
-127.4738434386
 20
7.6536458332999997
 30
0.0
 40
0.9
 50
0.0
 51
90.0
  0
LINE
  5
2E5
  8
1
 62
     5
 10
-118.92184343860001
 20
8.5536458332999992
 30
0.0
 11
-116.4738434386
 21
8.5536458332999992
 31
0.0
  0
LINE
  5
2E6
  8
1
 62
     5
 10
-119.2738434386
 20
8.2536458333000002
 30
0.0
 11
-118.92184343860001
 21
8.5536458332999992
 31
0.0
  0
LINE
  5
2E7
  8
1
 62
     5
 10
-122.3748434386
 20
8.2536458333000002
 30
0.0
 11
-119.2738434386
 21
8.2536458333000002
 31
0.0
  0
LINE
  5
2E8
  8
1
 62
     5
 10
-162.92184343860001
 20
8.5536458332999992
 30
0.0
 11
-160.4738434386
 21
8.5536458332999992
 31
0.0
  0
LINE
  5
2E9
  8
1
 62
     5
 10
-163.27384343860001
 20
8.2536458333000002
 30
0.0
 11
-162.92184343860001
 21
8.5536458332999992
 31
0.0
  0
LINE
  5
2EA
  8
1
 62
     5
 10
-162.28335063860001
 20
28.1036458333
 30
0.0
 11
-159.57656983859999
 21
7.7236458332999991
 31
0.0
  0
LINE
  5
2EB
  8
1
 62
     5
 10
-158.67672823859999
 20
28.1036458333
 30
0.0
 11
-155.96974583860001
 21
7.7236458332999991
 31
0.0
  0
LINE
  5
2EC
  8
1
 62
     5
 10
-63.635843438599998
 20
47.555645833299991
 30
0.0
 11
-61.740843438599988
 21
47.654645833300002
 31
0.0
  0
ARC
  5
2ED
  8
1
 62
     5
 10
-61.7878434386
 20
48.553645833300003
 30
0.0
 40
0.9
 50
179.99000000000001
 51
273.00999999999999
  0
ARC
  5
2EE
  8
1
 62
     5
 10
-64.687843438599998
 20
48.553645833300003
 30
0.0
 40
1.3
 50
90.0
 51
180.0
  0
ARC
  5
2EF
  8
1
 62
     5
 10
-63.687843438599991
 20
48.553645833300003
 30
0.0
 40
1.3
 50
0.0
 51
90.0
  0
ARC
  5
2F0
  8
1
 62
     5
 10
-63.687843438599991
 20
48.553645833300003
 30
0.0
 40
1.0
 50
270.0
 51
90.0
  0
LINE
  5
2F1
  8
1
 62
     5
 10
-63.920843438599988
 20
8.5536458332999992
 30
0.0
 11
-61.473843438599999
 21
8.5536458332999992
 31
0.0
  0
LINE
  5
2F2
  8
1
 62
     5
 10
-67.374843438599996
 20
8.2536458333000002
 30
0.0
 11
-64.273843438599997
 21
8.2536458333000002
 31
0.0
  0
ARC
  5
2F3
  8
1
 62
     5
 10
-67.373843438599991
 20
7.6536458332999997
 30
0.0
 40
0.6
 50
90.0
 51
180.0
  0
LINE
  5
2F4
  8
1
 62
     5
 10
-63.9218434386
 20
8.5536458332999992
 30
0.0
 11
-61.473843438599999
 21
8.5536458332999992
 31
0.0
  0
LINE
  5
2F5
  8
1
 62
     5
 10
-63.283350638599991
 20
28.1036458333
 30
0.0
 11
-60.576569838599987
 21
7.7236458332999991
 31
0.0
  0
LINE
  5
2F6
  8
1
 62
     5
 10
-64.7328434386
 20
47.5546458333
 30
0.0
 11
-66.135843438599991
 21
47.6186458333
 31
0.0
  0
ARC
  5
2F7
  8
1
 62
     5
 10
-66.887843438600001
 20
48.553645833300003
 30
0.0
 40
1.1999999999999991
 50
308.80000000000001
 51
359.99000000000001
  0
ARC
  5
2F8
  8
1
 62
     5
 10
-66.887843438600001
 20
48.553645833300003
 30
0.0
 40
0.9
 50
270.0
 51
0.0
  0
INSERT
  5
2FA
  8
┌▓È_1
 62
     5
  2
CLUMP4
 10
0.0
 20
0.0
 30
0.0
  0
LINE
  5
30D
  8
1
 62
     5
 10
-151.28335063860001
 20
28.1036458333
 30
0.0
 11
-148.57656983859999
 21
7.7236458332999991
 31
0.0
  0
LINE
  5
30E
  8
1
 62
     5
 10
-147.67672823859999
 20
28.1036458333
 30
0.0
 11
-144.96974583860001
 21
7.7236458332999991
 31
0.0
  0
ARC
  5
30F
  8
1
 62
     5
 10
-144.37384343860001
 20
7.6536458332999997
 30
0.0
 40
0.6
 50
90.0
 51
180.0
  0
ARC
  5
310
  8
1
 62
     5
 10
-146.27384343860001
 20
7.6536458332999997
 30
0.0
 40
1.3
 50
270.0
 51
0.0
  0
LINE
  5
311
  8
1
 62
     5
 10
-147.27384343860001
 20
6.3536458332999999
 30
0.0
 11
-146.27384343860001
 21
6.3536458332999999
 31
0.0
  0
ARC
  5
312
  8
1
 62
     5
 10
-147.27384343860001
 20
7.6536458332999997
 30
0.0
 40
1.3
 50
180.0
 51
270.0
  0
ARC
  5
313
  8
1
 62
     5
 10
-149.4738434386
 20
7.6536458332999997
 30
0.0
 40
0.9
 50
0.0
 51
90.0
  0
LINE
  5
314
  8
1
 62
     5
 10
-140.92184343860001
 20
8.5536458332999992
 30
0.0
 11
-138.4738434386
 21
8.5536458332999992
 31
0.0
  0
LINE
  5
315
  8
1
 62
     5
 10
-141.27384343860001
 20
8.2536458333000002
 30
0.0
 11
-140.92184343860001
 21
8.5536458332999992
 31
0.0
  0
LINE
  5
316
  8
1
 62
     5
 10
-144.37484343860001
 20
8.2536458333000002
 30
0.0
 11
-141.27384343860001
 21
8.2536458333000002
 31
0.0
  0
INSERT
  5
318
  8
┌▓È_1
 62
     5
  2
CLUMP5
 10
0.0
 20
0.0
 30
0.0
  0
ARC
  5
32B
  8
1
 62
     5
 10
11.5482117311
 20
48.553645833300003
 30
0.0
 40
0.9
 50
179.99000000000001
 51
273.00999999999999
  0
ARC
  5
32C
  8
1
 62
     5
 10
20.648211731100002
 20
48.553645833300003
 30
0.0
 40
1.3
 50
0.0
 51
90.0
  0
ARC
  5
32D
  8
1
 62
     5
 10
22.5482117311
 20
48.553645833300003
 30
0.0
 40
0.6
 50
180.0
 51
270.0
  0
ARC
  5
32E
  8
1
 62
     5
 10
28.448211731099999
 20
48.553645833300003
 30
0.0
 40
0.9
 50
270.0
 51
0.0
  0
LINE
  5
32F
  8
1
 62
     5
 10
19.602211731099999
 20
47.5546458333
 30
0.0
 11
18.200211731099991
 21
47.6186458333
 31
0.0
  0
ARC
  5
330
  8
1
 62
     5
 10
22.5482117311
 20
48.553645833300003
 30
0.0
 40
0.9
 50
179.99000000000001
 51
273.00999999999999
  0
LINE
  5
331
  8
1
 62
     5
 10
20.701211731099999
 20
47.555645833299991
 30
0.0
 11
22.596211731099999
 21
47.654645833300002
 31
0.0
  0
LINE
  5
332
  8
1
 62
     5
 10
19.648211731099991
 20
49.553645833300003
 30
0.0
 11
20.648211731100002
 21
49.553645833300003
 31
0.0
  0
LINE
  5
333
  8
1
 62
     5
 10
19.648211731099991
 20
47.553645833300003
 30
0.0
 11
20.648211731100002
 21
47.553645833300003
 31
0.0
  0
ARC
  5
334
  8
1
 62
     5
 10
19.648211731099991
 20
48.553645833300003
 30
0.0
 40
1.3
 50
90.0
 51
180.0
  0
LINE
  5
335
  8
1
 62
     5
 10
19.648211731099991
 20
49.853645833299993
 30
0.0
 11
20.648211731100002
 21
49.853645833299993
 31
0.0
  0
ARC
  5
336
  8
1
 62
     5
 10
20.648211731100002
 20
48.553645833300003
 30
0.0
 40
1.0
 50
270.0
 51
90.0
  0
LINE
  5
337
  8
1
 62
     5
 10
-119.1878434386
 20
47.203645833300001
 30
0.0
 11
-58.170421764399997
 21
47.203645833300001
 31
0.0
  0
LINE
  5
338
  8
1
 62
     5
 10
-69.334843438600004
 20
47.653645833299997
 30
0.0
 11
-66.887843438600001
 21
47.653645833299997
 31
0.0
  0
ARC
  5
339
  8
1
 62
     5
 10
-61.7878434386
 20
48.553645833300003
 30
0.0
 40
0.9
 50
179.99000000000001
 51
273.00999999999999
  0
LINE
  5
33A
  8
1
 62
     5
 10
-64.273843438599997
 20
8.2536458333000002
 30
0.0
 11
-63.920843438599988
 21
8.5536458332999992
 31
0.0
  0
LINE
  5
33B
  8
1
 62
     5
 10
-64.187843438599998
 20
47.203645833300001
 30
0.0
 11
-58.170421764399997
 21
47.203645833300001
 31
0.0
  0
ARC
  5
33C
  8
1
 62
     5
 10
-64.687843438599998
 20
48.553645833300003
 30
0.0
 40
1.0
 50
90.0
 51
270.0
  0
LINE
  5
33D
  8
1
 62
     5
 10
-64.687843438599998
 20
47.553645833300003
 30
0.0
 11
-63.687843438599991
 21
47.553645833300003
 31
0.0
  0
LINE
  5
33E
  8
1
 62
     5
 10
-63.634843438599987
 20
47.555645833299991
 30
0.0
 11
-61.739843438599991
 21
47.654645833300002
 31
0.0
  0
LINE
  5
33F
  8
1
 62
     5
 10
-64.687843438599998
 20
49.553645833300003
 30
0.0
 11
-63.687843438599991
 21
49.553645833300003
 31
0.0
  0
LINE
  5
340
  8
1
 62
     5
 10
-64.687843438599998
 20
49.853645833299993
 30
0.0
 11
-63.687843438599991
 21
49.853645833299993
 31
0.0
  0
ARC
  5
341
  8
1
 62
     5
 10
-63.687843438599991
 20
48.553645833300003
 30
0.0
 40
1.3
 50
0.0
 51
90.0
  0
ARC
  5
342
  8
1
 62
     5
 10
-63.687843438599991
 20
48.553645833300003
 30
0.0
 40
1.0
 50
270.0
 51
90.0
  0
LINE
  5
343
  8
1
 62
     5
 10
-63.283350638599991
 20
28.1036458333
 30
0.0
 11
-60.576569838599987
 21
7.7236458332999991
 31
0.0
  0
ARC
  5
344
  8
1
 62
     5
 10
9.6482117310999982
 20
48.553645833300003
 30
0.0
 40
1.3
 50
0.0
 51
90.0
  0
LINE
  5
345
  8
1
 62
     5
 10
8.6482117310999982
 20
49.853645833299993
 30
0.0
 11
9.6482117310999982
 21
49.853645833299993
 31
0.0
  0
ARC
  5
346
  8
1
 62
     5
 10
9.6482117310999982
 20
48.553645833300003
 30
0.0
 40
1.0
 50
270.0
 51
90.0
  0
LINE
  5
347
  8
1
 62
     5
 10
8.6482117310999982
 20
49.553645833300003
 30
0.0
 11
9.6482117310999982
 21
49.553645833300003
 31
0.0
  0
LINE
  5
348
  8
1
 62
     5
 10
8.6482117310999982
 20
47.553645833300003
 30
0.0
 11
9.6482117310999982
 21
47.553645833300003
 31
0.0
  0
LINE
  5
349
  8
1
 62
     5
 10
9.7012117311000008
 20
47.555645833299991
 30
0.0
 11
11.5962117311
 21
47.654645833300002
 31
0.0
  0
LINE
  5
34A
  8
1
 62
     5
 10
25.648211731100002
 20
47.953645833300001
 30
0.0
 11
26.0012117311
 21
47.653645833299997
 31
0.0
  0
LINE
  5
34B
  8
1
 62
     5
 10
26.0012117311
 20
47.653645833299997
 30
0.0
 11
28.448211731099999
 21
47.653645833299997
 31
0.0
  0
LINE
  5
34C
  8
1
 62
     5
 10
22.547211731099999
 20
47.953645833300001
 30
0.0
 11
25.648211731100002
 21
47.953645833300001
 31
0.0
  0
ARC
  5
34D
  8
1
 62
     5
 10
30.648211731100002
 20
48.553645833300003
 30
0.0
 40
1.0
 50
90.0
 51
270.0
  0
LINE
  5
34E
  8
1
 62
     5
 10
30.648211731100002
 20
49.853645833299993
 30
0.0
 11
31.648211731100002
 21
49.853645833299993
 31
0.0
  0
LINE
  5
34F
  8
1
 62
     5
 10
30.648211731100002
 20
49.553645833300003
 30
0.0
 11
31.648211731100002
 21
49.553645833300003
 31
0.0
  0
LINE
  5
350
  8
1
 62
     5
 10
30.648211731100002
 20
47.553645833300003
 30
0.0
 11
31.648211731100002
 21
47.553645833300003
 31
0.0
  0
LINE
  5
351
  8
1
 62
     5
 10
11.5482117311
 20
47.953645833300001
 30
0.0
 11
14.648211731099989
 21
47.953645833300001
 31
0.0
  0
ARC
  5
352
  8
1
 62
     5
 10
19.648211731099991
 20
48.553645833300003
 30
0.0
 40
1.0
 50
90.0
 51
270.0
  0
ARC
  5
353
  8
1
 62
     5
 10
17.448211731099999
 20
48.553645833300003
 30
0.0
 40
0.9
 50
270.0
 51
0.0
  0
ARC
  5
354
  8
1
 62
     5
 10
17.448211731099999
 20
48.553645833300003
 30
0.0
 40
1.1999999999999991
 50
308.80000000000001
 51
359.99000000000001
  0
LINE
  5
355
  8
1
 62
     5
 10
14.648211731099989
 20
47.953645833300001
 30
0.0
 11
15.0002117311
 21
47.653645833299997
 31
0.0
  0
LINE
  5
356
  8
1
 62
     5
 10
15.0002117311
 20
47.653645833299997
 30
0.0
 11
17.448211731099999
 21
47.653645833299997
 31
0.0
  0
ARC
  5
357
  8
1
 62
     5
 10
30.648211731100002
 20
48.553645833300003
 30
0.0
 40
1.3
 50
90.0
 51
180.0
  0
ARC
  5
358
  8
1
 62
     5
 10
28.448211731099999
 20
48.553645833300003
 30
0.0
 40
1.1999999999999991
 50
308.80000000000001
 51
359.99000000000001
  0
LINE
  5
359
  8
1
 62
     5
 10
30.6032117311
 20
47.5546458333
 30
0.0
 11
29.200211731100001
 21
47.6186458333
 31
0.0
  0
ARC
  5
35A
  8
1
 62
     5
 10
31.648211731100002
 20
48.553645833300003
 30
0.0
 40
1.0
 50
270.0
 51
90.0
  0
ARC
  5
35B
  8
1
 62
     5
 10
31.648211731100002
 20
48.553645833300003
 30
0.0
 40
1.3
 50
0.0
 51
90.0
  0
ARC
  5
35C
  8
1
 62
     5
 10
11.5482117311
 20
48.553645833300003
 30
0.0
 40
0.6
 50
180.0
 51
270.0
  0
LINE
  5
35D
  8
1
 62
     5
 10
4.0012117310999988
 20
47.653645833299997
 30
0.0
 11
6.4482117310999989
 21
47.653645833299997
 31
0.0
  0
ARC
  5
35E
  8
1
 62
     5
 10
8.6482117310999982
 20
48.553645833300003
 30
0.0
 40
1.3
 50
90.0
 51
180.0
  0
ARC
  5
35F
  8
1
 62
     5
 10
6.4482117310999989
 20
48.553645833300003
 30
0.0
 40
0.9
 50
270.0
 51
0.0
  0
ARC
  5
360
  8
1
 62
     5
 10
6.4482117310999989
 20
48.553645833300003
 30
0.0
 40
1.1999999999999991
 50
308.80000000000001
 51
359.99000000000001
  0
LINE
  5
361
  8
1
 62
     5
 10
8.6032117311
 20
47.5546458333
 30
0.0
 11
7.2002117310999996
 21
47.6186458333
 31
0.0
  0
LINE
  5
362
  8
1
 62
     5
 10
3.6482117310999991
 20
47.953645833300001
 30
0.0
 11
4.0012117310999988
 21
47.653645833299997
 31
0.0
  0
ARC
  5
363
  8
1
 62
     5
 10
8.6482117310999982
 20
48.553645833300003
 30
0.0
 40
1.0
 50
90.0
 51
270.0
  0
ARC
  5
364
  8
1
 62
     5
 10
26.0622117311
 20
7.6536458332999997
 30
0.0
 40
1.3
 50
270.0
 51
0.0
  0
LINE
  5
365
  8
1
 62
     5
 10
31.0622117311
 20
8.2536458333000002
 30
0.0
 11
31.415211731100001
 21
8.5536458332999992
 31
0.0
  0
LINE
  5
366
  8
1
 62
     5
 10
13.659326931100001
 20
28.1036458333
 30
0.0
 11
16.366309331099998
 21
7.7236458332999991
 31
0.0
  0
ARC
  5
367
  8
1
 62
     5
 10
22.8622117311
 20
7.6536458332999997
 30
0.0
 40
0.9
 50
0.0
 51
90.0
  0
ARC
  5
368
  8
1
 62
     5
 10
25.0622117311
 20
7.6536458332999997
 30
0.0
 40
1.3
 50
180.0
 51
270.0
  0
LINE
  5
369
  8
1
 62
     5
 10
14.0622117311
 20
6.3536458332999999
 30
0.0
 11
15.0622117311
 21
6.3536458332999999
 31
0.0
  0
ARC
  5
36A
  8
1
 62
     5
 10
16.962211731099998
 20
7.6536458332999997
 30
0.0
 40
0.6
 50
90.0
 51
180.0
  0
LINE
  5
36B
  8
1
 62
     5
 10
16.962211731099998
 20
8.2536458333000002
 30
0.0
 11
20.0622117311
 21
8.2536458333000002
 31
0.0
  0
LINE
  5
36C
  8
1
 62
     5
 10
24.659326931100001
 20
28.1036458333
 30
0.0
 11
27.366309331099998
 21
7.7236458332999991
 31
0.0
  0
LINE
  5
36D
  8
1
 62
     5
 10
21.052704531100002
 20
28.1036458333
 30
0.0
 11
23.759485331099999
 21
7.7236458332999991
 31
0.0
  0
ARC
  5
36E
  8
1
 62
     5
 10
27.962211731099998
 20
7.6536458332999997
 30
0.0
 40
0.6
 50
90.0
 51
180.0
  0
ARC
  5
36F
  8
1
 62
     5
 10
14.0622117311
 20
7.6536458332999997
 30
0.0
 40
1.3
 50
180.0
 51
270.0
  0
ARC
  5
370
  8
1
 62
     5
 10
11.8622117311
 20
7.6536458332999997
 30
0.0
 40
0.9
 50
0.0
 51
90.0
  0
LINE
  5
371
  8
1
 62
     5
 10
25.0622117311
 20
6.3536458332999999
 30
0.0
 11
26.0622117311
 21
6.3536458332999999
 31
0.0
  0
ARC
  5
372
  8
1
 62
     5
 10
15.0622117311
 20
7.6536458332999997
 30
0.0
 40
1.3
 50
270.0
 51
0.0
  0
LINE
  5
373
  8
1
 62
     5
 10
20.0622117311
 20
8.2536458333000002
 30
0.0
 11
20.4142117311
 21
8.5536458332999992
 31
0.0
  0
LINE
  5
374
  8
1
 62
     5
 10
20.4142117311
 20
8.5536458332999992
 30
0.0
 11
22.8622117311
 21
8.5536458332999992
 31
0.0
  0
LINE
  5
375
  8
1
 62
     5
 10
27.961211731100001
 20
8.2536458333000002
 30
0.0
 11
31.0622117311
 21
8.2536458333000002
 31
0.0
  0
ARC
  5
376
  8
1
 62
     5
 10
-246.27384343860001
 20
7.6536458332999997
 30
0.0
 40
1.3
 50
180.0
 51
270.0
  0
LINE
  5
377
  8
1
 62
     5
 10
-239.92184343860001
 20
8.5536458332999992
 30
0.0
 11
-237.4738434386
 21
8.5536458332999992
 31
0.0
  0
LINE
  5
378
  8
1
 62
     5
 10
-243.37384343860001
 20
8.2536458333000002
 30
0.0
 11
-240.27384343860001
 21
8.2536458333000002
 31
0.0
  0
LINE
  5
379
  8
1
 62
     5
 10
-250.7058434386
 20
49.853645833299993
 30
0.0
 11
-250.7058434386
 21
8.5536458332999992
 31
0.0
  0
ARC
  5
37A
  8
1
 62
     5
 10
-240.6878434386
 20
48.553645833300003
 30
0.0
 40
1.3
 50
90.0
 51
180.0
  0
ARC
  5
37B
  8
1
 62
     5
 10
-248.78784343859999
 20
48.553645833300003
 30
0.0
 40
0.6
 50
180.0
 51
270.0
  0
ARC
  5
37C
  8
1
 62
     5
 10
-250.6878434386
 20
48.553645833300003
 30
0.0
 40
1.3
 50
0.0
 51
90.0
  0
LINE
  5
37D
  8
1
 62
     5
 10
-245.33584343859999
 20
47.653645833299997
 30
0.0
 11
-242.88784343859999
 21
47.653645833299997
 31
0.0
  0
LINE
  5
37E
  8
1
 62
     5
 10
-245.6878434386
 20
47.953645833300001
 30
0.0
 11
-245.33584343859999
 21
47.653645833299997
 31
0.0
  0
LINE
  5
37F
  8
1
 62
     5
 10
-248.78784343859999
 20
47.953645833300001
 30
0.0
 11
-245.6878434386
 21
47.953645833300001
 31
0.0
  0
LINE
  5
380
  8
1
 62
     5
 10
-240.6878434386
 20
47.553645833300003
 30
0.0
 11
-240.1878434386
 21
47.553645833300003
 31
0.0
  0
LINE
  5
381
  8
1
 62
     5
 10
-240.73384343859999
 20
47.5546458333
 30
0.0
 11
-242.13584343860001
 21
47.6186458333
 31
0.0
  0
ARC
  5
382
  8
1
 62
     5
 10
-242.88784343859999
 20
48.553645833300003
 30
0.0
 40
1.1999999999999991
 50
308.80000000000001
 51
359.99000000000001
  0
ARC
  5
383
  8
1
 62
     5
 10
-242.88784343859999
 20
48.553645833300003
 30
0.0
 40
0.9
 50
270.0
 51
0.0
  0
ARC
  5
384
  8
1
 62
     5
 10
-250.6878434386
 20
48.553645833300003
 30
0.0
 40
1.0
 50
0.0
 51
90.0
  0
ARC
  5
385
  8
1
 62
     5
 10
-250.6878434386
 20
48.553645833300003
 30
0.0
 40
1.0
 50
270.0
 51
275.05049100000002
  0
DIMENSION
  5
395
  8
Éíû@É³
  2
*D8
 10
-291.41204427079998
 20
49.853645833299993
 30
0.0
 11
-291.41204427079998
 21
28.1036458333
 31
0.0
 70
   128
  1
%%c<>
 13
-250.7058434386
 23
49.853645833299993
 33
0.0
 14
-246.27384343860001
 24
6.3536458332999999
 34
0.0
 50
90.0
  0
LINE
  5
396
  8
1
 62
     5
 10
3.0622117311000001
 20
6.3536458332999999
 30
0.0
 11
4.0622117310999997
 21
6.3536458332999999
 31
0.0
  0
ARC
  5
397
  8
1
 62
     5
 10
4.0622117310999997
 20
7.6536458332999997
 30
0.0
 40
1.3
 50
270.0
 51
0.0
  0
LINE
  5
398
  8
1
 62
     5
 10
10.0527045311
 20
28.1036458333
 30
0.0
 11
12.7594853311
 21
7.7236458332999991
 31
0.0
  0
LINE
  5
399
  8
1
 62
     5
 10
2.6593269310999998
 20
28.1036458333
 30
0.0
 11
5.3663093311000001
 21
7.7236458332999991
 31
0.0
  0
ARC
  5
39A
  8
1
 62
     5
 10
5.9622117311
 20
7.6536458332999997
 30
0.0
 40
0.6
 50
90.0
 51
180.0
  0
LINE
  5
39B
  8
1
 62
     5
 10
9.0622117310999997
 20
8.2536458333000002
 30
0.0
 11
9.4152117310999994
 21
8.5536458332999992
 31
0.0
  0
LINE
  5
39C
  8
1
 62
     5
 10
9.4152117310999994
 20
8.5536458332999992
 30
0.0
 11
11.8622117311
 21
8.5536458332999992
 31
0.0
  0
LINE
  5
39D
  8
1
 62
     5
 10
5.9612117310999997
 20
8.2536458333000002
 30
0.0
 11
9.0622117310999997
 21
8.2536458333000002
 31
0.0
  0
ARC
  5
39E
  8
1
 62
     5
 10
-239.6878434386
 20
48.553645833300003
 30
0.0
 40
1.3
 50
0.0
 51
90.0
  0
ARC
  5
39F
  8
1
 62
     5
 10
-237.4738434386
 20
7.6536458332999997
 30
0.0
 40
0.9
 50
0.0
 51
90.0
  0
ARC
  5
3A0
  8
1
 62
     5
 10
-235.27384343860001
 20
7.6536458332999997
 30
0.0
 40
1.3
 50
180.0
 51
270.0
  0
LINE
  5
3A1
  8
1
 62
     5
 10
-250.7058434386
 20
8.5536458332999992
 30
0.0
 11
-248.4738434386
 21
8.5536458332999992
 31
0.0
  0
ARC
  5
3A2
  8
1
 62
     5
 10
-243.37384343860001
 20
7.6536458332999997
 30
0.0
 40
0.6
 50
90.0
 51
180.0
  0
LINE
  5
3A3
  8
1
 62
     5
 10
-240.1878434386
 20
8.3269418333000012
 30
0.0
 11
-239.92184343860001
 21
8.5536458332999992
 31
0.0
  0
LINE
  5
3A4
  8
1
 62
     5
 10
-240.27384343860001
 20
8.2536458333000002
 30
0.0
 11
-240.1878434386
 21
8.3269418333000012
 31
0.0
  0
LINE
  5
3A5
  8
1
 62
     5
 10
-250.28335063860001
 20
28.1036458333
 30
0.0
 11
-247.57656983859999
 21
7.7236458332999991
 31
0.0
  0
LINE
  5
3A6
  8
1
 62
     5
 10
-246.67672823859999
 20
28.1036458333
 30
0.0
 11
-243.96974583860001
 21
7.7236458332999991
 31
0.0
  0
LINE
  5
3A7
  8
1
 62
     5
 10
-239.28335063860001
 20
28.1036458333
 30
0.0
 11
-236.57656983859999
 21
7.7236458332999991
 31
0.0
  0
LINE
  5
3A8
  8
1
 62
     5
 10
-239.63584343860001
 20
47.555645833299991
 30
0.0
 11
-237.7408434386
 21
47.654645833300002
 31
0.0
  0
ARC
  5
3A9
  8
1
 62
     5
 10
-237.78784343859999
 20
48.553645833300003
 30
0.0
 40
0.9
 50
179.99000000000001
 51
273.00999999999999
  0
ARC
  5
3AA
  8
1
 62
     5
 10
-237.78784343859999
 20
48.553645833300003
 30
0.0
 40
0.6
 50
180.0
 51
270.0
  0
ARC
  5
3AB
  8
1
 62
     5
 10
-240.6878434386
 20
48.553645833300003
 30
0.0
 40
1.0
 50
90.0
 51
270.0
  0
ARC
  5
3AC
  8
1
 62
     5
 10
-239.6878434386
 20
48.553645833300003
 30
0.0
 40
1.0
 50
270.0
 51
90.0
  0
LINE
  5
3AD
  8
1
 62
     5
 10
-250.63584343860001
 20
47.555645833299991
 30
0.0
 11
-248.7408434386
 21
47.654645833300002
 31
0.0
  0
LINE
  5
3AE
  8
1
 62
     5
 10
-240.1878434386
 20
49.853645833299993
 30
0.0
 11
-239.6878434386
 21
49.853645833299993
 31
0.0
  0
LINE
  5
3AF
  8
1
 62
     5
 10
-240.6878434386
 20
49.853645833299993
 30
0.0
 11
-240.1878434386
 21
49.853645833299993
 31
0.0
  0
LINE
  5
3B0
  8
1
 62
     5
 10
-240.1878434386
 20
49.553645833300003
 30
0.0
 11
-239.6878434386
 21
49.553645833300003
 31
0.0
  0
LINE
  5
3B1
  8
1
 62
     5
 10
-240.6878434386
 20
49.553645833300003
 30
0.0
 11
-240.1878434386
 21
49.553645833300003
 31
0.0
  0
LINE
  5
3B2
  8
1
 62
     5
 10
-250.7058434386
 20
47.203645833300001
 30
0.0
 11
-240.1878434386
 21
47.203645833300001
 31
0.0
  0
LINE
  5
3B3
  8
1
 62
     5
 10
-240.1878434386
 20
47.553645833300003
 30
0.0
 11
-239.6878434386
 21
47.553645833300003
 31
0.0
  0
LINE
  5
3B4
  8
1
 62
     5
 10
-246.27384343860001
 20
6.3536458332999999
 30
0.0
 11
-245.27384343860001
 21
6.3536458332999999
 31
0.0
  0
ARC
  5
3B5
  8
1
 62
     5
 10
-245.27384343860001
 20
7.6536458332999997
 30
0.0
 40
1.3
 50
270.0
 51
0.0
  0
ARC
  5
3B6
  8
1
 62
     5
 10
-248.4738434386
 20
7.6536458332999997
 30
0.0
 40
0.9
 50
0.0
 51
90.0
  0
INSERT
  5
3B8
  8
┌▓È_1
 62
     5
  2
CLUMP6
 10
0.0
 20
0.0
 30
0.0
  0
LINE
  5
3CB
  8
1
 62
     5
 10
-184.28335063860001
 20
28.1036458333
 30
0.0
 11
-181.57656983859999
 21
7.7236458332999991
 31
0.0
  0
LINE
  5
3CC
  8
1
 62
     5
 10
-180.67672823859999
 20
28.1036458333
 30
0.0
 11
-177.96974583860001
 21
7.7236458332999991
 31
0.0
  0
ARC
  5
3CD
  8
1
 62
     5
 10
-177.37384343860001
 20
7.6536458332999997
 30
0.0
 40
0.6
 50
90.0
 51
180.0
  0
ARC
  5
3CE
  8
1
 62
     5
 10
-179.27384343860001
 20
7.6536458332999997
 30
0.0
 40
1.3
 50
270.0
 51
0.0
  0
LINE
  5
3CF
  8
1
 62
     5
 10
-180.27384343860001
 20
6.3536458332999999
 30
0.0
 11
-179.27384343860001
 21
6.3536458332999999
 31
0.0
  0
ARC
  5
3D0
  8
1
 62
     5
 10
-180.27384343860001
 20
7.6536458332999997
 30
0.0
 40
1.3
 50
180.0
 51
270.0
  0
ARC
  5
3D1
  8
1
 62
     5
 10
-182.4738434386
 20
7.6536458332999997
 30
0.0
 40
0.9
 50
0.0
 51
90.0
  0
LINE
  5
3D2
  8
1
 62
     5
 10
-173.92184343860001
 20
8.5536458332999992
 30
0.0
 11
-171.4738434386
 21
8.5536458332999992
 31
0.0
  0
LINE
  5
3D3
  8
1
 62
     5
 10
-174.27384343860001
 20
8.2536458333000002
 30
0.0
 11
-173.92184343860001
 21
8.5536458332999992
 31
0.0
  0
LINE
  5
3D4
  8
1
 62
     5
 10
-177.37484343860001
 20
8.2536458333000002
 30
0.0
 11
-174.27384343860001
 21
8.2536458333000002
 31
0.0
  0
LINE
  5
3D5
  8
1
 62
     5
 10
-173.28335063860001
 20
28.1036458333
 30
0.0
 11
-170.57656983859999
 21
7.7236458332999991
 31
0.0
  0
ARC
  5
3D6
  8
1
 62
     5
 10
-169.27384343860001
 20
7.6536458332999997
 30
0.0
 40
1.3
 50
180.0
 51
270.0
  0
ARC
  5
3D7
  8
1
 62
     5
 10
-171.4738434386
 20
7.6536458332999997
 30
0.0
 40
0.9
 50
0.0
 51
90.0
  0
LINE
  5
3D8
  8
1
 62
     5
 10
-232.37384343860001
 20
8.2536458333000002
 30
0.0
 11
-229.27384343860001
 21
8.2536458333000002
 31
0.0
  0
LINE
  5
3D9
  8
1
 62
     5
 10
-228.92184343860001
 20
8.5536458332999992
 30
0.0
 11
-226.4738434386
 21
8.5536458332999992
 31
0.0
  0
LINE
  5
3DA
  8
1
 62
     5
 10
-229.27384343860001
 20
8.2536458333000002
 30
0.0
 11
-228.92184343860001
 21
8.5536458332999992
 31
0.0
  0
LINE
  5
3DB
  8
1
 62
     5
 10
-235.67672823859999
 20
28.1036458333
 30
0.0
 11
-232.96974583860001
 21
7.7236458332999991
 31
0.0
  0
LINE
  5
3DC
  8
1
 62
     5
 10
-234.33584343859999
 20
47.653645833299997
 30
0.0
 11
-231.88784343859999
 21
47.653645833299997
 31
0.0
  0
LINE
  5
3DD
  8
1
 62
     5
 10
-234.6878434386
 20
47.953645833300001
 30
0.0
 11
-234.33584343859999
 21
47.653645833299997
 31
0.0
  0
LINE
  5
3DE
  8
1
 62
     5
 10
-237.78784343859999
 20
47.953645833300001
 30
0.0
 11
-234.6878434386
 21
47.953645833300001
 31
0.0
  0
ARC
  5
3DF
  8
1
 62
     5
 10
-232.37384343860001
 20
7.6536458332999997
 30
0.0
 40
0.6
 50
90.0
 51
180.0
  0
LINE
  5
3E0
  8
1
 62
     5
 10
-235.27384343860001
 20
6.3536458332999999
 30
0.0
 11
-234.27384343860001
 21
6.3536458332999999
 31
0.0
  0
ARC
  5
3E1
  8
1
 62
     5
 10
-234.27384343860001
 20
7.6536458332999997
 30
0.0
 40
1.3
 50
270.0
 51
0.0
  0
ARC
  5
3E2
  8
1
 62
     5
 10
-248.78784343859999
 20
48.553645833300003
 30
0.0
 40
0.9
 50
179.99000000000001
 51
273.00999999999999
  0
LINE
  5
3E3
  8
1
 62
     5
 10
-206.92184343860001
 20
8.5536458332999992
 30
0.0
 11
-204.4738434386
 21
8.5536458332999992
 31
0.0
  0
LINE
  5
3E4
  8
1
 62
     5
 10
-207.27384343860001
 20
8.2536458333000002
 30
0.0
 11
-206.92184343860001
 21
8.5536458332999992
 31
0.0
  0
LINE
  5
3E5
  8
1
 62
     5
 10
-210.37484343860001
 20
8.2536458333000002
 30
0.0
 11
-207.27384343860001
 21
8.2536458333000002
 31
0.0
  0
INSERT
  5
3E7
  8
┌▓È_1
 62
     5
  2
CLUMP7
 10
0.0
 20
0.0
 30
0.0
  0
LINE
  5
3FA
  8
1
 62
     5
 10
-206.28335063860001
 20
28.1036458333
 30
0.0
 11
-203.57656983859999
 21
7.7236458332999991
 31
0.0
  0
LINE
  5
3FB
  8
1
 62
     5
 10
-202.67672823859999
 20
28.1036458333
 30
0.0
 11
-199.96974583860001
 21
7.7236458332999991
 31
0.0
  0
ARC
  5
3FC
  8
1
 62
     5
 10
-199.37384343860001
 20
7.6536458332999997
 30
0.0
 40
0.6
 50
90.0
 51
180.0
  0
ARC
  5
3FD
  8
1
 62
     5
 10
-201.27384343860001
 20
7.6536458332999997
 30
0.0
 40
1.3
 50
270.0
 51
0.0
  0
LINE
  5
3FE
  8
1
 62
     5
 10
-202.27384343860001
 20
6.3536458332999999
 30
0.0
 11
-201.27384343860001
 21
6.3536458332999999
 31
0.0
  0
ARC
  5
3FF
  8
1
 62
     5
 10
-202.27384343860001
 20
7.6536458332999997
 30
0.0
 40
1.3
 50
180.0
 51
270.0
  0
ARC
  5
400
  8
1
 62
     5
 10
-204.4738434386
 20
7.6536458332999997
 30
0.0
 40
0.9
 50
0.0
 51
90.0
  0
LINE
  5
401
  8
1
 62
     5
 10
-195.92184343860001
 20
8.5536458332999992
 30
0.0
 11
-193.4738434386
 21
8.5536458332999992
 31
0.0
  0
LINE
  5
402
  8
1
 62
     5
 10
-196.27384343860001
 20
8.2536458333000002
 30
0.0
 11
-195.92184343860001
 21
8.5536458332999992
 31
0.0
  0
LINE
  5
403
  8
1
 62
     5
 10
-199.37484343860001
 20
8.2536458333000002
 30
0.0
 11
-196.27384343860001
 21
8.2536458333000002
 31
0.0
  0
INSERT
  5
405
  8
┌▓È_1
 62
     5
  2
CLUMP8
 10
0.0
 20
0.0
 30
0.0
  0
LINE
  5
418
  8
1
 62
     5
 10
-195.28335063860001
 20
28.1036458333
 30
0.0
 11
-192.57656983859999
 21
7.7236458332999991
 31
0.0
  0
LINE
  5
419
  8
1
 62
     5
 10
-191.67672823859999
 20
28.1036458333
 30
0.0
 11
-188.96974583860001
 21
7.7236458332999991
 31
0.0
  0
ARC
  5
41A
  8
1
 62
     5
 10
-188.37384343860001
 20
7.6536458332999997
 30
0.0
 40
0.6
 50
90.0
 51
180.0
  0
ARC
  5
41B
  8
1
 62
     5
 10
-190.27384343860001
 20
7.6536458332999997
 30
0.0
 40
1.3
 50
270.0
 51
0.0
  0
LINE
  5
41C
  8
1
 62
     5
 10
-191.27384343860001
 20
6.3536458332999999
 30
0.0
 11
-190.27384343860001
 21
6.3536458332999999
 31
0.0
  0
ARC
  5
41D
  8
1
 62
     5
 10
-191.27384343860001
 20
7.6536458332999997
 30
0.0
 40
1.3
 50
180.0
 51
270.0
  0
ARC
  5
41E
  8
1
 62
     5
 10
-193.4738434386
 20
7.6536458332999997
 30
0.0
 40
0.9
 50
0.0
 51
90.0
  0
LINE
  5
41F
  8
1
 62
     5
 10
-184.92184343860001
 20
8.5536458332999992
 30
0.0
 11
-182.4738434386
 21
8.5536458332999992
 31
0.0
  0
LINE
  5
420
  8
1
 62
     5
 10
-185.27384343860001
 20
8.2536458333000002
 30
0.0
 11
-184.92184343860001
 21
8.5536458332999992
 31
0.0
  0
LINE
  5
421
  8
1
 62
     5
 10
-188.37484343860001
 20
8.2536458333000002
 30
0.0
 11
-185.27384343860001
 21
8.2536458333000002
 31
0.0
  0
LINE
  5
422
  8
┌▓È_1
 10
436.40703124999987
 20
229.27617187499999
 30
0.0
 11
136.40703124999999
 21
229.27617187499999
 31
0.0
  0
LINE
  5
423
  8
┌▓È_1
 10
436.40703124999987
 20
239.27617187499999
 30
0.0
 11
136.40703124999999
 21
239.27617187499999
 31
0.0
  0
LINE
  5
424
  8
┌▓È_1
 10
436.40703124999987
 20
249.27617187499999
 30
0.0
 11
136.40703124999999
 21
249.27617187499999
 31
0.0
  0
LINE
  5
425
  8
┌▓È_1
  6
BORDER
 62
     3
 10
211.62018229169999
 20
28.1036458333
 30
0.0
 11
323.62018229170002
 21
28.1036458333
 31
0.0
  0
INSERT
  5
426
  8
0
  6
CONTINUOUS
  2
*U58
 10
0.0
 20
0.0
 30
0.0
  0
DIMENSION
  5
435
  8
Éíû@É³
  2
*D12
 10
-273.62397783860001
 20
47.1036458333
 30
0.0
 11
-273.62397783860001
 21
28.1036458333
 31
0.0
 70
   128
  1
%%c<>
 13
-253.62397783860001
 23
47.1036458333
 33
0.0
 14
-253.62397783860001
 24
9.1036458332999999
 34
0.0
 50
90.0
  0
INSERT
  5
437
  8
┌▓È_1
 62
     5
  2
CLUMP9
 10
0.0
 20
0.0
 30
0.0
  0
LINE
  5
44A
  8
1
 62
     5
 10
-228.28335063860001
 20
28.1036458333
 30
0.0
 11
-225.57656983859999
 21
7.7236458332999991
 31
0.0
  0
LINE
  5
44B
  8
1
 62
     5
 10
-224.67672823859999
 20
28.1036458333
 30
0.0
 11
-221.96974583860001
 21
7.7236458332999991
 31
0.0
  0
ARC
  5
44C
  8
1
 62
     5
 10
-221.37384343860001
 20
7.6536458332999997
 30
0.0
 40
0.6
 50
90.0
 51
180.0
  0
ARC
  5
44D
  8
1
 62
     5
 10
-223.27384343860001
 20
7.6536458332999997
 30
0.0
 40
1.3
 50
270.0
 51
0.0
  0
LINE
  5
44E
  8
1
 62
     5
 10
-224.27384343860001
 20
6.3536458332999999
 30
0.0
 11
-223.27384343860001
 21
6.3536458332999999
 31
0.0
  0
ARC
  5
44F
  8
1
 62
     5
 10
-224.27384343860001
 20
7.6536458332999997
 30
0.0
 40
1.3
 50
180.0
 51
270.0
  0
ARC
  5
450
  8
1
 62
     5
 10
-226.4738434386
 20
7.6536458332999997
 30
0.0
 40
0.9
 50
0.0
 51
90.0
  0
LINE
  5
451
  8
1
 62
     5
 10
-217.92184343860001
 20
8.5536458332999992
 30
0.0
 11
-215.4738434386
 21
8.5536458332999992
 31
0.0
  0
LINE
  5
452
  8
1
 62
     5
 10
-218.27384343860001
 20
8.2536458333000002
 30
0.0
 11
-217.92184343860001
 21
8.5536458332999992
 31
0.0
  0
LINE
  5
453
  8
1
 62
     5
 10
-221.37484343860001
 20
8.2536458333000002
 30
0.0
 11
-218.27384343860001
 21
8.2536458333000002
 31
0.0
  0
INSERT
  5
455
  8
┌▓È_1
 62
     5
  2
CLUMP10
 10
0.0
 20
0.0
 30
0.0
  0
LINE
  5
468
  8
1
 62
     5
 10
-217.28335063860001
 20
28.1036458333
 30
0.0
 11
-214.57656983859999
 21
7.7236458332999991
 31
0.0
  0
LINE
  5
469
  8
1
 62
     5
 10
-213.67672823859999
 20
28.1036458333
 30
0.0
 11
-210.96974583860001
 21
7.7236458332999991
 31
0.0
  0
ARC
  5
46A
  8
1
 62
     5
 10
-210.37384343860001
 20
7.6536458332999997
 30
0.0
 40
0.6
 50
90.0
 51
180.0
  0
ARC
  5
46B
  8
1
 62
     5
 10
-212.27384343860001
 20
7.6536458332999997
 30
0.0
 40
1.3
 50
270.0
 51
0.0
  0
LINE
  5
46C
  8
1
 62
     5
 10
-213.27384343860001
 20
6.3536458332999999
 30
0.0
 11
-212.27384343860001
 21
6.3536458332999999
 31
0.0
  0
ARC
  5
46D
  8
1
 62
     5
 10
-213.27384343860001
 20
7.6536458332999997
 30
0.0
 40
1.3
 50
180.0
 51
270.0
  0
ARC
  5
46E
  8
1
 62
     5
 10
-215.4738434386
 20
7.6536458332999997
 30
0.0
 40
0.9
 50
0.0
 51
90.0
  0
INSERT
  5
46F
  8
0
  6
CONTINUOUS
  2
*U59
 10
0.0
 20
0.0
 30
0.0
  0
INSERT
  5
470
  8
0
  6
CONTINUOUS
  2
*U60
 10
0.0
 20
0.0
 30
0.0
  0
LINE
  5
471
  8
┌▓È_1
 10
136.40703124999999
 20
-256.72382812500001
 30
0.0
 11
256.40703124999999
 21
-256.72382812500001
 31
0.0
  0
INSERT
  5
472
  8
0
  6
CONTINUOUS
  2
*U61
 10
0.0
 20
0.0
 30
0.0
  0
POLYLINE
  8
┌▓È_1
  5
91F
  62
5
  66
     1
 10
0.000000
 20
0.000000
 30
0.000000
  70
     8
  0
VERTEX
  8
┌▓È_1
  5
920
 10
237.050
 20
-287.442
 30
0.000000
  70
    32
  0
VERTEX
  8
┌▓È_1
  5
921
 10
237.086
 20
-287.475
 30
0.000000
  70
    32
  0
VERTEX
  8
┌▓È_1
  5
922
 10
237.122
 20
-287.508
 30
0.000000
  70
    32
  0
VERTEX
  8
┌▓È_1
  5
923
 10
237.158
 20
-287.542
 30
0.000000
  70
    32
  0
VERTEX
  8
┌▓È_1
  5
924
 10
237.194
 20
-287.575
 30
0.000000
  70
    32
  0
VERTEX
  8
┌▓È_1
  5
925
 10
237.230
 20
-287.608
 30
0.000000
  70
    32
  0
VERTEX
  8
┌▓È_1
  5
926
 10
237.266
 20
-287.641
 30
0.000000
  70
    32
  0
VERTEX
  8
┌▓È_1
  5
927
 10
237.302
 20
-287.674
 30
0.000000
  70
    32
  0
VERTEX
  8
┌▓È_1
  5
928
 10
237.338
 20
-287.708
 30
0.000000
  70
    32
  0
VERTEX
  8
┌▓È_1
  5
929
 10
237.374
 20
-287.741
 30
0.000000
  70
    32
  0
VERTEX
  8
┌▓È_1
  5
92A
 10
237.410
 20
-287.774
 30
0.000000
  70
    32
  0
VERTEX
  8
┌▓È_1
  5
92B
 10
237.446
 20
-287.807
 30
0.000000
  70
    32
  0
VERTEX
  8
┌▓È_1
  5
92C
 10
237.482
 20
-287.840
 30
0.000000
  70
    32
  0
VERTEX
  8
┌▓È_1
  5
92D
 10
237.518
 20
-287.873
 30
0.000000
  70
    32
  0
VERTEX
  8
┌▓È_1
  5
92E
 10
237.554
 20
-287.906
 30
0.000000
  70
    32
  0
VERTEX
  8
┌▓È_1
  5
92F
 10
237.590
 20
-287.940
 30
0.000000
  70
    32
  0
VERTEX
  8
┌▓È_1
  5
930
 10
237.626
 20
-287.973
 30
0.000000
  70
    32
  0
VERTEX
  8
┌▓È_1
  5
931
 10
237.662
 20
-288.006
 30
0.000000
  70
    32
  0
VERTEX
  8
┌▓È_1
  5
932
 10
237.698
 20
-288.039
 30
0.000000
  70
    32
  0
VERTEX
  8
┌▓È_1
  5
933
 10
237.734
 20
-288.072
 30
0.000000
  70
    32
  0
VERTEX
  8
┌▓È_1
  5
934
 10
237.770
 20
-288.105
 30
0.000000
  70
    32
  0
VERTEX
  8
┌▓È_1
  5
935
 10
237.807
 20
-288.138
 30
0.000000
  70
    32
  0
VERTEX
  8
┌▓È_1
  5
936
 10
237.843
 20
-288.171
 30
0.000000
  70
    32
  0
VERTEX
  8
┌▓È_1
  5
937
 10
237.879
 20
-288.204
 30
0.000000
  70
    32
  0
VERTEX
  8
┌▓È_1
  5
938
 10
237.915
 20
-288.237
 30
0.000000
  70
    32
  0
VERTEX
  8
┌▓È_1
  5
939
 10
237.951
 20
-288.270
 30
0.000000
  70
    32
  0
VERTEX
  8
┌▓È_1
  5
93A
 10
237.987
 20
-288.303
 30
0.000000
  70
    32
  0
VERTEX
  8
┌▓È_1
  5
93B
 10
238.023
 20
-288.336
 30
0.000000
  70
    32
  0
VERTEX
  8
┌▓È_1
  5
93C
 10
238.060
 20
-288.369
 30
0.000000
  70
    32
  0
VERTEX
  8
┌▓È_1
  5
93D
 10
238.096
 20
-288.402
 30
0.000000
  70
    32
  0
VERTEX
  8
┌▓È_1
  5
93E
 10
238.132
 20
-288.435
 30
0.000000
  70
    32
  0
VERTEX
  8
┌▓È_1
  5
93F
 10
238.168
 20
-288.468
 30
0.000000
  70
    32
  0
VERTEX
  8
┌▓È_1
  5
940
 10
238.204
 20
-288.501
 30
0.000000
  70
    32
  0
VERTEX
  8
┌▓È_1
  5
941
 10
238.241
 20
-288.534
 30
0.000000
  70
    32
  0
VERTEX
  8
┌▓È_1
  5
942
 10
238.277
 20
-288.566
 30
0.000000
  70
    32
  0
VERTEX
  8
┌▓È_1
  5
943
 10
238.313
 20
-288.599
 30
0.000000
  70
    32
  0
VERTEX
  8
┌▓È_1
  5
944
 10
238.349
 20
-288.632
 30
0.000000
  70
    32
  0
VERTEX
  8
┌▓È_1
  5
945
 10
238.386
 20
-288.665
 30
0.000000
  70
    32
  0
VERTEX
  8
┌▓È_1
  5
946
 10
238.422
 20
-288.697
 30
0.000000
  70
    32
  0
VERTEX
  8
┌▓È_1
  5
947
 10
238.458
 20
-288.730
 30
0.000000
  70
    32
  0
VERTEX
  8
┌▓È_1
  5
948
 10
238.494
 20
-288.763
 30
0.000000
  70
    32
  0
VERTEX
  8
┌▓È_1
  5
949
 10
238.531
 20
-288.795
 30
0.000000
  70
    32
  0
VERTEX
  8
┌▓È_1
  5
94A
 10
238.567
 20
-288.828
 30
0.000000
  70
    32
  0
VERTEX
  8
┌▓È_1
  5
94B
 10
238.603
 20
-288.861
 30
0.000000
  70
    32
  0
VERTEX
  8
┌▓È_1
  5
94C
 10
238.640
 20
-288.893
 30
0.000000
  70
    32
  0
VERTEX
  8
┌▓È_1
  5
94D
 10
238.676
 20
-288.926
 30
0.000000
  70
    32
  0
VERTEX
  8
┌▓È_1
  5
94E
 10
238.713
 20
-288.958
 30
0.000000
  70
    32
  0
VERTEX
  8
┌▓È_1
  5
94F
 10
238.749
 20
-288.991
 30
0.000000
  70
    32
  0
VERTEX
  8
┌▓È_1
  5
950
 10
238.786
 20
-289.023
 30
0.000000
  70
    32
  0
VERTEX
  8
┌▓È_1
  5
951
 10
238.822
 20
-289.055
 30
0.000000
  70
    32
  0
VERTEX
  8
┌▓È_1
  5
952
 10
238.858
 20
-289.088
 30
0.000000
  70
    32
  0
VERTEX
  8
┌▓È_1
  5
953
 10
238.895
 20
-289.120
 30
0.000000
  70
    32
  0
VERTEX
  8
┌▓È_1
  5
954
 10
238.931
 20
-289.152
 30
0.000000
  70
    32
  0
VERTEX
  8
┌▓È_1
  5
955
 10
238.968
 20
-289.185
 30
0.000000
  70
    32
  0
VERTEX
  8
┌▓È_1
  5
956
 10
239.005
 20
-289.217
 30
0.000000
  70
    32
  0
VERTEX
  8
┌▓È_1
  5
957
 10
239.041
 20
-289.249
 30
0.000000
  70
    32
  0
VERTEX
  8
┌▓È_1
  5
958
 10
239.078
 20
-289.281
 30
0.000000
  70
    32
  0
VERTEX
  8
┌▓È_1
  5
959
 10
239.114
 20
-289.313
 30
0.000000
  70
    32
  0
VERTEX
  8
┌▓È_1
  5
95A
 10
239.151
 20
-289.345
 30
0.000000
  70
    32
  0
VERTEX
  8
┌▓È_1
  5
95B
 10
239.188
 20
-289.377
 30
0.000000
  70
    32
  0
VERTEX
  8
┌▓È_1
  5
95C
 10
239.224
 20
-289.409
 30
0.000000
  70
    32
  0
VERTEX
  8
┌▓È_1
  5
95D
 10
239.261
 20
-289.441
 30
0.000000
  70
    32
  0
VERTEX
  8
┌▓È_1
  5
95E
 10
239.298
 20
-289.473
 30
0.000000
  70
    32
  0
VERTEX
  8
┌▓È_1
  5
95F
 10
239.335
 20
-289.505
 30
0.000000
  70
    32
  0
VERTEX
  8
┌▓È_1
  5
960
 10
239.371
 20
-289.537
 30
0.000000
  70
    32
  0
VERTEX
  8
┌▓È_1
  5
961
 10
239.408
 20
-289.569
 30
0.000000
  70
    32
  0
VERTEX
  8
┌▓È_1
  5
962
 10
239.445
 20
-289.600
 30
0.000000
  70
    32
  0
VERTEX
  8
┌▓È_1
  5
963
 10
239.482
 20
-289.632
 30
0.000000
  70
    32
  0
VERTEX
  8
┌▓È_1
  5
964
 10
239.519
 20
-289.664
 30
0.000000
  70
    32
  0
VERTEX
  8
┌▓È_1
  5
965
 10
239.556
 20
-289.695
 30
0.000000
  70
    32
  0
VERTEX
  8
┌▓È_1
  5
966
 10
239.593
 20
-289.727
 30
0.000000
  70
    32
  0
VERTEX
  8
┌▓È_1
  5
967
 10
239.629
 20
-289.758
 30
0.000000
  70
    32
  0
VERTEX
  8
┌▓È_1
  5
968
 10
239.666
 20
-289.790
 30
0.000000
  70
    32
  0
VERTEX
  8
┌▓È_1
  5
969
 10
239.703
 20
-289.821
 30
0.000000
  70
    32
  0
VERTEX
  8
┌▓È_1
  5
96A
 10
239.740
 20
-289.852
 30
0.000000
  70
    32
  0
VERTEX
  8
┌▓È_1
  5
96B
 10
239.778
 20
-289.884
 30
0.000000
  70
    32
  0
VERTEX
  8
┌▓È_1
  5
96C
 10
239.815
 20
-289.915
 30
0.000000
  70
    32
  0
VERTEX
  8
┌▓È_1
  5
96D
 10
239.852
 20
-289.946
 30
0.000000
  70
    32
  0
VERTEX
  8
┌▓È_1
  5
96E
 10
239.889
 20
-289.977
 30
0.000000
  70
    32
  0
VERTEX
  8
┌▓È_1
  5
96F
 10
239.926
 20
-290.008
 30
0.000000
  70
    32
  0
VERTEX
  8
┌▓È_1
  5
970
 10
239.963
 20
-290.039
 30
0.000000
  70
    32
  0
VERTEX
  8
┌▓È_1
  5
971
 10
240.000
 20
-290.070
 30
0.000000
  70
    32
  0
VERTEX
  8
┌▓È_1
  5
972
 10
240.038
 20
-290.101
 30
0.000000
  70
    32
  0
VERTEX
  8
┌▓È_1
  5
973
 10
240.075
 20
-290.132
 30
0.000000
  70
    32
  0
VERTEX
  8
┌▓È_1
  5
974
 10
240.112
 20
-290.163
 30
0.000000
  70
    32
  0
VERTEX
  8
┌▓È_1
  5
975
 10
240.150
 20
-290.194
 30
0.000000
  70
    32
  0
VERTEX
  8
┌▓È_1
  5
976
 10
240.187
 20
-290.224
 30
0.000000
  70
    32
  0
VERTEX
  8
┌▓È_1
  5
977
 10
240.225
 20
-290.255
 30
0.000000
  70
    32
  0
VERTEX
  8
┌▓È_1
  5
978
 10
240.262
 20
-290.285
 30
0.000000
  70
    32
  0
VERTEX
  8
┌▓È_1
  5
979
 10
240.299
 20
-290.316
 30
0.000000
  70
    32
  0
VERTEX
  8
┌▓È_1
  5
97A
 10
240.337
 20
-290.346
 30
0.000000
  70
    32
  0
VERTEX
  8
┌▓È_1
  5
97B
 10
240.375
 20
-290.377
 30
0.000000
  70
    32
  0
VERTEX
  8
┌▓È_1
  5
97C
 10
240.412
 20
-290.407
 30
0.000000
  70
    32
  0
VERTEX
  8
┌▓È_1
  5
97D
 10
240.450
 20
-290.437
 30
0.000000
  70
    32
  0
VERTEX
  8
┌▓È_1
  5
97E
 10
240.487
 20
-290.468
 30
0.000000
  70
    32
  0
VERTEX
  8
┌▓È_1
  5
97F
 10
240.525
 20
-290.498
 30
0.000000
  70
    32
  0
VERTEX
  8
┌▓È_1
  5
980
 10
240.563
 20
-290.528
 30
0.000000
  70
    32
  0
VERTEX
  8
┌▓È_1
  5
981
 10
240.601
 20
-290.558
 30
0.000000
  70
    32
  0
VERTEX
  8
┌▓È_1
  5
982
 10
240.638
 20
-290.588
 30
0.000000
  70
    32
  0
VERTEX
  8
┌▓È_1
  5
983
 10
240.676
 20
-290.617
 30
0.000000
  70
    32
  0
VERTEX
  8
┌▓È_1
  5
984
 10
240.714
 20
-290.647
 30
0.000000
  70
    32
  0
VERTEX
  8
┌▓È_1
  5
985
 10
240.752
 20
-290.677
 30
0.000000
  70
    32
  0
VERTEX
  8
┌▓È_1
  5
986
 10
240.790
 20
-290.707
 30
0.000000
  70
    32
  0
VERTEX
  8
┌▓È_1
  5
987
 10
240.828
 20
-290.736
 30
0.000000
  70
    32
  0
VERTEX
  8
┌▓È_1
  5
988
 10
240.866
 20
-290.766
 30
0.000000
  70
    32
  0
VERTEX
  8
┌▓È_1
  5
989
 10
240.904
 20
-290.795
 30
0.000000
  70
    32
  0
VERTEX
  8
┌▓È_1
  5
98A
 10
240.942
 20
-290.824
 30
0.000000
  70
    32
  0
VERTEX
  8
┌▓È_1
  5
98B
 10
240.980
 20
-290.854
 30
0.000000
  70
    32
  0
VERTEX
  8
┌▓È_1
  5
98C
 10
241.018
 20
-290.883
 30
0.000000
  70
    32
  0
VERTEX
  8
┌▓È_1
  5
98D
 10
241.057
 20
-290.912
 30
0.000000
  70
    32
  0
VERTEX
  8
┌▓È_1
  5
98E
 10
241.095
 20
-290.941
 30
0.000000
  70
    32
  0
VERTEX
  8
┌▓È_1
  5
98F
 10
241.133
 20
-290.970
 30
0.000000
  70
    32
  0
VERTEX
  8
┌▓È_1
  5
990
 10
241.172
 20
-290.999
 30
0.000000
  70
    32
  0
VERTEX
  8
┌▓È_1
  5
991
 10
241.210
 20
-291.028
 30
0.000000
  70
    32
  0
VERTEX
  8
┌▓È_1
  5
992
 10
241.248
 20
-291.057
 30
0.000000
  70
    32
  0
VERTEX
  8
┌▓È_1
  5
993
 10
241.287
 20
-291.085
 30
0.000000
  70
    32
  0
VERTEX
  8
┌▓È_1
  5
994
 10
241.325
 20
-291.114
 30
0.000000
  70
    32
  0
VERTEX
  8
┌▓È_1
  5
995
 10
241.364
 20
-291.142
 30
0.000000
  70
    32
  0
VERTEX
  8
┌▓È_1
  5
996
 10
241.403
 20
-291.171
 30
0.000000
  70
    32
  0
VERTEX
  8
┌▓È_1
  5
997
 10
241.441
 20
-291.199
 30
0.000000
  70
    32
  0
VERTEX
  8
┌▓È_1
  5
998
 10
241.480
 20
-291.228
 30
0.000000
  70
    32
  0
VERTEX
  8
┌▓È_1
  5
999
 10
241.519
 20
-291.256
 30
0.000000
  70
    32
  0
VERTEX
  8
┌▓È_1
  5
99A
 10
241.557
 20
-291.284
 30
0.000000
  70
    32
  0
VERTEX
  8
┌▓È_1
  5
99B
 10
241.596
 20
-291.312
 30
0.000000
  70
    32
  0
VERTEX
  8
┌▓È_1
  5
99C
 10
241.635
 20
-291.340
 30
0.000000
  70
    32
  0
VERTEX
  8
┌▓È_1
  5
99D
 10
241.674
 20
-291.368
 30
0.000000
  70
    32
  0
VERTEX
  8
┌▓È_1
  5
99E
 10
241.713
 20
-291.395
 30
0.000000
  70
    32
  0
VERTEX
  8
┌▓È_1
  5
99F
 10
241.752
 20
-291.423
 30
0.000000
  70
    32
  0
VERTEX
  8
┌▓È_1
  5
9A0
 10
241.791
 20
-291.451
 30
0.000000
  70
    32
  0
VERTEX
  8
┌▓È_1
  5
9A1
 10
241.830
 20
-291.478
 30
0.000000
  70
    32
  0
VERTEX
  8
┌▓È_1
  5
9A2
 10
241.869
 20
-291.506
 30
0.000000
  70
    32
  0
VERTEX
  8
┌▓È_1
  5
9A3
 10
241.909
 20
-291.533
 30
0.000000
  70
    32
  0
VERTEX
  8
┌▓È_1
  5
9A4
 10
241.948
 20
-291.560
 30
0.000000
  70
    32
  0
VERTEX
  8
┌▓È_1
  5
9A5
 10
241.987
 20
-291.587
 30
0.000000
  70
    32
  0
VERTEX
  8
┌▓È_1
  5
9A6
 10
242.026
 20
-291.614
 30
0.000000
  70
    32
  0
VERTEX
  8
┌▓È_1
  5
9A7
 10
242.066
 20
-291.641
 30
0.000000
  70
    32
  0
VERTEX
  8
┌▓È_1
  5
9A8
 10
242.105
 20
-291.668
 30
0.000000
  70
    32
  0
VERTEX
  8
┌▓È_1
  5
9A9
 10
242.145
 20
-291.695
 30
0.000000
  70
    32
  0
VERTEX
  8
┌▓È_1
  5
9AA
 10
242.184
 20
-291.722
 30
0.000000
  70
    32
  0
VERTEX
  8
┌▓È_1
  5
9AB
 10
242.224
 20
-291.748
 30
0.000000
  70
    32
  0
VERTEX
  8
┌▓È_1
  5
9AC
 10
242.264
 20
-291.775
 30
0.000000
  70
    32
  0
VERTEX
  8
┌▓È_1
  5
9AD
 10
242.303
 20
-291.801
 30
0.000000
  70
    32
  0
VERTEX
  8
┌▓È_1
  5
9AE
 10
242.343
 20
-291.827
 30
0.000000
  70
    32
  0
VERTEX
  8
┌▓È_1
  5
9AF
 10
242.383
 20
-291.853
 30
0.000000
  70
    32
  0
VERTEX
  8
┌▓È_1
  5
9B0
 10
242.423
 20
-291.880
 30
0.000000
  70
    32
  0
VERTEX
  8
┌▓È_1
  5
9B1
 10
242.463
 20
-291.906
 30
0.000000
  70
    32
  0
VERTEX
  8
┌▓È_1
  5
9B2
 10
242.503
 20
-291.931
 30
0.000000
  70
    32
  0
VERTEX
  8
┌▓È_1
  5
9B3
 10
242.543
 20
-291.957
 30
0.000000
  70
    32
  0
VERTEX
  8
┌▓È_1
  5
9B4
 10
242.583
 20
-291.983
 30
0.000000
  70
    32
  0
VERTEX
  8
┌▓È_1
  5
9B5
 10
242.623
 20
-292.008
 30
0.000000
  70
    32
  0
VERTEX
  8
┌▓È_1
  5
9B6
 10
242.663
 20
-292.034
 30
0.000000
  70
    32
  0
VERTEX
  8
┌▓È_1
  5
9B7
 10
242.703
 20
-292.059
 30
0.000000
  70
    32
  0
VERTEX
  8
┌▓È_1
  5
9B8
 10
242.744
 20
-292.085
 30
0.000000
  70
    32
  0
VERTEX
  8
┌▓È_1
  5
9B9
 10
242.784
 20
-292.110
 30
0.000000
  70
    32
  0
VERTEX
  8
┌▓È_1
  5
9BA
 10
242.825
 20
-292.135
 30
0.000000
  70
    32
  0
VERTEX
  8
┌▓È_1
  5
9BB
 10
242.865
 20
-292.160
 30
0.000000
  70
    32
  0
VERTEX
  8
┌▓È_1
  5
9BC
 10
242.906
 20
-292.185
 30
0.000000
  70
    32
  0
VERTEX
  8
┌▓È_1
  5
9BD
 10
242.946
 20
-292.209
 30
0.000000
  70
    32
  0
VERTEX
  8
┌▓È_1
  5
9BE
 10
242.987
 20
-292.234
 30
0.000000
  70
    32
  0
VERTEX
  8
┌▓È_1
  5
9BF
 10
243.028
 20
-292.259
 30
0.000000
  70
    32
  0
SEQEND
  8
┌▓È_1
  5
9C0
  0
LINE
  5
474
  8
┌▓È_1
 10
436.40703124999987
 20
-174.72382812500001
 30
0.0
 11
136.40703124999999
 21
-174.72382812500001
 31
0.0
  0
LINE
  5
475
  8
┌▓È_1
 10
436.40703124999987
 20
-184.72382812500001
 30
0.0
 11
136.40703124999999
 21
-184.72382812500001
 31
0.0
  0
LINE
  5
476
  8
┌▓È_1
 10
436.40703124999987
 20
-194.72382812500001
 30
0.0
 11
136.40703124999999
 21
-194.72382812500001
 31
0.0
  0
LINE
  5
477
  8
┌▓È_1
 10
436.40703124999987
 20
-204.72382812500001
 30
0.0
 11
136.40703124999999
 21
-204.72382812500001
 31
0.0
  0
LINE
  5
478
  8
┌▓È_1
 10
436.40703124999987
 20
-224.72382812500001
 30
0.0
 11
136.40703124999999
 21
-224.72382812500001
 31
0.0
  0
LINE
  5
479
  8
┌▓È_1
 10
436.40703124999987
 20
-214.72382812500001
 30
0.0
 11
136.40703124999999
 21
-214.72382812500001
 31
0.0
  0
LINE
  5
47A
  8
┌▓È_1
 62
     5
 10
136.40703124999999
 20
-300.72382812500001
 30
0.0
 11
436.40703124999987
 21
-300.72382812500001
 31
0.0
  0
LINE
  5
47B
  8
┌▓È_1
 10
136.40703124999999
 20
-278.72382812500001
 30
0.0
 11
436.40703124999987
 21
-278.72382812500001
 31
0.0
  0
LINE
  5
47C
  8
┌▓È_1
 10
436.40703124999987
 20
-234.72382812500001
 30
0.0
 11
136.40703124999999
 21
-234.72382812500001
 31
0.0
  0
LINE
  5
47D
  8
┌▓È_1
 62
     5
 10
234.4448007659
 20
52.206971394599996
 30
0.0
 11
254.94831413860001
 21
67.103645833299993
 31
0.0
  0
CIRCLE
  5
47E
  8
┌▓È_1
 62
     5
 10
267.62018229170002
 20
28.1036458333
 30
0.0
 40
28.899999999999999
  0
CIRCLE
  5
47F
  8
┌▓È_1
 62
     5
 10
267.62018229170002
 20
28.1036458333
 30
0.0
 40
27.149999999999999
  0
CIRCLE
  5
480
  8
┌▓È_1
 62
     5
 10
267.62018229170002
 20
28.1036458333
 30
0.0
 40
29.649999999999999
  0
LINE
  5
481
  8
┌▓È_1
 62
     5
 10
254.94831413860001
 20
-10.8963541667
 30
0.0
 11
234.4448007659
 21
4.0003202720999989
 31
0.0
  0
CIRCLE
  5
482
  8
┌▓È_1
 62
     5
 10
267.62018229170002
 20
28.1036458333
 30
0.0
 40
32.899999999999999
  0
INSERT
  5
484
  8
┌▓È_1
 62
     5
  2
*X15
 10
0.0
 20
0.0
 30
0.0
  0
CIRCLE
  5
4AF
  8
┌▓È_1
 62
     5
 10
267.62018229170002
 20
28.1036458333
 30
0.0
 40
33.399999999999999
  0
CIRCLE
  5
4B0
  8
┌▓È_1
 62
     5
 10
267.62018229170002
 20
28.1036458333
 30
0.0
 40
35.0
  0
CIRCLE
  5
4B1
  8
┌▓È_1
 62
     5
 10
267.62018229170002
 20
28.1036458333
 30
0.0
 40
44.5
  0
LINE
  5
4B2
  8
┌▓È_1
 10
436.40703124999987
 20
219.27617187499999
 30
0.0
 11
136.40703124999999
 21
219.27617187499999
 31
0.0
  0
LINE
  5
4B3
  8
┌▓È_1
 62
     5
 10
436.40703124999987
 20
-234.72382812500001
 30
0.0
 11
436.40703124999987
 21
259.27617187499999
 31
0.0
  0
INSERT
  5
4B5
  8
┌▓È_1
 62
     5
  2
CLUMP11
 10
0.0
 20
0.0
 30
0.0
  0
ARC
  5
4C8
  8
1
 62
     5
 10
-166.37384343860001
 20
7.6536458332999997
 30
0.0
 40
0.6
 50
90.0
 51
180.0
  0
LINE
  5
4C9
  8
1
 62
     5
 10
-166.37484343860001
 20
8.2536458333000002
 30
0.0
 11
-163.27384343860001
 21
8.2536458333000002
 31
0.0
  0
INSERT
  5
4CB
  8
┌▓È_1
 62
     5
  2
CLUMP12
 10
0.0
 20
0.0
 30
0.0
  0
LINE
  5
4DE
  8
1
 62
     5
 10
-240.1878434386
 20
47.203645833300001
 30
0.0
 11
-143.69684343860001
 21
47.203645833300001
 31
0.0
  0
LINE
  5
4DF
  8
1
 62
     5
 10
-169.67672823859999
 20
28.1036458333
 30
0.0
 11
-166.96974583860001
 21
7.7236458332999991
 31
0.0
  0
ARC
  5
4E0
  8
1
 62
     5
 10
-168.27384343860001
 20
7.6536458332999997
 30
0.0
 40
1.3
 50
270.0
 51
0.0
  0
LINE
  5
4E1
  8
1
 62
     5
 10
-169.27384343860001
 20
6.3536458332999999
 30
0.0
 11
-168.27384343860001
 21
6.3536458332999999
 31
0.0
  0
INSERT
  5
4E2
  8
0
  6
CONTINUOUS
  2
*U62
 10
0.0
 20
0.0
 30
0.0
  0
INSERT
  5
4E3
  8
0
  6
CONTINUOUS
  2
*U63
 10
0.0
 20
0.0
 30
0.0
  0
INSERT
  5
4E4
  8
0
  6
CONTINUOUS
  2
*U64
 10
0.0
 20
0.0
 30
0.0
  0
INSERT
  5
4E5
  8
0
  6
CONTINUOUS
  2
*U65
 10
0.0
 20
0.0
 30
0.0
  0
LINE
  5
4E6
  8
┌▓È_1
 10
221.40703124999999
 20
-267.72382812500001
 30
0.0
 11
251.40703124999999
 21
-267.72382812500001
 31
0.0
  0
LINE
  5
4E7
  8
┌▓È_1
 10
221.40703124999999
 20
-245.72382812500001
 30
0.0
 11
251.40703124999999
 21
-245.72382812500001
 31
0.0
  0
LINE
  5
4E8
  8
┌▓È_1
 62
     5
 10
237.0495363478
 20
-285.75348219120002
 30
0.0
 11
247.0495363478
 21
-285.75348219120002
 31
0.0
  0
LINE
  5
4E9
  8
┌▓È_1
 62
     5
 10
237.0495363478
 20
-293.1534821912
 30
0.0
 11
239.44953634780001
 21
-293.1534821912
 31
0.0
  0
LINE
  5
4EA
  8
┌▓È_1
 62
     5
 10
237.0495363478
 20
-293.1534821912
 30
0.0
 11
237.0495363478
 21
-296.1534821912
 31
0.0
  0
ARC
  5
4EB
  8
┌▓È_1
 62
     5
 10
239.44953634780001
 20
-285.55348219119998
 30
0.0
 40
7.5999999999999988
 50
270.0
 51
298.08590481520002
  0
LINE
  5
4EC
  8
┌▓È_1
 62
     5
 10
237.0495363478
 20
-286.79770272619999
 30
0.0
 11
245.0495363478
 21
-286.79770272619999
 31
0.0
  0
LINE
  5
4ED
  8
┌▓È_1
 62
     5
 10
237.0495363478
 20
-296.1534821912
 30
0.0
 11
242.0495363478
 21
-296.1534821912
 31
0.0
  0
LINE
  5
4EE
  8
┌▓È_1
 62
     5
 10
255.0495363478
 20
-282.1534821912
 30
0.0
 11
237.0495363478
 21
-282.1534821912
 31
0.0
  0
LINE
  5
4EF
  8
┌▓È_1
 62
     5
 10
237.0495363478
 20
-296.1534821912
 30
0.0
 11
237.0495363478
 21
-293.1534821912
 31
0.0
  0
LINE
  5
4F0
  8
┌▓È_1
 62
     5
 10
237.0495363478
 20
-282.1534821912
 30
0.0
 11
237.0495363478
 21
-285.75348219120002
 31
0.0
  0
LINE
  5
4F1
  8
┌▓È_1
 62
     5
 10
237.0495363478
 20
-287.44192326109999
 30
0.0
 11
237.0495363478
 21
-286.79770272619999
 31
0.0
  0
ARC
  5
4F2
  8
1
 62
     5
 10
38.962211731099998
 20
7.6536458332999997
 30
0.0
 40
0.6
 50
90.0
 51
180.0
  0
LINE
  5
4F3
  8
1
 62
     5
 10
31.415211731100001
 20
8.5536458332999992
 30
0.0
 11
33.862211731099997
 21
8.5536458332999992
 31
0.0
  0
LINE
  5
4F4
  8
1
 62
     5
 10
35.659326931100011
 20
28.1036458333
 30
0.0
 11
38.366309331099998
 21
7.7236458332999991
 31
0.0
  0
LINE
  5
4F5
  8
1
 62
     5
 10
32.052704531099998
 20
28.1036458333
 30
0.0
 11
34.759485331100002
 21
7.7236458332999991
 31
0.0
  0
ARC
  5
4F6
  8
1
 62
     5
 10
33.862211731099997
 20
7.6536458332999997
 30
0.0
 40
0.9
 50
0.0
 51
90.0
  0
ARC
  5
4F7
  8
1
 62
     5
 10
37.0622117311
 20
7.6536458332999997
 30
0.0
 40
1.3
 50
270.0
 51
0.0
  0
LINE
  5
4F8
  8
1
 62
     5
 10
36.0622117311
 20
6.3536458332999999
 30
0.0
 11
37.0622117311
 21
6.3536458332999999
 31
0.0
  0
ARC
  5
4F9
  8
1
 62
     5
 10
36.0622117311
 20
7.6536458332999997
 30
0.0
 40
1.3
 50
180.0
 51
270.0
  0
LINE
  5
4FA
  8
1
 62
     5
 10
36.648211731099998
 20
47.953645833300001
 30
0.0
 11
37.000211731100009
 21
47.653645833299997
 31
0.0
  0
LINE
  5
4FB
  8
1
 62
     5
 10
31.701211731099999
 20
47.555645833299991
 30
0.0
 11
33.596211731099999
 21
47.654645833300002
 31
0.0
  0
ARC
  5
4FC
  8
1
 62
     5
 10
33.548211731099997
 20
48.553645833300003
 30
0.0
 40
0.6
 50
180.0
 51
270.0
  0
ARC
  5
4FD
  8
1
 62
     5
 10
33.548211731099997
 20
48.553645833300003
 30
0.0
 40
0.9
 50
179.99000000000001
 51
273.00999999999999
  0
LINE
  5
4FE
  8
1
 62
     5
 10
37.000211731100009
 20
47.653645833299997
 30
0.0
 11
39.448211731100002
 21
47.653645833299997
 31
0.0
  0
LINE
  5
4FF
  8
1
 62
     5
 10
33.548211731099997
 20
47.953645833300001
 30
0.0
 11
36.648211731099998
 21
47.953645833300001
 31
0.0
  0
INSERT
  5
501
  8
Éíû@É³
  2
BALLON2
 10
0.0
 20
0.0
 30
0.0
  0
DIMENSION
  5
518
  8
Éíû@É³
  2
*D19
 10
104.20591093109999
 20
115.3417317708
 30
0.0
 11
-73.249966253699995
 21
115.3417317708
 31
0.0
 70
   128
  1
620
 13
104.20591093109999
 23
58.003645833299998
 33
0.0
 14
-250.7058434386
 24
49.853645833299993
 34
0.0
  0
LINE
  5
51A
  8
2
  6
BORDER
 62
     3
 10
-253.62397783860001
 20
28.1036458333
 30
0.0
 11
134.62663020830001
 21
28.1036458333
 31
0.0
  0
LINE
  5
51B
  8
1
 62
     5
 10
-39.02297384780001
 20
47.203645833300001
 30
0.0
 11
64.389211731099991
 21
47.203645833300001
 31
0.0
  0
LINE
  5
51C
  8
┌▓È_1
 62
     5
 10
436.40703124999987
 20
259.27617187499999
 30
0.0
 11
-363.59296875000001
 21
259.27617187499999
 31
0.0
  0
LINE
  5
51D
  8
┌▓È_1
 62
     5
 10
136.40703124999999
 20
-300.72382812500001
 30
0.0
 11
-363.59296875000001
 21
-300.72382812500001
 31
0.0
  0
LINE
  5
51E
  8
┌▓È_1
 62
     5
 10
-363.59296875000001
 20
-300.72382812500001
 30
0.0
 11
-363.59296875000001
 21
259.27617187499999
 31
0.0
  0
DIMENSION
  5
52D
  8
Éíû@É³
  2
*D20
 10
85.705910931099993
 20
-40.373828125000003
 30
0.0
 11
100.70591093109999
 21
-40.373828125000003
 31
0.0
 70
   128
  1
<>
 13
85.705910931099993
 23
-5.8963541666999992
 33
0.0
 14
115.70591093109999
 24
-10.8963541667
 34
0.0
 50
180.0
  0
INSERT
  5
52F
  8
Éíû@É³
  2
BALLON3
 10
0.0
 20
0.0
 30
0.0
  0
LINE
  5
538
  8
┌▓È_1
  6
BORDER
 62
     3
 10
267.62018229170002
 20
84.103645833299979
 30
0.0
 11
267.62018229170002
 21
-27.8963541667
 31
0.0
  0
DIMENSION
  5
547
  8
Éíû@É³
  2
*D22
 10
298.97903841729999
 20
-42.886547894000003
 30
0.0
 11
320.11327194939997
 21
-13.797770957299999
 31
0.0
 70
   129
  1
<>
 13
254.94831413860001
 23
-10.8963541667
 33
0.0
 14
300.79556381740002
 24
52.206971394599996
 34
0.0
  0
ENDSEC
  0
EOF
