  0
SECTION
  2
HEADER
  9
$ACADVER
  1
AC1009
  9
$INSBASE
 10
0.0
 20
0.0
 30
0.0
  9
$EXTMIN
 10
-365.95650855408331
 20
-299.04592968571842
 30
-0.0015258207003583
  9
$EXTMAX
 10
434.0923195709733
 20
260.98825000182143
 30
0.0000000349246037
  9
$LIMMIN
 10
0.0
 20
0.0
  9
$LIMMAX
 10
0.0
 20
0.0
  9
$ORTHOMODE
 70
     0
  9
$REGENMODE
 70
     1
  9
$FILLMODE
 70
     1
  9
$QTEXTMODE
 70
     0
  9
$MIRRTEXT
 70
     1
  9
$DRAGMODE
 70
     2
  9
$LTSCALE
 40
1.0
  9
$OSMODE
 70
    31
  9
$ATTMODE
 70
     1
  9
$TEXTSIZE
 40
0.0
  9
$TRACEWID
 40
0.05
  9
$TEXTSTYLE
  7
STANDARD
  9
$CLAYER
  8
0
  9
$CELTYPE
  6
CONTINUOUS
  9
$CECOLOR
 62
   256
  9
$DIMSCALE
 40
1.0
  9
$DIMASZ
 40
0.18
  9
$DIMEXO
 40
0.0625
  9
$DIMDLI
 40
0.38
  9
$DIMRND
 40
0.0
  9
$DIMDLE
 40
0.0
  9
$DIMEXE
 40
0.18
  9
$DIMTP
 40
0.0
  9
$DIMTM
 40
0.0
  9
$DIMTXT
 40
0.18
  9
$DIMCEN
 40
0.09
  9
$DIMTSZ
 40
0.0
  9
$DIMTOL
 70
     0
  9
$DIMLIM
 70
     0
  9
$DIMTIH
 70
     1
  9
$DIMTOH
 70
     1
  9
$DIMSE1
 70
     0
  9
$DIMSE2
 70
     0
  9
$DIMTAD
 70
     0
  9
$DIMZIN
 70
     0
  9
$DIMBLK
  1

  9
$DIMASO
 70
     1
  9
$DIMSHO
 70
     1
  9
$DIMPOST
  1

  9
$DIMAPOST
  1

  9
$DIMALT
 70
     0
  9
$DIMALTD
 70
     2
  9
$DIMALTF
 40
25.399999999999999
  9
$DIMLFAC
 40
1.0
  9
$DIMTOFL
 70
     0
  9
$DIMTVP
 40
0.0
  9
$DIMTIX
 70
     0
  9
$DIMSOXD
 70
     0
  9
$DIMSAH
 70
     0
  9
$DIMBLK1
  1

  9
$DIMBLK2
  1

  9
$DIMSTYLE
  2
STANDARD
  9
$DIMCLRD
 70
     0
  9
$DIMCLRE
 70
     0
  9
$DIMCLRT
 70
     0
  9
$DIMTFAC
 40
1.0
  9
$DIMGAP
 40
0.09
  9
$LUNITS
 70
     2
  9
$LUPREC
 70
     4
  9
$SKETCHINC
 40
0.1
  9
$FILLETRAD
 40
0.0
  9
$AUNITS
 70
     0
  9
$AUPREC
 70
     0
  9
$MENU
  1
acad
  9
$ELEVATION
 40
0.0
  9
$PELEVATION
 40
0.0
  9
$THICKNESS
 40
0.0
  9
$LIMCHECK
 70
     0
  9
$BLIPMODE
 70
     0
  9
$CHAMFERA
 40
0.0
  9
$CHAMFERB
 40
0.0
  9
$SKPOLY
 70
     0
  9
$TDCREATE
 40
2454860.5845650579
  9
$TDUPDATE
 40
2454860.5848028702
  9
$TDINDWG
 40
0.0002687269
  9
$TDUSRTIMER
 40
0.0002680093
  9
$USRTIMER
 70
     1
  9
$ANGBASE
 50
0.0
  9
$ANGDIR
 70
     0
  9
$PDMODE
 70
     3
  9
$PDSIZE
 40
-1.0
  9
$PLINEWID
 40
0.0
  9
$COORDS
 70
     2
  9
$SPLFRAME
 70
     0
  9
$SPLINETYPE
 70
     6
  9
$SPLINESEGS
 70
     8
  9
$ATTDIA
 70
     0
  9
$ATTREQ
 70
     1
  9
$HANDLING
 70
     1
  9
$HANDSEED
  5
994
  9
$SURFTAB1
 70
     6
  9
$SURFTAB2
 70
     6
  9
$SURFTYPE
 70
     6
  9
$SURFU
 70
     6
  9
$SURFV
 70
     6
  9
$UCSNAME
  2

  9
$UCSORG
 10
0.0
 20
0.0
 30
0.0
  9
$UCSXDIR
 10
1.0
 20
0.0
 30
0.0
  9
$UCSYDIR
 10
0.0
 20
1.0
 30
0.0
  9
$PUCSNAME
  2

  9
$PUCSORG
 10
0.0
 20
0.0
 30
0.0
  9
$PUCSXDIR
 10
1.0
 20
0.0
 30
0.0
  9
$PUCSYDIR
 10
0.0
 20
1.0
 30
0.0
  9
$USERI1
 70
     0
  9
$USERI2
 70
     0
  9
$USERI3
 70
     0
  9
$USERI4
 70
     0
  9
$USERI5
 70
     0
  9
$USERR1
 40
0.0
  9
$USERR2
 40
0.0
  9
$USERR3
 40
0.0
  9
$USERR4
 40
0.0
  9
$USERR5
 40
0.0
  9
$WORLDVIEW
 70
     1
  9
$SHADEDGE
 70
     3
  9
$SHADEDIF
 70
    70
  9
$TILEMODE
 70
     1
  9
$MAXACTVP
 70
    16
  9
$PLIMCHECK
 70
     0
  9
$PEXTMIN
 10
1.0000000000000000E+020
 20
1.0000000000000000E+020
 30
1.0000000000000000E+020
  9
$PEXTMAX
 10
-1.0000000000000000E+020
 20
-1.0000000000000000E+020
 30
-1.0000000000000000E+020
  9
$PLIMMIN
 10
0.0
 20
0.0
  9
$PLIMMAX
 10
12.0
 20
9.0
  9
$UNITMODE
 70
     0
  9
$VISRETAIN
 70
     0
  9
$PLINEGEN
 70
     1
  9
$PSLTSCALE
 70
     0
  0
ENDSEC
  0
SECTION
  2
TABLES
  0
TABLE
  2
VPORT
 70
     2
  0
VPORT
  2
*ACTIVE
 70
     0
 10
0.0
 20
0.0
 11
1.0
 21
1.0
 12
34.067905508445087
 22
-19.028839841948521
 13
0.0
 23
0.0
 14
1.0
 24
1.0
 15
0.0
 25
0.0
 16
0.0
 26
0.0
 36
1.0
 17
0.0
 27
0.0
 37
0.0
 40
564.68176624096338
 41
1.6343490304709141
 42
50.0
 43
0.0
 44
0.0
 50
0.0
 51
0.0
 71
     0
 72
   100
 73
     1
 74
     1
 75
     0
 76
     0
 77
     0
 78
     0
  0
ENDTAB
  0
TABLE
  2
LTYPE
 70
    11
  0
LTYPE
  2
CONTINUOUS
 70
     0
  3
Solid line
 72
    65
 73
     0
 40
0.0
  0
LTYPE
  2
DOT
 70
     0
  3
. . . . . . . . 
 72
    65
 73
     2
 40
1.0
 49
0.0
 49
-1.0
  0
LTYPE
  2
DASHED
 70
     0
  3
___  ___  ___  ___  
 72
    65
 73
     2
 40
4.0
 49
3.0
 49
-1.0
  0
LTYPE
  2
HIDDEN
 70
     0
  3
__ __ __ __ 
 72
    65
 73
     2
 40
3.0
 49
2.0
 49
-1.0
  0
LTYPE
  2
STITCH
 70
     0
  3
_ _ _ _ 
 72
    65
 73
     2
 40
2.0
 49
1.0
 49
-1.0
  0
LTYPE
  2
CENTER
 70
     0
  3
______  __  ______  __  
 72
    65
 73
     4
 40
43.0
 49
40.0
 49
-1.0
 49
1.0
 49
-1.0
  0
LTYPE
  2
DASHDOT
 70
     0
  3
____ . ____ . 
 72
    65
 73
     4
 40
32.0
 49
30.0
 49
-1.0
 49
0.0
 49
-1.0
  0
LTYPE
  2
BORDER
 70
     0
  3
__ . __ . 
 72
    65
 73
     4
 40
22.0
 49
20.0
 49
-1.0
 49
0.0
 49
-1.0
  0
LTYPE
  2
CUTTING
 70
     0
  3
________   ___   ___   
 72
    65
 73
     6
 40
45.0
 49
40.0
 49
-1.0
 49
1.0
 49
-1.0
 49
1.0
 49
-1.0
  0
LTYPE
  2
PHANTOM
 70
     0
  3
______  __  __  
 72
    65
 73
     6
 40
35.0
 49
30.0
 49
-1.0
 49
1.0
 49
-1.0
 49
1.0
 49
-1.0
  0
LTYPE
  2
DIVIDE
 70
     0
  3
____ . . ____ . . 
 72
    65
 73
     6
 40
23.0
 49
20.0
 49
-1.0
 49
0.0
 49
-1.0
 49
0.0
 49
-1.0
  0
ENDTAB
  0
TABLE
  2
LAYER
 70
     3
  0
LAYER
  2
0
 70
     0
 62
     7
  6
CONTINUOUS
  0
LAYER
  2
┌▓È_1
 70
     0
 62
     7
  6
CONTINUOUS
  0
LAYER
  2
Éíû@É³
 70
     0
 62
     7
  6
CONTINUOUS
  0
ENDTAB
  0
TABLE
  2
STYLE
 70
     1
  0
STYLE
  2
STANDARD
 70
     0
 40
0.0
 41
1.0
 50
0.0
 71
     0
 42
0.0
  3
txt
  4
extfont
  0
ENDTAB
  0
TABLE
  2
VIEW
 70
     0
  0
ENDTAB
  0
TABLE
  2
UCS
 70
     0
  0
ENDTAB
  0
TABLE
  2
APPID
 70
     2
  0
APPID
  2
ACAD
 70
     0
  0
APPID
  2
DCO15
 70
     0
  0
ENDTAB
  0
TABLE
  2
DIMSTYLE
 70
     4
  0
DIMSTYLE
  2
STANDARD
 70
     0
  3

  4

  5

  6

  7

 40
1.0
 41
0.18
 42
0.0625
 43
0.38
 44
0.18
 45
0.0
 46
0.0
 47
0.0
 48
0.0
140
0.18
141
0.09
142
0.0
143
25.399999999999999
144
1.0
145
0.0
146
1.0
147
0.09
 71
     0
 72
     0
 73
     1
 74
     1
 75
     0
 76
     0
 77
     0
 78
     0
170
     0
171
     2
172
     0
173
     0
174
     0
175
     0
176
     0
177
     0
178
     0
  0
DIMSTYLE
  2
VELDIM0
 70
     0
  3

  4

  5

  6

  7

 40
1.0
 41
3.8637032508999991
 42
0.0625
 43
0.38
 44
2.0
 45
0.0
 46
10.0
 47
0.0
 48
0.0
140
7.1966662884000003
141
0.09
142
0.0
143
25.399999999999999
144
1.0
145
0.0
146
1.0
147
0.09
 71
     0
 72
     0
 73
     0
 74
     0
 75
     0
 76
     0
 77
     0
 78
     8
170
     0
171
     2
172
     0
173
     0
174
     0
175
     0
176
     0
177
     0
178
     0
  0
DIMSTYLE
  2
VELDIM1
 70
     0
  3

  4

  5

  6

  7

 40
1.0
 41
3.8637032508999991
 42
0.0625
 43
0.38
 44
1.25
 45
0.0
 46
5.0
 47
0.0
 48
0.0
140
7.1966662884000003
141
0.09
142
0.0
143
25.399999999999999
144
1.0
145
0.0
146
1.0
147
0.09
 71
     0
 72
     0
 73
     0
 74
     0
 75
     0
 76
     0
 77
     0
 78
     8
170
     0
171
     2
172
     0
173
     0
174
     0
175
     0
176
     0
177
     0
178
     0
  0
DIMSTYLE
  2
VELDIM2
 70
     0
  3

  4

  5

  6

  7

 40
1.0
 41
2.8977775573999991
 42
0.0625
 43
0.38
 44
1.0
 45
0.0
 46
5.0
 47
0.0
 48
0.0
140
7.1966662884000003
141
0.09
142
0.0
143
25.399999999999999
144
1.0
145
0.0
146
1.0
147
0.09
 71
     0
 72
     0
 73
     0
 74
     0
 75
     0
 76
     0
 77
     0
 78
     8
170
     0
171
     2
172
     0
173
     0
174
     0
175
     0
176
     0
177
     0
178
     0
  0
ENDTAB
  0
ENDSEC
  0
SECTION
  2
BLOCKS
  0
BLOCK
  8
0
  2
$MODEL_SPACE
 70
     0
 10
0.0
 20
0.0
 30
0.0
  3
$MODEL_SPACE
  1

  0
ENDBLK
  5
E
  8
0
  0
BLOCK
 67
     1
  8
0
  2
$PAPER_SPACE
 70
     0
 10
0.0
 20
0.0
 30
0.0
  3
$PAPER_SPACE
  1

  0
ENDBLK
  5
10
 67
     1
  8
0
  0
BLOCK
  8
0
  2
CLUMP0
 70
     0
 10
0.0
 20
0.0
 30
0.0
  3
CLUMP0
  1

  0
INSERT
  5
32
  8
0
  6
CONTINUOUS
  2
*U37
 10
0.0
 20
0.0
 30
0.0
  0
LINE
  5
33
  8
┌▓È_1
 62
     5
 10
143.2342584921
 20
250.4404001995
 30
0.0
 11
148.2342584921
 21
241.7801461617
 31
0.0
  0
LINE
  5
34
  8
┌▓È_1
 62
     5
 10
138.2342584921
 20
241.7801461617
 30
0.0
 11
143.2342584921
 21
250.4404001995
 31
0.0
  0
LINE
  5
35
  8
┌▓È_1
 62
     5
 10
138.2342584921
 20
241.7801461617
 30
0.0
 11
148.2342584921
 21
241.7801461617
 31
0.0
  0
ENDBLK
  5
36
  8
0
  0
BLOCK
  8
0
  2
CLUMP1
 70
     0
 10
0.0
 20
0.0
 30
0.0
  3
CLUMP1
  1

  0
LINE
  5
46
  8
┌▓È_1
 62
     5
 10
70.8807959345
 20
207.35271355270001
 30
0.0
 11
70.880795909699998
 21
137.35271355270001
 31
0.0
  0
LINE
  5
47
  8
┌▓È_1
 62
     5
 10
70.380795909699984
 20
137.3527135528
 30
0.0
 11
70.3807959345
 21
207.35271355290001
 31
0.0
  0
LINE
  5
48
  8
┌▓È_1
 62
     5
 10
70.880795934299996
 20
206.60271385830001
 30
0.0
 11
70.880795909699998
 21
137.35271355270001
 31
0.0
  0
LINE
  5
49
  8
┌▓È_1
 62
     5
 10
72.380795934299996
 20
206.6027137355
 30
0.0
 11
72.380795909699984
 21
137.3527135523
 31
0.0
  0
LINE
  5
4A
  8
┌▓È_1
 62
     5
 10
72.680795933100001
 20
203.35271341660001
 30
0.0
 11
72.680795909700009
 21
137.3527135523
 31
0.0
  0
LINE
  5
4B
  8
┌▓È_1
 62
     5
 10
76.080795933100006
 20
203.3527134903
 30
0.0
 11
76.080795909700001
 21
137.3527135514
 31
0.0
  0
LINE
  5
4C
  8
┌▓È_1
 62
     5
 10
76.380795934299996
 20
206.60271384550001
 30
0.0
 11
76.380795909699998
 21
137.35271355130001
 31
0.0
  0
LINE
  5
4D
  8
┌▓È_1
 62
     5
 10
77.880795909699984
 20
137.35271355090001
 30
0.0
 11
77.880795934299996
 21
206.60271377730001
 31
0.0
  0
LINE
  5
4E
  8
┌▓È_1
 62
     5
 10
70.3807959345
 20
207.35271355290001
 30
0.0
 11
70.8807959345
 21
207.35271355270001
 31
0.0
  0
ARC
  5
4F
  8
┌▓È_1
 62
     5
 10
71.630795934299996
 20
206.60271351840001
 30
0.0
 40
0.75
 50
0.0000165839
 51
179.99997403110001
  0
ARC
  5
50
  8
┌▓È_1
 62
     5
 10
72.180795933100001
 20
203.35271351820001
 30
0.0
 40
0.5
 50
0.0000167361
 51
66.421821501499991
  0
ARC
  5
51
  8
┌▓È_1
 62
     5
 10
72.880795930999994
 20
197.35271351790001
 30
0.0
 40
0.5
 50
246.42182150150001
 51
269.99999997970002
  0
ARC
  5
52
  8
┌▓È_1
 62
     5
 10
77.130795934299996
 20
206.6027135164
 30
0.0
 40
0.75
 50
0.0000199264
 51
179.99997486169991
  0
ARC
  5
53
  8
┌▓È_1
 62
     5
 10
76.580795933100006
 20
203.35271351660001
 30
0.0
 40
0.5
 50
113.57817845789999
 51
179.9999966597
  0
LINE
  5
54
  8
┌▓È_1
 62
     5
 10
72.880795930800005
 20
196.85271351790001
 30
0.0
 11
75.880795930800005
 21
196.8527135169
 31
0.0
  0
ARC
  5
55
  8
┌▓È_1
 62
     5
 10
75.880795931000009
 20
197.3527135169
 30
0.0
 40
0.5
 50
269.99999997970002
 51
293.57817845789998
  0
ENDBLK
  5
56
  8
0
  0
BLOCK
  8
0
  2
CLUMP2
 70
     0
 10
0.0
 20
0.0
 30
0.0
  3
CLUMP2
  1

  0
INSERT
  5
80
  8
0
  6
CONTINUOUS
  2
*U46
 10
0.0
 20
0.0
 30
0.0
  0
LINE
  5
81
  8
┌▓È_1
 62
     5
 10
138.2342584921
 20
231.7801461617
 30
0.0
 11
148.2342584921
 21
231.7801461617
 31
0.0
  0
LINE
  5
82
  8
┌▓È_1
 62
     5
 10
138.2342584921
 20
231.7801461617
 30
0.0
 11
143.2342584921
 21
240.4404001995
 31
0.0
  0
LINE
  5
83
  8
┌▓È_1
 62
     5
 10
143.2342584921
 20
240.4404001995
 30
0.0
 11
148.2342584921
 21
231.7801461617
 31
0.0
  0
ENDBLK
  5
84
  8
0
  0
BLOCK
  8
0
  2
BALLON0
 70
     0
 10
0.0
 20
0.0
 30
0.0
  3
BALLON0
  1

  0
INSERT
  5
109
  8
0
  6
CONTINUOUS
  2
*U100
 10
0.0
 20
0.0
 30
0.0
  0
CIRCLE
  5
10A
  8
┌▓È_1
 10
-76.422010416700004
 20
86.661827256900011
 30
0.0
 40
8.0
  0
LINE
  5
10B
  8
Éíû@É³
 10
-89.755343749999994
 20
86.661827256900011
 30
0.0
 11
-84.422010416700004
 21
86.661827256900011
 31
0.0
  0
LINE
  5
10C
  8
Éíû@É³
 10
-178.5426432296
 20
1.3606191301999999
 30
0.0
 11
-89.755343749999994
 21
86.661827256900011
 31
0.0
  0
SOLID
  5
10D
  8
Éíû@É³
 10
-178.5426432296
 20
1.3606191301999999
 30
0.0
 11
-173.88216114950001
 21
8.0568797866999997
 31
0.0
 12
-173.92746306689989
 22
5.7945916228999987
 32
0.0
 13
-173.92746306689989
 23
5.7945916228999987
 33
0.0
  0
SOLID
  5
10E
  8
Éíû@É³
 10
-173.92746306689989
 20
5.7945916228999987
 30
0.0
 11
-171.6651749031
 21
5.749289705399999
 31
0.0
 12
-178.5426432296
 22
1.3606191301999999
 32
0.0
 13
-178.5426432296
 23
1.3606191301999999
 33
0.0
  0
ENDBLK
  5
10F
  8
0
  0
BLOCK
  8
0
  2
BALLON1
 70
     0
 10
0.0
 20
0.0
 30
0.0
  3
BALLON1
  1

  0
INSERT
  5
113
  8
0
  6
CONTINUOUS
  2
*U101
 10
0.0
 20
0.0
 30
0.0
  0
CIRCLE
  5
114
  8
┌▓È_1
 10
-76.422010416700004
 20
68.945768229199999
 30
0.0
 40
8.0
  0
LINE
  5
115
  8
Éíû@É³
 10
-89.755343749999994
 20
68.945768229199999
 30
0.0
 11
-84.422010416700004
 21
68.945768229199999
 31
0.0
  0
LINE
  5
116
  8
Éíû@É³
 10
-170.0426432296
 20
-0.9893808698
 30
0.0
 11
-89.755343749999994
 21
68.945768229199999
 31
0.0
  0
SOLID
  5
117
  8
Éíû@É³
 10
-170.0426432296
 20
-0.9893808698
 30
0.0
 11
-165.06118288959999
 21
5.4716602909000001
 31
0.0
 12
-165.21674432789999
 22
3.2142722783999989
 32
0.0
 13
-165.21674432789999
 23
3.2142722783999989
 33
0.0
  0
SOLID
  5
118
  8
Éíû@É³
 10
-165.21674432789999
 20
3.2142722783999989
 30
0.0
 11
-162.9593563155
 21
3.0587108400999989
 31
0.0
 12
-170.0426432296
 22
-0.9893808698
 32
0.0
 13
-170.0426432296
 23
-0.9893808698
 33
0.0
  0
ENDBLK
  5
119
  8
0
  0
BLOCK
  8
0
  2
BALLON2
 70
     0
 10
0.0
 20
0.0
 30
0.0
  3
BALLON2
  1

  0
INSERT
  5
1CA
  8
0
  6
CONTINUOUS
  2
*U113
 10
0.0
 20
0.0
 30
0.0
  0
CIRCLE
  5
1CB
  8
┌▓È_1
 10
-76.422010416700004
 20
-104.2336342574
 30
0.0
 40
8.0
  0
LINE
  5
1CC
  8
Éíû@É³
 10
-89.755343749999994
 20
-104.2336342574
 30
0.0
 11
-84.422010416700004
 21
-104.2336342574
 31
0.0
  0
LINE
  5
1CD
  8
Éíû@É³
 10
-168.54264323149999
 20
-61.989380869800002
 30
0.0
 11
-89.755343749999994
 21
-104.2336342574
 31
0.0
  0
SOLID
  5
1CE
  8
Éíû@É³
 10
-168.54264323149999
 20
-61.989380869800002
 30
0.0
 11
-160.7361080819
 21
-64.359614815499995
 31
0.0
 12
-162.90226756960001
 22
-65.013643158699992
 32
0.0
 13
-162.90226756960001
 23
-65.013643158699992
 33
0.0
  0
SOLID
  5
1CF
  8
Éíû@É³
 10
-162.90226756960001
 20
-65.013643158699992
 30
0.0
 11
-162.2482392263
 21
-67.179802646400006
 31
0.0
 12
-168.54264323149999
 22
-61.989380869800002
 32
0.0
 13
-168.54264323149999
 23
-61.989380869800002
 33
0.0
  0
ENDBLK
  5
1D0
  8
0
  0
BLOCK
  8
0
  2
CLUMP3
 70
     0
 10
0.0
 20
0.0
 30
0.0
  3
CLUMP3
  1

  0
LINE
  5
203
  8
┌▓È_1
 62
     5
 10
-127.3343856667
 20
-64.989380869800002
 30
0.0
 11
-121.5426431345
 21
-64.989380869800002
 31
0.0
  0
LINE
  5
204
  8
┌▓È_1
 62
     5
 10
-124.3343856667
 20
-66.489380869800002
 30
0.0
 11
-121.54264315029999
 21
-66.489380869800002
 31
0.0
  0
ARC
  5
205
  8
┌▓È_1
 62
     5
 10
-121.54264323620001
 20
-65.739380869800002
 30
0.0
 40
0.75
 50
270.00000656740002
 51
90.000007770300016
  0
LINE
  5
206
  8
┌▓È_1
 62
     5
 10
-124.3343856667
 20
-70.489380869800002
 30
0.0
 11
-121.54264312150001
 21
-70.489380869800002
 31
0.0
  0
ARC
  5
207
  8
┌▓È_1
 62
     5
 10
-121.54264323620001
 20
-71.239380869800002
 30
0.0
 40
0.75
 50
269.99999192849998
 51
90.000007770300016
  0
LINE
  5
208
  8
┌▓È_1
 62
     5
 10
-127.3343856667
 20
-71.989380869800002
 30
0.0
 11
-121.5426433419
 21
-71.989380869800002
 31
0.0
  0
LINE
  5
209
  8
┌▓È_1
 62
     5
 10
-132.79264323620001
 20
-66.989380869800002
 30
0.0
 11
-132.79264323620001
 21
-69.989380869800002
 31
0.0
  0
ARC
  5
20A
  8
┌▓È_1
 62
     5
 10
-130.79264323620001
 20
-69.989380869800002
 30
0.0
 40
2.0
 50
180.0
 51
270.0
  0
ARC
  5
20B
  8
┌▓È_1
 62
     5
 10
-130.79264323620001
 20
-69.989380869800002
 30
0.0
 40
0.5
 50
180.0
 51
270.0
  0
LINE
  5
20C
  8
┌▓È_1
 62
     5
 10
-131.29264323620001
 20
-66.989380869800002
 30
0.0
 11
-131.29264323620001
 21
-69.989380869800002
 31
0.0
  0
ARC
  5
20D
  8
┌▓È_1
 62
     5
 10
-130.79264323620001
 20
-66.989380869800002
 30
0.0
 40
0.5
 50
90.0
 51
180.0
  0
ARC
  5
20E
  8
┌▓È_1
 62
     5
 10
-127.79264323620001
 20
-65.18938086979999
 30
0.0
 40
0.5
 50
23.578178478200002
 51
156.42182152180001
  0
ARC
  5
20F
  8
┌▓È_1
 62
     5
 10
-124.79264323620001
 20
-66.289380869799984
 30
0.0
 40
0.5
 50
203.57817847819999
 51
336.42182152179998
  0
LINE
  5
210
  8
┌▓È_1
 62
     5
 10
-130.79264323620001
 20
-64.989380869800002
 30
0.0
 11
-128.25090080570001
 21
-64.989380869800002
 31
0.0
  0
LINE
  5
211
  8
┌▓È_1
 62
     5
 10
-130.79264323620001
 20
-66.489380869800002
 30
0.0
 11
-125.2509008057
 21
-66.489380869800002
 31
0.0
  0
ARC
  5
212
  8
┌▓È_1
 62
     5
 10
-124.79264323620001
 20
-70.68938086979999
 30
0.0
 40
0.5
 50
23.578178478200002
 51
156.42182152180001
  0
ARC
  5
213
  8
┌▓È_1
 62
     5
 10
-127.79264323620001
 20
-71.789380869799999
 30
0.0
 40
0.5
 50
203.57817847819999
 51
336.42182152179998
  0
LINE
  5
214
  8
┌▓È_1
 62
     5
 10
-130.79264323620001
 20
-70.489380869800002
 30
0.0
 11
-125.2509008057
 21
-70.489380869800002
 31
0.0
  0
LINE
  5
215
  8
┌▓È_1
 62
     5
 10
-130.79264323620001
 20
-71.989380869800002
 30
0.0
 11
-128.25090080570001
 21
-71.989380869800002
 31
0.0
  0
ARC
  5
216
  8
┌▓È_1
 62
     5
 10
-130.79264323620001
 20
-66.989380869800002
 30
0.0
 40
2.0
 50
90.0
 51
180.0
  0
ENDBLK
  5
217
  8
0
  0
BLOCK
  8
0
  2
CLUMP4
 70
     0
 10
0.0
 20
0.0
 30
0.0
  3
CLUMP4
  1

  0
ARC
  5
282
  8
┌▓È_1
 62
     5
 10
338.38818359369998
 20
97.259114583300004
 30
0.0
 40
50.200000000000003
 50
97.384883246700014
 51
112.1546497402
  0
ARC
  5
283
  8
┌▓È_1
 62
     5
 10
338.38818359369998
 20
97.259114583300004
 30
0.0
 40
46.899999999999999
 50
167.82492209029999
 51
206.94484440319999
  0
ARC
  5
284
  8
┌▓È_1
 62
     5
 10
324.88818359380002
 20
110.7591145833
 30
0.0
 40
4.0
 50
90.0
 51
180.0
  0
LINE
  5
285
  8
┌▓È_1
 62
     5
 10
320.88818359380002
 20
110.7591145833
 30
0.0
 11
320.88818359380002
 21
83.759114583300004
 31
0.0
  0
ARC
  5
286
  8
┌▓È_1
 62
     5
 10
324.88818359380002
 20
83.759114583300004
 30
0.0
 40
4.0
 50
180.0
 51
270.0
  0
ARC
  5
287
  8
┌▓È_1
 62
     5
 10
324.88818359380002
 20
110.7591145833
 30
0.0
 40
1.0
 50
90.0
 51
180.0
  0
LINE
  5
288
  8
┌▓È_1
 62
     5
 10
323.88818359380002
 20
110.7591145833
 30
0.0
 11
323.88818359380002
 21
83.759114583300004
 31
0.0
  0
LINE
  5
289
  8
┌▓È_1
 62
     5
 10
320.88818359380002
 20
101.2591145833
 30
0.0
 11
323.88818359380002
 21
101.2591145833
 31
0.0
  0
LINE
  5
28A
  8
┌▓È_1
 62
     5
 10
320.88818359380002
 20
93.259114583300004
 30
0.0
 11
323.88818359380002
 21
93.259114583300004
 31
0.0
  0
LINE
  5
28B
  8
┌▓È_1
 62
     5
 10
291.69409764800002
 20
108.3529118453
 30
0.0
 11
289.79381824350003
 21
108.5992052448
 31
0.0
  0
ARC
  5
28C
  8
┌▓È_1
 62
     5
 10
291.56556369549997
 20
107.36120673630001
 30
0.0
 40
1.0
 50
347.82492209029999
 51
82.615116753300001
  0
ARC
  5
28D
  8
┌▓È_1
 62
     5
 10
308.38818359380002
 20
97.259114583300004
 30
0.0
 40
5.0
 50
270.0
 51
0.0
  0
LINE
  5
28E
  8
┌▓È_1
 62
     5
 10
313.38818359380002
 20
97.259114583300004
 30
0.0
 11
313.38818359380002
 21
140.44487612579999
 31
0.0
  0
ARC
  5
28F
  8
┌▓È_1
 62
     5
 10
338.38818359369998
 20
97.259114583300004
 30
0.0
 40
50.200000000000003
 50
172.61511675329999
 51
187.38488324670001
  0
LINE
  5
290
  8
┌▓È_1
 62
     5
 10
288.60458712560001
 20
103.7115189957
 30
0.0
 11
285.92698333150003
 21
104.0585606673
 31
0.0
  0
LINE
  5
291
  8
┌▓È_1
 62
     5
 10
291.89448172039999
 20
78.32830144399999
 30
0.0
 11
289.39382444839998
 21
77.310110299100003
 31
0.0
  0
LINE
  5
292
  8
┌▓È_1
 62
     5
 10
385.08226953949998
 20
86.165317321399996
 30
0.0
 11
386.98254894400009
 21
85.919023921900006
 31
0.0
  0
ARC
  5
293
  8
┌▓È_1
 62
     5
 10
338.38818359369998
 20
97.259114583300004
 30
0.0
 40
50.200000000000003
 50
277.38488324669999
 51
292.1546497402
  0
LINE
  5
294
  8
┌▓È_1
  6
BORDER
 62
     3
 10
338.38818359380002
 20
37.259114583299997
 30
0.0
 11
338.38818359380002
 21
157.2591145833
 31
0.0
  0
LINE
  5
295
  8
┌▓È_1
  6
BORDER
 62
     3
 10
338.38818359369998
 20
157.2591145833
 30
0.0
 11
338.38818359369998
 21
37.259114583299997
 31
0.0
  0
LINE
  5
296
  8
┌▓È_1
 62
     5
 10
327.29438633180001
 20
50.565028637600001
 30
0.0
 11
327.04809293229999
 21
48.664749233100011
 31
0.0
  0
ARC
  5
297
  8
┌▓È_1
 62
     5
 10
328.28609144069998
 20
50.436494685100001
 30
0.0
 40
1.0
 50
77.824922090299992
 51
172.61511675329999
  0
ARC
  5
298
  8
┌▓È_1
 62
     5
 10
338.38818359369998
 20
97.259114583300004
 30
0.0
 40
49.899999999999999
 50
207.9053602992
 51
256.8644061942
  0
ARC
  5
299
  8
┌▓È_1
 62
     5
 10
338.38818359369998
 20
97.259114583300004
 30
0.0
 40
46.899999999999999
 50
257.82492209029999
 51
296.94484440320002
  0
ARC
  5
29A
  8
┌▓È_1
 62
     5
 10
338.38818359369998
 20
97.259114583300004
 30
0.0
 40
52.899999999999999
 50
187.38488324670001
 51
262.61511675330001
  0
LINE
  5
29B
  8
┌▓È_1
  6
BORDER
 62
     3
 10
278.38818359380002
 20
97.259114583300004
 30
0.0
 11
398.38818359380002
 21
97.259114583300004
 31
0.0
  0
LINE
  5
29C
  8
┌▓È_1
  6
BORDER
 62
     3
 10
278.38818359380002
 20
97.259114583300004
 30
0.0
 11
398.38818359380002
 21
97.259114583300004
 31
0.0
  0
ARC
  5
29D
  8
┌▓È_1
 62
     5
 10
338.38818359369998
 20
97.259114583300004
 30
0.0
 40
46.899999999999999
 50
77.824922090299992
 51
116.94484440319999
  0
ARC
  5
29E
  8
┌▓È_1
 62
     5
 10
338.38818359369998
 20
97.259114583300004
 30
0.0
 40
52.899999999999999
 50
97.384883246700014
 51
172.61511675329999
  0
LINE
  5
29F
  8
┌▓È_1
 62
     5
 10
295.2024220513
 20
72.259114583300004
 30
0.0
 11
338.38818359369998
 21
72.259114583300004
 31
0.0
  0
LINE
  5
2A0
  8
┌▓È_1
 62
     5
 10
351.88818359380002
 20
114.7591145833
 30
0.0
 11
324.88818359380002
 21
114.7591145833
 31
0.0
  0
LINE
  5
2A1
  8
┌▓È_1
 62
     5
 10
324.88818359380002
 20
79.759114583300004
 30
0.0
 11
351.88818359369998
 21
79.759114583300004
 31
0.0
  0
LINE
  5
2A2
  8
┌▓È_1
 62
     5
 10
351.88818359380002
 20
111.7591145833
 30
0.0
 11
324.88818359380002
 21
111.7591145833
 31
0.0
  0
LINE
  5
2A3
  8
┌▓È_1
 62
     5
 10
324.88818359380002
 20
82.759114583300004
 30
0.0
 11
351.88818359369998
 21
82.759114583300004
 31
0.0
  0
ARC
  5
2A4
  8
┌▓È_1
 62
     5
 10
351.88818359380002
 20
83.759114583300004
 30
0.0
 40
4.0
 50
270.0
 51
360.0
  0
ARC
  5
2A5
  8
┌▓È_1
 62
     5
 10
351.88818359380002
 20
110.7591145833
 30
0.0
 40
1.0
 50
0.0
 51
90.0
  0
LINE
  5
2A6
  8
┌▓È_1
 62
     5
 10
352.88818359380002
 20
83.759114583300004
 30
0.0
 11
352.88818359380002
 21
110.7591145833
 31
0.0
  0
ARC
  5
2A7
  8
┌▓È_1
 62
     5
 10
351.88818359380002
 20
83.759114583300004
 30
0.0
 40
1.0
 50
270.0
 51
0.0
  0
LINE
  5
2A8
  8
┌▓È_1
 62
     5
 10
352.88818359380002
 20
93.259114583300004
 30
0.0
 11
355.88818359380002
 21
93.259114583300004
 31
0.0
  0
LINE
  5
2A9
  8
┌▓È_1
 62
     5
 10
352.88818359380002
 20
101.2591145833
 30
0.0
 11
355.88818359380002
 21
101.2591145833
 31
0.0
  0
ARC
  5
2AA
  8
┌▓È_1
 62
     5
 10
338.38818359369998
 20
67.259114583300004
 30
0.0
 40
5.0
 50
360.0
 51
90.0
  0
ARC
  5
2AB
  8
┌▓È_1
 62
     5
 10
385.21080349200003
 20
87.157022430299989
 30
0.0
 40
1.0
 50
167.8249220902
 51
262.61511675330001
  0
ARC
  5
2AC
  8
┌▓È_1
 62
     5
 10
381.08831018000001
 20
118.9641644454
 30
0.0
 40
1.0
 50
112.1546497402
 51
206.94484440319999
  0
LINE
  5
2AD
  8
┌▓È_1
 62
     5
 10
308.38818359380002
 20
92.259114583300004
 30
0.0
 11
291.75546975460003
 21
92.259114583300004
 31
0.0
  0
ARC
  5
2AE
  8
┌▓È_1
 62
     5
 10
338.38818359369998
 20
97.259114583300004
 30
0.0
 40
49.899999999999999
 50
117.9053602992
 51
166.8644061942
  0
LINE
  5
2AF
  8
┌▓È_1
 62
     5
 10
296.06516483889999
 20
74.627895361300006
 30
0.0
 11
294.2904633233
 21
73.905291192999996
 31
0.0
  0
ARC
  5
2B0
  8
┌▓È_1
 62
     5
 10
338.38818359369998
 20
97.259114583300004
 30
0.0
 40
50.200000000000003
 50
187.38488324670001
 51
202.1546497402
  0
LINE
  5
2B1
  8
┌▓È_1
 62
     5
 10
288.60458712560001
 20
90.806710171000006
 30
0.0
 11
285.92698333150003
 21
90.459668499399996
 31
0.0
  0
LINE
  5
2B2
  8
┌▓È_1
 62
     5
 10
319.45737045440001
 20
143.75281645659999
 30
0.0
 11
318.43917930949999
 21
146.25347372869999
 31
0.0
  0
ARC
  5
2B3
  8
┌▓È_1
 62
     5
 10
295.68805700749999
 20
75.554064721299994
 30
0.0
 40
1.0
 50
292.1546497402
 51
26.944844403200001
  0
LINE
  5
2B4
  8
┌▓È_1
 62
     5
 10
363.38818359380002
 20
97.259114583300004
 30
0.0
 11
363.38818359369998
 21
54.073353040900002
 31
0.0
  0
LINE
  5
2B5
  8
┌▓È_1
 62
     5
 10
361.01940281579999
 20
54.936095828500001
 30
0.0
 11
361.7420069841001
 21
53.161394312900001
 31
0.0
  0
ARC
  5
2B6
  8
┌▓È_1
 62
     5
 10
360.09323345579998
 20
54.558987996999988
 30
0.0
 40
1.0
 50
22.1546497402
 51
116.94484440319999
  0
LINE
  5
2B7
  8
┌▓È_1
 62
     5
 10
343.38818359369998
 20
67.259114583300004
 30
0.0
 11
343.38818359369998
 21
50.626400744199991
 31
0.0
  0
ARC
  5
2B8
  8
┌▓È_1
 62
     5
 10
338.38818359369998
 20
97.259114583300004
 30
0.0
 40
49.899999999999999
 50
297.90536029920003
 51
346.8644061942
  0
ARC
  5
2B9
  8
┌▓È_1
 62
     5
 10
338.38818359369998
 20
97.259114583300004
 30
0.0
 40
52.899999999999999
 50
277.38488324669999
 51
352.61511675330001
  0
ARC
  5
2BA
  8
┌▓È_1
 62
     5
 10
324.88818359380002
 20
83.759114583300004
 30
0.0
 40
1.0
 50
180.0
 51
270.0
  0
LINE
  5
2BB
  8
┌▓È_1
 62
     5
 10
315.75696437170001
 20
139.58213333820001
 30
0.0
 11
315.03436020340001
 21
141.3568348538
 31
0.0
  0
ARC
  5
2BC
  8
┌▓È_1
 62
     5
 10
316.68313373170002
 20
139.95924116960001
 30
0.0
 40
1.0
 50
202.1546497402
 51
296.94484440320002
  0
ARC
  5
2BD
  8
┌▓È_1
 62
     5
 10
338.38818359369998
 20
97.259114583300004
 30
0.0
 40
46.899999999999999
 50
347.82492209029999
 51
26.944844403200001
  0
ARC
  5
2BE
  8
┌▓È_1
 62
     5
 10
338.38818359369998
 20
97.259114583300004
 30
0.0
 40
49.899999999999999
 50
27.905360299200002
 51
76.864406194200001
  0
LINE
  5
2BF
  8
┌▓È_1
 62
     5
 10
338.38818359380002
 20
122.2591145833
 30
0.0
 11
381.5739451362
 21
122.2591145833
 31
0.0
  0
LINE
  5
2C0
  8
┌▓È_1
 62
     5
 10
368.38818359380002
 20
102.2591145833
 30
0.0
 11
385.02089743289997
 21
102.2591145833
 31
0.0
  0
ARC
  5
2C1
  8
┌▓È_1
 62
     5
 10
338.38818359369998
 20
97.259114583300004
 30
0.0
 40
52.899999999999999
 50
7.3848832466999994
 51
82.615116753300001
  0
LINE
  5
2C2
  8
┌▓È_1
 62
     5
 10
349.48198085569999
 20
143.9532005291
 30
0.0
 11
349.72827425520001
 21
145.85347993350001
 31
0.0
  0
ARC
  5
2C3
  8
┌▓È_1
 62
     5
 10
348.49027574680002
 20
144.08173448150001
 30
0.0
 40
1.0
 50
257.82492209029999
 51
352.61511675330001
  0
ARC
  5
2C4
  8
┌▓È_1
 62
     5
 10
338.38818359380002
 20
127.2591145833
 30
0.0
 40
5.0
 50
180.0
 51
270.0
  0
ARC
  5
2C5
  8
┌▓È_1
 62
     5
 10
368.38818359380002
 20
97.259114583300004
 30
0.0
 40
5.0
 50
90.0
 51
180.0
  0
LINE
  5
2C6
  8
┌▓È_1
 62
     5
 10
357.31899673309999
 20
50.765412709999993
 30
0.0
 11
358.33718787800001
 21
48.264755438000002
 31
0.0
  0
LINE
  5
2C7
  8
┌▓È_1
 62
     5
 10
344.84058800610001
 20
47.475518115200003
 30
0.0
 11
345.18762967769999
 21
44.797914321099988
 31
0.0
  0
ARC
  5
2C8
  8
┌▓È_1
 62
     5
 10
338.38818359369998
 20
97.259114583300004
 30
0.0
 40
50.200000000000003
 50
262.61511675330001
 51
277.38488324669999
  0
LINE
  5
2C9
  8
┌▓È_1
 62
     5
 10
331.93577918139999
 20
47.475518115200003
 30
0.0
 11
331.58873750980001
 21
44.797914321099988
 31
0.0
  0
ARC
  5
2CA
  8
┌▓È_1
 62
     5
 10
338.38818359369998
 20
97.259114583300004
 30
0.0
 40
50.200000000000003
 50
352.61511675330001
 51
7.3848832466999994
  0
LINE
  5
2CB
  8
┌▓È_1
 62
     5
 10
388.17178006189999
 20
90.806710171000006
 30
0.0
 11
390.84938385599997
 21
90.459668499399996
 31
0.0
  0
LINE
  5
2CC
  8
┌▓È_1
 62
     5
 10
380.71120234860001
 20
119.8903338054
 30
0.0
 11
382.4859038642
 21
120.6129379737
 31
0.0
  0
ARC
  5
2CD
  8
┌▓È_1
 62
     5
 10
338.38818359369998
 20
97.259114583300004
 30
0.0
 40
50.200000000000003
 50
7.3848832466999994
 51
22.1546497402
  0
LINE
  5
2CE
  8
┌▓È_1
 62
     5
 10
384.88188546710001
 20
116.18992772270001
 30
0.0
 11
387.38254273910002
 21
117.20811886760001
 31
0.0
  0
LINE
  5
2CF
  8
┌▓È_1
 62
     5
 10
388.17178006189999
 20
103.7115189957
 30
0.0
 11
390.84938385599997
 21
104.0585606673
 31
0.0
  0
LINE
  5
2D0
  8
┌▓È_1
 62
     5
 10
333.38818359380002
 20
127.2591145833
 30
0.0
 11
333.38818359380002
 21
143.89182842240001
 31
0.0
  0
ARC
  5
2D1
  8
┌▓È_1
 62
     5
 10
338.38818359369998
 20
97.259114583300004
 30
0.0
 40
50.200000000000003
 50
82.615116753300001
 51
97.384883246700014
  0
LINE
  5
2D2
  8
┌▓È_1
 62
     5
 10
344.84058800610001
 20
147.0427110514
 30
0.0
 11
345.18762967769999
 21
149.72031484550001
 31
0.0
  0
LINE
  5
2D3
  8
┌▓È_1
 62
     5
 10
331.93577918139999
 20
147.0427110514
 30
0.0
 11
331.58873750980001
 21
149.72031484550001
 31
0.0
  0
ARC
  5
2D4
  8
┌▓È_1
 62
     5
 10
351.88818359380002
 20
110.7591145833
 30
0.0
 40
4.0
 50
360.0
 51
90.0
  0
LINE
  5
2D5
  8
┌▓È_1
 62
     5
 10
355.88818359380002
 20
83.759114583300004
 30
0.0
 11
355.88818359380002
 21
110.7591145833
 31
0.0
  0
ENDBLK
  5
2D6
  8
0
  0
BLOCK
  8
0
  2
CLUMP5
 70
     0
 10
0.0
 20
0.0
 30
0.0
  3
CLUMP5
  1

  0
INSERT
  5
2DA
  8
0
  6
CONTINUOUS
  2
*U114
 10
0.0
 20
0.0
 30
0.0
  0
LINE
  5
2DB
  8
┌▓È_1
 62
     5
 10
-236.9538217905
 20
-237.39969559400001
 30
0.0
 11
-226.9538217905
 21
-237.39969559400001
 31
0.0
  0
LINE
  5
2DC
  8
┌▓È_1
 62
     5
 10
-236.9538217905
 20
-237.39969559400001
 30
0.0
 11
-231.9538217905
 21
-228.73944155620001
 31
0.0
  0
LINE
  5
2DD
  8
┌▓È_1
 62
     5
 10
-231.9538217905
 20
-228.73944155620001
 30
0.0
 11
-226.9538217905
 21
-237.39969559400001
 31
0.0
  0
ENDBLK
  5
2DE
  8
0
  0
BLOCK
  8
0
  2
CLUMP6
 70
     0
 10
0.0
 20
0.0
 30
0.0
  3
CLUMP6
  1

  0
INSERT
  5
2E2
  8
0
  6
CONTINUOUS
  2
*U115
 10
0.0
 20
0.0
 30
0.0
  0
LINE
  5
2E3
  8
┌▓È_1
 62
     5
 10
-209.64889783250001
 20
-250.51831156610001
 30
0.0
 11
-204.64889783250001
 21
-259.17856560400003
 31
0.0
  0
LINE
  5
2E4
  8
┌▓È_1
 62
     5
 10
-214.64889783250001
 20
-259.17856560400003
 30
0.0
 11
-209.64889783250001
 21
-250.51831156610001
 31
0.0
  0
LINE
  5
2E5
  8
┌▓È_1
 62
     5
 10
-214.64889783250001
 20
-259.17856560400003
 30
0.0
 11
-204.64889783250001
 21
-259.17856560400003
 31
0.0
  0
ENDBLK
  5
2E6
  8
0
  0
BLOCK
  8
0
  2
*D10
 70
     1
 10
0.0
 20
0.0
 30
0.0
  3
*D10
  1

  0
TEXT
  5
2EA
  8
0
 62
     0
 10
-290.70457088260002
 20
-202.72271391429999
 30
0.0
 40
7.1966662884000003
  1
35
 50
90.0
  0
LINE
  5
2EB
  8
0
 62
     0
 10
-243.29264323160001
 20
-180.98938077529999
 30
0.0
 11
-289.43457094939998
 21
-180.98938077529999
 31
0.0
  0
LINE
  5
2EC
  8
0
 62
     0
 10
-225.7926432786
 20
-215.9893808317
 30
0.0
 11
-289.43457094939998
 21
-215.9893808317
 31
0.0
  0
LINE
  5
2ED
  8
0
 62
     0
 10
-287.43457094939998
 20
-180.98938077529999
 30
0.0
 11
-287.43457094939998
 21
-190.0227145819
 31
0.0
  0
LINE
  5
2EE
  8
0
 62
     0
 10
-287.43457094939998
 20
-180.98938077529999
 30
0.0
 11
-287.43457094939998
 21
-206.95604702509999
 31
0.0
  0
LINE
  5
2EF
  8
0
 62
     0
 10
-287.43457094939998
 20
-215.9893808317
 30
0.0
 11
-287.43457094939998
 21
-190.0227145819
 31
0.0
  0
LINE
  5
2F0
  8
0
 62
     0
 10
-287.43457094939998
 20
-215.9893808317
 30
0.0
 11
-287.43457094939998
 21
-206.95604702509999
 31
0.0
  0
LINE
  5
2F1
  8
0
 62
     0
 10
-287.43457094939998
 20
-215.9893808317
 30
0.0
 11
-287.43457094939998
 21
-205.9893808317
 31
0.0
  0
SOLID
  5
2F2
  8
0
 62
     0
 10
-287.43457094939998
 20
-215.9893808317
 30
0.0
 11
-288.46984712390002
 21
-212.12567758079999
 31
0.0
 12
-286.39929477480001
 22
-212.12567758079999
 32
0.0
 13
-287.43457094939998
 23
-213.09160339350001
 33
0.0
  0
LINE
  5
2F3
  8
0
 62
     0
 10
-287.43457094939998
 20
-180.98938077529999
 30
0.0
 11
-287.43457094939998
 21
-190.98938077529999
 31
0.0
  0
SOLID
  5
2F4
  8
0
 62
     0
 10
-287.43457094939998
 20
-180.98938077529999
 30
0.0
 11
-286.39929477480001
 21
-184.85308402619989
 31
0.0
 12
-288.46984712390002
 22
-184.85308402619989
 32
0.0
 13
-287.43457094939998
 23
-183.88715821349999
 33
0.0
  0
ENDBLK
  5
2F5
  8
0
  0
BLOCK
  8
0
  2
CLUMP7
 70
     0
 10
0.0
 20
0.0
 30
0.0
  3
CLUMP7
  1

  0
LINE
  5
310
  8
┌▓È_1
 62
     5
 10
-154.7926432292
 20
117.1519529805
 30
0.0
 11
-154.7926432292
 21
110.6519529805
 31
0.0
  0
LINE
  5
311
  8
┌▓È_1
 62
     5
 10
-143.7926432292
 20
110.6519529805
 30
0.0
 11
-143.7926432292
 21
117.1519529805
 31
0.0
  0
LINE
  5
312
  8
┌▓È_1
 62
     5
 10
-145.5426432292
 20
109.6519529805
 30
0.0
 11
-145.5426432292
 21
94.651952980499999
 31
0.0
  0
LINE
  5
313
  8
┌▓È_1
 62
     5
 10
-153.0426432292
 20
109.6519529805
 30
0.0
 11
-153.0426432292
 21
94.651952980499999
 31
0.0
  0
ARC
  5
314
  8
┌▓È_1
 62
     5
 10
-149.2926432292
 20
94.651952980499999
 30
0.0
 40
3.75
 50
180.0
 51
0.0
  0
ARC
  5
315
  8
┌▓È_1
 62
     5
 10
-153.7926432292
 20
110.6519529805
 30
0.0
 40
1.0
 50
180.0
 51
270.0
  0
LINE
  5
316
  8
┌▓È_1
 62
     5
 10
-153.7926432292
 20
109.6519529805
 30
0.0
 11
-144.7926432292
 21
109.6519529805
 31
0.0
  0
ARC
  5
317
  8
┌▓È_1
 62
     5
 10
-144.7926432292
 20
110.6519529805
 30
0.0
 40
1.0
 50
270.0
 51
0.0
  0
LINE
  5
318
  8
┌▓È_1
 62
     5
 10
-145.5426432292
 20
156.5527135417
 30
0.0
 11
-153.0426432292
 21
156.5527135417
 31
0.0
  0
LINE
  5
319
  8
┌▓È_1
 62
     5
 10
-143.7926432292
 20
117.1519529805
 30
0.0
 11
-154.7926432292
 21
117.1519529805
 31
0.0
  0
LINE
  5
31A
  8
┌▓È_1
 62
     5
 10
-153.0426432292
 20
117.1519529805
 30
0.0
 11
-153.0426432292
 21
156.5527135417
 31
0.0
  0
LINE
  5
31B
  8
┌▓È_1
 62
     5
 10
-145.5426432292
 20
156.5527135417
 30
0.0
 11
-145.5426432292
 21
117.1519529805
 31
0.0
  0
ENDBLK
  5
31C
  8
0
  0
BLOCK
  8
0
  2
CLUMP8
 70
     0
 10
0.0
 20
0.0
 30
0.0
  3
CLUMP8
  1

  0
LINE
  5
335
  8
┌▓È_1
 62
     5
 10
70.880795909699998
 20
67.352713551600004
 30
0.0
 11
70.880795909699998
 21
137.3527135516
 31
0.0
  0
LINE
  5
336
  8
┌▓È_1
 62
     5
 10
70.380795909699984
 20
137.3527135516
 30
0.0
 11
70.380795909699984
 21
67.352713551600004
 31
0.0
  0
LINE
  5
337
  8
┌▓È_1
 62
     5
 10
70.880795909699998
 20
68.102713245900006
 30
0.0
 11
70.880795909699998
 21
137.35271355149999
 31
0.0
  0
LINE
  5
338
  8
┌▓È_1
 62
     5
 10
72.380795909699984
 20
68.102713368300002
 30
0.0
 11
72.380795909699984
 21
137.3527135514
 31
0.0
  0
LINE
  5
339
  8
┌▓È_1
 62
     5
 10
72.680795909700009
 20
71.352713687000005
 30
0.0
 11
72.680795909700009
 21
137.35271355130001
 31
0.0
  0
LINE
  5
33A
  8
┌▓È_1
 62
     5
 10
76.080795909700001
 20
71.352713612100004
 30
0.0
 11
76.080795909700001
 21
137.35271355099999
 31
0.0
  0
LINE
  5
33B
  8
┌▓È_1
 62
     5
 10
76.380795909699998
 20
68.102713256800001
 30
0.0
 11
76.380795909699998
 21
137.35271355099999
 31
0.0
  0
LINE
  5
33C
  8
┌▓È_1
 62
     5
 10
77.880795909699984
 20
137.35271355090001
 30
0.0
 11
77.880795909699984
 21
68.102713324500002
 31
0.0
  0
LINE
  5
33D
  8
┌▓È_1
 62
     5
 10
70.380795909699984
 20
67.352713551600004
 30
0.0
 11
70.880795909699998
 21
67.352713551600004
 31
0.0
  0
ARC
  5
33E
  8
┌▓È_1
 62
     5
 10
71.630795909699984
 20
68.1027135856
 30
0.0
 40
0.75
 50
180.00002594860001
 51
359.99998339569999
  0
ARC
  5
33F
  8
┌▓È_1
 62
     5
 10
72.180795909700009
 20
71.3527135856
 30
0.0
 40
0.5
 50
293.57817847820002
 51
359.99998324360001
  0
ARC
  5
340
  8
┌▓È_1
 62
     5
 10
72.880795909699984
 20
77.3527135856
 30
0.0
 40
0.5
 50
90.0
 51
113.5781784782
  0
ARC
  5
341
  8
┌▓È_1
 62
     5
 10
77.130795909699998
 20
68.1027135856
 30
0.0
 40
0.75
 50
180.000025118
 51
359.99998005330002
  0
ARC
  5
342
  8
┌▓È_1
 62
     5
 10
76.580795909700001
 20
71.3527135856
 30
0.0
 40
0.5
 50
180.00000331999999
 51
246.42182152180001
  0
LINE
  5
343
  8
┌▓È_1
 62
     5
 10
72.880795909699984
 20
77.8527135856
 30
0.0
 11
75.880795909699998
 21
77.8527135856
 31
0.0
  0
ARC
  5
344
  8
┌▓È_1
 62
     5
 10
75.880795909699998
 20
77.3527135856
 30
0.0
 40
0.5
 50
66.421821521799998
 51
90.0
  0
ENDBLK
  5
345
  8
0
  0
BLOCK
  8
0
  2
*D13
 70
     1
 10
0.0
 20
0.0
 30
0.0
  3
*D13
  1

  0
TEXT
  5
349
  8
0
 62
     0
 10
325.81582559930001
 20
88.877542558399995
 30
0.0
 40
7.1966662884000003
  1
%%c105.8
 50
45.0
  0
LINE
  5
34A
  8
0
 62
     0
 10
375.79413231849998
 20
134.6650633081
 30
0.0
 11
338.38818350790001
 21
97.259114497499993
 31
0.0
  0
SOLID
  5
34B
  8
0
 62
     0
 10
375.79413231849998
 20
134.6650633081
 30
0.0
 11
373.79413235269999
 21
131.20096173549999
 31
0.0
 12
372.33003074589999
 22
132.66506334229999
 32
0.0
 13
373.74509424159999
 23
132.61602523120001
 33
0.0
  0
LINE
  5
34C
  8
0
 62
     0
 10
300.98223486900002
 20
59.853165858599993
 30
0.0
 11
338.38818350790001
 21
97.259114497499993
 31
0.0
  0
SOLID
  5
34D
  8
0
 62
     0
 10
300.98223486900002
 20
59.853165858599993
 30
0.0
 11
302.98223483480001
 21
63.317267431200001
 31
0.0
 12
304.44633644160001
 22
61.8531658243
 32
0.0
 13
303.03127294590001
 23
61.902203935499998
 33
0.0
  0
ENDBLK
  5
34E
  8
0
  0
BLOCK
  8
0
  2
BALLON3
 70
     0
 10
0.0
 20
0.0
 30
0.0
  3
BALLON3
  1

  0
INSERT
  5
356
  8
0
  6
CONTINUOUS
  2
*U118
 10
0.0
 20
0.0
 30
0.0
  0
CIRCLE
  5
357
  8
┌▓È_1
 10
-76.422010416700004
 20
-175.58710937500001
 30
0.0
 40
8.0
  0
LINE
  5
358
  8
Éíû@É³
 10
-89.755343749999994
 20
-175.58710937500001
 30
0.0
 11
-84.422010416700004
 21
-175.58710937500001
 31
0.0
  0
LINE
  5
359
  8
Éíû@É³
 10
-163.14472095229999
 20
-141.98938086979999
 30
0.0
 11
-89.755343749999994
 21
-175.58710937500001
 31
0.0
  0
SOLID
  5
35A
  8
Éíû@É³
 10
-163.14472095229999
 20
-141.98938086979999
 30
0.0
 11
-155.204728905
 21
-143.86462119800001
 31
0.0
 12
-157.3255332741
 22
-144.65341066799999
 32
0.0
 13
-157.3255332741
 23
-144.65341066799999
 33
0.0
  0
SOLID
  5
35B
  8
Éíû@É³
 10
-157.3255332741
 20
-144.65341066799999
 30
0.0
 11
-156.53674380410001
 21
-146.77421503709999
 31
0.0
 12
-163.14472095229999
 22
-141.98938086979999
 32
0.0
 13
-163.14472095229999
 23
-141.98938086979999
 33
0.0
  0
ENDBLK
  5
35C
  8
0
  0
BLOCK
  8
0
  2
BALLON4
 70
     0
 10
0.0
 20
0.0
 30
0.0
  3
BALLON4
  1

  0
INSERT
  5
37D
  8
0
  6
CONTINUOUS
  2
*U119
 10
0.0
 20
0.0
 30
0.0
  0
CIRCLE
  5
37E
  8
┌▓È_1
 10
204.8781807522
 20
34.466610914500002
 30
0.0
 40
8.0
  0
LINE
  5
37F
  8
Éíû@É³
 10
218.2115140855
 20
34.466610914500002
 30
0.0
 11
212.8781807522
 21
34.466610914500002
 31
0.0
  0
LINE
  5
380
  8
Éíû@É³
 10
265.9524220513
 20
82.207518880299986
 30
0.0
 11
218.2115140855
 21
34.466610914500002
 31
0.0
  0
SOLID
  5
381
  8
Éíû@É³
 10
265.9524220513
 20
82.207518880299986
 30
0.0
 11
261.42693865170003
 21
75.419293780900006
 31
0.0
 12
261.42693865170003
 22
77.682035480699994
 32
0.0
 13
261.42693865170003
 23
77.682035480699994
 33
0.0
  0
SOLID
  5
382
  8
Éíû@É³
 10
261.42693865170003
 20
77.682035480699994
 30
0.0
 11
259.16419695190001
 21
77.682035480699994
 31
0.0
 12
265.9524220513
 22
82.207518880299986
 32
0.0
 13
265.9524220513
 23
82.207518880299986
 33
0.0
  0
ENDBLK
  5
383
  8
0
  0
BLOCK
  8
0
  2
*D16
 70
     1
 10
0.0
 20
0.0
 30
0.0
  3
*D16
  1

  0
TEXT
  5
38C
  8
0
 62
     0
 10
-290.70457088260002
 20
-132.8393804888
 30
0.0
 40
7.1966662884000003
  1
109
 50
90.0
  0
LINE
  5
38D
  8
0
 62
     0
 10
-267.29264323019999
 20
-71.989380869800002
 30
0.0
 11
-289.43457094939998
 21
-71.989380869800002
 31
0.0
  0
LINE
  5
38E
  8
0
 62
     0
 10
-243.29264323160001
 20
-180.98938077529999
 30
0.0
 11
-289.43457094939998
 21
-180.98938077529999
 31
0.0
  0
LINE
  5
38F
  8
0
 62
     0
 10
-287.43457094939998
 20
-71.989380869800002
 30
0.0
 11
-287.43457094939998
 21
-115.9060480456
 31
0.0
  0
LINE
  5
390
  8
0
 62
     0
 10
-287.43457094939998
 20
-71.989380869800002
 30
0.0
 11
-287.43457094939998
 21
-137.07271359960001
 31
0.0
  0
LINE
  5
391
  8
0
 62
     0
 10
-287.43457094939998
 20
-180.98938077529999
 30
0.0
 11
-287.43457094939998
 21
-115.9060480456
 31
0.0
  0
LINE
  5
392
  8
0
 62
     0
 10
-287.43457094939998
 20
-180.98938077529999
 30
0.0
 11
-287.43457094939998
 21
-137.07271359960001
 31
0.0
  0
LINE
  5
393
  8
0
 62
     0
 10
-287.43457094939998
 20
-180.98938077529999
 30
0.0
 11
-287.43457094939998
 21
-170.98938077529999
 31
0.0
  0
SOLID
  5
394
  8
0
 62
     0
 10
-287.43457094939998
 20
-180.98938077529999
 30
0.0
 11
-288.46984712390002
 21
-177.1256775244
 31
0.0
 12
-286.39929477480001
 22
-177.1256775244
 32
0.0
 13
-287.43457094939998
 23
-178.09160333720001
 33
0.0
  0
LINE
  5
395
  8
0
 62
     0
 10
-287.43457094939998
 20
-71.989380869800002
 30
0.0
 11
-287.43457094939998
 21
-81.989380869800002
 31
0.0
  0
SOLID
  5
396
  8
0
 62
     0
 10
-287.43457094939998
 20
-71.989380869800002
 30
0.0
 11
-286.39929477480001
 21
-75.853084120700004
 31
0.0
 12
-288.46984712390002
 22
-75.853084120700004
 32
0.0
 13
-287.43457094939998
 23
-74.887158307999997
 33
0.0
  0
ENDBLK
  5
397
  8
0
  0
BLOCK
  8
0
  2
*D17
 70
     1
 10
0.0
 20
0.0
 30
0.0
  3
*D17
  1

  0
TEXT
  5
39D
  8
0
 62
     0
 10
-312.37975131780001
 20
-150.339380517
 30
0.0
 40
7.1966662884000003
  1
144
 50
90.0
  0
LINE
  5
39E
  8
0
 62
     0
 10
-267.29264323019999
 20
-71.989380869800002
 30
0.0
 11
-311.10975138449999
 21
-71.989380869800002
 31
0.0
  0
LINE
  5
39F
  8
0
 62
     0
 10
-225.7926432786
 20
-215.9893808317
 30
0.0
 11
-311.10975138449999
 21
-215.9893808317
 31
0.0
  0
LINE
  5
3A0
  8
0
 62
     0
 10
-309.10975138449999
 20
-71.989380869800002
 30
0.0
 11
-309.10975138449999
 21
-133.40604807369999
 31
0.0
  0
LINE
  5
3A1
  8
0
 62
     0
 10
-309.10975138449999
 20
-71.989380869800002
 30
0.0
 11
-309.10975138449999
 21
-154.5727136278
 31
0.0
  0
LINE
  5
3A2
  8
0
 62
     0
 10
-309.10975138449999
 20
-215.9893808317
 30
0.0
 11
-309.10975138449999
 21
-133.40604807369999
 31
0.0
  0
LINE
  5
3A3
  8
0
 62
     0
 10
-309.10975138449999
 20
-215.9893808317
 30
0.0
 11
-309.10975138449999
 21
-154.5727136278
 31
0.0
  0
LINE
  5
3A4
  8
0
 62
     0
 10
-309.10975138449999
 20
-215.9893808317
 30
0.0
 11
-309.10975138449999
 21
-205.9893808317
 31
0.0
  0
SOLID
  5
3A5
  8
0
 62
     0
 10
-309.10975138449999
 20
-215.9893808317
 30
0.0
 11
-310.14502755910001
 21
-212.12567758079999
 31
0.0
 12
-308.07447521
 22
-212.12567758079999
 32
0.0
 13
-309.10975138449999
 23
-213.09160339350001
 33
0.0
  0
LINE
  5
3A6
  8
0
 62
     0
 10
-309.10975138449999
 20
-71.989380869800002
 30
0.0
 11
-309.10975138449999
 21
-81.989380869800002
 31
0.0
  0
SOLID
  5
3A7
  8
0
 62
     0
 10
-309.10975138449999
 20
-71.989380869800002
 30
0.0
 11
-308.07447521
 21
-75.853084120700004
 31
0.0
 12
-310.14502755910001
 22
-75.853084120700004
 32
0.0
 13
-309.10975138449999
 23
-74.887158307999997
 33
0.0
  0
ENDBLK
  5
3A8
  8
0
  0
BLOCK
  8
0
  2
*D18
 70
     1
 10
0.0
 20
0.0
 30
0.0
  3
*D18
  1

  0
TEXT
  5
3AC
  8
0
 62
     0
 10
-337.00724472489998
 20
-152.5560467386
 30
0.0
 40
7.1966662884000003
  1
(156.5)
 50
90.0
  0
LINE
  5
3AD
  8
0
 62
     0
 10
-263.3188112075
 20
-59.489380869800002
 30
0.0
 11
-335.73724479169999
 21
-59.489380869800002
 31
0.0
  0
LINE
  5
3AE
  8
0
 62
     0
 10
-225.7926432786
 20
-215.9893808317
 30
0.0
 11
-335.73724479169999
 21
-215.9893808317
 31
0.0
  0
LINE
  5
3AF
  8
0
 62
     0
 10
-333.73724479169999
 20
-59.489380869800002
 30
0.0
 11
-333.73724479169999
 21
-118.6893818521
 31
0.0
  0
LINE
  5
3B0
  8
0
 62
     0
 10
-333.73724479169999
 20
-59.489380869800002
 30
0.0
 11
-333.73724479169999
 21
-156.78937984940001
 31
0.0
  0
LINE
  5
3B1
  8
0
 62
     0
 10
-333.73724479169999
 20
-215.9893808317
 30
0.0
 11
-333.73724479169999
 21
-118.6893818521
 31
0.0
  0
LINE
  5
3B2
  8
0
 62
     0
 10
-333.73724479169999
 20
-215.9893808317
 30
0.0
 11
-333.73724479169999
 21
-156.78937984940001
 31
0.0
  0
LINE
  5
3B3
  8
0
 62
     0
 10
-333.73724479169999
 20
-215.9893808317
 30
0.0
 11
-333.73724479169999
 21
-205.9893808317
 31
0.0
  0
SOLID
  5
3B4
  8
0
 62
     0
 10
-333.73724479169999
 20
-215.9893808317
 30
0.0
 11
-334.77252096619998
 21
-212.12567758079999
 31
0.0
 12
-332.70196861709991
 22
-212.12567758079999
 32
0.0
 13
-333.73724479169999
 23
-213.09160339350001
 33
0.0
  0
LINE
  5
3B5
  8
0
 62
     0
 10
-333.73724479169999
 20
-59.489380869800002
 30
0.0
 11
-333.73724479169999
 21
-69.489380869800002
 31
0.0
  0
SOLID
  5
3B6
  8
0
 62
     0
 10
-333.73724479169999
 20
-59.489380869800002
 30
0.0
 11
-332.70196861709991
 21
-63.35308412069999
 31
0.0
 12
-334.77252096619998
 22
-63.35308412069999
 32
0.0
 13
-333.73724479169999
 23
-62.387158307999997
 33
0.0
  0
ENDBLK
  5
3B7
  8
0
  0
BLOCK
  8
0
  2
BALLON5
 70
     0
 10
0.0
 20
0.0
 30
0.0
  3
BALLON5
  1

  0
INSERT
  5
3BC
  8
0
  6
CONTINUOUS
  2
*U122
 10
0.0
 20
0.0
 30
0.0
  0
CIRCLE
  5
3BD
  8
┌▓È_1
 10
-76.422010416700004
 20
-158.3974609375
 30
0.0
 40
8.0
  0
LINE
  5
3BE
  8
Éíû@É³
 10
-89.755343749999994
 20
-158.3974609375
 30
0.0
 11
-84.422010416700004
 21
-158.3974609375
 31
0.0
  0
LINE
  5
3BF
  8
Éíû@É³
 10
-175.52581317779999
 20
-120.35517304379999
 30
0.0
 11
-89.755343749999994
 21
-158.3974609375
 31
0.0
  0
SOLID
  5
3C0
  8
Éíû@É³
 10
-175.52581317779999
 20
-120.35517304379999
 30
0.0
 11
-167.5641454041
 21
-122.13614083189999
 31
0.0
 12
-169.67544839620001
 22
-122.9500202306
 32
0.0
 13
-169.67544839620001
 23
-122.9500202306
 33
0.0
  0
SOLID
  5
3C1
  8
Éíû@É³
 10
-169.67544839620001
 20
-122.9500202306
 30
0.0
 11
-168.8615689975
 21
-125.0613232227
 31
0.0
 12
-175.52581317779999
 22
-120.35517304379999
 32
0.0
 13
-175.52581317779999
 23
-120.35517304379999
 33
0.0
  0
ENDBLK
  5
3C2
  8
0
  0
BLOCK
  8
0
  2
BALLON6
 70
     0
 10
0.0
 20
0.0
 30
0.0
  3
BALLON6
  1

  0
INSERT
  5
3C6
  8
0
  6
CONTINUOUS
  2
*U123
 10
0.0
 20
0.0
 30
0.0
  0
CIRCLE
  5
3C7
  8
┌▓È_1
 10
-76.422010416700004
 20
-140.77920717410001
 30
0.0
 40
8.0
  0
LINE
  5
3C8
  8
Éíû@É³
 10
-89.755343749999994
 20
-140.77920717410001
 30
0.0
 11
-84.422010416700004
 21
-140.77920717410001
 31
0.0
  0
LINE
  5
3C9
  8
Éíû@É³
 10
-187.44528849810001
 20
-104.2336342574
 30
0.0
 11
-89.755343749999994
 21
-140.77920717410001
 31
0.0
  0
SOLID
  5
3CA
  8
Éíû@É³
 10
-187.44528849810001
 20
-104.2336342574
 30
0.0
 11
-179.39182269259999
 21
-105.5381220956
 31
0.0
 12
-181.4510052382
 22
-106.47608117990001
 32
0.0
 13
-181.4510052382
 23
-106.47608117990001
 33
0.0
  0
SOLID
  5
3CB
  8
Éíû@É³
 10
-181.4510052382
 20
-106.47608117990001
 30
0.0
 11
-180.51304615379999
 21
-108.5352637255
 31
0.0
 12
-187.44528849810001
 22
-104.2336342574
 32
0.0
 13
-187.44528849810001
 23
-104.2336342574
 33
0.0
  0
ENDBLK
  5
3CC
  8
0
  0
BLOCK
  8
0
  2
BALLON7
 70
     0
 10
0.0
 20
0.0
 30
0.0
  3
BALLON7
  1

  0
INSERT
  5
406
  8
0
  6
CONTINUOUS
  2
*U141
 10
0.0
 20
0.0
 30
0.0
  0
CIRCLE
  5
407
  8
┌▓È_1
 10
-76.422010416700004
 20
-122.4733477991
 30
0.0
 40
8.0
  0
LINE
  5
408
  8
Éíû@É³
 10
-89.755343749999994
 20
-122.4733477991
 30
0.0
 11
-84.422010416700004
 21
-122.4733477991
 31
0.0
  0
LINE
  5
409
  8
Éíû@É³
 10
-202.70115492599999
 20
-88.909064519799983
 30
0.0
 11
-89.755343749999994
 21
-122.4733477991
 31
0.0
  0
SOLID
  5
40A
  8
Éíû@É³
 10
-202.70115492599999
 20
-88.909064519799983
 30
0.0
 11
-194.5768255056
 21
-89.654229917400002
 31
0.0
 12
-196.56631158690001
 22
-90.732165505699996
 32
0.0
 13
-196.56631158690001
 23
-90.732165505699996
 33
0.0
  0
SOLID
  5
40B
  8
Éíû@É³
 10
-196.56631158690001
 20
-90.732165505699996
 30
0.0
 11
-195.48837599859999
 21
-92.721651587000011
 31
0.0
 12
-202.70115492599999
 22
-88.909064519799983
 32
0.0
 13
-202.70115492599999
 23
-88.909064519799983
 33
0.0
  0
ENDBLK
  5
40C
  8
0
  0
BLOCK
  8
0
  2
CLUMP9
 70
     0
 10
0.0
 20
0.0
 30
0.0
  3
CLUMP9
  1

  0
LINE
  5
440
  8
┌▓È_1
 62
     5
 10
59.380110677099999
 20
118.3527135577
 30
0.0
 11
57.880110677099999
 21
118.3527135577
 31
0.0
  0
LINE
  5
441
  8
┌▓È_1
 62
     5
 10
57.880110677099999
 20
156.35271355770001
 30
0.0
 11
59.380110677099999
 21
156.35271355770001
 31
0.0
  0
LINE
  5
442
  8
┌▓È_1
 62
     5
 10
12.380110677099999
 20
142.35271355770001
 30
0.0
 11
23.0320338521
 21
142.35271355770001
 31
0.0
  0
LINE
  5
443
  8
┌▓È_1
 62
     5
 10
12.380110677099999
 20
132.35271355770001
 30
0.0
 11
12.380110677099999
 21
142.35271355770001
 31
0.0
  0
LINE
  5
444
  8
┌▓È_1
 62
     5
 10
14.4742975778
 20
138.60271355770001
 30
0.0
 11
22.4202160217
 21
138.60271355770001
 31
0.0
  0
LINE
  5
445
  8
┌▓È_1
 62
     5
 10
14.4742975778
 20
136.10271355770001
 30
0.0
 11
22.4202160217
 21
136.10271355770001
 31
0.0
  0
LINE
  5
446
  8
┌▓È_1
 62
     5
 10
59.380110677099999
 20
145.95503882470001
 30
0.0
 11
59.380110677099999
 21
154.85271355770001
 31
0.0
  0
LINE
  5
447
  8
┌▓È_1
 62
     5
 10
59.380110677099999
 20
119.8527135577
 30
0.0
 11
59.380110677099999
 21
128.75038829069999
 31
0.0
  0
LINE
  5
448
  8
┌▓È_1
 62
     5
 10
53.026859081899993
 20
121.3527135577
 30
0.0
 11
57.880110677099999
 21
121.3527135577
 31
0.0
  0
LINE
  5
449
  8
┌▓È_1
 62
     5
 10
53.026859081899993
 20
153.35271355770001
 30
0.0
 11
57.880110677099999
 21
153.35271355770001
 31
0.0
  0
CIRCLE
  5
44A
  8
┌▓È_1
 62
     5
 10
41.880110677099992
 20
137.35271355770001
 30
0.0
 40
19.5
  0
CIRCLE
  5
44B
  8
┌▓È_1
 62
     5
 10
41.880110677099992
 20
137.35271355770001
 30
0.0
 40
14.5
  0
CIRCLE
  5
44C
  8
┌▓È_1
 62
     5
 10
41.880110677099992
 20
137.35271355770001
 30
0.0
 40
16.5
  0
CIRCLE
  5
44D
  8
┌▓È_1
 62
     5
 10
41.880110677099992
 20
137.35271355770001
 30
0.0
 40
16.936459724799999
  0
LINE
  5
44E
  8
┌▓È_1
 62
     5
 10
22.6801106771
 20
133.94536855019999
 30
0.0
 11
22.6801106771
 21
117.1519529805
 31
0.0
  0
LINE
  5
44F
  8
┌▓È_1
 62
     5
 10
37.324342277900001
 20
118.3923608634
 30
0.0
 11
30.374575327199999
 21
117.2780644469
 31
0.0
  0
LINE
  5
450
  8
┌▓È_1
 62
     5
 10
41.55536073159999
 20
117.8554179126
 30
0.0
 11
29.057854520900001
 21
115.8516203054
 31
0.0
  0
LINE
  5
451
  8
┌▓È_1
 62
     5
 10
23.880110677099999
 20
129.85271355770001
 30
0.0
 11
23.880110677099999
 21
117.1519529805
 31
0.0
  0
LINE
  5
452
  8
┌▓È_1
 62
     5
 10
20.030110677100001
 20
117.1519529805
 30
0.0
 11
28.791437548899999
 21
117.1519529805
 31
0.0
  0
ARC
  5
453
  8
┌▓È_1
 62
     5
 10
28.791437548899999
 20
127.1519529805
 30
0.0
 40
10.0
 50
270.0
 51
279.109035393
  0
LINE
  5
454
  8
┌▓È_1
 62
     5
 10
59.380110677099999
 20
154.65271355159999
 30
0.0
 11
65.380795909699984
 21
154.65271355159999
 31
0.0
  0
LINE
  5
455
  8
┌▓È_1
 62
     5
 10
59.380110677099999
 20
120.0527135542
 30
0.0
 11
65.380795909699984
 21
120.05271355310001
 31
0.0
  0
LINE
  5
456
  8
┌▓È_1
  6
BORDER
 62
     3
 10
41.880110677099992
 20
112.3527135577
 30
0.0
 11
41.880110677099992
 21
162.35271355770001
 31
0.0
  0
LINE
  5
457
  8
┌▓È_1
 62
     5
 10
26.783898724099998
 20
110.2744058711
 30
0.0
 11
29.5880294064
 21
117.1519529805
 31
0.0
  0
LINE
  5
458
  8
┌▓È_1
 62
     5
 10
20.030110677100001
 20
117.1519529805
 30
0.0
 11
20.030110677100001
 21
110.6519529805
 31
0.0
  0
LINE
  5
459
  8
┌▓È_1
 62
     5
 10
22.6801106771
 20
90.901952980499999
 30
0.0
 11
23.880110677099999
 21
90.901952980499999
 31
0.0
  0
LINE
  5
45A
  8
┌▓È_1
 62
     5
 10
23.880110677099999
 20
109.6519529805
 30
0.0
 11
23.880110677099999
 21
90.901952980499999
 31
0.0
  0
LINE
  5
45B
  8
┌▓È_1
 62
     5
 10
22.6801106771
 20
109.6519529805
 30
0.0
 11
22.6801106771
 21
90.901952980499999
 31
0.0
  0
ARC
  5
45C
  8
┌▓È_1
 62
     5
 10
25.857908345999999
 20
110.6519529805
 30
0.0
 40
1.0
 50
270.0
 51
337.8181725078
  0
LINE
  5
45D
  8
┌▓È_1
 62
     5
 10
21.030110677100001
 20
109.6519529805
 30
0.0
 11
25.857908345999999
 21
109.6519529805
 31
0.0
  0
ARC
  5
45E
  8
┌▓È_1
 62
     5
 10
21.030110677100001
 20
110.6519529805
 30
0.0
 40
1.0
 50
180.0
 51
270.0
  0
LINE
  5
45F
  8
┌▓È_1
 62
     5
 10
12.380110677099999
 20
132.35271355770001
 30
0.0
 11
22.6801106771
 21
132.35271355770001
 31
0.0
  0
LINE
  5
460
  8
┌▓È_1
 62
     5
 10
57.880110677099999
 20
118.3527135577
 30
0.0
 11
57.880110677099999
 21
126.20596515290001
 31
0.0
  0
LINE
  5
461
  8
┌▓È_1
 62
     5
 10
57.880110677099999
 20
148.49946196249999
 30
0.0
 11
57.880110677099999
 21
156.35271355770001
 31
0.0
  0
LINE
  5
462
  8
┌▓È_1
 62
     5
 10
59.380110677099999
 20
118.3527135577
 30
0.0
 11
59.380110677099999
 21
128.75038829069999
 31
0.0
  0
LINE
  5
463
  8
┌▓È_1
 62
     5
 10
59.380110677099999
 20
145.95503882470001
 30
0.0
 11
59.380110677099999
 21
156.35271355770001
 31
0.0
  0
ENDBLK
  5
464
  8
0
  0
BLOCK
  8
0
  2
BALLON8
 70
     0
 10
0.0
 20
0.0
 30
0.0
  3
BALLON8
  1

  0
INSERT
  5
46B
  8
0
  6
CONTINUOUS
  2
*U142
 10
0.0
 20
0.0
 30
0.0
  0
CIRCLE
  5
46C
  8
┌▓È_1
 10
-76.422010416700004
 20
0.4765625
 30
0.0
 40
8.0
  0
LINE
  5
46D
  8
Éíû@É³
 10
-89.755343749999994
 20
0.4765625
 30
0.0
 11
-84.422010416700004
 21
0.4765625
 31
0.0
  0
LINE
  5
46E
  8
Éíû@É³
 10
-150.04264323620001
 20
-55.739380869800002
 30
0.0
 11
-89.755343749999994
 21
0.4765625
 31
0.0
  0
SOLID
  5
46F
  8
Éíû@É³
 10
-150.04264323620001
 20
-55.739380869800002
 30
0.0
 11
-145.28284210390001
 21
-49.113349389299998
 31
0.0
 12
-145.3618682913
 22
-51.374710674399992
 32
0.0
 13
-145.3618682913
 23
-51.374710674399992
 33
0.0
  0
SOLID
  5
470
  8
Éíû@É³
 10
-145.3618682913
 20
-51.374710674399992
 30
0.0
 11
-143.10050700619999
 21
-51.45373686180001
 31
0.0
 12
-150.04264323620001
 22
-55.739380869800002
 32
0.0
 13
-150.04264323620001
 23
-55.739380869800002
 33
0.0
  0
ENDBLK
  5
471
  8
0
  0
BLOCK
  8
0
  2
CLUMP10
 70
     0
 10
0.0
 20
0.0
 30
0.0
  3
CLUMP10
  1

  0
LINE
  5
475
  8
┌▓È_1
 62
     5
 10
-209.7926432296
 20
-51.989380869800002
 30
0.0
 11
-190.7926432296
 21
-51.989380869800002
 31
0.0
  0
LINE
  5
476
  8
┌▓È_1
 62
     5
 10
-209.7926432296
 20
-53.489380869799987
 30
0.0
 11
-190.7926432296
 21
-53.489380869799987
 31
0.0
  0
LINE
  5
477
  8
┌▓È_1
 62
     5
 10
-190.7926432296
 20
-53.489380869799987
 30
0.0
 11
-208.09264322959999
 21
-53.489380857599997
 31
0.0
  0
LINE
  5
478
  8
┌▓È_1
 62
     5
 10
-209.7926432296
 20
-53.489380869799987
 30
0.0
 11
-209.7926432296
 21
-51.989380869800002
 31
0.0
  0
LINE
  5
479
  8
┌▓È_1
 62
     5
 10
-153.0426432296
 20
-55.189380869799997
 30
0.0
 11
-145.5426432296
 21
-55.189380869799997
 31
0.0
  0
LINE
  5
47A
  8
┌▓È_1
 62
     5
 10
-145.5426432296
 20
-55.189380869799997
 30
0.0
 11
-145.5426432296
 21
-53.989380869799987
 31
0.0
  0
LINE
  5
47B
  8
┌▓È_1
 62
     5
 10
-145.5426432296
 20
-53.989380869799987
 30
0.0
 11
-153.0426432296
 21
-53.989380869799987
 31
0.0
  0
LINE
  5
47C
  8
┌▓È_1
 62
     5
 10
-153.0426432296
 20
-53.989380869799987
 30
0.0
 11
-153.0426432296
 21
-55.189380869799997
 31
0.0
  0
LINE
  5
47D
  8
┌▓È_1
 62
     5
 10
-190.44264322960001
 20
-20.790696716300001
 30
0.0
 11
-186.1426432296
 21
-20.790696716300001
 31
0.0
  0
LINE
  5
47E
  8
┌▓È_1
 62
     5
 10
-169.59264322959999
 20
-13.6393811012
 30
0.0
 11
-169.59264322959999
 21
-19.790696716300001
 31
0.0
  0
ARC
  5
47F
  8
┌▓È_1
 62
     5
 10
-170.59264322959999
 20
-19.790696716300001
 30
0.0
 40
1.0
 50
270.0
 51
0.0
  0
LINE
  5
480
  8
┌▓È_1
 62
     5
 10
-189.44264322960001
 20
-16.930277404200002
 30
0.0
 11
-189.44264322960001
 21
-19.790696716300001
 31
0.0
  0
ARC
  5
481
  8
┌▓È_1
 62
     5
 10
-190.44264322960001
 20
-19.790696716300001
 30
0.0
 40
1.0
 50
270.0
 51
0.0
  0
LINE
  5
482
  8
┌▓È_1
 62
     5
 10
-187.1426432296
 20
-16.930277404200002
 30
0.0
 11
-187.1426432296
 21
-19.790696716300001
 31
0.0
  0
ARC
  5
483
  8
┌▓È_1
 62
     5
 10
-186.1426432296
 20
-19.790696716300001
 30
0.0
 40
1.0
 50
180.0
 51
270.0
  0
ARC
  5
484
  8
┌▓È_1
 62
     5
 10
-190.44264322960001
 20
-18.989380869800002
 30
0.0
 40
1.0
 50
270.0
 51
0.0
  0
LINE
  5
485
  8
┌▓È_1
 62
     5
 10
-190.7926432296
 20
-19.989380869800002
 30
0.0
 11
-190.44264322960001
 21
-19.989380869800002
 31
0.0
  0
ARC
  5
486
  8
┌▓È_1
 62
     5
 10
-170.59264322959999
 20
-18.989380869800002
 30
0.0
 40
1.0
 50
270.0
 51
0.0
  0
LINE
  5
487
  8
┌▓È_1
 62
     5
 10
-186.1426432296
 20
-19.989380869800002
 30
0.0
 11
-170.59264322959999
 21
-19.989380869800002
 31
0.0
  0
LINE
  5
488
  8
┌▓È_1
 62
     5
 10
-154.7926432296
 20
-16.489380869800002
 30
0.0
 11
-157.7926432296
 21
-16.489380869800002
 31
0.0
  0
ARC
  5
489
  8
┌▓È_1
 62
     5
 10
-165.2926432296
 20
-15.9893808698
 30
0.0
 40
2.0
 50
180.0
 51
270.0
  0
ARC
  5
48A
  8
┌▓È_1
 62
     5
 10
-174.44264322960001
 20
-13.6393808698
 30
0.0
 40
7.1500000000000004
 50
359.9999986304
 51
119.9999989887
  0
LINE
  5
48B
  8
┌▓È_1
 62
     5
 10
-157.7926432296
 20
-17.989380869800002
 30
0.0
 11
-165.2926432296
 21
-17.989380869800002
 31
0.0
  0
ARC
  5
48C
  8
┌▓È_1
 62
     5
 10
-166.2926432296
 20
-18.989380869800002
 30
0.0
 40
1.0
 50
115.8664263042
 51
180.0
  0
LINE
  5
48D
  8
┌▓È_1
 62
     5
 10
-167.2926432296
 20
-13.6393811012
 30
0.0
 11
-167.2926432296
 21
-16.697764404000001
 31
0.0
  0
LINE
  5
48E
  8
┌▓È_1
 62
     5
 10
-157.7926432296
 20
-16.489380869800002
 30
0.0
 11
-157.7926432296
 21
-35.989380869800002
 31
0.0
  0
LINE
  5
48F
  8
┌▓È_1
 62
     5
 10
-154.7926432296
 20
-16.489380869800002
 30
0.0
 11
-154.7926432296
 21
-35.989380869800002
 31
0.0
  0
LINE
  5
490
  8
┌▓È_1
 62
     5
 10
-143.7926432296
 20
-16.489380869800002
 30
0.0
 11
-143.7926432296
 21
-35.989380869800002
 31
0.0
  0
LINE
  5
491
  8
┌▓È_1
 62
     5
 10
-167.2926432296
 20
-18.989380814499999
 30
0.0
 11
-167.2926432296
 21
-35.989380869800002
 31
0.0
  0
LINE
  5
492
  8
┌▓È_1
 62
     5
 10
-169.38682935790001
 20
-8.5835677706000002
 30
0.0
 11
-159.98101625859999
 21
-17.989380869800002
 31
0.0
  0
ARC
  5
493
  8
┌▓È_1
 62
     5
 10
-184.44264322960001
 20
-16.930277404200002
 30
0.0
 40
2.7000000000000002
 50
120.0
 51
180.0
  0
LINE
  5
494
  8
┌▓È_1
 62
     5
 10
-176.86764344189999
 20
-9.4391577839999972
 30
0.0
 11
-185.7926432296
 21
-14.592008814
 31
0.0
  0
ARC
  5
495
  8
┌▓È_1
 62
     5
 10
-184.44264322960001
 20
-16.930277404200002
 30
0.0
 40
5.0
 50
120.0
 51
180.0
  0
LINE
  5
496
  8
┌▓È_1
 62
     5
 10
-178.01764344189999
 20
-7.4472993552999993
 30
0.0
 11
-186.94264322960001
 21
-12.600150385299999
 31
0.0
  0
CIRCLE
  5
497
  8
┌▓È_1
 62
     5
 10
-174.44264322960001
 20
-13.6393808698
 30
0.0
 40
4.8499999999999988
  0
LINE
  5
498
  8
┌▓È_1
 62
     5
 10
-140.7926432296
 20
-16.489380869800002
 30
0.0
 11
-143.7926432296
 21
-16.489380869800002
 31
0.0
  0
ARC
  5
499
  8
┌▓È_1
 62
     5
 10
-165.2926432296
 20
-16.697764404000001
 30
0.0
 40
2.0
 50
180.0
 51
270.0
  0
ARC
  5
49A
  8
┌▓È_1
 62
     5
 10
-186.1426432296
 20
-18.989380869800002
 30
0.0
 40
1.0
 50
180.0
 51
270.0
  0
LINE
  5
49B
  8
┌▓È_1
 62
     5
 10
-170.59264322959999
 20
-20.790696716300001
 30
0.0
 11
-167.2926432296
 21
-20.790696716300001
 31
0.0
  0
LINE
  5
49C
  8
┌▓È_1
 62
     5
 10
-153.0426432296
 20
-32.6393808698
 30
0.0
 11
-153.0426432296
 21
-35.989380869800002
 31
0.0
  0
LINE
  5
49D
  8
┌▓È_1
 62
     5
 10
-145.5426432296
 20
-32.6393808698
 30
0.0
 11
-145.5426432296
 21
-35.989380869800002
 31
0.0
  0
ARC
  5
49E
  8
┌▓È_1
 62
     5
 10
-166.2926432296
 20
-52.989380869799987
 30
0.0
 40
1.0
 50
180.0
 51
270.0
  0
LINE
  5
49F
  8
┌▓È_1
 62
     5
 10
-171.7926432296
 20
-51.989380869800002
 30
0.0
 11
-171.7926432296
 21
-53.489380869799987
 31
0.0
  0
ARC
  5
4A0
  8
┌▓È_1
 62
     5
 10
-190.7926432296
 20
-35.989380869800002
 30
0.0
 40
16.0
 50
90.0
 51
180.0
  0
LINE
  5
4A1
  8
┌▓È_1
 62
     5
 10
-154.7926432296
 20
-55.489380869799987
 30
0.0
 11
-157.7926432296
 21
-55.489380869799987
 31
0.0
  0
LINE
  5
4A2
  8
┌▓È_1
 62
     5
 10
-176.2926432296
 20
-50.489380869799987
 30
0.0
 11
-165.7926432296
 21
-50.489380869799987
 31
0.0
  0
LINE
  5
4A3
  8
┌▓È_1
 62
     5
 10
-167.2926432296
 20
-51.989380869800002
 30
0.0
 11
-167.2926432296
 21
-52.989380869799987
 31
0.0
  0
LINE
  5
4A4
  8
┌▓È_1
 62
     5
 10
-157.7926432296
 20
-53.989380869799987
 30
0.0
 11
-157.7926432296
 21
-55.489380869799987
 31
0.0
  0
LINE
  5
4A5
  8
┌▓È_1
 62
     5
 10
-154.7926432296
 20
-53.989380869799987
 30
0.0
 11
-154.7926432296
 21
-55.489380869799987
 31
0.0
  0
LINE
  5
4A6
  8
┌▓È_1
 62
     5
 10
-157.7926432296
 20
-53.989380869799987
 30
0.0
 11
-166.2926432296
 21
-53.989380869799987
 31
0.0
  0
LINE
  5
4A7
  8
┌▓È_1
 62
     5
 10
-171.7926432296
 20
-51.989380869800002
 30
0.0
 11
-167.2926432296
 21
-51.989380869800002
 31
0.0
  0
LINE
  5
4A8
  8
┌▓È_1
 10
-176.2926432296
 20
-50.489380869799987
 30
0.0
 11
-190.7926432296
 21
-35.989380869800002
 31
0.0
  0
LINE
  5
4A9
  8
┌▓È_1
 62
     5
 10
-165.7926432296
 20
-52.489380869799987
 30
0.0
 11
-140.78788234359999
 21
-52.925840594600011
 31
0.0
  0
LINE
  5
4AA
  8
┌▓È_1
 62
     5
 10
-140.7926432296
 20
-16.489380869800002
 30
0.0
 11
-140.7926432296
 21
-55.489380869799987
 31
0.0
  0
LINE
  5
4AB
  8
┌▓È_1
 62
     5
 10
-140.7926432296
 20
-55.489380869799987
 30
0.0
 11
-143.7926432296
 21
-55.489380869799987
 31
0.0
  0
LINE
  5
4AC
  8
┌▓È_1
 62
     5
 10
-143.7926432296
 20
-53.989380869799987
 30
0.0
 11
-143.7926432296
 21
-55.489380869799987
 31
0.0
  0
LINE
  5
4AD
  8
┌▓È_1
 62
     5
 10
-143.7926432296
 20
-53.989380869799987
 30
0.0
 11
-154.7926432296
 21
-53.989380869799987
 31
0.0
  0
LINE
  5
4AE
  8
┌▓È_1
 62
     5
 10
-165.7926432296
 20
-35.989380869800002
 30
0.0
 11
-165.7926432296
 21
-52.489380869799987
 31
0.0
  0
LINE
  5
4AF
  8
┌▓È_1
 62
     5
 10
-206.7926432296
 20
-35.989380869800002
 30
0.0
 11
-206.7926432296
 21
-51.989380869800002
 31
0.0
  0
LINE
  5
4B0
  8
┌▓È_1
 62
     5
 10
-174.5426432296
 20
-53.489380869799987
 30
0.0
 11
-171.7926432296
 21
-53.489380869799987
 31
0.0
  0
LINE
  5
4B1
  8
┌▓È_1
 62
     5
 10
-145.5426432296
 20
-17.989380869800002
 30
0.0
 11
-147.5426432296
 21
-17.989380869800002
 31
0.0
  0
LINE
  5
4B2
  8
┌▓È_1
 62
     5
 10
-151.0426432296
 20
-17.989380869800002
 30
0.0
 11
-153.0426432296
 21
-17.989380869800002
 31
0.0
  0
LINE
  5
4B3
  8
┌▓È_1
 62
     5
 10
-153.2926432296
 20
-20.6393808698
 30
0.0
 11
-152.0426432296
 21
-20.6393808698
 31
0.0
  0
LINE
  5
4B4
  8
┌▓È_1
 62
     5
 10
-146.5426432296
 20
-20.6393808698
 30
0.0
 11
-145.2926432296
 21
-20.6393808698
 31
0.0
  0
LINE
  5
4B5
  8
┌▓È_1
 62
     5
 10
-151.18551665800001
 20
-30.192647431699999
 30
0.0
 11
-152.01987984530001
 21
-22.4052576837
 31
0.0
  0
ARC
  5
4B6
  8
┌▓È_1
 62
     5
 10
-150.68836208100001
 20
-30.1393808698
 30
0.0
 40
0.5
 50
186.11550356629999
 51
270.0
  0
LINE
  5
4B7
  8
┌▓È_1
 62
     5
 10
-150.68836208100001
 20
-30.6393808698
 30
0.0
 11
-147.89692437810001
 21
-30.6393808698
 31
0.0
  0
LINE
  5
4B8
  8
┌▓È_1
 62
     5
 10
-146.5654066139
 20
-22.4052576837
 30
0.0
 11
-147.39976980119999
 21
-30.192647431699999
 31
0.0
  0
ARC
  5
4B9
  8
┌▓È_1
 62
     5
 10
-147.89692437810001
 20
-30.1393808698
 30
0.0
 40
0.5
 50
270.0
 51
353.88449643370001
  0
ARC
  5
4BA
  8
┌▓È_1
 62
     5
 10
-153.2926432296
 20
-19.1393808698
 30
0.0
 40
1.5
 50
180.0
 51
270.0
  0
ARC
  5
4BB
  8
┌▓È_1
 62
     5
 10
-145.2926432296
 20
-19.1393808698
 30
0.0
 40
1.5
 50
270.0
 51
0.0
  0
ARC
  5
4BC
  8
┌▓È_1
 62
     5
 10
-153.2926432296
 20
-15.6393808698
 30
0.0
 40
1.5
 50
90.0
 51
180.0
  0
LINE
  5
4BD
  8
┌▓È_1
 62
     5
 10
-145.2926432296
 20
-14.1393808698
 30
0.0
 11
-153.2926432296
 21
-14.1393808698
 31
0.0
  0
ARC
  5
4BE
  8
┌▓È_1
 62
     5
 10
-145.2926432296
 20
-15.6393808698
 30
0.0
 40
1.5
 50
0.0
 51
90.0
  0
LINE
  5
4BF
  8
┌▓È_1
 62
     5
 10
-154.7926432296
 20
-15.6393808698
 30
0.0
 11
-154.7926432296
 21
-20.6393808698
 31
0.0
  0
LINE
  5
4C0
  8
┌▓È_1
 62
     5
 10
-143.7926432296
 20
-20.6393808698
 30
0.0
 11
-143.7926432296
 21
-15.6393808698
 31
0.0
  0
LINE
  5
4C1
  8
┌▓È_1
 62
     5
 10
-143.7926432296
 20
-20.6393808698
 30
0.0
 11
-145.5426432296
 21
-32.6393808698
 31
0.0
  0
LINE
  5
4C2
  8
┌▓È_1
 62
     5
 10
-153.0426432296
 20
-32.6393808698
 30
0.0
 11
-154.7926432296
 21
-20.6393808698
 31
0.0
  0
ARC
  5
4C3
  8
┌▓È_1
 62
     5
 10
-150.02306906160001
 20
-28.839380869799999
 30
0.0
 40
0.3
 50
186.11550356629999
 51
270.0
  0
LINE
  5
4C4
  8
┌▓È_1
 62
     5
 10
-150.02306906160001
 20
-29.1393808698
 30
0.0
 11
-148.56221739759999
 21
-29.1393808698
 31
0.0
  0
ARC
  5
4C5
  8
┌▓È_1
 62
     5
 10
-148.56221739759999
 20
-28.839380869799999
 30
0.0
 40
0.3
 50
270.0
 51
353.88449643370001
  0
ARC
  5
4C6
  8
┌▓È_1
 62
     5
 10
-148.0426432296
 20
-21.979125189200001
 30
0.0
 40
3.0
 50
180.0
 51
186.11550356629999
  0
LINE
  5
4C7
  8
┌▓È_1
 62
     5
 10
-147.55971576779999
 20
-22.298724560099998
 30
0.0
 11
-148.2639246514
 21
-28.871340806900001
 31
0.0
  0
ARC
  5
4C8
  8
┌▓È_1
 62
     5
 10
-150.5426432296
 20
-21.979125189200001
 30
0.0
 40
3.0
 50
353.88449643370001
 51
0.0
  0
LINE
  5
4C9
  8
┌▓È_1
 62
     5
 10
-150.3213618078
 20
-28.871340806900001
 30
0.0
 11
-151.0255706913
 21
-22.298724560099998
 31
0.0
  0
ARC
  5
4CA
  8
┌▓È_1
 62
     5
 10
-148.0426432296
 20
-21.979125189200001
 30
0.0
 40
4.0
 50
180.0
 51
186.11550356629999
  0
ARC
  5
4CB
  8
┌▓È_1
 62
     5
 10
-150.5426432296
 20
-21.979125189200001
 30
0.0
 40
4.0
 50
353.88449643370001
 51
0.0
  0
LINE
  5
4CC
  8
┌▓È_1
 62
     5
 10
-145.5426432296
 20
-16.789380869799999
 30
0.0
 11
-153.0426432296
 21
-16.789380869799999
 31
0.0
  0
LINE
  5
4CD
  8
┌▓È_1
 62
     5
 10
-145.5426432296
 20
-16.789380869799999
 30
0.0
 11
-145.5426432296
 21
-17.989380869800002
 31
0.0
  0
LINE
  5
4CE
  8
┌▓È_1
 62
     5
 10
-153.0426432296
 20
-16.789380869799999
 30
0.0
 11
-153.0426432296
 21
-17.989380869800002
 31
0.0
  0
LINE
  5
4CF
  8
┌▓È_1
 62
     5
 10
-152.0426432296
 20
-17.989380869800002
 30
0.0
 11
-152.0426432296
 21
-21.979125189200001
 31
0.0
  0
LINE
  5
4D0
  8
┌▓È_1
 62
     5
 10
-146.5426432296
 20
-17.989380869800002
 30
0.0
 11
-146.5426432296
 21
-21.979125189200001
 31
0.0
  0
LINE
  5
4D1
  8
┌▓È_1
 62
     5
 10
-151.0426432296
 20
-17.489380869800002
 30
0.0
 11
-151.0426432296
 21
-21.979125189200001
 31
0.0
  0
LINE
  5
4D2
  8
┌▓È_1
 62
     5
 10
-147.5426432296
 20
-17.489380869800002
 30
0.0
 11
-151.0426432296
 21
-17.489380869800002
 31
0.0
  0
LINE
  5
4D3
  8
┌▓È_1
 62
     5
 10
-147.5426432296
 20
-17.489380869800002
 30
0.0
 11
-147.5426432296
 21
-21.979125189200001
 31
0.0
  0
LINE
  5
4D4
  8
┌▓È_1
 62
     5
 10
-151.0426432296
 20
-18.289380869799999
 30
0.0
 11
-152.0426432296
 21
-18.289380869799999
 31
0.0
  0
LINE
  5
4D5
  8
┌▓È_1
 62
     5
 10
-151.0426432296
 20
-19.789380869799999
 30
0.0
 11
-152.0426432296
 21
-19.789380869799999
 31
0.0
  0
LINE
  5
4D6
  8
┌▓È_1
 62
     5
 10
-146.5426432296
 20
-19.789380869799999
 30
0.0
 11
-147.5426432296
 21
-19.789380869799999
 31
0.0
  0
LINE
  5
4D7
  8
┌▓È_1
 62
     5
 10
-146.5426432296
 20
-18.289380869799999
 30
0.0
 11
-147.5426432296
 21
-18.289380869799999
 31
0.0
  0
LINE
  5
4D8
  8
┌▓È_1
 62
     5
 10
-173.49264323380001
 20
-53.489380869799987
 30
0.0
 11
-174.5426432296
 21
-53.489380869799987
 31
0.0
  0
ENDBLK
  5
4D9
  8
0
  0
BLOCK
  8
0
  2
*D25
 70
     1
 10
0.0
 20
0.0
 30
0.0
  3
*D25
  1

  0
TEXT
  5
4DC
  8
0
 62
     0
 10
-201.37597600640001
 20
11.893697849900001
 30
0.0
 40
7.1966662884000003
  1
%%c142
  0
LINE
  5
4DD
  8
0
 62
     0
 10
-119.7926432293
 20
-57.988695637200003
 30
0.0
 11
-119.7926432293
 21
10.623697916699999
 31
0.0
  0
LINE
  5
4DE
  8
0
 62
     0
 10
-261.79264322929998
 20
-57.988695637200003
 30
0.0
 11
-261.79264322929998
 21
10.623697916699999
 31
0.0
  0
LINE
  5
4DF
  8
0
 62
     0
 10
-119.7926432293
 20
8.6236979166999994
 30
0.0
 11
-175.9759773415
 21
8.6236979166999994
 31
0.0
  0
LINE
  5
4E0
  8
0
 62
     0
 10
-119.7926432293
 20
8.6236979166999994
 30
0.0
 11
-205.60930911720001
 21
8.6236979166999994
 31
0.0
  0
LINE
  5
4E1
  8
0
 62
     0
 10
-261.79264322929998
 20
8.6236979166999994
 30
0.0
 11
-175.9759773415
 21
8.6236979166999994
 31
0.0
  0
LINE
  5
4E2
  8
0
 62
     0
 10
-261.79264322929998
 20
8.6236979166999994
 30
0.0
 11
-205.60930911720001
 21
8.6236979166999994
 31
0.0
  0
LINE
  5
4E3
  8
0
 62
     0
 10
-261.79264322929998
 20
8.6236979166999994
 30
0.0
 11
-251.79264322930001
 21
8.6236979166999994
 31
0.0
  0
SOLID
  5
4E4
  8
0
 62
     0
 10
-261.79264322929998
 20
8.6236979166999994
 30
0.0
 11
-257.92893997850001
 21
9.6589740911999993
 31
0.0
 12
-257.92893997850001
 22
7.5884217421000004
 32
0.0
 13
-258.8948657912
 23
8.6236979166999994
 33
0.0
  0
LINE
  5
4E5
  8
0
 62
     0
 10
-119.7926432293
 20
8.6236979166999994
 30
0.0
 11
-129.79264322930001
 21
8.6236979166999994
 31
0.0
  0
SOLID
  5
4E6
  8
0
 62
     0
 10
-119.7926432293
 20
8.6236979166999994
 30
0.0
 11
-123.6563464802
 21
7.5884217421000004
 31
0.0
 12
-123.6563464802
 22
9.6589740911999993
 32
0.0
 13
-122.69042066750001
 23
8.6236979166999994
 33
0.0
  0
ENDBLK
  5
4E7
  8
0
  0
BLOCK
  8
0
  2
*D26
 70
     1
 10
0.0
 20
0.0
 30
0.0
  3
*D26
  1

  0
TEXT
  5
4EB
  8
0
 62
     0
 10
-201.37597600730001
 20
35.143961348600001
 30
0.0
 40
7.1966662884000003
  1
%%c150
  0
LINE
  5
4EC
  8
0
 62
     0
 10
-115.7926432302
 20
-70.489380869800002
 30
0.0
 11
-115.7926432302
 21
33.873961415300002
 31
0.0
  0
LINE
  5
4ED
  8
0
 62
     0
 10
-265.79264323019999
 20
-70.489380869800002
 30
0.0
 11
-265.79264323019999
 21
33.873961415300002
 31
0.0
  0
LINE
  5
4EE
  8
0
 62
     0
 10
-115.7926432302
 20
31.873961415299998
 30
0.0
 11
-175.9759773424
 21
31.873961415299998
 31
0.0
  0
LINE
  5
4EF
  8
0
 62
     0
 10
-115.7926432302
 20
31.873961415299998
 30
0.0
 11
-205.60930911809999
 21
31.873961415299998
 31
0.0
  0
LINE
  5
4F0
  8
0
 62
     0
 10
-265.79264323019999
 20
31.873961415299998
 30
0.0
 11
-175.9759773424
 21
31.873961415299998
 31
0.0
  0
LINE
  5
4F1
  8
0
 62
     0
 10
-265.79264323019999
 20
31.873961415299998
 30
0.0
 11
-205.60930911809999
 21
31.873961415299998
 31
0.0
  0
LINE
  5
4F2
  8
0
 62
     0
 10
-265.79264323019999
 20
31.873961415299998
 30
0.0
 11
-255.79264323020001
 21
31.873961415299998
 31
0.0
  0
SOLID
  5
4F3
  8
0
 62
     0
 10
-265.79264323019999
 20
31.873961415299998
 30
0.0
 11
-261.92893997940001
 21
32.909237589900002
 31
0.0
 12
-261.92893997940001
 22
30.8386852408
 32
0.0
 13
-262.89486579210001
 23
31.873961415299998
 33
0.0
  0
LINE
  5
4F4
  8
0
 62
     0
 10
-115.7926432302
 20
31.873961415299998
 30
0.0
 11
-125.7926432302
 21
31.873961415299998
 31
0.0
  0
SOLID
  5
4F5
  8
0
 62
     0
 10
-115.7926432302
 20
31.873961415299998
 30
0.0
 11
-119.6563464811
 21
30.8386852408
 31
0.0
 12
-119.6563464811
 22
32.909237589900002
 32
0.0
 13
-118.69042066839999
 23
31.873961415299998
 33
0.0
  0
ENDBLK
  5
4F6
  8
0
  0
BLOCK
  8
0
  2
BALLON9
 70
     0
 10
0.0
 20
0.0
 30
0.0
  3
BALLON9
  1

  0
INSERT
  5
4FB
  8
0
  6
CONTINUOUS
  2
*U143
 10
0.0
 20
0.0
 30
0.0
  0
CIRCLE
  5
4FC
  8
┌▓È_1
 10
-76.422010416700004
 20
17.492578125000001
 30
0.0
 40
8.0
  0
LINE
  5
4FD
  8
Éíû@É³
 10
-89.755343749999994
 20
17.492578125000001
 30
0.0
 11
-84.422010416700004
 21
17.492578125000001
 31
0.0
  0
LINE
  5
4FE
  8
Éíû@É³
 10
-150.0426432294
 20
-49.239380869799987
 30
0.0
 11
-89.755343749999994
 21
17.492578125000001
 31
0.0
  0
SOLID
  5
4FF
  8
Éíû@É³
 10
-150.0426432294
 20
-49.239380869799987
 30
0.0
 11
-145.86694977330001
 21
-42.230558988699997
 31
0.0
 12
-145.75229105069999
 22
-44.490393800699998
 32
0.0
 13
-145.75229105069999
 23
-44.490393800699998
 33
0.0
  0
SOLID
  5
500
  8
Éíû@É³
 10
-145.75229105069999
 20
-44.490393800699998
 30
0.0
 11
-143.4924562388
 21
-44.3757350781
 31
0.0
 12
-150.0426432294
 22
-49.239380869799987
 32
0.0
 13
-150.0426432294
 23
-49.239380869799987
 33
0.0
  0
ENDBLK
  5
501
  8
0
  0
BLOCK
  8
0
  2
BALLON10
 70
     0
 10
0.0
 20
0.0
 30
0.0
  3
BALLON10
  1

  0
INSERT
  5
505
  8
0
  6
CONTINUOUS
  2
*U144
 10
0.0
 20
0.0
 30
0.0
  0
CIRCLE
  5
506
  8
┌▓È_1
 10
-76.422010416700004
 20
34.913736979200003
 30
0.0
 40
8.0
  0
LINE
  5
507
  8
Éíû@É³
 10
-89.755343749999994
 20
34.913736979200003
 30
0.0
 11
-84.422010416700004
 21
34.913736979200003
 31
0.0
  0
LINE
  5
508
  8
Éíû@É³
 10
-149.04264322930001
 20
-44.488695637200003
 30
0.0
 11
-89.755343749999994
 21
34.913736979200003
 31
0.0
  0
SOLID
  5
509
  8
Éíû@É³
 10
-149.04264322930001
 20
-44.488695637200003
 30
0.0
 11
-145.53836880110001
 21
-37.121195333099998
 31
0.0
 12
-145.21358593010001
 22
-39.360506853800011
 32
0.0
 13
-145.21358593010001
 23
-39.360506853800011
 33
0.0
  0
SOLID
  5
50A
  8
Éíû@É³
 10
-145.21358593010001
 20
-39.360506853800011
 30
0.0
 11
-142.97427440940001
 21
-39.035723982699999
 31
0.0
 12
-149.04264322930001
 22
-44.488695637200003
 32
0.0
 13
-149.04264322930001
 23
-44.488695637200003
 33
0.0
  0
ENDBLK
  5
50B
  8
0
  0
BLOCK
  8
0
  2
BALLON11
 70
     0
 10
0.0
 20
0.0
 30
0.0
  3
BALLON11
  1

  0
INSERT
  5
50F
  8
0
  6
CONTINUOUS
  2
*U145
 10
0.0
 20
0.0
 30
0.0
  0
CIRCLE
  5
510
  8
┌▓È_1
 10
-76.422010416700004
 20
51.92975260419999
 30
0.0
 40
8.0
  0
LINE
  5
511
  8
Éíû@É³
 10
-89.755343749999994
 20
51.92975260419999
 30
0.0
 11
-84.422010416700004
 21
51.92975260419999
 31
0.0
  0
LINE
  5
512
  8
Éíû@É³
 10
-170.44212945699999
 20
-45.18938086979999
 30
0.0
 11
-89.755343749999994
 21
51.92975260419999
 31
0.0
  0
SOLID
  5
513
  8
Éíû@É³
 10
-170.44212945699999
 20
-45.18938086979999
 30
0.0
 11
-166.56053670060001
 21
-38.013501991700011
 31
0.0
 12
-166.3523075093
 22
-40.266642156899998
 32
0.0
 13
-166.3523075093
 23
-40.266642156899998
 33
0.0
  0
SOLID
  5
514
  8
Éíû@É³
 10
-166.3523075093
 20
-40.266642156899998
 30
0.0
 11
-164.0991673442
 21
-40.058412965599992
 31
0.0
 12
-170.44212945699999
 22
-45.18938086979999
 32
0.0
 13
-170.44212945699999
 23
-45.18938086979999
 33
0.0
  0
ENDBLK
  5
515
  8
0
  0
BLOCK
  8
0
  2
*D30
 70
     1
 10
0.0
 20
0.0
 30
0.0
  3
*D30
  1

  0
TEXT
  5
51A
  8
0
 62
     0
 10
407.00268886879991
 20
-3.3737627983
 30
0.0
 40
7.1966662884000003
  1
24
 50
90.0
  0
LINE
  5
51B
  8
0
 62
     0
 10
392.85068739090002
 20
-11.140429687499999
 30
0.0
 11
412.27268880209988
 21
-11.140429687499999
 31
0.0
  0
LINE
  5
51C
  8
0
 62
     0
 10
357.88818304239999
 20
12.859570312500001
 30
0.0
 11
412.27268880209988
 21
12.859570312500001
 31
0.0
  0
LINE
  5
51D
  8
0
 62
     0
 10
410.27268880209999
 20
-11.140429687499999
 30
0.0
 11
410.27268880209999
 21
9.3262365340999995
 31
0.0
  0
LINE
  5
51E
  8
0
 62
     0
 10
410.27268880209999
 20
-11.140429687499999
 30
0.0
 11
410.27268880209999
 21
-7.607095909099999
 31
0.0
  0
LINE
  5
51F
  8
0
 62
     0
 10
410.27268880209999
 20
12.859570312500001
 30
0.0
 11
410.27268880209999
 21
9.3262365340999995
 31
0.0
  0
LINE
  5
520
  8
0
 62
     0
 10
410.27268880209999
 20
12.859570312500001
 30
0.0
 11
410.27268880209999
 21
-7.607095909099999
 31
0.0
  0
LINE
  5
521
  8
0
 62
     0
 10
410.27268880209999
 20
12.859570312500001
 30
0.0
 11
410.27268880209999
 21
22.859570312500001
 31
0.0
  0
SOLID
  5
522
  8
0
 62
     0
 10
410.27268880209999
 20
12.859570312500001
 30
0.0
 11
409.23741262750002
 21
16.723273563399999
 31
0.0
 12
411.30796497659998
 22
16.723273563399999
 32
0.0
 13
410.27268880209999
 23
15.757347750699999
 33
0.0
  0
LINE
  5
523
  8
0
 62
     0
 10
410.27268880209999
 20
-11.140429687499999
 30
0.0
 11
410.27268880209999
 21
-21.140429687499999
 31
0.0
  0
SOLID
  5
524
  8
0
 62
     0
 10
410.27268880209999
 20
-11.140429687499999
 30
0.0
 11
411.30796497659998
 21
-15.0041329384
 31
0.0
 12
409.23741262750002
 22
-15.0041329384
 32
0.0
 13
410.27268880209999
 23
-14.0382071257
 33
0.0
  0
ENDBLK
  5
525
  8
0
  0
BLOCK
  8
0
  2
*D31
 70
     1
 10
0.0
 20
0.0
 30
0.0
  3
*D31
  1

  0
TEXT
  5
529
  8
0
 62
     0
 10
407.00268886879991
 20
-22.3737627983
 30
0.0
 40
7.1966662884000003
  1
14
 50
90.0
  0
LINE
  5
52A
  8
0
 62
     0
 10
391.85068732730002
 20
-25.140429687499999
 30
0.0
 11
412.27268880209988
 21
-25.140429687499999
 31
0.0
  0
LINE
  5
52B
  8
0
 62
     0
 10
392.85068739090002
 20
-11.140429687499999
 30
0.0
 11
412.27268880209988
 21
-11.140429687499999
 31
0.0
  0
LINE
  5
52C
  8
0
 62
     0
 10
410.27268880209999
 20
-25.140429687499999
 30
0.0
 11
410.27268880209999
 21
-25.140429687499999
 31
0.0
  0
LINE
  5
52D
  8
0
 62
     0
 10
410.27268880209999
 20
-25.140429687499999
 30
0.0
 11
410.27268880209999
 21
-11.140429687499999
 31
0.0
  0
LINE
  5
52E
  8
0
 62
     0
 10
410.27268880209999
 20
-11.140429687499999
 30
0.0
 11
410.27268880209999
 21
-25.140429687499999
 31
0.0
  0
LINE
  5
52F
  8
0
 62
     0
 10
410.27268880209999
 20
-11.140429687499999
 30
0.0
 11
410.27268880209999
 21
-11.140429687499999
 31
0.0
  0
LINE
  5
530
  8
0
 62
     0
 10
410.27268880209999
 20
-11.140429687499999
 30
0.0
 11
410.27268880209999
 21
-21.140429687499999
 31
0.0
  0
SOLID
  5
531
  8
0
 62
     0
 10
410.27268880209999
 20
-11.140429687499999
 30
0.0
 11
411.30796497659998
 21
-15.0041329384
 31
0.0
 12
409.23741262750002
 22
-15.0041329384
 32
0.0
 13
410.27268880209999
 23
-14.0382071257
 33
0.0
  0
LINE
  5
532
  8
0
 62
     0
 10
410.27268880209999
 20
-25.140429687499999
 30
0.0
 11
410.27268880209999
 21
-15.140429687499999
 31
0.0
  0
SOLID
  5
533
  8
0
 62
     0
 10
410.27268880209999
 20
-25.140429687499999
 30
0.0
 11
409.23741262750002
 21
-21.276726436600001
 31
0.0
 12
411.30796497659998
 22
-21.276726436600001
 32
0.0
 13
410.27268880209999
 23
-22.242652249300001
 33
0.0
  0
ENDBLK
  5
534
  8
0
  0
BLOCK
  8
0
  2
CLUMP11
 70
     0
 10
0.0
 20
0.0
 30
0.0
  3
CLUMP11
  1

  0
LINE
  5
53A
  8
┌▓È_1
 62
     5
 10
285.92567769070001
 20
-11.140429687499999
 30
0.0
 11
285.92567764469999
 21
-17.3404296838
 31
0.0
  0
LINE
  5
53B
  8
┌▓È_1
 62
     5
 10
320.88818304239999
 20
12.859570312500001
 30
0.0
 11
320.88818286589998
 21
-11.140429687499999
 31
0.0
  0
LINE
  5
53C
  8
┌▓È_1
  6
STITCH
 10
320.88818304239999
 20
-2.1404296875000002
 30
0.0
 11
323.8881829023
 21
-2.1404296875000002
 31
0.0
  0
LINE
  5
53D
  8
┌▓È_1
 62
     5
 10
288.18818276590002
 20
-11.140428929900001
 30
0.0
 11
288.18818272359999
 21
-16.8404297043
 31
0.0
  0
LINE
  5
53E
  8
┌▓È_1
  6
STITCH
 10
289.39382372609998
 20
-16.840429713199999
 30
0.0
 11
291.89448099060002
 21
-16.840429713199999
 31
0.0
  0
LINE
  5
53F
  8
┌▓È_1
 62
     5
 10
344.84058750499997
 20
-16.840429687499999
 30
0.0
 11
344.84058747760002
 21
-25.140429687499999
 31
0.0
  0
LINE
  5
540
  8
┌▓È_1
 62
     5
 10
345.1876291965001
 20
-16.840429687499999
 30
0.0
 11
345.18762916899999
 21
-25.140429687499999
 31
0.0
  0
LINE
  5
541
  8
┌▓È_1
 62
     5
 10
344.84058750499997
 20
-16.840429687499999
 30
0.0
 11
344.84058747760002
 21
-25.140429687499999
 31
0.0
  0
LINE
  5
542
  8
┌▓È_1
 62
     5
 10
331.58873707079999
 20
-11.140429687499999
 30
0.0
 11
331.58873700110001
 21
-25.140429687499999
 31
0.0
  0
LINE
  5
543
  8
┌▓È_1
 62
     5
 10
331.93577844719999
 20
-11.140429687499999
 30
0.0
 11
331.9357783776
 21
-25.140429687499999
 31
0.0
  0
LINE
  5
544
  8
┌▓È_1
 62
     5
 10
358.3371874133
 20
-11.140429687499999
 30
0.0
 11
358.33718737110001
 21
-16.840429687499999
 31
0.0
  0
LINE
  5
545
  8
┌▓È_1
 62
     5
 10
357.31899624990001
 20
-11.140429687499999
 30
0.0
 11
357.31899620759998
 21
-16.840429687499999
 31
0.0
  0
LINE
  5
546
  8
┌▓È_1
  6
STITCH
 10
355.88818286589998
 20
-11.140429687499999
 30
0.0
 11
355.88818284069998
 21
-14.5404296875
 31
0.0
  0
LINE
  5
547
  8
┌▓È_1
 62
     5
 10
355.88818304239999
 20
12.859570312500001
 30
0.0
 11
355.88818286589998
 21
-11.140429687499999
 31
0.0
  0
LINE
  5
548
  8
┌▓È_1
  6
STITCH
 10
352.88818291059999
 20
-2.1404296875000002
 30
0.0
 11
355.88818304239999
 21
-2.1404296875000002
 31
0.0
  0
LINE
  5
549
  8
┌▓È_1
  6
STITCH
 10
352.88818302179999
 20
12.859570312500001
 30
0.0
 11
352.88818282019997
 21
-14.5404296875
 31
0.0
  0
LINE
  5
54A
  8
┌▓È_1
  6
STITCH
 10
388.17177928180001
 20
-11.140429668099999
 30
0.0
 11
388.17177928180001
 21
-25.140429687499999
 31
0.0
  0
LINE
  5
54B
  8
┌▓È_1
  6
STITCH
 10
384.87177932920002
 20
-11.140429687499999
 30
0.0
 11
384.87177930399997
 21
-14.5404296875
 31
0.0
  0
LINE
  5
54C
  8
┌▓È_1
  6
STITCH
 10
384.8717792818
 20
-17.540429687500001
 30
0.0
 11
384.8717792818
 21
-25.140429687499999
 31
0.0
  0
LINE
  5
54D
  8
┌▓È_1
 62
     5
 10
390.85068732730002
 20
-24.140429692400001
 30
0.0
 11
390.85068739090002
 21
-11.140429687499999
 31
0.0
  0
ARC
  5
54E
  8
┌▓È_1
 62
     5
 10
389.85068732730002
 20
-24.140429687499999
 30
0.0
 40
1.0
 50
270.0
 51
359.99999971990002
  0
LINE
  5
54F
  8
┌▓È_1
 62
     5
 10
344.84058750499997
 20
-16.840429687499999
 30
0.0
 11
358.33718737110001
 21
-16.840429687499999
 31
0.0
  0
LINE
  5
550
  8
┌▓È_1
  6
STITCH
 10
323.8881830135
 20
12.859570312500001
 30
0.0
 11
323.88818281179999
 21
-14.5404296875
 31
0.0
  0
LINE
  5
551
  8
┌▓È_1
 62
     5
 10
285.92567764469999
 20
-17.3404296838
 30
0.0
 11
285.92567762610003
 21
-24.140429684800001
 31
0.0
  0
ARC
  5
552
  8
┌▓È_1
 62
     5
 10
286.92567762610003
 20
-24.140429687499999
 30
0.0
 40
1.0
 50
179.9999998429
 51
270.0
  0
LINE
  5
553
  8
┌▓È_1
 62
     5
 10
285.92567764839998
 20
-16.840429687499999
 30
0.0
 11
289.39382372609998
 21
-16.840429713199999
 31
0.0
  0
LINE
  5
554
  8
┌▓È_1
  6
STITCH
 10
291.4881827406
 20
-17.540429687500001
 30
0.0
 11
291.48818271840003
 21
-25.140429687499999
 31
0.0
  0
LINE
  5
555
  8
┌▓È_1
  6
STITCH
 10
288.18818272359999
 20
-16.8404297043
 30
0.0
 11
288.18818272359999
 21
-25.140429687499999
 31
0.0
  0
LINE
  5
556
  8
┌▓È_1
  6
BORDER
 62
     3
 10
338.38718927730002
 20
-1.2640633014
 30
0.0
 11
338.3871890721
 21
-29.147209369500001
 31
0.0
  0
LINE
  5
557
  8
┌▓È_1
 62
     5
 10
344.84058750499997
 20
-16.840429687499999
 30
0.0
 11
358.33718737110001
 21
-16.840429687499999
 31
0.0
  0
LINE
  5
558
  8
┌▓È_1
 62
     5
 10
320.88818304239999
 20
12.859570312500001
 30
0.0
 11
355.88818304239999
 21
12.859570312500001
 31
0.0
  0
LINE
  5
559
  8
┌▓È_1
 62
     5
 10
285.92567769070001
 20
-11.140429687499999
 30
0.0
 11
390.85068739090002
 21
-11.140429687499999
 31
0.0
  0
LINE
  5
55A
  8
┌▓È_1
  6
STITCH
 10
291.48818271840003
 20
-14.5404296875
 30
0.0
 11
384.8717792818
 21
-14.5404296875
 31
0.0
  0
LINE
  5
55B
  8
┌▓È_1
  6
STITCH
 10
291.48818271840003
 20
-17.540429687500001
 30
0.0
 11
384.8717792818
 21
-17.540429687500001
 31
0.0
  0
LINE
  5
55C
  8
┌▓È_1
 62
     5
 10
286.92567762610003
 20
-25.140429687499999
 30
0.0
 11
389.85068732730002
 21
-25.140429687499999
 31
0.0
  0
LINE
  5
55D
  8
┌▓È_1
  6
STITCH
 10
320.88818286589998
 20
-11.140429687499999
 30
0.0
 11
320.88818284069998
 21
-14.5404296875
 31
0.0
  0
LINE
  5
55E
  8
┌▓È_1
  6
STITCH
 10
296.57949943339997
 20
-17.540429687500001
 30
0.0
 11
296.5794994053
 21
-11.140429687499999
 31
0.0
  0
LINE
  5
55F
  8
┌▓È_1
  6
STITCH
 10
291.48818276589998
 20
-11.140429687499999
 30
0.0
 11
291.4881827406
 21
-14.5404296875
 31
0.0
  0
LINE
  5
560
  8
┌▓È_1
 62
     5
 10
289.39382376840001
 20
-11.140429687499999
 30
0.0
 11
289.39382372609998
 21
-16.840429713199999
 31
0.0
  0
LINE
  5
561
  8
┌▓È_1
  6
STITCH
 10
291.89448099060002
 20
-16.840429713199999
 30
0.0
 11
291.89448096249998
 21
-11.140429687499999
 31
0.0
  0
ENDBLK
  5
562
  8
0
  0
BLOCK
  8
0
  2
*D33
 70
     1
 10
0.0
 20
0.0
 30
0.0
  3
*D33
  1

  0
TEXT
  5
567
  8
0
 62
     0
 10
-226.81026039950001
 20
-235.2223828788
 30
0.0
 40
7.1966662884000003
  1
%%c60.6(50A)
  0
LINE
  5
568
  8
0
 62
     0
 10
-221.1269289576
 20
-213.98938088189999
 30
0.0
 11
-221.1269289576
 21
-238.49238281199999
 31
0.0
  0
LINE
  5
569
  8
0
 62
     0
 10
-160.52692895760001
 20
-213.98938082929999
 30
0.0
 11
-160.52692895760001
 21
-238.49238281199999
 31
0.0
  0
LINE
  5
56A
  8
0
 62
     0
 10
-221.1269289576
 20
-237.49238281199999
 30
0.0
 11
-221.1269289576
 21
-237.49238281199999
 31
0.0
  0
LINE
  5
56B
  8
0
 62
     0
 10
-221.1269289576
 20
-237.49238281199999
 30
0.0
 11
-160.52692895760001
 21
-237.49238281199999
 31
0.0
  0
LINE
  5
56C
  8
0
 62
     0
 10
-160.52692895760001
 20
-237.49238281199999
 30
0.0
 11
-221.1269289576
 21
-237.49238281199999
 31
0.0
  0
LINE
  5
56D
  8
0
 62
     0
 10
-160.52692895760001
 20
-237.49238281199999
 30
0.0
 11
-160.52692895760001
 21
-237.49238281199999
 31
0.0
  0
LINE
  5
56E
  8
0
 62
     0
 10
-160.52692895760001
 20
-237.49238281199999
 30
0.0
 11
-165.52692895760001
 21
-237.49238281199999
 31
0.0
  0
SOLID
  5
56F
  8
0
 62
     0
 10
-160.52692895760001
 20
-237.49238281199999
 30
0.0
 11
-163.424706515
 21
-238.2688399429
 31
0.0
 12
-163.424706515
 22
-236.7159256811
 32
0.0
 13
-162.70026212569999
 23
-237.49238281199999
 33
0.0
  0
LINE
  5
570
  8
0
 62
     0
 10
-221.1269289576
 20
-237.49238281199999
 30
0.0
 11
-216.1269289576
 21
-237.49238281199999
 31
0.0
  0
SOLID
  5
571
  8
0
 62
     0
 10
-221.1269289576
 20
-237.49238281199999
 30
0.0
 11
-218.2291514003
 21
-236.7159256811
 31
0.0
 12
-218.2291514003
 22
-238.2688399429
 32
0.0
 13
-218.9535957896
 23
-237.49238281199999
 33
0.0
  0
ENDBLK
  5
572
  8
0
  0
BLOCK
  8
0
  2
*D34
 70
     1
 10
0.0
 20
0.0
 30
0.0
  3
*D34
  1

  0
TEXT
  5
576
  8
0
 62
     0
 10
-200.92566461920001
 20
-259.1010287268
 30
0.0
 40
7.1966662884000003
  1
ÉÛùpâlâW
  0
LINE
  5
577
  8
0
 62
     0
 10
-225.4926432117
 20
-213.2893808629
 30
0.0
 11
-225.4926432117
 21
-262.37102865999998
 31
0.0
  0
LINE
  5
578
  8
0
 62
     0
 10
-156.09264327579999
 20
-213.2893808629
 30
0.0
 11
-156.09264327579999
 21
-262.37102865999998
 31
0.0
  0
LINE
  5
579
  8
0
 62
     0
 10
-225.4926432117
 20
-261.37102865999998
 30
0.0
 11
-162.82566662190001
 21
-261.37102865999998
 31
0.0
  0
LINE
  5
57A
  8
0
 62
     0
 10
-225.4926432117
 20
-261.37102865999998
 30
0.0
 11
-205.15899773000001
 21
-261.37102865999998
 31
0.0
  0
LINE
  5
57B
  8
0
 62
     0
 10
-156.09264327579999
 20
-261.37102865999998
 30
0.0
 11
-162.82566662190001
 21
-261.37102865999998
 31
0.0
  0
LINE
  5
57C
  8
0
 62
     0
 10
-156.09264327579999
 20
-261.37102865999998
 30
0.0
 11
-205.15899773000001
 21
-261.37102865999998
 31
0.0
  0
LINE
  5
57D
  8
0
 62
     0
 10
-156.09264327579999
 20
-261.37102865999998
 30
0.0
 11
-161.09264327579999
 21
-261.37102865999998
 31
0.0
  0
SOLID
  5
57E
  8
0
 62
     0
 10
-156.09264327579999
 20
-261.37102865999998
 30
0.0
 11
-158.99042083320001
 21
-262.14748579090002
 31
0.0
 12
-158.99042083320001
 22
-260.59457152909999
 32
0.0
 13
-158.2659764439
 23
-261.37102865999998
 33
0.0
  0
LINE
  5
57F
  8
0
 62
     0
 10
-225.4926432117
 20
-261.37102865999998
 30
0.0
 11
-220.4926432117
 21
-261.37102865999998
 31
0.0
  0
SOLID
  5
580
  8
0
 62
     0
 10
-225.4926432117
 20
-261.37102865999998
 30
0.0
 11
-222.5948656544
 21
-260.59457152909999
 31
0.0
 12
-222.5948656544
 22
-262.14748579090002
 32
0.0
 13
-223.3193100437
 23
-261.37102865999998
 33
0.0
  0
ENDBLK
  5
581
  8
0
  0
BLOCK
  8
0
  2
*D35
 70
     1
 10
0.0
 20
0.0
 30
0.0
  3
*D35
  1

  0
TEXT
  5
585
  8
0
 62
     0
 10
-205.60930913019999
 20
-279.81769537930001
 30
0.0
 40
7.1966662884000003
  1
%%c114.3
  0
LINE
  5
586
  8
0
 62
     0
 10
-248.29264323160001
 20
-175.98938077529999
 30
0.0
 11
-248.29264323160001
 21
-285.08769531249999
 31
0.0
  0
LINE
  5
587
  8
0
 62
     0
 10
-134.03924735730001
 20
-176.0504665238
 30
0.0
 11
-134.03924735730001
 21
-285.08769531249999
 31
0.0
  0
LINE
  5
588
  8
0
 62
     0
 10
-248.29264323160001
 20
-283.08769531249999
 30
0.0
 11
-171.74264424379999
 21
-283.08769531249999
 31
0.0
  0
LINE
  5
589
  8
0
 62
     0
 10
-248.29264323160001
 20
-283.08769531249999
 30
0.0
 11
-209.84264224110001
 21
-283.08769531249999
 31
0.0
  0
LINE
  5
58A
  8
0
 62
     0
 10
-134.03924735730001
 20
-283.08769531249999
 30
0.0
 11
-171.74264424379999
 21
-283.08769531249999
 31
0.0
  0
LINE
  5
58B
  8
0
 62
     0
 10
-134.03924735730001
 20
-283.08769531249999
 30
0.0
 11
-209.84264224110001
 21
-283.08769531249999
 31
0.0
  0
LINE
  5
58C
  8
0
 62
     0
 10
-134.03924735730001
 20
-283.08769531249999
 30
0.0
 11
-144.03924735730001
 21
-283.08769531249999
 31
0.0
  0
SOLID
  5
58D
  8
0
 62
     0
 10
-134.03924735730001
 20
-283.08769531249999
 30
0.0
 11
-137.9029506082
 21
-284.12297148699997
 31
0.0
 12
-137.9029506082
 22
-282.052419138
 32
0.0
 13
-136.93702479550001
 23
-283.08769531249999
 33
0.0
  0
LINE
  5
58E
  8
0
 62
     0
 10
-248.29264323160001
 20
-283.08769531249999
 30
0.0
 11
-238.29264323160001
 21
-283.08769531249999
 31
0.0
  0
SOLID
  5
58F
  8
0
 62
     0
 10
-248.29264323160001
 20
-283.08769531249999
 30
0.0
 11
-244.42893998069999
 21
-282.052419138
 31
0.0
 12
-244.42893998069999
 22
-284.12297148699997
 32
0.0
 13
-245.39486579339999
 23
-283.08769531249999
 33
0.0
  0
ENDBLK
  5
590
  8
0
  0
BLOCK
  8
0
  2
CLUMP12
 70
     0
 10
0.0
 20
0.0
 30
0.0
  3
CLUMP12
  1

  0
LINE
  5
595
  8
┌▓È_1
 62
     5
 10
-190.79264322930001
 20
-64.489380869800002
 30
0.0
 11
-260.79264322940003
 21
-64.489380869800002
 31
0.0
  0
LINE
  5
596
  8
┌▓È_1
 62
     5
 10
-260.79264322940003
 20
-64.989380869800002
 30
0.0
 11
-190.7926432294
 21
-64.989380869800002
 31
0.0
  0
LINE
  5
597
  8
┌▓È_1
 62
     5
 10
-260.79264322940003
 20
-64.489380869800002
 30
0.0
 11
-260.79264322940003
 21
-64.989380869800002
 31
0.0
  0
LINE
  5
598
  8
┌▓È_1
 62
     5
 10
-120.7926432294
 20
-64.489380869800002
 30
0.0
 11
-132.7926432294
 21
-64.489380869800002
 31
0.0
  0
LINE
  5
599
  8
┌▓È_1
 62
     5
 10
-132.7926432294
 20
-64.989380869800002
 30
0.0
 11
-120.7926432294
 21
-64.989380869800002
 31
0.0
  0
LINE
  5
59A
  8
┌▓È_1
 62
     5
 10
-132.7926432294
 20
-64.989380869800002
 30
0.0
 11
-132.7926432294
 21
-64.489380869800002
 31
0.0
  0
LINE
  5
59B
  8
┌▓È_1
 62
     5
 10
-120.7926432294
 20
-64.989380869800002
 30
0.0
 11
-120.7926432294
 21
-64.489380869800002
 31
0.0
  0
ENDBLK
  5
59C
  8
0
  0
BLOCK
  8
0
  2
*U37
 70
     1
 10
0.0
 20
0.0
 30
0.0
  3
*U37
  1

  0
TEXT
  5
5B9
  8
┌▓È_1
  6
CONTINUOUS
 10
140.7227314947738
 20
242.8384794632
 30
0.0
 40
5.9972220420999998
  1
éP
  0
ENDBLK
  5
5BB
  8
0
  0
BLOCK
  8
0
  2
*U38
 70
     1
 10
0.0
 20
0.0
 30
0.0
  3
*U38
  1

  0
TEXT
  5
5BD
  8
┌▓È_1
  6
CONTINUOUS
 10
162.63665046403071
 20
253.28614272443809
 30
0.0
 40
5.9972220420999998
  1
ë³Æ¨ô·
  0
ENDBLK
  5
5BF
  8
0
  0
BLOCK
  8
0
  2
*U39
 70
     1
 10
0.0
 20
0.0
 30
0.0
  3
*U39
  1

  0
TEXT
  5
5C1
  8
┌▓È_1
  6
CONTINUOUS
 10
260.2702092615325
 20
253.22525722147259
 30
0.0
 40
5.9972220420999998
  1
ë³ü@ü@Æ¨ü@ü@ôÓü@ü@ùe
  0
ENDBLK
  5
5C3
  8
0
  0
BLOCK
  8
0
  2
*U40
 70
     1
 10
0.0
 20
0.0
 30
0.0
  3
*U40
  1

  0
TEXT
  5
5C5
  8
┌▓È_1
  6
CONTINUOUS
 62
     5
 10
156.57854291896521
 20
243.51918892450001
 30
0.0
 40
5.9972220420999998
  1
H16.12.13
  0
ENDBLK
  5
5C7
  8
0
  0
BLOCK
  8
0
  2
*U41
 70
     1
 10
0.0
 20
0.0
 30
0.0
  3
*U41
  1

  0
TEXT
  5
5C9
  8
┌▓È_1
  6
CONTINUOUS
 62
     5
 10
297.4427734991861
 20
-141.39606867649999
 30
0.0
 40
5.3974999188999986
  1
édéoécél
  0
ENDBLK
  5
5CB
  8
0
  0
BLOCK
  8
0
  2
*U42
 70
     1
 10
0.0
 20
0.0
 30
0.0
  3
*U42
  1

  0
TEXT
  5
5CD
  8
┌▓È_1
  6
CONTINUOUS
 62
     5
 10
303.8677162960492
 20
-129.2360686765
 30
0.0
 40
5.3974999188999986
  1
éoéo
  0
ENDBLK
  5
5CF
  8
0
  0
BLOCK
  8
0
  2
*U43
 70
     1
 10
0.0
 20
0.0
 30
0.0
  3
*U43
  1

  0
TEXT
  5
5D1
  8
┌▓È_1
  6
CONTINUOUS
 62
     5
 10
300.29221508073732
 20
-104.9160686765
 30
0.0
 40
5.3974999188999986
  1
é`éaér
  0
ENDBLK
  5
5D3
  8
0
  0
BLOCK
  8
0
  2
*U44
 70
     1
 10
0.0
 20
0.0
 30
0.0
  3
*U44
  1

  0
TEXT
  5
5D5
  8
┌▓È_1
  6
CONTINUOUS
 62
     5
 10
297.4427734991861
 20
-117.0760686765
 30
0.0
 40
5.3974999188999986
  1
édéoécél
  0
ENDBLK
  5
5D7
  8
0
  0
BLOCK
  8
0
  2
*U45
 70
     1
 10
0.0
 20
0.0
 30
0.0
  3
*U45
  1

  0
TEXT
  5
5D9
  8
┌▓È_1
  6
CONTINUOUS
 62
     5
 10
293.19600960360481
 20
-92.756068676499993
 30
0.0
 40
5.3974999188999986
  1
éUâiâCâìâô
  0
ENDBLK
  5
5DB
  8
0
  0
BLOCK
  8
0
  2
*U46
 70
     1
 10
0.0
 20
0.0
 30
0.0
  3
*U46
  1

  0
TEXT
  5
5DD
  8
┌▓È_1
  6
CONTINUOUS
 10
141.31636514868731
 20
232.8384794632
 30
0.0
 40
5.9972220420999998
  1
2
  0
ENDBLK
  5
5DF
  8
0
  0
BLOCK
  8
0
  2
*U47
 70
     1
 10
0.0
 20
0.0
 30
0.0
  3
*U47
  1

  0
TEXT
  5
5E1
  8
┌▓È_1
  6
CONTINUOUS
 62
     5
 10
160.44477235727331
 20
233.51918892450001
 30
0.0
 40
5.9972220420999998
  1
H17.2.8
  0
ENDBLK
  5
5E3
  8
0
  0
BLOCK
  8
0
  2
*U48
 70
     1
 10
0.0
 20
0.0
 30
0.0
  3
*U48
  1

  0
TEXT
  5
5E5
  8
┌▓È_1
  6
CONTINUOUS
 62
     5
 10
329.1782034496797
 20
-271.62457710242938
 30
0.0
 40
10.794999837900001
  1
ÅcörÉàâgâëâbâv
  0
ENDBLK
  5
5E7
  8
0
  0
BLOCK
  8
0
  2
*U49
 70
     1
 10
0.0
 20
0.0
 30
0.0
  3
*U49
  1

  0
TEXT
  5
5E9
  8
┌▓È_1
  6
CONTINUOUS
 62
     5
 10
355.01496702110018
 20
-248.73816579870001
 30
0.0
 40
10.794999837900001
  1
éaés-és
  0
ENDBLK
  5
5EB
  8
0
  0
BLOCK
  8
0
  2
*U50
 70
     1
 10
0.0
 20
0.0
 30
0.0
  3
*U50
  1

  0
TEXT
  5
5ED
  8
┌▓È_1
  6
CONTINUOUS
 10
296.30124731950002
 20
-241.2291454293964
 30
0.0
 40
5.9972220420999998
  1
î^öÈ
  0
ENDBLK
  5
5EF
  8
0
  0
BLOCK
  8
0
  2
*U51
 70
     1
 10
0.0
 20
0.0
 30
0.0
  3
*U51
  1

  0
TEXT
  5
5F1
  8
┌▓È_1
  6
CONTINUOUS
 10
296.30124731950002
 20
-263.2900309323619
 30
0.0
 40
5.9972220420999998
  1
òiû╝
  0
ENDBLK
  5
5F3
  8
0
  0
BLOCK
  8
0
  2
*U52
 70
     1
 10
0.0
 20
0.0
 30
0.0
  3
*U52
  1

  0
TEXT
  5
5F5
  8
┌▓È_1
  6
CONTINUOUS
 10
296.30124731950002
 20
-285.2291454293964
 30
0.0
 40
5.9972220420999998
  1
É}öÈ
  0
ENDBLK
  5
5F7
  8
0
  0
BLOCK
  8
0
  2
*U53
 70
     1
 10
0.0
 20
0.0
 30
0.0
  3
*U53
  1

  0
TEXT
  5
5F9
  8
┌▓È_1
  6
CONTINUOUS
 62
     5
 10
303.8677162960492
 20
-80.596068676499996
 30
0.0
 40
5.3974999188999986
  1
éoéo
  0
ENDBLK
  5
5FB
  8
0
  0
BLOCK
  8
0
  2
*U54
 70
     1
 10
0.0
 20
0.0
 30
0.0
  3
*U54
  1

  0
TEXT
  5
5FD
  8
┌▓È_1
  6
CONTINUOUS
 62
     5
 10
369.86166581030147
 20
-81.336901887500005
 30
0.0
 40
7.1966662884000003
  1
éP
  0
ENDBLK
  5
5FF
  8
0
  0
BLOCK
  8
0
  2
*U55
 70
     1
 10
0.0
 20
0.0
 30
0.0
  3
*U55
  1

  0
TEXT
  5
601
  8
┌▓È_1
  6
CONTINUOUS
 62
     5
 10
406.25049026169057
 20
-80.596068676499996
 30
0.0
 40
5.3974999188999986
  1
ìò
  0
ENDBLK
  5
603
  8
0
  0
BLOCK
  8
0
  2
*U56
 70
     1
 10
0.0
 20
0.0
 30
0.0
  3
*U56
  1

  0
TEXT
  5
605
  8
┌▓È_1
  6
CONTINUOUS
 62
     5
 10
392.23616940627261
 20
-129.2360686765
 30
0.0
 40
5.3974999188999986
  1
âiâ`âàâëâï
  0
ENDBLK
  5
607
  8
0
  0
BLOCK
  8
0
  2
*U57
 70
     1
 10
0.0
 20
0.0
 30
0.0
  3
*U57
  1

  0
TEXT
  5
609
  8
┌▓È_1
  6
CONTINUOUS
 62
     5
 10
369.86166581030147
 20
-154.29690188750001
 30
0.0
 40
7.1966662884000003
  1
éP
  0
ENDBLK
  5
60B
  8
0
  0
BLOCK
  8
0
  2
*U58
 70
     1
 10
0.0
 20
0.0
 30
0.0
  3
*U58
  1

  0
TEXT
  5
60D
  8
┌▓È_1
  6
CONTINUOUS
 62
     5
 10
369.86166581030147
 20
-142.13690188749999
 30
0.0
 40
7.1966662884000003
  1
éP
  0
ENDBLK
  5
60F
  8
0
  0
BLOCK
  8
0
  2
*U59
 70
     1
 10
0.0
 20
0.0
 30
0.0
  3
*U59
  1

  0
TEXT
  5
611
  8
┌▓È_1
  6
CONTINUOUS
 62
     5
 10
369.86166581030147
 20
-129.97690188749999
 30
0.0
 40
7.1966662884000003
  1
éP
  0
ENDBLK
  5
613
  8
0
  0
BLOCK
  8
0
  2
*U60
 70
     1
 10
0.0
 20
0.0
 30
0.0
  3
*U60
  1

  0
TEXT
  5
615
  8
┌▓È_1
  6
CONTINUOUS
 62
     5
 10
369.86166581030147
 20
-117.81690188749999
 30
0.0
 40
7.1966662884000003
  1
éP
  0
ENDBLK
  5
617
  8
0
  0
BLOCK
  8
0
  2
*U61
 70
     1
 10
0.0
 20
0.0
 30
0.0
  3
*U61
  1

  0
TEXT
  5
619
  8
┌▓È_1
  6
CONTINUOUS
 62
     5
 10
369.86166581030147
 20
-105.6569018875
 30
0.0
 40
7.1966662884000003
  1
éP
  0
ENDBLK
  5
61B
  8
0
  0
BLOCK
  8
0
  2
*U62
 70
     1
 10
0.0
 20
0.0
 30
0.0
  3
*U62
  1

  0
TEXT
  5
61D
  8
┌▓È_1
  6
CONTINUOUS
 62
     5
 10
395.89386605182159
 20
-153.66566258348271
 30
0.0
 40
5.3974999188999986
  1
âzâÅâCâg
  0
ENDBLK
  5
61F
  8
0
  0
BLOCK
  8
0
  2
*U63
 70
     1
 10
0.0
 20
0.0
 30
0.0
  3
*U63
  1

  0
TEXT
  5
621
  8
┌▓È_1
  6
CONTINUOUS
 62
     5
 10
406.25049026169057
 20
-141.39606867649999
 30
0.0
 40
5.3974999188999986
  1
ìò
  0
ENDBLK
  5
623
  8
0
  0
BLOCK
  8
0
  2
*U64
 70
     1
 10
0.0
 20
0.0
 30
0.0
  3
*U64
  1

  0
TEXT
  5
625
  8
┌▓È_1
  6
CONTINUOUS
 62
     5
 10
392.23616940627261
 20
-104.9160686765
 30
0.0
 40
5.3974999188999986
  1
âiâ`âàâëâï
  0
ENDBLK
  5
627
  8
0
  0
BLOCK
  8
0
  2
*U65
 70
     1
 10
0.0
 20
0.0
 30
0.0
  3
*U65
  1

  0
TEXT
  5
629
  8
┌▓È_1
  6
CONTINUOUS
 62
     5
 10
406.25049026169057
 20
-117.0760686765
 30
0.0
 40
5.3974999188999986
  1
ìò
  0
ENDBLK
  5
62B
  8
0
  0
BLOCK
  8
0
  2
*U66
 70
     1
 10
0.0
 20
0.0
 30
0.0
  3
*U66
  1

  0
TEXT
  5
62D
  8
┌▓È_1
  6
CONTINUOUS
 62
     5
 10
369.86166581030147
 20
-93.496901887499988
 30
0.0
 40
7.1966662884000003
  1
éP
  0
ENDBLK
  5
62F
  8
0
  0
BLOCK
  8
0
  2
*U67
 70
     1
 10
0.0
 20
0.0
 30
0.0
  3
*U67
  1

  0
TEXT
  5
631
  8
┌▓È_1
  6
CONTINUOUS
 62
     5
 10
406.25049026169057
 20
-92.756068676499993
 30
0.0
 40
5.3974999188999986
  1
ìò
  0
ENDBLK
  5
633
  8
0
  0
BLOCK
  8
0
  2
*U68
 70
     1
 10
0.0
 20
0.0
 30
0.0
  3
*U68
  1

  0
TEXT
  5
635
  8
┌▓È_1
  6
CONTINUOUS
 62
     5
 10
289.44241828944592
 20
-153.55606867649999
 30
0.0
 40
5.3974999188999986
  1
âGâëâXâgâ}ü[
  0
ENDBLK
  5
637
  8
0
  0
BLOCK
  8
0
  2
*U69
 70
     1
 10
0.0
 20
0.0
 30
0.0
  3
*U69
  1

  0
TEXT
  5
639
  8
┌▓È_1
  6
CONTINUOUS
 10
256.17826686310002
 20
-241.38020703361019
 30
0.0
 40
5.9972220420999998
  1
 îƒü@ü@ê¾
  0
ENDBLK
  5
63B
  8
0
  0
BLOCK
  8
0
  2
*U70
 70
     1
 10
0.0
 20
0.0
 30
0.0
  3
*U70
  1

  0
TEXT
  5
63D
  8
┌▓È_1
  6
CONTINUOUS
 62
     5
 10
369.86166581030147
 20
-215.0969018875
 30
0.0
 40
7.1966662884000003
  1
éP
  0
ENDBLK
  5
63F
  8
0
  0
BLOCK
  8
0
  2
*U71
 70
     1
 10
0.0
 20
0.0
 30
0.0
  3
*U71
  1

  0
TEXT
  5
641
  8
┌▓È_1
  6
CONTINUOUS
 62
     5
 10
369.86166581030147
 20
-202.9369018875
 30
0.0
 40
7.1966662884000003
  1
éP
  0
ENDBLK
  5
643
  8
0
  0
BLOCK
  8
0
  2
*U72
 70
     1
 10
0.0
 20
0.0
 30
0.0
  3
*U72
  1

  0
TEXT
  5
645
  8
┌▓È_1
  6
CONTINUOUS
 62
     5
 10
369.86166581030147
 20
-190.7769018875
 30
0.0
 40
7.1966662884000003
  1
éP
  0
ENDBLK
  5
647
  8
0
  0
BLOCK
  8
0
  2
*U73
 70
     1
 10
0.0
 20
0.0
 30
0.0
  3
*U73
  1

  0
TEXT
  5
649
  8
┌▓È_1
  6
CONTINUOUS
 62
     5
 10
369.86166581030147
 20
-178.61690188750001
 30
0.0
 40
7.1966662884000003
  1
éP
  0
ENDBLK
  5
64B
  8
0
  0
BLOCK
  8
0
  2
*U74
 70
     1
 10
0.0
 20
0.0
 30
0.0
  3
*U74
  1

  0
TEXT
  5
64D
  8
┌▓È_1
  6
CONTINUOUS
 62
     5
 10
395.89386605182159
 20
-214.4656625834827
 30
0.0
 40
5.3974999188999986
  1
âzâÅâCâg
  0
ENDBLK
  5
64F
  8
0
  0
BLOCK
  8
0
  2
*U75
 70
     1
 10
0.0
 20
0.0
 30
0.0
  3
*U75
  1

  0
TEXT
  5
651
  8
┌▓È_1
  6
CONTINUOUS
 62
     5
 10
395.89386605182159
 20
-202.3056625834827
 30
0.0
 40
5.3974999188999986
  1
âzâÅâCâg
  0
ENDBLK
  5
653
  8
0
  0
BLOCK
  8
0
  2
*U76
 70
     1
 10
0.0
 20
0.0
 30
0.0
  3
*U76
  1

  0
TEXT
  5
655
  8
┌▓È_1
  6
CONTINUOUS
 62
     5
 10
392.23616940627261
 20
-190.03606867649989
 30
0.0
 40
5.3974999188999986
  1
âiâ`âàâëâï
  0
ENDBLK
  5
657
  8
0
  0
BLOCK
  8
0
  2
*U77
 70
     1
 10
0.0
 20
0.0
 30
0.0
  3
*U77
  1

  0
TEXT
  5
659
  8
┌▓È_1
  6
CONTINUOUS
 62
     5
 10
392.23616940627261
 20
-177.87606867650001
 30
0.0
 40
5.3974999188999986
  1
âiâ`âàâëâï
  0
ENDBLK
  5
65B
  8
0
  0
BLOCK
  8
0
  2
*U78
 70
     1
 10
0.0
 20
0.0
 30
0.0
  3
*U78
  1

  0
TEXT
  5
65D
  8
┌▓È_1
  6
CONTINUOUS
 62
     5
 10
395.89386605182159
 20
-165.82566258348271
 30
0.0
 40
5.3974999188999986
  1
âzâÅâCâg
  0
ENDBLK
  5
65F
  8
0
  0
BLOCK
  8
0
  2
*U79
 70
     1
 10
0.0
 20
0.0
 30
0.0
  3
*U79
  1

  0
TEXT
  5
661
  8
┌▓È_1
  6
CONTINUOUS
 62
     5
 10
300.29221508073732
 20
-214.3560686765
 30
0.0
 40
5.3974999188999986
  1
é`éaér
  0
ENDBLK
  5
663
  8
0
  0
BLOCK
  8
0
  2
*U80
 70
     1
 10
0.0
 20
0.0
 30
0.0
  3
*U80
  1

  0
TEXT
  5
665
  8
┌▓È_1
  6
CONTINUOUS
 62
     5
 10
300.29221508073732
 20
-190.03606867649989
 30
0.0
 40
5.3974999188999986
  1
é`éaér
  0
ENDBLK
  5
667
  8
0
  0
BLOCK
  8
0
  2
*U81
 70
     1
 10
0.0
 20
0.0
 30
0.0
  3
*U81
  1

  0
TEXT
  5
669
  8
┌▓È_1
  6
CONTINUOUS
 62
     5
 10
300.29221508073732
 20
-177.87606867650001
 30
0.0
 40
5.3974999188999986
  1
é`éaér
  0
ENDBLK
  5
66B
  8
0
  0
BLOCK
  8
0
  2
*U82
 70
     1
 10
0.0
 20
0.0
 30
0.0
  3
*U82
  1

  0
TEXT
  5
66D
  8
┌▓È_1
  6
CONTINUOUS
 62
     5
 10
300.29221508073732
 20
-165.71606867649999
 30
0.0
 40
5.3974999188999986
  1
é`éaér
  0
ENDBLK
  5
66F
  8
0
  0
BLOCK
  8
0
  2
*U83
 70
     1
 10
0.0
 20
0.0
 30
0.0
  3
*U83
  1

  0
TEXT
  5
671
  8
┌▓È_1
  6
CONTINUOUS
 62
     5
 10
300.29221508073732
 20
-202.1960686765
 30
0.0
 40
5.3974999188999986
  1
é`éaér
  0
ENDBLK
  5
673
  8
0
  0
BLOCK
  8
0
  2
*U84
 70
     1
 10
0.0
 20
0.0
 30
0.0
  3
*U84
  1

  0
TEXT
  5
675
  8
┌▓È_1
  6
CONTINUOUS
 10
136.17826686309999
 20
-241.16710777323101
 30
0.0
 40
5.9972220420999998
  1
 ô·ü@ü@òt
  0
ENDBLK
  5
677
  8
0
  0
BLOCK
  8
0
  2
*U85
 70
     1
 10
0.0
 20
0.0
 30
0.0
  3
*U85
  1

  0
TEXT
  5
679
  8
┌▓È_1
  6
CONTINUOUS
 10
144.9475775194
 20
-292.6599408055107
 30
0.0
 40
10.794999837900001
  1
èöÄ«ë´Äð
  0
ENDBLK
  5
67B
  8
0
  0
BLOCK
  8
0
  2
*U86
 70
     1
 10
0.0
 20
0.0
 30
0.0
  3
*U86
  1

  0
TEXT
  5
67D
  8
┌▓È_1
  6
CONTINUOUS
 10
176.17826686309999
 20
-241.25843602767921
 30
0.0
 40
5.9972220420999998
  1
 ìÌü@ü@Ä┐
  0
ENDBLK
  5
67F
  8
0
  0
BLOCK
  8
0
  2
*U87
 70
     1
 10
0.0
 20
0.0
 30
0.0
  3
*U87
  1

  0
TEXT
  5
681
  8
┌▓È_1
  6
CONTINUOUS
 62
     5
 10
138.52687901386059
 20
-252.05967145470001
 30
0.0
 40
5.9972220420999998
  1
H16.4.13
  0
ENDBLK
  5
683
  8
0
  0
BLOCK
  8
0
  2
*U88
 70
     1
 10
0.0
 20
0.0
 30
0.0
  3
*U88
  1

  0
TEXT
  5
685
  8
┌▓È_1
  6
CONTINUOUS
 10
169.69387767180001
 20
-263.19755052471368
 30
0.0
 40
5.9972220420999998
  1
 ëÇî┤
  0
ENDBLK
  5
687
  8
0
  0
BLOCK
  8
0
  2
*U89
 70
     1
 10
0.0
 20
0.0
 30
0.0
  3
*U89
  1

  0
TEXT
  5
689
  8
┌▓È_1
  6
CONTINUOUS
 10
169.69387767180001
 20
-274.19755052471368
 30
0.0
 40
5.9972220420999998
  1
 ëÇî┤
  0
ENDBLK
  5
68B
  8
0
  0
BLOCK
  8
0
  2
*U90
 70
     1
 10
0.0
 20
0.0
 30
0.0
  3
*U90
  1

  0
TEXT
  5
68D
  8
┌▓È_1
  6
CONTINUOUS
 10
134.06790364579999
 20
-274.34976428212741
 30
0.0
 40
5.9972220420999998
  1
 É╗É}
  0
ENDBLK
  5
68F
  8
0
  0
BLOCK
  8
0
  2
*U91
 70
     1
 10
0.0
 20
0.0
 30
0.0
  3
*U91
  1

  0
TEXT
  5
691
  8
┌▓È_1
  6
CONTINUOUS
 10
134.06790364579999
 20
-263.28887877916191
 30
0.0
 40
5.9972220420999998
  1
 É¦îv
  0
ENDBLK
  5
693
  8
0
  0
BLOCK
  8
0
  2
*U92
 70
     1
 10
0.0
 20
0.0
 30
0.0
  3
*U92
  1

  0
TEXT
  5
695
  8
┌▓È_1
  6
CONTINUOUS
 62
     5
 10
137.27543106303301
 20
-81.336901887500005
 30
0.0
 40
7.1966662884000003
  1
éPéR
  0
ENDBLK
  5
697
  8
0
  0
BLOCK
  8
0
  2
*U93
 70
     1
 10
0.0
 20
0.0
 30
0.0
  3
*U93
  1

  0
TEXT
  5
699
  8
┌▓È_1
  6
CONTINUOUS
 62
     5
 10
141.67745282827261
 20
-154.29690188750001
 30
0.0
 40
7.1966662884000003
  1
éU
  0
ENDBLK
  5
69B
  8
0
  0
BLOCK
  8
0
  2
*U94
 70
     1
 10
0.0
 20
0.0
 30
0.0
  3
*U94
  1

  0
TEXT
  5
69D
  8
┌▓È_1
  6
CONTINUOUS
 62
     5
 10
141.56785892540361
 20
-142.13690188749999
 30
0.0
 40
7.1966662884000003
  1
éV
  0
ENDBLK
  5
69F
  8
0
  0
BLOCK
  8
0
  2
*U95
 70
     1
 10
0.0
 20
0.0
 30
0.0
  3
*U95
  1

  0
TEXT
  5
6A1
  8
┌▓È_1
  6
CONTINUOUS
 62
     5
 10
141.513061973969
 20
-129.97690188749999
 30
0.0
 40
7.1966662884000003
  1
éW
  0
ENDBLK
  5
6A3
  8
0
  0
BLOCK
  8
0
  2
*U96
 70
     1
 10
0.0
 20
0.0
 30
0.0
  3
*U96
  1

  0
TEXT
  5
6A5
  8
┌▓È_1
  6
CONTINUOUS
 62
     5
 10
141.5495932749254
 20
-117.81690188749999
 30
0.0
 40
7.1966662884000003
  1
éX
  0
ENDBLK
  5
6A7
  8
0
  0
BLOCK
  8
0
  2
*U97
 70
     1
 10
0.0
 20
0.0
 30
0.0
  3
*U97
  1

  0
TEXT
  5
6A9
  8
┌▓È_1
  6
CONTINUOUS
 62
     5
 10
137.31196236398929
 20
-105.6569018875
 30
0.0
 40
7.1966662884000003
  1
éPéP
  0
ENDBLK
  5
6AB
  8
0
  0
BLOCK
  8
0
  2
*U98
 70
     1
 10
0.0
 20
0.0
 30
0.0
  3
*U98
  1

  0
TEXT
  5
6AD
  8
┌▓È_1
  6
CONTINUOUS
 62
     5
 10
137.31196236398929
 20
-93.496901887499988
 30
0.0
 40
7.1966662884000003
  1
éPéQ
  0
ENDBLK
  5
6AF
  8
0
  0
BLOCK
  8
0
  2
*U99
 70
     1
 10
0.0
 20
0.0
 30
0.0
  3
*U99
  1

  0
TEXT
  5
6B1
  8
┌▓È_1
  6
CONTINUOUS
 62
     5
 10
141.56785892540361
 20
-178.61690188750001
 30
0.0
 40
7.1966662884000003
  1
éS
  0
ENDBLK
  5
6B3
  8
0
  0
BLOCK
  8
0
  2
*U100
 70
     1
 10
0.0
 20
0.0
 30
0.0
  3
*U100
  1

  0
TEXT
  5
6B5
  8
┌▓È_1
  6
CONTINUOUS
 10
-81.568626051408629
 20
83.698494079400007
 30
0.0
 40
7.1966662884000003
  1
12
  0
ENDBLK
  5
6B7
  8
0
  0
BLOCK
  8
0
  2
*U101
 70
     1
 10
0.0
 20
0.0
 30
0.0
  3
*U101
  1

  0
TEXT
  5
6B9
  8
┌▓È_1
  6
CONTINUOUS
 10
-79.050115185488835
 20
65.982435051600007
 30
0.0
 40
7.1966662884000003
  1
6
  0
ENDBLK
  5
6BB
  8
0
  0
BLOCK
  8
0
  2
*U102
 70
     1
 10
0.0
 20
0.0
 30
0.0
  3
*U102
  1

  0
TEXT
  5
6BD
  8
┌▓È_1
  6
CONTINUOUS
 10
-162.3103024742619
 20
175.9278789155735
 30
0.0
 40
4.0481248378999997
  1
S
 50
322.00000000092137
  0
ENDBLK
  5
6BF
  8
0
  0
BLOCK
  8
0
  2
*U103
 70
     1
 10
0.0
 20
0.0
 30
0.0
  3
*U103
  1

  0
TEXT
  5
6C1
  8
┌▓È_1
  6
CONTINUOUS
 10
-158.47108298720951
 20
172.77503090325911
 30
0.0
 40
4.0481248378999997
  1
E
 50
315.99999999677169
  0
ENDBLK
  5
6C3
  8
0
  0
BLOCK
  8
0
  2
*U104
 70
     1
 10
0.0
 20
0.0
 30
0.0
  3
*U104
  1

  0
TEXT
  5
6C5
  8
┌▓È_1
  6
CONTINUOUS
 10
-166.49853447383859
 20
178.69377543274331
 30
0.0
 40
4.0481248378999997
  1
O
 50
328.00000000293642
  0
ENDBLK
  5
6C7
  8
0
  0
BLOCK
  8
0
  2
*U105
 70
     1
 10
0.0
 20
0.0
 30
0.0
  3
*U105
  1

  0
TEXT
  5
6C9
  8
┌▓È_1
  6
CONTINUOUS
 62
     5
 10
141.98796888640149
 20
-215.0969018875
 30
0.0
 40
7.1966662884000003
  1
éP
  0
ENDBLK
  5
6CB
  8
0
  0
BLOCK
  8
0
  2
*U106
 70
     1
 10
0.0
 20
0.0
 30
0.0
  3
*U106
  1

  0
TEXT
  5
6CD
  8
┌▓È_1
  6
CONTINUOUS
 62
     5
 10
141.64092152731621
 20
-202.9369018875
 30
0.0
 40
7.1966662884000003
  1
éQ
  0
ENDBLK
  5
6CF
  8
0
  0
BLOCK
  8
0
  2
*U107
 70
     1
 10
0.0
 20
0.0
 30
0.0
  3
*U107
  1

  0
TEXT
  5
6D1
  8
┌▓È_1
  6
CONTINUOUS
 62
     5
 10
141.5495932749254
 20
-190.7769018875
 30
0.0
 40
7.1966662884000003
  1
éR
  0
ENDBLK
  5
6D3
  8
0
  0
BLOCK
  8
0
  2
*U108
 70
     1
 10
0.0
 20
0.0
 30
0.0
  3
*U108
  1

  0
TEXT
  5
6D5
  8
┌▓È_1
  6
CONTINUOUS
 10
-208.40324292251319
 20
181.9523457070988
 30
0.0
 40
4.0481248378999997
  1
N
 50
19.999999998341838
  0
ENDBLK
  5
6D7
  8
0
  0
BLOCK
  8
0
  2
*U109
 70
     1
 10
0.0
 20
0.0
 30
0.0
  3
*U109
  1

  0
TEXT
  5
6D9
  8
┌▓È_1
  6
CONTINUOUS
 10
-175.65367353017291
 20
182.8519454550939
 30
0.0
 40
4.0481248378999997
  1
C
 50
340.00000000165812
  0
ENDBLK
  5
6DB
  8
0
  0
BLOCK
  8
0
  2
*U110
 70
     1
 10
0.0
 20
0.0
 30
0.0
  3
*U110
  1

  0
TEXT
  5
6DD
  8
┌▓È_1
  6
CONTINUOUS
 10
-213.02410879827471
 20
179.84019125427039
 30
0.0
 40
4.0481248378999997
  1
E
 50
26.000000000541561
  0
ENDBLK
  5
6DF
  8
0
  0
BLOCK
  8
0
  2
*U111
 70
     1
 10
0.0
 20
0.0
 30
0.0
  3
*U111
  1

  0
TEXT
  5
6E1
  8
┌▓È_1
  6
CONTINUOUS
 10
-217.3521864670299
 20
177.27817485605161
 30
0.0
 40
4.0481248378999997
  1
P
 50
31.99999999706359
  0
ENDBLK
  5
6E3
  8
0
  0
BLOCK
  8
0
  2
*U112
 70
     1
 10
0.0
 20
0.0
 30
0.0
  3
*U112
  1

  0
TEXT
  5
6E5
  8
┌▓È_1
  6
CONTINUOUS
 10
-221.33145946545659
 20
174.321184180731
 30
0.0
 40
4.0481248378999997
  1
O
 50
37.999999999078653
  0
ENDBLK
  5
6E7
  8
0
  0
BLOCK
  8
0
  2
*U113
 70
     1
 10
0.0
 20
0.0
 30
0.0
  3
*U113
  1

  0
TEXT
  5
6E9
  8
┌▓È_1
  6
CONTINUOUS
 10
-79.013583884532494
 20
-107.196967435
 30
0.0
 40
7.1966662884000003
  1
9
  0
ENDBLK
  5
6EB
  8
0
  0
BLOCK
  8
0
  2
*U114
 70
     1
 10
0.0
 20
0.0
 30
0.0
  3
*U114
  1

  0
TEXT
  5
6ED
  8
┌▓È_1
  6
CONTINUOUS
 10
-233.87171513391269
 20
-236.34136229250001
 30
0.0
 40
5.9972220420999998
  1
2
  0
ENDBLK
  5
6EF
  8
0
  0
BLOCK
  8
0
  2
*U115
 70
     1
 10
0.0
 20
0.0
 30
0.0
  3
*U115
  1

  0
TEXT
  5
6F1
  8
┌▓È_1
  6
CONTINUOUS
 10
-212.1604248298261
 20
-258.12023230239998
 30
0.0
 40
5.9972220420999998
  1
éP
  0
ENDBLK
  5
6F3
  8
0
  0
BLOCK
  8
0
  2
*U116
 70
     1
 10
0.0
 20
0.0
 30
0.0
  3
*U116
  1

  0
TEXT
  5
6F5
  8
┌▓È_1
  6
CONTINUOUS
 62
     5
 10
141.67745282827261
 20
-166.4569018874999
 30
0.0
 40
7.1966662884000003
  1
éT
  0
ENDBLK
  5
6F7
  8
0
  0
BLOCK
  8
0
  2
*U117
 70
     1
 10
0.0
 20
0.0
 30
0.0
  3
*U117
  1

  0
TEXT
  5
6F9
  8
┌▓È_1
  6
CONTINUOUS
 62
     5
 10
369.86166581030147
 20
-166.4569018874999
 30
0.0
 40
7.1966662884000003
  1
éP
  0
ENDBLK
  5
6FB
  8
0
  0
BLOCK
  8
0
  2
*U118
 70
     1
 10
0.0
 20
0.0
 30
0.0
  3
*U118
  1

  0
TEXT
  5
6FD
  8
┌▓È_1
  6
CONTINUOUS
 10
-81.568626051408629
 20
-178.5504425526
 30
0.0
 40
7.1966662884000003
  1
11
  0
ENDBLK
  5
6FF
  8
0
  0
BLOCK
  8
0
  2
*U119
 70
     1
 10
0.0
 20
0.0
 30
0.0
  3
*U119
  1

  0
TEXT
  5
701
  8
┌▓È_1
  6
CONTINUOUS
 10
200.0195177250061
 20
31.503277736899999
 30
0.0
 40
7.1966662884000003
  1
13
  0
ENDBLK
  5
703
  8
0
  0
BLOCK
  8
0
  2
*U120
 70
     1
 10
0.0
 20
0.0
 30
0.0
  3
*U120
  1

  0
TEXT
  5
705
  8
┌▓È_1
  6
CONTINUOUS
 62
     5
 10
291.19017590651998
 20
233.0929904037416
 30
0.0
 40
5.9972220420999998
  1
Éíû@î­ìÀÆÃïL
  0
ENDBLK
  5
707
  8
0
  0
BLOCK
  8
0
  2
*U121
 70
     1
 10
0.0
 20
0.0
 30
0.0
  3
*U121
  1

  0
TEXT
  5
709
  8
┌▓È_1
  6
CONTINUOUS
 62
     5
 10
291.022740773365
 20
243.18431865818991
 30
0.0
 40
5.9972220420999998
  1
ò\ÄªôÓùeò¤ìX
  0
ENDBLK
  5
70B
  8
0
  0
BLOCK
  8
0
  2
*U122
 70
     1
 10
0.0
 20
0.0
 30
0.0
  3
*U122
  1

  0
TEXT
  5
70D
  8
┌▓È_1
  6
CONTINUOUS
 10
-78.830927379750761
 20
-161.36079411509999
 30
0.0
 40
7.1966662884000003
  1
4
  0
ENDBLK
  5
70F
  8
0
  0
BLOCK
  8
0
  2
*U123
 70
     1
 10
0.0
 20
0.0
 30
0.0
  3
*U123
  1

  0
TEXT
  5
711
  8
┌▓È_1
  6
CONTINUOUS
 10
-78.940521282619784
 20
-143.7425403517
 30
0.0
 40
7.1966662884000003
  1
3
  0
ENDBLK
  5
713
  8
0
  0
BLOCK
  8
0
  2
*U124
 70
     1
 10
0.0
 20
0.0
 30
0.0
  3
*U124
  1

  0
TEXT
  5
715
  8
┌▓È_1
  6
CONTINUOUS
 62
     5
 10
226.10712413306319
 20
-274.05967145469998
 30
0.0
 40
5.9972220420999998
  1
1üF2
  0
ENDBLK
  5
717
  8
0
  0
BLOCK
  8
0
  2
*U125
 70
     1
 10
0.0
 20
0.0
 30
0.0
  3
*U125
  1

  0
TEXT
  5
719
  8
┌▓È_1
  6
CONTINUOUS
 10
216.17826686309999
 20
-263.34976428212741
 30
0.0
 40
5.9972220420999998
  1
 Ä┌ü@ü@ôx
  0
ENDBLK
  5
71B
  8
0
  0
BLOCK
  8
0
  2
*U126
 70
     1
 10
0.0
 20
0.0
 30
0.0
  3
*U126
  1

  0
TEXT
  5
71D
  8
┌▓È_1
  6
CONTINUOUS
 10
216.17826686309999
 20
-241.38020703361019
 30
0.0
 40
5.9972220420999998
  1
 ö┬ü@ü@î·
  0
ENDBLK
  5
71F
  8
0
  0
BLOCK
  8
0
  2
*U127
 70
     1
 10
0.0
 20
0.0
 30
0.0
  3
*U127
  1

  0
TEXT
  5
721
  8
┌▓È_1
  6
CONTINUOUS
 10
138.30123697920001
 20
-227.0561389053274
 30
0.0
 40
5.9972220420999998
  1
É}öÈ          òi     û╝                 ü@ü@ ìÌ     Ä┐          Éöù╩
  0
ENDBLK
  5
723
  8
0
  0
BLOCK
  8
0
  2
*U128
 70
     1
 10
0.0
 20
0.0
 30
0.0
  3
*U128
  1

  0
TEXT
  5
725
  8
┌▓È_1
  6
CONTINUOUS
 10
-170.9806415985442
 20
181.02024266397419
 30
0.0
 40
4.0481248378999997
  1
L
 50
333.99999999945851
  0
ENDBLK
  5
727
  8
0
  0
BLOCK
  8
0
  2
*U129
 70
     1
 10
0.0
 20
0.0
 30
0.0
  3
*U129
  1

  0
TEXT
  5
729
  8
┌▓È_1
  6
CONTINUOUS
 62
     5
 10
155.93569878470001
 20
-80.924850397448225
 30
0.0
 40
5.3974999188999986
  1
ü@ü@ü@Æ¸é▀ï´
  0
ENDBLK
  5
72B
  8
0
  0
BLOCK
  8
0
  2
*U130
 70
     1
 10
0.0
 20
0.0
 30
0.0
  3
*U130
  1

  0
TEXT
  5
72D
  8
┌▓È_1
  6
CONTINUOUS
 62
     5
 10
155.93569878470001
 20
-93.084850397448207
 30
0.0
 40
5.3974999188999986
  1
ü@ü@ü@âzü[âXî┼ÆÞâoâôâh
  0
ENDBLK
  5
72F
  8
0
  0
BLOCK
  8
0
  2
*U131
 70
     1
 10
0.0
 20
0.0
 30
0.0
  3
*U131
  1

  0
TEXT
  5
731
  8
┌▓È_1
  6
CONTINUOUS
 62
     5
 10
155.93569878470001
 20
-166.01745192070251
 30
0.0
 40
5.3974999188999986
  1
ü@ü@ü@Å┴ûAèÃ
  0
ENDBLK
  5
733
  8
0
  0
BLOCK
  8
0
  2
*U132
 70
     1
 10
0.0
 20
0.0
 30
0.0
  3
*U132
  1

  0
TEXT
  5
735
  8
┌▓È_1
  6
CONTINUOUS
 62
     5
 10
155.93569878470001
 20
-177.98566258348271
 30
0.0
 40
5.3974999188999986
  1
ü@ü@ü@âIâÅâô
  0
ENDBLK
  5
737
  8
0
  0
BLOCK
  8
0
  2
*U133
 70
     1
 10
0.0
 20
0.0
 30
0.0
  3
*U133
  1

  0
TEXT
  5
739
  8
┌▓È_1
  6
CONTINUOUS
 62
     5
 10
155.93569878470001
 20
-190.2278580137197
 30
0.0
 40
5.3974999188999986
  1
ü@ü@ü@âVâàü[â^ü[
  0
ENDBLK
  5
73B
  8
0
  0
BLOCK
  8
0
  2
*U134
 70
     1
 10
0.0
 20
0.0
 30
0.0
  3
*U134
  1

  0
TEXT
  5
73D
  8
┌▓È_1
  6
CONTINUOUS
 62
     5
 10
155.93569878470001
 20
-202.1960686765
 30
0.0
 40
5.3974999188999986
  1
ü@ü@ü@û┌ÄM
  0
ENDBLK
  5
73F
  8
0
  0
BLOCK
  8
0
  2
*U135
 70
     1
 10
0.0
 20
0.0
 30
0.0
  3
*U135
  1

  0
TEXT
  5
741
  8
┌▓È_1
  6
CONTINUOUS
 62
     5
 10
155.93569878470001
 20
-214.73964735093961
 30
0.0
 40
5.3974999188999986
  1
ü@ü@ü@âìâbâNâlâW
  0
ENDBLK
  5
743
  8
0
  0
BLOCK
  8
0
  2
*U136
 70
     1
 10
0.0
 20
0.0
 30
0.0
  3
*U136
  1

  0
TEXT
  5
745
  8
┌▓È_1
  6
CONTINUOUS
 62
     5
 10
155.93569878470001
 20
-105.2174519207025
 30
0.0
 40
5.3974999188999986
  1
ü@ü@ü@Åcû{æ╠âPü[âX
  0
ENDBLK
  5
747
  8
0
  0
BLOCK
  8
0
  2
*U137
 70
     1
 10
0.0
 20
0.0
 30
0.0
  3
*U137
  1

  0
TEXT
  5
749
  8
┌▓È_1
  6
CONTINUOUS
 62
     5
 10
155.93569878470001
 20
-117.3774519207025
 30
0.0
 40
5.3974999188999986
  1
ü@ü@ü@ûhÅLâpâbâLâô
  0
ENDBLK
  5
74B
  8
0
  0
BLOCK
  8
0
  2
*U138
 70
     1
 10
0.0
 20
0.0
 30
0.0
  3
*U138
  1

  0
TEXT
  5
74D
  8
┌▓È_1
  6
CONTINUOUS
 62
     5
 10
155.93569878470001
 20
-129.4004595369741
 30
0.0
 40
5.3974999188999986
  1
ü@ü@ü@éoéoâpâbâLâô
  0
ENDBLK
  5
74F
  8
0
  0
BLOCK
  8
0
  2
*U139
 70
     1
 10
0.0
 20
0.0
 30
0.0
  3
*U139
  1

  0
TEXT
  5
751
  8
┌▓È_1
  6
CONTINUOUS
 62
     5
 10
155.93569878470001
 20
-141.64265496721109
 30
0.0
 40
5.3974999188999986
  1
ü@ü@ü@ûhÉàâpâbâLâô
  0
ENDBLK
  5
753
  8
0
  0
BLOCK
  8
0
  2
*U140
 70
     1
 10
0.0
 20
0.0
 30
0.0
  3
*U140
  1

  0
TEXT
  5
755
  8
┌▓È_1
  6
CONTINUOUS
 62
     5
 10
155.93569878470001
 20
-154.02184278117659
 30
0.0
 40
5.3974999188999986
  1
ü@ü@ü@örÉàâGâïâ{
  0
ENDBLK
  5
757
  8
0
  0
BLOCK
  8
0
  2
*U141
 70
     1
 10
0.0
 20
0.0
 30
0.0
  3
*U141
  1

  0
TEXT
  5
759
  8
┌▓È_1
  6
CONTINUOUS
 10
-78.940521282619784
 20
-125.4366809767
 30
0.0
 40
7.1966662884000003
  1
5
  0
ENDBLK
  5
75B
  8
0
  0
BLOCK
  8
0
  2
*U142
 70
     1
 10
0.0
 20
0.0
 30
0.0
  3
*U142
  1

  0
TEXT
  5
75D
  8
┌▓È_1
  6
CONTINUOUS
 10
-79.123177787401531
 20
-2.4867706776
 30
0.0
 40
7.1966662884000003
  1
7
  0
ENDBLK
  5
75F
  8
0
  0
BLOCK
  8
0
  2
*U143
 70
     1
 10
0.0
 20
0.0
 30
0.0
  3
*U143
  1

  0
TEXT
  5
761
  8
┌▓È_1
  6
CONTINUOUS
 10
-78.940521282619784
 20
14.5292449474
 30
0.0
 40
7.1966662884000003
  1
8
  0
ENDBLK
  5
763
  8
0
  0
BLOCK
  8
0
  2
*U144
 70
     1
 10
0.0
 20
0.0
 30
0.0
  3
*U144
  1

  0
TEXT
  5
765
  8
┌▓È_1
  6
CONTINUOUS
 10
-79.451959496008641
 20
31.9504038016
 30
0.0
 40
7.1966662884000003
  1
1
  0
ENDBLK
  5
767
  8
0
  0
BLOCK
  8
0
  2
*U145
 70
     1
 10
0.0
 20
0.0
 30
0.0
  3
*U145
  1

  0
TEXT
  5
769
  8
┌▓È_1
  6
CONTINUOUS
 10
-78.977052583576153
 20
48.966419426599998
 30
0.0
 40
7.1966662884000003
  1
2
  0
ENDBLK
  5
76B
  8
0
  0
ENDSEC
  0
SECTION
  2
ENTITIES
  0
INSERT
  5
30
  8
┌▓È_1
  2
CLUMP0
 10
0.0
 20
0.0
 30
0.0
  0
INSERT
  5
37
  8
0
  6
CONTINUOUS
  2
*U38
 10
0.0
 20
0.0
 30
0.0
  0
LINE
  5
38
  8
┌▓È_1
  6
STITCH
 10
415.97617187499992
 20
173.0
 30
0.0
 11
268.97617187499998
 21
173.0
 31
0.0
  0
INSERT
  5
39
  8
0
  6
CONTINUOUS
  2
*U39
 10
0.0
 20
0.0
 30
0.0
  0
INSERT
  5
3A
  8
0
  6
CONTINUOUS
  2
*U40
 10
0.0
 20
0.0
 30
0.0
  0
LINE
  5
3B
  8
┌▓È_1
 62
     5
 10
101.8807959257
 20
194.85271354069999
 30
0.0
 11
179.88079583109999
 21
194.85271354069999
 31
0.0
  0
LINE
  5
3C
  8
┌▓È_1
  6
BORDER
 62
     3
 10
67.753867540299993
 20
137.35271354310001
 30
0.0
 11
232.78013444539999
 21
137.35271352839999
 31
0.0
  0
LINE
  5
3D
  8
┌▓È_1
 62
     5
 10
198.58079587469999
 20
172.0527134964
 30
0.0
 11
217.1807959187
 21
172.0527134964
 31
0.0
  0
ARC
  5
3E
  8
┌▓È_1
 62
     5
 10
81.380795929300007
 20
211.8527135416
 30
0.0
 40
0.5
 50
359.99998491439999
 51
89.999999984799985
  0
ARC
  5
3F
  8
┌▓È_1
 62
     5
 10
78.380795929300007
 20
211.85271354240001
 30
0.0
 40
0.5
 50
89.999999984799985
 51
179.99999998480001
  0
LINE
  5
40
  8
┌▓È_1
 62
     5
 10
78.380795929399994
 20
212.35271354240001
 30
0.0
 11
81.380795929399994
 21
212.3527135416
 31
0.0
  0
LINE
  5
41
  8
┌▓È_1
 62
     5
 10
83.880795925699985
 20
197.35271354720001
 30
0.0
 11
94.880795925699999
 21
197.3527135443
 31
0.0
  0
ARC
  5
42
  8
┌▓È_1
 62
     5
 10
83.880795926199994
 20
199.35271354720001
 30
0.0
 40
2.0
 50
179.99999998480001
 51
269.99999998480001
  0
INSERT
  5
44
  8
┌▓È_1
 62
     5
  2
CLUMP1
 10
0.0
 20
0.0
 30
0.0
  0
ARC
  5
57
  8
┌▓È_1
 62
     5
 10
69.880795909699984
 20
207.8527135516
 30
0.0
 40
0.5
 50
0.0
 51
90.0
  0
LINE
  5
58
  8
┌▓È_1
 62
     5
 10
70.380795909699984
 20
207.8527135516
 30
0.0
 11
70.380795909699984
 21
194.8527135516
 31
0.0
  0
ARC
  5
59
  8
┌▓È_1
 62
     5
 10
65.880110677100006
 20
207.8527135516
 30
0.0
 40
0.5
 50
90.0
 51
183.0
  0
LINE
  5
5A
  8
┌▓È_1
 62
     5
 10
59.380110677099999
 20
154.65271355159999
 30
0.0
 11
65.380795909699984
 21
154.65271355159999
 31
0.0
  0
LINE
  5
5B
  8
┌▓È_1
 62
     5
 10
65.880110677100006
 20
208.3527135516
 30
0.0
 11
69.880795909699984
 21
208.3527135516
 31
0.0
  0
LINE
  5
5C
  8
┌▓È_1
 62
     5
 10
94.880795925699999
 20
197.3527135443
 30
0.0
 11
101.8807959257
 21
194.85271354069999
 31
0.0
  0
LINE
  5
5D
  8
┌▓È_1
 62
     5
 10
218.8807958866
 20
170.35271352839999
 30
0.0
 11
217.1807959187
 21
172.0527134964
 31
0.0
  0
LINE
  5
5E
  8
┌▓È_1
 62
     5
 10
218.8807958866
 20
170.35271356050001
 30
0.0
 11
221.8807958303
 21
170.35271356320001
 31
0.0
  0
LINE
  5
5F
  8
┌▓È_1
 62
     5
 10
196.8807958866
 20
170.35271350830001
 30
0.0
 11
198.58079587469999
 21
172.0527134964
 31
0.0
  0
LINE
  5
60
  8
┌▓È_1
 62
     5
 10
186.88079583109999
 20
170.35271352839999
 30
0.0
 11
196.88079591869999
 21
170.35271354029999
 31
0.0
  0
ARC
  5
61
  8
┌▓È_1
 62
     5
 10
179.88079583109999
 20
187.85271354069999
 30
0.0
 40
7.0
 50
0.0
 51
90.0
  0
LINE
  5
62
  8
┌▓È_1
 10
196.88079591869999
 20
170.35271354029999
 30
0.0
 11
218.8807958866
 21
170.35271356050001
 31
0.0
  0
LINE
  5
63
  8
┌▓È_1
 10
134.06790364579999
 20
220.97115885420001
 30
0.0
 11
134.06790364579999
 21
260.97115885419998
 31
0.0
  0
LINE
  5
64
  8
┌▓È_1
 10
154.06790364579999
 20
220.97115885420001
 30
0.0
 11
154.06790364579999
 21
260.97115885419998
 31
0.0
  0
LINE
  5
65
  8
┌▓È_1
 10
194.06790364579999
 20
220.97115885420001
 30
0.0
 11
194.06790364579999
 21
260.97115885419998
 31
0.0
  0
INSERT
  5
66
  8
0
  6
CONTINUOUS
  2
*U41
 10
0.0
 20
0.0
 30
0.0
  0
INSERT
  5
67
  8
0
  6
CONTINUOUS
  2
*U42
 10
0.0
 20
0.0
 30
0.0
  0
INSERT
  5
68
  8
0
  6
CONTINUOUS
  2
*U43
 10
0.0
 20
0.0
 30
0.0
  0
INSERT
  5
69
  8
0
  6
CONTINUOUS
  2
*U44
 10
0.0
 20
0.0
 30
0.0
  0
INSERT
  5
6A
  8
0
  6
CONTINUOUS
  2
*U45
 10
0.0
 20
0.0
 30
0.0
  0
LINE
  5
6B
  8
┌▓È_1
 62
     5
 10
83.880795904400003
 20
77.352713552500006
 30
0.0
 11
94.880795904399989
 21
77.352713551500003
 31
0.0
  0
LINE
  5
6C
  8
┌▓È_1
 62
     5
 10
70.380795909699984
 20
66.852713551600004
 30
0.0
 11
70.380795909699984
 21
79.852713551600004
 31
0.0
  0
ARC
  5
6D
  8
┌▓È_1
 62
     5
 10
69.880795909699984
 20
66.852713551600004
 30
0.0
 40
0.5
 50
270.0
 51
0.0
  0
ARC
  5
6E
  8
┌▓È_1
 62
     5
 10
65.880110677100006
 20
66.852713551600004
 30
0.0
 40
0.5
 50
179.99999672589999
 51
270.0
  0
LINE
  5
6F
  8
┌▓È_1
 62
     5
 10
65.880110677100006
 20
66.352713551600004
 30
0.0
 11
69.880795909699984
 21
66.352713551600004
 31
0.0
  0
LINE
  5
70
  8
┌▓È_1
 62
     5
 10
101.8807959257
 20
79.852713540699995
 30
0.0
 11
179.88079583109999
 21
79.852713540699995
 31
0.0
  0
LINE
  5
71
  8
┌▓È_1
 62
     5
 10
198.58079587469999
 20
102.6527135605
 30
0.0
 11
217.1807959187
 21
102.6527135605
 31
0.0
  0
LINE
  5
72
  8
┌▓È_1
 10
196.88079591869999
 20
104.3527135165
 30
0.0
 11
218.8807958866
 21
104.3527134964
 31
0.0
  0
LINE
  5
73
  8
┌▓È_1
 62
     5
 10
218.8807958866
 20
104.3527135284
 30
0.0
 11
217.1807959187
 21
102.6527135605
 31
0.0
  0
LINE
  5
74
  8
┌▓È_1
 62
     5
 10
218.8807958866
 20
104.3527134964
 30
0.0
 11
221.8807958875
 21
104.35271349360001
 31
0.0
  0
LINE
  5
75
  8
┌▓È_1
 62
     5
 10
196.8807958866
 20
104.35271354859999
 30
0.0
 11
198.58079587469999
 21
102.6527135605
 31
0.0
  0
LINE
  5
76
  8
┌▓È_1
 62
     5
 10
186.88079583109999
 20
104.3527135284
 30
0.0
 11
196.88079591869999
 21
104.3527135165
 31
0.0
  0
ARC
  5
77
  8
┌▓È_1
 62
     5
 10
179.88079583109999
 20
86.852713540699995
 30
0.0
 40
7.0
 50
270.0
 51
360.0
  0
LINE
  5
78
  8
┌▓È_1
 62
     5
 10
94.880795925699999
 20
77.352713544300002
 30
0.0
 11
101.8807959257
 21
79.852713540699995
 31
0.0
  0
LINE
  5
79
  8
┌▓È_1
 62
     5
 10
78.380795903100008
 20
62.352713542099998
 30
0.0
 11
81.380795903100008
 21
62.352713541900002
 31
0.0
  0
ARC
  5
7A
  8
┌▓È_1
 62
     5
 10
78.380795903199996
 20
62.852713542099991
 30
0.0
 40
0.5
 50
179.99999999490001
 51
269.99999999490001
  0
ARC
  5
7B
  8
┌▓È_1
 62
     5
 10
81.380795903199996
 20
62.852713541899988
 30
0.0
 40
0.5
 50
269.99999999490001
 51
0.0000150653
  0
ARC
  5
7C
  8
┌▓È_1
 62
     5
 10
83.880795904199999
 20
75.352713552500006
 30
0.0
 40
2.0
 50
89.999999994899994
 51
179.99999999490001
  0
INSERT
  5
7E
  8
┌▓È_1
  2
CLUMP2
 10
0.0
 20
0.0
 30
0.0
  0
INSERT
  5
85
  8
0
  6
CONTINUOUS
  2
*U47
 10
0.0
 20
0.0
 30
0.0
  0
LINE
  5
86
  8
┌▓È_1
 62
     5
 10
434.0679036457999
 20
-299.02884114580002
 30
0.0
 11
434.0679036457999
 21
-233.02884114579999
 31
0.0
  0
LINE
  5
87
  8
┌▓È_1
 10
294.06790364580002
 20
-233.02884114579999
 30
0.0
 11
294.06790364580002
 21
-299.02884114580002
 31
0.0
  0
LINE
  5
88
  8
┌▓È_1
 10
294.06790364580002
 20
-255.02884114579999
 30
0.0
 11
434.0679036457999
 21
-255.02884114579999
 31
0.0
  0
INSERT
  5
89
  8
0
  6
CONTINUOUS
  2
*U48
 10
0.0
 20
0.0
 30
0.0
  0
INSERT
  5
8A
  8
0
  6
CONTINUOUS
  2
*U49
 10
0.0
 20
0.0
 30
0.0
  0
INSERT
  5
8B
  8
0
  6
CONTINUOUS
  2
*U50
 10
0.0
 20
0.0
 30
0.0
  0
INSERT
  5
8C
  8
0
  6
CONTINUOUS
  2
*U51
 10
0.0
 20
0.0
 30
0.0
  0
INSERT
  5
8D
  8
0
  6
CONTINUOUS
  2
*U52
 10
0.0
 20
0.0
 30
0.0
  0
INSERT
  5
8E
  8
0
  6
CONTINUOUS
  2
*U53
 10
0.0
 20
0.0
 30
0.0
  0
INSERT
  5
8F
  8
0
  6
CONTINUOUS
  2
*U54
 10
0.0
 20
0.0
 30
0.0
  0
INSERT
  5
90
  8
0
  6
CONTINUOUS
  2
*U55
 10
0.0
 20
0.0
 30
0.0
  0
LINE
  5
91
  8
┌▓È_1
  6
STITCH
 10
268.97617187499998
 20
-56.0
 30
0.0
 11
415.97617187499992
 21
-56.0
 31
0.0
  0
INSERT
  5
92
  8
0
  6
CONTINUOUS
  2
*U56
 10
0.0
 20
0.0
 30
0.0
  0
INSERT
  5
93
  8
0
  6
CONTINUOUS
  2
*U57
 10
0.0
 20
0.0
 30
0.0
  0
INSERT
  5
94
  8
0
  6
CONTINUOUS
  2
*U58
 10
0.0
 20
0.0
 30
0.0
  0
INSERT
  5
95
  8
0
  6
CONTINUOUS
  2
*U59
 10
0.0
 20
0.0
 30
0.0
  0
INSERT
  5
96
  8
0
  6
CONTINUOUS
  2
*U60
 10
0.0
 20
0.0
 30
0.0
  0
INSERT
  5
97
  8
0
  6
CONTINUOUS
  2
*U61
 10
0.0
 20
0.0
 30
0.0
  0
INSERT
  5
98
  8
0
  6
CONTINUOUS
  2
*U62
 10
0.0
 20
0.0
 30
0.0
  0
INSERT
  5
99
  8
0
  6
CONTINUOUS
  2
*U63
 10
0.0
 20
0.0
 30
0.0
  0
INSERT
  5
9A
  8
0
  6
CONTINUOUS
  2
*U64
 10
0.0
 20
0.0
 30
0.0
  0
INSERT
  5
9B
  8
0
  6
CONTINUOUS
  2
*U65
 10
0.0
 20
0.0
 30
0.0
  0
INSERT
  5
9C
  8
0
  6
CONTINUOUS
  2
*U66
 10
0.0
 20
0.0
 30
0.0
  0
INSERT
  5
9D
  8
0
  6
CONTINUOUS
  2
*U67
 10
0.0
 20
0.0
 30
0.0
  0
INSERT
  5
9E
  8
0
  6
CONTINUOUS
  2
*U68
 10
0.0
 20
0.0
 30
0.0
  0
LINE
  5
9F
  8
┌▓È_1
 62
     5
 10
242.7104087436
 20
-285.10271574699999
 30
0.0
 11
241.57903789369999
 21
-286.2340865969
 31
0.0
  0
LINE
  5
A0
  8
┌▓È_1
 62
     5
 10
271.14537404020001
 20
-295.45849521209999
 30
0.0
 11
270.3396326948
 21
-292.65849521209998
 31
0.0
  0
LINE
  5
A1
  8
┌▓È_1
 62
     5
 10
269.3036795365
 20
-289.05849521210001
 30
0.0
 11
275.14537404020001
 21
-289.05849521210001
 31
0.0
  0
ARC
  5
A2
  8
┌▓È_1
 62
     5
 10
239.7104087436
 20
-283.45849521209999
 30
0.0
 40
11.0
 50
322.48761197969998
 51
0.0
  0
LINE
  5
A3
  8
┌▓È_1
 62
     5
 10
257.14537404020001
 20
-292.65849521209998
 30
0.0
 11
264.72404070689998
 21
-292.65849521209998
 31
0.0
  0
LINE
  5
A4
  8
┌▓È_1
 10
254.06790364579999
 20
-233.02884114579999
 30
0.0
 11
254.06790364579999
 21
-277.02884114580002
 31
0.0
  0
LINE
  5
A5
  8
┌▓È_1
 10
254.06790364579999
 20
-244.02884114579999
 30
0.0
 11
294.06790364580002
 21
-244.02884114579999
 31
0.0
  0
POLYLINE
  8
┌▓È_1
  5
76C
  62
5
  66
     1
 10
0.000000
 20
0.000000
 30
0.000000
  70
     8
  0
VERTEX
  8
┌▓È_1
  5
76D
 10
248.080
 20
-290.506
 30
0.000000
  70
    32
  0
VERTEX
  8
┌▓È_1
  5
76E
 10
248.115
 20
-290.515
 30
0.000000
  70
    32
  0
VERTEX
  8
┌▓È_1
  5
76F
 10
248.150
 20
-290.525
 30
0.000000
  70
    32
  0
VERTEX
  8
┌▓È_1
  5
770
 10
248.185
 20
-290.535
 30
0.000000
  70
    32
  0
VERTEX
  8
┌▓È_1
  5
771
 10
248.220
 20
-290.545
 30
0.000000
  70
    32
  0
VERTEX
  8
┌▓È_1
  5
772
 10
248.255
 20
-290.555
 30
0.000000
  70
    32
  0
VERTEX
  8
┌▓È_1
  5
773
 10
248.290
 20
-290.564
 30
0.000000
  70
    32
  0
VERTEX
  8
┌▓È_1
  5
774
 10
248.325
 20
-290.574
 30
0.000000
  70
    32
  0
VERTEX
  8
┌▓È_1
  5
775
 10
248.360
 20
-290.583
 30
0.000000
  70
    32
  0
VERTEX
  8
┌▓È_1
  5
776
 10
248.396
 20
-290.593
 30
0.000000
  70
    32
  0
VERTEX
  8
┌▓È_1
  5
777
 10
248.431
 20
-290.602
 30
0.000000
  70
    32
  0
VERTEX
  8
┌▓È_1
  5
778
 10
248.466
 20
-290.611
 30
0.000000
  70
    32
  0
VERTEX
  8
┌▓È_1
  5
779
 10
248.502
 20
-290.621
 30
0.000000
  70
    32
  0
VERTEX
  8
┌▓È_1
  5
77A
 10
248.537
 20
-290.630
 30
0.000000
  70
    32
  0
VERTEX
  8
┌▓È_1
  5
77B
 10
248.572
 20
-290.639
 30
0.000000
  70
    32
  0
VERTEX
  8
┌▓È_1
  5
77C
 10
248.608
 20
-290.648
 30
0.000000
  70
    32
  0
VERTEX
  8
┌▓È_1
  5
77D
 10
248.643
 20
-290.657
 30
0.000000
  70
    32
  0
VERTEX
  8
┌▓È_1
  5
77E
 10
248.679
 20
-290.667
 30
0.000000
  70
    32
  0
VERTEX
  8
┌▓È_1
  5
77F
 10
248.714
 20
-290.676
 30
0.000000
  70
    32
  0
VERTEX
  8
┌▓È_1
  5
780
 10
248.750
 20
-290.684
 30
0.000000
  70
    32
  0
VERTEX
  8
┌▓È_1
  5
781
 10
248.785
 20
-290.693
 30
0.000000
  70
    32
  0
VERTEX
  8
┌▓È_1
  5
782
 10
248.821
 20
-290.702
 30
0.000000
  70
    32
  0
VERTEX
  8
┌▓È_1
  5
783
 10
248.857
 20
-290.711
 30
0.000000
  70
    32
  0
VERTEX
  8
┌▓È_1
  5
784
 10
248.892
 20
-290.720
 30
0.000000
  70
    32
  0
VERTEX
  8
┌▓È_1
  5
785
 10
248.928
 20
-290.729
 30
0.000000
  70
    32
  0
VERTEX
  8
┌▓È_1
  5
786
 10
248.964
 20
-290.737
 30
0.000000
  70
    32
  0
VERTEX
  8
┌▓È_1
  5
787
 10
249.000
 20
-290.746
 30
0.000000
  70
    32
  0
VERTEX
  8
┌▓È_1
  5
788
 10
249.035
 20
-290.754
 30
0.000000
  70
    32
  0
VERTEX
  8
┌▓È_1
  5
789
 10
249.071
 20
-290.763
 30
0.000000
  70
    32
  0
VERTEX
  8
┌▓È_1
  5
78A
 10
249.107
 20
-290.771
 30
0.000000
  70
    32
  0
VERTEX
  8
┌▓È_1
  5
78B
 10
249.143
 20
-290.780
 30
0.000000
  70
    32
  0
VERTEX
  8
┌▓È_1
  5
78C
 10
249.179
 20
-290.788
 30
0.000000
  70
    32
  0
VERTEX
  8
┌▓È_1
  5
78D
 10
249.215
 20
-290.797
 30
0.000000
  70
    32
  0
VERTEX
  8
┌▓È_1
  5
78E
 10
249.251
 20
-290.805
 30
0.000000
  70
    32
  0
VERTEX
  8
┌▓È_1
  5
78F
 10
249.287
 20
-290.813
 30
0.000000
  70
    32
  0
VERTEX
  8
┌▓È_1
  5
790
 10
249.323
 20
-290.821
 30
0.000000
  70
    32
  0
VERTEX
  8
┌▓È_1
  5
791
 10
249.359
 20
-290.830
 30
0.000000
  70
    32
  0
VERTEX
  8
┌▓È_1
  5
792
 10
249.395
 20
-290.838
 30
0.000000
  70
    32
  0
VERTEX
  8
┌▓È_1
  5
793
 10
249.431
 20
-290.846
 30
0.000000
  70
    32
  0
VERTEX
  8
┌▓È_1
  5
794
 10
249.467
 20
-290.854
 30
0.000000
  70
    32
  0
VERTEX
  8
┌▓È_1
  5
795
 10
249.503
 20
-290.862
 30
0.000000
  70
    32
  0
VERTEX
  8
┌▓È_1
  5
796
 10
249.539
 20
-290.870
 30
0.000000
  70
    32
  0
VERTEX
  8
┌▓È_1
  5
797
 10
249.576
 20
-290.878
 30
0.000000
  70
    32
  0
VERTEX
  8
┌▓È_1
  5
798
 10
249.612
 20
-290.886
 30
0.000000
  70
    32
  0
VERTEX
  8
┌▓È_1
  5
799
 10
249.648
 20
-290.894
 30
0.000000
  70
    32
  0
VERTEX
  8
┌▓È_1
  5
79A
 10
249.684
 20
-290.901
 30
0.000000
  70
    32
  0
VERTEX
  8
┌▓È_1
  5
79B
 10
249.721
 20
-290.909
 30
0.000000
  70
    32
  0
VERTEX
  8
┌▓È_1
  5
79C
 10
249.757
 20
-290.917
 30
0.000000
  70
    32
  0
VERTEX
  8
┌▓È_1
  5
79D
 10
249.793
 20
-290.925
 30
0.000000
  70
    32
  0
VERTEX
  8
┌▓È_1
  5
79E
 10
249.830
 20
-290.932
 30
0.000000
  70
    32
  0
VERTEX
  8
┌▓È_1
  5
79F
 10
249.866
 20
-290.940
 30
0.000000
  70
    32
  0
VERTEX
  8
┌▓È_1
  5
7A0
 10
249.902
 20
-290.948
 30
0.000000
  70
    32
  0
VERTEX
  8
┌▓È_1
  5
7A1
 10
249.939
 20
-290.955
 30
0.000000
  70
    32
  0
VERTEX
  8
┌▓È_1
  5
7A2
 10
249.975
 20
-290.963
 30
0.000000
  70
    32
  0
VERTEX
  8
┌▓È_1
  5
7A3
 10
250.012
 20
-290.970
 30
0.000000
  70
    32
  0
VERTEX
  8
┌▓È_1
  5
7A4
 10
250.048
 20
-290.978
 30
0.000000
  70
    32
  0
VERTEX
  8
┌▓È_1
  5
7A5
 10
250.085
 20
-290.985
 30
0.000000
  70
    32
  0
VERTEX
  8
┌▓È_1
  5
7A6
 10
250.121
 20
-290.993
 30
0.000000
  70
    32
  0
VERTEX
  8
┌▓È_1
  5
7A7
 10
250.158
 20
-291.000
 30
0.000000
  70
    32
  0
VERTEX
  8
┌▓È_1
  5
7A8
 10
250.194
 20
-291.007
 30
0.000000
  70
    32
  0
VERTEX
  8
┌▓È_1
  5
7A9
 10
250.231
 20
-291.015
 30
0.000000
  70
    32
  0
VERTEX
  8
┌▓È_1
  5
7AA
 10
250.267
 20
-291.022
 30
0.000000
  70
    32
  0
VERTEX
  8
┌▓È_1
  5
7AB
 10
250.304
 20
-291.029
 30
0.000000
  70
    32
  0
VERTEX
  8
┌▓È_1
  5
7AC
 10
250.341
 20
-291.036
 30
0.000000
  70
    32
  0
VERTEX
  8
┌▓È_1
  5
7AD
 10
250.377
 20
-291.044
 30
0.000000
  70
    32
  0
VERTEX
  8
┌▓È_1
  5
7AE
 10
250.414
 20
-291.051
 30
0.000000
  70
    32
  0
VERTEX
  8
┌▓È_1
  5
7AF
 10
250.451
 20
-291.058
 30
0.000000
  70
    32
  0
VERTEX
  8
┌▓È_1
  5
7B0
 10
250.487
 20
-291.065
 30
0.000000
  70
    32
  0
VERTEX
  8
┌▓È_1
  5
7B1
 10
250.524
 20
-291.072
 30
0.000000
  70
    32
  0
VERTEX
  8
┌▓È_1
  5
7B2
 10
250.561
 20
-291.079
 30
0.000000
  70
    32
  0
VERTEX
  8
┌▓È_1
  5
7B3
 10
250.598
 20
-291.086
 30
0.000000
  70
    32
  0
VERTEX
  8
┌▓È_1
  5
7B4
 10
250.634
 20
-291.093
 30
0.000000
  70
    32
  0
VERTEX
  8
┌▓È_1
  5
7B5
 10
250.671
 20
-291.100
 30
0.000000
  70
    32
  0
VERTEX
  8
┌▓È_1
  5
7B6
 10
250.708
 20
-291.107
 30
0.000000
  70
    32
  0
VERTEX
  8
┌▓È_1
  5
7B7
 10
250.745
 20
-291.114
 30
0.000000
  70
    32
  0
VERTEX
  8
┌▓È_1
  5
7B8
 10
250.782
 20
-291.121
 30
0.000000
  70
    32
  0
VERTEX
  8
┌▓È_1
  5
7B9
 10
250.818
 20
-291.128
 30
0.000000
  70
    32
  0
VERTEX
  8
┌▓È_1
  5
7BA
 10
250.855
 20
-291.135
 30
0.000000
  70
    32
  0
VERTEX
  8
┌▓È_1
  5
7BB
 10
250.892
 20
-291.142
 30
0.000000
  70
    32
  0
VERTEX
  8
┌▓È_1
  5
7BC
 10
250.929
 20
-291.148
 30
0.000000
  70
    32
  0
VERTEX
  8
┌▓È_1
  5
7BD
 10
250.966
 20
-291.155
 30
0.000000
  70
    32
  0
VERTEX
  8
┌▓È_1
  5
7BE
 10
251.003
 20
-291.162
 30
0.000000
  70
    32
  0
VERTEX
  8
┌▓È_1
  5
7BF
 10
251.040
 20
-291.169
 30
0.000000
  70
    32
  0
VERTEX
  8
┌▓È_1
  5
7C0
 10
251.077
 20
-291.175
 30
0.000000
  70
    32
  0
VERTEX
  8
┌▓È_1
  5
7C1
 10
251.114
 20
-291.182
 30
0.000000
  70
    32
  0
VERTEX
  8
┌▓È_1
  5
7C2
 10
251.151
 20
-291.189
 30
0.000000
  70
    32
  0
VERTEX
  8
┌▓È_1
  5
7C3
 10
251.188
 20
-291.196
 30
0.000000
  70
    32
  0
VERTEX
  8
┌▓È_1
  5
7C4
 10
251.225
 20
-291.202
 30
0.000000
  70
    32
  0
VERTEX
  8
┌▓È_1
  5
7C5
 10
251.262
 20
-291.209
 30
0.000000
  70
    32
  0
VERTEX
  8
┌▓È_1
  5
7C6
 10
251.299
 20
-291.215
 30
0.000000
  70
    32
  0
VERTEX
  8
┌▓È_1
  5
7C7
 10
251.336
 20
-291.222
 30
0.000000
  70
    32
  0
VERTEX
  8
┌▓È_1
  5
7C8
 10
251.373
 20
-291.229
 30
0.000000
  70
    32
  0
VERTEX
  8
┌▓È_1
  5
7C9
 10
251.410
 20
-291.235
 30
0.000000
  70
    32
  0
VERTEX
  8
┌▓È_1
  5
7CA
 10
251.447
 20
-291.242
 30
0.000000
  70
    32
  0
VERTEX
  8
┌▓È_1
  5
7CB
 10
251.484
 20
-291.248
 30
0.000000
  70
    32
  0
VERTEX
  8
┌▓È_1
  5
7CC
 10
251.521
 20
-291.255
 30
0.000000
  70
    32
  0
VERTEX
  8
┌▓È_1
  5
7CD
 10
251.558
 20
-291.261
 30
0.000000
  70
    32
  0
VERTEX
  8
┌▓È_1
  5
7CE
 10
251.595
 20
-291.268
 30
0.000000
  70
    32
  0
VERTEX
  8
┌▓È_1
  5
7CF
 10
251.632
 20
-291.274
 30
0.000000
  70
    32
  0
VERTEX
  8
┌▓È_1
  5
7D0
 10
251.669
 20
-291.281
 30
0.000000
  70
    32
  0
VERTEX
  8
┌▓È_1
  5
7D1
 10
251.706
 20
-291.287
 30
0.000000
  70
    32
  0
VERTEX
  8
┌▓È_1
  5
7D2
 10
251.744
 20
-291.294
 30
0.000000
  70
    32
  0
VERTEX
  8
┌▓È_1
  5
7D3
 10
251.781
 20
-291.300
 30
0.000000
  70
    32
  0
VERTEX
  8
┌▓È_1
  5
7D4
 10
251.818
 20
-291.307
 30
0.000000
  70
    32
  0
VERTEX
  8
┌▓È_1
  5
7D5
 10
251.855
 20
-291.313
 30
0.000000
  70
    32
  0
VERTEX
  8
┌▓È_1
  5
7D6
 10
251.892
 20
-291.319
 30
0.000000
  70
    32
  0
VERTEX
  8
┌▓È_1
  5
7D7
 10
251.929
 20
-291.326
 30
0.000000
  70
    32
  0
VERTEX
  8
┌▓È_1
  5
7D8
 10
251.966
 20
-291.332
 30
0.000000
  70
    32
  0
VERTEX
  8
┌▓È_1
  5
7D9
 10
252.004
 20
-291.339
 30
0.000000
  70
    32
  0
VERTEX
  8
┌▓È_1
  5
7DA
 10
252.041
 20
-291.345
 30
0.000000
  70
    32
  0
VERTEX
  8
┌▓È_1
  5
7DB
 10
252.078
 20
-291.351
 30
0.000000
  70
    32
  0
VERTEX
  8
┌▓È_1
  5
7DC
 10
252.115
 20
-291.358
 30
0.000000
  70
    32
  0
VERTEX
  8
┌▓È_1
  5
7DD
 10
252.152
 20
-291.364
 30
0.000000
  70
    32
  0
VERTEX
  8
┌▓È_1
  5
7DE
 10
252.189
 20
-291.370
 30
0.000000
  70
    32
  0
VERTEX
  8
┌▓È_1
  5
7DF
 10
252.227
 20
-291.377
 30
0.000000
  70
    32
  0
VERTEX
  8
┌▓È_1
  5
7E0
 10
252.264
 20
-291.383
 30
0.000000
  70
    32
  0
VERTEX
  8
┌▓È_1
  5
7E1
 10
252.301
 20
-291.389
 30
0.000000
  70
    32
  0
VERTEX
  8
┌▓È_1
  5
7E2
 10
252.338
 20
-291.396
 30
0.000000
  70
    32
  0
VERTEX
  8
┌▓È_1
  5
7E3
 10
252.375
 20
-291.402
 30
0.000000
  70
    32
  0
VERTEX
  8
┌▓È_1
  5
7E4
 10
252.413
 20
-291.408
 30
0.000000
  70
    32
  0
VERTEX
  8
┌▓È_1
  5
7E5
 10
252.450
 20
-291.414
 30
0.000000
  70
    32
  0
VERTEX
  8
┌▓È_1
  5
7E6
 10
252.487
 20
-291.421
 30
0.000000
  70
    32
  0
VERTEX
  8
┌▓È_1
  5
7E7
 10
252.524
 20
-291.427
 30
0.000000
  70
    32
  0
VERTEX
  8
┌▓È_1
  5
7E8
 10
252.562
 20
-291.433
 30
0.000000
  70
    32
  0
VERTEX
  8
┌▓È_1
  5
7E9
 10
252.599
 20
-291.440
 30
0.000000
  70
    32
  0
VERTEX
  8
┌▓È_1
  5
7EA
 10
252.636
 20
-291.446
 30
0.000000
  70
    32
  0
VERTEX
  8
┌▓È_1
  5
7EB
 10
252.673
 20
-291.452
 30
0.000000
  70
    32
  0
VERTEX
  8
┌▓È_1
  5
7EC
 10
252.710
 20
-291.458
 30
0.000000
  70
    32
  0
SEQEND
  8
┌▓È_1
  5
7ED
  0
POLYLINE
  8
┌▓È_1
  5
7EE
  62
5
  66
     1
 10
0.000000
 20
0.000000
 30
0.000000
  70
     8
  0
VERTEX
  8
┌▓È_1
  5
7EF
 10
241.579
 20
-286.234
 30
0.000000
  70
    32
  0
VERTEX
  8
┌▓È_1
  5
7F0
 10
241.592
 20
-286.249
 30
0.000000
  70
    32
  0
VERTEX
  8
┌▓È_1
  5
7F1
 10
241.605
 20
-286.264
 30
0.000000
  70
    32
  0
VERTEX
  8
┌▓È_1
  5
7F2
 10
241.619
 20
-286.278
 30
0.000000
  70
    32
  0
VERTEX
  8
┌▓È_1
  5
7F3
 10
241.632
 20
-286.293
 30
0.000000
  70
    32
  0
VERTEX
  8
┌▓È_1
  5
7F4
 10
241.645
 20
-286.308
 30
0.000000
  70
    32
  0
VERTEX
  8
┌▓È_1
  5
7F5
 10
241.658
 20
-286.322
 30
0.000000
  70
    32
  0
VERTEX
  8
┌▓È_1
  5
7F6
 10
241.671
 20
-286.337
 30
0.000000
  70
    32
  0
VERTEX
  8
┌▓È_1
  5
7F7
 10
241.685
 20
-286.352
 30
0.000000
  70
    32
  0
VERTEX
  8
┌▓È_1
  5
7F8
 10
241.698
 20
-286.367
 30
0.000000
  70
    32
  0
VERTEX
  8
┌▓È_1
  5
7F9
 10
241.711
 20
-286.381
 30
0.000000
  70
    32
  0
VERTEX
  8
┌▓È_1
  5
7FA
 10
241.724
 20
-286.396
 30
0.000000
  70
    32
  0
VERTEX
  8
┌▓È_1
  5
7FB
 10
241.737
 20
-286.411
 30
0.000000
  70
    32
  0
VERTEX
  8
┌▓È_1
  5
7FC
 10
241.751
 20
-286.425
 30
0.000000
  70
    32
  0
VERTEX
  8
┌▓È_1
  5
7FD
 10
241.764
 20
-286.440
 30
0.000000
  70
    32
  0
VERTEX
  8
┌▓È_1
  5
7FE
 10
241.777
 20
-286.455
 30
0.000000
  70
    32
  0
VERTEX
  8
┌▓È_1
  5
7FF
 10
241.790
 20
-286.469
 30
0.000000
  70
    32
  0
VERTEX
  8
┌▓È_1
  5
800
 10
241.804
 20
-286.484
 30
0.000000
  70
    32
  0
VERTEX
  8
┌▓È_1
  5
801
 10
241.817
 20
-286.499
 30
0.000000
  70
    32
  0
VERTEX
  8
┌▓È_1
  5
802
 10
241.830
 20
-286.513
 30
0.000000
  70
    32
  0
VERTEX
  8
┌▓È_1
  5
803
 10
241.843
 20
-286.528
 30
0.000000
  70
    32
  0
VERTEX
  8
┌▓È_1
  5
804
 10
241.856
 20
-286.543
 30
0.000000
  70
    32
  0
VERTEX
  8
┌▓È_1
  5
805
 10
241.870
 20
-286.557
 30
0.000000
  70
    32
  0
VERTEX
  8
┌▓È_1
  5
806
 10
241.883
 20
-286.572
 30
0.000000
  70
    32
  0
VERTEX
  8
┌▓È_1
  5
807
 10
241.896
 20
-286.587
 30
0.000000
  70
    32
  0
VERTEX
  8
┌▓È_1
  5
808
 10
241.909
 20
-286.601
 30
0.000000
  70
    32
  0
VERTEX
  8
┌▓È_1
  5
809
 10
241.923
 20
-286.616
 30
0.000000
  70
    32
  0
VERTEX
  8
┌▓È_1
  5
80A
 10
241.936
 20
-286.631
 30
0.000000
  70
    32
  0
VERTEX
  8
┌▓È_1
  5
80B
 10
241.949
 20
-286.645
 30
0.000000
  70
    32
  0
VERTEX
  8
┌▓È_1
  5
80C
 10
241.962
 20
-286.660
 30
0.000000
  70
    32
  0
VERTEX
  8
┌▓È_1
  5
80D
 10
241.976
 20
-286.675
 30
0.000000
  70
    32
  0
VERTEX
  8
┌▓È_1
  5
80E
 10
241.989
 20
-286.689
 30
0.000000
  70
    32
  0
VERTEX
  8
┌▓È_1
  5
80F
 10
242.002
 20
-286.704
 30
0.000000
  70
    32
  0
VERTEX
  8
┌▓È_1
  5
810
 10
242.015
 20
-286.718
 30
0.000000
  70
    32
  0
VERTEX
  8
┌▓È_1
  5
811
 10
242.029
 20
-286.733
 30
0.000000
  70
    32
  0
VERTEX
  8
┌▓È_1
  5
812
 10
242.042
 20
-286.748
 30
0.000000
  70
    32
  0
VERTEX
  8
┌▓È_1
  5
813
 10
242.055
 20
-286.762
 30
0.000000
  70
    32
  0
VERTEX
  8
┌▓È_1
  5
814
 10
242.069
 20
-286.777
 30
0.000000
  70
    32
  0
VERTEX
  8
┌▓È_1
  5
815
 10
242.082
 20
-286.791
 30
0.000000
  70
    32
  0
VERTEX
  8
┌▓È_1
  5
816
 10
242.095
 20
-286.806
 30
0.000000
  70
    32
  0
VERTEX
  8
┌▓È_1
  5
817
 10
242.108
 20
-286.820
 30
0.000000
  70
    32
  0
VERTEX
  8
┌▓È_1
  5
818
 10
242.122
 20
-286.835
 30
0.000000
  70
    32
  0
VERTEX
  8
┌▓È_1
  5
819
 10
242.135
 20
-286.849
 30
0.000000
  70
    32
  0
VERTEX
  8
┌▓È_1
  5
81A
 10
242.148
 20
-286.864
 30
0.000000
  70
    32
  0
VERTEX
  8
┌▓È_1
  5
81B
 10
242.162
 20
-286.878
 30
0.000000
  70
    32
  0
VERTEX
  8
┌▓È_1
  5
81C
 10
242.175
 20
-286.893
 30
0.000000
  70
    32
  0
VERTEX
  8
┌▓È_1
  5
81D
 10
242.188
 20
-286.907
 30
0.000000
  70
    32
  0
VERTEX
  8
┌▓È_1
  5
81E
 10
242.202
 20
-286.922
 30
0.000000
  70
    32
  0
VERTEX
  8
┌▓È_1
  5
81F
 10
242.215
 20
-286.936
 30
0.000000
  70
    32
  0
VERTEX
  8
┌▓È_1
  5
820
 10
242.228
 20
-286.951
 30
0.000000
  70
    32
  0
VERTEX
  8
┌▓È_1
  5
821
 10
242.242
 20
-286.965
 30
0.000000
  70
    32
  0
VERTEX
  8
┌▓È_1
  5
822
 10
242.255
 20
-286.980
 30
0.000000
  70
    32
  0
VERTEX
  8
┌▓È_1
  5
823
 10
242.269
 20
-286.994
 30
0.000000
  70
    32
  0
VERTEX
  8
┌▓È_1
  5
824
 10
242.282
 20
-287.009
 30
0.000000
  70
    32
  0
VERTEX
  8
┌▓È_1
  5
825
 10
242.295
 20
-287.023
 30
0.000000
  70
    32
  0
VERTEX
  8
┌▓È_1
  5
826
 10
242.309
 20
-287.037
 30
0.000000
  70
    32
  0
VERTEX
  8
┌▓È_1
  5
827
 10
242.322
 20
-287.052
 30
0.000000
  70
    32
  0
VERTEX
  8
┌▓È_1
  5
828
 10
242.336
 20
-287.066
 30
0.000000
  70
    32
  0
VERTEX
  8
┌▓È_1
  5
829
 10
242.349
 20
-287.081
 30
0.000000
  70
    32
  0
VERTEX
  8
┌▓È_1
  5
82A
 10
242.362
 20
-287.095
 30
0.000000
  70
    32
  0
VERTEX
  8
┌▓È_1
  5
82B
 10
242.376
 20
-287.109
 30
0.000000
  70
    32
  0
VERTEX
  8
┌▓È_1
  5
82C
 10
242.389
 20
-287.123
 30
0.000000
  70
    32
  0
VERTEX
  8
┌▓È_1
  5
82D
 10
242.403
 20
-287.138
 30
0.000000
  70
    32
  0
VERTEX
  8
┌▓È_1
  5
82E
 10
242.416
 20
-287.152
 30
0.000000
  70
    32
  0
VERTEX
  8
┌▓È_1
  5
82F
 10
242.430
 20
-287.166
 30
0.000000
  70
    32
  0
VERTEX
  8
┌▓È_1
  5
830
 10
242.443
 20
-287.181
 30
0.000000
  70
    32
  0
VERTEX
  8
┌▓È_1
  5
831
 10
242.457
 20
-287.195
 30
0.000000
  70
    32
  0
VERTEX
  8
┌▓È_1
  5
832
 10
242.470
 20
-287.209
 30
0.000000
  70
    32
  0
VERTEX
  8
┌▓È_1
  5
833
 10
242.484
 20
-287.223
 30
0.000000
  70
    32
  0
VERTEX
  8
┌▓È_1
  5
834
 10
242.497
 20
-287.238
 30
0.000000
  70
    32
  0
VERTEX
  8
┌▓È_1
  5
835
 10
242.511
 20
-287.252
 30
0.000000
  70
    32
  0
VERTEX
  8
┌▓È_1
  5
836
 10
242.524
 20
-287.266
 30
0.000000
  70
    32
  0
VERTEX
  8
┌▓È_1
  5
837
 10
242.538
 20
-287.280
 30
0.000000
  70
    32
  0
VERTEX
  8
┌▓È_1
  5
838
 10
242.551
 20
-287.294
 30
0.000000
  70
    32
  0
VERTEX
  8
┌▓È_1
  5
839
 10
242.565
 20
-287.308
 30
0.000000
  70
    32
  0
VERTEX
  8
┌▓È_1
  5
83A
 10
242.579
 20
-287.322
 30
0.000000
  70
    32
  0
VERTEX
  8
┌▓È_1
  5
83B
 10
242.592
 20
-287.336
 30
0.000000
  70
    32
  0
VERTEX
  8
┌▓È_1
  5
83C
 10
242.606
 20
-287.351
 30
0.000000
  70
    32
  0
VERTEX
  8
┌▓È_1
  5
83D
 10
242.619
 20
-287.365
 30
0.000000
  70
    32
  0
VERTEX
  8
┌▓È_1
  5
83E
 10
242.633
 20
-287.379
 30
0.000000
  70
    32
  0
VERTEX
  8
┌▓È_1
  5
83F
 10
242.647
 20
-287.393
 30
0.000000
  70
    32
  0
VERTEX
  8
┌▓È_1
  5
840
 10
242.660
 20
-287.407
 30
0.000000
  70
    32
  0
VERTEX
  8
┌▓È_1
  5
841
 10
242.674
 20
-287.421
 30
0.000000
  70
    32
  0
VERTEX
  8
┌▓È_1
  5
842
 10
242.688
 20
-287.435
 30
0.000000
  70
    32
  0
VERTEX
  8
┌▓È_1
  5
843
 10
242.701
 20
-287.449
 30
0.000000
  70
    32
  0
VERTEX
  8
┌▓È_1
  5
844
 10
242.715
 20
-287.463
 30
0.000000
  70
    32
  0
VERTEX
  8
┌▓È_1
  5
845
 10
242.729
 20
-287.476
 30
0.000000
  70
    32
  0
VERTEX
  8
┌▓È_1
  5
846
 10
242.742
 20
-287.490
 30
0.000000
  70
    32
  0
VERTEX
  8
┌▓È_1
  5
847
 10
242.756
 20
-287.504
 30
0.000000
  70
    32
  0
VERTEX
  8
┌▓È_1
  5
848
 10
242.770
 20
-287.518
 30
0.000000
  70
    32
  0
VERTEX
  8
┌▓È_1
  5
849
 10
242.783
 20
-287.532
 30
0.000000
  70
    32
  0
VERTEX
  8
┌▓È_1
  5
84A
 10
242.797
 20
-287.546
 30
0.000000
  70
    32
  0
VERTEX
  8
┌▓È_1
  5
84B
 10
242.811
 20
-287.560
 30
0.000000
  70
    32
  0
VERTEX
  8
┌▓È_1
  5
84C
 10
242.825
 20
-287.573
 30
0.000000
  70
    32
  0
VERTEX
  8
┌▓È_1
  5
84D
 10
242.839
 20
-287.587
 30
0.000000
  70
    32
  0
VERTEX
  8
┌▓È_1
  5
84E
 10
242.852
 20
-287.601
 30
0.000000
  70
    32
  0
VERTEX
  8
┌▓È_1
  5
84F
 10
242.866
 20
-287.614
 30
0.000000
  70
    32
  0
VERTEX
  8
┌▓È_1
  5
850
 10
242.880
 20
-287.628
 30
0.000000
  70
    32
  0
VERTEX
  8
┌▓È_1
  5
851
 10
242.894
 20
-287.642
 30
0.000000
  70
    32
  0
VERTEX
  8
┌▓È_1
  5
852
 10
242.908
 20
-287.656
 30
0.000000
  70
    32
  0
VERTEX
  8
┌▓È_1
  5
853
 10
242.922
 20
-287.669
 30
0.000000
  70
    32
  0
VERTEX
  8
┌▓È_1
  5
854
 10
242.936
 20
-287.683
 30
0.000000
  70
    32
  0
VERTEX
  8
┌▓È_1
  5
855
 10
242.949
 20
-287.696
 30
0.000000
  70
    32
  0
VERTEX
  8
┌▓È_1
  5
856
 10
242.963
 20
-287.710
 30
0.000000
  70
    32
  0
VERTEX
  8
┌▓È_1
  5
857
 10
242.977
 20
-287.723
 30
0.000000
  70
    32
  0
VERTEX
  8
┌▓È_1
  5
858
 10
242.991
 20
-287.737
 30
0.000000
  70
    32
  0
VERTEX
  8
┌▓È_1
  5
859
 10
243.005
 20
-287.750
 30
0.000000
  70
    32
  0
VERTEX
  8
┌▓È_1
  5
85A
 10
243.019
 20
-287.764
 30
0.000000
  70
    32
  0
VERTEX
  8
┌▓È_1
  5
85B
 10
243.033
 20
-287.777
 30
0.000000
  70
    32
  0
VERTEX
  8
┌▓È_1
  5
85C
 10
243.047
 20
-287.791
 30
0.000000
  70
    32
  0
VERTEX
  8
┌▓È_1
  5
85D
 10
243.061
 20
-287.804
 30
0.000000
  70
    32
  0
VERTEX
  8
┌▓È_1
  5
85E
 10
243.075
 20
-287.818
 30
0.000000
  70
    32
  0
VERTEX
  8
┌▓È_1
  5
85F
 10
243.089
 20
-287.831
 30
0.000000
  70
    32
  0
VERTEX
  8
┌▓È_1
  5
860
 10
243.103
 20
-287.844
 30
0.000000
  70
    32
  0
VERTEX
  8
┌▓È_1
  5
861
 10
243.117
 20
-287.858
 30
0.000000
  70
    32
  0
VERTEX
  8
┌▓È_1
  5
862
 10
243.131
 20
-287.871
 30
0.000000
  70
    32
  0
VERTEX
  8
┌▓È_1
  5
863
 10
243.146
 20
-287.884
 30
0.000000
  70
    32
  0
VERTEX
  8
┌▓È_1
  5
864
 10
243.160
 20
-287.897
 30
0.000000
  70
    32
  0
VERTEX
  8
┌▓È_1
  5
865
 10
243.174
 20
-287.911
 30
0.000000
  70
    32
  0
VERTEX
  8
┌▓È_1
  5
866
 10
243.188
 20
-287.924
 30
0.000000
  70
    32
  0
VERTEX
  8
┌▓È_1
  5
867
 10
243.202
 20
-287.937
 30
0.000000
  70
    32
  0
VERTEX
  8
┌▓È_1
  5
868
 10
243.216
 20
-287.950
 30
0.000000
  70
    32
  0
VERTEX
  8
┌▓È_1
  5
869
 10
243.231
 20
-287.963
 30
0.000000
  70
    32
  0
VERTEX
  8
┌▓È_1
  5
86A
 10
243.245
 20
-287.976
 30
0.000000
  70
    32
  0
VERTEX
  8
┌▓È_1
  5
86B
 10
243.259
 20
-287.989
 30
0.000000
  70
    32
  0
VERTEX
  8
┌▓È_1
  5
86C
 10
243.273
 20
-288.002
 30
0.000000
  70
    32
  0
VERTEX
  8
┌▓È_1
  5
86D
 10
243.288
 20
-288.015
 30
0.000000
  70
    32
  0
VERTEX
  8
┌▓È_1
  5
86E
 10
243.302
 20
-288.028
 30
0.000000
  70
    32
  0
SEQEND
  8
┌▓È_1
  5
86F
  0
POLYLINE
  8
┌▓È_1
  5
870
  62
5
  66
     1
 10
0.000000
 20
0.000000
 30
0.000000
  70
     8
  0
VERTEX
  8
┌▓È_1
  5
871
 10
245.628
 20
-292.731
 30
0.000000
  70
    32
  0
VERTEX
  8
┌▓È_1
  5
872
 10
245.682
 20
-292.748
 30
0.000000
  70
    32
  0
VERTEX
  8
┌▓È_1
  5
873
 10
245.736
 20
-292.765
 30
0.000000
  70
    32
  0
VERTEX
  8
┌▓È_1
  5
874
 10
245.790
 20
-292.782
 30
0.000000
  70
    32
  0
VERTEX
  8
┌▓È_1
  5
875
 10
245.844
 20
-292.799
 30
0.000000
  70
    32
  0
VERTEX
  8
┌▓È_1
  5
876
 10
245.898
 20
-292.816
 30
0.000000
  70
    32
  0
VERTEX
  8
┌▓È_1
  5
877
 10
245.952
 20
-292.833
 30
0.000000
  70
    32
  0
VERTEX
  8
┌▓È_1
  5
878
 10
246.006
 20
-292.850
 30
0.000000
  70
    32
  0
VERTEX
  8
┌▓È_1
  5
879
 10
246.060
 20
-292.866
 30
0.000000
  70
    32
  0
VERTEX
  8
┌▓È_1
  5
87A
 10
246.114
 20
-292.883
 30
0.000000
  70
    32
  0
VERTEX
  8
┌▓È_1
  5
87B
 10
246.168
 20
-292.899
 30
0.000000
  70
    32
  0
VERTEX
  8
┌▓È_1
  5
87C
 10
246.223
 20
-292.915
 30
0.000000
  70
    32
  0
VERTEX
  8
┌▓È_1
  5
87D
 10
246.277
 20
-292.932
 30
0.000000
  70
    32
  0
VERTEX
  8
┌▓È_1
  5
87E
 10
246.331
 20
-292.948
 30
0.000000
  70
    32
  0
VERTEX
  8
┌▓È_1
  5
87F
 10
246.386
 20
-292.964
 30
0.000000
  70
    32
  0
VERTEX
  8
┌▓È_1
  5
880
 10
246.440
 20
-292.980
 30
0.000000
  70
    32
  0
VERTEX
  8
┌▓È_1
  5
881
 10
246.495
 20
-292.996
 30
0.000000
  70
    32
  0
VERTEX
  8
┌▓È_1
  5
882
 10
246.549
 20
-293.012
 30
0.000000
  70
    32
  0
VERTEX
  8
┌▓È_1
  5
883
 10
246.604
 20
-293.028
 30
0.000000
  70
    32
  0
VERTEX
  8
┌▓È_1
  5
884
 10
246.658
 20
-293.044
 30
0.000000
  70
    32
  0
VERTEX
  8
┌▓È_1
  5
885
 10
246.713
 20
-293.059
 30
0.000000
  70
    32
  0
VERTEX
  8
┌▓È_1
  5
886
 10
246.768
 20
-293.075
 30
0.000000
  70
    32
  0
VERTEX
  8
┌▓È_1
  5
887
 10
246.822
 20
-293.090
 30
0.000000
  70
    32
  0
VERTEX
  8
┌▓È_1
  5
888
 10
246.877
 20
-293.106
 30
0.000000
  70
    32
  0
VERTEX
  8
┌▓È_1
  5
889
 10
246.932
 20
-293.121
 30
0.000000
  70
    32
  0
VERTEX
  8
┌▓È_1
  5
88A
 10
246.987
 20
-293.137
 30
0.000000
  70
    32
  0
VERTEX
  8
┌▓È_1
  5
88B
 10
247.042
 20
-293.152
 30
0.000000
  70
    32
  0
VERTEX
  8
┌▓È_1
  5
88C
 10
247.097
 20
-293.167
 30
0.000000
  70
    32
  0
VERTEX
  8
┌▓È_1
  5
88D
 10
247.152
 20
-293.182
 30
0.000000
  70
    32
  0
VERTEX
  8
┌▓È_1
  5
88E
 10
247.207
 20
-293.197
 30
0.000000
  70
    32
  0
VERTEX
  8
┌▓È_1
  5
88F
 10
247.262
 20
-293.212
 30
0.000000
  70
    32
  0
VERTEX
  8
┌▓È_1
  5
890
 10
247.317
 20
-293.227
 30
0.000000
  70
    32
  0
VERTEX
  8
┌▓È_1
  5
891
 10
247.372
 20
-293.242
 30
0.000000
  70
    32
  0
VERTEX
  8
┌▓È_1
  5
892
 10
247.427
 20
-293.257
 30
0.000000
  70
    32
  0
VERTEX
  8
┌▓È_1
  5
893
 10
247.482
 20
-293.271
 30
0.000000
  70
    32
  0
VERTEX
  8
┌▓È_1
  5
894
 10
247.537
 20
-293.286
 30
0.000000
  70
    32
  0
VERTEX
  8
┌▓È_1
  5
895
 10
247.592
 20
-293.301
 30
0.000000
  70
    32
  0
VERTEX
  8
┌▓È_1
  5
896
 10
247.648
 20
-293.315
 30
0.000000
  70
    32
  0
VERTEX
  8
┌▓È_1
  5
897
 10
247.703
 20
-293.330
 30
0.000000
  70
    32
  0
VERTEX
  8
┌▓È_1
  5
898
 10
247.758
 20
-293.344
 30
0.000000
  70
    32
  0
VERTEX
  8
┌▓È_1
  5
899
 10
247.814
 20
-293.359
 30
0.000000
  70
    32
  0
VERTEX
  8
┌▓È_1
  5
89A
 10
247.869
 20
-293.373
 30
0.000000
  70
    32
  0
VERTEX
  8
┌▓È_1
  5
89B
 10
247.924
 20
-293.387
 30
0.000000
  70
    32
  0
VERTEX
  8
┌▓È_1
  5
89C
 10
247.980
 20
-293.401
 30
0.000000
  70
    32
  0
VERTEX
  8
┌▓È_1
  5
89D
 10
248.035
 20
-293.415
 30
0.000000
  70
    32
  0
VERTEX
  8
┌▓È_1
  5
89E
 10
248.091
 20
-293.430
 30
0.000000
  70
    32
  0
VERTEX
  8
┌▓È_1
  5
89F
 10
248.146
 20
-293.444
 30
0.000000
  70
    32
  0
VERTEX
  8
┌▓È_1
  5
8A0
 10
248.202
 20
-293.457
 30
0.000000
  70
    32
  0
VERTEX
  8
┌▓È_1
  5
8A1
 10
248.258
 20
-293.471
 30
0.000000
  70
    32
  0
VERTEX
  8
┌▓È_1
  5
8A2
 10
248.313
 20
-293.485
 30
0.000000
  70
    32
  0
VERTEX
  8
┌▓È_1
  5
8A3
 10
248.369
 20
-293.499
 30
0.000000
  70
    32
  0
VERTEX
  8
┌▓È_1
  5
8A4
 10
248.424
 20
-293.513
 30
0.000000
  70
    32
  0
VERTEX
  8
┌▓È_1
  5
8A5
 10
248.480
 20
-293.527
 30
0.000000
  70
    32
  0
VERTEX
  8
┌▓È_1
  5
8A6
 10
248.536
 20
-293.540
 30
0.000000
  70
    32
  0
VERTEX
  8
┌▓È_1
  5
8A7
 10
248.592
 20
-293.554
 30
0.000000
  70
    32
  0
VERTEX
  8
┌▓È_1
  5
8A8
 10
248.647
 20
-293.567
 30
0.000000
  70
    32
  0
VERTEX
  8
┌▓È_1
  5
8A9
 10
248.703
 20
-293.581
 30
0.000000
  70
    32
  0
VERTEX
  8
┌▓È_1
  5
8AA
 10
248.759
 20
-293.594
 30
0.000000
  70
    32
  0
VERTEX
  8
┌▓È_1
  5
8AB
 10
248.815
 20
-293.608
 30
0.000000
  70
    32
  0
VERTEX
  8
┌▓È_1
  5
8AC
 10
248.871
 20
-293.621
 30
0.000000
  70
    32
  0
VERTEX
  8
┌▓È_1
  5
8AD
 10
248.927
 20
-293.634
 30
0.000000
  70
    32
  0
VERTEX
  8
┌▓È_1
  5
8AE
 10
248.983
 20
-293.648
 30
0.000000
  70
    32
  0
VERTEX
  8
┌▓È_1
  5
8AF
 10
249.039
 20
-293.661
 30
0.000000
  70
    32
  0
VERTEX
  8
┌▓È_1
  5
8B0
 10
249.095
 20
-293.674
 30
0.000000
  70
    32
  0
VERTEX
  8
┌▓È_1
  5
8B1
 10
249.151
 20
-293.687
 30
0.000000
  70
    32
  0
VERTEX
  8
┌▓È_1
  5
8B2
 10
249.207
 20
-293.700
 30
0.000000
  70
    32
  0
VERTEX
  8
┌▓È_1
  5
8B3
 10
249.263
 20
-293.714
 30
0.000000
  70
    32
  0
VERTEX
  8
┌▓È_1
  5
8B4
 10
249.319
 20
-293.727
 30
0.000000
  70
    32
  0
VERTEX
  8
┌▓È_1
  5
8B5
 10
249.375
 20
-293.740
 30
0.000000
  70
    32
  0
VERTEX
  8
┌▓È_1
  5
8B6
 10
249.431
 20
-293.752
 30
0.000000
  70
    32
  0
VERTEX
  8
┌▓È_1
  5
8B7
 10
249.487
 20
-293.765
 30
0.000000
  70
    32
  0
VERTEX
  8
┌▓È_1
  5
8B8
 10
249.543
 20
-293.778
 30
0.000000
  70
    32
  0
VERTEX
  8
┌▓È_1
  5
8B9
 10
249.600
 20
-293.791
 30
0.000000
  70
    32
  0
VERTEX
  8
┌▓È_1
  5
8BA
 10
249.656
 20
-293.804
 30
0.000000
  70
    32
  0
VERTEX
  8
┌▓È_1
  5
8BB
 10
249.712
 20
-293.817
 30
0.000000
  70
    32
  0
VERTEX
  8
┌▓È_1
  5
8BC
 10
249.768
 20
-293.829
 30
0.000000
  70
    32
  0
VERTEX
  8
┌▓È_1
  5
8BD
 10
249.825
 20
-293.842
 30
0.000000
  70
    32
  0
VERTEX
  8
┌▓È_1
  5
8BE
 10
249.881
 20
-293.855
 30
0.000000
  70
    32
  0
VERTEX
  8
┌▓È_1
  5
8BF
 10
249.937
 20
-293.867
 30
0.000000
  70
    32
  0
VERTEX
  8
┌▓È_1
  5
8C0
 10
249.993
 20
-293.880
 30
0.000000
  70
    32
  0
VERTEX
  8
┌▓È_1
  5
8C1
 10
250.050
 20
-293.892
 30
0.000000
  70
    32
  0
VERTEX
  8
┌▓È_1
  5
8C2
 10
250.106
 20
-293.905
 30
0.000000
  70
    32
  0
VERTEX
  8
┌▓È_1
  5
8C3
 10
250.162
 20
-293.917
 30
0.000000
  70
    32
  0
VERTEX
  8
┌▓È_1
  5
8C4
 10
250.219
 20
-293.930
 30
0.000000
  70
    32
  0
VERTEX
  8
┌▓È_1
  5
8C5
 10
250.275
 20
-293.942
 30
0.000000
  70
    32
  0
VERTEX
  8
┌▓È_1
  5
8C6
 10
250.332
 20
-293.955
 30
0.000000
  70
    32
  0
VERTEX
  8
┌▓È_1
  5
8C7
 10
250.388
 20
-293.967
 30
0.000000
  70
    32
  0
VERTEX
  8
┌▓È_1
  5
8C8
 10
250.445
 20
-293.979
 30
0.000000
  70
    32
  0
VERTEX
  8
┌▓È_1
  5
8C9
 10
250.501
 20
-293.992
 30
0.000000
  70
    32
  0
VERTEX
  8
┌▓È_1
  5
8CA
 10
250.557
 20
-294.004
 30
0.000000
  70
    32
  0
VERTEX
  8
┌▓È_1
  5
8CB
 10
250.614
 20
-294.016
 30
0.000000
  70
    32
  0
VERTEX
  8
┌▓È_1
  5
8CC
 10
250.670
 20
-294.029
 30
0.000000
  70
    32
  0
VERTEX
  8
┌▓È_1
  5
8CD
 10
250.727
 20
-294.041
 30
0.000000
  70
    32
  0
VERTEX
  8
┌▓È_1
  5
8CE
 10
250.784
 20
-294.053
 30
0.000000
  70
    32
  0
VERTEX
  8
┌▓È_1
  5
8CF
 10
250.840
 20
-294.065
 30
0.000000
  70
    32
  0
VERTEX
  8
┌▓È_1
  5
8D0
 10
250.897
 20
-294.077
 30
0.000000
  70
    32
  0
VERTEX
  8
┌▓È_1
  5
8D1
 10
250.953
 20
-294.089
 30
0.000000
  70
    32
  0
VERTEX
  8
┌▓È_1
  5
8D2
 10
251.010
 20
-294.102
 30
0.000000
  70
    32
  0
VERTEX
  8
┌▓È_1
  5
8D3
 10
251.066
 20
-294.114
 30
0.000000
  70
    32
  0
VERTEX
  8
┌▓È_1
  5
8D4
 10
251.123
 20
-294.126
 30
0.000000
  70
    32
  0
VERTEX
  8
┌▓È_1
  5
8D5
 10
251.180
 20
-294.138
 30
0.000000
  70
    32
  0
VERTEX
  8
┌▓È_1
  5
8D6
 10
251.236
 20
-294.150
 30
0.000000
  70
    32
  0
VERTEX
  8
┌▓È_1
  5
8D7
 10
251.293
 20
-294.162
 30
0.000000
  70
    32
  0
VERTEX
  8
┌▓È_1
  5
8D8
 10
251.349
 20
-294.174
 30
0.000000
  70
    32
  0
VERTEX
  8
┌▓È_1
  5
8D9
 10
251.406
 20
-294.186
 30
0.000000
  70
    32
  0
VERTEX
  8
┌▓È_1
  5
8DA
 10
251.463
 20
-294.198
 30
0.000000
  70
    32
  0
VERTEX
  8
┌▓È_1
  5
8DB
 10
251.519
 20
-294.210
 30
0.000000
  70
    32
  0
VERTEX
  8
┌▓È_1
  5
8DC
 10
251.576
 20
-294.222
 30
0.000000
  70
    32
  0
VERTEX
  8
┌▓È_1
  5
8DD
 10
251.633
 20
-294.234
 30
0.000000
  70
    32
  0
VERTEX
  8
┌▓È_1
  5
8DE
 10
251.689
 20
-294.246
 30
0.000000
  70
    32
  0
VERTEX
  8
┌▓È_1
  5
8DF
 10
251.746
 20
-294.257
 30
0.000000
  70
    32
  0
VERTEX
  8
┌▓È_1
  5
8E0
 10
251.803
 20
-294.269
 30
0.000000
  70
    32
  0
VERTEX
  8
┌▓È_1
  5
8E1
 10
251.859
 20
-294.281
 30
0.000000
  70
    32
  0
VERTEX
  8
┌▓È_1
  5
8E2
 10
251.916
 20
-294.293
 30
0.000000
  70
    32
  0
VERTEX
  8
┌▓È_1
  5
8E3
 10
251.973
 20
-294.305
 30
0.000000
  70
    32
  0
VERTEX
  8
┌▓È_1
  5
8E4
 10
252.030
 20
-294.317
 30
0.000000
  70
    32
  0
VERTEX
  8
┌▓È_1
  5
8E5
 10
252.086
 20
-294.329
 30
0.000000
  70
    32
  0
VERTEX
  8
┌▓È_1
  5
8E6
 10
252.143
 20
-294.340
 30
0.000000
  70
    32
  0
VERTEX
  8
┌▓È_1
  5
8E7
 10
252.200
 20
-294.352
 30
0.000000
  70
    32
  0
VERTEX
  8
┌▓È_1
  5
8E8
 10
252.256
 20
-294.364
 30
0.000000
  70
    32
  0
VERTEX
  8
┌▓È_1
  5
8E9
 10
252.313
 20
-294.376
 30
0.000000
  70
    32
  0
VERTEX
  8
┌▓È_1
  5
8EA
 10
252.370
 20
-294.388
 30
0.000000
  70
    32
  0
VERTEX
  8
┌▓È_1
  5
8EB
 10
252.427
 20
-294.399
 30
0.000000
  70
    32
  0
VERTEX
  8
┌▓È_1
  5
8EC
 10
252.483
 20
-294.411
 30
0.000000
  70
    32
  0
VERTEX
  8
┌▓È_1
  5
8ED
 10
252.540
 20
-294.423
 30
0.000000
  70
    32
  0
VERTEX
  8
┌▓È_1
  5
8EE
 10
252.597
 20
-294.435
 30
0.000000
  70
    32
  0
VERTEX
  8
┌▓È_1
  5
8EF
 10
252.654
 20
-294.447
 30
0.000000
  70
    32
  0
VERTEX
  8
┌▓È_1
  5
8F0
 10
252.710
 20
-294.458
 30
0.000000
  70
    32
  0
SEQEND
  8
┌▓È_1
  5
8F1
  0
INSERT
  5
A9
  8
0
  6
CONTINUOUS
  2
*U69
 10
0.0
 20
0.0
 30
0.0
  0
INSERT
  5
AA
  8
0
  6
CONTINUOUS
  2
*U70
 10
0.0
 20
0.0
 30
0.0
  0
INSERT
  5
AB
  8
0
  6
CONTINUOUS
  2
*U71
 10
0.0
 20
0.0
 30
0.0
  0
INSERT
  5
AC
  8
0
  6
CONTINUOUS
  2
*U72
 10
0.0
 20
0.0
 30
0.0
  0
INSERT
  5
AD
  8
0
  6
CONTINUOUS
  2
*U73
 10
0.0
 20
0.0
 30
0.0
  0
INSERT
  5
AE
  8
0
  6
CONTINUOUS
  2
*U74
 10
0.0
 20
0.0
 30
0.0
  0
INSERT
  5
AF
  8
0
  6
CONTINUOUS
  2
*U75
 10
0.0
 20
0.0
 30
0.0
  0
INSERT
  5
B0
  8
0
  6
CONTINUOUS
  2
*U76
 10
0.0
 20
0.0
 30
0.0
  0
INSERT
  5
B1
  8
0
  6
CONTINUOUS
  2
*U77
 10
0.0
 20
0.0
 30
0.0
  0
INSERT
  5
B2
  8
0
  6
CONTINUOUS
  2
*U78
 10
0.0
 20
0.0
 30
0.0
  0
INSERT
  5
B3
  8
0
  6
CONTINUOUS
  2
*U79
 10
0.0
 20
0.0
 30
0.0
  0
INSERT
  5
B4
  8
0
  6
CONTINUOUS
  2
*U80
 10
0.0
 20
0.0
 30
0.0
  0
INSERT
  5
B5
  8
0
  6
CONTINUOUS
  2
*U81
 10
0.0
 20
0.0
 30
0.0
  0
INSERT
  5
B6
  8
0
  6
CONTINUOUS
  2
*U82
 10
0.0
 20
0.0
 30
0.0
  0
INSERT
  5
B7
  8
0
  6
CONTINUOUS
  2
*U83
 10
0.0
 20
0.0
 30
0.0
  0
LINE
  5
B8
  8
┌▓È_1
 62
     5
 10
257.14537404020001
 20
-287.45849521209999
 30
0.0
 11
263.19870737349999
 21
-287.45849521209999
 31
0.0
  0
LINE
  5
B9
  8
┌▓È_1
 62
     5
 10
257.14537404020001
 20
-289.05849521210001
 30
0.0
 11
257.14537404020001
 21
-292.65849521209998
 31
0.0
  0
LINE
  5
BA
  8
┌▓È_1
 62
     5
 10
257.14537404020001
 20
-283.85849521210002
 30
0.0
 11
262.1427073735
 21
-283.85849521210002
 31
0.0
  0
LINE
  5
BB
  8
┌▓È_1
 62
     5
 10
267.51451425179999
 20
-282.84103743110001
 30
0.0
 11
269.14537404020001
 21
-280.45849521209999
 31
0.0
  0
LINE
  5
BC
  8
┌▓È_1
 62
     5
 10
243.783033727
 20
-287.49663702229998
 30
0.0
 11
243.30184211439999
 21
-288.02811374340001
 31
0.0
  0
LINE
  5
BD
  8
┌▓È_1
 62
     5
 10
250.7104087436
 20
-283.45849521209999
 30
0.0
 11
252.7104087436
 21
-280.45849521209999
 31
0.0
  0
LINE
  5
BE
  8
┌▓È_1
 62
     5
 10
261.14537404020001
 20
-280.45849521209999
 30
0.0
 11
269.14537404020001
 21
-280.45849521209999
 31
0.0
  0
LINE
  5
BF
  8
┌▓È_1
 62
     5
 10
275.14537404020001
 20
-289.05849521210001
 30
0.0
 11
275.14537404020001
 21
-292.65849521209998
 31
0.0
  0
LINE
  5
C0
  8
┌▓È_1
 62
     5
 10
252.7104087436
 20
-291.45849521209999
 30
0.0
 11
252.7104087436
 21
-294.45849521209999
 31
0.0
  0
ARC
  5
C1
  8
┌▓È_1
 62
     5
 10
237.1104087436
 20
-283.85849521210002
 30
0.0
 40
7.5999999999999988
 50
331.39928138329998
 51
358.49204224580001
  0
ARC
  5
C2
  8
┌▓È_1
 62
     5
 10
239.7104087436
 20
-283.45849521209999
 30
0.0
 40
11.0
 50
270.0
 51
302.54495885400001
  0
LINE
  5
C3
  8
┌▓È_1
 62
     5
 10
257.14537404020001
 20
-289.05849521210001
 30
0.0
 11
263.6680407069
 21
-289.05849521210001
 31
0.0
  0
LINE
  5
C4
  8
┌▓È_1
 62
     5
 10
269.3036795365
 20
-289.05849521210001
 30
0.0
 11
268.84325591060002
 21
-287.45849521209999
 31
0.0
  0
LINE
  5
C5
  8
┌▓È_1
 62
     5
 10
265.54537404019999
 20
-295.45849521209999
 30
0.0
 11
264.72404070689998
 21
-292.65849521209998
 31
0.0
  0
LINE
  5
C6
  8
┌▓È_1
 62
     5
 10
275.14537404020001
 20
-283.85849521210002
 30
0.0
 11
275.14537404020001
 21
-287.45849521209999
 31
0.0
  0
LINE
  5
C7
  8
┌▓È_1
 62
     5
 10
257.14537404020001
 20
-283.85849521210002
 30
0.0
 11
257.14537404020001
 21
-287.45849521209999
 31
0.0
  0
LINE
  5
C8
  8
┌▓È_1
 62
     5
 10
270.3396326948
 20
-292.65849521209998
 30
0.0
 11
275.14537404020001
 21
-292.65849521209998
 31
0.0
  0
LINE
  5
C9
  8
┌▓È_1
 62
     5
 10
262.1427073735
 20
-283.85849521210002
 30
0.0
 11
261.14537404020001
 21
-280.45849521209999
 31
0.0
  0
LINE
  5
CA
  8
┌▓È_1
 62
     5
 10
267.80730275230002
 20
-283.85849521210002
 30
0.0
 11
275.14537404020001
 21
-283.85849521210002
 31
0.0
  0
LINE
  5
CB
  8
┌▓È_1
 62
     5
 10
267.80730275230002
 20
-283.85849521210002
 30
0.0
 11
267.51451425179999
 21
-282.84103743110001
 31
0.0
  0
LINE
  5
CC
  8
┌▓È_1
 62
     5
 10
263.6680407069
 20
-289.05849521210001
 30
0.0
 11
263.19870737349999
 21
-287.45849521209999
 31
0.0
  0
LINE
  5
CD
  8
┌▓È_1
 62
     5
 10
248.4358474478
 20
-290.15675763000002
 30
0.0
 11
248.07964332820001
 21
-290.50551391840003
 31
0.0
  0
LINE
  5
CE
  8
┌▓È_1
 62
     5
 10
250.7104087436
 20
-283.45849521209999
 30
0.0
 11
252.7104087436
 21
-280.45849521209999
 31
0.0
  0
LINE
  5
CF
  8
┌▓È_1
 62
     5
 10
268.84325591060002
 20
-287.45849521209999
 30
0.0
 11
275.14537404020001
 21
-287.45849521209999
 31
0.0
  0
LINE
  5
D0
  8
┌▓È_1
 62
     5
 10
271.14537404020001
 20
-295.45849521209999
 30
0.0
 11
265.54537404019999
 21
-295.45849521209999
 31
0.0
  0
LINE
  5
D1
  8
┌▓È_1
 62
     5
 10
210.08698899929999
 20
-284.45849521209999
 30
0.0
 11
210.08698899929999
 21
-287.45849521209999
 31
0.0
  0
LINE
  5
D2
  8
┌▓È_1
 62
     5
 10
229.38919662239999
 20
-284.45849521209999
 30
0.0
 11
229.38919662239999
 21
-287.45849521209999
 31
0.0
  0
LINE
  5
D3
  8
┌▓È_1
 62
     5
 10
229.38919662239999
 20
-280.45849521209999
 30
0.0
 11
221.38919662239999
 21
-280.45849521209999
 31
0.0
  0
ARC
  5
D4
  8
┌▓È_1
 62
     5
 10
220.38919662239999
 20
-288.45849521209999
 30
0.0
 40
6.0
 50
270.0
 51
0.0
  0
LINE
  5
D5
  8
┌▓È_1
 62
     5
 10
217.38919662239999
 20
-287.45849521209999
 30
0.0
 11
221.38919662239999
 21
-287.45849521209999
 31
0.0
  0
LINE
  5
D6
  8
┌▓È_1
 62
     5
 10
212.38919662239999
 20
-294.45849521209999
 30
0.0
 11
220.38919662239999
 21
-294.45849521209999
 31
0.0
  0
ARC
  5
D7
  8
┌▓È_1
 62
     5
 10
218.38919662239999
 20
-288.45849521209999
 30
0.0
 40
3.0
 50
270.0
 51
0.0
  0
LINE
  5
D8
  8
┌▓È_1
 62
     5
 10
226.38919662239999
 20
-288.45849521209999
 30
0.0
 11
226.38919662239999
 21
-287.45849521209999
 31
0.0
  0
LINE
  5
D9
  8
┌▓È_1
 10
214.06790364579999
 20
-233.02884114579999
 30
0.0
 11
214.06790364579999
 21
-255.02884114579999
 31
0.0
  0
INSERT
  5
DA
  8
0
  6
CONTINUOUS
  2
*U84
 10
0.0
 20
0.0
 30
0.0
  0
INSERT
  5
DB
  8
0
  6
CONTINUOUS
  2
*U85
 10
0.0
 20
0.0
 30
0.0
  0
INSERT
  5
DC
  8
0
  6
CONTINUOUS
  2
*U86
 10
0.0
 20
0.0
 30
0.0
  0
INSERT
  5
DD
  8
0
  6
CONTINUOUS
  2
*U87
 10
0.0
 20
0.0
 30
0.0
  0
INSERT
  5
DE
  8
0
  6
CONTINUOUS
  2
*U88
 10
0.0
 20
0.0
 30
0.0
  0
INSERT
  5
DF
  8
0
  6
CONTINUOUS
  2
*U89
 10
0.0
 20
0.0
 30
0.0
  0
INSERT
  5
E0
  8
0
  6
CONTINUOUS
  2
*U90
 10
0.0
 20
0.0
 30
0.0
  0
INSERT
  5
E1
  8
0
  6
CONTINUOUS
  2
*U91
 10
0.0
 20
0.0
 30
0.0
  0
LINE
  5
E2
  8
┌▓È_1
 10
134.06790364579999
 20
-233.02884114579999
 30
0.0
 11
134.06790364579999
 21
-299.02884114580002
 31
0.0
  0
INSERT
  5
E3
  8
0
  6
CONTINUOUS
  2
*U92
 10
0.0
 20
0.0
 30
0.0
  0
INSERT
  5
E4
  8
0
  6
CONTINUOUS
  2
*U93
 10
0.0
 20
0.0
 30
0.0
  0
INSERT
  5
E5
  8
0
  6
CONTINUOUS
  2
*U94
 10
0.0
 20
0.0
 30
0.0
  0
INSERT
  5
E6
  8
0
  6
CONTINUOUS
  2
*U95
 10
0.0
 20
0.0
 30
0.0
  0
INSERT
  5
E7
  8
0
  6
CONTINUOUS
  2
*U96
 10
0.0
 20
0.0
 30
0.0
  0
INSERT
  5
E8
  8
0
  6
CONTINUOUS
  2
*U97
 10
0.0
 20
0.0
 30
0.0
  0
INSERT
  5
E9
  8
0
  6
CONTINUOUS
  2
*U98
 10
0.0
 20
0.0
 30
0.0
  0
INSERT
  5
EA
  8
0
  6
CONTINUOUS
  2
*U99
 10
0.0
 20
0.0
 30
0.0
  0
LINE
  5
EB
  8
┌▓È_1
 62
     5
 10
217.38919662239999
 20
-290.45849521209999
 30
0.0
 11
217.38919662239999
 21
-287.45849521209999
 31
0.0
  0
LINE
  5
EC
  8
┌▓È_1
 62
     5
 10
229.38919662239999
 20
-284.45849521209999
 30
0.0
 11
226.38919662239999
 21
-284.45849521209999
 31
0.0
  0
LINE
  5
ED
  8
┌▓È_1
 62
     5
 10
226.38919662239999
 20
-284.45849521209999
 30
0.0
 11
226.38919662239999
 21
-283.45849521209999
 31
0.0
  0
LINE
  5
EE
  8
┌▓È_1
 62
     5
 10
212.38919662239999
 20
-287.45849521209999
 30
0.0
 11
212.38919662239999
 21
-290.45849521209999
 31
0.0
  0
LINE
  5
EF
  8
┌▓È_1
 10
139.06790364579999
 20
-244.02884114579999
 30
0.0
 11
169.06790364579999
 21
-244.02884114579999
 31
0.0
  0
LINE
  5
F0
  8
┌▓È_1
 10
179.06790364579999
 20
-244.02884114579999
 30
0.0
 11
209.06790364579999
 21
-244.02884114579999
 31
0.0
  0
LINE
  5
F1
  8
┌▓È_1
 10
139.06790364579999
 20
-266.02884114580002
 30
0.0
 11
209.06790364579999
 21
-266.02884114580002
 31
0.0
  0
LINE
  5
F2
  8
┌▓È_1
 62
     5
 10
212.38919662239999
 20
-284.45849521209999
 30
0.0
 11
210.08698899929999
 21
-284.45849521209999
 31
0.0
  0
LINE
  5
F3
  8
┌▓È_1
 62
     5
 10
212.38919662239999
 20
-287.45849521209999
 30
0.0
 11
212.08698899929999
 21
-287.45849521209999
 31
0.0
  0
LINE
  5
F4
  8
┌▓È_1
 62
     5
 10
212.38919662239999
 20
-291.45849521209999
 30
0.0
 11
212.38919662239999
 21
-294.45849521209999
 31
0.0
  0
LINE
  5
F5
  8
┌▓È_1
 62
     5
 10
226.38919662239999
 20
-287.45849521209999
 30
0.0
 11
229.38919662239999
 21
-287.45849521209999
 31
0.0
  0
LINE
  5
F6
  8
┌▓È_1
 62
     5
 10
210.08698899929999
 20
-287.45849521209999
 30
0.0
 11
212.08698899929999
 21
-287.45849521209999
 31
0.0
  0
LINE
  5
F7
  8
┌▓È_1
 62
     5
 10
218.38919662239999
 20
-291.45849521209999
 30
0.0
 11
212.38919662239999
 21
-291.45849521209999
 31
0.0
  0
LINE
  5
F8
  8
┌▓È_1
 62
     5
 10
221.38919662239999
 20
-284.45849521209999
 30
0.0
 11
217.38919662239999
 21
-284.45849521209999
 31
0.0
  0
LINE
  5
F9
  8
┌▓È_1
 62
     5
 10
220.38919662239999
 20
-280.45849521209999
 30
0.0
 11
212.38919662239999
 21
-280.45849521209999
 31
0.0
  0
LINE
  5
FA
  8
┌▓È_1
 62
     5
 10
217.38919662239999
 20
-283.45849521209999
 30
0.0
 11
220.38919662239999
 21
-280.45849521209999
 31
0.0
  0
LINE
  5
FB
  8
┌▓È_1
 62
     5
 10
212.38919662239999
 20
-280.45849521209999
 30
0.0
 11
212.38919662239999
 21
-284.45849521209999
 31
0.0
  0
LINE
  5
FC
  8
┌▓È_1
 10
214.06790364579999
 20
-255.02884114579999
 30
0.0
 11
214.06790364579999
 21
-277.02884114580002
 31
0.0
  0
LINE
  5
FD
  8
┌▓È_1
 10
174.06790364579999
 20
-233.02884114579999
 30
0.0
 11
174.06790364579999
 21
-255.02884114579999
 31
0.0
  0
LINE
  5
FE
  8
┌▓È_1
 62
     5
 10
212.38919662239999
 20
-290.45849521209999
 30
0.0
 11
217.38919662239999
 21
-290.45849521209999
 31
0.0
  0
LINE
  5
FF
  8
┌▓È_1
 62
     5
 10
226.38919662239999
 20
-283.45849521209999
 30
0.0
 11
229.38919662239999
 21
-280.45849521209999
 31
0.0
  0
LINE
  5
100
  8
┌▓È_1
 62
     5
 10
217.38919662239999
 20
-284.45849521209999
 30
0.0
 11
217.38919662239999
 21
-283.45849521209999
 31
0.0
  0
LINE
  5
101
  8
┌▓È_1
 62
     5
 10
221.38919662239999
 20
-280.45849521209999
 30
0.0
 11
221.38919662239999
 21
-284.45849521209999
 31
0.0
  0
LINE
  5
102
  8
┌▓È_1
 62
     5
 10
221.38919662239999
 20
-287.45849521209999
 30
0.0
 11
221.38919662239999
 21
-288.45849521209999
 31
0.0
  0
ARC
  5
103
  8
┌▓È_1
 62
     5
 10
-163.6559794703
 20
102.084434876
 30
0.0
 40
2.0
 50
215.0
 51
307.57595892770001
  0
LINE
  5
104
  8
┌▓È_1
 62
     5
 10
-140.7926432292
 20
117.8527135417
 30
0.0
 11
-143.7926432292
 21
117.8527135417
 31
0.0
  0
INSERT
  5
107
  8
Éíû@É³
  2
BALLON0
 10
0.0
 20
0.0
 30
0.0
  0
INSERT
  5
111
  8
Éíû@É³
  2
BALLON1
 10
0.0
 20
0.0
 30
0.0
  0
LINE
  5
11A
  8
┌▓È_1
 62
     5
 10
-153.0426432292
 20
155.35271354170001
 30
0.0
 11
-154.7926432292
 21
155.35271354170001
 31
0.0
  0
ARC
  5
11B
  8
┌▓È_1
 62
     5
 10
-151.34793675419999
 20
157.95283808260001
 30
0.0
 40
2.0
 50
315.56799981889998
 51
27.5759589277
  0
LINE
  5
11C
  8
┌▓È_1
 62
     5
 10
-140.7926432292
 20
156.85271354170001
 30
0.0
 11
-143.7926432292
 21
156.85271354170001
 31
0.0
  0
LINE
  5
11D
  8
┌▓È_1
 62
     5
 10
-159.98101625819999
 20
138.60271354170001
 30
0.0
 11
-159.98101625819999
 21
136.10271354170001
 31
0.0
  0
LINE
  5
11E
  8
┌▓È_1
 62
     5
 10
-154.7926432292
 20
156.85271354170001
 30
0.0
 11
-157.7926432292
 21
156.85271354170001
 31
0.0
  0
LINE
  5
11F
  8
┌▓È_1
 62
     5
 10
-138.4353132743
 20
143.35271354170001
 30
0.0
 11
-138.13336104640001
 21
143.35271354170001
 31
0.0
  0
ARC
  5
120
  8
┌▓È_1
 62
     5
 10
-163.6559794703
 20
172.62099220729999
 30
0.0
 40
2.0
 50
52.424041072299993
 51
145.0
  0
ARC
  5
121
  8
┌▓È_1
 62
     5
 10
-190.7926432292
 20
137.35271354170001
 30
0.0
 40
46.5
 50
47.575958927700007
 51
52.424041072299993
  0
LINE
  5
122
  8
┌▓È_1
 62
     5
 10
-143.7926432292
 20
155.35271354170001
 30
0.0
 11
-145.5426432292
 21
155.35271354170001
 31
0.0
  0
LINE
  5
123
  8
┌▓È_1
 62
     5
 10
-165.0859791078
 20
155.35271354170001
 30
0.0
 11
-154.37721169080001
 21
162.85107321199999
 31
0.0
  0
ARC
  5
124
  8
┌▓È_1
 62
     5
 10
-153.23005881809999
 20
161.21276912339999
 30
0.0
 40
2.0
 50
32.4240410723
 51
125.0
  0
ARC
  5
125
  8
┌▓È_1
 62
     5
 10
-190.7926432292
 20
137.35271354170001
 30
0.0
 40
46.5
 50
27.5759589277
 51
32.4240410723
  0
LINE
  5
126
  8
┌▓È_1
 62
     5
 10
-138.4353132743
 20
131.35271354170001
 30
0.0
 11
-138.13336104640001
 21
131.35271354170001
 31
0.0
  0
ARC
  5
127
  8
┌▓È_1
 62
     5
 10
-160.77240117349999
 20
170.20138272200001
 30
0.0
 40
2.0
 50
315.0
 51
47.575958927599999
  0
ARC
  5
128
  8
┌▓È_1
 62
     5
 10
-190.7926432292
 20
137.35271354170001
 30
0.0
 40
39.0
 50
35.0
 51
45.0
  0
INSERT
  5
129
  8
0
  6
CONTINUOUS
  2
*U102
 10
0.0
 20
0.0
 30
0.0
  0
INSERT
  5
12A
  8
0
  6
CONTINUOUS
  2
*U103
 10
0.0
 20
0.0
 30
0.0
  0
INSERT
  5
12B
  8
0
  6
CONTINUOUS
  2
*U104
 10
0.0
 20
0.0
 30
0.0
  0
INSERT
  5
12C
  8
0
  6
CONTINUOUS
  2
*U105
 10
0.0
 20
0.0
 30
0.0
  0
INSERT
  5
12D
  8
0
  6
CONTINUOUS
  2
*U106
 10
0.0
 20
0.0
 30
0.0
  0
INSERT
  5
12E
  8
0
  6
CONTINUOUS
  2
*U107
 10
0.0
 20
0.0
 30
0.0
  0
INSERT
  5
12F
  8
0
  6
CONTINUOUS
  2
*U108
 10
0.0
 20
0.0
 30
0.0
  0
ARC
  5
130
  8
┌▓È_1
 62
     5
 10
-190.7926432292
 20
137.35271354170001
 30
0.0
 40
39.0
 50
75.0
 51
85.0
  0
ARC
  5
131
  8
┌▓È_1
 62
     5
 10
-190.7926432292
 20
137.35271354170001
 30
0.0
 40
39.0
 50
95.0
 51
105.0
  0
LINE
  5
132
  8
┌▓È_1
 62
     5
 10
-196.7926432292
 20
189.71004349649999
 30
0.0
 11
-196.7926432292
 21
190.0119957243999
 31
0.0
  0
ARC
  5
133
  8
┌▓È_1
 62
     5
 10
-177.36785215360001
 20
154.78185536149999
 30
0.0
 40
1.0
 50
145.0
 51
232.39474873489999
  0
ARC
  5
134
  8
┌▓È_1
 10
-190.7926432292
 20
137.35271354170001
 30
0.0
 40
49.600000000000001
 50
80.0
 51
100.0
  0
SOLID
  5
135
  8
┌▓È_1
 10
-182.17969361690001
 20
186.19917809110001
 30
0.0
 11
-185.4433406743
 21
185.80804017200001
 31
0.0
 12
-184.48038921899999
 22
186.5293147902
 32
0.0
 13
-184.48038921899999
 23
186.5293147902
 33
0.0
  0
SOLID
  5
136
  8
┌▓È_1
 10
-182.17969361690001
 20
186.19917809110001
 30
0.0
 11
-185.2016638371
 21
187.49226624549999
 31
0.0
 12
-184.48038921899999
 22
186.5293147902
 32
0.0
 13
-184.48038921899999
 23
186.5293147902
 33
0.0
  0
SOLID
  5
137
  8
┌▓È_1
 10
-199.40559284139999
 20
186.19917809110001
 30
0.0
 11
-196.38362262119989
 21
187.49226624549999
 31
0.0
 12
-197.10489723929999
 22
186.5293147902
 32
0.0
 13
-197.10489723929999
 23
186.5293147902
 33
0.0
  0
SOLID
  5
138
  8
┌▓È_1
 10
-199.40559284139999
 20
186.19917809110001
 30
0.0
 11
-196.141945784
 21
185.80804017200001
 31
0.0
 12
-197.10489723929999
 22
186.5293147902
 32
0.0
 13
-197.10489723929999
 23
186.5293147902
 33
0.0
  0
ARC
  5
139
  8
┌▓È_1
 62
     5
 10
-189.87339342339999
 20
159.33350014710001
 30
0.0
 40
1.0
 50
267.60525126509998
 51
355.0
  0
ARC
  5
13A
  8
┌▓È_1
 62
     5
 10
-190.7926432292
 20
137.35271354170001
 30
0.0
 40
21.0
 50
87.605251265100009
 51
92.394748734899991
  0
ARC
  5
13B
  8
┌▓È_1
 62
     5
 10
-191.711893035
 20
159.33350014710001
 30
0.0
 40
1.0
 50
185.0
 51
272.39474873490002
  0
ARC
  5
13C
  8
┌▓È_1
 62
     5
 10
-188.91052116520001
 20
181.81289366429999
 30
0.0
 40
2.0
 50
355.0
 51
87.5759589277
  0
LINE
  5
13D
  8
┌▓È_1
 62
     5
 10
-188.87719872529999
 20
159.24634440439999
 30
0.0
 11
-186.91813176900001
 21
181.63858217879999
 31
0.0
  0
ARC
  5
13E
  8
┌▓È_1
 62
     5
 10
-190.7926432292
 20
137.35271354170001
 30
0.0
 40
46.5
 50
87.5759589277
 51
92.424041072299985
  0
ARC
  5
13F
  8
┌▓È_1
 62
     5
 10
-192.67476529309999
 20
181.81289366429999
 30
0.0
 40
2.0
 50
92.424041072299985
 51
185.0
  0
LINE
  5
140
  8
┌▓È_1
 62
     5
 10
-192.7080877331
 20
159.24634440439999
 30
0.0
 11
-194.66715468929999
 21
181.63858217879999
 31
0.0
  0
INSERT
  5
141
  8
0
  6
CONTINUOUS
  2
*U109
 10
0.0
 20
0.0
 30
0.0
  0
INSERT
  5
142
  8
0
  6
CONTINUOUS
  2
*U110
 10
0.0
 20
0.0
 30
0.0
  0
LINE
  5
143
  8
┌▓È_1
 62
     5
 10
-154.7926432292
 20
117.8527135417
 30
0.0
 11
-157.7926432292
 21
117.8527135417
 31
0.0
  0
LINE
  5
144
  8
┌▓È_1
 62
     5
 10
-165.0859791078
 20
119.3527135417
 30
0.0
 11
-154.7926432292
 21
112.1452421661
 31
0.0
  0
ARC
  5
145
  8
┌▓È_1
 62
     5
 10
-190.7926432292
 20
137.35271354170001
 30
0.0
 40
53.0
 50
332.47291471210002
 51
338.41232561279998
  0
ARC
  5
146
  8
┌▓È_1
 62
     5
 10
-190.7926432292
 20
137.35271354170001
 30
0.0
 40
52.700000000000003
 50
333.10545580740001
 51
338.28321245439997
  0
ARC
  5
147
  8
┌▓È_1
 62
     5
 10
-190.7926432292
 20
137.35271354170001
 30
0.0
 40
39.0
 50
315.0
 51
325.0
  0
LINE
  5
148
  8
┌▓È_1
 62
     5
 10
-143.7926432292
 20
119.3527135417
 30
0.0
 11
-145.5426432292
 21
119.3527135417
 31
0.0
  0
LINE
  5
149
  8
┌▓È_1
 62
     5
 10
-153.0426432292
 20
119.3527135417
 30
0.0
 11
-154.7926432292
 21
119.3527135417
 31
0.0
  0
ARC
  5
14A
  8
┌▓È_1
 62
     5
 10
-160.77240117349999
 20
104.5040443613
 30
0.0
 40
2.0
 50
312.42404107229999
 51
45.0
  0
ARC
  5
14B
  8
┌▓È_1
 62
     5
 10
-190.7926432292
 20
137.35271354170001
 30
0.0
 40
46.5
 50
307.57595892770001
 51
312.42404107229999
  0
ARC
  5
14C
  8
┌▓È_1
 62
     5
 10
-190.7926432292
 20
137.35271354170001
 30
0.0
 40
21.0
 50
167.60525126510001
 51
172.39474873489999
  0
ARC
  5
14D
  8
┌▓È_1
 62
     5
 10
-212.5991183491
 20
140.26435274369999
 30
0.0
 40
1.0
 50
265.0
 51
352.39474873490002
  0
ARC
  5
14E
  8
┌▓È_1
 62
     5
 10
-204.21743430469999
 20
154.78185536149999
 30
0.0
 40
1.0
 50
307.60525126509998
 51
35.0
  0
ARC
  5
14F
  8
┌▓È_1
 62
     5
 10
-190.7926432292
 20
137.35271354170001
 30
0.0
 40
21.0
 50
127.60525126509999
 51
132.39474873489999
  0
ARC
  5
150
  8
┌▓È_1
 62
     5
 10
-197.44670275519999
 20
158.3222984642
 30
0.0
 40
1.0
 50
287.60525126509998
 51
15.0
  0
ARC
  5
151
  8
┌▓È_1
 62
     5
 10
-190.7926432292
 20
137.35271354170001
 30
0.0
 40
21.0
 50
107.60525126509999
 51
112.39474873490001
  0
ARC
  5
152
  8
┌▓È_1
 62
     5
 10
-190.7926432292
 20
137.35271354170001
 30
0.0
 40
21.0
 50
187.60525126510001
 51
192.39474873489999
  0
ARC
  5
153
  8
┌▓È_1
 62
     5
 10
-212.27986624190001
 20
132.63050566819999
 30
0.0
 40
1.0
 50
285.0
 51
12.3947487349
  0
ARC
  5
154
  8
┌▓È_1
 62
     5
 10
-212.5991183491
 20
134.44107433970001
 30
0.0
 40
1.0
 50
7.6052512650999997
 51
95.0
  0
ARC
  5
155
  8
┌▓È_1
 62
     5
 10
-205.62580671590001
 20
153.60009059079999
 30
0.0
 40
1.0
 50
225.0
 51
312.39474873490002
  0
ARC
  5
156
  8
┌▓È_1
 62
     5
 10
-209.3689379217
 20
149.1392005287
 30
0.0
 40
1.0
 50
327.60525126509998
 51
55.0
  0
ARC
  5
157
  8
┌▓È_1
 62
     5
 10
-190.7926432292
 20
137.35271354170001
 30
0.0
 40
21.0
 50
147.60525126510001
 51
152.39474873489999
  0
ARC
  5
158
  8
┌▓È_1
 62
     5
 10
-210.28818772759999
 20
147.54701316009999
 30
0.0
 40
1.0
 50
245.0
 51
332.39474873490002
  0
ARC
  5
159
  8
┌▓È_1
 62
     5
 10
-207.76753662190001
 20
178.48789306360001
 30
0.0
 40
2.0
 50
112.4240410723
 51
205.0
  0
ARC
  5
15A
  8
┌▓È_1
 62
     5
 10
-210.28818772759999
 20
127.1584139232
 30
0.0
 40
1.0
 50
27.605251265100001
 51
115.0
  0
ARC
  5
15B
  8
┌▓È_1
 62
     5
 10
-182.41095918479999
 20
157.6934945635
 30
0.0
 40
1.0
 50
247.60525126510001
 51
335.0
  0
ARC
  5
15C
  8
┌▓È_1
 62
     5
 10
-190.7926432292
 20
137.35271354170001
 30
0.0
 40
21.0
 50
67.605251265100009
 51
72.394748734899991
  0
ARC
  5
15D
  8
┌▓È_1
 62
     5
 10
-184.13858370310001
 20
158.3222984642
 30
0.0
 40
1.0
 50
165.0
 51
252.39474873489999
  0
LINE
  5
15E
  8
┌▓È_1
 62
     5
 10
-185.10450952939999
 20
158.58111750929999
 30
0.0
 11
-179.2868339188
 21
180.29297847000001
 31
0.0
  0
LINE
  5
15F
  8
┌▓È_1
 62
     5
 10
-189.44264322919989
 20
142.35271354170001
 30
0.0
 11
-189.44264322919989
 21
132.35271354170001
 31
0.0
  0
LINE
  5
160
  8
┌▓È_1
 62
     5
 10
-184.7926432292
 20
189.71004349649999
 30
0.0
 11
-184.7926432292
 21
190.0119957243999
 31
0.0
  0
ARC
  5
161
  8
┌▓È_1
 62
     5
 10
-199.1743272736
 20
157.6934945635
 30
0.0
 40
1.0
 50
205.0
 51
292.39474873490002
  0
ARC
  5
162
  8
┌▓È_1
 62
     5
 10
-204.23030419209999
 20
179.77534037980001
 30
0.0
 40
2.0
 50
15.0
 51
107.5759589277
  0
LINE
  5
163
  8
┌▓È_1
 62
     5
 10
-196.48077692890001
 20
158.58111750929999
 30
0.0
 11
-202.2984525395
 21
180.29297847000001
 31
0.0
  0
INSERT
  5
164
  8
0
  6
CONTINUOUS
  2
*U111
 10
0.0
 20
0.0
 30
0.0
  0
LINE
  5
165
  8
┌▓È_1
 62
     5
 10
-243.149973184
 20
131.35271354170001
 30
0.0
 11
-243.45192541189999
 21
131.35271354170001
 31
0.0
  0
ARC
  5
166
  8
┌▓È_1
 62
     5
 10
-190.7926432292
 20
137.35271354170001
 30
0.0
 40
39.0
 50
155.0
 51
165.0
  0
LINE
  5
167
  8
┌▓È_1
 62
     5
 10
-243.149973184
 20
143.35271354170001
 30
0.0
 11
-243.45192541189999
 21
143.35271354170001
 31
0.0
  0
ARC
  5
168
  8
┌▓È_1
 62
     5
 10
-234.25054624769999
 20
146.9266711994
 30
0.0
 40
2.0
 50
75.0
 51
167.57595892769999
  0
ARC
  5
169
  8
┌▓È_1
 62
     5
 10
-190.7926432292
 20
137.35271354170001
 30
0.0
 40
46.5
 50
167.57595892769999
 51
172.42404107230001
  0
ARC
  5
16A
  8
┌▓È_1
 62
     5
 10
-234.90420038080001
 20
143.219614398
 30
0.0
 40
2.0
 50
172.42404107230001
 51
265.0
  0
ARC
  5
16B
  8
┌▓È_1
 62
     5
 10
-228.35522764020001
 20
161.21276912339999
 30
0.0
 40
2.0
 50
55.0
 51
147.57595892769999
  0
ARC
  5
16C
  8
┌▓È_1
 62
     5
 10
-190.7926432292
 20
137.35271354170001
 30
0.0
 40
46.5
 50
147.57595892769999
 51
152.42404107230001
  0
ARC
  5
16D
  8
┌▓È_1
 62
     5
 10
-230.2373497042
 20
157.95283808260001
 30
0.0
 40
2.0
 50
152.42404107230001
 51
245.0
  0
ARC
  5
16E
  8
┌▓È_1
 62
     5
 10
-234.90420038080001
 20
131.4858126853
 30
0.0
 40
2.0
 50
95.0
 51
187.57595892769999
  0
ARC
  5
16F
  8
┌▓È_1
 62
     5
 10
-190.7926432292
 20
137.35271354170001
 30
0.0
 40
46.5
 50
187.57595892769999
 51
192.42404107230001
  0
ARC
  5
170
  8
┌▓È_1
 62
     5
 10
-234.25054624769999
 20
127.7787558839
 30
0.0
 40
2.0
 50
192.42404107230001
 51
285.0
  0
ARC
  5
171
  8
┌▓È_1
 62
     5
 10
-190.7926432292
 20
137.35271354170001
 30
0.0
 40
21.0
 50
207.60525126510001
 51
212.39474873489999
  0
ARC
  5
172
  8
┌▓È_1
 62
     5
 10
-190.7926432292
 20
137.35271354170001
 30
0.0
 40
39.0
 50
115.0
 51
125.0
  0
LINE
  5
173
  8
┌▓È_1
 62
     5
 10
-203.39828226040001
 20
155.3554317979
 30
0.0
 11
-216.2910028995
 21
173.76814508000001
 31
0.0
  0
ARC
  5
174
  8
┌▓È_1
 62
     5
 10
-190.7926432292
 20
137.35271354170001
 30
0.0
 40
46.5
 50
107.5759589277
 51
112.4240410723
  0
LINE
  5
175
  8
┌▓È_1
 62
     5
 10
-200.0806350606
 20
157.2708763018
 30
0.0
 11
-209.580152196
 21
177.64265654019999
 31
0.0
  0
ARC
  5
176
  8
┌▓È_1
 62
     5
 10
-173.8177498364
 20
178.48789306360001
 30
0.0
 40
2.0
 50
335.0
 51
67.5759589277
  0
LINE
  5
177
  8
┌▓È_1
 62
     5
 10
-181.5046513977
 20
157.2708763018
 30
0.0
 11
-172.0051342623
 21
177.64265654019999
 31
0.0
  0
ARC
  5
178
  8
┌▓È_1
 62
     5
 10
-190.7926432292
 20
137.35271354170001
 30
0.0
 40
46.5
 50
67.5759589277
 51
72.4240410723
  0
ARC
  5
179
  8
┌▓È_1
 62
     5
 10
-177.3549822663
 20
179.77534037980001
 30
0.0
 40
2.0
 50
72.4240410723
 51
165.0
  0
ARC
  5
17A
  8
┌▓È_1
 62
     5
 10
-215.7926432292
 20
136.16931679109999
 30
0.0
 40
1.0
 50
275.0
 51
0.0
  0
LINE
  5
17B
  8
┌▓È_1
 62
     5
 10
-214.7926432292
 20
136.16931679109999
 30
0.0
 11
-214.7926432292
 21
138.53611029230001
 31
0.0
  0
ARC
  5
17C
  8
┌▓È_1
 62
     5
 10
-215.7926432292
 20
138.53611029230001
 30
0.0
 40
1.0
 50
0.0
 51
85.0
  0
ARC
  5
17D
  8
┌▓È_1
 62
     5
 10
-212.27986624190001
 20
142.07492141509999
 30
0.0
 40
1.0
 50
347.60525126509998
 51
75.0
  0
LINE
  5
17E
  8
┌▓È_1
 62
     5
 10
-200.0806350606
 20
117.43455078149999
 30
0.0
 11
-209.580152196
 21
97.062770543200003
 31
0.0
  0
ARC
  5
17F
  8
┌▓È_1
 62
     5
 10
-190.7926432292
 20
137.35271354170001
 30
0.0
 40
46.5
 50
247.5759589277001
 51
252.42404107230001
  0
LINE
  5
180
  8
┌▓È_1
 62
     5
 10
-196.7926432292
 20
84.995383586800003
 30
0.0
 11
-196.7926432292
 21
84.693431358899986
 31
0.0
  0
ARC
  5
181
  8
┌▓È_1
 62
     5
 10
-190.7926432292
 20
137.35271354170001
 30
0.0
 40
39.0
 50
275.0
 51
285.0
  0
ARC
  5
182
  8
┌▓È_1
 62
     5
 10
-190.7926432292
 20
137.35271354170001
 30
0.0
 40
39.0
 50
255.0
 51
265.0
  0
LINE
  5
183
  8
┌▓È_1
 62
     5
 10
-184.7926432292
 20
84.995383586800003
 30
0.0
 11
-184.7926432292
 21
84.693431358899986
 31
0.0
  0
ARC
  5
184
  8
┌▓È_1
 62
     5
 10
-204.23030419209999
 20
94.930086703499995
 30
0.0
 40
2.0
 50
252.42404107230001
 51
345.0
  0
ARC
  5
185
  8
┌▓È_1
 62
     5
 10
-192.67476529309999
 20
92.892533419000003
 30
0.0
 40
2.0
 50
175.0
 51
267.57595892770001
  0
ARC
  5
186
  8
┌▓È_1
 62
     5
 10
-190.7926432292
 20
137.35271354170001
 30
0.0
 40
46.5
 50
267.57595892770001
 51
272.42404107229999
  0
ARC
  5
187
  8
┌▓È_1
 62
     5
 10
-188.91052116520001
 20
92.892533419000003
 30
0.0
 40
2.0
 50
272.42404107229999
 51
5.0
  0
ARC
  5
188
  8
┌▓È_1
 62
     5
 10
-177.3549822663
 20
94.930086703499995
 30
0.0
 40
2.0
 50
195.0
 51
287.57595892770001
  0
ARC
  5
189
  8
┌▓È_1
 62
     5
 10
-173.8177498364
 20
96.217534019699997
 30
0.0
 40
2.0
 50
292.4240410723001
 51
25.0
  0
ARC
  5
18A
  8
┌▓È_1
 62
     5
 10
-190.7926432292
 20
137.35271354170001
 30
0.0
 40
46.5
 50
287.57595892770001
 51
292.4240410723001
  0
LINE
  5
18B
  8
┌▓È_1
 62
     5
 10
-208.79536148540001
 20
149.9583525729
 30
0.0
 11
-227.20807476749999
 21
162.85107321199999
 31
0.0
  0
LINE
  5
18C
  8
┌▓È_1
 62
     5
 10
-206.33291349710001
 20
152.8929838096
 30
0.0
 11
-222.22709884720001
 21
168.7871691597
 31
0.0
  0
INSERT
  5
18D
  8
0
  6
CONTINUOUS
  2
*U112
 10
0.0
 20
0.0
 30
0.0
  0
ARC
  5
18E
  8
┌▓È_1
 62
     5
 10
-190.7926432292
 20
137.35271354170001
 30
0.0
 40
39.0
 50
135.0
 51
145.0
  0
LINE
  5
18F
  8
┌▓È_1
 62
     5
 10
-212.0210471968
 20
143.0408472414
 30
0.0
 11
-233.73290815749999
 21
148.85852285199999
 31
0.0
  0
LINE
  5
190
  8
┌▓È_1
 62
     5
 10
-212.6862740919
 20
139.26815804559999
 30
0.0
 11
-235.0785118663
 21
141.22722500180001
 31
0.0
  0
LINE
  5
191
  8
┌▓È_1
 62
     5
 10
-210.71080598930001
 20
146.64070537309999
 30
0.0
 11
-231.08258622770001
 21
156.14022250849999
 31
0.0
  0
LINE
  5
192
  8
┌▓È_1
 62
     5
 10
-212.6862740919
 20
135.43726903780001
 30
0.0
 11
-235.0785118663
 21
133.4782020815
 31
0.0
  0
LINE
  5
193
  8
┌▓È_1
 62
     5
 10
-212.0210471968
 20
131.66457984190001
 30
0.0
 11
-233.73290815749999
 21
125.8469042313
 31
0.0
  0
ARC
  5
194
  8
┌▓È_1
 62
     5
 10
-217.9293069881
 20
172.62099220729999
 30
0.0
 40
2.0
 50
35.0
 51
127.5759589277
  0
ARC
  5
195
  8
┌▓È_1
 62
     5
 10
-190.7926432292
 20
137.35271354170001
 30
0.0
 40
46.5
 50
127.5759589277
 51
132.42404107230001
  0
ARC
  5
196
  8
┌▓È_1
 62
     5
 10
-220.81288528479999
 20
170.20138272200001
 30
0.0
 40
2.0
 50
132.42404107230001
 51
225.0
  0
LINE
  5
197
  8
┌▓È_1
 62
     5
 10
-133.292643228
 20
-71.989380869800002
 30
0.0
 11
-116.2926432619
 21
-71.989380869800002
 31
0.0
  0
ARC
  5
198
  8
┌▓È_1
 62
     5
 10
-220.81288528479999
 20
104.5040443613
 30
0.0
 40
2.0
 50
135.0
 51
227.5759589276
  0
ARC
  5
199
  8
┌▓È_1
 62
     5
 10
-190.7926432292
 20
137.35271354170001
 30
0.0
 40
46.5
 50
227.57595892769999
 51
232.42404107230001
  0
ARC
  5
19A
  8
┌▓È_1
 62
     5
 10
-217.9293069881
 20
102.084434876
 30
0.0
 40
2.0
 50
232.42404107230001
 51
325.0
  0
ARC
  5
19B
  8
┌▓È_1
 62
     5
 10
-190.7926432292
 20
137.35271354170001
 30
0.0
 40
39.0
 50
215.0
 51
225.0
  0
ARC
  5
19C
  8
┌▓È_1
 62
     5
 10
-228.35522764020001
 20
113.4926579599
 30
0.0
 40
2.0
 50
212.42404107230001
 51
305.0
  0
ARC
  5
19D
  8
┌▓È_1
 62
     5
 10
-230.2373497042
 20
116.7525890008
 30
0.0
 40
2.0
 50
115.0
 51
207.57595892769999
  0
ARC
  5
19E
  8
┌▓È_1
 62
     5
 10
-190.7926432292
 20
137.35271354170001
 30
0.0
 40
46.5
 50
207.57595892769999
 51
212.42404107230001
  0
ARC
  5
19F
  8
┌▓È_1
 62
     5
 10
-199.1743272736
 20
117.0119325198
 30
0.0
 40
1.0
 50
67.605251265100009
 51
155.0
  0
ARC
  5
1A0
  8
┌▓È_1
 62
     5
 10
-190.7926432292
 20
137.35271354170001
 30
0.0
 40
21.0
 50
247.60525126510001
 51
252.39474873489999
  0
ARC
  5
1A1
  8
┌▓È_1
 62
     5
 10
-197.44670275519999
 20
116.38312861910001
 30
0.0
 40
1.0
 50
345.0
 51
72.394748734899991
  0
ARC
  5
1A2
  8
┌▓È_1
 62
     5
 10
-190.7926432292
 20
137.35271354170001
 30
0.0
 40
21.0
 50
267.60525126509998
 51
272.39474873490002
  0
ARC
  5
1A3
  8
┌▓È_1
 62
     5
 10
-184.13858370310001
 20
116.38312861910001
 30
0.0
 40
1.0
 50
107.60525126509999
 51
195.0
  0
ARC
  5
1A4
  8
┌▓È_1
 62
     5
 10
-190.7926432292
 20
137.35271354170001
 30
0.0
 40
21.0
 50
287.60525126509998
 51
292.39474873490002
  0
ARC
  5
1A5
  8
┌▓È_1
 62
     5
 10
-182.41095918479999
 20
117.0119325198
 30
0.0
 40
1.0
 50
25.0
 51
112.39474873490001
  0
LINE
  5
1A6
  8
┌▓È_1
 62
     5
 10
-196.48077692890001
 20
116.12430957399999
 30
0.0
 11
-202.2984525395
 21
94.4124486133
 31
0.0
  0
ARC
  5
1A7
  8
┌▓È_1
 62
     5
 10
-191.711893035
 20
115.3719269362
 30
0.0
 40
1.0
 50
87.605251265100009
 51
175.0
  0
ARC
  5
1A8
  8
┌▓È_1
 62
     5
 10
-189.87339342339999
 20
115.3719269362
 30
0.0
 40
1.0
 50
5.0
 51
92.394748734899991
  0
LINE
  5
1A9
  8
┌▓È_1
 62
     5
 10
-192.7080877331
 20
115.45908267900001
 30
0.0
 11
-194.66715468929999
 21
93.066844904500016
 31
0.0
  0
LINE
  5
1AA
  8
┌▓È_1
 62
     5
 10
-188.87719872529999
 20
115.45908267900001
 30
0.0
 11
-186.91813176900001
 21
93.066844904500016
 31
0.0
  0
LINE
  5
1AB
  8
┌▓È_1
 62
     5
 10
-185.10450952939999
 20
116.12430957399999
 30
0.0
 11
-179.2868339188
 21
94.4124486133
 31
0.0
  0
LINE
  5
1AC
  8
┌▓È_1
 62
     5
 10
-181.5046513977
 20
117.43455078149999
 30
0.0
 11
-172.0051342623
 21
97.062770543200003
 31
0.0
  0
ARC
  5
1AD
  8
┌▓È_1
 62
     5
 10
-207.76753662190001
 20
96.217534019699997
 30
0.0
 40
2.0
 50
155.0
 51
247.5759589277001
  0
ARC
  5
1AE
  8
┌▓È_1
 62
     5
 10
-190.7926432292
 20
137.35271354170001
 30
0.0
 40
39.0
 50
235.0
 51
245.0
  0
LINE
  5
1AF
  8
┌▓È_1
 62
     5
 10
-203.39828226040001
 20
119.3499952854
 30
0.0
 11
-216.2910028995
 21
100.9372820033
 31
0.0
  0
LINE
  5
1B0
  8
┌▓È_1
 62
     5
 10
-134.79264322930001
 20
-80.989380869800002
 30
0.0
 11
-134.79264322930001
 21
-82.489380869800002
 31
0.0
  0
LINE
  5
1B1
  8
┌▓È_1
 62
     5
 10
-143.29264322930001
 20
-78.68938086979999
 30
0.0
 11
-143.29264322930001
 21
-80.489380869799987
 31
0.0
  0
LINE
  5
1B2
  8
┌▓È_1
 62
     5
 10
-143.29264322930001
 20
-78.489380869800002
 30
0.0
 11
-138.79264322930001
 21
-78.489380869800002
 31
0.0
  0
LINE
  5
1B3
  8
┌▓È_1
 62
     5
 10
-140.29264322930001
 20
-64.789380869799999
 30
0.0
 11
-140.29264322930001
 21
-69.68938086979999
 31
0.0
  0
LINE
  5
1B4
  8
┌▓È_1
 62
     5
 10
-159.5426432232
 20
-142.4893807942
 30
0.0
 11
-158.79264323379999
 21
-142.4893807942
 31
0.0
  0
LINE
  5
1B5
  8
┌▓È_1
 62
     5
 10
-159.5426432232
 20
-132.49406935109999
 30
0.0
 11
-159.5426432232
 21
-151.18938079419999
 31
0.0
  0
ARC
  5
1B6
  8
┌▓È_1
 62
     5
 10
-162.5426432232
 20
-151.18938079419999
 30
0.0
 40
3.0
 50
270.0
 51
0.0
  0
LINE
  5
1B7
  8
┌▓È_1
 62
     5
 10
-164.2926432232
 20
-154.18938079419999
 30
0.0
 11
-162.5426432232
 21
-154.18938079419999
 31
0.0
  0
LINE
  5
1B8
  8
┌▓È_1
 62
     5
 10
-158.79264323379999
 20
-150.18938079419999
 30
0.0
 11
-158.79264323379999
 21
-151.9893807942
 31
0.0
  0
ARC
  5
1B9
  8
┌▓È_1
 62
     5
 10
-161.79264323379999
 20
-151.9893807942
 30
0.0
 40
3.0
 50
270.0
 51
0.0
  0
LINE
  5
1BA
  8
┌▓È_1
 62
     5
 10
-143.7915544905
 20
-60.689380869799997
 30
0.0
 11
-138.5927044236
 21
-60.689380869799997
 31
0.0
  0
ARC
  5
1BB
  8
┌▓È_1
 62
     5
 10
-143.7915544905
 20
-61.189380869799997
 30
0.0
 40
0.5
 50
90.0
 51
180.0
  0
LINE
  5
1BC
  8
┌▓È_1
 62
     5
 10
-143.79155435819999
 20
-73.889380869799993
 30
0.0
 11
-138.5915543582
 21
-73.889380869799993
 31
0.0
  0
ARC
  5
1BD
  8
┌▓È_1
 62
     5
 10
-143.79155435819999
 20
-73.389380869799993
 30
0.0
 40
0.5
 50
180.0
 51
270.0
  0
LINE
  5
1BE
  8
┌▓È_1
 62
     5
 10
-140.5915543582
 20
-70.18938086979999
 30
0.0
 11
-138.5915543582
 21
-70.18938086979999
 31
0.0
  0
ARC
  5
1BF
  8
┌▓È_1
 62
     5
 10
-138.5915543582
 20
-70.68938086979999
 30
0.0
 40
0.5
 50
0.0
 51
90.0
  0
LINE
  5
1C0
  8
┌▓È_1
 62
     5
 10
-138.0915543582
 20
-70.68938086979999
 30
0.0
 11
-138.0915543582
 21
-73.389380869799993
 31
0.0
  0
ARC
  5
1C1
  8
┌▓È_1
 62
     5
 10
-116.2926432302
 20
-72.489380869800002
 30
0.0
 40
0.5
 50
0.0
 51
90.0
  0
ARC
  5
1C2
  8
┌▓È_1
 62
     5
 10
-116.2926432302
 20
-75.489380869800002
 30
0.0
 40
0.5
 50
270.0
 51
0.0
  0
LINE
  5
1C3
  8
┌▓È_1
 62
     5
 10
-115.7926432302
 20
-72.489380869800002
 30
0.0
 11
-115.7926432302
 21
-75.489380869800002
 31
0.0
  0
ARC
  5
1C4
  8
┌▓È_1
 62
     5
 10
-144.5426432232
 20
-142.88938079420001
 30
0.0
 40
19.75
 50
140.52564749050001
 51
179.99999746680001
  0
LINE
  5
1C5
  8
┌▓È_1
 62
     5
 10
-162.7926432232
 20
-149.38938079420001
 30
0.0
 11
-164.2926432232
 21
-149.38938079420001
 31
0.0
  0
LINE
  5
1C6
  8
┌▓È_1
 62
     5
 10
-164.2926432232
 20
-142.889379921
 30
0.0
 11
-164.2926432232
 21
-149.38938079420001
 31
0.0
  0
INSERT
  5
1C8
  8
Éíû@É³
  2
BALLON2
 10
0.0
 20
0.0
 30
0.0
  0
LINE
  5
1D1
  8
┌▓È_1
 62
     5
 10
-128.792643228
 20
-75.989380869800002
 30
0.0
 11
-116.2926432302
 21
-75.989380869800002
 31
0.0
  0
LINE
  5
1D2
  8
┌▓È_1
 10
-134.79264322930001
 20
-64.489380869800002
 30
0.0
 11
-134.79264322930001
 21
-80.989380869800002
 31
0.0
  0
LINE
  5
1D3
  8
┌▓È_1
 62
     5
 10
-137.79264322930001
 20
-60.689834971700002
 30
0.0
 11
-137.79264322930001
 21
-64.489380869800002
 31
0.0
  0
LINE
  5
1D4
  8
┌▓È_1
 62
     5
 10
-137.5083440162
 20
-60.390246111300002
 30
0.0
 11
-120.3188112075
 21
-59.489380869800002
 31
0.0
  0
ARC
  5
1D5
  8
┌▓È_1
 62
     5
 10
-137.4926432293
 20
-60.689834971700002
 30
0.0
 40
0.3
 50
93.0
 51
180.0
  0
ARC
  5
1D6
  8
┌▓È_1
 62
     5
 10
-138.5915543582
 20
-73.389380869799993
 30
0.0
 40
0.5
 50
270.0
 51
0.0
  0
LINE
  5
1D7
  8
┌▓È_1
 62
     5
 10
-140.59264322929999
 20
-64.489380869800002
 30
0.0
 11
-140.59264322929999
 21
-70.18938086979999
 31
0.0
  0
LINE
  5
1D8
  8
┌▓È_1
 62
     5
 10
-144.2915544905
 20
-61.189380869799997
 30
0.0
 11
-144.29155435819999
 21
-73.389380869799993
 31
0.0
  0
LINE
  5
1D9
  8
┌▓È_1
 62
     5
 10
-138.0927044236
 20
-61.189380869799997
 30
0.0
 11
-138.0927044236
 21
-63.989380869799987
 31
0.0
  0
ARC
  5
1DA
  8
┌▓È_1
 62
     5
 10
-138.5927044236
 20
-63.989380869799987
 30
0.0
 40
0.5
 50
270.0
 51
0.0
  0
LINE
  5
1DB
  8
┌▓È_1
 62
     5
 10
-138.5927044236
 20
-64.489380869800002
 30
0.0
 11
-140.59264322929999
 21
-64.489380869800002
 31
0.0
  0
ARC
  5
1DC
  8
┌▓È_1
 62
     5
 10
-138.5927044236
 20
-61.189380869799997
 30
0.0
 40
0.5
 50
0.0
 51
90.0
  0
LINE
  5
1DD
  8
┌▓È_1
 62
     5
 10
-134.916643228
 20
-73.613380869799997
 30
0.0
 11
-134.916643228
 21
-88.489380869800002
 31
0.0
  0
LINE
  5
1DE
  8
┌▓È_1
 62
     5
 10
-133.292643228
 20
-71.989380869800002
 30
0.0
 11
-134.916643228
 21
-73.613380869799997
 31
0.0
  0
LINE
  5
1DF
  8
┌▓È_1
 62
     5
 10
-140.2900791916
 20
-69.989380869800002
 30
0.0
 11
-137.79264322930001
 21
-69.989380869800002
 31
0.0
  0
LINE
  5
1E0
  8
┌▓È_1
 62
     5
 10
-140.2900791916
 20
-64.489380869800002
 30
0.0
 11
-137.79264322930001
 21
-64.489380869800002
 31
0.0
  0
ARC
  5
1E1
  8
┌▓È_1
 62
     5
 10
-140.2900791916
 20
-64.789380869799999
 30
0.0
 40
0.3
 50
90.0
 51
180.0
  0
ARC
  5
1E2
  8
┌▓È_1
 62
     5
 10
-143.09264322929999
 20
-78.68938086979999
 30
0.0
 40
0.2
 50
90.0
 51
180.0
  0
LINE
  5
1E3
  8
┌▓È_1
 62
     5
 10
-120.2926432293
 20
-64.489380869800002
 30
0.0
 11
-133.29264322930001
 21
-64.489380869800002
 31
0.0
  0
ARC
  5
1E4
  8
┌▓È_1
 62
     5
 10
-120.2926432293
 20
-63.989380869799987
 30
0.0
 40
0.5
 50
270.0
 51
0.0
  0
ARC
  5
1E5
  8
┌▓È_1
 62
     5
 10
-138.79264322930001
 20
-77.489380869800002
 30
0.0
 40
1.0
 50
270.0
 51
0.0
  0
LINE
  5
1E6
  8
┌▓È_1
 62
     5
 10
-137.79264322930001
 20
-69.989380869800002
 30
0.0
 11
-137.79264322930001
 21
-77.489380869800002
 31
0.0
  0
ARC
  5
1E7
  8
┌▓È_1
 62
     5
 10
-135.29264322930001
 20
-82.489380869800002
 30
0.0
 40
0.5
 50
270.0
 51
0.0
  0
LINE
  5
1E8
  8
┌▓È_1
 62
     5
 10
-145.29264322930001
 20
-80.68938086979999
 30
0.0
 11
-145.29264322930001
 21
-82.789380869799999
 31
0.0
  0
ARC
  5
1E9
  8
┌▓È_1
 62
     5
 10
-145.09264322929999
 20
-82.789380869799999
 30
0.0
 40
0.2
 50
180.0
 51
270.0
  0
LINE
  5
1EA
  8
┌▓È_1
 62
     5
 10
-145.29264322930001
 20
-82.989380869799987
 30
0.0
 11
-135.29264322930001
 21
-82.989380869799987
 31
0.0
  0
LINE
  5
1EB
  8
┌▓È_1
 62
     5
 10
-148.09264322320001
 20
-82.389380869799993
 30
0.0
 11
-150.59264322320001
 21
-82.389380869799993
 31
0.0
  0
ARC
  5
1EC
  8
┌▓È_1
 62
     5
 10
-140.2900791916
 20
-69.68938086979999
 30
0.0
 40
0.3
 50
180.0
 51
270.0
  0
LINE
  5
1ED
  8
┌▓È_1
 62
     5
 10
-140.59007919160001
 20
-64.789380869799999
 30
0.0
 11
-140.59007919160001
 21
-69.68938086979999
 31
0.0
  0
LINE
  5
1EE
  8
┌▓È_1
 62
     5
 10
-139.9926432293
 20
-64.489380869800002
 30
0.0
 11
-137.79264322930001
 21
-64.489380869800002
 31
0.0
  0
ARC
  5
1EF
  8
┌▓È_1
 62
     5
 10
-139.9926432293
 20
-69.68938086979999
 30
0.0
 40
0.3
 50
180.0
 51
270.0
  0
ARC
  5
1F0
  8
┌▓È_1
 62
     5
 10
-139.9926432293
 20
-64.789380869799999
 30
0.0
 40
0.3
 50
90.0
 51
180.0
  0
ARC
  5
1F1
  8
┌▓È_1
 62
     5
 10
-145.79264323149999
 20
-77.489380869800002
 30
0.0
 40
1.0
 50
90.0
 51
270.0
  0
ARC
  5
1F2
  8
┌▓È_1
 62
     5
 10
-139.29264323149999
 20
-77.489380869800002
 30
0.0
 40
1.0
 50
270.0
 51
90.0
  0
LINE
  5
1F3
  8
┌▓È_1
 62
     5
 10
-145.79264332549999
 20
-78.489380869800002
 30
0.0
 11
-139.29264313749999
 21
-78.489380869800002
 31
0.0
  0
LINE
  5
1F4
  8
┌▓È_1
 62
     5
 10
-139.2926431846
 20
-76.489380869800002
 30
0.0
 11
-145.79264323149999
 21
-76.489380869800002
 31
0.0
  0
LINE
  5
1F5
  8
┌▓È_1
 10
-133.292643228
 20
-88.489380869800002
 30
0.0
 11
-134.916643228
 21
-88.489380869800002
 31
0.0
  0
LINE
  5
1F6
  8
┌▓È_1
 10
-133.292643228
 20
-71.989380869800002
 30
0.0
 11
-133.292643228
 21
-88.489380869800002
 31
0.0
  0
LINE
  5
1F7
  8
┌▓È_1
 62
     5
 10
-157.98911025500001
 20
-96.107947693799986
 30
0.0
 11
-158.2926432232
 21
-130.88938079420001
 31
0.0
  0
LINE
  5
1F8
  8
┌▓È_1
 62
     5
 10
-159.4890531396
 20
-96.094857890499995
 30
0.0
 11
-159.78785062969999
 21
-130.33365894580001
 31
0.0
  0
LINE
  5
1F9
  8
┌▓È_1
 62
     5
 10
-147.076984447
 20
-78.489380869800002
 30
0.0
 11
-143.74264304190001
 21
-78.489380869800002
 31
0.0
  0
LINE
  5
1FA
  8
┌▓È_1
 62
     5
 10
-145.79264322930001
 20
-80.489380869799987
 30
0.0
 11
-143.7426432293
 21
-80.489380869799987
 31
0.0
  0
ARC
  5
1FB
  8
┌▓È_1
 62
     5
 10
-143.7426432293
 20
-80.189380869799976
 30
0.0
 40
0.3
 50
270.0
 51
0.0
  0
LINE
  5
1FC
  8
┌▓È_1
 62
     5
 10
-143.4426432292999
 20
-78.789380869799984
 30
0.0
 11
-143.4426432292999
 21
-80.189380869799976
 31
0.0
  0
ARC
  5
1FD
  8
┌▓È_1
 62
     5
 10
-143.7426432293
 20
-78.789380869799984
 30
0.0
 40
0.3
 50
0.0
 51
90.0
  0
LINE
  5
1FE
  8
┌▓È_1
 62
     5
 10
-147.69260577220001
 20
-82.989380794200002
 30
0.0
 11
-147.69260577220001
 21
-98.989380794200002
 31
0.0
  0
LINE
  5
1FF
  8
┌▓È_1
  6
STITCH
 10
-146.1944369874
 20
-82.989380794200002
 30
0.0
 11
-146.1944369874
 21
-98.989380794200002
 31
0.0
  0
INSERT
  5
201
  8
┌▓È_1
 62
     5
  2
CLUMP3
 10
0.0
 20
0.0
 30
0.0
  0
LINE
  5
218
  8
┌▓È_1
 10
-133.29264322930001
 20
-64.489380869800002
 30
0.0
 11
-134.79264322930001
 21
-64.489380869800002
 31
0.0
  0
LINE
  5
219
  8
┌▓È_1
 62
     5
 10
-134.79264322930001
 20
-80.989380869800002
 30
0.0
 11
-133.29264322930001
 21
-79.489380869800002
 31
0.0
  0
LINE
  5
21A
  8
┌▓È_1
 62
     5
 10
-133.29264322930001
 20
-64.489380869800002
 30
0.0
 11
-133.29264322930001
 21
-79.489380869800002
 31
0.0
  0
LINE
  5
21B
  8
┌▓È_1
 62
     5
 10
-130.792643228
 20
-88.989380869800016
 30
0.0
 11
-133.359656057
 21
-96.177016780800017
 31
0.0
  0
LINE
  5
21C
  8
┌▓È_1
 62
     5
 10
-162.7926432232
 20
-142.88938017410001
 30
0.0
 11
-162.7926432232
 21
-149.38938079420001
 31
0.0
  0
LINE
  5
21D
  8
┌▓È_1
 62
     5
 10
-147.2769767538
 20
-78.687635562700009
 30
0.0
 11
-147.8686736205
 21
-146.4893807942
 31
0.0
  0
LINE
  5
21E
  8
┌▓È_1
 62
     5
 10
-157.29264323379999
 20
-142.4893807942
 30
0.0
 11
-157.29264323379999
 21
-151.9893807942
 31
0.0
  0
ARC
  5
21F
  8
┌▓È_1
 62
     5
 10
-120.2926432293
 20
-59.988695637200003
 30
0.0
 40
0.5
 50
0.0
 51
93.0
  0
LINE
  5
220
  8
┌▓È_1
 62
     5
 10
-119.7926432293
 20
-59.988695637200003
 30
0.0
 11
-119.7926432293
 21
-63.989380869799987
 31
0.0
  0
ARC
  5
221
  8
┌▓È_1
 62
     5
 10
-145.09264322929999
 20
-80.68938086979999
 30
0.0
 40
0.2
 50
90.0
 51
180.0
  0
LINE
  5
222
  8
┌▓È_1
 62
     5
 10
-147.69260577220001
 20
-82.989380794200002
 30
0.0
 11
-150.93905334109999
 21
-82.989380794200002
 31
0.0
  0
ARC
  5
223
  8
┌▓È_1
 62
     5
 10
-154.48924352430001
 20
-96.138490567999995
 30
0.0
 40
5.0
 50
150.0
 51
179.5
  0
ARC
  5
224
  8
┌▓È_1
 62
     5
 10
-154.48924352430001
 20
-96.138490567999995
 30
0.0
 40
3.5
 50
150.0
 51
179.5
  0
ARC
  5
225
  8
┌▓È_1
 62
     5
 10
-141.09264322320001
 20
-74.68938086979999
 30
0.0
 40
0.3
 50
0.0
 51
90.0
  0
LINE
  5
226
  8
┌▓È_1
 62
     5
 10
-140.7926432232
 20
-74.68938086979999
 30
0.0
 11
-140.7926432232
 21
-76.089380869799996
 31
0.0
  0
LINE
  5
227
  8
┌▓È_1
 62
     5
 10
-141.09264322320001
 20
-76.389380869799993
 30
0.0
 11
-142.1864254406
 21
-76.389380869799993
 31
0.0
  0
ARC
  5
228
  8
┌▓È_1
 62
     5
 10
-141.09264322320001
 20
-76.089380869799996
 30
0.0
 40
0.3
 50
270.0
 51
0.0
  0
LINE
  5
229
  8
┌▓È_1
 62
     5
 10
-143.39886100589999
 20
-76.389380869799993
 30
0.0
 11
-147.2926432232
 21
-76.389380869799993
 31
0.0
  0
LINE
  5
22A
  8
┌▓È_1
 62
     5
 10
-143.7926432232
 20
-74.389380869799993
 30
0.0
 11
-148.59264322320001
 21
-74.389380869799993
 31
0.0
  0
LINE
  5
22B
  8
┌▓È_1
 62
     5
 10
-141.09264322320001
 20
-74.389380869799993
 30
0.0
 11
-141.7926432232
 21
-74.389380869799993
 31
0.0
  0
ARC
  5
22C
  8
┌▓È_1
 62
     5
 10
-142.2926432232
 20
-74.389380869799993
 30
0.0
 40
0.5
 50
0.0
 51
90.0
  0
LINE
  5
22D
  8
┌▓È_1
 62
     5
 10
-142.2926432232
 20
-73.889380869799993
 30
0.0
 11
-143.2926432232
 21
-73.889380869799993
 31
0.0
  0
ARC
  5
22E
  8
┌▓È_1
 62
     5
 10
-143.2926432232
 20
-74.389380869799993
 30
0.0
 40
0.5
 50
90.0
 51
180.0
  0
LINE
  5
22F
  8
┌▓È_1
 62
     5
 10
-142.57613694450001
 20
-77.064380994899992
 30
0.0
 11
-142.1864254406
 21
-76.389380869799993
 31
0.0
  0
LINE
  5
230
  8
┌▓È_1
 62
     5
 10
-143.0091494776
 20
-77.064381037100006
 30
0.0
 11
-143.39886100589999
 21
-76.389380869799993
 31
0.0
  0
ARC
  5
231
  8
┌▓È_1
 62
     5
 10
-142.7926432232
 20
-76.93938086979999
 30
0.0
 40
0.25
 50
210.00002857600001
 51
329.99999745470001
  0
LINE
  5
232
  8
┌▓È_1
 62
     5
 10
-147.5926432231999
 20
-76.68938086979999
 30
0.0
 11
-147.5926432231999
 21
-81.889380869799993
 31
0.0
  0
ARC
  5
233
  8
┌▓È_1
 62
     5
 10
-147.2926432232
 20
-76.68938086979999
 30
0.0
 40
0.3
 50
90.0
 51
180.0
  0
LINE
  5
234
  8
┌▓È_1
 62
     5
 10
-154.79264324019999
 20
-180.98938077529999
 30
0.0
 11
-141.03898081880001
 21
-180.98938077529999
 31
0.0
  0
LINE
  5
235
  8
┌▓È_1
 62
     5
 10
-160.52692895760001
 20
-211.98938082929999
 30
0.0
 11
-158.2926432438
 21
-215.98938083120001
 31
0.0
  0
ARC
  5
236
  8
┌▓È_1
 62
     5
 10
-141.03898081880001
 20
-173.98938077529999
 30
0.0
 40
7.0
 50
270.0
 51
359.50000000000011
  0
LINE
  5
237
  8
┌▓È_1
 62
     5
 10
-158.79264323379999
 20
-142.4893807942
 30
0.0
 11
-158.79264323379999
 21
-150.18938079419999
 31
0.0
  0
LINE
  5
238
  8
┌▓È_1
 62
     5
 10
-139.9926432293
 20
-69.989380869800002
 30
0.0
 11
-137.79264322930001
 21
-69.989380869800002
 31
0.0
  0
LINE
  5
239
  8
┌▓È_1
 62
     5
 10
-145.09264322929999
 20
-80.489380869799987
 30
0.0
 11
-143.29264322930001
 21
-80.489380869799987
 31
0.0
  0
ARC
  5
23A
  8
┌▓È_1
 62
     5
 10
-144.5426432232
 20
-142.88938079420001
 30
0.0
 40
18.25
 50
138.88790956080001
 51
179.9999980531
  0
LINE
  5
23B
  8
┌▓È_1
 62
     5
 10
-145.81446039879989
 20
-82.989380869799987
 30
0.0
 11
-145.29264322930001
 21
-82.989380869799987
 31
0.0
  0
LINE
  5
23C
  8
┌▓È_1
 62
     5
 10
-145.86245817170001
 20
-88.489380869800002
 30
0.0
 11
-134.916643228
 21
-88.489380869800002
 31
0.0
  0
LINE
  5
23D
  8
┌▓È_1
 62
     5
 10
-147.69260577220001
 20
-98.989380794200002
 30
0.0
 11
-158.01425614070001
 21
-98.989380794200002
 31
0.0
  0
ARC
  5
23E
  8
┌▓È_1
 62
     5
 10
-148.09264322320001
 20
-81.889380869799993
 30
0.0
 40
0.5
 50
270.0
 51
0.0
  0
LINE
  5
23F
  8
┌▓È_1
 62
     5
 10
-149.59264322320001
 20
-75.389380869799993
 30
0.0
 11
-149.59264322320001
 21
-77.657330062299991
 31
0.0
  0
ARC
  5
240
  8
┌▓È_1
 62
     5
 10
-148.59264322320001
 20
-75.389380869799993
 30
0.0
 40
1.0
 50
90.0
 51
180.0
  0
LINE
  5
241
  8
┌▓È_1
 62
     5
 10
-150.59264322320001
 20
-82.389380869799993
 30
0.0
 11
-157.5203324375
 21
-94.388490567999995
 31
0.0
  0
LINE
  5
242
  8
┌▓È_1
 62
     5
 10
-149.59264322320001
 20
-77.657330062299991
 30
0.0
 11
-158.81937054319999
 21
-93.638490567999995
 31
0.0
  0
LINE
  5
243
  8
┌▓È_1
 62
     5
 10
-157.29264323379999
 20
-142.4893807942
 30
0.0
 11
-158.79264323379999
 21
-142.4893807942
 31
0.0
  0
LINE
  5
244
  8
┌▓È_1
  6
STITCH
 10
-147.69260577220001
 20
-98.989380794200002
 30
0.0
 11
-146.1944369874
 21
-98.989380794200002
 31
0.0
  0
LINE
  5
245
  8
┌▓È_1
  6
STITCH
 10
-147.69260577220001
 20
-82.989380794200002
 30
0.0
 11
-146.1944369874
 21
-82.989380794200002
 31
0.0
  0
ARC
  5
246
  8
┌▓È_1
 62
     5
 10
-147.07698436920001
 20
-78.68938086979999
 30
0.0
 40
0.2
 50
90.0
 51
179.5
  0
ARC
  5
247
  8
┌▓È_1
 62
     5
 10
-161.79264323379999
 20
-151.9893807942
 30
0.0
 40
4.5
 50
269.99999419929998
 51
0.0
  0
ARC
  5
248
  8
┌▓È_1
 62
     5
 10
-151.79264322930001
 20
-151.4893807942
 30
0.0
 40
5.0
 50
90.0
 51
180.0
  0
LINE
  5
249
  8
┌▓È_1
 62
     5
 10
-147.8686736205
 20
-146.4893807942
 30
0.0
 11
-151.79264322930001
 21
-146.4893807942
 31
0.0
  0
LINE
  5
24A
  8
┌▓È_1
 62
     5
 10
-156.79264322930001
 20
-151.4893807942
 30
0.0
 11
-156.79264322930001
 21
-156.4893807942
 31
0.0
  0
ARC
  5
24B
  8
┌▓È_1
 62
     5
 10
-128.792643228
 20
-77.989380869800002
 30
0.0
 40
2.0
 50
90.0
 51
180.0
  0
LINE
  5
24C
  8
┌▓È_1
 62
     5
 10
-130.792643228
 20
-77.989380869800002
 30
0.0
 11
-130.792643228
 21
-88.989380869800016
 31
0.0
  0
LINE
  5
24D
  8
┌▓È_1
 62
     5
 10
-173.49264323380001
 20
-74.389380869799993
 30
0.0
 11
-172.2931471014
 21
-74.389380869799993
 31
0.0
  0
LINE
  5
24E
  8
┌▓È_1
 62
     5
 10
-173.49264323380001
 20
-53.489380869799987
 30
0.0
 11
-174.5426432296
 21
-53.489380869799987
 31
0.0
  0
LINE
  5
24F
  8
┌▓È_1
 62
     5
 10
-174.99264323380001
 20
-93.489380869800002
 30
0.0
 11
-174.99264323380001
 21
-96.489380794200002
 31
0.0
  0
LINE
  5
250
  8
┌▓È_1
 62
     5
 10
-173.49264323380001
 20
-96.485453794400016
 30
0.0
 11
-173.3512497106
 21
-123.4893807942
 31
0.0
  0
LINE
  5
251
  8
┌▓È_1
 62
     5
 10
-173.49264323380001
 20
-53.489380869799987
 30
0.0
 11
-173.49264323380001
 21
-96.485453794400016
 31
0.0
  0
LINE
  5
252
  8
┌▓È_1
 10
-174.99264323380001
 20
-96.489380794200002
 30
0.0
 11
-190.79264323379999
 21
-96.489380794200002
 31
0.0
  0
LINE
  5
253
  8
┌▓È_1
 62
     5
 10
-173.49264323380001
 20
-73.889380869799993
 30
0.0
 11
-172.2931471014
 21
-73.889380869799993
 31
0.0
  0
LINE
  5
254
  8
┌▓È_1
 62
     5
 10
-174.99264323380001
 20
-96.489380794200002
 30
0.0
 11
-174.7123371269
 21
-150.02341455909999
 31
0.0
  0
LINE
  5
255
  8
┌▓È_1
 62
     5
 10
-173.3512497106
 20
-123.4893807942
 30
0.0
 11
-173.21235768860001
 21
-150.0155606134
 31
0.0
  0
LINE
  5
256
  8
┌▓È_1
 62
     5
 10
-172.2931471014
 20
-70.995444050000003
 30
0.0
 11
-172.2931471014
 21
-75.756947617999998
 31
0.0
  0
LINE
  5
257
  8
┌▓È_1
 62
     5
 10
-171.7926432232
 20
-137.18938079419999
 30
0.0
 11
-171.7926432232
 21
-149.68938079419999
 31
0.0
  0
LINE
  5
258
  8
┌▓È_1
 62
     5
 10
-162.2926432438
 20
-178.98938077529999
 30
0.0
 11
-141.03898081880001
 21
-178.98938077529999
 31
0.0
  0
ARC
  5
259
  8
┌▓È_1
 62
     5
 10
-141.03898081880001
 20
-173.98938077529999
 30
0.0
 40
5.0
 50
270.0
 51
359.50000000000011
  0
LINE
  5
25A
  8
┌▓È_1
 62
     5
 10
-162.2926432438
 20
-178.98938077529999
 30
0.0
 11
-162.2926432438
 21
-180.98938082759989
 31
0.0
  0
LINE
  5
25B
  8
┌▓È_1
 62
     5
 10
-157.79264321170001
 20
-212.9893808308
 30
0.0
 11
-157.792643209
 21
-215.98938077450001
 31
0.0
  0
LINE
  5
25C
  8
┌▓È_1
 62
     5
 10
-157.7926432438
 20
-212.9893808308
 30
0.0
 11
-156.09264327579999
 21
-211.2893808629
 31
0.0
  0
LINE
  5
25D
  8
┌▓È_1
 62
     5
 10
-157.79264321330001
 20
-211.2893808643
 30
0.0
 11
-156.09264327579999
 21
-211.2893808629
 31
0.0
  0
LINE
  5
25E
  8
┌▓È_1
 10
-157.7926432319
 20
-190.98938086289999
 30
0.0
 11
-157.79264321170001
 21
-212.9893808308
 31
0.0
  0
LINE
  5
25F
  8
┌▓È_1
 62
     5
 10
-160.7926432438
 20
-180.98938077720001
 30
0.0
 11
-160.52692895760001
 21
-211.98938082929999
 31
0.0
  0
LINE
  5
260
  8
┌▓È_1
 62
     5
 10
-156.09264327579999
 20
-192.68938081889999
 30
0.0
 11
-156.09264327579999
 21
-211.2893808629
 31
0.0
  0
LINE
  5
261
  8
┌▓È_1
 62
     5
 10
-157.7926432639
 20
-190.9893808308
 30
0.0
 11
-156.09264327579999
 21
-192.68938081889999
 31
0.0
  0
LINE
  5
262
  8
┌▓È_1
 62
     5
 10
-157.7926432303
 20
-192.68938082029999
 30
0.0
 11
-156.09264327579999
 21
-192.68938081889999
 31
0.0
  0
LINE
  5
263
  8
┌▓È_1
 62
     5
 10
-162.2926432438
 20
-180.98938077849999
 30
0.0
 11
-160.7926432438
 21
-180.98938077720001
 31
0.0
  0
LINE
  5
264
  8
┌▓È_1
 62
     5
 10
-157.79264324019999
 20
-183.9893807789
 30
0.0
 11
-157.7926432319
 21
-190.98938086289999
 31
0.0
  0
ARC
  5
265
  8
┌▓È_1
 62
     5
 10
-154.79264324019999
 20
-183.98938077529999
 30
0.0
 40
3.0
 50
90.0
 51
180.00000006819999
  0
LINE
  5
266
  8
┌▓È_1
 62
     5
 10
-248.29264323160001
 20
-95.989380869800002
 30
0.0
 11
-190.79264323219999
 21
-95.989380869800002
 31
0.0
  0
LINE
  5
267
  8
┌▓È_1
 62
     5
 10
-190.79264323160001
 20
-88.989380869800016
 30
0.0
 11
-250.792643228
 21
-88.989380869800016
 31
0.0
  0
LINE
  5
268
  8
┌▓È_1
 62
     5
 10
-265.29264309870001
 20
-75.989380869800002
 30
0.0
 11
-190.79264323039999
 21
-75.989380869800002
 31
0.0
  0
LINE
  5
269
  8
┌▓È_1
 62
     5
 10
-265.29264323019999
 20
-71.989380869800002
 30
0.0
 11
-190.79264323009991
 21
-71.989380869800002
 31
0.0
  0
ARC
  5
26A
  8
┌▓È_1
 62
     5
 10
-265.29264323019999
 20
-72.489380869800002
 30
0.0
 40
0.5
 50
90.0
 51
180.0
  0
LINE
  5
26B
  8
┌▓È_1
 62
     5
 10
-265.79264323019999
 20
-72.489380869800002
 30
0.0
 11
-265.79264323019999
 21
-75.489380869800002
 31
0.0
  0
ARC
  5
26C
  8
┌▓È_1
 62
     5
 10
-265.29264323019999
 20
-75.489380869800002
 30
0.0
 40
0.5
 50
180.0
 51
270.00001507040002
  0
ARC
  5
26D
  8
┌▓È_1
 62
     5
 10
-252.792643228
 20
-77.989380869800002
 30
0.0
 40
2.0
 50
0.0
 51
90.0
  0
LINE
  5
26E
  8
┌▓È_1
 62
     5
 10
-250.792643228
 20
-88.989380869800016
 30
0.0
 11
-248.29264323160001
 21
-95.989380869800002
 31
0.0
  0
ARC
  5
26F
  8
┌▓È_1
 62
     5
 10
-261.29264322929998
 20
-63.989380869799987
 30
0.0
 40
0.5
 50
180.0
 51
270.0
  0
LINE
  5
270
  8
┌▓È_1
 62
     5
 10
-261.79264322929998
 20
-59.988695637200003
 30
0.0
 11
-261.79264322929998
 21
-63.989380869799987
 31
0.0
  0
ARC
  5
271
  8
┌▓È_1
 62
     5
 10
-261.29264322929998
 20
-59.988695637200003
 30
0.0
 40
0.5
 50
87.0
 51
180.0
  0
ARC
  5
272
  8
┌▓È_1
 62
     5
 10
-250.7926431953
 20
-69.989380869800002
 30
0.0
 40
0.5
 50
336.42182152179998
 51
0.0
  0
LINE
  5
273
  8
┌▓È_1
 62
     5
 10
-250.2926431953
 20
-66.989380869800002
 30
0.0
 11
-250.2926431953
 21
-69.989380869800002
 31
0.0
  0
ARC
  5
274
  8
┌▓È_1
 62
     5
 10
-256.7926431953
 20
-70.68938086979999
 30
0.0
 40
0.5
 50
90.000003320000005
 51
156.42182152180001
  0
ARC
  5
275
  8
┌▓È_1
 62
     5
 10
-260.0426431953
 20
-71.239380869800002
 30
0.0
 40
0.75
 50
90.000025117999996
 51
269.99998005330002
  0
ARC
  5
276
  8
┌▓È_1
 62
     5
 10
-250.7926431953
 20
-66.989380869800002
 30
0.0
 40
0.5
 50
0.0
 51
23.578178478200002
  0
ARC
  5
277
  8
┌▓È_1
 62
     5
 10
-256.7926431953
 20
-66.289380869799984
 30
0.0
 40
0.5
 50
203.57817847819999
 51
269.99998324360001
  0
ARC
  5
278
  8
┌▓È_1
 62
     5
 10
-260.0426431953
 20
-65.739380869800002
 30
0.0
 40
0.75
 50
90.000025948600012
 51
269.99998339569999
  0
LINE
  5
279
  8
┌▓È_1
 62
     5
 10
-250.792643228
 20
-77.989380869800002
 30
0.0
 11
-250.792643228
 21
-88.989380869800016
 31
0.0
  0
LINE
  5
27A
  8
┌▓È_1
 62
     5
 10
-174.5426432296
 20
-53.489380869799987
 30
0.0
 11
-174.5426432296
 21
-68.489380869800002
 31
0.0
  0
LINE
  5
27B
  8
┌▓È_1
 62
     5
 10
-176.2926432296
 20
-50.489380869799987
 30
0.0
 11
-176.2926432296
 21
-93.489380869800002
 31
0.0
  0
LINE
  5
27C
  8
┌▓È_1
 62
     5
 10
-208.09264322959999
 20
-53.489380857599997
 30
0.0
 11
-208.0926432338
 21
-59.489380869800002
 31
0.0
  0
LINE
  5
27D
  8
┌▓È_1
 62
     5
 10
-190.7926432296
 20
-53.489380869799987
 30
0.0
 11
-208.09264322959999
 21
-53.489380857599997
 31
0.0
  0
ARC
  5
27E
  8
┌▓È_1
 62
     5
 10
-171.2931471014
 20
-75.756947617999998
 30
0.0
 40
1.0
 50
180.0
 51
269.99999956189998
  0
INSERT
  5
280
  8
┌▓È_1
  2
CLUMP4
 10
0.0
 20
0.0
 30
0.0
  0
INSERT
  5
2D8
  8
┌▓È_1
  2
CLUMP5
 10
0.0
 20
0.0
 30
0.0
  0
INSERT
  5
2E0
  8
┌▓È_1
  2
CLUMP6
 10
0.0
 20
0.0
 30
0.0
  0
DIMENSION
  5
2F6
  8
Éíû@É³
  2
*D10
 10
-287.43457094939998
 20
-180.98938077529999
 30
0.0
 11
-287.43457094939998
 21
-198.48938080350001
 31
0.0
 70
   128
  1
<>
 13
-241.29264323160001
 23
-180.98938077529999
 33
0.0
 14
-223.7926432786
 24
-215.9893808317
 34
0.0
 50
90.0
  0
LINE
  5
2F7
  8
┌▓È_1
 62
     5
 10
-223.79264328119999
 20
-212.989380888
 30
0.0
 11
-190.79264324260001
 21
-212.9893808594
 31
0.0
  0
LINE
  5
2F8
  8
┌▓È_1
 62
     5
 10
-225.4926432117
 20
-211.2893808643
 30
0.0
 11
-190.7926432424
 21
-211.2893808636
 31
0.0
  0
LINE
  5
2F9
  8
┌▓È_1
 62
     5
 10
-225.4926432117
 20
-192.6893808204
 30
0.0
 11
-190.7926432408
 21
-192.68938081959999
 31
0.0
  0
LINE
  5
2FA
  8
┌▓È_1
 62
     5
 10
-223.7926433003
 20
-190.98938092009999
 30
0.0
 11
-190.7926432406
 21
-190.98938089149999
 31
0.0
  0
LINE
  5
2FB
  8
┌▓È_1
 62
     5
 10
-190.7926432397
 20
-180.98938077529999
 30
0.0
 11
-241.29264323160001
 21
-180.98938077529999
 31
0.0
  0
LINE
  5
2FC
  8
┌▓È_1
 62
     5
 10
-223.7926432438
 20
-180.98938077529999
 30
0.0
 11
-223.7926432557
 21
-190.98938086289999
 31
0.0
  0
LINE
  5
2FD
  8
┌▓È_1
 62
     5
 10
-223.7926432758
 20
-212.9893808308
 30
0.0
 11
-223.7926432786
 21
-215.9893808317
 31
0.0
  0
LINE
  5
2FE
  8
┌▓È_1
 62
     5
 10
-223.7926432438
 20
-212.9893808308
 30
0.0
 11
-225.4926432117
 21
-211.2893808629
 31
0.0
  0
LINE
  5
2FF
  8
┌▓È_1
 10
-223.7926432557
 20
-190.98938086289999
 30
0.0
 11
-223.7926432758
 21
-212.9893808308
 31
0.0
  0
LINE
  5
300
  8
┌▓È_1
 62
     5
 10
-223.7926432237
 20
-190.9893808308
 30
0.0
 11
-225.4926432117
 21
-192.68938081889999
 31
0.0
  0
LINE
  5
301
  8
┌▓È_1
 62
     5
 10
-223.7926432786
 20
-215.9893808317
 30
0.0
 11
-190.79264324280001
 21
-215.9893808031
 31
0.0
  0
LINE
  5
302
  8
┌▓È_1
 62
     5
 10
-225.4926432117
 20
-192.68938081889999
 30
0.0
 11
-225.4926432117
 21
-211.2893808629
 31
0.0
  0
ARC
  5
303
  8
┌▓È_1
 62
     5
 10
-241.29264323160001
 20
-173.98938077529999
 30
0.0
 40
7.0
 50
180.0
 51
270.0
  0
LINE
  5
304
  8
┌▓È_1
 62
     5
 10
-190.79264323379999
 20
-59.489380869800002
 30
0.0
 11
-261.3188112075
 21
-59.489380869800002
 31
0.0
  0
LINE
  5
305
  8
┌▓È_1
 62
     5
 10
-261.29264322929998
 20
-64.489380869800002
 30
0.0
 11
-190.79264322930001
 21
-64.489380869800002
 31
0.0
  0
LINE
  5
306
  8
┌▓È_1
 62
     5
 10
-190.79264323009991
 20
-71.989380869800002
 30
0.0
 11
-260.04264345640001
 21
-71.989380869800002
 31
0.0
  0
LINE
  5
307
  8
┌▓È_1
 62
     5
 10
-260.04264352410001
 20
-70.489380869800002
 30
0.0
 11
-190.79264322989999
 21
-70.489380869800002
 31
0.0
  0
LINE
  5
308
  8
┌▓È_1
 62
     5
 10
-256.7926431688
 20
-70.18938086979999
 30
0.0
 11
-190.79264322989999
 21
-70.18938086979999
 31
0.0
  0
LINE
  5
309
  8
┌▓È_1
 62
     5
 10
-256.79264309389998
 20
-66.789380869799999
 30
0.0
 11
-190.7926432296
 21
-66.789380869799999
 31
0.0
  0
LINE
  5
30A
  8
┌▓È_1
 62
     5
 10
-260.04264341269999
 20
-66.489380869800002
 30
0.0
 11
-190.7926432296
 21
-66.489380869800002
 31
0.0
  0
LINE
  5
30B
  8
┌▓È_1
 62
     5
 10
-260.04264353500002
 20
-64.989380869800002
 30
0.0
 11
-190.7926432294
 21
-64.989380869800002
 31
0.0
  0
LINE
  5
30C
  8
┌▓È_1
 62
     5
 10
-140.7926432292
 20
156.85271354170001
 30
0.0
 11
-140.7926432292
 21
117.8527135417
 31
0.0
  0
INSERT
  5
30E
  8
┌▓È_1
 62
     5
  2
CLUMP7
 10
0.0
 20
0.0
 30
0.0
  0
LINE
  5
31D
  8
┌▓È_1
 10
155.93569878470001
 20
-233.02884114579999
 30
0.0
 11
155.93569878470001
 21
-72.291135308599991
 31
0.0
  0
LINE
  5
31E
  8
┌▓È_1
 10
134.06790364579999
 20
-233.02884114579999
 30
0.0
 11
134.06790364579999
 21
-72.291135308599991
 31
0.0
  0
INSERT
  5
31F
  8
0
  6
CONTINUOUS
  2
*U116
 10
0.0
 20
0.0
 30
0.0
  0
LINE
  5
320
  8
┌▓È_1
 10
259.02107890169998
 20
-233.02884114579999
 30
0.0
 11
259.02107890169998
 21
-72.291135308599991
 31
0.0
  0
LINE
  5
321
  8
┌▓È_1
 10
384.98131281980011
 20
-233.02884114579999
 30
0.0
 11
384.98131281980011
 21
-72.291135308599991
 31
0.0
  0
LINE
  5
322
  8
┌▓È_1
 10
360.76968345860001
 20
-233.02884114579999
 30
0.0
 11
360.76968345860001
 21
-72.291135308599991
 31
0.0
  0
INSERT
  5
323
  8
0
  6
CONTINUOUS
  2
*U117
 10
0.0
 20
0.0
 30
0.0
  0
LINE
  5
324
  8
┌▓È_1
 62
     5
 10
198.5807958762
 20
102.6527135605
 30
0.0
 11
198.58079587469999
 21
172.0527134964
 31
0.0
  0
LINE
  5
325
  8
┌▓È_1
 62
     5
 10
186.88079583109999
 20
187.85271354069999
 30
0.0
 11
186.88079583109999
 21
86.852713540699995
 31
0.0
  0
LINE
  5
326
  8
┌▓È_1
 62
     5
 10
221.8807958875
 20
104.35271349360001
 30
0.0
 11
221.8807958303
 21
170.35271356320001
 31
0.0
  0
LINE
  5
327
  8
┌▓È_1
 62
     5
 10
196.88079597590001
 20
104.352713472
 30
0.0
 11
196.88079591869999
 21
170.3527135416
 31
0.0
  0
LINE
  5
328
  8
┌▓È_1
 62
     5
 10
218.88079594390001
 20
104.352713491
 30
0.0
 11
218.8807958866
 21
170.35271356059999
 31
0.0
  0
LINE
  5
329
  8
┌▓È_1
 62
     5
 10
217.18079592020001
 20
102.6527135605
 30
0.0
 11
217.1807959187
 21
172.0527134964
 31
0.0
  0
LINE
  5
32A
  8
┌▓È_1
 62
     5
 10
65.380795909699984
 20
207.87888152970001
 30
0.0
 11
65.380795909699984
 21
119.16260938489999
 31
0.0
  0
LINE
  5
32B
  8
┌▓È_1
 62
     5
 10
59.380110677099999
 20
120.0527135542
 30
0.0
 11
65.380795909699984
 21
120.05271355310001
 31
0.0
  0
LINE
  5
32C
  8
┌▓È_1
 62
     5
 10
81.880795903199996
 20
62.852713673300002
 30
0.0
 11
81.880795916200015
 21
211.8527135418
 31
0.0
  0
LINE
  5
32D
  8
┌▓È_1
 62
     5
 10
77.880795903199996
 20
62.8527135422
 30
0.0
 11
77.8807959162
 21
211.8527135105
 31
0.0
  0
LINE
  5
32E
  8
┌▓È_1
 62
     5
 10
70.380795909699984
 20
194.8527135516
 30
0.0
 11
70.380795909699984
 21
79.852713551600004
 31
0.0
  0
LINE
  5
32F
  8
┌▓È_1
 62
     5
 10
65.380110677100006
 20
207.85271356379999
 30
0.0
 11
65.380110677100006
 21
66.852713551600004
 31
0.0
  0
LINE
  5
330
  8
┌▓È_1
 62
     5
 10
101.8807959257
 20
79.852713540699995
 30
0.0
 11
101.8807959257
 21
194.85271354069999
 31
0.0
  0
LINE
  5
331
  8
┌▓È_1
 62
     5
 10
94.880795925699999
 20
197.3527135443
 30
0.0
 11
94.880795925699999
 21
77.352713544300002
 31
0.0
  0
INSERT
  5
333
  8
┌▓È_1
 62
     5
  2
CLUMP8
 10
0.0
 20
0.0
 30
0.0
  0
DIMENSION
  5
34F
  8
Éíû@É³
  2
*D13
 10
375.79413231849998
 20
134.6650633081
 30
0.0
 11
338.38818350790001
 21
97.259114497499993
 31
0.0
 70
   131
  1
<>
 15
300.98223486900002
 25
59.853165858599993
 35
0.0
 40
0.0
  0
LINE
  5
350
  8
┌▓È_1
 62
     5
 10
-133.359656057
 20
-96.177016780800017
 30
0.0
 11
-134.03924735730001
 21
-174.0504665238
 31
0.0
  0
LINE
  5
351
  8
┌▓È_1
 62
     5
 10
-135.29264323160001
 20
-88.489380869800002
 30
0.0
 11
-136.0391712034
 21
-174.03301345279999
 31
0.0
  0
LINE
  5
352
  8
┌▓È_1
 62
     5
 10
-145.79264322930001
 20
-80.489380869799987
 30
0.0
 11
-146.50001452929999
 21
-161.54610327489999
 31
0.0
  0
INSERT
  5
354
  8
Éíû@É³
  2
BALLON3
 10
0.0
 20
0.0
 30
0.0
  0
LINE
  5
35D
  8
┌▓È_1
 62
     5
 10
-210.71080598930001
 20
128.06472171019999
 30
0.0
 11
-231.08258622770001
 21
118.56520457480001
 31
0.0
  0
LINE
  5
35E
  8
┌▓È_1
 62
     5
 10
-208.79536148540001
 20
124.7470745104
 30
0.0
 11
-227.20807476749999
 21
111.85435387139999
 31
0.0
  0
LINE
  5
35F
  8
┌▓È_1
 62
     5
 10
-206.33291349710001
 20
121.8124432737
 30
0.0
 11
-222.22709884720001
 21
105.9182579237
 31
0.0
  0
ARC
  5
360
  8
┌▓È_1
 62
     5
 10
-177.36785215360001
 20
119.9235717218
 30
0.0
 40
1.0
 50
127.60525126509999
 51
215.0
  0
ARC
  5
361
  8
┌▓È_1
 62
     5
 10
-190.7926432292
 20
137.35271354170001
 30
0.0
 40
21.0
 50
227.60525126510001
 51
232.39474873489999
  0
ARC
  5
362
  8
┌▓È_1
 62
     5
 10
-204.21743430469999
 20
119.9235717218
 30
0.0
 40
1.0
 50
325.0
 51
52.394748734899991
  0
LINE
  5
363
  8
┌▓È_1
  6
BORDER
 62
     3
 10
-190.7926432292
 20
222.35271354170001
 30
0.0
 11
-190.7926432292
 21
52.352713541699998
 31
0.0
  0
LINE
  5
364
  8
┌▓È_1
  6
BORDER
 62
     3
 10
-190.7926432292
 20
77.352713541699998
 30
0.0
 11
-190.7926432292
 21
197.35271354170001
 31
0.0
  0
LINE
  5
365
  8
┌▓È_1
  6
BORDER
 62
     3
 10
-190.7926432292
 20
197.35271354170001
 30
0.0
 11
-190.7926432292
 21
77.352713541699998
 31
0.0
  0
LINE
  5
366
  8
┌▓È_1
  6
BORDER
 62
     3
 10
-190.7926432292
 20
216.44452669270001
 30
0.0
 11
-190.7926432292
 21
58.260900390600007
 31
0.0
  0
ARC
  5
367
  8
┌▓È_1
 62
     5
 10
-190.7926432292
 20
137.35271354170001
 30
0.0
 40
16.0
 50
90.0
 51
270.0
  0
ARC
  5
368
  8
┌▓È_1
 62
     5
 10
-205.62580671590001
 20
121.1053364926
 30
0.0
 40
1.0
 50
47.605251265100001
 51
135.0
  0
ARC
  5
369
  8
┌▓È_1
 62
     5
 10
-209.3689379217
 20
125.56622655469999
 30
0.0
 40
1.0
 50
305.0
 51
32.394748734899999
  0
ARC
  5
36A
  8
┌▓È_1
 62
     5
 10
-190.7926432292
 20
137.35271354170001
 30
0.0
 40
19.0
 50
57.363102496400003
 51
302.63689750359998
  0
ARC
  5
36B
  8
┌▓È_1
 62
     5
 10
-190.7926432292
 20
137.35271354170001
 30
0.0
 40
39.0
 50
195.0
 51
205.0
  0
ARC
  5
36C
  8
┌▓È_1
 62
     5
 10
-190.7926432292
 20
137.35271354170001
 30
0.0
 40
21.0
 50
307.60525126509998
 51
310.36759354420002
  0
ARC
  5
36D
  8
┌▓È_1
 62
     5
 10
-190.7926432292
 20
137.35271354170001
 30
0.0
 40
53.0
 50
340.62996175450002
 51
19.370038245500002
  0
ARC
  5
36E
  8
┌▓È_1
 62
     5
 10
-190.7926432292
 20
137.35271354170001
 30
0.0
 40
52.700000000000003
 50
341.58015084250002
 51
18.4198491575
  0
LINE
  5
36F
  8
┌▓È_1
 62
     5
 10
-157.7926432292
 20
156.85271354170001
 30
0.0
 11
-157.7926432292
 21
117.8527135417
 31
0.0
  0
LINE
  5
370
  8
┌▓È_1
 62
     5
 10
-154.7926432292
 20
156.85271354170001
 30
0.0
 11
-154.7926432292
 21
117.8527135417
 31
0.0
  0
LINE
  5
371
  8
┌▓È_1
 62
     5
 10
-143.7926432292
 20
156.85271354170001
 30
0.0
 11
-143.7926432292
 21
117.8527135417
 31
0.0
  0
LINE
  5
372
  8
┌▓È_1
 10
134.06790364579999
 20
-133.0911353086
 30
0.0
 11
434.0679036457999
 21
-133.0911353086
 31
0.0
  0
LINE
  5
373
  8
┌▓È_1
 10
134.06790364579999
 20
-120.93113530860001
 30
0.0
 11
434.0679036457999
 21
-120.93113530860001
 31
0.0
  0
LINE
  5
374
  8
┌▓È_1
 10
134.06790364579999
 20
-96.611135308600012
 30
0.0
 11
434.0679036457999
 21
-96.611135308600012
 31
0.0
  0
LINE
  5
375
  8
┌▓È_1
 10
134.06790364579999
 20
-84.451135308600001
 30
0.0
 11
434.0679036457999
 21
-84.451135308600001
 31
0.0
  0
LINE
  5
376
  8
┌▓È_1
 10
134.06790364579999
 20
-108.77113530859999
 30
0.0
 11
434.0679036457999
 21
-108.77113530859999
 31
0.0
  0
LINE
  5
377
  8
┌▓È_1
 10
134.06790364579999
 20
-277.02884114580002
 30
0.0
 11
434.0679036457999
 21
-277.02884114580002
 31
0.0
  0
LINE
  5
378
  8
┌▓È_1
 62
     5
 10
134.06790364579999
 20
-299.02884114580002
 30
0.0
 11
434.0679036457999
 21
-299.02884114580002
 31
0.0
  0
LINE
  5
379
  8
┌▓È_1
 10
434.0679036457999
 20
-233.02884114579999
 30
0.0
 11
134.06790364579999
 21
-233.02884114579999
 31
0.0
  0
INSERT
  5
37B
  8
Éíû@É³
  2
BALLON4
 10
0.0
 20
0.0
 30
0.0
  0
INSERT
  5
384
  8
0
  6
CONTINUOUS
  2
*U120
 10
0.0
 20
0.0
 30
0.0
  0
INSERT
  5
385
  8
0
  6
CONTINUOUS
  2
*U121
 10
0.0
 20
0.0
 30
0.0
  0
LINE
  5
386
  8
┌▓È_1
 10
434.0679036457999
 20
250.97115885420001
 30
0.0
 11
134.06790364579999
 21
250.97115885420001
 31
0.0
  0
LINE
  5
387
  8
┌▓È_1
 10
434.0679036457999
 20
240.97115885420001
 30
0.0
 11
134.06790364579999
 21
240.97115885420001
 31
0.0
  0
LINE
  5
388
  8
┌▓È_1
 10
434.0679036457999
 20
230.97115885420001
 30
0.0
 11
134.06790364579999
 21
230.97115885420001
 31
0.0
  0
LINE
  5
389
  8
┌▓È_1
 10
434.0679036457999
 20
220.97115885420001
 30
0.0
 11
134.06790364579999
 21
220.97115885420001
 31
0.0
  0
DIMENSION
  5
398
  8
Éíû@É³
  2
*D16
 10
-287.43457094939998
 20
-71.989380869800002
 30
0.0
 11
-287.43457094939998
 21
-126.4893808226
 31
0.0
 70
   128
  1
<>
 13
-265.29264323019999
 23
-71.989380869800002
 33
0.0
 14
-241.29264323160001
 24
-180.98938077529999
 34
0.0
 50
90.0
  0
LINE
  5
399
  8
┌▓È_1
  6
BORDER
 62
     3
 10
-190.7926432269
 20
-35.989380869800002
 30
0.0
 11
-190.7926432438
 21
-226.8887193896
 31
0.0
  0
LINE
  5
39A
  8
┌▓È_1
 62
     5
 10
-248.29264323160001
 20
-95.989380869800002
 30
0.0
 11
-248.29264323160001
 21
-173.98938077529999
 31
0.0
  0
DIMENSION
  5
3A9
  8
Éíû@É³
  2
*D17
 10
-309.10975138449999
 20
-71.989380869800002
 30
0.0
 11
-309.10975138449999
 21
-143.98938085079999
 31
0.0
 70
   128
  1
<>
 13
-265.29264323019999
 23
-71.989380869800002
 33
0.0
 14
-223.7926432786
 24
-215.9893808317
 34
0.0
 50
90.0
  0
DIMENSION
  5
3B8
  8
Éíû@É³
  2
*D18
 10
-333.73724479169999
 20
-59.489380869800002
 30
0.0
 11
-333.73724479169999
 21
-137.73938085079999
 31
0.0
 70
   128
  1
(<>)
 13
-261.3188112075
 23
-59.489380869800002
 33
0.0
 14
-223.7926432786
 24
-215.9893808317
 34
0.0
 50
90.0
  0
INSERT
  5
3BA
  8
Éíû@É³
  2
BALLON5
 10
0.0
 20
0.0
 30
0.0
  0
INSERT
  5
3C4
  8
Éíû@É³
  2
BALLON6
 10
0.0
 20
0.0
 30
0.0
  0
ARC
  5
3CD
  8
┌▓È_1
 62
     5
 10
-152.9997670292
 20
-161.4893807942
 30
0.0
 40
6.5
 50
270.0
 51
359.50000000000011
  0
ARC
  5
3CE
  8
┌▓È_1
  6
STITCH
 10
-152.9997670292
 20
-161.4893807942
 30
0.0
 40
5.0
 50
270.0
 51
359.50000000000011
  0
LINE
  5
3CF
  8
┌▓È_1
  6
STITCH
 10
-147.8686736205
 20
-146.4893807942
 30
0.0
 11
-147.99995741390001
 21
-161.5330134717
 31
0.0
  0
LINE
  5
3D0
  8
┌▓È_1
 62
     5
 10
234.7104087436
 20
-285.10271574699999
 30
0.0
 11
242.7104087436
 21
-285.10271574699999
 31
0.0
  0
ARC
  5
3D1
  8
┌▓È_1
 62
     5
 10
237.1104087436
 20
-283.85849521210002
 30
0.0
 40
7.5999999999999988
 50
270.0
 51
298.08590481520002
  0
LINE
  5
3D2
  8
┌▓È_1
 62
     5
 10
234.7104087436
 20
-291.45849521209999
 30
0.0
 11
234.7104087436
 21
-294.45849521209999
 31
0.0
  0
LINE
  5
3D3
  8
┌▓È_1
 62
     5
 10
234.7104087436
 20
-291.45849521209999
 30
0.0
 11
237.1104087436
 21
-291.45849521209999
 31
0.0
  0
LINE
  5
3D4
  8
┌▓È_1
 62
     5
 10
234.7104087436
 20
-284.05849521210001
 30
0.0
 11
244.7104087436
 21
-284.05849521210001
 31
0.0
  0
LINE
  5
3D5
  8
┌▓È_1
 62
     5
 10
252.7104087436
 20
-280.45849521209999
 30
0.0
 11
234.7104087436
 21
-280.45849521209999
 31
0.0
  0
LINE
  5
3D6
  8
┌▓È_1
 62
     5
 10
234.7104087436
 20
-294.45849521209999
 30
0.0
 11
239.7104087436
 21
-294.45849521209999
 31
0.0
  0
LINE
  5
3D7
  8
┌▓È_1
 62
     5
 10
234.7104087436
 20
-285.74693628199998
 30
0.0
 11
234.7104087436
 21
-285.10271574699999
 31
0.0
  0
LINE
  5
3D8
  8
┌▓È_1
 62
     5
 10
234.7104087436
 20
-280.45849521209999
 30
0.0
 11
234.7104087436
 21
-284.05849521210001
 31
0.0
  0
LINE
  5
3D9
  8
┌▓È_1
 62
     5
 10
234.7104087436
 20
-294.45849521209999
 30
0.0
 11
234.7104087436
 21
-291.45849521209999
 31
0.0
  0
LINE
  5
3DA
  8
┌▓È_1
 10
134.06790364579999
 20
-255.02884114579999
 30
0.0
 11
254.06790364579999
 21
-255.02884114579999
 31
0.0
  0
POLYLINE
  8
┌▓È_1
  5
8F2
  62
5
  66
     1
 10
0.000000
 20
0.000000
 30
0.000000
  70
     8
  0
VERTEX
  8
┌▓È_1
  5
8F3
 10
234.710
 20
-285.747
 30
0.000000
  70
    32
  0
VERTEX
  8
┌▓È_1
  5
8F4
 10
234.746
 20
-285.780
 30
0.000000
  70
    32
  0
VERTEX
  8
┌▓È_1
  5
8F5
 10
234.782
 20
-285.813
 30
0.000000
  70
    32
  0
VERTEX
  8
┌▓È_1
  5
8F6
 10
234.818
 20
-285.847
 30
0.000000
  70
    32
  0
VERTEX
  8
┌▓È_1
  5
8F7
 10
234.855
 20
-285.880
 30
0.000000
  70
    32
  0
VERTEX
  8
┌▓È_1
  5
8F8
 10
234.891
 20
-285.913
 30
0.000000
  70
    32
  0
VERTEX
  8
┌▓È_1
  5
8F9
 10
234.927
 20
-285.946
 30
0.000000
  70
    32
  0
VERTEX
  8
┌▓È_1
  5
8FA
 10
234.963
 20
-285.979
 30
0.000000
  70
    32
  0
VERTEX
  8
┌▓È_1
  5
8FB
 10
234.999
 20
-286.013
 30
0.000000
  70
    32
  0
VERTEX
  8
┌▓È_1
  5
8FC
 10
235.035
 20
-286.046
 30
0.000000
  70
    32
  0
VERTEX
  8
┌▓È_1
  5
8FD
 10
235.071
 20
-286.079
 30
0.000000
  70
    32
  0
VERTEX
  8
┌▓È_1
  5
8FE
 10
235.107
 20
-286.112
 30
0.000000
  70
    32
  0
VERTEX
  8
┌▓È_1
  5
8FF
 10
235.143
 20
-286.145
 30
0.000000
  70
    32
  0
VERTEX
  8
┌▓È_1
  5
900
 10
235.179
 20
-286.178
 30
0.000000
  70
    32
  0
VERTEX
  8
┌▓È_1
  5
901
 10
235.215
 20
-286.211
 30
0.000000
  70
    32
  0
VERTEX
  8
┌▓È_1
  5
902
 10
235.251
 20
-286.245
 30
0.000000
  70
    32
  0
VERTEX
  8
┌▓È_1
  5
903
 10
235.287
 20
-286.278
 30
0.000000
  70
    32
  0
VERTEX
  8
┌▓È_1
  5
904
 10
235.323
 20
-286.311
 30
0.000000
  70
    32
  0
VERTEX
  8
┌▓È_1
  5
905
 10
235.359
 20
-286.344
 30
0.000000
  70
    32
  0
VERTEX
  8
┌▓È_1
  5
906
 10
235.395
 20
-286.377
 30
0.000000
  70
    32
  0
VERTEX
  8
┌▓È_1
  5
907
 10
235.431
 20
-286.410
 30
0.000000
  70
    32
  0
VERTEX
  8
┌▓È_1
  5
908
 10
235.467
 20
-286.443
 30
0.000000
  70
    32
  0
VERTEX
  8
┌▓È_1
  5
909
 10
235.504
 20
-286.476
 30
0.000000
  70
    32
  0
VERTEX
  8
┌▓È_1
  5
90A
 10
235.540
 20
-286.509
 30
0.000000
  70
    32
  0
VERTEX
  8
┌▓È_1
  5
90B
 10
235.576
 20
-286.542
 30
0.000000
  70
    32
  0
VERTEX
  8
┌▓È_1
  5
90C
 10
235.612
 20
-286.575
 30
0.000000
  70
    32
  0
VERTEX
  8
┌▓È_1
  5
90D
 10
235.648
 20
-286.608
 30
0.000000
  70
    32
  0
VERTEX
  8
┌▓È_1
  5
90E
 10
235.684
 20
-286.641
 30
0.000000
  70
    32
  0
VERTEX
  8
┌▓È_1
  5
90F
 10
235.720
 20
-286.674
 30
0.000000
  70
    32
  0
VERTEX
  8
┌▓È_1
  5
910
 10
235.757
 20
-286.707
 30
0.000000
  70
    32
  0
VERTEX
  8
┌▓È_1
  5
911
 10
235.793
 20
-286.740
 30
0.000000
  70
    32
  0
VERTEX
  8
┌▓È_1
  5
912
 10
235.829
 20
-286.773
 30
0.000000
  70
    32
  0
VERTEX
  8
┌▓È_1
  5
913
 10
235.865
 20
-286.806
 30
0.000000
  70
    32
  0
VERTEX
  8
┌▓È_1
  5
914
 10
235.901
 20
-286.839
 30
0.000000
  70
    32
  0
VERTEX
  8
┌▓È_1
  5
915
 10
235.938
 20
-286.871
 30
0.000000
  70
    32
  0
VERTEX
  8
┌▓È_1
  5
916
 10
235.974
 20
-286.904
 30
0.000000
  70
    32
  0
VERTEX
  8
┌▓È_1
  5
917
 10
236.010
 20
-286.937
 30
0.000000
  70
    32
  0
VERTEX
  8
┌▓È_1
  5
918
 10
236.046
 20
-286.970
 30
0.000000
  70
    32
  0
VERTEX
  8
┌▓È_1
  5
919
 10
236.083
 20
-287.002
 30
0.000000
  70
    32
  0
VERTEX
  8
┌▓È_1
  5
91A
 10
236.119
 20
-287.035
 30
0.000000
  70
    32
  0
VERTEX
  8
┌▓È_1
  5
91B
 10
236.155
 20
-287.068
 30
0.000000
  70
    32
  0
VERTEX
  8
┌▓È_1
  5
91C
 10
236.192
 20
-287.100
 30
0.000000
  70
    32
  0
VERTEX
  8
┌▓È_1
  5
91D
 10
236.228
 20
-287.133
 30
0.000000
  70
    32
  0
VERTEX
  8
┌▓È_1
  5
91E
 10
236.264
 20
-287.166
 30
0.000000
  70
    32
  0
VERTEX
  8
┌▓È_1
  5
91F
 10
236.301
 20
-287.198
 30
0.000000
  70
    32
  0
VERTEX
  8
┌▓È_1
  5
920
 10
236.337
 20
-287.231
 30
0.000000
  70
    32
  0
VERTEX
  8
┌▓È_1
  5
921
 10
236.374
 20
-287.263
 30
0.000000
  70
    32
  0
VERTEX
  8
┌▓È_1
  5
922
 10
236.410
 20
-287.296
 30
0.000000
  70
    32
  0
VERTEX
  8
┌▓È_1
  5
923
 10
236.446
 20
-287.328
 30
0.000000
  70
    32
  0
VERTEX
  8
┌▓È_1
  5
924
 10
236.483
 20
-287.360
 30
0.000000
  70
    32
  0
VERTEX
  8
┌▓È_1
  5
925
 10
236.519
 20
-287.393
 30
0.000000
  70
    32
  0
VERTEX
  8
┌▓È_1
  5
926
 10
236.556
 20
-287.425
 30
0.000000
  70
    32
  0
VERTEX
  8
┌▓È_1
  5
927
 10
236.592
 20
-287.457
 30
0.000000
  70
    32
  0
VERTEX
  8
┌▓È_1
  5
928
 10
236.629
 20
-287.490
 30
0.000000
  70
    32
  0
VERTEX
  8
┌▓È_1
  5
929
 10
236.665
 20
-287.522
 30
0.000000
  70
    32
  0
VERTEX
  8
┌▓È_1
  5
92A
 10
236.702
 20
-287.554
 30
0.000000
  70
    32
  0
VERTEX
  8
┌▓È_1
  5
92B
 10
236.739
 20
-287.586
 30
0.000000
  70
    32
  0
VERTEX
  8
┌▓È_1
  5
92C
 10
236.775
 20
-287.618
 30
0.000000
  70
    32
  0
VERTEX
  8
┌▓È_1
  5
92D
 10
236.812
 20
-287.650
 30
0.000000
  70
    32
  0
VERTEX
  8
┌▓È_1
  5
92E
 10
236.849
 20
-287.682
 30
0.000000
  70
    32
  0
VERTEX
  8
┌▓È_1
  5
92F
 10
236.885
 20
-287.714
 30
0.000000
  70
    32
  0
VERTEX
  8
┌▓È_1
  5
930
 10
236.922
 20
-287.746
 30
0.000000
  70
    32
  0
VERTEX
  8
┌▓È_1
  5
931
 10
236.959
 20
-287.778
 30
0.000000
  70
    32
  0
VERTEX
  8
┌▓È_1
  5
932
 10
236.995
 20
-287.810
 30
0.000000
  70
    32
  0
VERTEX
  8
┌▓È_1
  5
933
 10
237.032
 20
-287.842
 30
0.000000
  70
    32
  0
VERTEX
  8
┌▓È_1
  5
934
 10
237.069
 20
-287.874
 30
0.000000
  70
    32
  0
VERTEX
  8
┌▓È_1
  5
935
 10
237.106
 20
-287.905
 30
0.000000
  70
    32
  0
VERTEX
  8
┌▓È_1
  5
936
 10
237.143
 20
-287.937
 30
0.000000
  70
    32
  0
VERTEX
  8
┌▓È_1
  5
937
 10
237.180
 20
-287.969
 30
0.000000
  70
    32
  0
VERTEX
  8
┌▓È_1
  5
938
 10
237.216
 20
-288.000
 30
0.000000
  70
    32
  0
VERTEX
  8
┌▓È_1
  5
939
 10
237.253
 20
-288.032
 30
0.000000
  70
    32
  0
VERTEX
  8
┌▓È_1
  5
93A
 10
237.290
 20
-288.063
 30
0.000000
  70
    32
  0
VERTEX
  8
┌▓È_1
  5
93B
 10
237.327
 20
-288.095
 30
0.000000
  70
    32
  0
VERTEX
  8
┌▓È_1
  5
93C
 10
237.364
 20
-288.126
 30
0.000000
  70
    32
  0
VERTEX
  8
┌▓È_1
  5
93D
 10
237.401
 20
-288.157
 30
0.000000
  70
    32
  0
VERTEX
  8
┌▓È_1
  5
93E
 10
237.438
 20
-288.189
 30
0.000000
  70
    32
  0
VERTEX
  8
┌▓È_1
  5
93F
 10
237.475
 20
-288.220
 30
0.000000
  70
    32
  0
VERTEX
  8
┌▓È_1
  5
940
 10
237.513
 20
-288.251
 30
0.000000
  70
    32
  0
VERTEX
  8
┌▓È_1
  5
941
 10
237.550
 20
-288.282
 30
0.000000
  70
    32
  0
VERTEX
  8
┌▓È_1
  5
942
 10
237.587
 20
-288.313
 30
0.000000
  70
    32
  0
VERTEX
  8
┌▓È_1
  5
943
 10
237.624
 20
-288.344
 30
0.000000
  70
    32
  0
VERTEX
  8
┌▓È_1
  5
944
 10
237.661
 20
-288.375
 30
0.000000
  70
    32
  0
VERTEX
  8
┌▓È_1
  5
945
 10
237.699
 20
-288.406
 30
0.000000
  70
    32
  0
VERTEX
  8
┌▓È_1
  5
946
 10
237.736
 20
-288.437
 30
0.000000
  70
    32
  0
VERTEX
  8
┌▓È_1
  5
947
 10
237.773
 20
-288.468
 30
0.000000
  70
    32
  0
VERTEX
  8
┌▓È_1
  5
948
 10
237.811
 20
-288.499
 30
0.000000
  70
    32
  0
VERTEX
  8
┌▓È_1
  5
949
 10
237.848
 20
-288.529
 30
0.000000
  70
    32
  0
VERTEX
  8
┌▓È_1
  5
94A
 10
237.885
 20
-288.560
 30
0.000000
  70
    32
  0
VERTEX
  8
┌▓È_1
  5
94B
 10
237.923
 20
-288.590
 30
0.000000
  70
    32
  0
VERTEX
  8
┌▓È_1
  5
94C
 10
237.960
 20
-288.621
 30
0.000000
  70
    32
  0
VERTEX
  8
┌▓È_1
  5
94D
 10
237.998
 20
-288.651
 30
0.000000
  70
    32
  0
VERTEX
  8
┌▓È_1
  5
94E
 10
238.035
 20
-288.682
 30
0.000000
  70
    32
  0
VERTEX
  8
┌▓È_1
  5
94F
 10
238.073
 20
-288.712
 30
0.000000
  70
    32
  0
VERTEX
  8
┌▓È_1
  5
950
 10
238.111
 20
-288.742
 30
0.000000
  70
    32
  0
VERTEX
  8
┌▓È_1
  5
951
 10
238.148
 20
-288.773
 30
0.000000
  70
    32
  0
VERTEX
  8
┌▓È_1
  5
952
 10
238.186
 20
-288.803
 30
0.000000
  70
    32
  0
VERTEX
  8
┌▓È_1
  5
953
 10
238.224
 20
-288.833
 30
0.000000
  70
    32
  0
VERTEX
  8
┌▓È_1
  5
954
 10
238.261
 20
-288.863
 30
0.000000
  70
    32
  0
VERTEX
  8
┌▓È_1
  5
955
 10
238.299
 20
-288.893
 30
0.000000
  70
    32
  0
VERTEX
  8
┌▓È_1
  5
956
 10
238.337
 20
-288.922
 30
0.000000
  70
    32
  0
VERTEX
  8
┌▓È_1
  5
957
 10
238.375
 20
-288.952
 30
0.000000
  70
    32
  0
VERTEX
  8
┌▓È_1
  5
958
 10
238.413
 20
-288.982
 30
0.000000
  70
    32
  0
VERTEX
  8
┌▓È_1
  5
959
 10
238.451
 20
-289.012
 30
0.000000
  70
    32
  0
VERTEX
  8
┌▓È_1
  5
95A
 10
238.489
 20
-289.041
 30
0.000000
  70
    32
  0
VERTEX
  8
┌▓È_1
  5
95B
 10
238.527
 20
-289.071
 30
0.000000
  70
    32
  0
VERTEX
  8
┌▓È_1
  5
95C
 10
238.565
 20
-289.100
 30
0.000000
  70
    32
  0
VERTEX
  8
┌▓È_1
  5
95D
 10
238.603
 20
-289.129
 30
0.000000
  70
    32
  0
VERTEX
  8
┌▓È_1
  5
95E
 10
238.641
 20
-289.159
 30
0.000000
  70
    32
  0
VERTEX
  8
┌▓È_1
  5
95F
 10
238.679
 20
-289.188
 30
0.000000
  70
    32
  0
VERTEX
  8
┌▓È_1
  5
960
 10
238.718
 20
-289.217
 30
0.000000
  70
    32
  0
VERTEX
  8
┌▓È_1
  5
961
 10
238.756
 20
-289.246
 30
0.000000
  70
    32
  0
VERTEX
  8
┌▓È_1
  5
962
 10
238.794
 20
-289.275
 30
0.000000
  70
    32
  0
VERTEX
  8
┌▓È_1
  5
963
 10
238.832
 20
-289.304
 30
0.000000
  70
    32
  0
VERTEX
  8
┌▓È_1
  5
964
 10
238.871
 20
-289.333
 30
0.000000
  70
    32
  0
VERTEX
  8
┌▓È_1
  5
965
 10
238.909
 20
-289.362
 30
0.000000
  70
    32
  0
VERTEX
  8
┌▓È_1
  5
966
 10
238.948
 20
-289.390
 30
0.000000
  70
    32
  0
VERTEX
  8
┌▓È_1
  5
967
 10
238.986
 20
-289.419
 30
0.000000
  70
    32
  0
VERTEX
  8
┌▓È_1
  5
968
 10
239.025
 20
-289.447
 30
0.000000
  70
    32
  0
VERTEX
  8
┌▓È_1
  5
969
 10
239.063
 20
-289.476
 30
0.000000
  70
    32
  0
VERTEX
  8
┌▓È_1
  5
96A
 10
239.102
 20
-289.504
 30
0.000000
  70
    32
  0
VERTEX
  8
┌▓È_1
  5
96B
 10
239.141
 20
-289.533
 30
0.000000
  70
    32
  0
VERTEX
  8
┌▓È_1
  5
96C
 10
239.180
 20
-289.561
 30
0.000000
  70
    32
  0
VERTEX
  8
┌▓È_1
  5
96D
 10
239.218
 20
-289.589
 30
0.000000
  70
    32
  0
VERTEX
  8
┌▓È_1
  5
96E
 10
239.257
 20
-289.617
 30
0.000000
  70
    32
  0
VERTEX
  8
┌▓È_1
  5
96F
 10
239.296
 20
-289.645
 30
0.000000
  70
    32
  0
VERTEX
  8
┌▓È_1
  5
970
 10
239.335
 20
-289.673
 30
0.000000
  70
    32
  0
VERTEX
  8
┌▓È_1
  5
971
 10
239.374
 20
-289.700
 30
0.000000
  70
    32
  0
VERTEX
  8
┌▓È_1
  5
972
 10
239.413
 20
-289.728
 30
0.000000
  70
    32
  0
VERTEX
  8
┌▓È_1
  5
973
 10
239.452
 20
-289.756
 30
0.000000
  70
    32
  0
VERTEX
  8
┌▓È_1
  5
974
 10
239.491
 20
-289.783
 30
0.000000
  70
    32
  0
VERTEX
  8
┌▓È_1
  5
975
 10
239.530
 20
-289.811
 30
0.000000
  70
    32
  0
VERTEX
  8
┌▓È_1
  5
976
 10
239.569
 20
-289.838
 30
0.000000
  70
    32
  0
VERTEX
  8
┌▓È_1
  5
977
 10
239.609
 20
-289.865
 30
0.000000
  70
    32
  0
VERTEX
  8
┌▓È_1
  5
978
 10
239.648
 20
-289.892
 30
0.000000
  70
    32
  0
VERTEX
  8
┌▓È_1
  5
979
 10
239.687
 20
-289.919
 30
0.000000
  70
    32
  0
VERTEX
  8
┌▓È_1
  5
97A
 10
239.727
 20
-289.946
 30
0.000000
  70
    32
  0
VERTEX
  8
┌▓È_1
  5
97B
 10
239.766
 20
-289.973
 30
0.000000
  70
    32
  0
VERTEX
  8
┌▓È_1
  5
97C
 10
239.806
 20
-290.000
 30
0.000000
  70
    32
  0
VERTEX
  8
┌▓È_1
  5
97D
 10
239.845
 20
-290.027
 30
0.000000
  70
    32
  0
VERTEX
  8
┌▓È_1
  5
97E
 10
239.885
 20
-290.053
 30
0.000000
  70
    32
  0
VERTEX
  8
┌▓È_1
  5
97F
 10
239.925
 20
-290.080
 30
0.000000
  70
    32
  0
VERTEX
  8
┌▓È_1
  5
980
 10
239.964
 20
-290.106
 30
0.000000
  70
    32
  0
VERTEX
  8
┌▓È_1
  5
981
 10
240.004
 20
-290.132
 30
0.000000
  70
    32
  0
VERTEX
  8
┌▓È_1
  5
982
 10
240.044
 20
-290.158
 30
0.000000
  70
    32
  0
VERTEX
  8
┌▓È_1
  5
983
 10
240.084
 20
-290.185
 30
0.000000
  70
    32
  0
VERTEX
  8
┌▓È_1
  5
984
 10
240.124
 20
-290.211
 30
0.000000
  70
    32
  0
VERTEX
  8
┌▓È_1
  5
985
 10
240.164
 20
-290.236
 30
0.000000
  70
    32
  0
VERTEX
  8
┌▓È_1
  5
986
 10
240.204
 20
-290.262
 30
0.000000
  70
    32
  0
VERTEX
  8
┌▓È_1
  5
987
 10
240.244
 20
-290.288
 30
0.000000
  70
    32
  0
VERTEX
  8
┌▓È_1
  5
988
 10
240.284
 20
-290.313
 30
0.000000
  70
    32
  0
VERTEX
  8
┌▓È_1
  5
989
 10
240.324
 20
-290.339
 30
0.000000
  70
    32
  0
VERTEX
  8
┌▓È_1
  5
98A
 10
240.364
 20
-290.364
 30
0.000000
  70
    32
  0
VERTEX
  8
┌▓È_1
  5
98B
 10
240.405
 20
-290.390
 30
0.000000
  70
    32
  0
VERTEX
  8
┌▓È_1
  5
98C
 10
240.445
 20
-290.415
 30
0.000000
  70
    32
  0
VERTEX
  8
┌▓È_1
  5
98D
 10
240.485
 20
-290.440
 30
0.000000
  70
    32
  0
VERTEX
  8
┌▓È_1
  5
98E
 10
240.526
 20
-290.465
 30
0.000000
  70
    32
  0
VERTEX
  8
┌▓È_1
  5
98F
 10
240.566
 20
-290.490
 30
0.000000
  70
    32
  0
VERTEX
  8
┌▓È_1
  5
990
 10
240.607
 20
-290.514
 30
0.000000
  70
    32
  0
VERTEX
  8
┌▓È_1
  5
991
 10
240.648
 20
-290.539
 30
0.000000
  70
    32
  0
VERTEX
  8
┌▓È_1
  5
992
 10
240.688
 20
-290.564
 30
0.000000
  70
    32
  0
SEQEND
  8
┌▓È_1
  5
993
  0
INSERT
  5
3DC
  8
0
  6
CONTINUOUS
  2
*U124
 10
0.0
 20
0.0
 30
0.0
  0
INSERT
  5
3DD
  8
0
  6
CONTINUOUS
  2
*U125
 10
0.0
 20
0.0
 30
0.0
  0
INSERT
  5
3DE
  8
0
  6
CONTINUOUS
  2
*U126
 10
0.0
 20
0.0
 30
0.0
  0
LINE
  5
3DF
  8
┌▓È_1
 10
134.06790364579999
 20
-72.291135308599991
 30
0.0
 11
434.0679036457999
 21
-72.291135308599991
 31
0.0
  0
LINE
  5
3E0
  8
┌▓È_1
 10
434.0679036457999
 20
-233.02884114579999
 30
0.0
 11
134.06790364579999
 21
-233.02884114579999
 31
0.0
  0
LINE
  5
3E1
  8
┌▓È_1
 10
134.06790364579999
 20
-218.21193803150001
 30
0.0
 11
434.0679036457999
 21
-218.21193803150001
 31
0.0
  0
LINE
  5
3E2
  8
┌▓È_1
 10
134.06790364579999
 20
-206.05113530860001
 30
0.0
 11
434.0679036457999
 21
-206.05113530860001
 31
0.0
  0
INSERT
  5
3E3
  8
0
  6
CONTINUOUS
  2
*U127
 10
0.0
 20
0.0
 30
0.0
  0
LINE
  5
3E4
  8
┌▓È_1
 10
134.06790364579999
 20
-193.89113530860001
 30
0.0
 11
434.0679036457999
 21
-193.89113530860001
 31
0.0
  0
LINE
  5
3E5
  8
┌▓È_1
 10
134.06790364579999
 20
-181.73113530859999
 30
0.0
 11
434.0679036457999
 21
-181.73113530859999
 31
0.0
  0
LINE
  5
3E6
  8
┌▓È_1
 10
134.06790364579999
 20
-169.57113530859999
 30
0.0
 11
434.0679036457999
 21
-169.57113530859999
 31
0.0
  0
LINE
  5
3E7
  8
┌▓È_1
 10
134.06790364579999
 20
-157.4111353086
 30
0.0
 11
434.0679036457999
 21
-157.4111353086
 31
0.0
  0
LINE
  5
3E8
  8
┌▓È_1
 10
134.06790364579999
 20
-145.2511353086
 30
0.0
 11
434.0679036457999
 21
-145.2511353086
 31
0.0
  0
LINE
  5
3E9
  8
┌▓È_1
 62
     5
 10
-190.7926432292
 20
153.35271354170001
 30
0.0
 11
-167.2926432292
 21
153.35271354170001
 31
0.0
  0
LINE
  5
3EA
  8
┌▓È_1
 62
     5
 10
-157.7926432292
 20
155.35271354170001
 30
0.0
 11
-166.2926432292
 21
155.35271354170001
 31
0.0
  0
ARC
  5
3EB
  8
┌▓È_1
 62
     5
 10
-166.2926432292
 20
154.35271354170001
 30
0.0
 40
1.0
 50
90.0
 51
180.0
  0
LINE
  5
3EC
  8
┌▓È_1
 62
     5
 10
-167.2926432292
 20
154.35271354170001
 30
0.0
 11
-167.2926432292
 21
153.35271354170001
 31
0.0
  0
LINE
  5
3ED
  8
┌▓È_1
 62
     5
 10
-159.98101625819999
 20
138.60271354170001
 30
0.0
 11
-169.38682935739999
 21
138.60271354170001
 31
0.0
  0
LINE
  5
3EE
  8
┌▓È_1
 62
     5
 10
-165.2926432292
 20
132.35271354170001
 30
0.0
 11
-189.44264322919989
 21
132.35271354170001
 31
0.0
  0
LINE
  5
3EF
  8
┌▓È_1
 62
     5
 10
-167.94227512130001
 20
153.35271354170001
 30
0.0
 11
-167.2926432292
 21
153.8075906896
 31
0.0
  0
LINE
  5
3F0
  8
┌▓È_1
 62
     5
 10
-174.7926432292
 20
153.35271354170001
 30
0.0
 11
-159.35818761120001
 21
168.7871691597
 31
0.0
  0
LINE
  5
3F1
  8
┌▓È_1
 62
     5
 10
-178.1870041979
 20
155.3554317979
 30
0.0
 11
-165.29428355889999
 21
173.76814508000001
 31
0.0
  0
ARC
  5
3F2
  8
┌▓È_1
 62
     5
 10
-190.7926432292
 20
137.35271354170001
 30
0.0
 40
39.0
 50
55.0
 51
65.0
  0
INSERT
  5
3F3
  8
0
  6
CONTINUOUS
  2
*U128
 10
0.0
 20
0.0
 30
0.0
  0
INSERT
  5
3F4
  8
0
  6
CONTINUOUS
  2
*U129
 10
0.0
 20
0.0
 30
0.0
  0
INSERT
  5
3F5
  8
0
  6
CONTINUOUS
  2
*U130
 10
0.0
 20
0.0
 30
0.0
  0
INSERT
  5
3F6
  8
0
  6
CONTINUOUS
  2
*U131
 10
0.0
 20
0.0
 30
0.0
  0
INSERT
  5
3F7
  8
0
  6
CONTINUOUS
  2
*U132
 10
0.0
 20
0.0
 30
0.0
  0
INSERT
  5
3F8
  8
0
  6
CONTINUOUS
  2
*U133
 10
0.0
 20
0.0
 30
0.0
  0
INSERT
  5
3F9
  8
0
  6
CONTINUOUS
  2
*U134
 10
0.0
 20
0.0
 30
0.0
  0
INSERT
  5
3FA
  8
0
  6
CONTINUOUS
  2
*U135
 10
0.0
 20
0.0
 30
0.0
  0
INSERT
  5
3FB
  8
0
  6
CONTINUOUS
  2
*U136
 10
0.0
 20
0.0
 30
0.0
  0
INSERT
  5
3FC
  8
0
  6
CONTINUOUS
  2
*U137
 10
0.0
 20
0.0
 30
0.0
  0
INSERT
  5
3FD
  8
0
  6
CONTINUOUS
  2
*U138
 10
0.0
 20
0.0
 30
0.0
  0
INSERT
  5
3FE
  8
0
  6
CONTINUOUS
  2
*U139
 10
0.0
 20
0.0
 30
0.0
  0
INSERT
  5
3FF
  8
0
  6
CONTINUOUS
  2
*U140
 10
0.0
 20
0.0
 30
0.0
  0
LINE
  5
400
  8
┌▓È_1
 10
219.06790364579999
 20
-244.02884114579999
 30
0.0
 11
249.06790364579999
 21
-244.02884114579999
 31
0.0
  0
LINE
  5
401
  8
┌▓È_1
 10
219.06790364579999
 20
-266.02884114580002
 30
0.0
 11
249.06790364579999
 21
-266.02884114580002
 31
0.0
  0
ARC
  5
402
  8
┌▓È_1
 62
     5
 10
-169.2931471014
 20
-70.995444050000003
 30
0.0
 40
3.0
 50
112.0
 51
180.0
  0
INSERT
  5
404
  8
Éíû@É³
  2
BALLON7
 10
0.0
 20
0.0
 30
0.0
  0
LINE
  5
40D
  8
┌▓È_1
 62
     5
 10
-167.2926432232
 20
-154.18938079419999
 30
0.0
 11
-162.5426432232
 21
-154.18938079419999
 31
0.0
  0
ARC
  5
40E
  8
┌▓È_1
 62
     5
 10
-167.2926432232
 20
-149.68938079419999
 30
0.0
 40
4.5
 50
180.0
 51
270.0
  0
LINE
  5
40F
  8
┌▓È_1
 62
     5
 10
-162.27319595009999
 20
-134.18938079419999
 30
0.0
 11
-168.7926432232
 21
-134.18938079419999
 31
0.0
  0
ARC
  5
410
  8
┌▓È_1
 62
     5
 10
-168.7926432232
 20
-137.18938079419999
 30
0.0
 40
3.0
 50
90.0
 51
180.0
  0
CIRCLE
  5
411
  8
┌▓È_1
 62
     5
 10
-190.7926432292
 20
137.35271354170001
 30
0.0
 40
75.0
  0
LINE
  5
412
  8
┌▓È_1
  6
BORDER
 62
     3
 10
-275.7926432292
 20
137.35271354170001
 30
0.0
 11
-105.7926432292
 21
137.35271354170001
 31
0.0
  0
CIRCLE
  5
413
  8
┌▓È_1
 62
     5
 10
-190.7926432292
 20
137.35271354170001
 30
0.0
 40
71.0
  0
LINE
  5
414
  8
┌▓È_1
  6
BORDER
 62
     3
 10
-250.7926432292
 20
137.35271354170001
 30
0.0
 11
-130.7926432292
 21
137.35271354170001
 31
0.0
  0
LINE
  5
415
  8
┌▓È_1
  6
BORDER
 62
     3
 10
-250.7926432292
 20
137.35271354170001
 30
0.0
 11
-130.7926432292
 21
137.35271354170001
 31
0.0
  0
ARC
  5
416
  8
┌▓È_1
 62
     5
 10
-190.7926432292
 20
137.35271354170001
 30
0.0
 40
53.0
 50
21.587674387199989
 51
315.41943273689998
  0
ARC
  5
417
  8
┌▓È_1
 62
     5
 10
-190.7926432292
 20
137.35271354170001
 30
0.0
 40
52.700000000000003
 50
21.716787545599999
 51
315.75138293129999
  0
LINE
  5
418
  8
┌▓È_1
 62
     5
 10
-167.94227512130001
 20
121.3527135417
 30
0.0
 11
-167.2926432292
 21
120.8978363937
 31
0.0
  0
LINE
  5
419
  8
┌▓È_1
 62
     5
 10
-167.2926432292
 20
136.10271354170001
 30
0.0
 11
-167.2926432292
 21
121.3527135417
 31
0.0
  0
ARC
  5
41A
  8
┌▓È_1
 62
     5
 10
-166.2926432292
 20
120.3527135417
 30
0.0
 40
1.0
 50
180.0
 51
270.0
  0
LINE
  5
41B
  8
┌▓È_1
 62
     5
 10
-167.2926432292
 20
121.3527135417
 30
0.0
 11
-167.2926432292
 21
120.3527135417
 31
0.0
  0
LINE
  5
41C
  8
┌▓È_1
 62
     5
 10
-190.7926432292
 20
121.3527135417
 30
0.0
 11
-167.2926432292
 21
121.3527135417
 31
0.0
  0
LINE
  5
41D
  8
┌▓È_1
 62
     5
 10
-174.7926432292
 20
121.3527135417
 30
0.0
 11
-159.35818761120001
 21
105.9182579237
 31
0.0
  0
LINE
  5
41E
  8
┌▓È_1
 62
     5
 10
-178.1870041979
 20
119.3499952854
 30
0.0
 11
-165.29428355889999
 21
100.9372820033
 31
0.0
  0
LINE
  5
41F
  8
┌▓È_1
 62
     5
 10
-157.7926432292
 20
119.3527135417
 30
0.0
 11
-166.2926432292
 21
119.3527135417
 31
0.0
  0
ARC
  5
420
  8
┌▓È_1
 62
     5
 10
-190.7926432292
 20
137.35271354170001
 30
0.0
 40
39.0
 50
295.0
 51
305.0
  0
LINE
  5
421
  8
┌▓È_1
 62
     5
 10
-159.98101625819999
 20
136.10271354170001
 30
0.0
 11
-169.38682935739999
 21
136.10271354170001
 31
0.0
  0
LINE
  5
422
  8
┌▓È_1
 62
     5
 10
-167.2926432292
 20
153.35271354170001
 30
0.0
 11
-167.2926432292
 21
138.60271354170001
 31
0.0
  0
LINE
  5
423
  8
┌▓È_1
 62
     5
 10
-165.2926432292
 20
142.35271354170001
 30
0.0
 11
-189.44264322919989
 21
142.35271354170001
 31
0.0
  0
LINE
  5
424
  8
┌▓È_1
 62
     5
 10
-167.29264322930001
 20
-166.4893807942
 30
0.0
 11
-190.79264323410001
 21
-166.4893807942
 31
0.0
  0
LINE
  5
425
  8
┌▓È_1
 62
     5
 10
-152.9997670292
 20
-167.9893807942
 30
0.0
 11
-190.7926432342
 21
-167.9893807942
 31
0.0
  0
LINE
  5
426
  8
┌▓È_1
 62
     5
 10
-190.7926432397
 20
-180.98938082759989
 30
0.0
 11
-162.2926432438
 21
-180.98938082759989
 31
0.0
  0
LINE
  5
427
  8
┌▓È_1
 62
     5
 10
-190.79264323960001
 20
-178.98938077529999
 30
0.0
 11
-162.2926432438
 21
-178.98938077529999
 31
0.0
  0
LINE
  5
428
  8
┌▓È_1
 62
     5
 10
-190.79264324280001
 20
-215.9893808031
 30
0.0
 11
-157.792643209
 21
-215.98938077450001
 31
0.0
  0
LINE
  5
429
  8
┌▓È_1
 62
     5
 10
-190.79264324249999
 20
-211.9893808031
 30
0.0
 11
-160.52692898699999
 21
-211.9893807768
 31
0.0
  0
ARC
  5
42A
  8
┌▓È_1
 62
     5
 10
-171.2931471014
 20
-75.756947617999998
 30
0.0
 40
1.0
 50
0.0
 51
0.0000045031
  0
LINE
  5
42B
  8
┌▓È_1
 62
     5
 10
-170.2931471014
 20
-72.275991905600009
 30
0.0
 11
-170.2931471014
 21
-75.756947617999998
 31
0.0
  0
ARC
  5
42C
  8
┌▓È_1
 62
     5
 10
-171.2931471014
 20
-75.756947617999998
 30
0.0
 40
1.0
 50
269.99999956189998
 51
0.0
  0
LINE
  5
42D
  8
┌▓È_1
 10
-173.31541282649999
 20
-130.33365894580001
 30
0.0
 11
-159.78785062969999
 21
-130.33365894580001
 31
0.0
  0
LINE
  5
42E
  8
┌▓È_1
 62
     5
 10
-161.79264323379999
 20
-154.9893807942
 30
0.0
 11
-168.2124262273
 21
-154.9893807942
 31
0.0
  0
LINE
  5
42F
  8
┌▓È_1
 62
     5
 10
-120.26647525120001
 20
-59.489380869800002
 30
0.0
 11
-173.49264323380001
 21
-59.489380869800002
 31
0.0
  0
LINE
  5
430
  8
┌▓È_1
 62
     5
 10
-173.49264323380001
 20
-60.494238826500002
 30
0.0
 11
-137.72011223379999
 21
-60.494238826500002
 31
0.0
  0
LINE
  5
431
  8
┌▓È_1
 62
     5
 10
-170.2931471014
 20
-74.389380869799993
 30
0.0
 11
-148.59264322320001
 21
-74.389380869799993
 31
0.0
  0
LINE
  5
432
  8
┌▓È_1
 10
-173.49264323380001
 20
-94.823334495699996
 30
0.0
 11
-159.31318014339999
 21
-94.823334495699996
 31
0.0
  0
LINE
  5
433
  8
┌▓È_1
 62
     5
 10
-170.2931471014
 20
-73.889380869799993
 30
0.0
 11
-143.2926432232
 21
-73.889380869799993
 31
0.0
  0
ARC
  5
434
  8
┌▓È_1
 62
     5
 10
-168.2124262273
 20
-149.9893807942
 30
0.0
 40
6.5
 50
180.30000000000001
 51
270.0
  0
LINE
  5
435
  8
┌▓È_1
 62
     5
 10
-190.79264323379999
 20
-156.4893807942
 30
0.0
 11
-161.79264368939999
 21
-156.4893807942
 31
0.0
  0
LINE
  5
436
  8
┌▓È_1
 62
     5
 10
-156.79264322930001
 20
-156.4893807942
 30
0.0
 11
-167.29264322930001
 21
-156.4893807942
 31
0.0
  0
ARC
  5
437
  8
┌▓È_1
 62
     5
 10
-168.2124262273
 20
-149.9893807942
 30
0.0
 40
5.0
 50
180.30000000000001
 51
270.0
  0
ARC
  5
438
  8
┌▓È_1
 62
     5
 10
-170.2931471014
 20
-68.703133419099998
 30
0.0
 40
0.5
 50
0.0
 51
112.0
  0
LINE
  5
439
  8
┌▓È_1
 62
     5
 10
-169.7931471014
 20
-68.703133419099998
 30
0.0
 11
-169.7931471014
 21
-71.775991905600009
 31
0.0
  0
LINE
  5
43A
  8
┌▓È_1
 62
     5
 10
-170.2931471014
 20
-72.275991905600009
 30
0.0
 11
-170.2931471014
 21
-72.275991905600009
 31
0.0
  0
ARC
  5
43B
  8
┌▓È_1
 62
     5
 10
-170.2931471014
 20
-71.775991905600009
 30
0.0
 40
0.5
 50
270.0
 51
0.0
  0
LINE
  5
43C
  8
┌▓È_1
 62
     5
 10
-170.4804503981
 20
-68.239541491799997
 30
0.0
 11
-170.41696688170001
 21
-68.213892486299997
 31
0.0
  0
INSERT
  5
43E
  8
┌▓È_1
  2
CLUMP9
 10
0.0
 20
0.0
 30
0.0
  0
LINE
  5
465
  8
┌▓È_1
  6
BORDER
 62
     3
 10
6.9311848958000004
 20
137.35271355770001
 30
0.0
 11
118.6845703125
 21
137.35271355770001
 31
0.0
  0
LINE
  5
466
  8
┌▓È_1
 62
     5
 10
134.06790364579999
 20
-299.02884114580002
 30
0.0
 11
-365.93209635419998
 21
-299.02884114580002
 31
0.0
  0
LINE
  5
467
  8
┌▓È_1
 62
     5
 10
434.0679036457999
 20
260.97115885419998
 30
0.0
 11
-365.93209635419998
 21
260.97115885419998
 31
0.0
  0
INSERT
  5
469
  8
Éíû@É³
  2
BALLON8
 10
0.0
 20
0.0
 30
0.0
  0
INSERT
  5
473
  8
┌▓È_1
  2
CLUMP10
 10
0.0
 20
0.0
 30
0.0
  0
DIMENSION
  5
4E8
  8
Éíû@É³
  2
*D25
 10
-119.7926432293
 20
8.6236979166999994
 30
0.0
 11
-190.79264322930001
 21
8.6236979166999994
 31
0.0
 70
   128
  1
%%c<>
 13
-119.7926432293
 23
-59.988695637200003
 33
0.0
 14
-261.79264322929998
 24
-59.988695637200003
 34
0.0
  0
DIMENSION
  5
4F7
  8
Éíû@É³
  2
*D26
 10
-115.7926432302
 20
31.873961415299998
 30
0.0
 11
-190.79264323020001
 21
31.873961415299998
 31
0.0
 70
   128
  1
%%c<>
 13
-115.7926432302
 23
-72.489380869800002
 33
0.0
 14
-265.79264323019999
 24
-72.489380869800002
 34
0.0
  0
INSERT
  5
4F9
  8
Éíû@É³
  2
BALLON9
 10
0.0
 20
0.0
 30
0.0
  0
INSERT
  5
503
  8
Éíû@É³
  2
BALLON10
 10
0.0
 20
0.0
 30
0.0
  0
INSERT
  5
50D
  8
Éíû@É³
  2
BALLON11
 10
0.0
 20
0.0
 30
0.0
  0
LINE
  5
516
  8
┌▓È_1
 62
     5
 10
-365.93209635419998
 20
-299.02884114580002
 30
0.0
 11
-365.93209635419998
 21
260.97115885419998
 31
0.0
  0
LINE
  5
517
  8
┌▓È_1
  6
STITCH
 10
268.97617187499998
 20
173.0
 30
0.0
 11
268.97617187499998
 21
-56.0
 31
0.0
  0
DIMENSION
  5
526
  8
Éíû@É³
  2
*D30
 10
410.27268880209999
 20
-11.140429687499999
 30
0.0
 11
410.27268880209999
 21
0.8595703125
 31
0.0
 70
   128
  1
<>
 13
390.85068739090002
 23
-11.140429687499999
 33
0.0
 14
355.88818304239999
 24
12.859570312500001
 34
0.0
 50
90.0
  0
DIMENSION
  5
535
  8
Éíû@É³
  2
*D31
 10
410.27268880209999
 20
-25.140429687499999
 30
0.0
 11
410.27268880209999
 21
-18.140429687499999
 31
0.0
 70
   128
  1
<>
 13
389.85068732730002
 23
-25.140429687499999
 33
0.0
 14
390.85068739090002
 24
-11.140429687499999
 34
0.0
 50
90.0
  0
LINE
  5
536
  8
┌▓È_1
  6
STITCH
 10
415.97617187499992
 20
-56.0
 30
0.0
 11
415.97617187499992
 21
173.0
 31
0.0
  0
INSERT
  5
538
  8
┌▓È_1
  2
CLUMP11
 10
0.0
 20
0.0
 30
0.0
  0
LINE
  5
563
  8
┌▓È_1
 62
     5
 10
434.0679036457999
 20
-233.02884114579999
 30
0.0
 11
434.0679036457999
 21
260.97115885419998
 31
0.0
  0
DIMENSION
  5
573
  8
Éíû@É³
  2
*D33
 10
-221.1269289576
 20
-237.49238281199999
 30
0.0
 11
-190.82692895759999
 21
-237.49238281199999
 31
0.0
 70
   128
  1
%%c<>(50A)
 13
-221.1269289576
 23
-211.98938088189999
 33
0.0
 14
-160.52692895760001
 24
-211.98938082929999
 34
0.0
 50
180.0
  0
DIMENSION
  5
582
  8
Éíû@É³
  2
*D34
 10
-225.4926432117
 20
-261.37102865999998
 30
0.0
 11
-183.9923321759
 21
-261.37102865999998
 31
0.0
 70
   128
  1
ÉÛùpâlâW
 13
-225.4926432117
 23
-211.2893808629
 33
0.0
 14
-156.09264327579999
 24
-211.2893808629
 34
0.0
 50
180.0
  0
DIMENSION
  5
591
  8
Éíû@É³
  2
*D35
 10
-248.29264323160001
 20
-283.08769531249999
 30
0.0
 11
-190.7926432424
 21
-283.08769531249999
 31
0.0
 70
   128
  1
%%c<>
 13
-248.29264323160001
 23
-173.98938077529999
 33
0.0
 14
-134.03924735730001
 24
-174.0504665238
 34
0.0
 50
180.0
  0
INSERT
  5
593
  8
┌▓È_1
 62
     5
  2
CLUMP12
 10
0.0
 20
0.0
 30
0.0
  0
LINE
  5
59D
  8
┌▓È_1
 62
     5
 10
-167.29264322930001
 20
-156.4893807942
 30
0.0
 11
-167.29264322930001
 21
-166.4893807942
 31
0.0
  0
LINE
  5
59E
  8
┌▓È_1
  6
BORDER
 62
     3
 10
-126.7136771137
 20
-35.989380869800002
 30
0.0
 11
-190.7926432296
 21
-35.989380869800002
 31
0.0
  0
LINE
  5
59F
  8
┌▓È_1
  6
STITCH
 10
-152.9997670292
 20
-166.4893807942
 30
0.0
 11
-167.29264322930001
 21
-166.4893807942
 31
0.0
  0
ENDSEC
  0
EOF
