  0
SECTION
  2
HEADER
  9
$ACADVER
  1
AC1009
  9
$INSBASE
 10
0.0
 20
0.0
 30
0.0
  9
$EXTMIN
 10
-380.7671354167
 20
327.77734375
 30
0.0
  9
$EXTMAX
 10
439.15286458330002
 20
904.69734374999996
 30
0.0
  9
$LIMMIN
 10
0.0
 20
0.0
  9
$LIMMAX
 10
0.0
 20
0.0
  9
$ORTHOMODE
 70
     0
  9
$REGENMODE
 70
     1
  9
$FILLMODE
 70
     1
  9
$QTEXTMODE
 70
     0
  9
$MIRRTEXT
 70
     1
  9
$DRAGMODE
 70
     2
  9
$LTSCALE
 40
1.0
  9
$OSMODE
 70
    31
  9
$ATTMODE
 70
     1
  9
$TEXTSIZE
 40
0.0
  9
$TRACEWID
 40
0.05
  9
$TEXTSTYLE
  7
STANDARD
  9
$CLAYER
  8
0
  9
$CELTYPE
  6
CONTINUOUS
  9
$CECOLOR
 62
   256
  9
$DIMSCALE
 40
1.0
  9
$DIMASZ
 40
0.18
  9
$DIMEXO
 40
0.0625
  9
$DIMDLI
 40
0.38
  9
$DIMRND
 40
0.0
  9
$DIMDLE
 40
0.0
  9
$DIMEXE
 40
0.18
  9
$DIMTP
 40
0.0
  9
$DIMTM
 40
0.0
  9
$DIMTXT
 40
0.18
  9
$DIMCEN
 40
0.09
  9
$DIMTSZ
 40
0.0
  9
$DIMTOL
 70
     0
  9
$DIMLIM
 70
     0
  9
$DIMTIH
 70
     1
  9
$DIMTOH
 70
     1
  9
$DIMSE1
 70
     0
  9
$DIMSE2
 70
     0
  9
$DIMTAD
 70
     0
  9
$DIMZIN
 70
     0
  9
$DIMBLK
  1

  9
$DIMASO
 70
     1
  9
$DIMSHO
 70
     1
  9
$DIMPOST
  1

  9
$DIMAPOST
  1

  9
$DIMALT
 70
     0
  9
$DIMALTD
 70
     2
  9
$DIMALTF
 40
25.399999999999999
  9
$DIMLFAC
 40
1.0
  9
$DIMTOFL
 70
     0
  9
$DIMTVP
 40
0.0
  9
$DIMTIX
 70
     0
  9
$DIMSOXD
 70
     0
  9
$DIMSAH
 70
     0
  9
$DIMBLK1
  1

  9
$DIMBLK2
  1

  9
$DIMSTYLE
  2
STANDARD
  9
$DIMCLRD
 70
     0
  9
$DIMCLRE
 70
     0
  9
$DIMCLRT
 70
     0
  9
$DIMTFAC
 40
1.0
  9
$DIMGAP
 40
0.09
  9
$LUNITS
 70
     2
  9
$LUPREC
 70
     4
  9
$SKETCHINC
 40
0.1
  9
$FILLETRAD
 40
0.0
  9
$AUNITS
 70
     0
  9
$AUPREC
 70
     0
  9
$MENU
  1
acad
  9
$ELEVATION
 40
0.0
  9
$PELEVATION
 40
0.0
  9
$THICKNESS
 40
0.0
  9
$LIMCHECK
 70
     0
  9
$BLIPMODE
 70
     0
  9
$CHAMFERA
 40
0.0
  9
$CHAMFERB
 40
0.0
  9
$SKPOLY
 70
     0
  9
$TDCREATE
 40
2454860.5842122338
  9
$TDUPDATE
 40
2454860.5844755438
  9
$TDINDWG
 40
0.0003011111
  9
$TDUSRTIMER
 40
0.0003007523
  9
$USRTIMER
 70
     1
  9
$ANGBASE
 50
0.0
  9
$ANGDIR
 70
     0
  9
$PDMODE
 70
     3
  9
$PDSIZE
 40
-1.0
  9
$PLINEWID
 40
0.0
  9
$COORDS
 70
     2
  9
$SPLFRAME
 70
     0
  9
$SPLINETYPE
 70
     6
  9
$SPLINESEGS
 70
     8
  9
$ATTDIA
 70
     0
  9
$ATTREQ
 70
     1
  9
$HANDLING
 70
     1
  9
$HANDSEED
  5
AF4
  9
$SURFTAB1
 70
     6
  9
$SURFTAB2
 70
     6
  9
$SURFTYPE
 70
     6
  9
$SURFU
 70
     6
  9
$SURFV
 70
     6
  9
$UCSNAME
  2

  9
$UCSORG
 10
0.0
 20
0.0
 30
0.0
  9
$UCSXDIR
 10
1.0
 20
0.0
 30
0.0
  9
$UCSYDIR
 10
0.0
 20
1.0
 30
0.0
  9
$PUCSNAME
  2

  9
$PUCSORG
 10
0.0
 20
0.0
 30
0.0
  9
$PUCSXDIR
 10
1.0
 20
0.0
 30
0.0
  9
$PUCSYDIR
 10
0.0
 20
1.0
 30
0.0
  9
$USERI1
 70
     0
  9
$USERI2
 70
     0
  9
$USERI3
 70
     0
  9
$USERI4
 70
     0
  9
$USERI5
 70
     0
  9
$USERR1
 40
0.0
  9
$USERR2
 40
0.0
  9
$USERR3
 40
0.0
  9
$USERR4
 40
0.0
  9
$USERR5
 40
0.0
  9
$WORLDVIEW
 70
     1
  9
$SHADEDGE
 70
     3
  9
$SHADEDIF
 70
    70
  9
$TILEMODE
 70
     1
  9
$MAXACTVP
 70
    16
  9
$PLIMCHECK
 70
     0
  9
$PEXTMIN
 10
1.0000000000000000E+020
 20
1.0000000000000000E+020
 30
1.0000000000000000E+020
  9
$PEXTMAX
 10
-1.0000000000000000E+020
 20
-1.0000000000000000E+020
 30
-1.0000000000000000E+020
  9
$PLIMMIN
 10
0.0
 20
0.0
  9
$PLIMMAX
 10
12.0
 20
9.0
  9
$UNITMODE
 70
     0
  9
$VISRETAIN
 70
     0
  9
$PLINEGEN
 70
     1
  9
$PSLTSCALE
 70
     0
  0
ENDSEC
  0
SECTION
  2
TABLES
  0
TABLE
  2
VPORT
 70
     2
  0
VPORT
  2
*ACTIVE
 70
     0
 10
0.0
 20
0.0
 11
1.0
 21
1.0
 12
29.19286458330005
 22
616.23734375000004
 13
0.0
 23
0.0
 14
1.0
 24
1.0
 15
0.0
 25
0.0
 16
0.0
 26
0.0
 36
1.0
 17
0.0
 27
0.0
 37
0.0
 40
581.70771784232375
 41
1.6343490304709141
 42
50.0
 43
0.0
 44
0.0
 50
0.0
 51
0.0
 71
     0
 72
   100
 73
     1
 74
     1
 75
     0
 76
     0
 77
     0
 78
     0
  0
ENDTAB
  0
TABLE
  2
LTYPE
 70
    11
  0
LTYPE
  2
CONTINUOUS
 70
     0
  3
Solid line
 72
    65
 73
     0
 40
0.0
  0
LTYPE
  2
DOT
 70
     0
  3
. . . . . . . . 
 72
    65
 73
     2
 40
1.0
 49
0.0
 49
-1.0
  0
LTYPE
  2
DASHED
 70
     0
  3
___  ___  ___  ___  
 72
    65
 73
     2
 40
4.0
 49
3.0
 49
-1.0
  0
LTYPE
  2
HIDDEN
 70
     0
  3
__ __ __ __ 
 72
    65
 73
     2
 40
3.0
 49
2.0
 49
-1.0
  0
LTYPE
  2
STITCH
 70
     0
  3
_ _ _ _ 
 72
    65
 73
     2
 40
2.0
 49
1.0
 49
-1.0
  0
LTYPE
  2
CENTER
 70
     0
  3
______  __  ______  __  
 72
    65
 73
     4
 40
43.0
 49
40.0
 49
-1.0
 49
1.0
 49
-1.0
  0
LTYPE
  2
DASHDOT
 70
     0
  3
____ . ____ . 
 72
    65
 73
     4
 40
32.0
 49
30.0
 49
-1.0
 49
0.0
 49
-1.0
  0
LTYPE
  2
BORDER
 70
     0
  3
__ . __ . 
 72
    65
 73
     4
 40
22.0
 49
20.0
 49
-1.0
 49
0.0
 49
-1.0
  0
LTYPE
  2
CUTTING
 70
     0
  3
________   ___   ___   
 72
    65
 73
     6
 40
45.0
 49
40.0
 49
-1.0
 49
1.0
 49
-1.0
 49
1.0
 49
-1.0
  0
LTYPE
  2
PHANTOM
 70
     0
  3
______  __  __  
 72
    65
 73
     6
 40
35.0
 49
30.0
 49
-1.0
 49
1.0
 49
-1.0
 49
1.0
 49
-1.0
  0
LTYPE
  2
DIVIDE
 70
     0
  3
____ . . ____ . . 
 72
    65
 73
     6
 40
23.0
 49
20.0
 49
-1.0
 49
0.0
 49
-1.0
 49
0.0
 49
-1.0
  0
ENDTAB
  0
TABLE
  2
LAYER
 70
     2
  0
LAYER
  2
0
 70
     0
 62
     7
  6
CONTINUOUS
  0
LAYER
  2
┌▓È_1
 70
     0
 62
     7
  6
CONTINUOUS
  0
ENDTAB
  0
TABLE
  2
STYLE
 70
     1
  0
STYLE
  2
STANDARD
 70
     0
 40
0.0
 41
1.0
 50
0.0
 71
     0
 42
0.0
  3
txt
  4
extfont
  0
ENDTAB
  0
TABLE
  2
VIEW
 70
     0
  0
ENDTAB
  0
TABLE
  2
UCS
 70
     0
  0
ENDTAB
  0
TABLE
  2
APPID
 70
     2
  0
APPID
  2
ACAD
 70
     0
  0
APPID
  2
DCO15
 70
     0
  0
ENDTAB
  0
TABLE
  2
DIMSTYLE
 70
     3
  0
DIMSTYLE
  2
STANDARD
 70
     0
  3

  4

  5

  6

  7

 40
1.0
 41
0.18
 42
0.0625
 43
0.38
 44
0.18
 45
0.0
 46
0.0
 47
0.0
 48
0.0
140
0.18
141
0.09
142
0.0
143
25.399999999999999
144
1.0
145
0.0
146
1.0
147
0.09
 71
     0
 72
     0
 73
     1
 74
     1
 75
     0
 76
     0
 77
     0
 78
     0
170
     0
171
     2
172
     0
173
     0
174
     0
175
     0
176
     0
177
     0
178
     0
  0
DIMSTYLE
  2
VELDIM0
 70
     0
  3

  4

  5

  6

  7

 40
1.0
 41
3.8637032508999991
 42
0.0625
 43
0.38
 44
2.0
 45
0.0
 46
10.0
 47
0.0
 48
0.0
140
7.1966662884000003
141
0.09
142
0.0
143
25.399999999999999
144
1.0
145
0.0
146
1.0
147
0.09
 71
     0
 72
     0
 73
     0
 74
     0
 75
     0
 76
     0
 77
     0
 78
     8
170
     0
171
     2
172
     0
173
     0
174
     0
175
     0
176
     0
177
     0
178
     0
  0
DIMSTYLE
  2
VELDIM1
 70
     0
  3

  4

  5

  6

  7

 40
1.0
 41
3.8637032508999991
 42
0.0625
 43
0.38
 44
1.25
 45
0.0
 46
5.0
 47
0.0
 48
0.0
140
7.1966662884000003
141
0.09
142
0.0
143
25.399999999999999
144
1.0
145
0.0
146
1.0
147
0.09
 71
     0
 72
     0
 73
     0
 74
     0
 75
     0
 76
     0
 77
     0
 78
     8
170
     0
171
     2
172
     0
173
     0
174
     0
175
     0
176
     0
177
     0
178
     0
  0
ENDTAB
  0
ENDSEC
  0
SECTION
  2
BLOCKS
  0
BLOCK
  8
0
  2
$MODEL_SPACE
 70
     0
 10
0.0
 20
0.0
 30
0.0
  3
$MODEL_SPACE
  1

  0
ENDBLK
  5
E
  8
0
  0
BLOCK
 67
     1
  8
0
  2
$PAPER_SPACE
 70
     0
 10
0.0
 20
0.0
 30
0.0
  3
$PAPER_SPACE
  1

  0
ENDBLK
  5
10
 67
     1
  8
0
  0
BLOCK
  8
0
  2
CLUMP0
 70
     0
 10
0.0
 20
0.0
 30
0.0
  3
CLUMP0
  1

  0
LINE
  5
32
  8
┌▓È_1
 62
     5
 10
-240.02672656269999
 20
554.57934308849985
 30
0.0
 11
-310.02672656269999
 21
554.57934308849985
 31
0.0
  0
LINE
  5
33
  8
┌▓È_1
 62
     5
 10
-310.02672656269999
 20
554.07934308849985
 30
0.0
 11
-240.02672656269999
 21
554.07934308849985
 31
0.0
  0
LINE
  5
34
  8
┌▓È_1
 62
     5
 10
-310.02672656269999
 20
554.57934308849985
 30
0.0
 11
-310.02672656269999
 21
554.07934308849985
 31
0.0
  0
LINE
  5
35
  8
┌▓È_1
 62
     5
 10
-170.02672656269999
 20
554.57934308849985
 30
0.0
 11
-182.02672656269999
 21
554.57934308849985
 31
0.0
  0
LINE
  5
36
  8
┌▓È_1
 62
     5
 10
-182.02672656269999
 20
554.07934308849985
 30
0.0
 11
-170.02672656269999
 21
554.07934308849985
 31
0.0
  0
LINE
  5
37
  8
┌▓È_1
 62
     5
 10
-182.02672656269999
 20
554.07934308849985
 30
0.0
 11
-182.02672656269999
 21
554.57934308849985
 31
0.0
  0
LINE
  5
38
  8
┌▓È_1
 62
     5
 10
-170.02672656269999
 20
554.07934308849985
 30
0.0
 11
-170.02672656269999
 21
554.57934308849985
 31
0.0
  0
ENDBLK
  5
39
  8
0
  0
BLOCK
  8
0
  2
CLUMP1
 70
     0
 10
0.0
 20
0.0
 30
0.0
  3
CLUMP1
  1

  0
LINE
  5
41
  8
┌▓È_1
 62
     5
 10
-176.56846900010001
 20
554.07934308849985
 30
0.0
 11
-170.7767264679
 21
554.07934308849985
 31
0.0
  0
LINE
  5
42
  8
┌▓È_1
 62
     5
 10
-173.56846900010001
 20
552.57934308849985
 30
0.0
 11
-170.77672648359999
 21
552.57934308849985
 31
0.0
  0
ARC
  5
43
  8
┌▓È_1
 62
     5
 10
-170.77672656959999
 20
553.32934308849997
 30
0.0
 40
0.75
 50
270.00000656740002
 51
90.000007770300016
  0
LINE
  5
44
  8
┌▓È_1
 62
     5
 10
-173.56846900010001
 20
548.57934308849985
 30
0.0
 11
-170.7767264549
 21
548.57934308849985
 31
0.0
  0
ARC
  5
45
  8
┌▓È_1
 62
     5
 10
-170.77672656959999
 20
547.82934308849985
 30
0.0
 40
0.75
 50
269.99999192849998
 51
90.000007770300016
  0
LINE
  5
46
  8
┌▓È_1
 62
     5
 10
-176.56846900010001
 20
547.07934308849997
 30
0.0
 11
-170.7767266752
 21
547.07934308849997
 31
0.0
  0
LINE
  5
47
  8
┌▓È_1
 62
     5
 10
-182.02672656959999
 20
552.07934308849985
 30
0.0
 11
-182.02672656959999
 21
549.07934308849985
 31
0.0
  0
ARC
  5
48
  8
┌▓È_1
 62
     5
 10
-180.02672656959999
 20
549.07934308849985
 30
0.0
 40
2.0
 50
180.0
 51
270.0
  0
ARC
  5
49
  8
┌▓È_1
 62
     5
 10
-180.02672656959999
 20
549.07934308849985
 30
0.0
 40
0.5
 50
180.0
 51
270.0
  0
LINE
  5
4A
  8
┌▓È_1
 62
     5
 10
-180.52672656959999
 20
552.07934308849985
 30
0.0
 11
-180.52672656959999
 21
549.07934308849985
 31
0.0
  0
ARC
  5
4B
  8
┌▓È_1
 62
     5
 10
-180.02672656959999
 20
552.07934308849985
 30
0.0
 40
0.5
 50
90.0
 51
180.0
  0
ARC
  5
4C
  8
┌▓È_1
 62
     5
 10
-177.02672656959999
 20
553.87934308850004
 30
0.0
 40
0.5
 50
23.578178478200002
 51
156.42182152180001
  0
ARC
  5
4D
  8
┌▓È_1
 62
     5
 10
-174.02672656959999
 20
552.77934308850001
 30
0.0
 40
0.5
 50
203.57817847819999
 51
336.42182152179998
  0
LINE
  5
4E
  8
┌▓È_1
 62
     5
 10
-180.02672656959999
 20
554.07934308849985
 30
0.0
 11
-177.48498413909999
 21
554.07934308849985
 31
0.0
  0
LINE
  5
4F
  8
┌▓È_1
 62
     5
 10
-180.02672656959999
 20
552.57934308849985
 30
0.0
 11
-174.48498413909999
 21
552.57934308849985
 31
0.0
  0
ARC
  5
50
  8
┌▓È_1
 62
     5
 10
-174.02672656959999
 20
548.37934308850004
 30
0.0
 40
0.5
 50
23.578178478200002
 51
156.42182152180001
  0
ARC
  5
51
  8
┌▓È_1
 62
     5
 10
-177.02672656959999
 20
547.2793430884999
 30
0.0
 40
0.5
 50
203.57817847819999
 51
336.42182152179998
  0
LINE
  5
52
  8
┌▓È_1
 62
     5
 10
-180.02672656959999
 20
548.57934308849985
 30
0.0
 11
-174.48498413909999
 21
548.57934308849985
 31
0.0
  0
LINE
  5
53
  8
┌▓È_1
 62
     5
 10
-180.02672656959999
 20
547.07934308849997
 30
0.0
 11
-177.48498413909999
 21
547.07934308849997
 31
0.0
  0
ARC
  5
54
  8
┌▓È_1
 62
     5
 10
-180.02672656959999
 20
552.07934308849985
 30
0.0
 40
2.0
 50
90.0
 51
180.0
  0
ENDBLK
  5
55
  8
0
  0
BLOCK
  8
0
  2
BALLON0
 70
     0
 10
0.0
 20
0.0
 30
0.0
  3
BALLON0
  1

  0
INSERT
  5
69
  8
0
  6
CONTINUOUS
  2
*U61
 10
0.0
 20
0.0
 30
0.0
  0
CIRCLE
  5
6A
  8
┌▓È_1
 10
-65.918138020800001
 20
700.05303385419995
 30
0.0
 40
8.0
  0
LINE
  5
6B
  8
┌▓È_1
 10
-79.251471354200007
 20
700.05303385419995
 30
0.0
 11
-73.918138020800001
 21
700.05303385419995
 31
0.0
  0
LINE
  5
6C
  8
┌▓È_1
 10
-199.27672656959999
 20
563.32934308849985
 30
0.0
 11
-79.251471354200007
 21
700.05303385419995
 31
0.0
  0
SOLID
  5
6D
  8
┌▓È_1
 10
-199.27672656959999
 20
563.32934308849985
 30
0.0
 11
-195.20134590329999
 21
570.39696450060001
 31
0.0
 12
-195.0544919937
 22
568.13899330300001
 32
0.0
 13
-195.0544919937
 23
568.13899330300001
 33
0.0
  0
SOLID
  5
6E
  8
┌▓È_1
 10
-195.0544919937
 20
568.13899330300001
 30
0.0
 11
-192.7965207961
 21
568.28584721269999
 31
0.0
 12
-199.27672656959999
 22
563.32934308849985
 32
0.0
 13
-199.27672656959999
 23
563.32934308849985
 33
0.0
  0
ENDBLK
  5
6F
  8
0
  0
BLOCK
  8
0
  2
BALLON1
 70
     0
 10
0.0
 20
0.0
 30
0.0
  3
BALLON1
  1

  0
INSERT
  5
73
  8
0
  6
CONTINUOUS
  2
*U62
 10
0.0
 20
0.0
 30
0.0
  0
CIRCLE
  5
74
  8
┌▓È_1
 10
-65.918138020800001
 20
717.06904947919986
 30
0.0
 40
8.0
  0
LINE
  5
75
  8
┌▓È_1
 10
-79.251471354200007
 20
717.06904947919986
 30
0.0
 11
-73.918138020800001
 21
717.06904947919986
 31
0.0
  0
LINE
  5
76
  8
┌▓È_1
 10
-199.27672656269999
 20
569.82934308849997
 30
0.0
 11
-79.251471354200007
 21
717.06904947919986
 31
0.0
  0
SOLID
  5
77
  8
┌▓È_1
 10
-199.27672656269999
 20
569.82934308849997
 30
0.0
 11
-195.46218368390001
 21
577.04108785829999
 31
0.0
 12
-195.23296361440001
 22
574.78998631469995
 32
0.0
 13
-195.23296361440001
 23
574.78998631469995
 33
0.0
  0
SOLID
  5
78
  8
┌▓È_1
 10
-195.23296361440001
 20
574.78998631469995
 30
0.0
 11
-192.98186207079999
 21
575.01920638419995
 31
0.0
 12
-199.27672656269999
 22
569.82934308849997
 32
0.0
 13
-199.27672656269999
 23
569.82934308849997
 33
0.0
  0
ENDBLK
  5
79
  8
0
  0
BLOCK
  8
0
  2
BALLON2
 70
     0
 10
0.0
 20
0.0
 30
0.0
  3
BALLON2
  1

  0
INSERT
  5
7D
  8
0
  6
CONTINUOUS
  2
*U63
 10
0.0
 20
0.0
 30
0.0
  0
CIRCLE
  5
7E
  8
┌▓È_1
 10
-65.918138020800001
 20
734.49020833330007
 30
0.0
 40
8.0
  0
LINE
  5
7F
  8
┌▓È_1
 10
-79.251471354200007
 20
734.49020833330007
 30
0.0
 11
-73.918138020800001
 21
734.49020833330007
 31
0.0
  0
LINE
  5
80
  8
┌▓È_1
 10
-198.27672656269999
 20
574.58002832110003
 30
0.0
 11
-79.251471354200007
 21
734.49020833330007
 31
0.0
  0
SOLID
  5
81
  8
┌▓È_1
 10
-198.27672656269999
 20
574.58002832110003
 30
0.0
 11
-194.78355098660001
 21
581.95279743419985
 31
0.0
 12
-194.45539625599989
 22
579.7139775503
 32
0.0
 13
-194.45539625599989
 23
579.7139775503
 33
0.0
  0
SOLID
  5
82
  8
┌▓È_1
 10
-194.45539625599989
 20
579.7139775503
 30
0.0
 11
-192.21657637210001
 21
580.04213228089998
 31
0.0
 12
-198.27672656269999
 22
574.58002832110003
 32
0.0
 13
-198.27672656269999
 23
574.58002832110003
 33
0.0
  0
ENDBLK
  5
83
  8
0
  0
BLOCK
  8
0
  2
BALLON3
 70
     0
 10
0.0
 20
0.0
 30
0.0
  3
BALLON3
  1

  0
INSERT
  5
87
  8
0
  6
CONTINUOUS
  2
*U64
 10
0.0
 20
0.0
 30
0.0
  0
CIRCLE
  5
88
  8
┌▓È_1
 10
-65.918138020800001
 20
751.50622395829998
 30
0.0
 40
8.0
  0
LINE
  5
89
  8
┌▓È_1
 10
-79.251471354200007
 20
751.50622395829998
 30
0.0
 11
-73.918138020800001
 21
751.50622395829998
 31
0.0
  0
LINE
  5
8A
  8
┌▓È_1
 10
-219.6762127904
 20
573.87934308850004
 30
0.0
 11
-79.251471354200007
 21
751.50622395829998
 31
0.0
  0
SOLID
  5
8B
  8
┌▓È_1
 10
-219.6762127904
 20
573.87934308850004
 30
0.0
 11
-215.97000791319999
 21
581.14735832019994
 31
0.0
 12
-215.70712977229999
 22
578.89993867019984
 32
0.0
 13
-215.70712977229999
 23
578.89993867019984
 33
0.0
  0
SOLID
  5
8C
  8
┌▓È_1
 10
-215.70712977229999
 20
578.89993867019984
 30
0.0
 11
-213.45971012230001
 21
579.16281681110002
 31
0.0
 12
-219.6762127904
 22
573.87934308850004
 32
0.0
 13
-219.6762127904
 23
573.87934308850004
 33
0.0
  0
ENDBLK
  5
8D
  8
0
  0
BLOCK
  8
0
  2
BALLON4
 70
     0
 10
0.0
 20
0.0
 30
0.0
  3
BALLON4
  1

  0
INSERT
  5
91
  8
0
  6
CONTINUOUS
  2
*U65
 10
0.0
 20
0.0
 30
0.0
  0
CIRCLE
  5
92
  8
┌▓È_1
 10
-65.918138020800001
 20
768.52223958330001
 30
0.0
 40
8.0
  0
LINE
  5
93
  8
┌▓È_1
 10
-79.251471354200007
 20
768.52223958330001
 30
0.0
 11
-73.918138020800001
 21
768.52223958330001
 31
0.0
  0
LINE
  5
94
  8
┌▓È_1
 10
-219.2767265629
 20
618.07934308849997
 30
0.0
 11
-79.251471354200007
 21
768.52223958330001
 31
0.0
  0
SOLID
  5
95
  8
┌▓È_1
 10
-219.2767265629
 20
618.07934308849997
 30
0.0
 11
-214.9974542068
 21
625.02540874479996
 31
0.0
 12
-214.91635311109999
 22
622.76412092320004
 32
0.0
 13
-214.91635311109999
 23
622.76412092320004
 33
0.0
  0
SOLID
  5
96
  8
┌▓È_1
 10
-214.91635311109999
 20
622.76412092320004
 30
0.0
 11
-212.6550652894
 21
622.84522201890002
 31
0.0
 12
-219.2767265629
 22
618.07934308849997
 32
0.0
 13
-219.2767265629
 23
618.07934308849997
 33
0.0
  0
ENDBLK
  5
97
  8
0
  0
BLOCK
  8
0
  2
*D7
 70
     1
 10
0.0
 20
0.0
 30
0.0
  3
*D7
  1

  0
TEXT
  5
9B
  8
0
 62
     0
 10
-250.6100593397
 20
630.96242180819991
 30
0.0
 40
7.1966662884000003
  1
%%c142
  0
LINE
  5
9C
  8
0
 62
     0
 10
-169.02672656269999
 20
561.08002832110003
 30
0.0
 11
-169.02672656269999
 21
629.69242187500004
 31
0.0
  0
LINE
  5
9D
  8
0
 62
     0
 10
-311.02672656269999
 20
561.08002832110003
 30
0.0
 11
-311.02672656269999
 21
629.69242187500004
 31
0.0
  0
LINE
  5
9E
  8
0
 62
     0
 10
-169.02672656269999
 20
627.69242187500004
 30
0.0
 11
-225.21006067479999
 21
627.69242187500004
 31
0.0
  0
LINE
  5
9F
  8
0
 62
     0
 10
-169.02672656269999
 20
627.69242187500004
 30
0.0
 11
-254.8433924505
 21
627.69242187500004
 31
0.0
  0
LINE
  5
A0
  8
0
 62
     0
 10
-311.02672656269999
 20
627.69242187500004
 30
0.0
 11
-225.21006067479999
 21
627.69242187500004
 31
0.0
  0
LINE
  5
A1
  8
0
 62
     0
 10
-311.02672656269999
 20
627.69242187500004
 30
0.0
 11
-254.8433924505
 21
627.69242187500004
 31
0.0
  0
LINE
  5
A2
  8
0
 62
     0
 10
-311.02672656269999
 20
627.69242187500004
 30
0.0
 11
-301.02672656269999
 21
627.69242187500004
 31
0.0
  0
SOLID
  5
A3
  8
0
 62
     0
 10
-311.02672656269999
 20
627.69242187500004
 30
0.0
 11
-307.16302331179998
 21
628.72769804949996
 31
0.0
 12
-307.16302331179998
 22
626.65714570049988
 32
0.0
 13
-308.12894912450002
 23
627.69242187500004
 33
0.0
  0
LINE
  5
A4
  8
0
 62
     0
 10
-169.02672656269999
 20
627.69242187500004
 30
0.0
 11
-179.02672656269999
 21
627.69242187500004
 31
0.0
  0
SOLID
  5
A5
  8
0
 62
     0
 10
-169.02672656269999
 20
627.69242187500004
 30
0.0
 11
-172.89042981360001
 21
626.65714570049988
 31
0.0
 12
-172.89042981360001
 22
628.72769804949996
 32
0.0
 13
-171.9245040008
 23
627.69242187500004
 33
0.0
  0
ENDBLK
  5
A6
  8
0
  0
BLOCK
  8
0
  2
*D8
 70
     1
 10
0.0
 20
0.0
 30
0.0
  3
*D8
  1

  0
TEXT
  5
AA
  8
0
 62
     0
 10
-250.6100593402
 20
654.21268530689986
 30
0.0
 40
7.1966662884000003
  1
%%c150
  0
LINE
  5
AB
  8
0
 62
     0
 10
-165.02672656319999
 20
548.57934308849985
 30
0.0
 11
-165.02672656319999
 21
652.94268537369999
 31
0.0
  0
LINE
  5
AC
  8
0
 62
     0
 10
-315.02672656319999
 20
548.57934308849985
 30
0.0
 11
-315.02672656319999
 21
652.94268537369999
 31
0.0
  0
LINE
  5
AD
  8
0
 62
     0
 10
-165.02672656319999
 20
650.94268537369987
 30
0.0
 11
-225.21006067530001
 21
650.94268537369987
 31
0.0
  0
LINE
  5
AE
  8
0
 62
     0
 10
-165.02672656319999
 20
650.94268537369987
 30
0.0
 11
-254.843392451
 21
650.94268537369987
 31
0.0
  0
LINE
  5
AF
  8
0
 62
     0
 10
-315.02672656319999
 20
650.94268537369987
 30
0.0
 11
-225.21006067530001
 21
650.94268537369987
 31
0.0
  0
LINE
  5
B0
  8
0
 62
     0
 10
-315.02672656319999
 20
650.94268537369987
 30
0.0
 11
-254.843392451
 21
650.94268537369987
 31
0.0
  0
LINE
  5
B1
  8
0
 62
     0
 10
-315.02672656319999
 20
650.94268537369987
 30
0.0
 11
-305.02672656319999
 21
650.94268537369987
 31
0.0
  0
SOLID
  5
B2
  8
0
 62
     0
 10
-315.02672656319999
 20
650.94268537369987
 30
0.0
 11
-311.16302331230003
 21
651.97796154820003
 31
0.0
 12
-311.16302331230003
 22
649.9074091990999
 32
0.0
 13
-312.12894912500002
 23
650.94268537369987
 33
0.0
  0
LINE
  5
B3
  8
0
 62
     0
 10
-165.02672656319999
 20
650.94268537369987
 30
0.0
 11
-175.02672656319999
 21
650.94268537369987
 31
0.0
  0
SOLID
  5
B4
  8
0
 62
     0
 10
-165.02672656319999
 20
650.94268537369987
 30
0.0
 11
-168.89042981399999
 21
649.9074091990999
 31
0.0
 12
-168.89042981399999
 22
651.97796154820003
 32
0.0
 13
-167.92450400129999
 23
650.94268537369987
 33
0.0
  0
ENDBLK
  5
B5
  8
0
  0
BLOCK
  8
0
  2
CLUMP2
 70
     0
 10
0.0
 20
0.0
 30
0.0
  3
CLUMP2
  1

  0
LINE
  5
C4
  8
┌▓È_1
 62
     5
 10
-204.02672656249999
 20
750.27004673049987
 30
0.0
 11
-204.02672656249999
 21
743.77004673049987
 31
0.0
  0
LINE
  5
C5
  8
┌▓È_1
 62
     5
 10
-193.02672656249999
 20
743.77004673049987
 30
0.0
 11
-193.02672656249999
 21
750.27004673049987
 31
0.0
  0
LINE
  5
C6
  8
┌▓È_1
 62
     5
 10
-194.77672656249999
 20
742.77004673049987
 30
0.0
 11
-194.77672656249999
 21
727.77004673049998
 31
0.0
  0
LINE
  5
C7
  8
┌▓È_1
 62
     5
 10
-202.27672656249999
 20
742.77004673049987
 30
0.0
 11
-202.27672656249999
 21
727.77004673049998
 31
0.0
  0
ARC
  5
C8
  8
┌▓È_1
 62
     5
 10
-198.52672656249999
 20
727.77004673049998
 30
0.0
 40
3.75
 50
180.0
 51
0.0
  0
ARC
  5
C9
  8
┌▓È_1
 62
     5
 10
-203.02672656249999
 20
743.77004673049987
 30
0.0
 40
1.0
 50
180.0
 51
270.0
  0
LINE
  5
CA
  8
┌▓È_1
 62
     5
 10
-203.02672656249999
 20
742.77004673049987
 30
0.0
 11
-194.02672656249999
 21
742.77004673049987
 31
0.0
  0
ARC
  5
CB
  8
┌▓È_1
 62
     5
 10
-194.02672656249999
 20
743.77004673049987
 30
0.0
 40
1.0
 50
270.0
 51
0.0
  0
LINE
  5
CC
  8
┌▓È_1
 62
     5
 10
-194.77672656249999
 20
789.67080729169993
 30
0.0
 11
-202.27672656249999
 21
789.67080729169993
 31
0.0
  0
LINE
  5
CD
  8
┌▓È_1
 62
     5
 10
-193.02672656249999
 20
750.27004673049987
 30
0.0
 11
-204.02672656249999
 21
750.27004673049987
 31
0.0
  0
LINE
  5
CE
  8
┌▓È_1
 62
     5
 10
-202.27672656249999
 20
750.27004673049987
 30
0.0
 11
-202.27672656249999
 21
789.67080729169993
 31
0.0
  0
LINE
  5
CF
  8
┌▓È_1
 62
     5
 10
-194.77672656249999
 20
789.67080729169993
 30
0.0
 11
-194.77672656249999
 21
750.27004673049987
 31
0.0
  0
ENDBLK
  5
D0
  8
0
  0
BLOCK
  8
0
  2
BALLON5
 70
     0
 10
0.0
 20
0.0
 30
0.0
  3
BALLON5
  1

  0
INSERT
  5
D4
  8
0
  6
CONTINUOUS
  2
*U66
 10
0.0
 20
0.0
 30
0.0
  0
CIRCLE
  5
D5
  8
┌▓È_1
 10
-65.918138020800001
 20
439.9428125
 30
0.0
 40
8.0
  0
LINE
  5
D6
  8
┌▓È_1
 10
-79.251471354200007
 20
439.9428125
 30
0.0
 11
-73.918138020800001
 21
439.9428125
 31
0.0
  0
LINE
  5
D7
  8
┌▓È_1
 10
-217.7767265649
 20
557.07934308849985
 30
0.0
 11
-79.251471354200007
 21
439.9428125
 31
0.0
  0
SOLID
  5
D8
  8
┌▓È_1
 10
-217.7767265649
 20
557.07934308849985
 30
0.0
 11
-210.63484801690001
 21
553.13554152070003
 31
0.0
 12
-212.8897125384
 22
552.94689902890002
 32
0.0
 13
-212.8897125384
 23
552.94689902890002
 33
0.0
  0
SOLID
  5
D9
  8
┌▓È_1
 10
-212.8897125384
 20
552.94689902890002
 30
0.0
 11
-212.70107004670001
 21
550.69203450739985
 31
0.0
 12
-217.7767265649
 22
557.07934308849985
 32
0.0
 13
-217.7767265649
 23
557.07934308849985
 33
0.0
  0
ENDBLK
  5
DA
  8
0
  0
BLOCK
  8
0
  2
BALLON6
 70
     0
 10
0.0
 20
0.0
 30
0.0
  3
BALLON6
  1

  0
INSERT
  5
DE
  8
0
  6
CONTINUOUS
  2
*U67
 10
0.0
 20
0.0
 30
0.0
  0
CIRCLE
  5
DF
  8
┌▓È_1
 10
-65.918138020800001
 20
401.97510416669991
 30
0.0
 40
8.0
  0
LINE
  5
E0
  8
┌▓È_1
 10
-79.251471354200007
 20
401.97510416669991
 30
0.0
 11
-73.918138020800001
 21
401.97510416669991
 31
0.0
  0
LINE
  5
E1
  8
┌▓È_1
 10
-236.6793718314
 20
514.83508970089997
 30
0.0
 11
-79.251471354200007
 21
401.97510416669991
 31
0.0
  0
SOLID
  5
E2
  8
┌▓È_1
 10
-236.6793718314
 20
514.83508970089997
 30
0.0
 11
-229.24532137119999
 21
511.47430203199991
 31
0.0
 12
-231.4779157342
 22
511.10616834640001
 32
0.0
 13
-231.4779157342
 23
511.10616834640001
 33
0.0
  0
SOLID
  5
E3
  8
┌▓È_1
 10
-231.4779157342
 20
511.10616834640001
 30
0.0
 11
-231.10978204849999
 21
508.87357398339998
 31
0.0
 12
-236.6793718314
 22
514.83508970089997
 32
0.0
 13
-236.6793718314
 23
514.83508970089997
 33
0.0
  0
ENDBLK
  5
E4
  8
0
  0
BLOCK
  8
0
  2
BALLON7
 70
     0
 10
0.0
 20
0.0
 30
0.0
  3
BALLON7
  1

  0
INSERT
  5
E8
  8
0
  6
CONTINUOUS
  2
*U68
 10
0.0
 20
0.0
 30
0.0
  0
CIRCLE
  5
E9
  8
┌▓È_1
 10
-65.918138020800001
 20
366.71937500000001
 30
0.0
 40
8.0
  0
LINE
  5
EA
  8
┌▓È_1
 10
-79.251471354200007
 20
366.71937500000001
 30
0.0
 11
-73.918138020800001
 21
366.71937500000001
 31
0.0
  0
LINE
  5
EB
  8
┌▓È_1
 10
-224.75989651110001
 20
498.71355091449999
 30
0.0
 11
-79.251471354200007
 21
366.71937500000001
 31
0.0
  0
SOLID
  5
EC
  8
┌▓È_1
 10
-224.75989651110001
 20
498.71355091449999
 30
0.0
 11
-217.75957866760001
 21
494.52361653669988
 31
0.0
 12
-220.01964192040001
 22
494.41355249409997
 32
0.0
 13
-220.01964192040001
 23
494.41355249409997
 33
0.0
  0
SOLID
  5
ED
  8
┌▓È_1
 10
-220.01964192040001
 20
494.41355249409997
 30
0.0
 11
-219.90957787779999
 21
492.15348924129989
 31
0.0
 12
-224.75989651110001
 22
498.71355091449999
 32
0.0
 13
-224.75989651110001
 23
498.71355091449999
 33
0.0
  0
ENDBLK
  5
EE
  8
0
  0
BLOCK
  8
0
  2
BALLON8
 70
     0
 10
0.0
 20
0.0
 30
0.0
  3
BALLON8
  1

  0
INSERT
  5
F2
  8
0
  6
CONTINUOUS
  2
*U69
 10
0.0
 20
0.0
 30
0.0
  0
CIRCLE
  5
F3
  8
┌▓È_1
 10
-65.918138020800001
 20
420.28096354169998
 30
0.0
 40
8.0
  0
LINE
  5
F4
  8
┌▓È_1
 10
-79.251471354200007
 20
420.28096354169998
 30
0.0
 11
-73.918138020800001
 21
420.28096354169998
 31
0.0
  0
LINE
  5
F5
  8
┌▓È_1
 10
-251.93523825930001
 20
530.15965943849994
 30
0.0
 11
-79.251471354200007
 21
420.28096354169998
 31
0.0
  0
SOLID
  5
F6
  8
┌▓È_1
 10
-251.93523825930001
 20
530.15965943849994
 30
0.0
 11
-244.32681235839999
 21
527.21485803430005
 31
0.0
 12
-246.53564932079999
 22
526.72390052739991
 32
0.0
 13
-246.53564932079999
 23
526.72390052739991
 33
0.0
  0
SOLID
  5
F7
  8
┌▓È_1
 10
-246.53564932079999
 20
526.72390052739991
 30
0.0
 11
-246.04469181389999
 21
524.51506356499988
 31
0.0
 12
-251.93523825930001
 22
530.15965943849994
 32
0.0
 13
-251.93523825930001
 23
530.15965943849994
 33
0.0
  0
ENDBLK
  5
F8
  8
0
  0
BLOCK
  8
0
  2
*D14
 70
     1
 10
0.0
 20
0.0
 30
0.0
  3
*D14
  1

  0
TEXT
  5
FB
  8
0
 62
     0
 10
-55.37986972489999
 20
467.34600997769991
 30
0.0
 40
7.1966662884000003
  1
47
 50
90.0
  0
LINE
  5
FC
  8
0
 62
     0
 10
-187.5267262241
 20
448.07934308849991
 30
0.0
 11
-50.1098697917
 21
448.07934308849991
 31
0.0
  0
LINE
  5
FD
  8
0
 62
     0
 10
-128.6229140625
 20
495.07934308849991
 30
0.0
 11
-50.1098697917
 21
495.07934308849991
 31
0.0
  0
LINE
  5
FE
  8
0
 62
     0
 10
-52.1098697917
 20
448.07934308849991
 30
0.0
 11
-52.1098697917
 21
480.04600931009998
 31
0.0
  0
LINE
  5
FF
  8
0
 62
     0
 10
-52.1098697917
 20
448.07934308849991
 30
0.0
 11
-52.1098697917
 21
463.11267686690002
 31
0.0
  0
LINE
  5
100
  8
0
 62
     0
 10
-52.1098697917
 20
495.07934308849991
 30
0.0
 11
-52.1098697917
 21
480.04600931009998
 31
0.0
  0
LINE
  5
101
  8
0
 62
     0
 10
-52.1098697917
 20
495.07934308849991
 30
0.0
 11
-52.1098697917
 21
463.11267686690002
 31
0.0
  0
LINE
  5
102
  8
0
 62
     0
 10
-52.1098697917
 20
495.07934308849991
 30
0.0
 11
-52.1098697917
 21
485.07934308850002
 31
0.0
  0
SOLID
  5
103
  8
0
 62
     0
 10
-52.1098697917
 20
495.07934308849991
 30
0.0
 11
-51.0745936171
 21
491.21563983760001
 31
0.0
 12
-53.145145966199998
 22
491.21563983760001
 32
0.0
 13
-52.1098697917
 23
492.1815656503
 33
0.0
  0
LINE
  5
104
  8
0
 62
     0
 10
-52.1098697917
 20
448.07934308849991
 30
0.0
 11
-52.1098697917
 21
458.07934308849991
 31
0.0
  0
SOLID
  5
105
  8
0
 62
     0
 10
-52.1098697917
 20
448.07934308849991
 30
0.0
 11
-53.145145966199998
 21
451.94304633939998
 31
0.0
 12
-51.0745936171
 22
451.94304633939998
 32
0.0
 13
-52.1098697917
 23
450.97712052669988
 33
0.0
  0
ENDBLK
  5
106
  8
0
  0
BLOCK
  8
0
  2
*D15
 70
     1
 10
0.0
 20
0.0
 30
0.0
  3
*D15
  1

  0
TEXT
  5
10A
  8
0
 62
     0
 10
-55.37986972489999
 20
562.86267686690007
 30
0.0
 40
7.1966662884000003
  1
23.5
 50
90.0
  0
LINE
  5
10B
  8
0
 62
     0
 10
-167.5528945408
 20
559.57934308849997
 30
0.0
 11
-50.1098697917
 21
559.57934308849997
 31
0.0
  0
LINE
  5
10C
  8
0
 62
     0
 10
-173.94776044700001
 20
583.07934308849985
 30
0.0
 11
-50.1098697917
 21
583.07934308849985
 31
0.0
  0
LINE
  5
10D
  8
0
 62
     0
 10
-52.1098697917
 20
559.57934308849997
 30
0.0
 11
-52.1098697917
 21
559.57934308849997
 31
0.0
  0
LINE
  5
10E
  8
0
 62
     0
 10
-52.1098697917
 20
559.57934308849997
 30
0.0
 11
-52.1098697917
 21
583.07934308849985
 31
0.0
  0
LINE
  5
10F
  8
0
 62
     0
 10
-52.1098697917
 20
583.07934308849985
 30
0.0
 11
-52.1098697917
 21
559.57934308849997
 31
0.0
  0
LINE
  5
110
  8
0
 62
     0
 10
-52.1098697917
 20
583.07934308849985
 30
0.0
 11
-52.1098697917
 21
583.07934308849985
 31
0.0
  0
LINE
  5
111
  8
0
 62
     0
 10
-52.1098697917
 20
583.07934308849985
 30
0.0
 11
-52.1098697917
 21
573.07934308849985
 31
0.0
  0
SOLID
  5
112
  8
0
 62
     0
 10
-52.1098697917
 20
583.07934308849985
 30
0.0
 11
-51.0745936171
 21
579.21563983759995
 31
0.0
 12
-53.145145966199998
 22
579.21563983759995
 32
0.0
 13
-52.1098697917
 23
580.18156565029994
 33
0.0
  0
LINE
  5
113
  8
0
 62
     0
 10
-52.1098697917
 20
559.57934308849997
 30
0.0
 11
-52.1098697917
 21
569.57934308849985
 31
0.0
  0
SOLID
  5
114
  8
0
 62
     0
 10
-52.1098697917
 20
559.57934308849997
 30
0.0
 11
-53.145145966199998
 21
563.44304633939987
 31
0.0
 12
-51.0745936171
 22
563.44304633939987
 32
0.0
 13
-52.1098697917
 23
562.47712052669988
 33
0.0
  0
ENDBLK
  5
115
  8
0
  0
BLOCK
  8
0
  2
*D16
 70
     1
 10
0.0
 20
0.0
 30
0.0
  3
*D16
  1

  0
TEXT
  5
119
  8
0
 62
     0
 10
-31.6500520166
 20
515.51267720069995
 30
0.0
 40
7.1966662884000003
  1
(164.5)
 50
90.0
  0
LINE
  5
11A
  8
0
 62
     0
 10
-187.5267262241
 20
448.07934308849991
 30
0.0
 11
-26.380052083300001
 21
448.07934308849991
 31
0.0
  0
LINE
  5
11B
  8
0
 62
     0
 10
-221.6767265629
 20
612.57934308849985
 30
0.0
 11
-26.380052083300001
 21
612.57934308849985
 31
0.0
  0
LINE
  5
11C
  8
0
 62
     0
 10
-28.380052083300001
 20
448.07934308849991
 30
0.0
 11
-28.380052083300001
 21
549.37934208709987
 31
0.0
  0
LINE
  5
11D
  8
0
 62
     0
 10
-28.380052083300001
 20
448.07934308849991
 30
0.0
 11
-28.380052083300001
 21
511.27934408989989
 31
0.0
  0
LINE
  5
11E
  8
0
 62
     0
 10
-28.380052083300001
 20
612.57934308849985
 30
0.0
 11
-28.380052083300001
 21
549.37934208709987
 31
0.0
  0
LINE
  5
11F
  8
0
 62
     0
 10
-28.380052083300001
 20
612.57934308849985
 30
0.0
 11
-28.380052083300001
 21
511.27934408989989
 31
0.0
  0
LINE
  5
120
  8
0
 62
     0
 10
-28.380052083300001
 20
612.57934308849985
 30
0.0
 11
-28.380052083300001
 21
602.57934308849985
 31
0.0
  0
SOLID
  5
121
  8
0
 62
     0
 10
-28.380052083300001
 20
612.57934308849985
 30
0.0
 11
-27.344775908799999
 21
608.71563983759995
 31
0.0
 12
-29.415328257900001
 22
608.71563983759995
 32
0.0
 13
-28.380052083300001
 23
609.68156565029994
 33
0.0
  0
LINE
  5
122
  8
0
 62
     0
 10
-28.380052083300001
 20
448.07934308849991
 30
0.0
 11
-28.380052083300001
 21
458.07934308849991
 31
0.0
  0
SOLID
  5
123
  8
0
 62
     0
 10
-28.380052083300001
 20
448.07934308849991
 30
0.0
 11
-29.415328257900001
 21
451.94304633939998
 31
0.0
 12
-27.344775908799999
 22
451.94304633939998
 32
0.0
 13
-28.380052083300001
 23
450.97712052669988
 33
0.0
  0
ENDBLK
  5
124
  8
0
  0
BLOCK
  8
0
  2
*D17
 70
     1
 10
0.0
 20
0.0
 30
0.0
  3
*D17
  1

  0
TEXT
  5
128
  8
0
 62
     0
 10
-196.37672622209999
 20
407.4839504540999
 30
0.0
 40
7.1966662884000003
  1
100
  0
LINE
  5
129
  8
0
 62
     0
 10
-240.0267265697
 20
422.21395052079998
 30
0.0
 11
-240.0267265697
 21
402.21395052079998
 31
0.0
  0
LINE
  5
12A
  8
0
 62
     0
 10
-140.02672654209999
 20
459.57934305639998
 30
0.0
 11
-140.02672654209999
 21
402.21395052079998
 31
0.0
  0
LINE
  5
12B
  8
0
 62
     0
 10
-240.0267265697
 20
404.21395052079998
 30
0.0
 11
-179.4433937789
 21
404.21395052079998
 31
0.0
  0
LINE
  5
12C
  8
0
 62
     0
 10
-240.0267265697
 20
404.21395052079998
 30
0.0
 11
-200.61005933289999
 21
404.21395052079998
 31
0.0
  0
LINE
  5
12D
  8
0
 62
     0
 10
-140.02672654209999
 20
404.21395052079998
 30
0.0
 11
-179.4433937789
 21
404.21395052079998
 31
0.0
  0
LINE
  5
12E
  8
0
 62
     0
 10
-140.02672654209999
 20
404.21395052079998
 30
0.0
 11
-200.61005933289999
 21
404.21395052079998
 31
0.0
  0
LINE
  5
12F
  8
0
 62
     0
 10
-140.02672654209999
 20
404.21395052079998
 30
0.0
 11
-150.02672654209999
 21
404.21395052079998
 31
0.0
  0
SOLID
  5
130
  8
0
 62
     0
 10
-140.02672654209999
 20
404.21395052079998
 30
0.0
 11
-143.8904297929999
 21
403.17867434629989
 31
0.0
 12
-143.8904297929999
 22
405.24922669540001
 32
0.0
 13
-142.92450398029999
 23
404.21395052079998
 33
0.0
  0
LINE
  5
131
  8
0
 62
     0
 10
-240.0267265697
 20
404.21395052079998
 30
0.0
 11
-230.0267265697
 21
404.21395052079998
 31
0.0
  0
SOLID
  5
132
  8
0
 62
     0
 10
-240.0267265697
 20
404.21395052079998
 30
0.0
 11
-236.16302331879999
 21
405.24922669540001
 31
0.0
 12
-236.16302331879999
 22
403.17867434629989
 32
0.0
 13
-237.12894913150001
 23
404.21395052079998
 33
0.0
  0
ENDBLK
  5
133
  8
0
  0
BLOCK
  8
0
  2
BALLON9
 70
     0
 10
0.0
 20
0.0
 30
0.0
  3
BALLON9
  1

  0
INSERT
  5
138
  8
0
  6
CONTINUOUS
  2
*U70
 10
0.0
 20
0.0
 30
0.0
  0
CIRCLE
  5
139
  8
┌▓È_1
 10
-65.918138020800001
 20
786.12529947919995
 30
0.0
 40
8.0
  0
LINE
  5
13A
  8
┌▓È_1
 10
-79.251471354200007
 20
786.12529947919995
 30
0.0
 11
-73.918138020800001
 21
786.12529947919995
 31
0.0
  0
LINE
  5
13B
  8
┌▓È_1
 10
-227.7767265629
 20
620.42934308849999
 30
0.0
 11
-79.251471354200007
 21
786.12529947919995
 31
0.0
  0
SOLID
  5
13C
  8
┌▓È_1
 10
-227.7767265629
 20
620.42934308849999
 30
0.0
 11
-223.62837660580001
 21
627.45438348929986
 31
0.0
 12
-223.50491268810001
 22
625.19501263419988
 32
0.0
 13
-223.50491268810001
 23
625.19501263419988
 33
0.0
  0
SOLID
  5
13D
  8
┌▓È_1
 10
-223.50491268810001
 20
625.19501263419988
 30
0.0
 11
-221.24554183289999
 21
625.31847655190006
 31
0.0
 12
-227.7767265629
 22
620.42934308849999
 32
0.0
 13
-227.7767265629
 23
620.42934308849999
 33
0.0
  0
ENDBLK
  5
13E
  8
0
  0
BLOCK
  8
0
  2
CLUMP3
 70
     0
 10
0.0
 20
0.0
 30
0.0
  3
CLUMP3
  1

  0
ARC
  5
152
  8
┌▓È_1
 62
     5
 10
-259.52227106089998
 20
760.27650767319994
 30
0.0
 40
1.0
 50
27.605251265100001
 51
115.0
  0
ARC
  5
153
  8
┌▓È_1
 62
     5
 10
-240.02672656249999
 20
770.4708072917
 30
0.0
 40
21.0
 50
207.60525126510001
 51
212.39474873489999
  0
ARC
  5
154
  8
┌▓È_1
 62
     5
 10
-258.60302125509997
 20
758.68432030470001
 30
0.0
 40
1.0
 50
305.0
 51
32.394748734899999
  0
ARC
  5
155
  8
┌▓È_1
 62
     5
 10
-279.47143303749999
 20
749.87068275080003
 30
0.0
 40
2.0
 50
115.0
 51
207.57595892769999
  0
LINE
  5
156
  8
┌▓È_1
 62
     5
 10
-259.94488932259998
 20
761.1828154602
 30
0.0
 11
-280.31666956100003
 21
751.68329832479992
 31
0.0
  0
ARC
  5
157
  8
┌▓È_1
 62
     5
 10
-240.02672656249999
 20
770.4708072917
 30
0.0
 40
46.5
 50
207.57595892769999
 51
212.42404107230001
  0
ARC
  5
158
  8
┌▓È_1
 62
     5
 10
-277.58931097350001
 20
746.6107517099
 30
0.0
 40
2.0
 50
212.42404107230001
 51
305.0
  0
LINE
  5
159
  8
┌▓È_1
 62
     5
 10
-258.02944481869997
 20
757.86516826039986
 30
0.0
 11
-276.44215810079999
 21
744.97244762139985
 31
0.0
  0
ENDBLK
  5
15A
  8
0
  0
BLOCK
  8
0
  2
CLUMP4
 70
     0
 10
0.0
 20
0.0
 30
0.0
  3
CLUMP4
  1

  0
ARC
  5
15E
  8
┌▓È_1
 62
     5
 10
-254.8598900492
 20
754.22343024259999
 30
0.0
 40
1.0
 50
47.605251265100001
 51
135.0
  0
ARC
  5
15F
  8
┌▓È_1
 62
     5
 10
-240.02672656249999
 20
770.4708072917
 30
0.0
 40
21.0
 50
227.60525126510001
 51
232.39474873489999
  0
ARC
  5
160
  8
┌▓È_1
 62
     5
 10
-253.4515176381
 20
753.04166547179977
 30
0.0
 40
1.0
 50
325.0
 51
52.394748735
  0
ARC
  5
161
  8
┌▓È_1
 62
     5
 10
-270.04696861809998
 20
737.62213811130005
 30
0.0
 40
2.0
 50
135.0
 51
227.5759589276
  0
LINE
  5
162
  8
┌▓È_1
 62
     5
 10
-255.5669968304
 20
754.93053702369991
 30
0.0
 11
-271.46118218049997
 21
739.03635167369987
 31
0.0
  0
ARC
  5
163
  8
┌▓È_1
 62
     5
 10
-240.02672656249999
 20
770.4708072917
 30
0.0
 40
46.5
 50
227.57595892769999
 51
232.42404107230001
  0
ARC
  5
164
  8
┌▓È_1
 62
     5
 10
-267.16339032140002
 20
735.20252862600012
 30
0.0
 40
2.0
 50
232.42404107230001
 51
325.0
  0
LINE
  5
165
  8
┌▓È_1
 62
     5
 10
-252.63236559379999
 20
752.46808903539977
 30
0.0
 11
-265.52508623279999
 21
734.05537575330004
 31
0.0
  0
ENDBLK
  5
166
  8
0
  0
BLOCK
  8
0
  2
CLUMP5
 70
     0
 10
0.0
 20
0.0
 30
0.0
  3
CLUMP5
  1

  0
LINE
  5
18B
  8
┌▓È_1
 62
     5
 10
-259.02672656290002
 20
567.07934308849985
 30
0.0
 11
-240.0267265629
 21
567.07934308849985
 31
0.0
  0
LINE
  5
18C
  8
┌▓È_1
 62
     5
 10
-259.02672656290002
 20
565.57934308849985
 30
0.0
 11
-240.0267265629
 21
565.57934308849985
 31
0.0
  0
LINE
  5
18D
  8
┌▓È_1
 62
     5
 10
-240.0267265629
 20
565.57934308849985
 30
0.0
 11
-257.32672656289998
 21
565.57934310070004
 31
0.0
  0
LINE
  5
18E
  8
┌▓È_1
 62
     5
 10
-259.02672656290002
 20
565.57934308849985
 30
0.0
 11
-259.02672656290002
 21
567.07934308849985
 31
0.0
  0
LINE
  5
18F
  8
┌▓È_1
 62
     5
 10
-202.2767265629
 20
563.87934308850004
 30
0.0
 11
-194.7767265629
 21
563.87934308850004
 31
0.0
  0
LINE
  5
190
  8
┌▓È_1
 62
     5
 10
-194.7767265629
 20
563.87934308850004
 30
0.0
 11
-194.7767265629
 21
565.07934308849985
 31
0.0
  0
LINE
  5
191
  8
┌▓È_1
 62
     5
 10
-194.7767265629
 20
565.07934308849985
 30
0.0
 11
-202.2767265629
 21
565.07934308849985
 31
0.0
  0
LINE
  5
192
  8
┌▓È_1
 62
     5
 10
-202.2767265629
 20
565.07934308849985
 30
0.0
 11
-202.2767265629
 21
563.87934308850004
 31
0.0
  0
LINE
  5
193
  8
┌▓È_1
 62
     5
 10
-239.6767265629
 20
598.27802724209994
 30
0.0
 11
-235.37672656289999
 21
598.27802724209994
 31
0.0
  0
LINE
  5
194
  8
┌▓È_1
 62
     5
 10
-218.82672656290001
 20
605.42934285709998
 30
0.0
 11
-218.82672656290001
 21
599.27802724209994
 31
0.0
  0
ARC
  5
195
  8
┌▓È_1
 62
     5
 10
-219.82672656290001
 20
599.27802724209994
 30
0.0
 40
1.0
 50
270.0
 51
0.0
  0
LINE
  5
196
  8
┌▓È_1
 62
     5
 10
-238.6767265629
 20
602.13844655410003
 30
0.0
 11
-238.6767265629
 21
599.27802724209994
 31
0.0
  0
ARC
  5
197
  8
┌▓È_1
 62
     5
 10
-239.6767265629
 20
599.27802724209994
 30
0.0
 40
1.0
 50
270.0
 51
0.0
  0
LINE
  5
198
  8
┌▓È_1
 62
     5
 10
-236.37672656289999
 20
602.13844655410003
 30
0.0
 11
-236.37672656289999
 21
599.27802724209994
 31
0.0
  0
ARC
  5
199
  8
┌▓È_1
 62
     5
 10
-235.37672656289999
 20
599.27802724209994
 30
0.0
 40
1.0
 50
180.0
 51
270.0
  0
ARC
  5
19A
  8
┌▓È_1
 62
     5
 10
-239.6767265629
 20
600.07934308849985
 30
0.0
 40
1.0
 50
270.0
 51
0.0
  0
LINE
  5
19B
  8
┌▓È_1
 62
     5
 10
-240.0267265629
 20
599.07934308849985
 30
0.0
 11
-239.6767265629
 21
599.07934308849985
 31
0.0
  0
ARC
  5
19C
  8
┌▓È_1
 62
     5
 10
-219.82672656290001
 20
600.07934308849985
 30
0.0
 40
1.0
 50
270.0
 51
0.0
  0
LINE
  5
19D
  8
┌▓È_1
 62
     5
 10
-235.37672656289999
 20
599.07934308849985
 30
0.0
 11
-219.82672656290001
 21
599.07934308849985
 31
0.0
  0
LINE
  5
19E
  8
┌▓È_1
 62
     5
 10
-204.0267265629
 20
602.57934308849985
 30
0.0
 11
-207.0267265629
 21
602.57934308849985
 31
0.0
  0
ARC
  5
19F
  8
┌▓È_1
 62
     5
 10
-214.5267265629
 20
603.07934308849985
 30
0.0
 40
2.0
 50
180.0
 51
270.0
  0
ARC
  5
1A0
  8
┌▓È_1
 62
     5
 10
-223.6767265629
 20
605.42934308849999
 30
0.0
 40
7.1500000000000004
 50
359.9999986304
 51
119.9999989887
  0
LINE
  5
1A1
  8
┌▓È_1
 62
     5
 10
-207.0267265629
 20
601.07934308849997
 30
0.0
 11
-214.5267265629
 21
601.07934308849997
 31
0.0
  0
ARC
  5
1A2
  8
┌▓È_1
 62
     5
 10
-215.5267265629
 20
600.07934308849985
 30
0.0
 40
1.0
 50
115.8664263042
 51
180.0
  0
LINE
  5
1A3
  8
┌▓È_1
 62
     5
 10
-216.5267265629
 20
605.42934285709998
 30
0.0
 11
-216.5267265629
 21
602.37095955430004
 31
0.0
  0
LINE
  5
1A4
  8
┌▓È_1
 62
     5
 10
-207.0267265629
 20
602.57934308849985
 30
0.0
 11
-207.0267265629
 21
583.07934308849985
 31
0.0
  0
LINE
  5
1A5
  8
┌▓È_1
 62
     5
 10
-204.0267265629
 20
602.57934308849985
 30
0.0
 11
-204.0267265629
 21
583.07934308849985
 31
0.0
  0
LINE
  5
1A6
  8
┌▓È_1
 62
     5
 10
-193.0267265629
 20
602.57934308849985
 30
0.0
 11
-193.0267265629
 21
583.07934308849985
 31
0.0
  0
LINE
  5
1A7
  8
┌▓È_1
 62
     5
 10
-216.5267265629
 20
600.07934314389991
 30
0.0
 11
-216.5267265629
 21
583.07934308849985
 31
0.0
  0
LINE
  5
1A8
  8
┌▓È_1
 62
     5
 10
-218.6209126912
 20
610.4851561877
 30
0.0
 11
-209.215099592
 21
601.07934308849997
 31
0.0
  0
ARC
  5
1A9
  8
┌▓È_1
 62
     5
 10
-233.6767265629
 20
602.13844655410003
 30
0.0
 40
2.7000000000000002
 50
120.0
 51
180.0
  0
LINE
  5
1AA
  8
┌▓È_1
 62
     5
 10
-226.10172677520001
 20
609.62956617429995
 30
0.0
 11
-235.0267265629
 21
604.47671514429987
 31
0.0
  0
ARC
  5
1AB
  8
┌▓È_1
 62
     5
 10
-233.6767265629
 20
602.13844655410003
 30
0.0
 40
5.0
 50
120.0
 51
180.0
  0
LINE
  5
1AC
  8
┌▓È_1
 62
     5
 10
-227.25172677520001
 20
611.62142460300004
 30
0.0
 11
-236.1767265629
 21
606.46857357300007
 31
0.0
  0
CIRCLE
  5
1AD
  8
┌▓È_1
 62
     5
 10
-223.6767265629
 20
605.42934308849999
 30
0.0
 40
4.8499999999999988
  0
LINE
  5
1AE
  8
┌▓È_1
 62
     5
 10
-190.0267265629
 20
602.57934308849985
 30
0.0
 11
-193.0267265629
 21
602.57934308849985
 31
0.0
  0
ARC
  5
1AF
  8
┌▓È_1
 62
     5
 10
-214.5267265629
 20
602.37095955430004
 30
0.0
 40
2.0
 50
180.0
 51
270.0
  0
ARC
  5
1B0
  8
┌▓È_1
 62
     5
 10
-235.37672656289999
 20
600.07934308849985
 30
0.0
 40
1.0
 50
180.0
 51
270.0
  0
LINE
  5
1B1
  8
┌▓È_1
 62
     5
 10
-219.82672656290001
 20
598.27802724209994
 30
0.0
 11
-216.5267265629
 21
598.27802724209994
 31
0.0
  0
LINE
  5
1B2
  8
┌▓È_1
 62
     5
 10
-202.2767265629
 20
586.42934308849988
 30
0.0
 11
-202.2767265629
 21
583.07934308849985
 31
0.0
  0
LINE
  5
1B3
  8
┌▓È_1
 62
     5
 10
-194.7767265629
 20
586.42934308849988
 30
0.0
 11
-194.7767265629
 21
583.07934308849985
 31
0.0
  0
ARC
  5
1B4
  8
┌▓È_1
 62
     5
 10
-215.5267265629
 20
566.07934308849985
 30
0.0
 40
1.0
 50
180.0
 51
270.0
  0
LINE
  5
1B5
  8
┌▓È_1
 62
     5
 10
-221.0267265629
 20
567.07934308849985
 30
0.0
 11
-221.0267265629
 21
565.57934308849985
 31
0.0
  0
ARC
  5
1B6
  8
┌▓È_1
 62
     5
 10
-240.0267265629
 20
583.07934308849985
 30
0.0
 40
16.0
 50
90.0
 51
180.0
  0
LINE
  5
1B7
  8
┌▓È_1
 62
     5
 10
-204.0267265629
 20
563.57934308849997
 30
0.0
 11
-207.0267265629
 21
563.57934308849997
 31
0.0
  0
LINE
  5
1B8
  8
┌▓È_1
 62
     5
 10
-225.5267265629
 20
568.57934308849985
 30
0.0
 11
-215.0267265629
 21
568.57934308849985
 31
0.0
  0
LINE
  5
1B9
  8
┌▓È_1
 62
     5
 10
-216.5267265629
 20
567.07934308849985
 30
0.0
 11
-216.5267265629
 21
566.07934308849985
 31
0.0
  0
LINE
  5
1BA
  8
┌▓È_1
 62
     5
 10
-207.0267265629
 20
565.07934308849985
 30
0.0
 11
-207.0267265629
 21
563.57934308849997
 31
0.0
  0
LINE
  5
1BB
  8
┌▓È_1
 62
     5
 10
-204.0267265629
 20
565.07934308849985
 30
0.0
 11
-204.0267265629
 21
563.57934308849997
 31
0.0
  0
LINE
  5
1BC
  8
┌▓È_1
 62
     5
 10
-207.0267265629
 20
565.07934308849985
 30
0.0
 11
-215.5267265629
 21
565.07934308849985
 31
0.0
  0
LINE
  5
1BD
  8
┌▓È_1
 62
     5
 10
-221.0267265629
 20
567.07934308849985
 30
0.0
 11
-216.5267265629
 21
567.07934308849985
 31
0.0
  0
LINE
  5
1BE
  8
┌▓È_1
 10
-225.5267265629
 20
568.57934308849985
 30
0.0
 11
-240.0267265629
 21
583.07934308849985
 31
0.0
  0
LINE
  5
1BF
  8
┌▓È_1
 62
     5
 10
-215.0267265629
 20
566.57934308849985
 30
0.0
 11
-190.021965677
 21
566.14288336369998
 31
0.0
  0
LINE
  5
1C0
  8
┌▓È_1
 62
     5
 10
-190.0267265629
 20
602.57934308849985
 30
0.0
 11
-190.0267265629
 21
563.57934308849997
 31
0.0
  0
LINE
  5
1C1
  8
┌▓È_1
 62
     5
 10
-190.0267265629
 20
563.57934308849997
 30
0.0
 11
-193.0267265629
 21
563.57934308849997
 31
0.0
  0
LINE
  5
1C2
  8
┌▓È_1
 62
     5
 10
-193.0267265629
 20
565.07934308849985
 30
0.0
 11
-193.0267265629
 21
563.57934308849997
 31
0.0
  0
LINE
  5
1C3
  8
┌▓È_1
 62
     5
 10
-193.0267265629
 20
565.07934308849985
 30
0.0
 11
-204.0267265629
 21
565.07934308849985
 31
0.0
  0
LINE
  5
1C4
  8
┌▓È_1
 62
     5
 10
-215.0267265629
 20
583.07934308849985
 30
0.0
 11
-215.0267265629
 21
566.57934308849985
 31
0.0
  0
LINE
  5
1C5
  8
┌▓È_1
 62
     5
 10
-256.02672656290002
 20
583.07934308849985
 30
0.0
 11
-256.02672656290002
 21
567.07934308849985
 31
0.0
  0
LINE
  5
1C6
  8
┌▓È_1
 62
     5
 10
-223.7767265629
 20
565.57934308849985
 30
0.0
 11
-221.0267265629
 21
565.57934308849985
 31
0.0
  0
LINE
  5
1C7
  8
┌▓È_1
 62
     5
 10
-194.7767265629
 20
601.07934308849997
 30
0.0
 11
-196.7767265629
 21
601.07934308849997
 31
0.0
  0
LINE
  5
1C8
  8
┌▓È_1
 62
     5
 10
-200.2767265629
 20
601.07934308849997
 30
0.0
 11
-202.2767265629
 21
601.07934308849997
 31
0.0
  0
LINE
  5
1C9
  8
┌▓È_1
 62
     5
 10
-202.5267265629
 20
598.42934308849988
 30
0.0
 11
-201.2767265629
 21
598.42934308849988
 31
0.0
  0
LINE
  5
1CA
  8
┌▓È_1
 62
     5
 10
-195.7767265629
 20
598.42934308849988
 30
0.0
 11
-194.5267265629
 21
598.42934308849988
 31
0.0
  0
LINE
  5
1CB
  8
┌▓È_1
 62
     5
 10
-200.4195999913
 20
588.87607652669999
 30
0.0
 11
-201.2539631786
 21
596.66346627459995
 31
0.0
  0
ARC
  5
1CC
  8
┌▓È_1
 62
     5
 10
-199.92244541439999
 20
588.92934308849999
 30
0.0
 40
0.5
 50
186.11550356629999
 51
270.0
  0
LINE
  5
1CD
  8
┌▓È_1
 62
     5
 10
-199.92244541439999
 20
588.42934308849999
 30
0.0
 11
-197.13100771149999
 21
588.42934308849999
 31
0.0
  0
LINE
  5
1CE
  8
┌▓È_1
 62
     5
 10
-195.79948994719999
 20
596.66346627459995
 30
0.0
 11
-196.63385313449999
 21
588.87607652669999
 31
0.0
  0
ARC
  5
1CF
  8
┌▓È_1
 62
     5
 10
-197.13100771149999
 20
588.92934308849999
 30
0.0
 40
0.5
 50
270.0
 51
353.88449643370001
  0
ARC
  5
1D0
  8
┌▓È_1
 62
     5
 10
-202.5267265629
 20
599.92934308849999
 30
0.0
 40
1.5
 50
180.0
 51
270.0
  0
ARC
  5
1D1
  8
┌▓È_1
 62
     5
 10
-194.5267265629
 20
599.92934308849999
 30
0.0
 40
1.5
 50
270.0
 51
0.0
  0
ARC
  5
1D2
  8
┌▓È_1
 62
     5
 10
-202.5267265629
 20
603.42934308849999
 30
0.0
 40
1.5
 50
90.0
 51
180.0
  0
LINE
  5
1D3
  8
┌▓È_1
 62
     5
 10
-194.5267265629
 20
604.92934308849999
 30
0.0
 11
-202.5267265629
 21
604.92934308849999
 31
0.0
  0
ARC
  5
1D4
  8
┌▓È_1
 62
     5
 10
-194.5267265629
 20
603.42934308849999
 30
0.0
 40
1.5
 50
0.0
 51
90.0
  0
LINE
  5
1D5
  8
┌▓È_1
 62
     5
 10
-204.0267265629
 20
603.42934308849999
 30
0.0
 11
-204.0267265629
 21
598.42934308849988
 31
0.0
  0
LINE
  5
1D6
  8
┌▓È_1
 62
     5
 10
-193.0267265629
 20
598.42934308849988
 30
0.0
 11
-193.0267265629
 21
603.42934308849999
 31
0.0
  0
LINE
  5
1D7
  8
┌▓È_1
 62
     5
 10
-193.0267265629
 20
598.42934308849988
 30
0.0
 11
-194.7767265629
 21
586.42934308849988
 31
0.0
  0
LINE
  5
1D8
  8
┌▓È_1
 62
     5
 10
-202.2767265629
 20
586.42934308849988
 30
0.0
 11
-204.0267265629
 21
598.42934308849988
 31
0.0
  0
ARC
  5
1D9
  8
┌▓È_1
 62
     5
 10
-199.2571523949
 20
590.22934308849995
 30
0.0
 40
0.3
 50
186.11550356629999
 51
270.0
  0
LINE
  5
1DA
  8
┌▓È_1
 62
     5
 10
-199.2571523949
 20
589.92934308849988
 30
0.0
 11
-197.79630073089999
 21
589.92934308849988
 31
0.0
  0
ARC
  5
1DB
  8
┌▓È_1
 62
     5
 10
-197.79630073089999
 20
590.22934308849995
 30
0.0
 40
0.3
 50
270.0
 51
353.88449643370001
  0
ARC
  5
1DC
  8
┌▓È_1
 62
     5
 10
-197.2767265629
 20
597.08959876919994
 30
0.0
 40
3.0
 50
180.0
 51
186.11550356629999
  0
LINE
  5
1DD
  8
┌▓È_1
 62
     5
 10
-196.79379910119999
 20
596.76999939819984
 30
0.0
 11
-197.49800798480001
 21
590.19738315139989
 31
0.0
  0
ARC
  5
1DE
  8
┌▓È_1
 62
     5
 10
-199.7767265629
 20
597.08959876919994
 30
0.0
 40
3.0
 50
353.88449643370001
 51
0.0
  0
LINE
  5
1DF
  8
┌▓È_1
 62
     5
 10
-199.55544514109999
 20
590.19738315139989
 30
0.0
 11
-200.25965402470001
 21
596.76999939819984
 31
0.0
  0
ARC
  5
1E0
  8
┌▓È_1
 62
     5
 10
-197.2767265629
 20
597.08959876919994
 30
0.0
 40
4.0
 50
180.0
 51
186.11550356629999
  0
ARC
  5
1E1
  8
┌▓È_1
 62
     5
 10
-199.7767265629
 20
597.08959876919994
 30
0.0
 40
4.0
 50
353.88449643370001
 51
0.0
  0
LINE
  5
1E2
  8
┌▓È_1
 62
     5
 10
-194.7767265629
 20
602.27934308850001
 30
0.0
 11
-202.2767265629
 21
602.27934308850001
 31
0.0
  0
LINE
  5
1E3
  8
┌▓È_1
 62
     5
 10
-194.7767265629
 20
602.27934308850001
 30
0.0
 11
-194.7767265629
 21
601.07934308849997
 31
0.0
  0
LINE
  5
1E4
  8
┌▓È_1
 62
     5
 10
-202.2767265629
 20
602.27934308850001
 30
0.0
 11
-202.2767265629
 21
601.07934308849997
 31
0.0
  0
LINE
  5
1E5
  8
┌▓È_1
 62
     5
 10
-201.2767265629
 20
601.07934308849997
 30
0.0
 11
-201.2767265629
 21
597.08959876919994
 31
0.0
  0
LINE
  5
1E6
  8
┌▓È_1
 62
     5
 10
-195.7767265629
 20
601.07934308849997
 30
0.0
 11
-195.7767265629
 21
597.08959876919994
 31
0.0
  0
LINE
  5
1E7
  8
┌▓È_1
 62
     5
 10
-200.2767265629
 20
601.57934308849997
 30
0.0
 11
-200.2767265629
 21
597.08959876919994
 31
0.0
  0
LINE
  5
1E8
  8
┌▓È_1
 62
     5
 10
-196.7767265629
 20
601.57934308849997
 30
0.0
 11
-200.2767265629
 21
601.57934308849997
 31
0.0
  0
LINE
  5
1E9
  8
┌▓È_1
 62
     5
 10
-196.7767265629
 20
601.57934308849997
 30
0.0
 11
-196.7767265629
 21
597.08959876919994
 31
0.0
  0
LINE
  5
1EA
  8
┌▓È_1
 62
     5
 10
-200.2767265629
 20
600.77934308850001
 30
0.0
 11
-201.2767265629
 21
600.77934308850001
 31
0.0
  0
LINE
  5
1EB
  8
┌▓È_1
 62
     5
 10
-200.2767265629
 20
599.27934308850001
 30
0.0
 11
-201.2767265629
 21
599.27934308850001
 31
0.0
  0
LINE
  5
1EC
  8
┌▓È_1
 62
     5
 10
-195.7767265629
 20
599.27934308850001
 30
0.0
 11
-196.7767265629
 21
599.27934308850001
 31
0.0
  0
LINE
  5
1ED
  8
┌▓È_1
 62
     5
 10
-195.7767265629
 20
600.77934308850001
 30
0.0
 11
-196.7767265629
 21
600.77934308850001
 31
0.0
  0
LINE
  5
1EE
  8
┌▓È_1
 62
     5
 10
-222.72672656719999
 20
565.57934308849985
 30
0.0
 11
-223.7767265629
 21
565.57934308849985
 31
0.0
  0
ENDBLK
  5
1EF
  8
0
  0
BLOCK
  8
0
  2
CLUMP6
 70
     0
 10
0.0
 20
0.0
 30
0.0
  3
CLUMP6
  1

  0
ARC
  5
1F5
  8
┌▓È_1
 62
     5
 10
-261.83320168249998
 20
767.55916808970005
 30
0.0
 40
1.0
 50
7.6052512650999997
 51
95.0
  0
ARC
  5
1F6
  8
┌▓È_1
 62
     5
 10
-240.02672656249999
 20
770.4708072917
 30
0.0
 40
21.0
 50
187.60525126510001
 51
192.39474873489999
  0
ARC
  5
1F7
  8
┌▓È_1
 62
     5
 10
-261.51394957529999
 20
765.74859941820011
 30
0.0
 40
1.0
 50
285.0
 51
12.3947487349
  0
ARC
  5
1F8
  8
┌▓È_1
 62
     5
 10
-284.1382837141
 20
764.60390643530002
 30
0.0
 40
2.0
 50
95.0
 51
187.57595892769999
  0
LINE
  5
1F9
  8
┌▓È_1
 62
     5
 10
-261.9203574252
 20
768.55536278779994
 30
0.0
 11
-284.31259519960003
 21
766.5962958314999
 31
0.0
  0
ARC
  5
1FA
  8
┌▓È_1
 62
     5
 10
-240.02672656249999
 20
770.4708072917
 30
0.0
 40
46.5
 50
187.57595892769999
 51
192.42404107230001
  0
ARC
  5
1FB
  8
┌▓È_1
 62
     5
 10
-283.48462958099998
 20
760.89684963390005
 30
0.0
 40
2.0
 50
192.42404107230001
 51
285.0
  0
LINE
  5
1FC
  8
┌▓È_1
 62
     5
 10
-261.25513053020001
 20
764.78267359189988
 30
0.0
 11
-282.96699149080001
 21
758.96499798130003
 31
0.0
  0
ENDBLK
  5
1FD
  8
0
  0
BLOCK
  8
0
  2
CLUMP7
 70
     0
 10
0.0
 20
0.0
 30
0.0
  3
CLUMP7
  1

  0
LINE
  5
248
  8
┌▓È_1
 62
     5
 10
-193.0256378238
 20
558.37934308850004
 30
0.0
 11
-187.8267877568999
 21
558.37934308850004
 31
0.0
  0
ARC
  5
249
  8
┌▓È_1
 62
     5
 10
-193.0256378238
 20
557.87934308850004
 30
0.0
 40
0.5
 50
90.0
 51
180.0
  0
LINE
  5
24A
  8
┌▓È_1
 62
     5
 10
-193.02563769150001
 20
545.17934308849999
 30
0.0
 11
-187.82563769149999
 21
545.17934308849999
 31
0.0
  0
ARC
  5
24B
  8
┌▓È_1
 62
     5
 10
-193.02563769150001
 20
545.67934308849988
 30
0.0
 40
0.5
 50
180.0
 51
270.0
  0
LINE
  5
24C
  8
┌▓È_1
 62
     5
 10
-189.82563769149999
 20
548.87934308850004
 30
0.0
 11
-187.82563769149999
 21
548.87934308850004
 31
0.0
  0
ARC
  5
24D
  8
┌▓È_1
 62
     5
 10
-187.82563769149999
 20
548.37934308850004
 30
0.0
 40
0.5
 50
0.0
 51
90.0
  0
LINE
  5
24E
  8
┌▓È_1
 62
     5
 10
-187.32563769149999
 20
548.37934308850004
 30
0.0
 11
-187.32563769149999
 21
545.67934308849988
 31
0.0
  0
ARC
  5
24F
  8
┌▓È_1
 62
     5
 10
-187.82563769149999
 20
545.67934308849988
 30
0.0
 40
0.5
 50
270.0
 51
0.0
  0
LINE
  5
250
  8
┌▓È_1
 62
     5
 10
-189.8267265627
 20
554.57934308849985
 30
0.0
 11
-189.8267265627
 21
548.87934308850004
 31
0.0
  0
LINE
  5
251
  8
┌▓È_1
  6
BORDER
 62
     3
 10
-240.02672656269999
 20
563.45189207019985
 30
0.0
 11
-240.02672656269999
 21
536.4313191535
 31
0.0
  0
ARC
  5
252
  8
┌▓È_1
 62
     5
 10
-219.52723043469999
 20
550.36559053919996
 30
0.0
 40
0.5
 50
0.0
 51
112.0
  0
LINE
  5
253
  8
┌▓È_1
 62
     5
 10
-219.02723043469999
 20
550.36559053919996
 30
0.0
 11
-219.02723043469999
 21
547.29273205280003
 31
0.0
  0
LINE
  5
254
  8
┌▓È_1
 62
     5
 10
-219.52723043469999
 20
546.79273205280003
 30
0.0
 11
-219.52723043469999
 21
546.79273205280003
 31
0.0
  0
ARC
  5
255
  8
┌▓È_1
 62
     5
 10
-219.52723043469999
 20
547.29273205280003
 30
0.0
 40
0.5
 50
270.0
 51
0.0
  0
LINE
  5
256
  8
┌▓È_1
 62
     5
 10
-221.52723043469999
 20
548.07327990830004
 30
0.0
 11
-221.52723043469999
 21
543.31177634039989
 31
0.0
  0
LINE
  5
257
  8
┌▓È_1
 62
     5
 10
-219.7145337314
 20
550.82918246650001
 30
0.0
 11
-219.651050215
 21
550.854831472
 31
0.0
  0
ARC
  5
258
  8
┌▓È_1
 62
     5
 10
-218.52723043469999
 20
548.07327990830004
 30
0.0
 40
3.0
 50
112.0
 51
180.0
  0
ARC
  5
259
  8
┌▓È_1
 62
     5
 10
-220.52723043469999
 20
543.31177634039989
 30
0.0
 40
1.0
 50
0.0
 51
0.0000045031
  0
LINE
  5
25A
  8
┌▓È_1
 62
     5
 10
-219.52723043469999
 20
546.79273205280003
 30
0.0
 11
-219.52723043469999
 21
543.31177634039989
 31
0.0
  0
ARC
  5
25B
  8
┌▓È_1
 62
     5
 10
-220.52723043469999
 20
543.31177634039989
 30
0.0
 40
1.0
 50
269.99999956189998
 51
0.0
  0
ARC
  5
25C
  8
┌▓È_1
 62
     5
 10
-220.52723043469999
 20
543.31177634039989
 30
0.0
 40
1.0
 50
180.0
 51
269.99999956189998
  0
LINE
  5
25D
  8
┌▓È_1
 62
     5
 10
-193.5256378238
 20
557.87934308850004
 30
0.0
 11
-193.52563769150001
 21
545.67934308849988
 31
0.0
  0
LINE
  5
25E
  8
┌▓È_1
 62
     5
 10
-187.32678775689999
 20
557.87934308850004
 30
0.0
 11
-187.32678775689999
 21
555.07934308849997
 31
0.0
  0
ARC
  5
25F
  8
┌▓È_1
 62
     5
 10
-187.8267877568999
 20
555.07934308849997
 30
0.0
 40
0.5
 50
270.0
 51
0.0
  0
LINE
  5
260
  8
┌▓È_1
 62
     5
 10
-187.8267877568999
 20
554.57934308849985
 30
0.0
 11
-189.8267265627
 21
554.57934308849985
 31
0.0
  0
ARC
  5
261
  8
┌▓È_1
 62
     5
 10
-187.8267877568999
 20
557.87934308850004
 30
0.0
 40
0.5
 50
0.0
 51
90.0
  0
ENDBLK
  5
262
  8
0
  0
BLOCK
  8
0
  2
*D24
 70
     1
 10
0.0
 20
0.0
 30
0.0
  3
*D24
  1

  0
TEXT
  5
29F
  8
0
 62
     0
 10
-55.37986972489999
 20
518.86267686689996
 30
0.0
 40
7.1966662884000003
  1
64.5
 50
90.0
  0
LINE
  5
2A0
  8
0
 62
     0
 10
-128.6229140625
 20
495.07934308849991
 30
0.0
 11
-50.1098697917
 21
495.07934308849991
 31
0.0
  0
LINE
  5
2A1
  8
0
 62
     0
 10
-167.5528945408
 20
559.57934308849997
 30
0.0
 11
-50.1098697917
 21
559.57934308849997
 31
0.0
  0
LINE
  5
2A2
  8
0
 62
     0
 10
-52.1098697917
 20
495.07934308849991
 30
0.0
 11
-52.1098697917
 21
540.02934242089987
 31
0.0
  0
LINE
  5
2A3
  8
0
 62
     0
 10
-52.1098697917
 20
495.07934308849991
 30
0.0
 11
-52.1098697917
 21
514.62934375609996
 31
0.0
  0
LINE
  5
2A4
  8
0
 62
     0
 10
-52.1098697917
 20
559.57934308849997
 30
0.0
 11
-52.1098697917
 21
540.02934242089987
 31
0.0
  0
LINE
  5
2A5
  8
0
 62
     0
 10
-52.1098697917
 20
559.57934308849997
 30
0.0
 11
-52.1098697917
 21
514.62934375609996
 31
0.0
  0
LINE
  5
2A6
  8
0
 62
     0
 10
-52.1098697917
 20
559.57934308849997
 30
0.0
 11
-52.1098697917
 21
549.57934308849985
 31
0.0
  0
SOLID
  5
2A7
  8
0
 62
     0
 10
-52.1098697917
 20
559.57934308849997
 30
0.0
 11
-51.0745936171
 21
555.71563983759995
 31
0.0
 12
-53.145145966199998
 22
555.71563983759995
 32
0.0
 13
-52.1098697917
 23
556.68156565029994
 33
0.0
  0
LINE
  5
2A8
  8
0
 62
     0
 10
-52.1098697917
 20
495.07934308849991
 30
0.0
 11
-52.1098697917
 21
505.07934308850002
 31
0.0
  0
SOLID
  5
2A9
  8
0
 62
     0
 10
-52.1098697917
 20
495.07934308849991
 30
0.0
 11
-53.145145966199998
 21
498.94304633939998
 31
0.0
 12
-51.0745936171
 22
498.94304633939998
 32
0.0
 13
-52.1098697917
 23
497.97712052669999
 33
0.0
  0
ENDBLK
  5
2AA
  8
0
  0
BLOCK
  8
0
  2
BALLON10
 70
     0
 10
0.0
 20
0.0
 30
0.0
  3
BALLON10
  1

  0
INSERT
  5
2B2
  8
0
  6
CONTINUOUS
  2
*U71
 10
0.0
 20
0.0
 30
0.0
  0
CIRCLE
  5
2B3
  8
┌▓È_1
 10
-65.918138020800001
 20
383.66924479170001
 30
0.0
 40
8.0
  0
LINE
  5
2B4
  8
┌▓È_1
 10
-79.251471354200007
 20
383.66924479170001
 30
0.0
 11
-73.918138020800001
 21
383.66924479170001
 31
0.0
  0
LINE
  5
2B5
  8
┌▓È_1
 10
-176.77672653619999
 20
477.07934308849991
 30
0.0
 11
-79.251471354200007
 21
383.66924479170001
 31
0.0
  0
SOLID
  5
2B6
  8
┌▓È_1
 10
-176.77672653619999
 20
477.07934308849991
 30
0.0
 11
-169.89256413230001
 21
472.70118046049998
 31
0.0
 12
-172.1547804759
 22
472.65242377409999
 32
0.0
 13
-172.1547804759
 23
472.65242377409999
 33
0.0
  0
SOLID
  5
2B7
  8
┌▓È_1
 10
-172.1547804759
 20
472.65242377409999
 30
0.0
 11
-172.1060237895
 21
470.39020743039993
 31
0.0
 12
-176.77672653619999
 22
477.07934308849991
 32
0.0
 13
-176.77672653619999
 23
477.07934308849991
 33
0.0
  0
ENDBLK
  5
2B8
  8
0
  0
BLOCK
  8
0
  2
CLUMP8
 70
     0
 10
0.0
 20
0.0
 30
0.0
  3
CLUMP8
  1

  0
ARC
  5
2D4
  8
┌▓È_1
 62
     5
 10
-246.68078608850001
 20
791.44039221419996
 30
0.0
 40
1.0
 50
287.60525126509998
 51
15.0
  0
ARC
  5
2D5
  8
┌▓È_1
 62
     5
 10
-240.02672656249999
 20
770.4708072917
 30
0.0
 40
21.0
 50
107.60525126509999
 51
112.39474873490001
  0
ARC
  5
2D6
  8
┌▓È_1
 62
     5
 10
-248.40841060689999
 20
790.81158831350001
 30
0.0
 40
1.0
 50
205.0
 51
292.39474873490002
  0
ARC
  5
2D7
  8
┌▓È_1
 62
     5
 10
-253.46438752540001
 20
812.89343412979997
 30
0.0
 40
2.0
 50
15.0
 51
107.5759589277
  0
LINE
  5
2D8
  8
┌▓È_1
 62
     5
 10
-245.71486026220001
 20
791.69921125929989
 30
0.0
 11
-251.5325358728
 21
813.41107222000005
 31
0.0
  0
ARC
  5
2D9
  8
┌▓È_1
 62
     5
 10
-240.02672656249999
 20
770.4708072917
 30
0.0
 40
46.5
 50
107.5759589277
 51
112.4240410723
  0
ARC
  5
2DA
  8
┌▓È_1
 62
     5
 10
-257.00161995529999
 20
811.6059868136
 30
0.0
 40
2.0
 50
112.4240410723
 51
205.0
  0
LINE
  5
2DB
  8
┌▓È_1
 62
     5
 10
-249.31471839389999
 20
790.3889700517999
 30
0.0
 11
-258.81423552929999
 21
810.76075029020001
 31
0.0
  0
ENDBLK
  5
2DC
  8
0
  0
BLOCK
  8
0
  2
CLUMP9
 70
     0
 10
0.0
 20
0.0
 30
0.0
  3
CLUMP9
  1

  0
ARC
  5
2E8
  8
┌▓È_1
 62
     5
 10
-248.40841060689999
 20
750.13002626979994
 30
0.0
 40
1.0
 50
67.605251265100009
 51
155.0
  0
ARC
  5
2E9
  8
┌▓È_1
 62
     5
 10
-240.02672656249999
 20
770.4708072917
 30
0.0
 40
21.0
 50
247.60525126510001
 51
252.39474873489999
  0
ARC
  5
2EA
  8
┌▓È_1
 62
     5
 10
-246.68078608850001
 20
749.50122236909988
 30
0.0
 40
1.0
 50
345.0
 51
72.394748734899991
  0
ARC
  5
2EB
  8
┌▓È_1
 62
     5
 10
-257.00161995529999
 20
729.33562776969995
 30
0.0
 40
2.0
 50
155.0
 51
247.5759589277001
  0
LINE
  5
2EC
  8
┌▓È_1
 62
     5
 10
-249.31471839389999
 20
750.55264453149994
 30
0.0
 11
-258.81423552929999
 21
730.1808642932001
 31
0.0
  0
ARC
  5
2ED
  8
┌▓È_1
 62
     5
 10
-240.02672656249999
 20
770.4708072917
 30
0.0
 40
46.5
 50
247.5759589277001
 51
252.42404107230001
  0
ARC
  5
2EE
  8
┌▓È_1
 62
     5
 10
-253.46438752540001
 20
728.04818045350009
 30
0.0
 40
2.0
 50
252.42404107230001
 51
345.0
  0
LINE
  5
2EF
  8
┌▓È_1
 62
     5
 10
-245.71486026220001
 20
749.24240332399995
 30
0.0
 11
-251.5325358728
 21
727.53054236330001
 31
0.0
  0
ENDBLK
  5
2F0
  8
0
  0
BLOCK
  8
0
  2
CLUMP10
 70
     0
 10
0.0
 20
0.0
 30
0.0
  3
CLUMP10
  1

  0
ARC
  5
2F7
  8
┌▓È_1
 62
     5
 10
-240.94597636829999
 20
748.49002068619995
 30
0.0
 40
1.0
 50
87.605251265100009
 51
175.0
  0
ARC
  5
2F8
  8
┌▓È_1
 62
     5
 10
-240.02672656249999
 20
770.4708072917
 30
0.0
 40
21.0
 50
267.60525126509998
 51
272.39474873490002
  0
ARC
  5
2F9
  8
┌▓È_1
 62
     5
 10
-239.10747675670001
 20
748.49002068619995
 30
0.0
 40
1.0
 50
5.0
 51
92.394748734899991
  0
ARC
  5
2FA
  8
┌▓È_1
 62
     5
 10
-241.9088486265
 20
726.0106271689998
 30
0.0
 40
2.0
 50
175.0
 51
267.57595892770001
  0
LINE
  5
2FB
  8
┌▓È_1
 62
     5
 10
-241.94217106639999
 20
748.57717642899991
 30
0.0
 11
-243.90123802260001
 21
726.1849386545
 31
0.0
  0
ARC
  5
2FC
  8
┌▓È_1
 62
     5
 10
-240.02672656249999
 20
770.4708072917
 30
0.0
 40
46.5
 50
267.57595892770001
 51
272.42404107229999
  0
ARC
  5
2FD
  8
┌▓È_1
 62
     5
 10
-238.1446044985
 20
726.0106271689998
 30
0.0
 40
2.0
 50
272.42404107229999
 51
5.0
  0
LINE
  5
2FE
  8
┌▓È_1
 62
     5
 10
-238.11128205860001
 20
748.57717642899991
 30
0.0
 11
-236.15221510239999
 21
726.1849386545
 31
0.0
  0
ENDBLK
  5
2FF
  8
0
  0
BLOCK
  8
0
  2
CLUMP11
 70
     0
 10
0.0
 20
0.0
 30
0.0
  3
CLUMP11
  1

  0
ARC
  5
308
  8
┌▓È_1
 62
     5
 10
-231.64504251810001
 20
790.81158831350001
 30
0.0
 40
1.0
 50
247.60525126510001
 51
335.0
  0
ARC
  5
309
  8
┌▓È_1
 62
     5
 10
-240.02672656249999
 20
770.4708072917
 30
0.0
 40
21.0
 50
67.605251265100009
 51
72.394748734899991
  0
ARC
  5
30A
  8
┌▓È_1
 62
     5
 10
-233.37266703649999
 20
791.44039221419996
 30
0.0
 40
1.0
 50
165.0
 51
252.39474873489999
  0
ARC
  5
30B
  8
┌▓È_1
 62
     5
 10
-223.05183316969999
 20
811.6059868136
 30
0.0
 40
2.0
 50
335.0
 51
67.5759589277
  0
LINE
  5
30C
  8
┌▓È_1
 62
     5
 10
-230.73873473110001
 20
790.3889700517999
 30
0.0
 11
-221.23921759570001
 21
810.76075029020001
 31
0.0
  0
ARC
  5
30D
  8
┌▓È_1
 62
     5
 10
-240.02672656249999
 20
770.4708072917
 30
0.0
 40
46.5
 50
67.5759589277
 51
72.4240410723
  0
ARC
  5
30E
  8
┌▓È_1
 62
     5
 10
-226.58906559959999
 20
812.89343412979997
 30
0.0
 40
2.0
 50
72.4240410723
 51
165.0
  0
LINE
  5
30F
  8
┌▓È_1
 62
     5
 10
-234.3385928628
 20
791.69921125929989
 30
0.0
 11
-228.52091725220001
 21
813.41107222000005
 31
0.0
  0
ENDBLK
  5
310
  8
0
  0
BLOCK
  8
0
  2
CLUMP12
 70
     0
 10
0.0
 20
0.0
 30
0.0
  3
CLUMP12
  1

  0
ARC
  5
316
  8
┌▓È_1
 62
     5
 10
-253.4515176381
 20
787.89994911149995
 30
0.0
 40
1.0
 50
307.60525126509998
 51
35.0
  0
ARC
  5
317
  8
┌▓È_1
 62
     5
 10
-240.02672656249999
 20
770.4708072917
 30
0.0
 40
21.0
 50
127.60525126509999
 51
132.39474873489999
  0
ARC
  5
318
  8
┌▓È_1
 62
     5
 10
-254.8598900492
 20
786.71818434079989
 30
0.0
 40
1.0
 50
225.0
 51
312.39474873490002
  0
ARC
  5
319
  8
┌▓È_1
 62
     5
 10
-267.16339032140002
 20
805.73908595729995
 30
0.0
 40
2.0
 50
35.0
 51
127.5759589276
  0
LINE
  5
31A
  8
┌▓È_1
 62
     5
 10
-252.63236559379999
 20
788.47352554789995
 30
0.0
 11
-265.52508623279999
 21
806.88623883000014
 31
0.0
  0
ARC
  5
31B
  8
┌▓È_1
 62
     5
 10
-240.02672656249999
 20
770.4708072917
 30
0.0
 40
46.5
 50
127.5759589277
 51
132.42404107230001
  0
ARC
  5
31C
  8
┌▓È_1
 62
     5
 10
-270.04696861809998
 20
803.31947647200013
 30
0.0
 40
2.0
 50
132.42404107230001
 51
225.0
  0
LINE
  5
31D
  8
┌▓È_1
 62
     5
 10
-255.5669968304
 20
786.01107755960004
 30
0.0
 11
-271.46118218049997
 21
801.90526290970001
 31
0.0
  0
ENDBLK
  5
31E
  8
0
  0
BLOCK
  8
0
  2
CLUMP13
 70
     0
 10
0.0
 20
0.0
 30
0.0
  3
CLUMP13
  1

  0
ARC
  5
322
  8
┌▓È_1
 62
     5
 10
-261.51394957529999
 20
775.19301516509995
 30
0.0
 40
1.0
 50
347.60525126509998
 51
75.0
  0
ARC
  5
323
  8
┌▓È_1
 62
     5
 10
-240.02672656249999
 20
770.4708072917
 30
0.0
 40
21.0
 50
167.60525126510001
 51
172.39474873489999
  0
ARC
  5
324
  8
┌▓È_1
 62
     5
 10
-261.83320168249998
 20
773.38244649369994
 30
0.0
 40
1.0
 50
265.0
 51
352.39474873490002
  0
ARC
  5
325
  8
┌▓È_1
 62
     5
 10
-283.48462958099998
 20
780.04476494940002
 30
0.0
 40
2.0
 50
75.0
 51
167.57595892769999
  0
LINE
  5
326
  8
┌▓È_1
 62
     5
 10
-261.25513053020001
 20
776.15894099139985
 30
0.0
 11
-282.96699149080001
 21
781.97661660199992
 31
0.0
  0
ARC
  5
327
  8
┌▓È_1
 62
     5
 10
-240.02672656249999
 20
770.4708072917
 30
0.0
 40
46.5
 50
167.57595892769999
 51
172.42404107230001
  0
ARC
  5
328
  8
┌▓È_1
 62
     5
 10
-284.1382837141
 20
776.33770814800005
 30
0.0
 40
2.0
 50
172.42404107230001
 51
265.0
  0
LINE
  5
329
  8
┌▓È_1
 62
     5
 10
-261.9203574252
 20
772.38625179559995
 30
0.0
 11
-284.31259519960003
 21
774.34531875179994
 31
0.0
  0
ENDBLK
  5
32A
  8
0
  0
BLOCK
  8
0
  2
CLUMP14
 70
     0
 10
0.0
 20
0.0
 30
0.0
  3
CLUMP14
  1

  0
ARC
  5
33B
  8
┌▓È_1
 62
     5
 10
-258.60302125509997
 20
782.25729427869987
 30
0.0
 40
1.0
 50
327.60525126509998
 51
55.0
  0
ARC
  5
33C
  8
┌▓È_1
 62
     5
 10
-240.02672656249999
 20
770.4708072917
 30
0.0
 40
21.0
 50
147.60525126510001
 51
152.39474873489999
  0
ARC
  5
33D
  8
┌▓È_1
 62
     5
 10
-259.52227106089998
 20
780.66510691009989
 30
0.0
 40
1.0
 50
245.0
 51
332.39474873490002
  0
ARC
  5
33E
  8
┌▓È_1
 62
     5
 10
-277.58931097350001
 20
794.33086287339995
 30
0.0
 40
2.0
 50
55.0
 51
147.57595892769999
  0
LINE
  5
33F
  8
┌▓È_1
 62
     5
 10
-258.02944481869997
 20
783.07644632289998
 30
0.0
 11
-276.44215810079999
 21
795.96916696199992
 31
0.0
  0
ARC
  5
340
  8
┌▓È_1
 62
     5
 10
-240.02672656249999
 20
770.4708072917
 30
0.0
 40
46.5
 50
147.57595892769999
 51
152.42404107230001
  0
ARC
  5
341
  8
┌▓È_1
 62
     5
 10
-279.47143303749999
 20
791.07093183259985
 30
0.0
 40
2.0
 50
152.42404107230001
 51
245.0
  0
LINE
  5
342
  8
┌▓È_1
 62
     5
 10
-259.94488932259998
 20
779.75879912309995
 30
0.0
 11
-280.31666956100003
 21
789.25831625850003
 31
0.0
  0
ENDBLK
  5
343
  8
0
  0
BLOCK
  8
0
  2
CLUMP15
 70
     0
 10
0.0
 20
0.0
 30
0.0
  3
CLUMP15
  1

  0
ARC
  5
347
  8
┌▓È_1
 62
     5
 10
-233.37266703649999
 20
749.50122236909988
 30
0.0
 40
1.0
 50
107.60525126509999
 51
195.0
  0
ARC
  5
348
  8
┌▓È_1
 62
     5
 10
-240.02672656249999
 20
770.4708072917
 30
0.0
 40
21.0
 50
287.60525126509998
 51
292.39474873490002
  0
ARC
  5
349
  8
┌▓È_1
 62
     5
 10
-231.64504251810001
 20
750.13002626979994
 30
0.0
 40
1.0
 50
25.0
 51
112.39474873490001
  0
ARC
  5
34A
  8
┌▓È_1
 62
     5
 10
-226.58906559959999
 20
728.04818045350009
 30
0.0
 40
2.0
 50
195.0
 51
287.57595892770001
  0
LINE
  5
34B
  8
┌▓È_1
 62
     5
 10
-234.3385928628
 20
749.24240332399995
 30
0.0
 11
-228.52091725220001
 21
727.53054236330001
 31
0.0
  0
ARC
  5
34C
  8
┌▓È_1
 62
     5
 10
-240.02672656249999
 20
770.4708072917
 30
0.0
 40
46.5
 50
287.57595892770001
 51
292.4240410723001
  0
ARC
  5
34D
  8
┌▓È_1
 62
     5
 10
-223.05183316969999
 20
729.33562776969995
 30
0.0
 40
2.0
 50
292.4240410723001
 51
25.0
  0
LINE
  5
34E
  8
┌▓È_1
 62
     5
 10
-230.73873473110001
 20
750.55264453149994
 30
0.0
 11
-221.23921759570001
 21
730.1808642932001
 31
0.0
  0
ENDBLK
  5
34F
  8
0
  0
BLOCK
  8
0
  2
CLUMP16
 70
     0
 10
0.0
 20
0.0
 30
0.0
  3
CLUMP16
  1

  0
ARC
  5
35F
  8
┌▓È_1
 62
     5
 10
322.07125651040002
 20
770.47080728029994
 30
0.0
 40
50.200000000000003
 50
97.384883246700014
 51
112.1546497402
  0
ARC
  5
360
  8
┌▓È_1
 62
     5
 10
322.07125651040002
 20
770.47080728029994
 30
0.0
 40
46.899999999999999
 50
167.82492209029999
 51
206.94484440319999
  0
ARC
  5
361
  8
┌▓È_1
 62
     5
 10
308.57125651040002
 20
783.97080728029994
 30
0.0
 40
4.0
 50
90.0
 51
180.0
  0
LINE
  5
362
  8
┌▓È_1
 62
     5
 10
304.57125651040002
 20
783.97080728029994
 30
0.0
 11
304.57125651040002
 21
756.97080728029994
 31
0.0
  0
ARC
  5
363
  8
┌▓È_1
 62
     5
 10
308.57125651040002
 20
756.97080728029994
 30
0.0
 40
4.0
 50
180.0
 51
270.0
  0
ARC
  5
364
  8
┌▓È_1
 62
     5
 10
308.57125651040002
 20
783.97080728029994
 30
0.0
 40
1.0
 50
90.0
 51
180.0
  0
LINE
  5
365
  8
┌▓È_1
 62
     5
 10
307.57125651040002
 20
783.97080728029994
 30
0.0
 11
307.57125651040002
 21
756.97080728029994
 31
0.0
  0
LINE
  5
366
  8
┌▓È_1
 62
     5
 10
304.57125651040002
 20
774.47080728029994
 30
0.0
 11
307.57125651040002
 21
774.47080728029994
 31
0.0
  0
LINE
  5
367
  8
┌▓È_1
 62
     5
 10
304.57125651040002
 20
766.47080728029994
 30
0.0
 11
307.57125651040002
 21
766.47080728029994
 31
0.0
  0
LINE
  5
368
  8
┌▓È_1
 62
     5
 10
275.37717056460002
 20
781.5646045423
 30
0.0
 11
273.47689116020001
 21
781.81089794179991
 31
0.0
  0
ARC
  5
369
  8
┌▓È_1
 62
     5
 10
275.24863661220002
 20
780.57289943329999
 30
0.0
 40
1.0
 50
347.8249220902
 51
82.615116753300001
  0
ARC
  5
36A
  8
┌▓È_1
 62
     5
 10
292.07125651040002
 20
770.47080728029994
 30
0.0
 40
5.0
 50
270.0
 51
0.0
  0
LINE
  5
36B
  8
┌▓È_1
 62
     5
 10
297.07125651040002
 20
770.47080728029994
 30
0.0
 11
297.07125651040002
 21
813.65656882279995
 31
0.0
  0
ARC
  5
36C
  8
┌▓È_1
 62
     5
 10
322.07125651040002
 20
770.47080728029994
 30
0.0
 40
50.200000000000003
 50
172.61511675329999
 51
187.38488324670001
  0
LINE
  5
36D
  8
┌▓È_1
 62
     5
 10
272.28766004229999
 20
776.92321169270008
 30
0.0
 11
269.61005624820001
 21
777.27025336429995
 31
0.0
  0
LINE
  5
36E
  8
┌▓È_1
 62
     5
 10
275.57755463709998
 20
751.53999414100008
 30
0.0
 11
273.07689736499998
 21
750.52180299609995
 31
0.0
  0
LINE
  5
36F
  8
┌▓È_1
 62
     5
 10
368.76534245620002
 20
759.37701001839991
 30
0.0
 11
370.66562186060003
 21
759.1307166188999
 31
0.0
  0
ARC
  5
370
  8
┌▓È_1
 62
     5
 10
322.07125651040002
 20
770.47080728029994
 30
0.0
 40
50.200000000000003
 50
277.38488324669999
 51
292.1546497402
  0
LINE
  5
371
  8
┌▓È_1
  6
BORDER
 62
     3
 10
322.07125651040002
 20
710.47080728029994
 30
0.0
 11
322.07125651040002
 21
830.47080728029982
 31
0.0
  0
LINE
  5
372
  8
┌▓È_1
  6
BORDER
 62
     3
 10
322.07125651040002
 20
830.47080728029982
 30
0.0
 11
322.07125651040002
 21
710.47080728029994
 31
0.0
  0
LINE
  5
373
  8
┌▓È_1
 62
     5
 10
310.9774592485
 20
723.7767213346001
 30
0.0
 11
310.73116584899998
 21
721.87644193009999
 31
0.0
  0
ARC
  5
374
  8
┌▓È_1
 62
     5
 10
311.96916435740002
 20
723.64818738209999
 30
0.0
 40
1.0
 50
77.824922090299992
 51
172.61511675329999
  0
ARC
  5
375
  8
┌▓È_1
 62
     5
 10
322.07125651040002
 20
770.47080728029994
 30
0.0
 40
49.899999999999999
 50
207.9053602992
 51
256.8644061942
  0
ARC
  5
376
  8
┌▓È_1
 62
     5
 10
322.07125651040002
 20
770.47080728029994
 30
0.0
 40
46.899999999999999
 50
257.82492209029999
 51
296.94484440320002
  0
ARC
  5
377
  8
┌▓È_1
 62
     5
 10
322.07125651040002
 20
770.47080728029994
 30
0.0
 40
52.899999999999999
 50
187.38488324670001
 51
262.61511675330001
  0
LINE
  5
378
  8
┌▓È_1
  6
BORDER
 62
     3
 10
262.07125651040002
 20
770.47080728029994
 30
0.0
 11
382.07125651040002
 21
770.47080728029994
 31
0.0
  0
LINE
  5
379
  8
┌▓È_1
  6
BORDER
 62
     3
 10
262.07125651040002
 20
770.47080728029994
 30
0.0
 11
382.07125651040002
 21
770.47080728029994
 31
0.0
  0
ARC
  5
37A
  8
┌▓È_1
 62
     5
 10
322.07125651040002
 20
770.47080728029994
 30
0.0
 40
46.899999999999999
 50
77.824922090299992
 51
116.94484440319999
  0
ARC
  5
37B
  8
┌▓È_1
 62
     5
 10
322.07125651040002
 20
770.47080728029994
 30
0.0
 40
52.899999999999999
 50
97.384883246700014
 51
172.61511675329999
  0
LINE
  5
37C
  8
┌▓È_1
 62
     5
 10
278.88549496799999
 20
745.47080728029994
 30
0.0
 11
322.07125651040002
 21
745.47080728029994
 31
0.0
  0
LINE
  5
37D
  8
┌▓È_1
 62
     5
 10
335.57125651040002
 20
787.97080728029994
 30
0.0
 11
308.57125651040002
 21
787.97080728029994
 31
0.0
  0
LINE
  5
37E
  8
┌▓È_1
 62
     5
 10
308.57125651040002
 20
752.97080728029994
 30
0.0
 11
335.57125651040002
 21
752.97080728029994
 31
0.0
  0
LINE
  5
37F
  8
┌▓È_1
 62
     5
 10
335.57125651040002
 20
784.97080728029994
 30
0.0
 11
308.57125651040002
 21
784.97080728029994
 31
0.0
  0
LINE
  5
380
  8
┌▓È_1
 62
     5
 10
308.57125651040002
 20
755.97080728029994
 30
0.0
 11
335.57125651040002
 21
755.97080728029994
 31
0.0
  0
ARC
  5
381
  8
┌▓È_1
 62
     5
 10
335.57125651040002
 20
756.97080728029994
 30
0.0
 40
4.0
 50
270.0
 51
0.0
  0
ARC
  5
382
  8
┌▓È_1
 62
     5
 10
335.57125651040002
 20
783.97080728029994
 30
0.0
 40
1.0
 50
0.0
 51
90.0
  0
LINE
  5
383
  8
┌▓È_1
 62
     5
 10
336.57125651040002
 20
756.97080728029994
 30
0.0
 11
336.57125651040002
 21
783.97080728029994
 31
0.0
  0
ARC
  5
384
  8
┌▓È_1
 62
     5
 10
335.57125651040002
 20
756.97080728029994
 30
0.0
 40
1.0
 50
270.0
 51
0.0
  0
LINE
  5
385
  8
┌▓È_1
 62
     5
 10
336.57125651040002
 20
766.47080728029994
 30
0.0
 11
339.57125651040002
 21
766.47080728029994
 31
0.0
  0
LINE
  5
386
  8
┌▓È_1
 62
     5
 10
336.57125651040002
 20
774.47080728029994
 30
0.0
 11
339.57125651040002
 21
774.47080728029994
 31
0.0
  0
ARC
  5
387
  8
┌▓È_1
 62
     5
 10
322.07125651040002
 20
740.47080728029994
 30
0.0
 40
5.0
 50
0.0
 51
90.0
  0
ARC
  5
388
  8
┌▓È_1
 62
     5
 10
368.89387640860002
 20
760.36871512729999
 30
0.0
 40
1.0
 50
167.8249220902
 51
262.61511675330001
  0
ARC
  5
389
  8
┌▓È_1
 62
     5
 10
364.77138309669999
 20
792.1758571424001
 30
0.0
 40
1.0
 50
112.1546497402
 51
206.94484440319999
  0
LINE
  5
38A
  8
┌▓È_1
 62
     5
 10
292.07125651040002
 20
765.47080728029994
 30
0.0
 11
275.43854267130001
 21
765.47080728029994
 31
0.0
  0
ARC
  5
38B
  8
┌▓È_1
 62
     5
 10
322.07125651040002
 20
770.47080728029994
 30
0.0
 40
49.899999999999999
 50
117.9053602992
 51
166.8644061942
  0
LINE
  5
38C
  8
┌▓È_1
 62
     5
 10
279.74823775559997
 20
747.83958805830002
 30
0.0
 11
277.9735362399
 21
747.11698389000003
 31
0.0
  0
ARC
  5
38D
  8
┌▓È_1
 62
     5
 10
322.07125651040002
 20
770.47080728029994
 30
0.0
 40
50.200000000000003
 50
187.38488324670001
 51
202.1546497402
  0
LINE
  5
38E
  8
┌▓È_1
 62
     5
 10
272.28766004229999
 20
764.01840286800007
 30
0.0
 11
269.61005624820001
 21
763.67136119639986
 31
0.0
  0
LINE
  5
38F
  8
┌▓È_1
 62
     5
 10
303.14044337109999
 20
816.96450915360015
 30
0.0
 11
302.12225222609999
 21
819.46516642570009
 31
0.0
  0
ARC
  5
390
  8
┌▓È_1
 62
     5
 10
279.37112992409999
 20
748.76575741830004
 30
0.0
 40
1.0
 50
292.1546497402
 51
26.944844403200001
  0
LINE
  5
391
  8
┌▓È_1
 62
     5
 10
347.07125651040002
 20
770.47080728029994
 30
0.0
 11
347.07125651040002
 21
727.28504573789985
 31
0.0
  0
LINE
  5
392
  8
┌▓È_1
 62
     5
 10
344.70247573249998
 20
728.1477885255
 30
0.0
 11
345.42507990069998
 21
726.37308700979986
 31
0.0
  0
ARC
  5
393
  8
┌▓È_1
 62
     5
 10
343.77630637250002
 20
727.77068069399991
 30
0.0
 40
1.0
 50
22.154649740100002
 51
116.94484440319999
  0
LINE
  5
394
  8
┌▓È_1
 62
     5
 10
327.07125651040002
 20
740.47080728029994
 30
0.0
 11
327.07125651040002
 21
723.83809344119993
 31
0.0
  0
ARC
  5
395
  8
┌▓È_1
 62
     5
 10
322.07125651040002
 20
770.47080728029994
 30
0.0
 40
49.899999999999999
 50
297.90536029920003
 51
346.8644061942
  0
ARC
  5
396
  8
┌▓È_1
 62
     5
 10
322.07125651040002
 20
770.47080728029994
 30
0.0
 40
52.899999999999999
 50
277.38488324669999
 51
352.61511675330001
  0
ARC
  5
397
  8
┌▓È_1
 62
     5
 10
308.57125651040002
 20
756.97080728029994
 30
0.0
 40
1.0
 50
180.0
 51
270.0
  0
LINE
  5
398
  8
┌▓È_1
 62
     5
 10
299.4400372883
 20
812.79382603519991
 30
0.0
 11
298.7174331201
 21
814.56852755080001
 31
0.0
  0
ARC
  5
399
  8
┌▓È_1
 62
     5
 10
300.36620664840001
 20
813.17093386659997
 30
0.0
 40
1.0
 50
202.1546497402
 51
296.94484440320002
  0
ARC
  5
39A
  8
┌▓È_1
 62
     5
 10
322.07125651040002
 20
770.47080728029994
 30
0.0
 40
46.899999999999999
 50
347.82492209029999
 51
26.944844403200001
  0
ARC
  5
39B
  8
┌▓È_1
 62
     5
 10
322.07125651040002
 20
770.47080728029994
 30
0.0
 40
49.899999999999999
 50
27.905360299200002
 51
76.864406194200001
  0
LINE
  5
39C
  8
┌▓È_1
 62
     5
 10
322.07125651040002
 20
795.47080728029994
 30
0.0
 11
365.25701805289998
 21
795.47080728029994
 31
0.0
  0
LINE
  5
39D
  8
┌▓È_1
 62
     5
 10
352.07125651040002
 20
775.47080728029994
 30
0.0
 11
368.70397034949991
 21
775.47080728029994
 31
0.0
  0
ARC
  5
39E
  8
┌▓È_1
 62
     5
 10
322.07125651040002
 20
770.47080728029994
 30
0.0
 40
52.899999999999999
 50
7.3848832466999994
 51
82.615116753300001
  0
LINE
  5
39F
  8
┌▓È_1
 62
     5
 10
333.16505377239997
 20
817.16489322610005
 30
0.0
 11
333.41134717189999
 21
819.0651726305
 31
0.0
  0
ARC
  5
3A0
  8
┌▓È_1
 62
     5
 10
332.17334866340002
 20
817.29342717850011
 30
0.0
 40
1.0
 50
257.82492209029999
 51
352.61511675330001
  0
ARC
  5
3A1
  8
┌▓È_1
 62
     5
 10
322.07125651040002
 20
800.47080728030005
 30
0.0
 40
5.0
 50
180.0
 51
270.0
  0
ARC
  5
3A2
  8
┌▓È_1
 62
     5
 10
352.07125651040002
 20
770.47080728029994
 30
0.0
 40
5.0
 50
90.0
 51
180.0
  0
LINE
  5
3A3
  8
┌▓È_1
 62
     5
 10
341.00206964979998
 20
723.97710540699995
 30
0.0
 11
342.02026079469999
 21
721.47644813500006
 31
0.0
  0
LINE
  5
3A4
  8
┌▓È_1
 62
     5
 10
328.52366092279999
 20
720.68721081219985
 30
0.0
 11
328.87070259439997
 21
718.00960701809993
 31
0.0
  0
ARC
  5
3A5
  8
┌▓È_1
 62
     5
 10
322.07125651040002
 20
770.47080728029994
 30
0.0
 40
50.200000000000003
 50
262.61511675330001
 51
277.38488324669999
  0
LINE
  5
3A6
  8
┌▓È_1
 62
     5
 10
315.61885209809998
 20
720.68721081219985
 30
0.0
 11
315.2718104265
 21
718.00960701809993
 31
0.0
  0
ARC
  5
3A7
  8
┌▓È_1
 62
     5
 10
322.07125651040002
 20
770.47080728029994
 30
0.0
 40
50.200000000000003
 50
352.61511675330001
 51
7.3848832466999994
  0
LINE
  5
3A8
  8
┌▓È_1
 62
     5
 10
371.85485297849999
 20
764.01840286800007
 30
0.0
 11
374.53245677260003
 21
763.67136119639986
 31
0.0
  0
LINE
  5
3A9
  8
┌▓È_1
 62
     5
 10
364.3942752653
 20
793.10202650240001
 30
0.0
 11
366.16897678089998
 21
793.82463067070012
 31
0.0
  0
ARC
  5
3AA
  8
┌▓È_1
 62
     5
 10
322.07125651040002
 20
770.47080728029994
 30
0.0
 40
50.200000000000003
 50
7.3848832466999994
 51
22.1546497402
  0
LINE
  5
3AB
  8
┌▓È_1
 62
     5
 10
368.5649583837
 20
789.40162041970007
 30
0.0
 11
371.0656156558
 21
790.41981156460008
 31
0.0
  0
LINE
  5
3AC
  8
┌▓È_1
 62
     5
 10
371.85485297849999
 20
776.92321169270008
 30
0.0
 11
374.53245677260003
 21
777.27025336429995
 31
0.0
  0
LINE
  5
3AD
  8
┌▓È_1
 62
     5
 10
317.07125651040002
 20
800.47080728030005
 30
0.0
 11
317.07125651040002
 21
817.10352111940006
 31
0.0
  0
ARC
  5
3AE
  8
┌▓È_1
 62
     5
 10
322.07125651040002
 20
770.47080728029994
 30
0.0
 40
50.200000000000003
 50
82.615116753300001
 51
97.384883246700014
  0
LINE
  5
3AF
  8
┌▓È_1
 62
     5
 10
328.52366092279999
 20
820.25440374839991
 30
0.0
 11
328.87070259439997
 21
822.93200754249995
 31
0.0
  0
LINE
  5
3B0
  8
┌▓È_1
 62
     5
 10
315.61885209809998
 20
820.25440374839991
 30
0.0
 11
315.2718104265
 21
822.93200754249995
 31
0.0
  0
ARC
  5
3B1
  8
┌▓È_1
 62
     5
 10
335.57125651040002
 20
783.97080728029994
 30
0.0
 40
4.0
 50
0.0
 51
90.0
  0
LINE
  5
3B2
  8
┌▓È_1
 62
     5
 10
339.57125651040002
 20
756.97080728029994
 30
0.0
 11
339.57125651040002
 21
783.97080728029994
 31
0.0
  0
ENDBLK
  5
3B3
  8
0
  0
BLOCK
  8
0
  2
*D35
 70
     1
 10
0.0
 20
0.0
 30
0.0
  3
*D35
  1

  0
TEXT
  5
3D0
  8
0
 62
     0
 10
390.68576178550001
 20
669.83792989870005
 30
0.0
 40
7.1966662884000003
  1
24
 50
90.0
  0
LINE
  5
3D1
  8
0
 62
     0
 10
376.53376030750002
 20
662.07126300949994
 30
0.0
 11
395.95576171869999
 21
662.07126300949994
 31
0.0
  0
LINE
  5
3D2
  8
0
 62
     0
 10
341.5712559590001
 20
686.07126300949994
 30
0.0
 11
395.95576171869999
 21
686.07126300949994
 31
0.0
  0
LINE
  5
3D3
  8
0
 62
     0
 10
393.95576171869999
 20
662.07126300949994
 30
0.0
 11
393.95576171869999
 21
682.53792923109995
 31
0.0
  0
LINE
  5
3D4
  8
0
 62
     0
 10
393.95576171869999
 20
662.07126300949994
 30
0.0
 11
393.95576171869999
 21
665.60459678790005
 31
0.0
  0
LINE
  5
3D5
  8
0
 62
     0
 10
393.95576171869999
 20
686.07126300949994
 30
0.0
 11
393.95576171869999
 21
682.53792923109995
 31
0.0
  0
LINE
  5
3D6
  8
0
 62
     0
 10
393.95576171869999
 20
686.07126300949994
 30
0.0
 11
393.95576171869999
 21
665.60459678790005
 31
0.0
  0
LINE
  5
3D7
  8
0
 62
     0
 10
393.95576171869999
 20
686.07126300949994
 30
0.0
 11
393.95576171869999
 21
696.07126300949994
 31
0.0
  0
SOLID
  5
3D8
  8
0
 62
     0
 10
393.95576171869999
 20
686.07126300949994
 30
0.0
 11
392.92048554420001
 21
689.93496626039996
 31
0.0
 12
394.99103789330002
 22
689.93496626039996
 32
0.0
 13
393.95576171869999
 23
688.96904044770008
 33
0.0
  0
LINE
  5
3D9
  8
0
 62
     0
 10
393.95576171869999
 20
662.07126300949994
 30
0.0
 11
393.95576171869999
 21
652.07126300949994
 31
0.0
  0
SOLID
  5
3DA
  8
0
 62
     0
 10
393.95576171869999
 20
662.07126300949994
 30
0.0
 11
394.99103789330002
 21
658.20755975860004
 31
0.0
 12
392.92048554420001
 22
658.20755975860004
 32
0.0
 13
393.95576171869999
 23
659.17348557129992
 33
0.0
  0
ENDBLK
  5
3DB
  8
0
  0
BLOCK
  8
0
  2
*D36
 70
     1
 10
0.0
 20
0.0
 30
0.0
  3
*D36
  1

  0
TEXT
  5
3DF
  8
0
 62
     0
 10
390.68576178550001
 20
650.83792989870005
 30
0.0
 40
7.1966662884000003
  1
14
 50
90.0
  0
LINE
  5
3E0
  8
0
 62
     0
 10
375.53376024400001
 20
648.07126300949994
 30
0.0
 11
395.95576171869999
 21
648.07126300949994
 31
0.0
  0
LINE
  5
3E1
  8
0
 62
     0
 10
376.53376030750002
 20
662.07126300949994
 30
0.0
 11
395.95576171869999
 21
662.07126300949994
 31
0.0
  0
LINE
  5
3E2
  8
0
 62
     0
 10
393.95576171869999
 20
648.07126300949994
 30
0.0
 11
393.95576171869999
 21
648.07126300949994
 31
0.0
  0
LINE
  5
3E3
  8
0
 62
     0
 10
393.95576171869999
 20
648.07126300949994
 30
0.0
 11
393.95576171869999
 21
662.07126300949994
 31
0.0
  0
LINE
  5
3E4
  8
0
 62
     0
 10
393.95576171869999
 20
662.07126300949994
 30
0.0
 11
393.95576171869999
 21
648.07126300949994
 31
0.0
  0
LINE
  5
3E5
  8
0
 62
     0
 10
393.95576171869999
 20
662.07126300949994
 30
0.0
 11
393.95576171869999
 21
662.07126300949994
 31
0.0
  0
LINE
  5
3E6
  8
0
 62
     0
 10
393.95576171869999
 20
662.07126300949994
 30
0.0
 11
393.95576171869999
 21
652.07126300949994
 31
0.0
  0
SOLID
  5
3E7
  8
0
 62
     0
 10
393.95576171869999
 20
662.07126300949994
 30
0.0
 11
394.99103789330002
 21
658.20755975860004
 31
0.0
 12
392.92048554420001
 22
658.20755975860004
 32
0.0
 13
393.95576171869999
 23
659.17348557129992
 33
0.0
  0
LINE
  5
3E8
  8
0
 62
     0
 10
393.95576171869999
 20
648.07126300949994
 30
0.0
 11
393.95576171869999
 21
658.07126300949994
 31
0.0
  0
SOLID
  5
3E9
  8
0
 62
     0
 10
393.95576171869999
 20
648.07126300949994
 30
0.0
 11
392.92048554420001
 21
651.93496626039996
 31
0.0
 12
394.99103789330002
 22
651.93496626039996
 32
0.0
 13
393.95576171869999
 23
650.96904044769985
 33
0.0
  0
ENDBLK
  5
3EA
  8
0
  0
BLOCK
  8
0
  2
*D37
 70
     1
 10
0.0
 20
0.0
 30
0.0
  3
*D37
  1

  0
TEXT
  5
3F1
  8
0
 62
     0
 10
309.49889851590001
 20
762.08923525539979
 30
0.0
 40
7.1966662884000003
  1
%%c105.8
 50
45.0
  0
LINE
  5
3F2
  8
0
 62
     0
 10
359.4772052351999
 20
807.87675600509999
 30
0.0
 11
322.07125642459999
 21
770.47080719450003
 31
0.0
  0
SOLID
  5
3F3
  8
0
 62
     0
 10
359.4772052351999
 20
807.87675600509999
 30
0.0
 11
357.47720526940009
 21
804.41265443249995
 31
0.0
 12
356.01310366259997
 22
805.87675603929995
 32
0.0
 13
357.42816715830003
 23
805.82771792820006
 33
0.0
  0
LINE
  5
3F4
  8
0
 62
     0
 10
284.66530778560002
 20
733.06485855559993
 30
0.0
 11
322.07125642459999
 21
770.47080719450003
 31
0.0
  0
SOLID
  5
3F5
  8
0
 62
     0
 10
284.66530778560002
 20
733.06485855559993
 30
0.0
 11
286.66530775140001
 21
736.52896012819997
 31
0.0
 12
288.12940935829999
 22
735.06485852130004
 32
0.0
 13
286.71434586250001
 23
735.11389663249997
 33
0.0
  0
ENDBLK
  5
3F6
  8
0
  0
BLOCK
  8
0
  2
BALLON11
 70
     0
 10
0.0
 20
0.0
 30
0.0
  3
BALLON11
  1

  0
INSERT
  5
3FB
  8
0
  6
CONTINUOUS
  2
*U77
 10
0.0
 20
0.0
 30
0.0
  0
CIRCLE
  5
3FC
  8
┌▓È_1
 10
188.56125366879999
 20
707.67830361149993
 30
0.0
 40
8.0
  0
LINE
  5
3FD
  8
┌▓È_1
 10
201.89458700220001
 20
707.67830361149993
 30
0.0
 11
196.56125366879999
 21
707.67830361149993
 31
0.0
  0
LINE
  5
3FE
  8
┌▓È_1
 10
249.63549496799999
 20
755.41921157729985
 30
0.0
 11
201.89458700220001
 21
707.67830361149993
 31
0.0
  0
SOLID
  5
3FF
  8
┌▓È_1
 10
249.63549496799999
 20
755.41921157729985
 30
0.0
 11
245.11001156840001
 21
748.6309864778998
 31
0.0
 12
245.11001156840001
 22
750.89372817770004
 32
0.0
 13
245.11001156840001
 23
750.89372817770004
 33
0.0
  0
SOLID
  5
400
  8
┌▓È_1
 10
245.11001156840001
 20
750.89372817770004
 30
0.0
 11
242.84726986859999
 21
750.89372817770004
 31
0.0
 12
249.63549496799999
 22
755.41921157729985
 32
0.0
 13
249.63549496799999
 23
755.41921157729985
 33
0.0
  0
ENDBLK
  5
401
  8
0
  0
BLOCK
  8
0
  2
CLUMP17
 70
     0
 10
0.0
 20
0.0
 30
0.0
  3
CLUMP17
  1

  0
LINE
  5
406
  8
┌▓È_1
 62
     5
 10
269.60875060730001
 20
662.07126300949994
 30
0.0
 11
269.60875056139997
 21
655.87126301319995
 31
0.0
  0
LINE
  5
407
  8
┌▓È_1
 62
     5
 10
304.57125595899998
 20
686.07126300949994
 30
0.0
 11
304.57125578260002
 21
662.07126300949994
 31
0.0
  0
LINE
  5
408
  8
┌▓È_1
  6
STITCH
 10
304.57125595899998
 20
671.07126300949994
 30
0.0
 11
307.5712558189
 21
671.07126300949994
 31
0.0
  0
LINE
  5
409
  8
┌▓È_1
 62
     5
 10
271.87125568250002
 20
662.07126376709994
 30
0.0
 11
271.87125564029998
 21
656.37126299269994
 31
0.0
  0
LINE
  5
40A
  8
┌▓È_1
  6
STITCH
 10
273.07689664280002
 20
656.37126298379997
 30
0.0
 11
275.5775539073
 21
656.37126298379997
 31
0.0
  0
LINE
  5
40B
  8
┌▓È_1
 62
     5
 10
328.52366042170001
 20
656.3712630094999
 30
0.0
 11
328.52366039430001
 21
648.07126300949994
 31
0.0
  0
LINE
  5
40C
  8
┌▓È_1
 62
     5
 10
328.87070211309998
 20
656.3712630094999
 30
0.0
 11
328.87070208569997
 21
648.07126300949994
 31
0.0
  0
LINE
  5
40D
  8
┌▓È_1
 62
     5
 10
328.52366042170001
 20
656.3712630094999
 30
0.0
 11
328.52366039430001
 21
648.07126300949994
 31
0.0
  0
LINE
  5
40E
  8
┌▓È_1
 62
     5
 10
315.27180998749998
 20
662.07126300949994
 30
0.0
 11
315.2718099178
 21
648.07126300949994
 31
0.0
  0
LINE
  5
40F
  8
┌▓È_1
 62
     5
 10
315.61885136389998
 20
662.07126300949994
 30
0.0
 11
315.6188512942
 21
648.07126300949994
 31
0.0
  0
LINE
  5
410
  8
┌▓È_1
 62
     5
 10
342.02026032999999
 20
662.07126300949994
 30
0.0
 11
342.0202602878
 21
656.3712630094999
 31
0.0
  0
LINE
  5
411
  8
┌▓È_1
 62
     5
 10
341.00206916650001
 20
662.07126300949994
 30
0.0
 11
341.00206912430002
 21
656.3712630094999
 31
0.0
  0
LINE
  5
412
  8
┌▓È_1
  6
STITCH
 10
339.57125578260002
 20
662.07126300949994
 30
0.0
 11
339.57125575740002
 21
658.67126300949985
 31
0.0
  0
LINE
  5
413
  8
┌▓È_1
 62
     5
 10
339.5712559590001
 20
686.07126300949994
 30
0.0
 11
339.57125578260002
 21
662.07126300949994
 31
0.0
  0
LINE
  5
414
  8
┌▓È_1
  6
STITCH
 10
336.57125582729998
 20
671.07126300949994
 30
0.0
 11
339.5712559590001
 21
671.07126300949994
 31
0.0
  0
LINE
  5
415
  8
┌▓È_1
  6
STITCH
 10
336.57125593849997
 20
686.07126300949994
 30
0.0
 11
336.57125573690001
 21
658.67126300949985
 31
0.0
  0
LINE
  5
416
  8
┌▓È_1
  6
STITCH
 10
371.8548521985
 20
662.07126302890003
 30
0.0
 11
371.8548521985
 21
648.07126300949994
 31
0.0
  0
LINE
  5
417
  8
┌▓È_1
  6
STITCH
 10
368.55485224589989
 20
662.07126300949994
 30
0.0
 11
368.55485222070001
 21
658.67126300949985
 31
0.0
  0
LINE
  5
418
  8
┌▓È_1
  6
STITCH
 10
368.55485219849999
 20
655.67126300949985
 30
0.0
 11
368.55485219849999
 21
648.07126300949994
 31
0.0
  0
LINE
  5
419
  8
┌▓È_1
 62
     5
 10
374.53376024400001
 20
649.07126300460004
 30
0.0
 11
374.53376030750002
 21
662.07126300949994
 31
0.0
  0
ARC
  5
41A
  8
┌▓È_1
 62
     5
 10
373.53376024400001
 20
649.07126300949994
 30
0.0
 40
1.0
 50
270.0
 51
359.99999971990002
  0
LINE
  5
41B
  8
┌▓È_1
 62
     5
 10
328.52366042170001
 20
656.3712630094999
 30
0.0
 11
342.0202602878
 21
656.3712630094999
 31
0.0
  0
LINE
  5
41C
  8
┌▓È_1
  6
STITCH
 10
307.57125593009999
 20
686.07126300949994
 30
0.0
 11
307.57125572849998
 21
658.67126300949985
 31
0.0
  0
LINE
  5
41D
  8
┌▓È_1
 62
     5
 10
269.60875056139997
 20
655.87126301319995
 30
0.0
 11
269.60875054270002
 21
649.07126301220001
 31
0.0
  0
ARC
  5
41E
  8
┌▓È_1
 62
     5
 10
270.60875054270002
 20
649.07126300949994
 30
0.0
 40
1.0
 50
179.9999998429
 51
270.0
  0
LINE
  5
41F
  8
┌▓È_1
 62
     5
 10
269.60875056510002
 20
656.3712630094999
 30
0.0
 11
273.07689664280002
 21
656.37126298379997
 31
0.0
  0
LINE
  5
420
  8
┌▓È_1
  6
STITCH
 10
275.17125565729998
 20
655.67126300949985
 30
0.0
 11
275.17125563510001
 21
648.07126300949994
 31
0.0
  0
LINE
  5
421
  8
┌▓È_1
  6
STITCH
 10
271.87125564029998
 20
656.37126299269994
 30
0.0
 11
271.87125564029998
 21
648.07126300949994
 31
0.0
  0
LINE
  5
422
  8
┌▓È_1
  6
BORDER
 62
     3
 10
322.07026219390002
 20
671.94762939559985
 30
0.0
 11
322.0702619887
 21
644.06448332750006
 31
0.0
  0
LINE
  5
423
  8
┌▓È_1
 62
     5
 10
328.52366042170001
 20
656.3712630094999
 30
0.0
 11
342.0202602878
 21
656.3712630094999
 31
0.0
  0
LINE
  5
424
  8
┌▓È_1
 62
     5
 10
304.57125595899998
 20
686.07126300949994
 30
0.0
 11
339.5712559590001
 21
686.07126300949994
 31
0.0
  0
LINE
  5
425
  8
┌▓È_1
 62
     5
 10
269.60875060730001
 20
662.07126300949994
 30
0.0
 11
374.53376030750002
 21
662.07126300949994
 31
0.0
  0
LINE
  5
426
  8
┌▓È_1
  6
STITCH
 10
275.17125563510001
 20
658.67126300949985
 30
0.0
 11
368.55485219849999
 21
658.67126300949985
 31
0.0
  0
LINE
  5
427
  8
┌▓È_1
  6
STITCH
 10
275.17125563510001
 20
655.67126300949985
 30
0.0
 11
368.55485219849999
 21
655.67126300949985
 31
0.0
  0
LINE
  5
428
  8
┌▓È_1
 62
     5
 10
270.60875054270002
 20
648.07126300949994
 30
0.0
 11
373.53376024400001
 21
648.07126300949994
 31
0.0
  0
LINE
  5
429
  8
┌▓È_1
  6
STITCH
 10
304.57125578260002
 20
662.07126300949994
 30
0.0
 11
304.57125575740002
 21
658.67126300949985
 31
0.0
  0
LINE
  5
42A
  8
┌▓È_1
  6
STITCH
 10
280.26257235010002
 20
655.67126300949985
 30
0.0
 11
280.2625723219
 21
662.07126300949994
 31
0.0
  0
LINE
  5
42B
  8
┌▓È_1
  6
STITCH
 10
275.17125568249998
 20
662.07126300949994
 30
0.0
 11
275.17125565729998
 21
658.67126300949985
 31
0.0
  0
LINE
  5
42C
  8
┌▓È_1
 62
     5
 10
273.07689668500001
 20
662.07126300949994
 30
0.0
 11
273.07689664280002
 21
656.37126298379997
 31
0.0
  0
LINE
  5
42D
  8
┌▓È_1
  6
STITCH
 10
275.5775539073
 20
656.37126298379997
 30
0.0
 11
275.57755387909998
 21
662.07126300949994
 31
0.0
  0
ENDBLK
  5
42E
  8
0
  0
BLOCK
  8
0
  2
CLUMP18
 70
     0
 10
0.0
 20
0.0
 30
0.0
  3
CLUMP18
  1

  0
LINE
  5
440
  8
┌▓È_1
 62
     5
 10
82.903654623400001
 20
700.47080730160008
 30
0.0
 11
82.903654623400001
 21
770.47080730160008
 31
0.0
  0
LINE
  5
441
  8
┌▓È_1
 62
     5
 10
82.403654623399987
 20
770.47080730160008
 30
0.0
 11
82.403654623399987
 21
700.47080730160008
 31
0.0
  0
LINE
  5
442
  8
┌▓È_1
 62
     5
 10
82.903654623400001
 20
701.22080699589992
 30
0.0
 11
82.903654623400001
 21
770.47080730149992
 31
0.0
  0
LINE
  5
443
  8
┌▓È_1
 62
     5
 10
84.403654623400001
 20
701.22080711830006
 30
0.0
 11
84.403654623400001
 21
770.47080730139999
 31
0.0
  0
LINE
  5
444
  8
┌▓È_1
 62
     5
 10
84.703654623399999
 20
704.47080743699985
 30
0.0
 11
84.703654623399999
 21
770.47080730130006
 31
0.0
  0
LINE
  5
445
  8
┌▓È_1
 62
     5
 10
88.103654623400004
 20
704.47080736210012
 30
0.0
 11
88.103654623400004
 21
770.47080730100004
 31
0.0
  0
LINE
  5
446
  8
┌▓È_1
 62
     5
 10
88.403654623400016
 20
701.22080700679976
 30
0.0
 11
88.403654623400016
 21
770.47080730100004
 31
0.0
  0
LINE
  5
447
  8
┌▓È_1
 62
     5
 10
89.903654623399987
 20
770.47080730089988
 30
0.0
 11
89.903654623399987
 21
701.22080707449993
 31
0.0
  0
LINE
  5
448
  8
┌▓È_1
 62
     5
 10
82.403654623399987
 20
700.47080730160008
 30
0.0
 11
82.903654623400001
 21
700.47080730160008
 31
0.0
  0
ARC
  5
449
  8
┌▓È_1
 62
     5
 10
83.653654623399987
 20
701.22080733559994
 30
0.0
 40
0.75
 50
180.00002594860001
 51
359.99998339569999
  0
ARC
  5
44A
  8
┌▓È_1
 62
     5
 10
84.203654623399984
 20
704.47080733559994
 30
0.0
 40
0.5
 50
293.57817847820002
 51
359.99998324360001
  0
ARC
  5
44B
  8
┌▓È_1
 62
     5
 10
84.903654623399987
 20
710.47080733559994
 30
0.0
 40
0.5
 50
90.0
 51
113.5781784782
  0
ARC
  5
44C
  8
┌▓È_1
 62
     5
 10
89.153654623400001
 20
701.22080733559994
 30
0.0
 40
0.75
 50
180.000025118
 51
359.99998005330002
  0
ARC
  5
44D
  8
┌▓È_1
 62
     5
 10
88.603654623400004
 20
704.47080733559994
 30
0.0
 40
0.5
 50
180.00000331999999
 51
246.42182152180001
  0
LINE
  5
44E
  8
┌▓È_1
 62
     5
 10
84.903654623399987
 20
710.97080733559994
 30
0.0
 11
87.903654623400001
 21
710.97080733559994
 31
0.0
  0
ARC
  5
44F
  8
┌▓È_1
 62
     5
 10
87.903654623400001
 20
710.47080733559994
 30
0.0
 40
0.5
 50
66.421821521799998
 51
90.0
  0
ENDBLK
  5
450
  8
0
  0
BLOCK
  8
0
  2
CLUMP19
 70
     0
 10
0.0
 20
0.0
 30
0.0
  3
CLUMP19
  1

  0
LINE
  5
459
  8
┌▓È_1
 62
     5
 10
82.903654648200003
 20
840.4708073027
 30
0.0
 11
82.903654623400001
 21
770.4708073027
 31
0.0
  0
LINE
  5
45A
  8
┌▓È_1
 62
     5
 10
82.403654623399987
 20
770.47080730280004
 30
0.0
 11
82.403654648199989
 21
840.47080730289986
 31
0.0
  0
LINE
  5
45B
  8
┌▓È_1
 62
     5
 10
82.903654648
 20
839.72080760829999
 30
0.0
 11
82.903654623400001
 21
770.4708073027
 31
0.0
  0
LINE
  5
45C
  8
┌▓È_1
 62
     5
 10
84.403654648000014
 20
839.7208074854999
 30
0.0
 11
84.403654623400001
 21
770.47080730229993
 31
0.0
  0
LINE
  5
45D
  8
┌▓È_1
 62
     5
 10
84.703654646800004
 20
836.47080716659991
 30
0.0
 11
84.703654623399999
 21
770.47080730229993
 31
0.0
  0
LINE
  5
45E
  8
┌▓È_1
 62
     5
 10
88.103654646800024
 20
836.47080724030013
 30
0.0
 11
88.103654623400004
 21
770.47080730139999
 31
0.0
  0
LINE
  5
45F
  8
┌▓È_1
 62
     5
 10
88.403654647999986
 20
839.72080759549988
 30
0.0
 11
88.403654623400016
 21
770.47080730130006
 31
0.0
  0
LINE
  5
460
  8
┌▓È_1
 62
     5
 10
89.903654623399987
 20
770.47080730089988
 30
0.0
 11
89.903654647999986
 21
839.72080752729994
 31
0.0
  0
LINE
  5
461
  8
┌▓È_1
 62
     5
 10
82.403654648199989
 20
840.47080730289986
 30
0.0
 11
82.903654648200003
 21
840.4708073027
 31
0.0
  0
ARC
  5
462
  8
┌▓È_1
 62
     5
 10
83.653654647999986
 20
839.72080726839999
 30
0.0
 40
0.75
 50
0.0000165839
 51
179.99997403110001
  0
ARC
  5
463
  8
┌▓È_1
 62
     5
 10
84.203654646800004
 20
836.47080726820013
 30
0.0
 40
0.5
 50
0.0000167361
 51
66.421821501499991
  0
ARC
  5
464
  8
┌▓È_1
 62
     5
 10
84.903654644699998
 20
830.47080726789977
 30
0.0
 40
0.5
 50
246.42182150150001
 51
269.99999997970002
  0
ARC
  5
465
  8
┌▓È_1
 62
     5
 10
89.153654647999986
 20
839.72080726640002
 30
0.0
 40
0.75
 50
0.0000199264
 51
179.99997486169991
  0
ARC
  5
466
  8
┌▓È_1
 62
     5
 10
88.603654646799995
 20
836.47080726659988
 30
0.0
 40
0.5
 50
113.57817845789999
 51
179.9999966597
  0
LINE
  5
467
  8
┌▓È_1
 62
     5
 10
84.903654644499994
 20
829.97080726789989
 30
0.0
 11
87.903654644500008
 21
829.97080726690001
 31
0.0
  0
ARC
  5
468
  8
┌▓È_1
 62
     5
 10
87.903654644699984
 20
830.4708072668999
 30
0.0
 40
0.5
 50
269.99999997970002
 51
293.57817845789998
  0
ENDBLK
  5
469
  8
0
  0
BLOCK
  8
0
  2
CLUMP20
 70
     0
 10
0.0
 20
0.0
 30
0.0
  3
CLUMP20
  1

  0
ARC
  5
471
  8
┌▓È_1
 62
     5
 10
-239.10747675670001
 20
792.4515938971
 30
0.0
 40
1.0
 50
267.60525126509998
 51
355.0
  0
ARC
  5
472
  8
┌▓È_1
 62
     5
 10
-240.02672656249999
 20
770.4708072917
 30
0.0
 40
21.0
 50
87.605251265100009
 51
92.394748734899991
  0
ARC
  5
473
  8
┌▓È_1
 62
     5
 10
-240.94597636829999
 20
792.4515938971
 30
0.0
 40
1.0
 50
185.0
 51
272.39474873490002
  0
ARC
  5
474
  8
┌▓È_1
 62
     5
 10
-238.1446044985
 20
814.93098741429981
 30
0.0
 40
2.0
 50
355.0
 51
87.5759589277
  0
LINE
  5
475
  8
┌▓È_1
 62
     5
 10
-238.11128205860001
 20
792.36443815439998
 30
0.0
 11
-236.15221510239999
 21
814.75667592879995
 31
0.0
  0
ARC
  5
476
  8
┌▓È_1
 62
     5
 10
-240.02672656249999
 20
770.4708072917
 30
0.0
 40
46.5
 50
87.5759589277
 51
92.424041072299985
  0
ARC
  5
477
  8
┌▓È_1
 62
     5
 10
-241.9088486265
 20
814.93098741429981
 30
0.0
 40
2.0
 50
92.424041072299985
 51
185.0
  0
LINE
  5
478
  8
┌▓È_1
 62
     5
 10
-241.94217106639999
 20
792.36443815439998
 30
0.0
 11
-243.90123802260001
 21
814.75667592879995
 31
0.0
  0
ENDBLK
  5
479
  8
0
  0
BLOCK
  8
0
  2
CLUMP21
 70
     0
 10
0.0
 20
0.0
 30
0.0
  3
CLUMP21
  1

  0
LINE
  5
4A2
  8
┌▓È_1
 62
     5
 10
71.402969390799996
 20
751.47080730770006
 30
0.0
 11
69.902969390799996
 21
751.47080730770006
 31
0.0
  0
LINE
  5
4A3
  8
┌▓È_1
 62
     5
 10
69.902969390799996
 20
789.47080730770006
 30
0.0
 11
71.402969390799996
 21
789.47080730770006
 31
0.0
  0
LINE
  5
4A4
  8
┌▓È_1
 62
     5
 10
24.402969390799999
 20
775.47080730770006
 30
0.0
 11
35.054892565800003
 21
775.47080730770006
 31
0.0
  0
LINE
  5
4A5
  8
┌▓È_1
 62
     5
 10
24.402969390799999
 20
765.47080730770006
 30
0.0
 11
24.402969390799999
 21
775.47080730770006
 31
0.0
  0
LINE
  5
4A6
  8
┌▓È_1
 62
     5
 10
26.497156291500001
 20
771.72080730770006
 30
0.0
 11
34.443074735400003
 21
771.72080730770006
 31
0.0
  0
LINE
  5
4A7
  8
┌▓È_1
 62
     5
 10
26.497156291500001
 20
769.22080730770006
 30
0.0
 11
34.443074735400003
 21
769.22080730770006
 31
0.0
  0
LINE
  5
4A8
  8
┌▓È_1
 62
     5
 10
71.402969390799996
 20
779.07313257470003
 30
0.0
 11
71.402969390799996
 21
787.97080730770006
 31
0.0
  0
LINE
  5
4A9
  8
┌▓È_1
 62
     5
 10
71.402969390799996
 20
752.97080730770006
 30
0.0
 11
71.402969390799996
 21
761.86848204070009
 31
0.0
  0
LINE
  5
4AA
  8
┌▓È_1
 62
     5
 10
65.049717795600003
 20
754.47080730770006
 30
0.0
 11
69.902969390799996
 21
754.47080730770006
 31
0.0
  0
LINE
  5
4AB
  8
┌▓È_1
 62
     5
 10
65.049717795600003
 20
786.47080730770006
 30
0.0
 11
69.902969390799996
 21
786.47080730770006
 31
0.0
  0
CIRCLE
  5
4AC
  8
┌▓È_1
 62
     5
 10
53.902969390800003
 20
770.47080730770006
 30
0.0
 40
19.5
  0
CIRCLE
  5
4AD
  8
┌▓È_1
 62
     5
 10
53.902969390800003
 20
770.47080730770006
 30
0.0
 40
14.5
  0
CIRCLE
  5
4AE
  8
┌▓È_1
 62
     5
 10
53.902969390800003
 20
770.47080730770006
 30
0.0
 40
16.5
  0
CIRCLE
  5
4AF
  8
┌▓È_1
 62
     5
 10
53.902969390800003
 20
770.47080730770006
 30
0.0
 40
16.936459724799999
  0
LINE
  5
4B0
  8
┌▓È_1
 62
     5
 10
34.7029693908
 20
767.06346230019994
 30
0.0
 11
34.7029693908
 21
750.27004673049987
 31
0.0
  0
LINE
  5
4B1
  8
┌▓È_1
 62
     5
 10
49.347200991599991
 20
751.51045461339993
 30
0.0
 11
42.397434040900002
 21
750.39615819690005
 31
0.0
  0
LINE
  5
4B2
  8
┌▓È_1
 62
     5
 10
53.5782194453
 20
750.97351166259978
 30
0.0
 11
41.08071323459999
 21
748.96971405539989
 31
0.0
  0
LINE
  5
4B3
  8
┌▓È_1
 62
     5
 10
35.902969390800003
 20
762.97080730770006
 30
0.0
 11
35.902969390800003
 21
750.27004673049987
 31
0.0
  0
LINE
  5
4B4
  8
┌▓È_1
 62
     5
 10
32.052969390800001
 20
750.27004673049987
 30
0.0
 11
40.814296262600003
 21
750.27004673049987
 31
0.0
  0
ARC
  5
4B5
  8
┌▓È_1
 62
     5
 10
40.814296262600003
 20
760.27004673049987
 30
0.0
 40
10.0
 50
270.0
 51
279.109035393
  0
LINE
  5
4B6
  8
┌▓È_1
 62
     5
 10
71.402969390799996
 20
787.77080730160003
 30
0.0
 11
77.403654623400001
 21
787.77080730160003
 31
0.0
  0
LINE
  5
4B7
  8
┌▓È_1
 62
     5
 10
71.402969390799996
 20
753.17080730420003
 30
0.0
 11
77.403654623400001
 21
753.17080730309988
 31
0.0
  0
LINE
  5
4B8
  8
┌▓È_1
  6
BORDER
 62
     3
 10
53.902969390800003
 20
745.47080730770006
 30
0.0
 11
53.902969390800003
 21
795.47080730770006
 31
0.0
  0
LINE
  5
4B9
  8
┌▓È_1
 62
     5
 10
38.806757437800002
 20
743.3924996211
 30
0.0
 11
41.6108881201
 21
750.27004673049987
 31
0.0
  0
LINE
  5
4BA
  8
┌▓È_1
 62
     5
 10
32.052969390800001
 20
750.27004673049987
 30
0.0
 11
32.052969390800001
 21
743.77004673049987
 31
0.0
  0
LINE
  5
4BB
  8
┌▓È_1
 62
     5
 10
34.7029693908
 20
724.02004673049987
 30
0.0
 11
35.902969390800003
 21
724.02004673049987
 31
0.0
  0
LINE
  5
4BC
  8
┌▓È_1
 62
     5
 10
35.902969390800003
 20
742.77004673049987
 30
0.0
 11
35.902969390800003
 21
724.02004673049987
 31
0.0
  0
LINE
  5
4BD
  8
┌▓È_1
 62
     5
 10
34.7029693908
 20
742.77004673049987
 30
0.0
 11
34.7029693908
 21
724.02004673049987
 31
0.0
  0
ARC
  5
4BE
  8
┌▓È_1
 62
     5
 10
37.880767059699998
 20
743.77004673049987
 30
0.0
 40
1.0
 50
270.0
 51
337.8181725078
  0
LINE
  5
4BF
  8
┌▓È_1
 62
     5
 10
33.052969390800001
 20
742.77004673049987
 30
0.0
 11
37.880767059699998
 21
742.77004673049987
 31
0.0
  0
ARC
  5
4C0
  8
┌▓È_1
 62
     5
 10
33.052969390800001
 20
743.77004673049987
 30
0.0
 40
1.0
 50
180.0
 51
270.0
  0
LINE
  5
4C1
  8
┌▓È_1
 62
     5
 10
24.402969390799999
 20
765.47080730770006
 30
0.0
 11
34.7029693908
 21
765.47080730770006
 31
0.0
  0
LINE
  5
4C2
  8
┌▓È_1
 62
     5
 10
69.902969390799996
 20
751.47080730770006
 30
0.0
 11
69.902969390799996
 21
759.32405890289976
 31
0.0
  0
LINE
  5
4C3
  8
┌▓È_1
 62
     5
 10
69.902969390799996
 20
781.61755571250001
 30
0.0
 11
69.902969390799996
 21
789.47080730770006
 31
0.0
  0
LINE
  5
4C4
  8
┌▓È_1
 62
     5
 10
71.402969390799996
 20
751.47080730770006
 30
0.0
 11
71.402969390799996
 21
761.86848204070009
 31
0.0
  0
LINE
  5
4C5
  8
┌▓È_1
 62
     5
 10
71.402969390799996
 20
779.07313257470003
 30
0.0
 11
71.402969390799996
 21
789.47080730770006
 31
0.0
  0
ENDBLK
  5
4C6
  8
0
  0
BLOCK
  8
0
  2
CLUMP22
 70
     0
 10
0.0
 20
0.0
 30
0.0
  3
CLUMP22
  1

  0
INSERT
  5
4D7
  8
0
  6
CONTINUOUS
  2
*U96
 10
0.0
 20
0.0
 30
0.0
  0
LINE
  5
4D8
  8
┌▓È_1
 62
     5
 10
-16.5558695484
 20
608.34975988089991
 30
0.0
 11
-7.8956155105999981
 21
613.34975988089991
 31
0.0
  0
LINE
  5
4D9
  8
┌▓È_1
 62
     5
 10
-7.8956155105999981
 20
603.34975988089991
 30
0.0
 11
-16.5558695484
 21
608.34975988089991
 31
0.0
  0
LINE
  5
4DA
  8
┌▓È_1
 62
     5
 10
-7.8956155105999981
 20
603.34975988089991
 30
0.0
 11
-7.8956155105999981
 21
613.34975988089991
 31
0.0
  0
ENDBLK
  5
4DB
  8
0
  0
BLOCK
  8
0
  2
*D45
 70
     1
 10
0.0
 20
0.0
 30
0.0
  3
*D45
  1

  0
TEXT
  5
4DE
  8
0
 62
     0
 10
-78.017362491100002
 20
498.88917367459987
 30
0.0
 40
7.1966662884000003
  1

 50
90.0
  0
LINE
  5
4DF
  8
0
 62
     0
 10
-140.0092734703
 20
464.79120410870001
 30
0.0
 11
-72.747362557900004
 21
464.79120410870001
 31
0.0
  0
LINE
  5
4E0
  8
0
 62
     0
 10
-140.0092735238
 20
525.36748200419993
 30
0.0
 11
-72.747362557900004
 21
525.36748200419993
 31
0.0
  0
LINE
  5
4E1
  8
0
 62
     0
 10
-74.747362557900004
 20
464.79120410870001
 30
0.0
 11
-74.747362557900004
 21
503.12250678539988
 31
0.0
  0
LINE
  5
4E2
  8
0
 62
     0
 10
-74.747362557900004
 20
464.79120410870001
 30
0.0
 11
-74.747362557900004
 21
494.65584056379998
 31
0.0
  0
LINE
  5
4E3
  8
0
 62
     0
 10
-74.747362557900004
 20
525.36748200419993
 30
0.0
 11
-74.747362557900004
 21
503.12250678539988
 31
0.0
  0
LINE
  5
4E4
  8
0
 62
     0
 10
-74.747362557900004
 20
525.36748200419993
 30
0.0
 11
-74.747362557900004
 21
494.65584056379998
 31
0.0
  0
LINE
  5
4E5
  8
0
 62
     0
 10
-74.747362557900004
 20
525.36748200419993
 30
0.0
 11
-74.747362557900004
 21
515.36748200419993
 31
0.0
  0
SOLID
  5
4E6
  8
0
 62
     0
 10
-74.747362557900004
 20
525.36748200419993
 30
0.0
 11
-73.712086383300004
 21
521.50377875330003
 31
0.0
 12
-75.782638732400002
 22
521.50377875330003
 32
0.0
 13
-74.747362557900004
 23
522.46970456600002
 33
0.0
  0
LINE
  5
4E7
  8
0
 62
     0
 10
-74.747362557900004
 20
464.79120410870001
 30
0.0
 11
-74.747362557900004
 21
474.7912041086999
 31
0.0
  0
SOLID
  5
4E8
  8
0
 62
     0
 10
-74.747362557900004
 20
464.79120410870001
 30
0.0
 11
-75.782638732400002
 21
468.65490735959992
 31
0.0
 12
-73.712086383300004
 22
468.65490735959992
 32
0.0
 13
-74.747362557900004
 23
467.68898154689998
 33
0.0
  0
ENDBLK
  5
4E9
  8
0
  0
BLOCK
  8
0
  2
CLUMP23
 70
     0
 10
0.0
 20
0.0
 30
0.0
  3
CLUMP23
  1

  0
LINE
  5
501
  8
┌▓È_1
 10
257.19286458330009
 20
512.23734375000004
 30
0.0
 11
257.19286458330009
 21
522.23734375000004
 31
0.0
  0
LINE
  5
502
  8
┌▓È_1
 10
139.19286458330001
 20
512.23734375000004
 30
0.0
 11
139.19286458330001
 21
522.23734375000004
 31
0.0
  0
LINE
  5
503
  8
┌▓È_1
 10
157.19286458330001
 20
512.23734375000004
 30
0.0
 11
157.19286458330001
 21
522.23734375000004
 31
0.0
  0
LINE
  5
504
  8
┌▓È_1
 10
367.19286458329998
 20
512.23734375000004
 30
0.0
 11
367.19286458329998
 21
522.23734375000004
 31
0.0
  0
LINE
  5
505
  8
┌▓È_1
 10
349.19286458329998
 20
512.23734375000004
 30
0.0
 11
349.19286458329998
 21
522.23734375000004
 31
0.0
  0
LINE
  5
506
  8
┌▓È_1
 10
429.19286458329998
 20
522.23734375000004
 30
0.0
 11
139.19286458330001
 21
522.23734375000004
 31
0.0
  0
ENDBLK
  5
507
  8
0
  0
BLOCK
  8
0
  2
CLUMP24
 70
     0
 10
0.0
 20
0.0
 30
0.0
  3
CLUMP24
  1

  0
LINE
  5
50B
  8
┌▓È_1
 10
257.19286458330009
 20
452.23734374999992
 30
0.0
 11
257.19286458330009
 21
462.23734374999998
 31
0.0
  0
LINE
  5
50C
  8
┌▓È_1
 10
139.19286458330001
 20
452.23734374999992
 30
0.0
 11
139.19286458330001
 21
462.23734374999998
 31
0.0
  0
LINE
  5
50D
  8
┌▓È_1
 10
157.19286458330001
 20
452.23734374999992
 30
0.0
 11
157.19286458330001
 21
462.23734374999998
 31
0.0
  0
LINE
  5
50E
  8
┌▓È_1
 10
367.19286458329998
 20
452.23734374999992
 30
0.0
 11
367.19286458329998
 21
462.23734374999998
 31
0.0
  0
LINE
  5
50F
  8
┌▓È_1
 10
349.19286458329998
 20
452.23734374999992
 30
0.0
 11
349.19286458329998
 21
462.23734374999998
 31
0.0
  0
LINE
  5
510
  8
┌▓È_1
 10
429.19286458329998
 20
462.23734374999998
 30
0.0
 11
139.19286458330001
 21
462.23734374999998
 31
0.0
  0
ENDBLK
  5
511
  8
0
  0
BLOCK
  8
0
  2
CLUMP25
 70
     0
 10
0.0
 20
0.0
 30
0.0
  3
CLUMP25
  1

  0
LINE
  5
518
  8
┌▓È_1
 10
257.19286458330009
 20
442.23734374999998
 30
0.0
 11
257.19286458330009
 21
452.23734374999992
 31
0.0
  0
LINE
  5
519
  8
┌▓È_1
 10
139.19286458330001
 20
442.23734374999998
 30
0.0
 11
139.19286458330001
 21
452.23734374999992
 31
0.0
  0
LINE
  5
51A
  8
┌▓È_1
 10
157.19286458330001
 20
442.23734374999998
 30
0.0
 11
157.19286458330001
 21
452.23734374999992
 31
0.0
  0
LINE
  5
51B
  8
┌▓È_1
 10
367.19286458329998
 20
442.23734374999998
 30
0.0
 11
367.19286458329998
 21
452.23734374999992
 31
0.0
  0
LINE
  5
51C
  8
┌▓È_1
 10
349.19286458329998
 20
442.23734374999998
 30
0.0
 11
349.19286458329998
 21
452.23734374999992
 31
0.0
  0
LINE
  5
51D
  8
┌▓È_1
 10
429.19286458329998
 20
452.23734374999992
 30
0.0
 11
139.19286458330001
 21
452.23734374999992
 31
0.0
  0
ENDBLK
  5
51E
  8
0
  0
BLOCK
  8
0
  2
CLUMP26
 70
     0
 10
0.0
 20
0.0
 30
0.0
  3
CLUMP26
  1

  0
LINE
  5
525
  8
┌▓È_1
 10
257.19286458330009
 20
432.23734374999992
 30
0.0
 11
257.19286458330009
 21
442.23734374999998
 31
0.0
  0
LINE
  5
526
  8
┌▓È_1
 10
139.19286458330001
 20
432.23734374999992
 30
0.0
 11
139.19286458330001
 21
442.23734374999998
 31
0.0
  0
LINE
  5
527
  8
┌▓È_1
 10
157.19286458330001
 20
432.23734374999992
 30
0.0
 11
157.19286458330001
 21
442.23734374999998
 31
0.0
  0
LINE
  5
528
  8
┌▓È_1
 10
367.19286458329998
 20
432.23734374999992
 30
0.0
 11
367.19286458329998
 21
442.23734374999998
 31
0.0
  0
LINE
  5
529
  8
┌▓È_1
 10
349.19286458329998
 20
432.23734374999992
 30
0.0
 11
349.19286458329998
 21
442.23734374999998
 31
0.0
  0
LINE
  5
52A
  8
┌▓È_1
 10
429.19286458329998
 20
442.23734374999998
 30
0.0
 11
139.19286458330001
 21
442.23734374999998
 31
0.0
  0
ENDBLK
  5
52B
  8
0
  0
BLOCK
  8
0
  2
CLUMP27
 70
     0
 10
0.0
 20
0.0
 30
0.0
  3
CLUMP27
  1

  0
LINE
  5
531
  8
┌▓È_1
 10
257.19286458330009
 20
462.23734374999998
 30
0.0
 11
257.19286458330009
 21
472.23734374999992
 31
0.0
  0
LINE
  5
532
  8
┌▓È_1
 10
139.19286458330001
 20
462.23734374999998
 30
0.0
 11
139.19286458330001
 21
472.23734374999992
 31
0.0
  0
LINE
  5
533
  8
┌▓È_1
 10
157.19286458330001
 20
462.23734374999998
 30
0.0
 11
157.19286458330001
 21
472.23734374999992
 31
0.0
  0
LINE
  5
534
  8
┌▓È_1
 10
367.19286458329998
 20
462.23734374999998
 30
0.0
 11
367.19286458329998
 21
472.23734374999992
 31
0.0
  0
LINE
  5
535
  8
┌▓È_1
 10
349.19286458329998
 20
462.23734374999998
 30
0.0
 11
349.19286458329998
 21
472.23734374999992
 31
0.0
  0
LINE
  5
536
  8
┌▓È_1
 10
429.19286458329998
 20
472.23734374999992
 30
0.0
 11
139.19286458330001
 21
472.23734374999992
 31
0.0
  0
ENDBLK
  5
537
  8
0
  0
BLOCK
  8
0
  2
CLUMP28
 70
     0
 10
0.0
 20
0.0
 30
0.0
  3
CLUMP28
  1

  0
LINE
  5
53F
  8
┌▓È_1
 10
257.19286458330009
 20
482.23734374999992
 30
0.0
 11
257.19286458330009
 21
492.23734374999998
 31
0.0
  0
LINE
  5
540
  8
┌▓È_1
 10
139.19286458330001
 20
482.23734374999992
 30
0.0
 11
139.19286458330001
 21
492.23734374999998
 31
0.0
  0
LINE
  5
541
  8
┌▓È_1
 10
157.19286458330001
 20
482.23734374999992
 30
0.0
 11
157.19286458330001
 21
492.23734374999998
 31
0.0
  0
LINE
  5
542
  8
┌▓È_1
 10
367.19286458329998
 20
482.23734374999992
 30
0.0
 11
367.19286458329998
 21
492.23734374999998
 31
0.0
  0
LINE
  5
543
  8
┌▓È_1
 10
349.19286458329998
 20
482.23734374999992
 30
0.0
 11
349.19286458329998
 21
492.23734374999998
 31
0.0
  0
LINE
  5
544
  8
┌▓È_1
 10
429.19286458329998
 20
492.23734374999998
 30
0.0
 11
139.19286458330001
 21
492.23734374999998
 31
0.0
  0
ENDBLK
  5
545
  8
0
  0
BLOCK
  8
0
  2
CLUMP29
 70
     0
 10
0.0
 20
0.0
 30
0.0
  3
CLUMP29
  1

  0
LINE
  5
54D
  8
┌▓È_1
 10
257.19286458330009
 20
472.23734374999992
 30
0.0
 11
257.19286458330009
 21
482.23734374999992
 31
0.0
  0
LINE
  5
54E
  8
┌▓È_1
 10
139.19286458330001
 20
472.23734374999992
 30
0.0
 11
139.19286458330001
 21
482.23734374999992
 31
0.0
  0
LINE
  5
54F
  8
┌▓È_1
 10
157.19286458330001
 20
472.23734374999992
 30
0.0
 11
157.19286458330001
 21
482.23734374999992
 31
0.0
  0
LINE
  5
550
  8
┌▓È_1
 10
367.19286458329998
 20
472.23734374999992
 30
0.0
 11
367.19286458329998
 21
482.23734374999992
 31
0.0
  0
LINE
  5
551
  8
┌▓È_1
 10
349.19286458329998
 20
472.23734374999992
 30
0.0
 11
349.19286458329998
 21
482.23734374999992
 31
0.0
  0
LINE
  5
552
  8
┌▓È_1
 10
429.19286458329998
 20
482.23734374999992
 30
0.0
 11
139.19286458330001
 21
482.23734374999992
 31
0.0
  0
ENDBLK
  5
553
  8
0
  0
BLOCK
  8
0
  2
CLUMP30
 70
     0
 10
0.0
 20
0.0
 30
0.0
  3
CLUMP30
  1

  0
LINE
  5
55F
  8
┌▓È_1
 10
257.19286458330009
 20
502.23734374999992
 30
0.0
 11
257.19286458330009
 21
512.23734375000004
 31
0.0
  0
LINE
  5
560
  8
┌▓È_1
 10
139.19286458330001
 20
502.23734374999992
 30
0.0
 11
139.19286458330001
 21
512.23734375000004
 31
0.0
  0
LINE
  5
561
  8
┌▓È_1
 10
157.19286458330001
 20
502.23734374999992
 30
0.0
 11
157.19286458330001
 21
512.23734375000004
 31
0.0
  0
LINE
  5
562
  8
┌▓È_1
 10
367.19286458329998
 20
502.23734374999992
 30
0.0
 11
367.19286458329998
 21
512.23734375000004
 31
0.0
  0
LINE
  5
563
  8
┌▓È_1
 10
349.19286458329998
 20
502.23734374999992
 30
0.0
 11
349.19286458329998
 21
512.23734375000004
 31
0.0
  0
LINE
  5
564
  8
┌▓È_1
 10
429.19286458329998
 20
512.23734375000004
 30
0.0
 11
139.19286458330001
 21
512.23734375000004
 31
0.0
  0
ENDBLK
  5
565
  8
0
  0
BLOCK
  8
0
  2
CLUMP31
 70
     0
 10
0.0
 20
0.0
 30
0.0
  3
CLUMP31
  1

  0
LINE
  5
56D
  8
┌▓È_1
 10
257.19286458330009
 20
492.23734374999998
 30
0.0
 11
257.19286458330009
 21
502.23734374999992
 31
0.0
  0
LINE
  5
56E
  8
┌▓È_1
 10
139.19286458330001
 20
492.23734374999998
 30
0.0
 11
139.19286458330001
 21
502.23734374999992
 31
0.0
  0
LINE
  5
56F
  8
┌▓È_1
 10
157.19286458330001
 20
492.23734374999998
 30
0.0
 11
157.19286458330001
 21
502.23734374999992
 31
0.0
  0
LINE
  5
570
  8
┌▓È_1
 10
367.19286458329998
 20
492.23734374999998
 30
0.0
 11
367.19286458329998
 21
502.23734374999992
 31
0.0
  0
LINE
  5
571
  8
┌▓È_1
 10
349.19286458329998
 20
492.23734374999998
 30
0.0
 11
349.19286458329998
 21
502.23734374999992
 31
0.0
  0
LINE
  5
572
  8
┌▓È_1
 10
429.19286458329998
 20
502.23734374999992
 30
0.0
 11
139.19286458330001
 21
502.23734374999992
 31
0.0
  0
ENDBLK
  5
573
  8
0
  0
BLOCK
  8
0
  2
CLUMP32
 70
     0
 10
0.0
 20
0.0
 30
0.0
  3
CLUMP32
  1

  0
LINE
  5
578
  8
┌▓È_1
 10
257.19286458330009
 20
422.23734374999992
 30
0.0
 11
257.19286458330009
 21
432.23734374999992
 31
0.0
  0
LINE
  5
579
  8
┌▓È_1
 10
139.19286458330001
 20
422.23734374999992
 30
0.0
 11
139.19286458330001
 21
432.23734374999992
 31
0.0
  0
LINE
  5
57A
  8
┌▓È_1
 10
157.19286458330001
 20
422.23734374999992
 30
0.0
 11
157.19286458330001
 21
432.23734374999992
 31
0.0
  0
LINE
  5
57B
  8
┌▓È_1
 10
367.19286458329998
 20
422.23734374999992
 30
0.0
 11
367.19286458329998
 21
432.23734374999992
 31
0.0
  0
LINE
  5
57C
  8
┌▓È_1
 10
349.19286458329998
 20
422.23734374999992
 30
0.0
 11
349.19286458329998
 21
432.23734374999992
 31
0.0
  0
LINE
  5
57D
  8
┌▓È_1
 10
429.19286458329998
 20
432.23734374999992
 30
0.0
 11
139.19286458330001
 21
432.23734374999992
 31
0.0
  0
ENDBLK
  5
57E
  8
0
  0
BLOCK
  8
0
  2
CLUMP33
 70
     0
 10
0.0
 20
0.0
 30
0.0
  3
CLUMP33
  1

  0
LINE
  5
58D
  8
┌▓È_1
 10
255.83536968109999
 20
351.39068968380002
 30
0.0
 11
257.83536968110002
 21
354.39068968380002
 31
0.0
  0
LINE
  5
58E
  8
┌▓È_1
 10
226.51415755990001
 20
354.39068968380002
 30
0.0
 11
226.51415755990001
 21
350.39068968380002
 31
0.0
  0
LINE
  5
58F
  8
┌▓È_1
 10
273.96821684809998
 20
347.39068968380002
 30
0.0
 11
280.27033497769997
 21
347.39068968380002
 31
0.0
  0
LINE
  5
590
  8
┌▓È_1
 10
239.83536968109999
 20
340.39068968380002
 30
0.0
 11
244.83536968109999
 21
340.39068968380002
 31
0.0
  0
LINE
  5
591
  8
┌▓È_1
 10
239.83536968109999
 20
349.74646914879997
 30
0.0
 11
247.83536968109999
 21
349.74646914879997
 31
0.0
  0
INSERT
  5
592
  8
0
  6
CONTINUOUS
  2
*U146
 10
0.0
 20
0.0
 30
0.0
  0
LINE
  5
593
  8
┌▓È_1
 62
     5
 10
289.19286458329998
 20
866.23734375000015
 30
0.0
 11
289.19286458329998
 21
896.23734375000004
 31
0.0
  0
LINE
  5
594
  8
┌▓È_1
 62
     5
 10
389.19286458329998
 20
866.23734375000015
 30
0.0
 11
389.19286458329998
 21
896.23734375000004
 31
0.0
  0
LINE
  5
595
  8
┌▓È_1
 62
     5
 10
257.19286458330009
 20
866.23734375000015
 30
0.0
 11
257.19286458330009
 21
896.23734375000004
 31
0.0
  0
LINE
  5
596
  8
┌▓È_1
 62
     5
 10
243.67429381119999
 20
877.09892725199995
 30
0.0
 11
253.57429381119999
 21
877.09892725199995
 31
0.0
  0
LINE
  5
597
  8
┌▓È_1
 62
     5
 10
248.6242938112
 20
875.77257874949987
 30
0.0
 11
253.57429381119999
 21
867.19892725199986
 31
0.0
  0
LINE
  5
598
  8
┌▓È_1
 62
     5
 10
241.19286458330001
 20
866.23734375000015
 30
0.0
 11
241.19286458330001
 21
896.23734375000004
 31
0.0
  0
LINE
  5
599
  8
┌▓È_1
 62
     5
 10
409.19286458329998
 20
866.23734375000015
 30
0.0
 11
409.19286458329998
 21
896.23734375000004
 31
0.0
  0
LINE
  5
59A
  8
┌▓È_1
 62
     5
 10
241.19286458330001
 20
886.23734375000004
 30
0.0
 11
429.19286458329998
 21
886.23734375000004
 31
0.0
  0
LINE
  5
59B
  8
┌▓È_1
 62
     5
 10
241.19286458330001
 20
876.23734375000004
 30
0.0
 11
429.19286458329998
 21
876.23734375000004
 31
0.0
  0
LINE
  5
59C
  8
┌▓È_1
 62
     5
 10
241.19286458330001
 20
866.23734375000015
 30
0.0
 11
429.19286458329998
 21
866.23734375000015
 31
0.0
  0
INSERT
  5
59D
  8
0
  6
CONTINUOUS
  2
*U147
 10
0.0
 20
0.0
 30
0.0
  0
LINE
  5
59E
  8
┌▓È_1
 62
     5
 10
-370.80713541670002
 20
336.23734374999998
 30
0.0
 11
-370.80713541670002
 21
896.23734375000004
 31
0.0
  0
LINE
  5
59F
  8
┌▓È_1
 62
     5
 10
-370.80713541670002
 20
336.23734374999998
 30
0.0
 11
429.19286458329998
 21
336.23734374999998
 31
0.0
  0
LINE
  5
5A0
  8
┌▓È_1
 62
     5
 10
429.19286458329998
 20
896.23734375000004
 30
0.0
 11
-370.80713541670002
 21
896.23734375000004
 31
0.0
  0
LINE
  5
5A1
  8
┌▓È_1
 62
     5
 10
429.19286458329998
 20
336.23734374999998
 30
0.0
 11
429.19286458329998
 21
896.23734375000004
 31
0.0
  0
LINE
  5
5A2
  8
┌▓È_1
 10
239.83536968109999
 20
349.10224861389997
 30
0.0
 11
239.83536968109999
 21
349.74646914879997
 31
0.0
  0
LINE
  5
5A3
  8
┌▓È_1
 10
215.21194993680001
 20
350.39068968380002
 30
0.0
 11
215.21194993680001
 21
347.39068968380002
 31
0.0
  0
LINE
  5
5A4
  8
┌▓È_1
 62
     5
 10
248.6242938112
 20
885.67257874949985
 30
0.0
 11
253.57429381119999
 21
877.09892725199995
 31
0.0
  0
LINE
  5
5A5
  8
┌▓È_1
 62
     5
 10
248.6242938112
 20
875.77257874949987
 30
0.0
 11
243.67429381119999
 21
867.19892725199986
 31
0.0
  0
INSERT
  5
5A6
  8
0
  6
CONTINUOUS
  2
*U148
 10
0.0
 20
0.0
 30
0.0
  0
LINE
  5
5A7
  8
┌▓È_1
  6
DOT
 10
-380.7671354167
 20
327.77734375
 30
0.0
 11
-380.7671354167
 21
904.69734374999996
 31
0.0
  0
LINE
  5
5A8
  8
┌▓È_1
  6
DOT
 10
439.15286458330002
 20
327.77734375
 30
0.0
 11
439.15286458330002
 21
904.69734374999996
 31
0.0
  0
LINE
  5
5A9
  8
┌▓È_1
  6
DOT
 10
-380.7671354167
 20
327.77734375
 30
0.0
 11
439.15286458330002
 21
327.77734375
 31
0.0
  0
LINE
  5
5AA
  8
┌▓È_1
 10
222.51415755990001
 20
344.39068968379991
 30
0.0
 11
222.51415755990001
 21
347.39068968380002
 31
0.0
  0
LINE
  5
5AB
  8
┌▓È_1
  6
DOT
 10
439.15286458330002
 20
904.69734374999996
 30
0.0
 11
-380.7671354167
 21
904.69734374999996
 31
0.0
  0
LINE
  5
5AC
  8
┌▓È_1
 10
217.51415755990001
 20
347.39068968380002
 30
0.0
 11
217.51415755990001
 21
344.39068968379991
 31
0.0
  0
LINE
  5
5AD
  8
┌▓È_1
 10
231.51415755990001
 20
351.39068968380002
 30
0.0
 11
234.51415755990001
 21
354.39068968380002
 31
0.0
  0
LINE
  5
5AE
  8
┌▓È_1
 10
268.79300164440002
 20
345.7906896838
 30
0.0
 11
268.32366831100001
 21
347.39068968380002
 31
0.0
  0
LINE
  5
5AF
  8
┌▓È_1
 10
222.51415755990001
 20
350.39068968380002
 30
0.0
 11
222.51415755990001
 21
351.39068968380002
 31
0.0
  0
LINE
  5
5B0
  8
┌▓È_1
 10
253.56080838529999
 20
344.69242726580001
 30
0.0
 11
253.2046042657
 21
344.3436709774
 31
0.0
  0
LINE
  5
5B1
  8
┌▓È_1
 10
255.83536968109999
 20
351.39068968380002
 30
0.0
 11
257.83536968110002
 21
354.39068968380002
 31
0.0
  0
LINE
  5
5B2
  8
┌▓È_1
 10
280.27033497769997
 20
345.7906896838
 30
0.0
 11
280.27033497769997
 21
342.19068968379997
 31
0.0
  0
LINE
  5
5B3
  8
┌▓È_1
 10
257.83536968110002
 20
343.39068968380002
 30
0.0
 11
257.83536968110002
 21
340.39068968380002
 31
0.0
  0
LINE
  5
5B4
  8
┌▓È_1
 10
272.93226368979998
 20
350.99068968379999
 30
0.0
 11
280.27033497769997
 21
350.99068968379999
 31
0.0
  0
LINE
  5
5B5
  8
┌▓È_1
 10
272.93226368979998
 20
350.99068968379999
 30
0.0
 11
272.63947518930001
 21
352.00814746470002
 31
0.0
  0
LINE
  5
5B6
  8
┌▓È_1
 10
257.83536968110002
 20
354.39068968380002
 30
0.0
 11
239.83536968109999
 21
354.39068968380002
 31
0.0
  0
INSERT
  5
5B7
  8
0
  6
CONTINUOUS
  2
*U149
 10
0.0
 20
0.0
 30
0.0
  0
LINE
  5
5B8
  8
┌▓È_1
 10
270.67033497770001
 20
339.39068968380002
 30
0.0
 11
269.8490016444
 21
342.19068968379997
 31
0.0
  0
LINE
  5
5B9
  8
┌▓È_1
 10
223.51415755990001
 20
343.39068968380002
 30
0.0
 11
217.51415755990001
 21
343.39068968380002
 31
0.0
  0
LINE
  5
5BA
  8
┌▓È_1
 10
239.83536968109999
 20
350.7906896838
 30
0.0
 11
249.83536968109999
 21
350.7906896838
 31
0.0
  0
LINE
  5
5BB
  8
┌▓È_1
 10
266.96469960669998
 20
393.63734375000001
 30
0.0
 11
276.5646996067
 21
396.03734374999999
 31
0.0
  0
CIRCLE
  5
5BC
  8
┌▓È_1
 10
255.99286458329999
 20
391.23734374999998
 30
0.0
 40
4.7999999999999989
  0
INSERT
  5
5BD
  8
0
  6
CONTINUOUS
  2
*U150
 10
0.0
 20
0.0
 30
0.0
  0
LINE
  5
5BE
  8
┌▓È_1
 10
222.51415755990001
 20
347.39068968380002
 30
0.0
 11
226.51415755990001
 21
347.39068968380002
 31
0.0
  0
LINE
  5
5BF
  8
┌▓È_1
 10
262.27033497769997
 20
347.39068968380002
 30
0.0
 11
268.32366831100001
 21
347.39068968380002
 31
0.0
  0
LINE
  5
5C0
  8
┌▓È_1
 10
234.51415755990001
 20
350.39068968380002
 30
0.0
 11
231.51415755990001
 21
350.39068968380002
 31
0.0
  0
LINE
  5
5C1
  8
┌▓È_1
 10
231.51415755990001
 20
350.39068968380002
 30
0.0
 11
231.51415755990001
 21
351.39068968380002
 31
0.0
  0
LINE
  5
5C2
  8
┌▓È_1
 10
262.27033497769997
 20
350.99068968379999
 30
0.0
 11
267.26766831100002
 21
350.99068968379999
 31
0.0
  0
LINE
  5
5C3
  8
┌▓È_1
 10
272.63947518930001
 20
352.00814746470002
 30
0.0
 11
274.27033497769997
 21
354.39068968380002
 31
0.0
  0
LINE
  5
5C4
  8
┌▓È_1
 10
239.83536968109999
 20
340.39068968380002
 30
0.0
 11
239.83536968109999
 21
343.39068968380002
 31
0.0
  0
LINE
  5
5C5
  8
┌▓È_1
 10
289.19286458329998
 20
402.23734374999992
 30
0.0
 11
289.19286458329998
 21
336.23734374999998
 31
0.0
  0
INSERT
  5
5C6
  8
0
  6
CONTINUOUS
  2
*U151
 10
0.0
 20
0.0
 30
0.0
  0
INSERT
  5
5C7
  8
0
  6
CONTINUOUS
  2
*U152
 10
0.0
 20
0.0
 30
0.0
  0
INSERT
  5
5C8
  8
0
  6
CONTINUOUS
  2
*U153
 10
0.0
 20
0.0
 30
0.0
  0
LINE
  5
5C9
  8
┌▓È_1
 62
     5
 10
243.67429381119999
 20
867.19892725199986
 30
0.0
 11
253.57429381119999
 21
867.19892725199986
 31
0.0
  0
LINE
  5
5CA
  8
┌▓È_1
 10
215.21194993680001
 20
347.39068968380002
 30
0.0
 11
217.21194993680001
 21
347.39068968380002
 31
0.0
  0
ARC
  5
5CB
  8
┌▓È_1
 10
244.83536968109999
 20
351.39068968380002
 30
0.0
 40
11.0
 50
322.48761197969998
 51
0.0
  0
LINE
  5
5CC
  8
┌▓È_1
 10
217.51415755990001
 20
340.39068968380002
 30
0.0
 11
225.51415755990001
 21
340.39068968380002
 31
0.0
  0
LINE
  5
5CD
  8
┌▓È_1
 10
262.27033497769997
 20
342.19068968379997
 30
0.0
 11
269.8490016444
 21
342.19068968379997
 31
0.0
  0
ARC
  5
5CE
  8
┌▓È_1
 10
223.51415755990001
 20
346.39068968380002
 30
0.0
 40
3.0
 50
270.0
 51
0.0
  0
LINE
  5
5CF
  8
┌▓È_1
 10
262.27033497769997
 20
345.7906896838
 30
0.0
 11
262.27033497769997
 21
342.19068968379997
 31
0.0
  0
LINE
  5
5D0
  8
┌▓È_1
 10
217.51415755990001
 20
344.39068968379991
 30
0.0
 11
222.51415755990001
 21
344.39068968379991
 31
0.0
  0
LINE
  5
5D1
  8
┌▓È_1
 10
248.90799466449999
 20
347.35254787360009
 30
0.0
 11
248.42680305190001
 21
346.82107115240001
 31
0.0
  0
LINE
  5
5D2
  8
┌▓È_1
 10
276.27033497769997
 20
339.39068968380002
 30
0.0
 11
270.67033497770001
 21
339.39068968380002
 31
0.0
  0
LINE
  5
5D3
  8
┌▓È_1
 10
226.51415755990001
 20
347.39068968380002
 30
0.0
 11
226.51415755990001
 21
346.39068968380002
 31
0.0
  0
LINE
  5
5D4
  8
┌▓È_1
 10
429.19286458329998
 20
402.23734374999992
 30
0.0
 11
139.19286458330001
 21
402.23734374999992
 31
0.0
  0
LINE
  5
5D5
  8
┌▓È_1
 10
276.5646996067
 20
396.03734374999999
 30
0.0
 11
276.5646996067
 21
386.43734375000003
 31
0.0
  0
LINE
  5
5D6
  8
┌▓È_1
 62
     5
 10
248.6242938112
 20
885.67257874949985
 30
0.0
 11
243.67429381119999
 21
877.09892725199995
 31
0.0
  0
LINE
  5
5D7
  8
┌▓È_1
 10
234.51415755990001
 20
354.39068968380002
 30
0.0
 11
226.51415755990001
 21
354.39068968380002
 31
0.0
  0
LINE
  5
5D8
  8
┌▓È_1
 10
231.51415755990001
 20
346.39068968380002
 30
0.0
 11
231.51415755990001
 21
347.39068968380002
 31
0.0
  0
LINE
  5
5D9
  8
┌▓È_1
 10
262.27033497769997
 20
350.99068968379999
 30
0.0
 11
262.27033497769997
 21
347.39068968380002
 31
0.0
  0
LINE
  5
5DA
  8
┌▓È_1
 10
226.51415755990001
 20
350.39068968380002
 30
0.0
 11
222.51415755990001
 21
350.39068968380002
 31
0.0
  0
LINE
  5
5DB
  8
┌▓È_1
 10
225.51415755990001
 20
354.39068968380002
 30
0.0
 11
217.51415755990001
 21
354.39068968380002
 31
0.0
  0
LINE
  5
5DC
  8
┌▓È_1
 10
222.51415755990001
 20
351.39068968380002
 30
0.0
 11
225.51415755990001
 21
354.39068968380002
 31
0.0
  0
LINE
  5
5DD
  8
┌▓È_1
 10
217.51415755990001
 20
354.39068968380002
 30
0.0
 11
217.51415755990001
 21
350.39068968380002
 31
0.0
  0
LINE
  5
5DE
  8
┌▓È_1
 10
275.46459363230002
 20
342.19068968379997
 30
0.0
 11
280.27033497769997
 21
342.19068968379997
 31
0.0
  0
LINE
  5
5DF
  8
┌▓È_1
 10
267.26766831100002
 20
350.99068968379999
 30
0.0
 11
266.27033497769997
 21
354.39068968380002
 31
0.0
  0
LINE
  5
5E0
  8
┌▓È_1
 10
262.27033497769997
 20
345.7906896838
 30
0.0
 11
268.79300164440002
 21
345.7906896838
 31
0.0
  0
LINE
  5
5E1
  8
┌▓È_1
 10
274.42864047400002
 20
345.7906896838
 30
0.0
 11
273.96821684809998
 21
347.39068968380002
 31
0.0
  0
ARC
  5
5E2
  8
┌▓È_1
 10
242.2353696811
 20
350.99068968379999
 30
0.0
 40
7.5999999999999988
 50
270.0
 51
298.08590481520002
  0
INSERT
  5
5E3
  8
0
  6
CONTINUOUS
  2
*U154
 10
0.0
 20
0.0
 30
0.0
  0
LINE
  5
5E4
  8
┌▓È_1
 10
144.19286458330001
 20
391.23734374999998
 30
0.0
 11
184.19286458330001
 21
391.23734374999998
 31
0.0
  0
LINE
  5
5E5
  8
┌▓È_1
 10
189.19286458330001
 20
402.23734374999992
 30
0.0
 11
189.19286458330001
 21
380.23734374999998
 31
0.0
  0
LINE
  5
5E6
  8
┌▓È_1
 10
139.19286458330001
 20
380.23734374999998
 30
0.0
 11
429.19286458329998
 21
380.23734374999998
 31
0.0
  0
LINE
  5
5E7
  8
┌▓È_1
 10
239.19286458330001
 20
402.23734374999992
 30
0.0
 11
239.19286458330001
 21
380.23734374999998
 31
0.0
  0
LINE
  5
5E8
  8
┌▓È_1
  6
BORDER
 10
255.99286458329999
 20
398.43734375000003
 30
0.0
 11
255.99286458329999
 21
384.03734374999999
 31
0.0
  0
LINE
  5
5E9
  8
┌▓È_1
  6
BORDER
 10
255.99286458329999
 20
398.43734375000003
 30
0.0
 11
255.99286458329999
 21
384.03734374999999
 31
0.0
  0
LINE
  5
5EA
  8
┌▓È_1
 10
280.27033497769997
 20
350.99068968379999
 30
0.0
 11
280.27033497769997
 21
347.39068968380002
 31
0.0
  0
LINE
  5
5EB
  8
┌▓È_1
 10
194.19286458330001
 20
391.23734374999998
 30
0.0
 11
234.19286458330001
 21
391.23734374999998
 31
0.0
  0
INSERT
  5
5EC
  8
0
  6
CONTINUOUS
  2
*U155
 10
0.0
 20
0.0
 30
0.0
  0
CIRCLE
  5
5ED
  8
┌▓È_1
 10
255.99286458329999
 20
391.23734374999998
 30
0.0
 40
4.7999999999999989
  0
LINE
  5
5EE
  8
┌▓È_1
 10
266.96469960669998
 20
393.63734375000001
 30
0.0
 11
276.5646996067
 21
396.03734374999999
 31
0.0
  0
INSERT
  5
5EF
  8
0
  6
CONTINUOUS
  2
*U156
 10
0.0
 20
0.0
 30
0.0
  0
CIRCLE
  5
5F0
  8
┌▓È_1
 10
255.99286458329999
 20
391.23734374999998
 30
0.0
 40
2.399999999999999
  0
LINE
  5
5F1
  8
┌▓È_1
 10
276.27033497769997
 20
339.39068968380002
 30
0.0
 11
275.46459363230002
 21
342.19068968379997
 31
0.0
  0
LINE
  5
5F2
  8
┌▓È_1
 10
274.42864047400002
 20
345.7906896838
 30
0.0
 11
280.27033497769997
 21
345.7906896838
 31
0.0
  0
LINE
  5
5F3
  8
┌▓È_1
 10
239.83536968109999
 20
343.39068968380002
 30
0.0
 11
242.2353696811
 21
343.39068968380002
 31
0.0
  0
LINE
  5
5F4
  8
┌▓È_1
 10
266.27033497769997
 20
354.39068968380002
 30
0.0
 11
274.27033497769997
 21
354.39068968380002
 31
0.0
  0
LINE
  5
5F5
  8
┌▓È_1
 10
217.51415755990001
 20
350.39068968380002
 30
0.0
 11
215.21194993680001
 21
350.39068968380002
 31
0.0
  0
LINE
  5
5F6
  8
┌▓È_1
 10
239.83536968109999
 20
343.39068968380002
 30
0.0
 11
239.83536968109999
 21
340.39068968380002
 31
0.0
  0
LINE
  5
5F7
  8
┌▓È_1
 10
217.51415755990001
 20
347.39068968380002
 30
0.0
 11
217.21194993680001
 21
347.39068968380002
 31
0.0
  0
LINE
  5
5F8
  8
┌▓È_1
 10
217.51415755990001
 20
343.39068968380002
 30
0.0
 11
217.51415755990001
 21
340.39068968380002
 31
0.0
  0
ARC
  5
5F9
  8
┌▓È_1
 10
242.2353696811
 20
350.99068968379999
 30
0.0
 40
7.5999999999999988
 50
331.39928138329998
 51
358.49204224580001
  0
LINE
  5
5FA
  8
┌▓È_1
 10
231.51415755990001
 20
347.39068968380002
 30
0.0
 11
234.51415755990001
 21
347.39068968380002
 31
0.0
  0
ARC
  5
5FB
  8
┌▓È_1
 10
244.83536968109999
 20
351.39068968380002
 30
0.0
 40
11.0
 50
270.0
 51
302.54495885400001
  0
LINE
  5
5FC
  8
┌▓È_1
 10
266.96469960669998
 20
388.83734375
 30
0.0
 11
276.5646996067
 21
386.43734375000003
 31
0.0
  0
LINE
  5
5FD
  8
┌▓È_1
 10
266.96469960669998
 20
393.63734375000001
 30
0.0
 11
266.96469960669998
 21
388.83734375
 31
0.0
  0
LINE
  5
5FE
  8
┌▓È_1
 10
276.5646996067
 20
396.03734374999999
 30
0.0
 11
276.5646996067
 21
386.43734375000003
 31
0.0
  0
LINE
  5
5FF
  8
┌▓È_1
 10
247.83536968109999
 20
349.74646914879997
 30
0.0
 11
246.70399883120001
 21
348.61509829890002
 31
0.0
  0
LINE
  5
600
  8
┌▓È_1
  6
BORDER
 10
248.7928645833
 20
391.23734374999998
 30
0.0
 11
279.59286458330001
 21
391.23734374999998
 31
0.0
  0
CIRCLE
  5
601
  8
┌▓È_1
 10
255.99286458329999
 20
391.23734374999998
 30
0.0
 40
2.399999999999999
  0
POLYLINE
  8
┌▓È_1
  5
84A
  66
     1
 10
0.000000
 20
0.000000
 30
0.000000
  70
     8
  0
VERTEX
  8
┌▓È_1
  5
84B
 10
253.205
 20
344.344
 30
0.000000
  70
    32
  0
VERTEX
  8
┌▓È_1
  5
84C
 10
253.240
 20
344.334
 30
0.000000
  70
    32
  0
VERTEX
  8
┌▓È_1
  5
84D
 10
253.275
 20
344.324
 30
0.000000
  70
    32
  0
VERTEX
  8
┌▓È_1
  5
84E
 10
253.310
 20
344.314
 30
0.000000
  70
    32
  0
VERTEX
  8
┌▓È_1
  5
84F
 10
253.345
 20
344.304
 30
0.000000
  70
    32
  0
VERTEX
  8
┌▓È_1
  5
850
 10
253.380
 20
344.295
 30
0.000000
  70
    32
  0
VERTEX
  8
┌▓È_1
  5
851
 10
253.415
 20
344.285
 30
0.000000
  70
    32
  0
VERTEX
  8
┌▓È_1
  5
852
 10
253.450
 20
344.275
 30
0.000000
  70
    32
  0
VERTEX
  8
┌▓È_1
  5
853
 10
253.485
 20
344.266
 30
0.000000
  70
    32
  0
VERTEX
  8
┌▓È_1
  5
854
 10
253.521
 20
344.256
 30
0.000000
  70
    32
  0
VERTEX
  8
┌▓È_1
  5
855
 10
253.556
 20
344.247
 30
0.000000
  70
    32
  0
VERTEX
  8
┌▓È_1
  5
856
 10
253.591
 20
344.238
 30
0.000000
  70
    32
  0
VERTEX
  8
┌▓È_1
  5
857
 10
253.626
 20
344.228
 30
0.000000
  70
    32
  0
VERTEX
  8
┌▓È_1
  5
858
 10
253.662
 20
344.219
 30
0.000000
  70
    32
  0
VERTEX
  8
┌▓È_1
  5
859
 10
253.697
 20
344.210
 30
0.000000
  70
    32
  0
VERTEX
  8
┌▓È_1
  5
85A
 10
253.733
 20
344.201
 30
0.000000
  70
    32
  0
VERTEX
  8
┌▓È_1
  5
85B
 10
253.768
 20
344.192
 30
0.000000
  70
    32
  0
VERTEX
  8
┌▓È_1
  5
85C
 10
253.804
 20
344.183
 30
0.000000
  70
    32
  0
VERTEX
  8
┌▓È_1
  5
85D
 10
253.839
 20
344.174
 30
0.000000
  70
    32
  0
VERTEX
  8
┌▓È_1
  5
85E
 10
253.875
 20
344.165
 30
0.000000
  70
    32
  0
VERTEX
  8
┌▓È_1
  5
85F
 10
253.910
 20
344.156
 30
0.000000
  70
    32
  0
VERTEX
  8
┌▓È_1
  5
860
 10
253.946
 20
344.147
 30
0.000000
  70
    32
  0
VERTEX
  8
┌▓È_1
  5
861
 10
253.982
 20
344.138
 30
0.000000
  70
    32
  0
VERTEX
  8
┌▓È_1
  5
862
 10
254.017
 20
344.129
 30
0.000000
  70
    32
  0
VERTEX
  8
┌▓È_1
  5
863
 10
254.053
 20
344.121
 30
0.000000
  70
    32
  0
VERTEX
  8
┌▓È_1
  5
864
 10
254.089
 20
344.112
 30
0.000000
  70
    32
  0
VERTEX
  8
┌▓È_1
  5
865
 10
254.125
 20
344.103
 30
0.000000
  70
    32
  0
VERTEX
  8
┌▓È_1
  5
866
 10
254.160
 20
344.095
 30
0.000000
  70
    32
  0
VERTEX
  8
┌▓È_1
  5
867
 10
254.196
 20
344.086
 30
0.000000
  70
    32
  0
VERTEX
  8
┌▓È_1
  5
868
 10
254.232
 20
344.078
 30
0.000000
  70
    32
  0
VERTEX
  8
┌▓È_1
  5
869
 10
254.268
 20
344.069
 30
0.000000
  70
    32
  0
VERTEX
  8
┌▓È_1
  5
86A
 10
254.304
 20
344.061
 30
0.000000
  70
    32
  0
VERTEX
  8
┌▓È_1
  5
86B
 10
254.340
 20
344.053
 30
0.000000
  70
    32
  0
VERTEX
  8
┌▓È_1
  5
86C
 10
254.376
 20
344.044
 30
0.000000
  70
    32
  0
VERTEX
  8
┌▓È_1
  5
86D
 10
254.412
 20
344.036
 30
0.000000
  70
    32
  0
VERTEX
  8
┌▓È_1
  5
86E
 10
254.448
 20
344.028
 30
0.000000
  70
    32
  0
VERTEX
  8
┌▓È_1
  5
86F
 10
254.484
 20
344.020
 30
0.000000
  70
    32
  0
VERTEX
  8
┌▓È_1
  5
870
 10
254.520
 20
344.011
 30
0.000000
  70
    32
  0
VERTEX
  8
┌▓È_1
  5
871
 10
254.556
 20
344.003
 30
0.000000
  70
    32
  0
VERTEX
  8
┌▓È_1
  5
872
 10
254.592
 20
343.995
 30
0.000000
  70
    32
  0
VERTEX
  8
┌▓È_1
  5
873
 10
254.628
 20
343.987
 30
0.000000
  70
    32
  0
VERTEX
  8
┌▓È_1
  5
874
 10
254.664
 20
343.979
 30
0.000000
  70
    32
  0
VERTEX
  8
┌▓È_1
  5
875
 10
254.701
 20
343.971
 30
0.000000
  70
    32
  0
VERTEX
  8
┌▓È_1
  5
876
 10
254.737
 20
343.963
 30
0.000000
  70
    32
  0
VERTEX
  8
┌▓È_1
  5
877
 10
254.773
 20
343.956
 30
0.000000
  70
    32
  0
VERTEX
  8
┌▓È_1
  5
878
 10
254.809
 20
343.948
 30
0.000000
  70
    32
  0
VERTEX
  8
┌▓È_1
  5
879
 10
254.846
 20
343.940
 30
0.000000
  70
    32
  0
VERTEX
  8
┌▓È_1
  5
87A
 10
254.882
 20
343.932
 30
0.000000
  70
    32
  0
VERTEX
  8
┌▓È_1
  5
87B
 10
254.918
 20
343.925
 30
0.000000
  70
    32
  0
VERTEX
  8
┌▓È_1
  5
87C
 10
254.955
 20
343.917
 30
0.000000
  70
    32
  0
VERTEX
  8
┌▓È_1
  5
87D
 10
254.991
 20
343.909
 30
0.000000
  70
    32
  0
VERTEX
  8
┌▓È_1
  5
87E
 10
255.027
 20
343.902
 30
0.000000
  70
    32
  0
VERTEX
  8
┌▓È_1
  5
87F
 10
255.064
 20
343.894
 30
0.000000
  70
    32
  0
VERTEX
  8
┌▓È_1
  5
880
 10
255.100
 20
343.886
 30
0.000000
  70
    32
  0
VERTEX
  8
┌▓È_1
  5
881
 10
255.137
 20
343.879
 30
0.000000
  70
    32
  0
VERTEX
  8
┌▓È_1
  5
882
 10
255.173
 20
343.871
 30
0.000000
  70
    32
  0
VERTEX
  8
┌▓È_1
  5
883
 10
255.210
 20
343.864
 30
0.000000
  70
    32
  0
VERTEX
  8
┌▓È_1
  5
884
 10
255.246
 20
343.857
 30
0.000000
  70
    32
  0
VERTEX
  8
┌▓È_1
  5
885
 10
255.283
 20
343.849
 30
0.000000
  70
    32
  0
VERTEX
  8
┌▓È_1
  5
886
 10
255.319
 20
343.842
 30
0.000000
  70
    32
  0
VERTEX
  8
┌▓È_1
  5
887
 10
255.356
 20
343.835
 30
0.000000
  70
    32
  0
VERTEX
  8
┌▓È_1
  5
888
 10
255.392
 20
343.827
 30
0.000000
  70
    32
  0
VERTEX
  8
┌▓È_1
  5
889
 10
255.429
 20
343.820
 30
0.000000
  70
    32
  0
VERTEX
  8
┌▓È_1
  5
88A
 10
255.466
 20
343.813
 30
0.000000
  70
    32
  0
VERTEX
  8
┌▓È_1
  5
88B
 10
255.502
 20
343.806
 30
0.000000
  70
    32
  0
VERTEX
  8
┌▓È_1
  5
88C
 10
255.539
 20
343.798
 30
0.000000
  70
    32
  0
VERTEX
  8
┌▓È_1
  5
88D
 10
255.576
 20
343.791
 30
0.000000
  70
    32
  0
VERTEX
  8
┌▓È_1
  5
88E
 10
255.612
 20
343.784
 30
0.000000
  70
    32
  0
VERTEX
  8
┌▓È_1
  5
88F
 10
255.649
 20
343.777
 30
0.000000
  70
    32
  0
VERTEX
  8
┌▓È_1
  5
890
 10
255.686
 20
343.770
 30
0.000000
  70
    32
  0
VERTEX
  8
┌▓È_1
  5
891
 10
255.723
 20
343.763
 30
0.000000
  70
    32
  0
VERTEX
  8
┌▓È_1
  5
892
 10
255.759
 20
343.756
 30
0.000000
  70
    32
  0
VERTEX
  8
┌▓È_1
  5
893
 10
255.796
 20
343.749
 30
0.000000
  70
    32
  0
VERTEX
  8
┌▓È_1
  5
894
 10
255.833
 20
343.742
 30
0.000000
  70
    32
  0
VERTEX
  8
┌▓È_1
  5
895
 10
255.870
 20
343.735
 30
0.000000
  70
    32
  0
VERTEX
  8
┌▓È_1
  5
896
 10
255.907
 20
343.728
 30
0.000000
  70
    32
  0
VERTEX
  8
┌▓È_1
  5
897
 10
255.943
 20
343.721
 30
0.000000
  70
    32
  0
VERTEX
  8
┌▓È_1
  5
898
 10
255.980
 20
343.714
 30
0.000000
  70
    32
  0
VERTEX
  8
┌▓È_1
  5
899
 10
256.017
 20
343.708
 30
0.000000
  70
    32
  0
VERTEX
  8
┌▓È_1
  5
89A
 10
256.054
 20
343.701
 30
0.000000
  70
    32
  0
VERTEX
  8
┌▓È_1
  5
89B
 10
256.091
 20
343.694
 30
0.000000
  70
    32
  0
VERTEX
  8
┌▓È_1
  5
89C
 10
256.128
 20
343.687
 30
0.000000
  70
    32
  0
VERTEX
  8
┌▓È_1
  5
89D
 10
256.165
 20
343.680
 30
0.000000
  70
    32
  0
VERTEX
  8
┌▓È_1
  5
89E
 10
256.202
 20
343.674
 30
0.000000
  70
    32
  0
VERTEX
  8
┌▓È_1
  5
89F
 10
256.239
 20
343.667
 30
0.000000
  70
    32
  0
VERTEX
  8
┌▓È_1
  5
8A0
 10
256.276
 20
343.660
 30
0.000000
  70
    32
  0
VERTEX
  8
┌▓È_1
  5
8A1
 10
256.313
 20
343.654
 30
0.000000
  70
    32
  0
VERTEX
  8
┌▓È_1
  5
8A2
 10
256.350
 20
343.647
 30
0.000000
  70
    32
  0
VERTEX
  8
┌▓È_1
  5
8A3
 10
256.387
 20
343.640
 30
0.000000
  70
    32
  0
VERTEX
  8
┌▓È_1
  5
8A4
 10
256.424
 20
343.634
 30
0.000000
  70
    32
  0
VERTEX
  8
┌▓È_1
  5
8A5
 10
256.461
 20
343.627
 30
0.000000
  70
    32
  0
VERTEX
  8
┌▓È_1
  5
8A6
 10
256.498
 20
343.621
 30
0.000000
  70
    32
  0
VERTEX
  8
┌▓È_1
  5
8A7
 10
256.535
 20
343.614
 30
0.000000
  70
    32
  0
VERTEX
  8
┌▓È_1
  5
8A8
 10
256.572
 20
343.607
 30
0.000000
  70
    32
  0
VERTEX
  8
┌▓È_1
  5
8A9
 10
256.609
 20
343.601
 30
0.000000
  70
    32
  0
VERTEX
  8
┌▓È_1
  5
8AA
 10
256.646
 20
343.594
 30
0.000000
  70
    32
  0
VERTEX
  8
┌▓È_1
  5
8AB
 10
256.683
 20
343.588
 30
0.000000
  70
    32
  0
VERTEX
  8
┌▓È_1
  5
8AC
 10
256.720
 20
343.581
 30
0.000000
  70
    32
  0
VERTEX
  8
┌▓È_1
  5
8AD
 10
256.757
 20
343.575
 30
0.000000
  70
    32
  0
VERTEX
  8
┌▓È_1
  5
8AE
 10
256.794
 20
343.568
 30
0.000000
  70
    32
  0
VERTEX
  8
┌▓È_1
  5
8AF
 10
256.831
 20
343.562
 30
0.000000
  70
    32
  0
VERTEX
  8
┌▓È_1
  5
8B0
 10
256.868
 20
343.555
 30
0.000000
  70
    32
  0
VERTEX
  8
┌▓È_1
  5
8B1
 10
256.906
 20
343.549
 30
0.000000
  70
    32
  0
VERTEX
  8
┌▓È_1
  5
8B2
 10
256.943
 20
343.543
 30
0.000000
  70
    32
  0
VERTEX
  8
┌▓È_1
  5
8B3
 10
256.980
 20
343.536
 30
0.000000
  70
    32
  0
VERTEX
  8
┌▓È_1
  5
8B4
 10
257.017
 20
343.530
 30
0.000000
  70
    32
  0
VERTEX
  8
┌▓È_1
  5
8B5
 10
257.054
 20
343.523
 30
0.000000
  70
    32
  0
VERTEX
  8
┌▓È_1
  5
8B6
 10
257.091
 20
343.517
 30
0.000000
  70
    32
  0
VERTEX
  8
┌▓È_1
  5
8B7
 10
257.129
 20
343.511
 30
0.000000
  70
    32
  0
VERTEX
  8
┌▓È_1
  5
8B8
 10
257.166
 20
343.504
 30
0.000000
  70
    32
  0
VERTEX
  8
┌▓È_1
  5
8B9
 10
257.203
 20
343.498
 30
0.000000
  70
    32
  0
VERTEX
  8
┌▓È_1
  5
8BA
 10
257.240
 20
343.492
 30
0.000000
  70
    32
  0
VERTEX
  8
┌▓È_1
  5
8BB
 10
257.277
 20
343.485
 30
0.000000
  70
    32
  0
VERTEX
  8
┌▓È_1
  5
8BC
 10
257.314
 20
343.479
 30
0.000000
  70
    32
  0
VERTEX
  8
┌▓È_1
  5
8BD
 10
257.352
 20
343.473
 30
0.000000
  70
    32
  0
VERTEX
  8
┌▓È_1
  5
8BE
 10
257.389
 20
343.466
 30
0.000000
  70
    32
  0
VERTEX
  8
┌▓È_1
  5
8BF
 10
257.426
 20
343.460
 30
0.000000
  70
    32
  0
VERTEX
  8
┌▓È_1
  5
8C0
 10
257.463
 20
343.454
 30
0.000000
  70
    32
  0
VERTEX
  8
┌▓È_1
  5
8C1
 10
257.500
 20
343.447
 30
0.000000
  70
    32
  0
VERTEX
  8
┌▓È_1
  5
8C2
 10
257.538
 20
343.441
 30
0.000000
  70
    32
  0
VERTEX
  8
┌▓È_1
  5
8C3
 10
257.575
 20
343.435
 30
0.000000
  70
    32
  0
VERTEX
  8
┌▓È_1
  5
8C4
 10
257.612
 20
343.428
 30
0.000000
  70
    32
  0
VERTEX
  8
┌▓È_1
  5
8C5
 10
257.649
 20
343.422
 30
0.000000
  70
    32
  0
VERTEX
  8
┌▓È_1
  5
8C6
 10
257.686
 20
343.416
 30
0.000000
  70
    32
  0
VERTEX
  8
┌▓È_1
  5
8C7
 10
257.724
 20
343.410
 30
0.000000
  70
    32
  0
VERTEX
  8
┌▓È_1
  5
8C8
 10
257.761
 20
343.403
 30
0.000000
  70
    32
  0
VERTEX
  8
┌▓È_1
  5
8C9
 10
257.798
 20
343.397
 30
0.000000
  70
    32
  0
VERTEX
  8
┌▓È_1
  5
8CA
 10
257.835
 20
343.391
 30
0.000000
  70
    32
  0
SEQEND
  8
┌▓È_1
  5
8CB
  0
POLYLINE
  8
┌▓È_1
  5
8CC
  66
     1
 10
0.000000
 20
0.000000
 30
0.000000
  70
     8
  0
VERTEX
  8
┌▓È_1
  5
8CD
 10
246.704
 20
348.615
 30
0.000000
  70
    32
  0
VERTEX
  8
┌▓È_1
  5
8CE
 10
246.717
 20
348.600
 30
0.000000
  70
    32
  0
VERTEX
  8
┌▓È_1
  5
8CF
 10
246.730
 20
348.586
 30
0.000000
  70
    32
  0
VERTEX
  8
┌▓È_1
  5
8D0
 10
246.744
 20
348.571
 30
0.000000
  70
    32
  0
VERTEX
  8
┌▓È_1
  5
8D1
 10
246.757
 20
348.556
 30
0.000000
  70
    32
  0
VERTEX
  8
┌▓È_1
  5
8D2
 10
246.770
 20
348.542
 30
0.000000
  70
    32
  0
VERTEX
  8
┌▓È_1
  5
8D3
 10
246.783
 20
348.527
 30
0.000000
  70
    32
  0
VERTEX
  8
┌▓È_1
  5
8D4
 10
246.796
 20
348.512
 30
0.000000
  70
    32
  0
VERTEX
  8
┌▓È_1
  5
8D5
 10
246.810
 20
348.497
 30
0.000000
  70
    32
  0
VERTEX
  8
┌▓È_1
  5
8D6
 10
246.823
 20
348.483
 30
0.000000
  70
    32
  0
VERTEX
  8
┌▓È_1
  5
8D7
 10
246.836
 20
348.468
 30
0.000000
  70
    32
  0
VERTEX
  8
┌▓È_1
  5
8D8
 10
246.849
 20
348.453
 30
0.000000
  70
    32
  0
VERTEX
  8
┌▓È_1
  5
8D9
 10
246.862
 20
348.439
 30
0.000000
  70
    32
  0
VERTEX
  8
┌▓È_1
  5
8DA
 10
246.876
 20
348.424
 30
0.000000
  70
    32
  0
VERTEX
  8
┌▓È_1
  5
8DB
 10
246.889
 20
348.409
 30
0.000000
  70
    32
  0
VERTEX
  8
┌▓È_1
  5
8DC
 10
246.902
 20
348.394
 30
0.000000
  70
    32
  0
VERTEX
  8
┌▓È_1
  5
8DD
 10
246.915
 20
348.380
 30
0.000000
  70
    32
  0
VERTEX
  8
┌▓È_1
  5
8DE
 10
246.928
 20
348.365
 30
0.000000
  70
    32
  0
VERTEX
  8
┌▓È_1
  5
8DF
 10
246.942
 20
348.350
 30
0.000000
  70
    32
  0
VERTEX
  8
┌▓È_1
  5
8E0
 10
246.955
 20
348.336
 30
0.000000
  70
    32
  0
VERTEX
  8
┌▓È_1
  5
8E1
 10
246.968
 20
348.321
 30
0.000000
  70
    32
  0
VERTEX
  8
┌▓È_1
  5
8E2
 10
246.981
 20
348.306
 30
0.000000
  70
    32
  0
VERTEX
  8
┌▓È_1
  5
8E3
 10
246.995
 20
348.292
 30
0.000000
  70
    32
  0
VERTEX
  8
┌▓È_1
  5
8E4
 10
247.008
 20
348.277
 30
0.000000
  70
    32
  0
VERTEX
  8
┌▓È_1
  5
8E5
 10
247.021
 20
348.262
 30
0.000000
  70
    32
  0
VERTEX
  8
┌▓È_1
  5
8E6
 10
247.034
 20
348.248
 30
0.000000
  70
    32
  0
VERTEX
  8
┌▓È_1
  5
8E7
 10
247.048
 20
348.233
 30
0.000000
  70
    32
  0
VERTEX
  8
┌▓È_1
  5
8E8
 10
247.061
 20
348.218
 30
0.000000
  70
    32
  0
VERTEX
  8
┌▓È_1
  5
8E9
 10
247.074
 20
348.204
 30
0.000000
  70
    32
  0
VERTEX
  8
┌▓È_1
  5
8EA
 10
247.087
 20
348.189
 30
0.000000
  70
    32
  0
VERTEX
  8
┌▓È_1
  5
8EB
 10
247.101
 20
348.175
 30
0.000000
  70
    32
  0
VERTEX
  8
┌▓È_1
  5
8EC
 10
247.114
 20
348.160
 30
0.000000
  70
    32
  0
VERTEX
  8
┌▓È_1
  5
8ED
 10
247.127
 20
348.145
 30
0.000000
  70
    32
  0
VERTEX
  8
┌▓È_1
  5
8EE
 10
247.140
 20
348.131
 30
0.000000
  70
    32
  0
VERTEX
  8
┌▓È_1
  5
8EF
 10
247.154
 20
348.116
 30
0.000000
  70
    32
  0
VERTEX
  8
┌▓È_1
  5
8F0
 10
247.167
 20
348.102
 30
0.000000
  70
    32
  0
VERTEX
  8
┌▓È_1
  5
8F1
 10
247.180
 20
348.087
 30
0.000000
  70
    32
  0
VERTEX
  8
┌▓È_1
  5
8F2
 10
247.194
 20
348.072
 30
0.000000
  70
    32
  0
VERTEX
  8
┌▓È_1
  5
8F3
 10
247.207
 20
348.058
 30
0.000000
  70
    32
  0
VERTEX
  8
┌▓È_1
  5
8F4
 10
247.220
 20
348.043
 30
0.000000
  70
    32
  0
VERTEX
  8
┌▓È_1
  5
8F5
 10
247.233
 20
348.029
 30
0.000000
  70
    32
  0
VERTEX
  8
┌▓È_1
  5
8F6
 10
247.247
 20
348.014
 30
0.000000
  70
    32
  0
VERTEX
  8
┌▓È_1
  5
8F7
 10
247.260
 20
348.000
 30
0.000000
  70
    32
  0
VERTEX
  8
┌▓È_1
  5
8F8
 10
247.273
 20
347.985
 30
0.000000
  70
    32
  0
VERTEX
  8
┌▓È_1
  5
8F9
 10
247.287
 20
347.971
 30
0.000000
  70
    32
  0
VERTEX
  8
┌▓È_1
  5
8FA
 10
247.300
 20
347.956
 30
0.000000
  70
    32
  0
VERTEX
  8
┌▓È_1
  5
8FB
 10
247.313
 20
347.942
 30
0.000000
  70
    32
  0
VERTEX
  8
┌▓È_1
  5
8FC
 10
247.327
 20
347.927
 30
0.000000
  70
    32
  0
VERTEX
  8
┌▓È_1
  5
8FD
 10
247.340
 20
347.913
 30
0.000000
  70
    32
  0
VERTEX
  8
┌▓È_1
  5
8FE
 10
247.353
 20
347.898
 30
0.000000
  70
    32
  0
VERTEX
  8
┌▓È_1
  5
8FF
 10
247.367
 20
347.884
 30
0.000000
  70
    32
  0
VERTEX
  8
┌▓È_1
  5
900
 10
247.380
 20
347.869
 30
0.000000
  70
    32
  0
VERTEX
  8
┌▓È_1
  5
901
 10
247.394
 20
347.855
 30
0.000000
  70
    32
  0
VERTEX
  8
┌▓È_1
  5
902
 10
247.407
 20
347.841
 30
0.000000
  70
    32
  0
VERTEX
  8
┌▓È_1
  5
903
 10
247.420
 20
347.826
 30
0.000000
  70
    32
  0
VERTEX
  8
┌▓È_1
  5
904
 10
247.434
 20
347.812
 30
0.000000
  70
    32
  0
VERTEX
  8
┌▓È_1
  5
905
 10
247.447
 20
347.797
 30
0.000000
  70
    32
  0
VERTEX
  8
┌▓È_1
  5
906
 10
247.461
 20
347.783
 30
0.000000
  70
    32
  0
VERTEX
  8
┌▓È_1
  5
907
 10
247.474
 20
347.769
 30
0.000000
  70
    32
  0
VERTEX
  8
┌▓È_1
  5
908
 10
247.487
 20
347.754
 30
0.000000
  70
    32
  0
VERTEX
  8
┌▓È_1
  5
909
 10
247.501
 20
347.740
 30
0.000000
  70
    32
  0
VERTEX
  8
┌▓È_1
  5
90A
 10
247.514
 20
347.726
 30
0.000000
  70
    32
  0
VERTEX
  8
┌▓È_1
  5
90B
 10
247.528
 20
347.711
 30
0.000000
  70
    32
  0
VERTEX
  8
┌▓È_1
  5
90C
 10
247.541
 20
347.697
 30
0.000000
  70
    32
  0
VERTEX
  8
┌▓È_1
  5
90D
 10
247.555
 20
347.683
 30
0.000000
  70
    32
  0
VERTEX
  8
┌▓È_1
  5
90E
 10
247.568
 20
347.669
 30
0.000000
  70
    32
  0
VERTEX
  8
┌▓È_1
  5
90F
 10
247.582
 20
347.654
 30
0.000000
  70
    32
  0
VERTEX
  8
┌▓È_1
  5
910
 10
247.595
 20
347.640
 30
0.000000
  70
    32
  0
VERTEX
  8
┌▓È_1
  5
911
 10
247.609
 20
347.626
 30
0.000000
  70
    32
  0
VERTEX
  8
┌▓È_1
  5
912
 10
247.622
 20
347.612
 30
0.000000
  70
    32
  0
VERTEX
  8
┌▓È_1
  5
913
 10
247.636
 20
347.597
 30
0.000000
  70
    32
  0
VERTEX
  8
┌▓È_1
  5
914
 10
247.649
 20
347.583
 30
0.000000
  70
    32
  0
VERTEX
  8
┌▓È_1
  5
915
 10
247.663
 20
347.569
 30
0.000000
  70
    32
  0
VERTEX
  8
┌▓È_1
  5
916
 10
247.676
 20
347.555
 30
0.000000
  70
    32
  0
VERTEX
  8
┌▓È_1
  5
917
 10
247.690
 20
347.541
 30
0.000000
  70
    32
  0
VERTEX
  8
┌▓È_1
  5
918
 10
247.703
 20
347.527
 30
0.000000
  70
    32
  0
VERTEX
  8
┌▓È_1
  5
919
 10
247.717
 20
347.513
 30
0.000000
  70
    32
  0
VERTEX
  8
┌▓È_1
  5
91A
 10
247.731
 20
347.499
 30
0.000000
  70
    32
  0
VERTEX
  8
┌▓È_1
  5
91B
 10
247.744
 20
347.485
 30
0.000000
  70
    32
  0
VERTEX
  8
┌▓È_1
  5
91C
 10
247.758
 20
347.471
 30
0.000000
  70
    32
  0
VERTEX
  8
┌▓È_1
  5
91D
 10
247.772
 20
347.457
 30
0.000000
  70
    32
  0
VERTEX
  8
┌▓È_1
  5
91E
 10
247.785
 20
347.443
 30
0.000000
  70
    32
  0
VERTEX
  8
┌▓È_1
  5
91F
 10
247.799
 20
347.429
 30
0.000000
  70
    32
  0
VERTEX
  8
┌▓È_1
  5
920
 10
247.812
 20
347.415
 30
0.000000
  70
    32
  0
VERTEX
  8
┌▓È_1
  5
921
 10
247.826
 20
347.401
 30
0.000000
  70
    32
  0
VERTEX
  8
┌▓È_1
  5
922
 10
247.840
 20
347.387
 30
0.000000
  70
    32
  0
VERTEX
  8
┌▓È_1
  5
923
 10
247.854
 20
347.373
 30
0.000000
  70
    32
  0
VERTEX
  8
┌▓È_1
  5
924
 10
247.867
 20
347.359
 30
0.000000
  70
    32
  0
VERTEX
  8
┌▓È_1
  5
925
 10
247.881
 20
347.345
 30
0.000000
  70
    32
  0
VERTEX
  8
┌▓È_1
  5
926
 10
247.895
 20
347.331
 30
0.000000
  70
    32
  0
VERTEX
  8
┌▓È_1
  5
927
 10
247.908
 20
347.317
 30
0.000000
  70
    32
  0
VERTEX
  8
┌▓È_1
  5
928
 10
247.922
 20
347.303
 30
0.000000
  70
    32
  0
VERTEX
  8
┌▓È_1
  5
929
 10
247.936
 20
347.290
 30
0.000000
  70
    32
  0
VERTEX
  8
┌▓È_1
  5
92A
 10
247.950
 20
347.276
 30
0.000000
  70
    32
  0
VERTEX
  8
┌▓È_1
  5
92B
 10
247.964
 20
347.262
 30
0.000000
  70
    32
  0
VERTEX
  8
┌▓È_1
  5
92C
 10
247.977
 20
347.248
 30
0.000000
  70
    32
  0
VERTEX
  8
┌▓È_1
  5
92D
 10
247.991
 20
347.235
 30
0.000000
  70
    32
  0
VERTEX
  8
┌▓È_1
  5
92E
 10
248.005
 20
347.221
 30
0.000000
  70
    32
  0
VERTEX
  8
┌▓È_1
  5
92F
 10
248.019
 20
347.207
 30
0.000000
  70
    32
  0
VERTEX
  8
┌▓È_1
  5
930
 10
248.033
 20
347.194
 30
0.000000
  70
    32
  0
VERTEX
  8
┌▓È_1
  5
931
 10
248.047
 20
347.180
 30
0.000000
  70
    32
  0
VERTEX
  8
┌▓È_1
  5
932
 10
248.060
 20
347.166
 30
0.000000
  70
    32
  0
VERTEX
  8
┌▓È_1
  5
933
 10
248.074
 20
347.153
 30
0.000000
  70
    32
  0
VERTEX
  8
┌▓È_1
  5
934
 10
248.088
 20
347.139
 30
0.000000
  70
    32
  0
VERTEX
  8
┌▓È_1
  5
935
 10
248.102
 20
347.126
 30
0.000000
  70
    32
  0
VERTEX
  8
┌▓È_1
  5
936
 10
248.116
 20
347.112
 30
0.000000
  70
    32
  0
VERTEX
  8
┌▓È_1
  5
937
 10
248.130
 20
347.099
 30
0.000000
  70
    32
  0
VERTEX
  8
┌▓È_1
  5
938
 10
248.144
 20
347.085
 30
0.000000
  70
    32
  0
VERTEX
  8
┌▓È_1
  5
939
 10
248.158
 20
347.072
 30
0.000000
  70
    32
  0
VERTEX
  8
┌▓È_1
  5
93A
 10
248.172
 20
347.058
 30
0.000000
  70
    32
  0
VERTEX
  8
┌▓È_1
  5
93B
 10
248.186
 20
347.045
 30
0.000000
  70
    32
  0
VERTEX
  8
┌▓È_1
  5
93C
 10
248.200
 20
347.032
 30
0.000000
  70
    32
  0
VERTEX
  8
┌▓È_1
  5
93D
 10
248.214
 20
347.018
 30
0.000000
  70
    32
  0
VERTEX
  8
┌▓È_1
  5
93E
 10
248.228
 20
347.005
 30
0.000000
  70
    32
  0
VERTEX
  8
┌▓È_1
  5
93F
 10
248.242
 20
346.992
 30
0.000000
  70
    32
  0
VERTEX
  8
┌▓È_1
  5
940
 10
248.256
 20
346.978
 30
0.000000
  70
    32
  0
VERTEX
  8
┌▓È_1
  5
941
 10
248.271
 20
346.965
 30
0.000000
  70
    32
  0
VERTEX
  8
┌▓È_1
  5
942
 10
248.285
 20
346.952
 30
0.000000
  70
    32
  0
VERTEX
  8
┌▓È_1
  5
943
 10
248.299
 20
346.939
 30
0.000000
  70
    32
  0
VERTEX
  8
┌▓È_1
  5
944
 10
248.313
 20
346.926
 30
0.000000
  70
    32
  0
VERTEX
  8
┌▓È_1
  5
945
 10
248.327
 20
346.912
 30
0.000000
  70
    32
  0
VERTEX
  8
┌▓È_1
  5
946
 10
248.341
 20
346.899
 30
0.000000
  70
    32
  0
VERTEX
  8
┌▓È_1
  5
947
 10
248.356
 20
346.886
 30
0.000000
  70
    32
  0
VERTEX
  8
┌▓È_1
  5
948
 10
248.370
 20
346.873
 30
0.000000
  70
    32
  0
VERTEX
  8
┌▓È_1
  5
949
 10
248.384
 20
346.860
 30
0.000000
  70
    32
  0
VERTEX
  8
┌▓È_1
  5
94A
 10
248.398
 20
346.847
 30
0.000000
  70
    32
  0
VERTEX
  8
┌▓È_1
  5
94B
 10
248.413
 20
346.834
 30
0.000000
  70
    32
  0
VERTEX
  8
┌▓È_1
  5
94C
 10
248.427
 20
346.821
 30
0.000000
  70
    32
  0
SEQEND
  8
┌▓È_1
  5
94D
  0
POLYLINE
  8
┌▓È_1
  5
94E
  66
     1
 10
0.000000
 20
0.000000
 30
0.000000
  70
     8
  0
VERTEX
  8
┌▓È_1
  5
94F
 10
250.753
 20
342.118
 30
0.000000
  70
    32
  0
VERTEX
  8
┌▓È_1
  5
950
 10
250.807
 20
342.101
 30
0.000000
  70
    32
  0
VERTEX
  8
┌▓È_1
  5
951
 10
250.861
 20
342.084
 30
0.000000
  70
    32
  0
VERTEX
  8
┌▓È_1
  5
952
 10
250.915
 20
342.067
 30
0.000000
  70
    32
  0
VERTEX
  8
┌▓È_1
  5
953
 10
250.969
 20
342.050
 30
0.000000
  70
    32
  0
VERTEX
  8
┌▓È_1
  5
954
 10
251.023
 20
342.033
 30
0.000000
  70
    32
  0
VERTEX
  8
┌▓È_1
  5
955
 10
251.077
 20
342.016
 30
0.000000
  70
    32
  0
VERTEX
  8
┌▓È_1
  5
956
 10
251.131
 20
342.000
 30
0.000000
  70
    32
  0
VERTEX
  8
┌▓È_1
  5
957
 10
251.185
 20
341.983
 30
0.000000
  70
    32
  0
VERTEX
  8
┌▓È_1
  5
958
 10
251.239
 20
341.967
 30
0.000000
  70
    32
  0
VERTEX
  8
┌▓È_1
  5
959
 10
251.293
 20
341.950
 30
0.000000
  70
    32
  0
VERTEX
  8
┌▓È_1
  5
95A
 10
251.348
 20
341.934
 30
0.000000
  70
    32
  0
VERTEX
  8
┌▓È_1
  5
95B
 10
251.402
 20
341.917
 30
0.000000
  70
    32
  0
VERTEX
  8
┌▓È_1
  5
95C
 10
251.456
 20
341.901
 30
0.000000
  70
    32
  0
VERTEX
  8
┌▓È_1
  5
95D
 10
251.511
 20
341.885
 30
0.000000
  70
    32
  0
VERTEX
  8
┌▓È_1
  5
95E
 10
251.565
 20
341.869
 30
0.000000
  70
    32
  0
VERTEX
  8
┌▓È_1
  5
95F
 10
251.620
 20
341.853
 30
0.000000
  70
    32
  0
VERTEX
  8
┌▓È_1
  5
960
 10
251.674
 20
341.837
 30
0.000000
  70
    32
  0
VERTEX
  8
┌▓È_1
  5
961
 10
251.729
 20
341.821
 30
0.000000
  70
    32
  0
VERTEX
  8
┌▓È_1
  5
962
 10
251.783
 20
341.806
 30
0.000000
  70
    32
  0
VERTEX
  8
┌▓È_1
  5
963
 10
251.838
 20
341.790
 30
0.000000
  70
    32
  0
VERTEX
  8
┌▓È_1
  5
964
 10
251.893
 20
341.774
 30
0.000000
  70
    32
  0
VERTEX
  8
┌▓È_1
  5
965
 10
251.947
 20
341.759
 30
0.000000
  70
    32
  0
VERTEX
  8
┌▓È_1
  5
966
 10
252.002
 20
341.743
 30
0.000000
  70
    32
  0
VERTEX
  8
┌▓È_1
  5
967
 10
252.057
 20
341.728
 30
0.000000
  70
    32
  0
VERTEX
  8
┌▓È_1
  5
968
 10
252.112
 20
341.713
 30
0.000000
  70
    32
  0
VERTEX
  8
┌▓È_1
  5
969
 10
252.167
 20
341.697
 30
0.000000
  70
    32
  0
VERTEX
  8
┌▓È_1
  5
96A
 10
252.222
 20
341.682
 30
0.000000
  70
    32
  0
VERTEX
  8
┌▓È_1
  5
96B
 10
252.277
 20
341.667
 30
0.000000
  70
    32
  0
VERTEX
  8
┌▓È_1
  5
96C
 10
252.331
 20
341.652
 30
0.000000
  70
    32
  0
VERTEX
  8
┌▓È_1
  5
96D
 10
252.387
 20
341.637
 30
0.000000
  70
    32
  0
VERTEX
  8
┌▓È_1
  5
96E
 10
252.442
 20
341.622
 30
0.000000
  70
    32
  0
VERTEX
  8
┌▓È_1
  5
96F
 10
252.497
 20
341.607
 30
0.000000
  70
    32
  0
VERTEX
  8
┌▓È_1
  5
970
 10
252.552
 20
341.592
 30
0.000000
  70
    32
  0
VERTEX
  8
┌▓È_1
  5
971
 10
252.607
 20
341.578
 30
0.000000
  70
    32
  0
VERTEX
  8
┌▓È_1
  5
972
 10
252.662
 20
341.563
 30
0.000000
  70
    32
  0
VERTEX
  8
┌▓È_1
  5
973
 10
252.717
 20
341.548
 30
0.000000
  70
    32
  0
VERTEX
  8
┌▓È_1
  5
974
 10
252.773
 20
341.534
 30
0.000000
  70
    32
  0
VERTEX
  8
┌▓È_1
  5
975
 10
252.828
 20
341.519
 30
0.000000
  70
    32
  0
VERTEX
  8
┌▓È_1
  5
976
 10
252.883
 20
341.505
 30
0.000000
  70
    32
  0
VERTEX
  8
┌▓È_1
  5
977
 10
252.939
 20
341.491
 30
0.000000
  70
    32
  0
VERTEX
  8
┌▓È_1
  5
978
 10
252.994
 20
341.476
 30
0.000000
  70
    32
  0
VERTEX
  8
┌▓È_1
  5
979
 10
253.049
 20
341.462
 30
0.000000
  70
    32
  0
VERTEX
  8
┌▓È_1
  5
97A
 10
253.105
 20
341.448
 30
0.000000
  70
    32
  0
VERTEX
  8
┌▓È_1
  5
97B
 10
253.160
 20
341.434
 30
0.000000
  70
    32
  0
VERTEX
  8
┌▓È_1
  5
97C
 10
253.216
 20
341.420
 30
0.000000
  70
    32
  0
VERTEX
  8
┌▓È_1
  5
97D
 10
253.271
 20
341.406
 30
0.000000
  70
    32
  0
VERTEX
  8
┌▓È_1
  5
97E
 10
253.327
 20
341.392
 30
0.000000
  70
    32
  0
VERTEX
  8
┌▓È_1
  5
97F
 10
253.382
 20
341.378
 30
0.000000
  70
    32
  0
VERTEX
  8
┌▓È_1
  5
980
 10
253.438
 20
341.364
 30
0.000000
  70
    32
  0
VERTEX
  8
┌▓È_1
  5
981
 10
253.494
 20
341.350
 30
0.000000
  70
    32
  0
VERTEX
  8
┌▓È_1
  5
982
 10
253.549
 20
341.336
 30
0.000000
  70
    32
  0
VERTEX
  8
┌▓È_1
  5
983
 10
253.605
 20
341.323
 30
0.000000
  70
    32
  0
VERTEX
  8
┌▓È_1
  5
984
 10
253.661
 20
341.309
 30
0.000000
  70
    32
  0
VERTEX
  8
┌▓È_1
  5
985
 10
253.717
 20
341.295
 30
0.000000
  70
    32
  0
VERTEX
  8
┌▓È_1
  5
986
 10
253.772
 20
341.282
 30
0.000000
  70
    32
  0
VERTEX
  8
┌▓È_1
  5
987
 10
253.828
 20
341.268
 30
0.000000
  70
    32
  0
VERTEX
  8
┌▓È_1
  5
988
 10
253.884
 20
341.255
 30
0.000000
  70
    32
  0
VERTEX
  8
┌▓È_1
  5
989
 10
253.940
 20
341.241
 30
0.000000
  70
    32
  0
VERTEX
  8
┌▓È_1
  5
98A
 10
253.996
 20
341.228
 30
0.000000
  70
    32
  0
VERTEX
  8
┌▓È_1
  5
98B
 10
254.052
 20
341.215
 30
0.000000
  70
    32
  0
VERTEX
  8
┌▓È_1
  5
98C
 10
254.108
 20
341.201
 30
0.000000
  70
    32
  0
VERTEX
  8
┌▓È_1
  5
98D
 10
254.164
 20
341.188
 30
0.000000
  70
    32
  0
VERTEX
  8
┌▓È_1
  5
98E
 10
254.220
 20
341.175
 30
0.000000
  70
    32
  0
VERTEX
  8
┌▓È_1
  5
98F
 10
254.276
 20
341.162
 30
0.000000
  70
    32
  0
VERTEX
  8
┌▓È_1
  5
990
 10
254.332
 20
341.149
 30
0.000000
  70
    32
  0
VERTEX
  8
┌▓È_1
  5
991
 10
254.388
 20
341.136
 30
0.000000
  70
    32
  0
VERTEX
  8
┌▓È_1
  5
992
 10
254.444
 20
341.123
 30
0.000000
  70
    32
  0
VERTEX
  8
┌▓È_1
  5
993
 10
254.500
 20
341.110
 30
0.000000
  70
    32
  0
VERTEX
  8
┌▓È_1
  5
994
 10
254.556
 20
341.097
 30
0.000000
  70
    32
  0
VERTEX
  8
┌▓È_1
  5
995
 10
254.612
 20
341.084
 30
0.000000
  70
    32
  0
VERTEX
  8
┌▓È_1
  5
996
 10
254.668
 20
341.071
 30
0.000000
  70
    32
  0
VERTEX
  8
┌▓È_1
  5
997
 10
254.725
 20
341.058
 30
0.000000
  70
    32
  0
VERTEX
  8
┌▓È_1
  5
998
 10
254.781
 20
341.045
 30
0.000000
  70
    32
  0
VERTEX
  8
┌▓È_1
  5
999
 10
254.837
 20
341.033
 30
0.000000
  70
    32
  0
VERTEX
  8
┌▓È_1
  5
99A
 10
254.893
 20
341.020
 30
0.000000
  70
    32
  0
VERTEX
  8
┌▓È_1
  5
99B
 10
254.949
 20
341.007
 30
0.000000
  70
    32
  0
VERTEX
  8
┌▓È_1
  5
99C
 10
255.006
 20
340.994
 30
0.000000
  70
    32
  0
VERTEX
  8
┌▓È_1
  5
99D
 10
255.062
 20
340.982
 30
0.000000
  70
    32
  0
VERTEX
  8
┌▓È_1
  5
99E
 10
255.118
 20
340.969
 30
0.000000
  70
    32
  0
VERTEX
  8
┌▓È_1
  5
99F
 10
255.175
 20
340.957
 30
0.000000
  70
    32
  0
VERTEX
  8
┌▓È_1
  5
9A0
 10
255.231
 20
340.944
 30
0.000000
  70
    32
  0
VERTEX
  8
┌▓È_1
  5
9A1
 10
255.287
 20
340.932
 30
0.000000
  70
    32
  0
VERTEX
  8
┌▓È_1
  5
9A2
 10
255.344
 20
340.919
 30
0.000000
  70
    32
  0
VERTEX
  8
┌▓È_1
  5
9A3
 10
255.400
 20
340.907
 30
0.000000
  70
    32
  0
VERTEX
  8
┌▓È_1
  5
9A4
 10
255.457
 20
340.894
 30
0.000000
  70
    32
  0
VERTEX
  8
┌▓È_1
  5
9A5
 10
255.513
 20
340.882
 30
0.000000
  70
    32
  0
VERTEX
  8
┌▓È_1
  5
9A6
 10
255.570
 20
340.870
 30
0.000000
  70
    32
  0
VERTEX
  8
┌▓È_1
  5
9A7
 10
255.626
 20
340.857
 30
0.000000
  70
    32
  0
VERTEX
  8
┌▓È_1
  5
9A8
 10
255.682
 20
340.845
 30
0.000000
  70
    32
  0
VERTEX
  8
┌▓È_1
  5
9A9
 10
255.739
 20
340.833
 30
0.000000
  70
    32
  0
VERTEX
  8
┌▓È_1
  5
9AA
 10
255.795
 20
340.821
 30
0.000000
  70
    32
  0
VERTEX
  8
┌▓È_1
  5
9AB
 10
255.852
 20
340.808
 30
0.000000
  70
    32
  0
VERTEX
  8
┌▓È_1
  5
9AC
 10
255.908
 20
340.796
 30
0.000000
  70
    32
  0
VERTEX
  8
┌▓È_1
  5
9AD
 10
255.965
 20
340.784
 30
0.000000
  70
    32
  0
VERTEX
  8
┌▓È_1
  5
9AE
 10
256.022
 20
340.772
 30
0.000000
  70
    32
  0
VERTEX
  8
┌▓È_1
  5
9AF
 10
256.078
 20
340.760
 30
0.000000
  70
    32
  0
VERTEX
  8
┌▓È_1
  5
9B0
 10
256.135
 20
340.748
 30
0.000000
  70
    32
  0
VERTEX
  8
┌▓È_1
  5
9B1
 10
256.191
 20
340.736
 30
0.000000
  70
    32
  0
VERTEX
  8
┌▓È_1
  5
9B2
 10
256.248
 20
340.723
 30
0.000000
  70
    32
  0
VERTEX
  8
┌▓È_1
  5
9B3
 10
256.304
 20
340.711
 30
0.000000
  70
    32
  0
VERTEX
  8
┌▓È_1
  5
9B4
 10
256.361
 20
340.699
 30
0.000000
  70
    32
  0
VERTEX
  8
┌▓È_1
  5
9B5
 10
256.418
 20
340.687
 30
0.000000
  70
    32
  0
VERTEX
  8
┌▓È_1
  5
9B6
 10
256.474
 20
340.675
 30
0.000000
  70
    32
  0
VERTEX
  8
┌▓È_1
  5
9B7
 10
256.531
 20
340.663
 30
0.000000
  70
    32
  0
VERTEX
  8
┌▓È_1
  5
9B8
 10
256.588
 20
340.651
 30
0.000000
  70
    32
  0
VERTEX
  8
┌▓È_1
  5
9B9
 10
256.644
 20
340.639
 30
0.000000
  70
    32
  0
VERTEX
  8
┌▓È_1
  5
9BA
 10
256.701
 20
340.628
 30
0.000000
  70
    32
  0
VERTEX
  8
┌▓È_1
  5
9BB
 10
256.758
 20
340.616
 30
0.000000
  70
    32
  0
VERTEX
  8
┌▓È_1
  5
9BC
 10
256.814
 20
340.604
 30
0.000000
  70
    32
  0
VERTEX
  8
┌▓È_1
  5
9BD
 10
256.871
 20
340.592
 30
0.000000
  70
    32
  0
VERTEX
  8
┌▓È_1
  5
9BE
 10
256.928
 20
340.580
 30
0.000000
  70
    32
  0
VERTEX
  8
┌▓È_1
  5
9BF
 10
256.984
 20
340.568
 30
0.000000
  70
    32
  0
VERTEX
  8
┌▓È_1
  5
9C0
 10
257.041
 20
340.556
 30
0.000000
  70
    32
  0
VERTEX
  8
┌▓È_1
  5
9C1
 10
257.098
 20
340.544
 30
0.000000
  70
    32
  0
VERTEX
  8
┌▓È_1
  5
9C2
 10
257.155
 20
340.532
 30
0.000000
  70
    32
  0
VERTEX
  8
┌▓È_1
  5
9C3
 10
257.211
 20
340.521
 30
0.000000
  70
    32
  0
VERTEX
  8
┌▓È_1
  5
9C4
 10
257.268
 20
340.509
 30
0.000000
  70
    32
  0
VERTEX
  8
┌▓È_1
  5
9C5
 10
257.325
 20
340.497
 30
0.000000
  70
    32
  0
VERTEX
  8
┌▓È_1
  5
9C6
 10
257.381
 20
340.485
 30
0.000000
  70
    32
  0
VERTEX
  8
┌▓È_1
  5
9C7
 10
257.438
 20
340.473
 30
0.000000
  70
    32
  0
VERTEX
  8
┌▓È_1
  5
9C8
 10
257.495
 20
340.461
 30
0.000000
  70
    32
  0
VERTEX
  8
┌▓È_1
  5
9C9
 10
257.552
 20
340.450
 30
0.000000
  70
    32
  0
VERTEX
  8
┌▓È_1
  5
9CA
 10
257.608
 20
340.438
 30
0.000000
  70
    32
  0
VERTEX
  8
┌▓È_1
  5
9CB
 10
257.665
 20
340.426
 30
0.000000
  70
    32
  0
VERTEX
  8
┌▓È_1
  5
9CC
 10
257.722
 20
340.414
 30
0.000000
  70
    32
  0
VERTEX
  8
┌▓È_1
  5
9CD
 10
257.779
 20
340.402
 30
0.000000
  70
    32
  0
VERTEX
  8
┌▓È_1
  5
9CE
 10
257.835
 20
340.391
 30
0.000000
  70
    32
  0
SEQEND
  8
┌▓È_1
  5
9CF
  0
POLYLINE
  8
┌▓È_1
  5
9D0
  66
     1
 10
0.000000
 20
0.000000
 30
0.000000
  70
     8
  0
VERTEX
  8
┌▓È_1
  5
9D1
 10
239.835
 20
349.102
 30
0.000000
  70
    32
  0
VERTEX
  8
┌▓È_1
  5
9D2
 10
239.871
 20
349.069
 30
0.000000
  70
    32
  0
VERTEX
  8
┌▓È_1
  5
9D3
 10
239.907
 20
349.036
 30
0.000000
  70
    32
  0
VERTEX
  8
┌▓È_1
  5
9D4
 10
239.943
 20
349.003
 30
0.000000
  70
    32
  0
VERTEX
  8
┌▓È_1
  5
9D5
 10
239.979
 20
348.969
 30
0.000000
  70
    32
  0
VERTEX
  8
┌▓È_1
  5
9D6
 10
240.015
 20
348.936
 30
0.000000
  70
    32
  0
VERTEX
  8
┌▓È_1
  5
9D7
 10
240.052
 20
348.903
 30
0.000000
  70
    32
  0
VERTEX
  8
┌▓È_1
  5
9D8
 10
240.088
 20
348.870
 30
0.000000
  70
    32
  0
VERTEX
  8
┌▓È_1
  5
9D9
 10
240.124
 20
348.837
 30
0.000000
  70
    32
  0
VERTEX
  8
┌▓È_1
  5
9DA
 10
240.160
 20
348.803
 30
0.000000
  70
    32
  0
VERTEX
  8
┌▓È_1
  5
9DB
 10
240.196
 20
348.770
 30
0.000000
  70
    32
  0
VERTEX
  8
┌▓È_1
  5
9DC
 10
240.232
 20
348.737
 30
0.000000
  70
    32
  0
VERTEX
  8
┌▓È_1
  5
9DD
 10
240.268
 20
348.704
 30
0.000000
  70
    32
  0
VERTEX
  8
┌▓È_1
  5
9DE
 10
240.304
 20
348.671
 30
0.000000
  70
    32
  0
VERTEX
  8
┌▓È_1
  5
9DF
 10
240.340
 20
348.638
 30
0.000000
  70
    32
  0
VERTEX
  8
┌▓È_1
  5
9E0
 10
240.376
 20
348.605
 30
0.000000
  70
    32
  0
VERTEX
  8
┌▓È_1
  5
9E1
 10
240.412
 20
348.571
 30
0.000000
  70
    32
  0
VERTEX
  8
┌▓È_1
  5
9E2
 10
240.448
 20
348.538
 30
0.000000
  70
    32
  0
VERTEX
  8
┌▓È_1
  5
9E3
 10
240.484
 20
348.505
 30
0.000000
  70
    32
  0
VERTEX
  8
┌▓È_1
  5
9E4
 10
240.520
 20
348.472
 30
0.000000
  70
    32
  0
VERTEX
  8
┌▓È_1
  5
9E5
 10
240.556
 20
348.439
 30
0.000000
  70
    32
  0
VERTEX
  8
┌▓È_1
  5
9E6
 10
240.592
 20
348.406
 30
0.000000
  70
    32
  0
VERTEX
  8
┌▓È_1
  5
9E7
 10
240.629
 20
348.373
 30
0.000000
  70
    32
  0
VERTEX
  8
┌▓È_1
  5
9E8
 10
240.665
 20
348.340
 30
0.000000
  70
    32
  0
VERTEX
  8
┌▓È_1
  5
9E9
 10
240.701
 20
348.307
 30
0.000000
  70
    32
  0
VERTEX
  8
┌▓È_1
  5
9EA
 10
240.737
 20
348.274
 30
0.000000
  70
    32
  0
VERTEX
  8
┌▓È_1
  5
9EB
 10
240.773
 20
348.241
 30
0.000000
  70
    32
  0
VERTEX
  8
┌▓È_1
  5
9EC
 10
240.809
 20
348.208
 30
0.000000
  70
    32
  0
VERTEX
  8
┌▓È_1
  5
9ED
 10
240.845
 20
348.175
 30
0.000000
  70
    32
  0
VERTEX
  8
┌▓È_1
  5
9EE
 10
240.882
 20
348.142
 30
0.000000
  70
    32
  0
VERTEX
  8
┌▓È_1
  5
9EF
 10
240.918
 20
348.109
 30
0.000000
  70
    32
  0
VERTEX
  8
┌▓È_1
  5
9F0
 10
240.954
 20
348.076
 30
0.000000
  70
    32
  0
VERTEX
  8
┌▓È_1
  5
9F1
 10
240.990
 20
348.043
 30
0.000000
  70
    32
  0
VERTEX
  8
┌▓È_1
  5
9F2
 10
241.026
 20
348.011
 30
0.000000
  70
    32
  0
VERTEX
  8
┌▓È_1
  5
9F3
 10
241.063
 20
347.978
 30
0.000000
  70
    32
  0
VERTEX
  8
┌▓È_1
  5
9F4
 10
241.099
 20
347.945
 30
0.000000
  70
    32
  0
VERTEX
  8
┌▓È_1
  5
9F5
 10
241.135
 20
347.912
 30
0.000000
  70
    32
  0
VERTEX
  8
┌▓È_1
  5
9F6
 10
241.171
 20
347.879
 30
0.000000
  70
    32
  0
VERTEX
  8
┌▓È_1
  5
9F7
 10
241.208
 20
347.847
 30
0.000000
  70
    32
  0
VERTEX
  8
┌▓È_1
  5
9F8
 10
241.244
 20
347.814
 30
0.000000
  70
    32
  0
VERTEX
  8
┌▓È_1
  5
9F9
 10
241.280
 20
347.781
 30
0.000000
  70
    32
  0
VERTEX
  8
┌▓È_1
  5
9FA
 10
241.317
 20
347.749
 30
0.000000
  70
    32
  0
VERTEX
  8
┌▓È_1
  5
9FB
 10
241.353
 20
347.716
 30
0.000000
  70
    32
  0
VERTEX
  8
┌▓È_1
  5
9FC
 10
241.389
 20
347.684
 30
0.000000
  70
    32
  0
VERTEX
  8
┌▓È_1
  5
9FD
 10
241.426
 20
347.651
 30
0.000000
  70
    32
  0
VERTEX
  8
┌▓È_1
  5
9FE
 10
241.462
 20
347.619
 30
0.000000
  70
    32
  0
VERTEX
  8
┌▓È_1
  5
9FF
 10
241.498
 20
347.586
 30
0.000000
  70
    32
  0
VERTEX
  8
┌▓È_1
  5
A00
 10
241.535
 20
347.554
 30
0.000000
  70
    32
  0
VERTEX
  8
┌▓È_1
  5
A01
 10
241.571
 20
347.521
 30
0.000000
  70
    32
  0
VERTEX
  8
┌▓È_1
  5
A02
 10
241.608
 20
347.489
 30
0.000000
  70
    32
  0
VERTEX
  8
┌▓È_1
  5
A03
 10
241.644
 20
347.456
 30
0.000000
  70
    32
  0
VERTEX
  8
┌▓È_1
  5
A04
 10
241.681
 20
347.424
 30
0.000000
  70
    32
  0
VERTEX
  8
┌▓È_1
  5
A05
 10
241.717
 20
347.392
 30
0.000000
  70
    32
  0
VERTEX
  8
┌▓È_1
  5
A06
 10
241.754
 20
347.360
 30
0.000000
  70
    32
  0
VERTEX
  8
┌▓È_1
  5
A07
 10
241.790
 20
347.327
 30
0.000000
  70
    32
  0
VERTEX
  8
┌▓È_1
  5
A08
 10
241.827
 20
347.295
 30
0.000000
  70
    32
  0
VERTEX
  8
┌▓È_1
  5
A09
 10
241.864
 20
347.263
 30
0.000000
  70
    32
  0
VERTEX
  8
┌▓È_1
  5
A0A
 10
241.900
 20
347.231
 30
0.000000
  70
    32
  0
VERTEX
  8
┌▓È_1
  5
A0B
 10
241.937
 20
347.199
 30
0.000000
  70
    32
  0
VERTEX
  8
┌▓È_1
  5
A0C
 10
241.974
 20
347.167
 30
0.000000
  70
    32
  0
VERTEX
  8
┌▓È_1
  5
A0D
 10
242.010
 20
347.135
 30
0.000000
  70
    32
  0
VERTEX
  8
┌▓È_1
  5
A0E
 10
242.047
 20
347.103
 30
0.000000
  70
    32
  0
VERTEX
  8
┌▓È_1
  5
A0F
 10
242.084
 20
347.071
 30
0.000000
  70
    32
  0
VERTEX
  8
┌▓È_1
  5
A10
 10
242.120
 20
347.039
 30
0.000000
  70
    32
  0
VERTEX
  8
┌▓È_1
  5
A11
 10
242.157
 20
347.007
 30
0.000000
  70
    32
  0
VERTEX
  8
┌▓È_1
  5
A12
 10
242.194
 20
346.976
 30
0.000000
  70
    32
  0
VERTEX
  8
┌▓È_1
  5
A13
 10
242.231
 20
346.944
 30
0.000000
  70
    32
  0
VERTEX
  8
┌▓È_1
  5
A14
 10
242.268
 20
346.912
 30
0.000000
  70
    32
  0
VERTEX
  8
┌▓È_1
  5
A15
 10
242.305
 20
346.881
 30
0.000000
  70
    32
  0
VERTEX
  8
┌▓È_1
  5
A16
 10
242.341
 20
346.849
 30
0.000000
  70
    32
  0
VERTEX
  8
┌▓È_1
  5
A17
 10
242.378
 20
346.817
 30
0.000000
  70
    32
  0
VERTEX
  8
┌▓È_1
  5
A18
 10
242.415
 20
346.786
 30
0.000000
  70
    32
  0
VERTEX
  8
┌▓È_1
  5
A19
 10
242.452
 20
346.754
 30
0.000000
  70
    32
  0
VERTEX
  8
┌▓È_1
  5
A1A
 10
242.489
 20
346.723
 30
0.000000
  70
    32
  0
VERTEX
  8
┌▓È_1
  5
A1B
 10
242.526
 20
346.692
 30
0.000000
  70
    32
  0
VERTEX
  8
┌▓È_1
  5
A1C
 10
242.563
 20
346.660
 30
0.000000
  70
    32
  0
VERTEX
  8
┌▓È_1
  5
A1D
 10
242.600
 20
346.629
 30
0.000000
  70
    32
  0
VERTEX
  8
┌▓È_1
  5
A1E
 10
242.638
 20
346.598
 30
0.000000
  70
    32
  0
VERTEX
  8
┌▓È_1
  5
A1F
 10
242.675
 20
346.567
 30
0.000000
  70
    32
  0
VERTEX
  8
┌▓È_1
  5
A20
 10
242.712
 20
346.536
 30
0.000000
  70
    32
  0
VERTEX
  8
┌▓È_1
  5
A21
 10
242.749
 20
346.505
 30
0.000000
  70
    32
  0
VERTEX
  8
┌▓È_1
  5
A22
 10
242.786
 20
346.474
 30
0.000000
  70
    32
  0
VERTEX
  8
┌▓È_1
  5
A23
 10
242.824
 20
346.443
 30
0.000000
  70
    32
  0
VERTEX
  8
┌▓È_1
  5
A24
 10
242.861
 20
346.412
 30
0.000000
  70
    32
  0
VERTEX
  8
┌▓È_1
  5
A25
 10
242.898
 20
346.381
 30
0.000000
  70
    32
  0
VERTEX
  8
┌▓È_1
  5
A26
 10
242.936
 20
346.351
 30
0.000000
  70
    32
  0
VERTEX
  8
┌▓È_1
  5
A27
 10
242.973
 20
346.320
 30
0.000000
  70
    32
  0
VERTEX
  8
┌▓È_1
  5
A28
 10
243.010
 20
346.289
 30
0.000000
  70
    32
  0
VERTEX
  8
┌▓È_1
  5
A29
 10
243.048
 20
346.259
 30
0.000000
  70
    32
  0
VERTEX
  8
┌▓È_1
  5
A2A
 10
243.085
 20
346.228
 30
0.000000
  70
    32
  0
VERTEX
  8
┌▓È_1
  5
A2B
 10
243.123
 20
346.198
 30
0.000000
  70
    32
  0
VERTEX
  8
┌▓È_1
  5
A2C
 10
243.160
 20
346.167
 30
0.000000
  70
    32
  0
VERTEX
  8
┌▓È_1
  5
A2D
 10
243.198
 20
346.137
 30
0.000000
  70
    32
  0
VERTEX
  8
┌▓È_1
  5
A2E
 10
243.236
 20
346.107
 30
0.000000
  70
    32
  0
VERTEX
  8
┌▓È_1
  5
A2F
 10
243.273
 20
346.077
 30
0.000000
  70
    32
  0
VERTEX
  8
┌▓È_1
  5
A30
 10
243.311
 20
346.047
 30
0.000000
  70
    32
  0
VERTEX
  8
┌▓È_1
  5
A31
 10
243.349
 20
346.016
 30
0.000000
  70
    32
  0
VERTEX
  8
┌▓È_1
  5
A32
 10
243.386
 20
345.986
 30
0.000000
  70
    32
  0
VERTEX
  8
┌▓È_1
  5
A33
 10
243.424
 20
345.957
 30
0.000000
  70
    32
  0
VERTEX
  8
┌▓È_1
  5
A34
 10
243.462
 20
345.927
 30
0.000000
  70
    32
  0
VERTEX
  8
┌▓È_1
  5
A35
 10
243.500
 20
345.897
 30
0.000000
  70
    32
  0
VERTEX
  8
┌▓È_1
  5
A36
 10
243.538
 20
345.867
 30
0.000000
  70
    32
  0
VERTEX
  8
┌▓È_1
  5
A37
 10
243.576
 20
345.838
 30
0.000000
  70
    32
  0
VERTEX
  8
┌▓È_1
  5
A38
 10
243.614
 20
345.808
 30
0.000000
  70
    32
  0
VERTEX
  8
┌▓È_1
  5
A39
 10
243.652
 20
345.778
 30
0.000000
  70
    32
  0
VERTEX
  8
┌▓È_1
  5
A3A
 10
243.690
 20
345.749
 30
0.000000
  70
    32
  0
VERTEX
  8
┌▓È_1
  5
A3B
 10
243.728
 20
345.720
 30
0.000000
  70
    32
  0
VERTEX
  8
┌▓È_1
  5
A3C
 10
243.766
 20
345.690
 30
0.000000
  70
    32
  0
VERTEX
  8
┌▓È_1
  5
A3D
 10
243.804
 20
345.661
 30
0.000000
  70
    32
  0
VERTEX
  8
┌▓È_1
  5
A3E
 10
243.843
 20
345.632
 30
0.000000
  70
    32
  0
VERTEX
  8
┌▓È_1
  5
A3F
 10
243.881
 20
345.603
 30
0.000000
  70
    32
  0
VERTEX
  8
┌▓È_1
  5
A40
 10
243.919
 20
345.574
 30
0.000000
  70
    32
  0
VERTEX
  8
┌▓È_1
  5
A41
 10
243.957
 20
345.545
 30
0.000000
  70
    32
  0
VERTEX
  8
┌▓È_1
  5
A42
 10
243.996
 20
345.516
 30
0.000000
  70
    32
  0
VERTEX
  8
┌▓È_1
  5
A43
 10
244.034
 20
345.488
 30
0.000000
  70
    32
  0
VERTEX
  8
┌▓È_1
  5
A44
 10
244.073
 20
345.459
 30
0.000000
  70
    32
  0
VERTEX
  8
┌▓È_1
  5
A45
 10
244.111
 20
345.430
 30
0.000000
  70
    32
  0
VERTEX
  8
┌▓È_1
  5
A46
 10
244.150
 20
345.402
 30
0.000000
  70
    32
  0
VERTEX
  8
┌▓È_1
  5
A47
 10
244.188
 20
345.373
 30
0.000000
  70
    32
  0
VERTEX
  8
┌▓È_1
  5
A48
 10
244.227
 20
345.345
 30
0.000000
  70
    32
  0
VERTEX
  8
┌▓È_1
  5
A49
 10
244.266
 20
345.317
 30
0.000000
  70
    32
  0
VERTEX
  8
┌▓È_1
  5
A4A
 10
244.304
 20
345.288
 30
0.000000
  70
    32
  0
VERTEX
  8
┌▓È_1
  5
A4B
 10
244.343
 20
345.260
 30
0.000000
  70
    32
  0
VERTEX
  8
┌▓È_1
  5
A4C
 10
244.382
 20
345.232
 30
0.000000
  70
    32
  0
VERTEX
  8
┌▓È_1
  5
A4D
 10
244.421
 20
345.204
 30
0.000000
  70
    32
  0
VERTEX
  8
┌▓È_1
  5
A4E
 10
244.460
 20
345.177
 30
0.000000
  70
    32
  0
VERTEX
  8
┌▓È_1
  5
A4F
 10
244.499
 20
345.149
 30
0.000000
  70
    32
  0
VERTEX
  8
┌▓È_1
  5
A50
 10
244.538
 20
345.121
 30
0.000000
  70
    32
  0
VERTEX
  8
┌▓È_1
  5
A51
 10
244.577
 20
345.094
 30
0.000000
  70
    32
  0
VERTEX
  8
┌▓È_1
  5
A52
 10
244.616
 20
345.066
 30
0.000000
  70
    32
  0
VERTEX
  8
┌▓È_1
  5
A53
 10
244.655
 20
345.039
 30
0.000000
  70
    32
  0
VERTEX
  8
┌▓È_1
  5
A54
 10
244.694
 20
345.011
 30
0.000000
  70
    32
  0
VERTEX
  8
┌▓È_1
  5
A55
 10
244.734
 20
344.984
 30
0.000000
  70
    32
  0
VERTEX
  8
┌▓È_1
  5
A56
 10
244.773
 20
344.957
 30
0.000000
  70
    32
  0
VERTEX
  8
┌▓È_1
  5
A57
 10
244.812
 20
344.930
 30
0.000000
  70
    32
  0
VERTEX
  8
┌▓È_1
  5
A58
 10
244.852
 20
344.903
 30
0.000000
  70
    32
  0
VERTEX
  8
┌▓È_1
  5
A59
 10
244.891
 20
344.876
 30
0.000000
  70
    32
  0
VERTEX
  8
┌▓È_1
  5
A5A
 10
244.931
 20
344.849
 30
0.000000
  70
    32
  0
VERTEX
  8
┌▓È_1
  5
A5B
 10
244.970
 20
344.823
 30
0.000000
  70
    32
  0
VERTEX
  8
┌▓È_1
  5
A5C
 10
245.010
 20
344.796
 30
0.000000
  70
    32
  0
VERTEX
  8
┌▓È_1
  5
A5D
 10
245.050
 20
344.770
 30
0.000000
  70
    32
  0
VERTEX
  8
┌▓È_1
  5
A5E
 10
245.089
 20
344.743
 30
0.000000
  70
    32
  0
VERTEX
  8
┌▓È_1
  5
A5F
 10
245.129
 20
344.717
 30
0.000000
  70
    32
  0
VERTEX
  8
┌▓È_1
  5
A60
 10
245.169
 20
344.691
 30
0.000000
  70
    32
  0
VERTEX
  8
┌▓È_1
  5
A61
 10
245.209
 20
344.665
 30
0.000000
  70
    32
  0
VERTEX
  8
┌▓È_1
  5
A62
 10
245.249
 20
344.639
 30
0.000000
  70
    32
  0
VERTEX
  8
┌▓È_1
  5
A63
 10
245.289
 20
344.613
 30
0.000000
  70
    32
  0
VERTEX
  8
┌▓È_1
  5
A64
 10
245.329
 20
344.587
 30
0.000000
  70
    32
  0
VERTEX
  8
┌▓È_1
  5
A65
 10
245.369
 20
344.561
 30
0.000000
  70
    32
  0
VERTEX
  8
┌▓È_1
  5
A66
 10
245.409
 20
344.536
 30
0.000000
  70
    32
  0
VERTEX
  8
┌▓È_1
  5
A67
 10
245.449
 20
344.510
 30
0.000000
  70
    32
  0
VERTEX
  8
┌▓È_1
  5
A68
 10
245.489
 20
344.485
 30
0.000000
  70
    32
  0
VERTEX
  8
┌▓È_1
  5
A69
 10
245.530
 20
344.460
 30
0.000000
  70
    32
  0
VERTEX
  8
┌▓È_1
  5
A6A
 10
245.570
 20
344.434
 30
0.000000
  70
    32
  0
VERTEX
  8
┌▓È_1
  5
A6B
 10
245.610
 20
344.409
 30
0.000000
  70
    32
  0
VERTEX
  8
┌▓È_1
  5
A6C
 10
245.651
 20
344.384
 30
0.000000
  70
    32
  0
VERTEX
  8
┌▓È_1
  5
A6D
 10
245.691
 20
344.360
 30
0.000000
  70
    32
  0
VERTEX
  8
┌▓È_1
  5
A6E
 10
245.732
 20
344.335
 30
0.000000
  70
    32
  0
VERTEX
  8
┌▓È_1
  5
A6F
 10
245.773
 20
344.310
 30
0.000000
  70
    32
  0
VERTEX
  8
┌▓È_1
  5
A70
 10
245.813
 20
344.286
 30
0.000000
  70
    32
  0
SEQEND
  8
┌▓È_1
  5
A71
  0
INSERT
  5
606
  8
0
  6
CONTINUOUS
  2
*U157
 10
0.0
 20
0.0
 30
0.0
  0
LINE
  5
607
  8
┌▓È_1
 10
266.96469960669998
 20
393.63734375000001
 30
0.0
 11
266.96469960669998
 21
388.83734375
 31
0.0
  0
LINE
  5
608
  8
┌▓È_1
 10
234.51415755990001
 20
350.39068968380002
 30
0.0
 11
234.51415755990001
 21
347.39068968380002
 31
0.0
  0
LINE
  5
609
  8
┌▓È_1
 10
266.96469960669998
 20
388.83734375
 30
0.0
 11
276.5646996067
 21
386.43734375000003
 31
0.0
  0
LINE
  5
60A
  8
┌▓È_1
 10
239.83536968109999
 20
354.39068968380002
 30
0.0
 11
239.83536968109999
 21
350.7906896838
 31
0.0
  0
ARC
  5
60B
  8
┌▓È_1
 10
225.51415755990001
 20
346.39068968380002
 30
0.0
 40
6.0
 50
270.0
 51
0.0
  0
LINE
  5
60C
  8
┌▓È_1
 10
139.19286458330001
 20
402.23734374999992
 30
0.0
 11
139.19286458330001
 21
336.23734374999998
 31
0.0
  0
INSERT
  5
60D
  8
0
  6
CONTINUOUS
  2
*U158
 10
0.0
 20
0.0
 30
0.0
  0
INSERT
  5
60E
  8
0
  6
CONTINUOUS
  2
*U159
 10
0.0
 20
0.0
 30
0.0
  0
INSERT
  5
60F
  8
0
  6
CONTINUOUS
  2
*U160
 10
0.0
 20
0.0
 30
0.0
  0
INSERT
  5
610
  8
0
  6
CONTINUOUS
  2
*U161
 10
0.0
 20
0.0
 30
0.0
  0
LINE
  5
611
  8
┌▓È_1
 10
214.19286458330001
 20
380.23734374999998
 30
0.0
 11
214.19286458330001
 21
358.23734374999998
 31
0.0
  0
LINE
  5
612
  8
┌▓È_1
 10
139.19286458330001
 20
358.23734374999998
 30
0.0
 11
429.19286458329998
 21
358.23734374999998
 31
0.0
  0
LINE
  5
613
  8
┌▓È_1
 10
144.19286458330001
 20
369.23734374999998
 30
0.0
 11
209.19286458330001
 21
369.23734374999998
 31
0.0
  0
LINE
  5
614
  8
┌▓È_1
 10
219.19286458330001
 20
369.23734374999998
 30
0.0
 11
284.19286458329998
 21
369.23734374999998
 31
0.0
  0
INSERT
  5
615
  8
0
  6
CONTINUOUS
  2
*U162
 10
0.0
 20
0.0
 30
0.0
  0
INSERT
  5
616
  8
0
  6
CONTINUOUS
  2
*U163
 10
0.0
 20
0.0
 30
0.0
  0
LINE
  5
617
  8
┌▓È_1
 10
157.19286458330001
 20
412.23734374999998
 30
0.0
 11
157.19286458330001
 21
422.23734374999992
 31
0.0
  0
LINE
  5
618
  8
┌▓È_1
 10
139.19286458330001
 20
412.23734374999998
 30
0.0
 11
139.19286458330001
 21
422.23734374999992
 31
0.0
  0
LINE
  5
619
  8
┌▓È_1
 10
367.19286458329998
 20
412.23734374999998
 30
0.0
 11
367.19286458329998
 21
422.23734374999992
 31
0.0
  0
LINE
  5
61A
  8
┌▓È_1
 10
349.19286458329998
 20
412.23734374999998
 30
0.0
 11
349.19286458329998
 21
422.23734374999992
 31
0.0
  0
LINE
  5
61B
  8
┌▓È_1
 10
429.19286458329998
 20
422.23734374999992
 30
0.0
 11
139.19286458330001
 21
422.23734374999992
 31
0.0
  0
LINE
  5
61C
  8
┌▓È_1
 10
139.19286458330001
 20
412.23734374999998
 30
0.0
 11
429.19286458329998
 21
412.23734374999998
 31
0.0
  0
LINE
  5
61D
  8
┌▓È_1
 10
257.19286458330009
 20
412.23734374999998
 30
0.0
 11
257.19286458330009
 21
422.23734374999992
 31
0.0
  0
INSERT
  5
61E
  8
0
  6
CONTINUOUS
  2
*U164
 10
0.0
 20
0.0
 30
0.0
  0
INSERT
  5
61F
  8
0
  6
CONTINUOUS
  2
*U165
 10
0.0
 20
0.0
 30
0.0
  0
CIRCLE
  5
620
  8
┌▓È_1
 10
255.99286458329999
 20
391.23734374999998
 30
0.0
 40
2.399999999999999
  0
LINE
  5
621
  8
┌▓È_1
 10
266.96469960669998
 20
388.83734375
 30
0.0
 11
276.5646996067
 21
386.43734375000003
 31
0.0
  0
LINE
  5
622
  8
┌▓È_1
 10
266.96469960669998
 20
393.63734375000001
 30
0.0
 11
266.96469960669998
 21
388.83734375
 31
0.0
  0
LINE
  5
623
  8
┌▓È_1
 10
276.5646996067
 20
396.03734374999999
 30
0.0
 11
276.5646996067
 21
386.43734375000003
 31
0.0
  0
LINE
  5
624
  8
┌▓È_1
  6
BORDER
 10
255.99286458329999
 20
398.43734375000003
 30
0.0
 11
255.99286458329999
 21
384.03734374999999
 31
0.0
  0
LINE
  5
625
  8
┌▓È_1
  6
BORDER
 10
255.99286458329999
 20
398.43734375000003
 30
0.0
 11
255.99286458329999
 21
384.03734374999999
 31
0.0
  0
LINE
  5
626
  8
┌▓È_1
 10
276.5646996067
 20
396.03734374999999
 30
0.0
 11
276.5646996067
 21
386.43734375000003
 31
0.0
  0
LINE
  5
627
  8
┌▓È_1
 10
266.96469960669998
 20
393.63734375000001
 30
0.0
 11
266.96469960669998
 21
388.83734375
 31
0.0
  0
LINE
  5
628
  8
┌▓È_1
 10
266.96469960669998
 20
388.83734375
 30
0.0
 11
276.5646996067
 21
386.43734375000003
 31
0.0
  0
LINE
  5
629
  8
┌▓È_1
 10
266.96469960669998
 20
393.63734375000001
 30
0.0
 11
276.5646996067
 21
396.03734374999999
 31
0.0
  0
CIRCLE
  5
62A
  8
┌▓È_1
 10
255.99286458329999
 20
391.23734374999998
 30
0.0
 40
4.7999999999999989
  0
CIRCLE
  5
62B
  8
┌▓È_1
 10
255.99286458329999
 20
391.23734374999998
 30
0.0
 40
2.399999999999999
  0
CIRCLE
  5
62C
  8
┌▓È_1
 10
255.99286458329999
 20
391.23734374999998
 30
0.0
 40
4.7999999999999989
  0
LINE
  5
62D
  8
┌▓È_1
 10
266.96469960669998
 20
393.63734375000001
 30
0.0
 11
276.5646996067
 21
396.03734374999999
 31
0.0
  0
ENDBLK
  5
62E
  8
0
  0
BLOCK
  8
0
  2
CLUMP34
 70
     0
 10
0.0
 20
0.0
 30
0.0
  3
CLUMP34
  1

  0
LINE
  5
636
  8
┌▓È_1
 10
257.19286458330009
 20
542.23734375000004
 30
0.0
 11
257.19286458330009
 21
552.23734375000004
 31
0.0
  0
LINE
  5
637
  8
┌▓È_1
 10
139.19286458330001
 20
542.23734375000004
 30
0.0
 11
139.19286458330001
 21
552.23734375000004
 31
0.0
  0
LINE
  5
638
  8
┌▓È_1
 10
157.19286458330001
 20
542.23734375000004
 30
0.0
 11
157.19286458330001
 21
552.23734375000004
 31
0.0
  0
LINE
  5
639
  8
┌▓È_1
 10
367.19286458329998
 20
542.23734375000004
 30
0.0
 11
367.19286458329998
 21
552.23734375000004
 31
0.0
  0
LINE
  5
63A
  8
┌▓È_1
 10
349.19286458329998
 20
542.23734375000004
 30
0.0
 11
349.19286458329998
 21
552.23734375000004
 31
0.0
  0
LINE
  5
63B
  8
┌▓È_1
 10
429.19286458329998
 20
552.23734375000004
 30
0.0
 11
139.19286458330001
 21
552.23734375000004
 31
0.0
  0
ENDBLK
  5
63C
  8
0
  0
BLOCK
  8
0
  2
CLUMP35
 70
     0
 10
0.0
 20
0.0
 30
0.0
  3
CLUMP35
  1

  0
LINE
  5
644
  8
┌▓È_1
 10
257.19286458330009
 20
532.23734375000004
 30
0.0
 11
257.19286458330009
 21
542.23734375000004
 31
0.0
  0
LINE
  5
645
  8
┌▓È_1
 10
139.19286458330001
 20
532.23734375000004
 30
0.0
 11
139.19286458330001
 21
542.23734375000004
 31
0.0
  0
LINE
  5
646
  8
┌▓È_1
 10
157.19286458330001
 20
532.23734375000004
 30
0.0
 11
157.19286458330001
 21
542.23734375000004
 31
0.0
  0
LINE
  5
647
  8
┌▓È_1
 10
367.19286458329998
 20
532.23734375000004
 30
0.0
 11
367.19286458329998
 21
542.23734375000004
 31
0.0
  0
LINE
  5
648
  8
┌▓È_1
 10
349.19286458329998
 20
532.23734375000004
 30
0.0
 11
349.19286458329998
 21
542.23734375000004
 31
0.0
  0
LINE
  5
649
  8
┌▓È_1
 10
429.19286458329998
 20
542.23734375000004
 30
0.0
 11
139.19286458330001
 21
542.23734375000004
 31
0.0
  0
ENDBLK
  5
64A
  8
0
  0
BLOCK
  8
0
  2
CLUMP36
 70
     0
 10
0.0
 20
0.0
 30
0.0
  3
CLUMP36
  1

  0
LINE
  5
650
  8
┌▓È_1
 10
257.19286458330009
 20
522.23734375000004
 30
0.0
 11
257.19286458330009
 21
532.23734375000004
 31
0.0
  0
LINE
  5
651
  8
┌▓È_1
 10
139.19286458330001
 20
522.23734375000004
 30
0.0
 11
139.19286458330001
 21
532.23734375000004
 31
0.0
  0
LINE
  5
652
  8
┌▓È_1
 10
157.19286458330001
 20
522.23734375000004
 30
0.0
 11
157.19286458330001
 21
532.23734375000004
 31
0.0
  0
LINE
  5
653
  8
┌▓È_1
 10
367.19286458329998
 20
522.23734375000004
 30
0.0
 11
367.19286458329998
 21
532.23734375000004
 31
0.0
  0
LINE
  5
654
  8
┌▓È_1
 10
349.19286458329998
 20
522.23734375000004
 30
0.0
 11
349.19286458329998
 21
532.23734375000004
 31
0.0
  0
LINE
  5
655
  8
┌▓È_1
 10
429.19286458329998
 20
532.23734375000004
 30
0.0
 11
139.19286458330001
 21
532.23734375000004
 31
0.0
  0
ENDBLK
  5
656
  8
0
  0
BLOCK
  8
0
  2
*U60
 70
     1
 10
0.0
 20
0.0
 30
0.0
  3
*U60
  1

  0
TEXT
  5
672
  8
┌▓È_1
  6
CONTINUOUS
 10
334.2414536659569
 20
392.15869689523657
 30
0.0
 40
7.1966662884000003
  1
É¶æ¾ï@ûhÉàâpâôùp
  0
TEXT
  5
673
  8
┌▓È_1
  6
CONTINUOUS
 10
338.80786628549998
 20
379.39709576115331
 30
0.0
 40
7.1966662884000003
  1
ëíörÉàâgâëâbâv
  0
ENDBLK
  5
675
  8
0
  0
BLOCK
  8
0
  2
*U61
 70
     1
 10
0.0
 20
0.0
 30
0.0
  3
*U61
  1

  0
TEXT
  5
677
  8
┌▓È_1
  6
CONTINUOUS
 10
-68.619305391501527
 20
697.08970067659993
 30
0.0
 40
7.1966662884000003
  1
7
  0
ENDBLK
  5
679
  8
0
  0
BLOCK
  8
0
  2
*U62
 70
     1
 10
0.0
 20
0.0
 30
0.0
  3
*U62
  1

  0
TEXT
  5
67B
  8
┌▓È_1
  6
CONTINUOUS
 10
-68.436648886719794
 20
714.10571630159995
 30
0.0
 40
7.1966662884000003
  1
8
  0
ENDBLK
  5
67D
  8
0
  0
BLOCK
  8
0
  2
*U63
 70
     1
 10
0.0
 20
0.0
 30
0.0
  3
*U63
  1

  0
TEXT
  5
67F
  8
┌▓È_1
  6
CONTINUOUS
 10
-68.948087100108637
 20
731.52687515570005
 30
0.0
 40
7.1966662884000003
  1
1
  0
ENDBLK
  5
681
  8
0
  0
BLOCK
  8
0
  2
*U64
 70
     1
 10
0.0
 20
0.0
 30
0.0
  3
*U64
  1

  0
TEXT
  5
683
  8
┌▓È_1
  6
CONTINUOUS
 10
-68.473180187676149
 20
748.54289078069985
 30
0.0
 40
7.1966662884000003
  1
2
  0
ENDBLK
  5
685
  8
0
  0
BLOCK
  8
0
  2
*U65
 70
     1
 10
0.0
 20
0.0
 30
0.0
  3
*U65
  1

  0
TEXT
  5
687
  8
┌▓È_1
  6
CONTINUOUS
 10
-68.546242789588831
 20
765.55890640569987
 30
0.0
 40
7.1966662884000003
  1
6
  0
ENDBLK
  5
689
  8
0
  0
BLOCK
  8
0
  2
*U66
 70
     1
 10
0.0
 20
0.0
 30
0.0
  3
*U66
  1

  0
TEXT
  5
68B
  8
┌▓È_1
  6
CONTINUOUS
 10
-68.50971148863249
 20
436.97947932239992
 30
0.0
 40
7.1966662884000003
  1
9
  0
ENDBLK
  5
68D
  8
0
  0
BLOCK
  8
0
  2
*U67
 70
     1
 10
0.0
 20
0.0
 30
0.0
  3
*U67
  1

  0
TEXT
  5
68F
  8
┌▓È_1
  6
CONTINUOUS
 10
-68.436648886719794
 20
399.0117709891
 30
0.0
 40
7.1966662884000003
  1
3
  0
ENDBLK
  5
691
  8
0
  0
BLOCK
  8
0
  2
*U68
 70
     1
 10
0.0
 20
0.0
 30
0.0
  3
*U68
  1

  0
TEXT
  5
693
  8
┌▓È_1
  6
CONTINUOUS
 10
-68.327054983850758
 20
363.75604182239999
 30
0.0
 40
7.1966662884000003
  1
4
  0
ENDBLK
  5
695
  8
0
  0
BLOCK
  8
0
  2
*U69
 70
     1
 10
0.0
 20
0.0
 30
0.0
  3
*U69
  1

  0
TEXT
  5
697
  8
┌▓È_1
  6
CONTINUOUS
 10
-68.436648886719794
 20
417.3176303640999
 30
0.0
 40
7.1966662884000003
  1
5
  0
ENDBLK
  5
699
  8
0
  0
BLOCK
  8
0
  2
*U70
 70
     1
 10
0.0
 20
0.0
 30
0.0
  3
*U70
  1

  0
TEXT
  5
69B
  8
┌▓È_1
  6
CONTINUOUS
 10
-71.064753655508625
 20
783.16196630159993
 30
0.0
 40
7.1966662884000003
  1
11
  0
ENDBLK
  5
69D
  8
0
  0
BLOCK
  8
0
  2
*U71
 70
     1
 10
0.0
 20
0.0
 30
0.0
  3
*U71
  1

  0
TEXT
  5
69F
  8
┌▓È_1
  6
CONTINUOUS
 10
-71.064753655508625
 20
380.70591161409999
 30
0.0
 40
7.1966662884000003
  1
10
  0
ENDBLK
  5
6A1
  8
0
  0
BLOCK
  8
0
  2
*U72
 70
     1
 10
0.0
 20
0.0
 30
0.0
  3
*U72
  1

  0
TEXT
  5
6A3
  8
┌▓È_1
  6
CONTINUOUS
 10
-257.63732625581321
 20
815.07043945709904
 30
0.0
 40
4.0481248378999997
  1
N
 50
19.999999998341838
  0
ENDBLK
  5
6A5
  8
0
  0
BLOCK
  8
0
  2
*U73
 70
     1
 10
0.0
 20
0.0
 30
0.0
  3
*U73
  1

  0
TEXT
  5
6A7
  8
┌▓È_1
  6
CONTINUOUS
 10
-270.5655427988566
 20
807.4392779307309
 30
0.0
 40
4.0481248378999997
  1
O
 50
37.999999999078653
  0
ENDBLK
  5
6A9
  8
0
  0
BLOCK
  8
0
  2
*U74
 70
     1
 10
0.0
 20
0.0
 30
0.0
  3
*U74
  1

  0
TEXT
  5
6AB
  8
┌▓È_1
  6
CONTINUOUS
 10
-266.58626980032989
 20
810.39626860605165
 30
0.0
 40
4.0481248378999997
  1
P
 50
31.99999999706359
  0
ENDBLK
  5
6AD
  8
0
  0
BLOCK
  8
0
  2
*U75
 70
     1
 10
0.0
 20
0.0
 30
0.0
  3
*U75
  1

  0
TEXT
  5
6AF
  8
┌▓È_1
  6
CONTINUOUS
 10
-262.25819213157467
 20
812.95828500427024
 30
0.0
 40
4.0481248378999997
  1
E
 50
26.000000000541561
  0
ENDBLK
  5
6B1
  8
0
  0
BLOCK
  8
0
  2
*U76
 70
     1
 10
0.0
 20
0.0
 30
0.0
  3
*U76
  1

  0
TEXT
  5
6B3
  8
┌▓È_1
  6
CONTINUOUS
 10
-207.70516632050951
 20
805.89312465325906
 30
0.0
 40
4.0481248378999997
  1
E
 50
315.99999999677169
  0
ENDBLK
  5
6B5
  8
0
  0
BLOCK
  8
0
  2
*U77
 70
     1
 10
0.0
 20
0.0
 30
0.0
  3
*U77
  1

  0
TEXT
  5
6B7
  8
┌▓È_1
  6
CONTINUOUS
 10
183.70259064160609
 20
704.71497043389979
 30
0.0
 40
7.1966662884000003
  1
13
  0
ENDBLK
  5
6B9
  8
0
  0
BLOCK
  8
0
  2
*U78
 70
     1
 10
0.0
 20
0.0
 30
0.0
  3
*U78
  1

  0
TEXT
  5
6BB
  8
┌▓È_1
  6
CONTINUOUS
 10
-211.54438580756189
 20
809.04597266557346
 30
0.0
 40
4.0481248378999997
  1
S
 50
322.00000000092137
  0
ENDBLK
  5
6BD
  8
0
  0
BLOCK
  8
0
  2
*U79
 70
     1
 10
0.0
 20
0.0
 30
0.0
  3
*U79
  1

  0
TEXT
  5
6BF
  8
┌▓È_1
  6
CONTINUOUS
 10
-220.2147249319442
 20
814.13833641397412
 30
0.0
 40
4.0481248378999997
  1
L
 50
333.99999999945851
  0
ENDBLK
  5
6C1
  8
0
  0
BLOCK
  8
0
  2
*U80
 70
     1
 10
0.0
 20
0.0
 30
0.0
  3
*U80
  1

  0
TEXT
  5
6C3
  8
┌▓È_1
  6
CONTINUOUS
 10
-215.73261780713861
 20
811.81186918274329
 30
0.0
 40
4.0481248378999997
  1
O
 50
328.00000000293642
  0
ENDBLK
  5
6C5
  8
0
  0
BLOCK
  8
0
  2
*U81
 70
     1
 10
0.0
 20
0.0
 30
0.0
  3
*U81
  1

  0
TEXT
  5
6C7
  8
┌▓È_1
  6
CONTINUOUS
 10
-224.88775686357289
 20
815.97003920509405
 30
0.0
 40
4.0481248378999997
  1
C
 50
340.00000000165812
  0
ENDBLK
  5
6C9
  8
0
  0
BLOCK
  8
0
  2
*U82
 70
     1
 10
0.0
 20
0.0
 30
0.0
  3
*U82
  1

  0
TEXT
  5
6CB
  8
┌▓È_1
  6
CONTINUOUS
 10
146.62506288193879
 20
424.76812170789998
 30
0.0
 40
5.9972220420999998
  1
1
  0
ENDBLK
  5
6CD
  8
0
  0
BLOCK
  8
0
  2
*U83
 70
     1
 10
0.0
 20
0.0
 30
0.0
  3
*U83
  1

  0
TEXT
  5
6CF
  8
┌▓È_1
  6
CONTINUOUS
 10
146.2445284884046
 20
474.76812170789998
 30
0.0
 40
5.9972220420999998
  1
6
  0
ENDBLK
  5
6D1
  8
0
  0
BLOCK
  8
0
  2
*U84
 70
     1
 10
0.0
 20
0.0
 30
0.0
  3
*U84
  1

  0
TEXT
  5
6D3
  8
┌▓È_1
  6
CONTINUOUS
 10
146.27497123988729
 20
494.76812170789998
 30
0.0
 40
5.9972220420999998
  1
8
  0
ENDBLK
  5
6D5
  8
0
  0
BLOCK
  8
0
  2
*U85
 70
     1
 10
0.0
 20
0.0
 30
0.0
  3
*U85
  1

  0
TEXT
  5
6D7
  8
┌▓È_1
  6
CONTINUOUS
 10
146.2597498641459
 20
484.76812170789992
 30
0.0
 40
5.9972220420999998
  1
7
  0
ENDBLK
  5
6D9
  8
0
  0
BLOCK
  8
0
  2
*U86
 70
     1
 10
0.0
 20
0.0
 30
0.0
  3
*U86
  1

  0
TEXT
  5
6DB
  8
┌▓È_1
  6
CONTINUOUS
 10
146.27497123988729
 20
434.76812170789992
 30
0.0
 40
5.9972220420999998
  1
2
  0
ENDBLK
  5
6DD
  8
0
  0
BLOCK
  8
0
  2
*U87
 70
     1
 10
0.0
 20
0.0
 30
0.0
  3
*U87
  1

  0
TEXT
  5
6DF
  8
┌▓È_1
  6
CONTINUOUS
 10
148.65183995136061
 20
383.20651344110001
 30
0.0
 40
5.9972220420999998
  1
H16.4.13
  0
ENDBLK
  5
6E1
  8
0
  0
BLOCK
  8
0
  2
*U88
 70
     1
 10
0.0
 20
0.0
 30
0.0
  3
*U88
  1

  0
TEXT
  5
6E3
  8
┌▓È_1
  6
CONTINUOUS
 10
334.78942318030198
 20
344.27367746160002
 30
0.0
 40
7.1966662884000003
  1
érégéoéOéOéOéQéR
  0
ENDBLK
  5
6E5
  8
0
  0
BLOCK
  8
0
  2
*U89
 70
     1
 10
0.0
 20
0.0
 30
0.0
  3
*U89
  1

  0
TEXT
  5
6E7
  8
┌▓È_1
  6
CONTINUOUS
 10
353.67610577473249
 20
366.27367746160002
 30
0.0
 40
7.1966662884000003
  1
éaésü|éx
  0
ENDBLK
  5
6E9
  8
0
  0
BLOCK
  8
0
  2
*U90
 70
     1
 10
0.0
 20
0.0
 30
0.0
  3
*U90
  1

  0
TEXT
  5
6EB
  8
┌▓È_1
  6
CONTINUOUS
 10
146.30541399136999
 20
464.76812170789992
 30
0.0
 40
5.9972220420999998
  1
5
  0
ENDBLK
  5
6ED
  8
0
  0
BLOCK
  8
0
  2
*U91
 70
     1
 10
0.0
 20
0.0
 30
0.0
  3
*U91
  1

  0
TEXT
  5
6EF
  8
┌▓È_1
  6
CONTINUOUS
 10
144.06787175738859
 20
514.76812170790004
 30
0.0
 40
5.9972220420999998
  1
10
  0
ENDBLK
  5
6F1
  8
0
  0
BLOCK
  8
0
  2
*U92
 70
     1
 10
0.0
 20
0.0
 30
0.0
  3
*U92
  1

  0
TEXT
  5
6F3
  8
┌▓È_1
  6
CONTINUOUS
 10
146.27497123988729
 20
504.76812170789992
 30
0.0
 40
5.9972220420999998
  1
9
  0
ENDBLK
  5
6F5
  8
0
  0
BLOCK
  8
0
  2
*U93
 70
     1
 10
0.0
 20
0.0
 30
0.0
  3
*U93
  1

  0
TEXT
  5
6F7
  8
┌▓È_1
  6
CONTINUOUS
 10
250.3072755287549
 20
371.91642061367253
 30
0.0
 40
5.9972220420999998
  1
û÷ü@î┤
  0
ENDBLK
  5
6F9
  8
0
  0
BLOCK
  8
0
  2
*U94
 70
     1
 10
0.0
 20
0.0
 30
0.0
  3
*U94
  1

  0
TEXT
  5
6FB
  8
┌▓È_1
  6
CONTINUOUS
 10
250.3072755287549
 20
360.91642061367253
 30
0.0
 40
5.9972220420999998
  1
û÷ü@î┤
  0
ENDBLK
  5
6FD
  8
0
  0
BLOCK
  8
0
  2
*U95
 70
     1
 10
0.0
 20
0.0
 30
0.0
  3
*U95
  1

  0
TEXT
  5
6FF
  8
┌▓È_1
  6
CONTINUOUS
 10
175.4899320376513
 20
372.06863437108632
 30
0.0
 40
5.9972220420999998
  1
ëÇü@î┤
  0
ENDBLK
  5
701
  8
0
  0
BLOCK
  8
0
  2
*U96
 70
     1
 10
0.0
 20
0.0
 30
0.0
  3
*U96
  1

  0
TEXT
  5
703
  8
┌▓È_1
  6
CONTINUOUS
 10
-8.9539488121000002
 20
605.83823288357382
 30
0.0
 40
5.9972220420999998
  1
éP
 50
90.0
  0
ENDBLK
  5
705
  8
0
  0
BLOCK
  8
0
  2
*U97
 70
     1
 10
0.0
 20
0.0
 30
0.0
  3
*U97
  1

  0
TEXT
  5
707
  8
┌▓È_1
  6
CONTINUOUS
 10
-8.5747132155365478
 20
521.81203107579995
 30
0.0
 40
7.1966662884000003
  1
âË60.6 ü}0.3 (50A)
 50
90.0
  0
ENDBLK
  5
709
  8
0
  0
BLOCK
  8
0
  2
*U98
 70
     1
 10
0.0
 20
0.0
 30
0.0
  3
*U98
  1

  0
TEXT
  5
70B
  8
┌▓È_1
  6
CONTINUOUS
 10
260.93204623960588
 20
879.00984383110006
 30
0.0
 40
5.3974999188999986
  1
H17.2.8
  0
ENDBLK
  5
70D
  8
0
  0
BLOCK
  8
0
  2
*U99
 70
     1
 10
0.0
 20
0.0
 30
0.0
  3
*U99
  1

  0
TEXT
  5
70F
  8
┌▓È_1
  6
CONTINUOUS
 10
247.21327225453601
 20
877.8010592963999
 30
0.0
 40
5.397499935199999
  1
1
  0
ENDBLK
  5
711
  8
0
  0
BLOCK
  8
0
  2
*U100
 70
     1
 10
0.0
 20
0.0
 30
0.0
  3
*U100
  1

  0
TEXT
  5
713
  8
┌▓È_1
  6
CONTINUOUS
 10
318.6029093089175
 20
878.63126515666033
 30
0.0
 40
5.3974999188999986
  1
Éíû@î÷ìÀÆÃïL
  0
ENDBLK
  5
715
  8
0
  0
BLOCK
  8
0
  2
*U101
 70
     1
 10
0.0
 20
0.0
 30
0.0
  3
*U101
  1

  0
TEXT
  5
717
  8
┌▓È_1
  6
CONTINUOUS
 10
392.61723016433558
 20
878.87285144737154
 30
0.0
 40
5.3974999188999986
  1
ëÇî┤
  0
ENDBLK
  5
719
  8
0
  0
BLOCK
  8
0
  2
*U102
 70
     1
 10
0.0
 20
0.0
 30
0.0
  3
*U102
  1

  0
TEXT
  5
71B
  8
┌▓È_1
  6
CONTINUOUS
 10
146.2597498641459
 20
454.76812170789992
 30
0.0
 40
5.9972220420999998
  1
4
  0
ENDBLK
  5
71D
  8
0
  0
BLOCK
  8
0
  2
*U103
 70
     1
 10
0.0
 20
0.0
 30
0.0
  3
*U103
  1

  0
TEXT
  5
71F
  8
┌▓È_1
  6
CONTINUOUS
 10
146.30541399136999
 20
444.76812170789998
 30
0.0
 40
5.9972220420999998
  1
3
  0
ENDBLK
  5
721
  8
0
  0
BLOCK
  8
0
  2
*U104
 70
     1
 10
0.0
 20
0.0
 30
0.0
  3
*U104
  1

  0
TEXT
  5
723
  8
┌▓È_1
  6
CONTINUOUS
 10
383.04759572063631
 20
424.64635070196903
 30
0.0
 40
5.9972220420999998
  1
âzâÅâCâg
  0
ENDBLK
  5
725
  8
0
  0
BLOCK
  8
0
  2
*U105
 70
     1
 10
0.0
 20
0.0
 30
0.0
  3
*U105
  1

  0
TEXT
  5
727
  8
┌▓È_1
  6
CONTINUOUS
 10
356.6250628819389
 20
424.76812170789998
 30
0.0
 40
5.9972220420999998
  1
1
  0
ENDBLK
  5
729
  8
0
  0
BLOCK
  8
0
  2
*U106
 70
     1
 10
0.0
 20
0.0
 30
0.0
  3
*U106
  1

  0
TEXT
  5
72B
  8
┌▓È_1
  6
CONTINUOUS
 10
176.23258632535229
 20
514.43325144158985
 30
0.0
 40
5.9972220420999998
  1
ëíê°é½û{æ╠âPü[âX
  0
ENDBLK
  5
72D
  8
0
  0
BLOCK
  8
0
  2
*U107
 70
     1
 10
0.0
 20
0.0
 30
0.0
  3
*U107
  1

  0
TEXT
  5
72F
  8
┌▓È_1
  6
CONTINUOUS
 10
356.6250628819389
 20
444.76812170789998
 30
0.0
 40
5.9972220420999998
  1
1
  0
ENDBLK
  5
731
  8
0
  0
BLOCK
  8
0
  2
*U108
 70
     1
 10
0.0
 20
0.0
 30
0.0
  3
*U108
  1

  0
TEXT
  5
733
  8
┌▓È_1
  6
CONTINUOUS
 10
284.31835866400053
 20
444.49413694455529
 30
0.0
 40
5.9972220420999998
  1
é`éaérÄ¸Äë
  0
ENDBLK
  5
735
  8
0
  0
BLOCK
  8
0
  2
*U109
 70
     1
 10
0.0
 20
0.0
 30
0.0
  3
*U109
  1

  0
TEXT
  5
737
  8
┌▓È_1
  6
CONTINUOUS
 10
188.45535104567281
 20
444.5550224475208
 30
0.0
 40
5.9972220420999998
  1
âVâàü[â^ü[
  0
ENDBLK
  5
739
  8
0
  0
BLOCK
  8
0
  2
*U110
 70
     1
 10
0.0
 20
0.0
 30
0.0
  3
*U110
  1

  0
TEXT
  5
73B
  8
┌▓È_1
  6
CONTINUOUS
 10
356.6250628819389
 20
434.76812170789992
 30
0.0
 40
5.9972220420999998
  1
1
  0
ENDBLK
  5
73D
  8
0
  0
BLOCK
  8
0
  2
*U111
 70
     1
 10
0.0
 20
0.0
 30
0.0
  3
*U111
  1

  0
TEXT
  5
73F
  8
┌▓È_1
  6
CONTINUOUS
 10
284.31835866400053
 20
434.49413694455529
 30
0.0
 40
5.9972220420999998
  1
é`éaérÄ¸Äë
  0
ENDBLK
  5
741
  8
0
  0
BLOCK
  8
0
  2
*U112
 70
     1
 10
0.0
 20
0.0
 30
0.0
  3
*U112
  1

  0
TEXT
  5
743
  8
┌▓È_1
  6
CONTINUOUS
 10
192.51945836861881
 20
434.76812170789992
 30
0.0
 40
5.9972220420999998
  1
û┌ü@ü@ÄM
  0
ENDBLK
  5
745
  8
0
  0
BLOCK
  8
0
  2
*U113
 70
     1
 10
0.0
 20
0.0
 30
0.0
  3
*U113
  1

  0
TEXT
  5
747
  8
┌▓È_1
  6
CONTINUOUS
 10
188.1813662823281
 20
464.43325144158979
 30
0.0
 40
5.9972220420999998
  1
Å┴ü@ûAü@èÃ
  0
ENDBLK
  5
749
  8
0
  0
BLOCK
  8
0
  2
*U114
 70
     1
 10
0.0
 20
0.0
 30
0.0
  3
*U114
  1

  0
TEXT
  5
74B
  8
┌▓È_1
  6
CONTINUOUS
 10
356.6250628819389
 20
454.76812170789992
 30
0.0
 40
5.9972220420999998
  1
1
  0
ENDBLK
  5
74D
  8
0
  0
BLOCK
  8
0
  2
*U115
 70
     1
 10
0.0
 20
0.0
 30
0.0
  3
*U115
  1

  0
TEXT
  5
74F
  8
┌▓È_1
  6
CONTINUOUS
 10
284.31835866400053
 20
454.49413694455529
 30
0.0
 40
5.9972220420999998
  1
é`éaérÄ¸Äë
  0
ENDBLK
  5
751
  8
0
  0
BLOCK
  8
0
  2
*U116
 70
     1
 10
0.0
 20
0.0
 30
0.0
  3
*U116
  1

  0
TEXT
  5
753
  8
┌▓È_1
  6
CONTINUOUS
 10
187.93782427046619
 20
454.64635070196903
 30
0.0
 40
5.9972220420999998
  1
âIü@âÅü@âô
  0
ENDBLK
  5
755
  8
0
  0
BLOCK
  8
0
  2
*U117
 70
     1
 10
0.0
 20
0.0
 30
0.0
  3
*U117
  1

  0
TEXT
  5
757
  8
┌▓È_1
  6
CONTINUOUS
 10
184.17814446234769
 20
484.49413694455529
 30
0.0
 40
5.9972220420999998
  1
ûhÉàâpâbâLâô
  0
ENDBLK
  5
759
  8
0
  0
BLOCK
  8
0
  2
*U118
 70
     1
 10
0.0
 20
0.0
 30
0.0
  3
*U118
  1

  0
TEXT
  5
75B
  8
┌▓È_1
  6
CONTINUOUS
 10
356.6250628819389
 20
474.76812170789998
 30
0.0
 40
5.9972220420999998
  1
1
  0
ENDBLK
  5
75D
  8
0
  0
BLOCK
  8
0
  2
*U119
 70
     1
 10
0.0
 20
0.0
 30
0.0
  3
*U119
  1

  0
TEXT
  5
75F
  8
┌▓È_1
  6
CONTINUOUS
 10
280.46735060143379
 20
474.76812170789998
 30
0.0
 40
5.9972220420999998
  1
âGâëâXâgâ}ü[
  0
ENDBLK
  5
761
  8
0
  0
BLOCK
  8
0
  2
*U120
 70
     1
 10
0.0
 20
0.0
 30
0.0
  3
*U120
  1

  0
TEXT
  5
763
  8
┌▓È_1
  6
CONTINUOUS
 10
175.4899320376513
 20
361.06863437108632
 30
0.0
 40
5.9972220420999998
  1
ëÇü@î┤
  0
ENDBLK
  5
765
  8
0
  0
BLOCK
  8
0
  2
*U121
 70
     1
 10
0.0
 20
0.0
 30
0.0
  3
*U121
  1

  0
TEXT
  5
767
  8
┌▓È_1
  6
CONTINUOUS
 10
188.1813662823281
 20
474.25059493269328
 30
0.0
 40
5.9972220420999998
  1
örÉàâGâïâ{
  0
ENDBLK
  5
769
  8
0
  0
BLOCK
  8
0
  2
*U122
 70
     1
 10
0.0
 20
0.0
 30
0.0
  3
*U122
  1

  0
TEXT
  5
76B
  8
┌▓È_1
  6
CONTINUOUS
 10
356.6250628819389
 20
464.76812170789992
 30
0.0
 40
5.9972220420999998
  1
1
  0
ENDBLK
  5
76D
  8
0
  0
BLOCK
  8
0
  2
*U123
 70
     1
 10
0.0
 20
0.0
 30
0.0
  3
*U123
  1

  0
TEXT
  5
76F
  8
┌▓È_1
  6
CONTINUOUS
 10
383.04759572063631
 20
464.64635070196903
 30
0.0
 40
5.9972220420999998
  1
âzâÅâCâg
  0
ENDBLK
  5
771
  8
0
  0
BLOCK
  8
0
  2
*U124
 70
     1
 10
0.0
 20
0.0
 30
0.0
  3
*U124
  1

  0
TEXT
  5
773
  8
┌▓È_1
  6
CONTINUOUS
 10
284.31835866400053
 20
464.49413694455529
 30
0.0
 40
5.9972220420999998
  1
é`éaérÄ¸Äë
  0
ENDBLK
  5
775
  8
0
  0
BLOCK
  8
0
  2
*U125
 70
     1
 10
0.0
 20
0.0
 30
0.0
  3
*U125
  1

  0
TEXT
  5
777
  8
┌▓È_1
  6
CONTINUOUS
 10
383.04759572063631
 20
474.64635070196903
 30
0.0
 40
5.9972220420999998
  1
âzâÅâCâg
  0
ENDBLK
  5
779
  8
0
  0
BLOCK
  8
0
  2
*U126
 70
     1
 10
0.0
 20
0.0
 30
0.0
  3
*U126
  1

  0
TEXT
  5
77B
  8
┌▓È_1
  6
CONTINUOUS
 10
356.6250628819389
 20
504.76812170789992
 30
0.0
 40
5.9972220420999998
  1
1
  0
ENDBLK
  5
77D
  8
0
  0
BLOCK
  8
0
  2
*U127
 70
     1
 10
0.0
 20
0.0
 30
0.0
  3
*U127
  1

  0
TEXT
  5
77F
  8
┌▓È_1
  6
CONTINUOUS
 10
394.55495578111248
 20
504.76812170789992
 30
0.0
 40
5.9972220420999998
  1
ìò
  0
ENDBLK
  5
781
  8
0
  0
BLOCK
  8
0
  2
*U128
 70
     1
 10
0.0
 20
0.0
 30
0.0
  3
*U128
  1

  0
TEXT
  5
783
  8
┌▓È_1
  6
CONTINUOUS
 10
289.35663403439418
 20
504.76812170789992
 30
0.0
 40
5.9972220420999998
  1
édéoécél
  0
ENDBLK
  5
785
  8
0
  0
BLOCK
  8
0
  2
*U129
 70
     1
 10
0.0
 20
0.0
 30
0.0
  3
*U129
  1

  0
TEXT
  5
787
  8
┌▓È_1
  6
CONTINUOUS
 10
184.17814446234769
 20
504.43325144158979
 30
0.0
 40
5.9972220420999998
  1
ûhÅLâpâbâLâô
  0
ENDBLK
  5
789
  8
0
  0
BLOCK
  8
0
  2
*U130
 70
     1
 10
0.0
 20
0.0
 30
0.0
  3
*U130
  1

  0
TEXT
  5
78B
  8
┌▓È_1
  6
CONTINUOUS
 10
356.6250628819389
 20
494.76812170789998
 30
0.0
 40
5.9972220420999998
  1
1
  0
ENDBLK
  5
78D
  8
0
  0
BLOCK
  8
0
  2
*U131
 70
     1
 10
0.0
 20
0.0
 30
0.0
  3
*U131
  1

  0
TEXT
  5
78F
  8
┌▓È_1
  6
CONTINUOUS
 10
378.98348839769039
 20
494.76812170789998
 30
0.0
 40
5.9972220420999998
  1
âiâ`âàâëâï
  0
ENDBLK
  5
791
  8
0
  0
BLOCK
  8
0
  2
*U132
 70
     1
 10
0.0
 20
0.0
 30
0.0
  3
*U132
  1

  0
TEXT
  5
793
  8
┌▓È_1
  6
CONTINUOUS
 10
288.53467974436018
 20
494.49413694455529
 30
0.0
 40
5.9972220420999998
  1
éoéoÄ¸Äë
  0
ENDBLK
  5
795
  8
0
  0
BLOCK
  8
0
  2
*U133
 70
     1
 10
0.0
 20
0.0
 30
0.0
  3
*U133
  1

  0
TEXT
  5
797
  8
┌▓È_1
  6
CONTINUOUS
 10
184.74133536477839
 20
494.58546519900352
 30
0.0
 40
5.9972220420999998
  1
éoéoâpâbâLâô
  0
ENDBLK
  5
799
  8
0
  0
BLOCK
  8
0
  2
*U134
 70
     1
 10
0.0
 20
0.0
 30
0.0
  3
*U134
  1

  0
TEXT
  5
79B
  8
┌▓È_1
  6
CONTINUOUS
 10
356.6250628819389
 20
484.76812170789992
 30
0.0
 40
5.9972220420999998
  1
1
  0
ENDBLK
  5
79D
  8
0
  0
BLOCK
  8
0
  2
*U135
 70
     1
 10
0.0
 20
0.0
 30
0.0
  3
*U135
  1

  0
TEXT
  5
79F
  8
┌▓È_1
  6
CONTINUOUS
 10
188.54667930012101
 20
424.34192318714162
 30
0.0
 40
5.9972220420999998
  1
âìâbâNâlâW
  0
ENDBLK
  5
7A1
  8
0
  0
BLOCK
  8
0
  2
*U136
 70
     1
 10
0.0
 20
0.0
 30
0.0
  3
*U136
  1

  0
TEXT
  5
7A3
  8
┌▓È_1
  6
CONTINUOUS
 10
206.23208507056319
 20
383.20651344110001
 30
0.0
 40
5.9972220420999998
  1
1üF2
  0
ENDBLK
  5
7A5
  8
0
  0
BLOCK
  8
0
  2
*U137
 70
     1
 10
0.0
 20
0.0
 30
0.0
  3
*U137
  1

  0
TEXT
  5
7A7
  8
┌▓È_1
  6
CONTINUOUS
 10
356.6250628819389
 20
514.76812170790004
 30
0.0
 40
5.9972220420999998
  1
1
  0
ENDBLK
  5
7A9
  8
0
  0
BLOCK
  8
0
  2
*U138
 70
     1
 10
0.0
 20
0.0
 30
0.0
  3
*U138
  1

  0
TEXT
  5
7AB
  8
┌▓È_1
  6
CONTINUOUS
 10
378.98348839769039
 20
514.76812170790004
 30
0.0
 40
5.9972220420999998
  1
âiâ`âàâëâï
  0
ENDBLK
  5
7AD
  8
0
  0
BLOCK
  8
0
  2
*U139
 70
     1
 10
0.0
 20
0.0
 30
0.0
  3
*U139
  1

  0
TEXT
  5
7AF
  8
┌▓È_1
  6
CONTINUOUS
 10
284.31835866400053
 20
514.49413694455541
 30
0.0
 40
5.9972220420999998
  1
é`éaérÄ¸Äë
  0
ENDBLK
  5
7B1
  8
0
  0
BLOCK
  8
0
  2
*U140
 70
     1
 10
0.0
 20
0.0
 30
0.0
  3
*U140
  1

  0
TEXT
  5
7B3
  8
┌▓È_1
  6
CONTINUOUS
 10
176.58267796740381
 20
524.40280869010712
 30
0.0
 40
5.9972220420999998
  1
âzü[âXî┼ÆÞâoâôâh
  0
ENDBLK
  5
7B5
  8
0
  0
BLOCK
  8
0
  2
*U141
 70
     1
 10
0.0
 20
0.0
 30
0.0
  3
*U141
  1

  0
TEXT
  5
7B7
  8
┌▓È_1
  6
CONTINUOUS
 10
276.8446631749876
 20
524.49413694455541
 30
0.0
 40
5.9972220420999998
  1
éUâiâCâìâôÄ¸Äë
  0
ENDBLK
  5
7B9
  8
0
  0
BLOCK
  8
0
  2
*U142
 70
     1
 10
0.0
 20
0.0
 30
0.0
  3
*U142
  1

  0
TEXT
  5
7BB
  8
┌▓È_1
  6
CONTINUOUS
 10
394.55495578111248
 20
524.76812170790004
 30
0.0
 40
5.9972220420999998
  1
ìò
  0
ENDBLK
  5
7BD
  8
0
  0
BLOCK
  8
0
  2
*U143
 70
     1
 10
0.0
 20
0.0
 30
0.0
  3
*U143
  1

  0
TEXT
  5
7BF
  8
┌▓È_1
  6
CONTINUOUS
 10
356.6250628819389
 20
524.76812170790004
 30
0.0
 40
5.9972220420999998
  1
1
  0
ENDBLK
  5
7C1
  8
0
  0
BLOCK
  8
0
  2
*U144
 70
     1
 10
0.0
 20
0.0
 30
0.0
  3
*U144
  1

  0
TEXT
  5
7C3
  8
┌▓È_1
  6
CONTINUOUS
 10
412.45283930386142
 20
878.73585906364315
 30
0.0
 40
5.3974999188999986
  1
û÷î┤
  0
ENDBLK
  5
7C5
  8
0
  0
BLOCK
  8
0
  2
*U145
 70
     1
 10
0.0
 20
0.0
 30
0.0
  3
*U145
  1

  0
TEXT
  5
7C7
  8
┌▓È_1
  6
CONTINUOUS
 10
284.31835866400053
 20
424.49413694455541
 30
0.0
 40
5.9972220420999998
  1
é`éaérÄ¸Äë
  0
ENDBLK
  5
7C9
  8
0
  0
BLOCK
  8
0
  2
*U146
 70
     1
 10
0.0
 20
0.0
 30
0.0
  3
*U146
  1

  0
TEXT
  5
7CB
  8
┌▓È_1
  6
CONTINUOUS
 10
315.05480657035127
 20
888.73585906364315
 30
0.0
 40
5.3974999188999986
  1
ë³ü@Æ¨ü@ôÓü@ùe
  0
ENDBLK
  5
7CD
  8
0
  0
BLOCK
  8
0
  2
*U147
 70
     1
 10
0.0
 20
0.0
 30
0.0
  3
*U147
  1

  0
TEXT
  5
7CF
  8
┌▓È_1
  6
CONTINUOUS
 10
262.9047365652952
 20
888.79065601713444
 30
0.0
 40
5.3974999188999986
  1
ë³Æ¨ô·
  0
ENDBLK
  5
7D1
  8
0
  0
BLOCK
  8
0
  2
*U148
 70
     1
 10
0.0
 20
0.0
 30
0.0
  3
*U148
  1

  0
TEXT
  5
7D3
  8
┌▓È_1
  6
CONTINUOUS
 10
242.4391400654886
 20
888.84545297062584
 30
0.0
 40
5.3974999188999986
  1
òøöÈ
  0
ENDBLK
  5
7D5
  8
0
  0
BLOCK
  8
0
  2
*U149
 70
     1
 10
0.0
 20
0.0
 30
0.0
  3
*U149
  1

  0
TEXT
  5
7D7
  8
┌▓È_1
  6
CONTINUOUS
 10
150.07253845689999
 20
342.18924409038931
 30
0.0
 40
10.794999837900001
  1
èöÄ«ë´Äð
  0
ENDBLK
  5
7D9
  8
0
  0
BLOCK
  8
0
  2
*U150
 70
     1
 10
0.0
 20
0.0
 30
0.0
  3
*U150
  1

  0
TEXT
  5
7DB
  8
┌▓È_1
  6
CONTINUOUS
 10
409.11022514088779
 20
888.70846058689744
 30
0.0
 40
5.3974999188999986
  1
îƒöFÄÊ
  0
ENDBLK
  5
7DD
  8
0
  0
BLOCK
  8
0
  2
*U151
 70
     1
 10
0.0
 20
0.0
 30
0.0
  3
*U151
  1

  0
TEXT
  5
7DF
  8
┌▓È_1
  6
CONTINUOUS
 10
291.92304675680538
 20
350.85746519900363
 30
0.0
 40
5.9972220420999998
  1
É} öÈ
  0
ENDBLK
  5
7E1
  8
0
  0
BLOCK
  8
0
  2
*U152
 70
     1
 10
0.0
 20
0.0
 30
0.0
  3
*U152
  1

  0
TEXT
  5
7E3
  8
┌▓È_1
  6
CONTINUOUS
 10
289.8377182802376
 20
394.73569419307262
 30
0.0
 40
5.9972220420999998
  1
É╗òiû╝
  0
ENDBLK
  5
7E5
  8
0
  0
BLOCK
  8
0
  2
*U153
 70
     1
 10
0.0
 20
0.0
 30
0.0
  3
*U153
  1

  0
TEXT
  5
7E7
  8
┌▓È_1
  6
CONTINUOUS
 10
290.00515341339269
 20
372.79657969603801
 30
0.0
 40
5.9972220420999998
  1
É}û╩û╝
  0
ENDBLK
  5
7E9
  8
0
  0
BLOCK
  8
0
  2
*U154
 70
     1
 10
0.0
 20
0.0
 30
0.0
  3
*U154
  1

  0
TEXT
  5
7EB
  8
┌▓È_1
  6
CONTINUOUS
 10
149.5955652473256
 20
394.09907712256899
 30
0.0
 40
5.9972220420999998
  1
ô·ü@ü@òt
  0
ENDBLK
  5
7ED
  8
0
  0
BLOCK
  8
0
  2
*U155
 70
     1
 10
0.0
 20
0.0
 30
0.0
  3
*U155
  1

  0
TEXT
  5
7EF
  8
┌▓È_1
  6
CONTINUOUS
 10
198.95626746618811
 20
393.91642061367253
 30
0.0
 40
5.9972220420999998
  1
Ä┌ü@ü@ôx
  0
ENDBLK
  5
7F1
  8
0
  0
BLOCK
  8
0
  2
*U156
 70
     1
 10
0.0
 20
0.0
 30
0.0
  3
*U156
  1

  0
TEXT
  5
7F3
  8
┌▓È_1
  6
CONTINUOUS
 10
389.1924205711249
 20
888.73585906364315
 30
0.0
 40
5.3974999188999986
  1
ë³Æ¨ÄÊ
  0
ENDBLK
  5
7F5
  8
0
  0
BLOCK
  8
0
  2
*U157
 70
     1
 10
0.0
 20
0.0
 30
0.0
  3
*U157
  1

  0
TEXT
  5
7F7
  8
┌▓È_1
  6
CONTINUOUS
 10
140.88660422744209
 20
414.58546519900358
 30
0.0
 40
5.9972220420999998
  1
òiöÈ
  0
ENDBLK
  5
7F9
  8
0
  0
BLOCK
  8
0
  2
*U158
 70
     1
 10
0.0
 20
0.0
 30
0.0
  3
*U158
  1

  0
TEXT
  5
7FB
  8
┌▓È_1
  6
CONTINUOUS
 10
139.19286458330001
 20
360.91642061367253
 30
0.0
 40
5.9972220420999998
  1
 É╗É}
  0
ENDBLK
  5
7FD
  8
0
  0
BLOCK
  8
0
  2
*U159
 70
     1
 10
0.0
 20
0.0
 30
0.0
  3
*U159
  1

  0
TEXT
  5
7FF
  8
┌▓È_1
  6
CONTINUOUS
 10
139.19286458330001
 20
371.97730611663798
 30
0.0
 40
5.9972220420999998
  1
 É¦îv
  0
ENDBLK
  5
801
  8
0
  0
BLOCK
  8
0
  2
*U160
 70
     1
 10
0.0
 20
0.0
 30
0.0
  3
*U160
  1

  0
TEXT
  5
803
  8
┌▓È_1
  6
CONTINUOUS
 10
214.19286458330001
 20
360.8859778621898
 30
0.0
 40
5.9972220420999998
  1
 îƒÉ}
  0
ENDBLK
  5
805
  8
0
  0
BLOCK
  8
0
  2
*U161
 70
     1
 10
0.0
 20
0.0
 30
0.0
  3
*U161
  1

  0
TEXT
  5
807
  8
┌▓È_1
  6
CONTINUOUS
 10
214.19286458330001
 20
371.94686336515531
 30
0.0
 40
5.9972220420999998
  1
 Åãì©
  0
ENDBLK
  5
809
  8
0
  0
BLOCK
  8
0
  2
*U162
 70
     1
 10
0.0
 20
0.0
 30
0.0
  3
*U162
  1

  0
TEXT
  5
80B
  8
┌▓È_1
  6
CONTINUOUS
 10
350.68872634280427
 20
414.46369419307251
 30
0.0
 40
5.9972220420999998
  1
Éöù╩
  0
ENDBLK
  5
80D
  8
0
  0
BLOCK
  8
0
  2
*U163
 70
     1
 10
0.0
 20
0.0
 30
0.0
  3
*U163
  1

  0
TEXT
  5
80F
  8
┌▓È_1
  6
CONTINUOUS
 10
379.71411443327622
 20
414.37236593862428
 30
0.0
 40
5.9972220420999998
  1
ö§ü@ü@ü@ìl
  0
ENDBLK
  5
811
  8
0
  0
BLOCK
  8
0
  2
*U164
 70
     1
 10
0.0
 20
0.0
 30
0.0
  3
*U164
  1

  0
TEXT
  5
813
  8
┌▓È_1
  6
CONTINUOUS
 10
283.99870977343181
 20
414.5550224475208
 30
0.0
 40
5.9972220420999998
  1
ìÌü@ü@ü@Ä┐
  0
ENDBLK
  5
815
  8
0
  0
BLOCK
  8
0
  2
*U165
 70
     1
 10
0.0
 20
0.0
 30
0.0
  3
*U165
  1

  0
TEXT
  5
817
  8
┌▓È_1
  6
CONTINUOUS
 10
188.2270304095523
 20
414.52457969603802
 30
0.0
 40
5.9972220420999998
  1
òiü@ü@ü@û╝
  0
ENDBLK
  5
819
  8
0
  0
BLOCK
  8
0
  2
*U166
 70
     1
 10
0.0
 20
0.0
 30
0.0
  3
*U166
  1

  0
TEXT
  5
81B
  8
┌▓È_1
  6
CONTINUOUS
 10
378.98348839769039
 20
454.76812170789992
 30
0.0
 40
5.9972220420999998
  1
âiâ`âàâëâï
  0
ENDBLK
  5
81D
  8
0
  0
BLOCK
  8
0
  2
*U167
 70
     1
 10
0.0
 20
0.0
 30
0.0
  3
*U167
  1

  0
TEXT
  5
81F
  8
┌▓È_1
  6
CONTINUOUS
 10
378.98348839769039
 20
444.76812170789998
 30
0.0
 40
5.9972220420999998
  1
âiâ`âàâëâï
  0
ENDBLK
  5
821
  8
0
  0
BLOCK
  8
0
  2
*U168
 70
     1
 10
0.0
 20
0.0
 30
0.0
  3
*U168
  1

  0
TEXT
  5
823
  8
┌▓È_1
  6
CONTINUOUS
 10
383.04759572063631
 20
434.64635070196903
 30
0.0
 40
5.9972220420999998
  1
âzâÅâCâg
  0
ENDBLK
  5
825
  8
0
  0
BLOCK
  8
0
  2
*U169
 70
     1
 10
0.0
 20
0.0
 30
0.0
  3
*U169
  1

  0
TEXT
  5
827
  8
┌▓È_1
  6
CONTINUOUS
 10
144.1439786360954
 20
544.76812170790004
 30
0.0
 40
5.9972220420999998
  1
13
  0
ENDBLK
  5
829
  8
0
  0
BLOCK
  8
0
  2
*U170
 70
     1
 10
0.0
 20
0.0
 30
0.0
  3
*U170
  1

  0
TEXT
  5
82B
  8
┌▓È_1
  6
CONTINUOUS
 10
195.68550452282381
 20
544.40280869010712
 30
0.0
 40
5.9972220420999998
  1
Æ¸é▀ï´
  0
ENDBLK
  5
82D
  8
0
  0
BLOCK
  8
0
  2
*U171
 70
     1
 10
0.0
 20
0.0
 30
0.0
  3
*U171
  1

  0
TEXT
  5
82F
  8
┌▓È_1
  6
CONTINUOUS
 10
288.53467974436018
 20
544.49413694455541
 30
0.0
 40
5.9972220420999998
  1
éoéoÄ¸Äë
  0
ENDBLK
  5
831
  8
0
  0
BLOCK
  8
0
  2
*U172
 70
     1
 10
0.0
 20
0.0
 30
0.0
  3
*U172
  1

  0
TEXT
  5
833
  8
┌▓È_1
  6
CONTINUOUS
 10
394.55495578111248
 20
544.76812170790004
 30
0.0
 40
5.9972220420999998
  1
ìò
  0
ENDBLK
  5
835
  8
0
  0
BLOCK
  8
0
  2
*U173
 70
     1
 10
0.0
 20
0.0
 30
0.0
  3
*U173
  1

  0
TEXT
  5
837
  8
┌▓È_1
  6
CONTINUOUS
 10
356.6250628819389
 20
544.76812170790004
 30
0.0
 40
5.9972220420999998
  1
1
  0
ENDBLK
  5
839
  8
0
  0
BLOCK
  8
0
  2
*U174
 70
     1
 10
0.0
 20
0.0
 30
0.0
  3
*U174
  1

  0
TEXT
  5
83B
  8
┌▓È_1
  6
CONTINUOUS
 10
144.12875726035401
 20
534.76812170790004
 30
0.0
 40
5.9972220420999998
  1
12
  0
ENDBLK
  5
83D
  8
0
  0
BLOCK
  8
0
  2
*U175
 70
     1
 10
0.0
 20
0.0
 30
0.0
  3
*U175
  1

  0
TEXT
  5
83F
  8
┌▓È_1
  6
CONTINUOUS
 10
144.67672678704341
 20
524.76812170790004
 30
0.0
 40
5.9972220420999998
  1
11
  0
ENDBLK
  5
841
  8
0
  0
BLOCK
  8
0
  2
*U176
 70
     1
 10
0.0
 20
0.0
 30
0.0
  3
*U176
  1

  0
TEXT
  5
843
  8
┌▓È_1
  6
CONTINUOUS
 10
394.55495578111248
 20
484.76812170789992
 30
0.0
 40
5.9972220420999998
  1
ìò
  0
ENDBLK
  5
845
  8
0
  0
BLOCK
  8
0
  2
*U177
 70
     1
 10
0.0
 20
0.0
 30
0.0
  3
*U177
  1

  0
TEXT
  5
847
  8
┌▓È_1
  6
CONTINUOUS
 10
289.35663403439418
 20
484.76812170789992
 30
0.0
 40
5.9972220420999998
  1
édéoécél
  0
ENDBLK
  5
849
  8
0
  0
ENDSEC
  0
SECTION
  2
ENTITIES
  0
INSERT
  5
30
  8
┌▓È_1
 62
     5
  2
CLUMP0
 10
0.0
 20
0.0
 30
0.0
  0
LINE
  5
3A
  8
┌▓È_1
 62
     5
 10
-178.02672656129999
 20
543.07934308849997
 30
0.0
 11
-165.52672656319999
 21
543.07934308849997
 31
0.0
  0
LINE
  5
3B
  8
┌▓È_1
 62
     5
 10
-169.50055858459999
 20
559.57934308849997
 30
0.0
 11
-222.72672656719999
 21
559.57934308849997
 31
0.0
  0
LINE
  5
3C
  8
┌▓È_1
 62
     5
 10
-182.52672656129999
 20
547.07934308849997
 30
0.0
 11
-165.52672659480001
 21
547.07934308849997
 31
0.0
  0
LINE
  5
3D
  8
┌▓È_1
 62
     5
 10
-186.74242734959989
 20
558.6784778471
 30
0.0
 11
-169.5528945408
 21
559.57934308849997
 31
0.0
  0
INSERT
  5
3F
  8
┌▓È_1
 62
     5
  2
CLUMP1
 10
0.0
 20
0.0
 30
0.0
  0
INSERT
  5
56
  8
0
  6
CONTINUOUS
  2
*U60
 10
0.0
 20
0.0
 30
0.0
  0
LINE
  5
57
  8
┌▓È_1
 62
     5
 10
-212.02672655660001
 20
476.17934378429999
 30
0.0
 11
-212.02672655660001
 21
469.67934316409998
 31
0.0
  0
ARC
  5
58
  8
┌▓È_1
 62
     5
 10
-193.77672655660001
 20
476.17934316409998
 30
0.0
 40
18.25
 50
138.88790956080001
 51
179.9999980531
  0
LINE
  5
59
  8
┌▓È_1
 62
     5
 10
-195.02672656269999
 20
538.57934308849997
 30
0.0
 11
-195.7340978627
 21
457.52262068339991
 31
0.0
  0
LINE
  5
5A
  8
┌▓È_1
 62
     5
 10
-208.0267265672
 20
476.5793431640999
 30
0.0
 11
-208.0267265672
 21
468.87934316410002
 31
0.0
  0
LINE
  5
5B
  8
┌▓È_1
 62
     5
 10
-206.5267265672
 20
476.5793431640999
 30
0.0
 11
-208.0267265672
 21
476.5793431640999
 31
0.0
  0
LINE
  5
5C
  8
┌▓È_1
 62
     5
 10
-206.5267265672
 20
476.5793431640999
 30
0.0
 11
-206.5267265672
 21
467.07934316410001
 31
0.0
  0
LINE
  5
5D
  8
┌▓È_1
 62
     5
 10
-208.77672655660001
 20
486.57465460729998
 30
0.0
 11
-208.77672655660001
 21
467.87934316410002
 31
0.0
  0
LINE
  5
5E
  8
┌▓È_1
 62
     5
 10
-224.22672656719999
 20
522.57934316410001
 30
0.0
 11
-223.9464204603
 21
469.04530939919988
 31
0.0
  0
LINE
  5
5F
  8
┌▓È_1
 62
     5
 10
-177.02672656129999
 20
528.57934308849985
 30
0.0
 11
-140.02672656799999
 21
528.57934308849985
 31
0.0
  0
LINE
  5
60
  8
┌▓È_1
 62
     5
 10
-175.02672659389989
 20
525.07934305640003
 30
0.0
 11
-142.0092735238
 21
525.36748200419993
 31
0.0
  0
LINE
  5
61
  8
┌▓È_1
 62
     5
 10
-169.52672656269999
 20
554.57934308849985
 30
0.0
 11
-182.52672656269999
 21
554.57934308849985
 31
0.0
  0
LINE
  5
62
  8
┌▓È_1
  6
STITCH
 10
-177.52672623160001
 20
461.57934308849991
 30
0.0
 11
-155.0267265043
 21
461.57934308849991
 31
0.0
  0
LINE
  5
63
  8
┌▓È_1
 62
     5
 10
-182.5267262241
 20
455.07934312359998
 30
0.0
 11
-155.02672654029999
 21
461.57934307609997
 31
0.0
  0
LINE
  5
64
  8
┌▓È_1
 62
     5
 10
-175.02672654209999
 20
465.07934305639992
 30
0.0
 11
-142.0092734703
 21
464.79120410870001
 31
0.0
  0
LINE
  5
65
  8
┌▓È_1
  6
BORDER
 62
     3
 10
-290.52672693580001
 20
495.07934308849991
 30
0.0
 11
-130.6229140625
 21
495.07934308849991
 31
0.0
  0
INSERT
  5
67
  8
┌▓È_1
  2
BALLON0
 10
0.0
 20
0.0
 30
0.0
  0
INSERT
  5
71
  8
┌▓È_1
  2
BALLON1
 10
0.0
 20
0.0
 30
0.0
  0
INSERT
  5
7B
  8
┌▓È_1
  2
BALLON2
 10
0.0
 20
0.0
 30
0.0
  0
INSERT
  5
85
  8
┌▓È_1
  2
BALLON3
 10
0.0
 20
0.0
 30
0.0
  0
INSERT
  5
8F
  8
┌▓È_1
  2
BALLON4
 10
0.0
 20
0.0
 30
0.0
  0
DIMENSION
  5
A7
  8
┌▓È_1
  2
*D7
 10
-169.02672656269999
 20
627.69242187500004
 30
0.0
 11
-240.02672656269999
 21
627.69242187500004
 31
0.0
 70
   128
  1
%%c<>
 13
-169.02672656269999
 23
559.08002832110003
 33
0.0
 14
-311.02672656269999
 24
559.08002832110003
 34
0.0
  0
DIMENSION
  5
B6
  8
┌▓È_1
  2
*D8
 10
-165.02672656319999
 20
650.94268537369987
 30
0.0
 11
-240.02672656319999
 21
650.94268537369987
 31
0.0
 70
   128
  1
%%c<>
 13
-165.02672656319999
 23
546.57934308849985
 33
0.0
 14
-315.02672656319999
 24
546.57934308849985
 34
0.0
  0
LINE
  5
B7
  8
┌▓È_1
 62
     5
 10
-174.04377421870001
 20
803.97080729169988
 30
0.0
 11
-140.02672657869999
 21
803.97080729169988
 31
0.0
  0
LINE
  5
B8
  8
┌▓È_1
 62
     5
 10
-175.61313617850001
 20
734.04431454469989
 30
0.0
 11
-165.02672649420001
 21
736.97080728339995
 31
0.0
  0
LINE
  5
B9
  8
┌▓È_1
 62
     5
 10
-174.04377421870001
 20
736.97080729169988
 30
0.0
 11
-140.02672657869999
 21
736.97080729169988
 31
0.0
  0
LINE
  5
BA
  8
┌▓È_1
 62
     5
 10
-204.02672656249999
 20
789.97080729169988
 30
0.0
 11
-204.02672656249999
 21
750.9708072917
 31
0.0
  0
LINE
  5
BB
  8
┌▓È_1
 62
     5
 10
-193.02672656249999
 20
789.97080729169988
 30
0.0
 11
-193.02672656249999
 21
750.9708072917
 31
0.0
  0
LINE
  5
BC
  8
┌▓È_1
 62
     5
 10
-190.02672656249999
 20
789.97080729169988
 30
0.0
 11
-190.02672656249999
 21
750.9708072917
 31
0.0
  0
LINE
  5
BD
  8
┌▓È_1
  6
BORDER
 62
     3
 10
-240.02672656249999
 20
849.56262044269988
 30
0.0
 11
-240.02672656249999
 21
691.37899414059984
 31
0.0
  0
LINE
  5
BE
  8
┌▓È_1
  6
BORDER
 62
     3
 10
-240.02672656249999
 20
830.4708072917
 30
0.0
 11
-240.02672656249999
 21
710.4708072917
 31
0.0
  0
LINE
  5
BF
  8
┌▓È_1
  6
BORDER
 62
     3
 10
-240.02672656249999
 20
710.4708072917
 30
0.0
 11
-240.02672656249999
 21
830.4708072917
 31
0.0
  0
LINE
  5
C0
  8
┌▓È_1
  6
BORDER
 62
     3
 10
-240.02672656249999
 20
855.4708072917
 30
0.0
 11
-240.02672656249999
 21
685.4708072917
 31
0.0
  0
INSERT
  5
C2
  8
┌▓È_1
 62
     5
  2
CLUMP2
 10
0.0
 20
0.0
 30
0.0
  0
INSERT
  5
D2
  8
┌▓È_1
  2
BALLON5
 10
0.0
 20
0.0
 30
0.0
  0
INSERT
  5
DC
  8
┌▓È_1
  2
BALLON6
 10
0.0
 20
0.0
 30
0.0
  0
INSERT
  5
E6
  8
┌▓È_1
  2
BALLON7
 10
0.0
 20
0.0
 30
0.0
  0
INSERT
  5
F0
  8
┌▓È_1
  2
BALLON8
 10
0.0
 20
0.0
 30
0.0
  0
DIMENSION
  5
107
  8
┌▓È_1
  2
*D14
 10
-52.1098697917
 20
448.07934308849991
 30
0.0
 11
-52.1098697917
 21
471.57934308849991
 31
0.0
 70
   128
  1
<>
 13
-189.5267262241
 23
448.07934308849991
 33
0.0
 14
-130.6229140625
 24
495.07934308849991
 34
0.0
 50
90.0
  0
DIMENSION
  5
116
  8
┌▓È_1
  2
*D15
 10
-52.1098697917
 20
559.57934308849997
 30
0.0
 11
-52.1098697917
 21
571.32934308849985
 31
0.0
 70
   128
  1
<>
 13
-169.5528945408
 23
559.57934308849997
 33
0.0
 14
-175.94776044700001
 24
583.07934308849985
 34
0.0
 50
90.0
  0
DIMENSION
  5
125
  8
┌▓È_1
  2
*D16
 10
-28.380052083300001
 20
448.07934308849991
 30
0.0
 11
-28.380052083300001
 21
530.32934308849985
 31
0.0
 70
   128
  1
(<>)
 13
-189.5267262241
 23
448.07934308849991
 33
0.0
 14
-223.6767265629
 24
612.57934308849985
 34
0.0
 50
90.0
  0
DIMENSION
  5
134
  8
┌▓È_1
  2
*D17
 10
-240.0267265697
 20
404.21395052079998
 30
0.0
 11
-190.02672655590001
 21
404.21395052079998
 31
0.0
 70
   128
  1
<>
 13
-240.0267265697
 23
424.21395052079998
 33
0.0
 14
-140.02672654209999
 24
461.57934305639992
 34
0.0
 50
180.0
  0
INSERT
  5
136
  8
┌▓È_1
  2
BALLON9
 10
0.0
 20
0.0
 30
0.0
  0
LINE
  5
13F
  8
┌▓È_1
 62
     5
 10
-221.02672655660001
 20
481.87934316410002
 30
0.0
 11
-221.02672655660001
 21
469.37934316410002
 31
0.0
  0
LINE
  5
140
  8
┌▓È_1
 62
     5
 10
-197.1027569538
 20
472.57934316410001
 30
0.0
 11
-201.02672656269999
 21
472.57934316410001
 31
0.0
  0
ARC
  5
141
  8
┌▓È_1
 62
     5
 10
-201.02672656269999
 20
467.5793431640999
 30
0.0
 40
5.0
 50
90.0
 51
180.0
  0
LINE
  5
142
  8
┌▓È_1
  6
STITCH
 10
-197.1027569538
 20
472.57934316410001
 30
0.0
 11
-197.23404074730001
 21
457.5357104865999
 31
0.0
  0
LINE
  5
143
  8
┌▓È_1
 62
     5
 10
-297.4597137394
 20
522.89170717699994
 30
0.0
 11
-296.86739027800002
 21
455.01816129029987
 31
0.0
  0
LINE
  5
144
  8
┌▓È_1
 62
     5
 10
-208.77672655660001
 20
476.5793431640999
 30
0.0
 11
-208.0267265672
 21
476.5793431640999
 31
0.0
  0
POLYLINE
  5
145
  8
┌▓È_1
 62
     5
 10
-184.52672626802581
 20
465.07934308849974
 30
0.0
 66
     1
 70
     8
  0
VERTEX
  8
┌▓È_1
  5
A72
 10
-184.527
 20
465.079
 30
0.000000
  70
    32
  0
VERTEX
  8
┌▓È_1
  5
A73
 10
-184.743
 20
465.088
 30
0.000000
  70
    32
  0
VERTEX
  8
┌▓È_1
  5
A74
 10
-184.959
 20
465.115
 30
0.000000
  70
    32
  0
VERTEX
  8
┌▓È_1
  5
A75
 10
-185.175
 20
465.161
 30
0.000000
  70
    32
  0
VERTEX
  8
┌▓È_1
  5
A76
 10
-185.390
 20
465.224
 30
0.000000
  70
    32
  0
VERTEX
  8
┌▓È_1
  5
A77
 10
-185.605
 20
465.305
 30
0.000000
  70
    32
  0
VERTEX
  8
┌▓È_1
  5
A78
 10
-185.819
 20
465.404
 30
0.000000
  70
    32
  0
VERTEX
  8
┌▓È_1
  5
A79
 10
-186.032
 20
465.521
 30
0.000000
  70
    32
  0
VERTEX
  8
┌▓È_1
  5
A7A
 10
-186.245
 20
465.656
 30
0.000000
  70
    32
  0
VERTEX
  8
┌▓È_1
  5
A7B
 10
-186.456
 20
465.808
 30
0.000000
  70
    32
  0
VERTEX
  8
┌▓È_1
  5
A7C
 10
-186.667
 20
465.978
 30
0.000000
  70
    32
  0
VERTEX
  8
┌▓È_1
  5
A7D
 10
-186.876
 20
466.166
 30
0.000000
  70
    32
  0
VERTEX
  8
┌▓È_1
  5
A7E
 10
-187.083
 20
466.371
 30
0.000000
  70
    32
  0
VERTEX
  8
┌▓È_1
  5
A7F
 10
-187.289
 20
466.593
 30
0.000000
  70
    32
  0
VERTEX
  8
┌▓È_1
  5
A80
 10
-187.494
 20
466.833
 30
0.000000
  70
    32
  0
VERTEX
  8
┌▓È_1
  5
A81
 10
-187.696
 20
467.090
 30
0.000000
  70
    32
  0
VERTEX
  8
┌▓È_1
  5
A82
 10
-187.897
 20
467.363
 30
0.000000
  70
    32
  0
VERTEX
  8
┌▓È_1
  5
A83
 10
-188.096
 20
467.653
 30
0.000000
  70
    32
  0
VERTEX
  8
┌▓È_1
  5
A84
 10
-188.292
 20
467.960
 30
0.000000
  70
    32
  0
VERTEX
  8
┌▓È_1
  5
A85
 10
-188.486
 20
468.283
 30
0.000000
  70
    32
  0
VERTEX
  8
┌▓È_1
  5
A86
 10
-188.678
 20
468.622
 30
0.000000
  70
    32
  0
VERTEX
  8
┌▓È_1
  5
A87
 10
-188.868
 20
468.977
 30
0.000000
  70
    32
  0
VERTEX
  8
┌▓È_1
  5
A88
 10
-189.054
 20
469.347
 30
0.000000
  70
    32
  0
VERTEX
  8
┌▓È_1
  5
A89
 10
-189.238
 20
469.734
 30
0.000000
  70
    32
  0
VERTEX
  8
┌▓È_1
  5
A8A
 10
-189.420
 20
470.135
 30
0.000000
  70
    32
  0
VERTEX
  8
┌▓È_1
  5
A8B
 10
-189.598
 20
470.552
 30
0.000000
  70
    32
  0
VERTEX
  8
┌▓È_1
  5
A8C
 10
-189.773
 20
470.983
 30
0.000000
  70
    32
  0
VERTEX
  8
┌▓È_1
  5
A8D
 10
-189.945
 20
471.429
 30
0.000000
  70
    32
  0
VERTEX
  8
┌▓È_1
  5
A8E
 10
-190.114
 20
471.889
 30
0.000000
  70
    32
  0
VERTEX
  8
┌▓È_1
  5
A8F
 10
-190.279
 20
472.363
 30
0.000000
  70
    32
  0
VERTEX
  8
┌▓È_1
  5
A90
 10
-190.441
 20
472.851
 30
0.000000
  70
    32
  0
VERTEX
  8
┌▓È_1
  5
A91
 10
-190.600
 20
473.352
 30
0.000000
  70
    32
  0
VERTEX
  8
┌▓È_1
  5
A92
 10
-190.754
 20
473.866
 30
0.000000
  70
    32
  0
VERTEX
  8
┌▓È_1
  5
A93
 10
-190.905
 20
474.393
 30
0.000000
  70
    32
  0
VERTEX
  8
┌▓È_1
  5
A94
 10
-191.052
 20
474.933
 30
0.000000
  70
    32
  0
VERTEX
  8
┌▓È_1
  5
A95
 10
-191.195
 20
475.484
 30
0.000000
  70
    32
  0
VERTEX
  8
┌▓È_1
  5
A96
 10
-191.335
 20
476.048
 30
0.000000
  70
    32
  0
VERTEX
  8
┌▓È_1
  5
A97
 10
-191.470
 20
476.622
 30
0.000000
  70
    32
  0
VERTEX
  8
┌▓È_1
  5
A98
 10
-191.601
 20
477.208
 30
0.000000
  70
    32
  0
VERTEX
  8
┌▓È_1
  5
A99
 10
-191.727
 20
477.805
 30
0.000000
  70
    32
  0
VERTEX
  8
┌▓È_1
  5
A9A
 10
-191.849
 20
478.412
 30
0.000000
  70
    32
  0
VERTEX
  8
┌▓È_1
  5
A9B
 10
-191.967
 20
479.029
 30
0.000000
  70
    32
  0
VERTEX
  8
┌▓È_1
  5
A9C
 10
-192.081
 20
479.656
 30
0.000000
  70
    32
  0
VERTEX
  8
┌▓È_1
  5
A9D
 10
-192.190
 20
480.292
 30
0.000000
  70
    32
  0
VERTEX
  8
┌▓È_1
  5
A9E
 10
-192.294
 20
480.937
 30
0.000000
  70
    32
  0
VERTEX
  8
┌▓È_1
  5
A9F
 10
-192.393
 20
481.591
 30
0.000000
  70
    32
  0
VERTEX
  8
┌▓È_1
  5
AA0
 10
-192.488
 20
482.253
 30
0.000000
  70
    32
  0
VERTEX
  8
┌▓È_1
  5
AA1
 10
-192.578
 20
482.922
 30
0.000000
  70
    32
  0
VERTEX
  8
┌▓È_1
  5
AA2
 10
-192.663
 20
483.599
 30
0.000000
  70
    32
  0
VERTEX
  8
┌▓È_1
  5
AA3
 10
-192.744
 20
484.282
 30
0.000000
  70
    32
  0
VERTEX
  8
┌▓È_1
  5
AA4
 10
-192.819
 20
484.973
 30
0.000000
  70
    32
  0
VERTEX
  8
┌▓È_1
  5
AA5
 10
-192.889
 20
485.669
 30
0.000000
  70
    32
  0
VERTEX
  8
┌▓È_1
  5
AA6
 10
-192.955
 20
486.371
 30
0.000000
  70
    32
  0
VERTEX
  8
┌▓È_1
  5
AA7
 10
-193.015
 20
487.078
 30
0.000000
  70
    32
  0
VERTEX
  8
┌▓È_1
  5
AA8
 10
-193.070
 20
487.790
 30
0.000000
  70
    32
  0
VERTEX
  8
┌▓È_1
  5
AA9
 10
-193.120
 20
488.506
 30
0.000000
  70
    32
  0
VERTEX
  8
┌▓È_1
  5
AAA
 10
-193.165
 20
489.227
 30
0.000000
  70
    32
  0
VERTEX
  8
┌▓È_1
  5
AAB
 10
-193.204
 20
489.950
 30
0.000000
  70
    32
  0
VERTEX
  8
┌▓È_1
  5
AAC
 10
-193.238
 20
490.677
 30
0.000000
  70
    32
  0
VERTEX
  8
┌▓È_1
  5
AAD
 10
-193.267
 20
491.407
 30
0.000000
  70
    32
  0
VERTEX
  8
┌▓È_1
  5
AAE
 10
-193.291
 20
492.139
 30
0.000000
  70
    32
  0
VERTEX
  8
┌▓È_1
  5
AAF
 10
-193.310
 20
492.872
 30
0.000000
  70
    32
  0
VERTEX
  8
┌▓È_1
  5
AB0
 10
-193.323
 20
493.607
 30
0.000000
  70
    32
  0
VERTEX
  8
┌▓È_1
  5
AB1
 10
-193.331
 20
494.343
 30
0.000000
  70
    32
  0
VERTEX
  8
┌▓È_1
  5
AB2
 10
-193.334
 20
495.079
 30
0.000000
  70
    32
  0
VERTEX
  8
┌▓È_1
  5
AB3
 10
-193.331
 20
495.816
 30
0.000000
  70
    32
  0
VERTEX
  8
┌▓È_1
  5
AB4
 10
-193.323
 20
496.551
 30
0.000000
  70
    32
  0
VERTEX
  8
┌▓È_1
  5
AB5
 10
-193.310
 20
497.286
 30
0.000000
  70
    32
  0
VERTEX
  8
┌▓È_1
  5
AB6
 10
-193.291
 20
498.020
 30
0.000000
  70
    32
  0
VERTEX
  8
┌▓È_1
  5
AB7
 10
-193.267
 20
498.752
 30
0.000000
  70
    32
  0
VERTEX
  8
┌▓È_1
  5
AB8
 10
-193.238
 20
499.481
 30
0.000000
  70
    32
  0
VERTEX
  8
┌▓È_1
  5
AB9
 10
-193.204
 20
500.208
 30
0.000000
  70
    32
  0
VERTEX
  8
┌▓È_1
  5
ABA
 10
-193.165
 20
500.932
 30
0.000000
  70
    32
  0
VERTEX
  8
┌▓È_1
  5
ABB
 10
-193.120
 20
501.652
 30
0.000000
  70
    32
  0
VERTEX
  8
┌▓È_1
  5
ABC
 10
-193.070
 20
502.369
 30
0.000000
  70
    32
  0
VERTEX
  8
┌▓È_1
  5
ABD
 10
-193.015
 20
503.081
 30
0.000000
  70
    32
  0
VERTEX
  8
┌▓È_1
  5
ABE
 10
-192.955
 20
503.788
 30
0.000000
  70
    32
  0
VERTEX
  8
┌▓È_1
  5
ABF
 10
-192.889
 20
504.490
 30
0.000000
  70
    32
  0
VERTEX
  8
┌▓È_1
  5
AC0
 10
-192.819
 20
505.186
 30
0.000000
  70
    32
  0
VERTEX
  8
┌▓È_1
  5
AC1
 10
-192.744
 20
505.876
 30
0.000000
  70
    32
  0
VERTEX
  8
┌▓È_1
  5
AC2
 10
-192.663
 20
506.560
 30
0.000000
  70
    32
  0
VERTEX
  8
┌▓È_1
  5
AC3
 10
-192.578
 20
507.237
 30
0.000000
  70
    32
  0
VERTEX
  8
┌▓È_1
  5
AC4
 10
-192.488
 20
507.906
 30
0.000000
  70
    32
  0
VERTEX
  8
┌▓È_1
  5
AC5
 10
-192.393
 20
508.568
 30
0.000000
  70
    32
  0
VERTEX
  8
┌▓È_1
  5
AC6
 10
-192.294
 20
509.221
 30
0.000000
  70
    32
  0
VERTEX
  8
┌▓È_1
  5
AC7
 10
-192.190
 20
509.866
 30
0.000000
  70
    32
  0
VERTEX
  8
┌▓È_1
  5
AC8
 10
-192.081
 20
510.502
 30
0.000000
  70
    32
  0
VERTEX
  8
┌▓È_1
  5
AC9
 10
-191.967
 20
511.129
 30
0.000000
  70
    32
  0
VERTEX
  8
┌▓È_1
  5
ACA
 10
-191.849
 20
511.746
 30
0.000000
  70
    32
  0
VERTEX
  8
┌▓È_1
  5
ACB
 10
-191.727
 20
512.354
 30
0.000000
  70
    32
  0
VERTEX
  8
┌▓È_1
  5
ACC
 10
-191.601
 20
512.950
 30
0.000000
  70
    32
  0
VERTEX
  8
┌▓È_1
  5
ACD
 10
-191.470
 20
513.536
 30
0.000000
  70
    32
  0
VERTEX
  8
┌▓È_1
  5
ACE
 10
-191.335
 20
514.111
 30
0.000000
  70
    32
  0
VERTEX
  8
┌▓È_1
  5
ACF
 10
-191.195
 20
514.675
 30
0.000000
  70
    32
  0
VERTEX
  8
┌▓È_1
  5
AD0
 10
-191.052
 20
515.226
 30
0.000000
  70
    32
  0
VERTEX
  8
┌▓È_1
  5
AD1
 10
-190.905
 20
515.766
 30
0.000000
  70
    32
  0
VERTEX
  8
┌▓È_1
  5
AD2
 10
-190.754
 20
516.293
 30
0.000000
  70
    32
  0
VERTEX
  8
┌▓È_1
  5
AD3
 10
-190.600
 20
516.807
 30
0.000000
  70
    32
  0
VERTEX
  8
┌▓È_1
  5
AD4
 10
-190.441
 20
517.308
 30
0.000000
  70
    32
  0
VERTEX
  8
┌▓È_1
  5
AD5
 10
-190.279
 20
517.796
 30
0.000000
  70
    32
  0
VERTEX
  8
┌▓È_1
  5
AD6
 10
-190.114
 20
518.270
 30
0.000000
  70
    32
  0
VERTEX
  8
┌▓È_1
  5
AD7
 10
-189.945
 20
518.730
 30
0.000000
  70
    32
  0
VERTEX
  8
┌▓È_1
  5
AD8
 10
-189.773
 20
519.176
 30
0.000000
  70
    32
  0
VERTEX
  8
┌▓È_1
  5
AD9
 10
-189.598
 20
519.607
 30
0.000000
  70
    32
  0
VERTEX
  8
┌▓È_1
  5
ADA
 10
-189.420
 20
520.023
 30
0.000000
  70
    32
  0
VERTEX
  8
┌▓È_1
  5
ADB
 10
-189.238
 20
520.425
 30
0.000000
  70
    32
  0
VERTEX
  8
┌▓È_1
  5
ADC
 10
-189.054
 20
520.811
 30
0.000000
  70
    32
  0
VERTEX
  8
┌▓È_1
  5
ADD
 10
-188.868
 20
521.182
 30
0.000000
  70
    32
  0
VERTEX
  8
┌▓È_1
  5
ADE
 10
-188.678
 20
521.537
 30
0.000000
  70
    32
  0
VERTEX
  8
┌▓È_1
  5
ADF
 10
-188.486
 20
521.876
 30
0.000000
  70
    32
  0
VERTEX
  8
┌▓È_1
  5
AE0
 10
-188.292
 20
522.199
 30
0.000000
  70
    32
  0
VERTEX
  8
┌▓È_1
  5
AE1
 10
-188.096
 20
522.506
 30
0.000000
  70
    32
  0
VERTEX
  8
┌▓È_1
  5
AE2
 10
-187.897
 20
522.796
 30
0.000000
  70
    32
  0
VERTEX
  8
┌▓È_1
  5
AE3
 10
-187.696
 20
523.069
 30
0.000000
  70
    32
  0
VERTEX
  8
┌▓È_1
  5
AE4
 10
-187.494
 20
523.326
 30
0.000000
  70
    32
  0
VERTEX
  8
┌▓È_1
  5
AE5
 10
-187.289
 20
523.565
 30
0.000000
  70
    32
  0
VERTEX
  8
┌▓È_1
  5
AE6
 10
-187.083
 20
523.788
 30
0.000000
  70
    32
  0
VERTEX
  8
┌▓È_1
  5
AE7
 10
-186.876
 20
523.993
 30
0.000000
  70
    32
  0
VERTEX
  8
┌▓È_1
  5
AE8
 10
-186.667
 20
524.180
 30
0.000000
  70
    32
  0
VERTEX
  8
┌▓È_1
  5
AE9
 10
-186.456
 20
524.350
 30
0.000000
  70
    32
  0
VERTEX
  8
┌▓È_1
  5
AEA
 10
-186.245
 20
524.503
 30
0.000000
  70
    32
  0
VERTEX
  8
┌▓È_1
  5
AEB
 10
-186.032
 20
524.638
 30
0.000000
  70
    32
  0
VERTEX
  8
┌▓È_1
  5
AEC
 10
-185.819
 20
524.755
 30
0.000000
  70
    32
  0
VERTEX
  8
┌▓È_1
  5
AED
 10
-185.605
 20
524.854
 30
0.000000
  70
    32
  0
VERTEX
  8
┌▓È_1
  5
AEE
 10
-185.390
 20
524.935
 30
0.000000
  70
    32
  0
VERTEX
  8
┌▓È_1
  5
AEF
 10
-185.175
 20
524.998
 30
0.000000
  70
    32
  0
VERTEX
  8
┌▓È_1
  5
AF0
 10
-184.959
 20
525.043
 30
0.000000
  70
    32
  0
VERTEX
  8
┌▓È_1
  5
AF1
 10
-184.743
 20
525.070
 30
0.000000
  70
    32
  0
VERTEX
  8
┌▓È_1
  5
AF2
 10
-184.527
 20
525.079
 30
0.000000
  70
    32
  0
SEQEND
  8
┌▓È_1
  5
AF3
  0
LINE
  5
146
  8
┌▓È_1
 62
     5
 10
-196.51106008720001
 20
540.38108839559993
 30
0.0
 11
-197.1027569538
 21
472.57934316410001
 31
0.0
  0
LINE
  5
147
  8
┌▓È_1
  6
STITCH
 10
-202.23385036260001
 20
452.57934316410001
 30
0.0
 11
-216.52672656269999
 21
452.57934316410001
 31
0.0
  0
LINE
  5
148
  8
┌▓È_1
 62
     5
 10
-216.52672656269999
 20
462.57934316410001
 30
0.0
 11
-216.52672656269999
 21
452.57934316410001
 31
0.0
  0
LINE
  5
149
  8
┌▓È_1
 62
     5
 10
-212.02672655660001
 20
469.67934316409998
 30
0.0
 11
-213.52672655660001
 21
469.67934316409998
 31
0.0
  0
LINE
  5
14A
  8
┌▓È_1
 62
     5
 10
-240.0267265672
 20
462.57934316410001
 30
0.0
 11
-211.0267270228
 21
462.57934316410001
 31
0.0
  0
ARC
  5
14B
  8
┌▓È_1
 62
     5
 10
-217.44650956059999
 20
469.07934316410001
 30
0.0
 40
6.5
 50
180.30000000000001
 51
270.0
  0
LINE
  5
14C
  8
┌▓È_1
 62
     5
 10
-216.52672656249999
 20
769.2208072917
 30
0.0
 11
-216.52672656249999
 21
754.4708072917
 31
0.0
  0
ARC
  5
14D
  8
┌▓È_1
 62
     5
 10
-240.02672656249999
 20
770.4708072917
 30
0.0
 40
52.700000000000003
 50
341.58015084250002
 51
18.4198491575
  0
ARC
  5
14E
  8
┌▓È_1
 62
     5
 10
-240.02672656249999
 20
770.4708072917
 30
0.0
 40
53.0
 50
340.62996175450002
 51
19.370038245500002
  0
INSERT
  5
150
  8
┌▓È_1
 62
     5
  2
CLUMP3
 10
0.0
 20
0.0
 30
0.0
  0
INSERT
  5
15C
  8
┌▓È_1
 62
     5
  2
CLUMP4
 10
0.0
 20
0.0
 30
0.0
  0
LINE
  5
167
  8
┌▓È_1
  6
BORDER
 62
     3
 10
-240.02672656249999
 20
557.20627147389985
 30
0.0
 11
-240.0267265697
 21
424.21395052079998
 31
0.0
  0
LINE
  5
168
  8
┌▓È_1
  6
BORDER
 62
     3
 10
-240.0267265672
 20
612.68232849699984
 30
0.0
 11
-240.0267265672
 21
451.0519052274999
 31
0.0
  0
LINE
  5
169
  8
┌▓È_1
 62
     5
 10
-222.58533304389999
 20
495.57934316410001
 30
0.0
 11
-222.4464410219
 21
469.05316334499997
 31
0.0
  0
ARC
  5
16A
  8
┌▓È_1
 62
     5
 10
-193.77672655660001
 20
476.17934316409998
 30
0.0
 40
19.75
 50
140.52564749050001
 51
179.99999746680001
  0
CIRCLE
  5
16B
  8
┌▓È_1
 62
     5
 10
-240.02672656249999
 20
770.4708072917
 30
0.0
 40
71.0
  0
LINE
  5
16C
  8
┌▓È_1
  6
BORDER
 62
     3
 10
-325.02672656250002
 20
770.4708072917
 30
0.0
 11
-155.02672656249999
 21
770.4708072917
 31
0.0
  0
CIRCLE
  5
16D
  8
┌▓È_1
 62
     5
 10
-240.02672656249999
 20
770.4708072917
 30
0.0
 40
75.0
  0
LINE
  5
16E
  8
┌▓È_1
  6
BORDER
 62
     3
 10
-325.02672656250002
 20
770.4708072917
 30
0.0
 11
-121.3058222948
 21
770.4708072917
 31
0.0
  0
LINE
  5
16F
  8
┌▓È_1
 62
     5
 10
-175.61313617850001
 20
806.89730003859995
 30
0.0
 11
-165.02672649420001
 21
803.97080729989989
 31
0.0
  0
LINE
  5
170
  8
┌▓È_1
 62
     5
 10
-289.86765731449998
 20
448.07934308849991
 30
0.0
 11
-240.0267265722
 21
448.07934308849991
 31
0.0
  0
LINE
  5
171
  8
┌▓È_1
 62
     5
 10
-140.026726551
 20
736.97080729169988
 30
0.0
 11
-140.02672660650001
 21
803.97080729169988
 31
0.0
  0
ARC
  5
172
  8
┌▓È_1
 62
     5
 10
-240.02672656249999
 20
770.4708072917
 30
0.0
 40
39.0
 50
195.0
 51
205.0
  0
ARC
  5
173
  8
┌▓È_1
 62
     5
 10
-240.02672656249999
 20
770.4708072917
 30
0.0
 40
16.0
 50
90.0
 51
270.0
  0
ARC
  5
174
  8
┌▓È_1
 62
     5
 10
-240.02672656249999
 20
770.4708072917
 30
0.0
 40
19.0
 50
57.363102496400003
 51
302.63689750359998
  0
LINE
  5
175
  8
┌▓È_1
 62
     5
 10
-207.02672656249999
 20
789.97080729169988
 30
0.0
 11
-207.02672656249999
 21
750.9708072917
 31
0.0
  0
ARC
  5
176
  8
┌▓È_1
 62
     5
 10
-216.52672655660001
 20
469.37934316410002
 30
0.0
 40
4.5
 50
180.0
 51
270.0
  0
LINE
  5
177
  8
┌▓È_1
 62
     5
 10
-175.02672654209999
 20
465.07934305639992
 30
0.0
 11
-184.526726268
 21
465.07934304819992
 31
0.0
  0
ARC
  5
178
  8
┌▓È_1
 62
     5
 10
-189.5267262241
 20
455.07934308850002
 30
0.0
 40
7.0
 50
270.0
 51
0.0000002871
  0
LINE
  5
179
  8
┌▓È_1
  6
STITCH
 10
-182.52672623160001
 20
456.5793430633999
 30
0.0
 11
-182.5267262241
 21
455.07934312359998
 31
0.0
  0
ARC
  5
17A
  8
┌▓È_1
 62
     5
 10
-189.52672622270001
 20
455.07934308850002
 30
0.0
 40
5.0
 50
270.0
 51
0.0000002597
  0
LINE
  5
17B
  8
┌▓È_1
 62
     5
 10
-184.526726268
 20
465.07934304819992
 30
0.0
 11
-184.52672622270001
 21
455.07934311119999
 31
0.0
  0
ARC
  5
17C
  8
┌▓È_1
  6
STITCH
 10
-177.52672623160001
 20
456.57934308849991
 30
0.0
 40
5.0
 50
90.0
 51
180.00000028709999
  0
LINE
  5
17D
  8
┌▓È_1
 62
     5
 10
-206.02672656269999
 20
467.5793431640999
 30
0.0
 11
-206.02672656269999
 21
462.57934316410001
 31
0.0
  0
ARC
  5
17E
  8
┌▓È_1
  6
STITCH
 10
-202.23385036260001
 20
457.57934316410001
 30
0.0
 40
5.0
 50
270.0
 51
359.50000000000011
  0
ARC
  5
17F
  8
┌▓È_1
 62
     5
 10
-202.23385036260001
 20
457.57934316410001
 30
0.0
 40
6.5
 50
270.0
 51
359.50000000000011
  0
ARC
  5
180
  8
┌▓È_1
 62
     5
 10
-211.0267265672
 20
467.07934316410001
 30
0.0
 40
4.5
 50
269.99999419929998
 51
0.0
  0
ARC
  5
181
  8
┌▓È_1
 62
     5
 10
-211.0267265672
 20
467.07934316410001
 30
0.0
 40
3.0
 50
270.0
 51
0.0
  0
LINE
  5
182
  8
┌▓È_1
 62
     5
 10
-208.0267265672
 20
468.87934316410002
 30
0.0
 11
-208.0267265672
 21
467.07934316410001
 31
0.0
  0
ARC
  5
183
  8
┌▓È_1
 62
     5
 10
-211.77672655660001
 20
467.87934316410002
 30
0.0
 40
3.0
 50
270.0
 51
0.0
  0
ARC
  5
184
  8
┌▓È_1
 62
     5
 10
-217.44650956059999
 20
469.07934316410001
 30
0.0
 40
5.0
 50
180.30000000000001
 51
270.0
  0
LINE
  5
185
  8
┌▓È_1
 62
     5
 10
-240.026726572
 20
450.07934308849991
 30
0.0
 11
-189.52672622270001
 21
450.07934308849991
 31
0.0
  0
LINE
  5
186
  8
┌▓È_1
 62
     5
 10
-240.0267265722
 20
448.07934308849991
 30
0.0
 11
-189.5267262241
 21
448.07934308849991
 31
0.0
  0
ARC
  5
187
  8
┌▓È_1
 62
     5
 10
-289.86765765540002
 20
455.07934308850002
 30
0.0
 40
7.0
 50
180.5007862073
 51
270.00000279020003
  0
INSERT
  5
189
  8
┌▓È_1
  2
CLUMP5
 10
0.0
 20
0.0
 30
0.0
  0
ARC
  5
1F0
  8
┌▓È_1
 62
     5
 10
-240.02672656249999
 20
770.4708072917
 30
0.0
 40
53.0
 50
21.587674387199989
 51
315.41943273689998
  0
ARC
  5
1F1
  8
┌▓È_1
 62
     5
 10
-240.02672656249999
 20
770.4708072917
 30
0.0
 40
52.700000000000003
 50
21.716787545599999
 51
315.75138293129999
  0
INSERT
  5
1F3
  8
┌▓È_1
 62
     5
  2
CLUMP6
 10
0.0
 20
0.0
 30
0.0
  0
LINE
  5
1FE
  8
┌▓È_1
 62
     5
 10
-140.02672654029999
 20
461.57934308849991
 30
0.0
 11
-140.0267265958
 21
528.57934308849985
 31
0.0
  0
LINE
  5
1FF
  8
┌▓È_1
 62
     5
 10
-213.52672655660001
 20
476.17934403729998
 30
0.0
 11
-213.52672655660001
 21
469.67934316409998
 31
0.0
  0
LINE
  5
200
  8
┌▓È_1
  6
BORDER
 62
     3
 10
-240.02672656249999
 20
557.20627147389985
 30
0.0
 11
-240.0267265697
 21
424.21395052079998
 31
0.0
  0
LINE
  5
201
  8
┌▓È_1
 10
-182.52672656129999
 20
547.07934308849997
 30
0.0
 11
-182.52672656129999
 21
530.57934308849997
 31
0.0
  0
ARC
  5
202
  8
┌▓È_1
 62
     5
 10
-177.02672656129999
 20
531.57934308849985
 30
0.0
 40
3.0
 50
180.0
 51
270.0
  0
LINE
  5
203
  8
┌▓È_1
 62
     5
 10
-175.02672659389989
 20
525.07934305640003
 30
0.0
 11
-184.52672654
 21
525.07934304820003
 31
0.0
  0
ARC
  5
204
  8
┌▓È_1
 62
     5
 10
-302.02672656129999
 20
541.07934308849985
 30
0.0
 40
2.0
 50
0.0
 51
90.0
  0
LINE
  5
205
  8
┌▓È_1
 62
     5
 10
-300.02672656129999
 20
541.07934308849985
 30
0.0
 11
-300.02672656129999
 21
530.07934308849997
 31
0.0
  0
LINE
  5
206
  8
┌▓È_1
 62
     5
 10
-300.02672656129999
 20
530.07934308849997
 30
0.0
 11
-297.4597137394
 21
522.89170717699994
 31
0.0
  0
ARC
  5
207
  8
┌▓È_1
 62
     5
 10
-300.02672652870001
 20
552.07934308849985
 30
0.0
 40
0.5
 50
0.0
 51
23.578178478200002
  0
LINE
  5
208
  8
┌▓È_1
 62
     5
 10
-299.52672652870001
 20
552.07934308849985
 30
0.0
 11
-299.52672652870001
 21
549.07934308849985
 31
0.0
  0
ARC
  5
209
  8
┌▓È_1
 62
     5
 10
-300.02672652870001
 20
549.07934308849985
 30
0.0
 40
0.5
 50
336.42182152179998
 51
0.0
  0
LINE
  5
20A
  8
┌▓È_1
 62
     5
 10
-300.02672656129999
 20
530.07934308849997
 30
0.0
 11
-240.0267265649
 21
530.07934308849997
 31
0.0
  0
LINE
  5
20B
  8
┌▓È_1
 62
     5
 10
-297.4597137394
 20
522.89170717699994
 30
0.0
 11
-240.02672656550001
 21
522.89170717699994
 31
0.0
  0
LINE
  5
20C
  8
┌▓È_1
 62
     5
 10
-206.02672656269999
 20
462.57934316410001
 30
0.0
 11
-216.52672656269999
 21
462.57934316410001
 31
0.0
  0
LINE
  5
20D
  8
┌▓È_1
 62
     5
 10
-202.23385036260001
 20
451.0793431640999
 30
0.0
 11
-240.02672656749999
 21
451.0793431640999
 31
0.0
  0
LINE
  5
20E
  8
┌▓È_1
 62
     5
 10
-216.52672656269999
 20
452.57934316410001
 30
0.0
 11
-240.0267265674
 21
452.57934316410001
 31
0.0
  0
LINE
  5
20F
  8
┌▓È_1
 62
     5
 10
-208.72313647289999
 20
522.97386606780003
 30
0.0
 11
-209.02193396300001
 21
488.73506501249989
 31
0.0
  0
LINE
  5
210
  8
┌▓È_1
 62
     5
 10
-207.22319358830001
 20
522.96077626459999
 30
0.0
 11
-207.52672655660001
 21
488.17934316409998
 31
0.0
  0
LINE
  5
211
  8
┌▓È_1
 62
     5
 10
-194.3267265627
 20
538.57934308849997
 30
0.0
 11
-192.52672656269999
 21
538.57934308849997
 31
0.0
  0
LINE
  5
212
  8
┌▓È_1
 62
     5
 10
-189.22672656270001
 20
549.07934308849985
 30
0.0
 11
-187.02672656269991
 21
549.07934308849985
 31
0.0
  0
LINE
  5
213
  8
┌▓È_1
 62
     5
 10
-189.22672656270001
 20
554.57934308849985
 30
0.0
 11
-187.02672656269991
 21
554.57934308849985
 31
0.0
  0
LINE
  5
214
  8
┌▓È_1
 62
     5
 10
-257.32672656289998
 20
565.57934310070004
 30
0.0
 11
-257.32672656720001
 21
559.57934308849997
 31
0.0
  0
LINE
  5
215
  8
┌▓È_1
 62
     5
 10
-225.5267265629
 20
568.57934308849985
 30
0.0
 11
-225.5267265629
 21
525.57934308849985
 31
0.0
  0
LINE
  5
216
  8
┌▓È_1
 62
     5
 10
-223.7767265629
 20
565.57934308849985
 30
0.0
 11
-223.7767265629
 21
550.57934308849985
 31
0.0
  0
LINE
  5
217
  8
┌▓È_1
 62
     5
 10
-223.7767265629
 20
550.57934308849985
 30
0.0
 11
-224.2131031861
 21
525.57934308849985
 31
0.0
  0
LINE
  5
218
  8
┌▓È_1
 62
     5
 10
-211.0267265672
 20
464.0793431640999
 30
0.0
 11
-217.44650956059999
 21
464.0793431640999
 31
0.0
  0
LINE
  5
219
  8
┌▓È_1
 62
     5
 10
-216.52672655660001
 20
464.87934316410002
 30
0.0
 11
-211.77672655660001
 21
464.87934316410002
 31
0.0
  0
ARC
  5
21A
  8
┌▓È_1
 62
     5
 10
-189.22672656270001
 20
554.27934308850001
 30
0.0
 40
0.3
 50
90.0
 51
180.0
  0
ARC
  5
21B
  8
┌▓È_1
 62
     5
 10
-189.22672656270001
 20
549.37934308850004
 30
0.0
 40
0.3
 50
180.0
 51
270.0
  0
LINE
  5
21C
  8
┌▓È_1
 62
     5
 10
-189.52672656269999
 20
554.27934308850001
 30
0.0
 11
-189.52672656269999
 21
549.37934308850004
 31
0.0
  0
LINE
  5
21D
  8
┌▓È_1
 62
     5
 10
-192.52672656269999
 20
540.57934308849985
 30
0.0
 11
-188.02672656269999
 21
540.57934308849985
 31
0.0
  0
LINE
  5
21E
  8
┌▓È_1
 62
     5
 10
-192.52672656269999
 20
540.37934308850004
 30
0.0
 11
-192.52672656269999
 21
538.57934308849997
 31
0.0
  0
LINE
  5
21F
  8
┌▓È_1
 62
     5
 10
-184.02672656269999
 20
538.07934308849985
 30
0.0
 11
-184.02672656269999
 21
536.57934308849985
 31
0.0
  0
LINE
  5
220
  8
┌▓È_1
 62
     5
 10
-194.52672656269999
 20
536.07934308849985
 30
0.0
 11
-184.52672656269999
 21
536.07934308849985
 31
0.0
  0
ARC
  5
221
  8
┌▓È_1
 62
     5
 10
-194.3267265627
 20
536.27934308850001
 30
0.0
 40
0.2
 50
180.0
 51
270.0
  0
LINE
  5
222
  8
┌▓È_1
 62
     5
 10
-194.52672656269999
 20
538.37934308850004
 30
0.0
 11
-194.52672656269999
 21
536.27934308850001
 31
0.0
  0
ARC
  5
223
  8
┌▓È_1
 62
     5
 10
-184.52672656269999
 20
536.57934308849985
 30
0.0
 40
0.5
 50
270.0
 51
0.0
  0
LINE
  5
224
  8
┌▓È_1
 62
     5
 10
-187.02672656269991
 20
549.07934308849985
 30
0.0
 11
-187.02672656269991
 21
541.57934308849985
 31
0.0
  0
ARC
  5
225
  8
┌▓È_1
 62
     5
 10
-188.02672656269999
 20
541.57934308849985
 30
0.0
 40
1.0
 50
270.0
 51
0.0
  0
ARC
  5
226
  8
┌▓È_1
 62
     5
 10
-192.3267265627
 20
540.37934308850004
 30
0.0
 40
0.2
 50
90.0
 51
180.0
  0
ARC
  5
227
  8
┌▓È_1
 62
     5
 10
-189.52416252500001
 20
554.27934308850001
 30
0.0
 40
0.3
 50
90.0
 51
180.0
  0
LINE
  5
228
  8
┌▓È_1
 62
     5
 10
-190.02672655660001
 20
544.37934308850004
 30
0.0
 11
-190.02672655660001
 21
542.97934308849995
 31
0.0
  0
ARC
  5
229
  8
┌▓È_1
 62
     5
 10
-190.32672655659999
 20
544.37934308850004
 30
0.0
 40
0.3
 50
0.0
 51
90.0
  0
ARC
  5
22A
  8
┌▓È_1
 62
     5
 10
-203.7233268576
 20
522.93023339030003
 30
0.0
 40
3.5
 50
150.0
 51
179.5
  0
ARC
  5
22B
  8
┌▓È_1
 62
     5
 10
-203.7233268576
 20
522.93023339030003
 30
0.0
 40
5.0
 50
150.0
 51
179.5
  0
LINE
  5
22C
  8
┌▓È_1
 62
     5
 10
-196.9266891055
 20
536.07934316410001
 30
0.0
 11
-200.17313667440001
 21
536.07934316410001
 31
0.0
  0
LINE
  5
22D
  8
┌▓È_1
  6
BORDER
 62
     3
 10
-175.94776044700001
 20
583.07934308849985
 30
0.0
 11
-240.0267265629
 21
583.07934308849985
 31
0.0
  0
LINE
  5
22E
  8
┌▓È_1
 62
     5
 10
-240.0267265629
 20
525.57934308849985
 30
0.0
 11
-224.2131031861
 21
525.57934308849985
 31
0.0
  0
ARC
  5
22F
  8
┌▓È_1
 62
     5
 10
-178.02672656129999
 20
541.07934308849985
 30
0.0
 40
2.0
 50
90.0
 51
180.0
  0
LINE
  5
230
  8
┌▓È_1
 62
     5
 10
-182.52672656129999
 20
547.07934308849997
 30
0.0
 11
-184.15072656129999
 21
545.45534308849994
 31
0.0
  0
LINE
  5
231
  8
┌▓È_1
 62
     5
 10
-180.02672656129999
 20
541.07934308849985
 30
0.0
 11
-180.02672656129999
 21
531.57934308849985
 31
0.0
  0
LINE
  5
232
  8
┌▓È_1
 62
     5
 10
-184.15072656129999
 20
545.45534308849994
 30
0.0
 11
-184.15072656129999
 21
530.57934308849997
 31
0.0
  0
LINE
  5
233
  8
┌▓È_1
 62
     5
 10
-189.52416252500001
 20
549.07934308849985
 30
0.0
 11
-187.02672656269991
 21
549.07934308849985
 31
0.0
  0
ARC
  5
234
  8
┌▓È_1
 62
     5
 10
-194.3267265627
 20
538.37934308850004
 30
0.0
 40
0.2
 50
90.0
 51
180.0
  0
ARC
  5
235
  8
┌▓È_1
 62
     5
 10
-186.72672656270001
 20
558.37888898660003
 30
0.0
 40
0.3
 50
93.0
 51
180.0
  0
LINE
  5
236
  8
┌▓È_1
 62
     5
 10
-187.02672656269991
 20
558.37888898660003
 30
0.0
 11
-187.02672656269991
 21
554.57934308849985
 31
0.0
  0
LINE
  5
237
  8
┌▓È_1
 10
-184.02672656269999
 20
554.57934308849985
 30
0.0
 11
-184.02672656269999
 21
538.07934308849985
 31
0.0
  0
LINE
  5
238
  8
┌▓È_1
 62
     5
 10
-182.52672656269999
 20
554.57934308849985
 30
0.0
 11
-182.52672656269999
 21
539.57934308849985
 31
0.0
  0
LINE
  5
239
  8
┌▓È_1
 62
     5
 10
-184.02672656269999
 20
538.07934308849985
 30
0.0
 11
-182.52672656269999
 21
539.57934308849985
 31
0.0
  0
LINE
  5
23A
  8
┌▓È_1
 10
-182.52672656269999
 20
554.57934308849985
 30
0.0
 11
-184.02672656269999
 21
554.57934308849985
 31
0.0
  0
LINE
  5
23B
  8
┌▓È_1
  6
STITCH
 10
-195.42852032069999
 20
536.07934316410001
 30
0.0
 11
-195.42852032069999
 21
520.07934316410001
 31
0.0
  0
LINE
  5
23C
  8
┌▓È_1
 62
     5
 10
-196.9266891055
 20
536.07934316410001
 30
0.0
 11
-196.9266891055
 21
520.07934316410001
 31
0.0
  0
ARC
  5
23D
  8
┌▓È_1
 62
     5
 10
-192.97672656270001
 20
540.27934308850001
 30
0.0
 40
0.3
 50
0.0
 51
90.0
  0
LINE
  5
23E
  8
┌▓È_1
 62
     5
 10
-192.6767265627
 20
540.27934308850001
 30
0.0
 11
-192.6767265627
 21
538.87934308850004
 31
0.0
  0
ARC
  5
23F
  8
┌▓È_1
 62
     5
 10
-192.97672656270001
 20
538.87934308850004
 30
0.0
 40
0.3
 50
270.0
 51
0.0
  0
LINE
  5
240
  8
┌▓È_1
 62
     5
 10
-195.02672656269999
 20
538.57934308849997
 30
0.0
 11
-192.97672656270001
 21
538.57934308849997
 31
0.0
  0
LINE
  5
241
  8
┌▓È_1
 62
     5
 10
-196.31106778029999
 20
540.57934308849985
 30
0.0
 11
-192.97672637529999
 21
540.57934308849985
 31
0.0
  0
LINE
  5
242
  8
┌▓È_1
 62
     5
 10
-224.22672656719999
 20
525.57934308849985
 30
0.0
 11
-224.22672656719999
 21
522.57934316410001
 31
0.0
  0
LINE
  5
243
  8
┌▓È_1
 62
     5
 10
-222.72672656719999
 20
544.67934308849999
 30
0.0
 11
-221.52723043469999
 21
544.67934308849999
 31
0.0
  0
LINE
  5
244
  8
┌▓È_1
  6
BORDER
 62
     3
 10
-240.02672656269999
 20
611.8480399117999
 30
0.0
 11
-240.02672656269999
 21
514.81252775879989
 31
0.0
  0
INSERT
  5
246
  8
┌▓È_1
  6
STITCH
  2
CLUMP7
 10
0.0
 20
0.0
 30
0.0
  0
LINE
  5
263
  8
┌▓È_1
 10
-182.52672656129999
 20
530.57934308849997
 30
0.0
 11
-184.15072656129999
 21
530.57934308849997
 31
0.0
  0
LINE
  5
264
  8
┌▓È_1
 62
     5
 10
-184.5267265649
 20
530.57934308849997
 30
0.0
 11
-184.52672654
 21
525.07934304820003
 31
0.0
  0
LINE
  5
265
  8
┌▓È_1
 62
     5
 10
-188.52672651789999
 20
542.57934308849997
 30
0.0
 11
-195.0267265649
 21
542.57934308849997
 31
0.0
  0
LINE
  5
266
  8
┌▓È_1
 62
     5
 10
-195.02672665879999
 20
540.57934308849985
 30
0.0
 11
-188.5267264709
 21
540.57934308849985
 31
0.0
  0
ARC
  5
267
  8
┌▓È_1
 62
     5
 10
-188.5267265649
 20
541.57934308849985
 30
0.0
 40
1.0
 50
270.0
 51
90.0
  0
ARC
  5
268
  8
┌▓È_1
 62
     5
 10
-195.0267265649
 20
541.57934308849985
 30
0.0
 40
1.0
 50
90.0
 51
270.0
  0
LINE
  5
269
  8
┌▓È_1
 62
     5
 10
-189.82416252499999
 20
554.27934308850001
 30
0.0
 11
-189.82416252499999
 21
549.37934308850004
 31
0.0
  0
ARC
  5
26A
  8
┌▓È_1
 62
     5
 10
-189.52416252500001
 20
549.37934308850004
 30
0.0
 40
0.3
 50
180.0
 51
270.0
  0
LINE
  5
26B
  8
┌▓È_1
 62
     5
 10
-197.32672655659999
 20
536.67934308849999
 30
0.0
 11
-199.82672655659999
 21
536.67934308849999
 31
0.0
  0
ARC
  5
26C
  8
┌▓È_1
 62
     5
 10
-196.52672655660001
 20
542.37934308850004
 30
0.0
 40
0.3
 50
90.0
 51
180.0
  0
LINE
  5
26D
  8
┌▓È_1
 62
     5
 10
-196.82672655659999
 20
542.37934308850004
 30
0.0
 11
-196.82672655659999
 21
537.17934308849988
 31
0.0
  0
ARC
  5
26E
  8
┌▓È_1
 62
     5
 10
-192.02672655660001
 20
542.12934308850004
 30
0.0
 40
0.25
 50
210.00002857600001
 51
329.99999745470001
  0
LINE
  5
26F
  8
┌▓È_1
 62
     5
 10
-192.2432328109
 20
542.00434292129989
 30
0.0
 11
-192.6329443391999
 21
542.67934308849988
 31
0.0
  0
LINE
  5
270
  8
┌▓È_1
 62
     5
 10
-191.8102202778
 20
542.00434296349999
 30
0.0
 11
-191.4205087739
 21
542.67934308849988
 31
0.0
  0
ARC
  5
271
  8
┌▓È_1
 62
     5
 10
-192.52672655660001
 20
544.67934308849999
 30
0.0
 40
0.5
 50
90.0
 51
180.0
  0
LINE
  5
272
  8
┌▓È_1
 62
     5
 10
-191.52672655660001
 20
545.17934308849999
 30
0.0
 11
-192.52672655660001
 21
545.17934308849999
 31
0.0
  0
ARC
  5
273
  8
┌▓È_1
 62
     5
 10
-191.52672655660001
 20
544.67934308849999
 30
0.0
 40
0.5
 50
0.0
 51
90.0
  0
LINE
  5
274
  8
┌▓È_1
 62
     5
 10
-190.32672655659999
 20
544.67934308849999
 30
0.0
 11
-191.02672655660001
 21
544.67934308849999
 31
0.0
  0
LINE
  5
275
  8
┌▓È_1
 62
     5
 10
-193.02672655660001
 20
544.67934308849999
 30
0.0
 11
-197.82672655659999
 21
544.67934308849999
 31
0.0
  0
LINE
  5
276
  8
┌▓È_1
 62
     5
 10
-192.6329443391999
 20
542.67934308849988
 30
0.0
 11
-196.52672655660001
 21
542.67934308849988
 31
0.0
  0
ARC
  5
277
  8
┌▓È_1
 62
     5
 10
-190.32672655659999
 20
542.97934308849995
 30
0.0
 40
0.3
 50
270.0
 51
0.0
  0
LINE
  5
278
  8
┌▓È_1
 62
     5
 10
-190.32672655659999
 20
542.67934308849988
 30
0.0
 11
-191.4205087739
 21
542.67934308849988
 31
0.0
  0
LINE
  5
279
  8
┌▓È_1
 62
     5
 10
-315.02672656319999
 20
546.57934308849985
 30
0.0
 11
-315.02672656319999
 21
543.57934308849985
 31
0.0
  0
LINE
  5
27A
  8
┌▓È_1
 62
     5
 10
-310.52672656269999
 20
554.57934308849985
 30
0.0
 11
-240.02672656269999
 21
554.57934308849985
 31
0.0
  0
LINE
  5
27B
  8
┌▓È_1
 62
     5
 10
-240.0267265672
 20
559.57934308849997
 30
0.0
 11
-310.55289454080003
 21
559.57934308849997
 31
0.0
  0
LINE
  5
27C
  8
┌▓È_1
 62
     5
 10
-314.52672656319999
 20
547.07934308849997
 30
0.0
 11
-240.02672656339999
 21
547.07934308849997
 31
0.0
  0
ARC
  5
27D
  8
┌▓È_1
 62
     5
 10
-196.31106770260001
 20
540.37934308850004
 30
0.0
 40
0.2
 50
90.0
 51
179.5
  0
LINE
  5
27E
  8
┌▓È_1
  6
STITCH
 10
-196.9266891055
 20
536.07934316410001
 30
0.0
 11
-195.42852032069999
 21
536.07934316410001
 31
0.0
  0
LINE
  5
27F
  8
┌▓È_1
  6
STITCH
 10
-196.9266891055
 20
520.07934316410001
 30
0.0
 11
-195.42852032069999
 21
520.07934316410001
 31
0.0
  0
LINE
  5
280
  8
┌▓È_1
 62
     5
 10
-198.82672655659999
 20
541.41139389609998
 30
0.0
 11
-208.05345387649999
 21
525.43023339030003
 31
0.0
  0
LINE
  5
281
  8
┌▓È_1
 62
     5
 10
-189.52416252500001
 20
554.57934308849985
 30
0.0
 11
-187.02672656269991
 21
554.57934308849985
 31
0.0
  0
LINE
  5
282
  8
┌▓È_1
 62
     5
 10
-309.27672685750002
 20
548.57934308849985
 30
0.0
 11
-240.0267265633
 21
548.57934308849985
 31
0.0
  0
LINE
  5
283
  8
┌▓È_1
 62
     5
 10
-240.02672656339999
 20
547.07934308849997
 30
0.0
 11
-309.27672678980002
 21
547.07934308849997
 31
0.0
  0
LINE
  5
284
  8
┌▓È_1
 62
     5
 10
-211.50727928340001
 20
484.87934316409991
 30
0.0
 11
-218.02672655660001
 21
484.87934316409991
 31
0.0
  0
ARC
  5
285
  8
┌▓È_1
 62
     5
 10
-218.02672655660001
 20
481.87934316410002
 30
0.0
 40
3.0
 50
90.0
 51
180.0
  0
LINE
  5
286
  8
┌▓È_1
 62
     5
 10
-199.82672655659999
 20
536.67934308849999
 30
0.0
 11
-206.75441577079999
 21
524.68023339030003
 31
0.0
  0
ARC
  5
287
  8
┌▓È_1
 62
     5
 10
-197.82672655659999
 20
543.67934308849999
 30
0.0
 40
1.0
 50
90.0
 51
180.0
  0
LINE
  5
288
  8
┌▓È_1
 62
     5
 10
-198.82672655659999
 20
543.67934308849999
 30
0.0
 11
-198.82672655659999
 21
541.41139389609998
 31
0.0
  0
ARC
  5
289
  8
┌▓È_1
 62
     5
 10
-197.32672655659999
 20
537.17934308849988
 30
0.0
 40
0.5
 50
270.0
 51
0.0
  0
LINE
  5
28A
  8
┌▓È_1
 62
     5
 10
-196.9266891055
 20
520.07934316410001
 30
0.0
 11
-207.24833947400001
 21
520.07934316410001
 31
0.0
  0
LINE
  5
28B
  8
┌▓È_1
 62
     5
 10
-195.096541505
 20
530.57934308849997
 30
0.0
 11
-184.15072656129999
 21
530.57934308849997
 31
0.0
  0
LINE
  5
28C
  8
┌▓È_1
 62
     5
 10
-195.04854373219999
 20
536.07934308849985
 30
0.0
 11
-194.52672656269999
 21
536.07934308849985
 31
0.0
  0
LINE
  5
28D
  8
┌▓È_1
  6
BORDER
 62
     3
 10
-240.0267265649
 20
553.78873275989986
 30
0.0
 11
-240.0267265649
 21
528.98497689129999
 31
0.0
  0
LINE
  5
28E
  8
┌▓È_1
 62
     5
 10
-222.72672656719999
 20
545.17934308849999
 30
0.0
 11
-221.52723043469999
 21
545.17934308849999
 31
0.0
  0
LINE
  5
28F
  8
┌▓È_1
 10
-224.22672656719999
 20
522.57934316410001
 30
0.0
 11
-240.0267265672
 21
522.57934316410001
 31
0.0
  0
LINE
  5
290
  8
┌▓È_1
 62
     5
 10
-222.72672656719999
 20
565.57934308849985
 30
0.0
 11
-222.72672656719999
 21
522.5832701638999
 31
0.0
  0
LINE
  5
291
  8
┌▓È_1
 62
     5
 10
-222.72672656719999
 20
522.5832701638999
 30
0.0
 11
-222.58533304389999
 21
495.57934316410001
 31
0.0
  0
LINE
  5
292
  8
┌▓È_1
 62
     5
 10
-216.52672656249999
 20
754.4708072917
 30
0.0
 11
-216.52672656249999
 21
753.47080729169988
 31
0.0
  0
LINE
  5
293
  8
┌▓È_1
 62
     5
 10
-207.02672656249999
 20
752.47080729169988
 30
0.0
 11
-215.52672656249999
 21
752.47080729169988
 31
0.0
  0
LINE
  5
294
  8
┌▓È_1
 62
     5
 10
-240.02672656249999
 20
754.4708072917
 30
0.0
 11
-216.52672656249999
 21
754.4708072917
 31
0.0
  0
ARC
  5
295
  8
┌▓È_1
 62
     5
 10
-240.02672656249999
 20
770.4708072917
 30
0.0
 40
39.0
 50
215.0
 51
225.0
  0
LINE
  5
296
  8
┌▓È_1
 62
     5
 10
-222.72672656719999
 20
558.57448513190002
 30
0.0
 11
-186.95419556709999
 21
558.57448513190002
 31
0.0
  0
LINE
  5
297
  8
┌▓È_1
 62
     5
 10
-219.52723043469999
 20
545.17934308849999
 30
0.0
 11
-192.52672655660001
 21
545.17934308849999
 31
0.0
  0
LINE
  5
298
  8
┌▓È_1
 10
-222.72672656719999
 20
524.24538946259997
 30
0.0
 11
-208.54726347670001
 21
524.24538946259997
 31
0.0
  0
LINE
  5
299
  8
┌▓È_1
 62
     5
 10
-219.52723043469999
 20
544.67934308849999
 30
0.0
 11
-197.82672655659999
 21
544.67934308849999
 31
0.0
  0
LINE
  5
29A
  8
┌▓È_1
 10
-222.54949615979999
 20
488.73506501249989
 30
0.0
 11
-209.02193396300001
 21
488.73506501249989
 31
0.0
  0
ARC
  5
29B
  8
┌▓È_1
 62
     5
 10
-142.02672659480001
 20
527.36740585029986
 30
0.0
 40
2.0
 50
270.5
 51
0.0000000475
  0
ARC
  5
29C
  8
┌▓È_1
 62
     5
 10
-169.52672656269999
 20
555.07934308849997
 30
0.0
 40
0.5
 50
270.0
 51
0.0
  0
DIMENSION
  5
2AB
  8
┌▓È_1
  2
*D24
 10
-52.1098697917
 20
495.07934308849991
 30
0.0
 11
-52.1098697917
 21
527.32934308849985
 31
0.0
 70
   128
  1
<>
 13
-130.6229140625
 23
495.07934308849991
 33
0.0
 14
-169.5528945408
 24
559.57934308849997
 34
0.0
 50
90.0
  0
ARC
  5
2AC
  8
┌▓È_1
 62
     5
 10
-142.02672654129989
 20
462.79128026260003
 30
0.0
 40
2.0
 50
0.0000000475
 51
89.500000000000014
  0
LINE
  5
2AD
  8
┌▓È_1
 62
     5
 10
-155.02672659709989
 20
461.57934305639992
 30
0.0
 11
-140.02672654209999
 21
461.57934305639992
 31
0.0
  0
LINE
  5
2AE
  8
┌▓È_1
 62
     5
 10
-155.0267265043
 20
461.57934308849991
 30
0.0
 11
-140.02672656799999
 21
461.57934308849991
 31
0.0
  0
INSERT
  5
2B0
  8
┌▓È_1
  2
BALLON10
 10
0.0
 20
0.0
 30
0.0
  0
ARC
  5
2B9
  8
┌▓È_1
 62
     5
 10
-314.52672656319999
 20
546.57934308849985
 30
0.0
 40
0.5
 50
90.0
 51
180.0
  0
ARC
  5
2BA
  8
┌▓È_1
 62
     5
 10
-314.52672656319999
 20
543.57934308849985
 30
0.0
 40
0.5
 50
180.0
 51
270.00001507040002
  0
ARC
  5
2BB
  8
┌▓È_1
 62
     5
 10
-309.27672652870001
 20
553.32934308849997
 30
0.0
 40
0.75
 50
90.000025948600012
 51
269.99998339569999
  0
ARC
  5
2BC
  8
┌▓È_1
 62
     5
 10
-306.02672652870001
 20
552.77934308850001
 30
0.0
 40
0.5
 50
203.57817847819999
 51
269.99998324360001
  0
ARC
  5
2BD
  8
┌▓È_1
 62
     5
 10
-309.27672652870001
 20
547.82934308849985
 30
0.0
 40
0.75
 50
90.000025117999996
 51
269.99998005330002
  0
ARC
  5
2BE
  8
┌▓È_1
 62
     5
 10
-306.02672652870001
 20
548.37934308850004
 30
0.0
 40
0.5
 50
90.000003320000005
 51
156.42182152180001
  0
ARC
  5
2BF
  8
┌▓È_1
 62
     5
 10
-310.52672656269999
 20
559.08002832110003
 30
0.0
 40
0.5
 50
87.0
 51
180.0
  0
LINE
  5
2C0
  8
┌▓È_1
 62
     5
 10
-311.02672656269999
 20
559.08002832110003
 30
0.0
 11
-311.02672656269999
 21
555.07934308849997
 31
0.0
  0
ARC
  5
2C1
  8
┌▓È_1
 62
     5
 10
-310.52672656269999
 20
555.07934308849997
 30
0.0
 40
0.5
 50
180.0
 51
270.0
  0
LINE
  5
2C2
  8
┌▓È_1
 62
     5
 10
-202.27672656249999
 20
752.47080729169988
 30
0.0
 11
-204.02672656249999
 21
752.47080729169988
 31
0.0
  0
LINE
  5
2C3
  8
┌▓È_1
 62
     5
 10
-234.02672656249999
 20
718.11347733679986
 30
0.0
 11
-234.02672656249999
 21
717.81152510890001
 31
0.0
  0
ARC
  5
2C4
  8
┌▓È_1
 62
     5
 10
-240.02672656249999
 20
770.4708072917
 30
0.0
 40
39.0
 50
255.0
 51
265.0
  0
ARC
  5
2C5
  8
┌▓È_1
 62
     5
 10
-240.02672656249999
 20
770.4708072917
 30
0.0
 40
39.0
 50
295.0
 51
305.0
  0
LINE
  5
2C6
  8
┌▓È_1
 62
     5
 10
-314.52672643160003
 20
543.07934308849997
 30
0.0
 11
-240.0267265638
 21
543.07934308849997
 31
0.0
  0
LINE
  5
2C7
  8
┌▓È_1
 62
     5
 10
-309.2767268683001
 20
554.07934308849985
 30
0.0
 11
-240.02672656280001
 21
554.07934308849985
 31
0.0
  0
LINE
  5
2C8
  8
┌▓È_1
 62
     5
 10
-309.27672674600001
 20
552.57934308849985
 30
0.0
 11
-240.0267265629
 21
552.57934308849985
 31
0.0
  0
LINE
  5
2C9
  8
┌▓È_1
 62
     5
 10
-306.02672642729999
 20
552.27934308850001
 30
0.0
 11
-240.0267265629
 21
552.27934308850001
 31
0.0
  0
LINE
  5
2CA
  8
┌▓È_1
 62
     5
 10
-306.02672650220001
 20
548.87934308850004
 30
0.0
 11
-240.02672656319999
 21
548.87934308850004
 31
0.0
  0
LINE
  5
2CB
  8
┌▓È_1
 62
     5
 10
-214.32006244109999
 20
752.47080729169988
 30
0.0
 11
-204.02672656249999
 21
745.2633359161
 31
0.0
  0
ARC
  5
2CC
  8
┌▓È_1
 62
     5
 10
-215.52672656249999
 20
753.47080729169988
 30
0.0
 40
1.0
 50
180.0
 51
270.0
  0
LINE
  5
2CD
  8
┌▓È_1
 62
     5
 10
-216.52672656249999
 20
786.47080729169988
 30
0.0
 11
-216.52672656249999
 21
771.72080729169988
 31
0.0
  0
LINE
  5
2CE
  8
┌▓È_1
 62
     5
 10
-214.52672656249999
 20
775.4708072917
 30
0.0
 11
-238.67672656249999
 21
775.4708072917
 31
0.0
  0
INSERT
  5
2CF
  8
0
  6
CONTINUOUS
  2
*U72
 10
0.0
 20
0.0
 30
0.0
  0
ARC
  5
2D0
  8
┌▓È_1
 62
     5
 10
-240.02672656249999
 20
770.4708072917
 30
0.0
 40
39.0
 50
115.0
 51
125.0
  0
INSERT
  5
2D2
  8
┌▓È_1
 62
     5
  2
CLUMP8
 10
0.0
 20
0.0
 30
0.0
  0
ARC
  5
2DD
  8
┌▓È_1
 62
     5
 10
-240.02672656249999
 20
770.4708072917
 30
0.0
 40
39.0
 50
275.0
 51
285.0
  0
LINE
  5
2DE
  8
┌▓È_1
 62
     5
 10
-246.02672656249999
 20
718.11347733679986
 30
0.0
 11
-246.02672656249999
 21
717.81152510890001
 31
0.0
  0
ARC
  5
2DF
  8
┌▓È_1
 62
     5
 10
-212.89006280359999
 20
735.20252862600012
 30
0.0
 40
2.0
 50
215.0
 51
307.57595892770001
  0
ARC
  5
2E0
  8
┌▓È_1
 62
     5
 10
-240.02672656249999
 20
770.4708072917
 30
0.0
 40
46.5
 50
307.57595892770001
 51
312.42404107229999
  0
ARC
  5
2E1
  8
┌▓È_1
 62
     5
 10
-210.00648450689999
 20
737.62213811130005
 30
0.0
 40
2.0
 50
312.42404107229999
 51
45.0
  0
LINE
  5
2E2
  8
┌▓È_1
 62
     5
 10
-217.17635845460001
 20
754.4708072917
 30
0.0
 11
-216.52672656249999
 21
754.01593014369985
 31
0.0
  0
ARC
  5
2E3
  8
┌▓È_1
 62
     5
 10
-226.6019354869
 20
753.04166547179977
 30
0.0
 40
1.0
 50
127.60525126509999
 51
215.0
  0
ARC
  5
2E4
  8
┌▓È_1
 62
     5
 10
-240.02672656249999
 20
770.4708072917
 30
0.0
 40
21.0
 50
307.60525126509998
 51
310.36759354420002
  0
INSERT
  5
2E6
  8
┌▓È_1
 62
     5
  2
CLUMP9
 10
0.0
 20
0.0
 30
0.0
  0
ARC
  5
2F1
  8
┌▓È_1
 62
     5
 10
-240.02672656249999
 20
770.4708072917
 30
0.0
 40
39.0
 50
235.0
 51
245.0
  0
LINE
  5
2F2
  8
┌▓È_1
 62
     5
 10
-190.02672656249999
 20
750.9708072917
 30
0.0
 11
-193.02672656249999
 21
750.9708072917
 31
0.0
  0
LINE
  5
2F3
  8
┌▓È_1
 62
     5
 10
-204.02672656249999
 20
750.9708072917
 30
0.0
 11
-207.02672656249999
 21
750.9708072917
 31
0.0
  0
INSERT
  5
2F5
  8
┌▓È_1
 62
     5
  2
CLUMP10
 10
0.0
 20
0.0
 30
0.0
  0
ARC
  5
300
  8
┌▓È_1
 62
     5
 10
-165.52672656319999
 20
546.57934308849985
 30
0.0
 40
0.5
 50
0.0
 51
90.0
  0
LINE
  5
301
  8
┌▓È_1
 62
     5
 10
-165.02672656319999
 20
546.57934308849985
 30
0.0
 11
-165.02672656319999
 21
543.57934308849985
 31
0.0
  0
ARC
  5
302
  8
┌▓È_1
 62
     5
 10
-165.52672656319999
 20
543.57934308849985
 30
0.0
 40
0.5
 50
270.0
 51
0.0
  0
LINE
  5
303
  8
┌▓È_1
 62
     5
 10
-169.02672656269999
 20
559.08002832110003
 30
0.0
 11
-169.02672656269999
 21
555.07934308849997
 31
0.0
  0
ARC
  5
304
  8
┌▓È_1
 62
     5
 10
-169.52672656269999
 20
559.08002832110003
 30
0.0
 40
0.5
 50
0.0
 51
93.0
  0
INSERT
  5
306
  8
┌▓È_1
 62
     5
  2
CLUMP11
 10
0.0
 20
0.0
 30
0.0
  0
LINE
  5
311
  8
┌▓È_1
  6
BORDER
 62
     3
 10
-300.02672656250002
 20
770.4708072917
 30
0.0
 11
-180.02672656249999
 21
770.4708072917
 31
0.0
  0
LINE
  5
312
  8
┌▓È_1
  6
BORDER
 62
     3
 10
-300.02672656250002
 20
770.4708072917
 30
0.0
 11
-180.02672656249999
 21
770.4708072917
 31
0.0
  0
INSERT
  5
314
  8
┌▓È_1
 62
     5
  2
CLUMP12
 10
0.0
 20
0.0
 30
0.0
  0
INSERT
  5
320
  8
┌▓È_1
 62
     5
  2
CLUMP13
 10
0.0
 20
0.0
 30
0.0
  0
INSERT
  5
32B
  8
0
  6
CONTINUOUS
  2
*U73
 10
0.0
 20
0.0
 30
0.0
  0
ARC
  5
32C
  8
┌▓È_1
 62
     5
 10
-265.02672656250002
 20
771.65420404229985
 30
0.0
 40
1.0
 50
0.0
 51
85.0
  0
INSERT
  5
32D
  8
0
  6
CONTINUOUS
  2
*U74
 10
0.0
 20
0.0
 30
0.0
  0
INSERT
  5
32E
  8
0
  6
CONTINUOUS
  2
*U75
 10
0.0
 20
0.0
 30
0.0
  0
LINE
  5
32F
  8
┌▓È_1
 62
     5
 10
-264.02672656250002
 20
769.28741054110003
 30
0.0
 11
-264.02672656250002
 21
771.65420404229985
 31
0.0
  0
ARC
  5
330
  8
┌▓È_1
 62
     5
 10
-265.02672656250002
 20
769.28741054110003
 30
0.0
 40
1.0
 50
275.0
 51
0.0
  0
LINE
  5
331
  8
┌▓È_1
 62
     5
 10
-204.02672656249999
 20
789.97080729169988
 30
0.0
 11
-207.02672656249999
 21
789.97080729169988
 31
0.0
  0
LINE
  5
332
  8
┌▓È_1
 62
     5
 10
-207.02672656249999
 20
788.4708072917
 30
0.0
 11
-215.52672656249999
 21
788.4708072917
 31
0.0
  0
ARC
  5
333
  8
┌▓È_1
 62
     5
 10
-215.52672656249999
 20
787.4708072917
 30
0.0
 40
1.0
 50
90.0
 51
180.0
  0
LINE
  5
334
  8
┌▓È_1
 62
     5
 10
-216.52672656249999
 20
787.4708072917
 30
0.0
 11
-216.52672656249999
 21
786.47080729169988
 31
0.0
  0
LINE
  5
335
  8
┌▓È_1
 62
     5
 10
-292.3840565173
 20
776.4708072917
 30
0.0
 11
-292.68600874520001
 21
776.4708072917
 31
0.0
  0
ARC
  5
336
  8
┌▓È_1
 62
     5
 10
-240.02672656249999
 20
770.4708072917
 30
0.0
 40
39.0
 50
155.0
 51
165.0
  0
LINE
  5
337
  8
┌▓È_1
 62
     5
 10
-292.3840565173
 20
764.4708072917
 30
0.0
 11
-292.68600874520001
 21
764.4708072917
 31
0.0
  0
INSERT
  5
339
  8
┌▓È_1
 62
     5
  2
CLUMP14
 10
0.0
 20
0.0
 30
0.0
  0
INSERT
  5
345
  8
┌▓È_1
 62
     5
  2
CLUMP15
 10
0.0
 20
0.0
 30
0.0
  0
ARC
  5
350
  8
┌▓È_1
 62
     5
 10
-240.02672656249999
 20
770.4708072917
 30
0.0
 40
39.0
 50
315.0
 51
325.0
  0
LINE
  5
351
  8
┌▓È_1
 62
     5
 10
-227.42108753119999
 20
752.46808903539977
 30
0.0
 11
-214.52836689220001
 21
734.05537575330004
 31
0.0
  0
LINE
  5
352
  8
┌▓È_1
 62
     5
 10
-224.02672656249999
 20
754.4708072917
 30
0.0
 11
-208.5922709445
 21
739.03635167369987
 31
0.0
  0
ARC
  5
353
  8
┌▓È_1
 62
     5
 10
-240.02672656249999
 20
770.4708072917
 30
0.0
 40
53.0
 50
332.47291471210002
 51
338.41232561279998
  0
ARC
  5
354
  8
┌▓È_1
 62
     5
 10
-240.02672656249999
 20
770.4708072917
 30
0.0
 40
52.700000000000003
 50
333.10545580740001
 51
338.28321245439997
  0
LINE
  5
355
  8
┌▓È_1
 62
     5
 10
-209.21509959150001
 20
769.2208072917
 30
0.0
 11
-218.6209126908
 21
769.2208072917
 31
0.0
  0
ARC
  5
356
  8
┌▓È_1
 62
     5
 10
181.90365462779999
 20
820.31173836789981
 30
0.0
 40
7.0
 50
359.99999999489989
 51
89.499999984799999
  0
LINE
  5
357
  8
┌▓È_1
 62
     5
 10
181.90365462779999
 20
769.47080728399999
 30
0.0
 11
181.903654628
 21
771.47080728399987
 31
0.0
  0
LINE
  5
358
  8
┌▓È_1
 62
     5
 10
175.38872595960001
 20
771.47080728570006
 30
0.0
 11
181.903654628
 21
771.47080728399987
 31
0.0
  0
LINE
  5
359
  8
┌▓È_1
 62
     5
 10
175.3887259592
 20
769.47080728569995
 30
0.0
 11
181.90365462779999
 21
769.47080728399999
 31
0.0
  0
LINE
  5
35A
  8
┌▓È_1
  6
STITCH
 10
399.65924479170002
 20
846.21169269699988
 30
0.0
 11
252.65924479169999
 21
846.21169269699988
 31
0.0
  0
LINE
  5
35B
  8
┌▓È_1
  6
STITCH
 10
252.65924479169999
 20
617.21169269699999
 30
0.0
 11
399.65924479170002
 21
617.21169269699999
 31
0.0
  0
INSERT
  5
35D
  8
┌▓È_1
  2
CLUMP16
 10
0.0
 20
0.0
 30
0.0
  0
ARC
  5
3B4
  8
┌▓È_1
 62
     5
 10
-240.02672656249999
 20
770.4708072917
 30
0.0
 40
39.0
 50
135.0
 51
145.0
  0
LINE
  5
3B5
  8
┌▓È_1
 62
     5
 10
-193.02672656249999
 20
752.47080729169988
 30
0.0
 11
-194.77672656249999
 21
752.47080729169988
 31
0.0
  0
ARC
  5
3B6
  8
┌▓È_1
 62
     5
 10
-210.00648450689999
 20
803.31947647200013
 30
0.0
 40
2.0
 50
315.0
 51
47.575958927599999
  0
ARC
  5
3B7
  8
┌▓È_1
 62
     5
 10
-240.02672656249999
 20
770.4708072917
 30
0.0
 40
46.5
 50
47.575958927700007
 51
52.424041072299993
  0
ARC
  5
3B8
  8
┌▓È_1
 62
     5
 10
-212.89006280359999
 20
805.73908595729995
 30
0.0
 40
2.0
 50
52.424041072299993
 51
145.0
  0
LINE
  5
3B9
  8
┌▓È_1
 62
     5
 10
-187.66939660770001
 20
776.4708072917
 30
0.0
 11
-187.36744437979999
 21
776.4708072917
 31
0.0
  0
LINE
  5
3BA
  8
┌▓È_1
 62
     5
 10
-238.67672656249999
 20
775.4708072917
 30
0.0
 11
-238.67672656249999
 21
765.47080729169988
 31
0.0
  0
LINE
  5
3BB
  8
┌▓È_1
 62
     5
 10
-209.21509959150001
 20
771.72080729169988
 30
0.0
 11
-218.6209126908
 21
771.72080729169988
 31
0.0
  0
LINE
  5
3BC
  8
┌▓È_1
 62
     5
 10
-214.52672656249999
 20
765.47080729169988
 30
0.0
 11
-238.67672656249999
 21
765.47080729169988
 31
0.0
  0
LINE
  5
3BD
  8
┌▓È_1
 62
     5
 10
-193.02672656249999
 20
788.4708072917
 30
0.0
 11
-194.77672656249999
 21
788.4708072917
 31
0.0
  0
LINE
  5
3BE
  8
┌▓È_1
 62
     5
 10
-202.27672656249999
 20
788.4708072917
 30
0.0
 11
-204.02672656249999
 21
788.4708072917
 31
0.0
  0
ARC
  5
3BF
  8
┌▓È_1
 62
     5
 10
-200.58202008750001
 20
791.07093183259985
 30
0.0
 40
2.0
 50
315.56799981889998
 51
27.5759589277
  0
LINE
  5
3C0
  8
┌▓È_1
 62
     5
 10
-234.02672656249999
 20
822.82813724649998
 30
0.0
 11
-234.02672656249999
 21
823.13008947440005
 31
0.0
  0
LINE
  5
3C1
  8
┌▓È_1
 62
     5
 10
-246.02672656249999
 20
822.82813724649998
 30
0.0
 11
-246.02672656249999
 21
823.13008947440005
 31
0.0
  0
LINE
  5
3C2
  8
┌▓È_1
 62
     5
 10
-187.66939660770001
 20
764.4708072917
 30
0.0
 11
-187.36744437979999
 21
764.4708072917
 31
0.0
  0
ARC
  5
3C3
  8
┌▓È_1
 62
     5
 10
-240.02672656249999
 20
770.4708072917
 30
0.0
 40
39.0
 50
95.0
 51
105.0
  0
ARC
  5
3C4
  8
┌▓È_1
 62
     5
 10
-240.02672656249999
 20
770.4708072917
 30
0.0
 40
39.0
 50
75.0
 51
85.0
  0
LINE
  5
3C5
  8
┌▓È_1
  6
BORDER
 62
     3
 10
77.983871755799996
 20
770.4708073029999
 30
0.0
 11
205.82343750000001
 21
770.47080728029994
 31
0.0
  0
LINE
  5
3C6
  8
┌▓È_1
 62
     5
 10
114.0912905502
 20
827.90379447049986
 30
0.0
 11
181.96474037819991
 21
827.31147182929976
 31
0.0
  0
LINE
  5
3C7
  8
┌▓È_1
  6
BORDER
 62
     3
 10
18.954043609500001
 20
770.47080730770006
 30
0.0
 11
130.7074290262
 21
770.47080730770006
 31
0.0
  0
LINE
  5
3C8
  8
┌▓È_1
  6
BORDER
 62
     3
 10
64.726318569599997
 20
770.47080730160008
 30
0.0
 11
122.1704699531
 21
770.47080730160008
 31
0.0
  0
LINE
  5
3C9
  8
┌▓È_1
  6
BORDER
 62
     3
 10
64.726318569599997
 20
770.47080730160008
 30
0.0
 11
122.1704699531
 21
770.47080730160008
 31
0.0
  0
LINE
  5
3CA
  8
┌▓È_1
 62
     5
 10
142.90365463090001
 20
803.95587862309992
 30
0.0
 11
142.90365463180001
 21
814.47080725080002
 31
0.0
  0
LINE
  5
3CB
  8
┌▓È_1
 62
     5
 10
140.90365463090001
 20
803.95587862320008
 30
0.0
 11
140.90365463180001
 21
814.47080725110015
 31
0.0
  0
LINE
  5
3CC
  8
┌▓È_1
 62
     5
 10
140.90365463180001
 20
814.47080725110015
 30
0.0
 11
142.90365463180001
 21
814.47080725080002
 31
0.0
  0
LINE
  5
3CD
  8
┌▓È_1
  6
STITCH
 10
252.65924479169999
 20
846.21169269699988
 30
0.0
 11
252.65924479169999
 21
617.21169269699999
 31
0.0
  0
DIMENSION
  5
3DC
  8
┌▓È_1
  2
*D35
 10
393.95576171869999
 20
662.07126300949994
 30
0.0
 11
393.95576171869999
 21
674.07126300949994
 31
0.0
 70
   128
  1
<>
 13
374.53376030750002
 23
662.07126300949994
 33
0.0
 14
339.5712559590001
 24
686.07126300949994
 34
0.0
 50
90.0
  0
DIMENSION
  5
3EB
  8
┌▓È_1
  2
*D36
 10
393.95576171869999
 20
648.07126300949994
 30
0.0
 11
393.95576171869999
 21
655.07126300949994
 31
0.0
 70
   128
  1
<>
 13
373.53376024400001
 23
648.07126300949994
 33
0.0
 14
374.53376030750002
 24
662.07126300949994
 34
0.0
 50
90.0
  0
LINE
  5
3EC
  8
┌▓È_1
 62
     5
 10
-240.02672656249999
 20
786.47080729169988
 30
0.0
 11
-216.52672656249999
 21
786.47080729169988
 31
0.0
  0
INSERT
  5
3ED
  8
0
  6
CONTINUOUS
  2
*U76
 10
0.0
 20
0.0
 30
0.0
  0
DIMENSION
  5
3F7
  8
┌▓È_1
  2
*D37
 10
359.4772052351999
 20
807.87675600509999
 30
0.0
 11
322.07125642459999
 21
770.47080719450003
 31
0.0
 70
   131
  1
<>
 15
284.66530778560002
 25
733.06485855559993
 35
0.0
 40
0.0
  0
INSERT
  5
3F9
  8
┌▓È_1
  2
BALLON11
 10
0.0
 20
0.0
 30
0.0
  0
LINE
  5
402
  8
┌▓È_1
  6
STITCH
 10
399.65924479170002
 20
617.21169269699999
 30
0.0
 11
399.65924479170002
 21
846.21169269699988
 31
0.0
  0
INSERT
  5
404
  8
┌▓È_1
  2
CLUMP17
 10
0.0
 20
0.0
 30
0.0
  0
LINE
  5
42F
  8
┌▓È_1
 62
     5
 10
-227.42108753119999
 20
788.47352554789995
 30
0.0
 11
-214.52836689220001
 21
806.88623883000014
 31
0.0
  0
ARC
  5
430
  8
┌▓È_1
 62
     5
 10
-240.02672656249999
 20
770.4708072917
 30
0.0
 40
46.5
 50
27.5759589277
 51
32.4240410723
  0
ARC
  5
431
  8
┌▓È_1
 62
     5
 10
-202.4641421515
 20
794.33086287339995
 30
0.0
 40
2.0
 50
32.424041072400001
 51
125.0
  0
LINE
  5
432
  8
┌▓È_1
 62
     5
 10
-224.02672656249999
 20
786.47080729169988
 30
0.0
 11
-208.5922709445
 21
801.90526290970001
 31
0.0
  0
LINE
  5
433
  8
┌▓È_1
 62
     5
 10
-217.17635845460001
 20
786.47080729169988
 30
0.0
 11
-216.52672656249999
 21
786.9256844396001
 31
0.0
  0
LINE
  5
434
  8
┌▓È_1
 62
     5
 10
-214.32006244109999
 20
788.4708072917
 30
0.0
 11
-203.61129502419999
 21
795.96916696199992
 31
0.0
  0
LINE
  5
435
  8
┌▓È_1
 62
     5
 10
-190.02672656249999
 20
789.97080729169988
 30
0.0
 11
-193.02672656249999
 21
789.97080729169988
 31
0.0
  0
LINE
  5
436
  8
┌▓È_1
 62
     5
 10
-209.21509959150001
 20
771.72080729169988
 30
0.0
 11
-209.21509959150001
 21
769.2208072917
 31
0.0
  0
LINE
  5
437
  8
┌▓È_1
 62
     5
 10
114.09129053700001
 20
794.1081168610001
 30
0.0
 11
114.09129054
 21
827.90379447409998
 31
0.0
  0
LINE
  5
438
  8
┌▓È_1
  6
BORDER
 62
     3
 10
141.90365462330001
 20
718.51919423740003
 30
0.0
 11
141.90365463250001
 21
822.42242034589981
 31
0.0
  0
ARC
  5
439
  8
┌▓È_1
 10
141.90365462790001
 20
770.4708072917
 30
0.0
 40
36.5
 50
201.32906313820001
 51
217.90400948000001
  0
LINE
  5
43A
  8
┌▓È_1
 62
     5
 10
116.90365462840001
 20
753.88768327749995
 30
0.0
 11
116.90365462840001
 21
764.47080728330002
 31
0.0
  0
LINE
  5
43B
  8
┌▓È_1
 62
     5
 10
77.403654623400001
 20
840.9969752797
 30
0.0
 11
77.403654623400001
 21
752.28070313490002
 31
0.0
  0
LINE
  5
43C
  8
┌▓È_1
 62
     5
 10
106.90365461810001
 20
710.4708073014998
 30
0.0
 11
106.9036546225
 21
760.1146497213
 31
0.0
  0
INSERT
  5
43E
  8
┌▓È_1
 62
     5
  2
CLUMP18
 10
0.0
 20
0.0
 30
0.0
  0
LINE
  5
451
  8
┌▓È_1
 62
     5
 10
106.9036546243
 20
780.82696486819998
 30
0.0
 11
106.9036546287
 21
830.4708072981
 31
0.0
  0
ARC
  5
452
  8
┌▓È_1
 10
141.90365462790001
 20
770.4708072917
 30
0.0
 40
36.5
 50
142.0959905098
 51
158.6709368516
  0
LINE
  5
453
  8
┌▓È_1
 62
     5
 10
95.903654639400017
 20
830.47080729720005
 30
0.0
 11
106.9036546394
 21
830.47080729429979
 31
0.0
  0
ARC
  5
454
  8
┌▓È_1
 62
     5
 10
95.903654639899997
 20
832.47080729720005
 30
0.0
 40
2.0
 50
179.99999998480001
 51
269.99999998480001
  0
LINE
  5
455
  8
┌▓È_1
 62
     5
 10
106.9036546394
 20
830.47080729429979
 30
0.0
 11
114.0912905502
 21
827.90379447049986
 31
0.0
  0
INSERT
  5
457
  8
┌▓È_1
 62
     5
  2
CLUMP19
 10
0.0
 20
0.0
 30
0.0
  0
ARC
  5
46A
  8
┌▓È_1
 62
     5
 10
81.903654623400001
 20
840.97080730159996
 30
0.0
 40
0.5
 50
0.0
 51
90.0
  0
LINE
  5
46B
  8
┌▓È_1
 62
     5
 10
82.403654623399987
 20
840.97080730159996
 30
0.0
 11
82.403654623399987
 21
827.97080730160008
 31
0.0
  0
LINE
  5
46C
  8
┌▓È_1
 62
     5
 10
116.90365462840001
 20
776.47080728330002
 30
0.0
 11
112.50977767800001
 21
776.47080728330002
 31
0.0
  0
INSERT
  5
46D
  8
0
  6
CONTINUOUS
  2
*U78
 10
0.0
 20
0.0
 30
0.0
  0
INSERT
  5
46F
  8
┌▓È_1
 62
     5
  2
CLUMP20
 10
0.0
 20
0.0
 30
0.0
  0
ARC
  5
47A
  8
┌▓È_1
 62
     5
 10
-240.02672656249999
 20
770.4708072917
 30
0.0
 40
39.0
 50
35.0
 51
45.0
  0
ARC
  5
47B
  8
┌▓È_1
 10
-240.02672656249999
 20
770.4708072917
 30
0.0
 40
49.600000000000001
 50
80.0
 51
100.0
  0
SOLID
  5
47C
  8
┌▓È_1
 10
-231.4137769502
 20
819.31727184110002
 30
0.0
 11
-234.67742400770001
 21
818.92613392199985
 31
0.0
 12
-233.71447255230001
 22
819.64740854019999
 32
0.0
 13
-233.71447255230001
 23
819.64740854019999
 33
0.0
  0
SOLID
  5
47D
  8
┌▓È_1
 10
-231.4137769502
 20
819.31727184110002
 30
0.0
 11
-234.43574717050001
 21
820.61035999549995
 31
0.0
 12
-233.71447255230001
 22
819.64740854019999
 32
0.0
 13
-233.71447255230001
 23
819.64740854019999
 33
0.0
  0
SOLID
  5
47E
  8
┌▓È_1
 10
-248.6396761748
 20
819.31727184110002
 30
0.0
 11
-245.6177059545
 21
820.61035999549995
 31
0.0
 12
-246.3389805727
 22
819.64740854019999
 32
0.0
 13
-246.3389805727
 23
819.64740854019999
 33
0.0
  0
SOLID
  5
47F
  8
┌▓È_1
 10
-248.6396761748
 20
819.31727184110002
 30
0.0
 11
-245.37602911729999
 21
818.92613392199985
 31
0.0
 12
-246.3389805727
 22
819.64740854019999
 32
0.0
 13
-246.3389805727
 23
819.64740854019999
 33
0.0
  0
ARC
  5
480
  8
┌▓È_1
 62
     5
 10
-240.02672656249999
 20
770.4708072917
 30
0.0
 40
39.0
 50
55.0
 51
65.0
  0
INSERT
  5
481
  8
0
  6
CONTINUOUS
  2
*U79
 10
0.0
 20
0.0
 30
0.0
  0
INSERT
  5
482
  8
0
  6
CONTINUOUS
  2
*U80
 10
0.0
 20
0.0
 30
0.0
  0
INSERT
  5
483
  8
0
  6
CONTINUOUS
  2
*U81
 10
0.0
 20
0.0
 30
0.0
  0
ARC
  5
484
  8
┌▓È_1
 62
     5
 10
-226.6019354869
 20
787.89994911149995
 30
0.0
 40
1.0
 50
145.0
 51
232.39474873489999
  0
LINE
  5
485
  8
┌▓È_1
 62
     5
 10
93.903654616899999
 20
695.97080743189986
 30
0.0
 11
93.903654629900004
 21
844.97080730039977
 31
0.0
  0
LINE
  5
486
  8
┌▓È_1
 62
     5
 10
114.09129052989999
 20
713.03782012270005
 30
0.0
 11
181.9647403669
 21
713.63014273990007
 31
0.0
  0
ARC
  5
487
  8
┌▓È_1
 62
     5
 10
95.903654617900003
 20
708.47080730250002
 30
0.0
 40
2.0
 50
89.999999994899994
 51
179.99999999490001
  0
LINE
  5
488
  8
┌▓È_1
 62
     5
 10
95.903654618100006
 20
710.47080730250002
 30
0.0
 11
106.90365461810001
 21
710.4708073014998
 31
0.0
  0
LINE
  5
489
  8
┌▓È_1
 62
     5
 10
82.403654623399987
 20
699.97080730160008
 30
0.0
 11
82.403654623399987
 21
712.97080730160008
 31
0.0
  0
ARC
  5
48A
  8
┌▓È_1
 62
     5
 10
81.903654623400001
 20
699.97080730160008
 30
0.0
 40
0.5
 50
270.0
 51
0.0
  0
ARC
  5
48B
  8
┌▓È_1
 62
     5
 10
77.902969390799996
 20
699.97080730160008
 30
0.0
 40
0.5
 50
179.99999672589999
 51
270.0
  0
LINE
  5
48C
  8
┌▓È_1
 62
     5
 10
77.902969390799996
 20
699.47080730159996
 30
0.0
 11
81.903654623400001
 21
699.47080730159996
 31
0.0
  0
LINE
  5
48D
  8
┌▓È_1
 62
     5
 10
90.403654616899985
 20
695.47080730070002
 30
0.0
 11
93.403654616899999
 21
695.47080730039988
 31
0.0
  0
ARC
  5
48E
  8
┌▓È_1
 62
     5
 10
90.403654616899985
 20
695.97080730070002
 30
0.0
 40
0.5
 50
179.99999999490001
 51
269.99999999490001
  0
ARC
  5
48F
  8
┌▓È_1
 62
     5
 10
93.403654616899999
 20
695.97080730039988
 30
0.0
 40
0.5
 50
269.99999999490001
 51
0.0000150653
  0
LINE
  5
490
  8
┌▓È_1
 62
     5
 10
114.09129052989999
 20
713.03782012270005
 30
0.0
 11
114.0912905329
 21
746.83349772719987
 31
0.0
  0
ARC
  5
491
  8
┌▓È_1
 62
     5
 10
181.90365461900001
 20
720.62987620139995
 30
0.0
 40
7.0
 50
270.49999999490012
 51
359.99999999489989
  0
LINE
  5
492
  8
┌▓È_1
 62
     5
 10
140.90365461619999
 20
726.47080733259997
 30
0.0
 11
142.90365461619999
 21
726.47080733220002
 31
0.0
  0
LINE
  5
493
  8
┌▓È_1
 62
     5
 10
140.90365461900001
 20
736.98573596039978
 30
0.0
 11
140.90365461619999
 21
726.47080733259997
 31
0.0
  0
LINE
  5
494
  8
┌▓È_1
 62
     5
 10
142.90365461900001
 20
736.98573595990001
 30
0.0
 11
142.90365461619999
 21
726.47080733220002
 31
0.0
  0
LINE
  5
495
  8
┌▓È_1
 62
     5
 10
106.90365461810001
 20
710.4708073014998
 30
0.0
 11
114.09129052989999
 21
713.03782012270005
 31
0.0
  0
INSERT
  5
496
  8
0
  6
CONTINUOUS
  2
*U82
 10
0.0
 20
0.0
 30
0.0
  0
LINE
  5
497
  8
┌▓È_1
 62
     5
 10
116.90365462840001
 20
787.05393130589994
 30
0.0
 11
116.90365462840001
 21
776.47080728330002
 31
0.0
  0
LINE
  5
498
  8
┌▓È_1
 62
     5
 10
116.90365462840001
 20
764.47080728330002
 30
0.0
 11
112.5097776814
 21
764.47080728330002
 31
0.0
  0
ARC
  5
499
  8
┌▓È_1
 62
     5
 10
77.902969390799996
 20
840.97080730159996
 30
0.0
 40
0.5
 50
90.0
 51
183.0
  0
LINE
  5
49A
  8
┌▓È_1
 62
     5
 10
77.902969390799996
 20
841.47080730160008
 30
0.0
 11
81.903654623400001
 21
841.47080730160008
 31
0.0
  0
ARC
  5
49B
  8
┌▓È_1
 62
     5
 10
93.403654642999996
 20
844.97080730009998
 30
0.0
 40
0.5
 50
359.99998491439999
 51
89.999999984799985
  0
ARC
  5
49C
  8
┌▓È_1
 62
     5
 10
90.403654642999996
 20
844.97080730089999
 30
0.0
 40
0.5
 50
89.999999984799985
 51
179.99999998480001
  0
LINE
  5
49D
  8
┌▓È_1
 62
     5
 10
90.403654643099983
 20
845.47080730089988
 30
0.0
 11
93.403654643099998
 21
845.47080730009986
 31
0.0
  0
LINE
  5
49E
  8
┌▓È_1
 62
     5
 10
89.903654616899999
 20
695.97080730070002
 30
0.0
 11
89.903654629900004
 21
844.97080726899992
 31
0.0
  0
INSERT
  5
4A0
  8
┌▓È_1
  2
CLUMP21
 10
0.0
 20
0.0
 30
0.0
  0
INSERT
  5
4C7
  8
0
  6
CONTINUOUS
  2
*U83
 10
0.0
 20
0.0
 30
0.0
  0
INSERT
  5
4C8
  8
0
  6
CONTINUOUS
  2
*U84
 10
0.0
 20
0.0
 30
0.0
  0
INSERT
  5
4C9
  8
0
  6
CONTINUOUS
  2
*U85
 10
0.0
 20
0.0
 30
0.0
  0
INSERT
  5
4CA
  8
0
  6
CONTINUOUS
  2
*U86
 10
0.0
 20
0.0
 30
0.0
  0
INSERT
  5
4CB
  8
0
  6
CONTINUOUS
  2
*U87
 10
0.0
 20
0.0
 30
0.0
  0
INSERT
  5
4CC
  8
0
  6
CONTINUOUS
  2
*U88
 10
0.0
 20
0.0
 30
0.0
  0
INSERT
  5
4CD
  8
0
  6
CONTINUOUS
  2
*U89
 10
0.0
 20
0.0
 30
0.0
  0
INSERT
  5
4CE
  8
0
  6
CONTINUOUS
  2
*U90
 10
0.0
 20
0.0
 30
0.0
  0
INSERT
  5
4CF
  8
0
  6
CONTINUOUS
  2
*U91
 10
0.0
 20
0.0
 30
0.0
  0
INSERT
  5
4D0
  8
0
  6
CONTINUOUS
  2
*U92
 10
0.0
 20
0.0
 30
0.0
  0
INSERT
  5
4D1
  8
0
  6
CONTINUOUS
  2
*U93
 10
0.0
 20
0.0
 30
0.0
  0
INSERT
  5
4D2
  8
0
  6
CONTINUOUS
  2
*U94
 10
0.0
 20
0.0
 30
0.0
  0
INSERT
  5
4D3
  8
0
  6
CONTINUOUS
  2
*U95
 10
0.0
 20
0.0
 30
0.0
  0
INSERT
  5
4D5
  8
┌▓È_1
  2
CLUMP22
 10
0.0
 20
0.0
 30
0.0
  0
DIMENSION
  5
4EA
  8
┌▓È_1
  2
*D45
 10
-74.747362557900004
 20
464.79120410870001
 30
0.0
 11
-74.747362557900004
 21
498.88917367459987
 31
0.0
 70
   128
 13
-142.0092734703
 23
464.79120410870001
 33
0.0
 14
-142.0092735238
 24
525.36748200419993
 34
0.0
 50
90.0
  0
INSERT
  5
4EB
  8
0
  6
CONTINUOUS
  2
*U97
 10
0.0
 20
0.0
 30
0.0
  0
LINE
  5
4EC
  8
┌▓È_1
 10
-4.5
 20
522.0
 30
0.0
 11
-4.5
 21
599.46453548779994
 31
0.0
  0
LINE
  5
4ED
  8
┌▓È_1
 10
-74.747362557900004
 20
498.88917367459987
 30
0.0
 11
-4.5
 21
522.0
 31
0.0
  0
SOLID
  5
4EE
  8
┌▓È_1
 10
-74.747362557900004
 20
498.88917367459987
 30
0.0
 11
-70.163851582199996
 21
501.88977288860002
 31
0.0
 12
-71.067618572699999
 22
500.09978032319992
 32
0.0
 13
-71.067618572699999
 23
500.09978032319992
 33
0.0
  0
SOLID
  5
4EF
  8
┌▓È_1
 10
-74.747362557900004
 20
498.88917367459987
 30
0.0
 11
-69.277626007400002
 21
499.19601333259999
 31
0.0
 12
-71.067618572699999
 22
500.09978032319992
 32
0.0
 13
-71.067618572699999
 23
500.09978032319992
 33
0.0
  0
CIRCLE
  5
4F0
  8
┌▓È_1
 62
     5
 10
141.90365462790001
 20
770.4708072917
 30
0.0
 40
30.000000034100001
  0
CIRCLE
  5
4F1
  8
┌▓È_1
 62
     5
 10
141.90365462790001
 20
770.4708072917
 30
0.0
 40
33.500000030999999
  0
CIRCLE
  5
4F2
  8
┌▓È_1
 62
     5
 10
141.90365462790001
 20
770.4708072917
 30
0.0
 40
30.288138978900001
  0
LINE
  5
4F3
  8
┌▓È_1
 62
     5
 10
82.403654623399987
 20
827.97080730160008
 30
0.0
 11
82.403654623399987
 21
712.97080730160008
 31
0.0
  0
LINE
  5
4F4
  8
┌▓È_1
 62
     5
 10
77.402969390799996
 20
840.97080731380004
 30
0.0
 11
77.402969390799996
 21
699.97080730160008
 31
0.0
  0
INSERT
  5
4F5
  8
0
  6
CONTINUOUS
  2
*U98
 10
0.0
 20
0.0
 30
0.0
  0
INSERT
  5
4F6
  8
0
  6
CONTINUOUS
  2
*U99
 10
0.0
 20
0.0
 30
0.0
  0
INSERT
  5
4F7
  8
0
  6
CONTINUOUS
  2
*U100
 10
0.0
 20
0.0
 30
0.0
  0
INSERT
  5
4F8
  8
0
  6
CONTINUOUS
  2
*U101
 10
0.0
 20
0.0
 30
0.0
  0
INSERT
  5
4F9
  8
0
  6
CONTINUOUS
  2
*U102
 10
0.0
 20
0.0
 30
0.0
  0
INSERT
  5
4FA
  8
0
  6
CONTINUOUS
  2
*U103
 10
0.0
 20
0.0
 30
0.0
  0
INSERT
  5
4FB
  8
0
  6
CONTINUOUS
  2
*U104
 10
0.0
 20
0.0
 30
0.0
  0
INSERT
  5
4FC
  8
0
  6
CONTINUOUS
  2
*U105
 10
0.0
 20
0.0
 30
0.0
  0
INSERT
  5
4FD
  8
0
  6
CONTINUOUS
  2
*U106
 10
0.0
 20
0.0
 30
0.0
  0
INSERT
  5
4FF
  8
┌▓È_1
  2
CLUMP23
 10
0.0
 20
0.0
 30
0.0
  0
INSERT
  5
509
  8
┌▓È_1
  2
CLUMP24
 10
0.0
 20
0.0
 30
0.0
  0
INSERT
  5
512
  8
0
  6
CONTINUOUS
  2
*U107
 10
0.0
 20
0.0
 30
0.0
  0
INSERT
  5
513
  8
0
  6
CONTINUOUS
  2
*U108
 10
0.0
 20
0.0
 30
0.0
  0
INSERT
  5
514
  8
0
  6
CONTINUOUS
  2
*U109
 10
0.0
 20
0.0
 30
0.0
  0
INSERT
  5
516
  8
┌▓È_1
  2
CLUMP25
 10
0.0
 20
0.0
 30
0.0
  0
INSERT
  5
51F
  8
0
  6
CONTINUOUS
  2
*U110
 10
0.0
 20
0.0
 30
0.0
  0
INSERT
  5
520
  8
0
  6
CONTINUOUS
  2
*U111
 10
0.0
 20
0.0
 30
0.0
  0
INSERT
  5
521
  8
0
  6
CONTINUOUS
  2
*U112
 10
0.0
 20
0.0
 30
0.0
  0
INSERT
  5
523
  8
┌▓È_1
  2
CLUMP26
 10
0.0
 20
0.0
 30
0.0
  0
LINE
  5
52C
  8
┌▓È_1
 62
     5
 10
188.90365461900001
 20
720.62987620080003
 30
0.0
 11
188.90365462779999
 21
820.31173836720006
 31
0.0
  0
INSERT
  5
52D
  8
0
  6
CONTINUOUS
  2
*U113
 10
0.0
 20
0.0
 30
0.0
  0
INSERT
  5
52F
  8
┌▓È_1
  2
CLUMP27
 10
0.0
 20
0.0
 30
0.0
  0
INSERT
  5
538
  8
0
  6
CONTINUOUS
  2
*U114
 10
0.0
 20
0.0
 30
0.0
  0
INSERT
  5
539
  8
0
  6
CONTINUOUS
  2
*U115
 10
0.0
 20
0.0
 30
0.0
  0
INSERT
  5
53A
  8
0
  6
CONTINUOUS
  2
*U116
 10
0.0
 20
0.0
 30
0.0
  0
INSERT
  5
53B
  8
0
  6
CONTINUOUS
  2
*U117
 10
0.0
 20
0.0
 30
0.0
  0
INSERT
  5
53D
  8
┌▓È_1
  2
CLUMP28
 10
0.0
 20
0.0
 30
0.0
  0
INSERT
  5
546
  8
0
  6
CONTINUOUS
  2
*U118
 10
0.0
 20
0.0
 30
0.0
  0
INSERT
  5
547
  8
0
  6
CONTINUOUS
  2
*U119
 10
0.0
 20
0.0
 30
0.0
  0
INSERT
  5
548
  8
0
  6
CONTINUOUS
  2
*U120
 10
0.0
 20
0.0
 30
0.0
  0
INSERT
  5
549
  8
0
  6
CONTINUOUS
  2
*U121
 10
0.0
 20
0.0
 30
0.0
  0
INSERT
  5
54B
  8
┌▓È_1
  2
CLUMP29
 10
0.0
 20
0.0
 30
0.0
  0
INSERT
  5
554
  8
0
  6
CONTINUOUS
  2
*U122
 10
0.0
 20
0.0
 30
0.0
  0
INSERT
  5
555
  8
0
  6
CONTINUOUS
  2
*U123
 10
0.0
 20
0.0
 30
0.0
  0
INSERT
  5
556
  8
0
  6
CONTINUOUS
  2
*U124
 10
0.0
 20
0.0
 30
0.0
  0
INSERT
  5
557
  8
0
  6
CONTINUOUS
  2
*U125
 10
0.0
 20
0.0
 30
0.0
  0
INSERT
  5
558
  8
0
  6
CONTINUOUS
  2
*U126
 10
0.0
 20
0.0
 30
0.0
  0
INSERT
  5
559
  8
0
  6
CONTINUOUS
  2
*U127
 10
0.0
 20
0.0
 30
0.0
  0
INSERT
  5
55A
  8
0
  6
CONTINUOUS
  2
*U128
 10
0.0
 20
0.0
 30
0.0
  0
INSERT
  5
55B
  8
0
  6
CONTINUOUS
  2
*U129
 10
0.0
 20
0.0
 30
0.0
  0
INSERT
  5
55D
  8
┌▓È_1
  2
CLUMP30
 10
0.0
 20
0.0
 30
0.0
  0
INSERT
  5
566
  8
0
  6
CONTINUOUS
  2
*U130
 10
0.0
 20
0.0
 30
0.0
  0
INSERT
  5
567
  8
0
  6
CONTINUOUS
  2
*U131
 10
0.0
 20
0.0
 30
0.0
  0
INSERT
  5
568
  8
0
  6
CONTINUOUS
  2
*U132
 10
0.0
 20
0.0
 30
0.0
  0
INSERT
  5
569
  8
0
  6
CONTINUOUS
  2
*U133
 10
0.0
 20
0.0
 30
0.0
  0
INSERT
  5
56B
  8
┌▓È_1
  2
CLUMP31
 10
0.0
 20
0.0
 30
0.0
  0
INSERT
  5
574
  8
0
  6
CONTINUOUS
  2
*U134
 10
0.0
 20
0.0
 30
0.0
  0
INSERT
  5
576
  8
┌▓È_1
  2
CLUMP32
 10
0.0
 20
0.0
 30
0.0
  0
INSERT
  5
57F
  8
0
  6
CONTINUOUS
  2
*U135
 10
0.0
 20
0.0
 30
0.0
  0
INSERT
  5
580
  8
0
  6
CONTINUOUS
  2
*U136
 10
0.0
 20
0.0
 30
0.0
  0
INSERT
  5
581
  8
0
  6
CONTINUOUS
  2
*U137
 10
0.0
 20
0.0
 30
0.0
  0
INSERT
  5
582
  8
0
  6
CONTINUOUS
  2
*U138
 10
0.0
 20
0.0
 30
0.0
  0
INSERT
  5
583
  8
0
  6
CONTINUOUS
  2
*U139
 10
0.0
 20
0.0
 30
0.0
  0
INSERT
  5
584
  8
0
  6
CONTINUOUS
  2
*U140
 10
0.0
 20
0.0
 30
0.0
  0
INSERT
  5
585
  8
0
  6
CONTINUOUS
  2
*U141
 10
0.0
 20
0.0
 30
0.0
  0
INSERT
  5
586
  8
0
  6
CONTINUOUS
  2
*U142
 10
0.0
 20
0.0
 30
0.0
  0
INSERT
  5
587
  8
0
  6
CONTINUOUS
  2
*U143
 10
0.0
 20
0.0
 30
0.0
  0
INSERT
  5
588
  8
0
  6
CONTINUOUS
  2
*U144
 10
0.0
 20
0.0
 30
0.0
  0
INSERT
  5
589
  8
0
  6
CONTINUOUS
  2
*U145
 10
0.0
 20
0.0
 30
0.0
  0
INSERT
  5
58B
  8
┌▓È_1
  2
CLUMP33
 10
0.0
 20
0.0
 30
0.0
  0
INSERT
  5
62F
  8
0
  6
CONTINUOUS
  2
*U166
 10
0.0
 20
0.0
 30
0.0
  0
INSERT
  5
630
  8
0
  6
CONTINUOUS
  2
*U167
 10
0.0
 20
0.0
 30
0.0
  0
INSERT
  5
631
  8
0
  6
CONTINUOUS
  2
*U168
 10
0.0
 20
0.0
 30
0.0
  0
INSERT
  5
632
  8
0
  6
CONTINUOUS
  2
*U169
 10
0.0
 20
0.0
 30
0.0
  0
INSERT
  5
634
  8
┌▓È_1
  2
CLUMP34
 10
0.0
 20
0.0
 30
0.0
  0
INSERT
  5
63D
  8
0
  6
CONTINUOUS
  2
*U170
 10
0.0
 20
0.0
 30
0.0
  0
INSERT
  5
63E
  8
0
  6
CONTINUOUS
  2
*U171
 10
0.0
 20
0.0
 30
0.0
  0
INSERT
  5
63F
  8
0
  6
CONTINUOUS
  2
*U172
 10
0.0
 20
0.0
 30
0.0
  0
INSERT
  5
640
  8
0
  6
CONTINUOUS
  2
*U173
 10
0.0
 20
0.0
 30
0.0
  0
INSERT
  5
642
  8
┌▓È_1
  2
CLUMP35
 10
0.0
 20
0.0
 30
0.0
  0
INSERT
  5
64B
  8
0
  6
CONTINUOUS
  2
*U174
 10
0.0
 20
0.0
 30
0.0
  0
INSERT
  5
64C
  8
0
  6
CONTINUOUS
  2
*U175
 10
0.0
 20
0.0
 30
0.0
  0
INSERT
  5
64E
  8
┌▓È_1
  2
CLUMP36
 10
0.0
 20
0.0
 30
0.0
  0
INSERT
  5
657
  8
0
  6
CONTINUOUS
  2
*U176
 10
0.0
 20
0.0
 30
0.0
  0
INSERT
  5
658
  8
0
  6
CONTINUOUS
  2
*U177
 10
0.0
 20
0.0
 30
0.0
  0
ENDSEC
  0
EOF
