  0
SECTION
  2
HEADER
  9
$ACADVER
  1
AC1009
  9
$INSBASE
 10
0.0
 20
0.0
 30
0.0
  9
$EXTMIN
 10
-140.97066636860001
 20
-75.4765166655
 30
0.0
  9
$EXTMAX
 10
146.00063363140001
 20
126.0033333345
 30
0.0
  9
$LIMMIN
 10
0.0
 20
0.0
  9
$LIMMAX
 10
0.0
 20
0.0
  9
$ORTHOMODE
 70
     0
  9
$REGENMODE
 70
     1
  9
$FILLMODE
 70
     1
  9
$QTEXTMODE
 70
     0
  9
$MIRRTEXT
 70
     1
  9
$DRAGMODE
 70
     2
  9
$LTSCALE
 40
1.0
  9
$OSMODE
 70
    31
  9
$ATTMODE
 70
     1
  9
$TEXTSIZE
 40
0.0
  9
$TRACEWID
 40
0.05
  9
$TEXTSTYLE
  7
STANDARD
  9
$CLAYER
  8
0
  9
$CELTYPE
  6
CONTINUOUS
  9
$CECOLOR
 62
   256
  9
$DIMSCALE
 40
1.0
  9
$DIMASZ
 40
0.18
  9
$DIMEXO
 40
0.0625
  9
$DIMDLI
 40
0.38
  9
$DIMRND
 40
0.0
  9
$DIMDLE
 40
0.0
  9
$DIMEXE
 40
0.18
  9
$DIMTP
 40
0.0
  9
$DIMTM
 40
0.0
  9
$DIMTXT
 40
0.18
  9
$DIMCEN
 40
0.09
  9
$DIMTSZ
 40
0.0
  9
$DIMTOL
 70
     0
  9
$DIMLIM
 70
     0
  9
$DIMTIH
 70
     1
  9
$DIMTOH
 70
     1
  9
$DIMSE1
 70
     0
  9
$DIMSE2
 70
     0
  9
$DIMTAD
 70
     0
  9
$DIMZIN
 70
     0
  9
$DIMBLK
  1

  9
$DIMASO
 70
     1
  9
$DIMSHO
 70
     1
  9
$DIMPOST
  1

  9
$DIMAPOST
  1

  9
$DIMALT
 70
     0
  9
$DIMALTD
 70
     2
  9
$DIMALTF
 40
25.399999999999999
  9
$DIMLFAC
 40
1.0
  9
$DIMTOFL
 70
     0
  9
$DIMTVP
 40
0.0
  9
$DIMTIX
 70
     0
  9
$DIMSOXD
 70
     0
  9
$DIMSAH
 70
     0
  9
$DIMBLK1
  1

  9
$DIMBLK2
  1

  9
$DIMSTYLE
  2
STANDARD
  9
$DIMCLRD
 70
     0
  9
$DIMCLRE
 70
     0
  9
$DIMCLRT
 70
     0
  9
$DIMTFAC
 40
1.0
  9
$DIMGAP
 40
0.09
  9
$LUNITS
 70
     2
  9
$LUPREC
 70
     4
  9
$SKETCHINC
 40
0.1
  9
$FILLETRAD
 40
0.0
  9
$AUNITS
 70
     0
  9
$AUPREC
 70
     0
  9
$MENU
  1
acad
  9
$ELEVATION
 40
0.0
  9
$PELEVATION
 40
0.0
  9
$THICKNESS
 40
0.0
  9
$LIMCHECK
 70
     0
  9
$BLIPMODE
 70
     0
  9
$CHAMFERA
 40
0.0
  9
$CHAMFERB
 40
0.0
  9
$SKPOLY
 70
     0
  9
$TDCREATE
 40
2454863.5352945952
  9
$TDUPDATE
 40
2454863.5358031248
  9
$TDINDWG
 40
0.0005208333
  9
$TDUSRTIMER
 40
0.0005204745
  9
$USRTIMER
 70
     1
  9
$ANGBASE
 50
0.0
  9
$ANGDIR
 70
     0
  9
$PDMODE
 70
     3
  9
$PDSIZE
 40
-1.0
  9
$PLINEWID
 40
0.0
  9
$COORDS
 70
     2
  9
$SPLFRAME
 70
     0
  9
$SPLINETYPE
 70
     6
  9
$SPLINESEGS
 70
     8
  9
$ATTDIA
 70
     0
  9
$ATTREQ
 70
     1
  9
$HANDLING
 70
     1
  9
$HANDSEED
  5
58C
  9
$SURFTAB1
 70
     6
  9
$SURFTAB2
 70
     6
  9
$SURFTYPE
 70
     6
  9
$SURFU
 70
     6
  9
$SURFV
 70
     6
  9
$UCSNAME
  2

  9
$UCSORG
 10
0.0
 20
0.0
 30
0.0
  9
$UCSXDIR
 10
1.0
 20
0.0
 30
0.0
  9
$UCSYDIR
 10
0.0
 20
1.0
 30
0.0
  9
$PUCSNAME
  2

  9
$PUCSORG
 10
0.0
 20
0.0
 30
0.0
  9
$PUCSXDIR
 10
1.0
 20
0.0
 30
0.0
  9
$PUCSYDIR
 10
0.0
 20
1.0
 30
0.0
  9
$USERI1
 70
     0
  9
$USERI2
 70
     0
  9
$USERI3
 70
     0
  9
$USERI4
 70
     0
  9
$USERI5
 70
     0
  9
$USERR1
 40
0.0
  9
$USERR2
 40
0.0
  9
$USERR3
 40
0.0
  9
$USERR4
 40
0.0
  9
$USERR5
 40
0.0
  9
$WORLDVIEW
 70
     1
  9
$SHADEDGE
 70
     3
  9
$SHADEDIF
 70
    70
  9
$TILEMODE
 70
     1
  9
$MAXACTVP
 70
    16
  9
$PLIMCHECK
 70
     0
  9
$PEXTMIN
 10
1.0000000000000000E+020
 20
1.0000000000000000E+020
 30
1.0000000000000000E+020
  9
$PEXTMAX
 10
-1.0000000000000000E+020
 20
-1.0000000000000000E+020
 30
-1.0000000000000000E+020
  9
$PLIMMIN
 10
0.0
 20
0.0
  9
$PLIMMAX
 10
12.0
 20
9.0
  9
$UNITMODE
 70
     0
  9
$VISRETAIN
 70
     0
  9
$PLINEGEN
 70
     1
  9
$PSLTSCALE
 70
     0
  0
ENDSEC
  0
SECTION
  2
TABLES
  0
TABLE
  2
VPORT
 70
     2
  0
VPORT
  2
*ACTIVE
 70
     0
 10
0.0
 20
0.0
 11
1.0
 21
1.0
 12
7.9958477931597818
 22
6.3134298522007981
 13
0.0
 23
0.0
 14
1.0
 24
1.0
 15
0.0
 25
0.0
 16
0.0
 26
0.0
 36
1.0
 17
0.0
 27
0.0
 37
0.0
 40
98.893591637490232
 41
1.4164265129682989
 42
50.0
 43
0.0
 44
0.0
 50
0.0
 51
0.0
 71
     0
 72
   100
 73
     1
 74
     1
 75
     0
 76
     0
 77
     0
 78
     0
  0
ENDTAB
  0
TABLE
  2
LTYPE
 70
    11
  0
LTYPE
  2
CONTINUOUS
 70
     0
  3
Solid line
 72
    65
 73
     0
 40
0.0
  0
LTYPE
  2
DOT
 70
     0
  3
. . . . . . . . 
 72
    65
 73
     2
 40
1.0
 49
0.0
 49
-1.0
  0
LTYPE
  2
DASHED
 70
     0
  3
___  ___  ___  ___  
 72
    65
 73
     2
 40
4.0
 49
3.0
 49
-1.0
  0
LTYPE
  2
HIDDEN
 70
     0
  3
__ __ __ __ 
 72
    65
 73
     2
 40
3.0
 49
2.0
 49
-1.0
  0
LTYPE
  2
STITCH
 70
     0
  3
_ _ _ _ 
 72
    65
 73
     2
 40
2.0
 49
1.0
 49
-1.0
  0
LTYPE
  2
CENTER
 70
     0
  3
______  __  ______  __  
 72
    65
 73
     4
 40
43.0
 49
40.0
 49
-1.0
 49
1.0
 49
-1.0
  0
LTYPE
  2
DASHDOT
 70
     0
  3
____ . ____ . 
 72
    65
 73
     4
 40
32.0
 49
30.0
 49
-1.0
 49
0.0
 49
-1.0
  0
LTYPE
  2
BORDER
 70
     0
  3
__ . __ . 
 72
    65
 73
     4
 40
22.0
 49
20.0
 49
-1.0
 49
0.0
 49
-1.0
  0
LTYPE
  2
CUTTING
 70
     0
  3
________   ___   ___   
 72
    65
 73
     6
 40
45.0
 49
40.0
 49
-1.0
 49
1.0
 49
-1.0
 49
1.0
 49
-1.0
  0
LTYPE
  2
PHANTOM
 70
     0
  3
______  __  __  
 72
    65
 73
     6
 40
35.0
 49
30.0
 49
-1.0
 49
1.0
 49
-1.0
 49
1.0
 49
-1.0
  0
LTYPE
  2
DIVIDE
 70
     0
  3
____ . . ____ . . 
 72
    65
 73
     6
 40
23.0
 49
20.0
 49
-1.0
 49
0.0
 49
-1.0
 49
0.0
 49
-1.0
  0
ENDTAB
  0
TABLE
  2
LAYER
 70
     5
  0
LAYER
  2
0
 70
     0
 62
     7
  6
CONTINUOUS
  0
LAYER
  2
寸法線
 70
     0
 62
     7
  6
CONTINUOUS
  0
LAYER
  2
図枠
 70
     0
 62
     7
  6
CONTINUOUS
  0
LAYER
  2
ﾚｲﾔ_1
 70
     0
 62
     7
  6
CONTINUOUS
  0
LAYER
  2
DEFPOINTS
 70
     0
 62
     7
  6
CONTINUOUS
  0
ENDTAB
  0
TABLE
  2
STYLE
 70
     1
  0
STYLE
  2
STANDARD
 70
     0
 40
0.0
 41
1.0
 50
0.0
 71
     0
 42
0.0
  3
txt
  4
extfont
  0
ENDTAB
  0
TABLE
  2
VIEW
 70
     0
  0
ENDTAB
  0
TABLE
  2
UCS
 70
     0
  0
ENDTAB
  0
TABLE
  2
APPID
 70
     2
  0
APPID
  2
ACAD
 70
     0
  0
APPID
  2
DCO15
 70
     0
  0
ENDTAB
  0
TABLE
  2
DIMSTYLE
 70
     5
  0
DIMSTYLE
  2
STANDARD
 70
     0
  3

  4

  5

  6

  7

 40
1.0
 41
0.18
 42
0.0625
 43
0.38
 44
0.18
 45
0.0
 46
0.0
 47
0.0
 48
0.0
140
0.18
141
0.09
142
0.0
143
25.399999999999999
144
1.0
145
0.0
146
1.0
147
0.09
 71
     0
 72
     0
 73
     1
 74
     1
 75
     0
 76
     0
 77
     0
 78
     0
170
     0
171
     2
172
     0
173
     0
174
     0
175
     0
176
     0
177
     0
178
     0
  0
DIMSTYLE
  2
VELDIM0
 70
     0
  3

  4

  5

  6

  7

 40
1.0
 41
3.0
 42
0.0625
 43
0.38
 44
1.0
 45
0.0
 46
5.0
 47
0.0
 48
0.0
140
2.9986110209999999
141
0.09
142
0.0
143
25.399999999999999
144
1.0
145
0.0
146
1.0
147
0.09
 71
     0
 72
     0
 73
     0
 74
     0
 75
     0
 76
     0
 77
     0
 78
     8
170
     0
171
     2
172
     0
173
     0
174
     0
175
     0
176
     0
177
     0
178
     0
  0
DIMSTYLE
  2
VELDIM1
 70
     0
  3

  4

  5

  6

  7

 40
1.0
 41
3.0
 42
0.0625
 43
0.38
 44
1.25
 45
0.0
 46
5.0
 47
0.0
 48
0.0
140
2.9986110209999999
141
0.09
142
0.0
143
25.399999999999999
144
1.0
145
0.0
146
1.0
147
0.09
 71
     0
 72
     0
 73
     0
 74
     0
 75
     0
 76
     0
 77
     0
 78
     8
170
     0
171
     2
172
     0
173
     0
174
     0
175
     0
176
     0
177
     0
178
     0
  0
DIMSTYLE
  2
VELDIM2
 70
     0
  3

  4

  5

  6

  7

 40
1.0
 41
1.0
 42
0.0625
 43
0.38
 44
0.6666666865000001
 45
0.0
 46
1.666666626899999
 47
0.0
 48
0.0
140
0.899583286
141
0.09
142
0.0
143
25.399999999999999
144
1.0
145
0.0
146
1.0
147
0.09
 71
     0
 72
     0
 73
     0
 74
     0
 75
     0
 76
     0
 77
     0
 78
     8
170
     0
171
     2
172
     0
173
     0
174
     0
175
     0
176
     0
177
     0
178
     0
  0
DIMSTYLE
  2
VELDIM3
 70
     0
  3

  4

  5

  6

  7

 40
1.0
 41
1.0
 42
0.0625
 43
0.38
 44
1.25
 45
0.0
 46
5.0
 47
0.0
 48
0.0
140
0.899583286
141
0.09
142
0.0
143
25.399999999999999
144
1.0
145
0.0
146
1.0
147
0.09
 71
     0
 72
     0
 73
     0
 74
     0
 75
     0
 76
     0
 77
     0
 78
     8
170
     0
171
     2
172
     0
173
     0
174
     0
175
     0
176
     0
177
     0
178
     0
  0
ENDTAB
  0
ENDSEC
  0
SECTION
  2
BLOCKS
  0
BLOCK
  8
0
  2
$MODEL_SPACE
 70
     0
 10
0.0
 20
0.0
 30
0.0
  3
$MODEL_SPACE
  1

  0
ENDBLK
  5
E
  8
0
  0
BLOCK
 67
     1
  8
0
  2
$PAPER_SPACE
 70
     0
 10
0.0
 20
0.0
 30
0.0
  3
$PAPER_SPACE
  1

  0
ENDBLK
  5
10
 67
     1
  8
0
  0
BLOCK
  8
0
  2
*D0
 70
     1
 10
0.0
 20
0.0
 30
0.0
  3
*D0
  1

  0
TEXT
  5
31
  8
0
 62
     0
 10
46.142171770200008
 20
42.975850994199988
 30
0.0
 40
2.9986110209999999
  1
10
  0
LINE
  5
32
  8
0
 62
     0
 10
42.906060606099999
 20
60.446684343400001
 30
0.0
 11
42.906060606099999
 21
40.446684343400001
 31
0.0
  0
LINE
  5
33
  8
0
 62
     0
 10
52.906060606099999
 20
49.446684343400001
 30
0.0
 11
52.906060606099999
 21
40.446684343400001
 31
0.0
  0
LINE
  5
34
  8
0
 62
     0
 10
42.906060606099999
 20
41.446684343400001
 30
0.0
 11
51.433838277900001
 21
41.446684343400001
 31
0.0
  0
LINE
  5
35
  8
0
 62
     0
 10
42.906060606099999
 20
41.446684343400001
 30
0.0
 11
44.378282934199987
 21
41.446684343400001
 31
0.0
  0
LINE
  5
36
  8
0
 62
     0
 10
52.906060606099999
 20
41.446684343400001
 30
0.0
 11
51.433838277900001
 21
41.446684343400001
 31
0.0
  0
LINE
  5
37
  8
0
 62
     0
 10
52.906060606099999
 20
41.446684343400001
 30
0.0
 11
44.378282934199987
 21
41.446684343400001
 31
0.0
  0
LINE
  5
38
  8
0
 62
     0
 10
52.906060606099999
 20
41.446684343400001
 30
0.0
 11
57.906060606099999
 21
41.446684343400001
 31
0.0
  0
SOLID
  5
39
  8
0
 62
     0
 10
52.906060606099999
 20
41.446684343400001
 30
0.0
 11
55.906060606099992
 21
42.196684343399987
 31
0.0
 12
55.906060606099992
 22
40.696684343400001
 32
0.0
 13
55.156060606099999
 23
41.446684343400001
 33
0.0
  0
LINE
  5
3A
  8
0
 62
     0
 10
42.906060606099999
 20
41.446684343400001
 30
0.0
 11
37.906060606099999
 21
41.446684343400001
 31
0.0
  0
SOLID
  5
3B
  8
0
 62
     0
 10
42.906060606099999
 20
41.446684343400001
 30
0.0
 11
39.906060606099999
 21
40.696684343400001
 31
0.0
 12
39.906060606099999
 22
42.196684343399987
 32
0.0
 13
40.656060606099999
 23
41.446684343400001
 33
0.0
  0
ENDBLK
  5
3C
  8
0
  0
BLOCK
  8
0
  2
*D1
 70
     1
 10
0.0
 20
0.0
 30
0.0
  3
*D1
  1

  0
TEXT
  5
6E
  8
0
 62
     0
 10
39.524116188100002
 20
42.975850994199988
 30
0.0
 40
2.9986110209999999
  1
5
  0
LINE
  5
6F
  8
0
 62
     0
 10
37.906060606099999
 20
49.446684343400001
 30
0.0
 11
37.906060606099999
 21
40.446684343400001
 31
0.0
  0
LINE
  5
70
  8
0
 62
     0
 10
42.906060606099999
 20
60.446684343400001
 30
0.0
 11
42.906060606099999
 21
40.446684343400001
 31
0.0
  0
LINE
  5
71
  8
0
 62
     0
 10
37.906060606099999
 20
41.446684343400001
 30
0.0
 11
37.906060606099999
 21
41.446684343400001
 31
0.0
  0
LINE
  5
72
  8
0
 62
     0
 10
37.906060606099999
 20
41.446684343400001
 30
0.0
 11
42.906060606099999
 21
41.446684343400001
 31
0.0
  0
LINE
  5
73
  8
0
 62
     0
 10
42.906060606099999
 20
41.446684343400001
 30
0.0
 11
37.906060606099999
 21
41.446684343400001
 31
0.0
  0
LINE
  5
74
  8
0
 62
     0
 10
42.906060606099999
 20
41.446684343400001
 30
0.0
 11
42.906060606099999
 21
41.446684343400001
 31
0.0
  0
LINE
  5
75
  8
0
 62
     0
 10
42.906060606099999
 20
41.446684343400001
 30
0.0
 11
47.906060606099999
 21
41.446684343400001
 31
0.0
  0
SOLID
  5
76
  8
0
 62
     0
 10
42.906060606099999
 20
41.446684343400001
 30
0.0
 11
45.906060606099992
 21
42.196684343399987
 31
0.0
 12
45.906060606099992
 22
40.696684343400001
 32
0.0
 13
45.156060606099992
 23
41.446684343400001
 33
0.0
  0
LINE
  5
77
  8
0
 62
     0
 10
37.906060606099999
 20
41.446684343400001
 30
0.0
 11
32.906060606099999
 21
41.446684343400001
 31
0.0
  0
SOLID
  5
78
  8
0
 62
     0
 10
37.906060606099999
 20
41.446684343400001
 30
0.0
 11
34.906060606099999
 21
40.696684343400001
 31
0.0
 12
34.906060606099999
 22
42.196684343399987
 32
0.0
 13
35.656060606099999
 23
41.446684343400001
 33
0.0
  0
ENDBLK
  5
79
  8
0
  0
BLOCK
  8
0
  2
*D2
 70
     1
 10
0.0
 20
0.0
 30
0.0
  3
*D2
  1

  0
TEXT
  5
FD
  8
0
 62
     0
 10
-52.617424189399991
 20
42.975850994199988
 30
0.0
 40
2.9986110209999999
  1
20
  0
LINE
  5
FE
  8
0
 62
     0
 10
-60.853535353500007
 20
49.446684343400001
 30
0.0
 11
-60.853535353500007
 21
40.446684343400001
 31
0.0
  0
LINE
  5
FF
  8
0
 62
     0
 10
-40.8535353535
 20
60.446684343400001
 30
0.0
 11
-40.8535353535
 21
40.446684343400001
 31
0.0
  0
LINE
  5
100
  8
0
 62
     0
 10
-60.853535353500007
 20
41.446684343400001
 30
0.0
 11
-47.325757681699997
 21
41.446684343400001
 31
0.0
  0
LINE
  5
101
  8
0
 62
     0
 10
-60.853535353500007
 20
41.446684343400001
 30
0.0
 11
-54.381313025299988
 21
41.446684343400001
 31
0.0
  0
LINE
  5
102
  8
0
 62
     0
 10
-40.8535353535
 20
41.446684343400001
 30
0.0
 11
-47.325757681699997
 21
41.446684343400001
 31
0.0
  0
LINE
  5
103
  8
0
 62
     0
 10
-40.8535353535
 20
41.446684343400001
 30
0.0
 11
-54.381313025299988
 21
41.446684343400001
 31
0.0
  0
LINE
  5
104
  8
0
 62
     0
 10
-40.8535353535
 20
41.446684343400001
 30
0.0
 11
-45.853535353500007
 21
41.446684343400001
 31
0.0
  0
SOLID
  5
105
  8
0
 62
     0
 10
-40.8535353535
 20
41.446684343400001
 30
0.0
 11
-43.853535353500007
 21
40.696684343400001
 31
0.0
 12
-43.853535353500007
 22
42.196684343399987
 32
0.0
 13
-43.1035353535
 23
41.446684343400001
 33
0.0
  0
LINE
  5
106
  8
0
 62
     0
 10
-60.853535353500007
 20
41.446684343400001
 30
0.0
 11
-55.853535353500007
 21
41.446684343400001
 31
0.0
  0
SOLID
  5
107
  8
0
 62
     0
 10
-60.853535353500007
 20
41.446684343400001
 30
0.0
 11
-57.853535353500007
 21
42.196684343399987
 31
0.0
 12
-57.853535353500007
 22
40.696684343400001
 32
0.0
 13
-58.6035353535
 23
41.446684343400001
 33
0.0
  0
ENDBLK
  5
108
  8
0
  0
BLOCK
  8
0
  2
*D3
 70
     1
 10
0.0
 20
0.0
 30
0.0
  3
*D3
  1

  0
TEXT
  5
10C
  8
0
 62
     0
 10
-37.617424189399998
 20
42.975850994199988
 30
0.0
 40
2.9986110209999999
  1
10
  0
LINE
  5
10D
  8
0
 62
     0
 10
-40.8535353535
 20
60.446684343400001
 30
0.0
 11
-40.8535353535
 21
40.446684343400001
 31
0.0
  0
LINE
  5
10E
  8
0
 62
     0
 10
-30.8535353535
 20
49.446684343400001
 30
0.0
 11
-30.8535353535
 21
40.446684343400001
 31
0.0
  0
LINE
  5
10F
  8
0
 62
     0
 10
-40.8535353535
 20
41.446684343400001
 30
0.0
 11
-32.325757681700011
 21
41.446684343400001
 31
0.0
  0
LINE
  5
110
  8
0
 62
     0
 10
-40.8535353535
 20
41.446684343400001
 30
0.0
 11
-39.381313025300003
 21
41.446684343400001
 31
0.0
  0
LINE
  5
111
  8
0
 62
     0
 10
-30.8535353535
 20
41.446684343400001
 30
0.0
 11
-32.325757681700011
 21
41.446684343400001
 31
0.0
  0
LINE
  5
112
  8
0
 62
     0
 10
-30.8535353535
 20
41.446684343400001
 30
0.0
 11
-39.381313025300003
 21
41.446684343400001
 31
0.0
  0
LINE
  5
113
  8
0
 62
     0
 10
-30.8535353535
 20
41.446684343400001
 30
0.0
 11
-25.8535353535
 21
41.446684343400001
 31
0.0
  0
SOLID
  5
114
  8
0
 62
     0
 10
-30.8535353535
 20
41.446684343400001
 30
0.0
 11
-27.8535353535
 21
42.196684343399987
 31
0.0
 12
-27.8535353535
 22
40.696684343400001
 32
0.0
 13
-28.6035353535
 23
41.446684343400001
 33
0.0
  0
LINE
  5
115
  8
0
 62
     0
 10
-40.8535353535
 20
41.446684343400001
 30
0.0
 11
-45.853535353500007
 21
41.446684343400001
 31
0.0
  0
SOLID
  5
116
  8
0
 62
     0
 10
-40.8535353535
 20
41.446684343400001
 30
0.0
 11
-43.853535353500007
 21
40.696684343400001
 31
0.0
 12
-43.853535353500007
 22
42.196684343399987
 32
0.0
 13
-43.1035353535
 23
41.446684343400001
 33
0.0
  0
ENDBLK
  5
117
  8
0
  0
BLOCK
  8
0
  2
*D4
 70
     1
 10
0.0
 20
0.0
 30
0.0
  3
*D4
  1

  0
TEXT
  5
11B
  8
0
 62
     0
 10
-22.3827020043
 20
57.682795507500003
 30
0.0
 40
2.9986110209999999
  1
16
 50
90.0
  0
LINE
  5
11C
  8
0
 62
     0
 10
-28.8535353535
 20
51.446684343400001
 30
0.0
 11
-19.8535353535
 21
51.446684343400001
 31
0.0
  0
LINE
  5
11D
  8
0
 62
     0
 10
-33.8535353535
 20
67.446684343400008
 30
0.0
 11
-19.8535353535
 21
67.446684343400008
 31
0.0
  0
LINE
  5
11E
  8
0
 62
     0
 10
-20.8535353535
 20
51.446684343400001
 30
0.0
 11
-20.8535353535
 21
62.974462015199997
 31
0.0
  0
LINE
  5
11F
  8
0
 62
     0
 10
-20.8535353535
 20
51.446684343400001
 30
0.0
 11
-20.8535353535
 21
55.918906671599999
 31
0.0
  0
LINE
  5
120
  8
0
 62
     0
 10
-20.8535353535
 20
67.446684343400008
 30
0.0
 11
-20.8535353535
 21
62.974462015199997
 31
0.0
  0
LINE
  5
121
  8
0
 62
     0
 10
-20.8535353535
 20
67.446684343400008
 30
0.0
 11
-20.8535353535
 21
55.918906671599999
 31
0.0
  0
LINE
  5
122
  8
0
 62
     0
 10
-20.8535353535
 20
67.446684343400008
 30
0.0
 11
-20.8535353535
 21
62.446684343400001
 31
0.0
  0
SOLID
  5
123
  8
0
 62
     0
 10
-20.8535353535
 20
67.446684343400008
 30
0.0
 11
-20.1035353535
 21
64.446684343400008
 31
0.0
 12
-21.6035353535
 22
64.446684343400008
 32
0.0
 13
-20.8535353535
 23
65.196684343400008
 33
0.0
  0
LINE
  5
124
  8
0
 62
     0
 10
-20.8535353535
 20
51.446684343400001
 30
0.0
 11
-20.8535353535
 21
56.446684343400001
 31
0.0
  0
SOLID
  5
125
  8
0
 62
     0
 10
-20.8535353535
 20
51.446684343400001
 30
0.0
 11
-21.6035353535
 21
54.446684343400001
 31
0.0
 12
-20.1035353535
 22
54.446684343400001
 32
0.0
 13
-20.8535353535
 23
53.696684343400001
 33
0.0
  0
ENDBLK
  5
126
  8
0
  0
BLOCK
  8
0
  2
*D5
 70
     1
 10
0.0
 20
0.0
 30
0.0
  3
*D5
  1

  0
TEXT
  5
12A
  8
0
 62
     0
 10
-22.3827020043
 20
73.682795507500003
 30
0.0
 40
2.9986110209999999
  1
16
 50
90.0
  0
LINE
  5
12B
  8
0
 62
     0
 10
-33.8535353535
 20
67.446684343400008
 30
0.0
 11
-19.8535353535
 21
67.446684343400008
 31
0.0
  0
LINE
  5
12C
  8
0
 62
     0
 10
-28.8535353535
 20
83.446684343399994
 30
0.0
 11
-19.8535353535
 21
83.446684343399994
 31
0.0
  0
LINE
  5
12D
  8
0
 62
     0
 10
-20.8535353535
 20
67.446684343400008
 30
0.0
 11
-20.8535353535
 21
78.974462015200004
 31
0.0
  0
LINE
  5
12E
  8
0
 62
     0
 10
-20.8535353535
 20
67.446684343400008
 30
0.0
 11
-20.8535353535
 21
71.918906671599999
 31
0.0
  0
LINE
  5
12F
  8
0
 62
     0
 10
-20.8535353535
 20
83.446684343399994
 30
0.0
 11
-20.8535353535
 21
78.974462015200004
 31
0.0
  0
LINE
  5
130
  8
0
 62
     0
 10
-20.8535353535
 20
83.446684343399994
 30
0.0
 11
-20.8535353535
 21
71.918906671599999
 31
0.0
  0
LINE
  5
131
  8
0
 62
     0
 10
-20.8535353535
 20
83.446684343399994
 30
0.0
 11
-20.8535353535
 21
78.446684343399994
 31
0.0
  0
SOLID
  5
132
  8
0
 62
     0
 10
-20.8535353535
 20
83.446684343399994
 30
0.0
 11
-20.1035353535
 21
80.446684343400008
 31
0.0
 12
-21.6035353535
 22
80.446684343400008
 32
0.0
 13
-20.8535353535
 23
81.196684343400008
 33
0.0
  0
LINE
  5
133
  8
0
 62
     0
 10
-20.8535353535
 20
67.446684343400008
 30
0.0
 11
-20.8535353535
 21
72.446684343400008
 31
0.0
  0
SOLID
  5
134
  8
0
 62
     0
 10
-20.8535353535
 20
67.446684343400008
 30
0.0
 11
-21.6035353535
 21
70.446684343400008
 31
0.0
 12
-20.1035353535
 22
70.446684343400008
 32
0.0
 13
-20.8535353535
 23
69.696684343399994
 33
0.0
  0
ENDBLK
  5
135
  8
0
  0
BLOCK
  8
0
  2
*D6
 70
     1
 10
0.0
 20
0.0
 30
0.0
  3
*D6
  1

  0
TEXT
  5
139
  8
0
 62
     0
 10
-72.3827020043
 20
65.682795507500003
 30
0.0
 40
2.9986110209999999
  1
32
 50
90.0
  0
LINE
  5
13A
  8
0
 62
     0
 10
-62.853535353500007
 20
83.446684343399994
 30
0.0
 11
-71.853535353500007
 21
83.446684343399994
 31
0.0
  0
LINE
  5
13B
  8
0
 62
     0
 10
-62.853535353500007
 20
51.446684343400001
 30
0.0
 11
-71.853535353500007
 21
51.446684343400001
 31
0.0
  0
LINE
  5
13C
  8
0
 62
     0
 10
-70.853535353500007
 20
83.446684343399994
 30
0.0
 11
-70.853535353500007
 21
70.974462015200004
 31
0.0
  0
LINE
  5
13D
  8
0
 62
     0
 10
-70.853535353500007
 20
83.446684343399994
 30
0.0
 11
-70.853535353500007
 21
63.918906671599999
 31
0.0
  0
LINE
  5
13E
  8
0
 62
     0
 10
-70.853535353500007
 20
51.446684343400001
 30
0.0
 11
-70.853535353500007
 21
70.974462015200004
 31
0.0
  0
LINE
  5
13F
  8
0
 62
     0
 10
-70.853535353500007
 20
51.446684343400001
 30
0.0
 11
-70.853535353500007
 21
63.918906671599999
 31
0.0
  0
LINE
  5
140
  8
0
 62
     0
 10
-70.853535353500007
 20
51.446684343400001
 30
0.0
 11
-70.853535353500007
 21
56.446684343400001
 31
0.0
  0
SOLID
  5
141
  8
0
 62
     0
 10
-70.853535353500007
 20
51.446684343400001
 30
0.0
 11
-71.603535353500007
 21
54.446684343400001
 31
0.0
 12
-70.103535353500007
 22
54.446684343400001
 32
0.0
 13
-70.853535353500007
 23
53.696684343400001
 33
0.0
  0
LINE
  5
142
  8
0
 62
     0
 10
-70.853535353500007
 20
83.446684343399994
 30
0.0
 11
-70.853535353500007
 21
78.446684343399994
 31
0.0
  0
SOLID
  5
143
  8
0
 62
     0
 10
-70.853535353500007
 20
83.446684343399994
 30
0.0
 11
-70.103535353500007
 21
80.446684343400008
 31
0.0
 12
-71.603535353500007
 22
80.446684343400008
 32
0.0
 13
-70.853535353500007
 23
81.196684343400008
 33
0.0
  0
ENDBLK
  5
144
  8
0
  0
BLOCK
  8
0
  2
*D7
 70
     1
 10
0.0
 20
0.0
 30
0.0
  3
*D7
  1

  0
TEXT
  5
149
  8
0
 62
     0
 10
-17.326202474900001
 20
96.567554981900017
 30
0.0
 40
2.9986110209999999
  1
4-R 3
  0
LINE
  5
14A
  8
0
 62
     0
 10
-18.261831365900001
 20
96.038388331100009
 30
0.0
 11
-3.2150917876
 21
96.038388331100009
 31
0.0
  0
LINE
  5
14B
  8
0
 62
     0
 10
-31.732215010000001
 20
82.568004686999984
 30
0.0
 11
-18.261831365900001
 21
96.038388331100009
 31
0.0
  0
SOLID
  5
14C
  8
0
 62
     0
 10
-31.732215010000001
 20
82.568004686999984
 30
0.0
 11
-30.141224752300001
 21
85.219655116400006
 31
0.0
 12
-29.080564580499999
 22
84.158994944699998
 32
0.0
 13
-30.141224752300001
 23
84.158994944699998
 33
0.0
  0
ENDBLK
  5
14D
  8
0
  0
BLOCK
  8
0
  2
*D8
 70
     1
 10
0.0
 20
0.0
 30
0.0
  3
*D8
  1

  0
TEXT
  5
165
  8
0
 62
     0
 10
-41.64728531179999
 20
-7.5748371178999987
 30
0.0
 40
0.899583286
  1
%%c4
  0
LINE
  5
166
  8
0
 62
     0
 10
-42.953535353500001
 20
-5.7924898989999987
 30
0.0
 11
-42.953535353500001
 21
-8.7335871394000009
 31
0.0
  0
LINE
  5
167
  8
0
 62
     0
 10
-38.753535353499998
 20
-5.7924898989999987
 30
0.0
 11
-38.753535353499998
 21
-8.7335871394000009
 31
0.0
  0
LINE
  5
168
  8
0
 62
     0
 10
-42.953535353500001
 20
-8.0669204528999998
 30
0.0
 11
-39.530618756399988
 21
-8.0669204528999998
 31
0.0
  0
LINE
  5
169
  8
0
 62
     0
 10
-42.953535353500001
 20
-8.0669204528999998
 30
0.0
 11
-42.176451950699999
 21
-8.0669204528999998
 31
0.0
  0
LINE
  5
16A
  8
0
 62
     0
 10
-38.753535353499998
 20
-8.0669204528999998
 30
0.0
 11
-39.530618756399988
 21
-8.0669204528999998
 31
0.0
  0
LINE
  5
16B
  8
0
 62
     0
 10
-38.753535353499998
 20
-8.0669204528999998
 30
0.0
 11
-42.176451950699999
 21
-8.0669204528999998
 31
0.0
  0
LINE
  5
16C
  8
0
 62
     0
 10
-38.753535353499998
 20
-8.0669204528999998
 30
0.0
 11
-37.086868726599988
 21
-8.0669204528999998
 31
0.0
  0
SOLID
  5
16D
  8
0
 62
     0
 10
-38.753535353499998
 20
-8.0669204528999998
 30
0.0
 11
-37.753535353499998
 21
-7.7989204462000004
 31
0.0
 12
-37.753535353499998
 22
-8.334920459500001
 32
0.0
 13
-38.003535353499998
 23
-8.0669204528999998
 33
0.0
  0
LINE
  5
16E
  8
0
 62
     0
 10
-42.953535353500001
 20
-8.0669204528999998
 30
0.0
 11
-44.620201980499999
 21
-8.0669204528999998
 31
0.0
  0
SOLID
  5
16F
  8
0
 62
     0
 10
-42.953535353500001
 20
-8.0669204528999998
 30
0.0
 11
-43.953535353499987
 21
-8.334920459500001
 31
0.0
 12
-43.953535353499987
 22
-7.7989204462000004
 32
0.0
 13
-43.703535353500001
 23
-8.0669204528999998
 33
0.0
  0
ENDBLK
  5
170
  8
0
  0
BLOCK
  8
0
  2
*D9
 70
     1
 10
0.0
 20
0.0
 30
0.0
  3
*D9
  1

  0
TEXT
  5
197
  8
0
 62
     0
 10
-22.3827020043
 20
4.2693625730999996
 30
0.0
 40
2.9986110209999999
  1
2.6t
 50
90.0
  0
LINE
  5
198
  8
0
 62
     0
 10
-28.8535353535
 20
-3.7924898989999991
 30
0.0
 11
-19.8535353535
 21
-3.7924898989999991
 31
0.0
  0
LINE
  5
199
  8
0
 62
     0
 10
-28.8535353535
 20
-1.1924898989999999
 30
0.0
 11
-19.8535353535
 21
-1.1924898989999999
 31
0.0
  0
LINE
  5
19A
  8
0
 62
     0
 10
-20.8535353535
 20
-3.7924898989999991
 30
0.0
 11
-20.8535353535
 21
13.0888067526
 31
0.0
  0
LINE
  5
19B
  8
0
 62
     0
 10
-20.8535353535
 20
-3.7924898989999991
 30
0.0
 11
-20.8535353535
 21
2.5054737371999991
 31
0.0
  0
LINE
  5
19C
  8
0
 62
     0
 10
-20.8535353535
 20
-1.1924898989999999
 30
0.0
 11
-20.8535353535
 21
13.0888067526
 31
0.0
  0
LINE
  5
19D
  8
0
 62
     0
 10
-20.8535353535
 20
-1.1924898989999999
 30
0.0
 11
-20.8535353535
 21
2.5054737371999991
 31
0.0
  0
LINE
  5
19E
  8
0
 62
     0
 10
-20.8535353535
 20
-1.1924898989999999
 30
0.0
 11
-20.8535353535
 21
3.8075101010000001
 31
0.0
  0
SOLID
  5
19F
  8
0
 62
     0
 10
-20.8535353535
 20
-1.1924898989999999
 30
0.0
 11
-21.6035353535
 21
1.807510100999999
 31
0.0
 12
-20.1035353535
 22
1.807510100999999
 32
0.0
 13
-20.8535353535
 23
1.057510100999999
 33
0.0
  0
LINE
  5
1A0
  8
0
 62
     0
 10
-20.8535353535
 20
-3.7924898989999991
 30
0.0
 11
-20.8535353535
 21
-8.7924898989999996
 31
0.0
  0
SOLID
  5
1A1
  8
0
 62
     0
 10
-20.8535353535
 20
-3.7924898989999991
 30
0.0
 11
-20.1035353535
 21
-6.7924898989999987
 31
0.0
 12
-21.6035353535
 22
-6.7924898989999987
 32
0.0
 13
-20.8535353535
 23
-6.0424898989999987
 33
0.0
  0
ENDBLK
  5
1A2
  8
0
  0
BLOCK
  8
0
  2
*D10
 70
     1
 10
0.0
 20
0.0
 30
0.0
  3
*D10
  1

  0
TEXT
  5
1A6
  8
0
 62
     0
 10
-72.3827020043
 20
1.9436212650999991
 30
0.0
 40
2.9986110209999999
  1
15
 50
90.0
  0
LINE
  5
1A7
  8
0
 62
     0
 10
-62.853535353500007
 20
11.207510101
 30
0.0
 11
-71.853535353500007
 21
11.207510101
 31
0.0
  0
LINE
  5
1A8
  8
0
 62
     0
 10
-58.853535353500007
 20
-3.7924898989999991
 30
0.0
 11
-71.853535353500007
 21
-3.7924898989999991
 31
0.0
  0
LINE
  5
1A9
  8
0
 62
     0
 10
-70.853535353500007
 20
11.207510101
 30
0.0
 11
-70.853535353500007
 21
7.2352877727999987
 31
0.0
  0
LINE
  5
1AA
  8
0
 62
     0
 10
-70.853535353500007
 20
11.207510101
 30
0.0
 11
-70.853535353500007
 21
0.1797324292
 31
0.0
  0
LINE
  5
1AB
  8
0
 62
     0
 10
-70.853535353500007
 20
-3.7924898989999991
 30
0.0
 11
-70.853535353500007
 21
7.2352877727999987
 31
0.0
  0
LINE
  5
1AC
  8
0
 62
     0
 10
-70.853535353500007
 20
-3.7924898989999991
 30
0.0
 11
-70.853535353500007
 21
0.1797324292
 31
0.0
  0
LINE
  5
1AD
  8
0
 62
     0
 10
-70.853535353500007
 20
-3.7924898989999991
 30
0.0
 11
-70.853535353500007
 21
1.207510101
 31
0.0
  0
SOLID
  5
1AE
  8
0
 62
     0
 10
-70.853535353500007
 20
-3.7924898989999991
 30
0.0
 11
-71.603535353500007
 21
-0.7924898990000001
 31
0.0
 12
-70.103535353500007
 22
-0.7924898990000001
 32
0.0
 13
-70.853535353500007
 23
-1.5424898989999991
 33
0.0
  0
LINE
  5
1AF
  8
0
 62
     0
 10
-70.853535353500007
 20
11.207510101
 30
0.0
 11
-70.853535353500007
 21
6.2075101009999996
 31
0.0
  0
SOLID
  5
1B0
  8
0
 62
     0
 10
-70.853535353500007
 20
11.207510101
 30
0.0
 11
-70.103535353500007
 21
8.2075101010000004
 31
0.0
 12
-71.603535353500007
 22
8.2075101010000004
 32
0.0
 13
-70.853535353500007
 23
8.9575101010000004
 33
0.0
  0
ENDBLK
  5
1B1
  8
0
  0
BLOCK
  8
0
  2
*D11
 70
     1
 10
0.0
 20
0.0
 30
0.0
  3
*D11
  1

  0
TEXT
  5
1B5
  8
0
 62
     0
 10
-47.617424189399991
 20
-15.8544520361
 30
0.0
 40
2.9986110209999999
  1
30
  0
LINE
  5
1B6
  8
0
 62
     0
 10
-60.853535353500007
 20
-1.7924898989999991
 30
0.0
 11
-60.853535353500007
 21
-18.3836186869
 31
0.0
  0
LINE
  5
1B7
  8
0
 62
     0
 10
-30.8535353535
 20
-5.7924898989999987
 30
0.0
 11
-30.8535353535
 21
-18.3836186869
 31
0.0
  0
LINE
  5
1B8
  8
0
 62
     0
 10
-60.853535353500007
 20
-17.3836186869
 30
0.0
 11
-42.325757681699997
 21
-17.3836186869
 31
0.0
  0
LINE
  5
1B9
  8
0
 62
     0
 10
-60.853535353500007
 20
-17.3836186869
 30
0.0
 11
-49.381313025299988
 21
-17.3836186869
 31
0.0
  0
LINE
  5
1BA
  8
0
 62
     0
 10
-30.8535353535
 20
-17.3836186869
 30
0.0
 11
-42.325757681699997
 21
-17.3836186869
 31
0.0
  0
LINE
  5
1BB
  8
0
 62
     0
 10
-30.8535353535
 20
-17.3836186869
 30
0.0
 11
-49.381313025299988
 21
-17.3836186869
 31
0.0
  0
LINE
  5
1BC
  8
0
 62
     0
 10
-30.8535353535
 20
-17.3836186869
 30
0.0
 11
-35.8535353535
 21
-17.3836186869
 31
0.0
  0
SOLID
  5
1BD
  8
0
 62
     0
 10
-30.8535353535
 20
-17.3836186869
 30
0.0
 11
-33.8535353535
 21
-18.1336186869
 31
0.0
 12
-33.8535353535
 22
-16.6336186869
 32
0.0
 13
-33.1035353535
 23
-17.3836186869
 33
0.0
  0
LINE
  5
1BE
  8
0
 62
     0
 10
-60.853535353500007
 20
-17.3836186869
 30
0.0
 11
-55.853535353500007
 21
-17.3836186869
 31
0.0
  0
SOLID
  5
1BF
  8
0
 62
     0
 10
-60.853535353500007
 20
-17.3836186869
 30
0.0
 11
-57.853535353500007
 21
-16.6336186869
 31
0.0
 12
-57.853535353500007
 22
-18.1336186869
 32
0.0
 13
-58.6035353535
 23
-17.3836186869
 33
0.0
  0
ENDBLK
  5
1C0
  8
0
  0
BLOCK
  8
0
  2
*D12
 70
     1
 10
0.0
 20
0.0
 30
0.0
  3
*D12
  1

  0
TEXT
  5
1C4
  8
0
 62
     0
 10
-51.4664346916
 20
8.4624324474999995
 30
0.0
 40
2.9986110209999999
  1
90%%d
 50
311.93881075410002
  0
ARC
  5
1C5
  8
0
 62
     0
 10
-58.253535353499998
 20
-1.1924898989999999
 30
0.0
 40
9.9138837602999992
 50
42.536451663800001
 51
90.0
  0
ARC
  5
1C6
  8
0
 62
     0
 10
-58.253535353499998
 20
-1.1924898989999999
 30
0.0
 40
9.9138837602999992
 50
0.0
 51
47.463548336199992
  0
SOLID
  5
1C7
  8
0
 62
     0
 10
-48.339651593199989
 20
-1.1924898989999999
 30
0.0
 11
-47.589651593199989
 21
-4.192489898999999
 31
0.0
 12
-49.089651593200003
 22
-4.192489898999999
 32
0.0
 13
-48.339651593199989
 23
-3.442489898999999
 33
0.0
  0
SOLID
  5
1C8
  8
0
 62
     0
 10
-58.253535353499998
 20
8.7213938612999993
 30
0.0
 11
-61.253535353500013
 21
7.9713938613000002
 31
0.0
 12
-61.253535353500013
 22
9.4713938612999993
 32
0.0
 13
-60.503535353500013
 23
8.7213938612999993
 33
0.0
  0
ARC
  5
1C9
  8
0
 62
     0
 10
-58.253535353499998
 20
-1.1924898989999999
 30
0.0
 40
9.9138837602999992
 50
0.0
 51
16.3497908479
  0
ARC
  5
1CA
  8
0
 62
     0
 10
-58.253535353499998
 20
-1.1924898989999999
 30
0.0
 40
9.9138837602999992
 50
67.527830660299998
 51
90.0
  0
LINE
  5
1CB
  8
0
 62
     0
 10
-32.8535353535
 20
-1.1924898989999999
 30
0.0
 11
-50.339651593200003
 21
-1.1924898989999999
 31
0.0
  0
LINE
  5
1CC
  8
0
 62
     0
 10
-58.253535353499998
 20
9.2075101010000004
 30
0.0
 11
-58.253535353499998
 21
6.7213938613000002
 31
0.0
  0
ENDBLK
  5
1CD
  8
0
  0
BLOCK
  8
0
  2
*D13
 70
     1
 10
0.0
 20
0.0
 30
0.0
  3
*D13
  1

  0
TEXT
  5
1D2
  8
0
 62
     0
 10
-41.64728531179999
 20
5.8260164569999997
 30
0.0
 40
0.899583286
  1
90%%d
  0
ARC
  5
1D3
  8
0
 62
     0
 10
-40.8535353535
 20
-4.942489898999999
 30
0.0
 40
10.292256381
 50
128.7411861985
 51
135.0
  0
ARC
  5
1D4
  8
0
 62
     0
 10
-40.8535353535
 20
-4.942489898999999
 30
0.0
 40
10.292256381
 50
45.0
 51
51.258813801499997
  0
SOLID
  5
1D5
  8
0
 62
     0
 10
-33.575811072800001
 20
2.335234381699999
 30
0.0
 11
-32.679199669500001
 21
1.817632222599999
 31
0.0
 12
-33.0582089137
 22
1.4386229784999991
 32
0.0
 13
-33.04548098690001
 23
1.8049042957999999
 33
0.0
  0
SOLID
  5
1D6
  8
0
 62
     0
 10
-48.131259634300001
 20
2.335234381699999
 30
0.0
 11
-48.648861793400002
 21
1.4386229784999991
 31
0.0
 12
-49.027871037499999
 22
1.817632222599999
 32
0.0
 13
-48.661589720199999
 23
1.8049042957999999
 33
0.0
  0
ARC
  5
1D7
  8
0
 62
     0
 10
-40.8535353535
 20
-4.942489898999999
 30
0.0
 40
10.292256381
 50
45.0
 51
82.523568192499994
  0
ARC
  5
1D8
  8
0
 62
     0
 10
-40.8535353535
 20
-4.942489898999999
 30
0.0
 40
10.292256381
 50
97.476431807500006
 51
135.0
  0
LINE
  5
1D9
  8
0
 62
     0
 10
-36.632130818699999
 20
-0.7210853641
 30
0.0
 11
-33.104406537999999
 21
2.8066389165999999
 31
0.0
  0
LINE
  5
1DA
  8
0
 62
     0
 10
-45.074939888400003
 20
-0.7210853641
 30
0.0
 11
-48.602664169100002
 21
2.8066389165999999
 31
0.0
  0
ENDBLK
  5
1DB
  8
0
  0
BLOCK
  8
0
  2
*D14
 70
     1
 10
0.0
 20
0.0
 30
0.0
  3
*D14
  1

  0
TEXT
  5
1DF
  8
0
 62
     0
 10
-41.64728531179999
 20
2.6329266898000001
 30
0.0
 40
0.899583286
  1
%%c8
  0
LINE
  5
1E0
  8
0
 62
     0
 10
-37.1035353535
 20
0.8075101009999999
 30
0.0
 11
-37.1035353535
 21
2.8075100414
 31
0.0
  0
LINE
  5
1E1
  8
0
 62
     0
 10
-44.603535353500007
 20
0.8075101009999999
 30
0.0
 11
-44.603535353500007
 21
2.8075100414
 31
0.0
  0
LINE
  5
1E2
  8
0
 62
     0
 10
-37.1035353535
 20
2.140843354899999
 30
0.0
 11
-39.530618756399988
 21
2.140843354899999
 31
0.0
  0
LINE
  5
1E3
  8
0
 62
     0
 10
-37.1035353535
 20
2.140843354899999
 30
0.0
 11
-42.176451950699999
 21
2.140843354899999
 31
0.0
  0
LINE
  5
1E4
  8
0
 62
     0
 10
-44.603535353500007
 20
2.140843354899999
 30
0.0
 11
-39.530618756399988
 21
2.140843354899999
 31
0.0
  0
LINE
  5
1E5
  8
0
 62
     0
 10
-44.603535353500007
 20
2.140843354899999
 30
0.0
 11
-42.176451950699999
 21
2.140843354899999
 31
0.0
  0
LINE
  5
1E6
  8
0
 62
     0
 10
-44.603535353500007
 20
2.140843354899999
 30
0.0
 11
-42.93686872659999
 21
2.140843354899999
 31
0.0
  0
SOLID
  5
1E7
  8
0
 62
     0
 10
-44.603535353500007
 20
2.140843354899999
 30
0.0
 11
-43.6035353535
 21
2.4088433614999998
 31
0.0
 12
-43.6035353535
 22
1.8728433481999991
 32
0.0
 13
-43.853535353500007
 23
2.140843354899999
 33
0.0
  0
LINE
  5
1E8
  8
0
 62
     0
 10
-37.1035353535
 20
2.140843354899999
 30
0.0
 11
-38.770201980500012
 21
2.140843354899999
 31
0.0
  0
SOLID
  5
1E9
  8
0
 62
     0
 10
-37.1035353535
 20
2.140843354899999
 30
0.0
 11
-38.1035353535
 21
1.8728433481999991
 31
0.0
 12
-38.1035353535
 22
2.4088433614999998
 32
0.0
 13
-37.8535353535
 23
2.140843354899999
 33
0.0
  0
ENDBLK
  5
1EA
  8
0
  0
BLOCK
  8
0
  2
*D15
 70
     1
 10
0.0
 20
0.0
 30
0.0
  3
*D15
  1

  0
LINE
  5
1FB
  8
寸法線
 62
     0
 10
76.145911248542546
 20
-21.028590472131452
 30
0.0
 11
76.145911248542546
 21
-31.815170566196631
 31
0.0
  0
LINE
  5
1FC
  8
寸法線
 62
     0
 10
85.745911248542484
 20
-21.028590472131452
 30
0.0
 11
85.745911248542484
 21
-31.815170566196631
 31
0.0
  0
LINE
  5
1FD
  8
寸法線
 62
     0
 10
80.645911248542546
 20
-30.815170566196631
 30
0.0
 11
81.245911248542484
 21
-30.815170566196631
 31
0.0
  0
LINE
  5
1FE
  8
寸法線
 62
     0
 10
85.745911248542484
 20
-30.815170566196631
 30
0.0
 11
90.245911248542484
 21
-30.815170566196631
 31
0.0
  0
SOLID
  5
1FF
  8
寸法線
 62
     0
 10
80.645911248542546
 20
-30.065170566196631
 30
0.0
 11
80.645911248542546
 21
-31.565170566196631
 31
0.0
 12
76.145911248542546
 22
-30.815170566196631
 32
0.0
 13
76.145911248542546
 23
-30.815170566196631
 33
0.0
  0
SOLID
  5
200
  8
寸法線
 62
     0
 10
81.245911248542484
 20
-30.065170566196631
 30
0.0
 11
81.245911248542484
 21
-31.565170566196631
 31
0.0
 12
85.745911248542484
 22
-30.815170566196631
 32
0.0
 13
85.745911248542484
 23
-30.815170566196631
 33
0.0
  0
INSERT
  5
201
  8
0
  6
CONTINUOUS
  2
*U58
 10
0.0
 20
0.0
 30
0.0
  0
POINT
  5
202
  8
DEFPOINTS
 62
     0
 10
76.145911248542546
 20
-20.966090472131452
 30
0.0
  0
POINT
  5
203
  8
DEFPOINTS
 62
     0
 10
85.745911248542484
 20
-20.966090472131452
 30
0.0
  0
POINT
  5
204
  8
DEFPOINTS
 62
     0
 10
85.745911248542484
 20
-30.815170566196631
 30
0.0
  0
ENDBLK
  5
205
  8
0
  0
BLOCK
  8
0
  2
*D16
 70
     1
 10
0.0
 20
0.0
 30
0.0
  3
*D16
  1

  0
LINE
  5
208
  8
寸法線
 62
     0
 10
90.050765594166705
 20
-13.4612361265073
 30
0.0
 11
106.84964057954841
 21
3.3376388588744428
 31
0.0
  0
LINE
  5
209
  8
寸法線
 62
     0
 10
71.841056903118925
 20
-13.46123612650681
 30
0.0
 11
55.04218191782261
 21
3.337638859160367
 31
0.0
  0
ARC
  5
20A
  8
寸法線
 62
     0
 10
80.945911248542558
 20
-22.566090472131449
 30
0.0
 40
35.633405335950272
 50
52.240471233183783
 51
79.725567809004772
  0
ARC
  5
20B
  8
寸法線
 62
     0
 10
80.945911248542558
 20
-22.566090472131449
 30
0.0
 40
35.633405335950272
 50
102.094781328133
 51
127.75952876618381
  0
SOLID
  5
20C
  8
寸法線
 62
     0
 10
103.2617683474969
 20
6.168001571139766
 30
0.0
 11
102.2701979956133
 21
5.0424846955375049
 31
0.0
 12
106.1425337983619
 22
2.6305320776878971
 32
0.0
 13
106.1425337983619
 23
2.6305320776878971
 33
0.0
  0
SOLID
  5
20D
  8
寸法線
 62
     0
 10
59.621624501776537
 20
5.0424846957728819
 30
0.0
 11
58.630054149905391
 21
6.1680015713860881
 31
0.0
 12
55.74928869900134
 22
2.6305320779660151
 32
0.0
 13
55.74928869900134
 23
2.6305320779660151
 33
0.0
  0
INSERT
  5
20E
  8
0
  6
CONTINUOUS
  2
*U59
 10
0.0
 20
0.0
 30
0.0
  0
POINT
  5
20F
  8
DEFPOINTS
 62
     0
 10
80.945911248542558
 20
-22.566090472131449
 30
0.0
  0
POINT
  5
210
  8
DEFPOINTS
 62
     0
 10
90.006571420342539
 20
-13.50543030033146
 30
0.0
  0
POINT
  5
211
  8
DEFPOINTS
 62
     0
 10
71.885251076942595
 20
-13.505430300331451
 30
0.0
  0
POINT
  5
212
  8
DEFPOINTS
 62
     0
 10
90.168515191470917
 20
11.85313602045567
 30
0.0
  0
ENDBLK
  5
213
  8
0
  0
BLOCK
  8
0
  2
*D17
 70
     1
 10
0.0
 20
0.0
 30
0.0
  3
*D17
  1

  0
LINE
  5
216
  8
寸法線
 62
     0
 10
88.945911248542529
 20
-14.503590472131449
 30
0.0
 11
88.945911248542529
 21
1.8809947427057521
 31
0.0
  0
LINE
  5
217
  8
寸法線
 62
     0
 10
72.945911248542558
 20
-14.503590472131449
 30
0.0
 11
72.945911248542558
 21
1.8809947427057521
 31
0.0
  0
LINE
  5
218
  8
寸法線
 62
     0
 10
93.445911248542515
 20
0.8809947427057522
 30
0.0
 11
97.945911248542529
 21
0.8809947427057522
 31
0.0
  0
LINE
  5
219
  8
寸法線
 62
     0
 10
68.445911248542558
 20
0.8809947427057522
 30
0.0
 11
63.945911248542551
 21
0.8809947427057522
 31
0.0
  0
SOLID
  5
21A
  8
寸法線
 62
     0
 10
93.445911248542515
 20
1.6309947427057521
 30
0.0
 11
93.445911248542515
 21
0.1309947427057523
 31
0.0
 12
88.945911248542529
 22
0.8809947427057522
 32
0.0
 13
88.945911248542529
 23
0.8809947427057522
 33
0.0
  0
SOLID
  5
21B
  8
寸法線
 62
     0
 10
68.445911248542558
 20
1.6309947427057521
 30
0.0
 11
68.445911248542558
 21
0.1309947427057523
 31
0.0
 12
72.945911248542558
 22
0.8809947427057522
 32
0.0
 13
72.945911248542558
 23
0.8809947427057522
 33
0.0
  0
INSERT
  5
21C
  8
0
  6
CONTINUOUS
  2
*U60
 10
0.0
 20
0.0
 30
0.0
  0
POINT
  5
21D
  8
DEFPOINTS
 62
     0
 10
88.945911248542529
 20
-14.566090472131449
 30
0.0
  0
POINT
  5
21E
  8
DEFPOINTS
 62
     0
 10
72.945911248542558
 20
-14.566090472131449
 30
0.0
  0
POINT
  5
21F
  8
DEFPOINTS
 62
     0
 10
72.945911248542558
 20
0.8809947427057522
 30
0.0
  0
ENDBLK
  5
220
  8
0
  0
BLOCK
  8
0
  2
*D19
 70
     1
 10
0.0
 20
0.0
 30
0.0
  3
*D19
  1

  0
LINE
  5
264
  8
寸法線
 62
     0
 10
35.163789526422192
 20
4.3273544961890691
 30
0.0
 11
35.163789526422192
 21
20.711939711026279
 31
0.0
  0
LINE
  5
265
  8
寸法線
 62
     0
 10
19.163789526422221
 20
4.3273544961890691
 30
0.0
 11
19.163789526422221
 21
20.711939711026279
 31
0.0
  0
LINE
  5
266
  8
寸法線
 62
     0
 10
32.163789526422192
 20
19.711939711026272
 30
0.0
 11
29.491274330005261
 21
19.711939711026272
 31
0.0
  0
LINE
  5
267
  8
寸法線
 62
     0
 10
22.163789526422221
 20
19.711939711026272
 30
0.0
 11
24.313589295005261
 21
19.711939711026272
 31
0.0
  0
SOLID
  5
268
  8
寸法線
 62
     0
 10
32.163789526422192
 20
20.211939711026272
 30
0.0
 11
32.163789526422192
 21
19.211939711026272
 31
0.0
 12
35.163789526422192
 22
19.711939711026272
 32
0.0
 13
35.163789526422192
 23
19.711939711026272
 33
0.0
  0
SOLID
  5
269
  8
寸法線
 62
     0
 10
22.163789526422221
 20
20.211939711026272
 30
0.0
 11
22.163789526422221
 21
19.211939711026272
 31
0.0
 12
19.163789526422221
 22
19.711939711026272
 32
0.0
 13
19.163789526422221
 23
19.711939711026272
 33
0.0
  0
INSERT
  5
26A
  8
0
  6
CONTINUOUS
  2
*U61
 10
0.0
 20
0.0
 30
0.0
  0
POINT
  5
26B
  8
DEFPOINTS
 62
     0
 10
35.163789526422192
 20
4.2648544961890691
 30
0.0
  0
POINT
  5
26C
  8
DEFPOINTS
 62
     0
 10
19.163789526422221
 20
4.2648544961890691
 30
0.0
  0
POINT
  5
26D
  8
DEFPOINTS
 62
     0
 10
19.163789526422221
 20
19.711939711026272
 30
0.0
  0
ENDBLK
  5
248
  8
0
  0
BLOCK
  8
0
  2
*D20
 70
     1
 10
0.0
 20
0.0
 30
0.0
  3
*D20
  1

  0
LINE
  5
34E
  8
寸法線
 62
     0
 10
36.268643872046361
 20
5.3697088418132282
 30
0.0
 11
53.067518857428091
 21
22.168583827194979
 31
0.0
  0
LINE
  5
34F
  8
寸法線
 62
     0
 10
18.058935180998571
 20
5.369708841813714
 30
0.0
 11
1.260060195702253
 21
22.168583827480891
 31
0.0
  0
ARC
  5
350
  8
寸法線
 62
     0
 10
27.163789526422221
 20
-3.73514550381093
 30
0.0
 40
35.633405335950272
 50
49.825195402631273
 51
83.431580692547783
  0
ARC
  5
351
  8
寸法線
 62
     0
 10
27.163789526422221
 20
-3.73514550381093
 30
0.0
 40
35.633405335950272
 50
98.388768444589971
 51
130.17480459673629
  0
SOLID
  5
352
  8
寸法線
 62
     0
 10
50.490031444656893
 20
23.8597423134451
 30
0.0
 11
49.81331733800635
 21
23.123496418475131
 31
0.0
 12
52.360412076241538
 22
21.46147704600844
 32
0.0
 13
52.360412076241538
 23
21.46147704600844
 33
0.0
  0
SOLID
  5
353
  8
寸法線
 62
     0
 10
4.514261715134535
 20
23.123496418725111
 30
0.0
 11
3.8375476084921019
 21
23.859742313702551
 31
0.0
 12
1.967166976880993
 22
21.461477046286529
 32
0.0
 13
1.967166976880993
 23
21.461477046286529
 33
0.0
  0
TEXT
  8
寸法線
  40
2.99861
  5
361
  62
0
  72
0
  71
0
 10
20.6005
 20
26.5862
 30
0.000000
  1
90°
  0
POINT
  5
355
  8
DEFPOINTS
 62
     0
 10
27.163789526422221
 20
-3.73514550381093
 30
0.0
  0
POINT
  5
356
  8
DEFPOINTS
 62
     0
 10
36.224449698222209
 20
5.3255146679890677
 30
0.0
  0
POINT
  5
357
  8
DEFPOINTS
 62
     0
 10
18.10312935482224
 20
5.3255146679890677
 30
0.0
  0
POINT
  5
358
  8
DEFPOINTS
 62
     0
 10
36.386393469350558
 20
30.684080988776209
 30
0.0
  0
ENDBLK
  5
256
  8
0
  0
BLOCK
  8
0
  2
*D21
 70
     1
 10
0.0
 20
0.0
 30
0.0
  3
*D21
  1

  0
LINE
  5
283
  8
寸法線
 62
     0
 10
22.36378952642221
 20
-2.1976455038109282
 30
0.0
 11
22.36378952642221
 21
-12.984225597876099
 31
0.0
  0
LINE
  5
284
  8
寸法線
 62
     0
 10
31.963789526422151
 20
-2.1976455038109282
 30
0.0
 11
31.963789526422151
 21
-12.984225597876099
 31
0.0
  0
LINE
  5
285
  8
寸法線
 62
     0
 10
25.36378952642221
 20
-11.984225597876099
 30
0.0
 11
28.963789526422151
 21
-11.984225597876099
 31
0.0
  0
LINE
  5
286
  8
寸法線
 62
     0
 10
31.963789526422151
 20
-11.984225597876099
 30
0.0
 11
40.711821806322149
 21
-11.984225597876099
 31
0.0
  0
SOLID
  5
287
  8
寸法線
 62
     0
 10
25.36378952642221
 20
-11.484225597876099
 30
0.0
 11
25.36378952642221
 21
-12.484225597876099
 31
0.0
 12
22.36378952642221
 22
-11.984225597876099
 32
0.0
 13
22.36378952642221
 23
-11.984225597876099
 33
0.0
  0
SOLID
  5
288
  8
寸法線
 62
     0
 10
28.963789526422151
 20
-11.484225597876099
 30
0.0
 11
28.963789526422151
 21
-12.484225597876099
 31
0.0
 12
31.963789526422151
 22
-11.984225597876099
 32
0.0
 13
31.963789526422151
 23
-11.984225597876099
 33
0.0
  0
INSERT
  5
289
  8
0
  6
CONTINUOUS
  2
*U62
 10
0.0
 20
0.0
 30
0.0
  0
POINT
  5
28A
  8
DEFPOINTS
 62
     0
 10
22.36378952642221
 20
-2.1351455038109282
 30
0.0
  0
POINT
  5
28B
  8
DEFPOINTS
 62
     0
 10
31.963789526422151
 20
-2.1351455038109282
 30
0.0
  0
POINT
  5
28C
  8
DEFPOINTS
 62
     0
 10
31.963789526422151
 20
-11.984225597876099
 30
0.0
  0
ENDBLK
  5
263
  8
0
  0
BLOCK
  8
0
  2
*U22
 70
     1
 10
0.0
 20
0.0
 30
0.0
  3
*U22
  1

  0
TEXT
  5
29E
  8
図枠
  6
CONTINUOUS
 10
129.96091804208021
 20
116.48984319705831
 30
0.0
 40
2.698480084499999
  1
検認者
  0
ENDBLK
  5
2A0
  8
0
  0
BLOCK
  8
0
  2
*U23
 70
     1
 10
0.0
 20
0.0
 30
0.0
  3
*U23
  1

  0
TEXT
  5
2A2
  8
図枠
  6
CONTINUOUS
 10
120.0030116474279
 20
116.5035410655076
 30
0.0
 40
2.698480084499999
  1
改訂者
  0
ENDBLK
  5
2A4
  8
0
  0
BLOCK
  8
0
  2
*U24
 70
     1
 10
0.0
 20
0.0
 30
0.0
  3
*U24
  1

  0
TEXT
  5
2A6
  8
図枠
  6
CONTINUOUS
 10
46.633709058662689
 20
116.5583325393045
 30
0.0
 40
2.698480084499999
  1
副番
  0
ENDBLK
  5
2A8
  8
0
  0
BLOCK
  8
0
  2
*U25
 70
     1
 10
0.0
 20
0.0
 30
0.0
  3
*U25
  1

  0
TEXT
  5
2AA
  8
図枠
  6
CONTINUOUS
 10
56.865484028710917
 20
116.5309368024061
 30
0.0
 40
2.698480084499999
  1
改訂日
  0
ENDBLK
  5
2AC
  8
0
  0
BLOCK
  8
0
  2
*U26
 70
     1
 10
0.0
 20
0.0
 30
0.0
  3
*U26
  1

  0
TEXT
  5
2AE
  8
図枠
  6
CONTINUOUS
 10
82.937911527620798
 20
116.5035410655076
 30
0.0
 40
2.698480084499999
  1
改　訂　内　容
  0
ENDBLK
  5
2B0
  8
0
  0
BLOCK
  8
0
  2
*U27
 70
     1
 10
0.0
 20
0.0
 30
0.0
  3
*U27
  1

  0
TEXT
  5
2B2
  8
図枠
  6
CONTINUOUS
 10
115.3309344629089
 20
-31.81088362500001
 30
0.0
 40
3.229676959499999
  1
2.6t
  0
ENDBLK
  5
2B4
  8
0
  0
BLOCK
  8
0
  2
*U28
 70
     1
 10
0.0
 20
0.0
 30
0.0
  3
*U28
  1

  0
TEXT
  5
2B6
  8
図枠
  6
CONTINUOUS
 10
82.816470549940604
 20
-31.792509825784268
 30
0.0
 40
2.8047194594999989
  1
板　　厚
  0
ENDBLK
  5
2B8
  8
0
  0
BLOCK
  8
0
  2
*U29
 70
     1
 10
0.0
 20
0.0
 30
0.0
  3
*U29
  1

  0
TEXT
  5
2BA
  8
図枠
  6
CONTINUOUS
 10
29.082218774166499
 20
-47.319827952241113
 30
0.0
 40
2.337266249999999
  1
日 　付
  0
ENDBLK
  5
2BC
  8
0
  0
BLOCK
  8
0
  2
*U30
 70
     1
 10
0.0
 20
0.0
 30
0.0
  3
*U30
  1

  0
TEXT
  5
2BE
  8
図枠
  6
CONTINUOUS
 10
84.296239967059904
 20
-55.660922280982241
 30
0.0
 40
2.337266249999999
  1
図面名
  0
ENDBLK
  5
2C0
  8
0
  0
BLOCK
  8
0
  2
*U31
 70
     1
 10
0.0
 20
0.0
 30
0.0
  3
*U31
  1

  0
TEXT
  5
2C2
  8
図枠
  6
CONTINUOUS
 10
101.3279142781698
 20
-66.711004325399998
 30
0.0
 40
2.9983111599000001
  1
ＳＲＫ００１１６
  0
ENDBLK
  5
2C4
  8
0
  0
BLOCK
  8
0
  2
*U32
 70
     1
 10
0.0
 20
0.0
 30
0.0
  3
*U32
  1

  0
TEXT
  5
2C6
  8
図枠
  6
CONTINUOUS
 10
84.230986340790864
 20
-47.18550087235279
 30
0.0
 40
2.337266249999999
  1
製品名
  0
ENDBLK
  5
2C8
  8
0
  0
BLOCK
  8
0
  2
*U33
 70
     1
 10
0.0
 20
0.0
 30
0.0
  3
*U33
  1

  0
TEXT
  5
2CA
  8
図枠
  6
CONTINUOUS
 10
54.009833631399999
 20
-55.878299430667511
 30
0.0
 40
2.337266249999999
  1
 照査
  0
ENDBLK
  5
2CC
  8
0
  0
BLOCK
  8
0
  2
*U34
 70
     1
 10
0.0
 20
0.0
 30
0.0
  3
*U34
  1

  0
TEXT
  5
2CE
  8
図枠
  6
CONTINUOUS
 10
84.284375671374619
 20
-64.136343689611678
 30
0.0
 40
2.337266249999999
  1
図　番
  0
ENDBLK
  5
2D0
  8
0
  0
BLOCK
  8
0
  2
*U35
 70
     1
 10
0.0
 20
0.0
 30
0.0
  3
*U35
  1

  0
TEXT
  5
2D2
  8
図枠
  6
CONTINUOUS
 10
103.41303422185661
 20
-50.017101397471073
 30
0.0
 40
2.9983111599000001
  1
Ｌ型ブラケット
  0
ENDBLK
  5
2D4
  8
0
  0
BLOCK
  8
0
  2
*U36
 70
     1
 10
0.0
 20
0.0
 30
0.0
  3
*U36
  1

  0
TEXT
  5
2D6
  8
図枠
  6
CONTINUOUS
 10
61.211068195366991
 20
-42.791409825784257
 30
0.0
 40
2.8047194594999989
  1
指定無き公差はJIS 0408-Bによること
  0
ENDBLK
  5
2D8
  8
0
  0
BLOCK
  8
0
  2
*U37
 70
     1
 10
0.0
 20
0.0
 30
0.0
  3
*U37
  1

  0
TEXT
  5
2DA
  8
図枠
  6
CONTINUOUS
 10
79.463100414042117
 20
-37.220774052700513
 30
0.0
 40
2.8047194594999989
  1
ユニクロメッキ
  0
ENDBLK
  5
2DC
  8
0
  0
BLOCK
  8
0
  2
*U38
 70
     1
 10
0.0
 20
0.0
 30
0.0
  3
*U38
  1

  0
TEXT
  5
2DE
  8
図枠
  6
CONTINUOUS
 10
58.597481255286809
 20
-31.5795178254
 30
0.0
 40
2.9983111599000001
  1
SPCC
  0
ENDBLK
  5
2E0
  8
0
  0
BLOCK
  8
0
  2
*U39
 70
     1
 10
0.0
 20
0.0
 30
0.0
  3
*U39
  1

  0
TEXT
  5
2E2
  8
図枠
  6
CONTINUOUS
 10
26.829189127248991
 20
-37.263485516550759
 30
0.0
 40
2.8047194594999989
  1
表面処理
  0
ENDBLK
  5
2E4
  8
0
  0
BLOCK
  8
0
  2
*U40
 70
     1
 10
0.0
 20
0.0
 30
0.0
  3
*U40
  1

  0
TEXT
  5
2E6
  8
図枠
  6
CONTINUOUS
 10
104.1359772680254
 20
-58.272733739814207
 30
0.0
 40
2.9983111599000001
  1
LY-605 承認図
  0
ENDBLK
  5
2E8
  8
0
  0
BLOCK
  8
0
  2
*U41
 70
     1
 10
0.0
 20
0.0
 30
0.0
  3
*U41
  1

  0
TEXT
  5
2EA
  8
図枠
  6
CONTINUOUS
 10
39.404187743075127
 20
-60.080417247926398
 30
0.0
 40
2.337266249999999
  1
園 原
  0
ENDBLK
  5
2EC
  8
0
  0
BLOCK
  8
0
  2
*U42
 70
     1
 10
0.0
 20
0.0
 30
0.0
  3
*U42
  1

  0
TEXT
  5
2EE
  8
図枠
  6
CONTINUOUS
 10
39.404187743075127
 20
-55.830842247926391
 30
0.0
 40
2.337266249999999
  1
園 原
  0
ENDBLK
  5
2F0
  8
0
  0
BLOCK
  8
0
  2
*U43
 70
     1
 10
0.0
 20
0.0
 30
0.0
  3
*U43
  1

  0
TEXT
  5
2F2
  8
図枠
  6
CONTINUOUS
 10
24.012833631399999
 20
-55.866435134982233
 30
0.0
 40
2.337266249999999
  1
 設計
  0
ENDBLK
  5
2F4
  8
0
  0
BLOCK
  8
0
  2
*U44
 70
     1
 10
0.0
 20
0.0
 30
0.0
  3
*U44
  1

  0
TEXT
  5
2F6
  8
図枠
  6
CONTINUOUS
 10
48.831068564775642
 20
-47.391013726352789
 30
0.0
 40
2.337266249999999
  1
尺 　度
  0
ENDBLK
  5
2F8
  8
0
  0
BLOCK
  8
0
  2
*U45
 70
     1
 10
0.0
 20
0.0
 30
0.0
  3
*U45
  1

  0
TEXT
  5
2FA
  8
図枠
  6
CONTINUOUS
 10
30.227123307795939
 20
-51.5219457695
 30
0.0
 40
2.337266249999999
  1
H12.6
  0
ENDBLK
  5
2FC
  8
0
  0
BLOCK
  8
0
  2
*U46
 70
     1
 10
0.0
 20
0.0
 30
0.0
  3
*U46
  1

  0
TEXT
  5
2FE
  8
図枠
  6
CONTINUOUS
 10
69.330001968963458
 20
-60.139738726352789
 30
0.0
 40
2.337266249999999
  1
柳 原
  0
ENDBLK
  5
300
  8
0
  0
BLOCK
  8
0
  2
*U47
 70
     1
 10
0.0
 20
0.0
 30
0.0
  3
*U47
  1

  0
TEXT
  5
302
  8
図枠
  6
CONTINUOUS
 10
28.232965300899998
 20
-67.513086539706592
 30
0.0
 40
4.3175681352000002
  1
株式会社
  0
ENDBLK
  5
304
  8
0
  0
BLOCK
  8
0
  2
*U48
 70
     1
 10
0.0
 20
0.0
 30
0.0
  3
*U48
  1

  0
TEXT
  5
306
  8
図枠
  6
CONTINUOUS
 10
26.85766343648249
 20
-31.735561207317261
 30
0.0
 40
2.8047194594999989
  1
材　　質
  0
ENDBLK
  5
308
  8
0
  0
BLOCK
  8
0
  2
*U49
 70
     1
 10
0.0
 20
0.0
 30
0.0
  3
*U49
  1

  0
TEXT
  5
30A
  8
図枠
  6
CONTINUOUS
 10
54.009833631399999
 20
-60.151603022038067
 30
0.0
 40
2.337266249999999
  1
 検図
  0
ENDBLK
  5
30C
  8
0
  0
BLOCK
  8
0
  2
*U50
 70
     1
 10
0.0
 20
0.0
 30
0.0
  3
*U50
  1

  0
TEXT
  5
30E
  8
図枠
  6
CONTINUOUS
 10
51.120877632034521
 20
-51.5219457695
 30
0.0
 40
2.337266249999999
  1
1：1
  0
ENDBLK
  5
310
  8
0
  0
BLOCK
  8
0
  2
*U51
 70
     1
 10
0.0
 20
0.0
 30
0.0
  3
*U51
  1

  0
TEXT
  5
312
  8
図枠
  6
CONTINUOUS
 10
69.330001968963458
 20
-55.890163726352789
 30
0.0
 40
2.337266249999999
  1
柳 原
  0
ENDBLK
  5
314
  8
0
  0
BLOCK
  8
0
  2
*U52
 70
     1
 10
0.0
 20
0.0
 30
0.0
  3
*U52
  1

  0
TEXT
  5
316
  8
図枠
  6
CONTINUOUS
 10
26.90037490033275
 20
-42.819884135017773
 30
0.0
 40
2.8047194594999989
  1
一般公差
  0
ENDBLK
  5
318
  8
0
  0
BLOCK
  8
0
  2
*U53
 70
     1
 10
0.0
 20
0.0
 30
0.0
  3
*U53
  1

  0
TEXT
  5
31A
  8
図枠
  6
CONTINUOUS
 10
25.414152876323861
 20
-60.139738726352789
 30
0.0
 40
2.337266249999999
  1
製図
  0
ENDBLK
  5
31C
  8
0
  0
BLOCK
  8
0
  2
*U54
 70
     1
 10
0.0
 20
0.0
 30
0.0
  3
*U54
  1

  0
TEXT
  5
31E
  8
図枠
  6
CONTINUOUS
 10
61.211068195366991
 20
-42.791409825784257
 30
0.0
 40
2.8047194594999989
  1
指定無き公差はJIS 0408-Bによること
  0
ENDBLK
  5
320
  8
0
  0
BLOCK
  8
0
  2
*U55
 70
     1
 10
0.0
 20
0.0
 30
0.0
  3
*U55
  1

  0
TEXT
  5
322
  8
ﾚｲﾔ_1
  6
CONTINUOUS
 10
12.98836562915076
 20
-21.3463709565934
 30
0.0
 40
2.9986110209999999
  1
皿加工部詳細
  0
ENDBLK
  5
324
  8
0
  0
BLOCK
  8
0
  2
*D56
 70
     1
 10
0.0
 20
0.0
 30
0.0
  3
*D56
  1

  0
LINE
  5
326
  8
寸法線
 62
     0
 10
-30.9160353535
 20
-1.192489899000001
 30
0.0
 11
-49.589651593171823
 21
-1.1924898989999939
 31
0.0
  0
LINE
  5
327
  8
寸法線
 62
     0
 10
-58.253535353499998
 20
11.14501010099999
 30
0.0
 11
-58.253535353499998
 21
7.4713938613281812
 31
0.0
  0
ARC
  5
328
  8
寸法線
 62
     0
 10
-58.253535353499998
 20
-1.192489899000001
 30
0.0
 40
9.9138837603281811
 50
325.19022885044723
 51
342.59511442522358
  0
ARC
  5
329
  8
寸法線
 62
     0
 10
-58.253535353499998
 20
-1.192489899000001
 30
0.0
 40
9.9138837603281811
 50
107.4048855747764
 51
124.8097711495528
  0
SOLID
  5
32A
  8
寸法線
 62
     0
 10
-49.287804204347708
 20
-4.0823007277430099
 30
0.0
 11
-48.299316767394522
 21
-4.2336036919761071
 31
0.0
 12
-48.339651593171823
 22
-1.1924898989999979
 32
0.0
 13
-48.339651593171823
 23
-1.1924898989999979
 33
0.0
  0
SOLID
  5
32B
  8
寸法線
 62
     0
 10
-61.294649146476097
 20
8.7617286871054922
 30
0.0
 11
-61.143346182243008
 21
7.7732412501523021
 31
0.0
 12
-58.253535353499998
 22
8.7213938613281812
 32
0.0
 13
-58.253535353499998
 23
8.7213938613281812
 33
0.0
  0
TEXT
  8
寸法線
  40
2.99861
  5
362
  62
0
  72
0
  71
0
 10
-56.8762
 20
0.125780
 30
0.000000
  1
90°
  0
POINT
  5
32D
  8
DEFPOINTS
 62
     0
 10
-58.253535353499998
 20
-1.192489899000001
 30
0.0
  0
POINT
  5
32E
  8
DEFPOINTS
 62
     0
 10
-30.8535353535
 20
-1.192489899000001
 30
0.0
  0
POINT
  5
32F
  8
DEFPOINTS
 62
     0
 10
-58.253535353499998
 20
11.207510101
 30
0.0
  0
POINT
  5
330
  8
DEFPOINTS
 62
     0
 10
-53.296593473335918
 20
7.3931852876102013
 30
0.0
  0
ENDBLK
  5
332
  8
0
  0
BLOCK
  8
0
  2
*D57
 70
     1
 10
0.0
 20
0.0
 30
0.0
  3
*D57
  1

  0
LINE
  5
334
  8
寸法線
 62
     0
 10
-36.529011093775843
 20
-0.6179656392758409
 30
0.0
 11
-32.691927596301213
 21
3.2191178581987998
 31
0.0
  0
LINE
  5
335
  8
寸法線
 62
     0
 10
-45.17805961322415
 20
-0.6179656392758409
 30
0.0
 11
-49.015143110698787
 21
3.2191178581988011
 31
0.0
  0
ARC
  5
336
  8
寸法線
 62
     0
 10
-40.8535353535
 20
-4.942489898999999
 30
0.0
 40
10.292256381
 50
50.56907426834384
 51
81.876515615715249
  0
ARC
  5
337
  8
寸法線
 62
     0
 10
-40.8535353535
 20
-4.942489898999999
 30
0.0
 40
10.292256381
 50
98.123484384284751
 51
129.43092573165609
  0
SOLID
  5
338
  8
寸法線
 62
     0
 10
-34.204447610929222
 20
3.1305920878372442
 30
0.0
 11
-34.42842110815004
 21
2.8837176589188318
 31
0.0
 12
-33.57581107278439
 22
2.3352343817156158
 32
0.0
 13
-33.57581107278439
 23
2.3352343817156158
 33
0.0
  0
SOLID
  5
339
  8
寸法線
 62
     0
 10
-47.27864959884996
 20
2.883717658918834
 30
0.0
 11
-47.502623096070771
 21
3.1305920878372451
 31
0.0
 12
-48.13125963421561
 22
2.335234381715618
 32
0.0
 13
-48.13125963421561
 23
2.335234381715618
 33
0.0
  0
TEXT
  8
寸法線
  40
0.899583
  5
363
  62
0
  72
0
  71
0
 10
-42.6527
 20
3.75750
 30
0.000000
  1
90°
  0
POINT
  5
33B
  8
DEFPOINTS
 62
     0
 10
-40.8535353535
 20
-4.942489898999999
 30
0.0
  0
POINT
  5
33C
  8
DEFPOINTS
 62
     0
 10
-36.573205267600002
 20
-0.6621598131000001
 30
0.0
  0
POINT
  5
33D
  8
DEFPOINTS
 62
     0
 10
-45.133865439399997
 20
-0.6621598131000001
 30
0.0
  0
POINT
  5
33E
  8
DEFPOINTS
 62
     0
 10
-38.18970338501925
 20
4.999066350196359
 30
0.0
  0
ENDBLK
  5
340
  8
0
  0
BLOCK
  8
0
  2
*U58
 70
     1
 10
0.0
 20
0.0
 30
0.0
  3
*U58
  1

  0
TEXT
  5
342
  8
寸法線
  6
CONTINUOUS
 62
     0
 10
90.335911248542487
 20
-33.064128831996634
 30
0.0
 40
4.4979165315999996
  1
\U+2205
  0
TEXT
  5
343
  8
寸法線
  6
CONTINUOUS
 62
     0
 10
94.833827780142485
 20
-33.064128831996634
 30
0.0
 40
4.4979165315999996
  1
4.5
  0
ENDBLK
  5
345
  8
0
  0
BLOCK
  8
0
  2
*U59
 70
     1
 10
0.0
 20
0.0
 30
0.0
  3
*U59
  1

  0
TEXT
  5
347
  8
寸法線
  6
CONTINUOUS
 62
     0
 10
73.594624140257963
 20
10.705780320053069
 30
0.0
 40
4.4979165315999996
  1
90°
 50
0.9101745685689267
  0
ENDBLK
  5
349
  8
0
  0
BLOCK
  8
0
  2
*U60
 70
     1
 10
0.0
 20
0.0
 30
0.0
  3
*U60
  1

  0
TEXT
  5
34B
  8
寸法線
  6
CONTINUOUS
 62
     0
 10
76.936289758292261
 20
-1.3679635230942471
 30
0.0
 40
4.4979165315999996
  1
φ8
  0
ENDBLK
  5
34D
  8
0
  0
BLOCK
  8
0
  2
*U61
 70
     1
 10
0.0
 20
0.0
 30
0.0
  3
*U61
  1

  0
TEXT
  5
35A
  8
寸法線
  6
CONTINUOUS
 62
     0
 10
24.403589295005261
 20
18.212634200526271
 30
0.0
 40
2.9986110209999999
  1
φ8
  0
ENDBLK
  5
35C
  8
0
  0
BLOCK
  8
0
  2
*U62
 70
     1
 10
0.0
 20
0.0
 30
0.0
  3
*U62
  1

  0
TEXT
  5
35E
  8
寸法線
  6
CONTINUOUS
 62
     0
 10
40.801821806322138
 20
-13.4835311083761
 30
0.0
 40
2.9986110209999999
  1
φ4
  0
ENDBLK
  5
360
  8
0
  0
ENDSEC
  0
SECTION
  2
ENTITIES
  0
DIMENSION
  5
3E
  8
寸法線
  2
*D0
 10
42.906060606099999
 20
41.446684343400001
 30
0.0
 11
47.906060606099999
 21
41.446684343400001
 31
0.0
 70
   128
  1
<>
 13
42.906060606099999
 23
62.446684343400001
 33
0.0
 14
52.906060606099999
 24
51.446684343400001
 34
0.0
 50
180.0
  0
LINE
  5
40
  8
図枠
 62
     5
 10
120.00323363139999
 20
105.2554083345
 30
0.0
 11
120.00323363139999
 21
120.2539083345
 31
0.0
  0
LINE
  5
41
  8
図枠
 62
     5
 10
46.010633631399998
 20
105.2554083345
 30
0.0
 11
46.010633631399998
 21
120.2539083345
 31
0.0
  0
LINE
  5
42
  8
図枠
 62
     5
 10
49.7259766739
 20
114.9720540725
 30
0.0
 11
47.251224173899999
 21
110.6856570063
 31
0.0
  0
LINE
  5
43
  8
図枠
 62
     5
 10
49.7259766739
 20
114.9720540725
 30
0.0
 11
52.200729173900001
 21
110.6856570063
 31
0.0
  0
LINE
  5
44
  8
図枠
 62
     5
 10
54.009833631399999
 20
105.2554083345
 30
0.0
 11
54.009833631399999
 21
120.2539083345
 31
0.0
  0
INSERT
  5
45
  8
0
  6
CONTINUOUS
  2
*U22
 10
0.0
 20
0.0
 30
0.0
  0
INSERT
  5
46
  8
0
  6
CONTINUOUS
  2
*U23
 10
0.0
 20
0.0
 30
0.0
  0
LINE
  5
47
  8
図枠
 62
     5
 10
130.0022336314
 20
105.2554083345
 30
0.0
 11
130.0022336314
 21
120.2539083345
 31
0.0
  0
INSERT
  5
48
  8
0
  6
CONTINUOUS
  2
*U24
 10
0.0
 20
0.0
 30
0.0
  0
INSERT
  5
49
  8
0
  6
CONTINUOUS
  2
*U25
 10
0.0
 20
0.0
 30
0.0
  0
LINE
  5
4A
  8
図枠
 62
     5
 10
47.251224173899999
 20
105.7361520063
 30
0.0
 11
52.200729173900001
 21
105.7361520063
 31
0.0
  0
LINE
  5
4B
  8
図枠
 62
     5
 10
47.251224173899999
 20
110.6856570063
 30
0.0
 11
52.200729173900001
 21
110.6856570063
 31
0.0
  0
LINE
  5
4C
  8
図枠
 62
     5
 10
49.7259766739
 20
110.0225490725
 30
0.0
 11
52.200729173900001
 21
105.7361520063
 31
0.0
  0
LINE
  5
4D
  8
図枠
 62
     5
 10
49.7259766739
 20
110.0225490725
 30
0.0
 11
47.251224173899999
 21
105.7361520063
 31
0.0
  0
LINE
  5
4E
  8
図枠
 62
     5
 10
46.010633631399998
 20
105.2554083345
 30
0.0
 11
140.0012336314
 21
105.2554083345
 31
0.0
  0
LINE
  5
4F
  8
図枠
 62
     5
 10
70.008233631400003
 20
105.2554083345
 30
0.0
 11
70.008233631400003
 21
120.2539083345
 31
0.0
  0
INSERT
  5
50
  8
0
  6
CONTINUOUS
  2
*U26
 10
0.0
 20
0.0
 30
0.0
  0
LINE
  5
51
  8
図枠
 62
     5
 10
46.010633631399998
 20
110.2549083345
 30
0.0
 11
140.0012336314
 21
110.2549083345
 31
0.0
  0
LINE
  5
52
  8
図枠
 62
     5
 10
46.010633631399998
 20
115.2544083345
 30
0.0
 11
140.0012336314
 21
115.2544083345
 31
0.0
  0
LINE
  5
53
  8
図枠
 10
24.012833631399999
 20
-44.229641665499997
 30
0.0
 11
140.0012336314
 21
-44.229641665499997
 31
0.0
  0
LINE
  5
54
  8
図枠
 10
58.806555277299992
 20
-64.199506105799983
 30
0.0
 11
57.206715277299999
 21
-64.199506105799983
 31
0.0
  0
LINE
  5
55
  8
図枠
 10
75.338181394599999
 20
-47.327331865499993
 30
0.0
 11
79.945720594600004
 21
-46.175447065500002
 31
0.0
  0
LINE
  5
56
  8
図枠
 10
77.371941004999996
 20
-63.959530105799999
 30
0.0
 11
80.306875997299997
 21
-63.959530105799999
 31
0.0
  0
LINE
  5
57
  8
図枠
 10
75.106329437299991
 20
-63.959530105799999
 30
0.0
 11
74.707435997299996
 21
-62.599666105799997
 31
0.0
  0
LINE
  5
58
  8
図枠
 10
73.107595997299995
 20
-65.399386105800005
 30
0.0
 11
75.528687197300002
 21
-65.399386105800005
 31
0.0
  0
LINE
  5
59
  8
図枠
 10
99.005333631399992
 20
-33.230741665499998
 30
0.0
 11
99.005333631399992
 21
-27.731291665499999
 31
0.0
  0
LINE
  5
5B
  8
ﾚｲﾔ_1
 62
     5
 10
37.906060606099999
 20
80.446684343400008
 30
0.0
 11
37.906060606099999
 21
54.446684343400001
 31
0.0
  0
LINE
  5
5C
  8
ﾚｲﾔ_1
 62
     5
 10
40.906060606099992
 20
51.446684343400001
 30
0.0
 11
52.906060606099999
 21
51.446684343400001
 31
0.0
  0
ARC
  5
5D
  8
ﾚｲﾔ_1
 62
     5
 10
40.906060606099992
 20
54.446684343400001
 30
0.0
 40
3.0
 50
180.0
 51
270.0
  0
LINE
  5
5E
  8
ﾚｲﾔ_1
  6
STITCH
 10
52.906060606099999
 20
65.3466843434
 30
0.0
 11
51.956060606100003
 21
65.3466843434
 31
0.0
  0
LINE
  5
5F
  8
ﾚｲﾔ_1
  6
STITCH
 10
52.906060606099999
 20
69.546684343400003
 30
0.0
 11
51.956060606100003
 21
69.546684343400003
 31
0.0
  0
LINE
  5
60
  8
ﾚｲﾔ_1
  6
STITCH
 10
51.956060606100003
 20
65.3466843434
 30
0.0
 11
50.306060606099997
 21
63.696684343400001
 31
0.0
  0
LINE
  5
61
  8
ﾚｲﾔ_1
  6
STITCH
 10
51.956060606100003
 20
69.546684343400003
 30
0.0
 11
51.956060606100003
 21
65.3466843434
 31
0.0
  0
LINE
  5
62
  8
ﾚｲﾔ_1
  6
STITCH
 10
50.306060606099997
 20
71.196684343400008
 30
0.0
 11
51.956060606100003
 21
69.546684343400003
 31
0.0
  0
CIRCLE
  5
63
  8
ﾚｲﾔ_1
  6
STITCH
 10
42.906060606099999
 20
67.446684343400008
 30
0.0
 40
3.75
  0
LINE
  5
64
  8
ﾚｲﾔ_1
  6
BORDER
 62
     3
 10
37.906060606099999
 20
67.446684343400008
 30
0.0
 11
47.906060606099999
 21
67.446684343400008
 31
0.0
  0
LINE
  5
65
  8
ﾚｲﾔ_1
  6
BORDER
 62
     3
 10
42.906060606099999
 20
72.446684343400008
 30
0.0
 11
42.906060606099999
 21
62.446684343400001
 31
0.0
  0
CIRCLE
  5
66
  8
ﾚｲﾔ_1
 62
     5
 10
42.906060606099999
 20
67.446684343400008
 30
0.0
 40
2.1000000000000001
  0
LINE
  5
67
  8
ﾚｲﾔ_1
 62
     5
 10
50.306060606099997
 20
51.446684343400001
 30
0.0
 11
50.306060606099997
 21
83.446684343399994
 31
0.0
  0
LINE
  5
68
  8
ﾚｲﾔ_1
 62
     5
 10
52.906060606099999
 20
51.446684343400001
 30
0.0
 11
52.906060606099999
 21
83.446684343399994
 31
0.0
  0
LINE
  5
69
  8
ﾚｲﾔ_1
  6
BORDER
 62
     3
 10
55.331062133400003
 20
67.446684343400008
 30
0.0
 11
48.002388298299998
 21
67.446684343400008
 31
0.0
  0
LINE
  5
6A
  8
ﾚｲﾔ_1
 62
     5
 10
52.906060606099999
 20
83.446684343399994
 30
0.0
 11
40.906060606099992
 21
83.446684343399994
 31
0.0
  0
ARC
  5
6B
  8
ﾚｲﾔ_1
 62
     5
 10
40.906060606099992
 20
80.446684343400008
 30
0.0
 40
3.0
 50
90.0
 51
180.0
  0
DIMENSION
  5
7A
  8
寸法線
  2
*D1
 10
37.906060606099999
 20
41.446684343400001
 30
0.0
 11
40.406060606099999
 21
41.446684343400001
 31
0.0
 70
   128
  1
<>
 13
37.906060606099999
 23
51.446684343400001
 33
0.0
 14
42.906060606099999
 24
62.446684343400001
 34
0.0
 50
180.0
  0
LINE
  5
7B
  8
図枠
 10
80.306875997299997
 20
-66.039322105799997
 30
0.0
 11
80.306875997299997
 21
-67.479178105800003
 31
0.0
  0
INSERT
  5
7C
  8
0
  6
CONTINUOUS
  2
*U27
 10
0.0
 20
0.0
 30
0.0
  0
LINE
  5
7D
  8
図枠
 10
62.006235277299993
 20
-64.199506105799983
 30
0.0
 11
62.006235277299993
 21
-65.399386105800005
 31
0.0
  0
LINE
  5
7E
  8
図枠
 10
62.006235277299993
 20
-64.199506105799983
 30
0.0
 11
60.806355277299993
 21
-64.199506105799983
 31
0.0
  0
INSERT
  5
7F
  8
0
  6
CONTINUOUS
  2
*U28
 10
0.0
 20
0.0
 30
0.0
  0
LINE
  5
80
  8
図枠
 10
55.206915277299998
 20
-62.599666105799997
 30
0.0
 11
55.206915277299998
 21
-64.199506105799983
 31
0.0
  0
LINE
  5
81
  8
図枠
 10
55.206915277299998
 20
-65.399386105800005
 30
0.0
 11
55.206915277299998
 21
-66.599266105799998
 31
0.0
  0
ARC
  5
82
  8
図枠
 10
66.134307277299996
 20
-63.799546105799998
 30
0.0
 40
4.3995600000000001
 50
270.0
 51
302.54495885400001
  0
LINE
  5
83
  8
図枠
 10
26.0126336314
 20
-48.479216665499997
 30
0.0
 11
42.011033631399989
 21
-48.479216665499997
 31
0.0
  0
INSERT
  5
84
  8
0
  6
CONTINUOUS
  2
*U29
 10
0.0
 20
0.0
 30
0.0
  0
LINE
  5
85
  8
図枠
 10
80.306875997299997
 20
-63.959530105799999
 30
0.0
 11
80.306875997299997
 21
-65.399386105800005
 31
0.0
  0
LINE
  5
86
  8
図枠
 10
78.384771688800001
 20
-67.479178105800003
 30
0.0
 11
80.306875997299997
 21
-67.479178105800003
 31
0.0
  0
LINE
  5
87
  8
図枠
 10
75.338181394599999
 20
-49.631101465500002
 30
0.0
 11
79.945720594600004
 21
-50.7829862655
 31
0.0
  0
LINE
  5
88
  8
図枠
 10
76.46725999729999
 20
-68.599066105800006
 30
0.0
 11
76.138759517300002
 21
-67.479178105800003
 31
0.0
  0
LINE
  5
89
  8
図枠
 10
77.970431863599984
 20
-66.039322105799997
 30
0.0
 11
77.786280830199999
 21
-65.399386105800005
 31
0.0
  0
LINE
  5
8A
  8
図枠
 10
75.338181394599999
 20
-49.631101465500002
 30
0.0
 11
79.945720594600004
 21
-50.7829862655
 31
0.0
  0
LINE
  5
8B
  8
図枠
 10
73.107595997299995
 20
-63.959530105799999
 30
0.0
 11
73.107595997299995
 21
-65.399386105800005
 31
0.0
  0
LINE
  5
8C
  8
図枠
 10
84.006833631399999
 20
-44.229641665499997
 30
0.0
 11
84.006833631399999
 21
-69.727091665499998
 31
0.0
  0
LINE
  5
8D
  8
図枠
 10
75.338181394599999
 20
-49.631101465500002
 30
0.0
 11
79.945720594600004
 21
-50.7829862655
 31
0.0
  0
LINE
  5
8E
  8
図枠
 10
75.338181394599999
 20
-49.631101465500002
 30
0.0
 11
79.945720594600004
 21
-50.7829862655
 31
0.0
  0
INSERT
  5
8F
  8
0
  6
CONTINUOUS
  2
*U30
 10
0.0
 20
0.0
 30
0.0
  0
LINE
  5
90
  8
図枠
 10
75.338181394599999
 20
-47.327331865499993
 30
0.0
 11
75.338181394599999
 21
-49.631101465500002
 31
0.0
  0
LINE
  5
91
  8
図枠
 10
73.107595997299995
 20
-66.039322105799997
 30
0.0
 11
73.107595997299995
 21
-67.479178105800003
 31
0.0
  0
INSERT
  5
92
  8
0
  6
CONTINUOUS
  2
*U31
 10
0.0
 20
0.0
 30
0.0
  0
LINE
  5
93
  8
図枠
 10
75.338181394599999
 20
-47.327331865499993
 30
0.0
 11
75.338181394599999
 21
-49.631101465500002
 31
0.0
  0
INSERT
  5
94
  8
0
  6
CONTINUOUS
  2
*U32
 10
0.0
 20
0.0
 30
0.0
  0
LINE
  5
95
  8
図枠
 10
79.945720594600004
 20
-46.175447065500002
 30
0.0
 11
79.945720594600004
 21
-50.7829862655
 31
0.0
  0
LINE
  5
96
  8
図枠
 10
55.206915277299998
 20
-65.399386105800005
 30
0.0
 11
55.086044316400013
 21
-65.399386105800005
 31
0.0
  0
LINE
  5
97
  8
図枠
 10
60.806355277299993
 20
-64.199506105799983
 30
0.0
 11
60.806355277299993
 21
-63.799546105799998
 31
0.0
  0
LINE
  5
98
  8
図枠
 10
75.338181394599999
 20
-47.327331865499993
 30
0.0
 11
75.338181394599999
 21
-49.631101465500002
 31
0.0
  0
LINE
  5
99
  8
図枠
 10
75.716401757299991
 20
-66.039322105799997
 30
0.0
 11
75.528687197300002
 21
-65.399386105800005
 31
0.0
  0
LINE
  5
9A
  8
図枠
 10
64.008833631400009
 20
-44.229641665499997
 30
0.0
 11
64.008833631400009
 21
-52.728791665499998
 31
0.0
  0
INSERT
  5
9B
  8
0
  6
CONTINUOUS
  2
*U33
 10
0.0
 20
0.0
 30
0.0
  0
LINE
  5
9C
  8
図枠
 10
64.134507277299988
 20
-62.599666105799997
 30
0.0
 11
64.134507277299988
 21
-64.039522105800003
 31
0.0
  0
ARC
  5
9D
  8
図枠
 10
57.606675277299992
 20
-65.799346105799998
 30
0.0
 40
1.1998799999999989
 50
270.0
 51
0.0
  0
INSERT
  5
9E
  8
0
  6
CONTINUOUS
  2
*U34
 10
0.0
 20
0.0
 30
0.0
  0
LINE
  5
9F
  8
図枠
 10
60.806355277299993
 20
-65.799346105799998
 30
0.0
 11
60.806355277299993
 21
-65.399386105800005
 31
0.0
  0
LINE
  5
A0
  8
図枠
 10
44.010833631399997
 20
-44.229641665499997
 30
0.0
 11
44.010833631399997
 21
-52.728791665499998
 31
0.0
  0
LINE
  5
A1
  8
図枠
 10
77.371941004999996
 20
-63.959530105799999
 30
0.0
 11
77.2548373164
 21
-63.552587691799999
 31
0.0
  0
LINE
  5
A2
  8
図枠
 10
79.945720594600004
 20
-46.175447065500002
 30
0.0
 11
79.945720594600004
 21
-50.7829862655
 31
0.0
  0
LINE
  5
A3
  8
図枠
 10
75.338181394599999
 20
-47.327331865499993
 30
0.0
 11
79.945720594600004
 21
-46.175447065500002
 31
0.0
  0
LINE
  5
A4
  8
図枠
 10
75.338181394599999
 20
-47.327331865499993
 30
0.0
 11
75.338181394599999
 21
-49.631101465500002
 31
0.0
  0
LINE
  5
A5
  8
図枠
 10
75.338181394599999
 20
-47.327331865499993
 30
0.0
 11
79.945720594600004
 21
-46.175447065500002
 31
0.0
  0
LINE
  5
A6
  8
図枠
 10
81.007133631399995
 20
-33.230741665499998
 30
0.0
 11
81.007133631399995
 21
-27.731291665499999
 31
0.0
  0
INSERT
  5
A7
  8
0
  6
CONTINUOUS
  2
*U35
 10
0.0
 20
0.0
 30
0.0
  0
INSERT
  5
A8
  8
0
  6
CONTINUOUS
  2
*U36
 10
0.0
 20
0.0
 30
0.0
  0
INSERT
  5
A9
  8
0
  6
CONTINUOUS
  2
*U37
 10
0.0
 20
0.0
 30
0.0
  0
LINE
  5
AA
  8
図枠
 10
73.107595997299995
 20
-67.479178105800003
 30
0.0
 11
76.138759517300002
 21
-67.479178105800003
 31
0.0
  0
LINE
  5
AB
  8
図枠
 10
77.786280830199999
 20
-65.399386105800005
 30
0.0
 11
80.306875997299997
 21
-65.399386105800005
 31
0.0
  0
LINE
  5
AC
  8
図枠
 10
78.707035997299997
 20
-68.599066105800006
 30
0.0
 11
78.384771688800001
 21
-67.479178105800003
 31
0.0
  0
LINE
  5
AD
  8
図枠
 10
58.806555277299992
 20
-62.599666105799997
 30
0.0
 11
58.806555277299992
 21
-64.199506105799983
 31
0.0
  0
LINE
  5
AE
  8
図枠
 10
60.806355277299993
 20
-63.799546105799998
 30
0.0
 11
62.006235277299993
 21
-62.599666105799997
 31
0.0
  0
CIRCLE
  5
AF
  8
図枠
 10
70.072227231400007
 20
-48.479216665499997
 30
0.0
 40
2.303769599999999
  0
CIRCLE
  5
B0
  8
図枠
 10
70.072227231400007
 20
-48.479216665499997
 30
0.0
 40
1.151884799999999
  0
LINE
  5
B1
  8
図枠
 10
58.806555277299992
 20
-65.399386105800005
 30
0.0
 11
58.806555277299992
 21
-65.799346105799998
 31
0.0
  0
LINE
  5
B2
  8
図枠
 10
57.606675277299992
 20
-66.999226105800005
 30
0.0
 11
55.206915277299998
 21
-66.999226105800005
 31
0.0
  0
ARC
  5
B3
  8
図枠
 10
66.134307277299996
 20
-63.799546105799998
 30
0.0
 40
4.3995600000000001
 50
322.48761197969998
 51
0.0
  0
CIRCLE
  5
B4
  8
図枠
 10
70.072227231400007
 20
-48.479216665499997
 30
0.0
 40
1.151884799999999
  0
LINE
  5
B5
  8
図枠
  6
BORDER
 10
70.072227231400007
 20
-45.023562265499997
 30
0.0
 11
70.072227231400007
 21
-51.934871065500012
 31
0.0
  0
LINE
  5
B6
  8
図枠
  6
BORDER
 10
70.072227231400007
 20
-45.023562265499997
 30
0.0
 11
70.072227231400007
 21
-51.934871065500012
 31
0.0
  0
LINE
  5
B7
  8
図枠
 10
67.334187277299989
 20
-64.457168551000009
 30
0.0
 11
66.881684192199998
 21
-64.909671636100001
 31
0.0
  0
CIRCLE
  5
B8
  8
図枠
 10
70.072227231400007
 20
-48.479216665499997
 30
0.0
 40
1.151884799999999
  0
INSERT
  5
B9
  8
0
  6
CONTINUOUS
  2
*U38
 10
0.0
 20
0.0
 30
0.0
  0
INSERT
  5
BA
  8
0
  6
CONTINUOUS
  2
*U39
 10
0.0
 20
0.0
 30
0.0
  0
LINE
  5
BB
  8
図枠
 10
79.945720594600004
 20
-46.175447065500002
 30
0.0
 11
79.945720594600004
 21
-50.7829862655
 31
0.0
  0
LINE
  5
BC
  8
図枠
 10
73.107595997299995
 20
-66.039322105799997
 30
0.0
 11
75.716401757299991
 21
-66.039322105799997
 31
0.0
  0
LINE
  5
BD
  8
図枠
 10
77.2548373164
 20
-63.552587691799999
 30
0.0
 11
77.907115997299996
 21
-62.599666105799997
 31
0.0
  0
INSERT
  5
BE
  8
0
  6
CONTINUOUS
  2
*U40
 10
0.0
 20
0.0
 30
0.0
  0
LINE
  5
BF
  8
図枠
 10
79.945720594600004
 20
-46.175447065500002
 30
0.0
 11
79.945720594600004
 21
-50.7829862655
 31
0.0
  0
INSERT
  5
C0
  8
0
  6
CONTINUOUS
  2
*U41
 10
0.0
 20
0.0
 30
0.0
  0
LINE
  5
C1
  8
図枠
 10
60.806355277299993
 20
-65.399386105800005
 30
0.0
 11
62.006235277299993
 21
-65.399386105800005
 31
0.0
  0
LINE
  5
C2
  8
図枠
 10
75.338181394599999
 20
-47.327331865499993
 30
0.0
 11
79.945720594600004
 21
-46.175447065500002
 31
0.0
  0
LINE
  5
C3
  8
図枠
 10
77.970431863599984
 20
-66.039322105799997
 30
0.0
 11
80.306875997299997
 21
-66.039322105799997
 31
0.0
  0
LINE
  5
C4
  8
図枠
 10
73.107595997299995
 20
-63.959530105799999
 30
0.0
 11
75.106329437299991
 21
-63.959530105799999
 31
0.0
  0
LINE
  5
C5
  8
図枠
 10
54.009833631399999
 20
-52.728791665499998
 30
0.0
 11
54.009833631399999
 21
-61.227941665500012
 31
0.0
  0
LINE
  5
C6
  8
図枠
 10
24.012833631399999
 20
-33.230741665499998
 30
0.0
 11
140.0012336314
 21
-33.230741665499998
 31
0.0
  0
LINE
  5
C7
  8
図枠
  6
BORDER
 10
70.072227231400007
 20
-45.023562265499997
 30
0.0
 11
70.072227231400007
 21
-51.934871065500012
 31
0.0
  0
LINE
  5
C8
  8
図枠
 10
64.134507277299988
 20
-64.714830996099991
 30
0.0
 11
64.134507277299988
 21
-64.457168551000009
 31
0.0
  0
LINE
  5
C9
  8
図枠
 10
57.206715277299999
 20
-63.799546105799998
 30
0.0
 11
58.406595277299992
 21
-62.599666105799997
 31
0.0
  0
INSERT
  5
CA
  8
0
  6
CONTINUOUS
  2
*U42
 10
0.0
 20
0.0
 30
0.0
  0
LINE
  5
CB
  8
図枠
 10
54.286124316400013
 20
-65.399386105800005
 30
0.0
 11
55.086044316400013
 21
-65.399386105800005
 31
0.0
  0
INSERT
  5
CC
  8
0
  6
CONTINUOUS
  2
*U43
 10
0.0
 20
0.0
 30
0.0
  0
LINE
  5
CD
  8
図枠
 10
26.0126336314
 20
-56.978366665499998
 30
0.0
 11
52.010033631399999
 21
-56.978366665499998
 31
0.0
  0
LINE
  5
CE
  8
図枠
 10
64.134507277299988
 20
-66.999226105800005
 30
0.0
 11
64.134507277299988
 21
-68.199106105799999
 31
0.0
  0
LINE
  5
CF
  8
図枠
 10
24.012833631399999
 20
-27.731291665499999
 30
0.0
 11
24.012833631399999
 21
-44.229641665499997
 31
0.0
  0
LINE
  5
D0
  8
図枠
 10
64.134507277299988
 20
-64.457168551000009
 30
0.0
 11
67.334187277299989
 21
-64.457168551000009
 31
0.0
  0
CIRCLE
  5
D1
  8
図枠
 10
70.072227231400007
 20
-48.479216665499997
 30
0.0
 40
1.151884799999999
  0
CIRCLE
  5
D2
  8
図枠
 10
70.072227231400007
 20
-48.479216665499997
 30
0.0
 40
2.303769599999999
  0
ARC
  5
D3
  8
図枠
 10
65.094411277299983
 20
-63.959530105799999
 30
0.0
 40
3.0396959999999988
 50
331.39928138329998
 51
358.49204224580001
  0
LINE
  5
D4
  8
図枠
 10
57.206715277299999
 20
-64.199506105799983
 30
0.0
 11
57.206715277299999
 21
-63.799546105799998
 31
0.0
  0
LINE
  5
D5
  8
図枠
 10
62.006235277299993
 20
-62.599666105799997
 30
0.0
 11
58.806555277299992
 21
-62.599666105799997
 31
0.0
  0
LINE
  5
D6
  8
図枠
 10
24.012833631399999
 20
-44.229641665499997
 30
0.0
 11
24.012833631399999
 21
-69.727091665499998
 31
0.0
  0
LINE
  5
D7
  8
図枠
 10
24.012833631399999
 20
-27.731291665499999
 30
0.0
 11
24.012833631399999
 21
-44.229641665499997
 31
0.0
  0
LINE
  5
D8
  8
図枠
 10
55.206915277299998
 20
-66.599266105799998
 30
0.0
 11
57.206715277299999
 21
-66.599266105799998
 31
0.0
  0
LINE
  5
D9
  8
図枠
 10
44.010833631399997
 20
-44.229641665499997
 30
0.0
 11
44.010833631399997
 21
-27.731291665499999
 31
0.0
  0
LINE
  5
DA
  8
図枠
 10
64.134507277299988
 20
-66.999226105800005
 30
0.0
 11
65.094411277299983
 21
-66.999226105800005
 31
0.0
  0
LINE
  5
DB
  8
図枠
 10
55.206915277299998
 20
-68.199106105799999
 30
0.0
 11
58.406595277299992
 21
-68.199106105799999
 31
0.0
  0
LINE
  5
DC
  8
図枠
 10
76.46725999729999
 20
-68.599066105800006
 30
0.0
 11
78.707035997299997
 21
-68.599066105800006
 31
0.0
  0
LINE
  5
DD
  8
図枠
 10
74.707435997299996
 20
-62.599666105799997
 30
0.0
 11
77.907115997299996
 21
-62.599666105799997
 31
0.0
  0
LINE
  5
DE
  8
図枠
 10
64.134507277299988
 20
-68.199106105799999
 30
0.0
 11
64.134507277299988
 21
-66.999226105800005
 31
0.0
  0
LINE
  5
DF
  8
図枠
 10
67.763194365700002
 20
-65.414641304200003
 30
0.0
 11
67.570736968299997
 21
-65.627210733599995
 31
0.0
  0
ARC
  5
E0
  8
図枠
 10
58.406595277299992
 20
-65.799346105799998
 30
0.0
 40
2.3997599999999988
 50
270.0
 51
0.0
  0
INSERT
  5
E1
  8
0
  6
CONTINUOUS
  2
*U44
 10
0.0
 20
0.0
 30
0.0
  0
LINE
  5
E2
  8
図枠
 10
46.010633631399998
 20
-48.479216665499997
 30
0.0
 11
60.009233631400001
 21
-48.479216665499997
 31
0.0
  0
ARC
  5
E3
  8
図枠
 10
65.094411277299983
 20
-63.959530105799999
 30
0.0
 40
3.0396959999999988
 50
270.0
 51
298.08590481520002
  0
INSERT
  5
E4
  8
0
  6
CONTINUOUS
  2
*U45
 10
0.0
 20
0.0
 30
0.0
  0
INSERT
  5
E5
  8
0
  6
CONTINUOUS
  2
*U46
 10
0.0
 20
0.0
 30
0.0
  0
LINE
  5
E6
  8
図枠
 10
24.012833631399999
 20
-52.728791665499998
 30
0.0
 11
140.0012336314
 21
-52.728791665499998
 31
0.0
  0
LINE
  5
E7
  8
図枠
 10
64.134507277299988
 20
-68.199106105799999
 30
0.0
 11
66.134307277299996
 21
-68.199106105799999
 31
0.0
  0
LINE
  5
E8
  8
図枠
 10
57.206715277299999
 20
-65.399386105800005
 30
0.0
 11
58.806555277299992
 21
-65.399386105800005
 31
0.0
  0
POLYLINE
  8
図枠
  5
364
  66
     1
 10
0.000000
 20
0.000000
 30
0.000000
  70
     8
  0
VERTEX
  8
図枠
  5
365
 10
69.4817
 20
-66.6181
 30
0.000000
  70
    32
  0
VERTEX
  8
図枠
  5
366
 10
69.4957
 20
-66.6220
 30
0.000000
  70
    32
  0
VERTEX
  8
図枠
  5
367
 10
69.5097
 20
-66.6260
 30
0.000000
  70
    32
  0
VERTEX
  8
図枠
  5
368
 10
69.5237
 20
-66.6299
 30
0.000000
  70
    32
  0
VERTEX
  8
図枠
  5
369
 10
69.5377
 20
-66.6338
 30
0.000000
  70
    32
  0
VERTEX
  8
図枠
  5
36A
 10
69.5517
 20
-66.6377
 30
0.000000
  70
    32
  0
VERTEX
  8
図枠
  5
36B
 10
69.5658
 20
-66.6415
 30
0.000000
  70
    32
  0
VERTEX
  8
図枠
  5
36C
 10
69.5799
 20
-66.6453
 30
0.000000
  70
    32
  0
VERTEX
  8
図枠
  5
36D
 10
69.5939
 20
-66.6492
 30
0.000000
  70
    32
  0
VERTEX
  8
図枠
  5
36E
 10
69.6080
 20
-66.6529
 30
0.000000
  70
    32
  0
VERTEX
  8
図枠
  5
36F
 10
69.6221
 20
-66.6567
 30
0.000000
  70
    32
  0
VERTEX
  8
図枠
  5
370
 10
69.6363
 20
-66.6604
 30
0.000000
  70
    32
  0
VERTEX
  8
図枠
  5
371
 10
69.6504
 20
-66.6642
 30
0.000000
  70
    32
  0
VERTEX
  8
図枠
  5
372
 10
69.6646
 20
-66.6679
 30
0.000000
  70
    32
  0
VERTEX
  8
図枠
  5
373
 10
69.6787
 20
-66.6716
 30
0.000000
  70
    32
  0
VERTEX
  8
図枠
  5
374
 10
69.6929
 20
-66.6752
 30
0.000000
  70
    32
  0
VERTEX
  8
図枠
  5
375
 10
69.7071
 20
-66.6789
 30
0.000000
  70
    32
  0
VERTEX
  8
図枠
  5
376
 10
69.7213
 20
-66.6825
 30
0.000000
  70
    32
  0
VERTEX
  8
図枠
  5
377
 10
69.7355
 20
-66.6861
 30
0.000000
  70
    32
  0
VERTEX
  8
図枠
  5
378
 10
69.7497
 20
-66.6897
 30
0.000000
  70
    32
  0
VERTEX
  8
図枠
  5
379
 10
69.7639
 20
-66.6932
 30
0.000000
  70
    32
  0
VERTEX
  8
図枠
  5
37A
 10
69.7782
 20
-66.6968
 30
0.000000
  70
    32
  0
VERTEX
  8
図枠
  5
37B
 10
69.7925
 20
-66.7003
 30
0.000000
  70
    32
  0
VERTEX
  8
図枠
  5
37C
 10
69.8067
 20
-66.7038
 30
0.000000
  70
    32
  0
VERTEX
  8
図枠
  5
37D
 10
69.8210
 20
-66.7073
 30
0.000000
  70
    32
  0
VERTEX
  8
図枠
  5
37E
 10
69.8353
 20
-66.7107
 30
0.000000
  70
    32
  0
VERTEX
  8
図枠
  5
37F
 10
69.8496
 20
-66.7142
 30
0.000000
  70
    32
  0
VERTEX
  8
図枠
  5
380
 10
69.8639
 20
-66.7176
 30
0.000000
  70
    32
  0
VERTEX
  8
図枠
  5
381
 10
69.8783
 20
-66.7210
 30
0.000000
  70
    32
  0
VERTEX
  8
図枠
  5
382
 10
69.8926
 20
-66.7244
 30
0.000000
  70
    32
  0
VERTEX
  8
図枠
  5
383
 10
69.9069
 20
-66.7278
 30
0.000000
  70
    32
  0
VERTEX
  8
図枠
  5
384
 10
69.9213
 20
-66.7312
 30
0.000000
  70
    32
  0
VERTEX
  8
図枠
  5
385
 10
69.9357
 20
-66.7345
 30
0.000000
  70
    32
  0
VERTEX
  8
図枠
  5
386
 10
69.9501
 20
-66.7378
 30
0.000000
  70
    32
  0
VERTEX
  8
図枠
  5
387
 10
69.9645
 20
-66.7411
 30
0.000000
  70
    32
  0
VERTEX
  8
図枠
  5
388
 10
69.9789
 20
-66.7444
 30
0.000000
  70
    32
  0
VERTEX
  8
図枠
  5
389
 10
69.9933
 20
-66.7477
 30
0.000000
  70
    32
  0
VERTEX
  8
図枠
  5
38A
 10
70.0077
 20
-66.7509
 30
0.000000
  70
    32
  0
VERTEX
  8
図枠
  5
38B
 10
70.0221
 20
-66.7542
 30
0.000000
  70
    32
  0
VERTEX
  8
図枠
  5
38C
 10
70.0366
 20
-66.7574
 30
0.000000
  70
    32
  0
VERTEX
  8
図枠
  5
38D
 10
70.0510
 20
-66.7606
 30
0.000000
  70
    32
  0
VERTEX
  8
図枠
  5
38E
 10
70.0655
 20
-66.7638
 30
0.000000
  70
    32
  0
VERTEX
  8
図枠
  5
38F
 10
70.0800
 20
-66.7670
 30
0.000000
  70
    32
  0
VERTEX
  8
図枠
  5
390
 10
70.0945
 20
-66.7701
 30
0.000000
  70
    32
  0
VERTEX
  8
図枠
  5
391
 10
70.1090
 20
-66.7733
 30
0.000000
  70
    32
  0
VERTEX
  8
図枠
  5
392
 10
70.1235
 20
-66.7764
 30
0.000000
  70
    32
  0
VERTEX
  8
図枠
  5
393
 10
70.1380
 20
-66.7795
 30
0.000000
  70
    32
  0
VERTEX
  8
図枠
  5
394
 10
70.1525
 20
-66.7826
 30
0.000000
  70
    32
  0
VERTEX
  8
図枠
  5
395
 10
70.1670
 20
-66.7857
 30
0.000000
  70
    32
  0
VERTEX
  8
図枠
  5
396
 10
70.1816
 20
-66.7888
 30
0.000000
  70
    32
  0
VERTEX
  8
図枠
  5
397
 10
70.1961
 20
-66.7919
 30
0.000000
  70
    32
  0
VERTEX
  8
図枠
  5
398
 10
70.2107
 20
-66.7949
 30
0.000000
  70
    32
  0
VERTEX
  8
図枠
  5
399
 10
70.2252
 20
-66.7979
 30
0.000000
  70
    32
  0
VERTEX
  8
図枠
  5
39A
 10
70.2398
 20
-66.8009
 30
0.000000
  70
    32
  0
VERTEX
  8
図枠
  5
39B
 10
70.2544
 20
-66.8039
 30
0.000000
  70
    32
  0
VERTEX
  8
図枠
  5
39C
 10
70.2690
 20
-66.8069
 30
0.000000
  70
    32
  0
VERTEX
  8
図枠
  5
39D
 10
70.2836
 20
-66.8099
 30
0.000000
  70
    32
  0
VERTEX
  8
図枠
  5
39E
 10
70.2982
 20
-66.8129
 30
0.000000
  70
    32
  0
VERTEX
  8
図枠
  5
39F
 10
70.3128
 20
-66.8158
 30
0.000000
  70
    32
  0
VERTEX
  8
図枠
  5
3A0
 10
70.3274
 20
-66.8188
 30
0.000000
  70
    32
  0
VERTEX
  8
図枠
  5
3A1
 10
70.3421
 20
-66.8217
 30
0.000000
  70
    32
  0
VERTEX
  8
図枠
  5
3A2
 10
70.3567
 20
-66.8246
 30
0.000000
  70
    32
  0
VERTEX
  8
図枠
  5
3A3
 10
70.3713
 20
-66.8275
 30
0.000000
  70
    32
  0
VERTEX
  8
図枠
  5
3A4
 10
70.3860
 20
-66.8304
 30
0.000000
  70
    32
  0
VERTEX
  8
図枠
  5
3A5
 10
70.4006
 20
-66.8333
 30
0.000000
  70
    32
  0
VERTEX
  8
図枠
  5
3A6
 10
70.4153
 20
-66.8362
 30
0.000000
  70
    32
  0
VERTEX
  8
図枠
  5
3A7
 10
70.4300
 20
-66.8390
 30
0.000000
  70
    32
  0
VERTEX
  8
図枠
  5
3A8
 10
70.4447
 20
-66.8419
 30
0.000000
  70
    32
  0
VERTEX
  8
図枠
  5
3A9
 10
70.4594
 20
-66.8447
 30
0.000000
  70
    32
  0
VERTEX
  8
図枠
  5
3AA
 10
70.4740
 20
-66.8475
 30
0.000000
  70
    32
  0
VERTEX
  8
図枠
  5
3AB
 10
70.4887
 20
-66.8503
 30
0.000000
  70
    32
  0
VERTEX
  8
図枠
  5
3AC
 10
70.5035
 20
-66.8531
 30
0.000000
  70
    32
  0
VERTEX
  8
図枠
  5
3AD
 10
70.5182
 20
-66.8559
 30
0.000000
  70
    32
  0
VERTEX
  8
図枠
  5
3AE
 10
70.5329
 20
-66.8587
 30
0.000000
  70
    32
  0
VERTEX
  8
図枠
  5
3AF
 10
70.5476
 20
-66.8615
 30
0.000000
  70
    32
  0
VERTEX
  8
図枠
  5
3B0
 10
70.5623
 20
-66.8642
 30
0.000000
  70
    32
  0
VERTEX
  8
図枠
  5
3B1
 10
70.5771
 20
-66.8670
 30
0.000000
  70
    32
  0
VERTEX
  8
図枠
  5
3B2
 10
70.5918
 20
-66.8697
 30
0.000000
  70
    32
  0
VERTEX
  8
図枠
  5
3B3
 10
70.6066
 20
-66.8725
 30
0.000000
  70
    32
  0
VERTEX
  8
図枠
  5
3B4
 10
70.6213
 20
-66.8752
 30
0.000000
  70
    32
  0
VERTEX
  8
図枠
  5
3B5
 10
70.6361
 20
-66.8779
 30
0.000000
  70
    32
  0
VERTEX
  8
図枠
  5
3B6
 10
70.6508
 20
-66.8806
 30
0.000000
  70
    32
  0
VERTEX
  8
図枠
  5
3B7
 10
70.6656
 20
-66.8833
 30
0.000000
  70
    32
  0
VERTEX
  8
図枠
  5
3B8
 10
70.6804
 20
-66.8860
 30
0.000000
  70
    32
  0
VERTEX
  8
図枠
  5
3B9
 10
70.6952
 20
-66.8887
 30
0.000000
  70
    32
  0
VERTEX
  8
図枠
  5
3BA
 10
70.7100
 20
-66.8914
 30
0.000000
  70
    32
  0
VERTEX
  8
図枠
  5
3BB
 10
70.7247
 20
-66.8941
 30
0.000000
  70
    32
  0
VERTEX
  8
図枠
  5
3BC
 10
70.7395
 20
-66.8967
 30
0.000000
  70
    32
  0
VERTEX
  8
図枠
  5
3BD
 10
70.7543
 20
-66.8994
 30
0.000000
  70
    32
  0
VERTEX
  8
図枠
  5
3BE
 10
70.7691
 20
-66.9020
 30
0.000000
  70
    32
  0
VERTEX
  8
図枠
  5
3BF
 10
70.7839
 20
-66.9047
 30
0.000000
  70
    32
  0
VERTEX
  8
図枠
  5
3C0
 10
70.7988
 20
-66.9073
 30
0.000000
  70
    32
  0
VERTEX
  8
図枠
  5
3C1
 10
70.8136
 20
-66.9099
 30
0.000000
  70
    32
  0
VERTEX
  8
図枠
  5
3C2
 10
70.8284
 20
-66.9126
 30
0.000000
  70
    32
  0
VERTEX
  8
図枠
  5
3C3
 10
70.8432
 20
-66.9152
 30
0.000000
  70
    32
  0
VERTEX
  8
図枠
  5
3C4
 10
70.8580
 20
-66.9178
 30
0.000000
  70
    32
  0
VERTEX
  8
図枠
  5
3C5
 10
70.8729
 20
-66.9204
 30
0.000000
  70
    32
  0
VERTEX
  8
図枠
  5
3C6
 10
70.8877
 20
-66.9230
 30
0.000000
  70
    32
  0
VERTEX
  8
図枠
  5
3C7
 10
70.9025
 20
-66.9256
 30
0.000000
  70
    32
  0
VERTEX
  8
図枠
  5
3C8
 10
70.9174
 20
-66.9282
 30
0.000000
  70
    32
  0
VERTEX
  8
図枠
  5
3C9
 10
70.9322
 20
-66.9308
 30
0.000000
  70
    32
  0
VERTEX
  8
図枠
  5
3CA
 10
70.9471
 20
-66.9333
 30
0.000000
  70
    32
  0
VERTEX
  8
図枠
  5
3CB
 10
70.9619
 20
-66.9359
 30
0.000000
  70
    32
  0
VERTEX
  8
図枠
  5
3CC
 10
70.9768
 20
-66.9385
 30
0.000000
  70
    32
  0
VERTEX
  8
図枠
  5
3CD
 10
70.9916
 20
-66.9410
 30
0.000000
  70
    32
  0
VERTEX
  8
図枠
  5
3CE
 10
71.0065
 20
-66.9436
 30
0.000000
  70
    32
  0
VERTEX
  8
図枠
  5
3CF
 10
71.0214
 20
-66.9462
 30
0.000000
  70
    32
  0
VERTEX
  8
図枠
  5
3D0
 10
71.0362
 20
-66.9487
 30
0.000000
  70
    32
  0
VERTEX
  8
図枠
  5
3D1
 10
71.0511
 20
-66.9513
 30
0.000000
  70
    32
  0
VERTEX
  8
図枠
  5
3D2
 10
71.0659
 20
-66.9538
 30
0.000000
  70
    32
  0
VERTEX
  8
図枠
  5
3D3
 10
71.0808
 20
-66.9563
 30
0.000000
  70
    32
  0
VERTEX
  8
図枠
  5
3D4
 10
71.0957
 20
-66.9589
 30
0.000000
  70
    32
  0
VERTEX
  8
図枠
  5
3D5
 10
71.1106
 20
-66.9614
 30
0.000000
  70
    32
  0
VERTEX
  8
図枠
  5
3D6
 10
71.1254
 20
-66.9639
 30
0.000000
  70
    32
  0
VERTEX
  8
図枠
  5
3D7
 10
71.1403
 20
-66.9665
 30
0.000000
  70
    32
  0
VERTEX
  8
図枠
  5
3D8
 10
71.1552
 20
-66.9690
 30
0.000000
  70
    32
  0
VERTEX
  8
図枠
  5
3D9
 10
71.1701
 20
-66.9715
 30
0.000000
  70
    32
  0
VERTEX
  8
図枠
  5
3DA
 10
71.1849
 20
-66.9741
 30
0.000000
  70
    32
  0
VERTEX
  8
図枠
  5
3DB
 10
71.1998
 20
-66.9766
 30
0.000000
  70
    32
  0
VERTEX
  8
図枠
  5
3DC
 10
71.2147
 20
-66.9791
 30
0.000000
  70
    32
  0
VERTEX
  8
図枠
  5
3DD
 10
71.2296
 20
-66.9816
 30
0.000000
  70
    32
  0
VERTEX
  8
図枠
  5
3DE
 10
71.2445
 20
-66.9841
 30
0.000000
  70
    32
  0
VERTEX
  8
図枠
  5
3DF
 10
71.2594
 20
-66.9867
 30
0.000000
  70
    32
  0
VERTEX
  8
図枠
  5
3E0
 10
71.2742
 20
-66.9892
 30
0.000000
  70
    32
  0
VERTEX
  8
図枠
  5
3E1
 10
71.2891
 20
-66.9917
 30
0.000000
  70
    32
  0
VERTEX
  8
図枠
  5
3E2
 10
71.3040
 20
-66.9942
 30
0.000000
  70
    32
  0
VERTEX
  8
図枠
  5
3E3
 10
71.3189
 20
-66.9967
 30
0.000000
  70
    32
  0
VERTEX
  8
図枠
  5
3E4
 10
71.3338
 20
-66.9992
 30
0.000000
  70
    32
  0
SEQEND
  8
図枠
  5
3E5
  0
LINE
  5
EA
  8
図枠
 10
70.53386727729999
 20
-63.799546105799998
 30
0.0
 11
71.33378727729999
 21
-62.599666105799997
 31
0.0
  0
CIRCLE
  5
EB
  8
図枠
 10
70.072227231400007
 20
-48.479216665499997
 30
0.0
 40
2.303769599999999
  0
LINE
  5
EC
  8
図枠
  6
BORDER
 10
70.072227231400007
 20
-45.023562265499997
 30
0.0
 11
70.072227231400007
 21
-51.934871065500012
 31
0.0
  0
INSERT
  5
ED
  8
0
  6
CONTINUOUS
  2
*U47
 10
0.0
 20
0.0
 30
0.0
  0
POLYLINE
  8
図枠
  5
3E6
  66
     1
 10
0.000000
 20
0.000000
 30
0.000000
  70
     8
  0
VERTEX
  8
図枠
  5
3E7
 10
64.1345
 20
-64.7148
 30
0.000000
  70
    32
  0
VERTEX
  8
図枠
  5
3E8
 10
64.1489
 20
-64.7281
 30
0.000000
  70
    32
  0
VERTEX
  8
図枠
  5
3E9
 10
64.1633
 20
-64.7414
 30
0.000000
  70
    32
  0
VERTEX
  8
図枠
  5
3EA
 10
64.1777
 20
-64.7547
 30
0.000000
  70
    32
  0
VERTEX
  8
図枠
  5
3EB
 10
64.1921
 20
-64.7680
 30
0.000000
  70
    32
  0
VERTEX
  8
図枠
  5
3EC
 10
64.2065
 20
-64.7812
 30
0.000000
  70
    32
  0
VERTEX
  8
図枠
  5
3ED
 10
64.2210
 20
-64.7945
 30
0.000000
  70
    32
  0
VERTEX
  8
図枠
  5
3EE
 10
64.2354
 20
-64.8078
 30
0.000000
  70
    32
  0
VERTEX
  8
図枠
  5
3EF
 10
64.2498
 20
-64.8211
 30
0.000000
  70
    32
  0
VERTEX
  8
図枠
  5
3F0
 10
64.2642
 20
-64.8343
 30
0.000000
  70
    32
  0
VERTEX
  8
図枠
  5
3F1
 10
64.2786
 20
-64.8476
 30
0.000000
  70
    32
  0
VERTEX
  8
図枠
  5
3F2
 10
64.2930
 20
-64.8609
 30
0.000000
  70
    32
  0
VERTEX
  8
図枠
  5
3F3
 10
64.3074
 20
-64.8741
 30
0.000000
  70
    32
  0
VERTEX
  8
図枠
  5
3F4
 10
64.3219
 20
-64.8874
 30
0.000000
  70
    32
  0
VERTEX
  8
図枠
  5
3F5
 10
64.3363
 20
-64.9006
 30
0.000000
  70
    32
  0
VERTEX
  8
図枠
  5
3F6
 10
64.3507
 20
-64.9139
 30
0.000000
  70
    32
  0
VERTEX
  8
図枠
  5
3F7
 10
64.3651
 20
-64.9271
 30
0.000000
  70
    32
  0
VERTEX
  8
図枠
  5
3F8
 10
64.3796
 20
-64.9404
 30
0.000000
  70
    32
  0
VERTEX
  8
図枠
  5
3F9
 10
64.3940
 20
-64.9536
 30
0.000000
  70
    32
  0
VERTEX
  8
図枠
  5
3FA
 10
64.4084
 20
-64.9668
 30
0.000000
  70
    32
  0
VERTEX
  8
図枠
  5
3FB
 10
64.4229
 20
-64.9801
 30
0.000000
  70
    32
  0
VERTEX
  8
図枠
  5
3FC
 10
64.4373
 20
-64.9933
 30
0.000000
  70
    32
  0
VERTEX
  8
図枠
  5
3FD
 10
64.4517
 20
-65.0065
 30
0.000000
  70
    32
  0
VERTEX
  8
図枠
  5
3FE
 10
64.4662
 20
-65.0197
 30
0.000000
  70
    32
  0
VERTEX
  8
図枠
  5
3FF
 10
64.4806
 20
-65.0329
 30
0.000000
  70
    32
  0
VERTEX
  8
図枠
  5
400
 10
64.4951
 20
-65.0461
 30
0.000000
  70
    32
  0
VERTEX
  8
図枠
  5
401
 10
64.5095
 20
-65.0593
 30
0.000000
  70
    32
  0
VERTEX
  8
図枠
  5
402
 10
64.5240
 20
-65.0725
 30
0.000000
  70
    32
  0
VERTEX
  8
図枠
  5
403
 10
64.5385
 20
-65.0857
 30
0.000000
  70
    32
  0
VERTEX
  8
図枠
  5
404
 10
64.5529
 20
-65.0988
 30
0.000000
  70
    32
  0
VERTEX
  8
図枠
  5
405
 10
64.5674
 20
-65.1120
 30
0.000000
  70
    32
  0
VERTEX
  8
図枠
  5
406
 10
64.5819
 20
-65.1252
 30
0.000000
  70
    32
  0
VERTEX
  8
図枠
  5
407
 10
64.5964
 20
-65.1383
 30
0.000000
  70
    32
  0
VERTEX
  8
図枠
  5
408
 10
64.6109
 20
-65.1514
 30
0.000000
  70
    32
  0
VERTEX
  8
図枠
  5
409
 10
64.6253
 20
-65.1646
 30
0.000000
  70
    32
  0
VERTEX
  8
図枠
  5
40A
 10
64.6398
 20
-65.1777
 30
0.000000
  70
    32
  0
VERTEX
  8
図枠
  5
40B
 10
64.6543
 20
-65.1908
 30
0.000000
  70
    32
  0
VERTEX
  8
図枠
  5
40C
 10
64.6689
 20
-65.2039
 30
0.000000
  70
    32
  0
VERTEX
  8
図枠
  5
40D
 10
64.6834
 20
-65.2170
 30
0.000000
  70
    32
  0
VERTEX
  8
図枠
  5
40E
 10
64.6979
 20
-65.2300
 30
0.000000
  70
    32
  0
VERTEX
  8
図枠
  5
40F
 10
64.7124
 20
-65.2431
 30
0.000000
  70
    32
  0
VERTEX
  8
図枠
  5
410
 10
64.7269
 20
-65.2562
 30
0.000000
  70
    32
  0
VERTEX
  8
図枠
  5
411
 10
64.7415
 20
-65.2692
 30
0.000000
  70
    32
  0
VERTEX
  8
図枠
  5
412
 10
64.7560
 20
-65.2822
 30
0.000000
  70
    32
  0
VERTEX
  8
図枠
  5
413
 10
64.7706
 20
-65.2953
 30
0.000000
  70
    32
  0
VERTEX
  8
図枠
  5
414
 10
64.7851
 20
-65.3083
 30
0.000000
  70
    32
  0
VERTEX
  8
図枠
  5
415
 10
64.7997
 20
-65.3213
 30
0.000000
  70
    32
  0
VERTEX
  8
図枠
  5
416
 10
64.8143
 20
-65.3342
 30
0.000000
  70
    32
  0
VERTEX
  8
図枠
  5
417
 10
64.8288
 20
-65.3472
 30
0.000000
  70
    32
  0
VERTEX
  8
図枠
  5
418
 10
64.8434
 20
-65.3602
 30
0.000000
  70
    32
  0
VERTEX
  8
図枠
  5
419
 10
64.8580
 20
-65.3731
 30
0.000000
  70
    32
  0
VERTEX
  8
図枠
  5
41A
 10
64.8726
 20
-65.3860
 30
0.000000
  70
    32
  0
VERTEX
  8
図枠
  5
41B
 10
64.8872
 20
-65.3990
 30
0.000000
  70
    32
  0
VERTEX
  8
図枠
  5
41C
 10
64.9018
 20
-65.4119
 30
0.000000
  70
    32
  0
VERTEX
  8
図枠
  5
41D
 10
64.9164
 20
-65.4247
 30
0.000000
  70
    32
  0
VERTEX
  8
図枠
  5
41E
 10
64.9311
 20
-65.4376
 30
0.000000
  70
    32
  0
VERTEX
  8
図枠
  5
41F
 10
64.9457
 20
-65.4505
 30
0.000000
  70
    32
  0
VERTEX
  8
図枠
  5
420
 10
64.9604
 20
-65.4633
 30
0.000000
  70
    32
  0
VERTEX
  8
図枠
  5
421
 10
64.9750
 20
-65.4761
 30
0.000000
  70
    32
  0
VERTEX
  8
図枠
  5
422
 10
64.9897
 20
-65.4889
 30
0.000000
  70
    32
  0
VERTEX
  8
図枠
  5
423
 10
65.0044
 20
-65.5017
 30
0.000000
  70
    32
  0
VERTEX
  8
図枠
  5
424
 10
65.0190
 20
-65.5145
 30
0.000000
  70
    32
  0
VERTEX
  8
図枠
  5
425
 10
65.0337
 20
-65.5273
 30
0.000000
  70
    32
  0
VERTEX
  8
図枠
  5
426
 10
65.0484
 20
-65.5400
 30
0.000000
  70
    32
  0
VERTEX
  8
図枠
  5
427
 10
65.0631
 20
-65.5527
 30
0.000000
  70
    32
  0
VERTEX
  8
図枠
  5
428
 10
65.0778
 20
-65.5654
 30
0.000000
  70
    32
  0
VERTEX
  8
図枠
  5
429
 10
65.0926
 20
-65.5781
 30
0.000000
  70
    32
  0
VERTEX
  8
図枠
  5
42A
 10
65.1073
 20
-65.5908
 30
0.000000
  70
    32
  0
VERTEX
  8
図枠
  5
42B
 10
65.1221
 20
-65.6034
 30
0.000000
  70
    32
  0
VERTEX
  8
図枠
  5
42C
 10
65.1368
 20
-65.6161
 30
0.000000
  70
    32
  0
VERTEX
  8
図枠
  5
42D
 10
65.1516
 20
-65.6287
 30
0.000000
  70
    32
  0
VERTEX
  8
図枠
  5
42E
 10
65.1664
 20
-65.6413
 30
0.000000
  70
    32
  0
VERTEX
  8
図枠
  5
42F
 10
65.1812
 20
-65.6538
 30
0.000000
  70
    32
  0
VERTEX
  8
図枠
  5
430
 10
65.1960
 20
-65.6664
 30
0.000000
  70
    32
  0
VERTEX
  8
図枠
  5
431
 10
65.2108
 20
-65.6789
 30
0.000000
  70
    32
  0
VERTEX
  8
図枠
  5
432
 10
65.2256
 20
-65.6915
 30
0.000000
  70
    32
  0
VERTEX
  8
図枠
  5
433
 10
65.2404
 20
-65.7039
 30
0.000000
  70
    32
  0
VERTEX
  8
図枠
  5
434
 10
65.2553
 20
-65.7164
 30
0.000000
  70
    32
  0
VERTEX
  8
図枠
  5
435
 10
65.2701
 20
-65.7289
 30
0.000000
  70
    32
  0
VERTEX
  8
図枠
  5
436
 10
65.2850
 20
-65.7413
 30
0.000000
  70
    32
  0
VERTEX
  8
図枠
  5
437
 10
65.2999
 20
-65.7537
 30
0.000000
  70
    32
  0
VERTEX
  8
図枠
  5
438
 10
65.3148
 20
-65.7661
 30
0.000000
  70
    32
  0
VERTEX
  8
図枠
  5
439
 10
65.3297
 20
-65.7785
 30
0.000000
  70
    32
  0
VERTEX
  8
図枠
  5
43A
 10
65.3446
 20
-65.7908
 30
0.000000
  70
    32
  0
VERTEX
  8
図枠
  5
43B
 10
65.3595
 20
-65.8031
 30
0.000000
  70
    32
  0
VERTEX
  8
図枠
  5
43C
 10
65.3745
 20
-65.8154
 30
0.000000
  70
    32
  0
VERTEX
  8
図枠
  5
43D
 10
65.3894
 20
-65.8277
 30
0.000000
  70
    32
  0
VERTEX
  8
図枠
  5
43E
 10
65.4044
 20
-65.8399
 30
0.000000
  70
    32
  0
VERTEX
  8
図枠
  5
43F
 10
65.4194
 20
-65.8521
 30
0.000000
  70
    32
  0
VERTEX
  8
図枠
  5
440
 10
65.4344
 20
-65.8643
 30
0.000000
  70
    32
  0
VERTEX
  8
図枠
  5
441
 10
65.4494
 20
-65.8765
 30
0.000000
  70
    32
  0
VERTEX
  8
図枠
  5
442
 10
65.4644
 20
-65.8887
 30
0.000000
  70
    32
  0
VERTEX
  8
図枠
  5
443
 10
65.4794
 20
-65.9008
 30
0.000000
  70
    32
  0
VERTEX
  8
図枠
  5
444
 10
65.4945
 20
-65.9129
 30
0.000000
  70
    32
  0
VERTEX
  8
図枠
  5
445
 10
65.5095
 20
-65.9250
 30
0.000000
  70
    32
  0
VERTEX
  8
図枠
  5
446
 10
65.5246
 20
-65.9370
 30
0.000000
  70
    32
  0
VERTEX
  8
図枠
  5
447
 10
65.5397
 20
-65.9490
 30
0.000000
  70
    32
  0
VERTEX
  8
図枠
  5
448
 10
65.5548
 20
-65.9610
 30
0.000000
  70
    32
  0
VERTEX
  8
図枠
  5
449
 10
65.5699
 20
-65.9730
 30
0.000000
  70
    32
  0
VERTEX
  8
図枠
  5
44A
 10
65.5850
 20
-65.9849
 30
0.000000
  70
    32
  0
VERTEX
  8
図枠
  5
44B
 10
65.6002
 20
-65.9968
 30
0.000000
  70
    32
  0
VERTEX
  8
図枠
  5
44C
 10
65.6154
 20
-66.0087
 30
0.000000
  70
    32
  0
VERTEX
  8
図枠
  5
44D
 10
65.6305
 20
-66.0206
 30
0.000000
  70
    32
  0
VERTEX
  8
図枠
  5
44E
 10
65.6457
 20
-66.0324
 30
0.000000
  70
    32
  0
VERTEX
  8
図枠
  5
44F
 10
65.6609
 20
-66.0442
 30
0.000000
  70
    32
  0
VERTEX
  8
図枠
  5
450
 10
65.6762
 20
-66.0560
 30
0.000000
  70
    32
  0
VERTEX
  8
図枠
  5
451
 10
65.6914
 20
-66.0677
 30
0.000000
  70
    32
  0
VERTEX
  8
図枠
  5
452
 10
65.7067
 20
-66.0794
 30
0.000000
  70
    32
  0
VERTEX
  8
図枠
  5
453
 10
65.7219
 20
-66.0911
 30
0.000000
  70
    32
  0
VERTEX
  8
図枠
  5
454
 10
65.7372
 20
-66.1028
 30
0.000000
  70
    32
  0
VERTEX
  8
図枠
  5
455
 10
65.7525
 20
-66.1144
 30
0.000000
  70
    32
  0
VERTEX
  8
図枠
  5
456
 10
65.7678
 20
-66.1260
 30
0.000000
  70
    32
  0
VERTEX
  8
図枠
  5
457
 10
65.7832
 20
-66.1375
 30
0.000000
  70
    32
  0
VERTEX
  8
図枠
  5
458
 10
65.7985
 20
-66.1491
 30
0.000000
  70
    32
  0
VERTEX
  8
図枠
  5
459
 10
65.8139
 20
-66.1606
 30
0.000000
  70
    32
  0
VERTEX
  8
図枠
  5
45A
 10
65.8293
 20
-66.1720
 30
0.000000
  70
    32
  0
VERTEX
  8
図枠
  5
45B
 10
65.8447
 20
-66.1835
 30
0.000000
  70
    32
  0
VERTEX
  8
図枠
  5
45C
 10
65.8601
 20
-66.1949
 30
0.000000
  70
    32
  0
VERTEX
  8
図枠
  5
45D
 10
65.8756
 20
-66.2063
 30
0.000000
  70
    32
  0
VERTEX
  8
図枠
  5
45E
 10
65.8910
 20
-66.2176
 30
0.000000
  70
    32
  0
VERTEX
  8
図枠
  5
45F
 10
65.9065
 20
-66.2289
 30
0.000000
  70
    32
  0
VERTEX
  8
図枠
  5
460
 10
65.9220
 20
-66.2402
 30
0.000000
  70
    32
  0
VERTEX
  8
図枠
  5
461
 10
65.9375
 20
-66.2514
 30
0.000000
  70
    32
  0
VERTEX
  8
図枠
  5
462
 10
65.9530
 20
-66.2626
 30
0.000000
  70
    32
  0
VERTEX
  8
図枠
  5
463
 10
65.9686
 20
-66.2738
 30
0.000000
  70
    32
  0
VERTEX
  8
図枠
  5
464
 10
65.9841
 20
-66.2849
 30
0.000000
  70
    32
  0
VERTEX
  8
図枠
  5
465
 10
65.9997
 20
-66.2960
 30
0.000000
  70
    32
  0
VERTEX
  8
図枠
  5
466
 10
66.0153
 20
-66.3071
 30
0.000000
  70
    32
  0
VERTEX
  8
図枠
  5
467
 10
66.0309
 20
-66.3181
 30
0.000000
  70
    32
  0
VERTEX
  8
図枠
  5
468
 10
66.0466
 20
-66.3291
 30
0.000000
  70
    32
  0
VERTEX
  8
図枠
  5
469
 10
66.0622
 20
-66.3401
 30
0.000000
  70
    32
  0
VERTEX
  8
図枠
  5
46A
 10
66.0779
 20
-66.3510
 30
0.000000
  70
    32
  0
VERTEX
  8
図枠
  5
46B
 10
66.0936
 20
-66.3619
 30
0.000000
  70
    32
  0
VERTEX
  8
図枠
  5
46C
 10
66.1093
 20
-66.3728
 30
0.000000
  70
    32
  0
VERTEX
  8
図枠
  5
46D
 10
66.1251
 20
-66.3836
 30
0.000000
  70
    32
  0
VERTEX
  8
図枠
  5
46E
 10
66.1408
 20
-66.3944
 30
0.000000
  70
    32
  0
VERTEX
  8
図枠
  5
46F
 10
66.1566
 20
-66.4051
 30
0.000000
  70
    32
  0
VERTEX
  8
図枠
  5
470
 10
66.1724
 20
-66.4158
 30
0.000000
  70
    32
  0
VERTEX
  8
図枠
  5
471
 10
66.1882
 20
-66.4265
 30
0.000000
  70
    32
  0
VERTEX
  8
図枠
  5
472
 10
66.2041
 20
-66.4371
 30
0.000000
  70
    32
  0
VERTEX
  8
図枠
  5
473
 10
66.2200
 20
-66.4477
 30
0.000000
  70
    32
  0
VERTEX
  8
図枠
  5
474
 10
66.2358
 20
-66.4583
 30
0.000000
  70
    32
  0
VERTEX
  8
図枠
  5
475
 10
66.2517
 20
-66.4688
 30
0.000000
  70
    32
  0
VERTEX
  8
図枠
  5
476
 10
66.2677
 20
-66.4793
 30
0.000000
  70
    32
  0
VERTEX
  8
図枠
  5
477
 10
66.2836
 20
-66.4897
 30
0.000000
  70
    32
  0
VERTEX
  8
図枠
  5
478
 10
66.2996
 20
-66.5001
 30
0.000000
  70
    32
  0
VERTEX
  8
図枠
  5
479
 10
66.3156
 20
-66.5104
 30
0.000000
  70
    32
  0
VERTEX
  8
図枠
  5
47A
 10
66.3316
 20
-66.5208
 30
0.000000
  70
    32
  0
VERTEX
  8
図枠
  5
47B
 10
66.3476
 20
-66.5310
 30
0.000000
  70
    32
  0
VERTEX
  8
図枠
  5
47C
 10
66.3637
 20
-66.5413
 30
0.000000
  70
    32
  0
VERTEX
  8
図枠
  5
47D
 10
66.3798
 20
-66.5515
 30
0.000000
  70
    32
  0
VERTEX
  8
図枠
  5
47E
 10
66.3959
 20
-66.5616
 30
0.000000
  70
    32
  0
VERTEX
  8
図枠
  5
47F
 10
66.4120
 20
-66.5717
 30
0.000000
  70
    32
  0
VERTEX
  8
図枠
  5
480
 10
66.4281
 20
-66.5818
 30
0.000000
  70
    32
  0
VERTEX
  8
図枠
  5
481
 10
66.4443
 20
-66.5918
 30
0.000000
  70
    32
  0
VERTEX
  8
図枠
  5
482
 10
66.4605
 20
-66.6018
 30
0.000000
  70
    32
  0
VERTEX
  8
図枠
  5
483
 10
66.4767
 20
-66.6117
 30
0.000000
  70
    32
  0
VERTEX
  8
図枠
  5
484
 10
66.4929
 20
-66.6216
 30
0.000000
  70
    32
  0
VERTEX
  8
図枠
  5
485
 10
66.5092
 20
-66.6315
 30
0.000000
  70
    32
  0
VERTEX
  8
図枠
  5
486
 10
66.5255
 20
-66.6413
 30
0.000000
  70
    32
  0
SEQEND
  8
図枠
  5
487
  0
LINE
  5
EF
  8
図枠
 10
57.206715277299999
 20
-66.599266105799998
 30
0.0
 11
57.206715277299999
 21
-65.399386105800005
 31
0.0
  0
LINE
  5
F0
  8
図枠
 10
58.406595277299992
 20
-62.599666105799997
 30
0.0
 11
55.206915277299998
 21
-62.599666105799997
 31
0.0
  0
POLYLINE
  8
図枠
  5
488
  66
     1
 10
0.000000
 20
0.000000
 30
0.000000
  70
     8
  0
VERTEX
  8
図枠
  5
489
 10
66.8817
 20
-64.9097
 30
0.000000
  70
    32
  0
VERTEX
  8
図枠
  5
48A
 10
66.8870
 20
-64.9156
 30
0.000000
  70
    32
  0
VERTEX
  8
図枠
  5
48B
 10
66.8922
 20
-64.9214
 30
0.000000
  70
    32
  0
VERTEX
  8
図枠
  5
48C
 10
66.8975
 20
-64.9273
 30
0.000000
  70
    32
  0
VERTEX
  8
図枠
  5
48D
 10
66.9028
 20
-64.9332
 30
0.000000
  70
    32
  0
VERTEX
  8
図枠
  5
48E
 10
66.9081
 20
-64.9391
 30
0.000000
  70
    32
  0
VERTEX
  8
図枠
  5
48F
 10
66.9134
 20
-64.9450
 30
0.000000
  70
    32
  0
VERTEX
  8
図枠
  5
490
 10
66.9186
 20
-64.9509
 30
0.000000
  70
    32
  0
VERTEX
  8
図枠
  5
491
 10
66.9239
 20
-64.9568
 30
0.000000
  70
    32
  0
VERTEX
  8
図枠
  5
492
 10
66.9292
 20
-64.9626
 30
0.000000
  70
    32
  0
VERTEX
  8
図枠
  5
493
 10
66.9345
 20
-64.9685
 30
0.000000
  70
    32
  0
VERTEX
  8
図枠
  5
494
 10
66.9398
 20
-64.9744
 30
0.000000
  70
    32
  0
VERTEX
  8
図枠
  5
495
 10
66.9450
 20
-64.9803
 30
0.000000
  70
    32
  0
VERTEX
  8
図枠
  5
496
 10
66.9503
 20
-64.9862
 30
0.000000
  70
    32
  0
VERTEX
  8
図枠
  5
497
 10
66.9556
 20
-64.9920
 30
0.000000
  70
    32
  0
VERTEX
  8
図枠
  5
498
 10
66.9609
 20
-64.9979
 30
0.000000
  70
    32
  0
VERTEX
  8
図枠
  5
499
 10
66.9662
 20
-65.0038
 30
0.000000
  70
    32
  0
VERTEX
  8
図枠
  5
49A
 10
66.9715
 20
-65.0097
 30
0.000000
  70
    32
  0
VERTEX
  8
図枠
  5
49B
 10
66.9768
 20
-65.0155
 30
0.000000
  70
    32
  0
VERTEX
  8
図枠
  5
49C
 10
66.9820
 20
-65.0214
 30
0.000000
  70
    32
  0
VERTEX
  8
図枠
  5
49D
 10
66.9873
 20
-65.0273
 30
0.000000
  70
    32
  0
VERTEX
  8
図枠
  5
49E
 10
66.9926
 20
-65.0331
 30
0.000000
  70
    32
  0
VERTEX
  8
図枠
  5
49F
 10
66.9979
 20
-65.0390
 30
0.000000
  70
    32
  0
VERTEX
  8
図枠
  5
4A0
 10
67.0032
 20
-65.0449
 30
0.000000
  70
    32
  0
VERTEX
  8
図枠
  5
4A1
 10
67.0085
 20
-65.0507
 30
0.000000
  70
    32
  0
VERTEX
  8
図枠
  5
4A2
 10
67.0138
 20
-65.0566
 30
0.000000
  70
    32
  0
VERTEX
  8
図枠
  5
4A3
 10
67.0191
 20
-65.0625
 30
0.000000
  70
    32
  0
VERTEX
  8
図枠
  5
4A4
 10
67.0244
 20
-65.0683
 30
0.000000
  70
    32
  0
VERTEX
  8
図枠
  5
4A5
 10
67.0297
 20
-65.0742
 30
0.000000
  70
    32
  0
VERTEX
  8
図枠
  5
4A6
 10
67.0350
 20
-65.0800
 30
0.000000
  70
    32
  0
VERTEX
  8
図枠
  5
4A7
 10
67.0403
 20
-65.0859
 30
0.000000
  70
    32
  0
VERTEX
  8
図枠
  5
4A8
 10
67.0456
 20
-65.0917
 30
0.000000
  70
    32
  0
VERTEX
  8
図枠
  5
4A9
 10
67.0509
 20
-65.0975
 30
0.000000
  70
    32
  0
VERTEX
  8
図枠
  5
4AA
 10
67.0562
 20
-65.1034
 30
0.000000
  70
    32
  0
VERTEX
  8
図枠
  5
4AB
 10
67.0615
 20
-65.1092
 30
0.000000
  70
    32
  0
VERTEX
  8
図枠
  5
4AC
 10
67.0668
 20
-65.1151
 30
0.000000
  70
    32
  0
VERTEX
  8
図枠
  5
4AD
 10
67.0722
 20
-65.1209
 30
0.000000
  70
    32
  0
VERTEX
  8
図枠
  5
4AE
 10
67.0775
 20
-65.1267
 30
0.000000
  70
    32
  0
VERTEX
  8
図枠
  5
4AF
 10
67.0828
 20
-65.1325
 30
0.000000
  70
    32
  0
VERTEX
  8
図枠
  5
4B0
 10
67.0881
 20
-65.1384
 30
0.000000
  70
    32
  0
VERTEX
  8
図枠
  5
4B1
 10
67.0934
 20
-65.1442
 30
0.000000
  70
    32
  0
VERTEX
  8
図枠
  5
4B2
 10
67.0987
 20
-65.1500
 30
0.000000
  70
    32
  0
VERTEX
  8
図枠
  5
4B3
 10
67.1041
 20
-65.1558
 30
0.000000
  70
    32
  0
VERTEX
  8
図枠
  5
4B4
 10
67.1094
 20
-65.1616
 30
0.000000
  70
    32
  0
VERTEX
  8
図枠
  5
4B5
 10
67.1147
 20
-65.1674
 30
0.000000
  70
    32
  0
VERTEX
  8
図枠
  5
4B6
 10
67.1201
 20
-65.1732
 30
0.000000
  70
    32
  0
VERTEX
  8
図枠
  5
4B7
 10
67.1254
 20
-65.1790
 30
0.000000
  70
    32
  0
VERTEX
  8
図枠
  5
4B8
 10
67.1307
 20
-65.1848
 30
0.000000
  70
    32
  0
VERTEX
  8
図枠
  5
4B9
 10
67.1361
 20
-65.1906
 30
0.000000
  70
    32
  0
VERTEX
  8
図枠
  5
4BA
 10
67.1414
 20
-65.1964
 30
0.000000
  70
    32
  0
VERTEX
  8
図枠
  5
4BB
 10
67.1468
 20
-65.2021
 30
0.000000
  70
    32
  0
VERTEX
  8
図枠
  5
4BC
 10
67.1521
 20
-65.2079
 30
0.000000
  70
    32
  0
VERTEX
  8
図枠
  5
4BD
 10
67.1575
 20
-65.2137
 30
0.000000
  70
    32
  0
VERTEX
  8
図枠
  5
4BE
 10
67.1628
 20
-65.2195
 30
0.000000
  70
    32
  0
VERTEX
  8
図枠
  5
4BF
 10
67.1682
 20
-65.2252
 30
0.000000
  70
    32
  0
VERTEX
  8
図枠
  5
4C0
 10
67.1735
 20
-65.2310
 30
0.000000
  70
    32
  0
VERTEX
  8
図枠
  5
4C1
 10
67.1789
 20
-65.2367
 30
0.000000
  70
    32
  0
VERTEX
  8
図枠
  5
4C2
 10
67.1843
 20
-65.2425
 30
0.000000
  70
    32
  0
VERTEX
  8
図枠
  5
4C3
 10
67.1896
 20
-65.2482
 30
0.000000
  70
    32
  0
VERTEX
  8
図枠
  5
4C4
 10
67.1950
 20
-65.2539
 30
0.000000
  70
    32
  0
VERTEX
  8
図枠
  5
4C5
 10
67.2004
 20
-65.2597
 30
0.000000
  70
    32
  0
VERTEX
  8
図枠
  5
4C6
 10
67.2058
 20
-65.2654
 30
0.000000
  70
    32
  0
VERTEX
  8
図枠
  5
4C7
 10
67.2111
 20
-65.2711
 30
0.000000
  70
    32
  0
VERTEX
  8
図枠
  5
4C8
 10
67.2165
 20
-65.2768
 30
0.000000
  70
    32
  0
VERTEX
  8
図枠
  5
4C9
 10
67.2219
 20
-65.2825
 30
0.000000
  70
    32
  0
VERTEX
  8
図枠
  5
4CA
 10
67.2273
 20
-65.2882
 30
0.000000
  70
    32
  0
VERTEX
  8
図枠
  5
4CB
 10
67.2327
 20
-65.2939
 30
0.000000
  70
    32
  0
VERTEX
  8
図枠
  5
4CC
 10
67.2381
 20
-65.2996
 30
0.000000
  70
    32
  0
VERTEX
  8
図枠
  5
4CD
 10
67.2435
 20
-65.3053
 30
0.000000
  70
    32
  0
VERTEX
  8
図枠
  5
4CE
 10
67.2489
 20
-65.3110
 30
0.000000
  70
    32
  0
VERTEX
  8
図枠
  5
4CF
 10
67.2543
 20
-65.3167
 30
0.000000
  70
    32
  0
VERTEX
  8
図枠
  5
4D0
 10
67.2597
 20
-65.3223
 30
0.000000
  70
    32
  0
VERTEX
  8
図枠
  5
4D1
 10
67.2652
 20
-65.3280
 30
0.000000
  70
    32
  0
VERTEX
  8
図枠
  5
4D2
 10
67.2706
 20
-65.3337
 30
0.000000
  70
    32
  0
VERTEX
  8
図枠
  5
4D3
 10
67.2760
 20
-65.3393
 30
0.000000
  70
    32
  0
VERTEX
  8
図枠
  5
4D4
 10
67.2814
 20
-65.3449
 30
0.000000
  70
    32
  0
VERTEX
  8
図枠
  5
4D5
 10
67.2869
 20
-65.3506
 30
0.000000
  70
    32
  0
VERTEX
  8
図枠
  5
4D6
 10
67.2923
 20
-65.3562
 30
0.000000
  70
    32
  0
VERTEX
  8
図枠
  5
4D7
 10
67.2978
 20
-65.3618
 30
0.000000
  70
    32
  0
VERTEX
  8
図枠
  5
4D8
 10
67.3032
 20
-65.3675
 30
0.000000
  70
    32
  0
VERTEX
  8
図枠
  5
4D9
 10
67.3087
 20
-65.3731
 30
0.000000
  70
    32
  0
VERTEX
  8
図枠
  5
4DA
 10
67.3141
 20
-65.3787
 30
0.000000
  70
    32
  0
VERTEX
  8
図枠
  5
4DB
 10
67.3196
 20
-65.3843
 30
0.000000
  70
    32
  0
VERTEX
  8
図枠
  5
4DC
 10
67.3250
 20
-65.3898
 30
0.000000
  70
    32
  0
VERTEX
  8
図枠
  5
4DD
 10
67.3305
 20
-65.3954
 30
0.000000
  70
    32
  0
VERTEX
  8
図枠
  5
4DE
 10
67.3360
 20
-65.4010
 30
0.000000
  70
    32
  0
VERTEX
  8
図枠
  5
4DF
 10
67.3415
 20
-65.4066
 30
0.000000
  70
    32
  0
VERTEX
  8
図枠
  5
4E0
 10
67.3469
 20
-65.4121
 30
0.000000
  70
    32
  0
VERTEX
  8
図枠
  5
4E1
 10
67.3524
 20
-65.4177
 30
0.000000
  70
    32
  0
VERTEX
  8
図枠
  5
4E2
 10
67.3579
 20
-65.4232
 30
0.000000
  70
    32
  0
VERTEX
  8
図枠
  5
4E3
 10
67.3634
 20
-65.4287
 30
0.000000
  70
    32
  0
VERTEX
  8
図枠
  5
4E4
 10
67.3689
 20
-65.4343
 30
0.000000
  70
    32
  0
VERTEX
  8
図枠
  5
4E5
 10
67.3744
 20
-65.4398
 30
0.000000
  70
    32
  0
VERTEX
  8
図枠
  5
4E6
 10
67.3799
 20
-65.4453
 30
0.000000
  70
    32
  0
VERTEX
  8
図枠
  5
4E7
 10
67.3855
 20
-65.4508
 30
0.000000
  70
    32
  0
VERTEX
  8
図枠
  5
4E8
 10
67.3910
 20
-65.4563
 30
0.000000
  70
    32
  0
VERTEX
  8
図枠
  5
4E9
 10
67.3965
 20
-65.4618
 30
0.000000
  70
    32
  0
VERTEX
  8
図枠
  5
4EA
 10
67.4020
 20
-65.4673
 30
0.000000
  70
    32
  0
VERTEX
  8
図枠
  5
4EB
 10
67.4076
 20
-65.4727
 30
0.000000
  70
    32
  0
VERTEX
  8
図枠
  5
4EC
 10
67.4131
 20
-65.4782
 30
0.000000
  70
    32
  0
VERTEX
  8
図枠
  5
4ED
 10
67.4187
 20
-65.4836
 30
0.000000
  70
    32
  0
VERTEX
  8
図枠
  5
4EE
 10
67.4242
 20
-65.4891
 30
0.000000
  70
    32
  0
VERTEX
  8
図枠
  5
4EF
 10
67.4298
 20
-65.4945
 30
0.000000
  70
    32
  0
VERTEX
  8
図枠
  5
4F0
 10
67.4354
 20
-65.4999
 30
0.000000
  70
    32
  0
VERTEX
  8
図枠
  5
4F1
 10
67.4409
 20
-65.5054
 30
0.000000
  70
    32
  0
VERTEX
  8
図枠
  5
4F2
 10
67.4465
 20
-65.5108
 30
0.000000
  70
    32
  0
VERTEX
  8
図枠
  5
4F3
 10
67.4521
 20
-65.5162
 30
0.000000
  70
    32
  0
VERTEX
  8
図枠
  5
4F4
 10
67.4577
 20
-65.5215
 30
0.000000
  70
    32
  0
VERTEX
  8
図枠
  5
4F5
 10
67.4633
 20
-65.5269
 30
0.000000
  70
    32
  0
VERTEX
  8
図枠
  5
4F6
 10
67.4689
 20
-65.5323
 30
0.000000
  70
    32
  0
VERTEX
  8
図枠
  5
4F7
 10
67.4745
 20
-65.5377
 30
0.000000
  70
    32
  0
VERTEX
  8
図枠
  5
4F8
 10
67.4801
 20
-65.5430
 30
0.000000
  70
    32
  0
VERTEX
  8
図枠
  5
4F9
 10
67.4857
 20
-65.5483
 30
0.000000
  70
    32
  0
VERTEX
  8
図枠
  5
4FA
 10
67.4913
 20
-65.5537
 30
0.000000
  70
    32
  0
VERTEX
  8
図枠
  5
4FB
 10
67.4970
 20
-65.5590
 30
0.000000
  70
    32
  0
VERTEX
  8
図枠
  5
4FC
 10
67.5026
 20
-65.5643
 30
0.000000
  70
    32
  0
VERTEX
  8
図枠
  5
4FD
 10
67.5082
 20
-65.5696
 30
0.000000
  70
    32
  0
VERTEX
  8
図枠
  5
4FE
 10
67.5139
 20
-65.5749
 30
0.000000
  70
    32
  0
VERTEX
  8
図枠
  5
4FF
 10
67.5195
 20
-65.5802
 30
0.000000
  70
    32
  0
VERTEX
  8
図枠
  5
500
 10
67.5252
 20
-65.5854
 30
0.000000
  70
    32
  0
VERTEX
  8
図枠
  5
501
 10
67.5309
 20
-65.5907
 30
0.000000
  70
    32
  0
VERTEX
  8
図枠
  5
502
 10
67.5365
 20
-65.5959
 30
0.000000
  70
    32
  0
VERTEX
  8
図枠
  5
503
 10
67.5422
 20
-65.6012
 30
0.000000
  70
    32
  0
VERTEX
  8
図枠
  5
504
 10
67.5479
 20
-65.6064
 30
0.000000
  70
    32
  0
VERTEX
  8
図枠
  5
505
 10
67.5536
 20
-65.6116
 30
0.000000
  70
    32
  0
VERTEX
  8
図枠
  5
506
 10
67.5593
 20
-65.6168
 30
0.000000
  70
    32
  0
VERTEX
  8
図枠
  5
507
 10
67.5650
 20
-65.6220
 30
0.000000
  70
    32
  0
VERTEX
  8
図枠
  5
508
 10
67.5707
 20
-65.6272
 30
0.000000
  70
    32
  0
SEQEND
  8
図枠
  5
509
  0
LINE
  5
F2
  8
図枠
 10
64.134507277299988
 20
-64.039522105800003
 30
0.0
 11
68.134107277299989
 21
-64.039522105800003
 31
0.0
  0
INSERT
  5
F3
  8
0
  6
CONTINUOUS
  2
*U48
 10
0.0
 20
0.0
 30
0.0
  0
LINE
  5
F4
  8
図枠
 10
54.286124316400013
 20
-64.199506105799983
 30
0.0
 11
54.286124316400013
 21
-65.399386105800005
 31
0.0
  0
LINE
  5
F5
  8
図枠
 10
55.206915277299998
 20
-64.199506105799983
 30
0.0
 11
54.286124316400013
 21
-64.199506105799983
 31
0.0
  0
INSERT
  5
F6
  8
0
  6
CONTINUOUS
  2
*U49
 10
0.0
 20
0.0
 30
0.0
  0
LINE
  5
F7
  8
図枠
 10
70.53386727729999
 20
-63.799546105799998
 30
0.0
 11
71.33378727729999
 21
-62.599666105799997
 31
0.0
  0
LINE
  5
F8
  8
ﾚｲﾔ_1
 62
     5
 10
-58.253535353499998
 20
83.446684343399994
 30
0.0
 11
-58.253535353499998
 21
51.446684343400001
 31
0.0
  0
LINE
  5
F9
  8
ﾚｲﾔ_1
 62
     5
 10
-58.253535353499998
 20
11.207510101
 30
0.0
 11
-60.853535353500007
 21
11.207510101
 31
0.0
  0
LINE
  5
FA
  8
ﾚｲﾔ_1
 62
     5
 10
-60.853535353500007
 20
83.446684343399994
 30
0.0
 11
-60.853535353500007
 21
51.446684343400001
 31
0.0
  0
DIMENSION
  5
109
  8
寸法線
  2
*D2
 10
-60.853535353500007
 20
41.446684343400001
 30
0.0
 11
-50.853535353500007
 21
41.446684343400001
 31
0.0
 70
   128
  1
<>
 13
-60.853535353500007
 23
51.446684343400001
 33
0.0
 14
-40.8535353535
 24
62.446684343400001
 34
0.0
 50
180.0
  0
DIMENSION
  5
118
  8
寸法線
  2
*D3
 10
-40.8535353535
 20
41.446684343400001
 30
0.0
 11
-35.8535353535
 21
41.446684343400001
 31
0.0
 70
   128
  1
<>
 13
-40.8535353535
 23
62.446684343400001
 33
0.0
 14
-30.8535353535
 24
51.446684343400001
 34
0.0
 50
180.0
  0
DIMENSION
  5
127
  8
寸法線
  2
*D4
 10
-20.8535353535
 20
51.446684343400001
 30
0.0
 11
-20.8535353535
 21
59.446684343400001
 31
0.0
 70
   128
  1
<>
 13
-30.8535353535
 23
51.446684343400001
 33
0.0
 14
-35.8535353535
 24
67.446684343400008
 34
0.0
 50
90.0
  0
DIMENSION
  5
136
  8
寸法線
  2
*D5
 10
-20.8535353535
 20
67.446684343400008
 30
0.0
 11
-20.8535353535
 21
75.446684343400008
 31
0.0
 70
   128
  1
<>
 13
-35.8535353535
 23
67.446684343400008
 33
0.0
 14
-30.8535353535
 24
83.446684343399994
 34
0.0
 50
90.0
  0
DIMENSION
  5
145
  8
寸法線
  2
*D6
 10
-70.853535353500007
 20
83.446684343399994
 30
0.0
 11
-70.853535353500007
 21
67.446684343400008
 31
0.0
 70
   128
  1
<>
 13
-60.853535353500007
 23
83.446684343399994
 33
0.0
 14
-60.853535353500007
 24
51.446684343400001
 34
0.0
 50
90.0
  0
DIMENSION
  5
14E
  8
寸法線
  2
*D7
 10
-33.8535353535
 20
80.446684343400008
 30
0.0
 11
-17.326202474900001
 21
96.038388331100009
 31
0.0
 70
   132
  1
4-R <>
 15
-31.732215010000001
 25
82.568004686999984
 35
0.0
 40
0.0
  0
INSERT
  5
14F
  8
0
  6
CONTINUOUS
  2
*U50
 10
0.0
 20
0.0
 30
0.0
  0
LINE
  5
150
  8
図枠
 10
56.0096336314
 20
-56.978366665499998
 30
0.0
 11
82.007033631400006
 21
-56.978366665499998
 31
0.0
  0
LINE
  5
151
  8
図枠
 10
24.012833631399999
 20
-27.731291665499999
 30
0.0
 11
140.0012336314
 21
-27.731291665499999
 31
0.0
  0
INSERT
  5
152
  8
0
  6
CONTINUOUS
  2
*U51
 10
0.0
 20
0.0
 30
0.0
  0
POLYLINE
  8
図枠
  5
50A
  66
     1
 10
0.000000
 20
0.000000
 30
0.000000
  70
     8
  0
VERTEX
  8
図枠
  5
50B
 10
68.5011
 20
-67.5082
 30
0.000000
  70
    32
  0
VERTEX
  8
図枠
  5
50C
 10
68.5226
 20
-67.5151
 30
0.000000
  70
    32
  0
VERTEX
  8
図枠
  5
50D
 10
68.5442
 20
-67.5219
 30
0.000000
  70
    32
  0
VERTEX
  8
図枠
  5
50E
 10
68.5658
 20
-67.5287
 30
0.000000
  70
    32
  0
VERTEX
  8
図枠
  5
50F
 10
68.5873
 20
-67.5355
 30
0.000000
  70
    32
  0
VERTEX
  8
図枠
  5
510
 10
68.6089
 20
-67.5422
 30
0.000000
  70
    32
  0
VERTEX
  8
図枠
  5
511
 10
68.6306
 20
-67.5489
 30
0.000000
  70
    32
  0
VERTEX
  8
図枠
  5
512
 10
68.6522
 20
-67.5556
 30
0.000000
  70
    32
  0
VERTEX
  8
図枠
  5
513
 10
68.6739
 20
-67.5622
 30
0.000000
  70
    32
  0
VERTEX
  8
図枠
  5
514
 10
68.6955
 20
-67.5688
 30
0.000000
  70
    32
  0
VERTEX
  8
図枠
  5
515
 10
68.7172
 20
-67.5754
 30
0.000000
  70
    32
  0
VERTEX
  8
図枠
  5
516
 10
68.7389
 20
-67.5820
 30
0.000000
  70
    32
  0
VERTEX
  8
図枠
  5
517
 10
68.7607
 20
-67.5885
 30
0.000000
  70
    32
  0
VERTEX
  8
図枠
  5
518
 10
68.7824
 20
-67.5949
 30
0.000000
  70
    32
  0
VERTEX
  8
図枠
  5
519
 10
68.8042
 20
-67.6014
 30
0.000000
  70
    32
  0
VERTEX
  8
図枠
  5
51A
 10
68.8260
 20
-67.6078
 30
0.000000
  70
    32
  0
VERTEX
  8
図枠
  5
51B
 10
68.8477
 20
-67.6142
 30
0.000000
  70
    32
  0
VERTEX
  8
図枠
  5
51C
 10
68.8696
 20
-67.6206
 30
0.000000
  70
    32
  0
VERTEX
  8
図枠
  5
51D
 10
68.8914
 20
-67.6269
 30
0.000000
  70
    32
  0
VERTEX
  8
図枠
  5
51E
 10
68.9132
 20
-67.6332
 30
0.000000
  70
    32
  0
VERTEX
  8
図枠
  5
51F
 10
68.9351
 20
-67.6394
 30
0.000000
  70
    32
  0
VERTEX
  8
図枠
  5
520
 10
68.9569
 20
-67.6457
 30
0.000000
  70
    32
  0
VERTEX
  8
図枠
  5
521
 10
68.9788
 20
-67.6519
 30
0.000000
  70
    32
  0
VERTEX
  8
図枠
  5
522
 10
69.0007
 20
-67.6581
 30
0.000000
  70
    32
  0
VERTEX
  8
図枠
  5
523
 10
69.0227
 20
-67.6642
 30
0.000000
  70
    32
  0
VERTEX
  8
図枠
  5
524
 10
69.0446
 20
-67.6704
 30
0.000000
  70
    32
  0
VERTEX
  8
図枠
  5
525
 10
69.0665
 20
-67.6765
 30
0.000000
  70
    32
  0
VERTEX
  8
図枠
  5
526
 10
69.0885
 20
-67.6825
 30
0.000000
  70
    32
  0
VERTEX
  8
図枠
  5
527
 10
69.1105
 20
-67.6886
 30
0.000000
  70
    32
  0
VERTEX
  8
図枠
  5
528
 10
69.1325
 20
-67.6946
 30
0.000000
  70
    32
  0
VERTEX
  8
図枠
  5
529
 10
69.1545
 20
-67.7006
 30
0.000000
  70
    32
  0
VERTEX
  8
図枠
  5
52A
 10
69.1765
 20
-67.7066
 30
0.000000
  70
    32
  0
VERTEX
  8
図枠
  5
52B
 10
69.1985
 20
-67.7125
 30
0.000000
  70
    32
  0
VERTEX
  8
図枠
  5
52C
 10
69.2206
 20
-67.7184
 30
0.000000
  70
    32
  0
VERTEX
  8
図枠
  5
52D
 10
69.2426
 20
-67.7243
 30
0.000000
  70
    32
  0
VERTEX
  8
図枠
  5
52E
 10
69.2647
 20
-67.7302
 30
0.000000
  70
    32
  0
VERTEX
  8
図枠
  5
52F
 10
69.2868
 20
-67.7360
 30
0.000000
  70
    32
  0
VERTEX
  8
図枠
  5
530
 10
69.3089
 20
-67.7419
 30
0.000000
  70
    32
  0
VERTEX
  8
図枠
  5
531
 10
69.3310
 20
-67.7476
 30
0.000000
  70
    32
  0
VERTEX
  8
図枠
  5
532
 10
69.3531
 20
-67.7534
 30
0.000000
  70
    32
  0
VERTEX
  8
図枠
  5
533
 10
69.3753
 20
-67.7592
 30
0.000000
  70
    32
  0
VERTEX
  8
図枠
  5
534
 10
69.3974
 20
-67.7649
 30
0.000000
  70
    32
  0
VERTEX
  8
図枠
  5
535
 10
69.4196
 20
-67.7706
 30
0.000000
  70
    32
  0
VERTEX
  8
図枠
  5
536
 10
69.4418
 20
-67.7763
 30
0.000000
  70
    32
  0
VERTEX
  8
図枠
  5
537
 10
69.4639
 20
-67.7819
 30
0.000000
  70
    32
  0
VERTEX
  8
図枠
  5
538
 10
69.4861
 20
-67.7875
 30
0.000000
  70
    32
  0
VERTEX
  8
図枠
  5
539
 10
69.5084
 20
-67.7932
 30
0.000000
  70
    32
  0
VERTEX
  8
図枠
  5
53A
 10
69.5306
 20
-67.7987
 30
0.000000
  70
    32
  0
VERTEX
  8
図枠
  5
53B
 10
69.5528
 20
-67.8043
 30
0.000000
  70
    32
  0
VERTEX
  8
図枠
  5
53C
 10
69.5751
 20
-67.8099
 30
0.000000
  70
    32
  0
VERTEX
  8
図枠
  5
53D
 10
69.5973
 20
-67.8154
 30
0.000000
  70
    32
  0
VERTEX
  8
図枠
  5
53E
 10
69.6196
 20
-67.8209
 30
0.000000
  70
    32
  0
VERTEX
  8
図枠
  5
53F
 10
69.6419
 20
-67.8264
 30
0.000000
  70
    32
  0
VERTEX
  8
図枠
  5
540
 10
69.6642
 20
-67.8318
 30
0.000000
  70
    32
  0
VERTEX
  8
図枠
  5
541
 10
69.6865
 20
-67.8373
 30
0.000000
  70
    32
  0
VERTEX
  8
図枠
  5
542
 10
69.7088
 20
-67.8427
 30
0.000000
  70
    32
  0
VERTEX
  8
図枠
  5
543
 10
69.7311
 20
-67.8481
 30
0.000000
  70
    32
  0
VERTEX
  8
図枠
  5
544
 10
69.7534
 20
-67.8535
 30
0.000000
  70
    32
  0
VERTEX
  8
図枠
  5
545
 10
69.7758
 20
-67.8589
 30
0.000000
  70
    32
  0
VERTEX
  8
図枠
  5
546
 10
69.7981
 20
-67.8642
 30
0.000000
  70
    32
  0
VERTEX
  8
図枠
  5
547
 10
69.8205
 20
-67.8695
 30
0.000000
  70
    32
  0
VERTEX
  8
図枠
  5
548
 10
69.8429
 20
-67.8748
 30
0.000000
  70
    32
  0
VERTEX
  8
図枠
  5
549
 10
69.8653
 20
-67.8801
 30
0.000000
  70
    32
  0
VERTEX
  8
図枠
  5
54A
 10
69.8877
 20
-67.8854
 30
0.000000
  70
    32
  0
VERTEX
  8
図枠
  5
54B
 10
69.9101
 20
-67.8907
 30
0.000000
  70
    32
  0
VERTEX
  8
図枠
  5
54C
 10
69.9325
 20
-67.8959
 30
0.000000
  70
    32
  0
VERTEX
  8
図枠
  5
54D
 10
69.9549
 20
-67.9011
 30
0.000000
  70
    32
  0
VERTEX
  8
図枠
  5
54E
 10
69.9773
 20
-67.9064
 30
0.000000
  70
    32
  0
VERTEX
  8
図枠
  5
54F
 10
69.9998
 20
-67.9115
 30
0.000000
  70
    32
  0
VERTEX
  8
図枠
  5
550
 10
70.0222
 20
-67.9167
 30
0.000000
  70
    32
  0
VERTEX
  8
図枠
  5
551
 10
70.0447
 20
-67.9219
 30
0.000000
  70
    32
  0
VERTEX
  8
図枠
  5
552
 10
70.0671
 20
-67.9270
 30
0.000000
  70
    32
  0
VERTEX
  8
図枠
  5
553
 10
70.0896
 20
-67.9322
 30
0.000000
  70
    32
  0
VERTEX
  8
図枠
  5
554
 10
70.1121
 20
-67.9373
 30
0.000000
  70
    32
  0
VERTEX
  8
図枠
  5
555
 10
70.1346
 20
-67.9424
 30
0.000000
  70
    32
  0
VERTEX
  8
図枠
  5
556
 10
70.1571
 20
-67.9475
 30
0.000000
  70
    32
  0
VERTEX
  8
図枠
  5
557
 10
70.1796
 20
-67.9525
 30
0.000000
  70
    32
  0
VERTEX
  8
図枠
  5
558
 10
70.2021
 20
-67.9576
 30
0.000000
  70
    32
  0
VERTEX
  8
図枠
  5
559
 10
70.2246
 20
-67.9627
 30
0.000000
  70
    32
  0
VERTEX
  8
図枠
  5
55A
 10
70.2471
 20
-67.9677
 30
0.000000
  70
    32
  0
VERTEX
  8
図枠
  5
55B
 10
70.2696
 20
-67.9727
 30
0.000000
  70
    32
  0
VERTEX
  8
図枠
  5
55C
 10
70.2922
 20
-67.9777
 30
0.000000
  70
    32
  0
VERTEX
  8
図枠
  5
55D
 10
70.3147
 20
-67.9827
 30
0.000000
  70
    32
  0
VERTEX
  8
図枠
  5
55E
 10
70.3373
 20
-67.9877
 30
0.000000
  70
    32
  0
VERTEX
  8
図枠
  5
55F
 10
70.3598
 20
-67.9927
 30
0.000000
  70
    32
  0
VERTEX
  8
図枠
  5
560
 10
70.3824
 20
-67.9976
 30
0.000000
  70
    32
  0
VERTEX
  8
図枠
  5
561
 10
70.4050
 20
-68.0026
 30
0.000000
  70
    32
  0
VERTEX
  8
図枠
  5
562
 10
70.4275
 20
-68.0075
 30
0.000000
  70
    32
  0
VERTEX
  8
図枠
  5
563
 10
70.4501
 20
-68.0124
 30
0.000000
  70
    32
  0
VERTEX
  8
図枠
  5
564
 10
70.4727
 20
-68.0174
 30
0.000000
  70
    32
  0
VERTEX
  8
図枠
  5
565
 10
70.4953
 20
-68.0223
 30
0.000000
  70
    32
  0
VERTEX
  8
図枠
  5
566
 10
70.5179
 20
-68.0272
 30
0.000000
  70
    32
  0
VERTEX
  8
図枠
  5
567
 10
70.5405
 20
-68.0321
 30
0.000000
  70
    32
  0
VERTEX
  8
図枠
  5
568
 10
70.5631
 20
-68.0369
 30
0.000000
  70
    32
  0
VERTEX
  8
図枠
  5
569
 10
70.5857
 20
-68.0418
 30
0.000000
  70
    32
  0
VERTEX
  8
図枠
  5
56A
 10
70.6083
 20
-68.0467
 30
0.000000
  70
    32
  0
VERTEX
  8
図枠
  5
56B
 10
70.6310
 20
-68.0515
 30
0.000000
  70
    32
  0
VERTEX
  8
図枠
  5
56C
 10
70.6536
 20
-68.0564
 30
0.000000
  70
    32
  0
VERTEX
  8
図枠
  5
56D
 10
70.6762
 20
-68.0612
 30
0.000000
  70
    32
  0
VERTEX
  8
図枠
  5
56E
 10
70.6989
 20
-68.0660
 30
0.000000
  70
    32
  0
VERTEX
  8
図枠
  5
56F
 10
70.7215
 20
-68.0708
 30
0.000000
  70
    32
  0
VERTEX
  8
図枠
  5
570
 10
70.7441
 20
-68.0756
 30
0.000000
  70
    32
  0
VERTEX
  8
図枠
  5
571
 10
70.7668
 20
-68.0805
 30
0.000000
  70
    32
  0
VERTEX
  8
図枠
  5
572
 10
70.7894
 20
-68.0853
 30
0.000000
  70
    32
  0
VERTEX
  8
図枠
  5
573
 10
70.8121
 20
-68.0900
 30
0.000000
  70
    32
  0
VERTEX
  8
図枠
  5
574
 10
70.8348
 20
-68.0948
 30
0.000000
  70
    32
  0
VERTEX
  8
図枠
  5
575
 10
70.8574
 20
-68.0996
 30
0.000000
  70
    32
  0
VERTEX
  8
図枠
  5
576
 10
70.8801
 20
-68.1044
 30
0.000000
  70
    32
  0
VERTEX
  8
図枠
  5
577
 10
70.9027
 20
-68.1092
 30
0.000000
  70
    32
  0
VERTEX
  8
図枠
  5
578
 10
70.9254
 20
-68.1139
 30
0.000000
  70
    32
  0
VERTEX
  8
図枠
  5
579
 10
70.9481
 20
-68.1187
 30
0.000000
  70
    32
  0
VERTEX
  8
図枠
  5
57A
 10
70.9708
 20
-68.1234
 30
0.000000
  70
    32
  0
VERTEX
  8
図枠
  5
57B
 10
70.9934
 20
-68.1282
 30
0.000000
  70
    32
  0
VERTEX
  8
図枠
  5
57C
 10
71.0161
 20
-68.1329
 30
0.000000
  70
    32
  0
VERTEX
  8
図枠
  5
57D
 10
71.0388
 20
-68.1377
 30
0.000000
  70
    32
  0
VERTEX
  8
図枠
  5
57E
 10
71.0615
 20
-68.1424
 30
0.000000
  70
    32
  0
VERTEX
  8
図枠
  5
57F
 10
71.0842
 20
-68.1471
 30
0.000000
  70
    32
  0
VERTEX
  8
図枠
  5
580
 10
71.1069
 20
-68.1519
 30
0.000000
  70
    32
  0
VERTEX
  8
図枠
  5
581
 10
71.1295
 20
-68.1566
 30
0.000000
  70
    32
  0
VERTEX
  8
図枠
  5
582
 10
71.1522
 20
-68.1613
 30
0.000000
  70
    32
  0
VERTEX
  8
図枠
  5
583
 10
71.1749
 20
-68.1661
 30
0.000000
  70
    32
  0
VERTEX
  8
図枠
  5
584
 10
71.1976
 20
-68.1708
 30
0.000000
  70
    32
  0
VERTEX
  8
図枠
  5
585
 10
71.2203
 20
-68.1755
 30
0.000000
  70
    32
  0
VERTEX
  8
図枠
  5
586
 10
71.2430
 20
-68.1802
 30
0.000000
  70
    32
  0
VERTEX
  8
図枠
  5
587
 10
71.2657
 20
-68.1850
 30
0.000000
  70
    32
  0
VERTEX
  8
図枠
  5
588
 10
71.2884
 20
-68.1897
 30
0.000000
  70
    32
  0
VERTEX
  8
図枠
  5
589
 10
71.3111
 20
-68.1944
 30
0.000000
  70
    32
  0
VERTEX
  8
図枠
  5
58A
 10
71.3338
 20
-68.1991
 30
0.000000
  70
    32
  0
SEQEND
  8
図枠
  5
58B
  0
LINE
  5
154
  8
図枠
 10
71.33378727729999
 20
-62.599666105799997
 30
0.0
 11
64.134507277299988
 21
-62.599666105799997
 31
0.0
  0
LINE
  5
155
  8
図枠
 10
71.33378727729999
 20
-66.999226105800005
 30
0.0
 11
71.33378727729999
 21
-68.199106105799999
 31
0.0
  0
LINE
  5
156
  8
図枠
 10
24.012833631399999
 20
-38.730191665500001
 30
0.0
 11
140.0012336314
 21
-38.730191665500001
 31
0.0
  0
LINE
  5
157
  8
図枠
 10
69.624133741400001
 20
-66.4785831425
 30
0.0
 11
69.481666341800008
 21
-66.618071707600009
 31
0.0
  0
LINE
  5
158
  8
図枠
  6
BORDER
 10
66.616572831400006
 20
-48.479216665499997
 30
0.0
 11
81.399094431400002
 21
-48.479216665499997
 31
0.0
  0
CIRCLE
  5
159
  8
図枠
 10
70.072227231400007
 20
-48.479216665499997
 30
0.0
 40
2.303769599999999
  0
LINE
  5
15A
  8
図枠
 10
24.012833631399999
 20
-61.227941665500012
 30
0.0
 11
140.0012336314
 21
-61.227941665500012
 31
0.0
  0
INSERT
  5
15B
  8
0
  6
CONTINUOUS
  2
*U52
 10
0.0
 20
0.0
 30
0.0
  0
INSERT
  5
15C
  8
0
  6
CONTINUOUS
  2
*U53
 10
0.0
 20
0.0
 30
0.0
  0
LINE
  5
15D
  8
図枠
 10
55.206915277299998
 20
-66.999226105800005
 30
0.0
 11
55.206915277299998
 21
-68.199106105799999
 31
0.0
  0
INSERT
  5
15E
  8
0
  6
CONTINUOUS
  2
*U54
 10
0.0
 20
0.0
 30
0.0
  0
LINE
  5
15F
  8
ﾚｲﾔ_1
  6
STITCH
 10
-38.753535353499998
 20
-2.8424898989999989
 30
0.0
 11
-42.953535353500001
 21
-2.8424898989999989
 31
0.0
  0
LINE
  5
160
  8
ﾚｲﾔ_1
  6
STITCH
 10
-38.753535353499998
 20
-3.7924898989999991
 30
0.0
 11
-38.753535353499998
 21
-2.8424898989999989
 31
0.0
  0
LINE
  5
161
  8
ﾚｲﾔ_1
  6
STITCH
 10
-42.953535353500001
 20
-3.7924898989999991
 30
0.0
 11
-42.953535353500001
 21
-2.8424898989999989
 31
0.0
  0
DIMENSION
  5
171
  8
寸法線
  2
*D8
 10
-42.953535353500001
 20
-8.0669204528999998
 30
0.0
 11
-40.8535353535
 21
-8.0669204528999998
 31
0.0
 70
   128
  1
%%c4
 13
-42.953535353500001
 23
-3.7924898989999991
 33
0.0
 14
-38.753535353499998
 24
-3.7924898989999991
 34
0.0
 50
180.0
  0
LINE
  5
172
  8
ﾚｲﾔ_1
  6
STITCH
 10
-60.853535353500007
 20
9.9575101010000004
 30
0.0
 11
-59.203535353500001
 21
8.3075101010000001
 31
0.0
  0
LINE
  5
173
  8
ﾚｲﾔ_1
  6
STITCH
 10
-59.203535353500001
 20
8.3075101010000001
 30
0.0
 11
-59.203535353500001
 21
4.107510100999999
 31
0.0
  0
LINE
  5
174
  8
ﾚｲﾔ_1
  6
STITCH
 10
-59.203535353500001
 20
4.107510100999999
 30
0.0
 11
-60.853535353500007
 21
2.457510101
 31
0.0
  0
LINE
  5
175
  8
ﾚｲﾔ_1
  6
STITCH
 10
-58.253535353499998
 20
8.3075101010000001
 30
0.0
 11
-59.203535353500001
 21
8.3075101010000001
 31
0.0
  0
LINE
  5
176
  8
ﾚｲﾔ_1
  6
STITCH
 10
-58.253535353499998
 20
4.107510100999999
 30
0.0
 11
-59.203535353500001
 21
4.107510100999999
 31
0.0
  0
LINE
  5
177
  8
ﾚｲﾔ_1
  6
BORDER
 62
     3
 10
-55.828533826200001
 20
6.2075101009999996
 30
0.0
 11
-63.157207661299999
 21
6.2075101009999996
 31
0.0
  0
LINE
  5
178
  8
ﾚｲﾔ_1
 62
     5
 10
-33.8535353535
 20
83.446684343399994
 30
0.0
 11
-60.853535353500007
 21
83.446684343399994
 31
0.0
  0
ARC
  5
179
  8
ﾚｲﾔ_1
 62
     5
 10
-33.8535353535
 20
80.446684343400008
 30
0.0
 40
3.0
 50
0.0
 51
90.0
  0
LINE
  5
17A
  8
ﾚｲﾔ_1
 62
     5
 10
-30.8535353535
 20
54.446684343400001
 30
0.0
 11
-30.8535353535
 21
80.446684343400008
 31
0.0
  0
LINE
  5
17B
  8
ﾚｲﾔ_1
 62
     5
 10
-60.853535353500007
 20
51.446684343400001
 30
0.0
 11
-33.8535353535
 21
51.446684343400001
 31
0.0
  0
ARC
  5
17C
  8
ﾚｲﾔ_1
 62
     5
 10
-33.8535353535
 20
54.446684343400001
 30
0.0
 40
3.0
 50
270.0
 51
0.0
  0
LINE
  5
17D
  8
ﾚｲﾔ_1
  6
BORDER
 62
     3
 10
-55.828533826200001
 20
67.446684343400008
 30
0.0
 11
-63.157207661299999
 21
67.446684343400008
 31
0.0
  0
LINE
  5
17E
  8
ﾚｲﾔ_1
  6
STITCH
 10
-58.253535353499998
 20
65.3466843434
 30
0.0
 11
-59.203535353500001
 21
65.3466843434
 31
0.0
  0
LINE
  5
17F
  8
ﾚｲﾔ_1
  6
STITCH
 10
-58.253535353499998
 20
69.546684343400003
 30
0.0
 11
-59.203535353500001
 21
69.546684343400003
 31
0.0
  0
LINE
  5
180
  8
ﾚｲﾔ_1
  6
STITCH
 10
-59.203535353500001
 20
65.3466843434
 30
0.0
 11
-60.853535353500007
 21
63.696684343400001
 31
0.0
  0
LINE
  5
181
  8
ﾚｲﾔ_1
  6
STITCH
 10
-59.203535353500001
 20
69.546684343400003
 30
0.0
 11
-59.203535353500001
 21
65.3466843434
 31
0.0
  0
LINE
  5
182
  8
ﾚｲﾔ_1
  6
STITCH
 10
-60.853535353500007
 20
71.196684343400008
 30
0.0
 11
-59.203535353500001
 21
69.546684343400003
 31
0.0
  0
CIRCLE
  5
183
  8
ﾚｲﾔ_1
 62
     5
 10
-40.8535353535
 20
67.446684343400008
 30
0.0
 40
2.1000000000000001
  0
CIRCLE
  5
184
  8
ﾚｲﾔ_1
 62
     5
 10
-40.8535353535
 20
67.446684343400008
 30
0.0
 40
3.75
  0
LINE
  5
185
  8
ﾚｲﾔ_1
  6
BORDER
 62
     3
 10
-40.8535353535
 20
72.446684343400008
 30
0.0
 11
-40.8535353535
 21
62.446684343400001
 31
0.0
  0
LINE
  5
186
  8
ﾚｲﾔ_1
  6
BORDER
 62
     3
 10
-45.853535353500007
 20
67.446684343400008
 30
0.0
 11
-35.8535353535
 21
67.446684343400008
 31
0.0
  0
INSERT
  5
187
  8
0
  6
CONTINUOUS
  2
*U55
 10
0.0
 20
0.0
 30
0.0
  0
LINE
  5
188
  8
図枠
 62
     5
 10
-134.9712663686
 20
-69.727091665499998
 30
0.0
 11
140.0012336314
 21
-69.727091665499998
 31
0.0
  0
LINE
  5
189
  8
図枠
  6
DOT
 10
-140.97066636860001
 20
-75.4765166655
 30
0.0
 11
146.00063363140001
 21
-75.4765166655
 31
0.0
  0
LINE
  5
18A
  8
図枠
 62
     5
 10
-134.9712663686
 20
120.2539083345
 30
0.0
 11
140.0012336314
 21
120.2539083345
 31
0.0
  0
LINE
  5
18B
  8
図枠
  6
DOT
 10
-140.97066636860001
 20
126.0033333345
 30
0.0
 11
146.00063363140001
 21
126.0033333345
 31
0.0
  0
LINE
  5
18C
  8
ﾚｲﾔ_1
 62
     5
 10
-58.253535353499998
 20
11.207510101
 30
0.0
 11
-58.253535353499998
 21
0.207510101
 31
0.0
  0
LINE
  5
18D
  8
ﾚｲﾔ_1
 62
     5
 10
-60.853535353500007
 20
11.207510101
 30
0.0
 11
-60.853535353500007
 21
0.207510101
 31
0.0
  0
LINE
  5
18E
  8
ﾚｲﾔ_1
  6
STITCH
 10
-37.1035353535
 20
-1.1924898989999999
 30
0.0
 11
-38.753535353499998
 21
-2.8424898989999989
 31
0.0
  0
LINE
  5
18F
  8
ﾚｲﾔ_1
  6
STITCH
 10
-42.953535353500001
 20
-2.8424898989999989
 30
0.0
 11
-44.603535353500007
 21
-1.1924898989999999
 31
0.0
  0
LINE
  5
190
  8
ﾚｲﾔ_1
  6
BORDER
 62
     3
 10
-40.8535353535
 20
-6.2174914263999987
 30
0.0
 11
-40.8535353535
 21
1.1111824087999991
 31
0.0
  0
ARC
  5
191
  8
ﾚｲﾔ_1
 62
     5
 10
-56.8535353535
 20
0.207510101
 30
0.0
 40
1.399999999999999
 50
180.0
 51
270.0
  0
LINE
  5
192
  8
ﾚｲﾔ_1
 62
     5
 10
-56.8535353535
 20
-1.1924898989999999
 30
0.0
 11
-30.8535353535
 21
-1.1924898989999999
 31
0.0
  0
ARC
  5
193
  8
ﾚｲﾔ_1
 62
     5
 10
-56.8535353535
 20
0.207510101
 30
0.0
 40
4.0
 50
180.0
 51
270.0
  0
LINE
  5
194
  8
ﾚｲﾔ_1
 62
     5
 10
-30.8535353535
 20
-3.7924898989999991
 30
0.0
 11
-30.8535353535
 21
-1.1924898989999999
 31
0.0
  0
DIMENSION
  5
1A3
  8
寸法線
  2
*D9
 10
-20.8535353535
 20
-3.7924898989999991
 30
0.0
 11
-20.8535353535
 21
7.7971402448999996
 31
0.0
 70
   128
  1
<>t
 13
-30.8535353535
 23
-3.7924898989999991
 33
0.0
 14
-30.8535353535
 24
-1.1924898989999999
 34
0.0
 50
90.0
  0
DIMENSION
  5
1B2
  8
寸法線
  2
*D10
 10
-70.853535353500007
 20
11.207510101
 30
0.0
 11
-70.853535353500007
 21
3.707510101
 31
0.0
 70
   128
  1
<>
 13
-60.853535353500007
 23
11.207510101
 33
0.0
 14
-56.8535353535
 24
-3.7924898989999991
 34
0.0
 50
90.0
  0
DIMENSION
  5
1C1
  8
寸法線
  2
*D11
 10
-60.853535353500007
 20
-17.3836186869
 30
0.0
 11
-45.853535353500007
 21
-17.3836186869
 31
0.0
 70
   128
  1
<>
 13
-60.853535353500007
 23
0.207510101
 33
0.0
 14
-30.8535353535
 24
-3.7924898989999991
 34
0.0
 50
180.0
  0
DIMENSION
  5
1CE
  8
寸法線
  2
*D56
 10
-53.296593473335918
 20
7.3931852876102013
 30
0.0
 11
-50.87900367229998
 21
5.4333212737000016
 31
0.0
 70
   133
  1
<>
 13
-58.253535353499998
 23
11.207510101
 33
0.0
 14
-30.8535353535
 24
-1.1924898989999999
 34
0.0
 15
-58.253535353499998
 25
-1.1924898989999999
 35
0.0
1001
ACAD
1000
DSTYLE
1002
{
1070
   271
1070
     0
1002
}
  0
DIMENSION
  5
1DC
  8
寸法線
  2
*D57
 10
-38.18970338501925
 20
4.999066350196359
 30
0.0
 11
-40.8535353535
 21
5.3497664819999988
 31
0.0
 70
   133
  1
<>
 13
-45.133865439399997
 23
-0.6621598131000001
 33
0.0
 14
-36.573205267600002
 24
-0.6621598131000001
 34
0.0
 15
-40.8535353535
 25
-4.942489898999999
 35
0.0
1001
ACAD
1000
DSTYLE
1002
{
1070
   271
1070
     0
1002
}
  0
DIMENSION
  5
1EB
  8
寸法線
  2
*D14
 10
-37.1035353535
 20
2.140843354899999
 30
0.0
 11
-40.8535353535
 21
2.140843354899999
 31
0.0
 70
   128
  1
%%c8
 13
-37.1035353535
 23
-1.1924898989999999
 33
0.0
 14
-44.603535353500007
 24
-1.1924898989999999
 34
0.0
  0
LINE
  5
1EC
  8
図枠
  6
DOT
 10
-140.9676666686
 20
-75.4765166655
 30
0.0
 11
-140.9676666686
 21
126.0033333345
 31
0.0
  0
LINE
  5
1ED
  8
図枠
 62
     5
 10
-134.9712663686
 20
-69.727091665499998
 30
0.0
 11
-134.9712663686
 21
120.2539083345
 31
0.0
  0
LINE
  5
1EE
  8
図枠
  6
DOT
 10
146.00063363140001
 20
-75.4765166655
 30
0.0
 11
146.00063363140001
 21
126.0033333345
 31
0.0
  0
LINE
  5
1EF
  8
図枠
 62
     5
 10
140.0012336314
 20
-69.727091665499998
 30
0.0
 11
140.0012336314
 21
120.2539083345
 31
0.0
  0
LINE
  5
1F0
  8
ﾚｲﾔ_1
 62
     5
 10
-56.8535353535
 20
-3.7924898989999991
 30
0.0
 11
-30.8535353535
 21
-3.7924898989999991
 31
0.0
  0
LINE
  5
231
  8
ﾚｲﾔ_1
  6
STITCH
 10
35.163789526422192
 20
4.2648544961890691
 30
0.0
 11
31.963789526422151
 21
1.0648544961890669
 31
0.0
  0
LINE
  5
232
  8
ﾚｲﾔ_1
 62
     5
 10
0.3957507932664157
 20
4.2648544961890726
 30
0.0
 11
52.69318266681762
 21
4.2648544961890726
 31
0.0
  0
LINE
  5
233
  8
ﾚｲﾔ_1
 62
     5
 10
0.3957507932664157
 20
-2.135145503810925
 30
0.0
 11
52.69318266681762
 21
-2.1351455038109211
 31
0.0
  0
LINE
  5
234
  8
ﾚｲﾔ_1
  6
BORDER
 62
     3
 10
27.163789526422221
 20
9.7515859775890696
 30
0.0
 11
27.163789526422221
 21
-7.8432056890109321
 31
0.0
  0
DIMENSION
  5
235
  8
寸法線
  2
*D19
 10
19.163789526422221
 20
19.711939711026272
 30
0.0
 11
26.90243181250526
 21
19.711939711026272
 31
0.0
 70
   128
  1
φ8
 13
35.163789526422192
 23
4.2648544961890691
 33
0.0
 14
19.163789526422221
 24
4.2648544961890691
 34
0.0
  0
DIMENSION
  5
236
  8
寸法線
  2
*D20
 10
36.386393469350558
 20
30.684080988776209
 30
0.0
 11
26.597757341213772
 21
31.89376387328673
 31
0.0
 70
   133
 13
18.10312935482224
 23
5.3255146679890677
 33
0.0
 14
36.224449698222202
 24
5.3255146679890677
 34
0.0
 15
27.163789526422221
 25
-3.73514550381093
 35
0.0
1001
ACAD
1000
DSTYLE
1002
{
1070
   271
1070
     0
1002
}
  0
DIMENSION
  5
237
  8
寸法線
  2
*D21
 10
31.963789526422151
 20
-11.984225597876099
 30
0.0
 11
43.30066432382214
 21
-11.984225597876099
 31
0.0
 70
   128
  1
φ4
 13
22.36378952642221
 23
-2.1351455038109282
 33
0.0
 14
31.963789526422151
 24
-2.1351455038109282
 34
0.0
 50
180.0
  0
LINE
  5
238
  8
ﾚｲﾔ_1
  6
STITCH
 10
22.36378952642221
 20
1.0648544961890669
 30
0.0
 11
22.36378952642221
 21
-2.1351455038109282
 31
0.0
  0
LINE
  5
239
  8
ﾚｲﾔ_1
  6
STITCH
 10
31.963789526422151
 20
1.0648544961890669
 30
0.0
 11
31.963789526422151
 21
-2.1351455038109282
 31
0.0
  0
LINE
  5
23A
  8
ﾚｲﾔ_1
  6
STITCH
 10
31.963789526422151
 20
1.0648544961890669
 30
0.0
 11
22.36378952642221
 21
1.0648544961890669
 31
0.0
  0
LINE
  5
23B
  8
ﾚｲﾔ_1
  6
STITCH
 10
22.36378952642221
 20
1.0648544961890669
 30
0.0
 11
19.163789526422221
 21
4.2648544961890691
 31
0.0
  0
ENDSEC
  0
EOF
