  0
SECTION
  2
HEADER
  9
$ACADVER
  1
AC1009
  9
$INSBASE
 10
0.0
 20
0.0
 30
0.0
  9
$EXTMIN
 10
-284.4589744627408
 20
-176.2158122890267
 30
-0.0015258207003583
  9
$EXTMAX
 10
289.51865621356927
 20
226.76848241925379
 30
0.0000000349246037
  9
$LIMMIN
 10
0.0
 20
0.0
  9
$LIMMAX
 10
0.0
 20
0.0
  9
$ORTHOMODE
 70
     0
  9
$REGENMODE
 70
     1
  9
$FILLMODE
 70
     1
  9
$QTEXTMODE
 70
     0
  9
$MIRRTEXT
 70
     1
  9
$DRAGMODE
 70
     2
  9
$LTSCALE
 40
1.0
  9
$OSMODE
 70
    31
  9
$ATTMODE
 70
     1
  9
$TEXTSIZE
 40
0.0
  9
$TRACEWID
 40
0.05
  9
$TEXTSTYLE
  7
STANDARD
  9
$CLAYER
  8
0
  9
$CELTYPE
  6
CONTINUOUS
  9
$CECOLOR
 62
   256
  9
$DIMSCALE
 40
1.0
  9
$DIMASZ
 40
0.18
  9
$DIMEXO
 40
0.0625
  9
$DIMDLI
 40
0.38
  9
$DIMRND
 40
0.0
  9
$DIMDLE
 40
0.0
  9
$DIMEXE
 40
0.18
  9
$DIMTP
 40
0.0
  9
$DIMTM
 40
0.0
  9
$DIMTXT
 40
0.18
  9
$DIMCEN
 40
0.09
  9
$DIMTSZ
 40
0.0
  9
$DIMTOL
 70
     0
  9
$DIMLIM
 70
     0
  9
$DIMTIH
 70
     1
  9
$DIMTOH
 70
     1
  9
$DIMSE1
 70
     0
  9
$DIMSE2
 70
     0
  9
$DIMTAD
 70
     0
  9
$DIMZIN
 70
     0
  9
$DIMBLK
  1

  9
$DIMASO
 70
     1
  9
$DIMSHO
 70
     1
  9
$DIMPOST
  1

  9
$DIMAPOST
  1

  9
$DIMALT
 70
     0
  9
$DIMALTD
 70
     2
  9
$DIMALTF
 40
25.399999999999999
  9
$DIMLFAC
 40
1.0
  9
$DIMTOFL
 70
     0
  9
$DIMTVP
 40
0.0
  9
$DIMTIX
 70
     0
  9
$DIMSOXD
 70
     0
  9
$DIMSAH
 70
     0
  9
$DIMBLK1
  1

  9
$DIMBLK2
  1

  9
$DIMSTYLE
  2
STANDARD
  9
$DIMCLRD
 70
     0
  9
$DIMCLRE
 70
     0
  9
$DIMCLRT
 70
     0
  9
$DIMTFAC
 40
1.0
  9
$DIMGAP
 40
0.09
  9
$LUNITS
 70
     2
  9
$LUPREC
 70
     4
  9
$SKETCHINC
 40
0.1
  9
$FILLETRAD
 40
0.0
  9
$AUNITS
 70
     0
  9
$AUPREC
 70
     0
  9
$MENU
  1
acad
  9
$ELEVATION
 40
0.0
  9
$PELEVATION
 40
0.0
  9
$THICKNESS
 40
0.0
  9
$LIMCHECK
 70
     0
  9
$BLIPMODE
 70
     0
  9
$CHAMFERA
 40
0.0
  9
$CHAMFERB
 40
0.0
  9
$SKPOLY
 70
     0
  9
$TDCREATE
 40
2454863.5365679171
  9
$TDUPDATE
 40
2454863.5391936111
  9
$TDINDWG
 40
0.0026381597
  9
$TDUSRTIMER
 40
0.0026378009
  9
$USRTIMER
 70
     1
  9
$ANGBASE
 50
0.0
  9
$ANGDIR
 70
     0
  9
$PDMODE
 70
     3
  9
$PDSIZE
 40
-1.0
  9
$PLINEWID
 40
0.0
  9
$COORDS
 70
     2
  9
$SPLFRAME
 70
     0
  9
$SPLINETYPE
 70
     6
  9
$SPLINESEGS
 70
     8
  9
$ATTDIA
 70
     0
  9
$ATTREQ
 70
     1
  9
$HANDLING
 70
     1
  9
$HANDSEED
  5
6E4
  9
$SURFTAB1
 70
     6
  9
$SURFTAB2
 70
     6
  9
$SURFTYPE
 70
     6
  9
$SURFU
 70
     6
  9
$SURFV
 70
     6
  9
$UCSNAME
  2

  9
$UCSORG
 10
0.0
 20
0.0
 30
0.0
  9
$UCSXDIR
 10
1.0
 20
0.0
 30
0.0
  9
$UCSYDIR
 10
0.0
 20
1.0
 30
0.0
  9
$PUCSNAME
  2

  9
$PUCSORG
 10
0.0
 20
0.0
 30
0.0
  9
$PUCSXDIR
 10
1.0
 20
0.0
 30
0.0
  9
$PUCSYDIR
 10
0.0
 20
1.0
 30
0.0
  9
$USERI1
 70
     0
  9
$USERI2
 70
     0
  9
$USERI3
 70
     0
  9
$USERI4
 70
     0
  9
$USERI5
 70
     0
  9
$USERR1
 40
0.0
  9
$USERR2
 40
0.0
  9
$USERR3
 40
0.0
  9
$USERR4
 40
0.0
  9
$USERR5
 40
0.0
  9
$WORLDVIEW
 70
     1
  9
$SHADEDGE
 70
     3
  9
$SHADEDIF
 70
    70
  9
$TILEMODE
 70
     1
  9
$MAXACTVP
 70
    16
  9
$PLIMCHECK
 70
     0
  9
$PEXTMIN
 10
1.0000000000000000E+020
 20
1.0000000000000000E+020
 30
1.0000000000000000E+020
  9
$PEXTMAX
 10
-1.0000000000000000E+020
 20
-1.0000000000000000E+020
 30
-1.0000000000000000E+020
  9
$PLIMMIN
 10
0.0
 20
0.0
  9
$PLIMMAX
 10
12.0
 20
9.0
  9
$UNITMODE
 70
     0
  9
$VISRETAIN
 70
     0
  9
$PLINEGEN
 70
     1
  9
$PSLTSCALE
 70
     0
  0
ENDSEC
  0
SECTION
  2
TABLES
  0
TABLE
  2
VPORT
 70
     2
  0
VPORT
  2
*ACTIVE
 70
     0
 10
0.0
 20
0.0
 11
1.0
 21
1.0
 12
2.5298408754142652
 22
25.276335065113528
 13
0.0
 23
0.0
 14
1.0
 24
1.0
 15
0.0
 25
0.0
 16
0.0
 26
0.0
 36
1.0
 17
0.0
 27
0.0
 37
0.0
 40
407.69924064766832
 41
1.4164265129682989
 42
50.0
 43
0.0
 44
0.0
 50
0.0
 51
0.0
 71
     0
 72
   100
 73
     1
 74
     1
 75
     0
 76
     0
 77
     0
 78
     0
  0
ENDTAB
  0
TABLE
  2
LTYPE
 70
    11
  0
LTYPE
  2
CONTINUOUS
 70
     0
  3
Solid line
 72
    65
 73
     0
 40
0.0
  0
LTYPE
  2
DOT
 70
     0
  3
. . . . . . . . 
 72
    65
 73
     2
 40
1.0
 49
0.0
 49
-1.0
  0
LTYPE
  2
DASHED
 70
     0
  3
___  ___  ___  ___  
 72
    65
 73
     2
 40
4.0
 49
3.0
 49
-1.0
  0
LTYPE
  2
HIDDEN
 70
     0
  3
__ __ __ __ 
 72
    65
 73
     2
 40
3.0
 49
2.0
 49
-1.0
  0
LTYPE
  2
STITCH
 70
     0
  3
_ _ _ _ 
 72
    65
 73
     2
 40
2.0
 49
1.0
 49
-1.0
  0
LTYPE
  2
CENTER
 70
     0
  3
______  __  ______  __  
 72
    65
 73
     4
 40
43.0
 49
40.0
 49
-1.0
 49
1.0
 49
-1.0
  0
LTYPE
  2
DASHDOT
 70
     0
  3
____ . ____ . 
 72
    65
 73
     4
 40
32.0
 49
30.0
 49
-1.0
 49
0.0
 49
-1.0
  0
LTYPE
  2
BORDER
 70
     0
  3
__ . __ . 
 72
    65
 73
     4
 40
22.0
 49
20.0
 49
-1.0
 49
0.0
 49
-1.0
  0
LTYPE
  2
CUTTING
 70
     0
  3
________   ___   ___   
 72
    65
 73
     6
 40
45.0
 49
40.0
 49
-1.0
 49
1.0
 49
-1.0
 49
1.0
 49
-1.0
  0
LTYPE
  2
PHANTOM
 70
     0
  3
______  __  __  
 72
    65
 73
     6
 40
35.0
 49
30.0
 49
-1.0
 49
1.0
 49
-1.0
 49
1.0
 49
-1.0
  0
LTYPE
  2
DIVIDE
 70
     0
  3
____ . . ____ . . 
 72
    65
 73
     6
 40
23.0
 49
20.0
 49
-1.0
 49
0.0
 49
-1.0
 49
0.0
 49
-1.0
  0
ENDTAB
  0
TABLE
  2
LAYER
 70
     5
  0
LAYER
  2
0
 70
     0
 62
     7
  6
CONTINUOUS
  0
LAYER
  2
図枠
 70
     0
 62
     7
  6
CONTINUOUS
  0
LAYER
  2
ﾚｲﾔ_1
 70
     0
 62
     7
  6
CONTINUOUS
  0
LAYER
  2
寸法線
 70
     0
 62
     7
  6
CONTINUOUS
  0
LAYER
  2
DEFPOINTS
 70
     0
 62
     7
  6
CONTINUOUS
  0
ENDTAB
  0
TABLE
  2
STYLE
 70
     1
  0
STYLE
  2
STANDARD
 70
     0
 40
0.0
 41
1.0
 50
0.0
 71
     0
 42
0.0
  3
txt
  4
extfont
  0
ENDTAB
  0
TABLE
  2
VIEW
 70
     0
  0
ENDTAB
  0
TABLE
  2
UCS
 70
     0
  0
ENDTAB
  0
TABLE
  2
APPID
 70
     2
  0
APPID
  2
ACAD
 70
     0
  0
APPID
  2
DCO15
 70
     0
  0
ENDTAB
  0
TABLE
  2
DIMSTYLE
 70
     5
  0
DIMSTYLE
  2
STANDARD
 70
     0
  3

  4

  5

  6

  7

 40
1.0
 41
0.18
 42
0.0625
 43
0.38
 44
0.18
 45
0.0
 46
0.0
 47
0.0
 48
0.0
140
0.18
141
0.09
142
0.0
143
25.399999999999999
144
1.0
145
0.0
146
1.0
147
0.09
 71
     0
 72
     0
 73
     1
 74
     1
 75
     0
 76
     0
 77
     0
 78
     0
170
     0
171
     2
172
     0
173
     0
174
     0
175
     0
176
     0
177
     0
178
     0
  0
DIMSTYLE
  2
VELDIM0
 70
     0
  3

  4

  5

  6

  7

 40
1.0
 41
6.0
 42
0.0625
 43
0.38
 44
1.0
 45
0.0
 46
5.0
 47
0.0
 48
0.0
140
5.9972220420999998
141
0.09
142
0.0
143
25.399999999999999
144
1.0
145
0.0
146
1.0
147
0.09
 71
     0
 72
     0
 73
     0
 74
     0
 75
     0
 76
     0
 77
     0
 78
     8
170
     0
171
     2
172
     0
173
     0
174
     0
175
     0
176
     0
177
     0
178
     0
  0
DIMSTYLE
  2
VELDIM1
 70
     0
  3

  4

  5

  6

  7

 40
1.0
 41
1.5
 42
0.0625
 43
0.38
 44
1.25
 45
0.0
 46
5.0
 47
0.0
 48
0.0
140
1.3493749797000001
141
0.09
142
0.0
143
25.399999999999999
144
1.0
145
0.0
146
1.0
147
0.09
 71
     0
 72
     0
 73
     0
 74
     0
 75
     0
 76
     0
 77
     0
 78
     8
170
     0
171
     2
172
     0
173
     0
174
     0
175
     0
176
     0
177
     0
178
     0
  0
DIMSTYLE
  2
VELDIM2
 70
     0
  3

  4

  5

  6

  7

 40
1.0
 41
1.5
 42
0.0625
 43
0.38
 44
2.0
 45
0.0
 46
5.0
 47
0.0
 48
0.0
140
1.3493749797000001
141
0.09
142
0.0
143
25.399999999999999
144
1.0
145
0.0
146
1.0
147
0.09
 71
     0
 72
     0
 73
     0
 74
     0
 75
     0
 76
     0
 77
     0
 78
     8
170
     0
171
     2
172
     0
173
     0
174
     0
175
     0
176
     0
177
     0
178
     0
  0
DIMSTYLE
  2
VELDIM3
 70
     0
  3

  4

  5

  6

  7

 40
1.0
 41
6.0
 42
0.0625
 43
0.38
 44
1.25
 45
0.0
 46
5.0
 47
0.0
 48
0.0
140
5.9972220420999998
141
0.09
142
0.0
143
25.399999999999999
144
1.0
145
0.0
146
1.0
147
0.09
 71
     0
 72
     0
 73
     0
 74
     0
 75
     0
 76
     0
 77
     0
 78
     8
170
     0
171
     2
172
     0
173
     0
174
     0
175
     0
176
     0
177
     0
178
     0
  0
ENDTAB
  0
ENDSEC
  0
SECTION
  2
BLOCKS
  0
BLOCK
  8
0
  2
$MODEL_SPACE
 70
     0
 10
0.0
 20
0.0
 30
0.0
  3
$MODEL_SPACE
  1

  0
ENDBLK
  5
E
  8
0
  0
BLOCK
 67
     1
  8
0
  2
$PAPER_SPACE
 70
     0
 10
0.0
 20
0.0
 30
0.0
  3
$PAPER_SPACE
  1

  0
ENDBLK
  5
10
 67
     1
  8
0
  0
BLOCK
  8
0
  2
*D0
 70
     1
 10
0.0
 20
0.0
 30
0.0
  3
*D0
  1

  0
TEXT
  5
4F
  8
0
 62
     0
 10
130.1275521938
 20
87.245442676499991
 30
0.0
 40
5.9972220420999998
  1
30
  0
LINE
  5
50
  8
0
 62
     0
 10
118.6553298656
 20
115.68710937500001
 30
0.0
 11
118.6553298656
 21
84.187109375000006
 31
0.0
  0
LINE
  5
51
  8
0
 62
     0
 10
148.65532986560001
 20
103.18710937500001
 30
0.0
 11
148.65532986560001
 21
84.187109375000006
 31
0.0
  0
LINE
  5
52
  8
0
 62
     0
 10
118.6553298656
 20
85.187109375000006
 30
0.0
 11
140.7108852092
 21
85.187109375000006
 31
0.0
  0
LINE
  5
53
  8
0
 62
     0
 10
118.6553298656
 20
85.187109375000006
 30
0.0
 11
126.599774522
 21
85.187109375000006
 31
0.0
  0
LINE
  5
54
  8
0
 62
     0
 10
148.65532986560001
 20
85.187109375000006
 30
0.0
 11
140.7108852092
 21
85.187109375000006
 31
0.0
  0
LINE
  5
55
  8
0
 62
     0
 10
148.65532986560001
 20
85.187109375000006
 30
0.0
 11
126.599774522
 21
85.187109375000006
 31
0.0
  0
LINE
  5
56
  8
0
 62
     0
 10
148.65532986560001
 20
85.187109375000006
 30
0.0
 11
143.65532986560001
 21
85.187109375000006
 31
0.0
  0
SOLID
  5
57
  8
0
 62
     0
 10
148.65532986560001
 20
85.187109375000006
 30
0.0
 11
142.65532986560001
 21
83.687109375000006
 31
0.0
 12
142.65532986560001
 22
86.687109375000006
 32
0.0
 13
144.15532986560001
 23
85.187109375000006
 33
0.0
  0
LINE
  5
58
  8
0
 62
     0
 10
118.6553298656
 20
85.187109375000006
 30
0.0
 11
123.6553298656
 21
85.187109375000006
 31
0.0
  0
SOLID
  5
59
  8
0
 62
     0
 10
118.6553298656
 20
85.187109375000006
 30
0.0
 11
124.6553298656
 21
86.687109375000006
 31
0.0
 12
124.6553298656
 22
83.687109375000006
 32
0.0
 13
123.1553298656
 23
85.187109375000006
 33
0.0
  0
ENDBLK
  5
5A
  8
0
  0
BLOCK
  8
0
  2
*D1
 70
     1
 10
0.0
 20
0.0
 30
0.0
  3
*D1
  1

  0
TEXT
  5
5F
  8
0
 62
     0
 10
95.127552193799986
 20
87.245442676499991
 30
0.0
 40
5.9972220420999998
  1
40
  0
LINE
  5
60
  8
0
 62
     0
 10
78.655329865600009
 20
115.68710937500001
 30
0.0
 11
78.655329865600009
 21
84.187109375000006
 31
0.0
  0
LINE
  5
61
  8
0
 62
     0
 10
118.6553298656
 20
115.68710937500001
 30
0.0
 11
118.6553298656
 21
84.187109375000006
 31
0.0
  0
LINE
  5
62
  8
0
 62
     0
 10
78.655329865600009
 20
85.187109375000006
 30
0.0
 11
105.7108852092
 21
85.187109375000006
 31
0.0
  0
LINE
  5
63
  8
0
 62
     0
 10
78.655329865600009
 20
85.187109375000006
 30
0.0
 11
91.599774522000004
 21
85.187109375000006
 31
0.0
  0
LINE
  5
64
  8
0
 62
     0
 10
118.6553298656
 20
85.187109375000006
 30
0.0
 11
105.7108852092
 21
85.187109375000006
 31
0.0
  0
LINE
  5
65
  8
0
 62
     0
 10
118.6553298656
 20
85.187109375000006
 30
0.0
 11
91.599774522000004
 21
85.187109375000006
 31
0.0
  0
LINE
  5
66
  8
0
 62
     0
 10
118.6553298656
 20
85.187109375000006
 30
0.0
 11
113.6553298656
 21
85.187109375000006
 31
0.0
  0
SOLID
  5
67
  8
0
 62
     0
 10
118.6553298656
 20
85.187109375000006
 30
0.0
 11
112.6553298656
 21
83.687109375000006
 31
0.0
 12
112.6553298656
 22
86.687109375000006
 32
0.0
 13
114.1553298656
 23
85.187109375000006
 33
0.0
  0
LINE
  5
68
  8
0
 62
     0
 10
78.655329865600009
 20
85.187109375000006
 30
0.0
 11
83.655329865600009
 21
85.187109375000006
 31
0.0
  0
SOLID
  5
69
  8
0
 62
     0
 10
78.655329865600009
 20
85.187109375000006
 30
0.0
 11
84.655329865600009
 21
86.687109375000006
 31
0.0
 12
84.655329865600009
 22
83.687109375000006
 32
0.0
 13
83.155329865599995
 23
85.187109375000006
 33
0.0
  0
ENDBLK
  5
6A
  8
0
  0
BLOCK
  8
0
  2
*D2
 70
     1
 10
0.0
 20
0.0
 30
0.0
  3
*D2
  1

  0
TEXT
  5
6E
  8
0
 62
     0
 10
65.1275521938
 20
87.245442676499991
 30
0.0
 40
5.9972220420999998
  1
20
  0
LINE
  5
6F
  8
0
 62
     0
 10
58.655329865600002
 20
103.18710937500001
 30
0.0
 11
58.655329865600002
 21
84.187109375000006
 31
0.0
  0
LINE
  5
70
  8
0
 62
     0
 10
78.655329865600009
 20
115.68710937500001
 30
0.0
 11
78.655329865600009
 21
84.187109375000006
 31
0.0
  0
LINE
  5
71
  8
0
 62
     0
 10
58.655329865600002
 20
85.187109375000006
 30
0.0
 11
75.710885209200001
 21
85.187109375000006
 31
0.0
  0
LINE
  5
72
  8
0
 62
     0
 10
58.655329865600002
 20
85.187109375000006
 30
0.0
 11
61.59977452199999
 21
85.187109375000006
 31
0.0
  0
LINE
  5
73
  8
0
 62
     0
 10
78.655329865600009
 20
85.187109375000006
 30
0.0
 11
75.710885209200001
 21
85.187109375000006
 31
0.0
  0
LINE
  5
74
  8
0
 62
     0
 10
78.655329865600009
 20
85.187109375000006
 30
0.0
 11
61.59977452199999
 21
85.187109375000006
 31
0.0
  0
LINE
  5
75
  8
0
 62
     0
 10
78.655329865600009
 20
85.187109375000006
 30
0.0
 11
83.655329865600009
 21
85.187109375000006
 31
0.0
  0
SOLID
  5
76
  8
0
 62
     0
 10
78.655329865600009
 20
85.187109375000006
 30
0.0
 11
84.655329865600009
 21
86.687109375000006
 31
0.0
 12
84.655329865600009
 22
83.687109375000006
 32
0.0
 13
83.155329865599995
 23
85.187109375000006
 33
0.0
  0
LINE
  5
77
  8
0
 62
     0
 10
58.655329865600002
 20
85.187109375000006
 30
0.0
 11
53.655329865600002
 21
85.187109375000006
 31
0.0
  0
SOLID
  5
78
  8
0
 62
     0
 10
58.655329865600002
 20
85.187109375000006
 30
0.0
 11
52.655329865600002
 21
83.687109375000006
 31
0.0
 12
52.655329865600002
 22
86.687109375000006
 32
0.0
 13
54.155329865600002
 23
85.187109375000006
 33
0.0
  0
ENDBLK
  5
79
  8
0
  0
BLOCK
  8
0
  2
*D3
 70
     1
 10
0.0
 20
0.0
 30
0.0
  3
*D3
  1

  0
TEXT
  5
7D
  8
0
 62
     0
 10
190.65878224279999
 20
121.6593317032
 30
0.0
 40
5.9972220420999998
  1
40
 50
90.0
  0
LINE
  5
7E
  8
0
 62
     0
 10
150.6553298655999
 20
105.18710937500001
 30
0.0
 11
193.7171155444
 21
105.18710937500001
 31
0.0
  0
LINE
  5
7F
  8
0
 62
     0
 10
150.6553298655999
 20
145.18710937500001
 30
0.0
 11
193.7171155444
 21
145.18710937500001
 31
0.0
  0
LINE
  5
80
  8
0
 62
     0
 10
192.7171155444
 20
105.18710937500001
 30
0.0
 11
192.7171155444
 21
132.2426647186
 31
0.0
  0
LINE
  5
81
  8
0
 62
     0
 10
192.7171155444
 20
105.18710937500001
 30
0.0
 11
192.7171155444
 21
118.1315540314
 31
0.0
  0
LINE
  5
82
  8
0
 62
     0
 10
192.7171155444
 20
145.18710937500001
 30
0.0
 11
192.7171155444
 21
132.2426647186
 31
0.0
  0
LINE
  5
83
  8
0
 62
     0
 10
192.7171155444
 20
145.18710937500001
 30
0.0
 11
192.7171155444
 21
118.1315540314
 31
0.0
  0
LINE
  5
84
  8
0
 62
     0
 10
192.7171155444
 20
145.18710937500001
 30
0.0
 11
192.7171155444
 21
140.18710937500001
 31
0.0
  0
SOLID
  5
85
  8
0
 62
     0
 10
192.7171155444
 20
145.18710937500001
 30
0.0
 11
194.21711554439989
 21
139.18710937500001
 31
0.0
 12
191.21711554439989
 22
139.18710937500001
 32
0.0
 13
192.7171155444
 23
140.68710937500001
 33
0.0
  0
LINE
  5
86
  8
0
 62
     0
 10
192.7171155444
 20
105.18710937500001
 30
0.0
 11
192.7171155444
 21
110.18710937500001
 31
0.0
  0
SOLID
  5
87
  8
0
 62
     0
 10
192.7171155444
 20
105.18710937500001
 30
0.0
 11
191.21711554439989
 21
111.18710937500001
 31
0.0
 12
194.21711554439989
 22
111.18710937500001
 32
0.0
 13
192.7171155444
 23
109.68710937500001
 33
0.0
  0
ENDBLK
  5
88
  8
0
  0
BLOCK
  8
0
  2
*D4
 70
     1
 10
0.0
 20
0.0
 30
0.0
  3
*D4
  1

  0
TEXT
  5
8C
  8
0
 62
     0
 10
171.3649344246999
 20
111.6593317032
 30
0.0
 40
5.9972220420999998
  1
20
 50
90.0
  0
LINE
  5
8D
  8
0
 62
     0
 10
150.6553298655999
 20
105.18710937500001
 30
0.0
 11
174.42326772620001
 21
105.18710937500001
 31
0.0
  0
LINE
  5
8E
  8
0
 62
     0
 10
155.42326772620001
 20
125.18710937500001
 30
0.0
 11
174.42326772620001
 21
125.18710937500001
 31
0.0
  0
LINE
  5
8F
  8
0
 62
     0
 10
173.4232677261999
 20
105.18710937500001
 30
0.0
 11
173.4232677261999
 21
122.2426647186
 31
0.0
  0
LINE
  5
90
  8
0
 62
     0
 10
173.4232677261999
 20
105.18710937500001
 30
0.0
 11
173.4232677261999
 21
108.1315540314
 31
0.0
  0
LINE
  5
91
  8
0
 62
     0
 10
173.4232677261999
 20
125.18710937500001
 30
0.0
 11
173.4232677261999
 21
122.2426647186
 31
0.0
  0
LINE
  5
92
  8
0
 62
     0
 10
173.4232677261999
 20
125.18710937500001
 30
0.0
 11
173.4232677261999
 21
108.1315540314
 31
0.0
  0
LINE
  5
93
  8
0
 62
     0
 10
173.4232677261999
 20
125.18710937500001
 30
0.0
 11
173.4232677261999
 21
130.18710937500001
 31
0.0
  0
SOLID
  5
94
  8
0
 62
     0
 10
173.4232677261999
 20
125.18710937500001
 30
0.0
 11
171.92326772620001
 21
131.18710937500001
 31
0.0
 12
174.92326772620001
 22
131.18710937500001
 32
0.0
 13
173.4232677261999
 23
129.68710937500001
 33
0.0
  0
LINE
  5
95
  8
0
 62
     0
 10
173.4232677261999
 20
105.18710937500001
 30
0.0
 11
173.4232677261999
 21
100.18710937500001
 31
0.0
  0
SOLID
  5
96
  8
0
 62
     0
 10
173.4232677261999
 20
105.18710937500001
 30
0.0
 11
174.92326772620001
 21
99.187109375000006
 31
0.0
 12
171.92326772620001
 22
99.187109375000006
 32
0.0
 13
173.4232677261999
 23
100.68710937500001
 33
0.0
  0
ENDBLK
  5
97
  8
0
  0
BLOCK
  8
0
  2
*D5
 70
     1
 10
0.0
 20
0.0
 30
0.0
  3
*D5
  1

  0
TEXT
  5
9B
  8
0
 62
     0
 10
171.3649344246999
 20
131.6593317032
 30
0.0
 40
5.9972220420999998
  1
20
 50
90.0
  0
LINE
  5
9C
  8
0
 62
     0
 10
155.42326772620001
 20
125.18710937500001
 30
0.0
 11
174.42326772620001
 21
125.18710937500001
 31
0.0
  0
LINE
  5
9D
  8
0
 62
     0
 10
150.6553298655999
 20
145.18710937500001
 30
0.0
 11
174.42326772620001
 21
145.18710937500001
 31
0.0
  0
LINE
  5
9E
  8
0
 62
     0
 10
173.4232677261999
 20
125.18710937500001
 30
0.0
 11
173.4232677261999
 21
142.2426647186
 31
0.0
  0
LINE
  5
9F
  8
0
 62
     0
 10
173.4232677261999
 20
125.18710937500001
 30
0.0
 11
173.4232677261999
 21
128.13155403139999
 31
0.0
  0
LINE
  5
A0
  8
0
 62
     0
 10
173.4232677261999
 20
145.18710937500001
 30
0.0
 11
173.4232677261999
 21
142.2426647186
 31
0.0
  0
LINE
  5
A1
  8
0
 62
     0
 10
173.4232677261999
 20
145.18710937500001
 30
0.0
 11
173.4232677261999
 21
128.13155403139999
 31
0.0
  0
LINE
  5
A2
  8
0
 62
     0
 10
173.4232677261999
 20
145.18710937500001
 30
0.0
 11
173.4232677261999
 21
150.18710937500001
 31
0.0
  0
SOLID
  5
A3
  8
0
 62
     0
 10
173.4232677261999
 20
145.18710937500001
 30
0.0
 11
171.92326772620001
 21
151.18710937500001
 31
0.0
 12
174.92326772620001
 22
151.18710937500001
 32
0.0
 13
173.4232677261999
 23
149.68710937500001
 33
0.0
  0
LINE
  5
A4
  8
0
 62
     0
 10
173.4232677261999
 20
125.18710937500001
 30
0.0
 11
173.4232677261999
 21
120.18710937500001
 31
0.0
  0
SOLID
  5
A5
  8
0
 62
     0
 10
173.4232677261999
 20
125.18710937500001
 30
0.0
 11
174.92326772620001
 21
119.18710937500001
 31
0.0
 12
171.92326772620001
 22
119.18710937500001
 32
0.0
 13
173.4232677261999
 23
120.68710937500001
 33
0.0
  0
ENDBLK
  5
A6
  8
0
  0
BLOCK
  8
0
  2
*D6
 70
     1
 10
0.0
 20
0.0
 30
0.0
  3
*D6
  1

  0
TEXT
  5
14F
  8
0
 62
     0
 10
-97.52777767180001
 20
87.245442676499991
 30
0.0
 40
5.9972220420999998
  1
60
  0
LINE
  5
150
  8
0
 62
     0
 10
-124.0
 20
115.68710937500001
 30
0.0
 11
-124.0
 21
84.187109375000006
 31
0.0
  0
LINE
  5
151
  8
0
 62
     0
 10
-64.0
 20
115.68710937500001
 30
0.0
 11
-64.0
 21
84.187109375000006
 31
0.0
  0
LINE
  5
152
  8
0
 62
     0
 10
-124.0
 20
85.187109375000006
 30
0.0
 11
-86.944444656399995
 21
85.187109375000006
 31
0.0
  0
LINE
  5
153
  8
0
 62
     0
 10
-124.0
 20
85.187109375000006
 30
0.0
 11
-101.05555534360001
 21
85.187109375000006
 31
0.0
  0
LINE
  5
154
  8
0
 62
     0
 10
-64.0
 20
85.187109375000006
 30
0.0
 11
-86.944444656399995
 21
85.187109375000006
 31
0.0
  0
LINE
  5
155
  8
0
 62
     0
 10
-64.0
 20
85.187109375000006
 30
0.0
 11
-101.05555534360001
 21
85.187109375000006
 31
0.0
  0
LINE
  5
156
  8
0
 62
     0
 10
-64.0
 20
85.187109375000006
 30
0.0
 11
-69.0
 21
85.187109375000006
 31
0.0
  0
SOLID
  5
157
  8
0
 62
     0
 10
-64.0
 20
85.187109375000006
 30
0.0
 11
-70.0
 21
83.687109375000006
 31
0.0
 12
-70.0
 22
86.687109375000006
 32
0.0
 13
-68.5
 23
85.187109375000006
 33
0.0
  0
LINE
  5
158
  8
0
 62
     0
 10
-124.0
 20
85.187109375000006
 30
0.0
 11
-119.0
 21
85.187109375000006
 31
0.0
  0
SOLID
  5
159
  8
0
 62
     0
 10
-124.0
 20
85.187109375000006
 30
0.0
 11
-118.0
 21
86.687109375000006
 31
0.0
 12
-118.0
 22
83.687109375000006
 32
0.0
 13
-119.5
 23
85.187109375000006
 33
0.0
  0
ENDBLK
  5
15A
  8
0
  0
BLOCK
  8
0
  2
*D7
 70
     1
 10
0.0
 20
0.0
 30
0.0
  3
*D7
  1

  0
TEXT
  5
15E
  8
0
 62
     0
 10
-193.96507158279999
 20
121.6593317032
 30
0.0
 40
5.9972220420999998
  1
40
 50
90.0
  0
LINE
  5
15F
  8
0
 62
     0
 10
-156.0
 20
145.18710937500001
 30
0.0
 11
-192.90673828129999
 21
145.18710937500001
 31
0.0
  0
LINE
  5
160
  8
0
 62
     0
 10
-156.0
 20
105.18710937500001
 30
0.0
 11
-192.90673828129999
 21
105.18710937500001
 31
0.0
  0
LINE
  5
161
  8
0
 62
     0
 10
-191.90673828129999
 20
145.18710937500001
 30
0.0
 11
-191.90673828129999
 21
132.2426647186
 31
0.0
  0
LINE
  5
162
  8
0
 62
     0
 10
-191.90673828129999
 20
145.18710937500001
 30
0.0
 11
-191.90673828129999
 21
118.1315540314
 31
0.0
  0
LINE
  5
163
  8
0
 62
     0
 10
-191.90673828129999
 20
105.18710937500001
 30
0.0
 11
-191.90673828129999
 21
132.2426647186
 31
0.0
  0
LINE
  5
164
  8
0
 62
     0
 10
-191.90673828129999
 20
105.18710937500001
 30
0.0
 11
-191.90673828129999
 21
118.1315540314
 31
0.0
  0
LINE
  5
165
  8
0
 62
     0
 10
-191.90673828129999
 20
105.18710937500001
 30
0.0
 11
-191.90673828129999
 21
110.18710937500001
 31
0.0
  0
SOLID
  5
166
  8
0
 62
     0
 10
-191.90673828129999
 20
105.18710937500001
 30
0.0
 11
-193.40673828129999
 21
111.18710937500001
 31
0.0
 12
-190.40673828129999
 22
111.18710937500001
 32
0.0
 13
-191.90673828129999
 23
109.68710937500001
 33
0.0
  0
LINE
  5
167
  8
0
 62
     0
 10
-191.90673828129999
 20
145.18710937500001
 30
0.0
 11
-191.90673828129999
 21
140.18710937500001
 31
0.0
  0
SOLID
  5
168
  8
0
 62
     0
 10
-191.90673828129999
 20
145.18710937500001
 30
0.0
 11
-190.40673828129999
 21
139.18710937500001
 31
0.0
 12
-193.40673828129999
 22
139.18710937500001
 32
0.0
 13
-191.90673828129999
 23
140.68710937500001
 33
0.0
  0
ENDBLK
  5
169
  8
0
  0
BLOCK
  8
0
  2
*D8
 70
     1
 10
0.0
 20
0.0
 30
0.0
  3
*D8
  1

  0
TEXT
  5
16D
  8
0
 62
     0
 10
-52.527777671800003
 20
87.245442676499991
 30
0.0
 40
5.9972220420999998
  1
30
  0
LINE
  5
16E
  8
0
 62
     0
 10
-64.0
 20
115.68710937500001
 30
0.0
 11
-64.0
 21
84.187109375000006
 31
0.0
  0
LINE
  5
16F
  8
0
 62
     0
 10
-34.0
 20
103.18710937500001
 30
0.0
 11
-34.0
 21
84.187109375000006
 31
0.0
  0
LINE
  5
170
  8
0
 62
     0
 10
-64.0
 20
85.187109375000006
 30
0.0
 11
-41.944444656400002
 21
85.187109375000006
 31
0.0
  0
LINE
  5
171
  8
0
 62
     0
 10
-64.0
 20
85.187109375000006
 30
0.0
 11
-56.055555343599998
 21
85.187109375000006
 31
0.0
  0
LINE
  5
172
  8
0
 62
     0
 10
-34.0
 20
85.187109375000006
 30
0.0
 11
-41.944444656400002
 21
85.187109375000006
 31
0.0
  0
LINE
  5
173
  8
0
 62
     0
 10
-34.0
 20
85.187109375000006
 30
0.0
 11
-56.055555343599998
 21
85.187109375000006
 31
0.0
  0
LINE
  5
174
  8
0
 62
     0
 10
-34.0
 20
85.187109375000006
 30
0.0
 11
-39.0
 21
85.187109375000006
 31
0.0
  0
SOLID
  5
175
  8
0
 62
     0
 10
-34.0
 20
85.187109375000006
 30
0.0
 11
-40.0
 21
83.687109375000006
 31
0.0
 12
-40.0
 22
86.687109375000006
 32
0.0
 13
-38.5
 23
85.187109375000006
 33
0.0
  0
LINE
  5
176
  8
0
 62
     0
 10
-64.0
 20
85.187109375000006
 30
0.0
 11
-59.0
 21
85.187109375000006
 31
0.0
  0
SOLID
  5
177
  8
0
 62
     0
 10
-64.0
 20
85.187109375000006
 30
0.0
 11
-58.0
 21
86.687109375000006
 31
0.0
 12
-58.0
 22
83.687109375000006
 32
0.0
 13
-59.5
 23
85.187109375000006
 33
0.0
  0
ENDBLK
  5
178
  8
0
  0
BLOCK
  8
0
  2
*D9
 70
     1
 10
0.0
 20
0.0
 30
0.0
  3
*D9
  1

  0
TEXT
  5
17C
  8
0
 62
     0
 10
-142.52777767180001
 20
87.245442676499991
 30
0.0
 40
5.9972220420999998
  1
30
  0
LINE
  5
17D
  8
0
 62
     0
 10
-154.0
 20
103.18710937500001
 30
0.0
 11
-154.0
 21
84.187109375000006
 31
0.0
  0
LINE
  5
17E
  8
0
 62
     0
 10
-124.0
 20
115.68710937500001
 30
0.0
 11
-124.0
 21
84.187109375000006
 31
0.0
  0
LINE
  5
17F
  8
0
 62
     0
 10
-154.0
 20
85.187109375000006
 30
0.0
 11
-131.94444465640001
 21
85.187109375000006
 31
0.0
  0
LINE
  5
180
  8
0
 62
     0
 10
-154.0
 20
85.187109375000006
 30
0.0
 11
-146.05555534359999
 21
85.187109375000006
 31
0.0
  0
LINE
  5
181
  8
0
 62
     0
 10
-124.0
 20
85.187109375000006
 30
0.0
 11
-131.94444465640001
 21
85.187109375000006
 31
0.0
  0
LINE
  5
182
  8
0
 62
     0
 10
-124.0
 20
85.187109375000006
 30
0.0
 11
-146.05555534359999
 21
85.187109375000006
 31
0.0
  0
LINE
  5
183
  8
0
 62
     0
 10
-124.0
 20
85.187109375000006
 30
0.0
 11
-129.0
 21
85.187109375000006
 31
0.0
  0
SOLID
  5
184
  8
0
 62
     0
 10
-124.0
 20
85.187109375000006
 30
0.0
 11
-130.0
 21
83.687109375000006
 31
0.0
 12
-130.0
 22
86.687109375000006
 32
0.0
 13
-128.5
 23
85.187109375000006
 33
0.0
  0
LINE
  5
185
  8
0
 62
     0
 10
-154.0
 20
85.187109375000006
 30
0.0
 11
-149.0
 21
85.187109375000006
 31
0.0
  0
SOLID
  5
186
  8
0
 62
     0
 10
-154.0
 20
85.187109375000006
 30
0.0
 11
-148.0
 21
86.687109375000006
 31
0.0
 12
-148.0
 22
83.687109375000006
 32
0.0
 13
-149.5
 23
85.187109375000006
 33
0.0
  0
ENDBLK
  5
187
  8
0
  0
BLOCK
  8
0
  2
*D10
 70
     1
 10
0.0
 20
0.0
 30
0.0
  3
*D10
  1

  0
TEXT
  5
18B
  8
0
 62
     0
 10
-176.0583335529
 20
111.6593317032
 30
0.0
 40
5.9972220420999998
  1
20
 50
90.0
  0
LINE
  5
18C
  8
0
 62
     0
 10
-160.10048319200001
 20
125.18710937500001
 30
0.0
 11
-175.00000025130001
 21
125.18710937500001
 31
0.0
  0
LINE
  5
18D
  8
0
 62
     0
 10
-156.0
 20
105.18710937500001
 30
0.0
 11
-175.00000025130001
 21
105.18710937500001
 31
0.0
  0
LINE
  5
18E
  8
0
 62
     0
 10
-174.00000025130001
 20
125.18710937500001
 30
0.0
 11
-174.00000025130001
 21
122.2426647186
 31
0.0
  0
LINE
  5
18F
  8
0
 62
     0
 10
-174.00000025130001
 20
125.18710937500001
 30
0.0
 11
-174.00000025130001
 21
108.1315540314
 31
0.0
  0
LINE
  5
190
  8
0
 62
     0
 10
-174.00000025130001
 20
105.18710937500001
 30
0.0
 11
-174.00000025130001
 21
122.2426647186
 31
0.0
  0
LINE
  5
191
  8
0
 62
     0
 10
-174.00000025130001
 20
105.18710937500001
 30
0.0
 11
-174.00000025130001
 21
108.1315540314
 31
0.0
  0
LINE
  5
192
  8
0
 62
     0
 10
-174.00000025130001
 20
105.18710937500001
 30
0.0
 11
-174.00000025130001
 21
100.18710937500001
 31
0.0
  0
SOLID
  5
193
  8
0
 62
     0
 10
-174.00000025130001
 20
105.18710937500001
 30
0.0
 11
-172.50000025130001
 21
99.187109375000006
 31
0.0
 12
-175.50000025130001
 22
99.187109375000006
 32
0.0
 13
-174.00000025130001
 23
100.68710937500001
 33
0.0
  0
LINE
  5
194
  8
0
 62
     0
 10
-174.00000025130001
 20
125.18710937500001
 30
0.0
 11
-174.00000025130001
 21
130.18710937500001
 31
0.0
  0
SOLID
  5
195
  8
0
 62
     0
 10
-174.00000025130001
 20
125.18710937500001
 30
0.0
 11
-175.50000025130001
 21
131.18710937500001
 31
0.0
 12
-172.50000025130001
 22
131.18710937500001
 32
0.0
 13
-174.00000025130001
 23
129.68710937500001
 33
0.0
  0
ENDBLK
  5
196
  8
0
  0
BLOCK
  8
0
  2
*D11
 70
     1
 10
0.0
 20
0.0
 30
0.0
  3
*D11
  1

  0
TEXT
  5
19A
  8
0
 62
     0
 10
-176.0583335529
 20
131.6593317032
 30
0.0
 40
5.9972220420999998
  1
20
 50
90.0
  0
LINE
  5
19B
  8
0
 62
     0
 10
-156.0
 20
145.18710937500001
 30
0.0
 11
-175.00000025130001
 21
145.18710937500001
 31
0.0
  0
LINE
  5
19C
  8
0
 62
     0
 10
-160.10048319200001
 20
125.18710937500001
 30
0.0
 11
-175.00000025130001
 21
125.18710937500001
 31
0.0
  0
LINE
  5
19D
  8
0
 62
     0
 10
-174.00000025130001
 20
145.18710937500001
 30
0.0
 11
-174.00000025130001
 21
142.2426647186
 31
0.0
  0
LINE
  5
19E
  8
0
 62
     0
 10
-174.00000025130001
 20
145.18710937500001
 30
0.0
 11
-174.00000025130001
 21
128.13155403139999
 31
0.0
  0
LINE
  5
19F
  8
0
 62
     0
 10
-174.00000025130001
 20
125.18710937500001
 30
0.0
 11
-174.00000025130001
 21
142.2426647186
 31
0.0
  0
LINE
  5
1A0
  8
0
 62
     0
 10
-174.00000025130001
 20
125.18710937500001
 30
0.0
 11
-174.00000025130001
 21
128.13155403139999
 31
0.0
  0
LINE
  5
1A1
  8
0
 62
     0
 10
-174.00000025130001
 20
125.18710937500001
 30
0.0
 11
-174.00000025130001
 21
120.18710937500001
 31
0.0
  0
SOLID
  5
1A2
  8
0
 62
     0
 10
-174.00000025130001
 20
125.18710937500001
 30
0.0
 11
-172.50000025130001
 21
119.18710937500001
 31
0.0
 12
-175.50000025130001
 22
119.18710937500001
 32
0.0
 13
-174.00000025130001
 23
120.68710937500001
 33
0.0
  0
LINE
  5
1A3
  8
0
 62
     0
 10
-174.00000025130001
 20
145.18710937500001
 30
0.0
 11
-174.00000025130001
 21
150.18710937500001
 31
0.0
  0
SOLID
  5
1A4
  8
0
 62
     0
 10
-174.00000025130001
 20
145.18710937500001
 30
0.0
 11
-175.50000025130001
 21
151.18710937500001
 31
0.0
 12
-172.50000025130001
 22
151.18710937500001
 32
0.0
 13
-174.00000025130001
 23
149.68710937500001
 33
0.0
  0
ENDBLK
  5
1A5
  8
0
  0
BLOCK
  8
0
  2
*D12
 70
     1
 10
0.0
 20
0.0
 30
0.0
  3
*D12
  1

  0
TEXT
  5
1B2
  8
0
 62
     0
 10
-15.308333301499999
 20
-34.721574956300003
 30
0.0
 40
5.9972220420999998
  1
4.5t
 50
90.0
  0
LINE
  5
1B3
  8
0
 62
     0
 10
-32.0
 20
-46.17304687499999
 30
0.0
 11
-12.25
 21
-46.17304687499999
 31
0.0
  0
LINE
  5
1B4
  8
0
 62
     0
 10
-31.25
 20
-41.67304687499999
 30
0.0
 11
-12.25
 21
-41.67304687499999
 31
0.0
  0
LINE
  5
1B5
  8
0
 62
     0
 10
-13.25
 20
-46.17304687499999
 30
0.0
 11
-13.25
 21
-17.082686597199999
 31
0.0
  0
LINE
  5
1B6
  8
0
 62
     0
 10
-13.25
 20
-46.17304687499999
 30
0.0
 11
-13.25
 21
-38.249352628099999
 31
0.0
  0
LINE
  5
1B7
  8
0
 62
     0
 10
-13.25
 20
-41.67304687499999
 30
0.0
 11
-13.25
 21
-17.082686597199999
 31
0.0
  0
LINE
  5
1B8
  8
0
 62
     0
 10
-13.25
 20
-41.67304687499999
 30
0.0
 11
-13.25
 21
-38.249352628099999
 31
0.0
  0
LINE
  5
1B9
  8
0
 62
     0
 10
-13.25
 20
-41.67304687499999
 30
0.0
 11
-13.25
 21
-36.673046874999997
 31
0.0
  0
SOLID
  5
1BA
  8
0
 62
     0
 10
-13.25
 20
-41.67304687499999
 30
0.0
 11
-14.75
 21
-35.673046874999997
 31
0.0
 12
-11.75
 22
-35.673046874999997
 32
0.0
 13
-13.25
 23
-37.173046874999997
 33
0.0
  0
LINE
  5
1BB
  8
0
 62
     0
 10
-13.25
 20
-46.17304687499999
 30
0.0
 11
-13.25
 21
-51.17304687499999
 31
0.0
  0
SOLID
  5
1BC
  8
0
 62
     0
 10
-13.25
 20
-46.17304687499999
 30
0.0
 11
-11.75
 21
-52.173046874999997
 31
0.0
 12
-14.75
 22
-52.173046874999997
 32
0.0
 13
-13.25
 23
-50.673046874999997
 33
0.0
  0
ENDBLK
  5
1BD
  8
0
  0
BLOCK
  8
0
  2
*D13
 70
     1
 10
0.0
 20
0.0
 30
0.0
  3
*D13
  1

  0
TEXT
  5
1EE
  8
0
 62
     0
 10
-125.1906249821
 20
-56.996030086499999
 30
0.0
 40
1.3493749797000001
  1
90%%d
  0
ARC
  5
1EF
  8
0
 62
     0
 10
-124.0
 20
-40.92304687499999
 30
0.0
 40
16.787358200700002
 50
309.29829454970002
 51
315.0
  0
ARC
  5
1F0
  8
0
 62
     0
 10
-124.0
 20
-40.92304687499999
 30
0.0
 40
16.787358200700002
 50
225.0
 51
230.70170545030001
  0
SOLID
  5
1F1
  8
0
 62
     0
 10
-135.87045482190001
 20
-52.793501696899988
 30
0.0
 11
-137.2153719268
 21
-52.017098458299991
 31
0.0
 12
-136.6468580605999
 22
-51.448584591999989
 32
0.0
 13
-136.66594995080001
 23
-51.998006568100003
 33
0.0
  0
SOLID
  5
1F2
  8
0
 62
     0
 10
-112.1295451781
 20
-52.793501696899988
 30
0.0
 11
-111.3531419394
 21
-51.448584591999989
 31
0.0
 12
-110.7846280732
 22
-52.017098458299991
 32
0.0
 13
-111.3340500492
 23
-51.998006568100003
 33
0.0
  0
ARC
  5
1F3
  8
0
 62
     0
 10
-124.0
 20
-40.92304687499999
 30
0.0
 40
16.787358200700002
 50
225.0
 51
261.89249121990002
  0
ARC
  5
1F4
  8
0
 62
     0
 10
-124.0
 20
-40.92304687499999
 30
0.0
 40
16.787358200700002
 50
278.10750878009998
 51
315.0
  0
LINE
  5
1F5
  8
0
 62
     0
 10
-129.9571067812
 20
-46.880153656200001
 30
0.0
 11
-136.57756160310001
 21
-53.500608478099998
 31
0.0
  0
LINE
  5
1F6
  8
0
 62
     0
 10
-118.0428932188
 20
-46.880153656200001
 30
0.0
 11
-111.42243839690001
 21
-53.500608478099998
 31
0.0
  0
ENDBLK
  5
1F7
  8
0
  0
BLOCK
  8
0
  2
*D14
 70
     1
 10
0.0
 20
0.0
 30
0.0
  3
*D14
  1

  0
TEXT
  5
1FC
  8
0
 62
     0
 10
-125.98437497019999
 20
-52.152552188100003
 30
0.0
 40
1.3493749797000001
  1
%%c6.5
  0
LINE
  5
1FD
  8
0
 62
     0
 10
-127.25
 20
-46.17304687499999
 30
0.0
 11
-127.25
 21
-55.390677184600001
 31
0.0
  0
LINE
  5
1FE
  8
0
 62
     0
 10
-120.75
 20
-46.17304687499999
 30
0.0
 11
-120.75
 21
-55.390677184600001
 31
0.0
  0
LINE
  5
1FF
  8
0
 62
     0
 10
-127.25
 20
-53.390677184600001
 30
0.0
 11
-121.2218750417
 21
-53.390677184600001
 31
0.0
  0
LINE
  5
200
  8
0
 62
     0
 10
-127.25
 20
-53.390677184600001
 30
0.0
 11
-126.7781249583
 21
-53.390677184600001
 31
0.0
  0
LINE
  5
201
  8
0
 62
     0
 10
-120.75
 20
-53.390677184600001
 30
0.0
 11
-121.2218750417
 21
-53.390677184600001
 31
0.0
  0
LINE
  5
202
  8
0
 62
     0
 10
-120.75
 20
-53.390677184600001
 30
0.0
 11
-126.7781249583
 21
-53.390677184600001
 31
0.0
  0
LINE
  5
203
  8
0
 62
     0
 10
-120.75
 20
-53.390677184600001
 30
0.0
 11
-115.75
 21
-53.390677184600001
 31
0.0
  0
SOLID
  5
204
  8
0
 62
     0
 10
-120.75
 20
-53.390677184600001
 30
0.0
 11
-119.25
 21
-52.988677174599999
 31
0.0
 12
-119.25
 22
-53.792677194600003
 32
0.0
 13
-119.625
 23
-53.390677184600001
 33
0.0
  0
LINE
  5
205
  8
0
 62
     0
 10
-127.25
 20
-53.390677184600001
 30
0.0
 11
-132.25
 21
-53.390677184600001
 31
0.0
  0
SOLID
  5
206
  8
0
 62
     0
 10
-127.25
 20
-53.390677184600001
 30
0.0
 11
-128.75
 21
-53.792677194600003
 31
0.0
 12
-128.75
 22
-52.988677174599999
 32
0.0
 13
-128.375
 23
-53.390677184600001
 33
0.0
  0
ENDBLK
  5
207
  8
0
  0
BLOCK
  8
0
  2
*D15
 70
     1
 10
0.0
 20
0.0
 30
0.0
  3
*D15
  1

  0
TEXT
  5
20B
  8
0
 62
     0
 10
-125.1906249821
 20
-31.380043691899999
 30
0.0
 40
1.3493749797000001
  1
90%%d
  0
ARC
  5
20C
  8
0
 62
     0
 10
-124.0
 20
-46.923046874999997
 30
0.0
 40
14.8286281938
 50
128.45007681979999
 51
135.0
  0
ARC
  5
20D
  8
0
 62
     0
 10
-124.0
 20
-46.923046874999997
 30
0.0
 40
14.8286281938
 50
45.0
 51
51.549923180199997
  0
SOLID
  5
20E
  8
0
 62
     0
 10
-113.51457644849999
 20
-36.437623323400011
 30
0.0
 11
-112.1696593436
 21
-37.214026562100003
 31
0.0
 12
-112.7381732098
 22
-37.782540428300003
 32
0.0
 13
-112.71908131959999
 23
-37.233118452299998
 33
0.0
  0
SOLID
  5
20F
  8
0
 62
     0
 10
-134.48542355160001
 20
-36.437623323400011
 30
0.0
 11
-135.26182679019999
 21
-37.782540428300003
 31
0.0
 12
-135.83034065640001
 22
-37.214026562100003
 32
0.0
 13
-135.28091868039999
 23
-37.233118452299998
 33
0.0
  0
ARC
  5
210
  8
0
 62
     0
 10
-124.0
 20
-46.923046874999997
 30
0.0
 40
14.8286281938
 50
45.0
 51
82.213186762400014
  0
ARC
  5
211
  8
0
 62
     0
 10
-124.0
 20
-46.923046874999997
 30
0.0
 40
14.8286281938
 50
97.786813237600001
 51
135.0
  0
LINE
  5
212
  8
0
 62
     0
 10
-118.0428932188
 20
-40.9659400938
 30
0.0
 11
-112.8074696673
 21
-35.730516542300002
 31
0.0
  0
LINE
  5
213
  8
0
 62
     0
 10
-129.9571067812
 20
-40.9659400938
 30
0.0
 11
-135.19253033269999
 21
-35.730516542300002
 31
0.0
  0
ENDBLK
  5
214
  8
0
  0
BLOCK
  8
0
  2
*D16
 70
     1
 10
0.0
 20
0.0
 30
0.0
  3
*D16
  1

  0
TEXT
  5
218
  8
0
 62
     0
 10
-126.38124996419999
 20
-35.434921878600001
 30
0.0
 40
1.3493749797000001
  1
%%c10.5
  0
LINE
  5
219
  8
0
 62
     0
 10
-118.75
 20
-39.673046874999997
 30
0.0
 11
-118.75
 21
-34.673046874999997
 31
0.0
  0
LINE
  5
21A
  8
0
 62
     0
 10
-129.25
 20
-39.673046874999997
 30
0.0
 11
-129.25
 21
-34.673046874999997
 31
0.0
  0
LINE
  5
21B
  8
0
 62
     0
 10
-118.75
 20
-36.673046874999997
 30
0.0
 11
-120.8250000477
 21
-36.673046874999997
 31
0.0
  0
LINE
  5
21C
  8
0
 62
     0
 10
-118.75
 20
-36.673046874999997
 30
0.0
 11
-127.1749999523
 21
-36.673046874999997
 31
0.0
  0
LINE
  5
21D
  8
0
 62
     0
 10
-129.25
 20
-36.673046874999997
 30
0.0
 11
-120.8250000477
 21
-36.673046874999997
 31
0.0
  0
LINE
  5
21E
  8
0
 62
     0
 10
-129.25
 20
-36.673046874999997
 30
0.0
 11
-127.1749999523
 21
-36.673046874999997
 31
0.0
  0
LINE
  5
21F
  8
0
 62
     0
 10
-129.25
 20
-36.673046874999997
 30
0.0
 11
-124.25
 21
-36.673046874999997
 31
0.0
  0
SOLID
  5
220
  8
0
 62
     0
 10
-129.25
 20
-36.673046874999997
 30
0.0
 11
-127.75
 21
-36.271046865000002
 31
0.0
 12
-127.75
 22
-37.075046884999999
 32
0.0
 13
-128.125
 23
-36.673046874999997
 33
0.0
  0
LINE
  5
221
  8
0
 62
     0
 10
-118.75
 20
-36.673046874999997
 30
0.0
 11
-123.75
 21
-36.673046874999997
 31
0.0
  0
SOLID
  5
222
  8
0
 62
     0
 10
-118.75
 20
-36.673046874999997
 30
0.0
 11
-120.25
 21
-37.075046884999999
 31
0.0
 12
-120.25
 22
-36.271046865000002
 32
0.0
 13
-119.875
 23
-36.673046874999997
 33
0.0
  0
ENDBLK
  5
223
  8
0
  0
BLOCK
  8
0
  2
*D17
 70
     1
 10
0.0
 20
0.0
 30
0.0
  3
*D17
  1

  0
TEXT
  5
227
  8
0
 62
     0
 10
-99.2916665077
 20
-64.114713573499984
 30
0.0
 40
5.9972220420999998
  1
120
  0
LINE
  5
228
  8
0
 62
     0
 10
-154.0
 20
-42.673046874999997
 30
0.0
 11
-154.0
 21
-67.173046874999997
 31
0.0
  0
LINE
  5
229
  8
0
 62
     0
 10
-34.0
 20
-48.173046874999997
 30
0.0
 11
-34.0
 21
-67.173046874999997
 31
0.0
  0
LINE
  5
22A
  8
0
 62
     0
 10
-154.0
 20
-66.173046874999983
 30
0.0
 11
-85.180555820500004
 21
-66.173046874999983
 31
0.0
  0
LINE
  5
22B
  8
0
 62
     0
 10
-154.0
 20
-66.173046874999983
 30
0.0
 11
-102.8194441795
 21
-66.173046874999983
 31
0.0
  0
LINE
  5
22C
  8
0
 62
     0
 10
-34.0
 20
-66.173046874999983
 30
0.0
 11
-85.180555820500004
 21
-66.173046874999983
 31
0.0
  0
LINE
  5
22D
  8
0
 62
     0
 10
-34.0
 20
-66.173046874999983
 30
0.0
 11
-102.8194441795
 21
-66.173046874999983
 31
0.0
  0
LINE
  5
22E
  8
0
 62
     0
 10
-34.0
 20
-66.173046874999983
 30
0.0
 11
-39.0
 21
-66.173046874999983
 31
0.0
  0
SOLID
  5
22F
  8
0
 62
     0
 10
-34.0
 20
-66.173046874999983
 30
0.0
 11
-40.0
 21
-67.673046874999997
 31
0.0
 12
-40.0
 22
-64.673046874999997
 32
0.0
 13
-38.5
 23
-66.173046874999983
 33
0.0
  0
LINE
  5
230
  8
0
 62
     0
 10
-154.0
 20
-66.173046874999983
 30
0.0
 11
-149.0
 21
-66.173046874999983
 31
0.0
  0
SOLID
  5
231
  8
0
 62
     0
 10
-154.0
 20
-66.173046874999983
 30
0.0
 11
-148.0
 21
-64.673046874999997
 31
0.0
 12
-148.0
 22
-67.673046874999997
 32
0.0
 13
-149.5
 23
-66.173046874999983
 33
0.0
  0
ENDBLK
  5
232
  8
0
  0
BLOCK
  8
0
  2
*D18
 70
     1
 10
0.0
 20
0.0
 30
0.0
  3
*D18
  1

  0
TEXT
  5
23B
  8
0
 62
     0
 10
-7.687796336199999
 20
159.77896051409999
 30
0.0
 40
5.9972220420999998
  1
4-R 5
  0
LINE
  5
23C
  8
0
 62
     0
 10
-8.6310562700000002
 20
158.72062721250001
 30
0.0
 11
20.5344250383
 21
158.72062721250001
 31
0.0
  0
LINE
  5
23D
  8
0
 62
     0
 10
-34.669872981099999
 20
143.68710937500001
 30
0.0
 11
-8.6310562700000002
 21
158.72062721250001
 31
0.0
  0
SOLID
  5
23E
  8
0
 62
     0
 10
-34.669872981099999
 20
143.68710937500001
 30
0.0
 11
-30.2237205584
 21
147.9861474807
 31
0.0
 12
-28.7237205584
 22
145.38807126930001
 32
0.0
 13
-30.772758664000001
 23
145.93710937500001
 33
0.0
  0
ENDBLK
  5
23F
  8
0
  0
BLOCK
  8
0
  2
*D19
 70
     1
 10
0.0
 20
0.0
 30
0.0
  3
*D19
  1

  0
TEXT
  5
245
  8
0
 62
     0
 10
-120.52719593579999
 20
0.5904821107
 30
0.0
 40
5.9972220420999998
  1
90%%d
 50
319.64077260300002
  0
ARC
  5
246
  8
0
 62
     0
 10
-149.5
 20
-41.67304687499999
 30
0.0
 40
47.791925873099999
 50
80.397535009799995
 51
90.0
  0
ARC
  5
247
  8
0
 62
     0
 10
-149.5
 20
-41.67304687499999
 30
0.0
 40
47.791925873099999
 50
0.0
 51
9.6024649901999997
  0
SOLID
  5
248
  8
0
 62
     0
 10
-101.7080741269
 20
-41.67304687499999
 30
0.0
 11
-100.2080741269
 21
-47.673046874999997
 31
0.0
 12
-103.2080741269
 22
-47.673046874999997
 32
0.0
 13
-101.7080741269
 23
-46.17304687499999
 33
0.0
  0
SOLID
  5
249
  8
0
 62
     0
 10
-149.5
 20
6.1188789980999987
 30
0.0
 11
-155.5
 21
4.6188789980999996
 31
0.0
 12
-155.5
 22
7.6188789980999987
 32
0.0
 13
-154.0
 23
6.1188789980999987
 33
0.0
  0
ARC
  5
24A
  8
0
 62
     0
 10
-149.5
 20
-41.67304687499999
 30
0.0
 40
47.791925873099999
 50
0.0
 51
38.8743531573
  0
ARC
  5
24B
  8
0
 62
     0
 10
-149.5
 20
-41.67304687499999
 30
0.0
 40
47.791925873099999
 50
60.407192048700011
 51
90.0
  0
LINE
  5
24C
  8
0
 62
     0
 10
-38.0
 20
-41.67304687499999
 30
0.0
 11
-105.7080741269
 21
-41.67304687499999
 31
0.0
  0
LINE
  5
24D
  8
0
 62
     0
 10
-149.5
 20
39.826953125000003
 30
0.0
 11
-149.5
 21
2.1188789981
 31
0.0
  0
ENDBLK
  5
24E
  8
0
  0
BLOCK
  8
0
  2
*D20
 70
     1
 10
0.0
 20
0.0
 30
0.0
  3
*D20
  1

  0
TEXT
  5
252
  8
0
 62
     0
 10
-176.0583333015
 20
-4.7008245467999989
 30
0.0
 40
5.9972220420999998
  1
90
 50
90.0
  0
LINE
  5
253
  8
0
 62
     0
 10
-156.0
 20
43.826953125000003
 30
0.0
 11
-175.0
 21
43.826953125000003
 31
0.0
  0
LINE
  5
254
  8
0
 62
     0
 10
-150.5
 20
-46.17304687499999
 30
0.0
 11
-175.0
 21
-46.17304687499999
 31
0.0
  0
LINE
  5
255
  8
0
 62
     0
 10
-174.0
 20
43.826953125000003
 30
0.0
 11
-174.0
 21
5.8825084686000002
 31
0.0
  0
LINE
  5
256
  8
0
 62
     0
 10
-174.0
 20
43.826953125000003
 30
0.0
 11
-174.0
 21
-8.2286022186000007
 31
0.0
  0
LINE
  5
257
  8
0
 62
     0
 10
-174.0
 20
-46.17304687499999
 30
0.0
 11
-174.0
 21
5.8825084686000002
 31
0.0
  0
LINE
  5
258
  8
0
 62
     0
 10
-174.0
 20
-46.17304687499999
 30
0.0
 11
-174.0
 21
-8.2286022186000007
 31
0.0
  0
LINE
  5
259
  8
0
 62
     0
 10
-174.0
 20
-46.17304687499999
 30
0.0
 11
-174.0
 21
-41.17304687499999
 31
0.0
  0
SOLID
  5
25A
  8
0
 62
     0
 10
-174.0
 20
-46.17304687499999
 30
0.0
 11
-175.5
 21
-40.173046874999997
 31
0.0
 12
-172.5
 22
-40.173046874999997
 32
0.0
 13
-174.0
 23
-41.67304687499999
 33
0.0
  0
LINE
  5
25B
  8
0
 62
     0
 10
-174.0
 20
43.826953125000003
 30
0.0
 11
-174.0
 21
38.826953125000003
 31
0.0
  0
SOLID
  5
25C
  8
0
 62
     0
 10
-174.0
 20
43.826953125000003
 30
0.0
 11
-172.5
 21
37.826953125000003
 31
0.0
 12
-175.5
 22
37.826953125000003
 32
0.0
 13
-174.0
 23
39.326953125000003
 33
0.0
  0
ENDBLK
  5
25D
  8
0
  0
BLOCK
  8
0
  2
*D21
 70
     1
 10
0.0
 20
0.0
 30
0.0
  3
*D21
  1

  0
LINE
  5
3C3
  8
寸法線
 62
     0
 10
79.26894269280092
 20
-10.438610004925721
 30
0.0
 11
79.26894269280092
 21
-40.021631267514969
 31
0.0
  0
LINE
  5
3C4
  8
寸法線
 62
     0
 10
92.268942692800934
 20
-10.438610004925721
 30
0.0
 11
92.268942692800934
 21
-40.021631267514969
 31
0.0
  0
LINE
  5
3C5
  8
寸法線
 62
     0
 10
85.268942692800906
 20
-39.021631267514977
 30
0.0
 11
86.268942692800906
 21
-39.021631267514977
 31
0.0
  0
LINE
  5
3C6
  8
寸法線
 62
     0
 10
92.268942692800934
 20
-39.021631267514977
 30
0.0
 11
98.26894269280092
 21
-39.021631267514977
 31
0.0
  0
SOLID
  5
3C7
  8
寸法線
 62
     0
 10
85.268942692800906
 20
-38.021631267514977
 30
0.0
 11
85.268942692800906
 21
-40.021631267514969
 31
0.0
 12
79.26894269280092
 22
-39.021631267514977
 32
0.0
 13
79.26894269280092
 23
-39.021631267514977
 33
0.0
  0
SOLID
  5
3C8
  8
寸法線
 62
     0
 10
86.268942692800906
 20
-38.021631267514977
 30
0.0
 11
86.268942692800906
 21
-40.021631267514969
 31
0.0
 12
92.268942692800934
 22
-39.021631267514977
 32
0.0
 13
92.268942692800934
 23
-39.021631267514977
 33
0.0
  0
INSERT
  5
3C9
  8
0
  6
CONTINUOUS
  2
*U62
 10
0.0
 20
0.0
 30
0.0
  0
POINT
  5
3CA
  8
DEFPOINTS
 62
     0
 10
79.26894269280092
 20
-10.376110004925721
 30
0.0
  0
POINT
  5
3CB
  8
DEFPOINTS
 62
     0
 10
92.268942692800934
 20
-10.376110004925721
 30
0.0
  0
POINT
  5
3CC
  8
DEFPOINTS
 62
     0
 10
92.268942692800934
 20
-39.021631267514977
 30
0.0
  0
ENDBLK
  5
293
  8
0
  0
BLOCK
  8
0
  2
*D22
 70
     1
 10
0.0
 20
0.0
 30
0.0
  3
*D22
  1

  0
LINE
  5
499
  8
寸法線
 62
     0
 10
97.373797038425096
 20
-4.2712556593015663
 30
0.0
 11
127.5070359915517
 21
25.86198329382507
 31
0.0
  0
LINE
  5
49A
  8
寸法線
 62
     0
 10
74.164088347176744
 20
-4.2712556593015663
 30
0.0
 11
44.030849394050058
 21
25.86198329382507
 31
0.0
  0
ARC
  5
49B
  8
寸法線
 62
     0
 10
85.76894269280092
 20
-15.876110004925721
 30
0.0
 40
58.026577610687013
 50
50.927077275752978
 51
79.290358886043123
  0
ARC
  5
49C
  8
寸法線
 62
     0
 10
85.76894269280092
 20
-15.876110004925721
 30
0.0
 40
58.026577610687013
 50
97.507189746778934
 51
129.07292272424701
  0
SOLID
  5
49D
  8
寸法線
 62
     0
 10
123.0132194378486
 20
29.915215691597052
 30
0.0
 11
121.6740126648089
 21
28.429777971918231
 31
0.0
 12
126.79992921036521
 22
25.15487651263852
 32
0.0
 13
126.79992921036521
 23
25.15487651263852
 33
0.0
  0
SOLID
  5
49E
  8
寸法線
 62
     0
 10
49.863872720792891
 20
28.429777971918231
 30
0.0
 11
48.524665947753199
 21
29.915215691597052
 31
0.0
 12
44.737956175236597
 22
25.154876512638531
 32
0.0
 13
44.737956175236597
 23
25.154876512638531
 33
0.0
  0
TEXT
  8
寸法線
  40
5.99722
  5
4B7
  62
0
  72
0
  71
0
 10
75.3959
 20
31.5127
 30
0.000000
  1
90°
  0
POINT
  5
4A0
  8
DEFPOINTS
 62
     0
 10
85.76894269280092
 20
-15.876110004925721
 30
0.0
  0
POINT
  5
4A1
  8
DEFPOINTS
 62
     0
 10
97.329602864600929
 20
-4.3154498331257249
 30
0.0
  0
POINT
  5
4A2
  8
DEFPOINTS
 62
     0
 10
74.208282521000896
 20
-4.3154498331257241
 30
0.0
  0
POINT
  5
4A3
  8
DEFPOINTS
 62
     0
 10
70.750559285035592
 20
40.173259920403879
 30
0.0
  0
ENDBLK
  5
2A1
  8
0
  0
BLOCK
  8
0
  2
*D23
 70
     1
 10
0.0
 20
0.0
 30
0.0
  3
*D23
  1

  0
LINE
  5
3CD
  8
寸法線
 62
     0
 10
96.268942692800934
 20
-5.31361000492572
 30
0.0
 11
96.268942692800934
 21
22.361220461105969
 31
0.0
  0
LINE
  5
3CE
  8
寸法線
 62
     0
 10
75.268942692800906
 20
-5.31361000492572
 30
0.0
 11
75.268942692800906
 21
22.361220461105969
 31
0.0
  0
LINE
  5
3CF
  8
寸法線
 62
     0
 10
102.26894269280091
 20
21.361220461105969
 30
0.0
 11
108.26894269280091
 21
21.361220461105969
 31
0.0
  0
LINE
  5
3D0
  8
寸法線
 62
     0
 10
69.26894269280092
 20
21.361220461105969
 30
0.0
 11
63.26894269280092
 21
21.361220461105969
 31
0.0
  0
SOLID
  5
3D1
  8
寸法線
 62
     0
 10
102.26894269280091
 20
22.361220461105969
 30
0.0
 11
102.26894269280091
 21
20.361220461105969
 31
0.0
 12
96.268942692800934
 22
21.361220461105969
 32
0.0
 13
96.268942692800934
 23
21.361220461105969
 33
0.0
  0
SOLID
  5
3D2
  8
寸法線
 62
     0
 10
69.26894269280092
 20
22.361220461105969
 30
0.0
 11
69.26894269280092
 21
20.361220461105969
 31
0.0
 12
75.268942692800906
 22
21.361220461105969
 32
0.0
 13
75.268942692800906
 23
21.361220461105969
 33
0.0
  0
INSERT
  5
3D3
  8
0
  6
CONTINUOUS
  2
*U63
 10
0.0
 20
0.0
 30
0.0
  0
POINT
  5
3D4
  8
DEFPOINTS
 62
     0
 10
96.268942692800934
 20
-5.37611000492572
 30
0.0
  0
POINT
  5
3D5
  8
DEFPOINTS
 62
     0
 10
75.268942692800906
 20
-5.37611000492572
 30
0.0
  0
POINT
  5
3D6
  8
DEFPOINTS
 62
     0
 10
75.268942692800906
 20
21.361220461105969
 30
0.0
  0
ENDBLK
  5
2AE
  8
0
  0
BLOCK
  8
0
  2
*D24
 70
     1
 10
0.0
 20
0.0
 30
0.0
  3
*D24
  1

  0
LINE
  5
4A4
  8
寸法線
 62
     0
 10
74.164088347176744
 20
-15.48096435054989
 30
0.0
 11
48.868646169763998
 21
-40.776406527962642
 31
0.0
  0
LINE
  5
4A5
  8
寸法線
 62
     0
 10
97.373797038425081
 20
-15.48096435054989
 30
0.0
 11
122.66923921583781
 21
-40.776406527962642
 31
0.0
  0
ARC
  5
4A6
  8
寸法線
 62
     0
 10
85.768942692800906
 20
-3.87611000492572
 30
0.0
 40
51.184899798467583
 50
231.72018132009239
 51
262.55111085731971
  0
ARC
  5
4A7
  8
寸法線
 62
     0
 10
85.768942692800906
 20
-3.87611000492572
 30
0.0
 40
51.184899798467583
 50
283.22805587351252
 51
308.27981867990758
  0
SOLID
  5
4A8
  8
寸法線
 62
     0
 10
53.395318731497582
 20
-44.803316777594027
 30
0.0
 11
54.724212591192739
 21
-43.308645874129169
 31
0.0
 12
49.575752950950552
 22
-40.06929974677611
 32
0.0
 13
49.575752950950552
 23
-40.06929974677611
 33
0.0
  0
SOLID
  5
4A9
  8
寸法線
 62
     0
 10
116.8136727944091
 20
-43.308645874129162
 30
0.0
 11
118.1425666541042
 21
-44.80331677759402
 31
0.0
 12
121.96213243465129
 22
-40.06929974677611
 32
0.0
 13
121.96213243465129
 23
-40.06929974677611
 33
0.0
  0
TEXT
  8
寸法線
  40
5.99722
  5
4B8
  62
0
  72
0
  71
0
 10
76.3548
 20
-65.6110
 30
0.000000
  1
90°
  0
POINT
  5
4AB
  8
DEFPOINTS
 62
     0
 10
85.768942692800906
 20
-3.87611000492572
 30
0.0
  0
POINT
  5
4AC
  8
DEFPOINTS
 62
     0
 10
74.20828252100091
 20
-15.436770176725719
 30
0.0
  0
POINT
  5
4AD
  8
DEFPOINTS
 62
     0
 10
97.329602864600929
 20
-15.43677017672573
 30
0.0
  0
POINT
  5
4AE
  8
DEFPOINTS
 62
     0
 10
72.521315803293334
 20
-53.316926636283689
 30
0.0
  0
ENDBLK
  5
2BC
  8
0
  0
BLOCK
  8
0
  2
*U25
 70
     1
 10
0.0
 20
0.0
 30
0.0
  3
*U25
  1

  0
TEXT
  5
3E8
  8
図枠
  6
CONTINUOUS
 10
257.42170836064719
 20
207.72920385212231
 30
0.0
 40
5.3969601688999989
  1
検認者
  0
ENDBLK
  5
3EA
  8
0
  0
BLOCK
  8
0
  2
*U26
 70
     1
 10
0.0
 20
0.0
 30
0.0
  3
*U26
  1

  0
TEXT
  5
3EC
  8
図枠
  6
CONTINUOUS
 10
237.50589557134111
 20
207.75659958902031
 30
0.0
 40
5.3969601688999989
  1
改訂者
  0
ENDBLK
  5
3EE
  8
0
  0
BLOCK
  8
0
  2
*U27
 70
     1
 10
0.0
 20
0.0
 30
0.0
  3
*U27
  1

  0
TEXT
  5
3F0
  8
図枠
  6
CONTINUOUS
 10
90.767290393750514
 20
207.86618253661209
 30
0.0
 40
5.3969601688999989
  1
副番
  0
ENDBLK
  5
3F2
  8
0
  0
BLOCK
  8
0
  2
*U28
 70
     1
 10
0.0
 20
0.0
 30
0.0
  3
*U28
  1

  0
TEXT
  5
3F4
  8
図枠
  6
CONTINUOUS
 10
111.2308403339124
 20
207.81139106281631
 30
0.0
 40
5.3969601688999989
  1
改訂日
  0
ENDBLK
  5
3F6
  8
0
  0
BLOCK
  8
0
  2
*U29
 70
     1
 10
0.0
 20
0.0
 30
0.0
  3
*U29
  1

  0
TEXT
  5
3F8
  8
図枠
  6
CONTINUOUS
 10
163.37569533198879
 20
207.75659958902031
 30
0.0
 40
5.3969601688999989
  1
改　訂　内　容
  0
ENDBLK
  5
3FA
  8
0
  0
BLOCK
  8
0
  2
*U30
 70
     1
 10
0.0
 20
0.0
 30
0.0
  3
*U30
  1

  0
TEXT
  5
3FC
  8
図枠
  6
CONTINUOUS
 10
105.51953953909999
 20
-137.007081403435
 30
0.0
 40
4.6745324999999989
  1
 照査
  0
ENDBLK
  5
3FE
  8
0
  0
BLOCK
  8
0
  2
*U31
 70
     1
 10
0.0
 20
0.0
 30
0.0
  3
*U31
  1

  0
TEXT
  5
400
  8
図枠
  6
CONTINUOUS
 10
166.09235221041979
 20
-136.5723271040645
 30
0.0
 40
4.6745324999999989
  1
図面名
  0
ENDBLK
  5
402
  8
0
  0
BLOCK
  8
0
  2
*U32
 70
     1
 10
0.0
 20
0.0
 30
0.0
  3
*U32
  1

  0
TEXT
  5
404
  8
ﾚｲﾔ_1
  6
CONTINUOUS
 10
64.582984903799996
 20
-67.444276585492901
 30
0.0
 40
5.9972220420999998
  1
皿加工部詳細
  0
ENDBLK
  5
406
  8
0
  0
BLOCK
  8
0
  2
*U33
 70
     1
 10
0.0
 20
0.0
 30
0.0
  3
*U33
  1

  0
TEXT
  5
408
  8
図枠
  6
CONTINUOUS
 10
163.1328133764375
 20
-88.835502193562959
 30
0.0
 40
5.6094389188999987
  1
板　　厚
  0
ENDBLK
  5
40A
  8
0
  0
BLOCK
  8
0
  2
*U34
 70
     1
 10
0.0
 20
0.0
 30
0.0
  3
*U34
  1

  0
TEXT
  5
40C
  8
図枠
  6
CONTINUOUS
 10
55.664309824632987
 20
-119.8901384465822
 30
0.0
 40
4.6745324999999989
  1
日 　付
  0
ENDBLK
  5
40E
  8
0
  0
BLOCK
  8
0
  2
*U35
 70
     1
 10
0.0
 20
0.0
 30
0.0
  3
*U35
  1

  0
TEXT
  5
410
  8
図枠
  6
CONTINUOUS
 10
165.96184495788171
 20
-119.6214842868056
 30
0.0
 40
4.6745324999999989
  1
製品名
  0
ENDBLK
  5
412
  8
0
  0
BLOCK
  8
0
  2
*U36
 70
     1
 10
0.0
 20
0.0
 30
0.0
  3
*U36
  1

  0
TEXT
  5
414
  8
図枠
  6
CONTINUOUS
 10
205.7718268118401
 20
-141.79595002183041
 30
0.0
 40
5.9966223199000002
  1
LY-612 承認図
  0
ENDBLK
  5
416
  8
0
  0
BLOCK
  8
0
  2
*U37
 70
     1
 10
0.0
 20
0.0
 30
0.0
  3
*U37
  1

  0
TEXT
  5
418
  8
図枠
  6
CONTINUOUS
 10
76.30824776245025
 20
-145.41131703795281
 30
0.0
 40
4.6745324999999989
  1
園 原
  0
ENDBLK
  5
41A
  8
0
  0
BLOCK
  8
0
  2
*U38
 70
     1
 10
0.0
 20
0.0
 30
0.0
  3
*U38
  1

  0
TEXT
  5
41C
  8
図枠
  6
CONTINUOUS
 10
76.30824776245025
 20
-136.9121670379528
 30
0.0
 40
4.6745324999999989
  1
園 原
  0
ENDBLK
  5
41E
  8
0
  0
BLOCK
  8
0
  2
*U39
 70
     1
 10
0.0
 20
0.0
 30
0.0
  3
*U39
  1

  0
TEXT
  5
420
  8
図枠
  6
CONTINUOUS
 10
45.525539539099988
 20
-136.98335281206451
 30
0.0
 40
4.6745324999999989
  1
 設計
  0
ENDBLK
  5
422
  8
0
  0
BLOCK
  8
0
  2
*U40
 70
     1
 10
0.0
 20
0.0
 30
0.0
  3
*U40
  1

  0
TEXT
  5
424
  8
図枠
  6
CONTINUOUS
 10
166.06862361904919
 20
-153.5231699213233
 30
0.0
 40
4.6745324999999989
  1
図　番
  0
ENDBLK
  5
426
  8
0
  0
BLOCK
  8
0
  2
*U41
 70
     1
 10
0.0
 20
0.0
 30
0.0
  3
*U41
  1

  0
TEXT
  5
428
  8
図枠
  6
CONTINUOUS
 10
228.2273183993932
 20
-88.872249791999991
 30
0.0
 40
6.4593539188999989
  1
4.5t
  0
ENDBLK
  5
42A
  8
0
  0
BLOCK
  8
0
  2
*U42
 70
     1
 10
0.0
 20
0.0
 30
0.0
  3
*U42
  1

  0
TEXT
  5
42C
  8
図枠
  6
CONTINUOUS
 10
156.42607310483149
 20
-99.692030647397956
 30
0.0
 40
5.6094389188999987
  1
ユニクロメッキ
  0
ENDBLK
  5
42E
  8
0
  0
BLOCK
  8
0
  2
*U43
 70
     1
 10
0.0
 20
0.0
 30
0.0
  3
*U43
  1

  0
TEXT
  5
430
  8
図枠
  6
CONTINUOUS
 10
119.92200866813199
 20
-110.8333021935629
 30
0.0
 40
5.6094389188999987
  1
指定無き公差はJIS 0408-Bによること
  0
ENDBLK
  5
432
  8
0
  0
BLOCK
  8
0
  2
*U44
 70
     1
 10
0.0
 20
0.0
 30
0.0
  3
*U44
  1

  0
TEXT
  5
434
  8
図枠
  6
CONTINUOUS
 10
95.162009405851265
 20
-120.03250999480559
 30
0.0
 40
4.6745324999999989
  1
尺 　度
  0
ENDBLK
  5
436
  8
0
  0
BLOCK
  8
0
  2
*U45
 70
     1
 10
0.0
 20
0.0
 30
0.0
  3
*U45
  1

  0
TEXT
  5
438
  8
図枠
  6
CONTINUOUS
 10
57.965983187577152
 20
-128.29437408109999
 30
0.0
 40
4.6745324999999989
  1
H12.9
  0
ENDBLK
  5
43A
  8
0
  0
BLOCK
  8
0
  2
*U46
 70
     1
 10
0.0
 20
0.0
 30
0.0
  3
*U46
  1

  0
TEXT
  5
43C
  8
図枠
  6
CONTINUOUS
 10
136.1598762142269
 20
-145.52995999480561
 30
0.0
 40
4.6745324999999989
  1
柳 原
  0
ENDBLK
  5
43E
  8
0
  0
BLOCK
  8
0
  2
*U47
 70
     1
 10
0.0
 20
0.0
 30
0.0
  3
*U47
  1

  0
TEXT
  5
440
  8
図枠
  6
CONTINUOUS
 10
200.06438171041239
 20
-158.67249119300001
 30
0.0
 40
5.9966223199000002
  1
ＳＲＫ００１１９
  0
ENDBLK
  5
442
  8
0
  0
BLOCK
  8
0
  2
*U48
 70
     1
 10
0.0
 20
0.0
 30
0.0
  3
*U48
  1

  0
TEXT
  5
444
  8
図枠
  6
CONTINUOUS
 10
51.215199149520053
 20
-88.721604956630969
 30
0.0
 40
5.6094389188999987
  1
材　　質
  0
ENDBLK
  5
446
  8
0
  0
BLOCK
  8
0
  2
*U49
 70
     1
 10
0.0
 20
0.0
 30
0.0
  3
*U49
  1

  0
TEXT
  5
448
  8
図枠
  6
CONTINUOUS
 10
105.51953953909999
 20
-145.55368858617609
 30
0.0
 40
4.6745324999999989
  1
 検図
  0
ENDBLK
  5
44A
  8
0
  0
BLOCK
  8
0
  2
*U50
 70
     1
 10
0.0
 20
0.0
 30
0.0
  3
*U50
  1

  0
TEXT
  5
44C
  8
図枠
  6
CONTINUOUS
 10
136.1598762142269
 20
-137.03080999480559
 30
0.0
 40
4.6745324999999989
  1
柳 原
  0
ENDBLK
  5
44E
  8
0
  0
BLOCK
  8
0
  2
*U51
 70
     1
 10
0.0
 20
0.0
 30
0.0
  3
*U51
  1

  0
TEXT
  5
450
  8
図枠
  6
CONTINUOUS
 10
99.314512895698996
 20
-128.29437408109999
 30
0.0
 40
4.6745324999999989
  1
1：2
  0
ENDBLK
  5
452
  8
0
  0
BLOCK
  8
0
  2
*U52
 70
     1
 10
0.0
 20
0.0
 30
0.0
  3
*U52
  1

  0
TEXT
  5
454
  8
図枠
  6
CONTINUOUS
 10
204.32594071947841
 20
-125.2846853371523
 30
0.0
 40
5.9966223199000002
  1
Ｌ型ブラケット
  0
ENDBLK
  5
456
  8
0
  0
BLOCK
  8
0
  2
*U53
 70
     1
 10
0.0
 20
0.0
 30
0.0
  3
*U53
  1

  0
TEXT
  5
458
  8
図枠
  6
CONTINUOUS
 10
119.92200866813199
 20
-110.8333021935629
 30
0.0
 40
5.6094389188999987
  1
指定無き公差はJIS 0408-Bによること
  0
ENDBLK
  5
45A
  8
0
  0
BLOCK
  8
0
  2
*U54
 70
     1
 10
0.0
 20
0.0
 30
0.0
  3
*U54
  1

  0
TEXT
  5
45C
  8
図枠
  6
CONTINUOUS
 10
114.6948347867431
 20
-88.409518192999997
 30
0.0
 40
5.9966223199000002
  1
SPCC
  0
ENDBLK
  5
45E
  8
0
  0
BLOCK
  8
0
  2
*U55
 70
     1
 10
0.0
 20
0.0
 30
0.0
  3
*U55
  1

  0
TEXT
  5
460
  8
図枠
  6
CONTINUOUS
 10
51.158250531054072
 20
-99.777453575096956
 30
0.0
 40
5.6094389188999987
  1
表面処理
  0
ENDBLK
  5
462
  8
0
  0
BLOCK
  8
0
  2
*U56
 70
     1
 10
0.0
 20
0.0
 30
0.0
  3
*U56
  1

  0
TEXT
  5
464
  8
図枠
  6
CONTINUOUS
 10
48.328178028947711
 20
-145.52995999480561
 30
0.0
 40
4.6745324999999989
  1
製図
  0
ENDBLK
  5
466
  8
0
  0
BLOCK
  8
0
  2
*U57
 70
     1
 10
0.0
 20
0.0
 30
0.0
  3
*U57
  1

  0
TEXT
  5
468
  8
図枠
  6
CONTINUOUS
 10
51.300622077219039
 20
-110.8902508120289
 30
0.0
 40
5.6094389188999987
  1
一般公差
  0
ENDBLK
  5
46A
  8
0
  0
BLOCK
  8
0
  2
*U58
 70
     1
 10
0.0
 20
0.0
 30
0.0
  3
*U58
  1

  0
TEXT
  5
46C
  8
図枠
  6
CONTINUOUS
 10
53.965802877899989
 20
-160.27665562130761
 30
0.0
 40
8.6351362703000003
  1
株式会社
  0
ENDBLK
  5
46E
  8
0
  0
BLOCK
  8
0
  2
*D59
 70
     1
 10
0.0
 20
0.0
 30
0.0
  3
*D59
  1

  0
LINE
  5
470
  8
寸法線
 62
     0
 10
-129.82452425972409
 20
-46.747571134724147
 30
0.0
 11
-136.75433829840571
 21
-53.677385173405739
 31
0.0
  0
LINE
  5
471
  8
寸法線
 62
     0
 10
-118.1754757402758
 20
-46.747571134724147
 30
0.0
 11
-111.2456617015942
 21
-53.677385173405753
 31
0.0
  0
ARC
  5
472
  8
寸法線
 62
     0
 10
-124.0
 20
-40.92304687499999
 30
0.0
 40
16.787358200700002
 50
230.12125162081421
 51
262.68804967904441
  0
ARC
  5
473
  8
寸法線
 62
     0
 10
-124.0
 20
-40.92304687499999
 30
0.0
 40
16.787358200700002
 50
277.31195032095559
 51
309.87874837918571
  0
SOLID
  5
474
  8
寸法線
 62
     0
 10
-134.93216957815551
 20
-53.990214194278948
 30
0.0
 11
-134.59476472732459
 21
-53.621218304551441
 31
0.0
 12
-135.87045482192249
 22
-52.793501696922561
 32
0.0
 13
-135.87045482192249
 23
-52.793501696922561
 33
0.0
  0
SOLID
  5
475
  8
寸法線
 62
     0
 10
-113.4052352726754
 20
-53.621218304551441
 30
0.0
 11
-113.0678304218445
 21
-53.990214194278963
 31
0.0
 12
-112.12954517807739
 22
-52.793501696922569
 32
0.0
 13
-112.12954517807739
 23
-52.793501696922569
 33
0.0
  0
TEXT
  8
寸法線
  40
1.34937
  5
4B9
  62
0
  72
0
  71
0
 10
-126.699
 20
-60.0988
 30
0.000000
  1
90°
  0
POINT
  5
477
  8
DEFPOINTS
 62
     0
 10
-124.0
 20
-40.92304687499999
 30
0.0
  0
POINT
  5
478
  8
DEFPOINTS
 62
     0
 10
-129.7803300859
 20
-46.703376960900002
 30
0.0
  0
POINT
  5
479
  8
DEFPOINTS
 62
     0
 10
-118.2196699141
 20
-46.703376960900002
 30
0.0
  0
POINT
  5
47A
  8
DEFPOINTS
 62
     0
 10
-128.34488801929911
 20
-57.13838971622171
 30
0.0
  0
ENDBLK
  5
47C
  8
0
  0
BLOCK
  8
0
  2
*D60
 70
     1
 10
0.0
 20
0.0
 30
0.0
  3
*D60
  1

  0
LINE
  5
47E
  8
寸法線
 62
     0
 10
-118.1754757402758
 20
-41.09852261527584
 30
0.0
 11
-112.6306929719868
 21
-35.553739846986822
 31
0.0
  0
LINE
  5
47F
  8
寸法線
 62
     0
 10
-129.82452425972409
 20
-41.09852261527584
 30
0.0
 11
-135.3693070280132
 21
-35.553739846986822
 31
0.0
  0
ARC
  5
480
  8
寸法線
 62
     0
 10
-124.0
 20
-46.923046874999997
 30
0.0
 40
14.8286281938
 50
50.798267562752663
 51
81.715823258137505
  0
ARC
  5
481
  8
寸法線
 62
     0
 10
-124.0
 20
-46.923046874999997
 30
0.0
 40
14.8286281938
 50
98.284176741862481
 51
129.2017324372473
  0
SOLID
  5
482
  8
寸法線
 62
     0
 10
-114.4599155470864
 20
-35.246475142668316
 30
0.0
 11
-114.795134465259
 21
-35.617457995235881
 31
0.0
 12
-113.51457644847
 22
-36.43762332347
 32
0.0
 13
-113.51457644847
 23
-36.43762332347
 33
0.0
  0
SOLID
  5
483
  8
寸法線
 62
     0
 10
-133.204865534741
 20
-35.617457995235867
 30
0.0
 11
-133.54008445291359
 21
-35.246475142668309
 31
0.0
 12
-134.48542355153
 22
-36.437623323469992
 32
0.0
 13
-134.48542355153
 23
-36.437623323469992
 33
0.0
  0
TEXT
  8
寸法線
  40
1.34937
  5
4BA
  62
0
  72
0
  71
0
 10
-126.699
 20
-34.4828
 30
0.000000
  1
90°
  0
POINT
  5
485
  8
DEFPOINTS
 62
     0
 10
-124.0
 20
-46.923046874999997
 30
0.0
  0
POINT
  5
486
  8
DEFPOINTS
 62
     0
 10
-118.2196699141
 20
-41.142716789099993
 30
0.0
  0
POINT
  5
487
  8
DEFPOINTS
 62
     0
 10
-129.7803300859
 20
-41.142716789099993
 30
0.0
  0
POINT
  5
488
  8
DEFPOINTS
 62
     0
 10
-120.1620686107003
 20
-32.599691934170359
 30
0.0
  0
ENDBLK
  5
48A
  8
0
  0
BLOCK
  8
0
  2
*D61
 70
     1
 10
0.0
 20
0.0
 30
0.0
  3
*D61
  1

  0
LINE
  5
48C
  8
寸法線
 62
     0
 10
-34.0625
 20
-41.673046874999997
 30
0.0
 11
-102.9580741268739
 21
-41.673046874999983
 31
0.0
  0
LINE
  5
48D
  8
寸法線
 62
     0
 10
-149.5
 20
43.764453125000003
 30
0.0
 11
-149.5
 21
4.8688789981260641
 31
0.0
  0
ARC
  5
48E
  8
寸法線
 62
     0
 10
-149.5
 20
-41.673046874999997
 30
0.0
 40
47.791925873126061
 50
7.1978861862471337
 51
38.559352803010178
  0
ARC
  5
48F
  8
寸法線
 62
     0
 10
-149.5
 20
-41.673046874999997
 30
0.0
 40
47.791925873126061
 50
60.722192403016322
 51
82.802113813752854
  0
SOLID
  5
490
  8
寸法線
 62
     0
 10
-101.0866788968321
 20
-35.62210744644171
 30
0.0
 11
-103.0827346698803
 21
-35.747651665269132
 31
0.0
 12
-101.7080741268739
 22
-41.673046874999997
 32
0.0
 13
-101.7080741268739
 23
-41.673046874999997
 33
0.0
  0
SOLID
  5
491
  8
寸法線
 62
     0
 10
-143.57460479026921
 20
4.744218455119678
 30
0.0
 11
-143.44906057144169
 21
6.7402742281678618
 31
0.0
 12
-149.5
 22
6.1188789981260641
 32
0.0
 13
-149.5
 23
6.1188789981260641
 33
0.0
  0
TEXT
  8
寸法線
  40
5.99722
  5
4BB
  62
0
  72
0
  71
0
 10
-130.545
 20
-15.8707
 30
0.000000
  1
90°
  0
POINT
  5
493
  8
DEFPOINTS
 62
     0
 10
-149.5
 20
-41.673046874999997
 30
0.0
  0
POINT
  5
494
  8
DEFPOINTS
 62
     0
 10
-34.0
 20
-41.67304687499999
 30
0.0
  0
POINT
  5
495
  8
DEFPOINTS
 62
     0
 10
-149.5
 20
43.826953125000003
 30
0.0
  0
POINT
  5
496
  8
DEFPOINTS
 62
     0
 10
-108.11097809809
 20
-17.77708393843697
 30
0.0
  0
ENDBLK
  5
498
  8
0
  0
BLOCK
  8
0
  2
*U62
 70
     1
 10
0.0
 20
0.0
 30
0.0
  3
*U62
  1

  0
TEXT
  5
4B0
  8
寸法線
  6
CONTINUOUS
 62
     0
 10
98.358942692800923
 20
-42.020242288564972
 30
0.0
 40
5.9972220420999998
  1
φ6.5
  0
ENDBLK
  5
4B2
  8
0
  0
BLOCK
  8
0
  2
*U63
 70
     1
 10
0.0
 20
0.0
 30
0.0
  3
*U63
  1

  0
TEXT
  5
4B4
  8
寸法線
  6
CONTINUOUS
 62
     0
 10
74.338271865832581
 20
18.362609440055969
 30
0.0
 40
5.9972220420999998
  1
φ10.5
  0
ENDBLK
  5
4B6
  8
0
  0
ENDSEC
  0
SECTION
  2
ENTITIES
  0
LINE
  5
2F
  8
図枠
 62
     5
 10
96.951825624099996
 20
194.7946156029
 30
0.0
 11
92.002320624099994
 21
186.22182147059999
 31
0.0
  0
LINE
  5
30
  8
図枠
 62
     5
 10
89.521139539100005
 20
185.26033412689989
 30
0.0
 11
277.50233953909998
 21
185.26033412689989
 31
0.0
  0
LINE
  5
31
  8
図枠
 62
     5
 10
137.51633953909999
 20
185.26033412689989
 30
0.0
 11
137.51633953909999
 21
215.25733412689999
 31
0.0
  0
LINE
  5
32
  8
図枠
 62
     5
 10
237.5063395391
 20
185.26033412689989
 30
0.0
 11
237.5063395391
 21
215.25733412689999
 31
0.0
  0
LINE
  5
33
  8
図枠
 62
     5
 10
89.521139539100005
 20
205.2583341269
 30
0.0
 11
277.50233953909998
 21
205.2583341269
 31
0.0
  0
LINE
  5
34
  8
図枠
 62
     5
 10
89.521139539100005
 20
185.26033412689989
 30
0.0
 11
89.521139539100005
 21
215.25733412689999
 31
0.0
  0
LINE
  5
35
  8
図枠
 62
     5
 10
96.951825624099996
 20
204.6936256029
 30
0.0
 11
92.002320624099994
 21
196.1208314706
 31
0.0
  0
LINE
  5
36
  8
図枠
 62
     5
 10
96.951825624099996
 20
204.6936256029
 30
0.0
 11
101.9013306241
 21
196.1208314706
 31
0.0
  0
LINE
  5
37
  8
図枠
 62
     5
 10
105.51953953909999
 20
185.26033412689989
 30
0.0
 11
105.51953953909999
 21
215.25733412689999
 31
0.0
  0
INSERT
  5
38
  8
0
  6
CONTINUOUS
  2
*U25
 10
0.0
 20
0.0
 30
0.0
  0
INSERT
  5
39
  8
0
  6
CONTINUOUS
  2
*U26
 10
0.0
 20
0.0
 30
0.0
  0
LINE
  5
3A
  8
図枠
 62
     5
 10
257.50433953909999
 20
185.26033412689989
 30
0.0
 11
257.50433953909999
 21
215.25733412689999
 31
0.0
  0
INSERT
  5
3B
  8
0
  6
CONTINUOUS
  2
*U27
 10
0.0
 20
0.0
 30
0.0
  0
INSERT
  5
3C
  8
0
  6
CONTINUOUS
  2
*U28
 10
0.0
 20
0.0
 30
0.0
  0
CIRCLE
  5
3E
  8
ﾚｲﾔ_1
 62
     5
 10
78.655329865600009
 20
125.18710937500001
 30
0.0
 40
3.25
  0
CIRCLE
  5
3F
  8
ﾚｲﾔ_1
 62
     5
 10
78.655329865600009
 20
125.18710937500001
 30
0.0
 40
5.25
  0
LINE
  5
40
  8
ﾚｲﾔ_1
  6
BORDER
 62
     3
 10
78.655329865600009
 20
132.68710937500001
 30
0.0
 11
78.655329865600009
 21
117.68710937500001
 31
0.0
  0
LINE
  5
41
  8
ﾚｲﾔ_1
  6
BORDER
 62
     3
 10
86.155329865599995
 20
125.18710937500001
 30
0.0
 11
71.155329865600009
 21
125.18710937500001
 31
0.0
  0
LINE
  5
42
  8
ﾚｲﾔ_1
 62
     5
 10
148.65532986560001
 20
105.18710937500001
 30
0.0
 11
60.655329865600002
 21
105.18710937500001
 31
0.0
  0
LINE
  5
43
  8
ﾚｲﾔ_1
 62
     5
 10
60.655329865600002
 20
145.18710937500001
 30
0.0
 11
148.65532986560001
 21
145.18710937500001
 31
0.0
  0
ARC
  5
44
  8
ﾚｲﾔ_1
 62
     5
 10
63.655329865600002
 20
141.18710937500001
 30
0.0
 40
5.0
 50
126.86989764579999
 51
179.99999965449999
  0
ARC
  5
45
  8
ﾚｲﾔ_1
 62
     5
 10
63.655329865600002
 20
109.18710937500001
 30
0.0
 40
5.0
 50
180.00000034550001
 51
233.13010235420001
  0
LINE
  5
46
  8
ﾚｲﾔ_1
 62
     5
 10
58.655329865600002
 20
141.1871094052
 30
0.0
 11
58.655329865600002
 21
109.18710934480001
 31
0.0
  0
LINE
  5
47
  8
ﾚｲﾔ_1
  6
BORDER
 62
     3
 10
153.42326772620001
 20
125.18710937500001
 30
0.0
 11
140.0548466736
 21
125.18710937500001
 31
0.0
  0
LINE
  5
48
  8
ﾚｲﾔ_1
  6
STITCH
 10
146.65532986560001
 20
121.93710937500001
 30
0.0
 11
146.1553298655999
 21
121.93710937500001
 31
0.0
  0
LINE
  5
49
  8
ﾚｲﾔ_1
  6
STITCH
 10
146.65532986560001
 20
128.43710937500001
 30
0.0
 11
146.1553298655999
 21
128.43710937500001
 31
0.0
  0
LINE
  5
4A
  8
ﾚｲﾔ_1
  6
STITCH
 10
146.1553298655999
 20
128.43710937500001
 30
0.0
 11
146.1553298655999
 21
121.93710937500001
 31
0.0
  0
LINE
  5
4B
  8
ﾚｲﾔ_1
  6
STITCH
 10
146.65532986560001
 20
121.93710937500001
 30
0.0
 11
146.65532986560001
 21
128.43710937500001
 31
0.0
  0
DIMENSION
  5
5C
  8
寸法線
  2
*D0
 10
118.6553298656
 20
85.187109375000006
 30
0.0
 11
133.65532986560001
 21
85.187109375000006
 31
0.0
 70
   128
  1
<>
 13
118.6553298656
 23
117.68710937500001
 33
0.0
 14
148.65532986560001
 24
105.18710937500001
 34
0.0
 50
180.0
  0
DIMENSION
  5
6B
  8
寸法線
  2
*D1
 10
78.655329865600009
 20
85.187109375000006
 30
0.0
 11
98.655329865599995
 21
85.187109375000006
 31
0.0
 70
   128
  1
<>
 13
78.655329865600009
 23
117.68710937500001
 33
0.0
 14
118.6553298656
 24
117.68710937500001
 34
0.0
 50
180.0
  0
DIMENSION
  5
7A
  8
寸法線
  2
*D2
 10
58.655329865600002
 20
85.187109375000006
 30
0.0
 11
68.655329865600009
 21
85.187109375000006
 31
0.0
 70
   128
  1
<>
 13
58.655329865600002
 23
105.18710937500001
 33
0.0
 14
78.655329865600009
 24
117.68710937500001
 34
0.0
 50
180.0
  0
DIMENSION
  5
89
  8
寸法線
  2
*D3
 10
192.7171155444
 20
105.18710937500001
 30
0.0
 11
192.7171155444
 21
125.18710937500001
 31
0.0
 70
   128
  1
<>
 13
148.65532986560001
 23
105.18710937500001
 33
0.0
 14
148.65532986560001
 24
145.18710937500001
 34
0.0
 50
90.0
  0
DIMENSION
  5
98
  8
寸法線
  2
*D4
 10
173.4232677261999
 20
105.18710937500001
 30
0.0
 11
173.4232677261999
 21
115.18710937500001
 31
0.0
 70
   128
  1
<>
 13
148.65532986560001
 23
105.18710937500001
 33
0.0
 14
153.42326772620001
 24
125.18710937500001
 34
0.0
 50
90.0
  0
DIMENSION
  5
A7
  8
寸法線
  2
*D5
 10
173.4232677261999
 20
125.18710937500001
 30
0.0
 11
173.4232677261999
 21
135.18710937500001
 31
0.0
 70
   128
  1
<>
 13
153.42326772620001
 23
125.18710937500001
 33
0.0
 14
148.65532986560001
 24
145.18710937500001
 34
0.0
 50
90.0
  0
INSERT
  5
A8
  8
0
  6
CONTINUOUS
  2
*U29
 10
0.0
 20
0.0
 30
0.0
  0
LINE
  5
A9
  8
図枠
 62
     5
 10
89.521139539100005
 20
195.25933412689989
 30
0.0
 11
277.50233953909998
 21
195.25933412689989
 31
0.0
  0
LINE
  5
AA
  8
図枠
 62
     5
 10
92.002320624099994
 20
186.22182147059999
 30
0.0
 11
101.9013306241
 21
186.22182147059999
 31
0.0
  0
LINE
  5
AB
  8
図枠
 62
     5
 10
92.002320624099994
 20
196.1208314706
 30
0.0
 11
101.9013306241
 21
196.1208314706
 31
0.0
  0
LINE
  5
AC
  8
図枠
 62
     5
 10
96.951825624099996
 20
194.7946156029
 30
0.0
 11
101.9013306241
 21
186.22182147059999
 31
0.0
  0
INSERT
  5
AD
  8
0
  6
CONTINUOUS
  2
*U30
 10
0.0
 20
0.0
 30
0.0
  0
LINE
  5
AE
  8
図枠
 10
125.7688868308
 20
-150.4498147537
 30
0.0
 11
125.7688868308
 21
-153.32952675370001
 31
0.0
  0
ARC
  5
AF
  8
図枠
 10
112.71322283080001
 20
-156.8491747537
 30
0.0
 40
2.3997599999999988
 50
270.0
 51
0.0
  0
LINE
  5
B0
  8
図枠
 10
158.11362427079999
 20
-153.1695427537
 30
0.0
 11
158.11362427079999
 21
-156.04925475370001
 31
0.0
  0
LINE
  5
B1
  8
図枠
 10
143.71506427080001
 20
-153.1695427537
 30
0.0
 11
143.71506427080001
 21
-156.04925475370001
 31
0.0
  0
LINE
  5
B2
  8
図枠
 10
165.51353953910001
 20
-113.7097658731
 30
0.0
 11
165.51353953910001
 21
-164.7046658731
 31
0.0
  0
LINE
  5
B3
  8
図枠
 10
148.17623506539999
 20
-124.51268547310001
 30
0.0
 11
157.3913134654
 21
-126.8164550731
 31
0.0
  0
LINE
  5
B4
  8
図枠
 10
148.17623506539999
 20
-124.51268547310001
 30
0.0
 11
157.3913134654
 21
-126.8164550731
 31
0.0
  0
INSERT
  5
B5
  8
0
  6
CONTINUOUS
  2
*U31
 10
0.0
 20
0.0
 30
0.0
  0
LINE
  5
B6
  8
図枠
 10
148.17623506539999
 20
-119.9051462731
 30
0.0
 11
157.3913134654
 21
-117.60137667310001
 31
0.0
  0
LINE
  5
B7
  8
図枠
 10
152.24375428619999
 20
-153.1695427537
 30
0.0
 11
158.11362427079999
 21
-153.1695427537
 31
0.0
  0
LINE
  5
B8
  8
図枠
 10
147.7125311508
 20
-153.1695427537
 30
0.0
 11
146.91474427080001
 21
-150.4498147537
 31
0.0
  0
LINE
  5
B9
  8
図枠
 10
143.71506427080001
 20
-156.04925475370001
 30
0.0
 11
148.5572466708
 21
-156.04925475370001
 31
0.0
  0
LINE
  5
BA
  8
図枠
 10
195.51053953909999
 20
-91.711965873099984
 30
0.0
 11
195.51053953909999
 21
-80.713065873100007
 31
0.0
  0
INSERT
  5
BB
  8
0
  6
CONTINUOUS
  2
*U32
 10
0.0
 20
0.0
 30
0.0
  0
LINE
  5
BC
  8
ﾚｲﾔ_1
  6
STITCH
 10
148.65532986560001
 20
130.43710937500001
 30
0.0
 11
146.65532986560001
 21
128.43710937500001
 31
0.0
  0
LINE
  5
BD
  8
ﾚｲﾔ_1
  6
STITCH
 10
144.15532986560001
 20
130.43710937500001
 30
0.0
 11
146.1553298655999
 21
128.43710937500001
 31
0.0
  0
LINE
  5
BE
  8
ﾚｲﾔ_1
  6
STITCH
 10
144.15532986560001
 20
119.93710937500001
 30
0.0
 11
146.1553298655999
 21
121.93710937500001
 31
0.0
  0
LINE
  5
BF
  8
ﾚｲﾔ_1
  6
STITCH
 10
148.65532986560001
 20
119.93710937500001
 30
0.0
 11
146.65532986560001
 21
121.93710937500001
 31
0.0
  0
CIRCLE
  5
C0
  8
ﾚｲﾔ_1
 62
     5
 10
118.6553298656
 20
125.18710937500001
 30
0.0
 40
3.25
  0
CIRCLE
  5
C1
  8
ﾚｲﾔ_1
 62
     5
 10
118.6553298656
 20
125.18710937500001
 30
0.0
 40
5.25
  0
LINE
  5
C2
  8
ﾚｲﾔ_1
 62
     5
 10
148.65532986560001
 20
145.18710937500001
 30
0.0
 11
148.65532986560001
 21
105.18710937500001
 31
0.0
  0
LINE
  5
C3
  8
ﾚｲﾔ_1
 62
     5
 10
144.15532986560001
 20
145.18710937500001
 30
0.0
 11
144.15532986560001
 21
105.18710937500001
 31
0.0
  0
LINE
  5
C4
  8
ﾚｲﾔ_1
  6
BORDER
 62
     3
 10
118.6553298656
 20
132.68710937500001
 30
0.0
 11
118.6553298656
 21
117.68710937500001
 31
0.0
  0
LINE
  5
C5
  8
ﾚｲﾔ_1
  6
BORDER
 62
     3
 10
126.1553298656
 20
125.18710937500001
 30
0.0
 11
111.1553298656
 21
125.18710937500001
 31
0.0
  0
LINE
  5
C6
  8
図枠
 10
121.51234283079999
 20
-153.6494947537
 30
0.0
 11
119.11258283079999
 21
-153.6494947537
 31
0.0
  0
INSERT
  5
C7
  8
0
  6
CONTINUOUS
  2
*U33
 10
0.0
 20
0.0
 30
0.0
  0
LINE
  5
C8
  8
図枠
 10
107.91370283080001
 20
-150.4498147537
 30
0.0
 11
107.91370283080001
 21
-153.6494947537
 31
0.0
  0
LINE
  5
C9
  8
図枠
 10
107.91370283080001
 20
-156.04925475370001
 30
0.0
 11
107.91370283080001
 21
-158.4490147537
 31
0.0
  0
ARC
  5
CA
  8
図枠
 10
129.76848683079999
 20
-152.84957475370001
 30
0.0
 40
8.7991200000000003
 50
270.0
 51
302.54495885400001
  0
LINE
  5
CB
  8
図枠
 10
49.525139539099989
 20
-122.2089158731
 30
0.0
 11
81.521939539100003
 21
-122.2089158731
 31
0.0
  0
INSERT
  5
CC
  8
0
  6
CONTINUOUS
  2
*U34
 10
0.0
 20
0.0
 30
0.0
  0
LINE
  5
CD
  8
図枠
 10
125.7688868308
 20
-161.6486947537
 30
0.0
 11
125.7688868308
 21
-159.24893475370001
 31
0.0
  0
LINE
  5
CE
  8
図枠
 10
115.11298283079999
 20
-150.4498147537
 30
0.0
 11
115.11298283079999
 21
-153.6494947537
 31
0.0
  0
LINE
  5
CF
  8
図枠
 10
119.11258283079999
 20
-152.84957475370001
 30
0.0
 11
121.51234283079999
 21
-150.4498147537
 31
0.0
  0
CIRCLE
  5
D0
  8
図枠
 10
137.64432673909999
 20
-122.2089158731
 30
0.0
 40
4.6075391999999988
  0
CIRCLE
  5
D1
  8
図枠
 10
137.64432673909999
 20
-122.2089158731
 30
0.0
 40
2.303769599999999
  0
LINE
  5
D2
  8
図枠
 10
115.11298283079999
 20
-156.04925475370001
 30
0.0
 11
115.11298283079999
 21
-156.8491747537
 31
0.0
  0
LINE
  5
D3
  8
図枠
 10
112.71322283080001
 20
-159.24893475370001
 30
0.0
 11
107.91370283080001
 21
-159.24893475370001
 31
0.0
  0
ARC
  5
D4
  8
図枠
 10
129.76848683079999
 20
-152.84957475370001
 30
0.0
 40
8.7991200000000003
 50
322.48761197969998
 51
0.0
  0
LINE
  5
D5
  8
図枠
  6
BORDER
 10
137.64432673909999
 20
-115.2976070731
 30
0.0
 11
137.64432673909999
 21
-129.12022467310001
 31
0.0
  0
LINE
  5
D6
  8
図枠
  6
BORDER
 10
137.64432673909999
 20
-115.2976070731
 30
0.0
 11
137.64432673909999
 21
-129.12022467310001
 31
0.0
  0
LINE
  5
D7
  8
図枠
 10
105.51953953909999
 20
-130.7080658731
 30
0.0
 11
105.51953953909999
 21
-147.7063658731
 31
0.0
  0
INSERT
  5
D8
  8
0
  6
CONTINUOUS
  2
*U35
 10
0.0
 20
0.0
 30
0.0
  0
LINE
  5
D9
  8
図枠
 10
157.3913134654
 20
-117.60137667310001
 30
0.0
 11
157.3913134654
 21
-126.8164550731
 31
0.0
  0
LINE
  5
DA
  8
図枠
 10
107.91370283080001
 20
-156.04925475370001
 30
0.0
 11
107.6719609089
 21
-156.04925475370001
 31
0.0
  0
LINE
  5
DB
  8
図枠
 10
119.11258283079999
 20
-153.6494947537
 30
0.0
 11
119.11258283079999
 21
-152.84957475370001
 31
0.0
  0
LINE
  5
DC
  8
図枠
 10
148.17623506539999
 20
-119.9051462731
 30
0.0
 11
148.17623506539999
 21
-124.51268547310001
 31
0.0
  0
LINE
  5
DD
  8
図枠
 10
148.9326757908
 20
-157.3291267537
 30
0.0
 11
148.5572466708
 21
-156.04925475370001
 31
0.0
  0
LINE
  5
DE
  8
図枠
 10
125.5175395391
 20
-113.7097658731
 30
0.0
 11
125.5175395391
 21
-130.7080658731
 31
0.0
  0
LINE
  5
DF
  8
図枠
 10
115.11298283079999
 20
-153.6494947537
 30
0.0
 11
111.91330283080001
 21
-153.6494947537
 31
0.0
  0
INSERT
  5
E0
  8
0
  6
CONTINUOUS
  2
*U36
 10
0.0
 20
0.0
 30
0.0
  0
LINE
  5
E1
  8
図枠
 10
157.3913134654
 20
-117.60137667310001
 30
0.0
 11
157.3913134654
 21
-126.8164550731
 31
0.0
  0
INSERT
  5
E2
  8
0
  6
CONTINUOUS
  2
*U37
 10
0.0
 20
0.0
 30
0.0
  0
LINE
  5
E3
  8
図枠
 10
119.11258283079999
 20
-156.04925475370001
 30
0.0
 11
121.51234283079999
 21
-156.04925475370001
 31
0.0
  0
LINE
  5
E4
  8
図枠
 10
148.17623506539999
 20
-119.9051462731
 30
0.0
 11
157.3913134654
 21
-117.60137667310001
 31
0.0
  0
LINE
  5
E5
  8
図枠
 10
153.44073600339999
 20
-157.3291267537
 30
0.0
 11
158.11362427079999
 21
-157.3291267537
 31
0.0
  0
LINE
  5
E6
  8
図枠
 10
143.71506427080001
 20
-153.1695427537
 30
0.0
 11
147.7125311508
 21
-153.1695427537
 31
0.0
  0
LINE
  5
E7
  8
図枠
 10
138.5676068308
 20
-152.84957475370001
 30
0.0
 11
140.1674468308
 21
-150.4498147537
 31
0.0
  0
LINE
  5
E8
  8
図枠
 10
45.525539539099988
 20
-91.711965873099984
 30
0.0
 11
277.50233953909998
 21
-91.711965873099984
 31
0.0
  0
LINE
  5
E9
  8
図枠
  6
BORDER
 10
137.64432673909999
 20
-115.2976070731
 30
0.0
 11
137.64432673909999
 21
-129.12022467310001
 31
0.0
  0
LINE
  5
EA
  8
図枠
 10
125.7688868308
 20
-154.6801445344
 30
0.0
 11
125.7688868308
 21
-154.16481964409999
 31
0.0
  0
LINE
  5
EB
  8
図枠
 10
111.91330283080001
 20
-152.84957475370001
 30
0.0
 11
114.31306283080001
 21
-150.4498147537
 31
0.0
  0
INSERT
  5
EC
  8
0
  6
CONTINUOUS
  2
*U38
 10
0.0
 20
0.0
 30
0.0
  0
LINE
  5
ED
  8
図枠
 10
106.0721209089
 20
-156.04925475370001
 30
0.0
 11
107.6719609089
 21
-156.04925475370001
 31
0.0
  0
INSERT
  5
EE
  8
0
  6
CONTINUOUS
  2
*U39
 10
0.0
 20
0.0
 30
0.0
  0
LINE
  5
EF
  8
図枠
 10
125.7688868308
 20
-159.24893475370001
 30
0.0
 11
125.7688868308
 21
-161.6486947537
 31
0.0
  0
LINE
  5
F0
  8
図枠
 10
45.525539539099988
 20
-80.713065873100007
 30
0.0
 11
45.525539539099988
 21
-113.7097658731
 31
0.0
  0
INSERT
  5
F1
  8
0
  6
CONTINUOUS
  2
*U40
 10
0.0
 20
0.0
 30
0.0
  0
LINE
  5
F2
  8
図枠
 10
143.71506427080001
 20
-160.20883875370001
 30
0.0
 11
149.7773913108
 21
-160.20883875370001
 31
0.0
  0
LINE
  5
F3
  8
図枠
 10
153.07243393659999
 20
-156.04925475370001
 30
0.0
 11
158.11362427079999
 21
-156.04925475370001
 31
0.0
  0
LINE
  5
F4
  8
図枠
 10
154.91394427079999
 20
-162.44861475370001
 30
0.0
 11
154.2694156538
 21
-160.20883875370001
 31
0.0
  0
LINE
  5
F5
  8
図枠
 10
158.11362427079999
 20
-157.3291267537
 30
0.0
 11
158.11362427079999
 21
-160.20883875370001
 31
0.0
  0
INSERT
  5
F6
  8
0
  6
CONTINUOUS
  2
*U41
 10
0.0
 20
0.0
 30
0.0
  0
LINE
  5
F7
  8
図枠
 10
121.51234283079999
 20
-153.6494947537
 30
0.0
 11
121.51234283079999
 21
-156.04925475370001
 31
0.0
  0
INSERT
  5
F8
  8
0
  6
CONTINUOUS
  2
*U42
 10
0.0
 20
0.0
 30
0.0
  0
LINE
  5
F9
  8
図枠
 10
45.525539539099988
 20
-80.713065873100007
 30
0.0
 11
45.525539539099988
 21
-113.7097658731
 31
0.0
  0
LINE
  5
FA
  8
図枠
 10
107.91370283080001
 20
-158.4490147537
 30
0.0
 11
111.91330283080001
 21
-158.4490147537
 31
0.0
  0
LINE
  5
FB
  8
図枠
 10
85.521539539100004
 20
-113.7097658731
 30
0.0
 11
85.521539539100004
 21
-80.713065873100007
 31
0.0
  0
LINE
  5
FC
  8
図枠
 10
125.7688868308
 20
-159.24893475370001
 30
0.0
 11
127.6886948308
 21
-159.24893475370001
 31
0.0
  0
LINE
  5
FD
  8
図枠
 10
107.91370283080001
 20
-161.6486947537
 30
0.0
 11
114.31306283080001
 21
-161.6486947537
 31
0.0
  0
LINE
  5
FE
  8
図枠
 10
150.4343922708
 20
-162.44861475370001
 30
0.0
 11
154.91394427079999
 21
-162.44861475370001
 31
0.0
  0
LINE
  5
FF
  8
図枠
 10
146.91474427080001
 20
-150.4498147537
 30
0.0
 11
153.31410427079999
 21
-150.4498147537
 31
0.0
  0
INSERT
  5
100
  8
0
  6
CONTINUOUS
  2
*U43
 10
0.0
 20
0.0
 30
0.0
  0
LINE
  5
101
  8
図枠
 10
133.02626100750001
 20
-156.0797651506
 30
0.0
 11
132.6413462127
 21
-156.50490400929999
 31
0.0
  0
ARC
  5
102
  8
図枠
 10
114.31306283080001
 20
-156.8491747537
 30
0.0
 40
4.7995199999999993
 50
270.0
 51
0.0
  0
INSERT
  5
103
  8
0
  6
CONTINUOUS
  2
*U44
 10
0.0
 20
0.0
 30
0.0
  0
LINE
  5
104
  8
図枠
 10
89.521139539100005
 20
-122.2089158731
 30
0.0
 11
117.5183395391
 21
-122.2089158731
 31
0.0
  0
ARC
  5
105
  8
図枠
 10
127.6886948308
 20
-153.1695427537
 30
0.0
 40
6.0793919999999986
 50
270.0
 51
298.08590481520002
  0
INSERT
  5
106
  8
0
  6
CONTINUOUS
  2
*U45
 10
0.0
 20
0.0
 30
0.0
  0
INSERT
  5
107
  8
0
  6
CONTINUOUS
  2
*U46
 10
0.0
 20
0.0
 30
0.0
  0
CIRCLE
  5
108
  8
図枠
 10
137.64432673909999
 20
-122.2089158731
 30
0.0
 40
2.303769599999999
  0
LINE
  5
109
  8
図枠
 10
125.7688868308
 20
-161.6486947537
 30
0.0
 11
129.76848683079999
 21
-161.6486947537
 31
0.0
  0
LINE
  5
10A
  8
図枠
 10
111.91330283080001
 20
-156.04925475370001
 30
0.0
 11
115.11298283079999
 21
-156.04925475370001
 31
0.0
  0
LINE
  5
10B
  8
図枠
 10
132.1682468308
 20
-154.16481964409999
 30
0.0
 11
131.2632406605
 21
-155.0698258143
 31
0.0
  0
LINE
  5
10C
  8
図枠
 10
148.17623506539999
 20
-119.9051462731
 30
0.0
 11
148.17623506539999
 21
-124.51268547310001
 31
0.0
  0
LINE
  5
10D
  8
図枠
 10
143.71506427080001
 20
-157.3291267537
 30
0.0
 11
143.71506427080001
 21
-160.20883875370001
 31
0.0
  0
INSERT
  5
10E
  8
0
  6
CONTINUOUS
  2
*U47
 10
0.0
 20
0.0
 30
0.0
  0
LINE
  5
10F
  8
図枠
 10
148.17623506539999
 20
-119.9051462731
 30
0.0
 11
148.17623506539999
 21
-124.51268547310001
 31
0.0
  0
LINE
  5
110
  8
図枠
 10
45.525539539099988
 20
-113.7097658731
 30
0.0
 11
277.50233953909998
 21
-113.7097658731
 31
0.0
  0
LINE
  5
111
  8
図枠
 10
152.00954690890001
 20
-152.35565792560001
 30
0.0
 11
153.31410427079999
 21
-150.4498147537
 31
0.0
  0
LINE
  5
112
  8
図枠
 10
114.31306283080001
 20
-150.4498147537
 30
0.0
 11
107.91370283080001
 21
-150.4498147537
 31
0.0
  0
POLYLINE
  8
図枠
  5
4BC
  66
     1
 10
0.000000
 20
0.000000
 30
0.000000
  70
     8
  0
VERTEX
  8
図枠
  5
4BD
 10
131.263
 20
-155.070
 30
0.000000
  70
    32
  0
VERTEX
  8
図枠
  5
4BE
 10
131.274
 20
-155.082
 30
0.000000
  70
    32
  0
VERTEX
  8
図枠
  5
4BF
 10
131.284
 20
-155.093
 30
0.000000
  70
    32
  0
VERTEX
  8
図枠
  5
4C0
 10
131.295
 20
-155.105
 30
0.000000
  70
    32
  0
VERTEX
  8
図枠
  5
4C1
 10
131.305
 20
-155.117
 30
0.000000
  70
    32
  0
VERTEX
  8
図枠
  5
4C2
 10
131.316
 20
-155.129
 30
0.000000
  70
    32
  0
VERTEX
  8
図枠
  5
4C3
 10
131.327
 20
-155.140
 30
0.000000
  70
    32
  0
VERTEX
  8
図枠
  5
4C4
 10
131.337
 20
-155.152
 30
0.000000
  70
    32
  0
VERTEX
  8
図枠
  5
4C5
 10
131.348
 20
-155.164
 30
0.000000
  70
    32
  0
VERTEX
  8
図枠
  5
4C6
 10
131.358
 20
-155.176
 30
0.000000
  70
    32
  0
VERTEX
  8
図枠
  5
4C7
 10
131.369
 20
-155.188
 30
0.000000
  70
    32
  0
VERTEX
  8
図枠
  5
4C8
 10
131.379
 20
-155.199
 30
0.000000
  70
    32
  0
VERTEX
  8
図枠
  5
4C9
 10
131.390
 20
-155.211
 30
0.000000
  70
    32
  0
VERTEX
  8
図枠
  5
4CA
 10
131.401
 20
-155.223
 30
0.000000
  70
    32
  0
VERTEX
  8
図枠
  5
4CB
 10
131.411
 20
-155.235
 30
0.000000
  70
    32
  0
VERTEX
  8
図枠
  5
4CC
 10
131.422
 20
-155.246
 30
0.000000
  70
    32
  0
VERTEX
  8
図枠
  5
4CD
 10
131.432
 20
-155.258
 30
0.000000
  70
    32
  0
VERTEX
  8
図枠
  5
4CE
 10
131.443
 20
-155.270
 30
0.000000
  70
    32
  0
VERTEX
  8
図枠
  5
4CF
 10
131.453
 20
-155.282
 30
0.000000
  70
    32
  0
VERTEX
  8
図枠
  5
4D0
 10
131.464
 20
-155.293
 30
0.000000
  70
    32
  0
VERTEX
  8
図枠
  5
4D1
 10
131.475
 20
-155.305
 30
0.000000
  70
    32
  0
VERTEX
  8
図枠
  5
4D2
 10
131.485
 20
-155.317
 30
0.000000
  70
    32
  0
VERTEX
  8
図枠
  5
4D3
 10
131.496
 20
-155.328
 30
0.000000
  70
    32
  0
VERTEX
  8
図枠
  5
4D4
 10
131.506
 20
-155.340
 30
0.000000
  70
    32
  0
VERTEX
  8
図枠
  5
4D5
 10
131.517
 20
-155.352
 30
0.000000
  70
    32
  0
VERTEX
  8
図枠
  5
4D6
 10
131.527
 20
-155.364
 30
0.000000
  70
    32
  0
VERTEX
  8
図枠
  5
4D7
 10
131.538
 20
-155.375
 30
0.000000
  70
    32
  0
VERTEX
  8
図枠
  5
4D8
 10
131.549
 20
-155.387
 30
0.000000
  70
    32
  0
VERTEX
  8
図枠
  5
4D9
 10
131.559
 20
-155.399
 30
0.000000
  70
    32
  0
VERTEX
  8
図枠
  5
4DA
 10
131.570
 20
-155.411
 30
0.000000
  70
    32
  0
VERTEX
  8
図枠
  5
4DB
 10
131.580
 20
-155.422
 30
0.000000
  70
    32
  0
VERTEX
  8
図枠
  5
4DC
 10
131.591
 20
-155.434
 30
0.000000
  70
    32
  0
VERTEX
  8
図枠
  5
4DD
 10
131.602
 20
-155.446
 30
0.000000
  70
    32
  0
VERTEX
  8
図枠
  5
4DE
 10
131.612
 20
-155.457
 30
0.000000
  70
    32
  0
VERTEX
  8
図枠
  5
4DF
 10
131.623
 20
-155.469
 30
0.000000
  70
    32
  0
VERTEX
  8
図枠
  5
4E0
 10
131.634
 20
-155.481
 30
0.000000
  70
    32
  0
VERTEX
  8
図枠
  5
4E1
 10
131.644
 20
-155.492
 30
0.000000
  70
    32
  0
VERTEX
  8
図枠
  5
4E2
 10
131.655
 20
-155.504
 30
0.000000
  70
    32
  0
VERTEX
  8
図枠
  5
4E3
 10
131.665
 20
-155.516
 30
0.000000
  70
    32
  0
VERTEX
  8
図枠
  5
4E4
 10
131.676
 20
-155.527
 30
0.000000
  70
    32
  0
VERTEX
  8
図枠
  5
4E5
 10
131.687
 20
-155.539
 30
0.000000
  70
    32
  0
VERTEX
  8
図枠
  5
4E6
 10
131.697
 20
-155.550
 30
0.000000
  70
    32
  0
VERTEX
  8
図枠
  5
4E7
 10
131.708
 20
-155.562
 30
0.000000
  70
    32
  0
VERTEX
  8
図枠
  5
4E8
 10
131.719
 20
-155.574
 30
0.000000
  70
    32
  0
VERTEX
  8
図枠
  5
4E9
 10
131.729
 20
-155.585
 30
0.000000
  70
    32
  0
VERTEX
  8
図枠
  5
4EA
 10
131.740
 20
-155.597
 30
0.000000
  70
    32
  0
VERTEX
  8
図枠
  5
4EB
 10
131.751
 20
-155.608
 30
0.000000
  70
    32
  0
VERTEX
  8
図枠
  5
4EC
 10
131.761
 20
-155.620
 30
0.000000
  70
    32
  0
VERTEX
  8
図枠
  5
4ED
 10
131.772
 20
-155.632
 30
0.000000
  70
    32
  0
VERTEX
  8
図枠
  5
4EE
 10
131.783
 20
-155.643
 30
0.000000
  70
    32
  0
VERTEX
  8
図枠
  5
4EF
 10
131.793
 20
-155.655
 30
0.000000
  70
    32
  0
VERTEX
  8
図枠
  5
4F0
 10
131.804
 20
-155.666
 30
0.000000
  70
    32
  0
VERTEX
  8
図枠
  5
4F1
 10
131.815
 20
-155.678
 30
0.000000
  70
    32
  0
VERTEX
  8
図枠
  5
4F2
 10
131.826
 20
-155.689
 30
0.000000
  70
    32
  0
VERTEX
  8
図枠
  5
4F3
 10
131.836
 20
-155.701
 30
0.000000
  70
    32
  0
VERTEX
  8
図枠
  5
4F4
 10
131.847
 20
-155.712
 30
0.000000
  70
    32
  0
VERTEX
  8
図枠
  5
4F5
 10
131.858
 20
-155.724
 30
0.000000
  70
    32
  0
VERTEX
  8
図枠
  5
4F6
 10
131.868
 20
-155.735
 30
0.000000
  70
    32
  0
VERTEX
  8
図枠
  5
4F7
 10
131.879
 20
-155.747
 30
0.000000
  70
    32
  0
VERTEX
  8
図枠
  5
4F8
 10
131.890
 20
-155.758
 30
0.000000
  70
    32
  0
VERTEX
  8
図枠
  5
4F9
 10
131.901
 20
-155.770
 30
0.000000
  70
    32
  0
VERTEX
  8
図枠
  5
4FA
 10
131.911
 20
-155.781
 30
0.000000
  70
    32
  0
VERTEX
  8
図枠
  5
4FB
 10
131.922
 20
-155.793
 30
0.000000
  70
    32
  0
VERTEX
  8
図枠
  5
4FC
 10
131.933
 20
-155.804
 30
0.000000
  70
    32
  0
VERTEX
  8
図枠
  5
4FD
 10
131.944
 20
-155.816
 30
0.000000
  70
    32
  0
VERTEX
  8
図枠
  5
4FE
 10
131.954
 20
-155.827
 30
0.000000
  70
    32
  0
VERTEX
  8
図枠
  5
4FF
 10
131.965
 20
-155.838
 30
0.000000
  70
    32
  0
VERTEX
  8
図枠
  5
500
 10
131.976
 20
-155.850
 30
0.000000
  70
    32
  0
VERTEX
  8
図枠
  5
501
 10
131.987
 20
-155.861
 30
0.000000
  70
    32
  0
VERTEX
  8
図枠
  5
502
 10
131.998
 20
-155.872
 30
0.000000
  70
    32
  0
VERTEX
  8
図枠
  5
503
 10
132.009
 20
-155.884
 30
0.000000
  70
    32
  0
VERTEX
  8
図枠
  5
504
 10
132.019
 20
-155.895
 30
0.000000
  70
    32
  0
VERTEX
  8
図枠
  5
505
 10
132.030
 20
-155.906
 30
0.000000
  70
    32
  0
VERTEX
  8
図枠
  5
506
 10
132.041
 20
-155.918
 30
0.000000
  70
    32
  0
VERTEX
  8
図枠
  5
507
 10
132.052
 20
-155.929
 30
0.000000
  70
    32
  0
VERTEX
  8
図枠
  5
508
 10
132.063
 20
-155.940
 30
0.000000
  70
    32
  0
VERTEX
  8
図枠
  5
509
 10
132.074
 20
-155.952
 30
0.000000
  70
    32
  0
VERTEX
  8
図枠
  5
50A
 10
132.085
 20
-155.963
 30
0.000000
  70
    32
  0
VERTEX
  8
図枠
  5
50B
 10
132.095
 20
-155.974
 30
0.000000
  70
    32
  0
VERTEX
  8
図枠
  5
50C
 10
132.106
 20
-155.985
 30
0.000000
  70
    32
  0
VERTEX
  8
図枠
  5
50D
 10
132.117
 20
-155.997
 30
0.000000
  70
    32
  0
VERTEX
  8
図枠
  5
50E
 10
132.128
 20
-156.008
 30
0.000000
  70
    32
  0
VERTEX
  8
図枠
  5
50F
 10
132.139
 20
-156.019
 30
0.000000
  70
    32
  0
VERTEX
  8
図枠
  5
510
 10
132.150
 20
-156.030
 30
0.000000
  70
    32
  0
VERTEX
  8
図枠
  5
511
 10
132.161
 20
-156.041
 30
0.000000
  70
    32
  0
VERTEX
  8
図枠
  5
512
 10
132.172
 20
-156.052
 30
0.000000
  70
    32
  0
VERTEX
  8
図枠
  5
513
 10
132.183
 20
-156.064
 30
0.000000
  70
    32
  0
VERTEX
  8
図枠
  5
514
 10
132.194
 20
-156.075
 30
0.000000
  70
    32
  0
VERTEX
  8
図枠
  5
515
 10
132.205
 20
-156.086
 30
0.000000
  70
    32
  0
VERTEX
  8
図枠
  5
516
 10
132.216
 20
-156.097
 30
0.000000
  70
    32
  0
VERTEX
  8
図枠
  5
517
 10
132.227
 20
-156.108
 30
0.000000
  70
    32
  0
VERTEX
  8
図枠
  5
518
 10
132.238
 20
-156.119
 30
0.000000
  70
    32
  0
VERTEX
  8
図枠
  5
519
 10
132.249
 20
-156.130
 30
0.000000
  70
    32
  0
VERTEX
  8
図枠
  5
51A
 10
132.260
 20
-156.141
 30
0.000000
  70
    32
  0
VERTEX
  8
図枠
  5
51B
 10
132.271
 20
-156.152
 30
0.000000
  70
    32
  0
VERTEX
  8
図枠
  5
51C
 10
132.282
 20
-156.163
 30
0.000000
  70
    32
  0
VERTEX
  8
図枠
  5
51D
 10
132.293
 20
-156.174
 30
0.000000
  70
    32
  0
VERTEX
  8
図枠
  5
51E
 10
132.304
 20
-156.185
 30
0.000000
  70
    32
  0
VERTEX
  8
図枠
  5
51F
 10
132.315
 20
-156.196
 30
0.000000
  70
    32
  0
VERTEX
  8
図枠
  5
520
 10
132.326
 20
-156.207
 30
0.000000
  70
    32
  0
VERTEX
  8
図枠
  5
521
 10
132.337
 20
-156.218
 30
0.000000
  70
    32
  0
VERTEX
  8
図枠
  5
522
 10
132.348
 20
-156.229
 30
0.000000
  70
    32
  0
VERTEX
  8
図枠
  5
523
 10
132.359
 20
-156.240
 30
0.000000
  70
    32
  0
VERTEX
  8
図枠
  5
524
 10
132.371
 20
-156.250
 30
0.000000
  70
    32
  0
VERTEX
  8
図枠
  5
525
 10
132.382
 20
-156.261
 30
0.000000
  70
    32
  0
VERTEX
  8
図枠
  5
526
 10
132.393
 20
-156.272
 30
0.000000
  70
    32
  0
VERTEX
  8
図枠
  5
527
 10
132.404
 20
-156.283
 30
0.000000
  70
    32
  0
VERTEX
  8
図枠
  5
528
 10
132.415
 20
-156.294
 30
0.000000
  70
    32
  0
VERTEX
  8
図枠
  5
529
 10
132.426
 20
-156.304
 30
0.000000
  70
    32
  0
VERTEX
  8
図枠
  5
52A
 10
132.438
 20
-156.315
 30
0.000000
  70
    32
  0
VERTEX
  8
図枠
  5
52B
 10
132.449
 20
-156.326
 30
0.000000
  70
    32
  0
VERTEX
  8
図枠
  5
52C
 10
132.460
 20
-156.336
 30
0.000000
  70
    32
  0
VERTEX
  8
図枠
  5
52D
 10
132.471
 20
-156.347
 30
0.000000
  70
    32
  0
VERTEX
  8
図枠
  5
52E
 10
132.483
 20
-156.358
 30
0.000000
  70
    32
  0
VERTEX
  8
図枠
  5
52F
 10
132.494
 20
-156.368
 30
0.000000
  70
    32
  0
VERTEX
  8
図枠
  5
530
 10
132.505
 20
-156.379
 30
0.000000
  70
    32
  0
VERTEX
  8
図枠
  5
531
 10
132.516
 20
-156.390
 30
0.000000
  70
    32
  0
VERTEX
  8
図枠
  5
532
 10
132.528
 20
-156.400
 30
0.000000
  70
    32
  0
VERTEX
  8
図枠
  5
533
 10
132.539
 20
-156.411
 30
0.000000
  70
    32
  0
VERTEX
  8
図枠
  5
534
 10
132.550
 20
-156.421
 30
0.000000
  70
    32
  0
VERTEX
  8
図枠
  5
535
 10
132.562
 20
-156.432
 30
0.000000
  70
    32
  0
VERTEX
  8
図枠
  5
536
 10
132.573
 20
-156.442
 30
0.000000
  70
    32
  0
VERTEX
  8
図枠
  5
537
 10
132.584
 20
-156.453
 30
0.000000
  70
    32
  0
VERTEX
  8
図枠
  5
538
 10
132.596
 20
-156.463
 30
0.000000
  70
    32
  0
VERTEX
  8
図枠
  5
539
 10
132.607
 20
-156.474
 30
0.000000
  70
    32
  0
VERTEX
  8
図枠
  5
53A
 10
132.618
 20
-156.484
 30
0.000000
  70
    32
  0
VERTEX
  8
図枠
  5
53B
 10
132.630
 20
-156.495
 30
0.000000
  70
    32
  0
VERTEX
  8
図枠
  5
53C
 10
132.641
 20
-156.505
 30
0.000000
  70
    32
  0
SEQEND
  8
図枠
  5
53D
  0
LINE
  5
114
  8
図枠
 10
125.7688868308
 20
-153.32952675370001
 30
0.0
 11
133.7680868308
 21
-153.32952675370001
 31
0.0
  0
INSERT
  5
115
  8
0
  6
CONTINUOUS
  2
*U48
 10
0.0
 20
0.0
 30
0.0
  0
LINE
  5
116
  8
図枠
 10
106.0721209089
 20
-153.6494947537
 30
0.0
 11
106.0721209089
 21
-156.04925475370001
 31
0.0
  0
LINE
  5
117
  8
図枠
 10
107.91370283080001
 20
-153.6494947537
 30
0.0
 11
106.0721209089
 21
-153.6494947537
 31
0.0
  0
INSERT
  5
118
  8
0
  6
CONTINUOUS
  2
*U49
 10
0.0
 20
0.0
 30
0.0
  0
LINE
  5
119
  8
図枠
 10
45.525539539099988
 20
-80.713065873100007
 30
0.0
 11
277.50233953909998
 21
-80.713065873100007
 31
0.0
  0
INSERT
  5
11A
  8
0
  6
CONTINUOUS
  2
*U50
 10
0.0
 20
0.0
 30
0.0
  0
POLYLINE
  8
図枠
  5
53E
  66
     1
 10
0.000000
 20
0.000000
 30
0.000000
  70
     8
  0
VERTEX
  8
図枠
  5
53F
 10
134.502
 20
-160.267
 30
0.000000
  70
    32
  0
VERTEX
  8
図枠
  5
540
 10
134.545
 20
-160.281
 30
0.000000
  70
    32
  0
VERTEX
  8
図枠
  5
541
 10
134.588
 20
-160.294
 30
0.000000
  70
    32
  0
VERTEX
  8
図枠
  5
542
 10
134.631
 20
-160.308
 30
0.000000
  70
    32
  0
VERTEX
  8
図枠
  5
543
 10
134.675
 20
-160.321
 30
0.000000
  70
    32
  0
VERTEX
  8
図枠
  5
544
 10
134.718
 20
-160.335
 30
0.000000
  70
    32
  0
VERTEX
  8
図枠
  5
545
 10
134.761
 20
-160.348
 30
0.000000
  70
    32
  0
VERTEX
  8
図枠
  5
546
 10
134.804
 20
-160.362
 30
0.000000
  70
    32
  0
VERTEX
  8
図枠
  5
547
 10
134.848
 20
-160.375
 30
0.000000
  70
    32
  0
VERTEX
  8
図枠
  5
548
 10
134.891
 20
-160.388
 30
0.000000
  70
    32
  0
VERTEX
  8
図枠
  5
549
 10
134.934
 20
-160.401
 30
0.000000
  70
    32
  0
VERTEX
  8
図枠
  5
54A
 10
134.978
 20
-160.414
 30
0.000000
  70
    32
  0
VERTEX
  8
図枠
  5
54B
 10
135.021
 20
-160.427
 30
0.000000
  70
    32
  0
VERTEX
  8
図枠
  5
54C
 10
135.065
 20
-160.440
 30
0.000000
  70
    32
  0
VERTEX
  8
図枠
  5
54D
 10
135.108
 20
-160.453
 30
0.000000
  70
    32
  0
VERTEX
  8
図枠
  5
54E
 10
135.152
 20
-160.466
 30
0.000000
  70
    32
  0
VERTEX
  8
図枠
  5
54F
 10
135.195
 20
-160.479
 30
0.000000
  70
    32
  0
VERTEX
  8
図枠
  5
550
 10
135.239
 20
-160.492
 30
0.000000
  70
    32
  0
VERTEX
  8
図枠
  5
551
 10
135.283
 20
-160.504
 30
0.000000
  70
    32
  0
VERTEX
  8
図枠
  5
552
 10
135.326
 20
-160.517
 30
0.000000
  70
    32
  0
VERTEX
  8
図枠
  5
553
 10
135.370
 20
-160.529
 30
0.000000
  70
    32
  0
VERTEX
  8
図枠
  5
554
 10
135.414
 20
-160.542
 30
0.000000
  70
    32
  0
VERTEX
  8
図枠
  5
555
 10
135.458
 20
-160.554
 30
0.000000
  70
    32
  0
VERTEX
  8
図枠
  5
556
 10
135.501
 20
-160.567
 30
0.000000
  70
    32
  0
VERTEX
  8
図枠
  5
557
 10
135.545
 20
-160.579
 30
0.000000
  70
    32
  0
VERTEX
  8
図枠
  5
558
 10
135.589
 20
-160.591
 30
0.000000
  70
    32
  0
VERTEX
  8
図枠
  5
559
 10
135.633
 20
-160.603
 30
0.000000
  70
    32
  0
VERTEX
  8
図枠
  5
55A
 10
135.677
 20
-160.616
 30
0.000000
  70
    32
  0
VERTEX
  8
図枠
  5
55B
 10
135.721
 20
-160.628
 30
0.000000
  70
    32
  0
VERTEX
  8
図枠
  5
55C
 10
135.765
 20
-160.640
 30
0.000000
  70
    32
  0
VERTEX
  8
図枠
  5
55D
 10
135.809
 20
-160.652
 30
0.000000
  70
    32
  0
VERTEX
  8
図枠
  5
55E
 10
135.853
 20
-160.664
 30
0.000000
  70
    32
  0
VERTEX
  8
図枠
  5
55F
 10
135.897
 20
-160.676
 30
0.000000
  70
    32
  0
VERTEX
  8
図枠
  5
560
 10
135.941
 20
-160.687
 30
0.000000
  70
    32
  0
VERTEX
  8
図枠
  5
561
 10
135.985
 20
-160.699
 30
0.000000
  70
    32
  0
VERTEX
  8
図枠
  5
562
 10
136.029
 20
-160.711
 30
0.000000
  70
    32
  0
VERTEX
  8
図枠
  5
563
 10
136.073
 20
-160.723
 30
0.000000
  70
    32
  0
VERTEX
  8
図枠
  5
564
 10
136.118
 20
-160.734
 30
0.000000
  70
    32
  0
VERTEX
  8
図枠
  5
565
 10
136.162
 20
-160.746
 30
0.000000
  70
    32
  0
VERTEX
  8
図枠
  5
566
 10
136.206
 20
-160.757
 30
0.000000
  70
    32
  0
VERTEX
  8
図枠
  5
567
 10
136.250
 20
-160.769
 30
0.000000
  70
    32
  0
VERTEX
  8
図枠
  5
568
 10
136.295
 20
-160.780
 30
0.000000
  70
    32
  0
VERTEX
  8
図枠
  5
569
 10
136.339
 20
-160.792
 30
0.000000
  70
    32
  0
VERTEX
  8
図枠
  5
56A
 10
136.383
 20
-160.803
 30
0.000000
  70
    32
  0
VERTEX
  8
図枠
  5
56B
 10
136.428
 20
-160.814
 30
0.000000
  70
    32
  0
VERTEX
  8
図枠
  5
56C
 10
136.472
 20
-160.826
 30
0.000000
  70
    32
  0
VERTEX
  8
図枠
  5
56D
 10
136.517
 20
-160.837
 30
0.000000
  70
    32
  0
VERTEX
  8
図枠
  5
56E
 10
136.561
 20
-160.848
 30
0.000000
  70
    32
  0
VERTEX
  8
図枠
  5
56F
 10
136.606
 20
-160.859
 30
0.000000
  70
    32
  0
VERTEX
  8
図枠
  5
570
 10
136.650
 20
-160.870
 30
0.000000
  70
    32
  0
VERTEX
  8
図枠
  5
571
 10
136.695
 20
-160.881
 30
0.000000
  70
    32
  0
VERTEX
  8
図枠
  5
572
 10
136.739
 20
-160.892
 30
0.000000
  70
    32
  0
VERTEX
  8
図枠
  5
573
 10
136.784
 20
-160.903
 30
0.000000
  70
    32
  0
VERTEX
  8
図枠
  5
574
 10
136.828
 20
-160.914
 30
0.000000
  70
    32
  0
VERTEX
  8
図枠
  5
575
 10
136.873
 20
-160.925
 30
0.000000
  70
    32
  0
VERTEX
  8
図枠
  5
576
 10
136.917
 20
-160.936
 30
0.000000
  70
    32
  0
VERTEX
  8
図枠
  5
577
 10
136.962
 20
-160.947
 30
0.000000
  70
    32
  0
VERTEX
  8
図枠
  5
578
 10
137.007
 20
-160.957
 30
0.000000
  70
    32
  0
VERTEX
  8
図枠
  5
579
 10
137.051
 20
-160.968
 30
0.000000
  70
    32
  0
VERTEX
  8
図枠
  5
57A
 10
137.096
 20
-160.979
 30
0.000000
  70
    32
  0
VERTEX
  8
図枠
  5
57B
 10
137.141
 20
-160.990
 30
0.000000
  70
    32
  0
VERTEX
  8
図枠
  5
57C
 10
137.186
 20
-161.000
 30
0.000000
  70
    32
  0
VERTEX
  8
図枠
  5
57D
 10
137.230
 20
-161.011
 30
0.000000
  70
    32
  0
VERTEX
  8
図枠
  5
57E
 10
137.275
 20
-161.021
 30
0.000000
  70
    32
  0
VERTEX
  8
図枠
  5
57F
 10
137.320
 20
-161.032
 30
0.000000
  70
    32
  0
VERTEX
  8
図枠
  5
580
 10
137.365
 20
-161.042
 30
0.000000
  70
    32
  0
VERTEX
  8
図枠
  5
581
 10
137.410
 20
-161.053
 30
0.000000
  70
    32
  0
VERTEX
  8
図枠
  5
582
 10
137.455
 20
-161.063
 30
0.000000
  70
    32
  0
VERTEX
  8
図枠
  5
583
 10
137.499
 20
-161.074
 30
0.000000
  70
    32
  0
VERTEX
  8
図枠
  5
584
 10
137.544
 20
-161.084
 30
0.000000
  70
    32
  0
VERTEX
  8
図枠
  5
585
 10
137.589
 20
-161.094
 30
0.000000
  70
    32
  0
VERTEX
  8
図枠
  5
586
 10
137.634
 20
-161.105
 30
0.000000
  70
    32
  0
VERTEX
  8
図枠
  5
587
 10
137.679
 20
-161.115
 30
0.000000
  70
    32
  0
VERTEX
  8
図枠
  5
588
 10
137.724
 20
-161.125
 30
0.000000
  70
    32
  0
VERTEX
  8
図枠
  5
589
 10
137.769
 20
-161.135
 30
0.000000
  70
    32
  0
VERTEX
  8
図枠
  5
58A
 10
137.814
 20
-161.145
 30
0.000000
  70
    32
  0
VERTEX
  8
図枠
  5
58B
 10
137.859
 20
-161.156
 30
0.000000
  70
    32
  0
VERTEX
  8
図枠
  5
58C
 10
137.904
 20
-161.166
 30
0.000000
  70
    32
  0
VERTEX
  8
図枠
  5
58D
 10
137.949
 20
-161.176
 30
0.000000
  70
    32
  0
VERTEX
  8
図枠
  5
58E
 10
137.994
 20
-161.186
 30
0.000000
  70
    32
  0
VERTEX
  8
図枠
  5
58F
 10
138.039
 20
-161.196
 30
0.000000
  70
    32
  0
VERTEX
  8
図枠
  5
590
 10
138.084
 20
-161.206
 30
0.000000
  70
    32
  0
VERTEX
  8
図枠
  5
591
 10
138.129
 20
-161.216
 30
0.000000
  70
    32
  0
VERTEX
  8
図枠
  5
592
 10
138.174
 20
-161.226
 30
0.000000
  70
    32
  0
VERTEX
  8
図枠
  5
593
 10
138.220
 20
-161.236
 30
0.000000
  70
    32
  0
VERTEX
  8
図枠
  5
594
 10
138.265
 20
-161.246
 30
0.000000
  70
    32
  0
VERTEX
  8
図枠
  5
595
 10
138.310
 20
-161.256
 30
0.000000
  70
    32
  0
VERTEX
  8
図枠
  5
596
 10
138.355
 20
-161.266
 30
0.000000
  70
    32
  0
VERTEX
  8
図枠
  5
597
 10
138.400
 20
-161.275
 30
0.000000
  70
    32
  0
VERTEX
  8
図枠
  5
598
 10
138.445
 20
-161.285
 30
0.000000
  70
    32
  0
VERTEX
  8
図枠
  5
599
 10
138.490
 20
-161.295
 30
0.000000
  70
    32
  0
VERTEX
  8
図枠
  5
59A
 10
138.536
 20
-161.305
 30
0.000000
  70
    32
  0
VERTEX
  8
図枠
  5
59B
 10
138.581
 20
-161.315
 30
0.000000
  70
    32
  0
VERTEX
  8
図枠
  5
59C
 10
138.626
 20
-161.324
 30
0.000000
  70
    32
  0
VERTEX
  8
図枠
  5
59D
 10
138.671
 20
-161.334
 30
0.000000
  70
    32
  0
VERTEX
  8
図枠
  5
59E
 10
138.717
 20
-161.344
 30
0.000000
  70
    32
  0
VERTEX
  8
図枠
  5
59F
 10
138.762
 20
-161.354
 30
0.000000
  70
    32
  0
VERTEX
  8
図枠
  5
5A0
 10
138.807
 20
-161.363
 30
0.000000
  70
    32
  0
VERTEX
  8
図枠
  5
5A1
 10
138.852
 20
-161.373
 30
0.000000
  70
    32
  0
VERTEX
  8
図枠
  5
5A2
 10
138.898
 20
-161.383
 30
0.000000
  70
    32
  0
VERTEX
  8
図枠
  5
5A3
 10
138.943
 20
-161.392
 30
0.000000
  70
    32
  0
VERTEX
  8
図枠
  5
5A4
 10
138.988
 20
-161.402
 30
0.000000
  70
    32
  0
VERTEX
  8
図枠
  5
5A5
 10
139.033
 20
-161.411
 30
0.000000
  70
    32
  0
VERTEX
  8
図枠
  5
5A6
 10
139.079
 20
-161.421
 30
0.000000
  70
    32
  0
VERTEX
  8
図枠
  5
5A7
 10
139.124
 20
-161.431
 30
0.000000
  70
    32
  0
VERTEX
  8
図枠
  5
5A8
 10
139.169
 20
-161.440
 30
0.000000
  70
    32
  0
VERTEX
  8
図枠
  5
5A9
 10
139.215
 20
-161.450
 30
0.000000
  70
    32
  0
VERTEX
  8
図枠
  5
5AA
 10
139.260
 20
-161.459
 30
0.000000
  70
    32
  0
VERTEX
  8
図枠
  5
5AB
 10
139.305
 20
-161.469
 30
0.000000
  70
    32
  0
VERTEX
  8
図枠
  5
5AC
 10
139.351
 20
-161.478
 30
0.000000
  70
    32
  0
VERTEX
  8
図枠
  5
5AD
 10
139.396
 20
-161.488
 30
0.000000
  70
    32
  0
VERTEX
  8
図枠
  5
5AE
 10
139.441
 20
-161.497
 30
0.000000
  70
    32
  0
VERTEX
  8
図枠
  5
5AF
 10
139.487
 20
-161.507
 30
0.000000
  70
    32
  0
VERTEX
  8
図枠
  5
5B0
 10
139.532
 20
-161.516
 30
0.000000
  70
    32
  0
VERTEX
  8
図枠
  5
5B1
 10
139.577
 20
-161.526
 30
0.000000
  70
    32
  0
VERTEX
  8
図枠
  5
5B2
 10
139.623
 20
-161.535
 30
0.000000
  70
    32
  0
VERTEX
  8
図枠
  5
5B3
 10
139.668
 20
-161.545
 30
0.000000
  70
    32
  0
VERTEX
  8
図枠
  5
5B4
 10
139.714
 20
-161.554
 30
0.000000
  70
    32
  0
VERTEX
  8
図枠
  5
5B5
 10
139.759
 20
-161.564
 30
0.000000
  70
    32
  0
VERTEX
  8
図枠
  5
5B6
 10
139.804
 20
-161.573
 30
0.000000
  70
    32
  0
VERTEX
  8
図枠
  5
5B7
 10
139.850
 20
-161.583
 30
0.000000
  70
    32
  0
VERTEX
  8
図枠
  5
5B8
 10
139.895
 20
-161.592
 30
0.000000
  70
    32
  0
VERTEX
  8
図枠
  5
5B9
 10
139.941
 20
-161.602
 30
0.000000
  70
    32
  0
VERTEX
  8
図枠
  5
5BA
 10
139.986
 20
-161.611
 30
0.000000
  70
    32
  0
VERTEX
  8
図枠
  5
5BB
 10
140.031
 20
-161.620
 30
0.000000
  70
    32
  0
VERTEX
  8
図枠
  5
5BC
 10
140.077
 20
-161.630
 30
0.000000
  70
    32
  0
VERTEX
  8
図枠
  5
5BD
 10
140.122
 20
-161.639
 30
0.000000
  70
    32
  0
VERTEX
  8
図枠
  5
5BE
 10
140.167
 20
-161.649
 30
0.000000
  70
    32
  0
SEQEND
  8
図枠
  5
5BF
  0
LINE
  5
11C
  8
図枠
 10
140.1674468308
 20
-150.4498147537
 30
0.0
 11
125.7688868308
 21
-150.4498147537
 31
0.0
  0
LINE
  5
11D
  8
図枠
 10
140.1674468308
 20
-159.24893475370001
 30
0.0
 11
140.1674468308
 21
-161.6486947537
 31
0.0
  0
LINE
  5
11E
  8
図枠
 10
138.5676068308
 20
-152.84957475370001
 30
0.0
 11
140.1674468308
 21
-150.4498147537
 31
0.0
  0
CIRCLE
  5
11F
  8
図枠
 10
137.64432673909999
 20
-122.2089158731
 30
0.0
 40
4.6075391999999988
  0
LINE
  5
120
  8
図枠
  6
BORDER
 10
137.64432673909999
 20
-115.2976070731
 30
0.0
 11
137.64432673909999
 21
-129.12022467310001
 31
0.0
  0
LINE
  5
121
  8
図枠
 10
49.525139539099989
 20
-139.20721587310001
 30
0.0
 11
101.51993953909999
 21
-139.20721587310001
 31
0.0
  0
POLYLINE
  8
図枠
  5
5C0
  66
     1
 10
0.000000
 20
0.000000
 30
0.000000
  70
     8
  0
VERTEX
  8
図枠
  5
5C1
 10
125.769
 20
-154.680
 30
0.000000
  70
    32
  0
VERTEX
  8
図枠
  5
5C2
 10
125.798
 20
-154.707
 30
0.000000
  70
    32
  0
VERTEX
  8
図枠
  5
5C3
 10
125.827
 20
-154.733
 30
0.000000
  70
    32
  0
VERTEX
  8
図枠
  5
5C4
 10
125.855
 20
-154.760
 30
0.000000
  70
    32
  0
VERTEX
  8
図枠
  5
5C5
 10
125.884
 20
-154.786
 30
0.000000
  70
    32
  0
VERTEX
  8
図枠
  5
5C6
 10
125.913
 20
-154.813
 30
0.000000
  70
    32
  0
VERTEX
  8
図枠
  5
5C7
 10
125.942
 20
-154.839
 30
0.000000
  70
    32
  0
VERTEX
  8
図枠
  5
5C8
 10
125.971
 20
-154.866
 30
0.000000
  70
    32
  0
VERTEX
  8
図枠
  5
5C9
 10
125.999
 20
-154.893
 30
0.000000
  70
    32
  0
VERTEX
  8
図枠
  5
5CA
 10
126.028
 20
-154.919
 30
0.000000
  70
    32
  0
VERTEX
  8
図枠
  5
5CB
 10
126.057
 20
-154.946
 30
0.000000
  70
    32
  0
VERTEX
  8
図枠
  5
5CC
 10
126.086
 20
-154.972
 30
0.000000
  70
    32
  0
VERTEX
  8
図枠
  5
5CD
 10
126.115
 20
-154.999
 30
0.000000
  70
    32
  0
VERTEX
  8
図枠
  5
5CE
 10
126.144
 20
-155.025
 30
0.000000
  70
    32
  0
VERTEX
  8
図枠
  5
5CF
 10
126.172
 20
-155.052
 30
0.000000
  70
    32
  0
VERTEX
  8
図枠
  5
5D0
 10
126.201
 20
-155.078
 30
0.000000
  70
    32
  0
VERTEX
  8
図枠
  5
5D1
 10
126.230
 20
-155.105
 30
0.000000
  70
    32
  0
VERTEX
  8
図枠
  5
5D2
 10
126.259
 20
-155.131
 30
0.000000
  70
    32
  0
VERTEX
  8
図枠
  5
5D3
 10
126.288
 20
-155.158
 30
0.000000
  70
    32
  0
VERTEX
  8
図枠
  5
5D4
 10
126.317
 20
-155.184
 30
0.000000
  70
    32
  0
VERTEX
  8
図枠
  5
5D5
 10
126.346
 20
-155.211
 30
0.000000
  70
    32
  0
VERTEX
  8
図枠
  5
5D6
 10
126.374
 20
-155.237
 30
0.000000
  70
    32
  0
VERTEX
  8
図枠
  5
5D7
 10
126.403
 20
-155.264
 30
0.000000
  70
    32
  0
VERTEX
  8
図枠
  5
5D8
 10
126.432
 20
-155.290
 30
0.000000
  70
    32
  0
VERTEX
  8
図枠
  5
5D9
 10
126.461
 20
-155.316
 30
0.000000
  70
    32
  0
VERTEX
  8
図枠
  5
5DA
 10
126.490
 20
-155.343
 30
0.000000
  70
    32
  0
VERTEX
  8
図枠
  5
5DB
 10
126.519
 20
-155.369
 30
0.000000
  70
    32
  0
VERTEX
  8
図枠
  5
5DC
 10
126.548
 20
-155.395
 30
0.000000
  70
    32
  0
VERTEX
  8
図枠
  5
5DD
 10
126.577
 20
-155.422
 30
0.000000
  70
    32
  0
VERTEX
  8
図枠
  5
5DE
 10
126.606
 20
-155.448
 30
0.000000
  70
    32
  0
VERTEX
  8
図枠
  5
5DF
 10
126.635
 20
-155.475
 30
0.000000
  70
    32
  0
VERTEX
  8
図枠
  5
5E0
 10
126.664
 20
-155.501
 30
0.000000
  70
    32
  0
VERTEX
  8
図枠
  5
5E1
 10
126.693
 20
-155.527
 30
0.000000
  70
    32
  0
VERTEX
  8
図枠
  5
5E2
 10
126.722
 20
-155.553
 30
0.000000
  70
    32
  0
VERTEX
  8
図枠
  5
5E3
 10
126.751
 20
-155.580
 30
0.000000
  70
    32
  0
VERTEX
  8
図枠
  5
5E4
 10
126.780
 20
-155.606
 30
0.000000
  70
    32
  0
VERTEX
  8
図枠
  5
5E5
 10
126.809
 20
-155.632
 30
0.000000
  70
    32
  0
VERTEX
  8
図枠
  5
5E6
 10
126.838
 20
-155.658
 30
0.000000
  70
    32
  0
VERTEX
  8
図枠
  5
5E7
 10
126.867
 20
-155.684
 30
0.000000
  70
    32
  0
VERTEX
  8
図枠
  5
5E8
 10
126.896
 20
-155.711
 30
0.000000
  70
    32
  0
VERTEX
  8
図枠
  5
5E9
 10
126.925
 20
-155.737
 30
0.000000
  70
    32
  0
VERTEX
  8
図枠
  5
5EA
 10
126.954
 20
-155.763
 30
0.000000
  70
    32
  0
VERTEX
  8
図枠
  5
5EB
 10
126.983
 20
-155.789
 30
0.000000
  70
    32
  0
VERTEX
  8
図枠
  5
5EC
 10
127.012
 20
-155.815
 30
0.000000
  70
    32
  0
VERTEX
  8
図枠
  5
5ED
 10
127.041
 20
-155.841
 30
0.000000
  70
    32
  0
VERTEX
  8
図枠
  5
5EE
 10
127.070
 20
-155.867
 30
0.000000
  70
    32
  0
VERTEX
  8
図枠
  5
5EF
 10
127.099
 20
-155.893
 30
0.000000
  70
    32
  0
VERTEX
  8
図枠
  5
5F0
 10
127.128
 20
-155.919
 30
0.000000
  70
    32
  0
VERTEX
  8
図枠
  5
5F1
 10
127.158
 20
-155.945
 30
0.000000
  70
    32
  0
VERTEX
  8
図枠
  5
5F2
 10
127.187
 20
-155.971
 30
0.000000
  70
    32
  0
VERTEX
  8
図枠
  5
5F3
 10
127.216
 20
-155.997
 30
0.000000
  70
    32
  0
VERTEX
  8
図枠
  5
5F4
 10
127.245
 20
-156.023
 30
0.000000
  70
    32
  0
VERTEX
  8
図枠
  5
5F5
 10
127.274
 20
-156.048
 30
0.000000
  70
    32
  0
VERTEX
  8
図枠
  5
5F6
 10
127.304
 20
-156.074
 30
0.000000
  70
    32
  0
VERTEX
  8
図枠
  5
5F7
 10
127.333
 20
-156.100
 30
0.000000
  70
    32
  0
VERTEX
  8
図枠
  5
5F8
 10
127.362
 20
-156.126
 30
0.000000
  70
    32
  0
VERTEX
  8
図枠
  5
5F9
 10
127.391
 20
-156.151
 30
0.000000
  70
    32
  0
VERTEX
  8
図枠
  5
5FA
 10
127.421
 20
-156.177
 30
0.000000
  70
    32
  0
VERTEX
  8
図枠
  5
5FB
 10
127.450
 20
-156.203
 30
0.000000
  70
    32
  0
VERTEX
  8
図枠
  5
5FC
 10
127.479
 20
-156.228
 30
0.000000
  70
    32
  0
VERTEX
  8
図枠
  5
5FD
 10
127.509
 20
-156.254
 30
0.000000
  70
    32
  0
VERTEX
  8
図枠
  5
5FE
 10
127.538
 20
-156.279
 30
0.000000
  70
    32
  0
VERTEX
  8
図枠
  5
5FF
 10
127.567
 20
-156.305
 30
0.000000
  70
    32
  0
VERTEX
  8
図枠
  5
600
 10
127.597
 20
-156.330
 30
0.000000
  70
    32
  0
VERTEX
  8
図枠
  5
601
 10
127.626
 20
-156.356
 30
0.000000
  70
    32
  0
VERTEX
  8
図枠
  5
602
 10
127.656
 20
-156.381
 30
0.000000
  70
    32
  0
VERTEX
  8
図枠
  5
603
 10
127.685
 20
-156.407
 30
0.000000
  70
    32
  0
VERTEX
  8
図枠
  5
604
 10
127.715
 20
-156.432
 30
0.000000
  70
    32
  0
VERTEX
  8
図枠
  5
605
 10
127.744
 20
-156.457
 30
0.000000
  70
    32
  0
VERTEX
  8
図枠
  5
606
 10
127.774
 20
-156.483
 30
0.000000
  70
    32
  0
VERTEX
  8
図枠
  5
607
 10
127.803
 20
-156.508
 30
0.000000
  70
    32
  0
VERTEX
  8
図枠
  5
608
 10
127.833
 20
-156.533
 30
0.000000
  70
    32
  0
VERTEX
  8
図枠
  5
609
 10
127.862
 20
-156.558
 30
0.000000
  70
    32
  0
VERTEX
  8
図枠
  5
60A
 10
127.892
 20
-156.583
 30
0.000000
  70
    32
  0
VERTEX
  8
図枠
  5
60B
 10
127.921
 20
-156.608
 30
0.000000
  70
    32
  0
VERTEX
  8
図枠
  5
60C
 10
127.951
 20
-156.633
 30
0.000000
  70
    32
  0
VERTEX
  8
図枠
  5
60D
 10
127.981
 20
-156.658
 30
0.000000
  70
    32
  0
VERTEX
  8
図枠
  5
60E
 10
128.010
 20
-156.683
 30
0.000000
  70
    32
  0
VERTEX
  8
図枠
  5
60F
 10
128.040
 20
-156.708
 30
0.000000
  70
    32
  0
VERTEX
  8
図枠
  5
610
 10
128.070
 20
-156.733
 30
0.000000
  70
    32
  0
VERTEX
  8
図枠
  5
611
 10
128.100
 20
-156.758
 30
0.000000
  70
    32
  0
VERTEX
  8
図枠
  5
612
 10
128.129
 20
-156.783
 30
0.000000
  70
    32
  0
VERTEX
  8
図枠
  5
613
 10
128.159
 20
-156.807
 30
0.000000
  70
    32
  0
VERTEX
  8
図枠
  5
614
 10
128.189
 20
-156.832
 30
0.000000
  70
    32
  0
VERTEX
  8
図枠
  5
615
 10
128.219
 20
-156.857
 30
0.000000
  70
    32
  0
VERTEX
  8
図枠
  5
616
 10
128.249
 20
-156.881
 30
0.000000
  70
    32
  0
VERTEX
  8
図枠
  5
617
 10
128.279
 20
-156.906
 30
0.000000
  70
    32
  0
VERTEX
  8
図枠
  5
618
 10
128.309
 20
-156.930
 30
0.000000
  70
    32
  0
VERTEX
  8
図枠
  5
619
 10
128.339
 20
-156.955
 30
0.000000
  70
    32
  0
VERTEX
  8
図枠
  5
61A
 10
128.369
 20
-156.979
 30
0.000000
  70
    32
  0
VERTEX
  8
図枠
  5
61B
 10
128.399
 20
-157.004
 30
0.000000
  70
    32
  0
VERTEX
  8
図枠
  5
61C
 10
128.429
 20
-157.028
 30
0.000000
  70
    32
  0
VERTEX
  8
図枠
  5
61D
 10
128.459
 20
-157.052
 30
0.000000
  70
    32
  0
VERTEX
  8
図枠
  5
61E
 10
128.489
 20
-157.076
 30
0.000000
  70
    32
  0
VERTEX
  8
図枠
  5
61F
 10
128.519
 20
-157.100
 30
0.000000
  70
    32
  0
VERTEX
  8
図枠
  5
620
 10
128.549
 20
-157.124
 30
0.000000
  70
    32
  0
VERTEX
  8
図枠
  5
621
 10
128.579
 20
-157.149
 30
0.000000
  70
    32
  0
VERTEX
  8
図枠
  5
622
 10
128.609
 20
-157.173
 30
0.000000
  70
    32
  0
VERTEX
  8
図枠
  5
623
 10
128.640
 20
-157.196
 30
0.000000
  70
    32
  0
VERTEX
  8
図枠
  5
624
 10
128.670
 20
-157.220
 30
0.000000
  70
    32
  0
VERTEX
  8
図枠
  5
625
 10
128.700
 20
-157.244
 30
0.000000
  70
    32
  0
VERTEX
  8
図枠
  5
626
 10
128.731
 20
-157.268
 30
0.000000
  70
    32
  0
VERTEX
  8
図枠
  5
627
 10
128.761
 20
-157.292
 30
0.000000
  70
    32
  0
VERTEX
  8
図枠
  5
628
 10
128.791
 20
-157.315
 30
0.000000
  70
    32
  0
VERTEX
  8
図枠
  5
629
 10
128.822
 20
-157.339
 30
0.000000
  70
    32
  0
VERTEX
  8
図枠
  5
62A
 10
128.852
 20
-157.362
 30
0.000000
  70
    32
  0
VERTEX
  8
図枠
  5
62B
 10
128.883
 20
-157.386
 30
0.000000
  70
    32
  0
VERTEX
  8
図枠
  5
62C
 10
128.913
 20
-157.409
 30
0.000000
  70
    32
  0
VERTEX
  8
図枠
  5
62D
 10
128.944
 20
-157.433
 30
0.000000
  70
    32
  0
VERTEX
  8
図枠
  5
62E
 10
128.974
 20
-157.456
 30
0.000000
  70
    32
  0
VERTEX
  8
図枠
  5
62F
 10
129.005
 20
-157.479
 30
0.000000
  70
    32
  0
VERTEX
  8
図枠
  5
630
 10
129.036
 20
-157.502
 30
0.000000
  70
    32
  0
VERTEX
  8
図枠
  5
631
 10
129.066
 20
-157.526
 30
0.000000
  70
    32
  0
VERTEX
  8
図枠
  5
632
 10
129.097
 20
-157.549
 30
0.000000
  70
    32
  0
VERTEX
  8
図枠
  5
633
 10
129.128
 20
-157.572
 30
0.000000
  70
    32
  0
VERTEX
  8
図枠
  5
634
 10
129.158
 20
-157.595
 30
0.000000
  70
    32
  0
VERTEX
  8
図枠
  5
635
 10
129.189
 20
-157.617
 30
0.000000
  70
    32
  0
VERTEX
  8
図枠
  5
636
 10
129.220
 20
-157.640
 30
0.000000
  70
    32
  0
VERTEX
  8
図枠
  5
637
 10
129.251
 20
-157.663
 30
0.000000
  70
    32
  0
VERTEX
  8
図枠
  5
638
 10
129.282
 20
-157.686
 30
0.000000
  70
    32
  0
VERTEX
  8
図枠
  5
639
 10
129.313
 20
-157.708
 30
0.000000
  70
    32
  0
VERTEX
  8
図枠
  5
63A
 10
129.344
 20
-157.731
 30
0.000000
  70
    32
  0
VERTEX
  8
図枠
  5
63B
 10
129.375
 20
-157.753
 30
0.000000
  70
    32
  0
VERTEX
  8
図枠
  5
63C
 10
129.406
 20
-157.776
 30
0.000000
  70
    32
  0
VERTEX
  8
図枠
  5
63D
 10
129.437
 20
-157.798
 30
0.000000
  70
    32
  0
VERTEX
  8
図枠
  5
63E
 10
129.468
 20
-157.820
 30
0.000000
  70
    32
  0
VERTEX
  8
図枠
  5
63F
 10
129.499
 20
-157.843
 30
0.000000
  70
    32
  0
VERTEX
  8
図枠
  5
640
 10
129.531
 20
-157.865
 30
0.000000
  70
    32
  0
VERTEX
  8
図枠
  5
641
 10
129.562
 20
-157.887
 30
0.000000
  70
    32
  0
VERTEX
  8
図枠
  5
642
 10
129.593
 20
-157.909
 30
0.000000
  70
    32
  0
VERTEX
  8
図枠
  5
643
 10
129.624
 20
-157.931
 30
0.000000
  70
    32
  0
VERTEX
  8
図枠
  5
644
 10
129.656
 20
-157.953
 30
0.000000
  70
    32
  0
VERTEX
  8
図枠
  5
645
 10
129.687
 20
-157.974
 30
0.000000
  70
    32
  0
VERTEX
  8
図枠
  5
646
 10
129.719
 20
-157.996
 30
0.000000
  70
    32
  0
VERTEX
  8
図枠
  5
647
 10
129.750
 20
-158.018
 30
0.000000
  70
    32
  0
VERTEX
  8
図枠
  5
648
 10
129.782
 20
-158.039
 30
0.000000
  70
    32
  0
VERTEX
  8
図枠
  5
649
 10
129.813
 20
-158.061
 30
0.000000
  70
    32
  0
VERTEX
  8
図枠
  5
64A
 10
129.845
 20
-158.082
 30
0.000000
  70
    32
  0
VERTEX
  8
図枠
  5
64B
 10
129.876
 20
-158.103
 30
0.000000
  70
    32
  0
VERTEX
  8
図枠
  5
64C
 10
129.908
 20
-158.125
 30
0.000000
  70
    32
  0
VERTEX
  8
図枠
  5
64D
 10
129.940
 20
-158.146
 30
0.000000
  70
    32
  0
VERTEX
  8
図枠
  5
64E
 10
129.972
 20
-158.167
 30
0.000000
  70
    32
  0
VERTEX
  8
図枠
  5
64F
 10
130.003
 20
-158.188
 30
0.000000
  70
    32
  0
VERTEX
  8
図枠
  5
650
 10
130.035
 20
-158.209
 30
0.000000
  70
    32
  0
VERTEX
  8
図枠
  5
651
 10
130.067
 20
-158.230
 30
0.000000
  70
    32
  0
VERTEX
  8
図枠
  5
652
 10
130.099
 20
-158.251
 30
0.000000
  70
    32
  0
VERTEX
  8
図枠
  5
653
 10
130.131
 20
-158.271
 30
0.000000
  70
    32
  0
VERTEX
  8
図枠
  5
654
 10
130.163
 20
-158.292
 30
0.000000
  70
    32
  0
VERTEX
  8
図枠
  5
655
 10
130.195
 20
-158.313
 30
0.000000
  70
    32
  0
VERTEX
  8
図枠
  5
656
 10
130.227
 20
-158.333
 30
0.000000
  70
    32
  0
VERTEX
  8
図枠
  5
657
 10
130.259
 20
-158.353
 30
0.000000
  70
    32
  0
VERTEX
  8
図枠
  5
658
 10
130.292
 20
-158.374
 30
0.000000
  70
    32
  0
VERTEX
  8
図枠
  5
659
 10
130.324
 20
-158.394
 30
0.000000
  70
    32
  0
VERTEX
  8
図枠
  5
65A
 10
130.356
 20
-158.414
 30
0.000000
  70
    32
  0
VERTEX
  8
図枠
  5
65B
 10
130.388
 20
-158.434
 30
0.000000
  70
    32
  0
VERTEX
  8
図枠
  5
65C
 10
130.421
 20
-158.454
 30
0.000000
  70
    32
  0
VERTEX
  8
図枠
  5
65D
 10
130.453
 20
-158.474
 30
0.000000
  70
    32
  0
VERTEX
  8
図枠
  5
65E
 10
130.486
 20
-158.494
 30
0.000000
  70
    32
  0
VERTEX
  8
図枠
  5
65F
 10
130.518
 20
-158.513
 30
0.000000
  70
    32
  0
VERTEX
  8
図枠
  5
660
 10
130.551
 20
-158.533
 30
0.000000
  70
    32
  0
SEQEND
  8
図枠
  5
661
  0
INSERT
  5
123
  8
0
  6
CONTINUOUS
  2
*U51
 10
0.0
 20
0.0
 30
0.0
  0
LINE
  5
124
  8
図枠
 10
125.7688868308
 20
-154.16481964409999
 30
0.0
 11
132.1682468308
 21
-154.16481964409999
 31
0.0
  0
LINE
  5
125
  8
図枠
 10
148.17623506539999
 20
-119.9051462731
 30
0.0
 11
148.17623506539999
 21
-124.51268547310001
 31
0.0
  0
LINE
  5
126
  8
図枠
 10
148.17623506539999
 20
-119.9051462731
 30
0.0
 11
157.3913134654
 21
-117.60137667310001
 31
0.0
  0
LINE
  5
127
  8
図枠
 10
159.5141395391
 20
-91.711965873099984
 30
0.0
 11
159.5141395391
 21
-80.713065873100007
 31
0.0
  0
INSERT
  5
128
  8
0
  6
CONTINUOUS
  2
*U52
 10
0.0
 20
0.0
 30
0.0
  0
INSERT
  5
129
  8
0
  6
CONTINUOUS
  2
*U53
 10
0.0
 20
0.0
 30
0.0
  0
INSERT
  5
12A
  8
0
  6
CONTINUOUS
  2
*U54
 10
0.0
 20
0.0
 30
0.0
  0
INSERT
  5
12B
  8
0
  6
CONTINUOUS
  2
*U55
 10
0.0
 20
0.0
 30
0.0
  0
LINE
  5
12C
  8
図枠
 10
157.3913134654
 20
-117.60137667310001
 30
0.0
 11
157.3913134654
 21
-126.8164550731
 31
0.0
  0
LINE
  5
12D
  8
図枠
 10
143.71506427080001
 20
-157.3291267537
 30
0.0
 11
148.9326757908
 21
-157.3291267537
 31
0.0
  0
LINE
  5
12E
  8
図枠
 10
111.91330283080001
 20
-158.4490147537
 30
0.0
 11
111.91330283080001
 21
-156.04925475370001
 31
0.0
  0
LINE
  5
12F
  8
図枠
 10
109.5191395391
 20
-139.20721587310001
 30
0.0
 11
161.51393953909999
 21
-139.20721587310001
 31
0.0
  0
LINE
  5
130
  8
図枠
 10
119.11258283079999
 20
-156.8491747537
 30
0.0
 11
119.11258283079999
 21
-156.04925475370001
 31
0.0
  0
LINE
  5
131
  8
図枠
 10
85.521539539100004
 20
-113.7097658731
 30
0.0
 11
85.521539539100004
 21
-130.7080658731
 31
0.0
  0
LINE
  5
132
  8
図枠
 10
152.24375428619999
 20
-153.1695427537
 30
0.0
 11
152.00954690890001
 21
-152.35565792560001
 31
0.0
  0
LINE
  5
133
  8
図枠
 10
157.3913134654
 20
-117.60137667310001
 30
0.0
 11
157.3913134654
 21
-126.8164550731
 31
0.0
  0
LINE
  5
134
  8
図枠
 10
148.17623506539999
 20
-119.9051462731
 30
0.0
 11
157.3913134654
 21
-117.60137667310001
 31
0.0
  0
LINE
  5
135
  8
図枠
 10
45.525539539099988
 20
-113.7097658731
 30
0.0
 11
45.525539539099988
 21
-164.7046658731
 31
0.0
  0
LINE
  5
136
  8
図枠
 10
136.748139759
 20
-158.2076488271
 30
0.0
 11
136.46320495969999
 21
-158.48662595729999
 31
0.0
  0
LINE
  5
137
  8
図枠
  6
BORDER
 10
130.73301793909999
 20
-122.2089158731
 30
0.0
 11
160.29806113910001
 21
-122.2089158731
 31
0.0
  0
CIRCLE
  5
138
  8
図枠
 10
137.64432673909999
 20
-122.2089158731
 30
0.0
 40
4.6075391999999988
  0
LINE
  5
139
  8
図枠
 10
45.525539539099988
 20
-147.7063658731
 30
0.0
 11
277.50233953909998
 21
-147.7063658731
 31
0.0
  0
LINE
  5
13A
  8
図枠
 10
45.525539539099988
 20
-130.7080658731
 30
0.0
 11
277.50233953909998
 21
-130.7080658731
 31
0.0
  0
INSERT
  5
13B
  8
0
  6
CONTINUOUS
  2
*U56
 10
0.0
 20
0.0
 30
0.0
  0
LINE
  5
13C
  8
図枠
 10
107.91370283080001
 20
-159.24893475370001
 30
0.0
 11
107.91370283080001
 21
-161.6486947537
 31
0.0
  0
POLYLINE
  8
図枠
  5
662
  66
     1
 10
0.000000
 20
0.000000
 30
0.000000
  70
     8
  0
VERTEX
  8
図枠
  5
663
 10
136.463
 20
-158.487
 30
0.000000
  70
    32
  0
VERTEX
  8
図枠
  5
664
 10
136.491
 20
-158.495
 30
0.000000
  70
    32
  0
VERTEX
  8
図枠
  5
665
 10
136.519
 20
-158.502
 30
0.000000
  70
    32
  0
VERTEX
  8
図枠
  5
666
 10
136.547
 20
-158.510
 30
0.000000
  70
    32
  0
VERTEX
  8
図枠
  5
667
 10
136.575
 20
-158.518
 30
0.000000
  70
    32
  0
VERTEX
  8
図枠
  5
668
 10
136.603
 20
-158.526
 30
0.000000
  70
    32
  0
VERTEX
  8
図枠
  5
669
 10
136.631
 20
-158.534
 30
0.000000
  70
    32
  0
VERTEX
  8
図枠
  5
66A
 10
136.660
 20
-158.541
 30
0.000000
  70
    32
  0
VERTEX
  8
図枠
  5
66B
 10
136.688
 20
-158.549
 30
0.000000
  70
    32
  0
VERTEX
  8
図枠
  5
66C
 10
136.716
 20
-158.556
 30
0.000000
  70
    32
  0
VERTEX
  8
図枠
  5
66D
 10
136.744
 20
-158.564
 30
0.000000
  70
    32
  0
VERTEX
  8
図枠
  5
66E
 10
136.772
 20
-158.571
 30
0.000000
  70
    32
  0
VERTEX
  8
図枠
  5
66F
 10
136.801
 20
-158.579
 30
0.000000
  70
    32
  0
VERTEX
  8
図枠
  5
670
 10
136.829
 20
-158.586
 30
0.000000
  70
    32
  0
VERTEX
  8
図枠
  5
671
 10
136.857
 20
-158.594
 30
0.000000
  70
    32
  0
VERTEX
  8
図枠
  5
672
 10
136.886
 20
-158.601
 30
0.000000
  70
    32
  0
VERTEX
  8
図枠
  5
673
 10
136.914
 20
-158.608
 30
0.000000
  70
    32
  0
VERTEX
  8
図枠
  5
674
 10
136.942
 20
-158.615
 30
0.000000
  70
    32
  0
VERTEX
  8
図枠
  5
675
 10
136.971
 20
-158.623
 30
0.000000
  70
    32
  0
VERTEX
  8
図枠
  5
676
 10
136.999
 20
-158.630
 30
0.000000
  70
    32
  0
VERTEX
  8
図枠
  5
677
 10
137.028
 20
-158.637
 30
0.000000
  70
    32
  0
VERTEX
  8
図枠
  5
678
 10
137.056
 20
-158.644
 30
0.000000
  70
    32
  0
VERTEX
  8
図枠
  5
679
 10
137.085
 20
-158.651
 30
0.000000
  70
    32
  0
VERTEX
  8
図枠
  5
67A
 10
137.113
 20
-158.658
 30
0.000000
  70
    32
  0
VERTEX
  8
図枠
  5
67B
 10
137.142
 20
-158.665
 30
0.000000
  70
    32
  0
VERTEX
  8
図枠
  5
67C
 10
137.170
 20
-158.672
 30
0.000000
  70
    32
  0
VERTEX
  8
図枠
  5
67D
 10
137.199
 20
-158.679
 30
0.000000
  70
    32
  0
VERTEX
  8
図枠
  5
67E
 10
137.228
 20
-158.686
 30
0.000000
  70
    32
  0
VERTEX
  8
図枠
  5
67F
 10
137.256
 20
-158.693
 30
0.000000
  70
    32
  0
VERTEX
  8
図枠
  5
680
 10
137.285
 20
-158.699
 30
0.000000
  70
    32
  0
VERTEX
  8
図枠
  5
681
 10
137.314
 20
-158.706
 30
0.000000
  70
    32
  0
VERTEX
  8
図枠
  5
682
 10
137.342
 20
-158.713
 30
0.000000
  70
    32
  0
VERTEX
  8
図枠
  5
683
 10
137.371
 20
-158.719
 30
0.000000
  70
    32
  0
VERTEX
  8
図枠
  5
684
 10
137.400
 20
-158.726
 30
0.000000
  70
    32
  0
VERTEX
  8
図枠
  5
685
 10
137.429
 20
-158.733
 30
0.000000
  70
    32
  0
VERTEX
  8
図枠
  5
686
 10
137.458
 20
-158.739
 30
0.000000
  70
    32
  0
VERTEX
  8
図枠
  5
687
 10
137.486
 20
-158.746
 30
0.000000
  70
    32
  0
VERTEX
  8
図枠
  5
688
 10
137.515
 20
-158.752
 30
0.000000
  70
    32
  0
VERTEX
  8
図枠
  5
689
 10
137.544
 20
-158.759
 30
0.000000
  70
    32
  0
VERTEX
  8
図枠
  5
68A
 10
137.573
 20
-158.765
 30
0.000000
  70
    32
  0
VERTEX
  8
図枠
  5
68B
 10
137.602
 20
-158.772
 30
0.000000
  70
    32
  0
VERTEX
  8
図枠
  5
68C
 10
137.631
 20
-158.778
 30
0.000000
  70
    32
  0
VERTEX
  8
図枠
  5
68D
 10
137.660
 20
-158.784
 30
0.000000
  70
    32
  0
VERTEX
  8
図枠
  5
68E
 10
137.689
 20
-158.791
 30
0.000000
  70
    32
  0
VERTEX
  8
図枠
  5
68F
 10
137.718
 20
-158.797
 30
0.000000
  70
    32
  0
VERTEX
  8
図枠
  5
690
 10
137.747
 20
-158.803
 30
0.000000
  70
    32
  0
VERTEX
  8
図枠
  5
691
 10
137.776
 20
-158.810
 30
0.000000
  70
    32
  0
VERTEX
  8
図枠
  5
692
 10
137.805
 20
-158.816
 30
0.000000
  70
    32
  0
VERTEX
  8
図枠
  5
693
 10
137.834
 20
-158.822
 30
0.000000
  70
    32
  0
VERTEX
  8
図枠
  5
694
 10
137.863
 20
-158.828
 30
0.000000
  70
    32
  0
VERTEX
  8
図枠
  5
695
 10
137.892
 20
-158.834
 30
0.000000
  70
    32
  0
VERTEX
  8
図枠
  5
696
 10
137.921
 20
-158.840
 30
0.000000
  70
    32
  0
VERTEX
  8
図枠
  5
697
 10
137.950
 20
-158.846
 30
0.000000
  70
    32
  0
VERTEX
  8
図枠
  5
698
 10
137.979
 20
-158.852
 30
0.000000
  70
    32
  0
VERTEX
  8
図枠
  5
699
 10
138.009
 20
-158.858
 30
0.000000
  70
    32
  0
VERTEX
  8
図枠
  5
69A
 10
138.038
 20
-158.864
 30
0.000000
  70
    32
  0
VERTEX
  8
図枠
  5
69B
 10
138.067
 20
-158.870
 30
0.000000
  70
    32
  0
VERTEX
  8
図枠
  5
69C
 10
138.096
 20
-158.876
 30
0.000000
  70
    32
  0
VERTEX
  8
図枠
  5
69D
 10
138.125
 20
-158.882
 30
0.000000
  70
    32
  0
VERTEX
  8
図枠
  5
69E
 10
138.155
 20
-158.888
 30
0.000000
  70
    32
  0
VERTEX
  8
図枠
  5
69F
 10
138.184
 20
-158.894
 30
0.000000
  70
    32
  0
VERTEX
  8
図枠
  5
6A0
 10
138.213
 20
-158.900
 30
0.000000
  70
    32
  0
VERTEX
  8
図枠
  5
6A1
 10
138.243
 20
-158.906
 30
0.000000
  70
    32
  0
VERTEX
  8
図枠
  5
6A2
 10
138.272
 20
-158.911
 30
0.000000
  70
    32
  0
VERTEX
  8
図枠
  5
6A3
 10
138.301
 20
-158.917
 30
0.000000
  70
    32
  0
VERTEX
  8
図枠
  5
6A4
 10
138.331
 20
-158.923
 30
0.000000
  70
    32
  0
VERTEX
  8
図枠
  5
6A5
 10
138.360
 20
-158.929
 30
0.000000
  70
    32
  0
VERTEX
  8
図枠
  5
6A6
 10
138.389
 20
-158.934
 30
0.000000
  70
    32
  0
VERTEX
  8
図枠
  5
6A7
 10
138.419
 20
-158.940
 30
0.000000
  70
    32
  0
VERTEX
  8
図枠
  5
6A8
 10
138.448
 20
-158.946
 30
0.000000
  70
    32
  0
VERTEX
  8
図枠
  5
6A9
 10
138.477
 20
-158.951
 30
0.000000
  70
    32
  0
VERTEX
  8
図枠
  5
6AA
 10
138.507
 20
-158.957
 30
0.000000
  70
    32
  0
VERTEX
  8
図枠
  5
6AB
 10
138.536
 20
-158.962
 30
0.000000
  70
    32
  0
VERTEX
  8
図枠
  5
6AC
 10
138.566
 20
-158.968
 30
0.000000
  70
    32
  0
VERTEX
  8
図枠
  5
6AD
 10
138.595
 20
-158.973
 30
0.000000
  70
    32
  0
VERTEX
  8
図枠
  5
6AE
 10
138.625
 20
-158.979
 30
0.000000
  70
    32
  0
VERTEX
  8
図枠
  5
6AF
 10
138.654
 20
-158.984
 30
0.000000
  70
    32
  0
VERTEX
  8
図枠
  5
6B0
 10
138.684
 20
-158.990
 30
0.000000
  70
    32
  0
VERTEX
  8
図枠
  5
6B1
 10
138.713
 20
-158.995
 30
0.000000
  70
    32
  0
VERTEX
  8
図枠
  5
6B2
 10
138.743
 20
-159.001
 30
0.000000
  70
    32
  0
VERTEX
  8
図枠
  5
6B3
 10
138.772
 20
-159.006
 30
0.000000
  70
    32
  0
VERTEX
  8
図枠
  5
6B4
 10
138.802
 20
-159.012
 30
0.000000
  70
    32
  0
VERTEX
  8
図枠
  5
6B5
 10
138.831
 20
-159.017
 30
0.000000
  70
    32
  0
VERTEX
  8
図枠
  5
6B6
 10
138.861
 20
-159.023
 30
0.000000
  70
    32
  0
VERTEX
  8
図枠
  5
6B7
 10
138.890
 20
-159.028
 30
0.000000
  70
    32
  0
VERTEX
  8
図枠
  5
6B8
 10
138.920
 20
-159.033
 30
0.000000
  70
    32
  0
VERTEX
  8
図枠
  5
6B9
 10
138.949
 20
-159.039
 30
0.000000
  70
    32
  0
VERTEX
  8
図枠
  5
6BA
 10
138.979
 20
-159.044
 30
0.000000
  70
    32
  0
VERTEX
  8
図枠
  5
6BB
 10
139.009
 20
-159.049
 30
0.000000
  70
    32
  0
VERTEX
  8
図枠
  5
6BC
 10
139.038
 20
-159.055
 30
0.000000
  70
    32
  0
VERTEX
  8
図枠
  5
6BD
 10
139.068
 20
-159.060
 30
0.000000
  70
    32
  0
VERTEX
  8
図枠
  5
6BE
 10
139.097
 20
-159.065
 30
0.000000
  70
    32
  0
VERTEX
  8
図枠
  5
6BF
 10
139.127
 20
-159.070
 30
0.000000
  70
    32
  0
VERTEX
  8
図枠
  5
6C0
 10
139.157
 20
-159.076
 30
0.000000
  70
    32
  0
VERTEX
  8
図枠
  5
6C1
 10
139.186
 20
-159.081
 30
0.000000
  70
    32
  0
VERTEX
  8
図枠
  5
6C2
 10
139.216
 20
-159.086
 30
0.000000
  70
    32
  0
VERTEX
  8
図枠
  5
6C3
 10
139.246
 20
-159.091
 30
0.000000
  70
    32
  0
VERTEX
  8
図枠
  5
6C4
 10
139.275
 20
-159.096
 30
0.000000
  70
    32
  0
VERTEX
  8
図枠
  5
6C5
 10
139.305
 20
-159.102
 30
0.000000
  70
    32
  0
VERTEX
  8
図枠
  5
6C6
 10
139.335
 20
-159.107
 30
0.000000
  70
    32
  0
VERTEX
  8
図枠
  5
6C7
 10
139.364
 20
-159.112
 30
0.000000
  70
    32
  0
VERTEX
  8
図枠
  5
6C8
 10
139.394
 20
-159.117
 30
0.000000
  70
    32
  0
VERTEX
  8
図枠
  5
6C9
 10
139.424
 20
-159.122
 30
0.000000
  70
    32
  0
VERTEX
  8
図枠
  5
6CA
 10
139.453
 20
-159.127
 30
0.000000
  70
    32
  0
VERTEX
  8
図枠
  5
6CB
 10
139.483
 20
-159.133
 30
0.000000
  70
    32
  0
VERTEX
  8
図枠
  5
6CC
 10
139.513
 20
-159.138
 30
0.000000
  70
    32
  0
VERTEX
  8
図枠
  5
6CD
 10
139.543
 20
-159.143
 30
0.000000
  70
    32
  0
VERTEX
  8
図枠
  5
6CE
 10
139.572
 20
-159.148
 30
0.000000
  70
    32
  0
VERTEX
  8
図枠
  5
6CF
 10
139.602
 20
-159.153
 30
0.000000
  70
    32
  0
VERTEX
  8
図枠
  5
6D0
 10
139.632
 20
-159.158
 30
0.000000
  70
    32
  0
VERTEX
  8
図枠
  5
6D1
 10
139.662
 20
-159.163
 30
0.000000
  70
    32
  0
VERTEX
  8
図枠
  5
6D2
 10
139.691
 20
-159.168
 30
0.000000
  70
    32
  0
VERTEX
  8
図枠
  5
6D3
 10
139.721
 20
-159.173
 30
0.000000
  70
    32
  0
VERTEX
  8
図枠
  5
6D4
 10
139.751
 20
-159.178
 30
0.000000
  70
    32
  0
VERTEX
  8
図枠
  5
6D5
 10
139.780
 20
-159.183
 30
0.000000
  70
    32
  0
VERTEX
  8
図枠
  5
6D6
 10
139.810
 20
-159.188
 30
0.000000
  70
    32
  0
VERTEX
  8
図枠
  5
6D7
 10
139.840
 20
-159.194
 30
0.000000
  70
    32
  0
VERTEX
  8
図枠
  5
6D8
 10
139.870
 20
-159.199
 30
0.000000
  70
    32
  0
VERTEX
  8
図枠
  5
6D9
 10
139.900
 20
-159.204
 30
0.000000
  70
    32
  0
VERTEX
  8
図枠
  5
6DA
 10
139.929
 20
-159.209
 30
0.000000
  70
    32
  0
VERTEX
  8
図枠
  5
6DB
 10
139.959
 20
-159.214
 30
0.000000
  70
    32
  0
VERTEX
  8
図枠
  5
6DC
 10
139.989
 20
-159.219
 30
0.000000
  70
    32
  0
VERTEX
  8
図枠
  5
6DD
 10
140.019
 20
-159.224
 30
0.000000
  70
    32
  0
VERTEX
  8
図枠
  5
6DE
 10
140.048
 20
-159.229
 30
0.000000
  70
    32
  0
VERTEX
  8
図枠
  5
6DF
 10
140.078
 20
-159.234
 30
0.000000
  70
    32
  0
VERTEX
  8
図枠
  5
6E0
 10
140.108
 20
-159.239
 30
0.000000
  70
    32
  0
VERTEX
  8
図枠
  5
6E1
 10
140.138
 20
-159.244
 30
0.000000
  70
    32
  0
VERTEX
  8
図枠
  5
6E2
 10
140.167
 20
-159.249
 30
0.000000
  70
    32
  0
SEQEND
  8
図枠
  5
6E3
  0
LINE
  5
13E
  8
図枠
 10
154.2694156538
 20
-160.20883875370001
 30
0.0
 11
158.11362427079999
 21
-160.20883875370001
 31
0.0
  0
LINE
  5
13F
  8
図枠
 10
148.17623506539999
 20
-124.51268547310001
 30
0.0
 11
157.3913134654
 21
-126.8164550731
 31
0.0
  0
LINE
  5
140
  8
図枠
 10
150.4343922708
 20
-162.44861475370001
 30
0.0
 11
149.7773913108
 21
-160.20883875370001
 31
0.0
  0
LINE
  5
141
  8
図枠
 10
153.44073600339999
 20
-157.3291267537
 30
0.0
 11
153.07243393659999
 21
-156.04925475370001
 31
0.0
  0
LINE
  5
142
  8
図枠
 10
148.17623506539999
 20
-124.51268547310001
 30
0.0
 11
157.3913134654
 21
-126.8164550731
 31
0.0
  0
LINE
  5
143
  8
ﾚｲﾔ_1
  6
STITCH
 10
-152.0
 20
27.076953124999999
 30
0.0
 11
-151.5
 21
27.076953124999999
 31
0.0
  0
LINE
  5
144
  8
ﾚｲﾔ_1
  6
STITCH
 10
-151.5
 20
27.076953124999999
 30
0.0
 11
-151.5
 21
20.576953124999999
 31
0.0
  0
LINE
  5
145
  8
ﾚｲﾔ_1
  6
STITCH
 10
-152.0
 20
20.576953124999999
 30
0.0
 11
-152.0
 21
27.076953124999999
 31
0.0
  0
LINE
  5
146
  8
ﾚｲﾔ_1
  6
STITCH
 10
-154.0
 20
29.076953124999999
 30
0.0
 11
-152.0
 21
27.076953124999999
 31
0.0
  0
LINE
  5
147
  8
ﾚｲﾔ_1
  6
STITCH
 10
-149.5
 20
29.076953124999999
 30
0.0
 11
-151.5
 21
27.076953124999999
 31
0.0
  0
LINE
  5
148
  8
ﾚｲﾔ_1
  6
STITCH
 10
-149.5
 20
18.576953124999999
 30
0.0
 11
-151.5
 21
20.576953124999999
 31
0.0
  0
LINE
  5
149
  8
ﾚｲﾔ_1
  6
STITCH
 10
-154.0
 20
18.576953124999999
 30
0.0
 11
-152.0
 21
20.576953124999999
 31
0.0
  0
LINE
  5
14A
  8
ﾚｲﾔ_1
 62
     5
 10
-149.5
 20
145.18710937500001
 30
0.0
 11
-149.5
 21
105.18710937500001
 31
0.0
  0
LINE
  5
14B
  8
ﾚｲﾔ_1
 62
     5
 10
-154.0
 20
145.18710937500001
 30
0.0
 11
-154.0
 21
105.18710937500001
 31
0.0
  0
CIRCLE
  5
14C
  8
ﾚｲﾔ_1
 62
     5
 10
-124.0
 20
125.18710937500001
 30
0.0
 40
5.25
  0
DIMENSION
  5
15B
  8
寸法線
  2
*D6
 10
-124.0
 20
85.187109375000006
 30
0.0
 11
-94.0
 21
85.187109375000006
 31
0.0
 70
   128
  1
<>
 13
-124.0
 23
117.68710937500001
 33
0.0
 14
-64.0
 24
117.68710937500001
 34
0.0
 50
180.0
  0
DIMENSION
  5
16A
  8
寸法線
  2
*D7
 10
-191.90673828129999
 20
145.18710937500001
 30
0.0
 11
-191.90673828129999
 21
125.18710937500001
 31
0.0
 70
   128
  1
<>
 13
-154.0
 23
145.18710937500001
 33
0.0
 14
-154.0
 24
105.18710937500001
 34
0.0
 50
90.0
  0
DIMENSION
  5
179
  8
寸法線
  2
*D8
 10
-64.0
 20
85.187109375000006
 30
0.0
 11
-49.0
 21
85.187109375000006
 31
0.0
 70
   128
  1
<>
 13
-64.0
 23
117.68710937500001
 33
0.0
 14
-34.0
 24
105.18710937500001
 34
0.0
 50
180.0
  0
DIMENSION
  5
188
  8
寸法線
  2
*D9
 10
-154.0
 20
85.187109375000006
 30
0.0
 11
-139.0
 21
85.187109375000006
 31
0.0
 70
   128
  1
<>
 13
-154.0
 23
105.18710937500001
 33
0.0
 14
-124.0
 24
117.68710937500001
 34
0.0
 50
180.0
  0
DIMENSION
  5
197
  8
寸法線
  2
*D10
 10
-174.00000025130001
 20
125.18710937500001
 30
0.0
 11
-174.00000025130001
 21
115.18710937500001
 31
0.0
 70
   128
  1
<>
 13
-158.10048319200001
 23
125.18710937500001
 33
0.0
 14
-154.0
 24
105.18710937500001
 34
0.0
 50
90.0
  0
DIMENSION
  5
1A6
  8
寸法線
  2
*D11
 10
-174.00000025130001
 20
145.18710937500001
 30
0.0
 11
-174.00000025130001
 21
135.18710937500001
 31
0.0
 70
   128
  1
<>
 13
-154.0
 23
145.18710937500001
 33
0.0
 14
-158.10048319200001
 24
125.18710937500001
 34
0.0
 50
90.0
  0
INSERT
  5
1A7
  8
0
  6
CONTINUOUS
  2
*U57
 10
0.0
 20
0.0
 30
0.0
  0
INSERT
  5
1A8
  8
0
  6
CONTINUOUS
  2
*U58
 10
0.0
 20
0.0
 30
0.0
  0
CIRCLE
  5
1A9
  8
図枠
 10
137.64432673909999
 20
-122.2089158731
 30
0.0
 40
2.303769599999999
  0
CIRCLE
  5
1AA
  8
図枠
 10
137.64432673909999
 20
-122.2089158731
 30
0.0
 40
4.6075391999999988
  0
ARC
  5
1AB
  8
図枠
 10
127.6886948308
 20
-153.1695427537
 30
0.0
 40
6.0793919999999986
 50
331.39928138329998
 51
358.49204224580001
  0
LINE
  5
1AC
  8
図枠
 10
111.91330283080001
 20
-153.6494947537
 30
0.0
 11
111.91330283080001
 21
-152.84957475370001
 31
0.0
  0
LINE
  5
1AD
  8
図枠
 10
121.51234283079999
 20
-150.4498147537
 30
0.0
 11
115.11298283079999
 21
-150.4498147537
 31
0.0
  0
LINE
  5
1AE
  8
図枠
 10
45.525539539099988
 20
-102.7108658731
 30
0.0
 11
277.50233953909998
 21
-102.7108658731
 31
0.0
  0
CIRCLE
  5
1AF
  8
図枠
 10
137.64432673909999
 20
-122.2089158731
 30
0.0
 40
2.303769599999999
  0
DIMENSION
  5
1BE
  8
寸法線
  2
*D12
 10
-13.25
 20
-46.17304687499999
 30
0.0
 11
-13.25
 21
-27.66601961260001
 31
0.0
 70
   128
  1
<>t
 13
-34.0
 23
-46.17304687499999
 33
0.0
 14
-33.25
 24
-41.67304687499999
 34
0.0
 50
90.0
  0
CIRCLE
  5
1BF
  8
ﾚｲﾔ_1
 62
     5
 10
-64.0
 20
125.18710937500001
 30
0.0
 40
5.25
  0
CIRCLE
  5
1C0
  8
ﾚｲﾔ_1
 62
     5
 10
-64.0
 20
125.18710937500001
 30
0.0
 40
3.25
  0
CIRCLE
  5
1C1
  8
ﾚｲﾔ_1
 62
     5
 10
-124.0
 20
125.18710937500001
 30
0.0
 40
3.25
  0
LINE
  5
1C2
  8
ﾚｲﾔ_1
  6
STITCH
 10
-154.0
 20
119.93710937500001
 30
0.0
 11
-152.0
 21
121.93710937500001
 31
0.0
  0
LINE
  5
1C3
  8
ﾚｲﾔ_1
  6
STITCH
 10
-149.5
 20
119.93710937500001
 30
0.0
 11
-151.5
 21
121.93710937500001
 31
0.0
  0
LINE
  5
1C4
  8
ﾚｲﾔ_1
  6
STITCH
 10
-149.5
 20
130.43710937500001
 30
0.0
 11
-151.5
 21
128.43710937500001
 31
0.0
  0
LINE
  5
1C5
  8
ﾚｲﾔ_1
  6
STITCH
 10
-154.0
 20
130.43710937500001
 30
0.0
 11
-152.0
 21
128.43710937500001
 31
0.0
  0
LINE
  5
1C6
  8
ﾚｲﾔ_1
  6
STITCH
 10
-152.0
 20
121.93710937500001
 30
0.0
 11
-152.0
 21
128.43710937500001
 31
0.0
  0
LINE
  5
1C7
  8
ﾚｲﾔ_1
  6
STITCH
 10
-151.5
 20
128.43710937500001
 30
0.0
 11
-151.5
 21
121.93710937500001
 31
0.0
  0
LINE
  5
1C8
  8
ﾚｲﾔ_1
  6
STITCH
 10
-152.0
 20
128.43710937500001
 30
0.0
 11
-151.5
 21
128.43710937500001
 31
0.0
  0
LINE
  5
1C9
  8
ﾚｲﾔ_1
  6
STITCH
 10
-152.0
 20
121.93710937500001
 30
0.0
 11
-151.5
 21
121.93710937500001
 31
0.0
  0
LINE
  5
1CA
  8
ﾚｲﾔ_1
  6
BORDER
 62
     3
 10
-158.7679378606
 20
125.18710937500001
 30
0.0
 11
-145.39951680799999
 21
125.18710937500001
 31
0.0
  0
LINE
  5
1CB
  8
ﾚｲﾔ_1
  6
BORDER
 62
     3
 10
-131.5
 20
125.18710937500001
 30
0.0
 11
-116.5
 21
125.18710937500001
 31
0.0
  0
LINE
  5
1CC
  8
ﾚｲﾔ_1
  6
BORDER
 62
     3
 10
-124.0
 20
132.68710937500001
 30
0.0
 11
-124.0
 21
117.68710937500001
 31
0.0
  0
LINE
  5
1CD
  8
ﾚｲﾔ_1
  6
BORDER
 62
     3
 10
-71.5
 20
125.18710937500001
 30
0.0
 11
-56.5
 21
125.18710937500001
 31
0.0
  0
LINE
  5
1CE
  8
ﾚｲﾔ_1
  6
BORDER
 62
     3
 10
-64.0
 20
132.68710937500001
 30
0.0
 11
-64.0
 21
117.68710937500001
 31
0.0
  0
ARC
  5
1CF
  8
ﾚｲﾔ_1
 62
     5
 10
-39.0
 20
141.18710937500001
 30
0.0
 40
5.0
 50
0.0000003455
 51
53.130102354199998
  0
ARC
  5
1D0
  8
ﾚｲﾔ_1
 62
     5
 10
-39.0
 20
109.18710937500001
 30
0.0
 40
5.0
 50
306.86989764579999
 51
359.99999965450002
  0
LINE
  5
1D1
  8
ﾚｲﾔ_1
 62
     5
 10
-36.0
 20
145.18710937500001
 30
0.0
 11
-154.0
 21
145.18710937500001
 31
0.0
  0
LINE
  5
1D2
  8
ﾚｲﾔ_1
 62
     5
 10
-154.0
 20
105.18710937500001
 30
0.0
 11
-36.0
 21
105.18710937500001
 31
0.0
  0
LINE
  5
1D3
  8
ﾚｲﾔ_1
 62
     5
 10
-34.0
 20
141.1871094052
 30
0.0
 11
-34.0
 21
109.18710934480001
 31
0.0
  0
LINE
  5
1D4
  8
ﾚｲﾔ_1
 62
     5
 10
-149.5
 20
43.826953125000003
 30
0.0
 11
-154.0
 21
43.826953125000003
 31
0.0
  0
LINE
  5
1D5
  8
ﾚｲﾔ_1
  6
BORDER
 62
     3
 10
-158.7679378606
 20
23.826953124999999
 30
0.0
 11
-145.39951680799999
 21
23.826953124999999
 31
0.0
  0
LINE
  5
1D6
  8
ﾚｲﾔ_1
  6
STITCH
 10
-152.0
 20
20.576953124999999
 30
0.0
 11
-151.5
 21
20.576953124999999
 31
0.0
  0
LINE
  5
1D7
  8
ﾚｲﾔ_1
  6
STITCH
 10
-154.0
 20
-10.923046875000001
 30
0.0
 11
-152.0
 21
-12.923046875000001
 31
0.0
  0
LINE
  5
1D8
  8
ﾚｲﾔ_1
  6
STITCH
 10
-152.0
 20
-19.423046875000001
 30
0.0
 11
-152.0
 21
-12.923046875000001
 31
0.0
  0
LINE
  5
1D9
  8
ﾚｲﾔ_1
  6
STITCH
 10
-151.5
 20
-12.923046875000001
 30
0.0
 11
-151.5
 21
-19.423046875000001
 31
0.0
  0
LINE
  5
1DA
  8
ﾚｲﾔ_1
  6
STITCH
 10
-152.0
 20
-12.923046875000001
 30
0.0
 11
-151.5
 21
-12.923046875000001
 31
0.0
  0
LINE
  5
1DB
  8
ﾚｲﾔ_1
  6
STITCH
 10
-152.0
 20
-19.423046875000001
 30
0.0
 11
-151.5
 21
-19.423046875000001
 31
0.0
  0
LINE
  5
1DC
  8
ﾚｲﾔ_1
  6
BORDER
 62
     3
 10
-158.7679378606
 20
-16.173046875000001
 30
0.0
 11
-145.39951680799999
 21
-16.173046875000001
 31
0.0
  0
ARC
  5
1DD
  8
ﾚｲﾔ_1
 62
     5
 10
-148.5
 20
-40.673046874999997
 30
0.0
 40
5.5
 50
180.0
 51
270.0
  0
ARC
  5
1DE
  8
ﾚｲﾔ_1
 62
     5
 10
-148.69999999999999
 20
-40.873046875
 30
0.0
 40
0.8
 50
180.0
 51
270.0
  0
LINE
  5
1DF
  8
ﾚｲﾔ_1
  6
BORDER
 62
     3
 10
-124.0
 20
-36.905109014399997
 30
0.0
 11
-124.0
 21
-50.273530067000003
 31
0.0
  0
LINE
  5
1E0
  8
ﾚｲﾔ_1
 62
     5
 10
-148.69999999999999
 20
-41.67304687499999
 30
0.0
 11
-34.0
 21
-41.67304687499999
 31
0.0
  0
LINE
  5
1E1
  8
ﾚｲﾔ_1
 62
     5
 10
-148.5
 20
-46.17304687499999
 30
0.0
 11
-34.0
 21
-46.17304687499999
 31
0.0
  0
LINE
  5
1E2
  8
ﾚｲﾔ_1
 62
     5
 10
-34.0
 20
-46.17304687499999
 30
0.0
 11
-34.0
 21
-41.67304687499999
 31
0.0
  0
LINE
  5
1E3
  8
ﾚｲﾔ_1
  6
STITCH
 10
-127.25
 20
-43.67304687499999
 30
0.0
 11
-127.25
 21
-44.17304687499999
 31
0.0
  0
LINE
  5
1E4
  8
ﾚｲﾔ_1
  6
STITCH
 10
-120.75
 20
-43.67304687499999
 30
0.0
 11
-120.75
 21
-44.17304687499999
 31
0.0
  0
LINE
  5
1E5
  8
ﾚｲﾔ_1
  6
STITCH
 10
-120.75
 20
-44.17304687499999
 30
0.0
 11
-127.25
 21
-44.17304687499999
 31
0.0
  0
LINE
  5
1E6
  8
ﾚｲﾔ_1
  6
STITCH
 10
-127.25
 20
-43.67304687499999
 30
0.0
 11
-120.75
 21
-43.67304687499999
 31
0.0
  0
LINE
  5
1E7
  8
ﾚｲﾔ_1
  6
STITCH
 10
-118.75
 20
-41.67304687499999
 30
0.0
 11
-120.75
 21
-43.67304687499999
 31
0.0
  0
LINE
  5
1E8
  8
ﾚｲﾔ_1
  6
STITCH
 10
-118.75
 20
-46.17304687499999
 30
0.0
 11
-120.75
 21
-44.17304687499999
 31
0.0
  0
LINE
  5
1E9
  8
ﾚｲﾔ_1
  6
STITCH
 10
-129.25
 20
-46.17304687499999
 30
0.0
 11
-127.25
 21
-44.17304687499999
 31
0.0
  0
LINE
  5
1EA
  8
ﾚｲﾔ_1
  6
STITCH
 10
-58.75
 20
-41.67304687499999
 30
0.0
 11
-60.75
 21
-43.67304687499999
 31
0.0
  0
DIMENSION
  5
1F8
  8
寸法線
  2
*D59
 10
-128.34488801929911
 20
-57.13838971622171
 30
0.0
 11
-124.0
 21
-57.710405075699988
 31
0.0
 70
   133
  1
<>
 13
-118.2196699141
 23
-46.703376960900002
 33
0.0
 14
-129.7803300859
 24
-46.703376960900002
 34
0.0
 15
-124.0
 25
-40.92304687499999
 35
0.0
1001
ACAD
1000
DSTYLE
1002
{
1070
   271
1070
     0
1002
}
  0
DIMENSION
  5
208
  8
寸法線
  2
*D14
 10
-127.25
 20
-53.390677184600001
 30
0.0
 11
-124.0
 21
-53.390677184600001
 31
0.0
 70
   128
  1
%%c<>
 13
-127.25
 23
-44.17304687499999
 33
0.0
 14
-120.75
 24
-44.17304687499999
 34
0.0
 50
180.0
  0
DIMENSION
  5
215
  8
寸法線
  2
*D60
 10
-120.1620686107003
 20
-32.599691934170359
 30
0.0
 11
-124.0
 21
-32.094418681199997
 31
0.0
 70
   133
  1
<>
 13
-129.7803300859
 23
-41.142716789099993
 33
0.0
 14
-118.2196699141
 24
-41.142716789099993
 34
0.0
 15
-124.0
 25
-46.923046874999997
 35
0.0
1001
ACAD
1000
DSTYLE
1002
{
1070
   271
1070
     0
1002
}
  0
DIMENSION
  5
224
  8
寸法線
  2
*D16
 10
-118.75
 20
-36.673046874999997
 30
0.0
 11
-124.0
 21
-36.673046874999997
 31
0.0
 70
   128
  1
%%c<>
 13
-118.75
 23
-41.67304687499999
 33
0.0
 14
-129.25
 24
-41.67304687499999
 34
0.0
  0
DIMENSION
  5
233
  8
寸法線
  2
*D17
 10
-154.0
 20
-66.173046874999983
 30
0.0
 11
-94.0
 21
-66.173046874999983
 31
0.0
 70
   128
  1
<>
 13
-154.0
 23
-40.673046874999997
 33
0.0
 14
-34.0
 24
-46.17304687499999
 34
0.0
 50
180.0
  0
LINE
  5
234
  8
図枠
 62
     5
 10
-272.44266046090002
 20
-164.7046658731
 30
0.0
 11
277.50233953909998
 21
-164.7046658731
 31
0.0
  0
LINE
  5
235
  8
図枠
  6
DOT
 10
-284.44146046089998
 20
-176.2035158731
 30
0.0
 11
289.5011395391
 21
-176.2035158731
 31
0.0
  0
LINE
  5
236
  8
図枠
 62
     5
 10
-272.44266046090002
 20
215.25733412689999
 30
0.0
 11
277.50233953909998
 21
215.25733412689999
 31
0.0
  0
LINE
  5
237
  8
図枠
  6
DOT
 10
-284.44146046089998
 20
226.7561841269
 30
0.0
 11
289.5011395391
 21
226.7561841269
 31
0.0
  0
DIMENSION
  5
240
  8
寸法線
  2
*D18
 10
-39.0
 20
141.18710937500001
 30
0.0
 11
-7.687796336199999
 21
158.72062721250001
 31
0.0
 70
   132
  1
4-R <>
 15
-34.669872981099999
 25
143.68710937500001
 35
0.0
 40
0.0
  0
LINE
  5
241
  8
ﾚｲﾔ_1
 62
     5
 10
-154.0
 20
43.826953125000003
 30
0.0
 11
-154.0
 21
-40.673046874999997
 31
0.0
  0
LINE
  5
242
  8
ﾚｲﾔ_1
 62
     5
 10
-149.5
 20
43.826953125000003
 30
0.0
 11
-149.5
 21
-40.873046875
 31
0.0
  0
DIMENSION
  5
24F
  8
寸法線
  2
*D61
 10
-108.11097809809
 20
-17.77708393843697
 30
0.0
 11
-118.55100911460001
 21
-5.2556315104000069
 31
0.0
 70
   133
  1
<>
 13
-149.5
 23
43.826953125000003
 33
0.0
 14
-34.0
 24
-41.67304687499999
 34
0.0
 15
-149.5
 25
-41.67304687499999
 35
0.0
1001
ACAD
1000
DSTYLE
1002
{
1070
   271
1070
     0
1002
}
  0
DIMENSION
  5
25E
  8
寸法線
  2
*D20
 10
-174.0
 20
43.826953125000003
 30
0.0
 11
-174.0
 21
-1.173046875
 31
0.0
 70
   128
  1
<>
 13
-154.0
 23
43.826953125000003
 33
0.0
 14
-148.5
 24
-46.17304687499999
 34
0.0
 50
90.0
  0
LINE
  5
25F
  8
図枠
  6
DOT
 10
-284.43546106090002
 20
-176.2035158731
 30
0.0
 11
-284.43546106090002
 21
226.7561841269
 31
0.0
  0
LINE
  5
260
  8
図枠
 62
     5
 10
-272.44266046090002
 20
-164.7046658731
 30
0.0
 11
-272.44266046090002
 21
215.25733412689999
 31
0.0
  0
LINE
  5
261
  8
図枠
  6
DOT
 10
289.5011395391
 20
-176.2035158731
 30
0.0
 11
289.5011395391
 21
226.7561841269
 31
0.0
  0
LINE
  5
262
  8
図枠
 62
     5
 10
277.50233953909998
 20
-164.7046658731
 30
0.0
 11
277.50233953909998
 21
215.25733412689999
 31
0.0
  0
LINE
  5
263
  8
ﾚｲﾔ_1
  6
STITCH
 10
-129.25
 20
-41.67304687499999
 30
0.0
 11
-127.25
 21
-43.67304687499999
 31
0.0
  0
LINE
  5
264
  8
ﾚｲﾔ_1
  6
BORDER
 62
     3
 10
-64.0
 20
-36.905109014399997
 30
0.0
 11
-64.0
 21
-50.273530067000003
 31
0.0
  0
LINE
  5
265
  8
ﾚｲﾔ_1
  6
STITCH
 10
-67.25
 20
-43.67304687499999
 30
0.0
 11
-67.25
 21
-44.17304687499999
 31
0.0
  0
LINE
  5
266
  8
ﾚｲﾔ_1
  6
STITCH
 10
-60.75
 20
-43.67304687499999
 30
0.0
 11
-60.75
 21
-44.17304687499999
 31
0.0
  0
LINE
  5
267
  8
ﾚｲﾔ_1
  6
STITCH
 10
-60.75
 20
-44.17304687499999
 30
0.0
 11
-67.25
 21
-44.17304687499999
 31
0.0
  0
LINE
  5
268
  8
ﾚｲﾔ_1
  6
STITCH
 10
-67.25
 20
-43.67304687499999
 30
0.0
 11
-60.75
 21
-43.67304687499999
 31
0.0
  0
LINE
  5
269
  8
ﾚｲﾔ_1
  6
STITCH
 10
-58.75
 20
-46.17304687499999
 30
0.0
 11
-60.75
 21
-44.17304687499999
 31
0.0
  0
LINE
  5
26A
  8
ﾚｲﾔ_1
  6
STITCH
 10
-69.25
 20
-46.17304687499999
 30
0.0
 11
-67.25
 21
-44.17304687499999
 31
0.0
  0
LINE
  5
26B
  8
ﾚｲﾔ_1
  6
STITCH
 10
-69.25
 20
-41.67304687499999
 30
0.0
 11
-67.25
 21
-43.67304687499999
 31
0.0
  0
LINE
  5
26C
  8
ﾚｲﾔ_1
  6
STITCH
 10
-154.0
 20
-21.423046875000001
 30
0.0
 11
-152.0
 21
-19.423046875000001
 31
0.0
  0
LINE
  5
26D
  8
ﾚｲﾔ_1
  6
STITCH
 10
-149.5
 20
-21.423046875000001
 30
0.0
 11
-151.5
 21
-19.423046875000001
 31
0.0
  0
LINE
  5
26E
  8
ﾚｲﾔ_1
  6
STITCH
 10
-149.5
 20
-10.923046875000001
 30
0.0
 11
-151.5
 21
-12.923046875000001
 31
0.0
  0
LINE
  5
277
  8
ﾚｲﾔ_1
  6
STITCH
 10
75.268942692800906
 20
-5.37611000492572
 30
0.0
 11
79.26894269280092
 21
-9.3761100049257209
 31
0.0
  0
DIMENSION
  5
278
  8
寸法線
  2
*D23
 10
75.268942692800906
 20
21.361220461105969
 30
0.0
 11
84.833410439507574
 21
21.361220461105969
 31
0.0
 70
   128
  1
φ10.5
 13
96.268942692800934
 23
-5.37611000492572
 33
0.0
 14
75.268942692800906
 24
-5.37611000492572
 34
0.0
  0
DIMENSION
  5
279
  8
寸法線
  2
*D22
 10
70.750559285035592
 20
40.173259920403879
 30
0.0
 11
87.390380661848454
 21
42.127809243014887
 31
0.0
 70
   133
  1
<>
 13
74.20828252100091
 23
-4.3154498331257249
 33
0.0
 14
97.329602864600929
 24
-4.3154498331257249
 34
0.0
 15
85.76894269280092
 25
-15.876110004925721
 35
0.0
1001
ACAD
1000
DSTYLE
1002
{
1070
   271
1070
     0
1002
}
  0
DIMENSION
  5
27A
  8
寸法線
  2
*D21
 10
92.268942692800934
 20
-39.021631267514977
 30
0.0
 11
107.3547757559509
 21
-39.021631267514977
 31
0.0
 70
   128
  1
φ6.5
 13
79.26894269280092
 23
-10.376110004925721
 33
0.0
 14
92.268942692800934
 24
-10.376110004925721
 34
0.0
 50
180.0
  0
DIMENSION
  5
27B
  8
寸法線
  2
*D24
 10
72.521315803293334
 20
-53.316926636283689
 30
0.0
 11
88.34924348688169
 21
-54.995930184492408
 31
0.0
 70
   133
  1
<>
 13
97.329602864600929
 23
-15.43677017672573
 33
0.0
 14
74.20828252100091
 24
-15.43677017672573
 34
0.0
 15
85.76894269280092
 25
-3.87611000492572
 35
0.0
1001
ACAD
1000
DSTYLE
1002
{
1070
   271
1070
     0
1002
}
  0
LINE
  5
27C
  8
ﾚｲﾔ_1
  6
STITCH
 10
75.268942692800906
 20
-14.376110004925721
 30
0.0
 11
79.26894269280092
 21
-10.376110004925721
 31
0.0
  0
LINE
  5
27D
  8
ﾚｲﾔ_1
  6
STITCH
 10
96.268942692800934
 20
-14.376110004925721
 30
0.0
 11
92.268942692800934
 21
-10.376110004925721
 31
0.0
  0
LINE
  5
27E
  8
ﾚｲﾔ_1
  6
STITCH
 10
96.268942692800934
 20
-5.37611000492572
 30
0.0
 11
92.268942692800934
 21
-9.3761100049257209
 31
0.0
  0
LINE
  5
27F
  8
ﾚｲﾔ_1
  6
STITCH
 10
79.26894269280092
 20
-9.3761100049257209
 30
0.0
 11
92.268942692800934
 21
-9.3761100049257209
 31
0.0
  0
LINE
  5
280
  8
ﾚｲﾔ_1
  6
STITCH
 10
92.268942692800934
 20
-10.376110004925721
 30
0.0
 11
79.26894269280092
 21
-10.376110004925721
 31
0.0
  0
LINE
  5
281
  8
ﾚｲﾔ_1
  6
STITCH
 10
92.268942692800934
 20
-9.3761100049257209
 30
0.0
 11
92.268942692800934
 21
-10.376110004925721
 31
0.0
  0
LINE
  5
282
  8
ﾚｲﾔ_1
  6
STITCH
 10
79.26894269280092
 20
-9.3761100049257209
 30
0.0
 11
79.26894269280092
 21
-10.376110004925721
 31
0.0
  0
LINE
  5
283
  8
ﾚｲﾔ_1
 62
     5
 10
36.76894269280092
 20
-14.376110004925721
 30
0.0
 11
131.93290228544819
 21
-14.37611000492571
 31
0.0
  0
LINE
  5
284
  8
ﾚｲﾔ_1
 62
     5
 10
36.368942692800942
 20
-5.37611000492572
 30
0.0
 11
131.93290228544811
 21
-5.37611000492572
 31
0.0
  0
LINE
  5
285
  8
ﾚｲﾔ_1
  6
BORDER
 62
     3
 10
85.76894269280092
 20
4.1597657162742792
 30
0.0
 11
85.76894269280092
 21
-22.577076388925722
 31
0.0
  0
ENDSEC
  0
EOF
