  0
SECTION
  2
HEADER
  9
$ACADVER
  1
AC1009
  9
$INSBASE
 10
0.0
 20
0.0
 30
0.0
  9
$EXTMIN
 10
-140.97942279572041
 20
-75.482673398863355
 30
-0.0015258207003583
  9
$EXTMAX
 10
146.00939254243471
 20
126.0094739552769
 30
0.0000000349246037
  9
$LIMMIN
 10
0.0
 20
0.0
  9
$LIMMAX
 10
0.0
 20
0.0
  9
$ORTHOMODE
 70
     0
  9
$REGENMODE
 70
     1
  9
$FILLMODE
 70
     1
  9
$QTEXTMODE
 70
     0
  9
$MIRRTEXT
 70
     1
  9
$DRAGMODE
 70
     2
  9
$LTSCALE
 40
1.0
  9
$OSMODE
 70
    31
  9
$ATTMODE
 70
     1
  9
$TEXTSIZE
 40
0.0
  9
$TRACEWID
 40
0.05
  9
$TEXTSTYLE
  7
STANDARD
  9
$CLAYER
  8
0
  9
$CELTYPE
  6
CONTINUOUS
  9
$CECOLOR
 62
   256
  9
$DIMSCALE
 40
1.0
  9
$DIMASZ
 40
0.18
  9
$DIMEXO
 40
0.0625
  9
$DIMDLI
 40
0.38
  9
$DIMRND
 40
0.0
  9
$DIMDLE
 40
0.0
  9
$DIMEXE
 40
0.18
  9
$DIMTP
 40
0.0
  9
$DIMTM
 40
0.0
  9
$DIMTXT
 40
0.18
  9
$DIMCEN
 40
0.09
  9
$DIMTSZ
 40
0.0
  9
$DIMTOL
 70
     0
  9
$DIMLIM
 70
     0
  9
$DIMTIH
 70
     1
  9
$DIMTOH
 70
     1
  9
$DIMSE1
 70
     0
  9
$DIMSE2
 70
     0
  9
$DIMTAD
 70
     0
  9
$DIMZIN
 70
     0
  9
$DIMBLK
  1

  9
$DIMASO
 70
     1
  9
$DIMSHO
 70
     1
  9
$DIMPOST
  1

  9
$DIMAPOST
  1

  9
$DIMALT
 70
     0
  9
$DIMALTD
 70
     2
  9
$DIMALTF
 40
25.399999999999999
  9
$DIMLFAC
 40
1.0
  9
$DIMTOFL
 70
     0
  9
$DIMTVP
 40
0.0
  9
$DIMTIX
 70
     0
  9
$DIMSOXD
 70
     0
  9
$DIMSAH
 70
     0
  9
$DIMBLK1
  1

  9
$DIMBLK2
  1

  9
$DIMSTYLE
  2
STANDARD
  9
$DIMCLRD
 70
     0
  9
$DIMCLRE
 70
     0
  9
$DIMCLRT
 70
     0
  9
$DIMTFAC
 40
1.0
  9
$DIMGAP
 40
0.09
  9
$LUNITS
 70
     2
  9
$LUPREC
 70
     4
  9
$SKETCHINC
 40
0.1
  9
$FILLETRAD
 40
0.0
  9
$AUNITS
 70
     0
  9
$AUPREC
 70
     0
  9
$MENU
  1
acad
  9
$ELEVATION
 40
0.0
  9
$PELEVATION
 40
0.0
  9
$THICKNESS
 40
0.0
  9
$LIMCHECK
 70
     0
  9
$BLIPMODE
 70
     0
  9
$CHAMFERA
 40
0.0
  9
$CHAMFERB
 40
0.0
  9
$SKPOLY
 70
     0
  9
$TDCREATE
 40
2454863.540545058
  9
$TDUPDATE
 40
2454863.541119792
  9
$TDINDWG
 40
0.0005866667
  9
$TDUSRTIMER
 40
0.0005862963
  9
$USRTIMER
 70
     1
  9
$ANGBASE
 50
0.0
  9
$ANGDIR
 70
     0
  9
$PDMODE
 70
     3
  9
$PDSIZE
 40
-1.0
  9
$PLINEWID
 40
0.0
  9
$COORDS
 70
     2
  9
$SPLFRAME
 70
     0
  9
$SPLINETYPE
 70
     6
  9
$SPLINESEGS
 70
     8
  9
$ATTDIA
 70
     0
  9
$ATTREQ
 70
     1
  9
$HANDLING
 70
     1
  9
$HANDSEED
  5
5C4
  9
$SURFTAB1
 70
     6
  9
$SURFTAB2
 70
     6
  9
$SURFTYPE
 70
     6
  9
$SURFU
 70
     6
  9
$SURFV
 70
     6
  9
$UCSNAME
  2

  9
$UCSORG
 10
0.0
 20
0.0
 30
0.0
  9
$UCSXDIR
 10
1.0
 20
0.0
 30
0.0
  9
$UCSYDIR
 10
0.0
 20
1.0
 30
0.0
  9
$PUCSNAME
  2

  9
$PUCSORG
 10
0.0
 20
0.0
 30
0.0
  9
$PUCSXDIR
 10
1.0
 20
0.0
 30
0.0
  9
$PUCSYDIR
 10
0.0
 20
1.0
 30
0.0
  9
$USERI1
 70
     0
  9
$USERI2
 70
     0
  9
$USERI3
 70
     0
  9
$USERI4
 70
     0
  9
$USERI5
 70
     0
  9
$USERR1
 40
0.0
  9
$USERR2
 40
0.0
  9
$USERR3
 40
0.0
  9
$USERR4
 40
0.0
  9
$USERR5
 40
0.0
  9
$WORLDVIEW
 70
     1
  9
$SHADEDGE
 70
     3
  9
$SHADEDIF
 70
    70
  9
$TILEMODE
 70
     1
  9
$MAXACTVP
 70
    16
  9
$PLIMCHECK
 70
     0
  9
$PEXTMIN
 10
1.0000000000000000E+020
 20
1.0000000000000000E+020
 30
1.0000000000000000E+020
  9
$PEXTMAX
 10
-1.0000000000000000E+020
 20
-1.0000000000000000E+020
 30
-1.0000000000000000E+020
  9
$PLIMMIN
 10
0.0
 20
0.0
  9
$PLIMMAX
 10
12.0
 20
9.0
  9
$UNITMODE
 70
     0
  9
$VISRETAIN
 70
     0
  9
$PLINEGEN
 70
     1
  9
$PSLTSCALE
 70
     0
  0
ENDSEC
  0
SECTION
  2
TABLES
  0
TABLE
  2
VPORT
 70
     2
  0
VPORT
  2
*ACTIVE
 70
     0
 10
0.0
 20
0.0
 11
1.0
 21
1.0
 12
2.5149848733571498
 22
25.263400278206781
 13
0.0
 23
0.0
 14
1.0
 24
1.0
 15
0.0
 25
0.0
 16
0.0
 26
0.0
 36
1.0
 17
0.0
 27
0.0
 37
0.0
 40
203.84962032383419
 41
1.4164265129682989
 42
50.0
 43
0.0
 44
0.0
 50
0.0
 51
0.0
 71
     0
 72
   100
 73
     1
 74
     1
 75
     0
 76
     0
 77
     0
 78
     0
  0
ENDTAB
  0
TABLE
  2
LTYPE
 70
    11
  0
LTYPE
  2
CONTINUOUS
 70
     0
  3
Solid line
 72
    65
 73
     0
 40
0.0
  0
LTYPE
  2
DOT
 70
     0
  3
. . . . . . . . 
 72
    65
 73
     2
 40
1.0
 49
0.0
 49
-1.0
  0
LTYPE
  2
DASHED
 70
     0
  3
___  ___  ___  ___  
 72
    65
 73
     2
 40
4.0
 49
3.0
 49
-1.0
  0
LTYPE
  2
HIDDEN
 70
     0
  3
__ __ __ __ 
 72
    65
 73
     2
 40
3.0
 49
2.0
 49
-1.0
  0
LTYPE
  2
STITCH
 70
     0
  3
_ _ _ _ 
 72
    65
 73
     2
 40
2.0
 49
1.0
 49
-1.0
  0
LTYPE
  2
CENTER
 70
     0
  3
______  __  ______  __  
 72
    65
 73
     4
 40
43.0
 49
40.0
 49
-1.0
 49
1.0
 49
-1.0
  0
LTYPE
  2
DASHDOT
 70
     0
  3
____ . ____ . 
 72
    65
 73
     4
 40
32.0
 49
30.0
 49
-1.0
 49
0.0
 49
-1.0
  0
LTYPE
  2
BORDER
 70
     0
  3
__ . __ . 
 72
    65
 73
     4
 40
22.0
 49
20.0
 49
-1.0
 49
0.0
 49
-1.0
  0
LTYPE
  2
CUTTING
 70
     0
  3
________   ___   ___   
 72
    65
 73
     6
 40
45.0
 49
40.0
 49
-1.0
 49
1.0
 49
-1.0
 49
1.0
 49
-1.0
  0
LTYPE
  2
PHANTOM
 70
     0
  3
______  __  __  
 72
    65
 73
     6
 40
35.0
 49
30.0
 49
-1.0
 49
1.0
 49
-1.0
 49
1.0
 49
-1.0
  0
LTYPE
  2
DIVIDE
 70
     0
  3
____ . . ____ . . 
 72
    65
 73
     6
 40
23.0
 49
20.0
 49
-1.0
 49
0.0
 49
-1.0
 49
0.0
 49
-1.0
  0
ENDTAB
  0
TABLE
  2
LAYER
 70
     5
  0
LAYER
  2
0
 70
     0
 62
     7
  6
CONTINUOUS
  0
LAYER
  2
図枠
 70
     0
 62
     7
  6
CONTINUOUS
  0
LAYER
  2
ﾚｲﾔ_1
 70
     0
 62
     7
  6
CONTINUOUS
  0
LAYER
  2
寸法線
 70
     0
 62
     7
  6
CONTINUOUS
  0
LAYER
  2
DEFPOINTS
 70
     0
 62
     7
  6
CONTINUOUS
  0
ENDTAB
  0
TABLE
  2
STYLE
 70
     1
  0
STYLE
  2
STANDARD
 70
     0
 40
0.0
 41
1.0
 50
0.0
 71
     0
 42
0.0
  3
txt
  4
extfont
  0
ENDTAB
  0
TABLE
  2
VIEW
 70
     0
  0
ENDTAB
  0
TABLE
  2
UCS
 70
     0
  0
ENDTAB
  0
TABLE
  2
APPID
 70
     2
  0
APPID
  2
ACAD
 70
     0
  0
APPID
  2
DCO15
 70
     0
  0
ENDTAB
  0
TABLE
  2
DIMSTYLE
 70
     5
  0
DIMSTYLE
  2
STANDARD
 70
     0
  3

  4

  5

  6

  7

 40
1.0
 41
0.18
 42
0.0625
 43
0.38
 44
0.18
 45
0.0
 46
0.0
 47
0.0
 48
0.0
140
0.18
141
0.09
142
0.0
143
25.399999999999999
144
1.0
145
0.0
146
1.0
147
0.09
 71
     0
 72
     0
 73
     1
 74
     1
 75
     0
 76
     0
 77
     0
 78
     0
170
     0
171
     2
172
     0
173
     0
174
     0
175
     0
176
     0
177
     0
178
     0
  0
DIMSTYLE
  2
VELDIM0
 70
     0
  3

  4

  5

  6

  7

 40
1.0
 41
3.0
 42
0.0625
 43
0.38
 44
1.0
 45
0.0
 46
5.0
 47
0.0
 48
0.0
140
2.9986110209999999
141
0.09
142
0.0
143
25.399999999999999
144
1.0
145
0.0
146
1.0
147
0.09
 71
     0
 72
     0
 73
     0
 74
     0
 75
     0
 76
     0
 77
     0
 78
     8
170
     0
171
     2
172
     0
173
     0
174
     0
175
     0
176
     0
177
     0
178
     0
  0
DIMSTYLE
  2
VELDIM1
 70
     0
  3

  4

  5

  6

  7

 40
1.0
 41
1.0
 42
0.0625
 43
0.38
 44
0.6666666865000001
 45
0.0
 46
1.666666626899999
 47
0.0
 48
0.0
140
0.899583286
141
0.09
142
0.0
143
25.399999999999999
144
1.0
145
0.0
146
1.0
147
0.09
 71
     0
 72
     0
 73
     0
 74
     0
 75
     0
 76
     0
 77
     0
 78
     8
170
     0
171
     2
172
     0
173
     0
174
     0
175
     0
176
     0
177
     0
178
     0
  0
DIMSTYLE
  2
VELDIM2
 70
     0
  3

  4

  5

  6

  7

 40
1.0
 41
1.0
 42
0.0625
 43
0.38
 44
1.25
 45
0.0
 46
5.0
 47
0.0
 48
0.0
140
0.899583286
141
0.09
142
0.0
143
25.399999999999999
144
1.0
145
0.0
146
1.0
147
0.09
 71
     0
 72
     0
 73
     0
 74
     0
 75
     0
 76
     0
 77
     0
 78
     8
170
     0
171
     2
172
     0
173
     0
174
     0
175
     0
176
     0
177
     0
178
     0
  0
DIMSTYLE
  2
VELDIM3
 70
     0
  3

  4

  5

  6

  7

 40
1.0
 41
3.0
 42
0.0625
 43
0.38
 44
1.25
 45
0.0
 46
5.0
 47
0.0
 48
0.0
140
2.9986110209999999
141
0.09
142
0.0
143
25.399999999999999
144
1.0
145
0.0
146
1.0
147
0.09
 71
     0
 72
     0
 73
     0
 74
     0
 75
     0
 76
     0
 77
     0
 78
     8
170
     0
171
     2
172
     0
173
     0
174
     0
175
     0
176
     0
177
     0
178
     0
  0
ENDTAB
  0
ENDSEC
  0
SECTION
  2
BLOCKS
  0
BLOCK
  8
0
  2
$MODEL_SPACE
 70
     0
 10
0.0
 20
0.0
 30
0.0
  3
$MODEL_SPACE
  1

  0
ENDBLK
  5
E
  8
0
  0
BLOCK
 67
     1
  8
0
  2
$PAPER_SPACE
 70
     0
 10
0.0
 20
0.0
 30
0.0
  3
$PAPER_SPACE
  1

  0
ENDBLK
  5
10
 67
     1
  8
0
  0
BLOCK
  8
0
  2
*D0
 70
     1
 10
0.0
 20
0.0
 30
0.0
  3
*D0
  1

  0
TEXT
  5
4E
  8
0
 62
     0
 10
55.447685211699991
 20
49.029166650800001
 30
0.0
 40
2.9986110209999999
  1
7
  0
LINE
  5
4F
  8
0
 62
     0
 10
52.829629629599999
 20
55.5
 30
0.0
 11
52.829629629599999
 21
46.5
 31
0.0
  0
LINE
  5
50
  8
0
 62
     0
 10
59.829629629599999
 20
64.5
 30
0.0
 11
59.829629629599999
 21
46.5
 31
0.0
  0
LINE
  5
51
  8
0
 62
     0
 10
52.829629629599999
 20
47.5
 30
0.0
 11
58.975462883500001
 21
47.5
 31
0.0
  0
LINE
  5
52
  8
0
 62
     0
 10
52.829629629599999
 20
47.5
 30
0.0
 11
53.6837963758
 21
47.5
 31
0.0
  0
LINE
  5
53
  8
0
 62
     0
 10
59.829629629599999
 20
47.5
 30
0.0
 11
58.975462883500001
 21
47.5
 31
0.0
  0
LINE
  5
54
  8
0
 62
     0
 10
59.829629629599999
 20
47.5
 30
0.0
 11
53.6837963758
 21
47.5
 31
0.0
  0
LINE
  5
55
  8
0
 62
     0
 10
59.829629629599999
 20
47.5
 30
0.0
 11
64.829629629600007
 21
47.5
 31
0.0
  0
SOLID
  5
56
  8
0
 62
     0
 10
59.829629629599999
 20
47.5
 30
0.0
 11
62.829629629599999
 21
48.25
 31
0.0
 12
62.829629629599999
 22
46.749999999999993
 32
0.0
 13
62.079629629599992
 23
47.5
 33
0.0
  0
LINE
  5
57
  8
0
 62
     0
 10
52.829629629599999
 20
47.5
 30
0.0
 11
47.829629629599999
 21
47.5
 31
0.0
  0
SOLID
  5
58
  8
0
 62
     0
 10
52.829629629599999
 20
47.5
 30
0.0
 11
49.829629629599999
 21
46.749999999999993
 31
0.0
 12
49.829629629599999
 22
48.25
 32
0.0
 13
50.579629629599999
 23
47.5
 33
0.0
  0
ENDBLK
  5
59
  8
0
  0
BLOCK
  8
0
  2
*D1
 70
     1
 10
0.0
 20
0.0
 30
0.0
  3
*D1
  1

  0
TEXT
  5
5E
  8
0
 62
     0
 10
41.300462978899994
 20
63.236111164099988
 30
0.0
 40
2.9986110209999999
  1
15
 50
90.0
  0
LINE
  5
5F
  8
0
 62
     0
 10
51.829629629599999
 20
72.5
 30
0.0
 11
41.829629629599999
 21
72.5
 31
0.0
  0
LINE
  5
60
  8
0
 62
     0
 10
50.829629629599992
 20
57.5
 30
0.0
 11
41.829629629599999
 21
57.5
 31
0.0
  0
LINE
  5
61
  8
0
 62
     0
 10
42.829629629599999
 20
72.5
 30
0.0
 11
42.829629629599999
 21
68.527777671799996
 31
0.0
  0
LINE
  5
62
  8
0
 62
     0
 10
42.829629629599999
 20
72.5
 30
0.0
 11
42.829629629599999
 21
61.47222232819999
 31
0.0
  0
LINE
  5
63
  8
0
 62
     0
 10
42.829629629599999
 20
57.5
 30
0.0
 11
42.829629629599999
 21
68.527777671799996
 31
0.0
  0
LINE
  5
64
  8
0
 62
     0
 10
42.829629629599999
 20
57.5
 30
0.0
 11
42.829629629599999
 21
61.47222232819999
 31
0.0
  0
LINE
  5
65
  8
0
 62
     0
 10
42.829629629599999
 20
57.5
 30
0.0
 11
42.829629629599999
 21
62.5
 31
0.0
  0
SOLID
  5
66
  8
0
 62
     0
 10
42.829629629599999
 20
57.5
 30
0.0
 11
42.079629629599992
 21
60.5
 31
0.0
 12
43.579629629599999
 22
60.5
 32
0.0
 13
42.829629629599999
 23
59.75
 33
0.0
  0
LINE
  5
67
  8
0
 62
     0
 10
42.829629629599999
 20
72.5
 30
0.0
 11
42.829629629599999
 21
67.5
 31
0.0
  0
SOLID
  5
68
  8
0
 62
     0
 10
42.829629629599999
 20
72.5
 30
0.0
 11
43.579629629599999
 21
69.5
 31
0.0
 12
42.079629629599992
 22
69.5
 32
0.0
 13
42.829629629599999
 23
70.25
 33
0.0
  0
ENDBLK
  5
69
  8
0
  0
BLOCK
  8
0
  2
*D2
 70
     1
 10
0.0
 20
0.0
 30
0.0
  3
*D2
  1

  0
TEXT
  5
6D
  8
0
 62
     0
 10
41.300462978899994
 20
78.236111164099995
 30
0.0
 40
2.9986110209999999
  1
15
 50
90.0
  0
LINE
  5
6E
  8
0
 62
     0
 10
50.829629629599992
 20
87.5
 30
0.0
 11
41.829629629599999
 21
87.5
 31
0.0
  0
LINE
  5
6F
  8
0
 62
     0
 10
51.829629629599999
 20
72.5
 30
0.0
 11
41.829629629599999
 21
72.5
 31
0.0
  0
LINE
  5
70
  8
0
 62
     0
 10
42.829629629599999
 20
87.5
 30
0.0
 11
42.829629629599999
 21
83.527777671799996
 31
0.0
  0
LINE
  5
71
  8
0
 62
     0
 10
42.829629629599999
 20
87.5
 30
0.0
 11
42.829629629599999
 21
76.47222232819999
 31
0.0
  0
LINE
  5
72
  8
0
 62
     0
 10
42.829629629599999
 20
72.5
 30
0.0
 11
42.829629629599999
 21
83.527777671799996
 31
0.0
  0
LINE
  5
73
  8
0
 62
     0
 10
42.829629629599999
 20
72.5
 30
0.0
 11
42.829629629599999
 21
76.47222232819999
 31
0.0
  0
LINE
  5
74
  8
0
 62
     0
 10
42.829629629599999
 20
72.5
 30
0.0
 11
42.829629629599999
 21
77.5
 31
0.0
  0
SOLID
  5
75
  8
0
 62
     0
 10
42.829629629599999
 20
72.5
 30
0.0
 11
42.079629629599992
 21
75.5
 31
0.0
 12
43.579629629599999
 22
75.5
 32
0.0
 13
42.829629629599999
 23
74.75
 33
0.0
  0
LINE
  5
76
  8
0
 62
     0
 10
42.829629629599999
 20
87.5
 30
0.0
 11
42.829629629599999
 21
82.5
 31
0.0
  0
SOLID
  5
77
  8
0
 62
     0
 10
42.829629629599999
 20
87.5
 30
0.0
 11
43.579629629599999
 21
84.500000000000014
 31
0.0
 12
42.079629629599992
 22
84.500000000000014
 32
0.0
 13
42.829629629599999
 23
85.25
 33
0.0
  0
ENDBLK
  5
78
  8
0
  0
BLOCK
  8
0
  2
*D3
 70
     1
 10
0.0
 20
0.0
 30
0.0
  3
*D3
  1

  0
TEXT
  5
7C
  8
0
 62
     0
 10
84.565740793700002
 20
49.029166650800001
 30
0.0
 40
2.9986110209999999
  1
23
  0
LINE
  5
7D
  8
0
 62
     0
 10
74.829629629600007
 20
64.5
 30
0.0
 11
74.829629629600007
 21
46.5
 31
0.0
  0
LINE
  5
7E
  8
0
 62
     0
 10
97.829629629599992
 20
55.5
 30
0.0
 11
97.829629629599992
 21
46.5
 31
0.0
  0
LINE
  5
7F
  8
0
 62
     0
 10
74.829629629600007
 20
47.5
 30
0.0
 11
89.857407301399988
 21
47.5
 31
0.0
  0
LINE
  5
80
  8
0
 62
     0
 10
74.829629629600007
 20
47.5
 30
0.0
 11
82.801851957799997
 21
47.5
 31
0.0
  0
LINE
  5
81
  8
0
 62
     0
 10
97.829629629599992
 20
47.5
 30
0.0
 11
89.857407301399988
 21
47.5
 31
0.0
  0
LINE
  5
82
  8
0
 62
     0
 10
97.829629629599992
 20
47.5
 30
0.0
 11
82.801851957799997
 21
47.5
 31
0.0
  0
LINE
  5
83
  8
0
 62
     0
 10
97.829629629599992
 20
47.5
 30
0.0
 11
92.829629629599992
 21
47.5
 31
0.0
  0
SOLID
  5
84
  8
0
 62
     0
 10
97.829629629599992
 20
47.5
 30
0.0
 11
94.829629629600007
 21
46.749999999999993
 31
0.0
 12
94.829629629600007
 22
48.25
 32
0.0
 13
95.579629629599992
 23
47.5
 33
0.0
  0
LINE
  5
85
  8
0
 62
     0
 10
74.829629629600007
 20
47.5
 30
0.0
 11
79.829629629600007
 21
47.5
 31
0.0
  0
SOLID
  5
86
  8
0
 62
     0
 10
74.829629629600007
 20
47.5
 30
0.0
 11
77.829629629600007
 21
48.25
 31
0.0
 12
77.829629629600007
 22
46.749999999999993
 32
0.0
 13
77.079629629600007
 23
47.5
 33
0.0
  0
ENDBLK
  5
87
  8
0
  0
BLOCK
  8
0
  2
*D4
 70
     1
 10
0.0
 20
0.0
 30
0.0
  3
*D4
  1

  0
TEXT
  5
8B
  8
0
 62
     0
 10
65.565740793700002
 20
49.029166650800001
 30
0.0
 40
2.9986110209999999
  1
15
  0
LINE
  5
8C
  8
0
 62
     0
 10
59.829629629599999
 20
64.5
 30
0.0
 11
59.829629629599999
 21
46.5
 31
0.0
  0
LINE
  5
8D
  8
0
 62
     0
 10
74.829629629600007
 20
64.5
 30
0.0
 11
74.829629629600007
 21
46.5
 31
0.0
  0
LINE
  5
8E
  8
0
 62
     0
 10
59.829629629599999
 20
47.5
 30
0.0
 11
70.857407301400002
 21
47.5
 31
0.0
  0
LINE
  5
8F
  8
0
 62
     0
 10
59.829629629599999
 20
47.5
 30
0.0
 11
63.801851957799997
 21
47.5
 31
0.0
  0
LINE
  5
90
  8
0
 62
     0
 10
74.829629629600007
 20
47.5
 30
0.0
 11
70.857407301400002
 21
47.5
 31
0.0
  0
LINE
  5
91
  8
0
 62
     0
 10
74.829629629600007
 20
47.5
 30
0.0
 11
63.801851957799997
 21
47.5
 31
0.0
  0
LINE
  5
92
  8
0
 62
     0
 10
74.829629629600007
 20
47.5
 30
0.0
 11
69.829629629600007
 21
47.5
 31
0.0
  0
SOLID
  5
93
  8
0
 62
     0
 10
74.829629629600007
 20
47.5
 30
0.0
 11
71.829629629600007
 21
46.749999999999993
 31
0.0
 12
71.829629629600007
 22
48.25
 32
0.0
 13
72.579629629600007
 23
47.5
 33
0.0
  0
LINE
  5
94
  8
0
 62
     0
 10
59.829629629599999
 20
47.5
 30
0.0
 11
64.829629629600007
 21
47.5
 31
0.0
  0
SOLID
  5
95
  8
0
 62
     0
 10
59.829629629599999
 20
47.5
 30
0.0
 11
62.829629629599999
 21
48.25
 31
0.0
 12
62.829629629599999
 22
46.749999999999993
 32
0.0
 13
62.079629629599992
 23
47.5
 33
0.0
  0
ENDBLK
  5
96
  8
0
  0
BLOCK
  8
0
  2
*D5
 70
     1
 10
0.0
 20
0.0
 30
0.0
  3
*D5
  1

  0
TEXT
  5
147
  8
0
 62
     0
 10
-101.52916665079999
 20
70.736111164099995
 30
0.0
 40
2.9986110209999999
  1
30
 50
90.0
  0
LINE
  5
148
  8
0
 62
     0
 10
-92.0
 20
87.5
 30
0.0
 11
-101.0
 21
87.5
 31
0.0
  0
LINE
  5
149
  8
0
 62
     0
 10
-92.0
 20
57.5
 30
0.0
 11
-101.0
 21
57.5
 31
0.0
  0
LINE
  5
14A
  8
0
 62
     0
 10
-100.0
 20
87.5
 30
0.0
 11
-100.0
 21
76.027777671799996
 31
0.0
  0
LINE
  5
14B
  8
0
 62
     0
 10
-100.0
 20
87.5
 30
0.0
 11
-100.0
 21
68.97222232819999
 31
0.0
  0
LINE
  5
14C
  8
0
 62
     0
 10
-100.0
 20
57.5
 30
0.0
 11
-100.0
 21
76.027777671799996
 31
0.0
  0
LINE
  5
14D
  8
0
 62
     0
 10
-100.0
 20
57.5
 30
0.0
 11
-100.0
 21
68.97222232819999
 31
0.0
  0
LINE
  5
14E
  8
0
 62
     0
 10
-100.0
 20
57.5
 30
0.0
 11
-100.0
 21
62.5
 31
0.0
  0
SOLID
  5
14F
  8
0
 62
     0
 10
-100.0
 20
57.5
 30
0.0
 11
-100.75
 21
60.5
 31
0.0
 12
-99.25
 22
60.5
 32
0.0
 13
-100.0
 23
59.75
 33
0.0
  0
LINE
  5
150
  8
0
 62
     0
 10
-100.0
 20
87.5
 30
0.0
 11
-100.0
 21
82.5
 31
0.0
  0
SOLID
  5
151
  8
0
 62
     0
 10
-100.0
 20
87.5
 30
0.0
 11
-99.25
 21
84.500000000000014
 31
0.0
 12
-100.75
 22
84.500000000000014
 32
0.0
 13
-100.0
 23
85.25
 33
0.0
  0
ENDBLK
  5
152
  8
0
  0
BLOCK
  8
0
  2
*D6
 70
     1
 10
0.0
 20
0.0
 30
0.0
  3
*D6
  1

  0
TEXT
  5
156
  8
0
 62
     0
 10
-19.263888835900001
 20
49.029166650800001
 30
0.0
 40
2.9986110209999999
  1
15
  0
LINE
  5
157
  8
0
 62
     0
 10
-25.0
 20
64.5
 30
0.0
 11
-25.0
 21
46.5
 31
0.0
  0
LINE
  5
158
  8
0
 62
     0
 10
-10.0
 20
55.5
 30
0.0
 11
-10.0
 21
46.5
 31
0.0
  0
LINE
  5
159
  8
0
 62
     0
 10
-25.0
 20
47.5
 30
0.0
 11
-13.972222328200001
 21
47.5
 31
0.0
  0
LINE
  5
15A
  8
0
 62
     0
 10
-25.0
 20
47.5
 30
0.0
 11
-21.027777671799999
 21
47.5
 31
0.0
  0
LINE
  5
15B
  8
0
 62
     0
 10
-10.0
 20
47.5
 30
0.0
 11
-13.972222328200001
 21
47.5
 31
0.0
  0
LINE
  5
15C
  8
0
 62
     0
 10
-10.0
 20
47.5
 30
0.0
 11
-21.027777671799999
 21
47.5
 31
0.0
  0
LINE
  5
15D
  8
0
 62
     0
 10
-10.0
 20
47.5
 30
0.0
 11
-15.0
 21
47.5
 31
0.0
  0
SOLID
  5
15E
  8
0
 62
     0
 10
-10.0
 20
47.5
 30
0.0
 11
-13.0
 21
46.749999999999993
 31
0.0
 12
-13.0
 22
48.25
 32
0.0
 13
-12.25
 23
47.5
 33
0.0
  0
LINE
  5
15F
  8
0
 62
     0
 10
-25.0
 20
47.5
 30
0.0
 11
-20.0
 21
47.5
 31
0.0
  0
SOLID
  5
160
  8
0
 62
     0
 10
-25.0
 20
47.5
 30
0.0
 11
-22.0
 21
48.25
 31
0.0
 12
-22.0
 22
46.749999999999993
 32
0.0
 13
-22.75
 23
47.5
 33
0.0
  0
ENDBLK
  5
161
  8
0
  0
BLOCK
  8
0
  2
*D7
 70
     1
 10
0.0
 20
0.0
 30
0.0
  3
*D7
  1

  0
TEXT
  5
165
  8
0
 62
     0
 10
-44.263888835899998
 20
49.029166650800001
 30
0.0
 40
2.9986110209999999
  1
35
  0
LINE
  5
166
  8
0
 62
     0
 10
-60.0
 20
64.5
 30
0.0
 11
-60.0
 21
46.5
 31
0.0
  0
LINE
  5
167
  8
0
 62
     0
 10
-25.0
 20
64.5
 30
0.0
 11
-25.0
 21
46.5
 31
0.0
  0
LINE
  5
168
  8
0
 62
     0
 10
-60.0
 20
47.5
 30
0.0
 11
-38.972222328200012
 21
47.5
 31
0.0
  0
LINE
  5
169
  8
0
 62
     0
 10
-60.0
 20
47.5
 30
0.0
 11
-46.027777671800003
 21
47.5
 31
0.0
  0
LINE
  5
16A
  8
0
 62
     0
 10
-25.0
 20
47.5
 30
0.0
 11
-38.972222328200012
 21
47.5
 31
0.0
  0
LINE
  5
16B
  8
0
 62
     0
 10
-25.0
 20
47.5
 30
0.0
 11
-46.027777671800003
 21
47.5
 31
0.0
  0
LINE
  5
16C
  8
0
 62
     0
 10
-25.0
 20
47.5
 30
0.0
 11
-30.0
 21
47.5
 31
0.0
  0
SOLID
  5
16D
  8
0
 62
     0
 10
-25.0
 20
47.5
 30
0.0
 11
-28.0
 21
46.749999999999993
 31
0.0
 12
-28.0
 22
48.25
 32
0.0
 13
-27.25
 23
47.5
 33
0.0
  0
LINE
  5
16E
  8
0
 62
     0
 10
-60.0
 20
47.5
 30
0.0
 11
-55.0
 21
47.5
 31
0.0
  0
SOLID
  5
16F
  8
0
 62
     0
 10
-60.0
 20
47.5
 30
0.0
 11
-57.0
 21
48.25
 31
0.0
 12
-57.0
 22
46.749999999999993
 32
0.0
 13
-57.75
 23
47.5
 33
0.0
  0
ENDBLK
  5
170
  8
0
  0
BLOCK
  8
0
  2
*D8
 70
     1
 10
0.0
 20
0.0
 30
0.0
  3
*D8
  1

  0
TEXT
  5
174
  8
0
 62
     0
 10
-76.763888835900005
 20
49.029166650800001
 30
0.0
 40
2.9986110209999999
  1
30
  0
LINE
  5
175
  8
0
 62
     0
 10
-90.0
 20
55.5
 30
0.0
 11
-90.0
 21
46.5
 31
0.0
  0
LINE
  5
176
  8
0
 62
     0
 10
-60.0
 20
64.5
 30
0.0
 11
-60.0
 21
46.5
 31
0.0
  0
LINE
  5
177
  8
0
 62
     0
 10
-90.0
 20
47.5
 30
0.0
 11
-71.47222232819999
 21
47.5
 31
0.0
  0
LINE
  5
178
  8
0
 62
     0
 10
-90.0
 20
47.5
 30
0.0
 11
-78.527777671799996
 21
47.5
 31
0.0
  0
LINE
  5
179
  8
0
 62
     0
 10
-60.0
 20
47.5
 30
0.0
 11
-71.47222232819999
 21
47.5
 31
0.0
  0
LINE
  5
17A
  8
0
 62
     0
 10
-60.0
 20
47.5
 30
0.0
 11
-78.527777671799996
 21
47.5
 31
0.0
  0
LINE
  5
17B
  8
0
 62
     0
 10
-60.0
 20
47.5
 30
0.0
 11
-65.0
 21
47.5
 31
0.0
  0
SOLID
  5
17C
  8
0
 62
     0
 10
-60.0
 20
47.5
 30
0.0
 11
-63.0
 21
46.749999999999993
 31
0.0
 12
-63.0
 22
48.25
 32
0.0
 13
-62.25
 23
47.5
 33
0.0
  0
LINE
  5
17D
  8
0
 62
     0
 10
-90.0
 20
47.5
 30
0.0
 11
-85.0
 21
47.5
 31
0.0
  0
SOLID
  5
17E
  8
0
 62
     0
 10
-90.0
 20
47.5
 30
0.0
 11
-87.0
 21
48.25
 31
0.0
 12
-87.0
 22
46.749999999999993
 32
0.0
 13
-87.75
 23
47.5
 33
0.0
  0
ENDBLK
  5
17F
  8
0
  0
BLOCK
  8
0
  2
*D9
 70
     1
 10
0.0
 20
0.0
 30
0.0
  3
*D9
  1

  0
TEXT
  5
190
  8
0
 62
     0
 10
-51.763888835899998
 20
-29.081944460300001
 30
0.0
 40
2.9986110209999999
  1
80
  0
LINE
  5
191
  8
0
 62
     0
 10
-90.0
 20
-19.611111111100001
 30
0.0
 11
-90.0
 21
-31.611111111100001
 31
0.0
  0
LINE
  5
192
  8
0
 62
     0
 10
-10.0
 20
-22.611111111100001
 30
0.0
 11
-10.0
 21
-31.611111111100001
 31
0.0
  0
LINE
  5
193
  8
0
 62
     0
 10
-90.0
 20
-30.611111111100001
 30
0.0
 11
-46.47222232819999
 21
-30.611111111100001
 31
0.0
  0
LINE
  5
194
  8
0
 62
     0
 10
-90.0
 20
-30.611111111100001
 30
0.0
 11
-53.527777671800003
 21
-30.611111111100001
 31
0.0
  0
LINE
  5
195
  8
0
 62
     0
 10
-10.0
 20
-30.611111111100001
 30
0.0
 11
-46.47222232819999
 21
-30.611111111100001
 31
0.0
  0
LINE
  5
196
  8
0
 62
     0
 10
-10.0
 20
-30.611111111100001
 30
0.0
 11
-53.527777671800003
 21
-30.611111111100001
 31
0.0
  0
LINE
  5
197
  8
0
 62
     0
 10
-10.0
 20
-30.611111111100001
 30
0.0
 11
-15.0
 21
-30.611111111100001
 31
0.0
  0
SOLID
  5
198
  8
0
 62
     0
 10
-10.0
 20
-30.611111111100001
 30
0.0
 11
-13.0
 21
-31.361111111100001
 31
0.0
 12
-13.0
 22
-29.861111111100001
 32
0.0
 13
-12.25
 23
-30.611111111100001
 33
0.0
  0
LINE
  5
199
  8
0
 62
     0
 10
-90.0
 20
-30.611111111100001
 30
0.0
 11
-85.0
 21
-30.611111111100001
 31
0.0
  0
SOLID
  5
19A
  8
0
 62
     0
 10
-90.0
 20
-30.611111111100001
 30
0.0
 11
-87.0
 21
-29.861111111100001
 31
0.0
 12
-87.0
 22
-31.361111111100001
 32
0.0
 13
-87.75
 23
-30.611111111100001
 33
0.0
  0
ENDBLK
  5
19B
  8
0
  0
BLOCK
  8
0
  2
*D10
 70
     1
 10
0.0
 20
0.0
 30
0.0
  3
*D10
  1

  0
TEXT
  5
1A0
  8
0
 62
     0
 10
-60.793749958299998
 20
-13.7856945223
 30
0.0
 40
0.899583286
  1
%%c8
  0
LINE
  5
1A1
  8
0
 62
     0
 10
-55.75
 20
-15.6111111111
 30
0.0
 11
-55.75
 21
-13.611111170699999
 31
0.0
  0
LINE
  5
1A2
  8
0
 62
     0
 10
-64.25
 20
-15.6111111111
 30
0.0
 11
-64.25
 21
-13.611111170699999
 31
0.0
  0
LINE
  5
1A3
  8
0
 62
     0
 10
-55.75
 20
-14.2777778573
 30
0.0
 11
-58.677083402900003
 21
-14.2777778573
 31
0.0
  0
LINE
  5
1A4
  8
0
 62
     0
 10
-55.75
 20
-14.2777778573
 30
0.0
 11
-61.32291659709999
 21
-14.2777778573
 31
0.0
  0
LINE
  5
1A5
  8
0
 62
     0
 10
-64.25
 20
-14.2777778573
 30
0.0
 11
-58.677083402900003
 21
-14.2777778573
 31
0.0
  0
LINE
  5
1A6
  8
0
 62
     0
 10
-64.25
 20
-14.2777778573
 30
0.0
 11
-61.32291659709999
 21
-14.2777778573
 31
0.0
  0
LINE
  5
1A7
  8
0
 62
     0
 10
-64.25
 20
-14.2777778573
 30
0.0
 11
-62.583333373099997
 21
-14.2777778573
 31
0.0
  0
SOLID
  5
1A8
  8
0
 62
     0
 10
-64.25
 20
-14.2777778573
 30
0.0
 11
-63.25
 21
-14.009777850600001
 31
0.0
 12
-63.25
 22
-14.5457778639
 32
0.0
 13
-63.5
 23
-14.2777778573
 33
0.0
  0
LINE
  5
1A9
  8
0
 62
     0
 10
-55.75
 20
-14.2777778573
 30
0.0
 11
-57.416666626900003
 21
-14.2777778573
 31
0.0
  0
SOLID
  5
1AA
  8
0
 62
     0
 10
-55.75
 20
-14.2777778573
 30
0.0
 11
-56.75
 21
-14.5457778639
 31
0.0
 12
-56.75
 22
-14.009777850600001
 32
0.0
 13
-56.5
 23
-14.2777778573
 33
0.0
  0
ENDBLK
  5
1AB
  8
0
  0
BLOCK
  8
0
  2
*D11
 70
     1
 10
0.0
 20
0.0
 30
0.0
  3
*D11
  1

  0
TEXT
  5
1B0
  8
0
 62
     0
 10
-60.793749958299998
 20
-10.900928674299999
 30
0.0
 40
0.899583286
  1
90%%d
  0
ARC
  5
1B1
  8
0
 62
     0
 10
-60.0
 20
-21.861111111100001
 30
0.0
 40
10.4839324619
 50
128.86927341590001
 51
135.0
  0
ARC
  5
1B2
  8
0
 62
     0
 10
-60.0
 20
-21.861111111100001
 30
0.0
 40
10.4839324619
 50
45.0
 51
51.130726584100003
  0
SOLID
  5
1B3
  8
0
 62
     0
 10
-52.586740262699998
 20
-14.447851373800001
 30
0.0
 11
-51.690128859399991
 21
-14.9654535329
 31
0.0
 12
-52.06913810359999
 22
-15.3444627771
 32
0.0
 13
-52.0564101768
 23
-14.9781814597
 33
0.0
  0
SOLID
  5
1B4
  8
0
 62
     0
 10
-67.413259737299995
 20
-14.447851373800001
 30
0.0
 11
-67.930861896400003
 21
-15.3444627771
 31
0.0
 12
-68.309871140599995
 22
-14.9654535329
 32
0.0
 13
-67.9435898232
 23
-14.9781814597
 33
0.0
  0
ARC
  5
1B5
  8
0
 62
     0
 10
-60.0
 20
-21.861111111100001
 30
0.0
 40
10.4839324619
 50
45.0
 51
82.661540303899997
  0
ARC
  5
1B6
  8
0
 62
     0
 10
-60.0
 20
-21.861111111100001
 30
0.0
 40
10.4839324619
 50
97.338459696100017
 51
135.0
  0
LINE
  5
1B7
  8
0
 62
     0
 10
-55.278595465200013
 20
-17.1397065763
 30
0.0
 11
-52.115335727899989
 21
-13.976446838999999
 31
0.0
  0
LINE
  5
1B8
  8
0
 62
     0
 10
-64.721404534800001
 20
-17.1397065763
 30
0.0
 11
-67.884664272099997
 21
-13.976446838999999
 31
0.0
  0
ENDBLK
  5
1B9
  8
0
  0
BLOCK
  8
0
  2
*D12
 70
     1
 10
0.0
 20
0.0
 30
0.0
  3
*D12
  1

  0
TEXT
  5
1BD
  8
0
 62
     0
 10
-60.793749958299998
 20
-24.495488762800001
 30
0.0
 40
0.899583286
  1
%%c4
  0
LINE
  5
1BE
  8
0
 62
     0
 10
-62.25
 20
-22.611111111100001
 30
0.0
 11
-62.25
 21
-25.654238784299999
 31
0.0
  0
LINE
  5
1BF
  8
0
 62
     0
 10
-57.75
 20
-22.611111111100001
 30
0.0
 11
-57.75
 21
-25.654238784299999
 31
0.0
  0
LINE
  5
1C0
  8
0
 62
     0
 10
-62.25
 20
-24.987572097800001
 30
0.0
 11
-58.677083402900003
 21
-24.987572097800001
 31
0.0
  0
LINE
  5
1C1
  8
0
 62
     0
 10
-62.25
 20
-24.987572097800001
 30
0.0
 11
-61.32291659709999
 21
-24.987572097800001
 31
0.0
  0
LINE
  5
1C2
  8
0
 62
     0
 10
-57.75
 20
-24.987572097800001
 30
0.0
 11
-58.677083402900003
 21
-24.987572097800001
 31
0.0
  0
LINE
  5
1C3
  8
0
 62
     0
 10
-57.75
 20
-24.987572097800001
 30
0.0
 11
-61.32291659709999
 21
-24.987572097800001
 31
0.0
  0
LINE
  5
1C4
  8
0
 62
     0
 10
-57.75
 20
-24.987572097800001
 30
0.0
 11
-56.083333373099997
 21
-24.987572097800001
 31
0.0
  0
SOLID
  5
1C5
  8
0
 62
     0
 10
-57.75
 20
-24.987572097800001
 30
0.0
 11
-56.75
 21
-24.719572091100002
 31
0.0
 12
-56.75
 22
-25.255572104400009
 32
0.0
 13
-57.0
 23
-24.987572097800001
 33
0.0
  0
LINE
  5
1C6
  8
0
 62
     0
 10
-62.25
 20
-24.987572097800001
 30
0.0
 11
-63.916666626899989
 21
-24.987572097800001
 31
0.0
  0
SOLID
  5
1C7
  8
0
 62
     0
 10
-62.25
 20
-24.987572097800001
 30
0.0
 11
-63.25
 21
-25.255572104400009
 31
0.0
 12
-63.25
 22
-24.719572091100002
 32
0.0
 13
-63.0
 23
-24.987572097800001
 33
0.0
  0
ENDBLK
  5
1C8
  8
0
  0
BLOCK
  8
0
  2
*D13
 70
     1
 10
0.0
 20
0.0
 30
0.0
  3
*D13
  1

  0
TEXT
  5
1D8
  8
0
 62
     0
 10
-1.5291666507999999
 20
63.236111164099988
 30
0.0
 40
2.9986110209999999
  1
15
 50
90.0
  0
LINE
  5
1D9
  8
0
 62
     0
 10
-8.0
 20
57.5
 30
0.0
 11
1.0
 21
57.5
 31
0.0
  0
LINE
  5
1DA
  8
0
 62
     0
 10
-17.0
 20
72.5
 30
0.0
 11
1.0
 21
72.5
 31
0.0
  0
LINE
  5
1DB
  8
0
 62
     0
 10
0.0
 20
57.5
 30
0.0
 11
0.0
 21
68.527777671799996
 31
0.0
  0
LINE
  5
1DC
  8
0
 62
     0
 10
0.0
 20
57.5
 30
0.0
 11
0.0
 21
61.47222232819999
 31
0.0
  0
LINE
  5
1DD
  8
0
 62
     0
 10
0.0
 20
72.5
 30
0.0
 11
0.0
 21
68.527777671799996
 31
0.0
  0
LINE
  5
1DE
  8
0
 62
     0
 10
0.0
 20
72.5
 30
0.0
 11
0.0
 21
61.47222232819999
 31
0.0
  0
LINE
  5
1DF
  8
0
 62
     0
 10
0.0
 20
72.5
 30
0.0
 11
0.0
 21
67.5
 31
0.0
  0
SOLID
  5
1E0
  8
0
 62
     0
 10
0.0
 20
72.5
 30
0.0
 11
0.75
 21
69.5
 31
0.0
 12
-0.75
 22
69.5
 32
0.0
 13
0.0
 23
70.25
 33
0.0
  0
LINE
  5
1E1
  8
0
 62
     0
 10
0.0
 20
57.5
 30
0.0
 11
0.0
 21
62.5
 31
0.0
  0
SOLID
  5
1E2
  8
0
 62
     0
 10
0.0
 20
57.5
 30
0.0
 11
-0.75
 21
60.5
 31
0.0
 12
0.75
 22
60.5
 32
0.0
 13
0.0
 23
59.75
 33
0.0
  0
ENDBLK
  5
1E3
  8
0
  0
BLOCK
  8
0
  2
*D14
 70
     1
 10
0.0
 20
0.0
 30
0.0
  3
*D14
  1

  0
TEXT
  5
1E7
  8
0
 62
     0
 10
-1.5291666507999999
 20
78.236111164099995
 30
0.0
 40
2.9986110209999999
  1
15
 50
90.0
  0
LINE
  5
1E8
  8
0
 62
     0
 10
-17.0
 20
72.5
 30
0.0
 11
1.0
 21
72.5
 31
0.0
  0
LINE
  5
1E9
  8
0
 62
     0
 10
-8.0
 20
87.5
 30
0.0
 11
1.0
 21
87.5
 31
0.0
  0
LINE
  5
1EA
  8
0
 62
     0
 10
0.0
 20
72.5
 30
0.0
 11
0.0
 21
83.527777671799996
 31
0.0
  0
LINE
  5
1EB
  8
0
 62
     0
 10
0.0
 20
72.5
 30
0.0
 11
0.0
 21
76.47222232819999
 31
0.0
  0
LINE
  5
1EC
  8
0
 62
     0
 10
0.0
 20
87.5
 30
0.0
 11
0.0
 21
83.527777671799996
 31
0.0
  0
LINE
  5
1ED
  8
0
 62
     0
 10
0.0
 20
87.5
 30
0.0
 11
0.0
 21
76.47222232819999
 31
0.0
  0
LINE
  5
1EE
  8
0
 62
     0
 10
0.0
 20
87.5
 30
0.0
 11
0.0
 21
82.5
 31
0.0
  0
SOLID
  5
1EF
  8
0
 62
     0
 10
0.0
 20
87.5
 30
0.0
 11
0.75
 21
84.500000000000014
 31
0.0
 12
-0.75
 22
84.500000000000014
 32
0.0
 13
0.0
 23
85.25
 33
0.0
  0
LINE
  5
1F0
  8
0
 62
     0
 10
0.0
 20
72.5
 30
0.0
 11
0.0
 21
77.5
 31
0.0
  0
SOLID
  5
1F1
  8
0
 62
     0
 10
0.0
 20
72.5
 30
0.0
 11
-0.75
 21
75.5
 31
0.0
 12
0.75
 22
75.5
 32
0.0
 13
0.0
 23
74.75
 33
0.0
  0
ENDBLK
  5
1F2
  8
0
  0
BLOCK
  8
0
  2
*D15
 70
     1
 10
0.0
 20
0.0
 30
0.0
  3
*D15
  1

  0
TEXT
  5
1F6
  8
0
 62
     0
 10
-1.5291666507999999
 20
-11.630348338799999
 30
0.0
 40
2.9986110209999999
  1
3t
 50
90.0
  0
LINE
  5
1F7
  8
0
 62
     0
 10
-8.0
 20
-20.611111111100001
 30
0.0
 11
1.0
 21
-20.611111111100001
 31
0.0
  0
LINE
  5
1F8
  8
0
 62
     0
 10
-8.0
 20
-17.611111111100001
 30
0.0
 11
1.0
 21
-17.611111111100001
 31
0.0
  0
LINE
  5
1F9
  8
0
 62
     0
 10
0.0
 20
-20.611111111100001
 30
0.0
 11
0.0
 21
-6.3386818310999988
 31
0.0
  0
LINE
  5
1FA
  8
0
 62
     0
 10
0.0
 20
-20.611111111100001
 30
0.0
 11
0.0
 21
-13.394237174700001
 31
0.0
  0
LINE
  5
1FB
  8
0
 62
     0
 10
0.0
 20
-17.611111111100001
 30
0.0
 11
0.0
 21
-6.3386818310999988
 31
0.0
  0
LINE
  5
1FC
  8
0
 62
     0
 10
0.0
 20
-17.611111111100001
 30
0.0
 11
0.0
 21
-13.394237174700001
 31
0.0
  0
LINE
  5
1FD
  8
0
 62
     0
 10
0.0
 20
-17.611111111100001
 30
0.0
 11
0.0
 21
-12.6111111111
 31
0.0
  0
SOLID
  5
1FE
  8
0
 62
     0
 10
0.0
 20
-17.611111111100001
 30
0.0
 11
-0.75
 21
-14.6111111111
 31
0.0
 12
0.75
 22
-14.6111111111
 32
0.0
 13
0.0
 23
-15.3611111111
 33
0.0
  0
LINE
  5
1FF
  8
0
 62
     0
 10
0.0
 20
-20.611111111100001
 30
0.0
 11
0.0
 21
-25.611111111100001
 31
0.0
  0
SOLID
  5
200
  8
0
 62
     0
 10
0.0
 20
-20.611111111100001
 30
0.0
 11
0.75
 21
-23.611111111100001
 31
0.0
 12
-0.75
 22
-23.611111111100001
 32
0.0
 13
0.0
 23
-22.861111111100001
 33
0.0
  0
ENDBLK
  5
201
  8
0
  0
BLOCK
  8
0
  2
*D16
 70
     1
 10
0.0
 20
0.0
 30
0.0
  3
*D16
  1

  0
TEXT
  5
20F
  8
0
 62
     0
 10
-78.591182241200002
 20
-5.8806994582999996
 30
0.0
 40
2.9986110209999999
  1
90%%d
 50
313.80244524770001
  0
ARC
  5
210
  8
0
 62
     0
 10
-87.0
 20
-17.611111111100001
 30
0.0
 40
12.6008875543
 50
63.62001765050001
 51
90.0
  0
ARC
  5
211
  8
0
 62
     0
 10
-87.0
 20
-17.611111111100001
 30
0.0
 40
12.6008875543
 50
0.0
 51
26.379982349500001
  0
SOLID
  5
212
  8
0
 62
     0
 10
-74.399112445699998
 20
-17.611111111100001
 30
0.0
 11
-73.649112445699998
 21
-20.611111111100001
 31
0.0
 12
-75.149112445699998
 22
-20.611111111100001
 32
0.0
 13
-74.399112445699998
 23
-19.861111111100001
 33
0.0
  0
SOLID
  5
213
  8
0
 62
     0
 10
-87.0
 20
-5.0102235567999989
 30
0.0
 11
-90.0
 21
-5.7602235567999989
 31
0.0
 12
-90.0
 22
-4.2602235567999989
 32
0.0
 13
-89.25
 23
-5.0102235567999989
 33
0.0
  0
ARC
  5
214
  8
0
 62
     0
 10
-87.0
 20
-17.611111111100001
 30
0.0
 40
12.6008875543
 50
0.0
 51
23.462183232800001
  0
ARC
  5
215
  8
0
 62
     0
 10
-87.0
 20
-17.611111111100001
 30
0.0
 40
12.6008875543
 50
64.142707262599984
 51
90.0
  0
LINE
  5
216
  8
0
 62
     0
 10
-12.0
 20
-17.611111111100001
 30
0.0
 11
-76.399112445699998
 21
-17.611111111100001
 31
0.0
  0
LINE
  5
217
  8
0
 62
     0
 10
-87.0
 20
22.388888888899999
 30
0.0
 11
-87.0
 21
-7.0102235567999989
 31
0.0
  0
ENDBLK
  5
218
  8
0
  0
BLOCK
  8
0
  2
*D17
 70
     1
 10
0.0
 20
0.0
 30
0.0
  3
*D17
  1

  0
TEXT
  5
21C
  8
0
 62
     0
 10
-101.52916665079999
 20
0.125000053
 30
0.0
 40
2.9986110209999999
  1
45
 50
90.0
  0
LINE
  5
21D
  8
0
 62
     0
 10
-92.0
 20
24.388888888899999
 30
0.0
 11
-101.0
 21
24.388888888899999
 31
0.0
  0
LINE
  5
21E
  8
0
 62
     0
 10
-89.0
 20
-20.611111111100001
 30
0.0
 11
-101.0
 21
-20.611111111100001
 31
0.0
  0
LINE
  5
21F
  8
0
 62
     0
 10
-100.0
 20
24.388888888899999
 30
0.0
 11
-100.0
 21
5.4166665607000004
 31
0.0
  0
LINE
  5
220
  8
0
 62
     0
 10
-100.0
 20
24.388888888899999
 30
0.0
 11
-100.0
 21
-1.638888782899999
 31
0.0
  0
LINE
  5
221
  8
0
 62
     0
 10
-100.0
 20
-20.611111111100001
 30
0.0
 11
-100.0
 21
5.4166665607000004
 31
0.0
  0
LINE
  5
222
  8
0
 62
     0
 10
-100.0
 20
-20.611111111100001
 30
0.0
 11
-100.0
 21
-1.638888782899999
 31
0.0
  0
LINE
  5
223
  8
0
 62
     0
 10
-100.0
 20
-20.611111111100001
 30
0.0
 11
-100.0
 21
-15.6111111111
 31
0.0
  0
SOLID
  5
224
  8
0
 62
     0
 10
-100.0
 20
-20.611111111100001
 30
0.0
 11
-100.75
 21
-17.611111111100001
 31
0.0
 12
-99.25
 22
-17.611111111100001
 32
0.0
 13
-100.0
 23
-18.361111111100001
 33
0.0
  0
LINE
  5
225
  8
0
 62
     0
 10
-100.0
 20
24.388888888899999
 30
0.0
 11
-100.0
 21
19.388888888899999
 31
0.0
  0
SOLID
  5
226
  8
0
 62
     0
 10
-100.0
 20
24.388888888899999
 30
0.0
 11
-99.25
 21
21.388888888899999
 31
0.0
 12
-100.75
 22
21.388888888899999
 32
0.0
 13
-100.0
 23
22.138888888899999
 33
0.0
  0
ENDBLK
  5
227
  8
0
  0
BLOCK
  8
0
  2
*D18
 70
     1
 10
0.0
 20
0.0
 30
0.0
  3
*D18
  1

  0
LINE
  5
23E
  8
寸法線
 62
     0
 10
55.225539469022003
 20
2.6547287367757719
 30
0.0
 11
65.940482226109964
 21
13.36967149386377
 31
0.0
  0
LINE
  5
23F
  8
寸法線
 62
     0
 10
37.01583077797423
 20
2.65472873677626
 30
0.0
 11
26.300888020904502
 21
13.369671494082519
 31
0.0
  0
ARC
  5
240
  8
寸法線
 62
     0
 10
46.120685123397863
 20
-6.450125608848384
 30
0.0
 40
27.029425866138489
 50
51.362535737406809
 51
80.792842464310127
  0
ARC
  5
241
  8
寸法線
 62
     0
 10
46.120685123397863
 20
-6.450125608848384
 30
0.0
 40
27.029425866138489
 50
100.5530290130779
 51
128.63746426196079
  0
SOLID
  5
242
  8
寸法線
 62
     0
 10
63.330989387791263
 20
15.03552221116494
 30
0.0
 11
62.664213229207782
 21
14.290264165690299
 31
0.0
 12
65.233375444923439
 22
12.662564712677231
 32
0.0
 13
65.233375444923439
 23
12.662564712677231
 33
0.0
  0
SOLID
  5
243
  8
寸法線
 62
     0
 10
29.577157017816852
 20
14.290264165872889
 30
0.0
 11
28.91038085924162
 21
15.035522211354889
 31
0.0
 12
27.007994802083239
 22
12.66256471288817
 32
0.0
 13
27.007994802083239
 23
12.66256471288817
 33
0.0
  0
INSERT
  5
244
  8
0
  6
CONTINUOUS
  2
*U61
 10
0.0
 20
0.0
 30
0.0
  0
POINT
  5
245
  8
DEFPOINTS
 62
     0
 10
46.120685123397863
 20
-6.450125608848384
 30
0.0
  0
POINT
  5
246
  8
DEFPOINTS
 62
     0
 10
55.181345295197843
 20
2.6105345629516128
 30
0.0
  0
POINT
  5
247
  8
DEFPOINTS
 62
     0
 10
37.060024951797878
 20
2.6105345629516128
 30
0.0
  0
POINT
  5
248
  8
DEFPOINTS
 62
     0
 10
53.116415315837251
 20
19.658294904994811
 30
0.0
  0
ENDBLK
  5
249
  8
0
  0
BLOCK
  8
0
  2
*D19
 70
     1
 10
0.0
 20
0.0
 30
0.0
  3
*D19
  1

  0
LINE
  5
24C
  8
寸法線
 62
     0
 10
54.120685123397827
 20
1.6123743911516151
 30
0.0
 11
54.120685123397827
 21
10.99609221493057
 31
0.0
  0
LINE
  5
24D
  8
寸法線
 62
     0
 10
38.120685123397863
 20
1.6123743911516151
 30
0.0
 11
38.120685123397863
 21
10.99609221493057
 31
0.0
  0
LINE
  5
24E
  8
寸法線
 62
     0
 10
51.120685123397827
 20
9.9960922149305702
 30
0.0
 11
49.585594192909198
 21
9.9960922149305702
 31
0.0
  0
LINE
  5
24F
  8
寸法線
 62
     0
 10
41.120685123397863
 20
9.9960922149305702
 30
0.0
 11
44.407909157909202
 21
9.9960922149305702
 31
0.0
  0
SOLID
  5
250
  8
寸法線
 62
     0
 10
51.120685123397827
 20
10.49609221493057
 30
0.0
 11
51.120685123397827
 21
9.4960922149305702
 31
0.0
 12
54.120685123397827
 22
9.9960922149305702
 32
0.0
 13
54.120685123397827
 23
9.9960922149305702
 33
0.0
  0
SOLID
  5
251
  8
寸法線
 62
     0
 10
41.120685123397863
 20
10.49609221493057
 30
0.0
 11
41.120685123397863
 21
9.4960922149305702
 31
0.0
 12
38.120685123397863
 22
9.9960922149305702
 32
0.0
 13
38.120685123397863
 23
9.9960922149305702
 33
0.0
  0
INSERT
  5
252
  8
0
  6
CONTINUOUS
  2
*U62
 10
0.0
 20
0.0
 30
0.0
  0
POINT
  5
253
  8
DEFPOINTS
 62
     0
 10
54.120685123397827
 20
1.5498743911516151
 30
0.0
  0
POINT
  5
254
  8
DEFPOINTS
 62
     0
 10
38.120685123397863
 20
1.5498743911516151
 30
0.0
  0
POINT
  5
255
  8
DEFPOINTS
 62
     0
 10
38.120685123397863
 20
9.9960922149305702
 30
0.0
  0
ENDBLK
  5
256
  8
0
  0
BLOCK
  8
0
  2
*D20
 70
     1
 10
0.0
 20
0.0
 30
0.0
  3
*D20
  1

  0
LINE
  5
259
  8
寸法線
 62
     0
 10
41.320685123397851
 20
-4.9126256088483826
 30
0.0
 11
41.320685123397851
 21
-15.699205702913559
 31
0.0
  0
LINE
  5
25A
  8
寸法線
 62
     0
 10
50.920685123397782
 20
-4.9126256088483826
 30
0.0
 11
50.920685123397782
 21
-15.699205702913559
 31
0.0
  0
LINE
  5
25B
  8
寸法線
 62
     0
 10
44.320685123397837
 20
-14.699205702913559
 30
0.0
 11
47.920685123397789
 21
-14.699205702913559
 31
0.0
  0
LINE
  5
25C
  8
寸法線
 62
     0
 10
50.920685123397782
 20
-14.699205702913559
 30
0.0
 11
55.91975913739779
 21
-14.699205702913559
 31
0.0
  0
SOLID
  5
25D
  8
寸法線
 62
     0
 10
44.320685123397837
 20
-14.199205702913559
 30
0.0
 11
44.320685123397837
 21
-15.199205702913559
 31
0.0
 12
41.320685123397851
 22
-14.699205702913559
 32
0.0
 13
41.320685123397851
 23
-14.699205702913559
 33
0.0
  0
SOLID
  5
25E
  8
寸法線
 62
     0
 10
47.920685123397789
 20
-14.199205702913559
 30
0.0
 11
47.920685123397789
 21
-15.199205702913559
 31
0.0
 12
50.920685123397782
 22
-14.699205702913559
 32
0.0
 13
50.920685123397782
 23
-14.699205702913559
 33
0.0
  0
INSERT
  5
25F
  8
0
  6
CONTINUOUS
  2
*U63
 10
0.0
 20
0.0
 30
0.0
  0
POINT
  5
260
  8
DEFPOINTS
 62
     0
 10
41.320685123397851
 20
-4.8501256088483826
 30
0.0
  0
POINT
  5
261
  8
DEFPOINTS
 62
     0
 10
50.920685123397782
 20
-4.8501256088483826
 30
0.0
  0
POINT
  5
262
  8
DEFPOINTS
 62
     0
 10
50.920685123397782
 20
-14.699205702913559
 30
0.0
  0
ENDBLK
  5
263
  8
0
  0
BLOCK
  8
0
  2
*D22
 70
     1
 10
0.0
 20
0.0
 30
0.0
  3
*D22
  1

  0
LINE
  5
2A7
  8
寸法線
 62
     0
 10
38.415044164090752
 20
4.04917114311404
 30
0.0
 11
38.415044164090752
 21
-6.737408950951135
 31
0.0
  0
LINE
  5
2A8
  8
寸法線
 62
     0
 10
48.015044164090682
 20
4.04917114311404
 30
0.0
 11
48.015044164090682
 21
-6.737408950951135
 31
0.0
  0
LINE
  5
2A9
  8
寸法線
 62
     0
 10
41.415044164090737
 20
-5.737408950951135
 30
0.0
 11
45.015044164090682
 21
-5.737408950951135
 31
0.0
  0
LINE
  5
2AA
  8
寸法線
 62
     0
 10
48.015044164090682
 20
-5.737408950951135
 30
0.0
 11
53.014118178090683
 21
-5.737408950951135
 31
0.0
  0
SOLID
  5
2AB
  8
寸法線
 62
     0
 10
41.415044164090737
 20
-5.237408950951135
 30
0.0
 11
41.415044164090737
 21
-6.237408950951135
 31
0.0
 12
38.415044164090752
 22
-5.737408950951135
 32
0.0
 13
38.415044164090752
 23
-5.737408950951135
 33
0.0
  0
SOLID
  5
2AC
  8
寸法線
 62
     0
 10
45.015044164090682
 20
-5.237408950951135
 30
0.0
 11
45.015044164090682
 21
-6.237408950951135
 31
0.0
 12
48.015044164090682
 22
-5.737408950951135
 32
0.0
 13
48.015044164090682
 23
-5.737408950951135
 33
0.0
  0
INSERT
  5
2AD
  8
0
  6
CONTINUOUS
  2
*U64
 10
0.0
 20
0.0
 30
0.0
  0
POINT
  5
2AE
  8
DEFPOINTS
 62
     0
 10
38.415044164090752
 20
4.11167114311404
 30
0.0
  0
POINT
  5
2AF
  8
DEFPOINTS
 62
     0
 10
48.015044164090682
 20
4.11167114311404
 30
0.0
  0
POINT
  5
2B0
  8
DEFPOINTS
 62
     0
 10
48.015044164090682
 20
-5.737408950951135
 30
0.0
  0
ENDBLK
  5
28B
  8
0
  0
BLOCK
  8
0
  2
*D23
 70
     1
 10
0.0
 20
0.0
 30
0.0
  3
*D23
  1

  0
LINE
  5
386
  8
寸法線
 62
     0
 10
52.319898509714889
 20
11.616525488738199
 30
0.0
 11
63.034841266802871
 21
22.331468245826201
 31
0.0
  0
LINE
  5
387
  8
寸法線
 62
     0
 10
34.110189818667109
 20
11.61652548873869
 30
0.0
 11
23.395247061597392
 21
22.33146824604496
 31
0.0
  0
ARC
  5
388
  8
寸法線
 62
     0
 10
43.215044164090749
 20
2.5116711431140391
 30
0.0
 40
27.029425866138489
 50
51.362535737406809
 51
80.792842464310127
  0
ARC
  5
389
  8
寸法線
 62
     0
 10
43.215044164090749
 20
2.5116711431140391
 30
0.0
 40
27.029425866138489
 50
100.5530290130779
 51
128.63746426196079
  0
SOLID
  5
38A
  8
寸法線
 62
     0
 10
60.425348428484142
 20
23.997318963127359
 30
0.0
 11
59.758572269900682
 21
23.25206091765272
 31
0.0
 12
62.327734485616332
 22
21.624361464639652
 32
0.0
 13
62.327734485616332
 23
21.624361464639652
 33
0.0
  0
SOLID
  5
38B
  8
寸法線
 62
     0
 10
26.671516058509741
 20
23.252060917835319
 30
0.0
 11
26.004739899934499
 21
23.997318963317319
 31
0.0
 12
24.102353842776129
 22
21.624361464850601
 32
0.0
 13
24.102353842776129
 23
21.624361464850601
 33
0.0
  0
TEXT
  8
寸法線
  40
2.99861
  5
399
  62
0
  72
0
  71
0
 10
36.9004
 20
24.2317
 30
0.000000
  1
90°
  0
POINT
  5
38D
  8
DEFPOINTS
 62
     0
 10
43.215044164090749
 20
2.5116711431140391
 30
0.0
  0
POINT
  5
38E
  8
DEFPOINTS
 62
     0
 10
52.27570433589073
 20
11.57233131491404
 30
0.0
  0
POINT
  5
38F
  8
DEFPOINTS
 62
     0
 10
34.154383992490779
 20
11.57233131491404
 30
0.0
  0
POINT
  5
390
  8
DEFPOINTS
 62
     0
 10
50.210774356530131
 20
28.620091656957239
 30
0.0
  0
ENDBLK
  5
299
  8
0
  0
BLOCK
  8
0
  2
*D24
 70
     1
 10
0.0
 20
0.0
 30
0.0
  3
*D24
  1

  0
LINE
  5
2BC
  8
寸法線
 62
     0
 10
51.215044164090727
 20
10.574171143114039
 30
0.0
 11
51.215044164090727
 21
19.957888966892991
 31
0.0
  0
LINE
  5
2BD
  8
寸法線
 62
     0
 10
35.215044164090763
 20
10.574171143114039
 30
0.0
 11
35.215044164090763
 21
19.957888966892991
 31
0.0
  0
LINE
  5
2BE
  8
寸法線
 62
     0
 10
48.215044164090727
 20
18.957888966892991
 30
0.0
 11
46.679953233602092
 21
18.957888966892991
 31
0.0
  0
LINE
  5
2BF
  8
寸法線
 62
     0
 10
38.215044164090763
 20
18.957888966892991
 30
0.0
 11
41.502268198602088
 21
18.957888966892991
 31
0.0
  0
SOLID
  5
2C0
  8
寸法線
 62
     0
 10
48.215044164090727
 20
19.457888966892991
 30
0.0
 11
48.215044164090727
 21
18.457888966892991
 31
0.0
 12
51.215044164090727
 22
18.957888966892991
 32
0.0
 13
51.215044164090727
 23
18.957888966892991
 33
0.0
  0
SOLID
  5
2C1
  8
寸法線
 62
     0
 10
38.215044164090763
 20
19.457888966892991
 30
0.0
 11
38.215044164090763
 21
18.457888966892991
 31
0.0
 12
35.215044164090763
 22
18.957888966892991
 32
0.0
 13
35.215044164090763
 23
18.957888966892991
 33
0.0
  0
INSERT
  5
2C2
  8
0
  6
CONTINUOUS
  2
*U65
 10
0.0
 20
0.0
 30
0.0
  0
POINT
  5
2C3
  8
DEFPOINTS
 62
     0
 10
51.215044164090727
 20
10.511671143114039
 30
0.0
  0
POINT
  5
2C4
  8
DEFPOINTS
 62
     0
 10
35.215044164090763
 20
10.511671143114039
 30
0.0
  0
POINT
  5
2C5
  8
DEFPOINTS
 62
     0
 10
35.215044164090763
 20
18.957888966892991
 30
0.0
  0
ENDBLK
  5
2A6
  8
0
  0
BLOCK
  8
0
  2
*U25
 70
     1
 10
0.0
 20
0.0
 30
0.0
  3
*U25
  1

  0
TEXT
  5
2D7
  8
図枠
  6
CONTINUOUS
 10
129.96091861588019
 20
116.4898346716583
 30
0.0
 40
2.698480084499999
  1
検認者
  0
ENDBLK
  5
2D9
  8
0
  0
BLOCK
  8
0
  2
*U26
 70
     1
 10
0.0
 20
0.0
 30
0.0
  3
*U26
  1

  0
TEXT
  5
2DB
  8
図枠
  6
CONTINUOUS
 10
82.937912101420807
 20
116.5035325401076
 30
0.0
 40
2.698480084499999
  1
改　訂　内　容
  0
ENDBLK
  5
2DD
  8
0
  0
BLOCK
  8
0
  2
*U27
 70
     1
 10
0.0
 20
0.0
 30
0.0
  3
*U27
  1

  0
TEXT
  5
2DF
  8
図枠
  6
CONTINUOUS
 10
56.865484602510918
 20
116.5309282770061
 30
0.0
 40
2.698480084499999
  1
改訂日
  0
ENDBLK
  5
2E1
  8
0
  0
BLOCK
  8
0
  2
*U28
 70
     1
 10
0.0
 20
0.0
 30
0.0
  3
*U28
  1

  0
TEXT
  5
2E3
  8
図枠
  6
CONTINUOUS
 10
46.63370963246269
 20
116.5583240139046
 30
0.0
 40
2.698480084499999
  1
副番
  0
ENDBLK
  5
2E5
  8
0
  0
BLOCK
  8
0
  2
*U29
 70
     1
 10
0.0
 20
0.0
 30
0.0
  3
*U29
  1

  0
TEXT
  5
2E7
  8
図枠
  6
CONTINUOUS
 10
120.00301222122791
 20
116.5035325401076
 30
0.0
 40
2.698480084499999
  1
改訂者
  0
ENDBLK
  5
2E9
  8
0
  0
BLOCK
  8
0
  2
*U30
 70
     1
 10
0.0
 20
0.0
 30
0.0
  3
*U30
  1

  0
TEXT
  5
2EB
  8
図枠
  6
CONTINUOUS
 10
103.4130347955566
 20
-50.017109922871072
 30
0.0
 40
2.9983111599000001
  1
Ｌ型ブラケット
  0
ENDBLK
  5
2ED
  8
0
  0
BLOCK
  8
0
  2
*U31
 70
     1
 10
0.0
 20
0.0
 30
0.0
  3
*U31
  1

  0
TEXT
  5
2EF
  8
図枠
  6
CONTINUOUS
 10
28.232965874600001
 20
-67.513095065106597
 30
0.0
 40
4.3175681352000002
  1
株式会社
  0
ENDBLK
  5
2F1
  8
0
  0
BLOCK
  8
0
  2
*U32
 70
     1
 10
0.0
 20
0.0
 30
0.0
  3
*U32
  1

  0
TEXT
  5
2F3
  8
図枠
  6
CONTINUOUS
 10
26.900375474132741
 20
-42.819892660417757
 30
0.0
 40
2.8047194594999989
  1
一般公差
  0
ENDBLK
  5
2F5
  8
0
  0
BLOCK
  8
0
  2
*U33
 70
     1
 10
0.0
 20
0.0
 30
0.0
  3
*U33
  1

  0
TEXT
  5
2F7
  8
図枠
  6
CONTINUOUS
 10
26.857664010282491
 20
-31.735569732717259
 30
0.0
 40
2.8047194594999989
  1
材　　質
  0
ENDBLK
  5
2F9
  8
0
  0
BLOCK
  8
0
  2
*U34
 70
     1
 10
0.0
 20
0.0
 30
0.0
  3
*U34
  1

  0
TEXT
  5
2FB
  8
図枠
  6
CONTINUOUS
 10
26.829189701048989
 20
-37.263494041950757
 30
0.0
 40
2.8047194594999989
  1
表面処理
  0
ENDBLK
  5
2FD
  8
0
  0
BLOCK
  8
0
  2
*U35
 70
     1
 10
0.0
 20
0.0
 30
0.0
  3
*U35
  1

  0
TEXT
  5
2FF
  8
図枠
  6
CONTINUOUS
 10
58.59748182908681
 20
-31.579526350799998
 30
0.0
 40
2.9983111599000001
  1
SPCC
  0
ENDBLK
  5
301
  8
0
  0
BLOCK
  8
0
  2
*U36
 70
     1
 10
0.0
 20
0.0
 30
0.0
  3
*U36
  1

  0
TEXT
  5
303
  8
図枠
  6
CONTINUOUS
 10
104.13597784172541
 20
-58.27274226521422
 30
0.0
 40
2.9983111599000001
  1
LY-617 承認図
  0
ENDBLK
  5
305
  8
0
  0
BLOCK
  8
0
  2
*U37
 70
     1
 10
0.0
 20
0.0
 30
0.0
  3
*U37
  1

  0
TEXT
  5
307
  8
図枠
  6
CONTINUOUS
 10
101.2822552910591
 20
-66.711012850800003
 30
0.0
 40
2.9983111599000001
  1
ＳＲＫ００１２３
  0
ENDBLK
  5
309
  8
0
  0
BLOCK
  8
0
  2
*U38
 70
     1
 10
0.0
 20
0.0
 30
0.0
  3
*U38
  1

  0
TEXT
  5
30B
  8
図枠
  6
CONTINUOUS
 10
25.414153450123852
 20
-60.139747251752787
 30
0.0
 40
2.337266249999999
  1
製図
  0
ENDBLK
  5
30D
  8
0
  0
BLOCK
  8
0
  2
*U39
 70
     1
 10
0.0
 20
0.0
 30
0.0
  3
*U39
  1

  0
TEXT
  5
30F
  8
図枠
  6
CONTINUOUS
 10
48.831069138575643
 20
-47.391022251752787
 30
0.0
 40
2.337266249999999
  1
尺 　度
  0
ENDBLK
  5
311
  8
0
  0
BLOCK
  8
0
  2
*U40
 70
     1
 10
0.0
 20
0.0
 30
0.0
  3
*U40
  1

  0
TEXT
  5
313
  8
図枠
  6
CONTINUOUS
 10
61.211068769167021
 20
-42.791418351184262
 30
0.0
 40
2.8047194594999989
  1
指定無き公差はJIS 0408-Bによること
  0
ENDBLK
  5
315
  8
0
  0
BLOCK
  8
0
  2
*U41
 70
     1
 10
0.0
 20
0.0
 30
0.0
  3
*U41
  1

  0
TEXT
  5
317
  8
図枠
  6
CONTINUOUS
 10
79.463100987842139
 20
-37.220782578100497
 30
0.0
 40
2.8047194594999989
  1
ユニクロメッキ
  0
ENDBLK
  5
319
  8
0
  0
BLOCK
  8
0
  2
*U42
 70
     1
 10
0.0
 20
0.0
 30
0.0
  3
*U42
  1

  0
TEXT
  5
31B
  8
図枠
  6
CONTINUOUS
 10
82.816471123740612
 20
-31.79251835118427
 30
0.0
 40
2.8047194594999989
  1
板　　厚
  0
ENDBLK
  5
31D
  8
0
  0
BLOCK
  8
0
  2
*U43
 70
     1
 10
0.0
 20
0.0
 30
0.0
  3
*U43
  1

  0
TEXT
  5
31F
  8
図枠
  6
CONTINUOUS
 10
115.3391321863523
 20
-31.810892150400001
 30
0.0
 40
3.229676959499999
  1
3.0t
  0
ENDBLK
  5
321
  8
0
  0
BLOCK
  8
0
  2
*U44
 70
     1
 10
0.0
 20
0.0
 30
0.0
  3
*U44
  1

  0
TEXT
  5
323
  8
図枠
  6
CONTINUOUS
 10
51.120878205834522
 20
-51.521954294899992
 30
0.0
 40
2.337266249999999
  1
1：1
  0
ENDBLK
  5
325
  8
0
  0
BLOCK
  8
0
  2
*U45
 70
     1
 10
0.0
 20
0.0
 30
0.0
  3
*U45
  1

  0
TEXT
  5
327
  8
図枠
  6
CONTINUOUS
 10
54.009834205200008
 20
-60.151611547438073
 30
0.0
 40
2.337266249999999
  1
 検図
  0
ENDBLK
  5
329
  8
0
  0
BLOCK
  8
0
  2
*U46
 70
     1
 10
0.0
 20
0.0
 30
0.0
  3
*U46
  1

  0
TEXT
  5
32B
  8
図枠
  6
CONTINUOUS
 10
54.009834205200008
 20
-55.878307956067509
 30
0.0
 40
2.337266249999999
  1
 照査
  0
ENDBLK
  5
32D
  8
0
  0
BLOCK
  8
0
  2
*U47
 70
     1
 10
0.0
 20
0.0
 30
0.0
  3
*U47
  1

  0
TEXT
  5
32F
  8
図枠
  6
CONTINUOUS
 10
69.330002542763452
 20
-60.139747251752787
 30
0.0
 40
2.337266249999999
  1
柳 原
  0
ENDBLK
  5
331
  8
0
  0
BLOCK
  8
0
  2
*U48
 70
     1
 10
0.0
 20
0.0
 30
0.0
  3
*U48
  1

  0
TEXT
  5
333
  8
図枠
  6
CONTINUOUS
 10
29.6813662800731
 20
-51.521954294899992
 30
0.0
 40
2.337266249999999
  1
H12.11
  0
ENDBLK
  5
335
  8
0
  0
BLOCK
  8
0
  2
*U49
 70
     1
 10
0.0
 20
0.0
 30
0.0
  3
*U49
  1

  0
TEXT
  5
337
  8
図枠
  6
CONTINUOUS
 10
61.211068769167021
 20
-42.791418351184262
 30
0.0
 40
2.8047194594999989
  1
指定無き公差はJIS 0408-Bによること
  0
ENDBLK
  5
339
  8
0
  0
BLOCK
  8
0
  2
*U50
 70
     1
 10
0.0
 20
0.0
 30
0.0
  3
*U50
  1

  0
TEXT
  5
33B
  8
図枠
  6
CONTINUOUS
 10
29.0822193479665
 20
-47.319836477641118
 30
0.0
 40
2.337266249999999
  1
日 　付
  0
ENDBLK
  5
33D
  8
0
  0
BLOCK
  8
0
  2
*U51
 70
     1
 10
0.0
 20
0.0
 30
0.0
  3
*U51
  1

  0
TEXT
  5
33F
  8
図枠
  6
CONTINUOUS
 10
84.284376245174613
 20
-64.136352215011655
 30
0.0
 40
2.337266249999999
  1
図　番
  0
ENDBLK
  5
341
  8
0
  0
BLOCK
  8
0
  2
*U52
 70
     1
 10
0.0
 20
0.0
 30
0.0
  3
*U52
  1

  0
TEXT
  5
343
  8
図枠
  6
CONTINUOUS
 10
24.012834205200001
 20
-55.866443660382231
 30
0.0
 40
2.337266249999999
  1
 設計
  0
ENDBLK
  5
345
  8
0
  0
BLOCK
  8
0
  2
*U53
 70
     1
 10
0.0
 20
0.0
 30
0.0
  3
*U53
  1

  0
TEXT
  5
347
  8
図枠
  6
CONTINUOUS
 10
69.330002542763452
 20
-55.890172251752787
 30
0.0
 40
2.337266249999999
  1
柳 原
  0
ENDBLK
  5
349
  8
0
  0
BLOCK
  8
0
  2
*U54
 70
     1
 10
0.0
 20
0.0
 30
0.0
  3
*U54
  1

  0
TEXT
  5
34B
  8
図枠
  6
CONTINUOUS
 10
39.404188316875128
 20
-60.080425773326397
 30
0.0
 40
2.337266249999999
  1
園 原
  0
ENDBLK
  5
34D
  8
0
  0
BLOCK
  8
0
  2
*U55
 70
     1
 10
0.0
 20
0.0
 30
0.0
  3
*U55
  1

  0
TEXT
  5
34F
  8
図枠
  6
CONTINUOUS
 10
39.404188316875128
 20
-55.830850773326397
 30
0.0
 40
2.337266249999999
  1
園 原
  0
ENDBLK
  5
351
  8
0
  0
BLOCK
  8
0
  2
*U56
 70
     1
 10
0.0
 20
0.0
 30
0.0
  3
*U56
  1

  0
TEXT
  5
353
  8
図枠
  6
CONTINUOUS
 10
84.296240540859912
 20
-55.660930806382233
 30
0.0
 40
2.337266249999999
  1
図面名
  0
ENDBLK
  5
355
  8
0
  0
BLOCK
  8
0
  2
*U57
 70
     1
 10
0.0
 20
0.0
 30
0.0
  3
*U57
  1

  0
TEXT
  5
357
  8
図枠
  6
CONTINUOUS
 10
84.230986914590858
 20
-47.185509397752789
 30
0.0
 40
2.337266249999999
  1
製品名
  0
ENDBLK
  5
359
  8
0
  0
BLOCK
  8
0
  2
*U58
 70
     1
 10
0.0
 20
0.0
 30
0.0
  3
*U58
  1

  0
TEXT
  5
35B
  8
ﾚｲﾔ_1
  6
CONTINUOUS
 10
34.662695675350761
 20
-16.669102488993399
 30
0.0
 40
2.9986110209999999
  1
皿加工部詳細
  0
ENDBLK
  5
35D
  8
0
  0
BLOCK
  8
0
  2
*D59
 70
     1
 10
0.0
 20
0.0
 30
0.0
  3
*D59
  1

  0
LINE
  5
35F
  8
寸法線
 62
     0
 10
-55.175475740275843
 20
-17.036586851375841
 30
0.0
 11
-51.702856786205551
 21
-13.563967897305551
 31
0.0
  0
LINE
  5
360
  8
寸法線
 62
     0
 10
-64.824524259724157
 20
-17.036586851375841
 30
0.0
 11
-68.297143213794456
 21
-13.563967897305551
 31
0.0
  0
ARC
  5
361
  8
寸法線
 62
     0
 10
-60.0
 20
-21.861111111100001
 30
0.0
 40
10.4839324619
 50
50.467177715996741
 51
82.02601158190221
  0
ARC
  5
362
  8
寸法線
 62
     0
 10
-60.0
 20
-21.861111111100001
 30
0.0
 40
10.4839324619
 50
97.973988418097804
 51
129.53282228400329
  0
SOLID
  5
363
  8
寸法線
 62
     0
 10
-53.214669308258358
 20
-13.65193498904233
 30
0.0
 11
-53.43886224138857
 21
-13.898610159753909
 31
0.0
 12
-52.586740262688728
 22
-14.44785137378874
 32
0.0
 13
-52.586740262688728
 23
-14.44785137378874
 33
0.0
  0
SOLID
  5
364
  8
寸法線
 62
     0
 10
-66.561137758611423
 20
-13.898610159753909
 30
0.0
 11
-66.785330691741635
 21
-13.65193498904233
 31
0.0
 12
-67.413259737311265
 22
-14.44785137378874
 32
0.0
 13
-67.413259737311265
 23
-14.44785137378874
 33
0.0
  0
TEXT
  8
寸法線
  40
0.899583
  5
39A
  62
0
  72
0
  71
0
 10
-61.7992
 20
-12.9694
 30
0.000000
  1
90°
  0
POINT
  5
366
  8
DEFPOINTS
 62
     0
 10
-60.0
 20
-21.861111111100001
 30
0.0
  0
POINT
  5
367
  8
DEFPOINTS
 62
     0
 10
-55.219669914100002
 20
-17.0807810252
 30
0.0
  0
POINT
  5
368
  8
DEFPOINTS
 62
     0
 10
-64.780330085900005
 20
-17.0807810252
 30
0.0
  0
POINT
  5
369
  8
DEFPOINTS
 62
     0
 10
-57.286558611291717
 20
-11.734409985080459
 30
0.0
  0
ENDBLK
  5
36B
  8
0
  0
BLOCK
  8
0
  2
*D60
 70
     1
 10
0.0
 20
0.0
 30
0.0
  3
*D60
  1

  0
LINE
  5
36D
  8
寸法線
 62
     0
 10
-10.0625
 20
-17.611111111100001
 30
0.0
 11
-75.649112445744876
 21
-17.611111111100008
 31
0.0
  0
LINE
  5
36E
  8
寸法線
 62
     0
 10
-87.0
 20
24.326388888900009
 30
0.0
 11
-87.000000000000014
 21
-6.2602235568448696
 31
0.0
  0
ARC
  5
36F
  8
寸法線
 62
     0
 10
-87.0
 20
-17.611111111100001
 30
0.0
 40
12.600887554255131
 50
13.673314579106171
 51
22.206370766409691
  0
ARC
  5
370
  8
寸法線
 62
     0
 10
-87.0
 20
-17.611111111100001
 30
0.0
 40
12.600887554255131
 50
65.39851972868999
 51
76.326685420893824
  0
SOLID
  5
371
  8
寸法線
 62
     0
 10
-74.259785371644384
 20
-14.57292284069565
 30
0.0
 11
-75.252674922807984
 21
-14.69196207452276
 31
0.0
 12
-74.399112445744876
 22
-17.611111111100008
 32
0.0
 13
-74.399112445744876
 23
-17.611111111100008
 33
0.0
  0
SOLID
  5
372
  8
寸法線
 62
     0
 10
-84.080850963422762
 20
-5.863786033907977
 30
0.0
 11
-83.961811729595667
 21
-4.8708964827443699
 31
0.0
 12
-87.0
 22
-5.0102235568448634
 32
0.0
 13
-87.0
 23
-5.0102235568448634
 33
0.0
  0
TEXT
  8
寸法線
  40
2.99861
  5
39B
  62
0
  72
0
  71
0
 10
-83.9028
 20
-14.1966
 30
0.000000
  1
90°
  0
POINT
  5
374
  8
DEFPOINTS
 62
     0
 10
-87.0
 20
-17.611111111100001
 30
0.0
  0
POINT
  5
375
  8
DEFPOINTS
 62
     0
 10
-10.0
 20
-17.611111111100001
 30
0.0
  0
POINT
  5
376
  8
DEFPOINTS
 62
     0
 10
-87.000000000000014
 20
24.388888888899999
 30
0.0
  0
POINT
  5
377
  8
DEFPOINTS
 62
     0
 10
-80.699556222872445
 20
-6.6984223788838904
 30
0.0
  0
ENDBLK
  5
379
  8
0
  0
BLOCK
  8
0
  2
*U61
 70
     1
 10
0.0
 20
0.0
 30
0.0
  3
*U61
  1

  0
TEXT
  5
37B
  8
寸法線
  6
CONTINUOUS
 62
     0
 10
41.273262466875579
 20
19.024820380792029
 30
0.0
 40
2.9986110209999999
  1
90°
 50
0.6729357386939761
  0
ENDBLK
  5
37D
  8
0
  0
BLOCK
  8
0
  2
*U62
 70
     1
 10
0.0
 20
0.0
 30
0.0
  3
*U62
  1

  0
TEXT
  5
37F
  8
寸法線
  6
CONTINUOUS
 62
     0
 10
44.497909157909191
 20
8.4967867044305692
 30
0.0
 40
2.9986110209999999
  1
φ8
  0
ENDBLK
  5
381
  8
0
  0
BLOCK
  8
0
  2
*U63
 70
     1
 10
0.0
 20
0.0
 30
0.0
  3
*U63
  1

  0
TEXT
  5
383
  8
寸法線
  6
CONTINUOUS
 62
     0
 10
56.009759137397779
 20
-16.19851121341356
 30
0.0
 40
2.9986110209999999
  1
φ4
  0
ENDBLK
  5
385
  8
0
  0
BLOCK
  8
0
  2
*U64
 70
     1
 10
0.0
 20
0.0
 30
0.0
  3
*U64
  1

  0
TEXT
  5
392
  8
寸法線
  6
CONTINUOUS
 62
     0
 10
53.10411817809068
 20
-7.2367144614511352
 30
0.0
 40
2.9986110209999999
  1
φ4
  0
ENDBLK
  5
394
  8
0
  0
BLOCK
  8
0
  2
*U65
 70
     1
 10
0.0
 20
0.0
 30
0.0
  3
*U65
  1

  0
TEXT
  5
396
  8
寸法線
  6
CONTINUOUS
 62
     0
 10
41.592268198602092
 20
17.45858345639299
 30
0.0
 40
2.9986110209999999
  1
φ8
  0
ENDBLK
  5
398
  8
0
  0
ENDSEC
  0
SECTION
  2
ENTITIES
  0
INSERT
  5
2F
  8
0
  6
CONTINUOUS
  2
*U25
 10
0.0
 20
0.0
 30
0.0
  0
LINE
  5
30
  8
図枠
 62
     5
 10
54.009834205200008
 20
105.2553998091
 30
0.0
 11
54.009834205200008
 21
120.25389980910001
 31
0.0
  0
LINE
  5
31
  8
図枠
 62
     5
 10
49.725977247700001
 20
114.9720455471
 30
0.0
 11
52.200729747700002
 21
110.6856484809
 31
0.0
  0
LINE
  5
32
  8
図枠
 62
     5
 10
70.008234205200012
 20
105.2553998091
 30
0.0
 11
70.008234205200012
 21
120.25389980910001
 31
0.0
  0
LINE
  5
33
  8
図枠
 62
     5
 10
46.010634205199999
 20
105.2553998091
 30
0.0
 11
140.00123420520001
 21
105.2553998091
 31
0.0
  0
LINE
  5
34
  8
図枠
 62
     5
 10
49.725977247700001
 20
110.02254054709999
 30
0.0
 11
47.2512247477
 21
105.7361434809
 31
0.0
  0
LINE
  5
35
  8
図枠
 62
     5
 10
49.725977247700001
 20
110.02254054709999
 30
0.0
 11
52.200729747700002
 21
105.7361434809
 31
0.0
  0
LINE
  5
36
  8
図枠
 62
     5
 10
47.2512247477
 20
110.6856484809
 30
0.0
 11
52.200729747700002
 21
110.6856484809
 31
0.0
  0
LINE
  5
37
  8
図枠
 62
     5
 10
47.2512247477
 20
105.7361434809
 30
0.0
 11
52.200729747700002
 21
105.7361434809
 31
0.0
  0
LINE
  5
38
  8
図枠
 62
     5
 10
46.010634205199999
 20
110.2548998091
 30
0.0
 11
140.00123420520001
 21
110.2548998091
 31
0.0
  0
INSERT
  5
39
  8
0
  6
CONTINUOUS
  2
*U26
 10
0.0
 20
0.0
 30
0.0
  0
LINE
  5
3A
  8
図枠
 62
     5
 10
49.725977247700001
 20
114.9720455471
 30
0.0
 11
47.2512247477
 21
110.6856484809
 31
0.0
  0
LINE
  5
3B
  8
図枠
 62
     5
 10
46.010634205199999
 20
105.2553998091
 30
0.0
 11
46.010634205199999
 21
120.25389980910001
 31
0.0
  0
LINE
  5
3D
  8
ﾚｲﾔ_1
  6
STITCH
 10
96.829629629599992
 20
70.25
 30
0.0
 11
97.829629629599992
 21
70.25
 31
0.0
  0
LINE
  5
3E
  8
ﾚｲﾔ_1
  6
BORDER
 62
     3
 10
68.829629629600007
 20
72.5
 30
0.0
 11
80.829629629600007
 21
72.5
 31
0.0
  0
LINE
  5
3F
  8
ﾚｲﾔ_1
  6
BORDER
 62
     3
 10
74.829629629600007
 20
78.5
 30
0.0
 11
74.829629629600007
 21
66.5
 31
0.0
  0
CIRCLE
  5
40
  8
ﾚｲﾔ_1
 62
     5
 10
74.829629629600007
 20
72.5
 30
0.0
 40
4.25
  0
CIRCLE
  5
41
  8
ﾚｲﾔ_1
 62
     5
 10
74.829629629600007
 20
72.5
 30
0.0
 40
2.25
  0
CIRCLE
  5
42
  8
ﾚｲﾔ_1
 62
     5
 10
59.829629629599999
 20
72.5
 30
0.0
 40
2.25
  0
CIRCLE
  5
43
  8
ﾚｲﾔ_1
 62
     5
 10
59.829629629599999
 20
72.5
 30
0.0
 40
4.25
  0
LINE
  5
44
  8
ﾚｲﾔ_1
  6
BORDER
 62
     3
 10
59.829629629599999
 20
78.5
 30
0.0
 11
59.829629629599999
 21
66.5
 31
0.0
  0
LINE
  5
45
  8
ﾚｲﾔ_1
  6
BORDER
 62
     3
 10
53.829629629599999
 20
72.5
 30
0.0
 11
65.829629629600007
 21
72.5
 31
0.0
  0
LINE
  5
46
  8
ﾚｲﾔ_1
 62
     5
 10
94.829629629600007
 20
57.5
 30
0.0
 11
94.829629629600007
 21
87.5
 31
0.0
  0
LINE
  5
47
  8
ﾚｲﾔ_1
 62
     5
 10
52.829629629599999
 20
87.5
 30
0.0
 11
52.829629629599999
 21
57.5
 31
0.0
  0
LINE
  5
48
  8
ﾚｲﾔ_1
 62
     5
 10
97.829629629599992
 20
87.5
 30
0.0
 11
52.829629629599999
 21
87.5
 31
0.0
  0
LINE
  5
49
  8
ﾚｲﾔ_1
 62
     5
 10
97.829629629599992
 20
57.5
 30
0.0
 11
97.829629629599992
 21
87.5
 31
0.0
  0
LINE
  5
4A
  8
ﾚｲﾔ_1
 62
     5
 10
52.829629629599999
 20
57.5
 30
0.0
 11
97.829629629599992
 21
57.5
 31
0.0
  0
DIMENSION
  5
5B
  8
寸法線
  2
*D0
 10
52.829629629599999
 20
47.5
 30
0.0
 11
56.329629629599999
 21
47.5
 31
0.0
 70
   128
  1
<>
 13
52.829629629599999
 23
57.5
 33
0.0
 14
59.829629629599999
 24
66.5
 34
0.0
 50
180.0
  0
DIMENSION
  5
6A
  8
寸法線
  2
*D1
 10
42.829629629599999
 20
72.5
 30
0.0
 11
42.829629629599999
 21
65.0
 31
0.0
 70
   128
  1
<>
 13
53.829629629599999
 23
72.5
 33
0.0
 14
52.829629629599999
 24
57.5
 34
0.0
 50
90.0
  0
DIMENSION
  5
79
  8
寸法線
  2
*D2
 10
42.829629629599999
 20
87.5
 30
0.0
 11
42.829629629599999
 21
80.0
 31
0.0
 70
   128
  1
<>
 13
52.829629629599999
 23
87.5
 33
0.0
 14
53.829629629599999
 24
72.5
 34
0.0
 50
90.0
  0
DIMENSION
  5
88
  8
寸法線
  2
*D3
 10
74.829629629600007
 20
47.5
 30
0.0
 11
86.329629629599978
 21
47.5
 31
0.0
 70
   128
  1
<>
 13
74.829629629600007
 23
66.5
 33
0.0
 14
97.829629629599992
 24
57.5
 34
0.0
 50
180.0
  0
DIMENSION
  5
97
  8
寸法線
  2
*D4
 10
59.829629629599999
 20
47.5
 30
0.0
 11
67.329629629600007
 21
47.5
 31
0.0
 70
   128
  1
<>
 13
59.829629629599999
 23
66.5
 33
0.0
 14
74.829629629600007
 24
66.5
 34
0.0
 50
180.0
  0
LINE
  5
98
  8
図枠
 62
     5
 10
46.010634205199999
 20
115.25439980909999
 30
0.0
 11
140.00123420520001
 21
115.25439980909999
 31
0.0
  0
LINE
  5
99
  8
図枠
 62
     5
 10
120.0032342052
 20
105.2553998091
 30
0.0
 11
120.0032342052
 21
120.25389980910001
 31
0.0
  0
INSERT
  5
9A
  8
0
  6
CONTINUOUS
  2
*U27
 10
0.0
 20
0.0
 30
0.0
  0
INSERT
  5
9B
  8
0
  6
CONTINUOUS
  2
*U28
 10
0.0
 20
0.0
 30
0.0
  0
LINE
  5
9C
  8
図枠
 62
     5
 10
130.00223420520001
 20
105.2553998091
 30
0.0
 11
130.00223420520001
 21
120.25389980910001
 31
0.0
  0
INSERT
  5
9D
  8
0
  6
CONTINUOUS
  2
*U29
 10
0.0
 20
0.0
 30
0.0
  0
INSERT
  5
9E
  8
0
  6
CONTINUOUS
  2
*U30
 10
0.0
 20
0.0
 30
0.0
  0
LINE
  5
9F
  8
図枠
 10
81.007134205199989
 20
-33.230750190899997
 30
0.0
 11
81.007134205199989
 21
-27.731300190900001
 31
0.0
  0
LINE
  5
A0
  8
図枠
 10
75.338181968300006
 20
-47.327340390899998
 30
0.0
 11
79.945721168299997
 21
-46.175455590899993
 31
0.0
  0
LINE
  5
A1
  8
図枠
 10
75.338181968300006
 20
-47.327340390899998
 30
0.0
 11
75.338181968300006
 21
-49.631109990900001
 31
0.0
  0
CIRCLE
  5
A2
  8
図枠
 10
70.072227805200001
 20
-48.479225190900003
 30
0.0
 40
2.303769599999999
  0
CIRCLE
  5
A3
  8
図枠
 10
70.072227805200001
 20
-48.479225190900003
 30
0.0
 40
1.151884799999999
  0
INSERT
  5
A4
  8
0
  6
CONTINUOUS
  2
*U31
 10
0.0
 20
0.0
 30
0.0
  0
INSERT
  5
A5
  8
0
  6
CONTINUOUS
  2
*U32
 10
0.0
 20
0.0
 30
0.0
  0
LINE
  5
A6
  8
図枠
 10
54.286124890099998
 20
-64.199514631200003
 30
0.0
 11
54.286124890099998
 21
-65.399394631199996
 31
0.0
  0
INSERT
  5
A7
  8
0
  6
CONTINUOUS
  2
*U33
 10
0.0
 20
0.0
 30
0.0
  0
LINE
  5
A8
  8
図枠
 10
64.134507851000009
 20
-64.039530631199995
 30
0.0
 11
68.13410785100001
 21
-64.039530631199995
 31
0.0
  0
LINE
  5
A9
  8
図枠
 10
76.467260570999997
 20
-68.599074631199997
 30
0.0
 11
76.138760091000009
 21
-67.479186631199994
 31
0.0
  0
LINE
  5
AA
  8
図枠
 10
75.338181968300006
 20
-49.631109990900001
 30
0.0
 11
79.945721168299997
 21
-50.782994790899998
 31
0.0
  0
LINE
  5
AB
  8
図枠
 10
78.384772262499993
 20
-67.479186631199994
 30
0.0
 11
80.306876571000004
 21
-67.479186631199994
 31
0.0
  0
LINE
  5
AC
  8
図枠
 10
58.406595850999999
 20
-62.599674631199989
 30
0.0
 11
55.206915850999998
 21
-62.599674631199989
 31
0.0
  0
LINE
  5
AD
  8
図枠
 10
77.254837890100006
 20
-63.552596217200012
 30
0.0
 11
77.907116571000003
 21
-62.599674631199989
 31
0.0
  0
LINE
  5
AE
  8
図枠
 10
71.333787850999997
 20
-62.599674631199989
 30
0.0
 11
64.134507851000009
 21
-62.599674631199989
 31
0.0
  0
LINE
  5
AF
  8
図枠
 10
24.012834205200001
 20
-52.728800190900003
 30
0.0
 11
140.00123420520001
 21
-52.728800190900003
 31
0.0
  0
LINE
  5
B0
  8
図枠
 10
24.012834205200001
 20
-61.227950190900003
 30
0.0
 11
140.00123420520001
 21
-61.227950190900003
 31
0.0
  0
CIRCLE
  5
B1
  8
図枠
 10
70.072227805200001
 20
-48.479225190900003
 30
0.0
 40
2.303769599999999
  0
LINE
  5
B2
  8
ﾚｲﾔ_1
  6
STITCH
 10
94.829629629600007
 20
76.75
 30
0.0
 11
96.829629629599992
 21
74.75
 31
0.0
  0
LINE
  5
B3
  8
ﾚｲﾔ_1
  6
STITCH
 10
96.829629629599992
 20
74.75
 30
0.0
 11
97.829629629599992
 21
74.75
 31
0.0
  0
LINE
  5
B4
  8
ﾚｲﾔ_1
  6
BORDER
 62
     3
 10
89.598148148099995
 20
72.5
 30
0.0
 11
103.94444444440001
 21
72.5
 31
0.0
  0
LINE
  5
B5
  8
ﾚｲﾔ_1
  6
STITCH
 10
96.829629629599992
 20
74.75
 30
0.0
 11
96.829629629599992
 21
70.25
 31
0.0
  0
LINE
  5
B6
  8
ﾚｲﾔ_1
  6
STITCH
 10
96.829629629599992
 20
70.25
 30
0.0
 11
94.829629629600007
 21
68.25
 31
0.0
  0
LINE
  5
B7
  8
図枠
 10
79.945721168299997
 20
-46.175455590899993
 30
0.0
 11
79.945721168299997
 21
-50.782994790899998
 31
0.0
  0
INSERT
  5
B8
  8
0
  6
CONTINUOUS
  2
*U34
 10
0.0
 20
0.0
 30
0.0
  0
INSERT
  5
B9
  8
0
  6
CONTINUOUS
  2
*U35
 10
0.0
 20
0.0
 30
0.0
  0
CIRCLE
  5
BA
  8
図枠
 10
70.072227805200001
 20
-48.479225190900003
 30
0.0
 40
1.151884799999999
  0
LINE
  5
BB
  8
図枠
 10
24.012834205200001
 20
-38.7302001909
 30
0.0
 11
140.00123420520001
 21
-38.7302001909
 31
0.0
  0
LINE
  5
BC
  8
図枠
 10
62.006235851
 20
-62.599674631199989
 30
0.0
 11
58.806555851000013
 21
-62.599674631199989
 31
0.0
  0
INSERT
  5
BD
  8
0
  6
CONTINUOUS
  2
*U36
 10
0.0
 20
0.0
 30
0.0
  0
LINE
  5
BE
  8
図枠
 10
58.806555851000013
 20
-64.199514631200003
 30
0.0
 11
57.206715850999998
 21
-64.199514631200003
 31
0.0
  0
LINE
  5
BF
  8
図枠
 10
24.012834205200001
 20
-44.229650190900003
 30
0.0
 11
140.00123420520001
 21
-44.229650190900003
 31
0.0
  0
LINE
  5
C0
  8
図枠
 10
75.338181968300006
 20
-47.327340390899998
 30
0.0
 11
75.338181968300006
 21
-49.631109990900001
 31
0.0
  0
INSERT
  5
C1
  8
0
  6
CONTINUOUS
  2
*U37
 10
0.0
 20
0.0
 30
0.0
  0
LINE
  5
C2
  8
図枠
 10
73.107596571000002
 20
-66.039330631200002
 30
0.0
 11
73.107596571000002
 21
-67.479186631199994
 31
0.0
  0
LINE
  5
C3
  8
図枠
 10
75.338181968300006
 20
-47.327340390899998
 30
0.0
 11
75.338181968300006
 21
-49.631109990900001
 31
0.0
  0
LINE
  5
C4
  8
図枠
 10
55.206915850999998
 20
-66.999234631199997
 30
0.0
 11
55.206915850999998
 21
-68.199114631200004
 31
0.0
  0
INSERT
  5
C5
  8
0
  6
CONTINUOUS
  2
*U38
 10
0.0
 20
0.0
 30
0.0
  0
LINE
  5
C6
  8
図枠
 10
69.624134315099994
 20
-66.478591667900005
 30
0.0
 11
69.481666915499986
 21
-66.618080233000001
 31
0.0
  0
INSERT
  5
C7
  8
0
  6
CONTINUOUS
  2
*U39
 10
0.0
 20
0.0
 30
0.0
  0
ARC
  5
C8
  8
図枠
 10
58.406595850999999
 20
-65.799354631200003
 30
0.0
 40
2.3997599999999988
 50
270.0
 51
0.0
  0
LINE
  5
C9
  8
図枠
 10
24.012834205200001
 20
-44.229650190900003
 30
0.0
 11
24.012834205200001
 21
-69.727100190900003
 31
0.0
  0
LINE
  5
CA
  8
図枠
 10
75.338181968300006
 20
-47.327340390899998
 30
0.0
 11
79.945721168299997
 21
-46.175455590899993
 31
0.0
  0
LINE
  5
CB
  8
図枠
 10
44.010834205199998
 20
-44.229650190900003
 30
0.0
 11
44.010834205199998
 21
-52.728800190900003
 31
0.0
  0
LINE
  5
CC
  8
図枠
 10
60.806355851000014
 20
-65.799354631200003
 30
0.0
 11
60.806355851000014
 21
-65.399394631199996
 31
0.0
  0
LINE
  5
CD
  8
図枠
 10
57.206715850999998
 20
-64.199514631200003
 30
0.0
 11
57.206715850999998
 21
-63.799554631199989
 31
0.0
  0
ARC
  5
CE
  8
図枠
 10
65.094411851000004
 20
-63.95953863119999
 30
0.0
 40
3.0396959999999988
 50
331.39928138329998
 51
358.49204224580001
  0
INSERT
  5
CF
  8
0
  6
CONTINUOUS
  2
*U40
 10
0.0
 20
0.0
 30
0.0
  0
LINE
  5
D0
  8
図枠
 10
55.206915850999998
 20
-66.599274631200004
 30
0.0
 11
57.206715850999998
 21
-66.599274631200004
 31
0.0
  0
LINE
  5
D1
  8
図枠
 10
24.012834205200001
 20
-27.731300190900001
 30
0.0
 11
24.012834205200001
 21
-44.229650190900003
 31
0.0
  0
INSERT
  5
D2
  8
0
  6
CONTINUOUS
  2
*U41
 10
0.0
 20
0.0
 30
0.0
  0
INSERT
  5
D3
  8
0
  6
CONTINUOUS
  2
*U42
 10
0.0
 20
0.0
 30
0.0
  0
LINE
  5
D4
  8
図枠
 10
62.006235851
 20
-64.199514631200003
 30
0.0
 11
60.806355851000014
 21
-64.199514631200003
 31
0.0
  0
LINE
  5
D5
  8
図枠
 10
62.006235851
 20
-64.199514631200003
 30
0.0
 11
62.006235851
 21
-65.399394631199996
 31
0.0
  0
INSERT
  5
D6
  8
0
  6
CONTINUOUS
  2
*U43
 10
0.0
 20
0.0
 30
0.0
  0
LINE
  5
D7
  8
図枠
 10
80.306876571000004
 20
-66.039330631200002
 30
0.0
 11
80.306876571000004
 21
-67.479186631199994
 31
0.0
  0
LINE
  5
D8
  8
図枠
 10
78.707036571000003
 20
-68.599074631199997
 30
0.0
 11
78.384772262499993
 21
-67.479186631199994
 31
0.0
  0
LINE
  5
D9
  8
図枠
 10
77.786281403900006
 20
-65.399394631199996
 30
0.0
 11
80.306876571000004
 21
-65.399394631199996
 31
0.0
  0
LINE
  5
DA
  8
図枠
 10
64.134507851000009
 20
-64.457177076400001
 30
0.0
 11
67.33418785100001
 21
-64.457177076400001
 31
0.0
  0
INSERT
  5
DB
  8
0
  6
CONTINUOUS
  2
*U44
 10
0.0
 20
0.0
 30
0.0
  0
LINE
  5
DC
  8
図枠
 10
26.012634205200001
 20
-56.97837519090001
 30
0.0
 11
52.010034205200007
 21
-56.97837519090001
 31
0.0
  0
LINE
  5
DD
  8
図枠
  6
BORDER
 10
70.072227805200001
 20
-45.023570790900003
 30
0.0
 11
70.072227805200001
 21
-51.934879590900003
 31
0.0
  0
CIRCLE
  5
DE
  8
図枠
 10
70.072227805200001
 20
-48.479225190900003
 30
0.0
 40
2.303769599999999
  0
LINE
  5
DF
  8
図枠
 10
71.333787850999997
 20
-66.999234631199997
 30
0.0
 11
71.333787850999997
 21
-68.199114631200004
 31
0.0
  0
LINE
  5
E0
  8
図枠
 10
64.134507851000009
 20
-64.714839521599984
 30
0.0
 11
64.134507851000009
 21
-64.457177076400001
 31
0.0
  0
LINE
  5
E1
  8
図枠
  6
BORDER
 10
70.072227805200001
 20
-45.023570790900003
 30
0.0
 11
70.072227805200001
 21
-51.934879590900003
 31
0.0
  0
LINE
  5
E2
  8
図枠
 10
75.338181968300006
 20
-49.631109990900001
 30
0.0
 11
79.945721168299997
 21
-50.782994790899998
 31
0.0
  0
LINE
  5
E3
  8
図枠
 10
77.970432437299991
 20
-66.039330631200002
 30
0.0
 11
77.786281403900006
 21
-65.399394631199996
 31
0.0
  0
INSERT
  5
E4
  8
0
  6
CONTINUOUS
  2
*U45
 10
0.0
 20
0.0
 30
0.0
  0
LINE
  5
E5
  8
図枠
 10
55.206915850999998
 20
-64.199514631200003
 30
0.0
 11
54.286124890099998
 21
-64.199514631200003
 31
0.0
  0
LINE
  5
E6
  8
図枠
 10
56.009634205200001
 20
-56.97837519090001
 30
0.0
 11
82.0070342052
 21
-56.97837519090001
 31
0.0
  0
LINE
  5
E7
  8
図枠
 10
57.206715850999998
 20
-66.599274631200004
 30
0.0
 11
57.206715850999998
 21
-65.399394631199996
 31
0.0
  0
LINE
  5
E8
  8
図枠
 10
73.107596571000002
 20
-66.039330631200002
 30
0.0
 11
75.716402330999998
 21
-66.039330631200002
 31
0.0
  0
LINE
  5
E9
  8
図枠
 10
79.945721168299997
 20
-46.175455590899993
 30
0.0
 11
79.945721168299997
 21
-50.782994790899998
 31
0.0
  0
LINE
  5
EA
  8
図枠
 10
64.134507851000009
 20
-62.599674631199989
 30
0.0
 11
64.134507851000009
 21
-64.039530631199995
 31
0.0
  0
INSERT
  5
EB
  8
0
  6
CONTINUOUS
  2
*U46
 10
0.0
 20
0.0
 30
0.0
  0
LINE
  5
EC
  8
図枠
 10
64.008834205200003
 20
-44.229650190900003
 30
0.0
 11
64.008834205200003
 21
-52.728800190900003
 31
0.0
  0
LINE
  5
ED
  8
図枠
 10
75.716402330999998
 20
-66.039330631200002
 30
0.0
 11
75.528687771000008
 21
-65.399394631199996
 31
0.0
  0
LINE
  5
EE
  8
図枠
 10
75.338181968300006
 20
-47.327340390899998
 30
0.0
 11
75.338181968300006
 21
-49.631109990900001
 31
0.0
  0
LINE
  5
EF
  8
図枠
 10
60.806355851000014
 20
-64.199514631200003
 30
0.0
 11
60.806355851000014
 21
-63.799554631199989
 31
0.0
  0
LINE
  5
F0
  8
図枠
 10
55.206915850999998
 20
-65.399394631199996
 30
0.0
 11
55.086044890099998
 21
-65.399394631199996
 31
0.0
  0
LINE
  5
F1
  8
図枠
 10
67.33418785100001
 20
-64.457177076400001
 30
0.0
 11
66.881684765900005
 21
-64.909680161499992
 31
0.0
  0
LINE
  5
F2
  8
図枠
 10
57.206715850999998
 20
-65.399394631199996
 30
0.0
 11
58.806555851000013
 21
-65.399394631199996
 31
0.0
  0
LINE
  5
F3
  8
図枠
 10
64.134507851000009
 20
-68.199114631200004
 30
0.0
 11
66.134307851000003
 21
-68.199114631200004
 31
0.0
  0
CIRCLE
  5
F4
  8
図枠
 10
70.072227805200001
 20
-48.479225190900003
 30
0.0
 40
1.151884799999999
  0
INSERT
  5
F5
  8
0
  6
CONTINUOUS
  2
*U47
 10
0.0
 20
0.0
 30
0.0
  0
INSERT
  5
F6
  8
0
  6
CONTINUOUS
  2
*U48
 10
0.0
 20
0.0
 30
0.0
  0
LINE
  5
F7
  8
図枠
  6
BORDER
 10
66.6165734052
 20
-48.479225190900003
 30
0.0
 11
81.39909500520001
 21
-48.479225190900003
 31
0.0
  0
LINE
  5
F8
  8
図枠
 10
75.338181968300006
 20
-49.631109990900001
 30
0.0
 11
79.945721168299997
 21
-50.782994790899998
 31
0.0
  0
LINE
  5
F9
  8
図枠
 10
67.763194939399995
 20
-65.414649829699997
 30
0.0
 11
67.570737542000003
 21
-65.627219259
 31
0.0
  0
INSERT
  5
FA
  8
0
  6
CONTINUOUS
  2
*U49
 10
0.0
 20
0.0
 30
0.0
  0
LINE
  5
FB
  8
図枠
 10
79.945721168299997
 20
-46.175455590899993
 30
0.0
 11
79.945721168299997
 21
-50.782994790899998
 31
0.0
  0
LINE
  5
FC
  8
図枠
 10
77.371941578700003
 20
-63.95953863119999
 30
0.0
 11
77.254837890100006
 21
-63.552596217200012
 31
0.0
  0
LINE
  5
FD
  8
図枠
 10
74.707436571000002
 20
-62.599674631199989
 30
0.0
 11
77.907116571000003
 21
-62.599674631199989
 31
0.0
  0
LINE
  5
FE
  8
図枠
 10
76.467260570999997
 20
-68.599074631199997
 30
0.0
 11
78.707036571000003
 21
-68.599074631199997
 31
0.0
  0
LINE
  5
FF
  8
図枠
 10
55.206915850999998
 20
-68.199114631200004
 30
0.0
 11
58.406595850999999
 21
-68.199114631200004
 31
0.0
  0
LINE
  5
100
  8
図枠
 10
64.134507851000009
 20
-66.999234631199997
 30
0.0
 11
65.094411851000004
 21
-66.999234631199997
 31
0.0
  0
LINE
  5
101
  8
図枠
 10
44.010834205199998
 20
-44.229650190900003
 30
0.0
 11
44.010834205199998
 21
-27.731300190900001
 31
0.0
  0
LINE
  5
102
  8
図枠
 10
55.206915850999998
 20
-65.399394631199996
 30
0.0
 11
55.206915850999998
 21
-66.599274631200004
 31
0.0
  0
LINE
  5
103
  8
図枠
 10
55.206915850999998
 20
-62.599674631199989
 30
0.0
 11
55.206915850999998
 21
-64.199514631200003
 31
0.0
  0
LINE
  5
104
  8
図枠
 10
58.806555851000013
 20
-65.399394631199996
 30
0.0
 11
58.806555851000013
 21
-65.799354631200003
 31
0.0
  0
CIRCLE
  5
105
  8
図枠
 10
70.072227805200001
 20
-48.479225190900003
 30
0.0
 40
1.151884799999999
  0
CIRCLE
  5
106
  8
図枠
 10
70.072227805200001
 20
-48.479225190900003
 30
0.0
 40
2.303769599999999
  0
LINE
  5
107
  8
図枠
 10
60.806355851000014
 20
-63.799554631199989
 30
0.0
 11
62.006235851
 21
-62.599674631199989
 31
0.0
  0
LINE
  5
108
  8
図枠
 10
58.806555851000013
 20
-62.599674631199989
 30
0.0
 11
58.806555851000013
 21
-64.199514631200003
 31
0.0
  0
LINE
  5
109
  8
図枠
 10
64.134507851000009
 20
-68.199114631200004
 30
0.0
 11
64.134507851000009
 21
-66.999234631199997
 31
0.0
  0
INSERT
  5
10A
  8
0
  6
CONTINUOUS
  2
*U50
 10
0.0
 20
0.0
 30
0.0
  0
LINE
  5
10B
  8
図枠
 10
73.107596571000002
 20
-67.479186631199994
 30
0.0
 11
76.138760091000009
 21
-67.479186631199994
 31
0.0
  0
INSERT
  5
10C
  8
0
  6
CONTINUOUS
  2
*U51
 10
0.0
 20
0.0
 30
0.0
  0
LINE
  5
10D
  8
図枠
 10
24.012834205200001
 20
-27.731300190900001
 30
0.0
 11
24.012834205200001
 21
-44.229650190900003
 31
0.0
  0
LINE
  5
10E
  8
図枠
 10
64.134507851000009
 20
-66.999234631199997
 30
0.0
 11
64.134507851000009
 21
-68.199114631200004
 31
0.0
  0
INSERT
  5
10F
  8
0
  6
CONTINUOUS
  2
*U52
 10
0.0
 20
0.0
 30
0.0
  0
LINE
  5
110
  8
図枠
 10
54.286124890099998
 20
-65.399394631199996
 30
0.0
 11
55.086044890099998
 21
-65.399394631199996
 31
0.0
  0
LINE
  5
111
  8
図枠
 10
70.533867851000011
 20
-63.799554631199989
 30
0.0
 11
71.333787850999997
 21
-62.599674631199989
 31
0.0
  0
POLYLINE
  8
図枠
  5
39C
  66
     1
 10
0.000000
 20
0.000000
 30
0.000000
  70
     8
  0
VERTEX
  8
図枠
  5
39D
 10
66.8817
 20
-64.9097
 30
0.000000
  70
    32
  0
VERTEX
  8
図枠
  5
39E
 10
66.8870
 20
-64.9156
 30
0.000000
  70
    32
  0
VERTEX
  8
図枠
  5
39F
 10
66.8922
 20
-64.9215
 30
0.000000
  70
    32
  0
VERTEX
  8
図枠
  5
3A0
 10
66.8975
 20
-64.9273
 30
0.000000
  70
    32
  0
VERTEX
  8
図枠
  5
3A1
 10
66.9028
 20
-64.9332
 30
0.000000
  70
    32
  0
VERTEX
  8
図枠
  5
3A2
 10
66.9081
 20
-64.9391
 30
0.000000
  70
    32
  0
VERTEX
  8
図枠
  5
3A3
 10
66.9134
 20
-64.9450
 30
0.000000
  70
    32
  0
VERTEX
  8
図枠
  5
3A4
 10
66.9186
 20
-64.9509
 30
0.000000
  70
    32
  0
VERTEX
  8
図枠
  5
3A5
 10
66.9239
 20
-64.9568
 30
0.000000
  70
    32
  0
VERTEX
  8
図枠
  5
3A6
 10
66.9292
 20
-64.9626
 30
0.000000
  70
    32
  0
VERTEX
  8
図枠
  5
3A7
 10
66.9345
 20
-64.9685
 30
0.000000
  70
    32
  0
VERTEX
  8
図枠
  5
3A8
 10
66.9398
 20
-64.9744
 30
0.000000
  70
    32
  0
VERTEX
  8
図枠
  5
3A9
 10
66.9450
 20
-64.9803
 30
0.000000
  70
    32
  0
VERTEX
  8
図枠
  5
3AA
 10
66.9503
 20
-64.9862
 30
0.000000
  70
    32
  0
VERTEX
  8
図枠
  5
3AB
 10
66.9556
 20
-64.9920
 30
0.000000
  70
    32
  0
VERTEX
  8
図枠
  5
3AC
 10
66.9609
 20
-64.9979
 30
0.000000
  70
    32
  0
VERTEX
  8
図枠
  5
3AD
 10
66.9662
 20
-65.0038
 30
0.000000
  70
    32
  0
VERTEX
  8
図枠
  5
3AE
 10
66.9715
 20
-65.0097
 30
0.000000
  70
    32
  0
VERTEX
  8
図枠
  5
3AF
 10
66.9768
 20
-65.0155
 30
0.000000
  70
    32
  0
VERTEX
  8
図枠
  5
3B0
 10
66.9820
 20
-65.0214
 30
0.000000
  70
    32
  0
VERTEX
  8
図枠
  5
3B1
 10
66.9873
 20
-65.0273
 30
0.000000
  70
    32
  0
VERTEX
  8
図枠
  5
3B2
 10
66.9926
 20
-65.0332
 30
0.000000
  70
    32
  0
VERTEX
  8
図枠
  5
3B3
 10
66.9979
 20
-65.0390
 30
0.000000
  70
    32
  0
VERTEX
  8
図枠
  5
3B4
 10
67.0032
 20
-65.0449
 30
0.000000
  70
    32
  0
VERTEX
  8
図枠
  5
3B5
 10
67.0085
 20
-65.0507
 30
0.000000
  70
    32
  0
VERTEX
  8
図枠
  5
3B6
 10
67.0138
 20
-65.0566
 30
0.000000
  70
    32
  0
VERTEX
  8
図枠
  5
3B7
 10
67.0191
 20
-65.0625
 30
0.000000
  70
    32
  0
VERTEX
  8
図枠
  5
3B8
 10
67.0244
 20
-65.0683
 30
0.000000
  70
    32
  0
VERTEX
  8
図枠
  5
3B9
 10
67.0297
 20
-65.0742
 30
0.000000
  70
    32
  0
VERTEX
  8
図枠
  5
3BA
 10
67.0350
 20
-65.0800
 30
0.000000
  70
    32
  0
VERTEX
  8
図枠
  5
3BB
 10
67.0403
 20
-65.0859
 30
0.000000
  70
    32
  0
VERTEX
  8
図枠
  5
3BC
 10
67.0456
 20
-65.0917
 30
0.000000
  70
    32
  0
VERTEX
  8
図枠
  5
3BD
 10
67.0509
 20
-65.0976
 30
0.000000
  70
    32
  0
VERTEX
  8
図枠
  5
3BE
 10
67.0562
 20
-65.1034
 30
0.000000
  70
    32
  0
VERTEX
  8
図枠
  5
3BF
 10
67.0615
 20
-65.1092
 30
0.000000
  70
    32
  0
VERTEX
  8
図枠
  5
3C0
 10
67.0668
 20
-65.1151
 30
0.000000
  70
    32
  0
VERTEX
  8
図枠
  5
3C1
 10
67.0722
 20
-65.1209
 30
0.000000
  70
    32
  0
VERTEX
  8
図枠
  5
3C2
 10
67.0775
 20
-65.1267
 30
0.000000
  70
    32
  0
VERTEX
  8
図枠
  5
3C3
 10
67.0828
 20
-65.1325
 30
0.000000
  70
    32
  0
VERTEX
  8
図枠
  5
3C4
 10
67.0881
 20
-65.1384
 30
0.000000
  70
    32
  0
VERTEX
  8
図枠
  5
3C5
 10
67.0934
 20
-65.1442
 30
0.000000
  70
    32
  0
VERTEX
  8
図枠
  5
3C6
 10
67.0987
 20
-65.1500
 30
0.000000
  70
    32
  0
VERTEX
  8
図枠
  5
3C7
 10
67.1041
 20
-65.1558
 30
0.000000
  70
    32
  0
VERTEX
  8
図枠
  5
3C8
 10
67.1094
 20
-65.1616
 30
0.000000
  70
    32
  0
VERTEX
  8
図枠
  5
3C9
 10
67.1147
 20
-65.1674
 30
0.000000
  70
    32
  0
VERTEX
  8
図枠
  5
3CA
 10
67.1201
 20
-65.1732
 30
0.000000
  70
    32
  0
VERTEX
  8
図枠
  5
3CB
 10
67.1254
 20
-65.1790
 30
0.000000
  70
    32
  0
VERTEX
  8
図枠
  5
3CC
 10
67.1307
 20
-65.1848
 30
0.000000
  70
    32
  0
VERTEX
  8
図枠
  5
3CD
 10
67.1361
 20
-65.1906
 30
0.000000
  70
    32
  0
VERTEX
  8
図枠
  5
3CE
 10
67.1414
 20
-65.1964
 30
0.000000
  70
    32
  0
VERTEX
  8
図枠
  5
3CF
 10
67.1468
 20
-65.2022
 30
0.000000
  70
    32
  0
VERTEX
  8
図枠
  5
3D0
 10
67.1521
 20
-65.2079
 30
0.000000
  70
    32
  0
VERTEX
  8
図枠
  5
3D1
 10
67.1575
 20
-65.2137
 30
0.000000
  70
    32
  0
VERTEX
  8
図枠
  5
3D2
 10
67.1628
 20
-65.2195
 30
0.000000
  70
    32
  0
VERTEX
  8
図枠
  5
3D3
 10
67.1682
 20
-65.2252
 30
0.000000
  70
    32
  0
VERTEX
  8
図枠
  5
3D4
 10
67.1735
 20
-65.2310
 30
0.000000
  70
    32
  0
VERTEX
  8
図枠
  5
3D5
 10
67.1789
 20
-65.2367
 30
0.000000
  70
    32
  0
VERTEX
  8
図枠
  5
3D6
 10
67.1843
 20
-65.2425
 30
0.000000
  70
    32
  0
VERTEX
  8
図枠
  5
3D7
 10
67.1896
 20
-65.2482
 30
0.000000
  70
    32
  0
VERTEX
  8
図枠
  5
3D8
 10
67.1950
 20
-65.2539
 30
0.000000
  70
    32
  0
VERTEX
  8
図枠
  5
3D9
 10
67.2004
 20
-65.2597
 30
0.000000
  70
    32
  0
VERTEX
  8
図枠
  5
3DA
 10
67.2058
 20
-65.2654
 30
0.000000
  70
    32
  0
VERTEX
  8
図枠
  5
3DB
 10
67.2111
 20
-65.2711
 30
0.000000
  70
    32
  0
VERTEX
  8
図枠
  5
3DC
 10
67.2165
 20
-65.2768
 30
0.000000
  70
    32
  0
VERTEX
  8
図枠
  5
3DD
 10
67.2219
 20
-65.2825
 30
0.000000
  70
    32
  0
VERTEX
  8
図枠
  5
3DE
 10
67.2273
 20
-65.2883
 30
0.000000
  70
    32
  0
VERTEX
  8
図枠
  5
3DF
 10
67.2327
 20
-65.2939
 30
0.000000
  70
    32
  0
VERTEX
  8
図枠
  5
3E0
 10
67.2381
 20
-65.2996
 30
0.000000
  70
    32
  0
VERTEX
  8
図枠
  5
3E1
 10
67.2435
 20
-65.3053
 30
0.000000
  70
    32
  0
VERTEX
  8
図枠
  5
3E2
 10
67.2489
 20
-65.3110
 30
0.000000
  70
    32
  0
VERTEX
  8
図枠
  5
3E3
 10
67.2543
 20
-65.3167
 30
0.000000
  70
    32
  0
VERTEX
  8
図枠
  5
3E4
 10
67.2597
 20
-65.3223
 30
0.000000
  70
    32
  0
VERTEX
  8
図枠
  5
3E5
 10
67.2652
 20
-65.3280
 30
0.000000
  70
    32
  0
VERTEX
  8
図枠
  5
3E6
 10
67.2706
 20
-65.3337
 30
0.000000
  70
    32
  0
VERTEX
  8
図枠
  5
3E7
 10
67.2760
 20
-65.3393
 30
0.000000
  70
    32
  0
VERTEX
  8
図枠
  5
3E8
 10
67.2814
 20
-65.3450
 30
0.000000
  70
    32
  0
VERTEX
  8
図枠
  5
3E9
 10
67.2869
 20
-65.3506
 30
0.000000
  70
    32
  0
VERTEX
  8
図枠
  5
3EA
 10
67.2923
 20
-65.3562
 30
0.000000
  70
    32
  0
VERTEX
  8
図枠
  5
3EB
 10
67.2978
 20
-65.3618
 30
0.000000
  70
    32
  0
VERTEX
  8
図枠
  5
3EC
 10
67.3032
 20
-65.3675
 30
0.000000
  70
    32
  0
VERTEX
  8
図枠
  5
3ED
 10
67.3087
 20
-65.3731
 30
0.000000
  70
    32
  0
VERTEX
  8
図枠
  5
3EE
 10
67.3141
 20
-65.3787
 30
0.000000
  70
    32
  0
VERTEX
  8
図枠
  5
3EF
 10
67.3196
 20
-65.3843
 30
0.000000
  70
    32
  0
VERTEX
  8
図枠
  5
3F0
 10
67.3250
 20
-65.3899
 30
0.000000
  70
    32
  0
VERTEX
  8
図枠
  5
3F1
 10
67.3305
 20
-65.3954
 30
0.000000
  70
    32
  0
VERTEX
  8
図枠
  5
3F2
 10
67.3360
 20
-65.4010
 30
0.000000
  70
    32
  0
VERTEX
  8
図枠
  5
3F3
 10
67.3415
 20
-65.4066
 30
0.000000
  70
    32
  0
VERTEX
  8
図枠
  5
3F4
 10
67.3469
 20
-65.4121
 30
0.000000
  70
    32
  0
VERTEX
  8
図枠
  5
3F5
 10
67.3524
 20
-65.4177
 30
0.000000
  70
    32
  0
VERTEX
  8
図枠
  5
3F6
 10
67.3579
 20
-65.4232
 30
0.000000
  70
    32
  0
VERTEX
  8
図枠
  5
3F7
 10
67.3634
 20
-65.4288
 30
0.000000
  70
    32
  0
VERTEX
  8
図枠
  5
3F8
 10
67.3689
 20
-65.4343
 30
0.000000
  70
    32
  0
VERTEX
  8
図枠
  5
3F9
 10
67.3744
 20
-65.4398
 30
0.000000
  70
    32
  0
VERTEX
  8
図枠
  5
3FA
 10
67.3799
 20
-65.4453
 30
0.000000
  70
    32
  0
VERTEX
  8
図枠
  5
3FB
 10
67.3855
 20
-65.4508
 30
0.000000
  70
    32
  0
VERTEX
  8
図枠
  5
3FC
 10
67.3910
 20
-65.4563
 30
0.000000
  70
    32
  0
VERTEX
  8
図枠
  5
3FD
 10
67.3965
 20
-65.4618
 30
0.000000
  70
    32
  0
VERTEX
  8
図枠
  5
3FE
 10
67.4020
 20
-65.4673
 30
0.000000
  70
    32
  0
VERTEX
  8
図枠
  5
3FF
 10
67.4076
 20
-65.4727
 30
0.000000
  70
    32
  0
VERTEX
  8
図枠
  5
400
 10
67.4131
 20
-65.4782
 30
0.000000
  70
    32
  0
VERTEX
  8
図枠
  5
401
 10
67.4187
 20
-65.4836
 30
0.000000
  70
    32
  0
VERTEX
  8
図枠
  5
402
 10
67.4242
 20
-65.4891
 30
0.000000
  70
    32
  0
VERTEX
  8
図枠
  5
403
 10
67.4298
 20
-65.4945
 30
0.000000
  70
    32
  0
VERTEX
  8
図枠
  5
404
 10
67.4354
 20
-65.4999
 30
0.000000
  70
    32
  0
VERTEX
  8
図枠
  5
405
 10
67.4409
 20
-65.5054
 30
0.000000
  70
    32
  0
VERTEX
  8
図枠
  5
406
 10
67.4465
 20
-65.5108
 30
0.000000
  70
    32
  0
VERTEX
  8
図枠
  5
407
 10
67.4521
 20
-65.5162
 30
0.000000
  70
    32
  0
VERTEX
  8
図枠
  5
408
 10
67.4577
 20
-65.5216
 30
0.000000
  70
    32
  0
VERTEX
  8
図枠
  5
409
 10
67.4633
 20
-65.5269
 30
0.000000
  70
    32
  0
VERTEX
  8
図枠
  5
40A
 10
67.4689
 20
-65.5323
 30
0.000000
  70
    32
  0
VERTEX
  8
図枠
  5
40B
 10
67.4745
 20
-65.5377
 30
0.000000
  70
    32
  0
VERTEX
  8
図枠
  5
40C
 10
67.4801
 20
-65.5430
 30
0.000000
  70
    32
  0
VERTEX
  8
図枠
  5
40D
 10
67.4857
 20
-65.5483
 30
0.000000
  70
    32
  0
VERTEX
  8
図枠
  5
40E
 10
67.4913
 20
-65.5537
 30
0.000000
  70
    32
  0
VERTEX
  8
図枠
  5
40F
 10
67.4970
 20
-65.5590
 30
0.000000
  70
    32
  0
VERTEX
  8
図枠
  5
410
 10
67.5026
 20
-65.5643
 30
0.000000
  70
    32
  0
VERTEX
  8
図枠
  5
411
 10
67.5082
 20
-65.5696
 30
0.000000
  70
    32
  0
VERTEX
  8
図枠
  5
412
 10
67.5139
 20
-65.5749
 30
0.000000
  70
    32
  0
VERTEX
  8
図枠
  5
413
 10
67.5195
 20
-65.5802
 30
0.000000
  70
    32
  0
VERTEX
  8
図枠
  5
414
 10
67.5252
 20
-65.5854
 30
0.000000
  70
    32
  0
VERTEX
  8
図枠
  5
415
 10
67.5309
 20
-65.5907
 30
0.000000
  70
    32
  0
VERTEX
  8
図枠
  5
416
 10
67.5365
 20
-65.5960
 30
0.000000
  70
    32
  0
VERTEX
  8
図枠
  5
417
 10
67.5422
 20
-65.6012
 30
0.000000
  70
    32
  0
VERTEX
  8
図枠
  5
418
 10
67.5479
 20
-65.6064
 30
0.000000
  70
    32
  0
VERTEX
  8
図枠
  5
419
 10
67.5536
 20
-65.6116
 30
0.000000
  70
    32
  0
VERTEX
  8
図枠
  5
41A
 10
67.5593
 20
-65.6168
 30
0.000000
  70
    32
  0
VERTEX
  8
図枠
  5
41B
 10
67.5650
 20
-65.6220
 30
0.000000
  70
    32
  0
VERTEX
  8
図枠
  5
41C
 10
67.5707
 20
-65.6272
 30
0.000000
  70
    32
  0
SEQEND
  8
図枠
  5
41D
  0
POLYLINE
  8
図枠
  5
41E
  66
     1
 10
0.000000
 20
0.000000
 30
0.000000
  70
     8
  0
VERTEX
  8
図枠
  5
41F
 10
69.4817
 20
-66.6181
 30
0.000000
  70
    32
  0
VERTEX
  8
図枠
  5
420
 10
69.4957
 20
-66.6220
 30
0.000000
  70
    32
  0
VERTEX
  8
図枠
  5
421
 10
69.5097
 20
-66.6260
 30
0.000000
  70
    32
  0
VERTEX
  8
図枠
  5
422
 10
69.5237
 20
-66.6299
 30
0.000000
  70
    32
  0
VERTEX
  8
図枠
  5
423
 10
69.5377
 20
-66.6338
 30
0.000000
  70
    32
  0
VERTEX
  8
図枠
  5
424
 10
69.5517
 20
-66.6377
 30
0.000000
  70
    32
  0
VERTEX
  8
図枠
  5
425
 10
69.5658
 20
-66.6415
 30
0.000000
  70
    32
  0
VERTEX
  8
図枠
  5
426
 10
69.5799
 20
-66.6454
 30
0.000000
  70
    32
  0
VERTEX
  8
図枠
  5
427
 10
69.5939
 20
-66.6492
 30
0.000000
  70
    32
  0
VERTEX
  8
図枠
  5
428
 10
69.6080
 20
-66.6529
 30
0.000000
  70
    32
  0
VERTEX
  8
図枠
  5
429
 10
69.6221
 20
-66.6567
 30
0.000000
  70
    32
  0
VERTEX
  8
図枠
  5
42A
 10
69.6363
 20
-66.6605
 30
0.000000
  70
    32
  0
VERTEX
  8
図枠
  5
42B
 10
69.6504
 20
-66.6642
 30
0.000000
  70
    32
  0
VERTEX
  8
図枠
  5
42C
 10
69.6646
 20
-66.6679
 30
0.000000
  70
    32
  0
VERTEX
  8
図枠
  5
42D
 10
69.6787
 20
-66.6716
 30
0.000000
  70
    32
  0
VERTEX
  8
図枠
  5
42E
 10
69.6929
 20
-66.6752
 30
0.000000
  70
    32
  0
VERTEX
  8
図枠
  5
42F
 10
69.7071
 20
-66.6789
 30
0.000000
  70
    32
  0
VERTEX
  8
図枠
  5
430
 10
69.7213
 20
-66.6825
 30
0.000000
  70
    32
  0
VERTEX
  8
図枠
  5
431
 10
69.7355
 20
-66.6861
 30
0.000000
  70
    32
  0
VERTEX
  8
図枠
  5
432
 10
69.7497
 20
-66.6897
 30
0.000000
  70
    32
  0
VERTEX
  8
図枠
  5
433
 10
69.7639
 20
-66.6932
 30
0.000000
  70
    32
  0
VERTEX
  8
図枠
  5
434
 10
69.7782
 20
-66.6968
 30
0.000000
  70
    32
  0
VERTEX
  8
図枠
  5
435
 10
69.7925
 20
-66.7003
 30
0.000000
  70
    32
  0
VERTEX
  8
図枠
  5
436
 10
69.8067
 20
-66.7038
 30
0.000000
  70
    32
  0
VERTEX
  8
図枠
  5
437
 10
69.8210
 20
-66.7073
 30
0.000000
  70
    32
  0
VERTEX
  8
図枠
  5
438
 10
69.8353
 20
-66.7107
 30
0.000000
  70
    32
  0
VERTEX
  8
図枠
  5
439
 10
69.8496
 20
-66.7142
 30
0.000000
  70
    32
  0
VERTEX
  8
図枠
  5
43A
 10
69.8639
 20
-66.7176
 30
0.000000
  70
    32
  0
VERTEX
  8
図枠
  5
43B
 10
69.8783
 20
-66.7210
 30
0.000000
  70
    32
  0
VERTEX
  8
図枠
  5
43C
 10
69.8926
 20
-66.7244
 30
0.000000
  70
    32
  0
VERTEX
  8
図枠
  5
43D
 10
69.9069
 20
-66.7278
 30
0.000000
  70
    32
  0
VERTEX
  8
図枠
  5
43E
 10
69.9213
 20
-66.7312
 30
0.000000
  70
    32
  0
VERTEX
  8
図枠
  5
43F
 10
69.9357
 20
-66.7345
 30
0.000000
  70
    32
  0
VERTEX
  8
図枠
  5
440
 10
69.9501
 20
-66.7378
 30
0.000000
  70
    32
  0
VERTEX
  8
図枠
  5
441
 10
69.9645
 20
-66.7411
 30
0.000000
  70
    32
  0
VERTEX
  8
図枠
  5
442
 10
69.9789
 20
-66.7444
 30
0.000000
  70
    32
  0
VERTEX
  8
図枠
  5
443
 10
69.9933
 20
-66.7477
 30
0.000000
  70
    32
  0
VERTEX
  8
図枠
  5
444
 10
70.0077
 20
-66.7509
 30
0.000000
  70
    32
  0
VERTEX
  8
図枠
  5
445
 10
70.0221
 20
-66.7542
 30
0.000000
  70
    32
  0
VERTEX
  8
図枠
  5
446
 10
70.0366
 20
-66.7574
 30
0.000000
  70
    32
  0
VERTEX
  8
図枠
  5
447
 10
70.0510
 20
-66.7606
 30
0.000000
  70
    32
  0
VERTEX
  8
図枠
  5
448
 10
70.0655
 20
-66.7638
 30
0.000000
  70
    32
  0
VERTEX
  8
図枠
  5
449
 10
70.0800
 20
-66.7670
 30
0.000000
  70
    32
  0
VERTEX
  8
図枠
  5
44A
 10
70.0945
 20
-66.7701
 30
0.000000
  70
    32
  0
VERTEX
  8
図枠
  5
44B
 10
70.1090
 20
-66.7733
 30
0.000000
  70
    32
  0
VERTEX
  8
図枠
  5
44C
 10
70.1235
 20
-66.7764
 30
0.000000
  70
    32
  0
VERTEX
  8
図枠
  5
44D
 10
70.1380
 20
-66.7795
 30
0.000000
  70
    32
  0
VERTEX
  8
図枠
  5
44E
 10
70.1525
 20
-66.7826
 30
0.000000
  70
    32
  0
VERTEX
  8
図枠
  5
44F
 10
70.1670
 20
-66.7857
 30
0.000000
  70
    32
  0
VERTEX
  8
図枠
  5
450
 10
70.1816
 20
-66.7888
 30
0.000000
  70
    32
  0
VERTEX
  8
図枠
  5
451
 10
70.1961
 20
-66.7919
 30
0.000000
  70
    32
  0
VERTEX
  8
図枠
  5
452
 10
70.2107
 20
-66.7949
 30
0.000000
  70
    32
  0
VERTEX
  8
図枠
  5
453
 10
70.2252
 20
-66.7979
 30
0.000000
  70
    32
  0
VERTEX
  8
図枠
  5
454
 10
70.2398
 20
-66.8010
 30
0.000000
  70
    32
  0
VERTEX
  8
図枠
  5
455
 10
70.2544
 20
-66.8040
 30
0.000000
  70
    32
  0
VERTEX
  8
図枠
  5
456
 10
70.2690
 20
-66.8069
 30
0.000000
  70
    32
  0
VERTEX
  8
図枠
  5
457
 10
70.2836
 20
-66.8099
 30
0.000000
  70
    32
  0
VERTEX
  8
図枠
  5
458
 10
70.2982
 20
-66.8129
 30
0.000000
  70
    32
  0
VERTEX
  8
図枠
  5
459
 10
70.3128
 20
-66.8158
 30
0.000000
  70
    32
  0
VERTEX
  8
図枠
  5
45A
 10
70.3274
 20
-66.8188
 30
0.000000
  70
    32
  0
VERTEX
  8
図枠
  5
45B
 10
70.3421
 20
-66.8217
 30
0.000000
  70
    32
  0
VERTEX
  8
図枠
  5
45C
 10
70.3567
 20
-66.8246
 30
0.000000
  70
    32
  0
VERTEX
  8
図枠
  5
45D
 10
70.3713
 20
-66.8275
 30
0.000000
  70
    32
  0
VERTEX
  8
図枠
  5
45E
 10
70.3860
 20
-66.8304
 30
0.000000
  70
    32
  0
VERTEX
  8
図枠
  5
45F
 10
70.4006
 20
-66.8333
 30
0.000000
  70
    32
  0
VERTEX
  8
図枠
  5
460
 10
70.4153
 20
-66.8362
 30
0.000000
  70
    32
  0
VERTEX
  8
図枠
  5
461
 10
70.4300
 20
-66.8390
 30
0.000000
  70
    32
  0
VERTEX
  8
図枠
  5
462
 10
70.4447
 20
-66.8419
 30
0.000000
  70
    32
  0
VERTEX
  8
図枠
  5
463
 10
70.4594
 20
-66.8447
 30
0.000000
  70
    32
  0
VERTEX
  8
図枠
  5
464
 10
70.4740
 20
-66.8475
 30
0.000000
  70
    32
  0
VERTEX
  8
図枠
  5
465
 10
70.4887
 20
-66.8503
 30
0.000000
  70
    32
  0
VERTEX
  8
図枠
  5
466
 10
70.5035
 20
-66.8531
 30
0.000000
  70
    32
  0
VERTEX
  8
図枠
  5
467
 10
70.5182
 20
-66.8559
 30
0.000000
  70
    32
  0
VERTEX
  8
図枠
  5
468
 10
70.5329
 20
-66.8587
 30
0.000000
  70
    32
  0
VERTEX
  8
図枠
  5
469
 10
70.5476
 20
-66.8615
 30
0.000000
  70
    32
  0
VERTEX
  8
図枠
  5
46A
 10
70.5623
 20
-66.8643
 30
0.000000
  70
    32
  0
VERTEX
  8
図枠
  5
46B
 10
70.5771
 20
-66.8670
 30
0.000000
  70
    32
  0
VERTEX
  8
図枠
  5
46C
 10
70.5918
 20
-66.8698
 30
0.000000
  70
    32
  0
VERTEX
  8
図枠
  5
46D
 10
70.6066
 20
-66.8725
 30
0.000000
  70
    32
  0
VERTEX
  8
図枠
  5
46E
 10
70.6213
 20
-66.8752
 30
0.000000
  70
    32
  0
VERTEX
  8
図枠
  5
46F
 10
70.6361
 20
-66.8779
 30
0.000000
  70
    32
  0
VERTEX
  8
図枠
  5
470
 10
70.6508
 20
-66.8806
 30
0.000000
  70
    32
  0
VERTEX
  8
図枠
  5
471
 10
70.6656
 20
-66.8833
 30
0.000000
  70
    32
  0
VERTEX
  8
図枠
  5
472
 10
70.6804
 20
-66.8860
 30
0.000000
  70
    32
  0
VERTEX
  8
図枠
  5
473
 10
70.6952
 20
-66.8887
 30
0.000000
  70
    32
  0
VERTEX
  8
図枠
  5
474
 10
70.7100
 20
-66.8914
 30
0.000000
  70
    32
  0
VERTEX
  8
図枠
  5
475
 10
70.7247
 20
-66.8941
 30
0.000000
  70
    32
  0
VERTEX
  8
図枠
  5
476
 10
70.7395
 20
-66.8967
 30
0.000000
  70
    32
  0
VERTEX
  8
図枠
  5
477
 10
70.7543
 20
-66.8994
 30
0.000000
  70
    32
  0
VERTEX
  8
図枠
  5
478
 10
70.7691
 20
-66.9020
 30
0.000000
  70
    32
  0
VERTEX
  8
図枠
  5
479
 10
70.7839
 20
-66.9047
 30
0.000000
  70
    32
  0
VERTEX
  8
図枠
  5
47A
 10
70.7988
 20
-66.9073
 30
0.000000
  70
    32
  0
VERTEX
  8
図枠
  5
47B
 10
70.8136
 20
-66.9099
 30
0.000000
  70
    32
  0
VERTEX
  8
図枠
  5
47C
 10
70.8284
 20
-66.9126
 30
0.000000
  70
    32
  0
VERTEX
  8
図枠
  5
47D
 10
70.8432
 20
-66.9152
 30
0.000000
  70
    32
  0
VERTEX
  8
図枠
  5
47E
 10
70.8580
 20
-66.9178
 30
0.000000
  70
    32
  0
VERTEX
  8
図枠
  5
47F
 10
70.8729
 20
-66.9204
 30
0.000000
  70
    32
  0
VERTEX
  8
図枠
  5
480
 10
70.8877
 20
-66.9230
 30
0.000000
  70
    32
  0
VERTEX
  8
図枠
  5
481
 10
70.9025
 20
-66.9256
 30
0.000000
  70
    32
  0
VERTEX
  8
図枠
  5
482
 10
70.9174
 20
-66.9282
 30
0.000000
  70
    32
  0
VERTEX
  8
図枠
  5
483
 10
70.9322
 20
-66.9308
 30
0.000000
  70
    32
  0
VERTEX
  8
図枠
  5
484
 10
70.9471
 20
-66.9333
 30
0.000000
  70
    32
  0
VERTEX
  8
図枠
  5
485
 10
70.9619
 20
-66.9359
 30
0.000000
  70
    32
  0
VERTEX
  8
図枠
  5
486
 10
70.9768
 20
-66.9385
 30
0.000000
  70
    32
  0
VERTEX
  8
図枠
  5
487
 10
70.9916
 20
-66.9410
 30
0.000000
  70
    32
  0
VERTEX
  8
図枠
  5
488
 10
71.0065
 20
-66.9436
 30
0.000000
  70
    32
  0
VERTEX
  8
図枠
  5
489
 10
71.0214
 20
-66.9462
 30
0.000000
  70
    32
  0
VERTEX
  8
図枠
  5
48A
 10
71.0362
 20
-66.9487
 30
0.000000
  70
    32
  0
VERTEX
  8
図枠
  5
48B
 10
71.0511
 20
-66.9513
 30
0.000000
  70
    32
  0
VERTEX
  8
図枠
  5
48C
 10
71.0659
 20
-66.9538
 30
0.000000
  70
    32
  0
VERTEX
  8
図枠
  5
48D
 10
71.0808
 20
-66.9563
 30
0.000000
  70
    32
  0
VERTEX
  8
図枠
  5
48E
 10
71.0957
 20
-66.9589
 30
0.000000
  70
    32
  0
VERTEX
  8
図枠
  5
48F
 10
71.1106
 20
-66.9614
 30
0.000000
  70
    32
  0
VERTEX
  8
図枠
  5
490
 10
71.1254
 20
-66.9640
 30
0.000000
  70
    32
  0
VERTEX
  8
図枠
  5
491
 10
71.1403
 20
-66.9665
 30
0.000000
  70
    32
  0
VERTEX
  8
図枠
  5
492
 10
71.1552
 20
-66.9690
 30
0.000000
  70
    32
  0
VERTEX
  8
図枠
  5
493
 10
71.1701
 20
-66.9715
 30
0.000000
  70
    32
  0
VERTEX
  8
図枠
  5
494
 10
71.1849
 20
-66.9741
 30
0.000000
  70
    32
  0
VERTEX
  8
図枠
  5
495
 10
71.1998
 20
-66.9766
 30
0.000000
  70
    32
  0
VERTEX
  8
図枠
  5
496
 10
71.2147
 20
-66.9791
 30
0.000000
  70
    32
  0
VERTEX
  8
図枠
  5
497
 10
71.2296
 20
-66.9816
 30
0.000000
  70
    32
  0
VERTEX
  8
図枠
  5
498
 10
71.2445
 20
-66.9841
 30
0.000000
  70
    32
  0
VERTEX
  8
図枠
  5
499
 10
71.2594
 20
-66.9867
 30
0.000000
  70
    32
  0
VERTEX
  8
図枠
  5
49A
 10
71.2742
 20
-66.9892
 30
0.000000
  70
    32
  0
VERTEX
  8
図枠
  5
49B
 10
71.2891
 20
-66.9917
 30
0.000000
  70
    32
  0
VERTEX
  8
図枠
  5
49C
 10
71.3040
 20
-66.9942
 30
0.000000
  70
    32
  0
VERTEX
  8
図枠
  5
49D
 10
71.3189
 20
-66.9967
 30
0.000000
  70
    32
  0
VERTEX
  8
図枠
  5
49E
 10
71.3338
 20
-66.9992
 30
0.000000
  70
    32
  0
SEQEND
  8
図枠
  5
49F
  0
INSERT
  5
114
  8
0
  6
CONTINUOUS
  2
*U53
 10
0.0
 20
0.0
 30
0.0
  0
LINE
  5
115
  8
図枠
 10
24.012834205200001
 20
-27.731300190900001
 30
0.0
 11
140.00123420520001
 21
-27.731300190900001
 31
0.0
  0
LINE
  5
116
  8
図枠
 10
73.107596571000002
 20
-63.95953863119999
 30
0.0
 11
75.106330010999997
 21
-63.95953863119999
 31
0.0
  0
LINE
  5
117
  8
図枠
 10
77.970432437299991
 20
-66.039330631200002
 30
0.0
 11
80.306876571000004
 21
-66.039330631200002
 31
0.0
  0
LINE
  5
118
  8
図枠
 10
75.338181968300006
 20
-47.327340390899998
 30
0.0
 11
79.945721168299997
 21
-46.175455590899993
 31
0.0
  0
LINE
  5
119
  8
図枠
 10
60.806355851000014
 20
-65.399394631199996
 30
0.0
 11
62.006235851
 21
-65.399394631199996
 31
0.0
  0
INSERT
  5
11A
  8
0
  6
CONTINUOUS
  2
*U54
 10
0.0
 20
0.0
 30
0.0
  0
LINE
  5
11B
  8
図枠
 10
57.606675851000013
 20
-66.999234631199997
 30
0.0
 11
55.206915850999998
 21
-66.999234631199997
 31
0.0
  0
LINE
  5
11C
  8
図枠
 10
84.006834205200008
 20
-44.229650190900003
 30
0.0
 11
84.006834205200008
 21
-69.727100190900003
 31
0.0
  0
LINE
  5
11D
  8
図枠
 10
73.107596571000002
 20
-63.95953863119999
 30
0.0
 11
73.107596571000002
 21
-65.399394631199996
 31
0.0
  0
LINE
  5
11E
  8
図枠
 10
80.306876571000004
 20
-63.95953863119999
 30
0.0
 11
80.306876571000004
 21
-65.399394631199996
 31
0.0
  0
ARC
  5
11F
  8
図枠
 10
57.606675851000013
 20
-65.799354631200003
 30
0.0
 40
1.1998799999999989
 50
270.0
 51
0.0
  0
LINE
  5
120
  8
図枠
 10
77.371941578700003
 20
-63.95953863119999
 30
0.0
 11
80.306876571000004
 21
-63.95953863119999
 31
0.0
  0
LINE
  5
121
  8
図枠
 10
75.338181968300006
 20
-47.327340390899998
 30
0.0
 11
79.945721168299997
 21
-46.175455590899993
 31
0.0
  0
INSERT
  5
122
  8
0
  6
CONTINUOUS
  2
*U55
 10
0.0
 20
0.0
 30
0.0
  0
LINE
  5
123
  8
図枠
 10
57.206715850999998
 20
-63.799554631199989
 30
0.0
 11
58.406595850999999
 21
-62.599674631199989
 31
0.0
  0
LINE
  5
124
  8
図枠
 10
75.338181968300006
 20
-49.631109990900001
 30
0.0
 11
79.945721168299997
 21
-50.782994790899998
 31
0.0
  0
LINE
  5
125
  8
図枠
 10
79.945721168299997
 20
-46.175455590899993
 30
0.0
 11
79.945721168299997
 21
-50.782994790899998
 31
0.0
  0
LINE
  5
126
  8
図枠
 10
24.012834205200001
 20
-33.230750190899997
 30
0.0
 11
140.00123420520001
 21
-33.230750190899997
 31
0.0
  0
LINE
  5
127
  8
図枠
 10
70.533867851000011
 20
-63.799554631199989
 30
0.0
 11
71.333787850999997
 21
-62.599674631199989
 31
0.0
  0
LINE
  5
128
  8
図枠
 10
99.0053342052
 20
-33.230750190899997
 30
0.0
 11
99.0053342052
 21
-27.731300190900001
 31
0.0
  0
LINE
  5
129
  8
図枠
 10
73.107596571000002
 20
-65.399394631199996
 30
0.0
 11
75.528687771000008
 21
-65.399394631199996
 31
0.0
  0
LINE
  5
12A
  8
図枠
 10
75.106330010999997
 20
-63.95953863119999
 30
0.0
 11
74.707436571000002
 21
-62.599674631199989
 31
0.0
  0
ARC
  5
12B
  8
図枠
 10
65.094411851000004
 20
-63.95953863119999
 30
0.0
 40
3.0396959999999988
 50
270.0
 51
298.08590481520002
  0
LINE
  5
12C
  8
図枠
 10
46.010634205199999
 20
-48.479225190900003
 30
0.0
 11
60.009234205200002
 21
-48.479225190900003
 31
0.0
  0
INSERT
  5
12D
  8
0
  6
CONTINUOUS
  2
*U56
 10
0.0
 20
0.0
 30
0.0
  0
INSERT
  5
12E
  8
0
  6
CONTINUOUS
  2
*U57
 10
0.0
 20
0.0
 30
0.0
  0
LINE
  5
12F
  8
図枠
 10
54.009834205200008
 20
-52.728800190900003
 30
0.0
 11
54.009834205200008
 21
-61.227950190900003
 31
0.0
  0
LINE
  5
130
  8
図枠
  6
BORDER
 10
70.072227805200001
 20
-45.023570790900003
 30
0.0
 11
70.072227805200001
 21
-51.934879590900003
 31
0.0
  0
LINE
  5
131
  8
図枠
  6
BORDER
 10
70.072227805200001
 20
-45.023570790900003
 30
0.0
 11
70.072227805200001
 21
-51.934879590900003
 31
0.0
  0
LINE
  5
132
  8
図枠
 10
26.012634205200001
 20
-48.479225190900003
 30
0.0
 11
42.011034205199991
 21
-48.479225190900003
 31
0.0
  0
ARC
  5
133
  8
図枠
 10
66.134307851000003
 20
-63.799554631199989
 30
0.0
 40
4.3995600000000001
 50
270.0
 51
302.54495885400001
  0
LINE
  5
134
  8
ﾚｲﾔ_1
  6
STITCH
 10
-89.0
 20
74.75
 30
0.0
 11
-89.0
 21
70.25
 31
0.0
  0
LINE
  5
135
  8
ﾚｲﾔ_1
  6
STITCH
 10
-89.0
 20
70.25
 30
0.0
 11
-87.0
 21
68.25
 31
0.0
  0
LINE
  5
136
  8
ﾚｲﾔ_1
  6
STITCH
 10
-89.0
 20
70.25
 30
0.0
 11
-90.0
 21
70.25
 31
0.0
  0
LINE
  5
137
  8
ﾚｲﾔ_1
  6
BORDER
 62
     3
 10
-81.768518518500017
 20
2.3888888888999991
 30
0.0
 11
-96.114814814799999
 21
2.3888888888999991
 31
0.0
  0
LINE
  5
138
  8
ﾚｲﾔ_1
  6
STITCH
 10
-89.0
 20
4.6388888888999986
 30
0.0
 11
-90.0
 21
4.6388888888999986
 31
0.0
  0
LINE
  5
139
  8
ﾚｲﾔ_1
  6
STITCH
 10
-87.0
 20
6.6388888888999986
 30
0.0
 11
-89.0
 21
4.6388888888999986
 31
0.0
  0
LINE
  5
13A
  8
ﾚｲﾔ_1
  6
STITCH
 10
-87.0
 20
21.638888888899999
 30
0.0
 11
-89.0
 21
19.638888888899999
 31
0.0
  0
LINE
  5
13B
  8
ﾚｲﾔ_1
  6
STITCH
 10
-89.0
 20
19.638888888899999
 30
0.0
 11
-89.0
 21
15.1388888889
 31
0.0
  0
LINE
  5
13C
  8
ﾚｲﾔ_1
  6
STITCH
 10
-89.0
 20
15.1388888889
 30
0.0
 11
-87.0
 21
13.1388888889
 31
0.0
  0
LINE
  5
13D
  8
ﾚｲﾔ_1
  6
STITCH
 10
-89.0
 20
15.1388888889
 30
0.0
 11
-90.0
 21
15.1388888889
 31
0.0
  0
LINE
  5
13E
  8
ﾚｲﾔ_1
  6
STITCH
 10
-89.0
 20
19.638888888899999
 30
0.0
 11
-90.0
 21
19.638888888899999
 31
0.0
  0
LINE
  5
13F
  8
ﾚｲﾔ_1
  6
BORDER
 62
     3
 10
-81.768518518500017
 20
17.388888888899999
 30
0.0
 11
-96.114814814799999
 21
17.388888888899999
 31
0.0
  0
LINE
  5
140
  8
ﾚｲﾔ_1
  6
BORDER
 62
     3
 10
-31.0
 20
72.5
 30
0.0
 11
-19.0
 21
72.5
 31
0.0
  0
LINE
  5
141
  8
ﾚｲﾔ_1
  6
BORDER
 62
     3
 10
-25.0
 20
78.5
 30
0.0
 11
-25.0
 21
66.5
 31
0.0
  0
CIRCLE
  5
142
  8
ﾚｲﾔ_1
 62
     5
 10
-25.0
 20
72.5
 30
0.0
 40
4.25
  0
CIRCLE
  5
143
  8
ﾚｲﾔ_1
 62
     5
 10
-25.0
 20
72.5
 30
0.0
 40
2.25
  0
CIRCLE
  5
144
  8
ﾚｲﾔ_1
 62
     5
 10
-60.0
 20
72.5
 30
0.0
 40
2.25
  0
DIMENSION
  5
153
  8
寸法線
  2
*D5
 10
-100.0
 20
87.5
 30
0.0
 11
-100.0
 21
72.5
 31
0.0
 70
   128
  1
<>
 13
-90.0
 23
87.5
 33
0.0
 14
-90.0
 24
57.5
 34
0.0
 50
90.0
  0
DIMENSION
  5
162
  8
寸法線
  2
*D6
 10
-25.0
 20
47.5
 30
0.0
 11
-17.5
 21
47.5
 31
0.0
 70
   128
  1
<>
 13
-25.0
 23
66.5
 33
0.0
 14
-10.0
 24
57.5
 34
0.0
 50
180.0
  0
DIMENSION
  5
171
  8
寸法線
  2
*D7
 10
-60.0
 20
47.5
 30
0.0
 11
-42.5
 21
47.5
 31
0.0
 70
   128
  1
<>
 13
-60.0
 23
66.5
 33
0.0
 14
-25.0
 24
66.5
 34
0.0
 50
180.0
  0
DIMENSION
  5
180
  8
寸法線
  2
*D8
 10
-90.0
 20
47.5
 30
0.0
 11
-75.0
 21
47.5
 31
0.0
 70
   128
  1
<>
 13
-90.0
 23
57.5
 33
0.0
 14
-60.0
 24
66.5
 34
0.0
 50
180.0
  0
INSERT
  5
181
  8
0
  6
CONTINUOUS
  2
*U58
 10
0.0
 20
0.0
 30
0.0
  0
POLYLINE
  8
図枠
  5
4A0
  66
     1
 10
0.000000
 20
0.000000
 30
0.000000
  70
     8
  0
VERTEX
  8
図枠
  5
4A1
 10
64.1345
 20
-64.7148
 30
0.000000
  70
    32
  0
VERTEX
  8
図枠
  5
4A2
 10
64.1489
 20
-64.7281
 30
0.000000
  70
    32
  0
VERTEX
  8
図枠
  5
4A3
 10
64.1633
 20
-64.7414
 30
0.000000
  70
    32
  0
VERTEX
  8
図枠
  5
4A4
 10
64.1777
 20
-64.7547
 30
0.000000
  70
    32
  0
VERTEX
  8
図枠
  5
4A5
 10
64.1921
 20
-64.7680
 30
0.000000
  70
    32
  0
VERTEX
  8
図枠
  5
4A6
 10
64.2065
 20
-64.7812
 30
0.000000
  70
    32
  0
VERTEX
  8
図枠
  5
4A7
 10
64.2210
 20
-64.7945
 30
0.000000
  70
    32
  0
VERTEX
  8
図枠
  5
4A8
 10
64.2354
 20
-64.8078
 30
0.000000
  70
    32
  0
VERTEX
  8
図枠
  5
4A9
 10
64.2498
 20
-64.8211
 30
0.000000
  70
    32
  0
VERTEX
  8
図枠
  5
4AA
 10
64.2642
 20
-64.8343
 30
0.000000
  70
    32
  0
VERTEX
  8
図枠
  5
4AB
 10
64.2786
 20
-64.8476
 30
0.000000
  70
    32
  0
VERTEX
  8
図枠
  5
4AC
 10
64.2930
 20
-64.8609
 30
0.000000
  70
    32
  0
VERTEX
  8
図枠
  5
4AD
 10
64.3074
 20
-64.8741
 30
0.000000
  70
    32
  0
VERTEX
  8
図枠
  5
4AE
 10
64.3219
 20
-64.8874
 30
0.000000
  70
    32
  0
VERTEX
  8
図枠
  5
4AF
 10
64.3363
 20
-64.9006
 30
0.000000
  70
    32
  0
VERTEX
  8
図枠
  5
4B0
 10
64.3507
 20
-64.9139
 30
0.000000
  70
    32
  0
VERTEX
  8
図枠
  5
4B1
 10
64.3651
 20
-64.9271
 30
0.000000
  70
    32
  0
VERTEX
  8
図枠
  5
4B2
 10
64.3796
 20
-64.9404
 30
0.000000
  70
    32
  0
VERTEX
  8
図枠
  5
4B3
 10
64.3940
 20
-64.9536
 30
0.000000
  70
    32
  0
VERTEX
  8
図枠
  5
4B4
 10
64.4084
 20
-64.9669
 30
0.000000
  70
    32
  0
VERTEX
  8
図枠
  5
4B5
 10
64.4229
 20
-64.9801
 30
0.000000
  70
    32
  0
VERTEX
  8
図枠
  5
4B6
 10
64.4373
 20
-64.9933
 30
0.000000
  70
    32
  0
VERTEX
  8
図枠
  5
4B7
 10
64.4517
 20
-65.0065
 30
0.000000
  70
    32
  0
VERTEX
  8
図枠
  5
4B8
 10
64.4662
 20
-65.0197
 30
0.000000
  70
    32
  0
VERTEX
  8
図枠
  5
4B9
 10
64.4806
 20
-65.0329
 30
0.000000
  70
    32
  0
VERTEX
  8
図枠
  5
4BA
 10
64.4951
 20
-65.0461
 30
0.000000
  70
    32
  0
VERTEX
  8
図枠
  5
4BB
 10
64.5095
 20
-65.0593
 30
0.000000
  70
    32
  0
VERTEX
  8
図枠
  5
4BC
 10
64.5240
 20
-65.0725
 30
0.000000
  70
    32
  0
VERTEX
  8
図枠
  5
4BD
 10
64.5385
 20
-65.0857
 30
0.000000
  70
    32
  0
VERTEX
  8
図枠
  5
4BE
 10
64.5529
 20
-65.0989
 30
0.000000
  70
    32
  0
VERTEX
  8
図枠
  5
4BF
 10
64.5674
 20
-65.1120
 30
0.000000
  70
    32
  0
VERTEX
  8
図枠
  5
4C0
 10
64.5819
 20
-65.1252
 30
0.000000
  70
    32
  0
VERTEX
  8
図枠
  5
4C1
 10
64.5964
 20
-65.1383
 30
0.000000
  70
    32
  0
VERTEX
  8
図枠
  5
4C2
 10
64.6109
 20
-65.1514
 30
0.000000
  70
    32
  0
VERTEX
  8
図枠
  5
4C3
 10
64.6253
 20
-65.1646
 30
0.000000
  70
    32
  0
VERTEX
  8
図枠
  5
4C4
 10
64.6398
 20
-65.1777
 30
0.000000
  70
    32
  0
VERTEX
  8
図枠
  5
4C5
 10
64.6543
 20
-65.1908
 30
0.000000
  70
    32
  0
VERTEX
  8
図枠
  5
4C6
 10
64.6689
 20
-65.2039
 30
0.000000
  70
    32
  0
VERTEX
  8
図枠
  5
4C7
 10
64.6834
 20
-65.2170
 30
0.000000
  70
    32
  0
VERTEX
  8
図枠
  5
4C8
 10
64.6979
 20
-65.2301
 30
0.000000
  70
    32
  0
VERTEX
  8
図枠
  5
4C9
 10
64.7124
 20
-65.2431
 30
0.000000
  70
    32
  0
VERTEX
  8
図枠
  5
4CA
 10
64.7269
 20
-65.2562
 30
0.000000
  70
    32
  0
VERTEX
  8
図枠
  5
4CB
 10
64.7415
 20
-65.2692
 30
0.000000
  70
    32
  0
VERTEX
  8
図枠
  5
4CC
 10
64.7560
 20
-65.2822
 30
0.000000
  70
    32
  0
VERTEX
  8
図枠
  5
4CD
 10
64.7706
 20
-65.2953
 30
0.000000
  70
    32
  0
VERTEX
  8
図枠
  5
4CE
 10
64.7851
 20
-65.3083
 30
0.000000
  70
    32
  0
VERTEX
  8
図枠
  5
4CF
 10
64.7997
 20
-65.3213
 30
0.000000
  70
    32
  0
VERTEX
  8
図枠
  5
4D0
 10
64.8143
 20
-65.3343
 30
0.000000
  70
    32
  0
VERTEX
  8
図枠
  5
4D1
 10
64.8288
 20
-65.3472
 30
0.000000
  70
    32
  0
VERTEX
  8
図枠
  5
4D2
 10
64.8434
 20
-65.3602
 30
0.000000
  70
    32
  0
VERTEX
  8
図枠
  5
4D3
 10
64.8580
 20
-65.3731
 30
0.000000
  70
    32
  0
VERTEX
  8
図枠
  5
4D4
 10
64.8726
 20
-65.3860
 30
0.000000
  70
    32
  0
VERTEX
  8
図枠
  5
4D5
 10
64.8872
 20
-65.3990
 30
0.000000
  70
    32
  0
VERTEX
  8
図枠
  5
4D6
 10
64.9018
 20
-65.4119
 30
0.000000
  70
    32
  0
VERTEX
  8
図枠
  5
4D7
 10
64.9164
 20
-65.4247
 30
0.000000
  70
    32
  0
VERTEX
  8
図枠
  5
4D8
 10
64.9311
 20
-65.4376
 30
0.000000
  70
    32
  0
VERTEX
  8
図枠
  5
4D9
 10
64.9457
 20
-65.4505
 30
0.000000
  70
    32
  0
VERTEX
  8
図枠
  5
4DA
 10
64.9604
 20
-65.4633
 30
0.000000
  70
    32
  0
VERTEX
  8
図枠
  5
4DB
 10
64.9750
 20
-65.4761
 30
0.000000
  70
    32
  0
VERTEX
  8
図枠
  5
4DC
 10
64.9897
 20
-65.4889
 30
0.000000
  70
    32
  0
VERTEX
  8
図枠
  5
4DD
 10
65.0044
 20
-65.5017
 30
0.000000
  70
    32
  0
VERTEX
  8
図枠
  5
4DE
 10
65.0190
 20
-65.5145
 30
0.000000
  70
    32
  0
VERTEX
  8
図枠
  5
4DF
 10
65.0337
 20
-65.5273
 30
0.000000
  70
    32
  0
VERTEX
  8
図枠
  5
4E0
 10
65.0484
 20
-65.5400
 30
0.000000
  70
    32
  0
VERTEX
  8
図枠
  5
4E1
 10
65.0631
 20
-65.5527
 30
0.000000
  70
    32
  0
VERTEX
  8
図枠
  5
4E2
 10
65.0779
 20
-65.5654
 30
0.000000
  70
    32
  0
VERTEX
  8
図枠
  5
4E3
 10
65.0926
 20
-65.5781
 30
0.000000
  70
    32
  0
VERTEX
  8
図枠
  5
4E4
 10
65.1073
 20
-65.5908
 30
0.000000
  70
    32
  0
VERTEX
  8
図枠
  5
4E5
 10
65.1221
 20
-65.6034
 30
0.000000
  70
    32
  0
VERTEX
  8
図枠
  5
4E6
 10
65.1368
 20
-65.6161
 30
0.000000
  70
    32
  0
VERTEX
  8
図枠
  5
4E7
 10
65.1516
 20
-65.6287
 30
0.000000
  70
    32
  0
VERTEX
  8
図枠
  5
4E8
 10
65.1664
 20
-65.6413
 30
0.000000
  70
    32
  0
VERTEX
  8
図枠
  5
4E9
 10
65.1812
 20
-65.6539
 30
0.000000
  70
    32
  0
VERTEX
  8
図枠
  5
4EA
 10
65.1960
 20
-65.6664
 30
0.000000
  70
    32
  0
VERTEX
  8
図枠
  5
4EB
 10
65.2108
 20
-65.6789
 30
0.000000
  70
    32
  0
VERTEX
  8
図枠
  5
4EC
 10
65.2256
 20
-65.6915
 30
0.000000
  70
    32
  0
VERTEX
  8
図枠
  5
4ED
 10
65.2404
 20
-65.7040
 30
0.000000
  70
    32
  0
VERTEX
  8
図枠
  5
4EE
 10
65.2553
 20
-65.7164
 30
0.000000
  70
    32
  0
VERTEX
  8
図枠
  5
4EF
 10
65.2701
 20
-65.7289
 30
0.000000
  70
    32
  0
VERTEX
  8
図枠
  5
4F0
 10
65.2850
 20
-65.7413
 30
0.000000
  70
    32
  0
VERTEX
  8
図枠
  5
4F1
 10
65.2999
 20
-65.7537
 30
0.000000
  70
    32
  0
VERTEX
  8
図枠
  5
4F2
 10
65.3148
 20
-65.7661
 30
0.000000
  70
    32
  0
VERTEX
  8
図枠
  5
4F3
 10
65.3297
 20
-65.7785
 30
0.000000
  70
    32
  0
VERTEX
  8
図枠
  5
4F4
 10
65.3446
 20
-65.7908
 30
0.000000
  70
    32
  0
VERTEX
  8
図枠
  5
4F5
 10
65.3595
 20
-65.8031
 30
0.000000
  70
    32
  0
VERTEX
  8
図枠
  5
4F6
 10
65.3745
 20
-65.8154
 30
0.000000
  70
    32
  0
VERTEX
  8
図枠
  5
4F7
 10
65.3894
 20
-65.8277
 30
0.000000
  70
    32
  0
VERTEX
  8
図枠
  5
4F8
 10
65.4044
 20
-65.8399
 30
0.000000
  70
    32
  0
VERTEX
  8
図枠
  5
4F9
 10
65.4194
 20
-65.8522
 30
0.000000
  70
    32
  0
VERTEX
  8
図枠
  5
4FA
 10
65.4344
 20
-65.8643
 30
0.000000
  70
    32
  0
VERTEX
  8
図枠
  5
4FB
 10
65.4494
 20
-65.8765
 30
0.000000
  70
    32
  0
VERTEX
  8
図枠
  5
4FC
 10
65.4644
 20
-65.8887
 30
0.000000
  70
    32
  0
VERTEX
  8
図枠
  5
4FD
 10
65.4794
 20
-65.9008
 30
0.000000
  70
    32
  0
VERTEX
  8
図枠
  5
4FE
 10
65.4945
 20
-65.9129
 30
0.000000
  70
    32
  0
VERTEX
  8
図枠
  5
4FF
 10
65.5095
 20
-65.9250
 30
0.000000
  70
    32
  0
VERTEX
  8
図枠
  5
500
 10
65.5246
 20
-65.9370
 30
0.000000
  70
    32
  0
VERTEX
  8
図枠
  5
501
 10
65.5397
 20
-65.9490
 30
0.000000
  70
    32
  0
VERTEX
  8
図枠
  5
502
 10
65.5548
 20
-65.9610
 30
0.000000
  70
    32
  0
VERTEX
  8
図枠
  5
503
 10
65.5699
 20
-65.9730
 30
0.000000
  70
    32
  0
VERTEX
  8
図枠
  5
504
 10
65.5850
 20
-65.9849
 30
0.000000
  70
    32
  0
VERTEX
  8
図枠
  5
505
 10
65.6002
 20
-65.9968
 30
0.000000
  70
    32
  0
VERTEX
  8
図枠
  5
506
 10
65.6154
 20
-66.0087
 30
0.000000
  70
    32
  0
VERTEX
  8
図枠
  5
507
 10
65.6305
 20
-66.0206
 30
0.000000
  70
    32
  0
VERTEX
  8
図枠
  5
508
 10
65.6457
 20
-66.0324
 30
0.000000
  70
    32
  0
VERTEX
  8
図枠
  5
509
 10
65.6609
 20
-66.0442
 30
0.000000
  70
    32
  0
VERTEX
  8
図枠
  5
50A
 10
65.6762
 20
-66.0560
 30
0.000000
  70
    32
  0
VERTEX
  8
図枠
  5
50B
 10
65.6914
 20
-66.0677
 30
0.000000
  70
    32
  0
VERTEX
  8
図枠
  5
50C
 10
65.7067
 20
-66.0794
 30
0.000000
  70
    32
  0
VERTEX
  8
図枠
  5
50D
 10
65.7219
 20
-66.0911
 30
0.000000
  70
    32
  0
VERTEX
  8
図枠
  5
50E
 10
65.7372
 20
-66.1028
 30
0.000000
  70
    32
  0
VERTEX
  8
図枠
  5
50F
 10
65.7525
 20
-66.1144
 30
0.000000
  70
    32
  0
VERTEX
  8
図枠
  5
510
 10
65.7678
 20
-66.1260
 30
0.000000
  70
    32
  0
VERTEX
  8
図枠
  5
511
 10
65.7832
 20
-66.1376
 30
0.000000
  70
    32
  0
VERTEX
  8
図枠
  5
512
 10
65.7985
 20
-66.1491
 30
0.000000
  70
    32
  0
VERTEX
  8
図枠
  5
513
 10
65.8139
 20
-66.1606
 30
0.000000
  70
    32
  0
VERTEX
  8
図枠
  5
514
 10
65.8293
 20
-66.1721
 30
0.000000
  70
    32
  0
VERTEX
  8
図枠
  5
515
 10
65.8447
 20
-66.1835
 30
0.000000
  70
    32
  0
VERTEX
  8
図枠
  5
516
 10
65.8601
 20
-66.1949
 30
0.000000
  70
    32
  0
VERTEX
  8
図枠
  5
517
 10
65.8756
 20
-66.2063
 30
0.000000
  70
    32
  0
VERTEX
  8
図枠
  5
518
 10
65.8910
 20
-66.2176
 30
0.000000
  70
    32
  0
VERTEX
  8
図枠
  5
519
 10
65.9065
 20
-66.2289
 30
0.000000
  70
    32
  0
VERTEX
  8
図枠
  5
51A
 10
65.9220
 20
-66.2402
 30
0.000000
  70
    32
  0
VERTEX
  8
図枠
  5
51B
 10
65.9375
 20
-66.2514
 30
0.000000
  70
    32
  0
VERTEX
  8
図枠
  5
51C
 10
65.9530
 20
-66.2626
 30
0.000000
  70
    32
  0
VERTEX
  8
図枠
  5
51D
 10
65.9686
 20
-66.2738
 30
0.000000
  70
    32
  0
VERTEX
  8
図枠
  5
51E
 10
65.9841
 20
-66.2850
 30
0.000000
  70
    32
  0
VERTEX
  8
図枠
  5
51F
 10
65.9997
 20
-66.2961
 30
0.000000
  70
    32
  0
VERTEX
  8
図枠
  5
520
 10
66.0153
 20
-66.3071
 30
0.000000
  70
    32
  0
VERTEX
  8
図枠
  5
521
 10
66.0309
 20
-66.3182
 30
0.000000
  70
    32
  0
VERTEX
  8
図枠
  5
522
 10
66.0466
 20
-66.3292
 30
0.000000
  70
    32
  0
VERTEX
  8
図枠
  5
523
 10
66.0622
 20
-66.3401
 30
0.000000
  70
    32
  0
VERTEX
  8
図枠
  5
524
 10
66.0779
 20
-66.3510
 30
0.000000
  70
    32
  0
VERTEX
  8
図枠
  5
525
 10
66.0936
 20
-66.3619
 30
0.000000
  70
    32
  0
VERTEX
  8
図枠
  5
526
 10
66.1093
 20
-66.3728
 30
0.000000
  70
    32
  0
VERTEX
  8
図枠
  5
527
 10
66.1251
 20
-66.3836
 30
0.000000
  70
    32
  0
VERTEX
  8
図枠
  5
528
 10
66.1408
 20
-66.3944
 30
0.000000
  70
    32
  0
VERTEX
  8
図枠
  5
529
 10
66.1566
 20
-66.4051
 30
0.000000
  70
    32
  0
VERTEX
  8
図枠
  5
52A
 10
66.1724
 20
-66.4158
 30
0.000000
  70
    32
  0
VERTEX
  8
図枠
  5
52B
 10
66.1883
 20
-66.4265
 30
0.000000
  70
    32
  0
VERTEX
  8
図枠
  5
52C
 10
66.2041
 20
-66.4371
 30
0.000000
  70
    32
  0
VERTEX
  8
図枠
  5
52D
 10
66.2200
 20
-66.4477
 30
0.000000
  70
    32
  0
VERTEX
  8
図枠
  5
52E
 10
66.2358
 20
-66.4583
 30
0.000000
  70
    32
  0
VERTEX
  8
図枠
  5
52F
 10
66.2517
 20
-66.4688
 30
0.000000
  70
    32
  0
VERTEX
  8
図枠
  5
530
 10
66.2677
 20
-66.4793
 30
0.000000
  70
    32
  0
VERTEX
  8
図枠
  5
531
 10
66.2836
 20
-66.4897
 30
0.000000
  70
    32
  0
VERTEX
  8
図枠
  5
532
 10
66.2996
 20
-66.5001
 30
0.000000
  70
    32
  0
VERTEX
  8
図枠
  5
533
 10
66.3156
 20
-66.5105
 30
0.000000
  70
    32
  0
VERTEX
  8
図枠
  5
534
 10
66.3316
 20
-66.5208
 30
0.000000
  70
    32
  0
VERTEX
  8
図枠
  5
535
 10
66.3476
 20
-66.5310
 30
0.000000
  70
    32
  0
VERTEX
  8
図枠
  5
536
 10
66.3637
 20
-66.5413
 30
0.000000
  70
    32
  0
VERTEX
  8
図枠
  5
537
 10
66.3798
 20
-66.5515
 30
0.000000
  70
    32
  0
VERTEX
  8
図枠
  5
538
 10
66.3959
 20
-66.5616
 30
0.000000
  70
    32
  0
VERTEX
  8
図枠
  5
539
 10
66.4120
 20
-66.5717
 30
0.000000
  70
    32
  0
VERTEX
  8
図枠
  5
53A
 10
66.4281
 20
-66.5818
 30
0.000000
  70
    32
  0
VERTEX
  8
図枠
  5
53B
 10
66.4443
 20
-66.5918
 30
0.000000
  70
    32
  0
VERTEX
  8
図枠
  5
53C
 10
66.4605
 20
-66.6018
 30
0.000000
  70
    32
  0
VERTEX
  8
図枠
  5
53D
 10
66.4767
 20
-66.6117
 30
0.000000
  70
    32
  0
VERTEX
  8
図枠
  5
53E
 10
66.4929
 20
-66.6216
 30
0.000000
  70
    32
  0
VERTEX
  8
図枠
  5
53F
 10
66.5092
 20
-66.6315
 30
0.000000
  70
    32
  0
VERTEX
  8
図枠
  5
540
 10
66.5255
 20
-66.6413
 30
0.000000
  70
    32
  0
SEQEND
  8
図枠
  5
541
  0
POLYLINE
  8
図枠
  5
542
  66
     1
 10
0.000000
 20
0.000000
 30
0.000000
  70
     8
  0
VERTEX
  8
図枠
  5
543
 10
68.5011
 20
-67.5082
 30
0.000000
  70
    32
  0
VERTEX
  8
図枠
  5
544
 10
68.5226
 20
-67.5151
 30
0.000000
  70
    32
  0
VERTEX
  8
図枠
  5
545
 10
68.5442
 20
-67.5219
 30
0.000000
  70
    32
  0
VERTEX
  8
図枠
  5
546
 10
68.5658
 20
-67.5287
 30
0.000000
  70
    32
  0
VERTEX
  8
図枠
  5
547
 10
68.5873
 20
-67.5355
 30
0.000000
  70
    32
  0
VERTEX
  8
図枠
  5
548
 10
68.6089
 20
-67.5422
 30
0.000000
  70
    32
  0
VERTEX
  8
図枠
  5
549
 10
68.6306
 20
-67.5489
 30
0.000000
  70
    32
  0
VERTEX
  8
図枠
  5
54A
 10
68.6522
 20
-67.5556
 30
0.000000
  70
    32
  0
VERTEX
  8
図枠
  5
54B
 10
68.6739
 20
-67.5622
 30
0.000000
  70
    32
  0
VERTEX
  8
図枠
  5
54C
 10
68.6955
 20
-67.5689
 30
0.000000
  70
    32
  0
VERTEX
  8
図枠
  5
54D
 10
68.7172
 20
-67.5754
 30
0.000000
  70
    32
  0
VERTEX
  8
図枠
  5
54E
 10
68.7389
 20
-67.5820
 30
0.000000
  70
    32
  0
VERTEX
  8
図枠
  5
54F
 10
68.7607
 20
-67.5885
 30
0.000000
  70
    32
  0
VERTEX
  8
図枠
  5
550
 10
68.7824
 20
-67.5950
 30
0.000000
  70
    32
  0
VERTEX
  8
図枠
  5
551
 10
68.8042
 20
-67.6014
 30
0.000000
  70
    32
  0
VERTEX
  8
図枠
  5
552
 10
68.8260
 20
-67.6078
 30
0.000000
  70
    32
  0
VERTEX
  8
図枠
  5
553
 10
68.8477
 20
-67.6142
 30
0.000000
  70
    32
  0
VERTEX
  8
図枠
  5
554
 10
68.8696
 20
-67.6206
 30
0.000000
  70
    32
  0
VERTEX
  8
図枠
  5
555
 10
68.8914
 20
-67.6269
 30
0.000000
  70
    32
  0
VERTEX
  8
図枠
  5
556
 10
68.9132
 20
-67.6332
 30
0.000000
  70
    32
  0
VERTEX
  8
図枠
  5
557
 10
68.9351
 20
-67.6395
 30
0.000000
  70
    32
  0
VERTEX
  8
図枠
  5
558
 10
68.9569
 20
-67.6457
 30
0.000000
  70
    32
  0
VERTEX
  8
図枠
  5
559
 10
68.9788
 20
-67.6519
 30
0.000000
  70
    32
  0
VERTEX
  8
図枠
  5
55A
 10
69.0007
 20
-67.6581
 30
0.000000
  70
    32
  0
VERTEX
  8
図枠
  5
55B
 10
69.0227
 20
-67.6643
 30
0.000000
  70
    32
  0
VERTEX
  8
図枠
  5
55C
 10
69.0446
 20
-67.6704
 30
0.000000
  70
    32
  0
VERTEX
  8
図枠
  5
55D
 10
69.0665
 20
-67.6765
 30
0.000000
  70
    32
  0
VERTEX
  8
図枠
  5
55E
 10
69.0885
 20
-67.6826
 30
0.000000
  70
    32
  0
VERTEX
  8
図枠
  5
55F
 10
69.1105
 20
-67.6886
 30
0.000000
  70
    32
  0
VERTEX
  8
図枠
  5
560
 10
69.1325
 20
-67.6946
 30
0.000000
  70
    32
  0
VERTEX
  8
図枠
  5
561
 10
69.1545
 20
-67.7006
 30
0.000000
  70
    32
  0
VERTEX
  8
図枠
  5
562
 10
69.1765
 20
-67.7066
 30
0.000000
  70
    32
  0
VERTEX
  8
図枠
  5
563
 10
69.1985
 20
-67.7125
 30
0.000000
  70
    32
  0
VERTEX
  8
図枠
  5
564
 10
69.2206
 20
-67.7184
 30
0.000000
  70
    32
  0
VERTEX
  8
図枠
  5
565
 10
69.2426
 20
-67.7243
 30
0.000000
  70
    32
  0
VERTEX
  8
図枠
  5
566
 10
69.2647
 20
-67.7302
 30
0.000000
  70
    32
  0
VERTEX
  8
図枠
  5
567
 10
69.2868
 20
-67.7360
 30
0.000000
  70
    32
  0
VERTEX
  8
図枠
  5
568
 10
69.3089
 20
-67.7419
 30
0.000000
  70
    32
  0
VERTEX
  8
図枠
  5
569
 10
69.3310
 20
-67.7477
 30
0.000000
  70
    32
  0
VERTEX
  8
図枠
  5
56A
 10
69.3531
 20
-67.7534
 30
0.000000
  70
    32
  0
VERTEX
  8
図枠
  5
56B
 10
69.3753
 20
-67.7592
 30
0.000000
  70
    32
  0
VERTEX
  8
図枠
  5
56C
 10
69.3974
 20
-67.7649
 30
0.000000
  70
    32
  0
VERTEX
  8
図枠
  5
56D
 10
69.4196
 20
-67.7706
 30
0.000000
  70
    32
  0
VERTEX
  8
図枠
  5
56E
 10
69.4418
 20
-67.7763
 30
0.000000
  70
    32
  0
VERTEX
  8
図枠
  5
56F
 10
69.4639
 20
-67.7819
 30
0.000000
  70
    32
  0
VERTEX
  8
図枠
  5
570
 10
69.4861
 20
-67.7876
 30
0.000000
  70
    32
  0
VERTEX
  8
図枠
  5
571
 10
69.5084
 20
-67.7932
 30
0.000000
  70
    32
  0
VERTEX
  8
図枠
  5
572
 10
69.5306
 20
-67.7988
 30
0.000000
  70
    32
  0
VERTEX
  8
図枠
  5
573
 10
69.5528
 20
-67.8043
 30
0.000000
  70
    32
  0
VERTEX
  8
図枠
  5
574
 10
69.5751
 20
-67.8099
 30
0.000000
  70
    32
  0
VERTEX
  8
図枠
  5
575
 10
69.5973
 20
-67.8154
 30
0.000000
  70
    32
  0
VERTEX
  8
図枠
  5
576
 10
69.6196
 20
-67.8209
 30
0.000000
  70
    32
  0
VERTEX
  8
図枠
  5
577
 10
69.6419
 20
-67.8264
 30
0.000000
  70
    32
  0
VERTEX
  8
図枠
  5
578
 10
69.6642
 20
-67.8318
 30
0.000000
  70
    32
  0
VERTEX
  8
図枠
  5
579
 10
69.6865
 20
-67.8373
 30
0.000000
  70
    32
  0
VERTEX
  8
図枠
  5
57A
 10
69.7088
 20
-67.8427
 30
0.000000
  70
    32
  0
VERTEX
  8
図枠
  5
57B
 10
69.7311
 20
-67.8481
 30
0.000000
  70
    32
  0
VERTEX
  8
図枠
  5
57C
 10
69.7534
 20
-67.8535
 30
0.000000
  70
    32
  0
VERTEX
  8
図枠
  5
57D
 10
69.7758
 20
-67.8589
 30
0.000000
  70
    32
  0
VERTEX
  8
図枠
  5
57E
 10
69.7981
 20
-67.8642
 30
0.000000
  70
    32
  0
VERTEX
  8
図枠
  5
57F
 10
69.8205
 20
-67.8695
 30
0.000000
  70
    32
  0
VERTEX
  8
図枠
  5
580
 10
69.8429
 20
-67.8749
 30
0.000000
  70
    32
  0
VERTEX
  8
図枠
  5
581
 10
69.8653
 20
-67.8802
 30
0.000000
  70
    32
  0
VERTEX
  8
図枠
  5
582
 10
69.8877
 20
-67.8854
 30
0.000000
  70
    32
  0
VERTEX
  8
図枠
  5
583
 10
69.9101
 20
-67.8907
 30
0.000000
  70
    32
  0
VERTEX
  8
図枠
  5
584
 10
69.9325
 20
-67.8959
 30
0.000000
  70
    32
  0
VERTEX
  8
図枠
  5
585
 10
69.9549
 20
-67.9012
 30
0.000000
  70
    32
  0
VERTEX
  8
図枠
  5
586
 10
69.9773
 20
-67.9064
 30
0.000000
  70
    32
  0
VERTEX
  8
図枠
  5
587
 10
69.9998
 20
-67.9116
 30
0.000000
  70
    32
  0
VERTEX
  8
図枠
  5
588
 10
70.0222
 20
-67.9167
 30
0.000000
  70
    32
  0
VERTEX
  8
図枠
  5
589
 10
70.0447
 20
-67.9219
 30
0.000000
  70
    32
  0
VERTEX
  8
図枠
  5
58A
 10
70.0671
 20
-67.9270
 30
0.000000
  70
    32
  0
VERTEX
  8
図枠
  5
58B
 10
70.0896
 20
-67.9322
 30
0.000000
  70
    32
  0
VERTEX
  8
図枠
  5
58C
 10
70.1121
 20
-67.9373
 30
0.000000
  70
    32
  0
VERTEX
  8
図枠
  5
58D
 10
70.1346
 20
-67.9424
 30
0.000000
  70
    32
  0
VERTEX
  8
図枠
  5
58E
 10
70.1571
 20
-67.9475
 30
0.000000
  70
    32
  0
VERTEX
  8
図枠
  5
58F
 10
70.1796
 20
-67.9526
 30
0.000000
  70
    32
  0
VERTEX
  8
図枠
  5
590
 10
70.2021
 20
-67.9576
 30
0.000000
  70
    32
  0
VERTEX
  8
図枠
  5
591
 10
70.2246
 20
-67.9627
 30
0.000000
  70
    32
  0
VERTEX
  8
図枠
  5
592
 10
70.2471
 20
-67.9677
 30
0.000000
  70
    32
  0
VERTEX
  8
図枠
  5
593
 10
70.2696
 20
-67.9727
 30
0.000000
  70
    32
  0
VERTEX
  8
図枠
  5
594
 10
70.2922
 20
-67.9777
 30
0.000000
  70
    32
  0
VERTEX
  8
図枠
  5
595
 10
70.3147
 20
-67.9827
 30
0.000000
  70
    32
  0
VERTEX
  8
図枠
  5
596
 10
70.3373
 20
-67.9877
 30
0.000000
  70
    32
  0
VERTEX
  8
図枠
  5
597
 10
70.3598
 20
-67.9927
 30
0.000000
  70
    32
  0
VERTEX
  8
図枠
  5
598
 10
70.3824
 20
-67.9976
 30
0.000000
  70
    32
  0
VERTEX
  8
図枠
  5
599
 10
70.4050
 20
-68.0026
 30
0.000000
  70
    32
  0
VERTEX
  8
図枠
  5
59A
 10
70.4275
 20
-68.0075
 30
0.000000
  70
    32
  0
VERTEX
  8
図枠
  5
59B
 10
70.4501
 20
-68.0125
 30
0.000000
  70
    32
  0
VERTEX
  8
図枠
  5
59C
 10
70.4727
 20
-68.0174
 30
0.000000
  70
    32
  0
VERTEX
  8
図枠
  5
59D
 10
70.4953
 20
-68.0223
 30
0.000000
  70
    32
  0
VERTEX
  8
図枠
  5
59E
 10
70.5179
 20
-68.0272
 30
0.000000
  70
    32
  0
VERTEX
  8
図枠
  5
59F
 10
70.5405
 20
-68.0321
 30
0.000000
  70
    32
  0
VERTEX
  8
図枠
  5
5A0
 10
70.5631
 20
-68.0369
 30
0.000000
  70
    32
  0
VERTEX
  8
図枠
  5
5A1
 10
70.5857
 20
-68.0418
 30
0.000000
  70
    32
  0
VERTEX
  8
図枠
  5
5A2
 10
70.6083
 20
-68.0467
 30
0.000000
  70
    32
  0
VERTEX
  8
図枠
  5
5A3
 10
70.6310
 20
-68.0515
 30
0.000000
  70
    32
  0
VERTEX
  8
図枠
  5
5A4
 10
70.6536
 20
-68.0564
 30
0.000000
  70
    32
  0
VERTEX
  8
図枠
  5
5A5
 10
70.6762
 20
-68.0612
 30
0.000000
  70
    32
  0
VERTEX
  8
図枠
  5
5A6
 10
70.6989
 20
-68.0660
 30
0.000000
  70
    32
  0
VERTEX
  8
図枠
  5
5A7
 10
70.7215
 20
-68.0708
 30
0.000000
  70
    32
  0
VERTEX
  8
図枠
  5
5A8
 10
70.7441
 20
-68.0757
 30
0.000000
  70
    32
  0
VERTEX
  8
図枠
  5
5A9
 10
70.7668
 20
-68.0805
 30
0.000000
  70
    32
  0
VERTEX
  8
図枠
  5
5AA
 10
70.7894
 20
-68.0853
 30
0.000000
  70
    32
  0
VERTEX
  8
図枠
  5
5AB
 10
70.8121
 20
-68.0901
 30
0.000000
  70
    32
  0
VERTEX
  8
図枠
  5
5AC
 10
70.8348
 20
-68.0948
 30
0.000000
  70
    32
  0
VERTEX
  8
図枠
  5
5AD
 10
70.8574
 20
-68.0996
 30
0.000000
  70
    32
  0
VERTEX
  8
図枠
  5
5AE
 10
70.8801
 20
-68.1044
 30
0.000000
  70
    32
  0
VERTEX
  8
図枠
  5
5AF
 10
70.9027
 20
-68.1092
 30
0.000000
  70
    32
  0
VERTEX
  8
図枠
  5
5B0
 10
70.9254
 20
-68.1139
 30
0.000000
  70
    32
  0
VERTEX
  8
図枠
  5
5B1
 10
70.9481
 20
-68.1187
 30
0.000000
  70
    32
  0
VERTEX
  8
図枠
  5
5B2
 10
70.9708
 20
-68.1234
 30
0.000000
  70
    32
  0
VERTEX
  8
図枠
  5
5B3
 10
70.9934
 20
-68.1282
 30
0.000000
  70
    32
  0
VERTEX
  8
図枠
  5
5B4
 10
71.0161
 20
-68.1329
 30
0.000000
  70
    32
  0
VERTEX
  8
図枠
  5
5B5
 10
71.0388
 20
-68.1377
 30
0.000000
  70
    32
  0
VERTEX
  8
図枠
  5
5B6
 10
71.0615
 20
-68.1424
 30
0.000000
  70
    32
  0
VERTEX
  8
図枠
  5
5B7
 10
71.0842
 20
-68.1472
 30
0.000000
  70
    32
  0
VERTEX
  8
図枠
  5
5B8
 10
71.1069
 20
-68.1519
 30
0.000000
  70
    32
  0
VERTEX
  8
図枠
  5
5B9
 10
71.1296
 20
-68.1566
 30
0.000000
  70
    32
  0
VERTEX
  8
図枠
  5
5BA
 10
71.1522
 20
-68.1613
 30
0.000000
  70
    32
  0
VERTEX
  8
図枠
  5
5BB
 10
71.1749
 20
-68.1661
 30
0.000000
  70
    32
  0
VERTEX
  8
図枠
  5
5BC
 10
71.1976
 20
-68.1708
 30
0.000000
  70
    32
  0
VERTEX
  8
図枠
  5
5BD
 10
71.2203
 20
-68.1755
 30
0.000000
  70
    32
  0
VERTEX
  8
図枠
  5
5BE
 10
71.2430
 20
-68.1802
 30
0.000000
  70
    32
  0
VERTEX
  8
図枠
  5
5BF
 10
71.2657
 20
-68.1850
 30
0.000000
  70
    32
  0
VERTEX
  8
図枠
  5
5C0
 10
71.2884
 20
-68.1897
 30
0.000000
  70
    32
  0
VERTEX
  8
図枠
  5
5C1
 10
71.3111
 20
-68.1944
 30
0.000000
  70
    32
  0
VERTEX
  8
図枠
  5
5C2
 10
71.3338
 20
-68.1991
 30
0.000000
  70
    32
  0
SEQEND
  8
図枠
  5
5C3
  0
ARC
  5
184
  8
図枠
 10
66.134307851000003
 20
-63.799554631199989
 30
0.0
 40
4.3995600000000001
 50
322.48761197969998
 51
0.0
  0
LINE
  5
185
  8
ﾚｲﾔ_1
  6
BORDER
 62
     3
 10
-60.0
 20
-14.7902974646
 30
0.0
 11
-60.0
 21
-22.937467276
 31
0.0
  0
LINE
  5
186
  8
ﾚｲﾔ_1
  6
BORDER
 62
     3
 10
-25.0
 20
-12.3796296296
 30
0.0
 11
-25.0
 21
-26.7259259259
 31
0.0
  0
ARC
  5
187
  8
ﾚｲﾔ_1
 62
     5
 10
-87.0
 20
-17.611111111100001
 30
0.0
 40
3.0
 50
180.0
 51
270.0
  0
LINE
  5
188
  8
ﾚｲﾔ_1
 62
     5
 10
-87.0
 20
-20.611111111100001
 30
0.0
 11
-10.0
 21
-20.611111111100001
 31
0.0
  0
LINE
  5
189
  8
ﾚｲﾔ_1
 62
     5
 10
-10.0
 20
-20.611111111100001
 30
0.0
 11
-10.0
 21
-17.611111111100001
 31
0.0
  0
LINE
  5
18A
  8
ﾚｲﾔ_1
 62
     5
 10
-87.0
 20
-17.611111111100001
 30
0.0
 11
-10.0
 21
-17.611111111100001
 31
0.0
  0
LINE
  5
18B
  8
ﾚｲﾔ_1
  6
STITCH
 10
-64.25
 20
-17.611111111100001
 30
0.0
 11
-62.25
 21
-19.611111111100001
 31
0.0
  0
LINE
  5
18C
  8
ﾚｲﾔ_1
  6
STITCH
 10
-62.25
 20
-19.611111111100001
 30
0.0
 11
-57.75
 21
-19.611111111100001
 31
0.0
  0
LINE
  5
18D
  8
ﾚｲﾔ_1
  6
STITCH
 10
-57.75
 20
-19.611111111100001
 30
0.0
 11
-55.75
 21
-17.611111111100001
 31
0.0
  0
DIMENSION
  5
19C
  8
寸法線
  2
*D9
 10
-90.0
 20
-30.611111111100001
 30
0.0
 11
-50.0
 21
-30.611111111100001
 31
0.0
 70
   128
  1
<>
 13
-90.0
 23
-17.611111111100001
 33
0.0
 14
-10.0
 24
-20.611111111100001
 34
0.0
 50
180.0
  0
DIMENSION
  5
1AC
  8
寸法線
  2
*D10
 10
-55.75
 20
-14.2777778573
 30
0.0
 11
-60.0
 21
-14.2777778573
 31
0.0
 70
   128
  1
%%c8
 13
-55.75
 23
-17.611111111100001
 33
0.0
 14
-64.25
 24
-17.611111111100001
 34
0.0
  0
DIMENSION
  5
1BA
  8
寸法線
  2
*D59
 10
-57.286558611291717
 20
-11.734409985080459
 30
0.0
 11
-60.0
 21
-11.377178649199999
 31
0.0
 70
   133
  1
<>
 13
-64.780330085900005
 23
-17.0807810252
 33
0.0
 14
-55.219669914100002
 24
-17.0807810252
 34
0.0
 15
-60.0
 25
-21.861111111100001
 35
0.0
1001
ACAD
1000
DSTYLE
1002
{
1070
   271
1070
     0
1002
}
  0
DIMENSION
  5
1C9
  8
寸法線
  2
*D12
 10
-62.25
 20
-24.987572097800001
 30
0.0
 11
-60.0
 21
-24.987572097800001
 31
0.0
 70
   128
  1
%%c4
 13
-62.25
 23
-20.611111111100001
 33
0.0
 14
-57.75
 24
-20.611111111100001
 34
0.0
 50
180.0
  0
CIRCLE
  5
1CA
  8
ﾚｲﾔ_1
 62
     5
 10
-60.0
 20
72.5
 30
0.0
 40
4.25
  0
LINE
  5
1CB
  8
ﾚｲﾔ_1
  6
BORDER
 62
     3
 10
-60.0
 20
78.5
 30
0.0
 11
-60.0
 21
66.5
 31
0.0
  0
LINE
  5
1CC
  8
ﾚｲﾔ_1
  6
BORDER
 62
     3
 10
-66.0
 20
72.5
 30
0.0
 11
-54.0
 21
72.5
 31
0.0
  0
LINE
  5
1CD
  8
ﾚｲﾔ_1
 62
     5
 10
-87.0
 20
87.5
 30
0.0
 11
-87.0
 21
57.5
 31
0.0
  0
LINE
  5
1CE
  8
ﾚｲﾔ_1
 62
     5
 10
-87.0
 20
24.388888888899999
 30
0.0
 11
-90.0
 21
24.388888888899999
 31
0.0
  0
LINE
  5
1CF
  8
ﾚｲﾔ_1
 62
     5
 10
-90.0
 20
87.5
 30
0.0
 11
-90.0
 21
57.5
 31
0.0
  0
LINE
  5
1D0
  8
ﾚｲﾔ_1
 62
     5
 10
-10.0
 20
87.5
 30
0.0
 11
-90.0
 21
87.5
 31
0.0
  0
LINE
  5
1D1
  8
ﾚｲﾔ_1
 62
     5
 10
-10.0
 20
57.5
 30
0.0
 11
-10.0
 21
87.5
 31
0.0
  0
LINE
  5
1D2
  8
ﾚｲﾔ_1
  6
STITCH
 10
-87.0
 20
76.75
 30
0.0
 11
-89.0
 21
74.75
 31
0.0
  0
LINE
  5
1D3
  8
ﾚｲﾔ_1
  6
STITCH
 10
-89.0
 20
74.75
 30
0.0
 11
-90.0
 21
74.75
 31
0.0
  0
LINE
  5
1D4
  8
ﾚｲﾔ_1
  6
BORDER
 62
     3
 10
-81.768518518500017
 20
72.5
 30
0.0
 11
-96.114814814799999
 21
72.5
 31
0.0
  0
LINE
  5
1D5
  8
ﾚｲﾔ_1
 62
     5
 10
-90.0
 20
57.5
 30
0.0
 11
-10.0
 21
57.5
 31
0.0
  0
DIMENSION
  5
1E4
  8
寸法線
  2
*D13
 10
0.0
 20
57.5
 30
0.0
 11
0.0
 21
65.0
 31
0.0
 70
   128
  1
<>
 13
-10.0
 23
57.5
 33
0.0
 14
-19.0
 24
72.5
 34
0.0
 50
90.0
  0
DIMENSION
  5
1F3
  8
寸法線
  2
*D14
 10
0.0
 20
72.5
 30
0.0
 11
0.0
 21
80.0
 31
0.0
 70
   128
  1
<>
 13
-19.0
 23
72.5
 33
0.0
 14
-10.0
 24
87.5
 34
0.0
 50
90.0
  0
DIMENSION
  5
202
  8
寸法線
  2
*D15
 10
0.0
 20
-20.611111111100001
 30
0.0
 11
0.0
 21
-9.8664595028999997
 31
0.0
 70
   128
  1
<>t
 13
-10.0
 23
-20.611111111100001
 33
0.0
 14
-10.0
 24
-17.611111111100001
 34
0.0
 50
90.0
  0
LINE
  5
203
  8
図枠
  6
DOT
 10
-140.9706657948
 20
126.00332480909999
 30
0.0
 11
146.00063420519999
 21
126.00332480909999
 31
0.0
  0
LINE
  5
204
  8
図枠
 62
     5
 10
-134.97126579479999
 20
120.25389980910001
 30
0.0
 11
140.00123420520001
 21
120.25389980910001
 31
0.0
  0
LINE
  5
205
  8
図枠
  6
DOT
 10
-140.9706657948
 20
-75.476525190900006
 30
0.0
 11
146.00063420519999
 21
-75.476525190900006
 31
0.0
  0
LINE
  5
206
  8
図枠
 62
     5
 10
-134.97126579479999
 20
-69.727100190900003
 30
0.0
 11
140.00123420520001
 21
-69.727100190900003
 31
0.0
  0
LINE
  5
207
  8
ﾚｲﾔ_1
  6
STITCH
 10
-89.0
 20
0.1388888889
 30
0.0
 11
-90.0
 21
0.1388888889
 31
0.0
  0
LINE
  5
208
  8
ﾚｲﾔ_1
  6
STITCH
 10
-89.0
 20
0.1388888889
 30
0.0
 11
-87.0
 21
-1.8611111110999989
 31
0.0
  0
LINE
  5
209
  8
ﾚｲﾔ_1
  6
STITCH
 10
-89.0
 20
4.6388888888999986
 30
0.0
 11
-89.0
 21
0.1388888889
 31
0.0
  0
LINE
  5
20A
  8
ﾚｲﾔ_1
 62
     5
 10
-90.0
 20
24.388888888899999
 30
0.0
 11
-90.0
 21
-17.611111111100001
 31
0.0
  0
LINE
  5
20B
  8
ﾚｲﾔ_1
 62
     5
 10
-87.0
 20
24.388888888899999
 30
0.0
 11
-87.0
 21
-17.611111111100001
 31
0.0
  0
DIMENSION
  5
219
  8
寸法線
  2
*D60
 10
-80.699556222872445
 20
-6.6984223788838904
 30
0.0
 11
-77.905552750800013
 21
-8.8891046684000017
 31
0.0
 70
   133
  1
<>
 13
-87.0
 23
24.388888888899999
 33
0.0
 14
-10.0
 24
-17.611111111100001
 34
0.0
 15
-87.0
 25
-17.611111111100001
 35
0.0
1001
ACAD
1000
DSTYLE
1002
{
1070
   271
1070
     0
1002
}
  0
DIMENSION
  5
228
  8
寸法線
  2
*D17
 10
-100.0
 20
24.388888888899999
 30
0.0
 11
-100.0
 21
1.8888888889
 31
0.0
 70
   128
  1
<>
 13
-90.0
 23
24.388888888899999
 33
0.0
 14
-87.0
 24
-20.611111111100001
 34
0.0
 50
90.0
  0
LINE
  5
229
  8
図枠
 62
     5
 10
-134.97126579479999
 20
-69.727100190900003
 30
0.0
 11
-134.97126579479999
 21
120.25389980910001
 31
0.0
  0
LINE
  5
22A
  8
図枠
  6
DOT
 10
-140.96766609479999
 20
-75.476525190900006
 30
0.0
 11
-140.96766609479999
 21
126.00332480909999
 31
0.0
  0
LINE
  5
22B
  8
図枠
 62
     5
 10
140.00123420520001
 20
-69.727100190900003
 30
0.0
 11
140.00123420520001
 21
120.25389980910001
 31
0.0
  0
LINE
  5
22C
  8
図枠
  6
DOT
 10
146.00063420519999
 20
-75.476525190900006
 30
0.0
 11
146.00063420519999
 21
126.00332480909999
 31
0.0
  0
LINE
  5
22D
  8
ﾚｲﾔ_1
  6
STITCH
 10
-57.75
 20
-19.611111111100001
 30
0.0
 11
-57.75
 21
-20.611111111100001
 31
0.0
  0
LINE
  5
22E
  8
ﾚｲﾔ_1
  6
STITCH
 10
-62.25
 20
-19.611111111100001
 30
0.0
 11
-62.25
 21
-20.611111111100001
 31
0.0
  0
LINE
  5
22F
  8
ﾚｲﾔ_1
  6
STITCH
 10
-27.25
 20
-19.611111111100001
 30
0.0
 11
-27.25
 21
-20.611111111100001
 31
0.0
  0
LINE
  5
230
  8
ﾚｲﾔ_1
  6
STITCH
 10
-22.75
 20
-19.611111111100001
 30
0.0
 11
-22.75
 21
-20.611111111100001
 31
0.0
  0
LINE
  5
231
  8
ﾚｲﾔ_1
  6
STITCH
 10
-22.75
 20
-19.611111111100001
 30
0.0
 11
-20.75
 21
-17.611111111100001
 31
0.0
  0
LINE
  5
232
  8
ﾚｲﾔ_1
  6
STITCH
 10
-27.25
 20
-19.611111111100001
 30
0.0
 11
-22.75
 21
-19.611111111100001
 31
0.0
  0
LINE
  5
233
  8
ﾚｲﾔ_1
  6
STITCH
 10
-29.25
 20
-17.611111111100001
 30
0.0
 11
-27.25
 21
-19.611111111100001
 31
0.0
  0
LINE
  5
274
  8
ﾚｲﾔ_1
  6
STITCH
 10
38.415044164090752
 20
7.3116711431140358
 30
0.0
 11
35.215044164090763
 21
10.511671143114039
 31
0.0
  0
LINE
  5
275
  8
ﾚｲﾔ_1
  6
STITCH
 10
48.015044164090682
 20
7.3116711431140358
 30
0.0
 11
38.415044164090752
 21
7.3116711431140358
 31
0.0
  0
LINE
  5
276
  8
ﾚｲﾔ_1
  6
STITCH
 10
48.015044164090682
 20
7.3116711431140358
 30
0.0
 11
48.015044164090682
 21
4.11167114311404
 31
0.0
  0
LINE
  5
277
  8
ﾚｲﾔ_1
  6
STITCH
 10
38.415044164090752
 20
7.3116711431140358
 30
0.0
 11
38.415044164090752
 21
4.11167114311404
 31
0.0
  0
DIMENSION
  5
278
  8
寸法線
  2
*D22
 10
48.015044164090682
 20
-5.737408950951135
 30
0.0
 11
55.602960695590681
 21
-5.737408950951135
 31
0.0
 70
   128
  1
φ4
 13
38.415044164090752
 23
4.11167114311404
 33
0.0
 14
48.015044164090682
 24
4.11167114311404
 34
0.0
 50
180.0
  0
DIMENSION
  5
279
  8
寸法線
  2
*D23
 10
50.210774356530131
 20
28.620091656957239
 30
0.0
 11
42.897592361510299
 21
29.53923276095361
 31
0.0
 70
   133
  1
<>
 13
34.154383992490779
 23
11.57233131491404
 33
0.0
 14
52.275704335890737
 24
11.57233131491404
 34
0.0
 15
43.215044164090763
 25
2.5116711431140391
 35
0.0
1001
ACAD
1000
DSTYLE
1002
{
1070
   271
1070
     0
1002
}
  0
DIMENSION
  5
27A
  8
寸法線
  2
*D24
 10
35.215044164090763
 20
18.957888966892991
 30
0.0
 11
44.091110716102087
 21
18.957888966892991
 31
0.0
 70
   128
  1
φ8
 13
51.215044164090727
 23
10.511671143114039
 33
0.0
 14
35.215044164090763
 24
10.511671143114039
 34
0.0
  0
LINE
  5
27B
  8
ﾚｲﾔ_1
  6
BORDER
 62
     3
 10
43.215044164090763
 20
15.998402624514039
 30
0.0
 11
43.215044164090763
 21
-1.596389042085963
 31
0.0
  0
LINE
  5
27C
  8
ﾚｲﾔ_1
 62
     5
 10
16.447005430934951
 20
4.1116711431140436
 30
0.0
 11
68.744437304486155
 21
4.111671143114048
 31
0.0
  0
LINE
  5
27D
  8
ﾚｲﾔ_1
 62
     5
 10
16.447005430934951
 20
10.511671143114039
 30
0.0
 11
68.744437304486155
 21
10.511671143114039
 31
0.0
  0
LINE
  5
27E
  8
ﾚｲﾔ_1
  6
STITCH
 10
51.215044164090727
 20
10.511671143114039
 30
0.0
 11
48.015044164090682
 21
7.3116711431140358
 31
0.0
  0
ENDSEC
  0
EOF
