  0
SECTION
  2
HEADER
  9
$ACADVER
  1
AC1015
  9
$ACADMAINTVER
 70
               6
  9
$DWGCODEPAGE
  3
ANSI_932
  9
$INSBASE
 10
0.0
 20
0.0
 30
0.0
  9
$EXTMIN
 10
650.96216216216249
 20
-117.42319819819797
 30
0.0
  9
$EXTMAX
 10
1023.0378378378382
 20
-324.05563063063039
 30
0.0
  9
$LIMMIN
 10
0.0
 20
0.0
  9
$LIMMAX
 10
0.0
 20
0.0
  9
$ORTHOMODE
 70
               0
  9
$REGENMODE
 70
               1
  9
$FILLMODE
 70
               1
  9
$QTEXTMODE
 70
               0
  9
$MIRRTEXT
 70
               1
  9
$LTSCALE
 40
1.0
  9
$ATTMODE
 70
               1
  9
$TEXTSIZE
 40
0.2
  9
$TRACEWID
 40
0.05
  9
$TEXTSTYLE
  7
Standard
  9
$CLAYER
  8
0
  9
$CELTYPE
  6
Continuous
  9
$CECOLOR
 62
             256
  9
$CELTSCALE
 40
1.0
  9
$DISPSILH
 70
               0
  9
$DIMSCALE
 40
1.0
  9
$DIMASZ
 40
3.0
  9
$DIMEXO
 40
1.0
  9
$DIMDLI
 40
0.38
  9
$DIMRND
 40
0.0
  9
$DIMDLE
 40
0.0
  9
$DIMEXE
 40
0.5
  9
$DIMTP
 40
0.0
  9
$DIMTM
 40
0.0
  9
$DIMTXT
 40
3.5277777777777777
  9
$DIMCEN
 40
0.09
  9
$DIMTSZ
 40
0.0
  9
$DIMTOL
 70
               0
  9
$DIMLIM
 70
               0
  9
$DIMTIH
 70
               0
  9
$DIMTOH
 70
               0
  9
$DIMSE1
 70
               0
  9
$DIMSE2
 70
               0
  9
$DIMTAD
 70
               1
  9
$DIMZIN
 70
               0
  9
$DIMBLK
  1

  9
$DIMASO
 70
               1
  9
$DIMSHO
 70
               1
  9
$DIMPOST
  1

  9
$DIMAPOST
  1

  9
$DIMALT
 70
               0
  9
$DIMALTD
 70
               3
  9
$DIMALTF
 40
25.399999999999999
  9
$DIMLFAC
 40
1.0
  9
$DIMTOFL
 70
               0
  9
$DIMTVP
 40
0.0
  9
$DIMTIX
 70
               0
  9
$DIMSOXD
 70
               0
  9
$DIMSAH
 70
               0
  9
$DIMBLK1
  1

  9
$DIMBLK2
  1

  9
$DIMSTYLE
  2
Standard
  9
$DIMCLRD
 70
               7
  9
$DIMCLRE
 70
               7
  9
$DIMCLRT
 70
               7
  9
$DIMTFAC
 40
1.0
  9
$DIMGAP
 40
1.0
  9
$DIMJUST
 70
               0
  9
$DIMSD1
 70
               0
  9
$DIMSD2
 70
               0
  9
$DIMTOLJ
 70
               1
  9
$DIMTZIN
 70
               0
  9
$DIMALTZ
 70
               0
  9
$DIMALTTZ
 70
               0
  9
$DIMUPT
 70
               0
  9
$DIMDEC
 70
               3
  9
$DIMTDEC
 70
               4
  9
$DIMALTU
 70
               2
  9
$DIMALTTD
 70
               2
  9
$DIMTXSTY
  7
Standard
  9
$DIMAUNIT
 70
               0
  9
$DIMADEC
 70
               0
  9
$DIMALTRND
 40
0.0
  9
$DIMAZIN
 70
               0
  9
$DIMDSEP
 70
               0
  9
$DIMATFIT
 70
               3
  9
$DIMFRAC
 70
               0
  9
$DIMLDRBLK
  1

  9
$DIMLUNIT
 70
               2
  9
$DIMLWD
 70
               0
  9
$DIMLWE
 70
               0
  9
$DIMTMOVE
 70
               0
  9
$LUNITS
 70
               2
  9
$LUPREC
 70
               4
  9
$SKETCHINC
 40
0.1
  9
$FILLETRAD
 40
0.0
  9
$AUNITS
 70
               0
  9
$AUPREC
 70
               0
  9
$MENU
  1
acad
  9
$ELEVATION
 40
0.0
  9
$PELEVATION
 40
0.0
  9
$THICKNESS
 40
0.0
  9
$LIMCHECK
 70
               0
  9
$CHAMFERA
 40
0.0
  9
$CHAMFERB
 40
0.0
  9
$CHAMFERC
 40
0.0
  9
$CHAMFERD
 40
0.0
  9
$SKPOLY
 70
               0
  9
$TDCREATE
 40
2455847.740798611
  9
$TDUCREATE
 40
0.000000000
  9
$TDUPDATE
 40
2455847.740798611
  9
$TDUUPDATE
 40
0.000000000
  9
$TDINDWG
 40
0.0000000000
  9
$TDUSRTIMER
 40
0.0000000000
  9
$USRTIMER
 70
               1
  9
$ANGBASE
 50
0.0
  9
$ANGDIR
 70
               0
  9
$PDMODE
 70
               0
  9
$PDSIZE
 40
0.0
  9
$PLINEWID
 40
0.0
  9
$SPLFRAME
 70
               0
  9
$SPLINETYPE
 70
               6
  9
$SPLINESEGS
 70
               8
  9
$HANDSEED
  5
200
  9
$SURFTAB1
 70
               6
  9
$SURFTAB2
 70
               6
  9
$SURFTYPE
 70
               6
  9
$SURFU
 70
               6
  9
$SURFV
 70
               6
  9
$UCSBASE
  2

  9
$UCSNAME
  2

  9
$UCSORG
 10
0.0
 20
0.0
 30
0.0
  9
$UCSXDIR
 10
1.0
 20
0.0
 30
0.0
  9
$UCSYDIR
 10
0.0
 20
1.0
 30
0.0
  9
$UCSORTHOREF
  2

  9
$UCSORTHOVIEW
 70
               0
  9
$UCSORGTOP
 10
0.0
 20
0.0
 30
0.0
  9
$UCSORGBOTTOM
 10
0.0
 20
0.0
 30
0.0
  9
$UCSORGLEFT
 10
0.0
 20
0.0
 30
0.0
  9
$UCSORGRIGHT
 10
0.0
 20
0.0
 30
0.0
  9
$UCSORGFRONT
 10
0.0
 20
0.0
 30
0.0
  9
$UCSORGBACK
 10
0.0
 20
0.0
 30
0.0
  9
$PUCSBASE
  2

  9
$PUCSNAME
  2

  9
$PUCSORG
 10
0.0
 20
0.0
 30
0.0
  9
$PUCSXDIR
 10
1.0
 20
0.0
 30
0.0
  9
$PUCSYDIR
 10
0.0
 20
1.0
 30
0.0
  9
$PUCSORTHOREF
  2

  9
$PUCSORTHOVIEW
 70
               0
  9
$PUCSORGTOP
 10
0.0
 20
0.0
 30
0.0
  9
$PUCSORGBOTTOM
 10
0.0
 20
0.0
 30
0.0
  9
$PUCSORGLEFT
 10
0.0
 20
0.0
 30
0.0
  9
$PUCSORGRIGHT
 10
0.0
 20
0.0
 30
0.0
  9
$PUCSORGFRONT
 10
0.0
 20
0.0
 30
0.0
  9
$PUCSORGBACK
 10
0.0
 20
0.0
 30
0.0
  9
$USERI1
 70
               0
  9
$USERI2
 70
               0
  9
$USERI3
 70
               0
  9
$USERI4
 70
               0
  9
$USERI5
 70
               0
  9
$USERR1
 40
0.0
  9
$USERR2
 40
0.0
  9
$USERR3
 40
0.0
  9
$USERR4
 40
0.0
  9
$USERR5
 40
0.0
  9
$WORLDVIEW
 70
               1
  9
$SHADEDGE
 70
               3
  9
$SHADEDIF
 70
              70
  9
$TILEMODE
 70
               1
  9
$MAXACTVP
 70
              16
  9
$PINSBASE
 10
0.0
 20
0.0
 30
0.0
  9
$PLIMCHECK
 70
               0
  9
$PEXTMIN
 10
1.0000000000000000E+20
 20
1.0000000000000000E+20
 30
1.0000000000000000E+20
  9
$PEXTMAX
 10
-1.0000000000000000E+20
 20
-1.0000000000000000E+20
 30
-1.0000000000000000E+20
  9
$PLIMMIN
 10
0.0
 20
0.0
  9
$PLIMMAX
 10
12.0
 20
9.0
  9
$UNITMODE
 70
               0
  9
$VISRETAIN
 70
               0
  9
$PLINEGEN
 70
               1
  9
$PSLTSCALE
 70
               0
  9
$TREEDEPTH
 70
            3020
  9
$CMLSTYLE
  2
Standard
  9
$CMLJUST
 70
               0
  9
$CMLSCALE
 40
1.0
  9
$PROXYGRAPHICS
 70
               0
  9
$MEASUREMENT
 70
               0
  9
$CELWEIGHT
370
               0
  9
$ENDCAPS
280
               0
  9
$JOINSTYLE
280
               0
  9
$LWDISPLAY
290
               0
  9
$INSUNITS
 70
               0
  9
$HYPERLINKBASE
  1

  9
$STYLESHEET
  1

  9
$XEDIT
290
               1
  9
$CEPSNTYPE
380
               0
  9
$PSTYLEMODE
290
               1
  9
$FINGERPRINTGUID
  2

  9
$VERSIONGUID
  2

  9
$EXTNAMES
290
               1
  9
$PSVPSCALE
 40
0.0
  0
ENDSEC
  0
SECTION
  2
CLASSES
  0
CLASS
  1
LWPOLYLINE
  2
AcDbPolyline
  3
AutoCAD 2000
 90
        0
280
               0
281
               1
  0
CLASS
  1
IMAGE
  2
AcDbRasterImage
  3
ISM
 90
      127
280
               0
281
               1
  0
CLASS
  1
OLE2FRAME
  2
AcDbOle2Frame
  3
AutoCAD 2000
 90
        0
280
               0
281
               1
  0
CLASS
  1
HATCH
  2
AcDbHatch
  3
AutoCAD 2000
 90
        0
280
               0
281
               1
  0
CLASS
  1
DICTIONARYVAR
  2
AcDbDictionaryVar
  3
AutoCAD 2000
 90
        0
280
               0
281
               0
  0
CLASS
  1
RASTERVARIABLES
  2
AcDbRasterVariables
  3
ISM
 90
        0
280
               0
281
               0
  0
CLASS
  1
IMAGEDEF
  2
AcDbRasterImageDef
  3
ISM
 90
        0
280
               0
281
               0
  0
CLASS
  1
IMAGEDEF_REACTOR
  2
AcDbRasterImageDefReactor
  3
ISM
 90
        1
280
               0
281
               0
  0
CLASS
  1
IDBUFFER
  2
AcDbIdBuffer
  3
AutoCAD 2000
 90
        0
280
               0
281
               0
  0
CLASS
  1
SPATIAL_FILTER
  2
AcDbSpatialFilter
  3
AutoCAD 2000
 90
        0
280
               0
281
               0
  0
CLASS
  1
XRECORD
  2
AcDbXrecord
  3
AutoCAD 2000
 90
        0
280
               0
281
               0
  0
CLASS
  1
SORTENTSTABLE
  2
AcDbSortentsTable
  3
AutoCAD 2000
 90
        0
280
               0
281
               0
  0
CLASS
  1
LAYER_INDEX
  2
AcDbLayerIndex
  3
AutoCAD 2000
 90
        0
280
               0
281
               0
  0
CLASS
  1
SPATIAL_INDEX
  2
AcDbSpatialIndex
  3
AutoCAD 2000
 90
        0
280
               0
281
               0
  0
CLASS
  1
OBJECT_PTR
  2
CAseDLPNTableRecord
  3
"ASE-LPNTableRecord"
 90
        1
280
               0
281
               0
  0
CLASS
  1
LAYOUT
  2
AcDbLayout
  3
AutoCAD 2000
 90
        0
280
               0
281
               0
  0
CLASS
  1
PLOTSETTINGS
  2
AcDbPlotSettings
  3
AutoCAD 2000
 90
        0
280
               0
281
               0
  0
CLASS
  1
ACDBDICTIONARYWDFLT
  2
AcDbDictionaryWithDefault
  3
AutoCAD 2000
 90
        0
280
               0
281
               0
  0
CLASS
  1
ACDBPLACEHOLDER
  2
AcDbPlaceHolder
  3
AutoCAD 2000
 90
        0
280
               0
281
               0
  0
CLASS
  1
VBA_PROJECT
  2
AcDbVbaProject
  3
acadvba
 90
        0
280
               0
281
               0
  0
CLASS
  1
WIPEOUT
  2
AcDbWipeout
  3
WipeOut|AutoCAD Express Tool|expresstools@autodesk.com
 90
      127
280
               0
281
               1
  0
CLASS
  1
WIPEOUTVARIABLES
  2
AcDbWipeoutVariables
  3
WipeOut|AutoCAD Express Tool|expresstools@autodesk.com
 90
        0
280
               0
281
               0
  0
CLASS
  1
RTEXT
  2
RText
  3
RText|AutoCAD Express Tool|expresstools@autodesk.com
 90
        0
280
               0
281
               1
  0
CLASS
  1
ARCALIGNEDTEXT
  2
AcDbArcAlignedText
  3
ATEXT|AutoCAD Express Tool|expresstools@autodesk.com
 90
        0
280
               0
281
               1
  0
ENDSEC
  0
SECTION
  2
TABLES
  0
TABLE
  2
VPORT
  5
7
100
AcDbSymbolTable
 70
               1
  0
VPORT
  5
15
100
AcDbSymbolTableRecord
100
AcDbViewportTableRecord
  2
*ACTIVE
 70
               0
 10
0.0
 20
0.0
 11
1.0
 21
1.0
 12
6.5912879999999996
 22
4.5791839999999997
 13
0.0
 23
0.0
 14
1.0
 24
1.0
 15
0.0
 25
0.0
 16
0.0
 26
0.0
 36
1.0
 17
0.0
 27
0.0
 37
0.0
 40
9.1583690000000004
 41
0.688564
 42
50.0
 43
0.0
 44
0.0
 50
0.0
 51
0.0
 71
               0
 72
             100
 73
               1
 74
               1
 75
               0
 76
               0
 77
               0
 78
               0
281
               0
 65
               0
110
0.0
120
0.0
130
0.0
111
1.0
121
0.0
131
0.0
112
0.0
122
1.0
132
0.0
345
0
346
0
 79
               0
146
0.0
  0
ENDTAB
  0
TABLE
  2
LTYPE
  5
4
100
AcDbSymbolTable
 70
              13
  0
LTYPE
  5
11
100
AcDbSymbolTableRecord
100
AcDbLinetypeTableRecord
  2
ByBlock
 70
              64
  3

 72
              65
 73
               0
 40
0.0
  0
LTYPE
  5
12
100
AcDbSymbolTableRecord
100
AcDbLinetypeTableRecord
  2
ByLayer
 70
              64
  3

 72
              65
 73
               0
 40
0.0
  0
LTYPE
  5
13
100
AcDbSymbolTableRecord
100
AcDbLinetypeTableRecord
  2
Continuous
 70
              64
  3
Solid line
 72
              65
 73
               0
 40
0.0
  0
LTYPE
  5
24
100
AcDbSymbolTableRecord
100
AcDbLinetypeTableRecord
  2
DOT
 70
              64
  3

 72
              65
 73
               2
 40
1.0
 49
0.0
 74
               0
 49
-1.0
 74
               0
  0
LTYPE
  5
25
100
AcDbSymbolTableRecord
100
AcDbLinetypeTableRecord
  2
DASHEDX2
 70
              64
  3

 72
              65
 73
               2
 40
4.0
 49
3.0
 74
               0
 49
-1.0
 74
               0
  0
LTYPE
  5
26
100
AcDbSymbolTableRecord
100
AcDbLinetypeTableRecord
  2
DASHED
 70
              64
  3

 72
              65
 73
               2
 40
3.0
 49
2.0
 74
               0
 49
-1.0
 74
               0
  0
LTYPE
  5
27
100
AcDbSymbolTableRecord
100
AcDbLinetypeTableRecord
  2
DASHED2
 70
              64
  3

 72
              65
 73
               2
 40
2.0
 49
1.0
 74
               0
 49
-1.0
 74
               0
  0
LTYPE
  5
28
100
AcDbSymbolTableRecord
100
AcDbLinetypeTableRecord
  2
CENTERX2
 70
              64
  3

 72
              65
 73
               4
 40
43.0
 49
40.0
 74
               0
 49
-1.0
 74
               0
 49
1.0
 74
               0
 49
-1.0
 74
               0
  0
LTYPE
  5
29
100
AcDbSymbolTableRecord
100
AcDbLinetypeTableRecord
  2
CENTER
 70
              64
  3

 72
              65
 73
               4
 40
33.0
 49
30.0
 74
               0
 49
-1.0
 74
               0
 49
1.0
 74
               0
 49
-1.0
 74
               0
  0
LTYPE
  5
2A
100
AcDbSymbolTableRecord
100
AcDbLinetypeTableRecord
  2
CENTER2
 70
              64
  3

 72
              65
 73
               4
 40
23.0
 49
20.0
 74
               0
 49
-1.0
 74
               0
 49
1.0
 74
               0
 49
-1.0
 74
               0
  0
LTYPE
  5
2B
100
AcDbSymbolTableRecord
100
AcDbLinetypeTableRecord
  2
PHANTOMX2
 70
              64
  3

 72
              65
 73
               6
 40
45.0
 49
40.0
 74
               0
 49
-1.0
 74
               0
 49
1.0
 74
               0
 49
-1.0
 74
               0
 49
1.0
 74
               0
 49
-1.0
 74
               0
  0
LTYPE
  5
2C
100
AcDbSymbolTableRecord
100
AcDbLinetypeTableRecord
  2
PHANTOM
 70
              64
  3

 72
              65
 73
               6
 40
35.0
 49
30.0
 74
               0
 49
-1.0
 74
               0
 49
1.0
 74
               0
 49
-1.0
 74
               0
 49
1.0
 74
               0
 49
-1.0
 74
               0
  0
LTYPE
  5
2D
100
AcDbSymbolTableRecord
100
AcDbLinetypeTableRecord
  2
PHANTOM2
 70
              64
  3

 72
              65
 73
               6
 40
25.0
 49
20.0
 74
               0
 49
-1.0
 74
               0
 49
1.0
 74
               0
 49
-1.0
 74
               0
 49
1.0
 74
               0
 49
-1.0
 74
               0
  0
ENDTAB
  0
TABLE
  2
LAYER
  5
2
100
AcDbSymbolTable
 70
              11
  0
LAYER
  5
14
100
AcDbSymbolTableRecord
100
AcDbLayerTableRecord
  2
0
 70
               0
 62
               7
  6
Continuous
290
               1
370
              -3
390
1D
  0
LAYER
  5
2E
100
AcDbSymbolTableRecord
100
AcDbLayerTableRecord
  2
DEFPOINTS
 70
               0
 62
               7
  6
Continuous
290
               0
370
              -3
390
1D
  0
LAYER
  5
2F
100
AcDbSymbolTableRecord
100
AcDbLayerTableRecord
  2
____1
 70
               0
 62
               5
  6
Continuous
290
               1
370
              -3
390
1D
  0
LAYER
  5
30
100
AcDbSymbolTableRecord
100
AcDbLayerTableRecord
  2
______
 70
               0
 62
               7
  6
Continuous
290
               1
370
              -3
390
1D
  0
LAYER
  5
31
100
AcDbSymbolTableRecord
100
AcDbLayerTableRecord
  2
寸法線_1
 70
               0
 62
               7
  6
Continuous
290
               1
370
              -3
390
1D
  0
LAYER
  5
32
100
AcDbSymbolTableRecord
100
AcDbLayerTableRecord
  2
CONSTRUCTION
 70
               0
 62
               7
  6
Continuous
290
               1
370
              -3
390
1D
  0
LAYER
  5
33
100
AcDbSymbolTableRecord
100
AcDbLayerTableRecord
  2
DIMENSION
 70
               0
 62
               7
  6
Continuous
290
               1
370
              -3
390
1D
  0
LAYER
  5
34
100
AcDbSymbolTableRecord
100
AcDbLayerTableRecord
  2
FORMAT
 70
               0
 62
               7
  6
Continuous
290
               1
370
              -3
390
1D
  0
LAYER
  5
35
100
AcDbSymbolTableRecord
100
AcDbLayerTableRecord
  2
____2
 70
               0
 62
               5
  6
Continuous
290
               1
370
              -3
390
1D
  0
LAYER
  5
36
100
AcDbSymbolTableRecord
100
AcDbLayerTableRecord
  2
0_1
 70
               0
 62
               5
  6
Continuous
290
               1
370
              -3
390
1D
  0
LAYER
  5
37
100
AcDbSymbolTableRecord
100
AcDbLayerTableRecord
  2
DEFPOINTS_1
 70
               0
 62
               5
  6
Continuous
290
               1
370
              -3
390
1D
  0
ENDTAB
  0
TABLE
  2
STYLE
  5
3
100
AcDbSymbolTable
 70
               2
  0
STYLE
  5
17
100
AcDbSymbolTableRecord
100
AcDbTextStyleTableRecord
  2
Standard
 70
               0
 40
0.0
 41
1.0
 50
0.0
 71
               0
 42
0.35
  3
txt
  4

  0
STYLE
  5
3C
100
AcDbSymbolTableRecord
100
AcDbTextStyleTableRecord
  2
Style1
 70
               0
 40
0.0
 41
1.0
 50
0.0
 71
               0
 42
0.35
  3
ＭＳ ゴシック
  4

  0
ENDTAB
  0
TABLE
  2
VIEW
  5
5
100
AcDbSymbolTable
 70
               0
  0
ENDTAB
  0
TABLE
  2
UCS
  5
6
100
AcDbSymbolTable
 70
               0
  0
ENDTAB
  0
TABLE
  2
APPID
  5
8
100
AcDbSymbolTable
 70
               1
  0
APPID
  5
16
100
AcDbSymbolTableRecord
100
AcDbRegAppTableRecord
  2
ACAD
 70
               0
  0
ENDTAB
  0
TABLE
  2
DIMSTYLE
  5
9
100
AcDbSymbolTable
 70
               2
100
AcDbDimStyleTable
 71
               0
  0
DIMSTYLE
105
18
100
AcDbSymbolTableRecord
100
AcDbDimStyleTableRecord
  2
Standard
 70
               0
  3

  4

 40
1.0
 41
3.0
 42
1.0
 43
0.38
 44
0.5
 45
0.0
 46
0.0
 47
0.0
 48
0.0
 71
               0
 72
               0
 73
               0
 74
               0
 75
               0
 76
               0
 77
               1
 78
               0
 79
               0
140
3.5277777777777777
141
0.09
142
0.0
143
25.399999999999999
144
1.0
145
0.0
146
1.0
147
1.0
148
0.0
170
               0
171
               3
172
               0
173
               0
174
               0
175
               0
176
               7
177
               7
178
               7
179
               0
271
               3
272
               4
273
               2
274
               2
275
               0
276
               0
277
               2
278
              46
279
               0
280
               0
281
               0
282
               0
283
               1
284
               0
285
               0
286
               0
288
               0
289
               0
340
17
341
0
342
0
343
0
344
0
371
              -2
372
              -2
  0
DIMSTYLE
105
60
100
AcDbSymbolTableRecord
100
AcDbDimStyleTableRecord
  2
DS1
 70
               0
  3

  4

 40
1.0
 41
3.0
 42
1.0
 43
0.38
 44
0.5
 45
0.0
 46
0.0
 47
0.0
 48
0.0
 71
               0
 72
               0
 73
               0
 74
               0
 75
               0
 76
               0
 77
               1
 78
               8
 79
               0
140
3.5277776718139648
141
0.09
142
0.0
143
25.399999999999999
144
1.0
145
0.0
146
1.0
147
1.0
148
0.0
170
               0
171
               3
172
               0
173
               0
174
               0
175
               0
176
               7
177
               7
178
               7
179
               0
271
               3
272
               4
273
               2
274
               2
275
               0
276
               0
277
               2
278
              46
279
               0
280
               0
281
               0
282
               0
283
               1
284
               0
285
               0
286
               0
288
               0
289
               3
340
17
341
0
342
0
343
0
344
0
371
              -2
372
              -2
  0
ENDTAB
  0
TABLE
  2
BLOCK_RECORD
  5
1
100
AcDbSymbolTable
 70
              15
  0
BLOCK_RECORD
  5
A
100
AcDbSymbolTableRecord
100
AcDbBlockTableRecord
  2
*MODEL_SPACE
340
20
  0
BLOCK_RECORD
  5
B
100
AcDbSymbolTableRecord
100
AcDbBlockTableRecord
  2
*PAPER_SPACE
340
21
  0
BLOCK_RECORD
  5
38
100
AcDbSymbolTableRecord
100
AcDbBlockTableRecord
  2
C0
340
0
102
{BLKREFS
331
40
102
}
  0
BLOCK_RECORD
  5
50
100
AcDbSymbolTableRecord
100
AcDbBlockTableRecord
  2
*D1
340
0
  0
BLOCK_RECORD
  5
61
100
AcDbSymbolTableRecord
100
AcDbBlockTableRecord
  2
*D2
340
0
  0
BLOCK_RECORD
  5
6E
100
AcDbSymbolTableRecord
100
AcDbBlockTableRecord
  2
*D3
340
0
  0
BLOCK_RECORD
  5
7B
100
AcDbSymbolTableRecord
100
AcDbBlockTableRecord
  2
*D4
340
0
  0
BLOCK_RECORD
  5
A2
100
AcDbSymbolTableRecord
100
AcDbBlockTableRecord
  2
C1
340
0
102
{BLKREFS
331
A9
102
}
  0
BLOCK_RECORD
  5
BB
100
AcDbSymbolTableRecord
100
AcDbBlockTableRecord
  2
*D6
340
0
  0
BLOCK_RECORD
  5
C8
100
AcDbSymbolTableRecord
100
AcDbBlockTableRecord
  2
*D7
340
0
  0
BLOCK_RECORD
  5
D5
100
AcDbSymbolTableRecord
100
AcDbBlockTableRecord
  2
*D8
340
0
  0
BLOCK_RECORD
  5
E5
100
AcDbSymbolTableRecord
100
AcDbBlockTableRecord
  2
*D9
340
0
  0
BLOCK_RECORD
  5
F3
100
AcDbSymbolTableRecord
100
AcDbBlockTableRecord
  2
*D10
340
0
  0
BLOCK_RECORD
  5
103
100
AcDbSymbolTableRecord
100
AcDbBlockTableRecord
  2
*D11
340
0
  0
BLOCK_RECORD
  5
111
100
AcDbSymbolTableRecord
100
AcDbBlockTableRecord
  2
*D12
340
0
  0
BLOCK_RECORD
  5
11E
100
AcDbSymbolTableRecord
100
AcDbBlockTableRecord
  2
*D13
340
0
  0
BLOCK_RECORD
  5
12B
100
AcDbSymbolTableRecord
100
AcDbBlockTableRecord
  2
*D14
340
0
  0
ENDTAB
  0
ENDSEC
  0
SECTION
  2
BLOCKS
  0
BLOCK
  5
D
100
AcDbEntity
  8
0
390
0
100
AcDbBlockBegin
  2
*MODEL_SPACE
 70
               0
 10
0.0
 20
0.0
 30
0.0
  3
*MODEL_SPACE
  1

  0
ENDBLK
  5
E
100
AcDbEntity
  8
0
390
0
100
AcDbBlockEnd
  0
BLOCK
  5
F
100
AcDbEntity
 67
               1
  8
0
390
0
100
AcDbBlockBegin
  2
*PAPER_SPACE
 70
               0
 10
0.0
 20
0.0
 30
0.0
  3
*PAPER_SPACE
  1

  0
ENDBLK
  5
10
100
AcDbEntity
 67
               1
  8
0
390
0
100
AcDbBlockEnd
  0
BLOCK
  5
39
100
AcDbEntity
  8
0
390
0
100
AcDbBlockBegin
  2
C0
 70
              64
 10
0.0
 20
0.0
 30
0.0
  3
C0
  1

  0
LINE
  5
3A
100
AcDbEntity
  8
____1
370
              18
390
0
  6
Continuous
 62
               5
100
AcDbLine
 10
887.60723895333513
 20
-136.6096145050889
 30
0.0
 11
892.55723895333495
 21
-136.6096145050889
 31
0.0
  0
MTEXT
  5
3B
100
AcDbEntity
  8
____1
370
               5
390
0
  6
Continuous
 62
               7
100
AcDbMText
 10
888.499495928545
 20
-133.55979851527255
 30
0.0
 40
2.9266439437866216
 41
3.1654860495798762
 71
               1
 72
               1
  1
1
  7
Style1
 73
               1
 44
1.0
  0
LINE
  5
3D
100
AcDbEntity
  8
____1
370
              18
390
0
  6
Continuous
 62
               5
100
AcDbLine
 10
890.08223895333504
 20
-132.32278875635589
 30
0.0
 11
887.60723895333513
 21
-136.6096145050889
 31
0.0
  0
LINE
  5
3E
100
AcDbEntity
  8
____1
370
              18
390
0
  6
Continuous
 62
               5
100
AcDbLine
 10
890.08223895333504
 20
-132.32278875635589
 30
0.0
 11
892.55723895333495
 21
-136.6096145050889
 31
0.0
  0
ENDBLK
  5
3F
100
AcDbEntity
  8
0
390
0
100
AcDbBlockEnd
  0
BLOCK
  5
51
100
AcDbEntity
  8
0
390
0
100
AcDbBlockBegin
  2
*D1
 70
              65
 10
0.0
 20
0.0
 30
0.0
  3
*D1
  1

  0
LINE
  5
52
100
AcDbEntity
  8
____1
370
              18
390
0
  6
Continuous
 62
               7
100
AcDbLine
 10
945.97695021528943
 20
-182.36428808753024
 30
0.0
 11
945.97695021528943
 21
-194.8642880875303
 31
0.0
  0
LINE
  5
53
100
AcDbEntity
  8
____1
370
              18
390
0
  6
Continuous
 62
               7
100
AcDbLine
 10
936.97695021528943
 20
-194.8642880875303
 30
0.0
 11
946.47695021528943
 21
-194.8642880875303
 31
0.0
  0
LINE
  5
54
100
AcDbEntity
  8
____1
370
              18
390
0
  6
Continuous
 62
               7
100
AcDbLine
 10
936.97695021528943
 20
-182.36428808753024
 30
0.0
 11
946.47695021528943
 21
-182.36428808753024
 31
0.0
  0
SOLID
  5
55
100
AcDbEntity
  8
____1
370
               5
390
0
  6
Continuous
 62
               7
100
AcDbTrace
 10
945.97695021528943
 20
-182.36428808753024
 30
0.0
 11
945.97695021528943
 21
-182.36428808753024
 31
0.0
 12
945.41445021528943
 22
-180.11428808753024
 32
0.0
 13
946.53945021528943
 23
-180.11428808753024
 33
0.0
  0
SOLID
  5
56
100
AcDbEntity
  8
____1
370
               5
390
0
  6
Continuous
 62
               7
100
AcDbTrace
 10
945.41445021528943
 20
-180.11428808753024
 30
0.0
 11
945.97695021528943
 21
-180.11428808753024
 31
0.0
 12
945.22695021528943
 22
-179.36428808753024
 32
0.0
 13
945.22695021528943
 23
-179.36428808753024
 33
0.0
  0
SOLID
  5
57
100
AcDbEntity
  8
____1
370
               5
390
0
  6
Continuous
 62
               7
100
AcDbTrace
 10
945.97695021528943
 20
-180.11428808753024
 30
0.0
 11
946.53945021528943
 21
-180.11428808753024
 31
0.0
 12
946.72695021528943
 22
-179.36428808753024
 32
0.0
 13
946.72695021528943
 23
-179.36428808753024
 33
0.0
  0
LINE
  5
58
100
AcDbEntity
  8
____1
370
              18
390
0
  6
Continuous
 62
               7
100
AcDbLine
 10
945.97695021528943
 20
-182.36428808753024
 30
0.0
 11
945.97695021528943
 21
-179.36428808753024
 31
0.0
  0
SOLID
  5
59
100
AcDbEntity
  8
____1
370
               5
390
0
  6
Continuous
 62
               7
100
AcDbTrace
 10
945.22695021528943
 20
-197.8642880875303
 30
0.0
 11
945.22695021528943
 21
-197.8642880875303
 31
0.0
 12
945.41445021528943
 22
-197.1142880875303
 32
0.0
 13
945.97695021528943
 23
-197.1142880875303
 33
0.0
  0
SOLID
  5
5A
100
AcDbEntity
  8
____1
370
               5
390
0
  6
Continuous
 62
               7
100
AcDbTrace
 10
946.72695021528943
 20
-197.8642880875303
 30
0.0
 11
946.72695021528943
 21
-197.8642880875303
 31
0.0
 12
945.97695021528943
 22
-197.1142880875303
 32
0.0
 13
946.53945021528943
 23
-197.1142880875303
 33
0.0
  0
SOLID
  5
5B
100
AcDbEntity
  8
____1
370
               5
390
0
  6
Continuous
 62
               7
100
AcDbTrace
 10
945.41445021528943
 20
-197.1142880875303
 30
0.0
 11
946.53945021528943
 21
-197.1142880875303
 31
0.0
 12
945.97695021528943
 22
-194.8642880875303
 32
0.0
 13
945.97695021528943
 23
-194.8642880875303
 33
0.0
  0
LINE
  5
5C
100
AcDbEntity
  8
____1
370
              18
390
0
  6
Continuous
 62
               7
100
AcDbLine
 10
945.97695021528943
 20
-194.8642880875303
 30
0.0
 11
945.97695021528943
 21
-197.8642880875303
 31
0.0
  0
MTEXT
  5
5D
100
AcDbEntity
  8
寸法線_1
370
              18
390
0
  6
Continuous
 62
               7
100
AcDbMText
 10
941.44917254347547
 20
-192.14206575934421
 30
0.0
 40
3.5277776718139648
 41
7.0831161066889763
 71
               1
 72
               1
  1
12.5
  7
Style1
 11
0.0
 21
1.0
 31
0.0
 73
               1
 44
1.0
  0
ENDBLK
  5
5E
100
AcDbEntity
  8
0
390
0
100
AcDbBlockEnd
  0
BLOCK
  5
62
100
AcDbEntity
  8
0
390
0
100
AcDbBlockBegin
  2
*D2
 70
              65
 10
0.0
 20
0.0
 30
0.0
  3
*D2
  1

  0
LINE
  5
63
100
AcDbEntity
  8
____1
370
              18
390
0
  6
Continuous
 62
               7
100
AcDbLine
 10
935.97695021528943
 20
-181.36428808753024
 30
0.0
 11
935.97695021528943
 21
-171.86428808753024
 31
0.0
  0
LINE
  5
64
100
AcDbEntity
  8
____1
370
              18
390
0
  6
Continuous
 62
               7
100
AcDbLine
 10
913.47695021528943
 20
-181.36428808753024
 30
0.0
 11
913.47695021528943
 21
-171.86428808753024
 31
0.0
  0
SOLID
  5
65
100
AcDbEntity
  8
____1
370
               5
390
0
  6
Continuous
 62
               7
100
AcDbTrace
 10
916.47695021528943
 20
-173.11428808753024
 30
0.0
 11
916.47695021528943
 21
-173.11428808753024
 31
0.0
 12
913.47695021528943
 22
-172.36428808753024
 32
0.0
 13
915.72695021528943
 23
-172.36428808753024
 33
0.0
  0
SOLID
  5
66
100
AcDbEntity
  8
____1
370
               5
390
0
  6
Continuous
 62
               7
100
AcDbTrace
 10
913.47695021528943
 20
-172.36428808753024
 30
0.0
 11
915.72695021528943
 21
-172.36428808753024
 31
0.0
 12
916.47695021528943
 22
-171.61428808753024
 32
0.0
 13
916.47695021528943
 23
-171.61428808753024
 33
0.0
  0
LINE
  5
67
100
AcDbEntity
  8
____1
370
              18
390
0
  6
Continuous
 62
               7
100
AcDbLine
 10
913.47695021528943
 20
-172.36428808753024
 30
0.0
 11
924.72695021528943
 21
-172.36428808753024
 31
0.0
  0
SOLID
  5
68
100
AcDbEntity
  8
____1
370
               5
390
0
  6
Continuous
 62
               7
100
AcDbTrace
 10
932.97695021528943
 20
-173.11428808753024
 30
0.0
 11
932.97695021528943
 21
-173.11428808753024
 31
0.0
 12
933.72695021528943
 22
-172.36428808753024
 32
0.0
 13
935.97695021528943
 23
-172.36428808753024
 33
0.0
  0
SOLID
  5
69
100
AcDbEntity
  8
____1
370
               5
390
0
  6
Continuous
 62
               7
100
AcDbTrace
 10
933.72695021528943
 20
-172.36428808753024
 30
0.0
 11
935.97695021528943
 21
-172.36428808753024
 31
0.0
 12
932.97695021528943
 22
-171.61428808753024
 32
0.0
 13
932.97695021528943
 23
-171.61428808753024
 33
0.0
  0
LINE
  5
6A
100
AcDbEntity
  8
____1
370
              18
390
0
  6
Continuous
 62
               7
100
AcDbLine
 10
935.97695021528943
 20
-172.36428808753024
 30
0.0
 11
924.72695021528943
 21
-172.36428808753024
 31
0.0
  0
MTEXT
  5
6B
100
AcDbEntity
  8
寸法線_1
370
              18
390
0
  6
Continuous
 62
               7
100
AcDbMText
 10
921.19917254347547
 20
-167.83651041571628
 30
0.0
 40
3.5277776718139648
 41
7.0831161066889763
 71
               1
 72
               1
  1
22.5
  7
Style1
 73
               1
 44
1.0
  0
ENDBLK
  5
6C
100
AcDbEntity
  8
0
390
0
100
AcDbBlockEnd
  0
BLOCK
  5
6F
100
AcDbEntity
  8
0
390
0
100
AcDbBlockBegin
  2
*D3
 70
              65
 10
0.0
 20
0.0
 30
0.0
  3
*D3
  1

  0
LINE
  5
70
100
AcDbEntity
  8
____1
370
              18
390
0
  6
Continuous
 62
               7
100
AcDbLine
 10
824.82452227084457
 20
-244.00554272670496
 30
0.0
 11
824.82452227084457
 21
-225.56603058174693
 31
0.0
  0
LINE
  5
71
100
AcDbEntity
  8
____1
370
              18
390
0
  6
Continuous
 62
               7
100
AcDbLine
 10
800.32452227084457
 20
-244.00554272670496
 30
0.0
 11
800.32452227084457
 21
-225.56603058174693
 31
0.0
  0
SOLID
  5
72
100
AcDbEntity
  8
____1
370
               5
390
0
  6
Continuous
 62
               7
100
AcDbTrace
 10
803.32452227084457
 20
-226.81603058174693
 30
0.0
 11
803.32452227084457
 21
-226.81603058174693
 31
0.0
 12
800.32452227084457
 22
-226.06603058174693
 32
0.0
 13
802.57452227084457
 23
-226.06603058174693
 33
0.0
  0
SOLID
  5
73
100
AcDbEntity
  8
____1
370
               5
390
0
  6
Continuous
 62
               7
100
AcDbTrace
 10
800.32452227084457
 20
-226.06603058174693
 30
0.0
 11
802.57452227084457
 21
-226.06603058174693
 31
0.0
 12
803.32452227084457
 22
-225.31603058174693
 32
0.0
 13
803.32452227084457
 23
-225.31603058174693
 33
0.0
  0
LINE
  5
74
100
AcDbEntity
  8
____1
370
              18
390
0
  6
Continuous
 62
               7
100
AcDbLine
 10
800.32452227084457
 20
-226.06603058174693
 30
0.0
 11
812.57452227084457
 21
-226.06603058174693
 31
0.0
  0
SOLID
  5
75
100
AcDbEntity
  8
____1
370
               5
390
0
  6
Continuous
 62
               7
100
AcDbTrace
 10
821.82452227084457
 20
-226.81603058174693
 30
0.0
 11
821.82452227084457
 21
-226.81603058174693
 31
0.0
 12
822.57452227084457
 22
-226.06603058174693
 32
0.0
 13
824.82452227084457
 23
-226.06603058174693
 33
0.0
  0
SOLID
  5
76
100
AcDbEntity
  8
____1
370
               5
390
0
  6
Continuous
 62
               7
100
AcDbTrace
 10
822.57452227084457
 20
-226.06603058174693
 30
0.0
 11
824.82452227084457
 21
-226.06603058174693
 31
0.0
 12
821.82452227084457
 22
-225.31603058174693
 32
0.0
 13
821.82452227084457
 23
-225.31603058174693
 33
0.0
  0
LINE
  5
77
100
AcDbEntity
  8
____1
370
              18
390
0
  6
Continuous
 62
               7
100
AcDbLine
 10
824.82452227084457
 20
-226.06603058174693
 30
0.0
 11
812.57452227084457
 21
-226.06603058174693
 31
0.0
  0
MTEXT
  5
78
100
AcDbEntity
  8
寸法線_1
370
              18
390
0
  6
Continuous
 62
               7
100
AcDbMText
 10
809.0467445990306
 20
-221.53825290993296
 30
0.0
 40
3.5277776718139648
 41
7.0831161066889763
 71
               1
 72
               1
  1
24.5
  7
Style1
 73
               1
 44
1.0
  0
ENDBLK
  5
79
100
AcDbEntity
  8
0
390
0
100
AcDbBlockEnd
  0
BLOCK
  5
7C
100
AcDbEntity
  8
0
390
0
100
AcDbBlockBegin
  2
*D4
 70
              65
 10
0.0
 20
0.0
 30
0.0
  3
*D4
  1

  0
LINE
  5
7D
100
AcDbEntity
  8
____1
370
              18
390
0
  6
Continuous
 62
               7
100
AcDbLine
 10
750.82452227084457
 20
-248.00554304658684
 30
0.0
 11
750.82452227084457
 21
-245.00554330697307
 31
0.0
  0
LINE
  5
7E
100
AcDbEntity
  8
____1
370
              18
390
0
  6
Continuous
 62
               7
100
AcDbLine
 10
760.74808596877449
 20
-245.00554330697307
 30
0.0
 11
750.32452227084457
 21
-245.00554330697307
 31
0.0
  0
LINE
  5
7F
100
AcDbEntity
  8
____1
370
              18
390
0
  6
Continuous
 62
               7
100
AcDbLine
 10
759.82452227084457
 20
-248.00554304658684
 30
0.0
 11
750.32452227084457
 21
-248.00554304658684
 31
0.0
  0
SOLID
  5
80
100
AcDbEntity
  8
____1
370
               5
390
0
  6
Continuous
 62
               7
100
AcDbTrace
 10
750.07452227084457
 20
-251.00554304658684
 30
0.0
 11
750.07452227084457
 21
-251.00554304658684
 31
0.0
 12
750.26202227084457
 22
-250.25554304658684
 32
0.0
 13
750.82452227084457
 23
-250.25554304658684
 33
0.0
  0
SOLID
  5
81
100
AcDbEntity
  8
____1
370
               5
390
0
  6
Continuous
 62
               7
100
AcDbTrace
 10
751.57452227084457
 20
-251.00554304658684
 30
0.0
 11
751.57452227084457
 21
-251.00554304658684
 31
0.0
 12
750.82452227084457
 22
-250.25554304658684
 32
0.0
 13
751.38702227084457
 23
-250.25554304658684
 33
0.0
  0
SOLID
  5
82
100
AcDbEntity
  8
____1
370
               5
390
0
  6
Continuous
 62
               7
100
AcDbTrace
 10
750.26202227084457
 20
-250.25554304658684
 30
0.0
 11
751.38702227084457
 21
-250.25554304658684
 31
0.0
 12
750.82452227084457
 22
-248.00554304658684
 32
0.0
 13
750.82452227084457
 23
-248.00554304658684
 33
0.0
  0
LINE
  5
83
100
AcDbEntity
  8
____1
370
              18
390
0
  6
Continuous
 62
               7
100
AcDbLine
 10
750.82452227084457
 20
-248.00554304658684
 30
0.0
 11
750.82452227084457
 21
-251.00554304658684
 31
0.0
  0
SOLID
  5
84
100
AcDbEntity
  8
____1
370
               5
390
0
  6
Continuous
 62
               7
100
AcDbTrace
 10
750.82452227084457
 20
-245.00554330697307
 30
0.0
 11
750.82452227084457
 21
-245.00554330697307
 31
0.0
 12
750.26202227084457
 22
-242.75554330697307
 32
0.0
 13
751.38702227084457
 23
-242.75554330697307
 33
0.0
  0
SOLID
  5
85
100
AcDbEntity
  8
____1
370
               5
390
0
  6
Continuous
 62
               7
100
AcDbTrace
 10
750.26202227084457
 20
-242.75554330697307
 30
0.0
 11
750.82452227084457
 21
-242.75554330697307
 31
0.0
 12
750.07452227084457
 22
-242.00554330697307
 32
0.0
 13
750.07452227084457
 23
-242.00554330697307
 33
0.0
  0
SOLID
  5
86
100
AcDbEntity
  8
____1
370
               5
390
0
  6
Continuous
 62
               7
100
AcDbTrace
 10
750.82452227084457
 20
-242.75554330697307
 30
0.0
 11
751.38702227084457
 21
-242.75554330697307
 31
0.0
 12
751.57452227084457
 22
-242.00554330697307
 32
0.0
 13
751.57452227084457
 23
-242.00554330697307
 33
0.0
  0
LINE
  5
87
100
AcDbEntity
  8
____1
370
              18
390
0
  6
Continuous
 62
               7
100
AcDbLine
 10
750.82452227084457
 20
-245.00554330697307
 30
0.0
 11
750.82452227084457
 21
-242.00554330697307
 31
0.0
  0
MTEXT
  5
88
100
AcDbEntity
  8
寸法線_1
370
              18
390
0
  6
Continuous
 62
               7
100
AcDbMText
 10
746.2967445990306
 20
-247.38748759473341
 30
0.0
 40
3.5277776718139648
 41
1.7707790266722441
 71
               1
 72
               1
  1
3
  7
Style1
 11
0.0
 21
1.0
 31
0.0
 73
               1
 44
1.0
  0
ENDBLK
  5
89
100
AcDbEntity
  8
0
390
0
100
AcDbBlockEnd
  0
BLOCK
  5
A3
100
AcDbEntity
  8
0
390
0
100
AcDbBlockBegin
  2
C1
 70
              64
 10
0.0
 20
0.0
 30
0.0
  3
C1
  1

  0
LINE
  5
A4
100
AcDbEntity
  8
____1
370
              18
390
0
  6
Continuous
 62
               5
100
AcDbLine
 10
967.36593008723275
 20
-188.8063913952239
 30
0.0
 11
972.31593008723257
 21
-188.8063913952239
 31
0.0
  0
MTEXT
  5
A5
100
AcDbEntity
  8
____1
370
               5
390
0
  6
Continuous
 62
               7
100
AcDbMText
 10
968.25818706244263
 20
-185.75657540540755
 30
0.0
 40
2.9266439437866216
 41
3.1654860495798762
 71
               1
 72
               1
  1
1
  7
Style1
 73
               1
 44
1.0
  0
LINE
  5
A6
100
AcDbEntity
  8
____1
370
              18
390
0
  6
Continuous
 62
               5
100
AcDbLine
 10
969.84093008723266
 20
-184.51956564649089
 30
0.0
 11
967.36593008723275
 21
-188.8063913952239
 31
0.0
  0
LINE
  5
A7
100
AcDbEntity
  8
____1
370
              18
390
0
  6
Continuous
 62
               5
100
AcDbLine
 10
969.84093008723266
 20
-184.51956564649089
 30
0.0
 11
972.31593008723257
 21
-188.8063913952239
 31
0.0
  0
ENDBLK
  5
A8
100
AcDbEntity
  8
0
390
0
100
AcDbBlockEnd
  0
BLOCK
  5
BC
100
AcDbEntity
  8
0
390
0
100
AcDbBlockBegin
  2
*D6
 70
              65
 10
0.0
 20
0.0
 30
0.0
  3
*D6
  1

  0
LINE
  5
BD
100
AcDbEntity
  8
____1
370
              18
390
0
  6
Continuous
 62
               7
100
AcDbLine
 10
760.82452227084457
 20
-249.00554304658684
 30
0.0
 11
760.82452227084457
 21
-260.10622530519277
 31
0.0
  0
LINE
  5
BE
100
AcDbEntity
  8
____1
370
              18
390
0
  6
Continuous
 62
               7
100
AcDbLine
 10
832.82452227084457
 20
-249.00554241725791
 30
0.0
 11
832.82452227084457
 21
-260.10622530519277
 31
0.0
  0
SOLID
  5
BF
100
AcDbEntity
  8
____1
370
               5
390
0
  6
Continuous
 62
               7
100
AcDbTrace
 10
829.82452227084457
 20
-260.35622530519277
 30
0.0
 11
829.82452227084457
 21
-260.35622530519277
 31
0.0
 12
830.57452227084457
 22
-259.60622530519277
 32
0.0
 13
832.82452227084457
 23
-259.60622530519277
 33
0.0
  0
SOLID
  5
C0
100
AcDbEntity
  8
____1
370
               5
390
0
  6
Continuous
 62
               7
100
AcDbTrace
 10
830.57452227084457
 20
-259.60622530519277
 30
0.0
 11
832.82452227084457
 21
-259.60622530519277
 31
0.0
 12
829.82452227084457
 22
-258.85622530519277
 32
0.0
 13
829.82452227084457
 23
-258.85622530519277
 33
0.0
  0
LINE
  5
C1
100
AcDbEntity
  8
____1
370
              18
390
0
  6
Continuous
 62
               7
100
AcDbLine
 10
832.82452227084457
 20
-259.60622530519277
 30
0.0
 11
796.82452227084457
 21
-259.60622530519277
 31
0.0
  0
SOLID
  5
C2
100
AcDbEntity
  8
____1
370
               5
390
0
  6
Continuous
 62
               7
100
AcDbTrace
 10
763.82452227084457
 20
-260.35622530519277
 30
0.0
 11
763.82452227084457
 21
-260.35622530519277
 31
0.0
 12
760.82452227084457
 22
-259.60622530519277
 32
0.0
 13
763.07452227084457
 23
-259.60622530519277
 33
0.0
  0
SOLID
  5
C3
100
AcDbEntity
  8
____1
370
               5
390
0
  6
Continuous
 62
               7
100
AcDbTrace
 10
760.82452227084457
 20
-259.60622530519277
 30
0.0
 11
763.07452227084457
 21
-259.60622530519277
 31
0.0
 12
763.82452227084457
 22
-258.85622530519277
 32
0.0
 13
763.82452227084457
 23
-258.85622530519277
 33
0.0
  0
LINE
  5
C4
100
AcDbEntity
  8
____1
370
              18
390
0
  6
Continuous
 62
               7
100
AcDbLine
 10
760.82452227084457
 20
-259.60622530519277
 30
0.0
 11
796.82452227084457
 21
-259.60622530519277
 31
0.0
  0
MTEXT
  5
C5
100
AcDbEntity
  8
寸法線_1
370
              18
390
0
  6
Continuous
 62
               7
100
AcDbMText
 10
795.06063343493759
 20
-255.0784476333788
 30
0.0
 40
3.5277776718139648
 41
3.5415580533444881
 71
               1
 72
               1
  1
72
  7
Style1
 73
               1
 44
1.0
  0
ENDBLK
  5
C6
100
AcDbEntity
  8
0
390
0
100
AcDbBlockEnd
  0
BLOCK
  5
C9
100
AcDbEntity
  8
0
390
0
100
AcDbBlockBegin
  2
*D7
 70
              65
 10
0.0
 20
0.0
 30
0.0
  3
*D7
  1

  0
LINE
  5
CA
100
AcDbEntity
  8
____1
370
              18
390
0
  6
Continuous
 62
               7
100
AcDbLine
 10
828.32452226890007
 20
-169.99130668302473
 30
0.0
 11
828.32452226890007
 21
-153.64270057340559
 31
0.0
  0
LINE
  5
CB
100
AcDbEntity
  8
____1
370
              18
390
0
  6
Continuous
 62
               7
100
AcDbLine
 10
765.32452226890007
 20
-169.99130731235365
 30
0.0
 11
765.32452226890007
 21
-153.64270057340559
 31
0.0
  0
SOLID
  5
CC
100
AcDbEntity
  8
____1
370
               5
390
0
  6
Continuous
 62
               7
100
AcDbTrace
 10
768.32452226890007
 20
-154.89270057340559
 30
0.0
 11
768.32452226890007
 21
-154.89270057340559
 31
0.0
 12
765.32452226890007
 22
-154.14270057340559
 32
0.0
 13
767.57452226890007
 23
-154.14270057340559
 33
0.0
  0
SOLID
  5
CD
100
AcDbEntity
  8
____1
370
               5
390
0
  6
Continuous
 62
               7
100
AcDbTrace
 10
765.32452226890007
 20
-154.14270057340559
 30
0.0
 11
767.57452226890007
 21
-154.14270057340559
 31
0.0
 12
768.32452226890007
 22
-153.39270057340559
 32
0.0
 13
768.32452226890007
 23
-153.39270057340559
 33
0.0
  0
LINE
  5
CE
100
AcDbEntity
  8
____1
370
              18
390
0
  6
Continuous
 62
               7
100
AcDbLine
 10
765.32452226890007
 20
-154.14270057340559
 30
0.0
 11
796.82452226890007
 21
-154.14270057340559
 31
0.0
  0
SOLID
  5
CF
100
AcDbEntity
  8
____1
370
               5
390
0
  6
Continuous
 62
               7
100
AcDbTrace
 10
825.32452226890007
 20
-154.89270057340559
 30
0.0
 11
825.32452226890007
 21
-154.89270057340559
 31
0.0
 12
826.07452226890007
 22
-154.14270057340559
 32
0.0
 13
828.32452226890007
 23
-154.14270057340559
 33
0.0
  0
SOLID
  5
D0
100
AcDbEntity
  8
____1
370
               5
390
0
  6
Continuous
 62
               7
100
AcDbTrace
 10
826.07452226890007
 20
-154.14270057340559
 30
0.0
 11
828.32452226890007
 21
-154.14270057340559
 31
0.0
 12
825.32452226890007
 22
-153.39270057340559
 32
0.0
 13
825.32452226890007
 23
-153.39270057340559
 33
0.0
  0
LINE
  5
D1
100
AcDbEntity
  8
____1
370
              18
390
0
  6
Continuous
 62
               7
100
AcDbLine
 10
828.32452226890007
 20
-154.14270057340559
 30
0.0
 11
796.82452226890007
 21
-154.14270057340559
 31
0.0
  0
MTEXT
  5
D2
100
AcDbEntity
  8
寸法線_1
370
              18
390
0
  6
Continuous
 62
               7
100
AcDbMText
 10
795.06063343299309
 20
-149.61492290159163
 30
0.0
 40
3.5277776718139648
 41
3.5415580533444881
 71
               1
 72
               1
  1
63
  7
Style1
 73
               1
 44
1.0
  0
ENDBLK
  5
D3
100
AcDbEntity
  8
0
390
0
100
AcDbBlockEnd
  0
BLOCK
  5
D6
100
AcDbEntity
  8
0
390
0
100
AcDbBlockBegin
  2
*D8
 70
              65
 10
0.0
 20
0.0
 30
0.0
  3
*D8
  1

  0
LINE
  5
D7
100
AcDbEntity
  8
____1
370
              18
390
0
  6
Continuous
 62
               7
100
AcDbLine
 10
841.54468276293585
 20
-172.49130664842508
 30
0.0
 11
841.54468276293585
 21
-180.99130664842508
 31
0.0
  0
LINE
  5
D8
100
AcDbEntity
  8
____1
370
              18
390
0
  6
Continuous
 62
               7
100
AcDbLine
 10
830.07452227862188
 20
-180.99130664842508
 30
0.0
 11
842.04468276293585
 21
-180.99130664842508
 31
0.0
  0
LINE
  5
D9
100
AcDbEntity
  8
____1
370
              18
390
0
  6
Continuous
 62
               7
100
AcDbLine
 10
830.07452226306702
 20
-172.49130664842508
 30
0.0
 11
842.04468276293585
 21
-172.49130664842508
 31
0.0
  0
SOLID
  5
DA
100
AcDbEntity
  8
____1
370
               5
390
0
  6
Continuous
 62
               7
100
AcDbTrace
 10
841.54468276293585
 20
-172.49130664842508
 30
0.0
 11
841.54468276293585
 21
-172.49130664842508
 31
0.0
 12
840.98218276293585
 22
-170.24130664842508
 32
0.0
 13
842.10718276293585
 23
-170.24130664842508
 33
0.0
  0
SOLID
  5
DB
100
AcDbEntity
  8
____1
370
               5
390
0
  6
Continuous
 62
               7
100
AcDbTrace
 10
840.98218276293585
 20
-170.24130664842508
 30
0.0
 11
841.54468276293585
 21
-170.24130664842508
 31
0.0
 12
840.79468276293585
 22
-169.49130664842508
 32
0.0
 13
840.79468276293585
 23
-169.49130664842508
 33
0.0
  0
SOLID
  5
DC
100
AcDbEntity
  8
____1
370
               5
390
0
  6
Continuous
 62
               7
100
AcDbTrace
 10
841.54468276293585
 20
-170.24130664842508
 30
0.0
 11
842.10718276293585
 21
-170.24130664842508
 31
0.0
 12
842.29468276293585
 22
-169.49130664842508
 32
0.0
 13
842.29468276293585
 23
-169.49130664842508
 33
0.0
  0
LINE
  5
DD
100
AcDbEntity
  8
____1
370
              18
390
0
  6
Continuous
 62
               7
100
AcDbLine
 10
841.54468276293585
 20
-172.49130664842508
 30
0.0
 11
841.54468276293585
 21
-169.49130664842508
 31
0.0
  0
SOLID
  5
DE
100
AcDbEntity
  8
____1
370
               5
390
0
  6
Continuous
 62
               7
100
AcDbTrace
 10
840.79468276293585
 20
-183.99130664842508
 30
0.0
 11
840.79468276293585
 21
-183.99130664842508
 31
0.0
 12
840.98218276293585
 22
-183.24130664842508
 32
0.0
 13
841.54468276293585
 23
-183.24130664842508
 33
0.0
  0
SOLID
  5
DF
100
AcDbEntity
  8
____1
370
               5
390
0
  6
Continuous
 62
               7
100
AcDbTrace
 10
842.29468276293585
 20
-183.99130664842508
 30
0.0
 11
842.29468276293585
 21
-183.99130664842508
 31
0.0
 12
841.54468276293585
 22
-183.24130664842508
 32
0.0
 13
842.10718276293585
 23
-183.24130664842508
 33
0.0
  0
SOLID
  5
E0
100
AcDbEntity
  8
____1
370
               5
390
0
  6
Continuous
 62
               7
100
AcDbTrace
 10
840.98218276293585
 20
-183.24130664842508
 30
0.0
 11
842.10718276293585
 21
-183.24130664842508
 31
0.0
 12
841.54468276293585
 22
-180.99130664842508
 32
0.0
 13
841.54468276293585
 23
-180.99130664842508
 33
0.0
  0
LINE
  5
E1
100
AcDbEntity
  8
____1
370
              18
390
0
  6
Continuous
 62
               7
100
AcDbLine
 10
841.54468276293585
 20
-180.99130664842508
 30
0.0
 11
841.54468276293585
 21
-183.99130664842508
 31
0.0
  0
MTEXT
  5
E2
100
AcDbEntity
  8
寸法線_1
370
              18
390
0
  6
Continuous
 62
               7
100
AcDbMText
 10
837.01690509112188
 20
-179.38713990228555
 30
0.0
 40
3.5277776718139648
 41
5.3123370800167322
 71
               1
 72
               1
  1
8.5
  7
Style1
 11
0.0
 21
1.0
 31
0.0
 73
               1
 44
1.0
  0
ENDBLK
  5
E3
100
AcDbEntity
  8
0
390
0
100
AcDbBlockEnd
  0
BLOCK
  5
E6
100
AcDbEntity
  8
0
390
0
100
AcDbBlockBegin
  2
*D9
 70
              65
 10
0.0
 20
0.0
 30
0.0
  3
*D9
  1

  0
LINE
  5
E7
100
AcDbEntity
  8
____1
370
              18
390
0
  6
Continuous
 62
               7
100
AcDbLine
 10
826.57452227084445
 20
-160.56777797716043
 30
0.0
 11
830.07452227084445
 21
-160.56777797716043
 31
0.0
  0
LINE
  5
E8
100
AcDbEntity
  8
____1
370
              18
390
0
  6
Continuous
 62
               7
100
AcDbLine
 10
830.07452227084445
 20
-172.49130664842508
 30
0.0
 11
830.07452227084445
 21
-160.06777797716043
 31
0.0
  0
LINE
  5
E9
100
AcDbEntity
  8
____1
370
              18
390
0
  6
Continuous
 62
               7
100
AcDbLine
 10
826.57452227084445
 20
-172.49130675351753
 30
0.0
 11
826.57452227084445
 21
-160.06777797716043
 31
0.0
  0
SOLID
  5
EA
100
AcDbEntity
  8
____1
370
               5
390
0
  6
Continuous
 62
               7
100
AcDbTrace
 10
823.57452227084445
 20
-161.31777797716043
 30
0.0
 11
823.57452227084445
 21
-161.31777797716043
 31
0.0
 12
824.32452227084445
 22
-160.56777797716043
 32
0.0
 13
826.57452227084445
 23
-160.56777797716043
 33
0.0
  0
SOLID
  5
EB
100
AcDbEntity
  8
____1
370
               5
390
0
  6
Continuous
 62
               7
100
AcDbTrace
 10
824.32452227084445
 20
-160.56777797716043
 30
0.0
 11
826.57452227084445
 21
-160.56777797716043
 31
0.0
 12
823.57452227084445
 22
-159.81777797716043
 32
0.0
 13
823.57452227084445
 23
-159.81777797716043
 33
0.0
  0
LINE
  5
EC
100
AcDbEntity
  8
____1
370
              18
390
0
  6
Continuous
 62
               7
100
AcDbLine
 10
826.57452227084445
 20
-160.56777797716043
 30
0.0
 11
823.57452227084445
 21
-160.56777797716043
 31
0.0
  0
SOLID
  5
ED
100
AcDbEntity
  8
____1
370
               5
390
0
  6
Continuous
 62
               7
100
AcDbTrace
 10
833.07452227084445
 20
-161.31777797716043
 30
0.0
 11
833.07452227084445
 21
-161.31777797716043
 31
0.0
 12
830.07452227084445
 22
-160.56777797716043
 32
0.0
 13
832.32452227084445
 23
-160.56777797716043
 33
0.0
  0
SOLID
  5
EE
100
AcDbEntity
  8
____1
370
               5
390
0
  6
Continuous
 62
               7
100
AcDbTrace
 10
830.07452227084445
 20
-160.56777797716043
 30
0.0
 11
832.32452227084445
 21
-160.56777797716043
 31
0.0
 12
833.07452227084445
 22
-159.81777797716043
 32
0.0
 13
833.07452227084445
 23
-159.81777797716043
 33
0.0
  0
LINE
  5
EF
100
AcDbEntity
  8
____1
370
              18
390
0
  6
Continuous
 62
               7
100
AcDbLine
 10
830.07452227084445
 20
-160.56777797716043
 30
0.0
 11
839.61575890986728
 21
-160.56777797716043
 31
0.0
  0
MTEXT
  5
F0
100
AcDbEntity
  8
寸法線_1
370
              18
390
0
  6
Continuous
 62
               7
100
AcDbMText
 10
832.56020356623935
 20
-156.04000030534647
 30
0.0
 40
3.5277776718139648
 41
5.3123370800167322
 71
               1
 72
               1
  1
3.5
  7
Style1
 73
               1
 44
1.0
  0
ENDBLK
  5
F1
100
AcDbEntity
  8
0
390
0
100
AcDbBlockEnd
  0
BLOCK
  5
F4
100
AcDbEntity
  8
0
390
0
100
AcDbBlockBegin
  2
*D10
 70
              65
 10
0.0
 20
0.0
 30
0.0
  3
*D10
  1

  0
LINE
  5
F5
100
AcDbEntity
  8
____1
370
              18
390
0
  6
Continuous
 62
               7
100
AcDbLine
 10
842.82452227084457
 20
-235.50554246631873
 30
0.0
 11
842.82452227084457
 21
-248.00554241725791
 31
0.0
  0
LINE
  5
F6
100
AcDbEntity
  8
____1
370
              18
390
0
  6
Continuous
 62
               7
100
AcDbLine
 10
833.82452227084457
 20
-248.00554241725791
 30
0.0
 11
843.32452227084457
 21
-248.00554241725791
 31
0.0
  0
LINE
  5
F7
100
AcDbEntity
  8
____1
370
              18
390
0
  6
Continuous
 62
               7
100
AcDbLine
 10
824.15035822840105
 20
-235.50554246631873
 30
0.0
 11
843.32452227084457
 21
-235.50554246631873
 31
0.0
  0
SOLID
  5
F8
100
AcDbEntity
  8
____1
370
               5
390
0
  6
Continuous
 62
               7
100
AcDbTrace
 10
842.82452227084457
 20
-235.50554246631873
 30
0.0
 11
842.82452227084457
 21
-235.50554246631873
 31
0.0
 12
842.26202227084457
 22
-233.25554246631873
 32
0.0
 13
843.38702227084457
 23
-233.25554246631873
 33
0.0
  0
SOLID
  5
F9
100
AcDbEntity
  8
____1
370
               5
390
0
  6
Continuous
 62
               7
100
AcDbTrace
 10
842.26202227084457
 20
-233.25554246631873
 30
0.0
 11
842.82452227084457
 21
-233.25554246631873
 31
0.0
 12
842.07452227084457
 22
-232.50554246631873
 32
0.0
 13
842.07452227084457
 23
-232.50554246631873
 33
0.0
  0
SOLID
  5
FA
100
AcDbEntity
  8
____1
370
               5
390
0
  6
Continuous
 62
               7
100
AcDbTrace
 10
842.82452227084457
 20
-233.25554246631873
 30
0.0
 11
843.38702227084457
 21
-233.25554246631873
 31
0.0
 12
843.57452227084457
 22
-232.50554246631873
 32
0.0
 13
843.57452227084457
 23
-232.50554246631873
 33
0.0
  0
LINE
  5
FB
100
AcDbEntity
  8
____1
370
              18
390
0
  6
Continuous
 62
               7
100
AcDbLine
 10
842.82452227084457
 20
-235.50554246631873
 30
0.0
 11
842.82452227084457
 21
-232.50554246631873
 31
0.0
  0
SOLID
  5
FC
100
AcDbEntity
  8
____1
370
               5
390
0
  6
Continuous
 62
               7
100
AcDbTrace
 10
842.07452227084457
 20
-251.00554241725791
 30
0.0
 11
842.07452227084457
 21
-251.00554241725791
 31
0.0
 12
842.26202227084457
 22
-250.25554241725791
 32
0.0
 13
842.82452227084457
 23
-250.25554241725791
 33
0.0
  0
SOLID
  5
FD
100
AcDbEntity
  8
____1
370
               5
390
0
  6
Continuous
 62
               7
100
AcDbTrace
 10
843.57452227084457
 20
-251.00554241725791
 30
0.0
 11
843.57452227084457
 21
-251.00554241725791
 31
0.0
 12
842.82452227084457
 22
-250.25554241725791
 32
0.0
 13
843.38702227084457
 23
-250.25554241725791
 33
0.0
  0
SOLID
  5
FE
100
AcDbEntity
  8
____1
370
               5
390
0
  6
Continuous
 62
               7
100
AcDbTrace
 10
842.26202227084457
 20
-250.25554241725791
 30
0.0
 11
843.38702227084457
 21
-250.25554241725791
 31
0.0
 12
842.82452227084457
 22
-248.00554241725791
 32
0.0
 13
842.82452227084457
 23
-248.00554241725791
 33
0.0
  0
LINE
  5
FF
100
AcDbEntity
  8
____1
370
              18
390
0
  6
Continuous
 62
               7
100
AcDbLine
 10
842.82452227084457
 20
-248.00554241725791
 30
0.0
 11
842.82452227084457
 21
-251.00554241725791
 31
0.0
  0
MTEXT
  5
100
100
AcDbEntity
  8
寸法線_1
370
              18
390
0
  6
Continuous
 62
               7
100
AcDbMText
 10
838.2967445990306
 20
-245.28332011360229
 30
0.0
 40
3.5277776718139648
 41
7.0831161066889763
 71
               1
 72
               1
  1
12.5
  7
Style1
 11
0.0
 21
1.0
 31
0.0
 73
               1
 44
1.0
  0
ENDBLK
  5
101
100
AcDbEntity
  8
0
390
0
100
AcDbBlockEnd
  0
BLOCK
  5
104
100
AcDbEntity
  8
0
390
0
100
AcDbBlockBegin
  2
*D11
 70
              65
 10
0.0
 20
0.0
 30
0.0
  3
*D11
  1

  0
LINE
  5
105
100
AcDbEntity
  8
____1
370
              18
390
0
  6
Continuous
 62
               7
100
AcDbLine
 10
870.67487008572061
 20
-225.50554246631873
 30
0.0
 11
872.67487008572061
 21
-225.50554246631873
 31
0.0
  0
LINE
  5
106
100
AcDbEntity
  8
____1
370
              18
390
0
  6
Continuous
 62
               7
100
AcDbLine
 10
872.67487008572061
 20
-234.50554246631873
 30
0.0
 11
872.67487008572061
 21
-225.00554246631873
 31
0.0
  0
LINE
  5
107
100
AcDbEntity
  8
____1
370
              18
390
0
  6
Continuous
 62
               7
100
AcDbLine
 10
870.67487008572061
 20
-235.70554246631872
 30
0.0
 11
870.67487008572061
 21
-225.00554246631873
 31
0.0
  0
SOLID
  5
108
100
AcDbEntity
  8
____1
370
               5
390
0
  6
Continuous
 62
               7
100
AcDbTrace
 10
867.67487008572061
 20
-226.25554246631873
 30
0.0
 11
867.67487008572061
 21
-226.25554246631873
 31
0.0
 12
868.42487008572061
 22
-225.50554246631873
 32
0.0
 13
870.67487008572061
 23
-225.50554246631873
 33
0.0
  0
SOLID
  5
109
100
AcDbEntity
  8
____1
370
               5
390
0
  6
Continuous
 62
               7
100
AcDbTrace
 10
868.42487008572061
 20
-225.50554246631873
 30
0.0
 11
870.67487008572061
 21
-225.50554246631873
 31
0.0
 12
867.67487008572061
 22
-224.75554246631873
 32
0.0
 13
867.67487008572061
 23
-224.75554246631873
 33
0.0
  0
LINE
  5
10A
100
AcDbEntity
  8
____1
370
              18
390
0
  6
Continuous
 62
               7
100
AcDbLine
 10
870.67487008572061
 20
-225.50554246631873
 30
0.0
 11
860.66707156081918
 21
-225.50554246631873
 31
0.0
  0
SOLID
  5
10B
100
AcDbEntity
  8
____1
370
               5
390
0
  6
Continuous
 62
               7
100
AcDbTrace
 10
875.67487008572061
 20
-226.25554246631873
 30
0.0
 11
875.67487008572061
 21
-226.25554246631873
 31
0.0
 12
872.67487008572061
 22
-225.50554246631873
 32
0.0
 13
874.92487008572061
 23
-225.50554246631873
 33
0.0
  0
SOLID
  5
10C
100
AcDbEntity
  8
____1
370
               5
390
0
  6
Continuous
 62
               7
100
AcDbTrace
 10
872.67487008572061
 20
-225.50554246631873
 30
0.0
 11
874.92487008572061
 21
-225.50554246631873
 31
0.0
 12
875.67487008572061
 22
-224.75554246631873
 32
0.0
 13
875.67487008572061
 23
-224.75554246631873
 33
0.0
  0
LINE
  5
10D
100
AcDbEntity
  8
____1
370
              18
390
0
  6
Continuous
 62
               7
100
AcDbLine
 10
872.67487008572061
 20
-225.50554246631873
 30
0.0
 11
875.67487008572061
 21
-225.50554246631873
 31
0.0
  0
MTEXT
  5
10E
100
AcDbEntity
  8
寸法線_1
370
               5
390
0
  6
CENTER2
 62
               7
100
AcDbMText
 10
862.43096039672616
 20
-220.97776479450476
 30
0.0
 40
3.5277776718139648
 41
5.3123370800167322
 71
               1
 72
               1
  1
(2)
  7
Style1
 73
               1
 44
1.0
  0
ENDBLK
  5
10F
100
AcDbEntity
  8
0
390
0
100
AcDbBlockEnd
  0
BLOCK
  5
112
100
AcDbEntity
  8
0
390
0
100
AcDbBlockBegin
  2
*D12
 70
              65
 10
0.0
 20
0.0
 30
0.0
  3
*D12
  1

  0
LINE
  5
113
100
AcDbEntity
  8
____1
370
              18
390
0
  6
Continuous
 62
               7
100
AcDbLine
 10
891.67487008572061
 20
-234.50554246631873
 30
0.0
 11
891.67487008572061
 21
-225.00554246631873
 31
0.0
  0
LINE
  5
114
100
AcDbEntity
  8
____1
370
              18
390
0
  6
Continuous
 62
               7
100
AcDbLine
 10
872.67487008572061
 20
-234.50554246631873
 30
0.0
 11
872.67487008572061
 21
-225.00554246631873
 31
0.0
  0
SOLID
  5
115
100
AcDbEntity
  8
____1
370
               5
390
0
  6
Continuous
 62
               7
100
AcDbTrace
 10
875.67487008572061
 20
-226.25554246631873
 30
0.0
 11
875.67487008572061
 21
-226.25554246631873
 31
0.0
 12
872.67487008572061
 22
-225.50554246631873
 32
0.0
 13
874.92487008572061
 23
-225.50554246631873
 33
0.0
  0
SOLID
  5
116
100
AcDbEntity
  8
____1
370
               5
390
0
  6
Continuous
 62
               7
100
AcDbTrace
 10
872.67487008572061
 20
-225.50554246631873
 30
0.0
 11
874.92487008572061
 21
-225.50554246631873
 31
0.0
 12
875.67487008572061
 22
-224.75554246631873
 32
0.0
 13
875.67487008572061
 23
-224.75554246631873
 33
0.0
  0
LINE
  5
117
100
AcDbEntity
  8
____1
370
              18
390
0
  6
Continuous
 62
               7
100
AcDbLine
 10
872.67487008572061
 20
-225.50554246631873
 30
0.0
 11
882.17487008572061
 21
-225.50554246631873
 31
0.0
  0
SOLID
  5
118
100
AcDbEntity
  8
____1
370
               5
390
0
  6
Continuous
 62
               7
100
AcDbTrace
 10
888.67487008572061
 20
-226.25554246631873
 30
0.0
 11
888.67487008572061
 21
-226.25554246631873
 31
0.0
 12
889.42487008572061
 22
-225.50554246631873
 32
0.0
 13
891.67487008572061
 23
-225.50554246631873
 33
0.0
  0
SOLID
  5
119
100
AcDbEntity
  8
____1
370
               5
390
0
  6
Continuous
 62
               7
100
AcDbTrace
 10
889.42487008572061
 20
-225.50554246631873
 30
0.0
 11
891.67487008572061
 21
-225.50554246631873
 31
0.0
 12
888.67487008572061
 22
-224.75554246631873
 32
0.0
 13
888.67487008572061
 23
-224.75554246631873
 33
0.0
  0
LINE
  5
11A
100
AcDbEntity
  8
____1
370
              18
390
0
  6
Continuous
 62
               7
100
AcDbLine
 10
891.67487008572061
 20
-225.50554246631873
 30
0.0
 11
882.17487008572061
 21
-225.50554246631873
 31
0.0
  0
MTEXT
  5
11B
100
AcDbEntity
  8
寸法線_1
370
               5
390
0
  6
CENTER2
 62
               7
100
AcDbMText
 10
880.41098124981363
 20
-220.97776479450476
 30
0.0
 40
3.5277776718139648
 41
3.5415580533444881
 71
               1
 72
               1
  1
19
  7
Style1
 73
               1
 44
1.0
  0
ENDBLK
  5
11C
100
AcDbEntity
  8
0
390
0
100
AcDbBlockEnd
  0
BLOCK
  5
11F
100
AcDbEntity
  8
0
390
0
100
AcDbBlockBegin
  2
*D13
 70
              65
 10
0.0
 20
0.0
 30
0.0
  3
*D13
  1

  0
LINE
  5
120
100
AcDbEntity
  8
____1
370
              18
390
0
  6
Continuous
 62
               7
100
AcDbLine
 10
781.07452227084457
 20
-192.24130673208592
 30
0.0
 11
781.07452227084457
 21
-201.74130673208592
 31
0.0
  0
LINE
  5
121
100
AcDbEntity
  8
____1
370
              18
390
0
  6
Continuous
 62
               7
100
AcDbLine
 10
812.57452227084457
 20
-192.24130673208592
 30
0.0
 11
812.57452227084457
 21
-201.74130673208592
 31
0.0
  0
SOLID
  5
122
100
AcDbEntity
  8
____1
370
               5
390
0
  6
Continuous
 62
               7
100
AcDbTrace
 10
809.57452227084457
 20
-201.99130673208592
 30
0.0
 11
809.57452227084457
 21
-201.99130673208592
 31
0.0
 12
810.32452227084457
 22
-201.24130673208592
 32
0.0
 13
812.57452227084457
 23
-201.24130673208592
 33
0.0
  0
SOLID
  5
123
100
AcDbEntity
  8
____1
370
               5
390
0
  6
Continuous
 62
               7
100
AcDbTrace
 10
810.32452227084457
 20
-201.24130673208592
 30
0.0
 11
812.57452227084457
 21
-201.24130673208592
 31
0.0
 12
809.57452227084457
 22
-200.49130673208592
 32
0.0
 13
809.57452227084457
 23
-200.49130673208592
 33
0.0
  0
LINE
  5
124
100
AcDbEntity
  8
____1
370
              18
390
0
  6
Continuous
 62
               7
100
AcDbLine
 10
812.57452227084457
 20
-201.24130673208592
 30
0.0
 11
796.82452227084457
 21
-201.24130673208592
 31
0.0
  0
SOLID
  5
125
100
AcDbEntity
  8
____1
370
               5
390
0
  6
Continuous
 62
               7
100
AcDbTrace
 10
784.07452227084457
 20
-201.99130673208592
 30
0.0
 11
784.07452227084457
 21
-201.99130673208592
 31
0.0
 12
781.07452227084457
 22
-201.24130673208592
 32
0.0
 13
783.32452227084457
 23
-201.24130673208592
 33
0.0
  0
SOLID
  5
126
100
AcDbEntity
  8
____1
370
               5
390
0
  6
Continuous
 62
               7
100
AcDbTrace
 10
781.07452227084457
 20
-201.24130673208592
 30
0.0
 11
783.32452227084457
 21
-201.24130673208592
 31
0.0
 12
784.07452227084457
 22
-200.49130673208592
 32
0.0
 13
784.07452227084457
 23
-200.49130673208592
 33
0.0
  0
LINE
  5
127
100
AcDbEntity
  8
____1
370
              18
390
0
  6
Continuous
 62
               7
100
AcDbLine
 10
781.07452227084457
 20
-201.24130673208592
 30
0.0
 11
796.82452227084457
 21
-201.24130673208592
 31
0.0
  0
MTEXT
  5
128
100
AcDbEntity
  8
寸法線_1
370
              18
390
0
  6
Continuous
 62
               7
100
AcDbMText
 10
793.2967445990306
 20
-196.71352906027195
 30
0.0
 40
3.5277776718139648
 41
7.0831161066889763
 71
               1
 72
               1
  1
31.5
  7
Style1
 73
               1
 44
1.0
  0
ENDBLK
  5
129
100
AcDbEntity
  8
0
390
0
100
AcDbBlockEnd
  0
BLOCK
  5
12C
100
AcDbEntity
  8
0
390
0
100
AcDbBlockBegin
  2
*D14
 70
              65
 10
0.0
 20
0.0
 30
0.0
  3
*D14
  1

  0
LINE
  5
12D
100
AcDbEntity
  8
____1
370
              18
390
0
  6
Continuous
 62
               7
100
AcDbLine
 10
793.32452227084457
 20
-244.00554272670496
 30
0.0
 11
793.32452227084457
 21
-225.56603058174693
 31
0.0
  0
LINE
  5
12E
100
AcDbEntity
  8
____1
370
              18
390
0
  6
Continuous
 62
               7
100
AcDbLine
 10
768.82452227084457
 20
-244.00554272670496
 30
0.0
 11
768.82452227084457
 21
-225.56603058174693
 31
0.0
  0
SOLID
  5
12F
100
AcDbEntity
  8
____1
370
               5
390
0
  6
Continuous
 62
               7
100
AcDbTrace
 10
771.82452227084457
 20
-226.81603058174693
 30
0.0
 11
771.82452227084457
 21
-226.81603058174693
 31
0.0
 12
768.82452227084457
 22
-226.06603058174693
 32
0.0
 13
771.07452227084457
 23
-226.06603058174693
 33
0.0
  0
SOLID
  5
130
100
AcDbEntity
  8
____1
370
               5
390
0
  6
Continuous
 62
               7
100
AcDbTrace
 10
768.82452227084457
 20
-226.06603058174693
 30
0.0
 11
771.07452227084457
 21
-226.06603058174693
 31
0.0
 12
771.82452227084457
 22
-225.31603058174693
 32
0.0
 13
771.82452227084457
 23
-225.31603058174693
 33
0.0
  0
LINE
  5
131
100
AcDbEntity
  8
____1
370
              18
390
0
  6
Continuous
 62
               7
100
AcDbLine
 10
768.82452227084457
 20
-226.06603058174693
 30
0.0
 11
781.07452227084457
 21
-226.06603058174693
 31
0.0
  0
SOLID
  5
132
100
AcDbEntity
  8
____1
370
               5
390
0
  6
Continuous
 62
               7
100
AcDbTrace
 10
790.32452227084457
 20
-226.81603058174693
 30
0.0
 11
790.32452227084457
 21
-226.81603058174693
 31
0.0
 12
791.07452227084457
 22
-226.06603058174693
 32
0.0
 13
793.32452227084457
 23
-226.06603058174693
 33
0.0
  0
SOLID
  5
133
100
AcDbEntity
  8
____1
370
               5
390
0
  6
Continuous
 62
               7
100
AcDbTrace
 10
791.07452227084457
 20
-226.06603058174693
 30
0.0
 11
793.32452227084457
 21
-226.06603058174693
 31
0.0
 12
790.32452227084457
 22
-225.31603058174693
 32
0.0
 13
790.32452227084457
 23
-225.31603058174693
 33
0.0
  0
LINE
  5
134
100
AcDbEntity
  8
____1
370
              18
390
0
  6
Continuous
 62
               7
100
AcDbLine
 10
793.32452227084457
 20
-226.06603058174693
 30
0.0
 11
781.07452227084457
 21
-226.06603058174693
 31
0.0
  0
MTEXT
  5
135
100
AcDbEntity
  8
寸法線_1
370
              18
390
0
  6
Continuous
 62
               7
100
AcDbMText
 10
777.5467445990306
 20
-221.53825290993296
 30
0.0
 40
3.5277776718139648
 41
7.0831161066889763
 71
               1
 72
               1
  1
24.5
  7
Style1
 73
               1
 44
1.0
  0
ENDBLK
  5
136
100
AcDbEntity
  8
0
390
0
100
AcDbBlockEnd
  0
ENDSEC
  0
SECTION
  2
ENTITIES
  0
INSERT
  5
40
100
AcDbEntity
  8
____1
370
               5
390
0
  6
Continuous
 62
             254
100
AcDbBlockReference
  2
C0
 10
0.0
 20
0.0
 30
0.0
  0
LINE
  5
41
100
AcDbEntity
  8
____1
370
               5
390
0
  6
CENTER2
 62
               3
100
AcDbLine
 10
885.36652433937752
 20
-207.09248139738693
 30
0.0
 11
885.36652433937752
 21
-152.09248139738688
 31
0.0
  0
LINE
  5
42
100
AcDbEntity
  8
____1
370
              18
390
0
  6
Continuous
 62
               5
100
AcDbLine
 10
887.60723895333513
 20
-131.65961450508885
 30
0.0
 11
892.55723895333495
 21
-131.65961450508885
 31
0.0
  0
LINE
  5
43
100
AcDbEntity
  8
____1
370
              18
390
0
  6
Continuous
 62
               5
100
AcDbLine
 10
890.08223895333504
 20
-127.37278875635596
 30
0.0
 11
892.55723895333495
 21
-131.65961450508885
 31
0.0
  0
LINE
  5
44
100
AcDbEntity
  8
____1
370
              18
390
0
  6
Continuous
 62
               5
100
AcDbLine
 10
890.08223895333504
 20
-127.37278875635596
 30
0.0
 11
887.60723895333513
 21
-131.65961450508885
 31
0.0
  0
LINE
  5
45
100
AcDbEntity
  8
____1
370
              18
390
0
  6
Continuous
 62
               5
100
AcDbLine
 10
885.36652433937752
 20
-142.0404062560921
 30
0.0
 11
885.36652433937752
 21
-127.0404062560921
 31
0.0
  0
LINE
  5
46
100
AcDbEntity
  8
____1
370
              18
390
0
  6
Continuous
 62
               5
100
AcDbLine
 10
895.36652433937752
 20
-142.0404062560921
 30
0.0
 11
895.36652433937752
 21
-127.0404062560921
 31
0.0
  0
LINE
  5
47
100
AcDbEntity
  8
____1
370
               5
390
0
  6
CENTER2
 62
               3
100
AcDbLine
 10
885.36652433937752
 20
-152.09248139738688
 30
0.0
 11
975.36652433937752
 21
-152.09248139738688
 31
0.0
  0
MTEXT
  5
48
100
AcDbEntity
  8
____1
370
               5
390
0
  6
Continuous
 62
               7
100
AcDbMText
 10
895.36652433937752
 20
-132.76687759147663
 30
0.0
 40
3.5277776718139648
 41
20.0
 71
               1
 72
               1
  1
H16.12.10
  7
Style1
 73
               1
 44
1.0
  0
MTEXT
  5
49
100
AcDbEntity
  8
____1
370
               5
390
0
  6
Continuous
 62
               7
100
AcDbMText
 10
895.36652433937752
 20
-127.80230209213951
 30
0.0
 40
3.5277776718139648
 41
20.0
 71
               1
 72
               1
  1
改訂日
  7
Style1
 73
               1
 44
1.0
  0
LINE
  5
4A
100
AcDbEntity
  8
____1
370
              18
390
0
  6
Continuous
 62
               5
100
AcDbLine
 10
885.36652433937752
 20
-142.0404062560921
 30
0.0
 11
975.36652433937752
 21
-142.0404062560921
 31
0.0
  0
LINE
  5
4B
100
AcDbEntity
  8
____1
370
              18
390
0
  6
Continuous
 62
               5
100
AcDbLine
 10
885.36652433937752
 20
-132.0404062560921
 30
0.0
 11
975.36652433937752
 21
-132.0404062560921
 31
0.0
  0
LINE
  5
4C
100
AcDbEntity
  8
____1
370
              18
390
0
  6
Continuous
 62
               5
100
AcDbLine
 10
885.36652433937752
 20
-137.0404062560921
 30
0.0
 11
975.36652433937752
 21
-137.0404062560921
 31
0.0
  0
MTEXT
  5
4D
100
AcDbEntity
  8
____1
370
               5
390
0
  6
Continuous
 62
               7
100
AcDbMText
 10
900.64059682335801
 20
-160.88220001790685
 30
0.0
 40
3.5277776718139648
 41
15.0
 71
               1
 72
               1
  1
受板ｘ２
  7
Style1
 73
               1
 44
1.0
  0
LINE
  5
4E
100
AcDbEntity
  8
____1
370
               5
390
0
  6
CENTER2
 62
               3
100
AcDbLine
 10
910.47695021528943
 20
-188.61428808753024
 30
0.0
 11
938.97695021528943
 21
-188.61428808753024
 31
0.0
  0
LINE
  5
4F
100
AcDbEntity
  8
____1
370
               5
390
0
  6
CENTER2
 62
               3
100
AcDbLine
 10
885.36652433937752
 20
-207.09248139738693
 30
0.0
 11
975.36652433937752
 21
-207.09248139738693
 31
0.0
  0
DIMENSION
  5
5F
100
AcDbEntity
  8
寸法線_1
370
               5
390
0
  6
Continuous
 62
               7
100
AcDbDimension
  2
*D1
 10
945.97695021528943
 20
-194.8642880875303
 30
0.0
 11
945.97695021528943
 21
-188.61428808753024
 31
0.0
 71
               5
 72
               1
 41
1.0
 42
0.0
  3
DS1
100
AcDbAlignedDimension
 13
935.97695021528943
 23
-182.36428808753024
 33
0.0
 14
935.97695021528943
 24
-194.8642880875303
 34
0.0
 50
90.0
100
AcDbRotatedDimension
  0
DIMENSION
  5
6D
100
AcDbEntity
  8
寸法線_1
370
               5
390
0
  6
Continuous
 62
               7
100
AcDbDimension
  2
*D2
 10
935.97695021528943
 20
-172.36428808753024
 30
0.0
 11
924.72695021528943
 21
-172.36428808753024
 31
0.0
 71
               5
 72
               1
 41
1.0
 42
0.0
  3
DS1
100
AcDbAlignedDimension
 13
913.47695021528943
 23
-182.36428808753024
 33
0.0
 14
935.97695021528943
 24
-182.36428808753024
 34
0.0
100
AcDbRotatedDimension
  0
DIMENSION
  5
7A
100
AcDbEntity
  8
寸法線_1
370
               5
390
0
  6
Continuous
 62
               7
100
AcDbDimension
  2
*D3
 10
824.82452227084457
 20
-226.06603058174693
 30
0.0
 11
812.57452227084457
 21
-226.06603058174693
 31
0.0
 71
               5
 72
               1
 41
1.0
 42
0.0
  3
DS1
100
AcDbAlignedDimension
 13
800.32452227084457
 23
-245.00554272670496
 33
0.0
 14
824.82452227084457
 24
-245.00554272670496
 34
0.0
 50
0.0000008537736463
100
AcDbRotatedDimension
  0
DIMENSION
  5
8A
100
AcDbEntity
  8
寸法線_1
370
               5
390
0
  6
Continuous
 62
               7
100
AcDbDimension
  2
*D4
 10
750.82452227084457
 20
-245.00554330697307
 30
0.0
 11
750.82452227084457
 21
-246.50554317677992
 31
0.0
 71
               5
 72
               1
 41
1.0
 42
0.0
  3
DS1
100
AcDbAlignedDimension
 13
760.82452227084457
 23
-248.00554304658684
 33
0.0
 14
761.74808596877449
 24
-245.00554330697307
 34
0.0
 50
90.0
100
AcDbRotatedDimension
  0
LINE
  5
8B
100
AcDbEntity
  8
____1
370
               5
390
0
  6
Continuous
 62
               7
100
AcDbLine
 10
954.22695021528943
 20
-186.02110973426386
 30
0.0
 11
965.04655257719241
 21
-186.02110973426386
 31
0.0
  0
MTEXT
  5
8C
100
AcDbEntity
  8
____1
370
               5
390
0
  6
Continuous
 62
               7
100
AcDbMText
 10
954.22695021528943
 20
-179.03495974966935
 30
0.0
 40
3.5277776718139648
 41
12.0
 71
               1
 72
               1
  1
ｔ1.6
  7
Style1
 73
               1
 44
1.0
  0
MTEXT
  5
8D
100
AcDbEntity
  8
____1
370
               5
390
0
  6
Continuous
 62
               7
100
AcDbMText
 10
946.35538677812701
 20
-167.24873139738693
 30
0.0
 40
3.5277776718139648
 41
24.526344011916677
 71
               1
 72
               1
  1
皿ビス用皿穴
  7
Style1
 73
               1
 44
1.0
  0
LINE
  5
8E
100
AcDbEntity
  8
____1
370
              18
390
0
  6
Continuous
 62
               5
100
AcDbLine
 10
935.97695021528943
 20
-194.8642880875303
 30
0.0
 11
913.47695021528943
 21
-194.8642880875303
 31
0.0
  0
LINE
  5
8F
100
AcDbEntity
  8
____1
370
              18
390
0
  6
Continuous
 62
               5
100
AcDbLine
 10
935.97695021528943
 20
-182.36428808753024
 30
0.0
 11
935.97695021528943
 21
-194.8642880875303
 31
0.0
  0
LINE
  5
90
100
AcDbEntity
  8
____1
370
              18
390
0
  6
Continuous
 62
               5
100
AcDbLine
 10
934.97695021528943
 20
-182.36428808753024
 30
0.0
 11
935.97695021528943
 21
-183.36428808753035
 31
0.0
  0
LINE
  5
91
100
AcDbEntity
  8
____1
370
              18
390
0
  6
Continuous
 62
               5
100
AcDbLine
 10
914.47695021528943
 20
-194.8642880875303
 30
0.0
 11
913.47695021528943
 21
-193.8642880875303
 31
0.0
  0
LINE
  5
92
100
AcDbEntity
  8
____1
370
              18
390
0
  6
Continuous
 62
               5
100
AcDbLine
 10
934.97695021528943
 20
-194.8642880875303
 30
0.0
 11
935.97695021528943
 21
-193.8642880875303
 31
0.0
  0
LINE
  5
93
100
AcDbEntity
  8
____1
370
              18
390
0
  6
Continuous
 62
               5
100
AcDbLine
 10
914.47695021528943
 20
-182.36428808753024
 30
0.0
 11
913.47695021528943
 21
-183.36428808753035
 31
0.0
  0
MTEXT
  5
94
100
AcDbEntity
  8
____1
370
               5
390
0
  6
Continuous
 62
               7
100
AcDbMText
 10
954.22695021528943
 20
-184.82645921210374
 30
0.0
 40
3.5277776718139648
 41
12.0
 71
               1
 72
               1
  1
ｔ1.5
  7
Style1
 73
               1
 44
1.0
  0
LINE
  5
95
100
AcDbEntity
  8
____1
370
              18
390
0
  6
Continuous
 62
               5
100
AcDbLine
 10
913.47695021528943
 20
-182.36428808753024
 30
0.0
 11
935.97695021528943
 21
-182.36428808753024
 31
0.0
  0
CIRCLE
  5
96
100
AcDbEntity
  8
____1
370
              18
390
0
  6
Continuous
 62
               5
100
AcDbCircle
 10
924.72695021528943
 20
-188.61428808753024
 30
0.0
 40
2.0000000000001767
  0
LINE
  5
97
100
AcDbEntity
  8
____1
370
              18
390
0
  6
Continuous
 62
               5
100
AcDbLine
 10
913.47695021528943
 20
-194.8642880875303
 30
0.0
 11
913.47695021528943
 21
-182.36428808753024
 31
0.0
  0
CIRCLE
  5
98
100
AcDbEntity
  8
____1
370
              18
390
0
  6
Continuous
 62
               5
100
AcDbCircle
 10
924.72695021528943
 20
-188.61428808753024
 30
0.0
 40
2.9999999999999436
  0
LINE
  5
99
100
AcDbEntity
  8
____1
370
               5
390
0
  6
Continuous
 62
               7
100
AcDbLine
 10
927.07688266424248
 20
-186.74939734398552
 30
0.0
 11
941.96616516086578
 21
-171.37373139738693
 31
0.0
  0
SOLID
  5
9A
100
AcDbEntity
  8
____1
390
0
 62
               7
100
AcDbTrace
 10
927.07688266424248
 20
-186.74939734398552
 30
0.0
 11
930.1645616132613
 21
-184.82864749929095
 31
0.0
 12
927.07688266424248
 22
-186.74939734398552
 32
0.0
 13
928.91746489095681
 23
-184.84868940378601
 33
0.0
  0
SOLID
  5
9B
100
AcDbEntity
  8
____1
390
0
 62
               7
100
AcDbTrace
 10
928.91746489095681
 20
-184.84868940378601
 30
0.0
 11
928.89742298646172
 21
-183.60159268148143
 31
0.0
 12
927.07688266424248
 22
-186.74939734398552
 32
0.0
 13
927.07688266424248
 23
-186.74939734398552
 33
0.0
  0
LINE
  5
9C
100
AcDbEntity
  8
____1
370
               5
390
0
  6
Continuous
 62
               7
100
AcDbLine
 10
941.96616516086578
 20
-171.37373139738693
 30
0.0
 11
969.31937484442415
 21
-171.37373139738693
 31
0.0
  0
LINE
  5
9D
100
AcDbEntity
  8
____1
370
               5
390
0
  6
CENTER2
 62
               3
100
AcDbLine
 10
924.72695021528943
 20
-179.36428808753035
 30
0.0
 11
924.72695021528943
 21
-197.8642880875303
 31
0.0
  0
LINE
  5
9E
100
AcDbEntity
  8
____1
370
              18
390
0
  6
Continuous
 62
               5
100
AcDbLine
 10
915.36652433937752
 20
-142.0404062560921
 30
0.0
 11
915.36652433937752
 21
-127.0404062560921
 31
0.0
  0
LINE
  5
9F
100
AcDbEntity
  8
____1
370
              18
390
0
  6
Continuous
 62
               5
100
AcDbLine
 10
915.36652433937752
 20
-142.0404062560921
 30
0.0
 11
915.36652433937752
 21
-127.0404062560921
 31
0.0
  0
MTEXT
  5
A0
100
AcDbEntity
  8
____1
370
               5
390
0
  6
Continuous
 62
               7
100
AcDbMText
 10
915.36652433937752
 20
-127.80230209213951
 30
0.0
 40
3.5277776718139648
 41
60.0
 71
               1
 72
               1
  1
改　訂　内　容
  7
Style1
 73
               1
 44
1.0
  0
MTEXT
  5
A1
100
AcDbEntity
  8
____1
370
               5
390
0
  6
Continuous
 62
               7
100
AcDbMText
 10
915.36652433937752
 20
-132.76687759147663
 30
0.0
 40
3.5277776718139648
 41
60.0
 71
               1
 72
               1
  1
材料板厚ｔ1.5からｔ1.6に変更
  7
Style1
 73
               1
 44
1.0
  0
INSERT
  5
A9
100
AcDbEntity
  8
____1
370
               5
390
0
  6
Continuous
 62
             254
100
AcDbBlockReference
  2
C1
 10
0.0
 20
0.0
 30
0.0
  0
LINE
  5
AA
100
AcDbEntity
  8
____1
370
               5
390
0
  6
Continuous
 62
               7
100
AcDbLine
 10
954.22695021528943
 20
-187.245206119806
 30
0.0
 11
965.04655257719241
 21
-187.245206119806
 31
0.0
  0
LINE
  5
AB
100
AcDbEntity
  8
____1
370
               5
390
0
  6
CENTER2
 62
               3
100
AcDbLine
 10
781.07452227084445
 20
-164.24130673208555
 30
0.0
 11
781.07452227084457
 21
-191.24130673208592
 31
0.0
  0
LINE
  5
AC
100
AcDbEntity
  8
____1
370
               5
390
0
  6
CENTER2
 62
               3
100
AcDbLine
 10
812.57452227084468
 20
-164.24130673208555
 30
0.0
 11
812.57452227084457
 21
-191.24130673208592
 31
0.0
  0
LINE
  5
AD
100
AcDbEntity
  8
____1
370
              18
390
0
  6
Continuous
 62
               5
100
AcDbLine
 10
793.32452227084423
 20
-177.24130673208555
 30
0.0
 11
800.32452227084434
 21
-177.24130673208555
 31
0.0
  0
LINE
  5
AE
100
AcDbEntity
  8
____1
370
              18
390
0
  6
Continuous
 62
               5
100
AcDbLine
 10
793.32452227084423
 20
-176.24130673208555
 30
0.0
 11
800.32452227084434
 21
-176.24130673208555
 31
0.0
  0
LINE
  5
AF
100
AcDbEntity
  8
____1
370
              18
390
0
  6
Continuous
 62
               5
100
AcDbLine
 10
791.07452227084445
 20
-188.24130673208563
 30
0.0
 11
791.07452227084445
 21
-186.24130673208552
 31
0.0
  0
LINE
  5
B0
100
AcDbEntity
  8
____1
370
              18
390
0
  6
Continuous
 62
               5
100
AcDbLine
 10
791.07452227084445
 20
-188.24130673208563
 30
0.0
 11
771.07452227084445
 21
-188.2413067320862
 31
0.0
  0
ARC
  5
B1
100
AcDbEntity
  8
____1
370
              18
390
0
  6
Continuous
 62
               5
100
AcDbCircle
 10
890.67487008572061
 20
-236.50554246631873
 30
0.0
 40
1.0
210
0.0
220
0.0
230
1.0
100
AcDbArc
 50
-0.0000111764638582
 51
90.0
  0
ARC
  5
B2
100
AcDbEntity
  8
____1
370
              18
390
0
  6
Continuous
 62
               5
100
AcDbCircle
 10
873.67487008572061
 20
-236.50554246631873
 30
0.0
 40
1.0
100
AcDbArc
 50
90.0
 51
179.99998902048017
  0
LINE
  5
B3
100
AcDbEntity
  8
____1
370
              18
390
0
  6
Continuous
 62
               5
100
AcDbLine
 10
870.67487008572061
 20
-243.20554246631878
 30
0.0
 11
870.67487008572061
 21
-241.40554246631876
 31
0.0
  0
LINE
  5
B4
100
AcDbEntity
  8
____1
370
              18
390
0
  6
Continuous
 62
               5
100
AcDbLine
 10
870.67487008572061
 20
-241.40554246631876
 30
0.0
 11
872.67487008572061
 21
-241.40554246631876
 31
0.0
  0
LINE
  5
B5
100
AcDbEntity
  8
____1
370
              18
390
0
  6
Continuous
 62
               5
100
AcDbLine
 10
870.67487008572061
 20
-236.70554246631872
 30
0.0
 11
872.67487008572061
 21
-236.70554246631872
 31
0.0
  0
LINE
  5
B6
100
AcDbEntity
  8
____1
370
              18
390
0
  6
Continuous
 62
               5
100
AcDbLine
 10
870.67487008572061
 20
-236.70554246631872
 30
0.0
 11
870.67487008572061
 21
-238.50554246631873
 31
0.0
  0
LINE
  5
B7
100
AcDbEntity
  8
____1
370
              18
390
0
  6
Continuous
 62
               5
100
AcDbLine
 10
870.67487008572061
 20
-238.50554246631873
 30
0.0
 11
872.67487008572061
 21
-238.50554246631873
 31
0.0
  0
LINE
  5
B8
100
AcDbEntity
  8
____1
370
              18
390
0
  6
Continuous
 62
               5
100
AcDbLine
 10
870.67487008572061
 20
-243.20554246631878
 30
0.0
 11
872.67487008572061
 21
-243.20554246631878
 31
0.0
  0
LINE
  5
B9
100
AcDbEntity
  8
____1
370
              18
390
0
  6
Continuous
 62
               5
100
AcDbLine
 10
871.17487008572061
 20
-238.50554246631873
 30
0.0
 11
871.17487008572061
 21
-241.40554246631876
 31
0.0
  0
LINE
  5
BA
100
AcDbEntity
  8
____1
370
              18
390
0
  6
Continuous
 62
               5
100
AcDbLine
 10
873.67487008572061
 20
-235.50554246631873
 30
0.0
 11
890.67487008572061
 21
-235.50554246631873
 31
0.0
  0
DIMENSION
  5
C7
100
AcDbEntity
  8
寸法線_1
370
               5
390
0
  6
Continuous
 62
               7
100
AcDbDimension
  2
*D6
 10
760.82452227084457
 20
-259.60622530519277
 30
0.0
 11
796.82452227084457
 21
-259.60622530519277
 31
0.0
 71
               5
 72
               1
 41
1.0
 42
0.0
  3
DS1
100
AcDbAlignedDimension
 13
832.82452227084457
 23
-248.00554241725791
 33
0.0
 14
760.82452227084457
 24
-248.00554304658684
 34
0.0
 50
180.0
100
AcDbRotatedDimension
  0
DIMENSION
  5
D4
100
AcDbEntity
  8
寸法線_1
370
               5
390
0
  6
Continuous
 62
               7
100
AcDbDimension
  2
*D7
 10
828.32452226890007
 20
-154.14270057340559
 30
0.0
 11
796.82452226890007
 21
-154.14270057340559
 31
0.0
 71
               5
 72
               1
 41
1.0
 42
0.0
  3
DS1
100
AcDbAlignedDimension
 13
765.32452226890007
 23
-170.99130731235365
 33
0.0
 14
828.32452226890007
 24
-170.99130668302473
 34
0.0
100
AcDbRotatedDimension
  0
DIMENSION
  5
E4
100
AcDbEntity
  8
寸法線_1
370
               5
390
0
  6
Continuous
 62
               7
100
AcDbDimension
  2
*D8
 10
841.54468276293585
 20
-180.99130664842508
 30
0.0
 11
841.54468276293585
 21
-176.74130664842508
 31
0.0
 71
               5
 72
               1
 41
1.0
 42
0.0
  3
DS1
100
AcDbAlignedDimension
 13
829.07452226306702
 23
-172.49130664842508
 33
0.0
 14
829.07452227862188
 24
-180.99130664842508
 34
0.0
 50
90.0
100
AcDbRotatedDimension
  0
DIMENSION
  5
F2
100
AcDbEntity
  8
寸法線_1
370
               5
390
0
  6
Continuous
 62
               7
100
AcDbDimension
  2
*D9
 10
830.07452227084445
 20
-160.56777797716043
 30
0.0
 11
835.20603682009983
 21
-160.56777797716043
 31
0.0
 71
               5
 72
               1
 41
1.0
 42
0.0
  3
DS1
100
AcDbAlignedDimension
 13
826.57452227084445
 23
-173.49130675351753
 33
0.0
 14
830.07452227084445
 24
-173.49130664842508
 34
0.0
100
AcDbRotatedDimension
  0
DIMENSION
  5
102
100
AcDbEntity
  8
寸法線_1
370
               5
390
0
  6
Continuous
 62
               7
100
AcDbDimension
  2
*D10
 10
842.82452227084457
 20
-248.00554241725791
 30
0.0
 11
842.82452227084457
 21
-241.75554244178832
 31
0.0
 71
               5
 72
               1
 41
1.0
 42
0.0
  3
DS1
100
AcDbAlignedDimension
 13
823.15035822840105
 23
-235.50554246631873
 33
0.0
 14
832.82452227084457
 24
-248.00554241725791
 34
0.0
 50
90.0
100
AcDbRotatedDimension
  0
DIMENSION
  5
110
100
AcDbEntity
  8
寸法線_1
370
               5
390
0
  6
Continuous
 62
               7
100
AcDbDimension
  2
*D11
 10
872.67487008572061
 20
-225.50554246631873
 30
0.0
 11
865.07679365058664
 21
-225.50554246631873
 31
0.0
 71
               5
 72
               1
 41
1.0
 42
0.0
  3
DS1
100
AcDbAlignedDimension
 13
870.67487008572061
 23
-236.70554246631872
 33
0.0
 14
872.67487008572061
 24
-235.50554246631873
 34
0.0
100
AcDbRotatedDimension
  0
DIMENSION
  5
11D
100
AcDbEntity
  8
寸法線_1
370
               5
390
0
  6
Continuous
 62
               7
100
AcDbDimension
  2
*D12
 10
891.67487008572061
 20
-225.50554246631873
 30
0.0
 11
882.17487008572061
 21
-225.50554246631873
 31
0.0
 71
               5
 72
               1
 41
1.0
 42
0.0
  3
DS1
100
AcDbAlignedDimension
 13
872.67487008572061
 23
-235.50554246631873
 33
0.0
 14
891.67487008572061
 24
-235.50554246631873
 34
0.0
100
AcDbRotatedDimension
  0
DIMENSION
  5
12A
100
AcDbEntity
  8
寸法線_1
370
               5
390
0
  6
Continuous
 62
               7
100
AcDbDimension
  2
*D13
 10
781.07452227084457
 20
-201.24130673208592
 30
0.0
 11
796.82452227084457
 21
-201.24130673208592
 31
0.0
 71
               5
 72
               1
 41
1.0
 42
0.0
  3
DS1
100
AcDbAlignedDimension
 13
812.57452227084457
 23
-191.24130673208592
 33
0.0
 14
781.07452227084457
 24
-191.24130673208592
 34
0.0
 50
180.0
100
AcDbRotatedDimension
  0
DIMENSION
  5
137
100
AcDbEntity
  8
寸法線_1
370
               5
390
0
  6
Continuous
 62
               7
100
AcDbDimension
  2
*D14
 10
793.32452227084457
 20
-226.06603058174693
 30
0.0
 11
781.07452227084457
 21
-226.06603058174693
 31
0.0
 71
               5
 72
               1
 41
1.0
 42
0.0
  3
DS1
100
AcDbAlignedDimension
 13
768.82452227084457
 23
-245.00554272670496
 33
0.0
 14
793.32452227084457
 24
-245.00554272670496
 34
0.0
 50
0.0000008537736463
100
AcDbRotatedDimension
  0
ARC
  5
138
100
AcDbEntity
  8
____1
370
              18
390
0
  6
Continuous
 62
               5
100
AcDbCircle
 10
801.32452227084445
 20
-168.24130673208555
 30
0.0
 40
1.0
100
AcDbArc
 50
90.0
 51
180.0
  0
LINE
  5
139
100
AcDbEntity
  8
____1
370
              18
390
0
  6
Continuous
 62
               5
100
AcDbLine
 10
800.32452227084445
 20
-168.24130673208555
 30
0.0
 11
800.32452227084445
 21
-185.24130673208552
 31
0.0
  0
ARC
  5
13A
100
AcDbEntity
  8
____1
370
              18
390
0
  6
Continuous
 62
               5
100
AcDbCircle
 10
801.32452227084445
 20
-185.24130673208552
 30
0.0
 40
1.0
100
AcDbArc
 50
180.0
 51
-90.0
  0
ARC
  5
13B
100
AcDbEntity
  8
____1
370
              18
390
0
  6
Continuous
 62
               5
100
AcDbCircle
 10
823.82452227084468
 20
-185.24130673208552
 30
0.0
 40
1.0
210
0.0
220
0.0
230
1.0
100
AcDbArc
 50
-90.0
 51
0.0
  0
LINE
  5
13C
100
AcDbEntity
  8
____1
370
              18
390
0
  6
Continuous
 62
               5
100
AcDbLine
 10
824.82452227084468
 20
-168.24130673208555
 30
0.0
 11
824.82452227084468
 21
-185.24130673208552
 31
0.0
  0
ARC
  5
13D
100
AcDbEntity
  8
____1
370
              18
390
0
  6
Continuous
 62
               5
100
AcDbCircle
 10
823.82452227084468
 20
-168.24130673208555
 30
0.0
 40
1.0
210
0.0
220
0.0
230
1.0
100
AcDbArc
 50
0.0
 51
90.0
  0
LINE
  5
13E
100
AcDbEntity
  8
____1
370
              18
390
0
  6
Continuous
 62
               5
100
AcDbLine
 10
771.07452227084445
 20
-188.2413067320862
 30
0.0
 11
771.07452227084445
 21
-186.24130673208552
 31
0.0
  0
LINE
  5
13F
100
AcDbEntity
  8
____1
370
              18
390
0
  6
Continuous
 62
               5
100
AcDbLine
 10
822.57452227084468
 20
-188.2413067320862
 30
0.0
 11
822.57452227084468
 21
-186.24130673208552
 31
0.0
  0
LINE
  5
140
100
AcDbEntity
  8
____1
370
              18
390
0
  6
Continuous
 62
               5
100
AcDbLine
 10
802.57452227084468
 20
-188.24130673208563
 30
0.0
 11
822.57452227084468
 21
-188.2413067320862
 31
0.0
  0
LINE
  5
141
100
AcDbEntity
  8
____1
370
              18
390
0
  6
Continuous
 62
               5
100
AcDbLine
 10
802.57452227084468
 20
-188.24130673208563
 30
0.0
 11
802.57452227084468
 21
-186.24130673208552
 31
0.0
  0
LINE
  5
142
100
AcDbEntity
  8
____1
370
              18
390
0
  6
Continuous
 62
               5
100
AcDbLine
 10
802.5745223627456
 20
-236.70554246631872
 30
0.0
 11
802.5745223627456
 21
-243.20554246631878
 31
0.0
  0
LINE
  5
143
100
AcDbEntity
  8
____1
370
              18
390
0
  6
Continuous
 62
               5
100
AcDbLine
 10
802.5745223627456
 20
-241.40554246631876
 30
0.0
 11
822.5745223627456
 21
-241.40554246631876
 31
0.0
  0
LINE
  5
144
100
AcDbEntity
  8
____1
370
              18
390
0
  6
Continuous
 62
               5
100
AcDbLine
 10
802.5745223627456
 20
-238.50554246631873
 30
0.0
 11
822.5745223627456
 21
-238.50554246631873
 31
0.0
  0
LINE
  5
145
100
AcDbEntity
  8
____1
370
              18
390
0
  6
Continuous
 62
               5
100
AcDbLine
 10
802.5745223627456
 20
-243.20554246631878
 30
0.0
 11
822.5745223627456
 21
-243.20554246631878
 31
0.0
  0
LINE
  5
146
100
AcDbEntity
  8
____1
370
              18
390
0
  6
Continuous
 62
               5
100
AcDbLine
 10
802.5745223627456
 20
-236.70554246631872
 30
0.0
 11
822.5745223627456
 21
-236.70554246631872
 31
0.0
  0
ARC
  5
147
100
AcDbEntity
  8
____1
370
              18
390
0
  6
Continuous
 62
               5
100
AcDbCircle
 10
801.99868649709015
 20
-236.50554246631873
 30
0.0
 40
1.0000000000000169
100
AcDbArc
 50
90.000010531082197
 51
175.48601154200131
  0
LINE
  5
148
100
AcDbEntity
  8
____1
370
              18
390
0
  6
Continuous
 62
               5
100
AcDbLine
 10
801.99868631328809
 20
-235.50554246631873
 30
0.0
 11
823.15035822840105
 21
-235.50554246631873
 31
0.0
  0
ARC
  5
149
100
AcDbEntity
  8
____1
370
              18
390
0
  6
Continuous
 62
               5
100
AcDbCircle
 10
823.15035822840105
 20
-236.50554246631873
 30
0.0
 40
1.0
210
0.0
220
0.0
230
1.0
100
AcDbArc
 50
4.5139884579986989
 51
90.0
  0
LINE
  5
14A
100
AcDbEntity
  8
____1
370
              18
390
0
  6
Continuous
 62
               5
100
AcDbLine
 10
792.92978536660019
 20
-240.00554246631873
 30
0.0
 11
800.71925917508884
 21
-240.00554246631873
 31
0.0
  0
ARC
  5
14B
100
AcDbEntity
  8
____1
370
              18
390
0
  6
Continuous
 62
               5
100
AcDbCircle
 10
770.49868631328798
 20
-236.50554246631873
 30
0.0
 40
1.0
100
AcDbArc
 50
90.0
 51
175.48601154200131
  0
LINE
  5
14C
100
AcDbEntity
  8
____1
370
              18
390
0
  6
Continuous
 62
               5
100
AcDbLine
 10
791.65035822840093
 20
-235.50554246631873
 30
0.0
 11
770.49868631328798
 21
-235.50554246631873
 31
0.0
  0
ARC
  5
14D
100
AcDbEntity
  8
____1
370
              18
390
0
  6
Continuous
 62
               5
100
AcDbCircle
 10
791.65035804459887
 20
-236.50554246631873
 30
0.0
 40
1.0000000000000169
210
0.0
220
0.0
230
1.0
100
AcDbArc
 50
4.5139884579986989
 51
89.999989468917803
  0
LINE
  5
14E
100
AcDbEntity
  8
____1
370
              18
390
0
  6
Continuous
 62
               5
100
AcDbLine
 10
791.07452217894343
 20
-236.70554246631872
 30
0.0
 11
771.07452217894343
 21
-236.70554246631872
 31
0.0
  0
LINE
  5
14F
100
AcDbEntity
  8
____1
370
              18
390
0
  6
Continuous
 62
               5
100
AcDbLine
 10
791.07452217894343
 20
-243.20554246631878
 30
0.0
 11
771.07452217894343
 21
-243.20554246631878
 31
0.0
  0
LINE
  5
150
100
AcDbEntity
  8
____1
370
              18
390
0
  6
Continuous
 62
               5
100
AcDbLine
 10
791.07452217894343
 20
-238.50554246631873
 30
0.0
 11
771.07452217894343
 21
-238.50554246631873
 31
0.0
  0
LINE
  5
151
100
AcDbEntity
  8
____1
370
               5
390
0
  6
CENTER2
 62
               3
100
AcDbLine
 10
812.57452227084468
 20
-232.50554246631873
 30
0.0
 11
812.57452227084445
 21
-251.00554246631879
 31
0.0
  0
LINE
  5
152
100
AcDbEntity
  8
____1
370
              18
390
0
  6
Continuous
 62
               5
100
AcDbLine
 10
824.14725637705453
 20
-236.42683998089876
 30
0.0
 11
824.82452227084457
 21
-245.00554272670496
 31
0.0
  0
LINE
  5
153
100
AcDbEntity
  8
____1
370
              18
390
0
  6
Continuous
 62
               5
100
AcDbLine
 10
799.32452227084457
 20
-245.00554272670496
 30
0.0
 11
800.41023656636207
 21
-243.91982843118745
 31
0.0
  0
LINE
  5
154
100
AcDbEntity
  8
____1
370
              18
390
0
  6
Continuous
 62
               5
100
AcDbLine
 10
800.32452227084457
 20
-245.00554272670496
 30
0.0
 11
793.32452227084457
 21
-245.00554272670496
 31
0.0
  0
LINE
  5
155
100
AcDbEntity
  8
____1
370
              18
390
0
  6
Continuous
 62
               5
100
AcDbLine
 10
769.50178816463449
 20
-236.42683998089876
 30
0.0
 11
768.82452227084457
 21
-245.00554272670496
 31
0.0
  0
LINE
  5
156
100
AcDbEntity
  8
____1
370
              18
390
0
  6
Continuous
 62
               5
100
AcDbLine
 10
792.64725619325236
 20
-236.42683998089876
 30
0.0
 11
793.32452227084457
 21
-245.00554272670496
 31
0.0
  0
LINE
  5
157
100
AcDbEntity
  8
____1
370
              18
390
0
  6
Continuous
 62
               5
100
AcDbLine
 10
794.32452227084457
 20
-245.00554272670496
 30
0.0
 11
793.23880797532706
 21
-243.91982843118745
 31
0.0
  0
LINE
  5
158
100
AcDbEntity
  8
____1
370
              18
390
0
  6
Continuous
 62
               5
100
AcDbLine
 10
801.00178834843666
 20
-236.42683998089876
 30
0.0
 11
800.32452227084457
 21
-245.00554272670496
 31
0.0
  0
ARC
  5
159
100
AcDbEntity
  8
____1
370
              18
390
0
  6
Continuous
 62
               5
100
AcDbCircle
 10
890.67487008572061
 20
-246.00554246631873
 30
0.0
 40
1.0
210
0.0
220
0.0
230
1.0
100
AcDbArc
 50
0.0
 51
90.0
  0
ARC
  5
15A
100
AcDbEntity
  8
____1
370
              18
390
0
  6
Continuous
 62
               5
100
AcDbCircle
 10
873.67487008572061
 20
-246.00554246631873
 30
0.0
 40
1.0
100
AcDbArc
 50
90.0
 51
180.0
  0
LINE
  5
15B
100
AcDbEntity
  8
____1
370
               5
390
0
  6
CENTER2
 62
               3
100
AcDbLine
 10
882.1748700857205
 20
-232.50554246631873
 30
0.0
 11
882.17487008572061
 21
-251.00554246631879
 31
0.0
  0
LINE
  5
15C
100
AcDbEntity
  8
____1
370
              18
390
0
  6
Continuous
 62
               5
100
AcDbLine
 10
872.67487008572061
 20
-248.00554246631873
 30
0.0
 11
891.67487008572061
 21
-248.00554246631873
 31
0.0
  0
LINE
  5
15D
100
AcDbEntity
  8
____1
370
              18
390
0
  6
Continuous
 62
               5
100
AcDbLine
 10
891.67487008572061
 20
-236.50554266138482
 30
0.0
 11
891.67487008572061
 21
-248.00554246631873
 31
0.0
  0
LINE
  5
15E
100
AcDbEntity
  8
____1
370
              18
390
0
  6
Continuous
 62
               5
100
AcDbLine
 10
872.67487008572061
 20
-236.50554227468996
 30
0.0
 11
872.67487008572061
 21
-248.00554246631873
 31
0.0
  0
LINE
  5
15F
100
AcDbEntity
  8
____1
370
              18
390
0
  6
Continuous
 62
               5
100
AcDbLine
 10
873.67487008572061
 20
-245.00554246631873
 30
0.0
 11
890.67487008572061
 21
-245.00554246631873
 31
0.0
  0
LINE
  5
160
100
AcDbEntity
  8
____1
370
              18
390
0
  6
Continuous
 62
               5
100
AcDbLine
 10
791.07452217894343
 20
-241.40554246631876
 30
0.0
 11
771.07452217894343
 21
-241.40554246631876
 31
0.0
  0
LINE
  5
161
100
AcDbEntity
  8
____1
370
              18
390
0
  6
Continuous
 62
               5
100
AcDbLine
 10
791.07452217894343
 20
-236.70554246631872
 30
0.0
 11
791.07452217894343
 21
-243.20554246631878
 31
0.0
  0
LINE
  5
162
100
AcDbEntity
  8
____1
370
              18
390
0
  6
Continuous
 62
               5
100
AcDbLine
 10
771.07452217894343
 20
-236.70554246631872
 30
0.0
 11
771.07452217894343
 21
-243.20554246631878
 31
0.0
  0
LINE
  5
163
100
AcDbEntity
  8
____1
370
              18
390
0
  6
Continuous
 62
               5
100
AcDbLine
 10
822.5745223627456
 20
-236.70554246631872
 30
0.0
 11
822.5745223627456
 21
-243.20554246631878
 31
0.0
  0
ARC
  5
164
100
AcDbEntity
  8
____1
370
              18
390
0
  6
Continuous
 62
               5
100
AcDbCircle
 10
769.82452227084445
 20
-168.24130673208555
 30
0.0
 40
1.0
100
AcDbArc
 50
90.0
 51
180.0
  0
LINE
  5
165
100
AcDbEntity
  8
____1
370
              18
390
0
  6
Continuous
 62
               5
100
AcDbLine
 10
768.82452227084445
 20
-168.24130673208555
 30
0.0
 11
768.82452227084445
 21
-185.24130673208552
 31
0.0
  0
ARC
  5
166
100
AcDbEntity
  8
____1
370
              18
390
0
  6
Continuous
 62
               5
100
AcDbCircle
 10
769.82452227084445
 20
-185.24130673208552
 30
0.0
 40
1.0
100
AcDbArc
 50
180.0
 51
-90.0
  0
ARC
  5
167
100
AcDbEntity
  8
____1
370
              18
390
0
  6
Continuous
 62
               5
100
AcDbCircle
 10
792.32452227084445
 20
-168.24130673208555
 30
0.0
 40
1.0
210
0.0
220
0.0
230
1.0
100
AcDbArc
 50
0.0
 51
90.0
  0
LINE
  5
168
100
AcDbEntity
  8
____1
370
              18
390
0
  6
Continuous
 62
               5
100
AcDbLine
 10
793.32452227084445
 20
-168.24130673208555
 30
0.0
 11
793.32452227084445
 21
-185.24130673208552
 31
0.0
  0
ARC
  5
169
100
AcDbEntity
  8
____1
370
              18
390
0
  6
Continuous
 62
               5
100
AcDbCircle
 10
792.32452227084445
 20
-185.24130673208552
 30
0.0
 40
1.0
210
0.0
220
0.0
230
1.0
100
AcDbArc
 50
-90.0
 51
0.0
  0
LINE
  5
16A
100
AcDbEntity
  8
____1
370
              18
390
0
  6
Continuous
 62
               5
100
AcDbLine
 10
907.46619667248251
 20
-311.2722678825819
 30
0.0
 11
907.46619667248251
 21
-312.71226788258184
 31
0.0
  0
LINE
  5
16B
100
AcDbEntity
  8
____1
370
              18
390
0
  6
Continuous
 62
               5
100
AcDbLine
 10
895.16372570537089
 20
-313.11226788258182
 30
0.0
 11
895.16372570537089
 21
-312.71226788258184
 31
0.0
  0
LINE
  5
16C
100
AcDbEntity
  8
____1
370
              18
390
0
  6
Continuous
 62
               5
100
AcDbLine
 10
898.49221055385567
 20
-311.76995609656683
 30
0.0
 11
901.6922105538556
 21
-311.76995609656683
 31
0.0
  0
LINE
  5
16D
100
AcDbEntity
  8
____1
370
              18
390
0
  6
Continuous
 62
               5
100
AcDbLine
 10
902.12126054720477
 20
-312.72752460666982
 30
0.0
 11
901.92878390215151
 21
-312.94011529511295
 31
0.0
  0
ARC
  5
16E
100
AcDbEntity
  8
____1
370
              18
390
0
  6
Continuous
 62
               5
100
AcDbCircle
 10
891.96372570537096
 20
-313.11226788258182
 30
0.0
 40
1.1999999999999318
210
0.0
220
0.0
230
0.9999999999999999
100
AcDbArc
 50
-90.0
 51
0.0
  0
LINE
  5
16F
100
AcDbEntity
  8
____1
370
              18
390
0
  6
Continuous
 62
               5
100
AcDbLine
 10
893.16372570537089
 20
-309.91226788258177
 30
0.0
 11
893.16372570537089
 21
-311.5122678825818
 31
0.0
  0
LINE
  5
170
100
AcDbEntity
  8
____1
370
              18
390
0
  6
Continuous
 62
               5
100
AcDbLine
 10
912.14534942064472
 20
-312.71226788258184
 30
0.0
 11
914.66619667248256
 21
-312.71226788258184
 31
0.0
  0
LINE
  5
171
100
AcDbEntity
  8
____1
370
              18
390
0
  6
Continuous
 62
               5
100
AcDbLine
 10
904.89221055385565
 20
-311.11226788258182
 30
0.0
 11
905.6922105538556
 21
-309.91226788258177
 31
0.0
  0
LINE
  5
172
100
AcDbEntity
  8
____1
370
              18
390
0
  6
Continuous
 62
               5
100
AcDbLine
 10
910.07526333914916
 20
-313.35226788258183
 30
0.0
 11
909.88753000581573
 21
-312.71226788258184
 31
0.0
  0
LINE
  5
173
100
AcDbEntity
  8
____1
370
              18
390
0
  6
Continuous
 62
               5
100
AcDbLine
 10
895.16372570537089
 20
-311.11226788258182
 30
0.0
 11
896.36372570537094
 21
-309.91226788258177
 31
0.0
  0
LINE
  5
174
100
AcDbEntity
  8
____1
370
              18
390
0
  6
Continuous
 62
               5
100
AcDbLine
 10
889.56372570537087
 20
-313.91226788258177
 30
0.0
 11
891.56372570537087
 21
-313.91226788258177
 31
0.0
  0
LINE
  5
175
100
AcDbEntity
  8
____1
370
              18
390
0
  6
Continuous
 62
               5
100
AcDbLine
 10
905.6922105538556
 20
-309.91226788258177
 30
0.0
 11
898.49221055385567
 21
-309.91226788258177
 31
0.0
  0
LINE
  5
176
100
AcDbEntity
  8
____1
370
              18
390
0
  6
Continuous
 62
               5
100
AcDbLine
 10
911.73096815731788
 20
-311.27226788258179
 30
0.0
 11
911.6138527571386
 21
-310.86528477020806
 31
0.0
  0
LINE
  5
177
100
AcDbEntity
  8
____1
370
              18
390
0
  6
Continuous
 62
               5
100
AcDbLine
 10
907.46619667248251
 20
-314.79226788258188
 30
0.0
 11
910.4976633391492
 21
-314.79226788258188
 31
0.0
  0
ARC
  5
178
100
AcDbEntity
  8
____1
370
              18
390
0
  6
Continuous
 62
               5
100
AcDbCircle
 10
900.49221055385567
 20
-311.11226788258182
 30
0.0
 40
4.3999999999999773
210
0.0
220
0.0
230
1.0
100
AcDbArc
 50
-37.512388020300733
 51
0.0
  0
LINE
  5
179
100
AcDbEntity
  8
____1
370
              18
390
0
  6
Continuous
 62
               5
100
AcDbLine
 10
912.32951887101217
 20
-313.35226788258183
 30
0.0
 11
914.66619667248256
 21
-313.35226788258183
 31
0.0
  0
LINE
  5
17A
100
AcDbEntity
  8
____1
370
              18
390
0
  6
Continuous
 62
               5
100
AcDbLine
 10
913.06619667248242
 20
-315.91226788258177
 30
0.0
 11
912.74390013433936
 21
-314.79226788258188
 31
0.0
  0
LINE
  5
17B
100
AcDbEntity
  8
____1
370
              18
390
0
  6
Continuous
 62
               5
100
AcDbLine
 10
891.56372570537087
 20
-312.71226788258184
 30
0.0
 11
893.16372570537089
 21
-312.71226788258184
 31
0.0
  0
CIRCLE
  5
17C
100
AcDbEntity
  8
____1
370
              18
390
0
  6
Continuous
 62
               5
100
AcDbCircle
 10
956.45648786537811
 20
-284.4330090305258
 30
0.0
 40
2.4999999999999845
  0
MTEXT
  5
17D
100
AcDbEntity
  8
____1
370
               5
390
0
  6
Continuous
 62
               7
100
AcDbMText
 10
920.44086286537811
 20
-282.3080090305258
 30
0.0
 40
4.2333331108093262
 41
52.314575699070531
 71
               1
 72
               1
  1
本体ビス：3x13　＋　Ｗ付\P受板ビス：2.4x13
  7
Style1
 73
               1
 44
1.0
  0
SPLINE
  5
17E
100
AcDbEntity
  8
____1
370
              18
390
0
  6
Continuous
 62
               5
100
AcDbSpline
210
0.0
220
0.0
230
1.0
 70
               0
 71
               3
 72
               8
 73
               4
 74
               0
 42
0.0000001
 43
0.0000001
 12
0.6676726695719162
 22
-0.7444549726522826
 32
0.0
 13
0.741315969719885
 23
-0.6711561912388697
 33
0.0
 40
0.0
 40
0.0
 40
0.0
 40
0.0
 40
1.0
 40
1.0
 40
1.0
 40
1.0
 10
901.23966221389628
 20
-312.22250443652626
 30
0.0
 10
901.46316015574735
 20
-312.47170462364079
 30
0.0
 10
901.68665809759852
 20
-312.7209048107552
 30
0.0
 10
901.92878390215151
 20
-312.94011529511295
 30
0.0
  0
SPLINE
  5
17F
100
AcDbEntity
  8
____1
370
              18
390
0
  6
Continuous
 62
               5
100
AcDbSpline
210
0.0
220
0.0
230
1.0
 70
               0
 71
               3
 72
               8
 73
               4
 74
               0
 42
0.0000001
 43
0.0000001
 12
0.9524773181045301
 22
-0.3046095180660017
 32
0.0
 13
0.9790669434801691
 23
-0.2035384980400493
 33
0.0
 40
0.0
 40
0.0
 40
0.0
 40
0.0
 40
1.0
 40
1.0
 40
1.0
 40
1.0
 10
902.85923998913597
 20
-314.82133402549664
 30
0.0
 10
903.77050901805558
 20
-315.11276481807454
 30
0.0
 10
904.73135978595565
 20
-315.31251635032822
 30
0.0
 10
905.6922105538556
 20
-315.5122678825818
 30
0.0
  0
SPLINE
  5
180
100
AcDbEntity
  8
____1
370
              18
390
0
  6
Continuous
 62
               5
100
AcDbSpline
210
0.0
220
0.0
230
1.0
 70
               0
 71
               3
 72
               9
 73
               5
 74
               0
 42
0.0000001
 43
0.0000001
 12
0.7352773642103068
 22
-0.6777663297036403
 32
0.0
 13
0.8572557179984813
 23
-0.5148908951990783
 33
0.0
 40
0.0
 40
0.0
 40
0.0
 40
0.0
 40
0.9999999993702069
 40
1.0
 40
1.0
 40
1.0
 40
1.0
 10
898.49221055385567
 20
-312.02764431055198
 30
0.0
 10
899.25589423654924
 20
-312.73159510771779
 30
0.0
 10
900.01957791972382
 20
-313.43554590532688
 30
0.0
 10
900.8834269209741
 20
-313.95428572687592
 30
0.0
 10
900.88342692151809
 20
-313.95428572720266
 30
0.0
  0
SPLINE
  5
181
100
AcDbEntity
  8
____1
370
              18
390
0
  6
Continuous
 62
               5
100
AcDbSpline
210
0.0
220
0.0
230
1.0
 70
               0
 71
               3
 72
               8
 73
               4
 74
               0
 42
0.0000001
 43
0.0000001
 12
0.9618578240638687
 22
-0.2735498606965832
 32
0.0
 13
0.9860364361537883
 23
-0.1665297167989425
 33
0.0
 40
0.0
 40
0.0
 40
0.0
 40
0.0
 40
1.0
 40
1.0
 40
1.0
 40
1.0
 10
903.83990438769194
 20
-313.93107536511229
 30
0.0
 10
904.43171979051567
 20
-314.09938612471763
 30
0.0
 10
905.06196517218552
 20
-314.20582700364969
 30
0.0
 10
905.6922105538556
 20
-314.31226788258186
 30
0.0
  0
LINE
  5
182
100
AcDbEntity
  8
____1
370
               5
390
0
  6
CENTER2
 62
               3
100
AcDbLine
 10
781.07452227084434
 20
-232.50554246631873
 30
0.0
 11
781.07452227084445
 21
-251.00554246631879
 31
0.0
  0
LINE
  5
183
100
AcDbEntity
  8
____1
370
              18
390
0
  6
Continuous
 62
               5
100
AcDbLine
 10
895.16372570537089
 20
-312.71226788258184
 30
0.0
 11
896.36372570537094
 21
-312.71226788258184
 31
0.0
  0
ARC
  5
184
100
AcDbEntity
  8
____1
370
              18
390
0
  6
Continuous
 62
               5
100
AcDbCircle
 10
899.45221055385571
 20
-311.2722678825819
 30
0.0
 40
3.0399999999998646
210
0.0
220
0.0
230
1.0
100
AcDbArc
 50
-28.600718616740252
 51
-1.5079577542375149
  0
LINE
  5
185
100
AcDbEntity
  8
____1
370
              18
390
0
  6
Continuous
 62
               5
100
AcDbLine
 10
898.49221055385567
 20
-315.5122678825818
 30
0.0
 11
900.49221055385578
 21
-315.5122678825818
 31
0.0
  0
LINE
  5
186
100
AcDbEntity
  8
____1
370
              18
390
0
  6
Continuous
 62
               5
100
AcDbLine
 10
889.56372570537087
 20
-315.5122678825818
 30
0.0
 11
892.76372570537092
 21
-315.5122678825818
 31
0.0
  0
LINE
  5
187
100
AcDbEntity
  8
____1
370
              18
390
0
  6
Continuous
 62
               5
100
AcDbLine
 10
904.89221055385565
 20
-311.11226788258182
 30
0.0
 11
905.6922105538556
 21
-309.91226788258177
 31
0.0
  0
LINE
  5
188
100
AcDbEntity
  8
____1
370
              18
390
0
  6
Continuous
 62
               5
100
AcDbLine
 10
909.06619667248242
 20
-309.91226788258177
 30
0.0
 11
912.26619667248247
 21
-309.91226788258177
 31
0.0
  0
LINE
  5
189
100
AcDbEntity
  8
____1
370
              18
390
0
  6
Continuous
 62
               5
100
AcDbLine
 10
898.49221055385567
 20
-314.31226788258186
 30
0.0
 11
899.45221055385571
 21
-314.31226788258186
 31
0.0
  0
LINE
  5
18A
100
AcDbEntity
  8
____1
370
              18
390
0
  6
Continuous
 62
               5
100
AcDbLine
 10
898.49221055385567
 20
-314.31226788258186
 30
0.0
 11
898.49221055385567
 21
-315.5122678825818
 31
0.0
  0
ARC
  5
18B
100
AcDbEntity
  8
____1
370
              18
390
0
  6
Continuous
 62
               5
100
AcDbCircle
 10
899.45221055385571
 20
-311.2722678825819
 30
0.0
 40
3.0399999999998824
210
0.0
220
0.0
230
1.0
100
AcDbArc
 50
-90.0
 51
-61.914095184791591
  0
LINE
  5
18C
100
AcDbEntity
  8
____1
370
              18
390
0
  6
Continuous
 62
               5
100
AcDbLine
 10
903.98238603552579
 20
-313.79157284976077
 30
0.0
 11
903.83990438769194
 21
-313.93107536511229
 31
0.0
  0
LINE
  5
18D
100
AcDbEntity
  8
____1
370
              18
390
0
  6
Continuous
 62
               5
100
AcDbLine
 10
889.56372570537087
 20
-312.71226788258184
 30
0.0
 11
889.56372570537087
 21
-313.91226788258177
 31
0.0
  0
MTEXT
  5
18E
100
AcDbEntity
  8
____1
370
               5
390
0
  6
Continuous
 62
               7
100
AcDbMText
 10
862.58707806416032
 20
-310.2337395894254
 30
0.0
 40
5.0799999237060547
 41
24.996311053240746
 71
               1
 72
               1
  1
株式会社
  7
Style1
 73
               1
 44
1.0
  0
LINE
  5
18F
100
AcDbEntity
  8
____1
370
              18
390
0
  6
Continuous
 62
               5
100
AcDbLine
 10
911.73096815731788
 20
-311.2722678825819
 30
0.0
 11
914.66619667248256
 21
-311.2722678825819
 31
0.0
  0
LINE
  5
190
100
AcDbEntity
  8
____1
370
              18
390
0
  6
Continuous
 62
               5
100
AcDbLine
 10
909.46513000581581
 20
-311.27226788258179
 30
0.0
 11
909.06619667248242
 21
-309.91226788258177
 31
0.0
  0
LINE
  5
191
100
AcDbEntity
  8
____1
370
              18
390
0
  6
Continuous
 62
               5
100
AcDbLine
 10
889.56372570537087
 20
-309.91226788258177
 30
0.0
 11
889.56372570537087
 21
-311.5122678825818
 31
0.0
  0
LINE
  5
192
100
AcDbEntity
  8
____1
370
              18
390
0
  6
Continuous
 62
               5
100
AcDbLine
 10
891.56372570537087
 20
-311.11226788258182
 30
0.0
 11
892.76372570537092
 21
-309.91226788258177
 31
0.0
  0
LINE
  5
193
100
AcDbEntity
  8
____1
370
              18
390
0
  6
Continuous
 62
               5
100
AcDbLine
 10
892.76372570537092
 20
-309.91226788258177
 30
0.0
 11
889.56372570537087
 21
-309.91226788258177
 31
0.0
  0
LINE
  5
194
100
AcDbEntity
  8
____1
370
              18
390
0
  6
Continuous
 62
               5
100
AcDbLine
 10
893.16372570537089
 20
-311.5122678825818
 30
0.0
 11
891.56372570537087
 21
-311.5122678825818
 31
0.0
  0
MTEXT
  5
195
100
AcDbEntity
  8
____1
370
               5
390
0
  6
Continuous
 62
               7
100
AcDbMText
 10
928.25499322632925
 20
-300.75260077159874
 30
0.0
 40
3.5277776718139648
 41
44.887960811622378
 71
               1
 72
               1
  1
ねじ止め式\Pマグネットキャッチ<角型 >
  7
Style1
 73
               1
 44
1.0
  0
LINE
  5
196
100
AcDbEntity
  8
____1
370
               5
390
0
  6
Continuous
 62
               7
100
AcDbLine
 10
855.36652433937752
 20
-291.54040625609207
 30
0.0
 11
855.36652433937752
 21
-317.04040625609207
 31
0.0
  0
LINE
  5
197
100
AcDbEntity
  8
____1
370
               5
390
0
  6
Continuous
 62
               7
100
AcDbLine
 10
919.36652433937752
 20
-291.54040625609207
 30
0.0
 11
919.36652433937752
 21
-317.04040625609207
 31
0.0
  0
LINE
  5
198
100
AcDbEntity
  8
____1
370
               5
390
0
  6
Continuous
 62
               7
100
AcDbLine
 10
855.36652433937752
 20
-291.54040625609207
 30
0.0
 11
975.36652433937752
 21
-291.54040625609207
 31
0.0
  0
LINE
  5
199
100
AcDbEntity
  8
____1
370
               5
390
0
  6
Continuous
 62
               7
100
AcDbLine
 10
855.36652433937752
 20
-308.54040625609207
 30
0.0
 11
975.36652433937752
 21
-308.54040625609207
 31
0.0
  0
LINE
  5
19A
100
AcDbEntity
  8
____1
370
               5
390
0
  6
Continuous
 62
               7
100
AcDbLine
 10
871.36652433937752
 20
-291.54040625609207
 30
0.0
 11
871.36652433937752
 21
-300.04040625609207
 31
0.0
  0
LINE
  5
19B
100
AcDbEntity
  8
____1
370
               5
390
0
  6
Continuous
 62
               7
100
AcDbLine
 10
903.36652433937752
 20
-291.54040625609207
 30
0.0
 11
903.36652433937752
 21
-308.54040625609207
 31
0.0
  0
LINE
  5
19C
100
AcDbEntity
  8
____1
370
              18
390
0
  6
Continuous
 62
               5
100
AcDbLine
 10
907.46619667248251
 20
-312.71226788258184
 30
0.0
 11
909.88753000581573
 21
-312.71226788258184
 31
0.0
  0
LINE
  5
19D
100
AcDbEntity
  8
____1
370
              18
390
0
  6
Continuous
 62
               5
100
AcDbLine
 10
914.66619667248256
 20
-311.2722678825819
 30
0.0
 11
914.66619667248256
 21
-312.71226788258184
 31
0.0
  0
LINE
  5
19E
100
AcDbEntity
  8
____1
370
              18
390
0
  6
Continuous
 62
               5
100
AcDbLine
 10
898.49221055385567
 20
-311.35226788258183
 30
0.0
 11
902.49221055385567
 21
-311.35226788258183
 31
0.0
  0
LINE
  5
19F
100
AcDbEntity
  8
____1
370
              18
390
0
  6
Continuous
 62
               5
100
AcDbLine
 10
891.96372570537096
 20
-314.31226788258186
 30
0.0
 11
889.56372570537087
 21
-314.31226788258186
 31
0.0
  0
LINE
  5
1A0
100
AcDbEntity
  8
____1
370
              18
390
0
  6
Continuous
 62
               5
100
AcDbLine
 10
910.82619667248252
 20
-315.91226788258177
 30
0.0
 11
910.4976633391492
 21
-314.79226788258188
 31
0.0
  0
LINE
  5
1A1
100
AcDbEntity
  8
____1
370
              18
390
0
  6
Continuous
 62
               5
100
AcDbLine
 10
912.32951887101217
 20
-313.35226788258183
 30
0.0
 11
912.14534942064472
 21
-312.71226788258184
 31
0.0
  0
LINE
  5
1A2
100
AcDbEntity
  8
____1
370
              18
390
0
  6
Continuous
 62
               5
100
AcDbLine
 10
889.56372570537087
 20
-314.31226788258186
 30
0.0
 11
889.56372570537087
 21
-315.5122678825818
 31
0.0
  0
LINE
  5
1A3
100
AcDbEntity
  8
____1
370
              18
390
0
  6
Continuous
 62
               5
100
AcDbLine
 10
889.56372570537087
 20
-312.71226788258184
 30
0.0
 11
889.44284265612839
 21
-312.71226788258184
 31
0.0
  0
LINE
  5
1A4
100
AcDbEntity
  8
____1
370
              18
390
0
  6
Continuous
 62
               5
100
AcDbLine
 10
905.6922105538556
 20
-314.31226788258186
 30
0.0
 11
905.6922105538556
 21
-315.5122678825818
 31
0.0
  0
LINE
  5
1A5
100
AcDbEntity
  8
____1
370
              18
390
0
  6
Continuous
 62
               5
100
AcDbLine
 10
914.66619667248256
 20
-313.35226788258183
 30
0.0
 11
914.66619667248256
 21
-314.79226788258188
 31
0.0
  0
LINE
  5
1A6
100
AcDbEntity
  8
____1
370
              18
390
0
  6
Continuous
 62
               5
100
AcDbLine
 10
889.56372570537087
 20
-311.5122678825818
 30
0.0
 11
888.64284265612832
 21
-311.5122678825818
 31
0.0
  0
LINE
  5
1A7
100
AcDbEntity
  8
____1
370
              18
390
0
  6
Continuous
 62
               5
100
AcDbLine
 10
898.49221055385567
 20
-315.5122678825818
 30
0.0
 11
898.49221055385567
 21
-314.31226788258186
 31
0.0
  0
LINE
  5
1A8
100
AcDbEntity
  8
____1
370
              18
390
0
  6
Continuous
 62
               5
100
AcDbLine
 10
891.56372570537087
 20
-311.5122678825818
 30
0.0
 11
891.56372570537087
 21
-311.11226788258182
 31
0.0
  0
LINE
  5
1A9
100
AcDbEntity
  8
____1
370
              18
390
0
  6
Continuous
 62
               5
100
AcDbLine
 10
910.82619667248252
 20
-315.91226788258177
 30
0.0
 11
913.06619667248242
 21
-315.91226788258177
 31
0.0
  0
LINE
  5
1AA
100
AcDbEntity
  8
____1
370
              18
390
0
  6
Continuous
 62
               5
100
AcDbLine
 10
896.36372570537094
 20
-311.5122678825818
 30
0.0
 11
896.36372570537094
 21
-312.71226788258184
 31
0.0
  0
LINE
  5
1AB
100
AcDbEntity
  8
____1
370
              18
390
0
  6
Continuous
 62
               5
100
AcDbLine
 10
888.64284265612832
 20
-311.5122678825818
 30
0.0
 11
888.64284265612832
 21
-312.71226788258184
 31
0.0
  0
LINE
  5
1AC
100
AcDbEntity
  8
____1
370
              18
390
0
  6
Continuous
 62
               5
100
AcDbLine
 10
898.49221055385567
 20
-312.02764431055198
 30
0.0
 11
898.49221055385567
 21
-311.76995609656683
 31
0.0
  0
LINE
  5
1AD
100
AcDbEntity
  8
____1
370
              18
390
0
  6
Continuous
 62
               5
100
AcDbLine
 10
901.6922105538556
 20
-311.76995609656683
 30
0.0
 11
901.23966221389628
 21
-312.22250443652626
 31
0.0
  0
LINE
  5
1AE
100
AcDbEntity
  8
____1
370
              18
390
0
  6
Continuous
 62
               5
100
AcDbLine
 10
893.16372570537089
 20
-312.71226788258184
 30
0.0
 11
893.16372570537089
 21
-313.11226788258182
 31
0.0
  0
LINE
  5
1AF
100
AcDbEntity
  8
____1
370
              18
390
0
  6
Continuous
 62
               5
100
AcDbLine
 10
907.46619667248251
 20
-311.2722678825819
 30
0.0
 11
909.46513000581581
 21
-311.2722678825819
 31
0.0
  0
LINE
  5
1B0
100
AcDbEntity
  8
____1
370
              18
390
0
  6
Continuous
 62
               5
100
AcDbLine
 10
895.16372570537089
 20
-311.5122678825818
 30
0.0
 11
895.16372570537089
 21
-311.11226788258182
 31
0.0
  0
LINE
  5
1B1
100
AcDbEntity
  8
____1
370
              18
390
0
  6
Continuous
 62
               5
100
AcDbLine
 10
896.36372570537094
 20
-311.5122678825818
 30
0.0
 11
895.16372570537089
 21
-311.5122678825818
 31
0.0
  0
LINE
  5
1B2
100
AcDbEntity
  8
____1
370
              18
390
0
  6
Continuous
 62
               5
100
AcDbLine
 10
907.46619667248251
 20
-313.35226788258183
 30
0.0
 11
910.07526333914916
 21
-313.35226788258183
 31
0.0
  0
LINE
  5
1B3
100
AcDbEntity
  8
____1
370
              18
390
0
  6
Continuous
 62
               5
100
AcDbLine
 10
888.64284265612832
 20
-312.71226788258184
 30
0.0
 11
889.44284265612839
 21
-312.71226788258184
 31
0.0
  0
ARC
  5
1B4
100
AcDbEntity
  8
____1
370
              18
390
0
  6
Continuous
 62
               5
100
AcDbCircle
 10
900.49221055385567
 20
-311.11226788258182
 30
0.0
 40
4.4000000000000465
210
0.0
220
0.0
230
1.0
100
AcDbArc
 50
-90.0
 51
-57.455041145955242
  0
LINE
  5
1B5
100
AcDbEntity
  8
____1
370
               5
390
0
  6
Continuous
 62
               7
100
AcDbLine
 10
857.36652433937752
 20
-304.29040625609207
 30
0.0
 11
885.36652433937752
 21
-304.29040625609207
 31
0.0
  0
LINE
  5
1B6
100
AcDbEntity
  8
____1
370
               5
390
0
  6
Continuous
 62
               7
100
AcDbLine
 10
889.36652433937752
 20
-295.79040625609207
 30
0.0
 11
901.36652433937752
 21
-295.79040625609207
 31
0.0
  0
LINE
  5
1B7
100
AcDbEntity
  8
____1
370
               5
390
0
  6
Continuous
 62
               7
100
AcDbLine
 10
889.36652433937752
 20
-304.29040625609207
 30
0.0
 11
901.36652433937752
 21
-304.29040625609207
 31
0.0
  0
MTEXT
  5
1B8
100
AcDbEntity
  8
____1
370
               5
390
0
  6
Continuous
 62
               7
100
AcDbMText
 10
855.36652433937752
 20
-300.74593966344889
 30
0.0
 40
2.75
 41
32.0
 71
               1
 72
               1
  1
 設計　　 白須賀
  7
Style1
 73
               1
 44
1.0
  0
MTEXT
  5
1B9
100
AcDbEntity
  8
____1
370
               5
390
0
  6
Continuous
 62
               7
100
AcDbMText
 10
855.36652433937752
 20
-304.99593966344889
 30
0.0
 40
2.75
 41
32.0
 71
               1
 72
               1
  1
 製図　　  岸本
  7
Style1
 73
               1
 44
1.0
  0
MTEXT
  5
1BA
100
AcDbEntity
  8
____1
370
               5
390
0
  6
Continuous
 62
               7
100
AcDbMText
 10
855.83191015065449
 20
-292.24593966344889
 30
0.0
 40
2.75
 41
15.0
 71
               1
 72
               1
  1
　日 　付
  7
Style1
 73
               1
 44
1.0
  0
MTEXT
  5
1BB
100
AcDbEntity
  8
____1
370
               5
390
0
  6
Continuous
 62
               7
100
AcDbMText
 10
920.25702379308575
 20
-292.22890653093884
 30
0.0
 40
2.75
 41
6.0
 71
               1
 72
               1
  1
型番
  7
Style1
 73
               1
 44
1.0
  0
MTEXT
  5
1BC
100
AcDbEntity
  8
____1
370
               5
390
0
  6
Continuous
 62
               7
100
AcDbMText
 10
920.25702379308575
 20
-300.72890653093884
 30
0.0
 40
2.75
 41
6.0
 71
               1
 72
               1
  1
品名
  7
Style1
 73
               1
 44
1.0
  0
MTEXT
  5
1BD
100
AcDbEntity
  8
____1
370
               5
390
0
  6
Continuous
 62
               7
100
AcDbMText
 10
920.25702379308575
 20
-309.22890653093884
 30
0.0
 40
2.75
 41
6.0
 71
               1
 72
               1
  1
図番
  7
Style1
 73
               1
 44
1.0
  0
MTEXT
  5
1BE
100
AcDbEntity
  8
____1
370
              18
390
0
  6
Continuous
 62
               5
100
AcDbMText
 10
855.36652433937752
 20
-296.49593966344889
 30
0.0
 40
2.75
 41
16.0
 71
               1
 72
               1
  1
H16.4
  7
Style1
 73
               1
 44
1.0
  0
MTEXT
  5
1BF
100
AcDbEntity
  8
____1
370
              18
390
0
  6
Continuous
 62
               5
100
AcDbMText
 10
887.36652433937752
 20
-304.99593966344889
 30
0.0
 40
2.75
 41
16.0
 71
               1
 72
               1
  1
1：1
  7
Style1
 73
               1
 44
1.0
  0
MTEXT
  5
1C0
100
AcDbEntity
  8
____1
370
               5
390
0
  6
Continuous
 62
               7
100
AcDbMText
 10
871.83191015065449
 20
-292.24593966344889
 30
0.0
 40
2.75
 41
15.0
 71
               1
 72
               1
  1
　材 　質
  7
Style1
 73
               1
 44
1.0
  0
MTEXT
  5
1C1
100
AcDbEntity
  8
____1
370
               5
390
0
  6
Continuous
 62
               7
100
AcDbMText
 10
887.83191015065449
 20
-292.24593966344889
 30
0.0
 40
2.75
 41
15.0
 71
               1
 72
               1
  1
　板 　厚
  7
Style1
 73
               1
 44
1.0
  0
MTEXT
  5
1C2
100
AcDbEntity
  8
____1
370
               5
390
0
  6
Continuous
 62
               7
100
AcDbMText
 10
887.83191015065449
 20
-300.74593966344889
 30
0.0
 40
2.75
 41
15.0
 71
               1
 72
               1
  1
　尺 　度
  7
Style1
 73
               1
 44
1.0
  0
MTEXT
  5
1C3
100
AcDbEntity
  8
____1
370
               5
390
0
  6
Continuous
 62
               7
100
AcDbMText
 10
903.83191015065449
 20
-292.24593966344889
 30
0.0
 40
2.75
 41
15.0
 71
               1
 72
               1
  1
　検 　印
  7
Style1
 73
               1
 44
1.0
  0
LINE
  5
1C4
100
AcDbEntity
  8
____1
370
               5
390
0
  6
Continuous
 62
               7
100
AcDbLine
 10
855.36652433937752
 20
-300.04040625609207
 30
0.0
 11
903.36652433937752
 21
-300.04040625609207
 31
0.0
  0
LINE
  5
1C5
100
AcDbEntity
  8
____1
370
               5
390
0
  6
Continuous
 62
               7
100
AcDbLine
 10
919.36652433937752
 20
-300.04040625609207
 30
0.0
 11
975.36652433937752
 21
-300.04040625609207
 31
0.0
  0
LINE
  5
1C6
100
AcDbEntity
  8
____1
370
               5
390
0
  6
Continuous
 62
               7
100
AcDbLine
 10
903.36652433937752
 20
-295.79040625609207
 30
0.0
 11
919.36652433937752
 21
-295.79040625609207
 31
0.0
  0
LINE
  5
1C7
100
AcDbEntity
  8
____1
370
              18
390
0
  6
Continuous
 62
               5
100
AcDbLine
 10
911.6138527571386
 20
-310.86528477020806
 30
0.0
 11
912.26619667248247
 21
-309.91226788258177
 31
0.0
  0
ARC
  5
1C8
100
AcDbEntity
  8
____1
370
              18
390
0
  6
Continuous
 62
               5
100
AcDbCircle
 10
892.76372570537092
 20
-313.11226788258182
 30
0.0
 40
2.3999999999999773
210
0.0
220
0.0
230
1.0
100
AcDbArc
 50
-90.0
 51
0.0
  0
LINE
  5
1C9
100
AcDbEntity
  8
____1
370
              18
390
0
  6
Continuous
 62
               5
100
AcDbLine
 10
898.49221055385567
 20
-309.91226788258177
 30
0.0
 11
898.49221055385567
 21
-311.35226788258183
 31
0.0
  0
LINE
  5
1CA
100
AcDbEntity
  8
____1
370
              18
390
0
  6
Continuous
 62
               5
100
AcDbLine
 10
896.36372570537094
 20
-309.91226788258177
 30
0.0
 11
893.16372570537089
 21
-309.91226788258177
 31
0.0
  0
LINE
  5
1CB
100
AcDbEntity
  8
____1
370
              18
390
0
  6
Continuous
 62
               5
100
AcDbLine
 10
912.74390013433936
 20
-314.79226788258188
 30
0.0
 11
914.66619667248256
 21
-314.79226788258188
 31
0.0
  0
LINE
  5
1CC
100
AcDbEntity
  8
____1
370
              18
390
0
  6
Continuous
 62
               5
100
AcDbLine
 10
891.56372570537087
 20
-313.91226788258177
 30
0.0
 11
891.56372570537087
 21
-312.71226788258184
 31
0.0
  0
LINE
  5
1CD
100
AcDbEntity
  8
____1
370
              18
390
0
  6
Continuous
 62
               5
100
AcDbLine
 10
907.46619667248251
 20
-313.35226788258183
 30
0.0
 11
907.46619667248251
 21
-314.79226788258188
 31
0.0
  0
LINE
  5
1CE
100
AcDbEntity
  8
____1
370
              18
390
0
  6
Continuous
 62
               5
100
AcDbLine
 10
760.82452227084445
 20
-185.24130731235363
 30
0.0
 11
760.82452227084445
 21
-168.24130713645869
 31
0.0
  0
ARC
  5
1CF
100
AcDbEntity
  8
____1
370
              18
390
0
  6
Continuous
 62
               5
100
AcDbCircle
 10
761.82452227084445
 20
-168.24130731235365
 30
0.0
 40
0.9999999999999809
100
AcDbArc
 50
90.000007850943462
 51
179.99998992196069
  0
ARC
  5
1D0
100
AcDbEntity
  8
____1
370
              18
390
0
  6
Continuous
 62
               5
100
AcDbCircle
 10
761.82452227084445
 20
-185.24130731235363
 30
0.0
 40
1.0
100
AcDbArc
 50
180.0
 51
-90.000010623649459
  0
LINE
  5
1D1
100
AcDbEntity
  8
____1
370
              18
390
0
  6
Continuous
 62
               5
100
AcDbLine
 10
761.18525556944894
 20
-245.84114424639748
 30
0.0
 11
760.82452227084457
 21
-248.00554304658684
 31
0.0
  0
ARC
  5
1D2
100
AcDbEntity
  8
____1
370
              18
390
0
  6
Continuous
 62
               5
100
AcDbCircle
 10
762.17164948106938
 20
-246.00554330697307
 30
0.0
 40
1.0
100
AcDbArc
 50
90.0
 51
170.53767353599207
  0
LINE
  5
1D3
100
AcDbEntity
  8
____1
370
              18
390
0
  6
Continuous
 62
               5
100
AcDbLine
 10
762.17164948106938
 20
-245.00554330697307
 30
0.0
 11
768.82452227084457
 21
-245.00554272670496
 31
0.0
  0
LINE
  5
1D4
100
AcDbEntity
  8
____1
370
               5
390
0
  6
CENTER2
 62
               3
100
AcDbLine
 10
765.32452227278884
 20
-182.49130731235363
 30
0.0
 11
765.32452226890007
 21
-170.99130731235365
 31
0.0
  0
ARC
  5
1D5
100
AcDbEntity
  8
____1
370
              18
390
0
  6
Continuous
 62
               5
100
AcDbCircle
 10
764.57452208542668
 20
-179.991307277754
 30
0.0
 40
1.0
100
AcDbArc
 50
180.0
 51
-90.000000445613935
  0
LINE
  5
1D6
100
AcDbEntity
  8
____1
370
              18
390
0
  6
Continuous
 62
               5
100
AcDbLine
 10
764.57452207764925
 20
-180.991307277754
 30
0.0
 11
766.07452207764925
 21
-180.99130728942012
 31
0.0
  0
LINE
  5
1D7
100
AcDbEntity
  8
____1
370
              18
390
0
  6
Continuous
 62
               5
100
AcDbLine
 10
763.57452208542668
 20
-179.991307277754
 30
0.0
 11
763.57452208542668
 21
-173.491307277754
 31
0.0
  0
ARC
  5
1D8
100
AcDbEntity
  8
____1
370
              18
390
0
  6
Continuous
 62
               5
100
AcDbCircle
 10
766.07452208542668
 20
-179.99130728942012
 30
0.0
 40
1.0
210
0.0
220
0.0
230
1.0
100
AcDbArc
 50
-90.000000445613935
 51
0.0
  0
LINE
  5
1D9
100
AcDbEntity
  8
____1
370
              18
390
0
  6
Continuous
 62
               5
100
AcDbLine
 10
767.07452208542668
 20
-179.99130728942012
 30
0.0
 11
767.07452208542668
 21
-173.49130728942012
 31
0.0
  0
ARC
  5
1DA
100
AcDbEntity
  8
____1
370
              18
390
0
  6
Continuous
 62
               5
100
AcDbCircle
 10
764.57452208542668
 20
-173.491307277754
 30
0.0
 40
1.0
100
AcDbArc
 50
89.999999554386065
 51
180.0
  0
LINE
  5
1DB
100
AcDbEntity
  8
____1
370
              18
390
0
  6
Continuous
 62
               5
100
AcDbLine
 10
764.57452209320411
 20
-172.491307277754
 30
0.0
 11
766.07452209320411
 21
-172.49130728942012
 31
0.0
  0
ARC
  5
1DC
100
AcDbEntity
  8
____1
370
              18
390
0
  6
Continuous
 62
               5
100
AcDbCircle
 10
766.07452208542668
 20
-173.49130728942012
 30
0.0
 40
1.0
210
0.0
220
0.0
230
1.0
100
AcDbArc
 50
0.0
 51
89.999999554386065
  0
LINE
  5
1DD
100
AcDbEntity
  8
____1
370
               5
390
0
  6
CENTER2
 62
               3
100
AcDbLine
 10
796.82452227084445
 20
-164.24130673208549
 30
0.0
 11
796.82452227084457
 21
-191.24130673208586
 31
0.0
  0
MTEXT
  5
1DE
100
AcDbEntity
  8
____1
370
               5
390
0
  6
Continuous
 62
               7
100
AcDbMText
 10
855.36652433937752
 20
-286.54134214133512
 30
0.0
 40
4.2333331108093262
 41
32.0
 71
               1
 72
               1
  1
色：白・茶
  7
Style1
 73
               1
 44
1.0
  0
MTEXT
  5
1DF
100
AcDbEntity
  8
____1
370
               5
390
0
  6
Continuous
 62
               7
100
AcDbMText
 10
943.48370046750972
 20
-293.55444755182469
 30
0.0
 40
4.2333331108093262
 41
14.5
 71
               1
 72
               1
  1
４１Ｗ
  7
Style1
 73
               1
 44
1.0
  0
LINE
  5
1E0
100
AcDbEntity
  8
____1
370
              18
390
0
  6
Continuous
 62
               5
100
AcDbLine
 10
700.36652433937752
 20
-127.0404062560921
 30
0.0
 11
975.36652433937752
 21
-127.0404062560921
 31
0.0
  0
LINE
  5
1E1
100
AcDbEntity
  8
____1
370
              18
390
0
  6
Continuous
 62
               5
100
AcDbLine
 10
700.36652433937752
 20
-317.04040625609207
 30
0.0
 11
975.36652433937752
 21
-317.04040625609207
 31
0.0
  0
LINE
  5
1E2
100
AcDbEntity
  8
____1
370
              18
390
0
  6
Continuous
 62
               5
100
AcDbLine
 10
700.36652433937752
 20
-317.04040625609207
 30
0.0
 11
700.36652433937752
 21
-127.04040625609213
 31
0.0
  0
LINE
  5
1E3
100
AcDbEntity
  8
____1
370
              18
390
0
  6
Continuous
 62
               5
100
AcDbLine
 10
975.36652433937752
 20
-317.04040625609207
 30
0.0
 11
975.36652433937752
 21
-127.04040625609213
 31
0.0
  0
LINE
  5
1E4
100
AcDbEntity
  8
____1
370
               5
390
0
  6
Continuous
 62
               7
100
AcDbLine
 10
887.36652433937752
 20
-291.54040625609207
 30
0.0
 11
887.36652433937752
 21
-308.54040625609207
 31
0.0
  0
LINE
  5
1E5
100
AcDbEntity
  8
____1
370
               5
390
0
  6
Continuous
 62
               7
100
AcDbLine
 10
857.36652433937752
 20
-295.79040625609207
 30
0.0
 11
869.36652433937752
 21
-295.79040625609207
 31
0.0
  0
LINE
  5
1E6
100
AcDbEntity
  8
____1
370
               5
390
0
  6
Continuous
 62
               7
100
AcDbLine
 10
873.36652433937775
 20
-295.79040625609207
 30
0.0
 11
885.36652433937775
 21
-295.79040625609207
 31
0.0
  0
LINE
  5
1E7
100
AcDbEntity
  8
____1
370
              18
390
0
  6
Continuous
 62
               5
100
AcDbLine
 10
890.08223895333504
 20
-137.32278875635589
 30
0.0
 11
892.55723895333495
 21
-141.6096145050889
 31
0.0
  0
LINE
  5
1E8
100
AcDbEntity
  8
____1
370
              18
390
0
  6
Continuous
 62
               5
100
AcDbLine
 10
890.08223895333504
 20
-137.32278875635589
 30
0.0
 11
887.60723895333513
 21
-141.6096145050889
 31
0.0
  0
MTEXT
  5
1E9
100
AcDbEntity
  8
____1
370
               5
390
0
  6
Continuous
 62
               7
100
AcDbMText
 10
888.499495928545
 20
-138.55979851527255
 30
0.0
 40
2.9266439437866216
 41
3.1654860495798762
 71
               1
 72
               1
  1
2
  7
Style1
 73
               1
 44
1.0
  0
LINE
  5
1EA
100
AcDbEntity
  8
____1
370
              18
390
0
  6
Continuous
 62
               5
100
AcDbLine
 10
887.60723895333513
 20
-141.6096145050889
 30
0.0
 11
892.55723895333495
 21
-141.6096145050889
 31
0.0
  0
MTEXT
  5
1EB
100
AcDbEntity
  8
____1
370
               5
390
0
  6
Continuous
 62
               7
100
AcDbMText
 10
895.36652433937752
 20
-137.76687759147663
 30
0.0
 40
3.5277776718139648
 41
20.0
 71
               1
 72
               1
  1
H23.10.12
  7
Style1
 73
               1
 44
1.0
  0
MTEXT
  5
1EC
100
AcDbEntity
  8
____1
370
               5
390
0
  6
Continuous
 62
               7
100
AcDbMText
 10
915.36652433937752
 20
-137.76687759147663
 30
0.0
 40
3.5277776718139648
 41
60.0
 71
               1
 72
               1
  1
黒色を削除
  7
Style1
 73
               1
 44
1.0
  0
ARC
  5
1ED
100
AcDbEntity
  8
____1
370
              18
390
0
  6
Continuous
 62
               5
100
AcDbCircle
 10
831.82452227084445
 20
-185.2413066830247
 30
0.0
 40
1.0
210
0.0
220
0.0
230
1.0
100
AcDbArc
 50
-90.0
 51
0.0
  0
LINE
  5
1EE
100
AcDbEntity
  8
____1
370
              18
390
0
  6
Continuous
 62
               5
100
AcDbLine
 10
832.82452227084445
 20
-185.2413066830247
 30
0.0
 11
832.82452227084445
 21
-168.24130668302473
 31
0.0
  0
ARC
  5
1EF
100
AcDbEntity
  8
____1
370
              18
390
0
  6
Continuous
 62
               5
100
AcDbCircle
 10
831.82452227084445
 20
-168.24130668302473
 30
0.0
 40
1.0
210
0.0
220
0.0
230
1.0
100
AcDbArc
 50
0.0
 51
90.0
  0
LINE
  5
1F0
100
AcDbEntity
  8
____1
370
              18
390
0
  6
Continuous
 62
               5
100
AcDbLine
 10
832.46378897224031
 20
-245.8411436170685
 30
0.0
 11
832.82452227084457
 21
-248.00554241725723
 31
0.0
  0
ARC
  5
1F1
100
AcDbEntity
  8
____1
370
              18
390
0
  6
Continuous
 62
               5
100
AcDbCircle
 10
831.47739506061987
 20
-246.00554267764414
 30
0.0
 40
1.0
210
0.0
220
0.0
230
1.0
100
AcDbArc
 50
9.462326464011154
 51
90.0
  0
LINE
  5
1F2
100
AcDbEntity
  8
____1
370
              18
390
0
  6
Continuous
 62
               5
100
AcDbLine
 10
831.47739506061987
 20
-245.00554267764414
 30
0.0
 11
824.82452227084457
 21
-245.00554272670496
 31
0.0
  0
LINE
  5
1F3
100
AcDbEntity
  8
____1
370
               5
390
0
  6
CENTER2
 62
               3
100
AcDbLine
 10
828.32452227278884
 20
-182.4913066830247
 30
0.0
 11
828.32452226890007
 21
-170.99130668302473
 31
0.0
  0
ARC
  5
1F4
100
AcDbEntity
  8
____1
370
              18
390
0
  6
Continuous
 62
               5
100
AcDbCircle
 10
827.57452227084445
 20
-173.4913066600912
 30
0.0
 40
1.0
100
AcDbArc
 50
90.000000445613935
 51
180.0
  0
LINE
  5
1F5
100
AcDbEntity
  8
____1
370
              18
390
0
  6
Continuous
 62
               5
100
AcDbLine
 10
829.07452226306702
 20
-172.49130664842508
 30
0.0
 11
827.57452226306702
 21
-172.4913066600912
 31
0.0
  0
ARC
  5
1F6
100
AcDbEntity
  8
____1
370
              18
390
0
  6
Continuous
 62
               5
100
AcDbCircle
 10
829.07452227084445
 20
-173.49130664842508
 30
0.0
 40
1.0
210
0.0
220
0.0
230
1.0
100
AcDbArc
 50
0.0
 51
90.000000445613935
  0
LINE
  5
1F7
100
AcDbEntity
  8
____1
370
              18
390
0
  6
Continuous
 62
               5
100
AcDbLine
 10
826.57452227084445
 20
-179.9913066600912
 30
0.0
 11
826.57452227084445
 21
-173.4913066600912
 31
0.0
  0
ARC
  5
1F8
100
AcDbEntity
  8
____1
370
              18
390
0
  6
Continuous
 62
               5
100
AcDbCircle
 10
827.57452227084445
 20
-179.9913066600912
 30
0.0
 40
1.0
100
AcDbArc
 50
180.0
 51
-89.999999554386065
  0
LINE
  5
1F9
100
AcDbEntity
  8
____1
370
              18
390
0
  6
Continuous
 62
               5
100
AcDbLine
 10
830.07452227084445
 20
-179.99130664842508
 30
0.0
 11
830.07452227084445
 21
-173.49130664842508
 31
0.0
  0
LINE
  5
1FA
100
AcDbEntity
  8
____1
370
              18
390
0
  6
Continuous
 62
               5
100
AcDbLine
 10
829.07452227862188
 20
-180.99130664842508
 30
0.0
 11
827.57452227862188
 21
-180.9913066600912
 31
0.0
  0
ARC
  5
1FB
100
AcDbEntity
  8
____1
370
              18
390
0
  6
Continuous
 62
               5
100
AcDbCircle
 10
829.07452227084445
 20
-179.99130664842508
 30
0.0
 40
1.0
210
0.0
220
0.0
230
1.0
100
AcDbArc
 50
-89.999999554386065
 51
0.0
  0
LINE
  5
1FC
100
AcDbEntity
  8
____1
370
               5
390
0
  6
CENTER2
 62
               3
100
AcDbLine
 10
835.82452227084445
 20
-176.74130659592748
 30
0.0
 11
757.82452227084445
 21
-176.7413078241178
 31
0.0
  0
LINE
  5
1FD
100
AcDbEntity
  8
____1
370
              18
390
0
  6
Continuous
 62
               5
100
AcDbLine
 10
760.82452227084457
 20
-248.00554304658684
 30
0.0
 11
832.82452227084457
 21
-248.00554241725791
 31
0.0
  0
LINE
  5
1FE
100
AcDbEntity
  8
____1
370
              18
390
0
  6
Continuous
 62
               5
100
AcDbLine
 10
761.82452208542679
 20
-186.24130731235363
 30
0.0
 11
831.82452227084445
 21
-186.2413066830247
 31
0.0
  0
LINE
  5
1FF
100
AcDbEntity
  8
____1
370
              18
390
0
  6
Continuous
 62
               5
100
AcDbLine
 10
761.82452213381964
 20
-167.24130731235365
 30
0.0
 11
831.82452227084445
 21
-167.24130668302473
 31
0.0
  0
ENDSEC
  0
SECTION
  2
OBJECTS
  0
DICTIONARY
  5
19
100
AcDbDictionary
280
               0
281
               1
  3
ACAD_GROUP
350
1A
  3
ACAD_MLINESTYLE
350
1B
  3
ACAD_LAYOUT
350
1E
  3
ACAD_PLOTSETTINGS
350
22
  3
ACAD_PLOTSTYLENAME
350
1F
  3
ACAD_WIPEOUT_VARS
350
23
  0
DICTIONARY
  5
1A
102
{ACAD_REACTORS
330
19
102
}
100
AcDbDictionary
280
               0
281
               1
  0
DICTIONARY
  5
1B
102
{ACAD_REACTORS
330
19
102
}
100
AcDbDictionary
280
               0
281
               1
  3
Standard
350
1C
  0
MLINESTYLE
  5
1C
102
{ACAD_REACTORS
330
1B
102
}
100
AcDbMlineStyle
  2
Standard
 70
               0
  3

 62
               0
 51
90.0
 52
90.0
 71
               2
 49
0.5
 62
             256
  6
ByLayer
 49
-0.5
 62
             256
  6
ByLayer
  0
ACDBDICTIONARYWDFLT
  5
1F
102
{ACAD_REACTORS
330
19
102
}
100
AcDbDictionary
281
               1
  3
Normal
350
1D
100
AcDbDictionaryWithDefault
340
1D
  0
ACDBPLACEHOLDER
  5
1D
102
{ACAD_REACTORS
330
1F
102
}
  0
LAYOUT
  5
20
102
{ACAD_REACTORS
330
1E
102
}
100
AcDbPlotSettings
  1

  2

  4

  6

 40
0.0
 41
0.0
 42
0.0
 43
0.0
 44
0.0
 45
0.0
 46
0.0
 47
0.0
 48
0.0
 49
0.0
140
0.0
141
0.0
142
1.0
143
1.0
 70
            1024
 72
               0
 73
               0
 74
               0
  7

 75
               0
147
1.0
148
0.0
149
0.0
100
AcDbLayout
  1
Model
 70
               0
 71
               0
 10
0.0
 20
0.0
 11
0.0
 21
0.0
 12
0.0
 22
0.0
 32
0.0
 14
0.0
 24
0.0
 34
0.0
 15
0.0
 25
0.0
 35
0.0
146
0.0
 13
0.0
 23
0.0
 33
0.0
 16
0.0
 26
0.0
 36
0.0
 17
0.0
 27
0.0
 37
0.0
 76
               0
330
A
331
0
345
0
346
0
  0
LAYOUT
  5
21
102
{ACAD_REACTORS
330
1E
102
}
100
AcDbPlotSettings
  1

  2

  4

  6

 40
0.0
 41
0.0
 42
0.0
 43
0.0
 44
0.0
 45
0.0
 46
0.0
 47
0.0
 48
0.0
 49
0.0
140
0.0
141
0.0
142
1.0
143
1.0
 70
               0
 72
               0
 73
               0
 74
               0
  7

 75
               0
147
1.0
148
0.0
149
0.0
100
AcDbLayout
  1
Layout1
 70
               0
 71
               0
 10
0.0
 20
0.0
 11
0.0
 21
0.0
 12
0.0
 22
0.0
 32
0.0
 14
0.0
 24
0.0
 34
0.0
 15
0.0
 25
0.0
 35
0.0
146
0.0
 13
0.0
 23
0.0
 33
0.0
 16
0.0
 26
0.0
 36
0.0
 17
0.0
 27
0.0
 37
0.0
 76
               0
330
B
331
0
345
0
346
0
  0
DICTIONARY
  5
1E
102
{ACAD_REACTORS
330
19
102
}
100
AcDbDictionary
280
               0
281
               1
  3
Layout1
350
21
  3
Model
350
20
  0
DICTIONARY
  5
22
102
{ACAD_REACTORS
330
19
102
}
100
AcDbDictionary
280
               0
281
               1
  0
WIPEOUTVARIABLES
  5
23
100
AcDbWipeoutVariables
 70
               1
  0
ENDSEC
  0
EOF
