  0
SECTION
  2
HEADER
  9
$ACADVER
  1
AC1009
  9
$INSBASE
 10
0.0
 20
0.0
 30
0.0
  9
$EXTMIN
 10
693.49893298129109
 20
-321.36582869801691
 30
-0.0015258207003583
  9
$EXTMAX
 10
980.53055838932823
 20
-119.85634180570101
 30
0.0000000349246037
  9
$LIMMIN
 10
0.0
 20
0.0
  9
$LIMMAX
 10
0.0
 20
0.0
  9
$ORTHOMODE
 70
     0
  9
$REGENMODE
 70
     1
  9
$FILLMODE
 70
     1
  9
$QTEXTMODE
 70
     0
  9
$MIRRTEXT
 70
     1
  9
$DRAGMODE
 70
     2
  9
$LTSCALE
 40
1.0
  9
$OSMODE
 70
    31
  9
$ATTMODE
 70
     1
  9
$TEXTSIZE
 40
0.0
  9
$TRACEWID
 40
0.05
  9
$TEXTSTYLE
  7
STANDARD
  9
$CLAYER
  8
0
  9
$CELTYPE
  6
CONTINUOUS
  9
$CECOLOR
 62
   256
  9
$DIMSCALE
 40
1.0
  9
$DIMASZ
 40
0.18
  9
$DIMEXO
 40
0.0625
  9
$DIMDLI
 40
0.38
  9
$DIMRND
 40
0.0
  9
$DIMDLE
 40
0.0
  9
$DIMEXE
 40
0.18
  9
$DIMTP
 40
0.0
  9
$DIMTM
 40
0.0
  9
$DIMTXT
 40
0.18
  9
$DIMCEN
 40
0.09
  9
$DIMTSZ
 40
0.0
  9
$DIMTOL
 70
     0
  9
$DIMLIM
 70
     0
  9
$DIMTIH
 70
     1
  9
$DIMTOH
 70
     1
  9
$DIMSE1
 70
     0
  9
$DIMSE2
 70
     0
  9
$DIMTAD
 70
     0
  9
$DIMZIN
 70
     0
  9
$DIMBLK
  1

  9
$DIMASO
 70
     1
  9
$DIMSHO
 70
     1
  9
$DIMPOST
  1

  9
$DIMAPOST
  1

  9
$DIMALT
 70
     0
  9
$DIMALTD
 70
     2
  9
$DIMALTF
 40
25.399999999999999
  9
$DIMLFAC
 40
1.0
  9
$DIMTOFL
 70
     0
  9
$DIMTVP
 40
0.0
  9
$DIMTIX
 70
     0
  9
$DIMSOXD
 70
     0
  9
$DIMSAH
 70
     0
  9
$DIMBLK1
  1

  9
$DIMBLK2
  1

  9
$DIMSTYLE
  2
STANDARD
  9
$DIMCLRD
 70
     0
  9
$DIMCLRE
 70
     0
  9
$DIMCLRT
 70
     0
  9
$DIMTFAC
 40
1.0
  9
$DIMGAP
 40
0.09
  9
$LUNITS
 70
     2
  9
$LUPREC
 70
     4
  9
$SKETCHINC
 40
0.1
  9
$FILLETRAD
 40
0.0
  9
$AUNITS
 70
     0
  9
$AUPREC
 70
     0
  9
$MENU
  1
acad
  9
$ELEVATION
 40
0.0
  9
$PELEVATION
 40
0.0
  9
$THICKNESS
 40
0.0
  9
$LIMCHECK
 70
     0
  9
$BLIPMODE
 70
     0
  9
$CHAMFERA
 40
0.0
  9
$CHAMFERB
 40
0.0
  9
$SKPOLY
 70
     0
  9
$TDCREATE
 40
2454865.688407477
  9
$TDUPDATE
 40
2454865.6885877778
  9
$TDINDWG
 40
0.0001926042
  9
$TDUSRTIMER
 40
0.0001920602
  9
$USRTIMER
 70
     1
  9
$ANGBASE
 50
0.0
  9
$ANGDIR
 70
     0
  9
$PDMODE
 70
     3
  9
$PDSIZE
 40
-1.0
  9
$PLINEWID
 40
0.0
  9
$COORDS
 70
     2
  9
$SPLFRAME
 70
     0
  9
$SPLINETYPE
 70
     6
  9
$SPLINESEGS
 70
     8
  9
$ATTDIA
 70
     0
  9
$ATTREQ
 70
     1
  9
$HANDLING
 70
     1
  9
$HANDSEED
  5
4CB
  9
$SURFTAB1
 70
     6
  9
$SURFTAB2
 70
     6
  9
$SURFTYPE
 70
     6
  9
$SURFU
 70
     6
  9
$SURFV
 70
     6
  9
$UCSNAME
  2

  9
$UCSORG
 10
0.0
 20
0.0
 30
0.0
  9
$UCSXDIR
 10
1.0
 20
0.0
 30
0.0
  9
$UCSYDIR
 10
0.0
 20
1.0
 30
0.0
  9
$PUCSNAME
  2

  9
$PUCSORG
 10
0.0
 20
0.0
 30
0.0
  9
$PUCSXDIR
 10
1.0
 20
0.0
 30
0.0
  9
$PUCSYDIR
 10
0.0
 20
1.0
 30
0.0
  9
$USERI1
 70
     0
  9
$USERI2
 70
     0
  9
$USERI3
 70
     0
  9
$USERI4
 70
     0
  9
$USERI5
 70
     0
  9
$USERR1
 40
0.0
  9
$USERR2
 40
0.0
  9
$USERR3
 40
0.0
  9
$USERR4
 40
0.0
  9
$USERR5
 40
0.0
  9
$WORLDVIEW
 70
     1
  9
$SHADEDGE
 70
     3
  9
$SHADEDIF
 70
    70
  9
$TILEMODE
 70
     1
  9
$MAXACTVP
 70
    16
  9
$PLIMCHECK
 70
     0
  9
$PEXTMIN
 10
1.0000000000000000E+020
 20
1.0000000000000000E+020
 30
1.0000000000000000E+020
  9
$PEXTMAX
 10
-1.0000000000000000E+020
 20
-1.0000000000000000E+020
 30
-1.0000000000000000E+020
  9
$PLIMMIN
 10
0.0
 20
0.0
  9
$PLIMMAX
 10
12.0
 20
9.0
  9
$UNITMODE
 70
     0
  9
$VISRETAIN
 70
     0
  9
$PLINEGEN
 70
     1
  9
$PSLTSCALE
 70
     0
  0
ENDSEC
  0
SECTION
  2
TABLES
  0
TABLE
  2
VPORT
 70
     2
  0
VPORT
  2
*ACTIVE
 70
     0
 10
0.0
 20
0.0
 11
1.0
 21
1.0
 12
837.01474568530978
 22
-220.61108525185901
 13
0.0
 23
0.0
 14
1.0
 24
1.0
 15
0.0
 25
0.0
 16
0.0
 26
0.0
 36
1.0
 17
0.0
 27
0.0
 37
0.0
 40
203.21238396464531
 41
1.5416078984485191
 42
50.0
 43
0.0
 44
0.0
 50
0.0
 51
0.0
 71
     0
 72
   100
 73
     1
 74
     1
 75
     0
 76
     0
 77
     0
 78
     0
  0
ENDTAB
  0
TABLE
  2
LTYPE
 70
    11
  0
LTYPE
  2
CONTINUOUS
 70
     0
  3
Solid line
 72
    65
 73
     0
 40
0.0
  0
LTYPE
  2
DOT
 70
     0
  3
. . . . . . . . 
 72
    65
 73
     2
 40
1.0
 49
0.0
 49
-1.0
  0
LTYPE
  2
DASHED
 70
     0
  3
___  ___  ___  ___  
 72
    65
 73
     2
 40
4.0
 49
3.0
 49
-1.0
  0
LTYPE
  2
HIDDEN
 70
     0
  3
__ __ __ __ 
 72
    65
 73
     2
 40
3.0
 49
2.0
 49
-1.0
  0
LTYPE
  2
STITCH
 70
     0
  3
_ _ _ _ 
 72
    65
 73
     2
 40
2.0
 49
1.0
 49
-1.0
  0
LTYPE
  2
CENTER
 70
     0
  3
______  __  ______  __  
 72
    65
 73
     4
 40
43.0
 49
40.0
 49
-1.0
 49
1.0
 49
-1.0
  0
LTYPE
  2
DASHDOT
 70
     0
  3
____ . ____ . 
 72
    65
 73
     4
 40
32.0
 49
30.0
 49
-1.0
 49
0.0
 49
-1.0
  0
LTYPE
  2
BORDER
 70
     0
  3
__ . __ . 
 72
    65
 73
     4
 40
22.0
 49
20.0
 49
-1.0
 49
0.0
 49
-1.0
  0
LTYPE
  2
CUTTING
 70
     0
  3
________   ___   ___   
 72
    65
 73
     6
 40
45.0
 49
40.0
 49
-1.0
 49
1.0
 49
-1.0
 49
1.0
 49
-1.0
  0
LTYPE
  2
PHANTOM
 70
     0
  3
______  __  __  
 72
    65
 73
     6
 40
35.0
 49
30.0
 49
-1.0
 49
1.0
 49
-1.0
 49
1.0
 49
-1.0
  0
LTYPE
  2
DIVIDE
 70
     0
  3
____ . . ____ . . 
 72
    65
 73
     6
 40
23.0
 49
20.0
 49
-1.0
 49
0.0
 49
-1.0
 49
0.0
 49
-1.0
  0
ENDTAB
  0
TABLE
  2
LAYER
 70
     4
  0
LAYER
  2
0
 70
     0
 62
     7
  6
CONTINUOUS
  0
LAYER
  2
図枠
 70
     0
 62
     7
  6
CONTINUOUS
  0
LAYER
  2
ﾚｲﾔ_1
 70
     0
 62
     7
  6
CONTINUOUS
  0
LAYER
  2
寸法線
 70
     0
 62
     7
  6
CONTINUOUS
  0
ENDTAB
  0
TABLE
  2
STYLE
 70
     1
  0
STYLE
  2
STANDARD
 70
     0
 40
0.0
 41
1.0
 50
0.0
 71
     0
 42
0.0
  3
txt
  4
extfont
  0
ENDTAB
  0
TABLE
  2
VIEW
 70
     0
  0
ENDTAB
  0
TABLE
  2
UCS
 70
     0
  0
ENDTAB
  0
TABLE
  2
APPID
 70
     2
  0
APPID
  2
ACAD
 70
     0
  0
APPID
  2
DCO15
 70
     0
  0
ENDTAB
  0
TABLE
  2
DIMSTYLE
 70
     2
  0
DIMSTYLE
  2
STANDARD
 70
     0
  3

  4

  5

  6

  7

 40
1.0
 41
0.18
 42
0.0625
 43
0.38
 44
0.18
 45
0.0
 46
0.0
 47
0.0
 48
0.0
140
0.18
141
0.09
142
0.0
143
25.399999999999999
144
1.0
145
0.0
146
1.0
147
0.09
 71
     0
 72
     0
 73
     1
 74
     1
 75
     0
 76
     0
 77
     0
 78
     0
170
     0
171
     2
172
     0
173
     0
174
     0
175
     0
176
     0
177
     0
178
     0
  0
DIMSTYLE
  2
VELDIM0
 70
     0
  3

  4

  5

  6

  7

 40
1.0
 41
3.0
 42
0.0625
 43
0.38
 44
0.5
 45
0.0
 46
3.0
 47
0.0
 48
0.0
140
2.9986110209999999
141
0.09
142
0.0
143
25.399999999999999
144
1.0
145
0.0
146
1.0
147
0.09
 71
     0
 72
     0
 73
     0
 74
     0
 75
     0
 76
     0
 77
     0
 78
     8
170
     0
171
     2
172
     0
173
     0
174
     0
175
     0
176
     0
177
     0
178
     0
  0
ENDTAB
  0
ENDSEC
  0
SECTION
  2
BLOCKS
  0
BLOCK
  8
0
  2
$MODEL_SPACE
 70
     0
 10
0.0
 20
0.0
 30
0.0
  3
$MODEL_SPACE
  1

  0
ENDBLK
  5
E
  8
0
  0
BLOCK
 67
     1
  8
0
  2
$PAPER_SPACE
 70
     0
 10
0.0
 20
0.0
 30
0.0
  3
$PAPER_SPACE
  1

  0
ENDBLK
  5
10
 67
     1
  8
0
  0
BLOCK
  8
0
  2
*D0
 70
     1
 10
0.0
 20
0.0
 30
0.0
  3
*D0
  1

  0
TEXT
  5
E0
  8
0
 62
     0
 10
774.85036116779997
 20
-258.24385262509998
 30
0.0
 40
2.9986110209999999
  1
71.5
  0
LINE
  5
E1
  8
0
 62
     0
 10
742.62813883960007
 20
-247.17018934270001
 30
0.0
 11
742.62813883960007
 21
-260.27301927590003
 31
0.0
  0
LINE
  5
E2
  8
0
 62
     0
 10
814.12813883959996
 20
-247.17018934270001
 30
0.0
 11
814.12813883959996
 21
-260.27301927590003
 31
0.0
  0
LINE
  5
E3
  8
0
 62
     0
 10
742.62813883960007
 20
-259.77301927590003
 30
0.0
 11
783.66980534729998
 21
-259.77301927590003
 31
0.0
  0
LINE
  5
E4
  8
0
 62
     0
 10
742.62813883960007
 20
-259.77301927590003
 30
0.0
 11
773.08647233190004
 21
-259.77301927590003
 31
0.0
  0
LINE
  5
E5
  8
0
 62
     0
 10
814.12813883959996
 20
-259.77301927590003
 30
0.0
 11
783.66980534729998
 21
-259.77301927590003
 31
0.0
  0
LINE
  5
E6
  8
0
 62
     0
 10
814.12813883959996
 20
-259.77301927590003
 30
0.0
 11
773.08647233190004
 21
-259.77301927590003
 31
0.0
  0
LINE
  5
E7
  8
0
 62
     0
 10
814.12813883959996
 20
-259.77301927590003
 30
0.0
 11
811.12813883960007
 21
-259.77301927590003
 31
0.0
  0
SOLID
  5
E8
  8
0
 62
     0
 10
814.12813883959996
 20
-259.77301927590003
 30
0.0
 11
811.12813883960007
 21
-260.52301927590003
 31
0.0
 12
811.12813883960007
 22
-259.02301927590003
 32
0.0
 13
811.87813883959996
 23
-259.77301927590003
 33
0.0
  0
LINE
  5
E9
  8
0
 62
     0
 10
742.62813883960007
 20
-259.77301927590003
 30
0.0
 11
745.62813883959996
 21
-259.77301927590003
 31
0.0
  0
SOLID
  5
EA
  8
0
 62
     0
 10
742.62813883960007
 20
-259.77301927590003
 30
0.0
 11
745.62813883959996
 21
-259.02301927590003
 31
0.0
 12
745.62813883959996
 22
-260.52301927590003
 32
0.0
 13
744.87813883960007
 23
-259.77301927590003
 33
0.0
  0
ENDBLK
  5
EB
  8
0
  0
BLOCK
  8
0
  2
*D1
 70
     1
 10
0.0
 20
0.0
 30
0.0
  3
*D1
  1

  0
TEXT
  5
F0
  8
0
 62
     0
 10
860.31604982449994
 20
-219.1410226788
 30
0.0
 40
2.9986110209999999
  1
(2)
  0
LINE
  5
F1
  8
0
 62
     0
 10
871.47848645629995
 20
-229.67018932959999
 30
0.0
 11
871.47848645629995
 21
-220.17018932959999
 31
0.0
  0
LINE
  5
F2
  8
0
 62
     0
 10
868.97848654819995
 20
-232.17018932959999
 30
0.0
 11
868.97848654819995
 21
-220.17018932959999
 31
0.0
  0
LINE
  5
F3
  8
0
 62
     0
 10
871.47848645629995
 20
-220.67018932959999
 30
0.0
 11
867.3716051680999
 21
-220.67018932959999
 31
0.0
  0
LINE
  5
F4
  8
0
 62
     0
 10
871.47848645629995
 20
-220.67018932959999
 30
0.0
 11
858.55216098859989
 21
-220.67018932959999
 31
0.0
  0
LINE
  5
F5
  8
0
 62
     0
 10
868.97848654819995
 20
-220.67018932959999
 30
0.0
 11
867.3716051680999
 21
-220.67018932959999
 31
0.0
  0
LINE
  5
F6
  8
0
 62
     0
 10
868.97848654819995
 20
-220.67018932959999
 30
0.0
 11
858.55216098859989
 21
-220.67018932959999
 31
0.0
  0
LINE
  5
F7
  8
0
 62
     0
 10
868.97848654819995
 20
-220.67018932959999
 30
0.0
 11
865.97848654819995
 21
-220.67018932959999
 31
0.0
  0
SOLID
  5
F8
  8
0
 62
     0
 10
868.97848654819995
 20
-220.67018932959999
 30
0.0
 11
865.97848654819995
 21
-221.42018932959999
 31
0.0
 12
865.97848654819995
 22
-219.92018932959999
 32
0.0
 13
866.72848654820007
 23
-220.67018932959999
 33
0.0
  0
LINE
  5
F9
  8
0
 62
     0
 10
871.47848645629995
 20
-220.67018932959999
 30
0.0
 11
874.47848645629995
 21
-220.67018932959999
 31
0.0
  0
SOLID
  5
FA
  8
0
 62
     0
 10
871.47848645629995
 20
-220.67018932959999
 30
0.0
 11
874.47848645629995
 21
-219.92018932959999
 31
0.0
 12
874.47848645629995
 22
-221.42018932959999
 32
0.0
 13
873.72848645630006
 23
-220.67018932959999
 33
0.0
  0
ENDBLK
  5
FB
  8
0
  0
BLOCK
  8
0
  2
*D2
 70
     1
 10
0.0
 20
0.0
 30
0.0
  3
*D2
  1

  0
TEXT
  5
FF
  8
0
 62
     0
 10
876.20070878449985
 20
-219.1410225738
 30
0.0
 40
2.9986110209999999
  1
16.5
  0
LINE
  5
100
  8
0
 62
     0
 10
887.97848645630006
 20
-229.67018922459999
 30
0.0
 11
887.97848645630006
 21
-220.17018922459999
 31
0.0
  0
LINE
  5
101
  8
0
 62
     0
 10
871.47848645629995
 20
-229.67018932959999
 30
0.0
 11
871.47848645629995
 21
-220.17018922459999
 31
0.0
  0
LINE
  5
102
  8
0
 62
     0
 10
887.97848645630006
 20
-220.67018922459999
 30
0.0
 11
885.02015296399986
 21
-220.67018922459999
 31
0.0
  0
LINE
  5
103
  8
0
 62
     0
 10
887.97848645630006
 20
-220.67018922459999
 30
0.0
 11
874.43681994849999
 21
-220.67018922459999
 31
0.0
  0
LINE
  5
104
  8
0
 62
     0
 10
871.47848645629995
 20
-220.67018922459999
 30
0.0
 11
885.02015296399986
 21
-220.67018922459999
 31
0.0
  0
LINE
  5
105
  8
0
 62
     0
 10
871.47848645629995
 20
-220.67018922459999
 30
0.0
 11
874.43681994849999
 21
-220.67018922459999
 31
0.0
  0
LINE
  5
106
  8
0
 62
     0
 10
871.47848645629995
 20
-220.67018922459999
 30
0.0
 11
868.47848645630006
 21
-220.67018922459999
 31
0.0
  0
SOLID
  5
107
  8
0
 62
     0
 10
871.47848645629995
 20
-220.67018922459999
 30
0.0
 11
868.47848645630006
 21
-221.42018922459999
 31
0.0
 12
868.47848645630006
 22
-219.92018922459999
 32
0.0
 13
869.22848645630006
 23
-220.67018922459999
 33
0.0
  0
LINE
  5
108
  8
0
 62
     0
 10
887.97848645630006
 20
-220.67018922459999
 30
0.0
 11
890.97848645629995
 21
-220.67018922459999
 31
0.0
  0
SOLID
  5
109
  8
0
 62
     0
 10
887.97848645630006
 20
-220.67018922459999
 30
0.0
 11
890.97848645629995
 21
-219.92018922459999
 31
0.0
 12
890.97848645629995
 22
-221.42018922459999
 32
0.0
 13
890.22848645629995
 23
-220.67018922459999
 33
0.0
  0
ENDBLK
  5
10A
  8
0
  0
BLOCK
  8
0
  2
*D3
 70
     1
 10
0.0
 20
0.0
 30
0.0
  3
*D3
  1

  0
TEXT
  5
10E
  8
0
 62
     0
 10
824.35477986460023
 20
-186.42910892610001
 30
0.0
 40
2.9986110209999999
  1
6
 50
90.0
  0
LINE
  5
10F
  8
0
 62
     0
 10
810.8781386387999
 20
-188.54716450820001
 30
0.0
 11
826.38394651539988
 21
-188.54716450820001
 31
0.0
  0
LINE
  5
110
  8
0
 62
     0
 10
810.8781386387999
 20
-182.54716450820001
 30
0.0
 11
826.38394651539988
 21
-182.54716450820001
 31
0.0
  0
LINE
  5
111
  8
0
 62
     0
 10
825.88394651539977
 20
-188.54716450820001
 30
0.0
 11
825.88394651539977
 21
-182.9013312543
 31
0.0
  0
LINE
  5
112
  8
0
 62
     0
 10
825.88394651539977
 20
-188.54716450820001
 30
0.0
 11
825.88394651539977
 21
-188.192997762
 31
0.0
  0
LINE
  5
113
  8
0
 62
     0
 10
825.88394651539977
 20
-182.54716450820001
 30
0.0
 11
825.88394651539977
 21
-182.9013312543
 31
0.0
  0
LINE
  5
114
  8
0
 62
     0
 10
825.88394651539977
 20
-182.54716450820001
 30
0.0
 11
825.88394651539977
 21
-188.192997762
 31
0.0
  0
LINE
  5
115
  8
0
 62
     0
 10
825.88394651539977
 20
-182.54716450820001
 30
0.0
 11
825.88394651539977
 21
-179.54716450820001
 31
0.0
  0
SOLID
  5
116
  8
0
 62
     0
 10
825.88394651539977
 20
-182.54716450820001
 30
0.0
 11
825.13394651539977
 21
-179.54716450820001
 31
0.0
 12
826.63394651539988
 22
-179.54716450820001
 32
0.0
 13
825.88394651539977
 23
-180.29716450820001
 33
0.0
  0
LINE
  5
117
  8
0
 62
     0
 10
825.88394651539977
 20
-188.54716450820001
 30
0.0
 11
825.88394651539977
 21
-191.54716450820001
 31
0.0
  0
SOLID
  5
118
  8
0
 62
     0
 10
825.88394651539977
 20
-188.54716450820001
 30
0.0
 11
826.63394651539988
 21
-191.54716450820001
 31
0.0
 12
825.13394651539977
 22
-191.54716450820001
 32
0.0
 13
825.88394651539977
 23
-190.79716450820001
 33
0.0
  0
ENDBLK
  5
119
  8
0
  0
BLOCK
  8
0
  2
*D4
 70
     1
 10
0.0
 20
0.0
 30
0.0
  3
*D4
  1

  0
TEXT
  5
11D
  8
0
 62
     0
 10
814.56106219419985
 20
-169.1189496447
 30
0.0
 40
2.9986110209999999
  1
3.5
  0
LINE
  5
11E
  8
0
 62
     0
 10
811.6281386387999
 20
-180.79716414699999
 30
0.0
 11
811.6281386387999
 21
-170.1481162954
 31
0.0
  0
LINE
  5
11F
  8
0
 62
     0
 10
808.1281386387999
 20
-180.7971642521
 30
0.0
 11
808.1281386387999
 21
-170.1481162954
 31
0.0
  0
LINE
  5
120
  8
0
 62
     0
 10
811.6281386387999
 20
-170.6481162954
 30
0.0
 11
821.61661753780015
 21
-170.6481162954
 31
0.0
  0
LINE
  5
121
  8
0
 62
     0
 10
811.6281386387999
 20
-170.6481162954
 30
0.0
 11
812.79717335830014
 21
-170.6481162954
 31
0.0
  0
LINE
  5
122
  8
0
 62
     0
 10
808.1281386387999
 20
-170.6481162954
 30
0.0
 11
821.61661753780015
 21
-170.6481162954
 31
0.0
  0
LINE
  5
123
  8
0
 62
     0
 10
808.1281386387999
 20
-170.6481162954
 30
0.0
 11
812.79717335830014
 21
-170.6481162954
 31
0.0
  0
LINE
  5
124
  8
0
 62
     0
 10
808.1281386387999
 20
-170.6481162954
 30
0.0
 11
805.12813863880001
 21
-170.6481162954
 31
0.0
  0
SOLID
  5
125
  8
0
 62
     0
 10
808.1281386387999
 20
-170.6481162954
 30
0.0
 11
805.12813863880001
 21
-171.3981162954
 31
0.0
 12
805.12813863880001
 22
-169.8981162954
 32
0.0
 13
805.87813863880001
 23
-170.6481162954
 33
0.0
  0
LINE
  5
126
  8
0
 62
     0
 10
811.6281386387999
 20
-170.6481162954
 30
0.0
 11
814.62813863880001
 21
-170.6481162954
 31
0.0
  0
SOLID
  5
127
  8
0
 62
     0
 10
811.6281386387999
 20
-170.6481162954
 30
0.0
 11
814.62813863880001
 21
-169.8981162954
 31
0.0
 12
814.62813863880001
 22
-171.3981162954
 32
0.0
 13
813.87813863880001
 23
-170.6481162954
 33
0.0
  0
ENDBLK
  5
128
  8
0
  0
BLOCK
  8
0
  2
*D5
 70
     1
 10
0.0
 20
0.0
 30
0.0
  3
*D5
  1

  0
TEXT
  5
12C
  8
0
 62
     0
 10
776.99006698259996
 20
-162.02774250159999
 30
0.0
 40
2.9986110209999999
  1
63
  0
LINE
  5
12D
  8
0
 62
     0
 10
809.8781386387999
 20
-180.04716450820001
 30
0.0
 11
809.8781386387999
 21
-163.05690915229999
 31
0.0
  0
LINE
  5
12E
  8
0
 62
     0
 10
746.87813863880001
 20
-180.04716515250001
 30
0.0
 11
746.87813863880001
 21
-163.05690915229999
 31
0.0
  0
LINE
  5
12F
  8
0
 62
     0
 10
809.8781386387999
 20
-163.55690915229999
 30
0.0
 11
782.28173349029998
 21
-163.55690915229999
 31
0.0
  0
LINE
  5
130
  8
0
 62
     0
 10
809.8781386387999
 20
-163.55690915229999
 30
0.0
 11
775.22617814670002
 21
-163.55690915229999
 31
0.0
  0
LINE
  5
131
  8
0
 62
     0
 10
746.87813863880001
 20
-163.55690915229999
 30
0.0
 11
782.28173349029998
 21
-163.55690915229999
 31
0.0
  0
LINE
  5
132
  8
0
 62
     0
 10
746.87813863880001
 20
-163.55690915229999
 30
0.0
 11
775.22617814670002
 21
-163.55690915229999
 31
0.0
  0
LINE
  5
133
  8
0
 62
     0
 10
746.87813863880001
 20
-163.55690915229999
 30
0.0
 11
749.8781386387999
 21
-163.55690915229999
 31
0.0
  0
SOLID
  5
134
  8
0
 62
     0
 10
746.87813863880001
 20
-163.55690915229999
 30
0.0
 11
749.8781386387999
 21
-162.80690915229999
 31
0.0
 12
749.8781386387999
 22
-164.30690915229999
 32
0.0
 13
749.12813863880001
 23
-163.55690915229999
 33
0.0
  0
LINE
  5
135
  8
0
 62
     0
 10
809.8781386387999
 20
-163.55690915229999
 30
0.0
 11
806.87813863880001
 21
-163.55690915229999
 31
0.0
  0
SOLID
  5
136
  8
0
 62
     0
 10
809.8781386387999
 20
-163.55690915229999
 30
0.0
 11
806.87813863880001
 21
-164.30690915229999
 31
0.0
 12
806.87813863880001
 22
-162.80690915229999
 32
0.0
 13
807.62813863880001
 23
-163.55690915229999
 33
0.0
  0
ENDBLK
  5
137
  8
0
  0
BLOCK
  8
0
  2
*D6
 70
     1
 10
0.0
 20
0.0
 30
0.0
  3
*D6
  1

  0
TEXT
  5
13B
  8
0
 62
     0
 10
776.6142499202
 20
-212.9186815589
 30
0.0
 40
2.9986110209999999
  1
54
  0
LINE
  5
13C
  8
0
 62
     0
 10
805.37813875610004
 20
-230.6701891603
 30
0.0
 11
805.37813875610004
 21
-213.9478482097
 31
0.0
  0
LINE
  5
13D
  8
0
 62
     0
 10
751.37813875610004
 20
-230.67018924050001
 30
0.0
 11
751.37813875610004
 21
-213.9478482097
 31
0.0
  0
LINE
  5
13E
  8
0
 62
     0
 10
805.37813875610004
 20
-214.4478482097
 30
0.0
 11
781.90591642799995
 21
-214.4478482097
 31
0.0
  0
LINE
  5
13F
  8
0
 62
     0
 10
805.37813875610004
 20
-214.4478482097
 30
0.0
 11
774.85036108429995
 21
-214.4478482097
 31
0.0
  0
LINE
  5
140
  8
0
 62
     0
 10
751.37813875610004
 20
-214.4478482097
 30
0.0
 11
781.90591642799995
 21
-214.4478482097
 31
0.0
  0
LINE
  5
141
  8
0
 62
     0
 10
751.37813875610004
 20
-214.4478482097
 30
0.0
 11
774.85036108429995
 21
-214.4478482097
 31
0.0
  0
LINE
  5
142
  8
0
 62
     0
 10
751.37813875610004
 20
-214.4478482097
 30
0.0
 11
754.37813875610004
 21
-214.4478482097
 31
0.0
  0
SOLID
  5
143
  8
0
 62
     0
 10
751.37813875610004
 20
-214.4478482097
 30
0.0
 11
754.37813875610004
 21
-213.6978482097
 31
0.0
 12
754.37813875610004
 22
-215.1978482097
 32
0.0
 13
753.62813875610004
 23
-214.4478482097
 33
0.0
  0
LINE
  5
144
  8
0
 62
     0
 10
805.37813875610004
 20
-214.4478482097
 30
0.0
 11
802.37813875609993
 21
-214.4478482097
 31
0.0
  0
SOLID
  5
145
  8
0
 62
     0
 10
805.37813875610004
 20
-214.4478482097
 30
0.0
 11
802.37813875609993
 21
-215.1978482097
 31
0.0
 12
802.37813875609993
 22
-213.6978482097
 32
0.0
 13
803.12813875610004
 23
-214.4478482097
 33
0.0
  0
ENDBLK
  5
146
  8
0
  0
BLOCK
  8
0
  2
*D7
 70
     1
 10
0.0
 20
0.0
 30
0.0
  3
*D7
  1

  0
TEXT
  5
14A
  8
0
 62
     0
 10
776.61425034619992
 20
-218.62473789699999
 30
0.0
 40
2.9986110209999999
  1
26
  0
LINE
  5
14B
  8
0
 62
     0
 10
791.37813873210007
 20
-225.67018934270001
 30
0.0
 11
791.37813873210007
 21
-219.65390454769999
 31
0.0
  0
LINE
  5
14C
  8
0
 62
     0
 10
765.3781396321001
 20
-225.6701896086
 30
0.0
 11
765.3781396321001
 21
-219.65390454769999
 31
0.0
  0
LINE
  5
14D
  8
0
 62
     0
 10
791.37813873210007
 20
-220.15390454769999
 30
0.0
 11
781.90591685389995
 21
-220.15390454769999
 31
0.0
  0
LINE
  5
14E
  8
0
 62
     0
 10
791.37813873210007
 20
-220.15390454769999
 30
0.0
 11
774.85036151029999
 21
-220.15390454769999
 31
0.0
  0
LINE
  5
14F
  8
0
 62
     0
 10
765.3781396321001
 20
-220.15390454769999
 30
0.0
 11
781.90591685389995
 21
-220.15390454769999
 31
0.0
  0
LINE
  5
150
  8
0
 62
     0
 10
765.3781396321001
 20
-220.15390454769999
 30
0.0
 11
774.85036151029999
 21
-220.15390454769999
 31
0.0
  0
LINE
  5
151
  8
0
 62
     0
 10
765.3781396321001
 20
-220.15390454769999
 30
0.0
 11
768.3781396321001
 21
-220.15390454769999
 31
0.0
  0
SOLID
  5
152
  8
0
 62
     0
 10
765.3781396321001
 20
-220.15390454769999
 30
0.0
 11
768.3781396321001
 21
-219.40390454769999
 31
0.0
 12
768.3781396321001
 22
-220.90390454769999
 32
0.0
 13
767.6281396321001
 23
-220.15390454769999
 33
0.0
  0
LINE
  5
153
  8
0
 62
     0
 10
791.37813873210007
 20
-220.15390454769999
 30
0.0
 11
788.37813873209996
 21
-220.15390454769999
 31
0.0
  0
SOLID
  5
154
  8
0
 62
     0
 10
791.37813873210007
 20
-220.15390454769999
 30
0.0
 11
788.37813873209996
 21
-220.90390454769999
 31
0.0
 12
788.37813873209996
 22
-219.40390454769999
 32
0.0
 13
789.12813873210007
 23
-220.15390454769999
 33
0.0
  0
ENDBLK
  5
155
  8
0
  0
BLOCK
  8
0
  2
*D8
 70
     1
 10
0.0
 20
0.0
 30
0.0
  3
*D8
  1

  0
TEXT
  5
159
  8
0
 62
     0
 10
731.09897218880008
 20
-244.5521337607
 30
0.0
 40
2.9986110209999999
  1
5
 50
90.0
  0
LINE
  5
15A
  8
0
 62
     0
 10
742.12813902309995
 20
-241.17018934270001
 30
0.0
 11
732.12813883959996
 21
-241.17018934270001
 31
0.0
  0
LINE
  5
15B
  8
0
 62
     0
 10
741.62813883960007
 20
-246.17018934270001
 30
0.0
 11
732.12813883959996
 21
-246.17018934270001
 31
0.0
  0
LINE
  5
15C
  8
0
 62
     0
 10
732.62813883959996
 20
-241.17018934270001
 30
0.0
 11
732.62813883959996
 21
-241.17018934270001
 31
0.0
  0
LINE
  5
15D
  8
0
 62
     0
 10
732.62813883959996
 20
-241.17018934270001
 30
0.0
 11
732.62813883959996
 21
-246.17018934270001
 31
0.0
  0
LINE
  5
15E
  8
0
 62
     0
 10
732.62813883959996
 20
-246.17018934270001
 30
0.0
 11
732.62813883959996
 21
-241.17018934270001
 31
0.0
  0
LINE
  5
15F
  8
0
 62
     0
 10
732.62813883959996
 20
-246.17018934270001
 30
0.0
 11
732.62813883959996
 21
-246.17018934270001
 31
0.0
  0
LINE
  5
160
  8
0
 62
     0
 10
732.62813883959996
 20
-246.17018934270001
 30
0.0
 11
732.62813883959996
 21
-249.17018934270001
 31
0.0
  0
SOLID
  5
161
  8
0
 62
     0
 10
732.62813883959996
 20
-246.17018934270001
 30
0.0
 11
733.37813883959996
 21
-249.17018934270001
 31
0.0
 12
731.87813883960007
 22
-249.17018934270001
 32
0.0
 13
732.62813883959996
 23
-248.42018934270001
 33
0.0
  0
LINE
  5
162
  8
0
 62
     0
 10
732.62813883959996
 20
-241.17018934270001
 30
0.0
 11
732.62813883959996
 21
-238.17018934270001
 31
0.0
  0
SOLID
  5
163
  8
0
 62
     0
 10
732.62813883959996
 20
-241.17018934270001
 30
0.0
 11
731.87813883960007
 21
-238.17018934270001
 31
0.0
 12
733.37813883959996
 22
-238.17018934270001
 32
0.0
 13
732.62813883959996
 23
-238.92018934270001
 33
0.0
  0
ENDBLK
  5
164
  8
0
  0
BLOCK
  8
0
  2
*D9
 70
     1
 10
0.0
 20
0.0
 30
0.0
  3
*D9
  1

  0
TEXT
  5
168
  8
0
 62
     0
 10
822.59897218879996
 20
-241.94796692560001
 30
0.0
 40
2.9986110209999999
  1
15.5
 50
90.0
  0
LINE
  5
169
  8
0
 62
     0
 10
815.12813883959996
 20
-246.17018934270001
 30
0.0
 11
824.62813883960007
 21
-246.17018934270001
 31
0.0
  0
LINE
  5
16A
  8
0
 62
     0
 10
805.37813875610004
 20
-230.67018916489999
 30
0.0
 11
824.62813883960007
 21
-230.67018916489999
 31
0.0
  0
LINE
  5
16B
  8
0
 62
     0
 10
824.12813883959996
 20
-246.17018934270001
 30
0.0
 11
824.12813883959996
 21
-233.1285227461
 31
0.0
  0
LINE
  5
16C
  8
0
 62
     0
 10
824.12813883959996
 20
-246.17018934270001
 30
0.0
 11
824.12813883959996
 21
-243.7118557615
 31
0.0
  0
LINE
  5
16D
  8
0
 62
     0
 10
824.12813883959996
 20
-230.67018916489999
 30
0.0
 11
824.12813883959996
 21
-233.1285227461
 31
0.0
  0
LINE
  5
16E
  8
0
 62
     0
 10
824.12813883959996
 20
-230.67018916489999
 30
0.0
 11
824.12813883959996
 21
-243.7118557615
 31
0.0
  0
LINE
  5
16F
  8
0
 62
     0
 10
824.12813883959996
 20
-230.67018916489999
 30
0.0
 11
824.12813883959996
 21
-227.67018916489999
 31
0.0
  0
SOLID
  5
170
  8
0
 62
     0
 10
824.12813883959996
 20
-230.67018916489999
 30
0.0
 11
823.37813883959996
 21
-227.67018916489999
 31
0.0
 12
824.87813883959996
 22
-227.67018916489999
 32
0.0
 13
824.12813883959996
 23
-228.42018916489999
 33
0.0
  0
LINE
  5
171
  8
0
 62
     0
 10
824.12813883959996
 20
-246.17018934270001
 30
0.0
 11
824.12813883959996
 21
-249.17018934270001
 31
0.0
  0
SOLID
  5
172
  8
0
 62
     0
 10
824.12813883959996
 20
-246.17018934270001
 30
0.0
 11
824.87813883959996
 21
-249.17018934270001
 31
0.0
 12
823.37813883959996
 22
-249.17018934270001
 32
0.0
 13
824.12813883959996
 23
-248.42018934270001
 33
0.0
  0
ENDBLK
  5
173
  8
0
  0
BLOCK
  8
0
  2
*D10
 70
     1
 10
0.0
 20
0.0
 30
0.0
  3
*D10
  1

  0
TEXT
  5
177
  8
0
 62
     0
 10
919.84468030899995
 20
-171.03819485279999
 30
0.0
 40
2.9986110209999999
  1
22.5
  0
LINE
  5
178
  8
0
 62
     0
 10
934.62245798080005
 20
-181.5673615035
 30
0.0
 11
934.62245798080005
 21
-172.0673615035
 31
0.0
  0
LINE
  5
179
  8
0
 62
     0
 10
912.12245798080005
 20
-181.5673615035
 30
0.0
 11
912.12245798080005
 21
-172.0673615035
 31
0.0
  0
LINE
  5
17A
  8
0
 62
     0
 10
934.62245798080005
 20
-172.5673615035
 30
0.0
 11
928.66412448849997
 21
-172.5673615035
 31
0.0
  0
LINE
  5
17B
  8
0
 62
     0
 10
934.62245798080005
 20
-172.5673615035
 30
0.0
 11
918.08079147309991
 21
-172.5673615035
 31
0.0
  0
LINE
  5
17C
  8
0
 62
     0
 10
912.12245798080005
 20
-172.5673615035
 30
0.0
 11
928.66412448849997
 21
-172.5673615035
 31
0.0
  0
LINE
  5
17D
  8
0
 62
     0
 10
912.12245798080005
 20
-172.5673615035
 30
0.0
 11
918.08079147309991
 21
-172.5673615035
 31
0.0
  0
LINE
  5
17E
  8
0
 62
     0
 10
912.12245798080005
 20
-172.5673615035
 30
0.0
 11
915.12245798079994
 21
-172.5673615035
 31
0.0
  0
SOLID
  5
17F
  8
0
 62
     0
 10
912.12245798080005
 20
-172.5673615035
 30
0.0
 11
915.12245798079994
 21
-171.8173615035
 31
0.0
 12
915.12245798079994
 22
-173.3173615035
 32
0.0
 13
914.37245798080005
 23
-172.5673615035
 33
0.0
  0
LINE
  5
180
  8
0
 62
     0
 10
934.62245798080005
 20
-172.5673615035
 30
0.0
 11
931.62245798080005
 21
-172.5673615035
 31
0.0
  0
SOLID
  5
181
  8
0
 62
     0
 10
934.62245798080005
 20
-172.5673615035
 30
0.0
 11
931.62245798080005
 21
-173.3173615035
 31
0.0
 12
931.62245798080005
 22
-171.8173615035
 32
0.0
 13
932.37245798080005
 23
-172.5673615035
 33
0.0
  0
ENDBLK
  5
182
  8
0
  0
BLOCK
  8
0
  2
*D11
 70
     1
 10
0.0
 20
0.0
 30
0.0
  3
*D11
  1

  0
TEXT
  5
186
  8
0
 62
     0
 10
943.09329133000006
 20
-192.34513917530001
 30
0.0
 40
2.9986110209999999
  1
12.5
 50
90.0
  0
LINE
  5
187
  8
0
 62
     0
 10
935.62245798079994
 20
-195.0673615035
 30
0.0
 11
945.12245798080005
 21
-195.0673615035
 31
0.0
  0
LINE
  5
188
  8
0
 62
     0
 10
935.62245798079994
 20
-182.5673615035
 30
0.0
 11
945.12245798080005
 21
-182.5673615035
 31
0.0
  0
LINE
  5
189
  8
0
 62
     0
 10
944.62245798080005
 20
-195.0673615035
 30
0.0
 11
944.62245798080005
 21
-183.5256949958
 31
0.0
  0
LINE
  5
18A
  8
0
 62
     0
 10
944.62245798080005
 20
-195.0673615035
 30
0.0
 11
944.62245798080005
 21
-194.10902801130001
 31
0.0
  0
LINE
  5
18B
  8
0
 62
     0
 10
944.62245798080005
 20
-182.5673615035
 30
0.0
 11
944.62245798080005
 21
-183.5256949958
 31
0.0
  0
LINE
  5
18C
  8
0
 62
     0
 10
944.62245798080005
 20
-182.5673615035
 30
0.0
 11
944.62245798080005
 21
-194.10902801130001
 31
0.0
  0
LINE
  5
18D
  8
0
 62
     0
 10
944.62245798080005
 20
-182.5673615035
 30
0.0
 11
944.62245798080005
 21
-179.5673615035
 31
0.0
  0
SOLID
  5
18E
  8
0
 62
     0
 10
944.62245798080005
 20
-182.5673615035
 30
0.0
 11
943.87245798080005
 21
-179.5673615035
 31
0.0
 12
945.37245798080005
 22
-179.5673615035
 32
0.0
 13
944.62245798080005
 23
-180.3173615035
 33
0.0
  0
LINE
  5
18F
  8
0
 62
     0
 10
944.62245798080005
 20
-195.0673615035
 30
0.0
 11
944.62245798080005
 21
-198.0673615035
 31
0.0
  0
SOLID
  5
190
  8
0
 62
     0
 10
944.62245798080005
 20
-195.0673615035
 30
0.0
 11
945.37245798080005
 21
-198.0673615035
 31
0.0
 12
943.87245798080005
 22
-198.0673615035
 32
0.0
 13
944.62245798080005
 23
-197.3173615035
 33
0.0
  0
ENDBLK
  5
191
  8
0
  0
BLOCK
  8
0
  2
*U12
 70
     1
 10
0.0
 20
0.0
 30
0.0
  3
*U12
  1

  0
TEXT
  5
212
  8
図枠
  6
CONTINUOUS
 10
903.90118771337495
 20
-301.71034802112638
 30
0.0
 40
2.337266249999999
  1
園 原
  0
ENDBLK
  5
214
  8
0
  0
BLOCK
  8
0
  2
*U13
 70
     1
 10
0.0
 20
0.0
 30
0.0
  3
*U13
  1

  0
TEXT
  5
216
  8
図枠
  6
CONTINUOUS
 10
917.4379114979206
 20
-129.37596470769239
 30
0.0
 40
2.698480084499999
  1
改　訂　内　容
  0
ENDBLK
  5
218
  8
0
  0
BLOCK
  8
0
  2
*U14
 70
     1
 10
0.0
 20
0.0
 30
0.0
  3
*U14
  1

  0
TEXT
  5
21A
  8
ﾚｲﾔ_1
  6
CONTINUOUS
 10
906.65619444619995
 20
-134.21040018440399
 30
0.0
 40
2.6987499594999989
  1
材料板厚ｔ1.5からｔ1.6に変更
  0
ENDBLK
  5
21C
  8
0
  0
BLOCK
  8
0
  2
*U15
 70
     1
 10
0.0
 20
0.0
 30
0.0
  3
*U15
  1

  0
TEXT
  5
21E
  8
図枠
  6
CONTINUOUS
 10
888.50983360170005
 20
-301.75780520386752
 30
0.0
 40
2.337266249999999
  1
 照査
  0
ENDBLK
  5
220
  8
0
  0
BLOCK
  8
0
  2
*U16
 70
     1
 10
0.0
 20
0.0
 30
0.0
  3
*U16
  1

  0
TEXT
  5
222
  8
ﾚｲﾔ_1
  6
CONTINUOUS
 10
858.48193289919993
 20
-288.01640072360351
 30
0.0
 40
3.5983331442000002
  1
色：白・茶
  0
ENDBLK
  5
224
  8
0
  0
BLOCK
  8
0
  2
*U17
 70
     1
 10
0.0
 20
0.0
 30
0.0
  3
*U17
  1

  0
TEXT
  5
226
  8
図枠
  6
CONTINUOUS
 10
862.73296527110006
 20
-313.39259231290657
 30
0.0
 40
4.3175681352000002
  1
株式会社
  0
ENDBLK
  5
228
  8
0
  0
BLOCK
  8
0
  2
*U18
 70
     1
 10
0.0
 20
0.0
 30
0.0
  3
*U18
  1

  0
TEXT
  5
22A
  8
図枠
  6
CONTINUOUS
 10
864.69746253888275
 20
-297.4014515427001
 30
0.0
 40
2.337266249999999
  1
H16.4
  0
ENDBLK
  5
22C
  8
0
  0
BLOCK
  8
0
  2
*U19
 70
     1
 10
0.0
 20
0.0
 30
0.0
  3
*U19
  1

  0
TEXT
  5
22E
  8
図枠
  6
CONTINUOUS
 10
883.33106853507559
 20
-293.27051949955279
 30
0.0
 40
2.337266249999999
  1
尺 　度
  0
ENDBLK
  5
230
  8
0
  0
BLOCK
  8
0
  2
*U20
 70
     1
 10
0.0
 20
0.0
 30
0.0
  3
*U20
  1

  0
TEXT
  5
232
  8
図枠
  6
CONTINUOUS
 10
873.89232341768979
 20
-306.0429730909234
 30
0.0
 40
2.337266249999999
  1
岸 本
  0
ENDBLK
  5
234
  8
0
  0
BLOCK
  8
0
  2
*U21
 70
     1
 10
0.0
 20
0.0
 30
0.0
  3
*U21
  1

  0
TEXT
  5
236
  8
図枠
  6
CONTINUOUS
 10
885.62087760233453
 20
-297.4014515427001
 30
0.0
 40
2.337266249999999
  1
1：1
  0
ENDBLK
  5
238
  8
0
  0
BLOCK
  8
0
  2
*U22
 70
     1
 10
0.0
 20
0.0
 30
0.0
  3
*U22
  1

  0
TEXT
  5
23A
  8
図枠
  6
CONTINUOUS
 10
939.19911182165686
 20
-304.15223951301419
 30
0.0
 40
2.9983111599000001
  1
７０Ｗ 承認図
  0
ENDBLK
  5
23C
  8
0
  0
BLOCK
  8
0
  2
*U23
 70
     1
 10
0.0
 20
0.0
 30
0.0
  3
*U23
  1

  0
TEXT
  5
23E
  8
図枠
  6
CONTINUOUS
 10
891.36548399901096
 20
-129.34856897079391
 30
0.0
 40
2.698480084499999
  1
改訂日
  0
ENDBLK
  5
240
  8
0
  0
BLOCK
  8
0
  2
*U24
 70
     1
 10
0.0
 20
0.0
 30
0.0
  3
*U24
  1

  0
TEXT
  5
242
  8
ﾚｲﾔ_1
  6
CONTINUOUS
 10
889.60848295082292
 20
-134.05970856229999
 30
0.0
 40
2.6987499594999989
  1
H16.12.10
  0
ENDBLK
  5
244
  8
0
  0
BLOCK
  8
0
  2
*U25
 70
     1
 10
0.0
 20
0.0
 30
0.0
  3
*U25
  1

  0
TEXT
  5
246
  8
図枠
  6
CONTINUOUS
 10
903.90118771337495
 20
-305.95992302112637
 30
0.0
 40
2.337266249999999
  1
園 原
  0
ENDBLK
  5
248
  8
0
  0
BLOCK
  8
0
  2
*U26
 70
     1
 10
0.0
 20
0.0
 30
0.0
  3
*U26
  1

  0
TEXT
  5
24A
  8
図枠
  6
CONTINUOUS
 10
859.91415284662367
 20
-306.01924449955283
 30
0.0
 40
2.337266249999999
  1
製図
  0
ENDBLK
  5
24C
  8
0
  0
BLOCK
  8
0
  2
*U27
 70
     1
 10
0.0
 20
0.0
 30
0.0
  3
*U27
  1

  0
TEXT
  5
24E
  8
図枠
  6
CONTINUOUS
 10
863.58221874446645
 20
-293.19933372544108
 30
0.0
 40
2.337266249999999
  1
日 　付
  0
ENDBLK
  5
250
  8
0
  0
BLOCK
  8
0
  2
*U28
 70
     1
 10
0.0
 20
0.0
 30
0.0
  3
*U28
  1

  0
TEXT
  5
252
  8
ﾚｲﾔ_1
  6
CONTINUOUS
 10
921.07350568740003
 20
-283.72288109728521
 30
0.0
 40
3.5983331442000002
  1
本体ビス：3x13　＋　Ｗ付
  0
TEXT
  5
253
  8
ﾚｲﾔ_1
  6
CONTINUOUS
 10
921.07350568740003
 20
-290.06715036337062
 30
0.0
 40
3.5983331442000002
  1
受板ビス：2.4x13
  0
ENDBLK
  5
255
  8
0
  0
BLOCK
  8
0
  2
*U29
 70
     1
 10
0.0
 20
0.0
 30
0.0
  3
*U29
  1

  0
TEXT
  5
257
  8
図枠
  6
CONTINUOUS
 10
918.73098631109087
 20
-293.06500664555273
 30
0.0
 40
2.337266249999999
  1
製品名
  0
ENDBLK
  5
259
  8
0
  0
BLOCK
  8
0
  2
*U30
 70
     1
 10
0.0
 20
0.0
 30
0.0
  3
*U30
  1

  0
TEXT
  5
25B
  8
図枠
  6
CONTINUOUS
 10
935.79747454126255
 20
-312.59051009860002
 30
0.0
 40
2.9983111599000001
  1
ＳＦＣ０００１０
  0
ENDBLK
  5
25D
  8
0
  0
BLOCK
  8
0
  2
*U31
 70
     1
 10
0.0
 20
0.0
 30
0.0
  3
*U31
  1

  0
TEXT
  5
25F
  8
図枠
  6
CONTINUOUS
 10
941.51252956939697
 20
-293.83432643412488
 30
0.0
 40
2.9983111599000001
  1
ねじ止め式
  0
TEXT
  5
260
  8
図枠
  6
CONTINUOUS
 10
926.0187186009797
 20
-299.13590877269593
 30
0.0
 40
2.9983111599000001
  1
マグネットキャッチ〈角型〉
  0
ENDBLK
  5
262
  8
0
  0
BLOCK
  8
0
  2
*U32
 70
     1
 10
0.0
 20
0.0
 30
0.0
  3
*U32
  1

  0
TEXT
  5
264
  8
図枠
  6
CONTINUOUS
 10
918.79623993735993
 20
-301.54042805418231
 30
0.0
 40
2.337266249999999
  1
図面名
  0
ENDBLK
  5
266
  8
0
  0
BLOCK
  8
0
  2
*U33
 70
     1
 10
0.0
 20
0.0
 30
0.0
  3
*U33
  1

  0
TEXT
  5
268
  8
図枠
  6
CONTINUOUS
 10
858.51283360169998
 20
-301.74594090818232
 30
0.0
 40
2.337266249999999
  1
 設計
  0
ENDBLK
  5
26A
  8
0
  0
BLOCK
  8
0
  2
*U34
 70
     1
 10
0.0
 20
0.0
 30
0.0
  3
*U34
  1

  0
TEXT
  5
26C
  8
図枠
  6
CONTINUOUS
 10
888.50983360170005
 20
-306.03110879523808
 30
0.0
 40
2.337266249999999
  1
 検図
  0
ENDBLK
  5
26E
  8
0
  0
BLOCK
  8
0
  2
*U35
 70
     1
 10
0.0
 20
0.0
 30
0.0
  3
*U35
  1

  0
TEXT
  5
270
  8
図枠
  6
CONTINUOUS
 10
873.19232997225822
 20
-301.78153379523809
 30
0.0
 40
2.337266249999999
  1
白須賀
  0
ENDBLK
  5
272
  8
0
  0
BLOCK
  8
0
  2
*U36
 70
     1
 10
0.0
 20
0.0
 30
0.0
  3
*U36
  1

  0
TEXT
  5
274
  8
図枠
  6
CONTINUOUS
 10
954.50301161772791
 20
-129.37596470769239
 30
0.0
 40
2.698480084499999
  1
改訂者
  0
ENDBLK
  5
276
  8
0
  0
BLOCK
  8
0
  2
*U37
 70
     1
 10
0.0
 20
0.0
 30
0.0
  3
*U37
  1

  0
TEXT
  5
278
  8
ﾚｲﾔ_1
  6
CONTINUOUS
 10
955.81865476359985
 20
-134.2240994227771
 30
0.0
 40
2.6987499594999989
  1
岸本
  0
ENDBLK
  5
27A
  8
0
  0
BLOCK
  8
0
  2
*U38
 70
     1
 10
0.0
 20
0.0
 30
0.0
  3
*U38
  1

  0
TEXT
  5
27C
  8
ﾚｲﾔ_1
  6
CONTINUOUS
 10
966.14701984299995
 20
-134.12820475416541
 30
0.0
 40
2.6987499594999989
  1
園原
  0
ENDBLK
  5
27E
  8
0
  0
BLOCK
  8
0
  2
*U39
 70
     1
 10
0.0
 20
0.0
 30
0.0
  3
*U39
  1

  0
TEXT
  5
280
  8
図枠
  6
CONTINUOUS
 10
881.13370902896258
 20
-129.32117323389539
 30
0.0
 40
2.698480084499999
  1
副番
  0
ENDBLK
  5
282
  8
0
  0
BLOCK
  8
0
  2
*U40
 70
     1
 10
0.0
 20
0.0
 30
0.0
  3
*U40
  1

  0
TEXT
  5
284
  8
図枠
  6
CONTINUOUS
 10
918.78437564167461
 20
-310.01584946281167
 30
0.0
 40
2.337266249999999
  1
図　番
  0
ENDBLK
  5
286
  8
0
  0
BLOCK
  8
0
  2
*U41
 70
     1
 10
0.0
 20
0.0
 30
0.0
  3
*U41
  1

  0
TEXT
  5
288
  8
ﾚｲﾔ_1
  6
CONTINUOUS
 10
952.87245798080005
 20
-188.0281436491
 30
0.0
 40
2.9986110209999999
  1
ｔ1.5
  0
ENDBLK
  5
28A
  8
0
  0
BLOCK
  8
0
  2
*U42
 70
     1
 10
0.0
 20
0.0
 30
0.0
  3
*U42
  1

  0
TEXT
  5
28C
  8
図枠
  6
CONTINUOUS
 10
964.46091801238015
 20
-129.3896625761416
 30
0.0
 40
2.698480084499999
  1
検認者
  0
ENDBLK
  5
28E
  8
0
  0
BLOCK
  8
0
  2
*U43
 70
     1
 10
0.0
 20
0.0
 30
0.0
  3
*U43
  1

  0
TEXT
  5
290
  8
ﾚｲﾔ_1
  6
CONTINUOUS
 10
899.2861045889
 20
-164.2513195880523
 30
0.0
 40
2.9986110209999999
  1
受板ｘ２
  0
ENDBLK
  5
292
  8
0
  0
BLOCK
  8
0
  2
*U44
 70
     1
 10
0.0
 20
0.0
 30
0.0
  3
*U44
  1

  0
TEXT
  5
294
  8
ﾚｲﾔ_1
  6
CONTINUOUS
 10
952.87245798080005
 20
-182.2366441867
 30
0.0
 40
2.9986110209999999
  1
ｔ1.6
  0
ENDBLK
  5
296
  8
0
  0
BLOCK
  8
0
  2
*U45
 70
     1
 10
0.0
 20
0.0
 30
0.0
  3
*U45
  1

  0
TEXT
  5
298
  8
ﾚｲﾔ_1
  6
CONTINUOUS
 10
945.00089454370004
 20
-170.73962197348121
 30
0.0
 40
2.9986110209999999
  1
皿ビス用皿穴
  0
ENDBLK
  5
29A
  8
0
  0
BLOCK
  8
0
  2
*U46
 70
     1
 10
0.0
 20
0.0
 30
0.0
  3
*U46
  1

  0
TEXT
  5
29C
  8
ﾚｲﾔ_1
  6
CONTINUOUS
 10
967.83611379879835
 20
-188.44729617359991
 30
0.0
 40
2.4876473521999989
  1
1
  0
ENDBLK
  5
29E
  8
0
  0
BLOCK
  8
0
  2
*U47
 70
     1
 10
0.0
 20
0.0
 30
0.0
  3
*U47
  1

  0
TEXT
  5
2A0
  8
ﾚｲﾔ_1
  6
CONTINUOUS
 10
884.57602416159841
 20
-134.6321370501
 30
0.0
 40
2.4876473521999989
  1
1
  0
ENDBLK
  5
2A2
  8
0
  0
ENDSEC
  0
SECTION
  2
ENTITIES
  0
LINE
  5
2F
  8
図枠
 10
918.50683360170001
 20
-290.10914743870001
 30
0.0
 11
918.50683360170001
 21
-315.60659743870002
 31
0.0
  0
POLYLINE
  8
図枠
  5
2A3
  66
     1
 10
0.000000
 20
0.000000
 30
0.000000
  70
     8
  0
VERTEX
  8
図枠
  5
2A4
 10
903.001
 20
-313.388
 30
0.000000
  70
    32
  0
VERTEX
  8
図枠
  5
2A5
 10
903.023
 20
-313.395
 30
0.000000
  70
    32
  0
VERTEX
  8
図枠
  5
2A6
 10
903.044
 20
-313.401
 30
0.000000
  70
    32
  0
VERTEX
  8
図枠
  5
2A7
 10
903.066
 20
-313.408
 30
0.000000
  70
    32
  0
VERTEX
  8
図枠
  5
2A8
 10
903.087
 20
-313.415
 30
0.000000
  70
    32
  0
VERTEX
  8
図枠
  5
2A9
 10
903.109
 20
-313.422
 30
0.000000
  70
    32
  0
VERTEX
  8
図枠
  5
2AA
 10
903.131
 20
-313.428
 30
0.000000
  70
    32
  0
VERTEX
  8
図枠
  5
2AB
 10
903.152
 20
-313.435
 30
0.000000
  70
    32
  0
VERTEX
  8
図枠
  5
2AC
 10
903.174
 20
-313.442
 30
0.000000
  70
    32
  0
VERTEX
  8
図枠
  5
2AD
 10
903.196
 20
-313.448
 30
0.000000
  70
    32
  0
VERTEX
  8
図枠
  5
2AE
 10
903.217
 20
-313.455
 30
0.000000
  70
    32
  0
VERTEX
  8
図枠
  5
2AF
 10
903.239
 20
-313.461
 30
0.000000
  70
    32
  0
VERTEX
  8
図枠
  5
2B0
 10
903.261
 20
-313.468
 30
0.000000
  70
    32
  0
VERTEX
  8
図枠
  5
2B1
 10
903.282
 20
-313.474
 30
0.000000
  70
    32
  0
VERTEX
  8
図枠
  5
2B2
 10
903.304
 20
-313.481
 30
0.000000
  70
    32
  0
VERTEX
  8
図枠
  5
2B3
 10
903.326
 20
-313.487
 30
0.000000
  70
    32
  0
VERTEX
  8
図枠
  5
2B4
 10
903.348
 20
-313.494
 30
0.000000
  70
    32
  0
VERTEX
  8
図枠
  5
2B5
 10
903.370
 20
-313.500
 30
0.000000
  70
    32
  0
VERTEX
  8
図枠
  5
2B6
 10
903.391
 20
-313.506
 30
0.000000
  70
    32
  0
VERTEX
  8
図枠
  5
2B7
 10
903.413
 20
-313.513
 30
0.000000
  70
    32
  0
VERTEX
  8
図枠
  5
2B8
 10
903.435
 20
-313.519
 30
0.000000
  70
    32
  0
VERTEX
  8
図枠
  5
2B9
 10
903.457
 20
-313.525
 30
0.000000
  70
    32
  0
VERTEX
  8
図枠
  5
2BA
 10
903.479
 20
-313.531
 30
0.000000
  70
    32
  0
VERTEX
  8
図枠
  5
2BB
 10
903.501
 20
-313.538
 30
0.000000
  70
    32
  0
VERTEX
  8
図枠
  5
2BC
 10
903.523
 20
-313.544
 30
0.000000
  70
    32
  0
VERTEX
  8
図枠
  5
2BD
 10
903.545
 20
-313.550
 30
0.000000
  70
    32
  0
VERTEX
  8
図枠
  5
2BE
 10
903.567
 20
-313.556
 30
0.000000
  70
    32
  0
VERTEX
  8
図枠
  5
2BF
 10
903.588
 20
-313.562
 30
0.000000
  70
    32
  0
VERTEX
  8
図枠
  5
2C0
 10
903.610
 20
-313.568
 30
0.000000
  70
    32
  0
VERTEX
  8
図枠
  5
2C1
 10
903.632
 20
-313.574
 30
0.000000
  70
    32
  0
VERTEX
  8
図枠
  5
2C2
 10
903.654
 20
-313.580
 30
0.000000
  70
    32
  0
VERTEX
  8
図枠
  5
2C3
 10
903.676
 20
-313.586
 30
0.000000
  70
    32
  0
VERTEX
  8
図枠
  5
2C4
 10
903.699
 20
-313.592
 30
0.000000
  70
    32
  0
VERTEX
  8
図枠
  5
2C5
 10
903.721
 20
-313.598
 30
0.000000
  70
    32
  0
VERTEX
  8
図枠
  5
2C6
 10
903.743
 20
-313.604
 30
0.000000
  70
    32
  0
VERTEX
  8
図枠
  5
2C7
 10
903.765
 20
-313.610
 30
0.000000
  70
    32
  0
VERTEX
  8
図枠
  5
2C8
 10
903.787
 20
-313.616
 30
0.000000
  70
    32
  0
VERTEX
  8
図枠
  5
2C9
 10
903.809
 20
-313.621
 30
0.000000
  70
    32
  0
VERTEX
  8
図枠
  5
2CA
 10
903.831
 20
-313.627
 30
0.000000
  70
    32
  0
VERTEX
  8
図枠
  5
2CB
 10
903.853
 20
-313.633
 30
0.000000
  70
    32
  0
VERTEX
  8
図枠
  5
2CC
 10
903.875
 20
-313.639
 30
0.000000
  70
    32
  0
VERTEX
  8
図枠
  5
2CD
 10
903.897
 20
-313.644
 30
0.000000
  70
    32
  0
VERTEX
  8
図枠
  5
2CE
 10
903.920
 20
-313.650
 30
0.000000
  70
    32
  0
VERTEX
  8
図枠
  5
2CF
 10
903.942
 20
-313.656
 30
0.000000
  70
    32
  0
VERTEX
  8
図枠
  5
2D0
 10
903.964
 20
-313.661
 30
0.000000
  70
    32
  0
VERTEX
  8
図枠
  5
2D1
 10
903.986
 20
-313.667
 30
0.000000
  70
    32
  0
VERTEX
  8
図枠
  5
2D2
 10
904.008
 20
-313.673
 30
0.000000
  70
    32
  0
VERTEX
  8
図枠
  5
2D3
 10
904.031
 20
-313.678
 30
0.000000
  70
    32
  0
VERTEX
  8
図枠
  5
2D4
 10
904.053
 20
-313.684
 30
0.000000
  70
    32
  0
VERTEX
  8
図枠
  5
2D5
 10
904.075
 20
-313.689
 30
0.000000
  70
    32
  0
VERTEX
  8
図枠
  5
2D6
 10
904.097
 20
-313.695
 30
0.000000
  70
    32
  0
VERTEX
  8
図枠
  5
2D7
 10
904.120
 20
-313.700
 30
0.000000
  70
    32
  0
VERTEX
  8
図枠
  5
2D8
 10
904.142
 20
-313.706
 30
0.000000
  70
    32
  0
VERTEX
  8
図枠
  5
2D9
 10
904.164
 20
-313.711
 30
0.000000
  70
    32
  0
VERTEX
  8
図枠
  5
2DA
 10
904.186
 20
-313.717
 30
0.000000
  70
    32
  0
VERTEX
  8
図枠
  5
2DB
 10
904.209
 20
-313.722
 30
0.000000
  70
    32
  0
VERTEX
  8
図枠
  5
2DC
 10
904.231
 20
-313.728
 30
0.000000
  70
    32
  0
VERTEX
  8
図枠
  5
2DD
 10
904.253
 20
-313.733
 30
0.000000
  70
    32
  0
VERTEX
  8
図枠
  5
2DE
 10
904.276
 20
-313.738
 30
0.000000
  70
    32
  0
VERTEX
  8
図枠
  5
2DF
 10
904.298
 20
-313.744
 30
0.000000
  70
    32
  0
VERTEX
  8
図枠
  5
2E0
 10
904.321
 20
-313.749
 30
0.000000
  70
    32
  0
VERTEX
  8
図枠
  5
2E1
 10
904.343
 20
-313.754
 30
0.000000
  70
    32
  0
VERTEX
  8
図枠
  5
2E2
 10
904.365
 20
-313.760
 30
0.000000
  70
    32
  0
VERTEX
  8
図枠
  5
2E3
 10
904.388
 20
-313.765
 30
0.000000
  70
    32
  0
VERTEX
  8
図枠
  5
2E4
 10
904.410
 20
-313.770
 30
0.000000
  70
    32
  0
VERTEX
  8
図枠
  5
2E5
 10
904.432
 20
-313.775
 30
0.000000
  70
    32
  0
VERTEX
  8
図枠
  5
2E6
 10
904.455
 20
-313.781
 30
0.000000
  70
    32
  0
VERTEX
  8
図枠
  5
2E7
 10
904.477
 20
-313.786
 30
0.000000
  70
    32
  0
VERTEX
  8
図枠
  5
2E8
 10
904.500
 20
-313.791
 30
0.000000
  70
    32
  0
VERTEX
  8
図枠
  5
2E9
 10
904.522
 20
-313.796
 30
0.000000
  70
    32
  0
VERTEX
  8
図枠
  5
2EA
 10
904.545
 20
-313.801
 30
0.000000
  70
    32
  0
VERTEX
  8
図枠
  5
2EB
 10
904.567
 20
-313.807
 30
0.000000
  70
    32
  0
VERTEX
  8
図枠
  5
2EC
 10
904.590
 20
-313.812
 30
0.000000
  70
    32
  0
VERTEX
  8
図枠
  5
2ED
 10
904.612
 20
-313.817
 30
0.000000
  70
    32
  0
VERTEX
  8
図枠
  5
2EE
 10
904.635
 20
-313.822
 30
0.000000
  70
    32
  0
VERTEX
  8
図枠
  5
2EF
 10
904.657
 20
-313.827
 30
0.000000
  70
    32
  0
VERTEX
  8
図枠
  5
2F0
 10
904.680
 20
-313.832
 30
0.000000
  70
    32
  0
VERTEX
  8
図枠
  5
2F1
 10
904.702
 20
-313.837
 30
0.000000
  70
    32
  0
VERTEX
  8
図枠
  5
2F2
 10
904.725
 20
-313.842
 30
0.000000
  70
    32
  0
VERTEX
  8
図枠
  5
2F3
 10
904.747
 20
-313.847
 30
0.000000
  70
    32
  0
VERTEX
  8
図枠
  5
2F4
 10
904.770
 20
-313.852
 30
0.000000
  70
    32
  0
VERTEX
  8
図枠
  5
2F5
 10
904.792
 20
-313.857
 30
0.000000
  70
    32
  0
VERTEX
  8
図枠
  5
2F6
 10
904.815
 20
-313.862
 30
0.000000
  70
    32
  0
VERTEX
  8
図枠
  5
2F7
 10
904.837
 20
-313.867
 30
0.000000
  70
    32
  0
VERTEX
  8
図枠
  5
2F8
 10
904.860
 20
-313.872
 30
0.000000
  70
    32
  0
VERTEX
  8
図枠
  5
2F9
 10
904.882
 20
-313.877
 30
0.000000
  70
    32
  0
VERTEX
  8
図枠
  5
2FA
 10
904.905
 20
-313.882
 30
0.000000
  70
    32
  0
VERTEX
  8
図枠
  5
2FB
 10
904.928
 20
-313.887
 30
0.000000
  70
    32
  0
VERTEX
  8
図枠
  5
2FC
 10
904.950
 20
-313.892
 30
0.000000
  70
    32
  0
VERTEX
  8
図枠
  5
2FD
 10
904.973
 20
-313.897
 30
0.000000
  70
    32
  0
VERTEX
  8
図枠
  5
2FE
 10
904.995
 20
-313.902
 30
0.000000
  70
    32
  0
VERTEX
  8
図枠
  5
2FF
 10
905.018
 20
-313.907
 30
0.000000
  70
    32
  0
VERTEX
  8
図枠
  5
300
 10
905.041
 20
-313.912
 30
0.000000
  70
    32
  0
VERTEX
  8
図枠
  5
301
 10
905.063
 20
-313.916
 30
0.000000
  70
    32
  0
VERTEX
  8
図枠
  5
302
 10
905.086
 20
-313.921
 30
0.000000
  70
    32
  0
VERTEX
  8
図枠
  5
303
 10
905.108
 20
-313.926
 30
0.000000
  70
    32
  0
VERTEX
  8
図枠
  5
304
 10
905.131
 20
-313.931
 30
0.000000
  70
    32
  0
VERTEX
  8
図枠
  5
305
 10
905.154
 20
-313.936
 30
0.000000
  70
    32
  0
VERTEX
  8
図枠
  5
306
 10
905.176
 20
-313.941
 30
0.000000
  70
    32
  0
VERTEX
  8
図枠
  5
307
 10
905.199
 20
-313.946
 30
0.000000
  70
    32
  0
VERTEX
  8
図枠
  5
308
 10
905.221
 20
-313.950
 30
0.000000
  70
    32
  0
VERTEX
  8
図枠
  5
309
 10
905.244
 20
-313.955
 30
0.000000
  70
    32
  0
VERTEX
  8
図枠
  5
30A
 10
905.267
 20
-313.960
 30
0.000000
  70
    32
  0
VERTEX
  8
図枠
  5
30B
 10
905.289
 20
-313.965
 30
0.000000
  70
    32
  0
VERTEX
  8
図枠
  5
30C
 10
905.312
 20
-313.970
 30
0.000000
  70
    32
  0
VERTEX
  8
図枠
  5
30D
 10
905.335
 20
-313.974
 30
0.000000
  70
    32
  0
VERTEX
  8
図枠
  5
30E
 10
905.357
 20
-313.979
 30
0.000000
  70
    32
  0
VERTEX
  8
図枠
  5
30F
 10
905.380
 20
-313.984
 30
0.000000
  70
    32
  0
VERTEX
  8
図枠
  5
310
 10
905.403
 20
-313.989
 30
0.000000
  70
    32
  0
VERTEX
  8
図枠
  5
311
 10
905.425
 20
-313.993
 30
0.000000
  70
    32
  0
VERTEX
  8
図枠
  5
312
 10
905.448
 20
-313.998
 30
0.000000
  70
    32
  0
VERTEX
  8
図枠
  5
313
 10
905.471
 20
-314.003
 30
0.000000
  70
    32
  0
VERTEX
  8
図枠
  5
314
 10
905.493
 20
-314.008
 30
0.000000
  70
    32
  0
VERTEX
  8
図枠
  5
315
 10
905.516
 20
-314.012
 30
0.000000
  70
    32
  0
VERTEX
  8
図枠
  5
316
 10
905.539
 20
-314.017
 30
0.000000
  70
    32
  0
VERTEX
  8
図枠
  5
317
 10
905.561
 20
-314.022
 30
0.000000
  70
    32
  0
VERTEX
  8
図枠
  5
318
 10
905.584
 20
-314.027
 30
0.000000
  70
    32
  0
VERTEX
  8
図枠
  5
319
 10
905.607
 20
-314.031
 30
0.000000
  70
    32
  0
VERTEX
  8
図枠
  5
31A
 10
905.630
 20
-314.036
 30
0.000000
  70
    32
  0
VERTEX
  8
図枠
  5
31B
 10
905.652
 20
-314.041
 30
0.000000
  70
    32
  0
VERTEX
  8
図枠
  5
31C
 10
905.675
 20
-314.046
 30
0.000000
  70
    32
  0
VERTEX
  8
図枠
  5
31D
 10
905.698
 20
-314.050
 30
0.000000
  70
    32
  0
VERTEX
  8
図枠
  5
31E
 10
905.720
 20
-314.055
 30
0.000000
  70
    32
  0
VERTEX
  8
図枠
  5
31F
 10
905.743
 20
-314.060
 30
0.000000
  70
    32
  0
VERTEX
  8
図枠
  5
320
 10
905.766
 20
-314.064
 30
0.000000
  70
    32
  0
VERTEX
  8
図枠
  5
321
 10
905.788
 20
-314.069
 30
0.000000
  70
    32
  0
VERTEX
  8
図枠
  5
322
 10
905.811
 20
-314.074
 30
0.000000
  70
    32
  0
VERTEX
  8
図枠
  5
323
 10
905.834
 20
-314.079
 30
0.000000
  70
    32
  0
SEQEND
  8
図枠
  5
324
  0
LINE
  5
31
  8
図枠
 10
905.83378724750003
 20
-312.8787318790001
 30
0.0
 11
905.83378724750003
 21
-314.07861187899999
 31
0.0
  0
LINE
  5
32
  8
図枠
 10
910.96725996759994
 20
-314.47857187900001
 30
0.0
 11
910.63875948759983
 21
-313.35868387900001
 31
0.0
  0
LINE
  5
33
  8
図枠
 10
912.88477165910001
 20
-313.35868387900001
 30
0.0
 11
914.80687596759981
 21
-313.35868387900001
 31
0.0
  0
LINE
  5
34
  8
図枠
 10
913.20703596759995
 20
-314.47857187900001
 30
0.0
 11
912.88477165910001
 21
-313.35868387900001
 31
0.0
  0
LINE
  5
35
  8
図枠
 10
914.80687596759981
 20
-311.91882787899999
 30
0.0
 11
914.80687596759981
 21
-313.35868387900001
 31
0.0
  0
LINE
  5
36
  8
図枠
 10
910.96725996759994
 20
-314.47857187900001
 30
0.0
 11
913.20703596759995
 21
-314.47857187900001
 31
0.0
  0
INSERT
  5
37
  8
0
  6
CONTINUOUS
  2
*U12
 10
0.0
 20
0.0
 30
0.0
  0
LINE
  5
38
  8
図枠
 62
     5
 10
880.51063360169985
 20
-135.62459743869999
 30
0.0
 11
974.50123360170005
 21
-135.62459743869999
 31
0.0
  0
LINE
  5
39
  8
図枠
 10
909.83818136479999
 20
-293.20683763869999
 30
0.0
 11
914.44572056480001
 21
-292.05495283869999
 31
0.0
  0
LINE
  5
3A
  8
図枠
 10
909.83818136479999
 20
-295.5106072387
 30
0.0
 11
914.44572056480001
 21
-296.66249203870001
 31
0.0
  0
LINE
  5
3B
  8
図枠
 10
909.83818136479999
 20
-295.5106072387
 30
0.0
 11
914.44572056480001
 21
-296.66249203870001
 31
0.0
  0
LINE
  5
3C
  8
図枠
 10
909.83818136479999
 20
-293.20683763869999
 30
0.0
 11
909.83818136479999
 21
-295.5106072387
 31
0.0
  0
LINE
  5
3D
  8
図枠
 10
910.21640172759987
 20
-311.91882787899999
 30
0.0
 11
910.02868716759986
 21
-311.27889187900001
 31
0.0
  0
LINE
  5
3E
  8
図枠
 10
909.83818136479999
 20
-295.5106072387
 30
0.0
 11
914.44572056480001
 21
-296.66249203870001
 31
0.0
  0
LINE
  5
3F
  8
図枠
 10
909.83818136479999
 20
-293.20683763869999
 30
0.0
 11
914.44572056480001
 21
-292.05495283869999
 31
0.0
  0
INSERT
  5
40
  8
0
  6
CONTINUOUS
  2
*U13
 10
0.0
 20
0.0
 30
0.0
  0
INSERT
  5
42
  8
0
  6
CONTINUOUS
  2
*U14
 10
0.0
 20
0.0
 30
0.0
  0
LINE
  5
43
  8
図枠
 10
909.83818136479999
 20
-293.20683763869999
 30
0.0
 11
914.44572056480001
 21
-292.05495283869999
 31
0.0
  0
LINE
  5
44
  8
図枠
 10
898.63450724749998
 20
-314.07861187899999
 30
0.0
 11
900.63430724750015
 21
-314.07861187899999
 31
0.0
  0
LINE
  5
45
  8
図枠
 10
889.70691524749986
 20
-314.07861187899999
 30
0.0
 11
892.90659524749992
 21
-314.07861187899999
 31
0.0
  0
LINE
  5
46
  8
図枠
 62
     5
 10
699.52873360169997
 20
-315.60659743870002
 30
0.0
 11
974.50123360170005
 21
-315.60659743870002
 31
0.0
  0
LINE
  5
47
  8
図枠
  6
DOT
 10
693.52933360169993
 20
-321.35602243869999
 30
0.0
 11
980.50063360169986
 21
-321.35602243869999
 31
0.0
  0
LINE
  5
48
  8
図枠
 62
     5
 10
699.52873360169997
 20
-125.6255974387
 30
0.0
 11
974.50123360170005
 21
-125.6255974387
 31
0.0
  0
LINE
  5
49
  8
図枠
  6
DOT
 10
693.52933360169993
 20
-119.8761724387
 30
0.0
 11
980.50063360169986
 21
-119.8761724387
 31
0.0
  0
LINE
  5
4A
  8
図枠
  6
DOT
 10
693.53233330169996
 20
-321.35602243869999
 30
0.0
 11
693.53233330169996
 21
-119.8761724387
 31
0.0
  0
LINE
  5
4B
  8
図枠
 62
     5
 10
699.52873360169997
 20
-315.60659743870002
 30
0.0
 11
699.52873360169997
 21
-125.6255974387
 31
0.0
  0
LINE
  5
4C
  8
図枠
  6
DOT
 10
980.50063360169986
 20
-321.35602243869999
 30
0.0
 11
980.50063360169986
 21
-119.8761724387
 31
0.0
  0
LINE
  5
4D
  8
図枠
 62
     5
 10
974.50123360170005
 20
-315.60659743870002
 30
0.0
 11
974.50123360170005
 21
-125.6255974387
 31
0.0
  0
LINE
  5
4E
  8
図枠
 10
889.70691524749986
 20
-312.8787318790001
 30
0.0
 11
889.70691524749986
 21
-314.07861187899999
 31
0.0
  0
ARC
  5
4F
  8
図枠
 10
892.90659524749992
 20
-311.67885187899998
 30
0.0
 40
2.3997599999999988
 50
270.0
 51
0.0
  0
LINE
  5
50
  8
図枠
 10
858.51283360169998
 20
-290.10914743870001
 30
0.0
 11
858.51283360169998
 21
-315.60659743870002
 31
0.0
  0
LINE
  5
51
  8
図枠
 10
907.60759596759999
 20
-311.91882787899999
 30
0.0
 11
907.60759596759999
 21
-313.35868387900001
 31
0.0
  0
ARC
  5
52
  8
図枠
 10
900.63430724750015
 20
-309.6790518790001
 30
0.0
 40
4.3995600000000001
 50
270.0
 51
302.54495885400001
  0
LINE
  5
53
  8
図枠
 10
889.70691524749986
 20
-311.27889187900001
 30
0.0
 11
889.58604428659999
 21
-311.27889187900001
 31
0.0
  0
LINE
  5
54
  8
図枠
 10
895.30635524750005
 20
-310.07901187900001
 30
0.0
 11
895.30635524750005
 21
-309.6790518790001
 31
0.0
  0
INSERT
  5
55
  8
0
  6
CONTINUOUS
  2
*U15
 10
0.0
 20
0.0
 30
0.0
  0
ARC
  5
56
  8
図枠
 10
892.10667524749988
 20
-311.67885187899998
 30
0.0
 40
1.1998799999999989
 50
270.0
 51
0.0
  0
LINE
  5
57
  8
図枠
 10
893.3065552475
 20
-310.07901187900001
 30
0.0
 11
891.70671524750003
 21
-310.07901187900001
 31
0.0
  0
LINE
  5
58
  8
図枠
 10
890.50963360169987
 20
-302.85787243869999
 30
0.0
 11
916.50703360169985
 21
-302.85787243869999
 31
0.0
  0
LINE
  5
59
  8
図枠
 10
858.51283360169998
 20
-307.10744743869998
 30
0.0
 11
974.50123360170005
 21
-307.10744743869998
 31
0.0
  0
LINE
  5
5A
  8
図枠
 10
858.51283360169998
 20
-298.60829743869999
 30
0.0
 11
974.50123360170005
 21
-298.60829743869999
 31
0.0
  0
LINE
  5
5B
  8
図枠
 62
     5
 10
880.51063360169985
 20
-140.62409743870001
 30
0.0
 11
974.50123360170005
 21
-140.62409743870001
 31
0.0
  0
LINE
  5
5C
  8
図枠
 10
858.51283360169998
 20
-290.10914743870001
 30
0.0
 11
974.50123360170005
 21
-290.10914743870001
 31
0.0
  0
LINE
  5
5D
  8
図枠
 62
     5
 10
880.51063360169985
 20
-130.62509743870001
 30
0.0
 11
974.50123360170005
 21
-130.62509743870001
 31
0.0
  0
LINE
  5
5E
  8
図枠
 10
907.60759596759999
 20
-309.83903587899999
 30
0.0
 11
909.60632940760001
 21
-309.83903587899999
 31
0.0
  0
LINE
  5
5F
  8
図枠
 10
909.60632940760001
 20
-309.83903587899999
 30
0.0
 11
909.20743596759985
 21
-308.47917187899998
 31
0.0
  0
LINE
  5
60
  8
図枠
 10
907.60759596759999
 20
-311.27889187900001
 30
0.0
 11
910.02868716759986
 21
-311.27889187900001
 31
0.0
  0
LINE
  5
61
  8
図枠
 10
909.83818136479999
 20
-293.20683763869999
 30
0.0
 11
909.83818136479999
 21
-295.5106072387
 31
0.0
  0
LINE
  5
62
  8
図枠
 10
909.83818136479999
 20
-293.20683763869999
 30
0.0
 11
909.83818136479999
 21
-295.5106072387
 31
0.0
  0
LINE
  5
63
  8
図枠
 10
909.83818136479999
 20
-293.20683763869999
 30
0.0
 11
909.83818136479999
 21
-295.5106072387
 31
0.0
  0
LINE
  5
64
  8
図枠
 10
909.83818136479999
 20
-295.5106072387
 30
0.0
 11
914.44572056480001
 21
-296.66249203870001
 31
0.0
  0
LINE
  5
65
  8
図枠
 10
909.20743596759985
 20
-308.47917187899998
 30
0.0
 11
912.40711596759991
 21
-308.47917187899998
 31
0.0
  0
LINE
  5
66
  8
図枠
 10
907.60759596759999
 20
-311.91882787899999
 30
0.0
 11
910.21640172759987
 21
-311.91882787899999
 31
0.0
  0
LINE
  5
67
  8
図枠
  6
BORDER
 10
901.11657280169993
 20
-294.3587224387
 30
0.0
 11
915.89909440169981
 21
-294.3587224387
 31
0.0
  0
LINE
  5
68
  8
図枠
 10
909.83818136479999
 20
-293.20683763869999
 30
0.0
 11
914.44572056480001
 21
-292.05495283869999
 31
0.0
  0
LINE
  5
69
  8
図枠
 10
898.63450724749998
 20
-314.07861187899999
 30
0.0
 11
898.63450724749998
 21
-312.8787318790001
 31
0.0
  0
LINE
  5
6A
  8
図枠
  6
BORDER
 10
904.5722272017
 20
-290.90306803869998
 30
0.0
 11
904.5722272017
 21
-297.81437683870001
 31
0.0
  0
POLYLINE
  8
図枠
  5
325
  66
     1
 10
0.000000
 20
0.000000
 30
0.000000
  70
     8
  0
VERTEX
  8
図枠
  5
326
 10
901.382
 20
-310.789
 30
0.000000
  70
    32
  0
VERTEX
  8
図枠
  5
327
 10
901.387
 20
-310.795
 30
0.000000
  70
    32
  0
VERTEX
  8
図枠
  5
328
 10
901.392
 20
-310.801
 30
0.000000
  70
    32
  0
VERTEX
  8
図枠
  5
329
 10
901.398
 20
-310.807
 30
0.000000
  70
    32
  0
VERTEX
  8
図枠
  5
32A
 10
901.403
 20
-310.813
 30
0.000000
  70
    32
  0
VERTEX
  8
図枠
  5
32B
 10
901.408
 20
-310.819
 30
0.000000
  70
    32
  0
VERTEX
  8
図枠
  5
32C
 10
901.413
 20
-310.824
 30
0.000000
  70
    32
  0
VERTEX
  8
図枠
  5
32D
 10
901.419
 20
-310.830
 30
0.000000
  70
    32
  0
VERTEX
  8
図枠
  5
32E
 10
901.424
 20
-310.836
 30
0.000000
  70
    32
  0
VERTEX
  8
図枠
  5
32F
 10
901.429
 20
-310.842
 30
0.000000
  70
    32
  0
VERTEX
  8
図枠
  5
330
 10
901.434
 20
-310.848
 30
0.000000
  70
    32
  0
VERTEX
  8
図枠
  5
331
 10
901.440
 20
-310.854
 30
0.000000
  70
    32
  0
VERTEX
  8
図枠
  5
332
 10
901.445
 20
-310.860
 30
0.000000
  70
    32
  0
VERTEX
  8
図枠
  5
333
 10
901.450
 20
-310.866
 30
0.000000
  70
    32
  0
VERTEX
  8
図枠
  5
334
 10
901.456
 20
-310.872
 30
0.000000
  70
    32
  0
VERTEX
  8
図枠
  5
335
 10
901.461
 20
-310.877
 30
0.000000
  70
    32
  0
VERTEX
  8
図枠
  5
336
 10
901.466
 20
-310.883
 30
0.000000
  70
    32
  0
VERTEX
  8
図枠
  5
337
 10
901.471
 20
-310.889
 30
0.000000
  70
    32
  0
VERTEX
  8
図枠
  5
338
 10
901.477
 20
-310.895
 30
0.000000
  70
    32
  0
VERTEX
  8
図枠
  5
339
 10
901.482
 20
-310.901
 30
0.000000
  70
    32
  0
VERTEX
  8
図枠
  5
33A
 10
901.487
 20
-310.907
 30
0.000000
  70
    32
  0
VERTEX
  8
図枠
  5
33B
 10
901.493
 20
-310.913
 30
0.000000
  70
    32
  0
VERTEX
  8
図枠
  5
33C
 10
901.498
 20
-310.919
 30
0.000000
  70
    32
  0
VERTEX
  8
図枠
  5
33D
 10
901.503
 20
-310.924
 30
0.000000
  70
    32
  0
VERTEX
  8
図枠
  5
33E
 10
901.509
 20
-310.930
 30
0.000000
  70
    32
  0
VERTEX
  8
図枠
  5
33F
 10
901.514
 20
-310.936
 30
0.000000
  70
    32
  0
VERTEX
  8
図枠
  5
340
 10
901.519
 20
-310.942
 30
0.000000
  70
    32
  0
VERTEX
  8
図枠
  5
341
 10
901.524
 20
-310.948
 30
0.000000
  70
    32
  0
VERTEX
  8
図枠
  5
342
 10
901.530
 20
-310.954
 30
0.000000
  70
    32
  0
VERTEX
  8
図枠
  5
343
 10
901.535
 20
-310.960
 30
0.000000
  70
    32
  0
VERTEX
  8
図枠
  5
344
 10
901.540
 20
-310.965
 30
0.000000
  70
    32
  0
VERTEX
  8
図枠
  5
345
 10
901.546
 20
-310.971
 30
0.000000
  70
    32
  0
VERTEX
  8
図枠
  5
346
 10
901.551
 20
-310.977
 30
0.000000
  70
    32
  0
VERTEX
  8
図枠
  5
347
 10
901.556
 20
-310.983
 30
0.000000
  70
    32
  0
VERTEX
  8
図枠
  5
348
 10
901.562
 20
-310.989
 30
0.000000
  70
    32
  0
VERTEX
  8
図枠
  5
349
 10
901.567
 20
-310.995
 30
0.000000
  70
    32
  0
VERTEX
  8
図枠
  5
34A
 10
901.572
 20
-311.000
 30
0.000000
  70
    32
  0
VERTEX
  8
図枠
  5
34B
 10
901.577
 20
-311.006
 30
0.000000
  70
    32
  0
VERTEX
  8
図枠
  5
34C
 10
901.583
 20
-311.012
 30
0.000000
  70
    32
  0
VERTEX
  8
図枠
  5
34D
 10
901.588
 20
-311.018
 30
0.000000
  70
    32
  0
VERTEX
  8
図枠
  5
34E
 10
901.593
 20
-311.024
 30
0.000000
  70
    32
  0
VERTEX
  8
図枠
  5
34F
 10
901.599
 20
-311.029
 30
0.000000
  70
    32
  0
VERTEX
  8
図枠
  5
350
 10
901.604
 20
-311.035
 30
0.000000
  70
    32
  0
VERTEX
  8
図枠
  5
351
 10
901.609
 20
-311.041
 30
0.000000
  70
    32
  0
VERTEX
  8
図枠
  5
352
 10
901.615
 20
-311.047
 30
0.000000
  70
    32
  0
VERTEX
  8
図枠
  5
353
 10
901.620
 20
-311.053
 30
0.000000
  70
    32
  0
VERTEX
  8
図枠
  5
354
 10
901.625
 20
-311.059
 30
0.000000
  70
    32
  0
VERTEX
  8
図枠
  5
355
 10
901.631
 20
-311.064
 30
0.000000
  70
    32
  0
VERTEX
  8
図枠
  5
356
 10
901.636
 20
-311.070
 30
0.000000
  70
    32
  0
VERTEX
  8
図枠
  5
357
 10
901.641
 20
-311.076
 30
0.000000
  70
    32
  0
VERTEX
  8
図枠
  5
358
 10
901.647
 20
-311.082
 30
0.000000
  70
    32
  0
VERTEX
  8
図枠
  5
359
 10
901.652
 20
-311.087
 30
0.000000
  70
    32
  0
VERTEX
  8
図枠
  5
35A
 10
901.657
 20
-311.093
 30
0.000000
  70
    32
  0
VERTEX
  8
図枠
  5
35B
 10
901.663
 20
-311.099
 30
0.000000
  70
    32
  0
VERTEX
  8
図枠
  5
35C
 10
901.668
 20
-311.105
 30
0.000000
  70
    32
  0
VERTEX
  8
図枠
  5
35D
 10
901.674
 20
-311.110
 30
0.000000
  70
    32
  0
VERTEX
  8
図枠
  5
35E
 10
901.679
 20
-311.116
 30
0.000000
  70
    32
  0
VERTEX
  8
図枠
  5
35F
 10
901.684
 20
-311.122
 30
0.000000
  70
    32
  0
VERTEX
  8
図枠
  5
360
 10
901.690
 20
-311.128
 30
0.000000
  70
    32
  0
VERTEX
  8
図枠
  5
361
 10
901.695
 20
-311.133
 30
0.000000
  70
    32
  0
VERTEX
  8
図枠
  5
362
 10
901.700
 20
-311.139
 30
0.000000
  70
    32
  0
VERTEX
  8
図枠
  5
363
 10
901.706
 20
-311.145
 30
0.000000
  70
    32
  0
VERTEX
  8
図枠
  5
364
 10
901.711
 20
-311.151
 30
0.000000
  70
    32
  0
VERTEX
  8
図枠
  5
365
 10
901.717
 20
-311.156
 30
0.000000
  70
    32
  0
VERTEX
  8
図枠
  5
366
 10
901.722
 20
-311.162
 30
0.000000
  70
    32
  0
VERTEX
  8
図枠
  5
367
 10
901.727
 20
-311.168
 30
0.000000
  70
    32
  0
VERTEX
  8
図枠
  5
368
 10
901.733
 20
-311.173
 30
0.000000
  70
    32
  0
VERTEX
  8
図枠
  5
369
 10
901.738
 20
-311.179
 30
0.000000
  70
    32
  0
VERTEX
  8
図枠
  5
36A
 10
901.744
 20
-311.185
 30
0.000000
  70
    32
  0
VERTEX
  8
図枠
  5
36B
 10
901.749
 20
-311.191
 30
0.000000
  70
    32
  0
VERTEX
  8
図枠
  5
36C
 10
901.754
 20
-311.196
 30
0.000000
  70
    32
  0
VERTEX
  8
図枠
  5
36D
 10
901.760
 20
-311.202
 30
0.000000
  70
    32
  0
VERTEX
  8
図枠
  5
36E
 10
901.765
 20
-311.208
 30
0.000000
  70
    32
  0
VERTEX
  8
図枠
  5
36F
 10
901.771
 20
-311.213
 30
0.000000
  70
    32
  0
VERTEX
  8
図枠
  5
370
 10
901.776
 20
-311.219
 30
0.000000
  70
    32
  0
VERTEX
  8
図枠
  5
371
 10
901.781
 20
-311.224
 30
0.000000
  70
    32
  0
VERTEX
  8
図枠
  5
372
 10
901.787
 20
-311.230
 30
0.000000
  70
    32
  0
VERTEX
  8
図枠
  5
373
 10
901.792
 20
-311.236
 30
0.000000
  70
    32
  0
VERTEX
  8
図枠
  5
374
 10
901.798
 20
-311.241
 30
0.000000
  70
    32
  0
VERTEX
  8
図枠
  5
375
 10
901.803
 20
-311.247
 30
0.000000
  70
    32
  0
VERTEX
  8
図枠
  5
376
 10
901.809
 20
-311.253
 30
0.000000
  70
    32
  0
VERTEX
  8
図枠
  5
377
 10
901.814
 20
-311.258
 30
0.000000
  70
    32
  0
VERTEX
  8
図枠
  5
378
 10
901.820
 20
-311.264
 30
0.000000
  70
    32
  0
VERTEX
  8
図枠
  5
379
 10
901.825
 20
-311.269
 30
0.000000
  70
    32
  0
VERTEX
  8
図枠
  5
37A
 10
901.831
 20
-311.275
 30
0.000000
  70
    32
  0
VERTEX
  8
図枠
  5
37B
 10
901.836
 20
-311.280
 30
0.000000
  70
    32
  0
VERTEX
  8
図枠
  5
37C
 10
901.841
 20
-311.286
 30
0.000000
  70
    32
  0
VERTEX
  8
図枠
  5
37D
 10
901.847
 20
-311.292
 30
0.000000
  70
    32
  0
VERTEX
  8
図枠
  5
37E
 10
901.852
 20
-311.297
 30
0.000000
  70
    32
  0
VERTEX
  8
図枠
  5
37F
 10
901.858
 20
-311.303
 30
0.000000
  70
    32
  0
VERTEX
  8
図枠
  5
380
 10
901.863
 20
-311.308
 30
0.000000
  70
    32
  0
VERTEX
  8
図枠
  5
381
 10
901.869
 20
-311.314
 30
0.000000
  70
    32
  0
VERTEX
  8
図枠
  5
382
 10
901.874
 20
-311.319
 30
0.000000
  70
    32
  0
VERTEX
  8
図枠
  5
383
 10
901.880
 20
-311.325
 30
0.000000
  70
    32
  0
VERTEX
  8
図枠
  5
384
 10
901.885
 20
-311.330
 30
0.000000
  70
    32
  0
VERTEX
  8
図枠
  5
385
 10
901.891
 20
-311.336
 30
0.000000
  70
    32
  0
VERTEX
  8
図枠
  5
386
 10
901.897
 20
-311.341
 30
0.000000
  70
    32
  0
VERTEX
  8
図枠
  5
387
 10
901.902
 20
-311.347
 30
0.000000
  70
    32
  0
VERTEX
  8
図枠
  5
388
 10
901.908
 20
-311.352
 30
0.000000
  70
    32
  0
VERTEX
  8
図枠
  5
389
 10
901.913
 20
-311.358
 30
0.000000
  70
    32
  0
VERTEX
  8
図枠
  5
38A
 10
901.919
 20
-311.363
 30
0.000000
  70
    32
  0
VERTEX
  8
図枠
  5
38B
 10
901.924
 20
-311.369
 30
0.000000
  70
    32
  0
VERTEX
  8
図枠
  5
38C
 10
901.930
 20
-311.374
 30
0.000000
  70
    32
  0
VERTEX
  8
図枠
  5
38D
 10
901.935
 20
-311.379
 30
0.000000
  70
    32
  0
VERTEX
  8
図枠
  5
38E
 10
901.941
 20
-311.385
 30
0.000000
  70
    32
  0
VERTEX
  8
図枠
  5
38F
 10
901.947
 20
-311.390
 30
0.000000
  70
    32
  0
VERTEX
  8
図枠
  5
390
 10
901.952
 20
-311.396
 30
0.000000
  70
    32
  0
VERTEX
  8
図枠
  5
391
 10
901.958
 20
-311.401
 30
0.000000
  70
    32
  0
VERTEX
  8
図枠
  5
392
 10
901.963
 20
-311.406
 30
0.000000
  70
    32
  0
VERTEX
  8
図枠
  5
393
 10
901.969
 20
-311.412
 30
0.000000
  70
    32
  0
VERTEX
  8
図枠
  5
394
 10
901.974
 20
-311.417
 30
0.000000
  70
    32
  0
VERTEX
  8
図枠
  5
395
 10
901.980
 20
-311.423
 30
0.000000
  70
    32
  0
VERTEX
  8
図枠
  5
396
 10
901.986
 20
-311.428
 30
0.000000
  70
    32
  0
VERTEX
  8
図枠
  5
397
 10
901.991
 20
-311.433
 30
0.000000
  70
    32
  0
VERTEX
  8
図枠
  5
398
 10
901.997
 20
-311.438
 30
0.000000
  70
    32
  0
VERTEX
  8
図枠
  5
399
 10
902.003
 20
-311.444
 30
0.000000
  70
    32
  0
VERTEX
  8
図枠
  5
39A
 10
902.008
 20
-311.449
 30
0.000000
  70
    32
  0
VERTEX
  8
図枠
  5
39B
 10
902.014
 20
-311.454
 30
0.000000
  70
    32
  0
VERTEX
  8
図枠
  5
39C
 10
902.020
 20
-311.460
 30
0.000000
  70
    32
  0
VERTEX
  8
図枠
  5
39D
 10
902.025
 20
-311.465
 30
0.000000
  70
    32
  0
VERTEX
  8
図枠
  5
39E
 10
902.031
 20
-311.470
 30
0.000000
  70
    32
  0
VERTEX
  8
図枠
  5
39F
 10
902.037
 20
-311.475
 30
0.000000
  70
    32
  0
VERTEX
  8
図枠
  5
3A0
 10
902.042
 20
-311.481
 30
0.000000
  70
    32
  0
VERTEX
  8
図枠
  5
3A1
 10
902.048
 20
-311.486
 30
0.000000
  70
    32
  0
VERTEX
  8
図枠
  5
3A2
 10
902.054
 20
-311.491
 30
0.000000
  70
    32
  0
VERTEX
  8
図枠
  5
3A3
 10
902.059
 20
-311.496
 30
0.000000
  70
    32
  0
VERTEX
  8
図枠
  5
3A4
 10
902.065
 20
-311.502
 30
0.000000
  70
    32
  0
VERTEX
  8
図枠
  5
3A5
 10
902.071
 20
-311.507
 30
0.000000
  70
    32
  0
SEQEND
  8
図枠
  5
3A6
  0
INSERT
  5
6C
  8
0
  6
CONTINUOUS
  2
*U16
 10
0.0
 20
0.0
 30
0.0
  0
LINE
  5
6D
  8
図枠
 10
895.30635524750005
 20
-311.67885187899998
 30
0.0
 11
895.30635524750005
 21
-311.27889187900001
 31
0.0
  0
LINE
  5
6E
  8
図枠
 10
891.70671524750003
 20
-311.27889187900001
 30
0.0
 11
893.3065552475
 21
-311.27889187900001
 31
0.0
  0
LINE
  5
6F
  8
図枠
 10
893.3065552475
 20
-308.47917187899998
 30
0.0
 11
893.3065552475
 21
-310.07901187900001
 31
0.0
  0
INSERT
  5
70
  8
0
  6
CONTINUOUS
  2
*U17
 10
0.0
 20
0.0
 30
0.0
  0
INSERT
  5
71
  8
0
  6
CONTINUOUS
  2
*U18
 10
0.0
 20
0.0
 30
0.0
  0
INSERT
  5
72
  8
0
  6
CONTINUOUS
  2
*U19
 10
0.0
 20
0.0
 30
0.0
  0
LINE
  5
73
  8
図枠
 10
880.51063360169985
 20
-294.3587224387
 30
0.0
 11
894.50923360169986
 21
-294.3587224387
 31
0.0
  0
LINE
  5
74
  8
図枠
 10
891.70671524750003
 20
-309.6790518790001
 30
0.0
 11
892.90659524749992
 21
-308.47917187899998
 31
0.0
  0
LINE
  5
75
  8
図枠
 10
888.78612428660006
 20
-311.27889187900001
 30
0.0
 11
889.58604428659999
 21
-311.27889187900001
 31
0.0
  0
LINE
  5
76
  8
図枠
 10
898.63450724749998
 20
-312.8787318790001
 30
0.0
 11
898.63450724749998
 21
-314.07861187899999
 31
0.0
  0
ARC
  5
77
  8
図枠
 10
899.59441124749992
 20
-309.83903587899999
 30
0.0
 40
3.0396959999999988
 50
270.0
 51
298.08590481520002
  0
CIRCLE
  5
78
  8
図枠
 10
904.5722272017
 20
-294.3587224387
 30
0.0
 40
1.151884799999999
  0
CIRCLE
  5
79
  8
図枠
 10
904.5722272017
 20
-294.3587224387
 30
0.0
 40
1.151884799999999
  0
ARC
  5
7A
  8
図枠
 10
900.63430724750015
 20
-309.6790518790001
 30
0.0
 40
4.3995600000000001
 50
322.48761197969998
 51
0.0
  0
LINE
  5
7B
  8
図枠
 10
904.12413371169998
 20
-312.35808891570002
 30
0.0
 11
903.9816663119999
 21
-312.49757748079998
 31
0.0
  0
CIRCLE
  5
7C
  8
図枠
 10
904.5722272017
 20
-294.3587224387
 30
0.0
 40
2.303769599999999
  0
LINE
  5
7D
  8
図枠
 10
905.03386724749998
 20
-309.6790518790001
 30
0.0
 11
905.83378724750003
 21
-308.47917187899998
 31
0.0
  0
LINE
  5
7E
  8
図枠
  6
BORDER
 10
904.5722272017
 20
-290.90306803869998
 30
0.0
 11
904.5722272017
 21
-297.81437683870001
 31
0.0
  0
CIRCLE
  5
7F
  8
図枠
 10
904.5722272017
 20
-294.3587224387
 30
0.0
 40
2.303769599999999
  0
ARC
  5
80
  8
図枠
 10
899.59441124749992
 20
-309.83903587899999
 30
0.0
 40
3.0396959999999988
 50
331.39928138329998
 51
358.49204224580001
  0
CIRCLE
  5
81
  8
図枠
 10
904.5722272017
 20
-294.3587224387
 30
0.0
 40
2.303769599999999
  0
LINE
  5
82
  8
図枠
 10
907.60759596759999
 20
-313.35868387900001
 30
0.0
 11
910.63875948759983
 21
-313.35868387900001
 31
0.0
  0
INSERT
  5
83
  8
0
  6
CONTINUOUS
  2
*U20
 10
0.0
 20
0.0
 30
0.0
  0
INSERT
  5
84
  8
0
  6
CONTINUOUS
  2
*U21
 10
0.0
 20
0.0
 30
0.0
  0
LINE
  5
85
  8
図枠
 10
914.80687596759981
 20
-309.83903587899999
 30
0.0
 11
914.80687596759981
 21
-311.27889187900001
 31
0.0
  0
LINE
  5
86
  8
図枠
 10
914.44572056480001
 20
-292.05495283869999
 30
0.0
 11
914.44572056480001
 21
-296.66249203870001
 31
0.0
  0
LINE
  5
87
  8
図枠
 10
914.44572056480001
 20
-292.05495283869999
 30
0.0
 11
914.44572056480001
 21
-296.66249203870001
 31
0.0
  0
CIRCLE
  5
88
  8
ﾚｲﾔ_1
 62
     5
 10
957.15266869539994
 20
-281.85322552859998
 30
0.0
 40
2.5
  0
INSERT
  5
89
  8
0
  6
CONTINUOUS
  2
*U22
 10
0.0
 20
0.0
 30
0.0
  0
INSERT
  5
8A
  8
0
  6
CONTINUOUS
  2
*U23
 10
0.0
 20
0.0
 30
0.0
  0
INSERT
  5
8B
  8
0
  6
CONTINUOUS
  2
*U24
 10
0.0
 20
0.0
 30
0.0
  0
LINE
  5
8C
  8
図枠
 62
     5
 10
880.51063360169985
 20
-140.62409743870001
 30
0.0
 11
880.51063360169985
 21
-125.6255974387
 31
0.0
  0
LINE
  5
8D
  8
図枠
 10
905.83378724750003
 20
-308.47917187899998
 30
0.0
 11
898.63450724749998
 21
-308.47917187899998
 31
0.0
  0
LINE
  5
8E
  8
図枠
 10
898.63450724749998
 20
-310.59433676930001
 30
0.0
 11
898.63450724749998
 21
-310.33667432419998
 31
0.0
  0
INSERT
  5
8F
  8
0
  6
CONTINUOUS
  2
*U25
 10
0.0
 20
0.0
 30
0.0
  0
LINE
  5
90
  8
図枠
 10
891.70671524750003
 20
-312.47877187900002
 30
0.0
 11
891.70671524750003
 21
-311.27889187900001
 31
0.0
  0
LINE
  5
91
  8
図枠
 10
860.51263360170014
 20
-302.85787243869999
 30
0.0
 11
886.5100336017
 21
-302.85787243869999
 31
0.0
  0
INSERT
  5
92
  8
0
  6
CONTINUOUS
  2
*U26
 10
0.0
 20
0.0
 30
0.0
  0
LINE
  5
93
  8
図枠
 10
889.70691524749986
 20
-312.47877187900002
 30
0.0
 11
891.70671524750003
 21
-312.47877187900002
 31
0.0
  0
CIRCLE
  5
94
  8
図枠
 10
904.5722272017
 20
-294.3587224387
 30
0.0
 40
1.151884799999999
  0
LINE
  5
95
  8
図枠
  6
BORDER
 10
904.5722272017
 20
-290.90306803869998
 30
0.0
 11
904.5722272017
 21
-297.81437683870001
 31
0.0
  0
POLYLINE
  8
図枠
  5
3A7
  66
     1
 10
0.000000
 20
0.000000
 30
0.000000
  70
     8
  0
VERTEX
  8
図枠
  5
3A8
 10
903.982
 20
-312.498
 30
0.000000
  70
    32
  0
VERTEX
  8
図枠
  5
3A9
 10
903.996
 20
-312.502
 30
0.000000
  70
    32
  0
VERTEX
  8
図枠
  5
3AA
 10
904.010
 20
-312.505
 30
0.000000
  70
    32
  0
VERTEX
  8
図枠
  5
3AB
 10
904.024
 20
-312.509
 30
0.000000
  70
    32
  0
VERTEX
  8
図枠
  5
3AC
 10
904.038
 20
-312.513
 30
0.000000
  70
    32
  0
VERTEX
  8
図枠
  5
3AD
 10
904.052
 20
-312.517
 30
0.000000
  70
    32
  0
VERTEX
  8
図枠
  5
3AE
 10
904.066
 20
-312.521
 30
0.000000
  70
    32
  0
VERTEX
  8
図枠
  5
3AF
 10
904.080
 20
-312.525
 30
0.000000
  70
    32
  0
VERTEX
  8
図枠
  5
3B0
 10
904.094
 20
-312.529
 30
0.000000
  70
    32
  0
VERTEX
  8
図枠
  5
3B1
 10
904.108
 20
-312.532
 30
0.000000
  70
    32
  0
VERTEX
  8
図枠
  5
3B2
 10
904.122
 20
-312.536
 30
0.000000
  70
    32
  0
VERTEX
  8
図枠
  5
3B3
 10
904.136
 20
-312.540
 30
0.000000
  70
    32
  0
VERTEX
  8
図枠
  5
3B4
 10
904.150
 20
-312.544
 30
0.000000
  70
    32
  0
VERTEX
  8
図枠
  5
3B5
 10
904.165
 20
-312.547
 30
0.000000
  70
    32
  0
VERTEX
  8
図枠
  5
3B6
 10
904.179
 20
-312.551
 30
0.000000
  70
    32
  0
VERTEX
  8
図枠
  5
3B7
 10
904.193
 20
-312.555
 30
0.000000
  70
    32
  0
VERTEX
  8
図枠
  5
3B8
 10
904.207
 20
-312.558
 30
0.000000
  70
    32
  0
VERTEX
  8
図枠
  5
3B9
 10
904.221
 20
-312.562
 30
0.000000
  70
    32
  0
VERTEX
  8
図枠
  5
3BA
 10
904.235
 20
-312.566
 30
0.000000
  70
    32
  0
VERTEX
  8
図枠
  5
3BB
 10
904.250
 20
-312.569
 30
0.000000
  70
    32
  0
VERTEX
  8
図枠
  5
3BC
 10
904.264
 20
-312.573
 30
0.000000
  70
    32
  0
VERTEX
  8
図枠
  5
3BD
 10
904.278
 20
-312.576
 30
0.000000
  70
    32
  0
VERTEX
  8
図枠
  5
3BE
 10
904.292
 20
-312.580
 30
0.000000
  70
    32
  0
VERTEX
  8
図枠
  5
3BF
 10
904.307
 20
-312.583
 30
0.000000
  70
    32
  0
VERTEX
  8
図枠
  5
3C0
 10
904.321
 20
-312.587
 30
0.000000
  70
    32
  0
VERTEX
  8
図枠
  5
3C1
 10
904.335
 20
-312.590
 30
0.000000
  70
    32
  0
VERTEX
  8
図枠
  5
3C2
 10
904.350
 20
-312.594
 30
0.000000
  70
    32
  0
VERTEX
  8
図枠
  5
3C3
 10
904.364
 20
-312.597
 30
0.000000
  70
    32
  0
VERTEX
  8
図枠
  5
3C4
 10
904.378
 20
-312.601
 30
0.000000
  70
    32
  0
VERTEX
  8
図枠
  5
3C5
 10
904.393
 20
-312.604
 30
0.000000
  70
    32
  0
VERTEX
  8
図枠
  5
3C6
 10
904.407
 20
-312.607
 30
0.000000
  70
    32
  0
VERTEX
  8
図枠
  5
3C7
 10
904.421
 20
-312.611
 30
0.000000
  70
    32
  0
VERTEX
  8
図枠
  5
3C8
 10
904.436
 20
-312.614
 30
0.000000
  70
    32
  0
VERTEX
  8
図枠
  5
3C9
 10
904.450
 20
-312.617
 30
0.000000
  70
    32
  0
VERTEX
  8
図枠
  5
3CA
 10
904.464
 20
-312.621
 30
0.000000
  70
    32
  0
VERTEX
  8
図枠
  5
3CB
 10
904.479
 20
-312.624
 30
0.000000
  70
    32
  0
VERTEX
  8
図枠
  5
3CC
 10
904.493
 20
-312.627
 30
0.000000
  70
    32
  0
VERTEX
  8
図枠
  5
3CD
 10
904.508
 20
-312.630
 30
0.000000
  70
    32
  0
VERTEX
  8
図枠
  5
3CE
 10
904.522
 20
-312.634
 30
0.000000
  70
    32
  0
VERTEX
  8
図枠
  5
3CF
 10
904.537
 20
-312.637
 30
0.000000
  70
    32
  0
VERTEX
  8
図枠
  5
3D0
 10
904.551
 20
-312.640
 30
0.000000
  70
    32
  0
VERTEX
  8
図枠
  5
3D1
 10
904.566
 20
-312.643
 30
0.000000
  70
    32
  0
VERTEX
  8
図枠
  5
3D2
 10
904.580
 20
-312.646
 30
0.000000
  70
    32
  0
VERTEX
  8
図枠
  5
3D3
 10
904.594
 20
-312.650
 30
0.000000
  70
    32
  0
VERTEX
  8
図枠
  5
3D4
 10
904.609
 20
-312.653
 30
0.000000
  70
    32
  0
VERTEX
  8
図枠
  5
3D5
 10
904.623
 20
-312.656
 30
0.000000
  70
    32
  0
VERTEX
  8
図枠
  5
3D6
 10
904.638
 20
-312.659
 30
0.000000
  70
    32
  0
VERTEX
  8
図枠
  5
3D7
 10
904.652
 20
-312.662
 30
0.000000
  70
    32
  0
VERTEX
  8
図枠
  5
3D8
 10
904.667
 20
-312.665
 30
0.000000
  70
    32
  0
VERTEX
  8
図枠
  5
3D9
 10
904.682
 20
-312.668
 30
0.000000
  70
    32
  0
VERTEX
  8
図枠
  5
3DA
 10
904.696
 20
-312.671
 30
0.000000
  70
    32
  0
VERTEX
  8
図枠
  5
3DB
 10
904.711
 20
-312.674
 30
0.000000
  70
    32
  0
VERTEX
  8
図枠
  5
3DC
 10
904.725
 20
-312.677
 30
0.000000
  70
    32
  0
VERTEX
  8
図枠
  5
3DD
 10
904.740
 20
-312.680
 30
0.000000
  70
    32
  0
VERTEX
  8
図枠
  5
3DE
 10
904.754
 20
-312.683
 30
0.000000
  70
    32
  0
VERTEX
  8
図枠
  5
3DF
 10
904.769
 20
-312.686
 30
0.000000
  70
    32
  0
VERTEX
  8
図枠
  5
3E0
 10
904.784
 20
-312.689
 30
0.000000
  70
    32
  0
VERTEX
  8
図枠
  5
3E1
 10
904.798
 20
-312.692
 30
0.000000
  70
    32
  0
VERTEX
  8
図枠
  5
3E2
 10
904.813
 20
-312.695
 30
0.000000
  70
    32
  0
VERTEX
  8
図枠
  5
3E3
 10
904.827
 20
-312.698
 30
0.000000
  70
    32
  0
VERTEX
  8
図枠
  5
3E4
 10
904.842
 20
-312.701
 30
0.000000
  70
    32
  0
VERTEX
  8
図枠
  5
3E5
 10
904.857
 20
-312.704
 30
0.000000
  70
    32
  0
VERTEX
  8
図枠
  5
3E6
 10
904.871
 20
-312.707
 30
0.000000
  70
    32
  0
VERTEX
  8
図枠
  5
3E7
 10
904.886
 20
-312.710
 30
0.000000
  70
    32
  0
VERTEX
  8
図枠
  5
3E8
 10
904.901
 20
-312.713
 30
0.000000
  70
    32
  0
VERTEX
  8
図枠
  5
3E9
 10
904.915
 20
-312.716
 30
0.000000
  70
    32
  0
VERTEX
  8
図枠
  5
3EA
 10
904.930
 20
-312.719
 30
0.000000
  70
    32
  0
VERTEX
  8
図枠
  5
3EB
 10
904.945
 20
-312.721
 30
0.000000
  70
    32
  0
VERTEX
  8
図枠
  5
3EC
 10
904.959
 20
-312.724
 30
0.000000
  70
    32
  0
VERTEX
  8
図枠
  5
3ED
 10
904.974
 20
-312.727
 30
0.000000
  70
    32
  0
VERTEX
  8
図枠
  5
3EE
 10
904.989
 20
-312.730
 30
0.000000
  70
    32
  0
VERTEX
  8
図枠
  5
3EF
 10
905.003
 20
-312.733
 30
0.000000
  70
    32
  0
VERTEX
  8
図枠
  5
3F0
 10
905.018
 20
-312.735
 30
0.000000
  70
    32
  0
VERTEX
  8
図枠
  5
3F1
 10
905.033
 20
-312.738
 30
0.000000
  70
    32
  0
VERTEX
  8
図枠
  5
3F2
 10
905.048
 20
-312.741
 30
0.000000
  70
    32
  0
VERTEX
  8
図枠
  5
3F3
 10
905.062
 20
-312.744
 30
0.000000
  70
    32
  0
VERTEX
  8
図枠
  5
3F4
 10
905.077
 20
-312.747
 30
0.000000
  70
    32
  0
VERTEX
  8
図枠
  5
3F5
 10
905.092
 20
-312.749
 30
0.000000
  70
    32
  0
VERTEX
  8
図枠
  5
3F6
 10
905.107
 20
-312.752
 30
0.000000
  70
    32
  0
VERTEX
  8
図枠
  5
3F7
 10
905.121
 20
-312.755
 30
0.000000
  70
    32
  0
VERTEX
  8
図枠
  5
3F8
 10
905.136
 20
-312.757
 30
0.000000
  70
    32
  0
VERTEX
  8
図枠
  5
3F9
 10
905.151
 20
-312.760
 30
0.000000
  70
    32
  0
VERTEX
  8
図枠
  5
3FA
 10
905.166
 20
-312.763
 30
0.000000
  70
    32
  0
VERTEX
  8
図枠
  5
3FB
 10
905.180
 20
-312.766
 30
0.000000
  70
    32
  0
VERTEX
  8
図枠
  5
3FC
 10
905.195
 20
-312.768
 30
0.000000
  70
    32
  0
VERTEX
  8
図枠
  5
3FD
 10
905.210
 20
-312.771
 30
0.000000
  70
    32
  0
VERTEX
  8
図枠
  5
3FE
 10
905.225
 20
-312.774
 30
0.000000
  70
    32
  0
VERTEX
  8
図枠
  5
3FF
 10
905.240
 20
-312.776
 30
0.000000
  70
    32
  0
VERTEX
  8
図枠
  5
400
 10
905.254
 20
-312.779
 30
0.000000
  70
    32
  0
VERTEX
  8
図枠
  5
401
 10
905.269
 20
-312.782
 30
0.000000
  70
    32
  0
VERTEX
  8
図枠
  5
402
 10
905.284
 20
-312.784
 30
0.000000
  70
    32
  0
VERTEX
  8
図枠
  5
403
 10
905.299
 20
-312.787
 30
0.000000
  70
    32
  0
VERTEX
  8
図枠
  5
404
 10
905.314
 20
-312.789
 30
0.000000
  70
    32
  0
VERTEX
  8
図枠
  5
405
 10
905.328
 20
-312.792
 30
0.000000
  70
    32
  0
VERTEX
  8
図枠
  5
406
 10
905.343
 20
-312.795
 30
0.000000
  70
    32
  0
VERTEX
  8
図枠
  5
407
 10
905.358
 20
-312.797
 30
0.000000
  70
    32
  0
VERTEX
  8
図枠
  5
408
 10
905.373
 20
-312.800
 30
0.000000
  70
    32
  0
VERTEX
  8
図枠
  5
409
 10
905.388
 20
-312.802
 30
0.000000
  70
    32
  0
VERTEX
  8
図枠
  5
40A
 10
905.403
 20
-312.805
 30
0.000000
  70
    32
  0
VERTEX
  8
図枠
  5
40B
 10
905.417
 20
-312.808
 30
0.000000
  70
    32
  0
VERTEX
  8
図枠
  5
40C
 10
905.432
 20
-312.810
 30
0.000000
  70
    32
  0
VERTEX
  8
図枠
  5
40D
 10
905.447
 20
-312.813
 30
0.000000
  70
    32
  0
VERTEX
  8
図枠
  5
40E
 10
905.462
 20
-312.815
 30
0.000000
  70
    32
  0
VERTEX
  8
図枠
  5
40F
 10
905.477
 20
-312.818
 30
0.000000
  70
    32
  0
VERTEX
  8
図枠
  5
410
 10
905.492
 20
-312.821
 30
0.000000
  70
    32
  0
VERTEX
  8
図枠
  5
411
 10
905.506
 20
-312.823
 30
0.000000
  70
    32
  0
VERTEX
  8
図枠
  5
412
 10
905.521
 20
-312.826
 30
0.000000
  70
    32
  0
VERTEX
  8
図枠
  5
413
 10
905.536
 20
-312.828
 30
0.000000
  70
    32
  0
VERTEX
  8
図枠
  5
414
 10
905.551
 20
-312.831
 30
0.000000
  70
    32
  0
VERTEX
  8
図枠
  5
415
 10
905.566
 20
-312.833
 30
0.000000
  70
    32
  0
VERTEX
  8
図枠
  5
416
 10
905.581
 20
-312.836
 30
0.000000
  70
    32
  0
VERTEX
  8
図枠
  5
417
 10
905.596
 20
-312.838
 30
0.000000
  70
    32
  0
VERTEX
  8
図枠
  5
418
 10
905.611
 20
-312.841
 30
0.000000
  70
    32
  0
VERTEX
  8
図枠
  5
419
 10
905.625
 20
-312.843
 30
0.000000
  70
    32
  0
VERTEX
  8
図枠
  5
41A
 10
905.640
 20
-312.846
 30
0.000000
  70
    32
  0
VERTEX
  8
図枠
  5
41B
 10
905.655
 20
-312.849
 30
0.000000
  70
    32
  0
VERTEX
  8
図枠
  5
41C
 10
905.670
 20
-312.851
 30
0.000000
  70
    32
  0
VERTEX
  8
図枠
  5
41D
 10
905.685
 20
-312.854
 30
0.000000
  70
    32
  0
VERTEX
  8
図枠
  5
41E
 10
905.700
 20
-312.856
 30
0.000000
  70
    32
  0
VERTEX
  8
図枠
  5
41F
 10
905.715
 20
-312.859
 30
0.000000
  70
    32
  0
VERTEX
  8
図枠
  5
420
 10
905.730
 20
-312.861
 30
0.000000
  70
    32
  0
VERTEX
  8
図枠
  5
421
 10
905.744
 20
-312.864
 30
0.000000
  70
    32
  0
VERTEX
  8
図枠
  5
422
 10
905.759
 20
-312.866
 30
0.000000
  70
    32
  0
VERTEX
  8
図枠
  5
423
 10
905.774
 20
-312.869
 30
0.000000
  70
    32
  0
VERTEX
  8
図枠
  5
424
 10
905.789
 20
-312.871
 30
0.000000
  70
    32
  0
VERTEX
  8
図枠
  5
425
 10
905.804
 20
-312.874
 30
0.000000
  70
    32
  0
VERTEX
  8
図枠
  5
426
 10
905.819
 20
-312.876
 30
0.000000
  70
    32
  0
VERTEX
  8
図枠
  5
427
 10
905.834
 20
-312.879
 30
0.000000
  70
    32
  0
SEQEND
  8
図枠
  5
428
  0
LINE
  5
97
  8
図枠
 10
902.26319433590004
 20
-311.2941470774
 30
0.0
 11
902.07073693849998
 21
-311.50671650679999
 31
0.0
  0
LINE
  5
98
  8
図枠
  6
BORDER
 10
904.5722272017
 20
-290.90306803869998
 30
0.0
 11
904.5722272017
 21
-297.81437683870001
 31
0.0
  0
LINE
  5
99
  8
図枠
 10
905.03386724749998
 20
-309.6790518790001
 30
0.0
 11
905.83378724750003
 21
-308.47917187899998
 31
0.0
  0
CIRCLE
  5
9A
  8
図枠
 10
904.5722272017
 20
-294.3587224387
 30
0.0
 40
2.303769599999999
  0
LINE
  5
9B
  8
図枠
 10
901.83418724750004
 20
-310.33667432419998
 30
0.0
 11
901.38168416240001
 21
-310.78917740930001
 31
0.0
  0
LINE
  5
9C
  8
図枠
 10
860.51263360170014
 20
-294.3587224387
 30
0.0
 11
876.51103360169998
 21
-294.3587224387
 31
0.0
  0
INSERT
  5
9D
  8
0
  6
CONTINUOUS
  2
*U27
 10
0.0
 20
0.0
 30
0.0
  0
LINE
  5
9E
  8
図枠
 10
912.28628080039994
 20
-311.27889187900001
 30
0.0
 11
914.80687596759981
 21
-311.27889187900001
 31
0.0
  0
INSERT
  5
9F
  8
0
  6
CONTINUOUS
  2
*U28
 10
0.0
 20
0.0
 30
0.0
  0
LINE
  5
A0
  8
図枠
 10
912.47043183389985
 20
-311.91882787899999
 30
0.0
 11
912.28628080039994
 21
-311.27889187900001
 31
0.0
  0
INSERT
  5
A1
  8
0
  6
CONTINUOUS
  2
*U29
 10
0.0
 20
0.0
 30
0.0
  0
LINE
  5
A2
  8
図枠
 10
914.44572056480001
 20
-292.05495283869999
 30
0.0
 11
914.44572056480001
 21
-296.66249203870001
 31
0.0
  0
LINE
  5
A3
  8
図枠
 10
911.87194097519989
 20
-309.83903587899999
 30
0.0
 11
914.80687596759981
 21
-309.83903587899999
 31
0.0
  0
INSERT
  5
A4
  8
0
  6
CONTINUOUS
  2
*U30
 10
0.0
 20
0.0
 30
0.0
  0
INSERT
  5
A5
  8
0
  6
CONTINUOUS
  2
*U31
 10
0.0
 20
0.0
 30
0.0
  0
INSERT
  5
A6
  8
0
  6
CONTINUOUS
  2
*U32
 10
0.0
 20
0.0
 30
0.0
  0
LINE
  5
A7
  8
図枠
 62
     5
 10
954.50323360169989
 20
-140.62409743870001
 30
0.0
 11
954.50323360169989
 21
-125.6255974387
 31
0.0
  0
INSERT
  5
A8
  8
0
  6
CONTINUOUS
  2
*U33
 10
0.0
 20
0.0
 30
0.0
  0
LINE
  5
A9
  8
図枠
 10
892.90659524749992
 20
-308.47917187899998
 30
0.0
 11
889.70691524749986
 21
-308.47917187899998
 31
0.0
  0
LINE
  5
AA
  8
図枠
 10
891.70671524750003
 20
-310.07901187900001
 30
0.0
 11
891.70671524750003
 21
-309.6790518790001
 31
0.0
  0
LINE
  5
AB
  8
図枠
 10
896.50623524749994
 20
-308.47917187899998
 30
0.0
 11
893.3065552475
 21
-308.47917187899998
 31
0.0
  0
CIRCLE
  5
AC
  8
図枠
 10
904.5722272017
 20
-294.3587224387
 30
0.0
 40
1.151884799999999
  0
LINE
  5
AD
  8
図枠
 10
907.60759596759999
 20
-309.83903587899999
 30
0.0
 11
907.60759596759999
 21
-311.27889187900001
 31
0.0
  0
LINE
  5
AE
  8
図枠
 10
895.30635524750005
 20
-311.27889187900001
 30
0.0
 11
896.50623524749994
 21
-311.27889187900001
 31
0.0
  0
LINE
  5
AF
  8
図枠
 10
888.78612428660006
 20
-310.07901187900001
 30
0.0
 11
888.78612428660006
 21
-311.27889187900001
 31
0.0
  0
LINE
  5
B0
  8
図枠
 10
889.70691524749986
 20
-310.07901187900001
 30
0.0
 11
888.78612428660006
 21
-310.07901187900001
 31
0.0
  0
INSERT
  5
B1
  8
0
  6
CONTINUOUS
  2
*U34
 10
0.0
 20
0.0
 30
0.0
  0
LINE
  5
B2
  8
図枠
 10
888.50983360170005
 20
-298.60829743869999
 30
0.0
 11
888.50983360170005
 21
-307.10744743869998
 31
0.0
  0
LINE
  5
B3
  8
図枠
 10
878.51083360170003
 20
-290.10914743870001
 30
0.0
 11
878.51083360170003
 21
-298.60829743869999
 31
0.0
  0
INSERT
  5
B4
  8
0
  6
CONTINUOUS
  2
*U35
 10
0.0
 20
0.0
 30
0.0
  0
LINE
  5
B5
  8
図枠
 10
911.75483728660004
 20
-309.43209346489999
 30
0.0
 11
912.40711596759991
 21
-308.47917187899998
 31
0.0
  0
LINE
  5
B6
  8
図枠
 10
912.47043183389985
 20
-311.91882787899999
 30
0.0
 11
914.80687596759981
 21
-311.91882787899999
 31
0.0
  0
INSERT
  5
B7
  8
0
  6
CONTINUOUS
  2
*U36
 10
0.0
 20
0.0
 30
0.0
  0
INSERT
  5
B8
  8
0
  6
CONTINUOUS
  2
*U37
 10
0.0
 20
0.0
 30
0.0
  0
INSERT
  5
B9
  8
0
  6
CONTINUOUS
  2
*U38
 10
0.0
 20
0.0
 30
0.0
  0
LINE
  5
BA
  8
図枠
 62
     5
 10
888.50983360170005
 20
-140.62409743870001
 30
0.0
 11
888.50983360170005
 21
-125.6255974387
 31
0.0
  0
INSERT
  5
BB
  8
0
  6
CONTINUOUS
  2
*U39
 10
0.0
 20
0.0
 30
0.0
  0
LINE
  5
BC
  8
図枠
 62
     5
 10
881.75122414420014
 20
-140.1433537668
 30
0.0
 11
886.70072914419995
 21
-140.1433537668
 31
0.0
  0
LINE
  5
BD
  8
図枠
 62
     5
 10
884.22597664419993
 20
-135.85695670070001
 30
0.0
 11
886.70072914419995
 21
-140.1433537668
 31
0.0
  0
LINE
  5
BE
  8
図枠
 62
     5
 10
884.22597664419993
 20
-135.85695670070001
 30
0.0
 11
881.75122414420014
 21
-140.1433537668
 31
0.0
  0
LINE
  5
BF
  8
図枠
 62
     5
 10
904.50823360169989
 20
-140.62409743870001
 30
0.0
 11
904.50823360169989
 21
-125.6255974387
 31
0.0
  0
INSERT
  5
C0
  8
0
  6
CONTINUOUS
  2
*U40
 10
0.0
 20
0.0
 30
0.0
  0
LINE
  5
C1
  8
図枠
 10
898.50883360169996
 20
-290.10914743870001
 30
0.0
 11
898.50883360169996
 21
-298.60829743869999
 31
0.0
  0
LINE
  5
C2
  8
図枠
 10
898.63450724749998
 20
-308.47917187899998
 30
0.0
 11
898.63450724749998
 21
-309.919027879
 31
0.0
  0
POLYLINE
  8
図枠
  5
429
  66
     1
 10
0.000000
 20
0.000000
 30
0.000000
  70
     8
  0
VERTEX
  8
図枠
  5
42A
 10
898.635
 20
-310.594
 30
0.000000
  70
    32
  0
VERTEX
  8
図枠
  5
42B
 10
898.649
 20
-310.608
 30
0.000000
  70
    32
  0
VERTEX
  8
図枠
  5
42C
 10
898.663
 20
-310.621
 30
0.000000
  70
    32
  0
VERTEX
  8
図枠
  5
42D
 10
898.678
 20
-310.634
 30
0.000000
  70
    32
  0
VERTEX
  8
図枠
  5
42E
 10
898.692
 20
-310.647
 30
0.000000
  70
    32
  0
VERTEX
  8
図枠
  5
42F
 10
898.707
 20
-310.661
 30
0.000000
  70
    32
  0
VERTEX
  8
図枠
  5
430
 10
898.721
 20
-310.674
 30
0.000000
  70
    32
  0
VERTEX
  8
図枠
  5
431
 10
898.735
 20
-310.687
 30
0.000000
  70
    32
  0
VERTEX
  8
図枠
  5
432
 10
898.750
 20
-310.701
 30
0.000000
  70
    32
  0
VERTEX
  8
図枠
  5
433
 10
898.764
 20
-310.714
 30
0.000000
  70
    32
  0
VERTEX
  8
図枠
  5
434
 10
898.779
 20
-310.727
 30
0.000000
  70
    32
  0
VERTEX
  8
図枠
  5
435
 10
898.793
 20
-310.740
 30
0.000000
  70
    32
  0
VERTEX
  8
図枠
  5
436
 10
898.807
 20
-310.754
 30
0.000000
  70
    32
  0
VERTEX
  8
図枠
  5
437
 10
898.822
 20
-310.767
 30
0.000000
  70
    32
  0
VERTEX
  8
図枠
  5
438
 10
898.836
 20
-310.780
 30
0.000000
  70
    32
  0
VERTEX
  8
図枠
  5
439
 10
898.851
 20
-310.793
 30
0.000000
  70
    32
  0
VERTEX
  8
図枠
  5
43A
 10
898.865
 20
-310.807
 30
0.000000
  70
    32
  0
VERTEX
  8
図枠
  5
43B
 10
898.880
 20
-310.820
 30
0.000000
  70
    32
  0
VERTEX
  8
図枠
  5
43C
 10
898.894
 20
-310.833
 30
0.000000
  70
    32
  0
VERTEX
  8
図枠
  5
43D
 10
898.908
 20
-310.846
 30
0.000000
  70
    32
  0
VERTEX
  8
図枠
  5
43E
 10
898.923
 20
-310.860
 30
0.000000
  70
    32
  0
VERTEX
  8
図枠
  5
43F
 10
898.937
 20
-310.873
 30
0.000000
  70
    32
  0
VERTEX
  8
図枠
  5
440
 10
898.952
 20
-310.886
 30
0.000000
  70
    32
  0
VERTEX
  8
図枠
  5
441
 10
898.966
 20
-310.899
 30
0.000000
  70
    32
  0
VERTEX
  8
図枠
  5
442
 10
898.981
 20
-310.912
 30
0.000000
  70
    32
  0
VERTEX
  8
図枠
  5
443
 10
898.995
 20
-310.926
 30
0.000000
  70
    32
  0
VERTEX
  8
図枠
  5
444
 10
899.010
 20
-310.939
 30
0.000000
  70
    32
  0
VERTEX
  8
図枠
  5
445
 10
899.024
 20
-310.952
 30
0.000000
  70
    32
  0
VERTEX
  8
図枠
  5
446
 10
899.038
 20
-310.965
 30
0.000000
  70
    32
  0
VERTEX
  8
図枠
  5
447
 10
899.053
 20
-310.978
 30
0.000000
  70
    32
  0
VERTEX
  8
図枠
  5
448
 10
899.067
 20
-310.992
 30
0.000000
  70
    32
  0
VERTEX
  8
図枠
  5
449
 10
899.082
 20
-311.005
 30
0.000000
  70
    32
  0
VERTEX
  8
図枠
  5
44A
 10
899.096
 20
-311.018
 30
0.000000
  70
    32
  0
VERTEX
  8
図枠
  5
44B
 10
899.111
 20
-311.031
 30
0.000000
  70
    32
  0
VERTEX
  8
図枠
  5
44C
 10
899.125
 20
-311.044
 30
0.000000
  70
    32
  0
VERTEX
  8
図枠
  5
44D
 10
899.140
 20
-311.057
 30
0.000000
  70
    32
  0
VERTEX
  8
図枠
  5
44E
 10
899.154
 20
-311.070
 30
0.000000
  70
    32
  0
VERTEX
  8
図枠
  5
44F
 10
899.169
 20
-311.083
 30
0.000000
  70
    32
  0
VERTEX
  8
図枠
  5
450
 10
899.183
 20
-311.096
 30
0.000000
  70
    32
  0
VERTEX
  8
図枠
  5
451
 10
899.198
 20
-311.110
 30
0.000000
  70
    32
  0
VERTEX
  8
図枠
  5
452
 10
899.212
 20
-311.123
 30
0.000000
  70
    32
  0
VERTEX
  8
図枠
  5
453
 10
899.227
 20
-311.136
 30
0.000000
  70
    32
  0
VERTEX
  8
図枠
  5
454
 10
899.241
 20
-311.149
 30
0.000000
  70
    32
  0
VERTEX
  8
図枠
  5
455
 10
899.256
 20
-311.162
 30
0.000000
  70
    32
  0
VERTEX
  8
図枠
  5
456
 10
899.271
 20
-311.175
 30
0.000000
  70
    32
  0
VERTEX
  8
図枠
  5
457
 10
899.285
 20
-311.188
 30
0.000000
  70
    32
  0
VERTEX
  8
図枠
  5
458
 10
899.300
 20
-311.201
 30
0.000000
  70
    32
  0
VERTEX
  8
図枠
  5
459
 10
899.314
 20
-311.214
 30
0.000000
  70
    32
  0
VERTEX
  8
図枠
  5
45A
 10
899.329
 20
-311.227
 30
0.000000
  70
    32
  0
VERTEX
  8
図枠
  5
45B
 10
899.343
 20
-311.240
 30
0.000000
  70
    32
  0
VERTEX
  8
図枠
  5
45C
 10
899.358
 20
-311.253
 30
0.000000
  70
    32
  0
VERTEX
  8
図枠
  5
45D
 10
899.373
 20
-311.266
 30
0.000000
  70
    32
  0
VERTEX
  8
図枠
  5
45E
 10
899.387
 20
-311.278
 30
0.000000
  70
    32
  0
VERTEX
  8
図枠
  5
45F
 10
899.402
 20
-311.291
 30
0.000000
  70
    32
  0
VERTEX
  8
図枠
  5
460
 10
899.416
 20
-311.304
 30
0.000000
  70
    32
  0
VERTEX
  8
図枠
  5
461
 10
899.431
 20
-311.317
 30
0.000000
  70
    32
  0
VERTEX
  8
図枠
  5
462
 10
899.446
 20
-311.330
 30
0.000000
  70
    32
  0
VERTEX
  8
図枠
  5
463
 10
899.460
 20
-311.343
 30
0.000000
  70
    32
  0
VERTEX
  8
図枠
  5
464
 10
899.475
 20
-311.356
 30
0.000000
  70
    32
  0
VERTEX
  8
図枠
  5
465
 10
899.490
 20
-311.368
 30
0.000000
  70
    32
  0
VERTEX
  8
図枠
  5
466
 10
899.504
 20
-311.381
 30
0.000000
  70
    32
  0
VERTEX
  8
図枠
  5
467
 10
899.519
 20
-311.394
 30
0.000000
  70
    32
  0
VERTEX
  8
図枠
  5
468
 10
899.534
 20
-311.407
 30
0.000000
  70
    32
  0
VERTEX
  8
図枠
  5
469
 10
899.548
 20
-311.420
 30
0.000000
  70
    32
  0
VERTEX
  8
図枠
  5
46A
 10
899.563
 20
-311.432
 30
0.000000
  70
    32
  0
VERTEX
  8
図枠
  5
46B
 10
899.578
 20
-311.445
 30
0.000000
  70
    32
  0
VERTEX
  8
図枠
  5
46C
 10
899.593
 20
-311.458
 30
0.000000
  70
    32
  0
VERTEX
  8
図枠
  5
46D
 10
899.607
 20
-311.470
 30
0.000000
  70
    32
  0
VERTEX
  8
図枠
  5
46E
 10
899.622
 20
-311.483
 30
0.000000
  70
    32
  0
VERTEX
  8
図枠
  5
46F
 10
899.637
 20
-311.496
 30
0.000000
  70
    32
  0
VERTEX
  8
図枠
  5
470
 10
899.652
 20
-311.508
 30
0.000000
  70
    32
  0
VERTEX
  8
図枠
  5
471
 10
899.666
 20
-311.521
 30
0.000000
  70
    32
  0
VERTEX
  8
図枠
  5
472
 10
899.681
 20
-311.533
 30
0.000000
  70
    32
  0
VERTEX
  8
図枠
  5
473
 10
899.696
 20
-311.546
 30
0.000000
  70
    32
  0
VERTEX
  8
図枠
  5
474
 10
899.711
 20
-311.558
 30
0.000000
  70
    32
  0
VERTEX
  8
図枠
  5
475
 10
899.726
 20
-311.571
 30
0.000000
  70
    32
  0
VERTEX
  8
図枠
  5
476
 10
899.740
 20
-311.583
 30
0.000000
  70
    32
  0
VERTEX
  8
図枠
  5
477
 10
899.755
 20
-311.596
 30
0.000000
  70
    32
  0
VERTEX
  8
図枠
  5
478
 10
899.770
 20
-311.608
 30
0.000000
  70
    32
  0
VERTEX
  8
図枠
  5
479
 10
899.785
 20
-311.621
 30
0.000000
  70
    32
  0
VERTEX
  8
図枠
  5
47A
 10
899.800
 20
-311.633
 30
0.000000
  70
    32
  0
VERTEX
  8
図枠
  5
47B
 10
899.815
 20
-311.646
 30
0.000000
  70
    32
  0
VERTEX
  8
図枠
  5
47C
 10
899.830
 20
-311.658
 30
0.000000
  70
    32
  0
VERTEX
  8
図枠
  5
47D
 10
899.845
 20
-311.670
 30
0.000000
  70
    32
  0
VERTEX
  8
図枠
  5
47E
 10
899.860
 20
-311.683
 30
0.000000
  70
    32
  0
VERTEX
  8
図枠
  5
47F
 10
899.874
 20
-311.695
 30
0.000000
  70
    32
  0
VERTEX
  8
図枠
  5
480
 10
899.889
 20
-311.707
 30
0.000000
  70
    32
  0
VERTEX
  8
図枠
  5
481
 10
899.904
 20
-311.719
 30
0.000000
  70
    32
  0
VERTEX
  8
図枠
  5
482
 10
899.919
 20
-311.732
 30
0.000000
  70
    32
  0
VERTEX
  8
図枠
  5
483
 10
899.934
 20
-311.744
 30
0.000000
  70
    32
  0
VERTEX
  8
図枠
  5
484
 10
899.949
 20
-311.756
 30
0.000000
  70
    32
  0
VERTEX
  8
図枠
  5
485
 10
899.964
 20
-311.768
 30
0.000000
  70
    32
  0
VERTEX
  8
図枠
  5
486
 10
899.979
 20
-311.780
 30
0.000000
  70
    32
  0
VERTEX
  8
図枠
  5
487
 10
899.994
 20
-311.792
 30
0.000000
  70
    32
  0
VERTEX
  8
図枠
  5
488
 10
900.010
 20
-311.804
 30
0.000000
  70
    32
  0
VERTEX
  8
図枠
  5
489
 10
900.025
 20
-311.817
 30
0.000000
  70
    32
  0
VERTEX
  8
図枠
  5
48A
 10
900.040
 20
-311.829
 30
0.000000
  70
    32
  0
VERTEX
  8
図枠
  5
48B
 10
900.055
 20
-311.841
 30
0.000000
  70
    32
  0
VERTEX
  8
図枠
  5
48C
 10
900.070
 20
-311.852
 30
0.000000
  70
    32
  0
VERTEX
  8
図枠
  5
48D
 10
900.085
 20
-311.864
 30
0.000000
  70
    32
  0
VERTEX
  8
図枠
  5
48E
 10
900.100
 20
-311.876
 30
0.000000
  70
    32
  0
VERTEX
  8
図枠
  5
48F
 10
900.115
 20
-311.888
 30
0.000000
  70
    32
  0
VERTEX
  8
図枠
  5
490
 10
900.131
 20
-311.900
 30
0.000000
  70
    32
  0
VERTEX
  8
図枠
  5
491
 10
900.146
 20
-311.912
 30
0.000000
  70
    32
  0
VERTEX
  8
図枠
  5
492
 10
900.161
 20
-311.924
 30
0.000000
  70
    32
  0
VERTEX
  8
図枠
  5
493
 10
900.176
 20
-311.935
 30
0.000000
  70
    32
  0
VERTEX
  8
図枠
  5
494
 10
900.191
 20
-311.947
 30
0.000000
  70
    32
  0
VERTEX
  8
図枠
  5
495
 10
900.207
 20
-311.959
 30
0.000000
  70
    32
  0
VERTEX
  8
図枠
  5
496
 10
900.222
 20
-311.971
 30
0.000000
  70
    32
  0
VERTEX
  8
図枠
  5
497
 10
900.237
 20
-311.982
 30
0.000000
  70
    32
  0
VERTEX
  8
図枠
  5
498
 10
900.253
 20
-311.994
 30
0.000000
  70
    32
  0
VERTEX
  8
図枠
  5
499
 10
900.268
 20
-312.005
 30
0.000000
  70
    32
  0
VERTEX
  8
図枠
  5
49A
 10
900.283
 20
-312.017
 30
0.000000
  70
    32
  0
VERTEX
  8
図枠
  5
49B
 10
900.299
 20
-312.029
 30
0.000000
  70
    32
  0
VERTEX
  8
図枠
  5
49C
 10
900.314
 20
-312.040
 30
0.000000
  70
    32
  0
VERTEX
  8
図枠
  5
49D
 10
900.329
 20
-312.052
 30
0.000000
  70
    32
  0
VERTEX
  8
図枠
  5
49E
 10
900.345
 20
-312.063
 30
0.000000
  70
    32
  0
VERTEX
  8
図枠
  5
49F
 10
900.360
 20
-312.074
 30
0.000000
  70
    32
  0
VERTEX
  8
図枠
  5
4A0
 10
900.376
 20
-312.086
 30
0.000000
  70
    32
  0
VERTEX
  8
図枠
  5
4A1
 10
900.391
 20
-312.097
 30
0.000000
  70
    32
  0
VERTEX
  8
図枠
  5
4A2
 10
900.406
 20
-312.108
 30
0.000000
  70
    32
  0
VERTEX
  8
図枠
  5
4A3
 10
900.422
 20
-312.120
 30
0.000000
  70
    32
  0
VERTEX
  8
図枠
  5
4A4
 10
900.437
 20
-312.131
 30
0.000000
  70
    32
  0
VERTEX
  8
図枠
  5
4A5
 10
900.453
 20
-312.142
 30
0.000000
  70
    32
  0
VERTEX
  8
図枠
  5
4A6
 10
900.469
 20
-312.153
 30
0.000000
  70
    32
  0
VERTEX
  8
図枠
  5
4A7
 10
900.484
 20
-312.164
 30
0.000000
  70
    32
  0
VERTEX
  8
図枠
  5
4A8
 10
900.500
 20
-312.176
 30
0.000000
  70
    32
  0
VERTEX
  8
図枠
  5
4A9
 10
900.515
 20
-312.187
 30
0.000000
  70
    32
  0
VERTEX
  8
図枠
  5
4AA
 10
900.531
 20
-312.198
 30
0.000000
  70
    32
  0
VERTEX
  8
図枠
  5
4AB
 10
900.547
 20
-312.209
 30
0.000000
  70
    32
  0
VERTEX
  8
図枠
  5
4AC
 10
900.562
 20
-312.220
 30
0.000000
  70
    32
  0
VERTEX
  8
図枠
  5
4AD
 10
900.578
 20
-312.231
 30
0.000000
  70
    32
  0
VERTEX
  8
図枠
  5
4AE
 10
900.594
 20
-312.241
 30
0.000000
  70
    32
  0
VERTEX
  8
図枠
  5
4AF
 10
900.609
 20
-312.252
 30
0.000000
  70
    32
  0
VERTEX
  8
図枠
  5
4B0
 10
900.625
 20
-312.263
 30
0.000000
  70
    32
  0
VERTEX
  8
図枠
  5
4B1
 10
900.641
 20
-312.274
 30
0.000000
  70
    32
  0
VERTEX
  8
図枠
  5
4B2
 10
900.657
 20
-312.285
 30
0.000000
  70
    32
  0
VERTEX
  8
図枠
  5
4B3
 10
900.672
 20
-312.295
 30
0.000000
  70
    32
  0
VERTEX
  8
図枠
  5
4B4
 10
900.688
 20
-312.306
 30
0.000000
  70
    32
  0
VERTEX
  8
図枠
  5
4B5
 10
900.704
 20
-312.317
 30
0.000000
  70
    32
  0
VERTEX
  8
図枠
  5
4B6
 10
900.720
 20
-312.327
 30
0.000000
  70
    32
  0
VERTEX
  8
図枠
  5
4B7
 10
900.736
 20
-312.338
 30
0.000000
  70
    32
  0
VERTEX
  8
図枠
  5
4B8
 10
900.752
 20
-312.348
 30
0.000000
  70
    32
  0
VERTEX
  8
図枠
  5
4B9
 10
900.768
 20
-312.359
 30
0.000000
  70
    32
  0
VERTEX
  8
図枠
  5
4BA
 10
900.784
 20
-312.369
 30
0.000000
  70
    32
  0
VERTEX
  8
図枠
  5
4BB
 10
900.800
 20
-312.380
 30
0.000000
  70
    32
  0
VERTEX
  8
図枠
  5
4BC
 10
900.816
 20
-312.390
 30
0.000000
  70
    32
  0
VERTEX
  8
図枠
  5
4BD
 10
900.832
 20
-312.400
 30
0.000000
  70
    32
  0
VERTEX
  8
図枠
  5
4BE
 10
900.848
 20
-312.411
 30
0.000000
  70
    32
  0
VERTEX
  8
図枠
  5
4BF
 10
900.864
 20
-312.421
 30
0.000000
  70
    32
  0
VERTEX
  8
図枠
  5
4C0
 10
900.880
 20
-312.431
 30
0.000000
  70
    32
  0
VERTEX
  8
図枠
  5
4C1
 10
900.896
 20
-312.441
 30
0.000000
  70
    32
  0
VERTEX
  8
図枠
  5
4C2
 10
900.912
 20
-312.451
 30
0.000000
  70
    32
  0
VERTEX
  8
図枠
  5
4C3
 10
900.928
 20
-312.461
 30
0.000000
  70
    32
  0
VERTEX
  8
図枠
  5
4C4
 10
900.944
 20
-312.471
 30
0.000000
  70
    32
  0
VERTEX
  8
図枠
  5
4C5
 10
900.960
 20
-312.481
 30
0.000000
  70
    32
  0
VERTEX
  8
図枠
  5
4C6
 10
900.977
 20
-312.491
 30
0.000000
  70
    32
  0
VERTEX
  8
図枠
  5
4C7
 10
900.993
 20
-312.501
 30
0.000000
  70
    32
  0
VERTEX
  8
図枠
  5
4C8
 10
901.009
 20
-312.511
 30
0.000000
  70
    32
  0
VERTEX
  8
図枠
  5
4C9
 10
901.025
 20
-312.521
 30
0.000000
  70
    32
  0
SEQEND
  8
図枠
  5
4CA
  0
LINE
  5
C4
  8
図枠
 10
898.63450724749998
 20
-309.919027879
 30
0.0
 11
902.63410724749997
 21
-309.919027879
 31
0.0
  0
LINE
  5
C5
  8
図枠
 10
898.63450724749998
 20
-310.33667432419998
 30
0.0
 11
901.83418724750004
 21
-310.33667432419998
 31
0.0
  0
LINE
  5
C6
  8
図枠
 10
898.63450724749998
 20
-312.8787318790001
 30
0.0
 11
899.59441124749992
 21
-312.8787318790001
 31
0.0
  0
LINE
  5
C7
  8
図枠
 10
895.30635524750005
 20
-309.6790518790001
 30
0.0
 11
896.50623524749994
 21
-308.47917187899998
 31
0.0
  0
LINE
  5
C8
  8
図枠
 10
893.3065552475
 20
-311.27889187900001
 30
0.0
 11
893.3065552475
 21
-311.67885187899998
 31
0.0
  0
LINE
  5
C9
  8
図枠
 10
892.10667524749988
 20
-312.8787318790001
 30
0.0
 11
889.70691524749986
 21
-312.8787318790001
 31
0.0
  0
LINE
  5
CA
  8
図枠
 10
896.50623524749994
 20
-310.07901187900001
 30
0.0
 11
896.50623524749994
 21
-311.27889187900001
 31
0.0
  0
LINE
  5
CB
  8
図枠
 10
896.50623524749994
 20
-310.07901187900001
 30
0.0
 11
895.30635524750005
 21
-310.07901187900001
 31
0.0
  0
LINE
  5
CC
  8
図枠
 10
889.70691524749986
 20
-308.47917187899998
 30
0.0
 11
889.70691524749986
 21
-310.07901187900001
 31
0.0
  0
LINE
  5
CD
  8
図枠
 10
889.70691524749986
 20
-311.27889187900001
 30
0.0
 11
889.70691524749986
 21
-312.47877187900002
 31
0.0
  0
LINE
  5
CE
  8
図枠
 10
911.87194097519989
 20
-309.83903587899999
 30
0.0
 11
911.75483728660004
 21
-309.43209346489999
 31
0.0
  0
LINE
  5
CF
  8
図枠
 10
914.44572056480001
 20
-292.05495283869999
 30
0.0
 11
914.44572056480001
 21
-296.66249203870001
 31
0.0
  0
LINE
  5
D0
  8
ﾚｲﾔ_1
 62
     5
 10
933.62245798080005
 20
-195.0673615035
 30
0.0
 11
934.62245798080005
 21
-194.0673615035
 31
0.0
  0
LINE
  5
D1
  8
ﾚｲﾔ_1
 62
     5
 10
913.12245798080005
 20
-182.5673615035
 30
0.0
 11
912.12245798080005
 21
-183.5673615035
 31
0.0
  0
INSERT
  5
D2
  8
0
  6
CONTINUOUS
  2
*U41
 10
0.0
 20
0.0
 30
0.0
  0
LINE
  5
D3
  8
ﾚｲﾔ_1
 62
     5
 10
912.12245798080005
 20
-182.5673615035
 30
0.0
 11
934.62245798080005
 21
-182.5673615035
 31
0.0
  0
CIRCLE
  5
D4
  8
ﾚｲﾔ_1
 62
     5
 10
923.37245798080005
 20
-188.8173615035
 30
0.0
 40
2.0
  0
LINE
  5
D5
  8
ﾚｲﾔ_1
 62
     5
 10
912.12245798080005
 20
-195.0673615035
 30
0.0
 11
912.12245798080005
 21
-182.5673615035
 31
0.0
  0
CIRCLE
  5
D6
  8
ﾚｲﾔ_1
 62
     5
 10
923.37245798080005
 20
-188.8173615035
 30
0.0
 40
3.0
  0
LINE
  5
D7
  8
ﾚｲﾔ_1
 10
925.72239042979993
 20
-186.95247076000001
 30
0.0
 11
940.61167292640005
 21
-171.5768048134
 31
0.0
  0
SOLID
  5
D8
  8
ﾚｲﾔ_1
 10
925.72239042979993
 20
-186.95247076000001
 30
0.0
 11
927.49744252189987
 21
-183.76061681140001
 31
0.0
 12
927.51892337039988
 22
-185.0972510499
 32
0.0
 13
927.51892337039988
 23
-185.0972510499
 33
0.0
  0
SOLID
  5
D9
  8
ﾚｲﾔ_1
 10
925.72239042979993
 20
-186.95247076000001
 30
0.0
 11
928.85555760889986
 21
-185.07577020139999
 31
0.0
 12
927.51892337039988
 22
-185.0972510499
 32
0.0
 13
927.51892337039988
 23
-185.0972510499
 33
0.0
  0
LINE
  5
DA
  8
ﾚｲﾔ_1
 10
940.61167292640005
 20
-171.5768048134
 30
0.0
 11
967.96488261000013
 21
-171.5768048134
 31
0.0
  0
LINE
  5
DB
  8
ﾚｲﾔ_1
  6
BORDER
 62
     3
 10
923.37245798080005
 20
-179.5673615035
 30
0.0
 11
923.37245798080005
 21
-198.0673615035
 31
0.0
  0
LINE
  5
DC
  8
ﾚｲﾔ_1
 10
952.87245798080005
 20
-187.4482795358
 30
0.0
 11
963.69206034269996
 21
-187.4482795358
 31
0.0
  0
DIMENSION
  5
ED
  8
寸法線
  2
*D0
 10
742.62813883960007
 20
-259.77301927590003
 30
0.0
 11
778.37813883959996
 21
-259.77301927590003
 31
0.0
 70
   128
  1
<>
 13
742.62813883960007
 23
-246.17018934270001
 33
0.0
 14
814.12813883959996
 24
-246.17018934270001
 34
0.0
 50
180.0
  0
DIMENSION
  5
FC
  8
寸法線
  2
*D1
 10
871.47848645629995
 20
-220.67018932959999
 30
0.0
 11
862.96188307830005
 21
-220.67018932959999
 31
0.0
 70
   128
  1
(2)
 13
871.47848645629995
 23
-230.67018932959999
 33
0.0
 14
868.97848654819995
 24
-233.17018932959999
 34
0.0
  0
DIMENSION
  5
10B
  8
寸法線
  2
*D2
 10
887.97848645630006
 20
-220.67018922459999
 30
0.0
 11
879.72848645629995
 21
-220.67018922459999
 31
0.0
 70
   128
  1
<>
 13
887.97848645630006
 23
-230.67018922459999
 33
0.0
 14
871.47848645629995
 24
-230.67018932959999
 34
0.0
  0
DIMENSION
  5
11A
  8
寸法線
  2
*D3
 10
825.88394651539977
 20
-188.54716450820001
 30
0.0
 11
825.88394651539977
 21
-185.54716450820001
 31
0.0
 70
   128
  1
<>
 13
809.8781386387999
 23
-188.54716450820001
 33
0.0
 14
809.8781386387999
 24
-182.54716450820001
 34
0.0
 50
90.0
  0
DIMENSION
  5
129
  8
寸法線
  2
*D4
 10
811.6281386387999
 20
-170.6481162954
 30
0.0
 11
817.20689544799995
 21
-170.6481162954
 31
0.0
 70
   128
  1
<>
 13
811.6281386387999
 23
-181.79716414699999
 33
0.0
 14
808.1281386387999
 24
-181.7971642521
 34
0.0
  0
DIMENSION
  5
138
  8
寸法線
  2
*D5
 10
809.8781386387999
 20
-163.55690915229999
 30
0.0
 11
778.75395581850012
 21
-163.55690915229999
 31
0.0
 70
   128
  1
<>
 13
809.8781386387999
 23
-181.04716450820001
 33
0.0
 14
746.87813863880001
 24
-181.04716515250001
 34
0.0
  0
DIMENSION
  5
147
  8
寸法線
  2
*D6
 10
805.37813875610004
 20
-214.4478482097
 30
0.0
 11
778.37813875610004
 21
-214.4478482097
 31
0.0
 70
   128
  1
<>
 13
805.37813875610004
 23
-231.6701891603
 33
0.0
 14
751.37813875610004
 24
-231.67018924050001
 34
0.0
  0
DIMENSION
  5
156
  8
寸法線
  2
*D7
 10
791.37813873210007
 20
-220.15390454769999
 30
0.0
 11
778.37813918209997
 21
-220.15390454769999
 31
0.0
 70
   128
  1
<>
 13
791.37813873210007
 23
-226.67018934270001
 33
0.0
 14
765.3781396321001
 24
-226.6701896086
 34
0.0
  0
DIMENSION
  5
165
  8
寸法線
  2
*D8
 10
732.62813883959996
 20
-241.17018934270001
 30
0.0
 11
732.62813883959996
 21
-243.67018934270001
 31
0.0
 70
   128
  1
<>
 13
743.12813902309995
 23
-241.17018934270001
 33
0.0
 14
742.62813883960007
 24
-246.17018934270001
 34
0.0
 50
90.0
  0
DIMENSION
  5
174
  8
寸法線
  2
*D9
 10
824.12813883959996
 20
-246.17018934270001
 30
0.0
 11
824.12813883959996
 21
-238.4201892538
 31
0.0
 70
   128
  1
<>
 13
814.12813883959996
 23
-246.17018934270001
 33
0.0
 14
804.37813875610016
 24
-230.67018916489999
 34
0.0
 50
90.0
  0
DIMENSION
  5
183
  8
寸法線
  2
*D10
 10
934.62245798080005
 20
-172.5673615035
 30
0.0
 11
923.37245798080005
 21
-172.5673615035
 31
0.0
 70
   128
  1
<>
 13
934.62245798080005
 23
-182.5673615035
 33
0.0
 14
912.12245798080005
 24
-182.5673615035
 34
0.0
  0
DIMENSION
  5
192
  8
寸法線
  2
*D11
 10
944.62245798080005
 20
-195.0673615035
 30
0.0
 11
944.62245798080005
 21
-188.8173615035
 31
0.0
 70
   128
  1
<>
 13
934.62245798080005
 23
-195.0673615035
 33
0.0
 14
934.62245798080005
 24
-182.5673615035
 34
0.0
 50
90.0
  0
LINE
  5
193
  8
図枠
 62
     5
 10
964.50223360169991
 20
-140.62409743870001
 30
0.0
 11
964.50223360169991
 21
-125.6255974387
 31
0.0
  0
INSERT
  5
194
  8
0
  6
CONTINUOUS
  2
*U42
 10
0.0
 20
0.0
 30
0.0
  0
LINE
  5
195
  8
ﾚｲﾔ_1
 62
     5
 10
742.62813883960007
 20
-246.17018934270001
 30
0.0
 11
814.12813883959996
 21
-246.17018934270001
 31
0.0
  0
LINE
  5
196
  8
ﾚｲﾔ_1
 62
     5
 10
742.62813883960007
 20
-246.17018934270001
 30
0.0
 11
814.12813883959996
 21
-246.17018934270001
 31
0.0
  0
LINE
  5
197
  8
ﾚｲﾔ_1
 62
     5
 10
742.62813883080003
 20
-242.17018934270001
 30
0.0
 11
742.62813883960007
 21
-246.17018934270001
 31
0.0
  0
LINE
  5
198
  8
ﾚｲﾔ_1
 62
     5
 10
814.12813883080003
 20
-242.17018934270001
 30
0.0
 11
814.12813883959996
 21
-246.17018934270001
 31
0.0
  0
LINE
  5
199
  8
ﾚｲﾔ_1
  6
BORDER
 62
     3
 10
791.37813873210007
 20
-226.67018934270001
 30
0.0
 11
791.37813883729984
 21
-249.17018934270001
 31
0.0
  0
LINE
  5
19A
  8
ﾚｲﾔ_1
  6
BORDER
 62
     3
 10
765.3781396321001
 20
-226.6701896086
 30
0.0
 11
765.37813998709998
 21
-249.1701896086
 31
0.0
  0
LINE
  5
19B
  8
ﾚｲﾔ_1
 62
     5
 10
871.47848655490009
 20
-246.17018932959999
 30
0.0
 11
887.97848655489997
 21
-246.17018922459999
 31
0.0
  0
LINE
  5
19C
  8
ﾚｲﾔ_1
 62
     5
 10
871.47848646279988
 20
-231.67018914549999
 30
0.0
 11
871.47848655490009
 21
-246.17018932959999
 31
0.0
  0
LINE
  5
19D
  8
ﾚｲﾔ_1
 62
     5
 10
887.97848646279999
 20
-231.67018940080001
 30
0.0
 11
887.97848655489997
 21
-246.17018922459999
 31
0.0
  0
LINE
  5
19E
  8
ﾚｲﾔ_1
  6
BORDER
 62
     3
 10
879.72848654710003
 20
-227.67018927710001
 30
0.0
 11
879.72848655389987
 21
-249.17018934270001
 31
0.0
  0
LINE
  5
19F
  8
ﾚｲﾔ_1
 62
     5
 10
755.37813879279986
 20
-239.3701895513
 30
0.0
 11
775.37813879279986
 21
-239.3701893642
 31
0.0
  0
LINE
  5
1A0
  8
ﾚｲﾔ_1
 62
     5
 10
755.37813879279986
 20
-239.3701895513
 30
0.0
 11
755.37813880140004
 21
-241.17018955130001
 31
0.0
  0
LINE
  5
1A1
  8
ﾚｲﾔ_1
 62
     5
 10
801.37813879210012
 20
-239.37018933620001
 30
0.0
 11
801.37813880030001
 21
-241.1701893362
 31
0.0
  0
LINE
  5
1A2
  8
ﾚｲﾔ_1
  6
BORDER
 62
     3
 10
884.01203210490007
 20
-207.2955548134
 30
0.0
 11
884.01203210490007
 21
-152.2955548134
 31
0.0
  0
LINE
  5
1A3
  8
ﾚｲﾔ_1
  6
BORDER
 62
     3
 10
884.01203210490007
 20
-152.2955548134
 30
0.0
 11
974.01203210490007
 21
-152.2955548134
 31
0.0
  0
INSERT
  5
1A4
  8
0
  6
CONTINUOUS
  2
*U43
 10
0.0
 20
0.0
 30
0.0
  0
LINE
  5
1A5
  8
ﾚｲﾔ_1
  6
BORDER
 62
     3
 10
909.12245798080005
 20
-188.8173615035
 30
0.0
 11
937.62245798080005
 21
-188.8173615035
 31
0.0
  0
LINE
  5
1A6
  8
ﾚｲﾔ_1
  6
BORDER
 62
     3
 10
884.01203210490007
 20
-207.2955548134
 30
0.0
 11
974.01203210490007
 21
-207.2955548134
 31
0.0
  0
LINE
  5
1A7
  8
ﾚｲﾔ_1
 10
952.87245798080005
 20
-186.22418315030001
 30
0.0
 11
963.69206034269996
 21
-186.22418315030001
 31
0.0
  0
INSERT
  5
1A8
  8
0
  6
CONTINUOUS
  2
*U44
 10
0.0
 20
0.0
 30
0.0
  0
INSERT
  5
1A9
  8
0
  6
CONTINUOUS
  2
*U45
 10
0.0
 20
0.0
 30
0.0
  0
LINE
  5
1AA
  8
ﾚｲﾔ_1
 62
     5
 10
934.62245798080005
 20
-195.0673615035
 30
0.0
 11
912.12245798080005
 21
-195.0673615035
 31
0.0
  0
LINE
  5
1AB
  8
ﾚｲﾔ_1
 62
     5
 10
934.62245798080005
 20
-182.5673615035
 30
0.0
 11
934.62245798080005
 21
-195.0673615035
 31
0.0
  0
LINE
  5
1AC
  8
ﾚｲﾔ_1
 62
     5
 10
933.62245798080005
 20
-182.5673615035
 30
0.0
 11
934.62245798080005
 21
-183.5673615035
 31
0.0
  0
LINE
  5
1AD
  8
ﾚｲﾔ_1
 62
     5
 10
913.12245798080005
 20
-195.0673615035
 30
0.0
 11
912.12245798080005
 21
-194.0673615035
 31
0.0
  0
LINE
  5
1AE
  8
ﾚｲﾔ_1
 62
     5
 10
801.37813879210012
 20
-239.37018933620001
 30
0.0
 11
781.37813879210012
 21
-239.37018933620001
 31
0.0
  0
LINE
  5
1AF
  8
ﾚｲﾔ_1
 62
     5
 10
801.37813880030001
 20
-241.1701893362
 30
0.0
 11
781.37813880030001
 21
-241.1701893362
 31
0.0
  0
LINE
  5
1B0
  8
ﾚｲﾔ_1
 62
     5
 10
781.37813879210012
 20
-239.37018933620001
 30
0.0
 11
781.37813880030001
 21
-241.1701893362
 31
0.0
  0
LINE
  5
1B1
  8
ﾚｲﾔ_1
  6
BORDER
 62
     3
 10
791.37813843490005
 20
-174.5471646883
 30
0.0
 11
791.37813881169996
 21
-198.7971646883
 31
0.0
  0
LINE
  5
1B2
  8
ﾚｲﾔ_1
  6
BORDER
 62
     3
 10
765.37813886309993
 20
-174.54716495420001
 30
0.0
 11
765.3781389822999
 21
-198.79716495420001
 31
0.0
  0
ARC
  5
1B3
  8
ﾚｲﾔ_1
 62
     5
 10
809.8781386387999
 20
-186.79716450820001
 30
0.0
 40
1.75
 50
180.00000815529989
 51
359.99999171420001
  0
LINE
  5
1B4
  8
ﾚｲﾔ_1
  6
BORDER
 62
     3
 10
746.87813863880001
 20
-190.04716515250001
 30
0.0
 11
746.87813863880001
 21
-181.04716515250001
 31
0.0
  0
LINE
  5
1B5
  8
ﾚｲﾔ_1
 62
     5
 10
748.62813863880001
 20
-186.79716540160001
 30
0.0
 11
748.62813863880001
 21
-184.29716489640001
 31
0.0
  0
LINE
  5
1B6
  8
ﾚｲﾔ_1
 62
     5
 10
745.12813863880001
 20
-186.7971654056
 30
0.0
 11
745.12813863880001
 21
-184.29716479129999
 31
0.0
  0
ARC
  5
1B7
  8
ﾚｲﾔ_1
 62
     5
 10
746.87813863880001
 20
-186.79716515250001
 30
0.0
 40
1.75
 50
180.00000828579999
 51
359.99999184469999
  0
ARC
  5
1B8
  8
ﾚｲﾔ_1
 62
     5
 10
746.87813863880001
 20
-184.29716515250001
 30
0.0
 40
1.75
 50
0.0000083838
 51
179.99998817540001
  0
LINE
  5
1B9
  8
ﾚｲﾔ_1
 62
     5
 10
781.37813876509995
 20
-195.7971646883
 30
0.0
 11
781.37813876509995
 21
-193.7971646883
 31
0.0
  0
LINE
  5
1BA
  8
ﾚｲﾔ_1
 62
     5
 10
801.37813876509995
 20
-195.7971646883
 30
0.0
 11
781.37813876509995
 21
-195.7971646883
 31
0.0
  0
LINE
  5
1BB
  8
ﾚｲﾔ_1
 62
     5
 10
801.37813876509995
 20
-195.7971646883
 30
0.0
 11
801.37813876509995
 21
-193.7971646883
 31
0.0
  0
LINE
  5
1BC
  8
ﾚｲﾔ_1
 62
     5
 10
781.37813879550004
 20
-233.17018934270001
 30
0.0
 11
781.37813880369993
 21
-234.9701893427
 31
0.0
  0
LINE
  5
1BD
  8
ﾚｲﾔ_1
 62
     5
 10
801.37813880369993
 20
-234.9701893427
 30
0.0
 11
781.37813880369993
 21
-234.9701893427
 31
0.0
  0
LINE
  5
1BE
  8
ﾚｲﾔ_1
 62
     5
 10
801.37813879550015
 20
-233.17018934270001
 30
0.0
 11
781.37813879550004
 21
-233.17018934270001
 31
0.0
  0
LINE
  5
1BF
  8
ﾚｲﾔ_1
 62
     5
 10
801.37813879550015
 20
-233.17018934270001
 30
0.0
 11
801.37813880369993
 21
-234.9701893427
 31
0.0
  0
LINE
  5
1C0
  8
ﾚｲﾔ_1
 62
     5
 10
755.37813879550004
 20
-233.17018955789999
 30
0.0
 11
755.37813880399995
 21
-234.9701895579
 31
0.0
  0
LINE
  5
1C1
  8
ﾚｲﾔ_1
 62
     5
 10
755.37813879550004
 20
-233.17018955789999
 30
0.0
 11
775.37813879550004
 21
-233.17018937079999
 31
0.0
  0
LINE
  5
1C2
  8
ﾚｲﾔ_1
 62
     5
 10
755.37813880399995
 20
-234.9701895579
 30
0.0
 11
775.37813880399995
 21
-234.9701893708
 31
0.0
  0
LINE
  5
1C3
  8
ﾚｲﾔ_1
 62
     5
 10
775.37813879550004
 20
-233.17018937079999
 30
0.0
 11
775.37813880399995
 21
-234.9701893708
 31
0.0
  0
LINE
  5
1C4
  8
ﾚｲﾔ_1
 62
     5
 10
755.37813847629991
 20
-195.7971649035
 30
0.0
 11
755.3781384575999
 21
-193.7971649035
 31
0.0
  0
LINE
  5
1C5
  8
ﾚｲﾔ_1
 62
     5
 10
755.37813847629991
 20
-195.7971649035
 30
0.0
 11
775.37813847630002
 21
-195.7971647164
 31
0.0
  0
LINE
  5
1C6
  8
ﾚｲﾔ_1
 62
     5
 10
775.37813847630002
 20
-195.7971647164
 30
0.0
 11
775.3781384575999
 21
-193.7971647164
 31
0.0
  0
LINE
  5
1C7
  8
ﾚｲﾔ_1
 62
     5
 10
775.37813879279986
 20
-239.3701893642
 30
0.0
 11
775.37813880140004
 21
-241.17018936420001
 31
0.0
  0
LINE
  5
1C8
  8
ﾚｲﾔ_1
 62
     5
 10
755.37813880140004
 20
-241.17018955130001
 30
0.0
 11
775.37813880140004
 21
-241.17018936420001
 31
0.0
  0
ARC
  5
1C9
  8
ﾚｲﾔ_1
 62
     5
 10
813.12813847979987
 20
-178.29716463619999
 30
0.0
 40
1.0
 50
0.0
 51
89.999987624500008
  0
LINE
  5
1CA
  8
ﾚｲﾔ_1
 62
     5
 10
814.12813882779994
 20
-192.79716463619999
 30
0.0
 11
814.12813847979999
 21
-178.29716463619999
 31
0.0
  0
LINE
  5
1CB
  8
ﾚｲﾔ_1
 62
     5
 10
742.62813882779994
 20
-192.79716502439999
 30
0.0
 11
742.62813847979999
 21
-178.29716502439999
 31
0.0
  0
ARC
  5
1CC
  8
ﾚｲﾔ_1
 62
     5
 10
743.62813882779994
 20
-192.79716502439999
 30
0.0
 40
1.0
 50
180.0
 51
270.00000990000001
  0
LINE
  5
1CD
  8
ﾚｲﾔ_1
 62
     5
 10
743.62813900059996
 20
-193.79716502439999
 30
0.0
 11
813.12813869119998
 21
-193.79716463619999
 31
0.0
  0
ARC
  5
1CE
  8
ﾚｲﾔ_1
 62
     5
 10
813.12813882779994
 20
-192.79716463619999
 30
0.0
 40
1.0
 50
269.99999217530001
 51
0.0
  0
ARC
  5
1CF
  8
ﾚｲﾔ_1
 62
     5
 10
743.62813883080003
 20
-242.17018934270001
 30
0.0
 40
1.0
 50
90.0
 51
180.0
  0
ARC
  5
1D0
  8
ﾚｲﾔ_1
 62
     5
 10
813.12813883080003
 20
-242.17018934270001
 30
0.0
 40
1.0
 50
0.0
 51
90.0
  0
LINE
  5
1D1
  8
ﾚｲﾔ_1
 62
     5
 10
813.12813883080003
 20
-241.17018934270001
 30
0.0
 11
805.37813879969997
 21
-241.17018916489999
 31
0.0
  0
LINE
  5
1D2
  8
ﾚｲﾔ_1
 62
     5
 10
805.37813875610004
 20
-231.6701891603
 30
0.0
 11
805.37813879969997
 21
-241.17018916489999
 31
0.0
  0
ARC
  5
1D3
  8
ﾚｲﾔ_1
 62
     5
 10
804.37813875610016
 20
-231.67018916489999
 30
0.0
 40
1.0
 50
0.0000002633
 51
90.0
  0
ARC
  5
1D4
  8
ﾚｲﾔ_1
 62
     5
 10
804.37813881279999
 20
-192.79716455420001
 30
0.0
 40
1.0
 50
270.0
 51
0.0
  0
LINE
  5
1D5
  8
ﾚｲﾔ_1
 62
     5
 10
805.37813846479992
 20
-178.29716455420001
 30
0.0
 11
805.37813881279988
 21
-192.79716455420001
 31
0.0
  0
ARC
  5
1D6
  8
ﾚｲﾔ_1
 62
     5
 10
804.37813846479992
 20
-178.29716455420001
 30
0.0
 40
1.0
 50
0.0
 51
90.0
  0
LINE
  5
1D7
  8
ﾚｲﾔ_1
 62
     5
 10
804.37813875610016
 20
-230.67018916489999
 30
0.0
 11
752.37813875610004
 21
-230.67018923590001
 31
0.0
  0
LINE
  5
1D8
  8
ﾚｲﾔ_1
 62
     5
 10
743.62813883080003
 20
-241.17018934270001
 30
0.0
 11
751.37813879969985
 21
-241.17018923590001
 31
0.0
  0
LINE
  5
1D9
  8
ﾚｲﾔ_1
 62
     5
 10
751.37813875610004
 20
-231.67018924050001
 30
0.0
 11
751.37813879969985
 21
-241.17018923590001
 31
0.0
  0
ARC
  5
1DA
  8
ﾚｲﾔ_1
 62
     5
 10
752.37813875610004
 20
-231.67018923590001
 30
0.0
 40
1.0
 50
90.0
 51
180.0000002633
  0
ARC
  5
1DB
  8
ﾚｲﾔ_1
 62
     5
 10
752.37813881279999
 20
-192.79716510649999
 30
0.0
 40
1.0
 50
180.0
 51
270.0
  0
LINE
  5
1DC
  8
ﾚｲﾔ_1
 62
     5
 10
751.37813846479992
 20
-178.29716510649999
 30
0.0
 11
751.37813881279988
 21
-192.79716510649999
 31
0.0
  0
ARC
  5
1DD
  8
ﾚｲﾔ_1
 62
     5
 10
752.37813846479992
 20
-178.29716510649999
 30
0.0
 40
1.0
 50
90.0
 51
180.0
  0
LINE
  5
1DE
  8
ﾚｲﾔ_1
 62
     5
 10
808.1281386387999
 20
-186.79716475719999
 30
0.0
 11
808.1281386387999
 21
-184.2971642521
 31
0.0
  0
ARC
  5
1DF
  8
ﾚｲﾔ_1
 62
     5
 10
809.8781386387999
 20
-184.29716450820001
 30
0.0
 40
1.75
 50
0.0000118246
 51
179.99999161619999
  0
LINE
  5
1E0
  8
ﾚｲﾔ_1
 62
     5
 10
968.48643785280012
 20
-184.72263906250001
 30
0.0
 11
970.96143785280003
 21
-189.00946481119999
 31
0.0
  0
LINE
  5
1E1
  8
ﾚｲﾔ_1
 62
     5
 10
968.48643785280012
 20
-184.72263906250001
 30
0.0
 11
966.01143785279999
 21
-189.00946481119999
 31
0.0
  0
INSERT
  5
1E2
  8
0
  6
CONTINUOUS
  2
*U46
 10
0.0
 20
0.0
 30
0.0
  0
LINE
  5
1E3
  8
ﾚｲﾔ_1
 62
     5
 10
966.01143785279999
 20
-189.00946481119999
 30
0.0
 11
970.96143785280003
 21
-189.00946481119999
 31
0.0
  0
LINE
  5
1E4
  8
ﾚｲﾔ_1
 62
     5
 10
885.22634821559996
 20
-130.9074799389
 30
0.0
 11
887.70134821559998
 21
-135.19430568769999
 31
0.0
  0
LINE
  5
1E5
  8
ﾚｲﾔ_1
 62
     5
 10
885.22634821559996
 20
-130.9074799389
 30
0.0
 11
882.75134821560005
 21
-135.19430568769999
 31
0.0
  0
INSERT
  5
1E6
  8
0
  6
CONTINUOUS
  2
*U47
 10
0.0
 20
0.0
 30
0.0
  0
LINE
  5
1E7
  8
ﾚｲﾔ_1
 62
     5
 10
882.75134821560005
 20
-135.19430568769999
 30
0.0
 11
887.70134821559998
 21
-135.19430568769999
 31
0.0
  0
LINE
  5
1E8
  8
ﾚｲﾔ_1
 62
     5
 10
872.47848645629995
 20
-230.67018932299999
 30
0.0
 11
886.97848645629995
 21
-230.67018923110001
 31
0.0
  0
ARC
  5
1E9
  8
ﾚｲﾔ_1
 62
     5
 10
886.97848646279999
 20
-231.67018923110001
 30
0.0
 40
1.0
 50
359.99999028000002
 51
90.000000376100004
  0
LINE
  5
1EA
  8
ﾚｲﾔ_1
 62
     5
 10
868.97848654819995
 20
-233.17018932959999
 30
0.0
 11
871.47848654819995
 21
-233.17018932959999
 31
0.0
  0
ARC
  5
1EB
  8
ﾚｲﾔ_1
 62
     5
 10
872.47848646279999
 20
-231.67018932299999
 30
0.0
 40
1.0
 50
90.000000376100004
 51
179.99998982610001
  0
LINE
  5
1EC
  8
ﾚｲﾔ_1
 62
     5
 10
868.97848654819995
 20
-233.17018932959999
 30
0.0
 11
868.97848654819995
 21
-234.9701893296
 31
0.0
  0
LINE
  5
1ED
  8
ﾚｲﾔ_1
 62
     5
 10
868.97848654819995
 20
-234.9701893296
 30
0.0
 11
871.47848654819995
 21
-234.9701893296
 31
0.0
  0
ARC
  5
1EE
  8
ﾚｲﾔ_1
 62
     5
 10
872.47848652969992
 20
-242.17018932299999
 30
0.0
 40
1.0
 50
90.000000376100004
 51
180.00000037609999
  0
LINE
  5
1EF
  8
ﾚｲﾔ_1
 62
     5
 10
872.47848652309995
 20
-241.17018932299999
 30
0.0
 11
886.97848652309983
 21
-241.17018923110001
 31
0.0
  0
ARC
  5
1F0
  8
ﾚｲﾔ_1
 62
     5
 10
886.97848652970015
 20
-242.17018923110001
 30
0.0
 40
1.0
 50
0.0000003761
 51
90.000000376100004
  0
LINE
  5
1F1
  8
ﾚｲﾔ_1
 62
     5
 10
868.9784865232001
 20
-241.17018932299999
 30
0.0
 11
868.9784865232001
 21
-239.37018932300001
 31
0.0
  0
LINE
  5
1F2
  8
ﾚｲﾔ_1
 62
     5
 10
868.9784865232001
 20
-241.17018932299999
 30
0.0
 11
871.4784865232001
 21
-241.17018932299999
 31
0.0
  0
LINE
  5
1F3
  8
ﾚｲﾔ_1
 62
     5
 10
868.9784865232001
 20
-239.37018932300001
 30
0.0
 11
871.4784865232001
 21
-239.37018932300001
 31
0.0
  0
LINE
  5
1F4
  8
ﾚｲﾔ_1
  6
BORDER
 62
     3
 10
809.8781386387999
 20
-190.04716450820001
 30
0.0
 11
809.8781386387999
 21
-181.04716450820001
 31
0.0
  0
LINE
  5
1F5
  8
ﾚｲﾔ_1
 62
     5
 10
811.6281386387999
 20
-186.79716476120001
 30
0.0
 11
811.6281386387999
 21
-184.29716414699999
 31
0.0
  0
LINE
  5
1F6
  8
ﾚｲﾔ_1
  6
BORDER
 62
     3
 10
817.12813876150005
 20
-185.547164434
 30
0.0
 11
739.62813876149994
 21
-185.54716522659999
 31
0.0
  0
ARC
  5
1F7
  8
ﾚｲﾔ_1
 62
     5
 10
743.62813847979987
 20
-178.29716502439999
 30
0.0
 40
1.0
 50
89.999989765199999
 51
180.0
  0
LINE
  5
1F8
  8
ﾚｲﾔ_1
 62
     5
 10
743.62813865839985
 20
-177.29716502439999
 30
0.0
 11
813.12813869579986
 21
-177.29716463619999
 31
0.0
  0
ENDSEC
  0
EOF
