  0
SECTION
  2
HEADER
  9
$ACADVER
  1
AC1009
  9
$INSBASE
 10
0.0
 20
0.0
 30
0.0
  9
$EXTMIN
 10
693.49592367363994
 20
-321.39482636937919
 30
-0.0015258207003583
  9
$EXTMAX
 10
980.54217182222874
 20
-119.8503339021767
 30
0.0000000349246037
  9
$LIMMIN
 10
0.0
 20
0.0
  9
$LIMMAX
 10
0.0
 20
0.0
  9
$ORTHOMODE
 70
     0
  9
$REGENMODE
 70
     1
  9
$FILLMODE
 70
     1
  9
$QTEXTMODE
 70
     0
  9
$MIRRTEXT
 70
     1
  9
$DRAGMODE
 70
     2
  9
$LTSCALE
 40
1.0
  9
$OSMODE
 70
    31
  9
$ATTMODE
 70
     1
  9
$TEXTSIZE
 40
0.0
  9
$TRACEWID
 40
0.05
  9
$TEXTSTYLE
  7
STANDARD
  9
$CLAYER
  8
0
  9
$CELTYPE
  6
CONTINUOUS
  9
$CECOLOR
 62
   256
  9
$DIMSCALE
 40
1.0
  9
$DIMASZ
 40
0.18
  9
$DIMEXO
 40
0.0625
  9
$DIMDLI
 40
0.38
  9
$DIMRND
 40
0.0
  9
$DIMDLE
 40
0.0
  9
$DIMEXE
 40
0.18
  9
$DIMTP
 40
0.0
  9
$DIMTM
 40
0.0
  9
$DIMTXT
 40
0.18
  9
$DIMCEN
 40
0.09
  9
$DIMTSZ
 40
0.0
  9
$DIMTOL
 70
     0
  9
$DIMLIM
 70
     0
  9
$DIMTIH
 70
     1
  9
$DIMTOH
 70
     1
  9
$DIMSE1
 70
     0
  9
$DIMSE2
 70
     0
  9
$DIMTAD
 70
     0
  9
$DIMZIN
 70
     0
  9
$DIMBLK
  1

  9
$DIMASO
 70
     1
  9
$DIMSHO
 70
     1
  9
$DIMPOST
  1

  9
$DIMAPOST
  1

  9
$DIMALT
 70
     0
  9
$DIMALTD
 70
     2
  9
$DIMALTF
 40
25.399999999999999
  9
$DIMLFAC
 40
1.0
  9
$DIMTOFL
 70
     0
  9
$DIMTVP
 40
0.0
  9
$DIMTIX
 70
     0
  9
$DIMSOXD
 70
     0
  9
$DIMSAH
 70
     0
  9
$DIMBLK1
  1

  9
$DIMBLK2
  1

  9
$DIMSTYLE
  2
STANDARD
  9
$DIMCLRD
 70
     0
  9
$DIMCLRE
 70
     0
  9
$DIMCLRT
 70
     0
  9
$DIMTFAC
 40
1.0
  9
$DIMGAP
 40
0.09
  9
$LUNITS
 70
     2
  9
$LUPREC
 70
     4
  9
$SKETCHINC
 40
0.1
  9
$FILLETRAD
 40
0.0
  9
$AUNITS
 70
     0
  9
$AUPREC
 70
     0
  9
$MENU
  1
acad
  9
$ELEVATION
 40
0.0
  9
$PELEVATION
 40
0.0
  9
$THICKNESS
 40
0.0
  9
$LIMCHECK
 70
     0
  9
$BLIPMODE
 70
     0
  9
$CHAMFERA
 40
0.0
  9
$CHAMFERB
 40
0.0
  9
$SKPOLY
 70
     0
  9
$TDCREATE
 40
2454865.6895903819
  9
$TDUPDATE
 40
2454865.689771771
  9
$TDINDWG
 40
0.0001916898
  9
$TDUSRTIMER
 40
0.000191331
  9
$USRTIMER
 70
     1
  9
$ANGBASE
 50
0.0
  9
$ANGDIR
 70
     0
  9
$PDMODE
 70
     3
  9
$PDSIZE
 40
-1.0
  9
$PLINEWID
 40
0.0
  9
$COORDS
 70
     2
  9
$SPLFRAME
 70
     0
  9
$SPLINETYPE
 70
     6
  9
$SPLINESEGS
 70
     8
  9
$ATTDIA
 70
     0
  9
$ATTREQ
 70
     1
  9
$HANDLING
 70
     1
  9
$HANDSEED
  5
4C3
  9
$SURFTAB1
 70
     6
  9
$SURFTAB2
 70
     6
  9
$SURFTYPE
 70
     6
  9
$SURFU
 70
     6
  9
$SURFV
 70
     6
  9
$UCSNAME
  2

  9
$UCSORG
 10
0.0
 20
0.0
 30
0.0
  9
$UCSXDIR
 10
1.0
 20
0.0
 30
0.0
  9
$UCSYDIR
 10
0.0
 20
1.0
 30
0.0
  9
$PUCSNAME
  2

  9
$PUCSORG
 10
0.0
 20
0.0
 30
0.0
  9
$PUCSXDIR
 10
1.0
 20
0.0
 30
0.0
  9
$PUCSYDIR
 10
0.0
 20
1.0
 30
0.0
  9
$USERI1
 70
     0
  9
$USERI2
 70
     0
  9
$USERI3
 70
     0
  9
$USERI4
 70
     0
  9
$USERI5
 70
     0
  9
$USERR1
 40
0.0
  9
$USERR2
 40
0.0
  9
$USERR3
 40
0.0
  9
$USERR4
 40
0.0
  9
$USERR5
 40
0.0
  9
$WORLDVIEW
 70
     1
  9
$SHADEDGE
 70
     3
  9
$SHADEDIF
 70
    70
  9
$TILEMODE
 70
     1
  9
$MAXACTVP
 70
    16
  9
$PLIMCHECK
 70
     0
  9
$PEXTMIN
 10
1.0000000000000000E+020
 20
1.0000000000000000E+020
 30
1.0000000000000000E+020
  9
$PEXTMAX
 10
-1.0000000000000000E+020
 20
-1.0000000000000000E+020
 30
-1.0000000000000000E+020
  9
$PLIMMIN
 10
0.0
 20
0.0
  9
$PLIMMAX
 10
12.0
 20
9.0
  9
$UNITMODE
 70
     0
  9
$VISRETAIN
 70
     0
  9
$PLINEGEN
 70
     1
  9
$PSLTSCALE
 70
     0
  0
ENDSEC
  0
SECTION
  2
TABLES
  0
TABLE
  2
VPORT
 70
     2
  0
VPORT
  2
*ACTIVE
 70
     0
 10
0.0
 20
0.0
 11
1.0
 21
1.0
 12
837.01904774793445
 22
-220.62258013577801
 13
0.0
 23
0.0
 14
1.0
 24
1.0
 15
0.0
 25
0.0
 16
0.0
 26
0.0
 36
1.0
 17
0.0
 27
0.0
 37
0.0
 40
203.2476853612915
 41
1.5416078984485191
 42
50.0
 43
0.0
 44
0.0
 50
0.0
 51
0.0
 71
     0
 72
   100
 73
     1
 74
     1
 75
     0
 76
     0
 77
     0
 78
     0
  0
ENDTAB
  0
TABLE
  2
LTYPE
 70
    11
  0
LTYPE
  2
CONTINUOUS
 70
     0
  3
Solid line
 72
    65
 73
     0
 40
0.0
  0
LTYPE
  2
DOT
 70
     0
  3
. . . . . . . . 
 72
    65
 73
     2
 40
1.0
 49
0.0
 49
-1.0
  0
LTYPE
  2
DASHED
 70
     0
  3
___  ___  ___  ___  
 72
    65
 73
     2
 40
4.0
 49
3.0
 49
-1.0
  0
LTYPE
  2
HIDDEN
 70
     0
  3
__ __ __ __ 
 72
    65
 73
     2
 40
3.0
 49
2.0
 49
-1.0
  0
LTYPE
  2
STITCH
 70
     0
  3
_ _ _ _ 
 72
    65
 73
     2
 40
2.0
 49
1.0
 49
-1.0
  0
LTYPE
  2
CENTER
 70
     0
  3
______  __  ______  __  
 72
    65
 73
     4
 40
43.0
 49
40.0
 49
-1.0
 49
1.0
 49
-1.0
  0
LTYPE
  2
DASHDOT
 70
     0
  3
____ . ____ . 
 72
    65
 73
     4
 40
32.0
 49
30.0
 49
-1.0
 49
0.0
 49
-1.0
  0
LTYPE
  2
BORDER
 70
     0
  3
__ . __ . 
 72
    65
 73
     4
 40
22.0
 49
20.0
 49
-1.0
 49
0.0
 49
-1.0
  0
LTYPE
  2
CUTTING
 70
     0
  3
________   ___   ___   
 72
    65
 73
     6
 40
45.0
 49
40.0
 49
-1.0
 49
1.0
 49
-1.0
 49
1.0
 49
-1.0
  0
LTYPE
  2
PHANTOM
 70
     0
  3
______  __  __  
 72
    65
 73
     6
 40
35.0
 49
30.0
 49
-1.0
 49
1.0
 49
-1.0
 49
1.0
 49
-1.0
  0
LTYPE
  2
DIVIDE
 70
     0
  3
____ . . ____ . . 
 72
    65
 73
     6
 40
23.0
 49
20.0
 49
-1.0
 49
0.0
 49
-1.0
 49
0.0
 49
-1.0
  0
ENDTAB
  0
TABLE
  2
LAYER
 70
     5
  0
LAYER
  2
0
 70
     0
 62
     7
  6
CONTINUOUS
  0
LAYER
  2
図枠
 70
     0
 62
     7
  6
CONTINUOUS
  0
LAYER
  2
ﾚｲﾔ_1
 70
     0
 62
     7
  6
CONTINUOUS
  0
LAYER
  2
寸法線
 70
     0
 62
     7
  6
CONTINUOUS
  0
LAYER
  2
改訂
 70
     0
 62
     7
  6
CONTINUOUS
  0
ENDTAB
  0
TABLE
  2
STYLE
 70
     1
  0
STYLE
  2
STANDARD
 70
     0
 40
0.0
 41
1.0
 50
0.0
 71
     0
 42
0.0
  3
txt
  4
extfont
  0
ENDTAB
  0
TABLE
  2
VIEW
 70
     0
  0
ENDTAB
  0
TABLE
  2
UCS
 70
     0
  0
ENDTAB
  0
TABLE
  2
APPID
 70
     2
  0
APPID
  2
ACAD
 70
     0
  0
APPID
  2
DCO15
 70
     0
  0
ENDTAB
  0
TABLE
  2
DIMSTYLE
 70
     2
  0
DIMSTYLE
  2
STANDARD
 70
     0
  3

  4

  5

  6

  7

 40
1.0
 41
0.18
 42
0.0625
 43
0.38
 44
0.18
 45
0.0
 46
0.0
 47
0.0
 48
0.0
140
0.18
141
0.09
142
0.0
143
25.399999999999999
144
1.0
145
0.0
146
1.0
147
0.09
 71
     0
 72
     0
 73
     1
 74
     1
 75
     0
 76
     0
 77
     0
 78
     0
170
     0
171
     2
172
     0
173
     0
174
     0
175
     0
176
     0
177
     0
178
     0
  0
DIMSTYLE
  2
VELDIM0
 70
     0
  3

  4

  5

  6

  7

 40
1.0
 41
3.0
 42
0.0625
 43
0.38
 44
0.5
 45
0.0
 46
3.0
 47
0.0
 48
0.0
140
2.9986110209999999
141
0.09
142
0.0
143
25.399999999999999
144
1.0
145
0.0
146
1.0
147
0.09
 71
     0
 72
     0
 73
     0
 74
     0
 75
     0
 76
     0
 77
     0
 78
     8
170
     0
171
     2
172
     0
173
     0
174
     0
175
     0
176
     0
177
     0
178
     0
  0
ENDTAB
  0
ENDSEC
  0
SECTION
  2
BLOCKS
  0
BLOCK
  8
0
  2
$MODEL_SPACE
 70
     0
 10
0.0
 20
0.0
 30
0.0
  3
$MODEL_SPACE
  1

  0
ENDBLK
  5
E
  8
0
  0
BLOCK
 67
     1
  8
0
  2
$PAPER_SPACE
 70
     0
 10
0.0
 20
0.0
 30
0.0
  3
$PAPER_SPACE
  1

  0
ENDBLK
  5
10
 67
     1
  8
0
  0
BLOCK
  8
0
  2
*D0
 70
     1
 10
0.0
 20
0.0
 30
0.0
  3
*D0
  1

  0
TEXT
  5
DE
  8
0
 62
     0
 10
910.61099601130002
 20
-185.64881219119999
 30
0.0
 40
2.9986110209999999
  1
35
  0
LINE
  5
DF
  8
0
 62
     0
 10
929.87488484719995
 20
-196.17797884199999
 30
0.0
 11
929.87488484719995
 21
-186.67797884199999
 31
0.0
  0
LINE
  5
E0
  8
0
 62
     0
 10
894.87488484719995
 20
-196.17797884199999
 30
0.0
 11
894.87488484719995
 21
-186.67797884199999
 31
0.0
  0
LINE
  5
E1
  8
0
 62
     0
 10
929.87488484719995
 20
-187.17797884199999
 30
0.0
 11
915.90266251910009
 21
-187.17797884199999
 31
0.0
  0
LINE
  5
E2
  8
0
 62
     0
 10
929.87488484719995
 20
-187.17797884199999
 30
0.0
 11
908.84710717539997
 21
-187.17797884199999
 31
0.0
  0
LINE
  5
E3
  8
0
 62
     0
 10
894.87488484719995
 20
-187.17797884199999
 30
0.0
 11
915.90266251910009
 21
-187.17797884199999
 31
0.0
  0
LINE
  5
E4
  8
0
 62
     0
 10
894.87488484719995
 20
-187.17797884199999
 30
0.0
 11
908.84710717539997
 21
-187.17797884199999
 31
0.0
  0
LINE
  5
E5
  8
0
 62
     0
 10
894.87488484719995
 20
-187.17797884199999
 30
0.0
 11
897.87488484720006
 21
-187.17797884199999
 31
0.0
  0
SOLID
  5
E6
  8
0
 62
     0
 10
894.87488484719995
 20
-187.17797884199999
 30
0.0
 11
897.87488484720006
 21
-186.42797884199999
 31
0.0
 12
897.87488484720006
 22
-187.92797884199999
 32
0.0
 13
897.12488484720006
 23
-187.17797884199999
 33
0.0
  0
LINE
  5
E7
  8
0
 62
     0
 10
929.87488484719995
 20
-187.17797884199999
 30
0.0
 11
926.87488484719995
 21
-187.17797884199999
 31
0.0
  0
SOLID
  5
E8
  8
0
 62
     0
 10
929.87488484719995
 20
-187.17797884199999
 30
0.0
 11
926.87488484719995
 21
-187.92797884199999
 31
0.0
 12
926.87488484719995
 22
-186.42797884199999
 32
0.0
 13
927.62488484719995
 23
-187.17797884199999
 33
0.0
  0
ENDBLK
  5
E9
  8
0
  0
BLOCK
  8
0
  2
*D1
 70
     1
 10
0.0
 20
0.0
 30
0.0
  3
*D1
  1

  0
TEXT
  5
EE
  8
0
 62
     0
 10
948.34571819649989
 20
-204.94186767790001
 30
0.0
 40
2.9986110209999999
  1
16
 50
90.0
  0
LINE
  5
EF
  8
0
 62
     0
 10
940.87488484720006
 20
-211.17797884199999
 30
0.0
 11
950.37488484719995
 21
-211.17797884199999
 31
0.0
  0
LINE
  5
F0
  8
0
 62
     0
 10
940.87488484720006
 20
-195.17797884199999
 30
0.0
 11
950.37488484719995
 21
-195.17797884199999
 31
0.0
  0
LINE
  5
F1
  8
0
 62
     0
 10
949.87488484720006
 20
-211.17797884199999
 30
0.0
 11
949.87488484720006
 21
-199.65020117020001
 31
0.0
  0
LINE
  5
F2
  8
0
 62
     0
 10
949.87488484720006
 20
-211.17797884199999
 30
0.0
 11
949.87488484720006
 21
-206.7057565138
 31
0.0
  0
LINE
  5
F3
  8
0
 62
     0
 10
949.87488484720006
 20
-195.17797884199999
 30
0.0
 11
949.87488484720006
 21
-199.65020117020001
 31
0.0
  0
LINE
  5
F4
  8
0
 62
     0
 10
949.87488484720006
 20
-195.17797884199999
 30
0.0
 11
949.87488484720006
 21
-206.7057565138
 31
0.0
  0
LINE
  5
F5
  8
0
 62
     0
 10
949.87488484720006
 20
-195.17797884199999
 30
0.0
 11
949.87488484720006
 21
-198.17797884199999
 31
0.0
  0
SOLID
  5
F6
  8
0
 62
     0
 10
949.87488484720006
 20
-195.17797884199999
 30
0.0
 11
950.62488484720006
 21
-198.17797884199999
 31
0.0
 12
949.12488484719995
 22
-198.17797884199999
 32
0.0
 13
949.87488484720006
 23
-197.42797884199999
 33
0.0
  0
LINE
  5
F7
  8
0
 62
     0
 10
949.87488484720006
 20
-211.17797884199999
 30
0.0
 11
949.87488484720006
 21
-208.17797884199999
 31
0.0
  0
SOLID
  5
F8
  8
0
 62
     0
 10
949.87488484720006
 20
-211.17797884199999
 30
0.0
 11
949.12488484719995
 21
-208.17797884199999
 31
0.0
 12
950.62488484720006
 22
-208.17797884199999
 32
0.0
 13
949.87488484720006
 23
-208.92797884199999
 33
0.0
  0
ENDBLK
  5
F9
  8
0
  0
BLOCK
  8
0
  2
*D2
 70
     1
 10
0.0
 20
0.0
 30
0.0
  3
*D2
  1

  0
TEXT
  5
FD
  8
0
 62
     0
 10
910.61099601130002
 20
-179.6798854733
 30
0.0
 40
2.9986110209999999
  1
55
  0
LINE
  5
FE
  8
0
 62
     0
 10
939.87488484720006
 20
-194.17797884199999
 30
0.0
 11
939.87488484720006
 21
-180.7090521241
 31
0.0
  0
LINE
  5
FF
  8
0
 62
     0
 10
884.87488484719995
 20
-194.17797884199999
 30
0.0
 11
884.87488484719995
 21
-180.7090521241
 31
0.0
  0
LINE
  5
100
  8
0
 62
     0
 10
939.87488484720006
 20
-181.2090521241
 30
0.0
 11
915.90266251910009
 21
-181.2090521241
 31
0.0
  0
LINE
  5
101
  8
0
 62
     0
 10
939.87488484720006
 20
-181.2090521241
 30
0.0
 11
908.84710717539997
 21
-181.2090521241
 31
0.0
  0
LINE
  5
102
  8
0
 62
     0
 10
884.87488484719995
 20
-181.2090521241
 30
0.0
 11
915.90266251910009
 21
-181.2090521241
 31
0.0
  0
LINE
  5
103
  8
0
 62
     0
 10
884.87488484719995
 20
-181.2090521241
 30
0.0
 11
908.84710717539997
 21
-181.2090521241
 31
0.0
  0
LINE
  5
104
  8
0
 62
     0
 10
884.87488484719995
 20
-181.2090521241
 30
0.0
 11
887.87488484719995
 21
-181.2090521241
 31
0.0
  0
SOLID
  5
105
  8
0
 62
     0
 10
884.87488484719995
 20
-181.2090521241
 30
0.0
 11
887.87488484719995
 21
-180.4590521241
 31
0.0
 12
887.87488484719995
 22
-181.9590521241
 32
0.0
 13
887.12488484720006
 23
-181.2090521241
 33
0.0
  0
LINE
  5
106
  8
0
 62
     0
 10
939.87488484720006
 20
-181.2090521241
 30
0.0
 11
936.87488484719995
 21
-181.2090521241
 31
0.0
  0
SOLID
  5
107
  8
0
 62
     0
 10
939.87488484720006
 20
-181.2090521241
 30
0.0
 11
936.87488484719995
 21
-181.9590521241
 31
0.0
 12
936.87488484719995
 22
-180.4590521241
 32
0.0
 13
937.62488484719995
 23
-181.2090521241
 33
0.0
  0
ENDBLK
  5
108
  8
0
  0
BLOCK
  8
0
  2
*D3
 70
     1
 10
0.0
 20
0.0
 30
0.0
  3
*D3
  1

  0
TEXT
  5
124
  8
0
 62
     0
 10
774.99790670310006
 20
-284.7213192845
 30
0.0
 40
2.9986110209999999
  1
86.5
  0
LINE
  5
125
  8
0
 62
     0
 10
735.27568437499986
 20
-273.64765600210001
 30
0.0
 11
735.27568437499986
 21
-286.7504859352
 31
0.0
  0
LINE
  5
126
  8
0
 62
     0
 10
821.77568437499986
 20
-273.64765581069997
 30
0.0
 11
821.77568437499986
 21
-286.7504859352
 31
0.0
  0
LINE
  5
127
  8
0
 62
     0
 10
735.27568437499986
 20
-286.2504859352
 30
0.0
 11
783.8173508827
 21
-286.2504859352
 31
0.0
  0
LINE
  5
128
  8
0
 62
     0
 10
735.27568437499986
 20
-286.2504859352
 30
0.0
 11
773.23401786720001
 21
-286.2504859352
 31
0.0
  0
LINE
  5
129
  8
0
 62
     0
 10
821.77568437499986
 20
-286.2504859352
 30
0.0
 11
783.8173508827
 21
-286.2504859352
 31
0.0
  0
LINE
  5
12A
  8
0
 62
     0
 10
821.77568437499986
 20
-286.2504859352
 30
0.0
 11
773.23401786720001
 21
-286.2504859352
 31
0.0
  0
LINE
  5
12B
  8
0
 62
     0
 10
821.77568437499986
 20
-286.2504859352
 30
0.0
 11
818.77568437499986
 21
-286.2504859352
 31
0.0
  0
SOLID
  5
12C
  8
0
 62
     0
 10
821.77568437499986
 20
-286.2504859352
 30
0.0
 11
818.77568437499986
 21
-287.0004859352
 31
0.0
 12
818.77568437499986
 22
-285.5004859352
 32
0.0
 13
819.52568437499997
 23
-286.2504859352
 33
0.0
  0
LINE
  5
12D
  8
0
 62
     0
 10
735.27568437499986
 20
-286.2504859352
 30
0.0
 11
738.27568437499997
 21
-286.2504859352
 31
0.0
  0
SOLID
  5
12E
  8
0
 62
     0
 10
735.27568437499986
 20
-286.2504859352
 30
0.0
 11
738.27568437499997
 21
-285.5004859352
 31
0.0
 12
738.27568437499997
 22
-287.0004859352
 32
0.0
 13
737.52568437499986
 23
-286.2504859352
 33
0.0
  0
ENDBLK
  5
12F
  8
0
  0
BLOCK
  8
0
  2
*D4
 70
     1
 10
0.0
 20
0.0
 30
0.0
  3
*D4
  1

  0
TEXT
  5
133
  8
0
 62
     0
 10
723.74651772419998
 20
-272.52960035900003
 30
0.0
 40
2.9986110209999999
  1
2
 50
90.0
  0
LINE
  5
134
  8
0
 62
     0
 10
734.77568455839992
 20
-270.64765588009999
 30
0.0
 11
724.77568437499986
 21
-270.64765588009999
 31
0.0
  0
LINE
  5
135
  8
0
 62
     0
 10
734.27568437499997
 20
-272.64765600210001
 30
0.0
 11
724.77568437499986
 21
-272.64765600210001
 31
0.0
  0
LINE
  5
136
  8
0
 62
     0
 10
725.27568437499986
 20
-270.64765588009999
 30
0.0
 11
725.27568437499986
 21
-270.64765588009999
 31
0.0
  0
LINE
  5
137
  8
0
 62
     0
 10
725.27568437499986
 20
-270.64765588009999
 30
0.0
 11
725.27568437499986
 21
-272.64765600210001
 31
0.0
  0
LINE
  5
138
  8
0
 62
     0
 10
725.27568437499986
 20
-272.64765600210001
 30
0.0
 11
725.27568437499986
 21
-270.64765588009999
 31
0.0
  0
LINE
  5
139
  8
0
 62
     0
 10
725.27568437499986
 20
-272.64765600210001
 30
0.0
 11
725.27568437499986
 21
-272.64765600210001
 31
0.0
  0
LINE
  5
13A
  8
0
 62
     0
 10
725.27568437499986
 20
-272.64765600210001
 30
0.0
 11
725.27568437499986
 21
-275.64765600210001
 31
0.0
  0
SOLID
  5
13B
  8
0
 62
     0
 10
725.27568437499986
 20
-272.64765600210001
 30
0.0
 11
726.02568437499986
 21
-275.64765600210001
 31
0.0
 12
724.52568437499997
 22
-275.64765600210001
 32
0.0
 13
725.27568437499986
 23
-274.89765600210001
 33
0.0
  0
LINE
  5
13C
  8
0
 62
     0
 10
725.27568437499986
 20
-270.64765588009999
 30
0.0
 11
725.27568437499986
 21
-267.64765588009999
 31
0.0
  0
SOLID
  5
13D
  8
0
 62
     0
 10
725.27568437499986
 20
-270.64765588009999
 30
0.0
 11
724.52568437499997
 21
-267.64765588009999
 31
0.0
 12
726.02568437499986
 22
-267.64765588009999
 32
0.0
 13
725.27568437499986
 23
-268.39765588009999
 33
0.0
  0
ENDBLK
  5
13E
  8
0
  0
BLOCK
  8
0
  2
*D5
 70
     1
 10
0.0
 20
0.0
 30
0.0
  3
*D5
  1

  0
TEXT
  5
142
  8
0
 62
     0
 10
776.7617953578
 20
-243.8162328894
 30
0.0
 40
2.9986110209999999
  1
30
  0
LINE
  5
143
  8
0
 62
     0
 10
793.52568457639995
 20
-252.14765598549999
 30
0.0
 11
793.52568457639995
 21
-244.84539954019999
 31
0.0
  0
LINE
  5
144
  8
0
 62
     0
 10
763.52568381089998
 20
-252.14765649890001
 30
0.0
 11
763.52568381089998
 21
-244.84539954019999
 31
0.0
  0
LINE
  5
145
  8
0
 62
     0
 10
793.52568457639995
 20
-245.34539954019999
 30
0.0
 11
782.05346186550003
 21
-245.34539954019999
 31
0.0
  0
LINE
  5
146
  8
0
 62
     0
 10
793.52568457639995
 20
-245.34539954019999
 30
0.0
 11
774.99790652189995
 21
-245.34539954019999
 31
0.0
  0
LINE
  5
147
  8
0
 62
     0
 10
763.52568381089998
 20
-245.34539954019999
 30
0.0
 11
782.05346186550003
 21
-245.34539954019999
 31
0.0
  0
LINE
  5
148
  8
0
 62
     0
 10
763.52568381089998
 20
-245.34539954019999
 30
0.0
 11
774.99790652189995
 21
-245.34539954019999
 31
0.0
  0
LINE
  5
149
  8
0
 62
     0
 10
763.52568381089998
 20
-245.34539954019999
 30
0.0
 11
766.52568381089998
 21
-245.34539954019999
 31
0.0
  0
SOLID
  5
14A
  8
0
 62
     0
 10
763.52568381089998
 20
-245.34539954019999
 30
0.0
 11
766.52568381089998
 21
-244.59539954019999
 31
0.0
 12
766.52568381089998
 22
-246.09539954019999
 32
0.0
 13
765.77568381089986
 23
-245.34539954019999
 33
0.0
  0
LINE
  5
14B
  8
0
 62
     0
 10
793.52568457639995
 20
-245.34539954019999
 30
0.0
 11
790.52568457639995
 21
-245.34539954019999
 31
0.0
  0
SOLID
  5
14C
  8
0
 62
     0
 10
793.52568457639995
 20
-245.34539954019999
 30
0.0
 11
790.52568457639995
 21
-246.09539954019999
 31
0.0
 12
790.52568457639995
 22
-244.59539954019999
 32
0.0
 13
791.27568457639995
 23
-245.34539954019999
 33
0.0
  0
ENDBLK
  5
14D
  8
0
  0
BLOCK
  8
0
  2
*D6
 70
     1
 10
0.0
 20
0.0
 30
0.0
  3
*D6
  1

  0
TEXT
  5
151
  8
0
 62
     0
 10
776.76179547059996
 20
-237.17830376719999
 30
0.0
 40
2.9986110209999999
  1
65
  0
LINE
  5
152
  8
0
 62
     0
 10
811.02568430649978
 20
-257.14765596479998
 30
0.0
 11
811.02568430649978
 21
-238.20747041800001
 31
0.0
  0
LINE
  5
153
  8
0
 62
     0
 10
746.0256843064999
 20
-257.14765704849998
 30
0.0
 11
746.0256843064999
 21
-238.20747041800001
 31
0.0
  0
LINE
  5
154
  8
0
 62
     0
 10
811.02568430649978
 20
-238.70747041800001
 30
0.0
 11
782.05346197829999
 21
-238.70747041800001
 31
0.0
  0
LINE
  5
155
  8
0
 62
     0
 10
811.02568430649978
 20
-238.70747041800001
 30
0.0
 11
774.99790663470003
 21
-238.70747041800001
 31
0.0
  0
LINE
  5
156
  8
0
 62
     0
 10
746.0256843064999
 20
-238.70747041800001
 30
0.0
 11
782.05346197829999
 21
-238.70747041800001
 31
0.0
  0
LINE
  5
157
  8
0
 62
     0
 10
746.0256843064999
 20
-238.70747041800001
 30
0.0
 11
774.99790663470003
 21
-238.70747041800001
 31
0.0
  0
LINE
  5
158
  8
0
 62
     0
 10
746.0256843064999
 20
-238.70747041800001
 30
0.0
 11
749.02568430649978
 21
-238.70747041800001
 31
0.0
  0
SOLID
  5
159
  8
0
 62
     0
 10
746.0256843064999
 20
-238.70747041800001
 30
0.0
 11
749.02568430649978
 21
-237.95747041800001
 31
0.0
 12
749.02568430649978
 22
-239.45747041800001
 32
0.0
 13
748.2756843064999
 23
-238.70747041800001
 33
0.0
  0
LINE
  5
15A
  8
0
 62
     0
 10
811.02568430649978
 20
-238.70747041800001
 30
0.0
 11
808.0256843064999
 21
-238.70747041800001
 31
0.0
  0
SOLID
  5
15B
  8
0
 62
     0
 10
811.02568430649978
 20
-238.70747041800001
 30
0.0
 11
808.0256843064999
 21
-239.45747041800001
 31
0.0
 12
808.0256843064999
 22
-237.95747041800001
 32
0.0
 13
808.7756843064999
 23
-238.70747041800001
 33
0.0
  0
ENDBLK
  5
15C
  8
0
  0
BLOCK
  8
0
  2
*D7
 70
     1
 10
0.0
 20
0.0
 30
0.0
  3
*D7
  1

  0
TEXT
  5
160
  8
0
 62
     0
 10
830.24651772419998
 20
-268.42543356189998
 30
0.0
 40
2.9986110209999999
  1
15.5
 50
90.0
  0
LINE
  5
161
  8
0
 62
     0
 10
822.77568437499986
 20
-272.64765581069997
 30
0.0
 11
832.27568437499986
 21
-272.64765581069997
 31
0.0
  0
LINE
  5
162
  8
0
 62
     0
 10
811.02568430649978
 20
-257.14765596939998
 30
0.0
 11
832.27568437499986
 21
-257.14765596939998
 31
0.0
  0
LINE
  5
163
  8
0
 62
     0
 10
831.77568437499997
 20
-272.64765581069997
 30
0.0
 11
831.77568437499997
 21
-259.60598938229998
 31
0.0
  0
LINE
  5
164
  8
0
 62
     0
 10
831.77568437499997
 20
-272.64765581069997
 30
0.0
 11
831.77568437499997
 21
-270.18932239780003
 31
0.0
  0
LINE
  5
165
  8
0
 62
     0
 10
831.77568437499997
 20
-257.14765596939998
 30
0.0
 11
831.77568437499997
 21
-259.60598938229998
 31
0.0
  0
LINE
  5
166
  8
0
 62
     0
 10
831.77568437499997
 20
-257.14765596939998
 30
0.0
 11
831.77568437499997
 21
-270.18932239780003
 31
0.0
  0
LINE
  5
167
  8
0
 62
     0
 10
831.77568437499997
 20
-257.14765596939998
 30
0.0
 11
831.77568437499997
 21
-254.14765596940001
 31
0.0
  0
SOLID
  5
168
  8
0
 62
     0
 10
831.77568437499997
 20
-257.14765596939998
 30
0.0
 11
831.02568437499997
 21
-254.14765596940001
 31
0.0
 12
832.52568437499986
 22
-254.14765596940001
 32
0.0
 13
831.77568437499997
 23
-254.89765596940001
 33
0.0
  0
LINE
  5
169
  8
0
 62
     0
 10
831.77568437499997
 20
-272.64765581069997
 30
0.0
 11
831.77568437499997
 21
-275.64765581069997
 31
0.0
  0
SOLID
  5
16A
  8
0
 62
     0
 10
831.77568437499997
 20
-272.64765581069997
 30
0.0
 11
832.52568437499986
 21
-275.64765581069997
 31
0.0
 12
831.02568437499997
 22
-275.64765581069997
 32
0.0
 13
831.77568437499997
 23
-274.89765581069997
 33
0.0
  0
ENDBLK
  5
16B
  8
0
  0
BLOCK
  8
0
  2
*D8
 70
     1
 10
0.0
 20
0.0
 30
0.0
  3
*D8
  1

  0
TEXT
  5
16F
  8
0
 62
     0
 10
856.71359535779993
 20
-245.61848932160001
 30
0.0
 40
2.9986110209999999
  1
(3)
  0
LINE
  5
170
  8
0
 62
     0
 10
867.87603198959994
 20
-256.1476559724
 30
0.0
 11
867.87603198959994
 21
-246.6476559724
 31
0.0
  0
LINE
  5
171
  8
0
 62
     0
 10
865.37603208149994
 20
-258.6476559724
 30
0.0
 11
865.37603208149994
 21
-246.6476559724
 31
0.0
  0
LINE
  5
172
  8
0
 62
     0
 10
867.87603198959994
 20
-247.1476559724
 30
0.0
 11
863.76915070140001
 21
-247.1476559724
 31
0.0
  0
LINE
  5
173
  8
0
 62
     0
 10
867.87603198959994
 20
-247.1476559724
 30
0.0
 11
854.9497065219
 21
-247.1476559724
 31
0.0
  0
LINE
  5
174
  8
0
 62
     0
 10
865.37603208149994
 20
-247.1476559724
 30
0.0
 11
863.76915070140001
 21
-247.1476559724
 31
0.0
  0
LINE
  5
175
  8
0
 62
     0
 10
865.37603208149994
 20
-247.1476559724
 30
0.0
 11
854.9497065219
 21
-247.1476559724
 31
0.0
  0
LINE
  5
176
  8
0
 62
     0
 10
865.37603208149994
 20
-247.1476559724
 30
0.0
 11
862.37603208149994
 21
-247.1476559724
 31
0.0
  0
SOLID
  5
177
  8
0
 62
     0
 10
865.37603208149994
 20
-247.1476559724
 30
0.0
 11
862.37603208149994
 21
-247.8976559724
 31
0.0
 12
862.37603208149994
 22
-246.3976559724
 32
0.0
 13
863.12603208149994
 23
-247.1476559724
 33
0.0
  0
LINE
  5
178
  8
0
 62
     0
 10
867.87603198959994
 20
-247.1476559724
 30
0.0
 11
870.87603198960005
 21
-247.1476559724
 31
0.0
  0
SOLID
  5
179
  8
0
 62
     0
 10
867.87603198959994
 20
-247.1476559724
 30
0.0
 11
870.87603198960005
 21
-246.3976559724
 31
0.0
 12
870.87603198960005
 22
-247.8976559724
 32
0.0
 13
870.12603198960005
 23
-247.1476559724
 33
0.0
  0
ENDBLK
  5
17A
  8
0
  0
BLOCK
  8
0
  2
*D9
 70
     1
 10
0.0
 20
0.0
 30
0.0
  3
*D9
  1

  0
TEXT
  5
17E
  8
0
 62
     0
 10
878.1121431537
 20
-245.61848921660001
 30
0.0
 40
2.9986110209999999
  1
24
  0
LINE
  5
17F
  8
0
 62
     0
 10
891.87603198960005
 20
-256.14765586729999
 30
0.0
 11
891.87603198960005
 21
-246.64765586729999
 31
0.0
  0
LINE
  5
180
  8
0
 62
     0
 10
867.87603198959994
 20
-256.1476559724
 30
0.0
 11
867.87603198959994
 21
-246.64765586729999
 31
0.0
  0
LINE
  5
181
  8
0
 62
     0
 10
891.87603198960005
 20
-247.14765586729999
 30
0.0
 11
883.40380966139992
 21
-247.14765586729999
 31
0.0
  0
LINE
  5
182
  8
0
 62
     0
 10
891.87603198960005
 20
-247.14765586729999
 30
0.0
 11
876.34825431779996
 21
-247.14765586729999
 31
0.0
  0
LINE
  5
183
  8
0
 62
     0
 10
867.87603198959994
 20
-247.14765586729999
 30
0.0
 11
883.40380966139992
 21
-247.14765586729999
 31
0.0
  0
LINE
  5
184
  8
0
 62
     0
 10
867.87603198959994
 20
-247.14765586729999
 30
0.0
 11
876.34825431779996
 21
-247.14765586729999
 31
0.0
  0
LINE
  5
185
  8
0
 62
     0
 10
867.87603198959994
 20
-247.14765586729999
 30
0.0
 11
870.87603198960005
 21
-247.14765586729999
 31
0.0
  0
SOLID
  5
186
  8
0
 62
     0
 10
867.87603198959994
 20
-247.14765586729999
 30
0.0
 11
870.87603198960005
 21
-246.39765586729999
 31
0.0
 12
870.87603198960005
 22
-247.89765586729999
 32
0.0
 13
870.12603198960005
 23
-247.14765586729999
 33
0.0
  0
LINE
  5
187
  8
0
 62
     0
 10
891.87603198960005
 20
-247.14765586729999
 30
0.0
 11
888.87603198960005
 21
-247.14765586729999
 31
0.0
  0
SOLID
  5
188
  8
0
 62
     0
 10
891.87603198960005
 20
-247.14765586729999
 30
0.0
 11
888.87603198960005
 21
-247.89765586729999
 31
0.0
 12
888.87603198960005
 22
-246.39765586729999
 32
0.0
 13
889.62603198960005
 23
-247.14765586729999
 33
0.0
  0
ENDBLK
  5
189
  8
0
  0
BLOCK
  8
0
  2
*D10
 70
     1
 10
0.0
 20
0.0
 30
0.0
  3
*D10
  1

  0
TEXT
  5
1BB
  8
0
 62
     0
 10
777.01233932229979
 20
-158.56591504470001
 30
0.0
 40
2.9986110209999999
  1
75
  0
LINE
  5
1BC
  8
0
 62
     0
 10
816.0256843704999
 20
-177.6088804128
 30
0.0
 11
816.0256843704999
 21
-159.5950816955
 31
0.0
  0
LINE
  5
1BD
  8
0
 62
     0
 10
741.02568437050002
 20
-177.60888121939999
 30
0.0
 11
741.02568437050002
 21
-159.5950816955
 31
0.0
  0
LINE
  5
1BE
  8
0
 62
     0
 10
816.0256843704999
 20
-160.0950816955
 30
0.0
 11
782.30400583009998
 21
-160.0950816955
 31
0.0
  0
LINE
  5
1BF
  8
0
 62
     0
 10
816.0256843704999
 20
-160.0950816955
 30
0.0
 11
775.24845048639997
 21
-160.0950816955
 31
0.0
  0
LINE
  5
1C0
  8
0
 62
     0
 10
741.02568437050002
 20
-160.0950816955
 30
0.0
 11
782.30400583009998
 21
-160.0950816955
 31
0.0
  0
LINE
  5
1C1
  8
0
 62
     0
 10
741.02568437050002
 20
-160.0950816955
 30
0.0
 11
775.24845048639997
 21
-160.0950816955
 31
0.0
  0
LINE
  5
1C2
  8
0
 62
     0
 10
741.02568437050002
 20
-160.0950816955
 30
0.0
 11
744.02568437050002
 21
-160.0950816955
 31
0.0
  0
SOLID
  5
1C3
  8
0
 62
     0
 10
741.02568437050002
 20
-160.0950816955
 30
0.0
 11
744.02568437050002
 21
-159.3450816955
 31
0.0
 12
744.02568437050002
 22
-160.8450816955
 32
0.0
 13
743.27568437050002
 23
-160.0950816955
 33
0.0
  0
LINE
  5
1C4
  8
0
 62
     0
 10
816.0256843704999
 20
-160.0950816955
 30
0.0
 11
813.02568437050002
 21
-160.0950816955
 31
0.0
  0
SOLID
  5
1C5
  8
0
 62
     0
 10
816.0256843704999
 20
-160.0950816955
 30
0.0
 11
813.02568437050002
 21
-160.8450816955
 31
0.0
 12
813.02568437050002
 22
-159.3450816955
 32
0.0
 13
813.77568437050002
 23
-160.0950816955
 33
0.0
  0
ENDBLK
  5
1C6
  8
0
  0
BLOCK
  8
0
  2
*D11
 70
     1
 10
0.0
 20
0.0
 30
0.0
  3
*D11
  1

  0
TEXT
  5
1CA
  8
0
 62
     0
 10
820.71620964110002
 20
-165.1234313846
 30
0.0
 40
2.9986110209999999
  1
3.5
  0
LINE
  5
1CB
  8
0
 62
     0
 10
817.78328608569996
 20
-180.2302001422
 30
0.0
 11
817.78328608569996
 21
-166.15259803539999
 31
0.0
  0
LINE
  5
1CC
  8
0
 62
     0
 10
814.28328608569996
 20
-180.23020024729999
 30
0.0
 11
814.28328608569996
 21
-166.15259803539999
 31
0.0
  0
LINE
  5
1CD
  8
0
 62
     0
 10
817.78328608569996
 20
-166.65259803539999
 30
0.0
 11
827.77176498469998
 21
-166.65259803539999
 31
0.0
  0
LINE
  5
1CE
  8
0
 62
     0
 10
817.78328608569996
 20
-166.65259803539999
 30
0.0
 11
818.95232080520009
 21
-166.65259803539999
 31
0.0
  0
LINE
  5
1CF
  8
0
 62
     0
 10
814.28328608569996
 20
-166.65259803539999
 30
0.0
 11
827.77176498469998
 21
-166.65259803539999
 31
0.0
  0
LINE
  5
1D0
  8
0
 62
     0
 10
814.28328608569996
 20
-166.65259803539999
 30
0.0
 11
818.95232080520009
 21
-166.65259803539999
 31
0.0
  0
LINE
  5
1D1
  8
0
 62
     0
 10
814.28328608569996
 20
-166.65259803539999
 30
0.0
 11
811.28328608569996
 21
-166.65259803539999
 31
0.0
  0
SOLID
  5
1D2
  8
0
 62
     0
 10
814.28328608569996
 20
-166.65259803539999
 30
0.0
 11
811.28328608569996
 21
-167.40259803539999
 31
0.0
 12
811.28328608569996
 22
-165.90259803539999
 32
0.0
 13
812.03328608570007
 23
-166.65259803539999
 33
0.0
  0
LINE
  5
1D3
  8
0
 62
     0
 10
817.78328608569996
 20
-166.65259803539999
 30
0.0
 11
820.78328608570007
 21
-166.65259803539999
 31
0.0
  0
SOLID
  5
1D4
  8
0
 62
     0
 10
817.78328608569996
 20
-166.65259803539999
 30
0.0
 11
820.78328608570007
 21
-165.90259803539999
 31
0.0
 12
820.78328608570007
 22
-167.40259803539999
 32
0.0
 13
820.03328608570007
 23
-166.65259803539999
 33
0.0
  0
ENDBLK
  5
1D5
  8
0
  0
BLOCK
  8
0
  2
*D12
 70
     1
 10
0.0
 20
0.0
 30
0.0
  3
*D12
  1

  0
TEXT
  5
1D9
  8
0
 62
     0
 10
830.50232559630001
 20
-184.99082483070001
 30
0.0
 40
2.9986110209999999
  1
8
 50
90.0
  0
LINE
  5
1DA
  8
0
 62
     0
 10
817.02568437050013
 20
-188.1088804128
 30
0.0
 11
832.53149224710012
 21
-188.1088804128
 31
0.0
  0
LINE
  5
1DB
  8
0
 62
     0
 10
817.02568437050013
 20
-180.10888041279989
 30
0.0
 11
832.53149224710012
 21
-180.10888041279989
 31
0.0
  0
LINE
  5
1DC
  8
0
 62
     0
 10
832.0314922471
 20
-188.1088804128
 30
0.0
 11
832.0314922471
 21
-181.4630471589
 31
0.0
  0
LINE
  5
1DD
  8
0
 62
     0
 10
832.0314922471
 20
-188.1088804128
 30
0.0
 11
832.0314922471
 21
-186.7547136666
 31
0.0
  0
LINE
  5
1DE
  8
0
 62
     0
 10
832.0314922471
 20
-180.10888041279989
 30
0.0
 11
832.0314922471
 21
-181.4630471589
 31
0.0
  0
LINE
  5
1DF
  8
0
 62
     0
 10
832.0314922471
 20
-180.10888041279989
 30
0.0
 11
832.0314922471
 21
-186.7547136666
 31
0.0
  0
LINE
  5
1E0
  8
0
 62
     0
 10
832.0314922471
 20
-180.10888041279989
 30
0.0
 11
832.0314922471
 21
-177.10888041279989
 31
0.0
  0
SOLID
  5
1E1
  8
0
 62
     0
 10
832.0314922471
 20
-180.10888041279989
 30
0.0
 11
831.28149224710023
 21
-177.10888041279989
 31
0.0
 12
832.7814922471
 22
-177.10888041279989
 32
0.0
 13
832.0314922471
 23
-177.85888041279989
 33
0.0
  0
LINE
  5
1E2
  8
0
 62
     0
 10
832.0314922471
 20
-188.1088804128
 30
0.0
 11
832.0314922471
 21
-191.1088804128
 31
0.0
  0
SOLID
  5
1E3
  8
0
 62
     0
 10
832.0314922471
 20
-188.1088804128
 30
0.0
 11
832.7814922471
 21
-191.1088804128
 31
0.0
 12
831.28149224710023
 22
-191.1088804128
 32
0.0
 13
832.0314922471
 23
-190.35888041279989
 33
0.0
  0
ENDBLK
  5
1E4
  8
0
  0
BLOCK
  8
0
  2
*U13
 70
     1
 10
0.0
 20
0.0
 30
0.0
  3
*U13
  1

  0
TEXT
  5
227
  8
ﾚｲﾔ_1
  6
CONTINUOUS
 10
858.18669161079993
 20
-283.40231735246908
 30
0.0
 40
3.5983331442000002
  1
（アルミ大）
  0
ENDBLK
  5
229
  8
0
  0
BLOCK
  8
0
  2
*U14
 70
     1
 10
0.0
 20
0.0
 30
0.0
  3
*U14
  1

  0
TEXT
  5
22B
  8
ﾚｲﾔ_1
  6
CONTINUOUS
 10
858.18669161079993
 20
-288.45312987073811
 30
0.0
 40
3.5983331442000002
  1
色：ゴールドメッキ
  0
ENDBLK
  5
22D
  8
0
  0
BLOCK
  8
0
  2
*U15
 70
     1
 10
0.0
 20
0.0
 30
0.0
  3
*U15
  1

  0
TEXT
  5
22F
  8
図枠
  6
CONTINUOUS
 10
885.62142587873461
 20
-297.4000505968001
 30
0.0
 40
2.337266249999999
  1
1：1
  0
ENDBLK
  5
231
  8
0
  0
BLOCK
  8
0
  2
*U16
 70
     1
 10
0.0
 20
0.0
 30
0.0
  3
*U16
  1

  0
TEXT
  5
233
  8
図枠
  6
CONTINUOUS
 10
873.89287169408965
 20
-306.04157214502339
 30
0.0
 40
2.337266249999999
  1
岸 本
  0
ENDBLK
  5
235
  8
0
  0
BLOCK
  8
0
  2
*U17
 70
     1
 10
0.0
 20
0.0
 30
0.0
  3
*U17
  1

  0
TEXT
  5
237
  8
図枠
  6
CONTINUOUS
 10
873.1928782486583
 20
-301.78013284933809
 30
0.0
 40
2.337266249999999
  1
白須賀
  0
ENDBLK
  5
239
  8
0
  0
BLOCK
  8
0
  2
*U18
 70
     1
 10
0.0
 20
0.0
 30
0.0
  3
*U18
  1

  0
TEXT
  5
23B
  8
図枠
  6
CONTINUOUS
 10
888.51038187810013
 20
-306.02970784933808
 30
0.0
 40
2.337266249999999
  1
 検図
  0
ENDBLK
  5
23D
  8
0
  0
BLOCK
  8
0
  2
*U19
 70
     1
 10
0.0
 20
0.0
 30
0.0
  3
*U19
  1

  0
TEXT
  5
23F
  8
図枠
  6
CONTINUOUS
 10
939.13878068354256
 20
-304.15083856711419
 30
0.0
 40
2.9983111599000001
  1
Ｂ－１ 承認図
  0
ENDBLK
  5
241
  8
0
  0
BLOCK
  8
0
  2
*U20
 70
     1
 10
0.0
 20
0.0
 30
0.0
  3
*U20
  1

  0
TEXT
  5
243
  8
図枠
  6
CONTINUOUS
 10
863.58276702086664
 20
-293.19793277954108
 30
0.0
 40
2.337266249999999
  1
日 　付
  0
ENDBLK
  5
245
  8
0
  0
BLOCK
  8
0
  2
*U21
 70
     1
 10
0.0
 20
0.0
 30
0.0
  3
*U21
  1

  0
TEXT
  5
247
  8
図枠
  6
CONTINUOUS
 10
888.51038187810013
 20
-301.75640425796752
 30
0.0
 40
2.337266249999999
  1
 照査
  0
ENDBLK
  5
249
  8
0
  0
BLOCK
  8
0
  2
*U22
 70
     1
 10
0.0
 20
0.0
 30
0.0
  3
*U22
  1

  0
TEXT
  5
24B
  8
図枠
  6
CONTINUOUS
 10
918.78492391807458
 20
-310.01444851691173
 30
0.0
 40
2.337266249999999
  1
図　番
  0
ENDBLK
  5
24D
  8
0
  0
BLOCK
  8
0
  2
*U23
 70
     1
 10
0.0
 20
0.0
 30
0.0
  3
*U23
  1

  0
TEXT
  5
24F
  8
図枠
  6
CONTINUOUS
 10
862.73351354750002
 20
-313.39119136700663
 30
0.0
 40
4.3175681352000002
  1
株式会社
  0
ENDBLK
  5
251
  8
0
  0
BLOCK
  8
0
  2
*U24
 70
     1
 10
0.0
 20
0.0
 30
0.0
  3
*U24
  1

  0
TEXT
  5
253
  8
図枠
  6
CONTINUOUS
 10
881.13425730536267
 20
-129.31977228799539
 30
0.0
 40
2.698480084499999
  1
副番
  0
ENDBLK
  5
255
  8
0
  0
BLOCK
  8
0
  2
*U25
 70
     1
 10
0.0
 20
0.0
 30
0.0
  3
*U25
  1

  0
TEXT
  5
257
  8
図枠
  6
CONTINUOUS
 10
954.50355989412787
 20
-129.37456376179239
 30
0.0
 40
2.698480084499999
  1
改訂者
  0
ENDBLK
  5
259
  8
0
  0
BLOCK
  8
0
  2
*U26
 70
     1
 10
0.0
 20
0.0
 30
0.0
  3
*U26
  1

  0
TEXT
  5
25B
  8
図枠
  6
CONTINUOUS
 10
964.46146628878023
 20
-129.3882616302416
 30
0.0
 40
2.698480084499999
  1
検認者
  0
ENDBLK
  5
25D
  8
0
  0
BLOCK
  8
0
  2
*U27
 70
     1
 10
0.0
 20
0.0
 30
0.0
  3
*U27
  1

  0
TEXT
  5
25F
  8
図枠
  6
CONTINUOUS
 10
903.90173598977503
 20
-305.95852207522643
 30
0.0
 40
2.337266249999999
  1
園 原
  0
ENDBLK
  5
261
  8
0
  0
BLOCK
  8
0
  2
*U28
 70
     1
 10
0.0
 20
0.0
 30
0.0
  3
*U28
  1

  0
TEXT
  5
263
  8
図枠
  6
CONTINUOUS
 10
903.90173598977503
 20
-301.70894707522638
 30
0.0
 40
2.337266249999999
  1
園 原
  0
ENDBLK
  5
265
  8
0
  0
BLOCK
  8
0
  2
*U29
 70
     1
 10
0.0
 20
0.0
 30
0.0
  3
*U29
  1

  0
TEXT
  5
267
  8
図枠
  6
CONTINUOUS
 10
891.36603227541093
 20
-129.3471680248939
 30
0.0
 40
2.698480084499999
  1
改訂日
  0
ENDBLK
  5
269
  8
0
  0
BLOCK
  8
0
  2
*U30
 70
     1
 10
0.0
 20
0.0
 30
0.0
  3
*U30
  1

  0
TEXT
  5
26B
  8
図枠
  6
CONTINUOUS
 10
918.73153458749096
 20
-293.06360569965273
 30
0.0
 40
2.337266249999999
  1
製品名
  0
ENDBLK
  5
26D
  8
0
  0
BLOCK
  8
0
  2
*U31
 70
     1
 10
0.0
 20
0.0
 30
0.0
  3
*U31
  1

  0
TEXT
  5
26F
  8
図枠
  6
CONTINUOUS
 10
858.51338187809995
 20
-301.74453996228232
 30
0.0
 40
2.337266249999999
  1
 設計
  0
ENDBLK
  5
271
  8
0
  0
BLOCK
  8
0
  2
*U32
 70
     1
 10
0.0
 20
0.0
 30
0.0
  3
*U32
  1

  0
TEXT
  5
273
  8
図枠
  6
CONTINUOUS
 10
917.43845977432068
 20
-129.37456376179239
 30
0.0
 40
2.698480084499999
  1
改　訂　内　容
  0
ENDBLK
  5
275
  8
0
  0
BLOCK
  8
0
  2
*U33
 70
     1
 10
0.0
 20
0.0
 30
0.0
  3
*U33
  1

  0
TEXT
  5
277
  8
図枠
  6
CONTINUOUS
 10
883.33161681147567
 20
-293.26911855365279
 30
0.0
 40
2.337266249999999
  1
尺 　度
  0
ENDBLK
  5
279
  8
0
  0
BLOCK
  8
0
  2
*U34
 70
     1
 10
0.0
 20
0.0
 30
0.0
  3
*U34
  1

  0
TEXT
  5
27B
  8
図枠
  6
CONTINUOUS
 10
864.69801081528283
 20
-297.4000505968001
 30
0.0
 40
2.337266249999999
  1
H16.4
  0
ENDBLK
  5
27D
  8
0
  0
BLOCK
  8
0
  2
*U35
 70
     1
 10
0.0
 20
0.0
 30
0.0
  3
*U35
  1

  0
TEXT
  5
27F
  8
ﾚｲﾔ_1
  6
CONTINUOUS
 10
941.53129733560002
 20
-174.9934759983812
 30
0.0
 40
2.9986110209999999
  1
皿ビス用皿穴
  0
ENDBLK
  5
281
  8
0
  0
BLOCK
  8
0
  2
*U36
 70
     1
 10
0.0
 20
0.0
 30
0.0
  3
*U36
  1

  0
TEXT
  5
283
  8
ﾚｲﾔ_1
  6
CONTINUOUS
 10
878.50229459800005
 20
-173.33285774575231
 30
0.0
 40
2.9986110209999999
  1
受板
  0
ENDBLK
  5
285
  8
0
  0
BLOCK
  8
0
  2
*U37
 70
     1
 10
0.0
 20
0.0
 30
0.0
  3
*U37
  1

  0
TEXT
  5
287
  8
図枠
  6
CONTINUOUS
 10
918.79678821375978
 20
-301.5390271082822
 30
0.0
 40
2.337266249999999
  1
図面名
  0
ENDBLK
  5
289
  8
0
  0
BLOCK
  8
0
  2
*U38
 70
     1
 10
0.0
 20
0.0
 30
0.0
  3
*U38
  1

  0
TEXT
  5
28B
  8
図枠
  6
CONTINUOUS
 10
941.5130778456969
 20
-293.83292548822487
 30
0.0
 40
2.9983111599000001
  1
ねじ止め式
  0
TEXT
  5
28C
  8
図枠
  6
CONTINUOUS
 10
926.01926687727973
 20
-299.13450782679593
 30
0.0
 40
2.9983111599000001
  1
マグネットキャッチ〈角型〉
  0
ENDBLK
  5
28E
  8
0
  0
BLOCK
  8
0
  2
*U39
 70
     1
 10
0.0
 20
0.0
 30
0.0
  3
*U39
  1

  0
TEXT
  5
290
  8
図枠
  6
CONTINUOUS
 10
935.81324267116622
 20
-312.58910915270002
 30
0.0
 40
2.9983111599000001
  1
ＳＦＣ０００１４
  0
ENDBLK
  5
292
  8
0
  0
BLOCK
  8
0
  2
*U40
 70
     1
 10
0.0
 20
0.0
 30
0.0
  3
*U40
  1

  0
TEXT
  5
294
  8
図枠
  6
CONTINUOUS
 10
859.91470112302375
 20
-306.01784355365282
 30
0.0
 40
2.337266249999999
  1
製図
  0
ENDBLK
  5
296
  8
0
  0
BLOCK
  8
0
  2
*U41
 70
     1
 10
0.0
 20
0.0
 30
0.0
  3
*U41
  1

  0
TEXT
  5
298
  8
ﾚｲﾔ_1
  6
CONTINUOUS
 10
958.12488484719995
 20
-204.3541241353
 30
0.0
 40
2.9986110209999999
  1
ｔ1.5
  0
ENDBLK
  5
29A
  8
0
  0
ENDSEC
  0
SECTION
  2
ENTITIES
  0
LINE
  5
2F
  8
図枠
 10
901.83473552389989
 20
-310.33527337829997
 30
0.0
 11
901.38223243879997
 21
-310.78777646340001
 31
0.0
  0
CIRCLE
  5
30
  8
図枠
 10
904.57277547809986
 20
-294.3573214928
 30
0.0
 40
2.303769599999999
  0
LINE
  5
31
  8
図枠
 10
905.03441552389995
 20
-309.67765093320003
 30
0.0
 11
905.83433552389988
 21
-308.47777093320002
 31
0.0
  0
LINE
  5
32
  8
図枠
  6
BORDER
 10
904.57277547809986
 20
-290.90166709279998
 30
0.0
 11
904.57277547809986
 21
-297.81297589280001
 31
0.0
  0
LINE
  5
33
  8
図枠
 10
907.60814424390014
 20
-311.91742693319998
 30
0.0
 11
910.21695000390002
 21
-311.91742693319998
 31
0.0
  0
POLYLINE
  8
図枠
  5
29B
  66
     1
 10
0.000000
 20
0.000000
 30
0.000000
  70
     8
  0
VERTEX
  8
図枠
  5
29C
 10
901.382
 20
-310.788
 30
0.000000
  70
    32
  0
VERTEX
  8
図枠
  5
29D
 10
901.388
 20
-310.794
 30
0.000000
  70
    32
  0
VERTEX
  8
図枠
  5
29E
 10
901.393
 20
-310.800
 30
0.000000
  70
    32
  0
VERTEX
  8
図枠
  5
29F
 10
901.398
 20
-310.805
 30
0.000000
  70
    32
  0
VERTEX
  8
図枠
  5
2A0
 10
901.403
 20
-310.811
 30
0.000000
  70
    32
  0
VERTEX
  8
図枠
  5
2A1
 10
901.409
 20
-310.817
 30
0.000000
  70
    32
  0
VERTEX
  8
図枠
  5
2A2
 10
901.414
 20
-310.823
 30
0.000000
  70
    32
  0
VERTEX
  8
図枠
  5
2A3
 10
901.419
 20
-310.829
 30
0.000000
  70
    32
  0
VERTEX
  8
図枠
  5
2A4
 10
901.424
 20
-310.835
 30
0.000000
  70
    32
  0
VERTEX
  8
図枠
  5
2A5
 10
901.430
 20
-310.841
 30
0.000000
  70
    32
  0
VERTEX
  8
図枠
  5
2A6
 10
901.435
 20
-310.847
 30
0.000000
  70
    32
  0
VERTEX
  8
図枠
  5
2A7
 10
901.440
 20
-310.853
 30
0.000000
  70
    32
  0
VERTEX
  8
図枠
  5
2A8
 10
901.446
 20
-310.858
 30
0.000000
  70
    32
  0
VERTEX
  8
図枠
  5
2A9
 10
901.451
 20
-310.864
 30
0.000000
  70
    32
  0
VERTEX
  8
図枠
  5
2AA
 10
901.456
 20
-310.870
 30
0.000000
  70
    32
  0
VERTEX
  8
図枠
  5
2AB
 10
901.461
 20
-310.876
 30
0.000000
  70
    32
  0
VERTEX
  8
図枠
  5
2AC
 10
901.467
 20
-310.882
 30
0.000000
  70
    32
  0
VERTEX
  8
図枠
  5
2AD
 10
901.472
 20
-310.888
 30
0.000000
  70
    32
  0
VERTEX
  8
図枠
  5
2AE
 10
901.477
 20
-310.894
 30
0.000000
  70
    32
  0
VERTEX
  8
図枠
  5
2AF
 10
901.483
 20
-310.900
 30
0.000000
  70
    32
  0
VERTEX
  8
図枠
  5
2B0
 10
901.488
 20
-310.905
 30
0.000000
  70
    32
  0
VERTEX
  8
図枠
  5
2B1
 10
901.493
 20
-310.911
 30
0.000000
  70
    32
  0
VERTEX
  8
図枠
  5
2B2
 10
901.498
 20
-310.917
 30
0.000000
  70
    32
  0
VERTEX
  8
図枠
  5
2B3
 10
901.504
 20
-310.923
 30
0.000000
  70
    32
  0
VERTEX
  8
図枠
  5
2B4
 10
901.509
 20
-310.929
 30
0.000000
  70
    32
  0
VERTEX
  8
図枠
  5
2B5
 10
901.514
 20
-310.935
 30
0.000000
  70
    32
  0
VERTEX
  8
図枠
  5
2B6
 10
901.520
 20
-310.941
 30
0.000000
  70
    32
  0
VERTEX
  8
図枠
  5
2B7
 10
901.525
 20
-310.946
 30
0.000000
  70
    32
  0
VERTEX
  8
図枠
  5
2B8
 10
901.530
 20
-310.952
 30
0.000000
  70
    32
  0
VERTEX
  8
図枠
  5
2B9
 10
901.536
 20
-310.958
 30
0.000000
  70
    32
  0
VERTEX
  8
図枠
  5
2BA
 10
901.541
 20
-310.964
 30
0.000000
  70
    32
  0
VERTEX
  8
図枠
  5
2BB
 10
901.546
 20
-310.970
 30
0.000000
  70
    32
  0
VERTEX
  8
図枠
  5
2BC
 10
901.551
 20
-310.976
 30
0.000000
  70
    32
  0
VERTEX
  8
図枠
  5
2BD
 10
901.557
 20
-310.981
 30
0.000000
  70
    32
  0
VERTEX
  8
図枠
  5
2BE
 10
901.562
 20
-310.987
 30
0.000000
  70
    32
  0
VERTEX
  8
図枠
  5
2BF
 10
901.567
 20
-310.993
 30
0.000000
  70
    32
  0
VERTEX
  8
図枠
  5
2C0
 10
901.573
 20
-310.999
 30
0.000000
  70
    32
  0
VERTEX
  8
図枠
  5
2C1
 10
901.578
 20
-311.005
 30
0.000000
  70
    32
  0
VERTEX
  8
図枠
  5
2C2
 10
901.583
 20
-311.011
 30
0.000000
  70
    32
  0
VERTEX
  8
図枠
  5
2C3
 10
901.589
 20
-311.016
 30
0.000000
  70
    32
  0
VERTEX
  8
図枠
  5
2C4
 10
901.594
 20
-311.022
 30
0.000000
  70
    32
  0
VERTEX
  8
図枠
  5
2C5
 10
901.599
 20
-311.028
 30
0.000000
  70
    32
  0
VERTEX
  8
図枠
  5
2C6
 10
901.605
 20
-311.034
 30
0.000000
  70
    32
  0
VERTEX
  8
図枠
  5
2C7
 10
901.610
 20
-311.040
 30
0.000000
  70
    32
  0
VERTEX
  8
図枠
  5
2C8
 10
901.615
 20
-311.046
 30
0.000000
  70
    32
  0
VERTEX
  8
図枠
  5
2C9
 10
901.621
 20
-311.051
 30
0.000000
  70
    32
  0
VERTEX
  8
図枠
  5
2CA
 10
901.626
 20
-311.057
 30
0.000000
  70
    32
  0
VERTEX
  8
図枠
  5
2CB
 10
901.631
 20
-311.063
 30
0.000000
  70
    32
  0
VERTEX
  8
図枠
  5
2CC
 10
901.637
 20
-311.069
 30
0.000000
  70
    32
  0
VERTEX
  8
図枠
  5
2CD
 10
901.642
 20
-311.074
 30
0.000000
  70
    32
  0
VERTEX
  8
図枠
  5
2CE
 10
901.647
 20
-311.080
 30
0.000000
  70
    32
  0
VERTEX
  8
図枠
  5
2CF
 10
901.653
 20
-311.086
 30
0.000000
  70
    32
  0
VERTEX
  8
図枠
  5
2D0
 10
901.658
 20
-311.092
 30
0.000000
  70
    32
  0
VERTEX
  8
図枠
  5
2D1
 10
901.663
 20
-311.098
 30
0.000000
  70
    32
  0
VERTEX
  8
図枠
  5
2D2
 10
901.669
 20
-311.103
 30
0.000000
  70
    32
  0
VERTEX
  8
図枠
  5
2D3
 10
901.674
 20
-311.109
 30
0.000000
  70
    32
  0
VERTEX
  8
図枠
  5
2D4
 10
901.679
 20
-311.115
 30
0.000000
  70
    32
  0
VERTEX
  8
図枠
  5
2D5
 10
901.685
 20
-311.121
 30
0.000000
  70
    32
  0
VERTEX
  8
図枠
  5
2D6
 10
901.690
 20
-311.126
 30
0.000000
  70
    32
  0
VERTEX
  8
図枠
  5
2D7
 10
901.696
 20
-311.132
 30
0.000000
  70
    32
  0
VERTEX
  8
図枠
  5
2D8
 10
901.701
 20
-311.138
 30
0.000000
  70
    32
  0
VERTEX
  8
図枠
  5
2D9
 10
901.706
 20
-311.144
 30
0.000000
  70
    32
  0
VERTEX
  8
図枠
  5
2DA
 10
901.712
 20
-311.149
 30
0.000000
  70
    32
  0
VERTEX
  8
図枠
  5
2DB
 10
901.717
 20
-311.155
 30
0.000000
  70
    32
  0
VERTEX
  8
図枠
  5
2DC
 10
901.722
 20
-311.161
 30
0.000000
  70
    32
  0
VERTEX
  8
図枠
  5
2DD
 10
901.728
 20
-311.166
 30
0.000000
  70
    32
  0
VERTEX
  8
図枠
  5
2DE
 10
901.733
 20
-311.172
 30
0.000000
  70
    32
  0
VERTEX
  8
図枠
  5
2DF
 10
901.739
 20
-311.178
 30
0.000000
  70
    32
  0
VERTEX
  8
図枠
  5
2E0
 10
901.744
 20
-311.183
 30
0.000000
  70
    32
  0
VERTEX
  8
図枠
  5
2E1
 10
901.749
 20
-311.189
 30
0.000000
  70
    32
  0
VERTEX
  8
図枠
  5
2E2
 10
901.755
 20
-311.195
 30
0.000000
  70
    32
  0
VERTEX
  8
図枠
  5
2E3
 10
901.760
 20
-311.200
 30
0.000000
  70
    32
  0
VERTEX
  8
図枠
  5
2E4
 10
901.766
 20
-311.206
 30
0.000000
  70
    32
  0
VERTEX
  8
図枠
  5
2E5
 10
901.771
 20
-311.212
 30
0.000000
  70
    32
  0
VERTEX
  8
図枠
  5
2E6
 10
901.777
 20
-311.217
 30
0.000000
  70
    32
  0
VERTEX
  8
図枠
  5
2E7
 10
901.782
 20
-311.223
 30
0.000000
  70
    32
  0
VERTEX
  8
図枠
  5
2E8
 10
901.787
 20
-311.229
 30
0.000000
  70
    32
  0
VERTEX
  8
図枠
  5
2E9
 10
901.793
 20
-311.234
 30
0.000000
  70
    32
  0
VERTEX
  8
図枠
  5
2EA
 10
901.798
 20
-311.240
 30
0.000000
  70
    32
  0
VERTEX
  8
図枠
  5
2EB
 10
901.804
 20
-311.246
 30
0.000000
  70
    32
  0
VERTEX
  8
図枠
  5
2EC
 10
901.809
 20
-311.251
 30
0.000000
  70
    32
  0
VERTEX
  8
図枠
  5
2ED
 10
901.815
 20
-311.257
 30
0.000000
  70
    32
  0
VERTEX
  8
図枠
  5
2EE
 10
901.820
 20
-311.262
 30
0.000000
  70
    32
  0
VERTEX
  8
図枠
  5
2EF
 10
901.826
 20
-311.268
 30
0.000000
  70
    32
  0
VERTEX
  8
図枠
  5
2F0
 10
901.831
 20
-311.274
 30
0.000000
  70
    32
  0
VERTEX
  8
図枠
  5
2F1
 10
901.837
 20
-311.279
 30
0.000000
  70
    32
  0
VERTEX
  8
図枠
  5
2F2
 10
901.842
 20
-311.285
 30
0.000000
  70
    32
  0
VERTEX
  8
図枠
  5
2F3
 10
901.847
 20
-311.290
 30
0.000000
  70
    32
  0
VERTEX
  8
図枠
  5
2F4
 10
901.853
 20
-311.296
 30
0.000000
  70
    32
  0
VERTEX
  8
図枠
  5
2F5
 10
901.858
 20
-311.301
 30
0.000000
  70
    32
  0
VERTEX
  8
図枠
  5
2F6
 10
901.864
 20
-311.307
 30
0.000000
  70
    32
  0
VERTEX
  8
図枠
  5
2F7
 10
901.869
 20
-311.312
 30
0.000000
  70
    32
  0
VERTEX
  8
図枠
  5
2F8
 10
901.875
 20
-311.318
 30
0.000000
  70
    32
  0
VERTEX
  8
図枠
  5
2F9
 10
901.880
 20
-311.323
 30
0.000000
  70
    32
  0
VERTEX
  8
図枠
  5
2FA
 10
901.886
 20
-311.329
 30
0.000000
  70
    32
  0
VERTEX
  8
図枠
  5
2FB
 10
901.892
 20
-311.334
 30
0.000000
  70
    32
  0
VERTEX
  8
図枠
  5
2FC
 10
901.897
 20
-311.340
 30
0.000000
  70
    32
  0
VERTEX
  8
図枠
  5
2FD
 10
901.903
 20
-311.345
 30
0.000000
  70
    32
  0
VERTEX
  8
図枠
  5
2FE
 10
901.908
 20
-311.351
 30
0.000000
  70
    32
  0
VERTEX
  8
図枠
  5
2FF
 10
901.914
 20
-311.356
 30
0.000000
  70
    32
  0
VERTEX
  8
図枠
  5
300
 10
901.919
 20
-311.362
 30
0.000000
  70
    32
  0
VERTEX
  8
図枠
  5
301
 10
901.925
 20
-311.367
 30
0.000000
  70
    32
  0
VERTEX
  8
図枠
  5
302
 10
901.930
 20
-311.373
 30
0.000000
  70
    32
  0
VERTEX
  8
図枠
  5
303
 10
901.936
 20
-311.378
 30
0.000000
  70
    32
  0
VERTEX
  8
図枠
  5
304
 10
901.941
 20
-311.383
 30
0.000000
  70
    32
  0
VERTEX
  8
図枠
  5
305
 10
901.947
 20
-311.389
 30
0.000000
  70
    32
  0
VERTEX
  8
図枠
  5
306
 10
901.953
 20
-311.394
 30
0.000000
  70
    32
  0
VERTEX
  8
図枠
  5
307
 10
901.958
 20
-311.400
 30
0.000000
  70
    32
  0
VERTEX
  8
図枠
  5
308
 10
901.964
 20
-311.405
 30
0.000000
  70
    32
  0
VERTEX
  8
図枠
  5
309
 10
901.969
 20
-311.410
 30
0.000000
  70
    32
  0
VERTEX
  8
図枠
  5
30A
 10
901.975
 20
-311.416
 30
0.000000
  70
    32
  0
VERTEX
  8
図枠
  5
30B
 10
901.981
 20
-311.421
 30
0.000000
  70
    32
  0
VERTEX
  8
図枠
  5
30C
 10
901.986
 20
-311.426
 30
0.000000
  70
    32
  0
VERTEX
  8
図枠
  5
30D
 10
901.992
 20
-311.432
 30
0.000000
  70
    32
  0
VERTEX
  8
図枠
  5
30E
 10
901.998
 20
-311.437
 30
0.000000
  70
    32
  0
VERTEX
  8
図枠
  5
30F
 10
902.003
 20
-311.442
 30
0.000000
  70
    32
  0
VERTEX
  8
図枠
  5
310
 10
902.009
 20
-311.448
 30
0.000000
  70
    32
  0
VERTEX
  8
図枠
  5
311
 10
902.014
 20
-311.453
 30
0.000000
  70
    32
  0
VERTEX
  8
図枠
  5
312
 10
902.020
 20
-311.458
 30
0.000000
  70
    32
  0
VERTEX
  8
図枠
  5
313
 10
902.026
 20
-311.464
 30
0.000000
  70
    32
  0
VERTEX
  8
図枠
  5
314
 10
902.031
 20
-311.469
 30
0.000000
  70
    32
  0
VERTEX
  8
図枠
  5
315
 10
902.037
 20
-311.474
 30
0.000000
  70
    32
  0
VERTEX
  8
図枠
  5
316
 10
902.043
 20
-311.479
 30
0.000000
  70
    32
  0
VERTEX
  8
図枠
  5
317
 10
902.048
 20
-311.485
 30
0.000000
  70
    32
  0
VERTEX
  8
図枠
  5
318
 10
902.054
 20
-311.490
 30
0.000000
  70
    32
  0
VERTEX
  8
図枠
  5
319
 10
902.060
 20
-311.495
 30
0.000000
  70
    32
  0
VERTEX
  8
図枠
  5
31A
 10
902.066
 20
-311.500
 30
0.000000
  70
    32
  0
VERTEX
  8
図枠
  5
31B
 10
902.071
 20
-311.505
 30
0.000000
  70
    32
  0
SEQEND
  8
図枠
  5
31C
  0
POLYLINE
  8
図枠
  5
31D
  66
     1
 10
0.000000
 20
0.000000
 30
0.000000
  70
     8
  0
VERTEX
  8
図枠
  5
31E
 10
903.002
 20
-313.386
 30
0.000000
  70
    32
  0
VERTEX
  8
図枠
  5
31F
 10
903.023
 20
-313.393
 30
0.000000
  70
    32
  0
VERTEX
  8
図枠
  5
320
 10
903.045
 20
-313.400
 30
0.000000
  70
    32
  0
VERTEX
  8
図枠
  5
321
 10
903.066
 20
-313.407
 30
0.000000
  70
    32
  0
VERTEX
  8
図枠
  5
322
 10
903.088
 20
-313.414
 30
0.000000
  70
    32
  0
VERTEX
  8
図枠
  5
323
 10
903.109
 20
-313.420
 30
0.000000
  70
    32
  0
VERTEX
  8
図枠
  5
324
 10
903.131
 20
-313.427
 30
0.000000
  70
    32
  0
VERTEX
  8
図枠
  5
325
 10
903.153
 20
-313.434
 30
0.000000
  70
    32
  0
VERTEX
  8
図枠
  5
326
 10
903.174
 20
-313.440
 30
0.000000
  70
    32
  0
VERTEX
  8
図枠
  5
327
 10
903.196
 20
-313.447
 30
0.000000
  70
    32
  0
VERTEX
  8
図枠
  5
328
 10
903.218
 20
-313.454
 30
0.000000
  70
    32
  0
VERTEX
  8
図枠
  5
329
 10
903.239
 20
-313.460
 30
0.000000
  70
    32
  0
VERTEX
  8
図枠
  5
32A
 10
903.261
 20
-313.467
 30
0.000000
  70
    32
  0
VERTEX
  8
図枠
  5
32B
 10
903.283
 20
-313.473
 30
0.000000
  70
    32
  0
VERTEX
  8
図枠
  5
32C
 10
903.305
 20
-313.479
 30
0.000000
  70
    32
  0
VERTEX
  8
図枠
  5
32D
 10
903.326
 20
-313.486
 30
0.000000
  70
    32
  0
VERTEX
  8
図枠
  5
32E
 10
903.348
 20
-313.492
 30
0.000000
  70
    32
  0
VERTEX
  8
図枠
  5
32F
 10
903.370
 20
-313.499
 30
0.000000
  70
    32
  0
VERTEX
  8
図枠
  5
330
 10
903.392
 20
-313.505
 30
0.000000
  70
    32
  0
VERTEX
  8
図枠
  5
331
 10
903.414
 20
-313.511
 30
0.000000
  70
    32
  0
VERTEX
  8
図枠
  5
332
 10
903.436
 20
-313.518
 30
0.000000
  70
    32
  0
VERTEX
  8
図枠
  5
333
 10
903.457
 20
-313.524
 30
0.000000
  70
    32
  0
VERTEX
  8
図枠
  5
334
 10
903.479
 20
-313.530
 30
0.000000
  70
    32
  0
VERTEX
  8
図枠
  5
335
 10
903.501
 20
-313.536
 30
0.000000
  70
    32
  0
VERTEX
  8
図枠
  5
336
 10
903.523
 20
-313.542
 30
0.000000
  70
    32
  0
VERTEX
  8
図枠
  5
337
 10
903.545
 20
-313.548
 30
0.000000
  70
    32
  0
VERTEX
  8
図枠
  5
338
 10
903.567
 20
-313.555
 30
0.000000
  70
    32
  0
VERTEX
  8
図枠
  5
339
 10
903.589
 20
-313.561
 30
0.000000
  70
    32
  0
VERTEX
  8
図枠
  5
33A
 10
903.611
 20
-313.567
 30
0.000000
  70
    32
  0
VERTEX
  8
図枠
  5
33B
 10
903.633
 20
-313.573
 30
0.000000
  70
    32
  0
VERTEX
  8
図枠
  5
33C
 10
903.655
 20
-313.579
 30
0.000000
  70
    32
  0
VERTEX
  8
図枠
  5
33D
 10
903.677
 20
-313.585
 30
0.000000
  70
    32
  0
VERTEX
  8
図枠
  5
33E
 10
903.699
 20
-313.591
 30
0.000000
  70
    32
  0
VERTEX
  8
図枠
  5
33F
 10
903.721
 20
-313.597
 30
0.000000
  70
    32
  0
VERTEX
  8
図枠
  5
340
 10
903.743
 20
-313.602
 30
0.000000
  70
    32
  0
VERTEX
  8
図枠
  5
341
 10
903.765
 20
-313.608
 30
0.000000
  70
    32
  0
VERTEX
  8
図枠
  5
342
 10
903.787
 20
-313.614
 30
0.000000
  70
    32
  0
VERTEX
  8
図枠
  5
343
 10
903.809
 20
-313.620
 30
0.000000
  70
    32
  0
VERTEX
  8
図枠
  5
344
 10
903.832
 20
-313.626
 30
0.000000
  70
    32
  0
VERTEX
  8
図枠
  5
345
 10
903.854
 20
-313.632
 30
0.000000
  70
    32
  0
VERTEX
  8
図枠
  5
346
 10
903.876
 20
-313.637
 30
0.000000
  70
    32
  0
VERTEX
  8
図枠
  5
347
 10
903.898
 20
-313.643
 30
0.000000
  70
    32
  0
VERTEX
  8
図枠
  5
348
 10
903.920
 20
-313.649
 30
0.000000
  70
    32
  0
VERTEX
  8
図枠
  5
349
 10
903.942
 20
-313.654
 30
0.000000
  70
    32
  0
VERTEX
  8
図枠
  5
34A
 10
903.964
 20
-313.660
 30
0.000000
  70
    32
  0
VERTEX
  8
図枠
  5
34B
 10
903.987
 20
-313.666
 30
0.000000
  70
    32
  0
VERTEX
  8
図枠
  5
34C
 10
904.009
 20
-313.671
 30
0.000000
  70
    32
  0
VERTEX
  8
図枠
  5
34D
 10
904.031
 20
-313.677
 30
0.000000
  70
    32
  0
VERTEX
  8
図枠
  5
34E
 10
904.053
 20
-313.682
 30
0.000000
  70
    32
  0
VERTEX
  8
図枠
  5
34F
 10
904.076
 20
-313.688
 30
0.000000
  70
    32
  0
VERTEX
  8
図枠
  5
350
 10
904.098
 20
-313.693
 30
0.000000
  70
    32
  0
VERTEX
  8
図枠
  5
351
 10
904.120
 20
-313.699
 30
0.000000
  70
    32
  0
VERTEX
  8
図枠
  5
352
 10
904.142
 20
-313.704
 30
0.000000
  70
    32
  0
VERTEX
  8
図枠
  5
353
 10
904.165
 20
-313.710
 30
0.000000
  70
    32
  0
VERTEX
  8
図枠
  5
354
 10
904.187
 20
-313.715
 30
0.000000
  70
    32
  0
VERTEX
  8
図枠
  5
355
 10
904.209
 20
-313.721
 30
0.000000
  70
    32
  0
VERTEX
  8
図枠
  5
356
 10
904.232
 20
-313.726
 30
0.000000
  70
    32
  0
VERTEX
  8
図枠
  5
357
 10
904.254
 20
-313.732
 30
0.000000
  70
    32
  0
VERTEX
  8
図枠
  5
358
 10
904.276
 20
-313.737
 30
0.000000
  70
    32
  0
VERTEX
  8
図枠
  5
359
 10
904.299
 20
-313.742
 30
0.000000
  70
    32
  0
VERTEX
  8
図枠
  5
35A
 10
904.321
 20
-313.748
 30
0.000000
  70
    32
  0
VERTEX
  8
図枠
  5
35B
 10
904.343
 20
-313.753
 30
0.000000
  70
    32
  0
VERTEX
  8
図枠
  5
35C
 10
904.366
 20
-313.758
 30
0.000000
  70
    32
  0
VERTEX
  8
図枠
  5
35D
 10
904.388
 20
-313.764
 30
0.000000
  70
    32
  0
VERTEX
  8
図枠
  5
35E
 10
904.411
 20
-313.769
 30
0.000000
  70
    32
  0
VERTEX
  8
図枠
  5
35F
 10
904.433
 20
-313.774
 30
0.000000
  70
    32
  0
VERTEX
  8
図枠
  5
360
 10
904.455
 20
-313.779
 30
0.000000
  70
    32
  0
VERTEX
  8
図枠
  5
361
 10
904.478
 20
-313.784
 30
0.000000
  70
    32
  0
VERTEX
  8
図枠
  5
362
 10
904.500
 20
-313.790
 30
0.000000
  70
    32
  0
VERTEX
  8
図枠
  5
363
 10
904.523
 20
-313.795
 30
0.000000
  70
    32
  0
VERTEX
  8
図枠
  5
364
 10
904.545
 20
-313.800
 30
0.000000
  70
    32
  0
VERTEX
  8
図枠
  5
365
 10
904.568
 20
-313.805
 30
0.000000
  70
    32
  0
VERTEX
  8
図枠
  5
366
 10
904.590
 20
-313.810
 30
0.000000
  70
    32
  0
VERTEX
  8
図枠
  5
367
 10
904.613
 20
-313.815
 30
0.000000
  70
    32
  0
VERTEX
  8
図枠
  5
368
 10
904.635
 20
-313.820
 30
0.000000
  70
    32
  0
VERTEX
  8
図枠
  5
369
 10
904.658
 20
-313.826
 30
0.000000
  70
    32
  0
VERTEX
  8
図枠
  5
36A
 10
904.680
 20
-313.831
 30
0.000000
  70
    32
  0
VERTEX
  8
図枠
  5
36B
 10
904.703
 20
-313.836
 30
0.000000
  70
    32
  0
VERTEX
  8
図枠
  5
36C
 10
904.725
 20
-313.841
 30
0.000000
  70
    32
  0
VERTEX
  8
図枠
  5
36D
 10
904.748
 20
-313.846
 30
0.000000
  70
    32
  0
VERTEX
  8
図枠
  5
36E
 10
904.770
 20
-313.851
 30
0.000000
  70
    32
  0
VERTEX
  8
図枠
  5
36F
 10
904.793
 20
-313.856
 30
0.000000
  70
    32
  0
VERTEX
  8
図枠
  5
370
 10
904.815
 20
-313.861
 30
0.000000
  70
    32
  0
VERTEX
  8
図枠
  5
371
 10
904.838
 20
-313.866
 30
0.000000
  70
    32
  0
VERTEX
  8
図枠
  5
372
 10
904.860
 20
-313.871
 30
0.000000
  70
    32
  0
VERTEX
  8
図枠
  5
373
 10
904.883
 20
-313.876
 30
0.000000
  70
    32
  0
VERTEX
  8
図枠
  5
374
 10
904.906
 20
-313.881
 30
0.000000
  70
    32
  0
VERTEX
  8
図枠
  5
375
 10
904.928
 20
-313.886
 30
0.000000
  70
    32
  0
VERTEX
  8
図枠
  5
376
 10
904.951
 20
-313.891
 30
0.000000
  70
    32
  0
VERTEX
  8
図枠
  5
377
 10
904.973
 20
-313.895
 30
0.000000
  70
    32
  0
VERTEX
  8
図枠
  5
378
 10
904.996
 20
-313.900
 30
0.000000
  70
    32
  0
VERTEX
  8
図枠
  5
379
 10
905.018
 20
-313.905
 30
0.000000
  70
    32
  0
VERTEX
  8
図枠
  5
37A
 10
905.041
 20
-313.910
 30
0.000000
  70
    32
  0
VERTEX
  8
図枠
  5
37B
 10
905.064
 20
-313.915
 30
0.000000
  70
    32
  0
VERTEX
  8
図枠
  5
37C
 10
905.086
 20
-313.920
 30
0.000000
  70
    32
  0
VERTEX
  8
図枠
  5
37D
 10
905.109
 20
-313.925
 30
0.000000
  70
    32
  0
VERTEX
  8
図枠
  5
37E
 10
905.132
 20
-313.930
 30
0.000000
  70
    32
  0
VERTEX
  8
図枠
  5
37F
 10
905.154
 20
-313.934
 30
0.000000
  70
    32
  0
VERTEX
  8
図枠
  5
380
 10
905.177
 20
-313.939
 30
0.000000
  70
    32
  0
VERTEX
  8
図枠
  5
381
 10
905.199
 20
-313.944
 30
0.000000
  70
    32
  0
VERTEX
  8
図枠
  5
382
 10
905.222
 20
-313.949
 30
0.000000
  70
    32
  0
VERTEX
  8
図枠
  5
383
 10
905.245
 20
-313.954
 30
0.000000
  70
    32
  0
VERTEX
  8
図枠
  5
384
 10
905.267
 20
-313.959
 30
0.000000
  70
    32
  0
VERTEX
  8
図枠
  5
385
 10
905.290
 20
-313.963
 30
0.000000
  70
    32
  0
VERTEX
  8
図枠
  5
386
 10
905.313
 20
-313.968
 30
0.000000
  70
    32
  0
VERTEX
  8
図枠
  5
387
 10
905.335
 20
-313.973
 30
0.000000
  70
    32
  0
VERTEX
  8
図枠
  5
388
 10
905.358
 20
-313.978
 30
0.000000
  70
    32
  0
VERTEX
  8
図枠
  5
389
 10
905.381
 20
-313.982
 30
0.000000
  70
    32
  0
VERTEX
  8
図枠
  5
38A
 10
905.403
 20
-313.987
 30
0.000000
  70
    32
  0
VERTEX
  8
図枠
  5
38B
 10
905.426
 20
-313.992
 30
0.000000
  70
    32
  0
VERTEX
  8
図枠
  5
38C
 10
905.449
 20
-313.997
 30
0.000000
  70
    32
  0
VERTEX
  8
図枠
  5
38D
 10
905.471
 20
-314.002
 30
0.000000
  70
    32
  0
VERTEX
  8
図枠
  5
38E
 10
905.494
 20
-314.006
 30
0.000000
  70
    32
  0
VERTEX
  8
図枠
  5
38F
 10
905.517
 20
-314.011
 30
0.000000
  70
    32
  0
VERTEX
  8
図枠
  5
390
 10
905.539
 20
-314.016
 30
0.000000
  70
    32
  0
VERTEX
  8
図枠
  5
391
 10
905.562
 20
-314.021
 30
0.000000
  70
    32
  0
VERTEX
  8
図枠
  5
392
 10
905.585
 20
-314.025
 30
0.000000
  70
    32
  0
VERTEX
  8
図枠
  5
393
 10
905.607
 20
-314.030
 30
0.000000
  70
    32
  0
VERTEX
  8
図枠
  5
394
 10
905.630
 20
-314.035
 30
0.000000
  70
    32
  0
VERTEX
  8
図枠
  5
395
 10
905.653
 20
-314.039
 30
0.000000
  70
    32
  0
VERTEX
  8
図枠
  5
396
 10
905.675
 20
-314.044
 30
0.000000
  70
    32
  0
VERTEX
  8
図枠
  5
397
 10
905.698
 20
-314.049
 30
0.000000
  70
    32
  0
VERTEX
  8
図枠
  5
398
 10
905.721
 20
-314.054
 30
0.000000
  70
    32
  0
VERTEX
  8
図枠
  5
399
 10
905.744
 20
-314.058
 30
0.000000
  70
    32
  0
VERTEX
  8
図枠
  5
39A
 10
905.766
 20
-314.063
 30
0.000000
  70
    32
  0
VERTEX
  8
図枠
  5
39B
 10
905.789
 20
-314.068
 30
0.000000
  70
    32
  0
VERTEX
  8
図枠
  5
39C
 10
905.812
 20
-314.072
 30
0.000000
  70
    32
  0
VERTEX
  8
図枠
  5
39D
 10
905.834
 20
-314.077
 30
0.000000
  70
    32
  0
SEQEND
  8
図枠
  5
39E
  0
LINE
  5
36
  8
図枠
 10
898.63505552389995
 20
-314.07721093319998
 30
0.0
 11
900.6348555239
 21
-314.07721093319998
 31
0.0
  0
LINE
  5
37
  8
図枠
  6
BORDER
 10
901.11712107810001
 20
-294.3573214928
 30
0.0
 11
915.89964267810001
 21
-294.3573214928
 31
0.0
  0
POLYLINE
  8
図枠
  5
39F
  66
     1
 10
0.000000
 20
0.000000
 30
0.000000
  70
     8
  0
VERTEX
  8
図枠
  5
3A0
 10
898.635
 20
-310.593
 30
0.000000
  70
    32
  0
VERTEX
  8
図枠
  5
3A1
 10
898.649
 20
-310.606
 30
0.000000
  70
    32
  0
VERTEX
  8
図枠
  5
3A2
 10
898.664
 20
-310.619
 30
0.000000
  70
    32
  0
VERTEX
  8
図枠
  5
3A3
 10
898.678
 20
-310.633
 30
0.000000
  70
    32
  0
VERTEX
  8
図枠
  5
3A4
 10
898.693
 20
-310.646
 30
0.000000
  70
    32
  0
VERTEX
  8
図枠
  5
3A5
 10
898.707
 20
-310.659
 30
0.000000
  70
    32
  0
VERTEX
  8
図枠
  5
3A6
 10
898.722
 20
-310.673
 30
0.000000
  70
    32
  0
VERTEX
  8
図枠
  5
3A7
 10
898.736
 20
-310.686
 30
0.000000
  70
    32
  0
VERTEX
  8
図枠
  5
3A8
 10
898.750
 20
-310.699
 30
0.000000
  70
    32
  0
VERTEX
  8
図枠
  5
3A9
 10
898.765
 20
-310.712
 30
0.000000
  70
    32
  0
VERTEX
  8
図枠
  5
3AA
 10
898.779
 20
-310.726
 30
0.000000
  70
    32
  0
VERTEX
  8
図枠
  5
3AB
 10
898.794
 20
-310.739
 30
0.000000
  70
    32
  0
VERTEX
  8
図枠
  5
3AC
 10
898.808
 20
-310.752
 30
0.000000
  70
    32
  0
VERTEX
  8
図枠
  5
3AD
 10
898.822
 20
-310.765
 30
0.000000
  70
    32
  0
VERTEX
  8
図枠
  5
3AE
 10
898.837
 20
-310.779
 30
0.000000
  70
    32
  0
VERTEX
  8
図枠
  5
3AF
 10
898.851
 20
-310.792
 30
0.000000
  70
    32
  0
VERTEX
  8
図枠
  5
3B0
 10
898.866
 20
-310.805
 30
0.000000
  70
    32
  0
VERTEX
  8
図枠
  5
3B1
 10
898.880
 20
-310.818
 30
0.000000
  70
    32
  0
VERTEX
  8
図枠
  5
3B2
 10
898.895
 20
-310.832
 30
0.000000
  70
    32
  0
VERTEX
  8
図枠
  5
3B3
 10
898.909
 20
-310.845
 30
0.000000
  70
    32
  0
VERTEX
  8
図枠
  5
3B4
 10
898.923
 20
-310.858
 30
0.000000
  70
    32
  0
VERTEX
  8
図枠
  5
3B5
 10
898.938
 20
-310.871
 30
0.000000
  70
    32
  0
VERTEX
  8
図枠
  5
3B6
 10
898.952
 20
-310.885
 30
0.000000
  70
    32
  0
VERTEX
  8
図枠
  5
3B7
 10
898.967
 20
-310.898
 30
0.000000
  70
    32
  0
VERTEX
  8
図枠
  5
3B8
 10
898.981
 20
-310.911
 30
0.000000
  70
    32
  0
VERTEX
  8
図枠
  5
3B9
 10
898.996
 20
-310.924
 30
0.000000
  70
    32
  0
VERTEX
  8
図枠
  5
3BA
 10
899.010
 20
-310.937
 30
0.000000
  70
    32
  0
VERTEX
  8
図枠
  5
3BB
 10
899.025
 20
-310.951
 30
0.000000
  70
    32
  0
VERTEX
  8
図枠
  5
3BC
 10
899.039
 20
-310.964
 30
0.000000
  70
    32
  0
VERTEX
  8
図枠
  5
3BD
 10
899.053
 20
-310.977
 30
0.000000
  70
    32
  0
VERTEX
  8
図枠
  5
3BE
 10
899.068
 20
-310.990
 30
0.000000
  70
    32
  0
VERTEX
  8
図枠
  5
3BF
 10
899.082
 20
-311.003
 30
0.000000
  70
    32
  0
VERTEX
  8
図枠
  5
3C0
 10
899.097
 20
-311.016
 30
0.000000
  70
    32
  0
VERTEX
  8
図枠
  5
3C1
 10
899.111
 20
-311.030
 30
0.000000
  70
    32
  0
VERTEX
  8
図枠
  5
3C2
 10
899.126
 20
-311.043
 30
0.000000
  70
    32
  0
VERTEX
  8
図枠
  5
3C3
 10
899.140
 20
-311.056
 30
0.000000
  70
    32
  0
VERTEX
  8
図枠
  5
3C4
 10
899.155
 20
-311.069
 30
0.000000
  70
    32
  0
VERTEX
  8
図枠
  5
3C5
 10
899.169
 20
-311.082
 30
0.000000
  70
    32
  0
VERTEX
  8
図枠
  5
3C6
 10
899.184
 20
-311.095
 30
0.000000
  70
    32
  0
VERTEX
  8
図枠
  5
3C7
 10
899.198
 20
-311.108
 30
0.000000
  70
    32
  0
VERTEX
  8
図枠
  5
3C8
 10
899.213
 20
-311.121
 30
0.000000
  70
    32
  0
VERTEX
  8
図枠
  5
3C9
 10
899.227
 20
-311.134
 30
0.000000
  70
    32
  0
VERTEX
  8
図枠
  5
3CA
 10
899.242
 20
-311.147
 30
0.000000
  70
    32
  0
VERTEX
  8
図枠
  5
3CB
 10
899.257
 20
-311.160
 30
0.000000
  70
    32
  0
VERTEX
  8
図枠
  5
3CC
 10
899.271
 20
-311.173
 30
0.000000
  70
    32
  0
VERTEX
  8
図枠
  5
3CD
 10
899.286
 20
-311.186
 30
0.000000
  70
    32
  0
VERTEX
  8
図枠
  5
3CE
 10
899.300
 20
-311.199
 30
0.000000
  70
    32
  0
VERTEX
  8
図枠
  5
3CF
 10
899.315
 20
-311.212
 30
0.000000
  70
    32
  0
VERTEX
  8
図枠
  5
3D0
 10
899.329
 20
-311.225
 30
0.000000
  70
    32
  0
VERTEX
  8
図枠
  5
3D1
 10
899.344
 20
-311.238
 30
0.000000
  70
    32
  0
VERTEX
  8
図枠
  5
3D2
 10
899.359
 20
-311.251
 30
0.000000
  70
    32
  0
VERTEX
  8
図枠
  5
3D3
 10
899.373
 20
-311.264
 30
0.000000
  70
    32
  0
VERTEX
  8
図枠
  5
3D4
 10
899.388
 20
-311.277
 30
0.000000
  70
    32
  0
VERTEX
  8
図枠
  5
3D5
 10
899.402
 20
-311.290
 30
0.000000
  70
    32
  0
VERTEX
  8
図枠
  5
3D6
 10
899.417
 20
-311.303
 30
0.000000
  70
    32
  0
VERTEX
  8
図枠
  5
3D7
 10
899.432
 20
-311.316
 30
0.000000
  70
    32
  0
VERTEX
  8
図枠
  5
3D8
 10
899.446
 20
-311.329
 30
0.000000
  70
    32
  0
VERTEX
  8
図枠
  5
3D9
 10
899.461
 20
-311.341
 30
0.000000
  70
    32
  0
VERTEX
  8
図枠
  5
3DA
 10
899.476
 20
-311.354
 30
0.000000
  70
    32
  0
VERTEX
  8
図枠
  5
3DB
 10
899.490
 20
-311.367
 30
0.000000
  70
    32
  0
VERTEX
  8
図枠
  5
3DC
 10
899.505
 20
-311.380
 30
0.000000
  70
    32
  0
VERTEX
  8
図枠
  5
3DD
 10
899.520
 20
-311.393
 30
0.000000
  70
    32
  0
VERTEX
  8
図枠
  5
3DE
 10
899.534
 20
-311.405
 30
0.000000
  70
    32
  0
VERTEX
  8
図枠
  5
3DF
 10
899.549
 20
-311.418
 30
0.000000
  70
    32
  0
VERTEX
  8
図枠
  5
3E0
 10
899.564
 20
-311.431
 30
0.000000
  70
    32
  0
VERTEX
  8
図枠
  5
3E1
 10
899.578
 20
-311.444
 30
0.000000
  70
    32
  0
VERTEX
  8
図枠
  5
3E2
 10
899.593
 20
-311.456
 30
0.000000
  70
    32
  0
VERTEX
  8
図枠
  5
3E3
 10
899.608
 20
-311.469
 30
0.000000
  70
    32
  0
VERTEX
  8
図枠
  5
3E4
 10
899.623
 20
-311.482
 30
0.000000
  70
    32
  0
VERTEX
  8
図枠
  5
3E5
 10
899.637
 20
-311.494
 30
0.000000
  70
    32
  0
VERTEX
  8
図枠
  5
3E6
 10
899.652
 20
-311.507
 30
0.000000
  70
    32
  0
VERTEX
  8
図枠
  5
3E7
 10
899.667
 20
-311.519
 30
0.000000
  70
    32
  0
VERTEX
  8
図枠
  5
3E8
 10
899.682
 20
-311.532
 30
0.000000
  70
    32
  0
VERTEX
  8
図枠
  5
3E9
 10
899.697
 20
-311.545
 30
0.000000
  70
    32
  0
VERTEX
  8
図枠
  5
3EA
 10
899.711
 20
-311.557
 30
0.000000
  70
    32
  0
VERTEX
  8
図枠
  5
3EB
 10
899.726
 20
-311.570
 30
0.000000
  70
    32
  0
VERTEX
  8
図枠
  5
3EC
 10
899.741
 20
-311.582
 30
0.000000
  70
    32
  0
VERTEX
  8
図枠
  5
3ED
 10
899.756
 20
-311.595
 30
0.000000
  70
    32
  0
VERTEX
  8
図枠
  5
3EE
 10
899.771
 20
-311.607
 30
0.000000
  70
    32
  0
VERTEX
  8
図枠
  5
3EF
 10
899.786
 20
-311.619
 30
0.000000
  70
    32
  0
VERTEX
  8
図枠
  5
3F0
 10
899.800
 20
-311.632
 30
0.000000
  70
    32
  0
VERTEX
  8
図枠
  5
3F1
 10
899.815
 20
-311.644
 30
0.000000
  70
    32
  0
VERTEX
  8
図枠
  5
3F2
 10
899.830
 20
-311.657
 30
0.000000
  70
    32
  0
VERTEX
  8
図枠
  5
3F3
 10
899.845
 20
-311.669
 30
0.000000
  70
    32
  0
VERTEX
  8
図枠
  5
3F4
 10
899.860
 20
-311.681
 30
0.000000
  70
    32
  0
VERTEX
  8
図枠
  5
3F5
 10
899.875
 20
-311.694
 30
0.000000
  70
    32
  0
VERTEX
  8
図枠
  5
3F6
 10
899.890
 20
-311.706
 30
0.000000
  70
    32
  0
VERTEX
  8
図枠
  5
3F7
 10
899.905
 20
-311.718
 30
0.000000
  70
    32
  0
VERTEX
  8
図枠
  5
3F8
 10
899.920
 20
-311.730
 30
0.000000
  70
    32
  0
VERTEX
  8
図枠
  5
3F9
 10
899.935
 20
-311.742
 30
0.000000
  70
    32
  0
VERTEX
  8
図枠
  5
3FA
 10
899.950
 20
-311.755
 30
0.000000
  70
    32
  0
VERTEX
  8
図枠
  5
3FB
 10
899.965
 20
-311.767
 30
0.000000
  70
    32
  0
VERTEX
  8
図枠
  5
3FC
 10
899.980
 20
-311.779
 30
0.000000
  70
    32
  0
VERTEX
  8
図枠
  5
3FD
 10
899.995
 20
-311.791
 30
0.000000
  70
    32
  0
VERTEX
  8
図枠
  5
3FE
 10
900.010
 20
-311.803
 30
0.000000
  70
    32
  0
VERTEX
  8
図枠
  5
3FF
 10
900.025
 20
-311.815
 30
0.000000
  70
    32
  0
VERTEX
  8
図枠
  5
400
 10
900.040
 20
-311.827
 30
0.000000
  70
    32
  0
VERTEX
  8
図枠
  5
401
 10
900.055
 20
-311.839
 30
0.000000
  70
    32
  0
VERTEX
  8
図枠
  5
402
 10
900.070
 20
-311.851
 30
0.000000
  70
    32
  0
VERTEX
  8
図枠
  5
403
 10
900.086
 20
-311.863
 30
0.000000
  70
    32
  0
VERTEX
  8
図枠
  5
404
 10
900.101
 20
-311.875
 30
0.000000
  70
    32
  0
VERTEX
  8
図枠
  5
405
 10
900.116
 20
-311.887
 30
0.000000
  70
    32
  0
VERTEX
  8
図枠
  5
406
 10
900.131
 20
-311.899
 30
0.000000
  70
    32
  0
VERTEX
  8
図枠
  5
407
 10
900.146
 20
-311.911
 30
0.000000
  70
    32
  0
VERTEX
  8
図枠
  5
408
 10
900.161
 20
-311.922
 30
0.000000
  70
    32
  0
VERTEX
  8
図枠
  5
409
 10
900.177
 20
-311.934
 30
0.000000
  70
    32
  0
VERTEX
  8
図枠
  5
40A
 10
900.192
 20
-311.946
 30
0.000000
  70
    32
  0
VERTEX
  8
図枠
  5
40B
 10
900.207
 20
-311.958
 30
0.000000
  70
    32
  0
VERTEX
  8
図枠
  5
40C
 10
900.222
 20
-311.969
 30
0.000000
  70
    32
  0
VERTEX
  8
図枠
  5
40D
 10
900.238
 20
-311.981
 30
0.000000
  70
    32
  0
VERTEX
  8
図枠
  5
40E
 10
900.253
 20
-311.992
 30
0.000000
  70
    32
  0
VERTEX
  8
図枠
  5
40F
 10
900.268
 20
-312.004
 30
0.000000
  70
    32
  0
VERTEX
  8
図枠
  5
410
 10
900.284
 20
-312.016
 30
0.000000
  70
    32
  0
VERTEX
  8
図枠
  5
411
 10
900.299
 20
-312.027
 30
0.000000
  70
    32
  0
VERTEX
  8
図枠
  5
412
 10
900.314
 20
-312.039
 30
0.000000
  70
    32
  0
VERTEX
  8
図枠
  5
413
 10
900.330
 20
-312.050
 30
0.000000
  70
    32
  0
VERTEX
  8
図枠
  5
414
 10
900.345
 20
-312.062
 30
0.000000
  70
    32
  0
VERTEX
  8
図枠
  5
415
 10
900.361
 20
-312.073
 30
0.000000
  70
    32
  0
VERTEX
  8
図枠
  5
416
 10
900.376
 20
-312.084
 30
0.000000
  70
    32
  0
VERTEX
  8
図枠
  5
417
 10
900.392
 20
-312.096
 30
0.000000
  70
    32
  0
VERTEX
  8
図枠
  5
418
 10
900.407
 20
-312.107
 30
0.000000
  70
    32
  0
VERTEX
  8
図枠
  5
419
 10
900.423
 20
-312.118
 30
0.000000
  70
    32
  0
VERTEX
  8
図枠
  5
41A
 10
900.438
 20
-312.130
 30
0.000000
  70
    32
  0
VERTEX
  8
図枠
  5
41B
 10
900.454
 20
-312.141
 30
0.000000
  70
    32
  0
VERTEX
  8
図枠
  5
41C
 10
900.469
 20
-312.152
 30
0.000000
  70
    32
  0
VERTEX
  8
図枠
  5
41D
 10
900.485
 20
-312.163
 30
0.000000
  70
    32
  0
VERTEX
  8
図枠
  5
41E
 10
900.500
 20
-312.174
 30
0.000000
  70
    32
  0
VERTEX
  8
図枠
  5
41F
 10
900.516
 20
-312.185
 30
0.000000
  70
    32
  0
VERTEX
  8
図枠
  5
420
 10
900.531
 20
-312.196
 30
0.000000
  70
    32
  0
VERTEX
  8
図枠
  5
421
 10
900.547
 20
-312.207
 30
0.000000
  70
    32
  0
VERTEX
  8
図枠
  5
422
 10
900.563
 20
-312.218
 30
0.000000
  70
    32
  0
VERTEX
  8
図枠
  5
423
 10
900.578
 20
-312.229
 30
0.000000
  70
    32
  0
VERTEX
  8
図枠
  5
424
 10
900.594
 20
-312.240
 30
0.000000
  70
    32
  0
VERTEX
  8
図枠
  5
425
 10
900.610
 20
-312.251
 30
0.000000
  70
    32
  0
VERTEX
  8
図枠
  5
426
 10
900.626
 20
-312.262
 30
0.000000
  70
    32
  0
VERTEX
  8
図枠
  5
427
 10
900.641
 20
-312.272
 30
0.000000
  70
    32
  0
VERTEX
  8
図枠
  5
428
 10
900.657
 20
-312.283
 30
0.000000
  70
    32
  0
VERTEX
  8
図枠
  5
429
 10
900.673
 20
-312.294
 30
0.000000
  70
    32
  0
VERTEX
  8
図枠
  5
42A
 10
900.689
 20
-312.305
 30
0.000000
  70
    32
  0
VERTEX
  8
図枠
  5
42B
 10
900.705
 20
-312.315
 30
0.000000
  70
    32
  0
VERTEX
  8
図枠
  5
42C
 10
900.721
 20
-312.326
 30
0.000000
  70
    32
  0
VERTEX
  8
図枠
  5
42D
 10
900.736
 20
-312.336
 30
0.000000
  70
    32
  0
VERTEX
  8
図枠
  5
42E
 10
900.752
 20
-312.347
 30
0.000000
  70
    32
  0
VERTEX
  8
図枠
  5
42F
 10
900.768
 20
-312.357
 30
0.000000
  70
    32
  0
VERTEX
  8
図枠
  5
430
 10
900.784
 20
-312.368
 30
0.000000
  70
    32
  0
VERTEX
  8
図枠
  5
431
 10
900.800
 20
-312.378
 30
0.000000
  70
    32
  0
VERTEX
  8
図枠
  5
432
 10
900.816
 20
-312.389
 30
0.000000
  70
    32
  0
VERTEX
  8
図枠
  5
433
 10
900.832
 20
-312.399
 30
0.000000
  70
    32
  0
VERTEX
  8
図枠
  5
434
 10
900.848
 20
-312.409
 30
0.000000
  70
    32
  0
VERTEX
  8
図枠
  5
435
 10
900.864
 20
-312.419
 30
0.000000
  70
    32
  0
VERTEX
  8
図枠
  5
436
 10
900.880
 20
-312.430
 30
0.000000
  70
    32
  0
VERTEX
  8
図枠
  5
437
 10
900.896
 20
-312.440
 30
0.000000
  70
    32
  0
VERTEX
  8
図枠
  5
438
 10
900.913
 20
-312.450
 30
0.000000
  70
    32
  0
VERTEX
  8
図枠
  5
439
 10
900.929
 20
-312.460
 30
0.000000
  70
    32
  0
VERTEX
  8
図枠
  5
43A
 10
900.945
 20
-312.470
 30
0.000000
  70
    32
  0
VERTEX
  8
図枠
  5
43B
 10
900.961
 20
-312.480
 30
0.000000
  70
    32
  0
VERTEX
  8
図枠
  5
43C
 10
900.977
 20
-312.490
 30
0.000000
  70
    32
  0
VERTEX
  8
図枠
  5
43D
 10
900.993
 20
-312.500
 30
0.000000
  70
    32
  0
VERTEX
  8
図枠
  5
43E
 10
901.010
 20
-312.510
 30
0.000000
  70
    32
  0
VERTEX
  8
図枠
  5
43F
 10
901.026
 20
-312.519
 30
0.000000
  70
    32
  0
SEQEND
  8
図枠
  5
440
  0
POLYLINE
  8
図枠
  5
441
  66
     1
 10
0.000000
 20
0.000000
 30
0.000000
  70
     8
  0
VERTEX
  8
図枠
  5
442
 10
903.982
 20
-312.496
 30
0.000000
  70
    32
  0
VERTEX
  8
図枠
  5
443
 10
903.996
 20
-312.500
 30
0.000000
  70
    32
  0
VERTEX
  8
図枠
  5
444
 10
904.010
 20
-312.504
 30
0.000000
  70
    32
  0
VERTEX
  8
図枠
  5
445
 10
904.024
 20
-312.508
 30
0.000000
  70
    32
  0
VERTEX
  8
図枠
  5
446
 10
904.038
 20
-312.512
 30
0.000000
  70
    32
  0
VERTEX
  8
図枠
  5
447
 10
904.052
 20
-312.516
 30
0.000000
  70
    32
  0
VERTEX
  8
図枠
  5
448
 10
904.066
 20
-312.520
 30
0.000000
  70
    32
  0
VERTEX
  8
図枠
  5
449
 10
904.080
 20
-312.523
 30
0.000000
  70
    32
  0
VERTEX
  8
図枠
  5
44A
 10
904.094
 20
-312.527
 30
0.000000
  70
    32
  0
VERTEX
  8
図枠
  5
44B
 10
904.109
 20
-312.531
 30
0.000000
  70
    32
  0
VERTEX
  8
図枠
  5
44C
 10
904.123
 20
-312.535
 30
0.000000
  70
    32
  0
VERTEX
  8
図枠
  5
44D
 10
904.137
 20
-312.539
 30
0.000000
  70
    32
  0
VERTEX
  8
図枠
  5
44E
 10
904.151
 20
-312.542
 30
0.000000
  70
    32
  0
VERTEX
  8
図枠
  5
44F
 10
904.165
 20
-312.546
 30
0.000000
  70
    32
  0
VERTEX
  8
図枠
  5
450
 10
904.179
 20
-312.550
 30
0.000000
  70
    32
  0
VERTEX
  8
図枠
  5
451
 10
904.193
 20
-312.553
 30
0.000000
  70
    32
  0
VERTEX
  8
図枠
  5
452
 10
904.208
 20
-312.557
 30
0.000000
  70
    32
  0
VERTEX
  8
図枠
  5
453
 10
904.222
 20
-312.561
 30
0.000000
  70
    32
  0
VERTEX
  8
図枠
  5
454
 10
904.236
 20
-312.564
 30
0.000000
  70
    32
  0
VERTEX
  8
図枠
  5
455
 10
904.250
 20
-312.568
 30
0.000000
  70
    32
  0
VERTEX
  8
図枠
  5
456
 10
904.264
 20
-312.571
 30
0.000000
  70
    32
  0
VERTEX
  8
図枠
  5
457
 10
904.279
 20
-312.575
 30
0.000000
  70
    32
  0
VERTEX
  8
図枠
  5
458
 10
904.293
 20
-312.578
 30
0.000000
  70
    32
  0
VERTEX
  8
図枠
  5
459
 10
904.307
 20
-312.582
 30
0.000000
  70
    32
  0
VERTEX
  8
図枠
  5
45A
 10
904.322
 20
-312.585
 30
0.000000
  70
    32
  0
VERTEX
  8
図枠
  5
45B
 10
904.336
 20
-312.589
 30
0.000000
  70
    32
  0
VERTEX
  8
図枠
  5
45C
 10
904.350
 20
-312.592
 30
0.000000
  70
    32
  0
VERTEX
  8
図枠
  5
45D
 10
904.364
 20
-312.596
 30
0.000000
  70
    32
  0
VERTEX
  8
図枠
  5
45E
 10
904.379
 20
-312.599
 30
0.000000
  70
    32
  0
VERTEX
  8
図枠
  5
45F
 10
904.393
 20
-312.603
 30
0.000000
  70
    32
  0
VERTEX
  8
図枠
  5
460
 10
904.407
 20
-312.606
 30
0.000000
  70
    32
  0
VERTEX
  8
図枠
  5
461
 10
904.422
 20
-312.609
 30
0.000000
  70
    32
  0
VERTEX
  8
図枠
  5
462
 10
904.436
 20
-312.613
 30
0.000000
  70
    32
  0
VERTEX
  8
図枠
  5
463
 10
904.451
 20
-312.616
 30
0.000000
  70
    32
  0
VERTEX
  8
図枠
  5
464
 10
904.465
 20
-312.619
 30
0.000000
  70
    32
  0
VERTEX
  8
図枠
  5
465
 10
904.479
 20
-312.623
 30
0.000000
  70
    32
  0
VERTEX
  8
図枠
  5
466
 10
904.494
 20
-312.626
 30
0.000000
  70
    32
  0
VERTEX
  8
図枠
  5
467
 10
904.508
 20
-312.629
 30
0.000000
  70
    32
  0
VERTEX
  8
図枠
  5
468
 10
904.523
 20
-312.632
 30
0.000000
  70
    32
  0
VERTEX
  8
図枠
  5
469
 10
904.537
 20
-312.636
 30
0.000000
  70
    32
  0
VERTEX
  8
図枠
  5
46A
 10
904.552
 20
-312.639
 30
0.000000
  70
    32
  0
VERTEX
  8
図枠
  5
46B
 10
904.566
 20
-312.642
 30
0.000000
  70
    32
  0
VERTEX
  8
図枠
  5
46C
 10
904.581
 20
-312.645
 30
0.000000
  70
    32
  0
VERTEX
  8
図枠
  5
46D
 10
904.595
 20
-312.648
 30
0.000000
  70
    32
  0
VERTEX
  8
図枠
  5
46E
 10
904.610
 20
-312.651
 30
0.000000
  70
    32
  0
VERTEX
  8
図枠
  5
46F
 10
904.624
 20
-312.655
 30
0.000000
  70
    32
  0
VERTEX
  8
図枠
  5
470
 10
904.639
 20
-312.658
 30
0.000000
  70
    32
  0
VERTEX
  8
図枠
  5
471
 10
904.653
 20
-312.661
 30
0.000000
  70
    32
  0
VERTEX
  8
図枠
  5
472
 10
904.668
 20
-312.664
 30
0.000000
  70
    32
  0
VERTEX
  8
図枠
  5
473
 10
904.682
 20
-312.667
 30
0.000000
  70
    32
  0
VERTEX
  8
図枠
  5
474
 10
904.697
 20
-312.670
 30
0.000000
  70
    32
  0
VERTEX
  8
図枠
  5
475
 10
904.711
 20
-312.673
 30
0.000000
  70
    32
  0
VERTEX
  8
図枠
  5
476
 10
904.726
 20
-312.676
 30
0.000000
  70
    32
  0
VERTEX
  8
図枠
  5
477
 10
904.740
 20
-312.679
 30
0.000000
  70
    32
  0
VERTEX
  8
図枠
  5
478
 10
904.755
 20
-312.682
 30
0.000000
  70
    32
  0
VERTEX
  8
図枠
  5
479
 10
904.770
 20
-312.685
 30
0.000000
  70
    32
  0
VERTEX
  8
図枠
  5
47A
 10
904.784
 20
-312.688
 30
0.000000
  70
    32
  0
VERTEX
  8
図枠
  5
47B
 10
904.799
 20
-312.691
 30
0.000000
  70
    32
  0
VERTEX
  8
図枠
  5
47C
 10
904.813
 20
-312.694
 30
0.000000
  70
    32
  0
VERTEX
  8
図枠
  5
47D
 10
904.828
 20
-312.697
 30
0.000000
  70
    32
  0
VERTEX
  8
図枠
  5
47E
 10
904.843
 20
-312.700
 30
0.000000
  70
    32
  0
VERTEX
  8
図枠
  5
47F
 10
904.857
 20
-312.703
 30
0.000000
  70
    32
  0
VERTEX
  8
図枠
  5
480
 10
904.872
 20
-312.706
 30
0.000000
  70
    32
  0
VERTEX
  8
図枠
  5
481
 10
904.887
 20
-312.709
 30
0.000000
  70
    32
  0
VERTEX
  8
図枠
  5
482
 10
904.901
 20
-312.711
 30
0.000000
  70
    32
  0
VERTEX
  8
図枠
  5
483
 10
904.916
 20
-312.714
 30
0.000000
  70
    32
  0
VERTEX
  8
図枠
  5
484
 10
904.931
 20
-312.717
 30
0.000000
  70
    32
  0
VERTEX
  8
図枠
  5
485
 10
904.945
 20
-312.720
 30
0.000000
  70
    32
  0
VERTEX
  8
図枠
  5
486
 10
904.960
 20
-312.723
 30
0.000000
  70
    32
  0
VERTEX
  8
図枠
  5
487
 10
904.975
 20
-312.726
 30
0.000000
  70
    32
  0
VERTEX
  8
図枠
  5
488
 10
904.989
 20
-312.728
 30
0.000000
  70
    32
  0
VERTEX
  8
図枠
  5
489
 10
905.004
 20
-312.731
 30
0.000000
  70
    32
  0
VERTEX
  8
図枠
  5
48A
 10
905.019
 20
-312.734
 30
0.000000
  70
    32
  0
VERTEX
  8
図枠
  5
48B
 10
905.033
 20
-312.737
 30
0.000000
  70
    32
  0
VERTEX
  8
図枠
  5
48C
 10
905.048
 20
-312.740
 30
0.000000
  70
    32
  0
VERTEX
  8
図枠
  5
48D
 10
905.063
 20
-312.742
 30
0.000000
  70
    32
  0
VERTEX
  8
図枠
  5
48E
 10
905.078
 20
-312.745
 30
0.000000
  70
    32
  0
VERTEX
  8
図枠
  5
48F
 10
905.092
 20
-312.748
 30
0.000000
  70
    32
  0
VERTEX
  8
図枠
  5
490
 10
905.107
 20
-312.751
 30
0.000000
  70
    32
  0
VERTEX
  8
図枠
  5
491
 10
905.122
 20
-312.753
 30
0.000000
  70
    32
  0
VERTEX
  8
図枠
  5
492
 10
905.137
 20
-312.756
 30
0.000000
  70
    32
  0
VERTEX
  8
図枠
  5
493
 10
905.151
 20
-312.759
 30
0.000000
  70
    32
  0
VERTEX
  8
図枠
  5
494
 10
905.166
 20
-312.761
 30
0.000000
  70
    32
  0
VERTEX
  8
図枠
  5
495
 10
905.181
 20
-312.764
 30
0.000000
  70
    32
  0
VERTEX
  8
図枠
  5
496
 10
905.196
 20
-312.767
 30
0.000000
  70
    32
  0
VERTEX
  8
図枠
  5
497
 10
905.211
 20
-312.770
 30
0.000000
  70
    32
  0
VERTEX
  8
図枠
  5
498
 10
905.225
 20
-312.772
 30
0.000000
  70
    32
  0
VERTEX
  8
図枠
  5
499
 10
905.240
 20
-312.775
 30
0.000000
  70
    32
  0
VERTEX
  8
図枠
  5
49A
 10
905.255
 20
-312.777
 30
0.000000
  70
    32
  0
VERTEX
  8
図枠
  5
49B
 10
905.270
 20
-312.780
 30
0.000000
  70
    32
  0
VERTEX
  8
図枠
  5
49C
 10
905.284
 20
-312.783
 30
0.000000
  70
    32
  0
VERTEX
  8
図枠
  5
49D
 10
905.299
 20
-312.785
 30
0.000000
  70
    32
  0
VERTEX
  8
図枠
  5
49E
 10
905.314
 20
-312.788
 30
0.000000
  70
    32
  0
VERTEX
  8
図枠
  5
49F
 10
905.329
 20
-312.791
 30
0.000000
  70
    32
  0
VERTEX
  8
図枠
  5
4A0
 10
905.344
 20
-312.793
 30
0.000000
  70
    32
  0
VERTEX
  8
図枠
  5
4A1
 10
905.359
 20
-312.796
 30
0.000000
  70
    32
  0
VERTEX
  8
図枠
  5
4A2
 10
905.373
 20
-312.798
 30
0.000000
  70
    32
  0
VERTEX
  8
図枠
  5
4A3
 10
905.388
 20
-312.801
 30
0.000000
  70
    32
  0
VERTEX
  8
図枠
  5
4A4
 10
905.403
 20
-312.804
 30
0.000000
  70
    32
  0
VERTEX
  8
図枠
  5
4A5
 10
905.418
 20
-312.806
 30
0.000000
  70
    32
  0
VERTEX
  8
図枠
  5
4A6
 10
905.433
 20
-312.809
 30
0.000000
  70
    32
  0
VERTEX
  8
図枠
  5
4A7
 10
905.448
 20
-312.811
 30
0.000000
  70
    32
  0
VERTEX
  8
図枠
  5
4A8
 10
905.462
 20
-312.814
 30
0.000000
  70
    32
  0
VERTEX
  8
図枠
  5
4A9
 10
905.477
 20
-312.817
 30
0.000000
  70
    32
  0
VERTEX
  8
図枠
  5
4AA
 10
905.492
 20
-312.819
 30
0.000000
  70
    32
  0
VERTEX
  8
図枠
  5
4AB
 10
905.507
 20
-312.822
 30
0.000000
  70
    32
  0
VERTEX
  8
図枠
  5
4AC
 10
905.522
 20
-312.824
 30
0.000000
  70
    32
  0
VERTEX
  8
図枠
  5
4AD
 10
905.537
 20
-312.827
 30
0.000000
  70
    32
  0
VERTEX
  8
図枠
  5
4AE
 10
905.552
 20
-312.829
 30
0.000000
  70
    32
  0
VERTEX
  8
図枠
  5
4AF
 10
905.566
 20
-312.832
 30
0.000000
  70
    32
  0
VERTEX
  8
図枠
  5
4B0
 10
905.581
 20
-312.834
 30
0.000000
  70
    32
  0
VERTEX
  8
図枠
  5
4B1
 10
905.596
 20
-312.837
 30
0.000000
  70
    32
  0
VERTEX
  8
図枠
  5
4B2
 10
905.611
 20
-312.840
 30
0.000000
  70
    32
  0
VERTEX
  8
図枠
  5
4B3
 10
905.626
 20
-312.842
 30
0.000000
  70
    32
  0
VERTEX
  8
図枠
  5
4B4
 10
905.641
 20
-312.845
 30
0.000000
  70
    32
  0
VERTEX
  8
図枠
  5
4B5
 10
905.656
 20
-312.847
 30
0.000000
  70
    32
  0
VERTEX
  8
図枠
  5
4B6
 10
905.671
 20
-312.850
 30
0.000000
  70
    32
  0
VERTEX
  8
図枠
  5
4B7
 10
905.685
 20
-312.852
 30
0.000000
  70
    32
  0
VERTEX
  8
図枠
  5
4B8
 10
905.700
 20
-312.855
 30
0.000000
  70
    32
  0
VERTEX
  8
図枠
  5
4B9
 10
905.715
 20
-312.857
 30
0.000000
  70
    32
  0
VERTEX
  8
図枠
  5
4BA
 10
905.730
 20
-312.860
 30
0.000000
  70
    32
  0
VERTEX
  8
図枠
  5
4BB
 10
905.745
 20
-312.862
 30
0.000000
  70
    32
  0
VERTEX
  8
図枠
  5
4BC
 10
905.760
 20
-312.865
 30
0.000000
  70
    32
  0
VERTEX
  8
図枠
  5
4BD
 10
905.775
 20
-312.867
 30
0.000000
  70
    32
  0
VERTEX
  8
図枠
  5
4BE
 10
905.790
 20
-312.870
 30
0.000000
  70
    32
  0
VERTEX
  8
図枠
  5
4BF
 10
905.805
 20
-312.872
 30
0.000000
  70
    32
  0
VERTEX
  8
図枠
  5
4C0
 10
905.819
 20
-312.875
 30
0.000000
  70
    32
  0
VERTEX
  8
図枠
  5
4C1
 10
905.834
 20
-312.877
 30
0.000000
  70
    32
  0
SEQEND
  8
図枠
  5
4C2
  0
LINE
  5
3A
  8
図枠
 10
909.83872964119985
 20
-293.20543669279999
 30
0.0
 11
909.83872964119985
 21
-295.5092062928
 31
0.0
  0
LINE
  5
3B
  8
図枠
 10
909.83872964119985
 20
-293.20543669279999
 30
0.0
 11
909.83872964119985
 21
-295.5092062928
 31
0.0
  0
LINE
  5
3C
  8
図枠
 10
907.60814424390014
 20
-309.83763493319998
 30
0.0
 11
909.60687768389994
 21
-309.83763493319998
 31
0.0
  0
INSERT
  5
3E
  8
0
  6
CONTINUOUS
  2
*U13
 10
0.0
 20
0.0
 30
0.0
  0
INSERT
  5
3F
  8
0
  6
CONTINUOUS
  2
*U14
 10
0.0
 20
0.0
 30
0.0
  0
INSERT
  5
40
  8
0
  6
CONTINUOUS
  2
*U15
 10
0.0
 20
0.0
 30
0.0
  0
INSERT
  5
41
  8
0
  6
CONTINUOUS
  2
*U16
 10
0.0
 20
0.0
 30
0.0
  0
INSERT
  5
42
  8
0
  6
CONTINUOUS
  2
*U17
 10
0.0
 20
0.0
 30
0.0
  0
LINE
  5
43
  8
図枠
 10
878.51138187809988
 20
-290.1077464928
 30
0.0
 11
878.51138187809988
 21
-298.60689649279999
 31
0.0
  0
LINE
  5
44
  8
図枠
 10
888.51038187810013
 20
-298.60689649279999
 30
0.0
 11
888.51038187810013
 21
-307.10604649279998
 31
0.0
  0
INSERT
  5
45
  8
0
  6
CONTINUOUS
  2
*U18
 10
0.0
 20
0.0
 30
0.0
  0
LINE
  5
46
  8
図枠
 10
889.70746352389995
 20
-312.87733093320003
 30
0.0
 11
889.70746352389995
 21
-314.07721093319998
 31
0.0
  0
LINE
  5
47
  8
図枠
 62
     5
 10
974.50178187810013
 20
-315.60519649280002
 30
0.0
 11
974.50178187810013
 21
-125.6241964928
 31
0.0
  0
LINE
  5
48
  8
図枠
  6
DOT
 10
693.53288157809993
 20
-321.35462149279999
 30
0.0
 11
693.53288157809993
 21
-119.87477149279999
 31
0.0
  0
INSERT
  5
49
  8
0
  6
CONTINUOUS
  2
*U19
 10
0.0
 20
0.0
 30
0.0
  0
LINE
  5
4A
  8
図枠
  6
DOT
 10
693.5298818780999
 20
-119.87477149279999
 30
0.0
 11
980.50118187809983
 21
-119.87477149279999
 31
0.0
  0
LINE
  5
4B
  8
図枠
 62
     5
 10
699.52928187809994
 20
-125.6241964928
 30
0.0
 11
974.50178187810013
 21
-125.6241964928
 31
0.0
  0
CIRCLE
  5
4C
  8
図枠
 10
904.57277547809986
 20
-294.3573214928
 30
0.0
 40
1.151884799999999
  0
ARC
  5
4D
  8
図枠
 10
899.5949595239
 20
-309.83763493319998
 30
0.0
 40
3.0396959999999988
 50
270.0
 51
298.08590481520002
  0
LINE
  5
4E
  8
図枠
 10
907.60814424390014
 20
-311.91742693319998
 30
0.0
 11
907.60814424390014
 21
-313.3572829332
 31
0.0
  0
LINE
  5
4F
  8
図枠
 10
907.60814424390014
 20
-313.3572829332
 30
0.0
 11
910.63930776389986
 21
-313.3572829332
 31
0.0
  0
CIRCLE
  5
50
  8
図枠
 10
904.57277547809986
 20
-294.3573214928
 30
0.0
 40
2.303769599999999
  0
ARC
  5
51
  8
図枠
 10
899.5949595239
 20
-309.83763493319998
 30
0.0
 40
3.0396959999999988
 50
331.39928138329998
 51
358.49204224580001
  0
LINE
  5
52
  8
図枠
 10
858.51338187809995
 20
-290.1077464928
 30
0.0
 11
858.51338187809995
 21
-315.60519649280002
 31
0.0
  0
ARC
  5
53
  8
図枠
 10
892.9071435239
 20
-311.67745093320002
 30
0.0
 40
2.3997599999999988
 50
270.0
 51
0.0
  0
LINE
  5
54
  8
図枠
  6
DOT
 10
980.50118187809983
 20
-321.35462149279999
 30
0.0
 11
980.50118187809983
 21
-119.87477149279999
 31
0.0
  0
LINE
  5
55
  8
図枠
 62
     5
 10
699.52928187809994
 20
-315.60519649280002
 30
0.0
 11
699.52928187809994
 21
-125.6241964928
 31
0.0
  0
LINE
  5
56
  8
図枠
 10
909.83872964119985
 20
-295.5092062928
 30
0.0
 11
914.44626884119998
 21
-296.66109109280001
 31
0.0
  0
LINE
  5
57
  8
図枠
 10
909.83872964119985
 20
-293.20543669279999
 30
0.0
 11
914.44626884119998
 21
-292.05355189279999
 31
0.0
  0
LINE
  5
58
  8
図枠
  6
BORDER
 10
904.57277547809986
 20
-290.90166709279998
 30
0.0
 11
904.57277547809986
 21
-297.81297589280001
 31
0.0
  0
LINE
  5
59
  8
図枠
 10
895.30690352390002
 20
-311.67745093320002
 30
0.0
 11
895.30690352390002
 21
-311.2774909332
 31
0.0
  0
INSERT
  5
5A
  8
0
  6
CONTINUOUS
  2
*U20
 10
0.0
 20
0.0
 30
0.0
  0
LINE
  5
5B
  8
図枠
 10
860.5131818781
 20
-294.3573214928
 30
0.0
 11
876.51158187809995
 21
-294.3573214928
 31
0.0
  0
LINE
  5
5C
  8
図枠
 10
889.70746352389995
 20
-311.2774909332
 30
0.0
 11
889.70746352389995
 21
-312.47737093320001
 31
0.0
  0
LINE
  5
5D
  8
図枠
 10
889.70746352389995
 20
-308.47777093320002
 30
0.0
 11
889.70746352389995
 21
-310.07761093319999
 31
0.0
  0
LINE
  5
5E
  8
図枠
 10
896.50678352390003
 20
-310.07761093319999
 30
0.0
 11
895.30690352390002
 21
-310.07761093319999
 31
0.0
  0
LINE
  5
5F
  8
図枠
 10
909.2079842439
 20
-308.47777093320002
 30
0.0
 11
912.40766424389994
 21
-308.47777093320002
 31
0.0
  0
LINE
  5
60
  8
図枠
 10
909.83872964119985
 20
-295.5092062928
 30
0.0
 11
914.44626884119998
 21
-296.66109109280001
 31
0.0
  0
LINE
  5
61
  8
図枠
 10
909.83872964119985
 20
-293.20543669279999
 30
0.0
 11
909.83872964119985
 21
-295.5092062928
 31
0.0
  0
LINE
  5
62
  8
図枠
 10
898.63505552389995
 20
-314.07721093319998
 30
0.0
 11
898.63505552389995
 21
-312.87733093320003
 31
0.0
  0
LINE
  5
63
  8
図枠
 10
909.83872964119985
 20
-293.20543669279999
 30
0.0
 11
914.44626884119998
 21
-292.05355189279999
 31
0.0
  0
LINE
  5
64
  8
図枠
 10
907.60814424390014
 20
-311.2774909332
 30
0.0
 11
910.02923544390001
 21
-311.2774909332
 31
0.0
  0
LINE
  5
65
  8
図枠
 10
909.60687768389994
 20
-309.83763493319998
 30
0.0
 11
909.2079842439
 21
-308.47777093320002
 31
0.0
  0
LINE
  5
66
  8
図枠
 10
891.7072635239
 20
-312.47737093320001
 30
0.0
 11
891.7072635239
 21
-311.2774909332
 31
0.0
  0
LINE
  5
67
  8
図枠
 62
     5
 10
880.51118187809982
 20
-130.62369649280001
 30
0.0
 11
974.50178187810013
 21
-130.62369649280001
 31
0.0
  0
LINE
  5
68
  8
図枠
 62
     5
 10
880.51118187809982
 20
-135.62319649279999
 30
0.0
 11
974.50178187810013
 21
-135.62319649279999
 31
0.0
  0
LINE
  5
69
  8
図枠
 10
913.20758424389999
 20
-314.4771709332
 30
0.0
 11
912.88531993539993
 21
-313.3572829332
 31
0.0
  0
LINE
  5
6A
  8
図枠
 10
912.88531993539993
 20
-313.3572829332
 30
0.0
 11
914.80742424389985
 21
-313.3572829332
 31
0.0
  0
LINE
  5
6B
  8
図枠
 10
910.96780824389998
 20
-314.4771709332
 30
0.0
 11
910.63930776389986
 21
-313.3572829332
 31
0.0
  0
LINE
  5
6C
  8
図枠
 10
905.83433552389988
 20
-312.87733093320003
 30
0.0
 11
905.83433552389988
 21
-314.07721093319998
 31
0.0
  0
LINE
  5
6D
  8
図枠
 10
918.50738187809986
 20
-290.1077464928
 30
0.0
 11
918.50738187809986
 21
-315.60519649280002
 31
0.0
  0
ARC
  5
6E
  8
図枠
 10
900.6348555239
 20
-309.67765093320003
 30
0.0
 40
4.3995600000000001
 50
270.0
 51
302.54495885400001
  0
INSERT
  5
6F
  8
0
  6
CONTINUOUS
  2
*U21
 10
0.0
 20
0.0
 30
0.0
  0
LINE
  5
70
  8
図枠
 10
895.30690352390002
 20
-310.07761093319999
 30
0.0
 11
895.30690352390002
 21
-309.67765093320003
 31
0.0
  0
LINE
  5
71
  8
図枠
 10
889.70746352389995
 20
-311.2774909332
 30
0.0
 11
889.58659256300007
 21
-311.2774909332
 31
0.0
  0
LINE
  5
72
  8
図枠
 10
914.80742424389985
 20
-309.83763493319998
 30
0.0
 11
914.80742424389985
 21
-311.2774909332
 31
0.0
  0
LINE
  5
73
  8
図枠
 10
912.4709801102
 20
-311.91742693319998
 30
0.0
 11
914.80742424389985
 21
-311.91742693319998
 31
0.0
  0
LINE
  5
74
  8
図枠
 10
911.75538556299989
 20
-309.43069251909998
 30
0.0
 11
912.40766424389994
 21
-308.47777093320002
 31
0.0
  0
INSERT
  5
75
  8
0
  6
CONTINUOUS
  2
*U22
 10
0.0
 20
0.0
 30
0.0
  0
LINE
  5
76
  8
図枠
 62
     5
 10
904.50878187809985
 20
-140.6226964928
 30
0.0
 11
904.50878187809985
 21
-125.6241964928
 31
0.0
  0
LINE
  5
77
  8
図枠
 62
     5
 10
884.22652492060001
 20
-135.85555575480001
 30
0.0
 11
881.75177242059999
 21
-140.14195282099999
 31
0.0
  0
LINE
  5
78
  8
図枠
 62
     5
 10
884.22652492060001
 20
-135.85555575480001
 30
0.0
 11
886.70127742059992
 21
-140.14195282099999
 31
0.0
  0
CIRCLE
  5
79
  8
図枠
 10
904.57277547809986
 20
-294.3573214928
 30
0.0
 40
2.303769599999999
  0
LINE
  5
7A
  8
図枠
  6
BORDER
 10
904.57277547809986
 20
-290.90166709279998
 30
0.0
 11
904.57277547809986
 21
-297.81297589280001
 31
0.0
  0
CIRCLE
  5
7B
  8
図枠
 10
904.57277547809986
 20
-294.3573214928
 30
0.0
 40
2.303769599999999
  0
LINE
  5
7C
  8
図枠
 10
904.12468198799991
 20
-312.35668796980002
 30
0.0
 11
903.98221458839998
 21
-312.49617653489997
 31
0.0
  0
LINE
  5
7D
  8
図枠
 10
907.60814424390014
 20
-309.83763493319998
 30
0.0
 11
907.60814424390014
 21
-311.2774909332
 31
0.0
  0
ARC
  5
7E
  8
図枠
 10
900.6348555239
 20
-309.67765093320003
 30
0.0
 40
4.3995600000000001
 50
322.48761197969998
 51
0.0
  0
CIRCLE
  5
7F
  8
図枠
 10
904.57277547809986
 20
-294.3573214928
 30
0.0
 40
1.151884799999999
  0
LINE
  5
80
  8
図枠
 10
898.63505552389995
 20
-312.87733093320003
 30
0.0
 11
898.63505552389995
 21
-314.07721093319998
 31
0.0
  0
LINE
  5
81
  8
図枠
  6
DOT
 10
693.5298818780999
 20
-321.35462149279999
 30
0.0
 11
980.50118187809983
 21
-321.35462149279999
 31
0.0
  0
LINE
  5
82
  8
図枠
 62
     5
 10
699.52928187809994
 20
-315.60519649280002
 30
0.0
 11
974.50178187810013
 21
-315.60519649280002
 31
0.0
  0
LINE
  5
83
  8
図枠
 10
889.70746352389995
 20
-314.07721093319998
 30
0.0
 11
892.9071435239
 21
-314.07721093319998
 31
0.0
  0
LINE
  5
84
  8
図枠
 10
909.83872964119985
 20
-295.5092062928
 30
0.0
 11
914.44626884119998
 21
-296.66109109280001
 31
0.0
  0
LINE
  5
85
  8
図枠
 10
910.21695000390002
 20
-311.91742693319998
 30
0.0
 11
910.02923544390001
 21
-311.2774909332
 31
0.0
  0
LINE
  5
86
  8
図枠
 10
909.83872964119985
 20
-293.20543669279999
 30
0.0
 11
909.83872964119985
 21
-295.5092062928
 31
0.0
  0
LINE
  5
87
  8
図枠
 10
909.83872964119985
 20
-295.5092062928
 30
0.0
 11
914.44626884119998
 21
-296.66109109280001
 31
0.0
  0
INSERT
  5
88
  8
0
  6
CONTINUOUS
  2
*U23
 10
0.0
 20
0.0
 30
0.0
  0
LINE
  5
89
  8
図枠
 10
893.30710352389985
 20
-308.47777093320002
 30
0.0
 11
893.30710352389985
 21
-310.07761093319999
 31
0.0
  0
LINE
  5
8A
  8
図枠
 10
891.7072635239
 20
-311.2774909332
 30
0.0
 11
893.30710352389985
 21
-311.2774909332
 31
0.0
  0
INSERT
  5
8B
  8
0
  6
CONTINUOUS
  2
*U24
 10
0.0
 20
0.0
 30
0.0
  0
LINE
  5
8C
  8
図枠
 62
     5
 10
888.51038187810013
 20
-140.6226964928
 30
0.0
 11
888.51038187810013
 21
-125.6241964928
 31
0.0
  0
INSERT
  5
8D
  8
0
  6
CONTINUOUS
  2
*U25
 10
0.0
 20
0.0
 30
0.0
  0
INSERT
  5
8E
  8
0
  6
CONTINUOUS
  2
*U26
 10
0.0
 20
0.0
 30
0.0
  0
LINE
  5
8F
  8
図枠
 62
     5
 10
964.50278187810011
 20
-140.6226964928
 30
0.0
 11
964.50278187810011
 21
-125.6241964928
 31
0.0
  0
LINE
  5
90
  8
図枠
 62
     5
 10
954.50378187809986
 20
-140.6226964928
 30
0.0
 11
954.50378187809986
 21
-125.6241964928
 31
0.0
  0
LINE
  5
91
  8
図枠
 10
898.63505552389995
 20
-312.87733093320003
 30
0.0
 11
899.5949595239
 21
-312.87733093320003
 31
0.0
  0
LINE
  5
92
  8
図枠
 10
898.63505552389995
 20
-310.33527337829997
 30
0.0
 11
901.83473552389989
 21
-310.33527337829997
 31
0.0
  0
LINE
  5
93
  8
図枠
 10
911.87248925159997
 20
-309.83763493319998
 30
0.0
 11
914.80742424389985
 21
-309.83763493319998
 31
0.0
  0
CIRCLE
  5
94
  8
図枠
 10
904.57277547809986
 20
-294.3573214928
 30
0.0
 40
1.151884799999999
  0
LINE
  5
95
  8
図枠
 10
889.70746352389995
 20
-312.47737093320001
 30
0.0
 11
891.7072635239
 21
-312.47737093320001
 31
0.0
  0
LINE
  5
96
  8
図枠
  6
BORDER
 10
904.57277547809986
 20
-290.90166709279998
 30
0.0
 11
904.57277547809986
 21
-297.81297589280001
 31
0.0
  0
LINE
  5
97
  8
図枠
 10
893.30710352389985
 20
-311.2774909332
 30
0.0
 11
893.30710352389985
 21
-311.67745093320002
 31
0.0
  0
LINE
  5
98
  8
図枠
 10
895.30690352390002
 20
-309.67765093320003
 30
0.0
 11
896.50678352390003
 21
-308.47777093320002
 31
0.0
  0
INSERT
  5
99
  8
0
  6
CONTINUOUS
  2
*U27
 10
0.0
 20
0.0
 30
0.0
  0
LINE
  5
9A
  8
図枠
 10
858.51338187809995
 20
-290.1077464928
 30
0.0
 11
974.50178187810013
 21
-290.1077464928
 31
0.0
  0
INSERT
  5
9B
  8
0
  6
CONTINUOUS
  2
*U28
 10
0.0
 20
0.0
 30
0.0
  0
LINE
  5
9C
  8
図枠
 10
910.96780824389998
 20
-314.4771709332
 30
0.0
 11
913.20758424389999
 21
-314.4771709332
 31
0.0
  0
LINE
  5
9D
  8
図枠
 10
914.80742424389985
 20
-311.91742693319998
 30
0.0
 11
914.80742424389985
 21
-313.3572829332
 31
0.0
  0
LINE
  5
9E
  8
図枠
 10
890.51018187809996
 20
-302.85647149279998
 30
0.0
 11
916.50758187810004
 21
-302.85647149279998
 31
0.0
  0
LINE
  5
9F
  8
図枠
 10
893.30710352389985
 20
-310.07761093319999
 30
0.0
 11
891.7072635239
 21
-310.07761093319999
 31
0.0
  0
ARC
  5
A0
  8
図枠
 10
892.10722352389996
 20
-311.67745093320002
 30
0.0
 40
1.1998799999999989
 50
270.0
 51
0.0
  0
INSERT
  5
A1
  8
0
  6
CONTINUOUS
  2
*U29
 10
0.0
 20
0.0
 30
0.0
  0
LINE
  5
A2
  8
図枠
 10
914.44626884119998
 20
-292.05355189279999
 30
0.0
 11
914.44626884119998
 21
-296.66109109280001
 31
0.0
  0
LINE
  5
A3
  8
図枠
 10
914.44626884119998
 20
-292.05355189279999
 30
0.0
 11
914.44626884119998
 21
-296.66109109280001
 31
0.0
  0
INSERT
  5
A4
  8
0
  6
CONTINUOUS
  2
*U30
 10
0.0
 20
0.0
 30
0.0
  0
LINE
  5
A5
  8
図枠
 10
912.4709801102
 20
-311.91742693319998
 30
0.0
 11
912.28682907679979
 21
-311.2774909332
 31
0.0
  0
LINE
  5
A6
  8
図枠
 10
896.50678352390003
 20
-310.07761093319999
 30
0.0
 11
896.50678352390003
 21
-311.2774909332
 31
0.0
  0
LINE
  5
A7
  8
図枠
 10
902.26374261229989
 20
-311.29274613159998
 30
0.0
 11
902.07128521490006
 21
-311.50531556089999
 31
0.0
  0
LINE
  5
A8
  8
図枠
 10
892.10722352389996
 20
-312.87733093320003
 30
0.0
 11
889.70746352389995
 21
-312.87733093320003
 31
0.0
  0
LINE
  5
A9
  8
図枠
 10
911.87248925159997
 20
-309.83763493319998
 30
0.0
 11
911.75538556299989
 21
-309.43069251909998
 31
0.0
  0
LINE
  5
AA
  8
ﾚｲﾔ_1
 62
     5
 10
882.75189649200013
 20
-135.19290474179999
 30
0.0
 11
887.70189649199995
 21
-135.19290474179999
 31
0.0
  0
LINE
  5
AB
  8
ﾚｲﾔ_1
 62
     5
 10
885.22689649199981
 20
-130.90607899310001
 30
0.0
 11
882.75189649200013
 21
-135.19290474179999
 31
0.0
  0
LINE
  5
AC
  8
図枠
 10
898.63505552389995
 20
-310.5929358235
 30
0.0
 11
898.63505552389995
 21
-310.33527337829997
 31
0.0
  0
LINE
  5
AD
  8
図枠
 10
905.03441552389995
 20
-309.67765093320003
 30
0.0
 11
905.83433552389988
 21
-308.47777093320002
 31
0.0
  0
LINE
  5
AE
  8
図枠
 10
895.30690352390002
 20
-311.2774909332
 30
0.0
 11
896.50678352390003
 21
-311.2774909332
 31
0.0
  0
LINE
  5
AF
  8
図枠
 10
888.78667256300014
 20
-310.07761093319999
 30
0.0
 11
888.78667256300014
 21
-311.2774909332
 31
0.0
  0
LINE
  5
B0
  8
図枠
 10
912.28682907679979
 20
-311.2774909332
 30
0.0
 11
914.80742424389985
 21
-311.2774909332
 31
0.0
  0
LINE
  5
B1
  8
図枠
 10
914.44626884119998
 20
-292.05355189279999
 30
0.0
 11
914.44626884119998
 21
-296.66109109280001
 31
0.0
  0
LINE
  5
B2
  8
図枠
 10
891.7072635239
 20
-310.07761093319999
 30
0.0
 11
891.7072635239
 21
-309.67765093320003
 31
0.0
  0
LINE
  5
B3
  8
図枠
 10
892.9071435239
 20
-308.47777093320002
 30
0.0
 11
889.70746352389995
 21
-308.47777093320002
 31
0.0
  0
INSERT
  5
B4
  8
0
  6
CONTINUOUS
  2
*U31
 10
0.0
 20
0.0
 30
0.0
  0
LINE
  5
B5
  8
図枠
 10
909.83872964119985
 20
-293.20543669279999
 30
0.0
 11
914.44626884119998
 21
-292.05355189279999
 31
0.0
  0
INSERT
  5
B6
  8
0
  6
CONTINUOUS
  2
*U32
 10
0.0
 20
0.0
 30
0.0
  0
LINE
  5
B7
  8
図枠
 10
909.83872964119985
 20
-293.20543669279999
 30
0.0
 11
914.44626884119998
 21
-292.05355189279999
 31
0.0
  0
INSERT
  5
B8
  8
0
  6
CONTINUOUS
  2
*U33
 10
0.0
 20
0.0
 30
0.0
  0
INSERT
  5
B9
  8
0
  6
CONTINUOUS
  2
*U34
 10
0.0
 20
0.0
 30
0.0
  0
LINE
  5
BA
  8
ﾚｲﾔ_1
 62
     5
 10
885.22689649199981
 20
-130.90607899310001
 30
0.0
 11
887.70189649199995
 21
-135.19290474179999
 31
0.0
  0
LINE
  5
BB
  8
図枠
 62
     5
 10
881.75177242059999
 20
-140.14195282099999
 30
0.0
 11
886.70127742059992
 21
-140.14195282099999
 31
0.0
  0
LINE
  5
BC
  8
図枠
 10
889.70746352389995
 20
-310.07761093319999
 30
0.0
 11
888.78667256300014
 21
-310.07761093319999
 31
0.0
  0
ARC
  5
BD
  8
ﾚｲﾔ_1
 62
     5
 10
938.87488484720006
 20
-210.17797884199999
 30
0.0
 40
1.0
 50
270.0
 51
0.0
  0
LINE
  5
BE
  8
ﾚｲﾔ_1
 62
     5
 10
939.87488484720006
 20
-196.17797884199999
 30
0.0
 11
939.87488484720006
 21
-210.17797884199999
 31
0.0
  0
ARC
  5
BF
  8
ﾚｲﾔ_1
 62
     5
 10
938.87488484720006
 20
-196.17797884199999
 30
0.0
 40
1.0
 50
0.0
 51
90.0
  0
INSERT
  5
C0
  8
0
  6
CONTINUOUS
  2
*U35
 10
0.0
 20
0.0
 30
0.0
  0
INSERT
  5
C1
  8
0
  6
CONTINUOUS
  2
*U36
 10
0.0
 20
0.0
 30
0.0
  0
LINE
  5
C2
  8
ﾚｲﾔ_1
  6
BORDER
 62
     3
 10
864.15957764020015
 20
-162.12708333329999
 30
0.0
 11
974.15957764020004
 21
-162.12708333329999
 31
0.0
  0
CIRCLE
  5
C3
  8
図枠
 10
904.57277547809986
 20
-294.3573214928
 30
0.0
 40
1.151884799999999
  0
LINE
  5
C4
  8
図枠
 10
896.50678352390003
 20
-308.47777093320002
 30
0.0
 11
893.30710352389985
 21
-308.47777093320002
 31
0.0
  0
INSERT
  5
C5
  8
0
  6
CONTINUOUS
  2
*U37
 10
0.0
 20
0.0
 30
0.0
  0
INSERT
  5
C6
  8
0
  6
CONTINUOUS
  2
*U38
 10
0.0
 20
0.0
 30
0.0
  0
INSERT
  5
C7
  8
0
  6
CONTINUOUS
  2
*U39
 10
0.0
 20
0.0
 30
0.0
  0
LINE
  5
C8
  8
図枠
 10
888.78667256300014
 20
-311.2774909332
 30
0.0
 11
889.58659256300007
 21
-311.2774909332
 31
0.0
  0
LINE
  5
C9
  8
図枠
 10
891.7072635239
 20
-309.67765093320003
 30
0.0
 11
892.9071435239
 21
-308.47777093320002
 31
0.0
  0
LINE
  5
CA
  8
図枠
 10
880.51118187809982
 20
-294.3573214928
 30
0.0
 11
894.50978187809994
 21
-294.3573214928
 31
0.0
  0
INSERT
  5
CB
  8
0
  6
CONTINUOUS
  2
*U40
 10
0.0
 20
0.0
 30
0.0
  0
LINE
  5
CC
  8
図枠
 10
860.5131818781
 20
-302.85647149279998
 30
0.0
 11
886.51058187809997
 21
-302.85647149279998
 31
0.0
  0
LINE
  5
CD
  8
図枠
 10
898.63505552389995
 20
-309.91762693319998
 30
0.0
 11
902.63465552389994
 21
-309.91762693319998
 31
0.0
  0
LINE
  5
CE
  8
図枠
 10
898.63505552389995
 20
-308.47777093320002
 30
0.0
 11
898.63505552389995
 21
-309.91762693319998
 31
0.0
  0
LINE
  5
CF
  8
図枠
 10
898.50938187809993
 20
-290.1077464928
 30
0.0
 11
898.50938187809993
 21
-298.60689649279999
 31
0.0
  0
LINE
  5
D0
  8
図枠
 62
     5
 10
880.51118187809982
 20
-140.6226964928
 30
0.0
 11
974.50178187810013
 21
-140.6226964928
 31
0.0
  0
LINE
  5
D1
  8
図枠
 10
858.51338187809995
 20
-298.60689649279999
 30
0.0
 11
974.50178187810013
 21
-298.60689649279999
 31
0.0
  0
LINE
  5
D2
  8
図枠
 10
858.51338187809995
 20
-307.10604649279998
 30
0.0
 11
974.50178187810013
 21
-307.10604649279998
 31
0.0
  0
LINE
  5
D3
  8
図枠
 10
905.83433552389988
 20
-308.47777093320002
 30
0.0
 11
898.63505552389995
 21
-308.47777093320002
 31
0.0
  0
LINE
  5
D4
  8
図枠
 62
     5
 10
880.51118187809982
 20
-140.6226964928
 30
0.0
 11
880.51118187809982
 21
-125.6241964928
 31
0.0
  0
LINE
  5
D5
  8
図枠
 10
914.44626884119998
 20
-292.05355189279999
 30
0.0
 11
914.44626884119998
 21
-296.66109109280001
 31
0.0
  0
ARC
  5
D6
  8
ﾚｲﾔ_1
 62
     5
 10
819.97290873029988
 20
-271.64765570150001
 30
0.0
 40
1.0
 50
56.309932841799998
 51
90.000000917700007
  0
LINE
  5
D7
  8
ﾚｲﾔ_1
 62
     5
 10
752.77568436470006
 20
-270.14765713129998
 30
0.0
 11
774.27568436470006
 21
-270.14765639550001
 31
0.0
  0
LINE
  5
D8
  8
ﾚｲﾔ_1
 62
     5
 10
819.97290871429993
 20
-270.64765570150001
 30
0.0
 11
811.02568435000001
 21
-270.64765584740002
 31
0.0
  0
LINE
  5
D9
  8
ﾚｲﾔ_1
 62
     5
 10
737.07845999849997
 20
-270.64765597429999
 30
0.0
 11
746.02568434999989
 21
-270.64765692190002
 31
0.0
  0
LINE
  5
DA
  8
ﾚｲﾔ_1
 62
     5
 10
804.27568460450004
 20
-270.14765625000001
 30
0.0
 11
782.77568460449993
 21
-270.14765625000001
 31
0.0
  0
DIMENSION
  5
EB
  8
寸法線
  2
*D0
 10
929.87488484719995
 20
-187.17797884199999
 30
0.0
 11
912.37488484720006
 21
-187.17797884199999
 31
0.0
 70
   128
  1
<>
 13
929.87488484719995
 23
-197.17797884199999
 33
0.0
 14
894.87488484719995
 24
-197.17797884199999
 34
0.0
  0
DIMENSION
  5
FA
  8
寸法線
  2
*D1
 10
949.87488484720006
 20
-211.17797884199999
 30
0.0
 11
949.87488484720006
 21
-203.17797884199999
 31
0.0
 70
   128
  1
<>
 13
939.87488484720006
 23
-211.17797884199999
 33
0.0
 14
939.87488484720006
 24
-195.17797884199999
 34
0.0
 50
90.0
  0
DIMENSION
  5
109
  8
寸法線
  2
*D2
 10
939.87488484720006
 20
-181.2090521241
 30
0.0
 11
912.37488484720006
 21
-181.2090521241
 31
0.0
 70
   128
  1
<>
 13
939.87488484720006
 23
-195.17797884199999
 33
0.0
 14
884.87488484719995
 24
-195.17797884199999
 34
0.0
  0
CIRCLE
  5
10A
  8
ﾚｲﾔ_1
 62
     5
 10
894.87488484719995
 20
-203.17797884199999
 30
0.0
 40
2.149999999999999
  0
CIRCLE
  5
10B
  8
ﾚｲﾔ_1
 62
     5
 10
894.87488484719995
 20
-203.17797884199999
 30
0.0
 40
3.399999999999999
  0
CIRCLE
  5
10C
  8
ﾚｲﾔ_1
 62
     5
 10
929.87488484719995
 20
-203.17797884199999
 30
0.0
 40
3.399999999999999
  0
CIRCLE
  5
10D
  8
ﾚｲﾔ_1
 62
     5
 10
929.87488484719995
 20
-203.17797884199999
 30
0.0
 40
2.149999999999999
  0
LINE
  5
10E
  8
ﾚｲﾔ_1
  6
BORDER
 62
     3
 10
881.87488484720006
 20
-203.17797884199999
 30
0.0
 11
942.87488484719995
 21
-203.17797884199999
 31
0.0
  0
LINE
  5
10F
  8
ﾚｲﾔ_1
 10
937.14207571839995
 20
-175.8306588383
 30
0.0
 11
964.49528540189988
 21
-175.8306588383
 31
0.0
  0
LINE
  5
110
  8
ﾚｲﾔ_1
 10
931.25234737979997
 20
-200.0695070356
 30
0.0
 11
937.14207571839995
 21
-175.8306588383
 31
0.0
  0
SOLID
  5
111
  8
ﾚｲﾔ_1
 10
931.25234737979997
 20
-200.0695070356
 30
0.0
 11
931.17957864159996
 21
-196.96453108750001
 31
0.0
 12
931.77089544490013
 22
-197.9354514206
 32
0.0
 13
931.77089544490013
 23
-197.9354514206
 33
0.0
  0
SOLID
  5
112
  8
ﾚｲﾔ_1
 10
931.25234737979997
 20
-200.0695070356
 30
0.0
 11
932.74181577789977
 21
-197.3441346173
 31
0.0
 12
931.77089544490013
 22
-197.9354514206
 32
0.0
 13
931.77089544490013
 23
-197.9354514206
 33
0.0
  0
INSERT
  5
113
  8
0
  6
CONTINUOUS
  2
*U41
 10
0.0
 20
0.0
 30
0.0
  0
LINE
  5
114
  8
ﾚｲﾔ_1
  6
BORDER
 62
     3
 10
864.15957764020015
 20
-232.12708333329999
 30
0.0
 11
974.15957764020004
 21
-232.12708333329999
 31
0.0
  0
LINE
  5
115
  8
ﾚｲﾔ_1
  6
BORDER
 62
     3
 10
864.15957764020015
 20
-232.12708333329999
 30
0.0
 11
864.15957764020015
 21
-162.12708333329999
 31
0.0
  0
LINE
  5
116
  8
ﾚｲﾔ_1
  6
BORDER
 62
     3
 10
894.87488484719995
 20
-197.17797884199999
 30
0.0
 11
894.87488484719995
 21
-209.17797884199999
 31
0.0
  0
LINE
  5
117
  8
ﾚｲﾔ_1
  6
BORDER
 62
     3
 10
929.87488484719995
 20
-197.17797884199999
 30
0.0
 11
929.87488484719995
 21
-209.17797884199999
 31
0.0
  0
ARC
  5
118
  8
ﾚｲﾔ_1
 62
     5
 10
885.87488484719995
 20
-210.17797884199999
 30
0.0
 40
1.0
 50
180.0
 51
270.0
  0
LINE
  5
119
  8
ﾚｲﾔ_1
 62
     5
 10
938.87488484720006
 20
-211.17797884199999
 30
0.0
 11
885.87488484719995
 21
-211.17797884199999
 31
0.0
  0
LINE
  5
11A
  8
ﾚｲﾔ_1
 62
     5
 10
884.87488484719995
 20
-210.17797884199999
 30
0.0
 11
884.87488484719995
 21
-196.17797884199999
 31
0.0
  0
ARC
  5
11B
  8
ﾚｲﾔ_1
 62
     5
 10
885.87488484719995
 20
-196.17797884199999
 30
0.0
 40
1.0
 50
90.0
 51
180.0
  0
LINE
  5
11C
  8
ﾚｲﾔ_1
 62
     5
 10
885.87488484719995
 20
-195.17797884199999
 30
0.0
 11
938.87488484720006
 21
-195.17797884199999
 31
0.0
  0
LINE
  5
11D
  8
ﾚｲﾔ_1
 62
     5
 10
752.77568404749991
 20
-261.14765713130009
 30
0.0
 11
774.27568404750002
 21
-261.14765639550001
 31
0.0
  0
LINE
  5
11E
  8
ﾚｲﾔ_1
 62
     5
 10
774.27568398819994
 20
-259.14765639550001
 30
0.0
 11
774.27568404750002
 21
-261.14765639550001
 31
0.0
  0
LINE
  5
11F
  8
ﾚｲﾔ_1
 62
     5
 10
752.77568398819994
 20
-259.14765713130009
 30
0.0
 11
752.77568404749991
 21
-261.14765713130009
 31
0.0
  0
LINE
  5
120
  8
ﾚｲﾔ_1
 62
     5
 10
804.27568460450004
 20
-259.14765625000001
 30
0.0
 11
804.27568461369992
 21
-261.14765625000001
 31
0.0
  0
LINE
  5
121
  8
ﾚｲﾔ_1
 62
     5
 10
811.02568431350005
 20
-260.14765599319998
 30
0.0
 11
811.02568435000001
 21
-270.64765584740002
 31
0.0
  0
DIMENSION
  5
130
  8
寸法線
  2
*D3
 10
735.27568437499986
 20
-286.2504859352
 30
0.0
 11
778.52568437499997
 21
-286.2504859352
 31
0.0
 70
   128
  1
<>
 13
735.27568437499986
 23
-272.64765600210001
 33
0.0
 14
821.77568437499986
 24
-272.64765581069997
 34
0.0
 50
180.0
  0
DIMENSION
  5
13F
  8
寸法線
  2
*D4
 10
725.27568437499986
 20
-270.64765588009999
 30
0.0
 11
725.27568437499986
 21
-271.64765594110003
 31
0.0
 70
   128
  1
<>
 13
735.77568455839992
 23
-270.64765588009999
 33
0.0
 14
735.27568437499986
 24
-272.64765600210001
 34
0.0
 50
90.0
  0
DIMENSION
  5
14E
  8
寸法線
  2
*D5
 10
793.52568457639995
 20
-245.34539954019999
 30
0.0
 11
778.52568419369993
 21
-245.34539954019999
 31
0.0
 70
   128
  1
<>
 13
793.52568457639995
 23
-253.14765598549999
 33
0.0
 14
763.52568381089998
 24
-253.14765649890001
 34
0.0
  0
DIMENSION
  5
15D
  8
寸法線
  2
*D6
 10
811.02568430649978
 20
-238.70747041800001
 30
0.0
 11
778.5256843064999
 21
-238.70747041800001
 31
0.0
 70
   128
  1
<>
 13
811.02568430649978
 23
-258.14765596479998
 33
0.0
 14
746.0256843064999
 24
-258.14765704849998
 34
0.0
  0
DIMENSION
  5
16C
  8
寸法線
  2
*D7
 10
831.77568437499997
 20
-272.64765581069997
 30
0.0
 11
831.77568437499997
 21
-264.89765589000001
 31
0.0
 70
   128
  1
<>
 13
821.77568437499986
 23
-272.64765581069997
 33
0.0
 14
810.0256843064999
 24
-257.14765596939998
 34
0.0
 50
90.0
  0
DIMENSION
  5
17B
  8
寸法線
  2
*D8
 10
867.87603198959994
 20
-247.1476559724
 30
0.0
 11
859.35942861169985
 21
-247.1476559724
 31
0.0
 70
   128
  1
(3)
 13
867.87603198959994
 23
-257.1476559724
 33
0.0
 14
865.37603208149994
 24
-259.6476559724
 34
0.0
  0
DIMENSION
  5
18A
  8
寸法線
  2
*D9
 10
891.87603198960005
 20
-247.14765586729999
 30
0.0
 11
879.87603198960005
 21
-247.14765586729999
 31
0.0
 70
   128
  1
<>
 13
891.87603198960005
 23
-257.14765586729999
 33
0.0
 14
867.87603198959994
 24
-257.1476559724
 34
0.0
  0
LINE
  5
18B
  8
ﾚｲﾔ_1
 62
     5
 10
870.8760319964
 20
-257.14765595739999
 30
0.0
 11
888.87603199639989
 21
-257.14765588220001
 31
0.0
  0
LINE
  5
18C
  8
ﾚｲﾔ_1
 62
     5
 10
867.87603208830001
 20
-272.6476559724
 30
0.0
 11
891.87603208830001
 21
-272.64765586729999
 31
0.0
  0
LINE
  5
18D
  8
ﾚｲﾔ_1
 62
     5
 10
808.02568426209996
 20
-257.14765600369998
 30
0.0
 11
749.02568426209996
 21
-257.14765700970003
 31
0.0
  0
LINE
  5
18E
  8
ﾚｲﾔ_1
 62
     5
 10
891.87603208420001
 20
-272.18283950220001
 30
0.0
 11
891.87603208830001
 21
-272.64765586729999
 31
0.0
  0
ARC
  5
18F
  8
ﾚｲﾔ_1
 62
     5
 10
890.87603208420001
 20
-272.18283951109998
 30
0.0
 40
1.0
 50
0.0000005072
 51
56.309932841799998
  0
ARC
  5
190
  8
ﾚｲﾔ_1
 62
     5
 10
870.87603200889998
 20
-260.14765595739999
 30
0.0
 40
3.0
 50
90.000000239300007
 51
180.0000003639
  0
ARC
  5
191
  8
ﾚｲﾔ_1
 62
     5
 10
888.87603200889998
 20
-260.14765588220001
 30
0.0
 40
3.0
 50
0.0000003639
 51
90.000000239300007
  0
LINE
  5
192
  8
ﾚｲﾔ_1
 62
     5
 10
865.37603201520005
 20
-259.34765595739998
 30
0.0
 11
867.9846655499
 21
-259.34765595739998
 31
0.0
  0
LINE
  5
193
  8
ﾚｲﾔ_1
 62
     5
 10
821.77568437080004
 20
-272.1828394456
 30
0.0
 11
821.77568437499986
 21
-272.64765581069997
 31
0.0
  0
LINE
  5
194
  8
ﾚｲﾔ_1
 62
     5
 10
735.27568437080004
 20
-272.18283965440003
 30
0.0
 11
735.27568437499986
 21
-272.64765600210001
 31
0.0
  0
LINE
  5
195
  8
ﾚｲﾔ_1
 62
     5
 10
735.27568437499986
 20
-272.64765600210001
 30
0.0
 11
821.77568437499986
 21
-272.64765581069997
 31
0.0
  0
LINE
  5
196
  8
ﾚｲﾔ_1
 62
     5
 10
735.27568437499986
 20
-272.64765600210001
 30
0.0
 11
821.77568437499986
 21
-272.64765581069997
 31
0.0
  0
ARC
  5
197
  8
ﾚｲﾔ_1
 62
     5
 10
737.07845988119993
 20
-271.64765597429999
 30
0.0
 40
1.0
 50
89.999993274199994
 51
123.6900674117
  0
LINE
  5
198
  8
ﾚｲﾔ_1
 62
     5
 10
804.27568460450004
 20
-259.14765625000001
 30
0.0
 11
782.77568460449993
 21
-259.14765625000001
 31
0.0
  0
ARC
  5
199
  8
ﾚｲﾔ_1
 62
     5
 10
820.77568437080015
 20
-272.18283945439998
 30
0.0
 40
1.0
 50
0.0000005072
 51
56.309932841799998
  0
LINE
  5
19A
  8
ﾚｲﾔ_1
 62
     5
 10
820.5276089212
 20
-270.81560540359999
 30
0.0
 11
821.33038456170004
 21
-271.35078915650001
 31
0.0
  0
ARC
  5
19B
  8
ﾚｲﾔ_1
 62
     5
 10
736.27568437080004
 20
-272.1828396455
 30
0.0
 40
1.0
 50
123.6900674117
 51
180.00000050720001
  0
LINE
  5
19C
  8
ﾚｲﾔ_1
 62
     5
 10
736.52375968659987
 20
-270.81560567880001
 30
0.0
 11
735.72098417630002
 21
-271.3507893501
 31
0.0
  0
ARC
  5
19D
  8
ﾚｲﾔ_1
 62
     5
 10
808.02568431350005
 20
-260.14765600369998
 30
0.0
 40
3.0
 50
0.0000001995
 51
90.000000980500005
  0
ARC
  5
19E
  8
ﾚｲﾔ_1
 62
     5
 10
749.02568431350005
 20
-260.14765700970003
 30
0.0
 40
3.0
 50
90.000000980500005
 51
180.00000019949999
  0
LINE
  5
19F
  8
ﾚｲﾔ_1
 62
     5
 10
752.77568398819994
 20
-259.14765713130009
 30
0.0
 11
774.27568398819994
 21
-259.14765639550001
 31
0.0
  0
LINE
  5
1A0
  8
ﾚｲﾔ_1
 62
     5
 10
865.37603201520005
 20
-268.14765625000001
 30
0.0
 11
867.87603205970004
 21
-268.14765625000001
 31
0.0
  0
LINE
  5
1A1
  8
ﾚｲﾔ_1
  6
BORDER
 62
     3
 10
879.87603208250005
 20
-254.1476559198
 30
0.0
 11
879.87603208919984
 21
-275.64765598550002
 31
0.0
  0
LINE
  5
1A2
  8
ﾚｲﾔ_1
 62
     5
 10
891.87603200889987
 20
-260.14765586319999
 30
0.0
 11
891.87603208830001
 21
-272.64765586729999
 31
0.0
  0
LINE
  5
1A3
  8
ﾚｲﾔ_1
 62
     5
 10
867.87603200889987
 20
-260.1476559765
 30
0.0
 11
867.87603208830001
 21
-272.6476559724
 31
0.0
  0
LINE
  5
1A4
  8
ﾚｲﾔ_1
 62
     5
 10
865.37603201520005
 20
-261.14765595739999
 30
0.0
 11
867.87603201520005
 21
-261.14765595739999
 31
0.0
  0
LINE
  5
1A5
  8
ﾚｲﾔ_1
 62
     5
 10
865.37603201520005
 20
-259.34765595739998
 30
0.0
 11
865.37603201520005
 21
-261.14765595739999
 31
0.0
  0
LINE
  5
1A6
  8
ﾚｲﾔ_1
 62
     5
 10
865.37603201520005
 20
-268.14765625000001
 30
0.0
 11
865.37603201520005
 21
-269.94765625000002
 31
0.0
  0
LINE
  5
1A7
  8
ﾚｲﾔ_1
 62
     5
 10
890.62795663449981
 20
-270.81560546029999
 30
0.0
 11
891.43073227509979
 21
-271.35078921320002
 31
0.0
  0
ARC
  5
1A8
  8
ﾚｲﾔ_1
 62
     5
 10
890.07325644359992
 20
-271.64765575820002
 30
0.0
 40
1.0
 50
56.309932841799998
 51
90.000000917700007
  0
LINE
  5
1A9
  8
ﾚｲﾔ_1
 62
     5
 10
890.07325642759986
 20
-270.64765575820002
 30
0.0
 11
879.87603208770008
 21
-270.64765587020003
 31
0.0
  0
LINE
  5
1AA
  8
ﾚｲﾔ_1
 62
     5
 10
869.67880774770003
 20
-270.64765576460002
 30
0.0
 11
879.87603208770008
 21
-270.64765587020003
 31
0.0
  0
ARC
  5
1AB
  8
ﾚｲﾔ_1
 62
     5
 10
869.6788077322999
 20
-271.64765576460002
 30
0.0
 40
1.0
 50
89.999999118399984
 51
123.6900671942
  0
LINE
  5
1AC
  8
ﾚｲﾔ_1
 62
     5
 10
869.1241075408999
 20
-270.81560546700001
 30
0.0
 11
868.32133190069999
 21
-271.35078922039997
 31
0.0
  0
ARC
  5
1AD
  8
ﾚｲﾔ_1
 62
     5
 10
868.87603209210022
 20
-272.18283951799998
 30
0.0
 40
1.0
 50
123.6900671942
 51
179.99999952889999
  0
LINE
  5
1AE
  8
ﾚｲﾔ_1
 62
     5
 10
865.37603201520005
 20
-269.94765625000002
 30
0.0
 11
867.87603201520005
 21
-269.94765625000002
 31
0.0
  0
LINE
  5
1AF
  8
ﾚｲﾔ_1
 62
     5
 10
782.77568460449993
 20
-259.14765625000001
 30
0.0
 11
782.77568461369992
 21
-261.14765625000001
 31
0.0
  0
LINE
  5
1B0
  8
ﾚｲﾔ_1
 62
     5
 10
804.27568461369992
 20
-261.14765625000001
 30
0.0
 11
782.77568461369992
 21
-261.14765625000001
 31
0.0
  0
LINE
  5
1B1
  8
ﾚｲﾔ_1
 62
     5
 10
811.02568420179989
 20
-175.1088804908
 30
0.0
 11
811.0256845527
 21
-193.1088804908
 31
0.0
  0
ARC
  5
1B2
  8
ﾚｲﾔ_1
 62
     5
 10
808.02568420179978
 20
-175.10888056280001
 30
0.0
 40
3.0
 50
0.0000013749
 51
90.000000400299996
  0
LINE
  5
1B3
  8
ﾚｲﾔ_1
 62
     5
 10
814.2756843704999
 20
-186.3588806619
 30
0.0
 11
814.2756843704999
 21
-181.85888015669991
 31
0.0
  0
ARC
  5
1B4
  8
ﾚｲﾔ_1
 62
     5
 10
816.0256843704999
 20
-181.8588804128
 30
0.0
 40
1.75
 50
0.0000118246
 51
179.99999161619999
  0
LINE
  5
1B5
  8
ﾚｲﾔ_1
  6
BORDER
 62
     3
 10
824.77568447820011
 20
-184.10888031869999
 30
0.0
 11
732.27568447819999
 21
-184.10888131350001
 31
0.0
  0
ARC
  5
1B6
  8
ﾚｲﾔ_1
 62
     5
 10
818.77568420179978
 20
-175.10888047829999
 30
0.0
 40
3.0
 50
0.0000013749
 51
89.999991553799987
  0
LINE
  5
1B7
  8
ﾚｲﾔ_1
 62
     5
 10
738.27568453589993
 20
-172.10888104079999
 30
0.0
 11
818.77568464410012
 21
-172.10888047829999
 31
0.0
  0
ARC
  5
1B8
  8
ﾚｲﾔ_1
 62
     5
 10
738.27568420179978
 20
-175.10888104079999
 30
0.0
 40
3.0
 50
89.999993618600001
 51
180.00000137489999
  0
DIMENSION
  5
1C7
  8
寸法線
  2
*D10
 10
816.0256843704999
 20
-160.0950816955
 30
0.0
 11
778.77622815820007
 21
-160.0950816955
 31
0.0
 70
   128
  1
<>
 13
816.0256843704999
 23
-178.6088804128
 33
0.0
 14
741.02568437050002
 24
-178.60888121939999
 34
0.0
  0
DIMENSION
  5
1D6
  8
寸法線
  2
*D11
 10
817.78328608569996
 20
-166.65259803539999
 30
0.0
 11
823.36204289499995
 21
-166.65259803539999
 31
0.0
 70
   128
  1
<>
 13
817.78328608569996
 23
-181.2302001422
 33
0.0
 14
814.28328608569996
 24
-181.23020024729999
 34
0.0
  0
DIMENSION
  5
1E5
  8
寸法線
  2
*D12
 10
832.0314922471
 20
-188.1088804128
 30
0.0
 11
832.0314922471
 21
-184.10888041279989
 31
0.0
 70
   128
  1
<>
 13
816.0256843704999
 23
-188.1088804128
 33
0.0
 14
816.0256843704999
 24
-180.10888041279989
 34
0.0
 50
90.0
  0
LINE
  5
1EC
  8
ﾚｲﾔ_1
 62
     5
 10
746.02568431350005
 20
-260.14765702019997
 30
0.0
 11
746.02568434999989
 21
-270.64765692190002
 31
0.0
  0
LINE
  5
1ED
  8
ﾚｲﾔ_1
  6
BORDER
 62
     3
 10
763.52568381089998
 20
-253.14765649890001
 30
0.0
 11
763.52568447579995
 21
-275.64765649890001
 31
0.0
  0
LINE
  5
1EE
  8
ﾚｲﾔ_1
  6
BORDER
 62
     3
 10
793.52568457639995
 20
-253.14765598549999
 30
0.0
 11
793.52568468160007
 21
-275.64765598550002
 31
0.0
  0
LINE
  5
1EF
  8
ﾚｲﾔ_1
 62
     5
 10
752.77568430539998
 20
-268.14765713129998
 30
0.0
 11
774.27568430539986
 21
-268.14765639550001
 31
0.0
  0
LINE
  5
1F0
  8
ﾚｲﾔ_1
 62
     5
 10
752.77568430539998
 20
-268.14765713129998
 30
0.0
 11
752.77568436470006
 21
-270.14765713129998
 31
0.0
  0
LINE
  5
1F1
  8
ﾚｲﾔ_1
 62
     5
 10
774.27568430539986
 20
-268.14765639550001
 30
0.0
 11
774.27568436470006
 21
-270.14765639550001
 31
0.0
  0
LINE
  5
1F2
  8
ﾚｲﾔ_1
 62
     5
 10
782.77568459529994
 20
-268.14765625000001
 30
0.0
 11
782.77568460449993
 21
-270.14765625000001
 31
0.0
  0
LINE
  5
1F3
  8
ﾚｲﾔ_1
 62
     5
 10
804.27568459529994
 20
-268.14765625000001
 30
0.0
 11
804.27568460450004
 21
-270.14765625000001
 31
0.0
  0
LINE
  5
1F4
  8
ﾚｲﾔ_1
 62
     5
 10
804.27568459529994
 20
-268.14765625000001
 30
0.0
 11
782.77568459529994
 21
-268.14765625000001
 31
0.0
  0
LINE
  5
1F5
  8
ﾚｲﾔ_1
  6
BORDER
 62
     3
 10
763.52568447819999
 20
-169.35888136080001
 30
0.0
 11
763.52568472049995
 21
-201.10888136080001
 31
0.0
  0
LINE
  5
1F6
  8
ﾚｲﾔ_1
  6
BORDER
 62
     3
 10
793.52568415690007
 20
-169.35888103900001
 30
0.0
 11
793.5256846325999
 21
-201.10888103900001
 31
0.0
  0
LINE
  5
1F7
  8
ﾚｲﾔ_1
 62
     5
 10
821.7756845527
 20
-193.1088804064
 30
0.0
 11
821.77568420179989
 21
-175.1088804064
 31
0.0
  0
LINE
  5
1F8
  8
ﾚｲﾔ_1
 62
     5
 10
735.27568455269989
 20
-193.10888111279999
 30
0.0
 11
735.27568420179978
 21
-175.10888111279999
 31
0.0
  0
ARC
  5
1F9
  8
ﾚｲﾔ_1
 62
     5
 10
818.77568455269989
 20
-193.10888047829999
 30
0.0
 40
3.0
 50
269.9999943853
 51
0.0000013749
  0
ARC
  5
1FA
  8
ﾚｲﾔ_1
 62
     5
 10
738.2756845527
 20
-193.10888104079999
 30
0.0
 40
3.0
 50
180.00000137489999
 51
270.00000829689998
  0
LINE
  5
1FB
  8
ﾚｲﾔ_1
 62
     5
 10
738.27568498710002
 20
-196.10888104079999
 30
0.0
 11
818.77568425869993
 21
-196.10888047829999
 31
0.0
  0
LINE
  5
1FC
  8
ﾚｲﾔ_1
 62
     5
 10
804.2756845859999
 20
-198.10888051649999
 30
0.0
 11
782.77568458600001
 21
-198.10888051649999
 31
0.0
  0
LINE
  5
1FD
  8
ﾚｲﾔ_1
 62
     5
 10
782.77568455489995
 20
-196.10888072989999
 30
0.0
 11
782.77568458600001
 21
-198.10888051649999
 31
0.0
  0
LINE
  5
1FE
  8
ﾚｲﾔ_1
 62
     5
 10
804.27568455489995
 20
-196.10888057970001
 30
0.0
 11
804.2756845859999
 21
-198.10888051649999
 31
0.0
  0
LINE
  5
1FF
  8
ﾚｲﾔ_1
 62
     5
 10
752.77568469089988
 20
-196.10888113210001
 30
0.0
 11
752.77568470279994
 21
-198.10888106889999
 31
0.0
  0
LINE
  5
200
  8
ﾚｲﾔ_1
 62
     5
 10
774.27568469089988
 20
-196.1088808211
 30
0.0
 11
774.27568470279994
 21
-198.10888060760001
 31
0.0
  0
LINE
  5
201
  8
ﾚｲﾔ_1
 62
     5
 10
752.77568470279994
 20
-198.10888106889999
 30
0.0
 11
774.27568470279994
 21
-198.10888060760001
 31
0.0
  0
ARC
  5
202
  8
ﾚｲﾔ_1
 62
     5
 10
741.02568437050002
 20
-186.35888121939999
 30
0.0
 40
1.75
 50
180.00000828579999
 51
359.99999184469999
  0
LINE
  5
203
  8
ﾚｲﾔ_1
 62
     5
 10
739.27568437050002
 20
-186.3588814725
 30
0.0
 11
739.27568437050002
 21
-181.8588808582
 31
0.0
  0
LINE
  5
204
  8
ﾚｲﾔ_1
 62
     5
 10
742.77568437050002
 20
-186.35888146849999
 30
0.0
 11
742.77568437050002
 21
-181.85888096330001
 31
0.0
  0
LINE
  5
205
  8
ﾚｲﾔ_1
  6
BORDER
 62
     3
 10
741.02568437050002
 20
-189.60888121939999
 30
0.0
 11
741.02568437050002
 21
-178.60888121939999
 31
0.0
  0
ARC
  5
206
  8
ﾚｲﾔ_1
 62
     5
 10
741.02568437050002
 20
-181.85888121939999
 30
0.0
 40
1.75
 50
0.0000083838
 51
179.99998817540001
  0
ARC
  5
207
  8
ﾚｲﾔ_1
 62
     5
 10
816.0256843704999
 20
-186.35888041279989
 30
0.0
 40
1.75
 50
180.00000815529989
 51
359.99999171420001
  0
LINE
  5
208
  8
ﾚｲﾔ_1
 62
     5
 10
817.7756843704999
 20
-186.35888066589999
 30
0.0
 11
817.7756843704999
 21
-181.85888005160001
 31
0.0
  0
LINE
  5
209
  8
ﾚｲﾔ_1
  6
BORDER
 62
     3
 10
816.0256843704999
 20
-189.6088804128
 30
0.0
 11
816.0256843704999
 21
-178.6088804128
 31
0.0
  0
ARC
  5
20A
  8
ﾚｲﾔ_1
 62
     5
 10
749.02568455269989
 20
-193.1088809563
 30
0.0
 40
3.0
 50
180.00000137489999
 51
270.0000004003
  0
LINE
  5
20B
  8
ﾚｲﾔ_1
 62
     5
 10
746.02568420179978
 20
-175.1088810283
 30
0.0
 11
746.02568455269989
 21
-193.1088810283
 31
0.0
  0
ARC
  5
20C
  8
ﾚｲﾔ_1
 62
     5
 10
749.02568420179978
 20
-175.1088809563
 30
0.0
 40
3.0
 50
90.000000400299996
 51
180.00000137489999
  0
ARC
  5
20D
  8
ﾚｲﾔ_1
 62
     5
 10
808.02568455269989
 20
-193.1088805627999
 30
0.0
 40
3.0
 50
270.0000004003
 51
0.0000013749
  0
ENDSEC
  0
EOF
