  0
SECTION
  2
HEADER
  9
$ACADVER
  1
AC1009
  9
$INSBASE
 10
0.0
 20
0.0
 30
0.0
  9
$EXTMIN
 10
693.4833057304603
 20
-321.42353608628719
 30
-0.0015258207003583
  9
$EXTMAX
 10
980.51411275917371
 20
-119.8355102066143
 30
0.0000000349246037
  9
$LIMMIN
 10
0.0
 20
0.0
  9
$LIMMAX
 10
0.0
 20
0.0
  9
$ORTHOMODE
 70
     0
  9
$REGENMODE
 70
     1
  9
$FILLMODE
 70
     1
  9
$QTEXTMODE
 70
     0
  9
$MIRRTEXT
 70
     1
  9
$DRAGMODE
 70
     2
  9
$LTSCALE
 40
1.0
  9
$OSMODE
 70
    31
  9
$ATTMODE
 70
     1
  9
$TEXTSIZE
 40
0.0
  9
$TRACEWID
 40
0.05
  9
$TEXTSTYLE
  7
STANDARD
  9
$CLAYER
  8
0
  9
$CELTYPE
  6
CONTINUOUS
  9
$CECOLOR
 62
   256
  9
$DIMSCALE
 40
1.0
  9
$DIMASZ
 40
0.18
  9
$DIMEXO
 40
0.0625
  9
$DIMDLI
 40
0.38
  9
$DIMRND
 40
0.0
  9
$DIMDLE
 40
0.0
  9
$DIMEXE
 40
0.18
  9
$DIMTP
 40
0.0
  9
$DIMTM
 40
0.0
  9
$DIMTXT
 40
0.18
  9
$DIMCEN
 40
0.09
  9
$DIMTSZ
 40
0.0
  9
$DIMTOL
 70
     0
  9
$DIMLIM
 70
     0
  9
$DIMTIH
 70
     1
  9
$DIMTOH
 70
     1
  9
$DIMSE1
 70
     0
  9
$DIMSE2
 70
     0
  9
$DIMTAD
 70
     0
  9
$DIMZIN
 70
     0
  9
$DIMBLK
  1

  9
$DIMASO
 70
     1
  9
$DIMSHO
 70
     1
  9
$DIMPOST
  1

  9
$DIMAPOST
  1

  9
$DIMALT
 70
     0
  9
$DIMALTD
 70
     2
  9
$DIMALTF
 40
25.399999999999999
  9
$DIMLFAC
 40
1.0
  9
$DIMTOFL
 70
     0
  9
$DIMTVP
 40
0.0
  9
$DIMTIX
 70
     0
  9
$DIMSOXD
 70
     0
  9
$DIMSAH
 70
     0
  9
$DIMBLK1
  1

  9
$DIMBLK2
  1

  9
$DIMSTYLE
  2
STANDARD
  9
$DIMCLRD
 70
     0
  9
$DIMCLRE
 70
     0
  9
$DIMCLRT
 70
     0
  9
$DIMTFAC
 40
1.0
  9
$DIMGAP
 40
0.09
  9
$LUNITS
 70
     2
  9
$LUPREC
 70
     4
  9
$SKETCHINC
 40
0.1
  9
$FILLETRAD
 40
0.0
  9
$AUNITS
 70
     0
  9
$AUPREC
 70
     0
  9
$MENU
  1
acad
  9
$ELEVATION
 40
0.0
  9
$PELEVATION
 40
0.0
  9
$THICKNESS
 40
0.0
  9
$LIMCHECK
 70
     0
  9
$BLIPMODE
 70
     0
  9
$CHAMFERA
 40
0.0
  9
$CHAMFERB
 40
0.0
  9
$SKPOLY
 70
     0
  9
$TDCREATE
 40
2454865.6898647221
  9
$TDUPDATE
 40
2454865.6900712498
  9
$TDINDWG
 40
0.0002171991
  9
$TDUSRTIMER
 40
0.0002168403
  9
$USRTIMER
 70
     1
  9
$ANGBASE
 50
0.0
  9
$ANGDIR
 70
     0
  9
$PDMODE
 70
     3
  9
$PDSIZE
 40
-1.0
  9
$PLINEWID
 40
0.0
  9
$COORDS
 70
     2
  9
$SPLFRAME
 70
     0
  9
$SPLINETYPE
 70
     6
  9
$SPLINESEGS
 70
     8
  9
$ATTDIA
 70
     0
  9
$ATTREQ
 70
     1
  9
$HANDLING
 70
     1
  9
$HANDSEED
  5
4A7
  9
$SURFTAB1
 70
     6
  9
$SURFTAB2
 70
     6
  9
$SURFTYPE
 70
     6
  9
$SURFU
 70
     6
  9
$SURFV
 70
     6
  9
$UCSNAME
  2

  9
$UCSORG
 10
0.0
 20
0.0
 30
0.0
  9
$UCSXDIR
 10
1.0
 20
0.0
 30
0.0
  9
$UCSYDIR
 10
0.0
 20
1.0
 30
0.0
  9
$PUCSNAME
  2

  9
$PUCSORG
 10
0.0
 20
0.0
 30
0.0
  9
$PUCSXDIR
 10
1.0
 20
0.0
 30
0.0
  9
$PUCSYDIR
 10
0.0
 20
1.0
 30
0.0
  9
$USERI1
 70
     0
  9
$USERI2
 70
     0
  9
$USERI3
 70
     0
  9
$USERI4
 70
     0
  9
$USERI5
 70
     0
  9
$USERR1
 40
0.0
  9
$USERR2
 40
0.0
  9
$USERR3
 40
0.0
  9
$USERR4
 40
0.0
  9
$USERR5
 40
0.0
  9
$WORLDVIEW
 70
     1
  9
$SHADEDGE
 70
     3
  9
$SHADEDIF
 70
    70
  9
$TILEMODE
 70
     1
  9
$MAXACTVP
 70
    16
  9
$PLIMCHECK
 70
     0
  9
$PEXTMIN
 10
1.0000000000000000E+020
 20
1.0000000000000000E+020
 30
1.0000000000000000E+020
  9
$PEXTMAX
 10
-1.0000000000000000E+020
 20
-1.0000000000000000E+020
 30
-1.0000000000000000E+020
  9
$PLIMMIN
 10
0.0
 20
0.0
  9
$PLIMMAX
 10
12.0
 20
9.0
  9
$UNITMODE
 70
     0
  9
$VISRETAIN
 70
     0
  9
$PLINEGEN
 70
     1
  9
$PSLTSCALE
 70
     0
  0
ENDSEC
  0
SECTION
  2
TABLES
  0
TABLE
  2
VPORT
 70
     2
  0
VPORT
  2
*ACTIVE
 70
     0
 10
0.0
 20
0.0
 11
1.0
 21
1.0
 12
836.99870924481695
 22
-220.62952314645079
 13
0.0
 23
0.0
 14
1.0
 24
1.0
 15
0.0
 25
0.0
 16
0.0
 26
0.0
 36
1.0
 17
0.0
 27
0.0
 37
0.0
 40
203.29158666175459
 41
1.5416078984485191
 42
50.0
 43
0.0
 44
0.0
 50
0.0
 51
0.0
 71
     0
 72
   100
 73
     1
 74
     1
 75
     0
 76
     0
 77
     0
 78
     0
  0
ENDTAB
  0
TABLE
  2
LTYPE
 70
    11
  0
LTYPE
  2
CONTINUOUS
 70
     0
  3
Solid line
 72
    65
 73
     0
 40
0.0
  0
LTYPE
  2
DOT
 70
     0
  3
. . . . . . . . 
 72
    65
 73
     2
 40
1.0
 49
0.0
 49
-1.0
  0
LTYPE
  2
DASHED
 70
     0
  3
___  ___  ___  ___  
 72
    65
 73
     2
 40
4.0
 49
3.0
 49
-1.0
  0
LTYPE
  2
HIDDEN
 70
     0
  3
__ __ __ __ 
 72
    65
 73
     2
 40
3.0
 49
2.0
 49
-1.0
  0
LTYPE
  2
STITCH
 70
     0
  3
_ _ _ _ 
 72
    65
 73
     2
 40
2.0
 49
1.0
 49
-1.0
  0
LTYPE
  2
CENTER
 70
     0
  3
______  __  ______  __  
 72
    65
 73
     4
 40
43.0
 49
40.0
 49
-1.0
 49
1.0
 49
-1.0
  0
LTYPE
  2
DASHDOT
 70
     0
  3
____ . ____ . 
 72
    65
 73
     4
 40
32.0
 49
30.0
 49
-1.0
 49
0.0
 49
-1.0
  0
LTYPE
  2
BORDER
 70
     0
  3
__ . __ . 
 72
    65
 73
     4
 40
22.0
 49
20.0
 49
-1.0
 49
0.0
 49
-1.0
  0
LTYPE
  2
CUTTING
 70
     0
  3
________   ___   ___   
 72
    65
 73
     6
 40
45.0
 49
40.0
 49
-1.0
 49
1.0
 49
-1.0
 49
1.0
 49
-1.0
  0
LTYPE
  2
PHANTOM
 70
     0
  3
______  __  __  
 72
    65
 73
     6
 40
35.0
 49
30.0
 49
-1.0
 49
1.0
 49
-1.0
 49
1.0
 49
-1.0
  0
LTYPE
  2
DIVIDE
 70
     0
  3
____ . . ____ . . 
 72
    65
 73
     6
 40
23.0
 49
20.0
 49
-1.0
 49
0.0
 49
-1.0
 49
0.0
 49
-1.0
  0
ENDTAB
  0
TABLE
  2
LAYER
 70
     5
  0
LAYER
  2
0
 70
     0
 62
     7
  6
CONTINUOUS
  0
LAYER
  2
ﾚｲﾔ_1
 70
     0
 62
     7
  6
CONTINUOUS
  0
LAYER
  2
図枠
 70
     0
 62
     7
  6
CONTINUOUS
  0
LAYER
  2
寸法線
 70
     0
 62
     7
  6
CONTINUOUS
  0
LAYER
  2
改訂
 70
     0
 62
     7
  6
CONTINUOUS
  0
ENDTAB
  0
TABLE
  2
STYLE
 70
     1
  0
STYLE
  2
STANDARD
 70
     0
 40
0.0
 41
1.0
 50
0.0
 71
     0
 42
0.0
  3
txt
  4
extfont
  0
ENDTAB
  0
TABLE
  2
VIEW
 70
     0
  0
ENDTAB
  0
TABLE
  2
UCS
 70
     0
  0
ENDTAB
  0
TABLE
  2
APPID
 70
     2
  0
APPID
  2
ACAD
 70
     0
  0
APPID
  2
DCO15
 70
     0
  0
ENDTAB
  0
TABLE
  2
DIMSTYLE
 70
     2
  0
DIMSTYLE
  2
STANDARD
 70
     0
  3

  4

  5

  6

  7

 40
1.0
 41
0.18
 42
0.0625
 43
0.38
 44
0.18
 45
0.0
 46
0.0
 47
0.0
 48
0.0
140
0.18
141
0.09
142
0.0
143
25.399999999999999
144
1.0
145
0.0
146
1.0
147
0.09
 71
     0
 72
     0
 73
     1
 74
     1
 75
     0
 76
     0
 77
     0
 78
     0
170
     0
171
     2
172
     0
173
     0
174
     0
175
     0
176
     0
177
     0
178
     0
  0
DIMSTYLE
  2
VELDIM0
 70
     0
  3

  4

  5

  6

  7

 40
1.0
 41
3.0
 42
0.0625
 43
0.38
 44
0.5
 45
0.0
 46
3.0
 47
0.0
 48
0.0
140
2.9986110209999999
141
0.09
142
0.0
143
25.399999999999999
144
1.0
145
0.0
146
1.0
147
0.09
 71
     0
 72
     0
 73
     0
 74
     0
 75
     0
 76
     0
 77
     0
 78
     8
170
     0
171
     2
172
     0
173
     0
174
     0
175
     0
176
     0
177
     0
178
     0
  0
ENDTAB
  0
ENDSEC
  0
SECTION
  2
BLOCKS
  0
BLOCK
  8
0
  2
$MODEL_SPACE
 70
     0
 10
0.0
 20
0.0
 30
0.0
  3
$MODEL_SPACE
  1

  0
ENDBLK
  5
E
  8
0
  0
BLOCK
 67
     1
  8
0
  2
$PAPER_SPACE
 70
     0
 10
0.0
 20
0.0
 30
0.0
  3
$PAPER_SPACE
  1

  0
ENDBLK
  5
10
 67
     1
  8
0
  0
BLOCK
  8
0
  2
*D0
 70
     1
 10
0.0
 20
0.0
 30
0.0
  3
*D0
  1

  0
TEXT
  5
F4
  8
0
 62
     0
 10
939.99536870570012
 20
-198.59307540360001
 30
0.0
 40
2.9986110209999999
  1
16
 50
90.0
  0
LINE
  5
F5
  8
0
 62
     0
 10
932.52453535639995
 20
-204.82918656769999
 30
0.0
 11
942.02453535639984
 21
-204.82918656769999
 31
0.0
  0
LINE
  5
F6
  8
0
 62
     0
 10
932.52453535639995
 20
-188.82918656769999
 30
0.0
 11
942.02453535639984
 21
-188.82918656769999
 31
0.0
  0
LINE
  5
F7
  8
0
 62
     0
 10
941.52453535639995
 20
-204.82918656769999
 30
0.0
 11
941.52453535639995
 21
-193.30140889590001
 31
0.0
  0
LINE
  5
F8
  8
0
 62
     0
 10
941.52453535639995
 20
-204.82918656769999
 30
0.0
 11
941.52453535639995
 21
-200.35696423959999
 31
0.0
  0
LINE
  5
F9
  8
0
 62
     0
 10
941.52453535639995
 20
-188.82918656769999
 30
0.0
 11
941.52453535639995
 21
-193.30140889590001
 31
0.0
  0
LINE
  5
FA
  8
0
 62
     0
 10
941.52453535639995
 20
-188.82918656769999
 30
0.0
 11
941.52453535639995
 21
-200.35696423959999
 31
0.0
  0
LINE
  5
FB
  8
0
 62
     0
 10
941.52453535639995
 20
-188.82918656769999
 30
0.0
 11
941.52453535639995
 21
-191.82918656769999
 31
0.0
  0
SOLID
  5
FC
  8
0
 62
     0
 10
941.52453535639995
 20
-188.82918656769999
 30
0.0
 11
942.27453535639995
 21
-191.82918656769999
 31
0.0
 12
940.77453535639995
 22
-191.82918656769999
 32
0.0
 13
941.52453535639995
 23
-191.07918656769999
 33
0.0
  0
LINE
  5
FD
  8
0
 62
     0
 10
941.52453535639995
 20
-204.82918656769999
 30
0.0
 11
941.52453535639995
 21
-201.82918656769999
 31
0.0
  0
SOLID
  5
FE
  8
0
 62
     0
 10
941.52453535639995
 20
-204.82918656769999
 30
0.0
 11
940.77453535639995
 21
-201.82918656769999
 31
0.0
 12
942.27453535639995
 22
-201.82918656769999
 32
0.0
 13
941.52453535639995
 23
-202.57918656769999
 33
0.0
  0
ENDBLK
  5
FF
  8
0
  0
BLOCK
  8
0
  2
*D1
 70
     1
 10
0.0
 20
0.0
 30
0.0
  3
*D1
  1

  0
TEXT
  5
104
  8
0
 62
     0
 10
914.7606465204999
 20
-179.30001991699999
 30
0.0
 40
2.9986110209999999
  1
16
  0
LINE
  5
105
  8
0
 62
     0
 10
924.52453535639995
 20
-189.82918656769999
 30
0.0
 11
924.52453535639995
 21
-180.32918656769999
 31
0.0
  0
LINE
  5
106
  8
0
 62
     0
 10
908.52453535639995
 20
-189.82918656769999
 30
0.0
 11
908.52453535639995
 21
-180.32918656769999
 31
0.0
  0
LINE
  5
107
  8
0
 62
     0
 10
924.52453535639995
 20
-180.82918656769999
 30
0.0
 11
920.05231302829998
 21
-180.82918656769999
 31
0.0
  0
LINE
  5
108
  8
0
 62
     0
 10
924.52453535639995
 20
-180.82918656769999
 30
0.0
 11
912.99675768459997
 21
-180.82918656769999
 31
0.0
  0
LINE
  5
109
  8
0
 62
     0
 10
908.52453535639995
 20
-180.82918656769999
 30
0.0
 11
920.05231302829998
 21
-180.82918656769999
 31
0.0
  0
LINE
  5
10A
  8
0
 62
     0
 10
908.52453535639995
 20
-180.82918656769999
 30
0.0
 11
912.99675768459997
 21
-180.82918656769999
 31
0.0
  0
LINE
  5
10B
  8
0
 62
     0
 10
908.52453535639995
 20
-180.82918656769999
 30
0.0
 11
911.52453535639995
 21
-180.82918656769999
 31
0.0
  0
SOLID
  5
10C
  8
0
 62
     0
 10
908.52453535639995
 20
-180.82918656769999
 30
0.0
 11
911.52453535639995
 21
-180.07918656769999
 31
0.0
 12
911.52453535639995
 22
-181.57918656769999
 32
0.0
 13
910.77453535639984
 23
-180.82918656769999
 33
0.0
  0
LINE
  5
10D
  8
0
 62
     0
 10
924.52453535639995
 20
-180.82918656769999
 30
0.0
 11
921.52453535639984
 21
-180.82918656769999
 31
0.0
  0
SOLID
  5
10E
  8
0
 62
     0
 10
924.52453535639995
 20
-180.82918656769999
 30
0.0
 11
921.52453535639984
 21
-181.57918656769999
 31
0.0
 12
921.52453535639984
 22
-180.07918656769999
 32
0.0
 13
922.27453535639995
 23
-180.82918656769999
 33
0.0
  0
ENDBLK
  5
10F
  8
0
  0
BLOCK
  8
0
  2
*D2
 70
     1
 10
0.0
 20
0.0
 30
0.0
  3
*D2
  1

  0
TEXT
  5
113
  8
0
 62
     0
 10
914.7606465204999
 20
-173.60602516820001
 30
0.0
 40
2.9986110209999999
  1
30
  0
LINE
  5
114
  8
0
 62
     0
 10
931.52453535639995
 20
-187.82918656769999
 30
0.0
 11
931.52453535639995
 21
-174.635191819
 31
0.0
  0
LINE
  5
115
  8
0
 62
     0
 10
901.52453535639995
 20
-187.82918656769999
 30
0.0
 11
901.52453535639995
 21
-174.635191819
 31
0.0
  0
LINE
  5
116
  8
0
 62
     0
 10
931.52453535639995
 20
-175.135191819
 30
0.0
 11
920.05231302829998
 21
-175.135191819
 31
0.0
  0
LINE
  5
117
  8
0
 62
     0
 10
931.52453535639995
 20
-175.135191819
 30
0.0
 11
912.99675768459997
 21
-175.135191819
 31
0.0
  0
LINE
  5
118
  8
0
 62
     0
 10
901.52453535639995
 20
-175.135191819
 30
0.0
 11
920.05231302829998
 21
-175.135191819
 31
0.0
  0
LINE
  5
119
  8
0
 62
     0
 10
901.52453535639995
 20
-175.135191819
 30
0.0
 11
912.99675768459997
 21
-175.135191819
 31
0.0
  0
LINE
  5
11A
  8
0
 62
     0
 10
901.52453535639995
 20
-175.135191819
 30
0.0
 11
904.52453535639984
 21
-175.135191819
 31
0.0
  0
SOLID
  5
11B
  8
0
 62
     0
 10
901.52453535639995
 20
-175.135191819
 30
0.0
 11
904.52453535639984
 21
-174.385191819
 31
0.0
 12
904.52453535639984
 22
-175.885191819
 32
0.0
 13
903.77453535639995
 23
-175.135191819
 33
0.0
  0
LINE
  5
11C
  8
0
 62
     0
 10
931.52453535639995
 20
-175.135191819
 30
0.0
 11
928.52453535639995
 21
-175.135191819
 31
0.0
  0
SOLID
  5
11D
  8
0
 62
     0
 10
931.52453535639995
 20
-175.135191819
 30
0.0
 11
928.52453535639995
 21
-175.885191819
 31
0.0
 12
928.52453535639995
 22
-174.385191819
 32
0.0
 13
929.27453535639995
 23
-175.135191819
 33
0.0
  0
ENDBLK
  5
11E
  8
0
  0
BLOCK
  8
0
  2
*D3
 70
     1
 10
0.0
 20
0.0
 30
0.0
  3
*D3
  1

  0
TEXT
  5
13A
  8
0
 62
     0
 10
776.12841336169993
 20
-286.72099083789999
 30
0.0
 40
2.9986110209999999
  1
56.5
  0
LINE
  5
13B
  8
0
 62
     0
 10
751.40619103350002
 20
-275.6473275555
 30
0.0
 11
751.40619103350002
 21
-288.75015748869998
 31
0.0
  0
LINE
  5
13C
  8
0
 62
     0
 10
807.90619103349991
 20
-275.64732743050001
 30
0.0
 11
807.90619103349991
 21
-288.75015748869998
 31
0.0
  0
LINE
  5
13D
  8
0
 62
     0
 10
751.40619103350002
 20
-288.25015748869998
 30
0.0
 11
784.94785754119994
 21
-288.25015748869998
 31
0.0
  0
LINE
  5
13E
  8
0
 62
     0
 10
751.40619103350002
 20
-288.25015748869998
 30
0.0
 11
774.36452452579999
 21
-288.25015748869998
 31
0.0
  0
LINE
  5
13F
  8
0
 62
     0
 10
807.90619103349991
 20
-288.25015748869998
 30
0.0
 11
784.94785754119994
 21
-288.25015748869998
 31
0.0
  0
LINE
  5
140
  8
0
 62
     0
 10
807.90619103349991
 20
-288.25015748869998
 30
0.0
 11
774.36452452579999
 21
-288.25015748869998
 31
0.0
  0
LINE
  5
141
  8
0
 62
     0
 10
807.90619103349991
 20
-288.25015748869998
 30
0.0
 11
804.90619103350002
 21
-288.25015748869998
 31
0.0
  0
SOLID
  5
142
  8
0
 62
     0
 10
807.90619103349991
 20
-288.25015748869998
 30
0.0
 11
804.90619103350002
 21
-289.00015748869998
 31
0.0
 12
804.90619103350002
 22
-287.50015748869998
 32
0.0
 13
805.65619103350002
 23
-288.25015748869998
 33
0.0
  0
LINE
  5
143
  8
0
 62
     0
 10
751.40619103350002
 20
-288.25015748869998
 30
0.0
 11
754.40619103350002
 21
-288.25015748869998
 31
0.0
  0
SOLID
  5
144
  8
0
 62
     0
 10
751.40619103350002
 20
-288.25015748869998
 30
0.0
 11
754.40619103350002
 21
-287.50015748869998
 31
0.0
 12
754.40619103350002
 22
-289.00015748869998
 32
0.0
 13
753.65619103350002
 23
-288.25015748869998
 33
0.0
  0
ENDBLK
  5
145
  8
0
  0
BLOCK
  8
0
  2
*D4
 70
     1
 10
0.0
 20
0.0
 30
0.0
  3
*D4
  1

  0
TEXT
  5
149
  8
0
 62
     0
 10
739.87702438270003
 20
-274.52927191240002
 30
0.0
 40
2.9986110209999999
  1
2
 50
90.0
  0
LINE
  5
14A
  8
0
 62
     0
 10
750.9061912169999
 20
-272.64732743349998
 30
0.0
 11
740.90619103350002
 21
-272.64732743349998
 31
0.0
  0
LINE
  5
14B
  8
0
 62
     0
 10
750.40619103350002
 20
-274.6473275555
 30
0.0
 11
740.90619103350002
 21
-274.6473275555
 31
0.0
  0
LINE
  5
14C
  8
0
 62
     0
 10
741.40619103350002
 20
-272.64732743349998
 30
0.0
 11
741.40619103350002
 21
-272.64732743349998
 31
0.0
  0
LINE
  5
14D
  8
0
 62
     0
 10
741.40619103350002
 20
-272.64732743349998
 30
0.0
 11
741.40619103350002
 21
-274.6473275555
 31
0.0
  0
LINE
  5
14E
  8
0
 62
     0
 10
741.40619103350002
 20
-274.6473275555
 30
0.0
 11
741.40619103350002
 21
-272.64732743349998
 31
0.0
  0
LINE
  5
14F
  8
0
 62
     0
 10
741.40619103350002
 20
-274.6473275555
 30
0.0
 11
741.40619103350002
 21
-274.6473275555
 31
0.0
  0
LINE
  5
150
  8
0
 62
     0
 10
741.40619103350002
 20
-274.6473275555
 30
0.0
 11
741.40619103350002
 21
-277.6473275555
 31
0.0
  0
SOLID
  5
151
  8
0
 62
     0
 10
741.40619103350002
 20
-274.6473275555
 30
0.0
 11
742.15619103350002
 21
-277.6473275555
 31
0.0
 12
740.65619103350002
 22
-277.6473275555
 32
0.0
 13
741.40619103350002
 23
-276.8973275555
 33
0.0
  0
LINE
  5
152
  8
0
 62
     0
 10
741.40619103350002
 20
-272.64732743349998
 30
0.0
 11
741.40619103350002
 21
-269.64732743349998
 31
0.0
  0
SOLID
  5
153
  8
0
 62
     0
 10
741.40619103350002
 20
-272.64732743349998
 30
0.0
 11
740.65619103350002
 21
-269.64732743349998
 31
0.0
 12
742.15619103350002
 22
-269.64732743349998
 32
0.0
 13
741.40619103350002
 23
-270.39732743349998
 33
0.0
  0
ENDBLK
  5
154
  8
0
  0
BLOCK
  8
0
  2
*D5
 70
     1
 10
0.0
 20
0.0
 30
0.0
  3
*D5
  1

  0
TEXT
  5
158
  8
0
 62
     0
 10
816.37702438270003
 20
-270.42510519630002
 30
0.0
 40
2.9986110209999999
  1
15.5
 50
90.0
  0
LINE
  5
159
  8
0
 62
     0
 10
808.90619103350014
 20
-274.64732743050001
 30
0.0
 11
818.40619103350002
 21
-274.64732743050001
 31
0.0
  0
LINE
  5
15A
  8
0
 62
     0
 10
796.65619096499995
 20
-259.14732761840003
 30
0.0
 11
818.40619103350002
 21
-259.14732761840003
 31
0.0
  0
LINE
  5
15B
  8
0
 62
     0
 10
817.90619103350014
 20
-274.64732743050001
 30
0.0
 11
817.90619103350014
 21
-261.60566101669991
 31
0.0
  0
LINE
  5
15C
  8
0
 62
     0
 10
817.90619103350014
 20
-274.64732743050001
 30
0.0
 11
817.90619103350014
 21
-272.18899403220001
 31
0.0
  0
LINE
  5
15D
  8
0
 62
     0
 10
817.90619103350014
 20
-259.14732761840003
 30
0.0
 11
817.90619103350014
 21
-261.60566101669991
 31
0.0
  0
LINE
  5
15E
  8
0
 62
     0
 10
817.90619103350014
 20
-259.14732761840003
 30
0.0
 11
817.90619103350014
 21
-272.18899403220001
 31
0.0
  0
LINE
  5
15F
  8
0
 62
     0
 10
817.90619103350014
 20
-259.14732761840003
 30
0.0
 11
817.90619103350014
 21
-256.14732761840003
 31
0.0
  0
SOLID
  5
160
  8
0
 62
     0
 10
817.90619103350014
 20
-259.14732761840003
 30
0.0
 11
817.15619103350002
 21
-256.14732761840003
 31
0.0
 12
818.65619103349991
 22
-256.14732761840003
 32
0.0
 13
817.90619103350014
 23
-256.89732761840003
 33
0.0
  0
LINE
  5
161
  8
0
 62
     0
 10
817.90619103350014
 20
-274.64732743050001
 30
0.0
 11
817.90619103350014
 21
-277.64732743050001
 31
0.0
  0
SOLID
  5
162
  8
0
 62
     0
 10
817.90619103350014
 20
-274.64732743050001
 30
0.0
 11
818.65619103349991
 21
-277.64732743050001
 31
0.0
 12
817.15619103350002
 22
-277.64732743050001
 32
0.0
 13
817.90619103350014
 23
-276.89732743050001
 33
0.0
  0
ENDBLK
  5
163
  8
0
  0
BLOCK
  8
0
  2
*D6
 70
     1
 10
0.0
 20
0.0
 30
0.0
  3
*D6
  1

  0
TEXT
  5
167
  8
0
 62
     0
 10
777.89230212910002
 20
-244.5712239742
 30
0.0
 40
2.9986110209999999
  1
34
  0
LINE
  5
168
  8
0
 62
     0
 10
796.65619096499995
 20
-259.14732761379997
 30
0.0
 11
796.65619096499995
 21
-245.60039062499999
 31
0.0
  0
LINE
  5
169
  8
0
 62
     0
 10
762.65619096499995
 20
-259.14732868580001
 30
0.0
 11
762.65619096499995
 21
-245.60039062499999
 31
0.0
  0
LINE
  5
16A
  8
0
 62
     0
 10
796.65619096499995
 20
-246.10039062499999
 30
0.0
 11
783.18396863679993
 21
-246.10039062499999
 31
0.0
  0
LINE
  5
16B
  8
0
 62
     0
 10
796.65619096499995
 20
-246.10039062499999
 30
0.0
 11
776.12841329320008
 21
-246.10039062499999
 31
0.0
  0
LINE
  5
16C
  8
0
 62
     0
 10
762.65619096499995
 20
-246.10039062499999
 30
0.0
 11
783.18396863679993
 21
-246.10039062499999
 31
0.0
  0
LINE
  5
16D
  8
0
 62
     0
 10
762.65619096499995
 20
-246.10039062499999
 30
0.0
 11
776.12841329320008
 21
-246.10039062499999
 31
0.0
  0
LINE
  5
16E
  8
0
 62
     0
 10
762.65619096499995
 20
-246.10039062499999
 30
0.0
 11
765.65619096499995
 21
-246.10039062499999
 31
0.0
  0
SOLID
  5
16F
  8
0
 62
     0
 10
762.65619096499995
 20
-246.10039062499999
 30
0.0
 11
765.65619096499995
 21
-245.35039062499999
 31
0.0
 12
765.65619096499995
 22
-246.85039062499999
 32
0.0
 13
764.90619096499995
 23
-246.10039062499999
 33
0.0
  0
LINE
  5
170
  8
0
 62
     0
 10
796.65619096499995
 20
-246.10039062499999
 30
0.0
 11
793.65619096499995
 21
-246.10039062499999
 31
0.0
  0
SOLID
  5
171
  8
0
 62
     0
 10
796.65619096499995
 20
-246.10039062499999
 30
0.0
 11
793.65619096499995
 21
-246.85039062499999
 31
0.0
 12
793.65619096499995
 22
-245.35039062499999
 32
0.0
 13
794.40619096499995
 23
-246.10039062499999
 33
0.0
  0
ENDBLK
  5
172
  8
0
  0
BLOCK
  8
0
  2
*D7
 70
     1
 10
0.0
 20
0.0
 30
0.0
  3
*D7
  1

  0
TEXT
  5
176
  8
0
 62
     0
 10
877.47876079800005
 20
-247.6181608043
 30
0.0
 40
2.9986110209999999
  1
23.5
  0
LINE
  5
177
  8
0
 62
     0
 10
892.75653846979992
 20
-258.14732745499998
 30
0.0
 11
892.75653846979992
 21
-248.64732745500001
 31
0.0
  0
LINE
  5
178
  8
0
 62
     0
 10
869.25653846979992
 20
-258.14732755789998
 30
0.0
 11
869.25653846979992
 21
-248.64732745500001
 31
0.0
  0
LINE
  5
179
  8
0
 62
     0
 10
892.75653846979992
 20
-249.14732745500001
 30
0.0
 11
886.29820497749984
 21
-249.14732745500001
 31
0.0
  0
LINE
  5
17A
  8
0
 62
     0
 10
892.75653846979992
 20
-249.14732745500001
 30
0.0
 11
875.71487196210012
 21
-249.14732745500001
 31
0.0
  0
LINE
  5
17B
  8
0
 62
     0
 10
869.25653846979992
 20
-249.14732745500001
 30
0.0
 11
886.29820497749984
 21
-249.14732745500001
 31
0.0
  0
LINE
  5
17C
  8
0
 62
     0
 10
869.25653846979992
 20
-249.14732745500001
 30
0.0
 11
875.71487196210012
 21
-249.14732745500001
 31
0.0
  0
LINE
  5
17D
  8
0
 62
     0
 10
869.25653846979992
 20
-249.14732745500001
 30
0.0
 11
872.25653846979992
 21
-249.14732745500001
 31
0.0
  0
SOLID
  5
17E
  8
0
 62
     0
 10
869.25653846979992
 20
-249.14732745500001
 30
0.0
 11
872.25653846979992
 21
-248.39732745500001
 31
0.0
 12
872.25653846979992
 22
-249.89732745500001
 32
0.0
 13
871.50653846979981
 23
-249.14732745500001
 33
0.0
  0
LINE
  5
17F
  8
0
 62
     0
 10
892.75653846979992
 20
-249.14732745500001
 30
0.0
 11
889.75653846979992
 21
-249.14732745500001
 31
0.0
  0
SOLID
  5
180
  8
0
 62
     0
 10
892.75653846979992
 20
-249.14732745500001
 30
0.0
 11
889.75653846979992
 21
-249.89732745500001
 31
0.0
 12
889.75653846979992
 22
-248.39732745500001
 32
0.0
 13
890.50653846980003
 23
-249.14732745500001
 33
0.0
  0
ENDBLK
  5
181
  8
0
  0
BLOCK
  8
0
  2
*D8
 70
     1
 10
0.0
 20
0.0
 30
0.0
  3
*D8
  1

  0
TEXT
  5
185
  8
0
 62
     0
 10
858.09410183800003
 20
-247.61816090709999
 30
0.0
 40
2.9986110209999999
  1
(3)
  0
LINE
  5
186
  8
0
 62
     0
 10
869.25653846979992
 20
-258.14732755789998
 30
0.0
 11
869.25653846979992
 21
-248.64732755790001
 31
0.0
  0
LINE
  5
187
  8
0
 62
     0
 10
866.75653856169993
 20
-260.64732755789998
 30
0.0
 11
866.75653856169993
 21
-248.64732755790001
 31
0.0
  0
LINE
  5
188
  8
0
 62
     0
 10
869.25653846979992
 20
-249.14732755790001
 30
0.0
 11
865.14965718159999
 21
-249.14732755790001
 31
0.0
  0
LINE
  5
189
  8
0
 62
     0
 10
869.25653846979992
 20
-249.14732755790001
 30
0.0
 11
856.33021300209998
 21
-249.14732755790001
 31
0.0
  0
LINE
  5
18A
  8
0
 62
     0
 10
866.75653856169993
 20
-249.14732755790001
 30
0.0
 11
865.14965718159999
 21
-249.14732755790001
 31
0.0
  0
LINE
  5
18B
  8
0
 62
     0
 10
866.75653856169993
 20
-249.14732755790001
 30
0.0
 11
856.33021300209998
 21
-249.14732755790001
 31
0.0
  0
LINE
  5
18C
  8
0
 62
     0
 10
866.75653856169993
 20
-249.14732755790001
 30
0.0
 11
863.75653856170004
 21
-249.14732755790001
 31
0.0
  0
SOLID
  5
18D
  8
0
 62
     0
 10
866.75653856169993
 20
-249.14732755790001
 30
0.0
 11
863.75653856170004
 21
-249.89732755790001
 31
0.0
 12
863.75653856170004
 22
-248.39732755790001
 32
0.0
 13
864.50653856170004
 23
-249.14732755790001
 33
0.0
  0
LINE
  5
18E
  8
0
 62
     0
 10
869.25653846979992
 20
-249.14732755790001
 30
0.0
 11
872.25653846979992
 21
-249.14732755790001
 31
0.0
  0
SOLID
  5
18F
  8
0
 62
     0
 10
869.25653846979992
 20
-249.14732755790001
 30
0.0
 11
872.25653846979992
 21
-248.39732755790001
 31
0.0
 12
872.25653846979992
 22
-249.89732755790001
 32
0.0
 13
871.50653846979981
 23
-249.14732755790001
 33
0.0
  0
ENDBLK
  5
190
  8
0
  0
BLOCK
  8
0
  2
*D9
 70
     1
 10
0.0
 20
0.0
 30
0.0
  3
*D9
  1

  0
TEXT
  5
19B
  8
0
 62
     0
 10
806.84671612190004
 20
-165.42679775440001
 30
0.0
 40
2.9986110209999999
  1
3.5
  0
LINE
  5
19C
  8
0
 62
     0
 10
803.91379256649986
 20
-180.53356679169991
 30
0.0
 11
803.91379256649986
 21
-166.45596440520001
 31
0.0
  0
LINE
  5
19D
  8
0
 62
     0
 10
800.41379256649998
 20
-180.53356689669999
 30
0.0
 11
800.41379256649998
 21
-166.45596440520001
 31
0.0
  0
LINE
  5
19E
  8
0
 62
     0
 10
803.91379256649986
 20
-166.95596440520001
 30
0.0
 11
813.90227146550001
 21
-166.95596440520001
 31
0.0
  0
LINE
  5
19F
  8
0
 62
     0
 10
803.91379256649986
 20
-166.95596440520001
 30
0.0
 11
805.082827286
 21
-166.95596440520001
 31
0.0
  0
LINE
  5
1A0
  8
0
 62
     0
 10
800.41379256649998
 20
-166.95596440520001
 30
0.0
 11
813.90227146550001
 21
-166.95596440520001
 31
0.0
  0
LINE
  5
1A1
  8
0
 62
     0
 10
800.41379256649998
 20
-166.95596440520001
 30
0.0
 11
805.082827286
 21
-166.95596440520001
 31
0.0
  0
LINE
  5
1A2
  8
0
 62
     0
 10
800.41379256649998
 20
-166.95596440520001
 30
0.0
 11
797.41379256649986
 21
-166.95596440520001
 31
0.0
  0
SOLID
  5
1A3
  8
0
 62
     0
 10
800.41379256649998
 20
-166.95596440520001
 30
0.0
 11
797.41379256649986
 21
-167.70596440520001
 31
0.0
 12
797.41379256649986
 22
-166.20596440520001
 32
0.0
 13
798.16379256649986
 23
-166.95596440520001
 33
0.0
  0
LINE
  5
1A4
  8
0
 62
     0
 10
803.91379256649986
 20
-166.95596440520001
 30
0.0
 11
806.91379256649998
 21
-166.95596440520001
 31
0.0
  0
SOLID
  5
1A5
  8
0
 62
     0
 10
803.91379256649986
 20
-166.95596440520001
 30
0.0
 11
806.91379256649998
 21
-166.20596440520001
 31
0.0
 12
806.91379256649998
 22
-167.70596440520001
 32
0.0
 13
806.16379256649986
 23
-166.95596440520001
 33
0.0
  0
ENDBLK
  5
1A6
  8
0
  0
BLOCK
  8
0
  2
*D10
 70
     1
 10
0.0
 20
0.0
 30
0.0
  3
*D10
  1

  0
TEXT
  5
1AA
  8
0
 62
     0
 10
816.63283207710003
 20
-185.2941914802
 30
0.0
 40
2.9986110209999999
  1
8
 50
90.0
  0
LINE
  5
1AB
  8
0
 62
     0
 10
803.15619085129993
 20
-188.41224706220001
 30
0.0
 11
818.6619987278998
 21
-188.41224706220001
 31
0.0
  0
LINE
  5
1AC
  8
0
 62
     0
 10
803.15619085129993
 20
-180.41224706220001
 30
0.0
 11
818.6619987278998
 21
-180.41224706220001
 31
0.0
  0
LINE
  5
1AD
  8
0
 62
     0
 10
818.16199872789991
 20
-188.41224706220001
 30
0.0
 11
818.16199872789991
 21
-181.76641380839999
 31
0.0
  0
LINE
  5
1AE
  8
0
 62
     0
 10
818.16199872789991
 20
-188.41224706220001
 30
0.0
 11
818.16199872789991
 21
-187.05808031609999
 31
0.0
  0
LINE
  5
1AF
  8
0
 62
     0
 10
818.16199872789991
 20
-180.41224706220001
 30
0.0
 11
818.16199872789991
 21
-181.76641380839999
 31
0.0
  0
LINE
  5
1B0
  8
0
 62
     0
 10
818.16199872789991
 20
-180.41224706220001
 30
0.0
 11
818.16199872789991
 21
-187.05808031609999
 31
0.0
  0
LINE
  5
1B1
  8
0
 62
     0
 10
818.16199872789991
 20
-180.41224706220001
 30
0.0
 11
818.16199872789991
 21
-177.41224706220001
 31
0.0
  0
SOLID
  5
1B2
  8
0
 62
     0
 10
818.16199872789991
 20
-180.41224706220001
 30
0.0
 11
817.41199872789991
 21
-177.41224706220001
 31
0.0
 12
818.91199872789991
 22
-177.41224706220001
 32
0.0
 13
818.16199872789991
 23
-178.16224706220001
 33
0.0
  0
LINE
  5
1B3
  8
0
 62
     0
 10
818.16199872789991
 20
-188.41224706220001
 30
0.0
 11
818.16199872789991
 21
-191.41224706220001
 31
0.0
  0
SOLID
  5
1B4
  8
0
 62
     0
 10
818.16199872789991
 20
-188.41224706220001
 30
0.0
 11
818.91199872789991
 21
-191.41224706220001
 31
0.0
 12
817.41199872789991
 22
-191.41224706220001
 32
0.0
 13
818.16199872789991
 23
-190.66224706220001
 33
0.0
  0
ENDBLK
  5
1B5
  8
0
  0
BLOCK
  8
0
  2
*D11
 70
     1
 10
0.0
 20
0.0
 30
0.0
  3
*D11
  1

  0
TEXT
  5
1B9
  8
0
 62
     0
 10
778.04262910179989
 20
-158.8692807441
 30
0.0
 40
2.9986110209999999
  1
45
  0
LINE
  5
1BA
  8
0
 62
     0
 10
802.15619085130004
 20
-177.91224706220001
 30
0.0
 11
802.15619085130004
 21
-159.89844739489999
 31
0.0
  0
LINE
  5
1BB
  8
0
 62
     0
 10
757.15619085130004
 20
-177.91224775719999
 30
0.0
 11
757.15619085130004
 21
-159.89844739489999
 31
0.0
  0
LINE
  5
1BC
  8
0
 62
     0
 10
802.15619085130004
 20
-160.39844739489999
 30
0.0
 11
783.33429560959996
 21
-160.39844739489999
 31
0.0
  0
LINE
  5
1BD
  8
0
 62
     0
 10
802.15619085130004
 20
-160.39844739489999
 30
0.0
 11
776.27874026589996
 21
-160.39844739489999
 31
0.0
  0
LINE
  5
1BE
  8
0
 62
     0
 10
757.15619085130004
 20
-160.39844739489999
 30
0.0
 11
783.33429560959996
 21
-160.39844739489999
 31
0.0
  0
LINE
  5
1BF
  8
0
 62
     0
 10
757.15619085130004
 20
-160.39844739489999
 30
0.0
 11
776.27874026589996
 21
-160.39844739489999
 31
0.0
  0
LINE
  5
1C0
  8
0
 62
     0
 10
757.15619085130004
 20
-160.39844739489999
 30
0.0
 11
760.15619085130004
 21
-160.39844739489999
 31
0.0
  0
SOLID
  5
1C1
  8
0
 62
     0
 10
757.15619085130004
 20
-160.39844739489999
 30
0.0
 11
760.15619085130004
 21
-159.64844739489999
 31
0.0
 12
760.15619085130004
 22
-161.14844739489999
 32
0.0
 13
759.40619085130004
 23
-160.39844739489999
 33
0.0
  0
LINE
  5
1C2
  8
0
 62
     0
 10
802.15619085130004
 20
-160.39844739489999
 30
0.0
 11
799.15619085130004
 21
-160.39844739489999
 31
0.0
  0
SOLID
  5
1C3
  8
0
 62
     0
 10
802.15619085130004
 20
-160.39844739489999
 30
0.0
 11
799.15619085130004
 21
-161.14844739489999
 31
0.0
 12
799.15619085130004
 22
-159.64844739489999
 32
0.0
 13
799.90619085130004
 23
-160.39844739489999
 33
0.0
  0
ENDBLK
  5
1C4
  8
0
  0
BLOCK
  8
0
  2
*U12
 70
     1
 10
0.0
 20
0.0
 30
0.0
  3
*U12
  1

  0
TEXT
  5
20B
  8
図枠
  6
CONTINUOUS
 10
888.50291960289996
 20
-301.75145613786748
 30
0.0
 40
2.337266249999999
  1
 照査
  0
ENDBLK
  5
20D
  8
0
  0
BLOCK
  8
0
  2
*U13
 70
     1
 10
0.0
 20
0.0
 30
0.0
  3
*U13
  1

  0
TEXT
  5
20F
  8
図枠
  6
CONTINUOUS
 10
885.61396360353444
 20
-297.3951024767
 30
0.0
 40
2.337266249999999
  1
1：1
  0
ENDBLK
  5
211
  8
0
  0
BLOCK
  8
0
  2
*U14
 70
     1
 10
0.0
 20
0.0
 30
0.0
  3
*U14
  1

  0
TEXT
  5
213
  8
図枠
  6
CONTINUOUS
 10
873.88540941888959
 20
-306.0366240249233
 30
0.0
 40
2.337266249999999
  1
岸 本
  0
ENDBLK
  5
215
  8
0
  0
BLOCK
  8
0
  2
*U15
 70
     1
 10
0.0
 20
0.0
 30
0.0
  3
*U15
  1

  0
TEXT
  5
217
  8
図枠
  6
CONTINUOUS
 10
873.18541597345825
 20
-301.77518472923811
 30
0.0
 40
2.337266249999999
  1
白須賀
  0
ENDBLK
  5
219
  8
0
  0
BLOCK
  8
0
  2
*U16
 70
     1
 10
0.0
 20
0.0
 30
0.0
  3
*U16
  1

  0
TEXT
  5
21B
  8
ﾚｲﾔ_1
  6
CONTINUOUS
 10
858.60250469189987
 20
-288.24843375343812
 30
0.0
 40
3.5983331442000002
  1
色：ゴールドメッキ
  0
ENDBLK
  5
21D
  8
0
  0
BLOCK
  8
0
  2
*U17
 70
     1
 10
0.0
 20
0.0
 30
0.0
  3
*U17
  1

  0
TEXT
  5
21F
  8
ﾚｲﾔ_1
  6
CONTINUOUS
 10
858.60250469189987
 20
-283.1245586332563
 30
0.0
 40
3.5983331442000002
  1
（アルミ小）
  0
ENDBLK
  5
221
  8
0
  0
BLOCK
  8
0
  2
*U18
 70
     1
 10
0.0
 20
0.0
 30
0.0
  3
*U18
  1

  0
TEXT
  5
223
  8
図枠
  6
CONTINUOUS
 10
888.50291960289996
 20
-306.02475972923799
 30
0.0
 40
2.337266249999999
  1
 検図
  0
ENDBLK
  5
225
  8
0
  0
BLOCK
  8
0
  2
*U19
 70
     1
 10
0.0
 20
0.0
 30
0.0
  3
*U19
  1

  0
TEXT
  5
227
  8
図枠
  6
CONTINUOUS
 10
862.72605127229986
 20
-313.3862432468066
 30
0.0
 40
4.3175681352000002
  1
株式会社
  0
ENDBLK
  5
229
  8
0
  0
BLOCK
  8
0
  2
*U20
 70
     1
 10
0.0
 20
0.0
 30
0.0
  3
*U20
  1

  0
TEXT
  5
22B
  8
図枠
  6
CONTINUOUS
 10
863.57530474566647
 20
-293.19298465944109
 30
0.0
 40
2.337266249999999
  1
日 　付
  0
ENDBLK
  5
22D
  8
0
  0
BLOCK
  8
0
  2
*U21
 70
     1
 10
0.0
 20
0.0
 30
0.0
  3
*U21
  1

  0
TEXT
  5
22F
  8
図枠
  6
CONTINUOUS
 10
903.89427371457509
 20
-301.70399895512639
 30
0.0
 40
2.337266249999999
  1
園 原
  0
ENDBLK
  5
231
  8
0
  0
BLOCK
  8
0
  2
*U22
 70
     1
 10
0.0
 20
0.0
 30
0.0
  3
*U22
  1

  0
TEXT
  5
233
  8
図枠
  6
CONTINUOUS
 10
891.35857000021088
 20
-129.34221990479389
 30
0.0
 40
2.698480084499999
  1
改訂日
  0
ENDBLK
  5
235
  8
0
  0
BLOCK
  8
0
  2
*U23
 70
     1
 10
0.0
 20
0.0
 30
0.0
  3
*U23
  1

  0
TEXT
  5
237
  8
図枠
  6
CONTINUOUS
 10
918.77746164287453
 20
-310.00950039681169
 30
0.0
 40
2.337266249999999
  1
図　番
  0
ENDBLK
  5
239
  8
0
  0
BLOCK
  8
0
  2
*U24
 70
     1
 10
0.0
 20
0.0
 30
0.0
  3
*U24
  1

  0
TEXT
  5
23B
  8
図枠
  6
CONTINUOUS
 10
939.13131840844255
 20
-304.14589044701421
 30
0.0
 40
2.9983111599000001
  1
Ｂ－２ 承認図
  0
ENDBLK
  5
23D
  8
0
  0
BLOCK
  8
0
  2
*U25
 70
     1
 10
0.0
 20
0.0
 30
0.0
  3
*U25
  1

  0
TEXT
  5
23F
  8
図枠
  6
CONTINUOUS
 10
858.50591960289978
 20
-301.73959184218222
 30
0.0
 40
2.337266249999999
  1
 設計
  0
ENDBLK
  5
241
  8
0
  0
BLOCK
  8
0
  2
*U26
 70
     1
 10
0.0
 20
0.0
 30
0.0
  3
*U26
  1

  0
TEXT
  5
243
  8
図枠
  6
CONTINUOUS
 10
917.43099749912062
 20
-129.36961564169241
 30
0.0
 40
2.698480084499999
  1
改　訂　内　容
  0
ENDBLK
  5
245
  8
0
  0
BLOCK
  8
0
  2
*U27
 70
     1
 10
0.0
 20
0.0
 30
0.0
  3
*U27
  1

  0
TEXT
  5
247
  8
図枠
  6
CONTINUOUS
 10
883.32415453627561
 20
-293.26417043355269
 30
0.0
 40
2.337266249999999
  1
尺 　度
  0
ENDBLK
  5
249
  8
0
  0
BLOCK
  8
0
  2
*U28
 70
     1
 10
0.0
 20
0.0
 30
0.0
  3
*U28
  1

  0
TEXT
  5
24B
  8
図枠
  6
CONTINUOUS
 10
864.69054854008266
 20
-297.3951024767
 30
0.0
 40
2.337266249999999
  1
H16.4
  0
ENDBLK
  5
24D
  8
0
  0
BLOCK
  8
0
  2
*U29
 70
     1
 10
0.0
 20
0.0
 30
0.0
  3
*U29
  1

  0
TEXT
  5
24F
  8
図枠
  6
CONTINUOUS
 10
881.12679503016261
 20
-129.31482416789541
 30
0.0
 40
2.698480084499999
  1
副番
  0
ENDBLK
  5
251
  8
0
  0
BLOCK
  8
0
  2
*U30
 70
     1
 10
0.0
 20
0.0
 30
0.0
  3
*U30
  1

  0
TEXT
  5
253
  8
図枠
  6
CONTINUOUS
 10
954.49609761892782
 20
-129.36961564169241
 30
0.0
 40
2.698480084499999
  1
改訂者
  0
ENDBLK
  5
255
  8
0
  0
BLOCK
  8
0
  2
*U31
 70
     1
 10
0.0
 20
0.0
 30
0.0
  3
*U31
  1

  0
TEXT
  5
257
  8
図枠
  6
CONTINUOUS
 10
964.45400401358006
 20
-129.38331351014159
 30
0.0
 40
2.698480084499999
  1
検認者
  0
ENDBLK
  5
259
  8
0
  0
BLOCK
  8
0
  2
*U32
 70
     1
 10
0.0
 20
0.0
 30
0.0
  3
*U32
  1

  0
TEXT
  5
25B
  8
図枠
  6
CONTINUOUS
 10
903.89427371457509
 20
-305.95357395512627
 30
0.0
 40
2.337266249999999
  1
園 原
  0
ENDBLK
  5
25D
  8
0
  0
BLOCK
  8
0
  2
*U33
 70
     1
 10
0.0
 20
0.0
 30
0.0
  3
*U33
  1

  0
TEXT
  5
25F
  8
図枠
  6
CONTINUOUS
 10
918.72407231229079
 20
-293.0586575795528
 30
0.0
 40
2.337266249999999
  1
製品名
  0
ENDBLK
  5
261
  8
0
  0
BLOCK
  8
0
  2
*U34
 70
     1
 10
0.0
 20
0.0
 30
0.0
  3
*U34
  1

  0
TEXT
  5
263
  8
図枠
  6
CONTINUOUS
 10
918.78932593855984
 20
-301.53407898818227
 30
0.0
 40
2.337266249999999
  1
図面名
  0
ENDBLK
  5
265
  8
0
  0
BLOCK
  8
0
  2
*U35
 70
     1
 10
0.0
 20
0.0
 30
0.0
  3
*U35
  1

  0
TEXT
  5
267
  8
図枠
  6
CONTINUOUS
 10
941.505615570597
 20
-293.8279773680249
 30
0.0
 40
2.9983111599000001
  1
ねじ止め式
  0
TEXT
  5
268
  8
図枠
  6
CONTINUOUS
 10
926.01180460217984
 20
-299.12955970659601
 30
0.0
 40
2.9983111599000001
  1
マグネットキャッチ〈角型〉
  0
ENDBLK
  5
26A
  8
0
  0
BLOCK
  8
0
  2
*U36
 70
     1
 10
0.0
 20
0.0
 30
0.0
  3
*U36
  1

  0
TEXT
  5
26C
  8
図枠
  6
CONTINUOUS
 10
935.82100024966985
 20
-312.58416103259998
 30
0.0
 40
2.9983111599000001
  1
ＳＦＣ０００１５
  0
ENDBLK
  5
26E
  8
0
  0
BLOCK
  8
0
  2
*U37
 70
     1
 10
0.0
 20
0.0
 30
0.0
  3
*U37
  1

  0
TEXT
  5
270
  8
図枠
  6
CONTINUOUS
 10
859.90723884782369
 20
-306.01289543355273
 30
0.0
 40
2.337266249999999
  1
製図
  0
ENDBLK
  5
272
  8
0
  0
BLOCK
  8
0
  2
*U38
 70
     1
 10
0.0
 20
0.0
 30
0.0
  3
*U38
  1

  0
TEXT
  5
274
  8
ﾚｲﾔ_1
  6
CONTINUOUS
 10
951.96728897959997
 20
-197.6907024834
 30
0.0
 40
2.9986110209999999
  1
ｔ1.5
  0
ENDBLK
  5
276
  8
0
  0
BLOCK
  8
0
  2
*U39
 70
     1
 10
0.0
 20
0.0
 30
0.0
  3
*U39
  1

  0
TEXT
  5
278
  8
ﾚｲﾔ_1
  6
CONTINUOUS
 10
879.77696651179997
 20
-166.47706896425231
 30
0.0
 40
2.9986110209999999
  1
受板
  0
ENDBLK
  5
27A
  8
0
  0
BLOCK
  8
0
  2
*U40
 70
     1
 10
0.0
 20
0.0
 30
0.0
  3
*U40
  1

  0
TEXT
  5
27C
  8
ﾚｲﾔ_1
  6
CONTINUOUS
 10
942.12109936000002
 20
-171.46710610288119
 30
0.0
 40
2.9986110209999999
  1
皿ビス用皿穴
  0
ENDBLK
  5
27E
  8
0
  0
ENDSEC
  0
SECTION
  2
ENTITIES
  0
LINE
  5
2F
  8
ﾚｲﾔ_1
  6
BORDER
 62
     3
 10
865.29008412039991
 20
-157.00078124999999
 30
0.0
 11
974.49431960289996
 21
-157.00078124999999
 31
0.0
  0
LINE
  5
30
  8
ﾚｲﾔ_1
  6
BORDER
 62
     3
 10
865.29008412039991
 20
-227.00078124999999
 30
0.0
 11
974.49431960289996
 21
-227.00078124999999
 31
0.0
  0
LINE
  5
32
  8
図枠
 10
909.83126736600002
 20
-295.50425817270002
 30
0.0
 11
914.43880656600015
 21
-296.65614297270002
 31
0.0
  0
LINE
  5
33
  8
図枠
 10
909.83126736600002
 20
-293.20048857270001
 30
0.0
 11
914.43880656600015
 21
-292.04860377270001
 31
0.0
  0
LINE
  5
34
  8
図枠
  6
BORDER
 10
904.56531320289992
 20
-290.8967189727
 30
0.0
 11
904.56531320289992
 21
-297.80802777269997
 31
0.0
  0
LINE
  5
35
  8
図枠
 10
901.8272732488
 20
-310.33032525819999
 30
0.0
 11
901.37477016360015
 21
-310.78282834330003
 31
0.0
  0
CIRCLE
  5
36
  8
図枠
 10
904.56531320289992
 20
-294.35237337270001
 30
0.0
 40
2.303769599999999
  0
LINE
  5
37
  8
図枠
 10
905.02695324880006
 20
-309.672702813
 30
0.0
 11
905.82687324879998
 21
-308.47282281299999
 31
0.0
  0
LINE
  5
38
  8
図枠
  6
BORDER
 10
904.56531320289992
 20
-290.8967189727
 30
0.0
 11
904.56531320289992
 21
-297.80802777269997
 31
0.0
  0
LINE
  5
39
  8
図枠
 10
907.60068196880002
 20
-311.91247881300001
 30
0.0
 11
910.2094877287999
 21
-311.91247881300001
 31
0.0
  0
POLYLINE
  8
図枠
  5
27F
  66
     1
 10
0.000000
 20
0.000000
 30
0.000000
  70
     8
  0
VERTEX
  8
図枠
  5
280
 10
901.375
 20
-310.783
 30
0.000000
  70
    32
  0
VERTEX
  8
図枠
  5
281
 10
901.380
 20
-310.789
 30
0.000000
  70
    32
  0
VERTEX
  8
図枠
  5
282
 10
901.385
 20
-310.795
 30
0.000000
  70
    32
  0
VERTEX
  8
図枠
  5
283
 10
901.391
 20
-310.800
 30
0.000000
  70
    32
  0
VERTEX
  8
図枠
  5
284
 10
901.396
 20
-310.806
 30
0.000000
  70
    32
  0
VERTEX
  8
図枠
  5
285
 10
901.401
 20
-310.812
 30
0.000000
  70
    32
  0
VERTEX
  8
図枠
  5
286
 10
901.406
 20
-310.818
 30
0.000000
  70
    32
  0
VERTEX
  8
図枠
  5
287
 10
901.412
 20
-310.824
 30
0.000000
  70
    32
  0
VERTEX
  8
図枠
  5
288
 10
901.417
 20
-310.830
 30
0.000000
  70
    32
  0
VERTEX
  8
図枠
  5
289
 10
901.422
 20
-310.836
 30
0.000000
  70
    32
  0
VERTEX
  8
図枠
  5
28A
 10
901.428
 20
-310.842
 30
0.000000
  70
    32
  0
VERTEX
  8
図枠
  5
28B
 10
901.433
 20
-310.848
 30
0.000000
  70
    32
  0
VERTEX
  8
図枠
  5
28C
 10
901.438
 20
-310.853
 30
0.000000
  70
    32
  0
VERTEX
  8
図枠
  5
28D
 10
901.443
 20
-310.859
 30
0.000000
  70
    32
  0
VERTEX
  8
図枠
  5
28E
 10
901.449
 20
-310.865
 30
0.000000
  70
    32
  0
VERTEX
  8
図枠
  5
28F
 10
901.454
 20
-310.871
 30
0.000000
  70
    32
  0
VERTEX
  8
図枠
  5
290
 10
901.459
 20
-310.877
 30
0.000000
  70
    32
  0
VERTEX
  8
図枠
  5
291
 10
901.465
 20
-310.883
 30
0.000000
  70
    32
  0
VERTEX
  8
図枠
  5
292
 10
901.470
 20
-310.889
 30
0.000000
  70
    32
  0
VERTEX
  8
図枠
  5
293
 10
901.475
 20
-310.895
 30
0.000000
  70
    32
  0
VERTEX
  8
図枠
  5
294
 10
901.480
 20
-310.900
 30
0.000000
  70
    32
  0
VERTEX
  8
図枠
  5
295
 10
901.486
 20
-310.906
 30
0.000000
  70
    32
  0
VERTEX
  8
図枠
  5
296
 10
901.491
 20
-310.912
 30
0.000000
  70
    32
  0
VERTEX
  8
図枠
  5
297
 10
901.496
 20
-310.918
 30
0.000000
  70
    32
  0
VERTEX
  8
図枠
  5
298
 10
901.502
 20
-310.924
 30
0.000000
  70
    32
  0
VERTEX
  8
図枠
  5
299
 10
901.507
 20
-310.930
 30
0.000000
  70
    32
  0
VERTEX
  8
図枠
  5
29A
 10
901.512
 20
-310.936
 30
0.000000
  70
    32
  0
VERTEX
  8
図枠
  5
29B
 10
901.517
 20
-310.941
 30
0.000000
  70
    32
  0
VERTEX
  8
図枠
  5
29C
 10
901.523
 20
-310.947
 30
0.000000
  70
    32
  0
VERTEX
  8
図枠
  5
29D
 10
901.528
 20
-310.953
 30
0.000000
  70
    32
  0
VERTEX
  8
図枠
  5
29E
 10
901.533
 20
-310.959
 30
0.000000
  70
    32
  0
VERTEX
  8
図枠
  5
29F
 10
901.539
 20
-310.965
 30
0.000000
  70
    32
  0
VERTEX
  8
図枠
  5
2A0
 10
901.544
 20
-310.971
 30
0.000000
  70
    32
  0
VERTEX
  8
図枠
  5
2A1
 10
901.549
 20
-310.977
 30
0.000000
  70
    32
  0
VERTEX
  8
図枠
  5
2A2
 10
901.555
 20
-310.982
 30
0.000000
  70
    32
  0
VERTEX
  8
図枠
  5
2A3
 10
901.560
 20
-310.988
 30
0.000000
  70
    32
  0
VERTEX
  8
図枠
  5
2A4
 10
901.565
 20
-310.994
 30
0.000000
  70
    32
  0
VERTEX
  8
図枠
  5
2A5
 10
901.571
 20
-311.000
 30
0.000000
  70
    32
  0
VERTEX
  8
図枠
  5
2A6
 10
901.576
 20
-311.006
 30
0.000000
  70
    32
  0
VERTEX
  8
図枠
  5
2A7
 10
901.581
 20
-311.012
 30
0.000000
  70
    32
  0
VERTEX
  8
図枠
  5
2A8
 10
901.587
 20
-311.017
 30
0.000000
  70
    32
  0
VERTEX
  8
図枠
  5
2A9
 10
901.592
 20
-311.023
 30
0.000000
  70
    32
  0
VERTEX
  8
図枠
  5
2AA
 10
901.597
 20
-311.029
 30
0.000000
  70
    32
  0
VERTEX
  8
図枠
  5
2AB
 10
901.602
 20
-311.035
 30
0.000000
  70
    32
  0
VERTEX
  8
図枠
  5
2AC
 10
901.608
 20
-311.041
 30
0.000000
  70
    32
  0
VERTEX
  8
図枠
  5
2AD
 10
901.613
 20
-311.046
 30
0.000000
  70
    32
  0
VERTEX
  8
図枠
  5
2AE
 10
901.618
 20
-311.052
 30
0.000000
  70
    32
  0
VERTEX
  8
図枠
  5
2AF
 10
901.624
 20
-311.058
 30
0.000000
  70
    32
  0
VERTEX
  8
図枠
  5
2B0
 10
901.629
 20
-311.064
 30
0.000000
  70
    32
  0
VERTEX
  8
図枠
  5
2B1
 10
901.635
 20
-311.070
 30
0.000000
  70
    32
  0
VERTEX
  8
図枠
  5
2B2
 10
901.640
 20
-311.075
 30
0.000000
  70
    32
  0
VERTEX
  8
図枠
  5
2B3
 10
901.645
 20
-311.081
 30
0.000000
  70
    32
  0
VERTEX
  8
図枠
  5
2B4
 10
901.651
 20
-311.087
 30
0.000000
  70
    32
  0
VERTEX
  8
図枠
  5
2B5
 10
901.656
 20
-311.093
 30
0.000000
  70
    32
  0
VERTEX
  8
図枠
  5
2B6
 10
901.661
 20
-311.098
 30
0.000000
  70
    32
  0
VERTEX
  8
図枠
  5
2B7
 10
901.667
 20
-311.104
 30
0.000000
  70
    32
  0
VERTEX
  8
図枠
  5
2B8
 10
901.672
 20
-311.110
 30
0.000000
  70
    32
  0
VERTEX
  8
図枠
  5
2B9
 10
901.677
 20
-311.116
 30
0.000000
  70
    32
  0
VERTEX
  8
図枠
  5
2BA
 10
901.683
 20
-311.121
 30
0.000000
  70
    32
  0
VERTEX
  8
図枠
  5
2BB
 10
901.688
 20
-311.127
 30
0.000000
  70
    32
  0
VERTEX
  8
図枠
  5
2BC
 10
901.693
 20
-311.133
 30
0.000000
  70
    32
  0
VERTEX
  8
図枠
  5
2BD
 10
901.699
 20
-311.139
 30
0.000000
  70
    32
  0
VERTEX
  8
図枠
  5
2BE
 10
901.704
 20
-311.144
 30
0.000000
  70
    32
  0
VERTEX
  8
図枠
  5
2BF
 10
901.710
 20
-311.150
 30
0.000000
  70
    32
  0
VERTEX
  8
図枠
  5
2C0
 10
901.715
 20
-311.156
 30
0.000000
  70
    32
  0
VERTEX
  8
図枠
  5
2C1
 10
901.720
 20
-311.161
 30
0.000000
  70
    32
  0
VERTEX
  8
図枠
  5
2C2
 10
901.726
 20
-311.167
 30
0.000000
  70
    32
  0
VERTEX
  8
図枠
  5
2C3
 10
901.731
 20
-311.173
 30
0.000000
  70
    32
  0
VERTEX
  8
図枠
  5
2C4
 10
901.737
 20
-311.178
 30
0.000000
  70
    32
  0
VERTEX
  8
図枠
  5
2C5
 10
901.742
 20
-311.184
 30
0.000000
  70
    32
  0
VERTEX
  8
図枠
  5
2C6
 10
901.747
 20
-311.190
 30
0.000000
  70
    32
  0
VERTEX
  8
図枠
  5
2C7
 10
901.753
 20
-311.195
 30
0.000000
  70
    32
  0
VERTEX
  8
図枠
  5
2C8
 10
901.758
 20
-311.201
 30
0.000000
  70
    32
  0
VERTEX
  8
図枠
  5
2C9
 10
901.764
 20
-311.207
 30
0.000000
  70
    32
  0
VERTEX
  8
図枠
  5
2CA
 10
901.769
 20
-311.212
 30
0.000000
  70
    32
  0
VERTEX
  8
図枠
  5
2CB
 10
901.775
 20
-311.218
 30
0.000000
  70
    32
  0
VERTEX
  8
図枠
  5
2CC
 10
901.780
 20
-311.224
 30
0.000000
  70
    32
  0
VERTEX
  8
図枠
  5
2CD
 10
901.785
 20
-311.229
 30
0.000000
  70
    32
  0
VERTEX
  8
図枠
  5
2CE
 10
901.791
 20
-311.235
 30
0.000000
  70
    32
  0
VERTEX
  8
図枠
  5
2CF
 10
901.796
 20
-311.241
 30
0.000000
  70
    32
  0
VERTEX
  8
図枠
  5
2D0
 10
901.802
 20
-311.246
 30
0.000000
  70
    32
  0
VERTEX
  8
図枠
  5
2D1
 10
901.807
 20
-311.252
 30
0.000000
  70
    32
  0
VERTEX
  8
図枠
  5
2D2
 10
901.813
 20
-311.257
 30
0.000000
  70
    32
  0
VERTEX
  8
図枠
  5
2D3
 10
901.818
 20
-311.263
 30
0.000000
  70
    32
  0
VERTEX
  8
図枠
  5
2D4
 10
901.824
 20
-311.269
 30
0.000000
  70
    32
  0
VERTEX
  8
図枠
  5
2D5
 10
901.829
 20
-311.274
 30
0.000000
  70
    32
  0
VERTEX
  8
図枠
  5
2D6
 10
901.835
 20
-311.280
 30
0.000000
  70
    32
  0
VERTEX
  8
図枠
  5
2D7
 10
901.840
 20
-311.285
 30
0.000000
  70
    32
  0
VERTEX
  8
図枠
  5
2D8
 10
901.846
 20
-311.291
 30
0.000000
  70
    32
  0
VERTEX
  8
図枠
  5
2D9
 10
901.851
 20
-311.296
 30
0.000000
  70
    32
  0
VERTEX
  8
図枠
  5
2DA
 10
901.857
 20
-311.302
 30
0.000000
  70
    32
  0
VERTEX
  8
図枠
  5
2DB
 10
901.862
 20
-311.307
 30
0.000000
  70
    32
  0
VERTEX
  8
図枠
  5
2DC
 10
901.868
 20
-311.313
 30
0.000000
  70
    32
  0
VERTEX
  8
図枠
  5
2DD
 10
901.873
 20
-311.318
 30
0.000000
  70
    32
  0
VERTEX
  8
図枠
  5
2DE
 10
901.879
 20
-311.324
 30
0.000000
  70
    32
  0
VERTEX
  8
図枠
  5
2DF
 10
901.884
 20
-311.329
 30
0.000000
  70
    32
  0
VERTEX
  8
図枠
  5
2E0
 10
901.890
 20
-311.335
 30
0.000000
  70
    32
  0
VERTEX
  8
図枠
  5
2E1
 10
901.895
 20
-311.340
 30
0.000000
  70
    32
  0
VERTEX
  8
図枠
  5
2E2
 10
901.901
 20
-311.346
 30
0.000000
  70
    32
  0
VERTEX
  8
図枠
  5
2E3
 10
901.906
 20
-311.351
 30
0.000000
  70
    32
  0
VERTEX
  8
図枠
  5
2E4
 10
901.912
 20
-311.357
 30
0.000000
  70
    32
  0
VERTEX
  8
図枠
  5
2E5
 10
901.917
 20
-311.362
 30
0.000000
  70
    32
  0
VERTEX
  8
図枠
  5
2E6
 10
901.923
 20
-311.368
 30
0.000000
  70
    32
  0
VERTEX
  8
図枠
  5
2E7
 10
901.928
 20
-311.373
 30
0.000000
  70
    32
  0
VERTEX
  8
図枠
  5
2E8
 10
901.934
 20
-311.379
 30
0.000000
  70
    32
  0
VERTEX
  8
図枠
  5
2E9
 10
901.940
 20
-311.384
 30
0.000000
  70
    32
  0
VERTEX
  8
図枠
  5
2EA
 10
901.945
 20
-311.389
 30
0.000000
  70
    32
  0
VERTEX
  8
図枠
  5
2EB
 10
901.951
 20
-311.395
 30
0.000000
  70
    32
  0
VERTEX
  8
図枠
  5
2EC
 10
901.956
 20
-311.400
 30
0.000000
  70
    32
  0
VERTEX
  8
図枠
  5
2ED
 10
901.962
 20
-311.405
 30
0.000000
  70
    32
  0
VERTEX
  8
図枠
  5
2EE
 10
901.968
 20
-311.411
 30
0.000000
  70
    32
  0
VERTEX
  8
図枠
  5
2EF
 10
901.973
 20
-311.416
 30
0.000000
  70
    32
  0
VERTEX
  8
図枠
  5
2F0
 10
901.979
 20
-311.421
 30
0.000000
  70
    32
  0
VERTEX
  8
図枠
  5
2F1
 10
901.984
 20
-311.427
 30
0.000000
  70
    32
  0
VERTEX
  8
図枠
  5
2F2
 10
901.990
 20
-311.432
 30
0.000000
  70
    32
  0
VERTEX
  8
図枠
  5
2F3
 10
901.996
 20
-311.437
 30
0.000000
  70
    32
  0
VERTEX
  8
図枠
  5
2F4
 10
902.001
 20
-311.443
 30
0.000000
  70
    32
  0
VERTEX
  8
図枠
  5
2F5
 10
902.007
 20
-311.448
 30
0.000000
  70
    32
  0
VERTEX
  8
図枠
  5
2F6
 10
902.013
 20
-311.453
 30
0.000000
  70
    32
  0
VERTEX
  8
図枠
  5
2F7
 10
902.018
 20
-311.459
 30
0.000000
  70
    32
  0
VERTEX
  8
図枠
  5
2F8
 10
902.024
 20
-311.464
 30
0.000000
  70
    32
  0
VERTEX
  8
図枠
  5
2F9
 10
902.030
 20
-311.469
 30
0.000000
  70
    32
  0
VERTEX
  8
図枠
  5
2FA
 10
902.035
 20
-311.474
 30
0.000000
  70
    32
  0
VERTEX
  8
図枠
  5
2FB
 10
902.041
 20
-311.480
 30
0.000000
  70
    32
  0
VERTEX
  8
図枠
  5
2FC
 10
902.047
 20
-311.485
 30
0.000000
  70
    32
  0
VERTEX
  8
図枠
  5
2FD
 10
902.052
 20
-311.490
 30
0.000000
  70
    32
  0
VERTEX
  8
図枠
  5
2FE
 10
902.058
 20
-311.495
 30
0.000000
  70
    32
  0
VERTEX
  8
図枠
  5
2FF
 10
902.064
 20
-311.500
 30
0.000000
  70
    32
  0
SEQEND
  8
図枠
  5
300
  0
POLYLINE
  8
図枠
  5
301
  66
     1
 10
0.000000
 20
0.000000
 30
0.000000
  70
     8
  0
VERTEX
  8
図枠
  5
302
 10
902.994
 20
-313.381
 30
0.000000
  70
    32
  0
VERTEX
  8
図枠
  5
303
 10
903.016
 20
-313.388
 30
0.000000
  70
    32
  0
VERTEX
  8
図枠
  5
304
 10
903.037
 20
-313.395
 30
0.000000
  70
    32
  0
VERTEX
  8
図枠
  5
305
 10
903.059
 20
-313.402
 30
0.000000
  70
    32
  0
VERTEX
  8
図枠
  5
306
 10
903.080
 20
-313.409
 30
0.000000
  70
    32
  0
VERTEX
  8
図枠
  5
307
 10
903.102
 20
-313.415
 30
0.000000
  70
    32
  0
VERTEX
  8
図枠
  5
308
 10
903.124
 20
-313.422
 30
0.000000
  70
    32
  0
VERTEX
  8
図枠
  5
309
 10
903.145
 20
-313.429
 30
0.000000
  70
    32
  0
VERTEX
  8
図枠
  5
30A
 10
903.167
 20
-313.435
 30
0.000000
  70
    32
  0
VERTEX
  8
図枠
  5
30B
 10
903.189
 20
-313.442
 30
0.000000
  70
    32
  0
VERTEX
  8
図枠
  5
30C
 10
903.210
 20
-313.449
 30
0.000000
  70
    32
  0
VERTEX
  8
図枠
  5
30D
 10
903.232
 20
-313.455
 30
0.000000
  70
    32
  0
VERTEX
  8
図枠
  5
30E
 10
903.254
 20
-313.462
 30
0.000000
  70
    32
  0
VERTEX
  8
図枠
  5
30F
 10
903.276
 20
-313.468
 30
0.000000
  70
    32
  0
VERTEX
  8
図枠
  5
310
 10
903.297
 20
-313.475
 30
0.000000
  70
    32
  0
VERTEX
  8
図枠
  5
311
 10
903.319
 20
-313.481
 30
0.000000
  70
    32
  0
VERTEX
  8
図枠
  5
312
 10
903.341
 20
-313.487
 30
0.000000
  70
    32
  0
VERTEX
  8
図枠
  5
313
 10
903.363
 20
-313.494
 30
0.000000
  70
    32
  0
VERTEX
  8
図枠
  5
314
 10
903.384
 20
-313.500
 30
0.000000
  70
    32
  0
VERTEX
  8
図枠
  5
315
 10
903.406
 20
-313.506
 30
0.000000
  70
    32
  0
VERTEX
  8
図枠
  5
316
 10
903.428
 20
-313.513
 30
0.000000
  70
    32
  0
VERTEX
  8
図枠
  5
317
 10
903.450
 20
-313.519
 30
0.000000
  70
    32
  0
VERTEX
  8
図枠
  5
318
 10
903.472
 20
-313.525
 30
0.000000
  70
    32
  0
VERTEX
  8
図枠
  5
319
 10
903.494
 20
-313.531
 30
0.000000
  70
    32
  0
VERTEX
  8
図枠
  5
31A
 10
903.516
 20
-313.537
 30
0.000000
  70
    32
  0
VERTEX
  8
図枠
  5
31B
 10
903.538
 20
-313.544
 30
0.000000
  70
    32
  0
VERTEX
  8
図枠
  5
31C
 10
903.560
 20
-313.550
 30
0.000000
  70
    32
  0
VERTEX
  8
図枠
  5
31D
 10
903.582
 20
-313.556
 30
0.000000
  70
    32
  0
VERTEX
  8
図枠
  5
31E
 10
903.604
 20
-313.562
 30
0.000000
  70
    32
  0
VERTEX
  8
図枠
  5
31F
 10
903.626
 20
-313.568
 30
0.000000
  70
    32
  0
VERTEX
  8
図枠
  5
320
 10
903.648
 20
-313.574
 30
0.000000
  70
    32
  0
VERTEX
  8
図枠
  5
321
 10
903.670
 20
-313.580
 30
0.000000
  70
    32
  0
VERTEX
  8
図枠
  5
322
 10
903.692
 20
-313.586
 30
0.000000
  70
    32
  0
VERTEX
  8
図枠
  5
323
 10
903.714
 20
-313.592
 30
0.000000
  70
    32
  0
VERTEX
  8
図枠
  5
324
 10
903.736
 20
-313.597
 30
0.000000
  70
    32
  0
VERTEX
  8
図枠
  5
325
 10
903.758
 20
-313.603
 30
0.000000
  70
    32
  0
VERTEX
  8
図枠
  5
326
 10
903.780
 20
-313.609
 30
0.000000
  70
    32
  0
VERTEX
  8
図枠
  5
327
 10
903.802
 20
-313.615
 30
0.000000
  70
    32
  0
VERTEX
  8
図枠
  5
328
 10
903.824
 20
-313.621
 30
0.000000
  70
    32
  0
VERTEX
  8
図枠
  5
329
 10
903.846
 20
-313.627
 30
0.000000
  70
    32
  0
VERTEX
  8
図枠
  5
32A
 10
903.868
 20
-313.632
 30
0.000000
  70
    32
  0
VERTEX
  8
図枠
  5
32B
 10
903.890
 20
-313.638
 30
0.000000
  70
    32
  0
VERTEX
  8
図枠
  5
32C
 10
903.913
 20
-313.644
 30
0.000000
  70
    32
  0
VERTEX
  8
図枠
  5
32D
 10
903.935
 20
-313.649
 30
0.000000
  70
    32
  0
VERTEX
  8
図枠
  5
32E
 10
903.957
 20
-313.655
 30
0.000000
  70
    32
  0
VERTEX
  8
図枠
  5
32F
 10
903.979
 20
-313.661
 30
0.000000
  70
    32
  0
VERTEX
  8
図枠
  5
330
 10
904.001
 20
-313.666
 30
0.000000
  70
    32
  0
VERTEX
  8
図枠
  5
331
 10
904.024
 20
-313.672
 30
0.000000
  70
    32
  0
VERTEX
  8
図枠
  5
332
 10
904.046
 20
-313.677
 30
0.000000
  70
    32
  0
VERTEX
  8
図枠
  5
333
 10
904.068
 20
-313.683
 30
0.000000
  70
    32
  0
VERTEX
  8
図枠
  5
334
 10
904.090
 20
-313.689
 30
0.000000
  70
    32
  0
VERTEX
  8
図枠
  5
335
 10
904.113
 20
-313.694
 30
0.000000
  70
    32
  0
VERTEX
  8
図枠
  5
336
 10
904.135
 20
-313.700
 30
0.000000
  70
    32
  0
VERTEX
  8
図枠
  5
337
 10
904.157
 20
-313.705
 30
0.000000
  70
    32
  0
VERTEX
  8
図枠
  5
338
 10
904.180
 20
-313.710
 30
0.000000
  70
    32
  0
VERTEX
  8
図枠
  5
339
 10
904.202
 20
-313.716
 30
0.000000
  70
    32
  0
VERTEX
  8
図枠
  5
33A
 10
904.224
 20
-313.721
 30
0.000000
  70
    32
  0
VERTEX
  8
図枠
  5
33B
 10
904.247
 20
-313.727
 30
0.000000
  70
    32
  0
VERTEX
  8
図枠
  5
33C
 10
904.269
 20
-313.732
 30
0.000000
  70
    32
  0
VERTEX
  8
図枠
  5
33D
 10
904.291
 20
-313.737
 30
0.000000
  70
    32
  0
VERTEX
  8
図枠
  5
33E
 10
904.314
 20
-313.743
 30
0.000000
  70
    32
  0
VERTEX
  8
図枠
  5
33F
 10
904.336
 20
-313.748
 30
0.000000
  70
    32
  0
VERTEX
  8
図枠
  5
340
 10
904.358
 20
-313.753
 30
0.000000
  70
    32
  0
VERTEX
  8
図枠
  5
341
 10
904.381
 20
-313.759
 30
0.000000
  70
    32
  0
VERTEX
  8
図枠
  5
342
 10
904.403
 20
-313.764
 30
0.000000
  70
    32
  0
VERTEX
  8
図枠
  5
343
 10
904.426
 20
-313.769
 30
0.000000
  70
    32
  0
VERTEX
  8
図枠
  5
344
 10
904.448
 20
-313.774
 30
0.000000
  70
    32
  0
VERTEX
  8
図枠
  5
345
 10
904.470
 20
-313.780
 30
0.000000
  70
    32
  0
VERTEX
  8
図枠
  5
346
 10
904.493
 20
-313.785
 30
0.000000
  70
    32
  0
VERTEX
  8
図枠
  5
347
 10
904.515
 20
-313.790
 30
0.000000
  70
    32
  0
VERTEX
  8
図枠
  5
348
 10
904.538
 20
-313.795
 30
0.000000
  70
    32
  0
VERTEX
  8
図枠
  5
349
 10
904.560
 20
-313.800
 30
0.000000
  70
    32
  0
VERTEX
  8
図枠
  5
34A
 10
904.583
 20
-313.805
 30
0.000000
  70
    32
  0
VERTEX
  8
図枠
  5
34B
 10
904.605
 20
-313.810
 30
0.000000
  70
    32
  0
VERTEX
  8
図枠
  5
34C
 10
904.628
 20
-313.816
 30
0.000000
  70
    32
  0
VERTEX
  8
図枠
  5
34D
 10
904.650
 20
-313.821
 30
0.000000
  70
    32
  0
VERTEX
  8
図枠
  5
34E
 10
904.673
 20
-313.826
 30
0.000000
  70
    32
  0
VERTEX
  8
図枠
  5
34F
 10
904.695
 20
-313.831
 30
0.000000
  70
    32
  0
VERTEX
  8
図枠
  5
350
 10
904.718
 20
-313.836
 30
0.000000
  70
    32
  0
VERTEX
  8
図枠
  5
351
 10
904.740
 20
-313.841
 30
0.000000
  70
    32
  0
VERTEX
  8
図枠
  5
352
 10
904.763
 20
-313.846
 30
0.000000
  70
    32
  0
VERTEX
  8
図枠
  5
353
 10
904.785
 20
-313.851
 30
0.000000
  70
    32
  0
VERTEX
  8
図枠
  5
354
 10
904.808
 20
-313.856
 30
0.000000
  70
    32
  0
VERTEX
  8
図枠
  5
355
 10
904.830
 20
-313.861
 30
0.000000
  70
    32
  0
VERTEX
  8
図枠
  5
356
 10
904.853
 20
-313.866
 30
0.000000
  70
    32
  0
VERTEX
  8
図枠
  5
357
 10
904.875
 20
-313.871
 30
0.000000
  70
    32
  0
VERTEX
  8
図枠
  5
358
 10
904.898
 20
-313.876
 30
0.000000
  70
    32
  0
VERTEX
  8
図枠
  5
359
 10
904.921
 20
-313.881
 30
0.000000
  70
    32
  0
VERTEX
  8
図枠
  5
35A
 10
904.943
 20
-313.886
 30
0.000000
  70
    32
  0
VERTEX
  8
図枠
  5
35B
 10
904.966
 20
-313.891
 30
0.000000
  70
    32
  0
VERTEX
  8
図枠
  5
35C
 10
904.988
 20
-313.895
 30
0.000000
  70
    32
  0
VERTEX
  8
図枠
  5
35D
 10
905.011
 20
-313.900
 30
0.000000
  70
    32
  0
VERTEX
  8
図枠
  5
35E
 10
905.034
 20
-313.905
 30
0.000000
  70
    32
  0
VERTEX
  8
図枠
  5
35F
 10
905.056
 20
-313.910
 30
0.000000
  70
    32
  0
VERTEX
  8
図枠
  5
360
 10
905.079
 20
-313.915
 30
0.000000
  70
    32
  0
VERTEX
  8
図枠
  5
361
 10
905.101
 20
-313.920
 30
0.000000
  70
    32
  0
VERTEX
  8
図枠
  5
362
 10
905.124
 20
-313.925
 30
0.000000
  70
    32
  0
VERTEX
  8
図枠
  5
363
 10
905.147
 20
-313.930
 30
0.000000
  70
    32
  0
VERTEX
  8
図枠
  5
364
 10
905.169
 20
-313.934
 30
0.000000
  70
    32
  0
VERTEX
  8
図枠
  5
365
 10
905.192
 20
-313.939
 30
0.000000
  70
    32
  0
VERTEX
  8
図枠
  5
366
 10
905.215
 20
-313.944
 30
0.000000
  70
    32
  0
VERTEX
  8
図枠
  5
367
 10
905.237
 20
-313.949
 30
0.000000
  70
    32
  0
VERTEX
  8
図枠
  5
368
 10
905.260
 20
-313.954
 30
0.000000
  70
    32
  0
VERTEX
  8
図枠
  5
369
 10
905.283
 20
-313.958
 30
0.000000
  70
    32
  0
VERTEX
  8
図枠
  5
36A
 10
905.305
 20
-313.963
 30
0.000000
  70
    32
  0
VERTEX
  8
図枠
  5
36B
 10
905.328
 20
-313.968
 30
0.000000
  70
    32
  0
VERTEX
  8
図枠
  5
36C
 10
905.351
 20
-313.973
 30
0.000000
  70
    32
  0
VERTEX
  8
図枠
  5
36D
 10
905.373
 20
-313.978
 30
0.000000
  70
    32
  0
VERTEX
  8
図枠
  5
36E
 10
905.396
 20
-313.982
 30
0.000000
  70
    32
  0
VERTEX
  8
図枠
  5
36F
 10
905.419
 20
-313.987
 30
0.000000
  70
    32
  0
VERTEX
  8
図枠
  5
370
 10
905.441
 20
-313.992
 30
0.000000
  70
    32
  0
VERTEX
  8
図枠
  5
371
 10
905.464
 20
-313.997
 30
0.000000
  70
    32
  0
VERTEX
  8
図枠
  5
372
 10
905.487
 20
-314.001
 30
0.000000
  70
    32
  0
VERTEX
  8
図枠
  5
373
 10
905.509
 20
-314.006
 30
0.000000
  70
    32
  0
VERTEX
  8
図枠
  5
374
 10
905.532
 20
-314.011
 30
0.000000
  70
    32
  0
VERTEX
  8
図枠
  5
375
 10
905.555
 20
-314.016
 30
0.000000
  70
    32
  0
VERTEX
  8
図枠
  5
376
 10
905.577
 20
-314.020
 30
0.000000
  70
    32
  0
VERTEX
  8
図枠
  5
377
 10
905.600
 20
-314.025
 30
0.000000
  70
    32
  0
VERTEX
  8
図枠
  5
378
 10
905.623
 20
-314.030
 30
0.000000
  70
    32
  0
VERTEX
  8
図枠
  5
379
 10
905.645
 20
-314.034
 30
0.000000
  70
    32
  0
VERTEX
  8
図枠
  5
37A
 10
905.668
 20
-314.039
 30
0.000000
  70
    32
  0
VERTEX
  8
図枠
  5
37B
 10
905.691
 20
-314.044
 30
0.000000
  70
    32
  0
VERTEX
  8
図枠
  5
37C
 10
905.713
 20
-314.049
 30
0.000000
  70
    32
  0
VERTEX
  8
図枠
  5
37D
 10
905.736
 20
-314.053
 30
0.000000
  70
    32
  0
VERTEX
  8
図枠
  5
37E
 10
905.759
 20
-314.058
 30
0.000000
  70
    32
  0
VERTEX
  8
図枠
  5
37F
 10
905.781
 20
-314.063
 30
0.000000
  70
    32
  0
VERTEX
  8
図枠
  5
380
 10
905.804
 20
-314.068
 30
0.000000
  70
    32
  0
VERTEX
  8
図枠
  5
381
 10
905.827
 20
-314.072
 30
0.000000
  70
    32
  0
SEQEND
  8
図枠
  5
382
  0
LINE
  5
3C
  8
図枠
 10
907.60068196880002
 20
-309.83268681300001
 30
0.0
 11
909.59941540880004
 21
-309.83268681300001
 31
0.0
  0
LINE
  5
3D
  8
図枠
 10
913.20012196880009
 20
-314.47222281299997
 30
0.0
 11
912.87785766030004
 21
-313.35233481300003
 31
0.0
  0
LINE
  5
3E
  8
図枠
 10
912.87785766030004
 20
-313.35233481300003
 30
0.0
 11
914.79996196879995
 21
-313.35233481300003
 31
0.0
  0
LINE
  5
3F
  8
図枠
 10
910.96034596880008
 20
-314.47222281299997
 30
0.0
 11
910.63184548879997
 21
-313.35233481300003
 31
0.0
  0
LINE
  5
40
  8
図枠
 10
905.82687324879998
 20
-312.872382813
 30
0.0
 11
905.82687324879998
 21
-314.07226281300001
 31
0.0
  0
LINE
  5
41
  8
図枠
 10
918.49991960289981
 20
-290.10279837270002
 30
0.0
 11
918.49991960289981
 21
-315.60024837269998
 31
0.0
  0
ARC
  5
42
  8
図枠
 10
900.6273932488001
 20
-309.672702813
 30
0.0
 40
4.3995600000000001
 50
270.0
 51
302.54495885400001
  0
INSERT
  5
43
  8
0
  6
CONTINUOUS
  2
*U12
 10
0.0
 20
0.0
 30
0.0
  0
LINE
  5
44
  8
図枠
 10
895.29944124879989
 20
-310.07266281300002
 30
0.0
 11
895.29944124879989
 21
-309.672702813
 31
0.0
  0
LINE
  5
45
  8
図枠
 10
889.70000124880005
 20
-311.27254281299997
 30
0.0
 11
889.57913028780001
 21
-311.27254281299997
 31
0.0
  0
INSERT
  5
46
  8
0
  6
CONTINUOUS
  2
*U13
 10
0.0
 20
0.0
 30
0.0
  0
INSERT
  5
47
  8
0
  6
CONTINUOUS
  2
*U14
 10
0.0
 20
0.0
 30
0.0
  0
INSERT
  5
48
  8
0
  6
CONTINUOUS
  2
*U15
 10
0.0
 20
0.0
 30
0.0
  0
INSERT
  5
49
  8
0
  6
CONTINUOUS
  2
*U16
 10
0.0
 20
0.0
 30
0.0
  0
INSERT
  5
4A
  8
0
  6
CONTINUOUS
  2
*U17
 10
0.0
 20
0.0
 30
0.0
  0
LINE
  5
4B
  8
図枠
 10
878.50391960290005
 20
-290.10279837270002
 30
0.0
 11
878.50391960290005
 21
-298.60194837270001
 31
0.0
  0
LINE
  5
4C
  8
図枠
 10
888.50291960289996
 20
-298.60194837270001
 30
0.0
 11
888.50291960289996
 21
-307.10109837269999
 31
0.0
  0
INSERT
  5
4D
  8
0
  6
CONTINUOUS
  2
*U18
 10
0.0
 20
0.0
 30
0.0
  0
LINE
  5
4E
  8
図枠
 10
889.70000124880005
 20
-312.872382813
 30
0.0
 11
889.70000124880005
 21
-314.07226281300001
 31
0.0
  0
CIRCLE
  5
4F
  8
図枠
 10
904.56531320289992
 20
-294.35237337270001
 30
0.0
 40
2.303769599999999
  0
ARC
  5
50
  8
図枠
 10
899.5874972488001
 20
-309.83268681300001
 30
0.0
 40
3.0396959999999988
 50
331.39928138329998
 51
358.49204224580001
  0
LINE
  5
51
  8
図枠
 10
858.50591960289978
 20
-290.10279837270002
 30
0.0
 11
858.50591960289978
 21
-315.60024837269998
 31
0.0
  0
ARC
  5
52
  8
図枠
 10
892.89968124879999
 20
-311.67250281299999
 30
0.0
 40
2.3997599999999988
 50
270.0
 51
0.0
  0
LINE
  5
53
  8
図枠
  6
DOT
 10
980.49371960289989
 20
-321.34967337270001
 30
0.0
 11
980.49371960289989
 21
-119.8698233727
 31
0.0
  0
LINE
  5
54
  8
図枠
 62
     5
 10
699.52181960289977
 20
-315.60024837269998
 30
0.0
 11
699.52181960289977
 21
-125.6192483727
 31
0.0
  0
ARC
  5
55
  8
図枠
 10
899.5874972488001
 20
-309.83268681300001
 30
0.0
 40
3.0396959999999988
 50
270.0
 51
298.08590481520002
  0
LINE
  5
56
  8
図枠
 10
907.60068196880002
 20
-311.91247881300001
 30
0.0
 11
907.60068196880002
 21
-313.35233481300003
 31
0.0
  0
LINE
  5
57
  8
図枠
 10
907.60068196880002
 20
-313.35233481300003
 30
0.0
 11
910.63184548879997
 21
-313.35233481300003
 31
0.0
  0
LINE
  5
58
  8
図枠
 62
     5
 10
699.52181960289977
 20
-315.60024837269998
 30
0.0
 11
974.49431960289996
 21
-315.60024837269998
 31
0.0
  0
LINE
  5
59
  8
図枠
 10
889.70000124880005
 20
-314.07226281300001
 30
0.0
 11
892.89968124879999
 21
-314.07226281300001
 31
0.0
  0
LINE
  5
5A
  8
図枠
 10
909.83126736600002
 20
-295.50425817270002
 30
0.0
 11
914.43880656600015
 21
-296.65614297270002
 31
0.0
  0
LINE
  5
5B
  8
図枠
 10
910.2094877287999
 20
-311.91247881300001
 30
0.0
 11
910.02177316879988
 21
-311.27254281299997
 31
0.0
  0
LINE
  5
5C
  8
図枠
 10
909.83126736600002
 20
-293.20048857270001
 30
0.0
 11
909.83126736600002
 21
-295.50425817270002
 31
0.0
  0
LINE
  5
5D
  8
図枠
 10
909.83126736600002
 20
-295.50425817270002
 30
0.0
 11
914.43880656600015
 21
-296.65614297270002
 31
0.0
  0
INSERT
  5
5E
  8
0
  6
CONTINUOUS
  2
*U19
 10
0.0
 20
0.0
 30
0.0
  0
LINE
  5
5F
  8
図枠
 10
893.29964124879996
 20
-308.47282281299999
 30
0.0
 11
893.29964124879996
 21
-310.07266281300002
 31
0.0
  0
LINE
  5
60
  8
図枠
 10
891.6998012488001
 20
-311.27254281299997
 30
0.0
 11
893.29964124879996
 21
-311.27254281299997
 31
0.0
  0
LINE
  5
61
  8
図枠
 10
895.29944124879989
 20
-311.67250281299999
 30
0.0
 11
895.29944124879989
 21
-311.27254281299997
 31
0.0
  0
INSERT
  5
62
  8
0
  6
CONTINUOUS
  2
*U20
 10
0.0
 20
0.0
 30
0.0
  0
LINE
  5
63
  8
図枠
 10
860.50571960289994
 20
-294.35237337270001
 30
0.0
 11
876.50411960289989
 21
-294.35237337270001
 31
0.0
  0
LINE
  5
64
  8
図枠
 10
889.70000124880005
 20
-311.27254281299997
 30
0.0
 11
889.70000124880005
 21
-312.47242281299998
 31
0.0
  0
LINE
  5
65
  8
図枠
 10
889.70000124880005
 20
-308.47282281299999
 30
0.0
 11
889.70000124880005
 21
-310.07266281300002
 31
0.0
  0
LINE
  5
66
  8
図枠
 10
896.49932124880002
 20
-310.07266281300002
 30
0.0
 11
895.29944124879989
 21
-310.07266281300002
 31
0.0
  0
LINE
  5
67
  8
図枠
 10
909.2005219688001
 20
-308.47282281299999
 30
0.0
 11
912.40020196880005
 21
-308.47282281299999
 31
0.0
  0
LINE
  5
68
  8
図枠
 10
898.62759324880005
 20
-314.07226281300001
 30
0.0
 11
900.6273932488001
 21
-314.07226281300001
 31
0.0
  0
LINE
  5
69
  8
図枠
  6
BORDER
 10
901.10965880289984
 20
-294.35237337270001
 30
0.0
 11
915.89218040289995
 21
-294.35237337270001
 31
0.0
  0
POLYLINE
  8
図枠
  5
383
  66
     1
 10
0.000000
 20
0.000000
 30
0.000000
  70
     8
  0
VERTEX
  8
図枠
  5
384
 10
898.628
 20
-310.588
 30
0.000000
  70
    32
  0
VERTEX
  8
図枠
  5
385
 10
898.642
 20
-310.601
 30
0.000000
  70
    32
  0
VERTEX
  8
図枠
  5
386
 10
898.656
 20
-310.615
 30
0.000000
  70
    32
  0
VERTEX
  8
図枠
  5
387
 10
898.671
 20
-310.628
 30
0.000000
  70
    32
  0
VERTEX
  8
図枠
  5
388
 10
898.685
 20
-310.641
 30
0.000000
  70
    32
  0
VERTEX
  8
図枠
  5
389
 10
898.700
 20
-310.654
 30
0.000000
  70
    32
  0
VERTEX
  8
図枠
  5
38A
 10
898.714
 20
-310.668
 30
0.000000
  70
    32
  0
VERTEX
  8
図枠
  5
38B
 10
898.728
 20
-310.681
 30
0.000000
  70
    32
  0
VERTEX
  8
図枠
  5
38C
 10
898.743
 20
-310.694
 30
0.000000
  70
    32
  0
VERTEX
  8
図枠
  5
38D
 10
898.757
 20
-310.707
 30
0.000000
  70
    32
  0
VERTEX
  8
図枠
  5
38E
 10
898.772
 20
-310.721
 30
0.000000
  70
    32
  0
VERTEX
  8
図枠
  5
38F
 10
898.786
 20
-310.734
 30
0.000000
  70
    32
  0
VERTEX
  8
図枠
  5
390
 10
898.801
 20
-310.747
 30
0.000000
  70
    32
  0
VERTEX
  8
図枠
  5
391
 10
898.815
 20
-310.761
 30
0.000000
  70
    32
  0
VERTEX
  8
図枠
  5
392
 10
898.829
 20
-310.774
 30
0.000000
  70
    32
  0
VERTEX
  8
図枠
  5
393
 10
898.844
 20
-310.787
 30
0.000000
  70
    32
  0
VERTEX
  8
図枠
  5
394
 10
898.858
 20
-310.800
 30
0.000000
  70
    32
  0
VERTEX
  8
図枠
  5
395
 10
898.873
 20
-310.814
 30
0.000000
  70
    32
  0
VERTEX
  8
図枠
  5
396
 10
898.887
 20
-310.827
 30
0.000000
  70
    32
  0
VERTEX
  8
図枠
  5
397
 10
898.902
 20
-310.840
 30
0.000000
  70
    32
  0
VERTEX
  8
図枠
  5
398
 10
898.916
 20
-310.853
 30
0.000000
  70
    32
  0
VERTEX
  8
図枠
  5
399
 10
898.930
 20
-310.866
 30
0.000000
  70
    32
  0
VERTEX
  8
図枠
  5
39A
 10
898.945
 20
-310.880
 30
0.000000
  70
    32
  0
VERTEX
  8
図枠
  5
39B
 10
898.959
 20
-310.893
 30
0.000000
  70
    32
  0
VERTEX
  8
図枠
  5
39C
 10
898.974
 20
-310.906
 30
0.000000
  70
    32
  0
VERTEX
  8
図枠
  5
39D
 10
898.988
 20
-310.919
 30
0.000000
  70
    32
  0
VERTEX
  8
図枠
  5
39E
 10
899.003
 20
-310.932
 30
0.000000
  70
    32
  0
VERTEX
  8
図枠
  5
39F
 10
899.017
 20
-310.946
 30
0.000000
  70
    32
  0
VERTEX
  8
図枠
  5
3A0
 10
899.032
 20
-310.959
 30
0.000000
  70
    32
  0
VERTEX
  8
図枠
  5
3A1
 10
899.046
 20
-310.972
 30
0.000000
  70
    32
  0
VERTEX
  8
図枠
  5
3A2
 10
899.060
 20
-310.985
 30
0.000000
  70
    32
  0
VERTEX
  8
図枠
  5
3A3
 10
899.075
 20
-310.998
 30
0.000000
  70
    32
  0
VERTEX
  8
図枠
  5
3A4
 10
899.089
 20
-311.011
 30
0.000000
  70
    32
  0
VERTEX
  8
図枠
  5
3A5
 10
899.104
 20
-311.025
 30
0.000000
  70
    32
  0
VERTEX
  8
図枠
  5
3A6
 10
899.118
 20
-311.038
 30
0.000000
  70
    32
  0
VERTEX
  8
図枠
  5
3A7
 10
899.133
 20
-311.051
 30
0.000000
  70
    32
  0
VERTEX
  8
図枠
  5
3A8
 10
899.147
 20
-311.064
 30
0.000000
  70
    32
  0
VERTEX
  8
図枠
  5
3A9
 10
899.162
 20
-311.077
 30
0.000000
  70
    32
  0
VERTEX
  8
図枠
  5
3AA
 10
899.176
 20
-311.090
 30
0.000000
  70
    32
  0
VERTEX
  8
図枠
  5
3AB
 10
899.191
 20
-311.103
 30
0.000000
  70
    32
  0
VERTEX
  8
図枠
  5
3AC
 10
899.205
 20
-311.116
 30
0.000000
  70
    32
  0
VERTEX
  8
図枠
  5
3AD
 10
899.220
 20
-311.129
 30
0.000000
  70
    32
  0
VERTEX
  8
図枠
  5
3AE
 10
899.235
 20
-311.142
 30
0.000000
  70
    32
  0
VERTEX
  8
図枠
  5
3AF
 10
899.249
 20
-311.155
 30
0.000000
  70
    32
  0
VERTEX
  8
図枠
  5
3B0
 10
899.264
 20
-311.168
 30
0.000000
  70
    32
  0
VERTEX
  8
図枠
  5
3B1
 10
899.278
 20
-311.181
 30
0.000000
  70
    32
  0
VERTEX
  8
図枠
  5
3B2
 10
899.293
 20
-311.194
 30
0.000000
  70
    32
  0
VERTEX
  8
図枠
  5
3B3
 10
899.307
 20
-311.207
 30
0.000000
  70
    32
  0
VERTEX
  8
図枠
  5
3B4
 10
899.322
 20
-311.220
 30
0.000000
  70
    32
  0
VERTEX
  8
図枠
  5
3B5
 10
899.337
 20
-311.233
 30
0.000000
  70
    32
  0
VERTEX
  8
図枠
  5
3B6
 10
899.351
 20
-311.246
 30
0.000000
  70
    32
  0
VERTEX
  8
図枠
  5
3B7
 10
899.366
 20
-311.259
 30
0.000000
  70
    32
  0
VERTEX
  8
図枠
  5
3B8
 10
899.380
 20
-311.272
 30
0.000000
  70
    32
  0
VERTEX
  8
図枠
  5
3B9
 10
899.395
 20
-311.285
 30
0.000000
  70
    32
  0
VERTEX
  8
図枠
  5
3BA
 10
899.410
 20
-311.298
 30
0.000000
  70
    32
  0
VERTEX
  8
図枠
  5
3BB
 10
899.424
 20
-311.311
 30
0.000000
  70
    32
  0
VERTEX
  8
図枠
  5
3BC
 10
899.439
 20
-311.324
 30
0.000000
  70
    32
  0
VERTEX
  8
図枠
  5
3BD
 10
899.453
 20
-311.336
 30
0.000000
  70
    32
  0
VERTEX
  8
図枠
  5
3BE
 10
899.468
 20
-311.349
 30
0.000000
  70
    32
  0
VERTEX
  8
図枠
  5
3BF
 10
899.483
 20
-311.362
 30
0.000000
  70
    32
  0
VERTEX
  8
図枠
  5
3C0
 10
899.497
 20
-311.375
 30
0.000000
  70
    32
  0
VERTEX
  8
図枠
  5
3C1
 10
899.512
 20
-311.388
 30
0.000000
  70
    32
  0
VERTEX
  8
図枠
  5
3C2
 10
899.527
 20
-311.400
 30
0.000000
  70
    32
  0
VERTEX
  8
図枠
  5
3C3
 10
899.542
 20
-311.413
 30
0.000000
  70
    32
  0
VERTEX
  8
図枠
  5
3C4
 10
899.556
 20
-311.426
 30
0.000000
  70
    32
  0
VERTEX
  8
図枠
  5
3C5
 10
899.571
 20
-311.439
 30
0.000000
  70
    32
  0
VERTEX
  8
図枠
  5
3C6
 10
899.586
 20
-311.451
 30
0.000000
  70
    32
  0
VERTEX
  8
図枠
  5
3C7
 10
899.600
 20
-311.464
 30
0.000000
  70
    32
  0
VERTEX
  8
図枠
  5
3C8
 10
899.615
 20
-311.477
 30
0.000000
  70
    32
  0
VERTEX
  8
図枠
  5
3C9
 10
899.630
 20
-311.489
 30
0.000000
  70
    32
  0
VERTEX
  8
図枠
  5
3CA
 10
899.645
 20
-311.502
 30
0.000000
  70
    32
  0
VERTEX
  8
図枠
  5
3CB
 10
899.659
 20
-311.514
 30
0.000000
  70
    32
  0
VERTEX
  8
図枠
  5
3CC
 10
899.674
 20
-311.527
 30
0.000000
  70
    32
  0
VERTEX
  8
図枠
  5
3CD
 10
899.689
 20
-311.540
 30
0.000000
  70
    32
  0
VERTEX
  8
図枠
  5
3CE
 10
899.704
 20
-311.552
 30
0.000000
  70
    32
  0
VERTEX
  8
図枠
  5
3CF
 10
899.719
 20
-311.565
 30
0.000000
  70
    32
  0
VERTEX
  8
図枠
  5
3D0
 10
899.734
 20
-311.577
 30
0.000000
  70
    32
  0
VERTEX
  8
図枠
  5
3D1
 10
899.748
 20
-311.590
 30
0.000000
  70
    32
  0
VERTEX
  8
図枠
  5
3D2
 10
899.763
 20
-311.602
 30
0.000000
  70
    32
  0
VERTEX
  8
図枠
  5
3D3
 10
899.778
 20
-311.614
 30
0.000000
  70
    32
  0
VERTEX
  8
図枠
  5
3D4
 10
899.793
 20
-311.627
 30
0.000000
  70
    32
  0
VERTEX
  8
図枠
  5
3D5
 10
899.808
 20
-311.639
 30
0.000000
  70
    32
  0
VERTEX
  8
図枠
  5
3D6
 10
899.823
 20
-311.652
 30
0.000000
  70
    32
  0
VERTEX
  8
図枠
  5
3D7
 10
899.838
 20
-311.664
 30
0.000000
  70
    32
  0
VERTEX
  8
図枠
  5
3D8
 10
899.853
 20
-311.676
 30
0.000000
  70
    32
  0
VERTEX
  8
図枠
  5
3D9
 10
899.868
 20
-311.689
 30
0.000000
  70
    32
  0
VERTEX
  8
図枠
  5
3DA
 10
899.883
 20
-311.701
 30
0.000000
  70
    32
  0
VERTEX
  8
図枠
  5
3DB
 10
899.897
 20
-311.713
 30
0.000000
  70
    32
  0
VERTEX
  8
図枠
  5
3DC
 10
899.912
 20
-311.725
 30
0.000000
  70
    32
  0
VERTEX
  8
図枠
  5
3DD
 10
899.927
 20
-311.737
 30
0.000000
  70
    32
  0
VERTEX
  8
図枠
  5
3DE
 10
899.942
 20
-311.750
 30
0.000000
  70
    32
  0
VERTEX
  8
図枠
  5
3DF
 10
899.957
 20
-311.762
 30
0.000000
  70
    32
  0
VERTEX
  8
図枠
  5
3E0
 10
899.973
 20
-311.774
 30
0.000000
  70
    32
  0
VERTEX
  8
図枠
  5
3E1
 10
899.988
 20
-311.786
 30
0.000000
  70
    32
  0
VERTEX
  8
図枠
  5
3E2
 10
900.003
 20
-311.798
 30
0.000000
  70
    32
  0
VERTEX
  8
図枠
  5
3E3
 10
900.018
 20
-311.810
 30
0.000000
  70
    32
  0
VERTEX
  8
図枠
  5
3E4
 10
900.033
 20
-311.822
 30
0.000000
  70
    32
  0
VERTEX
  8
図枠
  5
3E5
 10
900.048
 20
-311.834
 30
0.000000
  70
    32
  0
VERTEX
  8
図枠
  5
3E6
 10
900.063
 20
-311.846
 30
0.000000
  70
    32
  0
VERTEX
  8
図枠
  5
3E7
 10
900.078
 20
-311.858
 30
0.000000
  70
    32
  0
VERTEX
  8
図枠
  5
3E8
 10
900.093
 20
-311.870
 30
0.000000
  70
    32
  0
VERTEX
  8
図枠
  5
3E9
 10
900.108
 20
-311.882
 30
0.000000
  70
    32
  0
VERTEX
  8
図枠
  5
3EA
 10
900.124
 20
-311.894
 30
0.000000
  70
    32
  0
VERTEX
  8
図枠
  5
3EB
 10
900.139
 20
-311.906
 30
0.000000
  70
    32
  0
VERTEX
  8
図枠
  5
3EC
 10
900.154
 20
-311.917
 30
0.000000
  70
    32
  0
VERTEX
  8
図枠
  5
3ED
 10
900.169
 20
-311.929
 30
0.000000
  70
    32
  0
VERTEX
  8
図枠
  5
3EE
 10
900.184
 20
-311.941
 30
0.000000
  70
    32
  0
VERTEX
  8
図枠
  5
3EF
 10
900.200
 20
-311.953
 30
0.000000
  70
    32
  0
VERTEX
  8
図枠
  5
3F0
 10
900.215
 20
-311.964
 30
0.000000
  70
    32
  0
VERTEX
  8
図枠
  5
3F1
 10
900.230
 20
-311.976
 30
0.000000
  70
    32
  0
VERTEX
  8
図枠
  5
3F2
 10
900.246
 20
-311.988
 30
0.000000
  70
    32
  0
VERTEX
  8
図枠
  5
3F3
 10
900.261
 20
-311.999
 30
0.000000
  70
    32
  0
VERTEX
  8
図枠
  5
3F4
 10
900.276
 20
-312.011
 30
0.000000
  70
    32
  0
VERTEX
  8
図枠
  5
3F5
 10
900.292
 20
-312.022
 30
0.000000
  70
    32
  0
VERTEX
  8
図枠
  5
3F6
 10
900.307
 20
-312.034
 30
0.000000
  70
    32
  0
VERTEX
  8
図枠
  5
3F7
 10
900.322
 20
-312.045
 30
0.000000
  70
    32
  0
VERTEX
  8
図枠
  5
3F8
 10
900.338
 20
-312.057
 30
0.000000
  70
    32
  0
VERTEX
  8
図枠
  5
3F9
 10
900.353
 20
-312.068
 30
0.000000
  70
    32
  0
VERTEX
  8
図枠
  5
3FA
 10
900.369
 20
-312.079
 30
0.000000
  70
    32
  0
VERTEX
  8
図枠
  5
3FB
 10
900.384
 20
-312.091
 30
0.000000
  70
    32
  0
VERTEX
  8
図枠
  5
3FC
 10
900.400
 20
-312.102
 30
0.000000
  70
    32
  0
VERTEX
  8
図枠
  5
3FD
 10
900.415
 20
-312.113
 30
0.000000
  70
    32
  0
VERTEX
  8
図枠
  5
3FE
 10
900.431
 20
-312.125
 30
0.000000
  70
    32
  0
VERTEX
  8
図枠
  5
3FF
 10
900.446
 20
-312.136
 30
0.000000
  70
    32
  0
VERTEX
  8
図枠
  5
400
 10
900.462
 20
-312.147
 30
0.000000
  70
    32
  0
VERTEX
  8
図枠
  5
401
 10
900.477
 20
-312.158
 30
0.000000
  70
    32
  0
VERTEX
  8
図枠
  5
402
 10
900.493
 20
-312.169
 30
0.000000
  70
    32
  0
VERTEX
  8
図枠
  5
403
 10
900.508
 20
-312.180
 30
0.000000
  70
    32
  0
VERTEX
  8
図枠
  5
404
 10
900.524
 20
-312.191
 30
0.000000
  70
    32
  0
VERTEX
  8
図枠
  5
405
 10
900.540
 20
-312.202
 30
0.000000
  70
    32
  0
VERTEX
  8
図枠
  5
406
 10
900.555
 20
-312.213
 30
0.000000
  70
    32
  0
VERTEX
  8
図枠
  5
407
 10
900.571
 20
-312.224
 30
0.000000
  70
    32
  0
VERTEX
  8
図枠
  5
408
 10
900.587
 20
-312.235
 30
0.000000
  70
    32
  0
VERTEX
  8
図枠
  5
409
 10
900.602
 20
-312.246
 30
0.000000
  70
    32
  0
VERTEX
  8
図枠
  5
40A
 10
900.618
 20
-312.257
 30
0.000000
  70
    32
  0
VERTEX
  8
図枠
  5
40B
 10
900.634
 20
-312.268
 30
0.000000
  70
    32
  0
VERTEX
  8
図枠
  5
40C
 10
900.650
 20
-312.278
 30
0.000000
  70
    32
  0
VERTEX
  8
図枠
  5
40D
 10
900.666
 20
-312.289
 30
0.000000
  70
    32
  0
VERTEX
  8
図枠
  5
40E
 10
900.681
 20
-312.300
 30
0.000000
  70
    32
  0
VERTEX
  8
図枠
  5
40F
 10
900.697
 20
-312.310
 30
0.000000
  70
    32
  0
VERTEX
  8
図枠
  5
410
 10
900.713
 20
-312.321
 30
0.000000
  70
    32
  0
VERTEX
  8
図枠
  5
411
 10
900.729
 20
-312.331
 30
0.000000
  70
    32
  0
VERTEX
  8
図枠
  5
412
 10
900.745
 20
-312.342
 30
0.000000
  70
    32
  0
VERTEX
  8
図枠
  5
413
 10
900.761
 20
-312.352
 30
0.000000
  70
    32
  0
VERTEX
  8
図枠
  5
414
 10
900.777
 20
-312.363
 30
0.000000
  70
    32
  0
VERTEX
  8
図枠
  5
415
 10
900.793
 20
-312.373
 30
0.000000
  70
    32
  0
VERTEX
  8
図枠
  5
416
 10
900.809
 20
-312.384
 30
0.000000
  70
    32
  0
VERTEX
  8
図枠
  5
417
 10
900.825
 20
-312.394
 30
0.000000
  70
    32
  0
VERTEX
  8
図枠
  5
418
 10
900.841
 20
-312.404
 30
0.000000
  70
    32
  0
VERTEX
  8
図枠
  5
419
 10
900.857
 20
-312.414
 30
0.000000
  70
    32
  0
VERTEX
  8
図枠
  5
41A
 10
900.873
 20
-312.425
 30
0.000000
  70
    32
  0
VERTEX
  8
図枠
  5
41B
 10
900.889
 20
-312.435
 30
0.000000
  70
    32
  0
VERTEX
  8
図枠
  5
41C
 10
900.905
 20
-312.445
 30
0.000000
  70
    32
  0
VERTEX
  8
図枠
  5
41D
 10
900.921
 20
-312.455
 30
0.000000
  70
    32
  0
VERTEX
  8
図枠
  5
41E
 10
900.937
 20
-312.465
 30
0.000000
  70
    32
  0
VERTEX
  8
図枠
  5
41F
 10
900.954
 20
-312.475
 30
0.000000
  70
    32
  0
VERTEX
  8
図枠
  5
420
 10
900.970
 20
-312.485
 30
0.000000
  70
    32
  0
VERTEX
  8
図枠
  5
421
 10
900.986
 20
-312.495
 30
0.000000
  70
    32
  0
VERTEX
  8
図枠
  5
422
 10
901.002
 20
-312.505
 30
0.000000
  70
    32
  0
VERTEX
  8
図枠
  5
423
 10
901.019
 20
-312.514
 30
0.000000
  70
    32
  0
SEQEND
  8
図枠
  5
424
  0
POLYLINE
  8
図枠
  5
425
  66
     1
 10
0.000000
 20
0.000000
 30
0.000000
  70
     8
  0
VERTEX
  8
図枠
  5
426
 10
903.975
 20
-312.491
 30
0.000000
  70
    32
  0
VERTEX
  8
図枠
  5
427
 10
903.989
 20
-312.495
 30
0.000000
  70
    32
  0
VERTEX
  8
図枠
  5
428
 10
904.003
 20
-312.499
 30
0.000000
  70
    32
  0
VERTEX
  8
図枠
  5
429
 10
904.017
 20
-312.503
 30
0.000000
  70
    32
  0
VERTEX
  8
図枠
  5
42A
 10
904.031
 20
-312.507
 30
0.000000
  70
    32
  0
VERTEX
  8
図枠
  5
42B
 10
904.045
 20
-312.511
 30
0.000000
  70
    32
  0
VERTEX
  8
図枠
  5
42C
 10
904.059
 20
-312.515
 30
0.000000
  70
    32
  0
VERTEX
  8
図枠
  5
42D
 10
904.073
 20
-312.519
 30
0.000000
  70
    32
  0
VERTEX
  8
図枠
  5
42E
 10
904.087
 20
-312.522
 30
0.000000
  70
    32
  0
VERTEX
  8
図枠
  5
42F
 10
904.101
 20
-312.526
 30
0.000000
  70
    32
  0
VERTEX
  8
図枠
  5
430
 10
904.115
 20
-312.530
 30
0.000000
  70
    32
  0
VERTEX
  8
図枠
  5
431
 10
904.129
 20
-312.534
 30
0.000000
  70
    32
  0
VERTEX
  8
図枠
  5
432
 10
904.143
 20
-312.537
 30
0.000000
  70
    32
  0
VERTEX
  8
図枠
  5
433
 10
904.158
 20
-312.541
 30
0.000000
  70
    32
  0
VERTEX
  8
図枠
  5
434
 10
904.172
 20
-312.545
 30
0.000000
  70
    32
  0
VERTEX
  8
図枠
  5
435
 10
904.186
 20
-312.548
 30
0.000000
  70
    32
  0
VERTEX
  8
図枠
  5
436
 10
904.200
 20
-312.552
 30
0.000000
  70
    32
  0
VERTEX
  8
図枠
  5
437
 10
904.214
 20
-312.556
 30
0.000000
  70
    32
  0
VERTEX
  8
図枠
  5
438
 10
904.229
 20
-312.559
 30
0.000000
  70
    32
  0
VERTEX
  8
図枠
  5
439
 10
904.243
 20
-312.563
 30
0.000000
  70
    32
  0
VERTEX
  8
図枠
  5
43A
 10
904.257
 20
-312.566
 30
0.000000
  70
    32
  0
VERTEX
  8
図枠
  5
43B
 10
904.271
 20
-312.570
 30
0.000000
  70
    32
  0
VERTEX
  8
図枠
  5
43C
 10
904.286
 20
-312.573
 30
0.000000
  70
    32
  0
VERTEX
  8
図枠
  5
43D
 10
904.300
 20
-312.577
 30
0.000000
  70
    32
  0
VERTEX
  8
図枠
  5
43E
 10
904.314
 20
-312.580
 30
0.000000
  70
    32
  0
VERTEX
  8
図枠
  5
43F
 10
904.328
 20
-312.584
 30
0.000000
  70
    32
  0
VERTEX
  8
図枠
  5
440
 10
904.343
 20
-312.587
 30
0.000000
  70
    32
  0
VERTEX
  8
図枠
  5
441
 10
904.357
 20
-312.591
 30
0.000000
  70
    32
  0
VERTEX
  8
図枠
  5
442
 10
904.371
 20
-312.594
 30
0.000000
  70
    32
  0
VERTEX
  8
図枠
  5
443
 10
904.386
 20
-312.598
 30
0.000000
  70
    32
  0
VERTEX
  8
図枠
  5
444
 10
904.400
 20
-312.601
 30
0.000000
  70
    32
  0
VERTEX
  8
図枠
  5
445
 10
904.414
 20
-312.604
 30
0.000000
  70
    32
  0
VERTEX
  8
図枠
  5
446
 10
904.429
 20
-312.608
 30
0.000000
  70
    32
  0
VERTEX
  8
図枠
  5
447
 10
904.443
 20
-312.611
 30
0.000000
  70
    32
  0
VERTEX
  8
図枠
  5
448
 10
904.458
 20
-312.614
 30
0.000000
  70
    32
  0
VERTEX
  8
図枠
  5
449
 10
904.472
 20
-312.618
 30
0.000000
  70
    32
  0
VERTEX
  8
図枠
  5
44A
 10
904.486
 20
-312.621
 30
0.000000
  70
    32
  0
VERTEX
  8
図枠
  5
44B
 10
904.501
 20
-312.624
 30
0.000000
  70
    32
  0
VERTEX
  8
図枠
  5
44C
 10
904.515
 20
-312.627
 30
0.000000
  70
    32
  0
VERTEX
  8
図枠
  5
44D
 10
904.530
 20
-312.631
 30
0.000000
  70
    32
  0
VERTEX
  8
図枠
  5
44E
 10
904.544
 20
-312.634
 30
0.000000
  70
    32
  0
VERTEX
  8
図枠
  5
44F
 10
904.559
 20
-312.637
 30
0.000000
  70
    32
  0
VERTEX
  8
図枠
  5
450
 10
904.573
 20
-312.640
 30
0.000000
  70
    32
  0
VERTEX
  8
図枠
  5
451
 10
904.588
 20
-312.643
 30
0.000000
  70
    32
  0
VERTEX
  8
図枠
  5
452
 10
904.602
 20
-312.646
 30
0.000000
  70
    32
  0
VERTEX
  8
図枠
  5
453
 10
904.617
 20
-312.650
 30
0.000000
  70
    32
  0
VERTEX
  8
図枠
  5
454
 10
904.631
 20
-312.653
 30
0.000000
  70
    32
  0
VERTEX
  8
図枠
  5
455
 10
904.646
 20
-312.656
 30
0.000000
  70
    32
  0
VERTEX
  8
図枠
  5
456
 10
904.660
 20
-312.659
 30
0.000000
  70
    32
  0
VERTEX
  8
図枠
  5
457
 10
904.675
 20
-312.662
 30
0.000000
  70
    32
  0
VERTEX
  8
図枠
  5
458
 10
904.689
 20
-312.665
 30
0.000000
  70
    32
  0
VERTEX
  8
図枠
  5
459
 10
904.704
 20
-312.668
 30
0.000000
  70
    32
  0
VERTEX
  8
図枠
  5
45A
 10
904.718
 20
-312.671
 30
0.000000
  70
    32
  0
VERTEX
  8
図枠
  5
45B
 10
904.733
 20
-312.674
 30
0.000000
  70
    32
  0
VERTEX
  8
図枠
  5
45C
 10
904.747
 20
-312.677
 30
0.000000
  70
    32
  0
VERTEX
  8
図枠
  5
45D
 10
904.762
 20
-312.680
 30
0.000000
  70
    32
  0
VERTEX
  8
図枠
  5
45E
 10
904.777
 20
-312.683
 30
0.000000
  70
    32
  0
VERTEX
  8
図枠
  5
45F
 10
904.791
 20
-312.686
 30
0.000000
  70
    32
  0
VERTEX
  8
図枠
  5
460
 10
904.806
 20
-312.689
 30
0.000000
  70
    32
  0
VERTEX
  8
図枠
  5
461
 10
904.821
 20
-312.692
 30
0.000000
  70
    32
  0
VERTEX
  8
図枠
  5
462
 10
904.835
 20
-312.695
 30
0.000000
  70
    32
  0
VERTEX
  8
図枠
  5
463
 10
904.850
 20
-312.698
 30
0.000000
  70
    32
  0
VERTEX
  8
図枠
  5
464
 10
904.864
 20
-312.701
 30
0.000000
  70
    32
  0
VERTEX
  8
図枠
  5
465
 10
904.879
 20
-312.704
 30
0.000000
  70
    32
  0
VERTEX
  8
図枠
  5
466
 10
904.894
 20
-312.706
 30
0.000000
  70
    32
  0
VERTEX
  8
図枠
  5
467
 10
904.908
 20
-312.709
 30
0.000000
  70
    32
  0
VERTEX
  8
図枠
  5
468
 10
904.923
 20
-312.712
 30
0.000000
  70
    32
  0
VERTEX
  8
図枠
  5
469
 10
904.938
 20
-312.715
 30
0.000000
  70
    32
  0
VERTEX
  8
図枠
  5
46A
 10
904.952
 20
-312.718
 30
0.000000
  70
    32
  0
VERTEX
  8
図枠
  5
46B
 10
904.967
 20
-312.721
 30
0.000000
  70
    32
  0
VERTEX
  8
図枠
  5
46C
 10
904.982
 20
-312.723
 30
0.000000
  70
    32
  0
VERTEX
  8
図枠
  5
46D
 10
904.997
 20
-312.726
 30
0.000000
  70
    32
  0
VERTEX
  8
図枠
  5
46E
 10
905.011
 20
-312.729
 30
0.000000
  70
    32
  0
VERTEX
  8
図枠
  5
46F
 10
905.026
 20
-312.732
 30
0.000000
  70
    32
  0
VERTEX
  8
図枠
  5
470
 10
905.041
 20
-312.735
 30
0.000000
  70
    32
  0
VERTEX
  8
図枠
  5
471
 10
905.055
 20
-312.737
 30
0.000000
  70
    32
  0
VERTEX
  8
図枠
  5
472
 10
905.070
 20
-312.740
 30
0.000000
  70
    32
  0
VERTEX
  8
図枠
  5
473
 10
905.085
 20
-312.743
 30
0.000000
  70
    32
  0
VERTEX
  8
図枠
  5
474
 10
905.100
 20
-312.746
 30
0.000000
  70
    32
  0
VERTEX
  8
図枠
  5
475
 10
905.114
 20
-312.748
 30
0.000000
  70
    32
  0
VERTEX
  8
図枠
  5
476
 10
905.129
 20
-312.751
 30
0.000000
  70
    32
  0
VERTEX
  8
図枠
  5
477
 10
905.144
 20
-312.754
 30
0.000000
  70
    32
  0
VERTEX
  8
図枠
  5
478
 10
905.159
 20
-312.756
 30
0.000000
  70
    32
  0
VERTEX
  8
図枠
  5
479
 10
905.173
 20
-312.759
 30
0.000000
  70
    32
  0
VERTEX
  8
図枠
  5
47A
 10
905.188
 20
-312.762
 30
0.000000
  70
    32
  0
VERTEX
  8
図枠
  5
47B
 10
905.203
 20
-312.765
 30
0.000000
  70
    32
  0
VERTEX
  8
図枠
  5
47C
 10
905.218
 20
-312.767
 30
0.000000
  70
    32
  0
VERTEX
  8
図枠
  5
47D
 10
905.233
 20
-312.770
 30
0.000000
  70
    32
  0
VERTEX
  8
図枠
  5
47E
 10
905.247
 20
-312.773
 30
0.000000
  70
    32
  0
VERTEX
  8
図枠
  5
47F
 10
905.262
 20
-312.775
 30
0.000000
  70
    32
  0
VERTEX
  8
図枠
  5
480
 10
905.277
 20
-312.778
 30
0.000000
  70
    32
  0
VERTEX
  8
図枠
  5
481
 10
905.292
 20
-312.780
 30
0.000000
  70
    32
  0
VERTEX
  8
図枠
  5
482
 10
905.307
 20
-312.783
 30
0.000000
  70
    32
  0
VERTEX
  8
図枠
  5
483
 10
905.321
 20
-312.786
 30
0.000000
  70
    32
  0
VERTEX
  8
図枠
  5
484
 10
905.336
 20
-312.788
 30
0.000000
  70
    32
  0
VERTEX
  8
図枠
  5
485
 10
905.351
 20
-312.791
 30
0.000000
  70
    32
  0
VERTEX
  8
図枠
  5
486
 10
905.366
 20
-312.794
 30
0.000000
  70
    32
  0
VERTEX
  8
図枠
  5
487
 10
905.381
 20
-312.796
 30
0.000000
  70
    32
  0
VERTEX
  8
図枠
  5
488
 10
905.396
 20
-312.799
 30
0.000000
  70
    32
  0
VERTEX
  8
図枠
  5
489
 10
905.410
 20
-312.801
 30
0.000000
  70
    32
  0
VERTEX
  8
図枠
  5
48A
 10
905.425
 20
-312.804
 30
0.000000
  70
    32
  0
VERTEX
  8
図枠
  5
48B
 10
905.440
 20
-312.806
 30
0.000000
  70
    32
  0
VERTEX
  8
図枠
  5
48C
 10
905.455
 20
-312.809
 30
0.000000
  70
    32
  0
VERTEX
  8
図枠
  5
48D
 10
905.470
 20
-312.812
 30
0.000000
  70
    32
  0
VERTEX
  8
図枠
  5
48E
 10
905.485
 20
-312.814
 30
0.000000
  70
    32
  0
VERTEX
  8
図枠
  5
48F
 10
905.500
 20
-312.817
 30
0.000000
  70
    32
  0
VERTEX
  8
図枠
  5
490
 10
905.514
 20
-312.819
 30
0.000000
  70
    32
  0
VERTEX
  8
図枠
  5
491
 10
905.529
 20
-312.822
 30
0.000000
  70
    32
  0
VERTEX
  8
図枠
  5
492
 10
905.544
 20
-312.824
 30
0.000000
  70
    32
  0
VERTEX
  8
図枠
  5
493
 10
905.559
 20
-312.827
 30
0.000000
  70
    32
  0
VERTEX
  8
図枠
  5
494
 10
905.574
 20
-312.829
 30
0.000000
  70
    32
  0
VERTEX
  8
図枠
  5
495
 10
905.589
 20
-312.832
 30
0.000000
  70
    32
  0
VERTEX
  8
図枠
  5
496
 10
905.604
 20
-312.835
 30
0.000000
  70
    32
  0
VERTEX
  8
図枠
  5
497
 10
905.619
 20
-312.837
 30
0.000000
  70
    32
  0
VERTEX
  8
図枠
  5
498
 10
905.633
 20
-312.840
 30
0.000000
  70
    32
  0
VERTEX
  8
図枠
  5
499
 10
905.648
 20
-312.842
 30
0.000000
  70
    32
  0
VERTEX
  8
図枠
  5
49A
 10
905.663
 20
-312.845
 30
0.000000
  70
    32
  0
VERTEX
  8
図枠
  5
49B
 10
905.678
 20
-312.847
 30
0.000000
  70
    32
  0
VERTEX
  8
図枠
  5
49C
 10
905.693
 20
-312.850
 30
0.000000
  70
    32
  0
VERTEX
  8
図枠
  5
49D
 10
905.708
 20
-312.852
 30
0.000000
  70
    32
  0
VERTEX
  8
図枠
  5
49E
 10
905.723
 20
-312.855
 30
0.000000
  70
    32
  0
VERTEX
  8
図枠
  5
49F
 10
905.738
 20
-312.857
 30
0.000000
  70
    32
  0
VERTEX
  8
図枠
  5
4A0
 10
905.752
 20
-312.860
 30
0.000000
  70
    32
  0
VERTEX
  8
図枠
  5
4A1
 10
905.767
 20
-312.862
 30
0.000000
  70
    32
  0
VERTEX
  8
図枠
  5
4A2
 10
905.782
 20
-312.865
 30
0.000000
  70
    32
  0
VERTEX
  8
図枠
  5
4A3
 10
905.797
 20
-312.867
 30
0.000000
  70
    32
  0
VERTEX
  8
図枠
  5
4A4
 10
905.812
 20
-312.870
 30
0.000000
  70
    32
  0
VERTEX
  8
図枠
  5
4A5
 10
905.827
 20
-312.872
 30
0.000000
  70
    32
  0
SEQEND
  8
図枠
  5
4A6
  0
LINE
  5
6C
  8
図枠
 10
909.83126736600002
 20
-293.20048857270001
 30
0.0
 11
909.83126736600002
 21
-295.50425817270002
 31
0.0
  0
LINE
  5
6D
  8
図枠
 10
909.83126736600002
 20
-293.20048857270001
 30
0.0
 11
909.83126736600002
 21
-295.50425817270002
 31
0.0
  0
LINE
  5
6E
  8
図枠
 10
891.6998012488001
 20
-312.47242281299998
 30
0.0
 11
891.6998012488001
 21
-311.27254281299997
 31
0.0
  0
LINE
  5
6F
  8
図枠
 62
     5
 10
880.50371960289988
 20
-130.6187483727
 30
0.0
 11
974.49431960289996
 21
-130.6187483727
 31
0.0
  0
LINE
  5
70
  8
図枠
 62
     5
 10
880.50371960289988
 20
-135.61824837270001
 30
0.0
 11
974.49431960289996
 21
-135.61824837270001
 31
0.0
  0
INSERT
  5
71
  8
0
  6
CONTINUOUS
  2
*U21
 10
0.0
 20
0.0
 30
0.0
  0
LINE
  5
72
  8
図枠
 10
910.96034596880008
 20
-314.47222281299997
 30
0.0
 11
913.20012196880009
 21
-314.47222281299997
 31
0.0
  0
LINE
  5
73
  8
図枠
 10
914.79996196879995
 20
-311.91247881300001
 30
0.0
 11
914.79996196879995
 21
-313.35233481300003
 31
0.0
  0
LINE
  5
74
  8
図枠
 10
890.5027196028999
 20
-302.8515233727
 30
0.0
 11
916.50011960289987
 21
-302.8515233727
 31
0.0
  0
LINE
  5
75
  8
図枠
 10
893.29964124879996
 20
-310.07266281300002
 30
0.0
 11
891.6998012488001
 21
-310.07266281300002
 31
0.0
  0
ARC
  5
76
  8
図枠
 10
892.09976124880006
 20
-311.67250281299999
 30
0.0
 40
1.1998799999999989
 50
270.0
 51
0.0
  0
INSERT
  5
77
  8
0
  6
CONTINUOUS
  2
*U22
 10
0.0
 20
0.0
 30
0.0
  0
LINE
  5
78
  8
図枠
 10
914.43880656600015
 20
-292.04860377270001
 30
0.0
 11
914.43880656600015
 21
-296.65614297270002
 31
0.0
  0
LINE
  5
79
  8
図枠
 10
914.43880656600015
 20
-292.04860377270001
 30
0.0
 11
914.43880656600015
 21
-296.65614297270002
 31
0.0
  0
LINE
  5
7A
  8
図枠
 10
914.79996196879995
 20
-309.83268681300001
 30
0.0
 11
914.79996196879995
 21
-311.27254281299997
 31
0.0
  0
LINE
  5
7B
  8
図枠
 10
912.46351783509988
 20
-311.91247881300001
 30
0.0
 11
914.79996196879995
 21
-311.91247881300001
 31
0.0
  0
LINE
  5
7C
  8
図枠
 10
911.74792328779984
 20
-309.42574439890001
 30
0.0
 11
912.40020196880005
 21
-308.47282281299999
 31
0.0
  0
INSERT
  5
7D
  8
0
  6
CONTINUOUS
  2
*U23
 10
0.0
 20
0.0
 30
0.0
  0
LINE
  5
7E
  8
図枠
 62
     5
 10
904.50131960290003
 20
-140.61774837269999
 30
0.0
 11
904.50131960290003
 21
-125.6192483727
 31
0.0
  0
LINE
  5
7F
  8
図枠
 62
     5
 10
884.21906264539996
 20
-135.8506076347
 30
0.0
 11
881.74431014539994
 21
-140.13700470079999
 31
0.0
  0
LINE
  5
80
  8
図枠
 62
     5
 10
884.21906264539996
 20
-135.8506076347
 30
0.0
 11
886.69381514539998
 21
-140.13700470079999
 31
0.0
  0
LINE
  5
81
  8
図枠
 62
     5
 10
974.49431960289996
 20
-315.60024837269998
 30
0.0
 11
974.49431960289996
 21
-125.6192483727
 31
0.0
  0
LINE
  5
82
  8
図枠
  6
DOT
 10
693.52541930289976
 20
-321.34967337270001
 30
0.0
 11
693.52541930289976
 21
-119.8698233727
 31
0.0
  0
INSERT
  5
83
  8
0
  6
CONTINUOUS
  2
*U24
 10
0.0
 20
0.0
 30
0.0
  0
LINE
  5
84
  8
図枠
  6
DOT
 10
693.52241960289984
 20
-119.8698233727
 30
0.0
 11
980.49371960289989
 21
-119.8698233727
 31
0.0
  0
LINE
  5
85
  8
図枠
 62
     5
 10
699.52181960289977
 20
-125.6192483727
 30
0.0
 11
974.49431960289996
 21
-125.6192483727
 31
0.0
  0
CIRCLE
  5
86
  8
図枠
 10
904.56531320289992
 20
-294.35237337270001
 30
0.0
 40
1.151884799999999
  0
CIRCLE
  5
87
  8
図枠
 10
904.56531320289992
 20
-294.35237337270001
 30
0.0
 40
1.151884799999999
  0
LINE
  5
88
  8
図枠
 10
898.62759324880005
 20
-312.872382813
 30
0.0
 11
898.62759324880005
 21
-314.07226281300001
 31
0.0
  0
LINE
  5
89
  8
図枠
  6
DOT
 10
693.52241960289984
 20
-321.34967337270001
 30
0.0
 11
980.49371960289989
 21
-321.34967337270001
 31
0.0
  0
INSERT
  5
8A
  8
0
  6
CONTINUOUS
  2
*U25
 10
0.0
 20
0.0
 30
0.0
  0
LINE
  5
8B
  8
図枠
 10
909.83126736600002
 20
-293.20048857270001
 30
0.0
 11
914.43880656600015
 21
-292.04860377270001
 31
0.0
  0
INSERT
  5
8C
  8
0
  6
CONTINUOUS
  2
*U26
 10
0.0
 20
0.0
 30
0.0
  0
LINE
  5
8D
  8
図枠
 10
909.83126736600002
 20
-293.20048857270001
 30
0.0
 11
914.43880656600015
 21
-292.04860377270001
 31
0.0
  0
INSERT
  5
8E
  8
0
  6
CONTINUOUS
  2
*U27
 10
0.0
 20
0.0
 30
0.0
  0
INSERT
  5
8F
  8
0
  6
CONTINUOUS
  2
*U28
 10
0.0
 20
0.0
 30
0.0
  0
LINE
  5
90
  8
ﾚｲﾔ_1
 62
     5
 10
885.21943421689991
 20
-130.90113087290001
 30
0.0
 11
887.69443421690005
 21
-135.18795662170001
 31
0.0
  0
LINE
  5
91
  8
図枠
 62
     5
 10
881.74431014539994
 20
-140.13700470079999
 30
0.0
 11
886.69381514539998
 21
-140.13700470079999
 31
0.0
  0
LINE
  5
92
  8
図枠
 10
889.70000124880005
 20
-310.07266281300002
 30
0.0
 11
888.77921028779997
 21
-310.07266281300002
 31
0.0
  0
INSERT
  5
93
  8
0
  6
CONTINUOUS
  2
*U29
 10
0.0
 20
0.0
 30
0.0
  0
LINE
  5
94
  8
図枠
 62
     5
 10
888.50291960289996
 20
-140.61774837269999
 30
0.0
 11
888.50291960289996
 21
-125.6192483727
 31
0.0
  0
INSERT
  5
95
  8
0
  6
CONTINUOUS
  2
*U30
 10
0.0
 20
0.0
 30
0.0
  0
INSERT
  5
96
  8
0
  6
CONTINUOUS
  2
*U31
 10
0.0
 20
0.0
 30
0.0
  0
LINE
  5
97
  8
図枠
 62
     5
 10
964.49531960290005
 20
-140.61774837269999
 30
0.0
 11
964.49531960290005
 21
-125.6192483727
 31
0.0
  0
LINE
  5
98
  8
図枠
 62
     5
 10
954.49631960290003
 20
-140.61774837269999
 30
0.0
 11
954.49631960290003
 21
-125.6192483727
 31
0.0
  0
LINE
  5
99
  8
図枠
 10
898.62759324880005
 20
-312.872382813
 30
0.0
 11
899.5874972488001
 21
-312.872382813
 31
0.0
  0
LINE
  5
9A
  8
図枠
 10
909.83126736600002
 20
-295.50425817270002
 30
0.0
 11
914.43880656600015
 21
-296.65614297270002
 31
0.0
  0
LINE
  5
9B
  8
図枠
 10
909.83126736600002
 20
-293.20048857270001
 30
0.0
 11
909.83126736600002
 21
-295.50425817270002
 31
0.0
  0
LINE
  5
9C
  8
図枠
 10
898.62759324880005
 20
-314.07226281300001
 30
0.0
 11
898.62759324880005
 21
-312.872382813
 31
0.0
  0
LINE
  5
9D
  8
図枠
 10
909.83126736600002
 20
-293.20048857270001
 30
0.0
 11
914.43880656600015
 21
-292.04860377270001
 31
0.0
  0
LINE
  5
9E
  8
図枠
 10
907.60068196880002
 20
-311.27254281299997
 30
0.0
 11
910.02177316879988
 21
-311.27254281299997
 31
0.0
  0
LINE
  5
9F
  8
図枠
 10
909.59941540880004
 20
-309.83268681300001
 30
0.0
 11
909.2005219688001
 21
-308.47282281299999
 31
0.0
  0
LINE
  5
A0
  8
図枠
 10
895.29944124879989
 20
-309.672702813
 30
0.0
 11
896.49932124880002
 21
-308.47282281299999
 31
0.0
  0
INSERT
  5
A1
  8
0
  6
CONTINUOUS
  2
*U32
 10
0.0
 20
0.0
 30
0.0
  0
LINE
  5
A2
  8
図枠
 10
858.50591960289978
 20
-290.10279837270002
 30
0.0
 11
974.49431960289996
 21
-290.10279837270002
 31
0.0
  0
LINE
  5
A3
  8
図枠
 10
898.62759324880005
 20
-309.91267881300001
 30
0.0
 11
902.62719324880004
 21
-309.91267881300001
 31
0.0
  0
LINE
  5
A4
  8
図枠
 10
898.62759324880005
 20
-308.47282281299999
 30
0.0
 11
898.62759324880005
 21
-309.91267881300001
 31
0.0
  0
LINE
  5
A5
  8
図枠
 10
898.50191960289999
 20
-290.10279837270002
 30
0.0
 11
898.50191960289999
 21
-298.60194837270001
 31
0.0
  0
LINE
  5
A6
  8
図枠
 62
     5
 10
880.50371960289988
 20
-140.61774837269999
 30
0.0
 11
974.49431960289996
 21
-140.61774837269999
 31
0.0
  0
LINE
  5
A7
  8
図枠
 10
858.50591960289978
 20
-298.60194837270001
 30
0.0
 11
974.49431960289996
 21
-298.60194837270001
 31
0.0
  0
LINE
  5
A8
  8
図枠
 10
858.50591960289978
 20
-307.10109837269999
 30
0.0
 11
974.49431960289996
 21
-307.10109837269999
 31
0.0
  0
LINE
  5
A9
  8
図枠
 10
905.82687324879998
 20
-308.47282281299999
 30
0.0
 11
898.62759324880005
 21
-308.47282281299999
 31
0.0
  0
LINE
  5
AA
  8
図枠
 62
     5
 10
880.50371960289988
 20
-140.61774837269999
 30
0.0
 11
880.50371960289988
 21
-125.6192483727
 31
0.0
  0
LINE
  5
AB
  8
図枠
 10
914.43880656600015
 20
-292.04860377270001
 30
0.0
 11
914.43880656600015
 21
-296.65614297270002
 31
0.0
  0
INSERT
  5
AC
  8
0
  6
CONTINUOUS
  2
*U33
 10
0.0
 20
0.0
 30
0.0
  0
LINE
  5
AD
  8
図枠
 10
912.46351783509988
 20
-311.91247881300001
 30
0.0
 11
912.27936680169989
 21
-311.27254281299997
 31
0.0
  0
LINE
  5
AE
  8
図枠
 10
896.49932124880002
 20
-310.07266281300002
 30
0.0
 11
896.49932124880002
 21
-311.27254281299997
 31
0.0
  0
LINE
  5
AF
  8
図枠
 10
902.25628033709995
 20
-311.28779801140001
 30
0.0
 11
902.0638229397
 21
-311.50036744080001
 31
0.0
  0
LINE
  5
B0
  8
図枠
 10
892.09976124880006
 20
-312.872382813
 30
0.0
 11
889.70000124880005
 21
-312.872382813
 31
0.0
  0
LINE
  5
B1
  8
図枠
 10
911.86502697649996
 20
-309.83268681300001
 30
0.0
 11
911.74792328779984
 21
-309.42574439890001
 31
0.0
  0
LINE
  5
B2
  8
ﾚｲﾔ_1
 62
     5
 10
882.7444342169
 20
-135.18795662170001
 30
0.0
 11
887.69443421690005
 21
-135.18795662170001
 31
0.0
  0
CIRCLE
  5
B3
  8
図枠
 10
904.56531320289992
 20
-294.35237337270001
 30
0.0
 40
2.303769599999999
  0
LINE
  5
B4
  8
図枠
  6
BORDER
 10
904.56531320289992
 20
-290.8967189727
 30
0.0
 11
904.56531320289992
 21
-297.80802777269997
 31
0.0
  0
CIRCLE
  5
B5
  8
図枠
 10
904.56531320289992
 20
-294.35237337270001
 30
0.0
 40
2.303769599999999
  0
LINE
  5
B6
  8
図枠
 10
904.11721971289978
 20
-312.35173984969998
 30
0.0
 11
903.97475231320004
 21
-312.49122841479999
 31
0.0
  0
LINE
  5
B7
  8
図枠
 10
907.60068196880002
 20
-309.83268681300001
 30
0.0
 11
907.60068196880002
 21
-311.27254281299997
 31
0.0
  0
ARC
  5
B8
  8
図枠
 10
900.6273932488001
 20
-309.672702813
 30
0.0
 40
4.3995600000000001
 50
322.48761197969998
 51
0.0
  0
LINE
  5
B9
  8
図枠
 10
896.49932124880002
 20
-308.47282281299999
 30
0.0
 11
893.29964124879996
 21
-308.47282281299999
 31
0.0
  0
INSERT
  5
BA
  8
0
  6
CONTINUOUS
  2
*U34
 10
0.0
 20
0.0
 30
0.0
  0
INSERT
  5
BB
  8
0
  6
CONTINUOUS
  2
*U35
 10
0.0
 20
0.0
 30
0.0
  0
INSERT
  5
BC
  8
0
  6
CONTINUOUS
  2
*U36
 10
0.0
 20
0.0
 30
0.0
  0
LINE
  5
BD
  8
図枠
 10
888.77921028779997
 20
-311.27254281299997
 30
0.0
 11
889.57913028780001
 21
-311.27254281299997
 31
0.0
  0
LINE
  5
BE
  8
図枠
 10
891.6998012488001
 20
-309.672702813
 30
0.0
 11
892.89968124879999
 21
-308.47282281299999
 31
0.0
  0
LINE
  5
BF
  8
図枠
 10
880.50371960289988
 20
-294.35237337270001
 30
0.0
 11
894.50231960289977
 21
-294.35237337270001
 31
0.0
  0
INSERT
  5
C0
  8
0
  6
CONTINUOUS
  2
*U37
 10
0.0
 20
0.0
 30
0.0
  0
LINE
  5
C1
  8
図枠
 10
860.50571960289994
 20
-302.8515233727
 30
0.0
 11
886.50311960289991
 21
-302.8515233727
 31
0.0
  0
LINE
  5
C2
  8
ﾚｲﾔ_1
 62
     5
 10
885.21943421689991
 20
-130.90113087290001
 30
0.0
 11
882.7444342169
 21
-135.18795662170001
 31
0.0
  0
LINE
  5
C3
  8
図枠
 10
898.62759324880005
 20
-310.58798770329997
 30
0.0
 11
898.62759324880005
 21
-310.33032525819999
 31
0.0
  0
LINE
  5
C4
  8
図枠
 10
905.02695324880006
 20
-309.672702813
 30
0.0
 11
905.82687324879998
 21
-308.47282281299999
 31
0.0
  0
LINE
  5
C5
  8
図枠
 10
895.29944124879989
 20
-311.27254281299997
 30
0.0
 11
896.49932124880002
 21
-311.27254281299997
 31
0.0
  0
LINE
  5
C6
  8
図枠
 10
888.77921028779997
 20
-310.07266281300002
 30
0.0
 11
888.77921028779997
 21
-311.27254281299997
 31
0.0
  0
LINE
  5
C7
  8
図枠
 10
912.27936680169989
 20
-311.27254281299997
 30
0.0
 11
914.79996196879995
 21
-311.27254281299997
 31
0.0
  0
LINE
  5
C8
  8
ﾚｲﾔ_1
 62
     5
 10
931.52453535639995
 20
-189.82918656769999
 30
0.0
 11
931.52453535639995
 21
-203.82918656769999
 31
0.0
  0
ARC
  5
C9
  8
ﾚｲﾔ_1
 62
     5
 10
930.52453535639995
 20
-189.82918656769999
 30
0.0
 40
1.0
 50
0.0
 51
90.0
  0
CIRCLE
  5
CA
  8
ﾚｲﾔ_1
 62
     5
 10
924.52453535639995
 20
-196.82918656769999
 30
0.0
 40
3.399999999999999
  0
CIRCLE
  5
CB
  8
ﾚｲﾔ_1
 62
     5
 10
924.52453535639995
 20
-196.82918656769999
 30
0.0
 40
2.149999999999999
  0
CIRCLE
  5
CC
  8
ﾚｲﾔ_1
 62
     5
 10
908.52453535639995
 20
-196.82918656769999
 30
0.0
 40
2.149999999999999
  0
CIRCLE
  5
CD
  8
ﾚｲﾔ_1
 62
     5
 10
908.52453535639995
 20
-196.82918656769999
 30
0.0
 40
3.399999999999999
  0
INSERT
  5
CE
  8
0
  6
CONTINUOUS
  2
*U38
 10
0.0
 20
0.0
 30
0.0
  0
LINE
  5
CF
  8
ﾚｲﾔ_1
  6
BORDER
 62
     3
 10
898.52453535639995
 20
-196.82918656769999
 30
0.0
 11
934.52453535639995
 21
-196.82918656769999
 31
0.0
  0
LINE
  5
D0
  8
ﾚｲﾔ_1
  6
BORDER
 62
     3
 10
924.52453535639995
 20
-190.82918656769999
 30
0.0
 11
924.52453535639995
 21
-202.82918656769999
 31
0.0
  0
LINE
  5
D1
  8
ﾚｲﾔ_1
 62
     5
 10
902.52453535639995
 20
-188.82918656769999
 30
0.0
 11
930.52453535639995
 21
-188.82918656769999
 31
0.0
  0
ARC
  5
D2
  8
ﾚｲﾔ_1
 62
     5
 10
902.52453535639995
 20
-203.82918656769999
 30
0.0
 40
1.0
 50
180.0
 51
270.0
  0
LINE
  5
D3
  8
ﾚｲﾔ_1
 62
     5
 10
930.52453535639995
 20
-204.82918656769999
 30
0.0
 11
902.52453535639995
 21
-204.82918656769999
 31
0.0
  0
ARC
  5
D4
  8
ﾚｲﾔ_1
 62
     5
 10
930.52453535639995
 20
-203.82918656769999
 30
0.0
 40
1.0
 50
270.0
 51
0.0
  0
INSERT
  5
D5
  8
0
  6
CONTINUOUS
  2
*U39
 10
0.0
 20
0.0
 30
0.0
  0
INSERT
  5
D6
  8
0
  6
CONTINUOUS
  2
*U40
 10
0.0
 20
0.0
 30
0.0
  0
LINE
  5
D7
  8
図枠
 10
914.43880656600015
 20
-292.04860377270001
 30
0.0
 11
914.43880656600015
 21
-296.65614297270002
 31
0.0
  0
LINE
  5
D8
  8
図枠
 10
891.6998012488001
 20
-310.07266281300002
 30
0.0
 11
891.6998012488001
 21
-309.672702813
 31
0.0
  0
LINE
  5
D9
  8
図枠
 10
892.89968124879999
 20
-308.47282281299999
 30
0.0
 11
889.70000124880005
 21
-308.47282281299999
 31
0.0
  0
CIRCLE
  5
DA
  8
図枠
 10
904.56531320289992
 20
-294.35237337270001
 30
0.0
 40
1.151884799999999
  0
LINE
  5
DB
  8
図枠
 10
898.62759324880005
 20
-310.33032525819999
 30
0.0
 11
901.8272732488
 21
-310.33032525819999
 31
0.0
  0
LINE
  5
DC
  8
図枠
 10
911.86502697649996
 20
-309.83268681300001
 30
0.0
 11
914.79996196879995
 21
-309.83268681300001
 31
0.0
  0
CIRCLE
  5
DD
  8
図枠
 10
904.56531320289992
 20
-294.35237337270001
 30
0.0
 40
1.151884799999999
  0
LINE
  5
DE
  8
図枠
 10
889.70000124880005
 20
-312.47242281299998
 30
0.0
 11
891.6998012488001
 21
-312.47242281299998
 31
0.0
  0
LINE
  5
DF
  8
図枠
  6
BORDER
 10
904.56531320289992
 20
-290.8967189727
 30
0.0
 11
904.56531320289992
 21
-297.80802777269997
 31
0.0
  0
LINE
  5
E0
  8
図枠
 10
893.29964124879996
 20
-311.27254281299997
 30
0.0
 11
893.29964124879996
 21
-311.67250281299999
 31
0.0
  0
LINE
  5
E1
  8
ﾚｲﾔ_1
 62
     5
 10
866.75653849539992
 20
-263.14732754289997
 30
0.0
 11
869.25653849539992
 21
-263.14732754289997
 31
0.0
  0
LINE
  5
E2
  8
ﾚｲﾔ_1
 62
     5
 10
866.75653849539992
 20
-261.34732754290002
 30
0.0
 11
866.75653849539992
 21
-263.14732754289997
 31
0.0
  0
LINE
  5
E3
  8
ﾚｲﾔ_1
 62
     5
 10
866.75653849539992
 20
-261.34732754290002
 30
0.0
 11
869.36517203009998
 21
-261.34732754290002
 31
0.0
  0
LINE
  5
E4
  8
ﾚｲﾔ_1
 62
     5
 10
891.50846311469991
 20
-272.81527704799998
 30
0.0
 11
892.31123875519995
 21
-273.35046080090001
 31
0.0
  0
ARC
  5
E5
  8
ﾚｲﾔ_1
 62
     5
 10
890.95376292380001
 20
-273.64732734590001
 30
0.0
 40
1.0
 50
56.309932841799998
 51
90.000000917700007
  0
LINE
  5
E6
  8
ﾚｲﾔ_1
 62
     5
 10
890.95376290779996
 20
-272.64732734590001
 30
0.0
 11
881.00653856779991
 21
-272.64732745679999
 31
0.0
  0
LINE
  5
E7
  8
ﾚｲﾔ_1
 62
     5
 10
869.25653856839995
 20
-274.64732755789998
 30
0.0
 11
892.75653856839995
 21
-274.64732745499998
 31
0.0
  0
LINE
  5
E8
  8
ﾚｲﾔ_1
 62
     5
 10
866.75653849539992
 20
-270.14732783549999
 30
0.0
 11
866.75653849539992
 21
-271.9473278355
 31
0.0
  0
LINE
  5
E9
  8
ﾚｲﾔ_1
 62
     5
 10
866.75653849539992
 20
-271.9473278355
 30
0.0
 11
869.25653849539992
 21
-271.9473278355
 31
0.0
  0
LINE
  5
EA
  8
ﾚｲﾔ_1
 62
     5
 10
866.75653849539992
 20
-270.14732783549999
 30
0.0
 11
869.25653853989991
 21
-270.14732783549999
 31
0.0
  0
LINE
  5
EB
  8
ﾚｲﾔ_1
 62
     5
 10
871.05931422789979
 20
-272.6473273501
 30
0.0
 11
881.00653856779991
 21
-272.64732745679999
 31
0.0
  0
ARC
  5
EC
  8
ﾚｲﾔ_1
 62
     5
 10
871.0593142125
 20
-273.6473273501
 30
0.0
 40
1.0
 50
89.999999118399984
 51
123.6900671942
  0
LINE
  5
ED
  8
ﾚｲﾔ_1
 62
     5
 10
870.50461402109988
 20
-272.81527705249999
 30
0.0
 11
869.70183838089997
 21
-273.350460806
 31
0.0
  0
ARC
  5
EE
  8
ﾚｲﾔ_1
 62
     5
 10
870.25653857229997
 20
-274.18251110350002
 30
0.0
 40
1.0
 50
123.6900671942
 51
179.99999952889999
  0
ARC
  5
EF
  8
ﾚｲﾔ_1
 62
     5
 10
891.75653856429994
 20
-274.18251109879998
 30
0.0
 40
1.0
 50
0.0000005072
 51
56.309932841799998
  0
LINE
  5
F0
  8
ﾚｲﾔ_1
 62
     5
 10
892.75653856429994
 20
-274.1825110899
 30
0.0
 11
892.75653856839995
 21
-274.64732745499998
 31
0.0
  0
DIMENSION
  5
101
  8
寸法線
  2
*D0
 10
941.52453535639995
 20
-204.82918656769999
 30
0.0
 11
941.52453535639995
 21
-196.82918656769999
 31
0.0
 70
   128
  1
<>
 13
931.52453535639995
 23
-204.82918656769999
 33
0.0
 14
931.52453535639995
 24
-188.82918656769999
 34
0.0
 50
90.0
  0
DIMENSION
  5
110
  8
寸法線
  2
*D1
 10
924.52453535639995
 20
-180.82918656769999
 30
0.0
 11
916.52453535639995
 21
-180.82918656769999
 31
0.0
 70
   128
  1
<>
 13
924.52453535639995
 23
-190.82918656769999
 33
0.0
 14
908.52453535639995
 24
-190.82918656769999
 34
0.0
  0
DIMENSION
  5
11F
  8
寸法線
  2
*D2
 10
931.52453535639995
 20
-175.135191819
 30
0.0
 11
916.52453535639995
 21
-175.135191819
 31
0.0
 70
   128
  1
<>
 13
931.52453535639995
 23
-188.82918656769999
 33
0.0
 14
901.52453535639995
 24
-188.82918656769999
 34
0.0
  0
LINE
  5
120
  8
ﾚｲﾔ_1
  6
BORDER
 62
     3
 10
908.52453535639995
 20
-190.82918656769999
 30
0.0
 11
908.52453535639995
 21
-202.82918656769999
 31
0.0
  0
LINE
  5
121
  8
ﾚｲﾔ_1
  6
BORDER
 62
     3
 10
865.29008412039991
 20
-227.00078124999999
 30
0.0
 11
865.29008412039991
 21
-157.00078124999999
 31
0.0
  0
LINE
  5
122
  8
ﾚｲﾔ_1
 10
925.90199788899997
 20
-193.7207147613
 30
0.0
 11
937.73187774269991
 21
-172.30428894280001
 31
0.0
  0
SOLID
  5
123
  8
ﾚｲﾔ_1
 10
925.90199788899997
 20
-193.7207147613
 30
0.0
 11
926.64890086549997
 21
-190.7060328757
 31
0.0
 12
926.96386718630015
 22
-191.79834147310001
 32
0.0
 13
926.96386718630015
 23
-191.79834147310001
 33
0.0
  0
SOLID
  5
124
  8
ﾚｲﾔ_1
 10
925.90199788899997
 20
-193.7207147613
 30
0.0
 11
928.0561757836
 21
-191.4833751523
 31
0.0
 12
926.96386718630015
 22
-191.79834147310001
 32
0.0
 13
926.96386718630015
 23
-191.79834147310001
 33
0.0
  0
LINE
  5
125
  8
ﾚｲﾔ_1
 10
937.73187774269991
 20
-172.30428894280001
 30
0.0
 11
965.08508742629988
 21
-172.30428894280001
 31
0.0
  0
ARC
  5
126
  8
ﾚｲﾔ_1
 62
     5
 10
902.52453535639995
 20
-189.82918656769999
 30
0.0
 40
1.0
 50
90.0
 51
180.0
  0
LINE
  5
127
  8
ﾚｲﾔ_1
 62
     5
 10
901.52453535639995
 20
-189.82918656769999
 30
0.0
 11
901.52453535639995
 21
-203.82918656769999
 31
0.0
  0
LINE
  5
128
  8
ﾚｲﾔ_1
 62
     5
 10
806.10341537279999
 20
-272.6473273213
 30
0.0
 11
796.65619100849995
 21
-272.64732749640001
 31
0.0
  0
LINE
  5
129
  8
ﾚｲﾔ_1
 62
     5
 10
753.20896665710006
 20
-272.64732752769999
 30
0.0
 11
762.65619100849995
 21
-272.64732855919999
 31
0.0
  0
LINE
  5
12A
  8
ﾚｲﾔ_1
 62
     5
 10
768.90619107539987
 20
-270.1473279068
 30
0.0
 11
768.90619108459998
 21
-272.1473279068
 31
0.0
  0
LINE
  5
12B
  8
ﾚｲﾔ_1
 62
     5
 10
790.40619107539987
 20
-270.1473279068
 30
0.0
 11
790.40619108459998
 21
-272.1473279068
 31
0.0
  0
LINE
  5
12C
  8
ﾚｲﾔ_1
 62
     5
 10
790.40619107539987
 20
-270.1473279068
 30
0.0
 11
768.90619107539987
 21
-270.1473279068
 31
0.0
  0
LINE
  5
12D
  8
ﾚｲﾔ_1
 62
     5
 10
790.40619108459998
 20
-272.1473279068
 30
0.0
 11
768.90619108459998
 21
-272.1473279068
 31
0.0
  0
ARC
  5
12E
  8
ﾚｲﾔ_1
 62
     5
 10
806.90619102939991
 20
-274.18251107419991
 30
0.0
 40
1.0
 50
0.0000005072
 51
56.309932841799998
  0
LINE
  5
12F
  8
ﾚｲﾔ_1
 62
     5
 10
807.90619102939991
 20
-274.18251106540009
 30
0.0
 11
807.90619103349991
 21
-274.64732743050001
 31
0.0
  0
LINE
  5
130
  8
ﾚｲﾔ_1
 62
     5
 10
806.65811557970005
 20
-272.81527702339997
 30
0.0
 11
807.46089122019998
 21
-273.3504607763
 31
0.0
  0
ARC
  5
131
  8
ﾚｲﾔ_1
 62
     5
 10
806.10341538880004
 20
-273.6473273213
 30
0.0
 40
1.0
 50
56.309932841799998
 51
90.000000917700007
  0
LINE
  5
132
  8
ﾚｲﾔ_1
 62
     5
 10
751.40619103350002
 20
-274.6473275555
 30
0.0
 11
807.90619103349991
 21
-274.64732743050001
 31
0.0
  0
LINE
  5
133
  8
ﾚｲﾔ_1
 62
     5
 10
751.40619103350002
 20
-274.6473275555
 30
0.0
 11
807.90619103349991
 21
-274.64732743050001
 31
0.0
  0
ARC
  5
134
  8
ﾚｲﾔ_1
 62
     5
 10
752.40619102940002
 20
-274.18251119889999
 30
0.0
 40
1.0
 50
123.6900674117
 51
180.00000050720001
  0
LINE
  5
135
  8
ﾚｲﾔ_1
 62
     5
 10
751.40619102940002
 20
-274.18251120780002
 30
0.0
 11
751.40619103350002
 21
-274.6473275555
 31
0.0
  0
LINE
  5
136
  8
ﾚｲﾔ_1
  6
BORDER
 62
     3
 10
881.00653856259999
 20
-256.14732750640002
 30
0.0
 11
881.00653856940005
 21
-277.64732757209998
 31
0.0
  0
LINE
  5
137
  8
ﾚｲﾔ_1
 62
     5
 10
892.75653848900004
 20
-262.14732745089998
 30
0.0
 11
892.75653856839995
 21
-274.64732745499998
 31
0.0
  0
DIMENSION
  5
146
  8
寸法線
  2
*D3
 10
751.40619103350002
 20
-288.25015748869998
 30
0.0
 11
779.65619103350002
 21
-288.25015748869998
 31
0.0
 70
   128
  1
<>
 13
751.40619103350002
 23
-274.6473275555
 33
0.0
 14
807.90619103349991
 24
-274.64732743050001
 34
0.0
 50
180.0
  0
DIMENSION
  5
155
  8
寸法線
  2
*D4
 10
741.40619103350002
 20
-272.64732743349998
 30
0.0
 11
741.40619103350002
 21
-273.64732749450002
 31
0.0
 70
   128
  1
<>
 13
751.90619121700001
 23
-272.64732743349998
 33
0.0
 14
751.40619103350002
 24
-274.6473275555
 34
0.0
 50
90.0
  0
DIMENSION
  5
164
  8
寸法線
  2
*D5
 10
817.90619103350014
 20
-274.64732743050001
 30
0.0
 11
817.90619103350014
 21
-266.8973275244
 31
0.0
 70
   128
  1
<>
 13
807.90619103349991
 23
-274.64732743050001
 33
0.0
 14
795.65619096499995
 24
-259.14732761840003
 34
0.0
 50
90.0
  0
DIMENSION
  5
173
  8
寸法線
  2
*D6
 10
796.65619096499995
 20
-246.10039062499999
 30
0.0
 11
779.65619096499995
 21
-246.10039062499999
 31
0.0
 70
   128
  1
<>
 13
796.65619096499995
 23
-260.14732761379997
 33
0.0
 14
762.65619096499995
 24
-260.14732868580001
 34
0.0
  0
DIMENSION
  5
182
  8
寸法線
  2
*D7
 10
892.75653846979992
 20
-249.14732745500001
 30
0.0
 11
881.00653846979992
 21
-249.14732745500001
 31
0.0
 70
   128
  1
<>
 13
892.75653846979992
 23
-259.14732745499998
 33
0.0
 14
869.25653846979992
 24
-259.14732755789998
 34
0.0
  0
DIMENSION
  5
191
  8
寸法線
  2
*D8
 10
869.25653846979992
 20
-249.14732755790001
 30
0.0
 11
860.73993509179991
 21
-249.14732755790001
 31
0.0
 70
   128
  1
(3)
 13
869.25653846979992
 23
-259.14732755789998
 33
0.0
 14
866.75653856169993
 24
-261.64732755789998
 34
0.0
  0
ARC
  5
192
  8
ﾚｲﾔ_1
 62
     5
 10
889.75653848899992
 20
-262.14732746990001
 30
0.0
 40
3.0
 50
0.0000003639
 51
90.000000239300007
  0
LINE
  5
193
  8
ﾚｲﾔ_1
 62
     5
 10
872.25653847649994
 20
-259.14732754289997
 30
0.0
 11
889.75653847650005
 21
-259.14732746990001
 31
0.0
  0
ARC
  5
194
  8
ﾚｲﾔ_1
 62
     5
 10
872.25653848900004
 20
-262.14732754289997
 30
0.0
 40
3.0
 50
90.000000239300007
 51
180.0000003639
  0
LINE
  5
195
  8
ﾚｲﾔ_1
 62
     5
 10
754.40619073890002
 20
-172.66224763509999
 30
0.0
 11
804.90619084699995
 21
-172.66224718430001
 31
0.0
  0
ARC
  5
196
  8
ﾚｲﾔ_1
 62
     5
 10
754.40619040479999
 20
-175.66224763509999
 30
0.0
 40
3.0
 50
89.999993618600001
 51
180.00000137489999
  0
ARC
  5
197
  8
ﾚｲﾔ_1
 62
     5
 10
793.65619040479999
 20
-175.66224729800001
 30
0.0
 40
3.0
 50
0.0000013749
 51
90.000000400299996
  0
ARC
  5
198
  8
ﾚｲﾔ_1
 62
     5
 10
765.65619040479987
 20
-175.66224763450001
 30
0.0
 40
3.0
 50
90.000000400299996
 51
180.00000137489999
  0
DIMENSION
  5
1A7
  8
寸法線
  2
*D9
 10
803.91379256649986
 20
-166.95596440520001
 30
0.0
 11
809.49254937569992
 21
-166.95596440520001
 31
0.0
 70
   128
  1
<>
 13
803.91379256649986
 23
-181.53356679169991
 33
0.0
 14
800.41379256649998
 24
-181.53356689669999
 34
0.0
  0
DIMENSION
  5
1B6
  8
寸法線
  2
*D10
 10
818.16199872789991
 20
-188.41224706220001
 30
0.0
 11
818.16199872789991
 21
-184.41224706220001
 31
0.0
 70
   128
  1
<>
 13
802.15619085130004
 23
-188.41224706220001
 33
0.0
 14
802.15619085130004
 24
-180.41224706220001
 34
0.0
 50
90.0
  0
DIMENSION
  5
1C5
  8
寸法線
  2
*D11
 10
802.15619085130004
 20
-160.39844739489999
 30
0.0
 11
779.80651793779987
 21
-160.39844739489999
 31
0.0
 70
   128
  1
<>
 13
802.15619085130004
 23
-178.91224706220001
 33
0.0
 14
757.15619085130004
 24
-178.91224775719999
 34
0.0
  0
LINE
  5
1CC
  8
ﾚｲﾔ_1
 62
     5
 10
869.25653848899992
 20
-262.14732756199999
 30
0.0
 11
869.25653856839995
 21
-274.64732755789998
 31
0.0
  0
LINE
  5
1CD
  8
ﾚｲﾔ_1
  6
BORDER
 62
     3
 10
779.65619105660005
 20
-255.1473276422
 30
0.0
 11
779.65619116179994
 21
-277.64732764220003
 31
0.0
  0
LINE
  5
1CE
  8
ﾚｲﾔ_1
 62
     5
 10
796.65619097199999
 20
-262.14732764220003
 30
0.0
 11
796.65619100849995
 21
-272.64732749640001
 31
0.0
  0
LINE
  5
1CF
  8
ﾚｲﾔ_1
 62
     5
 10
762.65619097199999
 20
-262.14732865740001
 30
0.0
 11
762.65619100849995
 21
-272.64732855919999
 31
0.0
  0
LINE
  5
1D0
  8
ﾚｲﾔ_1
 62
     5
 10
790.40619108459998
 20
-261.1473279068
 30
0.0
 11
768.90619108459998
 21
-261.1473279068
 31
0.0
  0
LINE
  5
1D1
  8
ﾚｲﾔ_1
 62
     5
 10
790.40619108459998
 20
-261.1473279068
 30
0.0
 11
790.40619109380009
 21
-263.1473279068
 31
0.0
  0
LINE
  5
1D2
  8
ﾚｲﾔ_1
 62
     5
 10
768.90619108459998
 20
-261.1473279068
 30
0.0
 11
768.90619109380009
 21
-263.1473279068
 31
0.0
  0
LINE
  5
1D3
  8
ﾚｲﾔ_1
 62
     5
 10
790.40619109380009
 20
-263.1473279068
 30
0.0
 11
768.90619109380009
 21
-263.1473279068
 31
0.0
  0
ARC
  5
1D4
  8
ﾚｲﾔ_1
 62
     5
 10
793.65619097199988
 20
-262.14732765270003
 30
0.0
 40
3.0
 50
0.0000001995
 51
90.000000980500005
  0
LINE
  5
1D5
  8
ﾚｲﾔ_1
 62
     5
 10
793.65619092060001
 20
-259.14732765270003
 30
0.0
 11
765.65619092060001
 21
-259.14732864699999
 31
0.0
  0
ARC
  5
1D6
  8
ﾚｲﾔ_1
 62
     5
 10
765.65619097199988
 20
-262.14732864699999
 30
0.0
 40
3.0
 50
90.000000980500005
 51
180.00000019949999
  0
LINE
  5
1D7
  8
ﾚｲﾔ_1
 62
     5
 10
752.65426634509993
 20
-272.81527723229999
 30
0.0
 11
751.85149083479996
 21
-273.35046090349999
 31
0.0
  0
ARC
  5
1D8
  8
ﾚｲﾔ_1
 62
     5
 10
753.20896653969987
 20
-273.64732752769999
 30
0.0
 40
1.0
 50
89.999993274199994
 51
123.6900674117
  0
ARC
  5
1D9
  8
ﾚｲﾔ_1
 62
     5
 10
757.15619085130004
 20
-186.66224775719999
 30
0.0
 40
1.75
 50
180.00000828579999
 51
359.99999184469999
  0
LINE
  5
1DA
  8
ﾚｲﾔ_1
 62
     5
 10
755.40619085130004
 20
-186.6622480103
 30
0.0
 11
755.40619085130004
 21
-182.162247396
 31
0.0
  0
LINE
  5
1DB
  8
ﾚｲﾔ_1
 62
     5
 10
758.90619085130004
 20
-186.66224800629999
 30
0.0
 11
758.90619085130004
 21
-182.16224750110001
 31
0.0
  0
LINE
  5
1DC
  8
ﾚｲﾔ_1
  6
BORDER
 62
     3
 10
757.15619085130004
 20
-189.91224775719999
 30
0.0
 11
757.15619085130004
 21
-178.91224775719999
 31
0.0
  0
ARC
  5
1DD
  8
ﾚｲﾔ_1
 62
     5
 10
757.15619085130004
 20
-182.16224775719999
 30
0.0
 40
1.75
 50
0.0000083838
 51
179.99998817540001
  0
LINE
  5
1DE
  8
ﾚｲﾔ_1
  6
BORDER
 62
     3
 10
810.90619095899979
 20
-184.41224696809999
 30
0.0
 11
748.4061909589999
 21
-184.41224785130001
 31
0.0
  0
ARC
  5
1DF
  8
ﾚｲﾔ_1
 62
     5
 10
802.15619085130004
 20
-186.66224706220001
 30
0.0
 40
1.75
 50
180.00000815529989
 51
359.99999171420001
  0
LINE
  5
1E0
  8
ﾚｲﾔ_1
 62
     5
 10
803.90619085130004
 20
-186.66224731529999
 30
0.0
 11
803.90619085130004
 21
-182.1622467011
 31
0.0
  0
LINE
  5
1E1
  8
ﾚｲﾔ_1
  6
BORDER
 62
     3
 10
802.15619085130004
 20
-189.91224706220001
 30
0.0
 11
802.15619085130004
 21
-178.91224706220001
 31
0.0
  0
LINE
  5
1E2
  8
ﾚｲﾔ_1
 62
     5
 10
800.40619085130004
 20
-186.66224731130001
 30
0.0
 11
800.40619085130004
 21
-182.16224680619999
 31
0.0
  0
ARC
  5
1E3
  8
ﾚｲﾔ_1
 62
     5
 10
802.15619085130004
 20
-182.16224706220001
 30
0.0
 40
1.75
 50
0.0000118246
 51
179.99999161619999
  0
LINE
  5
1E4
  8
ﾚｲﾔ_1
 62
     5
 10
768.90619114490005
 20
-198.1622475641
 30
0.0
 11
790.40619114490005
 21
-198.16224710290001
 31
0.0
  0
LINE
  5
1E5
  8
ﾚｲﾔ_1
 62
     5
 10
790.40619113299999
 20
-196.16224731630001
 30
0.0
 11
790.40619114490005
 21
-198.16224710290001
 31
0.0
  0
LINE
  5
1E6
  8
ﾚｲﾔ_1
 62
     5
 10
768.90619113299999
 20
-196.16224762729999
 30
0.0
 11
768.90619114490005
 21
-198.1622475641
 31
0.0
  0
ARC
  5
1E7
  8
ﾚｲﾔ_1
 62
     5
 10
804.90619105479993
 20
-193.16224718430001
 30
0.0
 40
3.0
 50
269.9999943853
 51
0.0000013749
  0
LINE
  5
1E8
  8
ﾚｲﾔ_1
 62
     5
 10
754.40619148929977
 20
-196.16224763509999
 30
0.0
 11
804.90619076079986
 21
-196.16224718430001
 31
0.0
  0
ARC
  5
1E9
  8
ﾚｲﾔ_1
 62
     5
 10
754.40619105479993
 20
-193.16224763509999
 30
0.0
 40
3.0
 50
180.00000137489999
 51
270.00000829689998
  0
ARC
  5
1EA
  8
ﾚｲﾔ_1
 62
     5
 10
793.65619105479993
 20
-193.16224729800001
 30
0.0
 40
3.0
 50
270.0000004003
 51
0.0000013749
  0
ARC
  5
1EB
  8
ﾚｲﾔ_1
 62
     5
 10
765.65619105479993
 20
-193.16224763450001
 30
0.0
 40
3.0
 50
180.00000137489999
 51
270.0000004003
  0
LINE
  5
1EC
  8
ﾚｲﾔ_1
 62
     5
 10
762.65619040479987
 20
-175.66224770650001
 30
0.0
 11
762.65619105479993
 21
-193.16224770650001
 31
0.0
  0
LINE
  5
1ED
  8
ﾚｲﾔ_1
 62
     5
 10
796.65619040479999
 20
-175.66224722600001
 30
0.0
 11
796.65619105479993
 21
-193.16224722599989
 31
0.0
  0
LINE
  5
1EE
  8
ﾚｲﾔ_1
 62
     5
 10
751.40619105479993
 20
-193.16224770709999
 30
0.0
 11
751.40619040479987
 21
-175.66224770709999
 31
0.0
  0
LINE
  5
1EF
  8
ﾚｲﾔ_1
 62
     5
 10
807.90619105479993
 20
-193.16224711230001
 30
0.0
 11
807.90619040479999
 21
-175.66224711230001
 31
0.0
  0
LINE
  5
1F0
  8
ﾚｲﾔ_1
  6
BORDER
 62
     3
 10
779.65619035919985
 20
-169.91224786379999
 30
0.0
 11
779.65619113410003
 21
-201.16224786379999
 31
0.0
  0
ARC
  5
1F1
  8
ﾚｲﾔ_1
 62
     5
 10
804.90619040479987
 20
-175.66224718430001
 30
0.0
 40
3.0
 50
0.0000013749
 51
89.999991553799987
  0
ENDSEC
  0
EOF
