  0
SECTION
  2
HEADER
  9
$ACADVER
  1
AC1015
  9
$ACADMAINTVER
 70
               6
  9
$DWGCODEPAGE
  3
ANSI_932
  9
$INSBASE
 10
0.0
 20
0.0
 30
0.0
  9
$EXTMIN
 10
650.96216216216249
 20
-117.42319819819797
 30
0.0
  9
$EXTMAX
 10
1023.0378378378382
 20
-324.05563063063039
 30
0.0
  9
$LIMMIN
 10
0.0
 20
0.0
  9
$LIMMAX
 10
0.0
 20
0.0
  9
$ORTHOMODE
 70
               0
  9
$REGENMODE
 70
               1
  9
$FILLMODE
 70
               1
  9
$QTEXTMODE
 70
               0
  9
$MIRRTEXT
 70
               1
  9
$LTSCALE
 40
1.0
  9
$ATTMODE
 70
               1
  9
$TEXTSIZE
 40
0.2
  9
$TRACEWID
 40
0.05
  9
$TEXTSTYLE
  7
Standard
  9
$CLAYER
  8
0
  9
$CELTYPE
  6
Continuous
  9
$CECOLOR
 62
             256
  9
$CELTSCALE
 40
1.0
  9
$DISPSILH
 70
               0
  9
$DIMSCALE
 40
1.0
  9
$DIMASZ
 40
3.0
  9
$DIMEXO
 40
1.0
  9
$DIMDLI
 40
0.38
  9
$DIMRND
 40
0.0
  9
$DIMDLE
 40
0.0
  9
$DIMEXE
 40
0.5
  9
$DIMTP
 40
0.0
  9
$DIMTM
 40
0.0
  9
$DIMTXT
 40
3.5277777777777777
  9
$DIMCEN
 40
0.09
  9
$DIMTSZ
 40
0.0
  9
$DIMTOL
 70
               0
  9
$DIMLIM
 70
               0
  9
$DIMTIH
 70
               0
  9
$DIMTOH
 70
               0
  9
$DIMSE1
 70
               0
  9
$DIMSE2
 70
               0
  9
$DIMTAD
 70
               1
  9
$DIMZIN
 70
               0
  9
$DIMBLK
  1

  9
$DIMASO
 70
               1
  9
$DIMSHO
 70
               1
  9
$DIMPOST
  1

  9
$DIMAPOST
  1

  9
$DIMALT
 70
               0
  9
$DIMALTD
 70
               3
  9
$DIMALTF
 40
25.399999999999999
  9
$DIMLFAC
 40
1.0
  9
$DIMTOFL
 70
               0
  9
$DIMTVP
 40
0.0
  9
$DIMTIX
 70
               0
  9
$DIMSOXD
 70
               0
  9
$DIMSAH
 70
               0
  9
$DIMBLK1
  1

  9
$DIMBLK2
  1

  9
$DIMSTYLE
  2
Standard
  9
$DIMCLRD
 70
               7
  9
$DIMCLRE
 70
               7
  9
$DIMCLRT
 70
               7
  9
$DIMTFAC
 40
1.0
  9
$DIMGAP
 40
1.0
  9
$DIMJUST
 70
               0
  9
$DIMSD1
 70
               0
  9
$DIMSD2
 70
               0
  9
$DIMTOLJ
 70
               1
  9
$DIMTZIN
 70
               0
  9
$DIMALTZ
 70
               0
  9
$DIMALTTZ
 70
               0
  9
$DIMUPT
 70
               0
  9
$DIMDEC
 70
               3
  9
$DIMTDEC
 70
               4
  9
$DIMALTU
 70
               2
  9
$DIMALTTD
 70
               2
  9
$DIMTXSTY
  7
Standard
  9
$DIMAUNIT
 70
               0
  9
$DIMADEC
 70
               0
  9
$DIMALTRND
 40
0.0
  9
$DIMAZIN
 70
               0
  9
$DIMDSEP
 70
               0
  9
$DIMATFIT
 70
               3
  9
$DIMFRAC
 70
               0
  9
$DIMLDRBLK
  1

  9
$DIMLUNIT
 70
               2
  9
$DIMLWD
 70
               0
  9
$DIMLWE
 70
               0
  9
$DIMTMOVE
 70
               0
  9
$LUNITS
 70
               2
  9
$LUPREC
 70
               4
  9
$SKETCHINC
 40
0.1
  9
$FILLETRAD
 40
0.0
  9
$AUNITS
 70
               0
  9
$AUPREC
 70
               0
  9
$MENU
  1
acad
  9
$ELEVATION
 40
0.0
  9
$PELEVATION
 40
0.0
  9
$THICKNESS
 40
0.0
  9
$LIMCHECK
 70
               0
  9
$CHAMFERA
 40
0.0
  9
$CHAMFERB
 40
0.0
  9
$CHAMFERC
 40
0.0
  9
$CHAMFERD
 40
0.0
  9
$SKPOLY
 70
               0
  9
$TDCREATE
 40
2455847.747581019
  9
$TDUCREATE
 40
0.000000000
  9
$TDUPDATE
 40
2455847.747581019
  9
$TDUUPDATE
 40
0.000000000
  9
$TDINDWG
 40
0.0000000000
  9
$TDUSRTIMER
 40
0.0000000000
  9
$USRTIMER
 70
               1
  9
$ANGBASE
 50
0.0
  9
$ANGDIR
 70
               0
  9
$PDMODE
 70
               0
  9
$PDSIZE
 40
0.0
  9
$PLINEWID
 40
0.0
  9
$SPLFRAME
 70
               0
  9
$SPLINETYPE
 70
               6
  9
$SPLINESEGS
 70
               8
  9
$HANDSEED
  5
1DF
  9
$SURFTAB1
 70
               6
  9
$SURFTAB2
 70
               6
  9
$SURFTYPE
 70
               6
  9
$SURFU
 70
               6
  9
$SURFV
 70
               6
  9
$UCSBASE
  2

  9
$UCSNAME
  2

  9
$UCSORG
 10
0.0
 20
0.0
 30
0.0
  9
$UCSXDIR
 10
1.0
 20
0.0
 30
0.0
  9
$UCSYDIR
 10
0.0
 20
1.0
 30
0.0
  9
$UCSORTHOREF
  2

  9
$UCSORTHOVIEW
 70
               0
  9
$UCSORGTOP
 10
0.0
 20
0.0
 30
0.0
  9
$UCSORGBOTTOM
 10
0.0
 20
0.0
 30
0.0
  9
$UCSORGLEFT
 10
0.0
 20
0.0
 30
0.0
  9
$UCSORGRIGHT
 10
0.0
 20
0.0
 30
0.0
  9
$UCSORGFRONT
 10
0.0
 20
0.0
 30
0.0
  9
$UCSORGBACK
 10
0.0
 20
0.0
 30
0.0
  9
$PUCSBASE
  2

  9
$PUCSNAME
  2

  9
$PUCSORG
 10
0.0
 20
0.0
 30
0.0
  9
$PUCSXDIR
 10
1.0
 20
0.0
 30
0.0
  9
$PUCSYDIR
 10
0.0
 20
1.0
 30
0.0
  9
$PUCSORTHOREF
  2

  9
$PUCSORTHOVIEW
 70
               0
  9
$PUCSORGTOP
 10
0.0
 20
0.0
 30
0.0
  9
$PUCSORGBOTTOM
 10
0.0
 20
0.0
 30
0.0
  9
$PUCSORGLEFT
 10
0.0
 20
0.0
 30
0.0
  9
$PUCSORGRIGHT
 10
0.0
 20
0.0
 30
0.0
  9
$PUCSORGFRONT
 10
0.0
 20
0.0
 30
0.0
  9
$PUCSORGBACK
 10
0.0
 20
0.0
 30
0.0
  9
$USERI1
 70
               0
  9
$USERI2
 70
               0
  9
$USERI3
 70
               0
  9
$USERI4
 70
               0
  9
$USERI5
 70
               0
  9
$USERR1
 40
0.0
  9
$USERR2
 40
0.0
  9
$USERR3
 40
0.0
  9
$USERR4
 40
0.0
  9
$USERR5
 40
0.0
  9
$WORLDVIEW
 70
               1
  9
$SHADEDGE
 70
               3
  9
$SHADEDIF
 70
              70
  9
$TILEMODE
 70
               1
  9
$MAXACTVP
 70
              16
  9
$PINSBASE
 10
0.0
 20
0.0
 30
0.0
  9
$PLIMCHECK
 70
               0
  9
$PEXTMIN
 10
1.0000000000000000E+20
 20
1.0000000000000000E+20
 30
1.0000000000000000E+20
  9
$PEXTMAX
 10
-1.0000000000000000E+20
 20
-1.0000000000000000E+20
 30
-1.0000000000000000E+20
  9
$PLIMMIN
 10
0.0
 20
0.0
  9
$PLIMMAX
 10
12.0
 20
9.0
  9
$UNITMODE
 70
               0
  9
$VISRETAIN
 70
               0
  9
$PLINEGEN
 70
               1
  9
$PSLTSCALE
 70
               0
  9
$TREEDEPTH
 70
            3020
  9
$CMLSTYLE
  2
Standard
  9
$CMLJUST
 70
               0
  9
$CMLSCALE
 40
1.0
  9
$PROXYGRAPHICS
 70
               0
  9
$MEASUREMENT
 70
               0
  9
$CELWEIGHT
370
               0
  9
$ENDCAPS
280
               0
  9
$JOINSTYLE
280
               0
  9
$LWDISPLAY
290
               0
  9
$INSUNITS
 70
               0
  9
$HYPERLINKBASE
  1

  9
$STYLESHEET
  1

  9
$XEDIT
290
               1
  9
$CEPSNTYPE
380
               0
  9
$PSTYLEMODE
290
               1
  9
$FINGERPRINTGUID
  2

  9
$VERSIONGUID
  2

  9
$EXTNAMES
290
               1
  9
$PSVPSCALE
 40
0.0
  0
ENDSEC
  0
SECTION
  2
CLASSES
  0
CLASS
  1
LWPOLYLINE
  2
AcDbPolyline
  3
AutoCAD 2000
 90
        0
280
               0
281
               1
  0
CLASS
  1
IMAGE
  2
AcDbRasterImage
  3
ISM
 90
      127
280
               0
281
               1
  0
CLASS
  1
OLE2FRAME
  2
AcDbOle2Frame
  3
AutoCAD 2000
 90
        0
280
               0
281
               1
  0
CLASS
  1
HATCH
  2
AcDbHatch
  3
AutoCAD 2000
 90
        0
280
               0
281
               1
  0
CLASS
  1
DICTIONARYVAR
  2
AcDbDictionaryVar
  3
AutoCAD 2000
 90
        0
280
               0
281
               0
  0
CLASS
  1
RASTERVARIABLES
  2
AcDbRasterVariables
  3
ISM
 90
        0
280
               0
281
               0
  0
CLASS
  1
IMAGEDEF
  2
AcDbRasterImageDef
  3
ISM
 90
        0
280
               0
281
               0
  0
CLASS
  1
IMAGEDEF_REACTOR
  2
AcDbRasterImageDefReactor
  3
ISM
 90
        1
280
               0
281
               0
  0
CLASS
  1
IDBUFFER
  2
AcDbIdBuffer
  3
AutoCAD 2000
 90
        0
280
               0
281
               0
  0
CLASS
  1
SPATIAL_FILTER
  2
AcDbSpatialFilter
  3
AutoCAD 2000
 90
        0
280
               0
281
               0
  0
CLASS
  1
XRECORD
  2
AcDbXrecord
  3
AutoCAD 2000
 90
        0
280
               0
281
               0
  0
CLASS
  1
SORTENTSTABLE
  2
AcDbSortentsTable
  3
AutoCAD 2000
 90
        0
280
               0
281
               0
  0
CLASS
  1
LAYER_INDEX
  2
AcDbLayerIndex
  3
AutoCAD 2000
 90
        0
280
               0
281
               0
  0
CLASS
  1
SPATIAL_INDEX
  2
AcDbSpatialIndex
  3
AutoCAD 2000
 90
        0
280
               0
281
               0
  0
CLASS
  1
OBJECT_PTR
  2
CAseDLPNTableRecord
  3
"ASE-LPNTableRecord"
 90
        1
280
               0
281
               0
  0
CLASS
  1
LAYOUT
  2
AcDbLayout
  3
AutoCAD 2000
 90
        0
280
               0
281
               0
  0
CLASS
  1
PLOTSETTINGS
  2
AcDbPlotSettings
  3
AutoCAD 2000
 90
        0
280
               0
281
               0
  0
CLASS
  1
ACDBDICTIONARYWDFLT
  2
AcDbDictionaryWithDefault
  3
AutoCAD 2000
 90
        0
280
               0
281
               0
  0
CLASS
  1
ACDBPLACEHOLDER
  2
AcDbPlaceHolder
  3
AutoCAD 2000
 90
        0
280
               0
281
               0
  0
CLASS
  1
VBA_PROJECT
  2
AcDbVbaProject
  3
acadvba
 90
        0
280
               0
281
               0
  0
CLASS
  1
WIPEOUT
  2
AcDbWipeout
  3
WipeOut|AutoCAD Express Tool|expresstools@autodesk.com
 90
      127
280
               0
281
               1
  0
CLASS
  1
WIPEOUTVARIABLES
  2
AcDbWipeoutVariables
  3
WipeOut|AutoCAD Express Tool|expresstools@autodesk.com
 90
        0
280
               0
281
               0
  0
CLASS
  1
RTEXT
  2
RText
  3
RText|AutoCAD Express Tool|expresstools@autodesk.com
 90
        0
280
               0
281
               1
  0
CLASS
  1
ARCALIGNEDTEXT
  2
AcDbArcAlignedText
  3
ATEXT|AutoCAD Express Tool|expresstools@autodesk.com
 90
        0
280
               0
281
               1
  0
ENDSEC
  0
SECTION
  2
TABLES
  0
TABLE
  2
VPORT
  5
7
100
AcDbSymbolTable
 70
               1
  0
VPORT
  5
15
100
AcDbSymbolTableRecord
100
AcDbViewportTableRecord
  2
*ACTIVE
 70
               0
 10
0.0
 20
0.0
 11
1.0
 21
1.0
 12
6.5912879999999996
 22
4.5791839999999997
 13
0.0
 23
0.0
 14
1.0
 24
1.0
 15
0.0
 25
0.0
 16
0.0
 26
0.0
 36
1.0
 17
0.0
 27
0.0
 37
0.0
 40
9.1583690000000004
 41
0.688564
 42
50.0
 43
0.0
 44
0.0
 50
0.0
 51
0.0
 71
               0
 72
             100
 73
               1
 74
               1
 75
               0
 76
               0
 77
               0
 78
               0
281
               0
 65
               0
110
0.0
120
0.0
130
0.0
111
1.0
121
0.0
131
0.0
112
0.0
122
1.0
132
0.0
345
0
346
0
 79
               0
146
0.0
  0
ENDTAB
  0
TABLE
  2
LTYPE
  5
4
100
AcDbSymbolTable
 70
              13
  0
LTYPE
  5
11
100
AcDbSymbolTableRecord
100
AcDbLinetypeTableRecord
  2
ByBlock
 70
              64
  3

 72
              65
 73
               0
 40
0.0
  0
LTYPE
  5
12
100
AcDbSymbolTableRecord
100
AcDbLinetypeTableRecord
  2
ByLayer
 70
              64
  3

 72
              65
 73
               0
 40
0.0
  0
LTYPE
  5
13
100
AcDbSymbolTableRecord
100
AcDbLinetypeTableRecord
  2
Continuous
 70
              64
  3
Solid line
 72
              65
 73
               0
 40
0.0
  0
LTYPE
  5
24
100
AcDbSymbolTableRecord
100
AcDbLinetypeTableRecord
  2
DOT
 70
              64
  3

 72
              65
 73
               2
 40
1.0
 49
0.0
 74
               0
 49
-1.0
 74
               0
  0
LTYPE
  5
25
100
AcDbSymbolTableRecord
100
AcDbLinetypeTableRecord
  2
DASHEDX2
 70
              64
  3

 72
              65
 73
               2
 40
4.0
 49
3.0
 74
               0
 49
-1.0
 74
               0
  0
LTYPE
  5
26
100
AcDbSymbolTableRecord
100
AcDbLinetypeTableRecord
  2
DASHED
 70
              64
  3

 72
              65
 73
               2
 40
3.0
 49
2.0
 74
               0
 49
-1.0
 74
               0
  0
LTYPE
  5
27
100
AcDbSymbolTableRecord
100
AcDbLinetypeTableRecord
  2
DASHED2
 70
              64
  3

 72
              65
 73
               2
 40
2.0
 49
1.0
 74
               0
 49
-1.0
 74
               0
  0
LTYPE
  5
28
100
AcDbSymbolTableRecord
100
AcDbLinetypeTableRecord
  2
CENTERX2
 70
              64
  3

 72
              65
 73
               4
 40
43.0
 49
40.0
 74
               0
 49
-1.0
 74
               0
 49
1.0
 74
               0
 49
-1.0
 74
               0
  0
LTYPE
  5
29
100
AcDbSymbolTableRecord
100
AcDbLinetypeTableRecord
  2
CENTER
 70
              64
  3

 72
              65
 73
               4
 40
33.0
 49
30.0
 74
               0
 49
-1.0
 74
               0
 49
1.0
 74
               0
 49
-1.0
 74
               0
  0
LTYPE
  5
2A
100
AcDbSymbolTableRecord
100
AcDbLinetypeTableRecord
  2
CENTER2
 70
              64
  3

 72
              65
 73
               4
 40
23.0
 49
20.0
 74
               0
 49
-1.0
 74
               0
 49
1.0
 74
               0
 49
-1.0
 74
               0
  0
LTYPE
  5
2B
100
AcDbSymbolTableRecord
100
AcDbLinetypeTableRecord
  2
PHANTOMX2
 70
              64
  3

 72
              65
 73
               6
 40
45.0
 49
40.0
 74
               0
 49
-1.0
 74
               0
 49
1.0
 74
               0
 49
-1.0
 74
               0
 49
1.0
 74
               0
 49
-1.0
 74
               0
  0
LTYPE
  5
2C
100
AcDbSymbolTableRecord
100
AcDbLinetypeTableRecord
  2
PHANTOM
 70
              64
  3

 72
              65
 73
               6
 40
35.0
 49
30.0
 74
               0
 49
-1.0
 74
               0
 49
1.0
 74
               0
 49
-1.0
 74
               0
 49
1.0
 74
               0
 49
-1.0
 74
               0
  0
LTYPE
  5
2D
100
AcDbSymbolTableRecord
100
AcDbLinetypeTableRecord
  2
PHANTOM2
 70
              64
  3

 72
              65
 73
               6
 40
25.0
 49
20.0
 74
               0
 49
-1.0
 74
               0
 49
1.0
 74
               0
 49
-1.0
 74
               0
 49
1.0
 74
               0
 49
-1.0
 74
               0
  0
ENDTAB
  0
TABLE
  2
LAYER
  5
2
100
AcDbSymbolTable
 70
              11
  0
LAYER
  5
14
100
AcDbSymbolTableRecord
100
AcDbLayerTableRecord
  2
0
 70
               0
 62
               7
  6
Continuous
290
               1
370
              -3
390
1D
  0
LAYER
  5
2E
100
AcDbSymbolTableRecord
100
AcDbLayerTableRecord
  2
DEFPOINTS
 70
               0
 62
               7
  6
Continuous
290
               0
370
              -3
390
1D
  0
LAYER
  5
2F
100
AcDbSymbolTableRecord
100
AcDbLayerTableRecord
  2
____1
 70
               0
 62
               7
  6
Continuous
290
               1
370
              -3
390
1D
  0
LAYER
  5
30
100
AcDbSymbolTableRecord
100
AcDbLayerTableRecord
  2
______
 70
               0
 62
               7
  6
Continuous
290
               1
370
              -3
390
1D
  0
LAYER
  5
31
100
AcDbSymbolTableRecord
100
AcDbLayerTableRecord
  2
寸法線_1
 70
               0
 62
               7
  6
Continuous
290
               1
370
              -3
390
1D
  0
LAYER
  5
32
100
AcDbSymbolTableRecord
100
AcDbLayerTableRecord
  2
CONSTRUCTION
 70
               0
 62
               7
  6
Continuous
290
               1
370
              -3
390
1D
  0
LAYER
  5
33
100
AcDbSymbolTableRecord
100
AcDbLayerTableRecord
  2
DIMENSION
 70
               0
 62
               7
  6
Continuous
290
               1
370
              -3
390
1D
  0
LAYER
  5
34
100
AcDbSymbolTableRecord
100
AcDbLayerTableRecord
  2
FORMAT
 70
               0
 62
               7
  6
Continuous
290
               1
370
              -3
390
1D
  0
LAYER
  5
35
100
AcDbSymbolTableRecord
100
AcDbLayerTableRecord
  2
____2
 70
               0
 62
               5
  6
Continuous
290
               1
370
              -3
390
1D
  0
LAYER
  5
36
100
AcDbSymbolTableRecord
100
AcDbLayerTableRecord
  2
0_1
 70
               0
 62
               5
  6
Continuous
290
               1
370
              -3
390
1D
  0
LAYER
  5
37
100
AcDbSymbolTableRecord
100
AcDbLayerTableRecord
  2
DEFPOINTS_1
 70
               0
 62
               5
  6
Continuous
290
               1
370
              -3
390
1D
  0
ENDTAB
  0
TABLE
  2
STYLE
  5
3
100
AcDbSymbolTable
 70
               2
  0
STYLE
  5
17
100
AcDbSymbolTableRecord
100
AcDbTextStyleTableRecord
  2
Standard
 70
               0
 40
0.0
 41
1.0
 50
0.0
 71
               0
 42
0.35
  3
txt
  4

  0
STYLE
  5
39
100
AcDbSymbolTableRecord
100
AcDbTextStyleTableRecord
  2
Style1
 70
               0
 40
0.0
 41
1.0
 50
0.0
 71
               0
 42
0.35
  3
ＭＳ ゴシック
  4

  0
ENDTAB
  0
TABLE
  2
VIEW
  5
5
100
AcDbSymbolTable
 70
               0
  0
ENDTAB
  0
TABLE
  2
UCS
  5
6
100
AcDbSymbolTable
 70
               0
  0
ENDTAB
  0
TABLE
  2
APPID
  5
8
100
AcDbSymbolTable
 70
               1
  0
APPID
  5
16
100
AcDbSymbolTableRecord
100
AcDbRegAppTableRecord
  2
ACAD
 70
               0
  0
ENDTAB
  0
TABLE
  2
DIMSTYLE
  5
9
100
AcDbSymbolTable
 70
               2
100
AcDbDimStyleTable
 71
               0
  0
DIMSTYLE
105
18
100
AcDbSymbolTableRecord
100
AcDbDimStyleTableRecord
  2
Standard
 70
               0
  3

  4

 40
1.0
 41
3.0
 42
1.0
 43
0.38
 44
0.5
 45
0.0
 46
0.0
 47
0.0
 48
0.0
 71
               0
 72
               0
 73
               0
 74
               0
 75
               0
 76
               0
 77
               1
 78
               0
 79
               0
140
3.5277777777777777
141
0.09
142
0.0
143
25.399999999999999
144
1.0
145
0.0
146
1.0
147
1.0
148
0.0
170
               0
171
               3
172
               0
173
               0
174
               0
175
               0
176
               7
177
               7
178
               7
179
               0
271
               3
272
               4
273
               2
274
               2
275
               0
276
               0
277
               2
278
              46
279
               0
280
               0
281
               0
282
               0
283
               1
284
               0
285
               0
286
               0
288
               0
289
               0
340
17
341
0
342
0
343
0
344
0
371
              -2
372
              -2
  0
DIMSTYLE
105
6E
100
AcDbSymbolTableRecord
100
AcDbDimStyleTableRecord
  2
DS1
 70
               0
  3

  4

 40
1.0
 41
3.0
 42
1.0
 43
0.38
 44
0.5
 45
0.0
 46
0.0
 47
0.0
 48
0.0
 71
               0
 72
               0
 73
               0
 74
               0
 75
               0
 76
               0
 77
               1
 78
               8
 79
               0
140
3.5277776718139648
141
0.09
142
0.0
143
25.399999999999999
144
1.0
145
0.0
146
1.0
147
1.0
148
0.0
170
               0
171
               3
172
               0
173
               0
174
               0
175
               0
176
               7
177
               7
178
               7
179
               0
271
               3
272
               4
273
               2
274
               2
275
               0
276
               0
277
               2
278
              46
279
               0
280
               0
281
               0
282
               0
283
               1
284
               0
285
               0
286
               0
288
               0
289
               3
340
17
341
0
342
0
343
0
344
0
371
              -2
372
              -2
  0
ENDTAB
  0
TABLE
  2
BLOCK_RECORD
  5
1
100
AcDbSymbolTable
 70
              13
  0
BLOCK_RECORD
  5
A
100
AcDbSymbolTableRecord
100
AcDbBlockTableRecord
  2
*MODEL_SPACE
340
20
  0
BLOCK_RECORD
  5
B
100
AcDbSymbolTableRecord
100
AcDbBlockTableRecord
  2
*PAPER_SPACE
340
21
  0
BLOCK_RECORD
  5
4B
100
AcDbSymbolTableRecord
100
AcDbBlockTableRecord
  2
C0
340
0
102
{BLKREFS
331
52
102
}
  0
BLOCK_RECORD
  5
55
100
AcDbSymbolTableRecord
100
AcDbBlockTableRecord
  2
C1
340
0
102
{BLKREFS
331
5C
102
}
  0
BLOCK_RECORD
  5
61
100
AcDbSymbolTableRecord
100
AcDbBlockTableRecord
  2
*D2
340
0
  0
BLOCK_RECORD
  5
6F
100
AcDbSymbolTableRecord
100
AcDbBlockTableRecord
  2
*D3
340
0
  0
BLOCK_RECORD
  5
8E
100
AcDbSymbolTableRecord
100
AcDbBlockTableRecord
  2
*D4
340
0
  0
BLOCK_RECORD
  5
124
100
AcDbSymbolTableRecord
100
AcDbBlockTableRecord
  2
*D5
340
0
  0
BLOCK_RECORD
  5
134
100
AcDbSymbolTableRecord
100
AcDbBlockTableRecord
  2
*D6
340
0
  0
BLOCK_RECORD
  5
15E
100
AcDbSymbolTableRecord
100
AcDbBlockTableRecord
  2
*D7
340
0
  0
BLOCK_RECORD
  5
170
100
AcDbSymbolTableRecord
100
AcDbBlockTableRecord
  2
*D8
340
0
  0
BLOCK_RECORD
  5
19B
100
AcDbSymbolTableRecord
100
AcDbBlockTableRecord
  2
*D9
340
0
  0
BLOCK_RECORD
  5
1AA
100
AcDbSymbolTableRecord
100
AcDbBlockTableRecord
  2
*D10
340
0
  0
BLOCK_RECORD
  5
1B7
100
AcDbSymbolTableRecord
100
AcDbBlockTableRecord
  2
*D11
340
0
  0
BLOCK_RECORD
  5
1D2
100
AcDbSymbolTableRecord
100
AcDbBlockTableRecord
  2
*D12
340
0
  0
ENDTAB
  0
ENDSEC
  0
SECTION
  2
BLOCKS
  0
BLOCK
  5
D
100
AcDbEntity
  8
0
390
0
100
AcDbBlockBegin
  2
*MODEL_SPACE
 70
               0
 10
0.0
 20
0.0
 30
0.0
  3
*MODEL_SPACE
  1

  0
ENDBLK
  5
E
100
AcDbEntity
  8
0
390
0
100
AcDbBlockEnd
  0
BLOCK
  5
F
100
AcDbEntity
 67
               1
  8
0
390
0
100
AcDbBlockBegin
  2
*PAPER_SPACE
 70
               0
 10
0.0
 20
0.0
 30
0.0
  3
*PAPER_SPACE
  1

  0
ENDBLK
  5
10
100
AcDbEntity
 67
               1
  8
0
390
0
100
AcDbBlockEnd
  0
BLOCK
  5
4C
100
AcDbEntity
  8
0
390
0
100
AcDbBlockBegin
  2
C0
 70
              64
 10
0.0
 20
0.0
 30
0.0
  3
C0
  1

  0
LINE
  5
4D
100
AcDbEntity
  8
____1
370
              18
390
0
  6
Continuous
 62
               5
100
AcDbLine
 10
886.64468822281583
 20
-135.80349268562406
 30
0.0
 11
891.59468822281565
 21
-135.80349268562406
 31
0.0
  0
MTEXT
  5
4E
100
AcDbEntity
  8
____1
370
               5
390
0
  6
Continuous
 62
               7
100
AcDbMText
 10
887.53694519802571
 20
-132.75367669580771
 30
0.0
 40
2.9266439437866216
 41
3.1654860495798762
 71
               1
 72
               1
  1
1
  7
Style1
 73
               1
 44
1.0
  0
LINE
  5
4F
100
AcDbEntity
  8
____1
370
              18
390
0
  6
Continuous
 62
               5
100
AcDbLine
 10
889.11968822281574
 20
-131.51666693689106
 30
0.0
 11
886.64468822281583
 21
-135.80349268562406
 31
0.0
  0
LINE
  5
50
100
AcDbEntity
  8
____1
370
              18
390
0
  6
Continuous
 62
               5
100
AcDbLine
 10
889.11968822281574
 20
-131.51666693689106
 30
0.0
 11
891.59468822281565
 21
-135.80349268562406
 31
0.0
  0
ENDBLK
  5
51
100
AcDbEntity
  8
0
390
0
100
AcDbBlockEnd
  0
BLOCK
  5
56
100
AcDbEntity
  8
0
390
0
100
AcDbBlockBegin
  2
C1
 70
              64
 10
0.0
 20
0.0
 30
0.0
  3
C1
  1

  0
LINE
  5
57
100
AcDbEntity
  8
____1
370
              18
390
0
  6
Continuous
 62
               5
100
AcDbLine
 10
966.40337935671346
 20
-188.00026957575906
 30
0.0
 11
971.35337935671328
 21
-188.00026957575906
 31
0.0
  0
MTEXT
  5
58
100
AcDbEntity
  8
____1
370
               5
390
0
  6
Continuous
 62
               7
100
AcDbMText
 10
967.29563633192333
 20
-184.95045358594271
 30
0.0
 40
2.9266439437866216
 41
3.1654860495798762
 71
               1
 72
               1
  1
1
  7
Style1
 73
               1
 44
1.0
  0
LINE
  5
59
100
AcDbEntity
  8
____1
370
              18
390
0
  6
Continuous
 62
               5
100
AcDbLine
 10
968.87837935671337
 20
-183.71344382702605
 30
0.0
 11
966.40337935671346
 21
-188.00026957575906
 31
0.0
  0
LINE
  5
5A
100
AcDbEntity
  8
____1
370
              18
390
0
  6
Continuous
 62
               5
100
AcDbLine
 10
968.87837935671337
 20
-183.71344382702605
 30
0.0
 11
971.35337935671328
 21
-188.00026957575906
 31
0.0
  0
ENDBLK
  5
5B
100
AcDbEntity
  8
0
390
0
100
AcDbBlockEnd
  0
BLOCK
  5
62
100
AcDbEntity
  8
0
390
0
100
AcDbBlockBegin
  2
*D2
 70
              65
 10
0.0
 20
0.0
 30
0.0
  3
*D2
  1

  0
LINE
  5
63
100
AcDbEntity
  8
____1
370
               5
390
0
  6
Continuous
 62
               7
100
AcDbLine
 10
935.01439948477014
 20
-180.55816626806541
 30
0.0
 11
935.01439948477014
 21
-171.05816626806541
 31
0.0
  0
LINE
  5
64
100
AcDbEntity
  8
____1
370
               5
390
0
  6
Continuous
 62
               7
100
AcDbLine
 10
912.51439948477014
 20
-180.55816626806541
 30
0.0
 11
912.51439948477014
 21
-171.05816626806541
 31
0.0
  0
SOLID
  5
65
100
AcDbEntity
  8
____1
370
               5
390
0
  6
Continuous
 62
               7
100
AcDbTrace
 10
915.51439948477014
 20
-172.30816626806541
 30
0.0
 11
915.51439948477014
 21
-172.30816626806541
 31
0.0
 12
912.51439948477014
 22
-171.55816626806541
 32
0.0
 13
914.76439948477014
 23
-171.55816626806541
 33
0.0
  0
SOLID
  5
66
100
AcDbEntity
  8
____1
370
               5
390
0
  6
Continuous
 62
               7
100
AcDbTrace
 10
912.51439948477014
 20
-171.55816626806541
 30
0.0
 11
914.76439948477014
 21
-171.55816626806541
 31
0.0
 12
915.51439948477014
 22
-170.80816626806541
 32
0.0
 13
915.51439948477014
 23
-170.80816626806541
 33
0.0
  0
LINE
  5
67
100
AcDbEntity
  8
____1
370
               5
390
0
  6
Continuous
 62
               7
100
AcDbLine
 10
912.51439948477014
 20
-171.55816626806541
 30
0.0
 11
923.76439948477014
 21
-171.55816626806541
 31
0.0
  0
SOLID
  5
68
100
AcDbEntity
  8
____1
370
               5
390
0
  6
Continuous
 62
               7
100
AcDbTrace
 10
932.01439948477014
 20
-172.30816626806541
 30
0.0
 11
932.01439948477014
 21
-172.30816626806541
 31
0.0
 12
932.76439948477014
 22
-171.55816626806541
 32
0.0
 13
935.01439948477014
 23
-171.55816626806541
 33
0.0
  0
SOLID
  5
69
100
AcDbEntity
  8
____1
370
               5
390
0
  6
Continuous
 62
               7
100
AcDbTrace
 10
932.76439948477014
 20
-171.55816626806541
 30
0.0
 11
935.01439948477014
 21
-171.55816626806541
 31
0.0
 12
932.01439948477014
 22
-170.80816626806541
 32
0.0
 13
932.01439948477014
 23
-170.80816626806541
 33
0.0
  0
LINE
  5
6A
100
AcDbEntity
  8
____1
370
               5
390
0
  6
Continuous
 62
               7
100
AcDbLine
 10
935.01439948477014
 20
-171.55816626806541
 30
0.0
 11
923.76439948477014
 21
-171.55816626806541
 31
0.0
  0
MTEXT
  5
6B
100
AcDbEntity
  8
寸法線_1
370
              18
390
0
  6
Continuous
 62
               7
100
AcDbMText
 10
920.23662181295617
 20
-167.03038859625144
 30
0.0
 40
3.5277776718139648
 41
7.0831161066889763
 71
               1
 72
               1
  1
22.5
  7
Style1
 73
               1
 44
1.0
  0
ENDBLK
  5
6C
100
AcDbEntity
  8
0
390
0
100
AcDbBlockEnd
  0
BLOCK
  5
70
100
AcDbEntity
  8
0
390
0
100
AcDbBlockBegin
  2
*D3
 70
              65
 10
0.0
 20
0.0
 30
0.0
  3
*D3
  1

  0
LINE
  5
71
100
AcDbEntity
  8
____1
370
               5
390
0
  6
Continuous
 62
               7
100
AcDbLine
 10
945.01439948477014
 20
-181.55816626806541
 30
0.0
 11
945.01439948477014
 21
-194.05816626806546
 31
0.0
  0
LINE
  5
72
100
AcDbEntity
  8
____1
370
               5
390
0
  6
Continuous
 62
               7
100
AcDbLine
 10
936.01439948477014
 20
-194.05816626806546
 30
0.0
 11
945.51439948477014
 21
-194.05816626806546
 31
0.0
  0
LINE
  5
73
100
AcDbEntity
  8
____1
370
               5
390
0
  6
Continuous
 62
               7
100
AcDbLine
 10
936.01439948477014
 20
-181.55816626806541
 30
0.0
 11
945.51439948477014
 21
-181.55816626806541
 31
0.0
  0
SOLID
  5
74
100
AcDbEntity
  8
____1
370
               5
390
0
  6
Continuous
 62
               7
100
AcDbTrace
 10
945.01439948477014
 20
-181.55816626806541
 30
0.0
 11
945.01439948477014
 21
-181.55816626806541
 31
0.0
 12
944.45189948477014
 22
-179.30816626806541
 32
0.0
 13
945.57689948477014
 23
-179.30816626806541
 33
0.0
  0
SOLID
  5
75
100
AcDbEntity
  8
____1
370
               5
390
0
  6
Continuous
 62
               7
100
AcDbTrace
 10
944.45189948477014
 20
-179.30816626806541
 30
0.0
 11
945.01439948477014
 21
-179.30816626806541
 31
0.0
 12
944.26439948477014
 22
-178.55816626806541
 32
0.0
 13
944.26439948477014
 23
-178.55816626806541
 33
0.0
  0
SOLID
  5
76
100
AcDbEntity
  8
____1
370
               5
390
0
  6
Continuous
 62
               7
100
AcDbTrace
 10
945.01439948477014
 20
-179.30816626806541
 30
0.0
 11
945.57689948477014
 21
-179.30816626806541
 31
0.0
 12
945.76439948477014
 22
-178.55816626806541
 32
0.0
 13
945.76439948477014
 23
-178.55816626806541
 33
0.0
  0
LINE
  5
77
100
AcDbEntity
  8
____1
370
               5
390
0
  6
Continuous
 62
               7
100
AcDbLine
 10
945.01439948477014
 20
-181.55816626806541
 30
0.0
 11
945.01439948477014
 21
-178.55816626806541
 31
0.0
  0
SOLID
  5
78
100
AcDbEntity
  8
____1
370
               5
390
0
  6
Continuous
 62
               7
100
AcDbTrace
 10
944.26439948477014
 20
-197.05816626806546
 30
0.0
 11
944.26439948477014
 21
-197.05816626806546
 31
0.0
 12
944.45189948477014
 22
-196.30816626806546
 32
0.0
 13
945.01439948477014
 23
-196.30816626806546
 33
0.0
  0
SOLID
  5
79
100
AcDbEntity
  8
____1
370
               5
390
0
  6
Continuous
 62
               7
100
AcDbTrace
 10
945.76439948477014
 20
-197.05816626806546
 30
0.0
 11
945.76439948477014
 21
-197.05816626806546
 31
0.0
 12
945.01439948477014
 22
-196.30816626806546
 32
0.0
 13
945.57689948477014
 23
-196.30816626806546
 33
0.0
  0
SOLID
  5
7A
100
AcDbEntity
  8
____1
370
               5
390
0
  6
Continuous
 62
               7
100
AcDbTrace
 10
944.45189948477014
 20
-196.30816626806546
 30
0.0
 11
945.57689948477014
 21
-196.30816626806546
 31
0.0
 12
945.01439948477014
 22
-194.05816626806546
 32
0.0
 13
945.01439948477014
 23
-194.05816626806546
 33
0.0
  0
LINE
  5
7B
100
AcDbEntity
  8
____1
370
               5
390
0
  6
Continuous
 62
               7
100
AcDbLine
 10
945.01439948477014
 20
-194.05816626806546
 30
0.0
 11
945.01439948477014
 21
-197.05816626806546
 31
0.0
  0
MTEXT
  5
7C
100
AcDbEntity
  8
寸法線_1
370
              18
390
0
  6
Continuous
 62
               7
100
AcDbMText
 10
940.48662181295617
 20
-191.33594393987937
 30
0.0
 40
3.5277776718139648
 41
7.0831161066889763
 71
               1
 72
               1
  1
12.5
  7
Style1
 11
0.0
 21
1.0
 31
0.0
 73
               1
 44
1.0
  0
ENDBLK
  5
7D
100
AcDbEntity
  8
0
390
0
100
AcDbBlockEnd
  0
BLOCK
  5
8F
100
AcDbEntity
  8
0
390
0
100
AcDbBlockBegin
  2
*D4
 70
              65
 10
0.0
 20
0.0
 30
0.0
  3
*D4
  1

  0
LINE
  5
90
100
AcDbEntity
  8
____1
370
               5
390
0
  6
Continuous
 62
               7
100
AcDbLine
 10
878.80263082643194
 20
-247.23834071779498
 30
0.0
 11
878.80263082643194
 21
-254.84764659290704
 31
0.0
  0
LINE
  5
91
100
AcDbEntity
  8
____1
370
               5
390
0
  6
Continuous
 62
               7
100
AcDbLine
 10
872.46030160721864
 20
-247.23834071779498
 30
0.0
 11
872.46030160721864
 21
-254.84764659290704
 31
0.0
  0
SOLID
  5
92
100
AcDbEntity
  8
____1
370
               5
390
0
  6
Continuous
 62
               7
100
AcDbTrace
 10
875.46030160721864
 20
-255.09764659290704
 30
0.0
 11
875.46030160721864
 21
-255.09764659290704
 31
0.0
 12
872.46030160721864
 22
-254.34764659290704
 32
0.0
 13
874.71030160721864
 23
-254.34764659290704
 33
0.0
  0
SOLID
  5
93
100
AcDbEntity
  8
____1
370
               5
390
0
  6
Continuous
 62
               7
100
AcDbTrace
 10
872.46030160721864
 20
-254.34764659290704
 30
0.0
 11
874.71030160721864
 21
-254.34764659290704
 31
0.0
 12
875.46030160721864
 22
-253.59764659290704
 32
0.0
 13
875.46030160721864
 23
-253.59764659290704
 33
0.0
  0
LINE
  5
94
100
AcDbEntity
  8
____1
370
               5
390
0
  6
Continuous
 62
               7
100
AcDbLine
 10
872.46030160721864
 20
-254.34764659290704
 30
0.0
 11
878.80263082643194
 21
-254.34764659290704
 31
0.0
  0
SOLID
  5
95
100
AcDbEntity
  8
____1
370
               5
390
0
  6
Continuous
 62
               7
100
AcDbTrace
 10
875.80263082643194
 20
-255.09764659290704
 30
0.0
 11
875.80263082643194
 21
-255.09764659290704
 31
0.0
 12
876.55263082643194
 22
-254.34764659290704
 32
0.0
 13
878.80263082643194
 23
-254.34764659290704
 33
0.0
  0
SOLID
  5
96
100
AcDbEntity
  8
____1
370
               5
390
0
  6
Continuous
 62
               7
100
AcDbTrace
 10
876.55263082643194
 20
-254.34764659290704
 30
0.0
 11
878.80263082643194
 21
-254.34764659290704
 31
0.0
 12
875.80263082643194
 22
-253.59764659290704
 32
0.0
 13
875.80263082643194
 23
-253.59764659290704
 33
0.0
  0
LINE
  5
97
100
AcDbEntity
  8
____1
370
               5
390
0
  6
Continuous
 62
               7
100
AcDbLine
 10
878.80263082643194
 20
-254.34764659290704
 30
0.0
 11
857.26434192252214
 21
-254.34764659290704
 31
0.0
  0
MTEXT
  5
98
100
AcDbEntity
  8
寸法線_1
370
              18
390
0
  6
Continuous
 62
               7
100
AcDbMText
 10
859.02823075842912
 20
-249.81986892109308
 30
0.0
 40
3.5277776718139648
 41
5.3123370800167322
 71
               1
 72
               1
  1
φ6
  7
Style1
 73
               1
 44
1.0
  0
ENDBLK
  5
99
100
AcDbEntity
  8
0
390
0
100
AcDbBlockEnd
  0
BLOCK
  5
125
100
AcDbEntity
  8
0
390
0
100
AcDbBlockBegin
  2
*D5
 70
              65
 10
0.0
 20
0.0
 30
0.0
  3
*D5
  1

  0
LINE
  5
126
100
AcDbEntity
  8
____1
370
               5
390
0
  6
Continuous
 62
               7
100
AcDbLine
 10
809.38856824832772
 20
-238.73834071779498
 30
0.0
 11
809.38856824832772
 21
-246.73834071779498
 31
0.0
  0
LINE
  5
127
100
AcDbEntity
  8
____1
370
               5
390
0
  6
Continuous
 62
               7
100
AcDbLine
 10
798.30973285793436
 20
-246.73834071779498
 30
0.0
 11
809.88856824832772
 21
-246.73834071779498
 31
0.0
  0
LINE
  5
128
100
AcDbEntity
  8
____1
370
               5
390
0
  6
Continuous
 62
               7
100
AcDbLine
 10
800.38856824832772
 20
-238.73834071779498
 30
0.0
 11
809.88856824832772
 21
-238.73834071779498
 31
0.0
  0
SOLID
  5
129
100
AcDbEntity
  8
____1
370
               5
390
0
  6
Continuous
 62
               7
100
AcDbTrace
 10
809.38856824832772
 20
-238.73834071779498
 30
0.0
 11
809.38856824832772
 21
-238.73834071779498
 31
0.0
 12
808.82606824832772
 22
-236.48834071779498
 32
0.0
 13
809.95106824832772
 23
-236.48834071779498
 33
0.0
  0
SOLID
  5
12A
100
AcDbEntity
  8
____1
370
               5
390
0
  6
Continuous
 62
               7
100
AcDbTrace
 10
808.82606824832772
 20
-236.48834071779498
 30
0.0
 11
809.38856824832772
 21
-236.48834071779498
 31
0.0
 12
808.63856824832772
 22
-235.73834071779498
 32
0.0
 13
808.63856824832772
 23
-235.73834071779498
 33
0.0
  0
SOLID
  5
12B
100
AcDbEntity
  8
____1
370
               5
390
0
  6
Continuous
 62
               7
100
AcDbTrace
 10
809.38856824832772
 20
-236.48834071779498
 30
0.0
 11
809.95106824832772
 21
-236.48834071779498
 31
0.0
 12
810.13856824832772
 22
-235.73834071779498
 32
0.0
 13
810.13856824832772
 23
-235.73834071779498
 33
0.0
  0
LINE
  5
12C
100
AcDbEntity
  8
____1
370
               5
390
0
  6
Continuous
 62
               7
100
AcDbLine
 10
809.38856824832772
 20
-238.73834071779498
 30
0.0
 11
809.38856824832772
 21
-235.73834071779498
 31
0.0
  0
SOLID
  5
12D
100
AcDbEntity
  8
____1
370
               5
390
0
  6
Continuous
 62
               7
100
AcDbTrace
 10
808.63856824832772
 20
-249.73834071779498
 30
0.0
 11
808.63856824832772
 21
-249.73834071779498
 31
0.0
 12
808.82606824832772
 22
-248.98834071779498
 32
0.0
 13
809.38856824832772
 23
-248.98834071779498
 33
0.0
  0
SOLID
  5
12E
100
AcDbEntity
  8
____1
370
               5
390
0
  6
Continuous
 62
               7
100
AcDbTrace
 10
810.13856824832772
 20
-249.73834071779498
 30
0.0
 11
810.13856824832772
 21
-249.73834071779498
 31
0.0
 12
809.38856824832772
 22
-248.98834071779498
 32
0.0
 13
809.95106824832772
 23
-248.98834071779498
 33
0.0
  0
SOLID
  5
12F
100
AcDbEntity
  8
____1
370
               5
390
0
  6
Continuous
 62
               7
100
AcDbTrace
 10
808.82606824832772
 20
-248.98834071779498
 30
0.0
 11
809.95106824832772
 21
-248.98834071779498
 31
0.0
 12
809.38856824832772
 22
-246.73834071779498
 32
0.0
 13
809.38856824832772
 23
-246.73834071779498
 33
0.0
  0
LINE
  5
130
100
AcDbEntity
  8
____1
370
               5
390
0
  6
Continuous
 62
               7
100
AcDbLine
 10
809.38856824832772
 20
-246.73834071779498
 30
0.0
 11
809.38856824832772
 21
-249.73834071779498
 31
0.0
  0
MTEXT
  5
131
100
AcDbEntity
  8
寸法線_1
370
               5
390
0
  6
CENTER2
 62
               7
100
AcDbMText
 10
804.86079057651375
 20
-243.62028513574847
 30
0.0
 40
3.5277776718139648
 41
1.7707790266722441
 71
               1
 72
               1
  1
8
  7
Style1
 11
0.0
 21
1.0
 31
0.0
 73
               1
 44
1.0
  0
ENDBLK
  5
132
100
AcDbEntity
  8
0
390
0
100
AcDbBlockEnd
  0
BLOCK
  5
135
100
AcDbEntity
  8
0
390
0
100
AcDbBlockBegin
  2
*D6
 70
              65
 10
0.0
 20
0.0
 30
0.0
  3
*D6
  1

  0
LINE
  5
136
100
AcDbEntity
  8
____1
370
               5
390
0
  6
Continuous
 62
               7
100
AcDbLine
 10
809.38856824832772
 20
-226.23834071779501
 30
0.0
 11
809.38856824832772
 21
-238.73834071779498
 31
0.0
  0
LINE
  5
137
100
AcDbEntity
  8
____1
370
               5
390
0
  6
Continuous
 62
               7
100
AcDbLine
 10
800.38856824832772
 20
-238.73834071779498
 30
0.0
 11
809.88856824832772
 21
-238.73834071779498
 31
0.0
  0
LINE
  5
138
100
AcDbEntity
  8
____1
370
               5
390
0
  6
Continuous
 62
               7
100
AcDbLine
 10
790.71440429778511
 20
-226.23834071779501
 30
0.0
 11
809.88856824832772
 21
-226.23834071779501
 31
0.0
  0
SOLID
  5
139
100
AcDbEntity
  8
____1
370
               5
390
0
  6
Continuous
 62
               7
100
AcDbTrace
 10
809.38856824832772
 20
-226.23834071779501
 30
0.0
 11
809.38856824832772
 21
-226.23834071779501
 31
0.0
 12
808.82606824832772
 22
-223.98834071779501
 32
0.0
 13
809.95106824832772
 23
-223.98834071779501
 33
0.0
  0
SOLID
  5
13A
100
AcDbEntity
  8
____1
370
               5
390
0
  6
Continuous
 62
               7
100
AcDbTrace
 10
808.82606824832772
 20
-223.98834071779501
 30
0.0
 11
809.38856824832772
 21
-223.98834071779501
 31
0.0
 12
808.63856824832772
 22
-223.23834071779501
 32
0.0
 13
808.63856824832772
 23
-223.23834071779501
 33
0.0
  0
SOLID
  5
13B
100
AcDbEntity
  8
____1
370
               5
390
0
  6
Continuous
 62
               7
100
AcDbTrace
 10
809.38856824832772
 20
-223.98834071779501
 30
0.0
 11
809.95106824832772
 21
-223.98834071779501
 31
0.0
 12
810.13856824832772
 22
-223.23834071779501
 32
0.0
 13
810.13856824832772
 23
-223.23834071779501
 33
0.0
  0
LINE
  5
13C
100
AcDbEntity
  8
____1
370
               5
390
0
  6
Continuous
 62
               7
100
AcDbLine
 10
809.38856824832772
 20
-226.23834071779501
 30
0.0
 11
809.38856824832772
 21
-223.23834071779501
 31
0.0
  0
SOLID
  5
13D
100
AcDbEntity
  8
____1
370
               5
390
0
  6
Continuous
 62
               7
100
AcDbTrace
 10
808.63856824832772
 20
-241.73834071779498
 30
0.0
 11
808.63856824832772
 21
-241.73834071779498
 31
0.0
 12
808.82606824832772
 22
-240.98834071779498
 32
0.0
 13
809.38856824832772
 23
-240.98834071779498
 33
0.0
  0
SOLID
  5
13E
100
AcDbEntity
  8
____1
370
               5
390
0
  6
Continuous
 62
               7
100
AcDbTrace
 10
810.13856824832772
 20
-241.73834071779498
 30
0.0
 11
810.13856824832772
 21
-241.73834071779498
 31
0.0
 12
809.38856824832772
 22
-240.98834071779498
 32
0.0
 13
809.95106824832772
 23
-240.98834071779498
 33
0.0
  0
SOLID
  5
13F
100
AcDbEntity
  8
____1
370
               5
390
0
  6
Continuous
 62
               7
100
AcDbTrace
 10
808.82606824832772
 20
-240.98834071779498
 30
0.0
 11
809.95106824832772
 21
-240.98834071779498
 31
0.0
 12
809.38856824832772
 22
-238.73834071779498
 32
0.0
 13
809.38856824832772
 23
-238.73834071779498
 33
0.0
  0
LINE
  5
140
100
AcDbEntity
  8
____1
370
               5
390
0
  6
Continuous
 62
               7
100
AcDbLine
 10
809.38856824832772
 20
-238.73834071779498
 30
0.0
 11
809.38856824832772
 21
-241.73834071779498
 31
0.0
  0
MTEXT
  5
141
100
AcDbEntity
  8
寸法線_1
370
               5
390
0
  6
CENTER2
 62
               7
100
AcDbMText
 10
804.86079057651375
 20
-236.01611838960898
 30
0.0
 40
3.5277776718139648
 41
7.0831161066889763
 71
               1
 72
               1
  1
12.5
  7
Style1
 11
0.0
 21
1.0
 31
0.0
 73
               1
 44
1.0
  0
ENDBLK
  5
142
100
AcDbEntity
  8
0
390
0
100
AcDbBlockEnd
  0
BLOCK
  5
15F
100
AcDbEntity
  8
0
390
0
100
AcDbBlockBegin
  2
*D7
 70
              65
 10
0.0
 20
0.0
 30
0.0
  3
*D7
  1

  0
LINE
  5
160
100
AcDbEntity
  8
____1
370
               5
390
0
  6
Continuous
 62
               7
100
AcDbLine
 10
749.88856824832772
 20
-238.73834071779498
 30
0.0
 11
749.88856824832772
 21
-235.73834071779504
 31
0.0
  0
LINE
  5
161
100
AcDbEntity
  8
____1
370
               5
390
0
  6
Continuous
 62
               7
100
AcDbLine
 10
759.3885684406639
 20
-235.73834071779504
 30
0.0
 11
749.38856824832772
 21
-235.73834071779504
 31
0.0
  0
LINE
  5
162
100
AcDbEntity
  8
____1
370
               5
390
0
  6
Continuous
 62
               7
100
AcDbLine
 10
758.88856824832772
 20
-238.73834071779498
 30
0.0
 11
749.38856824832772
 21
-238.73834071779498
 31
0.0
  0
SOLID
  5
163
100
AcDbEntity
  8
____1
370
               5
390
0
  6
Continuous
 62
               7
100
AcDbTrace
 10
749.13856824832772
 20
-241.73834071779498
 30
0.0
 11
749.13856824832772
 21
-241.73834071779498
 31
0.0
 12
749.32606824832772
 22
-240.98834071779498
 32
0.0
 13
749.88856824832772
 23
-240.98834071779498
 33
0.0
  0
SOLID
  5
164
100
AcDbEntity
  8
____1
370
               5
390
0
  6
Continuous
 62
               7
100
AcDbTrace
 10
750.63856824832772
 20
-241.73834071779498
 30
0.0
 11
750.63856824832772
 21
-241.73834071779498
 31
0.0
 12
749.88856824832772
 22
-240.98834071779498
 32
0.0
 13
750.45106824832772
 23
-240.98834071779498
 33
0.0
  0
SOLID
  5
165
100
AcDbEntity
  8
____1
370
               5
390
0
  6
Continuous
 62
               7
100
AcDbTrace
 10
749.32606824832772
 20
-240.98834071779498
 30
0.0
 11
750.45106824832772
 21
-240.98834071779498
 31
0.0
 12
749.88856824832772
 22
-238.73834071779498
 32
0.0
 13
749.88856824832772
 23
-238.73834071779498
 33
0.0
  0
LINE
  5
166
100
AcDbEntity
  8
____1
370
               5
390
0
  6
Continuous
 62
               7
100
AcDbLine
 10
749.88856824832772
 20
-238.73834071779498
 30
0.0
 11
749.88856824832772
 21
-241.73834071779498
 31
0.0
  0
SOLID
  5
167
100
AcDbEntity
  8
____1
370
               5
390
0
  6
Continuous
 62
               7
100
AcDbTrace
 10
749.88856824832772
 20
-235.73834071779504
 30
0.0
 11
749.88856824832772
 21
-235.73834071779504
 31
0.0
 12
749.32606824832772
 22
-233.48834071779504
 32
0.0
 13
750.45106824832772
 23
-233.48834071779504
 33
0.0
  0
SOLID
  5
168
100
AcDbEntity
  8
____1
370
               5
390
0
  6
Continuous
 62
               7
100
AcDbTrace
 10
749.32606824832772
 20
-233.48834071779504
 30
0.0
 11
749.88856824832772
 21
-233.48834071779504
 31
0.0
 12
749.13856824832772
 22
-232.73834071779504
 32
0.0
 13
749.13856824832772
 23
-232.73834071779504
 33
0.0
  0
SOLID
  5
169
100
AcDbEntity
  8
____1
370
               5
390
0
  6
Continuous
 62
               7
100
AcDbTrace
 10
749.88856824832772
 20
-233.48834071779504
 30
0.0
 11
750.45106824832772
 21
-233.48834071779504
 31
0.0
 12
750.63856824832772
 22
-232.73834071779504
 32
0.0
 13
750.63856824832772
 23
-232.73834071779504
 33
0.0
  0
LINE
  5
16A
100
AcDbEntity
  8
____1
370
               5
390
0
  6
Continuous
 62
               7
100
AcDbLine
 10
749.88856824832772
 20
-235.73834071779504
 30
0.0
 11
749.88856824832772
 21
-232.73834071779504
 31
0.0
  0
MTEXT
  5
16B
100
AcDbEntity
  8
寸法線_1
370
               5
390
0
  6
CENTER2
 62
               7
100
AcDbMText
 10
745.36079057651375
 20
-238.1202851357485
 30
0.0
 40
3.5277776718139648
 41
1.7707790266722441
 71
               1
 72
               1
  1
3
  7
Style1
 11
0.0
 21
1.0
 31
0.0
 73
               1
 44
1.0
  0
ENDBLK
  5
16C
100
AcDbEntity
  8
0
390
0
100
AcDbBlockEnd
  0
BLOCK
  5
171
100
AcDbEntity
  8
0
390
0
100
AcDbBlockBegin
  2
*D8
 70
              65
 10
0.0
 20
0.0
 30
0.0
  3
*D8
  1

  0
LINE
  5
172
100
AcDbEntity
  8
____1
370
               5
390
0
  6
Continuous
 62
               7
100
AcDbLine
 10
764.63856834022931
 20
-249.73834071779504
 30
0.0
 11
764.63856834022931
 21
-259.23834071779504
 31
0.0
  0
LINE
  5
173
100
AcDbEntity
  8
____1
370
               5
390
0
  6
Continuous
 62
               7
100
AcDbLine
 10
794.63856834022931
 20
-249.73834071779504
 30
0.0
 11
794.63856834022931
 21
-259.23834071779504
 31
0.0
  0
SOLID
  5
174
100
AcDbEntity
  8
____1
370
               5
390
0
  6
Continuous
 62
               7
100
AcDbTrace
 10
791.63856834022931
 20
-259.48834071779504
 30
0.0
 11
791.63856834022931
 21
-259.48834071779504
 31
0.0
 12
792.38856834022931
 22
-258.73834071779504
 32
0.0
 13
794.63856834022931
 23
-258.73834071779504
 33
0.0
  0
SOLID
  5
175
100
AcDbEntity
  8
____1
370
               5
390
0
  6
Continuous
 62
               7
100
AcDbTrace
 10
792.38856834022931
 20
-258.73834071779504
 30
0.0
 11
794.63856834022931
 21
-258.73834071779504
 31
0.0
 12
791.63856834022931
 22
-257.98834071779504
 32
0.0
 13
791.63856834022931
 23
-257.98834071779504
 33
0.0
  0
LINE
  5
176
100
AcDbEntity
  8
____1
370
               5
390
0
  6
Continuous
 62
               7
100
AcDbLine
 10
794.63856834022931
 20
-258.73834071779504
 30
0.0
 11
779.63856834022931
 21
-258.73834071779504
 31
0.0
  0
SOLID
  5
177
100
AcDbEntity
  8
____1
370
               5
390
0
  6
Continuous
 62
               7
100
AcDbTrace
 10
767.63856834022931
 20
-259.48834071779504
 30
0.0
 11
767.63856834022931
 21
-259.48834071779504
 31
0.0
 12
764.63856834022931
 22
-258.73834071779504
 32
0.0
 13
766.88856834022931
 23
-258.73834071779504
 33
0.0
  0
SOLID
  5
178
100
AcDbEntity
  8
____1
370
               5
390
0
  6
Continuous
 62
               7
100
AcDbTrace
 10
764.63856834022931
 20
-258.73834071779504
 30
0.0
 11
766.88856834022931
 21
-258.73834071779504
 31
0.0
 12
767.63856834022931
 22
-257.98834071779504
 32
0.0
 13
767.63856834022931
 23
-257.98834071779504
 33
0.0
  0
LINE
  5
179
100
AcDbEntity
  8
____1
370
               5
390
0
  6
Continuous
 62
               7
100
AcDbLine
 10
764.63856834022931
 20
-258.73834071779504
 30
0.0
 11
779.63856834022931
 21
-258.73834071779504
 31
0.0
  0
MTEXT
  5
17A
100
AcDbEntity
  8
寸法線_1
370
              18
390
0
  6
Continuous
 62
               7
100
AcDbMText
 10
777.87467950432233
 20
-254.21056304598108
 30
0.0
 40
3.5277776718139648
 41
3.5415580533444881
 71
               1
 72
               1
  1
30
  7
Style1
 73
               1
 44
1.0
  0
ENDBLK
  5
17B
100
AcDbEntity
  8
0
390
0
100
AcDbBlockEnd
  0
BLOCK
  5
19C
100
AcDbEntity
  8
0
390
0
100
AcDbBlockBegin
  2
*D9
 70
              65
 10
0.0
 20
0.0
 30
0.0
  3
*D9
  1

  0
LINE
  5
19D
100
AcDbEntity
  8
____1
370
               5
390
0
  6
Continuous
 62
               7
100
AcDbLine
 10
791.3885682483276
 20
-234.73834071779501
 30
0.0
 11
791.3885682483276
 21
-215.62251160295426
 31
0.0
  0
LINE
  5
19E
100
AcDbEntity
  8
____1
370
               5
390
0
  6
Continuous
 62
               7
100
AcDbLine
 10
767.8885682483276
 20
-234.73834071779501
 30
0.0
 11
767.8885682483276
 21
-215.62251160295426
 31
0.0
  0
SOLID
  5
19F
100
AcDbEntity
  8
____1
370
               5
390
0
  6
Continuous
 62
               7
100
AcDbTrace
 10
770.8885682483276
 20
-216.87251160295426
 30
0.0
 11
770.8885682483276
 21
-216.87251160295426
 31
0.0
 12
767.8885682483276
 22
-216.12251160295426
 32
0.0
 13
770.1385682483276
 23
-216.12251160295426
 33
0.0
  0
SOLID
  5
1A0
100
AcDbEntity
  8
____1
370
               5
390
0
  6
Continuous
 62
               7
100
AcDbTrace
 10
767.8885682483276
 20
-216.12251160295426
 30
0.0
 11
770.1385682483276
 21
-216.12251160295426
 31
0.0
 12
770.8885682483276
 22
-215.37251160295426
 32
0.0
 13
770.8885682483276
 23
-215.37251160295426
 33
0.0
  0
LINE
  5
1A1
100
AcDbEntity
  8
____1
370
               5
390
0
  6
Continuous
 62
               7
100
AcDbLine
 10
767.8885682483276
 20
-216.12251160295426
 30
0.0
 11
779.38911197924688
 21
-216.12251160295426
 31
0.0
  0
SOLID
  5
1A2
100
AcDbEntity
  8
____1
370
               5
390
0
  6
Continuous
 62
               7
100
AcDbTrace
 10
788.3885682483276
 20
-216.87251160295426
 30
0.0
 11
788.3885682483276
 21
-216.87251160295426
 31
0.0
 12
789.1385682483276
 22
-216.12251160295426
 32
0.0
 13
791.3885682483276
 23
-216.12251160295426
 33
0.0
  0
SOLID
  5
1A3
100
AcDbEntity
  8
____1
370
               5
390
0
  6
Continuous
 62
               7
100
AcDbTrace
 10
789.1385682483276
 20
-216.12251160295426
 30
0.0
 11
791.3885682483276
 21
-216.12251160295426
 31
0.0
 12
788.3885682483276
 22
-215.37251160295426
 32
0.0
 13
788.3885682483276
 23
-215.37251160295426
 33
0.0
  0
LINE
  5
1A4
100
AcDbEntity
  8
____1
370
               5
390
0
  6
Continuous
 62
               7
100
AcDbLine
 10
791.3885682483276
 20
-216.12251160295426
 30
0.0
 11
779.38911197924688
 21
-216.12251160295426
 31
0.0
  0
MTEXT
  5
1A5
100
AcDbEntity
  8
寸法線_1
370
              18
390
0
  6
Continuous
 62
               7
100
AcDbMText
 10
775.86133430743291
 20
-211.5947339311403
 30
0.0
 40
3.5277776718139648
 41
7.0831161066889763
 71
               1
 72
               1
  1
23.5
  7
Style1
 73
               1
 44
1.0
  0
ENDBLK
  5
1A6
100
AcDbEntity
  8
0
390
0
100
AcDbBlockEnd
  0
BLOCK
  5
1AB
100
AcDbEntity
  8
0
390
0
100
AcDbBlockBegin
  2
*D10
 70
              65
 10
0.0
 20
0.0
 30
0.0
  3
*D10
  1

  0
LINE
  5
1AC
100
AcDbEntity
  8
____1
370
               5
390
0
  6
Continuous
 62
               7
100
AcDbLine
 10
885.13146621682529
 20
-225.23834071779501
 30
0.0
 11
885.13146621682529
 21
-215.73834071779501
 31
0.0
  0
LINE
  5
1AD
100
AcDbEntity
  8
____1
370
               5
390
0
  6
Continuous
 62
               7
100
AcDbLine
 10
866.13146621682529
 20
-225.23834071779501
 30
0.0
 11
866.13146621682529
 21
-215.73834071779501
 31
0.0
  0
SOLID
  5
1AE
100
AcDbEntity
  8
____1
370
               5
390
0
  6
Continuous
 62
               7
100
AcDbTrace
 10
869.13146621682529
 20
-216.98834071779501
 30
0.0
 11
869.13146621682529
 21
-216.98834071779501
 31
0.0
 12
866.13146621682529
 22
-216.23834071779501
 32
0.0
 13
868.38146621682529
 23
-216.23834071779501
 33
0.0
  0
SOLID
  5
1AF
100
AcDbEntity
  8
____1
370
               5
390
0
  6
Continuous
 62
               7
100
AcDbTrace
 10
866.13146621682529
 20
-216.23834071779501
 30
0.0
 11
868.38146621682529
 21
-216.23834071779501
 31
0.0
 12
869.13146621682529
 22
-215.48834071779501
 32
0.0
 13
869.13146621682529
 23
-215.48834071779501
 33
0.0
  0
LINE
  5
1B0
100
AcDbEntity
  8
____1
370
               5
390
0
  6
Continuous
 62
               7
100
AcDbLine
 10
866.13146621682529
 20
-216.23834071779501
 30
0.0
 11
875.63146621682529
 21
-216.23834071779501
 31
0.0
  0
SOLID
  5
1B1
100
AcDbEntity
  8
____1
370
               5
390
0
  6
Continuous
 62
               7
100
AcDbTrace
 10
882.13146621682529
 20
-216.98834071779501
 30
0.0
 11
882.13146621682529
 21
-216.98834071779501
 31
0.0
 12
882.88146621682529
 22
-216.23834071779501
 32
0.0
 13
885.13146621682529
 23
-216.23834071779501
 33
0.0
  0
SOLID
  5
1B2
100
AcDbEntity
  8
____1
370
               5
390
0
  6
Continuous
 62
               7
100
AcDbTrace
 10
882.88146621682529
 20
-216.23834071779501
 30
0.0
 11
885.13146621682529
 21
-216.23834071779501
 31
0.0
 12
882.13146621682529
 22
-215.48834071779501
 32
0.0
 13
882.13146621682529
 23
-215.48834071779501
 33
0.0
  0
LINE
  5
1B3
100
AcDbEntity
  8
____1
370
               5
390
0
  6
Continuous
 62
               7
100
AcDbLine
 10
885.13146621682529
 20
-216.23834071779501
 30
0.0
 11
875.63146621682529
 21
-216.23834071779501
 31
0.0
  0
MTEXT
  5
1B4
100
AcDbEntity
  8
寸法線_1
370
               5
390
0
  6
CENTER2
 62
               7
100
AcDbMText
 10
873.86757738091831
 20
-211.71056304598105
 30
0.0
 40
3.5277776718139648
 41
3.5415580533444881
 71
               1
 72
               1
  1
19
  7
Style1
 73
               1
 44
1.0
  0
ENDBLK
  5
1B5
100
AcDbEntity
  8
0
390
0
100
AcDbBlockEnd
  0
BLOCK
  5
1B8
100
AcDbEntity
  8
0
390
0
100
AcDbBlockBegin
  2
*D11
 70
              65
 10
0.0
 20
0.0
 30
0.0
  3
*D11
  1

  0
LINE
  5
1B9
100
AcDbEntity
  8
____1
370
               5
390
0
  6
Continuous
 62
               7
100
AcDbLine
 10
864.13146621682529
 20
-216.23834071779501
 30
0.0
 11
866.13146621682529
 21
-216.23834071779501
 31
0.0
  0
LINE
  5
1BA
100
AcDbEntity
  8
____1
370
               5
390
0
  6
Continuous
 62
               7
100
AcDbLine
 10
866.13146621682529
 20
-225.23834071779501
 30
0.0
 11
866.13146621682529
 21
-215.73834071779501
 31
0.0
  0
LINE
  5
1BB
100
AcDbEntity
  8
____1
370
               5
390
0
  6
Continuous
 62
               7
100
AcDbLine
 10
864.13146621682529
 20
-226.438340717795
 30
0.0
 11
864.13146621682529
 21
-215.73834071779501
 31
0.0
  0
SOLID
  5
1BC
100
AcDbEntity
  8
____1
370
               5
390
0
  6
Continuous
 62
               7
100
AcDbTrace
 10
861.13146621682529
 20
-216.98834071779501
 30
0.0
 11
861.13146621682529
 21
-216.98834071779501
 31
0.0
 12
861.88146621682529
 22
-216.23834071779501
 32
0.0
 13
864.13146621682529
 23
-216.23834071779501
 33
0.0
  0
SOLID
  5
1BD
100
AcDbEntity
  8
____1
370
               5
390
0
  6
Continuous
 62
               7
100
AcDbTrace
 10
861.88146621682529
 20
-216.23834071779501
 30
0.0
 11
864.13146621682529
 21
-216.23834071779501
 31
0.0
 12
861.13146621682529
 22
-215.48834071779501
 32
0.0
 13
861.13146621682529
 23
-215.48834071779501
 33
0.0
  0
LINE
  5
1BE
100
AcDbEntity
  8
____1
370
               5
390
0
  6
Continuous
 62
               7
100
AcDbLine
 10
864.13146621682529
 20
-216.23834071779501
 30
0.0
 11
853.51250097355364
 21
-216.23834071779501
 31
0.0
  0
SOLID
  5
1BF
100
AcDbEntity
  8
____1
370
               5
390
0
  6
Continuous
 62
               7
100
AcDbTrace
 10
869.13146621682529
 20
-216.98834071779501
 30
0.0
 11
869.13146621682529
 21
-216.98834071779501
 31
0.0
 12
866.13146621682529
 22
-216.23834071779501
 32
0.0
 13
868.38146621682529
 23
-216.23834071779501
 33
0.0
  0
SOLID
  5
1C0
100
AcDbEntity
  8
____1
370
               5
390
0
  6
Continuous
 62
               7
100
AcDbTrace
 10
866.13146621682529
 20
-216.23834071779501
 30
0.0
 11
868.38146621682529
 21
-216.23834071779501
 31
0.0
 12
869.13146621682529
 22
-215.48834071779501
 32
0.0
 13
869.13146621682529
 23
-215.48834071779501
 33
0.0
  0
LINE
  5
1C1
100
AcDbEntity
  8
____1
370
               5
390
0
  6
Continuous
 62
               7
100
AcDbLine
 10
866.13146621682529
 20
-216.23834071779501
 30
0.0
 11
869.13146621682529
 21
-216.23834071779501
 31
0.0
  0
MTEXT
  5
1C2
100
AcDbEntity
  8
寸法線_1
370
               5
390
0
  6
CENTER2
 62
               7
100
AcDbMText
 10
855.27638980946062
 20
-211.71056304598105
 30
0.0
 40
3.5277776718139648
 41
5.3123370800167322
 71
               1
 72
               1
  1
(2)
  7
Style1
 73
               1
 44
1.0
  0
ENDBLK
  5
1C3
100
AcDbEntity
  8
0
390
0
100
AcDbBlockEnd
  0
BLOCK
  5
1D3
100
AcDbEntity
  8
0
390
0
100
AcDbBlockBegin
  2
*D12
 70
              65
 10
0.0
 20
0.0
 30
0.0
  3
*D12
  1

  0
LINE
  5
1D4
100
AcDbEntity
  8
____1
370
               5
390
0
  6
Continuous
 62
               7
100
AcDbLine
 10
759.88856824832772
 20
-239.73834071779498
 30
0.0
 11
759.88856824832772
 21
-266.80951724672565
 31
0.0
  0
LINE
  5
1D5
100
AcDbEntity
  8
____1
370
               5
390
0
  6
Continuous
 62
               7
100
AcDbLine
 10
799.38856824832772
 20
-239.73834071779498
 30
0.0
 11
799.38856824832772
 21
-266.80951724672565
 31
0.0
  0
SOLID
  5
1D6
100
AcDbEntity
  8
____1
370
               5
390
0
  6
Continuous
 62
               7
100
AcDbTrace
 10
796.38856824832772
 20
-267.05951724672565
 30
0.0
 11
796.38856824832772
 21
-267.05951724672565
 31
0.0
 12
797.13856824832772
 22
-266.30951724672565
 32
0.0
 13
799.38856824832772
 23
-266.30951724672565
 33
0.0
  0
SOLID
  5
1D7
100
AcDbEntity
  8
____1
370
               5
390
0
  6
Continuous
 62
               7
100
AcDbTrace
 10
797.13856824832772
 20
-266.30951724672565
 30
0.0
 11
799.38856824832772
 21
-266.30951724672565
 31
0.0
 12
796.38856824832772
 22
-265.55951724672565
 32
0.0
 13
796.38856824832772
 23
-265.55951724672565
 33
0.0
  0
LINE
  5
1D8
100
AcDbEntity
  8
____1
370
               5
390
0
  6
Continuous
 62
               7
100
AcDbLine
 10
799.38856824832772
 20
-266.30951724672565
 30
0.0
 11
779.63856824832772
 21
-266.30951724672565
 31
0.0
  0
SOLID
  5
1D9
100
AcDbEntity
  8
____1
370
               5
390
0
  6
Continuous
 62
               7
100
AcDbTrace
 10
762.88856824832772
 20
-267.05951724672565
 30
0.0
 11
762.88856824832772
 21
-267.05951724672565
 31
0.0
 12
759.88856824832772
 22
-266.30951724672565
 32
0.0
 13
762.13856824832772
 23
-266.30951724672565
 33
0.0
  0
SOLID
  5
1DA
100
AcDbEntity
  8
____1
370
               5
390
0
  6
Continuous
 62
               7
100
AcDbTrace
 10
759.88856824832772
 20
-266.30951724672565
 30
0.0
 11
762.13856824832772
 21
-266.30951724672565
 31
0.0
 12
762.88856824832772
 22
-265.55951724672565
 32
0.0
 13
762.88856824832772
 23
-265.55951724672565
 33
0.0
  0
LINE
  5
1DB
100
AcDbEntity
  8
____1
370
               5
390
0
  6
Continuous
 62
               7
100
AcDbLine
 10
759.88856824832772
 20
-266.30951724672565
 30
0.0
 11
779.63856824832772
 21
-266.30951724672565
 31
0.0
  0
MTEXT
  5
1DC
100
AcDbEntity
  8
寸法線_1
370
              18
390
0
  6
Continuous
 62
               7
100
AcDbMText
 10
776.11079057651375
 20
-261.78173957491168
 30
0.0
 40
3.5277776718139648
 41
7.0831161066889763
 71
               1
 72
               1
  1
39.5
  7
Style1
 73
               1
 44
1.0
  0
ENDBLK
  5
1DD
100
AcDbEntity
  8
0
390
0
100
AcDbBlockEnd
  0
ENDSEC
  0
SECTION
  2
ENTITIES
  0
MTEXT
  5
38
100
AcDbEntity
  8
____1
370
               5
390
0
  6
Continuous
 62
               7
100
AcDbMText
 10
953.26439948477014
 20
-184.02033739263891
 30
0.0
 40
3.5277776718139648
 41
12.0
 71
               1
 72
               1
  1
ｔ1.5
  7
Style1
 73
               1
 44
1.0
  0
LINE
  5
3A
100
AcDbEntity
  8
____1
370
              18
390
0
  6
Continuous
 62
               5
100
AcDbLine
 10
913.51439948477014
 20
-181.55816626806541
 30
0.0
 11
912.51439948477014
 21
-182.55816626806552
 31
0.0
  0
LINE
  5
3B
100
AcDbEntity
  8
____1
370
              18
390
0
  6
Continuous
 62
               5
100
AcDbLine
 10
934.01439948477014
 20
-194.05816626806546
 30
0.0
 11
935.01439948477014
 21
-193.05816626806546
 31
0.0
  0
LINE
  5
3C
100
AcDbEntity
  8
____1
370
              18
390
0
  6
Continuous
 62
               5
100
AcDbLine
 10
913.51439948477014
 20
-194.05816626806546
 30
0.0
 11
912.51439948477014
 21
-193.05816626806546
 31
0.0
  0
LINE
  5
3D
100
AcDbEntity
  8
____1
370
              18
390
0
  6
Continuous
 62
               5
100
AcDbLine
 10
934.01439948477014
 20
-181.55816626806541
 30
0.0
 11
935.01439948477014
 21
-182.55816626806552
 31
0.0
  0
LINE
  5
3E
100
AcDbEntity
  8
____1
370
              18
390
0
  6
Continuous
 62
               5
100
AcDbLine
 10
935.01439948477014
 20
-181.55816626806541
 30
0.0
 11
935.01439948477014
 21
-194.05816626806546
 31
0.0
  0
LINE
  5
3F
100
AcDbEntity
  8
____1
370
              18
390
0
  6
Continuous
 62
               5
100
AcDbLine
 10
935.01439948477014
 20
-194.05816626806546
 30
0.0
 11
912.51439948477014
 21
-194.05816626806546
 31
0.0
  0
MTEXT
  5
40
100
AcDbEntity
  8
____1
370
               5
390
0
  6
Continuous
 62
               7
100
AcDbMText
 10
945.39283604760772
 20
-166.4426095779221
 30
0.0
 40
3.5277776718139648
 41
24.526344011916677
 71
               1
 72
               1
  1
皿ビス用皿穴
  7
Style1
 73
               1
 44
1.0
  0
MTEXT
  5
41
100
AcDbEntity
  8
____1
370
               5
390
0
  6
Continuous
 62
               7
100
AcDbMText
 10
953.26439948477014
 20
-178.22883793020452
 30
0.0
 40
3.5277776718139648
 41
12.0
 71
               1
 72
               1
  1
ｔ1.6
  7
Style1
 73
               1
 44
1.0
  0
LINE
  5
42
100
AcDbEntity
  8
____1
370
               5
390
0
  6
Continuous
 62
               7
100
AcDbLine
 10
953.26439948477014
 20
-185.21498791479902
 30
0.0
 11
964.08400184667312
 21
-185.21498791479902
 31
0.0
  0
MTEXT
  5
43
100
AcDbEntity
  8
____1
370
               5
390
0
  6
Continuous
 62
               7
100
AcDbMText
 10
919.29447306256645
 20
-291.42278471147404
 30
0.0
 40
2.75
 41
6.0
 71
               1
 72
               1
  1
型番
  7
Style1
 73
               1
 44
1.0
  0
MTEXT
  5
44
100
AcDbEntity
  8
____1
370
               5
390
0
  6
Continuous
 62
               7
100
AcDbMText
 10
887.53694519802571
 20
-137.75367669580771
 30
0.0
 40
2.9266439437866216
 41
3.1654860495798762
 71
               1
 72
               1
  1
2
  7
Style1
 73
               1
 44
1.0
  0
LINE
  5
45
100
AcDbEntity
  8
____1
370
              18
390
0
  6
Continuous
 62
               5
100
AcDbLine
 10
894.40397360885822
 20
-141.23428443662726
 30
0.0
 11
894.40397360885822
 21
-126.23428443662726
 31
0.0
  0
LINE
  5
46
100
AcDbEntity
  8
____1
370
              18
390
0
  6
Continuous
 62
               5
100
AcDbLine
 10
884.40397360885822
 20
-141.23428443662726
 30
0.0
 11
884.40397360885822
 21
-126.23428443662726
 31
0.0
  0
LINE
  5
47
100
AcDbEntity
  8
____1
370
              18
390
0
  6
Continuous
 62
               5
100
AcDbLine
 10
889.11968822281574
 20
-126.56666693689112
 30
0.0
 11
886.64468822281583
 21
-130.85349268562402
 31
0.0
  0
LINE
  5
48
100
AcDbEntity
  8
____1
370
              18
390
0
  6
Continuous
 62
               5
100
AcDbLine
 10
889.11968822281574
 20
-126.56666693689112
 30
0.0
 11
891.59468822281565
 21
-130.85349268562402
 31
0.0
  0
LINE
  5
49
100
AcDbEntity
  8
____1
370
              18
390
0
  6
Continuous
 62
               5
100
AcDbLine
 10
886.64468822281583
 20
-130.85349268562402
 30
0.0
 11
891.59468822281565
 21
-130.85349268562402
 31
0.0
  0
LINE
  5
4A
100
AcDbEntity
  8
____1
370
               5
390
0
  6
CENTER2
 62
               3
100
AcDbLine
 10
884.40397360885822
 20
-206.2863595779221
 30
0.0
 11
884.40397360885822
 21
-151.28635957792204
 31
0.0
  0
INSERT
  5
52
100
AcDbEntity
  8
____1
370
               5
390
0
  6
Continuous
 62
             254
100
AcDbBlockReference
  2
C0
 10
0.0
 20
0.0
 30
0.0
  0
MTEXT
  5
53
100
AcDbEntity
  8
____1
370
               5
390
0
  6
Continuous
 62
               7
100
AcDbMText
 10
914.40397360885822
 20
-136.96075577201179
 30
0.0
 40
3.5277776718139648
 41
60.0
 71
               1
 72
               1
  1
黒色を削除
  7
Style1
 73
               1
 44
1.0
  0
LINE
  5
54
100
AcDbEntity
  8
____1
370
               5
390
0
  6
Continuous
 62
               7
100
AcDbLine
 10
953.26439948477014
 20
-186.43908430034116
 30
0.0
 11
964.08400184667312
 21
-186.43908430034116
 31
0.0
  0
INSERT
  5
5C
100
AcDbEntity
  8
____1
370
               5
390
0
  6
Continuous
 62
             254
100
AcDbBlockReference
  2
C1
 10
0.0
 20
0.0
 30
0.0
  0
MTEXT
  5
5D
100
AcDbEntity
  8
____1
370
               5
390
0
  6
Continuous
 62
               7
100
AcDbMText
 10
914.40397360885822
 20
-131.96075577201179
 30
0.0
 40
3.5277776718139648
 41
60.0
 71
               1
 72
               1
  1
材料板厚ｔ1.5からｔ1.6に変更
  7
Style1
 73
               1
 44
1.0
  0
MTEXT
  5
5E
100
AcDbEntity
  8
____1
370
               5
390
0
  6
Continuous
 62
               7
100
AcDbMText
 10
914.40397360885822
 20
-126.99618027267468
 30
0.0
 40
3.5277776718139648
 41
60.0
 71
               1
 72
               1
  1
改　訂　内　容
  7
Style1
 73
               1
 44
1.0
  0
LINE
  5
5F
100
AcDbEntity
  8
____1
370
              18
390
0
  6
Continuous
 62
               5
100
AcDbLine
 10
914.40397360885822
 20
-141.23428443662726
 30
0.0
 11
914.40397360885822
 21
-126.23428443662726
 31
0.0
  0
LINE
  5
60
100
AcDbEntity
  8
____1
370
              18
390
0
  6
Continuous
 62
               5
100
AcDbLine
 10
914.40397360885822
 20
-141.23428443662726
 30
0.0
 11
914.40397360885822
 21
-126.23428443662726
 31
0.0
  0
DIMENSION
  5
6D
100
AcDbEntity
  8
寸法線_1
370
               5
390
0
  6
Continuous
 62
               7
100
AcDbDimension
  2
*D2
 10
935.01439948477014
 20
-171.55816626806541
 30
0.0
 11
923.76439948477014
 21
-171.55816626806541
 31
0.0
 71
               5
 72
               1
 41
1.0
 42
0.0
  3
DS1
100
AcDbAlignedDimension
 13
912.51439948477014
 23
-181.55816626806541
 33
0.0
 14
935.01439948477014
 24
-181.55816626806541
 34
0.0
100
AcDbRotatedDimension
  0
DIMENSION
  5
7E
100
AcDbEntity
  8
寸法線_1
370
               5
390
0
  6
Continuous
 62
               7
100
AcDbDimension
  2
*D3
 10
945.01439948477014
 20
-194.05816626806546
 30
0.0
 11
945.01439948477014
 21
-187.80816626806541
 31
0.0
 71
               5
 72
               1
 41
1.0
 42
0.0
  3
DS1
100
AcDbAlignedDimension
 13
935.01439948477014
 23
-181.55816626806541
 33
0.0
 14
935.01439948477014
 24
-194.05816626806546
 34
0.0
 50
90.0
100
AcDbRotatedDimension
  0
LINE
  5
7F
100
AcDbEntity
  8
____1
370
               5
390
0
  6
CENTER2
 62
               3
100
AcDbLine
 10
923.76439948477014
 20
-178.55816626806552
 30
0.0
 11
923.76439948477014
 21
-197.05816626806546
 31
0.0
  0
LINE
  5
80
100
AcDbEntity
  8
____1
370
               5
390
0
  6
Continuous
 62
               7
100
AcDbLine
 10
941.00361443034649
 20
-170.5676095779221
 30
0.0
 11
968.35682411390485
 21
-170.5676095779221
 31
0.0
  0
LINE
  5
81
100
AcDbEntity
  8
____1
370
               5
390
0
  6
Continuous
 62
               7
100
AcDbLine
 10
926.11433193372318
 20
-185.94327552452069
 30
0.0
 11
941.00361443034649
 21
-170.5676095779221
 31
0.0
  0
SOLID
  5
82
100
AcDbEntity
  8
____1
390
0
 62
               7
100
AcDbTrace
 10
926.11433193372318
 20
-185.94327552452069
 30
0.0
 11
929.202010882742
 21
-184.02252567982612
 31
0.0
 12
926.11433193372318
 22
-185.94327552452069
 32
0.0
 13
927.95491416043751
 23
-184.04256758432118
 33
0.0
  0
SOLID
  5
83
100
AcDbEntity
  8
____1
390
0
 62
               7
100
AcDbTrace
 10
927.95491416043751
 20
-184.04256758432118
 30
0.0
 11
927.93487225594242
 21
-182.7954708620166
 31
0.0
 12
926.11433193372318
 22
-185.94327552452069
 32
0.0
 13
926.11433193372318
 23
-185.94327552452069
 33
0.0
  0
CIRCLE
  5
84
100
AcDbEntity
  8
____1
370
              18
390
0
  6
Continuous
 62
               5
100
AcDbCircle
 10
923.76439948477014
 20
-187.80816626806541
 30
0.0
 40
2.9999999999999436
  0
LINE
  5
85
100
AcDbEntity
  8
____1
370
              18
390
0
  6
Continuous
 62
               5
100
AcDbLine
 10
912.51439948477014
 20
-194.05816626806546
 30
0.0
 11
912.51439948477014
 21
-181.55816626806541
 31
0.0
  0
CIRCLE
  5
86
100
AcDbEntity
  8
____1
370
              18
390
0
  6
Continuous
 62
               5
100
AcDbCircle
 10
923.76439948477014
 20
-187.80816626806541
 30
0.0
 40
2.0000000000001767
  0
LINE
  5
87
100
AcDbEntity
  8
____1
370
              18
390
0
  6
Continuous
 62
               5
100
AcDbLine
 10
912.51439948477014
 20
-181.55816626806541
 30
0.0
 11
935.01439948477014
 21
-181.55816626806541
 31
0.0
  0
LINE
  5
88
100
AcDbEntity
  8
____1
370
              18
390
0
  6
Continuous
 62
               5
100
AcDbLine
 10
867.13146621682529
 20
-226.23834071779501
 30
0.0
 11
884.13146621682529
 21
-226.23834071779501
 31
0.0
  0
ARC
  5
89
100
AcDbEntity
  8
____1
370
              18
390
0
  6
Continuous
 62
               5
100
AcDbCircle
 10
884.13146621682529
 20
-227.23834071779501
 30
0.0
 40
1.0
210
0.0
220
0.0
230
1.0
100
AcDbArc
 50
0.0000122543455958
 51
90.0
  0
ARC
  5
8A
100
AcDbEntity
  8
____1
370
              18
390
0
  6
Continuous
 62
               5
100
AcDbCircle
 10
867.13146621682529
 20
-227.23834071779501
 30
0.0
 40
1.0
100
AcDbArc
 50
90.0
 51
179.99998790947262
  0
LINE
  5
8B
100
AcDbEntity
  8
____1
370
              18
390
0
  6
Continuous
 62
               5
100
AcDbLine
 10
864.13146621682529
 20
-232.13834071779505
 30
0.0
 11
866.13146621682529
 21
-232.13834071779505
 31
0.0
  0
LINE
  5
8C
100
AcDbEntity
  8
____1
370
              18
390
0
  6
Continuous
 62
               5
100
AcDbLine
 10
864.63146621682529
 20
-229.23834071779501
 30
0.0
 11
864.63146621682529
 21
-232.13834071779505
 31
0.0
  0
LINE
  5
8D
100
AcDbEntity
  8
____1
370
              18
390
0
  6
Continuous
 62
               5
100
AcDbLine
 10
864.13146621682529
 20
-229.23834071779501
 30
0.0
 11
866.13146621682529
 21
-229.23834071779501
 31
0.0
  0
DIMENSION
  5
9A
100
AcDbEntity
  8
寸法線_1
370
               5
390
0
  6
Continuous
 62
               7
100
AcDbDimension
  2
*D4
 10
878.80263082643194
 20
-254.34764659290704
 30
0.0
 11
861.67406401228959
 21
-254.34764659290704
 31
0.0
 71
               5
 72
               1
 41
1.0
 42
0.0
  3
DS1
100
AcDbAlignedDimension
 13
872.46030160721864
 23
-246.23834071779498
 33
0.0
 14
878.80263082643194
 24
-246.23834071779498
 34
0.0
100
AcDbRotatedDimension
  0
MTEXT
  5
9B
100
AcDbEntity
  8
____1
370
               5
390
0
  6
Continuous
 62
               7
100
AcDbMText
 10
914.6776116941312
 20
-284.54576355198924
 30
0.0
 40
4.2333331108093262
 41
50.0
 71
               1
 72
               1
  1
受板ビス：2.4x13
  7
Style1
 73
               1
 44
1.0
  0
MTEXT
  5
9C
100
AcDbEntity
  8
____1
370
               5
390
0
  6
Continuous
 62
               7
100
AcDbMText
 10
942.52114973699042
 20
-292.74832573235983
 30
0.0
 40
4.2333331108093262
 41
14.5
 71
               1
 72
               1
  1
３０
  7
Style1
 73
               1
 44
1.0
  0
MTEXT
  5
9D
100
AcDbEntity
  8
____1
370
               5
390
0
  6
Continuous
 62
               7
100
AcDbMText
 10
929.26879466452669
 20
-299.95063930786273
 30
0.0
 40
3.5277776718139648
 41
43.655084411985797
 71
               1
 72
               1
  1
打ち込み式\Pマグネットチャッチ(角型 )
  7
Style1
 73
               1
 44
1.0
  0
LINE
  5
9E
100
AcDbEntity
  8
____1
370
              18
390
0
  6
Continuous
 62
               5
100
AcDbLine
 10
910.76841742679858
 20
-310.46614606311698
 30
0.0
 11
910.65130202661931
 21
-310.05916295074326
 31
0.0
  0
LINE
  5
9F
100
AcDbEntity
  8
____1
370
              18
390
0
  6
Continuous
 62
               5
100
AcDbLine
 10
911.18279869012542
 20
-311.90614606311698
 30
0.0
 11
913.70364594196326
 21
-311.90614606311698
 31
0.0
  0
LINE
  5
A0
100
AcDbEntity
  8
____1
370
               5
390
0
  6
Continuous
 62
               7
100
AcDbLine
 10
918.40397360885822
 20
-290.73428443662726
 30
0.0
 11
918.40397360885822
 21
-316.23428443662726
 31
0.0
  0
LINE
  5
A1
100
AcDbEntity
  8
____1
370
              18
390
0
  6
Continuous
 62
               5
100
AcDbLine
 10
910.76841742679858
 20
-310.46614606311704
 30
0.0
 11
913.70364594196326
 21
-310.46614606311704
 31
0.0
  0
LINE
  5
A2
100
AcDbEntity
  8
____1
370
              18
390
0
  6
Continuous
 62
               5
100
AcDbLine
 10
912.10364594196312
 20
-315.10614606311697
 30
0.0
 11
911.78134940382006
 21
-313.98614606311702
 31
0.0
  0
LINE
  5
A3
100
AcDbEntity
  8
____1
370
              18
390
0
  6
Continuous
 62
               5
100
AcDbLine
 10
911.36696814049287
 20
-312.54614606311696
 30
0.0
 11
913.70364594196326
 21
-312.54614606311696
 31
0.0
  0
LINE
  5
A4
100
AcDbEntity
  8
____1
370
              18
390
0
  6
Continuous
 62
               5
100
AcDbLine
 10
909.86364594196323
 20
-315.10614606311697
 30
0.0
 11
912.10364594196312
 21
-315.10614606311697
 31
0.0
  0
LINE
  5
A5
100
AcDbEntity
  8
____1
370
              18
390
0
  6
Continuous
 62
               5
100
AcDbLine
 10
913.70364594196326
 20
-312.54614606311696
 30
0.0
 11
913.70364594196326
 21
-313.98614606311702
 31
0.0
  0
LINE
  5
A6
100
AcDbEntity
  8
____1
370
              18
390
0
  6
Continuous
 62
               5
100
AcDbLine
 10
911.36696814049287
 20
-312.54614606311696
 30
0.0
 11
911.18279869012542
 21
-311.90614606311698
 31
0.0
  0
LINE
  5
A7
100
AcDbEntity
  8
____1
370
              18
390
0
  6
Continuous
 62
               5
100
AcDbLine
 10
913.70364594196326
 20
-310.46614606311704
 30
0.0
 11
913.70364594196326
 21
-311.90614606311698
 31
0.0
  0
LINE
  5
A8
100
AcDbEntity
  8
____1
370
              18
390
0
  6
Continuous
 62
               5
100
AcDbLine
 10
911.78134940382006
 20
-313.98614606311702
 30
0.0
 11
913.70364594196326
 21
-313.98614606311702
 31
0.0
  0
LINE
  5
A9
100
AcDbEntity
  8
____1
370
              18
390
0
  6
Continuous
 62
               5
100
AcDbLine
 10
910.65130202661931
 20
-310.05916295074326
 30
0.0
 11
911.30364594196317
 21
-309.10614606311697
 31
0.0
  0
LINE
  5
AA
100
AcDbEntity
  8
____1
370
               5
390
0
  6
Continuous
 62
               7
100
AcDbLine
 10
918.40397360885822
 20
-299.23428443662726
 30
0.0
 11
974.40397360885822
 21
-299.23428443662726
 31
0.0
  0
MTEXT
  5
AB
100
AcDbEntity
  8
____1
370
               5
390
0
  6
Continuous
 62
               7
100
AcDbMText
 10
919.29447306256645
 20
-308.42278471147404
 30
0.0
 40
2.75
 41
6.0
 71
               1
 72
               1
  1
図番
  7
Style1
 73
               1
 44
1.0
  0
MTEXT
  5
AC
100
AcDbEntity
  8
____1
370
               5
390
0
  6
Continuous
 62
               7
100
AcDbMText
 10
919.29447306256645
 20
-299.92278471147404
 30
0.0
 40
2.75
 41
6.0
 71
               1
 72
               1
  1
品名
  7
Style1
 73
               1
 44
1.0
  0
SPLINE
  5
AD
100
AcDbEntity
  8
____1
370
              18
390
0
  6
Continuous
 62
               5
100
AcDbSpline
210
0.0
220
0.0
230
1.0
 70
               0
 71
               3
 72
               9
 73
               5
 74
               0
 42
0.0000001
 43
0.0000001
 12
0.7352773642103068
 22
-0.6777663297036403
 32
0.0
 13
0.8572557179984813
 23
-0.5148908951990783
 33
0.0
 40
0.0
 40
0.0
 40
0.0
 40
0.0
 40
0.9999999993702069
 40
1.0
 40
1.0
 40
1.0
 40
1.0
 10
897.52965982333637
 20
-311.22152249108711
 30
0.0
 10
898.29334350602994
 20
-311.92547328825293
 30
0.0
 10
899.05702718920452
 20
-312.62942408586201
 30
0.0
 10
899.92087619045481
 20
-313.14816390741106
 30
0.0
 10
899.9208761909988
 20
-313.1481639077378
 30
0.0
  0
SPLINE
  5
AE
100
AcDbEntity
  8
____1
370
              18
390
0
  6
Continuous
 62
               5
100
AcDbSpline
210
0.0
220
0.0
230
1.0
 70
               0
 71
               3
 72
               8
 73
               4
 74
               0
 42
0.0000001
 43
0.0000001
 12
0.9524773181045301
 22
-0.3046095180660017
 32
0.0
 13
0.9790669434801577
 23
-0.2035384980401049
 33
0.0
 40
0.0
 40
0.0
 40
0.0
 40
0.0
 40
1.0
 40
1.0
 40
1.0
 40
1.0
 10
901.89668925861668
 20
-314.01521220603178
 30
0.0
 10
902.80795828753628
 20
-314.30664299860968
 30
0.0
 10
903.76880905543635
 20
-314.50639453086336
 30
0.0
 10
904.72965982333631
 20
-314.70614606311699
 30
0.0
  0
ARC
  5
AF
100
AcDbEntity
  8
____1
370
              18
390
0
  6
Continuous
 62
               5
100
AcDbCircle
 10
872.96030160721864
 20
-246.23834071779498
 30
0.0
 40
0.4999999999999926
100
AcDbArc
 50
162.07978686061008
 51
-90.0
  0
LINE
  5
B0
100
AcDbEntity
  8
____1
370
              18
390
0
  6
Continuous
 62
               5
100
AcDbLine
 10
872.96030160721864
 20
-246.73834071779498
 30
0.0
 11
878.30263082643194
 21
-246.73834071779498
 31
0.0
  0
LINE
  5
B1
100
AcDbEntity
  8
____1
370
              18
390
0
  6
Continuous
 62
               5
100
AcDbLine
 10
864.13146621682529
 20
-233.93834071779506
 30
0.0
 11
864.13146621682529
 21
-232.13834071779505
 31
0.0
  0
LINE
  5
B2
100
AcDbEntity
  8
____1
370
              18
390
0
  6
Continuous
 62
               5
100
AcDbLine
 10
864.13146621682529
 20
-233.93834071779506
 30
0.0
 11
866.13146621682529
 21
-233.93834071779506
 31
0.0
  0
ARC
  5
B3
100
AcDbEntity
  8
____1
370
              18
390
0
  6
Continuous
 62
               5
100
AcDbCircle
 10
884.13146621682529
 20
-236.73834071779501
 30
0.0
 40
1.0
210
0.0
220
0.0
230
1.0
100
AcDbArc
 50
0.0
 51
90.0
  0
LINE
  5
B4
100
AcDbEntity
  8
____1
370
              18
390
0
  6
Continuous
 62
               5
100
AcDbLine
 10
867.13146621682529
 20
-235.73834071779501
 30
0.0
 11
884.13146621682529
 21
-235.73834071779501
 31
0.0
  0
ARC
  5
B5
100
AcDbEntity
  8
____1
370
              18
390
0
  6
Continuous
 62
               5
100
AcDbCircle
 10
867.13146621682529
 20
-236.73834071779501
 30
0.0
 40
1.0
100
AcDbArc
 50
90.0
 51
180.0
  0
LINE
  5
B6
100
AcDbEntity
  8
____1
370
              18
390
0
  6
Continuous
 62
               5
100
AcDbLine
 10
885.13146621682529
 20
-227.23834050391633
 30
0.0
 11
885.13146621682529
 21
-238.73834071779498
 31
0.0
  0
LINE
  5
B7
100
AcDbEntity
  8
____1
370
              18
390
0
  6
Continuous
 62
               5
100
AcDbLine
 10
866.13146621682529
 20
-227.2383405067755
 30
0.0
 11
866.13146621682529
 21
-238.73834071779498
 31
0.0
  0
ARC
  5
B8
100
AcDbEntity
  8
____1
370
              18
390
0
  6
Continuous
 62
               5
100
AcDbCircle
 10
876.75646621682563
 20
-238.73834071779504
 30
0.0
 40
2.1249999999996589
210
0.0
220
0.0
230
1.0
100
AcDbArc
 50
-28.072486935855935
 51
0.0000000000015327
  0
ARC
  5
B9
100
AcDbEntity
  8
____1
370
              18
390
0
  6
Continuous
 62
               5
100
AcDbCircle
 10
874.50646621682472
 20
-238.73834071779507
 30
0.0
 40
2.1249999999994316
100
AcDbArc
 50
179.9999999999977
 51
-151.92751306414186
  0
ARC
  5
BA
100
AcDbEntity
  8
____1
370
              18
390
0
  6
Continuous
 62
               5
100
AcDbCircle
 10
870.75646621682529
 20
-240.73834071779498
 30
0.0
 40
2.125
100
AcDbArc
 50
-28.072486935852957
 51
28.072486935852957
  0
LINE
  5
BB
100
AcDbEntity
  8
____1
370
              18
390
0
  6
Continuous
 62
               5
100
AcDbLine
 10
866.13146621682529
 20
-238.73834071779498
 30
0.0
 11
885.13146621682529
 21
-238.73834071779498
 31
0.0
  0
ARC
  5
BC
100
AcDbEntity
  8
____1
370
              18
390
0
  6
Continuous
 62
               5
100
AcDbCircle
 10
880.5064662168254
 20
-240.73834071779498
 30
0.0
 40
2.1250000000001004
210
0.0
220
0.0
230
1.0
100
AcDbArc
 50
151.92751306414849
 51
-151.92751306414849
  0
ARC
  5
BD
100
AcDbEntity
  8
____1
370
              18
390
0
  6
Continuous
 62
               5
100
AcDbCircle
 10
876.7564662168254
 20
-242.73834071779498
 30
0.0
 40
2.1249999999998996
210
0.0
220
0.0
230
1.0
100
AcDbArc
 50
-28.0724869358544
 51
28.0724869358544
  0
ARC
  5
BE
100
AcDbEntity
  8
____1
370
              18
390
0
  6
Continuous
 62
               5
100
AcDbCircle
 10
874.50646621682529
 20
-242.73834071779498
 30
0.0
 40
2.125
100
AcDbArc
 50
151.92751306414706
 51
-151.92751306414706
  0
ARC
  5
BF
100
AcDbEntity
  8
____1
370
              18
390
0
  6
Continuous
 62
               5
100
AcDbCircle
 10
880.50646621682529
 20
-244.73834071779498
 30
0.0
 40
2.125
100
AcDbArc
 50
151.92751306414706
 51
-151.92751306414706
  0
ARC
  5
C0
100
AcDbEntity
  8
____1
370
              18
390
0
  6
Continuous
 62
               5
100
AcDbCircle
 10
878.30263082643194
 20
-246.23834071779498
 30
0.0
 40
0.4999999999999926
210
0.0
220
0.0
230
1.0
100
AcDbArc
 50
-90.0
 51
17.920213139389929
  0
ARC
  5
C1
100
AcDbEntity
  8
____1
370
              18
390
0
  6
Continuous
 62
               5
100
AcDbCircle
 10
874.50646621681426
 20
-246.73834071779041
 30
0.0
 40
2.1249999999881166
210
0.0
220
0.0
230
1.0
100
AcDbArc
 50
151.927513064116
 51
162.07978686063439
  0
ARC
  5
C2
100
AcDbEntity
  8
____1
370
              18
390
0
  6
Continuous
 62
               5
100
AcDbCircle
 10
870.7564662168254
 20
-244.73834071779498
 30
0.0
 40
2.1249999999998996
210
0.0
220
0.0
230
1.0
100
AcDbArc
 50
-28.0724869358544
 51
28.0724869358544
  0
ARC
  5
C3
100
AcDbEntity
  8
____1
370
              18
390
0
  6
Continuous
 62
               5
100
AcDbCircle
 10
876.75646621681176
 20
-246.73834071780087
 30
0.0
 40
2.1250000000147002
100
AcDbArc
 50
17.920213139430214
 51
28.072486935821271
  0
LINE
  5
C4
100
AcDbEntity
  8
____1
370
              18
390
0
  6
Continuous
 62
               5
100
AcDbLine
 10
864.13146621682529
 20
-227.438340717795
 30
0.0
 11
864.13146621682529
 21
-229.23834071779501
 31
0.0
  0
LINE
  5
C5
100
AcDbEntity
  8
____1
370
              18
390
0
  6
Continuous
 62
               5
100
AcDbLine
 10
864.13146621682529
 20
-227.438340717795
 30
0.0
 11
866.13146621682529
 21
-227.438340717795
 31
0.0
  0
LINE
  5
C6
100
AcDbEntity
  8
____1
370
              18
390
0
  6
Continuous
 62
               5
100
AcDbLine
 10
897.52965982333637
 20
-309.10614606311697
 30
0.0
 11
897.52965982333637
 21
-310.54614606311696
 31
0.0
  0
ARC
  5
C7
100
AcDbEntity
  8
____1
370
              18
390
0
  6
Continuous
 62
               5
100
AcDbCircle
 10
891.80117497485162
 20
-312.30614606311696
 30
0.0
 40
2.3999999999999773
210
0.0
220
0.0
230
1.0
100
AcDbArc
 50
-90.0
 51
0.0
  0
LINE
  5
C8
100
AcDbEntity
  8
____1
370
              18
390
0
  6
Continuous
 62
               5
100
AcDbLine
 10
892.2011749748516
 20
-310.70614606311699
 30
0.0
 11
890.60117497485157
 21
-310.70614606311699
 31
0.0
  0
LINE
  5
C9
100
AcDbEntity
  8
____1
370
              18
390
0
  6
Continuous
 62
               5
100
AcDbLine
 10
891.80117497485162
 20
-309.10614606311697
 30
0.0
 11
888.60117497485157
 21
-309.10614606311697
 31
0.0
  0
LINE
  5
CA
100
AcDbEntity
  8
____1
370
              18
390
0
  6
Continuous
 62
               5
100
AcDbLine
 10
890.60117497485157
 20
-310.30614606311696
 30
0.0
 11
891.80117497485162
 21
-309.10614606311697
 31
0.0
  0
LINE
  5
CB
100
AcDbEntity
  8
____1
370
               5
390
0
  6
Continuous
 62
               7
100
AcDbLine
 10
854.40397360885822
 20
-299.23428443662726
 30
0.0
 11
902.40397360885822
 21
-299.23428443662726
 31
0.0
  0
MTEXT
  5
CC
100
AcDbEntity
  8
____1
370
               5
390
0
  6
Continuous
 62
               7
100
AcDbMText
 10
886.8693594201352
 20
-299.93981784398409
 30
0.0
 40
2.75
 41
15.0
 71
               1
 72
               1
  1
　尺 　度
  7
Style1
 73
               1
 44
1.0
  0
MTEXT
  5
CD
100
AcDbEntity
  8
____1
370
               5
390
0
  6
Continuous
 62
               7
100
AcDbMText
 10
886.8693594201352
 20
-291.43981784398409
 30
0.0
 40
2.75
 41
15.0
 71
               1
 72
               1
  1
　板 　厚
  7
Style1
 73
               1
 44
1.0
  0
MTEXT
  5
CE
100
AcDbEntity
  8
____1
370
               5
390
0
  6
Continuous
 62
               7
100
AcDbMText
 10
870.8693594201352
 20
-291.43981784398409
 30
0.0
 40
2.75
 41
15.0
 71
               1
 72
               1
  1
　材 　質
  7
Style1
 73
               1
 44
1.0
  0
MTEXT
  5
CF
100
AcDbEntity
  8
____1
370
              18
390
0
  6
Continuous
 62
               5
100
AcDbMText
 10
886.40397360885822
 20
-304.18981784398409
 30
0.0
 40
2.75
 41
16.0
 71
               1
 72
               1
  1
1：1
  7
Style1
 73
               1
 44
1.0
  0
MTEXT
  5
D0
100
AcDbEntity
  8
____1
370
              18
390
0
  6
Continuous
 62
               5
100
AcDbMText
 10
854.40397360885822
 20
-295.68981784398409
 30
0.0
 40
2.75
 41
16.0
 71
               1
 72
               1
  1
H16.4
  7
Style1
 73
               1
 44
1.0
  0
MTEXT
  5
D1
100
AcDbEntity
  8
____1
370
               5
390
0
  6
Continuous
 62
               7
100
AcDbMText
 10
854.8693594201352
 20
-291.43981784398409
 30
0.0
 40
2.75
 41
15.0
 71
               1
 72
               1
  1
　日 　付
  7
Style1
 73
               1
 44
1.0
  0
MTEXT
  5
D2
100
AcDbEntity
  8
____1
370
               5
390
0
  6
Continuous
 62
               7
100
AcDbMText
 10
854.40397360885822
 20
-304.18981784398409
 30
0.0
 40
2.75
 41
32.0
 71
               1
 72
               1
  1
 製図　　  岸本
  7
Style1
 73
               1
 44
1.0
  0
MTEXT
  5
D3
100
AcDbEntity
  8
____1
370
               5
390
0
  6
Continuous
 62
               7
100
AcDbMText
 10
854.40397360885822
 20
-299.93981784398409
 30
0.0
 40
2.75
 41
32.0
 71
               1
 72
               1
  1
 設計　　 白須賀
  7
Style1
 73
               1
 44
1.0
  0
LINE
  5
D4
100
AcDbEntity
  8
____1
370
               5
390
0
  6
Continuous
 62
               7
100
AcDbLine
 10
888.40397360885822
 20
-303.48428443662726
 30
0.0
 11
900.40397360885822
 21
-303.48428443662726
 31
0.0
  0
LINE
  5
D5
100
AcDbEntity
  8
____1
370
               5
390
0
  6
Continuous
 62
               7
100
AcDbLine
 10
888.40397360885822
 20
-294.98428443662726
 30
0.0
 11
900.40397360885822
 21
-294.98428443662726
 31
0.0
  0
LINE
  5
D6
100
AcDbEntity
  8
____1
370
               5
390
0
  6
Continuous
 62
               7
100
AcDbLine
 10
856.40397360885822
 20
-303.48428443662726
 30
0.0
 11
884.40397360885822
 21
-303.48428443662726
 31
0.0
  0
LINE
  5
D7
100
AcDbEntity
  8
____1
370
               5
390
0
  6
Continuous
 62
               7
100
AcDbLine
 10
872.40397360885845
 20
-294.98428443662726
 30
0.0
 11
884.40397360885845
 21
-294.98428443662726
 31
0.0
  0
LINE
  5
D8
100
AcDbEntity
  8
____1
370
               5
390
0
  6
Continuous
 62
               7
100
AcDbLine
 10
856.40397360885822
 20
-294.98428443662726
 30
0.0
 11
868.40397360885822
 21
-294.98428443662726
 31
0.0
  0
LINE
  5
D9
100
AcDbEntity
  8
____1
370
               5
390
0
  6
Continuous
 62
               7
100
AcDbLine
 10
886.40397360885822
 20
-290.73428443662726
 30
0.0
 11
886.40397360885822
 21
-307.73428443662726
 31
0.0
  0
LINE
  5
DA
100
AcDbEntity
  8
____1
370
              18
390
0
  6
Continuous
 62
               5
100
AcDbLine
 10
900.72965982333631
 20
-310.96383427710202
 30
0.0
 11
900.27711148337698
 21
-311.41638261706146
 31
0.0
  0
LINE
  5
DB
100
AcDbEntity
  8
____1
370
              18
390
0
  6
Continuous
 62
               5
100
AcDbLine
 10
897.52965982333637
 20
-311.22152249108711
 30
0.0
 11
897.52965982333637
 21
-310.96383427710202
 31
0.0
  0
LINE
  5
DC
100
AcDbEntity
  8
____1
370
              18
390
0
  6
Continuous
 62
               5
100
AcDbLine
 10
887.68029192560903
 20
-310.70614606311699
 30
0.0
 11
887.68029192560903
 21
-311.90614606311698
 31
0.0
  0
SPLINE
  5
DD
100
AcDbEntity
  8
____1
370
              18
390
0
  6
Continuous
 62
               5
100
AcDbSpline
210
0.0
220
0.0
230
1.0
 70
               0
 71
               3
 72
               8
 73
               4
 74
               0
 42
0.0000001
 43
0.0000001
 12
0.6676726695720007
 22
-0.744454972652207
 32
0.0
 13
0.7413159697197984
 23
-0.6711561912389654
 33
0.0
 40
0.0
 40
0.0
 40
0.0
 40
0.0
 40
1.0
 40
1.0
 40
1.0
 40
1.0
 10
900.27711148337698
 20
-311.41638261706146
 30
0.0
 10
900.50060942522805
 20
-311.66558280417593
 30
0.0
 10
900.72410736707923
 20
-311.91478299129034
 30
0.0
 10
900.96623317163221
 20
-312.13399347564814
 30
0.0
  0
SPLINE
  5
DE
100
AcDbEntity
  8
____1
370
              18
390
0
  6
Continuous
 62
               5
100
AcDbSpline
210
0.0
220
0.0
230
1.0
 70
               0
 71
               3
 72
               8
 73
               4
 74
               0
 42
0.0000001
 43
0.0000001
 12
0.9618578240638687
 22
-0.2735498606965832
 32
0.0
 13
0.9860364361538031
 23
-0.1665297167988561
 33
0.0
 40
0.0
 40
0.0
 40
0.0
 40
0.0
 40
1.0
 40
1.0
 40
1.0
 40
1.0
 10
902.87735365717265
 20
-313.12495354564743
 30
0.0
 10
903.46916905999637
 20
-313.29326430525276
 30
0.0
 10
904.09941444166623
 20
-313.39970518418488
 30
0.0
 10
904.72965982333631
 20
-313.506146063117
 30
0.0
  0
ARC
  5
DF
100
AcDbEntity
  8
____1
370
              18
390
0
  6
Continuous
 62
               5
100
AcDbCircle
 10
898.48965982333641
 20
-310.46614606311704
 30
0.0
 40
3.039999999999933
210
0.0
220
0.0
230
1.0
100
AcDbArc
 50
-90.0
 51
-61.914095184792096
  0
LINE
  5
E0
100
AcDbEntity
  8
____1
370
              18
390
0
  6
Continuous
 62
               5
100
AcDbLine
 10
897.52965982333637
 20
-313.506146063117
 30
0.0
 11
897.52965982333637
 21
-314.70614606311699
 31
0.0
  0
LINE
  5
E1
100
AcDbEntity
  8
____1
370
              18
390
0
  6
Continuous
 62
               5
100
AcDbLine
 10
897.52965982333637
 20
-313.506146063117
 30
0.0
 11
898.48965982333641
 21
-313.506146063117
 31
0.0
  0
LINE
  5
E2
100
AcDbEntity
  8
____1
370
              18
390
0
  6
Continuous
 62
               5
100
AcDbLine
 10
903.92965982333635
 20
-310.30614606311696
 30
0.0
 11
904.72965982333631
 21
-309.10614606311697
 31
0.0
  0
LINE
  5
E3
100
AcDbEntity
  8
____1
370
              18
390
0
  6
Continuous
 62
               5
100
AcDbLine
 10
888.60117497485157
 20
-314.70614606311699
 30
0.0
 11
891.80117497485162
 21
-314.70614606311699
 31
0.0
  0
LINE
  5
E4
100
AcDbEntity
  8
____1
370
              18
390
0
  6
Continuous
 62
               5
100
AcDbLine
 10
897.52965982333637
 20
-314.70614606311699
 30
0.0
 11
899.52965982333649
 21
-314.70614606311699
 31
0.0
  0
ARC
  5
E5
100
AcDbEntity
  8
____1
370
              18
390
0
  6
Continuous
 62
               5
100
AcDbCircle
 10
898.48965982333641
 20
-310.46614606311704
 30
0.0
 40
3.0399999999998646
210
0.0
220
0.0
230
1.0
100
AcDbArc
 50
-28.600718616740252
 51
-1.5079577542375149
  0
LINE
  5
E6
100
AcDbEntity
  8
____1
370
              18
390
0
  6
Continuous
 62
               5
100
AcDbLine
 10
894.2011749748516
 20
-311.90614606311698
 30
0.0
 11
895.40117497485164
 21
-311.90614606311698
 31
0.0
  0
ARC
  5
E7
100
AcDbEntity
  8
____1
370
              18
390
0
  6
Continuous
 62
               5
100
AcDbCircle
 10
899.52965982333637
 20
-310.30614606311696
 30
0.0
 40
4.4000000000000465
210
0.0
220
0.0
230
1.0
100
AcDbArc
 50
-90.0
 51
-57.455041145955242
  0
LINE
  5
E8
100
AcDbEntity
  8
____1
370
              18
390
0
  6
Continuous
 62
               5
100
AcDbLine
 10
887.68029192560903
 20
-311.90614606311698
 30
0.0
 11
888.48029192560909
 21
-311.90614606311698
 31
0.0
  0
LINE
  5
E9
100
AcDbEntity
  8
____1
370
              18
390
0
  6
Continuous
 62
               5
100
AcDbLine
 10
895.40117497485164
 20
-310.70614606311699
 30
0.0
 11
894.2011749748516
 21
-310.70614606311699
 31
0.0
  0
LINE
  5
EA
100
AcDbEntity
  8
____1
370
              18
390
0
  6
Continuous
 62
               5
100
AcDbLine
 10
894.2011749748516
 20
-310.70614606311699
 30
0.0
 11
894.2011749748516
 21
-310.30614606311696
 31
0.0
  0
LINE
  5
EB
100
AcDbEntity
  8
____1
370
              18
390
0
  6
Continuous
 62
               5
100
AcDbLine
 10
892.2011749748516
 20
-311.90614606311698
 30
0.0
 11
892.2011749748516
 21
-312.30614606311696
 31
0.0
  0
LINE
  5
EC
100
AcDbEntity
  8
____1
370
              18
390
0
  6
Continuous
 62
               5
100
AcDbLine
 10
890.60117497485157
 20
-311.90614606311698
 30
0.0
 11
892.2011749748516
 21
-311.90614606311698
 31
0.0
  0
LINE
  5
ED
100
AcDbEntity
  8
____1
370
              18
390
0
  6
Continuous
 62
               5
100
AcDbLine
 10
895.40117497485164
 20
-310.70614606311699
 30
0.0
 11
895.40117497485164
 21
-311.90614606311698
 31
0.0
  0
LINE
  5
EE
100
AcDbEntity
  8
____1
370
              18
390
0
  6
Continuous
 62
               5
100
AcDbLine
 10
890.60117497485157
 20
-310.70614606311699
 30
0.0
 11
890.60117497485157
 21
-310.30614606311696
 31
0.0
  0
LINE
  5
EF
100
AcDbEntity
  8
____1
370
              18
390
0
  6
Continuous
 62
               5
100
AcDbLine
 10
897.52965982333637
 20
-314.70614606311699
 30
0.0
 11
897.52965982333637
 21
-313.506146063117
 31
0.0
  0
LINE
  5
F0
100
AcDbEntity
  8
____1
370
              18
390
0
  6
Continuous
 62
               5
100
AcDbLine
 10
888.60117497485157
 20
-310.70614606311699
 30
0.0
 11
887.68029192560903
 21
-310.70614606311699
 31
0.0
  0
LINE
  5
F1
100
AcDbEntity
  8
____1
370
              18
390
0
  6
Continuous
 62
               5
100
AcDbLine
 10
904.72965982333631
 20
-313.506146063117
 30
0.0
 11
904.72965982333631
 21
-314.70614606311699
 31
0.0
  0
LINE
  5
F2
100
AcDbEntity
  8
____1
370
              18
390
0
  6
Continuous
 62
               5
100
AcDbLine
 10
888.60117497485157
 20
-311.90614606311698
 30
0.0
 11
888.48029192560909
 21
-311.90614606311698
 31
0.0
  0
LINE
  5
F3
100
AcDbEntity
  8
____1
370
              18
390
0
  6
Continuous
 62
               5
100
AcDbLine
 10
888.60117497485157
 20
-313.506146063117
 30
0.0
 11
888.60117497485157
 21
-314.70614606311699
 31
0.0
  0
LINE
  5
F4
100
AcDbEntity
  8
____1
370
              18
390
0
  6
Continuous
 62
               5
100
AcDbLine
 10
891.00117497485166
 20
-313.506146063117
 30
0.0
 11
888.60117497485157
 21
-313.506146063117
 31
0.0
  0
LINE
  5
F5
100
AcDbEntity
  8
____1
370
              18
390
0
  6
Continuous
 62
               5
100
AcDbLine
 10
897.52965982333637
 20
-310.54614606311696
 30
0.0
 11
901.52965982333637
 21
-310.54614606311696
 31
0.0
  0
LINE
  5
F6
100
AcDbEntity
  8
____1
370
              18
390
0
  6
Continuous
 62
               5
100
AcDbLine
 10
890.60117497485157
 20
-313.10614606311697
 30
0.0
 11
890.60117497485157
 21
-311.90614606311698
 31
0.0
  0
LINE
  5
F7
100
AcDbEntity
  8
____1
370
              18
390
0
  6
Continuous
 62
               5
100
AcDbLine
 10
895.40117497485164
 20
-309.10614606311697
 30
0.0
 11
892.2011749748516
 21
-309.10614606311697
 31
0.0
  0
LINE
  5
F8
100
AcDbEntity
  8
____1
370
              18
390
0
  6
Continuous
 62
               5
100
AcDbLine
 10
791.3885682483276
 20
-186.61531592106181
 30
0.0
 11
791.3885682483276
 21
-169.61531592106181
 31
0.0
  0
ARC
  5
F9
100
AcDbEntity
  8
____1
370
              18
390
0
  6
Continuous
 62
               5
100
AcDbCircle
 10
790.3885682483276
 20
-186.61531592106181
 30
0.0
 40
1.0
210
0.0
220
0.0
230
1.0
100
AcDbArc
 50
-90.0
 51
0.0
  0
LINE
  5
FA
100
AcDbEntity
  8
____1
370
              18
390
0
  6
Continuous
 62
               5
100
AcDbLine
 10
789.6385682483276
 20
-189.61531592106192
 30
0.0
 11
789.6385682483276
 21
-187.61531592106181
 31
0.0
  0
LINE
  5
FB
100
AcDbEntity
  8
____1
370
               5
390
0
  6
CENTER2
 62
               3
100
AcDbLine
 10
779.63856824832703
 20
-165.61531592106181
 30
0.0
 11
779.63856824832772
 21
-192.61531592106218
 31
0.0
  0
ARC
  5
FC
100
AcDbEntity
  8
____1
370
              18
390
0
  6
Continuous
 62
               5
100
AcDbCircle
 10
798.3885682483276
 20
-186.61531592106181
 30
0.0
 40
1.0
210
0.0
220
0.0
230
1.0
100
AcDbArc
 50
-90.00001011355566
 51
0.0000000000016284
  0
ARC
  5
FD
100
AcDbEntity
  8
____1
370
              18
390
0
  6
Continuous
 62
               5
100
AcDbCircle
 10
798.38856824832715
 20
-169.61531592106181
 30
0.0
 40
0.999999999999995
210
0.0
220
0.0
230
1.0
100
AcDbArc
 50
0.0000000000016284
 51
89.999987603619886
  0
LINE
  5
FE
100
AcDbEntity
  8
____1
370
              18
390
0
  6
Continuous
 62
               5
100
AcDbLine
 10
799.3885682483276
 20
-186.61531592106178
 30
0.0
 11
799.38856824832715
 21
-169.61531592106178
 31
0.0
  0
MTEXT
  5
FF
100
AcDbEntity
  8
____1
370
               5
390
0
  6
Continuous
 62
               7
100
AcDbMText
 10
854.6776116941312
 20
-284.54576355198924
 30
0.0
 40
4.2333331108093262
 41
30.0
 71
               1
 72
               1
  1
色：白・茶
  7
Style1
 73
               1
 44
1.0
  0
ARC
  5
100
100
AcDbEntity
  8
____1
370
              18
390
0
  6
Continuous
 62
               5
100
AcDbCircle
 10
899.52965982333637
 20
-310.30614606311696
 30
0.0
 40
4.3999999999999773
210
0.0
220
0.0
230
1.0
100
AcDbArc
 50
-37.512388020300733
 51
0.0
  0
LINE
  5
101
100
AcDbEntity
  8
____1
370
              18
390
0
  6
Continuous
 62
               5
100
AcDbLine
 10
904.72965982333631
 20
-309.10614606311697
 30
0.0
 11
897.52965982333637
 21
-309.10614606311697
 31
0.0
  0
LINE
  5
102
100
AcDbEntity
  8
____1
370
              18
390
0
  6
Continuous
 62
               5
100
AcDbLine
 10
888.60117497485157
 20
-313.10614606311697
 30
0.0
 11
890.60117497485157
 21
-313.10614606311697
 31
0.0
  0
LINE
  5
103
100
AcDbEntity
  8
____1
370
              18
390
0
  6
Continuous
 62
               5
100
AcDbLine
 10
894.2011749748516
 20
-310.30614606311696
 30
0.0
 11
895.40117497485164
 21
-309.10614606311697
 31
0.0
  0
LINE
  5
104
100
AcDbEntity
  8
____1
370
              18
390
0
  6
Continuous
 62
               5
100
AcDbLine
 10
903.92965982333635
 20
-310.30614606311696
 30
0.0
 11
904.72965982333631
 21
-309.10614606311697
 31
0.0
  0
LINE
  5
105
100
AcDbEntity
  8
____1
370
              18
390
0
  6
Continuous
 62
               5
100
AcDbLine
 10
892.2011749748516
 20
-309.10614606311697
 30
0.0
 11
892.2011749748516
 21
-310.70614606311699
 31
0.0
  0
ARC
  5
106
100
AcDbEntity
  8
____1
370
              18
390
0
  6
Continuous
 62
               5
100
AcDbCircle
 10
891.00117497485166
 20
-312.30614606311696
 30
0.0
 40
1.1999999999999318
210
0.0
220
0.0
230
0.9999999999999999
100
AcDbArc
 50
-90.0
 51
0.0
  0
LINE
  5
107
100
AcDbEntity
  8
____1
370
              18
390
0
  6
Continuous
 62
               5
100
AcDbLine
 10
901.15870981668547
 20
-311.92140278720495
 30
0.0
 11
900.96623317163221
 21
-312.13399347564808
 31
0.0
  0
LINE
  5
108
100
AcDbEntity
  8
____1
370
              18
390
0
  6
Continuous
 62
               5
100
AcDbLine
 10
897.52965982333637
 20
-310.96383427710202
 30
0.0
 11
900.72965982333631
 21
-310.96383427710202
 31
0.0
  0
LINE
  5
109
100
AcDbEntity
  8
____1
370
              18
390
0
  6
Continuous
 62
               5
100
AcDbLine
 10
894.2011749748516
 20
-312.30614606311696
 30
0.0
 11
894.2011749748516
 21
-311.90614606311698
 31
0.0
  0
LINE
  5
10A
100
AcDbEntity
  8
____1
370
               5
390
0
  6
Continuous
 62
               7
100
AcDbLine
 10
902.40397360885822
 20
-290.73428443662726
 30
0.0
 11
902.40397360885822
 21
-307.73428443662726
 31
0.0
  0
LINE
  5
10B
100
AcDbEntity
  8
____1
370
               5
390
0
  6
Continuous
 62
               7
100
AcDbLine
 10
870.40397360885822
 20
-290.73428443662726
 30
0.0
 11
870.40397360885822
 21
-299.23428443662726
 31
0.0
  0
LINE
  5
10C
100
AcDbEntity
  8
____1
370
               5
390
0
  6
Continuous
 62
               7
100
AcDbLine
 10
854.40397360885822
 20
-290.73428443662726
 30
0.0
 11
854.40397360885822
 21
-316.23428443662726
 31
0.0
  0
LINE
  5
10D
100
AcDbEntity
  8
____1
370
              18
390
0
  6
Continuous
 62
               5
100
AcDbLine
 10
888.60117497485157
 20
-309.10614606311697
 30
0.0
 11
888.60117497485157
 21
-310.70614606311699
 31
0.0
  0
MTEXT
  5
10E
100
AcDbEntity
  8
____1
370
               5
390
0
  6
Continuous
 62
               7
100
AcDbMText
 10
861.62452733364103
 20
-309.42761776996059
 30
0.0
 40
5.0799999237060547
 41
24.996311053240746
 71
               1
 72
               1
  1
株式会社
  7
Style1
 73
               1
 44
1.0
  0
LINE
  5
10F
100
AcDbEntity
  8
____1
370
              18
390
0
  6
Continuous
 62
               5
100
AcDbLine
 10
888.60117497485157
 20
-311.90614606311698
 30
0.0
 11
888.60117497485157
 21
-313.10614606311697
 31
0.0
  0
LINE
  5
110
100
AcDbEntity
  8
____1
370
              18
390
0
  6
Continuous
 62
               5
100
AcDbLine
 10
903.0198353050065
 20
-312.98545103029591
 30
0.0
 11
902.87735365717265
 21
-313.12495354564743
 31
0.0
  0
LINE
  5
111
100
AcDbEntity
  8
____1
370
              18
390
0
  6
Continuous
 62
               5
100
AcDbLine
 10
798.38856824832772
 20
-235.73834071779501
 30
0.0
 11
791.85065049876971
 21
-235.73834071779501
 31
0.0
  0
ARC
  5
112
100
AcDbEntity
  8
____1
370
              18
390
0
  6
Continuous
 62
               5
100
AcDbCircle
 10
793.51356824832828
 20
-246.73834071779473
 30
0.0
 40
2.1250000000004796
210
0.0
220
0.0
230
1.0
100
AcDbArc
 50
151.92751306416179
 51
162.07978686061978
  0
ARC
  5
113
100
AcDbEntity
  8
____1
370
              18
390
0
  6
Continuous
 62
               5
100
AcDbCircle
 10
799.5135682483276
 20
-244.73834071779498
 30
0.0
 40
2.125
100
AcDbArc
 50
151.92751306414706
 51
-151.92751306414706
  0
ARC
  5
114
100
AcDbEntity
  8
____1
370
              18
390
0
  6
Continuous
 62
               5
100
AcDbCircle
 10
789.7635682483276
 20
-244.73834071779498
 30
0.0
 40
2.125
210
0.0
220
0.0
230
1.0
100
AcDbArc
 50
-28.072486935852957
 51
28.072486935852957
  0
ARC
  5
115
100
AcDbEntity
  8
____1
370
              18
390
0
  6
Continuous
 62
               5
100
AcDbCircle
 10
795.76356824832612
 20
-246.73834071779635
 30
0.0
 40
2.1250000000019518
100
AcDbArc
 50
17.920213139413313
 51
28.07248693586666
  0
LINE
  5
116
100
AcDbEntity
  8
____1
370
              18
390
0
  6
Continuous
 62
               5
100
AcDbLine
 10
791.96740363872095
 20
-246.73834071779498
 30
0.0
 11
797.30973285793425
 21
-246.73834071779498
 31
0.0
  0
ARC
  5
117
100
AcDbEntity
  8
____1
370
              18
390
0
  6
Continuous
 62
               5
100
AcDbCircle
 10
791.96740363872095
 20
-246.23834071779498
 30
0.0
 40
0.4999999999998844
100
AcDbArc
 50
162.07978686060608
 51
-90.0
  0
ARC
  5
118
100
AcDbEntity
  8
____1
370
              18
390
0
  6
Continuous
 62
               5
100
AcDbCircle
 10
797.30973285793425
 20
-246.23834071779498
 30
0.0
 40
0.5000000000001007
210
0.0
220
0.0
230
1.0
100
AcDbArc
 50
-90.0
 51
17.920213139385922
  0
LINE
  5
119
100
AcDbEntity
  8
____1
370
               5
390
0
  6
CENTER2
 62
               3
100
AcDbLine
 10
794.63856834022897
 20
-236.73834071779501
 30
0.0
 11
794.63856834022931
 21
-248.73834071779504
 31
0.0
  0
LINE
  5
11A
100
AcDbEntity
  8
____1
370
              18
390
0
  6
Continuous
 62
               5
100
AcDbLine
 10
790.71130226263654
 20
-227.15963823237499
 30
0.0
 11
791.35220123337217
 21
-235.27769186169127
 31
0.0
  0
ARC
  5
11B
100
AcDbEntity
  8
____1
370
              18
390
0
  6
Continuous
 62
               5
100
AcDbCircle
 10
791.85065031549993
 20
-235.23834071779501
 30
0.0
 40
0.5000000000000051
210
0.0
220
0.0
230
1.0
100
AcDbArc
 50
-175.48602290045221
 51
-89.999978998830613
  0
ARC
  5
11C
100
AcDbEntity
  8
____1
370
              18
390
0
  6
Continuous
 62
               5
100
AcDbCircle
 10
793.51356824833113
 20
-238.7383407177941
 30
0.0
 40
2.1250000000035243
100
AcDbArc
 50
-179.99999999997627
 51
-151.9275130641708
  0
ARC
  5
11D
100
AcDbEntity
  8
____1
370
              18
390
0
  6
Continuous
 62
               5
100
AcDbCircle
 10
789.7635682483276
 20
-240.73834071779498
 30
0.0
 40
2.125
100
AcDbArc
 50
-28.072486935852957
 51
28.072486935852957
  0
ARC
  5
11E
100
AcDbEntity
  8
____1
370
              18
390
0
  6
Continuous
 62
               5
100
AcDbCircle
 10
795.76356824833124
 20
-238.73834071779592
 30
0.0
 40
2.124999999996362
210
0.0
220
0.0
230
0.9999999999999999
100
AcDbArc
 50
-28.072486935876803
 51
0.0000000000252888
  0
LINE
  5
11F
100
AcDbEntity
  8
____1
370
              18
390
0
  6
Continuous
 62
               5
100
AcDbLine
 10
789.6385682483276
 20
-227.438340717795
 30
0.0
 11
789.6385682483276
 21
-233.93834071779506
 31
0.0
  0
ARC
  5
120
100
AcDbEntity
  8
____1
370
              18
390
0
  6
Continuous
 62
               5
100
AcDbCircle
 10
795.7635682483276
 20
-242.73834071779498
 30
0.0
 40
2.125
210
0.0
220
0.0
230
1.0
100
AcDbArc
 50
-28.072486935852957
 51
28.072486935852957
  0
ARC
  5
121
100
AcDbEntity
  8
____1
370
              18
390
0
  6
Continuous
 62
               5
100
AcDbCircle
 10
793.5135682483276
 20
-242.73834071779498
 30
0.0
 40
2.125
100
AcDbArc
 50
151.92751306414706
 51
-151.92751306414706
  0
ARC
  5
122
100
AcDbEntity
  8
____1
370
              18
390
0
  6
Continuous
 62
               5
100
AcDbCircle
 10
799.5135682483276
 20
-240.73834071779498
 30
0.0
 40
2.125
210
0.0
220
0.0
230
1.0
100
AcDbArc
 50
151.92751306414706
 51
-151.92751306414706
  0
ARC
  5
123
100
AcDbEntity
  8
____1
370
              18
390
0
  6
Continuous
 62
               5
100
AcDbCircle
 10
789.71440411398316
 20
-227.23834071779501
 30
0.0
 40
1.0
210
0.0
220
0.0
230
1.0
100
AcDbArc
 50
4.5139884580024585
 51
90.0
  0
DIMENSION
  5
133
100
AcDbEntity
  8
寸法線_1
370
               5
390
0
  6
Continuous
 62
               7
100
AcDbDimension
  2
*D5
 10
809.38856824832772
 20
-246.73834071779498
 30
0.0
 11
809.38856824832772
 21
-242.73834071779498
 31
0.0
 71
               5
 72
               1
 41
1.0
 42
0.0
  3
DS1
100
AcDbAlignedDimension
 13
799.38856824832772
 23
-238.73834071779498
 33
0.0
 14
797.30973285793436
 24
-246.73834071779498
 34
0.0
 50
90.0
100
AcDbRotatedDimension
  0
DIMENSION
  5
143
100
AcDbEntity
  8
寸法線_1
370
               5
390
0
  6
Continuous
 62
               7
100
AcDbDimension
  2
*D6
 10
809.38856824832772
 20
-238.73834071779498
 30
0.0
 11
809.38856824832772
 21
-232.48834071779501
 31
0.0
 71
               5
 72
               1
 41
1.0
 42
0.0
  3
DS1
100
AcDbAlignedDimension
 13
789.71440429778511
 23
-226.23834071779501
 33
0.0
 14
799.38856824832772
 24
-238.73834071779498
 34
0.0
 50
90.0
100
AcDbRotatedDimension
  0
ARC
  5
144
100
AcDbEntity
  8
____1
370
              18
390
0
  6
Continuous
 62
               5
100
AcDbCircle
 10
760.8885682483276
 20
-186.61531592106181
 30
0.0
 40
1.0
100
AcDbArc
 50
-179.99999999999838
 51
-89.999990855928701
  0
ARC
  5
145
100
AcDbEntity
  8
____1
370
              18
390
0
  6
Continuous
 62
               5
100
AcDbCircle
 10
760.88856824832715
 20
-169.61531592106181
 30
0.0
 40
0.9999999999999855
100
AcDbArc
 50
89.99999045337735
 51
-179.99999999999838
  0
LINE
  5
146
100
AcDbEntity
  8
____1
370
              18
390
0
  6
Continuous
 62
               5
100
AcDbLine
 10
759.8885682483276
 20
-186.61531592106184
 30
0.0
 11
759.88856824832715
 21
-169.61531592106184
 31
0.0
  0
ARC
  5
147
100
AcDbEntity
  8
____1
370
              18
390
0
  6
Continuous
 62
               5
100
AcDbCircle
 10
790.3885682483276
 20
-169.61531592106181
 30
0.0
 40
1.0
210
0.0
220
0.0
230
1.0
100
AcDbArc
 50
0.0
 51
90.0
  0
LINE
  5
148
100
AcDbEntity
  8
____1
370
               5
390
0
  6
Continuous
 62
               7
100
AcDbLine
 10
902.40397360885822
 20
-294.98428443662726
 30
0.0
 11
918.40397360885822
 21
-294.98428443662726
 31
0.0
  0
MTEXT
  5
149
100
AcDbEntity
  8
____1
370
               5
390
0
  6
Continuous
 62
               7
100
AcDbMText
 10
902.8693594201352
 20
-291.43981784398409
 30
0.0
 40
2.75
 41
15.0
 71
               1
 72
               1
  1
　検 　印
  7
Style1
 73
               1
 44
1.0
  0
LINE
  5
14A
100
AcDbEntity
  8
____1
370
              18
390
0
  6
Continuous
 62
               5
100
AcDbLine
 10
909.86364594196323
 20
-315.10614606311697
 30
0.0
 11
909.5351126086299
 21
-313.98614606311702
 31
0.0
  0
MTEXT
  5
14B
100
AcDbEntity
  8
____1
370
               5
390
0
  6
Continuous
 62
               7
100
AcDbMText
 10
894.40397360885822
 20
-136.96075577201179
 30
0.0
 40
3.5277776718139648
 41
20.0
 71
               1
 72
               1
  1
H23.10.12
  7
Style1
 73
               1
 44
1.0
  0
LINE
  5
14C
100
AcDbEntity
  8
____1
370
               5
390
0
  6
CENTER2
 62
               3
100
AcDbLine
 10
884.40397360885822
 20
-206.2863595779221
 30
0.0
 11
974.40397360885822
 21
-206.2863595779221
 31
0.0
  0
LINE
  5
14D
100
AcDbEntity
  8
____1
370
               5
390
0
  6
CENTER2
 62
               3
100
AcDbLine
 10
909.51439948477014
 20
-187.80816626806541
 30
0.0
 11
938.01439948477014
 21
-187.80816626806541
 31
0.0
  0
MTEXT
  5
14E
100
AcDbEntity
  8
____1
370
               5
390
0
  6
Continuous
 62
               7
100
AcDbMText
 10
899.67804609283871
 20
-160.07607819844202
 30
0.0
 40
3.5277776718139648
 41
15.0
 71
               1
 72
               1
  1
受板ｘ1
  7
Style1
 73
               1
 44
1.0
  0
LINE
  5
14F
100
AcDbEntity
  8
____1
370
              18
390
0
  6
Continuous
 62
               5
100
AcDbLine
 10
884.40397360885822
 20
-136.23428443662726
 30
0.0
 11
974.40397360885822
 21
-136.23428443662726
 31
0.0
  0
LINE
  5
150
100
AcDbEntity
  8
____1
370
              18
390
0
  6
Continuous
 62
               5
100
AcDbLine
 10
884.40397360885822
 20
-131.23428443662726
 30
0.0
 11
974.40397360885822
 21
-131.23428443662726
 31
0.0
  0
LINE
  5
151
100
AcDbEntity
  8
____1
370
              18
390
0
  6
Continuous
 62
               5
100
AcDbLine
 10
884.40397360885822
 20
-141.23428443662726
 30
0.0
 11
974.40397360885822
 21
-141.23428443662726
 31
0.0
  0
MTEXT
  5
152
100
AcDbEntity
  8
____1
370
               5
390
0
  6
Continuous
 62
               7
100
AcDbMText
 10
894.40397360885822
 20
-126.99618027267468
 30
0.0
 40
3.5277776718139648
 41
20.0
 71
               1
 72
               1
  1
改訂日
  7
Style1
 73
               1
 44
1.0
  0
MTEXT
  5
153
100
AcDbEntity
  8
____1
370
               5
390
0
  6
Continuous
 62
               7
100
AcDbMText
 10
894.40397360885822
 20
-131.96075577201179
 30
0.0
 40
3.5277776718139648
 41
20.0
 71
               1
 72
               1
  1
H16.12.10
  7
Style1
 73
               1
 44
1.0
  0
LINE
  5
154
100
AcDbEntity
  8
____1
370
               5
390
0
  6
CENTER2
 62
               3
100
AcDbLine
 10
884.40397360885822
 20
-151.28635957792204
 30
0.0
 11
974.40397360885822
 21
-151.28635957792204
 31
0.0
  0
ARC
  5
155
100
AcDbEntity
  8
____1
370
              18
390
0
  6
Continuous
 62
               5
100
AcDbCircle
 10
763.51356824832851
 20
-246.73834071779484
 30
0.0
 40
2.125000000000731
210
0.0
220
0.0
230
1.0
100
AcDbArc
 50
151.92751306416196
 51
162.07978686061875
  0
ARC
  5
156
100
AcDbEntity
  8
____1
370
              18
390
0
  6
Continuous
 62
               5
100
AcDbCircle
 10
759.7635682483276
 20
-244.73834071779498
 30
0.0
 40
2.125
210
0.0
220
0.0
230
1.0
100
AcDbArc
 50
-28.072486935852957
 51
28.072486935852957
  0
ARC
  5
157
100
AcDbEntity
  8
____1
370
              18
390
0
  6
Continuous
 62
               5
100
AcDbCircle
 10
761.96740363872095
 20
-246.23834071779498
 30
0.0
 40
0.4999999999998844
100
AcDbArc
 50
162.07978686060608
 51
-90.0
  0
LINE
  5
158
100
AcDbEntity
  8
____1
370
               5
390
0
  6
CENTER2
 62
               3
100
AcDbLine
 10
764.63856834022897
 20
-236.73834071779498
 30
0.0
 11
764.63856834022931
 21
-248.73834071779504
 31
0.0
  0
ARC
  5
159
100
AcDbEntity
  8
____1
370
              18
390
0
  6
Continuous
 62
               5
100
AcDbCircle
 10
759.7635682483276
 20
-240.73834071779498
 30
0.0
 40
2.125
100
AcDbArc
 50
-28.072486935852957
 51
28.072486935852957
  0
ARC
  5
15A
100
AcDbEntity
  8
____1
370
              18
390
0
  6
Continuous
 62
               5
100
AcDbCircle
 10
763.51356824833113
 20
-238.7383407177941
 30
0.0
 40
2.1250000000035243
100
AcDbArc
 50
-179.99999999997627
 51
-151.9275130641708
  0
ARC
  5
15B
100
AcDbEntity
  8
____1
370
              18
390
0
  6
Continuous
 62
               5
100
AcDbCircle
 10
763.5135682483276
 20
-242.73834071779498
 30
0.0
 40
2.125
100
AcDbArc
 50
151.92751306414706
 51
-151.92751306414706
  0
ARC
  5
15C
100
AcDbEntity
  8
____1
370
              18
390
0
  6
Continuous
 62
               5
100
AcDbCircle
 10
760.88856824832772
 20
-236.73834071779501
 30
0.0
 40
1.0
100
AcDbArc
 50
90.0
 51
180.0
  0
LINE
  5
15D
100
AcDbEntity
  8
____1
370
              18
390
0
  6
Continuous
 62
               5
100
AcDbLine
 10
759.88856824832772
 20
-236.73834071779501
 30
0.0
 11
759.88856824832772
 21
-238.73834071779498
 31
0.0
  0
DIMENSION
  5
16D
100
AcDbEntity
  8
寸法線_1
370
               5
390
0
  6
Continuous
 62
               7
100
AcDbDimension
  2
*D7
 10
749.88856824832772
 20
-235.73834071779504
 30
0.0
 11
749.88856824832772
 21
-237.23834071779501
 31
0.0
 71
               5
 72
               1
 41
1.0
 42
0.0
  3
DS1
100
AcDbAlignedDimension
 13
759.88856824832772
 23
-238.73834071779498
 33
0.0
 14
760.3885684406639
 24
-235.73834071779504
 34
0.0
 50
90.0
100
AcDbRotatedDimension
  0
ARC
  5
16E
100
AcDbEntity
  8
____1
370
              18
390
0
  6
Continuous
 62
               5
100
AcDbCircle
 10
798.38856824832772
 20
-236.73834071779501
 30
0.0
 40
1.0
210
0.0
220
0.0
230
1.0
100
AcDbArc
 50
0.0
 51
90.0
  0
LINE
  5
16F
100
AcDbEntity
  8
____1
370
              18
390
0
  6
Continuous
 62
               5
100
AcDbLine
 10
799.38856824832772
 20
-236.73834071779501
 30
0.0
 11
799.38856824832772
 21
-238.73834071779498
 31
0.0
  0
DIMENSION
  5
17C
100
AcDbEntity
  8
寸法線_1
370
               5
390
0
  6
Continuous
 62
               7
100
AcDbDimension
  2
*D8
 10
764.63856834022931
 20
-258.73834071779504
 30
0.0
 11
779.63856834022931
 21
-258.73834071779504
 31
0.0
 71
               5
 72
               1
 41
1.0
 42
0.0
  3
DS1
100
AcDbAlignedDimension
 13
794.63856834022931
 23
-248.73834071779504
 33
0.0
 14
764.63856834022931
 24
-248.73834071779504
 34
0.0
 50
180.0
100
AcDbRotatedDimension
  0
LINE
  5
17D
100
AcDbEntity
  8
____1
370
              18
390
0
  6
Continuous
 62
               5
100
AcDbLine
 10
769.6385682483276
 20
-227.438340717795
 30
0.0
 11
769.6385682483276
 21
-233.93834071779506
 31
0.0
  0
LINE
  5
17E
100
AcDbEntity
  8
____1
370
              18
390
0
  6
Continuous
 62
               5
100
AcDbLine
 10
789.6385682483276
 20
-233.93834071779506
 30
0.0
 11
769.6385682483276
 21
-233.93834071779506
 31
0.0
  0
LINE
  5
17F
100
AcDbEntity
  8
____1
370
              18
390
0
  6
Continuous
 62
               5
100
AcDbLine
 10
789.71440411398316
 20
-226.23834071779501
 30
0.0
 11
769.56273238267227
 21
-226.23834071779501
 31
0.0
  0
LINE
  5
180
100
AcDbEntity
  8
____1
370
              18
390
0
  6
Continuous
 62
               5
100
AcDbLine
 10
789.6385682483276
 20
-232.13834071779505
 30
0.0
 11
769.6385682483276
 21
-232.13834071779505
 31
0.0
  0
LINE
  5
181
100
AcDbEntity
  8
____1
370
              18
390
0
  6
Continuous
 62
               5
100
AcDbLine
 10
789.6385682483276
 20
-229.23834071779501
 30
0.0
 11
769.6385682483276
 21
-229.23834071779501
 31
0.0
  0
LINE
  5
182
100
AcDbEntity
  8
____1
370
              18
390
0
  6
Continuous
 62
               5
100
AcDbLine
 10
789.6385682483276
 20
-227.438340717795
 30
0.0
 11
769.6385682483276
 21
-227.438340717795
 31
0.0
  0
LINE
  5
183
100
AcDbEntity
  8
____1
370
              18
390
0
  6
Continuous
 62
               5
100
AcDbLine
 10
767.8885682483276
 20
-186.61531592106181
 30
0.0
 11
767.8885682483276
 21
-169.61531592106181
 31
0.0
  0
ARC
  5
184
100
AcDbEntity
  8
____1
370
              18
390
0
  6
Continuous
 62
               5
100
AcDbCircle
 10
768.8885682483276
 20
-186.61531592106181
 30
0.0
 40
1.0
100
AcDbArc
 50
180.0
 51
-90.0
  0
ARC
  5
185
100
AcDbEntity
  8
____1
370
              18
390
0
  6
Continuous
 62
               5
100
AcDbCircle
 10
768.8885682483276
 20
-169.61531592106181
 30
0.0
 40
1.0
100
AcDbArc
 50
90.0
 51
180.0
  0
LINE
  5
186
100
AcDbEntity
  8
____1
370
              18
390
0
  6
Continuous
 62
               5
100
AcDbLine
 10
760.88856841494714
 20
-168.61531592106181
 30
0.0
 11
798.38856846468479
 21
-168.61531592106181
 31
0.0
  0
LINE
  5
187
100
AcDbEntity
  8
____1
370
              18
390
0
  6
Continuous
 62
               5
100
AcDbLine
 10
760.88856840792175
 20
-187.61531592106181
 30
0.0
 11
798.38856807181276
 21
-187.61531592106181
 31
0.0
  0
LINE
  5
188
100
AcDbEntity
  8
____1
370
              18
390
0
  6
Continuous
 62
               5
100
AcDbLine
 10
789.6385682483276
 20
-189.61531592106192
 30
0.0
 11
769.6385682483276
 21
-189.61531592106249
 31
0.0
  0
LINE
  5
189
100
AcDbEntity
  8
____1
370
              18
390
0
  6
Continuous
 62
               5
100
AcDbLine
 10
769.6385682483276
 20
-189.61531592106249
 30
0.0
 11
769.6385682483276
 21
-187.61531592106181
 31
0.0
  0
LINE
  5
18A
100
AcDbEntity
  8
____1
370
              18
390
0
  6
Continuous
 62
               5
100
AcDbLine
 10
906.50364594196321
 20
-313.98614606311702
 30
0.0
 11
909.5351126086299
 21
-313.98614606311702
 31
0.0
  0
LINE
  5
18B
100
AcDbEntity
  8
____1
370
              18
390
0
  6
Continuous
 62
               5
100
AcDbLine
 10
909.11271260862986
 20
-312.54614606311696
 30
0.0
 11
908.92497927529644
 21
-311.90614606311698
 31
0.0
  0
LINE
  5
18C
100
AcDbEntity
  8
____1
370
              18
390
0
  6
Continuous
 62
               5
100
AcDbLine
 10
906.50364594196321
 20
-310.46614606311704
 30
0.0
 11
906.50364594196321
 21
-311.90614606311698
 31
0.0
  0
LINE
  5
18D
100
AcDbEntity
  8
____1
370
               5
390
0
  6
Continuous
 62
               7
100
AcDbLine
 10
854.40397360885822
 20
-307.73428443662726
 30
0.0
 11
974.40397360885822
 21
-307.73428443662726
 31
0.0
  0
LINE
  5
18E
100
AcDbEntity
  8
____1
370
               5
390
0
  6
Continuous
 62
               7
100
AcDbLine
 10
854.40397360885822
 20
-290.73428443662726
 30
0.0
 11
974.40397360885822
 21
-290.73428443662726
 31
0.0
  0
LINE
  5
18F
100
AcDbEntity
  8
____1
370
              18
390
0
  6
Continuous
 62
               5
100
AcDbLine
 10
908.50257927529651
 20
-310.46614606311698
 30
0.0
 11
908.10364594196312
 21
-309.10614606311697
 31
0.0
  0
LINE
  5
190
100
AcDbEntity
  8
____1
370
              18
390
0
  6
Continuous
 62
               5
100
AcDbLine
 10
908.10364594196312
 20
-309.10614606311697
 30
0.0
 11
911.30364594196317
 21
-309.10614606311697
 31
0.0
  0
LINE
  5
191
100
AcDbEntity
  8
____1
370
              18
390
0
  6
Continuous
 62
               5
100
AcDbLine
 10
906.50364594196321
 20
-312.54614606311696
 30
0.0
 11
909.11271260862986
 21
-312.54614606311696
 31
0.0
  0
LINE
  5
192
100
AcDbEntity
  8
____1
370
              18
390
0
  6
Continuous
 62
               5
100
AcDbLine
 10
906.50364594196321
 20
-310.46614606311704
 30
0.0
 11
908.50257927529651
 21
-310.46614606311704
 31
0.0
  0
LINE
  5
193
100
AcDbEntity
  8
____1
370
              18
390
0
  6
Continuous
 62
               5
100
AcDbLine
 10
906.50364594196321
 20
-311.90614606311698
 30
0.0
 11
908.92497927529644
 21
-311.90614606311698
 31
0.0
  0
LINE
  5
194
100
AcDbEntity
  8
____1
370
              18
390
0
  6
Continuous
 62
               5
100
AcDbLine
 10
906.50364594196321
 20
-312.54614606311696
 30
0.0
 11
906.50364594196321
 21
-313.98614606311702
 31
0.0
  0
LINE
  5
195
100
AcDbEntity
  8
____1
370
              18
390
0
  6
Continuous
 62
               5
100
AcDbLine
 10
889.11968822281574
 20
-136.51666693689106
 30
0.0
 11
891.59468822281565
 21
-140.80349268562406
 31
0.0
  0
LINE
  5
196
100
AcDbEntity
  8
____1
370
              18
390
0
  6
Continuous
 62
               5
100
AcDbLine
 10
889.11968822281574
 20
-136.51666693689106
 30
0.0
 11
886.64468822281583
 21
-140.80349268562406
 31
0.0
  0
LINE
  5
197
100
AcDbEntity
  8
____1
370
              18
390
0
  6
Continuous
 62
               5
100
AcDbLine
 10
886.64468822281583
 20
-140.80349268562406
 30
0.0
 11
891.59468822281565
 21
-140.80349268562406
 31
0.0
  0
LINE
  5
198
100
AcDbEntity
  8
____1
370
              18
390
0
  6
Continuous
 62
               5
100
AcDbLine
 10
699.40397360885822
 20
-316.23428443662726
 30
0.0
 11
974.40397360885822
 21
-316.23428443662726
 31
0.0
  0
LINE
  5
199
100
AcDbEntity
  8
____1
370
              18
390
0
  6
Continuous
 62
               5
100
AcDbLine
 10
699.40397360885822
 20
-126.23428443662726
 30
0.0
 11
974.40397360885822
 21
-126.23428443662726
 31
0.0
  0
LINE
  5
19A
100
AcDbEntity
  8
____1
370
              18
390
0
  6
Continuous
 62
               5
100
AcDbLine
 10
699.40397360885822
 20
-316.23428443662726
 30
0.0
 11
699.40397360885822
 21
-126.23428443662729
 31
0.0
  0
DIMENSION
  5
1A7
100
AcDbEntity
  8
寸法線_1
370
               5
390
0
  6
Continuous
 62
               7
100
AcDbDimension
  2
*D9
 10
791.3885682483276
 20
-216.12251160295426
 30
0.0
 11
779.38911197924688
 21
-216.12251160295426
 31
0.0
 71
               5
 72
               1
 41
1.0
 42
0.0
  3
DS1
100
AcDbAlignedDimension
 13
767.8885682483276
 23
-235.73834071779501
 33
0.0
 14
791.3885682483276
 24
-235.73834071779501
 34
0.0
100
AcDbRotatedDimension
  0
LINE
  5
1A8
100
AcDbEntity
  8
____1
370
               5
390
0
  6
CENTER2
 62
               3
100
AcDbLine
 10
779.63856834022863
 20
-223.23834071779501
 30
0.0
 11
779.63856834022931
 21
-249.73834071779498
 31
0.0
  0
LINE
  5
1A9
100
AcDbEntity
  8
____1
370
              18
390
0
  6
Continuous
 62
               5
100
AcDbLine
 10
974.40397360885822
 20
-316.23428443662726
 30
0.0
 11
974.40397360885822
 21
-126.23428443662729
 31
0.0
  0
DIMENSION
  5
1B6
100
AcDbEntity
  8
寸法線_1
370
               5
390
0
  6
Continuous
 62
               7
100
AcDbDimension
  2
*D10
 10
885.13146621682529
 20
-216.23834071779501
 30
0.0
 11
875.63146621682529
 21
-216.23834071779501
 31
0.0
 71
               5
 72
               1
 41
1.0
 42
0.0
  3
DS1
100
AcDbAlignedDimension
 13
866.13146621682529
 23
-226.23834071779501
 33
0.0
 14
885.13146621682529
 24
-226.23834071779501
 34
0.0
100
AcDbRotatedDimension
  0
DIMENSION
  5
1C4
100
AcDbEntity
  8
寸法線_1
370
               5
390
0
  6
Continuous
 62
               7
100
AcDbDimension
  2
*D11
 10
866.13146621682529
 20
-216.23834071779501
 30
0.0
 11
857.9222230633211
 21
-216.23834071779501
 31
0.0
 71
               5
 72
               1
 41
1.0
 42
0.0
  3
DS1
100
AcDbAlignedDimension
 13
864.13146621682529
 23
-227.438340717795
 33
0.0
 14
866.13146621682529
 24
-226.23834071779501
 34
0.0
100
AcDbRotatedDimension
  0
LINE
  5
1C5
100
AcDbEntity
  8
____1
370
               5
390
0
  6
CENTER2
 62
               3
100
AcDbLine
 10
875.63146621682529
 20
-223.23834071779501
 30
0.0
 11
875.63146621682529
 21
-249.73834071779498
 31
0.0
  0
ARC
  5
1C6
100
AcDbEntity
  8
____1
370
              18
390
0
  6
Continuous
 62
               5
100
AcDbCircle
 10
765.76356824832612
 20
-246.73834071779635
 30
0.0
 40
2.1250000000019518
100
AcDbArc
 50
17.920213139413313
 51
28.07248693586666
  0
ARC
  5
1C7
100
AcDbEntity
  8
____1
370
              18
390
0
  6
Continuous
 62
               5
100
AcDbCircle
 10
769.5135682483276
 20
-244.73834071779498
 30
0.0
 40
2.125
100
AcDbArc
 50
151.92751306414706
 51
-151.92751306414706
  0
ARC
  5
1C8
100
AcDbEntity
  8
____1
370
              18
390
0
  6
Continuous
 62
               5
100
AcDbCircle
 10
767.30973285793425
 20
-246.23834071779498
 30
0.0
 40
0.5000000000001007
210
0.0
220
0.0
230
1.0
100
AcDbArc
 50
-90.0
 51
17.920213139385922
  0
LINE
  5
1C9
100
AcDbEntity
  8
____1
370
              18
390
0
  6
Continuous
 62
               5
100
AcDbLine
 10
767.30973285793425
 20
-246.73834071779498
 30
0.0
 11
761.96740363872095
 21
-246.73834071779498
 31
0.0
  0
LINE
  5
1CA
100
AcDbEntity
  8
____1
370
              18
390
0
  6
Continuous
 62
               5
100
AcDbLine
 10
768.56583423401867
 20
-227.15963823237499
 30
0.0
 11
767.92493526437192
 21
-235.27769184790097
 31
0.0
  0
ARC
  5
1CB
100
AcDbEntity
  8
____1
370
              18
390
0
  6
Continuous
 62
               5
100
AcDbCircle
 10
765.76356824833124
 20
-238.73834071779592
 30
0.0
 40
2.124999999996362
210
0.0
220
0.0
230
0.9999999999999999
100
AcDbArc
 50
-28.072486935876803
 51
0.0000000000252888
  0
ARC
  5
1CC
100
AcDbEntity
  8
____1
370
              18
390
0
  6
Continuous
 62
               5
100
AcDbCircle
 10
769.5135682483276
 20
-240.73834071779498
 30
0.0
 40
2.125
210
0.0
220
0.0
230
1.0
100
AcDbArc
 50
151.92751306414706
 51
-151.92751306414706
  0
ARC
  5
1CD
100
AcDbEntity
  8
____1
370
              18
390
0
  6
Continuous
 62
               5
100
AcDbCircle
 10
767.42648618115538
 20
-235.23834071779501
 30
0.0
 40
0.4999999999999973
100
AcDbArc
 50
-89.999981620638479
 51
-4.5139755143751428
  0
ARC
  5
1CE
100
AcDbEntity
  8
____1
370
              18
390
0
  6
Continuous
 62
               5
100
AcDbCircle
 10
765.7635682483276
 20
-242.73834071779498
 30
0.0
 40
2.125
210
0.0
220
0.0
230
1.0
100
AcDbArc
 50
-28.072486935852957
 51
28.072486935852957
  0
LINE
  5
1CF
100
AcDbEntity
  8
____1
370
              18
390
0
  6
Continuous
 62
               5
100
AcDbLine
 10
760.88856824832772
 20
-235.73834071779501
 30
0.0
 11
767.42648634154557
 21
-235.73834071779501
 31
0.0
  0
LINE
  5
1D0
100
AcDbEntity
  8
____1
370
              18
390
0
  6
Continuous
 62
               5
100
AcDbLine
 10
759.88856824832772
 20
-238.73834071779498
 30
0.0
 11
799.38856824832772
 21
-238.73834071779498
 31
0.0
  0
ARC
  5
1D1
100
AcDbEntity
  8
____1
370
              18
390
0
  6
Continuous
 62
               5
100
AcDbCircle
 10
769.56273238267227
 20
-227.23834071779501
 30
0.0
 40
1.0
100
AcDbArc
 50
90.0
 51
175.48601154199858
  0
DIMENSION
  5
1DE
100
AcDbEntity
  8
寸法線_1
370
               5
390
0
  6
Continuous
 62
               7
100
AcDbDimension
  2
*D12
 10
759.88856824832772
 20
-266.30951724672565
 30
0.0
 11
779.63856824832772
 21
-266.30951724672565
 31
0.0
 71
               5
 72
               1
 41
1.0
 42
0.0
  3
DS1
100
AcDbAlignedDimension
 13
799.38856824832772
 23
-238.73834071779498
 33
0.0
 14
759.88856824832772
 24
-238.73834071779498
 34
0.0
 50
180.0
100
AcDbRotatedDimension
  0
ENDSEC
  0
SECTION
  2
OBJECTS
  0
DICTIONARY
  5
19
100
AcDbDictionary
280
               0
281
               1
  3
ACAD_GROUP
350
1A
  3
ACAD_MLINESTYLE
350
1B
  3
ACAD_LAYOUT
350
1E
  3
ACAD_PLOTSETTINGS
350
22
  3
ACAD_PLOTSTYLENAME
350
1F
  3
ACAD_WIPEOUT_VARS
350
23
  0
DICTIONARY
  5
1A
102
{ACAD_REACTORS
330
19
102
}
100
AcDbDictionary
280
               0
281
               1
  0
DICTIONARY
  5
1B
102
{ACAD_REACTORS
330
19
102
}
100
AcDbDictionary
280
               0
281
               1
  3
Standard
350
1C
  0
MLINESTYLE
  5
1C
102
{ACAD_REACTORS
330
1B
102
}
100
AcDbMlineStyle
  2
Standard
 70
               0
  3

 62
               0
 51
90.0
 52
90.0
 71
               2
 49
0.5
 62
             256
  6
ByLayer
 49
-0.5
 62
             256
  6
ByLayer
  0
ACDBDICTIONARYWDFLT
  5
1F
102
{ACAD_REACTORS
330
19
102
}
100
AcDbDictionary
281
               1
  3
Normal
350
1D
100
AcDbDictionaryWithDefault
340
1D
  0
ACDBPLACEHOLDER
  5
1D
102
{ACAD_REACTORS
330
1F
102
}
  0
LAYOUT
  5
20
102
{ACAD_REACTORS
330
1E
102
}
100
AcDbPlotSettings
  1

  2

  4

  6

 40
0.0
 41
0.0
 42
0.0
 43
0.0
 44
0.0
 45
0.0
 46
0.0
 47
0.0
 48
0.0
 49
0.0
140
0.0
141
0.0
142
1.0
143
1.0
 70
            1024
 72
               0
 73
               0
 74
               0
  7

 75
               0
147
1.0
148
0.0
149
0.0
100
AcDbLayout
  1
Model
 70
               0
 71
               0
 10
0.0
 20
0.0
 11
0.0
 21
0.0
 12
0.0
 22
0.0
 32
0.0
 14
0.0
 24
0.0
 34
0.0
 15
0.0
 25
0.0
 35
0.0
146
0.0
 13
0.0
 23
0.0
 33
0.0
 16
0.0
 26
0.0
 36
0.0
 17
0.0
 27
0.0
 37
0.0
 76
               0
330
A
331
0
345
0
346
0
  0
LAYOUT
  5
21
102
{ACAD_REACTORS
330
1E
102
}
100
AcDbPlotSettings
  1

  2

  4

  6

 40
0.0
 41
0.0
 42
0.0
 43
0.0
 44
0.0
 45
0.0
 46
0.0
 47
0.0
 48
0.0
 49
0.0
140
0.0
141
0.0
142
1.0
143
1.0
 70
               0
 72
               0
 73
               0
 74
               0
  7

 75
               0
147
1.0
148
0.0
149
0.0
100
AcDbLayout
  1
Layout1
 70
               0
 71
               0
 10
0.0
 20
0.0
 11
0.0
 21
0.0
 12
0.0
 22
0.0
 32
0.0
 14
0.0
 24
0.0
 34
0.0
 15
0.0
 25
0.0
 35
0.0
146
0.0
 13
0.0
 23
0.0
 33
0.0
 16
0.0
 26
0.0
 36
0.0
 17
0.0
 27
0.0
 37
0.0
 76
               0
330
B
331
0
345
0
346
0
  0
DICTIONARY
  5
1E
102
{ACAD_REACTORS
330
19
102
}
100
AcDbDictionary
280
               0
281
               1
  3
Layout1
350
21
  3
Model
350
20
  0
DICTIONARY
  5
22
102
{ACAD_REACTORS
330
19
102
}
100
AcDbDictionary
280
               0
281
               1
  0
WIPEOUTVARIABLES
  5
23
100
AcDbWipeoutVariables
 70
               1
  0
ENDSEC
  0
EOF
