  0
SECTION
  2
HEADER
  9
$ACADVER
  1
AC1009
  9
$INSBASE
 10
0.0
 20
0.0
 30
0.0
  9
$EXTMIN
 10
-37.03866666670001
 20
-66.484666666699994
 30
0.0
  9
$EXTMAX
 10
99.614666666700003
 20
29.668666666699998
 30
0.0
  9
$LIMMIN
 10
0.0
 20
0.0
  9
$LIMMAX
 10
0.0
 20
0.0
  9
$ORTHOMODE
 70
     0
  9
$REGENMODE
 70
     1
  9
$FILLMODE
 70
     1
  9
$QTEXTMODE
 70
     0
  9
$MIRRTEXT
 70
     1
  9
$DRAGMODE
 70
     2
  9
$LTSCALE
 40
1.0
  9
$OSMODE
 70
    31
  9
$ATTMODE
 70
     1
  9
$TEXTSIZE
 40
0.0
  9
$TRACEWID
 40
0.05
  9
$TEXTSTYLE
  7
STANDARD
  9
$CLAYER
  8
0
  9
$CELTYPE
  6
CONTINUOUS
  9
$CECOLOR
 62
   256
  9
$DIMSCALE
 40
1.0
  9
$DIMASZ
 40
0.18
  9
$DIMEXO
 40
0.0625
  9
$DIMDLI
 40
0.38
  9
$DIMRND
 40
0.0
  9
$DIMDLE
 40
0.0
  9
$DIMEXE
 40
0.18
  9
$DIMTP
 40
0.0
  9
$DIMTM
 40
0.0
  9
$DIMTXT
 40
0.18
  9
$DIMCEN
 40
0.09
  9
$DIMTSZ
 40
0.0
  9
$DIMTOL
 70
     0
  9
$DIMLIM
 70
     0
  9
$DIMTIH
 70
     1
  9
$DIMTOH
 70
     1
  9
$DIMSE1
 70
     0
  9
$DIMSE2
 70
     0
  9
$DIMTAD
 70
     0
  9
$DIMZIN
 70
     0
  9
$DIMBLK
  1

  9
$DIMASO
 70
     1
  9
$DIMSHO
 70
     1
  9
$DIMPOST
  1

  9
$DIMAPOST
  1

  9
$DIMALT
 70
     0
  9
$DIMALTD
 70
     2
  9
$DIMALTF
 40
25.399999999999999
  9
$DIMLFAC
 40
1.0
  9
$DIMTOFL
 70
     0
  9
$DIMTVP
 40
0.0
  9
$DIMTIX
 70
     0
  9
$DIMSOXD
 70
     0
  9
$DIMSAH
 70
     0
  9
$DIMBLK1
  1

  9
$DIMBLK2
  1

  9
$DIMSTYLE
  2
STANDARD
  9
$DIMCLRD
 70
     0
  9
$DIMCLRE
 70
     0
  9
$DIMCLRT
 70
     0
  9
$DIMTFAC
 40
1.0
  9
$DIMGAP
 40
0.09
  9
$LUNITS
 70
     2
  9
$LUPREC
 70
     4
  9
$SKETCHINC
 40
0.1
  9
$FILLETRAD
 40
0.0
  9
$AUNITS
 70
     0
  9
$AUPREC
 70
     0
  9
$MENU
  1
acad
  9
$ELEVATION
 40
0.0
  9
$PELEVATION
 40
0.0
  9
$THICKNESS
 40
0.0
  9
$LIMCHECK
 70
     0
  9
$BLIPMODE
 70
     0
  9
$CHAMFERA
 40
0.0
  9
$CHAMFERB
 40
0.0
  9
$SKPOLY
 70
     0
  9
$TDCREATE
 40
2454866.5002373611
  9
$TDUPDATE
 40
2454866.5004004859
  9
$TDINDWG
 40
0.0001784954
  9
$TDUSRTIMER
 40
0.0001781366
  9
$USRTIMER
 70
     1
  9
$ANGBASE
 50
0.0
  9
$ANGDIR
 70
     0
  9
$PDMODE
 70
     3
  9
$PDSIZE
 40
-1.0
  9
$PLINEWID
 40
0.0
  9
$COORDS
 70
     2
  9
$SPLFRAME
 70
     0
  9
$SPLINETYPE
 70
     6
  9
$SPLINESEGS
 70
     8
  9
$ATTDIA
 70
     0
  9
$ATTREQ
 70
     1
  9
$HANDLING
 70
     1
  9
$HANDSEED
  5
119C
  9
$SURFTAB1
 70
     6
  9
$SURFTAB2
 70
     6
  9
$SURFTYPE
 70
     6
  9
$SURFU
 70
     6
  9
$SURFV
 70
     6
  9
$UCSNAME
  2

  9
$UCSORG
 10
0.0
 20
0.0
 30
0.0
  9
$UCSXDIR
 10
1.0
 20
0.0
 30
0.0
  9
$UCSYDIR
 10
0.0
 20
1.0
 30
0.0
  9
$PUCSNAME
  2

  9
$PUCSORG
 10
0.0
 20
0.0
 30
0.0
  9
$PUCSXDIR
 10
1.0
 20
0.0
 30
0.0
  9
$PUCSYDIR
 10
0.0
 20
1.0
 30
0.0
  9
$USERI1
 70
     0
  9
$USERI2
 70
     0
  9
$USERI3
 70
     0
  9
$USERI4
 70
     0
  9
$USERI5
 70
     0
  9
$USERR1
 40
0.0
  9
$USERR2
 40
0.0
  9
$USERR3
 40
0.0
  9
$USERR4
 40
0.0
  9
$USERR5
 40
0.0
  9
$WORLDVIEW
 70
     1
  9
$SHADEDGE
 70
     3
  9
$SHADEDIF
 70
    70
  9
$TILEMODE
 70
     1
  9
$MAXACTVP
 70
    16
  9
$PLIMCHECK
 70
     0
  9
$PEXTMIN
 10
1.0000000000000000E+020
 20
1.0000000000000000E+020
 30
1.0000000000000000E+020
  9
$PEXTMAX
 10
-1.0000000000000000E+020
 20
-1.0000000000000000E+020
 30
-1.0000000000000000E+020
  9
$PLIMMIN
 10
0.0
 20
0.0
  9
$PLIMMAX
 10
12.0
 20
9.0
  9
$UNITMODE
 70
     0
  9
$VISRETAIN
 70
     0
  9
$PLINEGEN
 70
     1
  9
$PSLTSCALE
 70
     0
  0
ENDSEC
  0
SECTION
  2
TABLES
  0
TABLE
  2
VPORT
 70
     2
  0
VPORT
  2
*ACTIVE
 70
     0
 10
0.0
 20
0.0
 11
1.0
 21
1.0
 12
31.288
 22
-18.408000000000001
 13
0.0
 23
0.0
 14
1.0
 24
1.0
 15
0.0
 25
0.0
 16
0.0
 26
0.0
 36
1.0
 17
0.0
 27
0.0
 37
0.0
 40
96.968192090462708
 41
1.5459688826025451
 42
50.0
 43
0.0
 44
0.0
 50
0.0
 51
0.0
 71
     0
 72
   100
 73
     1
 74
     1
 75
     0
 76
     0
 77
     0
 78
     0
  0
ENDTAB
  0
TABLE
  2
LTYPE
 70
    11
  0
LTYPE
  2
CONTINUOUS
 70
     0
  3
Solid line
 72
    65
 73
     0
 40
0.0
  0
LTYPE
  2
DOT
 70
     0
  3
. . . . . . . . 
 72
    65
 73
     2
 40
1.0
 49
0.0
 49
-1.0
  0
LTYPE
  2
DASHED
 70
     0
  3
___  ___  ___  ___  
 72
    65
 73
     2
 40
4.0
 49
3.0
 49
-1.0
  0
LTYPE
  2
HIDDEN
 70
     0
  3
__ __ __ __ 
 72
    65
 73
     2
 40
3.0
 49
2.0
 49
-1.0
  0
LTYPE
  2
STITCH
 70
     0
  3
_ _ _ _ 
 72
    65
 73
     2
 40
2.0
 49
1.0
 49
-1.0
  0
LTYPE
  2
CENTER
 70
     0
  3
______  __  ______  __  
 72
    65
 73
     4
 40
43.0
 49
40.0
 49
-1.0
 49
1.0
 49
-1.0
  0
LTYPE
  2
DASHDOT
 70
     0
  3
____ . ____ . 
 72
    65
 73
     4
 40
32.0
 49
30.0
 49
-1.0
 49
0.0
 49
-1.0
  0
LTYPE
  2
BORDER
 70
     0
  3
__ . __ . 
 72
    65
 73
     4
 40
22.0
 49
20.0
 49
-1.0
 49
0.0
 49
-1.0
  0
LTYPE
  2
CUTTING
 70
     0
  3
________   ___   ___   
 72
    65
 73
     6
 40
45.0
 49
40.0
 49
-1.0
 49
1.0
 49
-1.0
 49
1.0
 49
-1.0
  0
LTYPE
  2
PHANTOM
 70
     0
  3
______  __  __  
 72
    65
 73
     6
 40
35.0
 49
30.0
 49
-1.0
 49
1.0
 49
-1.0
 49
1.0
 49
-1.0
  0
LTYPE
  2
DIVIDE
 70
     0
  3
____ . . ____ . . 
 72
    65
 73
     6
 40
23.0
 49
20.0
 49
-1.0
 49
0.0
 49
-1.0
 49
0.0
 49
-1.0
  0
ENDTAB
  0
TABLE
  2
LAYER
 70
     6
  0
LAYER
  2
0
 70
     0
 62
     7
  6
CONTINUOUS
  0
LAYER
  2
図枠
 70
     0
 62
     7
  6
CONTINUOUS
  0
LAYER
  2
寸法線
 70
     0
 62
     7
  6
CONTINUOUS
  0
LAYER
  2
ﾚｲﾔ_1
 70
     0
 62
     7
  6
CONTINUOUS
  0
LAYER
  2
改訂
 70
     0
 62
     7
  6
CONTINUOUS
  0
LAYER
  2
レイヤ__1
 70
     0
 62
     7
  6
CONTINUOUS
  0
ENDTAB
  0
TABLE
  2
STYLE
 70
     1
  0
STYLE
  2
STANDARD
 70
     0
 40
0.0
 41
1.0
 50
0.0
 71
     0
 42
0.0
  3
txt
  4
extfont
  0
ENDTAB
  0
TABLE
  2
VIEW
 70
     0
  0
ENDTAB
  0
TABLE
  2
UCS
 70
     0
  0
ENDTAB
  0
TABLE
  2
APPID
 70
     2
  0
APPID
  2
ACAD
 70
     0
  0
APPID
  2
DCO15
 70
     0
  0
ENDTAB
  0
TABLE
  2
DIMSTYLE
 70
     3
  0
DIMSTYLE
  2
STANDARD
 70
     0
  3

  4

  5

  6

  7

 40
1.0
 41
0.18
 42
0.0625
 43
0.38
 44
0.18
 45
0.0
 46
0.0
 47
0.0
 48
0.0
140
0.18
141
0.09
142
0.0
143
25.399999999999999
144
1.0
145
0.0
146
1.0
147
0.09
 71
     0
 72
     0
 73
     1
 74
     1
 75
     0
 76
     0
 77
     0
 78
     0
170
     0
171
     2
172
     0
173
     0
174
     0
175
     0
176
     0
177
     0
178
     0
  0
DIMSTYLE
  2
VELDIM0
 70
     0
  3

  4

  5

  6

  7

 40
1.0
 41
0.6439505219
 42
0.0625
 43
0.38
 44
1.25
 45
0.0
 46
5.0
 47
0.0
 48
0.0
140
1.1994444489
141
0.09
142
0.0
143
25.399999999999999
144
1.0
145
0.0
146
1.0
147
0.09
 71
     0
 72
     0
 73
     0
 74
     0
 75
     0
 76
     0
 77
     0
 78
     8
170
     0
171
     2
172
     0
173
     0
174
     0
175
     0
176
     0
177
     0
178
     0
  0
DIMSTYLE
  2
VELDIM1
 70
     0
  3

  4

  5

  6

  7

 40
1.0
 41
0.6439505219
 42
0.0625
 43
0.38
 44
0.3333333433
 45
0.0
 46
1.666666626899999
 47
0.0
 48
0.0
140
1.1994444489
141
0.09
142
0.0
143
25.399999999999999
144
1.0
145
0.0
146
1.0
147
0.09
 71
     0
 72
     0
 73
     0
 74
     0
 75
     0
 76
     0
 77
     0
 78
     8
170
     0
171
     2
172
     0
173
     0
174
     0
175
     0
176
     0
177
     0
178
     0
  0
ENDTAB
  0
ENDSEC
  0
SECTION
  2
BLOCKS
  0
BLOCK
  8
0
  2
$MODEL_SPACE
 70
     0
 10
0.0
 20
0.0
 30
0.0
  3
$MODEL_SPACE
  1

  0
ENDBLK
  5
E
  8
0
  0
BLOCK
 67
     1
  8
0
  2
$PAPER_SPACE
 70
     0
 10
0.0
 20
0.0
 30
0.0
  3
$PAPER_SPACE
  1

  0
ENDBLK
  5
10
 67
     1
  8
0
  0
BLOCK
  8
0
  2
BALLON0
 70
     0
 10
0.0
 20
0.0
 30
0.0
  3
BALLON0
  1

  0
INSERT
  5
35
  8
0
  6
CONTINUOUS
  2
*U17
 10
0.0
 20
0.0
 30
0.0
  0
CIRCLE
  5
36
  8
ﾚｲﾔ_1
 10
15.105367662900001
 20
-21.659675983500001
 30
0.0
 40
1.333333333299999
  0
LINE
  5
37
  8
寸法線
 10
17.3275898851
 20
-21.659675983500001
 30
0.0
 11
16.438700996200001
 21
-21.659675983500001
 31
0.0
  0
LINE
  5
38
  8
寸法線
 10
24.3302083333
 20
-14.6570575352
 30
0.0
 11
17.3275898851
 21
-21.659675983500001
 31
0.0
  0
SOLID
  5
39
  8
寸法線
 10
24.3302083333
 20
-14.6570575352
 30
0.0
 11
23.575961100099999
 21
-15.7884283851
 31
0.0
 12
23.575961100099999
 22
-15.411304768500001
 32
0.0
 13
23.575961100099999
 23
-15.411304768500001
 33
0.0
  0
SOLID
  5
3A
  8
寸法線
 10
23.575961100099999
 20
-15.411304768500001
 30
0.0
 11
23.198837483399998
 21
-15.411304768500001
 31
0.0
 12
24.3302083333
 22
-14.6570575352
 32
0.0
 13
24.3302083333
 23
-14.6570575352
 33
0.0
  0
ENDBLK
  5
3B
  8
0
  0
BLOCK
  8
0
  2
*D1
 70
     1
 10
0.0
 20
0.0
 30
0.0
  3
*D1
  1

  0
TEXT
  5
5F
  8
0
 62
     0
 10
17.467354253299991
 20
-32.431710053499998
 30
0.0
 40
1.1994444489
  1
R22.14
 50
285.0
  0
LINE
  5
60
  8
0
 62
     0
 10
15.438098861
 20
-26.7666659675
 30
0.0
 11
18.268572729300001
 21
-37.330138253400001
 31
0.0
  0
SOLID
  5
61
  8
0
 62
     0
 10
15.438098861
 20
-26.7666659675
 30
0.0
 11
15.7714321859
 21
-27.344016208999999
 31
0.0
 12
15.4380988545
 22
-27.433332606
 32
0.0
 13
15.5630988554
 23
-27.233172297500001
 33
0.0
  0
ENDBLK
  5
62
  8
0
  0
BLOCK
  8
0
  2
*X2
 70
     1
 10
0.0
 20
0.0
 30
0.0
  3
*X2
  1

  0
LINE
  5
7B
  8
ﾚｲﾔ_1
 10
5.000000148999999
 20
-28.672916666700001
 30
0.0
 11
5.000000148999999
 21
-27.682544370799999
 31
0.0
  0
LINE
  5
7C
  8
ﾚｲﾔ_1
 10
6.666666865299999
 20
-28.672916666700001
 30
0.0
 11
6.666666865299999
 21
-27.159406799100001
 31
0.0
  0
LINE
  5
7D
  8
ﾚｲﾔ_1
 10
8.3333335816999998
 20
-28.672916666700001
 30
0.0
 11
8.3333335816999998
 21
-26.452533258100001
 31
0.0
  0
LINE
  5
7E
  8
ﾚｲﾔ_1
 10
10.000000298
 20
-27.890122687200002
 30
0.0
 11
10.000000298
 21
-25.820633139800002
 31
0.0
  0
LINE
  5
7F
  8
ﾚｲﾔ_1
 10
4.166666790799999
 20
-28.672916666700001
 30
0.0
 11
4.166666790799999
 21
-27.829928053900002
 31
0.0
  0
LINE
  5
80
  8
ﾚｲﾔ_1
 10
5.833333507199999
 20
-28.672916666700001
 30
0.0
 11
5.833333507199999
 21
-27.460381543899999
 31
0.0
  0
LINE
  5
81
  8
ﾚｲﾔ_1
 10
7.500000223499999
 20
-28.672916666700001
 30
0.0
 11
7.500000223499999
 21
-26.800723998900001
 31
0.0
  0
LINE
  5
82
  8
ﾚｲﾔ_1
 10
9.1666669399000007
 20
-28.367914101699998
 30
0.0
 11
9.1666669399000007
 21
-26.125964120500001
 31
0.0
  0
LINE
  5
83
  8
ﾚｲﾔ_1
 10
10.833333656200001
 20
-27.455360318699999
 30
0.0
 11
10.833333656200001
 21
-25.535975314000002
 31
0.0
  0
LINE
  5
84
  8
ﾚｲﾔ_1
 10
3.4651351460000002
 20
-28.202123973300001
 30
0.0
 11
3.7972037188999992
 21
-27.870055400399998
 31
0.0
  0
LINE
  5
85
  8
ﾚｲﾔ_1
 10
4.661040300999999
 20
-28.672916666700001
 30
0.0
 11
5.8915488605999986
 21
-27.4424081071
 31
0.0
  0
LINE
  5
86
  8
ﾚｲﾔ_1
 10
6.3277381494
 20
-28.672916666700001
 30
0.0
 11
8.6959065666999997
 21
-26.304748249399999
 31
0.0
  0
LINE
  5
87
  8
ﾚｲﾔ_1
 10
7.9944359978000001
 20
-28.672916666700001
 30
0.0
 11
11.2742867029
 21
-25.393065961600001
 31
0.0
  0
LINE
  5
88
  8
ﾚｲﾔ_1
 10
10.925766300899999
 20
-27.4082842119
 30
0.0
 11
11.4501460629
 21
-26.883904449900001
 31
0.0
  0
LINE
  5
89
  8
ﾚｲﾔ_1
 10
5.3391467892999991
 20
-28.672916666700001
 30
0.0
 11
4.452341378399999
 21
-27.786111255800002
 31
0.0
  0
LINE
  5
8A
  8
ﾚｲﾔ_1
 10
7.0058446377000001
 20
-28.672916666700001
 30
0.0
 11
5.8027514378999987
 21
-27.469823466899999
 31
0.0
  0
LINE
  5
8B
  8
ﾚｲﾔ_1
 10
8.6491729286000005
 20
-28.6495471092
 30
0.0
 11
7.0126857859999996
 21
-27.0130599666
 31
0.0
  0
LINE
  5
8C
  8
ﾚｲﾔ_1
 10
9.717977513300001
 20
-28.051653845499999
 30
0.0
 11
8.1809632018999991
 21
-26.514639534099999
 31
0.0
  0
LINE
  5
8D
  8
ﾚｲﾔ_1
 10
10.803550465600001
 20
-27.470528949399998
 30
0.0
 11
9.3786061559
 21
-26.045584639800001
 31
0.0
  0
LINE
  5
8E
  8
ﾚｲﾔ_1
 10
11.4593254515
 20
-26.459606086899999
 30
0.0
 11
10.6085464217
 21
-25.608827057199999
 31
0.0
  0
ENDBLK
  5
8F
  8
0
  0
BLOCK
  8
0
  2
*D3
 70
     1
 10
0.0
 20
0.0
 30
0.0
  3
*D3
  1

  0
TEXT
  5
B7
  8
0
 62
     0
 10
29.9112499893
 20
0.4618055503000001
 30
0.0
 40
1.1994444489
  1
13.6
 50
90.0
  0
LINE
  5
B8
  8
0
 62
     0
 10
23.1859656528
 20
-4.9270833332999988
 30
0.0
 11
30.789583343299999
 21
-4.9270833332999988
 31
0.0
  0
LINE
  5
B9
  8
0
 62
     0
 10
23.1859656528
 20
8.6729166666999991
 30
0.0
 11
30.789583343299999
 21
8.6729166666999991
 31
0.0
  0
LINE
  5
BA
  8
0
 62
     0
 10
30.456250000000001
 20
-4.9270833332999988
 30
0.0
 11
30.456250000000001
 21
3.989583341299999
 31
0.0
  0
LINE
  5
BB
  8
0
 62
     0
 10
30.456250000000001
 20
-4.9270833332999988
 30
0.0
 11
30.456250000000001
 21
-0.2437500079
 31
0.0
  0
LINE
  5
BC
  8
0
 62
     0
 10
30.456250000000001
 20
8.6729166666999991
 30
0.0
 11
30.456250000000001
 21
3.989583341299999
 31
0.0
  0
LINE
  5
BD
  8
0
 62
     0
 10
30.456250000000001
 20
8.6729166666999991
 30
0.0
 11
30.456250000000001
 21
-0.2437500079
 31
0.0
  0
LINE
  5
BE
  8
0
 62
     0
 10
30.456250000000001
 20
8.6729166666999991
 30
0.0
 11
30.456250000000001
 21
7.0062500397000003
 31
0.0
  0
SOLID
  5
BF
  8
0
 62
     0
 10
30.456250000000001
 20
8.6729166666999991
 30
0.0
 11
30.628796029099998
 21
8.0289661447
 31
0.0
 12
30.28370397090001
 22
8.0289661447
 32
0.0
 13
30.456250000000001
 23
8.1899537751999993
 33
0.0
  0
LINE
  5
C0
  8
0
 62
     0
 10
30.456250000000001
 20
-4.9270833332999988
 30
0.0
 11
30.456250000000001
 21
-3.2604167064
 31
0.0
  0
SOLID
  5
C1
  8
0
 62
     0
 10
30.456250000000001
 20
-4.9270833332999988
 30
0.0
 11
30.28370397090001
 21
-4.2831328113999989
 31
0.0
 12
30.628796029099998
 22
-4.2831328113999989
 32
0.0
 13
30.456250000000001
 23
-4.4441204418999991
 33
0.0
  0
ENDBLK
  5
C2
  8
0
  0
BLOCK
  8
0
  2
*D4
 70
     1
 10
0.0
 20
0.0
 30
0.0
  3
*D4
  1

  0
TEXT
  5
CA
  8
0
 62
     0
 10
-11.892916677400001
 20
-26.334218164100001
 30
0.0
 40
1.1994444489
  1
12.5
 50
90.0
  0
LINE
  5
CB
  8
0
 62
     0
 10
-1.023200206299999
 20
-18.673297428800002
 30
0.0
 11
-11.681250009899999
 21
-18.673297428800002
 31
0.0
  0
LINE
  5
CC
  8
0
 62
     0
 10
-4.9142592845999991
 20
-31.172916666700001
 30
0.0
 11
-11.681250009899999
 21
-31.172916666700001
 31
0.0
  0
LINE
  5
CD
  8
0
 62
     0
 10
-11.3479166667
 20
-18.673297428800002
 30
0.0
 11
-11.3479166667
 21
-22.806440373099999
 31
0.0
  0
LINE
  5
CE
  8
0
 62
     0
 10
-11.3479166667
 20
-18.673297428800002
 30
0.0
 11
-11.3479166667
 21
-27.039773722300001
 31
0.0
  0
LINE
  5
CF
  8
0
 62
     0
 10
-11.3479166667
 20
-31.172916666700001
 30
0.0
 11
-11.3479166667
 21
-22.806440373099999
 31
0.0
  0
LINE
  5
D0
  8
0
 62
     0
 10
-11.3479166667
 20
-31.172916666700001
 30
0.0
 11
-11.3479166667
 21
-27.039773722300001
 31
0.0
  0
LINE
  5
D1
  8
0
 62
     0
 10
-11.3479166667
 20
-31.172916666700001
 30
0.0
 11
-11.3479166667
 21
-29.506250039699999
 31
0.0
  0
SOLID
  5
D2
  8
0
 62
     0
 10
-11.3479166667
 20
-31.172916666700001
 30
0.0
 11
-11.520462695799999
 21
-30.5289661447
 31
0.0
 12
-11.1753706376
 22
-30.5289661447
 32
0.0
 13
-11.3479166667
 23
-30.689953775199999
 33
0.0
  0
LINE
  5
D3
  8
0
 62
     0
 10
-11.3479166667
 20
-18.673297428800002
 30
0.0
 11
-11.3479166667
 21
-20.339964055700001
 31
0.0
  0
SOLID
  5
D4
  8
0
 62
     0
 10
-11.3479166667
 20
-18.673297428800002
 30
0.0
 11
-11.1753706376
 21
-19.317247950700001
 31
0.0
 12
-11.520462695799999
 22
-19.317247950700001
 32
0.0
 13
-11.3479166667
 23
-19.156260320200001
 33
0.0
  0
ENDBLK
  5
D5
  8
0
  0
BLOCK
  8
0
  2
*D5
 70
     1
 10
0.0
 20
0.0
 30
0.0
  3
*D5
  1

  0
TEXT
  5
D9
  8
0
 62
     0
 10
-8.1259258626999991
 20
-26.878472224900001
 30
0.0
 40
1.1994444489
  1
10
 50
90.0
  0
LINE
  5
DA
  8
0
 62
     0
 10
-4.9142592845999991
 20
-21.172916666700001
 30
0.0
 11
-7.9142591951999988
 21
-21.172916666700001
 31
0.0
  0
LINE
  5
DB
  8
0
 62
     0
 10
-4.9142592845999991
 20
-31.172916666700001
 30
0.0
 11
-7.9142591951999988
 21
-31.172916666700001
 31
0.0
  0
LINE
  5
DC
  8
0
 62
     0
 10
-7.5809258519
 20
-21.172916666700001
 30
0.0
 11
-7.5809258519
 21
-24.7618055503
 31
0.0
  0
LINE
  5
DD
  8
0
 62
     0
 10
-7.5809258519
 20
-21.172916666700001
 30
0.0
 11
-7.5809258519
 21
-27.584027783100002
 31
0.0
  0
LINE
  5
DE
  8
0
 62
     0
 10
-7.5809258519
 20
-31.172916666700001
 30
0.0
 11
-7.5809258519
 21
-24.7618055503
 31
0.0
  0
LINE
  5
DF
  8
0
 62
     0
 10
-7.5809258519
 20
-31.172916666700001
 30
0.0
 11
-7.5809258519
 21
-27.584027783100002
 31
0.0
  0
LINE
  5
E0
  8
0
 62
     0
 10
-7.5809258519
 20
-31.172916666700001
 30
0.0
 11
-7.5809258519
 21
-29.506250039699999
 31
0.0
  0
SOLID
  5
E1
  8
0
 62
     0
 10
-7.5809258519
 20
-31.172916666700001
 30
0.0
 11
-7.7534718810000003
 21
-30.5289661447
 31
0.0
 12
-7.4083798227999988
 22
-30.5289661447
 32
0.0
 13
-7.5809258519
 23
-30.689953775199999
 33
0.0
  0
LINE
  5
E2
  8
0
 62
     0
 10
-7.5809258519
 20
-21.172916666700001
 30
0.0
 11
-7.5809258519
 21
-22.839583293600001
 31
0.0
  0
SOLID
  5
E3
  8
0
 62
     0
 10
-7.5809258519
 20
-21.172916666700001
 30
0.0
 11
-7.4083798227999988
 21
-21.8168671886
 31
0.0
 12
-7.7534718810000003
 22
-21.8168671886
 32
0.0
 13
-7.5809258519
 23
-21.655879558100001
 33
0.0
  0
ENDBLK
  5
E4
  8
0
  0
BLOCK
  8
0
  2
BALLON1
 70
     0
 10
0.0
 20
0.0
 30
0.0
  3
BALLON1
  1

  0
INSERT
  5
ED
  8
0
  6
CONTINUOUS
  2
*U40
 10
0.0
 20
0.0
 30
0.0
  0
CIRCLE
  5
EE
  8
ﾚｲﾔ_1
 10
3.5350872866
 20
2.3361969459999989
 30
0.0
 40
1.333333333299999
  0
LINE
  5
EF
  8
寸法線
 10
1.3128650643999991
 20
2.3361969459999989
 30
0.0
 11
2.2017539532999999
 21
2.3361969459999989
 31
0.0
  0
LINE
  5
F0
  8
寸法線
 10
-7.5089104729999994
 20
-2.7570575351999991
 30
0.0
 11
1.3128650643999991
 21
2.3361969459999989
 31
0.0
  0
SOLID
  5
F1
  8
寸法線
 10
-7.5089104729999994
 20
-2.7570575351999991
 30
0.0
 11
-6.4875432678999987
 21
-1.8594507608999991
 31
0.0
 12
-6.5851500422999996
 22
-2.2237242019000001
 32
0.0
 13
-6.5851500422999996
 23
-2.2237242019000001
 33
0.0
  0
SOLID
  5
F2
  8
寸法線
 10
-6.5851500422999996
 20
-2.2237242019000001
 30
0.0
 11
-6.2208766012999988
 21
-2.3213309763000001
 31
0.0
 12
-7.5089104729999994
 22
-2.7570575351999991
 32
0.0
 13
-7.5089104729999994
 23
-2.7570575351999991
 33
0.0
  0
ENDBLK
  5
F3
  8
0
  0
BLOCK
  8
0
  2
BALLON2
 70
     0
 10
0.0
 20
0.0
 30
0.0
  3
BALLON2
  1

  0
INSERT
  5
F7
  8
0
  6
CONTINUOUS
  2
*U41
 10
0.0
 20
0.0
 30
0.0
  0
CIRCLE
  5
F8
  8
ﾚｲﾔ_1
 10
3.1823660585999991
 20
-21.659675983500001
 30
0.0
 40
1.333333333299999
  0
LINE
  5
F9
  8
寸法線
 10
0.9601438362999999
 20
-21.659675983500001
 30
0.0
 11
1.8490327252000001
 21
-21.659675983500001
 31
0.0
  0
LINE
  5
FA
  8
寸法線
 10
-10.0955381102
 20
-10.6039940369
 30
0.0
 11
0.9601438362999999
 21
-21.659675983500001
 31
0.0
  0
SOLID
  5
FB
  8
寸法線
 10
-10.0955381102
 20
-10.6039940369
 30
0.0
 11
-8.9641672602999982
 21
-11.358241270200001
 31
0.0
 12
-9.3412908769000005
 22
-11.358241270200001
 32
0.0
 13
-9.3412908769000005
 23
-11.358241270200001
 33
0.0
  0
SOLID
  5
FC
  8
寸法線
 10
-9.3412908769000005
 20
-11.358241270200001
 30
0.0
 11
-9.3412908769000005
 21
-11.735364886799999
 31
0.0
 12
-10.0955381102
 22
-10.6039940369
 32
0.0
 13
-10.0955381102
 23
-10.6039940369
 33
0.0
  0
ENDBLK
  5
FD
  8
0
  0
BLOCK
  8
0
  2
CLUMP0
 70
     0
 10
0.0
 20
0.0
 30
0.0
  3
CLUMP0
  1

  0
LINE
  5
10C
  8
ﾚｲﾔ_1
 62
     5
 10
48.635921886700011
 20
-21.172916666700001
 30
0.0
 11
48.730208333299998
 21
-21.172916666700001
 31
0.0
  0
LINE
  5
10D
  8
ﾚｲﾔ_1
 62
     5
 10
45.88020833329999
 20
-21.172916666700001
 30
0.0
 11
47.380208333299997
 21
-21.172916666700001
 31
0.0
  0
LINE
  5
10E
  8
ﾚｲﾔ_1
 62
     5
 10
49.580208333299993
 20
-20.812916666700001
 30
0.0
 11
48.730208333299998
 21
-20.812916666700001
 31
0.0
  0
LINE
  5
10F
  8
ﾚｲﾔ_1
 62
     5
 10
49.430208333300001
 20
-20.757057535200001
 30
0.0
 11
49.430208333300001
 21
-20.812916666700001
 31
0.0
  0
LINE
  5
110
  8
ﾚｲﾔ_1
 62
     5
 10
48.730208333299998
 20
-20.757057535200001
 30
0.0
 11
48.730208333299998
 21
-29.672916666700001
 31
0.0
  0
LINE
  5
111
  8
ﾚｲﾔ_1
 62
     5
 10
49.580208333299993
 20
-22.312916666700001
 30
0.0
 11
48.730208333299998
 21
-22.312916666700001
 31
0.0
  0
LINE
  5
112
  8
ﾚｲﾔ_1
 62
     5
 10
48.730208333299998
 20
-23.512916666700001
 30
0.0
 11
49.580208333299993
 21
-23.512916666700001
 31
0.0
  0
LINE
  5
113
  8
ﾚｲﾔ_1
 62
     5
 10
48.935233586499997
 20
-30.167891413500001
 30
0.0
 11
49.9402588397
 21
-31.172916666700001
 31
0.0
  0
LINE
  5
114
  8
ﾚｲﾔ_1
 62
     5
 10
49.430208333300001
 20
-22.312916666700001
 30
0.0
 11
49.430208333300001
 21
-23.512916666700001
 31
0.0
  0
LINE
  5
115
  8
ﾚｲﾔ_1
 62
     5
 10
49.430208333300001
 20
-26.012916666700001
 30
0.0
 11
49.430208333300001
 21
-29.672916666700001
 31
0.0
  0
LINE
  5
116
  8
ﾚｲﾔ_1
 62
     5
 10
49.430208333300001
 20
-29.672916666700001
 30
0.0
 11
50.43523358649999
 21
-30.677941919799999
 31
0.0
  0
ARC
  5
117
  8
ﾚｲﾔ_1
 62
     5
 10
49.430208333300001
 20
-29.672916666700001
 30
0.0
 40
0.7
 50
180.0
 51
225.0
  0
LINE
  5
118
  8
ﾚｲﾔ_1
 62
     5
 10
49.9402588397
 20
-31.172916666700001
 30
0.0
 11
50.43523358649999
 21
-30.677941919799999
 31
0.0
  0
LINE
  5
119
  8
ﾚｲﾔ_1
 62
     5
 10
45.88020833329999
 20
-21.172916666700001
 30
0.0
 11
45.88020833329999
 21
-31.172916666700001
 31
0.0
  0
LINE
  5
11A
  8
ﾚｲﾔ_1
 62
     5
 10
59.780208333300003
 20
-21.172916666700001
 30
0.0
 11
61.280208333300003
 21
-21.172916666700001
 31
0.0
  0
LINE
  5
11B
  8
ﾚｲﾔ_1
 62
     5
 10
58.430208333300001
 20
-21.172916666700001
 30
0.0
 11
58.524494779999998
 21
-21.172916666700001
 31
0.0
  0
LINE
  5
11C
  8
ﾚｲﾔ_1
 62
     5
 10
58.430208333300001
 20
-20.757057535200001
 30
0.0
 11
58.430208333300001
 21
-29.672916525000002
 31
0.0
  0
LINE
  5
11D
  8
ﾚｲﾔ_1
 62
     5
 10
61.280208333300003
 20
-21.172916666700001
 30
0.0
 11
61.280208333300003
 21
-31.172916666700001
 31
0.0
  0
LINE
  5
11E
  8
ﾚｲﾔ_1
 62
     5
 10
57.661838819799989
 20
-26.072916666699999
 30
0.0
 11
57.730208333299998
 21
-26.072916666699999
 31
0.0
  0
LINE
  5
11F
  8
ﾚｲﾔ_1
 62
     5
 10
57.5802083333
 20
-20.812916666700001
 30
0.0
 11
58.430208333300001
 21
-20.812916666700001
 31
0.0
  0
LINE
  5
120
  8
ﾚｲﾔ_1
 62
     5
 10
57.5802083333
 20
-22.312916666700001
 30
0.0
 11
58.430208333300001
 21
-22.312916666700001
 31
0.0
  0
LINE
  5
121
  8
ﾚｲﾔ_1
 62
     5
 10
57.730208333299998
 20
-20.757057535200001
 30
0.0
 11
57.730208333299998
 21
-20.812916666700001
 31
0.0
  0
LINE
  5
122
  8
ﾚｲﾔ_1
 62
     5
 10
57.730208333299998
 20
-29.3729166667
 30
0.0
 11
57.594695611299997
 21
-29.3729166667
 31
0.0
  0
LINE
  5
123
  8
ﾚｲﾔ_1
 62
     5
 10
57.730208333299998
 20
-27.072916666699999
 30
0.0
 11
57.657775089600001
 21
-27.072916666699999
 31
0.0
  0
LINE
  5
124
  8
ﾚｲﾔ_1
 62
     5
 10
57.5802083333
 20
-23.512916666700001
 30
0.0
 11
58.430208333300001
 21
-23.512916666700001
 31
0.0
  0
LINE
  5
125
  8
ﾚｲﾔ_1
 62
     5
 10
58.225183080200011
 20
-30.167891413500001
 30
0.0
 11
57.220157827000001
 21
-31.172916666700001
 31
0.0
  0
LINE
  5
126
  8
ﾚｲﾔ_1
 62
     5
 10
57.220157827000001
 20
-31.172916666700001
 30
0.0
 11
56.725183080199997
 21
-30.677941919799999
 31
0.0
  0
LINE
  5
127
  8
ﾚｲﾔ_1
 62
     5
 10
57.730208333299998
 20
-22.312916666700001
 30
0.0
 11
57.730208333299998
 21
-23.512916666700001
 31
0.0
  0
LINE
  5
128
  8
ﾚｲﾔ_1
 62
     5
 10
48.730208333299998
 20
-26.012916666700001
 30
0.0
 11
58.430208333300001
 21
-26.012916666700001
 31
0.0
  0
LINE
  5
129
  8
ﾚｲﾔ_1
 62
     5
 10
57.730208333299998
 20
-26.012916666700001
 30
0.0
 11
57.730208333299998
 21
-29.672916666700001
 31
0.0
  0
LINE
  5
12A
  8
ﾚｲﾔ_1
 62
     5
 10
57.730208333299998
 20
-29.672916666700001
 30
0.0
 11
56.725183080199997
 21
-30.677941919799999
 31
0.0
  0
ARC
  5
12B
  8
ﾚｲﾔ_1
 62
     5
 10
57.730208333299998
 20
-29.672916666700001
 30
0.0
 40
0.7
 50
315.0
 51
0.0000115963
  0
LINE
  5
12C
  8
ﾚｲﾔ_1
 62
     5
 10
45.88020833329999
 20
-31.172916666700001
 30
0.0
 11
61.280208333300003
 21
-31.172916666700001
 31
0.0
  0
LINE
  5
12D
  8
ﾚｲﾔ_1
 62
     5
 10
49.430208333300001
 20
-26.272916666700009
 30
0.0
 11
49.500342617199998
 21
-26.272916666700009
 31
0.0
  0
ENDBLK
  5
12E
  8
0
  0
BLOCK
  8
0
  2
CLUMP1
 70
     0
 10
0.0
 20
0.0
 30
0.0
  3
CLUMP1
  1

  0
INSERT
  5
13F
  8
0
  6
CONTINUOUS
  2
*U42
 10
0.0
 20
0.0
 30
0.0
  0
LINE
  5
140
  8
図枠
 10
49.621333333300001
 20
-47.741333333299998
 30
0.0
 11
49.621333333300001
 21
-41.074666666699997
 31
0.0
  0
LINE
  5
141
  8
図枠
 10
52.9546666667
 20
-47.741333333299998
 30
0.0
 11
52.9546666667
 21
-41.074666666699997
 31
0.0
  0
LINE
  5
142
  8
図枠
 10
69.621333333300001
 20
-47.741333333299998
 30
0.0
 11
69.621333333300001
 21
-41.074666666699997
 31
0.0
  0
LINE
  5
143
  8
図枠
 10
86.287999999999997
 20
-47.741333333299998
 30
0.0
 11
86.287999999999997
 21
-41.074666666699997
 31
0.0
  0
LINE
  5
144
  8
図枠
 10
97.954666666700021
 20
-41.074666666699997
 30
0.0
 11
49.621333333300001
 21
-41.074666666699997
 31
0.0
  0
LINE
  5
145
  8
図枠
 10
97.954666666700021
 20
-42.741333333299998
 30
0.0
 11
49.621333333300001
 21
-42.741333333299998
 31
0.0
  0
LINE
  5
146
  8
図枠
 10
97.954666666700021
 20
-44.408000000000001
 30
0.0
 11
49.621333333300001
 21
-44.408000000000001
 31
0.0
  0
INSERT
  5
147
  8
0
  6
CONTINUOUS
  2
*U43
 10
0.0
 20
0.0
 30
0.0
  0
INSERT
  5
148
  8
0
  6
CONTINUOUS
  2
*U44
 10
0.0
 20
0.0
 30
0.0
  0
INSERT
  5
149
  8
0
  6
CONTINUOUS
  2
*U45
 10
0.0
 20
0.0
 30
0.0
  0
LINE
  5
14A
  8
図枠
 10
97.954666666700021
 20
-46.074666666699997
 30
0.0
 11
49.621333333300001
 21
-46.074666666699997
 31
0.0
  0
LINE
  5
14B
  8
図枠
 10
62.674882162800003
 20
-63.215775677700002
 30
0.0
 11
62.674882162800003
 21
-63.715775677700002
 31
0.0
  0
LINE
  5
14C
  8
図枠
 10
65.008215496099993
 20
-62.549109010999999
 30
0.0
 11
65.508215496099993
 21
-62.049109010999999
 31
0.0
  0
LINE
  5
14D
  8
図枠
 10
64.174882162800003
 20
-63.215775677700002
 30
0.0
 11
64.174882162800003
 21
-63.382442344399998
 31
0.0
  0
LINE
  5
14E
  8
図枠
 10
64.174882162800003
 20
-62.049109010999999
 30
0.0
 11
64.174882162800003
 21
-62.715775677700002
 31
0.0
  0
LINE
  5
14F
  8
図枠
 10
62.674882162800003
 20
-62.049109010999999
 30
0.0
 11
62.674882162800003
 21
-62.715775677700002
 31
0.0
  0
LINE
  5
150
  8
図枠
 10
71.911233184399975
 20
-62.6157756777
 30
0.0
 11
71.862435101000003
 21
-62.446199380899998
 31
0.0
  0
LINE
  5
151
  8
図枠
 10
69.395084182999994
 20
-62.049109010999999
 30
0.0
 11
66.395084183000009
 21
-62.049109010999999
 31
0.0
  0
LINE
  5
152
  8
図枠
 10
66.395084183000009
 20
-63.882442344399998
 30
0.0
 11
66.395084183000009
 21
-64.38244234439999
 31
0.0
  0
LINE
  5
153
  8
図枠
 10
72.160629315099996
 20
-63.482442344399999
 30
0.0
 11
73.1342450657
 21
-63.482442344399999
 31
0.0
  0
LINE
  5
154
  8
図枠
 10
62.674882162800003
 20
-63.715775677700002
 30
0.0
 11
63.5082154961
 21
-63.715775677700002
 31
0.0
  0
LINE
  5
155
  8
図枠
 10
67.9071883469
 20
-63.222132646099993
 30
0.0
 11
67.826989744800002
 21
-63.310712099600011
 31
0.0
  0
LINE
  5
156
  8
図枠
 10
65.508215496099993
 20
-62.715775677700002
 30
0.0
 11
65.508215496099993
 21
-63.215775677700002
 31
0.0
  0
LINE
  5
157
  8
図枠
 10
65.508215496099993
 20
-62.049109010999999
 30
0.0
 11
64.174882162800003
 21
-62.049109010999999
 31
0.0
  0
LINE
  5
158
  8
図枠
 10
72.467578399099992
 20
-64.549109010999985
 30
0.0
 11
72.333288174799989
 21
-64.082442344399993
 31
0.0
  0
LINE
  5
159
  8
図枠
 10
97.954666666700021
 20
-54.074666666699997
 30
0.0
 11
49.621333333300001
 21
-54.074666666699997
 31
0.0
  0
LINE
  5
15A
  8
図枠
 10
97.954666666700021
 20
-51.741333333299998
 30
0.0
 11
49.621333333300001
 21
-51.741333333299998
 31
0.0
  0
LINE
  5
15B
  8
図枠
 10
57.9546666667
 20
-54.074666666699997
 30
0.0
 11
57.9546666667
 21
-57.741333333299998
 31
0.0
  0
LINE
  5
15C
  8
図枠
 10
50.4546666667
 20
-55.908000000000001
 30
0.0
 11
57.121333333300001
 21
-55.908000000000001
 31
0.0
  0
LINE
  5
15D
  8
図枠
 10
63.5082154961
 20
-62.715775677700002
 30
0.0
 11
63.5082154961
 21
-62.549109010999999
 31
0.0
  0
LINE
  5
15E
  8
図枠
 10
68.682657300299994
 20
-63.665486080699999
 30
0.0
 11
68.623289947100005
 21
-63.723612128799999
 31
0.0
  0
LINE
  5
15F
  8
図枠
 10
74.621333333300001
 20
-54.074666666699997
 30
0.0
 11
74.621333333300001
 21
-65.074666666699997
 31
0.0
  0
LINE
  5
160
  8
図枠
 10
65.008215496099993
 20
-62.715775677700002
 30
0.0
 11
65.008215496099993
 21
-62.549109010999999
 31
0.0
  0
LINE
  5
161
  8
図枠
 10
62.9546666667
 20
-59.574666666700011
 30
0.0
 11
73.787999999999997
 21
-59.574666666700011
 31
0.0
  0
LINE
  5
162
  8
図枠
 10
50.4546666667
 20
-59.574666666700011
 30
0.0
 11
61.287999999999997
 21
-59.574666666700011
 31
0.0
  0
LINE
  5
163
  8
図枠
 10
49.621333333300001
 20
-61.408000000000001
 30
0.0
 11
97.954666666700021
 21
-61.408000000000001
 31
0.0
  0
LINE
  5
164
  8
図枠
 10
49.621333333300001
 20
-54.074666666699997
 30
0.0
 11
49.621333333300001
 21
-65.074666666699997
 31
0.0
  0
LINE
  5
165
  8
図枠
 10
63.5082154961
 20
-63.215775677700002
 30
0.0
 11
64.174882162800003
 21
-63.215775677700002
 31
0.0
  0
ARC
  5
166
  8
図枠
 10
67.228417516299984
 20
-62.549109010999999
 30
0.0
 40
1.8333333332999999
 50
270.0
 51
302.54495885400001
  0
LINE
  5
167
  8
図枠
 10
71.534245065699992
 20
-64.549109010999985
 30
0.0
 11
71.397356176800002
 21
-64.082442344399993
 31
0.0
  0
LINE
  5
168
  8
図枠
 10
73.1342450657
 20
-62.6157756777
 30
0.0
 11
73.1342450657
 21
-63.215775677700002
 31
0.0
  0
LINE
  5
169
  8
図枠
 10
70.1342450657
 20
-63.215775677700002
 30
0.0
 11
71.143133954600003
 21
-63.215775677700002
 31
0.0
  0
LINE
  5
16A
  8
図枠
 10
65.508215496099993
 20
-62.715775677700002
 30
0.0
 11
65.008215496099993
 21
-62.715775677700002
 31
0.0
  0
LINE
  5
16B
  8
図枠
 10
72.333288174799989
 20
-64.082442344399993
 30
0.0
 11
73.1342450657
 21
-64.082442344399993
 31
0.0
  0
LINE
  5
16C
  8
図枠
 10
62.291180892200003
 20
-63.215775677700002
 30
0.0
 11
62.624514225600002
 21
-63.215775677700002
 31
0.0
  0
ARC
  5
16D
  8
図枠
 10
67.228417516299984
 20
-62.549109010999999
 30
0.0
 40
1.8333333332999999
 50
322.48761197969998
 51
0.0
  0
LINE
  5
16E
  8
図枠
 10
62.121333333300001
 20
-57.741333333299998
 30
0.0
 11
62.121333333300001
 21
-61.408000000000001
 31
0.0
  0
LINE
  5
16F
  8
図枠
 10
58.787999999999997
 20
-55.908000000000001
 30
0.0
 11
65.454666666700007
 21
-55.908000000000001
 31
0.0
  0
LINE
  5
170
  8
図枠
 10
66.287999999999997
 20
-54.074666666699997
 30
0.0
 11
66.287999999999997
 21
-57.741333333299998
 31
0.0
  0
LINE
  5
171
  8
図枠
 10
49.621333333300001
 20
-57.741333333299998
 30
0.0
 11
97.954666666700021
 21
-57.741333333299998
 31
0.0
  0
LINE
  5
172
  8
図枠
 10
70.1342450657
 20
-62.6157756777
 30
0.0
 11
70.967133954600001
 21
-62.6157756777
 31
0.0
  0
LINE
  5
173
  8
図枠
 10
62.291180892200003
 20
-62.715775677700002
 30
0.0
 11
62.291180892200003
 21
-63.215775677700002
 31
0.0
  0
LINE
  5
174
  8
図枠
 10
97.954666666700021
 20
-49.408000000000001
 30
0.0
 11
49.621333333300001
 21
-49.408000000000001
 31
0.0
  0
LINE
  5
175
  8
図枠
 10
66.395084183000009
 20
-62.823145766899998
 30
0.0
 11
67.728417516299999
 21
-62.823145766899998
 31
0.0
  0
ARC
  5
176
  8
図枠
 10
66.795084183
 20
-62.6157756777
 30
0.0
 40
1.2666666666999991
 50
270.0
 51
298.08590481520002
  0
LINE
  5
177
  8
図枠
 10
72.083892044099997
 20
-63.215775677700002
 30
0.0
 11
73.1342450657
 21
-63.215775677700002
 31
0.0
  0
LINE
  5
178
  8
図枠
 10
67.728417516299999
 20
-62.823145766899998
 30
0.0
 11
67.539855708000005
 21
-63.011707575200013
 31
0.0
  0
LINE
  5
179
  8
図枠
 10
66.395084183000009
 20
-62.930515856
 30
0.0
 11
66.395084183000009
 21
-62.823145766899998
 31
0.0
  0
LINE
  5
17A
  8
図枠
 10
66.395084183000009
 20
-64.38244234439999
 30
0.0
 11
67.228417516299984
 21
-64.38244234439999
 31
0.0
  0
LINE
  5
17B
  8
図枠
 10
66.395084183000009
 20
-62.049109010999999
 30
0.0
 11
66.395084183000009
 21
-62.649109011000007
 31
0.0
  0
ARC
  5
17C
  8
図枠
 10
64.008215496099993
 20
-63.382442344399998
 30
0.0
 40
1.0
 50
270.0
 51
0.0
  0
LINE
  5
17D
  8
図枠
 10
70.967133954600001
 20
-62.6157756777
 30
0.0
 11
70.800911732399996
 21
-62.049109010999999
 31
0.0
  0
LINE
  5
17E
  8
図枠
 10
70.1342450657
 20
-63.482442344399999
 30
0.0
 11
71.221356176800001
 21
-63.482442344399999
 31
0.0
  0
LINE
  5
17F
  8
図枠
 10
72.160629315099996
 20
-63.482442344399999
 30
0.0
 11
72.083892044099997
 21
-63.215775677700002
 31
0.0
  0
LINE
  5
180
  8
図枠
 10
71.911233184399975
 20
-62.6157756777
 30
0.0
 11
73.1342450657
 21
-62.6157756777
 31
0.0
  0
LINE
  5
181
  8
図枠
 10
65.008215496099993
 20
-63.382442344399998
 30
0.0
 11
65.008215496099993
 21
-63.215775677700002
 31
0.0
  0
LINE
  5
182
  8
図枠
 10
70.1342450657
 20
-62.6157756777
 30
0.0
 11
70.1342450657
 21
-63.215775677700002
 31
0.0
  0
LINE
  5
183
  8
図枠
 10
64.174882162800003
 20
-62.715775677700002
 30
0.0
 11
63.5082154961
 21
-62.715775677700002
 31
0.0
  0
LINE
  5
184
  8
図枠
 10
62.674882162800003
 20
-63.215775677700002
 30
0.0
 11
62.624514225600002
 21
-63.215775677700002
 31
0.0
  0
LINE
  5
185
  8
図枠
 10
62.674882162800003
 20
-63.882442344399998
 30
0.0
 11
62.674882162800003
 21
-64.38244234439999
 31
0.0
  0
ARC
  5
186
  8
図枠
 10
66.795084183
 20
-62.6157756777
 30
0.0
 40
1.2666666666999991
 50
331.39928138329998
 51
358.49204224580001
  0
LINE
  5
187
  8
図枠
 10
65.008215496099993
 20
-63.215775677700002
 30
0.0
 11
65.508215496099993
 21
-63.215775677700002
 31
0.0
  0
INSERT
  5
188
  8
0
  6
CONTINUOUS
  2
*U46
 10
0.0
 20
0.0
 30
0.0
  0
LINE
  5
189
  8
図枠
 10
69.061750849600003
 20
-62.549109010999999
 30
0.0
 11
69.395084182999994
 21
-62.049109010999999
 31
0.0
  0
LINE
  5
18A
  8
図枠
 10
71.862435101000003
 20
-62.446199380899998
 30
0.0
 11
72.1342450657
 21
-62.049109010999999
 31
0.0
  0
LINE
  5
18B
  8
図枠
 10
66.395084183000009
 20
-64.38244234439999
 30
0.0
 11
66.395084183000009
 21
-63.882442344399998
 31
0.0
  0
LINE
  5
18C
  8
図枠
 10
66.395084183000009
 20
-63.882442344399998
 30
0.0
 11
66.795084183
 21
-63.882442344399998
 31
0.0
  0
LINE
  5
18D
  8
図枠
 10
70.800911732399996
 20
-62.049109010999999
 30
0.0
 11
72.1342450657
 21
-62.049109010999999
 31
0.0
  0
LINE
  5
18E
  8
図枠
 10
62.674882162800003
 20
-62.715775677700002
 30
0.0
 11
62.291180892200003
 21
-62.715775677700002
 31
0.0
  0
LINE
  5
18F
  8
図枠
 10
70.916639170600007
 20
-55.508000000000003
 30
0.0
 11
70.916639170600007
 21
-56.308
 31
0.0
  0
LINE
  5
190
  8
図枠
 10
72.516639170600001
 20
-55.107999999999997
 30
0.0
 11
72.516639170600001
 21
-56.707999999999991
 31
0.0
  0
LINE
  5
191
  8
図枠
 10
71.221356176800001
 20
-63.482442344399999
 30
0.0
 11
71.143133954600003
 21
-63.215775677700002
 31
0.0
  0
LINE
  5
192
  8
図枠
 10
62.674882162800003
 20
-64.38244234439999
 30
0.0
 11
64.008215496099993
 21
-64.38244234439999
 31
0.0
  0
LINE
  5
193
  8
図枠
 10
70.1342450657
 20
-64.082442344399993
 30
0.0
 11
71.397356176800002
 21
-64.082442344399993
 31
0.0
  0
ARC
  5
194
  8
図枠
 10
63.674882162799989
 20
-63.382442344399998
 30
0.0
 40
0.5
 50
270.0
 51
0.0
  0
LINE
  5
195
  8
図枠
 10
70.1342450657
 20
-63.482442344399999
 30
0.0
 11
70.1342450657
 21
-64.082442344399993
 31
0.0
  0
LINE
  5
196
  8
図枠
 10
72.467578399099992
 20
-64.549109010999985
 30
0.0
 11
71.534245065699992
 21
-64.549109010999985
 31
0.0
  0
LINE
  5
197
  8
図枠
 10
69.061750849600003
 20
-62.549109010999999
 30
0.0
 11
69.395084182999994
 21
-62.049109010999999
 31
0.0
  0
LINE
  5
198
  8
図枠
 10
73.1342450657
 20
-63.482442344399999
 30
0.0
 11
73.1342450657
 21
-64.082442344399993
 31
0.0
  0
LINE
  5
199
  8
図枠
 10
69.395084182999994
 20
-63.882442344399998
 30
0.0
 11
69.395084182999994
 21
-64.38244234439999
 31
0.0
  0
LINE
  5
19A
  8
図枠
 10
63.5082154961
 20
-63.715775677700002
 30
0.0
 11
63.5082154961
 21
-63.215775677700002
 31
0.0
  0
LINE
  5
19B
  8
図枠
 10
57.9546666667
 20
-54.074666666699997
 30
0.0
 11
57.9546666667
 21
-49.408000000000001
 31
0.0
  0
LINE
  5
19C
  8
図枠
 10
64.008215496099993
 20
-62.049109010999999
 30
0.0
 11
62.674882162800003
 21
-62.049109010999999
 31
0.0
  0
LINE
  5
19D
  8
図枠
 10
63.5082154961
 20
-62.549109010999999
 30
0.0
 11
64.008215496099993
 21
-62.049109010999999
 31
0.0
  0
LINE
  5
19E
  8
図枠
 10
63.674882162799989
 20
-63.882442344399998
 30
0.0
 11
62.674882162800003
 21
-63.882442344399998
 31
0.0
  0
LINE
  5
19F
  8
図枠
 10
66.395084183000009
 20
-62.649109011000007
 30
0.0
 11
68.061750849600003
 21
-62.649109011000007
 31
0.0
  0
LINE
  5
1A0
  8
図枠
  6
BORDER
 10
69.088000000000008
 20
-54.707999999999998
 30
0.0
 11
69.088000000000008
 21
-57.107999999999997
 31
0.0
  0
LINE
  5
1A1
  8
図枠
  6
BORDER
 10
67.888000000000005
 20
-55.908000000000001
 30
0.0
 11
73.021333333299992
 21
-55.908000000000001
 31
0.0
  0
CIRCLE
  5
1A2
  8
図枠
 10
69.088000000000008
 20
-55.908000000000001
 30
0.0
 40
0.4
  0
LINE
  5
1A3
  8
図枠
 10
49.621333333300001
 20
-49.408000000000001
 30
0.0
 11
49.621333333300001
 21
-54.074666666699997
 31
0.0
  0
INSERT
  5
1A4
  8
0
  6
CONTINUOUS
  2
*U47
 10
0.0
 20
0.0
 30
0.0
  0
INSERT
  5
1A5
  8
0
  6
CONTINUOUS
  2
*U48
 10
0.0
 20
0.0
 30
0.0
  0
INSERT
  5
1A6
  8
0
  6
CONTINUOUS
  2
*U49
 10
0.0
 20
0.0
 30
0.0
  0
INSERT
  5
1A7
  8
0
  6
CONTINUOUS
  2
*U50
 10
0.0
 20
0.0
 30
0.0
  0
INSERT
  5
1A8
  8
0
  6
CONTINUOUS
  2
*U51
 10
0.0
 20
0.0
 30
0.0
  0
INSERT
  5
1A9
  8
0
  6
CONTINUOUS
  2
*U52
 10
0.0
 20
0.0
 30
0.0
  0
LINE
  5
1AA
  8
図枠
 62
     5
 10
97.954666666700021
 20
-65.074666666699997
 30
0.0
 11
97.954666666700021
 21
28.258666666700002
 31
0.0
  0
LINE
  5
1AB
  8
図枠
 62
     5
 10
97.954666666700021
 20
-65.074666666699997
 30
0.0
 11
-35.378666666699999
 21
-65.074666666699997
 31
0.0
  0
INSERT
  5
1AC
  8
0
  6
CONTINUOUS
  2
*U53
 10
0.0
 20
0.0
 30
0.0
  0
LINE
  5
1AD
  8
図枠
 62
     5
 10
-35.378666666699999
 20
-65.074666666699997
 30
0.0
 11
-35.378666666699999
 21
28.258666666700002
 31
0.0
  0
LINE
  5
1AE
  8
図枠
  6
DOT
 10
-37.03866666670001
 20
-66.484666666699994
 30
0.0
 11
-37.03866666670001
 21
29.668666666699998
 31
0.0
  0
LINE
  5
1AF
  8
図枠
  6
DOT
 10
-37.03866666670001
 20
-66.484666666699994
 30
0.0
 11
99.614666666700003
 21
-66.484666666699994
 31
0.0
  0
LINE
  5
1B0
  8
図枠
  6
DOT
 10
99.614666666700003
 20
29.668666666699998
 30
0.0
 11
-37.03866666670001
 21
29.668666666699998
 31
0.0
  0
LINE
  5
1B1
  8
図枠
  6
DOT
 10
99.614666666700003
 20
-66.484666666699994
 30
0.0
 11
99.614666666700003
 21
29.668666666699998
 31
0.0
  0
LINE
  5
1B2
  8
図枠
 62
     5
 10
97.954666666700021
 20
28.258666666700002
 30
0.0
 11
-35.378666666699999
 21
28.258666666700002
 31
0.0
  0
LINE
  5
1B3
  8
図枠
 62
     5
 10
74.621333333300001
 20
23.258666666700002
 30
0.0
 11
74.621333333300001
 21
28.258666666700002
 31
0.0
  0
INSERT
  5
1B4
  8
0
  6
CONTINUOUS
  2
*U54
 10
0.0
 20
0.0
 30
0.0
  0
INSERT
  5
1B5
  8
0
  6
CONTINUOUS
  2
*U55
 10
0.0
 20
0.0
 30
0.0
  0
INSERT
  5
1B6
  8
0
  6
CONTINUOUS
  2
*U56
 10
0.0
 20
0.0
 30
0.0
  0
LINE
  5
1B7
  8
図枠
 62
     5
 10
91.287999999999997
 20
23.258666666700002
 30
0.0
 11
91.287999999999997
 21
28.258666666700002
 31
0.0
  0
INSERT
  5
1B8
  8
0
  6
CONTINUOUS
  2
*U57
 10
0.0
 20
0.0
 30
0.0
  0
INSERT
  5
1B9
  8
0
  6
CONTINUOUS
  2
*U58
 10
0.0
 20
0.0
 30
0.0
  0
LINE
  5
1BA
  8
図枠
 62
     5
 10
69.287999999999997
 20
23.258666666700002
 30
0.0
 11
69.287999999999997
 21
28.258666666700002
 31
0.0
  0
LINE
  5
1BB
  8
図枠
 62
     5
 10
67.0349048713
 20
25.068930583699998
 30
0.0
 11
68.684904871300006
 21
25.068930583699998
 31
0.0
  0
LINE
  5
1BC
  8
図枠
 62
     5
 10
67.859904871300003
 20
26.497872499900001
 30
0.0
 11
68.684904871300006
 21
25.068930583699998
 31
0.0
  0
LINE
  5
1BD
  8
図枠
 62
     5
 10
67.859904871300003
 20
26.497872499900001
 30
0.0
 11
67.0349048713
 21
25.068930583699998
 31
0.0
  0
LINE
  5
1BE
  8
図枠
 62
     5
 10
67.859904871300003
 20
24.847872499899999
 30
0.0
 11
67.0349048713
 21
23.4189305837
 31
0.0
  0
LINE
  5
1BF
  8
図枠
 62
     5
 10
67.859904871300003
 20
24.847872499899999
 30
0.0
 11
68.684904871300006
 21
23.4189305837
 31
0.0
  0
INSERT
  5
1C0
  8
0
  6
CONTINUOUS
  2
*U59
 10
0.0
 20
0.0
 30
0.0
  0
INSERT
  5
1C1
  8
0
  6
CONTINUOUS
  2
*U60
 10
0.0
 20
0.0
 30
0.0
  0
INSERT
  5
1C2
  8
0
  6
CONTINUOUS
  2
*U61
 10
0.0
 20
0.0
 30
0.0
  0
LINE
  5
1C3
  8
図枠
 62
     5
 10
67.0349048713
 20
23.4189305837
 30
0.0
 11
68.684904871300006
 21
23.4189305837
 31
0.0
  0
LINE
  5
1C4
  8
図枠
 62
     5
 10
66.621333333300001
 20
23.258666666700002
 30
0.0
 11
66.621333333300001
 21
28.258666666700002
 31
0.0
  0
LINE
  5
1C5
  8
図枠
 62
     5
 10
94.621333333299987
 20
23.258666666700002
 30
0.0
 11
94.621333333299987
 21
28.258666666700002
 31
0.0
  0
LINE
  5
1C6
  8
図枠
 62
     5
 10
66.621333333300001
 20
26.591999999999999
 30
0.0
 11
97.954666666700021
 21
26.591999999999999
 31
0.0
  0
LINE
  5
1C7
  8
図枠
 62
     5
 10
66.621333333300001
 20
24.925333333299999
 30
0.0
 11
97.954666666700021
 21
24.925333333299999
 31
0.0
  0
LINE
  5
1C8
  8
図枠
 62
     5
 10
66.621333333300001
 20
23.258666666700002
 30
0.0
 11
97.954666666700021
 21
23.258666666700002
 31
0.0
  0
INSERT
  5
1C9
  8
0
  6
CONTINUOUS
  2
*U62
 10
0.0
 20
0.0
 30
0.0
  0
LINE
  5
1CA
  8
図枠
 10
70.916639170600007
 20
-55.508000000000003
 30
0.0
 11
72.516639170600001
 21
-55.107999999999997
 31
0.0
  0
LINE
  5
1CB
  8
図枠
 10
70.916639170600007
 20
-56.308
 30
0.0
 11
72.516639170600001
 21
-56.707999999999991
 31
0.0
  0
LINE
  5
1CC
  8
図枠
 10
97.954666666700021
 20
-47.741333333299998
 30
0.0
 11
49.621333333300001
 21
-47.741333333299998
 31
0.0
  0
POLYLINE
  8
図枠
  5
344
  66
     1
 10
0.000000
 20
0.000000
 30
0.000000
  70
     8
  0
VERTEX
  8
図枠
  5
345
 10
68.2147
 20
-64.0946
 30
0.000000
  70
    32
  0
VERTEX
  8
図枠
  5
346
 10
68.2237
 20
-64.0974
 30
0.000000
  70
    32
  0
VERTEX
  8
図枠
  5
347
 10
68.2326
 20
-64.1003
 30
0.000000
  70
    32
  0
VERTEX
  8
図枠
  5
348
 10
68.2416
 20
-64.1031
 30
0.000000
  70
    32
  0
VERTEX
  8
図枠
  5
349
 10
68.2506
 20
-64.1059
 30
0.000000
  70
    32
  0
VERTEX
  8
図枠
  5
34A
 10
68.2596
 20
-64.1087
 30
0.000000
  70
    32
  0
VERTEX
  8
図枠
  5
34B
 10
68.2686
 20
-64.1115
 30
0.000000
  70
    32
  0
VERTEX
  8
図枠
  5
34C
 10
68.2776
 20
-64.1143
 30
0.000000
  70
    32
  0
VERTEX
  8
図枠
  5
34D
 10
68.2867
 20
-64.1171
 30
0.000000
  70
    32
  0
VERTEX
  8
図枠
  5
34E
 10
68.2957
 20
-64.1198
 30
0.000000
  70
    32
  0
VERTEX
  8
図枠
  5
34F
 10
68.3047
 20
-64.1225
 30
0.000000
  70
    32
  0
VERTEX
  8
図枠
  5
350
 10
68.3138
 20
-64.1253
 30
0.000000
  70
    32
  0
VERTEX
  8
図枠
  5
351
 10
68.3228
 20
-64.1280
 30
0.000000
  70
    32
  0
VERTEX
  8
図枠
  5
352
 10
68.3319
 20
-64.1307
 30
0.000000
  70
    32
  0
VERTEX
  8
図枠
  5
353
 10
68.3410
 20
-64.1334
 30
0.000000
  70
    32
  0
VERTEX
  8
図枠
  5
354
 10
68.3500
 20
-64.1360
 30
0.000000
  70
    32
  0
VERTEX
  8
図枠
  5
355
 10
68.3591
 20
-64.1387
 30
0.000000
  70
    32
  0
VERTEX
  8
図枠
  5
356
 10
68.3682
 20
-64.1414
 30
0.000000
  70
    32
  0
VERTEX
  8
図枠
  5
357
 10
68.3773
 20
-64.1440
 30
0.000000
  70
    32
  0
VERTEX
  8
図枠
  5
358
 10
68.3864
 20
-64.1466
 30
0.000000
  70
    32
  0
VERTEX
  8
図枠
  5
359
 10
68.3955
 20
-64.1492
 30
0.000000
  70
    32
  0
VERTEX
  8
図枠
  5
35A
 10
68.4046
 20
-64.1518
 30
0.000000
  70
    32
  0
VERTEX
  8
図枠
  5
35B
 10
68.4138
 20
-64.1544
 30
0.000000
  70
    32
  0
VERTEX
  8
図枠
  5
35C
 10
68.4229
 20
-64.1570
 30
0.000000
  70
    32
  0
VERTEX
  8
図枠
  5
35D
 10
68.4320
 20
-64.1596
 30
0.000000
  70
    32
  0
VERTEX
  8
図枠
  5
35E
 10
68.4412
 20
-64.1621
 30
0.000000
  70
    32
  0
VERTEX
  8
図枠
  5
35F
 10
68.4503
 20
-64.1647
 30
0.000000
  70
    32
  0
VERTEX
  8
図枠
  5
360
 10
68.4595
 20
-64.1672
 30
0.000000
  70
    32
  0
VERTEX
  8
図枠
  5
361
 10
68.4686
 20
-64.1697
 30
0.000000
  70
    32
  0
VERTEX
  8
図枠
  5
362
 10
68.4778
 20
-64.1722
 30
0.000000
  70
    32
  0
VERTEX
  8
図枠
  5
363
 10
68.4869
 20
-64.1747
 30
0.000000
  70
    32
  0
VERTEX
  8
図枠
  5
364
 10
68.4961
 20
-64.1772
 30
0.000000
  70
    32
  0
VERTEX
  8
図枠
  5
365
 10
68.5053
 20
-64.1797
 30
0.000000
  70
    32
  0
VERTEX
  8
図枠
  5
366
 10
68.5145
 20
-64.1821
 30
0.000000
  70
    32
  0
VERTEX
  8
図枠
  5
367
 10
68.5237
 20
-64.1846
 30
0.000000
  70
    32
  0
VERTEX
  8
図枠
  5
368
 10
68.5329
 20
-64.1870
 30
0.000000
  70
    32
  0
VERTEX
  8
図枠
  5
369
 10
68.5421
 20
-64.1895
 30
0.000000
  70
    32
  0
VERTEX
  8
図枠
  5
36A
 10
68.5513
 20
-64.1919
 30
0.000000
  70
    32
  0
VERTEX
  8
図枠
  5
36B
 10
68.5605
 20
-64.1943
 30
0.000000
  70
    32
  0
VERTEX
  8
図枠
  5
36C
 10
68.5697
 20
-64.1967
 30
0.000000
  70
    32
  0
VERTEX
  8
図枠
  5
36D
 10
68.5789
 20
-64.1991
 30
0.000000
  70
    32
  0
VERTEX
  8
図枠
  5
36E
 10
68.5882
 20
-64.2015
 30
0.000000
  70
    32
  0
VERTEX
  8
図枠
  5
36F
 10
68.5974
 20
-64.2039
 30
0.000000
  70
    32
  0
VERTEX
  8
図枠
  5
370
 10
68.6067
 20
-64.2062
 30
0.000000
  70
    32
  0
VERTEX
  8
図枠
  5
371
 10
68.6159
 20
-64.2086
 30
0.000000
  70
    32
  0
VERTEX
  8
図枠
  5
372
 10
68.6252
 20
-64.2109
 30
0.000000
  70
    32
  0
VERTEX
  8
図枠
  5
373
 10
68.6344
 20
-64.2133
 30
0.000000
  70
    32
  0
VERTEX
  8
図枠
  5
374
 10
68.6437
 20
-64.2156
 30
0.000000
  70
    32
  0
VERTEX
  8
図枠
  5
375
 10
68.6529
 20
-64.2179
 30
0.000000
  70
    32
  0
VERTEX
  8
図枠
  5
376
 10
68.6622
 20
-64.2202
 30
0.000000
  70
    32
  0
VERTEX
  8
図枠
  5
377
 10
68.6715
 20
-64.2225
 30
0.000000
  70
    32
  0
VERTEX
  8
図枠
  5
378
 10
68.6808
 20
-64.2248
 30
0.000000
  70
    32
  0
VERTEX
  8
図枠
  5
379
 10
68.6900
 20
-64.2271
 30
0.000000
  70
    32
  0
VERTEX
  8
図枠
  5
37A
 10
68.6993
 20
-64.2294
 30
0.000000
  70
    32
  0
VERTEX
  8
図枠
  5
37B
 10
68.7086
 20
-64.2317
 30
0.000000
  70
    32
  0
VERTEX
  8
図枠
  5
37C
 10
68.7179
 20
-64.2339
 30
0.000000
  70
    32
  0
VERTEX
  8
図枠
  5
37D
 10
68.7272
 20
-64.2362
 30
0.000000
  70
    32
  0
VERTEX
  8
図枠
  5
37E
 10
68.7365
 20
-64.2384
 30
0.000000
  70
    32
  0
VERTEX
  8
図枠
  5
37F
 10
68.7459
 20
-64.2407
 30
0.000000
  70
    32
  0
VERTEX
  8
図枠
  5
380
 10
68.7552
 20
-64.2429
 30
0.000000
  70
    32
  0
VERTEX
  8
図枠
  5
381
 10
68.7645
 20
-64.2451
 30
0.000000
  70
    32
  0
VERTEX
  8
図枠
  5
382
 10
68.7738
 20
-64.2473
 30
0.000000
  70
    32
  0
VERTEX
  8
図枠
  5
383
 10
68.7831
 20
-64.2495
 30
0.000000
  70
    32
  0
VERTEX
  8
図枠
  5
384
 10
68.7925
 20
-64.2517
 30
0.000000
  70
    32
  0
VERTEX
  8
図枠
  5
385
 10
68.8018
 20
-64.2539
 30
0.000000
  70
    32
  0
VERTEX
  8
図枠
  5
386
 10
68.8111
 20
-64.2561
 30
0.000000
  70
    32
  0
VERTEX
  8
図枠
  5
387
 10
68.8205
 20
-64.2583
 30
0.000000
  70
    32
  0
VERTEX
  8
図枠
  5
388
 10
68.8298
 20
-64.2605
 30
0.000000
  70
    32
  0
VERTEX
  8
図枠
  5
389
 10
68.8392
 20
-64.2626
 30
0.000000
  70
    32
  0
VERTEX
  8
図枠
  5
38A
 10
68.8485
 20
-64.2648
 30
0.000000
  70
    32
  0
VERTEX
  8
図枠
  5
38B
 10
68.8579
 20
-64.2669
 30
0.000000
  70
    32
  0
VERTEX
  8
図枠
  5
38C
 10
68.8673
 20
-64.2691
 30
0.000000
  70
    32
  0
VERTEX
  8
図枠
  5
38D
 10
68.8766
 20
-64.2712
 30
0.000000
  70
    32
  0
VERTEX
  8
図枠
  5
38E
 10
68.8860
 20
-64.2733
 30
0.000000
  70
    32
  0
VERTEX
  8
図枠
  5
38F
 10
68.8954
 20
-64.2755
 30
0.000000
  70
    32
  0
VERTEX
  8
図枠
  5
390
 10
68.9047
 20
-64.2776
 30
0.000000
  70
    32
  0
VERTEX
  8
図枠
  5
391
 10
68.9141
 20
-64.2797
 30
0.000000
  70
    32
  0
VERTEX
  8
図枠
  5
392
 10
68.9235
 20
-64.2818
 30
0.000000
  70
    32
  0
VERTEX
  8
図枠
  5
393
 10
68.9329
 20
-64.2839
 30
0.000000
  70
    32
  0
VERTEX
  8
図枠
  5
394
 10
68.9423
 20
-64.2860
 30
0.000000
  70
    32
  0
VERTEX
  8
図枠
  5
395
 10
68.9516
 20
-64.2881
 30
0.000000
  70
    32
  0
VERTEX
  8
図枠
  5
396
 10
68.9610
 20
-64.2902
 30
0.000000
  70
    32
  0
VERTEX
  8
図枠
  5
397
 10
68.9704
 20
-64.2923
 30
0.000000
  70
    32
  0
VERTEX
  8
図枠
  5
398
 10
68.9798
 20
-64.2943
 30
0.000000
  70
    32
  0
VERTEX
  8
図枠
  5
399
 10
68.9892
 20
-64.2964
 30
0.000000
  70
    32
  0
VERTEX
  8
図枠
  5
39A
 10
68.9986
 20
-64.2985
 30
0.000000
  70
    32
  0
VERTEX
  8
図枠
  5
39B
 10
69.0080
 20
-64.3005
 30
0.000000
  70
    32
  0
VERTEX
  8
図枠
  5
39C
 10
69.0174
 20
-64.3026
 30
0.000000
  70
    32
  0
VERTEX
  8
図枠
  5
39D
 10
69.0269
 20
-64.3047
 30
0.000000
  70
    32
  0
VERTEX
  8
図枠
  5
39E
 10
69.0363
 20
-64.3067
 30
0.000000
  70
    32
  0
VERTEX
  8
図枠
  5
39F
 10
69.0457
 20
-64.3088
 30
0.000000
  70
    32
  0
VERTEX
  8
図枠
  5
3A0
 10
69.0551
 20
-64.3108
 30
0.000000
  70
    32
  0
VERTEX
  8
図枠
  5
3A1
 10
69.0645
 20
-64.3128
 30
0.000000
  70
    32
  0
VERTEX
  8
図枠
  5
3A2
 10
69.0739
 20
-64.3149
 30
0.000000
  70
    32
  0
VERTEX
  8
図枠
  5
3A3
 10
69.0834
 20
-64.3169
 30
0.000000
  70
    32
  0
VERTEX
  8
図枠
  5
3A4
 10
69.0928
 20
-64.3189
 30
0.000000
  70
    32
  0
VERTEX
  8
図枠
  5
3A5
 10
69.1022
 20
-64.3209
 30
0.000000
  70
    32
  0
VERTEX
  8
図枠
  5
3A6
 10
69.1116
 20
-64.3230
 30
0.000000
  70
    32
  0
VERTEX
  8
図枠
  5
3A7
 10
69.1211
 20
-64.3250
 30
0.000000
  70
    32
  0
VERTEX
  8
図枠
  5
3A8
 10
69.1305
 20
-64.3270
 30
0.000000
  70
    32
  0
VERTEX
  8
図枠
  5
3A9
 10
69.1399
 20
-64.3290
 30
0.000000
  70
    32
  0
VERTEX
  8
図枠
  5
3AA
 10
69.1494
 20
-64.3310
 30
0.000000
  70
    32
  0
VERTEX
  8
図枠
  5
3AB
 10
69.1588
 20
-64.3330
 30
0.000000
  70
    32
  0
VERTEX
  8
図枠
  5
3AC
 10
69.1683
 20
-64.3350
 30
0.000000
  70
    32
  0
VERTEX
  8
図枠
  5
3AD
 10
69.1777
 20
-64.3370
 30
0.000000
  70
    32
  0
VERTEX
  8
図枠
  5
3AE
 10
69.1871
 20
-64.3390
 30
0.000000
  70
    32
  0
VERTEX
  8
図枠
  5
3AF
 10
69.1966
 20
-64.3410
 30
0.000000
  70
    32
  0
VERTEX
  8
図枠
  5
3B0
 10
69.2060
 20
-64.3430
 30
0.000000
  70
    32
  0
VERTEX
  8
図枠
  5
3B1
 10
69.2155
 20
-64.3450
 30
0.000000
  70
    32
  0
VERTEX
  8
図枠
  5
3B2
 10
69.2249
 20
-64.3469
 30
0.000000
  70
    32
  0
VERTEX
  8
図枠
  5
3B3
 10
69.2344
 20
-64.3489
 30
0.000000
  70
    32
  0
VERTEX
  8
図枠
  5
3B4
 10
69.2438
 20
-64.3509
 30
0.000000
  70
    32
  0
VERTEX
  8
図枠
  5
3B5
 10
69.2533
 20
-64.3529
 30
0.000000
  70
    32
  0
VERTEX
  8
図枠
  5
3B6
 10
69.2627
 20
-64.3549
 30
0.000000
  70
    32
  0
VERTEX
  8
図枠
  5
3B7
 10
69.2722
 20
-64.3568
 30
0.000000
  70
    32
  0
VERTEX
  8
図枠
  5
3B8
 10
69.2816
 20
-64.3588
 30
0.000000
  70
    32
  0
VERTEX
  8
図枠
  5
3B9
 10
69.2911
 20
-64.3608
 30
0.000000
  70
    32
  0
VERTEX
  8
図枠
  5
3BA
 10
69.3005
 20
-64.3628
 30
0.000000
  70
    32
  0
VERTEX
  8
図枠
  5
3BB
 10
69.3100
 20
-64.3647
 30
0.000000
  70
    32
  0
VERTEX
  8
図枠
  5
3BC
 10
69.3194
 20
-64.3667
 30
0.000000
  70
    32
  0
VERTEX
  8
図枠
  5
3BD
 10
69.3289
 20
-64.3687
 30
0.000000
  70
    32
  0
VERTEX
  8
図枠
  5
3BE
 10
69.3383
 20
-64.3706
 30
0.000000
  70
    32
  0
VERTEX
  8
図枠
  5
3BF
 10
69.3478
 20
-64.3726
 30
0.000000
  70
    32
  0
VERTEX
  8
図枠
  5
3C0
 10
69.3573
 20
-64.3746
 30
0.000000
  70
    32
  0
VERTEX
  8
図枠
  5
3C1
 10
69.3667
 20
-64.3765
 30
0.000000
  70
    32
  0
VERTEX
  8
図枠
  5
3C2
 10
69.3762
 20
-64.3785
 30
0.000000
  70
    32
  0
VERTEX
  8
図枠
  5
3C3
 10
69.3856
 20
-64.3805
 30
0.000000
  70
    32
  0
VERTEX
  8
図枠
  5
3C4
 10
69.3951
 20
-64.3824
 30
0.000000
  70
    32
  0
SEQEND
  8
図枠
  5
3C5
  0
POLYLINE
  8
図枠
  5
3C6
  66
     1
 10
0.000000
 20
0.000000
 30
0.000000
  70
     8
  0
VERTEX
  8
図枠
  5
3C7
 10
66.3951
 20
-62.9305
 30
0.000000
  70
    32
  0
VERTEX
  8
図枠
  5
3C8
 10
66.4011
 20
-62.9361
 30
0.000000
  70
    32
  0
VERTEX
  8
図枠
  5
3C9
 10
66.4071
 20
-62.9416
 30
0.000000
  70
    32
  0
VERTEX
  8
図枠
  5
3CA
 10
66.4131
 20
-62.9471
 30
0.000000
  70
    32
  0
VERTEX
  8
図枠
  5
3CB
 10
66.4191
 20
-62.9527
 30
0.000000
  70
    32
  0
VERTEX
  8
図枠
  5
3CC
 10
66.4251
 20
-62.9582
 30
0.000000
  70
    32
  0
VERTEX
  8
図枠
  5
3CD
 10
66.4311
 20
-62.9637
 30
0.000000
  70
    32
  0
VERTEX
  8
図枠
  5
3CE
 10
66.4371
 20
-62.9692
 30
0.000000
  70
    32
  0
VERTEX
  8
図枠
  5
3CF
 10
66.4431
 20
-62.9748
 30
0.000000
  70
    32
  0
VERTEX
  8
図枠
  5
3D0
 10
66.4491
 20
-62.9803
 30
0.000000
  70
    32
  0
VERTEX
  8
図枠
  5
3D1
 10
66.4551
 20
-62.9858
 30
0.000000
  70
    32
  0
VERTEX
  8
図枠
  5
3D2
 10
66.4611
 20
-62.9914
 30
0.000000
  70
    32
  0
VERTEX
  8
図枠
  5
3D3
 10
66.4671
 20
-62.9969
 30
0.000000
  70
    32
  0
VERTEX
  8
図枠
  5
3D4
 10
66.4732
 20
-63.0024
 30
0.000000
  70
    32
  0
VERTEX
  8
図枠
  5
3D5
 10
66.4792
 20
-63.0079
 30
0.000000
  70
    32
  0
VERTEX
  8
図枠
  5
3D6
 10
66.4852
 20
-63.0135
 30
0.000000
  70
    32
  0
VERTEX
  8
図枠
  5
3D7
 10
66.4912
 20
-63.0190
 30
0.000000
  70
    32
  0
VERTEX
  8
図枠
  5
3D8
 10
66.4972
 20
-63.0245
 30
0.000000
  70
    32
  0
VERTEX
  8
図枠
  5
3D9
 10
66.5032
 20
-63.0300
 30
0.000000
  70
    32
  0
VERTEX
  8
図枠
  5
3DA
 10
66.5092
 20
-63.0355
 30
0.000000
  70
    32
  0
VERTEX
  8
図枠
  5
3DB
 10
66.5152
 20
-63.0410
 30
0.000000
  70
    32
  0
VERTEX
  8
図枠
  5
3DC
 10
66.5213
 20
-63.0466
 30
0.000000
  70
    32
  0
VERTEX
  8
図枠
  5
3DD
 10
66.5273
 20
-63.0521
 30
0.000000
  70
    32
  0
VERTEX
  8
図枠
  5
3DE
 10
66.5333
 20
-63.0576
 30
0.000000
  70
    32
  0
VERTEX
  8
図枠
  5
3DF
 10
66.5393
 20
-63.0631
 30
0.000000
  70
    32
  0
VERTEX
  8
図枠
  5
3E0
 10
66.5453
 20
-63.0686
 30
0.000000
  70
    32
  0
VERTEX
  8
図枠
  5
3E1
 10
66.5514
 20
-63.0741
 30
0.000000
  70
    32
  0
VERTEX
  8
図枠
  5
3E2
 10
66.5574
 20
-63.0796
 30
0.000000
  70
    32
  0
VERTEX
  8
図枠
  5
3E3
 10
66.5634
 20
-63.0851
 30
0.000000
  70
    32
  0
VERTEX
  8
図枠
  5
3E4
 10
66.5694
 20
-63.0905
 30
0.000000
  70
    32
  0
VERTEX
  8
図枠
  5
3E5
 10
66.5755
 20
-63.0960
 30
0.000000
  70
    32
  0
VERTEX
  8
図枠
  5
3E6
 10
66.5815
 20
-63.1015
 30
0.000000
  70
    32
  0
VERTEX
  8
図枠
  5
3E7
 10
66.5875
 20
-63.1070
 30
0.000000
  70
    32
  0
VERTEX
  8
図枠
  5
3E8
 10
66.5936
 20
-63.1125
 30
0.000000
  70
    32
  0
VERTEX
  8
図枠
  5
3E9
 10
66.5996
 20
-63.1179
 30
0.000000
  70
    32
  0
VERTEX
  8
図枠
  5
3EA
 10
66.6057
 20
-63.1234
 30
0.000000
  70
    32
  0
VERTEX
  8
図枠
  5
3EB
 10
66.6117
 20
-63.1289
 30
0.000000
  70
    32
  0
VERTEX
  8
図枠
  5
3EC
 10
66.6178
 20
-63.1343
 30
0.000000
  70
    32
  0
VERTEX
  8
図枠
  5
3ED
 10
66.6238
 20
-63.1398
 30
0.000000
  70
    32
  0
VERTEX
  8
図枠
  5
3EE
 10
66.6298
 20
-63.1452
 30
0.000000
  70
    32
  0
VERTEX
  8
図枠
  5
3EF
 10
66.6359
 20
-63.1507
 30
0.000000
  70
    32
  0
VERTEX
  8
図枠
  5
3F0
 10
66.6420
 20
-63.1561
 30
0.000000
  70
    32
  0
VERTEX
  8
図枠
  5
3F1
 10
66.6480
 20
-63.1615
 30
0.000000
  70
    32
  0
VERTEX
  8
図枠
  5
3F2
 10
66.6541
 20
-63.1670
 30
0.000000
  70
    32
  0
VERTEX
  8
図枠
  5
3F3
 10
66.6601
 20
-63.1724
 30
0.000000
  70
    32
  0
VERTEX
  8
図枠
  5
3F4
 10
66.6662
 20
-63.1778
 30
0.000000
  70
    32
  0
VERTEX
  8
図枠
  5
3F5
 10
66.6723
 20
-63.1832
 30
0.000000
  70
    32
  0
VERTEX
  8
図枠
  5
3F6
 10
66.6783
 20
-63.1886
 30
0.000000
  70
    32
  0
VERTEX
  8
図枠
  5
3F7
 10
66.6844
 20
-63.1940
 30
0.000000
  70
    32
  0
VERTEX
  8
図枠
  5
3F8
 10
66.6905
 20
-63.1994
 30
0.000000
  70
    32
  0
VERTEX
  8
図枠
  5
3F9
 10
66.6966
 20
-63.2048
 30
0.000000
  70
    32
  0
VERTEX
  8
図枠
  5
3FA
 10
66.7027
 20
-63.2102
 30
0.000000
  70
    32
  0
VERTEX
  8
図枠
  5
3FB
 10
66.7087
 20
-63.2156
 30
0.000000
  70
    32
  0
VERTEX
  8
図枠
  5
3FC
 10
66.7148
 20
-63.2210
 30
0.000000
  70
    32
  0
VERTEX
  8
図枠
  5
3FD
 10
66.7209
 20
-63.2263
 30
0.000000
  70
    32
  0
VERTEX
  8
図枠
  5
3FE
 10
66.7270
 20
-63.2317
 30
0.000000
  70
    32
  0
VERTEX
  8
図枠
  5
3FF
 10
66.7331
 20
-63.2371
 30
0.000000
  70
    32
  0
VERTEX
  8
図枠
  5
400
 10
66.7392
 20
-63.2424
 30
0.000000
  70
    32
  0
VERTEX
  8
図枠
  5
401
 10
66.7453
 20
-63.2478
 30
0.000000
  70
    32
  0
VERTEX
  8
図枠
  5
402
 10
66.7514
 20
-63.2531
 30
0.000000
  70
    32
  0
VERTEX
  8
図枠
  5
403
 10
66.7576
 20
-63.2584
 30
0.000000
  70
    32
  0
VERTEX
  8
図枠
  5
404
 10
66.7637
 20
-63.2637
 30
0.000000
  70
    32
  0
VERTEX
  8
図枠
  5
405
 10
66.7698
 20
-63.2691
 30
0.000000
  70
    32
  0
VERTEX
  8
図枠
  5
406
 10
66.7759
 20
-63.2744
 30
0.000000
  70
    32
  0
VERTEX
  8
図枠
  5
407
 10
66.7820
 20
-63.2797
 30
0.000000
  70
    32
  0
VERTEX
  8
図枠
  5
408
 10
66.7882
 20
-63.2850
 30
0.000000
  70
    32
  0
VERTEX
  8
図枠
  5
409
 10
66.7943
 20
-63.2903
 30
0.000000
  70
    32
  0
VERTEX
  8
図枠
  5
40A
 10
66.8005
 20
-63.2955
 30
0.000000
  70
    32
  0
VERTEX
  8
図枠
  5
40B
 10
66.8066
 20
-63.3008
 30
0.000000
  70
    32
  0
VERTEX
  8
図枠
  5
40C
 10
66.8128
 20
-63.3061
 30
0.000000
  70
    32
  0
VERTEX
  8
図枠
  5
40D
 10
66.8189
 20
-63.3113
 30
0.000000
  70
    32
  0
VERTEX
  8
図枠
  5
40E
 10
66.8251
 20
-63.3166
 30
0.000000
  70
    32
  0
VERTEX
  8
図枠
  5
40F
 10
66.8312
 20
-63.3218
 30
0.000000
  70
    32
  0
VERTEX
  8
図枠
  5
410
 10
66.8374
 20
-63.3270
 30
0.000000
  70
    32
  0
VERTEX
  8
図枠
  5
411
 10
66.8436
 20
-63.3323
 30
0.000000
  70
    32
  0
VERTEX
  8
図枠
  5
412
 10
66.8497
 20
-63.3375
 30
0.000000
  70
    32
  0
VERTEX
  8
図枠
  5
413
 10
66.8559
 20
-63.3427
 30
0.000000
  70
    32
  0
VERTEX
  8
図枠
  5
414
 10
66.8621
 20
-63.3479
 30
0.000000
  70
    32
  0
VERTEX
  8
図枠
  5
415
 10
66.8683
 20
-63.3531
 30
0.000000
  70
    32
  0
VERTEX
  8
図枠
  5
416
 10
66.8745
 20
-63.3583
 30
0.000000
  70
    32
  0
VERTEX
  8
図枠
  5
417
 10
66.8807
 20
-63.3634
 30
0.000000
  70
    32
  0
VERTEX
  8
図枠
  5
418
 10
66.8869
 20
-63.3686
 30
0.000000
  70
    32
  0
VERTEX
  8
図枠
  5
419
 10
66.8931
 20
-63.3737
 30
0.000000
  70
    32
  0
VERTEX
  8
図枠
  5
41A
 10
66.8993
 20
-63.3789
 30
0.000000
  70
    32
  0
VERTEX
  8
図枠
  5
41B
 10
66.9056
 20
-63.3840
 30
0.000000
  70
    32
  0
VERTEX
  8
図枠
  5
41C
 10
66.9118
 20
-63.3891
 30
0.000000
  70
    32
  0
VERTEX
  8
図枠
  5
41D
 10
66.9180
 20
-63.3942
 30
0.000000
  70
    32
  0
VERTEX
  8
図枠
  5
41E
 10
66.9243
 20
-63.3993
 30
0.000000
  70
    32
  0
VERTEX
  8
図枠
  5
41F
 10
66.9305
 20
-63.4044
 30
0.000000
  70
    32
  0
VERTEX
  8
図枠
  5
420
 10
66.9367
 20
-63.4095
 30
0.000000
  70
    32
  0
VERTEX
  8
図枠
  5
421
 10
66.9430
 20
-63.4146
 30
0.000000
  70
    32
  0
VERTEX
  8
図枠
  5
422
 10
66.9493
 20
-63.4197
 30
0.000000
  70
    32
  0
VERTEX
  8
図枠
  5
423
 10
66.9555
 20
-63.4247
 30
0.000000
  70
    32
  0
VERTEX
  8
図枠
  5
424
 10
66.9618
 20
-63.4298
 30
0.000000
  70
    32
  0
VERTEX
  8
図枠
  5
425
 10
66.9681
 20
-63.4348
 30
0.000000
  70
    32
  0
VERTEX
  8
図枠
  5
426
 10
66.9743
 20
-63.4398
 30
0.000000
  70
    32
  0
VERTEX
  8
図枠
  5
427
 10
66.9806
 20
-63.4448
 30
0.000000
  70
    32
  0
VERTEX
  8
図枠
  5
428
 10
66.9869
 20
-63.4498
 30
0.000000
  70
    32
  0
VERTEX
  8
図枠
  5
429
 10
66.9932
 20
-63.4548
 30
0.000000
  70
    32
  0
VERTEX
  8
図枠
  5
42A
 10
66.9995
 20
-63.4598
 30
0.000000
  70
    32
  0
VERTEX
  8
図枠
  5
42B
 10
67.0058
 20
-63.4647
 30
0.000000
  70
    32
  0
VERTEX
  8
図枠
  5
42C
 10
67.0122
 20
-63.4697
 30
0.000000
  70
    32
  0
VERTEX
  8
図枠
  5
42D
 10
67.0185
 20
-63.4746
 30
0.000000
  70
    32
  0
VERTEX
  8
図枠
  5
42E
 10
67.0248
 20
-63.4796
 30
0.000000
  70
    32
  0
VERTEX
  8
図枠
  5
42F
 10
67.0312
 20
-63.4845
 30
0.000000
  70
    32
  0
VERTEX
  8
図枠
  5
430
 10
67.0375
 20
-63.4894
 30
0.000000
  70
    32
  0
VERTEX
  8
図枠
  5
431
 10
67.0439
 20
-63.4943
 30
0.000000
  70
    32
  0
VERTEX
  8
図枠
  5
432
 10
67.0502
 20
-63.4992
 30
0.000000
  70
    32
  0
VERTEX
  8
図枠
  5
433
 10
67.0566
 20
-63.5040
 30
0.000000
  70
    32
  0
VERTEX
  8
図枠
  5
434
 10
67.0629
 20
-63.5089
 30
0.000000
  70
    32
  0
VERTEX
  8
図枠
  5
435
 10
67.0693
 20
-63.5137
 30
0.000000
  70
    32
  0
VERTEX
  8
図枠
  5
436
 10
67.0757
 20
-63.5186
 30
0.000000
  70
    32
  0
VERTEX
  8
図枠
  5
437
 10
67.0821
 20
-63.5234
 30
0.000000
  70
    32
  0
VERTEX
  8
図枠
  5
438
 10
67.0885
 20
-63.5282
 30
0.000000
  70
    32
  0
VERTEX
  8
図枠
  5
439
 10
67.0949
 20
-63.5330
 30
0.000000
  70
    32
  0
VERTEX
  8
図枠
  5
43A
 10
67.1013
 20
-63.5378
 30
0.000000
  70
    32
  0
VERTEX
  8
図枠
  5
43B
 10
67.1077
 20
-63.5425
 30
0.000000
  70
    32
  0
VERTEX
  8
図枠
  5
43C
 10
67.1142
 20
-63.5473
 30
0.000000
  70
    32
  0
VERTEX
  8
図枠
  5
43D
 10
67.1206
 20
-63.5520
 30
0.000000
  70
    32
  0
VERTEX
  8
図枠
  5
43E
 10
67.1270
 20
-63.5567
 30
0.000000
  70
    32
  0
VERTEX
  8
図枠
  5
43F
 10
67.1335
 20
-63.5614
 30
0.000000
  70
    32
  0
VERTEX
  8
図枠
  5
440
 10
67.1399
 20
-63.5661
 30
0.000000
  70
    32
  0
VERTEX
  8
図枠
  5
441
 10
67.1464
 20
-63.5708
 30
0.000000
  70
    32
  0
VERTEX
  8
図枠
  5
442
 10
67.1529
 20
-63.5755
 30
0.000000
  70
    32
  0
VERTEX
  8
図枠
  5
443
 10
67.1594
 20
-63.5802
 30
0.000000
  70
    32
  0
VERTEX
  8
図枠
  5
444
 10
67.1658
 20
-63.5848
 30
0.000000
  70
    32
  0
VERTEX
  8
図枠
  5
445
 10
67.1723
 20
-63.5894
 30
0.000000
  70
    32
  0
VERTEX
  8
図枠
  5
446
 10
67.1788
 20
-63.5940
 30
0.000000
  70
    32
  0
VERTEX
  8
図枠
  5
447
 10
67.1853
 20
-63.5986
 30
0.000000
  70
    32
  0
VERTEX
  8
図枠
  5
448
 10
67.1919
 20
-63.6032
 30
0.000000
  70
    32
  0
VERTEX
  8
図枠
  5
449
 10
67.1984
 20
-63.6078
 30
0.000000
  70
    32
  0
VERTEX
  8
図枠
  5
44A
 10
67.2049
 20
-63.6123
 30
0.000000
  70
    32
  0
VERTEX
  8
図枠
  5
44B
 10
67.2115
 20
-63.6169
 30
0.000000
  70
    32
  0
VERTEX
  8
図枠
  5
44C
 10
67.2180
 20
-63.6214
 30
0.000000
  70
    32
  0
VERTEX
  8
図枠
  5
44D
 10
67.2246
 20
-63.6259
 30
0.000000
  70
    32
  0
VERTEX
  8
図枠
  5
44E
 10
67.2311
 20
-63.6304
 30
0.000000
  70
    32
  0
VERTEX
  8
図枠
  5
44F
 10
67.2377
 20
-63.6349
 30
0.000000
  70
    32
  0
VERTEX
  8
図枠
  5
450
 10
67.2443
 20
-63.6393
 30
0.000000
  70
    32
  0
VERTEX
  8
図枠
  5
451
 10
67.2509
 20
-63.6438
 30
0.000000
  70
    32
  0
VERTEX
  8
図枠
  5
452
 10
67.2575
 20
-63.6482
 30
0.000000
  70
    32
  0
VERTEX
  8
図枠
  5
453
 10
67.2641
 20
-63.6526
 30
0.000000
  70
    32
  0
VERTEX
  8
図枠
  5
454
 10
67.2707
 20
-63.6570
 30
0.000000
  70
    32
  0
VERTEX
  8
図枠
  5
455
 10
67.2774
 20
-63.6614
 30
0.000000
  70
    32
  0
VERTEX
  8
図枠
  5
456
 10
67.2840
 20
-63.6658
 30
0.000000
  70
    32
  0
VERTEX
  8
図枠
  5
457
 10
67.2906
 20
-63.6701
 30
0.000000
  70
    32
  0
VERTEX
  8
図枠
  5
458
 10
67.2973
 20
-63.6744
 30
0.000000
  70
    32
  0
VERTEX
  8
図枠
  5
459
 10
67.3040
 20
-63.6788
 30
0.000000
  70
    32
  0
VERTEX
  8
図枠
  5
45A
 10
67.3106
 20
-63.6831
 30
0.000000
  70
    32
  0
VERTEX
  8
図枠
  5
45B
 10
67.3173
 20
-63.6873
 30
0.000000
  70
    32
  0
VERTEX
  8
図枠
  5
45C
 10
67.3240
 20
-63.6916
 30
0.000000
  70
    32
  0
VERTEX
  8
図枠
  5
45D
 10
67.3307
 20
-63.6959
 30
0.000000
  70
    32
  0
VERTEX
  8
図枠
  5
45E
 10
67.3374
 20
-63.7001
 30
0.000000
  70
    32
  0
VERTEX
  8
図枠
  5
45F
 10
67.3441
 20
-63.7043
 30
0.000000
  70
    32
  0
VERTEX
  8
図枠
  5
460
 10
67.3509
 20
-63.7085
 30
0.000000
  70
    32
  0
VERTEX
  8
図枠
  5
461
 10
67.3576
 20
-63.7127
 30
0.000000
  70
    32
  0
VERTEX
  8
図枠
  5
462
 10
67.3643
 20
-63.7168
 30
0.000000
  70
    32
  0
VERTEX
  8
図枠
  5
463
 10
67.3711
 20
-63.7210
 30
0.000000
  70
    32
  0
VERTEX
  8
図枠
  5
464
 10
67.3779
 20
-63.7251
 30
0.000000
  70
    32
  0
VERTEX
  8
図枠
  5
465
 10
67.3846
 20
-63.7292
 30
0.000000
  70
    32
  0
VERTEX
  8
図枠
  5
466
 10
67.3914
 20
-63.7333
 30
0.000000
  70
    32
  0
SEQEND
  8
図枠
  5
467
  0
POLYLINE
  8
図枠
  5
468
  66
     1
 10
0.000000
 20
0.000000
 30
0.000000
  70
     8
  0
VERTEX
  8
図枠
  5
469
 10
68.6233
 20
-63.7236
 30
0.000000
  70
    32
  0
VERTEX
  8
図枠
  5
46A
 10
68.6291
 20
-63.7253
 30
0.000000
  70
    32
  0
VERTEX
  8
図枠
  5
46B
 10
68.6350
 20
-63.7269
 30
0.000000
  70
    32
  0
VERTEX
  8
図枠
  5
46C
 10
68.6408
 20
-63.7285
 30
0.000000
  70
    32
  0
VERTEX
  8
図枠
  5
46D
 10
68.6466
 20
-63.7302
 30
0.000000
  70
    32
  0
VERTEX
  8
図枠
  5
46E
 10
68.6525
 20
-63.7318
 30
0.000000
  70
    32
  0
VERTEX
  8
図枠
  5
46F
 10
68.6583
 20
-63.7334
 30
0.000000
  70
    32
  0
VERTEX
  8
図枠
  5
470
 10
68.6642
 20
-63.7350
 30
0.000000
  70
    32
  0
VERTEX
  8
図枠
  5
471
 10
68.6701
 20
-63.7366
 30
0.000000
  70
    32
  0
VERTEX
  8
図枠
  5
472
 10
68.6760
 20
-63.7381
 30
0.000000
  70
    32
  0
VERTEX
  8
図枠
  5
473
 10
68.6818
 20
-63.7397
 30
0.000000
  70
    32
  0
VERTEX
  8
図枠
  5
474
 10
68.6877
 20
-63.7413
 30
0.000000
  70
    32
  0
VERTEX
  8
図枠
  5
475
 10
68.6936
 20
-63.7428
 30
0.000000
  70
    32
  0
VERTEX
  8
図枠
  5
476
 10
68.6995
 20
-63.7444
 30
0.000000
  70
    32
  0
VERTEX
  8
図枠
  5
477
 10
68.7054
 20
-63.7459
 30
0.000000
  70
    32
  0
VERTEX
  8
図枠
  5
478
 10
68.7113
 20
-63.7474
 30
0.000000
  70
    32
  0
VERTEX
  8
図枠
  5
479
 10
68.7172
 20
-63.7489
 30
0.000000
  70
    32
  0
VERTEX
  8
図枠
  5
47A
 10
68.7231
 20
-63.7505
 30
0.000000
  70
    32
  0
VERTEX
  8
図枠
  5
47B
 10
68.7291
 20
-63.7520
 30
0.000000
  70
    32
  0
VERTEX
  8
図枠
  5
47C
 10
68.7350
 20
-63.7534
 30
0.000000
  70
    32
  0
VERTEX
  8
図枠
  5
47D
 10
68.7409
 20
-63.7549
 30
0.000000
  70
    32
  0
VERTEX
  8
図枠
  5
47E
 10
68.7469
 20
-63.7564
 30
0.000000
  70
    32
  0
VERTEX
  8
図枠
  5
47F
 10
68.7528
 20
-63.7579
 30
0.000000
  70
    32
  0
VERTEX
  8
図枠
  5
480
 10
68.7587
 20
-63.7593
 30
0.000000
  70
    32
  0
VERTEX
  8
図枠
  5
481
 10
68.7647
 20
-63.7608
 30
0.000000
  70
    32
  0
VERTEX
  8
図枠
  5
482
 10
68.7707
 20
-63.7622
 30
0.000000
  70
    32
  0
VERTEX
  8
図枠
  5
483
 10
68.7766
 20
-63.7637
 30
0.000000
  70
    32
  0
VERTEX
  8
図枠
  5
484
 10
68.7826
 20
-63.7651
 30
0.000000
  70
    32
  0
VERTEX
  8
図枠
  5
485
 10
68.7886
 20
-63.7665
 30
0.000000
  70
    32
  0
VERTEX
  8
図枠
  5
486
 10
68.7945
 20
-63.7679
 30
0.000000
  70
    32
  0
VERTEX
  8
図枠
  5
487
 10
68.8005
 20
-63.7693
 30
0.000000
  70
    32
  0
VERTEX
  8
図枠
  5
488
 10
68.8065
 20
-63.7707
 30
0.000000
  70
    32
  0
VERTEX
  8
図枠
  5
489
 10
68.8125
 20
-63.7721
 30
0.000000
  70
    32
  0
VERTEX
  8
図枠
  5
48A
 10
68.8185
 20
-63.7735
 30
0.000000
  70
    32
  0
VERTEX
  8
図枠
  5
48B
 10
68.8245
 20
-63.7749
 30
0.000000
  70
    32
  0
VERTEX
  8
図枠
  5
48C
 10
68.8305
 20
-63.7763
 30
0.000000
  70
    32
  0
VERTEX
  8
図枠
  5
48D
 10
68.8365
 20
-63.7776
 30
0.000000
  70
    32
  0
VERTEX
  8
図枠
  5
48E
 10
68.8425
 20
-63.7790
 30
0.000000
  70
    32
  0
VERTEX
  8
図枠
  5
48F
 10
68.8485
 20
-63.7803
 30
0.000000
  70
    32
  0
VERTEX
  8
図枠
  5
490
 10
68.8545
 20
-63.7817
 30
0.000000
  70
    32
  0
VERTEX
  8
図枠
  5
491
 10
68.8606
 20
-63.7830
 30
0.000000
  70
    32
  0
VERTEX
  8
図枠
  5
492
 10
68.8666
 20
-63.7843
 30
0.000000
  70
    32
  0
VERTEX
  8
図枠
  5
493
 10
68.8726
 20
-63.7857
 30
0.000000
  70
    32
  0
VERTEX
  8
図枠
  5
494
 10
68.8786
 20
-63.7870
 30
0.000000
  70
    32
  0
VERTEX
  8
図枠
  5
495
 10
68.8847
 20
-63.7883
 30
0.000000
  70
    32
  0
VERTEX
  8
図枠
  5
496
 10
68.8907
 20
-63.7896
 30
0.000000
  70
    32
  0
VERTEX
  8
図枠
  5
497
 10
68.8968
 20
-63.7909
 30
0.000000
  70
    32
  0
VERTEX
  8
図枠
  5
498
 10
68.9028
 20
-63.7922
 30
0.000000
  70
    32
  0
VERTEX
  8
図枠
  5
499
 10
68.9089
 20
-63.7935
 30
0.000000
  70
    32
  0
VERTEX
  8
図枠
  5
49A
 10
68.9149
 20
-63.7948
 30
0.000000
  70
    32
  0
VERTEX
  8
図枠
  5
49B
 10
68.9210
 20
-63.7960
 30
0.000000
  70
    32
  0
VERTEX
  8
図枠
  5
49C
 10
68.9271
 20
-63.7973
 30
0.000000
  70
    32
  0
VERTEX
  8
図枠
  5
49D
 10
68.9331
 20
-63.7986
 30
0.000000
  70
    32
  0
VERTEX
  8
図枠
  5
49E
 10
68.9392
 20
-63.7998
 30
0.000000
  70
    32
  0
VERTEX
  8
図枠
  5
49F
 10
68.9453
 20
-63.8011
 30
0.000000
  70
    32
  0
VERTEX
  8
図枠
  5
4A0
 10
68.9514
 20
-63.8023
 30
0.000000
  70
    32
  0
VERTEX
  8
図枠
  5
4A1
 10
68.9575
 20
-63.8036
 30
0.000000
  70
    32
  0
VERTEX
  8
図枠
  5
4A2
 10
68.9635
 20
-63.8048
 30
0.000000
  70
    32
  0
VERTEX
  8
図枠
  5
4A3
 10
68.9696
 20
-63.8060
 30
0.000000
  70
    32
  0
VERTEX
  8
図枠
  5
4A4
 10
68.9757
 20
-63.8072
 30
0.000000
  70
    32
  0
VERTEX
  8
図枠
  5
4A5
 10
68.9818
 20
-63.8085
 30
0.000000
  70
    32
  0
VERTEX
  8
図枠
  5
4A6
 10
68.9879
 20
-63.8097
 30
0.000000
  70
    32
  0
VERTEX
  8
図枠
  5
4A7
 10
68.9940
 20
-63.8109
 30
0.000000
  70
    32
  0
VERTEX
  8
図枠
  5
4A8
 10
69.0001
 20
-63.8121
 30
0.000000
  70
    32
  0
VERTEX
  8
図枠
  5
4A9
 10
69.0062
 20
-63.8133
 30
0.000000
  70
    32
  0
VERTEX
  8
図枠
  5
4AA
 10
69.0123
 20
-63.8145
 30
0.000000
  70
    32
  0
VERTEX
  8
図枠
  5
4AB
 10
69.0185
 20
-63.8157
 30
0.000000
  70
    32
  0
VERTEX
  8
図枠
  5
4AC
 10
69.0246
 20
-63.8169
 30
0.000000
  70
    32
  0
VERTEX
  8
図枠
  5
4AD
 10
69.0307
 20
-63.8180
 30
0.000000
  70
    32
  0
VERTEX
  8
図枠
  5
4AE
 10
69.0368
 20
-63.8192
 30
0.000000
  70
    32
  0
VERTEX
  8
図枠
  5
4AF
 10
69.0429
 20
-63.8204
 30
0.000000
  70
    32
  0
VERTEX
  8
図枠
  5
4B0
 10
69.0491
 20
-63.8216
 30
0.000000
  70
    32
  0
VERTEX
  8
図枠
  5
4B1
 10
69.0552
 20
-63.8227
 30
0.000000
  70
    32
  0
VERTEX
  8
図枠
  5
4B2
 10
69.0613
 20
-63.8239
 30
0.000000
  70
    32
  0
VERTEX
  8
図枠
  5
4B3
 10
69.0675
 20
-63.8250
 30
0.000000
  70
    32
  0
VERTEX
  8
図枠
  5
4B4
 10
69.0736
 20
-63.8262
 30
0.000000
  70
    32
  0
VERTEX
  8
図枠
  5
4B5
 10
69.0798
 20
-63.8273
 30
0.000000
  70
    32
  0
VERTEX
  8
図枠
  5
4B6
 10
69.0859
 20
-63.8285
 30
0.000000
  70
    32
  0
VERTEX
  8
図枠
  5
4B7
 10
69.0920
 20
-63.8296
 30
0.000000
  70
    32
  0
VERTEX
  8
図枠
  5
4B8
 10
69.0982
 20
-63.8308
 30
0.000000
  70
    32
  0
VERTEX
  8
図枠
  5
4B9
 10
69.1043
 20
-63.8319
 30
0.000000
  70
    32
  0
VERTEX
  8
図枠
  5
4BA
 10
69.1105
 20
-63.8330
 30
0.000000
  70
    32
  0
VERTEX
  8
図枠
  5
4BB
 10
69.1167
 20
-63.8342
 30
0.000000
  70
    32
  0
VERTEX
  8
図枠
  5
4BC
 10
69.1228
 20
-63.8353
 30
0.000000
  70
    32
  0
VERTEX
  8
図枠
  5
4BD
 10
69.1290
 20
-63.8364
 30
0.000000
  70
    32
  0
VERTEX
  8
図枠
  5
4BE
 10
69.1351
 20
-63.8375
 30
0.000000
  70
    32
  0
VERTEX
  8
図枠
  5
4BF
 10
69.1413
 20
-63.8386
 30
0.000000
  70
    32
  0
VERTEX
  8
図枠
  5
4C0
 10
69.1475
 20
-63.8397
 30
0.000000
  70
    32
  0
VERTEX
  8
図枠
  5
4C1
 10
69.1536
 20
-63.8408
 30
0.000000
  70
    32
  0
VERTEX
  8
図枠
  5
4C2
 10
69.1598
 20
-63.8419
 30
0.000000
  70
    32
  0
VERTEX
  8
図枠
  5
4C3
 10
69.1660
 20
-63.8430
 30
0.000000
  70
    32
  0
VERTEX
  8
図枠
  5
4C4
 10
69.1721
 20
-63.8441
 30
0.000000
  70
    32
  0
VERTEX
  8
図枠
  5
4C5
 10
69.1783
 20
-63.8452
 30
0.000000
  70
    32
  0
VERTEX
  8
図枠
  5
4C6
 10
69.1845
 20
-63.8463
 30
0.000000
  70
    32
  0
VERTEX
  8
図枠
  5
4C7
 10
69.1907
 20
-63.8474
 30
0.000000
  70
    32
  0
VERTEX
  8
図枠
  5
4C8
 10
69.1968
 20
-63.8485
 30
0.000000
  70
    32
  0
VERTEX
  8
図枠
  5
4C9
 10
69.2030
 20
-63.8496
 30
0.000000
  70
    32
  0
VERTEX
  8
図枠
  5
4CA
 10
69.2092
 20
-63.8507
 30
0.000000
  70
    32
  0
VERTEX
  8
図枠
  5
4CB
 10
69.2154
 20
-63.8518
 30
0.000000
  70
    32
  0
VERTEX
  8
図枠
  5
4CC
 10
69.2216
 20
-63.8528
 30
0.000000
  70
    32
  0
VERTEX
  8
図枠
  5
4CD
 10
69.2278
 20
-63.8539
 30
0.000000
  70
    32
  0
VERTEX
  8
図枠
  5
4CE
 10
69.2339
 20
-63.8550
 30
0.000000
  70
    32
  0
VERTEX
  8
図枠
  5
4CF
 10
69.2401
 20
-63.8561
 30
0.000000
  70
    32
  0
VERTEX
  8
図枠
  5
4D0
 10
69.2463
 20
-63.8571
 30
0.000000
  70
    32
  0
VERTEX
  8
図枠
  5
4D1
 10
69.2525
 20
-63.8582
 30
0.000000
  70
    32
  0
VERTEX
  8
図枠
  5
4D2
 10
69.2587
 20
-63.8593
 30
0.000000
  70
    32
  0
VERTEX
  8
図枠
  5
4D3
 10
69.2649
 20
-63.8603
 30
0.000000
  70
    32
  0
VERTEX
  8
図枠
  5
4D4
 10
69.2711
 20
-63.8614
 30
0.000000
  70
    32
  0
VERTEX
  8
図枠
  5
4D5
 10
69.2773
 20
-63.8625
 30
0.000000
  70
    32
  0
VERTEX
  8
図枠
  5
4D6
 10
69.2835
 20
-63.8635
 30
0.000000
  70
    32
  0
VERTEX
  8
図枠
  5
4D7
 10
69.2897
 20
-63.8646
 30
0.000000
  70
    32
  0
VERTEX
  8
図枠
  5
4D8
 10
69.2959
 20
-63.8656
 30
0.000000
  70
    32
  0
VERTEX
  8
図枠
  5
4D9
 10
69.3021
 20
-63.8667
 30
0.000000
  70
    32
  0
VERTEX
  8
図枠
  5
4DA
 10
69.3083
 20
-63.8677
 30
0.000000
  70
    32
  0
VERTEX
  8
図枠
  5
4DB
 10
69.3145
 20
-63.8688
 30
0.000000
  70
    32
  0
VERTEX
  8
図枠
  5
4DC
 10
69.3207
 20
-63.8698
 30
0.000000
  70
    32
  0
VERTEX
  8
図枠
  5
4DD
 10
69.3269
 20
-63.8709
 30
0.000000
  70
    32
  0
VERTEX
  8
図枠
  5
4DE
 10
69.3331
 20
-63.8720
 30
0.000000
  70
    32
  0
VERTEX
  8
図枠
  5
4DF
 10
69.3393
 20
-63.8730
 30
0.000000
  70
    32
  0
VERTEX
  8
図枠
  5
4E0
 10
69.3455
 20
-63.8741
 30
0.000000
  70
    32
  0
VERTEX
  8
図枠
  5
4E1
 10
69.3517
 20
-63.8751
 30
0.000000
  70
    32
  0
VERTEX
  8
図枠
  5
4E2
 10
69.3579
 20
-63.8762
 30
0.000000
  70
    32
  0
VERTEX
  8
図枠
  5
4E3
 10
69.3641
 20
-63.8772
 30
0.000000
  70
    32
  0
VERTEX
  8
図枠
  5
4E4
 10
69.3703
 20
-63.8783
 30
0.000000
  70
    32
  0
VERTEX
  8
図枠
  5
4E5
 10
69.3765
 20
-63.8793
 30
0.000000
  70
    32
  0
VERTEX
  8
図枠
  5
4E6
 10
69.3827
 20
-63.8803
 30
0.000000
  70
    32
  0
VERTEX
  8
図枠
  5
4E7
 10
69.3889
 20
-63.8814
 30
0.000000
  70
    32
  0
VERTEX
  8
図枠
  5
4E8
 10
69.3951
 20
-63.8824
 30
0.000000
  70
    32
  0
SEQEND
  8
図枠
  5
4E9
  0
POLYLINE
  8
図枠
  5
4EA
  66
     1
 10
0.000000
 20
0.000000
 30
0.000000
  70
     8
  0
VERTEX
  8
図枠
  5
4EB
 10
67.5399
 20
-63.0117
 30
0.000000
  70
    32
  0
VERTEX
  8
図枠
  5
4EC
 10
67.5421
 20
-63.0142
 30
0.000000
  70
    32
  0
VERTEX
  8
図枠
  5
4ED
 10
67.5443
 20
-63.0166
 30
0.000000
  70
    32
  0
VERTEX
  8
図枠
  5
4EE
 10
67.5465
 20
-63.0191
 30
0.000000
  70
    32
  0
VERTEX
  8
図枠
  5
4EF
 10
67.5487
 20
-63.0215
 30
0.000000
  70
    32
  0
VERTEX
  8
図枠
  5
4F0
 10
67.5509
 20
-63.0240
 30
0.000000
  70
    32
  0
VERTEX
  8
図枠
  5
4F1
 10
67.5531
 20
-63.0264
 30
0.000000
  70
    32
  0
VERTEX
  8
図枠
  5
4F2
 10
67.5553
 20
-63.0289
 30
0.000000
  70
    32
  0
VERTEX
  8
図枠
  5
4F3
 10
67.5575
 20
-63.0313
 30
0.000000
  70
    32
  0
VERTEX
  8
図枠
  5
4F4
 10
67.5597
 20
-63.0338
 30
0.000000
  70
    32
  0
VERTEX
  8
図枠
  5
4F5
 10
67.5619
 20
-63.0362
 30
0.000000
  70
    32
  0
VERTEX
  8
図枠
  5
4F6
 10
67.5641
 20
-63.0387
 30
0.000000
  70
    32
  0
VERTEX
  8
図枠
  5
4F7
 10
67.5663
 20
-63.0411
 30
0.000000
  70
    32
  0
VERTEX
  8
図枠
  5
4F8
 10
67.5685
 20
-63.0436
 30
0.000000
  70
    32
  0
VERTEX
  8
図枠
  5
4F9
 10
67.5707
 20
-63.0460
 30
0.000000
  70
    32
  0
VERTEX
  8
図枠
  5
4FA
 10
67.5729
 20
-63.0485
 30
0.000000
  70
    32
  0
VERTEX
  8
図枠
  5
4FB
 10
67.5751
 20
-63.0509
 30
0.000000
  70
    32
  0
VERTEX
  8
図枠
  5
4FC
 10
67.5773
 20
-63.0534
 30
0.000000
  70
    32
  0
VERTEX
  8
図枠
  5
4FD
 10
67.5795
 20
-63.0558
 30
0.000000
  70
    32
  0
VERTEX
  8
図枠
  5
4FE
 10
67.5817
 20
-63.0583
 30
0.000000
  70
    32
  0
VERTEX
  8
図枠
  5
4FF
 10
67.5839
 20
-63.0607
 30
0.000000
  70
    32
  0
VERTEX
  8
図枠
  5
500
 10
67.5861
 20
-63.0632
 30
0.000000
  70
    32
  0
VERTEX
  8
図枠
  5
501
 10
67.5883
 20
-63.0656
 30
0.000000
  70
    32
  0
VERTEX
  8
図枠
  5
502
 10
67.5905
 20
-63.0680
 30
0.000000
  70
    32
  0
VERTEX
  8
図枠
  5
503
 10
67.5927
 20
-63.0705
 30
0.000000
  70
    32
  0
VERTEX
  8
図枠
  5
504
 10
67.5949
 20
-63.0729
 30
0.000000
  70
    32
  0
VERTEX
  8
図枠
  5
505
 10
67.5971
 20
-63.0754
 30
0.000000
  70
    32
  0
VERTEX
  8
図枠
  5
506
 10
67.5993
 20
-63.0778
 30
0.000000
  70
    32
  0
VERTEX
  8
図枠
  5
507
 10
67.6015
 20
-63.0803
 30
0.000000
  70
    32
  0
VERTEX
  8
図枠
  5
508
 10
67.6037
 20
-63.0827
 30
0.000000
  70
    32
  0
VERTEX
  8
図枠
  5
509
 10
67.6060
 20
-63.0851
 30
0.000000
  70
    32
  0
VERTEX
  8
図枠
  5
50A
 10
67.6082
 20
-63.0876
 30
0.000000
  70
    32
  0
VERTEX
  8
図枠
  5
50B
 10
67.6104
 20
-63.0900
 30
0.000000
  70
    32
  0
VERTEX
  8
図枠
  5
50C
 10
67.6126
 20
-63.0924
 30
0.000000
  70
    32
  0
VERTEX
  8
図枠
  5
50D
 10
67.6148
 20
-63.0949
 30
0.000000
  70
    32
  0
VERTEX
  8
図枠
  5
50E
 10
67.6170
 20
-63.0973
 30
0.000000
  70
    32
  0
VERTEX
  8
図枠
  5
50F
 10
67.6192
 20
-63.0997
 30
0.000000
  70
    32
  0
VERTEX
  8
図枠
  5
510
 10
67.6214
 20
-63.1022
 30
0.000000
  70
    32
  0
VERTEX
  8
図枠
  5
511
 10
67.6237
 20
-63.1046
 30
0.000000
  70
    32
  0
VERTEX
  8
図枠
  5
512
 10
67.6259
 20
-63.1070
 30
0.000000
  70
    32
  0
VERTEX
  8
図枠
  5
513
 10
67.6281
 20
-63.1094
 30
0.000000
  70
    32
  0
VERTEX
  8
図枠
  5
514
 10
67.6303
 20
-63.1119
 30
0.000000
  70
    32
  0
VERTEX
  8
図枠
  5
515
 10
67.6325
 20
-63.1143
 30
0.000000
  70
    32
  0
VERTEX
  8
図枠
  5
516
 10
67.6347
 20
-63.1167
 30
0.000000
  70
    32
  0
VERTEX
  8
図枠
  5
517
 10
67.6370
 20
-63.1191
 30
0.000000
  70
    32
  0
VERTEX
  8
図枠
  5
518
 10
67.6392
 20
-63.1215
 30
0.000000
  70
    32
  0
VERTEX
  8
図枠
  5
519
 10
67.6414
 20
-63.1239
 30
0.000000
  70
    32
  0
VERTEX
  8
図枠
  5
51A
 10
67.6436
 20
-63.1264
 30
0.000000
  70
    32
  0
VERTEX
  8
図枠
  5
51B
 10
67.6459
 20
-63.1288
 30
0.000000
  70
    32
  0
VERTEX
  8
図枠
  5
51C
 10
67.6481
 20
-63.1312
 30
0.000000
  70
    32
  0
VERTEX
  8
図枠
  5
51D
 10
67.6503
 20
-63.1336
 30
0.000000
  70
    32
  0
VERTEX
  8
図枠
  5
51E
 10
67.6525
 20
-63.1360
 30
0.000000
  70
    32
  0
VERTEX
  8
図枠
  5
51F
 10
67.6548
 20
-63.1384
 30
0.000000
  70
    32
  0
VERTEX
  8
図枠
  5
520
 10
67.6570
 20
-63.1408
 30
0.000000
  70
    32
  0
VERTEX
  8
図枠
  5
521
 10
67.6592
 20
-63.1432
 30
0.000000
  70
    32
  0
VERTEX
  8
図枠
  5
522
 10
67.6615
 20
-63.1456
 30
0.000000
  70
    32
  0
VERTEX
  8
図枠
  5
523
 10
67.6637
 20
-63.1480
 30
0.000000
  70
    32
  0
VERTEX
  8
図枠
  5
524
 10
67.6659
 20
-63.1504
 30
0.000000
  70
    32
  0
VERTEX
  8
図枠
  5
525
 10
67.6682
 20
-63.1528
 30
0.000000
  70
    32
  0
VERTEX
  8
図枠
  5
526
 10
67.6704
 20
-63.1552
 30
0.000000
  70
    32
  0
VERTEX
  8
図枠
  5
527
 10
67.6727
 20
-63.1576
 30
0.000000
  70
    32
  0
VERTEX
  8
図枠
  5
528
 10
67.6749
 20
-63.1599
 30
0.000000
  70
    32
  0
VERTEX
  8
図枠
  5
529
 10
67.6771
 20
-63.1623
 30
0.000000
  70
    32
  0
VERTEX
  8
図枠
  5
52A
 10
67.6794
 20
-63.1647
 30
0.000000
  70
    32
  0
VERTEX
  8
図枠
  5
52B
 10
67.6816
 20
-63.1671
 30
0.000000
  70
    32
  0
VERTEX
  8
図枠
  5
52C
 10
67.6839
 20
-63.1695
 30
0.000000
  70
    32
  0
VERTEX
  8
図枠
  5
52D
 10
67.6861
 20
-63.1718
 30
0.000000
  70
    32
  0
VERTEX
  8
図枠
  5
52E
 10
67.6884
 20
-63.1742
 30
0.000000
  70
    32
  0
VERTEX
  8
図枠
  5
52F
 10
67.6906
 20
-63.1766
 30
0.000000
  70
    32
  0
VERTEX
  8
図枠
  5
530
 10
67.6929
 20
-63.1789
 30
0.000000
  70
    32
  0
VERTEX
  8
図枠
  5
531
 10
67.6951
 20
-63.1813
 30
0.000000
  70
    32
  0
VERTEX
  8
図枠
  5
532
 10
67.6974
 20
-63.1837
 30
0.000000
  70
    32
  0
VERTEX
  8
図枠
  5
533
 10
67.6997
 20
-63.1860
 30
0.000000
  70
    32
  0
VERTEX
  8
図枠
  5
534
 10
67.7019
 20
-63.1884
 30
0.000000
  70
    32
  0
VERTEX
  8
図枠
  5
535
 10
67.7042
 20
-63.1907
 30
0.000000
  70
    32
  0
VERTEX
  8
図枠
  5
536
 10
67.7064
 20
-63.1931
 30
0.000000
  70
    32
  0
VERTEX
  8
図枠
  5
537
 10
67.7087
 20
-63.1954
 30
0.000000
  70
    32
  0
VERTEX
  8
図枠
  5
538
 10
67.7110
 20
-63.1978
 30
0.000000
  70
    32
  0
VERTEX
  8
図枠
  5
539
 10
67.7132
 20
-63.2001
 30
0.000000
  70
    32
  0
VERTEX
  8
図枠
  5
53A
 10
67.7155
 20
-63.2025
 30
0.000000
  70
    32
  0
VERTEX
  8
図枠
  5
53B
 10
67.7178
 20
-63.2048
 30
0.000000
  70
    32
  0
VERTEX
  8
図枠
  5
53C
 10
67.7201
 20
-63.2071
 30
0.000000
  70
    32
  0
VERTEX
  8
図枠
  5
53D
 10
67.7223
 20
-63.2095
 30
0.000000
  70
    32
  0
VERTEX
  8
図枠
  5
53E
 10
67.7246
 20
-63.2118
 30
0.000000
  70
    32
  0
VERTEX
  8
図枠
  5
53F
 10
67.7269
 20
-63.2141
 30
0.000000
  70
    32
  0
VERTEX
  8
図枠
  5
540
 10
67.7292
 20
-63.2164
 30
0.000000
  70
    32
  0
VERTEX
  8
図枠
  5
541
 10
67.7314
 20
-63.2188
 30
0.000000
  70
    32
  0
VERTEX
  8
図枠
  5
542
 10
67.7337
 20
-63.2211
 30
0.000000
  70
    32
  0
VERTEX
  8
図枠
  5
543
 10
67.7360
 20
-63.2234
 30
0.000000
  70
    32
  0
VERTEX
  8
図枠
  5
544
 10
67.7383
 20
-63.2257
 30
0.000000
  70
    32
  0
VERTEX
  8
図枠
  5
545
 10
67.7406
 20
-63.2280
 30
0.000000
  70
    32
  0
VERTEX
  8
図枠
  5
546
 10
67.7429
 20
-63.2303
 30
0.000000
  70
    32
  0
VERTEX
  8
図枠
  5
547
 10
67.7452
 20
-63.2326
 30
0.000000
  70
    32
  0
VERTEX
  8
図枠
  5
548
 10
67.7475
 20
-63.2349
 30
0.000000
  70
    32
  0
VERTEX
  8
図枠
  5
549
 10
67.7498
 20
-63.2372
 30
0.000000
  70
    32
  0
VERTEX
  8
図枠
  5
54A
 10
67.7521
 20
-63.2395
 30
0.000000
  70
    32
  0
VERTEX
  8
図枠
  5
54B
 10
67.7544
 20
-63.2418
 30
0.000000
  70
    32
  0
VERTEX
  8
図枠
  5
54C
 10
67.7567
 20
-63.2441
 30
0.000000
  70
    32
  0
VERTEX
  8
図枠
  5
54D
 10
67.7590
 20
-63.2463
 30
0.000000
  70
    32
  0
VERTEX
  8
図枠
  5
54E
 10
67.7613
 20
-63.2486
 30
0.000000
  70
    32
  0
VERTEX
  8
図枠
  5
54F
 10
67.7636
 20
-63.2509
 30
0.000000
  70
    32
  0
VERTEX
  8
図枠
  5
550
 10
67.7659
 20
-63.2532
 30
0.000000
  70
    32
  0
VERTEX
  8
図枠
  5
551
 10
67.7683
 20
-63.2554
 30
0.000000
  70
    32
  0
VERTEX
  8
図枠
  5
552
 10
67.7706
 20
-63.2577
 30
0.000000
  70
    32
  0
VERTEX
  8
図枠
  5
553
 10
67.7729
 20
-63.2599
 30
0.000000
  70
    32
  0
VERTEX
  8
図枠
  5
554
 10
67.7752
 20
-63.2622
 30
0.000000
  70
    32
  0
VERTEX
  8
図枠
  5
555
 10
67.7775
 20
-63.2644
 30
0.000000
  70
    32
  0
VERTEX
  8
図枠
  5
556
 10
67.7799
 20
-63.2667
 30
0.000000
  70
    32
  0
VERTEX
  8
図枠
  5
557
 10
67.7822
 20
-63.2689
 30
0.000000
  70
    32
  0
VERTEX
  8
図枠
  5
558
 10
67.7845
 20
-63.2712
 30
0.000000
  70
    32
  0
VERTEX
  8
図枠
  5
559
 10
67.7869
 20
-63.2734
 30
0.000000
  70
    32
  0
VERTEX
  8
図枠
  5
55A
 10
67.7892
 20
-63.2756
 30
0.000000
  70
    32
  0
VERTEX
  8
図枠
  5
55B
 10
67.7916
 20
-63.2778
 30
0.000000
  70
    32
  0
VERTEX
  8
図枠
  5
55C
 10
67.7939
 20
-63.2801
 30
0.000000
  70
    32
  0
VERTEX
  8
図枠
  5
55D
 10
67.7962
 20
-63.2823
 30
0.000000
  70
    32
  0
VERTEX
  8
図枠
  5
55E
 10
67.7986
 20
-63.2845
 30
0.000000
  70
    32
  0
VERTEX
  8
図枠
  5
55F
 10
67.8009
 20
-63.2867
 30
0.000000
  70
    32
  0
VERTEX
  8
図枠
  5
560
 10
67.8033
 20
-63.2889
 30
0.000000
  70
    32
  0
VERTEX
  8
図枠
  5
561
 10
67.8057
 20
-63.2911
 30
0.000000
  70
    32
  0
VERTEX
  8
図枠
  5
562
 10
67.8080
 20
-63.2933
 30
0.000000
  70
    32
  0
VERTEX
  8
図枠
  5
563
 10
67.8104
 20
-63.2955
 30
0.000000
  70
    32
  0
VERTEX
  8
図枠
  5
564
 10
67.8127
 20
-63.2977
 30
0.000000
  70
    32
  0
VERTEX
  8
図枠
  5
565
 10
67.8151
 20
-63.2999
 30
0.000000
  70
    32
  0
VERTEX
  8
図枠
  5
566
 10
67.8175
 20
-63.3020
 30
0.000000
  70
    32
  0
VERTEX
  8
図枠
  5
567
 10
67.8199
 20
-63.3042
 30
0.000000
  70
    32
  0
VERTEX
  8
図枠
  5
568
 10
67.8222
 20
-63.3064
 30
0.000000
  70
    32
  0
VERTEX
  8
図枠
  5
569
 10
67.8246
 20
-63.3086
 30
0.000000
  70
    32
  0
VERTEX
  8
図枠
  5
56A
 10
67.8270
 20
-63.3107
 30
0.000000
  70
    32
  0
SEQEND
  8
図枠
  5
56B
  0
INSERT
  5
1D2
  8
図枠
  2
CLUMP2
 10
0.0
 20
0.0
 30
0.0
  0
CIRCLE
  5
1EB
  8
図枠
 10
69.088000000000008
 20
-55.908000000000001
 30
0.0
 40
0.8
  0
ENDBLK
  5
1EC
  8
0
  0
BLOCK
  8
0
  2
CLUMP2
 70
     0
 10
0.0
 20
0.0
 30
0.0
  3
CLUMP2
  1

  0
LINE
  5
1D4
  8
図枠
 10
97.954666666700021
 20
-47.741333333299998
 30
0.0
 11
49.621333333300001
 21
-47.741333333299998
 31
0.0
  0
LINE
  5
1D5
  8
図枠
 10
70.916639170600007
 20
-55.508000000000003
 30
0.0
 11
70.916639170600007
 21
-56.308
 31
0.0
  0
LINE
  5
1D6
  8
図枠
  6
BORDER
 10
69.088000000000008
 20
-54.707999999999998
 30
0.0
 11
69.088000000000008
 21
-57.107999999999997
 31
0.0
  0
LINE
  5
1D7
  8
図枠
 10
72.516639170600001
 20
-55.107999999999997
 30
0.0
 11
72.516639170600001
 21
-56.707999999999991
 31
0.0
  0
LINE
  5
1D8
  8
図枠
 10
70.916639170600007
 20
-56.308
 30
0.0
 11
72.516639170600001
 21
-56.707999999999991
 31
0.0
  0
LINE
  5
1D9
  8
図枠
 10
70.916639170600007
 20
-55.508000000000003
 30
0.0
 11
70.916639170600007
 21
-56.308
 31
0.0
  0
LINE
  5
1DA
  8
図枠
 10
70.916639170600007
 20
-56.308
 30
0.0
 11
72.516639170600001
 21
-56.707999999999991
 31
0.0
  0
LINE
  5
1DB
  8
図枠
 10
72.516639170600001
 20
-55.107999999999997
 30
0.0
 11
72.516639170600001
 21
-56.707999999999991
 31
0.0
  0
LINE
  5
1DC
  8
図枠
  6
BORDER
 10
69.088000000000008
 20
-54.707999999999998
 30
0.0
 11
69.088000000000008
 21
-57.107999999999997
 31
0.0
  0
LINE
  5
1DD
  8
図枠
  6
BORDER
 10
69.088000000000008
 20
-54.707999999999998
 30
0.0
 11
69.088000000000008
 21
-57.107999999999997
 31
0.0
  0
CIRCLE
  5
1DE
  8
図枠
 10
69.088000000000008
 20
-55.908000000000001
 30
0.0
 40
0.8
  0
LINE
  5
1DF
  8
図枠
 10
70.916639170600007
 20
-55.508000000000003
 30
0.0
 11
72.516639170600001
 21
-55.107999999999997
 31
0.0
  0
LINE
  5
1E0
  8
図枠
 10
70.916639170600007
 20
-55.508000000000003
 30
0.0
 11
72.516639170600001
 21
-55.107999999999997
 31
0.0
  0
CIRCLE
  5
1E1
  8
図枠
 10
69.088000000000008
 20
-55.908000000000001
 30
0.0
 40
0.8
  0
CIRCLE
  5
1E2
  8
図枠
 10
69.088000000000008
 20
-55.908000000000001
 30
0.0
 40
0.4
  0
LINE
  5
1E3
  8
図枠
 10
72.516639170600001
 20
-55.107999999999997
 30
0.0
 11
72.516639170600001
 21
-56.707999999999991
 31
0.0
  0
LINE
  5
1E4
  8
図枠
 10
70.916639170600007
 20
-55.508000000000003
 30
0.0
 11
70.916639170600007
 21
-56.308
 31
0.0
  0
LINE
  5
1E5
  8
図枠
 10
70.916639170600007
 20
-56.308
 30
0.0
 11
72.516639170600001
 21
-56.707999999999991
 31
0.0
  0
CIRCLE
  5
1E6
  8
図枠
 10
69.088000000000008
 20
-55.908000000000001
 30
0.0
 40
0.4
  0
CIRCLE
  5
1E7
  8
図枠
 10
69.088000000000008
 20
-55.908000000000001
 30
0.0
 40
0.8
  0
LINE
  5
1E8
  8
図枠
 10
70.916639170600007
 20
-55.508000000000003
 30
0.0
 11
72.516639170600001
 21
-55.107999999999997
 31
0.0
  0
CIRCLE
  5
1E9
  8
図枠
 10
69.088000000000008
 20
-55.908000000000001
 30
0.0
 40
0.4
  0
ENDBLK
  5
1EA
  8
0
  0
BLOCK
  8
0
  2
*D11
 70
     1
 10
0.0
 20
0.0
 30
0.0
  3
*D11
  1

  0
TEXT
  5
1EF
  8
0
 62
     0
 10
6.4608531722000002
 20
15.461776223599999
 30
0.0
 40
1.1994444489
  1
（27.77）
  0
LINE
  5
1F0
  8
0
 62
     0
 10
23.519298966200001
 20
8.3395833532000001
 30
0.0
 11
23.519298966200001
 21
15.2501095561
 31
0.0
  0
LINE
  5
1F1
  8
0
 62
     0
 10
-4.2475925980999989
 20
6.8323173308999996
 30
0.0
 11
-4.2475925980999989
 21
15.2501095561
 31
0.0
  0
LINE
  5
1F2
  8
0
 62
     0
 10
23.519298966200001
 20
14.9167762128
 30
0.0
 11
13.5164087542
 21
14.9167762128
 31
0.0
  0
LINE
  5
1F3
  8
0
 62
     0
 10
23.519298966200001
 20
14.9167762128
 30
0.0
 11
5.755297613999999
 21
14.9167762128
 31
0.0
  0
LINE
  5
1F4
  8
0
 62
     0
 10
-4.2475925980999989
 20
14.9167762128
 30
0.0
 11
13.5164087542
 21
14.9167762128
 31
0.0
  0
LINE
  5
1F5
  8
0
 62
     0
 10
-4.2475925980999989
 20
14.9167762128
 30
0.0
 11
5.755297613999999
 21
14.9167762128
 31
0.0
  0
LINE
  5
1F6
  8
0
 62
     0
 10
-4.2475925980999989
 20
14.9167762128
 30
0.0
 11
-2.5809259711000001
 21
14.9167762128
 31
0.0
  0
SOLID
  5
1F7
  8
0
 62
     0
 10
-4.2475925980999989
 20
14.9167762128
 30
0.0
 11
-3.6036420760999999
 21
15.0893222419
 31
0.0
 12
-3.6036420760999999
 22
14.744230183699999
 32
0.0
 13
-3.7646297066000001
 23
14.9167762128
 33
0.0
  0
LINE
  5
1F8
  8
0
 62
     0
 10
23.519298966200001
 20
14.9167762128
 30
0.0
 11
21.852632339300001
 21
14.9167762128
 31
0.0
  0
SOLID
  5
1F9
  8
0
 62
     0
 10
23.519298966200001
 20
14.9167762128
 30
0.0
 11
22.875348444299998
 21
14.744230183699999
 31
0.0
 12
22.875348444299998
 22
15.0893222419
 32
0.0
 13
23.036336074800001
 23
14.9167762128
 33
0.0
  0
ENDBLK
  5
1FA
  8
0
  0
BLOCK
  8
0
  2
*D12
 70
     1
 10
0.0
 20
0.0
 30
0.0
  3
*D12
  1

  0
TEXT
  5
1FE
  8
0
 62
     0
 10
9.8304100707000011
 20
-9.5413487763999996
 30
0.0
 40
1.1994444489
  1
23.85
  0
LINE
  5
1FF
  8
0
 62
     0
 10
-0.3307010338
 20
-5.593750019899999
 30
0.0
 11
-0.3307010338
 21
-10.4196821304
 31
0.0
  0
LINE
  5
200
  8
0
 62
     0
 10
23.519298966200001
 20
-4.593750019899999
 30
0.0
 11
23.519298966200001
 21
-10.4196821304
 31
0.0
  0
LINE
  5
201
  8
0
 62
     0
 10
-0.3307010338
 20
-10.0863487872
 30
0.0
 11
14.06374342
 21
-10.0863487872
 31
0.0
  0
LINE
  5
202
  8
0
 62
     0
 10
-0.3307010338
 20
-10.0863487872
 30
0.0
 11
9.1248545125000007
 21
-10.0863487872
 31
0.0
  0
LINE
  5
203
  8
0
 62
     0
 10
23.519298966200001
 20
-10.0863487872
 30
0.0
 11
14.06374342
 21
-10.0863487872
 31
0.0
  0
LINE
  5
204
  8
0
 62
     0
 10
23.519298966200001
 20
-10.0863487872
 30
0.0
 11
9.1248545125000007
 21
-10.0863487872
 31
0.0
  0
LINE
  5
205
  8
0
 62
     0
 10
23.519298966200001
 20
-10.0863487872
 30
0.0
 11
21.852632339300001
 21
-10.0863487872
 31
0.0
  0
SOLID
  5
206
  8
0
 62
     0
 10
23.519298966200001
 20
-10.0863487872
 30
0.0
 11
22.875348444299998
 21
-10.2588948163
 31
0.0
 12
22.875348444299998
 22
-9.9138027580999992
 32
0.0
 13
23.036336074800001
 23
-10.0863487872
 33
0.0
  0
LINE
  5
207
  8
0
 62
     0
 10
-0.3307010338
 20
-10.0863487872
 30
0.0
 11
1.335965593199999
 21
-10.0863487872
 31
0.0
  0
SOLID
  5
208
  8
0
 62
     0
 10
-0.3307010338
 20
-10.0863487872
 30
0.0
 11
0.3132494882
 21
-9.9138027580999992
 31
0.0
 12
0.3132494882
 22
-10.2588948163
 32
0.0
 13
0.1522618577
 23
-10.0863487872
 33
0.0
  0
ENDBLK
  5
209
  8
0
  0
BLOCK
  8
0
  2
*D13
 70
     1
 10
0.0
 20
0.0
 30
0.0
  3
*D13
  1

  0
TEXT
  5
210
  8
0
 62
     0
 10
-12.2897916774
 20
0.4618055503000001
 30
0.0
 40
1.1994444489
  1
15.4
 50
90.0
  0
LINE
  5
211
  8
0
 62
     0
 10
-4.0473677202999987
 20
9.5729166666999994
 30
0.0
 11
-12.078125009900001
 21
9.5729166666999994
 31
0.0
  0
LINE
  5
212
  8
0
 62
     0
 10
-4.0473677202999987
 20
-5.8270833333000001
 30
0.0
 11
-12.078125009900001
 21
-5.8270833333000001
 31
0.0
  0
LINE
  5
213
  8
0
 62
     0
 10
-11.744791666699999
 20
9.5729166666999994
 30
0.0
 11
-11.744791666699999
 21
3.989583341299999
 31
0.0
  0
LINE
  5
214
  8
0
 62
     0
 10
-11.744791666699999
 20
9.5729166666999994
 30
0.0
 11
-11.744791666699999
 21
-0.2437500079
 31
0.0
  0
LINE
  5
215
  8
0
 62
     0
 10
-11.744791666699999
 20
-5.8270833333000001
 30
0.0
 11
-11.744791666699999
 21
3.989583341299999
 31
0.0
  0
LINE
  5
216
  8
0
 62
     0
 10
-11.744791666699999
 20
-5.8270833333000001
 30
0.0
 11
-11.744791666699999
 21
-0.2437500079
 31
0.0
  0
LINE
  5
217
  8
0
 62
     0
 10
-11.744791666699999
 20
-5.8270833333000001
 30
0.0
 11
-11.744791666699999
 21
-4.1604167063999986
 31
0.0
  0
SOLID
  5
218
  8
0
 62
     0
 10
-11.744791666699999
 20
-5.8270833333000001
 30
0.0
 11
-11.917337695800001
 21
-5.1831328114000002
 31
0.0
 12
-11.5722456376
 22
-5.1831328114000002
 32
0.0
 13
-11.744791666699999
 23
-5.3441204419000004
 33
0.0
  0
LINE
  5
219
  8
0
 62
     0
 10
-11.744791666699999
 20
9.5729166666999994
 30
0.0
 11
-11.744791666699999
 21
7.9062500396999997
 31
0.0
  0
SOLID
  5
21A
  8
0
 62
     0
 10
-11.744791666699999
 20
9.5729166666999994
 30
0.0
 11
-11.5722456376
 21
8.9289661447000004
 31
0.0
 12
-11.917337695800001
 22
8.9289661447000004
 32
0.0
 13
-11.744791666699999
 23
9.0899537751999997
 33
0.0
  0
ENDBLK
  5
21B
  8
0
  0
BLOCK
  8
0
  2
CLUMP3
 70
     0
 10
0.0
 20
0.0
 30
0.0
  3
CLUMP3
  1

  0
INSERT
  5
238
  8
ﾚｲﾔ_1
 62
     5
  2
CLUMP4
 10
0.0
 20
0.0
 30
0.0
  0
LINE
  5
265
  8
ﾚｲﾔ_1
 62
     5
 10
1.4692989662
 20
5.8729166666999992
 30
0.0
 11
1.4692989662
 21
-2.1270833332999999
 31
0.0
  0
LINE
  5
266
  8
ﾚｲﾔ_1
 62
     5
 10
1.4692989662
 20
-2.1270833332999999
 30
0.0
 11
18.4692989662
 21
-2.1270833332999999
 31
0.0
  0
LINE
  5
267
  8
ﾚｲﾔ_1
 62
     5
 10
18.4692989662
 20
5.8729166666999992
 30
0.0
 11
1.4692989662
 21
5.8729166666999992
 31
0.0
  0
LINE
  5
268
  8
ﾚｲﾔ_1
 62
     5
 10
18.4692989662
 20
-2.1270833332999999
 30
0.0
 11
18.4692989662
 21
5.8729166666999992
 31
0.0
  0
ENDBLK
  5
269
  8
0
  0
BLOCK
  8
0
  2
CLUMP4
 70
     0
 10
0.0
 20
0.0
 30
0.0
  3
CLUMP4
  1

  0
LINE
  5
23B
  8
レイヤ__1
 62
     5
 10
15.146338514
 20
1.144594982499999
 30
0.0
 11
15.8398679878
 21
1.1476445538999991
 31
0.0
  0
LINE
  5
23C
  8
レイヤ__1
 62
     5
 10
16.003842153000001
 20
2.768151861999999
 30
0.0
 11
17.438532281800001
 21
2.770484967799999
 31
0.0
  0
LINE
  5
23D
  8
レイヤ__1
 62
     5
 10
15.954686186
 20
-0.0945000492
 30
0.0
 11
15.954686186
 21
-0.5931049642000001
 31
0.0
  0
LINE
  5
23E
  8
レイヤ__1
 62
     5
 10
15.954686186
 20
-0.5931049642000001
 30
0.0
 11
16.948896964500001
 21
-0.5931049642000001
 31
0.0
  0
LINE
  5
23F
  8
レイヤ__1
 62
     5
 10
16.948896964500001
 20
-0.5931049642000001
 30
0.0
 11
17.4692989662
 21
2.2235048494999989
 31
0.0
  0
LINE
  5
240
  8
レイヤ__1
 62
     5
 10
17.4692989662
 20
2.2235048494999989
 30
0.0
 11
15.346328851699999
 21
2.2235048494999989
 31
0.0
  0
LINE
  5
241
  8
レイヤ__1
 62
     5
 10
7.1303243748999989
 20
-0.6535177074
 30
0.0
 11
8.6897208452000001
 21
-0.6535177074
 31
0.0
  0
LINE
  5
242
  8
レイヤ__1
 62
     5
 10
8.6897208452000001
 20
-0.6535177074
 30
0.0
 11
8.9738086240000001
 21
0.8937907029999999
 31
0.0
  0
LINE
  5
243
  8
レイヤ__1
 62
     5
 10
8.9738086240000001
 20
0.8937907029999999
 30
0.0
 11
9.7988370838000005
 21
0.8937907029999999
 31
0.0
  0
LINE
  5
244
  8
レイヤ__1
 62
     5
 10
10.448570304
 20
4.3994015607000003
 30
0.0
 11
8.0611601008000004
 21
4.3994015607000003
 31
0.0
  0
LINE
  5
245
  8
レイヤ__1
 62
     5
 10
5.6965987189999989
 20
2.8399821267999998
 30
0.0
 11
7.2891638702999986
 21
2.8399821267999998
 31
0.0
  0
LINE
  5
246
  8
レイヤ__1
 62
     5
 10
8.0611601008000004
 20
4.3994015607000003
 30
0.0
 11
7.1303243748999989
 21
-0.6535177074
 31
0.0
  0
LINE
  5
247
  8
レイヤ__1
 62
     5
 10
10.0315919426
 20
2.1267636283999991
 30
0.0
 11
9.2019431984000004
 21
2.1267636283999991
 31
0.0
  0
LINE
  5
248
  8
レイヤ__1
 62
     5
 10
9.2019431984000004
 20
2.1267636283999991
 30
0.0
 11
9.3908742472999993
 21
3.1663827079999991
 31
0.0
  0
LINE
  5
249
  8
レイヤ__1
 62
     5
 10
9.3908742472999993
 20
3.1663827079999991
 30
0.0
 11
10.2174320855
 21
3.1663827079999991
 31
0.0
  0
LINE
  5
24A
  8
レイヤ__1
 62
     5
 10
15.346328851699999
 20
2.2235048494999989
 30
0.0
 11
15.146338514
 21
1.144594982499999
 31
0.0
  0
POLYLINE
  8
レイヤ__1
  5
56C
  62
5
  66
     1
 10
0.000000
 20
0.000000
 30
0.000000
  70
     8
  0
VERTEX
  8
レイヤ__1
  5
56D
 10
5.15575
 20
3.33258
 30
0.000000
  70
    32
  0
VERTEX
  8
レイヤ__1
  5
56E
 10
5.16751
 20
3.33252
 30
0.000000
  70
    32
  0
VERTEX
  8
レイヤ__1
  5
56F
 10
5.17910
 20
3.33235
 30
0.000000
  70
    32
  0
VERTEX
  8
レイヤ__1
  5
570
 10
5.19053
 20
3.33206
 30
0.000000
  70
    32
  0
VERTEX
  8
レイヤ__1
  5
571
 10
5.20178
 20
3.33167
 30
0.000000
  70
    32
  0
VERTEX
  8
レイヤ__1
  5
572
 10
5.21287
 20
3.33116
 30
0.000000
  70
    32
  0
VERTEX
  8
レイヤ__1
  5
573
 10
5.22379
 20
3.33054
 30
0.000000
  70
    32
  0
VERTEX
  8
レイヤ__1
  5
574
 10
5.23455
 20
3.32982
 30
0.000000
  70
    32
  0
VERTEX
  8
レイヤ__1
  5
575
 10
5.24514
 20
3.32898
 30
0.000000
  70
    32
  0
VERTEX
  8
レイヤ__1
  5
576
 10
5.25558
 20
3.32805
 30
0.000000
  70
    32
  0
VERTEX
  8
レイヤ__1
  5
577
 10
5.26585
 20
3.32701
 30
0.000000
  70
    32
  0
VERTEX
  8
レイヤ__1
  5
578
 10
5.27596
 20
3.32586
 30
0.000000
  70
    32
  0
VERTEX
  8
レイヤ__1
  5
579
 10
5.28591
 20
3.32461
 30
0.000000
  70
    32
  0
VERTEX
  8
レイヤ__1
  5
57A
 10
5.29571
 20
3.32327
 30
0.000000
  70
    32
  0
VERTEX
  8
レイヤ__1
  5
57B
 10
5.30535
 20
3.32182
 30
0.000000
  70
    32
  0
VERTEX
  8
レイヤ__1
  5
57C
 10
5.31483
 20
3.32028
 30
0.000000
  70
    32
  0
VERTEX
  8
レイヤ__1
  5
57D
 10
5.32417
 20
3.31864
 30
0.000000
  70
    32
  0
VERTEX
  8
レイヤ__1
  5
57E
 10
5.33335
 20
3.31691
 30
0.000000
  70
    32
  0
VERTEX
  8
レイヤ__1
  5
57F
 10
5.34238
 20
3.31508
 30
0.000000
  70
    32
  0
VERTEX
  8
レイヤ__1
  5
580
 10
5.35126
 20
3.31316
 30
0.000000
  70
    32
  0
VERTEX
  8
レイヤ__1
  5
581
 10
5.35999
 20
3.31114
 30
0.000000
  70
    32
  0
VERTEX
  8
レイヤ__1
  5
582
 10
5.36857
 20
3.30904
 30
0.000000
  70
    32
  0
VERTEX
  8
レイヤ__1
  5
583
 10
5.37701
 20
3.30685
 30
0.000000
  70
    32
  0
VERTEX
  8
レイヤ__1
  5
584
 10
5.38530
 20
3.30457
 30
0.000000
  70
    32
  0
VERTEX
  8
レイヤ__1
  5
585
 10
5.39345
 20
3.30221
 30
0.000000
  70
    32
  0
VERTEX
  8
レイヤ__1
  5
586
 10
5.40146
 20
3.29976
 30
0.000000
  70
    32
  0
VERTEX
  8
レイヤ__1
  5
587
 10
5.40932
 20
3.29723
 30
0.000000
  70
    32
  0
VERTEX
  8
レイヤ__1
  5
588
 10
5.41705
 20
3.29461
 30
0.000000
  70
    32
  0
VERTEX
  8
レイヤ__1
  5
589
 10
5.42464
 20
3.29192
 30
0.000000
  70
    32
  0
VERTEX
  8
レイヤ__1
  5
58A
 10
5.43209
 20
3.28914
 30
0.000000
  70
    32
  0
VERTEX
  8
レイヤ__1
  5
58B
 10
5.43940
 20
3.28629
 30
0.000000
  70
    32
  0
VERTEX
  8
レイヤ__1
  5
58C
 10
5.44658
 20
3.28336
 30
0.000000
  70
    32
  0
VERTEX
  8
レイヤ__1
  5
58D
 10
5.45363
 20
3.28035
 30
0.000000
  70
    32
  0
VERTEX
  8
レイヤ__1
  5
58E
 10
5.46054
 20
3.27727
 30
0.000000
  70
    32
  0
VERTEX
  8
レイヤ__1
  5
58F
 10
5.46732
 20
3.27412
 30
0.000000
  70
    32
  0
VERTEX
  8
レイヤ__1
  5
590
 10
5.47398
 20
3.27089
 30
0.000000
  70
    32
  0
VERTEX
  8
レイヤ__1
  5
591
 10
5.48050
 20
3.26760
 30
0.000000
  70
    32
  0
VERTEX
  8
レイヤ__1
  5
592
 10
5.48690
 20
3.26423
 30
0.000000
  70
    32
  0
VERTEX
  8
レイヤ__1
  5
593
 10
5.49317
 20
3.26080
 30
0.000000
  70
    32
  0
VERTEX
  8
レイヤ__1
  5
594
 10
5.49931
 20
3.25730
 30
0.000000
  70
    32
  0
VERTEX
  8
レイヤ__1
  5
595
 10
5.50534
 20
3.25373
 30
0.000000
  70
    32
  0
VERTEX
  8
レイヤ__1
  5
596
 10
5.51124
 20
3.25010
 30
0.000000
  70
    32
  0
VERTEX
  8
レイヤ__1
  5
597
 10
5.51701
 20
3.24641
 30
0.000000
  70
    32
  0
VERTEX
  8
レイヤ__1
  5
598
 10
5.52267
 20
3.24266
 30
0.000000
  70
    32
  0
VERTEX
  8
レイヤ__1
  5
599
 10
5.52821
 20
3.23884
 30
0.000000
  70
    32
  0
VERTEX
  8
レイヤ__1
  5
59A
 10
5.53363
 20
3.23497
 30
0.000000
  70
    32
  0
VERTEX
  8
レイヤ__1
  5
59B
 10
5.53894
 20
3.23104
 30
0.000000
  70
    32
  0
VERTEX
  8
レイヤ__1
  5
59C
 10
5.54413
 20
3.22705
 30
0.000000
  70
    32
  0
VERTEX
  8
レイヤ__1
  5
59D
 10
5.54921
 20
3.22301
 30
0.000000
  70
    32
  0
VERTEX
  8
レイヤ__1
  5
59E
 10
5.55417
 20
3.21891
 30
0.000000
  70
    32
  0
VERTEX
  8
レイヤ__1
  5
59F
 10
5.55903
 20
3.21476
 30
0.000000
  70
    32
  0
VERTEX
  8
レイヤ__1
  5
5A0
 10
5.56377
 20
3.21056
 30
0.000000
  70
    32
  0
VERTEX
  8
レイヤ__1
  5
5A1
 10
5.56841
 20
3.20632
 30
0.000000
  70
    32
  0
VERTEX
  8
レイヤ__1
  5
5A2
 10
5.57293
 20
3.20202
 30
0.000000
  70
    32
  0
VERTEX
  8
レイヤ__1
  5
5A3
 10
5.57735
 20
3.19767
 30
0.000000
  70
    32
  0
VERTEX
  8
レイヤ__1
  5
5A4
 10
5.58167
 20
3.19328
 30
0.000000
  70
    32
  0
VERTEX
  8
レイヤ__1
  5
5A5
 10
5.58588
 20
3.18884
 30
0.000000
  70
    32
  0
VERTEX
  8
レイヤ__1
  5
5A6
 10
5.58999
 20
3.18437
 30
0.000000
  70
    32
  0
VERTEX
  8
レイヤ__1
  5
5A7
 10
5.59400
 20
3.17984
 30
0.000000
  70
    32
  0
VERTEX
  8
レイヤ__1
  5
5A8
 10
5.59790
 20
3.17528
 30
0.000000
  70
    32
  0
VERTEX
  8
レイヤ__1
  5
5A9
 10
5.60171
 20
3.17068
 30
0.000000
  70
    32
  0
VERTEX
  8
レイヤ__1
  5
5AA
 10
5.60542
 20
3.16604
 30
0.000000
  70
    32
  0
VERTEX
  8
レイヤ__1
  5
5AB
 10
5.60904
 20
3.16136
 30
0.000000
  70
    32
  0
VERTEX
  8
レイヤ__1
  5
5AC
 10
5.61256
 20
3.15665
 30
0.000000
  70
    32
  0
VERTEX
  8
レイヤ__1
  5
5AD
 10
5.61599
 20
3.15190
 30
0.000000
  70
    32
  0
VERTEX
  8
レイヤ__1
  5
5AE
 10
5.61932
 20
3.14712
 30
0.000000
  70
    32
  0
VERTEX
  8
レイヤ__1
  5
5AF
 10
5.62256
 20
3.14231
 30
0.000000
  70
    32
  0
VERTEX
  8
レイヤ__1
  5
5B0
 10
5.62571
 20
3.13747
 30
0.000000
  70
    32
  0
VERTEX
  8
レイヤ__1
  5
5B1
 10
5.62877
 20
3.13260
 30
0.000000
  70
    32
  0
VERTEX
  8
レイヤ__1
  5
5B2
 10
5.63175
 20
3.12770
 30
0.000000
  70
    32
  0
VERTEX
  8
レイヤ__1
  5
5B3
 10
5.63464
 20
3.12277
 30
0.000000
  70
    32
  0
VERTEX
  8
レイヤ__1
  5
5B4
 10
5.63744
 20
3.11782
 30
0.000000
  70
    32
  0
VERTEX
  8
レイヤ__1
  5
5B5
 10
5.64016
 20
3.11284
 30
0.000000
  70
    32
  0
VERTEX
  8
レイヤ__1
  5
5B6
 10
5.64279
 20
3.10784
 30
0.000000
  70
    32
  0
VERTEX
  8
レイヤ__1
  5
5B7
 10
5.64535
 20
3.10282
 30
0.000000
  70
    32
  0
VERTEX
  8
レイヤ__1
  5
5B8
 10
5.64782
 20
3.09778
 30
0.000000
  70
    32
  0
VERTEX
  8
レイヤ__1
  5
5B9
 10
5.65022
 20
3.09273
 30
0.000000
  70
    32
  0
VERTEX
  8
レイヤ__1
  5
5BA
 10
5.65254
 20
3.08765
 30
0.000000
  70
    32
  0
VERTEX
  8
レイヤ__1
  5
5BB
 10
5.65478
 20
3.08256
 30
0.000000
  70
    32
  0
VERTEX
  8
レイヤ__1
  5
5BC
 10
5.65694
 20
3.07745
 30
0.000000
  70
    32
  0
VERTEX
  8
レイヤ__1
  5
5BD
 10
5.65903
 20
3.07233
 30
0.000000
  70
    32
  0
VERTEX
  8
レイヤ__1
  5
5BE
 10
5.66105
 20
3.06719
 30
0.000000
  70
    32
  0
VERTEX
  8
レイヤ__1
  5
5BF
 10
5.66300
 20
3.06205
 30
0.000000
  70
    32
  0
VERTEX
  8
レイヤ__1
  5
5C0
 10
5.66488
 20
3.05689
 30
0.000000
  70
    32
  0
VERTEX
  8
レイヤ__1
  5
5C1
 10
5.66668
 20
3.05173
 30
0.000000
  70
    32
  0
VERTEX
  8
レイヤ__1
  5
5C2
 10
5.66842
 20
3.04656
 30
0.000000
  70
    32
  0
VERTEX
  8
レイヤ__1
  5
5C3
 10
5.67010
 20
3.04138
 30
0.000000
  70
    32
  0
VERTEX
  8
レイヤ__1
  5
5C4
 10
5.67170
 20
3.03620
 30
0.000000
  70
    32
  0
VERTEX
  8
レイヤ__1
  5
5C5
 10
5.67325
 20
3.03102
 30
0.000000
  70
    32
  0
VERTEX
  8
レイヤ__1
  5
5C6
 10
5.67473
 20
3.02583
 30
0.000000
  70
    32
  0
VERTEX
  8
レイヤ__1
  5
5C7
 10
5.67615
 20
3.02064
 30
0.000000
  70
    32
  0
VERTEX
  8
レイヤ__1
  5
5C8
 10
5.67751
 20
3.01546
 30
0.000000
  70
    32
  0
VERTEX
  8
レイヤ__1
  5
5C9
 10
5.67880
 20
3.01027
 30
0.000000
  70
    32
  0
VERTEX
  8
レイヤ__1
  5
5CA
 10
5.68005
 20
3.00509
 30
0.000000
  70
    32
  0
VERTEX
  8
レイヤ__1
  5
5CB
 10
5.68123
 20
2.99991
 30
0.000000
  70
    32
  0
VERTEX
  8
レイヤ__1
  5
5CC
 10
5.68236
 20
2.99474
 30
0.000000
  70
    32
  0
VERTEX
  8
レイヤ__1
  5
5CD
 10
5.68343
 20
2.98958
 30
0.000000
  70
    32
  0
VERTEX
  8
レイヤ__1
  5
5CE
 10
5.68445
 20
2.98442
 30
0.000000
  70
    32
  0
VERTEX
  8
レイヤ__1
  5
5CF
 10
5.68542
 20
2.97927
 30
0.000000
  70
    32
  0
VERTEX
  8
レイヤ__1
  5
5D0
 10
5.68634
 20
2.97414
 30
0.000000
  70
    32
  0
VERTEX
  8
レイヤ__1
  5
5D1
 10
5.68721
 20
2.96901
 30
0.000000
  70
    32
  0
VERTEX
  8
レイヤ__1
  5
5D2
 10
5.68804
 20
2.96390
 30
0.000000
  70
    32
  0
VERTEX
  8
レイヤ__1
  5
5D3
 10
5.68881
 20
2.95881
 30
0.000000
  70
    32
  0
VERTEX
  8
レイヤ__1
  5
5D4
 10
5.68954
 20
2.95373
 30
0.000000
  70
    32
  0
VERTEX
  8
レイヤ__1
  5
5D5
 10
5.69023
 20
2.94866
 30
0.000000
  70
    32
  0
VERTEX
  8
レイヤ__1
  5
5D6
 10
5.69087
 20
2.94362
 30
0.000000
  70
    32
  0
VERTEX
  8
レイヤ__1
  5
5D7
 10
5.69147
 20
2.93860
 30
0.000000
  70
    32
  0
VERTEX
  8
レイヤ__1
  5
5D8
 10
5.69203
 20
2.93359
 30
0.000000
  70
    32
  0
VERTEX
  8
レイヤ__1
  5
5D9
 10
5.69255
 20
2.92861
 30
0.000000
  70
    32
  0
VERTEX
  8
レイヤ__1
  5
5DA
 10
5.69303
 20
2.92366
 30
0.000000
  70
    32
  0
VERTEX
  8
レイヤ__1
  5
5DB
 10
5.69348
 20
2.91873
 30
0.000000
  70
    32
  0
VERTEX
  8
レイヤ__1
  5
5DC
 10
5.69388
 20
2.91382
 30
0.000000
  70
    32
  0
VERTEX
  8
レイヤ__1
  5
5DD
 10
5.69426
 20
2.90894
 30
0.000000
  70
    32
  0
VERTEX
  8
レイヤ__1
  5
5DE
 10
5.69460
 20
2.90410
 30
0.000000
  70
    32
  0
VERTEX
  8
レイヤ__1
  5
5DF
 10
5.69491
 20
2.89928
 30
0.000000
  70
    32
  0
VERTEX
  8
レイヤ__1
  5
5E0
 10
5.69519
 20
2.89449
 30
0.000000
  70
    32
  0
VERTEX
  8
レイヤ__1
  5
5E1
 10
5.69544
 20
2.88974
 30
0.000000
  70
    32
  0
VERTEX
  8
レイヤ__1
  5
5E2
 10
5.69566
 20
2.88502
 30
0.000000
  70
    32
  0
VERTEX
  8
レイヤ__1
  5
5E3
 10
5.69586
 20
2.88033
 30
0.000000
  70
    32
  0
VERTEX
  8
レイヤ__1
  5
5E4
 10
5.69603
 20
2.87569
 30
0.000000
  70
    32
  0
VERTEX
  8
レイヤ__1
  5
5E5
 10
5.69617
 20
2.87108
 30
0.000000
  70
    32
  0
VERTEX
  8
レイヤ__1
  5
5E6
 10
5.69629
 20
2.86651
 30
0.000000
  70
    32
  0
VERTEX
  8
レイヤ__1
  5
5E7
 10
5.69639
 20
2.86198
 30
0.000000
  70
    32
  0
VERTEX
  8
レイヤ__1
  5
5E8
 10
5.69647
 20
2.85749
 30
0.000000
  70
    32
  0
VERTEX
  8
レイヤ__1
  5
5E9
 10
5.69653
 20
2.85304
 30
0.000000
  70
    32
  0
VERTEX
  8
レイヤ__1
  5
5EA
 10
5.69657
 20
2.84864
 30
0.000000
  70
    32
  0
VERTEX
  8
レイヤ__1
  5
5EB
 10
5.69659
 20
2.84429
 30
0.000000
  70
    32
  0
VERTEX
  8
レイヤ__1
  5
5EC
 10
5.69660
 20
2.83998
 30
0.000000
  70
    32
  0
SEQEND
  8
レイヤ__1
  5
5ED
  0
POLYLINE
  8
レイヤ__1
  5
5EE
  62
5
  66
     1
 10
0.000000
 20
0.000000
 30
0.000000
  70
     8
  0
VERTEX
  8
レイヤ__1
  5
5EF
 10
4.47578
 20
1.35015
 30
0.000000
  70
    32
  0
VERTEX
  8
レイヤ__1
  5
5F0
 10
4.48904
 20
1.34652
 30
0.000000
  70
    32
  0
VERTEX
  8
レイヤ__1
  5
5F1
 10
4.50226
 20
1.34292
 30
0.000000
  70
    32
  0
VERTEX
  8
レイヤ__1
  5
5F2
 10
4.51543
 20
1.33935
 30
0.000000
  70
    32
  0
VERTEX
  8
レイヤ__1
  5
5F3
 10
4.52856
 20
1.33581
 30
0.000000
  70
    32
  0
VERTEX
  8
レイヤ__1
  5
5F4
 10
4.54164
 20
1.33230
 30
0.000000
  70
    32
  0
VERTEX
  8
レイヤ__1
  5
5F5
 10
4.55468
 20
1.32881
 30
0.000000
  70
    32
  0
VERTEX
  8
レイヤ__1
  5
5F6
 10
4.56767
 20
1.32534
 30
0.000000
  70
    32
  0
VERTEX
  8
レイヤ__1
  5
5F7
 10
4.58061
 20
1.32190
 30
0.000000
  70
    32
  0
VERTEX
  8
レイヤ__1
  5
5F8
 10
4.59350
 20
1.31848
 30
0.000000
  70
    32
  0
VERTEX
  8
レイヤ__1
  5
5F9
 10
4.60633
 20
1.31509
 30
0.000000
  70
    32
  0
VERTEX
  8
レイヤ__1
  5
5FA
 10
4.61912
 20
1.31172
 30
0.000000
  70
    32
  0
VERTEX
  8
レイヤ__1
  5
5FB
 10
4.63185
 20
1.30836
 30
0.000000
  70
    32
  0
VERTEX
  8
レイヤ__1
  5
5FC
 10
4.64453
 20
1.30503
 30
0.000000
  70
    32
  0
VERTEX
  8
レイヤ__1
  5
5FD
 10
4.65715
 20
1.30171
 30
0.000000
  70
    32
  0
VERTEX
  8
レイヤ__1
  5
5FE
 10
4.66971
 20
1.29841
 30
0.000000
  70
    32
  0
VERTEX
  8
レイヤ__1
  5
5FF
 10
4.68222
 20
1.29513
 30
0.000000
  70
    32
  0
VERTEX
  8
レイヤ__1
  5
600
 10
4.69466
 20
1.29187
 30
0.000000
  70
    32
  0
VERTEX
  8
レイヤ__1
  5
601
 10
4.70705
 20
1.28862
 30
0.000000
  70
    32
  0
VERTEX
  8
レイヤ__1
  5
602
 10
4.71937
 20
1.28538
 30
0.000000
  70
    32
  0
VERTEX
  8
レイヤ__1
  5
603
 10
4.73163
 20
1.28216
 30
0.000000
  70
    32
  0
VERTEX
  8
レイヤ__1
  5
604
 10
4.74382
 20
1.27895
 30
0.000000
  70
    32
  0
VERTEX
  8
レイヤ__1
  5
605
 10
4.75595
 20
1.27574
 30
0.000000
  70
    32
  0
VERTEX
  8
レイヤ__1
  5
606
 10
4.76802
 20
1.27256
 30
0.000000
  70
    32
  0
VERTEX
  8
レイヤ__1
  5
607
 10
4.78001
 20
1.26937
 30
0.000000
  70
    32
  0
VERTEX
  8
レイヤ__1
  5
608
 10
4.79194
 20
1.26620
 30
0.000000
  70
    32
  0
VERTEX
  8
レイヤ__1
  5
609
 10
4.80380
 20
1.26304
 30
0.000000
  70
    32
  0
VERTEX
  8
レイヤ__1
  5
60A
 10
4.81558
 20
1.25988
 30
0.000000
  70
    32
  0
VERTEX
  8
レイヤ__1
  5
60B
 10
4.82730
 20
1.25673
 30
0.000000
  70
    32
  0
VERTEX
  8
レイヤ__1
  5
60C
 10
4.83894
 20
1.25358
 30
0.000000
  70
    32
  0
VERTEX
  8
レイヤ__1
  5
60D
 10
4.85050
 20
1.25044
 30
0.000000
  70
    32
  0
VERTEX
  8
レイヤ__1
  5
60E
 10
4.86199
 20
1.24730
 30
0.000000
  70
    32
  0
VERTEX
  8
レイヤ__1
  5
60F
 10
4.87340
 20
1.24416
 30
0.000000
  70
    32
  0
VERTEX
  8
レイヤ__1
  5
610
 10
4.88474
 20
1.24102
 30
0.000000
  70
    32
  0
VERTEX
  8
レイヤ__1
  5
611
 10
4.89599
 20
1.23789
 30
0.000000
  70
    32
  0
VERTEX
  8
レイヤ__1
  5
612
 10
4.90716
 20
1.23475
 30
0.000000
  70
    32
  0
VERTEX
  8
レイヤ__1
  5
613
 10
4.91826
 20
1.23161
 30
0.000000
  70
    32
  0
VERTEX
  8
レイヤ__1
  5
614
 10
4.92927
 20
1.22847
 30
0.000000
  70
    32
  0
VERTEX
  8
レイヤ__1
  5
615
 10
4.94019
 20
1.22533
 30
0.000000
  70
    32
  0
VERTEX
  8
レイヤ__1
  5
616
 10
4.95103
 20
1.22218
 30
0.000000
  70
    32
  0
VERTEX
  8
レイヤ__1
  5
617
 10
4.96178
 20
1.21902
 30
0.000000
  70
    32
  0
VERTEX
  8
レイヤ__1
  5
618
 10
4.97245
 20
1.21586
 30
0.000000
  70
    32
  0
VERTEX
  8
レイヤ__1
  5
619
 10
4.98303
 20
1.21270
 30
0.000000
  70
    32
  0
VERTEX
  8
レイヤ__1
  5
61A
 10
4.99351
 20
1.20952
 30
0.000000
  70
    32
  0
VERTEX
  8
レイヤ__1
  5
61B
 10
5.00391
 20
1.20634
 30
0.000000
  70
    32
  0
VERTEX
  8
レイヤ__1
  5
61C
 10
5.01421
 20
1.20314
 30
0.000000
  70
    32
  0
VERTEX
  8
レイヤ__1
  5
61D
 10
5.02442
 20
1.19994
 30
0.000000
  70
    32
  0
VERTEX
  8
レイヤ__1
  5
61E
 10
5.03454
 20
1.19672
 30
0.000000
  70
    32
  0
VERTEX
  8
レイヤ__1
  5
61F
 10
5.04456
 20
1.19350
 30
0.000000
  70
    32
  0
VERTEX
  8
レイヤ__1
  5
620
 10
5.05448
 20
1.19025
 30
0.000000
  70
    32
  0
VERTEX
  8
レイヤ__1
  5
621
 10
5.06430
 20
1.18700
 30
0.000000
  70
    32
  0
VERTEX
  8
レイヤ__1
  5
622
 10
5.07403
 20
1.18373
 30
0.000000
  70
    32
  0
VERTEX
  8
レイヤ__1
  5
623
 10
5.08365
 20
1.18044
 30
0.000000
  70
    32
  0
VERTEX
  8
レイヤ__1
  5
624
 10
5.09318
 20
1.17714
 30
0.000000
  70
    32
  0
VERTEX
  8
レイヤ__1
  5
625
 10
5.10260
 20
1.17381
 30
0.000000
  70
    32
  0
VERTEX
  8
レイヤ__1
  5
626
 10
5.11191
 20
1.17047
 30
0.000000
  70
    32
  0
VERTEX
  8
レイヤ__1
  5
627
 10
5.12113
 20
1.16711
 30
0.000000
  70
    32
  0
VERTEX
  8
レイヤ__1
  5
628
 10
5.13023
 20
1.16373
 30
0.000000
  70
    32
  0
VERTEX
  8
レイヤ__1
  5
629
 10
5.13923
 20
1.16033
 30
0.000000
  70
    32
  0
VERTEX
  8
レイヤ__1
  5
62A
 10
5.14812
 20
1.15690
 30
0.000000
  70
    32
  0
VERTEX
  8
レイヤ__1
  5
62B
 10
5.15690
 20
1.15346
 30
0.000000
  70
    32
  0
VERTEX
  8
レイヤ__1
  5
62C
 10
5.16556
 20
1.14998
 30
0.000000
  70
    32
  0
VERTEX
  8
レイヤ__1
  5
62D
 10
5.17412
 20
1.14648
 30
0.000000
  70
    32
  0
VERTEX
  8
レイヤ__1
  5
62E
 10
5.18256
 20
1.14296
 30
0.000000
  70
    32
  0
VERTEX
  8
レイヤ__1
  5
62F
 10
5.19089
 20
1.13941
 30
0.000000
  70
    32
  0
VERTEX
  8
レイヤ__1
  5
630
 10
5.19910
 20
1.13583
 30
0.000000
  70
    32
  0
VERTEX
  8
レイヤ__1
  5
631
 10
5.20720
 20
1.13222
 30
0.000000
  70
    32
  0
VERTEX
  8
レイヤ__1
  5
632
 10
5.21518
 20
1.12858
 30
0.000000
  70
    32
  0
VERTEX
  8
レイヤ__1
  5
633
 10
5.22304
 20
1.12491
 30
0.000000
  70
    32
  0
VERTEX
  8
レイヤ__1
  5
634
 10
5.23077
 20
1.12121
 30
0.000000
  70
    32
  0
VERTEX
  8
レイヤ__1
  5
635
 10
5.23839
 20
1.11748
 30
0.000000
  70
    32
  0
VERTEX
  8
レイヤ__1
  5
636
 10
5.24588
 20
1.11371
 30
0.000000
  70
    32
  0
VERTEX
  8
レイヤ__1
  5
637
 10
5.25325
 20
1.10991
 30
0.000000
  70
    32
  0
VERTEX
  8
レイヤ__1
  5
638
 10
5.26050
 20
1.10608
 30
0.000000
  70
    32
  0
VERTEX
  8
レイヤ__1
  5
639
 10
5.26762
 20
1.10221
 30
0.000000
  70
    32
  0
VERTEX
  8
レイヤ__1
  5
63A
 10
5.27461
 20
1.09830
 30
0.000000
  70
    32
  0
VERTEX
  8
レイヤ__1
  5
63B
 10
5.28147
 20
1.09435
 30
0.000000
  70
    32
  0
VERTEX
  8
レイヤ__1
  5
63C
 10
5.28821
 20
1.09036
 30
0.000000
  70
    32
  0
VERTEX
  8
レイヤ__1
  5
63D
 10
5.29481
 20
1.08634
 30
0.000000
  70
    32
  0
VERTEX
  8
レイヤ__1
  5
63E
 10
5.30128
 20
1.08227
 30
0.000000
  70
    32
  0
VERTEX
  8
レイヤ__1
  5
63F
 10
5.30762
 20
1.07816
 30
0.000000
  70
    32
  0
VERTEX
  8
レイヤ__1
  5
640
 10
5.31382
 20
1.07401
 30
0.000000
  70
    32
  0
VERTEX
  8
レイヤ__1
  5
641
 10
5.31989
 20
1.06982
 30
0.000000
  70
    32
  0
VERTEX
  8
レイヤ__1
  5
642
 10
5.32582
 20
1.06558
 30
0.000000
  70
    32
  0
VERTEX
  8
レイヤ__1
  5
643
 10
5.33161
 20
1.06130
 30
0.000000
  70
    32
  0
VERTEX
  8
レイヤ__1
  5
644
 10
5.33727
 20
1.05697
 30
0.000000
  70
    32
  0
VERTEX
  8
レイヤ__1
  5
645
 10
5.34278
 20
1.05259
 30
0.000000
  70
    32
  0
VERTEX
  8
レイヤ__1
  5
646
 10
5.34815
 20
1.04817
 30
0.000000
  70
    32
  0
VERTEX
  8
レイヤ__1
  5
647
 10
5.35338
 20
1.04369
 30
0.000000
  70
    32
  0
VERTEX
  8
レイヤ__1
  5
648
 10
5.35847
 20
1.03917
 30
0.000000
  70
    32
  0
VERTEX
  8
レイヤ__1
  5
649
 10
5.36341
 20
1.03460
 30
0.000000
  70
    32
  0
VERTEX
  8
レイヤ__1
  5
64A
 10
5.36821
 20
1.02997
 30
0.000000
  70
    32
  0
VERTEX
  8
レイヤ__1
  5
64B
 10
5.37286
 20
1.02529
 30
0.000000
  70
    32
  0
VERTEX
  8
レイヤ__1
  5
64C
 10
5.37736
 20
1.02056
 30
0.000000
  70
    32
  0
VERTEX
  8
レイヤ__1
  5
64D
 10
5.38171
 20
1.01577
 30
0.000000
  70
    32
  0
VERTEX
  8
レイヤ__1
  5
64E
 10
5.38591
 20
1.01093
 30
0.000000
  70
    32
  0
VERTEX
  8
レイヤ__1
  5
64F
 10
5.38995
 20
1.00603
 30
0.000000
  70
    32
  0
VERTEX
  8
レイヤ__1
  5
650
 10
5.39385
 20
1.00108
 30
0.000000
  70
    32
  0
VERTEX
  8
レイヤ__1
  5
651
 10
5.39759
 20
0.996065
 30
0.000000
  70
    32
  0
VERTEX
  8
レイヤ__1
  5
652
 10
5.40117
 20
0.990993
 30
0.000000
  70
    32
  0
VERTEX
  8
レイヤ__1
  5
653
 10
5.40460
 20
0.985862
 30
0.000000
  70
    32
  0
VERTEX
  8
レイヤ__1
  5
654
 10
5.40787
 20
0.980669
 30
0.000000
  70
    32
  0
VERTEX
  8
レイヤ__1
  5
655
 10
5.41099
 20
0.975415
 30
0.000000
  70
    32
  0
VERTEX
  8
レイヤ__1
  5
656
 10
5.41394
 20
0.970098
 30
0.000000
  70
    32
  0
VERTEX
  8
レイヤ__1
  5
657
 10
5.41673
 20
0.964718
 30
0.000000
  70
    32
  0
VERTEX
  8
レイヤ__1
  5
658
 10
5.41936
 20
0.959273
 30
0.000000
  70
    32
  0
VERTEX
  8
レイヤ__1
  5
659
 10
5.42182
 20
0.953764
 30
0.000000
  70
    32
  0
VERTEX
  8
レイヤ__1
  5
65A
 10
5.42412
 20
0.948187
 30
0.000000
  70
    32
  0
VERTEX
  8
レイヤ__1
  5
65B
 10
5.42626
 20
0.942544
 30
0.000000
  70
    32
  0
VERTEX
  8
レイヤ__1
  5
65C
 10
5.42822
 20
0.936833
 30
0.000000
  70
    32
  0
VERTEX
  8
レイヤ__1
  5
65D
 10
5.43002
 20
0.931052
 30
0.000000
  70
    32
  0
VERTEX
  8
レイヤ__1
  5
65E
 10
5.43165
 20
0.925202
 30
0.000000
  70
    32
  0
VERTEX
  8
レイヤ__1
  5
65F
 10
5.43311
 20
0.919281
 30
0.000000
  70
    32
  0
VERTEX
  8
レイヤ__1
  5
660
 10
5.43440
 20
0.913289
 30
0.000000
  70
    32
  0
VERTEX
  8
レイヤ__1
  5
661
 10
5.43551
 20
0.907224
 30
0.000000
  70
    32
  0
VERTEX
  8
レイヤ__1
  5
662
 10
5.43645
 20
0.901085
 30
0.000000
  70
    32
  0
VERTEX
  8
レイヤ__1
  5
663
 10
5.43722
 20
0.894872
 30
0.000000
  70
    32
  0
VERTEX
  8
レイヤ__1
  5
664
 10
5.43780
 20
0.888583
 30
0.000000
  70
    32
  0
VERTEX
  8
レイヤ__1
  5
665
 10
5.43822
 20
0.882218
 30
0.000000
  70
    32
  0
VERTEX
  8
レイヤ__1
  5
666
 10
5.43845
 20
0.875776
 30
0.000000
  70
    32
  0
VERTEX
  8
レイヤ__1
  5
667
 10
5.43850
 20
0.869256
 30
0.000000
  70
    32
  0
VERTEX
  8
レイヤ__1
  5
668
 10
5.43837
 20
0.862658
 30
0.000000
  70
    32
  0
VERTEX
  8
レイヤ__1
  5
669
 10
5.43806
 20
0.855979
 30
0.000000
  70
    32
  0
VERTEX
  8
レイヤ__1
  5
66A
 10
5.43757
 20
0.849219
 30
0.000000
  70
    32
  0
VERTEX
  8
レイヤ__1
  5
66B
 10
5.43689
 20
0.842378
 30
0.000000
  70
    32
  0
VERTEX
  8
レイヤ__1
  5
66C
 10
5.43602
 20
0.835454
 30
0.000000
  70
    32
  0
VERTEX
  8
レイヤ__1
  5
66D
 10
5.43497
 20
0.828446
 30
0.000000
  70
    32
  0
VERTEX
  8
レイヤ__1
  5
66E
 10
5.43373
 20
0.821354
 30
0.000000
  70
    32
  0
SEQEND
  8
レイヤ__1
  5
66F
  0
POLYLINE
  8
レイヤ__1
  5
670
  62
5
  66
     1
 10
0.000000
 20
0.000000
 30
0.000000
  70
     8
  0
VERTEX
  8
レイヤ__1
  5
671
 10
5.43373
 20
0.821354
 30
0.000000
  70
    32
  0
VERTEX
  8
レイヤ__1
  5
672
 10
5.43204
 20
0.812637
 30
0.000000
  70
    32
  0
VERTEX
  8
レイヤ__1
  5
673
 10
5.43024
 20
0.804050
 30
0.000000
  70
    32
  0
VERTEX
  8
レイヤ__1
  5
674
 10
5.42835
 20
0.795593
 30
0.000000
  70
    32
  0
VERTEX
  8
レイヤ__1
  5
675
 10
5.42636
 20
0.787264
 30
0.000000
  70
    32
  0
VERTEX
  8
レイヤ__1
  5
676
 10
5.42428
 20
0.779064
 30
0.000000
  70
    32
  0
VERTEX
  8
レイヤ__1
  5
677
 10
5.42209
 20
0.770989
 30
0.000000
  70
    32
  0
VERTEX
  8
レイヤ__1
  5
678
 10
5.41981
 20
0.763041
 30
0.000000
  70
    32
  0
VERTEX
  8
レイヤ__1
  5
679
 10
5.41744
 20
0.755217
 30
0.000000
  70
    32
  0
VERTEX
  8
レイヤ__1
  5
67A
 10
5.41496
 20
0.747517
 30
0.000000
  70
    32
  0
VERTEX
  8
レイヤ__1
  5
67B
 10
5.41240
 20
0.739939
 30
0.000000
  70
    32
  0
VERTEX
  8
レイヤ__1
  5
67C
 10
5.40974
 20
0.732483
 30
0.000000
  70
    32
  0
VERTEX
  8
レイヤ__1
  5
67D
 10
5.40698
 20
0.725148
 30
0.000000
  70
    32
  0
VERTEX
  8
レイヤ__1
  5
67E
 10
5.40413
 20
0.717932
 30
0.000000
  70
    32
  0
VERTEX
  8
レイヤ__1
  5
67F
 10
5.40119
 20
0.710836
 30
0.000000
  70
    32
  0
VERTEX
  8
レイヤ__1
  5
680
 10
5.39816
 20
0.703856
 30
0.000000
  70
    32
  0
VERTEX
  8
レイヤ__1
  5
681
 10
5.39504
 20
0.696994
 30
0.000000
  70
    32
  0
VERTEX
  8
レイヤ__1
  5
682
 10
5.39183
 20
0.690247
 30
0.000000
  70
    32
  0
VERTEX
  8
レイヤ__1
  5
683
 10
5.38852
 20
0.683615
 30
0.000000
  70
    32
  0
VERTEX
  8
レイヤ__1
  5
684
 10
5.38513
 20
0.677097
 30
0.000000
  70
    32
  0
VERTEX
  8
レイヤ__1
  5
685
 10
5.38165
 20
0.670691
 30
0.000000
  70
    32
  0
VERTEX
  8
レイヤ__1
  5
686
 10
5.37808
 20
0.664398
 30
0.000000
  70
    32
  0
VERTEX
  8
レイヤ__1
  5
687
 10
5.37442
 20
0.658215
 30
0.000000
  70
    32
  0
VERTEX
  8
レイヤ__1
  5
688
 10
5.37067
 20
0.652141
 30
0.000000
  70
    32
  0
VERTEX
  8
レイヤ__1
  5
689
 10
5.36684
 20
0.646177
 30
0.000000
  70
    32
  0
VERTEX
  8
レイヤ__1
  5
68A
 10
5.36292
 20
0.640320
 30
0.000000
  70
    32
  0
VERTEX
  8
レイヤ__1
  5
68B
 10
5.35892
 20
0.634570
 30
0.000000
  70
    32
  0
VERTEX
  8
レイヤ__1
  5
68C
 10
5.35483
 20
0.628926
 30
0.000000
  70
    32
  0
VERTEX
  8
レイヤ__1
  5
68D
 10
5.35066
 20
0.623386
 30
0.000000
  70
    32
  0
VERTEX
  8
レイヤ__1
  5
68E
 10
5.34640
 20
0.617951
 30
0.000000
  70
    32
  0
VERTEX
  8
レイヤ__1
  5
68F
 10
5.34206
 20
0.612618
 30
0.000000
  70
    32
  0
VERTEX
  8
レイヤ__1
  5
690
 10
5.33764
 20
0.607387
 30
0.000000
  70
    32
  0
VERTEX
  8
レイヤ__1
  5
691
 10
5.33314
 20
0.602256
 30
0.000000
  70
    32
  0
VERTEX
  8
レイヤ__1
  5
692
 10
5.32855
 20
0.597226
 30
0.000000
  70
    32
  0
VERTEX
  8
レイヤ__1
  5
693
 10
5.32389
 20
0.592294
 30
0.000000
  70
    32
  0
VERTEX
  8
レイヤ__1
  5
694
 10
5.31914
 20
0.587461
 30
0.000000
  70
    32
  0
VERTEX
  8
レイヤ__1
  5
695
 10
5.31432
 20
0.582724
 30
0.000000
  70
    32
  0
VERTEX
  8
レイヤ__1
  5
696
 10
5.30941
 20
0.578083
 30
0.000000
  70
    32
  0
VERTEX
  8
レイヤ__1
  5
697
 10
5.30443
 20
0.573536
 30
0.000000
  70
    32
  0
VERTEX
  8
レイヤ__1
  5
698
 10
5.29937
 20
0.569084
 30
0.000000
  70
    32
  0
VERTEX
  8
レイヤ__1
  5
699
 10
5.29423
 20
0.564724
 30
0.000000
  70
    32
  0
VERTEX
  8
レイヤ__1
  5
69A
 10
5.28902
 20
0.560457
 30
0.000000
  70
    32
  0
VERTEX
  8
レイヤ__1
  5
69B
 10
5.28373
 20
0.556280
 30
0.000000
  70
    32
  0
VERTEX
  8
レイヤ__1
  5
69C
 10
5.27836
 20
0.552193
 30
0.000000
  70
    32
  0
VERTEX
  8
レイヤ__1
  5
69D
 10
5.27292
 20
0.548195
 30
0.000000
  70
    32
  0
VERTEX
  8
レイヤ__1
  5
69E
 10
5.26741
 20
0.544285
 30
0.000000
  70
    32
  0
VERTEX
  8
レイヤ__1
  5
69F
 10
5.26182
 20
0.540462
 30
0.000000
  70
    32
  0
VERTEX
  8
レイヤ__1
  5
6A0
 10
5.25616
 20
0.536724
 30
0.000000
  70
    32
  0
VERTEX
  8
レイヤ__1
  5
6A1
 10
5.25043
 20
0.533072
 30
0.000000
  70
    32
  0
VERTEX
  8
レイヤ__1
  5
6A2
 10
5.24462
 20
0.529504
 30
0.000000
  70
    32
  0
VERTEX
  8
レイヤ__1
  5
6A3
 10
5.23874
 20
0.526018
 30
0.000000
  70
    32
  0
VERTEX
  8
レイヤ__1
  5
6A4
 10
5.23279
 20
0.522615
 30
0.000000
  70
    32
  0
VERTEX
  8
レイヤ__1
  5
6A5
 10
5.22678
 20
0.519292
 30
0.000000
  70
    32
  0
VERTEX
  8
レイヤ__1
  5
6A6
 10
5.22069
 20
0.516049
 30
0.000000
  70
    32
  0
VERTEX
  8
レイヤ__1
  5
6A7
 10
5.21453
 20
0.512885
 30
0.000000
  70
    32
  0
VERTEX
  8
レイヤ__1
  5
6A8
 10
5.20831
 20
0.509800
 30
0.000000
  70
    32
  0
VERTEX
  8
レイヤ__1
  5
6A9
 10
5.20201
 20
0.506791
 30
0.000000
  70
    32
  0
VERTEX
  8
レイヤ__1
  5
6AA
 10
5.19565
 20
0.503858
 30
0.000000
  70
    32
  0
VERTEX
  8
レイヤ__1
  5
6AB
 10
5.18923
 20
0.501000
 30
0.000000
  70
    32
  0
VERTEX
  8
レイヤ__1
  5
6AC
 10
5.18273
 20
0.498216
 30
0.000000
  70
    32
  0
VERTEX
  8
レイヤ__1
  5
6AD
 10
5.17617
 20
0.495505
 30
0.000000
  70
    32
  0
VERTEX
  8
レイヤ__1
  5
6AE
 10
5.16955
 20
0.492866
 30
0.000000
  70
    32
  0
VERTEX
  8
レイヤ__1
  5
6AF
 10
5.16286
 20
0.490298
 30
0.000000
  70
    32
  0
VERTEX
  8
レイヤ__1
  5
6B0
 10
5.15611
 20
0.487801
 30
0.000000
  70
    32
  0
VERTEX
  8
レイヤ__1
  5
6B1
 10
5.14930
 20
0.485372
 30
0.000000
  70
    32
  0
VERTEX
  8
レイヤ__1
  5
6B2
 10
5.14242
 20
0.483011
 30
0.000000
  70
    32
  0
VERTEX
  8
レイヤ__1
  5
6B3
 10
5.13548
 20
0.480717
 30
0.000000
  70
    32
  0
VERTEX
  8
レイヤ__1
  5
6B4
 10
5.12848
 20
0.478489
 30
0.000000
  70
    32
  0
VERTEX
  8
レイヤ__1
  5
6B5
 10
5.12142
 20
0.476327
 30
0.000000
  70
    32
  0
VERTEX
  8
レイヤ__1
  5
6B6
 10
5.11430
 20
0.474228
 30
0.000000
  70
    32
  0
VERTEX
  8
レイヤ__1
  5
6B7
 10
5.10712
 20
0.472192
 30
0.000000
  70
    32
  0
VERTEX
  8
レイヤ__1
  5
6B8
 10
5.09988
 20
0.470219
 30
0.000000
  70
    32
  0
VERTEX
  8
レイヤ__1
  5
6B9
 10
5.09258
 20
0.468306
 30
0.000000
  70
    32
  0
VERTEX
  8
レイヤ__1
  5
6BA
 10
5.08522
 20
0.466454
 30
0.000000
  70
    32
  0
VERTEX
  8
レイヤ__1
  5
6BB
 10
5.07781
 20
0.464661
 30
0.000000
  70
    32
  0
VERTEX
  8
レイヤ__1
  5
6BC
 10
5.07034
 20
0.462926
 30
0.000000
  70
    32
  0
VERTEX
  8
レイヤ__1
  5
6BD
 10
5.06281
 20
0.461247
 30
0.000000
  70
    32
  0
VERTEX
  8
レイヤ__1
  5
6BE
 10
5.05523
 20
0.459625
 30
0.000000
  70
    32
  0
VERTEX
  8
レイヤ__1
  5
6BF
 10
5.04759
 20
0.458059
 30
0.000000
  70
    32
  0
VERTEX
  8
レイヤ__1
  5
6C0
 10
5.03990
 20
0.456546
 30
0.000000
  70
    32
  0
VERTEX
  8
レイヤ__1
  5
6C1
 10
5.03215
 20
0.455086
 30
0.000000
  70
    32
  0
VERTEX
  8
レイヤ__1
  5
6C2
 10
5.02435
 20
0.453679
 30
0.000000
  70
    32
  0
VERTEX
  8
レイヤ__1
  5
6C3
 10
5.01650
 20
0.452322
 30
0.000000
  70
    32
  0
VERTEX
  8
レイヤ__1
  5
6C4
 10
5.00860
 20
0.451016
 30
0.000000
  70
    32
  0
VERTEX
  8
レイヤ__1
  5
6C5
 10
5.00065
 20
0.449759
 30
0.000000
  70
    32
  0
VERTEX
  8
レイヤ__1
  5
6C6
 10
4.99264
 20
0.448550
 30
0.000000
  70
    32
  0
VERTEX
  8
レイヤ__1
  5
6C7
 10
4.98458
 20
0.447388
 30
0.000000
  70
    32
  0
VERTEX
  8
レイヤ__1
  5
6C8
 10
4.97648
 20
0.446273
 30
0.000000
  70
    32
  0
VERTEX
  8
レイヤ__1
  5
6C9
 10
4.96832
 20
0.445202
 30
0.000000
  70
    32
  0
VERTEX
  8
レイヤ__1
  5
6CA
 10
4.96012
 20
0.444176
 30
0.000000
  70
    32
  0
VERTEX
  8
レイヤ__1
  5
6CB
 10
4.95187
 20
0.443193
 30
0.000000
  70
    32
  0
VERTEX
  8
レイヤ__1
  5
6CC
 10
4.94357
 20
0.442252
 30
0.000000
  70
    32
  0
VERTEX
  8
レイヤ__1
  5
6CD
 10
4.93523
 20
0.441352
 30
0.000000
  70
    32
  0
VERTEX
  8
レイヤ__1
  5
6CE
 10
4.92684
 20
0.440493
 30
0.000000
  70
    32
  0
VERTEX
  8
レイヤ__1
  5
6CF
 10
4.91840
 20
0.439673
 30
0.000000
  70
    32
  0
VERTEX
  8
レイヤ__1
  5
6D0
 10
4.90992
 20
0.438891
 30
0.000000
  70
    32
  0
VERTEX
  8
レイヤ__1
  5
6D1
 10
4.90139
 20
0.438146
 30
0.000000
  70
    32
  0
VERTEX
  8
レイヤ__1
  5
6D2
 10
4.89282
 20
0.437437
 30
0.000000
  70
    32
  0
VERTEX
  8
レイヤ__1
  5
6D3
 10
4.88421
 20
0.436764
 30
0.000000
  70
    32
  0
VERTEX
  8
レイヤ__1
  5
6D4
 10
4.87555
 20
0.436125
 30
0.000000
  70
    32
  0
VERTEX
  8
レイヤ__1
  5
6D5
 10
4.86685
 20
0.435519
 30
0.000000
  70
    32
  0
VERTEX
  8
レイヤ__1
  5
6D6
 10
4.85812
 20
0.434945
 30
0.000000
  70
    32
  0
VERTEX
  8
レイヤ__1
  5
6D7
 10
4.84933
 20
0.434403
 30
0.000000
  70
    32
  0
VERTEX
  8
レイヤ__1
  5
6D8
 10
4.84051
 20
0.433891
 30
0.000000
  70
    32
  0
VERTEX
  8
レイヤ__1
  5
6D9
 10
4.83165
 20
0.433408
 30
0.000000
  70
    32
  0
VERTEX
  8
レイヤ__1
  5
6DA
 10
4.82275
 20
0.432954
 30
0.000000
  70
    32
  0
VERTEX
  8
レイヤ__1
  5
6DB
 10
4.81382
 20
0.432527
 30
0.000000
  70
    32
  0
VERTEX
  8
レイヤ__1
  5
6DC
 10
4.80484
 20
0.432126
 30
0.000000
  70
    32
  0
VERTEX
  8
レイヤ__1
  5
6DD
 10
4.79583
 20
0.431750
 30
0.000000
  70
    32
  0
VERTEX
  8
レイヤ__1
  5
6DE
 10
4.78678
 20
0.431399
 30
0.000000
  70
    32
  0
VERTEX
  8
レイヤ__1
  5
6DF
 10
4.77769
 20
0.431071
 30
0.000000
  70
    32
  0
VERTEX
  8
レイヤ__1
  5
6E0
 10
4.76857
 20
0.430766
 30
0.000000
  70
    32
  0
VERTEX
  8
レイヤ__1
  5
6E1
 10
4.75941
 20
0.430481
 30
0.000000
  70
    32
  0
VERTEX
  8
レイヤ__1
  5
6E2
 10
4.75022
 20
0.430218
 30
0.000000
  70
    32
  0
VERTEX
  8
レイヤ__1
  5
6E3
 10
4.74099
 20
0.429973
 30
0.000000
  70
    32
  0
VERTEX
  8
レイヤ__1
  5
6E4
 10
4.73174
 20
0.429747
 30
0.000000
  70
    32
  0
VERTEX
  8
レイヤ__1
  5
6E5
 10
4.72244
 20
0.429538
 30
0.000000
  70
    32
  0
VERTEX
  8
レイヤ__1
  5
6E6
 10
4.71312
 20
0.429345
 30
0.000000
  70
    32
  0
VERTEX
  8
レイヤ__1
  5
6E7
 10
4.70377
 20
0.429168
 30
0.000000
  70
    32
  0
VERTEX
  8
レイヤ__1
  5
6E8
 10
4.69438
 20
0.429005
 30
0.000000
  70
    32
  0
VERTEX
  8
レイヤ__1
  5
6E9
 10
4.68496
 20
0.428856
 30
0.000000
  70
    32
  0
VERTEX
  8
レイヤ__1
  5
6EA
 10
4.67552
 20
0.428719
 30
0.000000
  70
    32
  0
VERTEX
  8
レイヤ__1
  5
6EB
 10
4.66604
 20
0.428594
 30
0.000000
  70
    32
  0
VERTEX
  8
レイヤ__1
  5
6EC
 10
4.65654
 20
0.428478
 30
0.000000
  70
    32
  0
VERTEX
  8
レイヤ__1
  5
6ED
 10
4.64701
 20
0.428373
 30
0.000000
  70
    32
  0
VERTEX
  8
レイヤ__1
  5
6EE
 10
4.63745
 20
0.428275
 30
0.000000
  70
    32
  0
VERTEX
  8
レイヤ__1
  5
6EF
 10
4.62786
 20
0.428185
 30
0.000000
  70
    32
  0
VERTEX
  8
レイヤ__1
  5
6F0
 10
4.61825
 20
0.428102
 30
0.000000
  70
    32
  0
SEQEND
  8
レイヤ__1
  5
6F1
  0
POLYLINE
  8
レイヤ__1
  5
6F2
  62
5
  66
     1
 10
0.000000
 20
0.000000
 30
0.000000
  70
     8
  0
VERTEX
  8
レイヤ__1
  5
6F3
 10
4.61825
 20
0.428102
 30
0.000000
  70
    32
  0
VERTEX
  8
レイヤ__1
  5
6F4
 10
4.61103
 20
0.428065
 30
0.000000
  70
    32
  0
VERTEX
  8
レイヤ__1
  5
6F5
 10
4.60381
 20
0.428080
 30
0.000000
  70
    32
  0
VERTEX
  8
レイヤ__1
  5
6F6
 10
4.59658
 20
0.428148
 30
0.000000
  70
    32
  0
VERTEX
  8
レイヤ__1
  5
6F7
 10
4.58936
 20
0.428269
 30
0.000000
  70
    32
  0
VERTEX
  8
レイヤ__1
  5
6F8
 10
4.58214
 20
0.428444
 30
0.000000
  70
    32
  0
VERTEX
  8
レイヤ__1
  5
6F9
 10
4.57492
 20
0.428671
 30
0.000000
  70
    32
  0
VERTEX
  8
レイヤ__1
  5
6FA
 10
4.56771
 20
0.428952
 30
0.000000
  70
    32
  0
VERTEX
  8
レイヤ__1
  5
6FB
 10
4.56050
 20
0.429286
 30
0.000000
  70
    32
  0
VERTEX
  8
レイヤ__1
  5
6FC
 10
4.55329
 20
0.429674
 30
0.000000
  70
    32
  0
VERTEX
  8
レイヤ__1
  5
6FD
 10
4.54610
 20
0.430115
 30
0.000000
  70
    32
  0
VERTEX
  8
レイヤ__1
  5
6FE
 10
4.53891
 20
0.430611
 30
0.000000
  70
    32
  0
VERTEX
  8
レイヤ__1
  5
6FF
 10
4.53172
 20
0.431160
 30
0.000000
  70
    32
  0
VERTEX
  8
レイヤ__1
  5
700
 10
4.52455
 20
0.431763
 30
0.000000
  70
    32
  0
VERTEX
  8
レイヤ__1
  5
701
 10
4.51738
 20
0.432421
 30
0.000000
  70
    32
  0
VERTEX
  8
レイヤ__1
  5
702
 10
4.51023
 20
0.433133
 30
0.000000
  70
    32
  0
VERTEX
  8
レイヤ__1
  5
703
 10
4.50309
 20
0.433900
 30
0.000000
  70
    32
  0
VERTEX
  8
レイヤ__1
  5
704
 10
4.49596
 20
0.434721
 30
0.000000
  70
    32
  0
VERTEX
  8
レイヤ__1
  5
705
 10
4.48885
 20
0.435596
 30
0.000000
  70
    32
  0
VERTEX
  8
レイヤ__1
  5
706
 10
4.48175
 20
0.436527
 30
0.000000
  70
    32
  0
VERTEX
  8
レイヤ__1
  5
707
 10
4.47466
 20
0.437513
 30
0.000000
  70
    32
  0
VERTEX
  8
レイヤ__1
  5
708
 10
4.46759
 20
0.438554
 30
0.000000
  70
    32
  0
VERTEX
  8
レイヤ__1
  5
709
 10
4.46054
 20
0.439650
 30
0.000000
  70
    32
  0
VERTEX
  8
レイヤ__1
  5
70A
 10
4.45351
 20
0.440801
 30
0.000000
  70
    32
  0
VERTEX
  8
レイヤ__1
  5
70B
 10
4.44650
 20
0.442008
 30
0.000000
  70
    32
  0
VERTEX
  8
レイヤ__1
  5
70C
 10
4.43950
 20
0.443271
 30
0.000000
  70
    32
  0
VERTEX
  8
レイヤ__1
  5
70D
 10
4.43253
 20
0.444589
 30
0.000000
  70
    32
  0
VERTEX
  8
レイヤ__1
  5
70E
 10
4.42558
 20
0.445963
 30
0.000000
  70
    32
  0
VERTEX
  8
レイヤ__1
  5
70F
 10
4.41866
 20
0.447394
 30
0.000000
  70
    32
  0
VERTEX
  8
レイヤ__1
  5
710
 10
4.41175
 20
0.448880
 30
0.000000
  70
    32
  0
VERTEX
  8
レイヤ__1
  5
711
 10
4.40487
 20
0.450423
 30
0.000000
  70
    32
  0
VERTEX
  8
レイヤ__1
  5
712
 10
4.39802
 20
0.452022
 30
0.000000
  70
    32
  0
VERTEX
  8
レイヤ__1
  5
713
 10
4.39120
 20
0.453678
 30
0.000000
  70
    32
  0
VERTEX
  8
レイヤ__1
  5
714
 10
4.38440
 20
0.455390
 30
0.000000
  70
    32
  0
VERTEX
  8
レイヤ__1
  5
715
 10
4.37763
 20
0.457159
 30
0.000000
  70
    32
  0
VERTEX
  8
レイヤ__1
  5
716
 10
4.37089
 20
0.458985
 30
0.000000
  70
    32
  0
VERTEX
  8
レイヤ__1
  5
717
 10
4.36418
 20
0.460868
 30
0.000000
  70
    32
  0
VERTEX
  8
レイヤ__1
  5
718
 10
4.35750
 20
0.462808
 30
0.000000
  70
    32
  0
VERTEX
  8
レイヤ__1
  5
719
 10
4.35085
 20
0.464806
 30
0.000000
  70
    32
  0
VERTEX
  8
レイヤ__1
  5
71A
 10
4.34424
 20
0.466861
 30
0.000000
  70
    32
  0
VERTEX
  8
レイヤ__1
  5
71B
 10
4.33766
 20
0.468973
 30
0.000000
  70
    32
  0
VERTEX
  8
レイヤ__1
  5
71C
 10
4.33112
 20
0.471144
 30
0.000000
  70
    32
  0
VERTEX
  8
レイヤ__1
  5
71D
 10
4.32461
 20
0.473372
 30
0.000000
  70
    32
  0
VERTEX
  8
レイヤ__1
  5
71E
 10
4.31814
 20
0.475658
 30
0.000000
  70
    32
  0
VERTEX
  8
レイヤ__1
  5
71F
 10
4.31170
 20
0.478002
 30
0.000000
  70
    32
  0
VERTEX
  8
レイヤ__1
  5
720
 10
4.30531
 20
0.480404
 30
0.000000
  70
    32
  0
VERTEX
  8
レイヤ__1
  5
721
 10
4.29895
 20
0.482865
 30
0.000000
  70
    32
  0
VERTEX
  8
レイヤ__1
  5
722
 10
4.29264
 20
0.485384
 30
0.000000
  70
    32
  0
VERTEX
  8
レイヤ__1
  5
723
 10
4.28637
 20
0.487962
 30
0.000000
  70
    32
  0
VERTEX
  8
レイヤ__1
  5
724
 10
4.28014
 20
0.490598
 30
0.000000
  70
    32
  0
VERTEX
  8
レイヤ__1
  5
725
 10
4.27395
 20
0.493293
 30
0.000000
  70
    32
  0
VERTEX
  8
レイヤ__1
  5
726
 10
4.26781
 20
0.496047
 30
0.000000
  70
    32
  0
VERTEX
  8
レイヤ__1
  5
727
 10
4.26171
 20
0.498861
 30
0.000000
  70
    32
  0
VERTEX
  8
レイヤ__1
  5
728
 10
4.25566
 20
0.501733
 30
0.000000
  70
    32
  0
VERTEX
  8
レイヤ__1
  5
729
 10
4.24966
 20
0.504665
 30
0.000000
  70
    32
  0
VERTEX
  8
レイヤ__1
  5
72A
 10
4.24370
 20
0.507657
 30
0.000000
  70
    32
  0
VERTEX
  8
レイヤ__1
  5
72B
 10
4.23779
 20
0.510708
 30
0.000000
  70
    32
  0
VERTEX
  8
レイヤ__1
  5
72C
 10
4.23194
 20
0.513818
 30
0.000000
  70
    32
  0
VERTEX
  8
レイヤ__1
  5
72D
 10
4.22613
 20
0.516989
 30
0.000000
  70
    32
  0
VERTEX
  8
レイヤ__1
  5
72E
 10
4.22037
 20
0.520220
 30
0.000000
  70
    32
  0
VERTEX
  8
レイヤ__1
  5
72F
 10
4.21467
 20
0.523510
 30
0.000000
  70
    32
  0
VERTEX
  8
レイヤ__1
  5
730
 10
4.20902
 20
0.526861
 30
0.000000
  70
    32
  0
VERTEX
  8
レイヤ__1
  5
731
 10
4.20343
 20
0.530273
 30
0.000000
  70
    32
  0
VERTEX
  8
レイヤ__1
  5
732
 10
4.19789
 20
0.533745
 30
0.000000
  70
    32
  0
VERTEX
  8
レイヤ__1
  5
733
 10
4.19241
 20
0.537277
 30
0.000000
  70
    32
  0
VERTEX
  8
レイヤ__1
  5
734
 10
4.18699
 20
0.540871
 30
0.000000
  70
    32
  0
VERTEX
  8
レイヤ__1
  5
735
 10
4.18162
 20
0.544525
 30
0.000000
  70
    32
  0
VERTEX
  8
レイヤ__1
  5
736
 10
4.17631
 20
0.548240
 30
0.000000
  70
    32
  0
VERTEX
  8
レイヤ__1
  5
737
 10
4.17106
 20
0.552017
 30
0.000000
  70
    32
  0
VERTEX
  8
レイヤ__1
  5
738
 10
4.16588
 20
0.555854
 30
0.000000
  70
    32
  0
VERTEX
  8
レイヤ__1
  5
739
 10
4.16075
 20
0.559753
 30
0.000000
  70
    32
  0
VERTEX
  8
レイヤ__1
  5
73A
 10
4.15569
 20
0.563714
 30
0.000000
  70
    32
  0
VERTEX
  8
レイヤ__1
  5
73B
 10
4.15070
 20
0.567736
 30
0.000000
  70
    32
  0
VERTEX
  8
レイヤ__1
  5
73C
 10
4.14576
 20
0.571820
 30
0.000000
  70
    32
  0
VERTEX
  8
レイヤ__1
  5
73D
 10
4.14090
 20
0.575966
 30
0.000000
  70
    32
  0
VERTEX
  8
レイヤ__1
  5
73E
 10
4.13610
 20
0.580175
 30
0.000000
  70
    32
  0
VERTEX
  8
レイヤ__1
  5
73F
 10
4.13136
 20
0.584445
 30
0.000000
  70
    32
  0
VERTEX
  8
レイヤ__1
  5
740
 10
4.12670
 20
0.588777
 30
0.000000
  70
    32
  0
VERTEX
  8
レイヤ__1
  5
741
 10
4.12210
 20
0.593173
 30
0.000000
  70
    32
  0
VERTEX
  8
レイヤ__1
  5
742
 10
4.11758
 20
0.597630
 30
0.000000
  70
    32
  0
VERTEX
  8
レイヤ__1
  5
743
 10
4.11313
 20
0.602150
 30
0.000000
  70
    32
  0
VERTEX
  8
レイヤ__1
  5
744
 10
4.10874
 20
0.606734
 30
0.000000
  70
    32
  0
VERTEX
  8
レイヤ__1
  5
745
 10
4.10444
 20
0.611380
 30
0.000000
  70
    32
  0
VERTEX
  8
レイヤ__1
  5
746
 10
4.10020
 20
0.616089
 30
0.000000
  70
    32
  0
VERTEX
  8
レイヤ__1
  5
747
 10
4.09604
 20
0.620861
 30
0.000000
  70
    32
  0
VERTEX
  8
レイヤ__1
  5
748
 10
4.09196
 20
0.625697
 30
0.000000
  70
    32
  0
VERTEX
  8
レイヤ__1
  5
749
 10
4.08795
 20
0.630596
 30
0.000000
  70
    32
  0
VERTEX
  8
レイヤ__1
  5
74A
 10
4.08402
 20
0.635559
 30
0.000000
  70
    32
  0
VERTEX
  8
レイヤ__1
  5
74B
 10
4.08017
 20
0.640585
 30
0.000000
  70
    32
  0
VERTEX
  8
レイヤ__1
  5
74C
 10
4.07640
 20
0.645676
 30
0.000000
  70
    32
  0
VERTEX
  8
レイヤ__1
  5
74D
 10
4.07271
 20
0.650830
 30
0.000000
  70
    32
  0
VERTEX
  8
レイヤ__1
  5
74E
 10
4.06910
 20
0.656049
 30
0.000000
  70
    32
  0
VERTEX
  8
レイヤ__1
  5
74F
 10
4.06558
 20
0.661331
 30
0.000000
  70
    32
  0
VERTEX
  8
レイヤ__1
  5
750
 10
4.06214
 20
0.666678
 30
0.000000
  70
    32
  0
VERTEX
  8
レイヤ__1
  5
751
 10
4.05878
 20
0.672090
 30
0.000000
  70
    32
  0
VERTEX
  8
レイヤ__1
  5
752
 10
4.05550
 20
0.677566
 30
0.000000
  70
    32
  0
VERTEX
  8
レイヤ__1
  5
753
 10
4.05232
 20
0.683107
 30
0.000000
  70
    32
  0
VERTEX
  8
レイヤ__1
  5
754
 10
4.04922
 20
0.688713
 30
0.000000
  70
    32
  0
VERTEX
  8
レイヤ__1
  5
755
 10
4.04620
 20
0.694383
 30
0.000000
  70
    32
  0
VERTEX
  8
レイヤ__1
  5
756
 10
4.04328
 20
0.700119
 30
0.000000
  70
    32
  0
VERTEX
  8
レイヤ__1
  5
757
 10
4.04045
 20
0.705921
 30
0.000000
  70
    32
  0
VERTEX
  8
レイヤ__1
  5
758
 10
4.03770
 20
0.711787
 30
0.000000
  70
    32
  0
VERTEX
  8
レイヤ__1
  5
759
 10
4.03505
 20
0.717719
 30
0.000000
  70
    32
  0
VERTEX
  8
レイヤ__1
  5
75A
 10
4.03249
 20
0.723717
 30
0.000000
  70
    32
  0
VERTEX
  8
レイヤ__1
  5
75B
 10
4.03003
 20
0.729781
 30
0.000000
  70
    32
  0
VERTEX
  8
レイヤ__1
  5
75C
 10
4.02766
 20
0.735910
 30
0.000000
  70
    32
  0
VERTEX
  8
レイヤ__1
  5
75D
 10
4.02538
 20
0.742105
 30
0.000000
  70
    32
  0
VERTEX
  8
レイヤ__1
  5
75E
 10
4.02320
 20
0.748367
 30
0.000000
  70
    32
  0
VERTEX
  8
レイヤ__1
  5
75F
 10
4.02112
 20
0.754695
 30
0.000000
  70
    32
  0
VERTEX
  8
レイヤ__1
  5
760
 10
4.01914
 20
0.761089
 30
0.000000
  70
    32
  0
VERTEX
  8
レイヤ__1
  5
761
 10
4.01725
 20
0.767550
 30
0.000000
  70
    32
  0
VERTEX
  8
レイヤ__1
  5
762
 10
4.01547
 20
0.774078
 30
0.000000
  70
    32
  0
VERTEX
  8
レイヤ__1
  5
763
 10
4.01379
 20
0.780672
 30
0.000000
  70
    32
  0
VERTEX
  8
レイヤ__1
  5
764
 10
4.01221
 20
0.787334
 30
0.000000
  70
    32
  0
VERTEX
  8
レイヤ__1
  5
765
 10
4.01073
 20
0.794062
 30
0.000000
  70
    32
  0
VERTEX
  8
レイヤ__1
  5
766
 10
4.00935
 20
0.800857
 30
0.000000
  70
    32
  0
VERTEX
  8
レイヤ__1
  5
767
 10
4.00808
 20
0.807720
 30
0.000000
  70
    32
  0
VERTEX
  8
レイヤ__1
  5
768
 10
4.00692
 20
0.814651
 30
0.000000
  70
    32
  0
VERTEX
  8
レイヤ__1
  5
769
 10
4.00586
 20
0.821649
 30
0.000000
  70
    32
  0
VERTEX
  8
レイヤ__1
  5
76A
 10
4.00491
 20
0.828714
 30
0.000000
  70
    32
  0
VERTEX
  8
レイヤ__1
  5
76B
 10
4.00406
 20
0.835848
 30
0.000000
  70
    32
  0
VERTEX
  8
レイヤ__1
  5
76C
 10
4.00333
 20
0.843049
 30
0.000000
  70
    32
  0
VERTEX
  8
レイヤ__1
  5
76D
 10
4.00271
 20
0.850318
 30
0.000000
  70
    32
  0
VERTEX
  8
レイヤ__1
  5
76E
 10
4.00220
 20
0.857656
 30
0.000000
  70
    32
  0
VERTEX
  8
レイヤ__1
  5
76F
 10
4.00180
 20
0.865062
 30
0.000000
  70
    32
  0
VERTEX
  8
レイヤ__1
  5
770
 10
4.00151
 20
0.872537
 30
0.000000
  70
    32
  0
VERTEX
  8
レイヤ__1
  5
771
 10
4.00134
 20
0.880080
 30
0.000000
  70
    32
  0
VERTEX
  8
レイヤ__1
  5
772
 10
4.00128
 20
0.887692
 30
0.000000
  70
    32
  0
SEQEND
  8
レイヤ__1
  5
773
  0
POLYLINE
  8
レイヤ__1
  5
774
  62
5
  66
     1
 10
0.000000
 20
0.000000
 30
0.000000
  70
     8
  0
VERTEX
  8
レイヤ__1
  5
775
 10
4.00128
 20
0.887692
 30
0.000000
  70
    32
  0
VERTEX
  8
レイヤ__1
  5
776
 10
4.00128
 20
0.893444
 30
0.000000
  70
    32
  0
VERTEX
  8
レイヤ__1
  5
777
 10
4.00128
 20
0.899128
 30
0.000000
  70
    32
  0
VERTEX
  8
レイヤ__1
  5
778
 10
4.00128
 20
0.904746
 30
0.000000
  70
    32
  0
VERTEX
  8
レイヤ__1
  5
779
 10
4.00128
 20
0.910298
 30
0.000000
  70
    32
  0
VERTEX
  8
レイヤ__1
  5
77A
 10
4.00128
 20
0.915783
 30
0.000000
  70
    32
  0
VERTEX
  8
レイヤ__1
  5
77B
 10
4.00128
 20
0.921203
 30
0.000000
  70
    32
  0
VERTEX
  8
レイヤ__1
  5
77C
 10
4.00128
 20
0.926557
 30
0.000000
  70
    32
  0
VERTEX
  8
レイヤ__1
  5
77D
 10
4.00128
 20
0.931845
 30
0.000000
  70
    32
  0
VERTEX
  8
レイヤ__1
  5
77E
 10
4.00128
 20
0.937069
 30
0.000000
  70
    32
  0
VERTEX
  8
レイヤ__1
  5
77F
 10
4.00128
 20
0.942229
 30
0.000000
  70
    32
  0
VERTEX
  8
レイヤ__1
  5
780
 10
4.00128
 20
0.947325
 30
0.000000
  70
    32
  0
VERTEX
  8
レイヤ__1
  5
781
 10
4.00128
 20
0.952356
 30
0.000000
  70
    32
  0
VERTEX
  8
レイヤ__1
  5
782
 10
4.00128
 20
0.957325
 30
0.000000
  70
    32
  0
VERTEX
  8
レイヤ__1
  5
783
 10
4.00128
 20
0.962230
 30
0.000000
  70
    32
  0
VERTEX
  8
レイヤ__1
  5
784
 10
4.00128
 20
0.967073
 30
0.000000
  70
    32
  0
VERTEX
  8
レイヤ__1
  5
785
 10
4.00128
 20
0.971853
 30
0.000000
  70
    32
  0
VERTEX
  8
レイヤ__1
  5
786
 10
4.00128
 20
0.976571
 30
0.000000
  70
    32
  0
VERTEX
  8
レイヤ__1
  5
787
 10
4.00128
 20
0.981228
 30
0.000000
  70
    32
  0
VERTEX
  8
レイヤ__1
  5
788
 10
4.00128
 20
0.985823
 30
0.000000
  70
    32
  0
VERTEX
  8
レイヤ__1
  5
789
 10
4.00128
 20
0.990357
 30
0.000000
  70
    32
  0
VERTEX
  8
レイヤ__1
  5
78A
 10
4.00128
 20
0.994831
 30
0.000000
  70
    32
  0
VERTEX
  8
レイヤ__1
  5
78B
 10
4.00128
 20
0.999244
 30
0.000000
  70
    32
  0
VERTEX
  8
レイヤ__1
  5
78C
 10
4.00128
 20
1.00360
 30
0.000000
  70
    32
  0
VERTEX
  8
レイヤ__1
  5
78D
 10
4.00128
 20
1.00789
 30
0.000000
  70
    32
  0
VERTEX
  8
レイヤ__1
  5
78E
 10
4.00128
 20
1.01213
 30
0.000000
  70
    32
  0
VERTEX
  8
レイヤ__1
  5
78F
 10
4.00128
 20
1.01630
 30
0.000000
  70
    32
  0
VERTEX
  8
レイヤ__1
  5
790
 10
4.00128
 20
1.02042
 30
0.000000
  70
    32
  0
VERTEX
  8
レイヤ__1
  5
791
 10
4.00128
 20
1.02448
 30
0.000000
  70
    32
  0
VERTEX
  8
レイヤ__1
  5
792
 10
4.00128
 20
1.02848
 30
0.000000
  70
    32
  0
VERTEX
  8
レイヤ__1
  5
793
 10
4.00128
 20
1.03242
 30
0.000000
  70
    32
  0
VERTEX
  8
レイヤ__1
  5
794
 10
4.00128
 20
1.03631
 30
0.000000
  70
    32
  0
VERTEX
  8
レイヤ__1
  5
795
 10
4.00128
 20
1.04014
 30
0.000000
  70
    32
  0
VERTEX
  8
レイヤ__1
  5
796
 10
4.00128
 20
1.04391
 30
0.000000
  70
    32
  0
VERTEX
  8
レイヤ__1
  5
797
 10
4.00128
 20
1.04763
 30
0.000000
  70
    32
  0
VERTEX
  8
レイヤ__1
  5
798
 10
4.00128
 20
1.05129
 30
0.000000
  70
    32
  0
VERTEX
  8
レイヤ__1
  5
799
 10
4.00128
 20
1.05490
 30
0.000000
  70
    32
  0
VERTEX
  8
レイヤ__1
  5
79A
 10
4.00128
 20
1.05845
 30
0.000000
  70
    32
  0
VERTEX
  8
レイヤ__1
  5
79B
 10
4.00128
 20
1.06194
 30
0.000000
  70
    32
  0
VERTEX
  8
レイヤ__1
  5
79C
 10
4.00128
 20
1.06538
 30
0.000000
  70
    32
  0
VERTEX
  8
レイヤ__1
  5
79D
 10
4.00128
 20
1.06877
 30
0.000000
  70
    32
  0
VERTEX
  8
レイヤ__1
  5
79E
 10
4.00128
 20
1.07211
 30
0.000000
  70
    32
  0
VERTEX
  8
レイヤ__1
  5
79F
 10
4.00128
 20
1.07539
 30
0.000000
  70
    32
  0
VERTEX
  8
レイヤ__1
  5
7A0
 10
4.00128
 20
1.07861
 30
0.000000
  70
    32
  0
VERTEX
  8
レイヤ__1
  5
7A1
 10
4.00128
 20
1.08179
 30
0.000000
  70
    32
  0
VERTEX
  8
レイヤ__1
  5
7A2
 10
4.00128
 20
1.08491
 30
0.000000
  70
    32
  0
VERTEX
  8
レイヤ__1
  5
7A3
 10
4.00128
 20
1.08798
 30
0.000000
  70
    32
  0
VERTEX
  8
レイヤ__1
  5
7A4
 10
4.00128
 20
1.09100
 30
0.000000
  70
    32
  0
VERTEX
  8
レイヤ__1
  5
7A5
 10
4.00128
 20
1.09397
 30
0.000000
  70
    32
  0
VERTEX
  8
レイヤ__1
  5
7A6
 10
4.00128
 20
1.09689
 30
0.000000
  70
    32
  0
VERTEX
  8
レイヤ__1
  5
7A7
 10
4.00128
 20
1.09975
 30
0.000000
  70
    32
  0
VERTEX
  8
レイヤ__1
  5
7A8
 10
4.00128
 20
1.10257
 30
0.000000
  70
    32
  0
VERTEX
  8
レイヤ__1
  5
7A9
 10
4.00128
 20
1.10533
 30
0.000000
  70
    32
  0
VERTEX
  8
レイヤ__1
  5
7AA
 10
4.00128
 20
1.10805
 30
0.000000
  70
    32
  0
VERTEX
  8
レイヤ__1
  5
7AB
 10
4.00128
 20
1.11072
 30
0.000000
  70
    32
  0
VERTEX
  8
レイヤ__1
  5
7AC
 10
4.00128
 20
1.11334
 30
0.000000
  70
    32
  0
VERTEX
  8
レイヤ__1
  5
7AD
 10
4.00128
 20
1.11591
 30
0.000000
  70
    32
  0
VERTEX
  8
レイヤ__1
  5
7AE
 10
4.00128
 20
1.11843
 30
0.000000
  70
    32
  0
VERTEX
  8
レイヤ__1
  5
7AF
 10
4.00128
 20
1.12090
 30
0.000000
  70
    32
  0
VERTEX
  8
レイヤ__1
  5
7B0
 10
4.00128
 20
1.12333
 30
0.000000
  70
    32
  0
VERTEX
  8
レイヤ__1
  5
7B1
 10
4.00128
 20
1.12571
 30
0.000000
  70
    32
  0
VERTEX
  8
レイヤ__1
  5
7B2
 10
4.00128
 20
1.12804
 30
0.000000
  70
    32
  0
VERTEX
  8
レイヤ__1
  5
7B3
 10
4.00128
 20
1.13033
 30
0.000000
  70
    32
  0
VERTEX
  8
レイヤ__1
  5
7B4
 10
4.00128
 20
1.13257
 30
0.000000
  70
    32
  0
VERTEX
  8
レイヤ__1
  5
7B5
 10
4.00128
 20
1.13476
 30
0.000000
  70
    32
  0
VERTEX
  8
レイヤ__1
  5
7B6
 10
4.00128
 20
1.13691
 30
0.000000
  70
    32
  0
VERTEX
  8
レイヤ__1
  5
7B7
 10
4.00128
 20
1.13901
 30
0.000000
  70
    32
  0
VERTEX
  8
レイヤ__1
  5
7B8
 10
4.00128
 20
1.14107
 30
0.000000
  70
    32
  0
VERTEX
  8
レイヤ__1
  5
7B9
 10
4.00128
 20
1.14309
 30
0.000000
  70
    32
  0
VERTEX
  8
レイヤ__1
  5
7BA
 10
4.00128
 20
1.14506
 30
0.000000
  70
    32
  0
VERTEX
  8
レイヤ__1
  5
7BB
 10
4.00128
 20
1.14699
 30
0.000000
  70
    32
  0
VERTEX
  8
レイヤ__1
  5
7BC
 10
4.00128
 20
1.14887
 30
0.000000
  70
    32
  0
VERTEX
  8
レイヤ__1
  5
7BD
 10
4.00128
 20
1.15071
 30
0.000000
  70
    32
  0
VERTEX
  8
レイヤ__1
  5
7BE
 10
4.00128
 20
1.15251
 30
0.000000
  70
    32
  0
VERTEX
  8
レイヤ__1
  5
7BF
 10
4.00128
 20
1.15427
 30
0.000000
  70
    32
  0
VERTEX
  8
レイヤ__1
  5
7C0
 10
4.00128
 20
1.15598
 30
0.000000
  70
    32
  0
VERTEX
  8
レイヤ__1
  5
7C1
 10
4.00128
 20
1.15765
 30
0.000000
  70
    32
  0
VERTEX
  8
レイヤ__1
  5
7C2
 10
4.00128
 20
1.15929
 30
0.000000
  70
    32
  0
VERTEX
  8
レイヤ__1
  5
7C3
 10
4.00128
 20
1.16088
 30
0.000000
  70
    32
  0
VERTEX
  8
レイヤ__1
  5
7C4
 10
4.00128
 20
1.16243
 30
0.000000
  70
    32
  0
VERTEX
  8
レイヤ__1
  5
7C5
 10
4.00128
 20
1.16394
 30
0.000000
  70
    32
  0
VERTEX
  8
レイヤ__1
  5
7C6
 10
4.00128
 20
1.16541
 30
0.000000
  70
    32
  0
VERTEX
  8
レイヤ__1
  5
7C7
 10
4.00128
 20
1.16684
 30
0.000000
  70
    32
  0
VERTEX
  8
レイヤ__1
  5
7C8
 10
4.00128
 20
1.16823
 30
0.000000
  70
    32
  0
VERTEX
  8
レイヤ__1
  5
7C9
 10
4.00128
 20
1.16958
 30
0.000000
  70
    32
  0
VERTEX
  8
レイヤ__1
  5
7CA
 10
4.00128
 20
1.17089
 30
0.000000
  70
    32
  0
VERTEX
  8
レイヤ__1
  5
7CB
 10
4.00128
 20
1.17217
 30
0.000000
  70
    32
  0
VERTEX
  8
レイヤ__1
  5
7CC
 10
4.00128
 20
1.17341
 30
0.000000
  70
    32
  0
VERTEX
  8
レイヤ__1
  5
7CD
 10
4.00128
 20
1.17461
 30
0.000000
  70
    32
  0
VERTEX
  8
レイヤ__1
  5
7CE
 10
4.00128
 20
1.17577
 30
0.000000
  70
    32
  0
VERTEX
  8
レイヤ__1
  5
7CF
 10
4.00128
 20
1.17690
 30
0.000000
  70
    32
  0
VERTEX
  8
レイヤ__1
  5
7D0
 10
4.00128
 20
1.17799
 30
0.000000
  70
    32
  0
VERTEX
  8
レイヤ__1
  5
7D1
 10
4.00128
 20
1.17905
 30
0.000000
  70
    32
  0
VERTEX
  8
レイヤ__1
  5
7D2
 10
4.00128
 20
1.18006
 30
0.000000
  70
    32
  0
VERTEX
  8
レイヤ__1
  5
7D3
 10
4.00128
 20
1.18105
 30
0.000000
  70
    32
  0
VERTEX
  8
レイヤ__1
  5
7D4
 10
4.00128
 20
1.18200
 30
0.000000
  70
    32
  0
VERTEX
  8
レイヤ__1
  5
7D5
 10
4.00128
 20
1.18291
 30
0.000000
  70
    32
  0
VERTEX
  8
レイヤ__1
  5
7D6
 10
4.00128
 20
1.18379
 30
0.000000
  70
    32
  0
VERTEX
  8
レイヤ__1
  5
7D7
 10
4.00128
 20
1.18464
 30
0.000000
  70
    32
  0
VERTEX
  8
レイヤ__1
  5
7D8
 10
4.00128
 20
1.18545
 30
0.000000
  70
    32
  0
VERTEX
  8
レイヤ__1
  5
7D9
 10
4.00128
 20
1.18623
 30
0.000000
  70
    32
  0
VERTEX
  8
レイヤ__1
  5
7DA
 10
4.00128
 20
1.18697
 30
0.000000
  70
    32
  0
VERTEX
  8
レイヤ__1
  5
7DB
 10
4.00128
 20
1.18769
 30
0.000000
  70
    32
  0
VERTEX
  8
レイヤ__1
  5
7DC
 10
4.00128
 20
1.18837
 30
0.000000
  70
    32
  0
VERTEX
  8
レイヤ__1
  5
7DD
 10
4.00128
 20
1.18902
 30
0.000000
  70
    32
  0
VERTEX
  8
レイヤ__1
  5
7DE
 10
4.00128
 20
1.18963
 30
0.000000
  70
    32
  0
VERTEX
  8
レイヤ__1
  5
7DF
 10
4.00128
 20
1.19022
 30
0.000000
  70
    32
  0
VERTEX
  8
レイヤ__1
  5
7E0
 10
4.00128
 20
1.19078
 30
0.000000
  70
    32
  0
VERTEX
  8
レイヤ__1
  5
7E1
 10
4.00128
 20
1.19130
 30
0.000000
  70
    32
  0
VERTEX
  8
レイヤ__1
  5
7E2
 10
4.00128
 20
1.19180
 30
0.000000
  70
    32
  0
VERTEX
  8
レイヤ__1
  5
7E3
 10
4.00128
 20
1.19226
 30
0.000000
  70
    32
  0
VERTEX
  8
レイヤ__1
  5
7E4
 10
4.00128
 20
1.19270
 30
0.000000
  70
    32
  0
VERTEX
  8
レイヤ__1
  5
7E5
 10
4.00128
 20
1.19311
 30
0.000000
  70
    32
  0
VERTEX
  8
レイヤ__1
  5
7E6
 10
4.00128
 20
1.19348
 30
0.000000
  70
    32
  0
VERTEX
  8
レイヤ__1
  5
7E7
 10
4.00128
 20
1.19383
 30
0.000000
  70
    32
  0
VERTEX
  8
レイヤ__1
  5
7E8
 10
4.00128
 20
1.19415
 30
0.000000
  70
    32
  0
VERTEX
  8
レイヤ__1
  5
7E9
 10
4.00128
 20
1.19445
 30
0.000000
  70
    32
  0
VERTEX
  8
レイヤ__1
  5
7EA
 10
4.00128
 20
1.19472
 30
0.000000
  70
    32
  0
VERTEX
  8
レイヤ__1
  5
7EB
 10
4.00128
 20
1.19495
 30
0.000000
  70
    32
  0
VERTEX
  8
レイヤ__1
  5
7EC
 10
4.00128
 20
1.19517
 30
0.000000
  70
    32
  0
VERTEX
  8
レイヤ__1
  5
7ED
 10
4.00128
 20
1.19535
 30
0.000000
  70
    32
  0
VERTEX
  8
レイヤ__1
  5
7EE
 10
4.00128
 20
1.19551
 30
0.000000
  70
    32
  0
VERTEX
  8
レイヤ__1
  5
7EF
 10
4.00128
 20
1.19565
 30
0.000000
  70
    32
  0
VERTEX
  8
レイヤ__1
  5
7F0
 10
4.00128
 20
1.19576
 30
0.000000
  70
    32
  0
VERTEX
  8
レイヤ__1
  5
7F1
 10
4.00128
 20
1.19584
 30
0.000000
  70
    32
  0
VERTEX
  8
レイヤ__1
  5
7F2
 10
4.00128
 20
1.19590
 30
0.000000
  70
    32
  0
VERTEX
  8
レイヤ__1
  5
7F3
 10
4.00128
 20
1.19594
 30
0.000000
  70
    32
  0
VERTEX
  8
レイヤ__1
  5
7F4
 10
4.00128
 20
1.19595
 30
0.000000
  70
    32
  0
SEQEND
  8
レイヤ__1
  5
7F5
  0
POLYLINE
  8
レイヤ__1
  5
7F6
  62
5
  66
     1
 10
0.000000
 20
0.000000
 30
0.000000
  70
     8
  0
VERTEX
  8
レイヤ__1
  5
7F7
 10
10.2174
 20
3.16638
 30
0.000000
  70
    32
  0
VERTEX
  8
レイヤ__1
  5
7F8
 10
10.2304
 20
3.16619
 30
0.000000
  70
    32
  0
VERTEX
  8
レイヤ__1
  5
7F9
 10
10.2432
 20
3.16562
 30
0.000000
  70
    32
  0
VERTEX
  8
レイヤ__1
  5
7FA
 10
10.2557
 20
3.16467
 30
0.000000
  70
    32
  0
VERTEX
  8
レイヤ__1
  5
7FB
 10
10.2681
 20
3.16335
 30
0.000000
  70
    32
  0
VERTEX
  8
レイヤ__1
  5
7FC
 10
10.2802
 20
3.16168
 30
0.000000
  70
    32
  0
VERTEX
  8
レイヤ__1
  5
7FD
 10
10.2921
 20
3.15964
 30
0.000000
  70
    32
  0
VERTEX
  8
レイヤ__1
  5
7FE
 10
10.3038
 20
3.15726
 30
0.000000
  70
    32
  0
VERTEX
  8
レイヤ__1
  5
7FF
 10
10.3152
 20
3.15453
 30
0.000000
  70
    32
  0
VERTEX
  8
レイヤ__1
  5
800
 10
10.3265
 20
3.15146
 30
0.000000
  70
    32
  0
VERTEX
  8
レイヤ__1
  5
801
 10
10.3375
 20
3.14806
 30
0.000000
  70
    32
  0
VERTEX
  8
レイヤ__1
  5
802
 10
10.3483
 20
3.14434
 30
0.000000
  70
    32
  0
VERTEX
  8
レイヤ__1
  5
803
 10
10.3589
 20
3.14029
 30
0.000000
  70
    32
  0
VERTEX
  8
レイヤ__1
  5
804
 10
10.3692
 20
3.13593
 30
0.000000
  70
    32
  0
VERTEX
  8
レイヤ__1
  5
805
 10
10.3794
 20
3.13127
 30
0.000000
  70
    32
  0
VERTEX
  8
レイヤ__1
  5
806
 10
10.3893
 20
3.12630
 30
0.000000
  70
    32
  0
VERTEX
  8
レイヤ__1
  5
807
 10
10.3990
 20
3.12104
 30
0.000000
  70
    32
  0
VERTEX
  8
レイヤ__1
  5
808
 10
10.4084
 20
3.11549
 30
0.000000
  70
    32
  0
VERTEX
  8
レイヤ__1
  5
809
 10
10.4177
 20
3.10965
 30
0.000000
  70
    32
  0
VERTEX
  8
レイヤ__1
  5
80A
 10
10.4267
 20
3.10354
 30
0.000000
  70
    32
  0
VERTEX
  8
レイヤ__1
  5
80B
 10
10.4355
 20
3.09716
 30
0.000000
  70
    32
  0
VERTEX
  8
レイヤ__1
  5
80C
 10
10.4441
 20
3.09051
 30
0.000000
  70
    32
  0
VERTEX
  8
レイヤ__1
  5
80D
 10
10.4525
 20
3.08360
 30
0.000000
  70
    32
  0
VERTEX
  8
レイヤ__1
  5
80E
 10
10.4606
 20
3.07644
 30
0.000000
  70
    32
  0
VERTEX
  8
レイヤ__1
  5
80F
 10
10.4685
 20
3.06903
 30
0.000000
  70
    32
  0
VERTEX
  8
レイヤ__1
  5
810
 10
10.4762
 20
3.06139
 30
0.000000
  70
    32
  0
VERTEX
  8
レイヤ__1
  5
811
 10
10.4836
 20
3.05351
 30
0.000000
  70
    32
  0
VERTEX
  8
レイヤ__1
  5
812
 10
10.4909
 20
3.04540
 30
0.000000
  70
    32
  0
VERTEX
  8
レイヤ__1
  5
813
 10
10.4979
 20
3.03706
 30
0.000000
  70
    32
  0
VERTEX
  8
レイヤ__1
  5
814
 10
10.5047
 20
3.02852
 30
0.000000
  70
    32
  0
VERTEX
  8
レイヤ__1
  5
815
 10
10.5112
 20
3.01976
 30
0.000000
  70
    32
  0
VERTEX
  8
レイヤ__1
  5
816
 10
10.5176
 20
3.01079
 30
0.000000
  70
    32
  0
VERTEX
  8
レイヤ__1
  5
817
 10
10.5237
 20
3.00163
 30
0.000000
  70
    32
  0
VERTEX
  8
レイヤ__1
  5
818
 10
10.5296
 20
2.99228
 30
0.000000
  70
    32
  0
VERTEX
  8
レイヤ__1
  5
819
 10
10.5352
 20
2.98274
 30
0.000000
  70
    32
  0
VERTEX
  8
レイヤ__1
  5
81A
 10
10.5406
 20
2.97303
 30
0.000000
  70
    32
  0
VERTEX
  8
レイヤ__1
  5
81B
 10
10.5458
 20
2.96313
 30
0.000000
  70
    32
  0
VERTEX
  8
レイヤ__1
  5
81C
 10
10.5508
 20
2.95308
 30
0.000000
  70
    32
  0
VERTEX
  8
レイヤ__1
  5
81D
 10
10.5556
 20
2.94286
 30
0.000000
  70
    32
  0
VERTEX
  8
レイヤ__1
  5
81E
 10
10.5601
 20
2.93248
 30
0.000000
  70
    32
  0
VERTEX
  8
レイヤ__1
  5
81F
 10
10.5644
 20
2.92196
 30
0.000000
  70
    32
  0
VERTEX
  8
レイヤ__1
  5
820
 10
10.5684
 20
2.91129
 30
0.000000
  70
    32
  0
VERTEX
  8
レイヤ__1
  5
821
 10
10.5723
 20
2.90048
 30
0.000000
  70
    32
  0
VERTEX
  8
レイヤ__1
  5
822
 10
10.5759
 20
2.88955
 30
0.000000
  70
    32
  0
VERTEX
  8
レイヤ__1
  5
823
 10
10.5792
 20
2.87849
 30
0.000000
  70
    32
  0
VERTEX
  8
レイヤ__1
  5
824
 10
10.5824
 20
2.86731
 30
0.000000
  70
    32
  0
VERTEX
  8
レイヤ__1
  5
825
 10
10.5853
 20
2.85601
 30
0.000000
  70
    32
  0
VERTEX
  8
レイヤ__1
  5
826
 10
10.5880
 20
2.84462
 30
0.000000
  70
    32
  0
VERTEX
  8
レイヤ__1
  5
827
 10
10.5904
 20
2.83312
 30
0.000000
  70
    32
  0
VERTEX
  8
レイヤ__1
  5
828
 10
10.5926
 20
2.82152
 30
0.000000
  70
    32
  0
VERTEX
  8
レイヤ__1
  5
829
 10
10.5946
 20
2.80984
 30
0.000000
  70
    32
  0
VERTEX
  8
レイヤ__1
  5
82A
 10
10.5964
 20
2.79808
 30
0.000000
  70
    32
  0
VERTEX
  8
レイヤ__1
  5
82B
 10
10.5979
 20
2.78624
 30
0.000000
  70
    32
  0
VERTEX
  8
レイヤ__1
  5
82C
 10
10.5992
 20
2.77433
 30
0.000000
  70
    32
  0
VERTEX
  8
レイヤ__1
  5
82D
 10
10.6003
 20
2.76235
 30
0.000000
  70
    32
  0
VERTEX
  8
レイヤ__1
  5
82E
 10
10.6011
 20
2.75032
 30
0.000000
  70
    32
  0
VERTEX
  8
レイヤ__1
  5
82F
 10
10.6017
 20
2.73824
 30
0.000000
  70
    32
  0
VERTEX
  8
レイヤ__1
  5
830
 10
10.6021
 20
2.72611
 30
0.000000
  70
    32
  0
VERTEX
  8
レイヤ__1
  5
831
 10
10.6022
 20
2.71394
 30
0.000000
  70
    32
  0
VERTEX
  8
レイヤ__1
  5
832
 10
10.6021
 20
2.70174
 30
0.000000
  70
    32
  0
VERTEX
  8
レイヤ__1
  5
833
 10
10.6018
 20
2.68951
 30
0.000000
  70
    32
  0
VERTEX
  8
レイヤ__1
  5
834
 10
10.6012
 20
2.67725
 30
0.000000
  70
    32
  0
VERTEX
  8
レイヤ__1
  5
835
 10
10.6004
 20
2.66499
 30
0.000000
  70
    32
  0
VERTEX
  8
レイヤ__1
  5
836
 10
10.5993
 20
2.65271
 30
0.000000
  70
    32
  0
VERTEX
  8
レイヤ__1
  5
837
 10
10.5981
 20
2.64043
 30
0.000000
  70
    32
  0
VERTEX
  8
レイヤ__1
  5
838
 10
10.5966
 20
2.62816
 30
0.000000
  70
    32
  0
VERTEX
  8
レイヤ__1
  5
839
 10
10.5948
 20
2.61589
 30
0.000000
  70
    32
  0
VERTEX
  8
レイヤ__1
  5
83A
 10
10.5928
 20
2.60364
 30
0.000000
  70
    32
  0
VERTEX
  8
レイヤ__1
  5
83B
 10
10.5906
 20
2.59141
 30
0.000000
  70
    32
  0
VERTEX
  8
レイヤ__1
  5
83C
 10
10.5882
 20
2.57921
 30
0.000000
  70
    32
  0
VERTEX
  8
レイヤ__1
  5
83D
 10
10.5855
 20
2.56704
 30
0.000000
  70
    32
  0
VERTEX
  8
レイヤ__1
  5
83E
 10
10.5825
 20
2.55491
 30
0.000000
  70
    32
  0
VERTEX
  8
レイヤ__1
  5
83F
 10
10.5794
 20
2.54283
 30
0.000000
  70
    32
  0
VERTEX
  8
レイヤ__1
  5
840
 10
10.5760
 20
2.53079
 30
0.000000
  70
    32
  0
VERTEX
  8
レイヤ__1
  5
841
 10
10.5723
 20
2.51882
 30
0.000000
  70
    32
  0
VERTEX
  8
レイヤ__1
  5
842
 10
10.5684
 20
2.50691
 30
0.000000
  70
    32
  0
VERTEX
  8
レイヤ__1
  5
843
 10
10.5643
 20
2.49507
 30
0.000000
  70
    32
  0
VERTEX
  8
レイヤ__1
  5
844
 10
10.5600
 20
2.48330
 30
0.000000
  70
    32
  0
VERTEX
  8
レイヤ__1
  5
845
 10
10.5554
 20
2.47162
 30
0.000000
  70
    32
  0
VERTEX
  8
レイヤ__1
  5
846
 10
10.5505
 20
2.46003
 30
0.000000
  70
    32
  0
VERTEX
  8
レイヤ__1
  5
847
 10
10.5455
 20
2.44853
 30
0.000000
  70
    32
  0
VERTEX
  8
レイヤ__1
  5
848
 10
10.5401
 20
2.43713
 30
0.000000
  70
    32
  0
VERTEX
  8
レイヤ__1
  5
849
 10
10.5346
 20
2.42584
 30
0.000000
  70
    32
  0
VERTEX
  8
レイヤ__1
  5
84A
 10
10.5288
 20
2.41466
 30
0.000000
  70
    32
  0
VERTEX
  8
レイヤ__1
  5
84B
 10
10.5228
 20
2.40360
 30
0.000000
  70
    32
  0
VERTEX
  8
レイヤ__1
  5
84C
 10
10.5165
 20
2.39266
 30
0.000000
  70
    32
  0
VERTEX
  8
レイヤ__1
  5
84D
 10
10.5100
 20
2.38186
 30
0.000000
  70
    32
  0
VERTEX
  8
レイヤ__1
  5
84E
 10
10.5032
 20
2.37119
 30
0.000000
  70
    32
  0
VERTEX
  8
レイヤ__1
  5
84F
 10
10.4962
 20
2.36067
 30
0.000000
  70
    32
  0
VERTEX
  8
レイヤ__1
  5
850
 10
10.4890
 20
2.35029
 30
0.000000
  70
    32
  0
VERTEX
  8
レイヤ__1
  5
851
 10
10.4815
 20
2.34007
 30
0.000000
  70
    32
  0
VERTEX
  8
レイヤ__1
  5
852
 10
10.4737
 20
2.33001
 30
0.000000
  70
    32
  0
VERTEX
  8
レイヤ__1
  5
853
 10
10.4658
 20
2.32012
 30
0.000000
  70
    32
  0
VERTEX
  8
レイヤ__1
  5
854
 10
10.4576
 20
2.31040
 30
0.000000
  70
    32
  0
VERTEX
  8
レイヤ__1
  5
855
 10
10.4491
 20
2.30086
 30
0.000000
  70
    32
  0
VERTEX
  8
レイヤ__1
  5
856
 10
10.4404
 20
2.29151
 30
0.000000
  70
    32
  0
VERTEX
  8
レイヤ__1
  5
857
 10
10.4315
 20
2.28235
 30
0.000000
  70
    32
  0
VERTEX
  8
レイヤ__1
  5
858
 10
10.4223
 20
2.27339
 30
0.000000
  70
    32
  0
VERTEX
  8
レイヤ__1
  5
859
 10
10.4128
 20
2.26463
 30
0.000000
  70
    32
  0
VERTEX
  8
レイヤ__1
  5
85A
 10
10.4031
 20
2.25608
 30
0.000000
  70
    32
  0
VERTEX
  8
レイヤ__1
  5
85B
 10
10.3932
 20
2.24775
 30
0.000000
  70
    32
  0
VERTEX
  8
レイヤ__1
  5
85C
 10
10.3831
 20
2.23964
 30
0.000000
  70
    32
  0
VERTEX
  8
レイヤ__1
  5
85D
 10
10.3726
 20
2.23176
 30
0.000000
  70
    32
  0
VERTEX
  8
レイヤ__1
  5
85E
 10
10.3620
 20
2.22411
 30
0.000000
  70
    32
  0
VERTEX
  8
レイヤ__1
  5
85F
 10
10.3511
 20
2.21671
 30
0.000000
  70
    32
  0
VERTEX
  8
レイヤ__1
  5
860
 10
10.3399
 20
2.20955
 30
0.000000
  70
    32
  0
VERTEX
  8
レイヤ__1
  5
861
 10
10.3285
 20
2.20264
 30
0.000000
  70
    32
  0
VERTEX
  8
レイヤ__1
  5
862
 10
10.3169
 20
2.19599
 30
0.000000
  70
    32
  0
VERTEX
  8
レイヤ__1
  5
863
 10
10.3050
 20
2.18961
 30
0.000000
  70
    32
  0
VERTEX
  8
レイヤ__1
  5
864
 10
10.2928
 20
2.18350
 30
0.000000
  70
    32
  0
VERTEX
  8
レイヤ__1
  5
865
 10
10.2804
 20
2.17766
 30
0.000000
  70
    32
  0
VERTEX
  8
レイヤ__1
  5
866
 10
10.2678
 20
2.17211
 30
0.000000
  70
    32
  0
VERTEX
  8
レイヤ__1
  5
867
 10
10.2549
 20
2.16685
 30
0.000000
  70
    32
  0
VERTEX
  8
レイヤ__1
  5
868
 10
10.2418
 20
2.16188
 30
0.000000
  70
    32
  0
VERTEX
  8
レイヤ__1
  5
869
 10
10.2284
 20
2.15721
 30
0.000000
  70
    32
  0
VERTEX
  8
レイヤ__1
  5
86A
 10
10.2148
 20
2.15285
 30
0.000000
  70
    32
  0
VERTEX
  8
レイヤ__1
  5
86B
 10
10.2009
 20
2.14881
 30
0.000000
  70
    32
  0
VERTEX
  8
レイヤ__1
  5
86C
 10
10.1867
 20
2.14509
 30
0.000000
  70
    32
  0
VERTEX
  8
レイヤ__1
  5
86D
 10
10.1724
 20
2.14169
 30
0.000000
  70
    32
  0
VERTEX
  8
レイヤ__1
  5
86E
 10
10.1577
 20
2.13862
 30
0.000000
  70
    32
  0
VERTEX
  8
レイヤ__1
  5
86F
 10
10.1428
 20
2.13589
 30
0.000000
  70
    32
  0
VERTEX
  8
レイヤ__1
  5
870
 10
10.1277
 20
2.13351
 30
0.000000
  70
    32
  0
VERTEX
  8
レイヤ__1
  5
871
 10
10.1123
 20
2.13147
 30
0.000000
  70
    32
  0
VERTEX
  8
レイヤ__1
  5
872
 10
10.0967
 20
2.12979
 30
0.000000
  70
    32
  0
VERTEX
  8
レイヤ__1
  5
873
 10
10.0808
 20
2.12848
 30
0.000000
  70
    32
  0
VERTEX
  8
レイヤ__1
  5
874
 10
10.0646
 20
2.12753
 30
0.000000
  70
    32
  0
VERTEX
  8
レイヤ__1
  5
875
 10
10.0482
 20
2.12696
 30
0.000000
  70
    32
  0
VERTEX
  8
レイヤ__1
  5
876
 10
10.0316
 20
2.12676
 30
0.000000
  70
    32
  0
SEQEND
  8
レイヤ__1
  5
877
  0
POLYLINE
  8
レイヤ__1
  5
878
  62
5
  66
     1
 10
0.000000
 20
0.000000
 30
0.000000
  70
     8
  0
VERTEX
  8
レイヤ__1
  5
879
 10
15.8399
 20
1.14764
 30
0.000000
  70
    32
  0
VERTEX
  8
レイヤ__1
  5
87A
 10
15.8384
 20
1.13910
 30
0.000000
  70
    32
  0
VERTEX
  8
レイヤ__1
  5
87B
 10
15.8367
 20
1.13058
 30
0.000000
  70
    32
  0
VERTEX
  8
レイヤ__1
  5
87C
 10
15.8348
 20
1.12210
 30
0.000000
  70
    32
  0
VERTEX
  8
レイヤ__1
  5
87D
 10
15.8328
 20
1.11365
 30
0.000000
  70
    32
  0
VERTEX
  8
レイヤ__1
  5
87E
 10
15.8307
 20
1.10523
 30
0.000000
  70
    32
  0
VERTEX
  8
レイヤ__1
  5
87F
 10
15.8284
 20
1.09685
 30
0.000000
  70
    32
  0
VERTEX
  8
レイヤ__1
  5
880
 10
15.8259
 20
1.08850
 30
0.000000
  70
    32
  0
VERTEX
  8
レイヤ__1
  5
881
 10
15.8232
 20
1.08019
 30
0.000000
  70
    32
  0
VERTEX
  8
レイヤ__1
  5
882
 10
15.8205
 20
1.07191
 30
0.000000
  70
    32
  0
VERTEX
  8
レイヤ__1
  5
883
 10
15.8175
 20
1.06367
 30
0.000000
  70
    32
  0
VERTEX
  8
レイヤ__1
  5
884
 10
15.8144
 20
1.05547
 30
0.000000
  70
    32
  0
VERTEX
  8
レイヤ__1
  5
885
 10
15.8112
 20
1.04731
 30
0.000000
  70
    32
  0
VERTEX
  8
レイヤ__1
  5
886
 10
15.8078
 20
1.03918
 30
0.000000
  70
    32
  0
VERTEX
  8
レイヤ__1
  5
887
 10
15.8043
 20
1.03109
 30
0.000000
  70
    32
  0
VERTEX
  8
レイヤ__1
  5
888
 10
15.8006
 20
1.02304
 30
0.000000
  70
    32
  0
VERTEX
  8
レイヤ__1
  5
889
 10
15.7968
 20
1.01503
 30
0.000000
  70
    32
  0
VERTEX
  8
レイヤ__1
  5
88A
 10
15.7929
 20
1.00706
 30
0.000000
  70
    32
  0
VERTEX
  8
レイヤ__1
  5
88B
 10
15.7888
 20
0.999137
 30
0.000000
  70
    32
  0
VERTEX
  8
レイヤ__1
  5
88C
 10
15.7845
 20
0.991252
 30
0.000000
  70
    32
  0
VERTEX
  8
レイヤ__1
  5
88D
 10
15.7802
 20
0.983408
 30
0.000000
  70
    32
  0
VERTEX
  8
レイヤ__1
  5
88E
 10
15.7757
 20
0.975608
 30
0.000000
  70
    32
  0
VERTEX
  8
レイヤ__1
  5
88F
 10
15.7711
 20
0.967850
 30
0.000000
  70
    32
  0
VERTEX
  8
レイヤ__1
  5
890
 10
15.7663
 20
0.960137
 30
0.000000
  70
    32
  0
VERTEX
  8
レイヤ__1
  5
891
 10
15.7614
 20
0.952468
 30
0.000000
  70
    32
  0
VERTEX
  8
レイヤ__1
  5
892
 10
15.7564
 20
0.944844
 30
0.000000
  70
    32
  0
VERTEX
  8
レイヤ__1
  5
893
 10
15.7512
 20
0.937265
 30
0.000000
  70
    32
  0
VERTEX
  8
レイヤ__1
  5
894
 10
15.7460
 20
0.929733
 30
0.000000
  70
    32
  0
VERTEX
  8
レイヤ__1
  5
895
 10
15.7406
 20
0.922247
 30
0.000000
  70
    32
  0
VERTEX
  8
レイヤ__1
  5
896
 10
15.7351
 20
0.914809
 30
0.000000
  70
    32
  0
VERTEX
  8
レイヤ__1
  5
897
 10
15.7295
 20
0.907419
 30
0.000000
  70
    32
  0
VERTEX
  8
レイヤ__1
  5
898
 10
15.7237
 20
0.900077
 30
0.000000
  70
    32
  0
VERTEX
  8
レイヤ__1
  5
899
 10
15.7178
 20
0.892783
 30
0.000000
  70
    32
  0
VERTEX
  8
レイヤ__1
  5
89A
 10
15.7119
 20
0.885540
 30
0.000000
  70
    32
  0
VERTEX
  8
レイヤ__1
  5
89B
 10
15.7058
 20
0.878347
 30
0.000000
  70
    32
  0
VERTEX
  8
レイヤ__1
  5
89C
 10
15.6996
 20
0.871204
 30
0.000000
  70
    32
  0
VERTEX
  8
レイヤ__1
  5
89D
 10
15.6933
 20
0.864113
 30
0.000000
  70
    32
  0
VERTEX
  8
レイヤ__1
  5
89E
 10
15.6869
 20
0.857073
 30
0.000000
  70
    32
  0
VERTEX
  8
レイヤ__1
  5
89F
 10
15.6803
 20
0.850086
 30
0.000000
  70
    32
  0
VERTEX
  8
レイヤ__1
  5
8A0
 10
15.6737
 20
0.843152
 30
0.000000
  70
    32
  0
VERTEX
  8
レイヤ__1
  5
8A1
 10
15.6670
 20
0.836271
 30
0.000000
  70
    32
  0
VERTEX
  8
レイヤ__1
  5
8A2
 10
15.6601
 20
0.829444
 30
0.000000
  70
    32
  0
VERTEX
  8
レイヤ__1
  5
8A3
 10
15.6532
 20
0.822672
 30
0.000000
  70
    32
  0
VERTEX
  8
レイヤ__1
  5
8A4
 10
15.6462
 20
0.815956
 30
0.000000
  70
    32
  0
VERTEX
  8
レイヤ__1
  5
8A5
 10
15.6391
 20
0.809295
 30
0.000000
  70
    32
  0
VERTEX
  8
レイヤ__1
  5
8A6
 10
15.6318
 20
0.802690
 30
0.000000
  70
    32
  0
VERTEX
  8
レイヤ__1
  5
8A7
 10
15.6245
 20
0.796143
 30
0.000000
  70
    32
  0
VERTEX
  8
レイヤ__1
  5
8A8
 10
15.6171
 20
0.789653
 30
0.000000
  70
    32
  0
VERTEX
  8
レイヤ__1
  5
8A9
 10
15.6096
 20
0.783220
 30
0.000000
  70
    32
  0
VERTEX
  8
レイヤ__1
  5
8AA
 10
15.6020
 20
0.776847
 30
0.000000
  70
    32
  0
VERTEX
  8
レイヤ__1
  5
8AB
 10
15.5944
 20
0.770533
 30
0.000000
  70
    32
  0
VERTEX
  8
レイヤ__1
  5
8AC
 10
15.5866
 20
0.764278
 30
0.000000
  70
    32
  0
VERTEX
  8
レイヤ__1
  5
8AD
 10
15.5788
 20
0.758084
 30
0.000000
  70
    32
  0
VERTEX
  8
レイヤ__1
  5
8AE
 10
15.5709
 20
0.751951
 30
0.000000
  70
    32
  0
VERTEX
  8
レイヤ__1
  5
8AF
 10
15.5629
 20
0.745879
 30
0.000000
  70
    32
  0
VERTEX
  8
レイヤ__1
  5
8B0
 10
15.5548
 20
0.739870
 30
0.000000
  70
    32
  0
VERTEX
  8
レイヤ__1
  5
8B1
 10
15.5466
 20
0.733923
 30
0.000000
  70
    32
  0
VERTEX
  8
レイヤ__1
  5
8B2
 10
15.5384
 20
0.728039
 30
0.000000
  70
    32
  0
VERTEX
  8
レイヤ__1
  5
8B3
 10
15.5301
 20
0.722219
 30
0.000000
  70
    32
  0
VERTEX
  8
レイヤ__1
  5
8B4
 10
15.5217
 20
0.716463
 30
0.000000
  70
    32
  0
VERTEX
  8
レイヤ__1
  5
8B5
 10
15.5133
 20
0.710772
 30
0.000000
  70
    32
  0
VERTEX
  8
レイヤ__1
  5
8B6
 10
15.5048
 20
0.705146
 30
0.000000
  70
    32
  0
VERTEX
  8
レイヤ__1
  5
8B7
 10
15.4962
 20
0.699587
 30
0.000000
  70
    32
  0
VERTEX
  8
レイヤ__1
  5
8B8
 10
15.4875
 20
0.694094
 30
0.000000
  70
    32
  0
VERTEX
  8
レイヤ__1
  5
8B9
 10
15.4788
 20
0.688668
 30
0.000000
  70
    32
  0
VERTEX
  8
レイヤ__1
  5
8BA
 10
15.4701
 20
0.683310
 30
0.000000
  70
    32
  0
VERTEX
  8
レイヤ__1
  5
8BB
 10
15.4612
 20
0.678020
 30
0.000000
  70
    32
  0
VERTEX
  8
レイヤ__1
  5
8BC
 10
15.4523
 20
0.672799
 30
0.000000
  70
    32
  0
VERTEX
  8
レイヤ__1
  5
8BD
 10
15.4434
 20
0.667648
 30
0.000000
  70
    32
  0
VERTEX
  8
レイヤ__1
  5
8BE
 10
15.4344
 20
0.662566
 30
0.000000
  70
    32
  0
VERTEX
  8
レイヤ__1
  5
8BF
 10
15.4253
 20
0.657555
 30
0.000000
  70
    32
  0
VERTEX
  8
レイヤ__1
  5
8C0
 10
15.4162
 20
0.652615
 30
0.000000
  70
    32
  0
VERTEX
  8
レイヤ__1
  5
8C1
 10
15.4071
 20
0.647747
 30
0.000000
  70
    32
  0
VERTEX
  8
レイヤ__1
  5
8C2
 10
15.3978
 20
0.642951
 30
0.000000
  70
    32
  0
VERTEX
  8
レイヤ__1
  5
8C3
 10
15.3886
 20
0.638228
 30
0.000000
  70
    32
  0
VERTEX
  8
レイヤ__1
  5
8C4
 10
15.3793
 20
0.633578
 30
0.000000
  70
    32
  0
VERTEX
  8
レイヤ__1
  5
8C5
 10
15.3699
 20
0.629003
 30
0.000000
  70
    32
  0
VERTEX
  8
レイヤ__1
  5
8C6
 10
15.3605
 20
0.624501
 30
0.000000
  70
    32
  0
VERTEX
  8
レイヤ__1
  5
8C7
 10
15.3511
 20
0.620075
 30
0.000000
  70
    32
  0
VERTEX
  8
レイヤ__1
  5
8C8
 10
15.3416
 20
0.615725
 30
0.000000
  70
    32
  0
VERTEX
  8
レイヤ__1
  5
8C9
 10
15.3321
 20
0.611450
 30
0.000000
  70
    32
  0
VERTEX
  8
レイヤ__1
  5
8CA
 10
15.3226
 20
0.607253
 30
0.000000
  70
    32
  0
VERTEX
  8
レイヤ__1
  5
8CB
 10
15.3130
 20
0.603133
 30
0.000000
  70
    32
  0
VERTEX
  8
レイヤ__1
  5
8CC
 10
15.3034
 20
0.599091
 30
0.000000
  70
    32
  0
VERTEX
  8
レイヤ__1
  5
8CD
 10
15.2938
 20
0.595127
 30
0.000000
  70
    32
  0
VERTEX
  8
レイヤ__1
  5
8CE
 10
15.2841
 20
0.591242
 30
0.000000
  70
    32
  0
VERTEX
  8
レイヤ__1
  5
8CF
 10
15.2744
 20
0.587437
 30
0.000000
  70
    32
  0
VERTEX
  8
レイヤ__1
  5
8D0
 10
15.2647
 20
0.583712
 30
0.000000
  70
    32
  0
VERTEX
  8
レイヤ__1
  5
8D1
 10
15.2549
 20
0.580068
 30
0.000000
  70
    32
  0
VERTEX
  8
レイヤ__1
  5
8D2
 10
15.2451
 20
0.576506
 30
0.000000
  70
    32
  0
VERTEX
  8
レイヤ__1
  5
8D3
 10
15.2353
 20
0.573025
 30
0.000000
  70
    32
  0
VERTEX
  8
レイヤ__1
  5
8D4
 10
15.2255
 20
0.569627
 30
0.000000
  70
    32
  0
VERTEX
  8
レイヤ__1
  5
8D5
 10
15.2157
 20
0.566311
 30
0.000000
  70
    32
  0
VERTEX
  8
レイヤ__1
  5
8D6
 10
15.2058
 20
0.563080
 30
0.000000
  70
    32
  0
VERTEX
  8
レイヤ__1
  5
8D7
 10
15.1960
 20
0.559932
 30
0.000000
  70
    32
  0
VERTEX
  8
レイヤ__1
  5
8D8
 10
15.1861
 20
0.556869
 30
0.000000
  70
    32
  0
VERTEX
  8
レイヤ__1
  5
8D9
 10
15.1762
 20
0.553892
 30
0.000000
  70
    32
  0
VERTEX
  8
レイヤ__1
  5
8DA
 10
15.1663
 20
0.551000
 30
0.000000
  70
    32
  0
VERTEX
  8
レイヤ__1
  5
8DB
 10
15.1564
 20
0.548195
 30
0.000000
  70
    32
  0
VERTEX
  8
レイヤ__1
  5
8DC
 10
15.1465
 20
0.545477
 30
0.000000
  70
    32
  0
VERTEX
  8
レイヤ__1
  5
8DD
 10
15.1366
 20
0.542846
 30
0.000000
  70
    32
  0
VERTEX
  8
レイヤ__1
  5
8DE
 10
15.1266
 20
0.540304
 30
0.000000
  70
    32
  0
VERTEX
  8
レイヤ__1
  5
8DF
 10
15.1167
 20
0.537850
 30
0.000000
  70
    32
  0
VERTEX
  8
レイヤ__1
  5
8E0
 10
15.1068
 20
0.535485
 30
0.000000
  70
    32
  0
VERTEX
  8
レイヤ__1
  5
8E1
 10
15.0969
 20
0.533211
 30
0.000000
  70
    32
  0
VERTEX
  8
レイヤ__1
  5
8E2
 10
15.0869
 20
0.531026
 30
0.000000
  70
    32
  0
VERTEX
  8
レイヤ__1
  5
8E3
 10
15.0770
 20
0.528933
 30
0.000000
  70
    32
  0
VERTEX
  8
レイヤ__1
  5
8E4
 10
15.0671
 20
0.526931
 30
0.000000
  70
    32
  0
VERTEX
  8
レイヤ__1
  5
8E5
 10
15.0572
 20
0.525022
 30
0.000000
  70
    32
  0
VERTEX
  8
レイヤ__1
  5
8E6
 10
15.0473
 20
0.523205
 30
0.000000
  70
    32
  0
VERTEX
  8
レイヤ__1
  5
8E7
 10
15.0374
 20
0.521481
 30
0.000000
  70
    32
  0
VERTEX
  8
レイヤ__1
  5
8E8
 10
15.0276
 20
0.519851
 30
0.000000
  70
    32
  0
VERTEX
  8
レイヤ__1
  5
8E9
 10
15.0177
 20
0.518316
 30
0.000000
  70
    32
  0
VERTEX
  8
レイヤ__1
  5
8EA
 10
15.0079
 20
0.516875
 30
0.000000
  70
    32
  0
VERTEX
  8
レイヤ__1
  5
8EB
 10
14.9981
 20
0.515530
 30
0.000000
  70
    32
  0
VERTEX
  8
レイヤ__1
  5
8EC
 10
14.9883
 20
0.514282
 30
0.000000
  70
    32
  0
VERTEX
  8
レイヤ__1
  5
8ED
 10
14.9785
 20
0.513129
 30
0.000000
  70
    32
  0
VERTEX
  8
レイヤ__1
  5
8EE
 10
14.9687
 20
0.512074
 30
0.000000
  70
    32
  0
VERTEX
  8
レイヤ__1
  5
8EF
 10
14.9590
 20
0.511117
 30
0.000000
  70
    32
  0
VERTEX
  8
レイヤ__1
  5
8F0
 10
14.9493
 20
0.510258
 30
0.000000
  70
    32
  0
VERTEX
  8
レイヤ__1
  5
8F1
 10
14.9396
 20
0.509498
 30
0.000000
  70
    32
  0
VERTEX
  8
レイヤ__1
  5
8F2
 10
14.9300
 20
0.508838
 30
0.000000
  70
    32
  0
VERTEX
  8
レイヤ__1
  5
8F3
 10
14.9203
 20
0.508277
 30
0.000000
  70
    32
  0
VERTEX
  8
レイヤ__1
  5
8F4
 10
14.9107
 20
0.507817
 30
0.000000
  70
    32
  0
VERTEX
  8
レイヤ__1
  5
8F5
 10
14.9012
 20
0.507459
 30
0.000000
  70
    32
  0
VERTEX
  8
レイヤ__1
  5
8F6
 10
14.8917
 20
0.507202
 30
0.000000
  70
    32
  0
VERTEX
  8
レイヤ__1
  5
8F7
 10
14.8822
 20
0.507047
 30
0.000000
  70
    32
  0
VERTEX
  8
レイヤ__1
  5
8F8
 10
14.8727
 20
0.506996
 30
0.000000
  70
    32
  0
SEQEND
  8
レイヤ__1
  5
8F9
  0
POLYLINE
  8
レイヤ__1
  5
8FA
  62
5
  66
     1
 10
0.000000
 20
0.000000
 30
0.000000
  70
     8
  0
VERTEX
  8
レイヤ__1
  5
8FB
 10
14.8727
 20
0.506996
 30
0.000000
  70
    32
  0
VERTEX
  8
レイヤ__1
  5
8FC
 10
14.8633
 20
0.507032
 30
0.000000
  70
    32
  0
VERTEX
  8
レイヤ__1
  5
8FD
 10
14.8537
 20
0.507141
 30
0.000000
  70
    32
  0
VERTEX
  8
レイヤ__1
  5
8FE
 10
14.8441
 20
0.507326
 30
0.000000
  70
    32
  0
VERTEX
  8
レイヤ__1
  5
8FF
 10
14.8344
 20
0.507591
 30
0.000000
  70
    32
  0
VERTEX
  8
レイヤ__1
  5
900
 10
14.8246
 20
0.507936
 30
0.000000
  70
    32
  0
VERTEX
  8
レイヤ__1
  5
901
 10
14.8148
 20
0.508366
 30
0.000000
  70
    32
  0
VERTEX
  8
レイヤ__1
  5
902
 10
14.8048
 20
0.508883
 30
0.000000
  70
    32
  0
VERTEX
  8
レイヤ__1
  5
903
 10
14.7948
 20
0.509488
 30
0.000000
  70
    32
  0
VERTEX
  8
レイヤ__1
  5
904
 10
14.7848
 20
0.510186
 30
0.000000
  70
    32
  0
VERTEX
  8
レイヤ__1
  5
905
 10
14.7747
 20
0.510978
 30
0.000000
  70
    32
  0
VERTEX
  8
レイヤ__1
  5
906
 10
14.7645
 20
0.511868
 30
0.000000
  70
    32
  0
VERTEX
  8
レイヤ__1
  5
907
 10
14.7543
 20
0.512857
 30
0.000000
  70
    32
  0
VERTEX
  8
レイヤ__1
  5
908
 10
14.7441
 20
0.513949
 30
0.000000
  70
    32
  0
VERTEX
  8
レイヤ__1
  5
909
 10
14.7338
 20
0.515146
 30
0.000000
  70
    32
  0
VERTEX
  8
レイヤ__1
  5
90A
 10
14.7234
 20
0.516451
 30
0.000000
  70
    32
  0
VERTEX
  8
レイヤ__1
  5
90B
 10
14.7130
 20
0.517866
 30
0.000000
  70
    32
  0
VERTEX
  8
レイヤ__1
  5
90C
 10
14.7026
 20
0.519394
 30
0.000000
  70
    32
  0
VERTEX
  8
レイヤ__1
  5
90D
 10
14.6921
 20
0.521038
 30
0.000000
  70
    32
  0
VERTEX
  8
レイヤ__1
  5
90E
 10
14.6817
 20
0.522800
 30
0.000000
  70
    32
  0
VERTEX
  8
レイヤ__1
  5
90F
 10
14.6711
 20
0.524684
 30
0.000000
  70
    32
  0
VERTEX
  8
レイヤ__1
  5
910
 10
14.6606
 20
0.526690
 30
0.000000
  70
    32
  0
VERTEX
  8
レイヤ__1
  5
911
 10
14.6501
 20
0.528823
 30
0.000000
  70
    32
  0
VERTEX
  8
レイヤ__1
  5
912
 10
14.6395
 20
0.531085
 30
0.000000
  70
    32
  0
VERTEX
  8
レイヤ__1
  5
913
 10
14.6289
 20
0.533479
 30
0.000000
  70
    32
  0
VERTEX
  8
レイヤ__1
  5
914
 10
14.6183
 20
0.536006
 30
0.000000
  70
    32
  0
VERTEX
  8
レイヤ__1
  5
915
 10
14.6077
 20
0.538671
 30
0.000000
  70
    32
  0
VERTEX
  8
レイヤ__1
  5
916
 10
14.5971
 20
0.541474
 30
0.000000
  70
    32
  0
VERTEX
  8
レイヤ__1
  5
917
 10
14.5865
 20
0.544420
 30
0.000000
  70
    32
  0
VERTEX
  8
レイヤ__1
  5
918
 10
14.5759
 20
0.547511
 30
0.000000
  70
    32
  0
VERTEX
  8
レイヤ__1
  5
919
 10
14.5653
 20
0.550749
 30
0.000000
  70
    32
  0
VERTEX
  8
レイヤ__1
  5
91A
 10
14.5548
 20
0.554136
 30
0.000000
  70
    32
  0
VERTEX
  8
レイヤ__1
  5
91B
 10
14.5442
 20
0.557677
 30
0.000000
  70
    32
  0
VERTEX
  8
レイヤ__1
  5
91C
 10
14.5336
 20
0.561373
 30
0.000000
  70
    32
  0
VERTEX
  8
レイヤ__1
  5
91D
 10
14.5231
 20
0.565226
 30
0.000000
  70
    32
  0
VERTEX
  8
レイヤ__1
  5
91E
 10
14.5126
 20
0.569240
 30
0.000000
  70
    32
  0
VERTEX
  8
レイヤ__1
  5
91F
 10
14.5021
 20
0.573417
 30
0.000000
  70
    32
  0
VERTEX
  8
レイヤ__1
  5
920
 10
14.4917
 20
0.577760
 30
0.000000
  70
    32
  0
VERTEX
  8
レイヤ__1
  5
921
 10
14.4813
 20
0.582272
 30
0.000000
  70
    32
  0
VERTEX
  8
レイヤ__1
  5
922
 10
14.4709
 20
0.586954
 30
0.000000
  70
    32
  0
VERTEX
  8
レイヤ__1
  5
923
 10
14.4605
 20
0.591810
 30
0.000000
  70
    32
  0
VERTEX
  8
レイヤ__1
  5
924
 10
14.4502
 20
0.596843
 30
0.000000
  70
    32
  0
VERTEX
  8
レイヤ__1
  5
925
 10
14.4400
 20
0.602054
 30
0.000000
  70
    32
  0
VERTEX
  8
レイヤ__1
  5
926
 10
14.4298
 20
0.607447
 30
0.000000
  70
    32
  0
VERTEX
  8
レイヤ__1
  5
927
 10
14.4196
 20
0.613025
 30
0.000000
  70
    32
  0
VERTEX
  8
レイヤ__1
  5
928
 10
14.4095
 20
0.618789
 30
0.000000
  70
    32
  0
VERTEX
  8
レイヤ__1
  5
929
 10
14.3995
 20
0.624743
 30
0.000000
  70
    32
  0
VERTEX
  8
レイヤ__1
  5
92A
 10
14.3895
 20
0.630889
 30
0.000000
  70
    32
  0
VERTEX
  8
レイヤ__1
  5
92B
 10
14.3796
 20
0.637229
 30
0.000000
  70
    32
  0
VERTEX
  8
レイヤ__1
  5
92C
 10
14.3697
 20
0.643767
 30
0.000000
  70
    32
  0
VERTEX
  8
レイヤ__1
  5
92D
 10
14.3599
 20
0.650506
 30
0.000000
  70
    32
  0
VERTEX
  8
レイヤ__1
  5
92E
 10
14.3502
 20
0.657446
 30
0.000000
  70
    32
  0
VERTEX
  8
レイヤ__1
  5
92F
 10
14.3406
 20
0.664593
 30
0.000000
  70
    32
  0
VERTEX
  8
レイヤ__1
  5
930
 10
14.3311
 20
0.671947
 30
0.000000
  70
    32
  0
VERTEX
  8
レイヤ__1
  5
931
 10
14.3216
 20
0.679512
 30
0.000000
  70
    32
  0
VERTEX
  8
レイヤ__1
  5
932
 10
14.3122
 20
0.687290
 30
0.000000
  70
    32
  0
VERTEX
  8
レイヤ__1
  5
933
 10
14.3030
 20
0.695284
 30
0.000000
  70
    32
  0
VERTEX
  8
レイヤ__1
  5
934
 10
14.2938
 20
0.703496
 30
0.000000
  70
    32
  0
VERTEX
  8
レイヤ__1
  5
935
 10
14.2847
 20
0.711930
 30
0.000000
  70
    32
  0
VERTEX
  8
レイヤ__1
  5
936
 10
14.2757
 20
0.720587
 30
0.000000
  70
    32
  0
VERTEX
  8
レイヤ__1
  5
937
 10
14.2668
 20
0.729471
 30
0.000000
  70
    32
  0
VERTEX
  8
レイヤ__1
  5
938
 10
14.2580
 20
0.738584
 30
0.000000
  70
    32
  0
VERTEX
  8
レイヤ__1
  5
939
 10
14.2494
 20
0.747929
 30
0.000000
  70
    32
  0
VERTEX
  8
レイヤ__1
  5
93A
 10
14.2408
 20
0.757508
 30
0.000000
  70
    32
  0
VERTEX
  8
レイヤ__1
  5
93B
 10
14.2324
 20
0.767324
 30
0.000000
  70
    32
  0
VERTEX
  8
レイヤ__1
  5
93C
 10
14.2241
 20
0.777379
 30
0.000000
  70
    32
  0
VERTEX
  8
レイヤ__1
  5
93D
 10
14.2159
 20
0.787677
 30
0.000000
  70
    32
  0
VERTEX
  8
レイヤ__1
  5
93E
 10
14.2078
 20
0.798220
 30
0.000000
  70
    32
  0
VERTEX
  8
レイヤ__1
  5
93F
 10
14.1999
 20
0.809010
 30
0.000000
  70
    32
  0
VERTEX
  8
レイヤ__1
  5
940
 10
14.1921
 20
0.820051
 30
0.000000
  70
    32
  0
VERTEX
  8
レイヤ__1
  5
941
 10
14.1844
 20
0.831344
 30
0.000000
  70
    32
  0
VERTEX
  8
レイヤ__1
  5
942
 10
14.1769
 20
0.842893
 30
0.000000
  70
    32
  0
VERTEX
  8
レイヤ__1
  5
943
 10
14.1695
 20
0.854699
 30
0.000000
  70
    32
  0
VERTEX
  8
レイヤ__1
  5
944
 10
14.1623
 20
0.866767
 30
0.000000
  70
    32
  0
VERTEX
  8
レイヤ__1
  5
945
 10
14.1552
 20
0.879098
 30
0.000000
  70
    32
  0
VERTEX
  8
レイヤ__1
  5
946
 10
14.1482
 20
0.891694
 30
0.000000
  70
    32
  0
VERTEX
  8
レイヤ__1
  5
947
 10
14.1415
 20
0.904560
 30
0.000000
  70
    32
  0
VERTEX
  8
レイヤ__1
  5
948
 10
14.1348
 20
0.917697
 30
0.000000
  70
    32
  0
VERTEX
  8
レイヤ__1
  5
949
 10
14.1284
 20
0.931107
 30
0.000000
  70
    32
  0
VERTEX
  8
レイヤ__1
  5
94A
 10
14.1221
 20
0.944794
 30
0.000000
  70
    32
  0
VERTEX
  8
レイヤ__1
  5
94B
 10
14.1159
 20
0.958761
 30
0.000000
  70
    32
  0
VERTEX
  8
レイヤ__1
  5
94C
 10
14.1100
 20
0.973009
 30
0.000000
  70
    32
  0
VERTEX
  8
レイヤ__1
  5
94D
 10
14.1042
 20
0.987541
 30
0.000000
  70
    32
  0
VERTEX
  8
レイヤ__1
  5
94E
 10
14.0986
 20
1.00236
 30
0.000000
  70
    32
  0
VERTEX
  8
レイヤ__1
  5
94F
 10
14.0932
 20
1.01747
 30
0.000000
  70
    32
  0
VERTEX
  8
レイヤ__1
  5
950
 10
14.0880
 20
1.03287
 30
0.000000
  70
    32
  0
VERTEX
  8
レイヤ__1
  5
951
 10
14.0829
 20
1.04857
 30
0.000000
  70
    32
  0
VERTEX
  8
レイヤ__1
  5
952
 10
14.0781
 20
1.06456
 30
0.000000
  70
    32
  0
VERTEX
  8
レイヤ__1
  5
953
 10
14.0734
 20
1.08086
 30
0.000000
  70
    32
  0
VERTEX
  8
レイヤ__1
  5
954
 10
14.0689
 20
1.09746
 30
0.000000
  70
    32
  0
VERTEX
  8
レイヤ__1
  5
955
 10
14.0647
 20
1.11436
 30
0.000000
  70
    32
  0
VERTEX
  8
レイヤ__1
  5
956
 10
14.0606
 20
1.13157
 30
0.000000
  70
    32
  0
VERTEX
  8
レイヤ__1
  5
957
 10
14.0568
 20
1.14909
 30
0.000000
  70
    32
  0
VERTEX
  8
レイヤ__1
  5
958
 10
14.0531
 20
1.16693
 30
0.000000
  70
    32
  0
VERTEX
  8
レイヤ__1
  5
959
 10
14.0497
 20
1.18508
 30
0.000000
  70
    32
  0
VERTEX
  8
レイヤ__1
  5
95A
 10
14.0465
 20
1.20355
 30
0.000000
  70
    32
  0
VERTEX
  8
レイヤ__1
  5
95B
 10
14.0435
 20
1.22234
 30
0.000000
  70
    32
  0
VERTEX
  8
レイヤ__1
  5
95C
 10
14.0408
 20
1.24146
 30
0.000000
  70
    32
  0
VERTEX
  8
レイヤ__1
  5
95D
 10
14.0382
 20
1.26090
 30
0.000000
  70
    32
  0
VERTEX
  8
レイヤ__1
  5
95E
 10
14.0359
 20
1.28067
 30
0.000000
  70
    32
  0
VERTEX
  8
レイヤ__1
  5
95F
 10
14.0338
 20
1.30077
 30
0.000000
  70
    32
  0
VERTEX
  8
レイヤ__1
  5
960
 10
14.0320
 20
1.32121
 30
0.000000
  70
    32
  0
VERTEX
  8
レイヤ__1
  5
961
 10
14.0304
 20
1.34199
 30
0.000000
  70
    32
  0
VERTEX
  8
レイヤ__1
  5
962
 10
14.0291
 20
1.36310
 30
0.000000
  70
    32
  0
VERTEX
  8
レイヤ__1
  5
963
 10
14.0280
 20
1.38456
 30
0.000000
  70
    32
  0
VERTEX
  8
レイヤ__1
  5
964
 10
14.0271
 20
1.40636
 30
0.000000
  70
    32
  0
VERTEX
  8
レイヤ__1
  5
965
 10
14.0265
 20
1.42851
 30
0.000000
  70
    32
  0
VERTEX
  8
レイヤ__1
  5
966
 10
14.0261
 20
1.45101
 30
0.000000
  70
    32
  0
VERTEX
  8
レイヤ__1
  5
967
 10
14.0261
 20
1.47387
 30
0.000000
  70
    32
  0
VERTEX
  8
レイヤ__1
  5
968
 10
14.0262
 20
1.49708
 30
0.000000
  70
    32
  0
VERTEX
  8
レイヤ__1
  5
969
 10
14.0267
 20
1.52064
 30
0.000000
  70
    32
  0
VERTEX
  8
レイヤ__1
  5
96A
 10
14.0274
 20
1.54457
 30
0.000000
  70
    32
  0
VERTEX
  8
レイヤ__1
  5
96B
 10
14.0284
 20
1.56887
 30
0.000000
  70
    32
  0
VERTEX
  8
レイヤ__1
  5
96C
 10
14.0296
 20
1.59352
 30
0.000000
  70
    32
  0
VERTEX
  8
レイヤ__1
  5
96D
 10
14.0312
 20
1.61855
 30
0.000000
  70
    32
  0
VERTEX
  8
レイヤ__1
  5
96E
 10
14.0330
 20
1.64395
 30
0.000000
  70
    32
  0
VERTEX
  8
レイヤ__1
  5
96F
 10
14.0351
 20
1.66972
 30
0.000000
  70
    32
  0
VERTEX
  8
レイヤ__1
  5
970
 10
14.0375
 20
1.69587
 30
0.000000
  70
    32
  0
VERTEX
  8
レイヤ__1
  5
971
 10
14.0402
 20
1.72240
 30
0.000000
  70
    32
  0
VERTEX
  8
レイヤ__1
  5
972
 10
14.0431
 20
1.74931
 30
0.000000
  70
    32
  0
VERTEX
  8
レイヤ__1
  5
973
 10
14.0464
 20
1.77661
 30
0.000000
  70
    32
  0
VERTEX
  8
レイヤ__1
  5
974
 10
14.0500
 20
1.80429
 30
0.000000
  70
    32
  0
VERTEX
  8
レイヤ__1
  5
975
 10
14.0539
 20
1.83236
 30
0.000000
  70
    32
  0
VERTEX
  8
レイヤ__1
  5
976
 10
14.0581
 20
1.86083
 30
0.000000
  70
    32
  0
VERTEX
  8
レイヤ__1
  5
977
 10
14.0626
 20
1.88969
 30
0.000000
  70
    32
  0
VERTEX
  8
レイヤ__1
  5
978
 10
14.0674
 20
1.91895
 30
0.000000
  70
    32
  0
VERTEX
  8
レイヤ__1
  5
979
 10
14.0725
 20
1.94860
 30
0.000000
  70
    32
  0
VERTEX
  8
レイヤ__1
  5
97A
 10
14.0780
 20
1.97867
 30
0.000000
  70
    32
  0
SEQEND
  8
レイヤ__1
  5
97B
  0
POLYLINE
  8
レイヤ__1
  5
97C
  62
5
  66
     1
 10
0.000000
 20
0.000000
 30
0.000000
  70
     8
  0
VERTEX
  8
レイヤ__1
  5
97D
 10
14.0780
 20
1.97867
 30
0.000000
  70
    32
  0
VERTEX
  8
レイヤ__1
  5
97E
 10
14.0826
 20
2.00294
 30
0.000000
  70
    32
  0
VERTEX
  8
レイヤ__1
  5
97F
 10
14.0874
 20
2.02693
 30
0.000000
  70
    32
  0
VERTEX
  8
レイヤ__1
  5
980
 10
14.0923
 20
2.05065
 30
0.000000
  70
    32
  0
VERTEX
  8
レイヤ__1
  5
981
 10
14.0974
 20
2.07408
 30
0.000000
  70
    32
  0
VERTEX
  8
レイヤ__1
  5
982
 10
14.1026
 20
2.09724
 30
0.000000
  70
    32
  0
VERTEX
  8
レイヤ__1
  5
983
 10
14.1080
 20
2.12012
 30
0.000000
  70
    32
  0
VERTEX
  8
レイヤ__1
  5
984
 10
14.1136
 20
2.14274
 30
0.000000
  70
    32
  0
VERTEX
  8
レイヤ__1
  5
985
 10
14.1193
 20
2.16507
 30
0.000000
  70
    32
  0
VERTEX
  8
レイヤ__1
  5
986
 10
14.1251
 20
2.18714
 30
0.000000
  70
    32
  0
VERTEX
  8
レイヤ__1
  5
987
 10
14.1311
 20
2.20894
 30
0.000000
  70
    32
  0
VERTEX
  8
レイヤ__1
  5
988
 10
14.1372
 20
2.23047
 30
0.000000
  70
    32
  0
VERTEX
  8
レイヤ__1
  5
989
 10
14.1435
 20
2.25173
 30
0.000000
  70
    32
  0
VERTEX
  8
レイヤ__1
  5
98A
 10
14.1499
 20
2.27273
 30
0.000000
  70
    32
  0
VERTEX
  8
レイヤ__1
  5
98B
 10
14.1564
 20
2.29346
 30
0.000000
  70
    32
  0
VERTEX
  8
レイヤ__1
  5
98C
 10
14.1631
 20
2.31394
 30
0.000000
  70
    32
  0
VERTEX
  8
レイヤ__1
  5
98D
 10
14.1699
 20
2.33415
 30
0.000000
  70
    32
  0
VERTEX
  8
レイヤ__1
  5
98E
 10
14.1768
 20
2.35410
 30
0.000000
  70
    32
  0
VERTEX
  8
レイヤ__1
  5
98F
 10
14.1839
 20
2.37379
 30
0.000000
  70
    32
  0
VERTEX
  8
レイヤ__1
  5
990
 10
14.1911
 20
2.39323
 30
0.000000
  70
    32
  0
VERTEX
  8
レイヤ__1
  5
991
 10
14.1984
 20
2.41241
 30
0.000000
  70
    32
  0
VERTEX
  8
レイヤ__1
  5
992
 10
14.2058
 20
2.43134
 30
0.000000
  70
    32
  0
VERTEX
  8
レイヤ__1
  5
993
 10
14.2134
 20
2.45001
 30
0.000000
  70
    32
  0
VERTEX
  8
レイヤ__1
  5
994
 10
14.2211
 20
2.46844
 30
0.000000
  70
    32
  0
VERTEX
  8
レイヤ__1
  5
995
 10
14.2288
 20
2.48661
 30
0.000000
  70
    32
  0
VERTEX
  8
レイヤ__1
  5
996
 10
14.2367
 20
2.50454
 30
0.000000
  70
    32
  0
VERTEX
  8
レイヤ__1
  5
997
 10
14.2447
 20
2.52222
 30
0.000000
  70
    32
  0
VERTEX
  8
レイヤ__1
  5
998
 10
14.2529
 20
2.53965
 30
0.000000
  70
    32
  0
VERTEX
  8
レイヤ__1
  5
999
 10
14.2611
 20
2.55684
 30
0.000000
  70
    32
  0
VERTEX
  8
レイヤ__1
  5
99A
 10
14.2694
 20
2.57379
 30
0.000000
  70
    32
  0
VERTEX
  8
レイヤ__1
  5
99B
 10
14.2778
 20
2.59050
 30
0.000000
  70
    32
  0
VERTEX
  8
レイヤ__1
  5
99C
 10
14.2864
 20
2.60696
 30
0.000000
  70
    32
  0
VERTEX
  8
レイヤ__1
  5
99D
 10
14.2950
 20
2.62319
 30
0.000000
  70
    32
  0
VERTEX
  8
レイヤ__1
  5
99E
 10
14.3037
 20
2.63918
 30
0.000000
  70
    32
  0
VERTEX
  8
レイヤ__1
  5
99F
 10
14.3125
 20
2.65494
 30
0.000000
  70
    32
  0
VERTEX
  8
レイヤ__1
  5
9A0
 10
14.3215
 20
2.67046
 30
0.000000
  70
    32
  0
VERTEX
  8
レイヤ__1
  5
9A1
 10
14.3305
 20
2.68575
 30
0.000000
  70
    32
  0
VERTEX
  8
レイヤ__1
  5
9A2
 10
14.3395
 20
2.70081
 30
0.000000
  70
    32
  0
VERTEX
  8
レイヤ__1
  5
9A3
 10
14.3487
 20
2.71564
 30
0.000000
  70
    32
  0
VERTEX
  8
レイヤ__1
  5
9A4
 10
14.3580
 20
2.73024
 30
0.000000
  70
    32
  0
VERTEX
  8
レイヤ__1
  5
9A5
 10
14.3673
 20
2.74461
 30
0.000000
  70
    32
  0
VERTEX
  8
レイヤ__1
  5
9A6
 10
14.3768
 20
2.75876
 30
0.000000
  70
    32
  0
VERTEX
  8
レイヤ__1
  5
9A7
 10
14.3863
 20
2.77269
 30
0.000000
  70
    32
  0
VERTEX
  8
レイヤ__1
  5
9A8
 10
14.3958
 20
2.78639
 30
0.000000
  70
    32
  0
VERTEX
  8
レイヤ__1
  5
9A9
 10
14.4055
 20
2.79987
 30
0.000000
  70
    32
  0
VERTEX
  8
レイヤ__1
  5
9AA
 10
14.4152
 20
2.81313
 30
0.000000
  70
    32
  0
VERTEX
  8
レイヤ__1
  5
9AB
 10
14.4250
 20
2.82617
 30
0.000000
  70
    32
  0
VERTEX
  8
レイヤ__1
  5
9AC
 10
14.4349
 20
2.83899
 30
0.000000
  70
    32
  0
VERTEX
  8
レイヤ__1
  5
9AD
 10
14.4448
 20
2.85160
 30
0.000000
  70
    32
  0
VERTEX
  8
レイヤ__1
  5
9AE
 10
14.4548
 20
2.86400
 30
0.000000
  70
    32
  0
VERTEX
  8
レイヤ__1
  5
9AF
 10
14.4648
 20
2.87618
 30
0.000000
  70
    32
  0
VERTEX
  8
レイヤ__1
  5
9B0
 10
14.4750
 20
2.88815
 30
0.000000
  70
    32
  0
VERTEX
  8
レイヤ__1
  5
9B1
 10
14.4851
 20
2.89991
 30
0.000000
  70
    32
  0
VERTEX
  8
レイヤ__1
  5
9B2
 10
14.4954
 20
2.91146
 30
0.000000
  70
    32
  0
VERTEX
  8
レイヤ__1
  5
9B3
 10
14.5056
 20
2.92281
 30
0.000000
  70
    32
  0
VERTEX
  8
レイヤ__1
  5
9B4
 10
14.5160
 20
2.93395
 30
0.000000
  70
    32
  0
VERTEX
  8
レイヤ__1
  5
9B5
 10
14.5263
 20
2.94488
 30
0.000000
  70
    32
  0
VERTEX
  8
レイヤ__1
  5
9B6
 10
14.5368
 20
2.95562
 30
0.000000
  70
    32
  0
VERTEX
  8
レイヤ__1
  5
9B7
 10
14.5472
 20
2.96615
 30
0.000000
  70
    32
  0
VERTEX
  8
レイヤ__1
  5
9B8
 10
14.5578
 20
2.97648
 30
0.000000
  70
    32
  0
VERTEX
  8
レイヤ__1
  5
9B9
 10
14.5683
 20
2.98661
 30
0.000000
  70
    32
  0
VERTEX
  8
レイヤ__1
  5
9BA
 10
14.5789
 20
2.99655
 30
0.000000
  70
    32
  0
VERTEX
  8
レイヤ__1
  5
9BB
 10
14.5895
 20
3.00628
 30
0.000000
  70
    32
  0
VERTEX
  8
レイヤ__1
  5
9BC
 10
14.6002
 20
3.01583
 30
0.000000
  70
    32
  0
VERTEX
  8
レイヤ__1
  5
9BD
 10
14.6109
 20
3.02518
 30
0.000000
  70
    32
  0
VERTEX
  8
レイヤ__1
  5
9BE
 10
14.6216
 20
3.03434
 30
0.000000
  70
    32
  0
VERTEX
  8
レイヤ__1
  5
9BF
 10
14.6324
 20
3.04331
 30
0.000000
  70
    32
  0
VERTEX
  8
レイヤ__1
  5
9C0
 10
14.6432
 20
3.05209
 30
0.000000
  70
    32
  0
VERTEX
  8
レイヤ__1
  5
9C1
 10
14.6540
 20
3.06069
 30
0.000000
  70
    32
  0
VERTEX
  8
レイヤ__1
  5
9C2
 10
14.6648
 20
3.06910
 30
0.000000
  70
    32
  0
VERTEX
  8
レイヤ__1
  5
9C3
 10
14.6757
 20
3.07732
 30
0.000000
  70
    32
  0
VERTEX
  8
レイヤ__1
  5
9C4
 10
14.6865
 20
3.08536
 30
0.000000
  70
    32
  0
VERTEX
  8
レイヤ__1
  5
9C5
 10
14.6974
 20
3.09322
 30
0.000000
  70
    32
  0
VERTEX
  8
レイヤ__1
  5
9C6
 10
14.7083
 20
3.10090
 30
0.000000
  70
    32
  0
VERTEX
  8
レイヤ__1
  5
9C7
 10
14.7192
 20
3.10840
 30
0.000000
  70
    32
  0
VERTEX
  8
レイヤ__1
  5
9C8
 10
14.7302
 20
3.11572
 30
0.000000
  70
    32
  0
VERTEX
  8
レイヤ__1
  5
9C9
 10
14.7411
 20
3.12287
 30
0.000000
  70
    32
  0
VERTEX
  8
レイヤ__1
  5
9CA
 10
14.7520
 20
3.12984
 30
0.000000
  70
    32
  0
VERTEX
  8
レイヤ__1
  5
9CB
 10
14.7630
 20
3.13664
 30
0.000000
  70
    32
  0
VERTEX
  8
レイヤ__1
  5
9CC
 10
14.7739
 20
3.14327
 30
0.000000
  70
    32
  0
VERTEX
  8
レイヤ__1
  5
9CD
 10
14.7849
 20
3.14973
 30
0.000000
  70
    32
  0
VERTEX
  8
レイヤ__1
  5
9CE
 10
14.7958
 20
3.15602
 30
0.000000
  70
    32
  0
VERTEX
  8
レイヤ__1
  5
9CF
 10
14.8068
 20
3.16214
 30
0.000000
  70
    32
  0
VERTEX
  8
レイヤ__1
  5
9D0
 10
14.8177
 20
3.16809
 30
0.000000
  70
    32
  0
VERTEX
  8
レイヤ__1
  5
9D1
 10
14.8286
 20
3.17388
 30
0.000000
  70
    32
  0
VERTEX
  8
レイヤ__1
  5
9D2
 10
14.8395
 20
3.17951
 30
0.000000
  70
    32
  0
VERTEX
  8
レイヤ__1
  5
9D3
 10
14.8504
 20
3.18498
 30
0.000000
  70
    32
  0
VERTEX
  8
レイヤ__1
  5
9D4
 10
14.8613
 20
3.19028
 30
0.000000
  70
    32
  0
VERTEX
  8
レイヤ__1
  5
9D5
 10
14.8722
 20
3.19543
 30
0.000000
  70
    32
  0
VERTEX
  8
レイヤ__1
  5
9D6
 10
14.8830
 20
3.20042
 30
0.000000
  70
    32
  0
VERTEX
  8
レイヤ__1
  5
9D7
 10
14.8939
 20
3.20525
 30
0.000000
  70
    32
  0
VERTEX
  8
レイヤ__1
  5
9D8
 10
14.9047
 20
3.20993
 30
0.000000
  70
    32
  0
VERTEX
  8
レイヤ__1
  5
9D9
 10
14.9154
 20
3.21445
 30
0.000000
  70
    32
  0
VERTEX
  8
レイヤ__1
  5
9DA
 10
14.9262
 20
3.21882
 30
0.000000
  70
    32
  0
VERTEX
  8
レイヤ__1
  5
9DB
 10
14.9369
 20
3.22305
 30
0.000000
  70
    32
  0
VERTEX
  8
レイヤ__1
  5
9DC
 10
14.9476
 20
3.22712
 30
0.000000
  70
    32
  0
VERTEX
  8
レイヤ__1
  5
9DD
 10
14.9583
 20
3.23104
 30
0.000000
  70
    32
  0
VERTEX
  8
レイヤ__1
  5
9DE
 10
14.9689
 20
3.23482
 30
0.000000
  70
    32
  0
VERTEX
  8
レイヤ__1
  5
9DF
 10
14.9795
 20
3.23846
 30
0.000000
  70
    32
  0
VERTEX
  8
レイヤ__1
  5
9E0
 10
14.9901
 20
3.24195
 30
0.000000
  70
    32
  0
VERTEX
  8
レイヤ__1
  5
9E1
 10
15.0006
 20
3.24530
 30
0.000000
  70
    32
  0
VERTEX
  8
レイヤ__1
  5
9E2
 10
15.0110
 20
3.24851
 30
0.000000
  70
    32
  0
VERTEX
  8
レイヤ__1
  5
9E3
 10
15.0215
 20
3.25158
 30
0.000000
  70
    32
  0
VERTEX
  8
レイヤ__1
  5
9E4
 10
15.0318
 20
3.25451
 30
0.000000
  70
    32
  0
VERTEX
  8
レイヤ__1
  5
9E5
 10
15.0422
 20
3.25730
 30
0.000000
  70
    32
  0
VERTEX
  8
レイヤ__1
  5
9E6
 10
15.0524
 20
3.25996
 30
0.000000
  70
    32
  0
VERTEX
  8
レイヤ__1
  5
9E7
 10
15.0626
 20
3.26249
 30
0.000000
  70
    32
  0
VERTEX
  8
レイヤ__1
  5
9E8
 10
15.0728
 20
3.26489
 30
0.000000
  70
    32
  0
VERTEX
  8
レイヤ__1
  5
9E9
 10
15.0829
 20
3.26715
 30
0.000000
  70
    32
  0
VERTEX
  8
レイヤ__1
  5
9EA
 10
15.0930
 20
3.26928
 30
0.000000
  70
    32
  0
VERTEX
  8
レイヤ__1
  5
9EB
 10
15.1029
 20
3.27129
 30
0.000000
  70
    32
  0
VERTEX
  8
レイヤ__1
  5
9EC
 10
15.1129
 20
3.27317
 30
0.000000
  70
    32
  0
VERTEX
  8
レイヤ__1
  5
9ED
 10
15.1227
 20
3.27493
 30
0.000000
  70
    32
  0
VERTEX
  8
レイヤ__1
  5
9EE
 10
15.1325
 20
3.27656
 30
0.000000
  70
    32
  0
VERTEX
  8
レイヤ__1
  5
9EF
 10
15.1422
 20
3.27807
 30
0.000000
  70
    32
  0
VERTEX
  8
レイヤ__1
  5
9F0
 10
15.1519
 20
3.27946
 30
0.000000
  70
    32
  0
VERTEX
  8
レイヤ__1
  5
9F1
 10
15.1614
 20
3.28073
 30
0.000000
  70
    32
  0
VERTEX
  8
レイヤ__1
  5
9F2
 10
15.1709
 20
3.28188
 30
0.000000
  70
    32
  0
VERTEX
  8
レイヤ__1
  5
9F3
 10
15.1803
 20
3.28292
 30
0.000000
  70
    32
  0
VERTEX
  8
レイヤ__1
  5
9F4
 10
15.1897
 20
3.28384
 30
0.000000
  70
    32
  0
VERTEX
  8
レイヤ__1
  5
9F5
 10
15.1989
 20
3.28465
 30
0.000000
  70
    32
  0
VERTEX
  8
レイヤ__1
  5
9F6
 10
15.2081
 20
3.28534
 30
0.000000
  70
    32
  0
VERTEX
  8
レイヤ__1
  5
9F7
 10
15.2172
 20
3.28593
 30
0.000000
  70
    32
  0
VERTEX
  8
レイヤ__1
  5
9F8
 10
15.2262
 20
3.28640
 30
0.000000
  70
    32
  0
VERTEX
  8
レイヤ__1
  5
9F9
 10
15.2351
 20
3.28677
 30
0.000000
  70
    32
  0
VERTEX
  8
レイヤ__1
  5
9FA
 10
15.2439
 20
3.28703
 30
0.000000
  70
    32
  0
VERTEX
  8
レイヤ__1
  5
9FB
 10
15.2526
 20
3.28718
 30
0.000000
  70
    32
  0
VERTEX
  8
レイヤ__1
  5
9FC
 10
15.2612
 20
3.28724
 30
0.000000
  70
    32
  0
SEQEND
  8
レイヤ__1
  5
9FD
  0
POLYLINE
  8
レイヤ__1
  5
9FE
  62
5
  66
     1
 10
0.000000
 20
0.000000
 30
0.000000
  70
     8
  0
VERTEX
  8
レイヤ__1
  5
9FF
 10
15.2612
 20
3.28724
 30
0.000000
  70
    32
  0
VERTEX
  8
レイヤ__1
  5
A00
 10
15.2751
 20
3.28716
 30
0.000000
  70
    32
  0
VERTEX
  8
レイヤ__1
  5
A01
 10
15.2889
 20
3.28694
 30
0.000000
  70
    32
  0
VERTEX
  8
レイヤ__1
  5
A02
 10
15.3025
 20
3.28658
 30
0.000000
  70
    32
  0
VERTEX
  8
レイヤ__1
  5
A03
 10
15.3160
 20
3.28608
 30
0.000000
  70
    32
  0
VERTEX
  8
レイヤ__1
  5
A04
 10
15.3293
 20
3.28544
 30
0.000000
  70
    32
  0
VERTEX
  8
レイヤ__1
  5
A05
 10
15.3424
 20
3.28466
 30
0.000000
  70
    32
  0
VERTEX
  8
レイヤ__1
  5
A06
 10
15.3554
 20
3.28374
 30
0.000000
  70
    32
  0
VERTEX
  8
レイヤ__1
  5
A07
 10
15.3682
 20
3.28269
 30
0.000000
  70
    32
  0
VERTEX
  8
レイヤ__1
  5
A08
 10
15.3808
 20
3.28151
 30
0.000000
  70
    32
  0
VERTEX
  8
レイヤ__1
  5
A09
 10
15.3933
 20
3.28020
 30
0.000000
  70
    32
  0
VERTEX
  8
レイヤ__1
  5
A0A
 10
15.4057
 20
3.27876
 30
0.000000
  70
    32
  0
VERTEX
  8
レイヤ__1
  5
A0B
 10
15.4178
 20
3.27720
 30
0.000000
  70
    32
  0
VERTEX
  8
レイヤ__1
  5
A0C
 10
15.4299
 20
3.27551
 30
0.000000
  70
    32
  0
VERTEX
  8
レイヤ__1
  5
A0D
 10
15.4417
 20
3.27370
 30
0.000000
  70
    32
  0
VERTEX
  8
レイヤ__1
  5
A0E
 10
15.4534
 20
3.27177
 30
0.000000
  70
    32
  0
VERTEX
  8
レイヤ__1
  5
A0F
 10
15.4650
 20
3.26973
 30
0.000000
  70
    32
  0
VERTEX
  8
レイヤ__1
  5
A10
 10
15.4764
 20
3.26756
 30
0.000000
  70
    32
  0
VERTEX
  8
レイヤ__1
  5
A11
 10
15.4877
 20
3.26529
 30
0.000000
  70
    32
  0
VERTEX
  8
レイヤ__1
  5
A12
 10
15.4988
 20
3.26290
 30
0.000000
  70
    32
  0
VERTEX
  8
レイヤ__1
  5
A13
 10
15.5098
 20
3.26040
 30
0.000000
  70
    32
  0
VERTEX
  8
レイヤ__1
  5
A14
 10
15.5206
 20
3.25779
 30
0.000000
  70
    32
  0
VERTEX
  8
レイヤ__1
  5
A15
 10
15.5312
 20
3.25508
 30
0.000000
  70
    32
  0
VERTEX
  8
レイヤ__1
  5
A16
 10
15.5418
 20
3.25226
 30
0.000000
  70
    32
  0
VERTEX
  8
レイヤ__1
  5
A17
 10
15.5521
 20
3.24934
 30
0.000000
  70
    32
  0
VERTEX
  8
レイヤ__1
  5
A18
 10
15.5624
 20
3.24632
 30
0.000000
  70
    32
  0
VERTEX
  8
レイヤ__1
  5
A19
 10
15.5725
 20
3.24321
 30
0.000000
  70
    32
  0
VERTEX
  8
レイヤ__1
  5
A1A
 10
15.5824
 20
3.23999
 30
0.000000
  70
    32
  0
VERTEX
  8
レイヤ__1
  5
A1B
 10
15.5922
 20
3.23668
 30
0.000000
  70
    32
  0
VERTEX
  8
レイヤ__1
  5
A1C
 10
15.6019
 20
3.23328
 30
0.000000
  70
    32
  0
VERTEX
  8
レイヤ__1
  5
A1D
 10
15.6114
 20
3.22979
 30
0.000000
  70
    32
  0
VERTEX
  8
レイヤ__1
  5
A1E
 10
15.6208
 20
3.22621
 30
0.000000
  70
    32
  0
VERTEX
  8
レイヤ__1
  5
A1F
 10
15.6300
 20
3.22254
 30
0.000000
  70
    32
  0
VERTEX
  8
レイヤ__1
  5
A20
 10
15.6391
 20
3.21879
 30
0.000000
  70
    32
  0
VERTEX
  8
レイヤ__1
  5
A21
 10
15.6481
 20
3.21496
 30
0.000000
  70
    32
  0
VERTEX
  8
レイヤ__1
  5
A22
 10
15.6569
 20
3.21104
 30
0.000000
  70
    32
  0
VERTEX
  8
レイヤ__1
  5
A23
 10
15.6656
 20
3.20705
 30
0.000000
  70
    32
  0
VERTEX
  8
レイヤ__1
  5
A24
 10
15.6742
 20
3.20298
 30
0.000000
  70
    32
  0
VERTEX
  8
レイヤ__1
  5
A25
 10
15.6826
 20
3.19884
 30
0.000000
  70
    32
  0
VERTEX
  8
レイヤ__1
  5
A26
 10
15.6909
 20
3.19462
 30
0.000000
  70
    32
  0
VERTEX
  8
レイヤ__1
  5
A27
 10
15.6991
 20
3.19033
 30
0.000000
  70
    32
  0
VERTEX
  8
レイヤ__1
  5
A28
 10
15.7071
 20
3.18597
 30
0.000000
  70
    32
  0
VERTEX
  8
レイヤ__1
  5
A29
 10
15.7150
 20
3.18155
 30
0.000000
  70
    32
  0
VERTEX
  8
レイヤ__1
  5
A2A
 10
15.7228
 20
3.17706
 30
0.000000
  70
    32
  0
VERTEX
  8
レイヤ__1
  5
A2B
 10
15.7304
 20
3.17250
 30
0.000000
  70
    32
  0
VERTEX
  8
レイヤ__1
  5
A2C
 10
15.7379
 20
3.16789
 30
0.000000
  70
    32
  0
VERTEX
  8
レイヤ__1
  5
A2D
 10
15.7453
 20
3.16322
 30
0.000000
  70
    32
  0
VERTEX
  8
レイヤ__1
  5
A2E
 10
15.7526
 20
3.15849
 30
0.000000
  70
    32
  0
VERTEX
  8
レイヤ__1
  5
A2F
 10
15.7597
 20
3.15370
 30
0.000000
  70
    32
  0
VERTEX
  8
レイヤ__1
  5
A30
 10
15.7668
 20
3.14886
 30
0.000000
  70
    32
  0
VERTEX
  8
レイヤ__1
  5
A31
 10
15.7737
 20
3.14398
 30
0.000000
  70
    32
  0
VERTEX
  8
レイヤ__1
  5
A32
 10
15.7804
 20
3.13904
 30
0.000000
  70
    32
  0
VERTEX
  8
レイヤ__1
  5
A33
 10
15.7871
 20
3.13405
 30
0.000000
  70
    32
  0
VERTEX
  8
レイヤ__1
  5
A34
 10
15.7936
 20
3.12902
 30
0.000000
  70
    32
  0
VERTEX
  8
レイヤ__1
  5
A35
 10
15.8000
 20
3.12394
 30
0.000000
  70
    32
  0
VERTEX
  8
レイヤ__1
  5
A36
 10
15.8063
 20
3.11882
 30
0.000000
  70
    32
  0
VERTEX
  8
レイヤ__1
  5
A37
 10
15.8125
 20
3.11367
 30
0.000000
  70
    32
  0
VERTEX
  8
レイヤ__1
  5
A38
 10
15.8186
 20
3.10847
 30
0.000000
  70
    32
  0
VERTEX
  8
レイヤ__1
  5
A39
 10
15.8245
 20
3.10324
 30
0.000000
  70
    32
  0
VERTEX
  8
レイヤ__1
  5
A3A
 10
15.8303
 20
3.09798
 30
0.000000
  70
    32
  0
VERTEX
  8
レイヤ__1
  5
A3B
 10
15.8360
 20
3.09269
 30
0.000000
  70
    32
  0
VERTEX
  8
レイヤ__1
  5
A3C
 10
15.8416
 20
3.08736
 30
0.000000
  70
    32
  0
VERTEX
  8
レイヤ__1
  5
A3D
 10
15.8471
 20
3.08201
 30
0.000000
  70
    32
  0
VERTEX
  8
レイヤ__1
  5
A3E
 10
15.8525
 20
3.07663
 30
0.000000
  70
    32
  0
VERTEX
  8
レイヤ__1
  5
A3F
 10
15.8578
 20
3.07123
 30
0.000000
  70
    32
  0
VERTEX
  8
レイヤ__1
  5
A40
 10
15.8629
 20
3.06580
 30
0.000000
  70
    32
  0
VERTEX
  8
レイヤ__1
  5
A41
 10
15.8680
 20
3.06036
 30
0.000000
  70
    32
  0
VERTEX
  8
レイヤ__1
  5
A42
 10
15.8729
 20
3.05489
 30
0.000000
  70
    32
  0
VERTEX
  8
レイヤ__1
  5
A43
 10
15.8777
 20
3.04941
 30
0.000000
  70
    32
  0
VERTEX
  8
レイヤ__1
  5
A44
 10
15.8825
 20
3.04392
 30
0.000000
  70
    32
  0
VERTEX
  8
レイヤ__1
  5
A45
 10
15.8871
 20
3.03842
 30
0.000000
  70
    32
  0
VERTEX
  8
レイヤ__1
  5
A46
 10
15.8916
 20
3.03290
 30
0.000000
  70
    32
  0
VERTEX
  8
レイヤ__1
  5
A47
 10
15.8960
 20
3.02738
 30
0.000000
  70
    32
  0
VERTEX
  8
レイヤ__1
  5
A48
 10
15.9003
 20
3.02185
 30
0.000000
  70
    32
  0
VERTEX
  8
レイヤ__1
  5
A49
 10
15.9045
 20
3.01631
 30
0.000000
  70
    32
  0
VERTEX
  8
レイヤ__1
  5
A4A
 10
15.9086
 20
3.01078
 30
0.000000
  70
    32
  0
VERTEX
  8
レイヤ__1
  5
A4B
 10
15.9126
 20
3.00524
 30
0.000000
  70
    32
  0
VERTEX
  8
レイヤ__1
  5
A4C
 10
15.9165
 20
2.99971
 30
0.000000
  70
    32
  0
VERTEX
  8
レイヤ__1
  5
A4D
 10
15.9203
 20
2.99417
 30
0.000000
  70
    32
  0
VERTEX
  8
レイヤ__1
  5
A4E
 10
15.9240
 20
2.98865
 30
0.000000
  70
    32
  0
VERTEX
  8
レイヤ__1
  5
A4F
 10
15.9277
 20
2.98313
 30
0.000000
  70
    32
  0
VERTEX
  8
レイヤ__1
  5
A50
 10
15.9312
 20
2.97762
 30
0.000000
  70
    32
  0
VERTEX
  8
レイヤ__1
  5
A51
 10
15.9346
 20
2.97212
 30
0.000000
  70
    32
  0
VERTEX
  8
レイヤ__1
  5
A52
 10
15.9379
 20
2.96663
 30
0.000000
  70
    32
  0
VERTEX
  8
レイヤ__1
  5
A53
 10
15.9411
 20
2.96116
 30
0.000000
  70
    32
  0
VERTEX
  8
レイヤ__1
  5
A54
 10
15.9443
 20
2.95571
 30
0.000000
  70
    32
  0
VERTEX
  8
レイヤ__1
  5
A55
 10
15.9473
 20
2.95028
 30
0.000000
  70
    32
  0
VERTEX
  8
レイヤ__1
  5
A56
 10
15.9503
 20
2.94487
 30
0.000000
  70
    32
  0
VERTEX
  8
レイヤ__1
  5
A57
 10
15.9531
 20
2.93948
 30
0.000000
  70
    32
  0
VERTEX
  8
レイヤ__1
  5
A58
 10
15.9559
 20
2.93411
 30
0.000000
  70
    32
  0
VERTEX
  8
レイヤ__1
  5
A59
 10
15.9586
 20
2.92878
 30
0.000000
  70
    32
  0
VERTEX
  8
レイヤ__1
  5
A5A
 10
15.9612
 20
2.92347
 30
0.000000
  70
    32
  0
VERTEX
  8
レイヤ__1
  5
A5B
 10
15.9637
 20
2.91819
 30
0.000000
  70
    32
  0
VERTEX
  8
レイヤ__1
  5
A5C
 10
15.9661
 20
2.91294
 30
0.000000
  70
    32
  0
VERTEX
  8
レイヤ__1
  5
A5D
 10
15.9685
 20
2.90773
 30
0.000000
  70
    32
  0
VERTEX
  8
レイヤ__1
  5
A5E
 10
15.9707
 20
2.90256
 30
0.000000
  70
    32
  0
VERTEX
  8
レイヤ__1
  5
A5F
 10
15.9729
 20
2.89743
 30
0.000000
  70
    32
  0
VERTEX
  8
レイヤ__1
  5
A60
 10
15.9750
 20
2.89233
 30
0.000000
  70
    32
  0
VERTEX
  8
レイヤ__1
  5
A61
 10
15.9770
 20
2.88728
 30
0.000000
  70
    32
  0
VERTEX
  8
レイヤ__1
  5
A62
 10
15.9790
 20
2.88228
 30
0.000000
  70
    32
  0
VERTEX
  8
レイヤ__1
  5
A63
 10
15.9808
 20
2.87732
 30
0.000000
  70
    32
  0
VERTEX
  8
レイヤ__1
  5
A64
 10
15.9826
 20
2.87241
 30
0.000000
  70
    32
  0
VERTEX
  8
レイヤ__1
  5
A65
 10
15.9843
 20
2.86754
 30
0.000000
  70
    32
  0
VERTEX
  8
レイヤ__1
  5
A66
 10
15.9859
 20
2.86274
 30
0.000000
  70
    32
  0
VERTEX
  8
レイヤ__1
  5
A67
 10
15.9874
 20
2.85798
 30
0.000000
  70
    32
  0
VERTEX
  8
レイヤ__1
  5
A68
 10
15.9889
 20
2.85328
 30
0.000000
  70
    32
  0
VERTEX
  8
レイヤ__1
  5
A69
 10
15.9903
 20
2.84864
 30
0.000000
  70
    32
  0
VERTEX
  8
レイヤ__1
  5
A6A
 10
15.9916
 20
2.84407
 30
0.000000
  70
    32
  0
VERTEX
  8
レイヤ__1
  5
A6B
 10
15.9929
 20
2.83955
 30
0.000000
  70
    32
  0
VERTEX
  8
レイヤ__1
  5
A6C
 10
15.9940
 20
2.83510
 30
0.000000
  70
    32
  0
VERTEX
  8
レイヤ__1
  5
A6D
 10
15.9951
 20
2.83071
 30
0.000000
  70
    32
  0
VERTEX
  8
レイヤ__1
  5
A6E
 10
15.9962
 20
2.82639
 30
0.000000
  70
    32
  0
VERTEX
  8
レイヤ__1
  5
A6F
 10
15.9971
 20
2.82214
 30
0.000000
  70
    32
  0
VERTEX
  8
レイヤ__1
  5
A70
 10
15.9980
 20
2.81797
 30
0.000000
  70
    32
  0
VERTEX
  8
レイヤ__1
  5
A71
 10
15.9988
 20
2.81386
 30
0.000000
  70
    32
  0
VERTEX
  8
レイヤ__1
  5
A72
 10
15.9996
 20
2.80984
 30
0.000000
  70
    32
  0
VERTEX
  8
レイヤ__1
  5
A73
 10
16.0003
 20
2.80589
 30
0.000000
  70
    32
  0
VERTEX
  8
レイヤ__1
  5
A74
 10
16.0009
 20
2.80202
 30
0.000000
  70
    32
  0
VERTEX
  8
レイヤ__1
  5
A75
 10
16.0015
 20
2.79823
 30
0.000000
  70
    32
  0
VERTEX
  8
レイヤ__1
  5
A76
 10
16.0020
 20
2.79453
 30
0.000000
  70
    32
  0
VERTEX
  8
レイヤ__1
  5
A77
 10
16.0024
 20
2.79091
 30
0.000000
  70
    32
  0
VERTEX
  8
レイヤ__1
  5
A78
 10
16.0028
 20
2.78738
 30
0.000000
  70
    32
  0
VERTEX
  8
レイヤ__1
  5
A79
 10
16.0031
 20
2.78394
 30
0.000000
  70
    32
  0
VERTEX
  8
レイヤ__1
  5
A7A
 10
16.0034
 20
2.78059
 30
0.000000
  70
    32
  0
VERTEX
  8
レイヤ__1
  5
A7B
 10
16.0036
 20
2.77734
 30
0.000000
  70
    32
  0
VERTEX
  8
レイヤ__1
  5
A7C
 10
16.0037
 20
2.77418
 30
0.000000
  70
    32
  0
VERTEX
  8
レイヤ__1
  5
A7D
 10
16.0038
 20
2.77111
 30
0.000000
  70
    32
  0
VERTEX
  8
レイヤ__1
  5
A7E
 10
16.0038
 20
2.76815
 30
0.000000
  70
    32
  0
SEQEND
  8
レイヤ__1
  5
A7F
  0
POLYLINE
  8
レイヤ__1
  5
A80
  62
5
  66
     1
 10
0.000000
 20
0.000000
 30
0.000000
  70
     8
  0
VERTEX
  8
レイヤ__1
  5
A81
 10
12.5370
 20
1.99382
 30
0.000000
  70
    32
  0
VERTEX
  8
レイヤ__1
  5
A82
 10
12.5304
 20
1.95725
 30
0.000000
  70
    32
  0
VERTEX
  8
レイヤ__1
  5
A83
 10
12.5240
 20
1.92081
 30
0.000000
  70
    32
  0
VERTEX
  8
レイヤ__1
  5
A84
 10
12.5180
 20
1.88449
 30
0.000000
  70
    32
  0
VERTEX
  8
レイヤ__1
  5
A85
 10
12.5124
 20
1.84831
 30
0.000000
  70
    32
  0
VERTEX
  8
レイヤ__1
  5
A86
 10
12.5070
 20
1.81227
 30
0.000000
  70
    32
  0
VERTEX
  8
レイヤ__1
  5
A87
 10
12.5020
 20
1.77636
 30
0.000000
  70
    32
  0
VERTEX
  8
レイヤ__1
  5
A88
 10
12.4973
 20
1.74060
 30
0.000000
  70
    32
  0
VERTEX
  8
レイヤ__1
  5
A89
 10
12.4930
 20
1.70497
 30
0.000000
  70
    32
  0
VERTEX
  8
レイヤ__1
  5
A8A
 10
12.4890
 20
1.66950
 30
0.000000
  70
    32
  0
VERTEX
  8
レイヤ__1
  5
A8B
 10
12.4853
 20
1.63417
 30
0.000000
  70
    32
  0
VERTEX
  8
レイヤ__1
  5
A8C
 10
12.4820
 20
1.59900
 30
0.000000
  70
    32
  0
VERTEX
  8
レイヤ__1
  5
A8D
 10
12.4790
 20
1.56398
 30
0.000000
  70
    32
  0
VERTEX
  8
レイヤ__1
  5
A8E
 10
12.4763
 20
1.52911
 30
0.000000
  70
    32
  0
VERTEX
  8
レイヤ__1
  5
A8F
 10
12.4739
 20
1.49440
 30
0.000000
  70
    32
  0
VERTEX
  8
レイヤ__1
  5
A90
 10
12.4719
 20
1.45986
 30
0.000000
  70
    32
  0
VERTEX
  8
レイヤ__1
  5
A91
 10
12.4703
 20
1.42548
 30
0.000000
  70
    32
  0
VERTEX
  8
レイヤ__1
  5
A92
 10
12.4689
 20
1.39126
 30
0.000000
  70
    32
  0
VERTEX
  8
レイヤ__1
  5
A93
 10
12.4680
 20
1.35722
 30
0.000000
  70
    32
  0
VERTEX
  8
レイヤ__1
  5
A94
 10
12.4673
 20
1.32334
 30
0.000000
  70
    32
  0
VERTEX
  8
レイヤ__1
  5
A95
 10
12.4670
 20
1.28965
 30
0.000000
  70
    32
  0
VERTEX
  8
レイヤ__1
  5
A96
 10
12.4670
 20
1.25612
 30
0.000000
  70
    32
  0
VERTEX
  8
レイヤ__1
  5
A97
 10
12.4674
 20
1.22278
 30
0.000000
  70
    32
  0
VERTEX
  8
レイヤ__1
  5
A98
 10
12.4681
 20
1.18962
 30
0.000000
  70
    32
  0
VERTEX
  8
レイヤ__1
  5
A99
 10
12.4691
 20
1.15664
 30
0.000000
  70
    32
  0
VERTEX
  8
レイヤ__1
  5
A9A
 10
12.4705
 20
1.12385
 30
0.000000
  70
    32
  0
VERTEX
  8
レイヤ__1
  5
A9B
 10
12.4723
 20
1.09125
 30
0.000000
  70
    32
  0
VERTEX
  8
レイヤ__1
  5
A9C
 10
12.4743
 20
1.05884
 30
0.000000
  70
    32
  0
VERTEX
  8
レイヤ__1
  5
A9D
 10
12.4768
 20
1.02663
 30
0.000000
  70
    32
  0
VERTEX
  8
レイヤ__1
  5
A9E
 10
12.4795
 20
0.994614
 30
0.000000
  70
    32
  0
VERTEX
  8
レイヤ__1
  5
A9F
 10
12.4826
 20
0.962797
 30
0.000000
  70
    32
  0
VERTEX
  8
レイヤ__1
  5
AA0
 10
12.4861
 20
0.931183
 30
0.000000
  70
    32
  0
VERTEX
  8
レイヤ__1
  5
AA1
 10
12.4899
 20
0.899774
 30
0.000000
  70
    32
  0
VERTEX
  8
レイヤ__1
  5
AA2
 10
12.4940
 20
0.868572
 30
0.000000
  70
    32
  0
VERTEX
  8
レイヤ__1
  5
AA3
 10
12.4985
 20
0.837580
 30
0.000000
  70
    32
  0
VERTEX
  8
レイヤ__1
  5
AA4
 10
12.5034
 20
0.806801
 30
0.000000
  70
    32
  0
VERTEX
  8
レイヤ__1
  5
AA5
 10
12.5085
 20
0.776237
 30
0.000000
  70
    32
  0
VERTEX
  8
レイヤ__1
  5
AA6
 10
12.5141
 20
0.745891
 30
0.000000
  70
    32
  0
VERTEX
  8
レイヤ__1
  5
AA7
 10
12.5200
 20
0.715765
 30
0.000000
  70
    32
  0
VERTEX
  8
レイヤ__1
  5
AA8
 10
12.5262
 20
0.685862
 30
0.000000
  70
    32
  0
VERTEX
  8
レイヤ__1
  5
AA9
 10
12.5328
 20
0.656184
 30
0.000000
  70
    32
  0
VERTEX
  8
レイヤ__1
  5
AAA
 10
12.5397
 20
0.626734
 30
0.000000
  70
    32
  0
VERTEX
  8
レイヤ__1
  5
AAB
 10
12.5470
 20
0.597515
 30
0.000000
  70
    32
  0
VERTEX
  8
レイヤ__1
  5
AAC
 10
12.5546
 20
0.568528
 30
0.000000
  70
    32
  0
VERTEX
  8
レイヤ__1
  5
AAD
 10
12.5626
 20
0.539777
 30
0.000000
  70
    32
  0
VERTEX
  8
レイヤ__1
  5
AAE
 10
12.5710
 20
0.511265
 30
0.000000
  70
    32
  0
VERTEX
  8
レイヤ__1
  5
AAF
 10
12.5797
 20
0.482993
 30
0.000000
  70
    32
  0
VERTEX
  8
レイヤ__1
  5
AB0
 10
12.5887
 20
0.454964
 30
0.000000
  70
    32
  0
VERTEX
  8
レイヤ__1
  5
AB1
 10
12.5981
 20
0.427181
 30
0.000000
  70
    32
  0
VERTEX
  8
レイヤ__1
  5
AB2
 10
12.6079
 20
0.399646
 30
0.000000
  70
    32
  0
VERTEX
  8
レイヤ__1
  5
AB3
 10
12.6180
 20
0.372363
 30
0.000000
  70
    32
  0
VERTEX
  8
レイヤ__1
  5
AB4
 10
12.6285
 20
0.345333
 30
0.000000
  70
    32
  0
VERTEX
  8
レイヤ__1
  5
AB5
 10
12.6393
 20
0.318558
 30
0.000000
  70
    32
  0
VERTEX
  8
レイヤ__1
  5
AB6
 10
12.6505
 20
0.292043
 30
0.000000
  70
    32
  0
VERTEX
  8
レイヤ__1
  5
AB7
 10
12.6621
 20
0.265789
 30
0.000000
  70
    32
  0
VERTEX
  8
レイヤ__1
  5
AB8
 10
12.6740
 20
0.239798
 30
0.000000
  70
    32
  0
VERTEX
  8
レイヤ__1
  5
AB9
 10
12.6862
 20
0.214074
 30
0.000000
  70
    32
  0
VERTEX
  8
レイヤ__1
  5
ABA
 10
12.6989
 20
0.188618
 30
0.000000
  70
    32
  0
VERTEX
  8
レイヤ__1
  5
ABB
 10
12.7118
 20
0.163434
 30
0.000000
  70
    32
  0
VERTEX
  8
レイヤ__1
  5
ABC
 10
12.7252
 20
0.138524
 30
0.000000
  70
    32
  0
VERTEX
  8
レイヤ__1
  5
ABD
 10
12.7389
 20
0.113890
 30
0.000000
  70
    32
  0
VERTEX
  8
レイヤ__1
  5
ABE
 10
12.7530
 20
0.0895351
 30
0.000000
  70
    32
  0
VERTEX
  8
レイヤ__1
  5
ABF
 10
12.7674
 20
0.0654620
 30
0.000000
  70
    32
  0
VERTEX
  8
レイヤ__1
  5
AC0
 10
12.7822
 20
0.0416731
 30
0.000000
  70
    32
  0
VERTEX
  8
レイヤ__1
  5
AC1
 10
12.7973
 20
0.0181708
 30
0.000000
  70
    32
  0
VERTEX
  8
レイヤ__1
  5
AC2
 10
12.8129
 20
-0.00504211
 30
0.000000
  70
    32
  0
VERTEX
  8
レイヤ__1
  5
AC3
 10
12.8288
 20
-0.0279632
 30
0.000000
  70
    32
  0
VERTEX
  8
レイヤ__1
  5
AC4
 10
12.8450
 20
-0.0505899
 30
0.000000
  70
    32
  0
VERTEX
  8
レイヤ__1
  5
AC5
 10
12.8616
 20
-0.0729197
 30
0.000000
  70
    32
  0
VERTEX
  8
レイヤ__1
  5
AC6
 10
12.8786
 20
-0.0949500
 30
0.000000
  70
    32
  0
VERTEX
  8
レイヤ__1
  5
AC7
 10
12.8960
 20
-0.116678
 30
0.000000
  70
    32
  0
VERTEX
  8
レイヤ__1
  5
AC8
 10
12.9137
 20
-0.138102
 30
0.000000
  70
    32
  0
VERTEX
  8
レイヤ__1
  5
AC9
 10
12.9318
 20
-0.159218
 30
0.000000
  70
    32
  0
VERTEX
  8
レイヤ__1
  5
ACA
 10
12.9502
 20
-0.180025
 30
0.000000
  70
    32
  0
VERTEX
  8
レイヤ__1
  5
ACB
 10
12.9691
 20
-0.200519
 30
0.000000
  70
    32
  0
VERTEX
  8
レイヤ__1
  5
ACC
 10
12.9883
 20
-0.220699
 30
0.000000
  70
    32
  0
VERTEX
  8
レイヤ__1
  5
ACD
 10
13.0078
 20
-0.240561
 30
0.000000
  70
    32
  0
VERTEX
  8
レイヤ__1
  5
ACE
 10
13.0278
 20
-0.260103
 30
0.000000
  70
    32
  0
VERTEX
  8
レイヤ__1
  5
ACF
 10
13.0481
 20
-0.279323
 30
0.000000
  70
    32
  0
VERTEX
  8
レイヤ__1
  5
AD0
 10
13.0687
 20
-0.298218
 30
0.000000
  70
    32
  0
VERTEX
  8
レイヤ__1
  5
AD1
 10
13.0898
 20
-0.316785
 30
0.000000
  70
    32
  0
VERTEX
  8
レイヤ__1
  5
AD2
 10
13.1112
 20
-0.335022
 30
0.000000
  70
    32
  0
VERTEX
  8
レイヤ__1
  5
AD3
 10
13.1330
 20
-0.352926
 30
0.000000
  70
    32
  0
VERTEX
  8
レイヤ__1
  5
AD4
 10
13.1552
 20
-0.370495
 30
0.000000
  70
    32
  0
VERTEX
  8
レイヤ__1
  5
AD5
 10
13.1778
 20
-0.387726
 30
0.000000
  70
    32
  0
VERTEX
  8
レイヤ__1
  5
AD6
 10
13.2007
 20
-0.404616
 30
0.000000
  70
    32
  0
VERTEX
  8
レイヤ__1
  5
AD7
 10
13.2240
 20
-0.421164
 30
0.000000
  70
    32
  0
VERTEX
  8
レイヤ__1
  5
AD8
 10
13.2477
 20
-0.437366
 30
0.000000
  70
    32
  0
VERTEX
  8
レイヤ__1
  5
AD9
 10
13.2717
 20
-0.453220
 30
0.000000
  70
    32
  0
VERTEX
  8
レイヤ__1
  5
ADA
 10
13.2962
 20
-0.468723
 30
0.000000
  70
    32
  0
VERTEX
  8
レイヤ__1
  5
ADB
 10
13.3210
 20
-0.483874
 30
0.000000
  70
    32
  0
VERTEX
  8
レイヤ__1
  5
ADC
 10
13.3462
 20
-0.498668
 30
0.000000
  70
    32
  0
VERTEX
  8
レイヤ__1
  5
ADD
 10
13.3717
 20
-0.513104
 30
0.000000
  70
    32
  0
VERTEX
  8
レイヤ__1
  5
ADE
 10
13.3977
 20
-0.527180
 30
0.000000
  70
    32
  0
VERTEX
  8
レイヤ__1
  5
ADF
 10
13.4240
 20
-0.540892
 30
0.000000
  70
    32
  0
VERTEX
  8
レイヤ__1
  5
AE0
 10
13.4507
 20
-0.554237
 30
0.000000
  70
    32
  0
VERTEX
  8
レイヤ__1
  5
AE1
 10
13.4778
 20
-0.567215
 30
0.000000
  70
    32
  0
VERTEX
  8
レイヤ__1
  5
AE2
 10
13.5053
 20
-0.579821
 30
0.000000
  70
    32
  0
VERTEX
  8
レイヤ__1
  5
AE3
 10
13.5332
 20
-0.592054
 30
0.000000
  70
    32
  0
VERTEX
  8
レイヤ__1
  5
AE4
 10
13.5614
 20
-0.603910
 30
0.000000
  70
    32
  0
VERTEX
  8
レイヤ__1
  5
AE5
 10
13.5900
 20
-0.615388
 30
0.000000
  70
    32
  0
VERTEX
  8
レイヤ__1
  5
AE6
 10
13.6190
 20
-0.626485
 30
0.000000
  70
    32
  0
VERTEX
  8
レイヤ__1
  5
AE7
 10
13.6484
 20
-0.637197
 30
0.000000
  70
    32
  0
VERTEX
  8
レイヤ__1
  5
AE8
 10
13.6782
 20
-0.647523
 30
0.000000
  70
    32
  0
VERTEX
  8
レイヤ__1
  5
AE9
 10
13.7084
 20
-0.657460
 30
0.000000
  70
    32
  0
VERTEX
  8
レイヤ__1
  5
AEA
 10
13.7389
 20
-0.667006
 30
0.000000
  70
    32
  0
VERTEX
  8
レイヤ__1
  5
AEB
 10
13.7699
 20
-0.676158
 30
0.000000
  70
    32
  0
VERTEX
  8
レイヤ__1
  5
AEC
 10
13.8012
 20
-0.684912
 30
0.000000
  70
    32
  0
VERTEX
  8
レイヤ__1
  5
AED
 10
13.8329
 20
-0.693268
 30
0.000000
  70
    32
  0
VERTEX
  8
レイヤ__1
  5
AEE
 10
13.8650
 20
-0.701222
 30
0.000000
  70
    32
  0
VERTEX
  8
レイヤ__1
  5
AEF
 10
13.8975
 20
-0.708772
 30
0.000000
  70
    32
  0
VERTEX
  8
レイヤ__1
  5
AF0
 10
13.9304
 20
-0.715914
 30
0.000000
  70
    32
  0
VERTEX
  8
レイヤ__1
  5
AF1
 10
13.9637
 20
-0.722648
 30
0.000000
  70
    32
  0
VERTEX
  8
レイヤ__1
  5
AF2
 10
13.9974
 20
-0.728969
 30
0.000000
  70
    32
  0
VERTEX
  8
レイヤ__1
  5
AF3
 10
14.0314
 20
-0.734876
 30
0.000000
  70
    32
  0
VERTEX
  8
レイヤ__1
  5
AF4
 10
14.0659
 20
-0.740365
 30
0.000000
  70
    32
  0
VERTEX
  8
レイヤ__1
  5
AF5
 10
14.1007
 20
-0.745435
 30
0.000000
  70
    32
  0
VERTEX
  8
レイヤ__1
  5
AF6
 10
14.1360
 20
-0.750083
 30
0.000000
  70
    32
  0
VERTEX
  8
レイヤ__1
  5
AF7
 10
14.1716
 20
-0.754306
 30
0.000000
  70
    32
  0
VERTEX
  8
レイヤ__1
  5
AF8
 10
14.2076
 20
-0.758102
 30
0.000000
  70
    32
  0
VERTEX
  8
レイヤ__1
  5
AF9
 10
14.2441
 20
-0.761468
 30
0.000000
  70
    32
  0
VERTEX
  8
レイヤ__1
  5
AFA
 10
14.2809
 20
-0.764401
 30
0.000000
  70
    32
  0
VERTEX
  8
レイヤ__1
  5
AFB
 10
14.3181
 20
-0.766900
 30
0.000000
  70
    32
  0
VERTEX
  8
レイヤ__1
  5
AFC
 10
14.3557
 20
-0.768960
 30
0.000000
  70
    32
  0
VERTEX
  8
レイヤ__1
  5
AFD
 10
14.3937
 20
-0.770581
 30
0.000000
  70
    32
  0
VERTEX
  8
レイヤ__1
  5
AFE
 10
14.4321
 20
-0.771759
 30
0.000000
  70
    32
  0
VERTEX
  8
レイヤ__1
  5
AFF
 10
14.4709
 20
-0.772492
 30
0.000000
  70
    32
  0
VERTEX
  8
レイヤ__1
  5
B00
 10
14.5101
 20
-0.772777
 30
0.000000
  70
    32
  0
SEQEND
  8
レイヤ__1
  5
B01
  0
POLYLINE
  8
レイヤ__1
  5
B02
  62
5
  66
     1
 10
0.000000
 20
0.000000
 30
0.000000
  70
     8
  0
VERTEX
  8
レイヤ__1
  5
B03
 10
14.5101
 20
-0.772777
 30
0.000000
  70
    32
  0
VERTEX
  8
レイヤ__1
  5
B04
 10
14.5339
 20
-0.772697
 30
0.000000
  70
    32
  0
VERTEX
  8
レイヤ__1
  5
B05
 10
14.5575
 20
-0.772380
 30
0.000000
  70
    32
  0
VERTEX
  8
レイヤ__1
  5
B06
 10
14.5808
 20
-0.771831
 30
0.000000
  70
    32
  0
VERTEX
  8
レイヤ__1
  5
B07
 10
14.6040
 20
-0.771052
 30
0.000000
  70
    32
  0
VERTEX
  8
レイヤ__1
  5
B08
 10
14.6269
 20
-0.770048
 30
0.000000
  70
    32
  0
VERTEX
  8
レイヤ__1
  5
B09
 10
14.6496
 20
-0.768822
 30
0.000000
  70
    32
  0
VERTEX
  8
レイヤ__1
  5
B0A
 10
14.6721
 20
-0.767378
 30
0.000000
  70
    32
  0
VERTEX
  8
レイヤ__1
  5
B0B
 10
14.6944
 20
-0.765720
 30
0.000000
  70
    32
  0
VERTEX
  8
レイヤ__1
  5
B0C
 10
14.7165
 20
-0.763851
 30
0.000000
  70
    32
  0
VERTEX
  8
レイヤ__1
  5
B0D
 10
14.7383
 20
-0.761775
 30
0.000000
  70
    32
  0
VERTEX
  8
レイヤ__1
  5
B0E
 10
14.7600
 20
-0.759495
 30
0.000000
  70
    32
  0
VERTEX
  8
レイヤ__1
  5
B0F
 10
14.7814
 20
-0.757015
 30
0.000000
  70
    32
  0
VERTEX
  8
レイヤ__1
  5
B10
 10
14.8027
 20
-0.754340
 30
0.000000
  70
    32
  0
VERTEX
  8
レイヤ__1
  5
B11
 10
14.8237
 20
-0.751472
 30
0.000000
  70
    32
  0
VERTEX
  8
レイヤ__1
  5
B12
 10
14.8445
 20
-0.748415
 30
0.000000
  70
    32
  0
VERTEX
  8
レイヤ__1
  5
B13
 10
14.8651
 20
-0.745173
 30
0.000000
  70
    32
  0
VERTEX
  8
レイヤ__1
  5
B14
 10
14.8855
 20
-0.741750
 30
0.000000
  70
    32
  0
VERTEX
  8
レイヤ__1
  5
B15
 10
14.9057
 20
-0.738149
 30
0.000000
  70
    32
  0
VERTEX
  8
レイヤ__1
  5
B16
 10
14.9257
 20
-0.734374
 30
0.000000
  70
    32
  0
VERTEX
  8
レイヤ__1
  5
B17
 10
14.9455
 20
-0.730429
 30
0.000000
  70
    32
  0
VERTEX
  8
レイヤ__1
  5
B18
 10
14.9651
 20
-0.726317
 30
0.000000
  70
    32
  0
VERTEX
  8
レイヤ__1
  5
B19
 10
14.9844
 20
-0.722042
 30
0.000000
  70
    32
  0
VERTEX
  8
レイヤ__1
  5
B1A
 10
15.0036
 20
-0.717607
 30
0.000000
  70
    32
  0
VERTEX
  8
レイヤ__1
  5
B1B
 10
15.0225
 20
-0.713017
 30
0.000000
  70
    32
  0
VERTEX
  8
レイヤ__1
  5
B1C
 10
15.0413
 20
-0.708275
 30
0.000000
  70
    32
  0
VERTEX
  8
レイヤ__1
  5
B1D
 10
15.0598
 20
-0.703384
 30
0.000000
  70
    32
  0
VERTEX
  8
レイヤ__1
  5
B1E
 10
15.0782
 20
-0.698349
 30
0.000000
  70
    32
  0
VERTEX
  8
レイヤ__1
  5
B1F
 10
15.0963
 20
-0.693173
 30
0.000000
  70
    32
  0
VERTEX
  8
レイヤ__1
  5
B20
 10
15.1142
 20
-0.687859
 30
0.000000
  70
    32
  0
VERTEX
  8
レイヤ__1
  5
B21
 10
15.1320
 20
-0.682412
 30
0.000000
  70
    32
  0
VERTEX
  8
レイヤ__1
  5
B22
 10
15.1495
 20
-0.676834
 30
0.000000
  70
    32
  0
VERTEX
  8
レイヤ__1
  5
B23
 10
15.1668
 20
-0.671131
 30
0.000000
  70
    32
  0
VERTEX
  8
レイヤ__1
  5
B24
 10
15.1839
 20
-0.665304
 30
0.000000
  70
    32
  0
VERTEX
  8
レイヤ__1
  5
B25
 10
15.2009
 20
-0.659359
 30
0.000000
  70
    32
  0
VERTEX
  8
レイヤ__1
  5
B26
 10
15.2176
 20
-0.653298
 30
0.000000
  70
    32
  0
VERTEX
  8
レイヤ__1
  5
B27
 10
15.2341
 20
-0.647126
 30
0.000000
  70
    32
  0
VERTEX
  8
レイヤ__1
  5
B28
 10
15.2504
 20
-0.640846
 30
0.000000
  70
    32
  0
VERTEX
  8
レイヤ__1
  5
B29
 10
15.2666
 20
-0.634461
 30
0.000000
  70
    32
  0
VERTEX
  8
レイヤ__1
  5
B2A
 10
15.2825
 20
-0.627976
 30
0.000000
  70
    32
  0
VERTEX
  8
レイヤ__1
  5
B2B
 10
15.2982
 20
-0.621394
 30
0.000000
  70
    32
  0
VERTEX
  8
レイヤ__1
  5
B2C
 10
15.3137
 20
-0.614719
 30
0.000000
  70
    32
  0
VERTEX
  8
レイヤ__1
  5
B2D
 10
15.3291
 20
-0.607953
 30
0.000000
  70
    32
  0
VERTEX
  8
レイヤ__1
  5
B2E
 10
15.3442
 20
-0.601102
 30
0.000000
  70
    32
  0
VERTEX
  8
レイヤ__1
  5
B2F
 10
15.3591
 20
-0.594169
 30
0.000000
  70
    32
  0
VERTEX
  8
レイヤ__1
  5
B30
 10
15.3739
 20
-0.587157
 30
0.000000
  70
    32
  0
VERTEX
  8
レイヤ__1
  5
B31
 10
15.3884
 20
-0.580070
 30
0.000000
  70
    32
  0
VERTEX
  8
レイヤ__1
  5
B32
 10
15.4028
 20
-0.572912
 30
0.000000
  70
    32
  0
VERTEX
  8
レイヤ__1
  5
B33
 10
15.4169
 20
-0.565687
 30
0.000000
  70
    32
  0
VERTEX
  8
レイヤ__1
  5
B34
 10
15.4309
 20
-0.558397
 30
0.000000
  70
    32
  0
VERTEX
  8
レイヤ__1
  5
B35
 10
15.4446
 20
-0.551047
 30
0.000000
  70
    32
  0
VERTEX
  8
レイヤ__1
  5
B36
 10
15.4582
 20
-0.543641
 30
0.000000
  70
    32
  0
VERTEX
  8
レイヤ__1
  5
B37
 10
15.4716
 20
-0.536181
 30
0.000000
  70
    32
  0
VERTEX
  8
レイヤ__1
  5
B38
 10
15.4848
 20
-0.528673
 30
0.000000
  70
    32
  0
VERTEX
  8
レイヤ__1
  5
B39
 10
15.4978
 20
-0.521119
 30
0.000000
  70
    32
  0
VERTEX
  8
レイヤ__1
  5
B3A
 10
15.5106
 20
-0.513523
 30
0.000000
  70
    32
  0
VERTEX
  8
レイヤ__1
  5
B3B
 10
15.5232
 20
-0.505888
 30
0.000000
  70
    32
  0
VERTEX
  8
レイヤ__1
  5
B3C
 10
15.5356
 20
-0.498220
 30
0.000000
  70
    32
  0
VERTEX
  8
レイヤ__1
  5
B3D
 10
15.5478
 20
-0.490520
 30
0.000000
  70
    32
  0
VERTEX
  8
レイヤ__1
  5
B3E
 10
15.5598
 20
-0.482793
 30
0.000000
  70
    32
  0
VERTEX
  8
レイヤ__1
  5
B3F
 10
15.5717
 20
-0.475042
 30
0.000000
  70
    32
  0
VERTEX
  8
レイヤ__1
  5
B40
 10
15.5833
 20
-0.467272
 30
0.000000
  70
    32
  0
VERTEX
  8
レイヤ__1
  5
B41
 10
15.5948
 20
-0.459486
 30
0.000000
  70
    32
  0
VERTEX
  8
レイヤ__1
  5
B42
 10
15.6061
 20
-0.451687
 30
0.000000
  70
    32
  0
VERTEX
  8
レイヤ__1
  5
B43
 10
15.6172
 20
-0.443879
 30
0.000000
  70
    32
  0
VERTEX
  8
レイヤ__1
  5
B44
 10
15.6281
 20
-0.436066
 30
0.000000
  70
    32
  0
VERTEX
  8
レイヤ__1
  5
B45
 10
15.6388
 20
-0.428251
 30
0.000000
  70
    32
  0
VERTEX
  8
レイヤ__1
  5
B46
 10
15.6493
 20
-0.420439
 30
0.000000
  70
    32
  0
VERTEX
  8
レイヤ__1
  5
B47
 10
15.6597
 20
-0.412632
 30
0.000000
  70
    32
  0
VERTEX
  8
レイヤ__1
  5
B48
 10
15.6698
 20
-0.404835
 30
0.000000
  70
    32
  0
VERTEX
  8
レイヤ__1
  5
B49
 10
15.6798
 20
-0.397051
 30
0.000000
  70
    32
  0
VERTEX
  8
レイヤ__1
  5
B4A
 10
15.6896
 20
-0.389284
 30
0.000000
  70
    32
  0
VERTEX
  8
レイヤ__1
  5
B4B
 10
15.6992
 20
-0.381538
 30
0.000000
  70
    32
  0
VERTEX
  8
レイヤ__1
  5
B4C
 10
15.7086
 20
-0.373815
 30
0.000000
  70
    32
  0
VERTEX
  8
レイヤ__1
  5
B4D
 10
15.7178
 20
-0.366121
 30
0.000000
  70
    32
  0
VERTEX
  8
レイヤ__1
  5
B4E
 10
15.7269
 20
-0.358458
 30
0.000000
  70
    32
  0
VERTEX
  8
レイヤ__1
  5
B4F
 10
15.7357
 20
-0.350830
 30
0.000000
  70
    32
  0
VERTEX
  8
レイヤ__1
  5
B50
 10
15.7444
 20
-0.343241
 30
0.000000
  70
    32
  0
VERTEX
  8
レイヤ__1
  5
B51
 10
15.7529
 20
-0.335695
 30
0.000000
  70
    32
  0
VERTEX
  8
レイヤ__1
  5
B52
 10
15.7612
 20
-0.328195
 30
0.000000
  70
    32
  0
VERTEX
  8
レイヤ__1
  5
B53
 10
15.7693
 20
-0.320745
 30
0.000000
  70
    32
  0
VERTEX
  8
レイヤ__1
  5
B54
 10
15.7773
 20
-0.313348
 30
0.000000
  70
    32
  0
VERTEX
  8
レイヤ__1
  5
B55
 10
15.7851
 20
-0.306009
 30
0.000000
  70
    32
  0
VERTEX
  8
レイヤ__1
  5
B56
 10
15.7927
 20
-0.298730
 30
0.000000
  70
    32
  0
VERTEX
  8
レイヤ__1
  5
B57
 10
15.8001
 20
-0.291516
 30
0.000000
  70
    32
  0
VERTEX
  8
レイヤ__1
  5
B58
 10
15.8073
 20
-0.284371
 30
0.000000
  70
    32
  0
VERTEX
  8
レイヤ__1
  5
B59
 10
15.8144
 20
-0.277297
 30
0.000000
  70
    32
  0
VERTEX
  8
レイヤ__1
  5
B5A
 10
15.8212
 20
-0.270299
 30
0.000000
  70
    32
  0
VERTEX
  8
レイヤ__1
  5
B5B
 10
15.8279
 20
-0.263380
 30
0.000000
  70
    32
  0
VERTEX
  8
レイヤ__1
  5
B5C
 10
15.8344
 20
-0.256544
 30
0.000000
  70
    32
  0
VERTEX
  8
レイヤ__1
  5
B5D
 10
15.8408
 20
-0.249794
 30
0.000000
  70
    32
  0
VERTEX
  8
レイヤ__1
  5
B5E
 10
15.8470
 20
-0.243135
 30
0.000000
  70
    32
  0
VERTEX
  8
レイヤ__1
  5
B5F
 10
15.8529
 20
-0.236570
 30
0.000000
  70
    32
  0
VERTEX
  8
レイヤ__1
  5
B60
 10
15.8588
 20
-0.230102
 30
0.000000
  70
    32
  0
VERTEX
  8
レイヤ__1
  5
B61
 10
15.8644
 20
-0.223736
 30
0.000000
  70
    32
  0
VERTEX
  8
レイヤ__1
  5
B62
 10
15.8699
 20
-0.217475
 30
0.000000
  70
    32
  0
VERTEX
  8
レイヤ__1
  5
B63
 10
15.8751
 20
-0.211322
 30
0.000000
  70
    32
  0
VERTEX
  8
レイヤ__1
  5
B64
 10
15.8803
 20
-0.205282
 30
0.000000
  70
    32
  0
VERTEX
  8
レイヤ__1
  5
B65
 10
15.8852
 20
-0.199357
 30
0.000000
  70
    32
  0
VERTEX
  8
レイヤ__1
  5
B66
 10
15.8900
 20
-0.193553
 30
0.000000
  70
    32
  0
VERTEX
  8
レイヤ__1
  5
B67
 10
15.8946
 20
-0.187871
 30
0.000000
  70
    32
  0
VERTEX
  8
レイヤ__1
  5
B68
 10
15.8990
 20
-0.182317
 30
0.000000
  70
    32
  0
VERTEX
  8
レイヤ__1
  5
B69
 10
15.9032
 20
-0.176893
 30
0.000000
  70
    32
  0
VERTEX
  8
レイヤ__1
  5
B6A
 10
15.9073
 20
-0.171603
 30
0.000000
  70
    32
  0
VERTEX
  8
レイヤ__1
  5
B6B
 10
15.9112
 20
-0.166452
 30
0.000000
  70
    32
  0
VERTEX
  8
レイヤ__1
  5
B6C
 10
15.9149
 20
-0.161442
 30
0.000000
  70
    32
  0
VERTEX
  8
レイヤ__1
  5
B6D
 10
15.9185
 20
-0.156578
 30
0.000000
  70
    32
  0
VERTEX
  8
レイヤ__1
  5
B6E
 10
15.9219
 20
-0.151862
 30
0.000000
  70
    32
  0
VERTEX
  8
レイヤ__1
  5
B6F
 10
15.9251
 20
-0.147300
 30
0.000000
  70
    32
  0
VERTEX
  8
レイヤ__1
  5
B70
 10
15.9282
 20
-0.142893
 30
0.000000
  70
    32
  0
VERTEX
  8
レイヤ__1
  5
B71
 10
15.9311
 20
-0.138647
 30
0.000000
  70
    32
  0
VERTEX
  8
レイヤ__1
  5
B72
 10
15.9338
 20
-0.134564
 30
0.000000
  70
    32
  0
VERTEX
  8
レイヤ__1
  5
B73
 10
15.9363
 20
-0.130649
 30
0.000000
  70
    32
  0
VERTEX
  8
レイヤ__1
  5
B74
 10
15.9387
 20
-0.126904
 30
0.000000
  70
    32
  0
VERTEX
  8
レイヤ__1
  5
B75
 10
15.9409
 20
-0.123335
 30
0.000000
  70
    32
  0
VERTEX
  8
レイヤ__1
  5
B76
 10
15.9430
 20
-0.119944
 30
0.000000
  70
    32
  0
VERTEX
  8
レイヤ__1
  5
B77
 10
15.9448
 20
-0.116735
 30
0.000000
  70
    32
  0
VERTEX
  8
レイヤ__1
  5
B78
 10
15.9466
 20
-0.113711
 30
0.000000
  70
    32
  0
VERTEX
  8
レイヤ__1
  5
B79
 10
15.9481
 20
-0.110877
 30
0.000000
  70
    32
  0
VERTEX
  8
レイヤ__1
  5
B7A
 10
15.9495
 20
-0.108236
 30
0.000000
  70
    32
  0
VERTEX
  8
レイヤ__1
  5
B7B
 10
15.9507
 20
-0.105792
 30
0.000000
  70
    32
  0
VERTEX
  8
レイヤ__1
  5
B7C
 10
15.9518
 20
-0.103548
 30
0.000000
  70
    32
  0
VERTEX
  8
レイヤ__1
  5
B7D
 10
15.9527
 20
-0.101509
 30
0.000000
  70
    32
  0
VERTEX
  8
レイヤ__1
  5
B7E
 10
15.9534
 20
-0.0996768
 30
0.000000
  70
    32
  0
VERTEX
  8
レイヤ__1
  5
B7F
 10
15.9540
 20
-0.0980563
 30
0.000000
  70
    32
  0
VERTEX
  8
レイヤ__1
  5
B80
 10
15.9544
 20
-0.0966509
 30
0.000000
  70
    32
  0
VERTEX
  8
レイヤ__1
  5
B81
 10
15.9546
 20
-0.0954642
 30
0.000000
  70
    32
  0
VERTEX
  8
レイヤ__1
  5
B82
 10
15.9547
 20
-0.0945000
 30
0.000000
  70
    32
  0
SEQEND
  8
レイヤ__1
  5
B83
  0
POLYLINE
  8
レイヤ__1
  5
B84
  62
5
  66
     1
 10
0.000000
 20
0.000000
 30
0.000000
  70
     8
  0
VERTEX
  8
レイヤ__1
  5
B85
 10
9.79884
 20
0.893791
 30
0.000000
  70
    32
  0
VERTEX
  8
レイヤ__1
  5
B86
 10
9.84619
 20
0.893943
 30
0.000000
  70
    32
  0
VERTEX
  8
レイヤ__1
  5
B87
 10
9.89288
 20
0.894398
 30
0.000000
  70
    32
  0
VERTEX
  8
レイヤ__1
  5
B88
 10
9.93892
 20
0.895155
 30
0.000000
  70
    32
  0
VERTEX
  8
レイヤ__1
  5
B89
 10
9.98430
 20
0.896210
 30
0.000000
  70
    32
  0
VERTEX
  8
レイヤ__1
  5
B8A
 10
10.0290
 20
0.897562
 30
0.000000
  70
    32
  0
VERTEX
  8
レイヤ__1
  5
B8B
 10
10.0731
 20
0.899209
 30
0.000000
  70
    32
  0
VERTEX
  8
レイヤ__1
  5
B8C
 10
10.1166
 20
0.901149
 30
0.000000
  70
    32
  0
VERTEX
  8
レイヤ__1
  5
B8D
 10
10.1594
 20
0.903378
 30
0.000000
  70
    32
  0
VERTEX
  8
レイヤ__1
  5
B8E
 10
10.2016
 20
0.905897
 30
0.000000
  70
    32
  0
VERTEX
  8
レイヤ__1
  5
B8F
 10
10.2432
 20
0.908701
 30
0.000000
  70
    32
  0
VERTEX
  8
レイヤ__1
  5
B90
 10
10.2842
 20
0.911790
 30
0.000000
  70
    32
  0
VERTEX
  8
レイヤ__1
  5
B91
 10
10.3245
 20
0.915160
 30
0.000000
  70
    32
  0
VERTEX
  8
レイヤ__1
  5
B92
 10
10.3643
 20
0.918811
 30
0.000000
  70
    32
  0
VERTEX
  8
レイヤ__1
  5
B93
 10
10.4034
 20
0.922739
 30
0.000000
  70
    32
  0
VERTEX
  8
レイヤ__1
  5
B94
 10
10.4420
 20
0.926943
 30
0.000000
  70
    32
  0
VERTEX
  8
レイヤ__1
  5
B95
 10
10.4799
 20
0.931420
 30
0.000000
  70
    32
  0
VERTEX
  8
レイヤ__1
  5
B96
 10
10.5173
 20
0.936169
 30
0.000000
  70
    32
  0
VERTEX
  8
レイヤ__1
  5
B97
 10
10.5541
 20
0.941187
 30
0.000000
  70
    32
  0
VERTEX
  8
レイヤ__1
  5
B98
 10
10.5903
 20
0.946472
 30
0.000000
  70
    32
  0
VERTEX
  8
レイヤ__1
  5
B99
 10
10.6260
 20
0.952023
 30
0.000000
  70
    32
  0
VERTEX
  8
レイヤ__1
  5
B9A
 10
10.6611
 20
0.957836
 30
0.000000
  70
    32
  0
VERTEX
  8
レイヤ__1
  5
B9B
 10
10.6956
 20
0.963911
 30
0.000000
  70
    32
  0
VERTEX
  8
レイヤ__1
  5
B9C
 10
10.7296
 20
0.970244
 30
0.000000
  70
    32
  0
VERTEX
  8
レイヤ__1
  5
B9D
 10
10.7630
 20
0.976833
 30
0.000000
  70
    32
  0
VERTEX
  8
レイヤ__1
  5
B9E
 10
10.7959
 20
0.983677
 30
0.000000
  70
    32
  0
VERTEX
  8
レイヤ__1
  5
B9F
 10
10.8282
 20
0.990774
 30
0.000000
  70
    32
  0
VERTEX
  8
レイヤ__1
  5
BA0
 10
10.8600
 20
0.998121
 30
0.000000
  70
    32
  0
VERTEX
  8
レイヤ__1
  5
BA1
 10
10.8913
 20
1.00572
 30
0.000000
  70
    32
  0
VERTEX
  8
レイヤ__1
  5
BA2
 10
10.9221
 20
1.01356
 30
0.000000
  70
    32
  0
VERTEX
  8
レイヤ__1
  5
BA3
 10
10.9523
 20
1.02164
 30
0.000000
  70
    32
  0
VERTEX
  8
レイヤ__1
  5
BA4
 10
10.9820
 20
1.02997
 30
0.000000
  70
    32
  0
VERTEX
  8
レイヤ__1
  5
BA5
 10
11.0112
 20
1.03854
 30
0.000000
  70
    32
  0
VERTEX
  8
レイヤ__1
  5
BA6
 10
11.0399
 20
1.04734
 30
0.000000
  70
    32
  0
VERTEX
  8
レイヤ__1
  5
BA7
 10
11.0681
 20
1.05638
 30
0.000000
  70
    32
  0
VERTEX
  8
レイヤ__1
  5
BA8
 10
11.0958
 20
1.06565
 30
0.000000
  70
    32
  0
VERTEX
  8
レイヤ__1
  5
BA9
 10
11.1231
 20
1.07516
 30
0.000000
  70
    32
  0
VERTEX
  8
レイヤ__1
  5
BAA
 10
11.1498
 20
1.08489
 30
0.000000
  70
    32
  0
VERTEX
  8
レイヤ__1
  5
BAB
 10
11.1761
 20
1.09485
 30
0.000000
  70
    32
  0
VERTEX
  8
レイヤ__1
  5
BAC
 10
11.2019
 20
1.10504
 30
0.000000
  70
    32
  0
VERTEX
  8
レイヤ__1
  5
BAD
 10
11.2272
 20
1.11545
 30
0.000000
  70
    32
  0
VERTEX
  8
レイヤ__1
  5
BAE
 10
11.2520
 20
1.12607
 30
0.000000
  70
    32
  0
VERTEX
  8
レイヤ__1
  5
BAF
 10
11.2764
 20
1.13692
 30
0.000000
  70
    32
  0
VERTEX
  8
レイヤ__1
  5
BB0
 10
11.3004
 20
1.14799
 30
0.000000
  70
    32
  0
VERTEX
  8
レイヤ__1
  5
BB1
 10
11.3239
 20
1.15927
 30
0.000000
  70
    32
  0
VERTEX
  8
レイヤ__1
  5
BB2
 10
11.3469
 20
1.17076
 30
0.000000
  70
    32
  0
VERTEX
  8
レイヤ__1
  5
BB3
 10
11.3695
 20
1.18246
 30
0.000000
  70
    32
  0
VERTEX
  8
レイヤ__1
  5
BB4
 10
11.3917
 20
1.19437
 30
0.000000
  70
    32
  0
VERTEX
  8
レイヤ__1
  5
BB5
 10
11.4135
 20
1.20648
 30
0.000000
  70
    32
  0
VERTEX
  8
レイヤ__1
  5
BB6
 10
11.4348
 20
1.21880
 30
0.000000
  70
    32
  0
VERTEX
  8
レイヤ__1
  5
BB7
 10
11.4557
 20
1.23132
 30
0.000000
  70
    32
  0
VERTEX
  8
レイヤ__1
  5
BB8
 10
11.4762
 20
1.24404
 30
0.000000
  70
    32
  0
VERTEX
  8
レイヤ__1
  5
BB9
 10
11.4963
 20
1.25696
 30
0.000000
  70
    32
  0
VERTEX
  8
レイヤ__1
  5
BBA
 10
11.5160
 20
1.27007
 30
0.000000
  70
    32
  0
VERTEX
  8
レイヤ__1
  5
BBB
 10
11.5353
 20
1.28338
 30
0.000000
  70
    32
  0
VERTEX
  8
レイヤ__1
  5
BBC
 10
11.5542
 20
1.29687
 30
0.000000
  70
    32
  0
VERTEX
  8
レイヤ__1
  5
BBD
 10
11.5727
 20
1.31056
 30
0.000000
  70
    32
  0
VERTEX
  8
レイヤ__1
  5
BBE
 10
11.5909
 20
1.32443
 30
0.000000
  70
    32
  0
VERTEX
  8
レイヤ__1
  5
BBF
 10
11.6086
 20
1.33849
 30
0.000000
  70
    32
  0
VERTEX
  8
レイヤ__1
  5
BC0
 10
11.6260
 20
1.35273
 30
0.000000
  70
    32
  0
VERTEX
  8
レイヤ__1
  5
BC1
 10
11.6431
 20
1.36715
 30
0.000000
  70
    32
  0
VERTEX
  8
レイヤ__1
  5
BC2
 10
11.6597
 20
1.38175
 30
0.000000
  70
    32
  0
VERTEX
  8
レイヤ__1
  5
BC3
 10
11.6760
 20
1.39652
 30
0.000000
  70
    32
  0
VERTEX
  8
レイヤ__1
  5
BC4
 10
11.6920
 20
1.41147
 30
0.000000
  70
    32
  0
VERTEX
  8
レイヤ__1
  5
BC5
 10
11.7076
 20
1.42660
 30
0.000000
  70
    32
  0
VERTEX
  8
レイヤ__1
  5
BC6
 10
11.7228
 20
1.44189
 30
0.000000
  70
    32
  0
VERTEX
  8
レイヤ__1
  5
BC7
 10
11.7378
 20
1.45735
 30
0.000000
  70
    32
  0
VERTEX
  8
レイヤ__1
  5
BC8
 10
11.7524
 20
1.47297
 30
0.000000
  70
    32
  0
VERTEX
  8
レイヤ__1
  5
BC9
 10
11.7666
 20
1.48876
 30
0.000000
  70
    32
  0
VERTEX
  8
レイヤ__1
  5
BCA
 10
11.7806
 20
1.50471
 30
0.000000
  70
    32
  0
VERTEX
  8
レイヤ__1
  5
BCB
 10
11.7942
 20
1.52082
 30
0.000000
  70
    32
  0
VERTEX
  8
レイヤ__1
  5
BCC
 10
11.8076
 20
1.53709
 30
0.000000
  70
    32
  0
VERTEX
  8
レイヤ__1
  5
BCD
 10
11.8206
 20
1.55351
 30
0.000000
  70
    32
  0
VERTEX
  8
レイヤ__1
  5
BCE
 10
11.8333
 20
1.57009
 30
0.000000
  70
    32
  0
VERTEX
  8
レイヤ__1
  5
BCF
 10
11.8457
 20
1.58681
 30
0.000000
  70
    32
  0
VERTEX
  8
レイヤ__1
  5
BD0
 10
11.8579
 20
1.60369
 30
0.000000
  70
    32
  0
VERTEX
  8
レイヤ__1
  5
BD1
 10
11.8697
 20
1.62071
 30
0.000000
  70
    32
  0
VERTEX
  8
レイヤ__1
  5
BD2
 10
11.8813
 20
1.63788
 30
0.000000
  70
    32
  0
VERTEX
  8
レイヤ__1
  5
BD3
 10
11.8926
 20
1.65519
 30
0.000000
  70
    32
  0
VERTEX
  8
レイヤ__1
  5
BD4
 10
11.9036
 20
1.67264
 30
0.000000
  70
    32
  0
VERTEX
  8
レイヤ__1
  5
BD5
 10
11.9143
 20
1.69022
 30
0.000000
  70
    32
  0
VERTEX
  8
レイヤ__1
  5
BD6
 10
11.9248
 20
1.70795
 30
0.000000
  70
    32
  0
VERTEX
  8
レイヤ__1
  5
BD7
 10
11.9351
 20
1.72581
 30
0.000000
  70
    32
  0
VERTEX
  8
レイヤ__1
  5
BD8
 10
11.9451
 20
1.74380
 30
0.000000
  70
    32
  0
VERTEX
  8
レイヤ__1
  5
BD9
 10
11.9548
 20
1.76192
 30
0.000000
  70
    32
  0
VERTEX
  8
レイヤ__1
  5
BDA
 10
11.9643
 20
1.78016
 30
0.000000
  70
    32
  0
VERTEX
  8
レイヤ__1
  5
BDB
 10
11.9736
 20
1.79854
 30
0.000000
  70
    32
  0
VERTEX
  8
レイヤ__1
  5
BDC
 10
11.9827
 20
1.81703
 30
0.000000
  70
    32
  0
VERTEX
  8
レイヤ__1
  5
BDD
 10
11.9915
 20
1.83565
 30
0.000000
  70
    32
  0
VERTEX
  8
レイヤ__1
  5
BDE
 10
12.0001
 20
1.85439
 30
0.000000
  70
    32
  0
VERTEX
  8
レイヤ__1
  5
BDF
 10
12.0085
 20
1.87324
 30
0.000000
  70
    32
  0
VERTEX
  8
レイヤ__1
  5
BE0
 10
12.0167
 20
1.89221
 30
0.000000
  70
    32
  0
VERTEX
  8
レイヤ__1
  5
BE1
 10
12.0246
 20
1.91129
 30
0.000000
  70
    32
  0
VERTEX
  8
レイヤ__1
  5
BE2
 10
12.0324
 20
1.93049
 30
0.000000
  70
    32
  0
VERTEX
  8
レイヤ__1
  5
BE3
 10
12.0400
 20
1.94979
 30
0.000000
  70
    32
  0
VERTEX
  8
レイヤ__1
  5
BE4
 10
12.0474
 20
1.96920
 30
0.000000
  70
    32
  0
VERTEX
  8
レイヤ__1
  5
BE5
 10
12.0546
 20
1.98871
 30
0.000000
  70
    32
  0
VERTEX
  8
レイヤ__1
  5
BE6
 10
12.0617
 20
2.00832
 30
0.000000
  70
    32
  0
VERTEX
  8
レイヤ__1
  5
BE7
 10
12.0685
 20
2.02804
 30
0.000000
  70
    32
  0
VERTEX
  8
レイヤ__1
  5
BE8
 10
12.0752
 20
2.04785
 30
0.000000
  70
    32
  0
VERTEX
  8
レイヤ__1
  5
BE9
 10
12.0817
 20
2.06776
 30
0.000000
  70
    32
  0
VERTEX
  8
レイヤ__1
  5
BEA
 10
12.0881
 20
2.08776
 30
0.000000
  70
    32
  0
VERTEX
  8
レイヤ__1
  5
BEB
 10
12.0943
 20
2.10786
 30
0.000000
  70
    32
  0
VERTEX
  8
レイヤ__1
  5
BEC
 10
12.1004
 20
2.12804
 30
0.000000
  70
    32
  0
VERTEX
  8
レイヤ__1
  5
BED
 10
12.1063
 20
2.14831
 30
0.000000
  70
    32
  0
VERTEX
  8
レイヤ__1
  5
BEE
 10
12.1121
 20
2.16867
 30
0.000000
  70
    32
  0
VERTEX
  8
レイヤ__1
  5
BEF
 10
12.1178
 20
2.18911
 30
0.000000
  70
    32
  0
VERTEX
  8
レイヤ__1
  5
BF0
 10
12.1233
 20
2.20964
 30
0.000000
  70
    32
  0
VERTEX
  8
レイヤ__1
  5
BF1
 10
12.1287
 20
2.23024
 30
0.000000
  70
    32
  0
VERTEX
  8
レイヤ__1
  5
BF2
 10
12.1340
 20
2.25091
 30
0.000000
  70
    32
  0
VERTEX
  8
レイヤ__1
  5
BF3
 10
12.1392
 20
2.27167
 30
0.000000
  70
    32
  0
VERTEX
  8
レイヤ__1
  5
BF4
 10
12.1443
 20
2.29249
 30
0.000000
  70
    32
  0
VERTEX
  8
レイヤ__1
  5
BF5
 10
12.1492
 20
2.31339
 30
0.000000
  70
    32
  0
VERTEX
  8
レイヤ__1
  5
BF6
 10
12.1541
 20
2.33435
 30
0.000000
  70
    32
  0
VERTEX
  8
レイヤ__1
  5
BF7
 10
12.1589
 20
2.35538
 30
0.000000
  70
    32
  0
VERTEX
  8
レイヤ__1
  5
BF8
 10
12.1636
 20
2.37648
 30
0.000000
  70
    32
  0
VERTEX
  8
レイヤ__1
  5
BF9
 10
12.1682
 20
2.39764
 30
0.000000
  70
    32
  0
VERTEX
  8
レイヤ__1
  5
BFA
 10
12.1727
 20
2.41886
 30
0.000000
  70
    32
  0
VERTEX
  8
レイヤ__1
  5
BFB
 10
12.1772
 20
2.44013
 30
0.000000
  70
    32
  0
VERTEX
  8
レイヤ__1
  5
BFC
 10
12.1816
 20
2.46146
 30
0.000000
  70
    32
  0
VERTEX
  8
レイヤ__1
  5
BFD
 10
12.1859
 20
2.48285
 30
0.000000
  70
    32
  0
VERTEX
  8
レイヤ__1
  5
BFE
 10
12.1902
 20
2.50428
 30
0.000000
  70
    32
  0
VERTEX
  8
レイヤ__1
  5
BFF
 10
12.1945
 20
2.52577
 30
0.000000
  70
    32
  0
VERTEX
  8
レイヤ__1
  5
C00
 10
12.1986
 20
2.54730
 30
0.000000
  70
    32
  0
VERTEX
  8
レイヤ__1
  5
C01
 10
12.2028
 20
2.56888
 30
0.000000
  70
    32
  0
VERTEX
  8
レイヤ__1
  5
C02
 10
12.2069
 20
2.59050
 30
0.000000
  70
    32
  0
VERTEX
  8
レイヤ__1
  5
C03
 10
12.2110
 20
2.61217
 30
0.000000
  70
    32
  0
VERTEX
  8
レイヤ__1
  5
C04
 10
12.2150
 20
2.63387
 30
0.000000
  70
    32
  0
SEQEND
  8
レイヤ__1
  5
C05
  0
POLYLINE
  8
レイヤ__1
  5
C06
  62
5
  66
     1
 10
0.000000
 20
0.000000
 30
0.000000
  70
     8
  0
VERTEX
  8
レイヤ__1
  5
C07
 10
7.28916
 20
2.83998
 30
0.000000
  70
    32
  0
VERTEX
  8
レイヤ__1
  5
C08
 10
7.28920
 20
2.86046
 30
0.000000
  70
    32
  0
VERTEX
  8
レイヤ__1
  5
C09
 10
7.28917
 20
2.88092
 30
0.000000
  70
    32
  0
VERTEX
  8
レイヤ__1
  5
C0A
 10
7.28907
 20
2.90135
 30
0.000000
  70
    32
  0
VERTEX
  8
レイヤ__1
  5
C0B
 10
7.28890
 20
2.92175
 30
0.000000
  70
    32
  0
VERTEX
  8
レイヤ__1
  5
C0C
 10
7.28864
 20
2.94213
 30
0.000000
  70
    32
  0
VERTEX
  8
レイヤ__1
  5
C0D
 10
7.28829
 20
2.96248
 30
0.000000
  70
    32
  0
VERTEX
  8
レイヤ__1
  5
C0E
 10
7.28786
 20
2.98279
 30
0.000000
  70
    32
  0
VERTEX
  8
レイヤ__1
  5
C0F
 10
7.28734
 20
3.00307
 30
0.000000
  70
    32
  0
VERTEX
  8
レイヤ__1
  5
C10
 10
7.28672
 20
3.02331
 30
0.000000
  70
    32
  0
VERTEX
  8
レイヤ__1
  5
C11
 10
7.28600
 20
3.04351
 30
0.000000
  70
    32
  0
VERTEX
  8
レイヤ__1
  5
C12
 10
7.28517
 20
3.06366
 30
0.000000
  70
    32
  0
VERTEX
  8
レイヤ__1
  5
C13
 10
7.28423
 20
3.08378
 30
0.000000
  70
    32
  0
VERTEX
  8
レイヤ__1
  5
C14
 10
7.28318
 20
3.10384
 30
0.000000
  70
    32
  0
VERTEX
  8
レイヤ__1
  5
C15
 10
7.28201
 20
3.12386
 30
0.000000
  70
    32
  0
VERTEX
  8
レイヤ__1
  5
C16
 10
7.28073
 20
3.14383
 30
0.000000
  70
    32
  0
VERTEX
  8
レイヤ__1
  5
C17
 10
7.27931
 20
3.16375
 30
0.000000
  70
    32
  0
VERTEX
  8
レイヤ__1
  5
C18
 10
7.27777
 20
3.18360
 30
0.000000
  70
    32
  0
VERTEX
  8
レイヤ__1
  5
C19
 10
7.27609
 20
3.20341
 30
0.000000
  70
    32
  0
VERTEX
  8
レイヤ__1
  5
C1A
 10
7.27427
 20
3.22315
 30
0.000000
  70
    32
  0
VERTEX
  8
レイヤ__1
  5
C1B
 10
7.27231
 20
3.24283
 30
0.000000
  70
    32
  0
VERTEX
  8
レイヤ__1
  5
C1C
 10
7.27021
 20
3.26244
 30
0.000000
  70
    32
  0
VERTEX
  8
レイヤ__1
  5
C1D
 10
7.26795
 20
3.28199
 30
0.000000
  70
    32
  0
VERTEX
  8
レイヤ__1
  5
C1E
 10
7.26555
 20
3.30147
 30
0.000000
  70
    32
  0
VERTEX
  8
レイヤ__1
  5
C1F
 10
7.26298
 20
3.32088
 30
0.000000
  70
    32
  0
VERTEX
  8
レイヤ__1
  5
C20
 10
7.26025
 20
3.34021
 30
0.000000
  70
    32
  0
VERTEX
  8
レイヤ__1
  5
C21
 10
7.25735
 20
3.35947
 30
0.000000
  70
    32
  0
VERTEX
  8
レイヤ__1
  5
C22
 10
7.25428
 20
3.37866
 30
0.000000
  70
    32
  0
VERTEX
  8
レイヤ__1
  5
C23
 10
7.25104
 20
3.39776
 30
0.000000
  70
    32
  0
VERTEX
  8
レイヤ__1
  5
C24
 10
7.24762
 20
3.41678
 30
0.000000
  70
    32
  0
VERTEX
  8
レイヤ__1
  5
C25
 10
7.24401
 20
3.43571
 30
0.000000
  70
    32
  0
VERTEX
  8
レイヤ__1
  5
C26
 10
7.24022
 20
3.45456
 30
0.000000
  70
    32
  0
VERTEX
  8
レイヤ__1
  5
C27
 10
7.23624
 20
3.47332
 30
0.000000
  70
    32
  0
VERTEX
  8
レイヤ__1
  5
C28
 10
7.23206
 20
3.49199
 30
0.000000
  70
    32
  0
VERTEX
  8
レイヤ__1
  5
C29
 10
7.22768
 20
3.51057
 30
0.000000
  70
    32
  0
VERTEX
  8
レイヤ__1
  5
C2A
 10
7.22310
 20
3.52905
 30
0.000000
  70
    32
  0
VERTEX
  8
レイヤ__1
  5
C2B
 10
7.21831
 20
3.54743
 30
0.000000
  70
    32
  0
VERTEX
  8
レイヤ__1
  5
C2C
 10
7.21331
 20
3.56571
 30
0.000000
  70
    32
  0
VERTEX
  8
レイヤ__1
  5
C2D
 10
7.20809
 20
3.58389
 30
0.000000
  70
    32
  0
VERTEX
  8
レイヤ__1
  5
C2E
 10
7.20265
 20
3.60196
 30
0.000000
  70
    32
  0
VERTEX
  8
レイヤ__1
  5
C2F
 10
7.19699
 20
3.61993
 30
0.000000
  70
    32
  0
VERTEX
  8
レイヤ__1
  5
C30
 10
7.19110
 20
3.63779
 30
0.000000
  70
    32
  0
VERTEX
  8
レイヤ__1
  5
C31
 10
7.18498
 20
3.65554
 30
0.000000
  70
    32
  0
VERTEX
  8
レイヤ__1
  5
C32
 10
7.17862
 20
3.67317
 30
0.000000
  70
    32
  0
VERTEX
  8
レイヤ__1
  5
C33
 10
7.17202
 20
3.69069
 30
0.000000
  70
    32
  0
VERTEX
  8
レイヤ__1
  5
C34
 10
7.16518
 20
3.70809
 30
0.000000
  70
    32
  0
VERTEX
  8
レイヤ__1
  5
C35
 10
7.15808
 20
3.72537
 30
0.000000
  70
    32
  0
VERTEX
  8
レイヤ__1
  5
C36
 10
7.15074
 20
3.74253
 30
0.000000
  70
    32
  0
VERTEX
  8
レイヤ__1
  5
C37
 10
7.14313
 20
3.75957
 30
0.000000
  70
    32
  0
VERTEX
  8
レイヤ__1
  5
C38
 10
7.13527
 20
3.77647
 30
0.000000
  70
    32
  0
VERTEX
  8
レイヤ__1
  5
C39
 10
7.12714
 20
3.79325
 30
0.000000
  70
    32
  0
VERTEX
  8
レイヤ__1
  5
C3A
 10
7.11874
 20
3.80990
 30
0.000000
  70
    32
  0
VERTEX
  8
レイヤ__1
  5
C3B
 10
7.11007
 20
3.82641
 30
0.000000
  70
    32
  0
VERTEX
  8
レイヤ__1
  5
C3C
 10
7.10112
 20
3.84279
 30
0.000000
  70
    32
  0
VERTEX
  8
レイヤ__1
  5
C3D
 10
7.09189
 20
3.85903
 30
0.000000
  70
    32
  0
VERTEX
  8
レイヤ__1
  5
C3E
 10
7.08237
 20
3.87512
 30
0.000000
  70
    32
  0
VERTEX
  8
レイヤ__1
  5
C3F
 10
7.07257
 20
3.89108
 30
0.000000
  70
    32
  0
VERTEX
  8
レイヤ__1
  5
C40
 10
7.06247
 20
3.90689
 30
0.000000
  70
    32
  0
VERTEX
  8
レイヤ__1
  5
C41
 10
7.05207
 20
3.92256
 30
0.000000
  70
    32
  0
VERTEX
  8
レイヤ__1
  5
C42
 10
7.04137
 20
3.93807
 30
0.000000
  70
    32
  0
VERTEX
  8
レイヤ__1
  5
C43
 10
7.03036
 20
3.95343
 30
0.000000
  70
    32
  0
VERTEX
  8
レイヤ__1
  5
C44
 10
7.01904
 20
3.96864
 30
0.000000
  70
    32
  0
VERTEX
  8
レイヤ__1
  5
C45
 10
7.00741
 20
3.98370
 30
0.000000
  70
    32
  0
VERTEX
  8
レイヤ__1
  5
C46
 10
6.99546
 20
3.99859
 30
0.000000
  70
    32
  0
VERTEX
  8
レイヤ__1
  5
C47
 10
6.98319
 20
4.01333
 30
0.000000
  70
    32
  0
VERTEX
  8
レイヤ__1
  5
C48
 10
6.97059
 20
4.02790
 30
0.000000
  70
    32
  0
VERTEX
  8
レイヤ__1
  5
C49
 10
6.95766
 20
4.04231
 30
0.000000
  70
    32
  0
VERTEX
  8
レイヤ__1
  5
C4A
 10
6.94439
 20
4.05655
 30
0.000000
  70
    32
  0
VERTEX
  8
レイヤ__1
  5
C4B
 10
6.93079
 20
4.07062
 30
0.000000
  70
    32
  0
VERTEX
  8
レイヤ__1
  5
C4C
 10
6.91684
 20
4.08453
 30
0.000000
  70
    32
  0
VERTEX
  8
レイヤ__1
  5
C4D
 10
6.90254
 20
4.09825
 30
0.000000
  70
    32
  0
VERTEX
  8
レイヤ__1
  5
C4E
 10
6.88790
 20
4.11180
 30
0.000000
  70
    32
  0
VERTEX
  8
レイヤ__1
  5
C4F
 10
6.87289
 20
4.12517
 30
0.000000
  70
    32
  0
VERTEX
  8
レイヤ__1
  5
C50
 10
6.85753
 20
4.13837
 30
0.000000
  70
    32
  0
VERTEX
  8
レイヤ__1
  5
C51
 10
6.84181
 20
4.15138
 30
0.000000
  70
    32
  0
VERTEX
  8
レイヤ__1
  5
C52
 10
6.82571
 20
4.16420
 30
0.000000
  70
    32
  0
VERTEX
  8
レイヤ__1
  5
C53
 10
6.80925
 20
4.17684
 30
0.000000
  70
    32
  0
VERTEX
  8
レイヤ__1
  5
C54
 10
6.79241
 20
4.18928
 30
0.000000
  70
    32
  0
VERTEX
  8
レイヤ__1
  5
C55
 10
6.77519
 20
4.20154
 30
0.000000
  70
    32
  0
VERTEX
  8
レイヤ__1
  5
C56
 10
6.75758
 20
4.21360
 30
0.000000
  70
    32
  0
VERTEX
  8
レイヤ__1
  5
C57
 10
6.73959
 20
4.22547
 30
0.000000
  70
    32
  0
VERTEX
  8
レイヤ__1
  5
C58
 10
6.72120
 20
4.23714
 30
0.000000
  70
    32
  0
VERTEX
  8
レイヤ__1
  5
C59
 10
6.70242
 20
4.24860
 30
0.000000
  70
    32
  0
VERTEX
  8
レイヤ__1
  5
C5A
 10
6.68323
 20
4.25987
 30
0.000000
  70
    32
  0
VERTEX
  8
レイヤ__1
  5
C5B
 10
6.66365
 20
4.27093
 30
0.000000
  70
    32
  0
VERTEX
  8
レイヤ__1
  5
C5C
 10
6.64365
 20
4.28178
 30
0.000000
  70
    32
  0
VERTEX
  8
レイヤ__1
  5
C5D
 10
6.62324
 20
4.29242
 30
0.000000
  70
    32
  0
VERTEX
  8
レイヤ__1
  5
C5E
 10
6.60241
 20
4.30285
 30
0.000000
  70
    32
  0
VERTEX
  8
レイヤ__1
  5
C5F
 10
6.58116
 20
4.31307
 30
0.000000
  70
    32
  0
VERTEX
  8
レイヤ__1
  5
C60
 10
6.55949
 20
4.32307
 30
0.000000
  70
    32
  0
VERTEX
  8
レイヤ__1
  5
C61
 10
6.53739
 20
4.33285
 30
0.000000
  70
    32
  0
VERTEX
  8
レイヤ__1
  5
C62
 10
6.51485
 20
4.34241
 30
0.000000
  70
    32
  0
VERTEX
  8
レイヤ__1
  5
C63
 10
6.49187
 20
4.35175
 30
0.000000
  70
    32
  0
VERTEX
  8
レイヤ__1
  5
C64
 10
6.46846
 20
4.36087
 30
0.000000
  70
    32
  0
VERTEX
  8
レイヤ__1
  5
C65
 10
6.44460
 20
4.36975
 30
0.000000
  70
    32
  0
VERTEX
  8
レイヤ__1
  5
C66
 10
6.42029
 20
4.37841
 30
0.000000
  70
    32
  0
VERTEX
  8
レイヤ__1
  5
C67
 10
6.39552
 20
4.38683
 30
0.000000
  70
    32
  0
VERTEX
  8
レイヤ__1
  5
C68
 10
6.37030
 20
4.39503
 30
0.000000
  70
    32
  0
VERTEX
  8
レイヤ__1
  5
C69
 10
6.34461
 20
4.40298
 30
0.000000
  70
    32
  0
VERTEX
  8
レイヤ__1
  5
C6A
 10
6.31846
 20
4.41070
 30
0.000000
  70
    32
  0
VERTEX
  8
レイヤ__1
  5
C6B
 10
6.29183
 20
4.41817
 30
0.000000
  70
    32
  0
VERTEX
  8
レイヤ__1
  5
C6C
 10
6.26474
 20
4.42540
 30
0.000000
  70
    32
  0
VERTEX
  8
レイヤ__1
  5
C6D
 10
6.23716
 20
4.43239
 30
0.000000
  70
    32
  0
VERTEX
  8
レイヤ__1
  5
C6E
 10
6.20910
 20
4.43913
 30
0.000000
  70
    32
  0
VERTEX
  8
レイヤ__1
  5
C6F
 10
6.18056
 20
4.44562
 30
0.000000
  70
    32
  0
VERTEX
  8
レイヤ__1
  5
C70
 10
6.15152
 20
4.45186
 30
0.000000
  70
    32
  0
VERTEX
  8
レイヤ__1
  5
C71
 10
6.12199
 20
4.45784
 30
0.000000
  70
    32
  0
VERTEX
  8
レイヤ__1
  5
C72
 10
6.09196
 20
4.46357
 30
0.000000
  70
    32
  0
VERTEX
  8
レイヤ__1
  5
C73
 10
6.06143
 20
4.46904
 30
0.000000
  70
    32
  0
VERTEX
  8
レイヤ__1
  5
C74
 10
6.03038
 20
4.47424
 30
0.000000
  70
    32
  0
VERTEX
  8
レイヤ__1
  5
C75
 10
5.99883
 20
4.47919
 30
0.000000
  70
    32
  0
VERTEX
  8
レイヤ__1
  5
C76
 10
5.96676
 20
4.48387
 30
0.000000
  70
    32
  0
VERTEX
  8
レイヤ__1
  5
C77
 10
5.93417
 20
4.48828
 30
0.000000
  70
    32
  0
VERTEX
  8
レイヤ__1
  5
C78
 10
5.90106
 20
4.49242
 30
0.000000
  70
    32
  0
VERTEX
  8
レイヤ__1
  5
C79
 10
5.86742
 20
4.49629
 30
0.000000
  70
    32
  0
VERTEX
  8
レイヤ__1
  5
C7A
 10
5.83325
 20
4.49989
 30
0.000000
  70
    32
  0
VERTEX
  8
レイヤ__1
  5
C7B
 10
5.79854
 20
4.50321
 30
0.000000
  70
    32
  0
VERTEX
  8
レイヤ__1
  5
C7C
 10
5.76330
 20
4.50625
 30
0.000000
  70
    32
  0
VERTEX
  8
レイヤ__1
  5
C7D
 10
5.72750
 20
4.50901
 30
0.000000
  70
    32
  0
VERTEX
  8
レイヤ__1
  5
C7E
 10
5.69116
 20
4.51148
 30
0.000000
  70
    32
  0
VERTEX
  8
レイヤ__1
  5
C7F
 10
5.65427
 20
4.51368
 30
0.000000
  70
    32
  0
VERTEX
  8
レイヤ__1
  5
C80
 10
5.61682
 20
4.51558
 30
0.000000
  70
    32
  0
VERTEX
  8
レイヤ__1
  5
C81
 10
5.57881
 20
4.51719
 30
0.000000
  70
    32
  0
VERTEX
  8
レイヤ__1
  5
C82
 10
5.54023
 20
4.51851
 30
0.000000
  70
    32
  0
VERTEX
  8
レイヤ__1
  5
C83
 10
5.50109
 20
4.51954
 30
0.000000
  70
    32
  0
VERTEX
  8
レイヤ__1
  5
C84
 10
5.46137
 20
4.52027
 30
0.000000
  70
    32
  0
VERTEX
  8
レイヤ__1
  5
C85
 10
5.42108
 20
4.52070
 30
0.000000
  70
    32
  0
VERTEX
  8
レイヤ__1
  5
C86
 10
5.38020
 20
4.52083
 30
0.000000
  70
    32
  0
SEQEND
  8
レイヤ__1
  5
C87
  0
POLYLINE
  8
レイヤ__1
  5
C88
  62
5
  66
     1
 10
0.000000
 20
0.000000
 30
0.000000
  70
     8
  0
VERTEX
  8
レイヤ__1
  5
C89
 10
4.39130
 20
-0.774440
 30
0.000000
  70
    32
  0
VERTEX
  8
レイヤ__1
  5
C8A
 10
4.41395
 20
-0.774412
 30
0.000000
  70
    32
  0
VERTEX
  8
レイヤ__1
  5
C8B
 10
4.43676
 20
-0.774327
 30
0.000000
  70
    32
  0
VERTEX
  8
レイヤ__1
  5
C8C
 10
4.45974
 20
-0.774181
 30
0.000000
  70
    32
  0
VERTEX
  8
レイヤ__1
  5
C8D
 10
4.48288
 20
-0.773969
 30
0.000000
  70
    32
  0
VERTEX
  8
レイヤ__1
  5
C8E
 10
4.50618
 20
-0.773690
 30
0.000000
  70
    32
  0
VERTEX
  8
レイヤ__1
  5
C8F
 10
4.52963
 20
-0.773338
 30
0.000000
  70
    32
  0
VERTEX
  8
レイヤ__1
  5
C90
 10
4.55323
 20
-0.772911
 30
0.000000
  70
    32
  0
VERTEX
  8
レイヤ__1
  5
C91
 10
4.57697
 20
-0.772405
 30
0.000000
  70
    32
  0
VERTEX
  8
レイヤ__1
  5
C92
 10
4.60085
 20
-0.771816
 30
0.000000
  70
    32
  0
VERTEX
  8
レイヤ__1
  5
C93
 10
4.62486
 20
-0.771141
 30
0.000000
  70
    32
  0
VERTEX
  8
レイヤ__1
  5
C94
 10
4.64900
 20
-0.770376
 30
0.000000
  70
    32
  0
VERTEX
  8
レイヤ__1
  5
C95
 10
4.67326
 20
-0.769517
 30
0.000000
  70
    32
  0
VERTEX
  8
レイヤ__1
  5
C96
 10
4.69765
 20
-0.768562
 30
0.000000
  70
    32
  0
VERTEX
  8
レイヤ__1
  5
C97
 10
4.72215
 20
-0.767505
 30
0.000000
  70
    32
  0
VERTEX
  8
レイヤ__1
  5
C98
 10
4.74675
 20
-0.766344
 30
0.000000
  70
    32
  0
VERTEX
  8
レイヤ__1
  5
C99
 10
4.77146
 20
-0.765076
 30
0.000000
  70
    32
  0
VERTEX
  8
レイヤ__1
  5
C9A
 10
4.79628
 20
-0.763696
 30
0.000000
  70
    32
  0
VERTEX
  8
レイヤ__1
  5
C9B
 10
4.82118
 20
-0.762200
 30
0.000000
  70
    32
  0
VERTEX
  8
レイヤ__1
  5
C9C
 10
4.84618
 20
-0.760586
 30
0.000000
  70
    32
  0
VERTEX
  8
レイヤ__1
  5
C9D
 10
4.87127
 20
-0.758850
 30
0.000000
  70
    32
  0
VERTEX
  8
レイヤ__1
  5
C9E
 10
4.89643
 20
-0.756988
 30
0.000000
  70
    32
  0
VERTEX
  8
レイヤ__1
  5
C9F
 10
4.92167
 20
-0.754997
 30
0.000000
  70
    32
  0
VERTEX
  8
レイヤ__1
  5
CA0
 10
4.94699
 20
-0.752872
 30
0.000000
  70
    32
  0
VERTEX
  8
レイヤ__1
  5
CA1
 10
4.97237
 20
-0.750611
 30
0.000000
  70
    32
  0
VERTEX
  8
レイヤ__1
  5
CA2
 10
4.99781
 20
-0.748210
 30
0.000000
  70
    32
  0
VERTEX
  8
レイヤ__1
  5
CA3
 10
5.02331
 20
-0.745665
 30
0.000000
  70
    32
  0
VERTEX
  8
レイヤ__1
  5
CA4
 10
5.04886
 20
-0.742972
 30
0.000000
  70
    32
  0
VERTEX
  8
レイヤ__1
  5
CA5
 10
5.07446
 20
-0.740128
 30
0.000000
  70
    32
  0
VERTEX
  8
レイヤ__1
  5
CA6
 10
5.10010
 20
-0.737130
 30
0.000000
  70
    32
  0
VERTEX
  8
レイヤ__1
  5
CA7
 10
5.12578
 20
-0.733974
 30
0.000000
  70
    32
  0
VERTEX
  8
レイヤ__1
  5
CA8
 10
5.15150
 20
-0.730656
 30
0.000000
  70
    32
  0
VERTEX
  8
レイヤ__1
  5
CA9
 10
5.17724
 20
-0.727172
 30
0.000000
  70
    32
  0
VERTEX
  8
レイヤ__1
  5
CAA
 10
5.20301
 20
-0.723519
 30
0.000000
  70
    32
  0
VERTEX
  8
レイヤ__1
  5
CAB
 10
5.22879
 20
-0.719694
 30
0.000000
  70
    32
  0
VERTEX
  8
レイヤ__1
  5
CAC
 10
5.25459
 20
-0.715693
 30
0.000000
  70
    32
  0
VERTEX
  8
レイヤ__1
  5
CAD
 10
5.28041
 20
-0.711512
 30
0.000000
  70
    32
  0
VERTEX
  8
レイヤ__1
  5
CAE
 10
5.30622
 20
-0.707148
 30
0.000000
  70
    32
  0
VERTEX
  8
レイヤ__1
  5
CAF
 10
5.33204
 20
-0.702596
 30
0.000000
  70
    32
  0
VERTEX
  8
レイヤ__1
  5
CB0
 10
5.35785
 20
-0.697854
 30
0.000000
  70
    32
  0
VERTEX
  8
レイヤ__1
  5
CB1
 10
5.38365
 20
-0.692918
 30
0.000000
  70
    32
  0
VERTEX
  8
レイヤ__1
  5
CB2
 10
5.40944
 20
-0.687785
 30
0.000000
  70
    32
  0
VERTEX
  8
レイヤ__1
  5
CB3
 10
5.43521
 20
-0.682450
 30
0.000000
  70
    32
  0
VERTEX
  8
レイヤ__1
  5
CB4
 10
5.46096
 20
-0.676910
 30
0.000000
  70
    32
  0
VERTEX
  8
レイヤ__1
  5
CB5
 10
5.48668
 20
-0.671161
 30
0.000000
  70
    32
  0
VERTEX
  8
レイヤ__1
  5
CB6
 10
5.51237
 20
-0.665201
 30
0.000000
  70
    32
  0
VERTEX
  8
レイヤ__1
  5
CB7
 10
5.53802
 20
-0.659025
 30
0.000000
  70
    32
  0
VERTEX
  8
レイヤ__1
  5
CB8
 10
5.56362
 20
-0.652629
 30
0.000000
  70
    32
  0
VERTEX
  8
レイヤ__1
  5
CB9
 10
5.58918
 20
-0.646011
 30
0.000000
  70
    32
  0
VERTEX
  8
レイヤ__1
  5
CBA
 10
5.61469
 20
-0.639166
 30
0.000000
  70
    32
  0
VERTEX
  8
レイヤ__1
  5
CBB
 10
5.64014
 20
-0.632091
 30
0.000000
  70
    32
  0
VERTEX
  8
レイヤ__1
  5
CBC
 10
5.66553
 20
-0.624783
 30
0.000000
  70
    32
  0
VERTEX
  8
レイヤ__1
  5
CBD
 10
5.69085
 20
-0.617237
 30
0.000000
  70
    32
  0
VERTEX
  8
レイヤ__1
  5
CBE
 10
5.71611
 20
-0.609450
 30
0.000000
  70
    32
  0
VERTEX
  8
レイヤ__1
  5
CBF
 10
5.74128
 20
-0.601419
 30
0.000000
  70
    32
  0
VERTEX
  8
レイヤ__1
  5
CC0
 10
5.76638
 20
-0.593140
 30
0.000000
  70
    32
  0
VERTEX
  8
レイヤ__1
  5
CC1
 10
5.79139
 20
-0.584609
 30
0.000000
  70
    32
  0
VERTEX
  8
レイヤ__1
  5
CC2
 10
5.81631
 20
-0.575823
 30
0.000000
  70
    32
  0
VERTEX
  8
レイヤ__1
  5
CC3
 10
5.84114
 20
-0.566779
 30
0.000000
  70
    32
  0
VERTEX
  8
レイヤ__1
  5
CC4
 10
5.86587
 20
-0.557472
 30
0.000000
  70
    32
  0
VERTEX
  8
レイヤ__1
  5
CC5
 10
5.89049
 20
-0.547898
 30
0.000000
  70
    32
  0
VERTEX
  8
レイヤ__1
  5
CC6
 10
5.91501
 20
-0.538056
 30
0.000000
  70
    32
  0
VERTEX
  8
レイヤ__1
  5
CC7
 10
5.93941
 20
-0.527940
 30
0.000000
  70
    32
  0
VERTEX
  8
レイヤ__1
  5
CC8
 10
5.96369
 20
-0.517547
 30
0.000000
  70
    32
  0
VERTEX
  8
レイヤ__1
  5
CC9
 10
5.98785
 20
-0.506874
 30
0.000000
  70
    32
  0
VERTEX
  8
レイヤ__1
  5
CCA
 10
6.01188
 20
-0.495917
 30
0.000000
  70
    32
  0
VERTEX
  8
レイヤ__1
  5
CCB
 10
6.03578
 20
-0.484673
 30
0.000000
  70
    32
  0
VERTEX
  8
レイヤ__1
  5
CCC
 10
6.05954
 20
-0.473137
 30
0.000000
  70
    32
  0
VERTEX
  8
レイヤ__1
  5
CCD
 10
6.08316
 20
-0.461307
 30
0.000000
  70
    32
  0
VERTEX
  8
レイヤ__1
  5
CCE
 10
6.10664
 20
-0.449178
 30
0.000000
  70
    32
  0
VERTEX
  8
レイヤ__1
  5
CCF
 10
6.12996
 20
-0.436747
 30
0.000000
  70
    32
  0
VERTEX
  8
レイヤ__1
  5
CD0
 10
6.15312
 20
-0.424011
 30
0.000000
  70
    32
  0
VERTEX
  8
レイヤ__1
  5
CD1
 10
6.17613
 20
-0.410966
 30
0.000000
  70
    32
  0
VERTEX
  8
レイヤ__1
  5
CD2
 10
6.19897
 20
-0.397608
 30
0.000000
  70
    32
  0
VERTEX
  8
レイヤ__1
  5
CD3
 10
6.22164
 20
-0.383934
 30
0.000000
  70
    32
  0
VERTEX
  8
レイヤ__1
  5
CD4
 10
6.24413
 20
-0.369939
 30
0.000000
  70
    32
  0
VERTEX
  8
レイヤ__1
  5
CD5
 10
6.26644
 20
-0.355622
 30
0.000000
  70
    32
  0
VERTEX
  8
レイヤ__1
  5
CD6
 10
6.28857
 20
-0.340977
 30
0.000000
  70
    32
  0
VERTEX
  8
レイヤ__1
  5
CD7
 10
6.31051
 20
-0.326002
 30
0.000000
  70
    32
  0
VERTEX
  8
レイヤ__1
  5
CD8
 10
6.33225
 20
-0.310692
 30
0.000000
  70
    32
  0
VERTEX
  8
レイヤ__1
  5
CD9
 10
6.35380
 20
-0.295044
 30
0.000000
  70
    32
  0
VERTEX
  8
レイヤ__1
  5
CDA
 10
6.37514
 20
-0.279055
 30
0.000000
  70
    32
  0
VERTEX
  8
レイヤ__1
  5
CDB
 10
6.39627
 20
-0.262721
 30
0.000000
  70
    32
  0
VERTEX
  8
レイヤ__1
  5
CDC
 10
6.41719
 20
-0.246039
 30
0.000000
  70
    32
  0
VERTEX
  8
レイヤ__1
  5
CDD
 10
6.43789
 20
-0.229004
 30
0.000000
  70
    32
  0
VERTEX
  8
レイヤ__1
  5
CDE
 10
6.45837
 20
-0.211613
 30
0.000000
  70
    32
  0
VERTEX
  8
レイヤ__1
  5
CDF
 10
6.47863
 20
-0.193863
 30
0.000000
  70
    32
  0
VERTEX
  8
レイヤ__1
  5
CE0
 10
6.49864
 20
-0.175750
 30
0.000000
  70
    32
  0
VERTEX
  8
レイヤ__1
  5
CE1
 10
6.51843
 20
-0.157270
 30
0.000000
  70
    32
  0
VERTEX
  8
レイヤ__1
  5
CE2
 10
6.53797
 20
-0.138420
 30
0.000000
  70
    32
  0
VERTEX
  8
レイヤ__1
  5
CE3
 10
6.55726
 20
-0.119197
 30
0.000000
  70
    32
  0
VERTEX
  8
レイヤ__1
  5
CE4
 10
6.57630
 20
-0.0995956
 30
0.000000
  70
    32
  0
VERTEX
  8
レイヤ__1
  5
CE5
 10
6.59509
 20
-0.0796136
 30
0.000000
  70
    32
  0
VERTEX
  8
レイヤ__1
  5
CE6
 10
6.61362
 20
-0.0592470
 30
0.000000
  70
    32
  0
VERTEX
  8
レイヤ__1
  5
CE7
 10
6.63188
 20
-0.0384922
 30
0.000000
  70
    32
  0
VERTEX
  8
レイヤ__1
  5
CE8
 10
6.64987
 20
-0.0173456
 30
0.000000
  70
    32
  0
VERTEX
  8
レイヤ__1
  5
CE9
 10
6.66758
 20
0.00419626
 30
0.000000
  70
    32
  0
VERTEX
  8
レイヤ__1
  5
CEA
 10
6.68502
 20
0.0261371
 30
0.000000
  70
    32
  0
VERTEX
  8
レイヤ__1
  5
CEB
 10
6.70217
 20
0.0484804
 30
0.000000
  70
    32
  0
VERTEX
  8
レイヤ__1
  5
CEC
 10
6.71903
 20
0.0712299
 30
0.000000
  70
    32
  0
VERTEX
  8
レイヤ__1
  5
CED
 10
6.73560
 20
0.0943891
 30
0.000000
  70
    32
  0
VERTEX
  8
レイヤ__1
  5
CEE
 10
6.75187
 20
0.117962
 30
0.000000
  70
    32
  0
VERTEX
  8
レイヤ__1
  5
CEF
 10
6.76784
 20
0.141951
 30
0.000000
  70
    32
  0
VERTEX
  8
レイヤ__1
  5
CF0
 10
6.78349
 20
0.166361
 30
0.000000
  70
    32
  0
VERTEX
  8
レイヤ__1
  5
CF1
 10
6.79884
 20
0.191195
 30
0.000000
  70
    32
  0
VERTEX
  8
レイヤ__1
  5
CF2
 10
6.81387
 20
0.216457
 30
0.000000
  70
    32
  0
VERTEX
  8
レイヤ__1
  5
CF3
 10
6.82857
 20
0.242150
 30
0.000000
  70
    32
  0
VERTEX
  8
レイヤ__1
  5
CF4
 10
6.84295
 20
0.268278
 30
0.000000
  70
    32
  0
VERTEX
  8
レイヤ__1
  5
CF5
 10
6.85699
 20
0.294844
 30
0.000000
  70
    32
  0
VERTEX
  8
レイヤ__1
  5
CF6
 10
6.87070
 20
0.321852
 30
0.000000
  70
    32
  0
VERTEX
  8
レイヤ__1
  5
CF7
 10
6.88407
 20
0.349306
 30
0.000000
  70
    32
  0
VERTEX
  8
レイヤ__1
  5
CF8
 10
6.89709
 20
0.377210
 30
0.000000
  70
    32
  0
VERTEX
  8
レイヤ__1
  5
CF9
 10
6.90976
 20
0.405566
 30
0.000000
  70
    32
  0
VERTEX
  8
レイヤ__1
  5
CFA
 10
6.92208
 20
0.434378
 30
0.000000
  70
    32
  0
VERTEX
  8
レイヤ__1
  5
CFB
 10
6.93403
 20
0.463651
 30
0.000000
  70
    32
  0
VERTEX
  8
レイヤ__1
  5
CFC
 10
6.94562
 20
0.493387
 30
0.000000
  70
    32
  0
VERTEX
  8
レイヤ__1
  5
CFD
 10
6.95684
 20
0.523590
 30
0.000000
  70
    32
  0
VERTEX
  8
レイヤ__1
  5
CFE
 10
6.96768
 20
0.554265
 30
0.000000
  70
    32
  0
VERTEX
  8
レイヤ__1
  5
CFF
 10
6.97815
 20
0.585413
 30
0.000000
  70
    32
  0
VERTEX
  8
レイヤ__1
  5
D00
 10
6.98823
 20
0.617040
 30
0.000000
  70
    32
  0
VERTEX
  8
レイヤ__1
  5
D01
 10
6.99792
 20
0.649148
 30
0.000000
  70
    32
  0
VERTEX
  8
レイヤ__1
  5
D02
 10
7.00722
 20
0.681741
 30
0.000000
  70
    32
  0
VERTEX
  8
レイヤ__1
  5
D03
 10
7.01612
 20
0.714824
 30
0.000000
  70
    32
  0
VERTEX
  8
レイヤ__1
  5
D04
 10
7.02462
 20
0.748398
 30
0.000000
  70
    32
  0
VERTEX
  8
レイヤ__1
  5
D05
 10
7.03271
 20
0.782469
 30
0.000000
  70
    32
  0
VERTEX
  8
レイヤ__1
  5
D06
 10
7.04038
 20
0.817039
 30
0.000000
  70
    32
  0
VERTEX
  8
レイヤ__1
  5
D07
 10
7.04764
 20
0.852112
 30
0.000000
  70
    32
  0
VERTEX
  8
レイヤ__1
  5
D08
 10
7.05448
 20
0.887692
 30
0.000000
  70
    32
  0
SEQEND
  8
レイヤ__1
  5
D09
  0
POLYLINE
  8
レイヤ__1
  5
D0A
  62
5
  66
     1
 10
0.000000
 20
0.000000
 30
0.000000
  70
     8
  0
VERTEX
  8
レイヤ__1
  5
D0B
 10
7.05448
 20
0.887692
 30
0.000000
  70
    32
  0
VERTEX
  8
レイヤ__1
  5
D0C
 10
7.05971
 20
0.917179
 30
0.000000
  70
    32
  0
VERTEX
  8
レイヤ__1
  5
D0D
 10
7.06445
 20
0.946310
 30
0.000000
  70
    32
  0
VERTEX
  8
レイヤ__1
  5
D0E
 10
7.06869
 20
0.975087
 30
0.000000
  70
    32
  0
VERTEX
  8
レイヤ__1
  5
D0F
 10
7.07243
 20
1.00351
 30
0.000000
  70
    32
  0
VERTEX
  8
レイヤ__1
  5
D10
 10
7.07569
 20
1.03159
 30
0.000000
  70
    32
  0
VERTEX
  8
レイヤ__1
  5
D11
 10
7.07847
 20
1.05932
 30
0.000000
  70
    32
  0
VERTEX
  8
レイヤ__1
  5
D12
 10
7.08078
 20
1.08670
 30
0.000000
  70
    32
  0
VERTEX
  8
レイヤ__1
  5
D13
 10
7.08261
 20
1.11375
 30
0.000000
  70
    32
  0
VERTEX
  8
レイヤ__1
  5
D14
 10
7.08398
 20
1.14045
 30
0.000000
  70
    32
  0
VERTEX
  8
レイヤ__1
  5
D15
 10
7.08489
 20
1.16682
 30
0.000000
  70
    32
  0
VERTEX
  8
レイヤ__1
  5
D16
 10
7.08535
 20
1.19285
 30
0.000000
  70
    32
  0
VERTEX
  8
レイヤ__1
  5
D17
 10
7.08535
 20
1.21855
 30
0.000000
  70
    32
  0
VERTEX
  8
レイヤ__1
  5
D18
 10
7.08491
 20
1.24392
 30
0.000000
  70
    32
  0
VERTEX
  8
レイヤ__1
  5
D19
 10
7.08402
 20
1.26897
 30
0.000000
  70
    32
  0
VERTEX
  8
レイヤ__1
  5
D1A
 10
7.08271
 20
1.29369
 30
0.000000
  70
    32
  0
VERTEX
  8
レイヤ__1
  5
D1B
 10
7.08096
 20
1.31808
 30
0.000000
  70
    32
  0
VERTEX
  8
レイヤ__1
  5
D1C
 10
7.07879
 20
1.34216
 30
0.000000
  70
    32
  0
VERTEX
  8
レイヤ__1
  5
D1D
 10
7.07619
 20
1.36592
 30
0.000000
  70
    32
  0
VERTEX
  8
レイヤ__1
  5
D1E
 10
7.07319
 20
1.38936
 30
0.000000
  70
    32
  0
VERTEX
  8
レイヤ__1
  5
D1F
 10
7.06977
 20
1.41249
 30
0.000000
  70
    32
  0
VERTEX
  8
レイヤ__1
  5
D20
 10
7.06595
 20
1.43532
 30
0.000000
  70
    32
  0
VERTEX
  8
レイヤ__1
  5
D21
 10
7.06173
 20
1.45783
 30
0.000000
  70
    32
  0
VERTEX
  8
レイヤ__1
  5
D22
 10
7.05711
 20
1.48004
 30
0.000000
  70
    32
  0
VERTEX
  8
レイヤ__1
  5
D23
 10
7.05210
 20
1.50194
 30
0.000000
  70
    32
  0
VERTEX
  8
レイヤ__1
  5
D24
 10
7.04671
 20
1.52354
 30
0.000000
  70
    32
  0
VERTEX
  8
レイヤ__1
  5
D25
 10
7.04094
 20
1.54485
 30
0.000000
  70
    32
  0
VERTEX
  8
レイヤ__1
  5
D26
 10
7.03480
 20
1.56586
 30
0.000000
  70
    32
  0
VERTEX
  8
レイヤ__1
  5
D27
 10
7.02828
 20
1.58658
 30
0.000000
  70
    32
  0
VERTEX
  8
レイヤ__1
  5
D28
 10
7.02141
 20
1.60700
 30
0.000000
  70
    32
  0
VERTEX
  8
レイヤ__1
  5
D29
 10
7.01417
 20
1.62714
 30
0.000000
  70
    32
  0
VERTEX
  8
レイヤ__1
  5
D2A
 10
7.00658
 20
1.64699
 30
0.000000
  70
    32
  0
VERTEX
  8
レイヤ__1
  5
D2B
 10
6.99864
 20
1.66656
 30
0.000000
  70
    32
  0
VERTEX
  8
レイヤ__1
  5
D2C
 10
6.99035
 20
1.68584
 30
0.000000
  70
    32
  0
VERTEX
  8
レイヤ__1
  5
D2D
 10
6.98173
 20
1.70485
 30
0.000000
  70
    32
  0
VERTEX
  8
レイヤ__1
  5
D2E
 10
6.97277
 20
1.72358
 30
0.000000
  70
    32
  0
VERTEX
  8
レイヤ__1
  5
D2F
 10
6.96348
 20
1.74204
 30
0.000000
  70
    32
  0
VERTEX
  8
レイヤ__1
  5
D30
 10
6.95387
 20
1.76023
 30
0.000000
  70
    32
  0
VERTEX
  8
レイヤ__1
  5
D31
 10
6.94394
 20
1.77814
 30
0.000000
  70
    32
  0
VERTEX
  8
レイヤ__1
  5
D32
 10
6.93370
 20
1.79579
 30
0.000000
  70
    32
  0
VERTEX
  8
レイヤ__1
  5
D33
 10
6.92314
 20
1.81318
 30
0.000000
  70
    32
  0
VERTEX
  8
レイヤ__1
  5
D34
 10
6.91229
 20
1.83030
 30
0.000000
  70
    32
  0
VERTEX
  8
レイヤ__1
  5
D35
 10
6.90113
 20
1.84716
 30
0.000000
  70
    32
  0
VERTEX
  8
レイヤ__1
  5
D36
 10
6.88969
 20
1.86377
 30
0.000000
  70
    32
  0
VERTEX
  8
レイヤ__1
  5
D37
 10
6.87795
 20
1.88012
 30
0.000000
  70
    32
  0
VERTEX
  8
レイヤ__1
  5
D38
 10
6.86593
 20
1.89622
 30
0.000000
  70
    32
  0
VERTEX
  8
レイヤ__1
  5
D39
 10
6.85363
 20
1.91207
 30
0.000000
  70
    32
  0
VERTEX
  8
レイヤ__1
  5
D3A
 10
6.84106
 20
1.92768
 30
0.000000
  70
    32
  0
VERTEX
  8
レイヤ__1
  5
D3B
 10
6.82822
 20
1.94304
 30
0.000000
  70
    32
  0
VERTEX
  8
レイヤ__1
  5
D3C
 10
6.81511
 20
1.95815
 30
0.000000
  70
    32
  0
VERTEX
  8
レイヤ__1
  5
D3D
 10
6.80175
 20
1.97303
 30
0.000000
  70
    32
  0
VERTEX
  8
レイヤ__1
  5
D3E
 10
6.78814
 20
1.98767
 30
0.000000
  70
    32
  0
VERTEX
  8
レイヤ__1
  5
D3F
 10
6.77428
 20
2.00207
 30
0.000000
  70
    32
  0
VERTEX
  8
レイヤ__1
  5
D40
 10
6.76017
 20
2.01624
 30
0.000000
  70
    32
  0
VERTEX
  8
レイヤ__1
  5
D41
 10
6.74583
 20
2.03018
 30
0.000000
  70
    32
  0
VERTEX
  8
レイヤ__1
  5
D42
 10
6.73125
 20
2.04389
 30
0.000000
  70
    32
  0
VERTEX
  8
レイヤ__1
  5
D43
 10
6.71645
 20
2.05738
 30
0.000000
  70
    32
  0
VERTEX
  8
レイヤ__1
  5
D44
 10
6.70142
 20
2.07064
 30
0.000000
  70
    32
  0
VERTEX
  8
レイヤ__1
  5
D45
 10
6.68617
 20
2.08368
 30
0.000000
  70
    32
  0
VERTEX
  8
レイヤ__1
  5
D46
 10
6.67072
 20
2.09651
 30
0.000000
  70
    32
  0
VERTEX
  8
レイヤ__1
  5
D47
 10
6.65505
 20
2.10912
 30
0.000000
  70
    32
  0
VERTEX
  8
レイヤ__1
  5
D48
 10
6.63918
 20
2.12151
 30
0.000000
  70
    32
  0
VERTEX
  8
レイヤ__1
  5
D49
 10
6.62312
 20
2.13370
 30
0.000000
  70
    32
  0
VERTEX
  8
レイヤ__1
  5
D4A
 10
6.60686
 20
2.14567
 30
0.000000
  70
    32
  0
VERTEX
  8
レイヤ__1
  5
D4B
 10
6.59041
 20
2.15744
 30
0.000000
  70
    32
  0
VERTEX
  8
レイヤ__1
  5
D4C
 10
6.57379
 20
2.16901
 30
0.000000
  70
    32
  0
VERTEX
  8
レイヤ__1
  5
D4D
 10
6.55698
 20
2.18037
 30
0.000000
  70
    32
  0
VERTEX
  8
レイヤ__1
  5
D4E
 10
6.54001
 20
2.19154
 30
0.000000
  70
    32
  0
VERTEX
  8
レイヤ__1
  5
D4F
 10
6.52286
 20
2.20251
 30
0.000000
  70
    32
  0
VERTEX
  8
レイヤ__1
  5
D50
 10
6.50556
 20
2.21328
 30
0.000000
  70
    32
  0
VERTEX
  8
レイヤ__1
  5
D51
 10
6.48809
 20
2.22386
 30
0.000000
  70
    32
  0
VERTEX
  8
レイヤ__1
  5
D52
 10
6.47048
 20
2.23426
 30
0.000000
  70
    32
  0
VERTEX
  8
レイヤ__1
  5
D53
 10
6.45272
 20
2.24447
 30
0.000000
  70
    32
  0
VERTEX
  8
レイヤ__1
  5
D54
 10
6.43481
 20
2.25449
 30
0.000000
  70
    32
  0
VERTEX
  8
レイヤ__1
  5
D55
 10
6.41677
 20
2.26433
 30
0.000000
  70
    32
  0
VERTEX
  8
レイヤ__1
  5
D56
 10
6.39860
 20
2.27399
 30
0.000000
  70
    32
  0
VERTEX
  8
レイヤ__1
  5
D57
 10
6.38030
 20
2.28348
 30
0.000000
  70
    32
  0
VERTEX
  8
レイヤ__1
  5
D58
 10
6.36188
 20
2.29279
 30
0.000000
  70
    32
  0
VERTEX
  8
レイヤ__1
  5
D59
 10
6.34334
 20
2.30193
 30
0.000000
  70
    32
  0
VERTEX
  8
レイヤ__1
  5
D5A
 10
6.32469
 20
2.31089
 30
0.000000
  70
    32
  0
VERTEX
  8
レイヤ__1
  5
D5B
 10
6.30594
 20
2.31969
 30
0.000000
  70
    32
  0
VERTEX
  8
レイヤ__1
  5
D5C
 10
6.28708
 20
2.32833
 30
0.000000
  70
    32
  0
VERTEX
  8
レイヤ__1
  5
D5D
 10
6.26813
 20
2.33680
 30
0.000000
  70
    32
  0
VERTEX
  8
レイヤ__1
  5
D5E
 10
6.24908
 20
2.34512
 30
0.000000
  70
    32
  0
VERTEX
  8
レイヤ__1
  5
D5F
 10
6.22995
 20
2.35327
 30
0.000000
  70
    32
  0
VERTEX
  8
レイヤ__1
  5
D60
 10
6.21074
 20
2.36127
 30
0.000000
  70
    32
  0
VERTEX
  8
レイヤ__1
  5
D61
 10
6.19145
 20
2.36912
 30
0.000000
  70
    32
  0
VERTEX
  8
レイヤ__1
  5
D62
 10
6.17209
 20
2.37682
 30
0.000000
  70
    32
  0
VERTEX
  8
レイヤ__1
  5
D63
 10
6.15267
 20
2.38436
 30
0.000000
  70
    32
  0
VERTEX
  8
レイヤ__1
  5
D64
 10
6.13318
 20
2.39177
 30
0.000000
  70
    32
  0
VERTEX
  8
レイヤ__1
  5
D65
 10
6.11364
 20
2.39903
 30
0.000000
  70
    32
  0
VERTEX
  8
レイヤ__1
  5
D66
 10
6.09404
 20
2.40615
 30
0.000000
  70
    32
  0
VERTEX
  8
レイヤ__1
  5
D67
 10
6.07441
 20
2.41313
 30
0.000000
  70
    32
  0
VERTEX
  8
レイヤ__1
  5
D68
 10
6.05473
 20
2.41997
 30
0.000000
  70
    32
  0
VERTEX
  8
レイヤ__1
  5
D69
 10
6.03501
 20
2.42669
 30
0.000000
  70
    32
  0
VERTEX
  8
レイヤ__1
  5
D6A
 10
6.01526
 20
2.43327
 30
0.000000
  70
    32
  0
VERTEX
  8
レイヤ__1
  5
D6B
 10
5.99549
 20
2.43972
 30
0.000000
  70
    32
  0
VERTEX
  8
レイヤ__1
  5
D6C
 10
5.97570
 20
2.44604
 30
0.000000
  70
    32
  0
VERTEX
  8
レイヤ__1
  5
D6D
 10
5.95589
 20
2.45225
 30
0.000000
  70
    32
  0
VERTEX
  8
レイヤ__1
  5
D6E
 10
5.93607
 20
2.45833
 30
0.000000
  70
    32
  0
VERTEX
  8
レイヤ__1
  5
D6F
 10
5.91625
 20
2.46429
 30
0.000000
  70
    32
  0
VERTEX
  8
レイヤ__1
  5
D70
 10
5.89643
 20
2.47013
 30
0.000000
  70
    32
  0
VERTEX
  8
レイヤ__1
  5
D71
 10
5.87661
 20
2.47586
 30
0.000000
  70
    32
  0
VERTEX
  8
レイヤ__1
  5
D72
 10
5.85680
 20
2.48148
 30
0.000000
  70
    32
  0
VERTEX
  8
レイヤ__1
  5
D73
 10
5.83700
 20
2.48699
 30
0.000000
  70
    32
  0
VERTEX
  8
レイヤ__1
  5
D74
 10
5.81723
 20
2.49240
 30
0.000000
  70
    32
  0
VERTEX
  8
レイヤ__1
  5
D75
 10
5.79748
 20
2.49770
 30
0.000000
  70
    32
  0
VERTEX
  8
レイヤ__1
  5
D76
 10
5.77776
 20
2.50289
 30
0.000000
  70
    32
  0
VERTEX
  8
レイヤ__1
  5
D77
 10
5.75808
 20
2.50799
 30
0.000000
  70
    32
  0
VERTEX
  8
レイヤ__1
  5
D78
 10
5.73843
 20
2.51299
 30
0.000000
  70
    32
  0
VERTEX
  8
レイヤ__1
  5
D79
 10
5.71883
 20
2.51790
 30
0.000000
  70
    32
  0
VERTEX
  8
レイヤ__1
  5
D7A
 10
5.69929
 20
2.52271
 30
0.000000
  70
    32
  0
VERTEX
  8
レイヤ__1
  5
D7B
 10
5.67979
 20
2.52743
 30
0.000000
  70
    32
  0
VERTEX
  8
レイヤ__1
  5
D7C
 10
5.66036
 20
2.53207
 30
0.000000
  70
    32
  0
VERTEX
  8
レイヤ__1
  5
D7D
 10
5.64099
 20
2.53662
 30
0.000000
  70
    32
  0
VERTEX
  8
レイヤ__1
  5
D7E
 10
5.62169
 20
2.54109
 30
0.000000
  70
    32
  0
VERTEX
  8
レイヤ__1
  5
D7F
 10
5.60247
 20
2.54548
 30
0.000000
  70
    32
  0
VERTEX
  8
レイヤ__1
  5
D80
 10
5.58333
 20
2.54979
 30
0.000000
  70
    32
  0
VERTEX
  8
レイヤ__1
  5
D81
 10
5.56428
 20
2.55402
 30
0.000000
  70
    32
  0
VERTEX
  8
レイヤ__1
  5
D82
 10
5.54531
 20
2.55819
 30
0.000000
  70
    32
  0
VERTEX
  8
レイヤ__1
  5
D83
 10
5.52644
 20
2.56228
 30
0.000000
  70
    32
  0
VERTEX
  8
レイヤ__1
  5
D84
 10
5.50767
 20
2.56630
 30
0.000000
  70
    32
  0
VERTEX
  8
レイヤ__1
  5
D85
 10
5.48901
 20
2.57026
 30
0.000000
  70
    32
  0
VERTEX
  8
レイヤ__1
  5
D86
 10
5.47046
 20
2.57415
 30
0.000000
  70
    32
  0
VERTEX
  8
レイヤ__1
  5
D87
 10
5.45202
 20
2.57799
 30
0.000000
  70
    32
  0
VERTEX
  8
レイヤ__1
  5
D88
 10
5.43371
 20
2.58176
 30
0.000000
  70
    32
  0
VERTEX
  8
レイヤ__1
  5
D89
 10
5.41552
 20
2.58548
 30
0.000000
  70
    32
  0
VERTEX
  8
レイヤ__1
  5
D8A
 10
5.39747
 20
2.58915
 30
0.000000
  70
    32
  0
SEQEND
  8
レイヤ__1
  5
D8B
  0
POLYLINE
  8
レイヤ__1
  5
D8C
  62
5
  66
     1
 10
0.000000
 20
0.000000
 30
0.000000
  70
     8
  0
VERTEX
  8
レイヤ__1
  5
D8D
 10
12.2150
 20
2.63387
 30
0.000000
  70
    32
  0
VERTEX
  8
レイヤ__1
  5
D8E
 10
12.2172
 20
2.64570
 30
0.000000
  70
    32
  0
VERTEX
  8
レイヤ__1
  5
D8F
 10
12.2192
 20
2.65781
 30
0.000000
  70
    32
  0
VERTEX
  8
レイヤ__1
  5
D90
 10
12.2213
 20
2.67020
 30
0.000000
  70
    32
  0
VERTEX
  8
レイヤ__1
  5
D91
 10
12.2232
 20
2.68286
 30
0.000000
  70
    32
  0
VERTEX
  8
レイヤ__1
  5
D92
 10
12.2251
 20
2.69579
 30
0.000000
  70
    32
  0
VERTEX
  8
レイヤ__1
  5
D93
 10
12.2269
 20
2.70897
 30
0.000000
  70
    32
  0
VERTEX
  8
レイヤ__1
  5
D94
 10
12.2286
 20
2.72241
 30
0.000000
  70
    32
  0
VERTEX
  8
レイヤ__1
  5
D95
 10
12.2302
 20
2.73609
 30
0.000000
  70
    32
  0
VERTEX
  8
レイヤ__1
  5
D96
 10
12.2317
 20
2.75001
 30
0.000000
  70
    32
  0
VERTEX
  8
レイヤ__1
  5
D97
 10
12.2331
 20
2.76417
 30
0.000000
  70
    32
  0
VERTEX
  8
レイヤ__1
  5
D98
 10
12.2344
 20
2.77856
 30
0.000000
  70
    32
  0
VERTEX
  8
レイヤ__1
  5
D99
 10
12.2356
 20
2.79317
 30
0.000000
  70
    32
  0
VERTEX
  8
レイヤ__1
  5
D9A
 10
12.2367
 20
2.80799
 30
0.000000
  70
    32
  0
VERTEX
  8
レイヤ__1
  5
D9B
 10
12.2377
 20
2.82303
 30
0.000000
  70
    32
  0
VERTEX
  8
レイヤ__1
  5
D9C
 10
12.2385
 20
2.83827
 30
0.000000
  70
    32
  0
VERTEX
  8
レイヤ__1
  5
D9D
 10
12.2393
 20
2.85371
 30
0.000000
  70
    32
  0
VERTEX
  8
レイヤ__1
  5
D9E
 10
12.2398
 20
2.86935
 30
0.000000
  70
    32
  0
VERTEX
  8
レイヤ__1
  5
D9F
 10
12.2403
 20
2.88517
 30
0.000000
  70
    32
  0
VERTEX
  8
レイヤ__1
  5
DA0
 10
12.2406
 20
2.90117
 30
0.000000
  70
    32
  0
VERTEX
  8
レイヤ__1
  5
DA1
 10
12.2408
 20
2.91735
 30
0.000000
  70
    32
  0
VERTEX
  8
レイヤ__1
  5
DA2
 10
12.2408
 20
2.93369
 30
0.000000
  70
    32
  0
VERTEX
  8
レイヤ__1
  5
DA3
 10
12.2407
 20
2.95020
 30
0.000000
  70
    32
  0
VERTEX
  8
レイヤ__1
  5
DA4
 10
12.2404
 20
2.96686
 30
0.000000
  70
    32
  0
VERTEX
  8
レイヤ__1
  5
DA5
 10
12.2399
 20
2.98368
 30
0.000000
  70
    32
  0
VERTEX
  8
レイヤ__1
  5
DA6
 10
12.2393
 20
3.00064
 30
0.000000
  70
    32
  0
VERTEX
  8
レイヤ__1
  5
DA7
 10
12.2385
 20
3.01774
 30
0.000000
  70
    32
  0
VERTEX
  8
レイヤ__1
  5
DA8
 10
12.2375
 20
3.03497
 30
0.000000
  70
    32
  0
VERTEX
  8
レイヤ__1
  5
DA9
 10
12.2363
 20
3.05233
 30
0.000000
  70
    32
  0
VERTEX
  8
レイヤ__1
  5
DAA
 10
12.2350
 20
3.06981
 30
0.000000
  70
    32
  0
VERTEX
  8
レイヤ__1
  5
DAB
 10
12.2334
 20
3.08740
 30
0.000000
  70
    32
  0
VERTEX
  8
レイヤ__1
  5
DAC
 10
12.2317
 20
3.10510
 30
0.000000
  70
    32
  0
VERTEX
  8
レイヤ__1
  5
DAD
 10
12.2298
 20
3.12291
 30
0.000000
  70
    32
  0
VERTEX
  8
レイヤ__1
  5
DAE
 10
12.2276
 20
3.14081
 30
0.000000
  70
    32
  0
VERTEX
  8
レイヤ__1
  5
DAF
 10
12.2253
 20
3.15880
 30
0.000000
  70
    32
  0
VERTEX
  8
レイヤ__1
  5
DB0
 10
12.2227
 20
3.17688
 30
0.000000
  70
    32
  0
VERTEX
  8
レイヤ__1
  5
DB1
 10
12.2199
 20
3.19504
 30
0.000000
  70
    32
  0
VERTEX
  8
レイヤ__1
  5
DB2
 10
12.2169
 20
3.21327
 30
0.000000
  70
    32
  0
VERTEX
  8
レイヤ__1
  5
DB3
 10
12.2137
 20
3.23157
 30
0.000000
  70
    32
  0
VERTEX
  8
レイヤ__1
  5
DB4
 10
12.2102
 20
3.24992
 30
0.000000
  70
    32
  0
VERTEX
  8
レイヤ__1
  5
DB5
 10
12.2065
 20
3.26834
 30
0.000000
  70
    32
  0
VERTEX
  8
レイヤ__1
  5
DB6
 10
12.2025
 20
3.28680
 30
0.000000
  70
    32
  0
VERTEX
  8
レイヤ__1
  5
DB7
 10
12.1983
 20
3.30530
 30
0.000000
  70
    32
  0
VERTEX
  8
レイヤ__1
  5
DB8
 10
12.1939
 20
3.32384
 30
0.000000
  70
    32
  0
VERTEX
  8
レイヤ__1
  5
DB9
 10
12.1892
 20
3.34242
 30
0.000000
  70
    32
  0
VERTEX
  8
レイヤ__1
  5
DBA
 10
12.1842
 20
3.36101
 30
0.000000
  70
    32
  0
VERTEX
  8
レイヤ__1
  5
DBB
 10
12.1790
 20
3.37963
 30
0.000000
  70
    32
  0
VERTEX
  8
レイヤ__1
  5
DBC
 10
12.1734
 20
3.39826
 30
0.000000
  70
    32
  0
VERTEX
  8
レイヤ__1
  5
DBD
 10
12.1677
 20
3.41689
 30
0.000000
  70
    32
  0
VERTEX
  8
レイヤ__1
  5
DBE
 10
12.1616
 20
3.43553
 30
0.000000
  70
    32
  0
VERTEX
  8
レイヤ__1
  5
DBF
 10
12.1553
 20
3.45416
 30
0.000000
  70
    32
  0
VERTEX
  8
レイヤ__1
  5
DC0
 10
12.1486
 20
3.47278
 30
0.000000
  70
    32
  0
VERTEX
  8
レイヤ__1
  5
DC1
 10
12.1417
 20
3.49139
 30
0.000000
  70
    32
  0
VERTEX
  8
レイヤ__1
  5
DC2
 10
12.1345
 20
3.50997
 30
0.000000
  70
    32
  0
VERTEX
  8
レイヤ__1
  5
DC3
 10
12.1270
 20
3.52852
 30
0.000000
  70
    32
  0
VERTEX
  8
レイヤ__1
  5
DC4
 10
12.1191
 20
3.54703
 30
0.000000
  70
    32
  0
VERTEX
  8
レイヤ__1
  5
DC5
 10
12.1110
 20
3.56551
 30
0.000000
  70
    32
  0
VERTEX
  8
レイヤ__1
  5
DC6
 10
12.1025
 20
3.58394
 30
0.000000
  70
    32
  0
VERTEX
  8
レイヤ__1
  5
DC7
 10
12.0937
 20
3.60231
 30
0.000000
  70
    32
  0
VERTEX
  8
レイヤ__1
  5
DC8
 10
12.0846
 20
3.62063
 30
0.000000
  70
    32
  0
VERTEX
  8
レイヤ__1
  5
DC9
 10
12.0752
 20
3.63888
 30
0.000000
  70
    32
  0
VERTEX
  8
レイヤ__1
  5
DCA
 10
12.0654
 20
3.65706
 30
0.000000
  70
    32
  0
VERTEX
  8
レイヤ__1
  5
DCB
 10
12.0553
 20
3.67516
 30
0.000000
  70
    32
  0
VERTEX
  8
レイヤ__1
  5
DCC
 10
12.0448
 20
3.69318
 30
0.000000
  70
    32
  0
VERTEX
  8
レイヤ__1
  5
DCD
 10
12.0340
 20
3.71111
 30
0.000000
  70
    32
  0
VERTEX
  8
レイヤ__1
  5
DCE
 10
12.0229
 20
3.72895
 30
0.000000
  70
    32
  0
VERTEX
  8
レイヤ__1
  5
DCF
 10
12.0113
 20
3.74668
 30
0.000000
  70
    32
  0
VERTEX
  8
レイヤ__1
  5
DD0
 10
11.9995
 20
3.76431
 30
0.000000
  70
    32
  0
VERTEX
  8
レイヤ__1
  5
DD1
 10
11.9872
 20
3.78183
 30
0.000000
  70
    32
  0
VERTEX
  8
レイヤ__1
  5
DD2
 10
11.9746
 20
3.79922
 30
0.000000
  70
    32
  0
VERTEX
  8
レイヤ__1
  5
DD3
 10
11.9616
 20
3.81649
 30
0.000000
  70
    32
  0
VERTEX
  8
レイヤ__1
  5
DD4
 10
11.9482
 20
3.83363
 30
0.000000
  70
    32
  0
VERTEX
  8
レイヤ__1
  5
DD5
 10
11.9345
 20
3.85064
 30
0.000000
  70
    32
  0
VERTEX
  8
レイヤ__1
  5
DD6
 10
11.9203
 20
3.86750
 30
0.000000
  70
    32
  0
VERTEX
  8
レイヤ__1
  5
DD7
 10
11.9058
 20
3.88421
 30
0.000000
  70
    32
  0
VERTEX
  8
レイヤ__1
  5
DD8
 10
11.8908
 20
3.90076
 30
0.000000
  70
    32
  0
VERTEX
  8
レイヤ__1
  5
DD9
 10
11.8755
 20
3.91716
 30
0.000000
  70
    32
  0
VERTEX
  8
レイヤ__1
  5
DDA
 10
11.8597
 20
3.93339
 30
0.000000
  70
    32
  0
VERTEX
  8
レイヤ__1
  5
DDB
 10
11.8435
 20
3.94944
 30
0.000000
  70
    32
  0
VERTEX
  8
レイヤ__1
  5
DDC
 10
11.8269
 20
3.96532
 30
0.000000
  70
    32
  0
VERTEX
  8
レイヤ__1
  5
DDD
 10
11.8099
 20
3.98101
 30
0.000000
  70
    32
  0
VERTEX
  8
レイヤ__1
  5
DDE
 10
11.7925
 20
3.99651
 30
0.000000
  70
    32
  0
VERTEX
  8
レイヤ__1
  5
DDF
 10
11.7746
 20
4.01181
 30
0.000000
  70
    32
  0
VERTEX
  8
レイヤ__1
  5
DE0
 10
11.7563
 20
4.02691
 30
0.000000
  70
    32
  0
VERTEX
  8
レイヤ__1
  5
DE1
 10
11.7376
 20
4.04180
 30
0.000000
  70
    32
  0
VERTEX
  8
レイヤ__1
  5
DE2
 10
11.7184
 20
4.05648
 30
0.000000
  70
    32
  0
VERTEX
  8
レイヤ__1
  5
DE3
 10
11.6987
 20
4.07093
 30
0.000000
  70
    32
  0
VERTEX
  8
レイヤ__1
  5
DE4
 10
11.6786
 20
4.08516
 30
0.000000
  70
    32
  0
VERTEX
  8
レイヤ__1
  5
DE5
 10
11.6581
 20
4.09916
 30
0.000000
  70
    32
  0
VERTEX
  8
レイヤ__1
  5
DE6
 10
11.6370
 20
4.11292
 30
0.000000
  70
    32
  0
VERTEX
  8
レイヤ__1
  5
DE7
 10
11.6155
 20
4.12643
 30
0.000000
  70
    32
  0
VERTEX
  8
レイヤ__1
  5
DE8
 10
11.5936
 20
4.13969
 30
0.000000
  70
    32
  0
VERTEX
  8
レイヤ__1
  5
DE9
 10
11.5711
 20
4.15269
 30
0.000000
  70
    32
  0
VERTEX
  8
レイヤ__1
  5
DEA
 10
11.5482
 20
4.16543
 30
0.000000
  70
    32
  0
VERTEX
  8
レイヤ__1
  5
DEB
 10
11.5248
 20
4.17791
 30
0.000000
  70
    32
  0
VERTEX
  8
レイヤ__1
  5
DEC
 10
11.5009
 20
4.19010
 30
0.000000
  70
    32
  0
VERTEX
  8
レイヤ__1
  5
DED
 10
11.4765
 20
4.20202
 30
0.000000
  70
    32
  0
VERTEX
  8
レイヤ__1
  5
DEE
 10
11.4516
 20
4.21365
 30
0.000000
  70
    32
  0
VERTEX
  8
レイヤ__1
  5
DEF
 10
11.4262
 20
4.22499
 30
0.000000
  70
    32
  0
VERTEX
  8
レイヤ__1
  5
DF0
 10
11.4003
 20
4.23602
 30
0.000000
  70
    32
  0
VERTEX
  8
レイヤ__1
  5
DF1
 10
11.3738
 20
4.24676
 30
0.000000
  70
    32
  0
VERTEX
  8
レイヤ__1
  5
DF2
 10
11.3469
 20
4.25718
 30
0.000000
  70
    32
  0
VERTEX
  8
レイヤ__1
  5
DF3
 10
11.3194
 20
4.26728
 30
0.000000
  70
    32
  0
VERTEX
  8
レイヤ__1
  5
DF4
 10
11.2914
 20
4.27707
 30
0.000000
  70
    32
  0
VERTEX
  8
レイヤ__1
  5
DF5
 10
11.2628
 20
4.28652
 30
0.000000
  70
    32
  0
VERTEX
  8
レイヤ__1
  5
DF6
 10
11.2338
 20
4.29564
 30
0.000000
  70
    32
  0
VERTEX
  8
レイヤ__1
  5
DF7
 10
11.2041
 20
4.30442
 30
0.000000
  70
    32
  0
VERTEX
  8
レイヤ__1
  5
DF8
 10
11.1740
 20
4.31285
 30
0.000000
  70
    32
  0
VERTEX
  8
レイヤ__1
  5
DF9
 10
11.1432
 20
4.32093
 30
0.000000
  70
    32
  0
VERTEX
  8
レイヤ__1
  5
DFA
 10
11.1120
 20
4.32865
 30
0.000000
  70
    32
  0
VERTEX
  8
レイヤ__1
  5
DFB
 10
11.0801
 20
4.33600
 30
0.000000
  70
    32
  0
VERTEX
  8
レイヤ__1
  5
DFC
 10
11.0477
 20
4.34298
 30
0.000000
  70
    32
  0
VERTEX
  8
レイヤ__1
  5
DFD
 10
11.0148
 20
4.34959
 30
0.000000
  70
    32
  0
VERTEX
  8
レイヤ__1
  5
DFE
 10
10.9812
 20
4.35582
 30
0.000000
  70
    32
  0
VERTEX
  8
レイヤ__1
  5
DFF
 10
10.9471
 20
4.36165
 30
0.000000
  70
    32
  0
VERTEX
  8
レイヤ__1
  5
E00
 10
10.9124
 20
4.36709
 30
0.000000
  70
    32
  0
VERTEX
  8
レイヤ__1
  5
E01
 10
10.8771
 20
4.37213
 30
0.000000
  70
    32
  0
VERTEX
  8
レイヤ__1
  5
E02
 10
10.8412
 20
4.37676
 30
0.000000
  70
    32
  0
VERTEX
  8
レイヤ__1
  5
E03
 10
10.8047
 20
4.38098
 30
0.000000
  70
    32
  0
VERTEX
  8
レイヤ__1
  5
E04
 10
10.7676
 20
4.38479
 30
0.000000
  70
    32
  0
VERTEX
  8
レイヤ__1
  5
E05
 10
10.7299
 20
4.38816
 30
0.000000
  70
    32
  0
VERTEX
  8
レイヤ__1
  5
E06
 10
10.6916
 20
4.39111
 30
0.000000
  70
    32
  0
VERTEX
  8
レイヤ__1
  5
E07
 10
10.6526
 20
4.39362
 30
0.000000
  70
    32
  0
VERTEX
  8
レイヤ__1
  5
E08
 10
10.6131
 20
4.39568
 30
0.000000
  70
    32
  0
VERTEX
  8
レイヤ__1
  5
E09
 10
10.5729
 20
4.39730
 30
0.000000
  70
    32
  0
VERTEX
  8
レイヤ__1
  5
E0A
 10
10.5321
 20
4.39846
 30
0.000000
  70
    32
  0
VERTEX
  8
レイヤ__1
  5
E0B
 10
10.4907
 20
4.39917
 30
0.000000
  70
    32
  0
VERTEX
  8
レイヤ__1
  5
E0C
 10
10.4486
 20
4.39940
 30
0.000000
  70
    32
  0
SEQEND
  8
レイヤ__1
  5
E0D
  0
POLYLINE
  8
レイヤ__1
  5
E0E
  62
5
  66
     1
 10
0.000000
 20
0.000000
 30
0.000000
  70
     8
  0
VERTEX
  8
レイヤ__1
  5
E0F
 10
17.4385
 20
2.77048
 30
0.000000
  70
    32
  0
VERTEX
  8
レイヤ__1
  5
E10
 10
17.4384
 20
2.79442
 30
0.000000
  70
    32
  0
VERTEX
  8
レイヤ__1
  5
E11
 10
17.4380
 20
2.81825
 30
0.000000
  70
    32
  0
VERTEX
  8
レイヤ__1
  5
E12
 10
17.4374
 20
2.84197
 30
0.000000
  70
    32
  0
VERTEX
  8
レイヤ__1
  5
E13
 10
17.4366
 20
2.86558
 30
0.000000
  70
    32
  0
VERTEX
  8
レイヤ__1
  5
E14
 10
17.4355
 20
2.88908
 30
0.000000
  70
    32
  0
VERTEX
  8
レイヤ__1
  5
E15
 10
17.4342
 20
2.91247
 30
0.000000
  70
    32
  0
VERTEX
  8
レイヤ__1
  5
E16
 10
17.4326
 20
2.93575
 30
0.000000
  70
    32
  0
VERTEX
  8
レイヤ__1
  5
E17
 10
17.4308
 20
2.95892
 30
0.000000
  70
    32
  0
VERTEX
  8
レイヤ__1
  5
E18
 10
17.4287
 20
2.98197
 30
0.000000
  70
    32
  0
VERTEX
  8
レイヤ__1
  5
E19
 10
17.4264
 20
3.00490
 30
0.000000
  70
    32
  0
VERTEX
  8
レイヤ__1
  5
E1A
 10
17.4239
 20
3.02772
 30
0.000000
  70
    32
  0
VERTEX
  8
レイヤ__1
  5
E1B
 10
17.4211
 20
3.05041
 30
0.000000
  70
    32
  0
VERTEX
  8
レイヤ__1
  5
E1C
 10
17.4181
 20
3.07299
 30
0.000000
  70
    32
  0
VERTEX
  8
レイヤ__1
  5
E1D
 10
17.4148
 20
3.09544
 30
0.000000
  70
    32
  0
VERTEX
  8
レイヤ__1
  5
E1E
 10
17.4113
 20
3.11777
 30
0.000000
  70
    32
  0
VERTEX
  8
レイヤ__1
  5
E1F
 10
17.4076
 20
3.13998
 30
0.000000
  70
    32
  0
VERTEX
  8
レイヤ__1
  5
E20
 10
17.4036
 20
3.16206
 30
0.000000
  70
    32
  0
VERTEX
  8
レイヤ__1
  5
E21
 10
17.3994
 20
3.18401
 30
0.000000
  70
    32
  0
VERTEX
  8
レイヤ__1
  5
E22
 10
17.3949
 20
3.20584
 30
0.000000
  70
    32
  0
VERTEX
  8
レイヤ__1
  5
E23
 10
17.3902
 20
3.22753
 30
0.000000
  70
    32
  0
VERTEX
  8
レイヤ__1
  5
E24
 10
17.3852
 20
3.24910
 30
0.000000
  70
    32
  0
VERTEX
  8
レイヤ__1
  5
E25
 10
17.3800
 20
3.27053
 30
0.000000
  70
    32
  0
VERTEX
  8
レイヤ__1
  5
E26
 10
17.3746
 20
3.29183
 30
0.000000
  70
    32
  0
VERTEX
  8
レイヤ__1
  5
E27
 10
17.3689
 20
3.31299
 30
0.000000
  70
    32
  0
VERTEX
  8
レイヤ__1
  5
E28
 10
17.3630
 20
3.33401
 30
0.000000
  70
    32
  0
VERTEX
  8
レイヤ__1
  5
E29
 10
17.3568
 20
3.35490
 30
0.000000
  70
    32
  0
VERTEX
  8
レイヤ__1
  5
E2A
 10
17.3504
 20
3.37565
 30
0.000000
  70
    32
  0
VERTEX
  8
レイヤ__1
  5
E2B
 10
17.3438
 20
3.39626
 30
0.000000
  70
    32
  0
VERTEX
  8
レイヤ__1
  5
E2C
 10
17.3369
 20
3.41673
 30
0.000000
  70
    32
  0
VERTEX
  8
レイヤ__1
  5
E2D
 10
17.3298
 20
3.43705
 30
0.000000
  70
    32
  0
VERTEX
  8
レイヤ__1
  5
E2E
 10
17.3224
 20
3.45723
 30
0.000000
  70
    32
  0
VERTEX
  8
レイヤ__1
  5
E2F
 10
17.3148
 20
3.47727
 30
0.000000
  70
    32
  0
VERTEX
  8
レイヤ__1
  5
E30
 10
17.3069
 20
3.49715
 30
0.000000
  70
    32
  0
VERTEX
  8
レイヤ__1
  5
E31
 10
17.2988
 20
3.51689
 30
0.000000
  70
    32
  0
VERTEX
  8
レイヤ__1
  5
E32
 10
17.2905
 20
3.53648
 30
0.000000
  70
    32
  0
VERTEX
  8
レイヤ__1
  5
E33
 10
17.2819
 20
3.55592
 30
0.000000
  70
    32
  0
VERTEX
  8
レイヤ__1
  5
E34
 10
17.2731
 20
3.57520
 30
0.000000
  70
    32
  0
VERTEX
  8
レイヤ__1
  5
E35
 10
17.2640
 20
3.59434
 30
0.000000
  70
    32
  0
VERTEX
  8
レイヤ__1
  5
E36
 10
17.2547
 20
3.61331
 30
0.000000
  70
    32
  0
VERTEX
  8
レイヤ__1
  5
E37
 10
17.2452
 20
3.63213
 30
0.000000
  70
    32
  0
VERTEX
  8
レイヤ__1
  5
E38
 10
17.2354
 20
3.65080
 30
0.000000
  70
    32
  0
VERTEX
  8
レイヤ__1
  5
E39
 10
17.2253
 20
3.66930
 30
0.000000
  70
    32
  0
VERTEX
  8
レイヤ__1
  5
E3A
 10
17.2151
 20
3.68764
 30
0.000000
  70
    32
  0
VERTEX
  8
レイヤ__1
  5
E3B
 10
17.2045
 20
3.70583
 30
0.000000
  70
    32
  0
VERTEX
  8
レイヤ__1
  5
E3C
 10
17.1938
 20
3.72385
 30
0.000000
  70
    32
  0
VERTEX
  8
レイヤ__1
  5
E3D
 10
17.1828
 20
3.74170
 30
0.000000
  70
    32
  0
VERTEX
  8
レイヤ__1
  5
E3E
 10
17.1716
 20
3.75939
 30
0.000000
  70
    32
  0
VERTEX
  8
レイヤ__1
  5
E3F
 10
17.1601
 20
3.77691
 30
0.000000
  70
    32
  0
VERTEX
  8
レイヤ__1
  5
E40
 10
17.1484
 20
3.79427
 30
0.000000
  70
    32
  0
VERTEX
  8
レイヤ__1
  5
E41
 10
17.1364
 20
3.81145
 30
0.000000
  70
    32
  0
VERTEX
  8
レイヤ__1
  5
E42
 10
17.1242
 20
3.82846
 30
0.000000
  70
    32
  0
VERTEX
  8
レイヤ__1
  5
E43
 10
17.1117
 20
3.84530
 30
0.000000
  70
    32
  0
VERTEX
  8
レイヤ__1
  5
E44
 10
17.0990
 20
3.86197
 30
0.000000
  70
    32
  0
VERTEX
  8
レイヤ__1
  5
E45
 10
17.0861
 20
3.87846
 30
0.000000
  70
    32
  0
VERTEX
  8
レイヤ__1
  5
E46
 10
17.0729
 20
3.89478
 30
0.000000
  70
    32
  0
VERTEX
  8
レイヤ__1
  5
E47
 10
17.0595
 20
3.91092
 30
0.000000
  70
    32
  0
VERTEX
  8
レイヤ__1
  5
E48
 10
17.0459
 20
3.92688
 30
0.000000
  70
    32
  0
VERTEX
  8
レイヤ__1
  5
E49
 10
17.0320
 20
3.94266
 30
0.000000
  70
    32
  0
VERTEX
  8
レイヤ__1
  5
E4A
 10
17.0178
 20
3.95826
 30
0.000000
  70
    32
  0
VERTEX
  8
レイヤ__1
  5
E4B
 10
17.0034
 20
3.97367
 30
0.000000
  70
    32
  0
VERTEX
  8
レイヤ__1
  5
E4C
 10
16.9888
 20
3.98890
 30
0.000000
  70
    32
  0
VERTEX
  8
レイヤ__1
  5
E4D
 10
16.9740
 20
4.00395
 30
0.000000
  70
    32
  0
VERTEX
  8
レイヤ__1
  5
E4E
 10
16.9589
 20
4.01880
 30
0.000000
  70
    32
  0
VERTEX
  8
レイヤ__1
  5
E4F
 10
16.9435
 20
4.03347
 30
0.000000
  70
    32
  0
VERTEX
  8
レイヤ__1
  5
E50
 10
16.9279
 20
4.04796
 30
0.000000
  70
    32
  0
VERTEX
  8
レイヤ__1
  5
E51
 10
16.9121
 20
4.06224
 30
0.000000
  70
    32
  0
VERTEX
  8
レイヤ__1
  5
E52
 10
16.8960
 20
4.07634
 30
0.000000
  70
    32
  0
VERTEX
  8
レイヤ__1
  5
E53
 10
16.8797
 20
4.09025
 30
0.000000
  70
    32
  0
VERTEX
  8
レイヤ__1
  5
E54
 10
16.8631
 20
4.10396
 30
0.000000
  70
    32
  0
VERTEX
  8
レイヤ__1
  5
E55
 10
16.8463
 20
4.11747
 30
0.000000
  70
    32
  0
VERTEX
  8
レイヤ__1
  5
E56
 10
16.8293
 20
4.13078
 30
0.000000
  70
    32
  0
VERTEX
  8
レイヤ__1
  5
E57
 10
16.8120
 20
4.14390
 30
0.000000
  70
    32
  0
VERTEX
  8
レイヤ__1
  5
E58
 10
16.7945
 20
4.15682
 30
0.000000
  70
    32
  0
VERTEX
  8
レイヤ__1
  5
E59
 10
16.7767
 20
4.16953
 30
0.000000
  70
    32
  0
VERTEX
  8
レイヤ__1
  5
E5A
 10
16.7587
 20
4.18204
 30
0.000000
  70
    32
  0
VERTEX
  8
レイヤ__1
  5
E5B
 10
16.7405
 20
4.19435
 30
0.000000
  70
    32
  0
VERTEX
  8
レイヤ__1
  5
E5C
 10
16.7220
 20
4.20646
 30
0.000000
  70
    32
  0
VERTEX
  8
レイヤ__1
  5
E5D
 10
16.7032
 20
4.21835
 30
0.000000
  70
    32
  0
VERTEX
  8
レイヤ__1
  5
E5E
 10
16.6843
 20
4.23004
 30
0.000000
  70
    32
  0
VERTEX
  8
レイヤ__1
  5
E5F
 10
16.6651
 20
4.24152
 30
0.000000
  70
    32
  0
VERTEX
  8
レイヤ__1
  5
E60
 10
16.6456
 20
4.25278
 30
0.000000
  70
    32
  0
VERTEX
  8
レイヤ__1
  5
E61
 10
16.6259
 20
4.26384
 30
0.000000
  70
    32
  0
VERTEX
  8
レイヤ__1
  5
E62
 10
16.6060
 20
4.27468
 30
0.000000
  70
    32
  0
VERTEX
  8
レイヤ__1
  5
E63
 10
16.5858
 20
4.28531
 30
0.000000
  70
    32
  0
VERTEX
  8
レイヤ__1
  5
E64
 10
16.5654
 20
4.29572
 30
0.000000
  70
    32
  0
VERTEX
  8
レイヤ__1
  5
E65
 10
16.5447
 20
4.30591
 30
0.000000
  70
    32
  0
VERTEX
  8
レイヤ__1
  5
E66
 10
16.5238
 20
4.31589
 30
0.000000
  70
    32
  0
VERTEX
  8
レイヤ__1
  5
E67
 10
16.5026
 20
4.32564
 30
0.000000
  70
    32
  0
VERTEX
  8
レイヤ__1
  5
E68
 10
16.4812
 20
4.33518
 30
0.000000
  70
    32
  0
VERTEX
  8
レイヤ__1
  5
E69
 10
16.4596
 20
4.34449
 30
0.000000
  70
    32
  0
VERTEX
  8
レイヤ__1
  5
E6A
 10
16.4377
 20
4.35357
 30
0.000000
  70
    32
  0
VERTEX
  8
レイヤ__1
  5
E6B
 10
16.4156
 20
4.36244
 30
0.000000
  70
    32
  0
VERTEX
  8
レイヤ__1
  5
E6C
 10
16.3933
 20
4.37107
 30
0.000000
  70
    32
  0
VERTEX
  8
レイヤ__1
  5
E6D
 10
16.3707
 20
4.37948
 30
0.000000
  70
    32
  0
VERTEX
  8
レイヤ__1
  5
E6E
 10
16.3478
 20
4.38765
 30
0.000000
  70
    32
  0
VERTEX
  8
レイヤ__1
  5
E6F
 10
16.3247
 20
4.39560
 30
0.000000
  70
    32
  0
VERTEX
  8
レイヤ__1
  5
E70
 10
16.3014
 20
4.40332
 30
0.000000
  70
    32
  0
VERTEX
  8
レイヤ__1
  5
E71
 10
16.2778
 20
4.41080
 30
0.000000
  70
    32
  0
VERTEX
  8
レイヤ__1
  5
E72
 10
16.2540
 20
4.41804
 30
0.000000
  70
    32
  0
VERTEX
  8
レイヤ__1
  5
E73
 10
16.2300
 20
4.42505
 30
0.000000
  70
    32
  0
VERTEX
  8
レイヤ__1
  5
E74
 10
16.2057
 20
4.43183
 30
0.000000
  70
    32
  0
VERTEX
  8
レイヤ__1
  5
E75
 10
16.1812
 20
4.43836
 30
0.000000
  70
    32
  0
VERTEX
  8
レイヤ__1
  5
E76
 10
16.1564
 20
4.44466
 30
0.000000
  70
    32
  0
VERTEX
  8
レイヤ__1
  5
E77
 10
16.1314
 20
4.45071
 30
0.000000
  70
    32
  0
VERTEX
  8
レイヤ__1
  5
E78
 10
16.1061
 20
4.45652
 30
0.000000
  70
    32
  0
VERTEX
  8
レイヤ__1
  5
E79
 10
16.0806
 20
4.46209
 30
0.000000
  70
    32
  0
VERTEX
  8
レイヤ__1
  5
E7A
 10
16.0549
 20
4.46741
 30
0.000000
  70
    32
  0
VERTEX
  8
レイヤ__1
  5
E7B
 10
16.0289
 20
4.47248
 30
0.000000
  70
    32
  0
VERTEX
  8
レイヤ__1
  5
E7C
 10
16.0027
 20
4.47731
 30
0.000000
  70
    32
  0
VERTEX
  8
レイヤ__1
  5
E7D
 10
15.9762
 20
4.48189
 30
0.000000
  70
    32
  0
VERTEX
  8
レイヤ__1
  5
E7E
 10
15.9495
 20
4.48621
 30
0.000000
  70
    32
  0
VERTEX
  8
レイヤ__1
  5
E7F
 10
15.9226
 20
4.49029
 30
0.000000
  70
    32
  0
VERTEX
  8
レイヤ__1
  5
E80
 10
15.8954
 20
4.49411
 30
0.000000
  70
    32
  0
VERTEX
  8
レイヤ__1
  5
E81
 10
15.8679
 20
4.49768
 30
0.000000
  70
    32
  0
VERTEX
  8
レイヤ__1
  5
E82
 10
15.8403
 20
4.50099
 30
0.000000
  70
    32
  0
VERTEX
  8
レイヤ__1
  5
E83
 10
15.8123
 20
4.50404
 30
0.000000
  70
    32
  0
VERTEX
  8
レイヤ__1
  5
E84
 10
15.7842
 20
4.50684
 30
0.000000
  70
    32
  0
VERTEX
  8
レイヤ__1
  5
E85
 10
15.7558
 20
4.50937
 30
0.000000
  70
    32
  0
VERTEX
  8
レイヤ__1
  5
E86
 10
15.7271
 20
4.51164
 30
0.000000
  70
    32
  0
VERTEX
  8
レイヤ__1
  5
E87
 10
15.6983
 20
4.51366
 30
0.000000
  70
    32
  0
VERTEX
  8
レイヤ__1
  5
E88
 10
15.6691
 20
4.51540
 30
0.000000
  70
    32
  0
VERTEX
  8
レイヤ__1
  5
E89
 10
15.6398
 20
4.51689
 30
0.000000
  70
    32
  0
VERTEX
  8
レイヤ__1
  5
E8A
 10
15.6102
 20
4.51810
 30
0.000000
  70
    32
  0
VERTEX
  8
レイヤ__1
  5
E8B
 10
15.5803
 20
4.51905
 30
0.000000
  70
    32
  0
VERTEX
  8
レイヤ__1
  5
E8C
 10
15.5502
 20
4.51973
 30
0.000000
  70
    32
  0
VERTEX
  8
レイヤ__1
  5
E8D
 10
15.5199
 20
4.52014
 30
0.000000
  70
    32
  0
VERTEX
  8
レイヤ__1
  5
E8E
 10
15.4893
 20
4.52027
 30
0.000000
  70
    32
  0
SEQEND
  8
レイヤ__1
  5
E8F
  0
POLYLINE
  8
レイヤ__1
  5
E90
  62
5
  66
     1
 10
0.000000
 20
0.000000
 30
0.000000
  70
     8
  0
VERTEX
  8
レイヤ__1
  5
E91
 10
15.4893
 20
4.52027
 30
0.000000
  70
    32
  0
VERTEX
  8
レイヤ__1
  5
E92
 10
15.4589
 20
4.52019
 30
0.000000
  70
    32
  0
VERTEX
  8
レイヤ__1
  5
E93
 10
15.4285
 20
4.51992
 30
0.000000
  70
    32
  0
VERTEX
  8
レイヤ__1
  5
E94
 10
15.3981
 20
4.51948
 30
0.000000
  70
    32
  0
VERTEX
  8
レイヤ__1
  5
E95
 10
15.3677
 20
4.51885
 30
0.000000
  70
    32
  0
VERTEX
  8
レイヤ__1
  5
E96
 10
15.3373
 20
4.51804
 30
0.000000
  70
    32
  0
VERTEX
  8
レイヤ__1
  5
E97
 10
15.3070
 20
4.51704
 30
0.000000
  70
    32
  0
VERTEX
  8
レイヤ__1
  5
E98
 10
15.2766
 20
4.51584
 30
0.000000
  70
    32
  0
VERTEX
  8
レイヤ__1
  5
E99
 10
15.2463
 20
4.51445
 30
0.000000
  70
    32
  0
VERTEX
  8
レイヤ__1
  5
E9A
 10
15.2160
 20
4.51286
 30
0.000000
  70
    32
  0
VERTEX
  8
レイヤ__1
  5
E9B
 10
15.1858
 20
4.51106
 30
0.000000
  70
    32
  0
VERTEX
  8
レイヤ__1
  5
E9C
 10
15.1555
 20
4.50906
 30
0.000000
  70
    32
  0
VERTEX
  8
レイヤ__1
  5
E9D
 10
15.1253
 20
4.50685
 30
0.000000
  70
    32
  0
VERTEX
  8
レイヤ__1
  5
E9E
 10
15.0951
 20
4.50443
 30
0.000000
  70
    32
  0
VERTEX
  8
レイヤ__1
  5
E9F
 10
15.0650
 20
4.50179
 30
0.000000
  70
    32
  0
VERTEX
  8
レイヤ__1
  5
EA0
 10
15.0349
 20
4.49893
 30
0.000000
  70
    32
  0
VERTEX
  8
レイヤ__1
  5
EA1
 10
15.0048
 20
4.49585
 30
0.000000
  70
    32
  0
VERTEX
  8
レイヤ__1
  5
EA2
 10
14.9748
 20
4.49254
 30
0.000000
  70
    32
  0
VERTEX
  8
レイヤ__1
  5
EA3
 10
14.9448
 20
4.48901
 30
0.000000
  70
    32
  0
VERTEX
  8
レイヤ__1
  5
EA4
 10
14.9149
 20
4.48524
 30
0.000000
  70
    32
  0
VERTEX
  8
レイヤ__1
  5
EA5
 10
14.8850
 20
4.48123
 30
0.000000
  70
    32
  0
VERTEX
  8
レイヤ__1
  5
EA6
 10
14.8552
 20
4.47699
 30
0.000000
  70
    32
  0
VERTEX
  8
レイヤ__1
  5
EA7
 10
14.8255
 20
4.47250
 30
0.000000
  70
    32
  0
VERTEX
  8
レイヤ__1
  5
EA8
 10
14.7958
 20
4.46776
 30
0.000000
  70
    32
  0
VERTEX
  8
レイヤ__1
  5
EA9
 10
14.7661
 20
4.46278
 30
0.000000
  70
    32
  0
VERTEX
  8
レイヤ__1
  5
EAA
 10
14.7366
 20
4.45754
 30
0.000000
  70
    32
  0
VERTEX
  8
レイヤ__1
  5
EAB
 10
14.7071
 20
4.45205
 30
0.000000
  70
    32
  0
VERTEX
  8
レイヤ__1
  5
EAC
 10
14.6776
 20
4.44630
 30
0.000000
  70
    32
  0
VERTEX
  8
レイヤ__1
  5
EAD
 10
14.6483
 20
4.44029
 30
0.000000
  70
    32
  0
VERTEX
  8
レイヤ__1
  5
EAE
 10
14.6190
 20
4.43401
 30
0.000000
  70
    32
  0
VERTEX
  8
レイヤ__1
  5
EAF
 10
14.5898
 20
4.42746
 30
0.000000
  70
    32
  0
VERTEX
  8
レイヤ__1
  5
EB0
 10
14.5606
 20
4.42064
 30
0.000000
  70
    32
  0
VERTEX
  8
レイヤ__1
  5
EB1
 10
14.5316
 20
4.41354
 30
0.000000
  70
    32
  0
VERTEX
  8
レイヤ__1
  5
EB2
 10
14.5026
 20
4.40617
 30
0.000000
  70
    32
  0
VERTEX
  8
レイヤ__1
  5
EB3
 10
14.4738
 20
4.39851
 30
0.000000
  70
    32
  0
VERTEX
  8
レイヤ__1
  5
EB4
 10
14.4450
 20
4.39057
 30
0.000000
  70
    32
  0
VERTEX
  8
レイヤ__1
  5
EB5
 10
14.4163
 20
4.38233
 30
0.000000
  70
    32
  0
VERTEX
  8
レイヤ__1
  5
EB6
 10
14.3877
 20
4.37381
 30
0.000000
  70
    32
  0
VERTEX
  8
レイヤ__1
  5
EB7
 10
14.3592
 20
4.36499
 30
0.000000
  70
    32
  0
VERTEX
  8
レイヤ__1
  5
EB8
 10
14.3308
 20
4.35587
 30
0.000000
  70
    32
  0
VERTEX
  8
レイヤ__1
  5
EB9
 10
14.3025
 20
4.34645
 30
0.000000
  70
    32
  0
VERTEX
  8
レイヤ__1
  5
EBA
 10
14.2744
 20
4.33672
 30
0.000000
  70
    32
  0
VERTEX
  8
レイヤ__1
  5
EBB
 10
14.2463
 20
4.32668
 30
0.000000
  70
    32
  0
VERTEX
  8
レイヤ__1
  5
EBC
 10
14.2183
 20
4.31634
 30
0.000000
  70
    32
  0
VERTEX
  8
レイヤ__1
  5
EBD
 10
14.1905
 20
4.30567
 30
0.000000
  70
    32
  0
VERTEX
  8
レイヤ__1
  5
EBE
 10
14.1628
 20
4.29469
 30
0.000000
  70
    32
  0
VERTEX
  8
レイヤ__1
  5
EBF
 10
14.1352
 20
4.28338
 30
0.000000
  70
    32
  0
VERTEX
  8
レイヤ__1
  5
EC0
 10
14.1077
 20
4.27175
 30
0.000000
  70
    32
  0
VERTEX
  8
レイヤ__1
  5
EC1
 10
14.0803
 20
4.25980
 30
0.000000
  70
    32
  0
VERTEX
  8
レイヤ__1
  5
EC2
 10
14.0531
 20
4.24750
 30
0.000000
  70
    32
  0
VERTEX
  8
レイヤ__1
  5
EC3
 10
14.0260
 20
4.23488
 30
0.000000
  70
    32
  0
VERTEX
  8
レイヤ__1
  5
EC4
 10
13.9990
 20
4.22191
 30
0.000000
  70
    32
  0
VERTEX
  8
レイヤ__1
  5
EC5
 10
13.9722
 20
4.20861
 30
0.000000
  70
    32
  0
VERTEX
  8
レイヤ__1
  5
EC6
 10
13.9455
 20
4.19495
 30
0.000000
  70
    32
  0
VERTEX
  8
レイヤ__1
  5
EC7
 10
13.9190
 20
4.18095
 30
0.000000
  70
    32
  0
VERTEX
  8
レイヤ__1
  5
EC8
 10
13.8925
 20
4.16660
 30
0.000000
  70
    32
  0
VERTEX
  8
レイヤ__1
  5
EC9
 10
13.8663
 20
4.15189
 30
0.000000
  70
    32
  0
VERTEX
  8
レイヤ__1
  5
ECA
 10
13.8402
 20
4.13683
 30
0.000000
  70
    32
  0
VERTEX
  8
レイヤ__1
  5
ECB
 10
13.8142
 20
4.12140
 30
0.000000
  70
    32
  0
VERTEX
  8
レイヤ__1
  5
ECC
 10
13.7884
 20
4.10560
 30
0.000000
  70
    32
  0
VERTEX
  8
レイヤ__1
  5
ECD
 10
13.7627
 20
4.08944
 30
0.000000
  70
    32
  0
VERTEX
  8
レイヤ__1
  5
ECE
 10
13.7372
 20
4.07291
 30
0.000000
  70
    32
  0
VERTEX
  8
レイヤ__1
  5
ECF
 10
13.7119
 20
4.05600
 30
0.000000
  70
    32
  0
VERTEX
  8
レイヤ__1
  5
ED0
 10
13.6867
 20
4.03871
 30
0.000000
  70
    32
  0
VERTEX
  8
レイヤ__1
  5
ED1
 10
13.6617
 20
4.02104
 30
0.000000
  70
    32
  0
VERTEX
  8
レイヤ__1
  5
ED2
 10
13.6369
 20
4.00299
 30
0.000000
  70
    32
  0
VERTEX
  8
レイヤ__1
  5
ED3
 10
13.6122
 20
3.98455
 30
0.000000
  70
    32
  0
VERTEX
  8
レイヤ__1
  5
ED4
 10
13.5878
 20
3.96571
 30
0.000000
  70
    32
  0
VERTEX
  8
レイヤ__1
  5
ED5
 10
13.5635
 20
3.94649
 30
0.000000
  70
    32
  0
VERTEX
  8
レイヤ__1
  5
ED6
 10
13.5393
 20
3.92686
 30
0.000000
  70
    32
  0
VERTEX
  8
レイヤ__1
  5
ED7
 10
13.5154
 20
3.90683
 30
0.000000
  70
    32
  0
VERTEX
  8
レイヤ__1
  5
ED8
 10
13.4916
 20
3.88640
 30
0.000000
  70
    32
  0
VERTEX
  8
レイヤ__1
  5
ED9
 10
13.4680
 20
3.86556
 30
0.000000
  70
    32
  0
VERTEX
  8
レイヤ__1
  5
EDA
 10
13.4447
 20
3.84430
 30
0.000000
  70
    32
  0
VERTEX
  8
レイヤ__1
  5
EDB
 10
13.4215
 20
3.82263
 30
0.000000
  70
    32
  0
VERTEX
  8
レイヤ__1
  5
EDC
 10
13.3985
 20
3.80055
 30
0.000000
  70
    32
  0
VERTEX
  8
レイヤ__1
  5
EDD
 10
13.3757
 20
3.77804
 30
0.000000
  70
    32
  0
VERTEX
  8
レイヤ__1
  5
EDE
 10
13.3531
 20
3.75511
 30
0.000000
  70
    32
  0
VERTEX
  8
レイヤ__1
  5
EDF
 10
13.3307
 20
3.73175
 30
0.000000
  70
    32
  0
VERTEX
  8
レイヤ__1
  5
EE0
 10
13.3085
 20
3.70796
 30
0.000000
  70
    32
  0
VERTEX
  8
レイヤ__1
  5
EE1
 10
13.2865
 20
3.68373
 30
0.000000
  70
    32
  0
VERTEX
  8
レイヤ__1
  5
EE2
 10
13.2648
 20
3.65907
 30
0.000000
  70
    32
  0
VERTEX
  8
レイヤ__1
  5
EE3
 10
13.2432
 20
3.63396
 30
0.000000
  70
    32
  0
VERTEX
  8
レイヤ__1
  5
EE4
 10
13.2219
 20
3.60841
 30
0.000000
  70
    32
  0
VERTEX
  8
レイヤ__1
  5
EE5
 10
13.2008
 20
3.58241
 30
0.000000
  70
    32
  0
VERTEX
  8
レイヤ__1
  5
EE6
 10
13.1799
 20
3.55597
 30
0.000000
  70
    32
  0
VERTEX
  8
レイヤ__1
  5
EE7
 10
13.1592
 20
3.52906
 30
0.000000
  70
    32
  0
VERTEX
  8
レイヤ__1
  5
EE8
 10
13.1387
 20
3.50170
 30
0.000000
  70
    32
  0
VERTEX
  8
レイヤ__1
  5
EE9
 10
13.1185
 20
3.47388
 30
0.000000
  70
    32
  0
VERTEX
  8
レイヤ__1
  5
EEA
 10
13.0985
 20
3.44559
 30
0.000000
  70
    32
  0
VERTEX
  8
レイヤ__1
  5
EEB
 10
13.0788
 20
3.41684
 30
0.000000
  70
    32
  0
VERTEX
  8
レイヤ__1
  5
EEC
 10
13.0593
 20
3.38761
 30
0.000000
  70
    32
  0
VERTEX
  8
レイヤ__1
  5
EED
 10
13.0400
 20
3.35791
 30
0.000000
  70
    32
  0
VERTEX
  8
レイヤ__1
  5
EEE
 10
13.0210
 20
3.32773
 30
0.000000
  70
    32
  0
VERTEX
  8
レイヤ__1
  5
EEF
 10
13.0022
 20
3.29707
 30
0.000000
  70
    32
  0
VERTEX
  8
レイヤ__1
  5
EF0
 10
12.9837
 20
3.26593
 30
0.000000
  70
    32
  0
VERTEX
  8
レイヤ__1
  5
EF1
 10
12.9654
 20
3.23430
 30
0.000000
  70
    32
  0
VERTEX
  8
レイヤ__1
  5
EF2
 10
12.9473
 20
3.20218
 30
0.000000
  70
    32
  0
VERTEX
  8
レイヤ__1
  5
EF3
 10
12.9296
 20
3.16956
 30
0.000000
  70
    32
  0
VERTEX
  8
レイヤ__1
  5
EF4
 10
12.9121
 20
3.13645
 30
0.000000
  70
    32
  0
VERTEX
  8
レイヤ__1
  5
EF5
 10
12.8948
 20
3.10283
 30
0.000000
  70
    32
  0
VERTEX
  8
レイヤ__1
  5
EF6
 10
12.8778
 20
3.06872
 30
0.000000
  70
    32
  0
VERTEX
  8
レイヤ__1
  5
EF7
 10
12.8611
 20
3.03409
 30
0.000000
  70
    32
  0
VERTEX
  8
レイヤ__1
  5
EF8
 10
12.8446
 20
2.99895
 30
0.000000
  70
    32
  0
VERTEX
  8
レイヤ__1
  5
EF9
 10
12.8284
 20
2.96330
 30
0.000000
  70
    32
  0
VERTEX
  8
レイヤ__1
  5
EFA
 10
12.8125
 20
2.92713
 30
0.000000
  70
    32
  0
VERTEX
  8
レイヤ__1
  5
EFB
 10
12.7969
 20
2.89044
 30
0.000000
  70
    32
  0
VERTEX
  8
レイヤ__1
  5
EFC
 10
12.7815
 20
2.85323
 30
0.000000
  70
    32
  0
VERTEX
  8
レイヤ__1
  5
EFD
 10
12.7664
 20
2.81549
 30
0.000000
  70
    32
  0
VERTEX
  8
レイヤ__1
  5
EFE
 10
12.7517
 20
2.77722
 30
0.000000
  70
    32
  0
VERTEX
  8
レイヤ__1
  5
EFF
 10
12.7371
 20
2.73841
 30
0.000000
  70
    32
  0
VERTEX
  8
レイヤ__1
  5
F00
 10
12.7229
 20
2.69907
 30
0.000000
  70
    32
  0
VERTEX
  8
レイヤ__1
  5
F01
 10
12.7090
 20
2.65919
 30
0.000000
  70
    32
  0
VERTEX
  8
レイヤ__1
  5
F02
 10
12.6954
 20
2.61876
 30
0.000000
  70
    32
  0
VERTEX
  8
レイヤ__1
  5
F03
 10
12.6820
 20
2.57779
 30
0.000000
  70
    32
  0
VERTEX
  8
レイヤ__1
  5
F04
 10
12.6690
 20
2.53626
 30
0.000000
  70
    32
  0
VERTEX
  8
レイヤ__1
  5
F05
 10
12.6563
 20
2.49418
 30
0.000000
  70
    32
  0
VERTEX
  8
レイヤ__1
  5
F06
 10
12.6439
 20
2.45155
 30
0.000000
  70
    32
  0
VERTEX
  8
レイヤ__1
  5
F07
 10
12.6318
 20
2.40835
 30
0.000000
  70
    32
  0
VERTEX
  8
レイヤ__1
  5
F08
 10
12.6199
 20
2.36459
 30
0.000000
  70
    32
  0
VERTEX
  8
レイヤ__1
  5
F09
 10
12.6085
 20
2.32027
 30
0.000000
  70
    32
  0
VERTEX
  8
レイヤ__1
  5
F0A
 10
12.5973
 20
2.27537
 30
0.000000
  70
    32
  0
VERTEX
  8
レイヤ__1
  5
F0B
 10
12.5864
 20
2.22990
 30
0.000000
  70
    32
  0
VERTEX
  8
レイヤ__1
  5
F0C
 10
12.5759
 20
2.18385
 30
0.000000
  70
    32
  0
VERTEX
  8
レイヤ__1
  5
F0D
 10
12.5657
 20
2.13722
 30
0.000000
  70
    32
  0
VERTEX
  8
レイヤ__1
  5
F0E
 10
12.5558
 20
2.09001
 30
0.000000
  70
    32
  0
VERTEX
  8
レイヤ__1
  5
F0F
 10
12.5462
 20
2.04221
 30
0.000000
  70
    32
  0
VERTEX
  8
レイヤ__1
  5
F10
 10
12.5370
 20
1.99382
 30
0.000000
  70
    32
  0
SEQEND
  8
レイヤ__1
  5
F11
  0
POLYLINE
  8
レイヤ__1
  5
F12
  62
5
  66
     1
 10
0.000000
 20
0.000000
 30
0.000000
  70
     8
  0
VERTEX
  8
レイヤ__1
  5
F13
 10
5.39747
 20
2.58915
 30
0.000000
  70
    32
  0
VERTEX
  8
レイヤ__1
  5
F14
 10
5.38001
 20
2.59269
 30
0.000000
  70
    32
  0
VERTEX
  8
レイヤ__1
  5
F15
 10
5.36275
 20
2.59621
 30
0.000000
  70
    32
  0
VERTEX
  8
レイヤ__1
  5
F16
 10
5.34570
 20
2.59969
 30
0.000000
  70
    32
  0
VERTEX
  8
レイヤ__1
  5
F17
 10
5.32885
 20
2.60316
 30
0.000000
  70
    32
  0
VERTEX
  8
レイヤ__1
  5
F18
 10
5.31220
 20
2.60659
 30
0.000000
  70
    32
  0
VERTEX
  8
レイヤ__1
  5
F19
 10
5.29576
 20
2.61000
 30
0.000000
  70
    32
  0
VERTEX
  8
レイヤ__1
  5
F1A
 10
5.27951
 20
2.61339
 30
0.000000
  70
    32
  0
VERTEX
  8
レイヤ__1
  5
F1B
 10
5.26347
 20
2.61675
 30
0.000000
  70
    32
  0
VERTEX
  8
レイヤ__1
  5
F1C
 10
5.24762
 20
2.62009
 30
0.000000
  70
    32
  0
VERTEX
  8
レイヤ__1
  5
F1D
 10
5.23197
 20
2.62341
 30
0.000000
  70
    32
  0
VERTEX
  8
レイヤ__1
  5
F1E
 10
5.21651
 20
2.62671
 30
0.000000
  70
    32
  0
VERTEX
  8
レイヤ__1
  5
F1F
 10
5.20126
 20
2.62998
 30
0.000000
  70
    32
  0
VERTEX
  8
レイヤ__1
  5
F20
 10
5.18619
 20
2.63324
 30
0.000000
  70
    32
  0
VERTEX
  8
レイヤ__1
  5
F21
 10
5.17132
 20
2.63647
 30
0.000000
  70
    32
  0
VERTEX
  8
レイヤ__1
  5
F22
 10
5.15664
 20
2.63968
 30
0.000000
  70
    32
  0
VERTEX
  8
レイヤ__1
  5
F23
 10
5.14215
 20
2.64288
 30
0.000000
  70
    32
  0
VERTEX
  8
レイヤ__1
  5
F24
 10
5.12786
 20
2.64605
 30
0.000000
  70
    32
  0
VERTEX
  8
レイヤ__1
  5
F25
 10
5.11375
 20
2.64921
 30
0.000000
  70
    32
  0
VERTEX
  8
レイヤ__1
  5
F26
 10
5.09983
 20
2.65235
 30
0.000000
  70
    32
  0
VERTEX
  8
レイヤ__1
  5
F27
 10
5.08610
 20
2.65547
 30
0.000000
  70
    32
  0
VERTEX
  8
レイヤ__1
  5
F28
 10
5.07256
 20
2.65858
 30
0.000000
  70
    32
  0
VERTEX
  8
レイヤ__1
  5
F29
 10
5.05920
 20
2.66167
 30
0.000000
  70
    32
  0
VERTEX
  8
レイヤ__1
  5
F2A
 10
5.04603
 20
2.66474
 30
0.000000
  70
    32
  0
VERTEX
  8
レイヤ__1
  5
F2B
 10
5.03304
 20
2.66781
 30
0.000000
  70
    32
  0
VERTEX
  8
レイヤ__1
  5
F2C
 10
5.02023
 20
2.67085
 30
0.000000
  70
    32
  0
VERTEX
  8
レイヤ__1
  5
F2D
 10
5.00761
 20
2.67388
 30
0.000000
  70
    32
  0
VERTEX
  8
レイヤ__1
  5
F2E
 10
4.99516
 20
2.67690
 30
0.000000
  70
    32
  0
VERTEX
  8
レイヤ__1
  5
F2F
 10
4.98290
 20
2.67991
 30
0.000000
  70
    32
  0
VERTEX
  8
レイヤ__1
  5
F30
 10
4.97082
 20
2.68291
 30
0.000000
  70
    32
  0
VERTEX
  8
レイヤ__1
  5
F31
 10
4.95891
 20
2.68589
 30
0.000000
  70
    32
  0
VERTEX
  8
レイヤ__1
  5
F32
 10
4.94718
 20
2.68886
 30
0.000000
  70
    32
  0
VERTEX
  8
レイヤ__1
  5
F33
 10
4.93563
 20
2.69183
 30
0.000000
  70
    32
  0
VERTEX
  8
レイヤ__1
  5
F34
 10
4.92425
 20
2.69478
 30
0.000000
  70
    32
  0
VERTEX
  8
レイヤ__1
  5
F35
 10
4.91305
 20
2.69773
 30
0.000000
  70
    32
  0
VERTEX
  8
レイヤ__1
  5
F36
 10
4.90202
 20
2.70066
 30
0.000000
  70
    32
  0
VERTEX
  8
レイヤ__1
  5
F37
 10
4.89117
 20
2.70359
 30
0.000000
  70
    32
  0
VERTEX
  8
レイヤ__1
  5
F38
 10
4.88048
 20
2.70651
 30
0.000000
  70
    32
  0
VERTEX
  8
レイヤ__1
  5
F39
 10
4.86997
 20
2.70942
 30
0.000000
  70
    32
  0
VERTEX
  8
レイヤ__1
  5
F3A
 10
4.85962
 20
2.71233
 30
0.000000
  70
    32
  0
VERTEX
  8
レイヤ__1
  5
F3B
 10
4.84945
 20
2.71523
 30
0.000000
  70
    32
  0
VERTEX
  8
レイヤ__1
  5
F3C
 10
4.83944
 20
2.71813
 30
0.000000
  70
    32
  0
VERTEX
  8
レイヤ__1
  5
F3D
 10
4.82960
 20
2.72102
 30
0.000000
  70
    32
  0
VERTEX
  8
レイヤ__1
  5
F3E
 10
4.81992
 20
2.72391
 30
0.000000
  70
    32
  0
VERTEX
  8
レイヤ__1
  5
F3F
 10
4.81041
 20
2.72679
 30
0.000000
  70
    32
  0
VERTEX
  8
レイヤ__1
  5
F40
 10
4.80107
 20
2.72967
 30
0.000000
  70
    32
  0
VERTEX
  8
レイヤ__1
  5
F41
 10
4.79188
 20
2.73255
 30
0.000000
  70
    32
  0
VERTEX
  8
レイヤ__1
  5
F42
 10
4.78286
 20
2.73543
 30
0.000000
  70
    32
  0
VERTEX
  8
レイヤ__1
  5
F43
 10
4.77400
 20
2.73831
 30
0.000000
  70
    32
  0
VERTEX
  8
レイヤ__1
  5
F44
 10
4.76530
 20
2.74118
 30
0.000000
  70
    32
  0
VERTEX
  8
レイヤ__1
  5
F45
 10
4.75676
 20
2.74406
 30
0.000000
  70
    32
  0
VERTEX
  8
レイヤ__1
  5
F46
 10
4.74838
 20
2.74693
 30
0.000000
  70
    32
  0
VERTEX
  8
レイヤ__1
  5
F47
 10
4.74015
 20
2.74981
 30
0.000000
  70
    32
  0
VERTEX
  8
レイヤ__1
  5
F48
 10
4.73208
 20
2.75269
 30
0.000000
  70
    32
  0
VERTEX
  8
レイヤ__1
  5
F49
 10
4.72417
 20
2.75557
 30
0.000000
  70
    32
  0
VERTEX
  8
レイヤ__1
  5
F4A
 10
4.71641
 20
2.75845
 30
0.000000
  70
    32
  0
VERTEX
  8
レイヤ__1
  5
F4B
 10
4.70881
 20
2.76134
 30
0.000000
  70
    32
  0
VERTEX
  8
レイヤ__1
  5
F4C
 10
4.70135
 20
2.76423
 30
0.000000
  70
    32
  0
VERTEX
  8
レイヤ__1
  5
F4D
 10
4.69405
 20
2.76712
 30
0.000000
  70
    32
  0
VERTEX
  8
レイヤ__1
  5
F4E
 10
4.68690
 20
2.77002
 30
0.000000
  70
    32
  0
VERTEX
  8
レイヤ__1
  5
F4F
 10
4.67990
 20
2.77293
 30
0.000000
  70
    32
  0
VERTEX
  8
レイヤ__1
  5
F50
 10
4.67305
 20
2.77584
 30
0.000000
  70
    32
  0
VERTEX
  8
レイヤ__1
  5
F51
 10
4.66634
 20
2.77876
 30
0.000000
  70
    32
  0
VERTEX
  8
レイヤ__1
  5
F52
 10
4.65979
 20
2.78168
 30
0.000000
  70
    32
  0
VERTEX
  8
レイヤ__1
  5
F53
 10
4.65337
 20
2.78461
 30
0.000000
  70
    32
  0
VERTEX
  8
レイヤ__1
  5
F54
 10
4.64711
 20
2.78755
 30
0.000000
  70
    32
  0
VERTEX
  8
レイヤ__1
  5
F55
 10
4.64098
 20
2.79050
 30
0.000000
  70
    32
  0
VERTEX
  8
レイヤ__1
  5
F56
 10
4.63501
 20
2.79346
 30
0.000000
  70
    32
  0
VERTEX
  8
レイヤ__1
  5
F57
 10
4.62917
 20
2.79643
 30
0.000000
  70
    32
  0
VERTEX
  8
レイヤ__1
  5
F58
 10
4.62347
 20
2.79941
 30
0.000000
  70
    32
  0
VERTEX
  8
レイヤ__1
  5
F59
 10
4.61792
 20
2.80240
 30
0.000000
  70
    32
  0
VERTEX
  8
レイヤ__1
  5
F5A
 10
4.61250
 20
2.80541
 30
0.000000
  70
    32
  0
VERTEX
  8
レイヤ__1
  5
F5B
 10
4.60722
 20
2.80842
 30
0.000000
  70
    32
  0
VERTEX
  8
レイヤ__1
  5
F5C
 10
4.60208
 20
2.81145
 30
0.000000
  70
    32
  0
VERTEX
  8
レイヤ__1
  5
F5D
 10
4.59707
 20
2.81449
 30
0.000000
  70
    32
  0
VERTEX
  8
レイヤ__1
  5
F5E
 10
4.59221
 20
2.81755
 30
0.000000
  70
    32
  0
VERTEX
  8
レイヤ__1
  5
F5F
 10
4.58747
 20
2.82062
 30
0.000000
  70
    32
  0
VERTEX
  8
レイヤ__1
  5
F60
 10
4.58287
 20
2.82370
 30
0.000000
  70
    32
  0
VERTEX
  8
レイヤ__1
  5
F61
 10
4.57840
 20
2.82680
 30
0.000000
  70
    32
  0
VERTEX
  8
レイヤ__1
  5
F62
 10
4.57406
 20
2.82992
 30
0.000000
  70
    32
  0
VERTEX
  8
レイヤ__1
  5
F63
 10
4.56986
 20
2.83305
 30
0.000000
  70
    32
  0
VERTEX
  8
レイヤ__1
  5
F64
 10
4.56578
 20
2.83620
 30
0.000000
  70
    32
  0
VERTEX
  8
レイヤ__1
  5
F65
 10
4.56183
 20
2.83937
 30
0.000000
  70
    32
  0
VERTEX
  8
レイヤ__1
  5
F66
 10
4.55801
 20
2.84256
 30
0.000000
  70
    32
  0
VERTEX
  8
レイヤ__1
  5
F67
 10
4.55432
 20
2.84576
 30
0.000000
  70
    32
  0
VERTEX
  8
レイヤ__1
  5
F68
 10
4.55075
 20
2.84899
 30
0.000000
  70
    32
  0
VERTEX
  8
レイヤ__1
  5
F69
 10
4.54731
 20
2.85224
 30
0.000000
  70
    32
  0
VERTEX
  8
レイヤ__1
  5
F6A
 10
4.54399
 20
2.85550
 30
0.000000
  70
    32
  0
VERTEX
  8
レイヤ__1
  5
F6B
 10
4.54080
 20
2.85879
 30
0.000000
  70
    32
  0
VERTEX
  8
レイヤ__1
  5
F6C
 10
4.53773
 20
2.86210
 30
0.000000
  70
    32
  0
VERTEX
  8
レイヤ__1
  5
F6D
 10
4.53477
 20
2.86543
 30
0.000000
  70
    32
  0
VERTEX
  8
レイヤ__1
  5
F6E
 10
4.53194
 20
2.86879
 30
0.000000
  70
    32
  0
VERTEX
  8
レイヤ__1
  5
F6F
 10
4.52923
 20
2.87217
 30
0.000000
  70
    32
  0
VERTEX
  8
レイヤ__1
  5
F70
 10
4.52664
 20
2.87557
 30
0.000000
  70
    32
  0
VERTEX
  8
レイヤ__1
  5
F71
 10
4.52416
 20
2.87899
 30
0.000000
  70
    32
  0
VERTEX
  8
レイヤ__1
  5
F72
 10
4.52180
 20
2.88245
 30
0.000000
  70
    32
  0
VERTEX
  8
レイヤ__1
  5
F73
 10
4.51956
 20
2.88593
 30
0.000000
  70
    32
  0
VERTEX
  8
レイヤ__1
  5
F74
 10
4.51743
 20
2.88943
 30
0.000000
  70
    32
  0
VERTEX
  8
レイヤ__1
  5
F75
 10
4.51541
 20
2.89296
 30
0.000000
  70
    32
  0
VERTEX
  8
レイヤ__1
  5
F76
 10
4.51351
 20
2.89652
 30
0.000000
  70
    32
  0
VERTEX
  8
レイヤ__1
  5
F77
 10
4.51172
 20
2.90011
 30
0.000000
  70
    32
  0
VERTEX
  8
レイヤ__1
  5
F78
 10
4.51003
 20
2.90372
 30
0.000000
  70
    32
  0
VERTEX
  8
レイヤ__1
  5
F79
 10
4.50846
 20
2.90737
 30
0.000000
  70
    32
  0
VERTEX
  8
レイヤ__1
  5
F7A
 10
4.50700
 20
2.91104
 30
0.000000
  70
    32
  0
VERTEX
  8
レイヤ__1
  5
F7B
 10
4.50565
 20
2.91474
 30
0.000000
  70
    32
  0
VERTEX
  8
レイヤ__1
  5
F7C
 10
4.50440
 20
2.91848
 30
0.000000
  70
    32
  0
VERTEX
  8
レイヤ__1
  5
F7D
 10
4.50326
 20
2.92225
 30
0.000000
  70
    32
  0
VERTEX
  8
レイヤ__1
  5
F7E
 10
4.50222
 20
2.92604
 30
0.000000
  70
    32
  0
VERTEX
  8
レイヤ__1
  5
F7F
 10
4.50129
 20
2.92987
 30
0.000000
  70
    32
  0
VERTEX
  8
レイヤ__1
  5
F80
 10
4.50046
 20
2.93374
 30
0.000000
  70
    32
  0
VERTEX
  8
レイヤ__1
  5
F81
 10
4.49973
 20
2.93764
 30
0.000000
  70
    32
  0
VERTEX
  8
レイヤ__1
  5
F82
 10
4.49911
 20
2.94157
 30
0.000000
  70
    32
  0
VERTEX
  8
レイヤ__1
  5
F83
 10
4.49858
 20
2.94553
 30
0.000000
  70
    32
  0
VERTEX
  8
レイヤ__1
  5
F84
 10
4.49815
 20
2.94954
 30
0.000000
  70
    32
  0
VERTEX
  8
レイヤ__1
  5
F85
 10
4.49783
 20
2.95357
 30
0.000000
  70
    32
  0
VERTEX
  8
レイヤ__1
  5
F86
 10
4.49760
 20
2.95765
 30
0.000000
  70
    32
  0
VERTEX
  8
レイヤ__1
  5
F87
 10
4.49746
 20
2.96176
 30
0.000000
  70
    32
  0
VERTEX
  8
レイヤ__1
  5
F88
 10
4.49742
 20
2.96591
 30
0.000000
  70
    32
  0
VERTEX
  8
レイヤ__1
  5
F89
 10
4.49748
 20
2.97009
 30
0.000000
  70
    32
  0
VERTEX
  8
レイヤ__1
  5
F8A
 10
4.49763
 20
2.97432
 30
0.000000
  70
    32
  0
VERTEX
  8
レイヤ__1
  5
F8B
 10
4.49787
 20
2.97858
 30
0.000000
  70
    32
  0
VERTEX
  8
レイヤ__1
  5
F8C
 10
4.49821
 20
2.98289
 30
0.000000
  70
    32
  0
VERTEX
  8
レイヤ__1
  5
F8D
 10
4.49863
 20
2.98723
 30
0.000000
  70
    32
  0
VERTEX
  8
レイヤ__1
  5
F8E
 10
4.49915
 20
2.99162
 30
0.000000
  70
    32
  0
VERTEX
  8
レイヤ__1
  5
F8F
 10
4.49975
 20
2.99605
 30
0.000000
  70
    32
  0
VERTEX
  8
レイヤ__1
  5
F90
 10
4.50044
 20
3.00052
 30
0.000000
  70
    32
  0
VERTEX
  8
レイヤ__1
  5
F91
 10
4.50122
 20
3.00503
 30
0.000000
  70
    32
  0
VERTEX
  8
レイヤ__1
  5
F92
 10
4.50209
 20
3.00958
 30
0.000000
  70
    32
  0
SEQEND
  8
レイヤ__1
  5
F93
  0
POLYLINE
  8
レイヤ__1
  5
F94
  62
5
  66
     1
 10
0.000000
 20
0.000000
 30
0.000000
  70
     8
  0
VERTEX
  8
レイヤ__1
  5
F95
 10
4.50209
 20
3.00958
 30
0.000000
  70
    32
  0
VERTEX
  8
レイヤ__1
  5
F96
 10
4.50300
 20
3.01405
 30
0.000000
  70
    32
  0
VERTEX
  8
レイヤ__1
  5
F97
 10
4.50398
 20
3.01849
 30
0.000000
  70
    32
  0
VERTEX
  8
レイヤ__1
  5
F98
 10
4.50502
 20
3.02291
 30
0.000000
  70
    32
  0
VERTEX
  8
レイヤ__1
  5
F99
 10
4.50612
 20
3.02731
 30
0.000000
  70
    32
  0
VERTEX
  8
レイヤ__1
  5
F9A
 10
4.50729
 20
3.03169
 30
0.000000
  70
    32
  0
VERTEX
  8
レイヤ__1
  5
F9B
 10
4.50851
 20
3.03604
 30
0.000000
  70
    32
  0
VERTEX
  8
レイヤ__1
  5
F9C
 10
4.50979
 20
3.04038
 30
0.000000
  70
    32
  0
VERTEX
  8
レイヤ__1
  5
F9D
 10
4.51114
 20
3.04469
 30
0.000000
  70
    32
  0
VERTEX
  8
レイヤ__1
  5
F9E
 10
4.51254
 20
3.04898
 30
0.000000
  70
    32
  0
VERTEX
  8
レイヤ__1
  5
F9F
 10
4.51401
 20
3.05324
 30
0.000000
  70
    32
  0
VERTEX
  8
レイヤ__1
  5
FA0
 10
4.51554
 20
3.05749
 30
0.000000
  70
    32
  0
VERTEX
  8
レイヤ__1
  5
FA1
 10
4.51713
 20
3.06171
 30
0.000000
  70
    32
  0
VERTEX
  8
レイヤ__1
  5
FA2
 10
4.51879
 20
3.06590
 30
0.000000
  70
    32
  0
VERTEX
  8
レイヤ__1
  5
FA3
 10
4.52050
 20
3.07008
 30
0.000000
  70
    32
  0
VERTEX
  8
レイヤ__1
  5
FA4
 10
4.52228
 20
3.07423
 30
0.000000
  70
    32
  0
VERTEX
  8
レイヤ__1
  5
FA5
 10
4.52412
 20
3.07835
 30
0.000000
  70
    32
  0
VERTEX
  8
レイヤ__1
  5
FA6
 10
4.52603
 20
3.08245
 30
0.000000
  70
    32
  0
VERTEX
  8
レイヤ__1
  5
FA7
 10
4.52799
 20
3.08653
 30
0.000000
  70
    32
  0
VERTEX
  8
レイヤ__1
  5
FA8
 10
4.53003
 20
3.09058
 30
0.000000
  70
    32
  0
VERTEX
  8
レイヤ__1
  5
FA9
 10
4.53212
 20
3.09460
 30
0.000000
  70
    32
  0
VERTEX
  8
レイヤ__1
  5
FAA
 10
4.53428
 20
3.09860
 30
0.000000
  70
    32
  0
VERTEX
  8
レイヤ__1
  5
FAB
 10
4.53650
 20
3.10258
 30
0.000000
  70
    32
  0
VERTEX
  8
レイヤ__1
  5
FAC
 10
4.53878
 20
3.10653
 30
0.000000
  70
    32
  0
VERTEX
  8
レイヤ__1
  5
FAD
 10
4.54113
 20
3.11045
 30
0.000000
  70
    32
  0
VERTEX
  8
レイヤ__1
  5
FAE
 10
4.54354
 20
3.11435
 30
0.000000
  70
    32
  0
VERTEX
  8
レイヤ__1
  5
FAF
 10
4.54602
 20
3.11822
 30
0.000000
  70
    32
  0
VERTEX
  8
レイヤ__1
  5
FB0
 10
4.54856
 20
3.12206
 30
0.000000
  70
    32
  0
VERTEX
  8
レイヤ__1
  5
FB1
 10
4.55116
 20
3.12588
 30
0.000000
  70
    32
  0
VERTEX
  8
レイヤ__1
  5
FB2
 10
4.55383
 20
3.12967
 30
0.000000
  70
    32
  0
VERTEX
  8
レイヤ__1
  5
FB3
 10
4.55657
 20
3.13343
 30
0.000000
  70
    32
  0
VERTEX
  8
レイヤ__1
  5
FB4
 10
4.55937
 20
3.13716
 30
0.000000
  70
    32
  0
VERTEX
  8
レイヤ__1
  5
FB5
 10
4.56223
 20
3.14087
 30
0.000000
  70
    32
  0
VERTEX
  8
レイヤ__1
  5
FB6
 10
4.56517
 20
3.14455
 30
0.000000
  70
    32
  0
VERTEX
  8
レイヤ__1
  5
FB7
 10
4.56816
 20
3.14820
 30
0.000000
  70
    32
  0
VERTEX
  8
レイヤ__1
  5
FB8
 10
4.57122
 20
3.15182
 30
0.000000
  70
    32
  0
VERTEX
  8
レイヤ__1
  5
FB9
 10
4.57435
 20
3.15542
 30
0.000000
  70
    32
  0
VERTEX
  8
レイヤ__1
  5
FBA
 10
4.57755
 20
3.15898
 30
0.000000
  70
    32
  0
VERTEX
  8
レイヤ__1
  5
FBB
 10
4.58081
 20
3.16252
 30
0.000000
  70
    32
  0
VERTEX
  8
レイヤ__1
  5
FBC
 10
4.58413
 20
3.16602
 30
0.000000
  70
    32
  0
VERTEX
  8
レイヤ__1
  5
FBD
 10
4.58752
 20
3.16950
 30
0.000000
  70
    32
  0
VERTEX
  8
レイヤ__1
  5
FBE
 10
4.59098
 20
3.17295
 30
0.000000
  70
    32
  0
VERTEX
  8
レイヤ__1
  5
FBF
 10
4.59451
 20
3.17636
 30
0.000000
  70
    32
  0
VERTEX
  8
レイヤ__1
  5
FC0
 10
4.59810
 20
3.17975
 30
0.000000
  70
    32
  0
VERTEX
  8
レイヤ__1
  5
FC1
 10
4.60176
 20
3.18310
 30
0.000000
  70
    32
  0
VERTEX
  8
レイヤ__1
  5
FC2
 10
4.60549
 20
3.18643
 30
0.000000
  70
    32
  0
VERTEX
  8
レイヤ__1
  5
FC3
 10
4.60929
 20
3.18972
 30
0.000000
  70
    32
  0
VERTEX
  8
レイヤ__1
  5
FC4
 10
4.61315
 20
3.19298
 30
0.000000
  70
    32
  0
VERTEX
  8
レイヤ__1
  5
FC5
 10
4.61708
 20
3.19621
 30
0.000000
  70
    32
  0
VERTEX
  8
レイヤ__1
  5
FC6
 10
4.62108
 20
3.19941
 30
0.000000
  70
    32
  0
VERTEX
  8
レイヤ__1
  5
FC7
 10
4.62515
 20
3.20258
 30
0.000000
  70
    32
  0
VERTEX
  8
レイヤ__1
  5
FC8
 10
4.62928
 20
3.20572
 30
0.000000
  70
    32
  0
VERTEX
  8
レイヤ__1
  5
FC9
 10
4.63349
 20
3.20882
 30
0.000000
  70
    32
  0
VERTEX
  8
レイヤ__1
  5
FCA
 10
4.63776
 20
3.21189
 30
0.000000
  70
    32
  0
VERTEX
  8
レイヤ__1
  5
FCB
 10
4.64210
 20
3.21493
 30
0.000000
  70
    32
  0
VERTEX
  8
レイヤ__1
  5
FCC
 10
4.64651
 20
3.21793
 30
0.000000
  70
    32
  0
VERTEX
  8
レイヤ__1
  5
FCD
 10
4.65099
 20
3.22090
 30
0.000000
  70
    32
  0
VERTEX
  8
レイヤ__1
  5
FCE
 10
4.65554
 20
3.22384
 30
0.000000
  70
    32
  0
VERTEX
  8
レイヤ__1
  5
FCF
 10
4.66016
 20
3.22674
 30
0.000000
  70
    32
  0
VERTEX
  8
レイヤ__1
  5
FD0
 10
4.66484
 20
3.22961
 30
0.000000
  70
    32
  0
VERTEX
  8
レイヤ__1
  5
FD1
 10
4.66960
 20
3.23245
 30
0.000000
  70
    32
  0
VERTEX
  8
レイヤ__1
  5
FD2
 10
4.67443
 20
3.23525
 30
0.000000
  70
    32
  0
VERTEX
  8
レイヤ__1
  5
FD3
 10
4.67933
 20
3.23802
 30
0.000000
  70
    32
  0
VERTEX
  8
レイヤ__1
  5
FD4
 10
4.68429
 20
3.24075
 30
0.000000
  70
    32
  0
VERTEX
  8
レイヤ__1
  5
FD5
 10
4.68933
 20
3.24344
 30
0.000000
  70
    32
  0
VERTEX
  8
レイヤ__1
  5
FD6
 10
4.69444
 20
3.24611
 30
0.000000
  70
    32
  0
VERTEX
  8
レイヤ__1
  5
FD7
 10
4.69962
 20
3.24873
 30
0.000000
  70
    32
  0
VERTEX
  8
レイヤ__1
  5
FD8
 10
4.70487
 20
3.25132
 30
0.000000
  70
    32
  0
VERTEX
  8
レイヤ__1
  5
FD9
 10
4.71019
 20
3.25387
 30
0.000000
  70
    32
  0
VERTEX
  8
レイヤ__1
  5
FDA
 10
4.71558
 20
3.25639
 30
0.000000
  70
    32
  0
VERTEX
  8
レイヤ__1
  5
FDB
 10
4.72105
 20
3.25887
 30
0.000000
  70
    32
  0
VERTEX
  8
レイヤ__1
  5
FDC
 10
4.72658
 20
3.26132
 30
0.000000
  70
    32
  0
VERTEX
  8
レイヤ__1
  5
FDD
 10
4.73219
 20
3.26373
 30
0.000000
  70
    32
  0
VERTEX
  8
レイヤ__1
  5
FDE
 10
4.73787
 20
3.26610
 30
0.000000
  70
    32
  0
VERTEX
  8
レイヤ__1
  5
FDF
 10
4.74362
 20
3.26843
 30
0.000000
  70
    32
  0
VERTEX
  8
レイヤ__1
  5
FE0
 10
4.74944
 20
3.27072
 30
0.000000
  70
    32
  0
VERTEX
  8
レイヤ__1
  5
FE1
 10
4.75534
 20
3.27298
 30
0.000000
  70
    32
  0
VERTEX
  8
レイヤ__1
  5
FE2
 10
4.76131
 20
3.27520
 30
0.000000
  70
    32
  0
VERTEX
  8
レイヤ__1
  5
FE3
 10
4.76735
 20
3.27738
 30
0.000000
  70
    32
  0
VERTEX
  8
レイヤ__1
  5
FE4
 10
4.77346
 20
3.27952
 30
0.000000
  70
    32
  0
VERTEX
  8
レイヤ__1
  5
FE5
 10
4.77965
 20
3.28163
 30
0.000000
  70
    32
  0
VERTEX
  8
レイヤ__1
  5
FE6
 10
4.78591
 20
3.28369
 30
0.000000
  70
    32
  0
VERTEX
  8
レイヤ__1
  5
FE7
 10
4.79224
 20
3.28572
 30
0.000000
  70
    32
  0
VERTEX
  8
レイヤ__1
  5
FE8
 10
4.79865
 20
3.28770
 30
0.000000
  70
    32
  0
VERTEX
  8
レイヤ__1
  5
FE9
 10
4.80513
 20
3.28965
 30
0.000000
  70
    32
  0
VERTEX
  8
レイヤ__1
  5
FEA
 10
4.81168
 20
3.29156
 30
0.000000
  70
    32
  0
VERTEX
  8
レイヤ__1
  5
FEB
 10
4.81831
 20
3.29342
 30
0.000000
  70
    32
  0
VERTEX
  8
レイヤ__1
  5
FEC
 10
4.82501
 20
3.29525
 30
0.000000
  70
    32
  0
VERTEX
  8
レイヤ__1
  5
FED
 10
4.83179
 20
3.29703
 30
0.000000
  70
    32
  0
VERTEX
  8
レイヤ__1
  5
FEE
 10
4.83864
 20
3.29878
 30
0.000000
  70
    32
  0
VERTEX
  8
レイヤ__1
  5
FEF
 10
4.84556
 20
3.30048
 30
0.000000
  70
    32
  0
VERTEX
  8
レイヤ__1
  5
FF0
 10
4.85256
 20
3.30214
 30
0.000000
  70
    32
  0
VERTEX
  8
レイヤ__1
  5
FF1
 10
4.85964
 20
3.30377
 30
0.000000
  70
    32
  0
VERTEX
  8
レイヤ__1
  5
FF2
 10
4.86679
 20
3.30534
 30
0.000000
  70
    32
  0
VERTEX
  8
レイヤ__1
  5
FF3
 10
4.87401
 20
3.30688
 30
0.000000
  70
    32
  0
VERTEX
  8
レイヤ__1
  5
FF4
 10
4.88131
 20
3.30838
 30
0.000000
  70
    32
  0
VERTEX
  8
レイヤ__1
  5
FF5
 10
4.88869
 20
3.30983
 30
0.000000
  70
    32
  0
VERTEX
  8
レイヤ__1
  5
FF6
 10
4.89614
 20
3.31124
 30
0.000000
  70
    32
  0
VERTEX
  8
レイヤ__1
  5
FF7
 10
4.90367
 20
3.31261
 30
0.000000
  70
    32
  0
VERTEX
  8
レイヤ__1
  5
FF8
 10
4.91128
 20
3.31393
 30
0.000000
  70
    32
  0
VERTEX
  8
レイヤ__1
  5
FF9
 10
4.91896
 20
3.31521
 30
0.000000
  70
    32
  0
VERTEX
  8
レイヤ__1
  5
FFA
 10
4.92671
 20
3.31645
 30
0.000000
  70
    32
  0
VERTEX
  8
レイヤ__1
  5
FFB
 10
4.93455
 20
3.31764
 30
0.000000
  70
    32
  0
VERTEX
  8
レイヤ__1
  5
FFC
 10
4.94246
 20
3.31879
 30
0.000000
  70
    32
  0
VERTEX
  8
レイヤ__1
  5
FFD
 10
4.95044
 20
3.31990
 30
0.000000
  70
    32
  0
VERTEX
  8
レイヤ__1
  5
FFE
 10
4.95851
 20
3.32096
 30
0.000000
  70
    32
  0
VERTEX
  8
レイヤ__1
  5
FFF
 10
4.96665
 20
3.32197
 30
0.000000
  70
    32
  0
VERTEX
  8
レイヤ__1
  5
1000
 10
4.97487
 20
3.32294
 30
0.000000
  70
    32
  0
VERTEX
  8
レイヤ__1
  5
1001
 10
4.98317
 20
3.32387
 30
0.000000
  70
    32
  0
VERTEX
  8
レイヤ__1
  5
1002
 10
4.99154
 20
3.32475
 30
0.000000
  70
    32
  0
VERTEX
  8
レイヤ__1
  5
1003
 10
4.99999
 20
3.32558
 30
0.000000
  70
    32
  0
VERTEX
  8
レイヤ__1
  5
1004
 10
5.00852
 20
3.32637
 30
0.000000
  70
    32
  0
VERTEX
  8
レイヤ__1
  5
1005
 10
5.01713
 20
3.32712
 30
0.000000
  70
    32
  0
VERTEX
  8
レイヤ__1
  5
1006
 10
5.02582
 20
3.32781
 30
0.000000
  70
    32
  0
VERTEX
  8
レイヤ__1
  5
1007
 10
5.03458
 20
3.32846
 30
0.000000
  70
    32
  0
VERTEX
  8
レイヤ__1
  5
1008
 10
5.04342
 20
3.32907
 30
0.000000
  70
    32
  0
VERTEX
  8
レイヤ__1
  5
1009
 10
5.05235
 20
3.32962
 30
0.000000
  70
    32
  0
VERTEX
  8
レイヤ__1
  5
100A
 10
5.06135
 20
3.33013
 30
0.000000
  70
    32
  0
VERTEX
  8
レイヤ__1
  5
100B
 10
5.07043
 20
3.33059
 30
0.000000
  70
    32
  0
VERTEX
  8
レイヤ__1
  5
100C
 10
5.07959
 20
3.33101
 30
0.000000
  70
    32
  0
VERTEX
  8
レイヤ__1
  5
100D
 10
5.08883
 20
3.33138
 30
0.000000
  70
    32
  0
VERTEX
  8
レイヤ__1
  5
100E
 10
5.09815
 20
3.33169
 30
0.000000
  70
    32
  0
VERTEX
  8
レイヤ__1
  5
100F
 10
5.10755
 20
3.33196
 30
0.000000
  70
    32
  0
VERTEX
  8
レイヤ__1
  5
1010
 10
5.11703
 20
3.33218
 30
0.000000
  70
    32
  0
VERTEX
  8
レイヤ__1
  5
1011
 10
5.12659
 20
3.33236
 30
0.000000
  70
    32
  0
VERTEX
  8
レイヤ__1
  5
1012
 10
5.13622
 20
3.33248
 30
0.000000
  70
    32
  0
VERTEX
  8
レイヤ__1
  5
1013
 10
5.14594
 20
3.33255
 30
0.000000
  70
    32
  0
VERTEX
  8
レイヤ__1
  5
1014
 10
5.15575
 20
3.33258
 30
0.000000
  70
    32
  0
SEQEND
  8
レイヤ__1
  5
1015
  0
LINE
  5
260
  8
レイヤ__1
 62
     5
 10
4.0012804655999989
 20
1.1959508662
 30
0.0
 11
2.5023885931000001
 21
1.1959508662
 31
0.0
  0
POLYLINE
  8
レイヤ__1
  5
1016
  62
5
  66
     1
 10
0.000000
 20
0.000000
 30
0.000000
  70
     8
  0
VERTEX
  8
レイヤ__1
  5
1017
 10
3.00252
 20
3.05156
 30
0.000000
  70
    32
  0
VERTEX
  8
レイヤ__1
  5
1018
 10
2.99696
 20
3.02047
 30
0.000000
  70
    32
  0
VERTEX
  8
レイヤ__1
  5
1019
 10
2.99190
 20
2.98978
 30
0.000000
  70
    32
  0
VERTEX
  8
レイヤ__1
  5
101A
 10
2.98733
 20
2.95950
 30
0.000000
  70
    32
  0
VERTEX
  8
レイヤ__1
  5
101B
 10
2.98326
 20
2.92962
 30
0.000000
  70
    32
  0
VERTEX
  8
レイヤ__1
  5
101C
 10
2.97967
 20
2.90015
 30
0.000000
  70
    32
  0
VERTEX
  8
レイヤ__1
  5
101D
 10
2.97656
 20
2.87108
 30
0.000000
  70
    32
  0
VERTEX
  8
レイヤ__1
  5
101E
 10
2.97393
 20
2.84240
 30
0.000000
  70
    32
  0
VERTEX
  8
レイヤ__1
  5
101F
 10
2.97176
 20
2.81411
 30
0.000000
  70
    32
  0
VERTEX
  8
レイヤ__1
  5
1020
 10
2.97006
 20
2.78621
 30
0.000000
  70
    32
  0
VERTEX
  8
レイヤ__1
  5
1021
 10
2.96882
 20
2.75870
 30
0.000000
  70
    32
  0
VERTEX
  8
レイヤ__1
  5
1022
 10
2.96803
 20
2.73157
 30
0.000000
  70
    32
  0
VERTEX
  8
レイヤ__1
  5
1023
 10
2.96769
 20
2.70483
 30
0.000000
  70
    32
  0
VERTEX
  8
レイヤ__1
  5
1024
 10
2.96779
 20
2.67845
 30
0.000000
  70
    32
  0
VERTEX
  8
レイヤ__1
  5
1025
 10
2.96833
 20
2.65246
 30
0.000000
  70
    32
  0
VERTEX
  8
レイヤ__1
  5
1026
 10
2.96930
 20
2.62683
 30
0.000000
  70
    32
  0
VERTEX
  8
レイヤ__1
  5
1027
 10
2.97069
 20
2.60157
 30
0.000000
  70
    32
  0
VERTEX
  8
レイヤ__1
  5
1028
 10
2.97250
 20
2.57668
 30
0.000000
  70
    32
  0
VERTEX
  8
レイヤ__1
  5
1029
 10
2.97473
 20
2.55214
 30
0.000000
  70
    32
  0
VERTEX
  8
レイヤ__1
  5
102A
 10
2.97736
 20
2.52796
 30
0.000000
  70
    32
  0
VERTEX
  8
レイヤ__1
  5
102B
 10
2.98040
 20
2.50414
 30
0.000000
  70
    32
  0
VERTEX
  8
レイヤ__1
  5
102C
 10
2.98384
 20
2.48067
 30
0.000000
  70
    32
  0
VERTEX
  8
レイヤ__1
  5
102D
 10
2.98767
 20
2.45755
 30
0.000000
  70
    32
  0
VERTEX
  8
レイヤ__1
  5
102E
 10
2.99188
 20
2.43478
 30
0.000000
  70
    32
  0
VERTEX
  8
レイヤ__1
  5
102F
 10
2.99647
 20
2.41235
 30
0.000000
  70
    32
  0
VERTEX
  8
レイヤ__1
  5
1030
 10
3.00145
 20
2.39025
 30
0.000000
  70
    32
  0
VERTEX
  8
レイヤ__1
  5
1031
 10
3.00679
 20
2.36850
 30
0.000000
  70
    32
  0
VERTEX
  8
レイヤ__1
  5
1032
 10
3.01249
 20
2.34707
 30
0.000000
  70
    32
  0
VERTEX
  8
レイヤ__1
  5
1033
 10
3.01856
 20
2.32598
 30
0.000000
  70
    32
  0
VERTEX
  8
レイヤ__1
  5
1034
 10
3.02497
 20
2.30521
 30
0.000000
  70
    32
  0
VERTEX
  8
レイヤ__1
  5
1035
 10
3.03174
 20
2.28477
 30
0.000000
  70
    32
  0
VERTEX
  8
レイヤ__1
  5
1036
 10
3.03885
 20
2.26464
 30
0.000000
  70
    32
  0
VERTEX
  8
レイヤ__1
  5
1037
 10
3.04629
 20
2.24484
 30
0.000000
  70
    32
  0
VERTEX
  8
レイヤ__1
  5
1038
 10
3.05407
 20
2.22535
 30
0.000000
  70
    32
  0
VERTEX
  8
レイヤ__1
  5
1039
 10
3.06217
 20
2.20617
 30
0.000000
  70
    32
  0
VERTEX
  8
レイヤ__1
  5
103A
 10
3.07059
 20
2.18729
 30
0.000000
  70
    32
  0
VERTEX
  8
レイヤ__1
  5
103B
 10
3.07933
 20
2.16873
 30
0.000000
  70
    32
  0
VERTEX
  8
レイヤ__1
  5
103C
 10
3.08838
 20
2.15046
 30
0.000000
  70
    32
  0
VERTEX
  8
レイヤ__1
  5
103D
 10
3.09773
 20
2.13249
 30
0.000000
  70
    32
  0
VERTEX
  8
レイヤ__1
  5
103E
 10
3.10738
 20
2.11482
 30
0.000000
  70
    32
  0
VERTEX
  8
レイヤ__1
  5
103F
 10
3.11732
 20
2.09744
 30
0.000000
  70
    32
  0
VERTEX
  8
レイヤ__1
  5
1040
 10
3.12755
 20
2.08036
 30
0.000000
  70
    32
  0
VERTEX
  8
レイヤ__1
  5
1041
 10
3.13806
 20
2.06355
 30
0.000000
  70
    32
  0
VERTEX
  8
レイヤ__1
  5
1042
 10
3.14884
 20
2.04703
 30
0.000000
  70
    32
  0
VERTEX
  8
レイヤ__1
  5
1043
 10
3.15990
 20
2.03079
 30
0.000000
  70
    32
  0
VERTEX
  8
レイヤ__1
  5
1044
 10
3.17122
 20
2.01483
 30
0.000000
  70
    32
  0
VERTEX
  8
レイヤ__1
  5
1045
 10
3.18280
 20
1.99914
 30
0.000000
  70
    32
  0
VERTEX
  8
レイヤ__1
  5
1046
 10
3.19464
 20
1.98372
 30
0.000000
  70
    32
  0
VERTEX
  8
レイヤ__1
  5
1047
 10
3.20672
 20
1.96857
 30
0.000000
  70
    32
  0
VERTEX
  8
レイヤ__1
  5
1048
 10
3.21905
 20
1.95368
 30
0.000000
  70
    32
  0
VERTEX
  8
レイヤ__1
  5
1049
 10
3.23162
 20
1.93906
 30
0.000000
  70
    32
  0
VERTEX
  8
レイヤ__1
  5
104A
 10
3.24441
 20
1.92469
 30
0.000000
  70
    32
  0
VERTEX
  8
レイヤ__1
  5
104B
 10
3.25744
 20
1.91057
 30
0.000000
  70
    32
  0
VERTEX
  8
レイヤ__1
  5
104C
 10
3.27068
 20
1.89671
 30
0.000000
  70
    32
  0
VERTEX
  8
レイヤ__1
  5
104D
 10
3.28414
 20
1.88310
 30
0.000000
  70
    32
  0
VERTEX
  8
レイヤ__1
  5
104E
 10
3.29781
 20
1.86973
 30
0.000000
  70
    32
  0
VERTEX
  8
レイヤ__1
  5
104F
 10
3.31168
 20
1.85661
 30
0.000000
  70
    32
  0
VERTEX
  8
レイヤ__1
  5
1050
 10
3.32575
 20
1.84372
 30
0.000000
  70
    32
  0
VERTEX
  8
レイヤ__1
  5
1051
 10
3.34002
 20
1.83107
 30
0.000000
  70
    32
  0
VERTEX
  8
レイヤ__1
  5
1052
 10
3.35447
 20
1.81866
 30
0.000000
  70
    32
  0
VERTEX
  8
レイヤ__1
  5
1053
 10
3.36911
 20
1.80647
 30
0.000000
  70
    32
  0
VERTEX
  8
レイヤ__1
  5
1054
 10
3.38392
 20
1.79451
 30
0.000000
  70
    32
  0
VERTEX
  8
レイヤ__1
  5
1055
 10
3.39891
 20
1.78278
 30
0.000000
  70
    32
  0
VERTEX
  8
レイヤ__1
  5
1056
 10
3.41406
 20
1.77126
 30
0.000000
  70
    32
  0
VERTEX
  8
レイヤ__1
  5
1057
 10
3.42937
 20
1.75997
 30
0.000000
  70
    32
  0
VERTEX
  8
レイヤ__1
  5
1058
 10
3.44483
 20
1.74888
 30
0.000000
  70
    32
  0
VERTEX
  8
レイヤ__1
  5
1059
 10
3.46045
 20
1.73801
 30
0.000000
  70
    32
  0
VERTEX
  8
レイヤ__1
  5
105A
 10
3.47620
 20
1.72735
 30
0.000000
  70
    32
  0
VERTEX
  8
レイヤ__1
  5
105B
 10
3.49210
 20
1.71689
 30
0.000000
  70
    32
  0
VERTEX
  8
レイヤ__1
  5
105C
 10
3.50813
 20
1.70663
 30
0.000000
  70
    32
  0
VERTEX
  8
レイヤ__1
  5
105D
 10
3.52428
 20
1.69657
 30
0.000000
  70
    32
  0
VERTEX
  8
レイヤ__1
  5
105E
 10
3.54056
 20
1.68671
 30
0.000000
  70
    32
  0
VERTEX
  8
レイヤ__1
  5
105F
 10
3.55695
 20
1.67704
 30
0.000000
  70
    32
  0
VERTEX
  8
レイヤ__1
  5
1060
 10
3.57346
 20
1.66756
 30
0.000000
  70
    32
  0
VERTEX
  8
レイヤ__1
  5
1061
 10
3.59007
 20
1.65826
 30
0.000000
  70
    32
  0
VERTEX
  8
レイヤ__1
  5
1062
 10
3.60678
 20
1.64915
 30
0.000000
  70
    32
  0
VERTEX
  8
レイヤ__1
  5
1063
 10
3.62358
 20
1.64022
 30
0.000000
  70
    32
  0
VERTEX
  8
レイヤ__1
  5
1064
 10
3.64047
 20
1.63147
 30
0.000000
  70
    32
  0
VERTEX
  8
レイヤ__1
  5
1065
 10
3.65744
 20
1.62289
 30
0.000000
  70
    32
  0
VERTEX
  8
レイヤ__1
  5
1066
 10
3.67449
 20
1.61447
 30
0.000000
  70
    32
  0
VERTEX
  8
レイヤ__1
  5
1067
 10
3.69162
 20
1.60623
 30
0.000000
  70
    32
  0
VERTEX
  8
レイヤ__1
  5
1068
 10
3.70880
 20
1.59815
 30
0.000000
  70
    32
  0
VERTEX
  8
レイヤ__1
  5
1069
 10
3.72606
 20
1.59024
 30
0.000000
  70
    32
  0
VERTEX
  8
レイヤ__1
  5
106A
 10
3.74336
 20
1.58248
 30
0.000000
  70
    32
  0
VERTEX
  8
レイヤ__1
  5
106B
 10
3.76072
 20
1.57487
 30
0.000000
  70
    32
  0
VERTEX
  8
レイヤ__1
  5
106C
 10
3.77812
 20
1.56742
 30
0.000000
  70
    32
  0
VERTEX
  8
レイヤ__1
  5
106D
 10
3.79555
 20
1.56012
 30
0.000000
  70
    32
  0
VERTEX
  8
レイヤ__1
  5
106E
 10
3.81303
 20
1.55296
 30
0.000000
  70
    32
  0
VERTEX
  8
レイヤ__1
  5
106F
 10
3.83052
 20
1.54594
 30
0.000000
  70
    32
  0
VERTEX
  8
レイヤ__1
  5
1070
 10
3.84805
 20
1.53907
 30
0.000000
  70
    32
  0
VERTEX
  8
レイヤ__1
  5
1071
 10
3.86558
 20
1.53232
 30
0.000000
  70
    32
  0
VERTEX
  8
レイヤ__1
  5
1072
 10
3.88313
 20
1.52572
 30
0.000000
  70
    32
  0
VERTEX
  8
レイヤ__1
  5
1073
 10
3.90069
 20
1.51924
 30
0.000000
  70
    32
  0
VERTEX
  8
レイヤ__1
  5
1074
 10
3.91824
 20
1.51289
 30
0.000000
  70
    32
  0
VERTEX
  8
レイヤ__1
  5
1075
 10
3.93579
 20
1.50666
 30
0.000000
  70
    32
  0
VERTEX
  8
レイヤ__1
  5
1076
 10
3.95333
 20
1.50056
 30
0.000000
  70
    32
  0
VERTEX
  8
レイヤ__1
  5
1077
 10
3.97086
 20
1.49457
 30
0.000000
  70
    32
  0
VERTEX
  8
レイヤ__1
  5
1078
 10
3.98836
 20
1.48870
 30
0.000000
  70
    32
  0
VERTEX
  8
レイヤ__1
  5
1079
 10
4.00583
 20
1.48293
 30
0.000000
  70
    32
  0
VERTEX
  8
レイヤ__1
  5
107A
 10
4.02327
 20
1.47728
 30
0.000000
  70
    32
  0
VERTEX
  8
レイヤ__1
  5
107B
 10
4.04067
 20
1.47173
 30
0.000000
  70
    32
  0
VERTEX
  8
レイヤ__1
  5
107C
 10
4.05803
 20
1.46628
 30
0.000000
  70
    32
  0
VERTEX
  8
レイヤ__1
  5
107D
 10
4.07534
 20
1.46093
 30
0.000000
  70
    32
  0
VERTEX
  8
レイヤ__1
  5
107E
 10
4.09259
 20
1.45568
 30
0.000000
  70
    32
  0
VERTEX
  8
レイヤ__1
  5
107F
 10
4.10978
 20
1.45052
 30
0.000000
  70
    32
  0
VERTEX
  8
レイヤ__1
  5
1080
 10
4.12691
 20
1.44544
 30
0.000000
  70
    32
  0
VERTEX
  8
レイヤ__1
  5
1081
 10
4.14396
 20
1.44046
 30
0.000000
  70
    32
  0
VERTEX
  8
レイヤ__1
  5
1082
 10
4.16094
 20
1.43556
 30
0.000000
  70
    32
  0
VERTEX
  8
レイヤ__1
  5
1083
 10
4.17783
 20
1.43073
 30
0.000000
  70
    32
  0
VERTEX
  8
レイヤ__1
  5
1084
 10
4.19464
 20
1.42599
 30
0.000000
  70
    32
  0
VERTEX
  8
レイヤ__1
  5
1085
 10
4.21135
 20
1.42132
 30
0.000000
  70
    32
  0
VERTEX
  8
レイヤ__1
  5
1086
 10
4.22797
 20
1.41671
 30
0.000000
  70
    32
  0
VERTEX
  8
レイヤ__1
  5
1087
 10
4.24448
 20
1.41218
 30
0.000000
  70
    32
  0
VERTEX
  8
レイヤ__1
  5
1088
 10
4.26087
 20
1.40771
 30
0.000000
  70
    32
  0
VERTEX
  8
レイヤ__1
  5
1089
 10
4.27716
 20
1.40330
 30
0.000000
  70
    32
  0
VERTEX
  8
レイヤ__1
  5
108A
 10
4.29332
 20
1.39895
 30
0.000000
  70
    32
  0
VERTEX
  8
レイヤ__1
  5
108B
 10
4.30935
 20
1.39466
 30
0.000000
  70
    32
  0
VERTEX
  8
レイヤ__1
  5
108C
 10
4.32525
 20
1.39041
 30
0.000000
  70
    32
  0
VERTEX
  8
レイヤ__1
  5
108D
 10
4.34102
 20
1.38622
 30
0.000000
  70
    32
  0
VERTEX
  8
レイヤ__1
  5
108E
 10
4.35664
 20
1.38207
 30
0.000000
  70
    32
  0
VERTEX
  8
レイヤ__1
  5
108F
 10
4.37211
 20
1.37796
 30
0.000000
  70
    32
  0
VERTEX
  8
レイヤ__1
  5
1090
 10
4.38743
 20
1.37390
 30
0.000000
  70
    32
  0
VERTEX
  8
レイヤ__1
  5
1091
 10
4.40259
 20
1.36987
 30
0.000000
  70
    32
  0
VERTEX
  8
レイヤ__1
  5
1092
 10
4.41758
 20
1.36587
 30
0.000000
  70
    32
  0
VERTEX
  8
レイヤ__1
  5
1093
 10
4.43240
 20
1.36190
 30
0.000000
  70
    32
  0
VERTEX
  8
レイヤ__1
  5
1094
 10
4.44705
 20
1.35796
 30
0.000000
  70
    32
  0
VERTEX
  8
レイヤ__1
  5
1095
 10
4.46151
 20
1.35404
 30
0.000000
  70
    32
  0
VERTEX
  8
レイヤ__1
  5
1096
 10
4.47578
 20
1.35015
 30
0.000000
  70
    32
  0
SEQEND
  8
レイヤ__1
  5
1097
  0
POLYLINE
  8
レイヤ__1
  5
1098
  62
5
  66
     1
 10
0.000000
 20
0.000000
 30
0.000000
  70
     8
  0
VERTEX
  8
レイヤ__1
  5
1099
 10
2.50239
 20
1.19595
 30
0.000000
  70
    32
  0
VERTEX
  8
レイヤ__1
  5
109A
 10
2.49804
 20
1.17071
 30
0.000000
  70
    32
  0
VERTEX
  8
レイヤ__1
  5
109B
 10
2.49398
 20
1.14554
 30
0.000000
  70
    32
  0
VERTEX
  8
レイヤ__1
  5
109C
 10
2.49021
 20
1.12043
 30
0.000000
  70
    32
  0
VERTEX
  8
レイヤ__1
  5
109D
 10
2.48674
 20
1.09540
 30
0.000000
  70
    32
  0
VERTEX
  8
レイヤ__1
  5
109E
 10
2.48357
 20
1.07043
 30
0.000000
  70
    32
  0
VERTEX
  8
レイヤ__1
  5
109F
 10
2.48069
 20
1.04554
 30
0.000000
  70
    32
  0
VERTEX
  8
レイヤ__1
  5
10A0
 10
2.47810
 20
1.02072
 30
0.000000
  70
    32
  0
VERTEX
  8
レイヤ__1
  5
10A1
 10
2.47581
 20
0.995985
 30
0.000000
  70
    32
  0
VERTEX
  8
レイヤ__1
  5
10A2
 10
2.47382
 20
0.971327
 30
0.000000
  70
    32
  0
VERTEX
  8
レイヤ__1
  5
10A3
 10
2.47212
 20
0.946751
 30
0.000000
  70
    32
  0
VERTEX
  8
レイヤ__1
  5
10A4
 10
2.47071
 20
0.922260
 30
0.000000
  70
    32
  0
VERTEX
  8
レイヤ__1
  5
10A5
 10
2.46961
 20
0.897855
 30
0.000000
  70
    32
  0
VERTEX
  8
レイヤ__1
  5
10A6
 10
2.46880
 20
0.873540
 30
0.000000
  70
    32
  0
VERTEX
  8
レイヤ__1
  5
10A7
 10
2.46829
 20
0.849314
 30
0.000000
  70
    32
  0
VERTEX
  8
レイヤ__1
  5
10A8
 10
2.46807
 20
0.825182
 30
0.000000
  70
    32
  0
VERTEX
  8
レイヤ__1
  5
10A9
 10
2.46815
 20
0.801145
 30
0.000000
  70
    32
  0
VERTEX
  8
レイヤ__1
  5
10AA
 10
2.46853
 20
0.777205
 30
0.000000
  70
    32
  0
VERTEX
  8
レイヤ__1
  5
10AB
 10
2.46921
 20
0.753365
 30
0.000000
  70
    32
  0
VERTEX
  8
レイヤ__1
  5
10AC
 10
2.47019
 20
0.729626
 30
0.000000
  70
    32
  0
VERTEX
  8
レイヤ__1
  5
10AD
 10
2.47146
 20
0.705990
 30
0.000000
  70
    32
  0
VERTEX
  8
レイヤ__1
  5
10AE
 10
2.47304
 20
0.682461
 30
0.000000
  70
    32
  0
VERTEX
  8
レイヤ__1
  5
10AF
 10
2.47491
 20
0.659039
 30
0.000000
  70
    32
  0
VERTEX
  8
レイヤ__1
  5
10B0
 10
2.47709
 20
0.635728
 30
0.000000
  70
    32
  0
VERTEX
  8
レイヤ__1
  5
10B1
 10
2.47956
 20
0.612528
 30
0.000000
  70
    32
  0
VERTEX
  8
レイヤ__1
  5
10B2
 10
2.48233
 20
0.589443
 30
0.000000
  70
    32
  0
VERTEX
  8
レイヤ__1
  5
10B3
 10
2.48541
 20
0.566475
 30
0.000000
  70
    32
  0
VERTEX
  8
レイヤ__1
  5
10B4
 10
2.48878
 20
0.543625
 30
0.000000
  70
    32
  0
VERTEX
  8
レイヤ__1
  5
10B5
 10
2.49245
 20
0.520896
 30
0.000000
  70
    32
  0
VERTEX
  8
レイヤ__1
  5
10B6
 10
2.49643
 20
0.498290
 30
0.000000
  70
    32
  0
VERTEX
  8
レイヤ__1
  5
10B7
 10
2.50071
 20
0.475809
 30
0.000000
  70
    32
  0
VERTEX
  8
レイヤ__1
  5
10B8
 10
2.50529
 20
0.453456
 30
0.000000
  70
    32
  0
VERTEX
  8
レイヤ__1
  5
10B9
 10
2.51017
 20
0.431231
 30
0.000000
  70
    32
  0
VERTEX
  8
レイヤ__1
  5
10BA
 10
2.51535
 20
0.409138
 30
0.000000
  70
    32
  0
VERTEX
  8
レイヤ__1
  5
10BB
 10
2.52084
 20
0.387179
 30
0.000000
  70
    32
  0
VERTEX
  8
レイヤ__1
  5
10BC
 10
2.52663
 20
0.365356
 30
0.000000
  70
    32
  0
VERTEX
  8
レイヤ__1
  5
10BD
 10
2.53272
 20
0.343670
 30
0.000000
  70
    32
  0
VERTEX
  8
レイヤ__1
  5
10BE
 10
2.53911
 20
0.322125
 30
0.000000
  70
    32
  0
VERTEX
  8
レイヤ__1
  5
10BF
 10
2.54581
 20
0.300722
 30
0.000000
  70
    32
  0
VERTEX
  8
レイヤ__1
  5
10C0
 10
2.55281
 20
0.279463
 30
0.000000
  70
    32
  0
VERTEX
  8
レイヤ__1
  5
10C1
 10
2.56012
 20
0.258350
 30
0.000000
  70
    32
  0
VERTEX
  8
レイヤ__1
  5
10C2
 10
2.56773
 20
0.237386
 30
0.000000
  70
    32
  0
VERTEX
  8
レイヤ__1
  5
10C3
 10
2.57565
 20
0.216573
 30
0.000000
  70
    32
  0
VERTEX
  8
レイヤ__1
  5
10C4
 10
2.58387
 20
0.195913
 30
0.000000
  70
    32
  0
VERTEX
  8
レイヤ__1
  5
10C5
 10
2.59239
 20
0.175408
 30
0.000000
  70
    32
  0
VERTEX
  8
レイヤ__1
  5
10C6
 10
2.60122
 20
0.155061
 30
0.000000
  70
    32
  0
VERTEX
  8
レイヤ__1
  5
10C7
 10
2.61036
 20
0.134872
 30
0.000000
  70
    32
  0
VERTEX
  8
レイヤ__1
  5
10C8
 10
2.61981
 20
0.114845
 30
0.000000
  70
    32
  0
VERTEX
  8
レイヤ__1
  5
10C9
 10
2.62956
 20
0.0949818
 30
0.000000
  70
    32
  0
VERTEX
  8
レイヤ__1
  5
10CA
 10
2.63961
 20
0.0752842
 30
0.000000
  70
    32
  0
VERTEX
  8
レイヤ__1
  5
10CB
 10
2.64998
 20
0.0557545
 30
0.000000
  70
    32
  0
VERTEX
  8
レイヤ__1
  5
10CC
 10
2.66065
 20
0.0363949
 30
0.000000
  70
    32
  0
VERTEX
  8
レイヤ__1
  5
10CD
 10
2.67162
 20
0.0172075
 30
0.000000
  70
    32
  0
VERTEX
  8
レイヤ__1
  5
10CE
 10
2.68291
 20
-0.00180563
 30
0.000000
  70
    32
  0
VERTEX
  8
レイヤ__1
  5
10CF
 10
2.69450
 20
-0.0206423
 30
0.000000
  70
    32
  0
VERTEX
  8
レイヤ__1
  5
10D0
 10
2.70641
 20
-0.0393003
 30
0.000000
  70
    32
  0
VERTEX
  8
レイヤ__1
  5
10D1
 10
2.71862
 20
-0.0577775
 30
0.000000
  70
    32
  0
VERTEX
  8
レイヤ__1
  5
10D2
 10
2.73114
 20
-0.0760719
 30
0.000000
  70
    32
  0
VERTEX
  8
レイヤ__1
  5
10D3
 10
2.74396
 20
-0.0941812
 30
0.000000
  70
    32
  0
VERTEX
  8
レイヤ__1
  5
10D4
 10
2.75710
 20
-0.112103
 30
0.000000
  70
    32
  0
VERTEX
  8
レイヤ__1
  5
10D5
 10
2.77055
 20
-0.129836
 30
0.000000
  70
    32
  0
VERTEX
  8
レイヤ__1
  5
10D6
 10
2.78431
 20
-0.147377
 30
0.000000
  70
    32
  0
VERTEX
  8
レイヤ__1
  5
10D7
 10
2.79837
 20
-0.164725
 30
0.000000
  70
    32
  0
VERTEX
  8
レイヤ__1
  5
10D8
 10
2.81275
 20
-0.181877
 30
0.000000
  70
    32
  0
VERTEX
  8
レイヤ__1
  5
10D9
 10
2.82744
 20
-0.198831
 30
0.000000
  70
    32
  0
VERTEX
  8
レイヤ__1
  5
10DA
 10
2.84244
 20
-0.215585
 30
0.000000
  70
    32
  0
VERTEX
  8
レイヤ__1
  5
10DB
 10
2.85775
 20
-0.232137
 30
0.000000
  70
    32
  0
VERTEX
  8
レイヤ__1
  5
10DC
 10
2.87338
 20
-0.248485
 30
0.000000
  70
    32
  0
VERTEX
  8
レイヤ__1
  5
10DD
 10
2.88931
 20
-0.264626
 30
0.000000
  70
    32
  0
VERTEX
  8
レイヤ__1
  5
10DE
 10
2.90556
 20
-0.280558
 30
0.000000
  70
    32
  0
VERTEX
  8
レイヤ__1
  5
10DF
 10
2.92212
 20
-0.296280
 30
0.000000
  70
    32
  0
VERTEX
  8
レイヤ__1
  5
10E0
 10
2.93899
 20
-0.311789
 30
0.000000
  70
    32
  0
VERTEX
  8
レイヤ__1
  5
10E1
 10
2.95617
 20
-0.327083
 30
0.000000
  70
    32
  0
VERTEX
  8
レイヤ__1
  5
10E2
 10
2.97367
 20
-0.342159
 30
0.000000
  70
    32
  0
VERTEX
  8
レイヤ__1
  5
10E3
 10
2.99148
 20
-0.357017
 30
0.000000
  70
    32
  0
VERTEX
  8
レイヤ__1
  5
10E4
 10
3.00961
 20
-0.371653
 30
0.000000
  70
    32
  0
VERTEX
  8
レイヤ__1
  5
10E5
 10
3.02805
 20
-0.386065
 30
0.000000
  70
    32
  0
VERTEX
  8
レイヤ__1
  5
10E6
 10
3.04680
 20
-0.400251
 30
0.000000
  70
    32
  0
VERTEX
  8
レイヤ__1
  5
10E7
 10
3.06587
 20
-0.414210
 30
0.000000
  70
    32
  0
VERTEX
  8
レイヤ__1
  5
10E8
 10
3.08525
 20
-0.427939
 30
0.000000
  70
    32
  0
VERTEX
  8
レイヤ__1
  5
10E9
 10
3.10495
 20
-0.441435
 30
0.000000
  70
    32
  0
VERTEX
  8
レイヤ__1
  5
10EA
 10
3.12496
 20
-0.454698
 30
0.000000
  70
    32
  0
VERTEX
  8
レイヤ__1
  5
10EB
 10
3.14529
 20
-0.467723
 30
0.000000
  70
    32
  0
VERTEX
  8
レイヤ__1
  5
10EC
 10
3.16594
 20
-0.480511
 30
0.000000
  70
    32
  0
VERTEX
  8
レイヤ__1
  5
10ED
 10
3.18690
 20
-0.493057
 30
0.000000
  70
    32
  0
VERTEX
  8
レイヤ__1
  5
10EE
 10
3.20818
 20
-0.505361
 30
0.000000
  70
    32
  0
VERTEX
  8
レイヤ__1
  5
10EF
 10
3.22977
 20
-0.517419
 30
0.000000
  70
    32
  0
VERTEX
  8
レイヤ__1
  5
10F0
 10
3.25168
 20
-0.529231
 30
0.000000
  70
    32
  0
VERTEX
  8
レイヤ__1
  5
10F1
 10
3.27391
 20
-0.540793
 30
0.000000
  70
    32
  0
VERTEX
  8
レイヤ__1
  5
10F2
 10
3.29646
 20
-0.552104
 30
0.000000
  70
    32
  0
VERTEX
  8
レイヤ__1
  5
10F3
 10
3.31932
 20
-0.563161
 30
0.000000
  70
    32
  0
VERTEX
  8
レイヤ__1
  5
10F4
 10
3.34251
 20
-0.573962
 30
0.000000
  70
    32
  0
VERTEX
  8
レイヤ__1
  5
10F5
 10
3.36601
 20
-0.584506
 30
0.000000
  70
    32
  0
VERTEX
  8
レイヤ__1
  5
10F6
 10
3.38983
 20
-0.594789
 30
0.000000
  70
    32
  0
VERTEX
  8
レイヤ__1
  5
10F7
 10
3.41397
 20
-0.604811
 30
0.000000
  70
    32
  0
VERTEX
  8
レイヤ__1
  5
10F8
 10
3.43843
 20
-0.614568
 30
0.000000
  70
    32
  0
VERTEX
  8
レイヤ__1
  5
10F9
 10
3.46320
 20
-0.624059
 30
0.000000
  70
    32
  0
VERTEX
  8
レイヤ__1
  5
10FA
 10
3.48830
 20
-0.633281
 30
0.000000
  70
    32
  0
VERTEX
  8
レイヤ__1
  5
10FB
 10
3.51372
 20
-0.642232
 30
0.000000
  70
    32
  0
VERTEX
  8
レイヤ__1
  5
10FC
 10
3.53946
 20
-0.650911
 30
0.000000
  70
    32
  0
VERTEX
  8
レイヤ__1
  5
10FD
 10
3.56552
 20
-0.659315
 30
0.000000
  70
    32
  0
VERTEX
  8
レイヤ__1
  5
10FE
 10
3.59190
 20
-0.667441
 30
0.000000
  70
    32
  0
VERTEX
  8
レイヤ__1
  5
10FF
 10
3.61860
 20
-0.675288
 30
0.000000
  70
    32
  0
VERTEX
  8
レイヤ__1
  5
1100
 10
3.64562
 20
-0.682854
 30
0.000000
  70
    32
  0
VERTEX
  8
レイヤ__1
  5
1101
 10
3.67296
 20
-0.690136
 30
0.000000
  70
    32
  0
VERTEX
  8
レイヤ__1
  5
1102
 10
3.70063
 20
-0.697133
 30
0.000000
  70
    32
  0
VERTEX
  8
レイヤ__1
  5
1103
 10
3.72862
 20
-0.703841
 30
0.000000
  70
    32
  0
VERTEX
  8
レイヤ__1
  5
1104
 10
3.75693
 20
-0.710260
 30
0.000000
  70
    32
  0
VERTEX
  8
レイヤ__1
  5
1105
 10
3.78556
 20
-0.716387
 30
0.000000
  70
    32
  0
VERTEX
  8
レイヤ__1
  5
1106
 10
3.81452
 20
-0.722219
 30
0.000000
  70
    32
  0
VERTEX
  8
レイヤ__1
  5
1107
 10
3.84380
 20
-0.727755
 30
0.000000
  70
    32
  0
VERTEX
  8
レイヤ__1
  5
1108
 10
3.87340
 20
-0.732992
 30
0.000000
  70
    32
  0
VERTEX
  8
レイヤ__1
  5
1109
 10
3.90333
 20
-0.737929
 30
0.000000
  70
    32
  0
VERTEX
  8
レイヤ__1
  5
110A
 10
3.93358
 20
-0.742563
 30
0.000000
  70
    32
  0
VERTEX
  8
レイヤ__1
  5
110B
 10
3.96416
 20
-0.746892
 30
0.000000
  70
    32
  0
VERTEX
  8
レイヤ__1
  5
110C
 10
3.99506
 20
-0.750913
 30
0.000000
  70
    32
  0
VERTEX
  8
レイヤ__1
  5
110D
 10
4.02629
 20
-0.754626
 30
0.000000
  70
    32
  0
VERTEX
  8
レイヤ__1
  5
110E
 10
4.05784
 20
-0.758027
 30
0.000000
  70
    32
  0
VERTEX
  8
レイヤ__1
  5
110F
 10
4.08971
 20
-0.761115
 30
0.000000
  70
    32
  0
VERTEX
  8
レイヤ__1
  5
1110
 10
4.12192
 20
-0.763886
 30
0.000000
  70
    32
  0
VERTEX
  8
レイヤ__1
  5
1111
 10
4.15445
 20
-0.766340
 30
0.000000
  70
    32
  0
VERTEX
  8
レイヤ__1
  5
1112
 10
4.18730
 20
-0.768474
 30
0.000000
  70
    32
  0
VERTEX
  8
レイヤ__1
  5
1113
 10
4.22048
 20
-0.770286
 30
0.000000
  70
    32
  0
VERTEX
  8
レイヤ__1
  5
1114
 10
4.25399
 20
-0.771774
 30
0.000000
  70
    32
  0
VERTEX
  8
レイヤ__1
  5
1115
 10
4.28783
 20
-0.772935
 30
0.000000
  70
    32
  0
VERTEX
  8
レイヤ__1
  5
1116
 10
4.32199
 20
-0.773768
 30
0.000000
  70
    32
  0
VERTEX
  8
レイヤ__1
  5
1117
 10
4.35648
 20
-0.774270
 30
0.000000
  70
    32
  0
VERTEX
  8
レイヤ__1
  5
1118
 10
4.39130
 20
-0.774440
 30
0.000000
  70
    32
  0
SEQEND
  8
レイヤ__1
  5
1119
  0
POLYLINE
  8
レイヤ__1
  5
111A
  62
5
  66
     1
 10
0.000000
 20
0.000000
 30
0.000000
  70
     8
  0
VERTEX
  8
レイヤ__1
  5
111B
 10
5.38020
 20
4.52083
 30
0.000000
  70
    32
  0
VERTEX
  8
レイヤ__1
  5
111C
 10
5.34435
 20
4.52069
 30
0.000000
  70
    32
  0
VERTEX
  8
レイヤ__1
  5
111D
 10
5.30881
 20
4.52030
 30
0.000000
  70
    32
  0
VERTEX
  8
レイヤ__1
  5
111E
 10
5.27357
 20
4.51966
 30
0.000000
  70
    32
  0
VERTEX
  8
レイヤ__1
  5
111F
 10
5.23862
 20
4.51878
 30
0.000000
  70
    32
  0
VERTEX
  8
レイヤ__1
  5
1120
 10
5.20398
 20
4.51764
 30
0.000000
  70
    32
  0
VERTEX
  8
レイヤ__1
  5
1121
 10
5.16964
 20
4.51626
 30
0.000000
  70
    32
  0
VERTEX
  8
レイヤ__1
  5
1122
 10
5.13560
 20
4.51464
 30
0.000000
  70
    32
  0
VERTEX
  8
レイヤ__1
  5
1123
 10
5.10186
 20
4.51278
 30
0.000000
  70
    32
  0
VERTEX
  8
レイヤ__1
  5
1124
 10
5.06842
 20
4.51068
 30
0.000000
  70
    32
  0
VERTEX
  8
レイヤ__1
  5
1125
 10
5.03527
 20
4.50834
 30
0.000000
  70
    32
  0
VERTEX
  8
レイヤ__1
  5
1126
 10
5.00242
 20
4.50576
 30
0.000000
  70
    32
  0
VERTEX
  8
レイヤ__1
  5
1127
 10
4.96986
 20
4.50295
 30
0.000000
  70
    32
  0
VERTEX
  8
レイヤ__1
  5
1128
 10
4.93760
 20
4.49991
 30
0.000000
  70
    32
  0
VERTEX
  8
レイヤ__1
  5
1129
 10
4.90564
 20
4.49664
 30
0.000000
  70
    32
  0
VERTEX
  8
レイヤ__1
  5
112A
 10
4.87396
 20
4.49313
 30
0.000000
  70
    32
  0
VERTEX
  8
レイヤ__1
  5
112B
 10
4.84258
 20
4.48940
 30
0.000000
  70
    32
  0
VERTEX
  8
レイヤ__1
  5
112C
 10
4.81150
 20
4.48544
 30
0.000000
  70
    32
  0
VERTEX
  8
レイヤ__1
  5
112D
 10
4.78070
 20
4.48126
 30
0.000000
  70
    32
  0
VERTEX
  8
レイヤ__1
  5
112E
 10
4.75019
 20
4.47686
 30
0.000000
  70
    32
  0
VERTEX
  8
レイヤ__1
  5
112F
 10
4.71997
 20
4.47223
 30
0.000000
  70
    32
  0
VERTEX
  8
レイヤ__1
  5
1130
 10
4.69005
 20
4.46739
 30
0.000000
  70
    32
  0
VERTEX
  8
レイヤ__1
  5
1131
 10
4.66041
 20
4.46233
 30
0.000000
  70
    32
  0
VERTEX
  8
レイヤ__1
  5
1132
 10
4.63105
 20
4.45705
 30
0.000000
  70
    32
  0
VERTEX
  8
レイヤ__1
  5
1133
 10
4.60199
 20
4.45156
 30
0.000000
  70
    32
  0
VERTEX
  8
レイヤ__1
  5
1134
 10
4.57320
 20
4.44585
 30
0.000000
  70
    32
  0
VERTEX
  8
レイヤ__1
  5
1135
 10
4.54471
 20
4.43994
 30
0.000000
  70
    32
  0
VERTEX
  8
レイヤ__1
  5
1136
 10
4.51650
 20
4.43381
 30
0.000000
  70
    32
  0
VERTEX
  8
レイヤ__1
  5
1137
 10
4.48857
 20
4.42748
 30
0.000000
  70
    32
  0
VERTEX
  8
レイヤ__1
  5
1138
 10
4.46093
 20
4.42094
 30
0.000000
  70
    32
  0
VERTEX
  8
レイヤ__1
  5
1139
 10
4.43356
 20
4.41419
 30
0.000000
  70
    32
  0
VERTEX
  8
レイヤ__1
  5
113A
 10
4.40648
 20
4.40725
 30
0.000000
  70
    32
  0
VERTEX
  8
レイヤ__1
  5
113B
 10
4.37968
 20
4.40010
 30
0.000000
  70
    32
  0
VERTEX
  8
レイヤ__1
  5
113C
 10
4.35316
 20
4.39276
 30
0.000000
  70
    32
  0
VERTEX
  8
レイヤ__1
  5
113D
 10
4.32692
 20
4.38521
 30
0.000000
  70
    32
  0
VERTEX
  8
レイヤ__1
  5
113E
 10
4.30095
 20
4.37747
 30
0.000000
  70
    32
  0
VERTEX
  8
レイヤ__1
  5
113F
 10
4.27527
 20
4.36954
 30
0.000000
  70
    32
  0
VERTEX
  8
レイヤ__1
  5
1140
 10
4.24986
 20
4.36141
 30
0.000000
  70
    32
  0
VERTEX
  8
レイヤ__1
  5
1141
 10
4.22473
 20
4.35309
 30
0.000000
  70
    32
  0
VERTEX
  8
レイヤ__1
  5
1142
 10
4.19987
 20
4.34459
 30
0.000000
  70
    32
  0
VERTEX
  8
レイヤ__1
  5
1143
 10
4.17528
 20
4.33589
 30
0.000000
  70
    32
  0
VERTEX
  8
レイヤ__1
  5
1144
 10
4.15098
 20
4.32701
 30
0.000000
  70
    32
  0
VERTEX
  8
レイヤ__1
  5
1145
 10
4.12694
 20
4.31795
 30
0.000000
  70
    32
  0
VERTEX
  8
レイヤ__1
  5
1146
 10
4.10318
 20
4.30870
 30
0.000000
  70
    32
  0
VERTEX
  8
レイヤ__1
  5
1147
 10
4.07968
 20
4.29927
 30
0.000000
  70
    32
  0
VERTEX
  8
レイヤ__1
  5
1148
 10
4.05646
 20
4.28967
 30
0.000000
  70
    32
  0
VERTEX
  8
レイヤ__1
  5
1149
 10
4.03351
 20
4.27988
 30
0.000000
  70
    32
  0
VERTEX
  8
レイヤ__1
  5
114A
 10
4.01083
 20
4.26992
 30
0.000000
  70
    32
  0
VERTEX
  8
レイヤ__1
  5
114B
 10
3.98842
 20
4.25979
 30
0.000000
  70
    32
  0
VERTEX
  8
レイヤ__1
  5
114C
 10
3.96627
 20
4.24948
 30
0.000000
  70
    32
  0
VERTEX
  8
レイヤ__1
  5
114D
 10
3.94439
 20
4.23900
 30
0.000000
  70
    32
  0
VERTEX
  8
レイヤ__1
  5
114E
 10
3.92278
 20
4.22835
 30
0.000000
  70
    32
  0
VERTEX
  8
レイヤ__1
  5
114F
 10
3.90143
 20
4.21754
 30
0.000000
  70
    32
  0
VERTEX
  8
レイヤ__1
  5
1150
 10
3.88035
 20
4.20656
 30
0.000000
  70
    32
  0
VERTEX
  8
レイヤ__1
  5
1151
 10
3.85953
 20
4.19542
 30
0.000000
  70
    32
  0
VERTEX
  8
レイヤ__1
  5
1152
 10
3.83898
 20
4.18411
 30
0.000000
  70
    32
  0
VERTEX
  8
レイヤ__1
  5
1153
 10
3.81869
 20
4.17264
 30
0.000000
  70
    32
  0
VERTEX
  8
レイヤ__1
  5
1154
 10
3.79866
 20
4.16101
 30
0.000000
  70
    32
  0
VERTEX
  8
レイヤ__1
  5
1155
 10
3.77889
 20
4.14923
 30
0.000000
  70
    32
  0
VERTEX
  8
レイヤ__1
  5
1156
 10
3.75938
 20
4.13729
 30
0.000000
  70
    32
  0
VERTEX
  8
レイヤ__1
  5
1157
 10
3.74013
 20
4.12520
 30
0.000000
  70
    32
  0
VERTEX
  8
レイヤ__1
  5
1158
 10
3.72114
 20
4.11295
 30
0.000000
  70
    32
  0
VERTEX
  8
レイヤ__1
  5
1159
 10
3.70241
 20
4.10055
 30
0.000000
  70
    32
  0
VERTEX
  8
レイヤ__1
  5
115A
 10
3.68394
 20
4.08801
 30
0.000000
  70
    32
  0
VERTEX
  8
レイヤ__1
  5
115B
 10
3.66572
 20
4.07531
 30
0.000000
  70
    32
  0
VERTEX
  8
レイヤ__1
  5
115C
 10
3.64776
 20
4.06247
 30
0.000000
  70
    32
  0
VERTEX
  8
レイヤ__1
  5
115D
 10
3.63005
 20
4.04949
 30
0.000000
  70
    32
  0
VERTEX
  8
レイヤ__1
  5
115E
 10
3.61260
 20
4.03636
 30
0.000000
  70
    32
  0
VERTEX
  8
レイヤ__1
  5
115F
 10
3.59540
 20
4.02310
 30
0.000000
  70
    32
  0
VERTEX
  8
レイヤ__1
  5
1160
 10
3.57845
 20
4.00969
 30
0.000000
  70
    32
  0
VERTEX
  8
レイヤ__1
  5
1161
 10
3.56176
 20
3.99615
 30
0.000000
  70
    32
  0
VERTEX
  8
レイヤ__1
  5
1162
 10
3.54532
 20
3.98247
 30
0.000000
  70
    32
  0
VERTEX
  8
レイヤ__1
  5
1163
 10
3.52912
 20
3.96866
 30
0.000000
  70
    32
  0
VERTEX
  8
レイヤ__1
  5
1164
 10
3.51318
 20
3.95471
 30
0.000000
  70
    32
  0
VERTEX
  8
レイヤ__1
  5
1165
 10
3.49749
 20
3.94064
 30
0.000000
  70
    32
  0
VERTEX
  8
レイヤ__1
  5
1166
 10
3.48204
 20
3.92643
 30
0.000000
  70
    32
  0
VERTEX
  8
レイヤ__1
  5
1167
 10
3.46685
 20
3.91210
 30
0.000000
  70
    32
  0
VERTEX
  8
レイヤ__1
  5
1168
 10
3.45190
 20
3.89764
 30
0.000000
  70
    32
  0
VERTEX
  8
レイヤ__1
  5
1169
 10
3.43719
 20
3.88306
 30
0.000000
  70
    32
  0
VERTEX
  8
レイヤ__1
  5
116A
 10
3.42273
 20
3.86836
 30
0.000000
  70
    32
  0
VERTEX
  8
レイヤ__1
  5
116B
 10
3.40852
 20
3.85353
 30
0.000000
  70
    32
  0
VERTEX
  8
レイヤ__1
  5
116C
 10
3.39455
 20
3.83859
 30
0.000000
  70
    32
  0
VERTEX
  8
レイヤ__1
  5
116D
 10
3.38082
 20
3.82353
 30
0.000000
  70
    32
  0
VERTEX
  8
レイヤ__1
  5
116E
 10
3.36733
 20
3.80835
 30
0.000000
  70
    32
  0
VERTEX
  8
レイヤ__1
  5
116F
 10
3.35409
 20
3.79306
 30
0.000000
  70
    32
  0
VERTEX
  8
レイヤ__1
  5
1170
 10
3.34109
 20
3.77766
 30
0.000000
  70
    32
  0
VERTEX
  8
レイヤ__1
  5
1171
 10
3.32833
 20
3.76215
 30
0.000000
  70
    32
  0
VERTEX
  8
レイヤ__1
  5
1172
 10
3.31580
 20
3.74653
 30
0.000000
  70
    32
  0
VERTEX
  8
レイヤ__1
  5
1173
 10
3.30352
 20
3.73080
 30
0.000000
  70
    32
  0
VERTEX
  8
レイヤ__1
  5
1174
 10
3.29147
 20
3.71496
 30
0.000000
  70
    32
  0
VERTEX
  8
レイヤ__1
  5
1175
 10
3.27966
 20
3.69902
 30
0.000000
  70
    32
  0
VERTEX
  8
レイヤ__1
  5
1176
 10
3.26809
 20
3.68298
 30
0.000000
  70
    32
  0
VERTEX
  8
レイヤ__1
  5
1177
 10
3.25675
 20
3.66684
 30
0.000000
  70
    32
  0
VERTEX
  8
レイヤ__1
  5
1178
 10
3.24565
 20
3.65060
 30
0.000000
  70
    32
  0
VERTEX
  8
レイヤ__1
  5
1179
 10
3.23478
 20
3.63426
 30
0.000000
  70
    32
  0
VERTEX
  8
レイヤ__1
  5
117A
 10
3.22414
 20
3.61783
 30
0.000000
  70
    32
  0
VERTEX
  8
レイヤ__1
  5
117B
 10
3.21374
 20
3.60130
 30
0.000000
  70
    32
  0
VERTEX
  8
レイヤ__1
  5
117C
 10
3.20357
 20
3.58469
 30
0.000000
  70
    32
  0
VERTEX
  8
レイヤ__1
  5
117D
 10
3.19363
 20
3.56798
 30
0.000000
  70
    32
  0
VERTEX
  8
レイヤ__1
  5
117E
 10
3.18392
 20
3.55118
 30
0.000000
  70
    32
  0
VERTEX
  8
レイヤ__1
  5
117F
 10
3.17444
 20
3.53429
 30
0.000000
  70
    32
  0
VERTEX
  8
レイヤ__1
  5
1180
 10
3.16519
 20
3.51732
 30
0.000000
  70
    32
  0
VERTEX
  8
レイヤ__1
  5
1181
 10
3.15616
 20
3.50027
 30
0.000000
  70
    32
  0
VERTEX
  8
レイヤ__1
  5
1182
 10
3.14737
 20
3.48313
 30
0.000000
  70
    32
  0
VERTEX
  8
レイヤ__1
  5
1183
 10
3.13880
 20
3.46591
 30
0.000000
  70
    32
  0
VERTEX
  8
レイヤ__1
  5
1184
 10
3.13046
 20
3.44862
 30
0.000000
  70
    32
  0
VERTEX
  8
レイヤ__1
  5
1185
 10
3.12234
 20
3.43125
 30
0.000000
  70
    32
  0
VERTEX
  8
レイヤ__1
  5
1186
 10
3.11444
 20
3.41380
 30
0.000000
  70
    32
  0
VERTEX
  8
レイヤ__1
  5
1187
 10
3.10677
 20
3.39627
 30
0.000000
  70
    32
  0
VERTEX
  8
レイヤ__1
  5
1188
 10
3.09933
 20
3.37868
 30
0.000000
  70
    32
  0
VERTEX
  8
レイヤ__1
  5
1189
 10
3.09210
 20
3.36102
 30
0.000000
  70
    32
  0
VERTEX
  8
レイヤ__1
  5
118A
 10
3.08510
 20
3.34328
 30
0.000000
  70
    32
  0
VERTEX
  8
レイヤ__1
  5
118B
 10
3.07831
 20
3.32548
 30
0.000000
  70
    32
  0
VERTEX
  8
レイヤ__1
  5
118C
 10
3.07175
 20
3.30762
 30
0.000000
  70
    32
  0
VERTEX
  8
レイヤ__1
  5
118D
 10
3.06541
 20
3.28969
 30
0.000000
  70
    32
  0
VERTEX
  8
レイヤ__1
  5
118E
 10
3.05928
 20
3.27169
 30
0.000000
  70
    32
  0
VERTEX
  8
レイヤ__1
  5
118F
 10
3.05337
 20
3.25364
 30
0.000000
  70
    32
  0
VERTEX
  8
レイヤ__1
  5
1190
 10
3.04768
 20
3.23553
 30
0.000000
  70
    32
  0
VERTEX
  8
レイヤ__1
  5
1191
 10
3.04220
 20
3.21736
 30
0.000000
  70
    32
  0
VERTEX
  8
レイヤ__1
  5
1192
 10
3.03694
 20
3.19914
 30
0.000000
  70
    32
  0
VERTEX
  8
レイヤ__1
  5
1193
 10
3.03190
 20
3.18086
 30
0.000000
  70
    32
  0
VERTEX
  8
レイヤ__1
  5
1194
 10
3.02707
 20
3.16254
 30
0.000000
  70
    32
  0
VERTEX
  8
レイヤ__1
  5
1195
 10
3.02245
 20
3.14416
 30
0.000000
  70
    32
  0
VERTEX
  8
レイヤ__1
  5
1196
 10
3.01804
 20
3.12573
 30
0.000000
  70
    32
  0
VERTEX
  8
レイヤ__1
  5
1197
 10
3.01385
 20
3.10725
 30
0.000000
  70
    32
  0
VERTEX
  8
レイヤ__1
  5
1198
 10
3.00986
 20
3.08873
 30
0.000000
  70
    32
  0
VERTEX
  8
レイヤ__1
  5
1199
 10
3.00609
 20
3.07017
 30
0.000000
  70
    32
  0
VERTEX
  8
レイヤ__1
  5
119A
 10
3.00252
 20
3.05156
 30
0.000000
  70
    32
  0
SEQEND
  8
レイヤ__1
  5
119B
  0
ENDBLK
  5
264
  8
0
  0
BLOCK
  8
0
  2
*U16
 70
     1
 10
0.0
 20
0.0
 30
0.0
  3
*U16
  1

  0
TEXT
  5
289
  8
図枠
  6
CONTINUOUS
 10
51.02669971644417
 20
-45.652870340299991
 30
0.0
 40
0.9995370069999999
  1
1
  0
ENDBLK
  5
28B
  8
0
  0
BLOCK
  8
0
  2
*U17
 70
     1
 10
0.0
 20
0.0
 30
0.0
  3
*U17
  1

  0
TEXT
  5
28D
  8
ﾚｲﾔ_1
  6
CONTINUOUS
 10
14.68561582827766
 20
-22.153564874200001
 30
0.0
 40
1.1994444489
  1
3
  0
ENDBLK
  5
28F
  8
0
  0
BLOCK
  8
0
  2
*U18
 70
     1
 10
0.0
 20
0.0
 30
0.0
  3
*U18
  1

  0
TEXT
  5
291
  8
図枠
  6
CONTINUOUS
 10
50.97342490135027
 20
-42.319537007000001
 30
0.0
 40
0.9995370069999999
  1
3
  0
ENDBLK
  5
293
  8
0
  0
BLOCK
  8
0
  2
*U19
 70
     1
 10
0.0
 20
0.0
 30
0.0
  3
*U19
  1

  0
TEXT
  5
295
  8
図枠
  6
CONTINUOUS
 10
82.963562885612674
 20
-56.462829882993908
 30
0.0
 40
1.1994443813999991
  1
フラッシュ棚柱
  0
ENDBLK
  5
297
  8
0
  0
BLOCK
  8
0
  2
*U20
 70
     1
 10
0.0
 20
0.0
 30
0.0
  3
*U20
  1

  0
TEXT
  5
299
  8
図枠
  6
CONTINUOUS
 10
83.922509535716756
 20
-60.092965248737563
 30
0.0
 40
1.1994443813999991
  1
フック承認図
  0
ENDBLK
  5
29B
  8
0
  0
BLOCK
  8
0
  2
*U21
 70
     1
 10
0.0
 20
0.0
 30
0.0
  3
*U21
  1

  0
TEXT
  5
29D
  8
図枠
  6
CONTINUOUS
 10
72.759103747065495
 20
-45.652870340299991
 30
0.0
 40
0.9995370069999999
  1
S60C 0.7t  HV500
  0
ENDBLK
  5
29F
  8
0
  0
BLOCK
  8
0
  2
*U22
 70
     1
 10
0.0
 20
0.0
 30
0.0
  3
*U22
  1

  0
TEXT
  5
2A1
  8
図枠
  6
CONTINUOUS
 10
86.365116407201015
 20
-45.75434617857411
 30
0.0
 40
0.9995370069999999
  1
スズコバルトめっき
  0
ENDBLK
  5
2A3
  8
0
  0
BLOCK
  8
0
  2
*U23
 70
     1
 10
0.0
 20
0.0
 30
0.0
  3
*U23
  1

  0
TEXT
  5
2A5
  8
図枠
  6
CONTINUOUS
 10
86.365116407201015
 20
-42.421012845274113
 30
0.0
 40
0.9995370069999999
  1
スズコバルトめっき
  0
ENDBLK
  5
2A7
  8
0
  0
BLOCK
  8
0
  2
*U24
 70
     1
 10
0.0
 20
0.0
 30
0.0
  3
*U24
  1

  0
TEXT
  5
2A9
  8
図枠
  6
CONTINUOUS
 10
74.682070882359909
 20
-42.319537007000001
 30
0.0
 40
0.9995370069999999
  1
SPCC 1.6ｔ
  0
ENDBLK
  5
2AB
  8
0
  0
BLOCK
  8
0
  2
*U25
 70
     1
 10
0.0
 20
0.0
 30
0.0
  3
*U25
  1

  0
TEXT
  5
2AD
  8
図枠
  6
CONTINUOUS
 10
85.292433321579665
 20
-63.735277714699997
 30
0.0
 40
1.1994443813999991
  1
SLZ00021
  0
ENDBLK
  5
2AF
  8
0
  0
BLOCK
  8
0
  2
*U26
 70
     1
 10
0.0
 20
0.0
 30
0.0
  3
*U26
  1

  0
TEXT
  5
2B1
  8
改訂
  6
CONTINUOUS
 10
67.624734611864724
 20
25.185952591100001
 30
0.0
 40
0.8995833225
  1
1
  0
ENDBLK
  5
2B3
  8
0
  0
BLOCK
  8
0
  2
*U27
 70
     1
 10
0.0
 20
0.0
 30
0.0
  3
*U27
  1

  0
TEXT
  5
2B5
  8
図枠
  6
CONTINUOUS
 10
68.25709903828934
 20
-59.077415936899989
 30
0.0
 40
0.9995370069999999
  1
＊＊＊
  0
ENDBLK
  5
2B7
  8
0
  0
BLOCK
  8
0
  2
*U28
 70
     1
 10
0.0
 20
0.0
 30
0.0
  3
*U28
  1

  0
TEXT
  5
2B9
  8
図枠
  6
CONTINUOUS
 10
68.25709903828934
 20
-60.9107492702
 30
0.0
 40
0.9995370069999999
  1
＊＊＊
  0
ENDBLK
  5
2BB
  8
0
  0
BLOCK
  8
0
  2
*U29
 70
     1
 10
0.0
 20
0.0
 30
0.0
  3
*U29
  1

  0
TEXT
  5
2BD
  8
図枠
  6
CONTINUOUS
 10
58.185376244769039
 20
-45.708682051350749
 30
0.0
 40
0.9995370069999999
  1
フック本体
  0
ENDBLK
  5
2BF
  8
0
  0
BLOCK
  8
0
  2
*U30
 70
     1
 10
0.0
 20
0.0
 30
0.0
  3
*U30
  1

  0
TEXT
  5
2C1
  8
図枠
  6
CONTINUOUS
 10
58.789157482500002
 20
-42.380422509964461
 30
0.0
 40
0.9995370069999999
  1
受け補強
  0
ENDBLK
  5
2C3
  8
0
  0
BLOCK
  8
0
  2
*U31
 70
     1
 10
0.0
 20
0.0
 30
0.0
  3
*U31
  1

  0
TEXT
  5
2C5
  8
図枠
  6
CONTINUOUS
 10
58.137175221588834
 20
-44.01664642518223
 30
0.0
 40
0.9995370069999999
  1
受けラバー
  0
ENDBLK
  5
2C7
  8
0
  0
BLOCK
  8
0
  2
*U32
 70
     1
 10
0.0
 20
0.0
 30
0.0
  3
*U32
  1

  0
TEXT
  5
2C9
  8
図枠
  6
CONTINUOUS
 10
64.395465461736563
 20
-53.467918433153301
 30
0.0
 40
1.1994443813999991
  1
指定無き公差はJIS B0408-Bによること
  0
ENDBLK
  5
2CB
  8
0
  0
BLOCK
  8
0
  2
*U33
 70
     1
 10
0.0
 20
0.0
 30
0.0
  3
*U33
  1

  0
TEXT
  5
2CD
  8
図枠
  6
CONTINUOUS
 10
50.968351109436547
 20
-43.986203673699997
 30
0.0
 40
0.9995370069999999
  1
2
  0
ENDBLK
  5
2CF
  8
0
  0
BLOCK
  8
0
  2
*U34
 70
     1
 10
0.0
 20
0.0
 30
0.0
  3
*U34
  1

  0
TEXT
  5
2D1
  8
図枠
  6
CONTINUOUS
 10
72.832673729814218
 20
-44.031867800923351
 30
0.0
 40
0.9995370069999999
  1
エラストマー樹脂
  0
ENDBLK
  5
2D3
  8
0
  0
BLOCK
  8
0
  2
*U35
 70
     1
 10
0.0
 20
0.0
 30
0.0
  3
*U35
  1

  0
TEXT
  5
2D5
  8
図枠
  6
CONTINUOUS
 10
88.267788374840606
 20
-44.031867800923351
 30
0.0
 40
0.9995370069999999
  1
黒・白・薄茶
  0
ENDBLK
  5
2D7
  8
0
  0
BLOCK
  8
0
  2
*U36
 70
     1
 10
0.0
 20
0.0
 30
0.0
  3
*U36
  1

  0
TEXT
  5
2D9
  8
図枠
  6
CONTINUOUS
 10
60.921381545708627
 20
-57.246471718099997
 30
0.0
 40
0.9995370069999999
  1
3：1
  0
ENDBLK
  5
2DB
  8
0
  0
BLOCK
  8
0
  2
*U37
 70
     1
 10
0.0
 20
0.0
 30
0.0
  3
*U37
  1

  0
TEXT
  5
2DD
  8
図枠
  6
CONTINUOUS
 10
50.87310654557615
 20
-57.246471718099997
 30
0.0
 40
0.9995370069999999
  1
H20.10.23
  0
ENDBLK
  5
2DF
  8
0
  0
BLOCK
  8
0
  2
*U38
 70
     1
 10
0.0
 20
0.0
 30
0.0
  3
*U38
  1

  0
TEXT
  5
2E1
  8
図枠
  6
CONTINUOUS
 10
56.320289940710673
 20
-59.102784896468521
 30
0.0
 40
0.9995370069999999
  1
園原
  0
ENDBLK
  5
2E3
  8
0
  0
BLOCK
  8
0
  2
*U39
 70
     1
 10
0.0
 20
0.0
 30
0.0
  3
*U39
  1

  0
TEXT
  5
2E5
  8
図枠
  6
CONTINUOUS
 10
56.320289940710673
 20
-60.936118229768518
 30
0.0
 40
0.9995370069999999
  1
園原
  0
ENDBLK
  5
2E7
  8
0
  0
BLOCK
  8
0
  2
*U40
 70
     1
 10
0.0
 20
0.0
 30
0.0
  3
*U40
  1

  0
TEXT
  5
2E9
  8
ﾚｲﾔ_1
  6
CONTINUOUS
 10
3.1092469014756339
 20
1.8423080553
 30
0.0
 40
1.1994444489
  1
2
  0
ENDBLK
  5
2EB
  8
0
  0
BLOCK
  8
0
  2
*U41
 70
     1
 10
0.0
 20
0.0
 30
0.0
  3
*U41
  1

  0
TEXT
  5
2ED
  8
ﾚｲﾔ_1
  6
CONTINUOUS
 10
2.677374516949238
 20
-22.153564874200001
 30
0.0
 40
1.1994444489
  1
1
  0
ENDBLK
  5
2EF
  8
0
  0
BLOCK
  8
0
  2
*U42
 70
     1
 10
0.0
 20
0.0
 30
0.0
  3
*U42
  1

  0
TEXT
  5
2F1
  8
図枠
  6
CONTINUOUS
 10
89.041541641680709
 20
-47.38549630187817
 30
0.0
 40
0.9995370069999999
  1
備　　　考
  0
ENDBLK
  5
2F3
  8
0
  0
BLOCK
  8
0
  2
*U43
 70
     1
 10
0.0
 20
0.0
 30
0.0
  3
*U43
  1

  0
TEXT
  5
2F5
  8
図枠
  6
CONTINUOUS
 10
58.127027637761422
 20
-47.360127342309639
 30
0.0
 40
0.9995370069999999
  1
品　　　名
  0
ENDBLK
  5
2F7
  8
0
  0
BLOCK
  8
0
  2
*U44
 70
     1
 10
0.0
 20
0.0
 30
0.0
  3
*U44
  1

  0
TEXT
  5
2F9
  8
図枠
  6
CONTINUOUS
 10
74.755640865108631
 20
-47.355053550395937
 30
0.0
 40
0.9995370069999999
  1
材　　　質
  0
ENDBLK
  5
2FB
  8
0
  0
BLOCK
  8
0
  2
*U45
 70
     1
 10
0.0
 20
0.0
 30
0.0
  3
*U45
  1

  0
TEXT
  5
2FD
  8
図枠
  6
CONTINUOUS
 10
50.070289940710673
 20
-47.349979758482228
 30
0.0
 40
0.9995370069999999
  1
品番
  0
ENDBLK
  5
2FF
  8
0
  0
BLOCK
  8
0
  2
*U46
 70
     1
 10
0.0
 20
0.0
 30
0.0
  3
*U46
  1

  0
TEXT
  5
301
  8
図枠
  6
CONTINUOUS
 10
51.355116777378178
 20
-55.431044437854823
 30
0.0
 40
0.9995370069999999
  1
日　　付
  0
ENDBLK
  5
303
  8
0
  0
BLOCK
  8
0
  2
*U47
 70
     1
 10
0.0
 20
0.0
 30
0.0
  3
*U47
  1

  0
TEXT
  5
305
  8
図枠
  6
CONTINUOUS
 10
75.076363695576646
 20
-62.637979758482231
 30
0.0
 40
0.9995370069999999
  1
図 番
  0
ENDBLK
  5
307
  8
0
  0
BLOCK
  8
0
  2
*U48
 70
     1
 10
0.0
 20
0.0
 30
0.0
  3
*U48
  1

  0
TEXT
  5
309
  8
図枠
  6
CONTINUOUS
 10
51.43461231229999
 20
-64.082683276598985
 30
0.0
 40
1.7991666395999999
  1
株式会社
  0
ENDBLK
  5
30B
  8
0
  0
BLOCK
  8
0
  2
*U49
 70
     1
 10
0.0
 20
0.0
 30
0.0
  3
*U49
  1

  0
TEXT
  5
30D
  8
図枠
  6
CONTINUOUS
 10
49.621333333300001
 20
-60.961487189337049
 30
0.0
 40
0.9995370069999999
  1
 製図
  0
ENDBLK
  5
30F
  8
0
  0
BLOCK
  8
0
  2
*U50
 70
     1
 10
0.0
 20
0.0
 30
0.0
  3
*U50
  1

  0
TEXT
  5
311
  8
図枠
  6
CONTINUOUS
 10
49.621333333300001
 20
-59.118006272209641
 30
0.0
 40
0.9995370069999999
  1
 設計
  0
ENDBLK
  5
313
  8
0
  0
BLOCK
  8
0
  2
*U51
 70
     1
 10
0.0
 20
0.0
 30
0.0
  3
*U51
  1

  0
TEXT
  5
315
  8
図枠
  6
CONTINUOUS
 10
74.728808949487814
 20
-55.324941592837057
 30
0.0
 40
0.9995370069999999
  1
製品名
  0
ENDBLK
  5
317
  8
0
  0
BLOCK
  8
0
  2
*U52
 70
     1
 10
0.0
 20
0.0
 30
0.0
  3
*U52
  1

  0
TEXT
  5
319
  8
図枠
  6
CONTINUOUS
 10
74.756714805013203
 20
-58.981460675609647
 30
0.0
 40
0.9995370069999999
  1
図面名
  0
ENDBLK
  5
31B
  8
0
  0
BLOCK
  8
0
  2
*U53
 70
     1
 10
0.0
 20
0.0
 30
0.0
  3
*U53
  1

  0
TEXT
  5
31D
  8
図枠
  6
CONTINUOUS
 10
78.931656997949759
 20
27.008419218991371
 30
0.0
 40
0.8995833198
  1
改　訂　内　容
  0
ENDBLK
  5
31F
  8
0
  0
BLOCK
  8
0
  2
*U54
 70
     1
 10
0.0
 20
0.0
 30
0.0
  3
*U54
  1

  0
TEXT
  5
321
  8
図枠
  6
CONTINUOUS
 10
50.71632644458731
 20
-51.122407999534509
 30
0.0
 40
1.1994443813999991
  1
表面処理
  0
ENDBLK
  5
323
  8
0
  0
BLOCK
  8
0
  2
*U55
 70
     1
 10
0.0
 20
0.0
 30
0.0
  3
*U55
  1

  0
TEXT
  5
325
  8
図枠
  6
CONTINUOUS
 10
50.74676919538426
 20
-53.480095533472081
 30
0.0
 40
1.1994443813999991
  1
一般公差
  0
ENDBLK
  5
327
  8
0
  0
BLOCK
  8
0
  2
*U56
 70
     1
 10
0.0
 20
0.0
 30
0.0
  3
*U56
  1

  0
TEXT
  5
329
  8
図枠
  6
CONTINUOUS
 10
59.581900480490347
 20
-55.461487189337049
 30
0.0
 40
0.9995370069999999
  1
尺　　度
  0
ENDBLK
  5
32B
  8
0
  0
BLOCK
  8
0
  2
*U57
 70
     1
 10
0.0
 20
0.0
 30
0.0
  3
*U57
  1

  0
TEXT
  5
32D
  8
図枠
  6
CONTINUOUS
 10
62.121333333300001
 20
-60.966560981250758
 30
0.0
 40
0.9995370069999999
  1
 検図
  0
ENDBLK
  5
32F
  8
0
  0
BLOCK
  8
0
  2
*U58
 70
     1
 10
0.0
 20
0.0
 30
0.0
  3
*U58
  1

  0
TEXT
  5
331
  8
図枠
  6
CONTINUOUS
 10
62.121333333300001
 20
-59.12308006412335
 30
0.0
 40
0.9995370069999999
  1
 照査
  0
ENDBLK
  5
333
  8
0
  0
BLOCK
  8
0
  2
*U59
 70
     1
 10
0.0
 20
0.0
 30
0.0
  3
*U59
  1

  0
TEXT
  5
335
  8
図枠
  6
CONTINUOUS
 10
94.60756009296243
 20
27.003852806200509
 30
0.0
 40
0.8995833198
  1
検認者
  0
ENDBLK
  5
337
  8
0
  0
BLOCK
  8
0
  2
*U60
 70
     1
 10
0.0
 20
0.0
 30
0.0
  3
*U60
  1

  0
TEXT
  5
339
  8
図枠
  6
CONTINUOUS
 10
91.287925998035035
 20
27.008419218991371
 30
0.0
 40
0.8995833198
  1
改訂者
  0
ENDBLK
  5
33B
  8
0
  0
BLOCK
  8
0
  2
*U61
 70
     1
 10
0.0
 20
0.0
 30
0.0
  3
*U61
  1

  0
TEXT
  5
33D
  8
図枠
  6
CONTINUOUS
 10
66.829045913752296
 20
27.026684870154831
 30
0.0
 40
0.8995833198
  1
副番
  0
ENDBLK
  5
33F
  8
0
  0
BLOCK
  8
0
  2
*U62
 70
     1
 10
0.0
 20
0.0
 30
0.0
  3
*U62
  1

  0
TEXT
  5
341
  8
図枠
  6
CONTINUOUS
 10
70.239978663730966
 20
27.017552044573101
 30
0.0
 40
0.8995833198
  1
改訂日
  0
ENDBLK
  5
343
  8
0
  0
ENDSEC
  0
SECTION
  2
ENTITIES
  0
INSERT
  5
2F
  8
0
  6
CONTINUOUS
  2
*U16
 10
0.0
 20
0.0
 30
0.0
  0
INSERT
  5
32
  8
寸法線
  2
BALLON0
 10
0.0
 20
0.0
 30
0.0
  0
INSERT
  5
3C
  8
0
  6
CONTINUOUS
  2
*U18
 10
0.0
 20
0.0
 30
0.0
  0
INSERT
  5
3D
  8
0
  6
CONTINUOUS
  2
*U19
 10
0.0
 20
0.0
 30
0.0
  0
INSERT
  5
3E
  8
0
  6
CONTINUOUS
  2
*U20
 10
0.0
 20
0.0
 30
0.0
  0
INSERT
  5
3F
  8
0
  6
CONTINUOUS
  2
*U21
 10
0.0
 20
0.0
 30
0.0
  0
INSERT
  5
40
  8
0
  6
CONTINUOUS
  2
*U22
 10
0.0
 20
0.0
 30
0.0
  0
INSERT
  5
41
  8
0
  6
CONTINUOUS
  2
*U23
 10
0.0
 20
0.0
 30
0.0
  0
INSERT
  5
42
  8
0
  6
CONTINUOUS
  2
*U24
 10
0.0
 20
0.0
 30
0.0
  0
INSERT
  5
43
  8
0
  6
CONTINUOUS
  2
*U25
 10
0.0
 20
0.0
 30
0.0
  0
LINE
  5
44
  8
ﾚｲﾔ_1
 62
     5
 10
20.269298966200001
 20
5.8729166666999992
 30
0.0
 11
22.069298966200002
 21
5.8729166666999992
 31
0.0
  0
ARC
  5
45
  8
ﾚｲﾔ_1
 62
     5
 10
22.519298966200001
 20
7.6729166666999991
 30
0.0
 40
1.0
 50
0.0
 51
90.0
  0
LINE
  5
46
  8
ﾚｲﾔ_1
 62
     5
 10
20.269298966200001
 20
4.7729166666999996
 30
0.0
 11
20.269298966200001
 21
5.8729166666999992
 31
0.0
  0
LINE
  5
47
  8
ﾚｲﾔ_1
 62
     5
 10
22.069298966200002
 20
4.7729166666999996
 30
0.0
 11
22.069298966200002
 21
5.8729166666999992
 31
0.0
  0
LINE
  5
48
  8
ﾚｲﾔ_1
 62
     5
 10
20.269298966200001
 20
4.7729166666999996
 30
0.0
 11
22.069298966200002
 21
4.7729166666999996
 31
0.0
  0
INSERT
  5
4A
  8
0
  6
CONTINUOUS
  2
*U26
 10
0.0
 20
0.0
 30
0.0
  0
ARC
  5
4B
  8
ﾚｲﾔ_1
 62
     5
 10
2.8556026208
 20
-17.917122754299999
 30
0.0
 40
10.0
 50
271.0
 51
294.21238912519999
  0
LINE
  5
4C
  8
ﾚｲﾔ_1
 10
2.7692953205999991
 20
-26.920000206200001
 30
0.0
 11
3.0126742787
 21
-26.9157520107
 31
0.0
  0
ARC
  5
4D
  8
ﾚｲﾔ_1
 10
2.8556026208
 20
-17.917122754299999
 30
0.0
 40
9.0
 50
271.0
 51
294.21238912519999
  0
LINE
  5
4E
  8
ﾚｲﾔ_1
 10
21.9337087135
 20
-20.784600623399999
 30
0.0
 11
21.952033741800001
 21
-21.8344407879
 31
0.0
  0
LINE
  5
4F
  8
ﾚｲﾔ_1
 62
     5
 10
22.933556408699999
 20
-20.767148216999999
 30
0.0
 11
23.516012619400001
 21
-19.756829077999999
 31
0.0
  0
LINE
  5
50
  8
ﾚｲﾔ_1
 62
     5
 10
23.489834009700001
 20
-18.257057535200001
 30
0.0
 11
23.516012619400001
 21
-19.756829077999999
 31
0.0
  0
LINE
  5
51
  8
ﾚｲﾔ_1
 62
     5
 10
22.933556408699999
 20
-20.767148216999999
 30
0.0
 11
22.951881437400001
 21
-21.8169884086
 31
0.0
  0
ARC
  5
52
  8
ﾚｲﾔ_1
 62
     5
 10
21.2021479689
 20
-21.8475300082
 30
0.0
 40
1.75
 50
272.79875757399998
 51
0.9999972318000001
  0
ARC
  5
53
  8
ﾚｲﾔ_1
 10
21.2021479689
 20
-21.8475300082
 30
0.0
 40
0.75
 50
272.79875757399998
 51
0.9999972318000001
  0
ARC
  5
54
  8
ﾚｲﾔ_1
 62
     5
 10
5.2466383102999989
 20
-26.172916666700001
 30
0.0
 40
5.0
 50
270.0
 51
305.91660261549998
  0
ARC
  5
55
  8
ﾚｲﾔ_1
 62
     5
 10
21.1692989662
 20
-48.155795948599987
 30
0.0
 40
22.1436567891
 50
90.0
 51
125.9166026155
  0
INSERT
  5
56
  8
0
  6
CONTINUOUS
  2
*U27
 10
0.0
 20
0.0
 30
0.0
  0
INSERT
  5
57
  8
0
  6
CONTINUOUS
  2
*U28
 10
0.0
 20
0.0
 30
0.0
  0
INSERT
  5
58
  8
0
  6
CONTINUOUS
  2
*U29
 10
0.0
 20
0.0
 30
0.0
  0
INSERT
  5
59
  8
0
  6
CONTINUOUS
  2
*U30
 10
0.0
 20
0.0
 30
0.0
  0
INSERT
  5
5A
  8
0
  6
CONTINUOUS
  2
*U31
 10
0.0
 20
0.0
 30
0.0
  0
INSERT
  5
5B
  8
0
  6
CONTINUOUS
  2
*U32
 10
0.0
 20
0.0
 30
0.0
  0
DIMENSION
  5
63
  8
寸法線
  2
*D1
 10
21.1692989662
 20
-48.155795948599987
 30
0.0
 11
21.862766696200001
 21
-34.944838079
 31
0.0
 70
   132
  1
<>
 15
15.438098861
 25
-26.7666659675
 35
0.0
 40
0.0
  0
INSERT
  5
64
  8
0
  6
CONTINUOUS
  2
*U33
 10
0.0
 20
0.0
 30
0.0
  0
INSERT
  5
65
  8
0
  6
CONTINUOUS
  2
*U34
 10
0.0
 20
0.0
 30
0.0
  0
INSERT
  5
66
  8
0
  6
CONTINUOUS
  2
*U35
 10
0.0
 20
0.0
 30
0.0
  0
INSERT
  5
67
  8
0
  6
CONTINUOUS
  2
*U36
 10
0.0
 20
0.0
 30
0.0
  0
INSERT
  5
68
  8
0
  6
CONTINUOUS
  2
*U37
 10
0.0
 20
0.0
 30
0.0
  0
INSERT
  5
69
  8
0
  6
CONTINUOUS
  2
*U38
 10
0.0
 20
0.0
 30
0.0
  0
INSERT
  5
6A
  8
0
  6
CONTINUOUS
  2
*U39
 10
0.0
 20
0.0
 30
0.0
  0
LINE
  5
6B
  8
ﾚｲﾔ_1
 62
     5
 10
59.380208333299997
 20
-20.757057535200001
 30
0.0
 11
59.380208333299997
 21
-27.557057535199998
 31
0.0
  0
LINE
  5
6C
  8
ﾚｲﾔ_1
 62
     5
 10
58.5802083333
 20
-27.557057535199998
 30
0.0
 11
58.520865632400003
 21
-20.757057535200001
 31
0.0
  0
ARC
  5
6D
  8
ﾚｲﾔ_1
 62
     5
 10
58.330208333299993
 20
-22.557057535199998
 30
0.0
 40
1.45
 50
316.39718102730001
 51
0.0
  0
LINE
  5
6E
  8
ﾚｲﾔ_1
 62
     5
 10
58.5802083333
 20
-27.557057535199998
 30
0.0
 11
59.380208333299997
 21
-27.557057535199998
 31
0.0
  0
ARC
  5
6F
  8
ﾚｲﾔ_1
 62
     5
 10
58.330208333299993
 20
-26.557057535199998
 30
0.0
 40
1.45
 50
316.39718102730001
 51
359.99998812600001
  0
LINE
  5
70
  8
ﾚｲﾔ_1
 62
     5
 10
60.380208333299997
 20
-18.257057535200001
 30
0.0
 11
60.380208333299997
 21
-19.757057535200001
 31
0.0
  0
LINE
  5
71
  8
ﾚｲﾔ_1
 62
     5
 10
59.780208333300003
 20
-20.757057535200001
 30
0.0
 11
59.780208333300003
 21
-26.5570578357
 31
0.0
  0
LINE
  5
72
  8
ﾚｲﾔ_1
 62
     5
 10
59.780208333300003
 20
-20.757057535200001
 30
0.0
 11
60.380208333299997
 21
-19.757057535200001
 31
0.0
  0
LINE
  5
73
  8
ﾚｲﾔ_1
 62
     5
 10
22.1692989662
 20
-26.012139159499998
 30
0.0
 11
22.1692989662
 21
-23.512139159499998
 31
0.0
  0
LINE
  5
74
  8
ﾚｲﾔ_1
 62
     5
 10
21.742126092100001
 20
-23.512139159499998
 30
0.0
 11
22.1692989662
 21
-23.512139159499998
 31
0.0
  0
ARC
  5
75
  8
ﾚｲﾔ_1
 10
3.9593254514999989
 20
-28.172916666700001
 30
0.0
 40
0.5
 50
180.0
 51
270.0
  0
LINE
  5
76
  8
ﾚｲﾔ_1
 10
3.4593254514999989
 20
-28.172916666700001
 30
0.0
 11
3.4593254514999989
 21
-27.8988820553
 31
0.0
  0
LINE
  5
77
  8
ﾚｲﾔ_1
 10
11.4593254515
 20
-25.333096384499999
 30
0.0
 11
11.4593254515
 21
-26.830249128199998
 31
0.0
  0
INSERT
  5
79
  8
ﾚｲﾔ_1
  2
*X2
 10
0.0
 20
0.0
 30
0.0
  0
LINE
  5
90
  8
ﾚｲﾔ_1
 62
     5
 10
21.1692989662
 20
-26.012139159499998
 30
0.0
 11
22.1692989662
 21
-26.012139159499998
 31
0.0
  0
ARC
  5
91
  8
ﾚｲﾔ_1
 10
10.9593254515
 20
-26.830249128199998
 30
0.0
 40
0.5
 50
295.58357324949998
 51
0.0
  0
ARC
  5
92
  8
ﾚｲﾔ_1
 10
21.1692989662
 20
-48.155795948599987
 30
0.0
 40
23.1436567891
 50
115.58357324950001
 51
122.30998204070001
  0
LINE
  5
93
  8
ﾚｲﾔ_1
 10
3.9593254514999989
 20
-28.672916666700001
 30
0.0
 11
8.5317738142999993
 21
-28.672916666700001
 31
0.0
  0
ARC
  5
94
  8
ﾚｲﾔ_1
 10
8.5317738142999993
 20
-28.172916666700001
 30
0.0
 40
0.5
 50
270.0
 51
302.30998204069999
  0
LINE
  5
95
  8
ﾚｲﾔ_1
 10
8.2794983796999997
 20
-30.150391847800002
 30
0.0
 11
8.3276685637999996
 21
-30.341491829199999
 31
0.0
  0
ARC
  5
96
  8
ﾚｲﾔ_1
 62
     5
 10
6.2095844544999999
 20
-26.5993374088
 30
0.0
 40
4.2999999999999989
 50
282.72191604670002
 51
299.51014757370001
  0
ARC
  5
97
  8
ﾚｲﾔ_1
 62
     5
 10
8.0813798061999993
 20
-29.906357541999999
 30
0.0
 40
0.5
 50
299.51013541859999
 51
356.28093892499999
  0
ARC
  5
98
  8
ﾚｲﾔ_1
 62
     5
 10
23.224392337099999
 20
-63.213537220799999
 30
0.0
 40
39.665408062700003
 50
92.7987694559
 51
114.2123891252
  0
ARC
  5
99
  8
ﾚｲﾔ_1
 10
23.224392337099999
 20
-63.213537220799999
 30
0.0
 40
40.665408062700003
 50
92.7987694559
 51
114.2123891252
  0
LINE
  5
9A
  8
ﾚｲﾔ_1
 62
     5
 10
2.786747726999999
 20
-27.919847901299999
 30
0.0
 11
3.0301266850999991
 21
-27.915599705799998
 31
0.0
  0
LINE
  5
9B
  8
ﾚｲﾔ_1
 10
47.780208333300003
 20
-23.557057535199998
 30
0.0
 11
48.615052224300001
 21
-23.564343107500001
 31
0.0
  0
LINE
  5
9C
  8
ﾚｲﾔ_1
 62
     5
 10
49.524972296099989
 20
-29.0638825395
 30
0.0
 11
49.498048172600001
 21
-26.012916666700001
 31
0.0
  0
LINE
  5
9D
  8
図枠
 10
56.6439444751
 20
-29.096241124100001
 30
0.0
 11
50.516472004499988
 21
-29.096241124100001
 31
0.0
  0
ARC
  5
9E
  8
ﾚｲﾔ_1
 10
50.520349320699999
 20
-28.535607672099999
 30
0.0
 40
1.0
 50
180.50560991590001
 51
270.0
  0
ARC
  5
9F
  8
ﾚｲﾔ_1
 62
     5
 10
50.524933359899997
 20
-29.055058096300002
 30
0.0
 40
1.0
 50
180.50560991590001
 51
270.0
  0
LINE
  5
A0
  8
図枠
 62
     5
 10
56.635483119699998
 20
-30.055058096300002
 30
0.0
 11
50.524933359899997
 21
-30.055058096300002
 31
0.0
  0
LINE
  5
A1
  8
図枠
 10
56.640067158900003
 20
-29.535607672099999
 30
0.0
 11
50.520349320699999
 21
-29.535607672099999
 31
0.0
  0
LINE
  5
A2
  8
ﾚｲﾔ_1
 62
     5
 10
47.780208333300003
 20
-27.557057535199998
 30
0.0
 11
48.5802083333
 21
-27.557057535199998
 31
0.0
  0
ARC
  5
A3
  8
ﾚｲﾔ_1
 62
     5
 10
48.8302083333
 20
-26.557057535199998
 30
0.0
 40
1.45
 50
180.0000085147999
 51
223.60281897269999
  0
ARC
  5
A4
  8
ﾚｲﾔ_1
 10
50.516472004499988
 20
-28.096241124100001
 30
0.0
 40
1.0
 50
180.50560991590001
 51
270.0
  0
LINE
  5
A5
  8
ﾚｲﾔ_1
 62
     5
 10
46.780208333300003
 20
-18.257057535200001
 30
0.0
 11
46.780208333300003
 21
-19.757057535200001
 31
0.0
  0
LINE
  5
A6
  8
ﾚｲﾔ_1
 62
     5
 10
46.780208333300003
 20
-19.757057535200001
 30
0.0
 11
47.380208333299997
 21
-20.757057535200001
 31
0.0
  0
ARC
  5
A7
  8
ﾚｲﾔ_1
 62
     5
 10
48.8302083333
 20
-22.557057535199998
 30
0.0
 40
1.45
 50
180.0
 51
223.60281897269999
  0
LINE
  5
A8
  8
ﾚｲﾔ_1
 62
     5
 10
47.780208333300003
 20
-20.757057535200001
 30
0.0
 11
47.780208333300003
 21
-27.557057535199998
 31
0.0
  0
LINE
  5
A9
  8
ﾚｲﾔ_1
 62
     5
 10
47.380208333299997
 20
-20.757057535200001
 30
0.0
 11
47.380208333299997
 21
-26.5570577507
 31
0.0
  0
LINE
  5
AA
  8
ﾚｲﾔ_1
 62
     5
 10
48.5802083333
 20
-27.557057535199998
 30
0.0
 11
48.639551034300013
 21
-20.757057535200001
 31
0.0
  0
LINE
  5
AB
  8
ﾚｲﾔ_1
 62
     5
 10
49.580208333299993
 20
-20.757057535200001
 30
0.0
 11
49.580208333299993
 21
-23.557057535199998
 31
0.0
  0
ARC
  5
AC
  8
ﾚｲﾔ_1
 62
     5
 10
49.8302083333
 20
-29.232793466499999
 30
0.0
 40
0.3
 50
180.0
 51
225.0
  0
ARC
  5
AD
  8
ﾚｲﾔ_1
 62
     5
 10
50.454472402
 20
-29.857057535199999
 30
0.0
 40
0.3
 50
225.0
 51
270.0
  0
LINE
  5
AE
  8
ﾚｲﾔ_1
 62
     5
 10
50.454472402
 20
-30.1570575352
 30
0.0
 11
56.705944264599999
 21
-30.1570575352
 31
0.0
  0
ARC
  5
AF
  8
ﾚｲﾔ_1
 62
     5
 10
56.705944264599999
 20
-29.857057535199999
 30
0.0
 40
0.3
 50
270.0
 51
315.0
  0
LINE
  5
B0
  8
ﾚｲﾔ_1
 62
     5
 10
50.242340367700002
 20
-30.069189569599999
 30
0.0
 11
50.158752655800001
 21
-29.985601857700001
 31
0.0
  0
LINE
  5
B1
  8
ﾚｲﾔ_1
 62
     5
 10
56.918076298999999
 20
-30.069189569599999
 30
0.0
 11
57.001664132299993
 21
-29.985601736300001
 31
0.0
  0
LINE
  5
B2
  8
ﾚｲﾔ_1
  6
BORDER
 62
     3
 10
53.5802083333
 20
-17.262889048600002
 30
0.0
 11
53.5802083333
 21
-31.893069228800002
 31
0.0
  0
LINE
  5
B3
  8
ﾚｲﾔ_1
 10
59.380208333299997
 20
-23.557057535199998
 30
0.0
 11
58.5453644424
 21
-23.564343107500001
 31
0.0
  0
DIMENSION
  5
C3
  8
寸法線
  2
*D3
 10
30.456250000000001
 20
-4.9270833332999988
 30
0.0
 11
30.456250000000001
 21
1.872916666699999
 31
0.0
 70
   128
  1
<>
 13
22.519298966200001
 23
-4.9270833332999988
 33
0.0
 14
22.519298966200001
 24
8.6729166666999991
 34
0.0
 50
90.0
  0
ARC
  5
C4
  8
ﾚｲﾔ_1
 62
     5
 10
-3.380701033799999
 20
-5.127083333299999
 30
0.0
 40
0.7
 50
183.5
 51
270.0
  0
LINE
  5
C5
  8
図枠
 10
-4.0793953926999986
 20
-31.172916666700001
 30
0.0
 11
-4.0793953926999986
 21
-21.172916666700001
 31
0.0
  0
LINE
  5
C6
  8
図枠
 10
-3.380701033799999
 20
-31.172916666700001
 30
0.0
 11
-3.380701033799999
 21
-21.172916666700001
 31
0.0
  0
LINE
  5
C7
  8
ﾚｲﾔ_1
 62
     5
 10
-4.2475925980999989
 20
-21.172916666700001
 30
0.0
 11
-4.2475925980999989
 21
-31.172916666700001
 31
0.0
  0
DIMENSION
  5
D6
  8
寸法線
  2
*D4
 10
-11.3479166667
 20
-18.673297428800002
 30
0.0
 11
-11.3479166667
 21
-24.9231070477
 31
0.0
 70
   128
  1
<>
 13
-0.3565335198
 23
-18.673297428800002
 33
0.0
 14
-4.2475925980999989
 24
-31.172916666700001
 34
0.0
 50
90.0
  0
DIMENSION
  5
E5
  8
寸法線
  2
*D5
 10
-7.5809258519
 20
-21.172916666700001
 30
0.0
 11
-7.5809258519
 21
-26.172916666700001
 31
0.0
 70
   128
  1
<>
 13
-4.2475925980999989
 23
-21.172916666700001
 33
0.0
 14
-4.2475925980999989
 24
-31.172916666700001
 34
0.0
 50
90.0
  0
ARC
  5
E6
  8
ﾚｲﾔ_1
 62
     5
 10
-3.380701033799999
 20
8.8729166667000001
 30
0.0
 40
0.7
 50
90.0
 51
176.5
  0
LINE
  5
E7
  8
ﾚｲﾔ_1
 62
     5
 10
-4.0793953926999986
 20
8.9156506442999994
 30
0.0
 11
-4.2475925980999989
 21
6.1656506442999994
 31
0.0
  0
LINE
  5
E8
  8
ﾚｲﾔ_1
 62
     5
 10
-3.5488982392000001
 20
6.1229166666999992
 30
0.0
 11
-4.2475925980999989
 21
6.1656506442999994
 31
0.0
  0
LINE
  5
E9
  8
ﾚｲﾔ_1
 62
     5
 10
-3.380701033799999
 20
8.8729166667000001
 30
0.0
 11
-3.5488982392000001
 21
6.1229166666999992
 31
0.0
  0
INSERT
  5
EB
  8
寸法線
  2
BALLON1
 10
0.0
 20
0.0
 30
0.0
  0
INSERT
  5
F5
  8
寸法線
  2
BALLON2
 10
0.0
 20
0.0
 30
0.0
  0
ARC
  5
FE
  8
ﾚｲﾔ_1
 62
     5
 10
22.519298966200001
 20
-3.9270833332999988
 30
0.0
 40
1.0
 50
270.0
 51
360.0
  0
LINE
  5
FF
  8
ﾚｲﾔ_1
 62
     5
 10
57.635444183500013
 20
-29.0638825395
 30
0.0
 11
57.662368307000001
 21
-26.012916666700001
 31
0.0
  0
LINE
  5
100
  8
ﾚｲﾔ_1
 62
     5
 10
47.380208333299997
 20
-20.757057535200001
 30
0.0
 11
59.780208333300003
 21
-20.757057535200001
 31
0.0
  0
LINE
  5
101
  8
ﾚｲﾔ_1
 62
     5
 10
57.5802083333
 20
-20.757057535200001
 30
0.0
 11
57.5802083333
 21
-23.557057535199998
 31
0.0
  0
LINE
  5
102
  8
ﾚｲﾔ_1
 62
     5
 10
49.580208333299993
 20
-23.557057535199998
 30
0.0
 11
57.5802083333
 21
-23.557057535199998
 31
0.0
  0
ARC
  5
103
  8
ﾚｲﾔ_1
 10
56.6439444751
 20
-28.096241124100001
 30
0.0
 40
1.0
 50
270.0
 51
359.49439008410002
  0
ARC
  5
104
  8
ﾚｲﾔ_1
 10
56.640067158900003
 20
-28.535607672099999
 30
0.0
 40
1.0
 50
270.0
 51
359.49439008410002
  0
ARC
  5
105
  8
ﾚｲﾔ_1
 62
     5
 10
56.635483119699998
 20
-29.055058096300002
 30
0.0
 40
1.0
 50
270.0
 51
359.49439008410002
  0
LINE
  5
106
  8
ﾚｲﾔ_1
 62
     5
 10
46.780208333300003
 20
-18.257057535200001
 30
0.0
 11
60.380208333299997
 21
-18.257057535200001
 31
0.0
  0
LINE
  5
107
  8
ﾚｲﾔ_1
 62
     5
 10
46.780208333300003
 20
-19.757057535200001
 30
0.0
 11
60.380208333299997
 21
-19.757057535200001
 31
0.0
  0
ARC
  5
108
  8
ﾚｲﾔ_1
 62
     5
 10
57.3302083333
 20
-29.232793466499999
 30
0.0
 40
0.3
 50
315.0
 51
0.0
  0
INSERT
  5
10A
  8
ﾚｲﾔ_1
 62
     5
  2
CLUMP0
 10
0.0
 20
0.0
 30
0.0
  0
LINE
  5
12F
  8
ﾚｲﾔ_1
 62
     5
 10
0.6872498243999999
 20
-21.172916666700001
 30
0.0
 11
-4.2475925980999989
 21
-21.172916666700001
 31
0.0
  0
LINE
  5
130
  8
ﾚｲﾔ_1
 62
     5
 10
0.9593254514999999
 20
-26.272916666700009
 30
0.0
 11
0.9593254514999999
 21
-25.0845249921
 31
0.0
  0
LINE
  5
131
  8
ﾚｲﾔ_1
 62
     5
 10
-4.2475925980999989
 20
-31.172916666700001
 30
0.0
 11
5.2466383102999989
 21
-31.172916666700001
 31
0.0
  0
ARC
  5
132
  8
ﾚｲﾔ_1
 10
21.2021479689
 20
-21.8475300082
 30
0.0
 40
19.5
 50
180.99999991909991
 51
193.92551662560001
  0
ARC
  5
133
  8
ﾚｲﾔ_1
 62
     5
 10
21.2021479689
 20
-21.8475300082
 30
0.0
 40
20.5
 50
180.99999991909991
 51
193.92551662560001
  0
ARC
  5
134
  8
ﾚｲﾔ_1
 10
2.7605694052999992
 20
-26.42007635360001
 30
0.0
 40
0.5
 50
193.9255109524
 51
270.99998900029999
  0
ARC
  5
135
  8
ﾚｲﾔ_1
 62
     5
 10
2.7605694052999992
 20
-26.42007635360001
 30
0.0
 40
1.5
 50
193.9255109524
 51
270.99998900029999
  0
LINE
  5
136
  8
ﾚｲﾔ_1
 62
     5
 10
-0.3129025037
 20
-21.172916666700001
 30
0.0
 11
-0.3565335198
 21
-18.673297428800002
 31
0.0
  0
LINE
  5
137
  8
ﾚｲﾔ_1
 62
     5
 10
0.9593254514999999
 20
-26.272916666700009
 30
0.0
 11
-0.3307010338
 21
-26.272916666700009
 31
0.0
  0
LINE
  5
138
  8
ﾚｲﾔ_1
 62
     5
 10
0.9593254514999999
 20
-26.072916666699999
 30
0.0
 11
-0.3307010338
 21
-26.072916666699999
 31
0.0
  0
LINE
  5
139
  8
ﾚｲﾔ_1
 62
     5
 10
-0.3307010338
 20
-31.172916666700001
 30
0.0
 11
-0.3307010338
 21
-21.172916666700001
 31
0.0
  0
LINE
  5
13A
  8
ﾚｲﾔ_1
 10
-0.3307010338
 20
-30.167891413500001
 30
0.0
 11
8.2550887142999994
 21
-30.167891413500001
 31
0.0
  0
LINE
  5
13B
  8
ﾚｲﾔ_1
 10
-0.3307010338
 20
-29.672916666700001
 30
0.0
 11
8.9740249043000002
 21
-29.672916666700001
 31
0.0
  0
INSERT
  5
13D
  8
図枠
  2
CLUMP1
 10
0.0
 20
0.0
 30
0.0
  0
DIMENSION
  5
1FB
  8
寸法線
  2
*D11
 10
23.519298966200001
 20
14.9167762128
 30
0.0
 11
9.6358531841000001
 21
14.9167762128
 31
0.0
 70
   128
  1
（<>）
 13
23.519298966200001
 23
7.6729166666999991
 33
0.0
 14
-4.2475925980999989
 24
6.1656506442999994
 34
0.0
  0
DIMENSION
  5
20A
  8
寸法線
  2
*D12
 10
-0.3307010338
 20
-10.0863487872
 30
0.0
 11
11.5942989662
 21
-10.0863487872
 31
0.0
 70
   128
  1
<>
 13
-0.3307010338
 23
-4.9270833332999988
 33
0.0
 14
23.519298966200001
 24
-3.9270833332999988
 34
0.0
 50
180.0
  0
LINE
  5
20B
  8
ﾚｲﾔ_1
 62
     5
 10
-4.0793953926999986
 20
-5.1698173110000001
 30
0.0
 11
-4.2475925980999989
 21
-2.4198173110000001
 31
0.0
  0
LINE
  5
20C
  8
ﾚｲﾔ_1
 62
     5
 10
-3.5488982392000001
 20
-2.3770833332999999
 30
0.0
 11
-4.2475925980999989
 21
-2.4198173110000001
 31
0.0
  0
LINE
  5
20D
  8
ﾚｲﾔ_1
 62
     5
 10
-3.380701033799999
 20
-5.127083333299999
 30
0.0
 11
-3.5488982392000001
 21
-2.3770833332999999
 31
0.0
  0
DIMENSION
  5
21C
  8
寸法線
  2
*D13
 10
-11.744791666699999
 20
9.5729166666999994
 30
0.0
 11
-11.744791666699999
 21
1.872916666699999
 31
0.0
 70
   128
  1
<>
 13
-3.380701033799999
 23
9.5729166666999994
 33
0.0
 14
-3.380701033799999
 24
-5.8270833333000001
 34
0.0
 50
90.0
  0
LINE
  5
21D
  8
ﾚｲﾔ_1
 62
     5
 10
20.269298966200001
 20
-2.1270833332999999
 30
0.0
 11
22.069298966200002
 21
-2.1270833332999999
 31
0.0
  0
LINE
  5
21E
  8
ﾚｲﾔ_1
 62
     5
 10
23.519298966200001
 20
-3.9270833332999988
 30
0.0
 11
23.519298966200001
 21
7.6729166666999991
 31
0.0
  0
LINE
  5
21F
  8
ﾚｲﾔ_1
 62
     5
 10
20.269298966200001
 20
-2.1270833332999999
 30
0.0
 11
20.269298966200001
 21
-1.0270833333
 31
0.0
  0
LINE
  5
220
  8
ﾚｲﾔ_1
 62
     5
 10
22.069298966200002
 20
-2.1270833332999999
 30
0.0
 11
22.069298966200002
 21
-1.0270833333
 31
0.0
  0
LINE
  5
221
  8
ﾚｲﾔ_1
 62
     5
 10
20.269298966200001
 20
-1.0270833333
 30
0.0
 11
22.069298966200002
 21
-1.0270833333
 31
0.0
  0
LINE
  5
222
  8
ﾚｲﾔ_1
 62
     5
 10
-3.380701033799999
 20
8.8729166667000001
 30
0.0
 11
-1.930701033799999
 21
8.8729166667000001
 31
0.0
  0
LINE
  5
223
  8
ﾚｲﾔ_1
 62
     5
 10
-3.380701033799999
 20
9.5729166666999994
 30
0.0
 11
-1.930701033799999
 21
9.5729166666999994
 31
0.0
  0
LINE
  5
224
  8
ﾚｲﾔ_1
 62
     5
 10
-3.380701033799999
 20
-5.127083333299999
 30
0.0
 11
-1.930701033799999
 21
-5.127083333299999
 31
0.0
  0
LINE
  5
225
  8
ﾚｲﾔ_1
 62
     5
 10
-3.380701033799999
 20
-5.8270833333000001
 30
0.0
 11
-1.930701033799999
 21
-5.8270833333000001
 31
0.0
  0
LINE
  5
226
  8
ﾚｲﾔ_1
  6
BORDER
 62
     3
 10
-4.2421888362999987
 20
1.872916666699999
 30
0.0
 11
23.990118173300001
 21
1.872916666699999
 31
0.0
  0
LINE
  5
227
  8
ﾚｲﾔ_1
 62
     5
 10
-0.3307010338
 20
7.9729166666999989
 30
0.0
 11
-0.3307010338
 21
5.440367533499999
 31
0.0
  0
LINE
  5
228
  8
ﾚｲﾔ_1
 62
     5
 10
-1.0307010337999989
 20
7.9729166666999989
 30
0.0
 11
-1.0307010337999989
 21
5.3908821317999989
 31
0.0
  0
ARC
  5
229
  8
ﾚｲﾔ_1
 62
     5
 10
-1.930701033799999
 20
7.9729166666999989
 30
0.0
 40
0.9
 50
0.0
 51
90.0
  0
ARC
  5
22A
  8
ﾚｲﾔ_1
 62
     5
 10
-1.930701033799999
 20
7.9729166666999989
 30
0.0
 40
1.6000000000000001
 50
0.0
 51
90.0
  0
LINE
  5
22B
  8
ﾚｲﾔ_1
 62
     5
 10
-0.3307010338
 20
-4.9270833332999988
 30
0.0
 11
22.519298966200001
 21
-4.9270833332999988
 31
0.0
  0
LINE
  5
22C
  8
ﾚｲﾔ_1
 62
     5
 10
-0.3307010338
 20
-1.694534200099999
 30
0.0
 11
-0.3307010338
 21
-4.2270835192999989
 31
0.0
  0
LINE
  5
22D
  8
ﾚｲﾔ_1
 62
     5
 10
-1.0307010337999989
 20
-1.6450487984999991
 30
0.0
 11
-1.0307010337999989
 21
-4.2270835269999987
 31
0.0
  0
LINE
  5
22E
  8
ﾚｲﾔ_1
 62
     5
 10
-1.0293497781000001
 20
5.3744984436000003
 30
0.0
 11
-0.4478033596000001
 21
1.872916666699999
 31
0.0
  0
LINE
  5
22F
  8
ﾚｲﾔ_1
 62
     5
 10
-0.3307010338
 20
8.6729166666999991
 30
0.0
 11
22.519298966200001
 21
8.6729166666999991
 31
0.0
  0
LINE
  5
230
  8
ﾚｲﾔ_1
 62
     5
 10
-0.3307010338
 20
4.5684401716999989
 30
0.0
 11
-0.880318705
 21
4.4771590855000003
 31
0.0
  0
ARC
  5
231
  8
ﾚｲﾔ_1
 62
     5
 10
-1.930701033799999
 20
-4.2270833332999986
 30
0.0
 40
0.9
 50
270.0
 51
0.0
  0
ARC
  5
232
  8
ﾚｲﾔ_1
 62
     5
 10
-1.930701033799999
 20
-4.2270833332999986
 30
0.0
 40
1.6000000000000001
 50
270.0
 51
0.0
  0
LINE
  5
233
  8
ﾚｲﾔ_1
 62
     5
 10
-0.3307010338
 20
-4.9270833332999988
 30
0.0
 11
-0.3307010338
 21
8.6729166666999991
 31
0.0
  0
INSERT
  5
235
  8
ﾚｲﾔ_1
 62
     5
  2
CLUMP3
 10
0.0
 20
0.0
 30
0.0
  0
LINE
  5
26A
  8
ﾚｲﾔ_1
 62
     5
 10
-1.0293497781000001
 20
-1.6286651103000001
 30
0.0
 11
-0.3307010338
 21
2.5780080526999991
 31
0.0
  0
LINE
  5
26B
  8
ﾚｲﾔ_1
 62
     5
 10
0.7052702181999999
 20
-22.2053043401
 30
0.0
 11
0.6869451915000001
 21
-21.155464260199999
 31
0.0
  0
LINE
  5
26C
  8
ﾚｲﾔ_1
 10
1.7051179128999989
 20
-22.187851904799999
 30
0.0
 11
1.686792886599999
 21
-21.138011853799998
 31
0.0
  0
LINE
  5
26D
  8
ﾚｲﾔ_1
 62
     5
 10
22.933556408699999
 20
-20.767148216999999
 30
0.0
 11
-0.3129025037
 21
-21.172916666700001
 31
0.0
  0
LINE
  5
26E
  8
ﾚｲﾔ_1
 62
     5
 10
23.516012619400001
 20
-19.756829077999999
 30
0.0
 11
-0.3303549101
 21
-20.173068971500001
 31
0.0
  0
LINE
  5
26F
  8
ﾚｲﾔ_1
 62
     5
 10
23.489834009700001
 20
-18.257057535200001
 30
0.0
 11
-0.3565335198
 21
-18.673297428800002
 31
0.0
  0
ENDSEC
  0
EOF
