  0
SECTION
  2
HEADER
  9
$ACADVER
  1
AC1015
  9
$ACADMAINTVER
 70
    20
  9
$DWGCODEPAGE
  3
ANSI_932
  9
$INSBASE
 10
0.0
 20
0.0
 30
0.0
  9
$EXTMIN
 10
4.816734009827484
 20
2.756711687053439
 30
-0.0015258207003583
  9
$EXTMAX
 10
142.3260109045683
 20
97.7648029430213
 30
0.0000000349246037
  9
$LIMMIN
 10
0.0
 20
0.0
  9
$LIMMAX
 10
12.0
 20
9.0
  9
$ORTHOMODE
 70
     0
  9
$REGENMODE
 70
     1
  9
$FILLMODE
 70
     1
  9
$QTEXTMODE
 70
     0
  9
$MIRRTEXT
 70
     1
  9
$LTSCALE
 40
1.0
  9
$ATTMODE
 70
     1
  9
$TEXTSIZE
 40
0.2
  9
$TRACEWID
 40
0.05
  9
$TEXTSTYLE
  7
Standard
  9
$CLAYER
  8
0
  9
$CELTYPE
  6
ByLayer
  9
$CECOLOR
 62
   256
  9
$CELTSCALE
 40
1.0
  9
$DISPSILH
 70
     0
  9
$DIMSCALE
 40
1.0
  9
$DIMASZ
 40
0.18
  9
$DIMEXO
 40
0.0625
  9
$DIMDLI
 40
0.38
  9
$DIMRND
 40
0.0
  9
$DIMDLE
 40
0.0
  9
$DIMEXE
 40
0.18
  9
$DIMTP
 40
0.0
  9
$DIMTM
 40
0.0
  9
$DIMTXT
 40
0.18
  9
$DIMCEN
 40
0.09
  9
$DIMTSZ
 40
0.0
  9
$DIMTOL
 70
     0
  9
$DIMLIM
 70
     0
  9
$DIMTIH
 70
     1
  9
$DIMTOH
 70
     1
  9
$DIMSE1
 70
     0
  9
$DIMSE2
 70
     0
  9
$DIMTAD
 70
     0
  9
$DIMZIN
 70
     0
  9
$DIMBLK
  1

  9
$DIMASO
 70
     1
  9
$DIMSHO
 70
     1
  9
$DIMPOST
  1

  9
$DIMAPOST
  1

  9
$DIMALT
 70
     0
  9
$DIMALTD
 70
     2
  9
$DIMALTF
 40
25.4
  9
$DIMLFAC
 40
1.0
  9
$DIMTOFL
 70
     0
  9
$DIMTVP
 40
0.0
  9
$DIMTIX
 70
     0
  9
$DIMSOXD
 70
     0
  9
$DIMSAH
 70
     0
  9
$DIMBLK1
  1

  9
$DIMBLK2
  1

  9
$DIMSTYLE
  2
Standard
  9
$DIMCLRD
 70
     0
  9
$DIMCLRE
 70
     0
  9
$DIMCLRT
 70
     0
  9
$DIMTFAC
 40
1.0
  9
$DIMGAP
 40
0.09
  9
$DIMJUST
 70
     0
  9
$DIMSD1
 70
     0
  9
$DIMSD2
 70
     0
  9
$DIMTOLJ
 70
     1
  9
$DIMTZIN
 70
     0
  9
$DIMALTZ
 70
     0
  9
$DIMALTTZ
 70
     0
  9
$DIMUPT
 70
     0
  9
$DIMDEC
 70
     4
  9
$DIMTDEC
 70
     4
  9
$DIMALTU
 70
     2
  9
$DIMALTTD
 70
     2
  9
$DIMTXSTY
  7
Standard
  9
$DIMAUNIT
 70
     0
  9
$DIMADEC
 70
     0
  9
$DIMALTRND
 40
0.0
  9
$DIMAZIN
 70
     0
  9
$DIMDSEP
 70
    46
  9
$DIMATFIT
 70
     3
  9
$DIMFRAC
 70
     0
  9
$DIMLDRBLK
  1

  9
$DIMLUNIT
 70
     2
  9
$DIMLWD
 70
    -2
  9
$DIMLWE
 70
    -2
  9
$DIMTMOVE
 70
     0
  9
$LUNITS
 70
     2
  9
$LUPREC
 70
     4
  9
$SKETCHINC
 40
0.1
  9
$FILLETRAD
 40
0.5
  9
$AUNITS
 70
     0
  9
$AUPREC
 70
     0
  9
$MENU
  1
.
  9
$ELEVATION
 40
0.0
  9
$PELEVATION
 40
0.0
  9
$THICKNESS
 40
0.0
  9
$LIMCHECK
 70
     0
  9
$CHAMFERA
 40
0.5
  9
$CHAMFERB
 40
0.5
  9
$CHAMFERC
 40
1.0
  9
$CHAMFERD
 40
0.0
  9
$SKPOLY
 70
     0
  9
$TDCREATE
 40
2455113.729309525
  9
$TDUCREATE
 40
2455113.354309526
  9
$TDUPDATE
 40
2455113.729674479
  9
$TDUUPDATE
 40
2455113.354674479
  9
$TDINDWG
 40
0.0003669329
  9
$TDUSRTIMER
 40
0.0003669329
  9
$USRTIMER
 70
     1
  9
$ANGBASE
 50
0.0
  9
$ANGDIR
 70
     0
  9
$PDMODE
 70
     0
  9
$PDSIZE
 40
0.0
  9
$PLINEWID
 40
0.0
  9
$SPLFRAME
 70
     0
  9
$SPLINETYPE
 70
     6
  9
$SPLINESEGS
 70
     8
  9
$HANDSEED
  5
C5E
  9
$SURFTAB1
 70
     6
  9
$SURFTAB2
 70
     6
  9
$SURFTYPE
 70
     6
  9
$SURFU
 70
     6
  9
$SURFV
 70
     6
  9
$UCSBASE
  2

  9
$UCSNAME
  2

  9
$UCSORG
 10
0.0
 20
0.0
 30
0.0
  9
$UCSXDIR
 10
1.0
 20
0.0
 30
0.0
  9
$UCSYDIR
 10
0.0
 20
1.0
 30
0.0
  9
$UCSORTHOREF
  2

  9
$UCSORTHOVIEW
 70
     1
  9
$UCSORGTOP
 10
0.0
 20
0.0
 30
0.0
  9
$UCSORGBOTTOM
 10
0.0
 20
0.0
 30
0.0
  9
$UCSORGLEFT
 10
0.0
 20
0.0
 30
0.0
  9
$UCSORGRIGHT
 10
0.0
 20
0.0
 30
0.0
  9
$UCSORGFRONT
 10
0.0
 20
0.0
 30
0.0
  9
$UCSORGBACK
 10
0.0
 20
0.0
 30
0.0
  9
$PUCSBASE
  2

  9
$PUCSNAME
  2

  9
$PUCSORG
 10
0.0
 20
0.0
 30
0.0
  9
$PUCSXDIR
 10
1.0
 20
0.0
 30
0.0
  9
$PUCSYDIR
 10
0.0
 20
1.0
 30
0.0
  9
$PUCSORTHOREF
  2

  9
$PUCSORTHOVIEW
 70
     0
  9
$PUCSORGTOP
 10
0.0
 20
0.0
 30
0.0
  9
$PUCSORGBOTTOM
 10
0.0
 20
0.0
 30
0.0
  9
$PUCSORGLEFT
 10
0.0
 20
0.0
 30
0.0
  9
$PUCSORGRIGHT
 10
0.0
 20
0.0
 30
0.0
  9
$PUCSORGFRONT
 10
0.0
 20
0.0
 30
0.0
  9
$PUCSORGBACK
 10
0.0
 20
0.0
 30
0.0
  9
$USERI1
 70
     0
  9
$USERI2
 70
     0
  9
$USERI3
 70
     0
  9
$USERI4
 70
     0
  9
$USERI5
 70
     0
  9
$USERR1
 40
0.0
  9
$USERR2
 40
0.0
  9
$USERR3
 40
0.0
  9
$USERR4
 40
0.0
  9
$USERR5
 40
0.0
  9
$WORLDVIEW
 70
     1
  9
$SHADEDGE
 70
     3
  9
$SHADEDIF
 70
    70
  9
$TILEMODE
 70
     1
  9
$MAXACTVP
 70
    64
  9
$PINSBASE
 10
0.0
 20
0.0
 30
0.0
  9
$PLIMCHECK
 70
     0
  9
$PEXTMIN
 10
1.049636599258096
 20
0.7996597240971113
 30
-0.0015258207003583
  9
$PEXTMAX
 10
9.450362731076971
 20
7.200340082697458
 30
0.0000000349246037
  9
$PLIMMIN
 10
-0.2500003367097782
 20
-0.2499998544295133
  9
$PLIMMAX
 10
10.74999942299433
 20
8.249999905274597
  9
$UNITMODE
 70
     0
  9
$VISRETAIN
 70
     1
  9
$PLINEGEN
 70
     0
  9
$PSLTSCALE
 70
     1
  9
$TREEDEPTH
 70
  3020
  9
$CMLSTYLE
  2
Standard
  9
$CMLJUST
 70
     0
  9
$CMLSCALE
 40
1.0
  9
$PROXYGRAPHICS
 70
     1
  9
$MEASUREMENT
 70
     0
  9
$CELWEIGHT
370
    -1
  9
$ENDCAPS
280
     0
  9
$JOINSTYLE
280
     0
  9
$LWDISPLAY
290
     0
  9
$INSUNITS
 70
     0
  9
$HYPERLINKBASE
  1

  9
$STYLESHEET
  1

  9
$XEDIT
290
     1
  9
$CEPSNTYPE
380
     0
  9
$PSTYLEMODE
290
     1
  9
$FINGERPRINTGUID
  2
{787809EF-B7A0-11D2-9A44-0060089B3A3F}
  9
$VERSIONGUID
  2
{E6E35975-B54D-44FE-85BE-07F874206924}
  9
$EXTNAMES
290
     1
  9
$PSVPSCALE
 40
0.0
  9
$OLESTARTUP
290
     0
  0
ENDSEC
  0
SECTION
  2
CLASSES
  0
CLASS
  1
ACDBDICTIONARYWDFLT
  2
AcDbDictionaryWithDefault
  3
ObjectDBX Classes
 90
        0
280
     0
281
     0
  0
CLASS
  1
ACDBPLACEHOLDER
  2
AcDbPlaceHolder
  3
ObjectDBX Classes
 90
        0
280
     0
281
     0
  0
CLASS
  1
LAYOUT
  2
AcDbLayout
  3
ObjectDBX Classes
 90
        0
280
     0
281
     0
  0
CLASS
  1
DICTIONARYVAR
  2
AcDbDictionaryVar
  3
ObjectDBX Classes
 90
        0
280
     0
281
     0
  0
ENDSEC
  0
SECTION
  2
TABLES
  0
TABLE
  2
VPORT
  5
8
330
0
100
AcDbSymbolTable
 70
     2
  0
VPORT
  5
C4B
330
8
100
AcDbSymbolTableRecord
100
AcDbViewportTableRecord
  2
*Active
 70
     0
 10
0.0
 20
0.0
 11
1.0
 21
1.0
 12
73.5713724571979
 22
50.26075731503737
 13
0.0
 23
0.0
 14
0.5
 24
0.5
 15
0.5
 25
0.5
 16
0.0
 26
0.0
 36
1.0
 17
0.0
 27
0.0
 37
0.0
 40
95.95659133506236
 41
2.276666666666666
 42
50.0
 43
0.0
 44
0.0
 50
0.0
 51
0.0
 71
     0
 72
  1000
 73
     1
 74
     3
 75
     0
 76
     0
 77
     0
 78
     0
281
     0
 65
     1
110
0.0
120
0.0
130
0.0
111
1.0
121
0.0
131
0.0
112
0.0
122
1.0
132
0.0
 79
     1
146
0.0
  0
ENDTAB
  0
TABLE
  2
LTYPE
  5
5
330
0
100
AcDbSymbolTable
 70
    48
  0
LTYPE
  5
14
330
5
100
AcDbSymbolTableRecord
100
AcDbLinetypeTableRecord
  2
ByBlock
 70
     0
  3

 72
    65
 73
     0
 40
0.0
  0
LTYPE
  5
15
330
5
100
AcDbSymbolTableRecord
100
AcDbLinetypeTableRecord
  2
ByLayer
 70
     0
  3

 72
    65
 73
     0
 40
0.0
  0
LTYPE
  5
16
330
5
100
AcDbSymbolTableRecord
100
AcDbLinetypeTableRecord
  2
Continuous
 70
     0
  3
Solid line
 72
    65
 73
     0
 40
0.0
  0
LTYPE
  5
54
330
5
100
AcDbSymbolTableRecord
100
AcDbLinetypeTableRecord
  2
ACAD_ISO02W100
 70
     0
  3
ISO dash
 72
    65
 73
     2
 40
15.0
 49
12.0
 74
     0
 49
-3.0
 74
     0
  0
LTYPE
  5
55
330
5
100
AcDbSymbolTableRecord
100
AcDbLinetypeTableRecord
  2
ACAD_ISO03W100
 70
     0
  3
ISO dash space
 72
    65
 73
     2
 40
30.0
 49
12.0
 74
     0
 49
-18.0
 74
     0
  0
LTYPE
  5
56
330
5
100
AcDbSymbolTableRecord
100
AcDbLinetypeTableRecord
  2
ACAD_ISO04W100
 70
     0
  3
ISO long-dash dot
 72
    65
 73
     4
 40
30.0
 49
24.0
 74
     0
 49
-3.0
 74
     0
 49
0.0
 74
     0
 49
-3.0
 74
     0
  0
LTYPE
  5
57
330
5
100
AcDbSymbolTableRecord
100
AcDbLinetypeTableRecord
  2
ACAD_ISO05W100
 70
     0
  3
ISO long-dash double-dot
 72
    65
 73
     6
 40
33.0
 49
24.0
 74
     0
 49
-3.0
 74
     0
 49
0.0
 74
     0
 49
-3.0
 74
     0
 49
0.0
 74
     0
 49
-3.0
 74
     0
  0
LTYPE
  5
58
330
5
100
AcDbSymbolTableRecord
100
AcDbLinetypeTableRecord
  2
ACAD_ISO06W100
 70
     0
  3
ISO long-dash triple-dot
 72
    65
 73
     8
 40
36.0
 49
24.0
 74
     0
 49
-3.0
 74
     0
 49
0.0
 74
     0
 49
-3.0
 74
     0
 49
0.0
 74
     0
 49
-3.0
 74
     0
 49
0.0
 74
     0
 49
-3.0
 74
     0
  0
LTYPE
  5
59
330
5
100
AcDbSymbolTableRecord
100
AcDbLinetypeTableRecord
  2
ACAD_ISO07W100
 70
     0
  3
ISO dot 
 72
    65
 73
     2
 40
3.0
 49
0.0
 74
     0
 49
-3.0
 74
     0
  0
LTYPE
  5
5A
330
5
100
AcDbSymbolTableRecord
100
AcDbLinetypeTableRecord
  2
ACAD_ISO08W100
 70
     0
  3
ISO long-dash short-dash
 72
    65
 73
     4
 40
36.0
 49
24.0
 74
     0
 49
-3.0
 74
     0
 49
6.0
 74
     0
 49
-3.0
 74
     0
  0
LTYPE
  5
5B
330
5
100
AcDbSymbolTableRecord
100
AcDbLinetypeTableRecord
  2
ACAD_ISO09W100
 70
     0
  3
ISO long-dash double-short-dash 
 72
    65
 73
     6
 40
45.0
 49
24.0
 74
     0
 49
-3.0
 74
     0
 49
6.0
 74
     0
 49
-3.0
 74
     0
 49
6.0
 74
     0
 49
-3.0
 74
     0
  0
LTYPE
  5
5C
330
5
100
AcDbSymbolTableRecord
100
AcDbLinetypeTableRecord
  2
ACAD_ISO10W100
 70
     0
  3
ISO dash dot 
 72
    65
 73
     4
 40
18.0
 49
12.0
 74
     0
 49
-3.0
 74
     0
 49
0.0
 74
     0
 49
-3.0
 74
     0
  0
LTYPE
  5
5D
330
5
100
AcDbSymbolTableRecord
100
AcDbLinetypeTableRecord
  2
ACAD_ISO11W100
 70
     0
  3
ISO double-dash dot 
 72
    65
 73
     6
 40
33.0
 49
12.0
 74
     0
 49
-3.0
 74
     0
 49
12.0
 74
     0
 49
-3.0
 74
     0
 49
0.0
 74
     0
 49
-3.0
 74
     0
  0
LTYPE
  5
5E
330
5
100
AcDbSymbolTableRecord
100
AcDbLinetypeTableRecord
  2
ACAD_ISO12W100
 70
     0
  3
ISO dash double-dot 
 72
    65
 73
     6
 40
21.0
 49
12.0
 74
     0
 49
-3.0
 74
     0
 49
0.0
 74
     0
 49
-3.0
 74
     0
 49
0.0
 74
     0
 49
-3.0
 74
     0
  0
LTYPE
  5
5F
330
5
100
AcDbSymbolTableRecord
100
AcDbLinetypeTableRecord
  2
ACAD_ISO13W100
 70
     0
  3
ISO double-dash double-dot 
 72
    65
 73
     8
 40
36.0
 49
12.0
 74
     0
 49
-3.0
 74
     0
 49
12.0
 74
     0
 49
-3.0
 74
     0
 49
0.0
 74
     0
 49
-3.0
 74
     0
 49
0.0
 74
     0
 49
-3.0
 74
     0
  0
LTYPE
  5
60
330
5
100
AcDbSymbolTableRecord
100
AcDbLinetypeTableRecord
  2
ACAD_ISO14W100
 70
     0
  3
ISO dash triple-dot 
 72
    65
 73
     8
 40
24.0
 49
12.0
 74
     0
 49
-3.0
 74
     0
 49
0.0
 74
     0
 49
-3.0
 74
     0
 49
0.0
 74
     0
 49
-3.0
 74
     0
 49
0.0
 74
     0
 49
-3.0
 74
     0
  0
LTYPE
  5
61
330
5
100
AcDbSymbolTableRecord
100
AcDbLinetypeTableRecord
  2
ACAD_ISO15W100
 70
     0
  3
ISO double-dash triple-dot 
 72
    65
 73
    10
 40
39.0
 49
12.0
 74
     0
 49
-3.0
 74
     0
 49
12.0
 74
     0
 49
-3.0
 74
     0
 49
0.0
 74
     0
 49
-3.0
 74
     0
 49
0.0
 74
     0
 49
-3.0
 74
     0
 49
0.0
 74
     0
 49
-3.0
 74
     0
  0
LTYPE
  5
62
330
5
100
AcDbSymbolTableRecord
100
AcDbLinetypeTableRecord
  2
Batting
 70
     0
  3
Batting 
 72
    65
 73
     4
 40
0.4001000000000001
 49
0.0001
 74
     0
 49
-0.1
 74
     4
 75
   134
340
53
 46
0.1
 50
0.0
 44
-0.1
 45
0.0
 49
-0.2
 74
     4
 75
   134
340
53
 46
0.1
 50
180.0
 44
0.1
 45
0.0
 49
-0.1
 74
     0
  0
LTYPE
  5
63
330
5
100
AcDbSymbolTableRecord
100
AcDbLinetypeTableRecord
  2
Border
 70
     0
  3
Border 
 72
    65
 73
     6
 40
1.75
 49
0.5
 74
     0
 49
-0.25
 74
     0
 49
0.5
 74
     0
 49
-0.25
 74
     0
 49
0.0
 74
     0
 49
-0.25
 74
     0
  0
LTYPE
  5
64
330
5
100
AcDbSymbolTableRecord
100
AcDbLinetypeTableRecord
  2
Border (\U+00BDx)
 70
     0
  3
Border (.5x) 
 72
    65
 73
     6
 40
0.875
 49
0.25
 74
     0
 49
-0.125
 74
     0
 49
0.25
 74
     0
 49
-0.125
 74
     0
 49
0.0
 74
     0
 49
-0.125
 74
     0
  0
LTYPE
  5
65
330
5
100
AcDbSymbolTableRecord
100
AcDbLinetypeTableRecord
  2
Border (2x)
 70
     0
  3
Border (2x) 
 72
    65
 73
     6
 40
3.5
 49
1.0
 74
     0
 49
-0.5
 74
     0
 49
1.0
 74
     0
 49
-0.5
 74
     0
 49
0.0
 74
     0
 49
-0.5
 74
     0
  0
LTYPE
  5
66
330
5
100
AcDbSymbolTableRecord
100
AcDbLinetypeTableRecord
  2
Center
 70
     0
  3
Very long dash-short dash
 72
    65
 73
     4
 40
2.0
 49
1.25
 74
     0
 49
-0.25
 74
     0
 49
0.25
 74
     0
 49
-0.25
 74
     0
  0
LTYPE
  5
67
330
5
100
AcDbSymbolTableRecord
100
AcDbLinetypeTableRecord
  2
Center (\U+00BDx)
 70
     0
  3
Center (.5x)  - Long dash-very short dash
 72
    65
 73
     4
 40
1.125
 49
0.75
 74
     0
 49
-0.125
 74
     0
 49
0.125
 74
     0
 49
-0.125
 74
     0
  0
LTYPE
  5
68
330
5
100
AcDbSymbolTableRecord
100
AcDbLinetypeTableRecord
  2
Center (2x)
 70
     0
  3
Center (2x)  - long dash-short dash
 72
    65
 73
     4
 40
4.0
 49
2.5
 74
     0
 49
-0.5
 74
     0
 49
0.5
 74
     0
 49
-0.5
 74
     0
  0
LTYPE
  5
69
330
5
100
AcDbSymbolTableRecord
100
AcDbLinetypeTableRecord
  2
Dash Dot
 70
     0
  3
Dash dot 
 72
    65
 73
     4
 40
1.0
 49
0.5
 74
     0
 49
-0.25
 74
     0
 49
0.0
 74
     0
 49
-0.25
 74
     0
  0
LTYPE
  5
6A
330
5
100
AcDbSymbolTableRecord
100
AcDbLinetypeTableRecord
  2
Dash Dot (\U+00BDx)
 70
     0
  3
Dash dot (.5x) Short dash-dot
 72
    65
 73
     4
 40
0.5
 49
0.25
 74
     0
 49
-0.125
 74
     0
 49
0.0
 74
     0
 49
-0.125
 74
     0
  0
LTYPE
  5
6B
330
5
100
AcDbSymbolTableRecord
100
AcDbLinetypeTableRecord
  2
Dsah Dot
 70
     0
  3
Dash dot (2x)  - Long dash-dot
 72
    65
 73
     4
 40
2.0
 49
1.0
 74
     0
 49
-0.5
 74
     0
 49
0.0
 74
     0
 49
-0.5
 74
     0
  0
LTYPE
  5
6C
330
5
100
AcDbSymbolTableRecord
100
AcDbLinetypeTableRecord
  2
Dashed
 70
     0
  3
Medium dash
 72
    65
 73
     2
 40
0.75
 49
0.5
 74
     0
 49
-0.25
 74
     0
  0
LTYPE
  5
6D
330
5
100
AcDbSymbolTableRecord
100
AcDbLinetypeTableRecord
  2
Dashed (\U+00BDx)
 70
     0
  3
Short dash
 72
    65
 73
     2
 40
0.375
 49
0.25
 74
     0
 49
-0.125
 74
     0
  0
LTYPE
  5
6E
330
5
100
AcDbSymbolTableRecord
100
AcDbLinetypeTableRecord
  2
Dashed (2x)
 70
     0
  3
Dashed (2x) Long dash
 72
    65
 73
     2
 40
1.5
 49
1.0
 74
     0
 49
-0.5
 74
     0
  0
LTYPE
  5
6F
330
5
100
AcDbSymbolTableRecord
100
AcDbLinetypeTableRecord
  2
Divide
 70
     0
  3
Long dash dot-dot
 72
    65
 73
     6
 40
1.25
 49
0.5
 74
     0
 49
-0.25
 74
     0
 49
0.0
 74
     0
 49
-0.25
 74
     0
 49
0.0
 74
     0
 49
-0.25
 74
     0
  0
LTYPE
  5
70
330
5
100
AcDbSymbolTableRecord
100
AcDbLinetypeTableRecord
  2
Divide (\U+00BDx)
 70
     0
  3
Divide (.5x) - Short dash dot-dot
 72
    65
 73
     6
 40
0.625
 49
0.25
 74
     0
 49
-0.125
 74
     0
 49
0.0
 74
     0
 49
-0.125
 74
     0
 49
0.0
 74
     0
 49
-0.125
 74
     0
  0
LTYPE
  5
71
330
5
100
AcDbSymbolTableRecord
100
AcDbLinetypeTableRecord
  2
Divide (2x)
 70
     0
  3
Divide (2x) Long dash dot-dot
 72
    65
 73
     6
 40
2.5
 49
1.0
 74
     0
 49
-0.5
 74
     0
 49
0.0
 74
     0
 49
-0.5
 74
     0
 49
0.0
 74
     0
 49
-0.5
 74
     0
  0
LTYPE
  5
72
330
5
100
AcDbSymbolTableRecord
100
AcDbLinetypeTableRecord
  2
Dot
 70
     0
  3
Dotted
 72
    65
 73
     2
 40
0.25
 49
0.0
 74
     0
 49
-0.25
 74
     0
  0
LTYPE
  5
73
330
5
100
AcDbSymbolTableRecord
100
AcDbLinetypeTableRecord
  2
Dot (\U+00BDx)
 70
     0
  3
Close dots
 72
    65
 73
     2
 40
0.125
 49
0.0
 74
     0
 49
-0.125
 74
     0
  0
LTYPE
  5
74
330
5
100
AcDbSymbolTableRecord
100
AcDbLinetypeTableRecord
  2
Dot (2x)
 70
     0
  3
Dot (2x)  - Widely spaced dots
 72
    65
 73
     2
 40
0.5
 49
0.0
 74
     0
 49
-0.5
 74
     0
  0
LTYPE
  5
75
330
5
100
AcDbSymbolTableRecord
100
AcDbLinetypeTableRecord
  2
Fenceline 1
 70
     0
  3
Fenceline circle
 72
    65
 73
     4
 40
1.45
 49
0.25
 74
     0
 49
-0.1
 74
     4
 75
   133
340
53
 46
0.1
 50
0.0
 44
-0.1
 45
0.0
 49
-0.1
 74
     0
 49
1.0
 74
     0
  0
LTYPE
  5
76
330
5
100
AcDbSymbolTableRecord
100
AcDbLinetypeTableRecord
  2
Fenceline 2
 70
     0
  3
Fenceline square
 72
    65
 73
     4
 40
1.45
 49
0.25
 74
     0
 49
-0.1
 74
     4
 75
   132
340
53
 46
0.1
 50
0.0
 44
-0.1
 45
0.0
 49
-0.1
 74
     0
 49
1.0
 74
     0
  0
LTYPE
  5
77
330
5
100
AcDbSymbolTableRecord
100
AcDbLinetypeTableRecord
  2
Gas Line
 70
     0
  3
Gas line
 72
    65
 73
     3
 40
0.95
 49
0.5
 74
     0
 49
-0.2
 74
     2
 75
     0
340
11
 46
0.1
 50
0.0
 44
-0.1
 45
-0.05
  9
GAS
 49
-0.25
 74
     0
  0
LTYPE
  5
78
330
5
100
AcDbSymbolTableRecord
100
AcDbLinetypeTableRecord
  2
Hidden
 70
     0
  3
Medium dashes
 72
    65
 73
     2
 40
0.375
 49
0.25
 74
     0
 49
-0.125
 74
     0
  0
LTYPE
  5
79
330
5
100
AcDbSymbolTableRecord
100
AcDbLinetypeTableRecord
  2
Hidden (\U+00BDx)
 70
     0
  3
Hidden (.5x) - Short dashes
 72
    65
 73
     2
 40
0.1875
 49
0.125
 74
     0
 49
-0.0625
 74
     0
  0
LTYPE
  5
7A
330
5
100
AcDbSymbolTableRecord
100
AcDbLinetypeTableRecord
  2
Hidden (2x)
 70
     0
  3
Hidden (2x) - Long dashes
 72
    65
 73
     2
 40
0.75
 49
0.5
 74
     0
 49
-0.25
 74
     0
  0
LTYPE
  5
7B
330
5
100
AcDbSymbolTableRecord
100
AcDbLinetypeTableRecord
  2
Hot Water Supply
 70
     0
  3
Hot water supply
 72
    65
 73
     3
 40
0.9
 49
0.5
 74
     0
 49
-0.2
 74
     2
 75
     0
340
11
 46
0.1
 50
0.0
 44
-0.1
 45
-0.05
  9
HW
 49
-0.2
 74
     0
  0
LTYPE
  5
7C
330
5
100
AcDbSymbolTableRecord
100
AcDbLinetypeTableRecord
  2
Phantom
 70
     0
  3
Long dash short dash-dash
 72
    65
 73
     6
 40
2.5
 49
1.25
 74
     0
 49
-0.25
 74
     0
 49
0.25
 74
     0
 49
-0.25
 74
     0
 49
0.25
 74
     0
 49
-0.25
 74
     0
  0
LTYPE
  5
7D
330
5
100
AcDbSymbolTableRecord
100
AcDbLinetypeTableRecord
  2
Phantom (\U+00BDx)
 70
     0
  3
Phantom (.5x)  - Medium dash short dash-dash
 72
    65
 73
     6
 40
1.25
 49
0.625
 74
     0
 49
-0.125
 74
     0
 49
0.125
 74
     0
 49
-0.125
 74
     0
 49
0.125
 74
     0
 49
-0.125
 74
     0
  0
LTYPE
  5
7E
330
5
100
AcDbSymbolTableRecord
100
AcDbLinetypeTableRecord
  2
Phantom (2x)
 70
     0
  3
Phantom (2x) Very long dash short dash-dash
 72
    65
 73
     6
 40
5.0
 49
2.5
 74
     0
 49
-0.5
 74
     0
 49
0.5
 74
     0
 49
-0.5
 74
     0
 49
0.5
 74
     0
 49
-0.5
 74
     0
  0
LTYPE
  5
7F
330
5
100
AcDbSymbolTableRecord
100
AcDbLinetypeTableRecord
  2
Tracks
 70
     0
  3
Tracks 
 72
    65
 73
     2
 40
0.3
 49
0.15
 74
     4
 75
   130
340
53
 46
0.25
 50
0.0
 44
0.0
 45
0.0
 49
0.15
 74
     0
  0
LTYPE
  5
80
330
5
100
AcDbSymbolTableRecord
100
AcDbLinetypeTableRecord
  2
Zigzag
 70
     0
  3
Zig-zag 
 72
    65
 73
     4
 40
0.8001000000000001
 49
0.0001
 74
     0
 49
-0.2
 74
     4
 75
   131
340
53
 46
0.2
 50
0.0
 44
-0.2
 45
0.0
 49
-0.4
 74
     4
 75
   131
340
53
 46
0.2
 50
180.0
 44
0.2
 45
0.0
 49
-0.2
 74
     0
  0
LTYPE
  5
200
330
5
100
AcDbSymbolTableRecord
100
AcDbLinetypeTableRecord
  2
CENTER2
 70
     0
  3
Center (.5x) ___ _ ___ _ ___ _ ___ _ ___ _ ___
 72
    65
 73
     4
 40
28.575
 49
19.05
 74
     0
 49
-3.174999999999999
 74
     0
 49
3.174999999999999
 74
     0
 49
-3.174999999999999
 74
     0
  0
LTYPE
  5
201
330
5
100
AcDbSymbolTableRecord
100
AcDbLinetypeTableRecord
  2
DASHED2
 70
     0
  3
Dashed (.5x) _ _ _ _ _ _ _ _ _ _ _ _ _ _ _ _ _
 72
    65
 73
     2
 40
9.524999999999998
 49
6.349999999999999
 74
     0
 49
-3.174999999999999
 74
     0
  0
ENDTAB
  0
TABLE
  2
LAYER
  5
2
102
{ACAD_XDICTIONARY
360
20C
102
}
330
0
100
AcDbSymbolTable
 70
     5
  0
LAYER
  5
10
330
2
100
AcDbSymbolTableRecord
100
AcDbLayerTableRecord
  2
0
 70
     0
 62
     7
  6
Continuous
370
    -3
390
F
  0
LAYER
  5
202
330
2
100
AcDbSymbolTableRecord
100
AcDbLayerTableRecord
  2
DEFPOINTS
 70
     0
 62
  -251
  6
Continuous
290
     0
370
    -3
390
F
  0
LAYER
  5
203
330
2
100
AcDbSymbolTableRecord
100
AcDbLayerTableRecord
  2
隠れ線
 70
     0
 62
     6
  6
DASHED2
370
     0
390
F
  0
LAYER
  5
204
330
2
100
AcDbSymbolTableRecord
100
AcDbLayerTableRecord
  2
中心線・切断線
 70
     0
 62
     1
  6
CENTER2
370
     0
390
F
  0
LAYER
  5
205
330
2
100
AcDbSymbolTableRecord
100
AcDbLayerTableRecord
  2
図枠
 70
     0
 62
     7
  6
Continuous
370
    50
390
F
  0
ENDTAB
  0
TABLE
  2
STYLE
  5
3
330
0
100
AcDbSymbolTable
 70
    42
  0
STYLE
  5
11
330
3
100
AcDbSymbolTableRecord
100
AcDbTextStyleTableRecord
  2
Standard
 70
     0
 40
0.0
 41
1.0
 50
0.0
 71
     0
 42
0.2
  3
txt
  4

  0
STYLE
  5
2B
330
3
100
AcDbSymbolTableRecord
100
AcDbTextStyleTableRecord
  2
Bank Gothic Light
 70
     0
 40
0.0
 41
1.0
 50
0.0
 71
     0
 42
0.2
  3
bgothl.ttf
  4

1001
ACAD
1000
BankGothic Lt BT
1071
       34
  0
STYLE
  5
2C
330
3
100
AcDbSymbolTableRecord
100
AcDbTextStyleTableRecord
  2
Bank Gothic Medium
 70
     0
 40
0.0
 41
1.0
 50
0.0
 71
     0
 42
0.2
  3
bgothm.ttf
  4

1001
ACAD
1000
BankGothic Md BT
1071
       34
  0
STYLE
  5
2D
330
3
100
AcDbSymbolTableRecord
100
AcDbTextStyleTableRecord
  2
Commercial Pi
 70
     0
 40
0.0
 41
1.0
 50
0.0
 71
     0
 42
0.2
  3
compi.ttf
  4

1001
ACAD
1000
CommercialPi BT
1071
      530
  0
STYLE
  5
2E
330
3
100
AcDbSymbolTableRecord
100
AcDbTextStyleTableRecord
  2
Commercial Script Regular
 70
     0
 40
0.0
 41
1.0
 50
0.0
 71
     0
 42
0.2
  3
comsc.ttf
  4

1001
ACAD
1000
CommercialScript BT
1071
       66
  0
STYLE
  5
2F
330
3
100
AcDbSymbolTableRecord
100
AcDbTextStyleTableRecord
  2
Dutch Bold
 70
     0
 40
0.0
 41
1.0
 50
0.0
 71
     0
 42
0.2
  3
dutchb.ttf
  4

1001
ACAD
1000
Dutch801 Rm BT
1071
 33554450
  0
STYLE
  5
30
330
3
100
AcDbSymbolTableRecord
100
AcDbTextStyleTableRecord
  2
Dutch Bold Italic
 70
     0
 40
0.0
 41
1.0
 50
0.0
 71
     0
 42
0.2
  3
dutchbi.ttf
  4

1001
ACAD
1000
Dutch801 Rm BT
1071
 50331666
  0
STYLE
  5
31
330
3
100
AcDbSymbolTableRecord
100
AcDbTextStyleTableRecord
  2
Dutch Expanded Bold
 70
     0
 40
0.0
 41
1.0
 50
0.0
 71
     0
 42
0.2
  3
dutcheb.ttf
  4

1001
ACAD
1000
Dutch801 XBd BT
1071
       18
  0
STYLE
  5
32
330
3
100
AcDbSymbolTableRecord
100
AcDbTextStyleTableRecord
  2
Dutch Italic
 70
     0
 40
0.0
 41
1.0
 50
0.0
 71
     0
 42
0.2
  3
dutchi.ttf
  4

1001
ACAD
1000
Dutch801 Rm BT
1071
 16777234
  0
STYLE
  5
33
330
3
100
AcDbSymbolTableRecord
100
AcDbTextStyleTableRecord
  2
Dutch Regular
 70
     0
 40
0.0
 41
1.0
 50
0.0
 71
     0
 42
0.2
  3
dutch.ttf
  4

1001
ACAD
1000
Dutch801 Rm BT
1071
       18
  0
STYLE
  5
34
330
3
100
AcDbSymbolTableRecord
100
AcDbTextStyleTableRecord
  2
Monospace
 70
     0
 40
0.0
 41
1.0
 50
0.0
 71
     0
 42
0.2
  3
monos.ttf
  4

1001
ACAD
1000
Monospac821 BT
1071
       49
  0
STYLE
  5
35
330
3
100
AcDbSymbolTableRecord
100
AcDbTextStyleTableRecord
  2
Monospace Bold
 70
     0
 40
0.0
 41
1.0
 50
0.0
 71
     0
 42
0.2
  3
monosb.ttf
  4

1001
ACAD
1000
Monospac821 BT
1071
 33554481
  0
STYLE
  5
36
330
3
100
AcDbSymbolTableRecord
100
AcDbTextStyleTableRecord
  2
Monospace Bold Italic
 70
     0
 40
0.0
 41
1.0
 50
0.0
 71
     0
 42
0.2
  3
monosbi.ttf
  4

1001
ACAD
1000
Monospac821 BT
1071
 50331697
  0
STYLE
  5
37
330
3
100
AcDbSymbolTableRecord
100
AcDbTextStyleTableRecord
  2
Monospace Italic
 70
     0
 40
0.0
 41
1.0
 50
0.0
 71
     0
 42
0.2
  3
monosi.ttf
  4

1001
ACAD
1000
Monospac821 BT
1071
 16777265
  0
STYLE
  5
38
330
3
100
AcDbSymbolTableRecord
100
AcDbTextStyleTableRecord
  2
Stylus Regular
 70
     0
 40
0.0
 41
1.0
 50
0.0
 71
     0
 42
0.2
  3
stylu.ttf
  4

1001
ACAD
1000
Stylus BT
1071
       34
  0
STYLE
  5
39
330
3
100
AcDbSymbolTableRecord
100
AcDbTextStyleTableRecord
  2
Swiss Black
 70
     0
 40
0.0
 41
1.0
 50
0.0
 71
     0
 42
0.2
  3
swissk.ttf
  4

1001
ACAD
1000
Swis721 Blk BT
1071
       34
  0
STYLE
  5
3A
330
3
100
AcDbSymbolTableRecord
100
AcDbTextStyleTableRecord
  2
Swiss Black Italic
 70
     0
 40
0.0
 41
1.0
 50
0.0
 71
     0
 42
0.3
  3
swisski.ttf
  4

1001
ACAD
1000
Swis721 Blk BT
1071
 16777250
  0
STYLE
  5
3B
330
3
100
AcDbSymbolTableRecord
100
AcDbTextStyleTableRecord
  2
Swiss Bold
 70
     0
 40
0.0
 41
1.0
 50
0.0
 71
     0
 42
0.2
  3
swissb.ttf
  4

1001
ACAD
1000
Swis721 BT
1071
 33554466
  0
STYLE
  5
3C
330
3
100
AcDbSymbolTableRecord
100
AcDbTextStyleTableRecord
  2
Swiss Bold Italic
 70
     0
 40
0.0
 41
1.0
 50
0.0
 71
     0
 42
0.2
  3
swissbi.ttf
  4

1001
ACAD
1000
Swis721 BT
1071
 50331682
  0
STYLE
  5
3D
330
3
100
AcDbSymbolTableRecord
100
AcDbTextStyleTableRecord
  2
Swiss Condensed
 70
     0
 40
0.0
 41
1.0
 50
0.0
 71
     0
 42
0.2
  3
swissc.ttf
  4

1001
ACAD
1000
Swis721 Cn BT
1071
       34
  0
STYLE
  5
3E
330
3
100
AcDbSymbolTableRecord
100
AcDbTextStyleTableRecord
  2
Swiss Condensed Black
 70
     0
 40
0.0
 41
1.0
 50
0.0
 71
     0
 42
0.2
  3
swissck.ttf
  4

1001
ACAD
1000
Swis721 BlkCn BT
1071
       34
  0
STYLE
  5
3F
330
3
100
AcDbSymbolTableRecord
100
AcDbTextStyleTableRecord
  2
Swiss Condensed Black Italic
 70
     0
 40
0.0
 41
1.0
 50
0.0
 71
     0
 42
0.2
  3
swisscki.ttf
  4

1001
ACAD
1000
Swis721 BlkCn BT
1071
 16777250
  0
STYLE
  5
40
330
3
100
AcDbSymbolTableRecord
100
AcDbTextStyleTableRecord
  2
Swiss Condensed Bold
 70
     0
 40
0.0
 41
1.0
 50
0.0
 71
     0
 42
0.2
  3
swisscb.ttf
  4

1001
ACAD
1000
Swis721 Cn BT
1071
 33554466
  0
STYLE
  5
41
330
3
100
AcDbSymbolTableRecord
100
AcDbTextStyleTableRecord
  2
Swiss Condensed Bold Italic
 70
     0
 40
0.0
 41
1.0
 50
0.0
 71
     0
 42
0.2
  3
swisscbi.ttf
  4

1001
ACAD
1000
Swis721 Cn BT
1071
 50331682
  0
STYLE
  5
42
330
3
100
AcDbSymbolTableRecord
100
AcDbTextStyleTableRecord
  2
Swiss Condensed Italic
 70
     0
 40
0.0
 41
1.0
 50
0.0
 71
     0
 42
0.2
  3
swissci.ttf
  4

1001
ACAD
1000
Swis721 Cn BT
1071
 16777250
  0
STYLE
  5
43
330
3
100
AcDbSymbolTableRecord
100
AcDbTextStyleTableRecord
  2
Swiss Condensed Light
 70
     0
 40
0.0
 41
1.0
 50
0.0
 71
     0
 42
0.2
  3
swisscl.ttf
  4

1001
ACAD
1000
Swis721 LtCn BT
1071
       34
  0
STYLE
  5
44
330
3
100
AcDbSymbolTableRecord
100
AcDbTextStyleTableRecord
  2
Swiss Condensed Light Italic
 70
     0
 40
0.0
 41
1.0
 50
0.0
 71
     0
 42
0.2
  3
swisscli.ttf
  4

1001
ACAD
1000
Swis721 LtCn BT
1071
 16777250
  0
STYLE
  5
45
330
3
100
AcDbSymbolTableRecord
100
AcDbTextStyleTableRecord
  2
Swiss Expanded
 70
     0
 40
0.0
 41
1.0
 50
0.0
 71
     0
 42
0.2
  3
swisse.ttf
  4

1001
ACAD
1000
Swis721 Ex BT
1071
       34
  0
STYLE
  5
46
330
3
100
AcDbSymbolTableRecord
100
AcDbTextStyleTableRecord
  2
Swiss Expanded Black
 70
     0
 40
0.0
 41
1.0
 50
0.0
 71
     0
 42
0.2
  3
swissek.ttf
  4

1001
ACAD
1000
Swis721 BlkEx BT
1071
       34
  0
STYLE
  5
47
330
3
100
AcDbSymbolTableRecord
100
AcDbTextStyleTableRecord
  2
Swiss Expanded Bold
 70
     0
 40
0.0
 41
1.0
 50
0.0
 71
     0
 42
0.2
  3
swisseb.ttf
  4

1001
ACAD
1000
Swis721 Ex BT
1071
 33554466
  0
STYLE
  5
48
330
3
100
AcDbSymbolTableRecord
100
AcDbTextStyleTableRecord
  2
Swiss Expanded Light
 70
     0
 40
0.0
 41
1.0
 50
0.0
 71
     0
 42
0.2
  3
swissel.ttf
  4

1001
ACAD
1000
Swis721 LtEx BT
1071
       34
  0
STYLE
  5
49
330
3
100
AcDbSymbolTableRecord
100
AcDbTextStyleTableRecord
  2
Swiss Italic
 70
     0
 40
0.0
 41
1.0
 50
0.0
 71
     0
 42
0.2
  3
swissi.ttf
  4

1001
ACAD
1000
Swis721 BT
1071
 16777250
  0
STYLE
  5
4A
330
3
100
AcDbSymbolTableRecord
100
AcDbTextStyleTableRecord
  2
Swiss Light
 70
     0
 40
0.0
 41
1.0
 50
0.0
 71
     0
 42
0.2
  3
swissl.ttf
  4

1001
ACAD
1000
Swis721 Lt BT
1071
       34
  0
STYLE
  5
4B
330
3
100
AcDbSymbolTableRecord
100
AcDbTextStyleTableRecord
  2
Swiss Light Italic
 70
     0
 40
0.0
 41
1.0
 50
0.0
 71
     0
 42
0.2
  3
swissli.ttf
  4

1001
ACAD
1000
Swis721 Lt BT
1071
 16777250
  0
STYLE
  5
4C
330
3
100
AcDbSymbolTableRecord
100
AcDbTextStyleTableRecord
  2
Swiss Outline Black
 70
     0
 40
0.0
 41
1.0
 50
0.0
 71
     0
 42
0.2
  3
swissko.ttf
  4

1001
ACAD
1000
Swis721 BlkOul BT
1071
       82
  0
STYLE
  5
4D
330
3
100
AcDbSymbolTableRecord
100
AcDbTextStyleTableRecord
  2
Swiss Outline Bold
 70
     0
 40
0.0
 41
1.0
 50
0.0
 71
     0
 42
0.2
  3
swissbo.ttf
  4

1001
ACAD
1000
Swis721 BdOul BT
1071
       82
  0
STYLE
  5
4E
330
3
100
AcDbSymbolTableRecord
100
AcDbTextStyleTableRecord
  2
Swiss Outline Bold Condensed
 70
     0
 40
0.0
 41
1.0
 50
0.0
 71
     0
 42
0.2
  3
swisscbo.ttf
  4

1001
ACAD
1000
Swis721 BdCnOul BT
1071
       82
  0
STYLE
  5
4F
330
3
100
AcDbSymbolTableRecord
100
AcDbTextStyleTableRecord
  2
Swiss Regular
 70
     0
 40
0.0
 41
1.0
 50
0.0
 71
     0
 42
0.2
  3
swiss.ttf
  4

1001
ACAD
1000
Swis721 BT
1071
       34
  0
STYLE
  5
50
330
3
100
AcDbSymbolTableRecord
100
AcDbTextStyleTableRecord
  2
Univeral Math
 70
     0
 40
0.0
 41
1.0
 50
0.0
 71
     0
 42
0.2
  3
umath.ttf
  4

1001
ACAD
1000
UniversalMath1 BT
1071
      530
  0
STYLE
  5
51
330
3
100
AcDbSymbolTableRecord
100
AcDbTextStyleTableRecord
  2
Vineta
 70
     0
 40
0.0
 41
1.0
 50
0.0
 71
     0
 42
0.2
  3
vinet.ttf
  4

1001
ACAD
1000
Vineta BT
1071
       82
  0
STYLE
  5
53
330
3
100
AcDbSymbolTableRecord
100
AcDbTextStyleTableRecord
  2

 70
     1
 40
0.0
 41
1.0
 50
0.0
 71
     0
 42
0.2
  3
ltypeshp.shx
  4

  0
STYLE
  5
206
330
3
100
AcDbSymbolTableRecord
100
AcDbTextStyleTableRecord
  2
ゴシック
 70
     0
 40
0.0
 41
1.0
 50
0.0
 71
     0
 42
1.767676767676767
  3
MS PGothic.ttf
  4

1001
ACAD
1000
MS PGothic
1071
    32818
  0
ENDTAB
  0
TABLE
  2
VIEW
  5
6
330
0
100
AcDbSymbolTable
 70
     0
  0
ENDTAB
  0
TABLE
  2
UCS
  5
7
330
0
100
AcDbSymbolTable
 70
     0
  0
ENDTAB
  0
TABLE
  2
APPID
  5
9
330
0
100
AcDbSymbolTable
 70
     1
  0
APPID
  5
12
330
9
100
AcDbSymbolTableRecord
100
AcDbRegAppTableRecord
  2
ACAD
 70
     0
  0
ENDTAB
  0
TABLE
  2
DIMSTYLE
  5
A
330
0
100
AcDbSymbolTable
 70
     6
100
AcDbDimStyleTable
 71
     0
  0
DIMSTYLE
105
27
330
A
100
AcDbSymbolTableRecord
100
AcDbDimStyleTableRecord
  2
Standard
 70
     0
340
11
  0
DIMSTYLE
105
207
330
A
100
AcDbSymbolTableRecord
100
AcDbDimStyleTableRecord
  2
ISO-25
 70
     0
 41
2.5
 42
0.625
 43
3.75
 44
1.25
 73
     0
 74
     0
 77
     1
 78
     8
140
2.5
141
2.5
143
0.03937007874016
147
0.625
171
     3
172
     1
271
     2
272
     2
274
     3
278
    44
283
     0
284
     8
340
11
  0
DIMSTYLE
105
208
330
A
100
AcDbSymbolTableRecord
100
AcDbDimStyleTableRecord
  2
基本（１：１）
 70
     0
 40
0.0
 41
10.0
 42
2.0
 43
7.0
 44
1.0
 73
     0
 74
     0
 77
     1
 78
     8
140
10.0
141
1.0
143
0.0394
147
2.0
171
     4
172
     1
176
     4
177
     4
178
     4
271
     1
272
     1
273
     8
274
     4
340
206
371
     0
372
     0
  0
DIMSTYLE
105
209
330
A
100
AcDbSymbolTableRecord
100
AcDbDimStyleTableRecord
  2
基本（１：４）
 70
     0
 40
0.0
 41
15.0
 42
15.0
 43
28.0
 44
4.0
 73
     0
 74
     0
 77
     1
 78
     8
140
30.0
141
4.0
143
0.0394
147
5.0
171
     4
172
     1
176
     4
177
     4
178
     4
271
     1
272
     1
273
     8
274
     4
340
206
371
     0
372
     0
  0
DIMSTYLE
105
20A
330
A
100
AcDbSymbolTableRecord
100
AcDbDimStyleTableRecord
  2
基本（１：２）
 70
     0
 40
0.0
 41
1.5
 42
1.0
 43
14.0
 44
2.0
 73
     0
 74
     0
 77
     1
 78
     8
140
2.0
141
2.0
143
0.0394
147
1.0
171
     4
172
     1
176
     4
177
     4
178
     4
271
     1
272
     1
273
     8
274
     4
340
206
371
     0
372
     0
  0
DIMSTYLE
105
20B
102
{ACAD_REACTORS
330
5B9
330
5B8
330
5B7
330
5B5
330
5B6
330
5B4
330
5B3
330
4D8
330
4D6
330
20F
330
210
330
981
330
983
330
A5E
330
A5F
330
A60
330
A61
330
A62
330
A63
330
A64
330
6BA
330
6BB
102
}
330
A
100
AcDbSymbolTableRecord
100
AcDbDimStyleTableRecord
  2
基本（２：１）
 70
     0
 40
0.0
 41
1.0
 42
1.5
 43
3.5
 44
0.5
 73
     0
 74
     0
 77
     1
 78
     8
140
1.0
141
0.5
143
0.0394
147
0.5
171
     4
172
     1
176
     4
177
     4
178
     4
271
     2
272
     2
273
     8
274
     4
340
206
371
    13
372
    13
  0
ENDTAB
  0
TABLE
  2
BLOCK_RECORD
  5
1
330
0
100
AcDbSymbolTable
 70
    24
  0
BLOCK_RECORD
  5
1F
330
1
100
AcDbSymbolTableRecord
100
AcDbBlockTableRecord
  2
*Model_Space
340
22
  0
BLOCK_RECORD
  5
23
330
1
100
AcDbSymbolTableRecord
100
AcDbBlockTableRecord
  2
*Paper_Space
340
26
  0
BLOCK_RECORD
  5
1B
330
1
100
AcDbSymbolTableRecord
100
AcDbBlockTableRecord
  2
*Paper_Space0
340
1E
  0
BLOCK_RECORD
  5
17C
330
1
100
AcDbSymbolTableRecord
100
AcDbBlockTableRecord
  2
*D1
340
0
  0
BLOCK_RECORD
  5
188
330
1
100
AcDbSymbolTableRecord
100
AcDbBlockTableRecord
  2
*D2
340
0
  0
BLOCK_RECORD
  5
194
330
1
100
AcDbSymbolTableRecord
100
AcDbBlockTableRecord
  2
*D3
340
0
  0
BLOCK_RECORD
  5
1A0
330
1
100
AcDbSymbolTableRecord
100
AcDbBlockTableRecord
  2
*D4
340
0
  0
BLOCK_RECORD
  5
1AC
330
1
100
AcDbSymbolTableRecord
100
AcDbBlockTableRecord
  2
*D5
340
0
  0
BLOCK_RECORD
  5
1B8
330
1
100
AcDbSymbolTableRecord
100
AcDbBlockTableRecord
  2
*D6
340
0
  0
BLOCK_RECORD
  5
1C4
330
1
100
AcDbSymbolTableRecord
100
AcDbBlockTableRecord
  2
*D7
340
0
  0
BLOCK_RECORD
  5
1D0
330
1
100
AcDbSymbolTableRecord
100
AcDbBlockTableRecord
  2
*D8
340
0
  0
BLOCK_RECORD
  5
1DC
330
1
100
AcDbSymbolTableRecord
100
AcDbBlockTableRecord
  2
*D9
340
0
  0
BLOCK_RECORD
  5
1E8
330
1
100
AcDbSymbolTableRecord
100
AcDbBlockTableRecord
  2
*D10
340
0
  0
BLOCK_RECORD
  5
1F4
330
1
100
AcDbSymbolTableRecord
100
AcDbBlockTableRecord
  2
*D11
340
0
  0
BLOCK_RECORD
  5
B61
330
1
100
AcDbSymbolTableRecord
100
AcDbBlockTableRecord
  2
*D13
340
0
  0
BLOCK_RECORD
  5
B6D
330
1
100
AcDbSymbolTableRecord
100
AcDbBlockTableRecord
  2
*D14
340
0
  0
BLOCK_RECORD
  5
B79
330
1
100
AcDbSymbolTableRecord
100
AcDbBlockTableRecord
  2
*D15
340
0
  0
BLOCK_RECORD
  5
B85
330
1
100
AcDbSymbolTableRecord
100
AcDbBlockTableRecord
  2
*D16
340
0
  0
BLOCK_RECORD
  5
B91
330
1
100
AcDbSymbolTableRecord
100
AcDbBlockTableRecord
  2
*D17
340
0
  0
BLOCK_RECORD
  5
B9D
330
1
100
AcDbSymbolTableRecord
100
AcDbBlockTableRecord
  2
*D18
340
0
  0
BLOCK_RECORD
  5
BA9
330
1
100
AcDbSymbolTableRecord
100
AcDbBlockTableRecord
  2
*D19
340
0
  0
BLOCK_RECORD
  5
BB5
330
1
100
AcDbSymbolTableRecord
100
AcDbBlockTableRecord
  2
*D20
340
0
  0
BLOCK_RECORD
  5
BC1
330
1
100
AcDbSymbolTableRecord
100
AcDbBlockTableRecord
  2
*D21
340
0
  0
BLOCK_RECORD
  5
BCD
330
1
100
AcDbSymbolTableRecord
100
AcDbBlockTableRecord
  2
*D22
340
0
  0
BLOCK_RECORD
  5
BD9
330
1
100
AcDbSymbolTableRecord
100
AcDbBlockTableRecord
  2
*D23
340
0
  0
ENDTAB
  0
ENDSEC
  0
SECTION
  2
BLOCKS
  0
BLOCK
  5
20
330
1F
100
AcDbEntity
  8
0
100
AcDbBlockBegin
  2
*Model_Space
 70
     0
 10
0.0
 20
0.0
 30
0.0
  3
*Model_Space
  1

  0
ENDBLK
  5
21
330
1F
100
AcDbEntity
  8
0
100
AcDbBlockEnd
  0
BLOCK
  5
24
330
23
100
AcDbEntity
 67
     1
  8
0
100
AcDbBlockBegin
  2
*Paper_Space
 70
     0
 10
0.0
 20
0.0
 30
0.0
  3
*Paper_Space
  1

  0
ENDBLK
  5
25
330
23
100
AcDbEntity
 67
     1
  8
0
100
AcDbBlockEnd
  0
BLOCK
  5
1C
330
1B
100
AcDbEntity
  8
0
100
AcDbBlockBegin
  2
*Paper_Space0
 70
     0
 10
0.0
 20
0.0
 30
0.0
  3
*Paper_Space0
  1

  0
VIEWPORT
  5
DD
102
{ACAD_XDICTIONARY
360
C56
102
}
330
1B
100
AcDbEntity
  8
0
100
AcDbViewport
 10
5.249999665167535
 20
3.999999903397285
 30
0.0
 40
10.92364553810942
 41
6.460874844731385
 69
     0
 12
5.249999665167535
 22
3.999999903397285
 13
0.0
 23
0.0
 14
0.5
 24
0.5
 15
0.5
 25
0.5
 16
0.0
 26
0.0
 36
1.0
 17
0.0
 27
0.0
 37
0.0
 42
50.0
 43
0.0
 44
0.0
 45
6.460874844731385
 50
0.0
 51
0.0
 72
  1000
 90
    32864
  1

281
     0
 71
     1
 74
     0
110
0.0
120
0.0
130
0.0
111
1.0
121
0.0
131
0.0
112
0.0
122
1.0
132
0.0
 79
     0
146
0.0
  0
VIEWPORT
  5
DF
102
{ACAD_XDICTIONARY
360
C58
102
}
330
1B
100
AcDbEntity
  8
0
100
AcDbViewport
 10
5.24999976158142
 20
3.99999976158142
 30
0.0
 40
8.399999618530271
 41
6.399999618530272
 69
     0
 12
6.0
 22
4.5
 13
0.0
 23
0.0
 14
0.5
 24
0.5
 15
0.5
 25
0.5
 16
0.0
 26
0.0
 36
1.0
 17
0.0
 27
0.0
 37
0.0
 42
50.0
 43
0.0
 44
0.0
 45
9.231622615174515
 50
0.0
 51
0.0
 72
   100
 90
    32864
  1

281
     0
 71
     1
 74
     0
110
0.0
120
0.0
130
0.0
111
1.0
121
0.0
131
0.0
112
0.0
122
1.0
132
0.0
 79
     0
146
0.0
  0
ENDBLK
  5
1D
330
1B
100
AcDbEntity
  8
0
100
AcDbBlockEnd
  0
BLOCK
  5
17D
330
17C
100
AcDbEntity
  8
0
 48
0.1
100
AcDbBlockBegin
  2
*D1
 70
     1
 10
0.0
 20
0.0
 30
0.0
  3
*D1
  1

  0
LINE
  5
17E
330
17C
100
AcDbEntity
  8
0
 62
     4
 48
0.1
370
    13
100
AcDbLine
 10
22732.64021584961
 20
-13180.17376676975
 30
0.0
 11
22732.64021584961
 21
-13174.17376676975
 31
0.0
  0
LINE
  5
17F
330
17C
100
AcDbEntity
  8
0
 62
     4
 48
0.1
370
    13
100
AcDbLine
 10
22751.64021584961
 20
-13180.20226550845
 30
0.0
 11
22751.64021584961
 21
-13174.17376676975
 31
0.0
  0
LINE
  5
180
330
17C
100
AcDbEntity
  8
0
 62
     4
 48
0.1
370
    13
100
AcDbLine
 10
22733.64021584961
 20
-13174.67376676975
 30
0.0
 11
22750.64021584961
 21
-13174.67376676975
 31
0.0
  0
SOLID
  5
181
330
17C
100
AcDbEntity
  8
0
 62
     4
 48
0.1
100
AcDbTrace
 10
22733.64021584961
 20
-13174.50710010309
 30
0.0
 11
22733.64021584961
 21
-13174.84043343642
 31
0.0
 12
22732.64021584961
 22
-13174.67376676975
 32
0.0
 13
22732.64021584961
 23
-13174.67376676975
 33
0.0
  0
SOLID
  5
182
330
17C
100
AcDbEntity
  8
0
 62
     4
 48
0.1
100
AcDbTrace
 10
22750.64021584961
 20
-13174.50710010309
 30
0.0
 11
22750.64021584961
 21
-13174.84043343642
 31
0.0
 12
22751.64021584961
 22
-13174.67376676975
 32
0.0
 13
22751.64021584961
 23
-13174.67376676975
 33
0.0
  0
MTEXT
  5
183
330
17C
100
AcDbEntity
  8
0
 62
     4
 48
0.1
100
AcDbMText
 10
22742.14021584961
 20
-13173.67376676976
 30
0.0
 40
1.0
 41
0.0
 71
     5
 72
     1
  1
\A1;19
  7
ゴシック
 73
     1
 44
1.0
1001
ACAD
1000
MTEXTBEGIN
1070
    73
1070
     1
1070
    44
1040
1.0
1070
    74
1070
     0
1000
MTEXTEND
  0
POINT
  5
184
330
17C
100
AcDbEntity
  8
DEFPOINTS
 62
     0
 48
0.1
100
AcDbPoint
 10
22732.64021584961
 20
-13181.67376676975
 30
0.0
  0
POINT
  5
185
330
17C
100
AcDbEntity
  8
DEFPOINTS
 62
     0
 48
0.1
100
AcDbPoint
 10
22751.64021584961
 20
-13181.70226550845
 30
0.0
  0
POINT
  5
186
330
17C
100
AcDbEntity
  8
DEFPOINTS
 62
     0
 48
0.1
100
AcDbPoint
 10
22751.64021584961
 20
-13174.67376676975
 30
0.0
  0
ENDBLK
  5
187
330
17C
100
AcDbEntity
  8
0
 48
0.1
100
AcDbBlockEnd
  0
BLOCK
  5
189
330
188
100
AcDbEntity
  8
0
 48
0.1
100
AcDbBlockBegin
  2
*D2
 70
     1
 10
0.0
 20
0.0
 30
0.0
  3
*D2
  1

  0
LINE
  5
18A
330
188
100
AcDbEntity
  8
0
 62
     4
 48
0.1
370
    13
100
AcDbLine
 10
22731.14021584961
 20
-13181.67376676975
 30
0.0
 11
22725.14021584961
 21
-13181.67376676975
 31
0.0
  0
LINE
  5
18B
330
188
100
AcDbEntity
  8
0
 62
     4
 48
0.1
370
    13
100
AcDbLine
 10
22731.64021584961
 20
-13193.67376676976
 30
0.0
 11
22725.14021584961
 21
-13193.67376676976
 31
0.0
  0
LINE
  5
18C
330
188
100
AcDbEntity
  8
0
 62
     4
 48
0.1
370
    13
100
AcDbLine
 10
22725.64021584961
 20
-13182.67376676975
 30
0.0
 11
22725.64021584961
 21
-13192.67376676975
 31
0.0
  0
SOLID
  5
18D
330
188
100
AcDbEntity
  8
0
 62
     4
 48
0.1
100
AcDbTrace
 10
22725.47354918295
 20
-13182.67376676975
 30
0.0
 11
22725.80688251628
 21
-13182.67376676975
 31
0.0
 12
22725.64021584961
 22
-13181.67376676975
 32
0.0
 13
22725.64021584961
 23
-13181.67376676975
 33
0.0
  0
SOLID
  5
18E
330
188
100
AcDbEntity
  8
0
 62
     4
 48
0.1
100
AcDbTrace
 10
22725.47354918295
 20
-13192.67376676975
 30
0.0
 11
22725.80688251628
 21
-13192.67376676975
 31
0.0
 12
22725.64021584961
 22
-13193.67376676976
 32
0.0
 13
22725.64021584961
 23
-13193.67376676976
 33
0.0
  0
MTEXT
  5
18F
330
188
100
AcDbEntity
  8
0
 62
     4
 48
0.1
100
AcDbMText
 10
22724.4896476678
 20
-13187.67376676975
 30
0.0
 40
1.0
 41
0.0
 71
     5
 72
     1
  1
\A1;φ12
  7
ゴシック
 11
0.0000000000000001
 21
1.0
 31
0.0
 73
     1
 44
1.0
1001
ACAD
1000
MTEXTBEGIN
1070
    73
1070
     1
1070
    44
1040
1.0
1070
    74
1070
     0
1000
MTEXTEND
  0
POINT
  5
190
330
188
100
AcDbEntity
  8
DEFPOINTS
 62
     0
 48
0.1
100
AcDbPoint
 10
22732.64021584961
 20
-13181.67376676975
 30
0.0
  0
POINT
  5
191
330
188
100
AcDbEntity
  8
DEFPOINTS
 62
     0
 48
0.1
100
AcDbPoint
 10
22733.14021584961
 20
-13193.67376676976
 30
0.0
  0
POINT
  5
192
330
188
100
AcDbEntity
  8
DEFPOINTS
 62
     0
 48
0.1
100
AcDbPoint
 10
22725.64021584961
 20
-13193.67376676976
 30
0.0
  0
ENDBLK
  5
193
330
188
100
AcDbEntity
  8
0
 48
0.1
100
AcDbBlockEnd
  0
BLOCK
  5
195
330
194
100
AcDbEntity
  8
0
 48
0.1
100
AcDbBlockBegin
  2
*D3
 70
     1
 10
0.0
 20
0.0
 30
0.0
  3
*D3
  1

  0
LINE
  5
196
330
194
100
AcDbEntity
  8
0
 62
     4
 48
0.1
370
    13
100
AcDbLine
 10
22695.95191446318
 20
-13184.58594511992
 30
0.0
 11
22695.95191446318
 21
-13174.17376676975
 31
0.0
  0
LINE
  5
197
330
194
100
AcDbEntity
  8
0
 62
     4
 48
0.1
370
    13
100
AcDbLine
 10
22684.65191446319
 20
-13181.92376676975
 30
0.0
 11
22684.65191446319
 21
-13174.17376676975
 31
0.0
  0
LINE
  5
198
330
194
100
AcDbEntity
  8
0
 62
     4
 48
0.1
370
    13
100
AcDbLine
 10
22694.95191446318
 20
-13174.67376676975
 30
0.0
 11
22685.65191446318
 21
-13174.67376676975
 31
0.0
  0
SOLID
  5
199
330
194
100
AcDbEntity
  8
0
 62
     4
 48
0.1
100
AcDbTrace
 10
22694.95191446318
 20
-13174.50710010309
 30
0.0
 11
22694.95191446318
 21
-13174.84043343642
 31
0.0
 12
22695.95191446318
 22
-13174.67376676975
 32
0.0
 13
22695.95191446318
 23
-13174.67376676975
 33
0.0
  0
SOLID
  5
19A
330
194
100
AcDbEntity
  8
0
 62
     4
 48
0.1
100
AcDbTrace
 10
22685.65191446318
 20
-13174.50710010309
 30
0.0
 11
22685.65191446318
 21
-13174.84043343642
 31
0.0
 12
22684.65191446319
 22
-13174.67376676975
 32
0.0
 13
22684.65191446319
 23
-13174.67376676975
 33
0.0
  0
MTEXT
  5
19B
330
194
100
AcDbEntity
  8
0
 62
     4
 48
0.1
100
AcDbMText
 10
22690.30191446319
 20
-13173.67376676976
 30
0.0
 40
1.0
 41
0.0
 71
     5
 72
     1
  1
\A1;11.3
  7
ゴシック
 73
     1
 44
1.0
1001
ACAD
1000
MTEXTBEGIN
1070
    73
1070
     1
1070
    44
1040
1.0
1070
    74
1070
     0
1000
MTEXTEND
  0
POINT
  5
19C
330
194
100
AcDbEntity
  8
DEFPOINTS
 62
     0
 48
0.1
100
AcDbPoint
 10
22695.95191446318
 20
-13186.08594511992
 30
0.0
  0
POINT
  5
19D
330
194
100
AcDbEntity
  8
DEFPOINTS
 62
     0
 48
0.1
100
AcDbPoint
 10
22684.65191446319
 20
-13183.42376676975
 30
0.0
  0
POINT
  5
19E
330
194
100
AcDbEntity
  8
DEFPOINTS
 62
     0
 48
0.1
100
AcDbPoint
 10
22684.65191446319
 20
-13174.67376676975
 30
0.0
  0
ENDBLK
  5
19F
330
194
100
AcDbEntity
  8
0
 48
0.1
100
AcDbBlockEnd
  0
BLOCK
  5
1A1
330
1A0
100
AcDbEntity
  8
0
 48
0.1
100
AcDbBlockBegin
  2
*D4
 70
     1
 10
0.0
 20
0.0
 30
0.0
  3
*D4
  1

  0
LINE
  5
1A2
330
1A0
100
AcDbEntity
  8
0
 62
     4
 48
0.1
370
    13
100
AcDbLine
 10
22683.15191446319
 20
-13185.37376676975
 30
0.0
 11
22680.15191446318
 21
-13185.37376676975
 31
0.0
  0
LINE
  5
1A3
330
1A0
100
AcDbEntity
  8
0
 62
     4
 48
0.1
370
    13
100
AcDbLine
 10
22683.15191446319
 20
-13189.97376676975
 30
0.0
 11
22680.15191446318
 21
-13189.97376676975
 31
0.0
  0
LINE
  5
1A4
330
1A0
100
AcDbEntity
  8
0
 62
     4
 48
0.1
370
    13
100
AcDbLine
 10
22680.65191446319
 20
-13186.37376676975
 30
0.0
 11
22680.65191446319
 21
-13188.97376676975
 31
0.0
  0
SOLID
  5
1A5
330
1A0
100
AcDbEntity
  8
0
 62
     4
 48
0.1
100
AcDbTrace
 10
22680.48524779652
 20
-13186.37376676975
 30
0.0
 11
22680.81858112986
 21
-13186.37376676975
 31
0.0
 12
22680.65191446319
 22
-13185.37376676975
 32
0.0
 13
22680.65191446319
 23
-13185.37376676975
 33
0.0
  0
SOLID
  5
1A6
330
1A0
100
AcDbEntity
  8
0
 62
     4
 48
0.1
100
AcDbTrace
 10
22680.48524779652
 20
-13188.97376676975
 30
0.0
 11
22680.81858112986
 21
-13188.97376676975
 31
0.0
 12
22680.65191446319
 22
-13189.97376676975
 32
0.0
 13
22680.65191446319
 23
-13189.97376676975
 33
0.0
  0
MTEXT
  5
1A7
330
1A0
100
AcDbEntity
  8
0
 62
     4
 48
0.1
100
AcDbMText
 10
22679.50134628137
 20
-13187.67376676975
 30
0.0
 40
1.0
 41
0.0
 71
     5
 72
     1
  1
\A1;φ4.6
  7
ゴシック
 11
0.0000000000000001
 21
1.0
 31
0.0
 73
     1
 44
1.0
1001
ACAD
1000
MTEXTBEGIN
1070
    73
1070
     1
1070
    44
1040
1.0
1070
    74
1070
     0
1000
MTEXTEND
  0
POINT
  5
1A8
330
1A0
100
AcDbEntity
  8
DEFPOINTS
 62
     0
 48
0.1
100
AcDbPoint
 10
22684.65191446319
 20
-13185.37376676975
 30
0.0
  0
POINT
  5
1A9
330
1A0
100
AcDbEntity
  8
DEFPOINTS
 62
     0
 48
0.1
100
AcDbPoint
 10
22684.65191446319
 20
-13189.97376676975
 30
0.0
  0
POINT
  5
1AA
330
1A0
100
AcDbEntity
  8
DEFPOINTS
 62
     0
 48
0.1
100
AcDbPoint
 10
22680.65191446319
 20
-13189.97376676975
 30
0.0
  0
ENDBLK
  5
1AB
330
1A0
100
AcDbEntity
  8
0
 48
0.1
100
AcDbBlockEnd
  0
BLOCK
  5
1AD
330
1AC
100
AcDbEntity
  8
0
 48
0.1
100
AcDbBlockBegin
  2
*D5
 70
     1
 10
0.0
 20
0.0
 30
0.0
  3
*D5
  1

  0
LINE
  5
1AE
330
1AC
100
AcDbEntity
  8
0
 62
     4
 48
0.1
370
    13
100
AcDbLine
 10
22683.15191446319
 20
-13183.42376676975
 30
0.0
 11
22677.15191446319
 21
-13183.42376676975
 31
0.0
  0
LINE
  5
1AF
330
1AC
100
AcDbEntity
  8
0
 62
     4
 48
0.1
370
    13
100
AcDbLine
 10
22683.15191446319
 20
-13191.92376676975
 30
0.0
 11
22677.15191446319
 21
-13191.92376676975
 31
0.0
  0
LINE
  5
1B0
330
1AC
100
AcDbEntity
  8
0
 62
     4
 48
0.1
370
    13
100
AcDbLine
 10
22677.65191446319
 20
-13184.42376676975
 30
0.0
 11
22677.65191446319
 21
-13190.92376676975
 31
0.0
  0
SOLID
  5
1B1
330
1AC
100
AcDbEntity
  8
0
 62
     4
 48
0.1
100
AcDbTrace
 10
22677.48524779652
 20
-13184.42376676975
 30
0.0
 11
22677.81858112985
 21
-13184.42376676975
 31
0.0
 12
22677.65191446319
 22
-13183.42376676975
 32
0.0
 13
22677.65191446319
 23
-13183.42376676975
 33
0.0
  0
SOLID
  5
1B2
330
1AC
100
AcDbEntity
  8
0
 62
     4
 48
0.1
100
AcDbTrace
 10
22677.48524779652
 20
-13190.92376676975
 30
0.0
 11
22677.81858112985
 21
-13190.92376676975
 31
0.0
 12
22677.65191446319
 22
-13191.92376676975
 32
0.0
 13
22677.65191446319
 23
-13191.92376676975
 33
0.0
  0
MTEXT
  5
1B3
330
1AC
100
AcDbEntity
  8
0
 62
     4
 48
0.1
100
AcDbMText
 10
22676.50134628137
 20
-13187.67376676975
 30
0.0
 40
1.0
 41
0.0
 71
     5
 72
     1
  1
\A1;φ8.5
  7
ゴシック
 11
0.0000000000000001
 21
1.0
 31
0.0
 73
     1
 44
1.0
1001
ACAD
1000
MTEXTBEGIN
1070
    73
1070
     1
1070
    44
1040
1.0
1070
    74
1070
     0
1000
MTEXTEND
  0
POINT
  5
1B4
330
1AC
100
AcDbEntity
  8
DEFPOINTS
 62
     0
 48
0.1
100
AcDbPoint
 10
22684.65191446319
 20
-13183.42376676975
 30
0.0
  0
POINT
  5
1B5
330
1AC
100
AcDbEntity
  8
DEFPOINTS
 62
     0
 48
0.1
100
AcDbPoint
 10
22684.65191446319
 20
-13191.92376676975
 30
0.0
  0
POINT
  5
1B6
330
1AC
100
AcDbEntity
  8
DEFPOINTS
 62
     0
 48
0.1
100
AcDbPoint
 10
22677.65191446319
 20
-13191.92376676975
 30
0.0
  0
ENDBLK
  5
1B7
330
1AC
100
AcDbEntity
  8
0
 48
0.1
100
AcDbBlockEnd
  0
BLOCK
  5
1B9
330
1B8
100
AcDbEntity
  8
0
 48
0.1
100
AcDbBlockBegin
  2
*D6
 70
     1
 10
0.0
 20
0.0
 30
0.0
  3
*D6
  1

  0
LINE
  5
1BA
330
1B8
100
AcDbEntity
  8
0
 62
     4
 48
0.1
370
    13
100
AcDbLine
 10
22708.8060010596
 20
-13183.87376676976
 30
0.0
 11
22708.8060010596
 21
-13174.17376676975
 31
0.0
  0
LINE
  5
1BB
330
1B8
100
AcDbEntity
  8
0
 62
     4
 48
0.1
370
    13
100
AcDbLine
 10
22704.20600105961
 20
-13183.87376676976
 30
0.0
 11
22704.20600105961
 21
-13174.17376676975
 31
0.0
  0
LINE
  5
1BC
330
1B8
100
AcDbEntity
  8
0
 62
     4
 48
0.1
370
    13
100
AcDbLine
 10
22707.80600105961
 20
-13174.67376676975
 30
0.0
 11
22705.2060010596
 21
-13174.67376676975
 31
0.0
  0
SOLID
  5
1BD
330
1B8
100
AcDbEntity
  8
0
 62
     4
 48
0.1
100
AcDbTrace
 10
22707.80600105961
 20
-13174.50710010309
 30
0.0
 11
22707.80600105961
 21
-13174.84043343642
 31
0.0
 12
22708.8060010596
 22
-13174.67376676975
 32
0.0
 13
22708.8060010596
 23
-13174.67376676975
 33
0.0
  0
SOLID
  5
1BE
330
1B8
100
AcDbEntity
  8
0
 62
     4
 48
0.1
100
AcDbTrace
 10
22705.2060010596
 20
-13174.50710010309
 30
0.0
 11
22705.2060010596
 21
-13174.84043343642
 31
0.0
 12
22704.20600105961
 22
-13174.67376676975
 32
0.0
 13
22704.20600105961
 23
-13174.67376676975
 33
0.0
  0
MTEXT
  5
1BF
330
1B8
100
AcDbEntity
  8
0
 62
     4
 48
0.1
100
AcDbMText
 10
22706.50600105961
 20
-13173.63115313339
 30
0.0
 40
1.0
 41
0.0
 71
     5
 72
     1
  1
\A1;\U+25A14.6
  7
ゴシック
 73
     1
 44
1.0
1001
ACAD
1000
MTEXTBEGIN
1070
    73
1070
     1
1070
    44
1040
1.0
1070
    74
1070
     0
1000
MTEXTEND
  0
POINT
  5
1C0
330
1B8
100
AcDbEntity
  8
DEFPOINTS
 62
     0
 48
0.1
100
AcDbPoint
 10
22708.8060010596
 20
-13185.37376676975
 30
0.0
  0
POINT
  5
1C1
330
1B8
100
AcDbEntity
  8
DEFPOINTS
 62
     0
 48
0.1
100
AcDbPoint
 10
22704.20600105961
 20
-13185.37376676975
 30
0.0
  0
POINT
  5
1C2
330
1B8
100
AcDbEntity
  8
DEFPOINTS
 62
     0
 48
0.1
100
AcDbPoint
 10
22704.20600105961
 20
-13174.67376676975
 30
0.0
  0
ENDBLK
  5
1C3
330
1B8
100
AcDbEntity
  8
0
 48
0.1
100
AcDbBlockEnd
  0
BLOCK
  5
1C5
330
1C4
100
AcDbEntity
  8
0
 48
0.1
100
AcDbBlockBegin
  2
*D7
 70
     1
 10
0.0
 20
0.0
 30
0.0
  3
*D7
  1

  0
LINE
  5
1C6
330
1C4
100
AcDbEntity
  8
0
 62
     4
 48
0.1
370
    13
100
AcDbLine
 10
22776.07378310383
 20
-13225.46032670473
 30
0.0
 11
22776.07378310383
 21
-13210.46032670473
 31
0.0
  0
LINE
  5
1C7
330
1C4
100
AcDbEntity
  8
0
 62
     4
 48
0.1
370
    13
100
AcDbLine
 10
22764.07378310383
 20
-13225.46032670473
 30
0.0
 11
22764.07378310383
 21
-13210.46032670473
 31
0.0
  0
LINE
  5
1C8
330
1C4
100
AcDbEntity
  8
0
 62
     4
 48
0.1
370
    13
100
AcDbLine
 10
22775.07378310383
 20
-13210.96032670473
 30
0.0
 11
22765.07378310383
 21
-13210.96032670473
 31
0.0
  0
SOLID
  5
1C9
330
1C4
100
AcDbEntity
  8
0
 62
     4
 48
0.1
100
AcDbTrace
 10
22775.07378310383
 20
-13210.79366003806
 30
0.0
 11
22775.07378310383
 21
-13211.1269933714
 31
0.0
 12
22776.07378310383
 22
-13210.96032670473
 32
0.0
 13
22776.07378310383
 23
-13210.96032670473
 33
0.0
  0
SOLID
  5
1CA
330
1C4
100
AcDbEntity
  8
0
 62
     4
 48
0.1
100
AcDbTrace
 10
22765.07378310383
 20
-13210.79366003806
 30
0.0
 11
22765.07378310383
 21
-13211.1269933714
 31
0.0
 12
22764.07378310383
 22
-13210.96032670473
 32
0.0
 13
22764.07378310383
 23
-13210.96032670473
 33
0.0
  0
MTEXT
  5
1CB
330
1C4
100
AcDbEntity
  8
0
 62
     4
 48
0.1
100
AcDbMText
 10
22770.07378310383
 20
-13209.80975852291
 30
0.0
 40
1.0
 41
0.0
 71
     5
 72
     1
  1
\A1;φ12
  7
ゴシック
 73
     1
 44
1.0
1001
ACAD
1000
MTEXTBEGIN
1070
    73
1070
     1
1070
    44
1040
1.0
1070
    74
1070
     0
1000
MTEXTEND
  0
POINT
  5
1CC
330
1C4
100
AcDbEntity
  8
DEFPOINTS
 62
     0
 48
0.1
100
AcDbPoint
 10
22776.07378310383
 20
-13226.96032670473
 30
0.0
  0
POINT
  5
1CD
330
1C4
100
AcDbEntity
  8
DEFPOINTS
 62
     0
 48
0.1
100
AcDbPoint
 10
22764.07378310383
 20
-13226.96032670473
 30
0.0
  0
POINT
  5
1CE
330
1C4
100
AcDbEntity
  8
DEFPOINTS
 62
     0
 48
0.1
100
AcDbPoint
 10
22764.07378310383
 20
-13210.96032670473
 30
0.0
  0
ENDBLK
  5
1CF
330
1C4
100
AcDbEntity
  8
0
 48
0.1
100
AcDbBlockEnd
  0
BLOCK
  5
1D1
330
1D0
100
AcDbEntity
  8
0
 48
0.1
100
AcDbBlockBegin
  2
*D8
 70
     1
 10
0.0
 20
0.0
 30
0.0
  3
*D8
  1

  0
LINE
  5
1D2
330
1D0
100
AcDbEntity
  8
0
 62
     4
 48
0.1
370
    13
100
AcDbLine
 10
22751.64021584961
 20
-13219.48882544343
 30
0.0
 11
22751.64021584961
 21
-13210.46032670473
 31
0.0
  0
LINE
  5
1D3
330
1D0
100
AcDbEntity
  8
0
 62
     4
 48
0.1
370
    13
100
AcDbLine
 10
22730.14020224137
 20
-13219.46032670473
 30
0.0
 11
22730.14020224137
 21
-13210.46032670473
 31
0.0
  0
LINE
  5
1D4
330
1D0
100
AcDbEntity
  8
0
 62
     4
 48
0.1
370
    13
100
AcDbLine
 10
22750.64021584961
 20
-13210.96032670473
 30
0.0
 11
22731.14020224137
 21
-13210.96032670473
 31
0.0
  0
SOLID
  5
1D5
330
1D0
100
AcDbEntity
  8
0
 62
     4
 48
0.1
100
AcDbTrace
 10
22750.64021584961
 20
-13210.79366003806
 30
0.0
 11
22750.64021584961
 21
-13211.1269933714
 31
0.0
 12
22751.64021584961
 22
-13210.96032670473
 32
0.0
 13
22751.64021584961
 23
-13210.96032670473
 33
0.0
  0
SOLID
  5
1D6
330
1D0
100
AcDbEntity
  8
0
 62
     4
 48
0.1
100
AcDbTrace
 10
22731.14020224137
 20
-13210.79366003806
 30
0.0
 11
22731.14020224137
 21
-13211.1269933714
 31
0.0
 12
22730.14020224137
 22
-13210.96032670473
 32
0.0
 13
22730.14020224137
 23
-13210.96032670473
 33
0.0
  0
MTEXT
  5
1D7
330
1D0
100
AcDbEntity
  8
0
 62
     4
 48
0.1
100
AcDbMText
 10
22740.89020904549
 20
-13209.96032670473
 30
0.0
 40
1.0
 41
0.0
 71
     5
 72
     1
  1
\A1;21.5
  7
ゴシック
 73
     1
 44
1.0
1001
ACAD
1000
MTEXTBEGIN
1070
    73
1070
     1
1070
    44
1040
1.0
1070
    74
1070
     0
1000
MTEXTEND
  0
POINT
  5
1D8
330
1D0
100
AcDbEntity
  8
DEFPOINTS
 62
     0
 48
0.1
100
AcDbPoint
 10
22751.64021584961
 20
-13220.98882544343
 30
0.0
  0
POINT
  5
1D9
330
1D0
100
AcDbEntity
  8
DEFPOINTS
 62
     0
 48
0.1
100
AcDbPoint
 10
22730.14020224137
 20
-13220.96032670473
 30
0.0
  0
POINT
  5
1DA
330
1D0
100
AcDbEntity
  8
DEFPOINTS
 62
     0
 48
0.1
100
AcDbPoint
 10
22730.14020224137
 20
-13210.96032670473
 30
0.0
  0
ENDBLK
  5
1DB
330
1D0
100
AcDbEntity
  8
0
 48
0.1
100
AcDbBlockEnd
  0
BLOCK
  5
1DD
330
1DC
100
AcDbEntity
  8
0
 48
0.1
100
AcDbBlockBegin
  2
*D9
 70
     1
 10
0.0
 20
0.0
 30
0.0
  3
*D9
  1

  0
LINE
  5
1DE
330
1DC
100
AcDbEntity
  8
0
 62
     4
 48
0.1
370
    13
100
AcDbLine
 10
22776.07378310383
 20
-13186.17376676975
 30
0.0
 11
22776.07378310383
 21
-13174.17376676975
 31
0.0
  0
LINE
  5
1DF
330
1DC
100
AcDbEntity
  8
0
 62
     4
 48
0.1
370
    13
100
AcDbLine
 10
22764.07378310383
 20
-13186.17376676975
 30
0.0
 11
22764.07378310383
 21
-13174.17376676975
 31
0.0
  0
LINE
  5
1E0
330
1DC
100
AcDbEntity
  8
0
 62
     4
 48
0.1
370
    13
100
AcDbLine
 10
22775.07378310383
 20
-13174.67376676975
 30
0.0
 11
22765.07378310383
 21
-13174.67376676975
 31
0.0
  0
SOLID
  5
1E1
330
1DC
100
AcDbEntity
  8
0
 62
     4
 48
0.1
100
AcDbTrace
 10
22775.07378310383
 20
-13174.50710010309
 30
0.0
 11
22775.07378310383
 21
-13174.84043343642
 31
0.0
 12
22776.07378310383
 22
-13174.67376676975
 32
0.0
 13
22776.07378310383
 23
-13174.67376676975
 33
0.0
  0
SOLID
  5
1E2
330
1DC
100
AcDbEntity
  8
0
 62
     4
 48
0.1
100
AcDbTrace
 10
22765.07378310383
 20
-13174.50710010309
 30
0.0
 11
22765.07378310383
 21
-13174.84043343642
 31
0.0
 12
22764.07378310383
 22
-13174.67376676975
 32
0.0
 13
22764.07378310383
 23
-13174.67376676975
 33
0.0
  0
MTEXT
  5
1E3
330
1DC
100
AcDbEntity
  8
0
 62
     4
 48
0.1
100
AcDbMText
 10
22770.07378310383
 20
-13173.52319858794
 30
0.0
 40
1.0
 41
0.0
 71
     5
 72
     1
  1
\A1;φ12
  7
ゴシック
 73
     1
 44
1.0
1001
ACAD
1000
MTEXTBEGIN
1070
    73
1070
     1
1070
    44
1040
1.0
1070
    74
1070
     0
1000
MTEXTEND
  0
POINT
  5
1E4
330
1DC
100
AcDbEntity
  8
DEFPOINTS
 62
     0
 48
0.1
100
AcDbPoint
 10
22776.07378310383
 20
-13187.67376676975
 30
0.0
  0
POINT
  5
1E5
330
1DC
100
AcDbEntity
  8
DEFPOINTS
 62
     0
 48
0.1
100
AcDbPoint
 10
22764.07378310383
 20
-13187.67376676975
 30
0.0
  0
POINT
  5
1E6
330
1DC
100
AcDbEntity
  8
DEFPOINTS
 62
     0
 48
0.1
100
AcDbPoint
 10
22764.07378310383
 20
-13174.67376676975
 30
0.0
  0
ENDBLK
  5
1E7
330
1DC
100
AcDbEntity
  8
0
 48
0.1
100
AcDbBlockEnd
  0
BLOCK
  5
1E9
330
1E8
100
AcDbEntity
  8
0
 48
0.1
100
AcDbBlockBegin
  2
*D10
 70
     1
 10
0.0
 20
0.0
 30
0.0
  3
*D10
  1

  0
LINE
  5
1EA
330
1E8
100
AcDbEntity
  8
0
 62
     4
 48
0.1
370
    13
100
AcDbLine
 10
22729.59021584961
 20
-13222.71032670472
 30
0.0
 11
22728.14021584961
 21
-13222.71032670472
 31
0.0
  0
LINE
  5
1EB
330
1E8
100
AcDbEntity
  8
0
 62
     4
 48
0.1
370
    13
100
AcDbLine
 10
22729.59021584961
 20
-13231.21032670473
 30
0.0
 11
22728.14021584961
 21
-13231.21032670473
 31
0.0
  0
LINE
  5
1EC
330
1E8
100
AcDbEntity
  8
0
 62
     4
 48
0.1
370
    13
100
AcDbLine
 10
22728.64021584962
 20
-13223.71032670472
 30
0.0
 11
22728.64021584962
 21
-13230.21032670473
 31
0.0
  0
SOLID
  5
1ED
330
1E8
100
AcDbEntity
  8
0
 62
     4
 48
0.1
100
AcDbTrace
 10
22728.47354918295
 20
-13223.71032670472
 30
0.0
 11
22728.80688251628
 21
-13223.71032670472
 31
0.0
 12
22728.64021584962
 22
-13222.71032670472
 32
0.0
 13
22728.64021584962
 23
-13222.71032670472
 33
0.0
  0
SOLID
  5
1EE
330
1E8
100
AcDbEntity
  8
0
 62
     4
 48
0.1
100
AcDbTrace
 10
22728.47354918295
 20
-13230.21032670473
 30
0.0
 11
22728.80688251628
 21
-13230.21032670473
 31
0.0
 12
22728.64021584962
 22
-13231.21032670473
 32
0.0
 13
22728.64021584962
 23
-13231.21032670473
 33
0.0
  0
MTEXT
  5
1EF
330
1E8
100
AcDbEntity
  8
0
 62
     4
 48
0.1
100
AcDbMText
 10
22727.4896476678
 20
-13226.96032670472
 30
0.0
 40
1.0
 41
0.0
 71
     5
 72
     1
  1
\A1;φ8.5
  7
ゴシック
 11
0.0000000000000001
 21
1.0
 31
0.0
 73
     1
 44
1.0
1001
ACAD
1000
MTEXTBEGIN
1070
    73
1070
     1
1070
    44
1040
1.0
1070
    74
1070
     0
1000
MTEXTEND
  0
POINT
  5
1F0
330
1E8
100
AcDbEntity
  8
DEFPOINTS
 62
     0
 48
0.1
100
AcDbPoint
 10
22731.09021584962
 20
-13222.71032670472
 30
0.0
  0
POINT
  5
1F1
330
1E8
100
AcDbEntity
  8
DEFPOINTS
 62
     0
 48
0.1
100
AcDbPoint
 10
22731.09021584962
 20
-13231.21032670473
 30
0.0
  0
POINT
  5
1F2
330
1E8
100
AcDbEntity
  8
DEFPOINTS
 62
     0
 48
0.1
100
AcDbPoint
 10
22728.64021584962
 20
-13231.21032670473
 30
0.0
  0
ENDBLK
  5
1F3
330
1E8
100
AcDbEntity
  8
0
 48
0.1
100
AcDbBlockEnd
  0
BLOCK
  5
1F5
330
1F4
100
AcDbEntity
  8
0
 48
0.1
100
AcDbBlockBegin
  2
*D11
 70
     1
 10
0.0
 20
0.0
 30
0.0
  3
*D11
  1

  0
LINE
  5
1F6
330
1F4
100
AcDbEntity
  8
0
 62
     4
 48
0.1
370
    13
100
AcDbLine
 10
22731.14021584961
 20
-13220.96032670473
 30
0.0
 11
22725.14021584961
 21
-13220.96032670473
 31
0.0
  0
LINE
  5
1F7
330
1F4
100
AcDbEntity
  8
0
 62
     4
 48
0.1
370
    13
100
AcDbLine
 10
22731.64021584961
 20
-13232.96032670473
 30
0.0
 11
22725.14021584961
 21
-13232.96032670473
 31
0.0
  0
LINE
  5
1F8
330
1F4
100
AcDbEntity
  8
0
 62
     4
 48
0.1
370
    13
100
AcDbLine
 10
22725.64021584961
 20
-13221.96032670473
 30
0.0
 11
22725.64021584961
 21
-13231.96032670473
 31
0.0
  0
SOLID
  5
1F9
330
1F4
100
AcDbEntity
  8
0
 62
     4
 48
0.1
100
AcDbTrace
 10
22725.47354918295
 20
-13221.96032670473
 30
0.0
 11
22725.80688251628
 21
-13221.96032670473
 31
0.0
 12
22725.64021584961
 22
-13220.96032670473
 32
0.0
 13
22725.64021584961
 23
-13220.96032670473
 33
0.0
  0
SOLID
  5
1FA
330
1F4
100
AcDbEntity
  8
0
 62
     4
 48
0.1
100
AcDbTrace
 10
22725.47354918295
 20
-13231.96032670473
 30
0.0
 11
22725.80688251628
 21
-13231.96032670473
 31
0.0
 12
22725.64021584961
 22
-13232.96032670473
 32
0.0
 13
22725.64021584961
 23
-13232.96032670473
 33
0.0
  0
MTEXT
  5
1FB
330
1F4
100
AcDbEntity
  8
0
 62
     4
 48
0.1
100
AcDbMText
 10
22724.4896476678
 20
-13226.96032670473
 30
0.0
 40
1.0
 41
0.0
 71
     5
 72
     1
  1
\A1;φ12
  7
ゴシック
 11
0.0000000000000001
 21
1.0
 31
0.0
 73
     1
 44
1.0
1001
ACAD
1000
MTEXTBEGIN
1070
    73
1070
     1
1070
    44
1040
1.0
1070
    74
1070
     0
1000
MTEXTEND
  0
POINT
  5
1FC
330
1F4
100
AcDbEntity
  8
DEFPOINTS
 62
     0
 48
0.1
100
AcDbPoint
 10
22732.64021584961
 20
-13220.96032670473
 30
0.0
  0
POINT
  5
1FD
330
1F4
100
AcDbEntity
  8
DEFPOINTS
 62
     0
 48
0.1
100
AcDbPoint
 10
22733.14021584961
 20
-13232.96032670473
 30
0.0
  0
POINT
  5
1FE
330
1F4
100
AcDbEntity
  8
DEFPOINTS
 62
     0
 48
0.1
100
AcDbPoint
 10
22725.64021584961
 20
-13232.96032670473
 30
0.0
  0
ENDBLK
  5
1FF
330
1F4
100
AcDbEntity
  8
0
 48
0.1
100
AcDbBlockEnd
  0
BLOCK
  5
B6B
330
B61
100
AcDbEntity
  8
0
100
AcDbBlockBegin
  2
*D13
 70
     1
 10
0.0
 20
0.0
 30
0.0
  3
*D13
  1

  0
LINE
  5
BE5
330
B61
100
AcDbEntity
  8
0
 62
     4
370
    13
100
AcDbLine
 10
118.1893686439901
 20
74.20877032436194
 30
0.0
 11
118.1893686439901
 21
86.20877032436194
 31
0.0
  0
LINE
  5
BE6
330
B61
100
AcDbEntity
  8
0
 62
     4
370
    13
100
AcDbLine
 10
106.1893686439901
 20
74.20877032436194
 30
0.0
 11
106.1893686439901
 21
86.20877032436194
 31
0.0
  0
LINE
  5
BE7
330
B61
100
AcDbEntity
  8
0
 62
     4
370
    13
100
AcDbLine
 10
117.1893686439901
 20
85.70877032436193
 30
0.0
 11
107.1893686439901
 21
85.70877032436193
 31
0.0
  0
SOLID
  5
BE8
330
B61
100
AcDbEntity
  8
0
 62
     4
100
AcDbTrace
 10
117.1893686439901
 20
85.87543699102861
 30
0.0
 11
117.1893686439901
 21
85.54210365769526
 31
0.0
 12
118.1893686439901
 22
85.70877032436193
 32
0.0
 13
118.1893686439901
 23
85.70877032436193
 33
0.0
  0
SOLID
  5
BE9
330
B61
100
AcDbEntity
  8
0
 62
     4
100
AcDbTrace
 10
107.1893686439901
 20
85.87543699102861
 30
0.0
 11
107.1893686439901
 21
85.54210365769526
 31
0.0
 12
106.1893686439901
 22
85.70877032436193
 32
0.0
 13
106.1893686439901
 23
85.70877032436193
 33
0.0
  0
MTEXT
  5
BEA
330
B61
100
AcDbEntity
  8
0
 62
     4
100
AcDbMText
 10
112.1893686439901
 20
86.85933850618011
 30
0.0
 40
1.0
 41
0.0
 71
     5
 72
     1
  1
\A1;φ12
  7
ゴシック
 73
     1
 44
1.0
1001
ACAD
1000
MTEXTBEGIN
1070
    73
1070
     1
1070
    44
1040
1.0
1070
    74
1070
     0
1000
MTEXTEND
  0
POINT
  5
BEB
330
B61
100
AcDbEntity
  8
DEFPOINTS
 62
     0
100
AcDbPoint
 10
118.1893686439901
 20
72.70877032436193
 30
0.0
  0
POINT
  5
BEC
330
B61
100
AcDbEntity
  8
DEFPOINTS
 62
     0
100
AcDbPoint
 10
106.1893686439901
 20
72.70877032436193
 30
0.0
  0
POINT
  5
BED
330
B61
100
AcDbEntity
  8
DEFPOINTS
 62
     0
100
AcDbPoint
 10
106.1893686439901
 20
85.70877032436193
 30
0.0
  0
ENDBLK
  5
B6C
330
B61
100
AcDbEntity
  8
0
100
AcDbBlockEnd
  0
BLOCK
  5
B77
330
B6D
100
AcDbEntity
  8
0
100
AcDbBlockBegin
  2
*D14
 70
     1
 10
0.0
 20
0.0
 30
0.0
  3
*D14
  1

  0
LINE
  5
BEE
330
B6D
100
AcDbEntity
  8
0
 62
     4
370
    13
100
AcDbLine
 10
93.75580138976815
 20
40.89371165068634
 30
0.0
 11
93.75580138976815
 21
49.92221038938488
 31
0.0
  0
LINE
  5
BEF
330
B6D
100
AcDbEntity
  8
0
 62
     4
370
    13
100
AcDbLine
 10
72.25578778153007
 20
40.92221038938489
 30
0.0
 11
72.25578778153007
 21
49.92221038938488
 31
0.0
  0
LINE
  5
BF0
330
B6D
100
AcDbEntity
  8
0
 62
     4
370
    13
100
AcDbLine
 10
92.75580138976815
 20
49.42221038938488
 30
0.0
 11
73.25578778153007
 21
49.42221038938488
 31
0.0
  0
SOLID
  5
BF1
330
B6D
100
AcDbEntity
  8
0
 62
     4
100
AcDbTrace
 10
92.75580138976815
 20
49.58887705605155
 30
0.0
 11
92.75580138976815
 21
49.25554372271822
 31
0.0
 12
93.75580138976815
 22
49.42221038938488
 32
0.0
 13
93.75580138976815
 23
49.42221038938488
 33
0.0
  0
SOLID
  5
BF2
330
B6D
100
AcDbEntity
  8
0
 62
     4
100
AcDbTrace
 10
73.25578778153007
 20
49.58887705605155
 30
0.0
 11
73.25578778153007
 21
49.25554372271822
 31
0.0
 12
72.25578778153007
 22
49.42221038938488
 32
0.0
 13
72.25578778153007
 23
49.42221038938488
 33
0.0
  0
MTEXT
  5
BF3
330
B6D
100
AcDbEntity
  8
0
 62
     4
100
AcDbMText
 10
83.00579458564911
 20
50.42221038938489
 30
0.0
 40
1.0
 41
0.0
 71
     5
 72
     1
  1
\A1;21.5
  7
ゴシック
 73
     1
 44
1.0
1001
ACAD
1000
MTEXTBEGIN
1070
    73
1070
     1
1070
    44
1040
1.0
1070
    74
1070
     0
1000
MTEXTEND
  0
POINT
  5
BF4
330
B6D
100
AcDbEntity
  8
DEFPOINTS
 62
     0
100
AcDbPoint
 10
93.75580138976815
 20
39.39371165068634
 30
0.0
  0
POINT
  5
BF5
330
B6D
100
AcDbEntity
  8
DEFPOINTS
 62
     0
100
AcDbPoint
 10
72.25578778153007
 20
39.42221038938489
 30
0.0
  0
POINT
  5
BF6
330
B6D
100
AcDbEntity
  8
DEFPOINTS
 62
     0
100
AcDbPoint
 10
72.25578778153007
 20
49.42221038938488
 30
0.0
  0
ENDBLK
  5
B78
330
B6D
100
AcDbEntity
  8
0
100
AcDbBlockEnd
  0
BLOCK
  5
B83
330
B79
100
AcDbEntity
  8
0
100
AcDbBlockBegin
  2
*D15
 70
     1
 10
0.0
 20
0.0
 30
0.0
  3
*D15
  1

  0
LINE
  5
BF7
330
B79
100
AcDbEntity
  8
0
 62
     4
370
    13
100
AcDbLine
 10
118.1893686439901
 20
34.92221038938489
 30
0.0
 11
118.1893686439901
 21
49.92221038938488
 31
0.0
  0
LINE
  5
BF8
330
B79
100
AcDbEntity
  8
0
 62
     4
370
    13
100
AcDbLine
 10
106.1893686439901
 20
34.92221038938489
 30
0.0
 11
106.1893686439901
 21
49.92221038938488
 31
0.0
  0
LINE
  5
BF9
330
B79
100
AcDbEntity
  8
0
 62
     4
370
    13
100
AcDbLine
 10
117.1893686439901
 20
49.42221038938488
 30
0.0
 11
107.1893686439901
 21
49.42221038938488
 31
0.0
  0
SOLID
  5
BFA
330
B79
100
AcDbEntity
  8
0
 62
     4
100
AcDbTrace
 10
117.1893686439901
 20
49.58887705605155
 30
0.0
 11
117.1893686439901
 21
49.25554372271822
 31
0.0
 12
118.1893686439901
 22
49.42221038938488
 32
0.0
 13
118.1893686439901
 23
49.42221038938488
 33
0.0
  0
SOLID
  5
BFB
330
B79
100
AcDbEntity
  8
0
 62
     4
100
AcDbTrace
 10
107.1893686439901
 20
49.58887705605155
 30
0.0
 11
107.1893686439901
 21
49.25554372271822
 31
0.0
 12
106.1893686439901
 22
49.42221038938488
 32
0.0
 13
106.1893686439901
 23
49.42221038938488
 33
0.0
  0
MTEXT
  5
BFC
330
B79
100
AcDbEntity
  8
0
 62
     4
100
AcDbMText
 10
112.1893686439901
 20
50.57277857120307
 30
0.0
 40
1.0
 41
0.0
 71
     5
 72
     1
  1
\A1;φ12
  7
ゴシック
 73
     1
 44
1.0
1001
ACAD
1000
MTEXTBEGIN
1070
    73
1070
     1
1070
    44
1040
1.0
1070
    74
1070
     0
1000
MTEXTEND
  0
POINT
  5
BFD
330
B79
100
AcDbEntity
  8
DEFPOINTS
 62
     0
100
AcDbPoint
 10
118.1893686439901
 20
33.42221038938489
 30
0.0
  0
POINT
  5
BFE
330
B79
100
AcDbEntity
  8
DEFPOINTS
 62
     0
100
AcDbPoint
 10
106.1893686439901
 20
33.42221038938489
 30
0.0
  0
POINT
  5
BFF
330
B79
100
AcDbEntity
  8
DEFPOINTS
 62
     0
100
AcDbPoint
 10
106.1893686439901
 20
49.42221038938488
 30
0.0
  0
ENDBLK
  5
B84
330
B79
100
AcDbEntity
  8
0
100
AcDbBlockEnd
  0
BLOCK
  5
B8F
330
B85
100
AcDbEntity
  8
0
100
AcDbBlockBegin
  2
*D16
 70
     1
 10
0.0
 20
0.0
 30
0.0
  3
*D16
  1

  0
LINE
  5
C00
330
B85
100
AcDbEntity
  8
0
 62
     4
370
    13
100
AcDbLine
 10
50.92158659976426
 20
76.5087703243612
 30
0.0
 11
50.92158659976426
 21
86.20877032436194
 31
0.0
  0
LINE
  5
C01
330
B85
100
AcDbEntity
  8
0
 62
     4
370
    13
100
AcDbLine
 10
46.32158659976208
 20
76.5087703243612
 30
0.0
 11
46.32158659976208
 21
86.20877032436194
 31
0.0
  0
LINE
  5
C02
330
B85
100
AcDbEntity
  8
0
 62
     4
370
    13
100
AcDbLine
 10
49.92158659976426
 20
85.70877032436193
 30
0.0
 11
47.32158659976207
 21
85.70877032436193
 31
0.0
  0
SOLID
  5
C03
330
B85
100
AcDbEntity
  8
0
 62
     4
100
AcDbTrace
 10
49.92158659976426
 20
85.87543699102861
 30
0.0
 11
49.92158659976426
 21
85.54210365769526
 31
0.0
 12
50.92158659976426
 22
85.70877032436193
 32
0.0
 13
50.92158659976426
 23
85.70877032436193
 33
0.0
  0
SOLID
  5
C04
330
B85
100
AcDbEntity
  8
0
 62
     4
100
AcDbTrace
 10
47.32158659976207
 20
85.87543699102861
 30
0.0
 11
47.32158659976207
 21
85.54210365769526
 31
0.0
 12
46.32158659976208
 22
85.70877032436193
 32
0.0
 13
46.32158659976208
 23
85.70877032436193
 33
0.0
  0
MTEXT
  5
C05
330
B85
100
AcDbEntity
  8
0
 62
     4
100
AcDbMText
 10
48.62158659976317
 20
86.75138396072558
 30
0.0
 40
1.0
 41
0.0
 71
     5
 72
     1
  1
\A1;\U+25A14.6
  7
ゴシック
 73
     1
 44
1.0
1001
ACAD
1000
MTEXTBEGIN
1070
    73
1070
     1
1070
    44
1040
1.0
1070
    74
1070
     0
1000
MTEXTEND
  0
POINT
  5
C06
330
B85
100
AcDbEntity
  8
DEFPOINTS
 62
     0
100
AcDbPoint
 10
50.92158659976426
 20
75.00877032436121
 30
0.0
  0
POINT
  5
C07
330
B85
100
AcDbEntity
  8
DEFPOINTS
 62
     0
100
AcDbPoint
 10
46.32158659976208
 20
75.00877032436121
 30
0.0
  0
POINT
  5
C08
330
B85
100
AcDbEntity
  8
DEFPOINTS
 62
     0
100
AcDbPoint
 10
46.32158659976208
 20
85.70877032436193
 30
0.0
  0
ENDBLK
  5
B90
330
B85
100
AcDbEntity
  8
0
100
AcDbBlockEnd
  0
BLOCK
  5
B9B
330
B91
100
AcDbEntity
  8
0
100
AcDbBlockBegin
  2
*D17
 70
     1
 10
0.0
 20
0.0
 30
0.0
  3
*D17
  1

  0
LINE
  5
C09
330
B91
100
AcDbEntity
  8
0
 62
     4
370
    13
100
AcDbLine
 10
25.26750000334446
 20
75.00877032436121
 30
0.0
 11
22.26750000334446
 21
75.00877032436121
 31
0.0
  0
LINE
  5
C0A
330
B91
100
AcDbEntity
  8
0
 62
     4
370
    13
100
AcDbLine
 10
25.26750000334446
 20
70.40877032436267
 30
0.0
 11
22.26750000334446
 21
70.40877032436267
 31
0.0
  0
LINE
  5
C0B
330
B91
100
AcDbEntity
  8
0
 62
     4
370
    13
100
AcDbLine
 10
22.76750000334446
 20
74.0087703243612
 30
0.0
 11
22.76750000334446
 21
71.40877032436266
 31
0.0
  0
SOLID
  5
C0C
330
B91
100
AcDbEntity
  8
0
 62
     4
100
AcDbTrace
 10
22.60083333667779
 20
74.0087703243612
 30
0.0
 11
22.93416667001113
 21
74.0087703243612
 31
0.0
 12
22.76750000334446
 22
75.00877032436121
 32
0.0
 13
22.76750000334446
 23
75.00877032436121
 33
0.0
  0
SOLID
  5
C0D
330
B91
100
AcDbEntity
  8
0
 62
     4
100
AcDbTrace
 10
22.60083333667779
 20
71.40877032436266
 30
0.0
 11
22.93416667001113
 21
71.40877032436266
 31
0.0
 12
22.76750000334446
 22
70.40877032436267
 32
0.0
 13
22.76750000334446
 23
70.40877032436267
 33
0.0
  0
MTEXT
  5
C0E
330
B91
100
AcDbEntity
  8
0
 62
     4
100
AcDbMText
 10
21.61693182152626
 20
72.70877032436193
 30
0.0
 40
1.0
 41
0.0
 71
     5
 72
     1
  1
\A1;φ4.6
  7
ゴシック
 11
0.0000000000000001
 21
1.0
 31
0.0
 73
     1
 44
1.0
1001
ACAD
1000
MTEXTBEGIN
1070
    73
1070
     1
1070
    44
1040
1.0
1070
    74
1070
     0
1000
MTEXTEND
  0
POINT
  5
C0F
330
B91
100
AcDbEntity
  8
DEFPOINTS
 62
     0
100
AcDbPoint
 10
26.76750000334446
 20
75.00877032436121
 30
0.0
  0
POINT
  5
C10
330
B91
100
AcDbEntity
  8
DEFPOINTS
 62
     0
100
AcDbPoint
 10
26.76750000334446
 20
70.40877032436267
 30
0.0
  0
POINT
  5
C11
330
B91
100
AcDbEntity
  8
DEFPOINTS
 62
     0
100
AcDbPoint
 10
22.76750000334446
 20
70.40877032436267
 30
0.0
  0
ENDBLK
  5
B9C
330
B91
100
AcDbEntity
  8
0
100
AcDbBlockEnd
  0
BLOCK
  5
BA7
330
B9D
100
AcDbEntity
  8
0
100
AcDbBlockBegin
  2
*D18
 70
     1
 10
0.0
 20
0.0
 30
0.0
  3
*D18
  1

  0
LINE
  5
C12
330
B9D
100
AcDbEntity
  8
0
 62
     4
370
    13
100
AcDbLine
 10
25.26750000334446
 20
76.95877032436375
 30
0.0
 11
19.26750000334446
 21
76.95877032436375
 31
0.0
  0
LINE
  5
C13
330
B9D
100
AcDbEntity
  8
0
 62
     4
370
    13
100
AcDbLine
 10
25.26750000334446
 20
68.45877032436011
 30
0.0
 11
19.26750000334446
 21
68.45877032436011
 31
0.0
  0
LINE
  5
C14
330
B9D
100
AcDbEntity
  8
0
 62
     4
370
    13
100
AcDbLine
 10
19.76750000334446
 20
75.95877032436376
 30
0.0
 11
19.76750000334446
 21
69.45877032436012
 31
0.0
  0
SOLID
  5
C15
330
B9D
100
AcDbEntity
  8
0
 62
     4
100
AcDbTrace
 10
19.60083333667779
 20
75.95877032436376
 30
0.0
 11
19.93416667001113
 21
75.95877032436376
 31
0.0
 12
19.76750000334446
 22
76.95877032436375
 32
0.0
 13
19.76750000334446
 23
76.95877032436375
 33
0.0
  0
SOLID
  5
C16
330
B9D
100
AcDbEntity
  8
0
 62
     4
100
AcDbTrace
 10
19.60083333667779
 20
69.45877032436012
 30
0.0
 11
19.93416667001113
 21
69.45877032436012
 31
0.0
 12
19.76750000334446
 22
68.45877032436011
 32
0.0
 13
19.76750000334446
 23
68.45877032436011
 33
0.0
  0
MTEXT
  5
C17
330
B9D
100
AcDbEntity
  8
0
 62
     4
100
AcDbMText
 10
18.61693182152626
 20
72.70877032436193
 30
0.0
 40
1.0
 41
0.0
 71
     5
 72
     1
  1
\A1;φ8.5
  7
ゴシック
 11
0.0000000000000001
 21
1.0
 31
0.0
 73
     1
 44
1.0
1001
ACAD
1000
MTEXTBEGIN
1070
    73
1070
     1
1070
    44
1040
1.0
1070
    74
1070
     0
1000
MTEXTEND
  0
POINT
  5
C18
330
B9D
100
AcDbEntity
  8
DEFPOINTS
 62
     0
100
AcDbPoint
 10
26.76750000334446
 20
76.95877032436375
 30
0.0
  0
POINT
  5
C19
330
B9D
100
AcDbEntity
  8
DEFPOINTS
 62
     0
100
AcDbPoint
 10
26.76750000334446
 20
68.45877032436011
 30
0.0
  0
POINT
  5
C1A
330
B9D
100
AcDbEntity
  8
DEFPOINTS
 62
     0
100
AcDbPoint
 10
19.76750000334446
 20
68.45877032436011
 30
0.0
  0
ENDBLK
  5
BA8
330
B9D
100
AcDbEntity
  8
0
100
AcDbBlockEnd
  0
BLOCK
  5
BB3
330
BA9
100
AcDbEntity
  8
0
100
AcDbBlockBegin
  2
*D19
 70
     1
 10
0.0
 20
0.0
 30
0.0
  3
*D19
  1

  0
LINE
  5
C1B
330
BA9
100
AcDbEntity
  8
0
 62
     4
370
    13
100
AcDbLine
 10
38.06750000334009
 20
75.79659197419143
 30
0.0
 11
38.06750000334009
 21
86.20877032436194
 31
0.0
  0
LINE
  5
C1C
330
BA9
100
AcDbEntity
  8
0
 62
     4
370
    13
100
AcDbLine
 10
26.76750000334446
 20
78.45877032436376
 30
0.0
 11
26.76750000334446
 21
86.20877032436194
 31
0.0
  0
LINE
  5
C1D
330
BA9
100
AcDbEntity
  8
0
 62
     4
370
    13
100
AcDbLine
 10
37.0675000033401
 20
85.70877032436193
 30
0.0
 11
27.76750000334446
 21
85.70877032436193
 31
0.0
  0
SOLID
  5
C1E
330
BA9
100
AcDbEntity
  8
0
 62
     4
100
AcDbTrace
 10
37.0675000033401
 20
85.87543699102861
 30
0.0
 11
37.0675000033401
 21
85.54210365769526
 31
0.0
 12
38.06750000334009
 22
85.70877032436193
 32
0.0
 13
38.06750000334009
 23
85.70877032436193
 33
0.0
  0
SOLID
  5
C1F
330
BA9
100
AcDbEntity
  8
0
 62
     4
100
AcDbTrace
 10
27.76750000334446
 20
85.87543699102861
 30
0.0
 11
27.76750000334446
 21
85.54210365769526
 31
0.0
 12
26.76750000334446
 22
85.70877032436193
 32
0.0
 13
26.76750000334446
 23
85.70877032436193
 33
0.0
  0
MTEXT
  5
C20
330
BA9
100
AcDbEntity
  8
0
 62
     4
100
AcDbMText
 10
32.41750000334228
 20
86.70877032436193
 30
0.0
 40
1.0
 41
0.0
 71
     5
 72
     1
  1
\A1;11.3
  7
ゴシック
 73
     1
 44
1.0
1001
ACAD
1000
MTEXTBEGIN
1070
    73
1070
     1
1070
    44
1040
1.0
1070
    74
1070
     0
1000
MTEXTEND
  0
POINT
  5
C21
330
BA9
100
AcDbEntity
  8
DEFPOINTS
 62
     0
100
AcDbPoint
 10
38.06750000334009
 20
74.29659197419143
 30
0.0
  0
POINT
  5
C22
330
BA9
100
AcDbEntity
  8
DEFPOINTS
 62
     0
100
AcDbPoint
 10
26.76750000334446
 20
76.95877032436375
 30
0.0
  0
POINT
  5
C23
330
BA9
100
AcDbEntity
  8
DEFPOINTS
 62
     0
100
AcDbPoint
 10
26.76750000334446
 20
85.70877032436193
 30
0.0
  0
ENDBLK
  5
BB4
330
BA9
100
AcDbEntity
  8
0
100
AcDbBlockEnd
  0
BLOCK
  5
BBF
330
BB5
100
AcDbEntity
  8
0
100
AcDbBlockBegin
  2
*D20
 70
     1
 10
0.0
 20
0.0
 30
0.0
  3
*D20
  1

  0
LINE
  5
C24
330
BB5
100
AcDbEntity
  8
0
 62
     4
370
    13
100
AcDbLine
 10
73.25580138977179
 20
78.70877032436194
 30
0.0
 11
67.25580138977178
 21
78.70877032436194
 31
0.0
  0
LINE
  5
C25
330
BB5
100
AcDbEntity
  8
0
 62
     4
370
    13
100
AcDbLine
 10
73.75580138977179
 20
66.70877032436194
 30
0.0
 11
67.25580138977178
 21
66.70877032436194
 31
0.0
  0
LINE
  5
C26
330
BB5
100
AcDbEntity
  8
0
 62
     4
370
    13
100
AcDbLine
 10
67.75580138977179
 20
77.70877032436193
 30
0.0
 11
67.75580138977179
 21
67.70877032436193
 31
0.0
  0
SOLID
  5
C27
330
BB5
100
AcDbEntity
  8
0
 62
     4
100
AcDbTrace
 10
67.58913472310512
 20
77.70877032436193
 30
0.0
 11
67.92246805643846
 21
77.70877032436193
 31
0.0
 12
67.75580138977179
 22
78.70877032436194
 32
0.0
 13
67.75580138977179
 23
78.70877032436194
 33
0.0
  0
SOLID
  5
C28
330
BB5
100
AcDbEntity
  8
0
 62
     4
100
AcDbTrace
 10
67.58913472310512
 20
67.70877032436193
 30
0.0
 11
67.92246805643846
 21
67.70877032436193
 31
0.0
 12
67.75580138977179
 22
66.70877032436194
 32
0.0
 13
67.75580138977179
 23
66.70877032436194
 33
0.0
  0
MTEXT
  5
C29
330
BB5
100
AcDbEntity
  8
0
 62
     4
100
AcDbMText
 10
66.60523320795359
 20
72.70877032436195
 30
0.0
 40
1.0
 41
0.0
 71
     5
 72
     1
  1
\A1;φ12
  7
ゴシック
 11
0.0000000000000001
 21
1.0
 31
0.0
 73
     1
 44
1.0
1001
ACAD
1000
MTEXTBEGIN
1070
    73
1070
     1
1070
    44
1040
1.0
1070
    74
1070
     0
1000
MTEXTEND
  0
POINT
  5
C2A
330
BB5
100
AcDbEntity
  8
DEFPOINTS
 62
     0
100
AcDbPoint
 10
74.75580138977178
 20
78.70877032436194
 30
0.0
  0
POINT
  5
C2B
330
BB5
100
AcDbEntity
  8
DEFPOINTS
 62
     0
100
AcDbPoint
 10
75.25580138977179
 20
66.70877032436194
 30
0.0
  0
POINT
  5
C2C
330
BB5
100
AcDbEntity
  8
DEFPOINTS
 62
     0
100
AcDbPoint
 10
67.75580138977179
 20
66.70877032436194
 30
0.0
  0
ENDBLK
  5
BC0
330
BB5
100
AcDbEntity
  8
0
100
AcDbBlockEnd
  0
BLOCK
  5
BCB
330
BC1
100
AcDbEntity
  8
0
100
AcDbBlockBegin
  2
*D21
 70
     1
 10
0.0
 20
0.0
 30
0.0
  3
*D21
  1

  0
LINE
  5
C2D
330
BC1
100
AcDbEntity
  8
0
 62
     4
370
    13
100
AcDbLine
 10
74.75580138977178
 20
80.20877032436194
 30
0.0
 11
74.75580138977178
 21
86.20877032436194
 31
0.0
  0
LINE
  5
C2E
330
BC1
100
AcDbEntity
  8
0
 62
     4
370
    13
100
AcDbLine
 10
93.75580138976815
 20
80.18027158566338
 30
0.0
 11
93.75580138976815
 21
86.20877032436194
 31
0.0
  0
LINE
  5
C2F
330
BC1
100
AcDbEntity
  8
0
 62
     4
370
    13
100
AcDbLine
 10
75.75580138977179
 20
85.70877032436193
 30
0.0
 11
92.75580138976815
 21
85.70877032436193
 31
0.0
  0
SOLID
  5
C30
330
BC1
100
AcDbEntity
  8
0
 62
     4
100
AcDbTrace
 10
75.75580138977179
 20
85.87543699102861
 30
0.0
 11
75.75580138977179
 21
85.54210365769526
 31
0.0
 12
74.75580138977178
 22
85.70877032436193
 32
0.0
 13
74.75580138977178
 23
85.70877032436193
 33
0.0
  0
SOLID
  5
C31
330
BC1
100
AcDbEntity
  8
0
 62
     4
100
AcDbTrace
 10
92.75580138976815
 20
85.87543699102861
 30
0.0
 11
92.75580138976815
 21
85.54210365769526
 31
0.0
 12
93.75580138976815
 22
85.70877032436193
 32
0.0
 13
93.75580138976815
 23
85.70877032436193
 33
0.0
  0
MTEXT
  5
C32
330
BC1
100
AcDbEntity
  8
0
 62
     4
100
AcDbMText
 10
84.25580138976997
 20
86.70877032436193
 30
0.0
 40
1.0
 41
0.0
 71
     5
 72
     1
  1
\A1;19
  7
ゴシック
 73
     1
 44
1.0
1001
ACAD
1000
MTEXTBEGIN
1070
    73
1070
     1
1070
    44
1040
1.0
1070
    74
1070
     0
1000
MTEXTEND
  0
POINT
  5
C33
330
BC1
100
AcDbEntity
  8
DEFPOINTS
 62
     0
100
AcDbPoint
 10
74.75580138977178
 20
78.70877032436194
 30
0.0
  0
POINT
  5
C34
330
BC1
100
AcDbEntity
  8
DEFPOINTS
 62
     0
100
AcDbPoint
 10
93.75580138976815
 20
78.68027158566339
 30
0.0
  0
POINT
  5
C35
330
BC1
100
AcDbEntity
  8
DEFPOINTS
 62
     0
100
AcDbPoint
 10
93.75580138976815
 20
85.70877032436193
 30
0.0
  0
ENDBLK
  5
BCC
330
BC1
100
AcDbEntity
  8
0
100
AcDbBlockEnd
  0
BLOCK
  5
BD7
330
BCD
100
AcDbEntity
  8
0
100
AcDbBlockBegin
  2
*D22
 70
     1
 10
0.0
 20
0.0
 30
0.0
  3
*D22
  1

  0
LINE
  5
C36
330
BCD
100
AcDbEntity
  8
0
 62
     4
370
    13
100
AcDbLine
 10
71.70580138977252
 20
37.67221038939034
 30
0.0
 11
70.2558013897718
 21
37.67221038939034
 31
0.0
  0
LINE
  5
C37
330
BCD
100
AcDbEntity
  8
0
 62
     4
370
    13
100
AcDbLine
 10
71.70580138977252
 20
29.17221038938671
 30
0.0
 11
70.25580138977179
 21
29.17221038938671
 31
0.0
  0
LINE
  5
C38
330
BCD
100
AcDbEntity
  8
0
 62
     4
370
    13
100
AcDbLine
 10
70.7558013897718
 20
36.67221038939035
 30
0.0
 11
70.75580138977179
 21
30.17221038938671
 31
0.0
  0
SOLID
  5
C39
330
BCD
100
AcDbEntity
  8
0
 62
     4
100
AcDbTrace
 10
70.58913472310513
 20
36.67221038939035
 30
0.0
 11
70.92246805643847
 21
36.67221038939035
 31
0.0
 12
70.7558013897718
 22
37.67221038939034
 32
0.0
 13
70.7558013897718
 23
37.67221038939034
 33
0.0
  0
SOLID
  5
C3A
330
BCD
100
AcDbEntity
  8
0
 62
     4
100
AcDbTrace
 10
70.58913472310512
 20
30.17221038938671
 30
0.0
 11
70.92246805643846
 21
30.17221038938671
 31
0.0
 12
70.75580138977179
 22
29.17221038938671
 32
0.0
 13
70.75580138977179
 23
29.17221038938671
 33
0.0
  0
MTEXT
  5
C3B
330
BCD
100
AcDbEntity
  8
0
 62
     4
100
AcDbMText
 10
69.6052332079536
 20
33.42221038938853
 30
0.0
 40
1.0
 41
0.0
 71
     5
 72
     1
  1
\A1;φ8.5
  7
ゴシック
 11
0.0000000000000001
 21
1.0
 31
0.0
 73
     1
 44
1.0
1001
ACAD
1000
MTEXTBEGIN
1070
    73
1070
     1
1070
    44
1040
1.0
1070
    74
1070
     0
1000
MTEXTEND
  0
POINT
  5
C3C
330
BCD
100
AcDbEntity
  8
DEFPOINTS
 62
     0
100
AcDbPoint
 10
73.20580138977252
 20
37.67221038939034
 30
0.0
  0
POINT
  5
C3D
330
BCD
100
AcDbEntity
  8
DEFPOINTS
 62
     0
100
AcDbPoint
 10
73.20580138977252
 20
29.17221038938671
 30
0.0
  0
POINT
  5
C3E
330
BCD
100
AcDbEntity
  8
DEFPOINTS
 62
     0
100
AcDbPoint
 10
70.75580138977179
 20
29.17221038938671
 30
0.0
  0
ENDBLK
  5
BD8
330
BCD
100
AcDbEntity
  8
0
100
AcDbBlockEnd
  0
BLOCK
  5
BE3
330
BD9
100
AcDbEntity
  8
0
100
AcDbBlockBegin
  2
*D23
 70
     1
 10
0.0
 20
0.0
 30
0.0
  3
*D23
  1

  0
LINE
  5
C3F
330
BD9
100
AcDbEntity
  8
0
 62
     4
370
    13
100
AcDbLine
 10
73.25580138977179
 20
39.42221038938489
 30
0.0
 11
67.2558013897718
 21
39.42221038938489
 31
0.0
  0
LINE
  5
C40
330
BD9
100
AcDbEntity
  8
0
 62
     4
370
    13
100
AcDbLine
 10
73.75580138977179
 20
27.42221038938489
 30
0.0
 11
67.25580138977178
 21
27.4222103893849
 31
0.0
  0
LINE
  5
C41
330
BD9
100
AcDbEntity
  8
0
 62
     4
370
    13
100
AcDbLine
 10
67.7558013897718
 20
38.42221038938489
 30
0.0
 11
67.75580138977179
 21
28.4222103893849
 31
0.0
  0
SOLID
  5
C42
330
BD9
100
AcDbEntity
  8
0
 62
     4
100
AcDbTrace
 10
67.58913472310513
 20
38.42221038938489
 30
0.0
 11
67.92246805643848
 21
38.42221038938489
 31
0.0
 12
67.7558013897718
 22
39.42221038938489
 32
0.0
 13
67.7558013897718
 23
39.42221038938489
 33
0.0
  0
SOLID
  5
C43
330
BD9
100
AcDbEntity
  8
0
 62
     4
100
AcDbTrace
 10
67.58913472310512
 20
28.4222103893849
 30
0.0
 11
67.92246805643846
 21
28.4222103893849
 31
0.0
 12
67.75580138977179
 22
27.4222103893849
 32
0.0
 13
67.75580138977179
 23
27.4222103893849
 33
0.0
  0
MTEXT
  5
C44
330
BD9
100
AcDbEntity
  8
0
 62
     4
100
AcDbMText
 10
66.6052332079536
 20
33.4222103893849
 30
0.0
 40
1.0
 41
0.0
 71
     5
 72
     1
  1
\A1;φ12
  7
ゴシック
 11
0.0000000000000001
 21
1.0
 31
0.0
 73
     1
 44
1.0
1001
ACAD
1000
MTEXTBEGIN
1070
    73
1070
     1
1070
    44
1040
1.0
1070
    74
1070
     0
1000
MTEXTEND
  0
POINT
  5
C45
330
BD9
100
AcDbEntity
  8
DEFPOINTS
 62
     0
100
AcDbPoint
 10
74.75580138977178
 20
39.42221038938489
 30
0.0
  0
POINT
  5
C46
330
BD9
100
AcDbEntity
  8
DEFPOINTS
 62
     0
100
AcDbPoint
 10
75.25580138977179
 20
27.42221038938489
 30
0.0
  0
POINT
  5
C47
330
BD9
100
AcDbEntity
  8
DEFPOINTS
 62
     0
100
AcDbPoint
 10
67.75580138977179
 20
27.4222103893849
 30
0.0
  0
ENDBLK
  5
BE4
330
BD9
100
AcDbEntity
  8
0
100
AcDbBlockEnd
  0
ENDSEC
  0
SECTION
  2
ENTITIES
  0
DIMENSION
  5
6BA
330
1F
100
AcDbEntity
  8
0
 48
0.1
100
AcDbDimension
  2
*D22
 10
70.75580138977179
 20
29.17221038938671
 30
0.0
 11
69.6052332079536
 21
33.42221038938853
 31
0.0
 70
    32
  1
φ<>
 71
     5
 42
8.50000000000363
  3
基本（２：１）
100
AcDbAlignedDimension
 13
73.20580138977252
 23
37.67221038939034
 33
0.0
 14
73.20580138977252
 24
29.17221038938671
 34
0.0
 50
90.0
100
AcDbRotatedDimension
1001
ACAD
1000
DSTYLE
1002
{
1070
    40
1040
1.0
1002
}
  0
DIMENSION
  5
6BB
330
1F
100
AcDbEntity
  8
0
 48
0.1
100
AcDbDimension
  2
*D23
 10
67.75580138977179
 20
27.4222103893849
 30
0.0
 11
66.6052332079536
 21
33.4222103893849
 31
0.0
 70
    32
  1
φ<>
 71
     5
 42
11.99999999999999
  3
基本（２：１）
100
AcDbAlignedDimension
 13
74.75580138977178
 23
39.42221038938489
 33
0.0
 14
75.25580138977179
 24
27.42221038938489
 34
0.0
 50
90.0
100
AcDbRotatedDimension
1001
ACAD
1000
DSTYLE
1002
{
1070
    40
1040
1.0
1002
}
  0
TEXT
  5
6BC
330
1F
100
AcDbEntity
  8
図枠
  6
Continuous
100
AcDbText
 10
97.31262735302093
 20
62.02938030091947
 30
0.0
 40
1.0
  1
バラ図
  7
ゴシック
100
AcDbText
  0
LINE
  5
6BD
330
1F
100
AcDbEntity
  8
0
 48
0.1
100
AcDbLine
 10
96.52503405485489
 20
61.40271479001468
 30
0.0
 11
102.4217189763797
 21
61.40271479001468
 31
0.0
  0
LINE
  5
6BE
330
1F
100
AcDbEntity
  8
0
 48
0.1
100
AcDbLine
 10
96.52503405485489
 20
60.89514359836404
 30
0.0
 11
102.4217189763797
 21
60.89514359836404
 31
0.0
  0
TEXT
  5
6BF
330
1F
100
AcDbEntity
  8
0
100
AcDbText
 10
127.2811348191747
 20
9.744502353647948
 30
0.0
 40
1.054076005828782
  1
スチール棚柱用フック
  7
ゴシック
100
AcDbText
  0
TEXT
  5
6C0
330
1F
100
AcDbEntity
  8
0
100
AcDbText
 10
117.7436731745832
 20
6.132316235689831
 30
0.0
 40
0.8216813206097356
  1
柳原
  7
ゴシック
100
AcDbText
  0
LINE
  5
6C1
330
1F
100
AcDbEntity
  8
0
100
AcDbLine
 10
117.8999577857824
 20
4.845686883809793
 30
0.0
 11
118.1811749222682
 21
5.26751258848937
 31
0.0
  0
LINE
  5
6C2
330
1F
100
AcDbEntity
  8
0
100
AcDbLine
 10
119.7219118637761
 20
4.05827890170487
 30
0.0
 11
119.6559195757357
 21
4.28325261083275
 31
0.0
  0
LINE
  5
6C3
330
1F
100
AcDbEntity
  8
0
100
AcDbLine
 10
114.9020126765893
 20
5.26751258848937
 30
0.0
 11
113.7771441307407
 21
5.26751258848937
 31
0.0
  0
LINE
  5
6C4
330
1F
100
AcDbEntity
  8
0
100
AcDbLine
 10
120.3039275734403
 20
4.789443456448243
 30
0.0
 11
120.2627590016267
 21
4.932506738301999
 31
0.0
  0
LINE
  5
6C5
330
1F
100
AcDbEntity
  8
0
100
AcDbLine
 10
114.4801869719116
 20
4.705078315512327
 30
0.0
 11
114.4801869719116
 21
4.845686883809793
 31
0.0
  0
LINE
  5
6C6
330
1F
100
AcDbEntity
  8
0
100
AcDbLine
 10
112.5116670167002
 20
4.28325261083275
 30
0.0
 11
112.4691740354568
 21
4.28325261083275
 31
0.0
  0
LINE
  5
6C7
330
1F
100
AcDbEntity
  8
0
100
AcDbLine
 10
118.1811749222682
 20
3.720818337961208
 30
0.0
 11
118.1811749222682
 21
3.298992633281631
 31
0.0
  0
LINE
  5
6C8
330
1F
100
AcDbEntity
  8
0
100
AcDbLine
 10
121.3357232708252
 20
4.05827890170487
 30
0.0
 11
121.3357232708252
 21
3.552088056089377
 31
0.0
  0
LINE
  5
6C9
330
1F
100
AcDbEntity
  8
0
100
AcDbLine
 10
114.4801869719116
 20
4.845686883809793
 30
0.0
 11
114.9020126765893
 21
5.26751258848937
 31
0.0
  0
LINE
  5
6CA
330
1F
100
AcDbEntity
  8
0
100
AcDbLine
 10
112.5116670167002
 20
3.861426906151354
 30
0.0
 11
113.214709857871
 21
3.861426906151354
 31
0.0
  0
LINE
  5
6CB
330
1F
100
AcDbEntity
  8
0
100
AcDbLine
 10
118.1811749222682
 20
5.26751258848937
 30
0.0
 11
115.6502206941871
 21
5.26751258848937
 31
0.0
  0
LINE
  5
6CC
330
1F
100
AcDbEntity
  8
0
100
AcDbLine
 10
118.8047690427441
 20
3.552088056089377
 30
0.0
 11
119.8703945118244
 21
3.552088056089377
 31
0.0
  0
LINE
  5
6CD
330
1F
100
AcDbEntity
  8
0
100
AcDbLine
 10
118.8047690427441
 20
4.789443456448243
 30
0.0
 11
119.5074369276875
 21
4.789443456448243
 31
0.0
  0
LINE
  5
6CE
330
1F
100
AcDbEntity
  8
0
100
AcDbLine
 10
120.5143309706357
 20
4.05827890170487
 30
0.0
 11
121.3357232708252
 21
4.05827890170487
 31
0.0
  0
LINE
  5
6CF
330
1F
100
AcDbEntity
  8
0
100
AcDbLine
 10
115.6060392974535
 20
11.72561548589194
 30
0.0
 11
115.6060392974535
 21
8.737683411004145
 31
0.0
  0
LINE
  5
6D0
330
1F
100
AcDbEntity
  8
0
100
AcDbLine
 10
102.24822531599
 20
7.243717373665749
 30
0.0
 11
111.3877822506541
 21
7.243717373665749
 31
0.0
  0
LINE
  5
6D1
330
1F
100
AcDbEntity
  8
0
100
AcDbLine
 10
112.7938679329921
 20
7.243717373665749
 30
0.0
 11
121.9334248676526
 21
7.243717373665749
 31
0.0
  0
LINE
  5
6D2
330
1F
100
AcDbEntity
  8
0
100
AcDbLine
 10
109.2786537272544
 20
10.23164944844804
 30
0.0
 11
114.199953615221
 21
10.23164944844804
 31
0.0
  0
LINE
  5
6D3
330
1F
100
AcDbEntity
  8
0
100
AcDbLine
 10
121.2087567139163
 20
11.0415548014321
 30
0.0
 11
121.2087567139163
 21
9.421744095462162
 31
0.0
  0
LINE
  5
6D4
330
1F
100
AcDbEntity
  8
0
100
AcDbLine
 10
119.5889460079446
 20
10.63660212494007
 30
0.0
 11
119.5889460079446
 21
9.826696771954193
 31
0.0
  0
LINE
  5
6D5
330
1F
100
AcDbEntity
  8
0
100
AcDbLine
 10
117.7376651918378
 20
11.44650747792595
 30
0.0
 11
117.7376651918378
 21
9.016791418968313
 31
0.0
  0
LINE
  5
6D6
330
1F
100
AcDbEntity
  8
0
100
AcDbLine
 10
113.7771441307407
 20
5.26751258848937
 30
0.0
 11
113.7771441307407
 21
4.705078315512327
 31
0.0
  0
LINE
  5
6D7
330
1F
100
AcDbEntity
  8
0
100
AcDbLine
 10
120.4495914638058
 20
4.28325261083275
 30
0.0
 11
121.3357232708252
 21
4.28325261083275
 31
0.0
  0
ARC
  5
6D8
330
1F
100
AcDbEntity
  8
0
100
AcDbCircle
 10
115.9876812579308
 20
4.789443456448243
 30
0.0
 40
1.068625118487514
100
AcDbArc
 50
270.0
 51
298.085904815184
  0
ARC
  5
6D9
330
1F
100
AcDbEntity
  8
0
100
AcDbCircle
 10
113.6365355625524
 20
4.142644042640785
 30
0.0
 40
0.8436514093599999
100
AcDbArc
 50
270.0
 51
0.0
  0
LINE
  5
6DA
330
1F
100
AcDbEntity
  8
0
100
AcDbLine
 10
112.5116670167002
 20
4.705078315512327
 30
0.0
 11
112.1879568990729
 21
4.705078315512327
 31
0.0
  0
LINE
  5
6DB
330
1F
100
AcDbEntity
  8
0
100
AcDbLine
 10
113.214709857871
 20
4.845686883809793
 30
0.0
 11
113.6365355625524
 21
5.26751258848937
 31
0.0
  0
LINE
  5
6DC
330
1F
100
AcDbEntity
  8
0
100
AcDbLine
 10
127.9092890173227
 20
15.592351112055
 30
0.0
 11
127.9092890173227
 21
17.52571892524112
 31
0.0
  0
LINE
  5
6DD
330
1F
100
AcDbEntity
  8
0
100
AcDbLine
 10
121.5819034471236
 20
15.592351112055
 30
0.0
 11
121.5819034471236
 21
17.52571892524112
 31
0.0
  0
LINE
  5
6DE
330
1F
100
AcDbEntity
  8
0
100
AcDbLine
 10
119.5889460079446
 20
10.63660212494007
 30
0.0
 11
121.2087567139163
 21
11.0415548014321
 31
0.0
  0
LINE
  5
6DF
330
1F
100
AcDbEntity
  8
0
100
AcDbLine
 10
119.5889460079446
 20
9.826696771954193
 30
0.0
 11
121.2087567139163
 21
9.421744095462162
 31
0.0
  0
LINE
  5
6E0
330
1F
100
AcDbEntity
  8
0
100
AcDbLine
 10
119.5889460079446
 20
10.63660212494007
 30
0.0
 11
119.5889460079446
 21
9.826696771954193
 31
0.0
  0
LINE
  5
6E1
330
1F
100
AcDbEntity
  8
0
100
AcDbLine
 10
121.2087567139163
 20
11.0415548014321
 30
0.0
 11
121.2087567139163
 21
9.421744095462162
 31
0.0
  0
LINE
  5
6E2
330
1F
100
AcDbEntity
  8
0
100
AcDbLine
 10
117.7376651918378
 20
11.44650747792595
 30
0.0
 11
117.7376651918378
 21
9.016791418968313
 31
0.0
  0
LINE
  5
6E3
330
1F
100
AcDbEntity
  8
0
100
AcDbLine
 10
101.5451824748228
 20
17.52571892524112
 30
0.0
 11
142.3216672605916
 21
17.52571892524112
 31
0.0
  0
LINE
  5
6E4
330
1F
100
AcDbEntity
  8
0
100
AcDbLine
 10
101.5451824748228
 20
15.592351112055
 30
0.0
 11
142.3216672605916
 21
15.592351112055
 31
0.0
  0
LINE
  5
6E5
330
1F
100
AcDbEntity
  8
0
100
AcDbLine
 10
101.5451824748228
 20
13.65898329897256
 30
0.0
 11
142.3216672605916
 21
13.65898329897256
 31
0.0
  0
ARC
  5
6E6
330
1F
100
AcDbEntity
  8
0
100
AcDbCircle
 10
116.3532635352524
 20
4.845686883809793
 30
0.0
 40
1.546694250528484
100
AcDbArc
 50
322.4876119796751
 51
0.0
  0
LINE
  5
6E7
330
1F
100
AcDbEntity
  8
0
100
AcDbLine
 10
113.214709857871
 20
4.28325261083275
 30
0.0
 11
113.7771441307407
 21
4.28325261083275
 31
0.0
  0
LINE
  5
6E8
330
1F
100
AcDbEntity
  8
0
100
AcDbLine
 10
113.7771441307407
 20
4.28325261083275
 30
0.0
 11
113.7771441307407
 21
4.142644042640785
 31
0.0
  0
LINE
  5
6E9
330
1F
100
AcDbEntity
  8
0
100
AcDbLine
 10
114.9020126765893
 20
4.705078315512327
 30
0.0
 11
114.4801869719116
 21
4.705078315512327
 31
0.0
  0
ARC
  5
6EA
330
1F
100
AcDbEntity
  8
0
100
AcDbCircle
 10
115.9876812579308
 20
4.789443456448243
 30
0.0
 40
1.068625118487514
100
AcDbArc
 50
331.3992813833181
 51
358.4920422457819
  0
LINE
  5
6EB
330
1F
100
AcDbEntity
  8
0
100
AcDbLine
 10
115.6502206941871
 20
3.298992633281631
 30
0.0
 11
116.3532635352524
 21
3.298992633281631
 31
0.0
  0
LINE
  5
6EC
330
1F
100
AcDbEntity
  8
0
100
AcDbLine
 10
120.7732889978464
 20
3.158384065089666
 30
0.0
 11
120.6599948610013
 21
3.552088056089377
 31
0.0
  0
LINE
  5
6ED
330
1F
100
AcDbEntity
  8
0
100
AcDbLine
 10
115.6502206941871
 20
3.298992633281631
 30
0.0
 11
115.6502206941871
 21
3.720818337961208
 31
0.0
  0
LINE
  5
6EE
330
1F
100
AcDbEntity
  8
0
100
AcDbLine
 10
115.6502206941871
 20
3.720818337961208
 30
0.0
 11
115.6502206941871
 21
3.298992633281631
 31
0.0
  0
LINE
  5
6EF
330
1F
100
AcDbEntity
  8
0
100
AcDbLine
 10
112.1879568990729
 20
4.705078315512327
 30
0.0
 11
112.1879568990729
 21
4.28325261083275
 31
0.0
  0
LINE
  5
6F0
330
1F
100
AcDbEntity
  8
0
100
AcDbLine
 10
120.5143309706357
 20
4.05827890170487
 30
0.0
 11
120.4495914638058
 21
4.28325261083275
 31
0.0
  0
LINE
  5
6F1
330
1F
100
AcDbEntity
  8
0
100
AcDbLine
 10
117.5801349785718
 20
3.903853795538925
 30
0.0
 11
117.5300496273297
 21
3.854815673221782
 31
0.0
  0
LINE
  5
6F2
330
1F
100
AcDbEntity
  8
0
100
AcDbLine
 10
116.9259095031405
 20
4.27788954550353
 30
0.0
 11
116.858249839431
 21
4.203159364717539
 31
0.0
  0
LINE
  5
6F3
330
1F
100
AcDbEntity
  8
0
100
AcDbLine
 10
113.214709857871
 20
4.705078315512327
 30
0.0
 11
113.214709857871
 21
4.845686883809793
 31
0.0
  0
LINE
  5
6F4
330
1F
100
AcDbEntity
  8
0
100
AcDbLine
 10
119.9858810158469
 20
3.158384065089666
 30
0.0
 11
120.7732889978464
 21
3.158384065089666
 31
0.0
  0
LINE
  5
6F5
330
1F
100
AcDbEntity
  8
0
100
AcDbLine
 10
114.9020126765893
 20
4.705078315512327
 30
0.0
 11
114.9020126765893
 21
4.28325261083275
 31
0.0
  0
LINE
  5
6F6
330
1F
100
AcDbEntity
  8
0
100
AcDbLine
 10
117.7376651918378
 20
11.44650747792595
 30
0.0
 11
117.7376651918378
 21
9.016791418968313
 31
0.0
  0
LINE
  5
6F7
330
1F
100
AcDbEntity
  8
0
100
AcDbLine
 10
117.7376651918378
 20
11.44650747792595
 30
0.0
 11
117.7376651918378
 21
9.016791418968313
 31
0.0
  0
LINE
  5
6F8
330
1F
100
AcDbEntity
  8
0
100
AcDbLine
 10
121.2087567139163
 20
11.0415548014321
 30
0.0
 11
121.2087567139163
 21
9.421744095462162
 31
0.0
  0
LINE
  5
6F9
330
1F
100
AcDbEntity
  8
0
100
AcDbLine
 10
101.5451824748228
 20
17.52571892524112
 30
0.0
 11
101.5451824748228
 21
11.72561548589194
 31
0.0
  0
LINE
  5
6FA
330
1F
100
AcDbEntity
  8
0
100
AcDbLine
 10
101.5451824748228
 20
11.72561548589194
 30
0.0
 11
101.5451824748228
 21
2.761819261441377
 31
0.0
  0
LINE
  5
6FB
330
1F
100
AcDbEntity
  8
0
100
AcDbLine
 10
119.5889460079446
 20
10.63660212494007
 30
0.0
 11
119.5889460079446
 21
9.826696771954193
 31
0.0
  0
LINE
  5
6FC
330
1F
100
AcDbEntity
  8
0
100
AcDbLine
 10
119.5889460079446
 20
9.826696771954193
 30
0.0
 11
121.2087567139163
 21
9.421744095462162
 31
0.0
  0
LINE
  5
6FD
330
1F
100
AcDbEntity
  8
0
100
AcDbLine
 10
121.2087567139163
 20
11.0415548014321
 30
0.0
 11
121.2087567139163
 21
9.421744095462162
 31
0.0
  0
LINE
  5
6FE
330
1F
100
AcDbEntity
  8
0
100
AcDbLine
 10
113.3553184260593
 20
3.720818337961208
 30
0.0
 11
112.5116670167002
 21
3.720818337961208
 31
0.0
  0
LINE
  5
6FF
330
1F
100
AcDbEntity
  8
0
100
AcDbLine
 10
119.9858810158469
 20
3.158384065089666
 30
0.0
 11
119.8703945118244
 21
3.552088056089377
 31
0.0
  0
LINE
  5
700
330
1F
100
AcDbEntity
  8
0
100
AcDbLine
 10
114.4801869719116
 20
4.28325261083275
 30
0.0
 11
114.9020126765893
 21
4.28325261083275
 31
0.0
  0
LINE
  5
701
330
1F
100
AcDbEntity
  8
0
100
AcDbLine
 10
113.6365355625524
 20
5.26751258848937
 30
0.0
 11
112.5116670167002
 21
5.26751258848937
 31
0.0
  0
LINE
  5
702
330
1F
100
AcDbEntity
  8
0
100
AcDbLine
 10
113.7771441307407
 20
4.705078315512327
 30
0.0
 11
113.214709857871
 21
4.705078315512327
 31
0.0
  0
LINE
  5
703
330
1F
100
AcDbEntity
  8
0
100
AcDbLine
 10
120.2627590016267
 20
4.932506738301999
 30
0.0
 11
120.4920718614624
 21
5.26751258848937
 31
0.0
  0
LINE
  5
704
330
1F
100
AcDbEntity
  8
0
100
AcDbLine
 10
121.3357232708252
 20
4.789443456448243
 30
0.0
 11
121.3357232708252
 21
4.28325261083275
 31
0.0
  0
LINE
  5
705
330
1F
100
AcDbEntity
  8
0
100
AcDbLine
 10
115.6502206941871
 20
4.761321742873878
 30
0.0
 11
117.0563063764196
 21
4.761321742873878
 31
0.0
  0
LINE
  5
706
330
1F
100
AcDbEntity
  8
0
100
AcDbLine
 10
118.8047690427441
 20
4.05827890170487
 30
0.0
 11
119.7219118637761
 21
4.05827890170487
 31
0.0
  0
LINE
  5
707
330
1F
100
AcDbEntity
  8
0
100
AcDbLine
 10
112.1879568990729
 20
4.28325261083275
 30
0.0
 11
112.4691740354568
 21
4.28325261083275
 31
0.0
  0
ARC
  5
708
330
1F
100
AcDbEntity
  8
0
100
AcDbCircle
 10
116.3532635352524
 20
4.845686883809793
 30
0.0
 40
1.546694250528484
100
AcDbArc
 50
270.0
 51
302.5449588540578
  0
LINE
  5
709
330
1F
100
AcDbEntity
  8
0
100
AcDbLine
 10
115.6502206941871
 20
4.523912461485924
 30
0.0
 11
115.6502206941871
 21
4.614495388500035
 31
0.0
  0
LINE
  5
70A
330
1F
100
AcDbEntity
  8
0
100
AcDbLine
 10
116.7750892399302
 20
4.614495388500035
 30
0.0
 11
116.6160088046484
 21
4.455414953110921
 31
0.0
  0
LINE
  5
70B
330
1F
100
AcDbEntity
  8
0
100
AcDbLine
 10
120.3039275734403
 20
4.789443456448243
 30
0.0
 11
121.3357232708252
 21
4.789443456448243
 31
0.0
  0
LINE
  5
70C
330
1F
100
AcDbEntity
  8
0
100
AcDbLine
 10
119.5074369276875
 20
4.789443456448243
 30
0.0
 11
119.3672033156175
 21
5.26751258848937
 31
0.0
  0
LINE
  5
70D
330
1F
100
AcDbEntity
  8
0
100
AcDbLine
 10
112.5116670167002
 20
5.26751258848937
 30
0.0
 11
112.5116670167002
 21
4.705078315512327
 31
0.0
  0
LINE
  5
70E
330
1F
100
AcDbEntity
  8
0
100
AcDbLine
 10
112.5116670167002
 20
4.28325261083275
 30
0.0
 11
112.5116670167002
 21
3.861426906151354
 31
0.0
  0
LINE
  5
70F
330
1F
100
AcDbEntity
  8
0
100
AcDbLine
 10
118.8047690427441
 20
4.28325261083275
 30
0.0
 11
119.6559195757357
 21
4.28325261083275
 31
0.0
  0
LINE
  5
710
330
1F
100
AcDbEntity
  8
0
100
AcDbLine
 10
102.24822531599
 20
10.23164944844804
 30
0.0
 11
107.8725680450219
 21
10.23164944844804
 31
0.0
  0
LINE
  5
711
330
1F
100
AcDbEntity
  8
0
100
AcDbLine
 10
101.5451824748228
 20
11.72561548589194
 30
0.0
 11
142.3216672605916
 21
11.72561548589194
 31
0.0
  0
LINE
  5
712
330
1F
100
AcDbEntity
  8
0
100
AcDbLine
 10
101.5451824748228
 20
8.737683411004145
 30
0.0
 11
142.3216672605916
 21
8.737683411004145
 31
0.0
  0
LINE
  5
713
330
1F
100
AcDbEntity
  8
0
100
AcDbLine
 10
112.5116670167002
 20
3.298992633281631
 30
0.0
 11
113.6365355625524
 21
3.298992633281631
 31
0.0
  0
LINE
  5
714
330
1F
100
AcDbEntity
  8
0
100
AcDbLine
 10
117.8999577857824
 20
4.845686883809793
 30
0.0
 11
118.1811749222682
 21
5.26751258848937
 31
0.0
  0
LINE
  5
715
330
1F
100
AcDbEntity
  8
0
100
AcDbLine
 10
119.3672033156175
 20
5.26751258848937
 30
0.0
 11
120.4920718614624
 21
5.26751258848937
 31
0.0
  0
LINE
  5
716
330
1F
100
AcDbEntity
  8
0
100
AcDbLine
 10
115.6502206941871
 20
3.720818337961208
 30
0.0
 11
115.9876812579308
 21
3.720818337961208
 31
0.0
  0
LINE
  5
717
330
1F
100
AcDbEntity
  8
0
100
AcDbLine
 10
114.4801869719116
 20
4.142644042640785
 30
0.0
 11
114.4801869719116
 21
4.28325261083275
 31
0.0
  0
LINE
  5
718
330
1F
100
AcDbEntity
  8
0
100
AcDbLine
 10
115.6502206941871
 20
4.614495388500035
 30
0.0
 11
116.7750892399302
 21
4.614495388500035
 31
0.0
  0
ARC
  5
719
330
1F
100
AcDbEntity
  8
0
100
AcDbCircle
 10
113.3553184260593
 20
4.142644042640785
 30
0.0
 40
0.42182570468
100
AcDbArc
 50
270.0
 51
0.0
  0
LINE
  5
71A
330
1F
100
AcDbEntity
  8
0
100
AcDbLine
 10
112.5116670167002
 20
3.720818337961208
 30
0.0
 11
112.5116670167002
 21
3.298992633281631
 31
0.0
  0
LINE
  5
71B
330
1F
100
AcDbEntity
  8
0
100
AcDbLine
 10
112.0908250918213
 20
8.737683411004145
 30
0.0
 11
112.0908250918213
 21
5.749751336221851
 31
0.0
  0
LINE
  5
71C
330
1F
100
AcDbEntity
  8
0
100
AcDbLine
 10
108.5756108861927
 20
11.72561548589194
 30
0.0
 11
108.5756108861927
 21
17.52571892524112
 31
0.0
  0
LINE
  5
71D
330
1F
100
AcDbEntity
  8
0
100
AcDbLine
 10
108.5756108861927
 20
11.72561548589194
 30
0.0
 11
108.5756108861927
 21
8.737683411004145
 31
0.0
  0
CIRCLE
  5
71E
330
1F
100
AcDbEntity
  8
0
100
AcDbCircle
 10
117.7376651918378
 20
10.23164944844804
 30
0.0
 40
0.4049526764928001
  0
LINE
  5
71F
330
1F
100
AcDbEntity
  8
0
100
AcDbLine
 10
119.5889460079446
 20
10.63660212494007
 30
0.0
 11
121.2087567139163
 21
11.0415548014321
 31
0.0
  0
LINE
  5
720
330
1F
100
AcDbEntity
  8
0
100
AcDbLine
 10
119.5889460079446
 20
9.826696771954193
 30
0.0
 11
121.2087567139163
 21
9.421744095462162
 31
0.0
  0
CIRCLE
  5
721
330
1F
100
AcDbEntity
  8
0
100
AcDbCircle
 10
117.7376651918378
 20
10.23164944844804
 30
0.0
 40
0.4049526764928001
  0
CIRCLE
  5
722
330
1F
100
AcDbEntity
  8
0
100
AcDbCircle
 10
117.7376651918378
 20
10.23164944844804
 30
0.0
 40
0.8099053529856
  0
LINE
  5
723
330
1F
100
AcDbEntity
  8
0
100
AcDbLine
 10
119.5889460079446
 20
10.63660212494007
 30
0.0
 11
119.5889460079446
 21
9.826696771954193
 31
0.0
  0
LINE
  5
724
330
1F
100
AcDbEntity
  8
0
100
AcDbLine
 10
118.8047690427441
 20
4.789443456448243
 30
0.0
 11
118.8047690427441
 21
4.28325261083275
 31
0.0
  0
LINE
  5
725
330
1F
100
AcDbEntity
  8
0
100
AcDbLine
 10
120.6599948610013
 20
3.552088056089377
 30
0.0
 11
121.3357232708252
 21
3.552088056089377
 31
0.0
  0
LINE
  5
726
330
1F
100
AcDbEntity
  8
0
100
AcDbLine
 10
113.214709857871
 20
3.861426906151354
 30
0.0
 11
113.214709857871
 21
4.28325261083275
 31
0.0
  0
LINE
  5
727
330
1F
100
AcDbEntity
  8
0
100
AcDbLine
 10
118.8047690427441
 20
4.05827890170487
 30
0.0
 11
118.8047690427441
 21
3.552088056089377
 31
0.0
  0
LINE
  5
728
330
1F
100
AcDbEntity
  8
0
100
AcDbLine
 10
119.5889460079446
 20
10.63660212494007
 30
0.0
 11
121.2087567139163
 21
11.0415548014321
 31
0.0
  0
CIRCLE
  5
729
330
1F
100
AcDbEntity
  8
0
100
AcDbCircle
 10
117.7376651918378
 20
10.23164944844804
 30
0.0
 40
0.8099053529856
  0
LINE
  5
72A
330
1F
100
AcDbEntity
  8
0
100
AcDbLine
 10
122.6364677088234
 20
11.72561548589194
 30
0.0
 11
122.6364677088234
 21
2.761819261441377
 31
0.0
  0
LINE
  5
72B
330
1F
100
AcDbEntity
  8
0
100
AcDbLine
 10
115.6502206941871
 20
5.26751258848937
 30
0.0
 11
115.6502206941871
 21
4.761321742873878
 31
0.0
  0
LINE
  5
72C
330
1F
100
AcDbEntity
  8
0
100
AcDbLine
 10
116.5228071623599
 20
10.23164944844804
 30
0.0
 11
121.7196998440189
 21
10.23164944844804
 31
0.0
  0
CIRCLE
  5
72D
330
1F
100
AcDbEntity
  8
0
100
AcDbCircle
 10
117.7376651918378
 20
10.23164944844804
 30
0.0
 40
0.4049526764928001
  0
CIRCLE
  5
72E
330
1F
100
AcDbEntity
  8
0
100
AcDbCircle
 10
117.7376651918378
 20
10.23164944844804
 30
0.0
 40
0.8099053529856
  0
LINE
  5
72F
330
1F
100
AcDbEntity
  8
0
100
AcDbLine
 10
119.5889460079446
 20
9.826696771954193
 30
0.0
 11
121.2087567139163
 21
9.421744095462162
 31
0.0
  0
LINE
  5
730
330
1F
100
AcDbEntity
  8
0
100
AcDbLine
 10
119.5889460079446
 20
10.63660212494007
 30
0.0
 11
121.2087567139163
 21
11.0415548014321
 31
0.0
  0
CIRCLE
  5
731
330
1F
100
AcDbEntity
  8
0
100
AcDbCircle
 10
117.7376651918378
 20
10.23164944844804
 30
0.0
 40
0.8099053529856
  0
LINE
  5
732
330
1F
100
AcDbEntity
  8
0
100
AcDbLine
 10
101.5451824748228
 20
17.52571892524112
 30
0.0
 11
101.5451824748228
 21
11.72561548589194
 31
0.0
  0
CIRCLE
  5
733
330
1F
100
AcDbEntity
  8
0
100
AcDbCircle
 10
117.7376651918378
 20
10.23164944844804
 30
0.0
 40
0.4049526764928001
  0
LINE
  5
734
330
1F
100
AcDbEntity
  8
0
100
AcDbLine
 10
101.5451824748228
 20
5.749751336221851
 30
0.0
 11
142.3216672605916
 21
5.749751336221851
 31
0.0
  0
TEXT
  5
735
330
1F
100
AcDbEntity
  8
0
100
AcDbText
 10
117.7436731745832
 20
7.626282273131909
 30
0.0
 40
0.8216813206097356
  1
柳原
  7
ゴシック
100
AcDbText
  0
TEXT
  5
736
330
1F
100
AcDbEntity
  8
0
100
AcDbText
 10
114.6224664597351
 20
12.23123534720664
 30
0.0
 40
0.9860175704528824
  1
指定無き公差はJIS 0408-Bによること
  7
ゴシック
100
AcDbText
  0
TEXT
  5
737
330
1F
100
AcDbEntity
  8
0
100
AcDbText
 10
111.1043904099709
 20
9.161958022176367
 30
0.0
 40
0.8216813206097356
  1
2:1
  7
ゴシック
100
AcDbText
  0
TEXT
  5
738
330
1F
100
AcDbEntity
  8
0
100
AcDbText
 10
103.7194294491013
 20
9.161958022176367
 30
0.0
 40
0.8216813206097356
  1
H21.9
  7
ゴシック
100
AcDbText
  0
TEXT
  5
739
330
1F
100
AcDbEntity
  8
0
100
AcDbText
 10
107.2188854134359
 20
6.123974293347163
 30
0.0
 40
0.8216813206097356
  1
湊
  7
ゴシック
100
AcDbText
  0
TEXT
  5
73A
330
1F
100
AcDbEntity
  8
0
100
AcDbText
 10
113.7919283371514
 20
16.10329139675425
 30
0.0
 40
1.054076005828782
  1
真鍮
  7
ゴシック
100
AcDbText
  0
TEXT
  5
73B
330
1F
100
AcDbEntity
  8
0
100
AcDbText
 10
130.2101995264705
 20
3.822144600321298
 30
0.0
 40
1.054076005828782
  1
SLY00003
  7
ゴシック
100
AcDbText
  0
TEXT
  5
73C
330
1F
100
AcDbEntity
  8
0
100
AcDbText
 10
120.1075681903924
 20
14.06064067007402
 30
0.0
 40
1.054076005828782
  1
ニッケルメッキ仕上げ
  7
ゴシック
100
AcDbText
  0
TEXT
  5
73D
330
1F
100
AcDbEntity
  8
0
100
AcDbText
 10
130.4941939130834
 20
6.810076675101772
 30
0.0
 40
1.054076005828782
  1
ＬＹ-８２５
  7
ゴシック
100
AcDbText
  0
TEXT
  5
73E
330
1F
100
AcDbEntity
  8
0
100
AcDbText
 10
122.7340394380838
 20
4.727283478271164
 30
0.0
 40
0.8216813206097356
  1
図　番
  7
ゴシック
100
AcDbText
  0
TEXT
  5
73F
330
1F
100
AcDbEntity
  8
0
100
AcDbText
 10
112.0908250918176
 20
6.128145264516678
 30
0.0
 40
0.8216813206097356
  1
 検図
  7
ゴシック
100
AcDbText
  0
TEXT
  5
740
330
1F
100
AcDbEntity
  8
0
100
AcDbText
 10
112.0908250918176
 20
7.630453244301424
 30
0.0
 40
0.8216813206097356
  1
 照査
  7
ゴシック
100
AcDbText
  0
TEXT
  5
741
330
1F
100
AcDbEntity
  8
0
100
AcDbText
 10
102.0378254706878
 20
6.132316235688012
 30
0.0
 40
0.8216813206097356
  1
製図
  7
ゴシック
100
AcDbText
  0
TEXT
  5
742
330
1F
100
AcDbEntity
  8
0
100
AcDbText
 10
101.5451824748191
 20
7.634624215472758
 30
0.0
 40
0.8216813206097356
  1
 設計
  7
ゴシック
100
AcDbText
  0
TEXT
  5
743
330
1F
100
AcDbEntity
  8
0
100
AcDbText
 10
103.3273581590614
 20
10.63924017493675
 30
0.0
 40
0.8216813206097356
  1
日 　付
  7
ゴシック
100
AcDbText
  0
TEXT
  5
744
330
1F
100
AcDbEntity
  8
0
100
AcDbText
 10
103.0287975157401
 20
3.540167323239547
 30
0.0
 40
1.517869471193125
  1
株式会社
  7
ゴシック
100
AcDbText
  0
TEXT
  5
745
330
1F
100
AcDbEntity
  8
0
100
AcDbText
 10
102.5453011009989
 20
16.11799163480147
 30
0.0
 40
0.9860175704528824
  1
材　　質
  7
ゴシック
100
AcDbText
  0
TEXT
  5
746
330
1F
100
AcDbEntity
  8
0
100
AcDbText
 10
102.5352907703303
 20
14.1746134910559
 30
0.0
 40
0.9860175704528824
  1
表面処理
  7
ゴシック
100
AcDbText
  0
TEXT
  5
747
330
1F
100
AcDbEntity
  8
0
100
AcDbText
 10
102.5603165969945
 20
12.22122501654168
 30
0.0
 40
0.9860175704528824
  1
一般公差
  7
ゴシック
100
AcDbText
  0
LINE
  5
748
330
1F
100
AcDbEntity
  8
0
100
AcDbLine
 10
115.6501942936987
 20
4.523515019944643
 30
0.0
 11
115.6554671150073
 21
4.519296762895937
 31
0.0
  0
LINE
  5
749
330
1F
100
AcDbEntity
  8
0
100
AcDbLine
 10
115.6554671150073
 20
4.519296762895937
 30
0.0
 11
115.6607399363196
 21
4.51507850584905
 31
0.0
  0
LINE
  5
74A
330
1F
100
AcDbEntity
  8
0
100
AcDbLine
 10
115.6607399363196
 20
4.51507850584905
 30
0.0
 11
115.6649581933664
 21
4.509805684540442
 31
0.0
  0
LINE
  5
74B
330
1F
100
AcDbEntity
  8
0
100
AcDbLine
 10
115.6649581933664
 20
4.509805684540442
 30
0.0
 11
115.6702310146714
 21
4.505587427493555
 31
0.0
  0
LINE
  5
74C
330
1F
100
AcDbEntity
  8
0
100
AcDbLine
 10
115.6702310146714
 20
4.505587427493555
 30
0.0
 11
115.67550383598
 21
4.500314606186766
 31
0.0
  0
LINE
  5
74D
330
1F
100
AcDbEntity
  8
0
100
AcDbLine
 10
115.67550383598
 20
4.500314606186766
 30
0.0
 11
115.6807766572923
 21
4.49609634913806
 31
0.0
  0
LINE
  5
74E
330
1F
100
AcDbEntity
  8
0
100
AcDbLine
 10
115.6807766572923
 20
4.49609634913806
 30
0.0
 11
115.6860494785972
 21
4.49082352783127
 31
0.0
  0
LINE
  5
74F
330
1F
100
AcDbEntity
  8
0
100
AcDbLine
 10
115.6860494785972
 20
4.49082352783127
 30
0.0
 11
115.6902677356441
 21
4.486605270782565
 31
0.0
  0
LINE
  5
750
330
1F
100
AcDbEntity
  8
0
100
AcDbLine
 10
115.6902677356441
 20
4.486605270782565
 30
0.0
 11
115.6955405569527
 21
4.482387013737497
 31
0.0
  0
LINE
  5
751
330
1F
100
AcDbEntity
  8
0
100
AcDbLine
 10
115.6955405569527
 20
4.482387013737497
 30
0.0
 11
115.700813378265
 21
4.47711419242707
 31
0.0
  0
LINE
  5
752
330
1F
100
AcDbEntity
  8
0
100
AcDbLine
 10
115.700813378265
 20
4.47711419242707
 30
0.0
 11
115.7060861995699
 21
4.472895935382002
 31
0.0
  0
LINE
  5
753
330
1F
100
AcDbEntity
  8
0
100
AcDbLine
 10
115.7060861995699
 20
4.472895935382002
 30
0.0
 11
115.7113590208785
 21
4.467623114071574
 31
0.0
  0
LINE
  5
754
330
1F
100
AcDbEntity
  8
0
100
AcDbLine
 10
115.7113590208785
 20
4.467623114071574
 30
0.0
 11
115.7155772779254
 21
4.463404857026507
 31
0.0
  0
LINE
  5
755
330
1F
100
AcDbEntity
  8
0
100
AcDbLine
 10
115.7155772779254
 20
4.463404857026507
 30
0.0
 11
115.7208500992377
 21
4.458132035717898
 31
0.0
  0
LINE
  5
756
330
1F
100
AcDbEntity
  8
0
100
AcDbLine
 10
115.7208500992377
 20
4.458132035717898
 30
0.0
 11
115.7261229205426
 21
4.453913778671012
 31
0.0
  0
LINE
  5
757
330
1F
100
AcDbEntity
  8
0
100
AcDbLine
 10
115.7261229205426
 20
4.453913778671012
 30
0.0
 11
115.7313957418513
 21
4.449695521624125
 31
0.0
  0
LINE
  5
758
330
1F
100
AcDbEntity
  8
0
100
AcDbLine
 10
115.7313957418513
 20
4.449695521624125
 30
0.0
 11
115.7366685631599
 21
4.444422700315517
 31
0.0
  0
LINE
  5
759
330
1F
100
AcDbEntity
  8
0
100
AcDbLine
 10
115.7366685631599
 20
4.444422700315517
 30
0.0
 11
115.7419413844648
 21
4.44020444326863
 31
0.0
  0
LINE
  5
75A
330
1F
100
AcDbEntity
  8
0
100
AcDbLine
 10
115.7419413844648
 20
4.44020444326863
 30
0.0
 11
115.7461596415154
 21
4.434931621960021
 31
0.0
  0
LINE
  5
75B
330
1F
100
AcDbEntity
  8
0
100
AcDbLine
 10
115.7461596415154
 20
4.434931621960021
 30
0.0
 11
115.751432462824
 21
4.430713364913135
 31
0.0
  0
LINE
  5
75C
330
1F
100
AcDbEntity
  8
0
100
AcDbLine
 10
115.751432462824
 20
4.430713364913135
 30
0.0
 11
115.7567052841326
 21
4.426495107868067
 31
0.0
  0
LINE
  5
75D
330
1F
100
AcDbEntity
  8
0
100
AcDbLine
 10
115.7567052841326
 20
4.426495107868067
 30
0.0
 11
115.7619781054376
 21
4.42122228655764
 31
0.0
  0
LINE
  5
75E
330
1F
100
AcDbEntity
  8
0
100
AcDbLine
 10
115.7619781054376
 20
4.42122228655764
 30
0.0
 11
115.7672509267498
 21
4.417004029512572
 31
0.0
  0
LINE
  5
75F
330
1F
100
AcDbEntity
  8
0
100
AcDbLine
 10
115.7672509267498
 20
4.417004029512572
 30
0.0
 11
115.7714691837967
 21
4.411731208202144
 31
0.0
  0
LINE
  5
760
330
1F
100
AcDbEntity
  8
0
100
AcDbLine
 10
115.7714691837967
 20
4.411731208202144
 30
0.0
 11
115.7767420051053
 21
4.407512951157077
 31
0.0
  0
LINE
  5
761
330
1F
100
AcDbEntity
  8
0
100
AcDbLine
 10
115.7767420051053
 20
4.407512951157077
 30
0.0
 11
115.7820148264103
 21
4.403294694108371
 31
0.0
  0
LINE
  5
762
330
1F
100
AcDbEntity
  8
0
100
AcDbLine
 10
115.7820148264103
 20
4.403294694108371
 30
0.0
 11
115.7872876477225
 21
4.398021872801582
 31
0.0
  0
LINE
  5
763
330
1F
100
AcDbEntity
  8
0
100
AcDbLine
 10
115.7872876477225
 20
4.398021872801582
 30
0.0
 11
115.7925604690311
 21
4.393803615752876
 31
0.0
  0
LINE
  5
764
330
1F
100
AcDbEntity
  8
0
100
AcDbLine
 10
115.7925604690311
 20
4.393803615752876
 30
0.0
 11
115.7978332903397
 21
4.388530794446086
 31
0.0
  0
LINE
  5
765
330
1F
100
AcDbEntity
  8
0
100
AcDbLine
 10
115.7978332903397
 20
4.388530794446086
 30
0.0
 11
115.802051547383
 21
4.3843125373992
 31
0.0
  0
LINE
  5
766
330
1F
100
AcDbEntity
  8
0
100
AcDbLine
 10
115.802051547383
 20
4.3843125373992
 30
0.0
 11
115.8073243686952
 21
4.380094280352313
 31
0.0
  0
LINE
  5
767
330
1F
100
AcDbEntity
  8
0
100
AcDbLine
 10
115.8073243686952
 20
4.380094280352313
 30
0.0
 11
115.8125971900038
 21
4.374821459043705
 31
0.0
  0
LINE
  5
768
330
1F
100
AcDbEntity
  8
0
100
AcDbLine
 10
115.8125971900038
 20
4.374821459043705
 30
0.0
 11
115.8178700113088
 21
4.370603201996818
 31
0.0
  0
LINE
  5
769
330
1F
100
AcDbEntity
  8
0
100
AcDbLine
 10
115.8178700113088
 20
4.370603201996818
 30
0.0
 11
115.8231428326174
 21
4.365330380688209
 31
0.0
  0
LINE
  5
76A
330
1F
100
AcDbEntity
  8
0
100
AcDbLine
 10
115.8231428326174
 20
4.365330380688209
 30
0.0
 11
115.8273610896679
 21
4.361112123641323
 31
0.0
  0
LINE
  5
76B
330
1F
100
AcDbEntity
  8
0
100
AcDbLine
 10
115.8273610896679
 20
4.361112123641323
 30
0.0
 11
115.8326339109766
 21
4.356893866594436
 31
0.0
  0
LINE
  5
76C
330
1F
100
AcDbEntity
  8
0
100
AcDbLine
 10
115.8326339109766
 20
4.356893866594436
 30
0.0
 11
115.8379067322815
 21
4.351621045285828
 31
0.0
  0
LINE
  5
76D
330
1F
100
AcDbEntity
  8
0
100
AcDbLine
 10
115.8379067322815
 20
4.351621045285828
 30
0.0
 11
115.8431795535901
 21
4.347402788238941
 31
0.0
  0
LINE
  5
76E
330
1F
100
AcDbEntity
  8
0
100
AcDbLine
 10
115.8431795535901
 20
4.347402788238941
 30
0.0
 11
115.8484523749024
 21
4.343184531193873
 31
0.0
  0
LINE
  5
76F
330
1F
100
AcDbEntity
  8
0
100
AcDbLine
 10
115.8484523749024
 20
4.343184531193873
 30
0.0
 11
115.853725196211
 21
4.337911709883446
 31
0.0
  0
LINE
  5
770
330
1F
100
AcDbEntity
  8
0
100
AcDbLine
 10
115.853725196211
 20
4.337911709883446
 30
0.0
 11
115.858998017516
 21
4.333693452838378
 31
0.0
  0
LINE
  5
771
330
1F
100
AcDbEntity
  8
0
100
AcDbLine
 10
115.858998017516
 20
4.333693452838378
 30
0.0
 11
115.8632162745628
 21
4.329475195789672
 31
0.0
  0
LINE
  5
772
330
1F
100
AcDbEntity
  8
0
100
AcDbLine
 10
115.8632162745628
 20
4.329475195789672
 30
0.0
 11
115.8684890958751
 21
4.324202374482883
 31
0.0
  0
LINE
  5
773
330
1F
100
AcDbEntity
  8
0
100
AcDbLine
 10
115.8684890958751
 20
4.324202374482883
 30
0.0
 11
115.8737619171801
 21
4.319984117434177
 31
0.0
  0
LINE
  5
774
330
1F
100
AcDbEntity
  8
0
100
AcDbLine
 10
115.8737619171801
 20
4.319984117434177
 30
0.0
 11
115.8790347384887
 21
4.31576586038911
 31
0.0
  0
LINE
  5
775
330
1F
100
AcDbEntity
  8
0
100
AcDbLine
 10
115.8790347384887
 20
4.31576586038911
 30
0.0
 11
115.8843075597973
 21
4.310493039080501
 31
0.0
  0
LINE
  5
776
330
1F
100
AcDbEntity
  8
0
100
AcDbLine
 10
115.8843075597973
 20
4.310493039080501
 30
0.0
 11
115.8895803811095
 21
4.306274782033614
 31
0.0
  0
LINE
  5
777
330
1F
100
AcDbEntity
  8
0
100
AcDbLine
 10
115.8895803811095
 20
4.306274782033614
 30
0.0
 11
115.8937986381528
 21
4.302056524986728
 31
0.0
  0
LINE
  5
778
330
1F
100
AcDbEntity
  8
0
100
AcDbLine
 10
115.8937986381528
 20
4.302056524986728
 30
0.0
 11
115.8990714594614
 21
4.296783703678119
 31
0.0
  0
LINE
  5
779
330
1F
100
AcDbEntity
  8
0
100
AcDbLine
 10
115.8990714594614
 20
4.296783703678119
 30
0.0
 11
115.90434428077
 21
4.292565446631233
 31
0.0
  0
LINE
  5
77A
330
1F
100
AcDbEntity
  8
0
100
AcDbLine
 10
115.90434428077
 20
4.292565446631233
 30
0.0
 11
115.9096171020786
 21
4.288347189582527
 31
0.0
  0
LINE
  5
77B
330
1F
100
AcDbEntity
  8
0
100
AcDbLine
 10
115.9096171020786
 20
4.288347189582527
 30
0.0
 11
115.9148899233872
 21
4.283074368275737
 31
0.0
  0
LINE
  5
77C
330
1F
100
AcDbEntity
  8
0
100
AcDbLine
 10
115.9148899233872
 20
4.283074368275737
 30
0.0
 11
115.9201627446958
 21
4.278856111227032
 31
0.0
  0
LINE
  5
77D
330
1F
100
AcDbEntity
  8
0
100
AcDbLine
 10
115.9201627446958
 20
4.278856111227032
 30
0.0
 11
115.9254355660044
 21
4.274637854181964
 31
0.0
  0
LINE
  5
77E
330
1F
100
AcDbEntity
  8
0
100
AcDbLine
 10
115.9254355660044
 20
4.274637854181964
 30
0.0
 11
115.9307083873094
 21
4.269365032873356
 31
0.0
  0
LINE
  5
77F
330
1F
100
AcDbEntity
  8
0
100
AcDbLine
 10
115.9307083873094
 20
4.269365032873356
 30
0.0
 11
115.9349266443599
 21
4.265146775826469
 31
0.0
  0
LINE
  5
780
330
1F
100
AcDbEntity
  8
0
100
AcDbLine
 10
115.9349266443599
 20
4.265146775826469
 30
0.0
 11
115.9401994656685
 21
4.260928518779582
 31
0.0
  0
LINE
  5
781
330
1F
100
AcDbEntity
  8
0
100
AcDbLine
 10
115.9401994656685
 20
4.260928518779582
 30
0.0
 11
115.9454722869771
 21
4.256710261732695
 31
0.0
  0
LINE
  5
782
330
1F
100
AcDbEntity
  8
0
100
AcDbLine
 10
115.9454722869771
 20
4.256710261732695
 30
0.0
 11
115.9507451082821
 21
4.251437440424087
 31
0.0
  0
LINE
  5
783
330
1F
100
AcDbEntity
  8
0
100
AcDbLine
 10
115.9507451082821
 20
4.251437440424087
 30
0.0
 11
115.9560179295944
 21
4.247219183379019
 31
0.0
  0
LINE
  5
784
330
1F
100
AcDbEntity
  8
0
100
AcDbLine
 10
115.9560179295944
 20
4.247219183379019
 30
0.0
 11
115.961290750903
 21
4.243000926330314
 31
0.0
  0
LINE
  5
785
330
1F
100
AcDbEntity
  8
0
100
AcDbLine
 10
115.961290750903
 20
4.243000926330314
 30
0.0
 11
115.9665635722116
 21
4.238782669285246
 31
0.0
  0
LINE
  5
786
330
1F
100
AcDbEntity
  8
0
100
AcDbLine
 10
115.9665635722116
 20
4.238782669285246
 30
0.0
 11
115.9718363935165
 21
4.233509847974818
 31
0.0
  0
LINE
  5
787
330
1F
100
AcDbEntity
  8
0
100
AcDbLine
 10
115.9718363935165
 20
4.233509847974818
 30
0.0
 11
115.9771092148288
 21
4.229291590929751
 31
0.0
  0
LINE
  5
788
330
1F
100
AcDbEntity
  8
0
100
AcDbLine
 10
115.9771092148288
 20
4.229291590929751
 30
0.0
 11
115.9823820361374
 21
4.225073333881045
 31
0.0
  0
LINE
  5
789
330
1F
100
AcDbEntity
  8
0
100
AcDbLine
 10
115.9823820361374
 20
4.225073333881045
 30
0.0
 11
115.9866002931843
 21
4.220855076835977
 31
0.0
  0
LINE
  5
78A
330
1F
100
AcDbEntity
  8
0
100
AcDbLine
 10
115.9866002931843
 20
4.220855076835977
 30
0.0
 11
115.9918731144892
 21
4.215582255527369
 31
0.0
  0
LINE
  5
78B
330
1F
100
AcDbEntity
  8
0
100
AcDbLine
 10
115.9918731144892
 20
4.215582255527369
 30
0.0
 11
115.9971459358015
 21
4.211363998480482
 31
0.0
  0
LINE
  5
78C
330
1F
100
AcDbEntity
  8
0
100
AcDbLine
 10
115.9971459358015
 20
4.211363998480482
 30
0.0
 11
116.0024187571101
 21
4.207145741433595
 31
0.0
  0
LINE
  5
78D
330
1F
100
AcDbEntity
  8
0
100
AcDbLine
 10
116.0024187571101
 20
4.207145741433595
 30
0.0
 11
116.0076915784151
 21
4.202927484386709
 31
0.0
  0
LINE
  5
78E
330
1F
100
AcDbEntity
  8
0
100
AcDbLine
 10
116.0076915784151
 20
4.202927484386709
 30
0.0
 11
116.0129643997237
 21
4.198709227339822
 31
0.0
  0
LINE
  5
78F
330
1F
100
AcDbEntity
  8
0
100
AcDbLine
 10
116.0129643997237
 20
4.198709227339822
 30
0.0
 11
116.0182372210359
 21
4.193436406031214
 31
0.0
  0
LINE
  5
790
330
1F
100
AcDbEntity
  8
0
100
AcDbLine
 10
116.0182372210359
 20
4.193436406031214
 30
0.0
 11
116.0235100423445
 21
4.189218148984327
 31
0.0
  0
LINE
  5
791
330
1F
100
AcDbEntity
  8
0
100
AcDbLine
 10
116.0235100423445
 20
4.189218148984327
 30
0.0
 11
116.0287828636495
 21
4.18499989193744
 31
0.0
  0
LINE
  5
792
330
1F
100
AcDbEntity
  8
0
100
AcDbLine
 10
116.0287828636495
 20
4.18499989193744
 30
0.0
 11
116.0340556849581
 21
4.180781634890553
 31
0.0
  0
LINE
  5
793
330
1F
100
AcDbEntity
  8
0
100
AcDbLine
 10
116.0340556849581
 20
4.180781634890553
 30
0.0
 11
116.0393285062704
 21
4.176563377843667
 31
0.0
  0
LINE
  5
794
330
1F
100
AcDbEntity
  8
0
100
AcDbLine
 10
116.0393285062704
 20
4.176563377843667
 30
0.0
 11
116.0446013275753
 21
4.171290556535058
 31
0.0
  0
LINE
  5
795
330
1F
100
AcDbEntity
  8
0
100
AcDbLine
 10
116.0446013275753
 20
4.171290556535058
 30
0.0
 11
116.0498741488839
 21
4.167072299488172
 31
0.0
  0
LINE
  5
796
330
1F
100
AcDbEntity
  8
0
100
AcDbLine
 10
116.0498741488839
 20
4.167072299488172
 30
0.0
 11
116.0551469701925
 21
4.162854042443104
 31
0.0
  0
LINE
  5
797
330
1F
100
AcDbEntity
  8
0
100
AcDbLine
 10
116.0551469701925
 20
4.162854042443104
 30
0.0
 11
116.0604197915048
 21
4.158635785394398
 31
0.0
  0
LINE
  5
798
330
1F
100
AcDbEntity
  8
0
100
AcDbLine
 10
116.0604197915048
 20
4.158635785394398
 30
0.0
 11
116.064638048548
 21
4.15441752834933
 31
0.0
  0
LINE
  5
799
330
1F
100
AcDbEntity
  8
0
100
AcDbLine
 10
116.064638048548
 20
4.15441752834933
 30
0.0
 11
116.0699108698566
 21
4.150199271300625
 31
0.0
  0
LINE
  5
79A
330
1F
100
AcDbEntity
  8
0
100
AcDbLine
 10
116.0699108698566
 20
4.150199271300625
 30
0.0
 11
116.0751836911652
 21
4.145981014255557
 31
0.0
  0
LINE
  5
79B
330
1F
100
AcDbEntity
  8
0
100
AcDbLine
 10
116.0751836911652
 20
4.145981014255557
 30
0.0
 11
116.0804565124775
 21
4.14176275720867
 31
0.0
  0
LINE
  5
79C
330
1F
100
AcDbEntity
  8
0
100
AcDbLine
 10
116.0804565124775
 20
4.14176275720867
 30
0.0
 11
116.0857293337825
 21
4.136489935900062
 31
0.0
  0
LINE
  5
79D
330
1F
100
AcDbEntity
  8
0
100
AcDbLine
 10
116.0857293337825
 20
4.136489935900062
 30
0.0
 11
116.0910021550911
 21
4.132271678853175
 31
0.0
  0
LINE
  5
79E
330
1F
100
AcDbEntity
  8
0
100
AcDbLine
 10
116.0910021550911
 20
4.132271678853175
 30
0.0
 11
116.0962749763997
 21
4.128053421806288
 31
0.0
  0
LINE
  5
79F
330
1F
100
AcDbEntity
  8
0
100
AcDbLine
 10
116.0962749763997
 20
4.128053421806288
 30
0.0
 11
116.1015477977083
 21
4.123835164759402
 31
0.0
  0
LINE
  5
7A0
330
1F
100
AcDbEntity
  8
0
100
AcDbLine
 10
116.1015477977083
 20
4.123835164759402
 30
0.0
 11
116.1068206190169
 21
4.119616907710696
 31
0.0
  0
LINE
  5
7A1
330
1F
100
AcDbEntity
  8
0
100
AcDbLine
 10
116.1068206190169
 20
4.119616907710696
 30
0.0
 11
116.1120934403255
 21
4.115398650665628
 31
0.0
  0
LINE
  5
7A2
330
1F
100
AcDbEntity
  8
0
100
AcDbLine
 10
116.1120934403255
 20
4.115398650665628
 30
0.0
 11
116.1173662616341
 21
4.111180393618742
 31
0.0
  0
LINE
  5
7A3
330
1F
100
AcDbEntity
  8
0
100
AcDbLine
 10
116.1173662616341
 20
4.111180393618742
 30
0.0
 11
116.1226390829427
 21
4.106962136571855
 31
0.0
  0
LINE
  5
7A4
330
1F
100
AcDbEntity
  8
0
100
AcDbLine
 10
116.1226390829427
 20
4.106962136571855
 30
0.0
 11
116.1279119042513
 21
4.102743879524968
 31
0.0
  0
LINE
  5
7A5
330
1F
100
AcDbEntity
  8
0
100
AcDbLine
 10
116.1279119042513
 20
4.102743879524968
 30
0.0
 11
116.13318472556
 21
4.098525622478081
 31
0.0
  0
LINE
  5
7A6
330
1F
100
AcDbEntity
  8
0
100
AcDbLine
 10
116.13318472556
 20
4.098525622478081
 30
0.0
 11
116.1384575468649
 21
4.094307365431195
 31
0.0
  0
LINE
  5
7A7
330
1F
100
AcDbEntity
  8
0
100
AcDbLine
 10
116.1384575468649
 20
4.094307365431195
 30
0.0
 11
116.1437303681772
 21
4.090089108386127
 31
0.0
  0
LINE
  5
7A8
330
1F
100
AcDbEntity
  8
0
100
AcDbLine
 10
116.1437303681772
 20
4.090089108386127
 30
0.0
 11
116.1500577537475
 21
4.085870851337421
 31
0.0
  0
LINE
  5
7A9
330
1F
100
AcDbEntity
  8
0
100
AcDbLine
 10
116.1500577537475
 20
4.085870851337421
 30
0.0
 11
116.1553305750561
 21
4.081652594290535
 31
0.0
  0
LINE
  5
7AA
330
1F
100
AcDbEntity
  8
0
100
AcDbLine
 10
116.1553305750561
 20
4.081652594290535
 30
0.0
 11
116.1606033963611
 21
4.077434337243648
 31
0.0
  0
LINE
  5
7AB
330
1F
100
AcDbEntity
  8
0
100
AcDbLine
 10
116.1606033963611
 20
4.077434337243648
 30
0.0
 11
116.1658762176733
 21
4.073216080196761
 31
0.0
  0
LINE
  5
7AC
330
1F
100
AcDbEntity
  8
0
100
AcDbLine
 10
116.1658762176733
 20
4.073216080196761
 30
0.0
 11
116.1711490389819
 21
4.068997823151693
 31
0.0
  0
LINE
  5
7AD
330
1F
100
AcDbEntity
  8
0
100
AcDbLine
 10
116.1711490389819
 20
4.068997823151693
 30
0.0
 11
116.1764218602869
 21
4.064779566102988
 31
0.0
  0
LINE
  5
7AE
330
1F
100
AcDbEntity
  8
0
100
AcDbLine
 10
116.1764218602869
 20
4.064779566102988
 30
0.0
 11
116.1816946815955
 21
4.06056130905792
 31
0.0
  0
LINE
  5
7AF
330
1F
100
AcDbEntity
  8
0
100
AcDbLine
 10
116.1816946815955
 20
4.06056130905792
 30
0.0
 11
116.1869675029078
 21
4.056343052009214
 31
0.0
  0
LINE
  5
7B0
330
1F
100
AcDbEntity
  8
0
100
AcDbLine
 10
116.1869675029078
 20
4.056343052009214
 30
0.0
 11
116.1922403242164
 21
4.052124794964147
 31
0.0
  0
LINE
  5
7B1
330
1F
100
AcDbEntity
  8
0
100
AcDbLine
 10
116.1922403242164
 20
4.052124794964147
 30
0.0
 11
116.1975131455213
 21
4.04790653791726
 31
0.0
  0
LINE
  5
7B2
330
1F
100
AcDbEntity
  8
0
100
AcDbLine
 10
116.1975131455213
 20
4.04790653791726
 30
0.0
 11
116.2027859668299
 21
4.043688280868554
 31
0.0
  0
LINE
  5
7B3
330
1F
100
AcDbEntity
  8
0
100
AcDbLine
 10
116.2027859668299
 20
4.043688280868554
 30
0.0
 11
116.2080587881422
 21
4.040524588085208
 31
0.0
  0
LINE
  5
7B4
330
1F
100
AcDbEntity
  8
0
100
AcDbLine
 10
116.2080587881422
 20
4.040524588085208
 30
0.0
 11
116.2133316094472
 21
4.036306331036502
 31
0.0
  0
LINE
  5
7B5
330
1F
100
AcDbEntity
  8
0
100
AcDbLine
 10
116.2133316094472
 20
4.036306331036502
 30
0.0
 11
116.2186044307558
 21
4.032088073991435
 31
0.0
  0
LINE
  5
7B6
330
1F
100
AcDbEntity
  8
0
100
AcDbLine
 10
116.2186044307558
 20
4.032088073991435
 30
0.0
 11
116.2249318163261
 21
4.027869816944548
 31
0.0
  0
LINE
  5
7B7
330
1F
100
AcDbEntity
  8
0
100
AcDbLine
 10
116.2249318163261
 20
4.027869816944548
 30
0.0
 11
116.2302046376384
 21
4.023651559897661
 31
0.0
  0
LINE
  5
7B8
330
1F
100
AcDbEntity
  8
0
100
AcDbLine
 10
116.2302046376384
 20
4.023651559897661
 30
0.0
 11
116.2354774589433
 21
4.019433302850774
 31
0.0
  0
LINE
  5
7B9
330
1F
100
AcDbEntity
  8
0
100
AcDbLine
 10
116.2354774589433
 20
4.019433302850774
 30
0.0
 11
116.2407502802519
 21
4.015215045802069
 31
0.0
  0
LINE
  5
7BA
330
1F
100
AcDbEntity
  8
0
100
AcDbLine
 10
116.2407502802519
 20
4.015215045802069
 30
0.0
 11
116.2460231015605
 21
4.012051353018723
 31
0.0
  0
LINE
  5
7BB
330
1F
100
AcDbEntity
  8
0
100
AcDbLine
 10
116.2460231015605
 20
4.012051353018723
 30
0.0
 11
116.2512959228691
 21
4.007833095971836
 31
0.0
  0
LINE
  5
7BC
330
1F
100
AcDbEntity
  8
0
100
AcDbLine
 10
116.2512959228691
 20
4.007833095971836
 30
0.0
 11
116.2565687441778
 21
4.003614838924949
 31
0.0
  0
LINE
  5
7BD
330
1F
100
AcDbEntity
  8
0
100
AcDbLine
 10
116.2565687441778
 20
4.003614838924949
 30
0.0
 11
116.2618415654864
 21
3.999396581878063
 31
0.0
  0
LINE
  5
7BE
330
1F
100
AcDbEntity
  8
0
100
AcDbLine
 10
116.2618415654864
 20
3.999396581878063
 30
0.0
 11
116.2681689510567
 21
3.995178324832995
 31
0.0
  0
LINE
  5
7BF
330
1F
100
AcDbEntity
  8
0
100
AcDbLine
 10
116.2681689510567
 20
3.995178324832995
 30
0.0
 11
116.2734417723653
 21
3.992014632046011
 31
0.0
  0
LINE
  5
7C0
330
1F
100
AcDbEntity
  8
0
100
AcDbLine
 10
116.2734417723653
 20
3.992014632046011
 30
0.0
 11
116.2787145936739
 21
3.987796374999124
 31
0.0
  0
LINE
  5
7C1
330
1F
100
AcDbEntity
  8
0
100
AcDbLine
 10
116.2787145936739
 20
3.987796374999124
 30
0.0
 11
116.2839874149825
 21
3.983578117954056
 31
0.0
  0
LINE
  5
7C2
330
1F
100
AcDbEntity
  8
0
100
AcDbLine
 10
116.2839874149825
 20
3.983578117954056
 30
0.0
 11
116.2892602362875
 21
3.979359860905351
 31
0.0
  0
LINE
  5
7C3
330
1F
100
AcDbEntity
  8
0
100
AcDbLine
 10
116.2892602362875
 20
3.979359860905351
 30
0.0
 11
116.2945330575997
 21
3.976196168122005
 31
0.0
  0
LINE
  5
7C4
330
1F
100
AcDbEntity
  8
0
100
AcDbLine
 10
116.2945330575997
 20
3.976196168122005
 30
0.0
 11
116.30086044317
 21
3.971977911073299
 31
0.0
  0
LINE
  5
7C5
330
1F
100
AcDbEntity
  8
0
100
AcDbLine
 10
116.30086044317
 20
3.971977911073299
 30
0.0
 11
116.3061332644787
 21
3.967759654028231
 31
0.0
  0
LINE
  5
7C6
330
1F
100
AcDbEntity
  8
0
100
AcDbLine
 10
116.3061332644787
 20
3.967759654028231
 30
0.0
 11
116.3114060857836
 21
3.964595961243066
 31
0.0
  0
LINE
  5
7C7
330
1F
100
AcDbEntity
  8
0
100
AcDbLine
 10
116.3114060857836
 20
3.964595961243066
 30
0.0
 11
116.3166789070959
 21
3.96037770419436
 31
0.0
  0
LINE
  5
7C8
330
1F
100
AcDbEntity
  8
0
100
AcDbLine
 10
116.3166789070959
 20
3.96037770419436
 30
0.0
 11
116.3219517284045
 21
3.956159447149293
 31
0.0
  0
LINE
  5
7C9
330
1F
100
AcDbEntity
  8
0
100
AcDbLine
 10
116.3219517284045
 20
3.956159447149293
 30
0.0
 11
116.3282791139712
 21
3.952995754364128
 31
0.0
  0
LINE
  5
7CA
330
1F
100
AcDbEntity
  8
0
100
AcDbLine
 10
116.3282791139712
 20
3.952995754364128
 30
0.0
 11
116.3335519352834
 21
3.948777497317241
 31
0.0
  0
LINE
  5
7CB
330
1F
100
AcDbEntity
  8
0
100
AcDbLine
 10
116.3335519352834
 20
3.948777497317241
 30
0.0
 11
116.338824756592
 21
3.944559240270354
 31
0.0
  0
LINE
  5
7CC
330
1F
100
AcDbEntity
  8
0
100
AcDbLine
 10
116.338824756592
 20
3.944559240270354
 30
0.0
 11
116.3440975779006
 21
3.94139554748337
 31
0.0
  0
LINE
  5
7CD
330
1F
100
AcDbEntity
  8
0
100
AcDbLine
 10
116.3440975779006
 20
3.94139554748337
 30
0.0
 11
116.3504249634673
 21
3.937177290438302
 31
0.0
  0
LINE
  5
7CE
330
1F
100
AcDbEntity
  8
0
100
AcDbLine
 10
116.3504249634673
 20
3.937177290438302
 30
0.0
 11
116.3556977847796
 21
3.932959033391416
 31
0.0
  0
LINE
  5
7CF
330
1F
100
AcDbEntity
  8
0
100
AcDbLine
 10
116.3556977847796
 20
3.932959033391416
 30
0.0
 11
116.3609706060882
 21
3.929795340606251
 31
0.0
  0
LINE
  5
7D0
330
1F
100
AcDbEntity
  8
0
100
AcDbLine
 10
116.3609706060882
 20
3.929795340606251
 30
0.0
 11
116.3662434273932
 21
3.925577083559364
 31
0.0
  0
LINE
  5
7D1
330
1F
100
AcDbEntity
  8
0
100
AcDbLine
 10
116.3662434273932
 20
3.925577083559364
 30
0.0
 11
116.3725708129635
 21
3.922413390774199
 31
0.0
  0
LINE
  5
7D2
330
1F
100
AcDbEntity
  8
0
100
AcDbLine
 10
116.3725708129635
 20
3.922413390774199
 30
0.0
 11
116.3778436342757
 21
3.918195133727312
 31
0.0
  0
LINE
  5
7D3
330
1F
100
AcDbEntity
  8
0
100
AcDbLine
 10
116.3778436342757
 20
3.918195133727312
 30
0.0
 11
116.3831164555807
 21
3.915031440942147
 31
0.0
  0
LINE
  5
7D4
330
1F
100
AcDbEntity
  8
0
100
AcDbLine
 10
116.3831164555807
 20
3.915031440942147
 30
0.0
 11
116.389443841151
 21
3.910813183897079
 31
0.0
  0
LINE
  5
7D5
330
1F
100
AcDbEntity
  8
0
100
AcDbLine
 10
116.389443841151
 20
3.910813183897079
 30
0.0
 11
116.3947166624597
 21
3.907649491110095
 31
0.0
  0
LINE
  5
7D6
330
1F
100
AcDbEntity
  8
0
100
AcDbLine
 10
116.3947166624597
 20
3.907649491110095
 30
0.0
 11
116.3999894837719
 21
3.903431234063209
 31
0.0
  0
LINE
  5
7D7
330
1F
100
AcDbEntity
  8
0
100
AcDbLine
 10
116.3999894837719
 20
3.903431234063209
 30
0.0
 11
116.4052623050769
 21
3.900267541279863
 31
0.0
  0
LINE
  5
7D8
330
1F
100
AcDbEntity
  8
0
100
AcDbLine
 10
116.4052623050769
 20
3.900267541279863
 30
0.0
 11
116.4115896906472
 21
3.896049284231157
 31
0.0
  0
LINE
  5
7D9
330
1F
100
AcDbEntity
  8
0
100
AcDbLine
 10
116.4115896906472
 20
3.896049284231157
 30
0.0
 11
116.4168625119594
 21
3.892885591445992
 31
0.0
  0
LINE
  5
7DA
330
1F
100
AcDbEntity
  8
0
100
AcDbLine
 10
116.4168625119594
 20
3.892885591445992
 30
0.0
 11
116.4221353332644
 21
3.888667334399105
 31
0.0
  0
LINE
  5
7DB
330
1F
100
AcDbEntity
  8
0
100
AcDbLine
 10
116.4221353332644
 20
3.888667334399105
 30
0.0
 11
116.4284627188347
 21
3.88550364161394
 31
0.0
  0
LINE
  5
7DC
330
1F
100
AcDbEntity
  8
0
100
AcDbLine
 10
116.4284627188347
 20
3.88550364161394
 30
0.0
 11
116.4337355401434
 21
3.882339948830594
 31
0.0
  0
LINE
  5
7DD
330
1F
100
AcDbEntity
  8
0
100
AcDbLine
 10
116.4337355401434
 20
3.882339948830594
 30
0.0
 11
116.4400629257137
 21
3.878121691781888
 31
0.0
  0
LINE
  5
7DE
330
1F
100
AcDbEntity
  8
0
100
AcDbLine
 10
116.4400629257137
 20
3.878121691781888
 30
0.0
 11
116.4453357470223
 21
3.874957998996723
 31
0.0
  0
LINE
  5
7DF
330
1F
100
AcDbEntity
  8
0
100
AcDbLine
 10
116.4453357470223
 20
3.874957998996723
 30
0.0
 11
116.4506085683309
 21
3.870739741951656
 31
0.0
  0
LINE
  5
7E0
330
1F
100
AcDbEntity
  8
0
100
AcDbLine
 10
116.4506085683309
 20
3.870739741951656
 30
0.0
 11
116.4569359539012
 21
3.867576049164672
 31
0.0
  0
LINE
  5
7E1
330
1F
100
AcDbEntity
  8
0
100
AcDbLine
 10
116.4569359539012
 20
3.867576049164672
 30
0.0
 11
116.4622087752098
 21
3.864412356381325
 31
0.0
  0
LINE
  5
7E2
330
1F
100
AcDbEntity
  8
0
100
AcDbLine
 10
116.4622087752098
 20
3.864412356381325
 30
0.0
 11
116.4674815965184
 21
3.860194099334439
 31
0.0
  0
LINE
  5
7E3
330
1F
100
AcDbEntity
  8
0
100
AcDbLine
 10
116.4674815965184
 20
3.860194099334439
 30
0.0
 11
116.4738089820888
 21
3.857030406547455
 31
0.0
  0
LINE
  5
7E4
330
1F
100
AcDbEntity
  8
0
100
AcDbLine
 10
116.4738089820888
 20
3.857030406547455
 30
0.0
 11
116.4790818033937
 21
3.853866713764109
 31
0.0
  0
LINE
  5
7E5
330
1F
100
AcDbEntity
  8
0
100
AcDbLine
 10
116.4790818033937
 20
3.853866713764109
 30
0.0
 11
116.4854091889677
 21
3.849648456717222
 31
0.0
  0
LINE
  5
7E6
330
1F
100
AcDbEntity
  8
0
100
AcDbLine
 10
116.4854091889677
 20
3.849648456717222
 30
0.0
 11
116.4906820102763
 21
3.846484763930238
 31
0.0
  0
LINE
  5
7E7
330
1F
100
AcDbEntity
  8
0
100
AcDbLine
 10
117.1856398587364
 20
3.541715692301767
 30
0.0
 11
117.1930218085648
 21
3.539606563776505
 31
0.0
  0
LINE
  5
7E8
330
1F
100
AcDbEntity
  8
0
100
AcDbLine
 10
117.1930218085648
 20
3.539606563776505
 30
0.0
 11
117.2004037584005
 21
3.537497435253062
 31
0.0
  0
LINE
  5
7E9
330
1F
100
AcDbEntity
  8
0
100
AcDbLine
 10
117.2004037584005
 20
3.537497435253062
 30
0.0
 11
117.2077857082325
 21
3.534333742469716
 31
0.0
  0
LINE
  5
7EA
330
1F
100
AcDbEntity
  8
0
100
AcDbLine
 10
117.2077857082325
 20
3.534333742469716
 30
0.0
 11
117.2151676580609
 21
3.532224613946272
 31
0.0
  0
LINE
  5
7EB
330
1F
100
AcDbEntity
  8
0
100
AcDbLine
 10
117.2151676580609
 20
3.532224613946272
 30
0.0
 11
117.2236041721583
 21
3.53011548542101
 31
0.0
  0
LINE
  5
7EC
330
1F
100
AcDbEntity
  8
0
100
AcDbLine
 10
117.2236041721583
 20
3.53011548542101
 30
0.0
 11
117.2309861219867
 21
3.528006356897567
 31
0.0
  0
LINE
  5
7ED
330
1F
100
AcDbEntity
  8
0
100
AcDbLine
 10
117.2309861219867
 20
3.528006356897567
 30
0.0
 11
117.2383680718188
 21
3.52484266411422
 31
0.0
  0
LINE
  5
7EE
330
1F
100
AcDbEntity
  8
0
100
AcDbLine
 10
117.2383680718188
 20
3.52484266411422
 30
0.0
 11
117.2457500216545
 21
3.522733535590777
 31
0.0
  0
LINE
  5
7EF
330
1F
100
AcDbEntity
  8
0
100
AcDbLine
 10
117.2457500216545
 20
3.522733535590777
 30
0.0
 11
117.2541865357446
 21
3.520624407067334
 31
0.0
  0
LINE
  5
7F0
330
1F
100
AcDbEntity
  8
0
100
AcDbLine
 10
117.2541865357446
 20
3.520624407067334
 30
0.0
 11
117.2615684855803
 21
3.518515278542071
 31
0.0
  0
LINE
  5
7F1
330
1F
100
AcDbEntity
  8
0
100
AcDbLine
 10
117.2615684855803
 20
3.518515278542071
 30
0.0
 11
117.2689504354087
 21
3.516406150018628
 31
0.0
  0
LINE
  5
7F2
330
1F
100
AcDbEntity
  8
0
100
AcDbLine
 10
117.2689504354087
 20
3.516406150018628
 30
0.0
 11
117.2763323852408
 21
3.513242457235282
 31
0.0
  0
LINE
  5
7F3
330
1F
100
AcDbEntity
  8
0
100
AcDbLine
 10
117.2763323852408
 20
3.513242457235282
 30
0.0
 11
117.2837143350765
 21
3.511133328711839
 31
0.0
  0
LINE
  5
7F4
330
1F
100
AcDbEntity
  8
0
100
AcDbLine
 10
117.2837143350765
 20
3.511133328711839
 30
0.0
 11
117.2921508491666
 21
3.509024200186576
 31
0.0
  0
LINE
  5
7F5
330
1F
100
AcDbEntity
  8
0
100
AcDbLine
 10
117.2921508491666
 20
3.509024200186576
 30
0.0
 11
117.2995327989987
 21
3.506915071663133
 31
0.0
  0
LINE
  5
7F6
330
1F
100
AcDbEntity
  8
0
100
AcDbLine
 10
117.2995327989987
 20
3.506915071663133
 30
0.0
 11
117.3069147488307
 21
3.504805943141509
 31
0.0
  0
LINE
  5
7F7
330
1F
100
AcDbEntity
  8
0
100
AcDbLine
 10
117.3069147488307
 20
3.504805943141509
 30
0.0
 11
117.3153512629245
 21
3.502696814618065
 31
0.0
  0
LINE
  5
7F8
330
1F
100
AcDbEntity
  8
0
100
AcDbLine
 10
117.3153512629245
 20
3.502696814618065
 30
0.0
 11
117.3227332127602
 21
3.500587686094622
 31
0.0
  0
LINE
  5
7F9
330
1F
100
AcDbEntity
  8
0
100
AcDbLine
 10
117.3227332127602
 20
3.500587686094622
 30
0.0
 11
117.3301151625886
 21
3.497423993307638
 31
0.0
  0
LINE
  5
7FA
330
1F
100
AcDbEntity
  8
0
100
AcDbLine
 10
117.3301151625886
 20
3.497423993307638
 30
0.0
 11
117.3374971124206
 21
3.495314864786013
 31
0.0
  0
LINE
  5
7FB
330
1F
100
AcDbEntity
  8
0
100
AcDbLine
 10
117.3374971124206
 20
3.495314864786013
 30
0.0
 11
117.3459336265144
 21
3.49320573626257
 31
0.0
  0
LINE
  5
7FC
330
1F
100
AcDbEntity
  8
0
100
AcDbLine
 10
117.3459336265144
 20
3.49320573626257
 30
0.0
 11
117.3533155763465
 21
3.491096607739127
 31
0.0
  0
LINE
  5
7FD
330
1F
100
AcDbEntity
  8
0
100
AcDbLine
 10
117.3533155763465
 20
3.491096607739127
 30
0.0
 11
117.3606975261785
 21
3.488987479215683
 31
0.0
  0
LINE
  5
7FE
330
1F
100
AcDbEntity
  8
0
100
AcDbLine
 10
117.3606975261785
 20
3.488987479215683
 30
0.0
 11
117.3691340402723
 21
3.48687835069224
 31
0.0
  0
LINE
  5
7FF
330
1F
100
AcDbEntity
  8
0
100
AcDbLine
 10
117.3691340402723
 20
3.48687835069224
 30
0.0
 11
117.3765159901043
 21
3.484769222168797
 31
0.0
  0
LINE
  5
800
330
1F
100
AcDbEntity
  8
0
100
AcDbLine
 10
117.3765159901043
 20
3.484769222168797
 30
0.0
 11
117.3838979399328
 21
3.482660093645353
 31
0.0
  0
LINE
  5
801
330
1F
100
AcDbEntity
  8
0
100
AcDbLine
 10
117.3838979399328
 20
3.482660093645353
 30
0.0
 11
117.3923344540302
 21
3.48055096512191
 31
0.0
  0
LINE
  5
802
330
1F
100
AcDbEntity
  8
0
100
AcDbLine
 10
117.3923344540302
 20
3.48055096512191
 30
0.0
 11
117.3997164038586
 21
3.478441836598467
 31
0.0
  0
LINE
  5
803
330
1F
100
AcDbEntity
  8
0
100
AcDbLine
 10
117.3997164038586
 20
3.478441836598467
 30
0.0
 11
117.4070983536906
 21
3.476332708075023
 31
0.0
  0
LINE
  5
804
330
1F
100
AcDbEntity
  8
0
100
AcDbLine
 10
117.4070983536906
 20
3.476332708075023
 30
0.0
 11
117.415534867788
 21
3.47422357955158
 31
0.0
  0
LINE
  5
805
330
1F
100
AcDbEntity
  8
0
100
AcDbLine
 10
117.415534867788
 20
3.47422357955158
 30
0.0
 11
117.4229168176164
 21
3.472114451028136
 31
0.0
  0
LINE
  5
806
330
1F
100
AcDbEntity
  8
0
100
AcDbLine
 10
117.4229168176164
 20
3.472114451028136
 30
0.0
 11
117.4302987674521
 21
3.470005322504693
 31
0.0
  0
LINE
  5
807
330
1F
100
AcDbEntity
  8
0
100
AcDbLine
 10
117.4302987674521
 20
3.470005322504693
 30
0.0
 11
117.4387352815423
 21
3.467896193983069
 31
0.0
  0
LINE
  5
808
330
1F
100
AcDbEntity
  8
0
100
AcDbLine
 10
117.4387352815423
 20
3.467896193983069
 30
0.0
 11
117.4461172313743
 21
3.465787065457806
 31
0.0
  0
LINE
  5
809
330
1F
100
AcDbEntity
  8
0
100
AcDbLine
 10
117.4461172313743
 20
3.465787065457806
 30
0.0
 11
117.45349918121
 21
3.463677936934363
 31
0.0
  0
LINE
  5
80A
330
1F
100
AcDbEntity
  8
0
100
AcDbLine
 10
117.45349918121
 20
3.463677936934363
 30
0.0
 11
117.4619356953002
 21
3.46156880841092
 31
0.0
  0
LINE
  5
80B
330
1F
100
AcDbEntity
  8
0
100
AcDbLine
 10
117.4619356953002
 20
3.46156880841092
 30
0.0
 11
117.4693176451322
 21
3.459459679887476
 31
0.0
  0
LINE
  5
80C
330
1F
100
AcDbEntity
  8
0
100
AcDbLine
 10
117.4693176451322
 20
3.459459679887476
 30
0.0
 11
117.4766995949643
 21
3.457350551365852
 31
0.0
  0
LINE
  5
80D
330
1F
100
AcDbEntity
  8
0
100
AcDbLine
 10
117.4766995949643
 20
3.457350551365852
 30
0.0
 11
117.485136109058
 21
3.45524142284059
 31
0.0
  0
LINE
  5
80E
330
1F
100
AcDbEntity
  8
0
100
AcDbLine
 10
117.485136109058
 20
3.45524142284059
 30
0.0
 11
117.4925180588937
 21
3.453132294317146
 31
0.0
  0
LINE
  5
80F
330
1F
100
AcDbEntity
  8
0
100
AcDbLine
 10
117.4925180588937
 20
3.453132294317146
 30
0.0
 11
117.5009545729839
 21
3.452077730055425
 31
0.0
  0
LINE
  5
810
330
1F
100
AcDbEntity
  8
0
100
AcDbLine
 10
117.5009545729839
 20
3.452077730055425
 30
0.0
 11
117.5083365228159
 21
3.4499686015338
 31
0.0
  0
LINE
  5
811
330
1F
100
AcDbEntity
  8
0
100
AcDbLine
 10
117.5083365228159
 20
3.4499686015338
 30
0.0
 11
117.515718472648
 21
3.447859473010357
 31
0.0
  0
LINE
  5
812
330
1F
100
AcDbEntity
  8
0
100
AcDbLine
 10
117.515718472648
 20
3.447859473010357
 30
0.0
 11
117.5241549867417
 21
3.445750344485094
 31
0.0
  0
LINE
  5
813
330
1F
100
AcDbEntity
  8
0
100
AcDbLine
 10
117.5241549867417
 20
3.445750344485094
 30
0.0
 11
117.5315369365701
 21
3.443641215961651
 31
0.0
  0
LINE
  5
814
330
1F
100
AcDbEntity
  8
0
100
AcDbLine
 10
117.5315369365701
 20
3.443641215961651
 30
0.0
 11
117.5389188864058
 21
3.441532087438208
 31
0.0
  0
LINE
  5
815
330
1F
100
AcDbEntity
  8
0
100
AcDbLine
 10
117.5389188864058
 20
3.441532087438208
 30
0.0
 11
117.5473554004996
 21
3.439422958916583
 31
0.0
  0
LINE
  5
816
330
1F
100
AcDbEntity
  8
0
100
AcDbLine
 10
117.5473554004996
 20
3.439422958916583
 30
0.0
 11
117.554737350328
 21
3.43731383039314
 31
0.0
  0
LINE
  5
817
330
1F
100
AcDbEntity
  8
0
100
AcDbLine
 10
117.554737350328
 20
3.43731383039314
 30
0.0
 11
117.5631738644254
 21
3.436259266131418
 31
0.0
  0
LINE
  5
818
330
1F
100
AcDbEntity
  8
0
100
AcDbLine
 10
117.5631738644254
 20
3.436259266131418
 30
0.0
 11
117.5705558142539
 21
3.434150137606156
 31
0.0
  0
LINE
  5
819
330
1F
100
AcDbEntity
  8
0
100
AcDbLine
 10
117.5705558142539
 20
3.434150137606156
 30
0.0
 11
117.5789923283513
 21
3.432041009082713
 31
0.0
  0
LINE
  5
81A
330
1F
100
AcDbEntity
  8
0
100
AcDbLine
 10
117.5789923283513
 20
3.432041009082713
 30
0.0
 11
117.5863742781833
 21
3.429931880561088
 31
0.0
  0
LINE
  5
81B
330
1F
100
AcDbEntity
  8
0
100
AcDbLine
 10
117.5863742781833
 20
3.429931880561088
 30
0.0
 11
117.5937562280117
 21
3.427822752037645
 31
0.0
  0
LINE
  5
81C
330
1F
100
AcDbEntity
  8
0
100
AcDbLine
 10
117.5937562280117
 20
3.427822752037645
 30
0.0
 11
117.6021927421091
 21
3.425713623514202
 31
0.0
  0
LINE
  5
81D
330
1F
100
AcDbEntity
  8
0
100
AcDbLine
 10
117.6021927421091
 20
3.425713623514202
 30
0.0
 11
117.6095746919376
 21
3.424659059250661
 31
0.0
  0
LINE
  5
81E
330
1F
100
AcDbEntity
  8
0
100
AcDbLine
 10
117.6095746919376
 20
3.424659059250661
 30
0.0
 11
117.618011206035
 21
3.422549930727218
 31
0.0
  0
LINE
  5
81F
330
1F
100
AcDbEntity
  8
0
100
AcDbLine
 10
117.618011206035
 20
3.422549930727218
 30
0.0
 11
117.6253931558634
 21
3.420440802205593
 31
0.0
  0
LINE
  5
820
330
1F
100
AcDbEntity
  8
0
100
AcDbLine
 10
117.6253931558634
 20
3.420440802205593
 30
0.0
 11
117.6338296699572
 21
3.41833167368215
 31
0.0
  0
LINE
  5
821
330
1F
100
AcDbEntity
  8
0
100
AcDbLine
 10
117.6338296699572
 20
3.41833167368215
 30
0.0
 11
117.6412116197928
 21
3.416222545158706
 31
0.0
  0
LINE
  5
822
330
1F
100
AcDbEntity
  8
0
100
AcDbLine
 10
117.6412116197928
 20
3.416222545158706
 30
0.0
 11
117.649648133883
 21
3.415167980896985
 31
0.0
  0
LINE
  5
823
330
1F
100
AcDbEntity
  8
0
100
AcDbLine
 10
117.649648133883
 20
3.415167980896985
 30
0.0
 11
117.657030083715
 21
3.413058852371722
 31
0.0
  0
LINE
  5
824
330
1F
100
AcDbEntity
  8
0
100
AcDbLine
 10
117.657030083715
 20
3.413058852371722
 30
0.0
 11
117.6644120335471
 21
3.410949723850098
 31
0.0
  0
LINE
  5
825
330
1F
100
AcDbEntity
  8
0
100
AcDbLine
 10
117.6644120335471
 20
3.410949723850098
 30
0.0
 11
117.6728485476409
 21
3.408840595326655
 31
0.0
  0
LINE
  5
826
330
1F
100
AcDbEntity
  8
0
100
AcDbLine
 10
117.6728485476409
 20
3.408840595326655
 30
0.0
 11
117.6802304974729
 21
3.407786031064933
 31
0.0
  0
LINE
  5
827
330
1F
100
AcDbEntity
  8
0
100
AcDbLine
 10
117.6802304974729
 20
3.407786031064933
 30
0.0
 11
117.6886670115667
 21
3.40567690254149
 31
0.0
  0
LINE
  5
828
330
1F
100
AcDbEntity
  8
0
100
AcDbLine
 10
117.6886670115667
 20
3.40567690254149
 30
0.0
 11
117.6960489613987
 21
3.403567774016227
 31
0.0
  0
LINE
  5
829
330
1F
100
AcDbEntity
  8
0
100
AcDbLine
 10
117.6960489613987
 20
3.403567774016227
 30
0.0
 11
117.7044854754925
 21
3.401458645494603
 31
0.0
  0
LINE
  5
82A
330
1F
100
AcDbEntity
  8
0
100
AcDbLine
 10
117.7044854754925
 20
3.401458645494603
 30
0.0
 11
117.7118674253246
 21
3.400404081232881
 31
0.0
  0
LINE
  5
82B
330
1F
100
AcDbEntity
  8
0
100
AcDbLine
 10
117.7118674253246
 20
3.400404081232881
 30
0.0
 11
117.7203039394147
 21
3.398294952709438
 31
0.0
  0
LINE
  5
82C
330
1F
100
AcDbEntity
  8
0
100
AcDbLine
 10
117.7203039394147
 20
3.398294952709438
 30
0.0
 11
117.7276858892504
 21
3.396185824185995
 31
0.0
  0
LINE
  5
82D
330
1F
100
AcDbEntity
  8
0
100
AcDbLine
 10
117.7276858892504
 20
3.396185824185995
 30
0.0
 11
117.7361224033442
 21
3.395131259924273
 31
0.0
  0
LINE
  5
82E
330
1F
100
AcDbEntity
  8
0
100
AcDbLine
 10
117.7361224033442
 20
3.395131259924273
 30
0.0
 11
117.7435043531726
 21
3.393022131400829
 31
0.0
  0
LINE
  5
82F
330
1F
100
AcDbEntity
  8
0
100
AcDbLine
 10
117.7435043531726
 20
3.393022131400829
 30
0.0
 11
117.75194086727
 21
3.390913002877386
 31
0.0
  0
LINE
  5
830
330
1F
100
AcDbEntity
  8
0
100
AcDbLine
 10
117.75194086727
 20
3.390913002877386
 30
0.0
 11
117.7593228170984
 21
3.388803874353943
 31
0.0
  0
LINE
  5
831
330
1F
100
AcDbEntity
  8
0
100
AcDbLine
 10
117.7593228170984
 20
3.388803874353943
 30
0.0
 11
117.7677593311958
 21
3.387749310092221
 31
0.0
  0
LINE
  5
832
330
1F
100
AcDbEntity
  8
0
100
AcDbLine
 10
117.7677593311958
 20
3.387749310092221
 30
0.0
 11
117.7751412810279
 21
3.385640181568778
 31
0.0
  0
LINE
  5
833
330
1F
100
AcDbEntity
  8
0
100
AcDbLine
 10
117.7751412810279
 20
3.385640181568778
 30
0.0
 11
117.783577795118
 21
3.383531053047153
 31
0.0
  0
LINE
  5
834
330
1F
100
AcDbEntity
  8
0
100
AcDbLine
 10
117.783577795118
 20
3.383531053047153
 30
0.0
 11
117.7909597449537
 21
3.382476488783613
 31
0.0
  0
LINE
  5
835
330
1F
100
AcDbEntity
  8
0
100
AcDbLine
 10
117.7909597449537
 20
3.382476488783613
 30
0.0
 11
117.7993962590438
 21
3.380367360260169
 31
0.0
  0
LINE
  5
836
330
1F
100
AcDbEntity
  8
0
100
AcDbLine
 10
117.7993962590438
 20
3.380367360260169
 30
0.0
 11
117.8067782088759
 21
3.378258231736726
 31
0.0
  0
LINE
  5
837
330
1F
100
AcDbEntity
  8
0
100
AcDbLine
 10
117.8067782088759
 20
3.378258231736726
 30
0.0
 11
117.8152147229696
 21
3.377203667475004
 31
0.0
  0
LINE
  5
838
330
1F
100
AcDbEntity
  8
0
100
AcDbLine
 10
117.8152147229696
 20
3.377203667475004
 30
0.0
 11
117.8225966728017
 21
3.375094538951561
 31
0.0
  0
LINE
  5
839
330
1F
100
AcDbEntity
  8
0
100
AcDbLine
 10
117.8225966728017
 20
3.375094538951561
 30
0.0
 11
117.8310331868991
 21
3.372985410429937
 31
0.0
  0
LINE
  5
83A
330
1F
100
AcDbEntity
  8
0
100
AcDbLine
 10
117.8310331868991
 20
3.372985410429937
 30
0.0
 11
117.8384151367275
 21
3.371930846166396
 31
0.0
  0
LINE
  5
83B
330
1F
100
AcDbEntity
  8
0
100
AcDbLine
 10
117.8384151367275
 20
3.371930846166396
 30
0.0
 11
117.8468516508213
 21
3.369821717642953
 31
0.0
  0
LINE
  5
83C
330
1F
100
AcDbEntity
  8
0
100
AcDbLine
 10
117.8468516508213
 20
3.369821717642953
 30
0.0
 11
117.8542336006533
 21
3.367712589119509
 31
0.0
  0
LINE
  5
83D
330
1F
100
AcDbEntity
  8
0
100
AcDbLine
 10
117.8542336006533
 20
3.367712589119509
 30
0.0
 11
117.8626701147471
 21
3.366658024857787
 31
0.0
  0
LINE
  5
83E
330
1F
100
AcDbEntity
  8
0
100
AcDbLine
 10
117.8626701147471
 20
3.366658024857787
 30
0.0
 11
117.8700520645792
 21
3.364548896336163
 31
0.0
  0
LINE
  5
83F
330
1F
100
AcDbEntity
  8
0
100
AcDbLine
 10
117.8700520645792
 20
3.364548896336163
 30
0.0
 11
117.878488578673
 21
3.36243976781272
 31
0.0
  0
LINE
  5
840
330
1F
100
AcDbEntity
  8
0
100
AcDbLine
 10
117.878488578673
 20
3.36243976781272
 30
0.0
 11
117.8869250927667
 21
3.361385203549179
 31
0.0
  0
LINE
  5
841
330
1F
100
AcDbEntity
  8
0
100
AcDbLine
 10
117.8869250927667
 20
3.361385203549179
 30
0.0
 11
117.8943070425988
 21
3.359276075025736
 31
0.0
  0
LINE
  5
842
330
1F
100
AcDbEntity
  8
0
100
AcDbLine
 10
117.8943070425988
 20
3.359276075025736
 30
0.0
 11
117.9027435566925
 21
3.358221510764014
 31
0.0
  0
LINE
  5
843
330
1F
100
AcDbEntity
  8
0
100
AcDbLine
 10
117.9027435566925
 20
3.358221510764014
 30
0.0
 11
117.910125506521
 21
3.356112382240571
 31
0.0
  0
LINE
  5
844
330
1F
100
AcDbEntity
  8
0
100
AcDbLine
 10
117.910125506521
 20
3.356112382240571
 30
0.0
 11
117.9185620206184
 21
3.354003253718946
 31
0.0
  0
LINE
  5
845
330
1F
100
AcDbEntity
  8
0
100
AcDbLine
 10
117.9185620206184
 20
3.354003253718946
 30
0.0
 11
117.9259439704504
 21
3.352948689457225
 31
0.0
  0
LINE
  5
846
330
1F
100
AcDbEntity
  8
0
100
AcDbLine
 10
117.9259439704504
 20
3.352948689457225
 30
0.0
 11
117.9343804845442
 21
3.350839560931962
 31
0.0
  0
LINE
  5
847
330
1F
100
AcDbEntity
  8
0
100
AcDbLine
 10
117.9343804845442
 20
3.350839560931962
 30
0.0
 11
117.9417624343763
 21
3.348730432408519
 31
0.0
  0
LINE
  5
848
330
1F
100
AcDbEntity
  8
0
100
AcDbLine
 10
117.9417624343763
 20
3.348730432408519
 30
0.0
 11
117.9501989484664
 21
3.347675868146797
 31
0.0
  0
LINE
  5
849
330
1F
100
AcDbEntity
  8
0
100
AcDbLine
 10
117.9501989484664
 20
3.347675868146797
 30
0.0
 11
117.9575808983021
 21
3.345566739625173
 31
0.0
  0
LINE
  5
84A
330
1F
100
AcDbEntity
  8
0
100
AcDbLine
 10
117.9575808983021
 20
3.345566739625173
 30
0.0
 11
117.9660174123922
 21
3.344512175363451
 31
0.0
  0
LINE
  5
84B
330
1F
100
AcDbEntity
  8
0
100
AcDbLine
 10
117.9660174123922
 20
3.344512175363451
 30
0.0
 11
117.9733993622243
 21
3.342403046840008
 31
0.0
  0
LINE
  5
84C
330
1F
100
AcDbEntity
  8
0
100
AcDbLine
 10
117.9733993622243
 20
3.342403046840008
 30
0.0
 11
117.9818358763217
 21
3.340293918314745
 31
0.0
  0
LINE
  5
84D
330
1F
100
AcDbEntity
  8
0
100
AcDbLine
 10
117.9818358763217
 20
3.340293918314745
 30
0.0
 11
117.9902723904118
 21
3.339239354053024
 31
0.0
  0
LINE
  5
84E
330
1F
100
AcDbEntity
  8
0
100
AcDbLine
 10
117.9902723904118
 20
3.339239354053024
 30
0.0
 11
117.9976543402475
 21
3.337130225531399
 31
0.0
  0
LINE
  5
84F
330
1F
100
AcDbEntity
  8
0
100
AcDbLine
 10
117.9976543402475
 20
3.337130225531399
 30
0.0
 11
118.0060908543376
 21
3.336075661269678
 31
0.0
  0
LINE
  5
850
330
1F
100
AcDbEntity
  8
0
100
AcDbLine
 10
118.0060908543376
 20
3.336075661269678
 30
0.0
 11
118.0134728041697
 21
3.333966532746234
 31
0.0
  0
LINE
  5
851
330
1F
100
AcDbEntity
  8
0
100
AcDbLine
 10
118.0134728041697
 20
3.333966532746234
 30
0.0
 11
118.0219093182635
 21
3.331857404222791
 31
0.0
  0
LINE
  5
852
330
1F
100
AcDbEntity
  8
0
100
AcDbLine
 10
118.0219093182635
 20
3.331857404222791
 30
0.0
 11
118.0292912680955
 21
3.330802839961069
 31
0.0
  0
LINE
  5
853
330
1F
100
AcDbEntity
  8
0
100
AcDbLine
 10
118.0292912680955
 20
3.330802839961069
 30
0.0
 11
118.0377277821893
 21
3.328693711435807
 31
0.0
  0
LINE
  5
854
330
1F
100
AcDbEntity
  8
0
100
AcDbLine
 10
118.0377277821893
 20
3.328693711435807
 30
0.0
 11
118.0451097320213
 21
3.327639147174085
 31
0.0
  0
LINE
  5
855
330
1F
100
AcDbEntity
  8
0
100
AcDbLine
 10
118.0451097320213
 20
3.327639147174085
 30
0.0
 11
118.0535462461151
 21
3.325530018652461
 31
0.0
  0
LINE
  5
856
330
1F
100
AcDbEntity
  8
0
100
AcDbLine
 10
118.0535462461151
 20
3.325530018652461
 30
0.0
 11
118.0619827602089
 21
3.323420890129018
 31
0.0
  0
LINE
  5
857
330
1F
100
AcDbEntity
  8
0
100
AcDbLine
 10
118.0619827602089
 20
3.323420890129018
 30
0.0
 11
118.0693647100409
 21
3.322366325867296
 31
0.0
  0
LINE
  5
858
330
1F
100
AcDbEntity
  8
0
100
AcDbLine
 10
118.0693647100409
 20
3.322366325867296
 30
0.0
 11
118.0778012241311
 21
3.320257197343853
 31
0.0
  0
LINE
  5
859
330
1F
100
AcDbEntity
  8
0
100
AcDbLine
 10
118.0778012241311
 20
3.320257197343853
 30
0.0
 11
118.0851831739668
 21
3.319202633080312
 31
0.0
  0
LINE
  5
85A
330
1F
100
AcDbEntity
  8
0
100
AcDbLine
 10
118.0851831739668
 20
3.319202633080312
 30
0.0
 11
118.0936196880605
 21
3.317093504558688
 31
0.0
  0
LINE
  5
85B
330
1F
100
AcDbEntity
  8
0
100
AcDbLine
 10
118.0936196880605
 20
3.317093504558688
 30
0.0
 11
118.1010016378889
 21
3.316038940296966
 31
0.0
  0
LINE
  5
85C
330
1F
100
AcDbEntity
  8
0
100
AcDbLine
 10
118.1010016378889
 20
3.316038940296966
 30
0.0
 11
118.1094381519864
 21
3.313929811773522
 31
0.0
  0
LINE
  5
85D
330
1F
100
AcDbEntity
  8
0
100
AcDbLine
 10
118.1094381519864
 20
3.313929811773522
 30
0.0
 11
118.1178746660765
 21
3.311820683250079
 31
0.0
  0
LINE
  5
85E
330
1F
100
AcDbEntity
  8
0
100
AcDbLine
 10
118.1178746660765
 20
3.311820683250079
 30
0.0
 11
118.1252566159122
 21
3.310766118988357
 31
0.0
  0
LINE
  5
85F
330
1F
100
AcDbEntity
  8
0
100
AcDbLine
 10
118.1252566159122
 20
3.310766118988357
 30
0.0
 11
118.133693130006
 21
3.308656990464914
 31
0.0
  0
LINE
  5
860
330
1F
100
AcDbEntity
  8
0
100
AcDbLine
 10
118.133693130006
 20
3.308656990464914
 30
0.0
 11
118.1410750798344
 21
3.307602426203192
 31
0.0
  0
LINE
  5
861
330
1F
100
AcDbEntity
  8
0
100
AcDbLine
 10
118.1410750798344
 20
3.307602426203192
 30
0.0
 11
118.1495115939318
 21
3.305493297679749
 31
0.0
  0
LINE
  5
862
330
1F
100
AcDbEntity
  8
0
100
AcDbLine
 10
118.1495115939318
 20
3.305493297679749
 30
0.0
 11
118.1568935437602
 21
3.304438733418027
 31
0.0
  0
LINE
  5
863
330
1F
100
AcDbEntity
  8
0
100
AcDbLine
 10
118.1568935437602
 20
3.304438733418027
 30
0.0
 11
118.165330057854
 21
3.302329604894584
 31
0.0
  0
LINE
  5
864
330
1F
100
AcDbEntity
  8
0
100
AcDbLine
 10
118.165330057854
 20
3.302329604894584
 30
0.0
 11
118.172712007686
 21
3.300220476371141
 31
0.0
  0
LINE
  5
865
330
1F
100
AcDbEntity
  8
0
100
AcDbLine
 10
118.172712007686
 20
3.300220476371141
 30
0.0
 11
118.1811485217798
 21
3.299165912111238
 31
0.0
  0
LINE
  5
866
330
1F
100
AcDbEntity
  8
0
100
AcDbLine
 10
116.6161751574176
 20
4.454968342932733
 30
0.0
 11
116.618284285941
 21
4.45285921440929
 31
0.0
  0
LINE
  5
867
330
1F
100
AcDbEntity
  8
0
100
AcDbLine
 10
116.618284285941
 20
4.45285921440929
 30
0.0
 11
116.6193388502027
 21
4.450750085885847
 31
0.0
  0
LINE
  5
868
330
1F
100
AcDbEntity
  8
0
100
AcDbLine
 10
116.6193388502027
 20
4.450750085885847
 30
0.0
 11
116.6214479787262
 21
4.449695521624125
 31
0.0
  0
LINE
  5
869
330
1F
100
AcDbEntity
  8
0
100
AcDbLine
 10
116.6214479787262
 20
4.449695521624125
 30
0.0
 11
116.6235571072496
 21
4.447586393102501
 31
0.0
  0
LINE
  5
86A
330
1F
100
AcDbEntity
  8
0
100
AcDbLine
 10
116.6235571072496
 20
4.447586393102501
 30
0.0
 11
116.6256662357731
 21
4.445477264577238
 31
0.0
  0
LINE
  5
86B
330
1F
100
AcDbEntity
  8
0
100
AcDbLine
 10
116.6256662357731
 20
4.445477264577238
 30
0.0
 11
116.6267208000311
 21
4.443368136053795
 31
0.0
  0
LINE
  5
86C
330
1F
100
AcDbEntity
  8
0
100
AcDbLine
 10
116.6267208000311
 20
4.443368136053795
 30
0.0
 11
116.6288299285582
 21
4.441259007530351
 31
0.0
  0
LINE
  5
86D
330
1F
100
AcDbEntity
  8
0
100
AcDbLine
 10
116.6288299285582
 20
4.441259007530351
 30
0.0
 11
116.6309390570817
 21
4.439149879006908
 31
0.0
  0
LINE
  5
86E
330
1F
100
AcDbEntity
  8
0
100
AcDbLine
 10
116.6309390570817
 20
4.439149879006908
 30
0.0
 11
116.6330481856051
 21
4.437040750485284
 31
0.0
  0
LINE
  5
86F
330
1F
100
AcDbEntity
  8
0
100
AcDbLine
 10
116.6330481856051
 20
4.437040750485284
 30
0.0
 11
116.6341027498668
 21
4.434931621960021
 31
0.0
  0
LINE
  5
870
330
1F
100
AcDbEntity
  8
0
100
AcDbLine
 10
116.6341027498668
 20
4.434931621960021
 30
0.0
 11
116.6362118783903
 21
4.432822493436578
 31
0.0
  0
LINE
  5
871
330
1F
100
AcDbEntity
  8
0
100
AcDbLine
 10
116.6362118783903
 20
4.432822493436578
 30
0.0
 11
116.6383210069137
 21
4.430713364913135
 31
0.0
  0
LINE
  5
872
330
1F
100
AcDbEntity
  8
0
100
AcDbLine
 10
116.6383210069137
 20
4.430713364913135
 30
0.0
 11
116.6404301354372
 21
4.42860423639151
 31
0.0
  0
LINE
  5
873
330
1F
100
AcDbEntity
  8
0
100
AcDbLine
 10
116.6404301354372
 20
4.42860423639151
 30
0.0
 11
116.6414846996989
 21
4.426495107868067
 31
0.0
  0
LINE
  5
874
330
1F
100
AcDbEntity
  8
0
100
AcDbLine
 10
116.6414846996989
 20
4.426495107868067
 30
0.0
 11
116.6435938282223
 21
4.424385979342805
 31
0.0
  0
LINE
  5
875
330
1F
100
AcDbEntity
  8
0
100
AcDbLine
 10
116.6435938282223
 20
4.424385979342805
 30
0.0
 11
116.6457029567458
 21
4.422276850819361
 31
0.0
  0
LINE
  5
876
330
1F
100
AcDbEntity
  8
0
100
AcDbLine
 10
116.6457029567458
 20
4.422276850819361
 30
0.0
 11
116.6478120852656
 21
4.420167722295918
 31
0.0
  0
LINE
  5
877
330
1F
100
AcDbEntity
  8
0
100
AcDbLine
 10
116.6478120852656
 20
4.420167722295918
 30
0.0
 11
116.6499212137926
 21
4.418058593774293
 31
0.0
  0
LINE
  5
878
330
1F
100
AcDbEntity
  8
0
100
AcDbLine
 10
116.6499212137926
 20
4.418058593774293
 30
0.0
 11
116.6509757780544
 21
4.41594946525085
 31
0.0
  0
LINE
  5
879
330
1F
100
AcDbEntity
  8
0
100
AcDbLine
 10
116.6509757780544
 20
4.41594946525085
 30
0.0
 11
116.6530849065778
 21
4.413840336725588
 31
0.0
  0
LINE
  5
87A
330
1F
100
AcDbEntity
  8
0
100
AcDbLine
 10
116.6530849065778
 20
4.413840336725588
 30
0.0
 11
116.6551940351013
 21
4.411731208202144
 31
0.0
  0
LINE
  5
87B
330
1F
100
AcDbEntity
  8
0
100
AcDbLine
 10
116.6551940351013
 20
4.411731208202144
 30
0.0
 11
116.6573031636247
 21
4.40962207968052
 31
0.0
  0
LINE
  5
87C
330
1F
100
AcDbEntity
  8
0
100
AcDbLine
 10
116.6573031636247
 20
4.40962207968052
 30
0.0
 11
116.6583577278864
 21
4.407512951157077
 31
0.0
  0
LINE
  5
87D
330
1F
100
AcDbEntity
  8
0
100
AcDbLine
 10
116.6583577278864
 20
4.407512951157077
 30
0.0
 11
116.6604668564099
 21
4.405403822633633
 31
0.0
  0
LINE
  5
87E
330
1F
100
AcDbEntity
  8
0
100
AcDbLine
 10
116.6604668564099
 20
4.405403822633633
 30
0.0
 11
116.6625759849333
 21
4.403294694108371
 31
0.0
  0
LINE
  5
87F
330
1F
100
AcDbEntity
  8
0
100
AcDbLine
 10
116.6625759849333
 20
4.403294694108371
 30
0.0
 11
116.6646851134531
 21
4.401185565584928
 31
0.0
  0
LINE
  5
880
330
1F
100
AcDbEntity
  8
0
100
AcDbLine
 10
116.6646851134531
 20
4.401185565584928
 30
0.0
 11
116.6657396777148
 21
4.400131001325025
 31
0.0
  0
LINE
  5
881
330
1F
100
AcDbEntity
  8
0
100
AcDbLine
 10
116.6657396777148
 20
4.400131001325025
 30
0.0
 11
116.6678488062383
 21
4.398021872801582
 31
0.0
  0
LINE
  5
882
330
1F
100
AcDbEntity
  8
0
100
AcDbLine
 10
116.6678488062383
 20
4.398021872801582
 30
0.0
 11
116.6699579347654
 21
4.395912744278138
 31
0.0
  0
LINE
  5
883
330
1F
100
AcDbEntity
  8
0
100
AcDbLine
 10
116.6699579347654
 20
4.395912744278138
 30
0.0
 11
116.6720670632888
 21
4.393803615752876
 31
0.0
  0
LINE
  5
884
330
1F
100
AcDbEntity
  8
0
100
AcDbLine
 10
116.6720670632888
 20
4.393803615752876
 30
0.0
 11
116.6731216275505
 21
4.391694487231251
 31
0.0
  0
LINE
  5
885
330
1F
100
AcDbEntity
  8
0
100
AcDbLine
 10
116.6731216275505
 20
4.391694487231251
 30
0.0
 11
116.675230756074
 21
4.389585358707808
 31
0.0
  0
LINE
  5
886
330
1F
100
AcDbEntity
  8
0
100
AcDbLine
 10
116.675230756074
 20
4.389585358707808
 30
0.0
 11
116.6773398845974
 21
4.387476230184365
 31
0.0
  0
LINE
  5
887
330
1F
100
AcDbEntity
  8
0
100
AcDbLine
 10
116.6773398845974
 20
4.387476230184365
 30
0.0
 11
116.6794490131209
 21
4.385367101660921
 31
0.0
  0
LINE
  5
888
330
1F
100
AcDbEntity
  8
0
100
AcDbLine
 10
116.6794490131209
 20
4.385367101660921
 30
0.0
 11
116.6815581416443
 21
4.383257973135659
 31
0.0
  0
LINE
  5
889
330
1F
100
AcDbEntity
  8
0
100
AcDbLine
 10
116.6815581416443
 20
4.383257973135659
 30
0.0
 11
116.682612705906
 21
4.381148844614035
 31
0.0
  0
LINE
  5
88A
330
1F
100
AcDbEntity
  8
0
100
AcDbLine
 10
116.682612705906
 20
4.381148844614035
 30
0.0
 11
116.6847218344258
 21
4.379039716090591
 31
0.0
  0
LINE
  5
88B
330
1F
100
AcDbEntity
  8
0
100
AcDbLine
 10
116.6847218344258
 20
4.379039716090591
 30
0.0
 11
116.6868309629493
 21
4.376930587567148
 31
0.0
  0
LINE
  5
88C
330
1F
100
AcDbEntity
  8
0
100
AcDbLine
 10
116.6868309629493
 20
4.376930587567148
 30
0.0
 11
116.6889400914727
 21
4.374821459043705
 31
0.0
  0
LINE
  5
88D
330
1F
100
AcDbEntity
  8
0
100
AcDbLine
 10
116.6889400914727
 20
4.374821459043705
 30
0.0
 11
116.6899946557344
 21
4.372712330520261
 31
0.0
  0
LINE
  5
88E
330
1F
100
AcDbEntity
  8
0
100
AcDbLine
 10
116.6899946557344
 20
4.372712330520261
 30
0.0
 11
116.6921037842615
 21
4.370603201996818
 31
0.0
  0
LINE
  5
88F
330
1F
100
AcDbEntity
  8
0
100
AcDbLine
 10
116.6921037842615
 20
4.370603201996818
 30
0.0
 11
116.694212912785
 21
4.368494073473375
 31
0.0
  0
LINE
  5
890
330
1F
100
AcDbEntity
  8
0
100
AcDbLine
 10
116.694212912785
 20
4.368494073473375
 30
0.0
 11
116.6963220413084
 21
4.366384944949931
 31
0.0
  0
LINE
  5
891
330
1F
100
AcDbEntity
  8
0
100
AcDbLine
 10
116.6963220413084
 20
4.366384944949931
 30
0.0
 11
116.6984311698318
 21
4.365330380688209
 31
0.0
  0
LINE
  5
892
330
1F
100
AcDbEntity
  8
0
100
AcDbLine
 10
116.6984311698318
 20
4.365330380688209
 30
0.0
 11
116.6994857340936
 21
4.363221252166585
 31
0.0
  0
LINE
  5
893
330
1F
100
AcDbEntity
  8
0
100
AcDbLine
 10
116.6994857340936
 20
4.363221252166585
 30
0.0
 11
116.701594862617
 21
4.361112123641323
 31
0.0
  0
LINE
  5
894
330
1F
100
AcDbEntity
  8
0
100
AcDbLine
 10
116.701594862617
 20
4.361112123641323
 30
0.0
 11
116.7037039911368
 21
4.359002995117879
 31
0.0
  0
LINE
  5
895
330
1F
100
AcDbEntity
  8
0
100
AcDbLine
 10
116.7037039911368
 20
4.359002995117879
 30
0.0
 11
116.7058131196603
 21
4.356893866594436
 31
0.0
  0
LINE
  5
896
330
1F
100
AcDbEntity
  8
0
100
AcDbLine
 10
116.7058131196603
 20
4.356893866594436
 30
0.0
 11
116.706867683922
 21
4.354784738070993
 31
0.0
  0
LINE
  5
897
330
1F
100
AcDbEntity
  8
0
100
AcDbLine
 10
116.706867683922
 20
4.354784738070993
 30
0.0
 11
116.7089768124454
 21
4.352675609549368
 31
0.0
  0
LINE
  5
898
330
1F
100
AcDbEntity
  8
0
100
AcDbLine
 10
116.7089768124454
 20
4.352675609549368
 30
0.0
 11
116.7110859409689
 21
4.350566481024106
 31
0.0
  0
LINE
  5
899
330
1F
100
AcDbEntity
  8
0
100
AcDbLine
 10
116.7110859409689
 20
4.350566481024106
 30
0.0
 11
116.713195069496
 21
4.348457352500663
 31
0.0
  0
LINE
  5
89A
330
1F
100
AcDbEntity
  8
0
100
AcDbLine
 10
116.713195069496
 20
4.348457352500663
 30
0.0
 11
116.7153041980194
 21
4.346348223977219
 31
0.0
  0
LINE
  5
89B
330
1F
100
AcDbEntity
  8
0
100
AcDbLine
 10
116.7153041980194
 20
4.346348223977219
 30
0.0
 11
116.7163587622811
 21
4.344239095455595
 31
0.0
  0
LINE
  5
89C
330
1F
100
AcDbEntity
  8
0
100
AcDbLine
 10
116.7163587622811
 20
4.344239095455595
 30
0.0
 11
116.7184678908046
 21
4.342129966932152
 31
0.0
  0
LINE
  5
89D
330
1F
100
AcDbEntity
  8
0
100
AcDbLine
 10
116.7184678908046
 20
4.342129966932152
 30
0.0
 11
116.720577019328
 21
4.340020838406889
 31
0.0
  0
LINE
  5
89E
330
1F
100
AcDbEntity
  8
0
100
AcDbLine
 10
116.720577019328
 20
4.340020838406889
 30
0.0
 11
116.7226861478478
 21
4.337911709883446
 31
0.0
  0
LINE
  5
89F
330
1F
100
AcDbEntity
  8
0
100
AcDbLine
 10
116.7226861478478
 20
4.337911709883446
 30
0.0
 11
116.7247952763712
 21
4.336857145621724
 31
0.0
  0
LINE
  5
8A0
330
1F
100
AcDbEntity
  8
0
100
AcDbLine
 10
116.7247952763712
 20
4.336857145621724
 30
0.0
 11
116.725849840633
 21
4.3347480171001
 31
0.0
  0
LINE
  5
8A1
330
1F
100
AcDbEntity
  8
0
100
AcDbLine
 10
116.725849840633
 20
4.3347480171001
 30
0.0
 11
116.7279589691564
 21
4.332638888576656
 31
0.0
  0
LINE
  5
8A2
330
1F
100
AcDbEntity
  8
0
100
AcDbLine
 10
116.7279589691564
 20
4.332638888576656
 30
0.0
 11
116.7300680976799
 21
4.330529760051394
 31
0.0
  0
LINE
  5
8A3
330
1F
100
AcDbEntity
  8
0
100
AcDbLine
 10
116.7300680976799
 20
4.330529760051394
 30
0.0
 11
116.7321772262033
 21
4.328420631527951
 31
0.0
  0
LINE
  5
8A4
330
1F
100
AcDbEntity
  8
0
100
AcDbLine
 10
116.7321772262033
 20
4.328420631527951
 30
0.0
 11
116.7332317904687
 21
4.326311503004507
 31
0.0
  0
LINE
  5
8A5
330
1F
100
AcDbEntity
  8
0
100
AcDbLine
 10
116.7332317904687
 20
4.326311503004507
 30
0.0
 11
116.7353409189921
 21
4.324202374482883
 31
0.0
  0
LINE
  5
8A6
330
1F
100
AcDbEntity
  8
0
100
AcDbLine
 10
116.7353409189921
 20
4.324202374482883
 30
0.0
 11
116.7374500475156
 21
4.32209324595944
 31
0.0
  0
LINE
  5
8A7
330
1F
100
AcDbEntity
  8
0
100
AcDbLine
 10
116.7374500475156
 20
4.32209324595944
 30
0.0
 11
116.739559176039
 21
4.319984117434177
 31
0.0
  0
LINE
  5
8A8
330
1F
100
AcDbEntity
  8
0
100
AcDbLine
 10
116.739559176039
 20
4.319984117434177
 30
0.0
 11
116.7416683045588
 21
4.317874988910734
 31
0.0
  0
LINE
  5
8A9
330
1F
100
AcDbEntity
  8
0
100
AcDbLine
 10
116.7416683045588
 20
4.317874988910734
 30
0.0
 11
116.7427228688205
 21
4.316820424649012
 31
0.0
  0
LINE
  5
8AA
330
1F
100
AcDbEntity
  8
0
100
AcDbLine
 10
116.7427228688205
 20
4.316820424649012
 30
0.0
 11
116.744831997344
 21
4.314711296127388
 31
0.0
  0
LINE
  5
8AB
330
1F
100
AcDbEntity
  8
0
100
AcDbLine
 10
116.744831997344
 20
4.314711296127388
 30
0.0
 11
116.7469411258674
 21
4.312602167603944
 31
0.0
  0
LINE
  5
8AC
330
1F
100
AcDbEntity
  8
0
100
AcDbLine
 10
116.7469411258674
 20
4.312602167603944
 30
0.0
 11
116.7490502543909
 21
4.310493039080501
 31
0.0
  0
LINE
  5
8AD
330
1F
100
AcDbEntity
  8
0
100
AcDbLine
 10
116.7490502543909
 20
4.310493039080501
 30
0.0
 11
116.7511593829143
 21
4.308383910555239
 31
0.0
  0
LINE
  5
8AE
330
1F
100
AcDbEntity
  8
0
100
AcDbLine
 10
116.7511593829143
 20
4.308383910555239
 30
0.0
 11
116.752213947176
 21
4.306274782033614
 31
0.0
  0
LINE
  5
8AF
330
1F
100
AcDbEntity
  8
0
100
AcDbLine
 10
116.752213947176
 20
4.306274782033614
 30
0.0
 11
116.7543230757031
 21
4.304165653510171
 31
0.0
  0
LINE
  5
8B0
330
1F
100
AcDbEntity
  8
0
100
AcDbLine
 10
116.7543230757031
 20
4.304165653510171
 30
0.0
 11
116.7564322042266
 21
4.302056524986728
 31
0.0
  0
LINE
  5
8B1
330
1F
100
AcDbEntity
  8
0
100
AcDbLine
 10
116.7564322042266
 20
4.302056524986728
 30
0.0
 11
116.7585413327463
 21
4.299947396463284
 31
0.0
  0
LINE
  5
8B2
330
1F
100
AcDbEntity
  8
0
100
AcDbLine
 10
116.7585413327463
 20
4.299947396463284
 30
0.0
 11
116.7606504612698
 21
4.298892832199744
 31
0.0
  0
LINE
  5
8B3
330
1F
100
AcDbEntity
  8
0
100
AcDbLine
 10
116.7606504612698
 20
4.298892832199744
 30
0.0
 11
116.7627595897932
 21
4.296783703678119
 31
0.0
  0
LINE
  5
8B4
330
1F
100
AcDbEntity
  8
0
100
AcDbLine
 10
116.7627595897932
 20
4.296783703678119
 30
0.0
 11
116.763814154055
 21
4.294674575154676
 31
0.0
  0
LINE
  5
8B5
330
1F
100
AcDbEntity
  8
0
100
AcDbLine
 10
116.763814154055
 20
4.294674575154676
 30
0.0
 11
116.7659232825784
 21
4.292565446631233
 31
0.0
  0
LINE
  5
8B6
330
1F
100
AcDbEntity
  8
0
100
AcDbLine
 10
116.7659232825784
 20
4.292565446631233
 30
0.0
 11
116.7680324111018
 21
4.290456318107789
 31
0.0
  0
LINE
  5
8B7
330
1F
100
AcDbEntity
  8
0
100
AcDbLine
 10
116.7680324111018
 20
4.290456318107789
 30
0.0
 11
116.7701415396253
 21
4.288347189582527
 31
0.0
  0
LINE
  5
8B8
330
1F
100
AcDbEntity
  8
0
100
AcDbLine
 10
116.7701415396253
 20
4.288347189582527
 30
0.0
 11
116.7722506681487
 21
4.286238061060902
 31
0.0
  0
LINE
  5
8B9
330
1F
100
AcDbEntity
  8
0
100
AcDbLine
 10
116.7722506681487
 20
4.286238061060902
 30
0.0
 11
116.7733052324104
 21
4.284128932537459
 31
0.0
  0
LINE
  5
8BA
330
1F
100
AcDbEntity
  8
0
100
AcDbLine
 10
116.7733052324104
 20
4.284128932537459
 30
0.0
 11
116.7754143609375
 21
4.283074368275737
 31
0.0
  0
LINE
  5
8BB
330
1F
100
AcDbEntity
  8
0
100
AcDbLine
 10
116.7754143609375
 20
4.283074368275737
 30
0.0
 11
116.777523489461
 21
4.280965239752294
 31
0.0
  0
LINE
  5
8BC
330
1F
100
AcDbEntity
  8
0
100
AcDbLine
 10
116.777523489461
 20
4.280965239752294
 30
0.0
 11
116.7796326179808
 21
4.278856111227032
 31
0.0
  0
LINE
  5
8BD
330
1F
100
AcDbEntity
  8
0
100
AcDbLine
 10
116.7796326179808
 20
4.278856111227032
 30
0.0
 11
116.7817417465042
 21
4.276746982705407
 31
0.0
  0
LINE
  5
8BE
330
1F
100
AcDbEntity
  8
0
100
AcDbLine
 10
116.7817417465042
 20
4.276746982705407
 30
0.0
 11
116.7838508750277
 21
4.274637854181964
 31
0.0
  0
LINE
  5
8BF
330
1F
100
AcDbEntity
  8
0
100
AcDbLine
 10
116.7838508750277
 20
4.274637854181964
 30
0.0
 11
116.7849054392894
 21
4.272528725658521
 31
0.0
  0
LINE
  5
8C0
330
1F
100
AcDbEntity
  8
0
100
AcDbLine
 10
116.7849054392894
 20
4.272528725658521
 30
0.0
 11
116.7870145678128
 21
4.271474161396799
 31
0.0
  0
LINE
  5
8C1
330
1F
100
AcDbEntity
  8
0
100
AcDbLine
 10
116.7870145678128
 20
4.271474161396799
 30
0.0
 11
116.7891236963363
 21
4.269365032873356
 31
0.0
  0
LINE
  5
8C2
330
1F
100
AcDbEntity
  8
0
100
AcDbLine
 10
116.7891236963363
 20
4.269365032873356
 30
0.0
 11
116.7912328248597
 21
4.267255904349912
 31
0.0
  0
LINE
  5
8C3
330
1F
100
AcDbEntity
  8
0
100
AcDbLine
 10
116.7912328248597
 20
4.267255904349912
 30
0.0
 11
116.7933419533832
 21
4.265146775826469
 31
0.0
  0
LINE
  5
8C4
330
1F
100
AcDbEntity
  8
0
100
AcDbLine
 10
116.7933419533832
 20
4.265146775826469
 30
0.0
 11
116.7954510819102
 21
4.263037647303026
 31
0.0
  0
LINE
  5
8C5
330
1F
100
AcDbEntity
  8
0
100
AcDbLine
 10
116.7954510819102
 20
4.263037647303026
 30
0.0
 11
116.7965056461647
 21
4.260928518779582
 31
0.0
  0
LINE
  5
8C6
330
1F
100
AcDbEntity
  8
0
100
AcDbLine
 10
116.7965056461647
 20
4.260928518779582
 30
0.0
 11
116.7986147746918
 21
4.259873954519679
 31
0.0
  0
LINE
  5
8C7
330
1F
100
AcDbEntity
  8
0
100
AcDbLine
 10
116.7986147746918
 20
4.259873954519679
 30
0.0
 11
116.8007239032152
 21
4.257764825996236
 31
0.0
  0
LINE
  5
8C8
330
1F
100
AcDbEntity
  8
0
100
AcDbLine
 10
116.8007239032152
 20
4.257764825996236
 30
0.0
 11
116.8028330317387
 21
4.255655697470974
 31
0.0
  0
LINE
  5
8C9
330
1F
100
AcDbEntity
  8
0
100
AcDbLine
 10
116.8028330317387
 20
4.255655697470974
 30
0.0
 11
116.8049421602621
 21
4.25354656894753
 31
0.0
  0
LINE
  5
8CA
330
1F
100
AcDbEntity
  8
0
100
AcDbLine
 10
116.8049421602621
 20
4.25354656894753
 30
0.0
 11
116.8070512887855
 21
4.251437440424087
 31
0.0
  0
LINE
  5
8CB
330
1F
100
AcDbEntity
  8
0
100
AcDbLine
 10
116.8070512887855
 20
4.251437440424087
 30
0.0
 11
116.809160417309
 21
4.249328311902463
 31
0.0
  0
LINE
  5
8CC
330
1F
100
AcDbEntity
  8
0
100
AcDbLine
 10
116.809160417309
 20
4.249328311902463
 30
0.0
 11
116.8102149815707
 21
4.248273747640741
 31
0.0
  0
LINE
  5
8CD
330
1F
100
AcDbEntity
  8
0
100
AcDbLine
 10
116.8102149815707
 20
4.248273747640741
 30
0.0
 11
116.8123241100942
 21
4.246164619115479
 31
0.0
  0
LINE
  5
8CE
330
1F
100
AcDbEntity
  8
0
100
AcDbLine
 10
116.8123241100942
 20
4.246164619115479
 30
0.0
 11
116.8144332386176
 21
4.244055490592035
 31
0.0
  0
LINE
  5
8CF
330
1F
100
AcDbEntity
  8
0
100
AcDbLine
 10
116.8144332386176
 20
4.244055490592035
 30
0.0
 11
116.8165423671374
 21
4.241946362068592
 31
0.0
  0
LINE
  5
8D0
330
1F
100
AcDbEntity
  8
0
100
AcDbLine
 10
116.8165423671374
 20
4.241946362068592
 30
0.0
 11
116.8186514956645
 21
4.239837233546968
 31
0.0
  0
LINE
  5
8D1
330
1F
100
AcDbEntity
  8
0
100
AcDbLine
 10
116.8186514956645
 20
4.239837233546968
 30
0.0
 11
116.8207606241879
 21
4.238782669285246
 31
0.0
  0
LINE
  5
8D2
330
1F
100
AcDbEntity
  8
0
100
AcDbLine
 10
116.8207606241879
 20
4.238782669285246
 30
0.0
 11
116.8228697527114
 21
4.236673540761803
 31
0.0
  0
LINE
  5
8D3
330
1F
100
AcDbEntity
  8
0
100
AcDbLine
 10
116.8228697527114
 20
4.236673540761803
 30
0.0
 11
116.8239243169731
 21
4.23456441223654
 31
0.0
  0
LINE
  5
8D4
330
1F
100
AcDbEntity
  8
0
100
AcDbLine
 10
116.8239243169731
 20
4.23456441223654
 30
0.0
 11
116.8260334454965
 21
4.232455283713097
 31
0.0
  0
LINE
  5
8D5
330
1F
100
AcDbEntity
  8
0
100
AcDbLine
 10
116.8260334454965
 20
4.232455283713097
 30
0.0
 11
116.82814257402
 21
4.231400719453194
 31
0.0
  0
LINE
  5
8D6
330
1F
100
AcDbEntity
  8
0
100
AcDbLine
 10
116.82814257402
 20
4.231400719453194
 30
0.0
 11
116.8302517025434
 21
4.229291590929751
 31
0.0
  0
LINE
  5
8D7
330
1F
100
AcDbEntity
  8
0
100
AcDbLine
 10
116.8302517025434
 20
4.229291590929751
 30
0.0
 11
116.8323608310669
 21
4.227182462406307
 31
0.0
  0
LINE
  5
8D8
330
1F
100
AcDbEntity
  8
0
100
AcDbLine
 10
116.8323608310669
 20
4.227182462406307
 30
0.0
 11
116.8344699595867
 21
4.225073333881045
 31
0.0
  0
LINE
  5
8D9
330
1F
100
AcDbEntity
  8
0
100
AcDbLine
 10
116.8344699595867
 20
4.225073333881045
 30
0.0
 11
116.8365790881101
 21
4.222964205357602
 31
0.0
  0
LINE
  5
8DA
330
1F
100
AcDbEntity
  8
0
100
AcDbLine
 10
116.8365790881101
 20
4.222964205357602
 30
0.0
 11
116.8386882166372
 21
4.221909641097699
 31
0.0
  0
LINE
  5
8DB
330
1F
100
AcDbEntity
  8
0
100
AcDbLine
 10
116.8386882166372
 20
4.221909641097699
 30
0.0
 11
116.8397427808989
 21
4.219800512574256
 31
0.0
  0
LINE
  5
8DC
330
1F
100
AcDbEntity
  8
0
100
AcDbLine
 10
116.8397427808989
 20
4.219800512574256
 30
0.0
 11
116.8418519094224
 21
4.217691384050812
 31
0.0
  0
LINE
  5
8DD
330
1F
100
AcDbEntity
  8
0
100
AcDbLine
 10
116.8418519094224
 20
4.217691384050812
 30
0.0
 11
116.8439610379458
 21
4.215582255527369
 31
0.0
  0
LINE
  5
8DE
330
1F
100
AcDbEntity
  8
0
100
AcDbLine
 10
116.8439610379458
 20
4.215582255527369
 30
0.0
 11
116.8460701664693
 21
4.214527691263828
 31
0.0
  0
LINE
  5
8DF
330
1F
100
AcDbEntity
  8
0
100
AcDbLine
 10
116.8460701664693
 20
4.214527691263828
 30
0.0
 11
116.8481792949927
 21
4.212418562742204
 31
0.0
  0
LINE
  5
8E0
330
1F
100
AcDbEntity
  8
0
100
AcDbLine
 10
116.8481792949927
 20
4.212418562742204
 30
0.0
 11
116.8502884235161
 21
4.210309434218761
 31
0.0
  0
LINE
  5
8E1
330
1F
100
AcDbEntity
  8
0
100
AcDbLine
 10
116.8502884235161
 20
4.210309434218761
 30
0.0
 11
116.8523975520396
 21
4.208200305695317
 31
0.0
  0
LINE
  5
8E2
330
1F
100
AcDbEntity
  8
0
100
AcDbLine
 10
116.8523975520396
 20
4.208200305695317
 30
0.0
 11
116.8545066805594
 21
4.207145741433595
 31
0.0
  0
LINE
  5
8E3
330
1F
100
AcDbEntity
  8
0
100
AcDbLine
 10
116.8545066805594
 20
4.207145741433595
 30
0.0
 11
116.8566158090828
 21
4.205036612908333
 31
0.0
  0
LINE
  5
8E4
330
1F
100
AcDbEntity
  8
0
100
AcDbLine
 10
116.8566158090828
 20
4.205036612908333
 30
0.0
 11
116.8587249376063
 21
4.202927484386709
 31
0.0
  0
TEXT
  5
8E5
330
1F
100
AcDbEntity
  8
0
100
AcDbText
 10
122.738210409257
 20
7.706873610814472
 30
0.0
 40
0.8216813206097356
  1
図面名
  7
ゴシック
100
AcDbText
  0
TEXT
  5
8E6
330
1F
100
AcDbEntity
  8
0
100
AcDbText
 10
122.7152700678192
 20
10.68646374325592
 30
0.0
 40
0.8216813206097356
  1
製品名
  7
ゴシック
100
AcDbText
  0
LINE
  5
8E7
330
1F
100
AcDbEntity
  8
0
100
AcDbLine
 10
117.5304823723121
 20
3.854921278024011
 30
0.0
 11
117.534700629359
 21
3.853866713764109
 31
0.0
  0
LINE
  5
8E8
330
1F
100
AcDbEntity
  8
0
100
AcDbLine
 10
117.534700629359
 20
3.853866713764109
 30
0.0
 11
117.5399734506676
 21
3.851757585240665
 31
0.0
  0
LINE
  5
8E9
330
1F
100
AcDbEntity
  8
0
100
AcDbLine
 10
117.5399734506676
 20
3.851757585240665
 30
0.0
 11
117.5452462719762
 21
3.850703020978944
 31
0.0
  0
LINE
  5
8EA
330
1F
100
AcDbEntity
  8
0
100
AcDbLine
 10
117.5452462719762
 20
3.850703020978944
 30
0.0
 11
117.5494645290194
 21
3.849648456717222
 31
0.0
  0
LINE
  5
8EB
330
1F
100
AcDbEntity
  8
0
100
AcDbLine
 10
117.5494645290194
 20
3.849648456717222
 30
0.0
 11
117.554737350328
 21
3.847539328193779
 31
0.0
  0
LINE
  5
8EC
330
1F
100
AcDbEntity
  8
0
100
AcDbLine
 10
117.554737350328
 20
3.847539328193779
 30
0.0
 11
117.5600101716403
 21
3.846484763930238
 31
0.0
  0
LINE
  5
8ED
330
1F
100
AcDbEntity
  8
0
100
AcDbLine
 10
117.5600101716403
 20
3.846484763930238
 30
0.0
 11
117.5642284286872
 21
3.845430199670335
 31
0.0
  0
LINE
  5
8EE
330
1F
100
AcDbEntity
  8
0
100
AcDbLine
 10
117.5642284286872
 20
3.845430199670335
 30
0.0
 11
117.5695012499921
 21
3.844375635408614
 31
0.0
  0
LINE
  5
8EF
330
1F
100
AcDbEntity
  8
0
100
AcDbLine
 10
117.5695012499921
 20
3.844375635408614
 30
0.0
 11
117.5747740713007
 21
3.84226650688517
 31
0.0
  0
LINE
  5
8F0
330
1F
100
AcDbEntity
  8
0
100
AcDbLine
 10
117.5747740713007
 20
3.84226650688517
 30
0.0
 11
117.5789923283513
 21
3.841211942623449
 31
0.0
  0
LINE
  5
8F1
330
1F
100
AcDbEntity
  8
0
100
AcDbLine
 10
117.5789923283513
 20
3.841211942623449
 30
0.0
 11
117.5842651496599
 21
3.840157378361727
 31
0.0
  0
LINE
  5
8F2
330
1F
100
AcDbEntity
  8
0
100
AcDbLine
 10
117.5842651496599
 20
3.840157378361727
 30
0.0
 11
117.5895379709648
 21
3.839102814100005
 31
0.0
  0
LINE
  5
8F3
330
1F
100
AcDbEntity
  8
0
100
AcDbLine
 10
117.5895379709648
 20
3.839102814100005
 30
0.0
 11
117.5948107922734
 21
3.836993685576562
 31
0.0
  0
LINE
  5
8F4
330
1F
100
AcDbEntity
  8
0
100
AcDbLine
 10
117.5948107922734
 20
3.836993685576562
 30
0.0
 11
117.599029049324
 21
3.835939121316659
 31
0.0
  0
LINE
  5
8F5
330
1F
100
AcDbEntity
  8
0
100
AcDbLine
 10
117.599029049324
 20
3.835939121316659
 30
0.0
 11
117.6043018706326
 21
3.834884557053118
 31
0.0
  0
LINE
  5
8F6
330
1F
100
AcDbEntity
  8
0
100
AcDbLine
 10
117.6043018706326
 20
3.834884557053118
 30
0.0
 11
117.6095746919376
 21
3.833829992791397
 31
0.0
  0
LINE
  5
8F7
330
1F
100
AcDbEntity
  8
0
100
AcDbLine
 10
117.6095746919376
 20
3.833829992791397
 30
0.0
 11
117.6137929489844
 21
3.831720864267953
 31
0.0
  0
LINE
  5
8F8
330
1F
100
AcDbEntity
  8
0
100
AcDbLine
 10
117.6137929489844
 20
3.831720864267953
 30
0.0
 11
117.6190657702967
 21
3.830666300006232
 31
0.0
  0
LINE
  5
8F9
330
1F
100
AcDbEntity
  8
0
100
AcDbLine
 10
117.6190657702967
 20
3.830666300006232
 30
0.0
 11
117.6243385916053
 21
3.82961173574451
 31
0.0
  0
LINE
  5
8FA
330
1F
100
AcDbEntity
  8
0
100
AcDbLine
 10
117.6243385916053
 20
3.82961173574451
 30
0.0
 11
117.6296114129103
 21
3.828557171482788
 31
0.0
  0
LINE
  5
8FB
330
1F
100
AcDbEntity
  8
0
100
AcDbLine
 10
117.6296114129103
 20
3.828557171482788
 30
0.0
 11
117.6338296699572
 21
3.827502607221067
 31
0.0
  0
LINE
  5
8FC
330
1F
100
AcDbEntity
  8
0
100
AcDbLine
 10
117.6338296699572
 20
3.827502607221067
 30
0.0
 11
117.6391024912694
 21
3.825393478699442
 31
0.0
  0
LINE
  5
8FD
330
1F
100
AcDbEntity
  8
0
100
AcDbLine
 10
117.6391024912694
 20
3.825393478699442
 30
0.0
 11
117.6443753125744
 21
3.824338914435902
 31
0.0
  0
LINE
  5
8FE
330
1F
100
AcDbEntity
  8
0
100
AcDbLine
 10
117.6443753125744
 20
3.824338914435902
 30
0.0
 11
117.649648133883
 21
3.82328435017418
 31
0.0
  0
LINE
  5
8FF
330
1F
100
AcDbEntity
  8
0
100
AcDbLine
 10
117.649648133883
 20
3.82328435017418
 30
0.0
 11
117.6538663909299
 21
3.822229785912458
 31
0.0
  0
LINE
  5
900
330
1F
100
AcDbEntity
  8
0
100
AcDbLine
 10
117.6538663909299
 20
3.822229785912458
 30
0.0
 11
117.6591392122385
 21
3.821175221650737
 31
0.0
  0
LINE
  5
901
330
1F
100
AcDbEntity
  8
0
100
AcDbLine
 10
117.6591392122385
 20
3.821175221650737
 30
0.0
 11
117.6644120335471
 21
3.820120657389015
 31
0.0
  0
LINE
  5
902
330
1F
100
AcDbEntity
  8
0
100
AcDbLine
 10
117.6644120335471
 20
3.820120657389015
 30
0.0
 11
117.6696848548557
 21
3.819066093127293
 31
0.0
  0
LINE
  5
903
330
1F
100
AcDbEntity
  8
0
100
AcDbLine
 10
117.6696848548557
 20
3.819066093127293
 30
0.0
 11
117.6749576761643
 21
3.816956964605669
 31
0.0
  0
LINE
  5
904
330
1F
100
AcDbEntity
  8
0
100
AcDbLine
 10
117.6749576761643
 20
3.816956964605669
 30
0.0
 11
117.6791759332112
 21
3.815902400343947
 31
0.0
  0
LINE
  5
905
330
1F
100
AcDbEntity
  8
0
100
AcDbLine
 10
117.6791759332112
 20
3.815902400343947
 30
0.0
 11
117.6844487545198
 21
3.814847836080407
 31
0.0
  0
LINE
  5
906
330
1F
100
AcDbEntity
  8
0
100
AcDbLine
 10
117.6844487545198
 20
3.814847836080407
 30
0.0
 11
117.6897215758284
 21
3.813793271818685
 31
0.0
  0
LINE
  5
907
330
1F
100
AcDbEntity
  8
0
100
AcDbLine
 10
117.6897215758284
 20
3.813793271818685
 30
0.0
 11
117.694994397137
 21
3.812738707556963
 31
0.0
  0
LINE
  5
908
330
1F
100
AcDbEntity
  8
0
100
AcDbLine
 10
117.694994397137
 20
3.812738707556963
 30
0.0
 11
117.7002672184456
 21
3.811684143295241
 31
0.0
  0
LINE
  5
909
330
1F
100
AcDbEntity
  8
0
100
AcDbLine
 10
117.7002672184456
 20
3.811684143295241
 30
0.0
 11
117.7044854754925
 21
3.81062957903352
 31
0.0
  0
LINE
  5
90A
330
1F
100
AcDbEntity
  8
0
100
AcDbLine
 10
117.7044854754925
 20
3.81062957903352
 30
0.0
 11
117.7097582968011
 21
3.809575014771798
 31
0.0
  0
LINE
  5
90B
330
1F
100
AcDbEntity
  8
0
100
AcDbLine
 10
117.7097582968011
 20
3.809575014771798
 30
0.0
 11
117.7150311181097
 21
3.808520450510076
 31
0.0
  0
LINE
  5
90C
330
1F
100
AcDbEntity
  8
0
100
AcDbLine
 10
117.7150311181097
 20
3.808520450510076
 30
0.0
 11
117.7203039394147
 21
3.807465886250174
 31
0.0
  0
LINE
  5
90D
330
1F
100
AcDbEntity
  8
0
100
AcDbLine
 10
117.7203039394147
 20
3.807465886250174
 30
0.0
 11
117.7255767607269
 21
3.80535675772673
 31
0.0
  0
LINE
  5
90E
330
1F
100
AcDbEntity
  8
0
100
AcDbLine
 10
117.7255767607269
 20
3.80535675772673
 30
0.0
 11
117.7297950177738
 21
3.80430219346319
 31
0.0
  0
LINE
  5
90F
330
1F
100
AcDbEntity
  8
0
100
AcDbLine
 10
117.7297950177738
 20
3.80430219346319
 30
0.0
 11
117.7350678390824
 21
3.803247629201468
 31
0.0
  0
LINE
  5
910
330
1F
100
AcDbEntity
  8
0
100
AcDbLine
 10
117.7350678390824
 20
3.803247629201468
 30
0.0
 11
117.7403406603874
 21
3.802193064939746
 31
0.0
  0
LINE
  5
911
330
1F
100
AcDbEntity
  8
0
100
AcDbLine
 10
117.7403406603874
 20
3.802193064939746
 30
0.0
 11
117.7456134816996
 21
3.801138500678025
 31
0.0
  0
LINE
  5
912
330
1F
100
AcDbEntity
  8
0
100
AcDbLine
 10
117.7456134816996
 20
3.801138500678025
 30
0.0
 11
117.7508863030083
 21
3.800083936416303
 31
0.0
  0
LINE
  5
913
330
1F
100
AcDbEntity
  8
0
100
AcDbLine
 10
117.7508863030083
 20
3.800083936416303
 30
0.0
 11
117.7561591243169
 21
3.799029372154581
 31
0.0
  0
LINE
  5
914
330
1F
100
AcDbEntity
  8
0
100
AcDbLine
 10
117.7561591243169
 20
3.799029372154581
 30
0.0
 11
117.7603773813601
 21
3.797974807894679
 31
0.0
  0
LINE
  5
915
330
1F
100
AcDbEntity
  8
0
100
AcDbLine
 10
117.7603773813601
 20
3.797974807894679
 30
0.0
 11
117.7656502026724
 21
3.796920243632957
 31
0.0
  0
LINE
  5
916
330
1F
100
AcDbEntity
  8
0
100
AcDbLine
 10
117.7656502026724
 20
3.796920243632957
 30
0.0
 11
117.770923023981
 21
3.795865679371235
 31
0.0
  0
LINE
  5
917
330
1F
100
AcDbEntity
  8
0
100
AcDbLine
 10
117.770923023981
 20
3.795865679371235
 30
0.0
 11
117.776195845286
 21
3.794811115109514
 31
0.0
  0
LINE
  5
918
330
1F
100
AcDbEntity
  8
0
100
AcDbLine
 10
117.776195845286
 20
3.794811115109514
 30
0.0
 11
117.7814686665946
 21
3.793756550845973
 31
0.0
  0
LINE
  5
919
330
1F
100
AcDbEntity
  8
0
100
AcDbLine
 10
117.7814686665946
 20
3.793756550845973
 30
0.0
 11
117.7867414879068
 21
3.792701986584251
 31
0.0
  0
LINE
  5
91A
330
1F
100
AcDbEntity
  8
0
100
AcDbLine
 10
117.7867414879068
 20
3.792701986584251
 30
0.0
 11
117.7909597449537
 21
3.79164742232253
 31
0.0
  0
LINE
  5
91B
330
1F
100
AcDbEntity
  8
0
100
AcDbLine
 10
117.7909597449537
 20
3.79164742232253
 30
0.0
 11
117.7962325662587
 21
3.790592858060808
 31
0.0
  0
LINE
  5
91C
330
1F
100
AcDbEntity
  8
0
100
AcDbLine
 10
117.7962325662587
 20
3.790592858060808
 30
0.0
 11
117.8015053875673
 21
3.789538293799086
 31
0.0
  0
LINE
  5
91D
330
1F
100
AcDbEntity
  8
0
100
AcDbLine
 10
117.8015053875673
 20
3.789538293799086
 30
0.0
 11
117.8067782088759
 21
3.788483729539183
 31
0.0
  0
LINE
  5
91E
330
1F
100
AcDbEntity
  8
0
100
AcDbLine
 10
117.8067782088759
 20
3.788483729539183
 30
0.0
 11
117.8120510301881
 21
3.787429165277462
 31
0.0
  0
LINE
  5
91F
330
1F
100
AcDbEntity
  8
0
100
AcDbLine
 10
117.8120510301881
 20
3.787429165277462
 30
0.0
 11
117.8173238514931
 21
3.78637460101574
 31
0.0
  0
LINE
  5
920
330
1F
100
AcDbEntity
  8
0
100
AcDbLine
 10
117.8173238514931
 20
3.78637460101574
 30
0.0
 11
117.8225966728017
 21
3.785320036754018
 31
0.0
  0
LINE
  5
921
330
1F
100
AcDbEntity
  8
0
100
AcDbLine
 10
117.8225966728017
 20
3.785320036754018
 30
0.0
 11
117.8278694941103
 21
3.784265472492297
 31
0.0
  0
LINE
  5
922
330
1F
100
AcDbEntity
  8
0
100
AcDbLine
 10
117.8278694941103
 20
3.784265472492297
 30
0.0
 11
117.8320877511608
 21
3.783210908228756
 31
0.0
  0
LINE
  5
923
330
1F
100
AcDbEntity
  8
0
100
AcDbLine
 10
117.8320877511608
 20
3.783210908228756
 30
0.0
 11
117.8373605724658
 21
3.782156343967034
 31
0.0
  0
LINE
  5
924
330
1F
100
AcDbEntity
  8
0
100
AcDbLine
 10
117.8373605724658
 20
3.782156343967034
 30
0.0
 11
117.8426333937744
 21
3.781101779705313
 31
0.0
  0
LINE
  5
925
330
1F
100
AcDbEntity
  8
0
100
AcDbLine
 10
117.8426333937744
 20
3.781101779705313
 30
0.0
 11
117.847906215083
 21
3.780047215443591
 31
0.0
  0
LINE
  5
926
330
1F
100
AcDbEntity
  8
0
100
AcDbLine
 10
117.847906215083
 20
3.780047215443591
 30
0.0
 11
117.8531790363916
 21
3.778992651183688
 31
0.0
  0
LINE
  5
927
330
1F
100
AcDbEntity
  8
0
100
AcDbLine
 10
117.8531790363916
 20
3.778992651183688
 30
0.0
 11
117.8584518577002
 21
3.777938086921967
 31
0.0
  0
LINE
  5
928
330
1F
100
AcDbEntity
  8
0
100
AcDbLine
 10
117.8584518577002
 20
3.777938086921967
 30
0.0
 11
117.8637246790088
 21
3.776883522660245
 31
0.0
  0
LINE
  5
929
330
1F
100
AcDbEntity
  8
0
100
AcDbLine
 10
117.8637246790088
 20
3.776883522660245
 30
0.0
 11
117.8689975003174
 21
3.775828958398523
 31
0.0
  0
LINE
  5
92A
330
1F
100
AcDbEntity
  8
0
100
AcDbLine
 10
117.8689975003174
 20
3.775828958398523
 30
0.0
 11
117.8742703216261
 21
3.774774394136802
 31
0.0
  0
LINE
  5
92B
330
1F
100
AcDbEntity
  8
0
100
AcDbLine
 10
117.8742703216261
 20
3.774774394136802
 30
0.0
 11
117.878488578673
 21
3.77371982987508
 31
0.0
  0
LINE
  5
92C
330
1F
100
AcDbEntity
  8
0
100
AcDbLine
 10
117.878488578673
 20
3.77371982987508
 30
0.0
 11
117.8837613999816
 21
3.772665265611539
 31
0.0
  0
LINE
  5
92D
330
1F
100
AcDbEntity
  8
0
100
AcDbLine
 10
117.8837613999816
 20
3.772665265611539
 30
0.0
 11
117.8890342212865
 21
3.772665265611539
 31
0.0
  0
LINE
  5
92E
330
1F
100
AcDbEntity
  8
0
100
AcDbLine
 10
117.8890342212865
 20
3.772665265611539
 30
0.0
 11
117.8943070425988
 21
3.771610701349818
 31
0.0
  0
LINE
  5
92F
330
1F
100
AcDbEntity
  8
0
100
AcDbLine
 10
117.8943070425988
 20
3.771610701349818
 30
0.0
 11
117.8995798639074
 21
3.770556137088096
 31
0.0
  0
LINE
  5
930
330
1F
100
AcDbEntity
  8
0
100
AcDbLine
 10
117.8995798639074
 20
3.770556137088096
 30
0.0
 11
117.904852685216
 21
3.769501572828193
 31
0.0
  0
LINE
  5
931
330
1F
100
AcDbEntity
  8
0
100
AcDbLine
 10
117.904852685216
 20
3.769501572828193
 30
0.0
 11
117.910125506521
 21
3.768447008566472
 31
0.0
  0
LINE
  5
932
330
1F
100
AcDbEntity
  8
0
100
AcDbLine
 10
117.910125506521
 20
3.768447008566472
 30
0.0
 11
117.9153983278332
 21
3.76739244430475
 31
0.0
  0
LINE
  5
933
330
1F
100
AcDbEntity
  8
0
100
AcDbLine
 10
117.9153983278332
 20
3.76739244430475
 30
0.0
 11
117.9206711491418
 21
3.766337880043028
 31
0.0
  0
LINE
  5
934
330
1F
100
AcDbEntity
  8
0
100
AcDbLine
 10
117.9206711491418
 20
3.766337880043028
 30
0.0
 11
117.9259439704504
 21
3.765283315781307
 31
0.0
  0
LINE
  5
935
330
1F
100
AcDbEntity
  8
0
100
AcDbLine
 10
117.9259439704504
 20
3.765283315781307
 30
0.0
 11
117.9312167917554
 21
3.764228751519585
 31
0.0
  0
LINE
  5
936
330
1F
100
AcDbEntity
  8
0
100
AcDbLine
 10
117.9312167917554
 20
3.764228751519585
 30
0.0
 11
117.9354350488059
 21
3.763174187257863
 31
0.0
  0
LINE
  5
937
330
1F
100
AcDbEntity
  8
0
100
AcDbLine
 10
117.9354350488059
 20
3.763174187257863
 30
0.0
 11
117.9407078701145
 21
3.762119622994323
 31
0.0
  0
LINE
  5
938
330
1F
100
AcDbEntity
  8
0
100
AcDbLine
 10
117.9407078701145
 20
3.762119622994323
 30
0.0
 11
117.9459806914195
 21
3.761065058732601
 31
0.0
  0
LINE
  5
939
330
1F
100
AcDbEntity
  8
0
100
AcDbLine
 10
117.9459806914195
 20
3.761065058732601
 30
0.0
 11
117.9512535127281
 21
3.761065058732601
 31
0.0
  0
LINE
  5
93A
330
1F
100
AcDbEntity
  8
0
100
AcDbLine
 10
117.9512535127281
 20
3.761065058732601
 30
0.0
 11
117.9565263340403
 21
3.760010494472698
 31
0.0
  0
LINE
  5
93B
330
1F
100
AcDbEntity
  8
0
100
AcDbLine
 10
117.9565263340403
 20
3.760010494472698
 30
0.0
 11
117.961799155349
 21
3.758955930210976
 31
0.0
  0
LINE
  5
93C
330
1F
100
AcDbEntity
  8
0
100
AcDbLine
 10
117.961799155349
 20
3.758955930210976
 30
0.0
 11
117.9670719766539
 21
3.757901365949255
 31
0.0
  0
LINE
  5
93D
330
1F
100
AcDbEntity
  8
0
100
AcDbLine
 10
117.9670719766539
 20
3.757901365949255
 30
0.0
 11
117.9723447979625
 21
3.756846801687533
 31
0.0
  0
LINE
  5
93E
330
1F
100
AcDbEntity
  8
0
100
AcDbLine
 10
117.9723447979625
 20
3.756846801687533
 30
0.0
 11
117.9776176192748
 21
3.755792237425811
 31
0.0
  0
LINE
  5
93F
330
1F
100
AcDbEntity
  8
0
100
AcDbLine
 10
117.9776176192748
 20
3.755792237425811
 30
0.0
 11
117.9828904405798
 21
3.75473767316409
 31
0.0
  0
LINE
  5
940
330
1F
100
AcDbEntity
  8
0
100
AcDbLine
 10
117.9828904405798
 20
3.75473767316409
 30
0.0
 11
117.9881632618884
 21
3.753683108902368
 31
0.0
  0
LINE
  5
941
330
1F
100
AcDbEntity
  8
0
100
AcDbLine
 10
117.9881632618884
 20
3.753683108902368
 30
0.0
 11
117.993436083197
 21
3.752628544640646
 31
0.0
  0
LINE
  5
942
330
1F
100
AcDbEntity
  8
0
100
AcDbLine
 10
117.993436083197
 20
3.752628544640646
 30
0.0
 11
117.9987089045092
 21
3.752628544640646
 31
0.0
  0
LINE
  5
943
330
1F
100
AcDbEntity
  8
0
100
AcDbLine
 10
117.9987089045092
 20
3.752628544640646
 30
0.0
 11
118.0039817258142
 21
3.751573980377106
 31
0.0
  0
LINE
  5
944
330
1F
100
AcDbEntity
  8
0
100
AcDbLine
 10
118.0039817258142
 20
3.751573980377106
 30
0.0
 11
118.0081999828611
 21
3.750519416117203
 31
0.0
  0
LINE
  5
945
330
1F
100
AcDbEntity
  8
0
100
AcDbLine
 10
118.0081999828611
 20
3.750519416117203
 30
0.0
 11
118.0134728041697
 21
3.749464851855481
 31
0.0
  0
LINE
  5
946
330
1F
100
AcDbEntity
  8
0
100
AcDbLine
 10
118.0134728041697
 20
3.749464851855481
 30
0.0
 11
118.0187456254819
 21
3.74841028759376
 31
0.0
  0
LINE
  5
947
330
1F
100
AcDbEntity
  8
0
100
AcDbLine
 10
118.0187456254819
 20
3.74841028759376
 30
0.0
 11
118.0240184467869
 21
3.747355723332038
 31
0.0
  0
LINE
  5
948
330
1F
100
AcDbEntity
  8
0
100
AcDbLine
 10
118.0240184467869
 20
3.747355723332038
 30
0.0
 11
118.0292912680955
 21
3.746301159070316
 31
0.0
  0
LINE
  5
949
330
1F
100
AcDbEntity
  8
0
100
AcDbLine
 10
118.0292912680955
 20
3.746301159070316
 30
0.0
 11
118.0345640894041
 21
3.746301159070316
 31
0.0
  0
LINE
  5
94A
330
1F
100
AcDbEntity
  8
0
100
AcDbLine
 10
118.0345640894041
 20
3.746301159070316
 30
0.0
 11
118.0398369107091
 21
3.745246594808595
 31
0.0
  0
LINE
  5
94B
330
1F
100
AcDbEntity
  8
0
100
AcDbLine
 10
118.0398369107091
 20
3.745246594808595
 30
0.0
 11
118.0451097320213
 21
3.744192030546873
 31
0.0
  0
LINE
  5
94C
330
1F
100
AcDbEntity
  8
0
100
AcDbLine
 10
118.0451097320213
 20
3.744192030546873
 30
0.0
 11
118.05038255333
 21
3.743137466285151
 31
0.0
  0
LINE
  5
94D
330
1F
100
AcDbEntity
  8
0
100
AcDbLine
 10
118.05038255333
 20
3.743137466285151
 30
0.0
 11
118.0556553746386
 21
3.74208290202343
 31
0.0
  0
LINE
  5
94E
330
1F
100
AcDbEntity
  8
0
100
AcDbLine
 10
118.0556553746386
 20
3.74208290202343
 30
0.0
 11
118.0609281959472
 21
3.741028337763527
 31
0.0
  0
LINE
  5
94F
330
1F
100
AcDbEntity
  8
0
100
AcDbLine
 10
118.0609281959472
 20
3.741028337763527
 30
0.0
 11
118.0662010172558
 21
3.739973773499986
 31
0.0
  0
LINE
  5
950
330
1F
100
AcDbEntity
  8
0
100
AcDbLine
 10
118.0662010172558
 20
3.739973773499986
 30
0.0
 11
118.0714738385644
 21
3.739973773499986
 31
0.0
  0
LINE
  5
951
330
1F
100
AcDbEntity
  8
0
100
AcDbLine
 10
118.0714738385644
 20
3.739973773499986
 30
0.0
 11
118.0767466598694
 21
3.738919209238265
 31
0.0
  0
LINE
  5
952
330
1F
100
AcDbEntity
  8
0
100
AcDbLine
 10
118.0767466598694
 20
3.738919209238265
 30
0.0
 11
118.0820194811816
 21
3.737864644976543
 31
0.0
  0
LINE
  5
953
330
1F
100
AcDbEntity
  8
0
100
AcDbLine
 10
118.0820194811816
 20
3.737864644976543
 30
0.0
 11
118.0872923024902
 21
3.736810080714821
 31
0.0
  0
LINE
  5
954
330
1F
100
AcDbEntity
  8
0
100
AcDbLine
 10
118.0872923024902
 20
3.736810080714821
 30
0.0
 11
118.0925651237988
 21
3.7357555164531
 31
0.0
  0
LINE
  5
955
330
1F
100
AcDbEntity
  8
0
100
AcDbLine
 10
118.0925651237988
 20
3.7357555164531
 30
0.0
 11
118.0978379451038
 21
3.734700952191378
 31
0.0
  0
LINE
  5
956
330
1F
100
AcDbEntity
  8
0
100
AcDbLine
 10
118.0978379451038
 20
3.734700952191378
 30
0.0
 11
118.103110766416
 21
3.733646387929656
 31
0.0
  0
LINE
  5
957
330
1F
100
AcDbEntity
  8
0
100
AcDbLine
 10
118.103110766416
 20
3.733646387929656
 30
0.0
 11
118.1083835877246
 21
3.733646387929656
 31
0.0
  0
LINE
  5
958
330
1F
100
AcDbEntity
  8
0
100
AcDbLine
 10
118.1083835877246
 20
3.733646387929656
 30
0.0
 11
118.1136564090332
 21
3.732591823669753
 31
0.0
  0
LINE
  5
959
330
1F
100
AcDbEntity
  8
0
100
AcDbLine
 10
118.1136564090332
 20
3.732591823669753
 30
0.0
 11
118.1178746660765
 21
3.731537259408032
 31
0.0
  0
LINE
  5
95A
330
1F
100
AcDbEntity
  8
0
100
AcDbLine
 10
118.1178746660765
 20
3.731537259408032
 30
0.0
 11
118.1231474873851
 21
3.730482695144491
 31
0.0
  0
LINE
  5
95B
330
1F
100
AcDbEntity
  8
0
100
AcDbLine
 10
118.1231474873851
 20
3.730482695144491
 30
0.0
 11
118.1284203086973
 21
3.729428130882769
 31
0.0
  0
LINE
  5
95C
330
1F
100
AcDbEntity
  8
0
100
AcDbLine
 10
118.1284203086973
 20
3.729428130882769
 30
0.0
 11
118.133693130006
 21
3.728373566621048
 31
0.0
  0
LINE
  5
95D
330
1F
100
AcDbEntity
  8
0
100
AcDbLine
 10
118.133693130006
 20
3.728373566621048
 30
0.0
 11
118.1389659513109
 21
3.728373566621048
 31
0.0
  0
LINE
  5
95E
330
1F
100
AcDbEntity
  8
0
100
AcDbLine
 10
118.1389659513109
 20
3.728373566621048
 30
0.0
 11
118.1442387726195
 21
3.727319002359326
 31
0.0
  0
LINE
  5
95F
330
1F
100
AcDbEntity
  8
0
100
AcDbLine
 10
118.1442387726195
 20
3.727319002359326
 30
0.0
 11
118.1495115939318
 21
3.726264438097604
 31
0.0
  0
LINE
  5
960
330
1F
100
AcDbEntity
  8
0
100
AcDbLine
 10
118.1495115939318
 20
3.726264438097604
 30
0.0
 11
118.1547844152367
 21
3.725209873835883
 31
0.0
  0
LINE
  5
961
330
1F
100
AcDbEntity
  8
0
100
AcDbLine
 10
118.1547844152367
 20
3.725209873835883
 30
0.0
 11
118.1600572365454
 21
3.724155309574161
 31
0.0
  0
LINE
  5
962
330
1F
100
AcDbEntity
  8
0
100
AcDbLine
 10
118.1600572365454
 20
3.724155309574161
 30
0.0
 11
118.165330057854
 21
3.723100745312439
 31
0.0
  0
LINE
  5
963
330
1F
100
AcDbEntity
  8
0
100
AcDbLine
 10
118.165330057854
 20
3.723100745312439
 30
0.0
 11
118.1706028791662
 21
3.723100745312439
 31
0.0
  0
LINE
  5
964
330
1F
100
AcDbEntity
  8
0
100
AcDbLine
 10
118.1706028791662
 20
3.723100745312439
 30
0.0
 11
118.1758757004712
 21
3.722046181052537
 31
0.0
  0
LINE
  5
965
330
1F
100
AcDbEntity
  8
0
100
AcDbLine
 10
118.1758757004712
 20
3.722046181052537
 30
0.0
 11
118.1811485217798
 21
3.720991616790815
 31
0.0
  0
TEXT
  5
966
330
1F
100
AcDbEntity
  8
0
100
AcDbText
 10
122.2179877394331
 20
16.09797097347338
 30
0.0
 40
0.9860175704528824
  1
板　　厚
  7
ゴシック
100
AcDbText
  0
TEXT
  5
967
330
1F
100
AcDbEntity
  8
0
100
AcDbText
 10
110.2701961758497
 20
10.61421434791238
 30
0.0
 40
0.8216813206097356
  1
尺 　度
  7
ゴシック
100
AcDbText
  0
LINE
  5
968
330
1F
100
AcDbEntity
  8
0
100
AcDbLine
 10
106.6176994751289
 20
93.7153049251324
 30
0.0
 11
105.6389320197407
 21
92.02002996360217
 31
0.0
  0
LINE
  5
969
330
1F
100
AcDbEntity
  8
0
100
AcDbLine
 10
106.6176994751289
 20
95.67283983591234
 30
0.0
 11
105.6389320197407
 21
93.97756487438211
 31
0.0
  0
LINE
  5
96A
330
1F
100
AcDbEntity
  8
0
100
AcDbLine
 10
106.6176994751289
 20
95.67283983591234
 30
0.0
 11
107.5964669305206
 21
93.97756487438211
 31
0.0
  0
LINE
  5
96B
330
1F
100
AcDbEntity
  8
0
100
AcDbLine
 10
105.6389320197407
 20
93.97756487438211
 30
0.0
 11
107.5964669305206
 21
93.97756487438211
 31
0.0
  0
LINE
  5
96C
330
1F
100
AcDbEntity
  8
0
100
AcDbLine
 10
108.3119698207696
 20
91.82989528937879
 30
0.0
 11
108.3119698207696
 21
97.76181926144138
 31
0.0
  0
LINE
  5
96D
330
1F
100
AcDbEntity
  8
0
100
AcDbLine
 10
134.4124352978463
 20
91.82989528937879
 30
0.0
 11
134.4124352978463
 21
97.76181926144138
 31
0.0
  0
LINE
  5
96E
330
1F
100
AcDbEntity
  8
0
100
AcDbLine
 10
114.6393553909687
 20
91.82989528937879
 30
0.0
 11
114.6393553909687
 21
97.76181926144138
 31
0.0
  0
LINE
  5
96F
330
1F
100
AcDbEntity
  8
0
100
AcDbLine
 10
105.14827703567
 20
91.82989528937879
 30
0.0
 11
142.3216672605953
 21
91.82989528937879
 31
0.0
  0
LINE
  5
970
330
1F
100
AcDbEntity
  8
0
100
AcDbLine
 10
105.14827703567
 20
93.80720328006693
 30
0.0
 11
142.3216672605953
 21
93.80720328006693
 31
0.0
  0
LINE
  5
971
330
1F
100
AcDbEntity
  8
0
100
AcDbLine
 10
105.14827703567
 20
95.78451127075323
 30
0.0
 11
142.3216672605953
 21
95.78451127075323
 31
0.0
  0
LINE
  5
972
330
1F
100
AcDbEntity
  8
0
100
AcDbLine
 10
138.367051279219
 20
91.82989528937879
 30
0.0
 11
138.367051279219
 21
97.76181926144138
 31
0.0
  0
LINE
  5
973
330
1F
100
AcDbEntity
  8
0
100
AcDbLine
 10
105.14827703567
 20
91.82989528937879
 30
0.0
 11
105.14827703567
 21
97.76181926144138
 31
0.0
  0
LINE
  5
974
330
1F
100
AcDbEntity
  8
0
100
AcDbLine
 10
105.6389320197407
 20
92.02002996360217
 30
0.0
 11
107.5964669305206
 21
92.02002996360217
 31
0.0
  0
LINE
  5
975
330
1F
100
AcDbEntity
  8
0
100
AcDbLine
 10
106.6176994751289
 20
93.7153049251324
 30
0.0
 11
107.5964669305206
 21
92.02002996360217
 31
0.0
  0
LINE
  5
976
330
1F
100
AcDbEntity
  8
0
100
AcDbLine
 10
4.821667260595269
 20
97.76181926144138
 30
0.0
 11
142.3216672605953
 21
97.76181926144138
 31
0.0
  0
LINE
  5
977
330
1F
100
AcDbEntity
  8
0
100
AcDbLine
 10
4.821667260595269
 20
2.761819261441377
 30
0.0
 11
142.3216672605953
 21
2.761819261441377
 31
0.0
  0
LINE
  5
978
330
1F
100
AcDbEntity
  8
0
100
AcDbLine
 10
142.3216672605953
 20
2.761819261441377
 30
0.0
 11
142.3216672605953
 21
97.76181926144138
 31
0.0
  0
LINE
  5
979
330
1F
100
AcDbEntity
  8
0
100
AcDbLine
 10
4.821667260595269
 20
2.761819261441377
 30
0.0
 11
4.821667260595269
 21
97.76181926144138
 31
0.0
  0
TEXT
  5
97A
330
1F
100
AcDbEntity
  8
0
100
AcDbText
 10
109.5911977568788
 20
96.32149592812176
 30
0.0
 40
0.8
  1
改訂日
  7
ゴシック
100
AcDbText
  0
TEXT
  5
97B
330
1F
100
AcDbEntity
  8
0
100
AcDbText
 10
105.4930512969907
 20
96.32400520222155
 30
0.0
 40
0.8
  1
副番
  7
ゴシック
100
AcDbText
  0
TEXT
  5
97C
330
1F
100
AcDbEntity
  8
0
100
AcDbText
 10
120.1045543804569
 20
96.316477379924
 30
0.0
 40
0.8
  1
改　訂　内　容
  7
ゴシック
100
AcDbText
  0
TEXT
  5
97D
330
1F
100
AcDbEntity
  8
0
100
AcDbText
 10
134.5579731956344
 20
96.316477379924
 30
0.0
 40
0.8
  1
改訂者
  7
ゴシック
100
AcDbText
  0
TEXT
  5
97E
330
1F
100
AcDbEntity
  8
0
100
AcDbText
 10
138.4975335324119
 20
96.30894955762279
 30
0.0
 40
0.8
  1
検認者
  7
ゴシック
100
AcDbText
  0
LINE
  5
97F
330
1F
100
AcDbEntity
  8
0
 48
0.1
100
AcDbLine
 10
96.52503405485489
 20
21.608583663387
 30
0.0
 11
102.4217189763797
 21
21.608583663387
 31
0.0
  0
LINE
  5
980
330
1F
100
AcDbEntity
  8
0
 48
0.1
100
AcDbLine
 10
96.52503405485489
 20
22.11615485503764
 30
0.0
 11
102.4217189763797
 21
22.11615485503764
 31
0.0
  0
DIMENSION
  5
981
330
1F
100
AcDbEntity
  8
0
 48
0.1
100
AcDbDimension
  2
*D13
 10
106.1893686439901
 20
85.70877032436193
 30
0.0
 11
112.1893686439901
 21
86.85933850618011
 31
0.0
 70
    32
  1
φ<>
 71
     5
 42
12.0
  3
基本（２：１）
100
AcDbAlignedDimension
 13
118.1893686439901
 23
72.70877032436193
 33
0.0
 14
106.1893686439901
 24
72.70877032436193
 34
0.0
100
AcDbRotatedDimension
1001
ACAD
1000
DSTYLE
1002
{
1070
    40
1040
1.0
1002
}
  0
TEXT
  5
982
330
1F
100
AcDbEntity
  8
図枠
  6
Continuous
100
AcDbText
 10
97.31262735302093
 20
22.74282036594243
 30
0.0
 40
1.0
  1
組   図
  7
ゴシック
100
AcDbText
  0
DIMENSION
  5
983
330
1F
100
AcDbEntity
  8
0
 48
0.1
100
AcDbDimension
  2
*D14
 10
72.25578778153007
 20
49.42221038938488
 30
0.0
 11
83.00579458564911
 21
50.42221038938489
 31
0.0
 70
    32
 71
     5
 42
21.50001360823808
  3
基本（２：１）
100
AcDbAlignedDimension
 13
93.75580138976815
 23
39.39371165068634
 33
0.0
 14
72.25578778153007
 24
39.42221038938489
 34
0.0
100
AcDbRotatedDimension
1001
ACAD
1000
DSTYLE
1002
{
1070
    40
1040
1.0
1002
}
  0
LINE
  5
984
330
1F
100
AcDbEntity
  8
隠れ線
 48
0.1
100
AcDbLine
 10
83.55578778152935
 20
35.04038429510776
 30
0.0
 11
83.55578778152571
 21
31.8343887395554
 31
0.0
  0
LINE
  5
985
330
1F
100
AcDbEntity
  8
隠れ線
 48
0.1
100
AcDbLine
 10
74.55581951613871
 20
34.20277162562208
 30
0.0
 11
75.8105740615932
 21
31.93413493370692
 31
0.0
  0
LINE
  5
986
330
1F
100
AcDbEntity
  8
隠れ線
 48
0.1
100
AcDbLine
 10
75.8105740615932
 20
31.93413493370692
 30
0.0
 11
75.08265426361626
 21
31.93413493370692
 31
0.0
  0
LINE
  5
987
330
1F
100
AcDbEntity
  8
隠れ線
 48
0.1
100
AcDbLine
 10
75.08265426361626
 20
31.93413493370692
 30
0.0
 11
74.5558015314485
 21
31.14905424464134
 31
0.0
  0
LINE
  5
988
330
1F
100
AcDbEntity
  8
隠れ線
 48
0.1
100
AcDbLine
 10
75.08265426361626
 20
31.93413493370692
 30
0.0
 11
74.55581951613871
 21
32.82877389108082
 31
0.0
  0
LINE
  5
989
330
1F
100
AcDbEntity
  8
隠れ線
 48
0.1
100
AcDbLine
 10
74.5558015314485
 20
35.74910225810392
 30
0.0
 11
76.18185291681161
 21
31.23710793033981
 31
0.0
  0
LINE
  5
98A
330
1F
100
AcDbEntity
  8
隠れ線
 48
0.1
100
AcDbLine
 10
74.55581951613871
 20
34.21823633416399
 30
0.0
 11
76.18185291681161
 21
31.23710793033981
 31
0.0
  0
LINE
  5
98B
330
1F
100
AcDbEntity
  8
隠れ線
 48
0.1
100
AcDbLine
 10
76.18185291681161
 20
31.23710793033981
 30
0.0
 11
76.70868766428916
 21
31.93413493370692
 31
0.0
  0
LINE
  5
98C
330
1F
100
AcDbEntity
  8
隠れ線
 48
0.1
100
AcDbLine
 10
76.70868766428916
 20
31.93413493370692
 30
0.0
 11
77.43660746226609
 21
31.93413493370692
 31
0.0
  0
LINE
  5
98D
330
1F
100
AcDbEntity
  8
隠れ線
 48
0.1
100
AcDbLine
 10
77.43660746226609
 20
31.93413493370692
 30
0.0
 11
75.67073561041556
 21
35.15530584279306
 31
0.0
  0
LINE
  5
98E
330
1F
100
AcDbEntity
  8
隠れ線
 48
0.1
100
AcDbLine
 10
75.67073561041556
 20
35.15530584279306
 30
0.0
 11
74.9276389100772
 21
35.15530584279306
 31
0.0
  0
LINE
  5
98F
330
1F
100
AcDbEntity
  8
隠れ線
 48
0.1
100
AcDbLine
 10
74.9276389100772
 20
35.15530584279306
 30
0.0
 11
74.5558015314485
 21
35.74910225810392
 31
0.0
  0
LINE
  5
990
330
1F
100
AcDbEntity
  8
隠れ線
 48
0.1
100
AcDbLine
 10
74.5558015314485
 20
35.74910225810392
 30
0.0
 11
76.70868766428916
 21
31.93413493370692
 31
0.0
  0
LINE
  5
991
330
1F
100
AcDbEntity
  8
隠れ線
 48
0.1
100
AcDbLine
 10
76.18185291681161
 20
31.23710793033981
 30
0.0
 11
74.5558015314485
 21
35.74910225810392
 31
0.0
  0
LINE
  5
992
330
1F
100
AcDbEntity
  8
隠れ線
 48
0.1
100
AcDbLine
 10
76.18185291681161
 20
35.83715594380421
 30
0.0
 11
77.80842685620095
 21
31.23710793033981
 31
0.0
  0
LINE
  5
993
330
1F
100
AcDbEntity
  8
隠れ線
 48
0.1
100
AcDbLine
 10
75.67073561041556
 20
35.15530584279306
 30
0.0
 11
77.80842685620095
 21
31.23710793033981
 31
0.0
  0
LINE
  5
994
330
1F
100
AcDbEntity
  8
隠れ線
 48
0.1
100
AcDbLine
 10
77.80842685620095
 20
31.23710793033981
 30
0.0
 11
78.33471951613623
 21
31.93413493370692
 31
0.0
  0
LINE
  5
995
330
1F
100
AcDbEntity
  8
隠れ線
 48
0.1
100
AcDbLine
 10
78.33471951613623
 20
31.93413493370692
 30
0.0
 11
79.06264086293536
 21
31.93413493370692
 31
0.0
  0
LINE
  5
996
330
1F
100
AcDbEntity
  8
隠れ線
 48
0.1
100
AcDbLine
 10
79.06264086293536
 20
31.93413493370692
 30
0.0
 11
77.28159210873068
 21
35.14013048925928
 31
0.0
  0
LINE
  5
997
330
1F
100
AcDbEntity
  8
隠れ線
 48
0.1
100
AcDbLine
 10
77.28159210873068
 20
35.14013048925928
 30
0.0
 11
76.5536723107501
 21
35.14013048925928
 31
0.0
  0
LINE
  5
998
330
1F
100
AcDbEntity
  8
隠れ線
 48
0.1
100
AcDbLine
 10
76.5536723107501
 20
35.14013048925928
 30
0.0
 11
76.18185291681161
 21
35.83715594380421
 31
0.0
  0
LINE
  5
999
330
1F
100
AcDbEntity
  8
隠れ線
 48
0.1
100
AcDbLine
 10
76.18185291681161
 20
35.83715594380421
 30
0.0
 11
75.65556025687633
 21
35.14013048925928
 31
0.0
  0
LINE
  5
99A
330
1F
100
AcDbEntity
  8
隠れ線
 48
0.1
100
AcDbLine
 10
76.18185291681161
 20
35.83715594380421
 30
0.0
 11
78.33471951613623
 21
31.93413493370692
 31
0.0
  0
LINE
  5
99B
330
1F
100
AcDbEntity
  8
隠れ線
 48
0.1
100
AcDbLine
 10
77.80842685620095
 20
31.23710793033981
 30
0.0
 11
76.18185291681161
 21
35.83715594380421
 31
0.0
  0
LINE
  5
99C
330
1F
100
AcDbEntity
  8
隠れ線
 48
0.1
100
AcDbLine
 10
77.80842685620095
 20
35.83715594380421
 30
0.0
 11
79.43446025687385
 21
31.23710793033981
 31
0.0
  0
LINE
  5
99D
330
1F
100
AcDbEntity
  8
隠れ線
 48
0.1
100
AcDbLine
 10
77.28159210873068
 20
35.14013048925928
 30
0.0
 11
79.43446025687385
 21
31.23710793033981
 31
0.0
  0
LINE
  5
99E
330
1F
100
AcDbEntity
  8
隠れ線
 48
0.1
100
AcDbLine
 10
78.90816759694221
 20
35.14013048925928
 30
0.0
 11
78.18024625014309
 21
35.14013048925928
 31
0.0
  0
LINE
  5
99F
330
1F
100
AcDbEntity
  8
隠れ線
 48
0.1
100
AcDbLine
 10
78.18024625014309
 20
35.14013048925928
 30
0.0
 11
77.80842685620095
 21
35.83715594380421
 31
0.0
  0
LINE
  5
9A0
330
1F
100
AcDbEntity
  8
隠れ線
 48
0.1
100
AcDbLine
 10
77.80842685620095
 20
35.83715594380421
 30
0.0
 11
77.28159210873068
 21
35.14013048925928
 31
0.0
  0
LINE
  5
9A1
330
1F
100
AcDbEntity
  8
隠れ線
 48
0.1
100
AcDbLine
 10
79.43446025687385
 20
31.23710793033981
 30
0.0
 11
77.80842685620095
 21
35.83715594380421
 31
0.0
  0
LINE
  5
9A2
330
1F
100
AcDbEntity
  8
隠れ線
 48
0.1
100
AcDbLine
 10
79.26153922471653
 20
35.74214385135794
 30
0.0
 11
78.90816759694221
 21
35.14013048925928
 31
0.0
  0
LINE
  5
9A3
330
1F
100
AcDbEntity
  8
隠れ線
 48
0.1
370
     9
100
AcDbLine
 10
74.5558015314485
 20
35.74910225810392
 30
0.0
 11
74.55580138977106
 21
31.14905403352397
 31
0.0
  0
CIRCLE
  5
9A4
330
1F
100
AcDbEntity
  8
0
100
AcDbCircle
 10
112.1893686439901
 20
33.42221038938489
 30
0.0
 40
5.5
  0
LINE
  5
9A5
330
1F
100
AcDbEntity
  8
0
100
AcDbLine
 10
93.75580138977179
 20
38.92221038938489
 30
0.0
 11
93.25580138977178
 21
39.42221038938489
 31
0.0
  0
LINE
  5
9A6
330
1F
100
AcDbEntity
  8
0
100
AcDbLine
 10
93.75580138977179
 20
27.92221038938489
 30
0.0
 11
93.25580138977178
 21
27.42221038938489
 31
0.0
  0
LINE
  5
9A7
330
1F
100
AcDbEntity
  8
0
100
AcDbLine
 10
74.75580138977178
 20
27.92221038938489
 30
0.0
 11
75.25580138977179
 21
27.42221038938489
 31
0.0
  0
LINE
  5
9A8
330
1F
100
AcDbEntity
  8
0
100
AcDbLine
 10
75.25580138977179
 20
39.42221038938489
 30
0.0
 11
74.75580138977178
 21
38.92221038938489
 31
0.0
  0
LINE
  5
9A9
330
1F
100
AcDbEntity
  8
0
100
AcDbLine
 10
75.25580138977179
 20
39.42221038938489
 30
0.0
 11
75.25580138977179
 21
27.42221038938489
 31
0.0
  0
LINE
  5
9AA
330
1F
100
AcDbEntity
  8
0
100
AcDbLine
 10
93.25580138977178
 20
39.42221038938489
 30
0.0
 11
93.25580138977178
 21
27.42221038938489
 31
0.0
  0
LINE
  5
9AB
330
1F
100
AcDbEntity
  8
0
100
AcDbLine
 10
74.75580138977178
 20
38.92221038939034
 30
0.0
 11
74.75580138977178
 21
27.92221038938125
 31
0.0
  0
LINE
  5
9AC
330
1F
100
AcDbEntity
  8
0
100
AcDbLine
 10
93.75580138977179
 20
38.92221038938489
 30
0.0
 11
93.75580138977179
 21
27.92221038939035
 31
0.0
  0
LINE
  5
9AD
330
1F
100
AcDbEntity
  8
0
100
AcDbLine
 10
93.25580138976816
 20
27.42221038938489
 30
0.0
 11
75.25580138977179
 21
27.42221038938489
 31
0.0
  0
LINE
  5
9AE
330
1F
100
AcDbEntity
  8
0
100
AcDbLine
 10
93.25580138977178
 20
39.42221038938489
 30
0.0
 11
75.25580138976815
 21
39.42221038938489
 31
0.0
  0
ARC
  5
9AF
330
1F
100
AcDbEntity
  8
0
 48
2.0
100
AcDbCircle
 10
106.9997236876364
 20
33.78510571629933
 30
0.0
 40
0.7976824595865338
100
AcDbArc
 50
144.9391142436493
 51
207.0608857561106
  0
ARC
  5
9B0
330
1F
100
AcDbEntity
  8
0
 48
2.0
100
AcDbCircle
 10
107.100734223571
 20
34.50383302538332
 30
0.0
 40
0.7976824595800802
100
AcDbArc
 50
136.9391142432734
 51
199.0608857565072
  0
ARC
  5
9B1
330
1F
100
AcDbEntity
  8
0
 48
2.0
100
AcDbCircle
 10
107.3007892402778
 20
35.20150778018298
 30
0.0
 40
0.7976824595854322
100
AcDbArc
 50
128.9391142435087
 51
191.0608857563872
  0
ARC
  5
9B2
330
1F
100
AcDbEntity
  8
0
 48
2.0
100
AcDbCircle
 10
107.5959948943849
 20
35.86455053519468
 30
0.0
 40
0.797682459576286
100
AcDbArc
 50
120.9391142432668
 51
183.0608857566373
  0
ARC
  5
9B3
330
1F
100
AcDbEntity
  8
0
 48
2.0
100
AcDbCircle
 10
107.9806080272968
 20
36.4800525399137
 30
0.0
 40
0.7976866159204336
100
AcDbArc
 50
112.9391972069461
 51
175.0608282350828
  0
ARC
  5
9B4
330
1F
100
AcDbEntity
  8
0
 48
2.0
100
AcDbCircle
 10
108.4471345831729
 20
37.03604381461129
 30
0.0
 40
0.7976824595919057
100
AcDbArc
 50
104.9391142437875
 51
167.0608857558732
  0
ARC
  5
9B5
330
1F
100
AcDbEntity
  8
0
 48
2.0
100
AcDbCircle
 10
108.9864993172662
 20
37.52169940872092
 30
0.0
 40
0.7976753135047155
100
AcDbArc
 50
96.93897160118504
 51
159.0609846550455
  0
ARC
  5
9B6
330
1F
100
AcDbEntity
  8
0
 48
2.0
100
AcDbCircle
 10
109.5882098737887
 20
37.9275495379393
 30
0.0
 40
0.7976824595889396
100
AcDbArc
 50
88.93911424416232
 51
151.0608857566483
  0
ARC
  5
9B7
330
1F
100
AcDbEntity
  8
0
 48
2.0
100
AcDbCircle
 10
110.2405460638723
 20
38.24571635177973
 30
0.0
 40
0.7976813613488405
100
AcDbArc
 50
80.93909232183468
 51
143.0609009548656
  0
ARC
  5
9B8
330
1F
100
AcDbEntity
  8
0
 48
2.0
100
AcDbCircle
 10
110.9308139222078
 20
38.46998934621162
 30
0.0
 40
0.7976897069981033
100
AcDbArc
 50
72.93925890623405
 51
135.0606012254499
  0
ARC
  5
9B9
330
1F
100
AcDbEntity
  8
0
 48
2.0
100
AcDbCircle
 10
111.6455791232686
 20
38.59603348101929
 30
0.0
 40
0.7976781696672672
100
AcDbArc
 50
64.93902861350746
 51
127.0609451269851
  0
ARC
  5
9BA
330
1F
100
AcDbEntity
  8
0
 48
2.0
100
AcDbCircle
 10
112.370926907842
 20
38.62135881851511
 30
0.0
 40
0.7976824595880597
100
AcDbArc
 50
56.93911424416356
 51
119.0608857566492
  0
ARC
  5
9BB
330
1F
100
AcDbEntity
  8
0
 48
2.0
100
AcDbCircle
 10
113.0927416045263
 20
38.54549303680916
 30
0.0
 40
0.7976824595955791
100
AcDbArc
 50
48.93911424387262
 51
111.0608857558482
  0
ARC
  5
9BC
330
1F
100
AcDbEntity
  8
0
 48
2.0
100
AcDbCircle
 10
113.7969731741062
 20
38.3699083860197
 30
0.0
 40
0.7976824595963962
100
AcDbArc
 50
40.93911424412334
 51
103.0608857554959
  0
ARC
  5
9BD
330
1F
100
AcDbEntity
  8
0
 48
2.0
100
AcDbCircle
 10
114.469914550143
 20
38.09802242165871
 30
0.0
 40
0.7976824595948823
100
AcDbArc
 50
32.93911424424765
 51
95.06088575637956
  0
ARC
  5
9BE
330
1F
100
AcDbEntity
  8
0
 48
2.0
100
AcDbCircle
 10
115.0984717480672
 20
37.73513055336345
 30
0.0
 40
0.7976773253720514
100
AcDbArc
 50
24.93901176029687
 51
87.06095681236373
  0
ARC
  5
9BF
330
1F
100
AcDbEntity
  8
0
 48
2.0
100
AcDbCircle
 10
115.6703985065608
 20
37.28828573238981
 30
0.0
 40
0.7976824912433706
100
AcDbArc
 50
16.93911487594125
 51
79.0608845133109
  0
ARC
  5
9C0
330
1F
100
AcDbEntity
  8
0
 48
2.0
100
AcDbCircle
 10
116.1745782051869
 20
36.76619706498106
 30
0.0
 40
0.7976791589523045
100
AcDbArc
 50
8.939048360573346
 51
71.06093143565418
  0
ARC
  5
9C1
330
1F
100
AcDbEntity
  8
0
 48
2.0
100
AcDbCircle
 10
116.6011774763604
 20
36.17901670573385
 30
0.0
 40
0.7976891443118684
100
AcDbArc
 50
0.9392476744433622
 51
63.06079324416556
  0
ARC
  5
9C2
330
1F
100
AcDbEntity
  8
0
 48
2.0
100
AcDbCircle
 10
116.9419241444842
 20
35.53818385119895
 30
0.0
 40
0.7976805676343832
100
AcDbArc
 50
352.9390764789304
 51
55.06091193987893
  0
ARC
  5
9C3
330
1F
100
AcDbEntity
  8
0
 48
2.0
100
AcDbCircle
 10
117.1901557353188
 20
34.85616342812911
 30
0.0
 40
0.7976838955988952
100
AcDbArc
 50
344.9391429076273
 51
47.06086588239156
  0
ARC
  5
9C4
330
1F
100
AcDbEntity
  8
0
 48
2.0
100
AcDbCircle
 10
117.3410622336845
 20
34.14623243949838
 30
0.0
 40
0.7976779443089001
100
AcDbArc
 50
336.9390241150026
 51
39.0609482461067
  0
ARC
  5
9C5
330
1F
100
AcDbEntity
  8
0
 48
2.0
100
AcDbCircle
 10
117.3916861844039
 20
33.42221038938489
 30
0.0
 40
0.7976824595861097
100
AcDbArc
 50
328.9391142436782
 51
31.06088575632181
  0
ARC
  5
9C6
330
1F
100
AcDbEntity
  8
0
 48
2.0
100
AcDbCircle
 10
117.341057587709
 20
32.69818772510781
 30
0.0
 40
0.7976824595924455
100
AcDbArc
 50
320.939114243865
 51
23.06088575611983
  0
ARC
  5
9C7
330
1F
100
AcDbEntity
  8
0
 48
2.0
100
AcDbCircle
 10
117.1901612201903
 20
31.98825488767081
 30
0.0
 40
0.7976779443169411
100
AcDbArc
 50
312.939024115382
 51
15.06094824593463
  0
ARC
  5
9C8
330
1F
100
AcDbEntity
  8
0
 48
2.0
100
AcDbCircle
 10
116.9419185739492
 20
31.30624021096493
 30
0.0
 40
0.7976869920494061
100
AcDbArc
 50
304.9392047142469
 51
7.060823030220072
  0
ARC
  5
9C9
330
1F
100
AcDbEntity
  8
0
 48
2.0
100
AcDbCircle
 10
116.6011830086057
 20
30.66540333087734
 30
0.0
 40
0.7976840594150753
100
AcDbArc
 50
296.9391461767301
 51
359.0608229469799
  0
ARC
  5
9CA
330
1F
100
AcDbEntity
  8
0
 48
2.0
100
AcDbCircle
 10
116.174571007093
 20
30.07823107605738
 30
0.0
 40
0.7976894053878376
100
AcDbArc
 50
288.9392528854187
 51
351.0606130663238
  0
ARC
  5
9CB
330
1F
100
AcDbEntity
  8
0
 48
2.0
100
AcDbCircle
 10
115.6703985342677
 20
29.55613502874486
 30
0.0
 40
0.7976824595971125
100
AcDbArc
 50
280.9391142443013
 51
343.0608857559367
  0
ARC
  5
9CC
330
1F
100
AcDbEntity
  8
0
 48
2.0
100
AcDbCircle
 10
115.0984680375871
 20
29.10929265587085
 30
0.0
 40
0.7976814151905977
100
AcDbArc
 50
272.9390933974578
 51
335.0609267600512
  0
ARC
  5
9CD
330
1F
100
AcDbEntity
  8
0
 48
2.0
100
AcDbCircle
 10
114.4699155184529
 20
28.74639311704097
 30
0.0
 40
0.7976773253734791
100
AcDbArc
 50
264.939011760185
 51
327.0609568121697
  0
ARC
  5
9CE
330
1F
100
AcDbEntity
  8
0
 48
2.0
100
AcDbCircle
 10
113.7969730848084
 20
28.47451446349852
 30
0.0
 40
0.7976844565919154
100
AcDbArc
 50
256.9391541050862
 51
319.0608581187448
  0
ARC
  5
9CF
330
1F
100
AcDbEntity
  8
0
 48
2.0
100
AcDbCircle
 10
113.09274160453
 20
28.29892774193515
 30
0.0
 40
0.7976824595691128
100
AcDbArc
 50
248.9391142434932
 51
311.0608857573924
  0
ARC
  5
9D0
330
1F
100
AcDbEntity
  8
0
 48
2.0
100
AcDbCircle
 10
112.3709258906413
 20
28.22305773322707
 30
0.0
 40
0.797678270632947
100
AcDbArc
 50
240.9390306286373
 51
303.0609437294543
  0
ARC
  5
9D1
330
1F
100
AcDbEntity
  8
0
 48
2.0
100
AcDbCircle
 10
111.6455783860541
 20
28.24839168876362
 30
0.0
 40
0.7976824595665596
100
AcDbArc
 50
232.9391142431924
 51
295.0608857572479
  0
ARC
  5
9D2
330
1F
100
AcDbEntity
  8
0
 48
2.0
100
AcDbCircle
 10
110.9308119285336
 20
28.37442003910885
 30
0.0
 40
0.7976781696690562
100
AcDbArc
 50
224.9390286136083
 51
287.0609451270724
  0
ARC
  5
9D3
330
1F
100
AcDbEntity
  8
0
 48
2.0
100
AcDbCircle
 10
110.2405485205157
 20
28.59870859043124
 30
0.0
 40
0.7976861419020009
100
AcDbArc
 50
216.9391877450688
 51
279.0608347953282
  0
ARC
  5
9D4
330
1F
100
AcDbEntity
  8
0
 48
2.0
100
AcDbCircle
 10
109.5882090603585
 20
28.91687044233233
 30
0.0
 40
0.7976813613495163
100
AcDbArc
 50
208.9390923223222
 51
271.0609009548216
  0
ARC
  5
9D5
330
1F
100
AcDbEntity
  8
0
 48
2.0
100
AcDbCircle
 10
108.9864987439644
 20
29.32272570488796
 30
0.0
 40
0.797678376446545
100
AcDbArc
 50
200.9390327409237
 51
263.0609422656947
  0
ARC
  5
9D6
330
1F
100
AcDbEntity
  8
0
 48
2.0
100
AcDbCircle
 10
108.4471345831765
 20
29.80837696414758
 30
0.0
 40
0.7976824595870241
100
AcDbArc
 50
192.9391142434706
 51
255.060885755756
  0
ARC
  5
9D7
330
1F
100
AcDbEntity
  8
0
 48
2.0
100
AcDbCircle
 10
107.9806053436653
 20
30.36436486139293
 30
0.0
 40
0.7976824595916295
100
AcDbArc
 50
184.9391142442752
 51
247.060885756607
  0
ARC
  5
9D8
330
1F
100
AcDbEntity
  8
0
 48
2.0
100
AcDbCircle
 10
107.5960017595892
 20
30.9798717617273
 30
0.0
 40
0.7976892339243273
100
AcDbArc
 50
176.9392494629846
 51
239.060792004334
  0
ARC
  5
9D9
330
1F
100
AcDbEntity
  8
0
 48
2.0
100
AcDbCircle
 10
107.300789240285
 20
31.64291299858862
 30
0.0
 40
0.7976824595920093
100
AcDbArc
 50
168.9391142440219
 51
231.0608857560361
  0
ARC
  5
9DA
330
1F
100
AcDbEntity
  8
0
 48
2.0
100
AcDbCircle
 10
107.1007342235783
 20
32.34058775338646
 30
0.0
 40
0.7976824595854291
100
AcDbArc
 50
160.9391142438564
 51
223.0608857564319
  0
ARC
  5
9DB
330
1F
100
AcDbEntity
  8
0
 48
2.0
100
AcDbCircle
 10
106.999723687651
 20
33.05931506247045
 30
0.0
 40
0.79768245959954
100
AcDbArc
 50
152.9391142443555
 51
215.060885755975
  0
LINE
  5
9DC
330
1F
100
AcDbEntity
  8
0
 48
2.0
370
     9
100
AcDbLine
 10
75.25580138977179
 20
33.42221038938489
 30
0.0
 11
93.25580138977178
 21
33.42221038938489
 31
0.0
  0
LINE
  5
9DD
330
1F
100
AcDbEntity
  8
0
 48
2.0
370
     9
100
AcDbLine
 10
75.25580138977179
 20
32.60108909371822
 30
0.0
 11
93.25580138977178
 21
32.60108909371822
 31
0.0
  0
LINE
  5
9DE
330
1F
100
AcDbEntity
  8
0
 48
2.0
370
     9
100
AcDbLine
 10
75.25580138977179
 20
31.79594999006305
 30
0.0
 11
93.25580138977178
 21
31.79594999006305
 31
0.0
  0
LINE
  5
9DF
330
1F
100
AcDbEntity
  8
0
 48
2.0
370
     9
100
AcDbLine
 10
75.25580138977179
 20
31.02246419523774
 30
0.0
 11
93.25580138977178
 21
31.02246419523774
 31
0.0
  0
LINE
  5
9E0
330
1F
100
AcDbEntity
  8
0
 48
2.0
370
     9
100
AcDbLine
 10
75.25580138977179
 20
30.29568673040605
 30
0.0
 11
93.25580138977178
 21
30.29568673040605
 31
0.0
  0
LINE
  5
9E1
330
1F
100
AcDbEntity
  8
0
 48
2.0
370
     9
100
AcDbLine
 10
75.25580138977179
 20
29.62976349223256
 30
0.0
 11
93.25580138977178
 21
29.62976349223256
 31
0.0
  0
LINE
  5
9E2
330
1F
100
AcDbEntity
  8
0
 48
2.0
370
     9
100
AcDbLine
 10
75.25580138977179
 20
29.03765591906678
 30
0.0
 11
93.25580138977178
 21
29.03765591906678
 31
0.0
  0
LINE
  5
9E3
330
1F
100
AcDbEntity
  8
0
 48
2.0
370
     9
100
AcDbLine
 10
75.25580138977179
 20
28.53088871131014
 30
0.0
 11
93.25580138977178
 21
28.53088871131014
 31
0.0
  0
LINE
  5
9E4
330
1F
100
AcDbEntity
  8
0
 48
2.0
370
     9
100
AcDbLine
 10
75.25580138977179
 20
28.11932551622023
 30
0.0
 11
93.25580138977178
 21
28.11932551622023
 31
0.0
  0
LINE
  5
9E5
330
1F
100
AcDbEntity
  8
0
 48
2.0
370
     9
100
AcDbLine
 10
75.25580138977179
 20
27.81097694323991
 30
0.0
 11
93.25580138977178
 21
27.81097694323991
 31
0.0
  0
LINE
  5
9E6
330
1F
100
AcDbEntity
  8
0
 48
2.0
370
     9
100
AcDbLine
 10
75.25580138977179
 20
27.57674186943998
 30
0.0
 11
93.25580138977178
 21
27.57674186943998
 31
0.0
  0
LINE
  5
9E7
330
1F
100
AcDbEntity
  8
0
 48
2.0
370
     9
100
AcDbLine
 10
75.25580138977179
 20
27.45070922919742
 30
0.0
 11
93.25580138977178
 21
27.45070922919742
 31
0.0
  0
LINE
  5
9E8
330
1F
100
AcDbEntity
  8
0
 48
2.0
370
     9
100
AcDbLine
 10
75.25580138977179
 20
27.42537946259337
 30
0.0
 11
93.25580138977178
 21
27.42537946259337
 31
0.0
  0
LINE
  5
9E9
330
1F
100
AcDbEntity
  8
0
 48
2.0
370
     9
100
AcDbLine
 10
75.25580138977179
 20
34.24333168504974
 30
0.0
 11
93.25580138977178
 21
34.24333168504974
 31
0.0
  0
LINE
  5
9EA
330
1F
100
AcDbEntity
  8
0
 48
2.0
370
     9
100
AcDbLine
 10
75.25580138977179
 20
35.0484707887049
 30
0.0
 11
93.25580138977178
 21
35.0484707887049
 31
0.0
  0
LINE
  5
9EB
330
1F
100
AcDbEntity
  8
0
 48
2.0
370
     9
100
AcDbLine
 10
75.25580138977179
 20
35.86455053519468
 30
0.0
 11
93.25580138977178
 21
35.86455053519468
 31
0.0
  0
LINE
  5
9EC
330
1F
100
AcDbEntity
  8
0
 48
2.0
370
     9
100
AcDbLine
 10
75.25580138977179
 20
36.54873404835827
 30
0.0
 11
93.25580138977178
 21
36.54873404835827
 31
0.0
  0
LINE
  5
9ED
330
1F
100
AcDbEntity
  8
0
 48
2.0
370
     9
100
AcDbLine
 10
75.25580138977179
 20
37.2146572865354
 30
0.0
 11
93.25580138977178
 21
37.2146572865354
 31
0.0
  0
LINE
  5
9EE
330
1F
100
AcDbEntity
  8
0
 48
2.0
370
     9
100
AcDbLine
 10
75.25580138977179
 20
37.80676787373206
 30
0.0
 11
93.25580138977178
 21
37.80676787373206
 31
0.0
  0
LINE
  5
9EF
330
1F
100
AcDbEntity
  8
0
 48
2.0
370
     9
100
AcDbLine
 10
75.25580138977179
 20
38.31353206745964
 30
0.0
 11
93.25580138977178
 21
38.31353206745964
 31
0.0
  0
LINE
  5
9F0
330
1F
100
AcDbEntity
  8
0
 48
2.0
370
     9
100
AcDbLine
 10
75.25580138977179
 20
38.72509556601519
 30
0.0
 11
93.25580138977178
 21
38.72509556601519
 31
0.0
  0
LINE
  5
9F1
330
1F
100
AcDbEntity
  8
0
 48
2.0
370
     9
100
AcDbLine
 10
75.25580138977179
 20
39.03344383552259
 30
0.0
 11
93.25580138977178
 21
39.03344383552259
 31
0.0
  0
LINE
  5
9F2
330
1F
100
AcDbEntity
  8
0
 48
2.0
370
     9
100
AcDbLine
 10
75.25580138977179
 20
39.26767905321005
 30
0.0
 11
93.25580138977178
 21
39.26767905321005
 31
0.0
  0
LINE
  5
9F3
330
1F
100
AcDbEntity
  8
0
 48
2.0
370
     9
100
AcDbLine
 10
75.25580138977179
 20
39.39371165068634
 30
0.0
 11
93.25580138977178
 21
39.39371165068634
 31
0.0
  0
LINE
  5
9F4
330
1F
100
AcDbEntity
  8
0
 48
2.0
370
     9
100
AcDbLine
 10
75.25580138977179
 20
39.41904127810314
 30
0.0
 11
93.25580138977178
 21
39.41904127810314
 31
0.0
  0
LINE
  5
9F5
330
1F
100
AcDbEntity
  8
隠れ線
 48
0.1
370
     9
100
AcDbLine
 10
79.25580138976815
 20
35.8645505351965
 30
0.0
 11
79.25580138976815
 21
31.02246419523774
 31
0.0
  0
LINE
  5
9F6
330
1F
100
AcDbEntity
  8
0
 48
2.0
100
AcDbLine
 10
74.5558015314485
 20
35.74910225810392
 30
0.0
 11
74.5558015314485
 21
31.14905424464134
 31
0.0
  0
LINE
  5
9F7
330
1F
100
AcDbEntity
  8
0
100
AcDbLine
 10
74.5558015314485
 20
31.14905424464134
 30
0.0
 11
74.75580138977178
 21
31.44708065126044
 31
0.0
  0
LINE
  5
9F8
330
1F
100
AcDbEntity
  8
0
370
     9
100
AcDbLine
 10
74.75580138977178
 20
33.71686240445207
 30
0.0
 11
74.55580138976742
 21
34.07687450946152
 31
0.0
  0
LINE
  5
9F9
330
1F
100
AcDbEntity
  8
0
100
AcDbLine
 10
74.55580138976742
 20
32.77335114349127
 30
0.0
 11
74.75580138977178
 21
32.41076286129875
 31
0.0
  0
LINE
  5
9FA
330
1F
100
AcDbEntity
  8
0
370
     9
100
AcDbLine
 10
74.55580138976742
 20
34.07008871930204
 30
0.0
 11
74.75580138977178
 21
33.70750055407963
 31
0.0
  0
LINE
  5
9FB
330
1F
100
AcDbEntity
  8
0
370
     9
100
AcDbLine
 10
74.55580138977106
 20
35.74907825137099
 30
0.0
 11
74.75580138977178
 21
35.42971747927051
 31
0.0
  0
LINE
  5
9FC
330
1F
100
AcDbEntity
  8
0
100
AcDbLine
 10
73.55580153144851
 20
37.34907825137317
 30
0.0
 11
73.55580153144851
 21
29.54907825137027
 31
0.0
  0
LINE
  5
9FD
330
1F
100
AcDbEntity
  8
0
100
AcDbLine
 10
72.85580153144778
 20
37.34907825137317
 30
0.0
 11
72.85580153144778
 21
29.50899854415595
 31
0.0
  0
ARC
  5
9FE
330
1F
100
AcDbEntity
  8
0
100
AcDbCircle
 10
73.20580153144996
 20
37.34907825137317
 30
0.0
 40
0.35
100
AcDbArc
 50
0.0
 51
180.0
  0
ARC
  5
9FF
330
1F
100
AcDbEntity
  8
0
100
AcDbCircle
 10
73.20580153144996
 20
29.54907825137027
 30
0.0
 40
0.35
100
AcDbArc
 50
180.0
 51
0.0
  0
ARC
  5
A00
330
1F
100
AcDbEntity
  8
0
100
AcDbCircle
 10
85.36106057990341
 20
33.42903839776456
 30
0.0
 40
13.10527437037499
100
AcDbArc
 50
162.5952890150192
 51
197.4633125734296
  0
LINE
  5
A01
330
1F
100
AcDbEntity
  8
0
100
AcDbLine
 10
74.55580138977106
 20
35.7222103893878
 30
0.0
 11
74.55580138977106
 21
31.14907825137245
 31
0.0
  0
LINE
  5
A02
330
1F
100
AcDbEntity
  8
0
100
AcDbLine
 10
74.5558015314485
 20
35.74907825137099
 30
0.0
 11
73.55580153144851
 21
35.74907825137099
 31
0.0
  0
LINE
  5
A03
330
1F
100
AcDbEntity
  8
0
100
AcDbLine
 10
74.5558015314485
 20
31.14907825137245
 30
0.0
 11
73.55580153144851
 21
31.14907825137245
 31
0.0
  0
LINE
  5
A04
330
1F
100
AcDbEntity
  8
隠れ線
 48
0.1
100
AcDbLine
 10
91.7558013897718
 20
32.5646660907919
 30
0.0
 11
90.63965835945722
 21
35.72223439611527
 31
0.0
  0
LINE
  5
A05
330
1F
100
AcDbEntity
  8
隠れ線
 48
0.1
100
AcDbLine
 10
90.63965835945722
 20
35.72223439611527
 30
0.0
 11
91.7558013897718
 21
33.67564295820786
 31
0.0
  0
LINE
  5
A06
330
1F
100
AcDbEntity
  8
隠れ線
 48
0.1
100
AcDbLine
 10
90.63965835945722
 20
35.72223439611527
 30
0.0
 11
90.11282361198331
 21
35.02520739274816
 31
0.0
  0
LINE
  5
A07
330
1F
100
AcDbEntity
  8
隠れ線
 48
0.1
100
AcDbLine
 10
91.01147775339937
 20
35.02520739274816
 30
0.0
 11
90.63965835945722
 21
35.72223439611527
 31
0.0
  0
LINE
  5
A08
330
1F
100
AcDbEntity
  8
隠れ線
 48
0.1
100
AcDbLine
 10
91.73939910019848
 20
35.02520739274816
 30
0.0
 11
91.01147775339937
 21
35.02520739274816
 31
0.0
  0
LINE
  5
A09
330
1F
100
AcDbEntity
  8
隠れ線
 48
0.1
100
AcDbLine
 10
90.11282361198331
 20
35.02520739274816
 30
0.0
 11
91.75580138977542
 21
32.04658708506624
 31
0.0
  0
LINE
  5
A0A
330
1F
100
AcDbEntity
  8
隠れ線
 48
0.1
100
AcDbLine
 10
90.63965835945722
 20
35.72223439611527
 30
0.0
 11
91.7558013897718
 21
32.5646660907919
 31
0.0
  0
LINE
  5
A0B
330
1F
100
AcDbEntity
  8
隠れ線
 48
0.1
100
AcDbLine
 10
90.63965835945722
 20
31.12218638265269
 30
0.0
 11
89.01362650760651
 21
35.72223439611527
 31
0.0
  0
LINE
  5
A0C
330
1F
100
AcDbEntity
  8
隠れ線
 48
0.1
100
AcDbLine
 10
89.01362650760651
 20
35.72223439611527
 30
0.0
 11
91.16649310693114
 21
31.8192118371958
 31
0.0
  0
LINE
  5
A0D
330
1F
100
AcDbEntity
  8
隠れ線
 48
0.1
100
AcDbLine
 10
89.01362650760651
 20
35.72223439611527
 30
0.0
 11
88.48679176013261
 21
35.02520739274816
 31
0.0
  0
LINE
  5
A0E
330
1F
100
AcDbEntity
  8
隠れ線
 48
0.1
100
AcDbLine
 10
89.38490381400274
 20
35.02520739274816
 30
0.0
 11
89.01362650760651
 21
35.72223439611527
 31
0.0
  0
LINE
  5
A0F
330
1F
100
AcDbEntity
  8
隠れ線
 48
0.1
100
AcDbLine
 10
90.11282361198331
 20
35.02520739274816
 30
0.0
 11
89.38490381400274
 21
35.02520739274816
 31
0.0
  0
LINE
  5
A10
330
1F
100
AcDbEntity
  8
隠れ線
 48
0.1
100
AcDbLine
 10
91.75580138977542
 20
32.06864782248569
 30
0.0
 11
90.11282361198331
 21
35.02520739274816
 31
0.0
  0
LINE
  5
A11
330
1F
100
AcDbEntity
  8
隠れ線
 48
0.1
100
AcDbLine
 10
91.16649310693114
 20
31.8192118371958
 30
0.0
 11
91.75580138977542
 21
31.8192118371958
 31
0.0
  0
LINE
  5
A12
330
1F
100
AcDbEntity
  8
隠れ線
 48
0.1
100
AcDbLine
 10
90.63965835945722
 20
31.12218638265269
 30
0.0
 11
91.16649310693114
 21
31.8192118371958
 31
0.0
  0
LINE
  5
A13
330
1F
100
AcDbEntity
  8
隠れ線
 48
0.1
100
AcDbLine
 10
88.48679176013261
 20
35.04038429510776
 30
0.0
 11
90.63965835945722
 21
31.12218638265269
 31
0.0
  0
LINE
  5
A14
330
1F
100
AcDbEntity
  8
隠れ線
 48
0.1
100
AcDbLine
 10
89.01362650760651
 20
35.72223439611527
 30
0.0
 11
90.63965835945722
 21
31.12218638265269
 31
0.0
  0
LINE
  5
A15
330
1F
100
AcDbEntity
  8
隠れ線
 48
0.1
100
AcDbLine
 10
89.01362650760651
 20
31.12218638265269
 30
0.0
 11
87.38705101939499
 21
35.72223439611527
 31
0.0
  0
LINE
  5
A16
330
1F
100
AcDbEntity
  8
隠れ線
 48
0.1
100
AcDbLine
 10
87.38705101939499
 20
35.72223439611527
 30
0.0
 11
89.53991916753816
 21
31.8192118371958
 31
0.0
  0
LINE
  5
A17
330
1F
100
AcDbEntity
  8
隠れ線
 48
0.1
100
AcDbLine
 10
87.38705101939499
 20
35.72223439611527
 30
0.0
 11
86.8607583594597
 21
35.04038429510776
 31
0.0
  0
LINE
  5
A18
330
1F
100
AcDbEntity
  8
隠れ線
 48
0.1
100
AcDbLine
 10
87.75887041333348
 20
35.04038429510776
 30
0.0
 11
87.38705101939499
 21
35.72223439611527
 31
0.0
  0
LINE
  5
A19
330
1F
100
AcDbEntity
  8
隠れ線
 48
0.1
100
AcDbLine
 10
88.48679176013261
 20
35.04038429510776
 30
0.0
 11
87.75887041333348
 21
35.04038429510776
 31
0.0
  0
LINE
  5
A1A
330
1F
100
AcDbEntity
  8
隠れ線
 48
0.1
100
AcDbLine
 10
90.26783896552236
 20
31.8192118371958
 30
0.0
 11
88.48679176013261
 21
35.04038429510776
 31
0.0
  0
LINE
  5
A1B
330
1F
100
AcDbEntity
  8
隠れ線
 48
0.1
100
AcDbLine
 10
89.53991916753816
 20
31.8192118371958
 30
0.0
 11
90.26783896552236
 21
31.8192118371958
 31
0.0
  0
LINE
  5
A1C
330
1F
100
AcDbEntity
  8
隠れ線
 48
0.1
100
AcDbLine
 10
89.01362650760651
 20
31.12218638265269
 30
0.0
 11
89.53991916753816
 21
31.8192118371958
 31
0.0
  0
LINE
  5
A1D
330
1F
100
AcDbEntity
  8
隠れ線
 48
0.1
100
AcDbLine
 10
86.87593371299895
 20
35.04038429510776
 30
0.0
 11
89.01362650760651
 21
31.12218638265269
 31
0.0
  0
LINE
  5
A1E
330
1F
100
AcDbEntity
  8
隠れ線
 48
0.1
100
AcDbLine
 10
87.38705101939499
 20
35.72223439611527
 30
0.0
 11
89.01362650760651
 21
31.12218638265269
 31
0.0
  0
LINE
  5
A1F
330
1F
100
AcDbEntity
  8
隠れ線
 48
0.1
100
AcDbLine
 10
87.38705101939499
 20
31.13736173618829
 30
0.0
 11
85.76101761872573
 21
35.73740974965268
 31
0.0
  0
LINE
  5
A20
330
1F
100
AcDbEntity
  8
隠れ線
 48
0.1
100
AcDbLine
 10
85.76101761872573
 20
35.73740974965268
 30
0.0
 11
87.91388576686527
 21
31.8192118371958
 31
0.0
  0
LINE
  5
A21
330
1F
100
AcDbEntity
  8
隠れ線
 48
0.1
100
AcDbLine
 10
85.76101761872573
 20
35.73740974965268
 30
0.0
 11
85.23418287124817
 21
35.04038429510776
 31
0.0
  0
LINE
  5
A22
330
1F
100
AcDbEntity
  8
隠れ線
 48
0.1
100
AcDbLine
 10
86.14801391501837
 20
35.04038429510776
 30
0.0
 11
85.76101761872573
 21
35.73740974965268
 31
0.0
  0
LINE
  5
A23
330
1F
100
AcDbEntity
  8
隠れ線
 48
0.1
100
AcDbLine
 10
86.87593371299895
 20
35.04038429510776
 30
0.0
 11
86.14801391501837
 21
35.04038429510776
 31
0.0
  0
LINE
  5
A24
330
1F
100
AcDbEntity
  8
隠れ線
 48
0.1
100
AcDbLine
 10
88.64180556484948
 20
31.8192118371958
 30
0.0
 11
86.87593371299895
 21
35.04038429510776
 31
0.0
  0
LINE
  5
A25
330
1F
100
AcDbEntity
  8
隠れ線
 48
0.1
100
AcDbLine
 10
87.91388576686527
 20
31.8192118371958
 30
0.0
 11
88.64180556484948
 21
31.8192118371958
 31
0.0
  0
LINE
  5
A26
330
1F
100
AcDbEntity
  8
隠れ線
 48
0.1
100
AcDbLine
 10
87.38705101939499
 20
31.13736173618829
 30
0.0
 11
87.91388576686527
 21
31.8192118371958
 31
0.0
  0
LINE
  5
A27
330
1F
100
AcDbEntity
  8
隠れ線
 48
0.1
100
AcDbLine
 10
85.24990186114459
 20
35.04038429510776
 30
0.0
 11
87.38705101939499
 21
31.13736173618829
 31
0.0
  0
LINE
  5
A28
330
1F
100
AcDbEntity
  8
隠れ線
 48
0.1
100
AcDbLine
 10
85.76101761872573
 20
35.73740974965268
 30
0.0
 11
87.38705101939499
 21
31.13736173618829
 31
0.0
  0
LINE
  5
A29
330
1F
100
AcDbEntity
  8
隠れ線
 48
0.1
100
AcDbLine
 10
85.76101761872573
 20
31.13736173618829
 30
0.0
 11
84.13444213050693
 21
35.73740974965268
 31
0.0
  0
LINE
  5
A2A
330
1F
100
AcDbEntity
  8
隠れ線
 48
0.1
100
AcDbLine
 10
84.13444213050693
 20
35.73740974965268
 30
0.0
 11
86.28731027865374
 21
31.8192118371958
 31
0.0
  0
LINE
  5
A2B
330
1F
100
AcDbEntity
  8
隠れ線
 48
0.1
100
AcDbLine
 10
84.13444213050693
 20
35.73740974965268
 30
0.0
 11
83.60814947057528
 21
35.04038429510776
 31
0.0
  0
LINE
  5
A2C
330
1F
100
AcDbEntity
  8
隠れ線
 48
0.1
100
AcDbLine
 10
84.50626152444906
 20
35.04038429510776
 30
0.0
 11
84.13444213050693
 21
35.73740974965268
 31
0.0
  0
LINE
  5
A2D
330
1F
100
AcDbEntity
  8
隠れ線
 48
0.1
100
AcDbLine
 10
85.23418287124817
 20
35.04038429510776
 30
0.0
 11
84.50626152444906
 21
35.04038429510776
 31
0.0
  0
LINE
  5
A2E
330
1F
100
AcDbEntity
  8
隠れ線
 48
0.1
100
AcDbLine
 10
87.01523162545285
 20
31.8192118371958
 30
0.0
 11
85.23418287124817
 21
35.04038429510776
 31
0.0
  0
LINE
  5
A2F
330
1F
100
AcDbEntity
  8
隠れ線
 48
0.1
100
AcDbLine
 10
86.28731027865374
 20
31.8192118371958
 30
0.0
 11
87.01523162545285
 21
31.8192118371958
 31
0.0
  0
LINE
  5
A30
330
1F
100
AcDbEntity
  8
隠れ線
 48
0.1
100
AcDbLine
 10
85.76101761872573
 20
31.13736173618829
 30
0.0
 11
86.28731027865374
 21
31.8192118371958
 31
0.0
  0
LINE
  5
A31
330
1F
100
AcDbEntity
  8
隠れ線
 48
0.1
100
AcDbLine
 10
83.62332637293306
 20
35.04038429510776
 30
0.0
 11
85.76101761872573
 21
31.13736173618829
 31
0.0
  0
LINE
  5
A32
330
1F
100
AcDbEntity
  8
隠れ線
 48
0.1
100
AcDbLine
 10
84.13444213050693
 20
35.73740974965268
 30
0.0
 11
85.76101761872573
 21
31.13736173618829
 31
0.0
  0
LINE
  5
A33
330
1F
100
AcDbEntity
  8
隠れ線
 48
0.1
100
AcDbLine
 10
84.13444213050693
 20
31.13736173618829
 30
0.0
 11
82.50840872983403
 21
35.73740974965268
 31
0.0
  0
LINE
  5
A34
330
1F
100
AcDbEntity
  8
隠れ線
 48
0.1
100
AcDbLine
 10
82.50840872983403
 20
35.73740974965268
 30
0.0
 11
84.66127687798083
 21
31.8192118371958
 31
0.0
  0
LINE
  5
A35
330
1F
100
AcDbEntity
  8
隠れ線
 48
0.1
100
AcDbLine
 10
82.50840872983403
 20
35.73740974965268
 30
0.0
 11
81.98157398236375
 21
35.04038429510776
 31
0.0
  0
LINE
  5
A36
330
1F
100
AcDbEntity
  8
隠れ線
 48
0.1
100
AcDbLine
 10
82.88022812377617
 20
35.04038429510776
 30
0.0
 11
82.50840872983403
 21
35.73740974965268
 31
0.0
  0
LINE
  5
A37
330
1F
100
AcDbEntity
  8
隠れ線
 48
0.1
100
AcDbLine
 10
83.60814947057528
 20
35.04038429510776
 30
0.0
 11
82.88022812377617
 21
35.04038429510776
 31
0.0
  0
LINE
  5
A38
330
1F
100
AcDbEntity
  8
隠れ線
 48
0.1
100
AcDbLine
 10
85.38919822477996
 20
31.8192118371958
 30
0.0
 11
83.60814947057528
 21
35.04038429510776
 31
0.0
  0
LINE
  5
A39
330
1F
100
AcDbEntity
  8
隠れ線
 48
0.1
100
AcDbLine
 10
84.66127687798083
 20
31.8192118371958
 30
0.0
 11
85.38919822477996
 21
31.8192118371958
 31
0.0
  0
LINE
  5
A3A
330
1F
100
AcDbEntity
  8
隠れ線
 48
0.1
100
AcDbLine
 10
84.13444213050693
 20
31.13736173618829
 30
0.0
 11
84.66127687798083
 21
31.8192118371958
 31
0.0
  0
LINE
  5
A3B
330
1F
100
AcDbEntity
  8
隠れ線
 48
0.1
100
AcDbLine
 10
81.98157398236375
 20
35.04038429510776
 30
0.0
 11
84.13444213050693
 21
31.13736173618829
 31
0.0
  0
LINE
  5
A3C
330
1F
100
AcDbEntity
  8
隠れ線
 48
0.1
100
AcDbLine
 10
82.50840872983403
 20
35.73740974965268
 30
0.0
 11
84.13444213050693
 21
31.13736173618829
 31
0.0
  0
LINE
  5
A3D
330
1F
100
AcDbEntity
  8
隠れ線
 48
0.1
100
AcDbLine
 10
82.50840872983403
 20
31.13736173618829
 30
0.0
 11
80.88183479044468
 21
35.73740974965268
 31
0.0
  0
LINE
  5
A3E
330
1F
100
AcDbEntity
  8
隠れ線
 48
0.1
100
AcDbLine
 10
80.88183479044468
 20
35.73740974965268
 30
0.0
 11
83.03470138976932
 21
31.8343887395554
 31
0.0
  0
LINE
  5
A3F
330
1F
100
AcDbEntity
  8
隠れ線
 48
0.1
100
AcDbLine
 10
80.88183479044468
 20
35.73740974965268
 30
0.0
 11
80.35554213050941
 21
35.04038429510776
 31
0.0
  0
LINE
  5
A40
330
1F
100
AcDbEntity
  8
隠れ線
 48
0.1
100
AcDbLine
 10
81.25365418438319
 20
35.04038429510776
 30
0.0
 11
80.88183479044468
 21
35.73740974965268
 31
0.0
  0
LINE
  5
A41
330
1F
100
AcDbEntity
  8
隠れ線
 48
0.1
100
AcDbLine
 10
81.98157398236375
 20
35.04038429510776
 30
0.0
 11
81.25365418438319
 21
35.04038429510776
 31
0.0
  0
LINE
  5
A42
330
1F
100
AcDbEntity
  8
隠れ線
 48
0.1
100
AcDbLine
 10
83.76262273656843
 20
31.8343887395554
 30
0.0
 11
81.98157398236375
 21
35.04038429510776
 31
0.0
  0
LINE
  5
A43
330
1F
100
AcDbEntity
  8
隠れ線
 48
0.1
100
AcDbLine
 10
83.03470138976932
 20
31.8343887395554
 30
0.0
 11
83.76262273656843
 21
31.8343887395554
 31
0.0
  0
LINE
  5
A44
330
1F
100
AcDbEntity
  8
隠れ線
 48
0.1
100
AcDbLine
 10
82.50840872983403
 20
31.13736173618829
 30
0.0
 11
83.03470138976932
 21
31.8343887395554
 31
0.0
  0
LINE
  5
A45
330
1F
100
AcDbEntity
  8
隠れ線
 48
0.1
100
AcDbLine
 10
80.37071748404864
 20
35.05555964864154
 30
0.0
 11
82.50840872983403
 21
31.13736173618829
 31
0.0
  0
LINE
  5
A46
330
1F
100
AcDbEntity
  8
隠れ線
 48
0.1
100
AcDbLine
 10
80.88183479044468
 20
35.73740974965268
 30
0.0
 11
82.50840872983403
 21
31.13736173618829
 31
0.0
  0
LINE
  5
A47
330
1F
100
AcDbEntity
  8
隠れ線
 48
0.1
100
AcDbLine
 10
80.88183479044468
 20
31.13736173618829
 30
0.0
 11
79.25580138977179
 21
35.75258665200865
 31
0.0
  0
LINE
  5
A48
330
1F
100
AcDbEntity
  8
隠れ線
 48
0.1
100
AcDbLine
 10
79.25580138977179
 20
35.75258665200865
 30
0.0
 11
81.40866953792224
 21
31.8343887395554
 31
0.0
  0
LINE
  5
A49
330
1F
100
AcDbEntity
  8
隠れ線
 48
0.1
100
AcDbLine
 10
79.62762078371028
 20
35.05555964864154
 30
0.0
 11
79.25580138977179
 21
35.75258665200865
 31
0.0
  0
LINE
  5
A4A
330
1F
100
AcDbEntity
  8
隠れ線
 48
0.1
100
AcDbLine
 10
80.37071748404864
 20
35.05555964864154
 30
0.0
 11
79.62762078371028
 21
35.05555964864154
 31
0.0
  0
LINE
  5
A4B
330
1F
100
AcDbEntity
  8
隠れ線
 48
0.1
100
AcDbLine
 10
82.13658933589917
 20
31.8343887395554
 30
0.0
 11
80.37071748404864
 21
35.05555964864154
 31
0.0
  0
LINE
  5
A4C
330
1F
100
AcDbEntity
  8
隠れ線
 48
0.1
100
AcDbLine
 10
81.40866953792224
 20
31.8343887395554
 30
0.0
 11
82.13658933589917
 21
31.8343887395554
 31
0.0
  0
LINE
  5
A4D
330
1F
100
AcDbEntity
  8
隠れ線
 48
0.1
100
AcDbLine
 10
80.88183479044468
 20
31.13736173618829
 30
0.0
 11
81.40866953792224
 21
31.8343887395554
 31
0.0
  0
LINE
  5
A4E
330
1F
100
AcDbEntity
  8
隠れ線
 48
0.1
100
AcDbLine
 10
79.25580138977179
 20
34.11849014001247
 30
0.0
 11
80.88183479044468
 21
31.13736173618829
 31
0.0
  0
LINE
  5
A4F
330
1F
100
AcDbEntity
  8
隠れ線
 48
0.1
100
AcDbLine
 10
79.25580138977179
 20
35.75258665200865
 30
0.0
 11
80.88183479044468
 21
31.13736173618829
 31
0.0
  0
LINE
  5
A50
330
1F
100
AcDbEntity
  8
隠れ線
 48
0.1
100
AcDbLine
 10
79.78263613724934
 20
31.8343887395554
 30
0.0
 11
79.25580138977179
 21
32.7290276969293
 31
0.0
  0
LINE
  5
A51
330
1F
100
AcDbEntity
  8
隠れ線
 48
0.1
100
AcDbLine
 10
79.78263613724934
 20
31.8343887395554
 30
0.0
 11
79.44595868349583
 21
31.2045788848068
 31
0.0
  0
LINE
  5
A52
330
1F
100
AcDbEntity
  8
隠れ線
 48
0.1
100
AcDbLine
 10
80.51055593522628
 20
31.8343887395554
 30
0.0
 11
79.78263613724934
 21
31.8343887395554
 31
0.0
  0
LINE
  5
A53
330
1F
100
AcDbEntity
  8
隠れ線
 48
0.1
100
AcDbLine
 10
79.25580138977179
 20
34.10302543147056
 30
0.0
 11
80.51055593522628
 21
31.8343887395554
 31
0.0
  0
LINE
  5
A54
330
1F
100
AcDbEntity
  8
隠れ線
 48
0.1
370
     9
100
AcDbLine
 10
91.7558013897718
 20
35.02520739274998
 30
0.0
 11
91.7558013897718
 21
31.8192118371958
 31
0.0
  0
LINE
  5
A55
330
1F
100
AcDbEntity
  8
隠れ線
 48
0.1
100
AcDbLine
 10
75.95580138977251
 20
37.42221038938489
 30
0.0
 11
74.75580138977178
 21
37.42221038938489
 31
0.0
  0
LINE
  5
A56
330
1F
100
AcDbEntity
  8
隠れ線
 48
0.1
100
AcDbLine
 10
75.95580138977251
 20
29.42221038938489
 30
0.0
 11
74.75580138977178
 21
29.42221038938489
 31
0.0
  0
LINE
  5
A57
330
1F
100
AcDbEntity
  8
隠れ線
 48
0.1
100
AcDbLine
 10
75.95580138977251
 20
37.42221038938489
 30
0.0
 11
79.25580138976815
 21
35.8645505351965
 31
0.0
  0
LINE
  5
A58
330
1F
100
AcDbEntity
  8
隠れ線
 48
0.1
100
AcDbLine
 10
75.95580138977251
 20
29.42221038938307
 30
0.0
 11
79.25580138976815
 21
31.02246419523774
 31
0.0
  0
CIRCLE
  5
A59
330
1F
100
AcDbEntity
  8
隠れ線
 48
0.1
100
AcDbCircle
 10
112.1893686439901
 20
33.42221038938489
 30
0.0
 40
2.299999999999999
  0
CIRCLE
  5
A5A
330
1F
100
AcDbEntity
  8
隠れ線
 48
0.1
100
AcDbCircle
 10
112.1893686439901
 20
33.42221038938489
 30
0.0
 40
4.0
  0
LINE
  5
A5B
330
1F
100
AcDbEntity
  8
中心線・切断線
 48
0.1
100
AcDbLine
 10
120.6893686439938
 20
33.42221038938489
 30
0.0
 11
103.6893686439865
 21
33.42221038938489
 31
0.0
  0
LINE
  5
A5C
330
1F
100
AcDbEntity
  8
中心線・切断線
 48
0.1
100
AcDbLine
 10
112.1893686439901
 20
41.92221038938853
 30
0.0
 11
112.1893686439901
 21
24.92221038938125
 31
0.0
  0
LINE
  5
A5D
330
1F
100
AcDbEntity
  8
中心線・切断線
 48
0.1
100
AcDbLine
 10
96.15689125310323
 20
33.42221038938489
 30
0.0
 11
71.47247637527048
 21
33.42234055237943
 31
0.0
  0
DIMENSION
  5
A5E
330
1F
100
AcDbEntity
  8
0
 48
0.1
100
AcDbDimension
  2
*D15
 10
106.1893686439901
 20
49.42221038938488
 30
0.0
 11
112.1893686439901
 21
50.57277857120307
 31
0.0
 70
    32
  1
φ<>
 71
     5
 42
12.0
  3
基本（２：１）
100
AcDbAlignedDimension
 13
118.1893686439901
 23
33.42221038938489
 33
0.0
 14
106.1893686439901
 24
33.42221038938489
 34
0.0
100
AcDbRotatedDimension
1001
ACAD
1000
DSTYLE
1002
{
1070
    40
1040
1.0
1002
}
  0
DIMENSION
  5
A5F
330
1F
100
AcDbEntity
  8
0
 48
0.1
100
AcDbDimension
  2
*D16
 10
46.32158659976208
 20
85.70877032436193
 30
0.0
 11
48.62158659976317
 21
86.75138396072558
 31
0.0
 70
    32
  1
\U+25A1<>
 71
     5
 42
4.600000000002182
  3
基本（２：１）
100
AcDbAlignedDimension
 13
50.92158659976426
 23
75.00877032436121
 33
0.0
 14
46.32158659976208
 24
75.00877032436121
 34
0.0
100
AcDbRotatedDimension
1001
ACAD
1000
DSTYLE
1002
{
1070
    40
1040
1.0
1002
}
  0
DIMENSION
  5
A60
330
1F
100
AcDbEntity
  8
0
 48
0.1
100
AcDbDimension
  2
*D17
 10
22.76750000334446
 20
70.40877032436267
 30
0.0
 11
21.61693182152626
 21
72.70877032436193
 31
0.0
 70
    32
  1
φ<>
 71
     5
 42
4.599999999998544
  3
基本（２：１）
100
AcDbAlignedDimension
 13
26.76750000334446
 23
75.00877032436121
 33
0.0
 14
26.76750000334446
 24
70.40877032436267
 34
0.0
 50
90.0
100
AcDbRotatedDimension
1001
ACAD
1000
DSTYLE
1002
{
1070
    40
1040
1.0
1002
}
  0
DIMENSION
  5
A61
330
1F
100
AcDbEntity
  8
0
 48
0.1
100
AcDbDimension
  2
*D18
 10
19.76750000334446
 20
68.45877032436011
 30
0.0
 11
18.61693182152626
 21
72.70877032436193
 31
0.0
 70
    32
  1
φ<>
 71
     5
 42
8.500000000003637
  3
基本（２：１）
100
AcDbAlignedDimension
 13
26.76750000334446
 23
76.95877032436375
 33
0.0
 14
26.76750000334446
 24
68.45877032436011
 34
0.0
 50
90.0
100
AcDbRotatedDimension
1001
ACAD
1000
DSTYLE
1002
{
1070
    40
1040
1.0
1002
}
  0
DIMENSION
  5
A62
330
1F
100
AcDbEntity
  8
0
 48
0.1
100
AcDbDimension
  2
*D19
 10
26.76750000334446
 20
85.70877032436193
 30
0.0
 11
32.41750000334228
 21
86.70877032436193
 31
0.0
 70
    32
 71
     5
 42
11.29999999999563
  3
基本（２：１）
100
AcDbAlignedDimension
 13
38.06750000334009
 23
74.29659197419143
 33
0.0
 14
26.76750000334446
 24
76.95877032436375
 34
0.0
100
AcDbRotatedDimension
1001
ACAD
1000
DSTYLE
1002
{
1070
    40
1040
1.0
1002
}
  0
DIMENSION
  5
A63
330
1F
100
AcDbEntity
  8
0
 48
0.1
100
AcDbDimension
  2
*D20
 10
67.75580138977179
 20
66.70877032436194
 30
0.0
 11
66.60523320795359
 21
72.70877032436195
 31
0.0
 70
    32
  1
φ<>
 71
     5
 42
12.0
  3
基本（２：１）
100
AcDbAlignedDimension
 13
74.75580138977178
 23
78.70877032436194
 33
0.0
 14
75.25580138977179
 24
66.70877032436194
 34
0.0
 50
90.0
100
AcDbRotatedDimension
1001
ACAD
1000
DSTYLE
1002
{
1070
    40
1040
1.0
1002
}
  0
DIMENSION
  5
A64
330
1F
100
AcDbEntity
  8
0
 48
0.1
100
AcDbDimension
  2
*D21
 10
93.75580138976815
 20
85.70877032436193
 30
0.0
 11
84.25580138976997
 21
86.70877032436193
 31
0.0
 70
    32
 71
     5
 42
18.99999999999636
  3
基本（２：１）
100
AcDbAlignedDimension
 13
74.75580138977178
 23
78.70877032436194
 33
0.0
 14
93.75580138976815
 24
78.68027158566339
 34
0.0
100
AcDbRotatedDimension
1001
ACAD
1000
DSTYLE
1002
{
1070
    40
1040
1.0
1002
}
  0
LINE
  5
A65
330
1F
100
AcDbEntity
  8
中心線・切断線
 48
0.1
100
AcDbLine
 10
53.62158659976135
 20
72.70877032436193
 30
0.0
 11
43.62158659976135
 21
72.70877032436193
 31
0.0
  0
LINE
  5
A66
330
1F
100
AcDbEntity
  8
中心線・切断線
 48
0.1
100
AcDbLine
 10
48.62158659976135
 20
77.70877032436193
 30
0.0
 11
48.62158659976135
 21
67.70877032436193
 31
0.0
  0
LINE
  5
A67
330
1F
100
AcDbEntity
  8
中心線・切断線
 48
0.1
100
AcDbLine
 10
40.46858986667516
 20
72.70877032436011
 30
0.0
 11
25.14801089324406
 21
72.7087703243583
 31
0.0
  0
LINE
  5
A68
330
1F
100
AcDbEntity
  8
中心線・切断線
 48
0.1
100
AcDbLine
 10
96.15689125310323
 20
72.70877032436193
 30
0.0
 11
72.35471152643308
 21
72.70877032436193
 31
0.0
  0
LINE
  5
A69
330
1F
100
AcDbEntity
  8
中心線・切断線
 48
0.1
100
AcDbLine
 10
112.1893686439901
 20
81.20877032436558
 30
0.0
 11
112.1893686439901
 21
64.20877032435829
 31
0.0
  0
LINE
  5
A6A
330
1F
100
AcDbEntity
  8
中心線・切断線
 48
0.1
100
AcDbLine
 10
120.6893686439938
 20
72.70877032436193
 30
0.0
 11
103.6893686439865
 21
72.70877032436193
 31
0.0
  0
CIRCLE
  5
A6B
330
1F
100
AcDbEntity
  8
隠れ線
 48
0.1
100
AcDbCircle
 10
112.1893686439901
 20
72.70877032436193
 30
0.0
 40
4.0
  0
CIRCLE
  5
A6C
330
1F
100
AcDbEntity
  8
隠れ線
 48
0.1
100
AcDbCircle
 10
112.1893686439901
 20
72.70877032436193
 30
0.0
 40
2.299999999999999
  0
LINE
  5
A6D
330
1F
100
AcDbEntity
  8
隠れ線
 48
0.1
100
AcDbLine
 10
75.95580138977251
 20
68.70877032436012
 30
0.0
 11
79.25580138976815
 21
70.30902413021478
 31
0.0
  0
LINE
  5
A6E
330
1F
100
AcDbEntity
  8
隠れ線
 48
0.1
100
AcDbLine
 10
75.95580138977251
 20
76.70877032436194
 30
0.0
 11
79.25580138976815
 21
75.15111047017355
 31
0.0
  0
LINE
  5
A6F
330
1F
100
AcDbEntity
  8
隠れ線
 48
0.1
100
AcDbLine
 10
75.95580138977251
 20
68.70877032436194
 30
0.0
 11
74.75580138977178
 21
68.70877032436194
 31
0.0
  0
LINE
  5
A70
330
1F
100
AcDbEntity
  8
隠れ線
 48
0.1
100
AcDbLine
 10
75.95580138977251
 20
76.70877032436194
 30
0.0
 11
74.75580138977178
 21
76.70877032436194
 31
0.0
  0
LINE
  5
A71
330
1F
100
AcDbEntity
  8
隠れ線
 48
0.1
370
     9
100
AcDbLine
 10
91.7558013897718
 20
74.31176732772702
 30
0.0
 11
91.7558013897718
 21
71.10577177217284
 31
0.0
  0
LINE
  5
A72
330
1F
100
AcDbEntity
  8
隠れ線
 48
0.1
100
AcDbLine
 10
79.25580138977179
 20
73.3895853664476
 30
0.0
 11
80.51055593522628
 21
71.12094867453244
 31
0.0
  0
LINE
  5
A73
330
1F
100
AcDbEntity
  8
隠れ線
 48
0.1
100
AcDbLine
 10
80.51055593522628
 20
71.12094867453244
 30
0.0
 11
79.78263613724934
 21
71.12094867453244
 31
0.0
  0
LINE
  5
A74
330
1F
100
AcDbEntity
  8
隠れ線
 48
0.1
100
AcDbLine
 10
79.78263613724934
 20
71.12094867453244
 30
0.0
 11
79.25580138977179
 21
70.42392167116533
 31
0.0
  0
LINE
  5
A75
330
1F
100
AcDbEntity
  8
隠れ線
 48
0.1
100
AcDbLine
 10
79.78263613724934
 20
71.12094867453244
 30
0.0
 11
79.25580138977179
 21
72.01558763190634
 31
0.0
  0
LINE
  5
A76
330
1F
100
AcDbEntity
  8
隠れ線
 48
0.1
100
AcDbLine
 10
79.25580138977179
 20
75.03914658698569
 30
0.0
 11
80.88183479044468
 21
70.42392167116533
 31
0.0
  0
LINE
  5
A77
330
1F
100
AcDbEntity
  8
隠れ線
 48
0.1
100
AcDbLine
 10
79.25580138977179
 20
73.40505007498951
 30
0.0
 11
80.88183479044468
 21
70.42392167116533
 31
0.0
  0
LINE
  5
A78
330
1F
100
AcDbEntity
  8
隠れ線
 48
0.1
100
AcDbLine
 10
80.88183479044468
 20
70.42392167116533
 30
0.0
 11
81.40866953792224
 21
71.12094867453244
 31
0.0
  0
LINE
  5
A79
330
1F
100
AcDbEntity
  8
隠れ線
 48
0.1
100
AcDbLine
 10
81.40866953792224
 20
71.12094867453244
 30
0.0
 11
82.13658933589917
 21
71.12094867453244
 31
0.0
  0
LINE
  5
A7A
330
1F
100
AcDbEntity
  8
隠れ線
 48
0.1
100
AcDbLine
 10
82.13658933589917
 20
71.12094867453244
 30
0.0
 11
80.37071748404864
 21
74.34211958361858
 31
0.0
  0
LINE
  5
A7B
330
1F
100
AcDbEntity
  8
隠れ線
 48
0.1
100
AcDbLine
 10
80.37071748404864
 20
74.34211958361858
 30
0.0
 11
79.62762078371028
 21
74.34211958361858
 31
0.0
  0
LINE
  5
A7C
330
1F
100
AcDbEntity
  8
隠れ線
 48
0.1
100
AcDbLine
 10
79.62762078371028
 20
74.34211958361858
 30
0.0
 11
79.25580138977179
 21
75.03914658698569
 31
0.0
  0
LINE
  5
A7D
330
1F
100
AcDbEntity
  8
隠れ線
 48
0.1
100
AcDbLine
 10
79.25580138977179
 20
75.03914658698569
 30
0.0
 11
81.40866953792224
 21
71.12094867453244
 31
0.0
  0
LINE
  5
A7E
330
1F
100
AcDbEntity
  8
隠れ線
 48
0.1
100
AcDbLine
 10
80.88183479044468
 20
70.42392167116533
 30
0.0
 11
79.25580138977179
 21
75.03914658698569
 31
0.0
  0
LINE
  5
A7F
330
1F
100
AcDbEntity
  8
隠れ線
 48
0.1
100
AcDbLine
 10
80.88183479044468
 20
75.02396968462973
 30
0.0
 11
82.50840872983403
 21
70.42392167116533
 31
0.0
  0
LINE
  5
A80
330
1F
100
AcDbEntity
  8
隠れ線
 48
0.1
100
AcDbLine
 10
80.37071748404864
 20
74.34211958361858
 30
0.0
 11
82.50840872983403
 21
70.42392167116533
 31
0.0
  0
LINE
  5
A81
330
1F
100
AcDbEntity
  8
隠れ線
 48
0.1
100
AcDbLine
 10
82.50840872983403
 20
70.42392167116533
 30
0.0
 11
83.03470138976932
 21
71.12094867453244
 31
0.0
  0
LINE
  5
A82
330
1F
100
AcDbEntity
  8
隠れ線
 48
0.1
100
AcDbLine
 10
83.03470138976932
 20
71.12094867453244
 30
0.0
 11
83.76262273656843
 21
71.12094867453244
 31
0.0
  0
LINE
  5
A83
330
1F
100
AcDbEntity
  8
隠れ線
 48
0.1
100
AcDbLine
 10
83.76262273656843
 20
71.12094867453244
 30
0.0
 11
81.98157398236375
 21
74.32694423008481
 31
0.0
  0
LINE
  5
A84
330
1F
100
AcDbEntity
  8
隠れ線
 48
0.1
100
AcDbLine
 10
81.98157398236375
 20
74.32694423008481
 30
0.0
 11
81.25365418438319
 21
74.32694423008481
 31
0.0
  0
LINE
  5
A85
330
1F
100
AcDbEntity
  8
隠れ線
 48
0.1
100
AcDbLine
 10
81.25365418438319
 20
74.32694423008481
 30
0.0
 11
80.88183479044468
 21
75.02396968462973
 31
0.0
  0
LINE
  5
A86
330
1F
100
AcDbEntity
  8
隠れ線
 48
0.1
100
AcDbLine
 10
80.88183479044468
 20
75.02396968462973
 30
0.0
 11
80.35554213050941
 21
74.32694423008481
 31
0.0
  0
LINE
  5
A87
330
1F
100
AcDbEntity
  8
隠れ線
 48
0.1
100
AcDbLine
 10
80.88183479044468
 20
75.02396968462973
 30
0.0
 11
83.03470138976932
 21
71.12094867453244
 31
0.0
  0
LINE
  5
A88
330
1F
100
AcDbEntity
  8
隠れ線
 48
0.1
100
AcDbLine
 10
82.50840872983403
 20
70.42392167116533
 30
0.0
 11
80.88183479044468
 21
75.02396968462973
 31
0.0
  0
LINE
  5
A89
330
1F
100
AcDbEntity
  8
隠れ線
 48
0.1
100
AcDbLine
 10
82.50840872983403
 20
75.02396968462973
 30
0.0
 11
84.13444213050693
 21
70.42392167116533
 31
0.0
  0
LINE
  5
A8A
330
1F
100
AcDbEntity
  8
隠れ線
 48
0.1
100
AcDbLine
 10
81.98157398236375
 20
74.32694423008481
 30
0.0
 11
84.13444213050693
 21
70.42392167116533
 31
0.0
  0
LINE
  5
A8B
330
1F
100
AcDbEntity
  8
隠れ線
 48
0.1
100
AcDbLine
 10
84.13444213050693
 20
70.42392167116533
 30
0.0
 11
84.66127687798083
 21
71.10577177217284
 31
0.0
  0
LINE
  5
A8C
330
1F
100
AcDbEntity
  8
隠れ線
 48
0.1
100
AcDbLine
 10
84.66127687798083
 20
71.10577177217284
 30
0.0
 11
85.38919822477996
 21
71.10577177217284
 31
0.0
  0
LINE
  5
A8D
330
1F
100
AcDbEntity
  8
隠れ線
 48
0.1
100
AcDbLine
 10
85.38919822477996
 20
71.10577177217284
 30
0.0
 11
83.60814947057528
 21
74.32694423008481
 31
0.0
  0
LINE
  5
A8E
330
1F
100
AcDbEntity
  8
隠れ線
 48
0.1
100
AcDbLine
 10
83.60814947057528
 20
74.32694423008481
 30
0.0
 11
82.88022812377617
 21
74.32694423008481
 31
0.0
  0
LINE
  5
A8F
330
1F
100
AcDbEntity
  8
隠れ線
 48
0.1
100
AcDbLine
 10
82.88022812377617
 20
74.32694423008481
 30
0.0
 11
82.50840872983403
 21
75.02396968462973
 31
0.0
  0
LINE
  5
A90
330
1F
100
AcDbEntity
  8
隠れ線
 48
0.1
100
AcDbLine
 10
82.50840872983403
 20
75.02396968462973
 30
0.0
 11
81.98157398236375
 21
74.32694423008481
 31
0.0
  0
LINE
  5
A91
330
1F
100
AcDbEntity
  8
隠れ線
 48
0.1
100
AcDbLine
 10
82.50840872983403
 20
75.02396968462973
 30
0.0
 11
84.66127687798083
 21
71.10577177217284
 31
0.0
  0
LINE
  5
A92
330
1F
100
AcDbEntity
  8
隠れ線
 48
0.1
100
AcDbLine
 10
84.13444213050693
 20
70.42392167116533
 30
0.0
 11
82.50840872983403
 21
75.02396968462973
 31
0.0
  0
LINE
  5
A93
330
1F
100
AcDbEntity
  8
隠れ線
 48
0.1
100
AcDbLine
 10
84.13444213050693
 20
75.02396968462973
 30
0.0
 11
85.76101761872573
 21
70.42392167116533
 31
0.0
  0
LINE
  5
A94
330
1F
100
AcDbEntity
  8
隠れ線
 48
0.1
100
AcDbLine
 10
83.62332637293306
 20
74.32694423008481
 30
0.0
 11
85.76101761872573
 21
70.42392167116533
 31
0.0
  0
LINE
  5
A95
330
1F
100
AcDbEntity
  8
隠れ線
 48
0.1
100
AcDbLine
 10
85.76101761872573
 20
70.42392167116533
 30
0.0
 11
86.28731027865374
 21
71.10577177217284
 31
0.0
  0
LINE
  5
A96
330
1F
100
AcDbEntity
  8
隠れ線
 48
0.1
100
AcDbLine
 10
86.28731027865374
 20
71.10577177217284
 30
0.0
 11
87.01523162545285
 21
71.10577177217284
 31
0.0
  0
LINE
  5
A97
330
1F
100
AcDbEntity
  8
隠れ線
 48
0.1
100
AcDbLine
 10
87.01523162545285
 20
71.10577177217284
 30
0.0
 11
85.23418287124817
 21
74.32694423008481
 31
0.0
  0
LINE
  5
A98
330
1F
100
AcDbEntity
  8
隠れ線
 48
0.1
100
AcDbLine
 10
85.23418287124817
 20
74.32694423008481
 30
0.0
 11
84.50626152444906
 21
74.32694423008481
 31
0.0
  0
LINE
  5
A99
330
1F
100
AcDbEntity
  8
隠れ線
 48
0.1
100
AcDbLine
 10
84.50626152444906
 20
74.32694423008481
 30
0.0
 11
84.13444213050693
 21
75.02396968462973
 31
0.0
  0
LINE
  5
A9A
330
1F
100
AcDbEntity
  8
隠れ線
 48
0.1
100
AcDbLine
 10
84.13444213050693
 20
75.02396968462973
 30
0.0
 11
83.60814947057528
 21
74.32694423008481
 31
0.0
  0
LINE
  5
A9B
330
1F
100
AcDbEntity
  8
隠れ線
 48
0.1
100
AcDbLine
 10
84.13444213050693
 20
75.02396968462973
 30
0.0
 11
86.28731027865374
 21
71.10577177217284
 31
0.0
  0
LINE
  5
A9C
330
1F
100
AcDbEntity
  8
隠れ線
 48
0.1
100
AcDbLine
 10
85.76101761872573
 20
70.42392167116533
 30
0.0
 11
84.13444213050693
 21
75.02396968462973
 31
0.0
  0
LINE
  5
A9D
330
1F
100
AcDbEntity
  8
隠れ線
 48
0.1
100
AcDbLine
 10
85.76101761872573
 20
75.02396968462973
 30
0.0
 11
87.38705101939499
 21
70.42392167116533
 31
0.0
  0
LINE
  5
A9E
330
1F
100
AcDbEntity
  8
隠れ線
 48
0.1
100
AcDbLine
 10
85.24990186114459
 20
74.32694423008481
 30
0.0
 11
87.38705101939499
 21
70.42392167116533
 31
0.0
  0
LINE
  5
A9F
330
1F
100
AcDbEntity
  8
隠れ線
 48
0.1
100
AcDbLine
 10
87.38705101939499
 20
70.42392167116533
 30
0.0
 11
87.91388576686527
 21
71.10577177217284
 31
0.0
  0
LINE
  5
AA0
330
1F
100
AcDbEntity
  8
隠れ線
 48
0.1
100
AcDbLine
 10
87.91388576686527
 20
71.10577177217284
 30
0.0
 11
88.64180556484948
 21
71.10577177217284
 31
0.0
  0
LINE
  5
AA1
330
1F
100
AcDbEntity
  8
隠れ線
 48
0.1
100
AcDbLine
 10
88.64180556484948
 20
71.10577177217284
 30
0.0
 11
86.87593371299895
 21
74.32694423008481
 31
0.0
  0
LINE
  5
AA2
330
1F
100
AcDbEntity
  8
隠れ線
 48
0.1
100
AcDbLine
 10
86.87593371299895
 20
74.32694423008481
 30
0.0
 11
86.14801391501837
 21
74.32694423008481
 31
0.0
  0
LINE
  5
AA3
330
1F
100
AcDbEntity
  8
隠れ線
 48
0.1
100
AcDbLine
 10
86.14801391501837
 20
74.32694423008481
 30
0.0
 11
85.76101761872573
 21
75.02396968462973
 31
0.0
  0
LINE
  5
AA4
330
1F
100
AcDbEntity
  8
隠れ線
 48
0.1
100
AcDbLine
 10
85.76101761872573
 20
75.02396968462973
 30
0.0
 11
85.23418287124817
 21
74.32694423008481
 31
0.0
  0
LINE
  5
AA5
330
1F
100
AcDbEntity
  8
隠れ線
 48
0.1
100
AcDbLine
 10
85.76101761872573
 20
75.02396968462973
 30
0.0
 11
87.91388576686527
 21
71.10577177217284
 31
0.0
  0
LINE
  5
AA6
330
1F
100
AcDbEntity
  8
隠れ線
 48
0.1
100
AcDbLine
 10
87.38705101939499
 20
70.42392167116533
 30
0.0
 11
85.76101761872573
 21
75.02396968462973
 31
0.0
  0
LINE
  5
AA7
330
1F
100
AcDbEntity
  8
隠れ線
 48
0.1
100
AcDbLine
 10
87.38705101939499
 20
75.00879433109232
 30
0.0
 11
89.01362650760651
 21
70.40874631762974
 31
0.0
  0
LINE
  5
AA8
330
1F
100
AcDbEntity
  8
隠れ線
 48
0.1
100
AcDbLine
 10
86.87593371299895
 20
74.32694423008481
 30
0.0
 11
89.01362650760651
 21
70.40874631762974
 31
0.0
  0
LINE
  5
AA9
330
1F
100
AcDbEntity
  8
隠れ線
 48
0.1
100
AcDbLine
 10
89.01362650760651
 20
70.40874631762974
 30
0.0
 11
89.53991916753816
 21
71.10577177217284
 31
0.0
  0
LINE
  5
AAA
330
1F
100
AcDbEntity
  8
隠れ線
 48
0.1
100
AcDbLine
 10
89.53991916753816
 20
71.10577177217284
 30
0.0
 11
90.26783896552236
 21
71.10577177217284
 31
0.0
  0
LINE
  5
AAB
330
1F
100
AcDbEntity
  8
隠れ線
 48
0.1
100
AcDbLine
 10
90.26783896552236
 20
71.10577177217284
 30
0.0
 11
88.48679176013261
 21
74.32694423008481
 31
0.0
  0
LINE
  5
AAC
330
1F
100
AcDbEntity
  8
隠れ線
 48
0.1
100
AcDbLine
 10
88.48679176013261
 20
74.32694423008481
 30
0.0
 11
87.75887041333348
 21
74.32694423008481
 31
0.0
  0
LINE
  5
AAD
330
1F
100
AcDbEntity
  8
隠れ線
 48
0.1
100
AcDbLine
 10
87.75887041333348
 20
74.32694423008481
 30
0.0
 11
87.38705101939499
 21
75.00879433109232
 31
0.0
  0
LINE
  5
AAE
330
1F
100
AcDbEntity
  8
隠れ線
 48
0.1
100
AcDbLine
 10
87.38705101939499
 20
75.00879433109232
 30
0.0
 11
86.8607583594597
 21
74.32694423008481
 31
0.0
  0
LINE
  5
AAF
330
1F
100
AcDbEntity
  8
隠れ線
 48
0.1
100
AcDbLine
 10
87.38705101939499
 20
75.00879433109232
 30
0.0
 11
89.53991916753816
 21
71.10577177217284
 31
0.0
  0
LINE
  5
AB0
330
1F
100
AcDbEntity
  8
隠れ線
 48
0.1
100
AcDbLine
 10
89.01362650760651
 20
70.40874631762974
 30
0.0
 11
87.38705101939499
 21
75.00879433109232
 31
0.0
  0
LINE
  5
AB1
330
1F
100
AcDbEntity
  8
隠れ線
 48
0.1
100
AcDbLine
 10
89.01362650760651
 20
75.00879433109232
 30
0.0
 11
90.63965835945722
 21
70.40874631762974
 31
0.0
  0
LINE
  5
AB2
330
1F
100
AcDbEntity
  8
隠れ線
 48
0.1
100
AcDbLine
 10
88.48679176013261
 20
74.32694423008481
 30
0.0
 11
90.63965835945722
 21
70.40874631762974
 31
0.0
  0
LINE
  5
AB3
330
1F
100
AcDbEntity
  8
隠れ線
 48
0.1
100
AcDbLine
 10
90.63965835945722
 20
70.40874631762974
 30
0.0
 11
91.16649310693114
 21
71.10577177217284
 31
0.0
  0
LINE
  5
AB4
330
1F
100
AcDbEntity
  8
隠れ線
 48
0.1
100
AcDbLine
 10
91.16649310693114
 20
71.10577177217284
 30
0.0
 11
91.75580138977542
 21
71.10577177217284
 31
0.0
  0
LINE
  5
AB5
330
1F
100
AcDbEntity
  8
隠れ線
 48
0.1
100
AcDbLine
 10
91.75580138977542
 20
71.35520775746273
 30
0.0
 11
90.11282361198331
 21
74.3117673277252
 31
0.0
  0
LINE
  5
AB6
330
1F
100
AcDbEntity
  8
隠れ線
 48
0.1
100
AcDbLine
 10
90.11282361198331
 20
74.3117673277252
 30
0.0
 11
89.38490381400274
 21
74.3117673277252
 31
0.0
  0
LINE
  5
AB7
330
1F
100
AcDbEntity
  8
隠れ線
 48
0.1
100
AcDbLine
 10
89.38490381400274
 20
74.3117673277252
 30
0.0
 11
89.01362650760651
 21
75.00879433109232
 31
0.0
  0
LINE
  5
AB8
330
1F
100
AcDbEntity
  8
隠れ線
 48
0.1
100
AcDbLine
 10
89.01362650760651
 20
75.00879433109232
 30
0.0
 11
88.48679176013261
 21
74.3117673277252
 31
0.0
  0
LINE
  5
AB9
330
1F
100
AcDbEntity
  8
隠れ線
 48
0.1
100
AcDbLine
 10
89.01362650760651
 20
75.00879433109232
 30
0.0
 11
91.16649310693114
 21
71.10577177217284
 31
0.0
  0
LINE
  5
ABA
330
1F
100
AcDbEntity
  8
隠れ線
 48
0.1
100
AcDbLine
 10
90.63965835945722
 20
70.40874631762974
 30
0.0
 11
89.01362650760651
 21
75.00879433109232
 31
0.0
  0
LINE
  5
ABB
330
1F
100
AcDbEntity
  8
隠れ線
 48
0.1
100
AcDbLine
 10
90.63965835945722
 20
75.00879433109232
 30
0.0
 11
91.7558013897718
 21
71.85122602576895
 31
0.0
  0
LINE
  5
ABC
330
1F
100
AcDbEntity
  8
隠れ線
 48
0.1
100
AcDbLine
 10
90.11282361198331
 20
74.3117673277252
 30
0.0
 11
91.75580138977542
 21
71.33314702004328
 31
0.0
  0
LINE
  5
ABD
330
1F
100
AcDbEntity
  8
隠れ線
 48
0.1
100
AcDbLine
 10
91.73939910019848
 20
74.3117673277252
 30
0.0
 11
91.01147775339937
 21
74.3117673277252
 31
0.0
  0
LINE
  5
ABE
330
1F
100
AcDbEntity
  8
隠れ線
 48
0.1
100
AcDbLine
 10
91.01147775339937
 20
74.3117673277252
 30
0.0
 11
90.63965835945722
 21
75.00879433109232
 31
0.0
  0
LINE
  5
ABF
330
1F
100
AcDbEntity
  8
隠れ線
 48
0.1
100
AcDbLine
 10
90.63965835945722
 20
75.00879433109232
 30
0.0
 11
90.11282361198331
 21
74.3117673277252
 31
0.0
  0
LINE
  5
AC0
330
1F
100
AcDbEntity
  8
隠れ線
 48
0.1
100
AcDbLine
 10
90.63965835945722
 20
75.00879433109232
 30
0.0
 11
91.7558013897718
 21
72.9622028931849
 31
0.0
  0
LINE
  5
AC1
330
1F
100
AcDbEntity
  8
隠れ線
 48
0.1
100
AcDbLine
 10
91.7558013897718
 20
71.85122602576895
 30
0.0
 11
90.63965835945722
 21
75.00879433109232
 31
0.0
  0
LINE
  5
AC2
330
1F
100
AcDbEntity
  8
0
100
AcDbLine
 10
29.06750000334373
 20
70.40877032436267
 30
0.0
 11
28.06750000334373
 21
70.40877032436267
 31
0.0
  0
LINE
  5
AC3
330
1F
100
AcDbEntity
  8
0
100
AcDbLine
 10
29.06750000334373
 20
75.00877032436121
 30
0.0
 11
28.06750000334373
 21
75.00877032436121
 31
0.0
  0
LINE
  5
AC4
330
1F
100
AcDbEntity
  8
0
100
AcDbLine
 10
29.06750000334373
 20
75.00877032436121
 30
0.0
 11
29.06750000334373
 21
70.40877032436267
 31
0.0
  0
ARC
  5
AC5
330
1F
100
AcDbEntity
  8
0
100
AcDbCircle
 10
39.87275905179863
 20
72.68873047075477
 30
0.0
 40
13.10527437037499
100
AcDbArc
 50
162.5952890150192
 51
197.4633125734296
  0
ARC
  5
AC6
330
1F
100
AcDbEntity
  8
0
100
AcDbCircle
 10
27.71750000334519
 20
68.80877032436048
 30
0.0
 40
0.35
100
AcDbArc
 50
180.0
 51
0.0
  0
ARC
  5
AC7
330
1F
100
AcDbEntity
  8
0
100
AcDbCircle
 10
27.71750000334519
 20
76.60877032436339
 30
0.0
 40
0.35
100
AcDbArc
 50
0.0
 51
180.0
  0
LINE
  5
AC8
330
1F
100
AcDbEntity
  8
0
100
AcDbLine
 10
27.367500003343
 20
76.60877032436339
 30
0.0
 11
27.367500003343
 21
68.76869061714616
 31
0.0
  0
LINE
  5
AC9
330
1F
100
AcDbEntity
  8
0
100
AcDbLine
 10
28.06750000334373
 20
76.60877032436339
 30
0.0
 11
28.06750000334373
 21
68.80877032436048
 31
0.0
  0
LINE
  5
ACA
330
1F
100
AcDbEntity
  8
0
100
AcDbLine
 10
38.06750000334009
 20
72.53592443464596
 30
0.0
 11
37.19874963296693
 21
74.99361897755854
 31
0.0
  0
LINE
  5
ACB
330
1F
100
AcDbEntity
  8
0
370
     9
100
AcDbLine
 10
37.19874963296693
 20
74.99361897755854
 30
0.0
 11
38.06750000334009
 21
73.40065372006257
 31
0.0
  0
LINE
  5
ACC
330
1F
100
AcDbEntity
  8
0
100
AcDbLine
 10
37.19874963296693
 20
74.99361897755854
 30
0.0
 11
36.67191488549302
 21
74.29659197419143
 31
0.0
  0
LINE
  5
ACD
330
1F
100
AcDbEntity
  8
0
100
AcDbLine
 10
37.57056902690906
 20
74.29659197419143
 30
0.0
 11
37.19874963296693
 21
74.99361897755854
 31
0.0
  0
LINE
  5
ACE
330
1F
100
AcDbEntity
  8
0
100
AcDbLine
 10
38.06750000334009
 20
74.29659197419143
 30
0.0
 11
37.57056902690906
 21
74.29659197419143
 31
0.0
  0
LINE
  5
ACF
330
1F
100
AcDbEntity
  8
0
100
AcDbLine
 10
38.06750000334009
 20
71.07487897756302
 30
0.0
 11
38.06750000334009
 21
74.29659197419143
 31
0.0
  0
LINE
  5
AD0
330
1F
100
AcDbEntity
  8
0
370
     9
100
AcDbLine
 10
36.67191488549302
 20
74.29659197419143
 30
0.0
 11
38.06750000334009
 21
71.7664797418097
 31
0.0
  0
LINE
  5
AD1
330
1F
100
AcDbEntity
  8
0
100
AcDbLine
 10
37.19874963296693
 20
74.99361897755854
 30
0.0
 11
38.06750000334009
 21
72.53592443464596
 31
0.0
  0
LINE
  5
AD2
330
1F
100
AcDbEntity
  8
0
100
AcDbLine
 10
37.19874963296693
 20
70.39357096409777
 30
0.0
 11
35.57271778111622
 21
74.99361897755854
 31
0.0
  0
LINE
  5
AD3
330
1F
100
AcDbEntity
  8
0
370
     9
100
AcDbLine
 10
35.57271778111622
 20
74.99361897755854
 30
0.0
 11
37.72558438044085
 21
71.09059641863907
 31
0.0
  0
LINE
  5
AD4
330
1F
100
AcDbEntity
  8
0
100
AcDbLine
 10
35.57271778111622
 20
74.99361897755854
 30
0.0
 11
35.04588303364231
 21
74.29659197419143
 31
0.0
  0
LINE
  5
AD5
330
1F
100
AcDbEntity
  8
0
100
AcDbLine
 10
35.94399508751244
 20
74.29659197419143
 30
0.0
 11
35.57271778111622
 21
74.99361897755854
 31
0.0
  0
LINE
  5
AD6
330
1F
100
AcDbEntity
  8
0
100
AcDbLine
 10
36.67191488549302
 20
74.29659197419143
 30
0.0
 11
35.94399508751244
 21
74.29659197419143
 31
0.0
  0
LINE
  5
AD7
330
1F
100
AcDbEntity
  8
0
370
     9
100
AcDbLine
 10
38.06750000334009
 20
71.78521866649363
 30
0.0
 11
36.67191488549302
 21
74.29659197419143
 31
0.0
  0
LINE
  5
AD8
330
1F
100
AcDbEntity
  8
0
100
AcDbLine
 10
37.72558438044085
 20
71.09059641863907
 30
0.0
 11
38.06750000334009
 21
71.09059641863907
 31
0.0
  0
LINE
  5
AD9
330
1F
100
AcDbEntity
  8
0
100
AcDbLine
 10
37.19874963296693
 20
70.39357096409777
 30
0.0
 11
37.72558438044085
 21
71.09059641863907
 31
0.0
  0
LINE
  5
ADA
330
1F
100
AcDbEntity
  8
0
370
     9
100
AcDbLine
 10
35.04588303364231
 20
74.31176887655102
 30
0.0
 11
37.19874963296693
 21
70.39357096409777
 31
0.0
  0
LINE
  5
ADB
330
1F
100
AcDbEntity
  8
0
100
AcDbLine
 10
35.57271778111622
 20
74.99361897755854
 30
0.0
 11
37.19874963296693
 21
70.39357096409777
 31
0.0
  0
LINE
  5
ADC
330
1F
100
AcDbEntity
  8
0
100
AcDbLine
 10
35.57271778111622
 20
70.39357096409777
 30
0.0
 11
33.94614229290469
 21
74.99361897755854
 31
0.0
  0
LINE
  5
ADD
330
1F
100
AcDbEntity
  8
0
370
     9
100
AcDbLine
 10
33.94614229290469
 20
74.99361897755854
 30
0.0
 11
36.09901044104786
 21
71.09059641863907
 31
0.0
  0
LINE
  5
ADE
330
1F
100
AcDbEntity
  8
0
100
AcDbLine
 10
33.94614229290469
 20
74.99361897755854
 30
0.0
 11
33.41984963296941
 21
74.31176887655102
 31
0.0
  0
LINE
  5
ADF
330
1F
100
AcDbEntity
  8
0
100
AcDbLine
 10
34.31796168684318
 20
74.31176887655102
 30
0.0
 11
33.94614229290469
 21
74.99361897755854
 31
0.0
  0
LINE
  5
AE0
330
1F
100
AcDbEntity
  8
0
100
AcDbLine
 10
35.04588303364231
 20
74.31176887655102
 30
0.0
 11
34.31796168684318
 21
74.31176887655102
 31
0.0
  0
LINE
  5
AE1
330
1F
100
AcDbEntity
  8
0
370
     9
100
AcDbLine
 10
36.82693023902844
 20
71.09059641863907
 30
0.0
 11
35.04588303364231
 21
74.31176887655102
 31
0.0
  0
LINE
  5
AE2
330
1F
100
AcDbEntity
  8
0
100
AcDbLine
 10
36.09901044104786
 20
71.09059641863907
 30
0.0
 11
36.82693023902844
 21
71.09059641863907
 31
0.0
  0
LINE
  5
AE3
330
1F
100
AcDbEntity
  8
0
100
AcDbLine
 10
35.57271778111622
 20
70.39357096409777
 30
0.0
 11
36.09901044104786
 21
71.09059641863907
 31
0.0
  0
LINE
  5
AE4
330
1F
100
AcDbEntity
  8
0
370
     9
100
AcDbLine
 10
33.43502498650865
 20
74.31176887655102
 30
0.0
 11
35.57271778111622
 21
70.39357096409777
 31
0.0
  0
LINE
  5
AE5
330
1F
100
AcDbEntity
  8
0
100
AcDbLine
 10
33.94614229290469
 20
74.99361897755854
 30
0.0
 11
35.57271778111622
 21
70.39357096409777
 31
0.0
  0
LINE
  5
AE6
330
1F
100
AcDbEntity
  8
0
100
AcDbLine
 10
33.94614229290469
 20
70.40874631763156
 30
0.0
 11
32.32010889223179
 21
75.00879433109595
 31
0.0
  0
LINE
  5
AE7
330
1F
100
AcDbEntity
  8
0
370
     9
100
AcDbLine
 10
32.32010889223179
 20
75.00879433109595
 30
0.0
 11
34.47297704037497
 21
71.09059641863907
 31
0.0
  0
LINE
  5
AE8
330
1F
100
AcDbEntity
  8
0
100
AcDbLine
 10
32.32010889223179
 20
75.00879433109595
 30
0.0
 11
31.79327414475788
 21
74.31176887655102
 31
0.0
  0
LINE
  5
AE9
330
1F
100
AcDbEntity
  8
0
100
AcDbLine
 10
32.70710518852807
 20
74.31176887655102
 30
0.0
 11
32.32010889223179
 21
75.00879433109595
 31
0.0
  0
LINE
  5
AEA
330
1F
100
AcDbEntity
  8
0
100
AcDbLine
 10
33.43502498650865
 20
74.31176887655102
 30
0.0
 11
32.70710518852807
 21
74.31176887655102
 31
0.0
  0
LINE
  5
AEB
330
1F
100
AcDbEntity
  8
0
370
     9
100
AcDbLine
 10
35.20089683835918
 20
71.09059641863907
 30
0.0
 11
33.43502498650865
 21
74.31176887655102
 31
0.0
  0
LINE
  5
AEC
330
1F
100
AcDbEntity
  8
0
100
AcDbLine
 10
34.47297704037497
 20
71.09059641863907
 30
0.0
 11
35.20089683835918
 21
71.09059641863907
 31
0.0
  0
LINE
  5
AED
330
1F
100
AcDbEntity
  8
0
100
AcDbLine
 10
33.94614229290469
 20
70.40874631763156
 30
0.0
 11
34.47297704037497
 21
71.09059641863907
 31
0.0
  0
LINE
  5
AEE
330
1F
100
AcDbEntity
  8
0
370
     9
100
AcDbLine
 10
31.8089931346543
 20
74.31176887655102
 30
0.0
 11
33.94614229290469
 21
70.40874631763156
 31
0.0
  0
LINE
  5
AEF
330
1F
100
AcDbEntity
  8
0
100
AcDbLine
 10
32.32010889223179
 20
75.00879433109595
 30
0.0
 11
33.94614229290469
 21
70.40874631763156
 31
0.0
  0
LINE
  5
AF0
330
1F
100
AcDbEntity
  8
0
100
AcDbLine
 10
32.32010889223179
 20
70.40874631763156
 30
0.0
 11
30.69353340401663
 21
75.00879433109595
 31
0.0
  0
LINE
  5
AF1
330
1F
100
AcDbEntity
  8
0
370
     9
100
AcDbLine
 10
30.69353340401663
 20
75.00879433109595
 30
0.0
 11
32.84640155216344
 21
71.09059641863907
 31
0.0
  0
LINE
  5
AF2
330
1F
100
AcDbEntity
  8
0
100
AcDbLine
 10
30.69353340401663
 20
75.00879433109595
 30
0.0
 11
30.16724074408499
 21
74.31176887655102
 31
0.0
  0
LINE
  5
AF3
330
1F
100
AcDbEntity
  8
0
100
AcDbLine
 10
31.06535279795876
 20
74.31176887655102
 30
0.0
 11
30.69353340401663
 21
75.00879433109595
 31
0.0
  0
LINE
  5
AF4
330
1F
100
AcDbEntity
  8
0
100
AcDbLine
 10
31.79327414475788
 20
74.31176887655102
 30
0.0
 11
31.06535279795876
 21
74.31176887655102
 31
0.0
  0
LINE
  5
AF5
330
1F
100
AcDbEntity
  8
0
370
     9
100
AcDbLine
 10
33.57432289896256
 20
71.09059641863907
 30
0.0
 11
31.79327414475788
 21
74.31176887655102
 31
0.0
  0
LINE
  5
AF6
330
1F
100
AcDbEntity
  8
0
100
AcDbLine
 10
32.84640155216344
 20
71.09059641863907
 30
0.0
 11
33.57432289896256
 21
71.09059641863907
 31
0.0
  0
LINE
  5
AF7
330
1F
100
AcDbEntity
  8
0
100
AcDbLine
 10
32.32010889223179
 20
70.40874631763156
 30
0.0
 11
32.84640155216344
 21
71.09059641863907
 31
0.0
  0
LINE
  5
AF8
330
1F
100
AcDbEntity
  8
0
370
     9
100
AcDbLine
 10
30.18241764644276
 20
74.31176887655102
 30
0.0
 11
32.32010889223179
 21
70.40874631763156
 31
0.0
  0
LINE
  5
AF9
330
1F
100
AcDbEntity
  8
0
100
AcDbLine
 10
30.69353340401663
 20
75.00879433109595
 30
0.0
 11
32.32010889223179
 21
70.40874631763156
 31
0.0
  0
LINE
  5
AFA
330
1F
100
AcDbEntity
  8
0
100
AcDbLine
 10
30.69353340401663
 20
70.40874631763156
 30
0.0
 11
29.06750000334373
 21
75.00879433109595
 31
0.0
  0
LINE
  5
AFB
330
1F
100
AcDbEntity
  8
0
370
     9
100
AcDbLine
 10
29.06750000334373
 20
75.00879433109595
 30
0.0
 11
31.22036815149054
 21
71.09059641863907
 31
0.0
  0
LINE
  5
AFC
330
1F
100
AcDbEntity
  8
0
100
AcDbLine
 10
29.43931939728587
 20
74.31176887655102
 30
0.0
 11
29.06750000334373
 21
75.00879433109595
 31
0.0
  0
LINE
  5
AFD
330
1F
100
AcDbEntity
  8
0
100
AcDbLine
 10
30.16724074408499
 20
74.31176887655102
 30
0.0
 11
29.43931939728587
 21
74.31176887655102
 31
0.0
  0
LINE
  5
AFE
330
1F
100
AcDbEntity
  8
0
370
     9
100
AcDbLine
 10
31.94828949828966
 20
71.09059641863907
 30
0.0
 11
30.16724074408499
 21
74.31176887655102
 31
0.0
  0
LINE
  5
AFF
330
1F
100
AcDbEntity
  8
0
100
AcDbLine
 10
31.22036815149054
 20
71.09059641863907
 30
0.0
 11
31.94828949828966
 21
71.09059641863907
 31
0.0
  0
LINE
  5
B00
330
1F
100
AcDbEntity
  8
0
100
AcDbLine
 10
30.69353340401663
 20
70.40874631763156
 30
0.0
 11
31.22036815149054
 21
71.09059641863907
 31
0.0
  0
LINE
  5
B01
330
1F
100
AcDbEntity
  8
0
370
     9
100
AcDbLine
 10
29.06750000334009
 20
73.35664865427545
 30
0.0
 11
30.69353340401663
 21
70.40874631763156
 31
0.0
  0
LINE
  5
B02
330
1F
100
AcDbEntity
  8
0
100
AcDbLine
 10
29.06750000334373
 20
75.00879433109595
 30
0.0
 11
30.69353340401663
 21
70.40874631763156
 31
0.0
  0
LINE
  5
B03
330
1F
100
AcDbEntity
  8
0
100
AcDbLine
 10
29.06750000334009
 20
72.05991107846468
 30
0.0
 11
29.59379266327901
 21
71.10577332099866
 31
0.0
  0
LINE
  5
B04
330
1F
100
AcDbEntity
  8
0
370
     9
100
AcDbLine
 10
30.32171401007814
 20
71.10577332099866
 30
0.0
 11
29.06750000334009
 21
73.36343444443492
 31
0.0
  0
LINE
  5
B05
330
1F
100
AcDbEntity
  8
0
100
AcDbLine
 10
29.59379266327901
 20
71.10577332099866
 30
0.0
 11
30.32171401007814
 21
71.10577332099866
 31
0.0
  0
LINE
  5
B06
330
1F
100
AcDbEntity
  8
0
100
AcDbLine
 10
29.06750000334373
 20
70.40874631763156
 30
0.0
 11
29.59379266327901
 21
71.10577332099866
 31
0.0
  0
LINE
  5
B07
330
1F
100
AcDbEntity
  8
0
 48
2.0
100
AcDbLine
 10
29.06750000334373
 20
75.00879433109414
 30
0.0
 11
29.06750000334373
 21
70.40874631763156
 31
0.0
  0
LINE
  5
B08
330
1F
100
AcDbEntity
  8
隠れ線
 48
0.1
370
     9
100
AcDbLine
 10
79.25580138976815
 20
75.15111047017355
 30
0.0
 11
79.25580138976815
 21
70.30902413021478
 31
0.0
  0
LINE
  5
B09
330
1F
100
AcDbEntity
  8
0
 48
2.0
370
     9
100
AcDbLine
 10
75.25580138977179
 20
78.70560121308018
 30
0.0
 11
93.25580138977178
 21
78.70560121308018
 31
0.0
  0
LINE
  5
B0A
330
1F
100
AcDbEntity
  8
0
 48
2.0
370
     9
100
AcDbLine
 10
75.25580138977179
 20
78.68027158566339
 30
0.0
 11
93.25580138977178
 21
78.68027158566339
 31
0.0
  0
LINE
  5
B0B
330
1F
100
AcDbEntity
  8
0
 48
2.0
370
     9
100
AcDbLine
 10
75.25580138977179
 20
78.5542389881871
 30
0.0
 11
93.25580138977178
 21
78.5542389881871
 31
0.0
  0
LINE
  5
B0C
330
1F
100
AcDbEntity
  8
0
 48
2.0
370
     9
100
AcDbLine
 10
75.25580138977179
 20
78.32000377049964
 30
0.0
 11
93.25580138977178
 21
78.32000377049964
 31
0.0
  0
LINE
  5
B0D
330
1F
100
AcDbEntity
  8
0
 48
2.0
370
     9
100
AcDbLine
 10
75.25580138977179
 20
78.01165550099224
 30
0.0
 11
93.25580138977178
 21
78.01165550099224
 31
0.0
  0
LINE
  5
B0E
330
1F
100
AcDbEntity
  8
0
 48
2.0
370
     9
100
AcDbLine
 10
75.25580138977179
 20
77.60009200243668
 30
0.0
 11
93.25580138977178
 21
77.60009200243668
 31
0.0
  0
LINE
  5
B0F
330
1F
100
AcDbEntity
  8
0
 48
2.0
370
     9
100
AcDbLine
 10
75.25580138977179
 20
77.0933278087091
 30
0.0
 11
93.25580138977178
 21
77.0933278087091
 31
0.0
  0
LINE
  5
B10
330
1F
100
AcDbEntity
  8
0
 48
2.0
370
     9
100
AcDbLine
 10
75.25580138977179
 20
76.50121722151244
 30
0.0
 11
93.25580138977178
 21
76.50121722151244
 31
0.0
  0
LINE
  5
B11
330
1F
100
AcDbEntity
  8
0
 48
2.0
370
     9
100
AcDbLine
 10
75.25580138977179
 20
75.83529398333531
 30
0.0
 11
93.25580138977178
 21
75.83529398333531
 31
0.0
  0
LINE
  5
B12
330
1F
100
AcDbEntity
  8
0
 48
2.0
370
     9
100
AcDbLine
 10
75.25580138977179
 20
75.15111047017173
 30
0.0
 11
93.25580138977178
 21
75.15111047017173
 31
0.0
  0
LINE
  5
B13
330
1F
100
AcDbEntity
  8
0
 48
2.0
370
     9
100
AcDbLine
 10
75.25580138977179
 20
74.33503072368195
 30
0.0
 11
93.25580138977178
 21
74.33503072368195
 31
0.0
  0
LINE
  5
B14
330
1F
100
AcDbEntity
  8
0
 48
2.0
370
     9
100
AcDbLine
 10
75.25580138977179
 20
73.52989162002678
 30
0.0
 11
93.25580138977178
 21
73.52989162002678
 31
0.0
  0
LINE
  5
B15
330
1F
100
AcDbEntity
  8
0
 48
2.0
370
     9
100
AcDbLine
 10
75.25580138977179
 20
66.71193939757042
 30
0.0
 11
93.25580138977178
 21
66.71193939757042
 31
0.0
  0
LINE
  5
B16
330
1F
100
AcDbEntity
  8
0
 48
2.0
370
     9
100
AcDbLine
 10
75.25580138977179
 20
66.73726916417447
 30
0.0
 11
93.25580138977178
 21
66.73726916417447
 31
0.0
  0
LINE
  5
B17
330
1F
100
AcDbEntity
  8
0
 48
2.0
370
     9
100
AcDbLine
 10
75.25580138977179
 20
66.86330180441702
 30
0.0
 11
93.25580138977178
 21
66.86330180441702
 31
0.0
  0
LINE
  5
B18
330
1F
100
AcDbEntity
  8
0
 48
2.0
370
     9
100
AcDbLine
 10
75.25580138977179
 20
67.09753687821695
 30
0.0
 11
93.25580138977178
 21
67.09753687821695
 31
0.0
  0
LINE
  5
B19
330
1F
100
AcDbEntity
  8
0
 48
2.0
370
     9
100
AcDbLine
 10
75.25580138977179
 20
67.40588545119727
 30
0.0
 11
93.25580138977178
 21
67.40588545119727
 31
0.0
  0
LINE
  5
B1A
330
1F
100
AcDbEntity
  8
0
 48
2.0
370
     9
100
AcDbLine
 10
75.25580138977179
 20
67.81744864628719
 30
0.0
 11
93.25580138977178
 21
67.81744864628719
 31
0.0
  0
LINE
  5
B1B
330
1F
100
AcDbEntity
  8
0
 48
2.0
370
     9
100
AcDbLine
 10
75.25580138977179
 20
68.32421585404382
 30
0.0
 11
93.25580138977178
 21
68.32421585404382
 31
0.0
  0
LINE
  5
B1C
330
1F
100
AcDbEntity
  8
0
 48
2.0
370
     9
100
AcDbLine
 10
75.25580138977179
 20
68.9163234272096
 30
0.0
 11
93.25580138977178
 21
68.9163234272096
 31
0.0
  0
LINE
  5
B1D
330
1F
100
AcDbEntity
  8
0
 48
2.0
370
     9
100
AcDbLine
 10
75.25580138977179
 20
69.5822466653831
 30
0.0
 11
93.25580138977178
 21
69.5822466653831
 31
0.0
  0
LINE
  5
B1E
330
1F
100
AcDbEntity
  8
0
 48
2.0
370
     9
100
AcDbLine
 10
75.25580138977179
 20
70.30902413021478
 30
0.0
 11
93.25580138977178
 21
70.30902413021478
 31
0.0
  0
LINE
  5
B1F
330
1F
100
AcDbEntity
  8
0
 48
2.0
370
     9
100
AcDbLine
 10
75.25580138977179
 20
71.0825099250401
 30
0.0
 11
93.25580138977178
 21
71.0825099250401
 31
0.0
  0
LINE
  5
B20
330
1F
100
AcDbEntity
  8
0
 48
2.0
370
     9
100
AcDbLine
 10
75.25580138977179
 20
71.88764902869526
 30
0.0
 11
93.25580138977178
 21
71.88764902869526
 31
0.0
  0
LINE
  5
B21
330
1F
100
AcDbEntity
  8
0
 48
2.0
370
     9
100
AcDbLine
 10
75.25580138977179
 20
72.70877032436193
 30
0.0
 11
93.25580138977178
 21
72.70877032436193
 31
0.0
  0
ARC
  5
B22
330
1F
100
AcDbEntity
  8
0
 48
2.0
100
AcDbCircle
 10
106.999723687651
 20
72.34587499744749
 30
0.0
 40
0.79768245959954
100
AcDbArc
 50
152.9391142443555
 51
215.060885755975
  0
ARC
  5
B23
330
1F
100
AcDbEntity
  8
0
 48
2.0
100
AcDbCircle
 10
107.1007342235783
 20
71.62714768836351
 30
0.0
 40
0.7976824595854291
100
AcDbArc
 50
160.9391142438564
 51
223.0608857564319
  0
ARC
  5
B24
330
1F
100
AcDbEntity
  8
0
 48
2.0
100
AcDbCircle
 10
107.300789240285
 20
70.92947293356566
 30
0.0
 40
0.7976824595920093
100
AcDbArc
 50
168.9391142440219
 51
231.0608857560361
  0
ARC
  5
B25
330
1F
100
AcDbEntity
  8
0
 48
2.0
100
AcDbCircle
 10
107.5960017595892
 20
70.26643169670435
 30
0.0
 40
0.7976892339243273
100
AcDbArc
 50
176.9392494629846
 51
239.060792004334
  0
ARC
  5
B26
330
1F
100
AcDbEntity
  8
0
 48
2.0
100
AcDbCircle
 10
107.9806053436653
 20
69.65092479636997
 30
0.0
 40
0.7976824595916295
100
AcDbArc
 50
184.9391142442752
 51
247.060885756607
  0
ARC
  5
B27
330
1F
100
AcDbEntity
  8
0
 48
2.0
100
AcDbCircle
 10
108.4471345831765
 20
69.09493689912462
 30
0.0
 40
0.7976824595870241
100
AcDbArc
 50
192.9391142434706
 51
255.060885755756
  0
ARC
  5
B28
330
1F
100
AcDbEntity
  8
0
 48
2.0
100
AcDbCircle
 10
108.9864987439644
 20
68.60928563986501
 30
0.0
 40
0.797678376446545
100
AcDbArc
 50
200.9390327409237
 51
263.0609422656947
  0
ARC
  5
B29
330
1F
100
AcDbEntity
  8
0
 48
2.0
100
AcDbCircle
 10
109.5882090603585
 20
68.20343037730937
 30
0.0
 40
0.7976813613495163
100
AcDbArc
 50
208.9390923223222
 51
271.0609009548216
  0
ARC
  5
B2A
330
1F
100
AcDbEntity
  8
0
 48
2.0
100
AcDbCircle
 10
110.2405485205157
 20
67.88526852540828
 30
0.0
 40
0.7976861419020009
100
AcDbArc
 50
216.9391877450688
 51
279.0608347953282
  0
ARC
  5
B2B
330
1F
100
AcDbEntity
  8
0
 48
2.0
100
AcDbCircle
 10
110.9308119285336
 20
67.66097997408589
 30
0.0
 40
0.7976781696690562
100
AcDbArc
 50
224.9390286136083
 51
287.0609451270724
  0
ARC
  5
B2C
330
1F
100
AcDbEntity
  8
0
 48
2.0
100
AcDbCircle
 10
111.6455783860541
 20
67.53495162374067
 30
0.0
 40
0.7976824595665596
100
AcDbArc
 50
232.9391142431924
 51
295.0608857572479
  0
ARC
  5
B2D
330
1F
100
AcDbEntity
  8
0
 48
2.0
100
AcDbCircle
 10
112.3709258906413
 20
67.50961766820411
 30
0.0
 40
0.797678270632947
100
AcDbArc
 50
240.9390306286373
 51
303.0609437294543
  0
ARC
  5
B2E
330
1F
100
AcDbEntity
  8
0
 48
2.0
100
AcDbCircle
 10
113.09274160453
 20
67.5854876769122
 30
0.0
 40
0.7976824595691128
100
AcDbArc
 50
248.9391142434932
 51
311.0608857573924
  0
ARC
  5
B2F
330
1F
100
AcDbEntity
  8
0
 48
2.0
100
AcDbCircle
 10
113.7969730848084
 20
67.76107439847557
 30
0.0
 40
0.7976844565919154
100
AcDbArc
 50
256.9391541050862
 51
319.0608581187448
  0
ARC
  5
B30
330
1F
100
AcDbEntity
  8
0
 48
2.0
100
AcDbCircle
 10
114.4699155184529
 20
68.03295305201801
 30
0.0
 40
0.7976773253734791
100
AcDbArc
 50
264.939011760185
 51
327.0609568121697
  0
ARC
  5
B31
330
1F
100
AcDbEntity
  8
0
 48
2.0
100
AcDbCircle
 10
115.0984680375871
 20
68.39585259084789
 30
0.0
 40
0.7976814151905977
100
AcDbArc
 50
272.9390933974578
 51
335.0609267600512
  0
ARC
  5
B32
330
1F
100
AcDbEntity
  8
0
 48
2.0
100
AcDbCircle
 10
115.6703985342677
 20
68.84269496372191
 30
0.0
 40
0.7976824595971125
100
AcDbArc
 50
280.9391142443013
 51
343.0608857559367
  0
ARC
  5
B33
330
1F
100
AcDbEntity
  8
0
 48
2.0
100
AcDbCircle
 10
116.174571007093
 20
69.36479101103443
 30
0.0
 40
0.7976894053878376
100
AcDbArc
 50
288.9392528854187
 51
351.0606130663238
  0
ARC
  5
B34
330
1F
100
AcDbEntity
  8
0
 48
2.0
100
AcDbCircle
 10
116.6011830086057
 20
69.95196326585439
 30
0.0
 40
0.7976840594150753
100
AcDbArc
 50
296.9391461767301
 51
359.0608229469799
  0
ARC
  5
B35
330
1F
100
AcDbEntity
  8
0
 48
2.0
100
AcDbCircle
 10
116.9419185739492
 20
70.59280014594198
 30
0.0
 40
0.7976869920494061
100
AcDbArc
 50
304.9392047142469
 51
7.060823030220072
  0
ARC
  5
B36
330
1F
100
AcDbEntity
  8
0
 48
2.0
100
AcDbCircle
 10
117.1901612201903
 20
71.27481482264785
 30
0.0
 40
0.7976779443169411
100
AcDbArc
 50
312.939024115382
 51
15.06094824593463
  0
ARC
  5
B37
330
1F
100
AcDbEntity
  8
0
 48
2.0
100
AcDbCircle
 10
117.341057587709
 20
71.98474766008486
 30
0.0
 40
0.7976824595924455
100
AcDbArc
 50
320.939114243865
 51
23.06088575611983
  0
ARC
  5
B38
330
1F
100
AcDbEntity
  8
0
 48
2.0
100
AcDbCircle
 10
117.3916861844039
 20
72.70877032436193
 30
0.0
 40
0.7976824595861097
100
AcDbArc
 50
328.9391142436782
 51
31.06088575632181
  0
ARC
  5
B39
330
1F
100
AcDbEntity
  8
0
 48
2.0
100
AcDbCircle
 10
117.3410622336845
 20
73.43279237447543
 30
0.0
 40
0.7976779443089001
100
AcDbArc
 50
336.9390241150026
 51
39.0609482461067
  0
ARC
  5
B3A
330
1F
100
AcDbEntity
  8
0
 48
2.0
100
AcDbCircle
 10
117.1901557353188
 20
74.14272336310616
 30
0.0
 40
0.7976838955988952
100
AcDbArc
 50
344.9391429076273
 51
47.06086588239156
  0
ARC
  5
B3B
330
1F
100
AcDbEntity
  8
0
 48
2.0
100
AcDbCircle
 10
116.9419241444842
 20
74.824743786176
 30
0.0
 40
0.7976805676343832
100
AcDbArc
 50
352.9390764789304
 51
55.06091193987893
  0
ARC
  5
B3C
330
1F
100
AcDbEntity
  8
0
 48
2.0
100
AcDbCircle
 10
116.6011774763604
 20
75.46557664071089
 30
0.0
 40
0.7976891443118684
100
AcDbArc
 50
0.9392476744433622
 51
63.06079324416556
  0
ARC
  5
B3D
330
1F
100
AcDbEntity
  8
0
 48
2.0
100
AcDbCircle
 10
116.1745782051869
 20
76.05275699995811
 30
0.0
 40
0.7976791589523045
100
AcDbArc
 50
8.939048360573346
 51
71.06093143565418
  0
ARC
  5
B3E
330
1F
100
AcDbEntity
  8
0
 48
2.0
100
AcDbCircle
 10
115.6703985065608
 20
76.57484566736686
 30
0.0
 40
0.7976824912433706
100
AcDbArc
 50
16.93911487594125
 51
79.0608845133109
  0
ARC
  5
B3F
330
1F
100
AcDbEntity
  8
0
 48
2.0
100
AcDbCircle
 10
115.0984717480672
 20
77.0216904883405
 30
0.0
 40
0.7976773253720514
100
AcDbArc
 50
24.93901176029687
 51
87.06095681236373
  0
ARC
  5
B40
330
1F
100
AcDbEntity
  8
0
 48
2.0
100
AcDbCircle
 10
114.469914550143
 20
77.38458235663576
 30
0.0
 40
0.7976824595948823
100
AcDbArc
 50
32.93911424424765
 51
95.06088575637956
  0
ARC
  5
B41
330
1F
100
AcDbEntity
  8
0
 48
2.0
100
AcDbCircle
 10
113.7969731741062
 20
77.65646832099675
 30
0.0
 40
0.7976824595963962
100
AcDbArc
 50
40.93911424412334
 51
103.0608857554959
  0
ARC
  5
B42
330
1F
100
AcDbEntity
  8
0
 48
2.0
100
AcDbCircle
 10
113.0927416045263
 20
77.83205297178621
 30
0.0
 40
0.7976824595955791
100
AcDbArc
 50
48.93911424387262
 51
111.0608857558482
  0
ARC
  5
B43
330
1F
100
AcDbEntity
  8
0
 48
2.0
100
AcDbCircle
 10
112.370926907842
 20
77.90791875349215
 30
0.0
 40
0.7976824595880597
100
AcDbArc
 50
56.93911424416356
 51
119.0608857566492
  0
ARC
  5
B44
330
1F
100
AcDbEntity
  8
0
 48
2.0
100
AcDbCircle
 10
111.6455791232686
 20
77.88259341599633
 30
0.0
 40
0.7976781696672672
100
AcDbArc
 50
64.93902861350746
 51
127.0609451269851
  0
ARC
  5
B45
330
1F
100
AcDbEntity
  8
0
 48
2.0
100
AcDbCircle
 10
110.9308139222078
 20
77.75654928118867
 30
0.0
 40
0.7976897069981033
100
AcDbArc
 50
72.93925890623405
 51
135.0606012254499
  0
ARC
  5
B46
330
1F
100
AcDbEntity
  8
0
 48
2.0
100
AcDbCircle
 10
110.2405460638723
 20
77.53227628675678
 30
0.0
 40
0.7976813613488405
100
AcDbArc
 50
80.93909232183468
 51
143.0609009548656
  0
ARC
  5
B47
330
1F
100
AcDbEntity
  8
0
 48
2.0
100
AcDbCircle
 10
109.5882098737887
 20
77.21410947291635
 30
0.0
 40
0.7976824595889396
100
AcDbArc
 50
88.93911424416232
 51
151.0608857566483
  0
ARC
  5
B48
330
1F
100
AcDbEntity
  8
0
 48
2.0
100
AcDbCircle
 10
108.9864993172662
 20
76.80825934369797
 30
0.0
 40
0.7976753135047155
100
AcDbArc
 50
96.93897160118504
 51
159.0609846550455
  0
ARC
  5
B49
330
1F
100
AcDbEntity
  8
0
 48
2.0
100
AcDbCircle
 10
108.4471345831729
 20
76.32260374958834
 30
0.0
 40
0.7976824595919057
100
AcDbArc
 50
104.9391142437875
 51
167.0608857558732
  0
ARC
  5
B4A
330
1F
100
AcDbEntity
  8
0
 48
2.0
100
AcDbCircle
 10
107.9806080272968
 20
75.76661247489075
 30
0.0
 40
0.7976866159204336
100
AcDbArc
 50
112.9391972069461
 51
175.0608282350828
  0
ARC
  5
B4B
330
1F
100
AcDbEntity
  8
0
 48
2.0
100
AcDbCircle
 10
107.5959948943849
 20
75.15111047017173
 30
0.0
 40
0.797682459576286
100
AcDbArc
 50
120.9391142432668
 51
183.0608857566373
  0
ARC
  5
B4C
330
1F
100
AcDbEntity
  8
0
 48
2.0
100
AcDbCircle
 10
107.3007892402778
 20
74.48806771516003
 30
0.0
 40
0.7976824595854322
100
AcDbArc
 50
128.9391142435087
 51
191.0608857563872
  0
ARC
  5
B4D
330
1F
100
AcDbEntity
  8
0
 48
2.0
100
AcDbCircle
 10
107.100734223571
 20
73.79039296036037
 30
0.0
 40
0.7976824595800802
100
AcDbArc
 50
136.9391142432734
 51
199.0608857565072
  0
ARC
  5
B4E
330
1F
100
AcDbEntity
  8
0
 48
2.0
100
AcDbCircle
 10
106.9997236876364
 20
73.07166565127637
 30
0.0
 40
0.7976824595865338
100
AcDbArc
 50
144.9391142436493
 51
207.0608857561106
  0
CIRCLE
  5
B4F
330
1F
100
AcDbEntity
  8
隠れ線
 48
0.1
370
     9
100
AcDbCircle
 10
48.62158659976135
 20
72.70877032436193
 30
0.0
 40
2.299999999999999
  0
LINE
  5
B50
330
1F
100
AcDbEntity
  8
0
100
AcDbLine
 10
93.25580138977178
 20
78.70877032436194
 30
0.0
 11
75.25580138976815
 21
78.70877032436194
 31
0.0
  0
LINE
  5
B51
330
1F
100
AcDbEntity
  8
0
100
AcDbLine
 10
93.25580138976816
 20
66.70877032436194
 30
0.0
 11
75.25580138977179
 21
66.70877032436194
 31
0.0
  0
LINE
  5
B52
330
1F
100
AcDbEntity
  8
0
100
AcDbLine
 10
93.75580138977179
 20
78.20877032436193
 30
0.0
 11
93.75580138977179
 21
67.20877032436739
 31
0.0
  0
LINE
  5
B53
330
1F
100
AcDbEntity
  8
0
100
AcDbLine
 10
74.75580138977178
 20
78.20877032436739
 30
0.0
 11
74.75580138977178
 21
67.20877032435829
 31
0.0
  0
LINE
  5
B54
330
1F
100
AcDbEntity
  8
0
100
AcDbLine
 10
93.25580138977178
 20
78.70877032436194
 30
0.0
 11
93.25580138977178
 21
66.70877032436194
 31
0.0
  0
LINE
  5
B55
330
1F
100
AcDbEntity
  8
0
100
AcDbLine
 10
75.25580138977179
 20
78.70877032436194
 30
0.0
 11
75.25580138977179
 21
66.70877032436194
 31
0.0
  0
LINE
  5
B56
330
1F
100
AcDbEntity
  8
0
100
AcDbLine
 10
75.25580138977179
 20
78.70877032436194
 30
0.0
 11
74.75580138977178
 21
78.20877032436193
 31
0.0
  0
LINE
  5
B57
330
1F
100
AcDbEntity
  8
0
100
AcDbLine
 10
74.75580138977178
 20
67.20877032436193
 30
0.0
 11
75.25580138977179
 21
66.70877032436194
 31
0.0
  0
LINE
  5
B58
330
1F
100
AcDbEntity
  8
0
100
AcDbLine
 10
93.75580138977179
 20
67.20877032436193
 30
0.0
 11
93.25580138977178
 21
66.70877032436194
 31
0.0
  0
LINE
  5
B59
330
1F
100
AcDbEntity
  8
0
100
AcDbLine
 10
93.75580138977179
 20
78.20877032436193
 30
0.0
 11
93.25580138977178
 21
78.70877032436194
 31
0.0
  0
CIRCLE
  5
B5A
330
1F
100
AcDbEntity
  8
0
100
AcDbCircle
 10
112.1893686439901
 20
72.70877032436193
 30
0.0
 40
5.5
  0
CIRCLE
  5
B5B
330
1F
100
AcDbEntity
  8
0
100
AcDbCircle
 10
48.62158659976135
 20
72.70877032436193
 30
0.0
 40
4.25
  0
CIRCLE
  5
B5C
330
1F
100
AcDbEntity
  8
0
370
     9
100
AcDbCircle
 10
48.62158659976135
 20
72.70877032436193
 30
0.0
 40
3.940079707216455
  0
LINE
  5
B5D
330
1F
100
AcDbEntity
  8
隠れ線
 48
0.1
370
     9
100
AcDbLine
 10
46.32158659976208
 20
75.00877032436121
 30
0.0
 11
50.92158659976426
 21
75.00877032436121
 31
0.0
  0
LINE
  5
B5E
330
1F
100
AcDbEntity
  8
隠れ線
 48
0.1
370
     9
100
AcDbLine
 10
46.32158659976208
 20
70.40877032436267
 30
0.0
 11
50.92158659976426
 21
70.40877032436267
 31
0.0
  0
LINE
  5
B5F
330
1F
100
AcDbEntity
  8
隠れ線
 48
0.1
370
     9
100
AcDbLine
 10
46.32158659976208
 20
70.40877032436267
 30
0.0
 11
46.32158659976208
 21
75.00877032436121
 31
0.0
  0
LINE
  5
B60
330
1F
100
AcDbEntity
  8
隠れ線
 48
0.1
370
     9
100
AcDbLine
 10
50.92158659976426
 20
70.40877032436267
 30
0.0
 11
50.92158659976426
 21
75.00877032436121
 31
0.0
  0
VIEWPORT
  5
E3
102
{ACAD_XDICTIONARY
360
C5A
102
}
330
23
100
AcDbEntity
 67
     1
  8
0
100
AcDbViewport
 10
5.249999665167535
 20
3.999999903397285
 30
0.0
 40
10.92364553810942
 41
6.460874844731385
 68
     1
 69
     1
 12
5.249999665167535
 22
3.999999903397285
 13
0.0
 23
0.0
 14
0.5
 24
0.5
 15
0.5
 25
0.5
 16
0.0
 26
0.0
 36
1.0
 17
0.0
 27
0.0
 37
0.0
 42
50.0
 43
0.0
 44
0.0
 45
6.460874844731385
 50
0.0
 51
0.0
 72
  1000
 90
    32864
  1

281
     0
 71
     1
 74
     0
110
0.0
120
0.0
130
0.0
111
1.0
121
0.0
131
0.0
112
0.0
122
1.0
132
0.0
 79
     0
146
0.0
  0
VIEWPORT
  5
E5
102
{ACAD_XDICTIONARY
360
C5C
102
}
330
23
100
AcDbEntity
 67
     1
  8
0
100
AcDbViewport
 10
5.24999976158142
 20
3.99999976158142
 30
0.0
 40
8.399999618530271
 41
6.399999618530272
 68
     2
 69
     2
 12
6.0
 22
4.5
 13
0.0
 23
0.0
 14
0.5
 24
0.5
 15
0.5
 25
0.5
 16
0.0
 26
0.0
 36
1.0
 17
0.0
 27
0.0
 37
0.0
 42
50.0
 43
0.0
 44
0.0
 45
9.231622615174515
 50
0.0
 51
0.0
 72
   100
 90
    32864
  1

281
     0
 71
     1
 74
     0
110
0.0
120
0.0
130
0.0
111
1.0
121
0.0
131
0.0
112
0.0
122
1.0
132
0.0
 79
     0
146
0.0
  0
ENDSEC
  0
SECTION
  2
OBJECTS
  0
DICTIONARY
  5
C
330
0
100
AcDbDictionary
281
     1
  3
ACAD_COLOR
350
EB
  3
ACAD_GROUP
350
D
  3
ACAD_LAYOUT
350
1A
  3
ACAD_MATERIAL
350
EA
  3
ACAD_MLINESTYLE
350
17
  3
ACAD_PLOTSETTINGS
350
19
  3
ACAD_PLOTSTYLENAME
350
E
  3
ACDBHEADERROUNDTRIPXREC
350
C4D
  3
AcDbVariableDictionary
350
C48
  3
DWGPROPS
350
C4C
  0
DICTIONARY
  5
20C
330
2
100
AcDbDictionary
280
     1
281
     1
  3
ACAD_LAYERSTATES
360
20D
  0
DICTIONARY
  5
C56
330
DD
100
AcDbDictionary
280
     1
281
     1
  3
ACAD_XREC_ROUNDTRIP
360
C57
  0
DICTIONARY
  5
C58
330
DF
100
AcDbDictionary
280
     1
281
     1
  3
ACAD_XREC_ROUNDTRIP
360
C59
  0
DICTIONARY
  5
C5A
330
E3
100
AcDbDictionary
280
     1
281
     1
  3
ACAD_XREC_ROUNDTRIP
360
C5B
  0
DICTIONARY
  5
C5C
330
E5
100
AcDbDictionary
280
     1
281
     1
  3
ACAD_XREC_ROUNDTRIP
360
C5D
  0
DICTIONARY
  5
EB
102
{ACAD_REACTORS
330
C
102
}
330
C
100
AcDbDictionary
281
     1
  0
DICTIONARY
  5
D
102
{ACAD_REACTORS
330
C
102
}
330
C
100
AcDbDictionary
281
     1
  0
DICTIONARY
  5
1A
102
{ACAD_REACTORS
330
C
102
}
330
C
100
AcDbDictionary
281
     1
  3
Layout1
350
1E
  3
Layout2
350
26
  3
Model
350
22
  0
DICTIONARY
  5
EA
102
{ACAD_REACTORS
330
C
102
}
330
C
100
AcDbDictionary
281
     1
  0
DICTIONARY
  5
17
102
{ACAD_REACTORS
330
C
102
}
330
C
100
AcDbDictionary
281
     1
  3
Standard
350
18
  0
DICTIONARY
  5
19
102
{ACAD_REACTORS
330
C
102
}
330
C
100
AcDbDictionary
281
     1
  0
ACDBDICTIONARYWDFLT
  5
E
102
{ACAD_REACTORS
330
C
102
}
330
C
100
AcDbDictionary
281
     1
  3
Normal
350
F
100
AcDbDictionaryWithDefault
340
F
  0
DICTIONARY
  5
C4D
102
{ACAD_REACTORS
330
C
102
}
330
C
100
AcDbDictionary
281
     1
  3
COLORDICT
350
C4F
  3
MATERIALDICT
350
C4E
  0
DICTIONARY
  5
C48
102
{ACAD_REACTORS
330
C
102
}
330
C
100
AcDbDictionary
281
     1
  3
DIMASSOC
350
C49
  3
PROJECTNAME
350
C4A
  0
XRECORD
  5
C4C
102
{ACAD_REACTORS
330
C
102
}
330
C
100
AcDbXrecord
280
     1
  1
DWGPROPS COOKIE
  2

  3

  4

  6

  7

  8
kuoj
  9

300
=
301
=
302
=
303
=
304
=
305
=
306
=
307
=
308
=
309
=
 40
0.0003654861111111
 41
2455113.729309525
 42
2455113.729674479
  1

 90
        0
  0
DICTIONARY
  5
20D
102
{ACAD_REACTORS
330
20C
102
}
330
20C
100
AcDbDictionary
281
     1
  0
XRECORD
  5
C57
102
{ACAD_REACTORS
330
C56
102
}
330
C56
100
AcDbXrecord
280
     1
102
SHADEPLOT
 70
     0
  0
XRECORD
  5
C59
102
{ACAD_REACTORS
330
C58
102
}
330
C58
100
AcDbXrecord
280
     1
102
SHADEPLOT
 70
     0
  0
XRECORD
  5
C5B
102
{ACAD_REACTORS
330
C5A
102
}
330
C5A
100
AcDbXrecord
280
     1
102
SHADEPLOT
 70
     0
  0
XRECORD
  5
C5D
102
{ACAD_REACTORS
330
C5C
102
}
330
C5C
100
AcDbXrecord
280
     1
102
SHADEPLOT
 70
     0
  0
LAYOUT
  5
1E
102
{ACAD_XDICTIONARY
360
C50
102
}
102
{ACAD_REACTORS
330
1A
102
}
330
1A
100
AcDbPlotSettings
  1

  2
none_device
  4
Letter_(8.50_x_11.00_Inches)
  6

 40
6.349999904632568
 41
6.349999904632568
 42
6.350006103515625
 43
6.350006103515625
 44
215.8999938964844
 45
279.3999938964844
 46
20.31135338994369
 47
26.66077207006841
 48
0.0
 49
0.0
140
0.0
141
0.0
142
1.0
143
1.0
 70
   692
 72
     0
 73
     1
 74
     1
  7
ACAD.CTB
 75
    16
147
1.0
148
-26.66076962115566
149
-20.31135699206663
100
AcDbLayout
  1
Layout1
 70
     1
 71
     1
 10
-0.2500003367097782
 20
-0.2499998544295133
 11
10.74999942299433
 21
8.249999905274597
 12
0.0
 22
0.0
 32
0.0
 14
1.049636599258096
 24
0.7996597240971113
 34
-0.0015258207003583
 15
9.450362731076971
 25
7.200340082697458
 35
0.0000000349246037
146
0.0
 13
0.0
 23
0.0
 33
0.0
 16
1.0
 26
0.0
 36
0.0
 17
0.0
 27
1.0
 37
0.0
 76
     0
330
1B
331
DD
  0
LAYOUT
  5
26
102
{ACAD_XDICTIONARY
360
C54
102
}
102
{ACAD_REACTORS
330
1A
102
}
330
1A
100
AcDbPlotSettings
  1

  2
none_device
  4
Letter_(8.50_x_11.00_Inches)
  6

 40
6.349999904632568
 41
6.349999904632568
 42
6.350006103515625
 43
6.350006103515625
 44
215.8999938964844
 45
279.3999938964844
 46
20.31135338994369
 47
26.66077207006841
 48
0.0
 49
0.0
140
0.0
141
0.0
142
1.0
143
1.0
 70
   692
 72
     0
 73
     1
 74
     1
  7
ACAD.CTB
 75
    16
147
1.0
148
-26.66076962115566
149
-20.31135699206663
100
AcDbLayout
  1
Layout2
 70
     1
 71
     2
 10
-0.2500003367097782
 20
-0.2499998544295133
 11
10.74999942299433
 21
8.249999905274597
 12
0.0
 22
0.0
 32
0.0
 14
1.049636599258096
 24
0.7996597240971113
 34
-0.0015258207003583
 15
9.450362731076971
 25
7.200340082697458
 35
0.0000000349246037
146
0.0
 13
0.0
 23
0.0
 33
0.0
 16
1.0
 26
0.0
 36
0.0
 17
0.0
 27
1.0
 37
0.0
 76
     0
330
23
331
E3
  0
LAYOUT
  5
22
102
{ACAD_XDICTIONARY
360
C52
102
}
102
{ACAD_REACTORS
330
1A
102
}
330
1A
100
AcDbPlotSettings
  1

  2
None
  4
Letter_(8.50_x_11.00_Inches)
  6

 40
6.4
 41
6.4
 42
6.4
 43
6.4
 44
215.8999938964844
 45
279.3999938964844
 46
0.0
 47
0.0
 48
0.0
 49
0.0
140
0.0
141
0.0
142
1.0
143
1.0
 70
 11956
 72
     0
 73
     1
 74
     1
  7
acad.ctb
 75
     0
147
1.0
148
0.0
149
0.0
100
AcDbLayout
  1
Model
 70
     1
 71
     0
 10
0.0
 20
0.0
 11
12.0
 21
9.0
 12
0.0
 22
0.0
 32
0.0
 14
0.0
 24
0.0
 34
0.0
 15
0.0
 25
0.0
 35
0.0
146
0.0
 13
0.0
 23
0.0
 33
0.0
 16
1.0
 26
0.0
 36
0.0
 17
0.0
 27
1.0
 37
0.0
 76
     0
330
1F
  0
MLINESTYLE
  5
18
102
{ACAD_REACTORS
330
17
102
}
330
17
100
AcDbMlineStyle
  2
STANDARD
 70
     0
  3

 62
   256
 51
90.0
 52
90.0
 71
     2
 49
0.5
 62
   256
  6
BYLAYER
 49
-0.5
 62
   256
  6
BYLAYER
  0
ACDBPLACEHOLDER
  5
F
102
{ACAD_REACTORS
330
E
102
}
330
E
  0
XRECORD
  5
C4F
102
{ACAD_REACTORS
330
C4D
102
}
330
C4D
100
AcDbXrecord
280
     1
340
EB
  0
XRECORD
  5
C4E
102
{ACAD_REACTORS
330
C4D
102
}
330
C4D
100
AcDbXrecord
280
     1
340
EA
  0
DICTIONARYVAR
  5
C49
102
{ACAD_REACTORS
330
C48
102
}
330
C48
100
DictionaryVariables
280
     0
  1
1
  0
DICTIONARYVAR
  5
C4A
102
{ACAD_REACTORS
330
C48
102
}
330
C48
100
DictionaryVariables
280
     0
  1

  0
DICTIONARY
  5
C50
330
1E
100
AcDbDictionary
280
     1
281
     1
  3
ACAD_XREC_ROUNDTRIP
360
C51
  0
DICTIONARY
  5
C54
330
26
100
AcDbDictionary
280
     1
281
     1
  3
ACAD_XREC_ROUNDTRIP
360
C55
  0
DICTIONARY
  5
C52
330
22
100
AcDbDictionary
280
     1
281
     1
  3
ACAD_XREC_ROUNDTRIP
360
C53
  0
XRECORD
  5
C51
102
{ACAD_REACTORS
330
C50
102
}
330
C50
100
AcDbXrecord
280
     1
102
SHADEPLOT
 70
     0
102
SHADEPLOTRESLEVEL
 70
     2
102
SHADEPLOTCUSTOMDPI
 70
   300
  0
XRECORD
  5
C55
102
{ACAD_REACTORS
330
C54
102
}
330
C54
100
AcDbXrecord
280
     1
102
SHADEPLOT
 70
     0
102
SHADEPLOTRESLEVEL
 70
     2
102
SHADEPLOTCUSTOMDPI
 70
   300
  0
XRECORD
  5
C53
102
{ACAD_REACTORS
330
C52
102
}
330
C52
100
AcDbXrecord
280
     1
102
SHADEPLOT
 70
     0
102
SHADEPLOTRESLEVEL
 70
     2
102
SHADEPLOTCUSTOMDPI
 70
   300
  0
ENDSEC
  0
EOF
