  0
SECTION
  2
HEADER
  9
$ACADVER
  1
AC1009
  9
$INSBASE
 10
0.0
 20
0.0
 30
0.0
  9
$EXTMIN
 10
-376.4920950538758
 20
-386.624353204432
 30
-0.0015258207003583
  9
$EXTMAX
 10
648.47045987783758
 20
334.56966229854902
 30
0.0000000349246037
  9
$LIMMIN
 10
0.0
 20
0.0
  9
$LIMMAX
 10
0.0
 20
0.0
  9
$ORTHOMODE
 70
     0
  9
$REGENMODE
 70
     1
  9
$FILLMODE
 70
     1
  9
$QTEXTMODE
 70
     0
  9
$MIRRTEXT
 70
     1
  9
$DRAGMODE
 70
     2
  9
$LTSCALE
 40
1.0
  9
$OSMODE
 70
    31
  9
$ATTMODE
 70
     1
  9
$TEXTSIZE
 40
0.0
  9
$TRACEWID
 40
0.05
  9
$TEXTSTYLE
  7
STANDARD
  9
$CLAYER
  8
0
  9
$CELTYPE
  6
CONTINUOUS
  9
$CECOLOR
 62
   256
  9
$DIMSCALE
 40
1.0
  9
$DIMASZ
 40
0.18
  9
$DIMEXO
 40
0.0625
  9
$DIMDLI
 40
0.38
  9
$DIMRND
 40
0.0
  9
$DIMDLE
 40
0.0
  9
$DIMEXE
 40
0.18
  9
$DIMTP
 40
0.0
  9
$DIMTM
 40
0.0
  9
$DIMTXT
 40
0.18
  9
$DIMCEN
 40
0.09
  9
$DIMTSZ
 40
0.0
  9
$DIMTOL
 70
     0
  9
$DIMLIM
 70
     0
  9
$DIMTIH
 70
     1
  9
$DIMTOH
 70
     1
  9
$DIMSE1
 70
     0
  9
$DIMSE2
 70
     0
  9
$DIMTAD
 70
     0
  9
$DIMZIN
 70
     0
  9
$DIMBLK
  1

  9
$DIMASO
 70
     1
  9
$DIMSHO
 70
     1
  9
$DIMPOST
  1

  9
$DIMAPOST
  1

  9
$DIMALT
 70
     0
  9
$DIMALTD
 70
     2
  9
$DIMALTF
 40
25.399999999999999
  9
$DIMLFAC
 40
1.0
  9
$DIMTOFL
 70
     0
  9
$DIMTVP
 40
0.0
  9
$DIMTIX
 70
     0
  9
$DIMSOXD
 70
     0
  9
$DIMSAH
 70
     0
  9
$DIMBLK1
  1

  9
$DIMBLK2
  1

  9
$DIMSTYLE
  2
STANDARD
  9
$DIMCLRD
 70
     0
  9
$DIMCLRE
 70
     0
  9
$DIMCLRT
 70
     0
  9
$DIMTFAC
 40
1.0
  9
$DIMGAP
 40
0.09
  9
$LUNITS
 70
     2
  9
$LUPREC
 70
     4
  9
$SKETCHINC
 40
0.1
  9
$FILLETRAD
 40
0.0
  9
$AUNITS
 70
     0
  9
$AUPREC
 70
     0
  9
$MENU
  1
acad
  9
$ELEVATION
 40
0.0
  9
$PELEVATION
 40
0.0
  9
$THICKNESS
 40
0.0
  9
$LIMCHECK
 70
     0
  9
$BLIPMODE
 70
     0
  9
$CHAMFERA
 40
0.0
  9
$CHAMFERB
 40
0.0
  9
$SKPOLY
 70
     0
  9
$TDCREATE
 40
2454859.7975815511
  9
$TDUPDATE
 40
2454859.797776504
  9
$TDINDWG
 40
0.0002121296
  9
$TDUSRTIMER
 40
0.0002117708
  9
$USRTIMER
 70
     1
  9
$ANGBASE
 50
0.0
  9
$ANGDIR
 70
     0
  9
$PDMODE
 70
     3
  9
$PDSIZE
 40
-1.0
  9
$PLINEWID
 40
0.0
  9
$COORDS
 70
     2
  9
$SPLFRAME
 70
     0
  9
$SPLINETYPE
 70
     6
  9
$SPLINESEGS
 70
     8
  9
$ATTDIA
 70
     0
  9
$ATTREQ
 70
     1
  9
$HANDLING
 70
     1
  9
$HANDSEED
  5
A2D
  9
$SURFTAB1
 70
     6
  9
$SURFTAB2
 70
     6
  9
$SURFTYPE
 70
     6
  9
$SURFU
 70
     6
  9
$SURFV
 70
     6
  9
$UCSNAME
  2

  9
$UCSORG
 10
0.0
 20
0.0
 30
0.0
  9
$UCSXDIR
 10
1.0
 20
0.0
 30
0.0
  9
$UCSYDIR
 10
0.0
 20
1.0
 30
0.0
  9
$PUCSNAME
  2

  9
$PUCSORG
 10
0.0
 20
0.0
 30
0.0
  9
$PUCSXDIR
 10
1.0
 20
0.0
 30
0.0
  9
$PUCSYDIR
 10
0.0
 20
1.0
 30
0.0
  9
$USERI1
 70
     0
  9
$USERI2
 70
     0
  9
$USERI3
 70
     0
  9
$USERI4
 70
     0
  9
$USERI5
 70
     0
  9
$USERR1
 40
0.0
  9
$USERR2
 40
0.0
  9
$USERR3
 40
0.0
  9
$USERR4
 40
0.0
  9
$USERR5
 40
0.0
  9
$WORLDVIEW
 70
     1
  9
$SHADEDGE
 70
     3
  9
$SHADEDIF
 70
    70
  9
$TILEMODE
 70
     1
  9
$MAXACTVP
 70
    16
  9
$PLIMCHECK
 70
     0
  9
$PEXTMIN
 10
1.0000000000000000E+020
 20
1.0000000000000000E+020
 30
1.0000000000000000E+020
  9
$PEXTMAX
 10
-1.0000000000000000E+020
 20
-1.0000000000000000E+020
 30
-1.0000000000000000E+020
  9
$PLIMMIN
 10
0.0
 20
0.0
  9
$PLIMMAX
 10
12.0
 20
9.0
  9
$UNITMODE
 70
     0
  9
$VISRETAIN
 70
     0
  9
$PLINEGEN
 70
     1
  9
$PSLTSCALE
 70
     0
  0
ENDSEC
  0
SECTION
  2
TABLES
  0
TABLE
  2
VPORT
 70
     2
  0
VPORT
  2
*ACTIVE
 70
     0
 10
0.0
 20
0.0
 11
1.0
 21
1.0
 12
135.98918241198089
 22
-26.027345452941521
 13
0.0
 23
0.0
 14
1.0
 24
1.0
 15
0.0
 25
0.0
 16
0.0
 26
0.0
 36
1.0
 17
0.0
 27
0.0
 37
0.0
 40
727.17902807976918
 41
1.6343490304709141
 42
50.0
 43
0.0
 44
0.0
 50
0.0
 51
0.0
 71
     0
 72
   100
 73
     1
 74
     1
 75
     0
 76
     0
 77
     0
 78
     0
  0
ENDTAB
  0
TABLE
  2
LTYPE
 70
    11
  0
LTYPE
  2
CONTINUOUS
 70
     0
  3
Solid line
 72
    65
 73
     0
 40
0.0
  0
LTYPE
  2
DOT
 70
     0
  3
. . . . . . . . 
 72
    65
 73
     2
 40
1.0
 49
0.0
 49
-1.0
  0
LTYPE
  2
DASHED
 70
     0
  3
___  ___  ___  ___  
 72
    65
 73
     2
 40
4.0
 49
3.0
 49
-1.0
  0
LTYPE
  2
HIDDEN
 70
     0
  3
__ __ __ __ 
 72
    65
 73
     2
 40
3.0
 49
2.0
 49
-1.0
  0
LTYPE
  2
STITCH
 70
     0
  3
_ _ _ _ 
 72
    65
 73
     2
 40
2.0
 49
1.0
 49
-1.0
  0
LTYPE
  2
CENTER
 70
     0
  3
______  __  ______  __  
 72
    65
 73
     4
 40
43.0
 49
40.0
 49
-1.0
 49
1.0
 49
-1.0
  0
LTYPE
  2
DASHDOT
 70
     0
  3
____ . ____ . 
 72
    65
 73
     4
 40
32.0
 49
30.0
 49
-1.0
 49
0.0
 49
-1.0
  0
LTYPE
  2
BORDER
 70
     0
  3
__ . __ . 
 72
    65
 73
     4
 40
22.0
 49
20.0
 49
-1.0
 49
0.0
 49
-1.0
  0
LTYPE
  2
CUTTING
 70
     0
  3
________   ___   ___   
 72
    65
 73
     6
 40
45.0
 49
40.0
 49
-1.0
 49
1.0
 49
-1.0
 49
1.0
 49
-1.0
  0
LTYPE
  2
PHANTOM
 70
     0
  3
______  __  __  
 72
    65
 73
     6
 40
35.0
 49
30.0
 49
-1.0
 49
1.0
 49
-1.0
 49
1.0
 49
-1.0
  0
LTYPE
  2
DIVIDE
 70
     0
  3
____ . . ____ . . 
 72
    65
 73
     6
 40
23.0
 49
20.0
 49
-1.0
 49
0.0
 49
-1.0
 49
0.0
 49
-1.0
  0
ENDTAB
  0
TABLE
  2
LAYER
 70
     5
  0
LAYER
  2
0
 70
     0
 62
     7
  6
CONTINUOUS
  0
LAYER
  2
┌▓È_1
 70
     0
 62
     7
  6
CONTINUOUS
  0
LAYER
  2
Éíû@É³
 70
     0
 62
     7
  6
CONTINUOUS
  0
LAYER
  2
É}ÿg
 70
     0
 62
     7
  6
CONTINUOUS
  0
LAYER
  2
ë³Æ¨
 70
     0
 62
     7
  6
CONTINUOUS
  0
ENDTAB
  0
TABLE
  2
STYLE
 70
     1
  0
STYLE
  2
STANDARD
 70
     0
 40
0.0
 41
1.0
 50
0.0
 71
     0
 42
0.0
  3
txt
  4
extfont
  0
ENDTAB
  0
TABLE
  2
VIEW
 70
     0
  0
ENDTAB
  0
TABLE
  2
UCS
 70
     0
  0
ENDTAB
  0
TABLE
  2
APPID
 70
     2
  0
APPID
  2
ACAD
 70
     0
  0
APPID
  2
DCO15
 70
     0
  0
ENDTAB
  0
TABLE
  2
DIMSTYLE
 70
     3
  0
DIMSTYLE
  2
STANDARD
 70
     0
  3

  4

  5

  6

  7

 40
1.0
 41
0.18
 42
0.0625
 43
0.38
 44
0.18
 45
0.0
 46
0.0
 47
0.0
 48
0.0
140
0.18
141
0.09
142
0.0
143
25.399999999999999
144
1.0
145
0.0
146
1.0
147
0.09
 71
     0
 72
     0
 73
     1
 74
     1
 75
     0
 76
     0
 77
     0
 78
     0
170
     0
171
     2
172
     0
173
     0
174
     0
175
     0
176
     0
177
     0
178
     0
  0
DIMSTYLE
  2
VELDIM0
 70
     0
  3

  4

  5

  6

  7

 40
1.0
 41
7.5004143714999989
 42
0.0625
 43
0.38
 44
1.0
 45
0.0
 46
5.0
 47
0.0
 48
0.0
140
8.2461809158000001
141
0.09
142
0.0
143
25.399999999999999
144
1.0
145
0.0
146
1.0
147
0.09
 71
     0
 72
     0
 73
     0
 74
     0
 75
     0
 76
     0
 77
     0
 78
     8
170
     0
171
     2
172
     0
173
     0
174
     0
175
     0
176
     0
177
     0
178
     0
  0
DIMSTYLE
  2
VELDIM1
 70
     0
  3

  4

  5

  6

  7

 40
1.0
 41
7.5004143714999989
 42
0.0625
 43
0.38
 44
1.25
 45
0.0
 46
5.0
 47
0.0
 48
0.0
140
8.2461809158000001
141
0.09
142
0.0
143
25.399999999999999
144
1.0
145
0.0
146
1.0
147
0.09
 71
     0
 72
     0
 73
     0
 74
     0
 75
     0
 76
     0
 77
     0
 78
     8
170
     0
171
     2
172
     0
173
     0
174
     0
175
     0
176
     0
177
     0
178
     0
  0
ENDTAB
  0
ENDSEC
  0
SECTION
  2
BLOCKS
  0
BLOCK
  8
0
  2
$MODEL_SPACE
 70
     0
 10
0.0
 20
0.0
 30
0.0
  3
$MODEL_SPACE
  1

  0
ENDBLK
  5
E
  8
0
  0
BLOCK
 67
     1
  8
0
  2
$PAPER_SPACE
 70
     0
 10
0.0
 20
0.0
 30
0.0
  3
$PAPER_SPACE
  1

  0
ENDBLK
  5
10
 67
     1
  8
0
  0
BLOCK
  8
0
  2
CLUMP0
 70
     0
 10
0.0
 20
0.0
 30
0.0
  3
CLUMP0
  1

  0
INSERT
  5
35
  8
┌▓È_1
  2
CLUMP1
 10
0.0
 20
0.0
 30
0.0
  0
INSERT
  5
49
  8
┌▓È_1
  2
CLUMP4
 10
0.0
 20
0.0
 30
0.0
  0
ENDBLK
  5
5C
  8
0
  0
BLOCK
  8
0
  2
CLUMP1
 70
     0
 10
0.0
 20
0.0
 30
0.0
  3
CLUMP1
  1

  0
INSERT
  5
38
  8
┌▓È_1
  2
CLUMP2
 10
0.0
 20
0.0
 30
0.0
  0
INSERT
  5
40
  8
┌▓È_1
  2
CLUMP3
 10
0.0
 20
0.0
 30
0.0
  0
ENDBLK
  5
47
  8
0
  0
BLOCK
  8
0
  2
CLUMP2
 70
     0
 10
0.0
 20
0.0
 30
0.0
  3
CLUMP2
  1

  0
ARC
  5
3A
  8
┌▓È_1
 10
105.97826587829999
 20
103.90414506800001
 30
0.0
 40
3.5
 50
90.0
 51
270.0
  0
LINE
  5
3B
  8
┌▓È_1
 10
120.97826587829999
 20
100.40414506800001
 30
0.0
 11
105.97826587829999
 21
100.40414506800001
 31
0.0
  0
ARC
  5
3C
  8
┌▓È_1
 10
120.97826587829999
 20
103.90414506800001
 30
0.0
 40
3.5
 50
270.0
 51
90.0
  0
LINE
  5
3D
  8
┌▓È_1
 10
105.97826587829999
 20
107.40414506800001
 30
0.0
 11
120.97826587829999
 21
107.40414506800001
 31
0.0
  0
ENDBLK
  5
3E
  8
0
  0
BLOCK
  8
0
  2
CLUMP3
 70
     0
 10
0.0
 20
0.0
 30
0.0
  3
CLUMP3
  1

  0
ARC
  5
42
  8
┌▓È_1
 10
105.97826587829999
 20
118.90414506800001
 30
0.0
 40
3.5
 50
90.0
 51
270.0
  0
LINE
  5
43
  8
┌▓È_1
 10
120.97826587829999
 20
115.40414506800001
 30
0.0
 11
105.97826587829999
 21
115.40414506800001
 31
0.0
  0
LINE
  5
44
  8
┌▓È_1
 10
105.97826587829999
 20
122.40414506800001
 30
0.0
 11
120.97826587829999
 21
122.40414506800001
 31
0.0
  0
ARC
  5
45
  8
┌▓È_1
 10
120.97826587829999
 20
118.90414506800001
 30
0.0
 40
3.5
 50
270.0
 51
90.0
  0
ENDBLK
  5
46
  8
0
  0
BLOCK
  8
0
  2
CLUMP4
 70
     0
 10
0.0
 20
0.0
 30
0.0
  3
CLUMP4
  1

  0
INSERT
  5
4C
  8
┌▓È_1
  2
CLUMP5
 10
0.0
 20
0.0
 30
0.0
  0
INSERT
  5
54
  8
┌▓È_1
  2
CLUMP6
 10
0.0
 20
0.0
 30
0.0
  0
ENDBLK
  5
5B
  8
0
  0
BLOCK
  8
0
  2
CLUMP5
 70
     0
 10
0.0
 20
0.0
 30
0.0
  3
CLUMP5
  1

  0
ARC
  5
4E
  8
┌▓È_1
 10
105.97826587829999
 20
181.90414506799999
 30
0.0
 40
3.5
 50
90.0
 51
270.0
  0
LINE
  5
4F
  8
┌▓È_1
 10
120.97826587829999
 20
185.40414506799999
 30
0.0
 11
105.97826587829999
 21
185.40414506799999
 31
0.0
  0
LINE
  5
50
  8
┌▓È_1
 10
105.97826587829999
 20
178.40414506799999
 30
0.0
 11
120.97826587829999
 21
178.40414506799999
 31
0.0
  0
ARC
  5
51
  8
┌▓È_1
 10
120.97826587829999
 20
181.90414506799999
 30
0.0
 40
3.5
 50
270.0
 51
90.0
  0
ENDBLK
  5
52
  8
0
  0
BLOCK
  8
0
  2
CLUMP6
 70
     0
 10
0.0
 20
0.0
 30
0.0
  3
CLUMP6
  1

  0
ARC
  5
56
  8
┌▓È_1
 10
105.97826587829999
 20
196.90414506799999
 30
0.0
 40
3.5
 50
90.0
 51
270.0
  0
LINE
  5
57
  8
┌▓È_1
 10
120.97826587829999
 20
200.40414506799999
 30
0.0
 11
105.97826587829999
 21
200.40414506799999
 31
0.0
  0
LINE
  5
58
  8
┌▓È_1
 10
105.97826587829999
 20
193.40414506799999
 30
0.0
 11
120.97826587829999
 21
193.40414506799999
 31
0.0
  0
ARC
  5
59
  8
┌▓È_1
 10
120.97826587829999
 20
196.90414506799999
 30
0.0
 40
3.5
 50
270.0
 51
90.0
  0
ENDBLK
  5
5A
  8
0
  0
BLOCK
  8
0
  2
*D7
 70
     1
 10
0.0
 20
0.0
 30
0.0
  3
*D7
  1

  0
TEXT
  5
6C
  8
0
 62
     0
 10
257.9575352951
 20
143.1127008675
 30
0.0
 40
8.2461809158000001
  1
148
 50
90.0
  0
LINE
  5
6D
  8
0
 62
     0
 10
226.97806275330001
 20
76.404383349200003
 30
0.0
 11
261.41274369199999
 21
76.404383349200003
 31
0.0
  0
LINE
  5
6E
  8
0
 62
     0
 10
226.97806275330001
 20
224.4043833492
 30
0.0
 11
261.41274369199999
 21
224.4043833492
 31
0.0
  0
LINE
  5
6F
  8
0
 62
     0
 10
260.41274369199999
 20
76.404383349200003
 30
0.0
 11
260.41274369199999
 21
162.51547949299999
 31
0.0
  0
LINE
  5
70
  8
0
 62
     0
 10
260.41274369199999
 20
76.404383349200003
 30
0.0
 11
260.41274369199999
 21
138.26200621109999
 31
0.0
  0
LINE
  5
71
  8
0
 62
     0
 10
260.41274369199999
 20
224.4043833492
 30
0.0
 11
260.41274369199999
 21
162.51547949299999
 31
0.0
  0
LINE
  5
72
  8
0
 62
     0
 10
260.41274369199999
 20
224.4043833492
 30
0.0
 11
260.41274369199999
 21
138.26200621109999
 31
0.0
  0
LINE
  5
73
  8
0
 62
     0
 10
260.41274369199999
 20
224.4043833492
 30
0.0
 11
260.41274369199999
 21
219.4043833492
 31
0.0
  0
SOLID
  5
74
  8
0
 62
     0
 10
260.41274369199999
 20
224.4043833492
 30
0.0
 11
262.28774369199999
 21
216.90396897779999
 31
0.0
 12
258.53774369199999
 22
216.90396897779999
 32
0.0
 13
260.41274369199999
 23
218.77907257059999
 33
0.0
  0
LINE
  5
75
  8
0
 62
     0
 10
260.41274369199999
 20
76.404383349200003
 30
0.0
 11
260.41274369199999
 21
81.404383349200003
 31
0.0
  0
SOLID
  5
76
  8
0
 62
     0
 10
260.41274369199999
 20
76.404383349200003
 30
0.0
 11
258.53774369199999
 21
83.904797720699989
 31
0.0
 12
262.28774369199999
 22
83.904797720699989
 32
0.0
 13
260.41274369199999
 23
82.029694127900001
 33
0.0
  0
ENDBLK
  5
77
  8
0
  0
BLOCK
  8
0
  2
*D8
 70
     1
 10
0.0
 20
0.0
 30
0.0
  3
*D8
  1

  0
TEXT
  5
7C
  8
0
 62
     0
 10
244.95785954429999
 20
143.12834136469999
 30
0.0
 40
8.2461809158000001
  1
130
 50
90.0
  0
LINE
  5
7D
  8
0
 62
     0
 10
217.97806275330001
 20
85.404383349200003
 30
0.0
 11
248.4130679413
 21
85.404383349200003
 31
0.0
  0
LINE
  5
7E
  8
0
 62
     0
 10
217.97806275330001
 20
215.4043833492
 30
0.0
 11
248.4130679413
 21
215.4043833492
 31
0.0
  0
LINE
  5
7F
  8
0
 62
     0
 10
247.4130679413
 20
85.404383349200003
 30
0.0
 11
247.4130679413
 21
162.53111999020001
 31
0.0
  0
LINE
  5
80
  8
0
 62
     0
 10
247.4130679413
 20
85.404383349200003
 30
0.0
 11
247.4130679413
 21
138.27764670830001
 31
0.0
  0
LINE
  5
81
  8
0
 62
     0
 10
247.4130679413
 20
215.4043833492
 30
0.0
 11
247.4130679413
 21
162.53111999020001
 31
0.0
  0
LINE
  5
82
  8
0
 62
     0
 10
247.4130679413
 20
215.4043833492
 30
0.0
 11
247.4130679413
 21
138.27764670830001
 31
0.0
  0
LINE
  5
83
  8
0
 62
     0
 10
247.4130679413
 20
215.4043833492
 30
0.0
 11
247.4130679413
 21
210.4043833492
 31
0.0
  0
SOLID
  5
84
  8
0
 62
     0
 10
247.4130679413
 20
215.4043833492
 30
0.0
 11
249.2880679413
 21
207.90396897779999
 31
0.0
 12
245.5380679413
 22
207.90396897779999
 32
0.0
 13
247.4130679413
 23
209.77907257059999
 33
0.0
  0
LINE
  5
85
  8
0
 62
     0
 10
247.4130679413
 20
85.404383349200003
 30
0.0
 11
247.4130679413
 21
90.404383349200003
 31
0.0
  0
SOLID
  5
86
  8
0
 62
     0
 10
247.4130679413
 20
85.404383349200003
 30
0.0
 11
245.5380679413
 21
92.904797720700003
 31
0.0
 12
249.2880679413
 22
92.904797720700003
 32
0.0
 13
247.4130679413
 23
91.029694127900015
 33
0.0
  0
ENDBLK
  5
87
  8
0
  0
BLOCK
  8
0
  2
*D9
 70
     1
 10
0.0
 20
0.0
 30
0.0
  3
*D9
  1

  0
TEXT
  5
8B
  8
0
 62
     0
 10
244.95786145170001
 20
78.479036021100001
 30
0.0
 40
8.2461809158000001
  1
9
 50
90.0
  0
LINE
  5
8C
  8
0
 62
     0
 10
226.97806275330001
 20
76.404383349200003
 30
0.0
 11
248.4130698486
 21
76.404383349200003
 31
0.0
  0
LINE
  5
8D
  8
0
 62
     0
 10
217.97806275330001
 20
85.404383349200003
 30
0.0
 11
248.4130698486
 21
85.404383349200003
 31
0.0
  0
LINE
  5
8E
  8
0
 62
     0
 10
247.4130698486
 20
76.404383349200003
 30
0.0
 11
247.4130698486
 21
76.404383349200003
 31
0.0
  0
LINE
  5
8F
  8
0
 62
     0
 10
247.4130698486
 20
76.404383349200003
 30
0.0
 11
247.4130698486
 21
85.404383349200003
 31
0.0
  0
LINE
  5
90
  8
0
 62
     0
 10
247.4130698486
 20
85.404383349200003
 30
0.0
 11
247.4130698486
 21
76.404383349200003
 31
0.0
  0
LINE
  5
91
  8
0
 62
     0
 10
247.4130698486
 20
85.404383349200003
 30
0.0
 11
247.4130698486
 21
85.404383349200003
 31
0.0
  0
LINE
  5
92
  8
0
 62
     0
 10
247.4130698486
 20
85.404383349200003
 30
0.0
 11
247.4130698486
 21
90.404383349200003
 31
0.0
  0
SOLID
  5
93
  8
0
 62
     0
 10
247.4130698486
 20
85.404383349200003
 30
0.0
 11
245.5380698486
 21
92.904797720700003
 31
0.0
 12
249.2880698486
 22
92.904797720700003
 32
0.0
 13
247.4130698486
 23
91.029694127900015
 33
0.0
  0
LINE
  5
94
  8
0
 62
     0
 10
247.4130698486
 20
76.404383349200003
 30
0.0
 11
247.4130698486
 21
71.404383349200003
 31
0.0
  0
SOLID
  5
95
  8
0
 62
     0
 10
247.4130698486
 20
76.404383349200003
 30
0.0
 11
249.2880698486
 21
68.903968977799991
 31
0.0
 12
245.5380698486
 22
68.903968977799991
 32
0.0
 13
247.4130698486
 23
70.779072570600007
 33
0.0
  0
ENDBLK
  5
96
  8
0
  0
BLOCK
  8
0
  2
*D10
 70
     1
 10
0.0
 20
0.0
 30
0.0
  3
*D10
  1

  0
TEXT
  5
9A
  8
0
 62
     0
 10
243.70316746669999
 20
28.255546413000001
 30
0.0
 40
8.2461809158000001
  1
6
 50
90.0
  0
LINE
  5
9B
  8
0
 62
     0
 10
226.97806275330001
 20
27.680893741199998
 30
0.0
 11
247.15837586360001
 21
27.680893741199998
 31
0.0
  0
LINE
  5
9C
  8
0
 62
     0
 10
226.1780627533
 20
33.680893741200002
 30
0.0
 11
247.15837586360001
 21
33.680893741200002
 31
0.0
  0
LINE
  5
9D
  8
0
 62
     0
 10
246.15837586360001
 20
27.680893741199998
 30
0.0
 11
246.15837586360001
 21
27.680893741199998
 31
0.0
  0
LINE
  5
9E
  8
0
 62
     0
 10
246.15837586360001
 20
27.680893741199998
 30
0.0
 11
246.15837586360001
 21
33.680893741200002
 31
0.0
  0
LINE
  5
9F
  8
0
 62
     0
 10
246.15837586360001
 20
33.680893741200002
 30
0.0
 11
246.15837586360001
 21
27.680893741199998
 31
0.0
  0
LINE
  5
A0
  8
0
 62
     0
 10
246.15837586360001
 20
33.680893741200002
 30
0.0
 11
246.15837586360001
 21
33.680893741200002
 31
0.0
  0
LINE
  5
A1
  8
0
 62
     0
 10
246.15837586360001
 20
33.680893741200002
 30
0.0
 11
246.15837586360001
 21
38.680893741200002
 31
0.0
  0
SOLID
  5
A2
  8
0
 62
     0
 10
246.15837586360001
 20
33.680893741200002
 30
0.0
 11
244.28337586360001
 21
41.181308112700002
 31
0.0
 12
248.03337586360001
 22
41.181308112700002
 32
0.0
 13
246.15837586360001
 23
39.306204519799998
 33
0.0
  0
LINE
  5
A3
  8
0
 62
     0
 10
246.15837586360001
 20
27.680893741199998
 30
0.0
 11
246.15837586360001
 21
22.680893741199998
 31
0.0
  0
SOLID
  5
A4
  8
0
 62
     0
 10
246.15837586360001
 20
27.680893741199998
 30
0.0
 11
248.03337586360001
 21
20.180479369699999
 31
0.0
 12
244.28337586360001
 22
20.180479369699999
 32
0.0
 13
246.15837586360001
 23
22.055582962599999
 33
0.0
  0
ENDBLK
  5
A5
  8
0
  0
BLOCK
  8
0
  2
*D11
 70
     1
 10
0.0
 20
0.0
 30
0.0
  3
*D11
  1

  0
TEXT
  5
A9
  8
0
 62
     0
 10
244.95786145170001
 20
217.4790360211
 30
0.0
 40
8.2461809158000001
  1
9
 50
90.0
  0
LINE
  5
AA
  8
0
 62
     0
 10
217.97806275330001
 20
215.4043833492
 30
0.0
 11
248.4130698486
 21
215.4043833492
 31
0.0
  0
LINE
  5
AB
  8
0
 62
     0
 10
226.97806275330001
 20
224.4043833492
 30
0.0
 11
248.4130698486
 21
224.4043833492
 31
0.0
  0
LINE
  5
AC
  8
0
 62
     0
 10
247.4130698486
 20
215.4043833492
 30
0.0
 11
247.4130698486
 21
215.4043833492
 31
0.0
  0
LINE
  5
AD
  8
0
 62
     0
 10
247.4130698486
 20
215.4043833492
 30
0.0
 11
247.4130698486
 21
224.4043833492
 31
0.0
  0
LINE
  5
AE
  8
0
 62
     0
 10
247.4130698486
 20
224.4043833492
 30
0.0
 11
247.4130698486
 21
215.4043833492
 31
0.0
  0
LINE
  5
AF
  8
0
 62
     0
 10
247.4130698486
 20
224.4043833492
 30
0.0
 11
247.4130698486
 21
224.4043833492
 31
0.0
  0
LINE
  5
B0
  8
0
 62
     0
 10
247.4130698486
 20
224.4043833492
 30
0.0
 11
247.4130698486
 21
229.4043833492
 31
0.0
  0
SOLID
  5
B1
  8
0
 62
     0
 10
247.4130698486
 20
224.4043833492
 30
0.0
 11
245.5380698486
 21
231.9047977207
 31
0.0
 12
249.2880698486
 22
231.9047977207
 32
0.0
 13
247.4130698486
 23
230.0296941279
 33
0.0
  0
LINE
  5
B2
  8
0
 62
     0
 10
247.4130698486
 20
215.4043833492
 30
0.0
 11
247.4130698486
 21
210.4043833492
 31
0.0
  0
SOLID
  5
B3
  8
0
 62
     0
 10
247.4130698486
 20
215.4043833492
 30
0.0
 11
249.2880698486
 21
207.90396897779999
 31
0.0
 12
245.5380698486
 22
207.90396897779999
 32
0.0
 13
247.4130698486
 23
209.77907257059999
 33
0.0
  0
ENDBLK
  5
B4
  8
0
  0
BLOCK
  8
0
  2
*D12
 70
     1
 10
0.0
 20
0.0
 30
0.0
  3
*D12
  1

  0
TEXT
  5
B8
  8
0
 62
     0
 10
218.05271542509999
 20
253.1708538769
 30
0.0
 40
8.2461809158000001
  1
9
  0
LINE
  5
B9
  8
0
 62
     0
 10
224.97806275330001
 20
226.4043833492
 30
0.0
 11
224.97806275330001
 21
251.71564548000001
 31
0.0
  0
LINE
  5
BA
  8
0
 62
     0
 10
215.97806275330001
 20
217.4043833492
 30
0.0
 11
215.97806275330001
 21
251.71564548000001
 31
0.0
  0
LINE
  5
BB
  8
0
 62
     0
 10
224.97806275330001
 20
250.71564548000001
 30
0.0
 11
224.97806275330001
 21
250.71564548000001
 31
0.0
  0
LINE
  5
BC
  8
0
 62
     0
 10
224.97806275330001
 20
250.71564548000001
 30
0.0
 11
215.97806275330001
 21
250.71564548000001
 31
0.0
  0
LINE
  5
BD
  8
0
 62
     0
 10
215.97806275330001
 20
250.71564548000001
 30
0.0
 11
224.97806275330001
 21
250.71564548000001
 31
0.0
  0
LINE
  5
BE
  8
0
 62
     0
 10
215.97806275330001
 20
250.71564548000001
 30
0.0
 11
215.97806275330001
 21
250.71564548000001
 31
0.0
  0
LINE
  5
BF
  8
0
 62
     0
 10
215.97806275330001
 20
250.71564548000001
 30
0.0
 11
210.97806275330001
 21
250.71564548000001
 31
0.0
  0
SOLID
  5
C0
  8
0
 62
     0
 10
215.97806275330001
 20
250.71564548000001
 30
0.0
 11
208.47764838180001
 21
248.84064548000001
 31
0.0
 12
208.47764838180001
 22
252.59064548000001
 32
0.0
 13
210.3527519747
 23
250.71564548000001
 33
0.0
  0
LINE
  5
C1
  8
0
 62
     0
 10
224.97806275330001
 20
250.71564548000001
 30
0.0
 11
229.97806275330001
 21
250.71564548000001
 31
0.0
  0
SOLID
  5
C2
  8
0
 62
     0
 10
224.97806275330001
 20
250.71564548000001
 30
0.0
 11
232.47847712480001
 21
252.59064548000001
 31
0.0
 12
232.47847712480001
 22
248.84064548000001
 32
0.0
 13
230.60337353189999
 23
250.71564548000001
 33
0.0
  0
ENDBLK
  5
C3
  8
0
  0
BLOCK
  8
0
  2
CLUMP7
 70
     0
 10
0.0
 20
0.0
 30
0.0
  3
CLUMP7
  1

  0
ARC
  5
CE
  8
┌▓È_1
 10
68.478265878299993
 20
150.40414506799999
 30
0.0
 40
3.5
 50
90.0
 51
270.0
  0
LINE
  5
CF
  8
┌▓È_1
 10
83.478265878299993
 20
153.90414506799999
 30
0.0
 11
68.478265878299993
 21
153.90414506799999
 31
0.0
  0
LINE
  5
D0
  8
┌▓È_1
 10
68.478265878299993
 20
146.90414506799999
 30
0.0
 11
83.478265878299993
 21
146.90414506799999
 31
0.0
  0
ARC
  5
D1
  8
┌▓È_1
 10
83.478265878299993
 20
150.40414506799999
 30
0.0
 40
3.5
 50
270.0
 51
90.0
  0
ENDBLK
  5
D2
  8
0
  0
BLOCK
  8
0
  2
CLUMP8
 70
     0
 10
0.0
 20
0.0
 30
0.0
  3
CLUMP8
  1

  0
ARC
  5
D6
  8
┌▓È_1
 10
143.47826587829999
 20
150.40414506799999
 30
0.0
 40
3.5
 50
90.0
 51
270.0
  0
LINE
  5
D7
  8
┌▓È_1
 10
158.47826587829999
 20
153.90414506799999
 30
0.0
 11
143.47826587829999
 21
153.90414506799999
 31
0.0
  0
LINE
  5
D8
  8
┌▓È_1
 10
143.47826587829999
 20
146.90414506799999
 30
0.0
 11
158.47826587829999
 21
146.90414506799999
 31
0.0
  0
ARC
  5
D9
  8
┌▓È_1
 10
158.47826587829999
 20
150.40414506799999
 30
0.0
 40
3.5
 50
270.0
 51
90.0
  0
ENDBLK
  5
DA
  8
0
  0
BLOCK
  8
0
  2
CLUMP9
 70
     0
 10
0.0
 20
0.0
 30
0.0
  3
CLUMP9
  1

  0
INSERT
  5
E0
  8
┌▓È_1
  2
CLUMP10
 10
0.0
 20
0.0
 30
0.0
  0
INSERT
  5
F4
  8
┌▓È_1
  2
CLUMP13
 10
0.0
 20
0.0
 30
0.0
  0
ENDBLK
  5
107
  8
0
  0
BLOCK
  8
0
  2
CLUMP10
 70
     0
 10
0.0
 20
0.0
 30
0.0
  3
CLUMP10
  1

  0
INSERT
  5
E3
  8
┌▓È_1
  2
CLUMP11
 10
0.0
 20
0.0
 30
0.0
  0
INSERT
  5
EB
  8
┌▓È_1
  2
CLUMP12
 10
0.0
 20
0.0
 30
0.0
  0
ENDBLK
  5
F2
  8
0
  0
BLOCK
  8
0
  2
CLUMP11
 70
     0
 10
0.0
 20
0.0
 30
0.0
  3
CLUMP11
  1

  0
ARC
  5
E5
  8
┌▓È_1
 10
30.9782658783
 20
103.90414506800001
 30
0.0
 40
3.5
 50
90.0
 51
270.0
  0
LINE
  5
E6
  8
┌▓È_1
 10
45.9782658783
 20
100.40414506800001
 30
0.0
 11
30.9782658783
 21
100.40414506800001
 31
0.0
  0
ARC
  5
E7
  8
┌▓È_1
 10
45.9782658783
 20
103.90414506800001
 30
0.0
 40
3.5
 50
270.0
 51
90.0
  0
LINE
  5
E8
  8
┌▓È_1
 10
30.9782658783
 20
107.40414506800001
 30
0.0
 11
45.9782658783
 21
107.40414506800001
 31
0.0
  0
ENDBLK
  5
E9
  8
0
  0
BLOCK
  8
0
  2
CLUMP12
 70
     0
 10
0.0
 20
0.0
 30
0.0
  3
CLUMP12
  1

  0
ARC
  5
ED
  8
┌▓È_1
 10
30.9782658783
 20
118.90414506800001
 30
0.0
 40
3.5
 50
90.0
 51
270.0
  0
LINE
  5
EE
  8
┌▓È_1
 10
45.9782658783
 20
115.40414506800001
 30
0.0
 11
30.9782658783
 21
115.40414506800001
 31
0.0
  0
LINE
  5
EF
  8
┌▓È_1
 10
30.9782658783
 20
122.40414506800001
 30
0.0
 11
45.9782658783
 21
122.40414506800001
 31
0.0
  0
ARC
  5
F0
  8
┌▓È_1
 10
45.9782658783
 20
118.90414506800001
 30
0.0
 40
3.5
 50
270.0
 51
90.0
  0
ENDBLK
  5
F1
  8
0
  0
BLOCK
  8
0
  2
CLUMP13
 70
     0
 10
0.0
 20
0.0
 30
0.0
  3
CLUMP13
  1

  0
INSERT
  5
F7
  8
┌▓È_1
  2
CLUMP14
 10
0.0
 20
0.0
 30
0.0
  0
INSERT
  5
FF
  8
┌▓È_1
  2
CLUMP15
 10
0.0
 20
0.0
 30
0.0
  0
ENDBLK
  5
106
  8
0
  0
BLOCK
  8
0
  2
CLUMP14
 70
     0
 10
0.0
 20
0.0
 30
0.0
  3
CLUMP14
  1

  0
ARC
  5
F9
  8
┌▓È_1
 10
30.9782658783
 20
181.90414506799999
 30
0.0
 40
3.5
 50
90.0
 51
270.0
  0
LINE
  5
FA
  8
┌▓È_1
 10
45.9782658783
 20
185.40414506799999
 30
0.0
 11
30.9782658783
 21
185.40414506799999
 31
0.0
  0
LINE
  5
FB
  8
┌▓È_1
 10
30.9782658783
 20
178.40414506799999
 30
0.0
 11
45.9782658783
 21
178.40414506799999
 31
0.0
  0
ARC
  5
FC
  8
┌▓È_1
 10
45.9782658783
 20
181.90414506799999
 30
0.0
 40
3.5
 50
270.0
 51
90.0
  0
ENDBLK
  5
FD
  8
0
  0
BLOCK
  8
0
  2
CLUMP15
 70
     0
 10
0.0
 20
0.0
 30
0.0
  3
CLUMP15
  1

  0
ARC
  5
101
  8
┌▓È_1
 10
30.9782658783
 20
196.90414506799999
 30
0.0
 40
3.5
 50
90.0
 51
270.0
  0
LINE
  5
102
  8
┌▓È_1
 10
45.9782658783
 20
200.40414506799999
 30
0.0
 11
30.9782658783
 21
200.40414506799999
 31
0.0
  0
LINE
  5
103
  8
┌▓È_1
 10
30.9782658783
 20
193.40414506799999
 30
0.0
 11
45.9782658783
 21
193.40414506799999
 31
0.0
  0
ARC
  5
104
  8
┌▓È_1
 10
45.9782658783
 20
196.90414506799999
 30
0.0
 40
3.5
 50
270.0
 51
90.0
  0
ENDBLK
  5
105
  8
0
  0
BLOCK
  8
0
  2
CLUMP16
 70
     0
 10
0.0
 20
0.0
 30
0.0
  3
CLUMP16
  1

  0
INSERT
  5
10C
  8
┌▓È_1
  2
CLUMP17
 10
0.0
 20
0.0
 30
0.0
  0
INSERT
  5
120
  8
┌▓È_1
  2
CLUMP20
 10
0.0
 20
0.0
 30
0.0
  0
ENDBLK
  5
133
  8
0
  0
BLOCK
  8
0
  2
CLUMP17
 70
     0
 10
0.0
 20
0.0
 30
0.0
  3
CLUMP17
  1

  0
INSERT
  5
10F
  8
┌▓È_1
  2
CLUMP18
 10
0.0
 20
0.0
 30
0.0
  0
INSERT
  5
117
  8
┌▓È_1
  2
CLUMP19
 10
0.0
 20
0.0
 30
0.0
  0
ENDBLK
  5
11E
  8
0
  0
BLOCK
  8
0
  2
CLUMP18
 70
     0
 10
0.0
 20
0.0
 30
0.0
  3
CLUMP18
  1

  0
ARC
  5
111
  8
┌▓È_1
 10
180.97826587829999
 20
103.90414506800001
 30
0.0
 40
3.5
 50
90.0
 51
270.0
  0
LINE
  5
112
  8
┌▓È_1
 10
195.97826587829999
 20
100.40414506800001
 30
0.0
 11
180.97826587829999
 21
100.40414506800001
 31
0.0
  0
ARC
  5
113
  8
┌▓È_1
 10
195.97826587829999
 20
103.90414506800001
 30
0.0
 40
3.5
 50
270.0
 51
90.0
  0
LINE
  5
114
  8
┌▓È_1
 10
180.97826587829999
 20
107.40414506800001
 30
0.0
 11
195.97826587829999
 21
107.40414506800001
 31
0.0
  0
ENDBLK
  5
115
  8
0
  0
BLOCK
  8
0
  2
CLUMP19
 70
     0
 10
0.0
 20
0.0
 30
0.0
  3
CLUMP19
  1

  0
ARC
  5
119
  8
┌▓È_1
 10
180.97826587829999
 20
118.90414506800001
 30
0.0
 40
3.5
 50
90.0
 51
270.0
  0
LINE
  5
11A
  8
┌▓È_1
 10
195.97826587829999
 20
115.40414506800001
 30
0.0
 11
180.97826587829999
 21
115.40414506800001
 31
0.0
  0
LINE
  5
11B
  8
┌▓È_1
 10
180.97826587829999
 20
122.40414506800001
 30
0.0
 11
195.97826587829999
 21
122.40414506800001
 31
0.0
  0
ARC
  5
11C
  8
┌▓È_1
 10
195.97826587829999
 20
118.90414506800001
 30
0.0
 40
3.5
 50
270.0
 51
90.0
  0
ENDBLK
  5
11D
  8
0
  0
BLOCK
  8
0
  2
CLUMP20
 70
     0
 10
0.0
 20
0.0
 30
0.0
  3
CLUMP20
  1

  0
INSERT
  5
123
  8
┌▓È_1
  2
CLUMP21
 10
0.0
 20
0.0
 30
0.0
  0
INSERT
  5
12B
  8
┌▓È_1
  2
CLUMP22
 10
0.0
 20
0.0
 30
0.0
  0
ENDBLK
  5
132
  8
0
  0
BLOCK
  8
0
  2
CLUMP21
 70
     0
 10
0.0
 20
0.0
 30
0.0
  3
CLUMP21
  1

  0
ARC
  5
125
  8
┌▓È_1
 10
180.97826587829999
 20
181.90414506799999
 30
0.0
 40
3.5
 50
90.0
 51
270.0
  0
LINE
  5
126
  8
┌▓È_1
 10
195.97826587829999
 20
185.40414506799999
 30
0.0
 11
180.97826587829999
 21
185.40414506799999
 31
0.0
  0
LINE
  5
127
  8
┌▓È_1
 10
180.97826587829999
 20
178.40414506799999
 30
0.0
 11
195.97826587829999
 21
178.40414506799999
 31
0.0
  0
ARC
  5
128
  8
┌▓È_1
 10
195.97826587829999
 20
181.90414506799999
 30
0.0
 40
3.5
 50
270.0
 51
90.0
  0
ENDBLK
  5
129
  8
0
  0
BLOCK
  8
0
  2
CLUMP22
 70
     0
 10
0.0
 20
0.0
 30
0.0
  3
CLUMP22
  1

  0
ARC
  5
12D
  8
┌▓È_1
 10
180.97826587829999
 20
196.90414506799999
 30
0.0
 40
3.5
 50
90.0
 51
270.0
  0
LINE
  5
12E
  8
┌▓È_1
 10
195.97826587829999
 20
200.40414506799999
 30
0.0
 11
180.97826587829999
 21
200.40414506799999
 31
0.0
  0
LINE
  5
12F
  8
┌▓È_1
 10
180.97826587829999
 20
193.40414506799999
 30
0.0
 11
195.97826587829999
 21
193.40414506799999
 31
0.0
  0
ARC
  5
130
  8
┌▓È_1
 10
195.97826587829999
 20
196.90414506799999
 30
0.0
 40
3.5
 50
270.0
 51
90.0
  0
ENDBLK
  5
131
  8
0
  0
BLOCK
  8
0
  2
CLUMP23
 70
     0
 10
0.0
 20
0.0
 30
0.0
  3
CLUMP23
  1

  0
ARC
  5
148
  8
┌▓È_1
 10
31.4241479463
 20
-135.0972625226
 30
0.0
 40
3.5
 50
90.0
 51
270.0
  0
LINE
  5
149
  8
┌▓È_1
 10
46.424147946300003
 20
-131.5972625226
 30
0.0
 11
31.4241479463
 21
-131.5972625226
 31
0.0
  0
LINE
  5
14A
  8
┌▓È_1
 10
31.4241479463
 20
-138.5972625226
 30
0.0
 11
46.424147946300003
 21
-138.5972625226
 31
0.0
  0
ARC
  5
14B
  8
┌▓È_1
 10
46.424147946300003
 20
-135.0972625226
 30
0.0
 40
3.5
 50
270.0
 51
90.0
  0
ENDBLK
  5
14C
  8
0
  0
BLOCK
  8
0
  2
CLUMP24
 70
     0
 10
0.0
 20
0.0
 30
0.0
  3
CLUMP24
  1

  0
INSERT
  5
151
  8
┌▓È_1
  2
CLUMP25
 10
0.0
 20
0.0
 30
0.0
  0
INSERT
  5
165
  8
┌▓È_1
  2
CLUMP28
 10
0.0
 20
0.0
 30
0.0
  0
ENDBLK
  5
178
  8
0
  0
BLOCK
  8
0
  2
CLUMP25
 70
     0
 10
0.0
 20
0.0
 30
0.0
  3
CLUMP25
  1

  0
INSERT
  5
154
  8
┌▓È_1
  2
CLUMP26
 10
0.0
 20
0.0
 30
0.0
  0
INSERT
  5
15C
  8
┌▓È_1
  2
CLUMP27
 10
0.0
 20
0.0
 30
0.0
  0
ENDBLK
  5
163
  8
0
  0
BLOCK
  8
0
  2
CLUMP26
 70
     0
 10
0.0
 20
0.0
 30
0.0
  3
CLUMP26
  1

  0
ARC
  5
156
  8
┌▓È_1
 10
68.924147946299996
 20
-181.5972625226
 30
0.0
 40
3.5
 50
90.0
 51
270.0
  0
LINE
  5
157
  8
┌▓È_1
 10
83.924147946299996
 20
-185.09726252259989
 30
0.0
 11
68.924147946299996
 21
-185.09726252259989
 31
0.0
  0
ARC
  5
158
  8
┌▓È_1
 10
83.924147946299996
 20
-181.5972625226
 30
0.0
 40
3.5
 50
270.0
 51
90.0
  0
LINE
  5
159
  8
┌▓È_1
 10
68.924147946299996
 20
-178.0972625226
 30
0.0
 11
83.924147946299996
 21
-178.0972625226
 31
0.0
  0
ENDBLK
  5
15A
  8
0
  0
BLOCK
  8
0
  2
CLUMP27
 70
     0
 10
0.0
 20
0.0
 30
0.0
  3
CLUMP27
  1

  0
ARC
  5
15E
  8
┌▓È_1
 10
68.924147946299996
 20
-166.5972625226
 30
0.0
 40
3.5
 50
90.0
 51
270.0
  0
LINE
  5
15F
  8
┌▓È_1
 10
83.924147946299996
 20
-170.0972625226
 30
0.0
 11
68.924147946299996
 21
-170.0972625226
 31
0.0
  0
LINE
  5
160
  8
┌▓È_1
 10
68.924147946299996
 20
-163.0972625226
 30
0.0
 11
83.924147946299996
 21
-163.0972625226
 31
0.0
  0
ARC
  5
161
  8
┌▓È_1
 10
83.924147946299996
 20
-166.5972625226
 30
0.0
 40
3.5
 50
270.0
 51
90.0
  0
ENDBLK
  5
162
  8
0
  0
BLOCK
  8
0
  2
CLUMP28
 70
     0
 10
0.0
 20
0.0
 30
0.0
  3
CLUMP28
  1

  0
INSERT
  5
168
  8
┌▓È_1
  2
CLUMP29
 10
0.0
 20
0.0
 30
0.0
  0
INSERT
  5
170
  8
┌▓È_1
  2
CLUMP30
 10
0.0
 20
0.0
 30
0.0
  0
ENDBLK
  5
177
  8
0
  0
BLOCK
  8
0
  2
CLUMP29
 70
     0
 10
0.0
 20
0.0
 30
0.0
  3
CLUMP29
  1

  0
ARC
  5
16A
  8
┌▓È_1
 10
68.924147946299996
 20
-103.5972625226
 30
0.0
 40
3.5
 50
90.0
 51
270.0
  0
LINE
  5
16B
  8
┌▓È_1
 10
83.924147946299996
 20
-100.0972625226
 30
0.0
 11
68.924147946299996
 21
-100.0972625226
 31
0.0
  0
LINE
  5
16C
  8
┌▓È_1
 10
68.924147946299996
 20
-107.0972625226
 30
0.0
 11
83.924147946299996
 21
-107.0972625226
 31
0.0
  0
ARC
  5
16D
  8
┌▓È_1
 10
83.924147946299996
 20
-103.5972625226
 30
0.0
 40
3.5
 50
270.0
 51
90.0
  0
ENDBLK
  5
16E
  8
0
  0
BLOCK
  8
0
  2
CLUMP30
 70
     0
 10
0.0
 20
0.0
 30
0.0
  3
CLUMP30
  1

  0
ARC
  5
172
  8
┌▓È_1
 10
68.924147946299996
 20
-88.597262522600005
 30
0.0
 40
3.5
 50
90.0
 51
270.0
  0
LINE
  5
173
  8
┌▓È_1
 10
83.924147946299996
 20
-85.097262522600005
 30
0.0
 11
68.924147946299996
 21
-85.097262522600005
 31
0.0
  0
LINE
  5
174
  8
┌▓È_1
 10
68.924147946299996
 20
-92.097262522600005
 30
0.0
 11
83.924147946299996
 21
-92.097262522600005
 31
0.0
  0
ARC
  5
175
  8
┌▓È_1
 10
83.924147946299996
 20
-88.597262522600005
 30
0.0
 40
3.5
 50
270.0
 51
90.0
  0
ENDBLK
  5
176
  8
0
  0
BLOCK
  8
0
  2
CLUMP31
 70
     0
 10
0.0
 20
0.0
 30
0.0
  3
CLUMP31
  1

  0
INSERT
  5
17E
  8
┌▓È_1
  2
CLUMP32
 10
0.0
 20
0.0
 30
0.0
  0
INSERT
  5
192
  8
┌▓È_1
  2
CLUMP35
 10
0.0
 20
0.0
 30
0.0
  0
ENDBLK
  5
1A5
  8
0
  0
BLOCK
  8
0
  2
CLUMP32
 70
     0
 10
0.0
 20
0.0
 30
0.0
  3
CLUMP32
  1

  0
INSERT
  5
181
  8
┌▓È_1
  2
CLUMP33
 10
0.0
 20
0.0
 30
0.0
  0
INSERT
  5
189
  8
┌▓È_1
  2
CLUMP34
 10
0.0
 20
0.0
 30
0.0
  0
ENDBLK
  5
190
  8
0
  0
BLOCK
  8
0
  2
CLUMP33
 70
     0
 10
0.0
 20
0.0
 30
0.0
  3
CLUMP33
  1

  0
ARC
  5
183
  8
┌▓È_1
 10
143.9241479463
 20
-181.5972625226
 30
0.0
 40
3.5
 50
90.0
 51
270.0
  0
LINE
  5
184
  8
┌▓È_1
 10
158.9241479463
 20
-185.09726252259989
 30
0.0
 11
143.9241479463
 21
-185.09726252259989
 31
0.0
  0
ARC
  5
185
  8
┌▓È_1
 10
158.9241479463
 20
-181.5972625226
 30
0.0
 40
3.5
 50
270.0
 51
90.0
  0
LINE
  5
186
  8
┌▓È_1
 10
143.9241479463
 20
-178.0972625226
 30
0.0
 11
158.9241479463
 21
-178.0972625226
 31
0.0
  0
ENDBLK
  5
187
  8
0
  0
BLOCK
  8
0
  2
CLUMP34
 70
     0
 10
0.0
 20
0.0
 30
0.0
  3
CLUMP34
  1

  0
ARC
  5
18B
  8
┌▓È_1
 10
143.9241479463
 20
-166.5972625226
 30
0.0
 40
3.5
 50
90.0
 51
270.0
  0
LINE
  5
18C
  8
┌▓È_1
 10
158.9241479463
 20
-170.0972625226
 30
0.0
 11
143.9241479463
 21
-170.0972625226
 31
0.0
  0
LINE
  5
18D
  8
┌▓È_1
 10
143.9241479463
 20
-163.0972625226
 30
0.0
 11
158.9241479463
 21
-163.0972625226
 31
0.0
  0
ARC
  5
18E
  8
┌▓È_1
 10
158.9241479463
 20
-166.5972625226
 30
0.0
 40
3.5
 50
270.0
 51
90.0
  0
ENDBLK
  5
18F
  8
0
  0
BLOCK
  8
0
  2
CLUMP35
 70
     0
 10
0.0
 20
0.0
 30
0.0
  3
CLUMP35
  1

  0
INSERT
  5
195
  8
┌▓È_1
  2
CLUMP36
 10
0.0
 20
0.0
 30
0.0
  0
INSERT
  5
19D
  8
┌▓È_1
  2
CLUMP37
 10
0.0
 20
0.0
 30
0.0
  0
ENDBLK
  5
1A4
  8
0
  0
BLOCK
  8
0
  2
CLUMP36
 70
     0
 10
0.0
 20
0.0
 30
0.0
  3
CLUMP36
  1

  0
ARC
  5
197
  8
┌▓È_1
 10
143.9241479463
 20
-103.5972625226
 30
0.0
 40
3.5
 50
90.0
 51
270.0
  0
LINE
  5
198
  8
┌▓È_1
 10
158.9241479463
 20
-100.0972625226
 30
0.0
 11
143.9241479463
 21
-100.0972625226
 31
0.0
  0
LINE
  5
199
  8
┌▓È_1
 10
143.9241479463
 20
-107.0972625226
 30
0.0
 11
158.9241479463
 21
-107.0972625226
 31
0.0
  0
ARC
  5
19A
  8
┌▓È_1
 10
158.9241479463
 20
-103.5972625226
 30
0.0
 40
3.5
 50
270.0
 51
90.0
  0
ENDBLK
  5
19B
  8
0
  0
BLOCK
  8
0
  2
CLUMP37
 70
     0
 10
0.0
 20
0.0
 30
0.0
  3
CLUMP37
  1

  0
ARC
  5
19F
  8
┌▓È_1
 10
143.9241479463
 20
-88.597262522600005
 30
0.0
 40
3.5
 50
90.0
 51
270.0
  0
LINE
  5
1A0
  8
┌▓È_1
 10
158.9241479463
 20
-85.097262522600005
 30
0.0
 11
143.9241479463
 21
-85.097262522600005
 31
0.0
  0
LINE
  5
1A1
  8
┌▓È_1
 10
143.9241479463
 20
-92.097262522600005
 30
0.0
 11
158.9241479463
 21
-92.097262522600005
 31
0.0
  0
ARC
  5
1A2
  8
┌▓È_1
 10
158.9241479463
 20
-88.597262522600005
 30
0.0
 40
3.5
 50
270.0
 51
90.0
  0
ENDBLK
  5
1A3
  8
0
  0
BLOCK
  8
0
  2
CLUMP38
 70
     0
 10
0.0
 20
0.0
 30
0.0
  3
CLUMP38
  1

  0
ARC
  5
1AB
  8
┌▓È_1
 10
106.4241479463
 20
-135.0972625226
 30
0.0
 40
3.5
 50
90.0
 51
270.0
  0
LINE
  5
1AC
  8
┌▓È_1
 10
121.4241479463
 20
-131.5972625226
 30
0.0
 11
106.4241479463
 21
-131.5972625226
 31
0.0
  0
LINE
  5
1AD
  8
┌▓È_1
 10
106.4241479463
 20
-138.5972625226
 30
0.0
 11
121.4241479463
 21
-138.5972625226
 31
0.0
  0
ARC
  5
1AE
  8
┌▓È_1
 10
121.4241479463
 20
-135.0972625226
 30
0.0
 40
3.5
 50
270.0
 51
90.0
  0
ENDBLK
  5
1AF
  8
0
  0
BLOCK
  8
0
  2
*D45
 70
     1
 10
0.0
 20
0.0
 30
0.0
  3
*D45
  1

  0
TEXT
  5
1B6
  8
0
 62
     0
 10
34.073453289899987
 20
-222.1417336911
 30
0.0
 40
8.2461809158000001
  1
75
  0
LINE
  5
1B7
  8
0
 62
     0
 10
1.4241479462999991
 20
-187.09726252259989
 30
0.0
 11
1.4241479462999991
 21
-225.59694208799999
 31
0.0
  0
LINE
  5
1B8
  8
0
 62
     0
 10
76.424147946299996
 20
-187.09726252259989
 30
0.0
 11
76.424147946299996
 21
-225.59694208799999
 31
0.0
  0
LINE
  5
1B9
  8
0
 62
     0
 10
1.4241479462999991
 20
-224.59694208799999
 30
0.0
 11
48.625537258999991
 21
-224.59694208799999
 31
0.0
  0
LINE
  5
1BA
  8
0
 62
     0
 10
1.4241479462999991
 20
-224.59694208799999
 30
0.0
 11
29.2227586335
 21
-224.59694208799999
 31
0.0
  0
LINE
  5
1BB
  8
0
 62
     0
 10
76.424147946299996
 20
-224.59694208799999
 30
0.0
 11
48.625537258999991
 21
-224.59694208799999
 31
0.0
  0
LINE
  5
1BC
  8
0
 62
     0
 10
76.424147946299996
 20
-224.59694208799999
 30
0.0
 11
29.2227586335
 21
-224.59694208799999
 31
0.0
  0
LINE
  5
1BD
  8
0
 62
     0
 10
76.424147946299996
 20
-224.59694208799999
 30
0.0
 11
71.424147946299996
 21
-224.59694208799999
 31
0.0
  0
SOLID
  5
1BE
  8
0
 62
     0
 10
76.424147946299996
 20
-224.59694208799999
 30
0.0
 11
68.923733574799996
 21
-226.47194208799999
 31
0.0
 12
68.923733574799996
 22
-222.72194208799999
 32
0.0
 13
70.7988371677
 23
-224.59694208799999
 33
0.0
  0
LINE
  5
1BF
  8
0
 62
     0
 10
1.4241479462999991
 20
-224.59694208799999
 30
0.0
 11
6.4241479462999989
 21
-224.59694208799999
 31
0.0
  0
SOLID
  5
1C0
  8
0
 62
     0
 10
1.4241479462999991
 20
-224.59694208799999
 30
0.0
 11
8.9245623177999995
 21
-222.72194208799999
 31
0.0
 12
8.9245623177999995
 22
-226.47194208799999
 32
0.0
 13
7.0494587249
 23
-224.59694208799999
 33
0.0
  0
ENDBLK
  5
1C1
  8
0
  0
BLOCK
  8
0
  2
*D46
 70
     1
 10
0.0
 20
0.0
 30
0.0
  3
*D46
  1

  0
TEXT
  5
1C5
  8
0
 62
     0
 10
271.83910622249999
 20
-49.282522723100001
 30
0.0
 40
8.2461809158000001
  1
14
  0
LINE
  5
1C6
  8
0
 62
     0
 10
283.68980087889997
 20
-68.597262522600005
 30
0.0
 11
283.68980087889997
 21
-50.737731119999999
 31
0.0
  0
LINE
  5
1C7
  8
0
 62
     0
 10
269.68980087889997
 20
-70.597263871899997
 30
0.0
 11
269.68980087889997
 21
-50.737731119999999
 31
0.0
  0
LINE
  5
1C8
  8
0
 62
     0
 10
283.68980087889997
 20
-51.737731119999999
 30
0.0
 11
283.68980087889997
 21
-51.737731119999999
 31
0.0
  0
LINE
  5
1C9
  8
0
 62
     0
 10
283.68980087889997
 20
-51.737731119999999
 30
0.0
 11
269.68980087889997
 21
-51.737731119999999
 31
0.0
  0
LINE
  5
1CA
  8
0
 62
     0
 10
269.68980087889997
 20
-51.737731119999999
 30
0.0
 11
283.68980087889997
 21
-51.737731119999999
 31
0.0
  0
LINE
  5
1CB
  8
0
 62
     0
 10
269.68980087889997
 20
-51.737731119999999
 30
0.0
 11
269.68980087889997
 21
-51.737731119999999
 31
0.0
  0
LINE
  5
1CC
  8
0
 62
     0
 10
269.68980087889997
 20
-51.737731119999999
 30
0.0
 11
264.68980087889997
 21
-51.737731119999999
 31
0.0
  0
SOLID
  5
1CD
  8
0
 62
     0
 10
269.68980087889997
 20
-51.737731119999999
 30
0.0
 11
262.1893865074
 21
-53.612731119999999
 31
0.0
 12
262.1893865074
 22
-49.862731119999999
 32
0.0
 13
264.06449010030002
 23
-51.737731119999999
 33
0.0
  0
LINE
  5
1CE
  8
0
 62
     0
 10
283.68980087889997
 20
-51.737731119999999
 30
0.0
 11
288.68980087889997
 21
-51.737731119999999
 31
0.0
  0
SOLID
  5
1CF
  8
0
 62
     0
 10
283.68980087889997
 20
-51.737731119999999
 30
0.0
 11
291.1902152504
 21
-49.862731119999999
 31
0.0
 12
291.1902152504
 22
-53.612731119999999
 32
0.0
 13
289.31511165749998
 23
-51.737731119999999
 33
0.0
  0
ENDBLK
  5
1D0
  8
0
  0
BLOCK
  8
0
  2
*D47
 70
     1
 10
0.0
 20
0.0
 30
0.0
  3
*D47
  1

  0
TEXT
  5
1D5
  8
0
 62
     0
 10
186.34460047510001
 20
-282.0535887387
 30
0.0
 40
8.2461809158000001
  1
R5
 50
315.0
  0
LINE
  5
1D6
  8
0
 62
     0
 10
176.70949956050001
 20
-277.22043054310001
 30
0.0
 11
193.804761485
 21
-294.31569246750001
 31
0.0
  0
SOLID
  5
1D7
  8
0
 62
     0
 10
176.70949956050001
 20
-277.22043054310001
 30
0.0
 11
183.3389186391
 21
-281.19819919209999
 31
0.0
 12
180.68726820959989
 22
-283.84984962160001
 32
0.0
 13
180.6871949584
 23
-281.19812594090001
 33
0.0
  0
ENDBLK
  5
1D8
  8
0
  0
BLOCK
  8
0
  2
*D48
 70
     1
 10
0.0
 20
0.0
 30
0.0
  3
*D48
  1

  0
TEXT
  5
1DC
  8
0
 62
     0
 10
200.71875644389999
 20
-100.9479571789
 30
0.0
 40
8.2461809158000001
  1
15
 50
90.0
  0
LINE
  5
1DD
  8
0
 62
     0
 10
164.4241479463
 20
-103.5972625226
 30
0.0
 11
204.17396484080001
 21
-103.5972625226
 31
0.0
  0
LINE
  5
1DE
  8
0
 62
     0
 10
164.4241479463
 20
-88.597262522600005
 30
0.0
 11
204.17396484080001
 21
-88.597262522600005
 31
0.0
  0
LINE
  5
1DF
  8
0
 62
     0
 10
203.17396484080001
 20
-103.5972625226
 30
0.0
 11
203.17396484080001
 21
-103.5972625226
 31
0.0
  0
LINE
  5
1E0
  8
0
 62
     0
 10
203.17396484080001
 20
-103.5972625226
 30
0.0
 11
203.17396484080001
 21
-88.597262522600005
 31
0.0
  0
LINE
  5
1E1
  8
0
 62
     0
 10
203.17396484080001
 20
-88.597262522600005
 30
0.0
 11
203.17396484080001
 21
-103.5972625226
 31
0.0
  0
LINE
  5
1E2
  8
0
 62
     0
 10
203.17396484080001
 20
-88.597262522600005
 30
0.0
 11
203.17396484080001
 21
-88.597262522600005
 31
0.0
  0
LINE
  5
1E3
  8
0
 62
     0
 10
203.17396484080001
 20
-88.597262522600005
 30
0.0
 11
203.17396484080001
 21
-83.597262522600005
 31
0.0
  0
SOLID
  5
1E4
  8
0
 62
     0
 10
203.17396484080001
 20
-88.597262522600005
 30
0.0
 11
201.29896484080001
 21
-81.096848151099977
 31
0.0
 12
205.04896484080001
 22
-81.096848151099977
 32
0.0
 13
203.17396484080001
 23
-82.971951743900007
 33
0.0
  0
LINE
  5
1E5
  8
0
 62
     0
 10
203.17396484080001
 20
-103.5972625226
 30
0.0
 11
203.17396484080001
 21
-108.5972625226
 31
0.0
  0
SOLID
  5
1E6
  8
0
 62
     0
 10
203.17396484080001
 20
-103.5972625226
 30
0.0
 11
205.04896484080001
 21
-111.0976768941
 31
0.0
 12
201.29896484080001
 22
-111.0976768941
 32
0.0
 13
203.17396484080001
 23
-109.2225733012
 33
0.0
  0
ENDBLK
  5
1E7
  8
0
  0
BLOCK
  8
0
  2
*D49
 70
     1
 10
0.0
 20
0.0
 30
0.0
  3
*D49
  1

  0
TEXT
  5
1EB
  8
0
 62
     0
 10
200.7187569729
 20
-127.6337050866
 30
0.0
 40
8.2461809158000001
  1
31.5
 50
90.0
  0
LINE
  5
1EC
  8
0
 62
     0
 10
186.94326773789999
 20
-135.09694090799999
 30
0.0
 11
204.17396536979999
 21
-135.09694090799999
 31
0.0
  0
LINE
  5
1ED
  8
0
 62
     0
 10
164.4241479463
 20
-103.5972625226
 30
0.0
 11
204.17396536979999
 21
-103.5972625226
 31
0.0
  0
LINE
  5
1EE
  8
0
 62
     0
 10
203.17396536979999
 20
-135.09694090799999
 30
0.0
 11
203.17396536979999
 21
-106.2098036876
 31
0.0
  0
LINE
  5
1EF
  8
0
 62
     0
 10
203.17396536979999
 20
-135.09694090799999
 30
0.0
 11
203.17396536979999
 21
-132.4843997429
 31
0.0
  0
LINE
  5
1F0
  8
0
 62
     0
 10
203.17396536979999
 20
-103.5972625226
 30
0.0
 11
203.17396536979999
 21
-106.2098036876
 31
0.0
  0
LINE
  5
1F1
  8
0
 62
     0
 10
203.17396536979999
 20
-103.5972625226
 30
0.0
 11
203.17396536979999
 21
-132.4843997429
 31
0.0
  0
LINE
  5
1F2
  8
0
 62
     0
 10
203.17396536979999
 20
-103.5972625226
 30
0.0
 11
203.17396536979999
 21
-98.597262522600005
 31
0.0
  0
SOLID
  5
1F3
  8
0
 62
     0
 10
203.17396536979999
 20
-103.5972625226
 30
0.0
 11
201.29896536979999
 21
-96.096848151100005
 31
0.0
 12
205.04896536979999
 22
-96.096848151100005
 32
0.0
 13
203.17396536979999
 23
-97.971951743899993
 33
0.0
  0
LINE
  5
1F4
  8
0
 62
     0
 10
203.17396536979999
 20
-135.09694090799999
 30
0.0
 11
203.17396536979999
 21
-140.09694090799999
 31
0.0
  0
SOLID
  5
1F5
  8
0
 62
     0
 10
203.17396536979999
 20
-135.09694090799999
 30
0.0
 11
205.04896536979999
 21
-142.59735527949999
 31
0.0
 12
201.29896536979999
 22
-142.59735527949999
 32
0.0
 13
203.17396536979999
 23
-140.7222516866
 33
0.0
  0
ENDBLK
  5
1F6
  8
0
  0
BLOCK
  8
0
  2
*D50
 70
     1
 10
0.0
 20
0.0
 30
0.0
  3
*D50
  1

  0
TEXT
  5
1FA
  8
0
 62
     0
 10
200.7187569729
 20
-159.1337050866
 30
0.0
 40
8.2461809158000001
  1
31.5
 50
90.0
  0
LINE
  5
1FB
  8
0
 62
     0
 10
164.4241479463
 20
-166.5972625226
 30
0.0
 11
204.17396536979999
 21
-166.5972625226
 31
0.0
  0
LINE
  5
1FC
  8
0
 62
     0
 10
186.94326773789999
 20
-135.09694090799999
 30
0.0
 11
204.17396536979999
 21
-135.09694090799999
 31
0.0
  0
LINE
  5
1FD
  8
0
 62
     0
 10
203.17396536979999
 20
-166.5972625226
 30
0.0
 11
203.17396536979999
 21
-137.70980368759999
 31
0.0
  0
LINE
  5
1FE
  8
0
 62
     0
 10
203.17396536979999
 20
-166.5972625226
 30
0.0
 11
203.17396536979999
 21
-163.9843997429
 31
0.0
  0
LINE
  5
1FF
  8
0
 62
     0
 10
203.17396536979999
 20
-135.09694090799999
 30
0.0
 11
203.17396536979999
 21
-137.70980368759999
 31
0.0
  0
LINE
  5
200
  8
0
 62
     0
 10
203.17396536979999
 20
-135.09694090799999
 30
0.0
 11
203.17396536979999
 21
-163.9843997429
 31
0.0
  0
LINE
  5
201
  8
0
 62
     0
 10
203.17396536979999
 20
-135.09694090799999
 30
0.0
 11
203.17396536979999
 21
-130.09694090799999
 31
0.0
  0
SOLID
  5
202
  8
0
 62
     0
 10
203.17396536979999
 20
-135.09694090799999
 30
0.0
 11
201.29896536979999
 21
-127.59652653649999
 31
0.0
 12
205.04896536979999
 22
-127.59652653649999
 32
0.0
 13
203.17396536979999
 23
-129.47163012940001
 33
0.0
  0
LINE
  5
203
  8
0
 62
     0
 10
203.17396536979999
 20
-166.5972625226
 30
0.0
 11
203.17396536979999
 21
-171.5972625226
 31
0.0
  0
SOLID
  5
204
  8
0
 62
     0
 10
203.17396536979999
 20
-166.5972625226
 30
0.0
 11
205.04896536979999
 21
-174.0976768941
 31
0.0
 12
201.29896536979999
 22
-174.0976768941
 32
0.0
 13
203.17396536979999
 23
-172.22257330119999
 33
0.0
  0
ENDBLK
  5
205
  8
0
  0
BLOCK
  8
0
  2
*D51
 70
     1
 10
0.0
 20
0.0
 30
0.0
  3
*D51
  1

  0
TEXT
  5
209
  8
0
 62
     0
 10
200.71875644389999
 20
-178.9479571789
 30
0.0
 40
8.2461809158000001
  1
15
 50
90.0
  0
LINE
  5
20A
  8
0
 62
     0
 10
164.4241479463
 20
-181.5972625226
 30
0.0
 11
204.17396484080001
 21
-181.5972625226
 31
0.0
  0
LINE
  5
20B
  8
0
 62
     0
 10
164.4241479463
 20
-166.5972625226
 30
0.0
 11
204.17396484080001
 21
-166.5972625226
 31
0.0
  0
LINE
  5
20C
  8
0
 62
     0
 10
203.17396484080001
 20
-181.5972625226
 30
0.0
 11
203.17396484080001
 21
-181.5972625226
 31
0.0
  0
LINE
  5
20D
  8
0
 62
     0
 10
203.17396484080001
 20
-181.5972625226
 30
0.0
 11
203.17396484080001
 21
-166.5972625226
 31
0.0
  0
LINE
  5
20E
  8
0
 62
     0
 10
203.17396484080001
 20
-166.5972625226
 30
0.0
 11
203.17396484080001
 21
-181.5972625226
 31
0.0
  0
LINE
  5
20F
  8
0
 62
     0
 10
203.17396484080001
 20
-166.5972625226
 30
0.0
 11
203.17396484080001
 21
-166.5972625226
 31
0.0
  0
LINE
  5
210
  8
0
 62
     0
 10
203.17396484080001
 20
-166.5972625226
 30
0.0
 11
203.17396484080001
 21
-161.5972625226
 31
0.0
  0
SOLID
  5
211
  8
0
 62
     0
 10
203.17396484080001
 20
-166.5972625226
 30
0.0
 11
201.29896484080001
 21
-159.0968481511
 31
0.0
 12
205.04896484080001
 22
-159.0968481511
 32
0.0
 13
203.17396484080001
 23
-160.97195174390001
 33
0.0
  0
LINE
  5
212
  8
0
 62
     0
 10
203.17396484080001
 20
-181.5972625226
 30
0.0
 11
203.17396484080001
 21
-186.5972625226
 31
0.0
  0
SOLID
  5
213
  8
0
 62
     0
 10
203.17396484080001
 20
-181.5972625226
 30
0.0
 11
205.04896484080001
 21
-189.0976768941
 31
0.0
 12
201.29896484080001
 22
-189.0976768941
 32
0.0
 13
203.17396484080001
 23
-187.2225733011999
 33
0.0
  0
ENDBLK
  5
214
  8
0
  0
BLOCK
  8
0
  2
*D52
 70
     1
 10
0.0
 20
0.0
 30
0.0
  3
*D52
  1

  0
TEXT
  5
218
  8
0
 62
     0
 10
200.71875725769999
 20
-195.44779637159999
 30
0.0
 40
8.2461809158000001
  1
18
 50
90.0
  0
LINE
  5
219
  8
0
 62
     0
 10
180.17396565460001
 20
-199.59694090799999
 30
0.0
 11
204.17396565460001
 21
-199.59694090799999
 31
0.0
  0
LINE
  5
21A
  8
0
 62
     0
 10
164.4241479463
 20
-181.5972625226
 30
0.0
 11
204.17396565460001
 21
-181.5972625226
 31
0.0
  0
LINE
  5
21B
  8
0
 62
     0
 10
203.17396565460001
 20
-199.59694090799999
 30
0.0
 11
203.17396565460001
 21
-199.59694090799999
 31
0.0
  0
LINE
  5
21C
  8
0
 62
     0
 10
203.17396565460001
 20
-199.59694090799999
 30
0.0
 11
203.17396565460001
 21
-181.5972625226
 31
0.0
  0
LINE
  5
21D
  8
0
 62
     0
 10
203.17396565460001
 20
-181.5972625226
 30
0.0
 11
203.17396565460001
 21
-199.59694090799999
 31
0.0
  0
LINE
  5
21E
  8
0
 62
     0
 10
203.17396565460001
 20
-181.5972625226
 30
0.0
 11
203.17396565460001
 21
-181.5972625226
 31
0.0
  0
LINE
  5
21F
  8
0
 62
     0
 10
203.17396565460001
 20
-181.5972625226
 30
0.0
 11
203.17396565460001
 21
-186.5972625226
 31
0.0
  0
SOLID
  5
220
  8
0
 62
     0
 10
203.17396565460001
 20
-181.5972625226
 30
0.0
 11
205.04896565460001
 21
-189.0976768941
 31
0.0
 12
201.29896565460001
 22
-189.0976768941
 32
0.0
 13
203.17396565460001
 23
-187.2225733011999
 33
0.0
  0
LINE
  5
221
  8
0
 62
     0
 10
203.17396565460001
 20
-199.59694090799999
 30
0.0
 11
203.17396565460001
 21
-194.59694090799999
 31
0.0
  0
SOLID
  5
222
  8
0
 62
     0
 10
203.17396565460001
 20
-199.59694090799999
 30
0.0
 11
201.29896565460001
 21
-192.09652653649999
 31
0.0
 12
205.04896565460001
 22
-192.09652653649999
 32
0.0
 13
203.17396565460001
 23
-193.97163012940001
 33
0.0
  0
ENDBLK
  5
223
  8
0
  0
BLOCK
  8
0
  2
*D53
 70
     1
 10
0.0
 20
0.0
 30
0.0
  3
*D53
  1

  0
TEXT
  5
227
  8
0
 62
     0
 10
218.1176982977
 20
-142.3729828925
 30
0.0
 40
8.2461809158000001
  1
129
 50
90.0
  0
LINE
  5
228
  8
0
 62
     0
 10
180.17396565460001
 20
-199.59694090799999
 30
0.0
 11
221.57290669459999
 21
-199.59694090799999
 31
0.0
  0
LINE
  5
229
  8
0
 62
     0
 10
180.17396565460001
 20
-70.596940907999993
 30
0.0
 11
221.57290669459999
 21
-70.596940907999993
 31
0.0
  0
LINE
  5
22A
  8
0
 62
     0
 10
220.57290669459999
 20
-199.59694090799999
 30
0.0
 11
220.57290669459999
 21
-122.9702042671
 31
0.0
  0
LINE
  5
22B
  8
0
 62
     0
 10
220.57290669459999
 20
-199.59694090799999
 30
0.0
 11
220.57290669459999
 21
-147.2236775488999
 31
0.0
  0
LINE
  5
22C
  8
0
 62
     0
 10
220.57290669459999
 20
-70.596940907999993
 30
0.0
 11
220.57290669459999
 21
-122.9702042671
 31
0.0
  0
LINE
  5
22D
  8
0
 62
     0
 10
220.57290669459999
 20
-70.596940907999993
 30
0.0
 11
220.57290669459999
 21
-147.2236775488999
 31
0.0
  0
LINE
  5
22E
  8
0
 62
     0
 10
220.57290669459999
 20
-70.596940907999993
 30
0.0
 11
220.57290669459999
 21
-75.596940907999993
 31
0.0
  0
SOLID
  5
22F
  8
0
 62
     0
 10
220.57290669459999
 20
-70.596940907999993
 30
0.0
 11
222.44790669459999
 21
-78.097355279499993
 31
0.0
 12
218.69790669459999
 22
-78.097355279499993
 32
0.0
 13
220.57290669459999
 23
-76.222251686600003
 33
0.0
  0
LINE
  5
230
  8
0
 62
     0
 10
220.57290669459999
 20
-199.59694090799999
 30
0.0
 11
220.57290669459999
 21
-194.59694090799999
 31
0.0
  0
SOLID
  5
231
  8
0
 62
     0
 10
220.57290669459999
 20
-199.59694090799999
 30
0.0
 11
218.69790669459999
 21
-192.09652653649999
 31
0.0
 12
222.44790669459999
 22
-192.09652653649999
 32
0.0
 13
220.57290669459999
 23
-193.97163012940001
 33
0.0
  0
ENDBLK
  5
232
  8
0
  0
BLOCK
  8
0
  2
*D54
 70
     1
 10
0.0
 20
0.0
 30
0.0
  3
*D54
  1

  0
TEXT
  5
236
  8
0
 62
     0
 10
154.08710610099999
 20
-222.1417325111
 30
0.0
 40
8.2461809158000001
  1
26.75
  0
LINE
  5
237
  8
0
 62
     0
 10
151.4241479463
 20
-187.09726252259989
 30
0.0
 11
151.4241479463
 21
-225.59694090799999
 31
0.0
  0
LINE
  5
238
  8
0
 62
     0
 10
178.1739656545999
 20
-201.59694090799999
 30
0.0
 11
178.1739656545999
 21
-225.59694090799999
 31
0.0
  0
LINE
  5
239
  8
0
 62
     0
 10
151.4241479463
 20
-224.59694090799999
 30
0.0
 11
151.4241479463
 21
-224.59694090799999
 31
0.0
  0
LINE
  5
23A
  8
0
 62
     0
 10
151.4241479463
 20
-224.59694090799999
 30
0.0
 11
178.1739656545999
 21
-224.59694090799999
 31
0.0
  0
LINE
  5
23B
  8
0
 62
     0
 10
178.1739656545999
 20
-224.59694090799999
 30
0.0
 11
151.4241479463
 21
-224.59694090799999
 31
0.0
  0
LINE
  5
23C
  8
0
 62
     0
 10
178.1739656545999
 20
-224.59694090799999
 30
0.0
 11
178.1739656545999
 21
-224.59694090799999
 31
0.0
  0
LINE
  5
23D
  8
0
 62
     0
 10
178.1739656545999
 20
-224.59694090799999
 30
0.0
 11
173.17396565460001
 21
-224.59694090799999
 31
0.0
  0
SOLID
  5
23E
  8
0
 62
     0
 10
178.1739656545999
 20
-224.59694090799999
 30
0.0
 11
170.67355128310001
 21
-226.47194090799999
 31
0.0
 12
170.67355128310001
 22
-222.72194090799999
 32
0.0
 13
172.548654876
 23
-224.59694090799999
 33
0.0
  0
LINE
  5
23F
  8
0
 62
     0
 10
151.4241479463
 20
-224.59694090799999
 30
0.0
 11
156.4241479463
 21
-224.59694090799999
 31
0.0
  0
SOLID
  5
240
  8
0
 62
     0
 10
151.4241479463
 20
-224.59694090799999
 30
0.0
 11
158.9245623178
 21
-222.72194090799999
 31
0.0
 12
158.9245623178
 22
-226.47194090799999
 32
0.0
 13
157.04945872490001
 23
-224.59694090799999
 33
0.0
  0
ENDBLK
  5
241
  8
0
  0
BLOCK
  8
0
  2
*D55
 70
     1
 10
0.0
 20
0.0
 30
0.0
  3
*D55
  1

  0
TEXT
  5
245
  8
0
 62
     0
 10
109.0734532899
 20
-222.1417336911
 30
0.0
 40
8.2461809158000001
  1
75
  0
LINE
  5
246
  8
0
 62
     0
 10
76.424147946299996
 20
-187.09726252259989
 30
0.0
 11
76.424147946299996
 21
-225.59694208799999
 31
0.0
  0
LINE
  5
247
  8
0
 62
     0
 10
151.4241479463
 20
-187.09726252259989
 30
0.0
 11
151.4241479463
 21
-225.59694208799999
 31
0.0
  0
LINE
  5
248
  8
0
 62
     0
 10
76.424147946299996
 20
-224.59694208799999
 30
0.0
 11
123.625537259
 21
-224.59694208799999
 31
0.0
  0
LINE
  5
249
  8
0
 62
     0
 10
76.424147946299996
 20
-224.59694208799999
 30
0.0
 11
104.22275863350001
 21
-224.59694208799999
 31
0.0
  0
LINE
  5
24A
  8
0
 62
     0
 10
151.4241479463
 20
-224.59694208799999
 30
0.0
 11
123.625537259
 21
-224.59694208799999
 31
0.0
  0
LINE
  5
24B
  8
0
 62
     0
 10
151.4241479463
 20
-224.59694208799999
 30
0.0
 11
104.22275863350001
 21
-224.59694208799999
 31
0.0
  0
LINE
  5
24C
  8
0
 62
     0
 10
151.4241479463
 20
-224.59694208799999
 30
0.0
 11
146.4241479463
 21
-224.59694208799999
 31
0.0
  0
SOLID
  5
24D
  8
0
 62
     0
 10
151.4241479463
 20
-224.59694208799999
 30
0.0
 11
143.9237335748
 21
-226.47194208799999
 31
0.0
 12
143.9237335748
 22
-222.72194208799999
 32
0.0
 13
145.79883716769999
 23
-224.59694208799999
 33
0.0
  0
LINE
  5
24E
  8
0
 62
     0
 10
76.424147946299996
 20
-224.59694208799999
 30
0.0
 11
81.424147946299996
 21
-224.59694208799999
 31
0.0
  0
SOLID
  5
24F
  8
0
 62
     0
 10
76.424147946299996
 20
-224.59694208799999
 30
0.0
 11
83.924562317799996
 21
-222.72194208799999
 31
0.0
 12
83.924562317799996
 22
-226.47194208799999
 32
0.0
 13
82.049458724899978
 23
-224.59694208799999
 33
0.0
  0
ENDBLK
  5
250
  8
0
  0
BLOCK
  8
0
  2
*D56
 70
     1
 10
0.0
 20
0.0
 30
0.0
  3
*D56
  1

  0
TEXT
  5
254
  8
0
 62
     0
 10
200.71875725769999
 20
-84.447796371599992
 30
0.0
 40
8.2461809158000001
  1
18
 50
90.0
  0
LINE
  5
255
  8
0
 62
     0
 10
164.4241479463
 20
-88.597262522600005
 30
0.0
 11
204.17396565460001
 21
-88.597262522600005
 31
0.0
  0
LINE
  5
256
  8
0
 62
     0
 10
180.17396565460001
 20
-70.596940907999993
 30
0.0
 11
204.17396565460001
 21
-70.596940907999993
 31
0.0
  0
LINE
  5
257
  8
0
 62
     0
 10
203.17396565460001
 20
-88.597262522600005
 30
0.0
 11
203.17396565460001
 21
-88.597262522600005
 31
0.0
  0
LINE
  5
258
  8
0
 62
     0
 10
203.17396565460001
 20
-88.597262522600005
 30
0.0
 11
203.17396565460001
 21
-70.596940907999993
 31
0.0
  0
LINE
  5
259
  8
0
 62
     0
 10
203.17396565460001
 20
-70.596940907999993
 30
0.0
 11
203.17396565460001
 21
-88.597262522600005
 31
0.0
  0
LINE
  5
25A
  8
0
 62
     0
 10
203.17396565460001
 20
-70.596940907999993
 30
0.0
 11
203.17396565460001
 21
-70.596940907999993
 31
0.0
  0
LINE
  5
25B
  8
0
 62
     0
 10
203.17396565460001
 20
-70.596940907999993
 30
0.0
 11
203.17396565460001
 21
-75.596940907999993
 31
0.0
  0
SOLID
  5
25C
  8
0
 62
     0
 10
203.17396565460001
 20
-70.596940907999993
 30
0.0
 11
205.04896565460001
 21
-78.097355279499993
 31
0.0
 12
201.29896565460001
 22
-78.097355279499993
 32
0.0
 13
203.17396565460001
 23
-76.222251686600003
 33
0.0
  0
LINE
  5
25D
  8
0
 62
     0
 10
203.17396565460001
 20
-88.597262522600005
 30
0.0
 11
203.17396565460001
 21
-83.597262522600005
 31
0.0
  0
SOLID
  5
25E
  8
0
 62
     0
 10
203.17396565460001
 20
-88.597262522600005
 30
0.0
 11
201.29896565460001
 21
-81.096848151099977
 31
0.0
 12
205.04896565460001
 22
-81.096848151099977
 32
0.0
 13
203.17396565460001
 23
-82.971951743900007
 33
0.0
  0
ENDBLK
  5
25F
  8
0
  0
BLOCK
  8
0
  2
CLUMP39
 70
     0
 10
0.0
 20
0.0
 30
0.0
  3
CLUMP39
  1

  0
INSERT
  5
268
  8
┌▓È_1
  2
CLUMP40
 10
0.0
 20
0.0
 30
0.0
  0
INSERT
  5
27C
  8
┌▓È_1
  2
CLUMP43
 10
0.0
 20
0.0
 30
0.0
  0
ENDBLK
  5
28F
  8
0
  0
BLOCK
  8
0
  2
CLUMP40
 70
     0
 10
0.0
 20
0.0
 30
0.0
  3
CLUMP40
  1

  0
INSERT
  5
26B
  8
┌▓È_1
  2
CLUMP41
 10
0.0
 20
0.0
 30
0.0
  0
INSERT
  5
273
  8
┌▓È_1
  2
CLUMP42
 10
0.0
 20
0.0
 30
0.0
  0
ENDBLK
  5
27A
  8
0
  0
BLOCK
  8
0
  2
CLUMP41
 70
     0
 10
0.0
 20
0.0
 30
0.0
  3
CLUMP41
  1

  0
ARC
  5
26D
  8
┌▓È_1
 10
-194.02173412170001
 20
103.90414506800001
 30
0.0
 40
3.5
 50
90.0
 51
270.0
  0
LINE
  5
26E
  8
┌▓È_1
 10
-179.02173412169989
 20
100.40414506800001
 30
0.0
 11
-194.02173412170001
 21
100.40414506800001
 31
0.0
  0
ARC
  5
26F
  8
┌▓È_1
 10
-179.02173412169989
 20
103.90414506800001
 30
0.0
 40
3.5
 50
270.0
 51
90.0
  0
LINE
  5
270
  8
┌▓È_1
 10
-194.02173412170001
 20
107.40414506800001
 30
0.0
 11
-179.02173412169989
 21
107.40414506800001
 31
0.0
  0
ENDBLK
  5
271
  8
0
  0
BLOCK
  8
0
  2
CLUMP42
 70
     0
 10
0.0
 20
0.0
 30
0.0
  3
CLUMP42
  1

  0
ARC
  5
275
  8
┌▓È_1
 10
-194.02173412170001
 20
118.90414506800001
 30
0.0
 40
3.5
 50
90.0
 51
270.0
  0
LINE
  5
276
  8
┌▓È_1
 10
-179.02173412169989
 20
115.40414506800001
 30
0.0
 11
-194.02173412170001
 21
115.40414506800001
 31
0.0
  0
LINE
  5
277
  8
┌▓È_1
 10
-194.02173412170001
 20
122.40414506800001
 30
0.0
 11
-179.02173412169989
 21
122.40414506800001
 31
0.0
  0
ARC
  5
278
  8
┌▓È_1
 10
-179.02173412169989
 20
118.90414506800001
 30
0.0
 40
3.5
 50
270.0
 51
90.0
  0
ENDBLK
  5
279
  8
0
  0
BLOCK
  8
0
  2
CLUMP43
 70
     0
 10
0.0
 20
0.0
 30
0.0
  3
CLUMP43
  1

  0
INSERT
  5
27F
  8
┌▓È_1
  2
CLUMP44
 10
0.0
 20
0.0
 30
0.0
  0
INSERT
  5
287
  8
┌▓È_1
  2
CLUMP45
 10
0.0
 20
0.0
 30
0.0
  0
ENDBLK
  5
28E
  8
0
  0
BLOCK
  8
0
  2
CLUMP44
 70
     0
 10
0.0
 20
0.0
 30
0.0
  3
CLUMP44
  1

  0
ARC
  5
281
  8
┌▓È_1
 10
-194.02173412170001
 20
181.90414506799999
 30
0.0
 40
3.5
 50
90.0
 51
270.0
  0
LINE
  5
282
  8
┌▓È_1
 10
-179.02173412169989
 20
185.40414506799999
 30
0.0
 11
-194.02173412170001
 21
185.40414506799999
 31
0.0
  0
LINE
  5
283
  8
┌▓È_1
 10
-194.02173412170001
 20
178.40414506799999
 30
0.0
 11
-179.02173412169989
 21
178.40414506799999
 31
0.0
  0
ARC
  5
284
  8
┌▓È_1
 10
-179.02173412169989
 20
181.90414506799999
 30
0.0
 40
3.5
 50
270.0
 51
90.0
  0
ENDBLK
  5
285
  8
0
  0
BLOCK
  8
0
  2
CLUMP45
 70
     0
 10
0.0
 20
0.0
 30
0.0
  3
CLUMP45
  1

  0
ARC
  5
289
  8
┌▓È_1
 10
-194.02173412170001
 20
196.90414506799999
 30
0.0
 40
3.5
 50
90.0
 51
270.0
  0
LINE
  5
28A
  8
┌▓È_1
 10
-179.02173412169989
 20
200.40414506799999
 30
0.0
 11
-194.02173412170001
 21
200.40414506799999
 31
0.0
  0
LINE
  5
28B
  8
┌▓È_1
 10
-194.02173412170001
 20
193.40414506799999
 30
0.0
 11
-179.02173412169989
 21
193.40414506799999
 31
0.0
  0
ARC
  5
28C
  8
┌▓È_1
 10
-179.02173412169989
 20
196.90414506799999
 30
0.0
 40
3.5
 50
270.0
 51
90.0
  0
ENDBLK
  5
28D
  8
0
  0
BLOCK
  8
0
  2
*D64
 70
     1
 10
0.0
 20
0.0
 30
0.0
  3
*D64
  1

  0
TEXT
  5
29C
  8
0
 62
     0
 10
-220.94728457490001
 20
253.1708538769
 30
0.0
 40
8.2461809158000001
  1
9
  0
LINE
  5
29D
  8
0
 62
     0
 10
-214.02193724669999
 20
217.4043833492
 30
0.0
 11
-214.02193724669999
 21
251.71564548000001
 31
0.0
  0
LINE
  5
29E
  8
0
 62
     0
 10
-223.02193724669999
 20
226.4043833492
 30
0.0
 11
-223.02193724669999
 21
251.71564548000001
 31
0.0
  0
LINE
  5
29F
  8
0
 62
     0
 10
-214.02193724669999
 20
250.71564548000001
 30
0.0
 11
-214.02193724669999
 21
250.71564548000001
 31
0.0
  0
LINE
  5
2A0
  8
0
 62
     0
 10
-214.02193724669999
 20
250.71564548000001
 30
0.0
 11
-223.02193724669999
 21
250.71564548000001
 31
0.0
  0
LINE
  5
2A1
  8
0
 62
     0
 10
-223.02193724669999
 20
250.71564548000001
 30
0.0
 11
-214.02193724669999
 21
250.71564548000001
 31
0.0
  0
LINE
  5
2A2
  8
0
 62
     0
 10
-223.02193724669999
 20
250.71564548000001
 30
0.0
 11
-223.02193724669999
 21
250.71564548000001
 31
0.0
  0
LINE
  5
2A3
  8
0
 62
     0
 10
-223.02193724669999
 20
250.71564548000001
 30
0.0
 11
-228.02193724669999
 21
250.71564548000001
 31
0.0
  0
SOLID
  5
2A4
  8
0
 62
     0
 10
-223.02193724669999
 20
250.71564548000001
 30
0.0
 11
-230.52235161819999
 21
248.84064548000001
 31
0.0
 12
-230.52235161819999
 22
252.59064548000001
 32
0.0
 13
-228.6472480253
 23
250.71564548000001
 33
0.0
  0
LINE
  5
2A5
  8
0
 62
     0
 10
-214.02193724669999
 20
250.71564548000001
 30
0.0
 11
-209.02193724669999
 21
250.71564548000001
 31
0.0
  0
SOLID
  5
2A6
  8
0
 62
     0
 10
-214.02193724669999
 20
250.71564548000001
 30
0.0
 11
-206.52152287519999
 21
252.59064548000001
 31
0.0
 12
-206.52152287519999
 22
248.84064548000001
 32
0.0
 13
-208.39662646810001
 23
250.71564548000001
 33
0.0
  0
ENDBLK
  5
2A7
  8
0
  0
BLOCK
  8
0
  2
BALLON0
 70
     0
 10
0.0
 20
0.0
 30
0.0
  3
BALLON0
  1

  0
INSERT
  5
2AC
  8
0
  6
CONTINUOUS
  2
*U152
 10
0.0
 20
0.0
 30
0.0
  0
CIRCLE
  5
2AD
  8
┌▓È_1
 10
-266.16267419579998
 20
55.415976020499997
 30
0.0
 40
10.0
  0
LINE
  5
2AE
  8
Éíû@É³
 10
-249.49600752910001
 20
55.415976020499997
 30
0.0
 11
-256.16267419579998
 21
55.415976020499997
 31
0.0
  0
LINE
  5
2AF
  8
Éíû@É³
 10
-214.8219372467
 20
10.7650759685
 30
0.0
 11
-249.49600752910001
 21
55.415976020499997
 31
0.0
  0
SOLID
  5
2B0
  8
Éíû@É³
 10
-214.8219372467
 20
10.7650759685
 30
0.0
 11
-222.53498187950001
 21
17.436578234999999
 31
0.0
 12
-219.7286635387
 22
17.083623040100001
 32
0.0
 13
-219.7286635387
 23
17.083623040100001
 33
0.0
  0
SOLID
  5
2B1
  8
Éíû@É³
 10
-219.7286635387
 20
17.083623040100001
 30
0.0
 11
-219.37570834370001
 21
19.889941381
 31
0.0
 12
-214.8219372467
 22
10.7650759685
 32
0.0
 13
-214.8219372467
 23
10.7650759685
 33
0.0
  0
ENDBLK
  5
2B2
  8
0
  0
BLOCK
  8
0
  2
BALLON1
 70
     0
 10
0.0
 20
0.0
 30
0.0
  3
BALLON1
  1

  0
INSERT
  5
2B6
  8
0
  6
CONTINUOUS
  2
*U153
 10
0.0
 20
0.0
 30
0.0
  0
CIRCLE
  5
2B7
  8
┌▓È_1
 10
-113.6170060318
 20
55.415976020499997
 30
0.0
 40
10.0
  0
LINE
  5
2B8
  8
Éíû@É³
 10
-96.950339365100007
 20
55.415976020499997
 30
0.0
 11
-103.6170060318
 21
55.415976020499997
 31
0.0
  0
LINE
  5
2B9
  8
Éíû@É³
 10
-73.778380866199996
 20
120.80879008949999
 30
0.0
 11
-96.950339365100007
 21
55.415976020499997
 31
0.0
  0
SOLID
  5
2BA
  8
Éíû@É³
 10
-73.778380866199996
 20
120.80879008949999
 30
0.0
 11
-75.233244066699996
 21
110.7150606961
 31
0.0
 12
-76.450387850200002
 22
113.26820797160001
 32
0.0
 13
-76.450387850200002
 23
113.26820797160001
 33
0.0
  0
SOLID
  5
2BB
  8
Éíû@É³
 10
-76.450387850200002
 20
113.26820797160001
 30
0.0
 11
-79.003535125699983
 21
112.0510641881
 31
0.0
 12
-73.778380866199996
 22
120.80879008949999
 32
0.0
 13
-73.778380866199996
 23
120.80879008949999
 33
0.0
  0
ENDBLK
  5
2BC
  8
0
  0
BLOCK
  8
0
  2
BALLON2
 70
     0
 10
0.0
 20
0.0
 30
0.0
  3
BALLON2
  1

  0
INSERT
  5
2C0
  8
0
  6
CONTINUOUS
  2
*U154
 10
0.0
 20
0.0
 30
0.0
  0
CIRCLE
  5
2C1
  8
┌▓È_1
 10
-175.2937471425999
 20
55.415976020499997
 30
0.0
 40
10.0
  0
LINE
  5
2C2
  8
Éíû@É³
 10
-158.62708047589999
 20
55.415976020499997
 30
0.0
 11
-165.29374714260001
 21
55.415976020499997
 31
0.0
  0
LINE
  5
2C3
  8
Éíû@É³
 10
-139.08264643690001
 20
33.680893741200002
 30
0.0
 11
-158.62708047589999
 21
55.415976020499997
 31
0.0
  0
SOLID
  5
2C4
  8
Éíû@É³
 10
-139.08264643690001
 20
33.680893741200002
 30
0.0
 11
-147.25622473049989
 21
39.779468810799997
 31
0.0
 12
-144.43177203670001
 22
39.6295789168
 32
0.0
 13
-144.43177203670001
 23
39.6295789168
 33
0.0
  0
SOLID
  5
2C5
  8
Éíû@É³
 10
-144.43177203670001
 20
39.6295789168
 30
0.0
 11
-144.2818821427
 21
42.454031610599991
 31
0.0
 12
-139.08264643690001
 22
33.680893741200002
 32
0.0
 13
-139.08264643690001
 23
33.680893741200002
 33
0.0
  0
ENDBLK
  5
2C6
  8
0
  0
BLOCK
  8
0
  2
CLUMP46
 70
     0
 10
0.0
 20
0.0
 30
0.0
  3
CLUMP46
  1

  0
ARC
  5
2D1
  8
┌▓È_1
 10
-193.5758520537
 20
-135.0972625226
 30
0.0
 40
3.5
 50
90.0
 51
270.0
  0
LINE
  5
2D2
  8
┌▓È_1
 10
-178.57585205369989
 20
-131.5972625226
 30
0.0
 11
-193.5758520537
 21
-131.5972625226
 31
0.0
  0
LINE
  5
2D3
  8
┌▓È_1
 10
-193.5758520537
 20
-138.5972625226
 30
0.0
 11
-178.57585205369989
 21
-138.5972625226
 31
0.0
  0
ARC
  5
2D4
  8
┌▓È_1
 10
-178.57585205369989
 20
-135.0972625226
 30
0.0
 40
3.5
 50
270.0
 51
90.0
  0
ENDBLK
  5
2D5
  8
0
  0
BLOCK
  8
0
  2
CLUMP47
 70
     0
 10
0.0
 20
0.0
 30
0.0
  3
CLUMP47
  1

  0
INSERT
  5
2DF
  8
┌▓È_1
  2
CLUMP48
 10
0.0
 20
0.0
 30
0.0
  0
INSERT
  5
2F3
  8
┌▓È_1
  2
CLUMP51
 10
0.0
 20
0.0
 30
0.0
  0
ENDBLK
  5
306
  8
0
  0
BLOCK
  8
0
  2
CLUMP48
 70
     0
 10
0.0
 20
0.0
 30
0.0
  3
CLUMP48
  1

  0
INSERT
  5
2E2
  8
┌▓È_1
  2
CLUMP49
 10
0.0
 20
0.0
 30
0.0
  0
INSERT
  5
2EA
  8
┌▓È_1
  2
CLUMP50
 10
0.0
 20
0.0
 30
0.0
  0
ENDBLK
  5
2F1
  8
0
  0
BLOCK
  8
0
  2
CLUMP49
 70
     0
 10
0.0
 20
0.0
 30
0.0
  3
CLUMP49
  1

  0
ARC
  5
2E4
  8
┌▓È_1
 10
-231.0758520537
 20
-181.5972625226
 30
0.0
 40
3.5
 50
90.0
 51
270.0
  0
LINE
  5
2E5
  8
┌▓È_1
 10
-216.0758520537
 20
-185.09726252259989
 30
0.0
 11
-231.0758520537
 21
-185.09726252259989
 31
0.0
  0
ARC
  5
2E6
  8
┌▓È_1
 10
-216.0758520537
 20
-181.5972625226
 30
0.0
 40
3.5
 50
270.0
 51
90.0
  0
LINE
  5
2E7
  8
┌▓È_1
 10
-231.0758520537
 20
-178.0972625226
 30
0.0
 11
-216.0758520537
 21
-178.0972625226
 31
0.0
  0
ENDBLK
  5
2E8
  8
0
  0
BLOCK
  8
0
  2
CLUMP50
 70
     0
 10
0.0
 20
0.0
 30
0.0
  3
CLUMP50
  1

  0
ARC
  5
2EC
  8
┌▓È_1
 10
-231.0758520537
 20
-166.5972625226
 30
0.0
 40
3.5
 50
90.0
 51
270.0
  0
LINE
  5
2ED
  8
┌▓È_1
 10
-216.0758520537
 20
-170.0972625226
 30
0.0
 11
-231.0758520537
 21
-170.0972625226
 31
0.0
  0
LINE
  5
2EE
  8
┌▓È_1
 10
-231.0758520537
 20
-163.0972625226
 30
0.0
 11
-216.0758520537
 21
-163.0972625226
 31
0.0
  0
ARC
  5
2EF
  8
┌▓È_1
 10
-216.0758520537
 20
-166.5972625226
 30
0.0
 40
3.5
 50
270.0
 51
90.0
  0
ENDBLK
  5
2F0
  8
0
  0
BLOCK
  8
0
  2
CLUMP51
 70
     0
 10
0.0
 20
0.0
 30
0.0
  3
CLUMP51
  1

  0
INSERT
  5
2F6
  8
┌▓È_1
  2
CLUMP52
 10
0.0
 20
0.0
 30
0.0
  0
INSERT
  5
2FE
  8
┌▓È_1
  2
CLUMP53
 10
0.0
 20
0.0
 30
0.0
  0
ENDBLK
  5
305
  8
0
  0
BLOCK
  8
0
  2
CLUMP52
 70
     0
 10
0.0
 20
0.0
 30
0.0
  3
CLUMP52
  1

  0
ARC
  5
2F8
  8
┌▓È_1
 10
-231.0758520537
 20
-103.5972625226
 30
0.0
 40
3.5
 50
90.0
 51
270.0
  0
LINE
  5
2F9
  8
┌▓È_1
 10
-216.0758520537
 20
-100.0972625226
 30
0.0
 11
-231.0758520537
 21
-100.0972625226
 31
0.0
  0
LINE
  5
2FA
  8
┌▓È_1
 10
-231.0758520537
 20
-107.0972625226
 30
0.0
 11
-216.0758520537
 21
-107.0972625226
 31
0.0
  0
ARC
  5
2FB
  8
┌▓È_1
 10
-216.0758520537
 20
-103.5972625226
 30
0.0
 40
3.5
 50
270.0
 51
90.0
  0
ENDBLK
  5
2FC
  8
0
  0
BLOCK
  8
0
  2
CLUMP53
 70
     0
 10
0.0
 20
0.0
 30
0.0
  3
CLUMP53
  1

  0
ARC
  5
300
  8
┌▓È_1
 10
-231.0758520537
 20
-88.597262522600005
 30
0.0
 40
3.5
 50
90.0
 51
270.0
  0
LINE
  5
301
  8
┌▓È_1
 10
-216.0758520537
 20
-85.097262522600005
 30
0.0
 11
-231.0758520537
 21
-85.097262522600005
 31
0.0
  0
LINE
  5
302
  8
┌▓È_1
 10
-231.0758520537
 20
-92.097262522600005
 30
0.0
 11
-216.0758520537
 21
-92.097262522600005
 31
0.0
  0
ARC
  5
303
  8
┌▓È_1
 10
-216.0758520537
 20
-88.597262522600005
 30
0.0
 40
3.5
 50
270.0
 51
90.0
  0
ENDBLK
  5
304
  8
0
  0
BLOCK
  8
0
  2
*D76
 70
     1
 10
0.0
 20
0.0
 30
0.0
  3
*D76
  1

  0
TEXT
  5
30B
  8
0
 62
     0
 10
-153.42654671010001
 20
-151.40214495359999
 30
0.0
 40
8.2461809158000001
  1
22
  0
LINE
  5
30C
  8
0
 62
     0
 10
-137.5758520537
 20
-164.5972625226
 30
0.0
 11
-137.5758520537
 21
-152.85735335050001
 31
0.0
  0
LINE
  5
30D
  8
0
 62
     0
 10
-159.5758520537
 20
-164.5972625226
 30
0.0
 11
-159.5758520537
 21
-152.85735335050001
 31
0.0
  0
LINE
  5
30E
  8
0
 62
     0
 10
-137.5758520537
 20
-153.85735335050001
 30
0.0
 11
-138.874462741
 21
-153.85735335050001
 31
0.0
  0
LINE
  5
30F
  8
0
 62
     0
 10
-137.5758520537
 20
-153.85735335050001
 30
0.0
 11
-158.27724136649999
 21
-153.85735335050001
 31
0.0
  0
LINE
  5
310
  8
0
 62
     0
 10
-159.5758520537
 20
-153.85735335050001
 30
0.0
 11
-138.874462741
 21
-153.85735335050001
 31
0.0
  0
LINE
  5
311
  8
0
 62
     0
 10
-159.5758520537
 20
-153.85735335050001
 30
0.0
 11
-158.27724136649999
 21
-153.85735335050001
 31
0.0
  0
LINE
  5
312
  8
0
 62
     0
 10
-159.5758520537
 20
-153.85735335050001
 30
0.0
 11
-164.5758520537
 21
-153.85735335050001
 31
0.0
  0
SOLID
  5
313
  8
0
 62
     0
 10
-159.5758520537
 20
-153.85735335050001
 30
0.0
 11
-167.0762664252
 21
-155.73235335050001
 31
0.0
 12
-167.0762664252
 22
-151.98235335050001
 32
0.0
 13
-165.20116283230001
 23
-153.85735335050001
 33
0.0
  0
LINE
  5
314
  8
0
 62
     0
 10
-137.5758520537
 20
-153.85735335050001
 30
0.0
 11
-132.5758520537
 21
-153.85735335050001
 31
0.0
  0
SOLID
  5
315
  8
0
 62
     0
 10
-137.5758520537
 20
-153.85735335050001
 30
0.0
 11
-130.0754376822
 21
-151.98235335050001
 31
0.0
 12
-130.0754376822
 22
-155.73235335050001
 32
0.0
 13
-131.95054127509999
 23
-153.85735335050001
 33
0.0
  0
ENDBLK
  5
316
  8
0
  0
BLOCK
  8
0
  2
*D77
 70
     1
 10
0.0
 20
0.0
 30
0.0
  3
*D77
  1

  0
TEXT
  5
31A
  8
0
 62
     0
 10
-190.92654671010001
 20
-222.1417336911
 30
0.0
 40
8.2461809158000001
  1
75
  0
LINE
  5
31B
  8
0
 62
     0
 10
-223.5758520537
 20
-187.09726252259989
 30
0.0
 11
-223.5758520537
 21
-225.59694208799999
 31
0.0
  0
LINE
  5
31C
  8
0
 62
     0
 10
-148.5758520537
 20
-187.09726252259989
 30
0.0
 11
-148.5758520537
 21
-225.59694208799999
 31
0.0
  0
LINE
  5
31D
  8
0
 62
     0
 10
-223.5758520537
 20
-224.59694208799999
 30
0.0
 11
-176.37446274099989
 21
-224.59694208799999
 31
0.0
  0
LINE
  5
31E
  8
0
 62
     0
 10
-223.5758520537
 20
-224.59694208799999
 30
0.0
 11
-195.77724136649999
 21
-224.59694208799999
 31
0.0
  0
LINE
  5
31F
  8
0
 62
     0
 10
-148.5758520537
 20
-224.59694208799999
 30
0.0
 11
-176.37446274099989
 21
-224.59694208799999
 31
0.0
  0
LINE
  5
320
  8
0
 62
     0
 10
-148.5758520537
 20
-224.59694208799999
 30
0.0
 11
-195.77724136649999
 21
-224.59694208799999
 31
0.0
  0
LINE
  5
321
  8
0
 62
     0
 10
-148.5758520537
 20
-224.59694208799999
 30
0.0
 11
-153.5758520537
 21
-224.59694208799999
 31
0.0
  0
SOLID
  5
322
  8
0
 62
     0
 10
-148.5758520537
 20
-224.59694208799999
 30
0.0
 11
-156.0762664252
 21
-226.47194208799999
 31
0.0
 12
-156.0762664252
 22
-222.72194208799999
 32
0.0
 13
-154.20116283230001
 23
-224.59694208799999
 33
0.0
  0
LINE
  5
323
  8
0
 62
     0
 10
-223.5758520537
 20
-224.59694208799999
 30
0.0
 11
-218.5758520537
 21
-224.59694208799999
 31
0.0
  0
SOLID
  5
324
  8
0
 62
     0
 10
-223.5758520537
 20
-224.59694208799999
 30
0.0
 11
-216.0754376822
 21
-222.72194208799999
 31
0.0
 12
-216.0754376822
 22
-226.47194208799999
 32
0.0
 13
-217.95054127509999
 23
-224.59694208799999
 33
0.0
  0
ENDBLK
  5
325
  8
0
  0
BLOCK
  8
0
  2
*D78
 70
     1
 10
0.0
 20
0.0
 30
0.0
  3
*D78
  1

  0
TEXT
  5
329
  8
0
 62
     0
 10
-292.7422634879
 20
-166.1126770324
 30
0.0
 40
8.2461809158000001
  1
2-â│15
 50
26.776143397399998
  0
LINE
  5
32A
  8
0
 62
     0
 10
-230.30495051290001
 20
-138.4092459053
 30
0.0
 11
-291.21257706419999
 21
-169.14407710219999
 31
0.0
  0
SOLID
  5
32B
  8
0
 62
     0
 10
-230.30495051290001
 20
-138.4092459053
 30
0.0
 11
-236.15642305220001
 21
-143.4621767246
 31
0.0
 12
-237.84581999
 22
-140.11427619049999
 32
0.0
 13
-235.327078769
 23
-140.94348131949999
 33
0.0
  0
ENDBLK
  5
32C
  8
0
  0
BLOCK
  8
0
  2
*D79
 70
     1
 10
0.0
 20
0.0
 30
0.0
  3
*D79
  1

  0
TEXT
  5
330
  8
0
 62
     0
 10
-247.66289389900001
 20
-222.1417325111
 30
0.0
 40
8.2461809158000001
  1
26.75
  0
LINE
  5
331
  8
0
 62
     0
 10
-250.32603434539999
 20
-201.59694090799999
 30
0.0
 11
-250.32603434539999
 21
-225.59694090799999
 31
0.0
  0
LINE
  5
332
  8
0
 62
     0
 10
-223.5758520537
 20
-187.09726252259989
 30
0.0
 11
-223.5758520537
 21
-225.59694090799999
 31
0.0
  0
LINE
  5
333
  8
0
 62
     0
 10
-250.32603434539999
 20
-224.59694090799999
 30
0.0
 11
-250.32603434539999
 21
-224.59694090799999
 31
0.0
  0
LINE
  5
334
  8
0
 62
     0
 10
-250.32603434539999
 20
-224.59694090799999
 30
0.0
 11
-223.5758520537
 21
-224.59694090799999
 31
0.0
  0
LINE
  5
335
  8
0
 62
     0
 10
-223.5758520537
 20
-224.59694090799999
 30
0.0
 11
-250.32603434539999
 21
-224.59694090799999
 31
0.0
  0
LINE
  5
336
  8
0
 62
     0
 10
-223.5758520537
 20
-224.59694090799999
 30
0.0
 11
-223.5758520537
 21
-224.59694090799999
 31
0.0
  0
LINE
  5
337
  8
0
 62
     0
 10
-223.5758520537
 20
-224.59694090799999
 30
0.0
 11
-228.5758520537
 21
-224.59694090799999
 31
0.0
  0
SOLID
  5
338
  8
0
 62
     0
 10
-223.5758520537
 20
-224.59694090799999
 30
0.0
 11
-231.0762664252
 21
-226.47194090799999
 31
0.0
 12
-231.0762664252
 22
-222.72194090799999
 32
0.0
 13
-229.20116283230001
 23
-224.59694090799999
 33
0.0
  0
LINE
  5
339
  8
0
 62
     0
 10
-250.32603434539999
 20
-224.59694090799999
 30
0.0
 11
-245.32603434539999
 21
-224.59694090799999
 31
0.0
  0
SOLID
  5
33A
  8
0
 62
     0
 10
-250.32603434539999
 20
-224.59694090799999
 30
0.0
 11
-242.82561997389999
 21
-222.72194090799999
 31
0.0
 12
-242.82561997389999
 22
-226.47194090799999
 32
0.0
 13
-244.70072356680001
 23
-224.59694090799999
 33
0.0
  0
ENDBLK
  5
33B
  8
0
  0
BLOCK
  8
0
  2
*D80
 70
     1
 10
0.0
 20
0.0
 30
0.0
  3
*D80
  1

  0
TEXT
  5
33F
  8
0
 62
     0
 10
-127.53106045059999
 20
-169.0226098508
 30
0.0
 40
8.2461809158000001
  1
7
 50
90.0
  0
LINE
  5
340
  8
0
 62
     0
 10
-139.0758520537
 20
-170.0972625226
 30
0.0
 11
-124.0758520537
 21
-170.0972625226
 31
0.0
  0
LINE
  5
341
  8
0
 62
     0
 10
-139.0758520537
 20
-163.0972625226
 30
0.0
 11
-124.0758520537
 21
-163.0972625226
 31
0.0
  0
LINE
  5
342
  8
0
 62
     0
 10
-125.0758520537
 20
-170.0972625226
 30
0.0
 11
-125.0758520537
 21
-170.0972625226
 31
0.0
  0
LINE
  5
343
  8
0
 62
     0
 10
-125.0758520537
 20
-170.0972625226
 30
0.0
 11
-125.0758520537
 21
-163.0972625226
 31
0.0
  0
LINE
  5
344
  8
0
 62
     0
 10
-125.0758520537
 20
-163.0972625226
 30
0.0
 11
-125.0758520537
 21
-170.0972625226
 31
0.0
  0
LINE
  5
345
  8
0
 62
     0
 10
-125.0758520537
 20
-163.0972625226
 30
0.0
 11
-125.0758520537
 21
-163.0972625226
 31
0.0
  0
LINE
  5
346
  8
0
 62
     0
 10
-125.0758520537
 20
-163.0972625226
 30
0.0
 11
-125.0758520537
 21
-158.0972625226
 31
0.0
  0
SOLID
  5
347
  8
0
 62
     0
 10
-125.0758520537
 20
-163.0972625226
 30
0.0
 11
-126.9508520537
 21
-155.5968481511
 31
0.0
 12
-123.2008520537
 22
-155.5968481511
 32
0.0
 13
-125.0758520537
 23
-157.47195174390001
 33
0.0
  0
LINE
  5
348
  8
0
 62
     0
 10
-125.0758520537
 20
-170.0972625226
 30
0.0
 11
-125.0758520537
 21
-175.0972625226
 31
0.0
  0
SOLID
  5
349
  8
0
 62
     0
 10
-125.0758520537
 20
-170.0972625226
 30
0.0
 11
-123.2008520537
 21
-177.5976768941
 31
0.0
 12
-126.9508520537
 22
-177.5976768941
 32
0.0
 13
-125.0758520537
 23
-175.72257330119999
 33
0.0
  0
ENDBLK
  5
34A
  8
0
  0
BLOCK
  8
0
  2
*D81
 70
     1
 10
0.0
 20
0.0
 30
0.0
  3
*D81
  1

  0
TEXT
  5
34E
  8
0
 62
     0
 10
-115.9265467101
 20
-222.1417336911
 30
0.0
 40
8.2461809158000001
  1
75
  0
LINE
  5
34F
  8
0
 62
     0
 10
-148.5758520537
 20
-187.09726252259989
 30
0.0
 11
-148.5758520537
 21
-225.59694208799999
 31
0.0
  0
LINE
  5
350
  8
0
 62
     0
 10
-73.575852053700004
 20
-187.09726252259989
 30
0.0
 11
-73.575852053700004
 21
-225.59694208799999
 31
0.0
  0
LINE
  5
351
  8
0
 62
     0
 10
-148.5758520537
 20
-224.59694208799999
 30
0.0
 11
-101.374462741
 21
-224.59694208799999
 31
0.0
  0
LINE
  5
352
  8
0
 62
     0
 10
-148.5758520537
 20
-224.59694208799999
 30
0.0
 11
-120.77724136649999
 21
-224.59694208799999
 31
0.0
  0
LINE
  5
353
  8
0
 62
     0
 10
-73.575852053700004
 20
-224.59694208799999
 30
0.0
 11
-101.374462741
 21
-224.59694208799999
 31
0.0
  0
LINE
  5
354
  8
0
 62
     0
 10
-73.575852053700004
 20
-224.59694208799999
 30
0.0
 11
-120.77724136649999
 21
-224.59694208799999
 31
0.0
  0
LINE
  5
355
  8
0
 62
     0
 10
-73.575852053700004
 20
-224.59694208799999
 30
0.0
 11
-78.575852053700004
 21
-224.59694208799999
 31
0.0
  0
SOLID
  5
356
  8
0
 62
     0
 10
-73.575852053700004
 20
-224.59694208799999
 30
0.0
 11
-81.076266425200004
 21
-226.47194208799999
 31
0.0
 12
-81.076266425200004
 22
-222.72194208799999
 32
0.0
 13
-79.2011628323
 23
-224.59694208799999
 33
0.0
  0
LINE
  5
357
  8
0
 62
     0
 10
-148.5758520537
 20
-224.59694208799999
 30
0.0
 11
-143.5758520537
 21
-224.59694208799999
 31
0.0
  0
SOLID
  5
358
  8
0
 62
     0
 10
-148.5758520537
 20
-224.59694208799999
 30
0.0
 11
-141.0754376822
 21
-222.72194208799999
 31
0.0
 12
-141.0754376822
 22
-226.47194208799999
 32
0.0
 13
-142.95054127509999
 23
-224.59694208799999
 33
0.0
  0
ENDBLK
  5
359
  8
0
  0
BLOCK
  8
0
  2
CLUMP54
 70
     0
 10
0.0
 20
0.0
 30
0.0
  3
CLUMP54
  1

  0
INSERT
  5
360
  8
┌▓È_1
  2
CLUMP55
 10
0.0
 20
0.0
 30
0.0
  0
INSERT
  5
374
  8
┌▓È_1
  2
CLUMP58
 10
0.0
 20
0.0
 30
0.0
  0
ENDBLK
  5
387
  8
0
  0
BLOCK
  8
0
  2
CLUMP55
 70
     0
 10
0.0
 20
0.0
 30
0.0
  3
CLUMP55
  1

  0
INSERT
  5
363
  8
┌▓È_1
  2
CLUMP56
 10
0.0
 20
0.0
 30
0.0
  0
INSERT
  5
36B
  8
┌▓È_1
  2
CLUMP57
 10
0.0
 20
0.0
 30
0.0
  0
ENDBLK
  5
372
  8
0
  0
BLOCK
  8
0
  2
CLUMP56
 70
     0
 10
0.0
 20
0.0
 30
0.0
  3
CLUMP56
  1

  0
ARC
  5
365
  8
┌▓È_1
 10
-119.02173412170001
 20
103.90414506800001
 30
0.0
 40
3.5
 50
90.0
 51
270.0
  0
LINE
  5
366
  8
┌▓È_1
 10
-104.02173412170001
 20
100.40414506800001
 30
0.0
 11
-119.02173412170001
 21
100.40414506800001
 31
0.0
  0
ARC
  5
367
  8
┌▓È_1
 10
-104.02173412170001
 20
103.90414506800001
 30
0.0
 40
3.5
 50
270.0
 51
90.0
  0
LINE
  5
368
  8
┌▓È_1
 10
-119.02173412170001
 20
107.40414506800001
 30
0.0
 11
-104.02173412170001
 21
107.40414506800001
 31
0.0
  0
ENDBLK
  5
369
  8
0
  0
BLOCK
  8
0
  2
CLUMP57
 70
     0
 10
0.0
 20
0.0
 30
0.0
  3
CLUMP57
  1

  0
ARC
  5
36D
  8
┌▓È_1
 10
-119.02173412170001
 20
118.90414506800001
 30
0.0
 40
3.5
 50
90.0
 51
270.0
  0
LINE
  5
36E
  8
┌▓È_1
 10
-104.02173412170001
 20
115.40414506800001
 30
0.0
 11
-119.02173412170001
 21
115.40414506800001
 31
0.0
  0
LINE
  5
36F
  8
┌▓È_1
 10
-119.02173412170001
 20
122.40414506800001
 30
0.0
 11
-104.02173412170001
 21
122.40414506800001
 31
0.0
  0
ARC
  5
370
  8
┌▓È_1
 10
-104.02173412170001
 20
118.90414506800001
 30
0.0
 40
3.5
 50
270.0
 51
90.0
  0
ENDBLK
  5
371
  8
0
  0
BLOCK
  8
0
  2
CLUMP58
 70
     0
 10
0.0
 20
0.0
 30
0.0
  3
CLUMP58
  1

  0
INSERT
  5
377
  8
┌▓È_1
  2
CLUMP59
 10
0.0
 20
0.0
 30
0.0
  0
INSERT
  5
37F
  8
┌▓È_1
  2
CLUMP60
 10
0.0
 20
0.0
 30
0.0
  0
ENDBLK
  5
386
  8
0
  0
BLOCK
  8
0
  2
CLUMP59
 70
     0
 10
0.0
 20
0.0
 30
0.0
  3
CLUMP59
  1

  0
ARC
  5
379
  8
┌▓È_1
 10
-119.02173412170001
 20
181.90414506799999
 30
0.0
 40
3.5
 50
90.0
 51
270.0
  0
LINE
  5
37A
  8
┌▓È_1
 10
-104.02173412170001
 20
185.40414506799999
 30
0.0
 11
-119.02173412170001
 21
185.40414506799999
 31
0.0
  0
LINE
  5
37B
  8
┌▓È_1
 10
-119.02173412170001
 20
178.40414506799999
 30
0.0
 11
-104.02173412170001
 21
178.40414506799999
 31
0.0
  0
ARC
  5
37C
  8
┌▓È_1
 10
-104.02173412170001
 20
181.90414506799999
 30
0.0
 40
3.5
 50
270.0
 51
90.0
  0
ENDBLK
  5
37D
  8
0
  0
BLOCK
  8
0
  2
CLUMP60
 70
     0
 10
0.0
 20
0.0
 30
0.0
  3
CLUMP60
  1

  0
ARC
  5
381
  8
┌▓È_1
 10
-119.02173412170001
 20
196.90414506799999
 30
0.0
 40
3.5
 50
90.0
 51
270.0
  0
LINE
  5
382
  8
┌▓È_1
 10
-104.02173412170001
 20
200.40414506799999
 30
0.0
 11
-119.02173412170001
 21
200.40414506799999
 31
0.0
  0
LINE
  5
383
  8
┌▓È_1
 10
-119.02173412170001
 20
193.40414506799999
 30
0.0
 11
-104.02173412170001
 21
193.40414506799999
 31
0.0
  0
ARC
  5
384
  8
┌▓È_1
 10
-104.02173412170001
 20
196.90414506799999
 30
0.0
 40
3.5
 50
270.0
 51
90.0
  0
ENDBLK
  5
385
  8
0
  0
BLOCK
  8
0
  2
CLUMP61
 70
     0
 10
0.0
 20
0.0
 30
0.0
  3
CLUMP61
  1

  0
INSERT
  5
38C
  8
┌▓È_1
  2
CLUMP62
 10
0.0
 20
0.0
 30
0.0
  0
INSERT
  5
3A0
  8
┌▓È_1
  2
CLUMP65
 10
0.0
 20
0.0
 30
0.0
  0
ENDBLK
  5
3B3
  8
0
  0
BLOCK
  8
0
  2
CLUMP62
 70
     0
 10
0.0
 20
0.0
 30
0.0
  3
CLUMP62
  1

  0
INSERT
  5
38F
  8
┌▓È_1
  2
CLUMP63
 10
0.0
 20
0.0
 30
0.0
  0
INSERT
  5
397
  8
┌▓È_1
  2
CLUMP64
 10
0.0
 20
0.0
 30
0.0
  0
ENDBLK
  5
39E
  8
0
  0
BLOCK
  8
0
  2
CLUMP63
 70
     0
 10
0.0
 20
0.0
 30
0.0
  3
CLUMP63
  1

  0
ARC
  5
391
  8
┌▓È_1
 10
-44.021734121699993
 20
103.90414506800001
 30
0.0
 40
3.5
 50
90.0
 51
270.0
  0
LINE
  5
392
  8
┌▓È_1
 10
-29.0217341217
 20
100.40414506800001
 30
0.0
 11
-44.021734121699993
 21
100.40414506800001
 31
0.0
  0
ARC
  5
393
  8
┌▓È_1
 10
-29.0217341217
 20
103.90414506800001
 30
0.0
 40
3.5
 50
270.0
 51
90.0
  0
LINE
  5
394
  8
┌▓È_1
 10
-44.021734121699993
 20
107.40414506800001
 30
0.0
 11
-29.0217341217
 21
107.40414506800001
 31
0.0
  0
ENDBLK
  5
395
  8
0
  0
BLOCK
  8
0
  2
CLUMP64
 70
     0
 10
0.0
 20
0.0
 30
0.0
  3
CLUMP64
  1

  0
ARC
  5
399
  8
┌▓È_1
 10
-44.021734121699993
 20
118.90414506800001
 30
0.0
 40
3.5
 50
90.0
 51
270.0
  0
LINE
  5
39A
  8
┌▓È_1
 10
-29.0217341217
 20
115.40414506800001
 30
0.0
 11
-44.021734121699993
 21
115.40414506800001
 31
0.0
  0
LINE
  5
39B
  8
┌▓È_1
 10
-44.021734121699993
 20
122.40414506800001
 30
0.0
 11
-29.0217341217
 21
122.40414506800001
 31
0.0
  0
ARC
  5
39C
  8
┌▓È_1
 10
-29.0217341217
 20
118.90414506800001
 30
0.0
 40
3.5
 50
270.0
 51
90.0
  0
ENDBLK
  5
39D
  8
0
  0
BLOCK
  8
0
  2
CLUMP65
 70
     0
 10
0.0
 20
0.0
 30
0.0
  3
CLUMP65
  1

  0
INSERT
  5
3A3
  8
┌▓È_1
  2
CLUMP66
 10
0.0
 20
0.0
 30
0.0
  0
INSERT
  5
3AB
  8
┌▓È_1
  2
CLUMP67
 10
0.0
 20
0.0
 30
0.0
  0
ENDBLK
  5
3B2
  8
0
  0
BLOCK
  8
0
  2
CLUMP66
 70
     0
 10
0.0
 20
0.0
 30
0.0
  3
CLUMP66
  1

  0
ARC
  5
3A5
  8
┌▓È_1
 10
-44.021734121699993
 20
181.90414506799999
 30
0.0
 40
3.5
 50
90.0
 51
270.0
  0
LINE
  5
3A6
  8
┌▓È_1
 10
-29.0217341217
 20
185.40414506799999
 30
0.0
 11
-44.021734121699993
 21
185.40414506799999
 31
0.0
  0
LINE
  5
3A7
  8
┌▓È_1
 10
-44.021734121699993
 20
178.40414506799999
 30
0.0
 11
-29.0217341217
 21
178.40414506799999
 31
0.0
  0
ARC
  5
3A8
  8
┌▓È_1
 10
-29.0217341217
 20
181.90414506799999
 30
0.0
 40
3.5
 50
270.0
 51
90.0
  0
ENDBLK
  5
3A9
  8
0
  0
BLOCK
  8
0
  2
CLUMP67
 70
     0
 10
0.0
 20
0.0
 30
0.0
  3
CLUMP67
  1

  0
ARC
  5
3AD
  8
┌▓È_1
 10
-44.021734121699993
 20
196.90414506799999
 30
0.0
 40
3.5
 50
90.0
 51
270.0
  0
LINE
  5
3AE
  8
┌▓È_1
 10
-29.0217341217
 20
200.40414506799999
 30
0.0
 11
-44.021734121699993
 21
200.40414506799999
 31
0.0
  0
LINE
  5
3AF
  8
┌▓È_1
 10
-44.021734121699993
 20
193.40414506799999
 30
0.0
 11
-29.0217341217
 21
193.40414506799999
 31
0.0
  0
ARC
  5
3B0
  8
┌▓È_1
 10
-29.0217341217
 20
196.90414506799999
 30
0.0
 40
3.5
 50
270.0
 51
90.0
  0
ENDBLK
  5
3B1
  8
0
  0
BLOCK
  8
0
  2
CLUMP68
 70
     0
 10
0.0
 20
0.0
 30
0.0
  3
CLUMP68
  1

  0
ARC
  5
3B8
  8
┌▓È_1
 10
-81.521734121700007
 20
150.40414506799999
 30
0.0
 40
3.5
 50
90.0
 51
270.0
  0
LINE
  5
3B9
  8
┌▓È_1
 10
-66.521734121700007
 20
153.90414506799999
 30
0.0
 11
-81.521734121700007
 21
153.90414506799999
 31
0.0
  0
LINE
  5
3BA
  8
┌▓È_1
 10
-81.521734121700007
 20
146.90414506799999
 30
0.0
 11
-66.521734121700007
 21
146.90414506799999
 31
0.0
  0
ARC
  5
3BB
  8
┌▓È_1
 10
-66.521734121700007
 20
150.40414506799999
 30
0.0
 40
3.5
 50
270.0
 51
90.0
  0
ENDBLK
  5
3BC
  8
0
  0
BLOCK
  8
0
  2
CLUMP69
 70
     0
 10
0.0
 20
0.0
 30
0.0
  3
CLUMP69
  1

  0
ARC
  5
3C3
  8
┌▓È_1
 10
-156.52173412170001
 20
150.40414506799999
 30
0.0
 40
3.5
 50
90.0
 51
270.0
  0
LINE
  5
3C4
  8
┌▓È_1
 10
-141.52173412170001
 20
153.90414506799999
 30
0.0
 11
-156.52173412170001
 21
153.90414506799999
 31
0.0
  0
LINE
  5
3C5
  8
┌▓È_1
 10
-156.52173412170001
 20
146.90414506799999
 30
0.0
 11
-141.52173412170001
 21
146.90414506799999
 31
0.0
  0
ARC
  5
3C6
  8
┌▓È_1
 10
-141.52173412170001
 20
150.40414506799999
 30
0.0
 40
3.5
 50
270.0
 51
90.0
  0
ENDBLK
  5
3C7
  8
0
  0
BLOCK
  8
0
  2
CLUMP70
 70
     0
 10
0.0
 20
0.0
 30
0.0
  3
CLUMP70
  1

  0
LINE
  5
3D7
  8
É}ÿg
 10
420.98918002570002
 20
-268.52734713199999
 30
0.0
 11
420.98918002570002
 21
-256.02734713199999
 31
0.0
  0
LINE
  5
3D8
  8
É}ÿg
 10
273.48918002570002
 20
-268.52734713199999
 30
0.0
 11
273.48918002570002
 21
-256.02734713199999
 31
0.0
  0
LINE
  5
3D9
  8
É}ÿg
 10
295.98918002570002
 20
-268.52734713199999
 30
0.0
 11
295.98918002570002
 21
-256.02734713199999
 31
0.0
  0
LINE
  5
3DA
  8
É}ÿg
 10
558.48918002569997
 20
-268.52734713199999
 30
0.0
 11
558.48918002569997
 21
-256.02734713199999
 31
0.0
  0
LINE
  5
3DB
  8
É}ÿg
 10
535.98918002569985
 20
-268.52734713199999
 30
0.0
 11
535.98918002569985
 21
-256.02734713199999
 31
0.0
  0
LINE
  5
3DC
  8
É}ÿg
 10
635.98918002569985
 20
-256.02734713199999
 30
0.0
 11
273.48918002570002
 21
-256.02734713199999
 31
0.0
  0
ENDBLK
  5
3DD
  8
0
  0
BLOCK
  8
0
  2
CLUMP71
 70
     0
 10
0.0
 20
0.0
 30
0.0
  3
CLUMP71
  1

  0
LINE
  5
3E1
  8
É}ÿg
 10
420.98918002570002
 20
-256.02734713199999
 30
0.0
 11
420.98918002570002
 21
-243.52734713199999
 31
0.0
  0
LINE
  5
3E2
  8
É}ÿg
 10
273.48918002570002
 20
-256.02734713199999
 30
0.0
 11
273.48918002570002
 21
-243.52734713199999
 31
0.0
  0
LINE
  5
3E3
  8
É}ÿg
 10
295.98918002570002
 20
-256.02734713199999
 30
0.0
 11
295.98918002570002
 21
-243.52734713199999
 31
0.0
  0
LINE
  5
3E4
  8
É}ÿg
 10
558.48918002569997
 20
-256.02734713199999
 30
0.0
 11
558.48918002569997
 21
-243.52734713199999
 31
0.0
  0
LINE
  5
3E5
  8
É}ÿg
 10
535.98918002569985
 20
-256.02734713199999
 30
0.0
 11
535.98918002569985
 21
-243.52734713199999
 31
0.0
  0
LINE
  5
3E6
  8
É}ÿg
 10
635.98918002569985
 20
-243.52734713199999
 30
0.0
 11
273.48918002570002
 21
-243.52734713199999
 31
0.0
  0
ENDBLK
  5
3E7
  8
0
  0
BLOCK
  8
0
  2
*D100
 70
     1
 10
0.0
 20
0.0
 30
0.0
  3
*D100
  1

  0
TEXT
  5
3ED
  8
0
 62
     0
 10
243.70316746669999
 20
4.2555464130000002
 30
0.0
 40
8.2461809158000001
  1
6
 50
90.0
  0
LINE
  5
3EE
  8
0
 62
     0
 10
226.1780627533
 20
3.6808937411999998
 30
0.0
 11
247.15837586360001
 21
3.6808937411999998
 31
0.0
  0
LINE
  5
3EF
  8
0
 62
     0
 10
226.97806275330001
 20
9.6808937412000002
 30
0.0
 11
247.15837586360001
 21
9.6808937412000002
 31
0.0
  0
LINE
  5
3F0
  8
0
 62
     0
 10
246.15837586360001
 20
3.6808937411999998
 30
0.0
 11
246.15837586360001
 21
3.6808937411999998
 31
0.0
  0
LINE
  5
3F1
  8
0
 62
     0
 10
246.15837586360001
 20
3.6808937411999998
 30
0.0
 11
246.15837586360001
 21
9.6808937412000002
 31
0.0
  0
LINE
  5
3F2
  8
0
 62
     0
 10
246.15837586360001
 20
9.6808937412000002
 30
0.0
 11
246.15837586360001
 21
3.6808937411999998
 31
0.0
  0
LINE
  5
3F3
  8
0
 62
     0
 10
246.15837586360001
 20
9.6808937412000002
 30
0.0
 11
246.15837586360001
 21
9.6808937412000002
 31
0.0
  0
LINE
  5
3F4
  8
0
 62
     0
 10
246.15837586360001
 20
9.6808937412000002
 30
0.0
 11
246.15837586360001
 21
14.6808937412
 31
0.0
  0
SOLID
  5
3F5
  8
0
 62
     0
 10
246.15837586360001
 20
9.6808937412000002
 30
0.0
 11
244.28337586360001
 21
17.181308112699998
 31
0.0
 12
248.03337586360001
 22
17.181308112699998
 32
0.0
 13
246.15837586360001
 23
15.3062045198
 33
0.0
  0
LINE
  5
3F6
  8
0
 62
     0
 10
246.15837586360001
 20
3.6808937411999998
 30
0.0
 11
246.15837586360001
 21
-1.3191062587999991
 31
0.0
  0
SOLID
  5
3F7
  8
0
 62
     0
 10
246.15837586360001
 20
3.6808937411999998
 30
0.0
 11
248.03337586360001
 21
-3.8195206302999991
 31
0.0
 12
244.28337586360001
 22
-3.8195206302999991
 32
0.0
 13
246.15837586360001
 23
-1.9444170374
 33
0.0
  0
ENDBLK
  5
3F8
  8
0
  0
BLOCK
  8
0
  2
CLUMP72
 70
     0
 10
0.0
 20
0.0
 30
0.0
  3
CLUMP72
  1

  0
ARC
  5
3FE
  8
┌▓È_1
 10
-43.57585205369999
 20
-135.0972625226
 30
0.0
 40
3.5
 50
90.0
 51
270.0
  0
LINE
  5
3FF
  8
┌▓È_1
 10
-28.5758520537
 20
-131.5972625226
 30
0.0
 11
-43.57585205369999
 21
-131.5972625226
 31
0.0
  0
LINE
  5
400
  8
┌▓È_1
 10
-43.57585205369999
 20
-138.5972625226
 30
0.0
 11
-28.5758520537
 21
-138.5972625226
 31
0.0
  0
ARC
  5
401
  8
┌▓È_1
 10
-28.5758520537
 20
-135.0972625226
 30
0.0
 40
3.5
 50
270.0
 51
90.0
  0
ENDBLK
  5
402
  8
0
  0
BLOCK
  8
0
  2
CLUMP73
 70
     0
 10
0.0
 20
0.0
 30
0.0
  3
CLUMP73
  1

  0
ARC
  5
406
  8
┌▓È_1
 10
-118.5758520537
 20
-135.0972625226
 30
0.0
 40
3.5
 50
90.0
 51
270.0
  0
LINE
  5
407
  8
┌▓È_1
 10
-103.5758520537
 20
-131.5972625226
 30
0.0
 11
-118.5758520537
 21
-131.5972625226
 31
0.0
  0
LINE
  5
408
  8
┌▓È_1
 10
-118.5758520537
 20
-138.5972625226
 30
0.0
 11
-103.5758520537
 21
-138.5972625226
 31
0.0
  0
ARC
  5
409
  8
┌▓È_1
 10
-103.5758520537
 20
-135.0972625226
 30
0.0
 40
3.5
 50
270.0
 51
90.0
  0
ENDBLK
  5
40A
  8
0
  0
BLOCK
  8
0
  2
CLUMP74
 70
     0
 10
0.0
 20
0.0
 30
0.0
  3
CLUMP74
  1

  0
INSERT
  5
40F
  8
┌▓È_1
  2
CLUMP75
 10
0.0
 20
0.0
 30
0.0
  0
INSERT
  5
423
  8
┌▓È_1
  2
CLUMP78
 10
0.0
 20
0.0
 30
0.0
  0
ENDBLK
  5
436
  8
0
  0
BLOCK
  8
0
  2
CLUMP75
 70
     0
 10
0.0
 20
0.0
 30
0.0
  3
CLUMP75
  1

  0
INSERT
  5
412
  8
┌▓È_1
  2
CLUMP76
 10
0.0
 20
0.0
 30
0.0
  0
INSERT
  5
41A
  8
┌▓È_1
  2
CLUMP77
 10
0.0
 20
0.0
 30
0.0
  0
ENDBLK
  5
421
  8
0
  0
BLOCK
  8
0
  2
CLUMP76
 70
     0
 10
0.0
 20
0.0
 30
0.0
  3
CLUMP76
  1

  0
ARC
  5
414
  8
┌▓È_1
 10
-156.0758520537
 20
-181.5972625226
 30
0.0
 40
3.5
 50
90.0
 51
270.0
  0
LINE
  5
415
  8
┌▓È_1
 10
-141.0758520537
 20
-185.09726252259989
 30
0.0
 11
-156.0758520537
 21
-185.09726252259989
 31
0.0
  0
ARC
  5
416
  8
┌▓È_1
 10
-141.0758520537
 20
-181.5972625226
 30
0.0
 40
3.5
 50
270.0
 51
90.0
  0
LINE
  5
417
  8
┌▓È_1
 10
-156.0758520537
 20
-178.0972625226
 30
0.0
 11
-141.0758520537
 21
-178.0972625226
 31
0.0
  0
ENDBLK
  5
418
  8
0
  0
BLOCK
  8
0
  2
CLUMP77
 70
     0
 10
0.0
 20
0.0
 30
0.0
  3
CLUMP77
  1

  0
ARC
  5
41C
  8
┌▓È_1
 10
-156.0758520537
 20
-166.5972625226
 30
0.0
 40
3.5
 50
90.0
 51
270.0
  0
LINE
  5
41D
  8
┌▓È_1
 10
-141.0758520537
 20
-170.0972625226
 30
0.0
 11
-156.0758520537
 21
-170.0972625226
 31
0.0
  0
LINE
  5
41E
  8
┌▓È_1
 10
-156.0758520537
 20
-163.0972625226
 30
0.0
 11
-141.0758520537
 21
-163.0972625226
 31
0.0
  0
ARC
  5
41F
  8
┌▓È_1
 10
-141.0758520537
 20
-166.5972625226
 30
0.0
 40
3.5
 50
270.0
 51
90.0
  0
ENDBLK
  5
420
  8
0
  0
BLOCK
  8
0
  2
CLUMP78
 70
     0
 10
0.0
 20
0.0
 30
0.0
  3
CLUMP78
  1

  0
INSERT
  5
426
  8
┌▓È_1
  2
CLUMP79
 10
0.0
 20
0.0
 30
0.0
  0
INSERT
  5
42E
  8
┌▓È_1
  2
CLUMP80
 10
0.0
 20
0.0
 30
0.0
  0
ENDBLK
  5
435
  8
0
  0
BLOCK
  8
0
  2
CLUMP79
 70
     0
 10
0.0
 20
0.0
 30
0.0
  3
CLUMP79
  1

  0
ARC
  5
428
  8
┌▓È_1
 10
-156.0758520537
 20
-103.5972625226
 30
0.0
 40
3.5
 50
90.0
 51
270.0
  0
LINE
  5
429
  8
┌▓È_1
 10
-141.0758520537
 20
-100.0972625226
 30
0.0
 11
-156.0758520537
 21
-100.0972625226
 31
0.0
  0
LINE
  5
42A
  8
┌▓È_1
 10
-156.0758520537
 20
-107.0972625226
 30
0.0
 11
-141.0758520537
 21
-107.0972625226
 31
0.0
  0
ARC
  5
42B
  8
┌▓È_1
 10
-141.0758520537
 20
-103.5972625226
 30
0.0
 40
3.5
 50
270.0
 51
90.0
  0
ENDBLK
  5
42C
  8
0
  0
BLOCK
  8
0
  2
CLUMP80
 70
     0
 10
0.0
 20
0.0
 30
0.0
  3
CLUMP80
  1

  0
ARC
  5
430
  8
┌▓È_1
 10
-156.0758520537
 20
-88.597262522600005
 30
0.0
 40
3.5
 50
90.0
 51
270.0
  0
LINE
  5
431
  8
┌▓È_1
 10
-141.0758520537
 20
-85.097262522600005
 30
0.0
 11
-156.0758520537
 21
-85.097262522600005
 31
0.0
  0
LINE
  5
432
  8
┌▓È_1
 10
-156.0758520537
 20
-92.097262522600005
 30
0.0
 11
-141.0758520537
 21
-92.097262522600005
 31
0.0
  0
ARC
  5
433
  8
┌▓È_1
 10
-141.0758520537
 20
-88.597262522600005
 30
0.0
 40
3.5
 50
270.0
 51
90.0
  0
ENDBLK
  5
434
  8
0
  0
BLOCK
  8
0
  2
CLUMP81
 70
     0
 10
0.0
 20
0.0
 30
0.0
  3
CLUMP81
  1

  0
INSERT
  5
43B
  8
┌▓È_1
  2
CLUMP82
 10
0.0
 20
0.0
 30
0.0
  0
INSERT
  5
44F
  8
┌▓È_1
  2
CLUMP85
 10
0.0
 20
0.0
 30
0.0
  0
ENDBLK
  5
462
  8
0
  0
BLOCK
  8
0
  2
CLUMP82
 70
     0
 10
0.0
 20
0.0
 30
0.0
  3
CLUMP82
  1

  0
INSERT
  5
43E
  8
┌▓È_1
  2
CLUMP83
 10
0.0
 20
0.0
 30
0.0
  0
INSERT
  5
446
  8
┌▓È_1
  2
CLUMP84
 10
0.0
 20
0.0
 30
0.0
  0
ENDBLK
  5
44D
  8
0
  0
BLOCK
  8
0
  2
CLUMP83
 70
     0
 10
0.0
 20
0.0
 30
0.0
  3
CLUMP83
  1

  0
ARC
  5
440
  8
┌▓È_1
 10
-81.075852053700004
 20
-181.5972625226
 30
0.0
 40
3.5
 50
90.0
 51
270.0
  0
LINE
  5
441
  8
┌▓È_1
 10
-66.075852053700004
 20
-185.09726252259989
 30
0.0
 11
-81.075852053700004
 21
-185.09726252259989
 31
0.0
  0
ARC
  5
442
  8
┌▓È_1
 10
-66.075852053700004
 20
-181.5972625226
 30
0.0
 40
3.5
 50
270.0
 51
90.0
  0
LINE
  5
443
  8
┌▓È_1
 10
-81.075852053700004
 20
-178.0972625226
 30
0.0
 11
-66.075852053700004
 21
-178.0972625226
 31
0.0
  0
ENDBLK
  5
444
  8
0
  0
BLOCK
  8
0
  2
CLUMP84
 70
     0
 10
0.0
 20
0.0
 30
0.0
  3
CLUMP84
  1

  0
ARC
  5
448
  8
┌▓È_1
 10
-81.075852053700004
 20
-166.5972625226
 30
0.0
 40
3.5
 50
90.0
 51
270.0
  0
LINE
  5
449
  8
┌▓È_1
 10
-66.075852053700004
 20
-170.0972625226
 30
0.0
 11
-81.075852053700004
 21
-170.0972625226
 31
0.0
  0
LINE
  5
44A
  8
┌▓È_1
 10
-81.075852053700004
 20
-163.0972625226
 30
0.0
 11
-66.075852053700004
 21
-163.0972625226
 31
0.0
  0
ARC
  5
44B
  8
┌▓È_1
 10
-66.075852053700004
 20
-166.5972625226
 30
0.0
 40
3.5
 50
270.0
 51
90.0
  0
ENDBLK
  5
44C
  8
0
  0
BLOCK
  8
0
  2
CLUMP85
 70
     0
 10
0.0
 20
0.0
 30
0.0
  3
CLUMP85
  1

  0
INSERT
  5
452
  8
┌▓È_1
  2
CLUMP86
 10
0.0
 20
0.0
 30
0.0
  0
INSERT
  5
45A
  8
┌▓È_1
  2
CLUMP87
 10
0.0
 20
0.0
 30
0.0
  0
ENDBLK
  5
461
  8
0
  0
BLOCK
  8
0
  2
CLUMP86
 70
     0
 10
0.0
 20
0.0
 30
0.0
  3
CLUMP86
  1

  0
ARC
  5
454
  8
┌▓È_1
 10
-81.075852053700004
 20
-103.5972625226
 30
0.0
 40
3.5
 50
90.0
 51
270.0
  0
LINE
  5
455
  8
┌▓È_1
 10
-66.075852053700004
 20
-100.0972625226
 30
0.0
 11
-81.075852053700004
 21
-100.0972625226
 31
0.0
  0
LINE
  5
456
  8
┌▓È_1
 10
-81.075852053700004
 20
-107.0972625226
 30
0.0
 11
-66.075852053700004
 21
-107.0972625226
 31
0.0
  0
ARC
  5
457
  8
┌▓È_1
 10
-66.075852053700004
 20
-103.5972625226
 30
0.0
 40
3.5
 50
270.0
 51
90.0
  0
ENDBLK
  5
458
  8
0
  0
BLOCK
  8
0
  2
CLUMP87
 70
     0
 10
0.0
 20
0.0
 30
0.0
  3
CLUMP87
  1

  0
ARC
  5
45C
  8
┌▓È_1
 10
-81.075852053700004
 20
-88.597262522600005
 30
0.0
 40
3.5
 50
90.0
 51
270.0
  0
LINE
  5
45D
  8
┌▓È_1
 10
-66.075852053700004
 20
-85.097262522600005
 30
0.0
 11
-81.075852053700004
 21
-85.097262522600005
 31
0.0
  0
LINE
  5
45E
  8
┌▓È_1
 10
-81.075852053700004
 20
-92.097262522600005
 30
0.0
 11
-66.075852053700004
 21
-92.097262522600005
 31
0.0
  0
ARC
  5
45F
  8
┌▓È_1
 10
-66.075852053700004
 20
-88.597262522600005
 30
0.0
 40
3.5
 50
270.0
 51
90.0
  0
ENDBLK
  5
460
  8
0
  0
BLOCK
  8
0
  2
*D117
 70
     1
 10
0.0
 20
0.0
 30
0.0
  3
*D117
  1

  0
TEXT
  5
46B
  8
0
 62
     0
 10
426.04960362269992
 20
255.7964585064
 30
0.0
 40
8.2461809158000001
  1
30
  0
LINE
  5
46C
  8
0
 62
     0
 10
445.90029827900003
 20
226.4043833492
 30
0.0
 11
445.90029827900003
 21
254.34125010950001
 31
0.0
  0
LINE
  5
46D
  8
0
 62
     0
 10
415.90029827900003
 20
217.4043833492
 30
0.0
 11
415.90029827900003
 21
254.34125010950001
 31
0.0
  0
LINE
  5
46E
  8
0
 62
     0
 10
445.90029827900003
 20
253.34125010950001
 30
0.0
 11
440.60168759179987
 21
253.34125010950001
 31
0.0
  0
LINE
  5
46F
  8
0
 62
     0
 10
445.90029827900003
 20
253.34125010950001
 30
0.0
 11
421.19890896629988
 21
253.34125010950001
 31
0.0
  0
LINE
  5
470
  8
0
 62
     0
 10
415.90029827900003
 20
253.34125010950001
 30
0.0
 11
440.60168759179987
 21
253.34125010950001
 31
0.0
  0
LINE
  5
471
  8
0
 62
     0
 10
415.90029827900003
 20
253.34125010950001
 30
0.0
 11
421.19890896629988
 21
253.34125010950001
 31
0.0
  0
LINE
  5
472
  8
0
 62
     0
 10
415.90029827900003
 20
253.34125010950001
 30
0.0
 11
410.90029827900003
 21
253.34125010950001
 31
0.0
  0
SOLID
  5
473
  8
0
 62
     0
 10
415.90029827900003
 20
253.34125010950001
 30
0.0
 11
408.39988390749988
 21
251.46625010950001
 31
0.0
 12
408.39988390749988
 22
255.21625010950001
 32
0.0
 13
410.27498750040002
 23
253.34125010950001
 33
0.0
  0
LINE
  5
474
  8
0
 62
     0
 10
445.90029827900003
 20
253.34125010950001
 30
0.0
 11
450.90029827900003
 21
253.34125010950001
 31
0.0
  0
SOLID
  5
475
  8
0
 62
     0
 10
445.90029827900003
 20
253.34125010950001
 30
0.0
 11
453.40071265050011
 21
255.21625010950001
 31
0.0
 12
453.40071265050011
 22
251.46625010950001
 32
0.0
 13
451.52560905770002
 23
253.34125010950001
 33
0.0
  0
ENDBLK
  5
476
  8
0
  0
BLOCK
  8
0
  2
*D118
 70
     1
 10
0.0
 20
0.0
 30
0.0
  3
*D118
  1

  0
TEXT
  5
47A
  8
0
 62
     0
 10
325.39532607730001
 20
-49.282522723100001
 30
0.0
 40
8.2461809158000001
  1
23
  0
LINE
  5
47B
  8
0
 62
     0
 10
341.74602073369999
 20
-68.597262522600005
 30
0.0
 11
341.74602073369999
 21
-50.737731119999999
 31
0.0
  0
LINE
  5
47C
  8
0
 62
     0
 10
318.74602073369999
 20
-70.597262522600005
 30
0.0
 11
318.74602073369999
 21
-50.737731119999999
 31
0.0
  0
LINE
  5
47D
  8
0
 62
     0
 10
341.74602073369999
 20
-51.737731119999999
 30
0.0
 11
339.94741004640002
 21
-51.737731119999999
 31
0.0
  0
LINE
  5
47E
  8
0
 62
     0
 10
341.74602073369999
 20
-51.737731119999999
 30
0.0
 11
320.54463142100002
 21
-51.737731119999999
 31
0.0
  0
LINE
  5
47F
  8
0
 62
     0
 10
318.74602073369999
 20
-51.737731119999999
 30
0.0
 11
339.94741004640002
 21
-51.737731119999999
 31
0.0
  0
LINE
  5
480
  8
0
 62
     0
 10
318.74602073369999
 20
-51.737731119999999
 30
0.0
 11
320.54463142100002
 21
-51.737731119999999
 31
0.0
  0
LINE
  5
481
  8
0
 62
     0
 10
318.74602073369999
 20
-51.737731119999999
 30
0.0
 11
313.74602073369999
 21
-51.737731119999999
 31
0.0
  0
SOLID
  5
482
  8
0
 62
     0
 10
318.74602073369999
 20
-51.737731119999999
 30
0.0
 11
311.24560636220002
 21
-53.612731119999999
 31
0.0
 12
311.24560636220002
 22
-49.862731119999999
 32
0.0
 13
313.12070995509998
 23
-51.737731119999999
 33
0.0
  0
LINE
  5
483
  8
0
 62
     0
 10
341.74602073369999
 20
-51.737731119999999
 30
0.0
 11
346.74602073369999
 21
-51.737731119999999
 31
0.0
  0
SOLID
  5
484
  8
0
 62
     0
 10
341.74602073369999
 20
-51.737731119999999
 30
0.0
 11
349.24643510520002
 21
-49.862731119999999
 31
0.0
 12
349.24643510520002
 22
-53.612731119999999
 32
0.0
 13
347.37133151230012
 23
-51.737731119999999
 33
0.0
  0
ENDBLK
  5
485
  8
0
  0
BLOCK
  8
0
  2
*D119
 70
     1
 10
0.0
 20
0.0
 30
0.0
  3
*D119
  1

  0
TEXT
  5
489
  8
0
 62
     0
 10
318.66710768019999
 20
268.19890282199998
 30
0.0
 40
8.2461809158000001
  1
30
  0
LINE
  5
48A
  8
0
 62
     0
 10
338.51780233660003
 20
225.60485470340001
 30
0.0
 11
338.51780233660003
 21
266.74369442509999
 31
0.0
  0
LINE
  5
48B
  8
0
 62
     0
 10
308.51780233660003
 20
225.60485470340001
 30
0.0
 11
308.51780233660003
 21
266.74369442509999
 31
0.0
  0
LINE
  5
48C
  8
0
 62
     0
 10
338.51780233660003
 20
265.74369442509999
 30
0.0
 11
333.21919164939999
 21
265.74369442509999
 31
0.0
  0
LINE
  5
48D
  8
0
 62
     0
 10
338.51780233660003
 20
265.74369442509999
 30
0.0
 11
313.8164130239
 21
265.74369442509999
 31
0.0
  0
LINE
  5
48E
  8
0
 62
     0
 10
308.51780233660003
 20
265.74369442509999
 30
0.0
 11
333.21919164939999
 21
265.74369442509999
 31
0.0
  0
LINE
  5
48F
  8
0
 62
     0
 10
308.51780233660003
 20
265.74369442509999
 30
0.0
 11
313.8164130239
 21
265.74369442509999
 31
0.0
  0
LINE
  5
490
  8
0
 62
     0
 10
308.51780233660003
 20
265.74369442509999
 30
0.0
 11
303.51780233660003
 21
265.74369442509999
 31
0.0
  0
SOLID
  5
491
  8
0
 62
     0
 10
308.51780233660003
 20
265.74369442509999
 30
0.0
 11
301.0173879651
 21
263.86869442509999
 31
0.0
 12
301.0173879651
 22
267.61869442509999
 32
0.0
 13
302.89249155800002
 23
265.74369442509999
 33
0.0
  0
LINE
  5
492
  8
0
 62
     0
 10
338.51780233660003
 20
265.74369442509999
 30
0.0
 11
343.51780233660003
 21
265.74369442509999
 31
0.0
  0
SOLID
  5
493
  8
0
 62
     0
 10
338.51780233660003
 20
265.74369442509999
 30
0.0
 11
346.0182167081
 21
267.61869442509999
 31
0.0
 12
346.0182167081
 22
263.86869442509999
 32
0.0
 13
344.14311311519998
 23
265.74369442509999
 33
0.0
  0
ENDBLK
  5
494
  8
0
  0
BLOCK
  8
0
  2
*D120
 70
     1
 10
0.0
 20
0.0
 30
0.0
  3
*D120
  1

  0
TEXT
  5
498
  8
0
 62
     0
 10
310.92663110180001
 20
255.62580940769999
 30
0.0
 40
8.2461809158000001
  1
15
  0
LINE
  5
499
  8
0
 62
     0
 10
323.51780233660003
 20
217.40485470339999
 30
0.0
 11
323.51780233660003
 21
254.1706010108
 31
0.0
  0
LINE
  5
49A
  8
0
 62
     0
 10
308.51780233660003
 20
225.60485470340001
 30
0.0
 11
308.51780233660003
 21
254.1706010108
 31
0.0
  0
LINE
  5
49B
  8
0
 62
     0
 10
323.51780233660003
 20
253.1706010108
 30
0.0
 11
323.51780233660003
 21
253.1706010108
 31
0.0
  0
LINE
  5
49C
  8
0
 62
     0
 10
323.51780233660003
 20
253.1706010108
 30
0.0
 11
308.51780233660003
 21
253.1706010108
 31
0.0
  0
LINE
  5
49D
  8
0
 62
     0
 10
308.51780233660003
 20
253.1706010108
 30
0.0
 11
323.51780233660003
 21
253.1706010108
 31
0.0
  0
LINE
  5
49E
  8
0
 62
     0
 10
308.51780233660003
 20
253.1706010108
 30
0.0
 11
308.51780233660003
 21
253.1706010108
 31
0.0
  0
LINE
  5
49F
  8
0
 62
     0
 10
308.51780233660003
 20
253.1706010108
 30
0.0
 11
303.51780233660003
 21
253.1706010108
 31
0.0
  0
SOLID
  5
4A0
  8
0
 62
     0
 10
308.51780233660003
 20
253.1706010108
 30
0.0
 11
301.0173879651
 21
251.2956010108
 31
0.0
 12
301.0173879651
 22
255.0456010108
 32
0.0
 13
302.89249155800002
 23
253.1706010108
 33
0.0
  0
LINE
  5
4A1
  8
0
 62
     0
 10
323.51780233660003
 20
253.1706010108
 30
0.0
 11
328.51780233660003
 21
253.1706010108
 31
0.0
  0
SOLID
  5
4A2
  8
0
 62
     0
 10
323.51780233660003
 20
253.1706010108
 30
0.0
 11
331.0182167081
 21
255.0456010108
 31
0.0
 12
331.0182167081
 22
251.2956010108
 32
0.0
 13
329.14311311519998
 23
253.1706010108
 33
0.0
  0
ENDBLK
  5
4A3
  8
0
  0
BLOCK
  8
0
  2
*D121
 70
     1
 10
0.0
 20
0.0
 30
0.0
  3
*D121
  1

  0
TEXT
  5
4A7
  8
0
 62
     0
 10
464.86000115230001
 20
143.12834136469999
 30
0.0
 40
8.2461809158000001
  1
120
 50
90.0
  0
LINE
  5
4A8
  8
0
 62
     0
 10
447.90029827899991
 20
90.404383349200003
 30
0.0
 11
468.31520954919989
 21
90.404383349200003
 31
0.0
  0
LINE
  5
4A9
  8
0
 62
     0
 10
447.90029827899991
 20
210.4043833492
 30
0.0
 11
468.31520954919989
 21
210.4043833492
 31
0.0
  0
LINE
  5
4AA
  8
0
 62
     0
 10
467.31520954920001
 20
90.404383349200003
 30
0.0
 11
467.31520954920001
 21
162.53111999020001
 31
0.0
  0
LINE
  5
4AB
  8
0
 62
     0
 10
467.31520954920001
 20
90.404383349200003
 30
0.0
 11
467.31520954920001
 21
138.27764670830001
 31
0.0
  0
LINE
  5
4AC
  8
0
 62
     0
 10
467.31520954920001
 20
210.4043833492
 30
0.0
 11
467.31520954920001
 21
162.53111999020001
 31
0.0
  0
LINE
  5
4AD
  8
0
 62
     0
 10
467.31520954920001
 20
210.4043833492
 30
0.0
 11
467.31520954920001
 21
138.27764670830001
 31
0.0
  0
LINE
  5
4AE
  8
0
 62
     0
 10
467.31520954920001
 20
210.4043833492
 30
0.0
 11
467.31520954920001
 21
205.4043833492
 31
0.0
  0
SOLID
  5
4AF
  8
0
 62
     0
 10
467.31520954920001
 20
210.4043833492
 30
0.0
 11
469.19020954919989
 21
202.90396897779999
 31
0.0
 12
465.44020954920001
 22
202.90396897779999
 32
0.0
 13
467.31520954920001
 23
204.77907257059999
 33
0.0
  0
LINE
  5
4B0
  8
0
 62
     0
 10
467.31520954920001
 20
90.404383349200003
 30
0.0
 11
467.31520954920001
 21
95.404383349200003
 31
0.0
  0
SOLID
  5
4B1
  8
0
 62
     0
 10
467.31520954920001
 20
90.404383349200003
 30
0.0
 11
465.44020954920001
 21
97.904797720700003
 31
0.0
 12
469.19020954919989
 22
97.904797720700003
 32
0.0
 13
467.31520954920001
 23
96.029694127900015
 33
0.0
  0
ENDBLK
  5
4B2
  8
0
  0
BLOCK
  8
0
  2
*D122
 70
     1
 10
0.0
 20
0.0
 30
0.0
  3
*D122
  1

  0
TEXT
  5
4B6
  8
0
 62
     0
 10
358.98789568220002
 20
143.12834136469999
 30
0.0
 40
8.2461809158000001
  1
117
 50
90.0
  0
LINE
  5
4B7
  8
0
 62
     0
 10
339.71780233660002
 20
91.903911995100003
 30
0.0
 11
362.4431040792
 21
91.903911995100003
 31
0.0
  0
LINE
  5
4B8
  8
0
 62
     0
 10
339.71780233660002
 20
208.90485470339999
 30
0.0
 11
362.4431040792
 21
208.90485470339999
 31
0.0
  0
LINE
  5
4B9
  8
0
 62
     0
 10
361.4431040792
 20
91.903911995100003
 30
0.0
 11
361.4431040792
 21
162.53111999020001
 31
0.0
  0
LINE
  5
4BA
  8
0
 62
     0
 10
361.4431040792
 20
91.903911995100003
 30
0.0
 11
361.4431040792
 21
138.27764670830001
 31
0.0
  0
LINE
  5
4BB
  8
0
 62
     0
 10
361.4431040792
 20
208.90485470339999
 30
0.0
 11
361.4431040792
 21
162.53111999020001
 31
0.0
  0
LINE
  5
4BC
  8
0
 62
     0
 10
361.4431040792
 20
208.90485470339999
 30
0.0
 11
361.4431040792
 21
138.27764670830001
 31
0.0
  0
LINE
  5
4BD
  8
0
 62
     0
 10
361.4431040792
 20
208.90485470339999
 30
0.0
 11
361.4431040792
 21
203.90485470339999
 31
0.0
  0
SOLID
  5
4BE
  8
0
 62
     0
 10
361.4431040792
 20
208.90485470339999
 30
0.0
 11
363.3181040792
 21
201.40444033189999
 31
0.0
 12
359.5681040792
 22
201.40444033189999
 32
0.0
 13
361.4431040792
 23
203.27954392480001
 33
0.0
  0
LINE
  5
4BF
  8
0
 62
     0
 10
361.4431040792
 20
91.903911995100003
 30
0.0
 11
361.4431040792
 21
96.903911995100003
 31
0.0
  0
SOLID
  5
4C0
  8
0
 62
     0
 10
361.4431040792
 20
91.903911995100003
 30
0.0
 11
359.5681040792
 21
99.404326366600003
 31
0.0
 12
363.3181040792
 22
99.404326366600003
 32
0.0
 13
361.4431040792
 23
97.529222773700013
 33
0.0
  0
ENDBLK
  5
4C1
  8
0
  0
BLOCK
  8
0
  2
*D123
 70
     1
 10
0.0
 20
0.0
 30
0.0
  3
*D123
  1

  0
TEXT
  5
4C5
  8
0
 62
     0
 10
-40.926546710099998
 20
-222.1417336911
 30
0.0
 40
8.2461809158000001
  1
75
  0
LINE
  5
4C6
  8
0
 62
     0
 10
-73.575852053700004
 20
-187.09726252259989
 30
0.0
 11
-73.575852053700004
 21
-225.59694208799999
 31
0.0
  0
LINE
  5
4C7
  8
0
 62
     0
 10
1.4241479462999991
 20
-187.09726252259989
 30
0.0
 11
1.4241479462999991
 21
-225.59694208799999
 31
0.0
  0
LINE
  5
4C8
  8
0
 62
     0
 10
-73.575852053700004
 20
-224.59694208799999
 30
0.0
 11
-26.374462740999999
 21
-224.59694208799999
 31
0.0
  0
LINE
  5
4C9
  8
0
 62
     0
 10
-73.575852053700004
 20
-224.59694208799999
 30
0.0
 11
-45.777241366499993
 21
-224.59694208799999
 31
0.0
  0
LINE
  5
4CA
  8
0
 62
     0
 10
1.4241479462999991
 20
-224.59694208799999
 30
0.0
 11
-26.374462740999999
 21
-224.59694208799999
 31
0.0
  0
LINE
  5
4CB
  8
0
 62
     0
 10
1.4241479462999991
 20
-224.59694208799999
 30
0.0
 11
-45.777241366499993
 21
-224.59694208799999
 31
0.0
  0
LINE
  5
4CC
  8
0
 62
     0
 10
1.4241479462999991
 20
-224.59694208799999
 30
0.0
 11
-3.5758520536999998
 21
-224.59694208799999
 31
0.0
  0
SOLID
  5
4CD
  8
0
 62
     0
 10
1.4241479462999991
 20
-224.59694208799999
 30
0.0
 11
-6.0762664252
 21
-226.47194208799999
 31
0.0
 12
-6.0762664252
 22
-222.72194208799999
 32
0.0
 13
-4.2011628322999996
 23
-224.59694208799999
 33
0.0
  0
LINE
  5
4CE
  8
0
 62
     0
 10
-73.575852053700004
 20
-224.59694208799999
 30
0.0
 11
-68.575852053700004
 21
-224.59694208799999
 31
0.0
  0
SOLID
  5
4CF
  8
0
 62
     0
 10
-73.575852053700004
 20
-224.59694208799999
 30
0.0
 11
-66.075437682200004
 21
-222.72194208799999
 31
0.0
 12
-66.075437682200004
 22
-226.47194208799999
 32
0.0
 13
-67.950541275100008
 23
-224.59694208799999
 33
0.0
  0
ENDBLK
  5
4D0
  8
0
  0
BLOCK
  8
0
  2
*D124
 70
     1
 10
0.0
 20
0.0
 30
0.0
  3
*D124
  1

  0
TEXT
  5
4D4
  8
0
 62
     0
 10
-46.78798504489999
 20
-43.141732511099988
 30
0.0
 40
8.2461809158000001
  1
428.5
  0
LINE
  5
4D5
  8
0
 62
     0
 10
178.1739656545999
 20
-68.596940908000008
 30
0.0
 11
178.1739656545999
 21
-44.596940908000001
 31
0.0
  0
LINE
  5
4D6
  8
0
 62
     0
 10
-250.32603434539999
 20
-68.596940908000008
 30
0.0
 11
-250.32603434539999
 21
-44.596940908000001
 31
0.0
  0
LINE
  5
4D7
  8
0
 62
     0
 10
178.1739656545999
 20
-45.596940907999993
 30
0.0
 11
-20.513388989500001
 21
-45.596940907999993
 31
0.0
  0
LINE
  5
4D8
  8
0
 62
     0
 10
178.1739656545999
 20
-45.596940907999993
 30
0.0
 11
-51.638679701299999
 21
-45.596940907999993
 31
0.0
  0
LINE
  5
4D9
  8
0
 62
     0
 10
-250.32603434539999
 20
-45.596940907999993
 30
0.0
 11
-20.513388989500001
 21
-45.596940907999993
 31
0.0
  0
LINE
  5
4DA
  8
0
 62
     0
 10
-250.32603434539999
 20
-45.596940907999993
 30
0.0
 11
-51.638679701299999
 21
-45.596940907999993
 31
0.0
  0
LINE
  5
4DB
  8
0
 62
     0
 10
-250.32603434539999
 20
-45.596940907999993
 30
0.0
 11
-245.32603434539999
 21
-45.596940907999993
 31
0.0
  0
SOLID
  5
4DC
  8
0
 62
     0
 10
-250.32603434539999
 20
-45.596940907999993
 30
0.0
 11
-242.82561997389999
 21
-43.721940907999993
 31
0.0
 12
-242.82561997389999
 22
-47.471940907999993
 32
0.0
 13
-244.70072356680001
 23
-45.596940907999993
 33
0.0
  0
LINE
  5
4DD
  8
0
 62
     0
 10
178.1739656545999
 20
-45.596940907999993
 30
0.0
 11
173.17396565460001
 21
-45.596940907999993
 31
0.0
  0
SOLID
  5
4DE
  8
0
 62
     0
 10
178.1739656545999
 20
-45.596940907999993
 30
0.0
 11
170.67355128310001
 21
-47.471940907999993
 31
0.0
 12
170.67355128310001
 22
-43.721940907999993
 32
0.0
 13
172.548654876
 23
-45.596940907999993
 33
0.0
  0
ENDBLK
  5
4DF
  8
0
  0
BLOCK
  8
0
  2
*D125
 70
     1
 10
0.0
 20
0.0
 30
0.0
  3
*D125
  1

  0
TEXT
  5
4E3
  8
0
 62
     0
 10
-6.2979792313000003
 20
266.52715613819998
 30
0.0
 40
8.2461809158000001
  1
448
  0
LINE
  5
4E4
  8
0
 62
     0
 10
224.97806275330001
 20
226.4043833492
 30
0.0
 11
224.97806275330001
 21
265.07194774129999
 31
0.0
  0
LINE
  5
4E5
  8
0
 62
     0
 10
-223.02193724669999
 20
226.4043833492
 30
0.0
 11
-223.02193724669999
 21
265.07194774129999
 31
0.0
  0
LINE
  5
4E6
  8
0
 62
     0
 10
224.97806275330001
 20
264.07194774129999
 30
0.0
 11
13.104799394200001
 21
264.07194774129999
 31
0.0
  0
LINE
  5
4E7
  8
0
 62
     0
 10
224.97806275330001
 20
264.07194774129999
 30
0.0
 11
-11.148673887699999
 21
264.07194774129999
 31
0.0
  0
LINE
  5
4E8
  8
0
 62
     0
 10
-223.02193724669999
 20
264.07194774129999
 30
0.0
 11
13.104799394200001
 21
264.07194774129999
 31
0.0
  0
LINE
  5
4E9
  8
0
 62
     0
 10
-223.02193724669999
 20
264.07194774129999
 30
0.0
 11
-11.148673887699999
 21
264.07194774129999
 31
0.0
  0
LINE
  5
4EA
  8
0
 62
     0
 10
-223.02193724669999
 20
264.07194774129999
 30
0.0
 11
-218.02193724669999
 21
264.07194774129999
 31
0.0
  0
SOLID
  5
4EB
  8
0
 62
     0
 10
-223.02193724669999
 20
264.07194774129999
 30
0.0
 11
-215.52152287519999
 21
265.94694774129999
 31
0.0
 12
-215.52152287519999
 22
262.19694774129999
 32
0.0
 13
-217.39662646810001
 23
264.07194774129999
 33
0.0
  0
LINE
  5
4EC
  8
0
 62
     0
 10
224.97806275330001
 20
264.07194774129999
 30
0.0
 11
219.97806275330001
 21
264.07194774129999
 31
0.0
  0
SOLID
  5
4ED
  8
0
 62
     0
 10
224.97806275330001
 20
264.07194774129999
 30
0.0
 11
217.47764838180001
 21
262.19694774129999
 31
0.0
 12
217.47764838180001
 22
265.94694774129999
 32
0.0
 13
219.3527519747
 23
264.07194774129999
 33
0.0
  0
ENDBLK
  5
4EE
  8
0
  0
BLOCK
  8
0
  2
*D126
 70
     1
 10
0.0
 20
0.0
 30
0.0
  3
*D126
  1

  0
TEXT
  5
4F2
  8
0
 62
     0
 10
-6.2979792313000003
 20
253.17085196950001
 30
0.0
 40
8.2461809158000001
  1
430
  0
LINE
  5
4F3
  8
0
 62
     0
 10
215.97806275330001
 20
217.4043833492
 30
0.0
 11
215.97806275330001
 21
251.71564357259999
 31
0.0
  0
LINE
  5
4F4
  8
0
 62
     0
 10
-214.02193724669999
 20
217.4043833492
 30
0.0
 11
-214.02193724669999
 21
251.71564357259999
 31
0.0
  0
LINE
  5
4F5
  8
0
 62
     0
 10
215.97806275330001
 20
250.71564357259999
 30
0.0
 11
13.104799394200001
 21
250.71564357259999
 31
0.0
  0
LINE
  5
4F6
  8
0
 62
     0
 10
215.97806275330001
 20
250.71564357259999
 30
0.0
 11
-11.148673887699999
 21
250.71564357259999
 31
0.0
  0
LINE
  5
4F7
  8
0
 62
     0
 10
-214.02193724669999
 20
250.71564357259999
 30
0.0
 11
13.104799394200001
 21
250.71564357259999
 31
0.0
  0
LINE
  5
4F8
  8
0
 62
     0
 10
-214.02193724669999
 20
250.71564357259999
 30
0.0
 11
-11.148673887699999
 21
250.71564357259999
 31
0.0
  0
LINE
  5
4F9
  8
0
 62
     0
 10
-214.02193724669999
 20
250.71564357259999
 30
0.0
 11
-209.02193724669999
 21
250.71564357259999
 31
0.0
  0
SOLID
  5
4FA
  8
0
 62
     0
 10
-214.02193724669999
 20
250.71564357259999
 30
0.0
 11
-206.52152287519999
 21
252.59064357259999
 31
0.0
 12
-206.52152287519999
 22
248.84064357259999
 32
0.0
 13
-208.39662646810001
 23
250.71564357259999
 33
0.0
  0
LINE
  5
4FB
  8
0
 62
     0
 10
215.97806275330001
 20
250.71564357259999
 30
0.0
 11
210.97806275330001
 21
250.71564357259999
 31
0.0
  0
SOLID
  5
4FC
  8
0
 62
     0
 10
215.97806275330001
 20
250.71564357259999
 30
0.0
 11
208.47764838180001
 21
248.84064357259999
 31
0.0
 12
208.47764838180001
 22
252.59064357259999
 32
0.0
 13
210.3527519747
 23
250.71564357259999
 33
0.0
  0
ENDBLK
  5
4FD
  8
0
  0
BLOCK
  8
0
  2
*D127
 70
     1
 10
0.0
 20
0.0
 30
0.0
  3
*D127
  1

  0
TEXT
  5
501
  8
0
 62
     0
 10
464.86000115230001
 20
78.553688692899996
 30
0.0
 40
8.2461809158000001
  1
14
 50
90.0
  0
LINE
  5
502
  8
0
 62
     0
 10
447.90029827899991
 20
76.404383349200003
 30
0.0
 11
468.31520954919989
 21
76.404383349200003
 31
0.0
  0
LINE
  5
503
  8
0
 62
     0
 10
447.90029827899991
 20
90.404383349200003
 30
0.0
 11
468.31520954919989
 21
90.404383349200003
 31
0.0
  0
LINE
  5
504
  8
0
 62
     0
 10
467.31520954920001
 20
76.404383349200003
 30
0.0
 11
467.31520954920001
 21
76.404383349200003
 31
0.0
  0
LINE
  5
505
  8
0
 62
     0
 10
467.31520954920001
 20
76.404383349200003
 30
0.0
 11
467.31520954920001
 21
90.404383349200003
 31
0.0
  0
LINE
  5
506
  8
0
 62
     0
 10
467.31520954920001
 20
90.404383349200003
 30
0.0
 11
467.31520954920001
 21
76.404383349200003
 31
0.0
  0
LINE
  5
507
  8
0
 62
     0
 10
467.31520954920001
 20
90.404383349200003
 30
0.0
 11
467.31520954920001
 21
90.404383349200003
 31
0.0
  0
LINE
  5
508
  8
0
 62
     0
 10
467.31520954920001
 20
90.404383349200003
 30
0.0
 11
467.31520954920001
 21
95.404383349200003
 31
0.0
  0
SOLID
  5
509
  8
0
 62
     0
 10
467.31520954920001
 20
90.404383349200003
 30
0.0
 11
465.44020954920001
 21
97.904797720700003
 31
0.0
 12
469.19020954919989
 22
97.904797720700003
 32
0.0
 13
467.31520954920001
 23
96.029694127900015
 33
0.0
  0
LINE
  5
50A
  8
0
 62
     0
 10
467.31520954920001
 20
76.404383349200003
 30
0.0
 11
467.31520954920001
 21
71.404383349200003
 31
0.0
  0
SOLID
  5
50B
  8
0
 62
     0
 10
467.31520954920001
 20
76.404383349200003
 30
0.0
 11
469.19020954919989
 21
68.903968977799991
 31
0.0
 12
465.44020954920001
 22
68.903968977799991
 32
0.0
 13
467.31520954920001
 23
70.779072570600007
 33
0.0
  0
ENDBLK
  5
50C
  8
0
  0
BLOCK
  8
0
  2
*D128
 70
     1
 10
0.0
 20
0.0
 30
0.0
  3
*D128
  1

  0
TEXT
  5
510
  8
0
 62
     0
 10
359.04803629200001
 20
50.126318938700003
 30
0.0
 40
8.2461809158000001
  1
15.5
 50
90.0
  0
LINE
  5
511
  8
0
 62
     0
 10
339.71780233660002
 20
76.403911995100003
 30
0.0
 11
362.5032446889
 21
76.403911995100003
 31
0.0
  0
LINE
  5
512
  8
0
 62
     0
 10
339.71780233660002
 20
91.903911995100003
 30
0.0
 11
362.5032446889
 21
91.903911995100003
 31
0.0
  0
LINE
  5
513
  8
0
 62
     0
 10
361.5032446889
 20
76.403911995100003
 30
0.0
 11
361.5032446889
 21
71.550220337700011
 31
0.0
  0
LINE
  5
514
  8
0
 62
     0
 10
361.5032446889
 20
76.403911995100003
 30
0.0
 11
361.5032446889
 21
45.275624282299987
 31
0.0
  0
LINE
  5
515
  8
0
 62
     0
 10
361.5032446889
 20
91.903911995100003
 30
0.0
 11
361.5032446889
 21
71.550220337700011
 31
0.0
  0
LINE
  5
516
  8
0
 62
     0
 10
361.5032446889
 20
91.903911995100003
 30
0.0
 11
361.5032446889
 21
45.275624282299987
 31
0.0
  0
LINE
  5
517
  8
0
 62
     0
 10
361.5032446889
 20
91.903911995100003
 30
0.0
 11
361.5032446889
 21
86.903911995100003
 31
0.0
  0
SOLID
  5
518
  8
0
 62
     0
 10
361.5032446889
 20
91.903911995100003
 30
0.0
 11
363.3782446889
 21
84.403497623600003
 31
0.0
 12
359.6282446889
 22
84.403497623600003
 32
0.0
 13
361.5032446889
 23
86.278601216499993
 33
0.0
  0
LINE
  5
519
  8
0
 62
     0
 10
361.5032446889
 20
76.403911995100003
 30
0.0
 11
361.5032446889
 21
81.403911995100003
 31
0.0
  0
SOLID
  5
51A
  8
0
 62
     0
 10
361.5032446889
 20
76.403911995100003
 30
0.0
 11
359.6282446889
 21
83.904326366599989
 31
0.0
 12
363.3782446889
 22
83.904326366599989
 32
0.0
 13
361.5032446889
 23
82.029222773699985
 33
0.0
  0
ENDBLK
  5
51B
  8
0
  0
BLOCK
  8
0
  2
*D129
 70
     1
 10
0.0
 20
0.0
 30
0.0
  3
*D129
  1

  0
TEXT
  5
51F
  8
0
 62
     0
 10
464.86000115230001
 20
212.55368869290001
 30
0.0
 40
8.2461809158000001
  1
14
 50
90.0
  0
LINE
  5
520
  8
0
 62
     0
 10
447.90029827899991
 20
210.4043833492
 30
0.0
 11
468.31520954919989
 21
210.4043833492
 31
0.0
  0
LINE
  5
521
  8
0
 62
     0
 10
447.90029827899991
 20
224.4043833492
 30
0.0
 11
468.31520954919989
 21
224.4043833492
 31
0.0
  0
LINE
  5
522
  8
0
 62
     0
 10
467.31520954920001
 20
210.4043833492
 30
0.0
 11
467.31520954920001
 21
210.4043833492
 31
0.0
  0
LINE
  5
523
  8
0
 62
     0
 10
467.31520954920001
 20
210.4043833492
 30
0.0
 11
467.31520954920001
 21
224.4043833492
 31
0.0
  0
LINE
  5
524
  8
0
 62
     0
 10
467.31520954920001
 20
224.4043833492
 30
0.0
 11
467.31520954920001
 21
210.4043833492
 31
0.0
  0
LINE
  5
525
  8
0
 62
     0
 10
467.31520954920001
 20
224.4043833492
 30
0.0
 11
467.31520954920001
 21
224.4043833492
 31
0.0
  0
LINE
  5
526
  8
0
 62
     0
 10
467.31520954920001
 20
224.4043833492
 30
0.0
 11
467.31520954920001
 21
229.4043833492
 31
0.0
  0
SOLID
  5
527
  8
0
 62
     0
 10
467.31520954920001
 20
224.4043833492
 30
0.0
 11
465.44020954920001
 21
231.9047977207
 31
0.0
 12
469.19020954919989
 22
231.9047977207
 32
0.0
 13
467.31520954920001
 23
230.0296941279
 33
0.0
  0
LINE
  5
528
  8
0
 62
     0
 10
467.31520954920001
 20
210.4043833492
 30
0.0
 11
467.31520954920001
 21
205.4043833492
 31
0.0
  0
SOLID
  5
529
  8
0
 62
     0
 10
467.31520954920001
 20
210.4043833492
 30
0.0
 11
469.19020954919989
 21
202.90396897779999
 31
0.0
 12
465.44020954920001
 22
202.90396897779999
 32
0.0
 13
467.31520954920001
 23
204.77907257059999
 33
0.0
  0
ENDBLK
  5
52A
  8
0
  0
BLOCK
  8
0
  2
*D130
 70
     1
 10
0.0
 20
0.0
 30
0.0
  3
*D130
  1

  0
TEXT
  5
52E
  8
0
 62
     0
 10
398.54960362269998
 20
255.7964585064
 30
0.0
 40
8.2461809158000001
  1
25
  0
LINE
  5
52F
  8
0
 62
     0
 10
415.90029827900003
 20
217.4043833492
 30
0.0
 11
415.90029827900003
 21
254.34125010950001
 31
0.0
  0
LINE
  5
530
  8
0
 62
     0
 10
390.90029827900003
 20
226.4043833492
 30
0.0
 11
390.90029827900003
 21
254.34125010950001
 31
0.0
  0
LINE
  5
531
  8
0
 62
     0
 10
415.90029827900003
 20
253.34125010950001
 30
0.0
 11
413.10168759179999
 21
253.34125010950001
 31
0.0
  0
LINE
  5
532
  8
0
 62
     0
 10
415.90029827900003
 20
253.34125010950001
 30
0.0
 11
393.6989089663
 21
253.34125010950001
 31
0.0
  0
LINE
  5
533
  8
0
 62
     0
 10
390.90029827900003
 20
253.34125010950001
 30
0.0
 11
413.10168759179999
 21
253.34125010950001
 31
0.0
  0
LINE
  5
534
  8
0
 62
     0
 10
390.90029827900003
 20
253.34125010950001
 30
0.0
 11
393.6989089663
 21
253.34125010950001
 31
0.0
  0
LINE
  5
535
  8
0
 62
     0
 10
390.90029827900003
 20
253.34125010950001
 30
0.0
 11
385.90029827900003
 21
253.34125010950001
 31
0.0
  0
SOLID
  5
536
  8
0
 62
     0
 10
390.90029827900003
 20
253.34125010950001
 30
0.0
 11
383.3998839075
 21
251.46625010950001
 31
0.0
 12
383.3998839075
 22
255.21625010950001
 32
0.0
 13
385.27498750040002
 23
253.34125010950001
 33
0.0
  0
LINE
  5
537
  8
0
 62
     0
 10
415.90029827900003
 20
253.34125010950001
 30
0.0
 11
420.90029827900003
 21
253.34125010950001
 31
0.0
  0
SOLID
  5
538
  8
0
 62
     0
 10
415.90029827900003
 20
253.34125010950001
 30
0.0
 11
423.4007126505
 21
255.21625010950001
 31
0.0
 12
423.4007126505
 22
251.46625010950001
 32
0.0
 13
421.52560905769991
 23
253.34125010950001
 33
0.0
  0
ENDBLK
  5
539
  8
0
  0
BLOCK
  8
0
  2
CLUMP88
 70
     0
 10
0.0
 20
0.0
 30
0.0
  3
CLUMP88
  1

  0
LINE
  5
541
  8
É}ÿg
 10
420.98918002570002
 20
-243.52734713199999
 30
0.0
 11
420.98918002570002
 21
-231.02734713199999
 31
0.0
  0
LINE
  5
542
  8
É}ÿg
 10
273.48918002570002
 20
-243.52734713199999
 30
0.0
 11
273.48918002570002
 21
-231.02734713199999
 31
0.0
  0
LINE
  5
543
  8
É}ÿg
 10
295.98918002570002
 20
-243.52734713199999
 30
0.0
 11
295.98918002570002
 21
-231.02734713199999
 31
0.0
  0
LINE
  5
544
  8
É}ÿg
 10
558.48918002569997
 20
-243.52734713199999
 30
0.0
 11
558.48918002569997
 21
-231.02734713199999
 31
0.0
  0
LINE
  5
545
  8
É}ÿg
 10
535.98918002569985
 20
-243.52734713199999
 30
0.0
 11
535.98918002569985
 21
-231.02734713199999
 31
0.0
  0
LINE
  5
546
  8
É}ÿg
 10
635.98918002569985
 20
-231.02734713199999
 30
0.0
 11
273.48918002570002
 21
-231.02734713199999
 31
0.0
  0
ENDBLK
  5
547
  8
0
  0
BLOCK
  8
0
  2
CLUMP89
 70
     0
 10
0.0
 20
0.0
 30
0.0
  3
CLUMP89
  1

  0
LINE
  5
54E
  8
É}ÿg
 10
419.29231139789988
 20
-357.08566471479998
 30
0.0
 11
421.79231139789999
 21
-353.33566471479998
 31
0.0
  0
LINE
  5
54F
  8
É}ÿg
 10
382.64079624639999
 20
-353.33566471479998
 30
0.0
 11
382.64079624639999
 21
-358.33566471479998
 31
0.0
  0
LINE
  5
550
  8
É}ÿg
 10
441.9583703566999
 20
-362.08566471479998
 30
0.0
 11
449.83601801859999
 21
-362.08566471479998
 31
0.0
  0
LINE
  5
551
  8
É}ÿg
 10
399.29231139789999
 20
-370.83566471479998
 30
0.0
 11
405.54231139789988
 21
-370.83566471479998
 31
0.0
  0
LINE
  5
552
  8
É}ÿg
 10
399.29231139789999
 20
-359.14094038349998
 30
0.0
 11
409.29231139789999
 21
-359.14094038349998
 31
0.0
  0
INSERT
  5
553
  8
0
  6
CONTINUOUS
  2
*U175
 10
0.0
 20
0.0
 30
0.0
  0
LINE
  5
554
  8
É}ÿg
 62
     5
 10
460.98918002570002
 20
286.47265286800001
 30
0.0
 11
460.98918002570002
 21
323.97265286800001
 31
0.0
  0
LINE
  5
555
  8
É}ÿg
 62
     5
 10
585.98918002569985
 20
286.47265286800001
 30
0.0
 11
585.98918002569985
 21
323.97265286800001
 31
0.0
  0
LINE
  5
556
  8
É}ÿg
 62
     5
 10
420.98918002570002
 20
286.47265286800001
 30
0.0
 11
420.98918002570002
 21
323.97265286800001
 31
0.0
  0
LINE
  5
557
  8
É}ÿg
 62
     5
 10
404.0909665605999
 20
300.04963224549999
 30
0.0
 11
416.4659665605999
 21
300.04963224549999
 31
0.0
  0
LINE
  5
558
  8
É}ÿg
 62
     5
 10
410.2784665605999
 20
298.3916966173
 30
0.0
 11
416.4659665605999
 21
287.67463224549999
 31
0.0
  0
LINE
  5
559
  8
É}ÿg
 62
     5
 10
400.98918002569991
 20
286.47265286800001
 30
0.0
 11
400.98918002569991
 21
323.97265286800001
 31
0.0
  0
LINE
  5
55A
  8
É}ÿg
 62
     5
 10
610.98918002569985
 20
286.47265286800001
 30
0.0
 11
610.98918002569985
 21
323.97265286800001
 31
0.0
  0
LINE
  5
55B
  8
É}ÿg
 62
     5
 10
400.98918002569991
 20
311.47265286800001
 30
0.0
 11
635.98918002569985
 21
311.47265286800001
 31
0.0
  0
LINE
  5
55C
  8
É}ÿg
 62
     5
 10
400.98918002569991
 20
298.97265286800001
 30
0.0
 11
635.98918002569985
 21
298.97265286800001
 31
0.0
  0
LINE
  5
55D
  8
É}ÿg
 62
     5
 10
400.98918002569991
 20
286.47265286800001
 30
0.0
 11
635.98918002569985
 21
286.47265286800001
 31
0.0
  0
INSERT
  5
55E
  8
0
  6
CONTINUOUS
  2
*U176
 10
0.0
 20
0.0
 30
0.0
  0
LINE
  5
55F
  8
É}ÿg
 62
     5
 10
-364.01081997429998
 20
-376.02734713199999
 30
0.0
 11
-364.01081997429998
 21
323.97265286800001
 31
0.0
  0
LINE
  5
560
  8
É}ÿg
 62
     5
 10
-364.01081997429998
 20
-376.02734713199999
 30
0.0
 11
635.98918002569985
 21
-376.02734713199999
 31
0.0
  0
LINE
  5
561
  8
É}ÿg
 62
     5
 10
635.98918002569985
 20
323.97265286800001
 30
0.0
 11
-364.01081997429998
 21
323.97265286800001
 31
0.0
  0
LINE
  5
562
  8
É}ÿg
 62
     5
 10
635.98918002569985
 20
-376.02734713199999
 30
0.0
 11
635.98918002569985
 21
323.97265286800001
 31
0.0
  0
LINE
  5
563
  8
É}ÿg
 10
399.29231139789999
 20
-359.94621605219999
 30
0.0
 11
399.29231139789999
 21
-359.14094038349998
 31
0.0
  0
LINE
  5
564
  8
É}ÿg
 10
368.51303671749997
 20
-358.33566471479998
 30
0.0
 11
368.51303671749997
 21
-362.08566471479998
 31
0.0
  0
LINE
  5
565
  8
É}ÿg
 62
     5
 10
410.2784665605999
 20
310.7666966173
 30
0.0
 11
416.4659665605999
 21
300.04963224549999
 31
0.0
  0
LINE
  5
566
  8
É}ÿg
 62
     5
 10
410.2784665605999
 20
298.3916966173
 30
0.0
 11
404.0909665605999
 21
287.67463224549999
 31
0.0
  0
INSERT
  5
567
  8
0
  6
CONTINUOUS
  2
*U177
 10
0.0
 20
0.0
 30
0.0
  0
LINE
  5
568
  8
É}ÿg
  6
DOT
 10
-376.46081997430002
 20
-386.60234713199998
 30
0.0
 11
-376.46081997430002
 21
334.547652868
 31
0.0
  0
LINE
  5
569
  8
É}ÿg
  6
DOT
 10
648.43918002570001
 20
-386.60234713199998
 30
0.0
 11
648.43918002570001
 21
334.547652868
 31
0.0
  0
LINE
  5
56A
  8
É}ÿg
  6
DOT
 10
-376.46081997430002
 20
-386.60234713199998
 30
0.0
 11
648.43918002570001
 21
-386.60234713199998
 31
0.0
  0
LINE
  5
56B
  8
É}ÿg
 10
377.64079624639999
 20
-365.83566471479998
 30
0.0
 11
377.64079624639999
 21
-362.08566471479998
 31
0.0
  0
LINE
  5
56C
  8
É}ÿg
  6
DOT
 10
648.43918002570001
 20
334.547652868
 30
0.0
 11
-376.46081997430002
 21
334.547652868
 31
0.0
  0
LINE
  5
56D
  8
É}ÿg
 10
371.39079624639999
 20
-362.08566471479998
 30
0.0
 11
371.39079624639999
 21
-365.83566471479998
 31
0.0
  0
LINE
  5
56E
  8
É}ÿg
 10
388.89079624639999
 20
-357.08566471479998
 30
0.0
 11
392.64079624639999
 21
-353.33566471479998
 31
0.0
  0
LINE
  5
56F
  8
É}ÿg
 10
435.48935135199991
 20
-364.08566471479998
 30
0.0
 11
434.9026846852999
 21
-362.08566471479998
 31
0.0
  0
LINE
  5
570
  8
É}ÿg
 10
377.64079624639999
 20
-358.33566471479998
 30
0.0
 11
377.64079624639999
 21
-357.08566471479998
 31
0.0
  0
LINE
  5
571
  8
É}ÿg
 10
416.44910977820001
 20
-365.4584927372
 30
0.0
 11
416.00385462870003
 21
-365.8944380977
 31
0.0
  0
LINE
  5
572
  8
É}ÿg
 10
419.29231139789988
 20
-357.08566471479998
 30
0.0
 11
421.79231139789999
 21
-353.33566471479998
 31
0.0
  0
LINE
  5
573
  8
É}ÿg
 10
449.83601801859999
 20
-364.08566471479998
 30
0.0
 11
449.83601801859999
 21
-368.58566471479998
 31
0.0
  0
LINE
  5
574
  8
É}ÿg
 10
421.79231139789999
 20
-367.08566471479998
 30
0.0
 11
421.79231139789999
 21
-370.83566471479998
 31
0.0
  0
LINE
  5
575
  8
É}ÿg
 10
440.66342890879997
 20
-357.58566471479998
 30
0.0
 11
449.83601801859999
 21
-357.58566471479998
 31
0.0
  0
LINE
  5
576
  8
É}ÿg
 10
440.66342890879997
 20
-357.58566471479998
 30
0.0
 11
440.29744328319993
 21
-356.31384248860002
 31
0.0
  0
LINE
  5
577
  8
É}ÿg
 10
421.79231139789999
 20
-353.33566471479998
 30
0.0
 11
399.29231139789999
 21
-353.33566471479998
 31
0.0
  0
INSERT
  5
578
  8
0
  6
CONTINUOUS
  2
*U178
 10
0.0
 20
0.0
 30
0.0
  0
LINE
  5
579
  8
É}ÿg
 10
437.83601801859999
 20
-372.08566471479998
 30
0.0
 11
436.80935135199991
 21
-368.58566471479998
 31
0.0
  0
LINE
  5
57A
  8
É}ÿg
 10
378.89079624639999
 20
-367.08566471479998
 30
0.0
 11
371.39079624639999
 21
-367.08566471479998
 31
0.0
  0
LINE
  5
57B
  8
É}ÿg
 10
399.29231139789999
 20
-357.83566471479998
 30
0.0
 11
411.79231139789988
 21
-357.83566471479998
 31
0.0
  0
LINE
  5
57C
  8
É}ÿg
 10
433.20397380489987
 20
-304.27734713199999
 30
0.0
 11
445.20397380489987
 21
-301.27734713199999
 31
0.0
  0
CIRCLE
  5
57D
  8
É}ÿg
 10
419.48918002570002
 20
-307.27734713199999
 30
0.0
 40
6.0
  0
INSERT
  5
57E
  8
0
  6
CONTINUOUS
  2
*U179
 10
0.0
 20
0.0
 30
0.0
  0
LINE
  5
57F
  8
É}ÿg
 10
377.64079624639999
 20
-362.08566471479998
 30
0.0
 11
382.64079624639999
 21
-362.08566471479998
 31
0.0
  0
LINE
  5
580
  8
É}ÿg
 10
427.33601801859987
 20
-362.08566471479998
 30
0.0
 11
434.9026846852999
 21
-362.08566471479998
 31
0.0
  0
LINE
  5
581
  8
É}ÿg
 10
392.64079624639999
 20
-358.33566471479998
 30
0.0
 11
388.89079624639999
 21
-358.33566471479998
 31
0.0
  0
LINE
  5
582
  8
É}ÿg
 10
388.89079624639999
 20
-358.33566471479998
 30
0.0
 11
388.89079624639999
 21
-357.08566471479998
 31
0.0
  0
LINE
  5
583
  8
É}ÿg
 10
427.33601801859987
 20
-357.58566471479998
 30
0.0
 11
433.58268468530002
 21
-357.58566471479998
 31
0.0
  0
LINE
  5
584
  8
É}ÿg
 10
440.29744328319993
 20
-356.31384248860002
 30
0.0
 11
442.33601801859999
 21
-353.33566471479998
 31
0.0
  0
LINE
  5
585
  8
É}ÿg
 10
399.29231139789999
 20
-370.83566471479998
 30
0.0
 11
399.29231139789999
 21
-367.08566471479998
 31
0.0
  0
LINE
  5
586
  8
É}ÿg
 10
460.98918002570002
 20
-293.52734713199999
 30
0.0
 11
460.98918002570002
 21
-376.02734713199999
 31
0.0
  0
INSERT
  5
587
  8
0
  6
CONTINUOUS
  2
*U180
 10
0.0
 20
0.0
 30
0.0
  0
INSERT
  5
588
  8
0
  6
CONTINUOUS
  2
*U181
 10
0.0
 20
0.0
 30
0.0
  0
INSERT
  5
589
  8
0
  6
CONTINUOUS
  2
*U182
 10
0.0
 20
0.0
 30
0.0
  0
LINE
  5
58A
  8
É}ÿg
 62
     5
 10
404.0909665605999
 20
287.67463224549999
 30
0.0
 11
416.4659665605999
 21
287.67463224549999
 31
0.0
  0
LINE
  5
58B
  8
É}ÿg
 10
368.51303671749997
 20
-362.08566471479998
 30
0.0
 11
371.01303671749997
 21
-362.08566471479998
 31
0.0
  0
ARC
  5
58C
  8
É}ÿg
 10
405.54231139789988
 20
-357.08566471479998
 30
0.0
 40
13.75
 50
322.48761197969998
 51
0.0
  0
LINE
  5
58D
  8
É}ÿg
 10
371.39079624639999
 20
-370.83566471479998
 30
0.0
 11
381.39079624639999
 21
-370.83566471479998
 31
0.0
  0
LINE
  5
58E
  8
É}ÿg
 10
427.33601801859987
 20
-368.58566471479998
 30
0.0
 11
436.80935135199991
 21
-368.58566471479998
 31
0.0
  0
ARC
  5
58F
  8
É}ÿg
 10
378.89079624639999
 20
-363.33566471479998
 30
0.0
 40
3.75
 50
270.0
 51
0.0
  0
LINE
  5
590
  8
É}ÿg
 10
427.33601801859987
 20
-364.08566471479998
 30
0.0
 11
427.33601801859987
 21
-368.58566471479998
 31
0.0
  0
LINE
  5
591
  8
É}ÿg
 10
371.39079624639999
 20
-365.83566471479998
 30
0.0
 11
377.64079624639999
 21
-365.83566471479998
 31
0.0
  0
LINE
  5
592
  8
É}ÿg
 10
410.63309262720003
 20
-362.13334197760003
 30
0.0
 11
410.03160311139987
 21
-362.79768787900002
 31
0.0
  0
LINE
  5
593
  8
É}ÿg
 10
444.83601801859987
 20
-372.08566471479998
 30
0.0
 11
437.83601801859999
 21
-372.08566471479998
 31
0.0
  0
LINE
  5
594
  8
É}ÿg
 10
382.64079624639999
 20
-362.08566471479998
 30
0.0
 11
382.64079624639999
 21
-363.33566471479998
 31
0.0
  0
LINE
  5
595
  8
É}ÿg
 10
635.98918002569985
 20
-293.52734713199999
 30
0.0
 11
273.48918002570002
 21
-293.52734713199999
 31
0.0
  0
LINE
  5
596
  8
É}ÿg
 10
445.20397380489987
 20
-301.27734713199999
 30
0.0
 11
445.20397380489987
 21
-313.27734713199999
 31
0.0
  0
LINE
  5
597
  8
É}ÿg
 62
     5
 10
410.2784665605999
 20
310.7666966173
 30
0.0
 11
404.0909665605999
 21
300.04963224549999
 31
0.0
  0
LINE
  5
598
  8
É}ÿg
 10
392.64079624639999
 20
-353.33566471479998
 30
0.0
 11
382.64079624639999
 21
-353.33566471479998
 31
0.0
  0
LINE
  5
599
  8
É}ÿg
 10
388.89079624639999
 20
-363.33566471479998
 30
0.0
 11
388.89079624639999
 21
-362.08566471479998
 31
0.0
  0
LINE
  5
59A
  8
É}ÿg
 10
427.33601801859987
 20
-357.58566471479998
 30
0.0
 11
427.33601801859987
 21
-362.08566471479998
 31
0.0
  0
LINE
  5
59B
  8
É}ÿg
 10
382.64079624639999
 20
-358.33566471479998
 30
0.0
 11
377.64079624639999
 21
-358.33566471479998
 31
0.0
  0
LINE
  5
59C
  8
É}ÿg
 10
381.39079624639999
 20
-353.33566471479998
 30
0.0
 11
371.39079624639999
 21
-353.33566471479998
 31
0.0
  0
LINE
  5
59D
  8
É}ÿg
 10
377.64079624639999
 20
-357.08566471479998
 30
0.0
 11
381.39079624639999
 21
-353.33566471479998
 31
0.0
  0
LINE
  5
59E
  8
É}ÿg
 10
371.39079624639999
 20
-353.33566471479998
 30
0.0
 11
371.39079624639999
 21
-358.33566471479998
 31
0.0
  0
LINE
  5
59F
  8
É}ÿg
 10
443.82884133689998
 20
-368.58566471479998
 30
0.0
 11
449.83601801859999
 21
-368.58566471479998
 31
0.0
  0
LINE
  5
5A0
  8
É}ÿg
 10
433.58268468530002
 20
-357.58566471479998
 30
0.0
 11
432.33601801859987
 21
-353.33566471479998
 31
0.0
  0
LINE
  5
5A1
  8
É}ÿg
 10
427.33601801859987
 20
-364.08566471479998
 30
0.0
 11
435.48935135199991
 21
-364.08566471479998
 31
0.0
  0
LINE
  5
5A2
  8
É}ÿg
 10
442.533899889
 20
-364.08566471479998
 30
0.0
 11
441.9583703566999
 21
-362.08566471479998
 31
0.0
  0
ARC
  5
5A3
  8
É}ÿg
 10
402.29231139789999
 20
-357.58566471479998
 30
0.0
 40
9.5
 50
270.0
 51
298.08590481520002
  0
INSERT
  5
5A4
  8
0
  6
CONTINUOUS
  2
*U183
 10
0.0
 20
0.0
 30
0.0
  0
LINE
  5
5A5
  8
É}ÿg
 10
279.73918002570002
 20
-307.27734713199999
 30
0.0
 11
329.73918002570002
 21
-307.27734713199999
 31
0.0
  0
LINE
  5
5A6
  8
É}ÿg
 10
335.98918002570002
 20
-293.52734713199999
 30
0.0
 11
335.98918002570002
 21
-321.02734713199999
 31
0.0
  0
LINE
  5
5A7
  8
É}ÿg
 10
273.48918002570002
 20
-321.02734713199999
 30
0.0
 11
635.98918002569985
 21
-321.02734713199999
 31
0.0
  0
LINE
  5
5A8
  8
É}ÿg
 10
398.48918002570002
 20
-293.52734713199999
 30
0.0
 11
398.48918002570002
 21
-321.02734713199999
 31
0.0
  0
LINE
  5
5A9
  8
É}ÿg
  6
BORDER
 10
419.48918002570002
 20
-298.27734713199999
 30
0.0
 11
419.48918002570002
 21
-316.27734713199999
 31
0.0
  0
LINE
  5
5AA
  8
É}ÿg
  6
BORDER
 10
419.48918002570002
 20
-298.27734713199999
 30
0.0
 11
419.48918002570002
 21
-316.27734713199999
 31
0.0
  0
LINE
  5
5AB
  8
É}ÿg
 10
449.83601801859999
 20
-357.58566471479998
 30
0.0
 11
449.83601801859999
 21
-362.08566471479998
 31
0.0
  0
LINE
  5
5AC
  8
É}ÿg
 10
342.23918002570002
 20
-307.27734713199999
 30
0.0
 11
392.23918002570002
 21
-307.27734713199999
 31
0.0
  0
INSERT
  5
5AD
  8
0
  6
CONTINUOUS
  2
*U184
 10
0.0
 20
0.0
 30
0.0
  0
CIRCLE
  5
5AE
  8
É}ÿg
 10
419.48918002570002
 20
-307.27734713199999
 30
0.0
 40
6.0
  0
LINE
  5
5AF
  8
É}ÿg
 10
433.20397380489987
 20
-304.27734713199999
 30
0.0
 11
445.20397380489987
 21
-301.27734713199999
 31
0.0
  0
INSERT
  5
5B0
  8
0
  6
CONTINUOUS
  2
*U185
 10
0.0
 20
0.0
 30
0.0
  0
CIRCLE
  5
5B1
  8
É}ÿg
 10
419.48918002570002
 20
-307.27734713199999
 30
0.0
 40
3.0
  0
LINE
  5
5B2
  8
É}ÿg
 10
444.83601801859987
 20
-372.08566471479998
 30
0.0
 11
443.82884133689998
 21
-368.58566471479998
 31
0.0
  0
LINE
  5
5B3
  8
É}ÿg
 10
442.533899889
 20
-364.08566471479998
 30
0.0
 11
449.83601801859999
 21
-364.08566471479998
 31
0.0
  0
LINE
  5
5B4
  8
É}ÿg
 10
399.29231139789999
 20
-367.08566471479998
 30
0.0
 11
402.29231139789999
 21
-367.08566471479998
 31
0.0
  0
LINE
  5
5B5
  8
É}ÿg
 10
432.33601801859987
 20
-353.33566471479998
 30
0.0
 11
442.33601801859999
 21
-353.33566471479998
 31
0.0
  0
LINE
  5
5B6
  8
É}ÿg
 10
371.39079624639999
 20
-358.33566471479998
 30
0.0
 11
368.51303671749997
 21
-358.33566471479998
 31
0.0
  0
LINE
  5
5B7
  8
É}ÿg
 10
399.29231139789999
 20
-367.08566471479998
 30
0.0
 11
399.29231139789999
 21
-370.83566471479998
 31
0.0
  0
LINE
  5
5B8
  8
É}ÿg
 10
371.39079624639999
 20
-362.08566471479998
 30
0.0
 11
371.01303671749997
 21
-362.08566471479998
 31
0.0
  0
LINE
  5
5B9
  8
É}ÿg
 10
371.39079624639999
 20
-367.08566471479998
 30
0.0
 11
371.39079624639999
 21
-370.83566471479998
 31
0.0
  0
ARC
  5
5BA
  8
É}ÿg
 10
402.29231139789999
 20
-357.58566471479998
 30
0.0
 40
9.5
 50
331.39928138329998
 51
358.49204224580001
  0
LINE
  5
5BB
  8
É}ÿg
 10
388.89079624639999
 20
-362.08566471479998
 30
0.0
 11
392.64079624639999
 21
-362.08566471479998
 31
0.0
  0
ARC
  5
5BC
  8
É}ÿg
 10
405.54231139789988
 20
-357.08566471479998
 30
0.0
 40
13.75
 50
270.0
 51
302.54495885400001
  0
LINE
  5
5BD
  8
É}ÿg
 10
433.20397380489987
 20
-310.27734713199999
 30
0.0
 11
445.20397380489987
 21
-313.27734713199999
 31
0.0
  0
LINE
  5
5BE
  8
É}ÿg
 10
433.20397380489987
 20
-304.27734713199999
 30
0.0
 11
433.20397380489987
 21
-310.27734713199999
 31
0.0
  0
LINE
  5
5BF
  8
É}ÿg
 10
445.20397380489987
 20
-301.27734713199999
 30
0.0
 11
445.20397380489987
 21
-313.27734713199999
 31
0.0
  0
LINE
  5
5C0
  8
É}ÿg
 10
409.29231139789999
 20
-359.14094038349998
 30
0.0
 11
407.87809783559987
 21
-360.55515394589997
 31
0.0
  0
LINE
  5
5C1
  8
É}ÿg
  6
BORDER
 10
410.48918002570002
 20
-307.27734713199999
 30
0.0
 11
448.98918002570002
 21
-307.27734713199999
 31
0.0
  0
CIRCLE
  5
5C2
  8
É}ÿg
 10
419.48918002570002
 20
-307.27734713199999
 30
0.0
 40
3.0
  0
POLYLINE
  8
É}ÿg
  5
805
  66
     1
 10
0.000000
 20
0.000000
 30
0.000000
  70
     8
  0
VERTEX
  8
É}ÿg
  5
806
 10
416.004
 20
-365.894
 30
0.000000
  70
    32
  0
VERTEX
  8
É}ÿg
  5
807
 10
416.048
 20
-365.907
 30
0.000000
  70
    32
  0
VERTEX
  8
É}ÿg
  5
808
 10
416.091
 20
-365.919
 30
0.000000
  70
    32
  0
VERTEX
  8
É}ÿg
  5
809
 10
416.135
 20
-365.931
 30
0.000000
  70
    32
  0
VERTEX
  8
É}ÿg
  5
80A
 10
416.179
 20
-365.944
 30
0.000000
  70
    32
  0
VERTEX
  8
É}ÿg
  5
80B
 10
416.223
 20
-365.956
 30
0.000000
  70
    32
  0
VERTEX
  8
É}ÿg
  5
80C
 10
416.267
 20
-365.968
 30
0.000000
  70
    32
  0
VERTEX
  8
É}ÿg
  5
80D
 10
416.311
 20
-365.980
 30
0.000000
  70
    32
  0
VERTEX
  8
É}ÿg
  5
80E
 10
416.355
 20
-365.992
 30
0.000000
  70
    32
  0
VERTEX
  8
É}ÿg
  5
80F
 10
416.399
 20
-366.003
 30
0.000000
  70
    32
  0
VERTEX
  8
É}ÿg
  5
810
 10
416.443
 20
-366.015
 30
0.000000
  70
    32
  0
VERTEX
  8
É}ÿg
  5
811
 10
416.487
 20
-366.027
 30
0.000000
  70
    32
  0
VERTEX
  8
É}ÿg
  5
812
 10
416.531
 20
-366.039
 30
0.000000
  70
    32
  0
VERTEX
  8
É}ÿg
  5
813
 10
416.575
 20
-366.050
 30
0.000000
  70
    32
  0
VERTEX
  8
É}ÿg
  5
814
 10
416.620
 20
-366.062
 30
0.000000
  70
    32
  0
VERTEX
  8
É}ÿg
  5
815
 10
416.664
 20
-366.073
 30
0.000000
  70
    32
  0
VERTEX
  8
É}ÿg
  5
816
 10
416.708
 20
-366.084
 30
0.000000
  70
    32
  0
VERTEX
  8
É}ÿg
  5
817
 10
416.753
 20
-366.096
 30
0.000000
  70
    32
  0
VERTEX
  8
É}ÿg
  5
818
 10
416.797
 20
-366.107
 30
0.000000
  70
    32
  0
VERTEX
  8
É}ÿg
  5
819
 10
416.842
 20
-366.118
 30
0.000000
  70
    32
  0
VERTEX
  8
É}ÿg
  5
81A
 10
416.886
 20
-366.129
 30
0.000000
  70
    32
  0
VERTEX
  8
É}ÿg
  5
81B
 10
416.931
 20
-366.140
 30
0.000000
  70
    32
  0
VERTEX
  8
É}ÿg
  5
81C
 10
416.975
 20
-366.151
 30
0.000000
  70
    32
  0
VERTEX
  8
É}ÿg
  5
81D
 10
417.020
 20
-366.162
 30
0.000000
  70
    32
  0
VERTEX
  8
É}ÿg
  5
81E
 10
417.064
 20
-366.173
 30
0.000000
  70
    32
  0
VERTEX
  8
É}ÿg
  5
81F
 10
417.109
 20
-366.184
 30
0.000000
  70
    32
  0
VERTEX
  8
É}ÿg
  5
820
 10
417.154
 20
-366.195
 30
0.000000
  70
    32
  0
VERTEX
  8
É}ÿg
  5
821
 10
417.199
 20
-366.206
 30
0.000000
  70
    32
  0
VERTEX
  8
É}ÿg
  5
822
 10
417.243
 20
-366.216
 30
0.000000
  70
    32
  0
VERTEX
  8
É}ÿg
  5
823
 10
417.288
 20
-366.227
 30
0.000000
  70
    32
  0
VERTEX
  8
É}ÿg
  5
824
 10
417.333
 20
-366.237
 30
0.000000
  70
    32
  0
VERTEX
  8
É}ÿg
  5
825
 10
417.378
 20
-366.248
 30
0.000000
  70
    32
  0
VERTEX
  8
É}ÿg
  5
826
 10
417.423
 20
-366.258
 30
0.000000
  70
    32
  0
VERTEX
  8
É}ÿg
  5
827
 10
417.468
 20
-366.269
 30
0.000000
  70
    32
  0
VERTEX
  8
É}ÿg
  5
828
 10
417.513
 20
-366.279
 30
0.000000
  70
    32
  0
VERTEX
  8
É}ÿg
  5
829
 10
417.558
 20
-366.289
 30
0.000000
  70
    32
  0
VERTEX
  8
É}ÿg
  5
82A
 10
417.603
 20
-366.300
 30
0.000000
  70
    32
  0
VERTEX
  8
É}ÿg
  5
82B
 10
417.648
 20
-366.310
 30
0.000000
  70
    32
  0
VERTEX
  8
É}ÿg
  5
82C
 10
417.693
 20
-366.320
 30
0.000000
  70
    32
  0
VERTEX
  8
É}ÿg
  5
82D
 10
417.738
 20
-366.330
 30
0.000000
  70
    32
  0
VERTEX
  8
É}ÿg
  5
82E
 10
417.783
 20
-366.340
 30
0.000000
  70
    32
  0
VERTEX
  8
É}ÿg
  5
82F
 10
417.829
 20
-366.350
 30
0.000000
  70
    32
  0
VERTEX
  8
É}ÿg
  5
830
 10
417.874
 20
-366.360
 30
0.000000
  70
    32
  0
VERTEX
  8
É}ÿg
  5
831
 10
417.919
 20
-366.370
 30
0.000000
  70
    32
  0
VERTEX
  8
É}ÿg
  5
832
 10
417.964
 20
-366.380
 30
0.000000
  70
    32
  0
VERTEX
  8
É}ÿg
  5
833
 10
418.010
 20
-366.389
 30
0.000000
  70
    32
  0
VERTEX
  8
É}ÿg
  5
834
 10
418.055
 20
-366.399
 30
0.000000
  70
    32
  0
VERTEX
  8
É}ÿg
  5
835
 10
418.100
 20
-366.409
 30
0.000000
  70
    32
  0
VERTEX
  8
É}ÿg
  5
836
 10
418.146
 20
-366.418
 30
0.000000
  70
    32
  0
VERTEX
  8
É}ÿg
  5
837
 10
418.191
 20
-366.428
 30
0.000000
  70
    32
  0
VERTEX
  8
É}ÿg
  5
838
 10
418.237
 20
-366.438
 30
0.000000
  70
    32
  0
VERTEX
  8
É}ÿg
  5
839
 10
418.282
 20
-366.447
 30
0.000000
  70
    32
  0
VERTEX
  8
É}ÿg
  5
83A
 10
418.328
 20
-366.457
 30
0.000000
  70
    32
  0
VERTEX
  8
É}ÿg
  5
83B
 10
418.373
 20
-366.466
 30
0.000000
  70
    32
  0
VERTEX
  8
É}ÿg
  5
83C
 10
418.419
 20
-366.475
 30
0.000000
  70
    32
  0
VERTEX
  8
É}ÿg
  5
83D
 10
418.464
 20
-366.485
 30
0.000000
  70
    32
  0
VERTEX
  8
É}ÿg
  5
83E
 10
418.510
 20
-366.494
 30
0.000000
  70
    32
  0
VERTEX
  8
É}ÿg
  5
83F
 10
418.556
 20
-366.503
 30
0.000000
  70
    32
  0
VERTEX
  8
É}ÿg
  5
840
 10
418.601
 20
-366.513
 30
0.000000
  70
    32
  0
VERTEX
  8
É}ÿg
  5
841
 10
418.647
 20
-366.522
 30
0.000000
  70
    32
  0
VERTEX
  8
É}ÿg
  5
842
 10
418.693
 20
-366.531
 30
0.000000
  70
    32
  0
VERTEX
  8
É}ÿg
  5
843
 10
418.739
 20
-366.540
 30
0.000000
  70
    32
  0
VERTEX
  8
É}ÿg
  5
844
 10
418.784
 20
-366.549
 30
0.000000
  70
    32
  0
VERTEX
  8
É}ÿg
  5
845
 10
418.830
 20
-366.558
 30
0.000000
  70
    32
  0
VERTEX
  8
É}ÿg
  5
846
 10
418.876
 20
-366.567
 30
0.000000
  70
    32
  0
VERTEX
  8
É}ÿg
  5
847
 10
418.922
 20
-366.576
 30
0.000000
  70
    32
  0
VERTEX
  8
É}ÿg
  5
848
 10
418.968
 20
-366.585
 30
0.000000
  70
    32
  0
VERTEX
  8
É}ÿg
  5
849
 10
419.014
 20
-366.594
 30
0.000000
  70
    32
  0
VERTEX
  8
É}ÿg
  5
84A
 10
419.059
 20
-366.603
 30
0.000000
  70
    32
  0
VERTEX
  8
É}ÿg
  5
84B
 10
419.105
 20
-366.612
 30
0.000000
  70
    32
  0
VERTEX
  8
É}ÿg
  5
84C
 10
419.151
 20
-366.620
 30
0.000000
  70
    32
  0
VERTEX
  8
É}ÿg
  5
84D
 10
419.197
 20
-366.629
 30
0.000000
  70
    32
  0
VERTEX
  8
É}ÿg
  5
84E
 10
419.243
 20
-366.638
 30
0.000000
  70
    32
  0
VERTEX
  8
É}ÿg
  5
84F
 10
419.289
 20
-366.647
 30
0.000000
  70
    32
  0
VERTEX
  8
É}ÿg
  5
850
 10
419.335
 20
-366.655
 30
0.000000
  70
    32
  0
VERTEX
  8
É}ÿg
  5
851
 10
419.381
 20
-366.664
 30
0.000000
  70
    32
  0
VERTEX
  8
É}ÿg
  5
852
 10
419.427
 20
-366.672
 30
0.000000
  70
    32
  0
VERTEX
  8
É}ÿg
  5
853
 10
419.473
 20
-366.681
 30
0.000000
  70
    32
  0
VERTEX
  8
É}ÿg
  5
854
 10
419.520
 20
-366.690
 30
0.000000
  70
    32
  0
VERTEX
  8
É}ÿg
  5
855
 10
419.566
 20
-366.698
 30
0.000000
  70
    32
  0
VERTEX
  8
É}ÿg
  5
856
 10
419.612
 20
-366.707
 30
0.000000
  70
    32
  0
VERTEX
  8
É}ÿg
  5
857
 10
419.658
 20
-366.715
 30
0.000000
  70
    32
  0
VERTEX
  8
É}ÿg
  5
858
 10
419.704
 20
-366.723
 30
0.000000
  70
    32
  0
VERTEX
  8
É}ÿg
  5
859
 10
419.750
 20
-366.732
 30
0.000000
  70
    32
  0
VERTEX
  8
É}ÿg
  5
85A
 10
419.796
 20
-366.740
 30
0.000000
  70
    32
  0
VERTEX
  8
É}ÿg
  5
85B
 10
419.843
 20
-366.749
 30
0.000000
  70
    32
  0
VERTEX
  8
É}ÿg
  5
85C
 10
419.889
 20
-366.757
 30
0.000000
  70
    32
  0
VERTEX
  8
É}ÿg
  5
85D
 10
419.935
 20
-366.765
 30
0.000000
  70
    32
  0
VERTEX
  8
É}ÿg
  5
85E
 10
419.981
 20
-366.774
 30
0.000000
  70
    32
  0
VERTEX
  8
É}ÿg
  5
85F
 10
420.028
 20
-366.782
 30
0.000000
  70
    32
  0
VERTEX
  8
É}ÿg
  5
860
 10
420.074
 20
-366.790
 30
0.000000
  70
    32
  0
VERTEX
  8
É}ÿg
  5
861
 10
420.120
 20
-366.798
 30
0.000000
  70
    32
  0
VERTEX
  8
É}ÿg
  5
862
 10
420.166
 20
-366.807
 30
0.000000
  70
    32
  0
VERTEX
  8
É}ÿg
  5
863
 10
420.213
 20
-366.815
 30
0.000000
  70
    32
  0
VERTEX
  8
É}ÿg
  5
864
 10
420.259
 20
-366.823
 30
0.000000
  70
    32
  0
VERTEX
  8
É}ÿg
  5
865
 10
420.305
 20
-366.831
 30
0.000000
  70
    32
  0
VERTEX
  8
É}ÿg
  5
866
 10
420.352
 20
-366.839
 30
0.000000
  70
    32
  0
VERTEX
  8
É}ÿg
  5
867
 10
420.398
 20
-366.847
 30
0.000000
  70
    32
  0
VERTEX
  8
É}ÿg
  5
868
 10
420.445
 20
-366.855
 30
0.000000
  70
    32
  0
VERTEX
  8
É}ÿg
  5
869
 10
420.491
 20
-366.864
 30
0.000000
  70
    32
  0
VERTEX
  8
É}ÿg
  5
86A
 10
420.537
 20
-366.872
 30
0.000000
  70
    32
  0
VERTEX
  8
É}ÿg
  5
86B
 10
420.584
 20
-366.880
 30
0.000000
  70
    32
  0
VERTEX
  8
É}ÿg
  5
86C
 10
420.630
 20
-366.888
 30
0.000000
  70
    32
  0
VERTEX
  8
É}ÿg
  5
86D
 10
420.677
 20
-366.896
 30
0.000000
  70
    32
  0
VERTEX
  8
É}ÿg
  5
86E
 10
420.723
 20
-366.904
 30
0.000000
  70
    32
  0
VERTEX
  8
É}ÿg
  5
86F
 10
420.769
 20
-366.912
 30
0.000000
  70
    32
  0
VERTEX
  8
É}ÿg
  5
870
 10
420.816
 20
-366.920
 30
0.000000
  70
    32
  0
VERTEX
  8
É}ÿg
  5
871
 10
420.862
 20
-366.928
 30
0.000000
  70
    32
  0
VERTEX
  8
É}ÿg
  5
872
 10
420.909
 20
-366.936
 30
0.000000
  70
    32
  0
VERTEX
  8
É}ÿg
  5
873
 10
420.955
 20
-366.944
 30
0.000000
  70
    32
  0
VERTEX
  8
É}ÿg
  5
874
 10
421.002
 20
-366.952
 30
0.000000
  70
    32
  0
VERTEX
  8
É}ÿg
  5
875
 10
421.048
 20
-366.960
 30
0.000000
  70
    32
  0
VERTEX
  8
É}ÿg
  5
876
 10
421.095
 20
-366.967
 30
0.000000
  70
    32
  0
VERTEX
  8
É}ÿg
  5
877
 10
421.141
 20
-366.975
 30
0.000000
  70
    32
  0
VERTEX
  8
É}ÿg
  5
878
 10
421.188
 20
-366.983
 30
0.000000
  70
    32
  0
VERTEX
  8
É}ÿg
  5
879
 10
421.234
 20
-366.991
 30
0.000000
  70
    32
  0
VERTEX
  8
É}ÿg
  5
87A
 10
421.281
 20
-366.999
 30
0.000000
  70
    32
  0
VERTEX
  8
É}ÿg
  5
87B
 10
421.327
 20
-367.007
 30
0.000000
  70
    32
  0
VERTEX
  8
É}ÿg
  5
87C
 10
421.374
 20
-367.015
 30
0.000000
  70
    32
  0
VERTEX
  8
É}ÿg
  5
87D
 10
421.420
 20
-367.023
 30
0.000000
  70
    32
  0
VERTEX
  8
É}ÿg
  5
87E
 10
421.467
 20
-367.031
 30
0.000000
  70
    32
  0
VERTEX
  8
É}ÿg
  5
87F
 10
421.513
 20
-367.039
 30
0.000000
  70
    32
  0
VERTEX
  8
É}ÿg
  5
880
 10
421.560
 20
-367.046
 30
0.000000
  70
    32
  0
VERTEX
  8
É}ÿg
  5
881
 10
421.606
 20
-367.054
 30
0.000000
  70
    32
  0
VERTEX
  8
É}ÿg
  5
882
 10
421.653
 20
-367.062
 30
0.000000
  70
    32
  0
VERTEX
  8
É}ÿg
  5
883
 10
421.699
 20
-367.070
 30
0.000000
  70
    32
  0
VERTEX
  8
É}ÿg
  5
884
 10
421.746
 20
-367.078
 30
0.000000
  70
    32
  0
VERTEX
  8
É}ÿg
  5
885
 10
421.792
 20
-367.086
 30
0.000000
  70
    32
  0
SEQEND
  8
É}ÿg
  5
886
  0
POLYLINE
  8
É}ÿg
  5
887
  66
     1
 10
0.000000
 20
0.000000
 30
0.000000
  70
     8
  0
VERTEX
  8
É}ÿg
  5
888
 10
407.878
 20
-360.555
 30
0.000000
  70
    32
  0
VERTEX
  8
É}ÿg
  5
889
 10
407.895
 20
-360.574
 30
0.000000
  70
    32
  0
VERTEX
  8
É}ÿg
  5
88A
 10
407.911
 20
-360.592
 30
0.000000
  70
    32
  0
VERTEX
  8
É}ÿg
  5
88B
 10
407.928
 20
-360.610
 30
0.000000
  70
    32
  0
VERTEX
  8
É}ÿg
  5
88C
 10
407.944
 20
-360.629
 30
0.000000
  70
    32
  0
VERTEX
  8
É}ÿg
  5
88D
 10
407.961
 20
-360.647
 30
0.000000
  70
    32
  0
VERTEX
  8
É}ÿg
  5
88E
 10
407.977
 20
-360.666
 30
0.000000
  70
    32
  0
VERTEX
  8
É}ÿg
  5
88F
 10
407.994
 20
-360.684
 30
0.000000
  70
    32
  0
VERTEX
  8
É}ÿg
  5
890
 10
408.010
 20
-360.702
 30
0.000000
  70
    32
  0
VERTEX
  8
É}ÿg
  5
891
 10
408.027
 20
-360.721
 30
0.000000
  70
    32
  0
VERTEX
  8
É}ÿg
  5
892
 10
408.043
 20
-360.739
 30
0.000000
  70
    32
  0
VERTEX
  8
É}ÿg
  5
893
 10
408.060
 20
-360.757
 30
0.000000
  70
    32
  0
VERTEX
  8
É}ÿg
  5
894
 10
408.076
 20
-360.776
 30
0.000000
  70
    32
  0
VERTEX
  8
É}ÿg
  5
895
 10
408.093
 20
-360.794
 30
0.000000
  70
    32
  0
VERTEX
  8
É}ÿg
  5
896
 10
408.109
 20
-360.813
 30
0.000000
  70
    32
  0
VERTEX
  8
É}ÿg
  5
897
 10
408.126
 20
-360.831
 30
0.000000
  70
    32
  0
VERTEX
  8
É}ÿg
  5
898
 10
408.142
 20
-360.849
 30
0.000000
  70
    32
  0
VERTEX
  8
É}ÿg
  5
899
 10
408.159
 20
-360.868
 30
0.000000
  70
    32
  0
VERTEX
  8
É}ÿg
  5
89A
 10
408.175
 20
-360.886
 30
0.000000
  70
    32
  0
VERTEX
  8
É}ÿg
  5
89B
 10
408.192
 20
-360.904
 30
0.000000
  70
    32
  0
VERTEX
  8
É}ÿg
  5
89C
 10
408.208
 20
-360.923
 30
0.000000
  70
    32
  0
VERTEX
  8
É}ÿg
  5
89D
 10
408.225
 20
-360.941
 30
0.000000
  70
    32
  0
VERTEX
  8
É}ÿg
  5
89E
 10
408.241
 20
-360.959
 30
0.000000
  70
    32
  0
VERTEX
  8
É}ÿg
  5
89F
 10
408.258
 20
-360.978
 30
0.000000
  70
    32
  0
VERTEX
  8
É}ÿg
  5
8A0
 10
408.274
 20
-360.996
 30
0.000000
  70
    32
  0
VERTEX
  8
É}ÿg
  5
8A1
 10
408.291
 20
-361.014
 30
0.000000
  70
    32
  0
VERTEX
  8
É}ÿg
  5
8A2
 10
408.308
 20
-361.033
 30
0.000000
  70
    32
  0
VERTEX
  8
É}ÿg
  5
8A3
 10
408.324
 20
-361.051
 30
0.000000
  70
    32
  0
VERTEX
  8
É}ÿg
  5
8A4
 10
408.341
 20
-361.069
 30
0.000000
  70
    32
  0
VERTEX
  8
É}ÿg
  5
8A5
 10
408.357
 20
-361.088
 30
0.000000
  70
    32
  0
VERTEX
  8
É}ÿg
  5
8A6
 10
408.374
 20
-361.106
 30
0.000000
  70
    32
  0
VERTEX
  8
É}ÿg
  5
8A7
 10
408.390
 20
-361.124
 30
0.000000
  70
    32
  0
VERTEX
  8
É}ÿg
  5
8A8
 10
408.407
 20
-361.142
 30
0.000000
  70
    32
  0
VERTEX
  8
É}ÿg
  5
8A9
 10
408.424
 20
-361.161
 30
0.000000
  70
    32
  0
VERTEX
  8
É}ÿg
  5
8AA
 10
408.440
 20
-361.179
 30
0.000000
  70
    32
  0
VERTEX
  8
É}ÿg
  5
8AB
 10
408.457
 20
-361.197
 30
0.000000
  70
    32
  0
VERTEX
  8
É}ÿg
  5
8AC
 10
408.473
 20
-361.215
 30
0.000000
  70
    32
  0
VERTEX
  8
É}ÿg
  5
8AD
 10
408.490
 20
-361.233
 30
0.000000
  70
    32
  0
VERTEX
  8
É}ÿg
  5
8AE
 10
408.507
 20
-361.252
 30
0.000000
  70
    32
  0
VERTEX
  8
É}ÿg
  5
8AF
 10
408.523
 20
-361.270
 30
0.000000
  70
    32
  0
VERTEX
  8
É}ÿg
  5
8B0
 10
408.540
 20
-361.288
 30
0.000000
  70
    32
  0
VERTEX
  8
É}ÿg
  5
8B1
 10
408.556
 20
-361.306
 30
0.000000
  70
    32
  0
VERTEX
  8
É}ÿg
  5
8B2
 10
408.573
 20
-361.324
 30
0.000000
  70
    32
  0
VERTEX
  8
É}ÿg
  5
8B3
 10
408.590
 20
-361.343
 30
0.000000
  70
    32
  0
VERTEX
  8
É}ÿg
  5
8B4
 10
408.606
 20
-361.361
 30
0.000000
  70
    32
  0
VERTEX
  8
É}ÿg
  5
8B5
 10
408.623
 20
-361.379
 30
0.000000
  70
    32
  0
VERTEX
  8
É}ÿg
  5
8B6
 10
408.640
 20
-361.397
 30
0.000000
  70
    32
  0
VERTEX
  8
É}ÿg
  5
8B7
 10
408.656
 20
-361.415
 30
0.000000
  70
    32
  0
VERTEX
  8
É}ÿg
  5
8B8
 10
408.673
 20
-361.433
 30
0.000000
  70
    32
  0
VERTEX
  8
É}ÿg
  5
8B9
 10
408.690
 20
-361.451
 30
0.000000
  70
    32
  0
VERTEX
  8
É}ÿg
  5
8BA
 10
408.707
 20
-361.469
 30
0.000000
  70
    32
  0
VERTEX
  8
É}ÿg
  5
8BB
 10
408.723
 20
-361.487
 30
0.000000
  70
    32
  0
VERTEX
  8
É}ÿg
  5
8BC
 10
408.740
 20
-361.505
 30
0.000000
  70
    32
  0
VERTEX
  8
É}ÿg
  5
8BD
 10
408.757
 20
-361.523
 30
0.000000
  70
    32
  0
VERTEX
  8
É}ÿg
  5
8BE
 10
408.773
 20
-361.541
 30
0.000000
  70
    32
  0
VERTEX
  8
É}ÿg
  5
8BF
 10
408.790
 20
-361.559
 30
0.000000
  70
    32
  0
VERTEX
  8
É}ÿg
  5
8C0
 10
408.807
 20
-361.577
 30
0.000000
  70
    32
  0
VERTEX
  8
É}ÿg
  5
8C1
 10
408.824
 20
-361.595
 30
0.000000
  70
    32
  0
VERTEX
  8
É}ÿg
  5
8C2
 10
408.841
 20
-361.613
 30
0.000000
  70
    32
  0
VERTEX
  8
É}ÿg
  5
8C3
 10
408.857
 20
-361.631
 30
0.000000
  70
    32
  0
VERTEX
  8
É}ÿg
  5
8C4
 10
408.874
 20
-361.649
 30
0.000000
  70
    32
  0
VERTEX
  8
É}ÿg
  5
8C5
 10
408.891
 20
-361.667
 30
0.000000
  70
    32
  0
VERTEX
  8
É}ÿg
  5
8C6
 10
408.908
 20
-361.685
 30
0.000000
  70
    32
  0
VERTEX
  8
É}ÿg
  5
8C7
 10
408.925
 20
-361.703
 30
0.000000
  70
    32
  0
VERTEX
  8
É}ÿg
  5
8C8
 10
408.941
 20
-361.720
 30
0.000000
  70
    32
  0
VERTEX
  8
É}ÿg
  5
8C9
 10
408.958
 20
-361.738
 30
0.000000
  70
    32
  0
VERTEX
  8
É}ÿg
  5
8CA
 10
408.975
 20
-361.756
 30
0.000000
  70
    32
  0
VERTEX
  8
É}ÿg
  5
8CB
 10
408.992
 20
-361.774
 30
0.000000
  70
    32
  0
VERTEX
  8
É}ÿg
  5
8CC
 10
409.009
 20
-361.792
 30
0.000000
  70
    32
  0
VERTEX
  8
É}ÿg
  5
8CD
 10
409.026
 20
-361.809
 30
0.000000
  70
    32
  0
VERTEX
  8
É}ÿg
  5
8CE
 10
409.043
 20
-361.827
 30
0.000000
  70
    32
  0
VERTEX
  8
É}ÿg
  5
8CF
 10
409.060
 20
-361.845
 30
0.000000
  70
    32
  0
VERTEX
  8
É}ÿg
  5
8D0
 10
409.077
 20
-361.863
 30
0.000000
  70
    32
  0
VERTEX
  8
É}ÿg
  5
8D1
 10
409.094
 20
-361.880
 30
0.000000
  70
    32
  0
VERTEX
  8
É}ÿg
  5
8D2
 10
409.110
 20
-361.898
 30
0.000000
  70
    32
  0
VERTEX
  8
É}ÿg
  5
8D3
 10
409.127
 20
-361.916
 30
0.000000
  70
    32
  0
VERTEX
  8
É}ÿg
  5
8D4
 10
409.144
 20
-361.933
 30
0.000000
  70
    32
  0
VERTEX
  8
É}ÿg
  5
8D5
 10
409.161
 20
-361.951
 30
0.000000
  70
    32
  0
VERTEX
  8
É}ÿg
  5
8D6
 10
409.178
 20
-361.968
 30
0.000000
  70
    32
  0
VERTEX
  8
É}ÿg
  5
8D7
 10
409.195
 20
-361.986
 30
0.000000
  70
    32
  0
VERTEX
  8
É}ÿg
  5
8D8
 10
409.213
 20
-362.003
 30
0.000000
  70
    32
  0
VERTEX
  8
É}ÿg
  5
8D9
 10
409.230
 20
-362.021
 30
0.000000
  70
    32
  0
VERTEX
  8
É}ÿg
  5
8DA
 10
409.247
 20
-362.038
 30
0.000000
  70
    32
  0
VERTEX
  8
É}ÿg
  5
8DB
 10
409.264
 20
-362.056
 30
0.000000
  70
    32
  0
VERTEX
  8
É}ÿg
  5
8DC
 10
409.281
 20
-362.073
 30
0.000000
  70
    32
  0
VERTEX
  8
É}ÿg
  5
8DD
 10
409.298
 20
-362.091
 30
0.000000
  70
    32
  0
VERTEX
  8
É}ÿg
  5
8DE
 10
409.315
 20
-362.108
 30
0.000000
  70
    32
  0
VERTEX
  8
É}ÿg
  5
8DF
 10
409.332
 20
-362.125
 30
0.000000
  70
    32
  0
VERTEX
  8
É}ÿg
  5
8E0
 10
409.349
 20
-362.143
 30
0.000000
  70
    32
  0
VERTEX
  8
É}ÿg
  5
8E1
 10
409.366
 20
-362.160
 30
0.000000
  70
    32
  0
VERTEX
  8
É}ÿg
  5
8E2
 10
409.384
 20
-362.177
 30
0.000000
  70
    32
  0
VERTEX
  8
É}ÿg
  5
8E3
 10
409.401
 20
-362.195
 30
0.000000
  70
    32
  0
VERTEX
  8
É}ÿg
  5
8E4
 10
409.418
 20
-362.212
 30
0.000000
  70
    32
  0
VERTEX
  8
É}ÿg
  5
8E5
 10
409.435
 20
-362.229
 30
0.000000
  70
    32
  0
VERTEX
  8
É}ÿg
  5
8E6
 10
409.453
 20
-362.246
 30
0.000000
  70
    32
  0
VERTEX
  8
É}ÿg
  5
8E7
 10
409.470
 20
-362.264
 30
0.000000
  70
    32
  0
VERTEX
  8
É}ÿg
  5
8E8
 10
409.487
 20
-362.281
 30
0.000000
  70
    32
  0
VERTEX
  8
É}ÿg
  5
8E9
 10
409.504
 20
-362.298
 30
0.000000
  70
    32
  0
VERTEX
  8
É}ÿg
  5
8EA
 10
409.522
 20
-362.315
 30
0.000000
  70
    32
  0
VERTEX
  8
É}ÿg
  5
8EB
 10
409.539
 20
-362.332
 30
0.000000
  70
    32
  0
VERTEX
  8
É}ÿg
  5
8EC
 10
409.556
 20
-362.349
 30
0.000000
  70
    32
  0
VERTEX
  8
É}ÿg
  5
8ED
 10
409.574
 20
-362.366
 30
0.000000
  70
    32
  0
VERTEX
  8
É}ÿg
  5
8EE
 10
409.591
 20
-362.383
 30
0.000000
  70
    32
  0
VERTEX
  8
É}ÿg
  5
8EF
 10
409.608
 20
-362.400
 30
0.000000
  70
    32
  0
VERTEX
  8
É}ÿg
  5
8F0
 10
409.626
 20
-362.417
 30
0.000000
  70
    32
  0
VERTEX
  8
É}ÿg
  5
8F1
 10
409.643
 20
-362.434
 30
0.000000
  70
    32
  0
VERTEX
  8
É}ÿg
  5
8F2
 10
409.661
 20
-362.451
 30
0.000000
  70
    32
  0
VERTEX
  8
É}ÿg
  5
8F3
 10
409.678
 20
-362.467
 30
0.000000
  70
    32
  0
VERTEX
  8
É}ÿg
  5
8F4
 10
409.696
 20
-362.484
 30
0.000000
  70
    32
  0
VERTEX
  8
É}ÿg
  5
8F5
 10
409.713
 20
-362.501
 30
0.000000
  70
    32
  0
VERTEX
  8
É}ÿg
  5
8F6
 10
409.731
 20
-362.518
 30
0.000000
  70
    32
  0
VERTEX
  8
É}ÿg
  5
8F7
 10
409.748
 20
-362.535
 30
0.000000
  70
    32
  0
VERTEX
  8
É}ÿg
  5
8F8
 10
409.766
 20
-362.551
 30
0.000000
  70
    32
  0
VERTEX
  8
É}ÿg
  5
8F9
 10
409.783
 20
-362.568
 30
0.000000
  70
    32
  0
VERTEX
  8
É}ÿg
  5
8FA
 10
409.801
 20
-362.584
 30
0.000000
  70
    32
  0
VERTEX
  8
É}ÿg
  5
8FB
 10
409.819
 20
-362.601
 30
0.000000
  70
    32
  0
VERTEX
  8
É}ÿg
  5
8FC
 10
409.836
 20
-362.618
 30
0.000000
  70
    32
  0
VERTEX
  8
É}ÿg
  5
8FD
 10
409.854
 20
-362.634
 30
0.000000
  70
    32
  0
VERTEX
  8
É}ÿg
  5
8FE
 10
409.872
 20
-362.651
 30
0.000000
  70
    32
  0
VERTEX
  8
É}ÿg
  5
8FF
 10
409.889
 20
-362.667
 30
0.000000
  70
    32
  0
VERTEX
  8
É}ÿg
  5
900
 10
409.907
 20
-362.684
 30
0.000000
  70
    32
  0
VERTEX
  8
É}ÿg
  5
901
 10
409.925
 20
-362.700
 30
0.000000
  70
    32
  0
VERTEX
  8
É}ÿg
  5
902
 10
409.943
 20
-362.716
 30
0.000000
  70
    32
  0
VERTEX
  8
É}ÿg
  5
903
 10
409.960
 20
-362.733
 30
0.000000
  70
    32
  0
VERTEX
  8
É}ÿg
  5
904
 10
409.978
 20
-362.749
 30
0.000000
  70
    32
  0
VERTEX
  8
É}ÿg
  5
905
 10
409.996
 20
-362.765
 30
0.000000
  70
    32
  0
VERTEX
  8
É}ÿg
  5
906
 10
410.014
 20
-362.781
 30
0.000000
  70
    32
  0
VERTEX
  8
É}ÿg
  5
907
 10
410.032
 20
-362.798
 30
0.000000
  70
    32
  0
SEQEND
  8
É}ÿg
  5
908
  0
POLYLINE
  8
É}ÿg
  5
909
  66
     1
 10
0.000000
 20
0.000000
 30
0.000000
  70
     8
  0
VERTEX
  8
É}ÿg
  5
90A
 10
412.939
 20
-368.676
 30
0.000000
  70
    32
  0
VERTEX
  8
É}ÿg
  5
90B
 10
413.007
 20
-368.698
 30
0.000000
  70
    32
  0
VERTEX
  8
É}ÿg
  5
90C
 10
413.074
 20
-368.719
 30
0.000000
  70
    32
  0
VERTEX
  8
É}ÿg
  5
90D
 10
413.141
 20
-368.741
 30
0.000000
  70
    32
  0
VERTEX
  8
É}ÿg
  5
90E
 10
413.209
 20
-368.762
 30
0.000000
  70
    32
  0
VERTEX
  8
É}ÿg
  5
90F
 10
413.276
 20
-368.783
 30
0.000000
  70
    32
  0
VERTEX
  8
É}ÿg
  5
910
 10
413.344
 20
-368.804
 30
0.000000
  70
    32
  0
VERTEX
  8
É}ÿg
  5
911
 10
413.412
 20
-368.825
 30
0.000000
  70
    32
  0
VERTEX
  8
É}ÿg
  5
912
 10
413.479
 20
-368.845
 30
0.000000
  70
    32
  0
VERTEX
  8
É}ÿg
  5
913
 10
413.547
 20
-368.866
 30
0.000000
  70
    32
  0
VERTEX
  8
É}ÿg
  5
914
 10
413.615
 20
-368.886
 30
0.000000
  70
    32
  0
VERTEX
  8
É}ÿg
  5
915
 10
413.683
 20
-368.907
 30
0.000000
  70
    32
  0
VERTEX
  8
É}ÿg
  5
916
 10
413.751
 20
-368.927
 30
0.000000
  70
    32
  0
VERTEX
  8
É}ÿg
  5
917
 10
413.818
 20
-368.947
 30
0.000000
  70
    32
  0
VERTEX
  8
É}ÿg
  5
918
 10
413.886
 20
-368.968
 30
0.000000
  70
    32
  0
VERTEX
  8
É}ÿg
  5
919
 10
413.955
 20
-368.988
 30
0.000000
  70
    32
  0
VERTEX
  8
É}ÿg
  5
91A
 10
414.023
 20
-369.008
 30
0.000000
  70
    32
  0
VERTEX
  8
É}ÿg
  5
91B
 10
414.091
 20
-369.028
 30
0.000000
  70
    32
  0
VERTEX
  8
É}ÿg
  5
91C
 10
414.159
 20
-369.047
 30
0.000000
  70
    32
  0
VERTEX
  8
É}ÿg
  5
91D
 10
414.227
 20
-369.067
 30
0.000000
  70
    32
  0
VERTEX
  8
É}ÿg
  5
91E
 10
414.296
 20
-369.087
 30
0.000000
  70
    32
  0
VERTEX
  8
É}ÿg
  5
91F
 10
414.364
 20
-369.106
 30
0.000000
  70
    32
  0
VERTEX
  8
É}ÿg
  5
920
 10
414.432
 20
-369.125
 30
0.000000
  70
    32
  0
VERTEX
  8
É}ÿg
  5
921
 10
414.501
 20
-369.145
 30
0.000000
  70
    32
  0
VERTEX
  8
É}ÿg
  5
922
 10
414.569
 20
-369.164
 30
0.000000
  70
    32
  0
VERTEX
  8
É}ÿg
  5
923
 10
414.638
 20
-369.183
 30
0.000000
  70
    32
  0
VERTEX
  8
É}ÿg
  5
924
 10
414.706
 20
-369.202
 30
0.000000
  70
    32
  0
VERTEX
  8
É}ÿg
  5
925
 10
414.775
 20
-369.221
 30
0.000000
  70
    32
  0
VERTEX
  8
É}ÿg
  5
926
 10
414.844
 20
-369.240
 30
0.000000
  70
    32
  0
VERTEX
  8
É}ÿg
  5
927
 10
414.912
 20
-369.259
 30
0.000000
  70
    32
  0
VERTEX
  8
É}ÿg
  5
928
 10
414.981
 20
-369.278
 30
0.000000
  70
    32
  0
VERTEX
  8
É}ÿg
  5
929
 10
415.050
 20
-369.296
 30
0.000000
  70
    32
  0
VERTEX
  8
É}ÿg
  5
92A
 10
415.119
 20
-369.315
 30
0.000000
  70
    32
  0
VERTEX
  8
É}ÿg
  5
92B
 10
415.188
 20
-369.333
 30
0.000000
  70
    32
  0
VERTEX
  8
É}ÿg
  5
92C
 10
415.257
 20
-369.352
 30
0.000000
  70
    32
  0
VERTEX
  8
É}ÿg
  5
92D
 10
415.326
 20
-369.370
 30
0.000000
  70
    32
  0
VERTEX
  8
É}ÿg
  5
92E
 10
415.395
 20
-369.388
 30
0.000000
  70
    32
  0
VERTEX
  8
É}ÿg
  5
92F
 10
415.464
 20
-369.407
 30
0.000000
  70
    32
  0
VERTEX
  8
É}ÿg
  5
930
 10
415.533
 20
-369.425
 30
0.000000
  70
    32
  0
VERTEX
  8
É}ÿg
  5
931
 10
415.602
 20
-369.443
 30
0.000000
  70
    32
  0
VERTEX
  8
É}ÿg
  5
932
 10
415.671
 20
-369.461
 30
0.000000
  70
    32
  0
VERTEX
  8
É}ÿg
  5
933
 10
415.741
 20
-369.479
 30
0.000000
  70
    32
  0
VERTEX
  8
É}ÿg
  5
934
 10
415.810
 20
-369.496
 30
0.000000
  70
    32
  0
VERTEX
  8
É}ÿg
  5
935
 10
415.879
 20
-369.514
 30
0.000000
  70
    32
  0
VERTEX
  8
É}ÿg
  5
936
 10
415.948
 20
-369.532
 30
0.000000
  70
    32
  0
VERTEX
  8
É}ÿg
  5
937
 10
416.018
 20
-369.549
 30
0.000000
  70
    32
  0
VERTEX
  8
É}ÿg
  5
938
 10
416.087
 20
-369.567
 30
0.000000
  70
    32
  0
VERTEX
  8
É}ÿg
  5
939
 10
416.157
 20
-369.584
 30
0.000000
  70
    32
  0
VERTEX
  8
É}ÿg
  5
93A
 10
416.226
 20
-369.602
 30
0.000000
  70
    32
  0
VERTEX
  8
É}ÿg
  5
93B
 10
416.296
 20
-369.619
 30
0.000000
  70
    32
  0
VERTEX
  8
É}ÿg
  5
93C
 10
416.365
 20
-369.636
 30
0.000000
  70
    32
  0
VERTEX
  8
É}ÿg
  5
93D
 10
416.435
 20
-369.654
 30
0.000000
  70
    32
  0
VERTEX
  8
É}ÿg
  5
93E
 10
416.505
 20
-369.671
 30
0.000000
  70
    32
  0
VERTEX
  8
É}ÿg
  5
93F
 10
416.574
 20
-369.688
 30
0.000000
  70
    32
  0
VERTEX
  8
É}ÿg
  5
940
 10
416.644
 20
-369.705
 30
0.000000
  70
    32
  0
VERTEX
  8
É}ÿg
  5
941
 10
416.714
 20
-369.722
 30
0.000000
  70
    32
  0
VERTEX
  8
É}ÿg
  5
942
 10
416.783
 20
-369.739
 30
0.000000
  70
    32
  0
VERTEX
  8
É}ÿg
  5
943
 10
416.853
 20
-369.756
 30
0.000000
  70
    32
  0
VERTEX
  8
É}ÿg
  5
944
 10
416.923
 20
-369.772
 30
0.000000
  70
    32
  0
VERTEX
  8
É}ÿg
  5
945
 10
416.993
 20
-369.789
 30
0.000000
  70
    32
  0
VERTEX
  8
É}ÿg
  5
946
 10
417.063
 20
-369.806
 30
0.000000
  70
    32
  0
VERTEX
  8
É}ÿg
  5
947
 10
417.133
 20
-369.822
 30
0.000000
  70
    32
  0
VERTEX
  8
É}ÿg
  5
948
 10
417.203
 20
-369.839
 30
0.000000
  70
    32
  0
VERTEX
  8
É}ÿg
  5
949
 10
417.273
 20
-369.855
 30
0.000000
  70
    32
  0
VERTEX
  8
É}ÿg
  5
94A
 10
417.343
 20
-369.872
 30
0.000000
  70
    32
  0
VERTEX
  8
É}ÿg
  5
94B
 10
417.413
 20
-369.888
 30
0.000000
  70
    32
  0
VERTEX
  8
É}ÿg
  5
94C
 10
417.483
 20
-369.904
 30
0.000000
  70
    32
  0
VERTEX
  8
É}ÿg
  5
94D
 10
417.553
 20
-369.921
 30
0.000000
  70
    32
  0
VERTEX
  8
É}ÿg
  5
94E
 10
417.623
 20
-369.937
 30
0.000000
  70
    32
  0
VERTEX
  8
É}ÿg
  5
94F
 10
417.693
 20
-369.953
 30
0.000000
  70
    32
  0
VERTEX
  8
É}ÿg
  5
950
 10
417.763
 20
-369.969
 30
0.000000
  70
    32
  0
VERTEX
  8
É}ÿg
  5
951
 10
417.834
 20
-369.985
 30
0.000000
  70
    32
  0
VERTEX
  8
É}ÿg
  5
952
 10
417.904
 20
-370.001
 30
0.000000
  70
    32
  0
VERTEX
  8
É}ÿg
  5
953
 10
417.974
 20
-370.017
 30
0.000000
  70
    32
  0
VERTEX
  8
É}ÿg
  5
954
 10
418.044
 20
-370.033
 30
0.000000
  70
    32
  0
VERTEX
  8
É}ÿg
  5
955
 10
418.115
 20
-370.049
 30
0.000000
  70
    32
  0
VERTEX
  8
É}ÿg
  5
956
 10
418.185
 20
-370.065
 30
0.000000
  70
    32
  0
VERTEX
  8
É}ÿg
  5
957
 10
418.255
 20
-370.081
 30
0.000000
  70
    32
  0
VERTEX
  8
É}ÿg
  5
958
 10
418.326
 20
-370.097
 30
0.000000
  70
    32
  0
VERTEX
  8
É}ÿg
  5
959
 10
418.396
 20
-370.112
 30
0.000000
  70
    32
  0
VERTEX
  8
É}ÿg
  5
95A
 10
418.467
 20
-370.128
 30
0.000000
  70
    32
  0
VERTEX
  8
É}ÿg
  5
95B
 10
418.537
 20
-370.144
 30
0.000000
  70
    32
  0
VERTEX
  8
É}ÿg
  5
95C
 10
418.607
 20
-370.159
 30
0.000000
  70
    32
  0
VERTEX
  8
É}ÿg
  5
95D
 10
418.678
 20
-370.175
 30
0.000000
  70
    32
  0
VERTEX
  8
É}ÿg
  5
95E
 10
418.748
 20
-370.190
 30
0.000000
  70
    32
  0
VERTEX
  8
É}ÿg
  5
95F
 10
418.819
 20
-370.206
 30
0.000000
  70
    32
  0
VERTEX
  8
É}ÿg
  5
960
 10
418.889
 20
-370.221
 30
0.000000
  70
    32
  0
VERTEX
  8
É}ÿg
  5
961
 10
418.960
 20
-370.237
 30
0.000000
  70
    32
  0
VERTEX
  8
É}ÿg
  5
962
 10
419.031
 20
-370.252
 30
0.000000
  70
    32
  0
VERTEX
  8
É}ÿg
  5
963
 10
419.101
 20
-370.268
 30
0.000000
  70
    32
  0
VERTEX
  8
É}ÿg
  5
964
 10
419.172
 20
-370.283
 30
0.000000
  70
    32
  0
VERTEX
  8
É}ÿg
  5
965
 10
419.242
 20
-370.298
 30
0.000000
  70
    32
  0
VERTEX
  8
É}ÿg
  5
966
 10
419.313
 20
-370.314
 30
0.000000
  70
    32
  0
VERTEX
  8
É}ÿg
  5
967
 10
419.384
 20
-370.329
 30
0.000000
  70
    32
  0
VERTEX
  8
É}ÿg
  5
968
 10
419.454
 20
-370.344
 30
0.000000
  70
    32
  0
VERTEX
  8
É}ÿg
  5
969
 10
419.525
 20
-370.359
 30
0.000000
  70
    32
  0
VERTEX
  8
É}ÿg
  5
96A
 10
419.596
 20
-370.374
 30
0.000000
  70
    32
  0
VERTEX
  8
É}ÿg
  5
96B
 10
419.666
 20
-370.390
 30
0.000000
  70
    32
  0
VERTEX
  8
É}ÿg
  5
96C
 10
419.737
 20
-370.405
 30
0.000000
  70
    32
  0
VERTEX
  8
É}ÿg
  5
96D
 10
419.808
 20
-370.420
 30
0.000000
  70
    32
  0
VERTEX
  8
É}ÿg
  5
96E
 10
419.879
 20
-370.435
 30
0.000000
  70
    32
  0
VERTEX
  8
É}ÿg
  5
96F
 10
419.949
 20
-370.450
 30
0.000000
  70
    32
  0
VERTEX
  8
É}ÿg
  5
970
 10
420.020
 20
-370.465
 30
0.000000
  70
    32
  0
VERTEX
  8
É}ÿg
  5
971
 10
420.091
 20
-370.480
 30
0.000000
  70
    32
  0
VERTEX
  8
É}ÿg
  5
972
 10
420.162
 20
-370.495
 30
0.000000
  70
    32
  0
VERTEX
  8
É}ÿg
  5
973
 10
420.233
 20
-370.510
 30
0.000000
  70
    32
  0
VERTEX
  8
É}ÿg
  5
974
 10
420.304
 20
-370.525
 30
0.000000
  70
    32
  0
VERTEX
  8
É}ÿg
  5
975
 10
420.374
 20
-370.540
 30
0.000000
  70
    32
  0
VERTEX
  8
É}ÿg
  5
976
 10
420.445
 20
-370.555
 30
0.000000
  70
    32
  0
VERTEX
  8
É}ÿg
  5
977
 10
420.516
 20
-370.569
 30
0.000000
  70
    32
  0
VERTEX
  8
É}ÿg
  5
978
 10
420.587
 20
-370.584
 30
0.000000
  70
    32
  0
VERTEX
  8
É}ÿg
  5
979
 10
420.658
 20
-370.599
 30
0.000000
  70
    32
  0
VERTEX
  8
É}ÿg
  5
97A
 10
420.729
 20
-370.614
 30
0.000000
  70
    32
  0
VERTEX
  8
É}ÿg
  5
97B
 10
420.800
 20
-370.629
 30
0.000000
  70
    32
  0
VERTEX
  8
É}ÿg
  5
97C
 10
420.870
 20
-370.644
 30
0.000000
  70
    32
  0
VERTEX
  8
É}ÿg
  5
97D
 10
420.941
 20
-370.658
 30
0.000000
  70
    32
  0
VERTEX
  8
É}ÿg
  5
97E
 10
421.012
 20
-370.673
 30
0.000000
  70
    32
  0
VERTEX
  8
É}ÿg
  5
97F
 10
421.083
 20
-370.688
 30
0.000000
  70
    32
  0
VERTEX
  8
É}ÿg
  5
980
 10
421.154
 20
-370.703
 30
0.000000
  70
    32
  0
VERTEX
  8
É}ÿg
  5
981
 10
421.225
 20
-370.718
 30
0.000000
  70
    32
  0
VERTEX
  8
É}ÿg
  5
982
 10
421.296
 20
-370.732
 30
0.000000
  70
    32
  0
VERTEX
  8
É}ÿg
  5
983
 10
421.367
 20
-370.747
 30
0.000000
  70
    32
  0
VERTEX
  8
É}ÿg
  5
984
 10
421.438
 20
-370.762
 30
0.000000
  70
    32
  0
VERTEX
  8
É}ÿg
  5
985
 10
421.509
 20
-370.777
 30
0.000000
  70
    32
  0
VERTEX
  8
É}ÿg
  5
986
 10
421.580
 20
-370.791
 30
0.000000
  70
    32
  0
VERTEX
  8
É}ÿg
  5
987
 10
421.650
 20
-370.806
 30
0.000000
  70
    32
  0
VERTEX
  8
É}ÿg
  5
988
 10
421.721
 20
-370.821
 30
0.000000
  70
    32
  0
VERTEX
  8
É}ÿg
  5
989
 10
421.792
 20
-370.836
 30
0.000000
  70
    32
  0
SEQEND
  8
É}ÿg
  5
98A
  0
POLYLINE
  8
É}ÿg
  5
98B
  66
     1
 10
0.000000
 20
0.000000
 30
0.000000
  70
     8
  0
VERTEX
  8
É}ÿg
  5
98C
 10
399.292
 20
-359.946
 30
0.000000
  70
    32
  0
VERTEX
  8
É}ÿg
  5
98D
 10
399.337
 20
-359.988
 30
0.000000
  70
    32
  0
VERTEX
  8
É}ÿg
  5
98E
 10
399.382
 20
-360.029
 30
0.000000
  70
    32
  0
VERTEX
  8
É}ÿg
  5
98F
 10
399.427
 20
-360.071
 30
0.000000
  70
    32
  0
VERTEX
  8
É}ÿg
  5
990
 10
399.472
 20
-360.112
 30
0.000000
  70
    32
  0
VERTEX
  8
É}ÿg
  5
991
 10
399.517
 20
-360.154
 30
0.000000
  70
    32
  0
VERTEX
  8
É}ÿg
  5
992
 10
399.562
 20
-360.195
 30
0.000000
  70
    32
  0
VERTEX
  8
É}ÿg
  5
993
 10
399.608
 20
-360.237
 30
0.000000
  70
    32
  0
VERTEX
  8
É}ÿg
  5
994
 10
399.653
 20
-360.278
 30
0.000000
  70
    32
  0
VERTEX
  8
É}ÿg
  5
995
 10
399.698
 20
-360.320
 30
0.000000
  70
    32
  0
VERTEX
  8
É}ÿg
  5
996
 10
399.743
 20
-360.361
 30
0.000000
  70
    32
  0
VERTEX
  8
É}ÿg
  5
997
 10
399.788
 20
-360.403
 30
0.000000
  70
    32
  0
VERTEX
  8
É}ÿg
  5
998
 10
399.833
 20
-360.444
 30
0.000000
  70
    32
  0
VERTEX
  8
É}ÿg
  5
999
 10
399.878
 20
-360.485
 30
0.000000
  70
    32
  0
VERTEX
  8
É}ÿg
  5
99A
 10
399.923
 20
-360.527
 30
0.000000
  70
    32
  0
VERTEX
  8
É}ÿg
  5
99B
 10
399.968
 20
-360.568
 30
0.000000
  70
    32
  0
VERTEX
  8
É}ÿg
  5
99C
 10
400.013
 20
-360.610
 30
0.000000
  70
    32
  0
VERTEX
  8
É}ÿg
  5
99D
 10
400.058
 20
-360.651
 30
0.000000
  70
    32
  0
VERTEX
  8
É}ÿg
  5
99E
 10
400.103
 20
-360.692
 30
0.000000
  70
    32
  0
VERTEX
  8
É}ÿg
  5
99F
 10
400.148
 20
-360.734
 30
0.000000
  70
    32
  0
VERTEX
  8
É}ÿg
  5
9A0
 10
400.194
 20
-360.775
 30
0.000000
  70
    32
  0
VERTEX
  8
É}ÿg
  5
9A1
 10
400.239
 20
-360.817
 30
0.000000
  70
    32
  0
VERTEX
  8
É}ÿg
  5
9A2
 10
400.284
 20
-360.858
 30
0.000000
  70
    32
  0
VERTEX
  8
É}ÿg
  5
9A3
 10
400.329
 20
-360.899
 30
0.000000
  70
    32
  0
VERTEX
  8
É}ÿg
  5
9A4
 10
400.374
 20
-360.940
 30
0.000000
  70
    32
  0
VERTEX
  8
É}ÿg
  5
9A5
 10
400.419
 20
-360.982
 30
0.000000
  70
    32
  0
VERTEX
  8
É}ÿg
  5
9A6
 10
400.464
 20
-361.023
 30
0.000000
  70
    32
  0
VERTEX
  8
É}ÿg
  5
9A7
 10
400.510
 20
-361.064
 30
0.000000
  70
    32
  0
VERTEX
  8
É}ÿg
  5
9A8
 10
400.555
 20
-361.105
 30
0.000000
  70
    32
  0
VERTEX
  8
É}ÿg
  5
9A9
 10
400.600
 20
-361.146
 30
0.000000
  70
    32
  0
VERTEX
  8
É}ÿg
  5
9AA
 10
400.645
 20
-361.188
 30
0.000000
  70
    32
  0
VERTEX
  8
É}ÿg
  5
9AB
 10
400.691
 20
-361.229
 30
0.000000
  70
    32
  0
VERTEX
  8
É}ÿg
  5
9AC
 10
400.736
 20
-361.270
 30
0.000000
  70
    32
  0
VERTEX
  8
É}ÿg
  5
9AD
 10
400.781
 20
-361.311
 30
0.000000
  70
    32
  0
VERTEX
  8
É}ÿg
  5
9AE
 10
400.826
 20
-361.352
 30
0.000000
  70
    32
  0
VERTEX
  8
É}ÿg
  5
9AF
 10
400.872
 20
-361.393
 30
0.000000
  70
    32
  0
VERTEX
  8
É}ÿg
  5
9B0
 10
400.917
 20
-361.434
 30
0.000000
  70
    32
  0
VERTEX
  8
É}ÿg
  5
9B1
 10
400.962
 20
-361.475
 30
0.000000
  70
    32
  0
VERTEX
  8
É}ÿg
  5
9B2
 10
401.008
 20
-361.516
 30
0.000000
  70
    32
  0
VERTEX
  8
É}ÿg
  5
9B3
 10
401.053
 20
-361.556
 30
0.000000
  70
    32
  0
VERTEX
  8
É}ÿg
  5
9B4
 10
401.098
 20
-361.597
 30
0.000000
  70
    32
  0
VERTEX
  8
É}ÿg
  5
9B5
 10
401.144
 20
-361.638
 30
0.000000
  70
    32
  0
VERTEX
  8
É}ÿg
  5
9B6
 10
401.189
 20
-361.679
 30
0.000000
  70
    32
  0
VERTEX
  8
É}ÿg
  5
9B7
 10
401.235
 20
-361.720
 30
0.000000
  70
    32
  0
VERTEX
  8
É}ÿg
  5
9B8
 10
401.280
 20
-361.760
 30
0.000000
  70
    32
  0
VERTEX
  8
É}ÿg
  5
9B9
 10
401.326
 20
-361.801
 30
0.000000
  70
    32
  0
VERTEX
  8
É}ÿg
  5
9BA
 10
401.371
 20
-361.842
 30
0.000000
  70
    32
  0
VERTEX
  8
É}ÿg
  5
9BB
 10
401.417
 20
-361.882
 30
0.000000
  70
    32
  0
VERTEX
  8
É}ÿg
  5
9BC
 10
401.462
 20
-361.923
 30
0.000000
  70
    32
  0
VERTEX
  8
É}ÿg
  5
9BD
 10
401.508
 20
-361.963
 30
0.000000
  70
    32
  0
VERTEX
  8
É}ÿg
  5
9BE
 10
401.553
 20
-362.004
 30
0.000000
  70
    32
  0
VERTEX
  8
É}ÿg
  5
9BF
 10
401.599
 20
-362.044
 30
0.000000
  70
    32
  0
VERTEX
  8
É}ÿg
  5
9C0
 10
401.645
 20
-362.084
 30
0.000000
  70
    32
  0
VERTEX
  8
É}ÿg
  5
9C1
 10
401.690
 20
-362.125
 30
0.000000
  70
    32
  0
VERTEX
  8
É}ÿg
  5
9C2
 10
401.736
 20
-362.165
 30
0.000000
  70
    32
  0
VERTEX
  8
É}ÿg
  5
9C3
 10
401.782
 20
-362.205
 30
0.000000
  70
    32
  0
VERTEX
  8
É}ÿg
  5
9C4
 10
401.828
 20
-362.245
 30
0.000000
  70
    32
  0
VERTEX
  8
É}ÿg
  5
9C5
 10
401.873
 20
-362.285
 30
0.000000
  70
    32
  0
VERTEX
  8
É}ÿg
  5
9C6
 10
401.919
 20
-362.326
 30
0.000000
  70
    32
  0
VERTEX
  8
É}ÿg
  5
9C7
 10
401.965
 20
-362.366
 30
0.000000
  70
    32
  0
VERTEX
  8
É}ÿg
  5
9C8
 10
402.011
 20
-362.406
 30
0.000000
  70
    32
  0
VERTEX
  8
É}ÿg
  5
9C9
 10
402.057
 20
-362.445
 30
0.000000
  70
    32
  0
VERTEX
  8
É}ÿg
  5
9CA
 10
402.103
 20
-362.485
 30
0.000000
  70
    32
  0
VERTEX
  8
É}ÿg
  5
9CB
 10
402.149
 20
-362.525
 30
0.000000
  70
    32
  0
VERTEX
  8
É}ÿg
  5
9CC
 10
402.195
 20
-362.565
 30
0.000000
  70
    32
  0
VERTEX
  8
É}ÿg
  5
9CD
 10
402.241
 20
-362.605
 30
0.000000
  70
    32
  0
VERTEX
  8
É}ÿg
  5
9CE
 10
402.287
 20
-362.644
 30
0.000000
  70
    32
  0
VERTEX
  8
É}ÿg
  5
9CF
 10
402.333
 20
-362.684
 30
0.000000
  70
    32
  0
VERTEX
  8
É}ÿg
  5
9D0
 10
402.379
 20
-362.723
 30
0.000000
  70
    32
  0
VERTEX
  8
É}ÿg
  5
9D1
 10
402.425
 20
-362.763
 30
0.000000
  70
    32
  0
VERTEX
  8
É}ÿg
  5
9D2
 10
402.471
 20
-362.802
 30
0.000000
  70
    32
  0
VERTEX
  8
É}ÿg
  5
9D3
 10
402.517
 20
-362.842
 30
0.000000
  70
    32
  0
VERTEX
  8
É}ÿg
  5
9D4
 10
402.563
 20
-362.881
 30
0.000000
  70
    32
  0
VERTEX
  8
É}ÿg
  5
9D5
 10
402.610
 20
-362.920
 30
0.000000
  70
    32
  0
VERTEX
  8
É}ÿg
  5
9D6
 10
402.656
 20
-362.959
 30
0.000000
  70
    32
  0
VERTEX
  8
É}ÿg
  5
9D7
 10
402.702
 20
-362.998
 30
0.000000
  70
    32
  0
VERTEX
  8
É}ÿg
  5
9D8
 10
402.749
 20
-363.038
 30
0.000000
  70
    32
  0
VERTEX
  8
É}ÿg
  5
9D9
 10
402.795
 20
-363.076
 30
0.000000
  70
    32
  0
VERTEX
  8
É}ÿg
  5
9DA
 10
402.841
 20
-363.115
 30
0.000000
  70
    32
  0
VERTEX
  8
É}ÿg
  5
9DB
 10
402.888
 20
-363.154
 30
0.000000
  70
    32
  0
VERTEX
  8
É}ÿg
  5
9DC
 10
402.934
 20
-363.193
 30
0.000000
  70
    32
  0
VERTEX
  8
É}ÿg
  5
9DD
 10
402.981
 20
-363.232
 30
0.000000
  70
    32
  0
VERTEX
  8
É}ÿg
  5
9DE
 10
403.028
 20
-363.270
 30
0.000000
  70
    32
  0
VERTEX
  8
É}ÿg
  5
9DF
 10
403.074
 20
-363.309
 30
0.000000
  70
    32
  0
VERTEX
  8
É}ÿg
  5
9E0
 10
403.121
 20
-363.347
 30
0.000000
  70
    32
  0
VERTEX
  8
É}ÿg
  5
9E1
 10
403.168
 20
-363.386
 30
0.000000
  70
    32
  0
VERTEX
  8
É}ÿg
  5
9E2
 10
403.214
 20
-363.424
 30
0.000000
  70
    32
  0
VERTEX
  8
É}ÿg
  5
9E3
 10
403.261
 20
-363.462
 30
0.000000
  70
    32
  0
VERTEX
  8
É}ÿg
  5
9E4
 10
403.308
 20
-363.501
 30
0.000000
  70
    32
  0
VERTEX
  8
É}ÿg
  5
9E5
 10
403.355
 20
-363.539
 30
0.000000
  70
    32
  0
VERTEX
  8
É}ÿg
  5
9E6
 10
403.402
 20
-363.577
 30
0.000000
  70
    32
  0
VERTEX
  8
É}ÿg
  5
9E7
 10
403.449
 20
-363.615
 30
0.000000
  70
    32
  0
VERTEX
  8
É}ÿg
  5
9E8
 10
403.496
 20
-363.653
 30
0.000000
  70
    32
  0
VERTEX
  8
É}ÿg
  5
9E9
 10
403.543
 20
-363.691
 30
0.000000
  70
    32
  0
VERTEX
  8
É}ÿg
  5
9EA
 10
403.590
 20
-363.728
 30
0.000000
  70
    32
  0
VERTEX
  8
É}ÿg
  5
9EB
 10
403.637
 20
-363.766
 30
0.000000
  70
    32
  0
VERTEX
  8
É}ÿg
  5
9EC
 10
403.684
 20
-363.803
 30
0.000000
  70
    32
  0
VERTEX
  8
É}ÿg
  5
9ED
 10
403.731
 20
-363.841
 30
0.000000
  70
    32
  0
VERTEX
  8
É}ÿg
  5
9EE
 10
403.778
 20
-363.878
 30
0.000000
  70
    32
  0
VERTEX
  8
É}ÿg
  5
9EF
 10
403.826
 20
-363.916
 30
0.000000
  70
    32
  0
VERTEX
  8
É}ÿg
  5
9F0
 10
403.873
 20
-363.953
 30
0.000000
  70
    32
  0
VERTEX
  8
É}ÿg
  5
9F1
 10
403.920
 20
-363.990
 30
0.000000
  70
    32
  0
VERTEX
  8
É}ÿg
  5
9F2
 10
403.968
 20
-364.027
 30
0.000000
  70
    32
  0
VERTEX
  8
É}ÿg
  5
9F3
 10
404.015
 20
-364.064
 30
0.000000
  70
    32
  0
VERTEX
  8
É}ÿg
  5
9F4
 10
404.063
 20
-364.101
 30
0.000000
  70
    32
  0
VERTEX
  8
É}ÿg
  5
9F5
 10
404.110
 20
-364.138
 30
0.000000
  70
    32
  0
VERTEX
  8
É}ÿg
  5
9F6
 10
404.158
 20
-364.174
 30
0.000000
  70
    32
  0
VERTEX
  8
É}ÿg
  5
9F7
 10
404.206
 20
-364.211
 30
0.000000
  70
    32
  0
VERTEX
  8
É}ÿg
  5
9F8
 10
404.253
 20
-364.248
 30
0.000000
  70
    32
  0
VERTEX
  8
É}ÿg
  5
9F9
 10
404.301
 20
-364.284
 30
0.000000
  70
    32
  0
VERTEX
  8
É}ÿg
  5
9FA
 10
404.349
 20
-364.320
 30
0.000000
  70
    32
  0
VERTEX
  8
É}ÿg
  5
9FB
 10
404.397
 20
-364.357
 30
0.000000
  70
    32
  0
VERTEX
  8
É}ÿg
  5
9FC
 10
404.445
 20
-364.393
 30
0.000000
  70
    32
  0
VERTEX
  8
É}ÿg
  5
9FD
 10
404.493
 20
-364.429
 30
0.000000
  70
    32
  0
VERTEX
  8
É}ÿg
  5
9FE
 10
404.541
 20
-364.465
 30
0.000000
  70
    32
  0
VERTEX
  8
É}ÿg
  5
9FF
 10
404.589
 20
-364.500
 30
0.000000
  70
    32
  0
VERTEX
  8
É}ÿg
  5
A00
 10
404.637
 20
-364.536
 30
0.000000
  70
    32
  0
VERTEX
  8
É}ÿg
  5
A01
 10
404.685
 20
-364.572
 30
0.000000
  70
    32
  0
VERTEX
  8
É}ÿg
  5
A02
 10
404.734
 20
-364.607
 30
0.000000
  70
    32
  0
VERTEX
  8
É}ÿg
  5
A03
 10
404.782
 20
-364.643
 30
0.000000
  70
    32
  0
VERTEX
  8
É}ÿg
  5
A04
 10
404.830
 20
-364.678
 30
0.000000
  70
    32
  0
VERTEX
  8
É}ÿg
  5
A05
 10
404.879
 20
-364.713
 30
0.000000
  70
    32
  0
VERTEX
  8
É}ÿg
  5
A06
 10
404.927
 20
-364.749
 30
0.000000
  70
    32
  0
VERTEX
  8
É}ÿg
  5
A07
 10
404.976
 20
-364.784
 30
0.000000
  70
    32
  0
VERTEX
  8
É}ÿg
  5
A08
 10
405.024
 20
-364.818
 30
0.000000
  70
    32
  0
VERTEX
  8
É}ÿg
  5
A09
 10
405.073
 20
-364.853
 30
0.000000
  70
    32
  0
VERTEX
  8
É}ÿg
  5
A0A
 10
405.122
 20
-364.888
 30
0.000000
  70
    32
  0
VERTEX
  8
É}ÿg
  5
A0B
 10
405.170
 20
-364.923
 30
0.000000
  70
    32
  0
VERTEX
  8
É}ÿg
  5
A0C
 10
405.219
 20
-364.957
 30
0.000000
  70
    32
  0
VERTEX
  8
É}ÿg
  5
A0D
 10
405.268
 20
-364.991
 30
0.000000
  70
    32
  0
VERTEX
  8
É}ÿg
  5
A0E
 10
405.317
 20
-365.026
 30
0.000000
  70
    32
  0
VERTEX
  8
É}ÿg
  5
A0F
 10
405.366
 20
-365.060
 30
0.000000
  70
    32
  0
VERTEX
  8
É}ÿg
  5
A10
 10
405.415
 20
-365.094
 30
0.000000
  70
    32
  0
VERTEX
  8
É}ÿg
  5
A11
 10
405.464
 20
-365.128
 30
0.000000
  70
    32
  0
VERTEX
  8
É}ÿg
  5
A12
 10
405.513
 20
-365.162
 30
0.000000
  70
    32
  0
VERTEX
  8
É}ÿg
  5
A13
 10
405.563
 20
-365.195
 30
0.000000
  70
    32
  0
VERTEX
  8
É}ÿg
  5
A14
 10
405.612
 20
-365.229
 30
0.000000
  70
    32
  0
VERTEX
  8
É}ÿg
  5
A15
 10
405.661
 20
-365.262
 30
0.000000
  70
    32
  0
VERTEX
  8
É}ÿg
  5
A16
 10
405.711
 20
-365.296
 30
0.000000
  70
    32
  0
VERTEX
  8
É}ÿg
  5
A17
 10
405.760
 20
-365.329
 30
0.000000
  70
    32
  0
VERTEX
  8
É}ÿg
  5
A18
 10
405.810
 20
-365.362
 30
0.000000
  70
    32
  0
VERTEX
  8
É}ÿg
  5
A19
 10
405.860
 20
-365.395
 30
0.000000
  70
    32
  0
VERTEX
  8
É}ÿg
  5
A1A
 10
405.909
 20
-365.428
 30
0.000000
  70
    32
  0
VERTEX
  8
É}ÿg
  5
A1B
 10
405.959
 20
-365.461
 30
0.000000
  70
    32
  0
VERTEX
  8
É}ÿg
  5
A1C
 10
406.009
 20
-365.493
 30
0.000000
  70
    32
  0
VERTEX
  8
É}ÿg
  5
A1D
 10
406.059
 20
-365.526
 30
0.000000
  70
    32
  0
VERTEX
  8
É}ÿg
  5
A1E
 10
406.109
 20
-365.558
 30
0.000000
  70
    32
  0
VERTEX
  8
É}ÿg
  5
A1F
 10
406.159
 20
-365.590
 30
0.000000
  70
    32
  0
VERTEX
  8
É}ÿg
  5
A20
 10
406.209
 20
-365.622
 30
0.000000
  70
    32
  0
VERTEX
  8
É}ÿg
  5
A21
 10
406.259
 20
-365.654
 30
0.000000
  70
    32
  0
VERTEX
  8
É}ÿg
  5
A22
 10
406.309
 20
-365.686
 30
0.000000
  70
    32
  0
VERTEX
  8
É}ÿg
  5
A23
 10
406.360
 20
-365.718
 30
0.000000
  70
    32
  0
VERTEX
  8
É}ÿg
  5
A24
 10
406.410
 20
-365.750
 30
0.000000
  70
    32
  0
VERTEX
  8
É}ÿg
  5
A25
 10
406.461
 20
-365.781
 30
0.000000
  70
    32
  0
VERTEX
  8
É}ÿg
  5
A26
 10
406.511
 20
-365.812
 30
0.000000
  70
    32
  0
VERTEX
  8
É}ÿg
  5
A27
 10
406.562
 20
-365.844
 30
0.000000
  70
    32
  0
VERTEX
  8
É}ÿg
  5
A28
 10
406.612
 20
-365.875
 30
0.000000
  70
    32
  0
VERTEX
  8
É}ÿg
  5
A29
 10
406.663
 20
-365.906
 30
0.000000
  70
    32
  0
VERTEX
  8
É}ÿg
  5
A2A
 10
406.714
 20
-365.936
 30
0.000000
  70
    32
  0
VERTEX
  8
É}ÿg
  5
A2B
 10
406.765
 20
-365.967
 30
0.000000
  70
    32
  0
SEQEND
  8
É}ÿg
  5
A2C
  0
INSERT
  5
5C7
  8
0
  6
CONTINUOUS
  2
*U186
 10
0.0
 20
0.0
 30
0.0
  0
LINE
  5
5C8
  8
É}ÿg
 10
433.20397380489987
 20
-304.27734713199999
 30
0.0
 11
433.20397380489987
 21
-310.27734713199999
 31
0.0
  0
LINE
  5
5C9
  8
É}ÿg
 10
392.64079624639999
 20
-358.33566471479998
 30
0.0
 11
392.64079624639999
 21
-362.08566471479998
 31
0.0
  0
LINE
  5
5CA
  8
É}ÿg
 10
433.20397380489987
 20
-310.27734713199999
 30
0.0
 11
445.20397380489987
 21
-313.27734713199999
 31
0.0
  0
LINE
  5
5CB
  8
É}ÿg
 10
399.29231139789999
 20
-353.33566471479998
 30
0.0
 11
399.29231139789999
 21
-357.83566471479998
 31
0.0
  0
ARC
  5
5CC
  8
É}ÿg
 10
381.39079624639999
 20
-363.33566471479998
 30
0.0
 40
7.5
 50
270.0
 51
0.0
  0
LINE
  5
5CD
  8
É}ÿg
 10
273.48918002570002
 20
-293.52734713199999
 30
0.0
 11
273.48918002570002
 21
-376.02734713199999
 31
0.0
  0
INSERT
  5
5CE
  8
0
  6
CONTINUOUS
  2
*U187
 10
0.0
 20
0.0
 30
0.0
  0
INSERT
  5
5CF
  8
0
  6
CONTINUOUS
  2
*U188
 10
0.0
 20
0.0
 30
0.0
  0
INSERT
  5
5D0
  8
0
  6
CONTINUOUS
  2
*U189
 10
0.0
 20
0.0
 30
0.0
  0
INSERT
  5
5D1
  8
0
  6
CONTINUOUS
  2
*U190
 10
0.0
 20
0.0
 30
0.0
  0
LINE
  5
5D2
  8
É}ÿg
 10
367.23918002570002
 20
-321.02734713199999
 30
0.0
 11
367.23918002570002
 21
-348.52734713199999
 31
0.0
  0
LINE
  5
5D3
  8
É}ÿg
 10
273.48918002570002
 20
-348.52734713199999
 30
0.0
 11
635.98918002569985
 21
-348.52734713199999
 31
0.0
  0
LINE
  5
5D4
  8
É}ÿg
 10
279.73918002570002
 20
-334.77734713199999
 30
0.0
 11
360.98918002570002
 21
-334.77734713199999
 31
0.0
  0
LINE
  5
5D5
  8
É}ÿg
 10
373.48918002570002
 20
-334.77734713199999
 30
0.0
 11
454.73918002570002
 21
-334.77734713199999
 31
0.0
  0
INSERT
  5
5D6
  8
0
  6
CONTINUOUS
  2
*U191
 10
0.0
 20
0.0
 30
0.0
  0
INSERT
  5
5D7
  8
0
  6
CONTINUOUS
  2
*U192
 10
0.0
 20
0.0
 30
0.0
  0
LINE
  5
5D8
  8
É}ÿg
 10
295.98918002570002
 20
-281.02734713199999
 30
0.0
 11
295.98918002570002
 21
-268.52734713199999
 31
0.0
  0
LINE
  5
5D9
  8
É}ÿg
 10
273.48918002570002
 20
-281.02734713199999
 30
0.0
 11
273.48918002570002
 21
-268.52734713199999
 31
0.0
  0
LINE
  5
5DA
  8
É}ÿg
 10
558.48918002569997
 20
-281.02734713199999
 30
0.0
 11
558.48918002569997
 21
-268.52734713199999
 31
0.0
  0
LINE
  5
5DB
  8
É}ÿg
 10
535.98918002569985
 20
-281.02734713199999
 30
0.0
 11
535.98918002569985
 21
-268.52734713199999
 31
0.0
  0
LINE
  5
5DC
  8
É}ÿg
 10
635.98918002569985
 20
-268.52734713199999
 30
0.0
 11
273.48918002570002
 21
-268.52734713199999
 31
0.0
  0
LINE
  5
5DD
  8
É}ÿg
 10
273.48918002570002
 20
-281.02734713199999
 30
0.0
 11
635.98918002569985
 21
-281.02734713199999
 31
0.0
  0
LINE
  5
5DE
  8
É}ÿg
 10
420.98918002570002
 20
-281.02734713199999
 30
0.0
 11
420.98918002570002
 21
-268.52734713199999
 31
0.0
  0
INSERT
  5
5DF
  8
0
  6
CONTINUOUS
  2
*U193
 10
0.0
 20
0.0
 30
0.0
  0
INSERT
  5
5E0
  8
0
  6
CONTINUOUS
  2
*U194
 10
0.0
 20
0.0
 30
0.0
  0
CIRCLE
  5
5E1
  8
É}ÿg
 10
419.48918002570002
 20
-307.27734713199999
 30
0.0
 40
3.0
  0
LINE
  5
5E2
  8
É}ÿg
 10
433.20397380489987
 20
-310.27734713199999
 30
0.0
 11
445.20397380489987
 21
-313.27734713199999
 31
0.0
  0
LINE
  5
5E3
  8
É}ÿg
 10
433.20397380489987
 20
-304.27734713199999
 30
0.0
 11
433.20397380489987
 21
-310.27734713199999
 31
0.0
  0
LINE
  5
5E4
  8
É}ÿg
 10
445.20397380489987
 20
-301.27734713199999
 30
0.0
 11
445.20397380489987
 21
-313.27734713199999
 31
0.0
  0
LINE
  5
5E5
  8
É}ÿg
  6
BORDER
 10
419.48918002570002
 20
-298.27734713199999
 30
0.0
 11
419.48918002570002
 21
-316.27734713199999
 31
0.0
  0
LINE
  5
5E6
  8
É}ÿg
  6
BORDER
 10
419.48918002570002
 20
-298.27734713199999
 30
0.0
 11
419.48918002570002
 21
-316.27734713199999
 31
0.0
  0
LINE
  5
5E7
  8
É}ÿg
 10
445.20397380489987
 20
-301.27734713199999
 30
0.0
 11
445.20397380489987
 21
-313.27734713199999
 31
0.0
  0
LINE
  5
5E8
  8
É}ÿg
 10
433.20397380489987
 20
-304.27734713199999
 30
0.0
 11
433.20397380489987
 21
-310.27734713199999
 31
0.0
  0
LINE
  5
5E9
  8
É}ÿg
 10
433.20397380489987
 20
-310.27734713199999
 30
0.0
 11
445.20397380489987
 21
-313.27734713199999
 31
0.0
  0
LINE
  5
5EA
  8
É}ÿg
 10
433.20397380489987
 20
-304.27734713199999
 30
0.0
 11
445.20397380489987
 21
-301.27734713199999
 31
0.0
  0
CIRCLE
  5
5EB
  8
É}ÿg
 10
419.48918002570002
 20
-307.27734713199999
 30
0.0
 40
6.0
  0
CIRCLE
  5
5EC
  8
É}ÿg
 10
419.48918002570002
 20
-307.27734713199999
 30
0.0
 40
3.0
  0
CIRCLE
  5
5ED
  8
É}ÿg
 10
419.48918002570002
 20
-307.27734713199999
 30
0.0
 40
6.0
  0
LINE
  5
5EE
  8
É}ÿg
 10
433.20397380489987
 20
-304.27734713199999
 30
0.0
 11
445.20397380489987
 21
-301.27734713199999
 31
0.0
  0
ENDBLK
  5
5EF
  8
0
  0
BLOCK
  8
0
  2
CLUMP90
 70
     0
 10
0.0
 20
0.0
 30
0.0
  3
CLUMP90
  1

  0
ARC
  5
5F8
  8
┌▓È_1
 10
-6.5217341216999989
 20
150.40414506799999
 30
0.0
 40
3.5
 50
90.0
 51
270.0
  0
LINE
  5
5F9
  8
┌▓È_1
 10
8.4782658783000002
 20
153.90414506799999
 30
0.0
 11
-6.5217341216999989
 21
153.90414506799999
 31
0.0
  0
LINE
  5
5FA
  8
┌▓È_1
 10
-6.5217341216999989
 20
146.90414506799999
 30
0.0
 11
8.4782658783000002
 21
146.90414506799999
 31
0.0
  0
ARC
  5
5FB
  8
┌▓È_1
 10
8.4782658783000002
 20
150.40414506799999
 30
0.0
 40
3.5
 50
270.0
 51
90.0
  0
ENDBLK
  5
5FC
  8
0
  0
BLOCK
  8
0
  2
CLUMP91
 70
     0
 10
0.0
 20
0.0
 30
0.0
  3
CLUMP91
  1

  0
INSERT
  5
606
  8
┌▓È_1
  2
CLUMP92
 10
0.0
 20
0.0
 30
0.0
  0
INSERT
  5
61A
  8
┌▓È_1
  2
CLUMP95
 10
0.0
 20
0.0
 30
0.0
  0
ENDBLK
  5
62D
  8
0
  0
BLOCK
  8
0
  2
CLUMP92
 70
     0
 10
0.0
 20
0.0
 30
0.0
  3
CLUMP92
  1

  0
INSERT
  5
609
  8
┌▓È_1
  2
CLUMP93
 10
0.0
 20
0.0
 30
0.0
  0
INSERT
  5
611
  8
┌▓È_1
  2
CLUMP94
 10
0.0
 20
0.0
 30
0.0
  0
ENDBLK
  5
618
  8
0
  0
BLOCK
  8
0
  2
CLUMP93
 70
     0
 10
0.0
 20
0.0
 30
0.0
  3
CLUMP93
  1

  0
ARC
  5
60B
  8
┌▓È_1
 10
-6.0758520537000003
 20
-181.5972625226
 30
0.0
 40
3.5
 50
90.0
 51
270.0
  0
LINE
  5
60C
  8
┌▓È_1
 10
8.9241479462999997
 20
-185.09726252259989
 30
0.0
 11
-6.0758520537000003
 21
-185.09726252259989
 31
0.0
  0
ARC
  5
60D
  8
┌▓È_1
 10
8.9241479462999997
 20
-181.5972625226
 30
0.0
 40
3.5
 50
270.0
 51
90.0
  0
LINE
  5
60E
  8
┌▓È_1
 10
-6.0758520537000003
 20
-178.0972625226
 30
0.0
 11
8.9241479462999997
 21
-178.0972625226
 31
0.0
  0
ENDBLK
  5
60F
  8
0
  0
BLOCK
  8
0
  2
CLUMP94
 70
     0
 10
0.0
 20
0.0
 30
0.0
  3
CLUMP94
  1

  0
ARC
  5
613
  8
┌▓È_1
 10
-6.0758520537000003
 20
-166.5972625226
 30
0.0
 40
3.5
 50
90.0
 51
270.0
  0
LINE
  5
614
  8
┌▓È_1
 10
8.9241479462999997
 20
-170.0972625226
 30
0.0
 11
-6.0758520537000003
 21
-170.0972625226
 31
0.0
  0
LINE
  5
615
  8
┌▓È_1
 10
-6.0758520537000003
 20
-163.0972625226
 30
0.0
 11
8.9241479462999997
 21
-163.0972625226
 31
0.0
  0
ARC
  5
616
  8
┌▓È_1
 10
8.9241479462999997
 20
-166.5972625226
 30
0.0
 40
3.5
 50
270.0
 51
90.0
  0
ENDBLK
  5
617
  8
0
  0
BLOCK
  8
0
  2
CLUMP95
 70
     0
 10
0.0
 20
0.0
 30
0.0
  3
CLUMP95
  1

  0
INSERT
  5
61D
  8
┌▓È_1
  2
CLUMP96
 10
0.0
 20
0.0
 30
0.0
  0
INSERT
  5
625
  8
┌▓È_1
  2
CLUMP97
 10
0.0
 20
0.0
 30
0.0
  0
ENDBLK
  5
62C
  8
0
  0
BLOCK
  8
0
  2
CLUMP96
 70
     0
 10
0.0
 20
0.0
 30
0.0
  3
CLUMP96
  1

  0
ARC
  5
61F
  8
┌▓È_1
 10
-6.0758520537000003
 20
-103.5972625226
 30
0.0
 40
3.5
 50
90.0
 51
270.0
  0
LINE
  5
620
  8
┌▓È_1
 10
8.9241479462999997
 20
-100.0972625226
 30
0.0
 11
-6.0758520537000003
 21
-100.0972625226
 31
0.0
  0
LINE
  5
621
  8
┌▓È_1
 10
-6.0758520537000003
 20
-107.0972625226
 30
0.0
 11
8.9241479462999997
 21
-107.0972625226
 31
0.0
  0
ARC
  5
622
  8
┌▓È_1
 10
8.9241479462999997
 20
-103.5972625226
 30
0.0
 40
3.5
 50
270.0
 51
90.0
  0
ENDBLK
  5
623
  8
0
  0
BLOCK
  8
0
  2
CLUMP97
 70
     0
 10
0.0
 20
0.0
 30
0.0
  3
CLUMP97
  1

  0
ARC
  5
627
  8
┌▓È_1
 10
-6.0758520537000003
 20
-88.597262522600005
 30
0.0
 40
3.5
 50
90.0
 51
270.0
  0
LINE
  5
628
  8
┌▓È_1
 10
8.9241479462999997
 20
-85.097262522600005
 30
0.0
 11
-6.0758520537000003
 21
-85.097262522600005
 31
0.0
  0
LINE
  5
629
  8
┌▓È_1
 10
-6.0758520537000003
 20
-92.097262522600005
 30
0.0
 11
8.9241479462999997
 21
-92.097262522600005
 31
0.0
  0
ARC
  5
62A
  8
┌▓È_1
 10
8.9241479462999997
 20
-88.597262522600005
 30
0.0
 40
3.5
 50
270.0
 51
90.0
  0
ENDBLK
  5
62B
  8
0
  0
BLOCK
  8
0
  2
*D141
 70
     1
 10
0.0
 20
0.0
 30
0.0
  3
*D141
  1

  0
TEXT
  5
63D
  8
0
 62
     0
 10
326.09911144649999
 20
255.62580940769999
 30
0.0
 40
8.2461809158000001
  1
15
  0
LINE
  5
63E
  8
0
 62
     0
 10
338.51780233660003
 20
225.60485470340001
 30
0.0
 11
338.51780233660003
 21
254.1706010108
 31
0.0
  0
LINE
  5
63F
  8
0
 62
     0
 10
323.51780233660003
 20
217.40485470339999
 30
0.0
 11
323.51780233660003
 21
254.1706010108
 31
0.0
  0
LINE
  5
640
  8
0
 62
     0
 10
338.51780233660003
 20
253.1706010108
 30
0.0
 11
338.51780233660003
 21
253.1706010108
 31
0.0
  0
LINE
  5
641
  8
0
 62
     0
 10
338.51780233660003
 20
253.1706010108
 30
0.0
 11
323.51780233660003
 21
253.1706010108
 31
0.0
  0
LINE
  5
642
  8
0
 62
     0
 10
323.51780233660003
 20
253.1706010108
 30
0.0
 11
338.51780233660003
 21
253.1706010108
 31
0.0
  0
LINE
  5
643
  8
0
 62
     0
 10
323.51780233660003
 20
253.1706010108
 30
0.0
 11
323.51780233660003
 21
253.1706010108
 31
0.0
  0
LINE
  5
644
  8
0
 62
     0
 10
323.51780233660003
 20
253.1706010108
 30
0.0
 11
318.51780233660003
 21
253.1706010108
 31
0.0
  0
SOLID
  5
645
  8
0
 62
     0
 10
323.51780233660003
 20
253.1706010108
 30
0.0
 11
316.0173879651
 21
251.2956010108
 31
0.0
 12
316.0173879651
 22
255.0456010108
 32
0.0
 13
317.89249155800002
 23
253.1706010108
 33
0.0
  0
LINE
  5
646
  8
0
 62
     0
 10
338.51780233660003
 20
253.1706010108
 30
0.0
 11
343.51780233660003
 21
253.1706010108
 31
0.0
  0
SOLID
  5
647
  8
0
 62
     0
 10
338.51780233660003
 20
253.1706010108
 30
0.0
 11
346.0182167081
 21
255.0456010108
 31
0.0
 12
346.0182167081
 22
251.2956010108
 32
0.0
 13
344.14311311519998
 23
253.1706010108
 33
0.0
  0
ENDBLK
  5
648
  8
0
  0
BLOCK
  8
0
  2
*D142
 70
     1
 10
0.0
 20
0.0
 30
0.0
  3
*D142
  1

  0
TEXT
  5
64C
  8
0
 62
     0
 10
359.04803629200001
 20
233.8257002915
 30
0.0
 40
8.2461809158000001
  1
15.5
 50
90.0
  0
LINE
  5
64D
  8
0
 62
     0
 10
339.71780233660002
 20
208.90485470339999
 30
0.0
 11
362.5032446889
 21
208.90485470339999
 31
0.0
  0
LINE
  5
64E
  8
0
 62
     0
 10
339.71780233660002
 20
224.40485470339999
 30
0.0
 11
362.5032446889
 21
224.40485470339999
 31
0.0
  0
LINE
  5
64F
  8
0
 62
     0
 10
361.5032446889
 20
208.90485470339999
 30
0.0
 11
361.5032446889
 21
255.2496016904
 31
0.0
  0
LINE
  5
650
  8
0
 62
     0
 10
361.5032446889
 20
208.90485470339999
 30
0.0
 11
361.5032446889
 21
228.97500563509999
 31
0.0
  0
LINE
  5
651
  8
0
 62
     0
 10
361.5032446889
 20
224.40485470339999
 30
0.0
 11
361.5032446889
 21
255.2496016904
 31
0.0
  0
LINE
  5
652
  8
0
 62
     0
 10
361.5032446889
 20
224.40485470339999
 30
0.0
 11
361.5032446889
 21
228.97500563509999
 31
0.0
  0
LINE
  5
653
  8
0
 62
     0
 10
361.5032446889
 20
224.40485470339999
 30
0.0
 11
361.5032446889
 21
219.40485470339999
 31
0.0
  0
SOLID
  5
654
  8
0
 62
     0
 10
361.5032446889
 20
224.40485470339999
 30
0.0
 11
363.3782446889
 21
216.90444033189999
 31
0.0
 12
359.6282446889
 22
216.90444033189999
 32
0.0
 13
361.5032446889
 23
218.77954392480001
 33
0.0
  0
LINE
  5
655
  8
0
 62
     0
 10
361.5032446889
 20
208.90485470339999
 30
0.0
 11
361.5032446889
 21
213.90485470339999
 31
0.0
  0
SOLID
  5
656
  8
0
 62
     0
 10
361.5032446889
 20
208.90485470339999
 30
0.0
 11
359.6282446889
 21
216.40526907489999
 31
0.0
 12
363.3782446889
 22
216.40526907489999
 32
0.0
 13
361.5032446889
 23
214.530165482
 33
0.0
  0
ENDBLK
  5
657
  8
0
  0
BLOCK
  8
0
  2
*D143
 70
     1
 10
0.0
 20
0.0
 30
0.0
  3
*D143
  1

  0
TEXT
  5
65B
  8
0
 62
     0
 10
413.54960362269992
 20
267.42759559140001
 30
0.0
 40
8.2461809158000001
  1
55
  0
LINE
  5
65C
  8
0
 62
     0
 10
445.90029827900003
 20
225.60438334919999
 30
0.0
 11
445.90029827900003
 21
265.97238719450002
 31
0.0
  0
LINE
  5
65D
  8
0
 62
     0
 10
390.90029827900003
 20
225.60438334919999
 30
0.0
 11
390.90029827900003
 21
265.97238719450002
 31
0.0
  0
LINE
  5
65E
  8
0
 62
     0
 10
445.90029827900003
 20
264.97238719450002
 30
0.0
 11
428.10168759179987
 21
264.97238719450002
 31
0.0
  0
LINE
  5
65F
  8
0
 62
     0
 10
445.90029827900003
 20
264.97238719450002
 30
0.0
 11
408.69890896629988
 21
264.97238719450002
 31
0.0
  0
LINE
  5
660
  8
0
 62
     0
 10
390.90029827900003
 20
264.97238719450002
 30
0.0
 11
428.10168759179987
 21
264.97238719450002
 31
0.0
  0
LINE
  5
661
  8
0
 62
     0
 10
390.90029827900003
 20
264.97238719450002
 30
0.0
 11
408.69890896629988
 21
264.97238719450002
 31
0.0
  0
LINE
  5
662
  8
0
 62
     0
 10
390.90029827900003
 20
264.97238719450002
 30
0.0
 11
395.90029827900003
 21
264.97238719450002
 31
0.0
  0
SOLID
  5
663
  8
0
 62
     0
 10
390.90029827900003
 20
264.97238719450002
 30
0.0
 11
398.40071265050011
 21
266.84738719450002
 31
0.0
 12
398.40071265050011
 22
263.09738719450002
 32
0.0
 13
396.52560905770002
 23
264.97238719450002
 33
0.0
  0
LINE
  5
664
  8
0
 62
     0
 10
445.90029827900003
 20
264.97238719450002
 30
0.0
 11
440.90029827900003
 21
264.97238719450002
 31
0.0
  0
SOLID
  5
665
  8
0
 62
     0
 10
445.90029827900003
 20
264.97238719450002
 30
0.0
 11
438.39988390749988
 21
263.09738719450002
 31
0.0
 12
438.39988390749988
 22
266.84738719450002
 32
0.0
 13
440.2749875003999
 23
264.97238719450002
 33
0.0
  0
ENDBLK
  5
666
  8
0
  0
BLOCK
  8
0
  2
CLUMP98
 70
     0
 10
0.0
 20
0.0
 30
0.0
  3
CLUMP98
  1

  0
LINE
  5
671
  8
┌▓È_1
 62
     5
 10
397.60029827900001
 20
216.20438334919999
 30
0.0
 11
397.60029827900001
 21
217.0043833492
 31
0.0
  0
LINE
  5
672
  8
┌▓È_1
 62
     5
 10
391.70029827899998
 20
223.60438334919999
 30
0.0
 11
391.70029827899998
 21
216.20438334919999
 31
0.0
  0
LINE
  5
673
  8
┌▓È_1
 62
     5
 10
396.90029827900003
 20
223.60438334919999
 30
0.0
 11
391.70029827899998
 21
223.60438334919999
 31
0.0
  0
LINE
  5
674
  8
┌▓È_1
 62
     5
 10
396.90029827900003
 20
223.60438334919999
 30
0.0
 11
396.90029827900003
 21
224.4043833492
 31
0.0
  0
LINE
  5
675
  8
┌▓È_1
 62
     5
 10
396.90029827900003
 20
224.4043833492
 30
0.0
 11
391.70029827899998
 21
224.4043833492
 31
0.0
  0
ARC
  5
676
  8
┌▓È_1
 62
     5
 10
391.70029827899998
 20
223.60438334919999
 30
0.0
 40
0.8
 50
90.0
 51
180.0
  0
LINE
  5
677
  8
┌▓È_1
 62
     5
 10
390.90029827900003
 20
223.60438334919999
 30
0.0
 11
390.90029827900003
 21
216.20438334919999
 31
0.0
  0
ARC
  5
678
  8
┌▓È_1
 62
     5
 10
391.70029827899998
 20
216.20438334919999
 30
0.0
 40
0.8
 50
180.0
 51
270.0
  0
LINE
  5
679
  8
┌▓È_1
 62
     5
 10
439.90029827900003
 20
224.4043833492
 30
0.0
 11
439.90029827900003
 21
223.60438334919999
 31
0.0
  0
LINE
  5
67A
  8
┌▓È_1
 62
     5
 10
445.10029827900001
 20
223.60438334919999
 30
0.0
 11
439.90029827900003
 21
223.60438334919999
 31
0.0
  0
LINE
  5
67B
  8
┌▓È_1
 62
     5
 10
445.10029827900001
 20
211.20438334919999
 30
0.0
 11
445.10029827900001
 21
223.60438334919999
 31
0.0
  0
LINE
  5
67C
  8
┌▓È_1
 62
     5
 10
416.70029827899998
 20
211.20438334919999
 30
0.0
 11
445.10029827900001
 21
211.20438334919999
 31
0.0
  0
LINE
  5
67D
  8
┌▓È_1
 62
     5
 10
391.70029827899998
 20
215.4043833492
 30
0.0
 11
415.90029827900003
 21
215.4043833492
 31
0.0
  0
LINE
  5
67E
  8
┌▓È_1
 62
     5
 10
391.70029827899998
 20
216.20438334919999
 30
0.0
 11
415.90029827900003
 21
216.20438334919999
 31
0.0
  0
LINE
  5
67F
  8
┌▓È_1
 62
     5
 10
416.70029827899998
 20
215.4043833492
 30
0.0
 11
416.70029827899998
 21
211.20438334919999
 31
0.0
  0
ARC
  5
680
  8
┌▓È_1
 62
     5
 10
415.90029827900003
 20
215.4043833492
 30
0.0
 40
0.8
 50
0.0
 51
90.0
  0
LINE
  5
681
  8
┌▓È_1
 62
     5
 10
415.90029827900003
 20
215.4043833492
 30
0.0
 11
415.90029827900003
 21
211.20438334919999
 31
0.0
  0
ARC
  5
682
  8
┌▓È_1
 62
     5
 10
416.70029827899998
 20
211.20438334919999
 30
0.0
 40
0.8
 50
180.0
 51
270.0
  0
LINE
  5
683
  8
┌▓È_1
 62
     5
 10
416.70029827899998
 20
210.4043833492
 30
0.0
 11
445.10029827900001
 21
210.4043833492
 31
0.0
  0
ARC
  5
684
  8
┌▓È_1
 62
     5
 10
445.10029827900001
 20
211.20438334919999
 30
0.0
 40
0.8
 50
270.0
 51
0.0
  0
LINE
  5
685
  8
┌▓È_1
 62
     5
 10
445.10029827900001
 20
224.4043833492
 30
0.0
 11
439.90029827900003
 21
224.4043833492
 31
0.0
  0
LINE
  5
686
  8
┌▓È_1
 62
     5
 10
445.90029827900003
 20
211.20438334919999
 30
0.0
 11
445.90029827900003
 21
223.60438334919999
 31
0.0
  0
ARC
  5
687
  8
┌▓È_1
 62
     5
 10
445.10029827900001
 20
223.60438334919999
 30
0.0
 40
0.8
 50
0.0
 51
90.0
  0
LINE
  5
688
  8
┌▓È_1
 62
     5
 10
397.60029827900001
 20
217.0043833492
 30
0.0
 11
445.10029827900001
 21
217.0043833492
 31
0.0
  0
LINE
  5
689
  8
┌▓È_1
 62
     5
 10
415.90029827900003
 20
216.20438334919999
 30
0.0
 11
445.10029827900001
 21
216.20438334919999
 31
0.0
  0
ENDBLK
  5
68A
  8
0
  0
BLOCK
  8
0
  2
CLUMP99
 70
     0
 10
0.0
 20
0.0
 30
0.0
  3
CLUMP99
  1

  0
LINE
  5
691
  8
┌▓È_1
 62
     5
 10
313.01780233660003
 20
217.00485470340001
 30
0.0
 11
337.71780233660002
 21
217.00485470340001
 31
0.0
  0
LINE
  5
692
  8
┌▓È_1
 62
     5
 10
313.01780233660003
 20
217.00485470340001
 30
0.0
 11
313.01780233660003
 21
216.2048547034
 31
0.0
  0
LINE
  5
693
  8
┌▓È_1
 62
     5
 10
337.71780233660002
 20
209.7048547034
 30
0.0
 11
324.31780233659998
 21
209.7048547034
 31
0.0
  0
LINE
  5
694
  8
┌▓È_1
 62
     5
 10
337.71780233660002
 20
223.60485470340001
 30
0.0
 11
337.71780233660002
 21
209.7048547034
 31
0.0
  0
ARC
  5
695
  8
┌▓È_1
 62
     5
 10
337.71780233660002
 20
223.60485470340001
 30
0.0
 40
0.8
 50
0.0
 51
90.0
  0
LINE
  5
696
  8
┌▓È_1
 62
     5
 10
338.51780233660003
 20
209.7048547034
 30
0.0
 11
338.51780233660003
 21
223.60485470340001
 31
0.0
  0
ARC
  5
697
  8
┌▓È_1
 62
     5
 10
337.71780233660002
 20
209.7048547034
 30
0.0
 40
0.8
 50
270.0
 51
0.0
  0
LINE
  5
698
  8
┌▓È_1
 62
     5
 10
324.31780233659998
 20
208.90485470339999
 30
0.0
 11
337.71780233660002
 21
208.90485470339999
 31
0.0
  0
LINE
  5
699
  8
┌▓È_1
 62
     5
 10
323.51780233660003
 20
215.40485470339999
 30
0.0
 11
323.51780233660003
 21
209.7048547034
 31
0.0
  0
ARC
  5
69A
  8
┌▓È_1
 62
     5
 10
324.31780233659998
 20
209.7048547034
 30
0.0
 40
0.8
 50
180.0
 51
270.0
  0
LINE
  5
69B
  8
┌▓È_1
 62
     5
 10
324.31780233659998
 20
209.7048547034
 30
0.0
 11
324.31780233659998
 21
215.40485470339999
 31
0.0
  0
LINE
  5
69C
  8
┌▓È_1
 62
     5
 10
332.51780233660003
 20
223.60485470340001
 30
0.0
 11
337.71780233660002
 21
223.60485470340001
 31
0.0
  0
LINE
  5
69D
  8
┌▓È_1
 62
     5
 10
332.51780233660003
 20
224.40485470339999
 30
0.0
 11
332.51780233660003
 21
223.60485470340001
 31
0.0
  0
LINE
  5
69E
  8
┌▓È_1
 62
     5
 10
314.51780233660003
 20
223.60485470340001
 30
0.0
 11
314.51780233660003
 21
217.00485470340001
 31
0.0
  0
LINE
  5
69F
  8
┌▓È_1
 62
     5
 10
323.51780233660003
 20
216.2048547034
 30
0.0
 11
337.71780233660002
 21
216.2048547034
 31
0.0
  0
LINE
  5
6A0
  8
┌▓È_1
 62
     5
 10
314.51780233660003
 20
223.60485470340001
 30
0.0
 11
314.51780233660003
 21
224.40485470339999
 31
0.0
  0
LINE
  5
6A1
  8
┌▓È_1
 62
     5
 10
337.71780233660002
 20
224.40485470339999
 30
0.0
 11
332.51780233660003
 21
224.40485470339999
 31
0.0
  0
ARC
  5
6A2
  8
┌▓È_1
 62
     5
 10
323.51780233660003
 20
215.40485470339999
 30
0.0
 40
0.8
 50
0.0
 51
90.0
  0
ARC
  5
6A3
  8
┌▓È_1
 62
     5
 10
309.31780233659998
 20
216.2048547034
 30
0.0
 40
0.8
 50
180.0
 51
270.0
  0
LINE
  5
6A4
  8
┌▓È_1
 62
     5
 10
309.31780233659998
 20
216.2048547034
 30
0.0
 11
309.31780233659998
 21
223.60485470340001
 31
0.0
  0
ARC
  5
6A5
  8
┌▓È_1
 62
     5
 10
309.31780233659998
 20
223.60485470340001
 30
0.0
 40
0.8
 50
90.0
 51
180.0
  0
LINE
  5
6A6
  8
┌▓È_1
 62
     5
 10
308.51780233660003
 20
223.60485470340001
 30
0.0
 11
308.51780233660003
 21
216.2048547034
 31
0.0
  0
LINE
  5
6A7
  8
┌▓È_1
 62
     5
 10
309.31780233659998
 20
223.60485470340001
 30
0.0
 11
314.51780233660003
 21
223.60485470340001
 31
0.0
  0
LINE
  5
6A8
  8
┌▓È_1
 62
     5
 10
314.51780233660003
 20
224.40485470339999
 30
0.0
 11
309.31780233659998
 21
224.40485470339999
 31
0.0
  0
LINE
  5
6A9
  8
┌▓È_1
 62
     5
 10
323.51780233660003
 20
216.2048547034
 30
0.0
 11
309.31780233659998
 21
216.2048547034
 31
0.0
  0
LINE
  5
6AA
  8
┌▓È_1
 62
     5
 10
309.31780233659998
 20
215.40485470339999
 30
0.0
 11
323.51780233660003
 21
215.40485470339999
 31
0.0
  0
ENDBLK
  5
6AB
  8
0
  0
BLOCK
  8
0
  2
CLUMP100
 70
     0
 10
0.0
 20
0.0
 30
0.0
  3
CLUMP100
  1

  0
LINE
  5
6B0
  8
┌▓È_1
 62
     5
 10
397.60029827900001
 20
84.604383349200006
 30
0.0
 11
397.60029827900001
 21
83.804383349199995
 31
0.0
  0
LINE
  5
6B1
  8
┌▓È_1
 62
     5
 10
391.70029827899998
 20
77.2043833492
 30
0.0
 11
391.70029827899998
 21
84.604383349200006
 31
0.0
  0
LINE
  5
6B2
  8
┌▓È_1
 62
     5
 10
396.90029827900003
 20
77.2043833492
 30
0.0
 11
391.70029827899998
 21
77.2043833492
 31
0.0
  0
LINE
  5
6B3
  8
┌▓È_1
 62
     5
 10
396.90029827900003
 20
77.2043833492
 30
0.0
 11
396.90029827900003
 21
76.404383349200003
 31
0.0
  0
LINE
  5
6B4
  8
┌▓È_1
 62
     5
 10
396.90029827900003
 20
76.404383349200003
 30
0.0
 11
391.70029827899998
 21
76.404383349200003
 31
0.0
  0
ARC
  5
6B5
  8
┌▓È_1
 62
     5
 10
391.70029827899998
 20
77.2043833492
 30
0.0
 40
0.8
 50
180.0
 51
270.0
  0
LINE
  5
6B6
  8
┌▓È_1
 62
     5
 10
390.90029827900003
 20
77.2043833492
 30
0.0
 11
390.90029827900003
 21
84.604383349200006
 31
0.0
  0
ARC
  5
6B7
  8
┌▓È_1
 62
     5
 10
391.70029827899998
 20
84.604383349200006
 30
0.0
 40
0.8
 50
90.0
 51
180.0
  0
LINE
  5
6B8
  8
┌▓È_1
 62
     5
 10
439.90029827900003
 20
76.404383349200003
 30
0.0
 11
439.90029827900003
 21
77.2043833492
 31
0.0
  0
LINE
  5
6B9
  8
┌▓È_1
 62
     5
 10
445.10029827900001
 20
77.2043833492
 30
0.0
 11
439.90029827900003
 21
77.2043833492
 31
0.0
  0
LINE
  5
6BA
  8
┌▓È_1
 62
     5
 10
445.10029827900001
 20
89.604383349200006
 30
0.0
 11
445.10029827900001
 21
77.2043833492
 31
0.0
  0
LINE
  5
6BB
  8
┌▓È_1
 62
     5
 10
416.70029827899998
 20
89.604383349200006
 30
0.0
 11
445.10029827900001
 21
89.604383349200006
 31
0.0
  0
LINE
  5
6BC
  8
┌▓È_1
 62
     5
 10
391.70029827899998
 20
85.404383349200003
 30
0.0
 11
415.90029827900003
 21
85.404383349200003
 31
0.0
  0
LINE
  5
6BD
  8
┌▓È_1
 62
     5
 10
391.70029827899998
 20
84.604383349200006
 30
0.0
 11
415.90029827900003
 21
84.604383349200006
 31
0.0
  0
LINE
  5
6BE
  8
┌▓È_1
 62
     5
 10
416.70029827899998
 20
85.404383349200003
 30
0.0
 11
416.70029827899998
 21
89.604383349200006
 31
0.0
  0
ARC
  5
6BF
  8
┌▓È_1
 62
     5
 10
415.90029827900003
 20
85.404383349200003
 30
0.0
 40
0.8
 50
270.0
 51
0.0
  0
LINE
  5
6C0
  8
┌▓È_1
 62
     5
 10
415.90029827900003
 20
85.404383349200003
 30
0.0
 11
415.90029827900003
 21
89.604383349200006
 31
0.0
  0
ARC
  5
6C1
  8
┌▓È_1
 62
     5
 10
416.70029827899998
 20
89.604383349200006
 30
0.0
 40
0.8
 50
90.0
 51
180.0
  0
LINE
  5
6C2
  8
┌▓È_1
 62
     5
 10
416.70029827899998
 20
90.404383349200003
 30
0.0
 11
445.10029827900001
 21
90.404383349200003
 31
0.0
  0
ARC
  5
6C3
  8
┌▓È_1
 62
     5
 10
445.10029827900001
 20
89.604383349200006
 30
0.0
 40
0.8
 50
0.0
 51
90.0
  0
LINE
  5
6C4
  8
┌▓È_1
 62
     5
 10
445.10029827900001
 20
76.404383349200003
 30
0.0
 11
439.90029827900003
 21
76.404383349200003
 31
0.0
  0
LINE
  5
6C5
  8
┌▓È_1
 62
     5
 10
445.90029827900003
 20
89.604383349200006
 30
0.0
 11
445.90029827900003
 21
77.2043833492
 31
0.0
  0
ARC
  5
6C6
  8
┌▓È_1
 62
     5
 10
445.10029827900001
 20
77.2043833492
 30
0.0
 40
0.8
 50
270.0
 51
0.0
  0
LINE
  5
6C7
  8
┌▓È_1
 62
     5
 10
397.60029827900001
 20
83.804383349199995
 30
0.0
 11
445.10029827900001
 21
83.804383349199995
 31
0.0
  0
LINE
  5
6C8
  8
┌▓È_1
 62
     5
 10
415.90029827900003
 20
84.604383349200006
 30
0.0
 11
445.10029827900001
 21
84.604383349200006
 31
0.0
  0
ENDBLK
  5
6C9
  8
0
  0
BLOCK
  8
0
  2
CLUMP101
 70
     0
 10
0.0
 20
0.0
 30
0.0
  3
CLUMP101
  1

  0
LINE
  5
6D4
  8
┌▓È_1
 62
     5
 10
313.01780233660003
 20
83.803911995099995
 30
0.0
 11
337.71780233660002
 21
83.803911995099995
 31
0.0
  0
LINE
  5
6D5
  8
┌▓È_1
 62
     5
 10
313.01780233660003
 20
83.803911995099995
 30
0.0
 11
313.01780233660003
 21
84.603911995100006
 31
0.0
  0
ARC
  5
6D6
  8
┌▓È_1
 62
     5
 10
323.51780233660003
 20
85.403911995100003
 30
0.0
 40
0.8
 50
270.0
 51
0.0
  0
LINE
  5
6D7
  8
┌▓È_1
 62
     5
 10
332.51780233660003
 20
77.2039119951
 30
0.0
 11
337.71780233660002
 21
77.2039119951
 31
0.0
  0
LINE
  5
6D8
  8
┌▓È_1
 62
     5
 10
332.51780233660003
 20
76.403911995100003
 30
0.0
 11
332.51780233660003
 21
77.2039119951
 31
0.0
  0
LINE
  5
6D9
  8
┌▓È_1
 62
     5
 10
314.51780233660003
 20
77.2039119951
 30
0.0
 11
314.51780233660003
 21
76.403911995100003
 31
0.0
  0
LINE
  5
6DA
  8
┌▓È_1
 62
     5
 10
324.31780233659998
 20
91.903911995100003
 30
0.0
 11
337.71780233660002
 21
91.903911995100003
 31
0.0
  0
LINE
  5
6DB
  8
┌▓È_1
 62
     5
 10
323.51780233660003
 20
85.403911995100003
 30
0.0
 11
323.51780233660003
 21
91.103911995100006
 31
0.0
  0
ARC
  5
6DC
  8
┌▓È_1
 62
     5
 10
324.31780233659998
 20
91.103911995100006
 30
0.0
 40
0.8
 50
90.0
 51
180.0
  0
LINE
  5
6DD
  8
┌▓È_1
 62
     5
 10
324.31780233659998
 20
91.103911995100006
 30
0.0
 11
324.31780233659998
 21
85.403911995100003
 31
0.0
  0
LINE
  5
6DE
  8
┌▓È_1
 62
     5
 10
337.71780233660002
 20
77.2039119951
 30
0.0
 11
337.71780233660002
 21
91.103911995100006
 31
0.0
  0
LINE
  5
6DF
  8
┌▓È_1
 62
     5
 10
337.71780233660002
 20
76.403911995100003
 30
0.0
 11
332.51780233660003
 21
76.403911995100003
 31
0.0
  0
ARC
  5
6E0
  8
┌▓È_1
 62
     5
 10
337.71780233660002
 20
77.2039119951
 30
0.0
 40
0.8
 50
270.0
 51
0.0
  0
LINE
  5
6E1
  8
┌▓È_1
 62
     5
 10
338.51780233660003
 20
91.103911995100006
 30
0.0
 11
338.51780233660003
 21
77.2039119951
 31
0.0
  0
ARC
  5
6E2
  8
┌▓È_1
 62
     5
 10
337.71780233660002
 20
91.103911995100006
 30
0.0
 40
0.8
 50
0.0
 51
90.0
  0
LINE
  5
6E3
  8
┌▓È_1
 62
     5
 10
314.51780233660003
 20
77.2039119951
 30
0.0
 11
314.51780233660003
 21
83.803911995099995
 31
0.0
  0
LINE
  5
6E4
  8
┌▓È_1
 62
     5
 10
323.51780233660003
 20
84.603911995100006
 30
0.0
 11
337.71780233660002
 21
84.603911995100006
 31
0.0
  0
LINE
  5
6E5
  8
┌▓È_1
 62
     5
 10
337.71780233660002
 20
91.103911995100006
 30
0.0
 11
324.31780233659998
 21
91.103911995100006
 31
0.0
  0
LINE
  5
6E6
  8
┌▓È_1
 62
     5
 10
309.31780233659998
 20
84.603911995100006
 30
0.0
 11
309.31780233659998
 21
77.2039119951
 31
0.0
  0
ARC
  5
6E7
  8
┌▓È_1
 62
     5
 10
309.31780233659998
 20
77.2039119951
 30
0.0
 40
0.8
 50
180.0
 51
270.0
  0
LINE
  5
6E8
  8
┌▓È_1
 62
     5
 10
308.51780233660003
 20
77.2039119951
 30
0.0
 11
308.51780233660003
 21
84.603911995100006
 31
0.0
  0
ARC
  5
6E9
  8
┌▓È_1
 62
     5
 10
309.31780233659998
 20
84.603911995100006
 30
0.0
 40
0.8
 50
90.0
 51
180.0
  0
LINE
  5
6EA
  8
┌▓È_1
 62
     5
 10
309.31780233659998
 20
85.403911995100003
 30
0.0
 11
323.51780233660003
 21
85.403911995100003
 31
0.0
  0
LINE
  5
6EB
  8
┌▓È_1
 62
     5
 10
309.31780233659998
 20
77.2039119951
 30
0.0
 11
314.51780233660003
 21
77.2039119951
 31
0.0
  0
LINE
  5
6EC
  8
┌▓È_1
 62
     5
 10
314.51780233660003
 20
76.403911995100003
 30
0.0
 11
309.31780233659998
 21
76.403911995100003
 31
0.0
  0
LINE
  5
6ED
  8
┌▓È_1
 62
     5
 10
323.51780233660003
 20
84.603911995100006
 30
0.0
 11
309.31780233659998
 21
84.603911995100006
 31
0.0
  0
ENDBLK
  5
6EE
  8
0
  0
BLOCK
  8
0
  2
CLUMP102
 70
     0
 10
0.0
 20
0.0
 30
0.0
  3
CLUMP102
  1

  0
LINE
  5
6F4
  8
┌▓È_1
 62
     5
 10
311.51780269290009
 20
85.904383349199989
 30
0.0
 11
323.51780233660003
 21
85.904383349199989
 31
0.0
  0
ARC
  5
6F5
  8
┌▓È_1
 62
     5
 10
311.51780233660003
 20
87.904383349200003
 30
0.0
 40
2.0
 50
180.0
 51
270.00001020809998
  0
LINE
  5
6F6
  8
┌▓È_1
 62
     5
 10
311.51780233660003
 20
87.904383349200003
 30
0.0
 11
323.51780233660003
 21
87.904383349200003
 31
0.0
  0
LINE
  5
6F7
  8
┌▓È_1
 62
     5
 10
311.51780233660003
 20
87.904383349200003
 30
0.0
 11
311.51780233660003
 21
212.9043833492
 31
0.0
  0
LINE
  5
6F8
  8
┌▓È_1
 62
     5
 10
323.51780233660003
 20
85.904383349199989
 30
0.0
 11
323.51780233660003
 21
214.9043833492
 31
0.0
  0
LINE
  5
6F9
  8
┌▓È_1
 62
     5
 10
311.51780233660003
 20
214.9043833492
 30
0.0
 11
323.51780233660003
 21
214.9043833492
 31
0.0
  0
LINE
  5
6FA
  8
┌▓È_1
 62
     5
 10
309.51780233660003
 20
212.90438199990001
 30
0.0
 11
309.51780233660003
 21
87.904383349200003
 31
0.0
  0
ARC
  5
6FB
  8
┌▓È_1
 62
     5
 10
311.51780233660003
 20
212.9043833492
 30
0.0
 40
2.0
 50
90.0
 51
180.0000386554
  0
LINE
  5
6FC
  8
┌▓È_1
 62
     5
 10
311.51780233660003
 20
212.9043833492
 30
0.0
 11
323.51780233660003
 21
212.9043833492
 31
0.0
  0
ENDBLK
  5
6FD
  8
0
  0
BLOCK
  8
0
  2
*U149
 70
     1
 10
0.0
 20
0.0
 30
0.0
  3
*U149
  1

  0
TEXT
  5
732
  8
É}ÿg
  6
CONTINUOUS
 10
282.34181334644211
 20
-252.86387468460001
 30
0.0
 40
7.496527552599999
  1
2
  0
ENDBLK
  5
734
  8
0
  0
BLOCK
  8
0
  2
*U150
 70
     1
 10
0.0
 20
0.0
 30
0.0
  3
*U150
  1

  0
TEXT
  5
736
  8
É}ÿg
  6
CONTINUOUS
 10
282.7794278990051
 20
-265.36387468459998
 30
0.0
 40
7.496527552599999
  1
1
  0
ENDBLK
  5
738
  8
0
  0
BLOCK
  8
0
  2
*U151
 70
     1
 10
0.0
 20
0.0
 30
0.0
  3
*U151
  1

  0
TEXT
  5
73A
  8
É}ÿg
  6
CONTINUOUS
 10
282.37986678579551
 20
-240.36387468460001
 30
0.0
 40
7.496527552599999
  1
3
  0
ENDBLK
  5
73C
  8
0
  0
BLOCK
  8
0
  2
*U152
 70
     1
 10
0.0
 20
0.0
 30
0.0
  3
*U152
  1

  0
TEXT
  5
73E
  8
┌▓È_1
  6
CONTINUOUS
 10
-269.19711443255341
 20
52.020489761099988
 30
0.0
 40
8.2461809158000001
  1
2
  0
ENDBLK
  5
740
  8
0
  0
BLOCK
  8
0
  2
*U153
 70
     1
 10
0.0
 20
0.0
 30
0.0
  3
*U153
  1

  0
TEXT
  5
742
  8
┌▓È_1
  6
CONTINUOUS
 10
-116.6514462685534
 20
52.020489761099988
 30
0.0
 40
8.2461809158000001
  1
3
  0
ENDBLK
  5
744
  8
0
  0
BLOCK
  8
0
  2
*U154
 70
     1
 10
0.0
 20
0.0
 30
0.0
  3
*U154
  1

  0
TEXT
  5
746
  8
┌▓È_1
  6
CONTINUOUS
 10
-178.98413358846469
 20
52.020489761099988
 30
0.0
 40
8.2461809158000001
  1
1
  0
ENDBLK
  5
748
  8
0
  0
BLOCK
  8
0
  2
*U155
 70
     1
 10
0.0
 20
0.0
 30
0.0
  3
*U155
  1

  0
TEXT
  5
74A
  8
É}ÿg
  6
CONTINUOUS
 10
414.81761382617719
 20
-331.42850105243298
 30
0.0
 40
7.496527552599999
  1
û÷ î┤
  0
ENDBLK
  5
74C
  8
0
  0
BLOCK
  8
0
  2
*U156
 70
     1
 10
0.0
 20
0.0
 30
0.0
  3
*U156
  1

  0
TEXT
  5
74E
  8
É}ÿg
  6
CONTINUOUS
 10
290.22179291241628
 20
-317.3158850181
 30
0.0
 40
7.496527552599999
  1
H09.07
  0
ENDBLK
  5
750
  8
0
  0
BLOCK
  8
0
  2
*U157
 70
     1
 10
0.0
 20
0.0
 30
0.0
  3
*U157
  1

  0
TEXT
  5
752
  8
É}ÿg
  6
CONTINUOUS
 10
544.84181334644211
 20
-265.36387468459998
 30
0.0
 40
7.496527552599999
  1
2
  0
ENDBLK
  5
754
  8
0
  0
BLOCK
  8
0
  2
*U158
 70
     1
 10
0.0
 20
0.0
 30
0.0
  3
*U158
  1

  0
TEXT
  5
756
  8
ë³Æ¨
  6
CONTINUOUS
 10
590.85185463275525
 20
302.43827796929997
 30
0.0
 40
6.7468748986999989
  1
üûüû
  0
ENDBLK
  5
758
  8
0
  0
BLOCK
  8
0
  2
*U159
 70
     1
 10
0.0
 20
0.0
 30
0.0
  3
*U159
  1

  0
TEXT
  5
75A
  8
ë³Æ¨
  6
CONTINUOUS
 10
475.26786095275781
 20
302.4445279693
 30
0.0
 40
6.7468748986999989
  1
**********************
  0
ENDBLK
  5
75C
  8
0
  0
BLOCK
  8
0
  2
*U160
 70
     1
 10
0.0
 20
0.0
 30
0.0
  3
*U160
  1

  0
TEXT
  5
75E
  8
ë³Æ¨
  6
CONTINUOUS
 10
408.51468961479611
 20
300.9272973011
 30
0.0
 40
6.7468749188999988
  1
1
  0
ENDBLK
  5
760
  8
0
  0
BLOCK
  8
0
  2
*U161
 70
     1
 10
0.0
 20
0.0
 30
0.0
  3
*U161
  1

  0
TEXT
  5
762
  8
ë³Æ¨
  6
CONTINUOUS
 10
421.14240843282357
 20
302.43827796929997
 30
0.0
 40
6.7468748986999989
  1
H**.**.**
  0
ENDBLK
  5
764
  8
0
  0
BLOCK
  8
0
  2
*U162
 70
     1
 10
0.0
 20
0.0
 30
0.0
  3
*U162
  1

  0
TEXT
  5
766
  8
É}ÿg
  6
CONTINUOUS
 10
352.43639211726651
 20
-317.3158850181
 30
0.0
 40
7.496527552599999
  1
1üF2.5
  0
ENDBLK
  5
768
  8
0
  0
BLOCK
  8
0
  2
*U163
 70
     1
 10
0.0
 20
0.0
 30
0.0
  3
*U163
  1

  0
TEXT
  5
76A
  8
É}ÿg
  6
CONTINUOUS
 10
451.79469231936042
 20
-265.36387468459998
 30
0.0
 40
7.496527552599999
  1
SUS304 0.8t
  0
ENDBLK
  5
76C
  8
0
  0
BLOCK
  8
0
  2
*U164
 70
     1
 10
0.0
 20
0.0
 30
0.0
  3
*U164
  1

  0
TEXT
  5
76E
  8
É}ÿg
  6
CONTINUOUS
 10
341.93593390701483
 20
-265.78246251748629
 30
0.0
 40
7.496527552599999
  1
û{   æ╠
  0
ENDBLK
  5
770
  8
0
  0
BLOCK
  8
0
  2
*U165
 70
     1
 10
0.0
 20
0.0
 30
0.0
  3
*U165
  1

  0
TEXT
  5
772
  8
É}ÿg
  6
CONTINUOUS
 10
538.25974920991314
 20
-366.73158315299997
 30
0.0
 40
9.7454860209999996
  1
SHF00032
  0
ENDBLK
  5
774
  8
0
  0
BLOCK
  8
0
  2
*U166
 70
     1
 10
0.0
 20
0.0
 30
0.0
  3
*U166
  1

  0
TEXT
  5
776
  8
É}ÿg
  6
CONTINUOUS
 10
532.99125042191065
 20
-339.72627787487818
 30
0.0
 40
9.7454860209999996
  1
FM15-45(D)
  0
ENDBLK
  5
778
  8
0
  0
BLOCK
  8
0
  2
*U167
 70
     1
 10
0.0
 20
0.0
 30
0.0
  3
*U167
  1

  0
TEXT
  5
77A
  8
É}ÿg
  6
CONTINUOUS
 10
489.30970648006792
 20
-312.22627787487818
 30
0.0
 40
9.7454860209999996
  1
ânâCéãü[éÚ(É¾î^ üEÉ[î^ )
  0
ENDBLK
  5
77C
  8
0
  0
BLOCK
  8
0
  2
*U168
 70
     1
 10
0.0
 20
0.0
 30
0.0
  3
*U168
  1

  0
TEXT
  5
77E
  8
┌▓È_1
  6
CONTINUOUS
 10
-129.084539569604
 20
-60.185776084095941
 30
0.0
 40
7.4965279578999988
  1
29-Å¼ö╗îè
  0
ENDBLK
  5
780
  8
0
  0
BLOCK
  8
0
  2
*U169
 70
     1
 10
0.0
 20
0.0
 30
0.0
  3
*U169
  1

  0
TEXT
  5
782
  8
É}ÿg
  6
CONTINUOUS
 10
354.34135513619037
 20
-252.86387468460001
 30
0.0
 40
7.496527552599999
  1
Ä¿
  0
ENDBLK
  5
784
  8
0
  0
BLOCK
  8
0
  2
*U170
 70
     1
 10
0.0
 20
0.0
 30
0.0
  3
*U170
  1

  0
TEXT
  5
786
  8
É}ÿg
  6
CONTINUOUS
 10
451.79469231936042
 20
-252.86387468460001
 30
0.0
 40
7.496527552599999
  1
SUS304 0.8t
  0
ENDBLK
  5
788
  8
0
  0
BLOCK
  8
0
  2
*U171
 70
     1
 10
0.0
 20
0.0
 30
0.0
  3
*U171
  1

  0
TEXT
  5
78A
  8
É}ÿg
  6
CONTINUOUS
 10
544.84181334644211
 20
-252.86387468460001
 30
0.0
 40
7.496527552599999
  1
2
  0
ENDBLK
  5
78C
  8
0
  0
BLOCK
  8
0
  2
*U172
 70
     1
 10
0.0
 20
0.0
 30
0.0
  3
*U172
  1

  0
TEXT
  5
78E
  8
É}ÿg
  6
CONTINUOUS
 10
340.39476961320611
 20
-240.744409078133
 30
0.0
 40
7.496527552599999
  1
èW(û┌ÄM)
  0
ENDBLK
  5
790
  8
0
  0
BLOCK
  8
0
  2
*U173
 70
     1
 10
0.0
 20
0.0
 30
0.0
  3
*U173
  1

  0
TEXT
  5
792
  8
É}ÿg
  6
CONTINUOUS
 10
451.79469231936042
 20
-240.36387468460001
 30
0.0
 40
7.496527552599999
  1
SUS304 2.0t
  0
ENDBLK
  5
794
  8
0
  0
BLOCK
  8
0
  2
*U174
 70
     1
 10
0.0
 20
0.0
 30
0.0
  3
*U174
  1

  0
TEXT
  5
796
  8
É}ÿg
  6
CONTINUOUS
 10
545.2794278990051
 20
-240.36387468460001
 30
0.0
 40
7.496527552599999
  1
1
  0
ENDBLK
  5
798
  8
0
  0
BLOCK
  8
0
  2
*U175
 70
     1
 10
0.0
 20
0.0
 30
0.0
  3
*U175
  1

  0
TEXT
  5
79A
  8
É}ÿg
  6
CONTINUOUS
 10
493.3166075091786
 20
314.59579700997512
 30
0.0
 40
6.7468748986999989
  1
ë³ü@Æ¨ü@ôÓü@ùe
  0
ENDBLK
  5
79C
  8
0
  0
BLOCK
  8
0
  2
*U176
 70
     1
 10
0.0
 20
0.0
 30
0.0
  3
*U176
  1

  0
TEXT
  5
79E
  8
É}ÿg
  6
CONTINUOUS
 10
428.12902000305098
 20
314.66429320184011
 30
0.0
 40
6.7468748986999989
  1
ë³Æ¨ô·
  0
ENDBLK
  5
7A0
  8
0
  0
BLOCK
  8
0
  2
*U177
 70
     1
 10
0.0
 20
0.0
 30
0.0
  3
*U177
  1

  0
TEXT
  5
7A2
  8
É}ÿg
  6
CONTINUOUS
 10
402.54702437834192
 20
314.73278939370499
 30
0.0
 40
6.7468748986999989
  1
òøöÈ
  0
ENDBLK
  5
7A4
  8
0
  0
BLOCK
  8
0
  2
*U178
 70
     1
 10
0.0
 20
0.0
 30
0.0
  3
*U178
  1

  0
TEXT
  5
7A6
  8
É}ÿg
  6
CONTINUOUS
 10
287.08877236759997
 20
-368.58747170650918
 30
0.0
 40
13.4937497973
  1
èöÄ«ë´Äð
  0
ENDBLK
  5
7A8
  8
0
  0
BLOCK
  8
0
  2
*U179
 70
     1
 10
0.0
 20
0.0
 30
0.0
  3
*U179
  1

  0
TEXT
  5
7AA
  8
É}ÿg
  6
CONTINUOUS
 10
610.88588072254458
 20
314.5615489140427
 30
0.0
 40
6.7468748986999989
  1
îƒöFÄÊ
  0
ENDBLK
  5
7AC
  8
0
  0
BLOCK
  8
0
  2
*U180
 70
     1
 10
0.0
 20
0.0
 30
0.0
  3
*U180
  1

  0
TEXT
  5
7AE
  8
É}ÿg
  6
CONTINUOUS
 10
464.40190774262032
 20
-357.75219532071981
 30
0.0
 40
7.496527552599999
  1
É} öÈ
  0
ENDBLK
  5
7B0
  8
0
  0
BLOCK
  8
0
  2
*U181
 70
     1
 10
0.0
 20
0.0
 30
0.0
  3
*U181
  1

  0
TEXT
  5
7B2
  8
É}ÿg
  6
CONTINUOUS
 10
461.79524714691928
 20
-302.90440907813303
 30
0.0
 40
7.496527552599999
  1
É╗òiû╝
  0
ENDBLK
  5
7B4
  8
0
  0
BLOCK
  8
0
  2
*U182
 70
     1
 10
0.0
 20
0.0
 30
0.0
  3
*U182
  1

  0
TEXT
  5
7B6
  8
É}ÿg
  6
CONTINUOUS
 10
462.00454106336252
 20
-330.32830219942639
 30
0.0
 40
7.496527552599999
  1
É}û╩û╝
  0
ENDBLK
  5
7B8
  8
0
  0
BLOCK
  8
0
  2
*U183
 70
     1
 10
0.0
 20
0.0
 30
0.0
  3
*U183
  1

  0
TEXT
  5
7BA
  8
É}ÿg
  6
CONTINUOUS
 10
286.492555855793
 20
-303.70018041631317
 30
0.0
 40
7.496527552599999
  1
ô·ü@ü@òt
  0
ENDBLK
  5
7BC
  8
0
  0
BLOCK
  8
0
  2
*U184
 70
     1
 10
0.0
 20
0.0
 30
0.0
  3
*U184
  1

  0
TEXT
  5
7BE
  8
É}ÿg
  6
CONTINUOUS
 10
348.19343362937371
 20
-303.92850105243298
 30
0.0
 40
7.496527552599999
  1
Ä┌ü@ü@ôx
  0
ENDBLK
  5
7C0
  8
0
  0
BLOCK
  8
0
  2
*U185
 70
     1
 10
0.0
 20
0.0
 30
0.0
  3
*U185
  1

  0
TEXT
  5
7C2
  8
É}ÿg
  6
CONTINUOUS
 10
585.98862501034205
 20
314.59579700997512
 30
0.0
 40
6.7468748986999989
  1
ë³Æ¨ÄÊ
  0
ENDBLK
  5
7C4
  8
0
  0
BLOCK
  8
0
  2
*U186
 70
     1
 10
0.0
 20
0.0
 30
0.0
  3
*U186
  1

  0
TEXT
  5
7C6
  8
É}ÿg
  6
CONTINUOUS
 10
275.6063545809082
 20
-278.09219532071978
 30
0.0
 40
7.496527552599999
  1
òiöÈ
  0
ENDBLK
  5
7C8
  8
0
  0
BLOCK
  8
0
  2
*U187
 70
     1
 10
0.0
 20
0.0
 30
0.0
  3
*U187
  1

  0
TEXT
  5
7CA
  8
É}ÿg
  6
CONTINUOUS
 10
273.48918002570002
 20
-345.17850105243298
 30
0.0
 40
7.496527552599999
  1
 É╗É}
  0
ENDBLK
  5
7CC
  8
0
  0
BLOCK
  8
0
  2
*U188
 70
     1
 10
0.0
 20
0.0
 30
0.0
  3
*U188
  1

  0
TEXT
  5
7CE
  8
É}ÿg
  6
CONTINUOUS
 10
273.48918002570002
 20
-331.3523941737264
 30
0.0
 40
7.496527552599999
  1
 É¦îv
  0
ENDBLK
  5
7D0
  8
0
  0
BLOCK
  8
0
  2
*U189
 70
     1
 10
0.0
 20
0.0
 30
0.0
  3
*U189
  1

  0
TEXT
  5
7D2
  8
É}ÿg
  6
CONTINUOUS
 10
367.23918002570002
 20
-345.21655449178633
 30
0.0
 40
7.496527552599999
  1
 îƒÉ}
  0
ENDBLK
  5
7D4
  8
0
  0
BLOCK
  8
0
  2
*U190
 70
     1
 10
0.0
 20
0.0
 30
0.0
  3
*U190
  1

  0
TEXT
  5
7D6
  8
É}ÿg
  6
CONTINUOUS
 10
367.23918002570002
 20
-331.39044761307969
 30
0.0
 40
7.496527552599999
  1
 Åãì©
  0
ENDBLK
  5
7D8
  8
0
  0
BLOCK
  8
0
  2
*U191
 70
     1
 10
0.0
 20
0.0
 30
0.0
  3
*U191
  1

  0
TEXT
  5
7DA
  8
É}ÿg
  6
CONTINUOUS
 10
537.85900722511167
 20
-278.244409078133
 30
0.0
 40
7.496527552599999
  1
Éöù╩
  0
ENDBLK
  5
7DC
  8
0
  0
BLOCK
  8
0
  2
*U192
 70
     1
 10
0.0
 20
0.0
 30
0.0
  3
*U192
  1

  0
TEXT
  5
7DE
  8
É}ÿg
  6
CONTINUOUS
 10
574.14074233824715
 20
-278.35856939619288
 30
0.0
 40
7.496527552599999
  1
ö§ü@ü@ü@ìl
  0
ENDBLK
  5
7E0
  8
0
  0
BLOCK
  8
0
  2
*U193
 70
     1
 10
0.0
 20
0.0
 30
0.0
  3
*U193
  1

  0
TEXT
  5
7E2
  8
É}ÿg
  6
CONTINUOUS
 10
454.49648651344461
 20
-278.13024876007307
 30
0.0
 40
7.496527552599999
  1
ìÌü@ü@ü@Ä┐
  0
ENDBLK
  5
7E4
  8
0
  0
BLOCK
  8
0
  2
*U194
 70
     1
 10
0.0
 20
0.0
 30
0.0
  3
*U194
  1

  0
TEXT
  5
7E6
  8
É}ÿg
  6
CONTINUOUS
 10
334.78188730859449
 20
-278.16830219942642
 30
0.0
 40
7.496527552599999
  1
òiü@ü@ü@û╝
  0
ENDBLK
  5
7E8
  8
0
  0
BLOCK
  8
0
  2
*U195
 70
     1
 10
0.0
 20
0.0
 30
0.0
  3
*U195
  1

  0
TEXT
  5
7EA
  8
É}ÿg
  6
CONTINUOUS
 10
319.01272810109901
 20
-345.21655449178633
 30
0.0
 40
7.496527552599999
  1
öÆÉ{ëÛ
  0
ENDBLK
  5
7EC
  8
0
  0
BLOCK
  8
0
  2
*U196
 70
     1
 10
0.0
 20
0.0
 30
0.0
  3
*U196
  1

  0
TEXT
  5
7EE
  8
É}ÿg
  6
CONTINUOUS
 10
319.01272810109901
 20
-331.46655449178633
 30
0.0
 40
7.496527552599999
  1
öÆÉ{ëÛ
  0
ENDBLK
  5
7F0
  8
0
  0
BLOCK
  8
0
  2
*U197
 70
     1
 10
0.0
 20
0.0
 30
0.0
  3
*U197
  1

  0
TEXT
  5
7F2
  8
É}ÿg
  6
CONTINUOUS
 10
414.81761382617719
 20
-345.17850105243298
 30
0.0
 40
7.496527552599999
  1
û÷ î┤
  0
ENDBLK
  5
7F4
  8
0
  0
BLOCK
  8
0
  2
*U198
 70
     1
 10
0.0
 20
0.0
 30
0.0
  3
*U198
  1

  0
TEXT
  5
7F6
  8
┌▓È_1
  6
CONTINUOUS
 10
317.17504493619998
 20
-211.74139536904261
 30
0.0
 40
7.4965279578999988
  1
üiÉ[î^üj
  0
ENDBLK
  5
7F8
  8
0
  0
BLOCK
  8
0
  2
*U199
 70
     1
 10
0.0
 20
0.0
 30
0.0
  3
*U199
  1

  0
TEXT
  5
7FA
  8
┌▓È_1
  6
CONTINUOUS
 10
264.13500459279999
 20
-211.89360913468519
 30
0.0
 40
7.4965279578999988
  1
üiÉ¾î^üj
  0
ENDBLK
  5
7FC
  8
0
  0
BLOCK
  8
0
  2
*U200
 70
     1
 10
0.0
 20
0.0
 30
0.0
  3
*U200
  1

  0
TEXT
  5
7FE
  8
┌▓È_1
  6
CONTINUOUS
 10
311.21456097089998
 20
34.875995386614719
 30
0.0
 40
7.4965279578999988
  1
üiÉ¾î^üj
  0
ENDBLK
  5
800
  8
0
  0
BLOCK
  8
0
  2
*U201
 70
     1
 10
0.0
 20
0.0
 30
0.0
  3
*U201
  1

  0
TEXT
  5
802
  8
┌▓È_1
  6
CONTINUOUS
 10
403.19510372180002
 20
35.028209152257361
 30
0.0
 40
7.4965279578999988
  1
üiÉ[î^üj
  0
ENDBLK
  5
804
  8
0
  0
ENDSEC
  0
SECTION
  2
ENTITIES
  0
LINE
  5
2F
  8
┌▓È_1
 10
215.22808358660001
 20
214.9044666826
 30
0.0
 11
215.22808358660001
 21
85.904466682600003
 31
0.0
  0
LINE
  5
30
  8
┌▓È_1
 10
215.97806275330001
 20
215.4043833492
 30
0.0
 11
215.97806275330001
 21
85.404383349200003
 31
0.0
  0
INSERT
  5
32
  8
┌▓È_1
  2
CLUMP0
 10
0.0
 20
0.0
 30
0.0
  0
LINE
  5
5D
  8
┌▓È_1
 62
     5
 10
224.97806275330001
 20
27.680893741199998
 30
0.0
 11
224.97806275330001
 21
32.880893741199998
 31
0.0
  0
LINE
  5
5E
  8
┌▓È_1
 62
     5
 10
216.77806275329999
 20
32.880893741199998
 30
0.0
 11
224.1780627533
 21
32.880893741199998
 31
0.0
  0
LINE
  5
5F
  8
┌▓È_1
 62
     5
 10
224.97806275330001
 20
9.6808937412000002
 30
0.0
 11
224.1780627533
 21
9.6808937412000002
 31
0.0
  0
LINE
  5
60
  8
┌▓È_1
 62
     5
 10
216.77806275329999
 20
18.680893741199998
 30
0.0
 11
216.77806275329999
 21
4.4808937412000001
 31
0.0
  0
ARC
  5
61
  8
┌▓È_1
 62
     5
 10
216.77806275329999
 20
4.4808937412000001
 30
0.0
 40
0.8
 50
180.0
 51
270.0
  0
LINE
  5
62
  8
┌▓È_1
 62
     5
 10
217.5780627533
 20
3.6808937411999998
 30
0.0
 11
210.27806275329999
 21
3.6808937411999998
 31
0.0
  0
LINE
  5
63
  8
┌▓È_1
 62
     5
 10
217.5780627533
 20
3.6808937411999998
 30
0.0
 11
224.1780627533
 21
3.6808937411999998
 31
0.0
  0
ARC
  5
64
  8
┌▓È_1
 62
     5
 10
224.1780627533
 20
4.4808937412000001
 30
0.0
 40
0.8
 50
270.0
 51
0.0
  0
LINE
  5
65
  8
┌▓È_1
 62
     5
 10
215.22806275330001
 20
30.180893741199998
 30
0.0
 11
215.22806275330001
 21
32.680893741200009
 31
0.0
  0
LINE
  5
66
  8
┌▓È_1
 62
     5
 10
212.72806275330001
 20
30.680893741199998
 30
0.0
 11
215.22806275330001
 21
30.680893741199998
 31
0.0
  0
ARC
  5
67
  8
┌▓È_1
 62
     5
 10
210.22806275330001
 20
23.680893741199998
 30
0.0
 40
5.0
 50
270.0
 51
0.0
  0
LINE
  5
68
  8
┌▓È_1
 62
     5
 10
215.22806275330001
 20
30.180893741199998
 30
0.0
 11
215.22806275330001
 21
23.680893741199998
 31
0.0
  0
DIMENSION
  5
79
  8
Éíû@É³
 62
     5
  2
*D7
 10
260.41274369199999
 20
76.404383349200003
 30
0.0
 11
260.41274369199999
 21
150.38874285200001
 31
0.0
 70
   128
  1
<>
 13
224.97806275330001
 23
76.404383349200003
 33
0.0
 14
224.97806275330001
 24
224.4043833492
 34
0.0
 50
90.0
  0
DIMENSION
  5
88
  8
Éíû@É³
 62
     5
  2
*D8
 10
247.4130679413
 20
85.404383349200003
 30
0.0
 11
247.4130679413
 21
150.4043833492
 31
0.0
 70
   128
  1
<>
 13
215.97806275330001
 23
85.404383349200003
 33
0.0
 14
215.97806275330001
 24
215.4043833492
 34
0.0
 50
90.0
  0
DIMENSION
  5
97
  8
Éíû@É³
 62
     5
  2
*D9
 10
247.4130698486
 20
76.404383349200003
 30
0.0
 11
247.4130698486
 21
80.904383349199989
 31
0.0
 70
   128
  1
<>
 13
224.97806275330001
 23
76.404383349200003
 33
0.0
 14
215.97806275330001
 24
85.404383349200003
 34
0.0
 50
90.0
  0
DIMENSION
  5
A6
  8
Éíû@É³
 62
     5
  2
*D10
 10
246.15837586360001
 20
27.680893741199998
 30
0.0
 11
246.15837586360001
 21
30.680893741199998
 31
0.0
 70
   128
  1
<>
 13
224.97806275330001
 23
27.680893741199998
 33
0.0
 14
224.1780627533
 24
33.680893741200002
 34
0.0
 50
90.0
  0
DIMENSION
  5
B5
  8
Éíû@É³
 62
     5
  2
*D11
 10
247.4130698486
 20
215.4043833492
 30
0.0
 11
247.4130698486
 21
219.9043833492
 31
0.0
 70
   128
  1
<>
 13
215.97806275330001
 23
215.4043833492
 33
0.0
 14
224.97806275330001
 24
224.4043833492
 34
0.0
 50
90.0
  0
DIMENSION
  5
C4
  8
Éíû@É³
 62
     5
  2
*D12
 10
224.97806275330001
 20
250.71564548000001
 30
0.0
 11
220.47806275330001
 21
250.71564548000001
 31
0.0
 70
   128
  1
<>
 13
224.97806275330001
 23
224.4043833492
 33
0.0
 14
215.97806275330001
 24
215.4043833492
 34
0.0
  0
INSERT
  5
C6
  8
0
  6
CONTINUOUS
  2
*U149
 10
0.0
 20
0.0
 30
0.0
  0
INSERT
  5
C7
  8
0
  6
CONTINUOUS
  2
*U150
 10
0.0
 20
0.0
 30
0.0
  0
INSERT
  5
C8
  8
0
  6
CONTINUOUS
  2
*U151
 10
0.0
 20
0.0
 30
0.0
  0
LINE
  5
C9
  8
┌▓È_1
 62
     5
 10
215.97806275330001
 20
32.880893741199998
 30
0.0
 11
215.97806275330001
 21
18.680893741199998
 31
0.0
  0
ARC
  5
CA
  8
┌▓È_1
 62
     5
 10
216.77806275329999
 20
32.880893741199998
 30
0.0
 40
0.8
 50
90.0
 51
180.0
  0
INSERT
  5
CC
  8
┌▓È_1
  2
CLUMP7
 10
0.0
 20
0.0
 30
0.0
  0
INSERT
  5
D4
  8
┌▓È_1
  2
CLUMP8
 10
0.0
 20
0.0
 30
0.0
  0
LINE
  5
DB
  8
┌▓È_1
  6
BORDER
 62
     3
 10
221.99738566990001
 20
150.4044666826
 30
0.0
 11
228.6720992116
 21
150.4044666826
 31
0.0
  0
INSERT
  5
DD
  8
┌▓È_1
  2
CLUMP9
 10
0.0
 20
0.0
 30
0.0
  0
INSERT
  5
109
  8
┌▓È_1
  2
CLUMP16
 10
0.0
 20
0.0
 30
0.0
  0
CIRCLE
  5
134
  8
┌▓È_1
 10
188.47826587829999
 20
150.40414506799999
 30
0.0
 40
7.5
  0
LINE
  5
135
  8
┌▓È_1
  6
BORDER
 62
     3
 10
188.47826587829999
 20
162.90414506799999
 30
0.0
 11
188.47826587829999
 21
137.90414506799999
 31
0.0
  0
LINE
  5
136
  8
┌▓È_1
 10
224.97806275330001
 20
224.4043833492
 30
0.0
 11
224.97806275330001
 21
76.404383349200003
 31
0.0
  0
LINE
  5
137
  8
┌▓È_1
 62
     5
 10
215.97806275330001
 20
18.680893741199998
 30
0.0
 11
215.97806275330001
 21
4.4808937412000001
 31
0.0
  0
LINE
  5
138
  8
┌▓È_1
 62
     5
 10
212.72806275330001
 20
32.680893741200009
 30
0.0
 11
215.22806275330001
 21
32.680893741200009
 31
0.0
  0
LINE
  5
139
  8
┌▓È_1
 62
     5
 10
216.77806275329999
 20
18.680893741199998
 30
0.0
 11
216.77806275329999
 21
32.880893741199998
 31
0.0
  0
LINE
  5
13A
  8
┌▓È_1
 62
     5
 10
210.22806275330001
 20
18.680893741199998
 30
0.0
 11
210.27806275329999
 21
18.680893741199998
 31
0.0
  0
LINE
  5
13B
  8
┌▓È_1
 62
     5
 10
224.1780627533
 20
9.6808937412000002
 30
0.0
 11
224.1780627533
 21
4.4808937412000001
 31
0.0
  0
LINE
  5
13C
  8
┌▓È_1
 62
     5
 10
224.1780627533
 20
27.680893741199998
 30
0.0
 11
216.77806275329999
 21
27.680893741199998
 31
0.0
  0
LINE
  5
13D
  8
┌▓È_1
 62
     5
 10
224.1780627533
 20
27.680893741199998
 30
0.0
 11
224.97806275330001
 21
27.680893741199998
 31
0.0
  0
LINE
  5
13E
  8
┌▓È_1
 62
     5
 10
224.1780627533
 20
32.880893741199998
 30
0.0
 11
224.1780627533
 21
27.680893741199998
 31
0.0
  0
LINE
  5
13F
  8
┌▓È_1
 62
     5
 10
216.77806275329999
 20
4.4808937412000001
 30
0.0
 11
224.1780627533
 21
4.4808937412000001
 31
0.0
  0
LINE
  5
140
  8
┌▓È_1
 62
     5
 10
224.1780627533
 20
33.680893741200002
 30
0.0
 11
216.77806275329999
 21
33.680893741200002
 31
0.0
  0
LINE
  5
141
  8
┌▓È_1
 62
     5
 10
224.97806275330001
 20
4.4808937412000001
 30
0.0
 11
224.97806275330001
 21
9.6808937412000002
 31
0.0
  0
ARC
  5
142
  8
┌▓È_1
 62
     5
 10
224.1780627533
 20
32.880893741199998
 30
0.0
 40
0.8
 50
0.0
 51
90.0
  0
LINE
  5
143
  8
┌▓È_1
 62
     5
 10
178.1739656545999
 20
-264.6848966371
 30
0.0
 11
178.1739656545999
 21
-273.6848966371
 31
0.0
  0
ARC
  5
144
  8
┌▓È_1
 62
     5
 10
173.17396565460001
 20
-273.6848966371
 30
0.0
 40
5.0
 50
269.99999715709998
 51
0.0
  0
INSERT
  5
146
  8
┌▓È_1
  2
CLUMP23
 10
0.0
 20
0.0
 30
0.0
  0
INSERT
  5
14E
  8
┌▓È_1
  2
CLUMP24
 10
0.0
 20
0.0
 30
0.0
  0
LINE
  5
179
  8
┌▓È_1
 10
178.1739656545999
 20
-70.596940907999993
 30
0.0
 11
178.1739656545999
 21
-199.59694090799999
 31
0.0
  0
INSERT
  5
17B
  8
┌▓È_1
  2
CLUMP31
 10
0.0
 20
0.0
 30
0.0
  0
CIRCLE
  5
1A6
  8
┌▓È_1
 10
151.4241479463
 20
-135.0972625226
 30
0.0
 40
7.5
  0
LINE
  5
1A7
  8
┌▓È_1
  6
BORDER
 62
     3
 10
151.4241479463
 20
-122.5972625226
 30
0.0
 11
151.4241479463
 21
-147.5972625226
 31
0.0
  0
INSERT
  5
1A9
  8
┌▓È_1
  2
CLUMP38
 10
0.0
 20
0.0
 30
0.0
  0
LINE
  5
1B0
  8
┌▓È_1
 62
     5
 10
283.68980087889997
 20
-70.597262522600005
 30
0.0
 11
283.68980087889997
 21
-72.597262522600005
 31
0.0
  0
LINE
  5
1B1
  8
┌▓È_1
 62
     5
 10
283.68980087889997
 20
-199.59726252259989
 30
0.0
 11
283.68980087889997
 21
-197.59726252259989
 31
0.0
  0
ARC
  5
1B2
  8
┌▓È_1
 62
     5
 10
271.68980087889997
 20
-197.59726252259989
 30
0.0
 40
2.0
 50
180.0
 51
270.00001020809998
  0
LINE
  5
1B3
  8
┌▓È_1
 62
     5
 10
271.68980123519998
 20
-199.59726252259989
 30
0.0
 11
283.68980087889997
 21
-199.59726252259989
 31
0.0
  0
DIMENSION
  5
1C2
  8
Éíû@É³
 62
     5
  2
*D45
 10
1.4241479462999991
 20
-224.59694208799999
 30
0.0
 11
38.92414794630001
 21
-224.59694208799999
 31
0.0
 70
   128
  1
<>
 13
1.4241479462999991
 23
-185.09726252259989
 33
0.0
 14
76.424147946299996
 24
-185.09726252259989
 34
0.0
 50
180.0
  0
DIMENSION
  5
1D1
  8
Éíû@É³
 62
     5
  2
*D46
 10
283.68980087889997
 20
-51.737731119999999
 30
0.0
 11
276.68980087889997
 21
-51.737731119999999
 31
0.0
 70
   128
  1
<>
 13
283.68980087889997
 23
-70.597262522600005
 33
0.0
 14
269.68980087889997
 24
-72.597263871899983
 34
0.0
  0
DIMENSION
  5
1D9
  8
Éíû@É³
 62
     5
  2
*D47
 10
173.17396565460001
 20
-273.6848966371
 30
0.0
 11
169.55301734080001
 21
-289.3851262828
 31
0.0
 70
   132
  1
<>
 15
176.70949956050001
 25
-277.22043054310001
 35
0.0
 40
0.0
  0
DIMENSION
  5
1E8
  8
Éíû@É³
 62
     5
  2
*D48
 10
203.17396484080001
 20
-103.5972625226
 30
0.0
 11
203.17396484080001
 21
-96.097262522600005
 31
0.0
 70
   128
  1
<>
 13
162.4241479463
 23
-103.5972625226
 33
0.0
 14
162.4241479463
 24
-88.597262522600005
 34
0.0
 50
90.0
  0
DIMENSION
  5
1F7
  8
Éíû@É³
 62
     5
  2
*D49
 10
203.17396536979999
 20
-135.09694090799999
 30
0.0
 11
203.17396536979999
 21
-119.3471017153
 31
0.0
 70
   128
  1
<>
 13
184.94326773789999
 23
-135.09694090799999
 33
0.0
 14
162.4241479463
 24
-103.5972625226
 34
0.0
 50
90.0
  0
DIMENSION
  5
206
  8
Éíû@É³
 62
     5
  2
*D50
 10
203.17396536979999
 20
-166.5972625226
 30
0.0
 11
203.17396536979999
 21
-150.8471017153
 31
0.0
 70
   128
  1
<>
 13
162.4241479463
 23
-166.5972625226
 33
0.0
 14
184.94326773789999
 24
-135.09694090799999
 34
0.0
 50
90.0
  0
DIMENSION
  5
215
  8
Éíû@É³
 62
     5
  2
*D51
 10
203.17396484080001
 20
-181.5972625226
 30
0.0
 11
203.17396484080001
 21
-174.0972625226
 31
0.0
 70
   128
  1
<>
 13
162.4241479463
 23
-181.5972625226
 33
0.0
 14
162.4241479463
 24
-166.5972625226
 34
0.0
 50
90.0
  0
DIMENSION
  5
224
  8
Éíû@É³
 62
     5
  2
*D52
 10
203.17396565460001
 20
-199.59694090799999
 30
0.0
 11
203.17396565460001
 21
-190.5971017153
 31
0.0
 70
   128
  1
<>
 13
178.1739656545999
 23
-199.59694090799999
 33
0.0
 14
162.4241479463
 24
-181.5972625226
 34
0.0
 50
90.0
  0
DIMENSION
  5
233
  8
Éíû@É³
 62
     5
  2
*D53
 10
220.57290669459999
 20
-199.59694090799999
 30
0.0
 11
220.57290669459999
 21
-135.09694090799999
 31
0.0
 70
   128
  1
<>
 13
178.1739656545999
 23
-199.59694090799999
 33
0.0
 14
178.1739656545999
 24
-70.596940907999993
 34
0.0
 50
90.0
  0
DIMENSION
  5
242
  8
Éíû@É³
 62
     5
  2
*D54
 10
151.4241479463
 20
-224.59694090799999
 30
0.0
 11
164.7990568004
 21
-224.59694090799999
 31
0.0
 70
   128
  1
<>
 13
151.4241479463
 23
-185.09726252259989
 33
0.0
 14
178.1739656545999
 24
-199.59694090799999
 34
0.0
 50
180.0
  0
DIMENSION
  5
251
  8
Éíû@É³
 62
     5
  2
*D55
 10
76.424147946299996
 20
-224.59694208799999
 30
0.0
 11
113.9241479463
 21
-224.59694208799999
 31
0.0
 70
   128
  1
<>
 13
76.424147946299996
 23
-185.09726252259989
 33
0.0
 14
151.4241479463
 24
-185.09726252259989
 34
0.0
 50
180.0
  0
DIMENSION
  5
260
  8
Éíû@É³
 62
     5
  2
*D56
 10
203.17396565460001
 20
-88.597262522600005
 30
0.0
 11
203.17396565460001
 21
-79.597101715299999
 31
0.0
 70
   128
  1
<>
 13
162.4241479463
 23
-88.597262522600005
 33
0.0
 14
178.1739656545999
 24
-70.596940907999993
 34
0.0
 50
90.0
  0
LINE
  5
261
  8
┌▓È_1
 10
-214.02193724669999
 20
85.404383349200003
 30
0.0
 11
-214.02193724669999
 21
215.4043833492
 31
0.0
  0
LINE
  5
262
  8
┌▓È_1
 10
-223.02193724669999
 20
76.404383349200003
 30
0.0
 11
-223.02193724669999
 21
224.4043833492
 31
0.0
  0
CIRCLE
  5
263
  8
┌▓È_1
 10
-186.52173412170001
 20
150.40414506799999
 30
0.0
 40
7.5
  0
INSERT
  5
265
  8
┌▓È_1
  2
CLUMP39
 10
0.0
 20
0.0
 30
0.0
  0
LINE
  5
290
  8
┌▓È_1
 10
-206.0219703315
 20
4.4808937412000001
 30
0.0
 11
-222.22193724670001
 21
4.4808937412000001
 31
0.0
  0
LINE
  5
291
  8
┌▓È_1
 10
-223.02193724669999
 20
27.680893741199998
 30
0.0
 11
-223.02193724669999
 21
32.880893741199998
 31
0.0
  0
LINE
  5
292
  8
┌▓È_1
 10
-222.22193724670001
 20
9.6808937412000002
 30
0.0
 11
-223.02193724669999
 21
9.6808937412000002
 31
0.0
  0
ARC
  5
293
  8
┌▓È_1
 10
-222.22193724670001
 20
4.4808937412000001
 30
0.0
 40
0.8
 50
180.0
 51
270.0
  0
ARC
  5
294
  8
┌▓È_1
 10
-214.8219372467
 20
4.4808937412000001
 30
0.0
 40
0.8
 50
270.0
 51
0.0
  0
LINE
  5
295
  8
┌▓È_1
 10
-206.0219703315
 20
9.6808937412000002
 30
0.0
 11
-206.0219703315
 21
3.6808937411999998
 31
0.0
  0
LINE
  5
296
  8
┌▓È_1
 10
-222.22193724670001
 20
4.4808937412000001
 30
0.0
 11
-222.22193724670001
 21
9.6808937412000002
 31
0.0
  0
ARC
  5
297
  8
┌▓È_1
 10
-222.22193724670001
 20
32.880893741199998
 30
0.0
 40
0.8
 50
90.0
 51
180.0
  0
LINE
  5
298
  8
┌▓È_1
 10
-223.02193724669999
 20
4.4808937412000001
 30
0.0
 11
-223.02193724669999
 21
9.6808937412000002
 31
0.0
  0
LINE
  5
299
  8
┌▓È_1
 10
-213.27191641339999
 20
88.154875536700004
 30
0.0
 11
-213.27191641339999
 21
86.154875536700004
 31
0.0
  0
DIMENSION
  5
2A8
  8
Éíû@É³
 62
     5
  2
*D64
 10
-214.02193724669999
 20
250.71564548000001
 30
0.0
 11
-218.52193724669999
 21
250.71564548000001
 31
0.0
 70
   128
  1
<>
 13
-214.02193724669999
 23
215.4043833492
 33
0.0
 14
-223.02193724669999
 24
224.4043833492
 34
0.0
  0
INSERT
  5
2AA
  8
Éíû@É³
  2
BALLON0
 10
0.0
 20
0.0
 30
0.0
  0
INSERT
  5
2B4
  8
Éíû@É³
  2
BALLON1
 10
0.0
 20
0.0
 30
0.0
  0
INSERT
  5
2BE
  8
Éíû@É³
  2
BALLON2
 10
0.0
 20
0.0
 30
0.0
  0
LINE
  5
2C7
  8
┌▓È_1
  6
BORDER
 62
     3
 10
263.68980087889997
 20
-135.0972625226
 30
0.0
 11
288.68980087889997
 21
-135.0972625226
 31
0.0
  0
LINE
  5
2C8
  8
┌▓È_1
 62
     5
 10
269.68980087889997
 20
-72.597263871899983
 30
0.0
 11
269.68980087889997
 21
-197.59726252259989
 31
0.0
  0
LINE
  5
2C9
  8
┌▓È_1
 62
     5
 10
271.68980087889997
 20
-197.59726252259989
 30
0.0
 11
271.68980087889997
 21
-72.597262522600005
 31
0.0
  0
LINE
  5
2CA
  8
┌▓È_1
 62
     5
 10
271.68980087889997
 20
-72.597262522600005
 30
0.0
 11
283.68980087889997
 21
-72.597262522600005
 31
0.0
  0
ARC
  5
2CB
  8
┌▓È_1
 62
     5
 10
271.68980087889997
 20
-72.597262522600005
 30
0.0
 40
2.0
 50
90.0
 51
180.0000386554
  0
LINE
  5
2CC
  8
┌▓È_1
 62
     5
 10
271.68980087889997
 20
-70.597262522600005
 30
0.0
 11
283.68980087889997
 21
-70.597262522600005
 31
0.0
  0
LINE
  5
2CD
  8
┌▓È_1
 62
     5
 10
271.68980087889997
 20
-197.59726252259989
 30
0.0
 11
283.68980087889997
 21
-197.59726252259989
 31
0.0
  0
INSERT
  5
2CF
  8
┌▓È_1
  2
CLUMP46
 10
0.0
 20
0.0
 30
0.0
  0
LINE
  5
2D6
  8
┌▓È_1
 10
-250.32603434539999
 20
-72.846532053800004
 30
0.0
 11
-250.32603434539999
 21
-70.596940907999993
 31
0.0
  0
LINE
  5
2D7
  8
┌▓È_1
 10
-250.32603434539999
 20
-197.34653205379999
 30
0.0
 11
-250.32603434539999
 21
-199.34653205379999
 31
0.0
  0
LINE
  5
2D8
  8
┌▓È_1
  6
BORDER
 62
     3
 10
-223.5758520537
 20
-122.5972625226
 30
0.0
 11
-223.5758520537
 21
-147.5972625226
 31
0.0
  0
LINE
  5
2D9
  8
┌▓È_1
 10
-250.32603434539999
 20
-199.59694090799999
 30
0.0
 11
-250.32603434539999
 21
-72.846532053800004
 31
0.0
  0
CIRCLE
  5
2DA
  8
┌▓È_1
 10
-223.5758520537
 20
-135.0972625226
 30
0.0
 40
7.5
  0
INSERT
  5
2DC
  8
┌▓È_1
  2
CLUMP47
 10
0.0
 20
0.0
 30
0.0
  0
ARC
  5
307
  8
┌▓È_1
 62
     5
 10
-245.32603434539999
 20
-273.6848966371
 30
0.0
 40
5.0
 50
180.0
 51
269.99999957839998
  0
LINE
  5
308
  8
┌▓È_1
 62
     5
 10
-250.32603434539999
 20
-264.6848966371
 30
0.0
 11
-250.32603434539999
 21
-273.6848966371
 31
0.0
  0
DIMENSION
  5
317
  8
Éíû@É³
 62
     5
  2
*D76
 10
-137.5758520537
 20
-153.85735335050001
 30
0.0
 11
-148.5758520537
 21
-153.85735335050001
 31
0.0
 70
   128
  1
<>
 13
-137.5758520537
 23
-166.5972625226
 33
0.0
 14
-159.5758520537
 24
-166.5972625226
 34
0.0
  0
DIMENSION
  5
326
  8
Éíû@É³
 62
     5
  2
*D77
 10
-223.5758520537
 20
-224.59694208799999
 30
0.0
 11
-186.0758520537
 21
-224.59694208799999
 31
0.0
 70
   128
  1
<>
 13
-223.5758520537
 23
-185.09726252259989
 33
0.0
 14
-148.5758520537
 24
-185.09726252259989
 34
0.0
 50
180.0
  0
DIMENSION
  5
32D
  8
Éíû@É³
 62
     5
  2
*D78
 10
-243.69655264950001
 20
-145.16683365630001
 30
0.0
 11
-248.7608926668
 21
-161.49564498359999
 31
0.0
 70
   131
  1
2-â│15
 15
-230.30495051290001
 25
-138.4092459053
 35
0.0
 40
0.0
  0
DIMENSION
  5
33C
  8
Éíû@É³
 62
     5
  2
*D79
 10
-250.32603434539999
 20
-224.59694090799999
 30
0.0
 11
-236.9509431996
 21
-224.59694090799999
 31
0.0
 70
   128
  1
<>
 13
-250.32603434539999
 23
-199.59694090799999
 33
0.0
 14
-223.5758520537
 24
-185.09726252259989
 34
0.0
 50
180.0
  0
DIMENSION
  5
34B
  8
Éíû@É³
 62
     5
  2
*D80
 10
-125.0758520537
 20
-170.0972625226
 30
0.0
 11
-125.0758520537
 21
-166.5972625226
 31
0.0
 70
   128
  1
<>
 13
-141.0758520537
 23
-170.0972625226
 33
0.0
 14
-141.0758520537
 24
-163.0972625226
 34
0.0
 50
90.0
  0
DIMENSION
  5
35A
  8
Éíû@É³
 62
     5
  2
*D81
 10
-148.5758520537
 20
-224.59694208799999
 30
0.0
 11
-111.0758520537
 21
-224.59694208799999
 31
0.0
 70
   128
  1
<>
 13
-148.5758520537
 23
-185.09726252259989
 33
0.0
 14
-73.575852053700004
 24
-185.09726252259989
 34
0.0
 50
180.0
  0
LINE
  5
35B
  8
┌▓È_1
  6
BORDER
 62
     3
 10
-220.36941120509999
 20
150.4044666826
 30
0.0
 11
-227.46956745509999
 21
150.4044666826
 31
0.0
  0
INSERT
  5
35D
  8
┌▓È_1
  2
CLUMP54
 10
0.0
 20
0.0
 30
0.0
  0
INSERT
  5
389
  8
┌▓È_1
  2
CLUMP61
 10
0.0
 20
0.0
 30
0.0
  0
LINE
  5
3B4
  8
┌▓È_1
  6
BORDER
 62
     3
 10
-186.52173412170001
 20
162.90414506799999
 30
0.0
 11
-186.52173412170001
 21
137.90414506799999
 31
0.0
  0
INSERT
  5
3B6
  8
┌▓È_1
  2
CLUMP68
 10
0.0
 20
0.0
 30
0.0
  0
LINE
  5
3BD
  8
┌▓È_1
 10
-213.27191641339999
 20
212.65487553669999
 30
0.0
 11
-213.27191641339999
 21
214.9044666826
 31
0.0
  0
LINE
  5
3BE
  8
┌▓È_1
 10
-206.8219372467
 20
27.680893741199998
 30
0.0
 11
-206.8219372467
 21
4.4808937412000001
 31
0.0
  0
LINE
  5
3BF
  8
┌▓È_1
 10
-214.8219372467
 20
27.680893741199998
 30
0.0
 11
-214.8219372467
 21
4.4808937412000001
 31
0.0
  0
INSERT
  5
3C1
  8
┌▓È_1
  2
CLUMP69
 10
0.0
 20
0.0
 30
0.0
  0
LINE
  5
3C8
  8
┌▓È_1
 10
-213.27191641339999
 20
85.904466682600003
 30
0.0
 11
-213.27191641339999
 21
212.65487553669999
 31
0.0
  0
INSERT
  5
3C9
  8
0
  6
CONTINUOUS
  2
*U155
 10
0.0
 20
0.0
 30
0.0
  0
INSERT
  5
3CA
  8
0
  6
CONTINUOUS
  2
*U156
 10
0.0
 20
0.0
 30
0.0
  0
INSERT
  5
3CB
  8
0
  6
CONTINUOUS
  2
*U157
 10
0.0
 20
0.0
 30
0.0
  0
INSERT
  5
3CD
  8
0
  6
CONTINUOUS
  2
*U158
 10
0.0
 20
0.0
 30
0.0
  0
INSERT
  5
3CE
  8
0
  6
CONTINUOUS
  2
*U159
 10
0.0
 20
0.0
 30
0.0
  0
INSERT
  5
3CF
  8
0
  6
CONTINUOUS
  2
*U160
 10
0.0
 20
0.0
 30
0.0
  0
INSERT
  5
3D0
  8
0
  6
CONTINUOUS
  2
*U161
 10
0.0
 20
0.0
 30
0.0
  0
INSERT
  5
3D1
  8
0
  6
CONTINUOUS
  2
*U162
 10
0.0
 20
0.0
 30
0.0
  0
INSERT
  5
3D2
  8
0
  6
CONTINUOUS
  2
*U163
 10
0.0
 20
0.0
 30
0.0
  0
INSERT
  5
3D3
  8
0
  6
CONTINUOUS
  2
*U164
 10
0.0
 20
0.0
 30
0.0
  0
INSERT
  5
3D5
  8
É}ÿg
  2
CLUMP70
 10
0.0
 20
0.0
 30
0.0
  0
INSERT
  5
3DF
  8
É}ÿg
  2
CLUMP71
 10
0.0
 20
0.0
 30
0.0
  0
INSERT
  5
3E8
  8
0
  6
CONTINUOUS
  2
*U165
 10
0.0
 20
0.0
 30
0.0
  0
INSERT
  5
3E9
  8
0
  6
CONTINUOUS
  2
*U166
 10
0.0
 20
0.0
 30
0.0
  0
INSERT
  5
3EA
  8
0
  6
CONTINUOUS
  2
*U167
 10
0.0
 20
0.0
 30
0.0
  0
DIMENSION
  5
3F9
  8
Éíû@É³
 62
     5
  2
*D100
 10
246.15837586360001
 20
3.6808937411999998
 30
0.0
 11
246.15837586360001
 21
6.6808937412000002
 31
0.0
 70
   128
  1
<>
 13
224.1780627533
 23
3.6808937411999998
 33
0.0
 14
224.97806275330001
 24
9.6808937412000002
 34
0.0
 50
90.0
  0
INSERT
  5
3FA
  8
0
  6
CONTINUOUS
  2
*U168
 10
0.0
 20
0.0
 30
0.0
  0
INSERT
  5
3FC
  8
┌▓È_1
  2
CLUMP72
 10
0.0
 20
0.0
 30
0.0
  0
INSERT
  5
404
  8
┌▓È_1
  2
CLUMP73
 10
0.0
 20
0.0
 30
0.0
  0
INSERT
  5
40C
  8
┌▓È_1
  2
CLUMP74
 10
0.0
 20
0.0
 30
0.0
  0
INSERT
  5
438
  8
┌▓È_1
  2
CLUMP81
 10
0.0
 20
0.0
 30
0.0
  0
LINE
  5
463
  8
┌▓È_1
  6
BORDER
 62
     3
 10
-36.076055178700003
 20
-65.596940907999993
 30
0.0
 11
-36.076055178700003
 21
-204.59694090799999
 31
0.0
  0
LINE
  5
464
  8
┌▓È_1
 10
-148.5758520537
 20
-85.097262522600005
 30
0.0
 11
-134.91276101939999
 21
-62.818036907500002
 31
0.0
  0
SOLID
  5
465
  8
┌▓È_1
 10
-148.5758520537
 20
-85.097262522600005
 30
0.0
 11
-147.10400237370001
 21
-80.134543735199998
 31
0.0
 12
-146.66231945300001
 22
-81.977029741600006
 32
0.0
 13
-146.66231945300001
 23
-81.977029741600006
 33
0.0
  0
SOLID
  5
466
  8
┌▓È_1
 10
-148.5758520537
 20
-85.097262522600005
 30
0.0
 11
-144.8198334466
 21
-81.535346820900003
 31
0.0
 12
-146.66231945300001
 22
-81.977029741600006
 32
0.0
 13
-146.66231945300001
 23
-81.977029741600006
 33
0.0
  0
LINE
  5
467
  8
┌▓È_1
 10
-134.91276101939999
 20
-62.818036907500002
 30
0.0
 11
-81.536075905700002
 21
-62.818036907500002
 31
0.0
  0
LINE
  5
468
  8
┌▓È_1
  6
BORDER
 62
     3
 10
-36.076055178700003
 20
-259.6848966371
 30
0.0
 11
-36.076055178700003
 21
-283.6848966371
 31
0.0
  0
DIMENSION
  5
477
  8
Éíû@É³
 62
     5
  2
*D117
 10
445.90029827900003
 20
253.34125010950001
 30
0.0
 11
430.90029827900003
 21
253.34125010950001
 31
0.0
 70
   128
  1
<>
 13
445.90029827900003
 23
224.4043833492
 33
0.0
 14
415.90029827900003
 24
215.4043833492
 34
0.0
  0
DIMENSION
  5
486
  8
Éíû@É³
 62
     5
  2
*D118
 10
341.74602073369999
 20
-51.737731119999999
 30
0.0
 11
330.24602073369999
 21
-51.737731119999999
 31
0.0
 70
   128
  1
<>
 13
341.74602073369999
 23
-70.597262522600005
 33
0.0
 14
318.74602073369999
 24
-72.597262522600005
 34
0.0
  0
DIMENSION
  5
495
  8
Éíû@É³
 62
     5
  2
*D119
 10
338.51780233660003
 20
265.74369442509999
 30
0.0
 11
323.51780233660003
 21
265.74369442509999
 31
0.0
 70
   128
  1
<>
 13
338.51780233660003
 23
223.60485470340001
 33
0.0
 14
308.51780233660003
 24
223.60485470340001
 34
0.0
  0
DIMENSION
  5
4A4
  8
Éíû@É³
 62
     5
  2
*D120
 10
323.51780233660003
 20
253.1706010108
 30
0.0
 11
315.77732575810001
 21
253.1706010108
 31
0.0
 70
   128
  1
<>
 13
323.51780233660003
 23
215.40485470339999
 33
0.0
 14
308.51780233660003
 24
223.60485470340001
 34
0.0
  0
DIMENSION
  5
4B3
  8
Éíû@É³
 62
     5
  2
*D121
 10
467.31520954920001
 20
90.404383349200003
 30
0.0
 11
467.31520954920001
 21
150.4043833492
 31
0.0
 70
   128
  1
<>
 13
445.90029827900003
 23
90.404383349200003
 33
0.0
 14
445.90029827900003
 24
210.4043833492
 34
0.0
 50
90.0
  0
DIMENSION
  5
4C2
  8
Éíû@É³
 62
     5
  2
*D122
 10
361.4431040792
 20
91.903911995100003
 30
0.0
 11
361.4431040792
 21
150.4043833492
 31
0.0
 70
   128
  1
<>
 13
337.71780233660002
 23
91.903911995100003
 33
0.0
 14
337.71780233660002
 24
208.90485470339999
 34
0.0
 50
90.0
  0
DIMENSION
  5
4D1
  8
Éíû@É³
 62
     5
  2
*D123
 10
-73.575852053700004
 20
-224.59694208799999
 30
0.0
 11
-36.075852053699997
 21
-224.59694208799999
 31
0.0
 70
   128
  1
<>
 13
-73.575852053700004
 23
-185.09726252259989
 33
0.0
 14
1.4241479462999991
 24
-185.09726252259989
 34
0.0
 50
180.0
  0
DIMENSION
  5
4E0
  8
Éíû@É³
 62
     5
  2
*D124
 10
178.1739656545999
 20
-45.596940907999993
 30
0.0
 11
-36.076034345399997
 21
-45.596940907999993
 31
0.0
 70
   128
  1
<>
 13
178.1739656545999
 23
-70.596940907999993
 33
0.0
 14
-250.32603434539999
 24
-70.596940907999993
 34
0.0
  0
DIMENSION
  5
4EF
  8
Éíû@É³
 62
     5
  2
*D125
 10
224.97806275330001
 20
264.07194774129999
 30
0.0
 11
0.9780627533
 21
264.07194774129999
 31
0.0
 70
   128
  1
<>
 13
224.97806275330001
 23
224.4043833492
 33
0.0
 14
-223.02193724669999
 24
224.4043833492
 34
0.0
  0
DIMENSION
  5
4FE
  8
Éíû@É³
 62
     5
  2
*D126
 10
215.97806275330001
 20
250.71564357259999
 30
0.0
 11
0.9780627533
 21
250.71564357259999
 31
0.0
 70
   128
  1
<>
 13
215.97806275330001
 23
215.4043833492
 33
0.0
 14
-214.02193724669999
 24
215.4043833492
 34
0.0
  0
DIMENSION
  5
50D
  8
Éíû@É³
 62
     5
  2
*D127
 10
467.31520954920001
 20
76.404383349200003
 30
0.0
 11
467.31520954920001
 21
83.404383349199989
 31
0.0
 70
   128
  1
14
 13
445.90029827900003
 23
76.404383349200003
 33
0.0
 14
445.90029827900003
 24
90.404383349200003
 34
0.0
 50
90.0
  0
DIMENSION
  5
51C
  8
Éíû@É³
 62
     5
  2
*D128
 10
361.5032446889
 20
76.403911995100003
 30
0.0
 11
361.5032446889
 21
58.412922309999999
 31
0.0
 70
   128
  1
15.5
 13
337.71780233660002
 23
76.403911995100003
 33
0.0
 14
337.71780233660002
 24
91.903911995100003
 34
0.0
 50
90.0
  0
DIMENSION
  5
52B
  8
Éíû@É³
 62
     5
  2
*D129
 10
467.31520954920001
 20
210.4043833492
 30
0.0
 11
467.31520954920001
 21
217.4043833492
 31
0.0
 70
   128
  1
14
 13
445.90029827900003
 23
210.4043833492
 33
0.0
 14
445.90029827900003
 24
224.4043833492
 34
0.0
 50
90.0
  0
DIMENSION
  5
53A
  8
Éíû@É³
 62
     5
  2
*D130
 10
415.90029827900003
 20
253.34125010950001
 30
0.0
 11
403.40029827900003
 21
253.34125010950001
 31
0.0
 70
   128
  1
<>
 13
415.90029827900003
 23
215.4043833492
 33
0.0
 14
390.90029827900003
 24
224.4043833492
 34
0.0
  0
INSERT
  5
53B
  8
0
  6
CONTINUOUS
  2
*U169
 10
0.0
 20
0.0
 30
0.0
  0
INSERT
  5
53C
  8
0
  6
CONTINUOUS
  2
*U170
 10
0.0
 20
0.0
 30
0.0
  0
INSERT
  5
53D
  8
0
  6
CONTINUOUS
  2
*U171
 10
0.0
 20
0.0
 30
0.0
  0
INSERT
  5
53F
  8
É}ÿg
  2
CLUMP88
 10
0.0
 20
0.0
 30
0.0
  0
INSERT
  5
548
  8
0
  6
CONTINUOUS
  2
*U172
 10
0.0
 20
0.0
 30
0.0
  0
INSERT
  5
549
  8
0
  6
CONTINUOUS
  2
*U173
 10
0.0
 20
0.0
 30
0.0
  0
INSERT
  5
54A
  8
0
  6
CONTINUOUS
  2
*U174
 10
0.0
 20
0.0
 30
0.0
  0
INSERT
  5
54C
  8
É}ÿg
  2
CLUMP89
 10
0.0
 20
0.0
 30
0.0
  0
INSERT
  5
5F0
  8
0
  6
CONTINUOUS
  2
*U195
 10
0.0
 20
0.0
 30
0.0
  0
INSERT
  5
5F1
  8
0
  6
CONTINUOUS
  2
*U196
 10
0.0
 20
0.0
 30
0.0
  0
INSERT
  5
5F2
  8
0
  6
CONTINUOUS
  2
*U197
 10
0.0
 20
0.0
 30
0.0
  0
LINE
  5
5F3
  8
┌▓È_1
 62
     5
 10
338.51780233660003
 20
91.103911995100006
 30
0.0
 11
338.51780233660003
 21
209.7048547034
 31
0.0
  0
LINE
  5
5F4
  8
┌▓È_1
  6
BORDER
 62
     3
 10
0.9780627533
 20
38.680893741200002
 30
0.0
 11
0.9780627533
 21
-1.3191062587999991
 31
0.0
  0
INSERT
  5
5F6
  8
┌▓È_1
  2
CLUMP90
 10
0.0
 20
0.0
 30
0.0
  0
LINE
  5
5FD
  8
┌▓È_1
 10
-222.22193724670001
 20
33.680893741200002
 30
0.0
 11
0.9780627533
 21
33.680893741200002
 31
0.0
  0
LINE
  5
5FE
  8
┌▓È_1
 10
0.9780627533
 20
17.880893741200001
 30
0.0
 11
-206.8219372467
 21
17.880893741200001
 31
0.0
  0
LINE
  5
5FF
  8
┌▓È_1
 10
-223.02193724669999
 20
27.680893741199998
 30
0.0
 11
0.9780627533
 21
27.680893741199998
 31
0.0
  0
LINE
  5
600
  8
┌▓È_1
 62
     5
 10
394.90029827900003
 20
214.9043833492
 30
0.0
 11
415.90029827900003
 21
214.9043833492
 31
0.0
  0
LINE
  5
601
  8
┌▓È_1
 62
     5
 10
394.90029827900003
 20
212.9043833492
 30
0.0
 11
415.90029827900003
 21
212.9043833492
 31
0.0
  0
INSERT
  5
603
  8
┌▓È_1
  2
CLUMP91
 10
0.0
 20
0.0
 30
0.0
  0
LINE
  5
62E
  8
┌▓È_1
  6
BORDER
 62
     3
 10
311.74602073369999
 20
-135.0972625226
 30
0.0
 11
346.74602073369999
 21
-135.0972625226
 31
0.0
  0
LINE
  5
62F
  8
┌▓È_1
 62
     5
 10
318.74602073369999
 20
-72.597262522600005
 30
0.0
 11
318.74602073369999
 21
-197.59726252259989
 31
0.0
  0
LINE
  5
630
  8
┌▓È_1
 62
     5
 10
320.74602073369999
 20
-72.597262522600005
 30
0.0
 11
320.74602073369999
 21
-197.59726252259989
 31
0.0
  0
LINE
  5
631
  8
┌▓È_1
 62
     5
 10
320.74602073369999
 20
-72.597262522600005
 30
0.0
 11
341.74602073369999
 21
-72.597262522600005
 31
0.0
  0
LINE
  5
632
  8
┌▓È_1
 62
     5
 10
320.74602073369999
 20
-70.597262522600005
 30
0.0
 11
341.74602073369999
 21
-70.597262522600005
 31
0.0
  0
LINE
  5
633
  8
┌▓È_1
 62
     5
 10
341.74602073369999
 20
-70.597262522600005
 30
0.0
 11
341.74602073369999
 21
-72.597262522600005
 31
0.0
  0
LINE
  5
634
  8
┌▓È_1
 62
     5
 10
320.74602073369999
 20
-197.59726252259989
 30
0.0
 11
341.74602073369999
 21
-197.59726252259989
 31
0.0
  0
LINE
  5
635
  8
┌▓È_1
 62
     5
 10
320.74602073369999
 20
-199.59726252259989
 30
0.0
 11
341.74602073369999
 21
-199.59726252259989
 31
0.0
  0
LINE
  5
636
  8
┌▓È_1
 62
     5
 10
341.74602073369999
 20
-197.59726252259989
 30
0.0
 11
341.74602073369999
 21
-199.59726252259989
 31
0.0
  0
ARC
  5
637
  8
┌▓È_1
 62
     5
 10
320.74602073369999
 20
-72.597262522600005
 30
0.0
 40
2.0
 50
90.0
 51
180.0
  0
ARC
  5
638
  8
┌▓È_1
 62
     5
 10
320.74602073369999
 20
-197.59726252259989
 30
0.0
 40
2.0
 50
180.0
 51
270.0
  0
INSERT
  5
639
  8
0
  6
CONTINUOUS
  2
*U198
 10
0.0
 20
0.0
 30
0.0
  0
INSERT
  5
63A
  8
0
  6
CONTINUOUS
  2
*U199
 10
0.0
 20
0.0
 30
0.0
  0
DIMENSION
  5
649
  8
Éíû@É³
 62
     5
  2
*D141
 10
338.51780233660003
 20
253.1706010108
 30
0.0
 11
330.94980610290003
 21
253.1706010108
 31
0.0
 70
   128
  1
<>
 13
338.51780233660003
 23
223.60485470340001
 33
0.0
 14
323.51780233660003
 24
215.40485470339999
 34
0.0
  0
DIMENSION
  5
658
  8
Éíû@É³
 62
     5
  2
*D142
 10
361.5032446889
 20
208.90485470339999
 30
0.0
 11
361.5032446889
 21
242.1123036628
 31
0.0
 70
   128
  1
15.5
 13
337.71780233660002
 23
208.90485470339999
 33
0.0
 14
337.71780233660002
 24
224.40485470339999
 34
0.0
 50
90.0
  0
DIMENSION
  5
667
  8
Éíû@É³
 62
     5
  2
*D143
 10
445.90029827900003
 20
264.97238719450002
 30
0.0
 11
418.40029827900003
 21
264.97238719450002
 31
0.0
 70
   128
  1
<>
 13
445.90029827900003
 23
223.60438334919999
 33
0.0
 14
390.90029827900003
 24
223.60438334919999
 34
0.0
  0
LINE
  5
668
  8
┌▓È_1
  6
BORDER
 62
     3
 10
-220.36941120509999
 20
150.4044666826
 30
0.0
 11
221.99738566990001
 21
150.4044666826
 31
0.0
  0
LINE
  5
669
  8
┌▓È_1
  6
BORDER
 62
     3
 10
0.9780627533
 20
229.4043833492
 30
0.0
 11
0.9780627533
 21
71.404383349200003
 31
0.0
  0
LINE
  5
66A
  8
┌▓È_1
  6
HIDDEN
 62
     1
 10
-250.32603434539999
 20
-72.596940907999993
 30
0.0
 11
178.1739656545999
 21
-72.596940907999993
 31
0.0
  0
LINE
  5
66B
  8
┌▓È_1
 10
-250.32603434539999
 20
-70.596940907999993
 30
0.0
 11
178.1739656545999
 21
-70.596940907999993
 31
0.0
  0
LINE
  5
66C
  8
┌▓È_1
  6
HIDDEN
 62
     1
 10
-250.32603434539999
 20
-197.59694090799999
 30
0.0
 11
178.1739656545999
 21
-197.59694090799999
 31
0.0
  0
LINE
  5
66D
  8
┌▓È_1
 10
-250.32603434539999
 20
-199.59694090799999
 30
0.0
 11
178.1739656545999
 21
-199.59694090799999
 31
0.0
  0
INSERT
  5
66F
  8
┌▓È_1
 62
     5
  2
CLUMP98
 10
0.0
 20
0.0
 30
0.0
  0
LINE
  5
68B
  8
┌▓È_1
 62
     5
 10
415.90029827900003
 20
215.4043833492
 30
0.0
 11
415.90029827900003
 21
214.9043833492
 31
0.0
  0
ARC
  5
68C
  8
┌▓È_1
 62
     5
 10
394.90029827900003
 20
212.9043833492
 30
0.0
 40
2.0
 50
90.0
 51
180.0
  0
LINE
  5
68D
  8
┌▓È_1
 62
     5
 10
312.01780233660003
 20
212.9043833492
 30
0.0
 11
311.51780233660003
 21
212.9043833492
 31
0.0
  0
INSERT
  5
68F
  8
┌▓È_1
  6
BORDER
 62
     5
  2
CLUMP99
 10
0.0
 20
0.0
 30
0.0
  0
LINE
  5
6AC
  8
┌▓È_1
 62
     5
 10
394.90029827900003
 20
87.904383349200003
 30
0.0
 11
415.90029827900003
 21
87.904383349200003
 31
0.0
  0
INSERT
  5
6AE
  8
┌▓È_1
 62
     5
  2
CLUMP100
 10
0.0
 20
0.0
 30
0.0
  0
LINE
  5
6CA
  8
┌▓È_1
  6
BORDER
 62
     3
 10
385.90029827900003
 20
150.4043833492
 30
0.0
 11
450.90029827900003
 21
150.4043833492
 31
0.0
  0
LINE
  5
6CB
  8
┌▓È_1
 62
     5
 10
415.90029827900003
 20
87.404383349200003
 30
0.0
 11
415.90029827900003
 21
90.404383349200003
 31
0.0
  0
LINE
  5
6CC
  8
┌▓È_1
 62
     5
 10
394.90029827900003
 20
85.904383349199989
 30
0.0
 11
415.90029827900003
 21
85.904383349199989
 31
0.0
  0
ARC
  5
6CD
  8
┌▓È_1
 62
     5
 10
394.90029827900003
 20
87.904383349200003
 30
0.0
 40
2.0
 50
180.0
 51
270.0
  0
LINE
  5
6CE
  8
┌▓È_1
 62
     5
 10
312.01780233660003
 20
87.904383349200003
 30
0.0
 11
311.51780233660003
 21
87.904383349200003
 31
0.0
  0
LINE
  5
6CF
  8
┌▓È_1
 62
     5
 10
308.51780233660003
 20
84.603911995100006
 30
0.0
 11
308.51780233660003
 21
150.4043833492
 31
0.0
  0
LINE
  5
6D0
  8
┌▓È_1
  6
BORDER
 62
     3
 10
303.51780233660003
 20
150.4043833492
 30
0.0
 11
343.51780233660003
 21
150.4043833492
 31
0.0
  0
INSERT
  5
6D2
  8
┌▓È_1
  6
BORDER
 62
     5
  2
CLUMP101
 10
0.0
 20
0.0
 30
0.0
  0
LINE
  5
6EF
  8
┌▓È_1
 62
     5
 10
415.90029827900003
 20
213.4043833492
 30
0.0
 11
415.90029827900003
 21
210.4043833492
 31
0.0
  0
LINE
  5
6F0
  8
┌▓È_1
 62
     5
 10
445.90029827900003
 20
211.20438334919999
 30
0.0
 11
445.90029827900003
 21
89.604383349200006
 31
0.0
  0
INSERT
  5
6F2
  8
┌▓È_1
  6
BORDER
 62
     5
  2
CLUMP102
 10
0.0
 20
0.0
 30
0.0
  0
LINE
  5
6FE
  8
┌▓È_1
 62
     5
 10
308.51780233660003
 20
216.2048547034
 30
0.0
 11
308.51780233660003
 21
150.4043833492
 31
0.0
  0
LINE
  5
6FF
  8
┌▓È_1
  6
BORDER
 62
     3
 10
-257.42352913709999
 20
-135.09694090799999
 30
0.0
 11
184.94326773789999
 21
-135.09694090799999
 31
0.0
  0
LINE
  5
700
  8
┌▓È_1
 62
     5
 10
-250.32603434539999
 20
-264.6848966371
 30
0.0
 11
178.1739656545999
 21
-264.6848966371
 31
0.0
  0
LINE
  5
701
  8
┌▓È_1
  6
STITCH
 10
-250.32603434539999
 20
-266.1848966371
 30
0.0
 11
178.1739656545999
 21
-266.1848966371
 31
0.0
  0
LINE
  5
702
  8
┌▓È_1
 62
     5
 10
173.1739654065
 20
-278.6848966371
 30
0.0
 11
-245.32603438219999
 21
-278.6848966371
 31
0.0
  0
INSERT
  5
703
  8
0
  6
CONTINUOUS
  2
*U200
 10
0.0
 20
0.0
 30
0.0
  0
INSERT
  5
704
  8
0
  6
CONTINUOUS
  2
*U201
 10
0.0
 20
0.0
 30
0.0
  0
LINE
  5
705
  8
┌▓È_1
 10
-206.0219703315
 20
9.6808937412000002
 30
0.0
 11
0.9780627533
 21
9.6808937412000002
 31
0.0
  0
LINE
  5
706
  8
┌▓È_1
 10
0.9780627533
 20
3.6808937411999998
 30
0.0
 11
-222.22193724670001
 21
3.6808937411999998
 31
0.0
  0
LINE
  5
707
  8
┌▓È_1
 62
     5
 10
392.90029827900003
 20
212.9043833492
 30
0.0
 11
392.90029827900003
 21
87.904383349200003
 31
0.0
  0
LINE
  5
708
  8
┌▓È_1
 62
     5
 10
390.90029827900003
 20
84.604383349200006
 30
0.0
 11
390.90029827900003
 21
216.20438334919999
 31
0.0
  0
LINE
  5
709
  8
┌▓È_1
 62
     5
 10
394.90029827900003
 20
212.9043833492
 30
0.0
 11
394.90029827900003
 21
87.904383349200003
 31
0.0
  0
LINE
  5
70A
  8
┌▓È_1
 62
     5
 10
415.90029827900003
 20
85.904383349199989
 30
0.0
 11
415.90029827900003
 21
214.9043833492
 31
0.0
  0
LINE
  5
70B
  8
┌▓È_1
 62
     5
 10
216.77806275329999
 20
33.680893741200002
 30
0.0
 11
0.9780627533
 21
33.680893741200002
 31
0.0
  0
LINE
  5
70C
  8
┌▓È_1
 62
     5
 10
215.97806275330001
 20
18.680893741199998
 30
0.0
 11
0.9780627533
 21
18.680893741199998
 31
0.0
  0
LINE
  5
70D
  8
┌▓È_1
 62
     5
 10
210.27806275329999
 20
3.6808937411999998
 30
0.0
 11
0.9780627533
 21
3.6808937411999998
 31
0.0
  0
LINE
  5
70E
  8
┌▓È_1
 62
     5
 10
0.9780627533
 20
32.680893741200009
 30
0.0
 11
212.72806275330001
 21
32.680893741200009
 31
0.0
  0
LINE
  5
70F
  8
┌▓È_1
 62
     5
 10
212.72806275330001
 20
30.680893741199998
 30
0.0
 11
0.9780627533
 21
30.680893741199998
 31
0.0
  0
LINE
  5
710
  8
┌▓È_1
 10
224.97806275330001
 20
76.404383349200003
 30
0.0
 11
-223.02193724669999
 21
76.404383349200003
 31
0.0
  0
LINE
  5
711
  8
┌▓È_1
 10
-223.02193724669999
 20
224.4043833492
 30
0.0
 11
224.97806275330001
 21
224.4043833492
 31
0.0
  0
LINE
  5
712
  8
┌▓È_1
 10
215.97806275330001
 20
85.404383349200003
 30
0.0
 11
-214.02193724669999
 21
85.404383349200003
 31
0.0
  0
LINE
  5
713
  8
┌▓È_1
  6
HIDDEN
 62
     1
 10
-213.27191641339999
 20
212.9044666826
 30
0.0
 11
215.22808358660001
 21
212.9044666826
 31
0.0
  0
LINE
  5
714
  8
┌▓È_1
 10
-213.27191641339999
 20
214.9044666826
 30
0.0
 11
215.22808358660001
 21
214.9044666826
 31
0.0
  0
LINE
  5
715
  8
┌▓È_1
  6
HIDDEN
 62
     1
 10
-213.27191641339999
 20
87.904466682600017
 30
0.0
 11
215.22808358660001
 21
87.904466682600017
 31
0.0
  0
LINE
  5
716
  8
┌▓È_1
 10
-213.27191641339999
 20
85.904466682600003
 30
0.0
 11
215.22808358660001
 21
85.904466682600003
 31
0.0
  0
LINE
  5
717
  8
┌▓È_1
 10
-214.02193724669999
 20
215.4043833492
 30
0.0
 11
215.97806275330001
 21
215.4043833492
 31
0.0
  0
ENDSEC
  0
EOF
