  0
SECTION
  2
HEADER
  9
$ACADVER
  1
AC1009
  9
$INSBASE
 10
0.0
 20
0.0
 30
0.0
  9
$EXTMIN
 10
-363.4339998849
 20
-477.68899990089989
 30
0.0
  9
$EXTMAX
 10
866.44600011509988
 20
387.69100009910011
 30
0.0
  9
$LIMMIN
 10
0.0
 20
0.0
  9
$LIMMAX
 10
0.0
 20
0.0
  9
$ORTHOMODE
 70
     0
  9
$REGENMODE
 70
     1
  9
$FILLMODE
 70
     1
  9
$QTEXTMODE
 70
     0
  9
$MIRRTEXT
 70
     1
  9
$DRAGMODE
 70
     2
  9
$LTSCALE
 40
1.0
  9
$OSMODE
 70
    31
  9
$ATTMODE
 70
     1
  9
$TEXTSIZE
 40
0.0
  9
$TRACEWID
 40
0.05
  9
$TEXTSTYLE
  7
STANDARD
  9
$CLAYER
  8
0
  9
$CELTYPE
  6
CONTINUOUS
  9
$CECOLOR
 62
   256
  9
$DIMSCALE
 40
1.0
  9
$DIMASZ
 40
0.18
  9
$DIMEXO
 40
0.0625
  9
$DIMDLI
 40
0.38
  9
$DIMRND
 40
0.0
  9
$DIMDLE
 40
0.0
  9
$DIMEXE
 40
0.18
  9
$DIMTP
 40
0.0
  9
$DIMTM
 40
0.0
  9
$DIMTXT
 40
0.18
  9
$DIMCEN
 40
0.09
  9
$DIMTSZ
 40
0.0
  9
$DIMTOL
 70
     0
  9
$DIMLIM
 70
     0
  9
$DIMTIH
 70
     1
  9
$DIMTOH
 70
     1
  9
$DIMSE1
 70
     0
  9
$DIMSE2
 70
     0
  9
$DIMTAD
 70
     0
  9
$DIMZIN
 70
     0
  9
$DIMBLK
  1

  9
$DIMASO
 70
     1
  9
$DIMSHO
 70
     1
  9
$DIMPOST
  1

  9
$DIMAPOST
  1

  9
$DIMALT
 70
     0
  9
$DIMALTD
 70
     2
  9
$DIMALTF
 40
25.399999999999999
  9
$DIMLFAC
 40
1.0
  9
$DIMTOFL
 70
     0
  9
$DIMTVP
 40
0.0
  9
$DIMTIX
 70
     0
  9
$DIMSOXD
 70
     0
  9
$DIMSAH
 70
     0
  9
$DIMBLK1
  1

  9
$DIMBLK2
  1

  9
$DIMSTYLE
  2
STANDARD
  9
$DIMCLRD
 70
     0
  9
$DIMCLRE
 70
     0
  9
$DIMCLRT
 70
     0
  9
$DIMTFAC
 40
1.0
  9
$DIMGAP
 40
0.09
  9
$LUNITS
 70
     2
  9
$LUPREC
 70
     4
  9
$SKETCHINC
 40
0.1
  9
$FILLETRAD
 40
0.0
  9
$AUNITS
 70
     0
  9
$AUPREC
 70
     0
  9
$MENU
  1
acad
  9
$ELEVATION
 40
0.0
  9
$PELEVATION
 40
0.0
  9
$THICKNESS
 40
0.0
  9
$LIMCHECK
 70
     0
  9
$BLIPMODE
 70
     0
  9
$CHAMFERA
 40
0.0
  9
$CHAMFERB
 40
0.0
  9
$SKPOLY
 70
     0
  9
$TDCREATE
 40
2454859.7986199651
  9
$TDUPDATE
 40
2454859.798794664
  9
$TDINDWG
 40
0.0001920602
  9
$TDUSRTIMER
 40
0.0001917014
  9
$USRTIMER
 70
     1
  9
$ANGBASE
 50
0.0
  9
$ANGDIR
 70
     0
  9
$PDMODE
 70
     3
  9
$PDSIZE
 40
-1.0
  9
$PLINEWID
 40
0.0
  9
$COORDS
 70
     2
  9
$SPLFRAME
 70
     0
  9
$SPLINETYPE
 70
     6
  9
$SPLINESEGS
 70
     8
  9
$ATTDIA
 70
     0
  9
$ATTREQ
 70
     1
  9
$HANDLING
 70
     1
  9
$HANDSEED
  5
9CF
  9
$SURFTAB1
 70
     6
  9
$SURFTAB2
 70
     6
  9
$SURFTYPE
 70
     6
  9
$SURFU
 70
     6
  9
$SURFV
 70
     6
  9
$UCSNAME
  2

  9
$UCSORG
 10
0.0
 20
0.0
 30
0.0
  9
$UCSXDIR
 10
1.0
 20
0.0
 30
0.0
  9
$UCSYDIR
 10
0.0
 20
1.0
 30
0.0
  9
$PUCSNAME
  2

  9
$PUCSORG
 10
0.0
 20
0.0
 30
0.0
  9
$PUCSXDIR
 10
1.0
 20
0.0
 30
0.0
  9
$PUCSYDIR
 10
0.0
 20
1.0
 30
0.0
  9
$USERI1
 70
     0
  9
$USERI2
 70
     0
  9
$USERI3
 70
     0
  9
$USERI4
 70
     0
  9
$USERI5
 70
     0
  9
$USERR1
 40
0.0
  9
$USERR2
 40
0.0
  9
$USERR3
 40
0.0
  9
$USERR4
 40
0.0
  9
$USERR5
 40
0.0
  9
$WORLDVIEW
 70
     1
  9
$SHADEDGE
 70
     3
  9
$SHADEDIF
 70
    70
  9
$TILEMODE
 70
     1
  9
$MAXACTVP
 70
    16
  9
$PLIMCHECK
 70
     0
  9
$PEXTMIN
 10
1.0000000000000000E+020
 20
1.0000000000000000E+020
 30
1.0000000000000000E+020
  9
$PEXTMAX
 10
-1.0000000000000000E+020
 20
-1.0000000000000000E+020
 30
-1.0000000000000000E+020
  9
$PLIMMIN
 10
0.0
 20
0.0
  9
$PLIMMAX
 10
12.0
 20
9.0
  9
$UNITMODE
 70
     0
  9
$VISRETAIN
 70
     0
  9
$PLINEGEN
 70
     1
  9
$PSLTSCALE
 70
     0
  0
ENDSEC
  0
SECTION
  2
TABLES
  0
TABLE
  2
VPORT
 70
     2
  0
VPORT
  2
*ACTIVE
 70
     0
 10
0.0
 20
0.0
 11
1.0
 21
1.0
 12
251.50600011509999
 22
-44.998999900899939
 13
0.0
 23
0.0
 14
1.0
 24
1.0
 15
0.0
 25
0.0
 16
0.0
 26
0.0
 36
1.0
 17
0.0
 27
0.0
 37
0.0
 40
872.56157676348539
 41
1.6343490304709141
 42
50.0
 43
0.0
 44
0.0
 50
0.0
 51
0.0
 71
     0
 72
   100
 73
     1
 74
     1
 75
     0
 76
     0
 77
     0
 78
     0
  0
ENDTAB
  0
TABLE
  2
LTYPE
 70
    11
  0
LTYPE
  2
CONTINUOUS
 70
     0
  3
Solid line
 72
    65
 73
     0
 40
0.0
  0
LTYPE
  2
DOT
 70
     0
  3
. . . . . . . . 
 72
    65
 73
     2
 40
1.0
 49
0.0
 49
-1.0
  0
LTYPE
  2
DASHED
 70
     0
  3
___  ___  ___  ___  
 72
    65
 73
     2
 40
4.0
 49
3.0
 49
-1.0
  0
LTYPE
  2
HIDDEN
 70
     0
  3
__ __ __ __ 
 72
    65
 73
     2
 40
3.0
 49
2.0
 49
-1.0
  0
LTYPE
  2
STITCH
 70
     0
  3
_ _ _ _ 
 72
    65
 73
     2
 40
2.0
 49
1.0
 49
-1.0
  0
LTYPE
  2
CENTER
 70
     0
  3
______  __  ______  __  
 72
    65
 73
     4
 40
43.0
 49
40.0
 49
-1.0
 49
1.0
 49
-1.0
  0
LTYPE
  2
DASHDOT
 70
     0
  3
____ . ____ . 
 72
    65
 73
     4
 40
32.0
 49
30.0
 49
-1.0
 49
0.0
 49
-1.0
  0
LTYPE
  2
BORDER
 70
     0
  3
__ . __ . 
 72
    65
 73
     4
 40
22.0
 49
20.0
 49
-1.0
 49
0.0
 49
-1.0
  0
LTYPE
  2
CUTTING
 70
     0
  3
________   ___   ___   
 72
    65
 73
     6
 40
45.0
 49
40.0
 49
-1.0
 49
1.0
 49
-1.0
 49
1.0
 49
-1.0
  0
LTYPE
  2
PHANTOM
 70
     0
  3
______  __  __  
 72
    65
 73
     6
 40
35.0
 49
30.0
 49
-1.0
 49
1.0
 49
-1.0
 49
1.0
 49
-1.0
  0
LTYPE
  2
DIVIDE
 70
     0
  3
____ . . ____ . . 
 72
    65
 73
     6
 40
23.0
 49
20.0
 49
-1.0
 49
0.0
 49
-1.0
 49
0.0
 49
-1.0
  0
ENDTAB
  0
TABLE
  2
LAYER
 70
     5
  0
LAYER
  2
0
 70
     0
 62
     7
  6
CONTINUOUS
  0
LAYER
  2
┌▓È_1
 70
     0
 62
     7
  6
CONTINUOUS
  0
LAYER
  2
Éíû@É³
 70
     0
 62
     7
  6
CONTINUOUS
  0
LAYER
  2
É}ÿg
 70
     0
 62
     7
  6
CONTINUOUS
  0
LAYER
  2
ë³Æ¨
 70
     0
 62
     7
  6
CONTINUOUS
  0
ENDTAB
  0
TABLE
  2
STYLE
 70
     1
  0
STYLE
  2
STANDARD
 70
     0
 40
0.0
 41
1.0
 50
0.0
 71
     0
 42
0.0
  3
txt
  4
extfont
  0
ENDTAB
  0
TABLE
  2
VIEW
 70
     0
  0
ENDTAB
  0
TABLE
  2
UCS
 70
     0
  0
ENDTAB
  0
TABLE
  2
APPID
 70
     2
  0
APPID
  2
ACAD
 70
     0
  0
APPID
  2
DCO15
 70
     0
  0
ENDTAB
  0
TABLE
  2
DIMSTYLE
 70
     3
  0
DIMSTYLE
  2
STANDARD
 70
     0
  3

  4

  5

  6

  7

 40
1.0
 41
0.18
 42
0.0625
 43
0.38
 44
0.18
 45
0.0
 46
0.0
 47
0.0
 48
0.0
140
0.18
141
0.09
142
0.0
143
25.399999999999999
144
1.0
145
0.0
146
1.0
147
0.09
 71
     0
 72
     0
 73
     1
 74
     1
 75
     0
 76
     0
 77
     0
 78
     0
170
     0
171
     2
172
     0
173
     0
174
     0
175
     0
176
     0
177
     0
178
     0
  0
DIMSTYLE
  2
VELDIM0
 70
     0
  3

  4

  5

  6

  7

 40
1.0
 41
9.0
 42
0.0625
 43
0.38
 44
2.0
 45
0.0
 46
5.0
 47
0.0
 48
0.0
140
9.8954164504999991
141
0.09
142
0.0
143
25.399999999999999
144
1.0
145
0.0
146
1.0
147
0.09
 71
     0
 72
     0
 73
     0
 74
     0
 75
     0
 76
     0
 77
     0
 78
     8
170
     0
171
     2
172
     0
173
     0
174
     0
175
     0
176
     0
177
     0
178
     0
  0
DIMSTYLE
  2
VELDIM1
 70
     0
  3

  4

  5

  6

  7

 40
1.0
 41
9.0
 42
0.0625
 43
0.38
 44
1.25
 45
0.0
 46
5.0
 47
0.0
 48
0.0
140
9.8954164504999991
141
0.09
142
0.0
143
25.399999999999999
144
1.0
145
0.0
146
1.0
147
0.09
 71
     0
 72
     0
 73
     0
 74
     0
 75
     0
 76
     0
 77
     0
 78
     8
170
     0
171
     2
172
     0
173
     0
174
     0
175
     0
176
     0
177
     0
178
     0
  0
ENDTAB
  0
ENDSEC
  0
SECTION
  2
BLOCKS
  0
BLOCK
  8
0
  2
$MODEL_SPACE
 70
     0
 10
0.0
 20
0.0
 30
0.0
  3
$MODEL_SPACE
  1

  0
ENDBLK
  5
E
  8
0
  0
BLOCK
 67
     1
  8
0
  2
$PAPER_SPACE
 70
     0
 10
0.0
 20
0.0
 30
0.0
  3
$PAPER_SPACE
  1

  0
ENDBLK
  5
10
 67
     1
  8
0
  0
BLOCK
  8
0
  2
CLUMP0
 70
     0
 10
0.0
 20
0.0
 30
0.0
  3
CLUMP0
  1

  0
ARC
  5
32
  8
┌▓È_1
 10
126.3285208333
 20
186.01818229169999
 30
0.0
 40
3.5
 50
90.0
 51
270.0
  0
LINE
  5
33
  8
┌▓È_1
 10
141.32852083329999
 20
189.51818229169999
 30
0.0
 11
126.3285208333
 21
189.51818229169999
 31
0.0
  0
LINE
  5
34
  8
┌▓È_1
 10
126.3285208333
 20
182.51818229169999
 30
0.0
 11
141.32852083329999
 21
182.51818229169999
 31
0.0
  0
ARC
  5
35
  8
┌▓È_1
 10
141.32852083329999
 20
186.01818229169999
 30
0.0
 40
3.5
 50
270.0
 51
90.0
  0
ENDBLK
  5
36
  8
0
  0
BLOCK
  8
0
  2
CLUMP1
 70
     0
 10
0.0
 20
0.0
 30
0.0
  3
CLUMP1
  1

  0
ARC
  5
3A
  8
┌▓È_1
 10
126.3285208333
 20
201.01818229169999
 30
0.0
 40
3.5
 50
90.0
 51
270.0
  0
LINE
  5
3B
  8
┌▓È_1
 10
141.32852083329999
 20
204.51818229169999
 30
0.0
 11
126.3285208333
 21
204.51818229169999
 31
0.0
  0
LINE
  5
3C
  8
┌▓È_1
 10
126.3285208333
 20
197.51818229169999
 30
0.0
 11
141.32852083329999
 21
197.51818229169999
 31
0.0
  0
ARC
  5
3D
  8
┌▓È_1
 10
141.32852083329999
 20
201.01818229169999
 30
0.0
 40
3.5
 50
270.0
 51
90.0
  0
ENDBLK
  5
3E
  8
0
  0
BLOCK
  8
0
  2
CLUMP2
 70
     0
 10
0.0
 20
0.0
 30
0.0
  3
CLUMP2
  1

  0
ARC
  5
42
  8
┌▓È_1
 10
190.5287668494
 20
189.06274479169991
 30
0.0
 40
3.5
 50
90.0
 51
270.0
  0
LINE
  5
43
  8
┌▓È_1
 10
205.5287668494
 20
185.56274479169991
 30
0.0
 11
190.5287668494
 21
185.56274479169991
 31
0.0
  0
LINE
  5
44
  8
┌▓È_1
 10
190.5287668494
 20
192.56274479169991
 30
0.0
 11
205.5287668494
 21
192.56274479169991
 31
0.0
  0
ARC
  5
45
  8
┌▓È_1
 10
205.5287668494
 20
189.06274479169991
 30
0.0
 40
3.5
 50
270.0
 51
90.0
  0
ARC
  5
46
  8
┌▓È_1
 10
190.5287668494
 20
202.0627447917
 30
0.0
 40
3.5
 50
90.0
 51
270.0
  0
LINE
  5
47
  8
┌▓È_1
 10
205.5287668494
 20
198.5627447917
 30
0.0
 11
190.5287668494
 21
198.5627447917
 31
0.0
  0
LINE
  5
48
  8
┌▓È_1
 10
190.5287668494
 20
205.5627447917
 30
0.0
 11
205.5287668494
 21
205.5627447917
 31
0.0
  0
ARC
  5
49
  8
┌▓È_1
 10
205.5287668494
 20
202.0627447917
 30
0.0
 40
3.5
 50
270.0
 51
90.0
  0
ENDBLK
  5
4A
  8
0
  0
BLOCK
  8
0
  2
CLUMP3
 70
     0
 10
0.0
 20
0.0
 30
0.0
  3
CLUMP3
  1

  0
ARC
  5
51
  8
┌▓È_1
 10
265.52876684939997
 20
121.5181822917
 30
0.0
 40
3.5
 50
90.0
 51
270.0
  0
LINE
  5
52
  8
┌▓È_1
 10
280.52876684939991
 20
125.0181822917
 30
0.0
 11
265.52876684939997
 21
125.0181822917
 31
0.0
  0
LINE
  5
53
  8
┌▓È_1
 10
265.52876684939997
 20
118.0181822917
 30
0.0
 11
280.52876684939991
 21
118.0181822917
 31
0.0
  0
ARC
  5
54
  8
┌▓È_1
 10
280.52876684939991
 20
121.5181822917
 30
0.0
 40
3.5
 50
270.0
 51
90.0
  0
ARC
  5
55
  8
┌▓È_1
 10
265.52876684939997
 20
108.5181822917
 30
0.0
 40
3.5
 50
90.0
 51
270.0
  0
LINE
  5
56
  8
┌▓È_1
 10
280.52876684939991
 20
112.0181822917
 30
0.0
 11
265.52876684939997
 21
112.0181822917
 31
0.0
  0
LINE
  5
57
  8
┌▓È_1
 10
265.52876684939997
 20
105.0181822917
 30
0.0
 11
280.52876684939991
 21
105.0181822917
 31
0.0
  0
ARC
  5
58
  8
┌▓È_1
 10
280.52876684939991
 20
108.5181822917
 30
0.0
 40
3.5
 50
270.0
 51
90.0
  0
ENDBLK
  5
59
  8
0
  0
BLOCK
  8
0
  2
CLUMP4
 70
     0
 10
0.0
 20
0.0
 30
0.0
  3
CLUMP4
  1

  0
ARC
  5
5D
  8
┌▓È_1
 10
265.52876684939997
 20
189.06274479169991
 30
0.0
 40
3.5
 50
90.0
 51
270.0
  0
LINE
  5
5E
  8
┌▓È_1
 10
280.52876684939991
 20
185.56274479169991
 30
0.0
 11
265.52876684939997
 21
185.56274479169991
 31
0.0
  0
LINE
  5
5F
  8
┌▓È_1
 10
265.52876684939997
 20
192.56274479169991
 30
0.0
 11
280.52876684939991
 21
192.56274479169991
 31
0.0
  0
ARC
  5
60
  8
┌▓È_1
 10
280.52876684939991
 20
189.06274479169991
 30
0.0
 40
3.5
 50
270.0
 51
90.0
  0
ARC
  5
61
  8
┌▓È_1
 10
265.52876684939997
 20
202.0627447917
 30
0.0
 40
3.5
 50
90.0
 51
270.0
  0
LINE
  5
62
  8
┌▓È_1
 10
280.52876684939991
 20
198.5627447917
 30
0.0
 11
265.52876684939997
 21
198.5627447917
 31
0.0
  0
LINE
  5
63
  8
┌▓È_1
 10
265.52876684939997
 20
205.5627447917
 30
0.0
 11
280.52876684939991
 21
205.5627447917
 31
0.0
  0
ARC
  5
64
  8
┌▓È_1
 10
280.52876684939991
 20
202.0627447917
 30
0.0
 40
3.5
 50
270.0
 51
90.0
  0
ENDBLK
  5
65
  8
0
  0
BLOCK
  8
0
  2
*D5
 70
     1
 10
0.0
 20
0.0
 30
0.0
  3
*D5
  1

  0
TEXT
  5
6C
  8
0
 62
     0
 10
192.5132172216
 20
-163.98463985550001
 30
0.0
 40
9.8954164504999991
  1
15
 50
90.0
  0
LINE
  5
6D
  8
0
 62
     0
 10
144.82852083329999
 20
-165.6638066493
 30
0.0
 11
197.25946718340001
 21
-165.6638066493
 31
0.0
  0
LINE
  5
6E
  8
0
 62
     0
 10
144.82852083329999
 20
-150.6638066493
 30
0.0
 11
197.25946718340001
 21
-150.6638066493
 31
0.0
  0
LINE
  5
6F
  8
0
 62
     0
 10
195.25946718340001
 20
-165.6638066493
 30
0.0
 11
195.25946718340001
 21
-165.6638066493
 31
0.0
  0
LINE
  5
70
  8
0
 62
     0
 10
195.25946718340001
 20
-165.6638066493
 30
0.0
 11
195.25946718340001
 21
-150.6638066493
 31
0.0
  0
LINE
  5
71
  8
0
 62
     0
 10
195.25946718340001
 20
-150.6638066493
 30
0.0
 11
195.25946718340001
 21
-165.6638066493
 31
0.0
  0
LINE
  5
72
  8
0
 62
     0
 10
195.25946718340001
 20
-150.6638066493
 30
0.0
 11
195.25946718340001
 21
-150.6638066493
 31
0.0
  0
LINE
  5
73
  8
0
 62
     0
 10
195.25946718340001
 20
-150.6638066493
 30
0.0
 11
195.25946718340001
 21
-145.6638066493
 31
0.0
  0
SOLID
  5
74
  8
0
 62
     0
 10
195.25946718340001
 20
-150.6638066493
 30
0.0
 11
193.00946718340001
 21
-141.6638066493
 31
0.0
 12
197.50946718340001
 22
-141.6638066493
 32
0.0
 13
195.25946718340001
 23
-143.9138066493
 33
0.0
  0
LINE
  5
75
  8
0
 62
     0
 10
195.25946718340001
 20
-165.6638066493
 30
0.0
 11
195.25946718340001
 21
-170.6638066493
 31
0.0
  0
SOLID
  5
76
  8
0
 62
     0
 10
195.25946718340001
 20
-165.6638066493
 30
0.0
 11
197.50946718340001
 21
-174.6638066493
 31
0.0
 12
193.00946718340001
 22
-174.6638066493
 32
0.0
 13
195.25946718340001
 23
-172.4138066493
 33
0.0
  0
ENDBLK
  5
77
  8
0
  0
BLOCK
  8
0
  2
*D6
 70
     1
 10
0.0
 20
0.0
 30
0.0
  3
*D6
  1

  0
TEXT
  5
7C
  8
0
 62
     0
 10
192.51321709819999
 20
-191.35773004320001
 30
0.0
 40
9.8954164504999991
  1
31.5
 50
90.0
  0
LINE
  5
7D
  8
0
 62
     0
 10
171.7198762244
 20
-197.1638066493
 30
0.0
 11
197.25946705999999
 21
-197.1638066493
 31
0.0
  0
LINE
  5
7E
  8
0
 62
     0
 10
144.82852083329999
 20
-165.6638066493
 30
0.0
 11
197.25946705999999
 21
-165.6638066493
 31
0.0
  0
LINE
  5
7F
  8
0
 62
     0
 10
195.25946705999999
 20
-197.1638066493
 30
0.0
 11
195.25946705999999
 21
-197.1638066493
 31
0.0
  0
LINE
  5
80
  8
0
 62
     0
 10
195.25946705999999
 20
-197.1638066493
 30
0.0
 11
195.25946705999999
 21
-165.6638066493
 31
0.0
  0
LINE
  5
81
  8
0
 62
     0
 10
195.25946705999999
 20
-165.6638066493
 30
0.0
 11
195.25946705999999
 21
-197.1638066493
 31
0.0
  0
LINE
  5
82
  8
0
 62
     0
 10
195.25946705999999
 20
-165.6638066493
 30
0.0
 11
195.25946705999999
 21
-165.6638066493
 31
0.0
  0
LINE
  5
83
  8
0
 62
     0
 10
195.25946705999999
 20
-165.6638066493
 30
0.0
 11
195.25946705999999
 21
-170.6638066493
 31
0.0
  0
SOLID
  5
84
  8
0
 62
     0
 10
195.25946705999999
 20
-165.6638066493
 30
0.0
 11
197.50946705999999
 21
-174.6638066493
 31
0.0
 12
193.00946705999999
 22
-174.6638066493
 32
0.0
 13
195.25946705999999
 23
-172.4138066493
 33
0.0
  0
LINE
  5
85
  8
0
 62
     0
 10
195.25946705999999
 20
-197.1638066493
 30
0.0
 11
195.25946705999999
 21
-192.1638066493
 31
0.0
  0
SOLID
  5
86
  8
0
 62
     0
 10
195.25946705999999
 20
-197.1638066493
 30
0.0
 11
193.00946705999999
 21
-188.1638066493
 31
0.0
 12
197.50946705999999
 22
-188.1638066493
 32
0.0
 13
195.25946705999999
 23
-190.4138066493
 33
0.0
  0
ENDBLK
  5
87
  8
0
  0
BLOCK
  8
0
  2
*D7
 70
     1
 10
0.0
 20
0.0
 30
0.0
  3
*D7
  1

  0
TEXT
  5
8B
  8
0
 62
     0
 10
192.5132172216
 20
-241.98463985550001
 30
0.0
 40
9.8954164504999991
  1
15
 50
90.0
  0
LINE
  5
8C
  8
0
 62
     0
 10
144.82852083329999
 20
-243.6638066493
 30
0.0
 11
197.25946718340001
 21
-243.6638066493
 31
0.0
  0
LINE
  5
8D
  8
0
 62
     0
 10
144.82852083329999
 20
-228.6638066493
 30
0.0
 11
197.25946718340001
 21
-228.6638066493
 31
0.0
  0
LINE
  5
8E
  8
0
 62
     0
 10
195.25946718340001
 20
-243.6638066493
 30
0.0
 11
195.25946718340001
 21
-243.6638066493
 31
0.0
  0
LINE
  5
8F
  8
0
 62
     0
 10
195.25946718340001
 20
-243.6638066493
 30
0.0
 11
195.25946718340001
 21
-228.6638066493
 31
0.0
  0
LINE
  5
90
  8
0
 62
     0
 10
195.25946718340001
 20
-228.6638066493
 30
0.0
 11
195.25946718340001
 21
-243.6638066493
 31
0.0
  0
LINE
  5
91
  8
0
 62
     0
 10
195.25946718340001
 20
-228.6638066493
 30
0.0
 11
195.25946718340001
 21
-228.6638066493
 31
0.0
  0
LINE
  5
92
  8
0
 62
     0
 10
195.25946718340001
 20
-228.6638066493
 30
0.0
 11
195.25946718340001
 21
-223.6638066493
 31
0.0
  0
SOLID
  5
93
  8
0
 62
     0
 10
195.25946718340001
 20
-228.6638066493
 30
0.0
 11
193.00946718340001
 21
-219.6638066493
 31
0.0
 12
197.50946718340001
 22
-219.6638066493
 32
0.0
 13
195.25946718340001
 23
-221.9138066493
 33
0.0
  0
LINE
  5
94
  8
0
 62
     0
 10
195.25946718340001
 20
-243.6638066493
 30
0.0
 11
195.25946718340001
 21
-248.6638066493
 31
0.0
  0
SOLID
  5
95
  8
0
 62
     0
 10
195.25946718340001
 20
-243.6638066493
 30
0.0
 11
197.50946718340001
 21
-252.6638066493
 31
0.0
 12
193.00946718340001
 22
-252.6638066493
 32
0.0
 13
195.25946718340001
 23
-250.4138066493
 33
0.0
  0
ENDBLK
  5
96
  8
0
  0
BLOCK
  8
0
  2
*D8
 70
     1
 10
0.0
 20
0.0
 30
0.0
  3
*D8
  1

  0
TEXT
  5
9A
  8
0
 62
     0
 10
192.51321599950001
 20
-258.48463985550001
 30
0.0
 40
9.8954164504999991
  1
18
 50
90.0
  0
LINE
  5
9B
  8
0
 62
     0
 10
165.92881372439999
 20
-261.6638066493
 30
0.0
 11
197.2594659614
 21
-261.6638066493
 31
0.0
  0
LINE
  5
9C
  8
0
 62
     0
 10
144.82852083329999
 20
-243.6638066493
 30
0.0
 11
197.2594659614
 21
-243.6638066493
 31
0.0
  0
LINE
  5
9D
  8
0
 62
     0
 10
195.2594659614
 20
-261.6638066493
 30
0.0
 11
195.2594659614
 21
-261.6638066493
 31
0.0
  0
LINE
  5
9E
  8
0
 62
     0
 10
195.2594659614
 20
-261.6638066493
 30
0.0
 11
195.2594659614
 21
-243.6638066493
 31
0.0
  0
LINE
  5
9F
  8
0
 62
     0
 10
195.2594659614
 20
-243.6638066493
 30
0.0
 11
195.2594659614
 21
-261.6638066493
 31
0.0
  0
LINE
  5
A0
  8
0
 62
     0
 10
195.2594659614
 20
-243.6638066493
 30
0.0
 11
195.2594659614
 21
-243.6638066493
 31
0.0
  0
LINE
  5
A1
  8
0
 62
     0
 10
195.2594659614
 20
-243.6638066493
 30
0.0
 11
195.2594659614
 21
-248.6638066493
 31
0.0
  0
SOLID
  5
A2
  8
0
 62
     0
 10
195.2594659614
 20
-243.6638066493
 30
0.0
 11
197.5094659614
 21
-252.6638066493
 31
0.0
 12
193.0094659614
 22
-252.6638066493
 32
0.0
 13
195.2594659614
 23
-250.4138066493
 33
0.0
  0
LINE
  5
A3
  8
0
 62
     0
 10
195.2594659614
 20
-261.6638066493
 30
0.0
 11
195.2594659614
 21
-256.6638066493
 31
0.0
  0
SOLID
  5
A4
  8
0
 62
     0
 10
195.2594659614
 20
-261.6638066493
 30
0.0
 11
193.0094659614
 21
-252.6638066493
 31
0.0
 12
197.5094659614
 22
-252.6638066493
 32
0.0
 13
195.2594659614
 23
-254.9138066493
 33
0.0
  0
ENDBLK
  5
A5
  8
0
  0
BLOCK
  8
0
  2
*D9
 70
     1
 10
0.0
 20
0.0
 30
0.0
  3
*D9
  1

  0
TEXT
  5
A9
  8
0
 62
     0
 10
192.51321709819999
 20
-222.85773004320001
 30
0.0
 40
9.8954164504999991
  1
31.5
 50
90.0
  0
LINE
  5
AA
  8
0
 62
     0
 10
144.82852083329999
 20
-228.6638066493
 30
0.0
 11
197.25946705999999
 21
-228.6638066493
 31
0.0
  0
LINE
  5
AB
  8
0
 62
     0
 10
171.7198762244
 20
-197.1638066493
 30
0.0
 11
197.25946705999999
 21
-197.1638066493
 31
0.0
  0
LINE
  5
AC
  8
0
 62
     0
 10
195.25946705999999
 20
-228.6638066493
 30
0.0
 11
195.25946705999999
 21
-228.6638066493
 31
0.0
  0
LINE
  5
AD
  8
0
 62
     0
 10
195.25946705999999
 20
-228.6638066493
 30
0.0
 11
195.25946705999999
 21
-197.1638066493
 31
0.0
  0
LINE
  5
AE
  8
0
 62
     0
 10
195.25946705999999
 20
-197.1638066493
 30
0.0
 11
195.25946705999999
 21
-228.6638066493
 31
0.0
  0
LINE
  5
AF
  8
0
 62
     0
 10
195.25946705999999
 20
-197.1638066493
 30
0.0
 11
195.25946705999999
 21
-197.1638066493
 31
0.0
  0
LINE
  5
B0
  8
0
 62
     0
 10
195.25946705999999
 20
-197.1638066493
 30
0.0
 11
195.25946705999999
 21
-202.1638066493
 31
0.0
  0
SOLID
  5
B1
  8
0
 62
     0
 10
195.25946705999999
 20
-197.1638066493
 30
0.0
 11
197.50946705999999
 21
-206.1638066493
 31
0.0
 12
193.00946705999999
 22
-206.1638066493
 32
0.0
 13
195.25946705999999
 23
-203.9138066493
 33
0.0
  0
LINE
  5
B2
  8
0
 62
     0
 10
195.25946705999999
 20
-228.6638066493
 30
0.0
 11
195.25946705999999
 21
-223.6638066493
 31
0.0
  0
SOLID
  5
B3
  8
0
 62
     0
 10
195.25946705999999
 20
-228.6638066493
 30
0.0
 11
193.00946705999999
 21
-219.6638066493
 31
0.0
 12
197.50946705999999
 22
-219.6638066493
 32
0.0
 13
195.25946705999999
 23
-221.9138066493
 33
0.0
  0
ENDBLK
  5
B4
  8
0
  0
BLOCK
  8
0
  2
*D10
 70
     1
 10
0.0
 20
0.0
 30
0.0
  3
*D10
  1

  0
TEXT
  5
B8
  8
0
 62
     0
 10
90.507687627199999
 20
-284.49637214770001
 30
0.0
 40
9.8954164504999991
  1
75
  0
LINE
  5
B9
  8
0
 62
     0
 10
58.828520833299997
 20
-247.1638066493
 30
0.0
 11
58.828520833299997
 21
-289.24262210950002
 31
0.0
  0
LINE
  5
BA
  8
0
 62
     0
 10
133.82852083329999
 20
-247.1638066493
 30
0.0
 11
133.82852083329999
 21
-289.24262210950002
 31
0.0
  0
LINE
  5
BB
  8
0
 62
     0
 10
58.828520833299997
 20
-287.24262210950002
 30
0.0
 11
107.9701872457
 21
-287.24262210950002
 31
0.0
  0
LINE
  5
BC
  8
0
 62
     0
 10
58.828520833299997
 20
-287.24262210950002
 30
0.0
 11
84.686854421000007
 21
-287.24262210950002
 31
0.0
  0
LINE
  5
BD
  8
0
 62
     0
 10
133.82852083329999
 20
-287.24262210950002
 30
0.0
 11
107.9701872457
 21
-287.24262210950002
 31
0.0
  0
LINE
  5
BE
  8
0
 62
     0
 10
133.82852083329999
 20
-287.24262210950002
 30
0.0
 11
84.686854421000007
 21
-287.24262210950002
 31
0.0
  0
LINE
  5
BF
  8
0
 62
     0
 10
133.82852083329999
 20
-287.24262210950002
 30
0.0
 11
128.82852083329999
 21
-287.24262210950002
 31
0.0
  0
SOLID
  5
C0
  8
0
 62
     0
 10
133.82852083329999
 20
-287.24262210950002
 30
0.0
 11
124.8285208333
 21
-289.49262210950002
 31
0.0
 12
124.8285208333
 22
-284.99262210950002
 32
0.0
 13
127.0785208333
 23
-287.24262210950002
 33
0.0
  0
LINE
  5
C1
  8
0
 62
     0
 10
58.828520833299997
 20
-287.24262210950002
 30
0.0
 11
63.828520833299997
 21
-287.24262210950002
 31
0.0
  0
SOLID
  5
C2
  8
0
 62
     0
 10
58.828520833299997
 20
-287.24262210950002
 30
0.0
 11
67.828520833300004
 21
-284.99262210950002
 31
0.0
 12
67.828520833300004
 22
-289.49262210950002
 32
0.0
 13
65.578520833300004
 23
-287.24262210950002
 33
0.0
  0
ENDBLK
  5
C3
  8
0
  0
BLOCK
  8
0
  2
*D11
 70
     1
 10
0.0
 20
0.0
 30
0.0
  3
*D11
  1

  0
TEXT
  5
C7
  8
0
 62
     0
 10
139.93474388499999
 20
-284.49637405499999
 30
0.0
 40
9.8954164504999991
  1
32.1
  0
LINE
  5
C8
  8
0
 62
     0
 10
133.82852083329999
 20
-247.1638066493
 30
0.0
 11
133.82852083329999
 21
-289.24262401689998
 31
0.0
  0
LINE
  5
C9
  8
0
 62
     0
 10
165.92881372439999
 20
-261.6638066493
 30
0.0
 11
165.92881372439999
 21
-289.24262401689998
 31
0.0
  0
LINE
  5
CA
  8
0
 62
     0
 10
133.82852083329999
 20
-287.24262401689998
 30
0.0
 11
165.64342387889999
 21
-287.24262401689998
 31
0.0
  0
LINE
  5
CB
  8
0
 62
     0
 10
133.82852083329999
 20
-287.24262401689998
 30
0.0
 11
134.11391067880001
 21
-287.24262401689998
 31
0.0
  0
LINE
  5
CC
  8
0
 62
     0
 10
165.92881372439999
 20
-287.24262401689998
 30
0.0
 11
165.64342387889999
 21
-287.24262401689998
 31
0.0
  0
LINE
  5
CD
  8
0
 62
     0
 10
165.92881372439999
 20
-287.24262401689998
 30
0.0
 11
134.11391067880001
 21
-287.24262401689998
 31
0.0
  0
LINE
  5
CE
  8
0
 62
     0
 10
165.92881372439999
 20
-287.24262401689998
 30
0.0
 11
170.92881372439999
 21
-287.24262401689998
 31
0.0
  0
SOLID
  5
CF
  8
0
 62
     0
 10
165.92881372439999
 20
-287.24262401689998
 30
0.0
 11
174.92881372439999
 21
-284.99262401689998
 31
0.0
 12
174.92881372439999
 22
-289.49262401689998
 32
0.0
 13
172.67881372439999
 23
-287.24262401689998
 33
0.0
  0
LINE
  5
D0
  8
0
 62
     0
 10
133.82852083329999
 20
-287.24262401689998
 30
0.0
 11
128.82852083329999
 21
-287.24262401689998
 31
0.0
  0
SOLID
  5
D1
  8
0
 62
     0
 10
133.82852083329999
 20
-287.24262401689998
 30
0.0
 11
124.8285208333
 21
-289.49262401689998
 31
0.0
 12
124.8285208333
 22
-284.99262401689998
 32
0.0
 13
127.0785208333
 23
-287.24262401689998
 33
0.0
  0
ENDBLK
  5
D2
  8
0
  0
BLOCK
  8
0
  2
CLUMP5
 70
     0
 10
0.0
 20
0.0
 30
0.0
  3
CLUMP5
  1

  0
ARC
  5
D7
  8
┌▓È_1
 10
190.5287668494
 20
121.5181822917
 30
0.0
 40
3.5
 50
90.0
 51
270.0
  0
LINE
  5
D8
  8
┌▓È_1
 10
205.5287668494
 20
125.0181822917
 30
0.0
 11
190.5287668494
 21
125.0181822917
 31
0.0
  0
LINE
  5
D9
  8
┌▓È_1
 10
190.5287668494
 20
118.0181822917
 30
0.0
 11
205.5287668494
 21
118.0181822917
 31
0.0
  0
ARC
  5
DA
  8
┌▓È_1
 10
205.5287668494
 20
121.5181822917
 30
0.0
 40
3.5
 50
270.0
 51
90.0
  0
ARC
  5
DB
  8
┌▓È_1
 10
190.5287668494
 20
108.5181822917
 30
0.0
 40
3.5
 50
90.0
 51
270.0
  0
LINE
  5
DC
  8
┌▓È_1
 10
205.5287668494
 20
112.0181822917
 30
0.0
 11
190.5287668494
 21
112.0181822917
 31
0.0
  0
LINE
  5
DD
  8
┌▓È_1
 10
190.5287668494
 20
105.0181822917
 30
0.0
 11
205.5287668494
 21
105.0181822917
 31
0.0
  0
ARC
  5
DE
  8
┌▓È_1
 10
205.5287668494
 20
108.5181822917
 30
0.0
 40
3.5
 50
270.0
 51
90.0
  0
ENDBLK
  5
DF
  8
0
  0
BLOCK
  8
0
  2
CLUMP6
 70
     0
 10
0.0
 20
0.0
 30
0.0
  3
CLUMP6
  1

  0
ARC
  5
E6
  8
┌▓È_1
 10
51.328520833299997
 20
108.0181822917
 30
0.0
 40
3.5
 50
90.0
 51
270.0
  0
LINE
  5
E7
  8
┌▓È_1
 10
66.328520833300004
 20
104.5181822917
 30
0.0
 11
51.328520833299997
 21
104.5181822917
 31
0.0
  0
LINE
  5
E8
  8
┌▓È_1
 10
51.328520833299997
 20
111.5181822917
 30
0.0
 11
66.328520833300004
 21
111.5181822917
 31
0.0
  0
ARC
  5
E9
  8
┌▓È_1
 10
66.328520833300004
 20
108.0181822917
 30
0.0
 40
3.5
 50
270.0
 51
90.0
  0
ENDBLK
  5
EA
  8
0
  0
BLOCK
  8
0
  2
CLUMP7
 70
     0
 10
0.0
 20
0.0
 30
0.0
  3
CLUMP7
  1

  0
ARC
  5
EE
  8
┌▓È_1
 10
51.328520833299997
 20
186.01818229169999
 30
0.0
 40
3.5
 50
90.0
 51
270.0
  0
LINE
  5
EF
  8
┌▓È_1
 10
66.328520833300004
 20
189.51818229169999
 30
0.0
 11
51.328520833299997
 21
189.51818229169999
 31
0.0
  0
LINE
  5
F0
  8
┌▓È_1
 10
51.328520833299997
 20
182.51818229169999
 30
0.0
 11
66.328520833300004
 21
182.51818229169999
 31
0.0
  0
ARC
  5
F1
  8
┌▓È_1
 10
66.328520833300004
 20
186.01818229169999
 30
0.0
 40
3.5
 50
270.0
 51
90.0
  0
ENDBLK
  5
F2
  8
0
  0
BLOCK
  8
0
  2
CLUMP8
 70
     0
 10
0.0
 20
0.0
 30
0.0
  3
CLUMP8
  1

  0
ARC
  5
F6
  8
┌▓È_1
 10
51.328520833299997
 20
201.01818229169999
 30
0.0
 40
3.5
 50
90.0
 51
270.0
  0
LINE
  5
F7
  8
┌▓È_1
 10
66.328520833300004
 20
204.51818229169999
 30
0.0
 11
51.328520833299997
 21
204.51818229169999
 31
0.0
  0
LINE
  5
F8
  8
┌▓È_1
 10
51.328520833299997
 20
197.51818229169999
 30
0.0
 11
66.328520833300004
 21
197.51818229169999
 31
0.0
  0
ARC
  5
F9
  8
┌▓È_1
 10
66.328520833300004
 20
201.01818229169999
 30
0.0
 40
3.5
 50
270.0
 51
90.0
  0
ENDBLK
  5
FA
  8
0
  0
BLOCK
  8
0
  2
CLUMP9
 70
     0
 10
0.0
 20
0.0
 30
0.0
  3
CLUMP9
  1

  0
ARC
  5
FF
  8
┌▓È_1
 10
51.328520833299997
 20
123.0181822917
 30
0.0
 40
3.5
 50
90.0
 51
270.0
  0
LINE
  5
100
  8
┌▓È_1
 10
66.328520833300004
 20
119.5181822917
 30
0.0
 11
51.328520833299997
 21
119.5181822917
 31
0.0
  0
LINE
  5
101
  8
┌▓È_1
 10
51.328520833299997
 20
126.5181822917
 30
0.0
 11
66.328520833300004
 21
126.5181822917
 31
0.0
  0
ARC
  5
102
  8
┌▓È_1
 10
66.328520833300004
 20
123.0181822917
 30
0.0
 40
3.5
 50
270.0
 51
90.0
  0
ENDBLK
  5
103
  8
0
  0
BLOCK
  8
0
  2
CLUMP10
 70
     0
 10
0.0
 20
0.0
 30
0.0
  3
CLUMP10
  1

  0
ARC
  5
10E
  8
┌▓È_1
 10
126.3285208333
 20
123.0181822917
 30
0.0
 40
3.5
 50
90.0
 51
270.0
  0
LINE
  5
10F
  8
┌▓È_1
 10
141.32852083329999
 20
119.5181822917
 30
0.0
 11
126.3285208333
 21
119.5181822917
 31
0.0
  0
LINE
  5
110
  8
┌▓È_1
 10
126.3285208333
 20
126.5181822917
 30
0.0
 11
141.32852083329999
 21
126.5181822917
 31
0.0
  0
ARC
  5
111
  8
┌▓È_1
 10
141.32852083329999
 20
123.0181822917
 30
0.0
 40
3.5
 50
270.0
 51
90.0
  0
ENDBLK
  5
112
  8
0
  0
BLOCK
  8
0
  2
CLUMP11
 70
     0
 10
0.0
 20
0.0
 30
0.0
  3
CLUMP11
  1

  0
ARC
  5
116
  8
┌▓È_1
 10
126.3285208333
 20
108.0181822917
 30
0.0
 40
3.5
 50
90.0
 51
270.0
  0
LINE
  5
117
  8
┌▓È_1
 10
141.32852083329999
 20
104.5181822917
 30
0.0
 11
126.3285208333
 21
104.5181822917
 31
0.0
  0
LINE
  5
118
  8
┌▓È_1
 10
126.3285208333
 20
111.5181822917
 30
0.0
 11
141.32852083329999
 21
111.5181822917
 31
0.0
  0
ARC
  5
119
  8
┌▓È_1
 10
141.32852083329999
 20
108.0181822917
 30
0.0
 40
3.5
 50
270.0
 51
90.0
  0
ENDBLK
  5
11A
  8
0
  0
BLOCK
  8
0
  2
CLUMP12
 70
     0
 10
0.0
 20
0.0
 30
0.0
  3
CLUMP12
  1

  0
ARC
  5
120
  8
┌▓È_1
 10
51.328520833299997
 20
-243.6638066493
 30
0.0
 40
3.5
 50
90.0
 51
270.0
  0
LINE
  5
121
  8
┌▓È_1
 10
66.328520833300004
 20
-247.1638066493
 30
0.0
 11
51.328520833299997
 21
-247.1638066493
 31
0.0
  0
LINE
  5
122
  8
┌▓È_1
 10
51.328520833299997
 20
-240.1638066493
 30
0.0
 11
66.328520833300004
 21
-240.1638066493
 31
0.0
  0
ARC
  5
123
  8
┌▓È_1
 10
66.328520833300004
 20
-243.6638066493
 30
0.0
 40
3.5
 50
270.0
 51
90.0
  0
ENDBLK
  5
124
  8
0
  0
BLOCK
  8
0
  2
CLUMP13
 70
     0
 10
0.0
 20
0.0
 30
0.0
  3
CLUMP13
  1

  0
ARC
  5
129
  8
┌▓È_1
 10
51.328520833299997
 20
-228.6638066493
 30
0.0
 40
3.5
 50
90.0
 51
270.0
  0
LINE
  5
12A
  8
┌▓È_1
 10
66.328520833300004
 20
-232.1638066493
 30
0.0
 11
51.328520833299997
 21
-232.1638066493
 31
0.0
  0
LINE
  5
12B
  8
┌▓È_1
 10
51.328520833299997
 20
-225.1638066493
 30
0.0
 11
66.328520833300004
 21
-225.1638066493
 31
0.0
  0
ARC
  5
12C
  8
┌▓È_1
 10
66.328520833300004
 20
-228.6638066493
 30
0.0
 40
3.5
 50
270.0
 51
90.0
  0
ENDBLK
  5
12D
  8
0
  0
BLOCK
  8
0
  2
CLUMP14
 70
     0
 10
0.0
 20
0.0
 30
0.0
  3
CLUMP14
  1

  0
ARC
  5
136
  8
┌▓È_1
 10
51.328520833299997
 20
-165.6638066493
 30
0.0
 40
3.5
 50
90.0
 51
270.0
  0
LINE
  5
137
  8
┌▓È_1
 10
66.328520833300004
 20
-162.1638066493
 30
0.0
 11
51.328520833299997
 21
-162.1638066493
 31
0.0
  0
LINE
  5
138
  8
┌▓È_1
 10
51.328520833299997
 20
-169.1638066493
 30
0.0
 11
66.328520833300004
 21
-169.1638066493
 31
0.0
  0
ARC
  5
139
  8
┌▓È_1
 10
66.328520833300004
 20
-165.6638066493
 30
0.0
 40
3.5
 50
270.0
 51
90.0
  0
ENDBLK
  5
13A
  8
0
  0
BLOCK
  8
0
  2
CLUMP15
 70
     0
 10
0.0
 20
0.0
 30
0.0
  3
CLUMP15
  1

  0
ARC
  5
13E
  8
┌▓È_1
 10
51.328520833299997
 20
-150.6638066493
 30
0.0
 40
3.5
 50
90.0
 51
270.0
  0
LINE
  5
13F
  8
┌▓È_1
 10
66.328520833300004
 20
-147.1638066493
 30
0.0
 11
51.328520833299997
 21
-147.1638066493
 31
0.0
  0
LINE
  5
140
  8
┌▓È_1
 10
51.328520833299997
 20
-154.1638066493
 30
0.0
 11
66.328520833300004
 21
-154.1638066493
 31
0.0
  0
ARC
  5
141
  8
┌▓È_1
 10
66.328520833300004
 20
-150.6638066493
 30
0.0
 40
3.5
 50
270.0
 51
90.0
  0
ENDBLK
  5
142
  8
0
  0
BLOCK
  8
0
  2
*D23
 70
     1
 10
0.0
 20
0.0
 30
0.0
  3
*D23
  1

  0
TEXT
  5
14F
  8
0
 62
     0
 10
271.5456185415
 20
-99.917556687499996
 30
0.0
 40
9.8954164504999991
  1
14
  0
LINE
  5
150
  8
0
 62
     0
 10
284.36645174770001
 20
-132.6638066493
 30
0.0
 11
284.36645174770001
 21
-100.6638066493
 31
0.0
  0
LINE
  5
151
  8
0
 62
     0
 10
270.36645174770001
 20
-134.66380799859999
 30
0.0
 11
270.36645174770001
 21
-100.6638066493
 31
0.0
  0
LINE
  5
152
  8
0
 62
     0
 10
284.36645174770001
 20
-102.6638066493
 30
0.0
 11
284.36645174770001
 21
-102.6638066493
 31
0.0
  0
LINE
  5
153
  8
0
 62
     0
 10
284.36645174770001
 20
-102.6638066493
 30
0.0
 11
270.36645174770001
 21
-102.6638066493
 31
0.0
  0
LINE
  5
154
  8
0
 62
     0
 10
270.36645174770001
 20
-102.6638066493
 30
0.0
 11
284.36645174770001
 21
-102.6638066493
 31
0.0
  0
LINE
  5
155
  8
0
 62
     0
 10
270.36645174770001
 20
-102.6638066493
 30
0.0
 11
270.36645174770001
 21
-102.6638066493
 31
0.0
  0
LINE
  5
156
  8
0
 62
     0
 10
270.36645174770001
 20
-102.6638066493
 30
0.0
 11
265.36645174770001
 21
-102.6638066493
 31
0.0
  0
SOLID
  5
157
  8
0
 62
     0
 10
270.36645174770001
 20
-102.6638066493
 30
0.0
 11
261.36645174770001
 21
-104.9138066493
 31
0.0
 12
261.36645174770001
 22
-100.4138066493
 32
0.0
 13
263.61645174770001
 23
-102.6638066493
 33
0.0
  0
LINE
  5
158
  8
0
 62
     0
 10
284.36645174770001
 20
-102.6638066493
 30
0.0
 11
289.36645174770001
 21
-102.6638066493
 31
0.0
  0
SOLID
  5
159
  8
0
 62
     0
 10
284.36645174770001
 20
-102.6638066493
 30
0.0
 11
293.36645174770001
 21
-100.4138066493
 31
0.0
 12
293.36645174770001
 22
-104.9138066493
 32
0.0
 13
291.11645174770001
 23
-102.6638066493
 33
0.0
  0
ENDBLK
  5
15A
  8
0
  0
BLOCK
  8
0
  2
*D24
 70
     1
 10
0.0
 20
0.0
 30
0.0
  3
*D24
  1

  0
TEXT
  5
15E
  8
0
 62
     0
 10
192.51321599950001
 20
-147.48463985550001
 30
0.0
 40
9.8954164504999991
  1
18
 50
90.0
  0
LINE
  5
15F
  8
0
 62
     0
 10
144.82852083329999
 20
-150.6638066493
 30
0.0
 11
197.2594659614
 21
-150.6638066493
 31
0.0
  0
LINE
  5
160
  8
0
 62
     0
 10
165.92881372439999
 20
-132.6638066493
 30
0.0
 11
197.2594659614
 21
-132.6638066493
 31
0.0
  0
LINE
  5
161
  8
0
 62
     0
 10
195.2594659614
 20
-150.6638066493
 30
0.0
 11
195.2594659614
 21
-150.6638066493
 31
0.0
  0
LINE
  5
162
  8
0
 62
     0
 10
195.2594659614
 20
-150.6638066493
 30
0.0
 11
195.2594659614
 21
-132.6638066493
 31
0.0
  0
LINE
  5
163
  8
0
 62
     0
 10
195.2594659614
 20
-132.6638066493
 30
0.0
 11
195.2594659614
 21
-150.6638066493
 31
0.0
  0
LINE
  5
164
  8
0
 62
     0
 10
195.2594659614
 20
-132.6638066493
 30
0.0
 11
195.2594659614
 21
-132.6638066493
 31
0.0
  0
LINE
  5
165
  8
0
 62
     0
 10
195.2594659614
 20
-132.6638066493
 30
0.0
 11
195.2594659614
 21
-137.6638066493
 31
0.0
  0
SOLID
  5
166
  8
0
 62
     0
 10
195.2594659614
 20
-132.6638066493
 30
0.0
 11
197.5094659614
 21
-141.6638066493
 31
0.0
 12
193.0094659614
 22
-141.6638066493
 32
0.0
 13
195.2594659614
 23
-139.4138066493
 33
0.0
  0
LINE
  5
167
  8
0
 62
     0
 10
195.2594659614
 20
-150.6638066493
 30
0.0
 11
195.2594659614
 21
-145.6638066493
 31
0.0
  0
SOLID
  5
168
  8
0
 62
     0
 10
195.2594659614
 20
-150.6638066493
 30
0.0
 11
193.0094659614
 21
-141.6638066493
 31
0.0
 12
197.5094659614
 22
-141.6638066493
 32
0.0
 13
195.2594659614
 23
-143.9138066493
 33
0.0
  0
ENDBLK
  5
169
  8
0
  0
BLOCK
  8
0
  2
*D25
 70
     1
 10
0.0
 20
0.0
 30
0.0
  3
*D25
  1

  0
TEXT
  5
16D
  8
0
 62
     0
 10
216.48039625160001
 20
-205.89505645860001
 30
0.0
 40
9.8954164504999991
  1
129
 50
90.0
  0
LINE
  5
16E
  8
0
 62
     0
 10
165.92881372439999
 20
-261.6638066493
 30
0.0
 11
221.22664621339999
 21
-261.6638066493
 31
0.0
  0
LINE
  5
16F
  8
0
 62
     0
 10
165.92881372439999
 20
-132.6638066493
 30
0.0
 11
221.22664621339999
 21
-132.6638066493
 31
0.0
  0
LINE
  5
170
  8
0
 62
     0
 10
219.22664621339999
 20
-261.6638066493
 30
0.0
 11
219.22664621339999
 21
-182.6117236339
 31
0.0
  0
LINE
  5
171
  8
0
 62
     0
 10
219.22664621339999
 20
-261.6638066493
 30
0.0
 11
219.22664621339999
 21
-211.7158896647
 31
0.0
  0
LINE
  5
172
  8
0
 62
     0
 10
219.22664621339999
 20
-132.6638066493
 30
0.0
 11
219.22664621339999
 21
-182.6117236339
 31
0.0
  0
LINE
  5
173
  8
0
 62
     0
 10
219.22664621339999
 20
-132.6638066493
 30
0.0
 11
219.22664621339999
 21
-211.7158896647
 31
0.0
  0
LINE
  5
174
  8
0
 62
     0
 10
219.22664621339999
 20
-132.6638066493
 30
0.0
 11
219.22664621339999
 21
-137.6638066493
 31
0.0
  0
SOLID
  5
175
  8
0
 62
     0
 10
219.22664621339999
 20
-132.6638066493
 30
0.0
 11
221.47664621339999
 21
-141.6638066493
 31
0.0
 12
216.97664621339999
 22
-141.6638066493
 32
0.0
 13
219.22664621339999
 23
-139.4138066493
 33
0.0
  0
LINE
  5
176
  8
0
 62
     0
 10
219.22664621339999
 20
-261.6638066493
 30
0.0
 11
219.22664621339999
 21
-256.6638066493
 31
0.0
  0
SOLID
  5
177
  8
0
 62
     0
 10
219.22664621339999
 20
-261.6638066493
 30
0.0
 11
216.97664621339999
 21
-252.6638066493
 31
0.0
 12
221.47664621339999
 22
-252.6638066493
 32
0.0
 13
219.22664621339999
 23
-254.9138066493
 33
0.0
  0
ENDBLK
  5
178
  8
0
  0
BLOCK
  8
0
  2
CLUMP16
 70
     0
 10
0.0
 20
0.0
 30
0.0
  3
CLUMP16
  1

  0
ARC
  5
17E
  8
┌▓È_1
 10
-23.671479166699999
 20
123.0181822917
 30
0.0
 40
3.5
 50
90.0
 51
270.0
  0
LINE
  5
17F
  8
┌▓È_1
 10
-8.6714791666999993
 20
119.5181822917
 30
0.0
 11
-23.671479166699999
 21
119.5181822917
 31
0.0
  0
LINE
  5
180
  8
┌▓È_1
 10
-23.671479166699999
 20
126.5181822917
 30
0.0
 11
-8.6714791666999993
 21
126.5181822917
 31
0.0
  0
ARC
  5
181
  8
┌▓È_1
 10
-8.6714791666999993
 20
123.0181822917
 30
0.0
 40
3.5
 50
270.0
 51
90.0
  0
ENDBLK
  5
182
  8
0
  0
BLOCK
  8
0
  2
CLUMP17
 70
     0
 10
0.0
 20
0.0
 30
0.0
  3
CLUMP17
  1

  0
ARC
  5
186
  8
┌▓È_1
 10
-23.671479166699999
 20
108.0181822917
 30
0.0
 40
3.5
 50
90.0
 51
270.0
  0
LINE
  5
187
  8
┌▓È_1
 10
-8.6714791666999993
 20
104.5181822917
 30
0.0
 11
-23.671479166699999
 21
104.5181822917
 31
0.0
  0
LINE
  5
188
  8
┌▓È_1
 10
-23.671479166699999
 20
111.5181822917
 30
0.0
 11
-8.6714791666999993
 21
111.5181822917
 31
0.0
  0
ARC
  5
189
  8
┌▓È_1
 10
-8.6714791666999993
 20
108.0181822917
 30
0.0
 40
3.5
 50
270.0
 51
90.0
  0
ENDBLK
  5
18A
  8
0
  0
BLOCK
  8
0
  2
CLUMP18
 70
     0
 10
0.0
 20
0.0
 30
0.0
  3
CLUMP18
  1

  0
ARC
  5
18E
  8
┌▓È_1
 10
-23.671479166699999
 20
186.01818229169999
 30
0.0
 40
3.5
 50
90.0
 51
270.0
  0
LINE
  5
18F
  8
┌▓È_1
 10
-8.6714791666999993
 20
189.51818229169999
 30
0.0
 11
-23.671479166699999
 21
189.51818229169999
 31
0.0
  0
LINE
  5
190
  8
┌▓È_1
 10
-23.671479166699999
 20
182.51818229169999
 30
0.0
 11
-8.6714791666999993
 21
182.51818229169999
 31
0.0
  0
ARC
  5
191
  8
┌▓È_1
 10
-8.6714791666999993
 20
186.01818229169999
 30
0.0
 40
3.5
 50
270.0
 51
90.0
  0
ENDBLK
  5
192
  8
0
  0
BLOCK
  8
0
  2
CLUMP19
 70
     0
 10
0.0
 20
0.0
 30
0.0
  3
CLUMP19
  1

  0
ARC
  5
196
  8
┌▓È_1
 10
-23.671479166699999
 20
201.01818229169999
 30
0.0
 40
3.5
 50
90.0
 51
270.0
  0
LINE
  5
197
  8
┌▓È_1
 10
-8.6714791666999993
 20
204.51818229169999
 30
0.0
 11
-23.671479166699999
 21
204.51818229169999
 31
0.0
  0
LINE
  5
198
  8
┌▓È_1
 10
-23.671479166699999
 20
197.51818229169999
 30
0.0
 11
-8.6714791666999993
 21
197.51818229169999
 31
0.0
  0
ARC
  5
199
  8
┌▓È_1
 10
-8.6714791666999993
 20
201.01818229169999
 30
0.0
 40
3.5
 50
270.0
 51
90.0
  0
ENDBLK
  5
19A
  8
0
  0
BLOCK
  8
0
  2
CLUMP20
 70
     0
 10
0.0
 20
0.0
 30
0.0
  3
CLUMP20
  1

  0
ARC
  5
1A2
  8
┌▓È_1
 10
-98.671479166699996
 20
123.0181822917
 30
0.0
 40
3.5
 50
90.0
 51
270.0
  0
LINE
  5
1A3
  8
┌▓È_1
 10
-83.671479166699996
 20
119.5181822917
 30
0.0
 11
-98.671479166699996
 21
119.5181822917
 31
0.0
  0
LINE
  5
1A4
  8
┌▓È_1
 10
-98.671479166699996
 20
126.5181822917
 30
0.0
 11
-83.671479166699996
 21
126.5181822917
 31
0.0
  0
ARC
  5
1A5
  8
┌▓È_1
 10
-83.671479166699996
 20
123.0181822917
 30
0.0
 40
3.5
 50
270.0
 51
90.0
  0
ENDBLK
  5
1A6
  8
0
  0
BLOCK
  8
0
  2
CLUMP21
 70
     0
 10
0.0
 20
0.0
 30
0.0
  3
CLUMP21
  1

  0
ARC
  5
1AA
  8
┌▓È_1
 10
-98.671479166699996
 20
108.0181822917
 30
0.0
 40
3.5
 50
90.0
 51
270.0
  0
LINE
  5
1AB
  8
┌▓È_1
 10
-83.671479166699996
 20
104.5181822917
 30
0.0
 11
-98.671479166699996
 21
104.5181822917
 31
0.0
  0
LINE
  5
1AC
  8
┌▓È_1
 10
-98.671479166699996
 20
111.5181822917
 30
0.0
 11
-83.671479166699996
 21
111.5181822917
 31
0.0
  0
ARC
  5
1AD
  8
┌▓È_1
 10
-83.671479166699996
 20
108.0181822917
 30
0.0
 40
3.5
 50
270.0
 51
90.0
  0
ENDBLK
  5
1AE
  8
0
  0
BLOCK
  8
0
  2
BALLON0
 70
     0
 10
0.0
 20
0.0
 30
0.0
  3
BALLON0
  1

  0
INSERT
  5
1B5
  8
0
  6
CONTINUOUS
  2
*U109
 10
0.0
 20
0.0
 30
0.0
  0
CIRCLE
  5
1B6
  8
┌▓È_1
 10
-235.34257429639999
 20
39.087534221399999
 30
0.0
 40
10.0
  0
LINE
  5
1B7
  8
Éíû@É³
 10
-218.67590762969999
 20
39.087534221399999
 30
0.0
 11
-225.34257429639999
 21
39.087534221399999
 31
0.0
  0
LINE
  5
1B8
  8
Éíû@É³
 10
-199.1314735908
 20
5.3744157317999992
 30
0.0
 11
-218.67590762969999
 21
39.087534221399999
 31
0.0
  0
SOLID
  5
1B9
  8
Éíû@É³
 10
-199.1314735908
 20
5.3744157317999992
 30
0.0
 11
-205.8771593596
 21
13.0226654341
 31
0.0
 12
-203.1438088434
 22
12.2954825441
 32
0.0
 13
-203.1438088434
 23
12.2954825441
 33
0.0
  0
SOLID
  5
1BA
  8
Éíû@É³
 10
-203.1438088434
 20
12.2954825441
 30
0.0
 11
-202.41662595349999
 21
15.0288330604
 31
0.0
 12
-199.1314735908
 22
5.3744157317999992
 32
0.0
 13
-199.1314735908
 23
5.3744157317999992
 33
0.0
  0
ENDBLK
  5
1BB
  8
0
  0
BLOCK
  8
0
  2
BALLON1
 70
     0
 10
0.0
 20
0.0
 30
0.0
  3
BALLON1
  1

  0
INSERT
  5
1BF
  8
0
  6
CONTINUOUS
  2
*U110
 10
0.0
 20
0.0
 30
0.0
  0
CIRCLE
  5
1C0
  8
┌▓È_1
 10
-153.09718973369999
 20
39.087534221399999
 30
0.0
 40
10.0
  0
LINE
  5
1C1
  8
Éíû@É³
 10
-136.43052306710001
 20
39.087534221399999
 30
0.0
 11
-143.09718973369999
 21
39.087534221399999
 31
0.0
  0
LINE
  5
1C2
  8
Éíû@É³
 10
-124.2831430841
 20
104.57190922140001
 30
0.0
 11
-136.43052306710001
 21
39.087534221399999
 31
0.0
  0
SOLID
  5
1C3
  8
Éíû@É³
 10
-124.2831430841
 20
104.57190922140001
 30
0.0
 11
-124.1405795143
 21
94.374866727199986
 31
0.0
 12
-125.74225456800001
 22
96.706097522799993
 32
0.0
 13
-125.74225456800001
 23
96.706097522799993
 33
0.0
  0
SOLID
  5
1C4
  8
Éíû@É³
 10
-125.74225456800001
 20
96.706097522799993
 30
0.0
 11
-128.07348536360001
 21
95.104422469200003
 31
0.0
 12
-124.2831430841
 22
104.57190922140001
 32
0.0
 13
-124.2831430841
 23
104.57190922140001
 33
0.0
  0
ENDBLK
  5
1C5
  8
0
  0
BLOCK
  8
0
  2
*D34
 70
     1
 10
0.0
 20
0.0
 30
0.0
  3
*D34
  1

  0
TEXT
  5
1C8
  8
0
 62
     0
 10
-281.48118100369999
 20
267.28350480400002
 30
0.0
 40
9.8954164504999991
  1
9
  0
LINE
  5
1C9
  8
0
 62
     0
 10
-274.07076440060001
 20
219.51770833329999
 30
0.0
 11
-274.07076440060001
 21
266.53725484210003
 31
0.0
  0
LINE
  5
1CA
  8
0
 62
     0
 10
-283.07076440060001
 20
228.51770833329999
 30
0.0
 11
-283.07076440060001
 21
266.53725484210003
 31
0.0
  0
LINE
  5
1CB
  8
0
 62
     0
 10
-274.07076440060001
 20
264.53725484210003
 30
0.0
 11
-274.07076440060001
 21
264.53725484210003
 31
0.0
  0
LINE
  5
1CC
  8
0
 62
     0
 10
-274.07076440060001
 20
264.53725484210003
 30
0.0
 11
-283.07076440060001
 21
264.53725484210003
 31
0.0
  0
LINE
  5
1CD
  8
0
 62
     0
 10
-283.07076440060001
 20
264.53725484210003
 30
0.0
 11
-274.07076440060001
 21
264.53725484210003
 31
0.0
  0
LINE
  5
1CE
  8
0
 62
     0
 10
-283.07076440060001
 20
264.53725484210003
 30
0.0
 11
-283.07076440060001
 21
264.53725484210003
 31
0.0
  0
LINE
  5
1CF
  8
0
 62
     0
 10
-283.07076440060001
 20
264.53725484210003
 30
0.0
 11
-288.07076440060001
 21
264.53725484210003
 31
0.0
  0
SOLID
  5
1D0
  8
0
 62
     0
 10
-283.07076440060001
 20
264.53725484210003
 30
0.0
 11
-292.07076440060001
 21
262.28725484210003
 31
0.0
 12
-292.07076440060001
 22
266.78725484210003
 32
0.0
 13
-289.82076440060001
 23
264.53725484210003
 33
0.0
  0
LINE
  5
1D1
  8
0
 62
     0
 10
-274.07076440060001
 20
264.53725484210003
 30
0.0
 11
-269.07076440060001
 21
264.53725484210003
 31
0.0
  0
SOLID
  5
1D2
  8
0
 62
     0
 10
-274.07076440060001
 20
264.53725484210003
 30
0.0
 11
-265.07076440060001
 21
266.78725484210003
 31
0.0
 12
-265.07076440060001
 22
262.28725484210003
 32
0.0
 13
-267.32076440060001
 23
264.53725484210003
 33
0.0
  0
ENDBLK
  5
1D3
  8
0
  0
BLOCK
  8
0
  2
CLUMP22
 70
     0
 10
0.0
 20
0.0
 30
0.0
  3
CLUMP22
  1

  0
ARC
  5
1D9
  8
┌▓È_1
 10
126.3285208333
 20
-228.6638066493
 30
0.0
 40
3.5
 50
90.0
 51
270.0
  0
LINE
  5
1DA
  8
┌▓È_1
 10
141.32852083329999
 20
-232.1638066493
 30
0.0
 11
126.3285208333
 21
-232.1638066493
 31
0.0
  0
LINE
  5
1DB
  8
┌▓È_1
 10
126.3285208333
 20
-225.1638066493
 30
0.0
 11
141.32852083329999
 21
-225.1638066493
 31
0.0
  0
ARC
  5
1DC
  8
┌▓È_1
 10
141.32852083329999
 20
-228.6638066493
 30
0.0
 40
3.5
 50
270.0
 51
90.0
  0
ENDBLK
  5
1DD
  8
0
  0
BLOCK
  8
0
  2
CLUMP23
 70
     0
 10
0.0
 20
0.0
 30
0.0
  3
CLUMP23
  1

  0
ARC
  5
1E1
  8
┌▓È_1
 10
126.3285208333
 20
-243.6638066493
 30
0.0
 40
3.5
 50
90.0
 51
270.0
  0
LINE
  5
1E2
  8
┌▓È_1
 10
141.32852083329999
 20
-247.1638066493
 30
0.0
 11
126.3285208333
 21
-247.1638066493
 31
0.0
  0
LINE
  5
1E3
  8
┌▓È_1
 10
126.3285208333
 20
-240.1638066493
 30
0.0
 11
141.32852083329999
 21
-240.1638066493
 31
0.0
  0
ARC
  5
1E4
  8
┌▓È_1
 10
141.32852083329999
 20
-243.6638066493
 30
0.0
 40
3.5
 50
270.0
 51
90.0
  0
ENDBLK
  5
1E5
  8
0
  0
BLOCK
  8
0
  2
CLUMP24
 70
     0
 10
0.0
 20
0.0
 30
0.0
  3
CLUMP24
  1

  0
ARC
  5
1E9
  8
┌▓È_1
 10
126.3285208333
 20
-165.6638066493
 30
0.0
 40
3.5
 50
90.0
 51
270.0
  0
LINE
  5
1EA
  8
┌▓È_1
 10
141.32852083329999
 20
-162.1638066493
 30
0.0
 11
126.3285208333
 21
-162.1638066493
 31
0.0
  0
LINE
  5
1EB
  8
┌▓È_1
 10
126.3285208333
 20
-169.1638066493
 30
0.0
 11
141.32852083329999
 21
-169.1638066493
 31
0.0
  0
ARC
  5
1EC
  8
┌▓È_1
 10
141.32852083329999
 20
-165.6638066493
 30
0.0
 40
3.5
 50
270.0
 51
90.0
  0
ENDBLK
  5
1ED
  8
0
  0
BLOCK
  8
0
  2
CLUMP25
 70
     0
 10
0.0
 20
0.0
 30
0.0
  3
CLUMP25
  1

  0
ARC
  5
1F1
  8
┌▓È_1
 10
126.3285208333
 20
-150.6638066493
 30
0.0
 40
3.5
 50
90.0
 51
270.0
  0
LINE
  5
1F2
  8
┌▓È_1
 10
141.32852083329999
 20
-147.1638066493
 30
0.0
 11
126.3285208333
 21
-147.1638066493
 31
0.0
  0
LINE
  5
1F3
  8
┌▓È_1
 10
126.3285208333
 20
-154.1638066493
 30
0.0
 11
141.32852083329999
 21
-154.1638066493
 31
0.0
  0
ARC
  5
1F4
  8
┌▓È_1
 10
141.32852083329999
 20
-150.6638066493
 30
0.0
 40
3.5
 50
270.0
 51
90.0
  0
ENDBLK
  5
1F5
  8
0
  0
BLOCK
  8
0
  2
*D39
 70
     1
 10
0.0
 20
0.0
 30
0.0
  3
*D39
  1

  0
TEXT
  5
1FB
  8
0
 62
     0
 10
-139.39889978279999
 20
-231.5742232524
 30
0.0
 40
9.8954164504999991
  1
7
 50
90.0
  0
LINE
  5
1FC
  8
0
 62
     0
 10
-158.67147916670001
 20
-232.1638066493
 30
0.0
 11
-134.65264982100001
 21
-232.1638066493
 31
0.0
  0
LINE
  5
1FD
  8
0
 62
     0
 10
-158.67147916670001
 20
-225.1638066493
 30
0.0
 11
-134.65264982100001
 21
-225.1638066493
 31
0.0
  0
LINE
  5
1FE
  8
0
 62
     0
 10
-136.65264982100001
 20
-232.1638066493
 30
0.0
 11
-136.65264982100001
 21
-232.1638066493
 31
0.0
  0
LINE
  5
1FF
  8
0
 62
     0
 10
-136.65264982100001
 20
-232.1638066493
 30
0.0
 11
-136.65264982100001
 21
-225.1638066493
 31
0.0
  0
LINE
  5
200
  8
0
 62
     0
 10
-136.65264982100001
 20
-225.1638066493
 30
0.0
 11
-136.65264982100001
 21
-232.1638066493
 31
0.0
  0
LINE
  5
201
  8
0
 62
     0
 10
-136.65264982100001
 20
-225.1638066493
 30
0.0
 11
-136.65264982100001
 21
-225.1638066493
 31
0.0
  0
LINE
  5
202
  8
0
 62
     0
 10
-136.65264982100001
 20
-225.1638066493
 30
0.0
 11
-136.65264982100001
 21
-220.1638066493
 31
0.0
  0
SOLID
  5
203
  8
0
 62
     0
 10
-136.65264982100001
 20
-225.1638066493
 30
0.0
 11
-138.90264982100001
 21
-216.1638066493
 31
0.0
 12
-134.40264982100001
 22
-216.1638066493
 32
0.0
 13
-136.65264982100001
 23
-218.4138066493
 33
0.0
  0
LINE
  5
204
  8
0
 62
     0
 10
-136.65264982100001
 20
-232.1638066493
 30
0.0
 11
-136.65264982100001
 21
-237.1638066493
 31
0.0
  0
SOLID
  5
205
  8
0
 62
     0
 10
-136.65264982100001
 20
-232.1638066493
 30
0.0
 11
-134.40264982100001
 21
-241.1638066493
 31
0.0
 12
-138.90264982100001
 22
-241.1638066493
 32
0.0
 13
-136.65264982100001
 23
-238.9138066493
 33
0.0
  0
ENDBLK
  5
206
  8
0
  0
BLOCK
  8
0
  2
*D40
 70
     1
 10
0.0
 20
0.0
 30
0.0
  3
*D40
  1

  0
TEXT
  5
20A
  8
0
 62
     0
 10
-171.9923123728
 20
-213.1776475154
 30
0.0
 40
9.8954164504999991
  1
22
  0
LINE
  5
20B
  8
0
 62
     0
 10
-155.17147916670001
 20
-228.6638066493
 30
0.0
 11
-155.17147916670001
 21
-213.9238974772
 31
0.0
  0
LINE
  5
20C
  8
0
 62
     0
 10
-177.1714791666999
 20
-228.6638066493
 30
0.0
 11
-177.1714791666999
 21
-213.9238974772
 31
0.0
  0
LINE
  5
20D
  8
0
 62
     0
 10
-155.17147916670001
 20
-215.9238974772
 30
0.0
 11
-155.17147916670001
 21
-215.9238974772
 31
0.0
  0
LINE
  5
20E
  8
0
 62
     0
 10
-155.17147916670001
 20
-215.9238974772
 30
0.0
 11
-177.1714791666999
 21
-215.9238974772
 31
0.0
  0
LINE
  5
20F
  8
0
 62
     0
 10
-177.1714791666999
 20
-215.9238974772
 30
0.0
 11
-155.17147916670001
 21
-215.9238974772
 31
0.0
  0
LINE
  5
210
  8
0
 62
     0
 10
-177.1714791666999
 20
-215.9238974772
 30
0.0
 11
-177.1714791666999
 21
-215.9238974772
 31
0.0
  0
LINE
  5
211
  8
0
 62
     0
 10
-177.1714791666999
 20
-215.9238974772
 30
0.0
 11
-172.17147916670001
 21
-215.9238974772
 31
0.0
  0
SOLID
  5
212
  8
0
 62
     0
 10
-177.1714791666999
 20
-215.9238974772
 30
0.0
 11
-168.17147916670001
 21
-213.6738974772
 31
0.0
 12
-168.17147916670001
 22
-218.1738974772
 32
0.0
 13
-170.42147916670001
 23
-215.9238974772
 33
0.0
  0
LINE
  5
213
  8
0
 62
     0
 10
-155.17147916670001
 20
-215.9238974772
 30
0.0
 11
-160.17147916670001
 21
-215.9238974772
 31
0.0
  0
SOLID
  5
214
  8
0
 62
     0
 10
-155.17147916670001
 20
-215.9238974772
 30
0.0
 11
-164.17147916670001
 21
-218.1738974772
 31
0.0
 12
-164.17147916670001
 22
-213.6738974772
 32
0.0
 13
-161.92147916670001
 23
-215.9238974772
 33
0.0
  0
ENDBLK
  5
215
  8
0
  0
BLOCK
  8
0
  2
*D41
 70
     1
 10
0.0
 20
0.0
 30
0.0
  3
*D41
  1

  0
TEXT
  5
219
  8
0
 62
     0
 10
-59.492312372800001
 20
-284.49637214770001
 30
0.0
 40
9.8954164504999991
  1
75
  0
LINE
  5
21A
  8
0
 62
     0
 10
-91.171479166699996
 20
-247.1638066493
 30
0.0
 11
-91.171479166699996
 21
-289.24262210950002
 31
0.0
  0
LINE
  5
21B
  8
0
 62
     0
 10
-16.171479166699999
 20
-247.1638066493
 30
0.0
 11
-16.171479166699999
 21
-289.24262210950002
 31
0.0
  0
LINE
  5
21C
  8
0
 62
     0
 10
-91.171479166699996
 20
-287.24262210950002
 30
0.0
 11
-42.029812754299989
 21
-287.24262210950002
 31
0.0
  0
LINE
  5
21D
  8
0
 62
     0
 10
-91.171479166699996
 20
-287.24262210950002
 30
0.0
 11
-65.313145578999993
 21
-287.24262210950002
 31
0.0
  0
LINE
  5
21E
  8
0
 62
     0
 10
-16.171479166699999
 20
-287.24262210950002
 30
0.0
 11
-42.029812754299989
 21
-287.24262210950002
 31
0.0
  0
LINE
  5
21F
  8
0
 62
     0
 10
-16.171479166699999
 20
-287.24262210950002
 30
0.0
 11
-65.313145578999993
 21
-287.24262210950002
 31
0.0
  0
LINE
  5
220
  8
0
 62
     0
 10
-16.171479166699999
 20
-287.24262210950002
 30
0.0
 11
-21.171479166699999
 21
-287.24262210950002
 31
0.0
  0
SOLID
  5
221
  8
0
 62
     0
 10
-16.171479166699999
 20
-287.24262210950002
 30
0.0
 11
-25.171479166699999
 21
-289.49262210950002
 31
0.0
 12
-25.171479166699999
 22
-284.99262210950002
 32
0.0
 13
-22.921479166699999
 23
-287.24262210950002
 33
0.0
  0
LINE
  5
222
  8
0
 62
     0
 10
-91.171479166699996
 20
-287.24262210950002
 30
0.0
 11
-86.171479166699996
 21
-287.24262210950002
 31
0.0
  0
SOLID
  5
223
  8
0
 62
     0
 10
-91.171479166699996
 20
-287.24262210950002
 30
0.0
 11
-82.171479166699996
 21
-284.99262210950002
 31
0.0
 12
-82.171479166699996
 22
-289.49262210950002
 32
0.0
 13
-84.421479166699996
 23
-287.24262210950002
 33
0.0
  0
ENDBLK
  5
224
  8
0
  0
BLOCK
  8
0
  2
*D42
 70
     1
 10
0.0
 20
0.0
 30
0.0
  3
*D42
  1

  0
TEXT
  5
228
  8
0
 62
     0
 10
-267.16525611499998
 20
-284.49637405499999
 30
0.0
 40
9.8954164504999991
  1
32.1
  0
LINE
  5
229
  8
0
 62
     0
 10
-273.27118627559997
 20
-261.6638066493
 30
0.0
 11
-273.27118627559997
 21
-289.24262401689998
 31
0.0
  0
LINE
  5
22A
  8
0
 62
     0
 10
-241.17147916670001
 20
-247.1638066493
 30
0.0
 11
-241.17147916670001
 21
-289.24262401689998
 31
0.0
  0
LINE
  5
22B
  8
0
 62
     0
 10
-273.27118627559997
 20
-287.24262401689998
 30
0.0
 11
-241.4565761211
 21
-287.24262401689998
 31
0.0
  0
LINE
  5
22C
  8
0
 62
     0
 10
-273.27118627559997
 20
-287.24262401689998
 30
0.0
 11
-272.98608932119998
 21
-287.24262401689998
 31
0.0
  0
LINE
  5
22D
  8
0
 62
     0
 10
-241.17147916670001
 20
-287.24262401689998
 30
0.0
 11
-241.4565761211
 21
-287.24262401689998
 31
0.0
  0
LINE
  5
22E
  8
0
 62
     0
 10
-241.17147916670001
 20
-287.24262401689998
 30
0.0
 11
-272.98608932119998
 21
-287.24262401689998
 31
0.0
  0
LINE
  5
22F
  8
0
 62
     0
 10
-241.17147916670001
 20
-287.24262401689998
 30
0.0
 11
-236.17147916670001
 21
-287.24262401689998
 31
0.0
  0
SOLID
  5
230
  8
0
 62
     0
 10
-241.17147916670001
 20
-287.24262401689998
 30
0.0
 11
-232.17147916670001
 21
-284.99262401689998
 31
0.0
 12
-232.17147916670001
 22
-289.49262401689998
 32
0.0
 13
-234.42147916670001
 23
-287.24262401689998
 33
0.0
  0
LINE
  5
231
  8
0
 62
     0
 10
-273.27118627559997
 20
-287.24262401689998
 30
0.0
 11
-278.27118627559997
 21
-287.24262401689998
 31
0.0
  0
SOLID
  5
232
  8
0
 62
     0
 10
-273.27118627559997
 20
-287.24262401689998
 30
0.0
 11
-282.27118627559997
 21
-289.49262401689998
 31
0.0
 12
-282.27118627559997
 22
-284.99262401689998
 32
0.0
 13
-280.02118627559997
 23
-287.24262401689998
 33
0.0
  0
ENDBLK
  5
233
  8
0
  0
BLOCK
  8
0
  2
*D43
 70
     1
 10
0.0
 20
0.0
 30
0.0
  3
*D43
  1

  0
TEXT
  5
237
  8
0
 62
     0
 10
-209.4923123728
 20
-284.49637214770001
 30
0.0
 40
9.8954164504999991
  1
75
  0
LINE
  5
238
  8
0
 62
     0
 10
-241.17147916670001
 20
-247.1638066493
 30
0.0
 11
-241.17147916670001
 21
-289.24262210950002
 31
0.0
  0
LINE
  5
239
  8
0
 62
     0
 10
-166.17147916670001
 20
-247.1638066493
 30
0.0
 11
-166.17147916670001
 21
-289.24262210950002
 31
0.0
  0
LINE
  5
23A
  8
0
 62
     0
 10
-241.17147916670001
 20
-287.24262210950002
 30
0.0
 11
-192.0298127543
 21
-287.24262210950002
 31
0.0
  0
LINE
  5
23B
  8
0
 62
     0
 10
-241.17147916670001
 20
-287.24262210950002
 30
0.0
 11
-215.31314557900001
 21
-287.24262210950002
 31
0.0
  0
LINE
  5
23C
  8
0
 62
     0
 10
-166.17147916670001
 20
-287.24262210950002
 30
0.0
 11
-192.0298127543
 21
-287.24262210950002
 31
0.0
  0
LINE
  5
23D
  8
0
 62
     0
 10
-166.17147916670001
 20
-287.24262210950002
 30
0.0
 11
-215.31314557900001
 21
-287.24262210950002
 31
0.0
  0
LINE
  5
23E
  8
0
 62
     0
 10
-166.17147916670001
 20
-287.24262210950002
 30
0.0
 11
-171.17147916670001
 21
-287.24262210950002
 31
0.0
  0
SOLID
  5
23F
  8
0
 62
     0
 10
-166.17147916670001
 20
-287.24262210950002
 30
0.0
 11
-175.17147916670001
 21
-289.49262210950002
 31
0.0
 12
-175.17147916670001
 22
-284.99262210950002
 32
0.0
 13
-172.92147916670001
 23
-287.24262210950002
 33
0.0
  0
LINE
  5
240
  8
0
 62
     0
 10
-241.17147916670001
 20
-287.24262210950002
 30
0.0
 11
-236.17147916670001
 21
-287.24262210950002
 31
0.0
  0
SOLID
  5
241
  8
0
 62
     0
 10
-241.17147916670001
 20
-287.24262210950002
 30
0.0
 11
-232.17147916670001
 21
-284.99262210950002
 31
0.0
 12
-232.17147916670001
 22
-289.49262210950002
 32
0.0
 13
-234.42147916670001
 23
-287.24262210950002
 33
0.0
  0
ENDBLK
  5
242
  8
0
  0
BLOCK
  8
0
  2
CLUMP26
 70
     0
 10
0.0
 20
0.0
 30
0.0
  3
CLUMP26
  1

  0
ARC
  5
248
  8
┌▓È_1
 10
-173.67147916670001
 20
123.0181822917
 30
0.0
 40
3.5
 50
90.0
 51
270.0
  0
LINE
  5
249
  8
┌▓È_1
 10
-158.67147916670001
 20
119.5181822917
 30
0.0
 11
-173.67147916670001
 21
119.5181822917
 31
0.0
  0
LINE
  5
24A
  8
┌▓È_1
 10
-173.67147916670001
 20
126.5181822917
 30
0.0
 11
-158.67147916670001
 21
126.5181822917
 31
0.0
  0
ARC
  5
24B
  8
┌▓È_1
 10
-158.67147916670001
 20
123.0181822917
 30
0.0
 40
3.5
 50
270.0
 51
90.0
  0
ENDBLK
  5
24C
  8
0
  0
BLOCK
  8
0
  2
CLUMP27
 70
     0
 10
0.0
 20
0.0
 30
0.0
  3
CLUMP27
  1

  0
ARC
  5
255
  8
┌▓È_1
 10
-248.67147916670001
 20
186.01818229169999
 30
0.0
 40
3.5
 50
90.0
 51
270.0
  0
LINE
  5
256
  8
┌▓È_1
 10
-233.67147916670001
 20
189.51818229169999
 30
0.0
 11
-248.67147916670001
 21
189.51818229169999
 31
0.0
  0
LINE
  5
257
  8
┌▓È_1
 10
-248.67147916670001
 20
182.51818229169999
 30
0.0
 11
-233.67147916670001
 21
182.51818229169999
 31
0.0
  0
ARC
  5
258
  8
┌▓È_1
 10
-233.67147916670001
 20
186.01818229169999
 30
0.0
 40
3.5
 50
270.0
 51
90.0
  0
ENDBLK
  5
259
  8
0
  0
BLOCK
  8
0
  2
CLUMP28
 70
     0
 10
0.0
 20
0.0
 30
0.0
  3
CLUMP28
  1

  0
ARC
  5
25D
  8
┌▓È_1
 10
-248.67147916670001
 20
201.01818229169999
 30
0.0
 40
3.5
 50
90.0
 51
270.0
  0
LINE
  5
25E
  8
┌▓È_1
 10
-233.67147916670001
 20
204.51818229169999
 30
0.0
 11
-248.67147916670001
 21
204.51818229169999
 31
0.0
  0
LINE
  5
25F
  8
┌▓È_1
 10
-248.67147916670001
 20
197.51818229169999
 30
0.0
 11
-233.67147916670001
 21
197.51818229169999
 31
0.0
  0
ARC
  5
260
  8
┌▓È_1
 10
-233.67147916670001
 20
201.01818229169999
 30
0.0
 40
3.5
 50
270.0
 51
90.0
  0
ENDBLK
  5
261
  8
0
  0
BLOCK
  8
0
  2
CLUMP29
 70
     0
 10
0.0
 20
0.0
 30
0.0
  3
CLUMP29
  1

  0
ARC
  5
265
  8
┌▓È_1
 10
-248.67147916670001
 20
108.0181822917
 30
0.0
 40
3.5
 50
90.0
 51
270.0
  0
LINE
  5
266
  8
┌▓È_1
 10
-233.67147916670001
 20
104.5181822917
 30
0.0
 11
-248.67147916670001
 21
104.5181822917
 31
0.0
  0
LINE
  5
267
  8
┌▓È_1
 10
-248.67147916670001
 20
111.5181822917
 30
0.0
 11
-233.67147916670001
 21
111.5181822917
 31
0.0
  0
ARC
  5
268
  8
┌▓È_1
 10
-233.67147916670001
 20
108.0181822917
 30
0.0
 40
3.5
 50
270.0
 51
90.0
  0
ENDBLK
  5
269
  8
0
  0
BLOCK
  8
0
  2
CLUMP30
 70
     0
 10
0.0
 20
0.0
 30
0.0
  3
CLUMP30
  1

  0
ARC
  5
26E
  8
┌▓È_1
 10
-248.67147916670001
 20
123.0181822917
 30
0.0
 40
3.5
 50
90.0
 51
270.0
  0
LINE
  5
26F
  8
┌▓È_1
 10
-233.67147916670001
 20
119.5181822917
 30
0.0
 11
-248.67147916670001
 21
119.5181822917
 31
0.0
  0
LINE
  5
270
  8
┌▓È_1
 10
-248.67147916670001
 20
126.5181822917
 30
0.0
 11
-233.67147916670001
 21
126.5181822917
 31
0.0
  0
ARC
  5
271
  8
┌▓È_1
 10
-233.67147916670001
 20
123.0181822917
 30
0.0
 40
3.5
 50
270.0
 51
90.0
  0
ENDBLK
  5
272
  8
0
  0
BLOCK
  8
0
  2
CLUMP31
 70
     0
 10
0.0
 20
0.0
 30
0.0
  3
CLUMP31
  1

  0
ARC
  5
276
  8
┌▓È_1
 10
-173.67147916670001
 20
108.0181822917
 30
0.0
 40
3.5
 50
90.0
 51
270.0
  0
LINE
  5
277
  8
┌▓È_1
 10
-158.67147916670001
 20
104.5181822917
 30
0.0
 11
-173.67147916670001
 21
104.5181822917
 31
0.0
  0
LINE
  5
278
  8
┌▓È_1
 10
-173.67147916670001
 20
111.5181822917
 30
0.0
 11
-158.67147916670001
 21
111.5181822917
 31
0.0
  0
ARC
  5
279
  8
┌▓È_1
 10
-158.67147916670001
 20
108.0181822917
 30
0.0
 40
3.5
 50
270.0
 51
90.0
  0
ENDBLK
  5
27A
  8
0
  0
BLOCK
  8
0
  2
CLUMP32
 70
     0
 10
0.0
 20
0.0
 30
0.0
  3
CLUMP32
  1

  0
ARC
  5
27E
  8
┌▓È_1
 10
-173.67147916670001
 20
186.01818229169999
 30
0.0
 40
3.5
 50
90.0
 51
270.0
  0
LINE
  5
27F
  8
┌▓È_1
 10
-158.67147916670001
 20
189.51818229169999
 30
0.0
 11
-173.67147916670001
 21
189.51818229169999
 31
0.0
  0
LINE
  5
280
  8
┌▓È_1
 10
-173.67147916670001
 20
182.51818229169999
 30
0.0
 11
-158.67147916670001
 21
182.51818229169999
 31
0.0
  0
ARC
  5
281
  8
┌▓È_1
 10
-158.67147916670001
 20
186.01818229169999
 30
0.0
 40
3.5
 50
270.0
 51
90.0
  0
ENDBLK
  5
282
  8
0
  0
BLOCK
  8
0
  2
CLUMP33
 70
     0
 10
0.0
 20
0.0
 30
0.0
  3
CLUMP33
  1

  0
ARC
  5
286
  8
┌▓È_1
 10
-173.67147916670001
 20
201.01818229169999
 30
0.0
 40
3.5
 50
90.0
 51
270.0
  0
LINE
  5
287
  8
┌▓È_1
 10
-158.67147916670001
 20
204.51818229169999
 30
0.0
 11
-173.67147916670001
 21
204.51818229169999
 31
0.0
  0
LINE
  5
288
  8
┌▓È_1
 10
-173.67147916670001
 20
197.51818229169999
 30
0.0
 11
-158.67147916670001
 21
197.51818229169999
 31
0.0
  0
ARC
  5
289
  8
┌▓È_1
 10
-158.67147916670001
 20
201.01818229169999
 30
0.0
 40
3.5
 50
270.0
 51
90.0
  0
ENDBLK
  5
28A
  8
0
  0
BLOCK
  8
0
  2
CLUMP34
 70
     0
 10
0.0
 20
0.0
 30
0.0
  3
CLUMP34
  1

  0
ARC
  5
28E
  8
┌▓È_1
 10
-98.671479166699996
 20
201.01818229169999
 30
0.0
 40
3.5
 50
90.0
 51
270.0
  0
LINE
  5
28F
  8
┌▓È_1
 10
-83.671479166699996
 20
204.51818229169999
 30
0.0
 11
-98.671479166699996
 21
204.51818229169999
 31
0.0
  0
LINE
  5
290
  8
┌▓È_1
 10
-98.671479166699996
 20
197.51818229169999
 30
0.0
 11
-83.671479166699996
 21
197.51818229169999
 31
0.0
  0
ARC
  5
291
  8
┌▓È_1
 10
-83.671479166699996
 20
201.01818229169999
 30
0.0
 40
3.5
 50
270.0
 51
90.0
  0
ENDBLK
  5
292
  8
0
  0
BLOCK
  8
0
  2
CLUMP35
 70
     0
 10
0.0
 20
0.0
 30
0.0
  3
CLUMP35
  1

  0
ARC
  5
296
  8
┌▓È_1
 10
-98.671479166699996
 20
186.01818229169999
 30
0.0
 40
3.5
 50
90.0
 51
270.0
  0
LINE
  5
297
  8
┌▓È_1
 10
-83.671479166699996
 20
189.51818229169999
 30
0.0
 11
-98.671479166699996
 21
189.51818229169999
 31
0.0
  0
LINE
  5
298
  8
┌▓È_1
 10
-98.671479166699996
 20
182.51818229169999
 30
0.0
 11
-83.671479166699996
 21
182.51818229169999
 31
0.0
  0
ARC
  5
299
  8
┌▓È_1
 10
-83.671479166699996
 20
186.01818229169999
 30
0.0
 40
3.5
 50
270.0
 51
90.0
  0
ENDBLK
  5
29A
  8
0
  0
BLOCK
  8
0
  2
CLUMP36
 70
     0
 10
0.0
 20
0.0
 30
0.0
  3
CLUMP36
  1

  0
ARC
  5
2A1
  8
┌▓È_1
 10
-23.671479166699999
 20
-228.6638066493
 30
0.0
 40
3.5
 50
90.0
 51
270.0
  0
LINE
  5
2A2
  8
┌▓È_1
 10
-8.6714791666999993
 20
-232.1638066493
 30
0.0
 11
-23.671479166699999
 21
-232.1638066493
 31
0.0
  0
LINE
  5
2A3
  8
┌▓È_1
 10
-23.671479166699999
 20
-225.1638066493
 30
0.0
 11
-8.6714791666999993
 21
-225.1638066493
 31
0.0
  0
ARC
  5
2A4
  8
┌▓È_1
 10
-8.6714791666999993
 20
-228.6638066493
 30
0.0
 40
3.5
 50
270.0
 51
90.0
  0
ENDBLK
  5
2A5
  8
0
  0
BLOCK
  8
0
  2
CLUMP37
 70
     0
 10
0.0
 20
0.0
 30
0.0
  3
CLUMP37
  1

  0
ARC
  5
2A9
  8
┌▓È_1
 10
-23.671479166699999
 20
-243.6638066493
 30
0.0
 40
3.5
 50
90.0
 51
270.0
  0
LINE
  5
2AA
  8
┌▓È_1
 10
-8.6714791666999993
 20
-247.1638066493
 30
0.0
 11
-23.671479166699999
 21
-247.1638066493
 31
0.0
  0
LINE
  5
2AB
  8
┌▓È_1
 10
-23.671479166699999
 20
-240.1638066493
 30
0.0
 11
-8.6714791666999993
 21
-240.1638066493
 31
0.0
  0
ARC
  5
2AC
  8
┌▓È_1
 10
-8.6714791666999993
 20
-243.6638066493
 30
0.0
 40
3.5
 50
270.0
 51
90.0
  0
ENDBLK
  5
2AD
  8
0
  0
BLOCK
  8
0
  2
CLUMP38
 70
     0
 10
0.0
 20
0.0
 30
0.0
  3
CLUMP38
  1

  0
ARC
  5
2B7
  8
┌▓È_1
 10
-23.671479166699999
 20
-165.6638066493
 30
0.0
 40
3.5
 50
90.0
 51
270.0
  0
LINE
  5
2B8
  8
┌▓È_1
 10
-8.6714791666999993
 20
-162.1638066493
 30
0.0
 11
-23.671479166699999
 21
-162.1638066493
 31
0.0
  0
LINE
  5
2B9
  8
┌▓È_1
 10
-23.671479166699999
 20
-169.1638066493
 30
0.0
 11
-8.6714791666999993
 21
-169.1638066493
 31
0.0
  0
ARC
  5
2BA
  8
┌▓È_1
 10
-8.6714791666999993
 20
-165.6638066493
 30
0.0
 40
3.5
 50
270.0
 51
90.0
  0
ENDBLK
  5
2BB
  8
0
  0
BLOCK
  8
0
  2
CLUMP39
 70
     0
 10
0.0
 20
0.0
 30
0.0
  3
CLUMP39
  1

  0
ARC
  5
2BF
  8
┌▓È_1
 10
-23.671479166699999
 20
-150.6638066493
 30
0.0
 40
3.5
 50
90.0
 51
270.0
  0
LINE
  5
2C0
  8
┌▓È_1
 10
-8.6714791666999993
 20
-147.1638066493
 30
0.0
 11
-23.671479166699999
 21
-147.1638066493
 31
0.0
  0
LINE
  5
2C1
  8
┌▓È_1
 10
-23.671479166699999
 20
-154.1638066493
 30
0.0
 11
-8.6714791666999993
 21
-154.1638066493
 31
0.0
  0
ARC
  5
2C2
  8
┌▓È_1
 10
-8.6714791666999993
 20
-150.6638066493
 30
0.0
 40
3.5
 50
270.0
 51
90.0
  0
ENDBLK
  5
2C3
  8
0
  0
BLOCK
  8
0
  2
CLUMP40
 70
     0
 10
0.0
 20
0.0
 30
0.0
  3
CLUMP40
  1

  0
ARC
  5
2C8
  8
┌▓È_1
 10
-98.671479166699996
 20
-150.6638066493
 30
0.0
 40
3.5
 50
90.0
 51
270.0
  0
LINE
  5
2C9
  8
┌▓È_1
 10
-83.671479166699996
 20
-147.1638066493
 30
0.0
 11
-98.671479166699996
 21
-147.1638066493
 31
0.0
  0
LINE
  5
2CA
  8
┌▓È_1
 10
-98.671479166699996
 20
-154.1638066493
 30
0.0
 11
-83.671479166699996
 21
-154.1638066493
 31
0.0
  0
ARC
  5
2CB
  8
┌▓È_1
 10
-83.671479166699996
 20
-150.6638066493
 30
0.0
 40
3.5
 50
270.0
 51
90.0
  0
ENDBLK
  5
2CC
  8
0
  0
BLOCK
  8
0
  2
CLUMP41
 70
     0
 10
0.0
 20
0.0
 30
0.0
  3
CLUMP41
  1

  0
ARC
  5
2D0
  8
┌▓È_1
 10
-173.67147916670001
 20
-165.6638066493
 30
0.0
 40
3.5
 50
90.0
 51
270.0
  0
LINE
  5
2D1
  8
┌▓È_1
 10
-158.67147916670001
 20
-162.1638066493
 30
0.0
 11
-173.67147916670001
 21
-162.1638066493
 31
0.0
  0
LINE
  5
2D2
  8
┌▓È_1
 10
-173.67147916670001
 20
-169.1638066493
 30
0.0
 11
-158.67147916670001
 21
-169.1638066493
 31
0.0
  0
ARC
  5
2D3
  8
┌▓È_1
 10
-158.67147916670001
 20
-165.6638066493
 30
0.0
 40
3.5
 50
270.0
 51
90.0
  0
ENDBLK
  5
2D4
  8
0
  0
BLOCK
  8
0
  2
CLUMP42
 70
     0
 10
0.0
 20
0.0
 30
0.0
  3
CLUMP42
  1

  0
ARC
  5
2D8
  8
┌▓È_1
 10
-173.67147916670001
 20
-150.6638066493
 30
0.0
 40
3.5
 50
90.0
 51
270.0
  0
LINE
  5
2D9
  8
┌▓È_1
 10
-158.67147916670001
 20
-147.1638066493
 30
0.0
 11
-173.67147916670001
 21
-147.1638066493
 31
0.0
  0
LINE
  5
2DA
  8
┌▓È_1
 10
-173.67147916670001
 20
-154.1638066493
 30
0.0
 11
-158.67147916670001
 21
-154.1638066493
 31
0.0
  0
ARC
  5
2DB
  8
┌▓È_1
 10
-158.67147916670001
 20
-150.6638066493
 30
0.0
 40
3.5
 50
270.0
 51
90.0
  0
ENDBLK
  5
2DC
  8
0
  0
BLOCK
  8
0
  2
CLUMP43
 70
     0
 10
0.0
 20
0.0
 30
0.0
  3
CLUMP43
  1

  0
ARC
  5
2E0
  8
┌▓È_1
 10
-98.671479166699996
 20
-165.6638066493
 30
0.0
 40
3.5
 50
90.0
 51
270.0
  0
LINE
  5
2E1
  8
┌▓È_1
 10
-83.671479166699996
 20
-162.1638066493
 30
0.0
 11
-98.671479166699996
 21
-162.1638066493
 31
0.0
  0
LINE
  5
2E2
  8
┌▓È_1
 10
-98.671479166699996
 20
-169.1638066493
 30
0.0
 11
-83.671479166699996
 21
-169.1638066493
 31
0.0
  0
ARC
  5
2E3
  8
┌▓È_1
 10
-83.671479166699996
 20
-165.6638066493
 30
0.0
 40
3.5
 50
270.0
 51
90.0
  0
ENDBLK
  5
2E4
  8
0
  0
BLOCK
  8
0
  2
*D62
 70
     1
 10
0.0
 20
0.0
 30
0.0
  3
*D62
  1

  0
TEXT
  5
2F2
  8
0
 62
     0
 10
-134.4923123728
 20
-284.49637214770001
 30
0.0
 40
9.8954164504999991
  1
75
  0
LINE
  5
2F3
  8
0
 62
     0
 10
-166.17147916670001
 20
-247.1638066493
 30
0.0
 11
-166.17147916670001
 21
-289.24262210950002
 31
0.0
  0
LINE
  5
2F4
  8
0
 62
     0
 10
-91.171479166699996
 20
-247.1638066493
 30
0.0
 11
-91.171479166699996
 21
-289.24262210950002
 31
0.0
  0
LINE
  5
2F5
  8
0
 62
     0
 10
-166.17147916670001
 20
-287.24262210950002
 30
0.0
 11
-117.0298127543
 21
-287.24262210950002
 31
0.0
  0
LINE
  5
2F6
  8
0
 62
     0
 10
-166.17147916670001
 20
-287.24262210950002
 30
0.0
 11
-140.31314557900001
 21
-287.24262210950002
 31
0.0
  0
LINE
  5
2F7
  8
0
 62
     0
 10
-91.171479166699996
 20
-287.24262210950002
 30
0.0
 11
-117.0298127543
 21
-287.24262210950002
 31
0.0
  0
LINE
  5
2F8
  8
0
 62
     0
 10
-91.171479166699996
 20
-287.24262210950002
 30
0.0
 11
-140.31314557900001
 21
-287.24262210950002
 31
0.0
  0
LINE
  5
2F9
  8
0
 62
     0
 10
-91.171479166699996
 20
-287.24262210950002
 30
0.0
 11
-96.171479166699996
 21
-287.24262210950002
 31
0.0
  0
SOLID
  5
2FA
  8
0
 62
     0
 10
-91.171479166699996
 20
-287.24262210950002
 30
0.0
 11
-100.1714791667
 21
-289.49262210950002
 31
0.0
 12
-100.1714791667
 22
-284.99262210950002
 32
0.0
 13
-97.921479166699996
 23
-287.24262210950002
 33
0.0
  0
LINE
  5
2FB
  8
0
 62
     0
 10
-166.17147916670001
 20
-287.24262210950002
 30
0.0
 11
-161.17147916670001
 21
-287.24262210950002
 31
0.0
  0
SOLID
  5
2FC
  8
0
 62
     0
 10
-166.17147916670001
 20
-287.24262210950002
 30
0.0
 11
-157.17147916670001
 21
-284.99262210950002
 31
0.0
 12
-157.17147916670001
 22
-289.49262210950002
 32
0.0
 13
-159.42147916670001
 23
-287.24262210950002
 33
0.0
  0
ENDBLK
  5
2FD
  8
0
  0
BLOCK
  8
0
  2
CLUMP44
 70
     0
 10
0.0
 20
0.0
 30
0.0
  3
CLUMP44
  1

  0
LINE
  5
303
  8
É}ÿg
 10
593.50600011510005
 20
-320.9989999009
 30
0.0
 11
593.50600011510005
 21
-305.9989999009
 31
0.0
  0
LINE
  5
304
  8
É}ÿg
 10
416.50600011509988
 20
-320.9989999009
 30
0.0
 11
416.50600011509988
 21
-305.9989999009
 31
0.0
  0
LINE
  5
305
  8
É}ÿg
 10
443.50600011509999
 20
-320.9989999009
 30
0.0
 11
443.50600011509999
 21
-305.9989999009
 31
0.0
  0
LINE
  5
306
  8
É}ÿg
 10
758.50600011509994
 20
-320.9989999009
 30
0.0
 11
758.50600011509994
 21
-305.9989999009
 31
0.0
  0
LINE
  5
307
  8
É}ÿg
 10
731.50600011509994
 20
-320.9989999009
 30
0.0
 11
731.50600011509994
 21
-305.9989999009
 31
0.0
  0
LINE
  5
308
  8
É}ÿg
 10
851.50600011509994
 20
-305.9989999009
 30
0.0
 11
416.50600011509988
 21
-305.9989999009
 31
0.0
  0
ENDBLK
  5
309
  8
0
  0
BLOCK
  8
0
  2
CLUMP45
 70
     0
 10
0.0
 20
0.0
 30
0.0
  3
CLUMP45
  1

  0
ARC
  5
316
  8
┌▓È_1
 10
-248.67147916670001
 20
-228.6638066493
 30
0.0
 40
3.5
 50
90.0
 51
270.0
  0
LINE
  5
317
  8
┌▓È_1
 10
-233.67147916670001
 20
-232.1638066493
 30
0.0
 11
-248.67147916670001
 21
-232.1638066493
 31
0.0
  0
LINE
  5
318
  8
┌▓È_1
 10
-248.67147916670001
 20
-225.1638066493
 30
0.0
 11
-233.67147916670001
 21
-225.1638066493
 31
0.0
  0
ARC
  5
319
  8
┌▓È_1
 10
-233.67147916670001
 20
-228.6638066493
 30
0.0
 40
3.5
 50
270.0
 51
90.0
  0
ENDBLK
  5
31A
  8
0
  0
BLOCK
  8
0
  2
CLUMP46
 70
     0
 10
0.0
 20
0.0
 30
0.0
  3
CLUMP46
  1

  0
ARC
  5
31E
  8
┌▓È_1
 10
-248.67147916670001
 20
-243.6638066493
 30
0.0
 40
3.5
 50
90.0
 51
270.0
  0
LINE
  5
31F
  8
┌▓È_1
 10
-233.67147916670001
 20
-247.1638066493
 30
0.0
 11
-248.67147916670001
 21
-247.1638066493
 31
0.0
  0
LINE
  5
320
  8
┌▓È_1
 10
-248.67147916670001
 20
-240.1638066493
 30
0.0
 11
-233.67147916670001
 21
-240.1638066493
 31
0.0
  0
ARC
  5
321
  8
┌▓È_1
 10
-233.67147916670001
 20
-243.6638066493
 30
0.0
 40
3.5
 50
270.0
 51
90.0
  0
ENDBLK
  5
322
  8
0
  0
BLOCK
  8
0
  2
CLUMP47
 70
     0
 10
0.0
 20
0.0
 30
0.0
  3
CLUMP47
  1

  0
ARC
  5
326
  8
┌▓È_1
 10
-248.67147916670001
 20
-150.6638066493
 30
0.0
 40
3.5
 50
90.0
 51
270.0
  0
LINE
  5
327
  8
┌▓È_1
 10
-233.67147916670001
 20
-147.1638066493
 30
0.0
 11
-248.67147916670001
 21
-147.1638066493
 31
0.0
  0
LINE
  5
328
  8
┌▓È_1
 10
-248.67147916670001
 20
-154.1638066493
 30
0.0
 11
-233.67147916670001
 21
-154.1638066493
 31
0.0
  0
ARC
  5
329
  8
┌▓È_1
 10
-233.67147916670001
 20
-150.6638066493
 30
0.0
 40
3.5
 50
270.0
 51
90.0
  0
ENDBLK
  5
32A
  8
0
  0
BLOCK
  8
0
  2
CLUMP48
 70
     0
 10
0.0
 20
0.0
 30
0.0
  3
CLUMP48
  1

  0
ARC
  5
32E
  8
┌▓È_1
 10
-248.67147916670001
 20
-165.6638066493
 30
0.0
 40
3.5
 50
90.0
 51
270.0
  0
LINE
  5
32F
  8
┌▓È_1
 10
-233.67147916670001
 20
-162.1638066493
 30
0.0
 11
-248.67147916670001
 21
-162.1638066493
 31
0.0
  0
LINE
  5
330
  8
┌▓È_1
 10
-248.67147916670001
 20
-169.1638066493
 30
0.0
 11
-233.67147916670001
 21
-169.1638066493
 31
0.0
  0
ARC
  5
331
  8
┌▓È_1
 10
-233.67147916670001
 20
-165.6638066493
 30
0.0
 40
3.5
 50
270.0
 51
90.0
  0
ENDBLK
  5
332
  8
0
  0
BLOCK
  8
0
  2
CLUMP49
 70
     0
 10
0.0
 20
0.0
 30
0.0
  3
CLUMP49
  1

  0
ARC
  5
339
  8
┌▓È_1
 10
-98.671479166699996
 20
-228.6638066493
 30
0.0
 40
3.5
 50
90.0
 51
270.0
  0
LINE
  5
33A
  8
┌▓È_1
 10
-83.671479166699996
 20
-232.1638066493
 30
0.0
 11
-98.671479166699996
 21
-232.1638066493
 31
0.0
  0
LINE
  5
33B
  8
┌▓È_1
 10
-98.671479166699996
 20
-225.1638066493
 30
0.0
 11
-83.671479166699996
 21
-225.1638066493
 31
0.0
  0
ARC
  5
33C
  8
┌▓È_1
 10
-83.671479166699996
 20
-228.6638066493
 30
0.0
 40
3.5
 50
270.0
 51
90.0
  0
ENDBLK
  5
33D
  8
0
  0
BLOCK
  8
0
  2
CLUMP50
 70
     0
 10
0.0
 20
0.0
 30
0.0
  3
CLUMP50
  1

  0
ARC
  5
345
  8
┌▓È_1
 10
-173.67147916670001
 20
-228.6638066493
 30
0.0
 40
3.5
 50
90.0
 51
270.0
  0
LINE
  5
346
  8
┌▓È_1
 10
-158.67147916670001
 20
-232.1638066493
 30
0.0
 11
-173.67147916670001
 21
-232.1638066493
 31
0.0
  0
LINE
  5
347
  8
┌▓È_1
 10
-173.67147916670001
 20
-225.1638066493
 30
0.0
 11
-158.67147916670001
 21
-225.1638066493
 31
0.0
  0
ARC
  5
348
  8
┌▓È_1
 10
-158.67147916670001
 20
-228.6638066493
 30
0.0
 40
3.5
 50
270.0
 51
90.0
  0
ENDBLK
  5
349
  8
0
  0
BLOCK
  8
0
  2
CLUMP51
 70
     0
 10
0.0
 20
0.0
 30
0.0
  3
CLUMP51
  1

  0
ARC
  5
34D
  8
┌▓È_1
 10
-173.67147916670001
 20
-243.6638066493
 30
0.0
 40
3.5
 50
90.0
 51
270.0
  0
LINE
  5
34E
  8
┌▓È_1
 10
-158.67147916670001
 20
-247.1638066493
 30
0.0
 11
-173.67147916670001
 21
-247.1638066493
 31
0.0
  0
LINE
  5
34F
  8
┌▓È_1
 10
-173.67147916670001
 20
-240.1638066493
 30
0.0
 11
-158.67147916670001
 21
-240.1638066493
 31
0.0
  0
ARC
  5
350
  8
┌▓È_1
 10
-158.67147916670001
 20
-243.6638066493
 30
0.0
 40
3.5
 50
270.0
 51
90.0
  0
ENDBLK
  5
351
  8
0
  0
BLOCK
  8
0
  2
CLUMP52
 70
     0
 10
0.0
 20
0.0
 30
0.0
  3
CLUMP52
  1

  0
ARC
  5
355
  8
┌▓È_1
 10
-98.671479166699996
 20
-243.6638066493
 30
0.0
 40
3.5
 50
90.0
 51
270.0
  0
LINE
  5
356
  8
┌▓È_1
 10
-83.671479166699996
 20
-247.1638066493
 30
0.0
 11
-98.671479166699996
 21
-247.1638066493
 31
0.0
  0
LINE
  5
357
  8
┌▓È_1
 10
-98.671479166699996
 20
-240.1638066493
 30
0.0
 11
-83.671479166699996
 21
-240.1638066493
 31
0.0
  0
ARC
  5
358
  8
┌▓È_1
 10
-83.671479166699996
 20
-243.6638066493
 30
0.0
 40
3.5
 50
270.0
 51
90.0
  0
ENDBLK
  5
359
  8
0
  0
BLOCK
  8
0
  2
CLUMP53
 70
     0
 10
0.0
 20
0.0
 30
0.0
  3
CLUMP53
  1

  0
LINE
  5
360
  8
É}ÿg
 10
593.50600011510005
 20
-305.9989999009
 30
0.0
 11
593.50600011510005
 21
-290.9989999009
 31
0.0
  0
LINE
  5
361
  8
É}ÿg
 10
416.50600011509988
 20
-305.9989999009
 30
0.0
 11
416.50600011509988
 21
-290.9989999009
 31
0.0
  0
LINE
  5
362
  8
É}ÿg
 10
443.50600011509999
 20
-305.9989999009
 30
0.0
 11
443.50600011509999
 21
-290.9989999009
 31
0.0
  0
LINE
  5
363
  8
É}ÿg
 10
758.50600011509994
 20
-305.9989999009
 30
0.0
 11
758.50600011509994
 21
-290.9989999009
 31
0.0
  0
LINE
  5
364
  8
É}ÿg
 10
731.50600011509994
 20
-305.9989999009
 30
0.0
 11
731.50600011509994
 21
-290.9989999009
 31
0.0
  0
LINE
  5
365
  8
É}ÿg
 10
851.50600011509994
 20
-290.9989999009
 30
0.0
 11
416.50600011509988
 21
-290.9989999009
 31
0.0
  0
ENDBLK
  5
366
  8
0
  0
BLOCK
  8
0
  2
CLUMP54
 70
     0
 10
0.0
 20
0.0
 30
0.0
  3
CLUMP54
  1

  0
LINE
  5
36D
  8
É}ÿg
 10
591.46975776179988
 20
-442.26898100019991
 30
0.0
 11
594.4697577618
 21
-437.76898100019991
 31
0.0
  0
LINE
  5
36E
  8
É}ÿg
 10
547.48793957999999
 20
-437.76898100019991
 30
0.0
 11
547.48793957999999
 21
-443.76898100019991
 31
0.0
  0
LINE
  5
36F
  8
É}ÿg
 10
618.66902851220004
 20
-448.26898100019991
 30
0.0
 11
628.12220570660008
 21
-448.26898100019991
 31
0.0
  0
LINE
  5
370
  8
É}ÿg
 10
567.46975776179988
 20
-458.76898100019991
 30
0.0
 11
574.96975776179988
 21
-458.76898100019991
 31
0.0
  0
LINE
  5
371
  8
É}ÿg
 10
567.46975776179988
 20
-444.73531180269998
 30
0.0
 11
579.46975776179988
 21
-444.73531180269998
 31
0.0
  0
INSERT
  5
372
  8
0
  6
CONTINUOUS
  2
*U121
 10
0.0
 20
0.0
 30
0.0
  0
LINE
  5
373
  8
É}ÿg
 62
     5
 10
641.50600011510005
 20
330.0010000991
 30
0.0
 11
641.50600011510005
 21
375.00100009910011
 31
0.0
  0
LINE
  5
374
  8
É}ÿg
 62
     5
 10
791.50600011509994
 20
330.0010000991
 30
0.0
 11
791.50600011509994
 21
375.00100009910011
 31
0.0
  0
LINE
  5
375
  8
É}ÿg
 62
     5
 10
593.50600011510005
 20
330.0010000991
 30
0.0
 11
593.50600011510005
 21
375.00100009910011
 31
0.0
  0
LINE
  5
376
  8
É}ÿg
 62
     5
 10
573.22814395699993
 20
346.29337535209999
 30
0.0
 11
588.07814395699995
 21
346.29337535209999
 31
0.0
  0
LINE
  5
377
  8
É}ÿg
 62
     5
 10
580.653143957
 20
344.30385259830001
 30
0.0
 11
588.07814395699995
 21
331.44337535210002
 31
0.0
  0
LINE
  5
378
  8
É}ÿg
 62
     5
 10
569.50600011510005
 20
330.0010000991
 30
0.0
 11
569.50600011510005
 21
375.00100009910011
 31
0.0
  0
LINE
  5
379
  8
É}ÿg
 62
     5
 10
821.50600011509982
 20
330.0010000991
 30
0.0
 11
821.50600011509982
 21
375.00100009910011
 31
0.0
  0
LINE
  5
37A
  8
É}ÿg
 62
     5
 10
569.50600011510005
 20
360.00100009910011
 30
0.0
 11
851.50600011509994
 21
360.00100009910011
 31
0.0
  0
LINE
  5
37B
  8
É}ÿg
 62
     5
 10
569.50600011510005
 20
345.0010000991
 30
0.0
 11
851.50600011509994
 21
345.0010000991
 31
0.0
  0
LINE
  5
37C
  8
É}ÿg
 62
     5
 10
569.50600011510005
 20
330.0010000991
 30
0.0
 11
851.50600011509994
 21
330.0010000991
 31
0.0
  0
INSERT
  5
37D
  8
0
  6
CONTINUOUS
  2
*U122
 10
0.0
 20
0.0
 30
0.0
  0
LINE
  5
37E
  8
É}ÿg
 62
     5
 10
-348.49399988490001
 20
-464.99899990089989
 30
0.0
 11
-348.49399988490001
 21
375.00100009910011
 31
0.0
  0
LINE
  5
37F
  8
É}ÿg
 62
     5
 10
-348.49399988490001
 20
-464.99899990089989
 30
0.0
 11
851.50600011509994
 21
-464.99899990089989
 31
0.0
  0
LINE
  5
380
  8
É}ÿg
 62
     5
 10
851.50600011509994
 20
375.00100009910011
 30
0.0
 11
-348.49399988490001
 21
375.00100009910011
 31
0.0
  0
LINE
  5
381
  8
É}ÿg
 62
     5
 10
851.50600011509994
 20
-464.99899990089989
 30
0.0
 11
851.50600011509994
 21
375.00100009910011
 31
0.0
  0
LINE
  5
382
  8
É}ÿg
 10
567.46975776179988
 20
-445.70164260510001
 30
0.0
 11
567.46975776179988
 21
-444.73531180269998
 31
0.0
  0
LINE
  5
383
  8
É}ÿg
 10
530.53462814529985
 20
-443.76898100019991
 30
0.0
 11
530.53462814529985
 21
-448.26898100019991
 31
0.0
  0
LINE
  5
384
  8
É}ÿg
 62
     5
 10
580.653143957
 20
359.15385259830009
 30
0.0
 11
588.07814395699995
 21
346.29337535209999
 31
0.0
  0
LINE
  5
385
  8
É}ÿg
 62
     5
 10
580.653143957
 20
344.30385259830001
 30
0.0
 11
573.22814395699993
 21
331.44337535210002
 31
0.0
  0
INSERT
  5
386
  8
0
  6
CONTINUOUS
  2
*U123
 10
0.0
 20
0.0
 30
0.0
  0
LINE
  5
387
  8
É}ÿg
  6
DOT
 10
-363.4339998849
 20
-477.68899990089989
 30
0.0
 11
-363.4339998849
 21
387.69100009910011
 31
0.0
  0
LINE
  5
388
  8
É}ÿg
  6
DOT
 10
866.44600011509988
 20
-477.68899990089989
 30
0.0
 11
866.44600011509988
 21
387.69100009910011
 31
0.0
  0
LINE
  5
389
  8
É}ÿg
  6
DOT
 10
-363.4339998849
 20
-477.68899990089989
 30
0.0
 11
866.44600011509988
 21
-477.68899990089989
 31
0.0
  0
LINE
  5
38A
  8
É}ÿg
 10
541.48793957999987
 20
-452.76898100019997
 30
0.0
 11
541.48793957999987
 21
-448.26898100019991
 31
0.0
  0
LINE
  5
38B
  8
É}ÿg
  6
DOT
 10
866.44600011509988
 20
387.69100009910011
 30
0.0
 11
-363.4339998849
 21
387.69100009910011
 31
0.0
  0
LINE
  5
38C
  8
É}ÿg
 10
533.98793957999987
 20
-448.26898100019991
 30
0.0
 11
533.98793957999987
 21
-452.76898100019997
 31
0.0
  0
LINE
  5
38D
  8
É}ÿg
 10
554.98793957999987
 20
-442.26898100019991
 30
0.0
 11
559.48793957999987
 21
-437.76898100019991
 31
0.0
  0
LINE
  5
38E
  8
É}ÿg
 10
610.90620570659996
 20
-450.66898100019989
 30
0.0
 11
610.20220570660001
 21
-448.26898100019991
 31
0.0
  0
LINE
  5
38F
  8
É}ÿg
 10
541.48793957999987
 20
-443.76898100019991
 30
0.0
 11
541.48793957999987
 21
-442.26898100019991
 31
0.0
  0
LINE
  5
390
  8
É}ÿg
 10
588.05791581799997
 20
-452.31637462709989
 30
0.0
 11
587.5236096386999
 21
-452.83950905969988
 31
0.0
  0
LINE
  5
391
  8
É}ÿg
 10
591.46975776179988
 20
-442.26898100019991
 30
0.0
 11
594.4697577618
 21
-437.76898100019991
 31
0.0
  0
LINE
  5
392
  8
É}ÿg
 10
628.12220570660008
 20
-450.66898100019989
 30
0.0
 11
628.12220570660008
 21
-456.06898100019993
 31
0.0
  0
LINE
  5
393
  8
É}ÿg
 10
594.4697577618
 20
-454.26898100019991
 30
0.0
 11
594.4697577618
 21
-458.76898100019991
 31
0.0
  0
LINE
  5
394
  8
É}ÿg
 10
617.11509877479989
 20
-442.86898100019999
 30
0.0
 11
628.12220570660008
 21
-442.86898100019999
 31
0.0
  0
LINE
  5
395
  8
É}ÿg
 10
617.11509877479989
 20
-442.86898100019999
 30
0.0
 11
616.67591602410005
 21
-441.34279432879998
 31
0.0
  0
LINE
  5
396
  8
É}ÿg
 10
594.4697577618
 20
-437.76898100019991
 30
0.0
 11
567.46975776179988
 21
-437.76898100019991
 31
0.0
  0
INSERT
  5
397
  8
0
  6
CONTINUOUS
  2
*U124
 10
0.0
 20
0.0
 30
0.0
  0
LINE
  5
398
  8
É}ÿg
 10
613.72220570659999
 20
-460.26898100019991
 30
0.0
 11
612.49020570660002
 21
-456.06898100019993
 31
0.0
  0
LINE
  5
399
  8
É}ÿg
 10
542.98793957999987
 20
-454.26898100019991
 30
0.0
 11
533.98793957999987
 21
-454.26898100019991
 31
0.0
  0
LINE
  5
39A
  8
É}ÿg
 10
567.46975776179988
 20
-443.16898100019989
 30
0.0
 11
582.4697577618
 21
-443.16898100019989
 31
0.0
  0
LINE
  5
39B
  8
É}ÿg
 10
608.16375265019985
 20
-378.89899990089998
 30
0.0
 11
622.56375265019994
 21
-375.2989999008999
 31
0.0
  0
CIRCLE
  5
39C
  8
É}ÿg
 10
591.70600011509987
 20
-382.4989999009
 30
0.0
 40
7.2000000000000002
  0
INSERT
  5
39D
  8
0
  6
CONTINUOUS
  2
*U125
 10
0.0
 20
0.0
 30
0.0
  0
LINE
  5
39E
  8
É}ÿg
 10
541.48793957999987
 20
-448.26898100019991
 30
0.0
 11
547.48793957999999
 21
-448.26898100019991
 31
0.0
  0
LINE
  5
39F
  8
É}ÿg
 10
601.12220570659997
 20
-448.26898100019991
 30
0.0
 11
610.20220570660001
 21
-448.26898100019991
 31
0.0
  0
LINE
  5
3A0
  8
É}ÿg
 10
559.48793957999987
 20
-443.76898100019991
 30
0.0
 11
554.98793957999987
 21
-443.76898100019991
 31
0.0
  0
LINE
  5
3A1
  8
É}ÿg
 10
554.98793957999987
 20
-443.76898100019991
 30
0.0
 11
554.98793957999987
 21
-442.26898100019991
 31
0.0
  0
LINE
  5
3A2
  8
É}ÿg
 10
601.12220570659997
 20
-442.86898100019999
 30
0.0
 11
608.61820570659995
 21
-442.86898100019999
 31
0.0
  0
LINE
  5
3A3
  8
É}ÿg
 10
616.67591602410005
 20
-441.34279432879998
 30
0.0
 11
619.12220570659997
 21
-437.76898100019991
 31
0.0
  0
LINE
  5
3A4
  8
É}ÿg
 10
567.46975776179988
 20
-458.76898100019991
 30
0.0
 11
567.46975776179988
 21
-454.26898100019991
 31
0.0
  0
LINE
  5
3A5
  8
É}ÿg
 10
641.50600011510005
 20
-365.99899990089989
 30
0.0
 11
641.50600011510005
 21
-464.99899990089989
 31
0.0
  0
INSERT
  5
3A6
  8
0
  6
CONTINUOUS
  2
*U126
 10
0.0
 20
0.0
 30
0.0
  0
INSERT
  5
3A7
  8
0
  6
CONTINUOUS
  2
*U127
 10
0.0
 20
0.0
 30
0.0
  0
INSERT
  5
3A8
  8
0
  6
CONTINUOUS
  2
*U128
 10
0.0
 20
0.0
 30
0.0
  0
LINE
  5
3A9
  8
É}ÿg
 62
     5
 10
573.22814395699993
 20
331.44337535210002
 30
0.0
 11
588.07814395699995
 21
331.44337535210002
 31
0.0
  0
LINE
  5
3AA
  8
É}ÿg
 10
530.53462814529985
 20
-448.26898100019991
 30
0.0
 11
533.53462814529985
 21
-448.26898100019991
 31
0.0
  0
ARC
  5
3AB
  8
É}ÿg
 10
574.96975776179988
 20
-442.26898100019991
 30
0.0
 40
16.5
 50
322.48761197969998
 51
0.0
  0
LINE
  5
3AC
  8
É}ÿg
 10
533.98793957999987
 20
-458.76898100019991
 30
0.0
 11
545.98793957999987
 21
-458.76898100019991
 31
0.0
  0
LINE
  5
3AD
  8
É}ÿg
 10
601.12220570659997
 20
-456.06898100019993
 30
0.0
 11
612.49020570660002
 21
-456.06898100019993
 31
0.0
  0
ARC
  5
3AE
  8
É}ÿg
 10
542.98793957999987
 20
-449.76898100019991
 30
0.0
 40
4.5
 50
270.0
 51
0.0
  0
LINE
  5
3AF
  8
É}ÿg
 10
601.12220570659997
 20
-450.66898100019989
 30
0.0
 11
601.12220570659997
 21
-456.06898100019993
 31
0.0
  0
LINE
  5
3B0
  8
É}ÿg
 10
533.98793957999987
 20
-452.76898100019997
 30
0.0
 11
541.48793957999987
 21
-452.76898100019997
 31
0.0
  0
LINE
  5
3B1
  8
É}ÿg
 10
581.07869523679994
 20
-448.32619371549998
 30
0.0
 11
580.35690781790004
 21
-449.12340879719989
 31
0.0
  0
LINE
  5
3B2
  8
É}ÿg
 10
622.12220570659997
 20
-460.26898100019991
 30
0.0
 11
613.72220570659999
 21
-460.26898100019991
 31
0.0
  0
LINE
  5
3B3
  8
É}ÿg
 10
547.48793957999999
 20
-448.26898100019991
 30
0.0
 11
547.48793957999999
 21
-449.76898100019991
 31
0.0
  0
LINE
  5
3B4
  8
É}ÿg
 10
851.50600011509994
 20
-365.99899990089989
 30
0.0
 11
416.50600011509988
 21
-365.99899990089989
 31
0.0
  0
LINE
  5
3B5
  8
É}ÿg
 10
622.56375265019994
 20
-375.2989999008999
 30
0.0
 11
622.56375265019994
 21
-389.69899990089999
 31
0.0
  0
LINE
  5
3B6
  8
É}ÿg
 62
     5
 10
580.653143957
 20
359.15385259830009
 30
0.0
 11
573.22814395699993
 21
346.29337535209999
 31
0.0
  0
LINE
  5
3B7
  8
É}ÿg
 10
559.48793957999987
 20
-437.76898100019991
 30
0.0
 11
547.48793957999999
 21
-437.76898100019991
 31
0.0
  0
LINE
  5
3B8
  8
É}ÿg
 10
554.98793957999987
 20
-449.76898100019991
 30
0.0
 11
554.98793957999987
 21
-448.26898100019991
 31
0.0
  0
LINE
  5
3B9
  8
É}ÿg
 10
601.12220570659997
 20
-442.86898100019999
 30
0.0
 11
601.12220570659997
 21
-448.26898100019991
 31
0.0
  0
LINE
  5
3BA
  8
É}ÿg
 10
547.48793957999999
 20
-443.76898100019991
 30
0.0
 11
541.48793957999987
 21
-443.76898100019991
 31
0.0
  0
LINE
  5
3BB
  8
É}ÿg
 10
545.98793957999987
 20
-437.76898100019991
 30
0.0
 11
533.98793957999987
 21
-437.76898100019991
 31
0.0
  0
LINE
  5
3BC
  8
É}ÿg
 10
541.48793957999987
 20
-442.26898100019991
 30
0.0
 11
545.98793957999987
 21
-437.76898100019991
 31
0.0
  0
LINE
  5
3BD
  8
É}ÿg
 10
533.98793957999987
 20
-437.76898100019991
 30
0.0
 11
533.98793957999987
 21
-443.76898100019991
 31
0.0
  0
LINE
  5
3BE
  8
É}ÿg
 10
620.91359368860003
 20
-456.06898100019993
 30
0.0
 11
628.12220570660008
 21
-456.06898100019993
 31
0.0
  0
LINE
  5
3BF
  8
É}ÿg
 10
608.61820570659995
 20
-442.86898100019999
 30
0.0
 11
607.12220570660008
 21
-437.76898100019991
 31
0.0
  0
LINE
  5
3C0
  8
É}ÿg
 10
601.12220570659997
 20
-450.66898100019989
 30
0.0
 11
610.90620570659996
 21
-450.66898100019989
 31
0.0
  0
LINE
  5
3C1
  8
É}ÿg
 10
619.35966395109995
 20
-450.66898100019989
 30
0.0
 11
618.66902851220004
 21
-448.26898100019991
 31
0.0
  0
ARC
  5
3C2
  8
É}ÿg
 10
571.06975776180002
 20
-442.86898100019999
 30
0.0
 40
11.4
 50
270.0
 51
298.08590481520002
  0
INSERT
  5
3C3
  8
0
  6
CONTINUOUS
  2
*U129
 10
0.0
 20
0.0
 30
0.0
  0
LINE
  5
3C4
  8
É}ÿg
 10
424.00600011509988
 20
-382.4989999009
 30
0.0
 11
484.00600011509999
 21
-382.4989999009
 31
0.0
  0
LINE
  5
3C5
  8
É}ÿg
 10
491.50600011509988
 20
-365.99899990089989
 30
0.0
 11
491.50600011509988
 21
-398.99899990089989
 31
0.0
  0
LINE
  5
3C6
  8
É}ÿg
 10
416.50600011509988
 20
-398.99899990089989
 30
0.0
 11
851.50600011509994
 21
-398.99899990089989
 31
0.0
  0
LINE
  5
3C7
  8
É}ÿg
 10
566.50600011510005
 20
-365.99899990089989
 30
0.0
 11
566.50600011510005
 21
-398.99899990089989
 31
0.0
  0
LINE
  5
3C8
  8
É}ÿg
  6
BORDER
 10
591.70600011509987
 20
-371.69899990089999
 30
0.0
 11
591.70600011509987
 21
-393.29899990090001
 31
0.0
  0
LINE
  5
3C9
  8
É}ÿg
  6
BORDER
 10
591.70600011509987
 20
-371.69899990089999
 30
0.0
 11
591.70600011509987
 21
-393.29899990090001
 31
0.0
  0
LINE
  5
3CA
  8
É}ÿg
 10
628.12220570660008
 20
-442.86898100019999
 30
0.0
 11
628.12220570660008
 21
-448.26898100019991
 31
0.0
  0
LINE
  5
3CB
  8
É}ÿg
 10
499.00600011509988
 20
-382.4989999009
 30
0.0
 11
559.00600011510005
 21
-382.4989999009
 31
0.0
  0
INSERT
  5
3CC
  8
0
  6
CONTINUOUS
  2
*U130
 10
0.0
 20
0.0
 30
0.0
  0
CIRCLE
  5
3CD
  8
É}ÿg
 10
591.70600011509987
 20
-382.4989999009
 30
0.0
 40
7.2000000000000002
  0
LINE
  5
3CE
  8
É}ÿg
 10
608.16375265019985
 20
-378.89899990089998
 30
0.0
 11
622.56375265019994
 21
-375.2989999008999
 31
0.0
  0
INSERT
  5
3CF
  8
0
  6
CONTINUOUS
  2
*U131
 10
0.0
 20
0.0
 30
0.0
  0
CIRCLE
  5
3D0
  8
É}ÿg
 10
591.70600011509987
 20
-382.4989999009
 30
0.0
 40
3.6000000000000001
  0
LINE
  5
3D1
  8
É}ÿg
 10
622.12220570659997
 20
-460.26898100019991
 30
0.0
 11
620.91359368860003
 21
-456.06898100019993
 31
0.0
  0
LINE
  5
3D2
  8
É}ÿg
 10
619.35966395109995
 20
-450.66898100019989
 30
0.0
 11
628.12220570660008
 21
-450.66898100019989
 31
0.0
  0
LINE
  5
3D3
  8
É}ÿg
 10
567.46975776179988
 20
-454.26898100019991
 30
0.0
 11
571.06975776180002
 21
-454.26898100019991
 31
0.0
  0
LINE
  5
3D4
  8
É}ÿg
 10
607.12220570660008
 20
-437.76898100019991
 30
0.0
 11
619.12220570659997
 21
-437.76898100019991
 31
0.0
  0
LINE
  5
3D5
  8
É}ÿg
 10
533.98793957999987
 20
-443.76898100019991
 30
0.0
 11
530.53462814529985
 21
-443.76898100019991
 31
0.0
  0
LINE
  5
3D6
  8
É}ÿg
 10
567.46975776179988
 20
-454.26898100019991
 30
0.0
 11
567.46975776179988
 21
-458.76898100019991
 31
0.0
  0
LINE
  5
3D7
  8
É}ÿg
 10
533.98793957999987
 20
-448.26898100019991
 30
0.0
 11
533.53462814529985
 21
-448.26898100019991
 31
0.0
  0
LINE
  5
3D8
  8
É}ÿg
 10
533.98793957999987
 20
-454.26898100019991
 30
0.0
 11
533.98793957999987
 21
-458.76898100019991
 31
0.0
  0
ARC
  5
3D9
  8
É}ÿg
 10
571.06975776180002
 20
-442.86898100019999
 30
0.0
 40
11.4
 50
331.39928138329998
 51
358.49204224580001
  0
LINE
  5
3DA
  8
É}ÿg
 10
554.98793957999987
 20
-448.26898100019991
 30
0.0
 11
559.48793957999987
 21
-448.26898100019991
 31
0.0
  0
ARC
  5
3DB
  8
É}ÿg
 10
574.96975776179988
 20
-442.26898100019991
 30
0.0
 40
16.5
 50
270.0
 51
302.54495885400001
  0
LINE
  5
3DC
  8
É}ÿg
 10
608.16375265019985
 20
-386.09899990090003
 30
0.0
 11
622.56375265019994
 21
-389.69899990089999
 31
0.0
  0
LINE
  5
3DD
  8
É}ÿg
 10
608.16375265019985
 20
-378.89899990089998
 30
0.0
 11
608.16375265019985
 21
-386.09899990090003
 31
0.0
  0
LINE
  5
3DE
  8
É}ÿg
 10
622.56375265019994
 20
-375.2989999008999
 30
0.0
 11
622.56375265019994
 21
-389.69899990089999
 31
0.0
  0
LINE
  5
3DF
  8
É}ÿg
 10
579.46975776179988
 20
-444.73531180269998
 30
0.0
 11
577.7727014868999
 21
-446.43236807749997
 31
0.0
  0
LINE
  5
3E0
  8
É}ÿg
  6
BORDER
 10
580.90600011510003
 20
-382.4989999009
 30
0.0
 11
627.10600011509996
 21
-382.4989999009
 31
0.0
  0
CIRCLE
  5
3E1
  8
É}ÿg
 10
591.70600011509987
 20
-382.4989999009
 30
0.0
 40
3.6000000000000001
  0
POLYLINE
  8
É}ÿg
  5
7A7
  66
     1
 10
0.000000
 20
0.000000
 30
0.000000
  70
     8
  0
VERTEX
  8
É}ÿg
  5
7A8
 10
587.524
 20
-452.840
 30
0.000000
  70
    32
  0
VERTEX
  8
É}ÿg
  5
7A9
 10
587.576
 20
-452.854
 30
0.000000
  70
    32
  0
VERTEX
  8
É}ÿg
  5
7AA
 10
587.629
 20
-452.869
 30
0.000000
  70
    32
  0
VERTEX
  8
É}ÿg
  5
7AB
 10
587.681
 20
-452.884
 30
0.000000
  70
    32
  0
VERTEX
  8
É}ÿg
  5
7AC
 10
587.734
 20
-452.898
 30
0.000000
  70
    32
  0
VERTEX
  8
É}ÿg
  5
7AD
 10
587.786
 20
-452.913
 30
0.000000
  70
    32
  0
VERTEX
  8
É}ÿg
  5
7AE
 10
587.839
 20
-452.927
 30
0.000000
  70
    32
  0
VERTEX
  8
É}ÿg
  5
7AF
 10
587.892
 20
-452.942
 30
0.000000
  70
    32
  0
VERTEX
  8
É}ÿg
  5
7B0
 10
587.945
 20
-452.956
 30
0.000000
  70
    32
  0
VERTEX
  8
É}ÿg
  5
7B1
 10
587.998
 20
-452.970
 30
0.000000
  70
    32
  0
VERTEX
  8
É}ÿg
  5
7B2
 10
588.050
 20
-452.984
 30
0.000000
  70
    32
  0
VERTEX
  8
É}ÿg
  5
7B3
 10
588.103
 20
-452.998
 30
0.000000
  70
    32
  0
VERTEX
  8
É}ÿg
  5
7B4
 10
588.156
 20
-453.012
 30
0.000000
  70
    32
  0
VERTEX
  8
É}ÿg
  5
7B5
 10
588.210
 20
-453.026
 30
0.000000
  70
    32
  0
VERTEX
  8
É}ÿg
  5
7B6
 10
588.263
 20
-453.040
 30
0.000000
  70
    32
  0
VERTEX
  8
É}ÿg
  5
7B7
 10
588.316
 20
-453.054
 30
0.000000
  70
    32
  0
VERTEX
  8
É}ÿg
  5
7B8
 10
588.369
 20
-453.067
 30
0.000000
  70
    32
  0
VERTEX
  8
É}ÿg
  5
7B9
 10
588.422
 20
-453.081
 30
0.000000
  70
    32
  0
VERTEX
  8
É}ÿg
  5
7BA
 10
588.476
 20
-453.095
 30
0.000000
  70
    32
  0
VERTEX
  8
É}ÿg
  5
7BB
 10
588.529
 20
-453.108
 30
0.000000
  70
    32
  0
VERTEX
  8
É}ÿg
  5
7BC
 10
588.582
 20
-453.121
 30
0.000000
  70
    32
  0
VERTEX
  8
É}ÿg
  5
7BD
 10
588.636
 20
-453.135
 30
0.000000
  70
    32
  0
VERTEX
  8
É}ÿg
  5
7BE
 10
588.689
 20
-453.148
 30
0.000000
  70
    32
  0
VERTEX
  8
É}ÿg
  5
7BF
 10
588.743
 20
-453.161
 30
0.000000
  70
    32
  0
VERTEX
  8
É}ÿg
  5
7C0
 10
588.796
 20
-453.174
 30
0.000000
  70
    32
  0
VERTEX
  8
É}ÿg
  5
7C1
 10
588.850
 20
-453.187
 30
0.000000
  70
    32
  0
VERTEX
  8
É}ÿg
  5
7C2
 10
588.904
 20
-453.200
 30
0.000000
  70
    32
  0
VERTEX
  8
É}ÿg
  5
7C3
 10
588.957
 20
-453.213
 30
0.000000
  70
    32
  0
VERTEX
  8
É}ÿg
  5
7C4
 10
589.011
 20
-453.226
 30
0.000000
  70
    32
  0
VERTEX
  8
É}ÿg
  5
7C5
 10
589.065
 20
-453.238
 30
0.000000
  70
    32
  0
VERTEX
  8
É}ÿg
  5
7C6
 10
589.119
 20
-453.251
 30
0.000000
  70
    32
  0
VERTEX
  8
É}ÿg
  5
7C7
 10
589.172
 20
-453.264
 30
0.000000
  70
    32
  0
VERTEX
  8
É}ÿg
  5
7C8
 10
589.226
 20
-453.276
 30
0.000000
  70
    32
  0
VERTEX
  8
É}ÿg
  5
7C9
 10
589.280
 20
-453.289
 30
0.000000
  70
    32
  0
VERTEX
  8
É}ÿg
  5
7CA
 10
589.334
 20
-453.301
 30
0.000000
  70
    32
  0
VERTEX
  8
É}ÿg
  5
7CB
 10
589.388
 20
-453.313
 30
0.000000
  70
    32
  0
VERTEX
  8
É}ÿg
  5
7CC
 10
589.442
 20
-453.326
 30
0.000000
  70
    32
  0
VERTEX
  8
É}ÿg
  5
7CD
 10
589.496
 20
-453.338
 30
0.000000
  70
    32
  0
VERTEX
  8
É}ÿg
  5
7CE
 10
589.551
 20
-453.350
 30
0.000000
  70
    32
  0
VERTEX
  8
É}ÿg
  5
7CF
 10
589.605
 20
-453.362
 30
0.000000
  70
    32
  0
VERTEX
  8
É}ÿg
  5
7D0
 10
589.659
 20
-453.374
 30
0.000000
  70
    32
  0
VERTEX
  8
É}ÿg
  5
7D1
 10
589.713
 20
-453.386
 30
0.000000
  70
    32
  0
VERTEX
  8
É}ÿg
  5
7D2
 10
589.768
 20
-453.398
 30
0.000000
  70
    32
  0
VERTEX
  8
É}ÿg
  5
7D3
 10
589.822
 20
-453.410
 30
0.000000
  70
    32
  0
VERTEX
  8
É}ÿg
  5
7D4
 10
589.876
 20
-453.422
 30
0.000000
  70
    32
  0
VERTEX
  8
É}ÿg
  5
7D5
 10
589.931
 20
-453.433
 30
0.000000
  70
    32
  0
VERTEX
  8
É}ÿg
  5
7D6
 10
589.985
 20
-453.445
 30
0.000000
  70
    32
  0
VERTEX
  8
É}ÿg
  5
7D7
 10
590.039
 20
-453.457
 30
0.000000
  70
    32
  0
VERTEX
  8
É}ÿg
  5
7D8
 10
590.094
 20
-453.468
 30
0.000000
  70
    32
  0
VERTEX
  8
É}ÿg
  5
7D9
 10
590.148
 20
-453.480
 30
0.000000
  70
    32
  0
VERTEX
  8
É}ÿg
  5
7DA
 10
590.203
 20
-453.491
 30
0.000000
  70
    32
  0
VERTEX
  8
É}ÿg
  5
7DB
 10
590.258
 20
-453.503
 30
0.000000
  70
    32
  0
VERTEX
  8
É}ÿg
  5
7DC
 10
590.312
 20
-453.514
 30
0.000000
  70
    32
  0
VERTEX
  8
É}ÿg
  5
7DD
 10
590.367
 20
-453.525
 30
0.000000
  70
    32
  0
VERTEX
  8
É}ÿg
  5
7DE
 10
590.422
 20
-453.537
 30
0.000000
  70
    32
  0
VERTEX
  8
É}ÿg
  5
7DF
 10
590.476
 20
-453.548
 30
0.000000
  70
    32
  0
VERTEX
  8
É}ÿg
  5
7E0
 10
590.531
 20
-453.559
 30
0.000000
  70
    32
  0
VERTEX
  8
É}ÿg
  5
7E1
 10
590.586
 20
-453.570
 30
0.000000
  70
    32
  0
VERTEX
  8
É}ÿg
  5
7E2
 10
590.641
 20
-453.581
 30
0.000000
  70
    32
  0
VERTEX
  8
É}ÿg
  5
7E3
 10
590.696
 20
-453.592
 30
0.000000
  70
    32
  0
VERTEX
  8
É}ÿg
  5
7E4
 10
590.750
 20
-453.603
 30
0.000000
  70
    32
  0
VERTEX
  8
É}ÿg
  5
7E5
 10
590.805
 20
-453.614
 30
0.000000
  70
    32
  0
VERTEX
  8
É}ÿg
  5
7E6
 10
590.860
 20
-453.625
 30
0.000000
  70
    32
  0
VERTEX
  8
É}ÿg
  5
7E7
 10
590.915
 20
-453.636
 30
0.000000
  70
    32
  0
VERTEX
  8
É}ÿg
  5
7E8
 10
590.970
 20
-453.647
 30
0.000000
  70
    32
  0
VERTEX
  8
É}ÿg
  5
7E9
 10
591.025
 20
-453.657
 30
0.000000
  70
    32
  0
VERTEX
  8
É}ÿg
  5
7EA
 10
591.080
 20
-453.668
 30
0.000000
  70
    32
  0
VERTEX
  8
É}ÿg
  5
7EB
 10
591.135
 20
-453.679
 30
0.000000
  70
    32
  0
VERTEX
  8
É}ÿg
  5
7EC
 10
591.190
 20
-453.689
 30
0.000000
  70
    32
  0
VERTEX
  8
É}ÿg
  5
7ED
 10
591.245
 20
-453.700
 30
0.000000
  70
    32
  0
VERTEX
  8
É}ÿg
  5
7EE
 10
591.301
 20
-453.711
 30
0.000000
  70
    32
  0
VERTEX
  8
É}ÿg
  5
7EF
 10
591.356
 20
-453.721
 30
0.000000
  70
    32
  0
VERTEX
  8
É}ÿg
  5
7F0
 10
591.411
 20
-453.732
 30
0.000000
  70
    32
  0
VERTEX
  8
É}ÿg
  5
7F1
 10
591.466
 20
-453.742
 30
0.000000
  70
    32
  0
VERTEX
  8
É}ÿg
  5
7F2
 10
591.521
 20
-453.752
 30
0.000000
  70
    32
  0
VERTEX
  8
É}ÿg
  5
7F3
 10
591.577
 20
-453.763
 30
0.000000
  70
    32
  0
VERTEX
  8
É}ÿg
  5
7F4
 10
591.632
 20
-453.773
 30
0.000000
  70
    32
  0
VERTEX
  8
É}ÿg
  5
7F5
 10
591.687
 20
-453.783
 30
0.000000
  70
    32
  0
VERTEX
  8
É}ÿg
  5
7F6
 10
591.742
 20
-453.794
 30
0.000000
  70
    32
  0
VERTEX
  8
É}ÿg
  5
7F7
 10
591.798
 20
-453.804
 30
0.000000
  70
    32
  0
VERTEX
  8
É}ÿg
  5
7F8
 10
591.853
 20
-453.814
 30
0.000000
  70
    32
  0
VERTEX
  8
É}ÿg
  5
7F9
 10
591.908
 20
-453.824
 30
0.000000
  70
    32
  0
VERTEX
  8
É}ÿg
  5
7FA
 10
591.964
 20
-453.834
 30
0.000000
  70
    32
  0
VERTEX
  8
É}ÿg
  5
7FB
 10
592.019
 20
-453.844
 30
0.000000
  70
    32
  0
VERTEX
  8
É}ÿg
  5
7FC
 10
592.075
 20
-453.855
 30
0.000000
  70
    32
  0
VERTEX
  8
É}ÿg
  5
7FD
 10
592.130
 20
-453.865
 30
0.000000
  70
    32
  0
VERTEX
  8
É}ÿg
  5
7FE
 10
592.186
 20
-453.875
 30
0.000000
  70
    32
  0
VERTEX
  8
É}ÿg
  5
7FF
 10
592.241
 20
-453.885
 30
0.000000
  70
    32
  0
VERTEX
  8
É}ÿg
  5
800
 10
592.297
 20
-453.895
 30
0.000000
  70
    32
  0
VERTEX
  8
É}ÿg
  5
801
 10
592.352
 20
-453.904
 30
0.000000
  70
    32
  0
VERTEX
  8
É}ÿg
  5
802
 10
592.408
 20
-453.914
 30
0.000000
  70
    32
  0
VERTEX
  8
É}ÿg
  5
803
 10
592.463
 20
-453.924
 30
0.000000
  70
    32
  0
VERTEX
  8
É}ÿg
  5
804
 10
592.519
 20
-453.934
 30
0.000000
  70
    32
  0
VERTEX
  8
É}ÿg
  5
805
 10
592.574
 20
-453.944
 30
0.000000
  70
    32
  0
VERTEX
  8
É}ÿg
  5
806
 10
592.630
 20
-453.954
 30
0.000000
  70
    32
  0
VERTEX
  8
É}ÿg
  5
807
 10
592.686
 20
-453.964
 30
0.000000
  70
    32
  0
VERTEX
  8
É}ÿg
  5
808
 10
592.741
 20
-453.973
 30
0.000000
  70
    32
  0
VERTEX
  8
É}ÿg
  5
809
 10
592.797
 20
-453.983
 30
0.000000
  70
    32
  0
VERTEX
  8
É}ÿg
  5
80A
 10
592.852
 20
-453.993
 30
0.000000
  70
    32
  0
VERTEX
  8
É}ÿg
  5
80B
 10
592.908
 20
-454.002
 30
0.000000
  70
    32
  0
VERTEX
  8
É}ÿg
  5
80C
 10
592.964
 20
-454.012
 30
0.000000
  70
    32
  0
VERTEX
  8
É}ÿg
  5
80D
 10
593.019
 20
-454.022
 30
0.000000
  70
    32
  0
VERTEX
  8
É}ÿg
  5
80E
 10
593.075
 20
-454.031
 30
0.000000
  70
    32
  0
VERTEX
  8
É}ÿg
  5
80F
 10
593.131
 20
-454.041
 30
0.000000
  70
    32
  0
VERTEX
  8
É}ÿg
  5
810
 10
593.187
 20
-454.051
 30
0.000000
  70
    32
  0
VERTEX
  8
É}ÿg
  5
811
 10
593.242
 20
-454.060
 30
0.000000
  70
    32
  0
VERTEX
  8
É}ÿg
  5
812
 10
593.298
 20
-454.070
 30
0.000000
  70
    32
  0
VERTEX
  8
É}ÿg
  5
813
 10
593.354
 20
-454.079
 30
0.000000
  70
    32
  0
VERTEX
  8
É}ÿg
  5
814
 10
593.409
 20
-454.089
 30
0.000000
  70
    32
  0
VERTEX
  8
É}ÿg
  5
815
 10
593.465
 20
-454.099
 30
0.000000
  70
    32
  0
VERTEX
  8
É}ÿg
  5
816
 10
593.521
 20
-454.108
 30
0.000000
  70
    32
  0
VERTEX
  8
É}ÿg
  5
817
 10
593.577
 20
-454.118
 30
0.000000
  70
    32
  0
VERTEX
  8
É}ÿg
  5
818
 10
593.633
 20
-454.127
 30
0.000000
  70
    32
  0
VERTEX
  8
É}ÿg
  5
819
 10
593.688
 20
-454.137
 30
0.000000
  70
    32
  0
VERTEX
  8
É}ÿg
  5
81A
 10
593.744
 20
-454.146
 30
0.000000
  70
    32
  0
VERTEX
  8
É}ÿg
  5
81B
 10
593.800
 20
-454.156
 30
0.000000
  70
    32
  0
VERTEX
  8
É}ÿg
  5
81C
 10
593.856
 20
-454.165
 30
0.000000
  70
    32
  0
VERTEX
  8
É}ÿg
  5
81D
 10
593.912
 20
-454.175
 30
0.000000
  70
    32
  0
VERTEX
  8
É}ÿg
  5
81E
 10
593.967
 20
-454.184
 30
0.000000
  70
    32
  0
VERTEX
  8
É}ÿg
  5
81F
 10
594.023
 20
-454.193
 30
0.000000
  70
    32
  0
VERTEX
  8
É}ÿg
  5
820
 10
594.079
 20
-454.203
 30
0.000000
  70
    32
  0
VERTEX
  8
É}ÿg
  5
821
 10
594.135
 20
-454.212
 30
0.000000
  70
    32
  0
VERTEX
  8
É}ÿg
  5
822
 10
594.191
 20
-454.222
 30
0.000000
  70
    32
  0
VERTEX
  8
É}ÿg
  5
823
 10
594.246
 20
-454.231
 30
0.000000
  70
    32
  0
VERTEX
  8
É}ÿg
  5
824
 10
594.302
 20
-454.241
 30
0.000000
  70
    32
  0
VERTEX
  8
É}ÿg
  5
825
 10
594.358
 20
-454.250
 30
0.000000
  70
    32
  0
VERTEX
  8
É}ÿg
  5
826
 10
594.414
 20
-454.260
 30
0.000000
  70
    32
  0
VERTEX
  8
É}ÿg
  5
827
 10
594.470
 20
-454.269
 30
0.000000
  70
    32
  0
SEQEND
  8
É}ÿg
  5
828
  0
POLYLINE
  8
É}ÿg
  5
829
  66
     1
 10
0.000000
 20
0.000000
 30
0.000000
  70
     8
  0
VERTEX
  8
É}ÿg
  5
82A
 10
577.773
 20
-446.432
 30
0.000000
  70
    32
  0
VERTEX
  8
É}ÿg
  5
82B
 10
577.792
 20
-446.454
 30
0.000000
  70
    32
  0
VERTEX
  8
É}ÿg
  5
82C
 10
577.812
 20
-446.477
 30
0.000000
  70
    32
  0
VERTEX
  8
É}ÿg
  5
82D
 10
577.832
 20
-446.499
 30
0.000000
  70
    32
  0
VERTEX
  8
É}ÿg
  5
82E
 10
577.852
 20
-446.521
 30
0.000000
  70
    32
  0
VERTEX
  8
É}ÿg
  5
82F
 10
577.872
 20
-446.543
 30
0.000000
  70
    32
  0
VERTEX
  8
É}ÿg
  5
830
 10
577.891
 20
-446.565
 30
0.000000
  70
    32
  0
VERTEX
  8
É}ÿg
  5
831
 10
577.911
 20
-446.587
 30
0.000000
  70
    32
  0
VERTEX
  8
É}ÿg
  5
832
 10
577.931
 20
-446.609
 30
0.000000
  70
    32
  0
VERTEX
  8
É}ÿg
  5
833
 10
577.951
 20
-446.631
 30
0.000000
  70
    32
  0
VERTEX
  8
É}ÿg
  5
834
 10
577.971
 20
-446.653
 30
0.000000
  70
    32
  0
VERTEX
  8
É}ÿg
  5
835
 10
577.991
 20
-446.675
 30
0.000000
  70
    32
  0
VERTEX
  8
É}ÿg
  5
836
 10
578.010
 20
-446.697
 30
0.000000
  70
    32
  0
VERTEX
  8
É}ÿg
  5
837
 10
578.030
 20
-446.719
 30
0.000000
  70
    32
  0
VERTEX
  8
É}ÿg
  5
838
 10
578.050
 20
-446.741
 30
0.000000
  70
    32
  0
VERTEX
  8
É}ÿg
  5
839
 10
578.070
 20
-446.763
 30
0.000000
  70
    32
  0
VERTEX
  8
É}ÿg
  5
83A
 10
578.090
 20
-446.785
 30
0.000000
  70
    32
  0
VERTEX
  8
É}ÿg
  5
83B
 10
578.109
 20
-446.807
 30
0.000000
  70
    32
  0
VERTEX
  8
É}ÿg
  5
83C
 10
578.129
 20
-446.829
 30
0.000000
  70
    32
  0
VERTEX
  8
É}ÿg
  5
83D
 10
578.149
 20
-446.851
 30
0.000000
  70
    32
  0
VERTEX
  8
É}ÿg
  5
83E
 10
578.169
 20
-446.873
 30
0.000000
  70
    32
  0
VERTEX
  8
É}ÿg
  5
83F
 10
578.189
 20
-446.895
 30
0.000000
  70
    32
  0
VERTEX
  8
É}ÿg
  5
840
 10
578.209
 20
-446.917
 30
0.000000
  70
    32
  0
VERTEX
  8
É}ÿg
  5
841
 10
578.228
 20
-446.939
 30
0.000000
  70
    32
  0
VERTEX
  8
É}ÿg
  5
842
 10
578.248
 20
-446.961
 30
0.000000
  70
    32
  0
VERTEX
  8
É}ÿg
  5
843
 10
578.268
 20
-446.983
 30
0.000000
  70
    32
  0
VERTEX
  8
É}ÿg
  5
844
 10
578.288
 20
-447.005
 30
0.000000
  70
    32
  0
VERTEX
  8
É}ÿg
  5
845
 10
578.308
 20
-447.027
 30
0.000000
  70
    32
  0
VERTEX
  8
É}ÿg
  5
846
 10
578.328
 20
-447.049
 30
0.000000
  70
    32
  0
VERTEX
  8
É}ÿg
  5
847
 10
578.348
 20
-447.071
 30
0.000000
  70
    32
  0
VERTEX
  8
É}ÿg
  5
848
 10
578.368
 20
-447.093
 30
0.000000
  70
    32
  0
VERTEX
  8
É}ÿg
  5
849
 10
578.387
 20
-447.115
 30
0.000000
  70
    32
  0
VERTEX
  8
É}ÿg
  5
84A
 10
578.407
 20
-447.137
 30
0.000000
  70
    32
  0
VERTEX
  8
É}ÿg
  5
84B
 10
578.427
 20
-447.159
 30
0.000000
  70
    32
  0
VERTEX
  8
É}ÿg
  5
84C
 10
578.447
 20
-447.181
 30
0.000000
  70
    32
  0
VERTEX
  8
É}ÿg
  5
84D
 10
578.467
 20
-447.203
 30
0.000000
  70
    32
  0
VERTEX
  8
É}ÿg
  5
84E
 10
578.487
 20
-447.225
 30
0.000000
  70
    32
  0
VERTEX
  8
É}ÿg
  5
84F
 10
578.507
 20
-447.246
 30
0.000000
  70
    32
  0
VERTEX
  8
É}ÿg
  5
850
 10
578.527
 20
-447.268
 30
0.000000
  70
    32
  0
VERTEX
  8
É}ÿg
  5
851
 10
578.547
 20
-447.290
 30
0.000000
  70
    32
  0
VERTEX
  8
É}ÿg
  5
852
 10
578.567
 20
-447.312
 30
0.000000
  70
    32
  0
VERTEX
  8
É}ÿg
  5
853
 10
578.587
 20
-447.334
 30
0.000000
  70
    32
  0
VERTEX
  8
É}ÿg
  5
854
 10
578.607
 20
-447.355
 30
0.000000
  70
    32
  0
VERTEX
  8
É}ÿg
  5
855
 10
578.627
 20
-447.377
 30
0.000000
  70
    32
  0
VERTEX
  8
É}ÿg
  5
856
 10
578.647
 20
-447.399
 30
0.000000
  70
    32
  0
VERTEX
  8
É}ÿg
  5
857
 10
578.667
 20
-447.421
 30
0.000000
  70
    32
  0
VERTEX
  8
É}ÿg
  5
858
 10
578.687
 20
-447.442
 30
0.000000
  70
    32
  0
VERTEX
  8
É}ÿg
  5
859
 10
578.707
 20
-447.464
 30
0.000000
  70
    32
  0
VERTEX
  8
É}ÿg
  5
85A
 10
578.727
 20
-447.486
 30
0.000000
  70
    32
  0
VERTEX
  8
É}ÿg
  5
85B
 10
578.747
 20
-447.508
 30
0.000000
  70
    32
  0
VERTEX
  8
É}ÿg
  5
85C
 10
578.767
 20
-447.529
 30
0.000000
  70
    32
  0
VERTEX
  8
É}ÿg
  5
85D
 10
578.787
 20
-447.551
 30
0.000000
  70
    32
  0
VERTEX
  8
É}ÿg
  5
85E
 10
578.807
 20
-447.573
 30
0.000000
  70
    32
  0
VERTEX
  8
É}ÿg
  5
85F
 10
578.827
 20
-447.594
 30
0.000000
  70
    32
  0
VERTEX
  8
É}ÿg
  5
860
 10
578.847
 20
-447.616
 30
0.000000
  70
    32
  0
VERTEX
  8
É}ÿg
  5
861
 10
578.867
 20
-447.637
 30
0.000000
  70
    32
  0
VERTEX
  8
É}ÿg
  5
862
 10
578.887
 20
-447.659
 30
0.000000
  70
    32
  0
VERTEX
  8
É}ÿg
  5
863
 10
578.908
 20
-447.680
 30
0.000000
  70
    32
  0
VERTEX
  8
É}ÿg
  5
864
 10
578.928
 20
-447.702
 30
0.000000
  70
    32
  0
VERTEX
  8
É}ÿg
  5
865
 10
578.948
 20
-447.724
 30
0.000000
  70
    32
  0
VERTEX
  8
É}ÿg
  5
866
 10
578.968
 20
-447.745
 30
0.000000
  70
    32
  0
VERTEX
  8
É}ÿg
  5
867
 10
578.988
 20
-447.766
 30
0.000000
  70
    32
  0
VERTEX
  8
É}ÿg
  5
868
 10
579.008
 20
-447.788
 30
0.000000
  70
    32
  0
VERTEX
  8
É}ÿg
  5
869
 10
579.029
 20
-447.809
 30
0.000000
  70
    32
  0
VERTEX
  8
É}ÿg
  5
86A
 10
579.049
 20
-447.831
 30
0.000000
  70
    32
  0
VERTEX
  8
É}ÿg
  5
86B
 10
579.069
 20
-447.852
 30
0.000000
  70
    32
  0
VERTEX
  8
É}ÿg
  5
86C
 10
579.089
 20
-447.874
 30
0.000000
  70
    32
  0
VERTEX
  8
É}ÿg
  5
86D
 10
579.109
 20
-447.895
 30
0.000000
  70
    32
  0
VERTEX
  8
É}ÿg
  5
86E
 10
579.130
 20
-447.916
 30
0.000000
  70
    32
  0
VERTEX
  8
É}ÿg
  5
86F
 10
579.150
 20
-447.937
 30
0.000000
  70
    32
  0
VERTEX
  8
É}ÿg
  5
870
 10
579.170
 20
-447.959
 30
0.000000
  70
    32
  0
VERTEX
  8
É}ÿg
  5
871
 10
579.191
 20
-447.980
 30
0.000000
  70
    32
  0
VERTEX
  8
É}ÿg
  5
872
 10
579.211
 20
-448.001
 30
0.000000
  70
    32
  0
VERTEX
  8
É}ÿg
  5
873
 10
579.231
 20
-448.022
 30
0.000000
  70
    32
  0
VERTEX
  8
É}ÿg
  5
874
 10
579.252
 20
-448.044
 30
0.000000
  70
    32
  0
VERTEX
  8
É}ÿg
  5
875
 10
579.272
 20
-448.065
 30
0.000000
  70
    32
  0
VERTEX
  8
É}ÿg
  5
876
 10
579.292
 20
-448.086
 30
0.000000
  70
    32
  0
VERTEX
  8
É}ÿg
  5
877
 10
579.313
 20
-448.107
 30
0.000000
  70
    32
  0
VERTEX
  8
É}ÿg
  5
878
 10
579.333
 20
-448.128
 30
0.000000
  70
    32
  0
VERTEX
  8
É}ÿg
  5
879
 10
579.354
 20
-448.149
 30
0.000000
  70
    32
  0
VERTEX
  8
É}ÿg
  5
87A
 10
579.374
 20
-448.170
 30
0.000000
  70
    32
  0
VERTEX
  8
É}ÿg
  5
87B
 10
579.394
 20
-448.191
 30
0.000000
  70
    32
  0
VERTEX
  8
É}ÿg
  5
87C
 10
579.415
 20
-448.212
 30
0.000000
  70
    32
  0
VERTEX
  8
É}ÿg
  5
87D
 10
579.435
 20
-448.233
 30
0.000000
  70
    32
  0
VERTEX
  8
É}ÿg
  5
87E
 10
579.456
 20
-448.254
 30
0.000000
  70
    32
  0
VERTEX
  8
É}ÿg
  5
87F
 10
579.476
 20
-448.275
 30
0.000000
  70
    32
  0
VERTEX
  8
É}ÿg
  5
880
 10
579.497
 20
-448.296
 30
0.000000
  70
    32
  0
VERTEX
  8
É}ÿg
  5
881
 10
579.518
 20
-448.317
 30
0.000000
  70
    32
  0
VERTEX
  8
É}ÿg
  5
882
 10
579.538
 20
-448.338
 30
0.000000
  70
    32
  0
VERTEX
  8
É}ÿg
  5
883
 10
579.559
 20
-448.358
 30
0.000000
  70
    32
  0
VERTEX
  8
É}ÿg
  5
884
 10
579.579
 20
-448.379
 30
0.000000
  70
    32
  0
VERTEX
  8
É}ÿg
  5
885
 10
579.600
 20
-448.400
 30
0.000000
  70
    32
  0
VERTEX
  8
É}ÿg
  5
886
 10
579.621
 20
-448.420
 30
0.000000
  70
    32
  0
VERTEX
  8
É}ÿg
  5
887
 10
579.641
 20
-448.441
 30
0.000000
  70
    32
  0
VERTEX
  8
É}ÿg
  5
888
 10
579.662
 20
-448.462
 30
0.000000
  70
    32
  0
VERTEX
  8
É}ÿg
  5
889
 10
579.683
 20
-448.482
 30
0.000000
  70
    32
  0
VERTEX
  8
É}ÿg
  5
88A
 10
579.703
 20
-448.503
 30
0.000000
  70
    32
  0
VERTEX
  8
É}ÿg
  5
88B
 10
579.724
 20
-448.524
 30
0.000000
  70
    32
  0
VERTEX
  8
É}ÿg
  5
88C
 10
579.745
 20
-448.544
 30
0.000000
  70
    32
  0
VERTEX
  8
É}ÿg
  5
88D
 10
579.766
 20
-448.565
 30
0.000000
  70
    32
  0
VERTEX
  8
É}ÿg
  5
88E
 10
579.787
 20
-448.585
 30
0.000000
  70
    32
  0
VERTEX
  8
É}ÿg
  5
88F
 10
579.807
 20
-448.605
 30
0.000000
  70
    32
  0
VERTEX
  8
É}ÿg
  5
890
 10
579.828
 20
-448.626
 30
0.000000
  70
    32
  0
VERTEX
  8
É}ÿg
  5
891
 10
579.849
 20
-448.646
 30
0.000000
  70
    32
  0
VERTEX
  8
É}ÿg
  5
892
 10
579.870
 20
-448.666
 30
0.000000
  70
    32
  0
VERTEX
  8
É}ÿg
  5
893
 10
579.891
 20
-448.687
 30
0.000000
  70
    32
  0
VERTEX
  8
É}ÿg
  5
894
 10
579.912
 20
-448.707
 30
0.000000
  70
    32
  0
VERTEX
  8
É}ÿg
  5
895
 10
579.933
 20
-448.727
 30
0.000000
  70
    32
  0
VERTEX
  8
É}ÿg
  5
896
 10
579.954
 20
-448.747
 30
0.000000
  70
    32
  0
VERTEX
  8
É}ÿg
  5
897
 10
579.975
 20
-448.767
 30
0.000000
  70
    32
  0
VERTEX
  8
É}ÿg
  5
898
 10
579.996
 20
-448.788
 30
0.000000
  70
    32
  0
VERTEX
  8
É}ÿg
  5
899
 10
580.017
 20
-448.808
 30
0.000000
  70
    32
  0
VERTEX
  8
É}ÿg
  5
89A
 10
580.038
 20
-448.828
 30
0.000000
  70
    32
  0
VERTEX
  8
É}ÿg
  5
89B
 10
580.059
 20
-448.848
 30
0.000000
  70
    32
  0
VERTEX
  8
É}ÿg
  5
89C
 10
580.080
 20
-448.868
 30
0.000000
  70
    32
  0
VERTEX
  8
É}ÿg
  5
89D
 10
580.101
 20
-448.887
 30
0.000000
  70
    32
  0
VERTEX
  8
É}ÿg
  5
89E
 10
580.123
 20
-448.907
 30
0.000000
  70
    32
  0
VERTEX
  8
É}ÿg
  5
89F
 10
580.144
 20
-448.927
 30
0.000000
  70
    32
  0
VERTEX
  8
É}ÿg
  5
8A0
 10
580.165
 20
-448.947
 30
0.000000
  70
    32
  0
VERTEX
  8
É}ÿg
  5
8A1
 10
580.186
 20
-448.967
 30
0.000000
  70
    32
  0
VERTEX
  8
É}ÿg
  5
8A2
 10
580.207
 20
-448.986
 30
0.000000
  70
    32
  0
VERTEX
  8
É}ÿg
  5
8A3
 10
580.229
 20
-449.006
 30
0.000000
  70
    32
  0
VERTEX
  8
É}ÿg
  5
8A4
 10
580.250
 20
-449.026
 30
0.000000
  70
    32
  0
VERTEX
  8
É}ÿg
  5
8A5
 10
580.271
 20
-449.045
 30
0.000000
  70
    32
  0
VERTEX
  8
É}ÿg
  5
8A6
 10
580.293
 20
-449.065
 30
0.000000
  70
    32
  0
VERTEX
  8
É}ÿg
  5
8A7
 10
580.314
 20
-449.084
 30
0.000000
  70
    32
  0
VERTEX
  8
É}ÿg
  5
8A8
 10
580.335
 20
-449.104
 30
0.000000
  70
    32
  0
VERTEX
  8
É}ÿg
  5
8A9
 10
580.357
 20
-449.123
 30
0.000000
  70
    32
  0
SEQEND
  8
É}ÿg
  5
8AA
  0
POLYLINE
  8
É}ÿg
  5
8AB
  66
     1
 10
0.000000
 20
0.000000
 30
0.000000
  70
     8
  0
VERTEX
  8
É}ÿg
  5
8AC
 10
583.846
 20
-456.178
 30
0.000000
  70
    32
  0
VERTEX
  8
É}ÿg
  5
8AD
 10
583.927
 20
-456.204
 30
0.000000
  70
    32
  0
VERTEX
  8
É}ÿg
  5
8AE
 10
584.008
 20
-456.229
 30
0.000000
  70
    32
  0
VERTEX
  8
É}ÿg
  5
8AF
 10
584.089
 20
-456.255
 30
0.000000
  70
    32
  0
VERTEX
  8
É}ÿg
  5
8B0
 10
584.170
 20
-456.280
 30
0.000000
  70
    32
  0
VERTEX
  8
É}ÿg
  5
8B1
 10
584.251
 20
-456.305
 30
0.000000
  70
    32
  0
VERTEX
  8
É}ÿg
  5
8B2
 10
584.332
 20
-456.331
 30
0.000000
  70
    32
  0
VERTEX
  8
É}ÿg
  5
8B3
 10
584.413
 20
-456.356
 30
0.000000
  70
    32
  0
VERTEX
  8
É}ÿg
  5
8B4
 10
584.494
 20
-456.380
 30
0.000000
  70
    32
  0
VERTEX
  8
É}ÿg
  5
8B5
 10
584.575
 20
-456.405
 30
0.000000
  70
    32
  0
VERTEX
  8
É}ÿg
  5
8B6
 10
584.657
 20
-456.430
 30
0.000000
  70
    32
  0
VERTEX
  8
É}ÿg
  5
8B7
 10
584.738
 20
-456.454
 30
0.000000
  70
    32
  0
VERTEX
  8
É}ÿg
  5
8B8
 10
584.820
 20
-456.479
 30
0.000000
  70
    32
  0
VERTEX
  8
É}ÿg
  5
8B9
 10
584.901
 20
-456.503
 30
0.000000
  70
    32
  0
VERTEX
  8
É}ÿg
  5
8BA
 10
584.983
 20
-456.527
 30
0.000000
  70
    32
  0
VERTEX
  8
É}ÿg
  5
8BB
 10
585.064
 20
-456.551
 30
0.000000
  70
    32
  0
VERTEX
  8
É}ÿg
  5
8BC
 10
585.146
 20
-456.575
 30
0.000000
  70
    32
  0
VERTEX
  8
É}ÿg
  5
8BD
 10
585.228
 20
-456.599
 30
0.000000
  70
    32
  0
VERTEX
  8
É}ÿg
  5
8BE
 10
585.310
 20
-456.623
 30
0.000000
  70
    32
  0
VERTEX
  8
É}ÿg
  5
8BF
 10
585.392
 20
-456.647
 30
0.000000
  70
    32
  0
VERTEX
  8
É}ÿg
  5
8C0
 10
585.474
 20
-456.670
 30
0.000000
  70
    32
  0
VERTEX
  8
É}ÿg
  5
8C1
 10
585.556
 20
-456.693
 30
0.000000
  70
    32
  0
VERTEX
  8
É}ÿg
  5
8C2
 10
585.638
 20
-456.717
 30
0.000000
  70
    32
  0
VERTEX
  8
É}ÿg
  5
8C3
 10
585.720
 20
-456.740
 30
0.000000
  70
    32
  0
VERTEX
  8
É}ÿg
  5
8C4
 10
585.802
 20
-456.763
 30
0.000000
  70
    32
  0
VERTEX
  8
É}ÿg
  5
8C5
 10
585.884
 20
-456.786
 30
0.000000
  70
    32
  0
VERTEX
  8
É}ÿg
  5
8C6
 10
585.967
 20
-456.809
 30
0.000000
  70
    32
  0
VERTEX
  8
É}ÿg
  5
8C7
 10
586.049
 20
-456.832
 30
0.000000
  70
    32
  0
VERTEX
  8
É}ÿg
  5
8C8
 10
586.131
 20
-456.854
 30
0.000000
  70
    32
  0
VERTEX
  8
É}ÿg
  5
8C9
 10
586.214
 20
-456.877
 30
0.000000
  70
    32
  0
VERTEX
  8
É}ÿg
  5
8CA
 10
586.296
 20
-456.899
 30
0.000000
  70
    32
  0
VERTEX
  8
É}ÿg
  5
8CB
 10
586.379
 20
-456.922
 30
0.000000
  70
    32
  0
VERTEX
  8
É}ÿg
  5
8CC
 10
586.462
 20
-456.944
 30
0.000000
  70
    32
  0
VERTEX
  8
É}ÿg
  5
8CD
 10
586.544
 20
-456.966
 30
0.000000
  70
    32
  0
VERTEX
  8
É}ÿg
  5
8CE
 10
586.627
 20
-456.988
 30
0.000000
  70
    32
  0
VERTEX
  8
É}ÿg
  5
8CF
 10
586.710
 20
-457.010
 30
0.000000
  70
    32
  0
VERTEX
  8
É}ÿg
  5
8D0
 10
586.793
 20
-457.032
 30
0.000000
  70
    32
  0
VERTEX
  8
É}ÿg
  5
8D1
 10
586.876
 20
-457.054
 30
0.000000
  70
    32
  0
VERTEX
  8
É}ÿg
  5
8D2
 10
586.959
 20
-457.076
 30
0.000000
  70
    32
  0
VERTEX
  8
É}ÿg
  5
8D3
 10
587.042
 20
-457.097
 30
0.000000
  70
    32
  0
VERTEX
  8
É}ÿg
  5
8D4
 10
587.125
 20
-457.119
 30
0.000000
  70
    32
  0
VERTEX
  8
É}ÿg
  5
8D5
 10
587.208
 20
-457.140
 30
0.000000
  70
    32
  0
VERTEX
  8
É}ÿg
  5
8D6
 10
587.291
 20
-457.162
 30
0.000000
  70
    32
  0
VERTEX
  8
É}ÿg
  5
8D7
 10
587.374
 20
-457.183
 30
0.000000
  70
    32
  0
VERTEX
  8
É}ÿg
  5
8D8
 10
587.457
 20
-457.204
 30
0.000000
  70
    32
  0
VERTEX
  8
É}ÿg
  5
8D9
 10
587.540
 20
-457.225
 30
0.000000
  70
    32
  0
VERTEX
  8
É}ÿg
  5
8DA
 10
587.624
 20
-457.247
 30
0.000000
  70
    32
  0
VERTEX
  8
É}ÿg
  5
8DB
 10
587.707
 20
-457.267
 30
0.000000
  70
    32
  0
VERTEX
  8
É}ÿg
  5
8DC
 10
587.790
 20
-457.288
 30
0.000000
  70
    32
  0
VERTEX
  8
É}ÿg
  5
8DD
 10
587.874
 20
-457.309
 30
0.000000
  70
    32
  0
VERTEX
  8
É}ÿg
  5
8DE
 10
587.957
 20
-457.330
 30
0.000000
  70
    32
  0
VERTEX
  8
É}ÿg
  5
8DF
 10
588.041
 20
-457.351
 30
0.000000
  70
    32
  0
VERTEX
  8
É}ÿg
  5
8E0
 10
588.124
 20
-457.371
 30
0.000000
  70
    32
  0
VERTEX
  8
É}ÿg
  5
8E1
 10
588.208
 20
-457.392
 30
0.000000
  70
    32
  0
VERTEX
  8
É}ÿg
  5
8E2
 10
588.292
 20
-457.412
 30
0.000000
  70
    32
  0
VERTEX
  8
É}ÿg
  5
8E3
 10
588.375
 20
-457.432
 30
0.000000
  70
    32
  0
VERTEX
  8
É}ÿg
  5
8E4
 10
588.459
 20
-457.453
 30
0.000000
  70
    32
  0
VERTEX
  8
É}ÿg
  5
8E5
 10
588.543
 20
-457.473
 30
0.000000
  70
    32
  0
VERTEX
  8
É}ÿg
  5
8E6
 10
588.627
 20
-457.493
 30
0.000000
  70
    32
  0
VERTEX
  8
É}ÿg
  5
8E7
 10
588.710
 20
-457.513
 30
0.000000
  70
    32
  0
VERTEX
  8
É}ÿg
  5
8E8
 10
588.794
 20
-457.533
 30
0.000000
  70
    32
  0
VERTEX
  8
É}ÿg
  5
8E9
 10
588.878
 20
-457.553
 30
0.000000
  70
    32
  0
VERTEX
  8
É}ÿg
  5
8EA
 10
588.962
 20
-457.573
 30
0.000000
  70
    32
  0
VERTEX
  8
É}ÿg
  5
8EB
 10
589.046
 20
-457.593
 30
0.000000
  70
    32
  0
VERTEX
  8
É}ÿg
  5
8EC
 10
589.130
 20
-457.612
 30
0.000000
  70
    32
  0
VERTEX
  8
É}ÿg
  5
8ED
 10
589.214
 20
-457.632
 30
0.000000
  70
    32
  0
VERTEX
  8
É}ÿg
  5
8EE
 10
589.298
 20
-457.652
 30
0.000000
  70
    32
  0
VERTEX
  8
É}ÿg
  5
8EF
 10
589.382
 20
-457.671
 30
0.000000
  70
    32
  0
VERTEX
  8
É}ÿg
  5
8F0
 10
589.467
 20
-457.691
 30
0.000000
  70
    32
  0
VERTEX
  8
É}ÿg
  5
8F1
 10
589.551
 20
-457.710
 30
0.000000
  70
    32
  0
VERTEX
  8
É}ÿg
  5
8F2
 10
589.635
 20
-457.729
 30
0.000000
  70
    32
  0
VERTEX
  8
É}ÿg
  5
8F3
 10
589.719
 20
-457.749
 30
0.000000
  70
    32
  0
VERTEX
  8
É}ÿg
  5
8F4
 10
589.804
 20
-457.768
 30
0.000000
  70
    32
  0
VERTEX
  8
É}ÿg
  5
8F5
 10
589.888
 20
-457.787
 30
0.000000
  70
    32
  0
VERTEX
  8
É}ÿg
  5
8F6
 10
589.972
 20
-457.806
 30
0.000000
  70
    32
  0
VERTEX
  8
É}ÿg
  5
8F7
 10
590.057
 20
-457.825
 30
0.000000
  70
    32
  0
VERTEX
  8
É}ÿg
  5
8F8
 10
590.141
 20
-457.844
 30
0.000000
  70
    32
  0
VERTEX
  8
É}ÿg
  5
8F9
 10
590.225
 20
-457.863
 30
0.000000
  70
    32
  0
VERTEX
  8
É}ÿg
  5
8FA
 10
590.310
 20
-457.882
 30
0.000000
  70
    32
  0
VERTEX
  8
É}ÿg
  5
8FB
 10
590.394
 20
-457.901
 30
0.000000
  70
    32
  0
VERTEX
  8
É}ÿg
  5
8FC
 10
590.479
 20
-457.920
 30
0.000000
  70
    32
  0
VERTEX
  8
É}ÿg
  5
8FD
 10
590.563
 20
-457.939
 30
0.000000
  70
    32
  0
VERTEX
  8
É}ÿg
  5
8FE
 10
590.648
 20
-457.957
 30
0.000000
  70
    32
  0
VERTEX
  8
É}ÿg
  5
8FF
 10
590.732
 20
-457.976
 30
0.000000
  70
    32
  0
VERTEX
  8
É}ÿg
  5
900
 10
590.817
 20
-457.995
 30
0.000000
  70
    32
  0
VERTEX
  8
É}ÿg
  5
901
 10
590.902
 20
-458.013
 30
0.000000
  70
    32
  0
VERTEX
  8
É}ÿg
  5
902
 10
590.986
 20
-458.032
 30
0.000000
  70
    32
  0
VERTEX
  8
É}ÿg
  5
903
 10
591.071
 20
-458.050
 30
0.000000
  70
    32
  0
VERTEX
  8
É}ÿg
  5
904
 10
591.156
 20
-458.069
 30
0.000000
  70
    32
  0
VERTEX
  8
É}ÿg
  5
905
 10
591.240
 20
-458.087
 30
0.000000
  70
    32
  0
VERTEX
  8
É}ÿg
  5
906
 10
591.325
 20
-458.106
 30
0.000000
  70
    32
  0
VERTEX
  8
É}ÿg
  5
907
 10
591.410
 20
-458.124
 30
0.000000
  70
    32
  0
VERTEX
  8
É}ÿg
  5
908
 10
591.495
 20
-458.142
 30
0.000000
  70
    32
  0
VERTEX
  8
É}ÿg
  5
909
 10
591.579
 20
-458.161
 30
0.000000
  70
    32
  0
VERTEX
  8
É}ÿg
  5
90A
 10
591.664
 20
-458.179
 30
0.000000
  70
    32
  0
VERTEX
  8
É}ÿg
  5
90B
 10
591.749
 20
-458.197
 30
0.000000
  70
    32
  0
VERTEX
  8
É}ÿg
  5
90C
 10
591.834
 20
-458.215
 30
0.000000
  70
    32
  0
VERTEX
  8
É}ÿg
  5
90D
 10
591.919
 20
-458.234
 30
0.000000
  70
    32
  0
VERTEX
  8
É}ÿg
  5
90E
 10
592.004
 20
-458.252
 30
0.000000
  70
    32
  0
VERTEX
  8
É}ÿg
  5
90F
 10
592.089
 20
-458.270
 30
0.000000
  70
    32
  0
VERTEX
  8
É}ÿg
  5
910
 10
592.173
 20
-458.288
 30
0.000000
  70
    32
  0
VERTEX
  8
É}ÿg
  5
911
 10
592.258
 20
-458.306
 30
0.000000
  70
    32
  0
VERTEX
  8
É}ÿg
  5
912
 10
592.343
 20
-458.324
 30
0.000000
  70
    32
  0
VERTEX
  8
É}ÿg
  5
913
 10
592.428
 20
-458.342
 30
0.000000
  70
    32
  0
VERTEX
  8
É}ÿg
  5
914
 10
592.513
 20
-458.360
 30
0.000000
  70
    32
  0
VERTEX
  8
É}ÿg
  5
915
 10
592.598
 20
-458.378
 30
0.000000
  70
    32
  0
VERTEX
  8
É}ÿg
  5
916
 10
592.683
 20
-458.396
 30
0.000000
  70
    32
  0
VERTEX
  8
É}ÿg
  5
917
 10
592.768
 20
-458.414
 30
0.000000
  70
    32
  0
VERTEX
  8
É}ÿg
  5
918
 10
592.853
 20
-458.432
 30
0.000000
  70
    32
  0
VERTEX
  8
É}ÿg
  5
919
 10
592.938
 20
-458.450
 30
0.000000
  70
    32
  0
VERTEX
  8
É}ÿg
  5
91A
 10
593.023
 20
-458.467
 30
0.000000
  70
    32
  0
VERTEX
  8
É}ÿg
  5
91B
 10
593.108
 20
-458.485
 30
0.000000
  70
    32
  0
VERTEX
  8
É}ÿg
  5
91C
 10
593.193
 20
-458.503
 30
0.000000
  70
    32
  0
VERTEX
  8
É}ÿg
  5
91D
 10
593.278
 20
-458.521
 30
0.000000
  70
    32
  0
VERTEX
  8
É}ÿg
  5
91E
 10
593.363
 20
-458.539
 30
0.000000
  70
    32
  0
VERTEX
  8
É}ÿg
  5
91F
 10
593.449
 20
-458.556
 30
0.000000
  70
    32
  0
VERTEX
  8
É}ÿg
  5
920
 10
593.534
 20
-458.574
 30
0.000000
  70
    32
  0
VERTEX
  8
É}ÿg
  5
921
 10
593.619
 20
-458.592
 30
0.000000
  70
    32
  0
VERTEX
  8
É}ÿg
  5
922
 10
593.704
 20
-458.610
 30
0.000000
  70
    32
  0
VERTEX
  8
É}ÿg
  5
923
 10
593.789
 20
-458.627
 30
0.000000
  70
    32
  0
VERTEX
  8
É}ÿg
  5
924
 10
593.874
 20
-458.645
 30
0.000000
  70
    32
  0
VERTEX
  8
É}ÿg
  5
925
 10
593.959
 20
-458.663
 30
0.000000
  70
    32
  0
VERTEX
  8
É}ÿg
  5
926
 10
594.044
 20
-458.680
 30
0.000000
  70
    32
  0
VERTEX
  8
É}ÿg
  5
927
 10
594.129
 20
-458.698
 30
0.000000
  70
    32
  0
VERTEX
  8
É}ÿg
  5
928
 10
594.214
 20
-458.716
 30
0.000000
  70
    32
  0
VERTEX
  8
É}ÿg
  5
929
 10
594.300
 20
-458.734
 30
0.000000
  70
    32
  0
VERTEX
  8
É}ÿg
  5
92A
 10
594.385
 20
-458.751
 30
0.000000
  70
    32
  0
VERTEX
  8
É}ÿg
  5
92B
 10
594.470
 20
-458.769
 30
0.000000
  70
    32
  0
SEQEND
  8
É}ÿg
  5
92C
  0
POLYLINE
  8
É}ÿg
  5
92D
  66
     1
 10
0.000000
 20
0.000000
 30
0.000000
  70
     8
  0
VERTEX
  8
É}ÿg
  5
92E
 10
567.470
 20
-445.702
 30
0.000000
  70
    32
  0
VERTEX
  8
É}ÿg
  5
92F
 10
567.524
 20
-445.751
 30
0.000000
  70
    32
  0
VERTEX
  8
É}ÿg
  5
930
 10
567.578
 20
-445.801
 30
0.000000
  70
    32
  0
VERTEX
  8
É}ÿg
  5
931
 10
567.632
 20
-445.851
 30
0.000000
  70
    32
  0
VERTEX
  8
É}ÿg
  5
932
 10
567.686
 20
-445.901
 30
0.000000
  70
    32
  0
VERTEX
  8
É}ÿg
  5
933
 10
567.740
 20
-445.951
 30
0.000000
  70
    32
  0
VERTEX
  8
É}ÿg
  5
934
 10
567.794
 20
-446.000
 30
0.000000
  70
    32
  0
VERTEX
  8
É}ÿg
  5
935
 10
567.848
 20
-446.050
 30
0.000000
  70
    32
  0
VERTEX
  8
É}ÿg
  5
936
 10
567.902
 20
-446.100
 30
0.000000
  70
    32
  0
VERTEX
  8
É}ÿg
  5
937
 10
567.956
 20
-446.150
 30
0.000000
  70
    32
  0
VERTEX
  8
É}ÿg
  5
938
 10
568.010
 20
-446.200
 30
0.000000
  70
    32
  0
VERTEX
  8
É}ÿg
  5
939
 10
568.064
 20
-446.249
 30
0.000000
  70
    32
  0
VERTEX
  8
É}ÿg
  5
93A
 10
568.118
 20
-446.299
 30
0.000000
  70
    32
  0
VERTEX
  8
É}ÿg
  5
93B
 10
568.172
 20
-446.349
 30
0.000000
  70
    32
  0
VERTEX
  8
É}ÿg
  5
93C
 10
568.226
 20
-446.398
 30
0.000000
  70
    32
  0
VERTEX
  8
É}ÿg
  5
93D
 10
568.281
 20
-446.448
 30
0.000000
  70
    32
  0
VERTEX
  8
É}ÿg
  5
93E
 10
568.335
 20
-446.498
 30
0.000000
  70
    32
  0
VERTEX
  8
É}ÿg
  5
93F
 10
568.389
 20
-446.548
 30
0.000000
  70
    32
  0
VERTEX
  8
É}ÿg
  5
940
 10
568.443
 20
-446.597
 30
0.000000
  70
    32
  0
VERTEX
  8
É}ÿg
  5
941
 10
568.497
 20
-446.647
 30
0.000000
  70
    32
  0
VERTEX
  8
É}ÿg
  5
942
 10
568.551
 20
-446.696
 30
0.000000
  70
    32
  0
VERTEX
  8
É}ÿg
  5
943
 10
568.605
 20
-446.746
 30
0.000000
  70
    32
  0
VERTEX
  8
É}ÿg
  5
944
 10
568.660
 20
-446.796
 30
0.000000
  70
    32
  0
VERTEX
  8
É}ÿg
  5
945
 10
568.714
 20
-446.845
 30
0.000000
  70
    32
  0
VERTEX
  8
É}ÿg
  5
946
 10
568.768
 20
-446.895
 30
0.000000
  70
    32
  0
VERTEX
  8
É}ÿg
  5
947
 10
568.822
 20
-446.944
 30
0.000000
  70
    32
  0
VERTEX
  8
É}ÿg
  5
948
 10
568.876
 20
-446.994
 30
0.000000
  70
    32
  0
VERTEX
  8
É}ÿg
  5
949
 10
568.931
 20
-447.043
 30
0.000000
  70
    32
  0
VERTEX
  8
É}ÿg
  5
94A
 10
568.985
 20
-447.092
 30
0.000000
  70
    32
  0
VERTEX
  8
É}ÿg
  5
94B
 10
569.039
 20
-447.142
 30
0.000000
  70
    32
  0
VERTEX
  8
É}ÿg
  5
94C
 10
569.093
 20
-447.191
 30
0.000000
  70
    32
  0
VERTEX
  8
É}ÿg
  5
94D
 10
569.148
 20
-447.241
 30
0.000000
  70
    32
  0
VERTEX
  8
É}ÿg
  5
94E
 10
569.202
 20
-447.290
 30
0.000000
  70
    32
  0
VERTEX
  8
É}ÿg
  5
94F
 10
569.256
 20
-447.339
 30
0.000000
  70
    32
  0
VERTEX
  8
É}ÿg
  5
950
 10
569.311
 20
-447.388
 30
0.000000
  70
    32
  0
VERTEX
  8
É}ÿg
  5
951
 10
569.365
 20
-447.438
 30
0.000000
  70
    32
  0
VERTEX
  8
É}ÿg
  5
952
 10
569.419
 20
-447.487
 30
0.000000
  70
    32
  0
VERTEX
  8
É}ÿg
  5
953
 10
569.474
 20
-447.536
 30
0.000000
  70
    32
  0
VERTEX
  8
É}ÿg
  5
954
 10
569.528
 20
-447.585
 30
0.000000
  70
    32
  0
VERTEX
  8
É}ÿg
  5
955
 10
569.583
 20
-447.634
 30
0.000000
  70
    32
  0
VERTEX
  8
É}ÿg
  5
956
 10
569.637
 20
-447.683
 30
0.000000
  70
    32
  0
VERTEX
  8
É}ÿg
  5
957
 10
569.692
 20
-447.732
 30
0.000000
  70
    32
  0
VERTEX
  8
É}ÿg
  5
958
 10
569.746
 20
-447.781
 30
0.000000
  70
    32
  0
VERTEX
  8
É}ÿg
  5
959
 10
569.801
 20
-447.830
 30
0.000000
  70
    32
  0
VERTEX
  8
É}ÿg
  5
95A
 10
569.855
 20
-447.878
 30
0.000000
  70
    32
  0
VERTEX
  8
É}ÿg
  5
95B
 10
569.910
 20
-447.927
 30
0.000000
  70
    32
  0
VERTEX
  8
É}ÿg
  5
95C
 10
569.964
 20
-447.976
 30
0.000000
  70
    32
  0
VERTEX
  8
É}ÿg
  5
95D
 10
570.019
 20
-448.025
 30
0.000000
  70
    32
  0
VERTEX
  8
É}ÿg
  5
95E
 10
570.074
 20
-448.073
 30
0.000000
  70
    32
  0
VERTEX
  8
É}ÿg
  5
95F
 10
570.128
 20
-448.122
 30
0.000000
  70
    32
  0
VERTEX
  8
É}ÿg
  5
960
 10
570.183
 20
-448.170
 30
0.000000
  70
    32
  0
VERTEX
  8
É}ÿg
  5
961
 10
570.238
 20
-448.219
 30
0.000000
  70
    32
  0
VERTEX
  8
É}ÿg
  5
962
 10
570.293
 20
-448.267
 30
0.000000
  70
    32
  0
VERTEX
  8
É}ÿg
  5
963
 10
570.347
 20
-448.316
 30
0.000000
  70
    32
  0
VERTEX
  8
É}ÿg
  5
964
 10
570.402
 20
-448.364
 30
0.000000
  70
    32
  0
VERTEX
  8
É}ÿg
  5
965
 10
570.457
 20
-448.412
 30
0.000000
  70
    32
  0
VERTEX
  8
É}ÿg
  5
966
 10
570.512
 20
-448.461
 30
0.000000
  70
    32
  0
VERTEX
  8
É}ÿg
  5
967
 10
570.567
 20
-448.509
 30
0.000000
  70
    32
  0
VERTEX
  8
É}ÿg
  5
968
 10
570.622
 20
-448.557
 30
0.000000
  70
    32
  0
VERTEX
  8
É}ÿg
  5
969
 10
570.677
 20
-448.605
 30
0.000000
  70
    32
  0
VERTEX
  8
É}ÿg
  5
96A
 10
570.732
 20
-448.653
 30
0.000000
  70
    32
  0
VERTEX
  8
É}ÿg
  5
96B
 10
570.787
 20
-448.701
 30
0.000000
  70
    32
  0
VERTEX
  8
É}ÿg
  5
96C
 10
570.842
 20
-448.749
 30
0.000000
  70
    32
  0
VERTEX
  8
É}ÿg
  5
96D
 10
570.897
 20
-448.796
 30
0.000000
  70
    32
  0
VERTEX
  8
É}ÿg
  5
96E
 10
570.952
 20
-448.844
 30
0.000000
  70
    32
  0
VERTEX
  8
É}ÿg
  5
96F
 10
571.008
 20
-448.892
 30
0.000000
  70
    32
  0
VERTEX
  8
É}ÿg
  5
970
 10
571.063
 20
-448.939
 30
0.000000
  70
    32
  0
VERTEX
  8
É}ÿg
  5
971
 10
571.118
 20
-448.987
 30
0.000000
  70
    32
  0
VERTEX
  8
É}ÿg
  5
972
 10
571.173
 20
-449.034
 30
0.000000
  70
    32
  0
VERTEX
  8
É}ÿg
  5
973
 10
571.229
 20
-449.082
 30
0.000000
  70
    32
  0
VERTEX
  8
É}ÿg
  5
974
 10
571.284
 20
-449.129
 30
0.000000
  70
    32
  0
VERTEX
  8
É}ÿg
  5
975
 10
571.340
 20
-449.176
 30
0.000000
  70
    32
  0
VERTEX
  8
É}ÿg
  5
976
 10
571.395
 20
-449.223
 30
0.000000
  70
    32
  0
VERTEX
  8
É}ÿg
  5
977
 10
571.451
 20
-449.270
 30
0.000000
  70
    32
  0
VERTEX
  8
É}ÿg
  5
978
 10
571.506
 20
-449.317
 30
0.000000
  70
    32
  0
VERTEX
  8
É}ÿg
  5
979
 10
571.562
 20
-449.364
 30
0.000000
  70
    32
  0
VERTEX
  8
É}ÿg
  5
97A
 10
571.617
 20
-449.411
 30
0.000000
  70
    32
  0
VERTEX
  8
É}ÿg
  5
97B
 10
571.673
 20
-449.458
 30
0.000000
  70
    32
  0
VERTEX
  8
É}ÿg
  5
97C
 10
571.729
 20
-449.505
 30
0.000000
  70
    32
  0
VERTEX
  8
É}ÿg
  5
97D
 10
571.785
 20
-449.551
 30
0.000000
  70
    32
  0
VERTEX
  8
É}ÿg
  5
97E
 10
571.840
 20
-449.598
 30
0.000000
  70
    32
  0
VERTEX
  8
É}ÿg
  5
97F
 10
571.896
 20
-449.644
 30
0.000000
  70
    32
  0
VERTEX
  8
É}ÿg
  5
980
 10
571.952
 20
-449.691
 30
0.000000
  70
    32
  0
VERTEX
  8
É}ÿg
  5
981
 10
572.008
 20
-449.737
 30
0.000000
  70
    32
  0
VERTEX
  8
É}ÿg
  5
982
 10
572.064
 20
-449.783
 30
0.000000
  70
    32
  0
VERTEX
  8
É}ÿg
  5
983
 10
572.120
 20
-449.829
 30
0.000000
  70
    32
  0
VERTEX
  8
É}ÿg
  5
984
 10
572.176
 20
-449.875
 30
0.000000
  70
    32
  0
VERTEX
  8
É}ÿg
  5
985
 10
572.232
 20
-449.921
 30
0.000000
  70
    32
  0
VERTEX
  8
É}ÿg
  5
986
 10
572.288
 20
-449.967
 30
0.000000
  70
    32
  0
VERTEX
  8
É}ÿg
  5
987
 10
572.345
 20
-450.013
 30
0.000000
  70
    32
  0
VERTEX
  8
É}ÿg
  5
988
 10
572.401
 20
-450.058
 30
0.000000
  70
    32
  0
VERTEX
  8
É}ÿg
  5
989
 10
572.457
 20
-450.104
 30
0.000000
  70
    32
  0
VERTEX
  8
É}ÿg
  5
98A
 10
572.514
 20
-450.149
 30
0.000000
  70
    32
  0
VERTEX
  8
É}ÿg
  5
98B
 10
572.570
 20
-450.195
 30
0.000000
  70
    32
  0
VERTEX
  8
É}ÿg
  5
98C
 10
572.627
 20
-450.240
 30
0.000000
  70
    32
  0
VERTEX
  8
É}ÿg
  5
98D
 10
572.683
 20
-450.285
 30
0.000000
  70
    32
  0
VERTEX
  8
É}ÿg
  5
98E
 10
572.740
 20
-450.330
 30
0.000000
  70
    32
  0
VERTEX
  8
É}ÿg
  5
98F
 10
572.796
 20
-450.375
 30
0.000000
  70
    32
  0
VERTEX
  8
É}ÿg
  5
990
 10
572.853
 20
-450.420
 30
0.000000
  70
    32
  0
VERTEX
  8
É}ÿg
  5
991
 10
572.910
 20
-450.465
 30
0.000000
  70
    32
  0
VERTEX
  8
É}ÿg
  5
992
 10
572.967
 20
-450.510
 30
0.000000
  70
    32
  0
VERTEX
  8
É}ÿg
  5
993
 10
573.023
 20
-450.554
 30
0.000000
  70
    32
  0
VERTEX
  8
É}ÿg
  5
994
 10
573.080
 20
-450.599
 30
0.000000
  70
    32
  0
VERTEX
  8
É}ÿg
  5
995
 10
573.137
 20
-450.643
 30
0.000000
  70
    32
  0
VERTEX
  8
É}ÿg
  5
996
 10
573.194
 20
-450.687
 30
0.000000
  70
    32
  0
VERTEX
  8
É}ÿg
  5
997
 10
573.252
 20
-450.731
 30
0.000000
  70
    32
  0
VERTEX
  8
É}ÿg
  5
998
 10
573.309
 20
-450.775
 30
0.000000
  70
    32
  0
VERTEX
  8
É}ÿg
  5
999
 10
573.366
 20
-450.819
 30
0.000000
  70
    32
  0
VERTEX
  8
É}ÿg
  5
99A
 10
573.423
 20
-450.863
 30
0.000000
  70
    32
  0
VERTEX
  8
É}ÿg
  5
99B
 10
573.481
 20
-450.907
 30
0.000000
  70
    32
  0
VERTEX
  8
É}ÿg
  5
99C
 10
573.538
 20
-450.951
 30
0.000000
  70
    32
  0
VERTEX
  8
É}ÿg
  5
99D
 10
573.595
 20
-450.994
 30
0.000000
  70
    32
  0
VERTEX
  8
É}ÿg
  5
99E
 10
573.653
 20
-451.037
 30
0.000000
  70
    32
  0
VERTEX
  8
É}ÿg
  5
99F
 10
573.710
 20
-451.081
 30
0.000000
  70
    32
  0
VERTEX
  8
É}ÿg
  5
9A0
 10
573.768
 20
-451.124
 30
0.000000
  70
    32
  0
VERTEX
  8
É}ÿg
  5
9A1
 10
573.826
 20
-451.167
 30
0.000000
  70
    32
  0
VERTEX
  8
É}ÿg
  5
9A2
 10
573.884
 20
-451.210
 30
0.000000
  70
    32
  0
VERTEX
  8
É}ÿg
  5
9A3
 10
573.941
 20
-451.252
 30
0.000000
  70
    32
  0
VERTEX
  8
É}ÿg
  5
9A4
 10
573.999
 20
-451.295
 30
0.000000
  70
    32
  0
VERTEX
  8
É}ÿg
  5
9A5
 10
574.057
 20
-451.338
 30
0.000000
  70
    32
  0
VERTEX
  8
É}ÿg
  5
9A6
 10
574.115
 20
-451.380
 30
0.000000
  70
    32
  0
VERTEX
  8
É}ÿg
  5
9A7
 10
574.173
 20
-451.422
 30
0.000000
  70
    32
  0
VERTEX
  8
É}ÿg
  5
9A8
 10
574.232
 20
-451.464
 30
0.000000
  70
    32
  0
VERTEX
  8
É}ÿg
  5
9A9
 10
574.290
 20
-451.506
 30
0.000000
  70
    32
  0
VERTEX
  8
É}ÿg
  5
9AA
 10
574.348
 20
-451.548
 30
0.000000
  70
    32
  0
VERTEX
  8
É}ÿg
  5
9AB
 10
574.407
 20
-451.590
 30
0.000000
  70
    32
  0
VERTEX
  8
É}ÿg
  5
9AC
 10
574.465
 20
-451.632
 30
0.000000
  70
    32
  0
VERTEX
  8
É}ÿg
  5
9AD
 10
574.524
 20
-451.673
 30
0.000000
  70
    32
  0
VERTEX
  8
É}ÿg
  5
9AE
 10
574.582
 20
-451.715
 30
0.000000
  70
    32
  0
VERTEX
  8
É}ÿg
  5
9AF
 10
574.641
 20
-451.756
 30
0.000000
  70
    32
  0
VERTEX
  8
É}ÿg
  5
9B0
 10
574.700
 20
-451.797
 30
0.000000
  70
    32
  0
VERTEX
  8
É}ÿg
  5
9B1
 10
574.758
 20
-451.838
 30
0.000000
  70
    32
  0
VERTEX
  8
É}ÿg
  5
9B2
 10
574.817
 20
-451.879
 30
0.000000
  70
    32
  0
VERTEX
  8
É}ÿg
  5
9B3
 10
574.876
 20
-451.920
 30
0.000000
  70
    32
  0
VERTEX
  8
É}ÿg
  5
9B4
 10
574.935
 20
-451.960
 30
0.000000
  70
    32
  0
VERTEX
  8
É}ÿg
  5
9B5
 10
574.994
 20
-452.001
 30
0.000000
  70
    32
  0
VERTEX
  8
É}ÿg
  5
9B6
 10
575.053
 20
-452.041
 30
0.000000
  70
    32
  0
VERTEX
  8
É}ÿg
  5
9B7
 10
575.113
 20
-452.081
 30
0.000000
  70
    32
  0
VERTEX
  8
É}ÿg
  5
9B8
 10
575.172
 20
-452.121
 30
0.000000
  70
    32
  0
VERTEX
  8
É}ÿg
  5
9B9
 10
575.231
 20
-452.161
 30
0.000000
  70
    32
  0
VERTEX
  8
É}ÿg
  5
9BA
 10
575.291
 20
-452.201
 30
0.000000
  70
    32
  0
VERTEX
  8
É}ÿg
  5
9BB
 10
575.351
 20
-452.240
 30
0.000000
  70
    32
  0
VERTEX
  8
É}ÿg
  5
9BC
 10
575.410
 20
-452.280
 30
0.000000
  70
    32
  0
VERTEX
  8
É}ÿg
  5
9BD
 10
575.470
 20
-452.319
 30
0.000000
  70
    32
  0
VERTEX
  8
É}ÿg
  5
9BE
 10
575.530
 20
-452.358
 30
0.000000
  70
    32
  0
VERTEX
  8
É}ÿg
  5
9BF
 10
575.590
 20
-452.397
 30
0.000000
  70
    32
  0
VERTEX
  8
É}ÿg
  5
9C0
 10
575.650
 20
-452.436
 30
0.000000
  70
    32
  0
VERTEX
  8
É}ÿg
  5
9C1
 10
575.710
 20
-452.475
 30
0.000000
  70
    32
  0
VERTEX
  8
É}ÿg
  5
9C2
 10
575.770
 20
-452.513
 30
0.000000
  70
    32
  0
VERTEX
  8
É}ÿg
  5
9C3
 10
575.830
 20
-452.551
 30
0.000000
  70
    32
  0
VERTEX
  8
É}ÿg
  5
9C4
 10
575.890
 20
-452.590
 30
0.000000
  70
    32
  0
VERTEX
  8
É}ÿg
  5
9C5
 10
575.951
 20
-452.628
 30
0.000000
  70
    32
  0
VERTEX
  8
É}ÿg
  5
9C6
 10
576.011
 20
-452.666
 30
0.000000
  70
    32
  0
VERTEX
  8
É}ÿg
  5
9C7
 10
576.072
 20
-452.703
 30
0.000000
  70
    32
  0
VERTEX
  8
É}ÿg
  5
9C8
 10
576.132
 20
-452.741
 30
0.000000
  70
    32
  0
VERTEX
  8
É}ÿg
  5
9C9
 10
576.193
 20
-452.778
 30
0.000000
  70
    32
  0
VERTEX
  8
É}ÿg
  5
9CA
 10
576.254
 20
-452.816
 30
0.000000
  70
    32
  0
VERTEX
  8
É}ÿg
  5
9CB
 10
576.315
 20
-452.853
 30
0.000000
  70
    32
  0
VERTEX
  8
É}ÿg
  5
9CC
 10
576.376
 20
-452.890
 30
0.000000
  70
    32
  0
VERTEX
  8
É}ÿg
  5
9CD
 10
576.437
 20
-452.927
 30
0.000000
  70
    32
  0
SEQEND
  8
É}ÿg
  5
9CE
  0
INSERT
  5
3E6
  8
0
  6
CONTINUOUS
  2
*U132
 10
0.0
 20
0.0
 30
0.0
  0
LINE
  5
3E7
  8
É}ÿg
 10
608.16375265019985
 20
-378.89899990089998
 30
0.0
 11
608.16375265019985
 21
-386.09899990090003
 31
0.0
  0
LINE
  5
3E8
  8
É}ÿg
 10
559.48793957999987
 20
-443.76898100019991
 30
0.0
 11
559.48793957999987
 21
-448.26898100019991
 31
0.0
  0
LINE
  5
3E9
  8
É}ÿg
 10
608.16375265019985
 20
-386.09899990090003
 30
0.0
 11
622.56375265019994
 21
-389.69899990089999
 31
0.0
  0
LINE
  5
3EA
  8
É}ÿg
 10
567.46975776179988
 20
-437.76898100019991
 30
0.0
 11
567.46975776179988
 21
-443.16898100019989
 31
0.0
  0
ARC
  5
3EB
  8
É}ÿg
 10
545.98793957999987
 20
-449.76898100019991
 30
0.0
 40
9.0
 50
270.0
 51
0.0
  0
LINE
  5
3EC
  8
É}ÿg
 10
416.50600011509988
 20
-365.99899990089989
 30
0.0
 11
416.50600011509988
 21
-464.99899990089989
 31
0.0
  0
INSERT
  5
3ED
  8
0
  6
CONTINUOUS
  2
*U133
 10
0.0
 20
0.0
 30
0.0
  0
INSERT
  5
3EE
  8
0
  6
CONTINUOUS
  2
*U134
 10
0.0
 20
0.0
 30
0.0
  0
INSERT
  5
3EF
  8
0
  6
CONTINUOUS
  2
*U135
 10
0.0
 20
0.0
 30
0.0
  0
INSERT
  5
3F0
  8
0
  6
CONTINUOUS
  2
*U136
 10
0.0
 20
0.0
 30
0.0
  0
LINE
  5
3F1
  8
É}ÿg
 10
529.00600011510005
 20
-398.99899990089989
 30
0.0
 11
529.00600011510005
 21
-431.99899990089989
 31
0.0
  0
LINE
  5
3F2
  8
É}ÿg
 10
416.50600011509988
 20
-431.99899990089989
 30
0.0
 11
851.50600011509994
 21
-431.99899990089989
 31
0.0
  0
LINE
  5
3F3
  8
É}ÿg
 10
424.00600011509988
 20
-415.49899990089989
 30
0.0
 11
521.50600011510005
 21
-415.49899990089989
 31
0.0
  0
LINE
  5
3F4
  8
É}ÿg
 10
536.50600011510005
 20
-415.49899990089989
 30
0.0
 11
634.00600011510005
 21
-415.49899990089989
 31
0.0
  0
INSERT
  5
3F5
  8
0
  6
CONTINUOUS
  2
*U137
 10
0.0
 20
0.0
 30
0.0
  0
INSERT
  5
3F6
  8
0
  6
CONTINUOUS
  2
*U138
 10
0.0
 20
0.0
 30
0.0
  0
LINE
  5
3F7
  8
É}ÿg
 10
443.50600011509999
 20
-350.99899990089989
 30
0.0
 11
443.50600011509999
 21
-335.9989999009
 31
0.0
  0
LINE
  5
3F8
  8
É}ÿg
 10
416.50600011509988
 20
-350.99899990089989
 30
0.0
 11
416.50600011509988
 21
-335.9989999009
 31
0.0
  0
LINE
  5
3F9
  8
É}ÿg
 10
758.50600011509994
 20
-350.99899990089989
 30
0.0
 11
758.50600011509994
 21
-335.9989999009
 31
0.0
  0
LINE
  5
3FA
  8
É}ÿg
 10
731.50600011509994
 20
-350.99899990089989
 30
0.0
 11
731.50600011509994
 21
-335.9989999009
 31
0.0
  0
LINE
  5
3FB
  8
É}ÿg
 10
851.50600011509994
 20
-335.9989999009
 30
0.0
 11
416.50600011509988
 21
-335.9989999009
 31
0.0
  0
LINE
  5
3FC
  8
É}ÿg
 10
416.50600011509988
 20
-350.99899990089989
 30
0.0
 11
851.50600011509994
 21
-350.99899990089989
 31
0.0
  0
LINE
  5
3FD
  8
É}ÿg
 10
593.50600011510005
 20
-350.99899990089989
 30
0.0
 11
593.50600011510005
 21
-335.9989999009
 31
0.0
  0
INSERT
  5
3FE
  8
0
  6
CONTINUOUS
  2
*U139
 10
0.0
 20
0.0
 30
0.0
  0
INSERT
  5
3FF
  8
0
  6
CONTINUOUS
  2
*U140
 10
0.0
 20
0.0
 30
0.0
  0
CIRCLE
  5
400
  8
É}ÿg
 10
591.70600011509987
 20
-382.4989999009
 30
0.0
 40
3.6000000000000001
  0
LINE
  5
401
  8
É}ÿg
 10
608.16375265019985
 20
-386.09899990090003
 30
0.0
 11
622.56375265019994
 21
-389.69899990089999
 31
0.0
  0
LINE
  5
402
  8
É}ÿg
 10
608.16375265019985
 20
-378.89899990089998
 30
0.0
 11
608.16375265019985
 21
-386.09899990090003
 31
0.0
  0
LINE
  5
403
  8
É}ÿg
 10
622.56375265019994
 20
-375.2989999008999
 30
0.0
 11
622.56375265019994
 21
-389.69899990089999
 31
0.0
  0
LINE
  5
404
  8
É}ÿg
  6
BORDER
 10
591.70600011509987
 20
-371.69899990089999
 30
0.0
 11
591.70600011509987
 21
-393.29899990090001
 31
0.0
  0
LINE
  5
405
  8
É}ÿg
  6
BORDER
 10
591.70600011509987
 20
-371.69899990089999
 30
0.0
 11
591.70600011509987
 21
-393.29899990090001
 31
0.0
  0
LINE
  5
406
  8
É}ÿg
 10
622.56375265019994
 20
-375.2989999008999
 30
0.0
 11
622.56375265019994
 21
-389.69899990089999
 31
0.0
  0
LINE
  5
407
  8
É}ÿg
 10
608.16375265019985
 20
-378.89899990089998
 30
0.0
 11
608.16375265019985
 21
-386.09899990090003
 31
0.0
  0
LINE
  5
408
  8
É}ÿg
 10
608.16375265019985
 20
-386.09899990090003
 30
0.0
 11
622.56375265019994
 21
-389.69899990089999
 31
0.0
  0
LINE
  5
409
  8
É}ÿg
 10
608.16375265019985
 20
-378.89899990089998
 30
0.0
 11
622.56375265019994
 21
-375.2989999008999
 31
0.0
  0
CIRCLE
  5
40A
  8
É}ÿg
 10
591.70600011509987
 20
-382.4989999009
 30
0.0
 40
7.2000000000000002
  0
CIRCLE
  5
40B
  8
É}ÿg
 10
591.70600011509987
 20
-382.4989999009
 30
0.0
 40
3.6000000000000001
  0
CIRCLE
  5
40C
  8
É}ÿg
 10
591.70600011509987
 20
-382.4989999009
 30
0.0
 40
7.2000000000000002
  0
LINE
  5
40D
  8
É}ÿg
 10
608.16375265019985
 20
-378.89899990089998
 30
0.0
 11
622.56375265019994
 21
-375.2989999008999
 31
0.0
  0
ENDBLK
  5
40E
  8
0
  0
BLOCK
  8
0
  2
CLUMP55
 70
     0
 10
0.0
 20
0.0
 30
0.0
  3
CLUMP55
  1

  0
LINE
  5
423
  8
É}ÿg
 10
593.50600011510005
 20
-335.9989999009
 30
0.0
 11
593.50600011510005
 21
-320.9989999009
 31
0.0
  0
LINE
  5
424
  8
É}ÿg
 10
416.50600011509988
 20
-335.9989999009
 30
0.0
 11
416.50600011509988
 21
-320.9989999009
 31
0.0
  0
LINE
  5
425
  8
É}ÿg
 10
443.50600011509999
 20
-335.9989999009
 30
0.0
 11
443.50600011509999
 21
-320.9989999009
 31
0.0
  0
LINE
  5
426
  8
É}ÿg
 10
758.50600011509994
 20
-335.9989999009
 30
0.0
 11
758.50600011509994
 21
-320.9989999009
 31
0.0
  0
LINE
  5
427
  8
É}ÿg
 10
731.50600011509994
 20
-335.9989999009
 30
0.0
 11
731.50600011509994
 21
-320.9989999009
 31
0.0
  0
LINE
  5
428
  8
É}ÿg
 10
851.50600011509994
 20
-320.9989999009
 30
0.0
 11
416.50600011509988
 21
-320.9989999009
 31
0.0
  0
ENDBLK
  5
429
  8
0
  0
BLOCK
  8
0
  2
*D75
 70
     1
 10
0.0
 20
0.0
 30
0.0
  3
*D75
  1

  0
TEXT
  5
42C
  8
0
 62
     0
 10
628.78209291099995
 20
289.11416293590003
 30
0.0
 40
9.8954164504999991
  1
55
  0
LINE
  5
42D
  8
0
 62
     0
 10
662.10292611720001
 20
227.7181822917
 30
0.0
 11
662.10292611720001
 21
288.36791297399998
 31
0.0
  0
LINE
  5
42E
  8
0
 62
     0
 10
607.10292611720001
 20
227.7181822917
 30
0.0
 11
607.10292611720001
 21
288.36791297399998
 31
0.0
  0
LINE
  5
42F
  8
0
 62
     0
 10
662.10292611720001
 20
286.36791297399998
 30
0.0
 11
646.24459252949998
 21
286.36791297399998
 31
0.0
  0
LINE
  5
430
  8
0
 62
     0
 10
662.10292611720001
 20
286.36791297399998
 30
0.0
 11
622.96125970479989
 21
286.36791297399998
 31
0.0
  0
LINE
  5
431
  8
0
 62
     0
 10
607.10292611720001
 20
286.36791297399998
 30
0.0
 11
646.24459252949998
 21
286.36791297399998
 31
0.0
  0
LINE
  5
432
  8
0
 62
     0
 10
607.10292611720001
 20
286.36791297399998
 30
0.0
 11
622.96125970479989
 21
286.36791297399998
 31
0.0
  0
LINE
  5
433
  8
0
 62
     0
 10
607.10292611720001
 20
286.36791297399998
 30
0.0
 11
612.10292611720001
 21
286.36791297399998
 31
0.0
  0
SOLID
  5
434
  8
0
 62
     0
 10
607.10292611720001
 20
286.36791297399998
 30
0.0
 11
616.10292611720001
 21
288.61791297399998
 31
0.0
 12
616.10292611720001
 22
284.11791297399998
 32
0.0
 13
613.85292611720001
 23
286.36791297399998
 33
0.0
  0
LINE
  5
435
  8
0
 62
     0
 10
662.10292611720001
 20
286.36791297399998
 30
0.0
 11
657.10292611720001
 21
286.36791297399998
 31
0.0
  0
SOLID
  5
436
  8
0
 62
     0
 10
662.10292611720001
 20
286.36791297399998
 30
0.0
 11
653.10292611720001
 21
284.11791297399998
 31
0.0
 12
653.10292611720001
 22
288.61791297399998
 32
0.0
 13
655.35292611720001
 23
286.36791297399998
 33
0.0
  0
ENDBLK
  5
437
  8
0
  0
BLOCK
  8
0
  2
*D76
 70
     1
 10
0.0
 20
0.0
 30
0.0
  3
*D76
  1

  0
TEXT
  5
43B
  8
0
 62
     0
 10
559.95477175510007
 20
145.7869324824
 30
0.0
 40
9.8954164504999991
  1
117
 50
90.0
  0
LINE
  5
43C
  8
0
 62
     0
 10
538.97571997440002
 20
96.017710937499999
 30
0.0
 11
564.701021717
 21
96.017710937499999
 31
0.0
  0
LINE
  5
43D
  8
0
 62
     0
 10
538.97571997440002
 20
213.01865364579999
 30
0.0
 11
564.701021717
 21
213.01865364579999
 31
0.0
  0
LINE
  5
43E
  8
0
 62
     0
 10
562.701021717
 20
96.017710937499999
 30
0.0
 11
562.701021717
 21
169.07026530709999
 31
0.0
  0
LINE
  5
43F
  8
0
 62
     0
 10
562.701021717
 20
96.017710937499999
 30
0.0
 11
562.701021717
 21
139.9660992762
 31
0.0
  0
LINE
  5
440
  8
0
 62
     0
 10
562.701021717
 20
213.01865364579999
 30
0.0
 11
562.701021717
 21
169.07026530709999
 31
0.0
  0
LINE
  5
441
  8
0
 62
     0
 10
562.701021717
 20
213.01865364579999
 30
0.0
 11
562.701021717
 21
139.9660992762
 31
0.0
  0
LINE
  5
442
  8
0
 62
     0
 10
562.701021717
 20
213.01865364579999
 30
0.0
 11
562.701021717
 21
208.01865364579999
 31
0.0
  0
SOLID
  5
443
  8
0
 62
     0
 10
562.701021717
 20
213.01865364579999
 30
0.0
 11
564.951021717
 21
204.01865364579999
 31
0.0
 12
560.451021717
 22
204.01865364579999
 32
0.0
 13
562.701021717
 23
206.26865364579999
 33
0.0
  0
LINE
  5
444
  8
0
 62
     0
 10
562.701021717
 20
96.017710937499999
 30
0.0
 11
562.701021717
 21
101.0177109375
 31
0.0
  0
SOLID
  5
445
  8
0
 62
     0
 10
562.701021717
 20
96.017710937499999
 30
0.0
 11
560.451021717
 21
105.0177109375
 31
0.0
 12
564.951021717
 22
105.0177109375
 32
0.0
 13
562.701021717
 23
102.7677109375
 33
0.0
  0
ENDBLK
  5
446
  8
0
  0
BLOCK
  8
0
  2
*D77
 70
     1
 10
0.0
 20
0.0
 30
0.0
  3
*D77
  1

  0
TEXT
  5
44A
  8
0
 62
     0
 10
560.01491236489994
 20
236.28217921129999
 30
0.0
 40
9.8954164504999991
  1
15.5
 50
90.0
  0
LINE
  5
44B
  8
0
 62
     0
 10
538.97571997440002
 20
213.01865364579999
 30
0.0
 11
564.76116232669995
 21
213.01865364579999
 31
0.0
  0
LINE
  5
44C
  8
0
 62
     0
 10
538.97571997440002
 20
228.51865364579999
 30
0.0
 11
564.76116232669995
 21
228.51865364579999
 31
0.0
  0
LINE
  5
44D
  8
0
 62
     0
 10
562.76116232669995
 20
213.01865364579999
 30
0.0
 11
562.76116232669995
 21
261.99085920520002
 31
0.0
  0
LINE
  5
44E
  8
0
 62
     0
 10
562.76116232669995
 20
213.01865364579999
 30
0.0
 11
562.76116232669995
 21
230.46134600510001
 31
0.0
  0
LINE
  5
44F
  8
0
 62
     0
 10
562.76116232669995
 20
228.51865364579999
 30
0.0
 11
562.76116232669995
 21
261.99085920520002
 31
0.0
  0
LINE
  5
450
  8
0
 62
     0
 10
562.76116232669995
 20
228.51865364579999
 30
0.0
 11
562.76116232669995
 21
230.46134600510001
 31
0.0
  0
LINE
  5
451
  8
0
 62
     0
 10
562.76116232669995
 20
228.51865364579999
 30
0.0
 11
562.76116232669995
 21
233.51865364579999
 31
0.0
  0
SOLID
  5
452
  8
0
 62
     0
 10
562.76116232669995
 20
228.51865364579999
 30
0.0
 11
560.51116232669995
 21
237.51865364579999
 31
0.0
 12
565.01116232669995
 22
237.51865364579999
 32
0.0
 13
562.76116232669995
 23
235.26865364579999
 33
0.0
  0
LINE
  5
453
  8
0
 62
     0
 10
562.76116232669995
 20
213.01865364579999
 30
0.0
 11
562.76116232669995
 21
208.01865364579999
 31
0.0
  0
SOLID
  5
454
  8
0
 62
     0
 10
562.76116232669995
 20
213.01865364579999
 30
0.0
 11
565.01116232669995
 21
204.01865364579999
 31
0.0
 12
560.51116232669995
 22
204.01865364579999
 32
0.0
 13
562.76116232669995
 23
206.26865364579999
 33
0.0
  0
ENDBLK
  5
455
  8
0
  0
BLOCK
  8
0
  2
*D78
 70
     1
 10
0.0
 20
0.0
 30
0.0
  3
*D78
  1

  0
TEXT
  5
459
  8
0
 62
     0
 10
518.95488676829996
 20
289.8854701665
 30
0.0
 40
9.8954164504999991
  1
30
  0
LINE
  5
45A
  8
0
 62
     0
 10
539.77571997439986
 20
227.7186536458
 30
0.0
 11
539.77571997439986
 21
289.1392202047
 31
0.0
  0
LINE
  5
45B
  8
0
 62
     0
 10
509.77571997439998
 20
227.7186536458
 30
0.0
 11
509.77571997439998
 21
289.1392202047
 31
0.0
  0
LINE
  5
45C
  8
0
 62
     0
 10
539.77571997439986
 20
287.1392202047
 30
0.0
 11
536.41738638679999
 21
287.1392202047
 31
0.0
  0
LINE
  5
45D
  8
0
 62
     0
 10
539.77571997439986
 20
287.1392202047
 30
0.0
 11
513.13405356209989
 21
287.1392202047
 31
0.0
  0
LINE
  5
45E
  8
0
 62
     0
 10
509.77571997439998
 20
287.1392202047
 30
0.0
 11
536.41738638679999
 21
287.1392202047
 31
0.0
  0
LINE
  5
45F
  8
0
 62
     0
 10
509.77571997439998
 20
287.1392202047
 30
0.0
 11
513.13405356209989
 21
287.1392202047
 31
0.0
  0
LINE
  5
460
  8
0
 62
     0
 10
509.77571997439998
 20
287.1392202047
 30
0.0
 11
504.77571997439998
 21
287.1392202047
 31
0.0
  0
SOLID
  5
461
  8
0
 62
     0
 10
509.77571997439998
 20
287.1392202047
 30
0.0
 11
500.77571997439998
 21
284.8892202047
 31
0.0
 12
500.77571997439998
 22
289.3892202047
 32
0.0
 13
503.02571997439998
 23
287.1392202047
 33
0.0
  0
LINE
  5
462
  8
0
 62
     0
 10
539.77571997439986
 20
287.1392202047
 30
0.0
 11
544.77571997439998
 21
287.1392202047
 31
0.0
  0
SOLID
  5
463
  8
0
 62
     0
 10
539.77571997439986
 20
287.1392202047
 30
0.0
 11
548.77571997439998
 21
289.3892202047
 31
0.0
 12
548.77571997439998
 22
284.8892202047
 32
0.0
 13
546.52571997439998
 23
287.1392202047
 33
0.0
  0
ENDBLK
  5
464
  8
0
  0
BLOCK
  8
0
  2
*D79
 70
     1
 10
0.0
 20
0.0
 30
0.0
  3
*D79
  1

  0
TEXT
  5
468
  8
0
 62
     0
 10
680.77158742539984
 20
81.697349085500008
 30
0.0
 40
9.8954164504999991
  1
14
 50
90.0
  0
LINE
  5
469
  8
0
 62
     0
 10
662.10292611720001
 20
80.518182291700015
 30
0.0
 11
685.51783738730001
 21
80.518182291700015
 31
0.0
  0
LINE
  5
46A
  8
0
 62
     0
 10
662.10292611720001
 20
94.518182291699986
 30
0.0
 11
685.51783738730001
 21
94.518182291699986
 31
0.0
  0
LINE
  5
46B
  8
0
 62
     0
 10
683.51783738730001
 20
80.518182291700015
 30
0.0
 11
683.51783738730001
 21
80.518182291700015
 31
0.0
  0
LINE
  5
46C
  8
0
 62
     0
 10
683.51783738730001
 20
80.518182291700015
 30
0.0
 11
683.51783738730001
 21
94.518182291699986
 31
0.0
  0
LINE
  5
46D
  8
0
 62
     0
 10
683.51783738730001
 20
94.518182291699986
 30
0.0
 11
683.51783738730001
 21
80.518182291700015
 31
0.0
  0
LINE
  5
46E
  8
0
 62
     0
 10
683.51783738730001
 20
94.518182291699986
 30
0.0
 11
683.51783738730001
 21
94.518182291699986
 31
0.0
  0
LINE
  5
46F
  8
0
 62
     0
 10
683.51783738730001
 20
94.518182291699986
 30
0.0
 11
683.51783738730001
 21
99.518182291700015
 31
0.0
  0
SOLID
  5
470
  8
0
 62
     0
 10
683.51783738730001
 20
94.518182291699986
 30
0.0
 11
681.26783738730001
 21
103.5181822917
 31
0.0
 12
685.76783738730001
 22
103.5181822917
 32
0.0
 13
683.51783738730001
 23
101.2681822917
 33
0.0
  0
LINE
  5
471
  8
0
 62
     0
 10
683.51783738730001
 20
80.518182291700015
 30
0.0
 11
683.51783738730001
 21
75.518182291700001
 31
0.0
  0
SOLID
  5
472
  8
0
 62
     0
 10
683.51783738730001
 20
80.518182291700015
 30
0.0
 11
685.76783738730001
 21
71.518182291700001
 31
0.0
 12
681.26783738730001
 22
71.518182291700001
 32
0.0
 13
683.51783738730001
 23
73.768182291700001
 33
0.0
  0
ENDBLK
  5
473
  8
0
  0
BLOCK
  8
0
  2
*D80
 70
     1
 10
0.0
 20
0.0
 30
0.0
  3
*D80
  1

  0
TEXT
  5
477
  8
0
 62
     0
 10
560.01491236489994
 20
52.582797858600003
 30
0.0
 40
9.8954164504999991
  1
15.5
 50
90.0
  0
LINE
  5
478
  8
0
 62
     0
 10
538.97571997440002
 20
80.517710937499999
 30
0.0
 11
564.76116232669995
 21
80.517710937499999
 31
0.0
  0
LINE
  5
479
  8
0
 62
     0
 10
538.97571997440002
 20
96.017710937499999
 30
0.0
 11
564.76116232669995
 21
96.017710937499999
 31
0.0
  0
LINE
  5
47A
  8
0
 62
     0
 10
562.76116232669995
 20
80.517710937499999
 30
0.0
 11
562.76116232669995
 21
78.291477852499995
 31
0.0
  0
LINE
  5
47B
  8
0
 62
     0
 10
562.76116232669995
 20
80.517710937499999
 30
0.0
 11
562.76116232669995
 21
46.761964652399989
 31
0.0
  0
LINE
  5
47C
  8
0
 62
     0
 10
562.76116232669995
 20
96.017710937499999
 30
0.0
 11
562.76116232669995
 21
78.291477852499995
 31
0.0
  0
LINE
  5
47D
  8
0
 62
     0
 10
562.76116232669995
 20
96.017710937499999
 30
0.0
 11
562.76116232669995
 21
46.761964652399989
 31
0.0
  0
LINE
  5
47E
  8
0
 62
     0
 10
562.76116232669995
 20
96.017710937499999
 30
0.0
 11
562.76116232669995
 21
101.0177109375
 31
0.0
  0
SOLID
  5
47F
  8
0
 62
     0
 10
562.76116232669995
 20
96.017710937499999
 30
0.0
 11
560.51116232669995
 21
105.0177109375
 31
0.0
 12
565.01116232669995
 22
105.0177109375
 32
0.0
 13
562.76116232669995
 23
102.7677109375
 33
0.0
  0
LINE
  5
480
  8
0
 62
     0
 10
562.76116232669995
 20
80.517710937499999
 30
0.0
 11
562.76116232669995
 21
75.517710937499999
 31
0.0
  0
SOLID
  5
481
  8
0
 62
     0
 10
562.76116232669995
 20
80.517710937499999
 30
0.0
 11
565.01116232669995
 21
71.517710937499984
 31
0.0
 12
560.51116232669995
 22
71.517710937499984
 32
0.0
 13
562.76116232669995
 23
73.767710937499999
 33
0.0
  0
ENDBLK
  5
482
  8
0
  0
BLOCK
  8
0
  2
*D81
 70
     1
 10
0.0
 20
0.0
 30
0.0
  3
*D81
  1

  0
TEXT
  5
486
  8
0
 62
     0
 10
443.22547945779991
 20
82.107291730200004
 30
0.0
 40
9.8954164504999991
  1
9
 50
90.0
  0
LINE
  5
487
  8
0
 62
     0
 10
414.92923559939999
 20
80.517708333299993
 30
0.0
 11
447.97172941959991
 21
80.517708333299993
 31
0.0
  0
LINE
  5
488
  8
0
 62
     0
 10
405.92923559939999
 20
89.517708333300007
 30
0.0
 11
447.97172941959991
 21
89.517708333300007
 31
0.0
  0
LINE
  5
489
  8
0
 62
     0
 10
445.97172941959991
 20
80.517708333299993
 30
0.0
 11
445.97172941959991
 21
80.517708333299993
 31
0.0
  0
LINE
  5
48A
  8
0
 62
     0
 10
445.97172941959991
 20
80.517708333299993
 30
0.0
 11
445.97172941959991
 21
89.517708333300007
 31
0.0
  0
LINE
  5
48B
  8
0
 62
     0
 10
445.97172941959991
 20
89.517708333300007
 30
0.0
 11
445.97172941959991
 21
80.517708333299993
 31
0.0
  0
LINE
  5
48C
  8
0
 62
     0
 10
445.97172941959991
 20
89.517708333300007
 30
0.0
 11
445.97172941959991
 21
89.517708333300007
 31
0.0
  0
LINE
  5
48D
  8
0
 62
     0
 10
445.97172941959991
 20
89.517708333300007
 30
0.0
 11
445.97172941959991
 21
94.517708333300007
 31
0.0
  0
SOLID
  5
48E
  8
0
 62
     0
 10
445.97172941959991
 20
89.517708333300007
 30
0.0
 11
443.72172941959991
 21
98.517708333300007
 31
0.0
 12
448.22172941959991
 22
98.517708333300007
 32
0.0
 13
445.97172941959991
 23
96.267708333299993
 33
0.0
  0
LINE
  5
48F
  8
0
 62
     0
 10
445.97172941959991
 20
80.517708333299993
 30
0.0
 11
445.97172941959991
 21
75.517708333299993
 31
0.0
  0
SOLID
  5
490
  8
0
 62
     0
 10
445.97172941959991
 20
80.517708333299993
 30
0.0
 11
448.22172941959991
 21
71.517708333299993
 31
0.0
 12
443.72172941959991
 22
71.517708333299993
 32
0.0
 13
445.97172941959991
 23
73.767708333299993
 33
0.0
  0
ENDBLK
  5
491
  8
0
  0
BLOCK
  8
0
  2
*D82
 70
     1
 10
0.0
 20
0.0
 30
0.0
  3
*D82
  1

  0
TEXT
  5
495
  8
0
 62
     0
 10
57.197985790200001
 20
289.6419986089
 30
0.0
 40
9.8954164504999991
  1
898
  0
LINE
  5
496
  8
0
 62
     0
 10
414.92923559939999
 20
228.51770833329999
 30
0.0
 11
414.92923559939999
 21
288.89574864709999
 31
0.0
  0
LINE
  5
497
  8
0
 62
     0
 10
-283.07076440060001
 20
228.51770833329999
 30
0.0
 11
-283.07076440060001
 21
288.89574864709999
 31
0.0
  0
LINE
  5
498
  8
0
 62
     0
 10
414.92923559939999
 20
286.89574864709999
 30
0.0
 11
80.481318614900005
 21
286.89574864709999
 31
0.0
  0
LINE
  5
499
  8
0
 62
     0
 10
414.92923559939999
 20
286.89574864709999
 30
0.0
 11
51.377152584000001
 21
286.89574864709999
 31
0.0
  0
LINE
  5
49A
  8
0
 62
     0
 10
-283.07076440060001
 20
286.89574864709999
 30
0.0
 11
80.481318614900005
 21
286.89574864709999
 31
0.0
  0
LINE
  5
49B
  8
0
 62
     0
 10
-283.07076440060001
 20
286.89574864709999
 30
0.0
 11
51.377152584000001
 21
286.89574864709999
 31
0.0
  0
LINE
  5
49C
  8
0
 62
     0
 10
-283.07076440060001
 20
286.89574864709999
 30
0.0
 11
-278.07076440060001
 21
286.89574864709999
 31
0.0
  0
SOLID
  5
49D
  8
0
 62
     0
 10
-283.07076440060001
 20
286.89574864709999
 30
0.0
 11
-274.07076440060001
 21
289.14574864709999
 31
0.0
 12
-274.07076440060001
 22
284.64574864709999
 32
0.0
 13
-276.32076440060001
 23
286.89574864709999
 33
0.0
  0
LINE
  5
49E
  8
0
 62
     0
 10
414.92923559939999
 20
286.89574864709999
 30
0.0
 11
409.92923559939999
 21
286.89574864709999
 31
0.0
  0
SOLID
  5
49F
  8
0
 62
     0
 10
414.92923559939999
 20
286.89574864709999
 30
0.0
 11
405.92923559939999
 21
284.64574864709999
 31
0.0
 12
405.92923559939999
 22
289.14574864709999
 32
0.0
 13
408.17923559939999
 23
286.89574864709999
 33
0.0
  0
ENDBLK
  5
4A0
  8
0
  0
BLOCK
  8
0
  2
*D83
 70
     1
 10
0.0
 20
0.0
 30
0.0
  3
*D83
  1

  0
TEXT
  5
4A4
  8
0
 62
     0
 10
57.197985790200001
 20
267.2689097722
 30
0.0
 40
9.8954164504999991
  1
880
  0
LINE
  5
4A5
  8
0
 62
     0
 10
405.92923559939999
 20
219.51770833329999
 30
0.0
 11
405.92923559939999
 21
266.5226598104
 31
0.0
  0
LINE
  5
4A6
  8
0
 62
     0
 10
-274.07076440060001
 20
219.51770833329999
 30
0.0
 11
-274.07076440060001
 21
266.5226598104
 31
0.0
  0
LINE
  5
4A7
  8
0
 62
     0
 10
405.92923559939999
 20
264.5226598104
 30
0.0
 11
80.481318614900005
 21
264.5226598104
 31
0.0
  0
LINE
  5
4A8
  8
0
 62
     0
 10
405.92923559939999
 20
264.5226598104
 30
0.0
 11
51.377152584000001
 21
264.5226598104
 31
0.0
  0
LINE
  5
4A9
  8
0
 62
     0
 10
-274.07076440060001
 20
264.5226598104
 30
0.0
 11
80.481318614900005
 21
264.5226598104
 31
0.0
  0
LINE
  5
4AA
  8
0
 62
     0
 10
-274.07076440060001
 20
264.5226598104
 30
0.0
 11
51.377152584000001
 21
264.5226598104
 31
0.0
  0
LINE
  5
4AB
  8
0
 62
     0
 10
-274.07076440060001
 20
264.5226598104
 30
0.0
 11
-269.07076440060001
 21
264.5226598104
 31
0.0
  0
SOLID
  5
4AC
  8
0
 62
     0
 10
-274.07076440060001
 20
264.5226598104
 30
0.0
 11
-265.07076440060001
 21
266.7726598104
 31
0.0
 12
-265.07076440060001
 22
262.2726598104
 32
0.0
 13
-267.32076440060001
 23
264.5226598104
 33
0.0
  0
LINE
  5
4AD
  8
0
 62
     0
 10
405.92923559939999
 20
264.5226598104
 30
0.0
 11
400.92923559939999
 21
264.5226598104
 31
0.0
  0
SOLID
  5
4AE
  8
0
 62
     0
 10
405.92923559939999
 20
264.5226598104
 30
0.0
 11
396.92923559939999
 21
262.2726598104
 31
0.0
 12
396.92923559939999
 22
266.7726598104
 32
0.0
 13
399.1792355994001
 23
264.5226598104
 33
0.0
  0
ENDBLK
  5
4AF
  8
0
  0
BLOCK
  8
0
  2
*D84
 70
     1
 10
0.0
 20
0.0
 30
0.0
  3
*D84
  1

  0
TEXT
  5
4B3
  8
0
 62
     0
 10
433.36329874789988
 20
-0.5360008712
 30
0.0
 40
9.8954164504999991
  1
6
 50
90.0
  0
LINE
  5
4B4
  8
0
 62
     0
 10
414.92923559939999
 20
-0.6255842682
 30
0.0
 11
438.10954870979998
 21
-0.6255842682
 31
0.0
  0
LINE
  5
4B5
  8
0
 62
     0
 10
414.12923559939998
 20
5.3744157317999992
 30
0.0
 11
438.10954870979998
 21
5.3744157317999992
 31
0.0
  0
LINE
  5
4B6
  8
0
 62
     0
 10
436.10954870979998
 20
-0.6255842682
 30
0.0
 11
436.10954870979998
 21
-0.6255842682
 31
0.0
  0
LINE
  5
4B7
  8
0
 62
     0
 10
436.10954870979998
 20
-0.6255842682
 30
0.0
 11
436.10954870979998
 21
5.3744157317999992
 31
0.0
  0
LINE
  5
4B8
  8
0
 62
     0
 10
436.10954870979998
 20
5.3744157317999992
 30
0.0
 11
436.10954870979998
 21
-0.6255842682
 31
0.0
  0
LINE
  5
4B9
  8
0
 62
     0
 10
436.10954870979998
 20
5.3744157317999992
 30
0.0
 11
436.10954870979998
 21
5.3744157317999992
 31
0.0
  0
LINE
  5
4BA
  8
0
 62
     0
 10
436.10954870979998
 20
5.3744157317999992
 30
0.0
 11
436.10954870979998
 21
10.374415731799999
 31
0.0
  0
SOLID
  5
4BB
  8
0
 62
     0
 10
436.10954870979998
 20
5.3744157317999992
 30
0.0
 11
433.85954870979998
 21
14.374415731799999
 31
0.0
 12
438.35954870979998
 22
14.374415731799999
 32
0.0
 13
436.10954870979998
 23
12.124415731799999
 33
0.0
  0
LINE
  5
4BC
  8
0
 62
     0
 10
436.10954870979998
 20
-0.6255842682
 30
0.0
 11
436.10954870979998
 21
-5.6255842681999999
 31
0.0
  0
SOLID
  5
4BD
  8
0
 62
     0
 10
436.10954870979998
 20
-0.6255842682
 30
0.0
 11
438.35954870979998
 21
-9.6255842682000008
 31
0.0
 12
433.85954870979998
 22
-9.6255842682000008
 32
0.0
 13
436.10954870979998
 23
-7.3755842681999999
 33
0.0
  0
ENDBLK
  5
4BE
  8
0
  0
BLOCK
  8
0
  2
*D85
 70
     1
 10
0.0
 20
0.0
 30
0.0
  3
*D85
  1

  0
TEXT
  5
4C2
  8
0
 62
     0
 10
433.36329874789988
 20
-24.536000871199999
 30
0.0
 40
9.8954164504999991
  1
6
 50
90.0
  0
LINE
  5
4C3
  8
0
 62
     0
 10
414.12923559939998
 20
-24.625584268200001
 30
0.0
 11
438.10954870979998
 21
-24.625584268200001
 31
0.0
  0
LINE
  5
4C4
  8
0
 62
     0
 10
414.92923559939999
 20
-18.625584268200001
 30
0.0
 11
438.10954870979998
 21
-18.625584268200001
 31
0.0
  0
LINE
  5
4C5
  8
0
 62
     0
 10
436.10954870979998
 20
-24.625584268200001
 30
0.0
 11
436.10954870979998
 21
-24.625584268200001
 31
0.0
  0
LINE
  5
4C6
  8
0
 62
     0
 10
436.10954870979998
 20
-24.625584268200001
 30
0.0
 11
436.10954870979998
 21
-18.625584268200001
 31
0.0
  0
LINE
  5
4C7
  8
0
 62
     0
 10
436.10954870979998
 20
-18.625584268200001
 30
0.0
 11
436.10954870979998
 21
-24.625584268200001
 31
0.0
  0
LINE
  5
4C8
  8
0
 62
     0
 10
436.10954870979998
 20
-18.625584268200001
 30
0.0
 11
436.10954870979998
 21
-18.625584268200001
 31
0.0
  0
LINE
  5
4C9
  8
0
 62
     0
 10
436.10954870979998
 20
-18.625584268200001
 30
0.0
 11
436.10954870979998
 21
-13.625584268200001
 31
0.0
  0
SOLID
  5
4CA
  8
0
 62
     0
 10
436.10954870979998
 20
-18.625584268200001
 30
0.0
 11
433.85954870979998
 21
-9.6255842682000008
 31
0.0
 12
438.35954870979998
 22
-9.6255842682000008
 32
0.0
 13
436.10954870979998
 23
-11.875584268200001
 33
0.0
  0
LINE
  5
4CB
  8
0
 62
     0
 10
436.10954870979998
 20
-24.625584268200001
 30
0.0
 11
436.10954870979998
 21
-29.625584268200001
 31
0.0
  0
SOLID
  5
4CC
  8
0
 62
     0
 10
436.10954870979998
 20
-24.625584268200001
 30
0.0
 11
438.35954870979998
 21
-33.625584268200001
 31
0.0
 12
433.85954870979998
 22
-33.625584268200001
 32
0.0
 13
436.10954870979998
 23
-31.375584268200001
 33
0.0
  0
ENDBLK
  5
4CD
  8
0
  0
BLOCK
  8
0
  2
BALLON2
 70
     0
 10
0.0
 20
0.0
 30
0.0
  3
BALLON2
  1

  0
INSERT
  5
4D2
  8
0
  6
CONTINUOUS
  2
*U157
 10
0.0
 20
0.0
 30
0.0
  0
CIRCLE
  5
4D3
  8
┌▓È_1
 10
-326.21150134959998
 20
39.087534221399999
 30
0.0
 40
10.0
  0
LINE
  5
4D4
  8
Éíû@É³
 10
-309.54483468299998
 20
39.087534221399999
 30
0.0
 11
-316.21150134959998
 21
39.087534221399999
 31
0.0
  0
LINE
  5
4D5
  8
Éíû@É³
 10
-274.87076440060002
 20
-17.5414020409
 30
0.0
 11
-309.54483468299998
 21
39.087534221399999
 31
0.0
  0
SOLID
  5
4D6
  8
Éíû@É³
 10
-274.87076440060002
 20
-17.5414020409
 30
0.0
 11
-281.79832214110002
 21
-10.057489711700001
 31
0.0
 12
-279.04828384270002
 22
-10.7187682891
 32
0.0
 13
-279.04828384270002
 23
-10.7187682891
 33
0.0
  0
SOLID
  5
4D7
  8
Éíû@É³
 10
-279.04828384270002
 20
-10.7187682891
 30
0.0
 11
-278.3870052652
 21
-7.9687299907
 31
0.0
 12
-274.87076440060002
 22
-17.5414020409
 32
0.0
 13
-274.87076440060002
 23
-17.5414020409
 33
0.0
  0
ENDBLK
  5
4D8
  8
0
  0
BLOCK
  8
0
  2
*D87
 70
     1
 10
0.0
 20
0.0
 30
0.0
  3
*D87
  1

  0
TEXT
  5
4DB
  8
0
 62
     0
 10
339.45535504470001
 20
-99.917556687499996
 30
0.0
 40
9.8954164504999991
  1
23
  0
LINE
  5
4DC
  8
0
 62
     0
 10
356.77618825079998
 20
-132.6638066493
 30
0.0
 11
356.77618825079998
 21
-100.6638066493
 31
0.0
  0
LINE
  5
4DD
  8
0
 62
     0
 10
333.77618825079998
 20
-134.6638066493
 30
0.0
 11
333.77618825079998
 21
-100.6638066493
 31
0.0
  0
LINE
  5
4DE
  8
0
 62
     0
 10
356.77618825079998
 20
-102.6638066493
 30
0.0
 11
356.77618825079998
 21
-102.6638066493
 31
0.0
  0
LINE
  5
4DF
  8
0
 62
     0
 10
356.77618825079998
 20
-102.6638066493
 30
0.0
 11
333.77618825079998
 21
-102.6638066493
 31
0.0
  0
LINE
  5
4E0
  8
0
 62
     0
 10
333.77618825079998
 20
-102.6638066493
 30
0.0
 11
356.77618825079998
 21
-102.6638066493
 31
0.0
  0
LINE
  5
4E1
  8
0
 62
     0
 10
333.77618825079998
 20
-102.6638066493
 30
0.0
 11
333.77618825079998
 21
-102.6638066493
 31
0.0
  0
LINE
  5
4E2
  8
0
 62
     0
 10
333.77618825079998
 20
-102.6638066493
 30
0.0
 11
338.77618825079998
 21
-102.6638066493
 31
0.0
  0
SOLID
  5
4E3
  8
0
 62
     0
 10
333.77618825079998
 20
-102.6638066493
 30
0.0
 11
342.77618825079998
 21
-100.4138066493
 31
0.0
 12
342.77618825079998
 22
-104.9138066493
 32
0.0
 13
340.52618825079998
 23
-102.6638066493
 33
0.0
  0
LINE
  5
4E4
  8
0
 62
     0
 10
356.77618825079998
 20
-102.6638066493
 30
0.0
 11
351.77618825080009
 21
-102.6638066493
 31
0.0
  0
SOLID
  5
4E5
  8
0
 62
     0
 10
356.77618825079998
 20
-102.6638066493
 30
0.0
 11
347.77618825080009
 21
-104.9138066493
 31
0.0
 12
347.77618825080009
 22
-100.4138066493
 32
0.0
 13
350.02618825079998
 23
-102.6638066493
 33
0.0
  0
ENDBLK
  5
4E6
  8
0
  0
BLOCK
  8
0
  2
*D88
 70
     1
 10
0.0
 20
0.0
 30
0.0
  3
*D88
  1

  0
TEXT
  5
4EB
  8
0
 62
     0
 10
-308.84992357380003
 20
-243.85732467450001
 30
0.0
 40
9.8954164504999991
  1
2-%%c15
 50
37.562827860399999
  0
LINE
  5
4EC
  8
0
 62
     0
 10
-247.21933779130001
 20
-201.59927799479999
 30
0.0
 11
-306.3659312474
 21
-247.08718701480001
 31
0.0
  0
SOLID
  5
4ED
  8
0
 62
     0
 10
-247.21933779130001
 20
-201.59927799479999
 30
0.0
 11
-252.9818359217
 21
-208.86949912599999
 31
0.0
 12
-255.7251754975
 22
-205.30241516679999
 32
0.0
 13
-252.56996373000001
 23
-205.7142873585
 33
0.0
  0
ENDBLK
  5
4EE
  8
0
  0
BLOCK
  8
0
  2
*D89
 70
     1
 10
0.0
 20
0.0
 30
0.0
  3
*D89
  1

  0
TEXT
  5
4F2
  8
0
 62
     0
 10
15.507687627199999
 20
-284.49637214770001
 30
0.0
 40
9.8954164504999991
  1
75
  0
LINE
  5
4F3
  8
0
 62
     0
 10
-16.171479166699999
 20
-247.1638066493
 30
0.0
 11
-16.171479166699999
 21
-289.24262210950002
 31
0.0
  0
LINE
  5
4F4
  8
0
 62
     0
 10
58.828520833299997
 20
-247.1638066493
 30
0.0
 11
58.828520833299997
 21
-289.24262210950002
 31
0.0
  0
LINE
  5
4F5
  8
0
 62
     0
 10
-16.171479166699999
 20
-287.24262210950002
 30
0.0
 11
32.970187245699996
 21
-287.24262210950002
 31
0.0
  0
LINE
  5
4F6
  8
0
 62
     0
 10
-16.171479166699999
 20
-287.24262210950002
 30
0.0
 11
9.6868544209999996
 21
-287.24262210950002
 31
0.0
  0
LINE
  5
4F7
  8
0
 62
     0
 10
58.828520833299997
 20
-287.24262210950002
 30
0.0
 11
32.970187245699996
 21
-287.24262210950002
 31
0.0
  0
LINE
  5
4F8
  8
0
 62
     0
 10
58.828520833299997
 20
-287.24262210950002
 30
0.0
 11
9.6868544209999996
 21
-287.24262210950002
 31
0.0
  0
LINE
  5
4F9
  8
0
 62
     0
 10
58.828520833299997
 20
-287.24262210950002
 30
0.0
 11
53.828520833299997
 21
-287.24262210950002
 31
0.0
  0
SOLID
  5
4FA
  8
0
 62
     0
 10
58.828520833299997
 20
-287.24262210950002
 30
0.0
 11
49.828520833299997
 21
-289.49262210950002
 31
0.0
 12
49.828520833299997
 22
-284.99262210950002
 32
0.0
 13
52.07852083329999
 23
-287.24262210950002
 33
0.0
  0
LINE
  5
4FB
  8
0
 62
     0
 10
-16.171479166699999
 20
-287.24262210950002
 30
0.0
 11
-11.171479166699999
 21
-287.24262210950002
 31
0.0
  0
SOLID
  5
4FC
  8
0
 62
     0
 10
-16.171479166699999
 20
-287.24262210950002
 30
0.0
 11
-7.1714791666999993
 21
-284.99262210950002
 31
0.0
 12
-7.1714791666999993
 22
-289.49262210950002
 32
0.0
 13
-9.4214791666999993
 23
-287.24262210950002
 33
0.0
  0
ENDBLK
  5
4FD
  8
0
  0
BLOCK
  8
0
  2
*D90
 70
     1
 10
0.0
 20
0.0
 30
0.0
  3
*D90
  1

  0
TEXT
  5
501
  8
0
 62
     0
 10
173.59352977879999
 20
-338.51853053619999
 30
0.0
 40
9.8954164504999991
  1
R5
 50
315.0
  0
LINE
  5
502
  8
0
 62
     0
 10
164.4643476304
 20
-335.15167927290003
 30
0.0
 11
182.545722404
 21
-353.2330540465
 31
0.0
  0
SOLID
  5
503
  8
0
 62
     0
 10
164.4643476304
 20
-335.15167927290003
 30
0.0
 11
172.41929891870001
 21
-339.92465004590002
 31
0.0
 12
169.2373184034
 22
-343.10663056129999
 32
0.0
 13
169.2373184034
 23
-339.92465004590002
 33
0.0
  0
ENDBLK
  5
504
  8
0
  0
BLOCK
  8
0
  2
*D91
 70
     1
 10
0.0
 20
0.0
 30
0.0
  3
*D91
  1

  0
TEXT
  5
508
  8
0
 62
     0
 10
-66.525526272500002
 20
-103.72179786789999
 30
0.0
 40
9.8954164504999991
  1
439.2
  0
LINE
  5
509
  8
0
 62
     0
 10
165.92881372439999
 20
-132.6638066493
 30
0.0
 11
165.92881372439999
 21
-104.4680478297
 31
0.0
  0
LINE
  5
50A
  8
0
 62
     0
 10
-273.27118627559997
 20
-132.6638066493
 30
0.0
 11
-273.27118627559997
 21
-104.4680478297
 31
0.0
  0
LINE
  5
50B
  8
0
 62
     0
 10
165.92881372439999
 20
-106.4680478297
 30
0.0
 11
-34.996013072399997
 21
-106.4680478297
 31
0.0
  0
LINE
  5
50C
  8
0
 62
     0
 10
165.92881372439999
 20
-106.4680478297
 30
0.0
 11
-72.346359478699995
 21
-106.4680478297
 31
0.0
  0
LINE
  5
50D
  8
0
 62
     0
 10
-273.27118627559997
 20
-106.4680478297
 30
0.0
 11
-34.996013072399997
 21
-106.4680478297
 31
0.0
  0
LINE
  5
50E
  8
0
 62
     0
 10
-273.27118627559997
 20
-106.4680478297
 30
0.0
 11
-72.346359478699995
 21
-106.4680478297
 31
0.0
  0
LINE
  5
50F
  8
0
 62
     0
 10
-273.27118627559997
 20
-106.4680478297
 30
0.0
 11
-268.27118627559997
 21
-106.4680478297
 31
0.0
  0
SOLID
  5
510
  8
0
 62
     0
 10
-273.27118627559997
 20
-106.4680478297
 30
0.0
 11
-264.27118627559997
 21
-104.2180478297
 31
0.0
 12
-264.27118627559997
 22
-108.7180478297
 32
0.0
 13
-266.52118627559997
 23
-106.4680478297
 33
0.0
  0
LINE
  5
511
  8
0
 62
     0
 10
165.92881372439999
 20
-106.4680478297
 30
0.0
 11
160.92881372439999
 21
-106.4680478297
 31
0.0
  0
SOLID
  5
512
  8
0
 62
     0
 10
165.92881372439999
 20
-106.4680478297
 30
0.0
 11
156.92881372439999
 21
-108.7180478297
 31
0.0
 12
156.92881372439999
 22
-104.2180478297
 32
0.0
 13
159.17881372439999
 23
-106.4680478297
 33
0.0
  0
ENDBLK
  5
513
  8
0
  0
BLOCK
  8
0
  2
*D92
 70
     1
 10
0.0
 20
0.0
 30
0.0
  3
*D92
  1

  0
TEXT
  5
517
  8
0
 62
     0
 10
443.22547945779991
 20
221.10729173019999
 30
0.0
 40
9.8954164504999991
  1
9
 50
90.0
  0
LINE
  5
518
  8
0
 62
     0
 10
405.92923559939999
 20
219.51770833329999
 30
0.0
 11
447.97172941959991
 21
219.51770833329999
 31
0.0
  0
LINE
  5
519
  8
0
 62
     0
 10
414.92923559939999
 20
228.51770833329999
 30
0.0
 11
447.97172941959991
 21
228.51770833329999
 31
0.0
  0
LINE
  5
51A
  8
0
 62
     0
 10
445.97172941959991
 20
219.51770833329999
 30
0.0
 11
445.97172941959991
 21
219.51770833329999
 31
0.0
  0
LINE
  5
51B
  8
0
 62
     0
 10
445.97172941959991
 20
219.51770833329999
 30
0.0
 11
445.97172941959991
 21
228.51770833329999
 31
0.0
  0
LINE
  5
51C
  8
0
 62
     0
 10
445.97172941959991
 20
228.51770833329999
 30
0.0
 11
445.97172941959991
 21
219.51770833329999
 31
0.0
  0
LINE
  5
51D
  8
0
 62
     0
 10
445.97172941959991
 20
228.51770833329999
 30
0.0
 11
445.97172941959991
 21
228.51770833329999
 31
0.0
  0
LINE
  5
51E
  8
0
 62
     0
 10
445.97172941959991
 20
228.51770833329999
 30
0.0
 11
445.97172941959991
 21
233.51770833329999
 31
0.0
  0
SOLID
  5
51F
  8
0
 62
     0
 10
445.97172941959991
 20
228.51770833329999
 30
0.0
 11
443.72172941959991
 21
237.51770833329999
 31
0.0
 12
448.22172941959991
 22
237.51770833329999
 32
0.0
 13
445.97172941959991
 23
235.26770833329999
 33
0.0
  0
LINE
  5
520
  8
0
 62
     0
 10
445.97172941959991
 20
219.51770833329999
 30
0.0
 11
445.97172941959991
 21
214.51770833329999
 31
0.0
  0
SOLID
  5
521
  8
0
 62
     0
 10
445.97172941959991
 20
219.51770833329999
 30
0.0
 11
448.22172941959991
 21
210.51770833329999
 31
0.0
 12
443.72172941959991
 22
210.51770833329999
 32
0.0
 13
445.97172941959991
 23
212.76770833329999
 33
0.0
  0
ENDBLK
  5
522
  8
0
  0
BLOCK
  8
0
  2
*D93
 70
     1
 10
0.0
 20
0.0
 30
0.0
  3
*D93
  1

  0
TEXT
  5
526
  8
0
 62
     0
 10
461.24029764929992
 20
145.7864585241
 30
0.0
 40
9.8954164504999991
  1
148
 50
90.0
  0
LINE
  5
527
  8
0
 62
     0
 10
414.92923559939999
 20
80.517708333299993
 30
0.0
 11
465.98654761120002
 21
80.517708333299993
 31
0.0
  0
LINE
  5
528
  8
0
 62
     0
 10
414.92923559939999
 20
228.51770833329999
 30
0.0
 11
465.98654761120002
 21
228.51770833329999
 31
0.0
  0
LINE
  5
529
  8
0
 62
     0
 10
463.98654761119991
 20
80.517708333299993
 30
0.0
 11
463.98654761119991
 21
169.06979134880001
 31
0.0
  0
LINE
  5
52A
  8
0
 62
     0
 10
463.98654761119991
 20
80.517708333299993
 30
0.0
 11
463.98654761119991
 21
139.96562531789999
 31
0.0
  0
LINE
  5
52B
  8
0
 62
     0
 10
463.98654761119991
 20
228.51770833329999
 30
0.0
 11
463.98654761119991
 21
169.06979134880001
 31
0.0
  0
LINE
  5
52C
  8
0
 62
     0
 10
463.98654761119991
 20
228.51770833329999
 30
0.0
 11
463.98654761119991
 21
139.96562531789999
 31
0.0
  0
LINE
  5
52D
  8
0
 62
     0
 10
463.98654761119991
 20
228.51770833329999
 30
0.0
 11
463.98654761119991
 21
223.51770833329999
 31
0.0
  0
SOLID
  5
52E
  8
0
 62
     0
 10
463.98654761119991
 20
228.51770833329999
 30
0.0
 11
466.23654761119991
 21
219.51770833329999
 31
0.0
 12
461.73654761119991
 22
219.51770833329999
 32
0.0
 13
463.98654761119991
 23
221.76770833329999
 33
0.0
  0
LINE
  5
52F
  8
0
 62
     0
 10
463.98654761119991
 20
80.517708333299993
 30
0.0
 11
463.98654761119991
 21
85.517708333299993
 31
0.0
  0
SOLID
  5
530
  8
0
 62
     0
 10
463.98654761119991
 20
80.517708333299993
 30
0.0
 11
461.73654761119991
 21
89.517708333300007
 31
0.0
 12
466.23654761119991
 22
89.517708333300007
 32
0.0
 13
463.98654761119991
 23
87.267708333299979
 33
0.0
  0
ENDBLK
  5
531
  8
0
  0
BLOCK
  8
0
  2
*D94
 70
     1
 10
0.0
 20
0.0
 30
0.0
  3
*D94
  1

  0
TEXT
  5
535
  8
0
 62
     0
 10
443.2254775504
 20
145.7864585241
 30
0.0
 40
9.8954164504999991
  1
130
 50
90.0
  0
LINE
  5
536
  8
0
 62
     0
 10
405.92923559939999
 20
89.517708333300007
 30
0.0
 11
447.97172751229999
 21
89.517708333300007
 31
0.0
  0
LINE
  5
537
  8
0
 62
     0
 10
405.92923559939999
 20
219.51770833329999
 30
0.0
 11
447.97172751229999
 21
219.51770833329999
 31
0.0
  0
LINE
  5
538
  8
0
 62
     0
 10
445.97172751229999
 20
89.517708333300007
 30
0.0
 11
445.97172751229999
 21
169.06979134880001
 31
0.0
  0
LINE
  5
539
  8
0
 62
     0
 10
445.97172751229999
 20
89.517708333300007
 30
0.0
 11
445.97172751229999
 21
139.96562531789999
 31
0.0
  0
LINE
  5
53A
  8
0
 62
     0
 10
445.97172751229999
 20
219.51770833329999
 30
0.0
 11
445.97172751229999
 21
169.06979134880001
 31
0.0
  0
LINE
  5
53B
  8
0
 62
     0
 10
445.97172751229999
 20
219.51770833329999
 30
0.0
 11
445.97172751229999
 21
139.96562531789999
 31
0.0
  0
LINE
  5
53C
  8
0
 62
     0
 10
445.97172751229999
 20
219.51770833329999
 30
0.0
 11
445.97172751229999
 21
214.51770833329999
 31
0.0
  0
SOLID
  5
53D
  8
0
 62
     0
 10
445.97172751229999
 20
219.51770833329999
 30
0.0
 11
448.22172751229999
 21
210.51770833329999
 31
0.0
 12
443.72172751229999
 22
210.51770833329999
 32
0.0
 13
445.97172751229999
 23
212.76770833329999
 33
0.0
  0
LINE
  5
53E
  8
0
 62
     0
 10
445.97172751229999
 20
89.517708333300007
 30
0.0
 11
445.97172751229999
 21
94.517708333300007
 31
0.0
  0
SOLID
  5
53F
  8
0
 62
     0
 10
445.97172751229999
 20
89.517708333300007
 30
0.0
 11
443.72172751229999
 21
98.517708333300007
 31
0.0
 12
448.22172751229999
 22
98.517708333300007
 32
0.0
 13
445.97172751229999
 23
96.267708333299993
 33
0.0
  0
ENDBLK
  5
540
  8
0
  0
BLOCK
  8
0
  2
*D95
 70
     1
 10
0.0
 20
0.0
 30
0.0
  3
*D95
  1

  0
TEXT
  5
544
  8
0
 62
     0
 10
407.5188189962999
 20
267.39262803399998
 30
0.0
 40
9.8954164504999991
  1
9
  0
LINE
  5
545
  8
0
 62
     0
 10
414.92923559939999
 20
228.51770833329999
 30
0.0
 11
414.92923559939999
 21
266.64637807209999
 31
0.0
  0
LINE
  5
546
  8
0
 62
     0
 10
405.92923559939999
 20
219.51770833329999
 30
0.0
 11
405.92923559939999
 21
266.64637807209999
 31
0.0
  0
LINE
  5
547
  8
0
 62
     0
 10
414.92923559939999
 20
264.64637807209999
 30
0.0
 11
414.92923559939999
 21
264.64637807209999
 31
0.0
  0
LINE
  5
548
  8
0
 62
     0
 10
414.92923559939999
 20
264.64637807209999
 30
0.0
 11
405.92923559939999
 21
264.64637807209999
 31
0.0
  0
LINE
  5
549
  8
0
 62
     0
 10
405.92923559939999
 20
264.64637807209999
 30
0.0
 11
414.92923559939999
 21
264.64637807209999
 31
0.0
  0
LINE
  5
54A
  8
0
 62
     0
 10
405.92923559939999
 20
264.64637807209999
 30
0.0
 11
405.92923559939999
 21
264.64637807209999
 31
0.0
  0
LINE
  5
54B
  8
0
 62
     0
 10
405.92923559939999
 20
264.64637807209999
 30
0.0
 11
400.92923559939999
 21
264.64637807209999
 31
0.0
  0
SOLID
  5
54C
  8
0
 62
     0
 10
405.92923559939999
 20
264.64637807209999
 30
0.0
 11
396.92923559939999
 21
262.39637807209999
 31
0.0
 12
396.92923559939999
 22
266.89637807209999
 32
0.0
 13
399.1792355994001
 23
264.64637807209999
 33
0.0
  0
LINE
  5
54D
  8
0
 62
     0
 10
414.92923559939999
 20
264.64637807209999
 30
0.0
 11
419.92923559939999
 21
264.64637807209999
 31
0.0
  0
SOLID
  5
54E
  8
0
 62
     0
 10
414.92923559939999
 20
264.64637807209999
 30
0.0
 11
423.92923559939999
 21
266.89637807209999
 31
0.0
 12
423.92923559939999
 22
262.39637807209999
 32
0.0
 13
421.67923559939999
 23
264.64637807209999
 33
0.0
  0
ENDBLK
  5
54F
  8
0
  0
BLOCK
  8
0
  2
*D96
 70
     1
 10
0.0
 20
0.0
 30
0.0
  3
*D96
  1

  0
TEXT
  5
553
  8
0
 62
     0
 10
641.28209291099995
 20
268.43595630139998
 30
0.0
 40
9.8954164504999991
  1
30
  0
LINE
  5
554
  8
0
 62
     0
 10
662.10292611720001
 20
228.51818229169999
 30
0.0
 11
662.10292611720001
 21
267.68970633949999
 31
0.0
  0
LINE
  5
555
  8
0
 62
     0
 10
632.10292611720001
 20
219.51818229169999
 30
0.0
 11
632.10292611720001
 21
267.68970633949999
 31
0.0
  0
LINE
  5
556
  8
0
 62
     0
 10
662.10292611720001
 20
265.68970633949999
 30
0.0
 11
658.74459252949998
 21
265.68970633949999
 31
0.0
  0
LINE
  5
557
  8
0
 62
     0
 10
662.10292611720001
 20
265.68970633949999
 30
0.0
 11
635.46125970479989
 21
265.68970633949999
 31
0.0
  0
LINE
  5
558
  8
0
 62
     0
 10
632.10292611720001
 20
265.68970633949999
 30
0.0
 11
658.74459252949998
 21
265.68970633949999
 31
0.0
  0
LINE
  5
559
  8
0
 62
     0
 10
632.10292611720001
 20
265.68970633949999
 30
0.0
 11
635.46125970479989
 21
265.68970633949999
 31
0.0
  0
LINE
  5
55A
  8
0
 62
     0
 10
632.10292611720001
 20
265.68970633949999
 30
0.0
 11
627.1029261171999
 21
265.68970633949999
 31
0.0
  0
SOLID
  5
55B
  8
0
 62
     0
 10
632.10292611720001
 20
265.68970633949999
 30
0.0
 11
623.1029261171999
 21
263.43970633949999
 31
0.0
 12
623.1029261171999
 22
267.93970633949999
 32
0.0
 13
625.3529261171999
 23
265.68970633949999
 33
0.0
  0
LINE
  5
55C
  8
0
 62
     0
 10
662.10292611720001
 20
265.68970633949999
 30
0.0
 11
667.10292611720001
 21
265.68970633949999
 31
0.0
  0
SOLID
  5
55D
  8
0
 62
     0
 10
662.10292611720001
 20
265.68970633949999
 30
0.0
 11
671.10292611720001
 21
267.93970633949999
 31
0.0
 12
671.10292611720001
 22
263.43970633949999
 32
0.0
 13
668.85292611720001
 23
265.68970633949999
 33
0.0
  0
ENDBLK
  5
55E
  8
0
  0
BLOCK
  8
0
  2
*D97
 70
     1
 10
0.0
 20
0.0
 30
0.0
  3
*D97
  1

  0
TEXT
  5
562
  8
0
 62
     0
 10
526.38689053459996
 20
268.2653072027
 30
0.0
 40
9.8954164504999991
  1
15
  0
LINE
  5
563
  8
0
 62
     0
 10
539.77571997439986
 20
227.7186536458
 30
0.0
 11
539.77571997439986
 21
267.51905724080001
 31
0.0
  0
LINE
  5
564
  8
0
 62
     0
 10
524.77571997439998
 20
219.51865364579999
 30
0.0
 11
524.77571997439998
 21
267.51905724080001
 31
0.0
  0
LINE
  5
565
  8
0
 62
     0
 10
539.77571997439986
 20
265.51905724080001
 30
0.0
 11
539.77571997439986
 21
265.51905724080001
 31
0.0
  0
LINE
  5
566
  8
0
 62
     0
 10
539.77571997439986
 20
265.51905724080001
 30
0.0
 11
524.77571997439998
 21
265.51905724080001
 31
0.0
  0
LINE
  5
567
  8
0
 62
     0
 10
524.77571997439998
 20
265.51905724080001
 30
0.0
 11
539.77571997439986
 21
265.51905724080001
 31
0.0
  0
LINE
  5
568
  8
0
 62
     0
 10
524.77571997439998
 20
265.51905724080001
 30
0.0
 11
524.77571997439998
 21
265.51905724080001
 31
0.0
  0
LINE
  5
569
  8
0
 62
     0
 10
524.77571997439998
 20
265.51905724080001
 30
0.0
 11
519.77571997439998
 21
265.51905724080001
 31
0.0
  0
SOLID
  5
56A
  8
0
 62
     0
 10
524.77571997439998
 20
265.51905724080001
 30
0.0
 11
515.77571997439998
 21
263.26905724080001
 31
0.0
 12
515.77571997439998
 22
267.76905724080001
 32
0.0
 13
518.02571997439998
 23
265.51905724080001
 33
0.0
  0
LINE
  5
56B
  8
0
 62
     0
 10
539.77571997439986
 20
265.51905724080001
 30
0.0
 11
544.77571997439998
 21
265.51905724080001
 31
0.0
  0
SOLID
  5
56C
  8
0
 62
     0
 10
539.77571997439986
 20
265.51905724080001
 30
0.0
 11
548.77571997439998
 21
267.76905724080001
 31
0.0
 12
548.77571997439998
 22
263.26905724080001
 32
0.0
 13
546.52571997439998
 23
265.51905724080001
 33
0.0
  0
ENDBLK
  5
56D
  8
0
  0
BLOCK
  8
0
  2
*D98
 70
     1
 10
0.0
 20
0.0
 30
0.0
  3
*D98
  1

  0
TEXT
  5
571
  8
0
 62
     0
 10
511.21441018979999
 20
268.2653072027
 30
0.0
 40
9.8954164504999991
  1
15
  0
LINE
  5
572
  8
0
 62
     0
 10
524.77571997439998
 20
219.51865364579999
 30
0.0
 11
524.77571997439998
 21
267.51905724080001
 31
0.0
  0
LINE
  5
573
  8
0
 62
     0
 10
509.77571997439998
 20
227.7186536458
 30
0.0
 11
509.77571997439998
 21
267.51905724080001
 31
0.0
  0
LINE
  5
574
  8
0
 62
     0
 10
524.77571997439998
 20
265.51905724080001
 30
0.0
 11
524.77571997439998
 21
265.51905724080001
 31
0.0
  0
LINE
  5
575
  8
0
 62
     0
 10
524.77571997439998
 20
265.51905724080001
 30
0.0
 11
509.77571997439998
 21
265.51905724080001
 31
0.0
  0
LINE
  5
576
  8
0
 62
     0
 10
509.77571997439998
 20
265.51905724080001
 30
0.0
 11
524.77571997439998
 21
265.51905724080001
 31
0.0
  0
LINE
  5
577
  8
0
 62
     0
 10
509.77571997439998
 20
265.51905724080001
 30
0.0
 11
509.77571997439998
 21
265.51905724080001
 31
0.0
  0
LINE
  5
578
  8
0
 62
     0
 10
509.77571997439998
 20
265.51905724080001
 30
0.0
 11
504.77571997439998
 21
265.51905724080001
 31
0.0
  0
SOLID
  5
579
  8
0
 62
     0
 10
509.77571997439998
 20
265.51905724080001
 30
0.0
 11
500.77571997439998
 21
263.26905724080001
 31
0.0
 12
500.77571997439998
 22
267.76905724080001
 32
0.0
 13
503.02571997439998
 23
265.51905724080001
 33
0.0
  0
LINE
  5
57A
  8
0
 62
     0
 10
524.77571997439998
 20
265.51905724080001
 30
0.0
 11
529.77571997439986
 21
265.51905724080001
 31
0.0
  0
SOLID
  5
57B
  8
0
 62
     0
 10
524.77571997439998
 20
265.51905724080001
 30
0.0
 11
533.77571997439986
 21
267.76905724080001
 31
0.0
 12
533.77571997439986
 22
263.26905724080001
 32
0.0
 13
531.52571997439986
 23
265.51905724080001
 33
0.0
  0
ENDBLK
  5
57C
  8
0
  0
BLOCK
  8
0
  2
*D99
 70
     1
 10
0.0
 20
0.0
 30
0.0
  3
*D99
  1

  0
TEXT
  5
580
  8
0
 62
     0
 10
680.77158742539984
 20
145.7869324824
 30
0.0
 40
9.8954164504999991
  1
120
 50
90.0
  0
LINE
  5
581
  8
0
 62
     0
 10
662.10292611720001
 20
94.518182291699986
 30
0.0
 11
685.51783738730001
 21
94.518182291699986
 31
0.0
  0
LINE
  5
582
  8
0
 62
     0
 10
662.10292611720001
 20
214.51818229169999
 30
0.0
 11
685.51783738730001
 21
214.51818229169999
 31
0.0
  0
LINE
  5
583
  8
0
 62
     0
 10
683.51783738730001
 20
94.518182291699986
 30
0.0
 11
683.51783738730001
 21
169.07026530709999
 31
0.0
  0
LINE
  5
584
  8
0
 62
     0
 10
683.51783738730001
 20
94.518182291699986
 30
0.0
 11
683.51783738730001
 21
139.9660992762
 31
0.0
  0
LINE
  5
585
  8
0
 62
     0
 10
683.51783738730001
 20
214.51818229169999
 30
0.0
 11
683.51783738730001
 21
169.07026530709999
 31
0.0
  0
LINE
  5
586
  8
0
 62
     0
 10
683.51783738730001
 20
214.51818229169999
 30
0.0
 11
683.51783738730001
 21
139.9660992762
 31
0.0
  0
LINE
  5
587
  8
0
 62
     0
 10
683.51783738730001
 20
214.51818229169999
 30
0.0
 11
683.51783738730001
 21
209.51818229169999
 31
0.0
  0
SOLID
  5
588
  8
0
 62
     0
 10
683.51783738730001
 20
214.51818229169999
 30
0.0
 11
685.76783738730001
 21
205.51818229169999
 31
0.0
 12
681.26783738730001
 22
205.51818229169999
 32
0.0
 13
683.51783738730001
 23
207.76818229169999
 33
0.0
  0
LINE
  5
589
  8
0
 62
     0
 10
683.51783738730001
 20
94.518182291699986
 30
0.0
 11
683.51783738730001
 21
99.518182291700015
 31
0.0
  0
SOLID
  5
58A
  8
0
 62
     0
 10
683.51783738730001
 20
94.518182291699986
 30
0.0
 11
681.26783738730001
 21
103.5181822917
 31
0.0
 12
685.76783738730001
 22
103.5181822917
 32
0.0
 13
683.51783738730001
 23
101.2681822917
 33
0.0
  0
ENDBLK
  5
58B
  8
0
  0
BLOCK
  8
0
  2
CLUMP56
 70
     0
 10
0.0
 20
0.0
 30
0.0
  3
CLUMP56
  1

  0
LINE
  5
590
  8
┌▓È_1
 62
     5
 10
613.80292611719995
 20
220.3181822917
 30
0.0
 11
613.80292611719995
 21
221.11818229170001
 31
0.0
  0
LINE
  5
591
  8
┌▓È_1
 62
     5
 10
607.90292611719985
 20
227.7181822917
 30
0.0
 11
607.90292611719985
 21
220.3181822917
 31
0.0
  0
LINE
  5
592
  8
┌▓È_1
 62
     5
 10
613.10292611720001
 20
227.7181822917
 30
0.0
 11
607.90292611719985
 21
227.7181822917
 31
0.0
  0
LINE
  5
593
  8
┌▓È_1
 62
     5
 10
613.10292611720001
 20
227.7181822917
 30
0.0
 11
613.10292611720001
 21
228.51818229169999
 31
0.0
  0
LINE
  5
594
  8
┌▓È_1
 62
     5
 10
613.10292611720001
 20
228.51818229169999
 30
0.0
 11
607.90292611719985
 21
228.51818229169999
 31
0.0
  0
ARC
  5
595
  8
┌▓È_1
 62
     5
 10
607.90292611719985
 20
227.7181822917
 30
0.0
 40
0.8
 50
90.0
 51
180.0
  0
LINE
  5
596
  8
┌▓È_1
 62
     5
 10
607.10292611720001
 20
227.7181822917
 30
0.0
 11
607.10292611720001
 21
220.3181822917
 31
0.0
  0
ARC
  5
597
  8
┌▓È_1
 62
     5
 10
607.90292611719985
 20
220.3181822917
 30
0.0
 40
0.8
 50
180.0
 51
270.0
  0
LINE
  5
598
  8
┌▓È_1
 62
     5
 10
656.10292611720001
 20
228.51818229169999
 30
0.0
 11
656.10292611720001
 21
227.7181822917
 31
0.0
  0
LINE
  5
599
  8
┌▓È_1
 62
     5
 10
661.30292611719995
 20
227.7181822917
 30
0.0
 11
656.10292611720001
 21
227.7181822917
 31
0.0
  0
LINE
  5
59A
  8
┌▓È_1
 62
     5
 10
661.30292611719995
 20
215.3181822917
 30
0.0
 11
661.30292611719995
 21
227.7181822917
 31
0.0
  0
LINE
  5
59B
  8
┌▓È_1
 62
     5
 10
632.90292611719985
 20
215.3181822917
 30
0.0
 11
661.30292611719995
 21
215.3181822917
 31
0.0
  0
LINE
  5
59C
  8
┌▓È_1
 62
     5
 10
607.90292611719985
 20
219.51818229169999
 30
0.0
 11
632.10292611720001
 21
219.51818229169999
 31
0.0
  0
LINE
  5
59D
  8
┌▓È_1
 62
     5
 10
607.90292611719985
 20
220.3181822917
 30
0.0
 11
632.10292611720001
 21
220.3181822917
 31
0.0
  0
LINE
  5
59E
  8
┌▓È_1
 62
     5
 10
632.90292611719985
 20
219.51818229169999
 30
0.0
 11
632.90292611719985
 21
215.3181822917
 31
0.0
  0
ARC
  5
59F
  8
┌▓È_1
 62
     5
 10
632.10292611720001
 20
219.51818229169999
 30
0.0
 40
0.8
 50
0.0
 51
90.0
  0
LINE
  5
5A0
  8
┌▓È_1
 62
     5
 10
632.10292611720001
 20
219.51818229169999
 30
0.0
 11
632.10292611720001
 21
215.3181822917
 31
0.0
  0
ARC
  5
5A1
  8
┌▓È_1
 62
     5
 10
632.90292611719985
 20
215.3181822917
 30
0.0
 40
0.8
 50
180.0
 51
270.0
  0
LINE
  5
5A2
  8
┌▓È_1
 62
     5
 10
632.90292611719985
 20
214.51818229169999
 30
0.0
 11
661.30292611719995
 21
214.51818229169999
 31
0.0
  0
ARC
  5
5A3
  8
┌▓È_1
 62
     5
 10
661.30292611719995
 20
215.3181822917
 30
0.0
 40
0.8
 50
270.0
 51
0.0
  0
LINE
  5
5A4
  8
┌▓È_1
 62
     5
 10
661.30292611719995
 20
228.51818229169999
 30
0.0
 11
656.10292611720001
 21
228.51818229169999
 31
0.0
  0
LINE
  5
5A5
  8
┌▓È_1
 62
     5
 10
662.10292611720001
 20
215.3181822917
 30
0.0
 11
662.10292611720001
 21
227.7181822917
 31
0.0
  0
ARC
  5
5A6
  8
┌▓È_1
 62
     5
 10
661.30292611719995
 20
227.7181822917
 30
0.0
 40
0.8
 50
0.0
 51
90.0
  0
LINE
  5
5A7
  8
┌▓È_1
 62
     5
 10
613.80292611719995
 20
221.11818229170001
 30
0.0
 11
661.30292611719995
 21
221.11818229170001
 31
0.0
  0
LINE
  5
5A8
  8
┌▓È_1
 62
     5
 10
632.10292611720001
 20
220.3181822917
 30
0.0
 11
661.30292611719995
 21
220.3181822917
 31
0.0
  0
ENDBLK
  5
5A9
  8
0
  0
BLOCK
  8
0
  2
CLUMP57
 70
     0
 10
0.0
 20
0.0
 30
0.0
  3
CLUMP57
  1

  0
LINE
  5
5B2
  8
┌▓È_1
 62
     5
 10
613.80292611719995
 20
88.718182291700003
 30
0.0
 11
613.80292611719995
 21
87.918182291700006
 31
0.0
  0
LINE
  5
5B3
  8
┌▓È_1
 62
     5
 10
607.90292611719985
 20
81.318182291699983
 30
0.0
 11
607.90292611719985
 21
88.718182291700003
 31
0.0
  0
LINE
  5
5B4
  8
┌▓È_1
 62
     5
 10
613.10292611720001
 20
81.318182291699983
 30
0.0
 11
607.90292611719985
 21
81.318182291699983
 31
0.0
  0
LINE
  5
5B5
  8
┌▓È_1
 62
     5
 10
613.10292611720001
 20
81.318182291699983
 30
0.0
 11
613.10292611720001
 21
80.518182291700015
 31
0.0
  0
LINE
  5
5B6
  8
┌▓È_1
 62
     5
 10
613.10292611720001
 20
80.518182291700015
 30
0.0
 11
607.90292611719985
 21
80.518182291700015
 31
0.0
  0
ARC
  5
5B7
  8
┌▓È_1
 62
     5
 10
607.90292611719985
 20
81.318182291699983
 30
0.0
 40
0.8
 50
180.0
 51
270.0
  0
LINE
  5
5B8
  8
┌▓È_1
 62
     5
 10
607.10292611720001
 20
81.318182291699983
 30
0.0
 11
607.10292611720001
 21
88.718182291700003
 31
0.0
  0
ARC
  5
5B9
  8
┌▓È_1
 62
     5
 10
607.90292611719985
 20
88.718182291700003
 30
0.0
 40
0.8
 50
90.0
 51
180.0
  0
LINE
  5
5BA
  8
┌▓È_1
 62
     5
 10
656.10292611720001
 20
80.518182291700015
 30
0.0
 11
656.10292611720001
 21
81.318182291699983
 31
0.0
  0
LINE
  5
5BB
  8
┌▓È_1
 62
     5
 10
661.30292611719995
 20
81.318182291699983
 30
0.0
 11
656.10292611720001
 21
81.318182291699983
 31
0.0
  0
LINE
  5
5BC
  8
┌▓È_1
 62
     5
 10
661.30292611719995
 20
93.718182291700003
 30
0.0
 11
661.30292611719995
 21
81.318182291699983
 31
0.0
  0
LINE
  5
5BD
  8
┌▓È_1
 62
     5
 10
632.90292611719985
 20
93.718182291700003
 30
0.0
 11
661.30292611719995
 21
93.718182291700003
 31
0.0
  0
LINE
  5
5BE
  8
┌▓È_1
 62
     5
 10
607.90292611719985
 20
89.518182291699986
 30
0.0
 11
632.10292611720001
 21
89.518182291699986
 31
0.0
  0
LINE
  5
5BF
  8
┌▓È_1
 62
     5
 10
607.90292611719985
 20
88.718182291700003
 30
0.0
 11
632.10292611720001
 21
88.718182291700003
 31
0.0
  0
LINE
  5
5C0
  8
┌▓È_1
 62
     5
 10
632.90292611719985
 20
89.518182291699986
 30
0.0
 11
632.90292611719985
 21
93.718182291700003
 31
0.0
  0
ARC
  5
5C1
  8
┌▓È_1
 62
     5
 10
632.10292611720001
 20
89.518182291699986
 30
0.0
 40
0.8
 50
270.0
 51
0.0
  0
LINE
  5
5C2
  8
┌▓È_1
 62
     5
 10
632.10292611720001
 20
89.518182291699986
 30
0.0
 11
632.10292611720001
 21
93.718182291700003
 31
0.0
  0
ARC
  5
5C3
  8
┌▓È_1
 62
     5
 10
632.90292611719985
 20
93.718182291700003
 30
0.0
 40
0.8
 50
90.0
 51
180.0
  0
LINE
  5
5C4
  8
┌▓È_1
 62
     5
 10
632.90292611719985
 20
94.518182291699986
 30
0.0
 11
661.30292611719995
 21
94.518182291699986
 31
0.0
  0
ARC
  5
5C5
  8
┌▓È_1
 62
     5
 10
661.30292611719995
 20
93.718182291700003
 30
0.0
 40
0.8
 50
0.0
 51
90.0
  0
LINE
  5
5C6
  8
┌▓È_1
 62
     5
 10
661.30292611719995
 20
80.518182291700015
 30
0.0
 11
656.10292611720001
 21
80.518182291700015
 31
0.0
  0
LINE
  5
5C7
  8
┌▓È_1
 62
     5
 10
662.10292611720001
 20
93.718182291700003
 30
0.0
 11
662.10292611720001
 21
81.318182291699983
 31
0.0
  0
ARC
  5
5C8
  8
┌▓È_1
 62
     5
 10
661.30292611719995
 20
81.318182291699983
 30
0.0
 40
0.8
 50
270.0
 51
0.0
  0
LINE
  5
5C9
  8
┌▓È_1
 62
     5
 10
613.80292611719995
 20
87.918182291700006
 30
0.0
 11
661.30292611719995
 21
87.918182291700006
 31
0.0
  0
LINE
  5
5CA
  8
┌▓È_1
 62
     5
 10
632.10292611720001
 20
88.718182291700003
 30
0.0
 11
661.30292611719995
 21
88.718182291700003
 31
0.0
  0
ENDBLK
  5
5CB
  8
0
  0
BLOCK
  8
0
  2
CLUMP58
 70
     0
 10
0.0
 20
0.0
 30
0.0
  3
CLUMP58
  1

  0
LINE
  5
5DD
  8
┌▓È_1
 62
     5
 10
514.27571997439986
 20
221.11865364580001
 30
0.0
 11
538.97571997440002
 21
221.11865364580001
 31
0.0
  0
LINE
  5
5DE
  8
┌▓È_1
 62
     5
 10
514.27571997439986
 20
221.11865364580001
 30
0.0
 11
514.27571997439986
 21
220.3186536458
 31
0.0
  0
LINE
  5
5DF
  8
┌▓È_1
 62
     5
 10
538.97571997440002
 20
213.8186536458
 30
0.0
 11
525.57571997440004
 21
213.8186536458
 31
0.0
  0
LINE
  5
5E0
  8
┌▓È_1
 62
     5
 10
538.97571997440002
 20
227.7186536458
 30
0.0
 11
538.97571997440002
 21
213.8186536458
 31
0.0
  0
ARC
  5
5E1
  8
┌▓È_1
 62
     5
 10
538.97571997440002
 20
227.7186536458
 30
0.0
 40
0.8
 50
0.0
 51
90.0
  0
LINE
  5
5E2
  8
┌▓È_1
 62
     5
 10
539.77571997439986
 20
213.8186536458
 30
0.0
 11
539.77571997439986
 21
227.7186536458
 31
0.0
  0
ARC
  5
5E3
  8
┌▓È_1
 62
     5
 10
538.97571997440002
 20
213.8186536458
 30
0.0
 40
0.8
 50
270.0
 51
0.0
  0
LINE
  5
5E4
  8
┌▓È_1
 62
     5
 10
525.57571997440004
 20
213.01865364579999
 30
0.0
 11
538.97571997440002
 21
213.01865364579999
 31
0.0
  0
LINE
  5
5E5
  8
┌▓È_1
 62
     5
 10
524.77571997439998
 20
219.51865364579999
 30
0.0
 11
524.77571997439998
 21
213.8186536458
 31
0.0
  0
ARC
  5
5E6
  8
┌▓È_1
 62
     5
 10
525.57571997440004
 20
213.8186536458
 30
0.0
 40
0.8
 50
180.0
 51
270.0
  0
LINE
  5
5E7
  8
┌▓È_1
 62
     5
 10
525.57571997440004
 20
213.8186536458
 30
0.0
 11
525.57571997440004
 21
219.51865364579999
 31
0.0
  0
LINE
  5
5E8
  8
┌▓È_1
 62
     5
 10
533.77571997439986
 20
227.7186536458
 30
0.0
 11
538.97571997440002
 21
227.7186536458
 31
0.0
  0
LINE
  5
5E9
  8
┌▓È_1
 62
     5
 10
533.77571997439986
 20
228.51865364579999
 30
0.0
 11
533.77571997439986
 21
227.7186536458
 31
0.0
  0
LINE
  5
5EA
  8
┌▓È_1
 62
     5
 10
515.77571997439998
 20
227.7186536458
 30
0.0
 11
515.77571997439998
 21
221.11865364580001
 31
0.0
  0
LINE
  5
5EB
  8
┌▓È_1
 62
     5
 10
524.77571997439998
 20
220.3186536458
 30
0.0
 11
538.97571997440002
 21
220.3186536458
 31
0.0
  0
LINE
  5
5EC
  8
┌▓È_1
 62
     5
 10
515.77571997439998
 20
227.7186536458
 30
0.0
 11
515.77571997439998
 21
228.51865364579999
 31
0.0
  0
LINE
  5
5ED
  8
┌▓È_1
 62
     5
 10
538.97571997440002
 20
228.51865364579999
 30
0.0
 11
533.77571997439986
 21
228.51865364579999
 31
0.0
  0
ARC
  5
5EE
  8
┌▓È_1
 62
     5
 10
524.77571997439998
 20
219.51865364579999
 30
0.0
 40
0.8
 50
0.0
 51
90.0
  0
ARC
  5
5EF
  8
┌▓È_1
 62
     5
 10
510.57571997439999
 20
220.3186536458
 30
0.0
 40
0.8
 50
180.0
 51
270.0
  0
LINE
  5
5F0
  8
┌▓È_1
 62
     5
 10
510.57571997439999
 20
220.3186536458
 30
0.0
 11
510.57571997439999
 21
227.7186536458
 31
0.0
  0
ARC
  5
5F1
  8
┌▓È_1
 62
     5
 10
510.57571997439999
 20
227.7186536458
 30
0.0
 40
0.8
 50
90.0
 51
180.0
  0
LINE
  5
5F2
  8
┌▓È_1
 62
     5
 10
509.77571997439998
 20
227.7186536458
 30
0.0
 11
509.77571997439998
 21
220.3186536458
 31
0.0
  0
LINE
  5
5F3
  8
┌▓È_1
 62
     5
 10
510.57571997439999
 20
227.7186536458
 30
0.0
 11
515.77571997439998
 21
227.7186536458
 31
0.0
  0
LINE
  5
5F4
  8
┌▓È_1
 62
     5
 10
515.77571997439998
 20
228.51865364579999
 30
0.0
 11
510.57571997439999
 21
228.51865364579999
 31
0.0
  0
LINE
  5
5F5
  8
┌▓È_1
 62
     5
 10
524.77571997439998
 20
220.3186536458
 30
0.0
 11
510.57571997439999
 21
220.3186536458
 31
0.0
  0
LINE
  5
5F6
  8
┌▓È_1
 62
     5
 10
510.57571997439999
 20
219.51865364579999
 30
0.0
 11
524.77571997439998
 21
219.51865364579999
 31
0.0
  0
ENDBLK
  5
5F7
  8
0
  0
BLOCK
  8
0
  2
CLUMP59
 70
     0
 10
0.0
 20
0.0
 30
0.0
  3
CLUMP59
  1

  0
LINE
  5
5FB
  8
┌▓È_1
 62
     5
 10
514.27571997439986
 20
87.917710937500004
 30
0.0
 11
538.97571997440002
 21
87.917710937500004
 31
0.0
  0
LINE
  5
5FC
  8
┌▓È_1
 62
     5
 10
514.27571997439986
 20
87.917710937500004
 30
0.0
 11
514.27571997439986
 21
88.717710937500001
 31
0.0
  0
ARC
  5
5FD
  8
┌▓È_1
 62
     5
 10
524.77571997439998
 20
89.517710937499999
 30
0.0
 40
0.8
 50
270.0
 51
0.0
  0
LINE
  5
5FE
  8
┌▓È_1
 62
     5
 10
533.77571997439986
 20
81.317710937499996
 30
0.0
 11
538.97571997440002
 21
81.317710937499996
 31
0.0
  0
LINE
  5
5FF
  8
┌▓È_1
 62
     5
 10
533.77571997439986
 20
80.517710937499999
 30
0.0
 11
533.77571997439986
 21
81.317710937499996
 31
0.0
  0
LINE
  5
600
  8
┌▓È_1
 62
     5
 10
515.77571997439998
 20
81.317710937499996
 30
0.0
 11
515.77571997439998
 21
80.517710937499999
 31
0.0
  0
LINE
  5
601
  8
┌▓È_1
 62
     5
 10
525.57571997440004
 20
96.017710937499999
 30
0.0
 11
538.97571997440002
 21
96.017710937499999
 31
0.0
  0
LINE
  5
602
  8
┌▓È_1
 62
     5
 10
524.77571997439998
 20
89.517710937499999
 30
0.0
 11
524.77571997439998
 21
95.217710937500001
 31
0.0
  0
ARC
  5
603
  8
┌▓È_1
 62
     5
 10
525.57571997440004
 20
95.217710937500001
 30
0.0
 40
0.8
 50
90.0
 51
180.0
  0
LINE
  5
604
  8
┌▓È_1
 62
     5
 10
525.57571997440004
 20
95.217710937500001
 30
0.0
 11
525.57571997440004
 21
89.517710937499999
 31
0.0
  0
LINE
  5
605
  8
┌▓È_1
 62
     5
 10
538.97571997440002
 20
81.317710937499996
 30
0.0
 11
538.97571997440002
 21
95.217710937500001
 31
0.0
  0
LINE
  5
606
  8
┌▓È_1
 62
     5
 10
538.97571997440002
 20
80.517710937499999
 30
0.0
 11
533.77571997439986
 21
80.517710937499999
 31
0.0
  0
ARC
  5
607
  8
┌▓È_1
 62
     5
 10
538.97571997440002
 20
81.317710937499996
 30
0.0
 40
0.8
 50
270.0
 51
0.0
  0
LINE
  5
608
  8
┌▓È_1
 62
     5
 10
539.77571997439986
 20
95.217710937500001
 30
0.0
 11
539.77571997439986
 21
81.317710937499996
 31
0.0
  0
ARC
  5
609
  8
┌▓È_1
 62
     5
 10
538.97571997440002
 20
95.217710937500001
 30
0.0
 40
0.8
 50
0.0
 51
90.0
  0
LINE
  5
60A
  8
┌▓È_1
 62
     5
 10
515.77571997439998
 20
81.317710937499996
 30
0.0
 11
515.77571997439998
 21
87.917710937500004
 31
0.0
  0
LINE
  5
60B
  8
┌▓È_1
 62
     5
 10
524.77571997439998
 20
88.717710937500001
 30
0.0
 11
538.97571997440002
 21
88.717710937500001
 31
0.0
  0
LINE
  5
60C
  8
┌▓È_1
 62
     5
 10
538.97571997440002
 20
95.217710937500001
 30
0.0
 11
525.57571997440004
 21
95.217710937500001
 31
0.0
  0
LINE
  5
60D
  8
┌▓È_1
 62
     5
 10
510.57571997439999
 20
88.717710937500001
 30
0.0
 11
510.57571997439999
 21
81.317710937499996
 31
0.0
  0
ARC
  5
60E
  8
┌▓È_1
 62
     5
 10
510.57571997439999
 20
81.317710937499996
 30
0.0
 40
0.8
 50
180.0
 51
270.0
  0
LINE
  5
60F
  8
┌▓È_1
 62
     5
 10
509.77571997439998
 20
81.317710937499996
 30
0.0
 11
509.77571997439998
 21
88.717710937500001
 31
0.0
  0
ARC
  5
610
  8
┌▓È_1
 62
     5
 10
510.57571997439999
 20
88.717710937500001
 30
0.0
 40
0.8
 50
90.0
 51
180.0
  0
LINE
  5
611
  8
┌▓È_1
 62
     5
 10
510.57571997439999
 20
89.517710937499999
 30
0.0
 11
524.77571997439998
 21
89.517710937499999
 31
0.0
  0
LINE
  5
612
  8
┌▓È_1
 62
     5
 10
510.57571997439999
 20
81.317710937499996
 30
0.0
 11
515.77571997439998
 21
81.317710937499996
 31
0.0
  0
LINE
  5
613
  8
┌▓È_1
 62
     5
 10
515.77571997439998
 20
80.517710937499999
 30
0.0
 11
510.57571997439999
 21
80.517710937499999
 31
0.0
  0
LINE
  5
614
  8
┌▓È_1
 62
     5
 10
524.77571997439998
 20
88.717710937500001
 30
0.0
 11
510.57571997439999
 21
88.717710937500001
 31
0.0
  0
ENDBLK
  5
615
  8
0
  0
BLOCK
  8
0
  2
*D104
 70
     1
 10
0.0
 20
0.0
 30
0.0
  3
*D104
  1

  0
TEXT
  5
618
  8
0
 62
     0
 10
680.77158742539984
 20
215.69734908550001
 30
0.0
 40
9.8954164504999991
  1
14
 50
90.0
  0
LINE
  5
619
  8
0
 62
     0
 10
662.10292611720001
 20
214.51818229169999
 30
0.0
 11
685.51783738730001
 21
214.51818229169999
 31
0.0
  0
LINE
  5
61A
  8
0
 62
     0
 10
662.10292611720001
 20
228.51818229169999
 30
0.0
 11
685.51783738730001
 21
228.51818229169999
 31
0.0
  0
LINE
  5
61B
  8
0
 62
     0
 10
683.51783738730001
 20
214.51818229169999
 30
0.0
 11
683.51783738730001
 21
214.51818229169999
 31
0.0
  0
LINE
  5
61C
  8
0
 62
     0
 10
683.51783738730001
 20
214.51818229169999
 30
0.0
 11
683.51783738730001
 21
228.51818229169999
 31
0.0
  0
LINE
  5
61D
  8
0
 62
     0
 10
683.51783738730001
 20
228.51818229169999
 30
0.0
 11
683.51783738730001
 21
214.51818229169999
 31
0.0
  0
LINE
  5
61E
  8
0
 62
     0
 10
683.51783738730001
 20
228.51818229169999
 30
0.0
 11
683.51783738730001
 21
228.51818229169999
 31
0.0
  0
LINE
  5
61F
  8
0
 62
     0
 10
683.51783738730001
 20
228.51818229169999
 30
0.0
 11
683.51783738730001
 21
233.51818229169999
 31
0.0
  0
SOLID
  5
620
  8
0
 62
     0
 10
683.51783738730001
 20
228.51818229169999
 30
0.0
 11
681.26783738730001
 21
237.51818229169999
 31
0.0
 12
685.76783738730001
 22
237.51818229169999
 32
0.0
 13
683.51783738730001
 23
235.26818229169999
 33
0.0
  0
LINE
  5
621
  8
0
 62
     0
 10
683.51783738730001
 20
214.51818229169999
 30
0.0
 11
683.51783738730001
 21
209.51818229169999
 31
0.0
  0
SOLID
  5
622
  8
0
 62
     0
 10
683.51783738730001
 20
214.51818229169999
 30
0.0
 11
685.76783738730001
 21
205.51818229169999
 31
0.0
 12
681.26783738730001
 22
205.51818229169999
 32
0.0
 13
683.51783738730001
 23
207.76818229169999
 33
0.0
  0
ENDBLK
  5
623
  8
0
  0
BLOCK
  8
0
  2
*D105
 70
     1
 10
0.0
 20
0.0
 30
0.0
  3
*D105
  1

  0
TEXT
  5
627
  8
0
 62
     0
 10
613.78209291099995
 20
268.43595630139998
 30
0.0
 40
9.8954164504999991
  1
25
  0
LINE
  5
628
  8
0
 62
     0
 10
632.10292611720001
 20
219.51818229169999
 30
0.0
 11
632.10292611720001
 21
267.68970633949999
 31
0.0
  0
LINE
  5
629
  8
0
 62
     0
 10
607.10292611720001
 20
228.51818229169999
 30
0.0
 11
607.10292611720001
 21
267.68970633949999
 31
0.0
  0
LINE
  5
62A
  8
0
 62
     0
 10
632.10292611720001
 20
265.68970633949999
 30
0.0
 11
631.24459252949998
 21
265.68970633949999
 31
0.0
  0
LINE
  5
62B
  8
0
 62
     0
 10
632.10292611720001
 20
265.68970633949999
 30
0.0
 11
607.9612597048
 21
265.68970633949999
 31
0.0
  0
LINE
  5
62C
  8
0
 62
     0
 10
607.10292611720001
 20
265.68970633949999
 30
0.0
 11
631.24459252949998
 21
265.68970633949999
 31
0.0
  0
LINE
  5
62D
  8
0
 62
     0
 10
607.10292611720001
 20
265.68970633949999
 30
0.0
 11
607.9612597048
 21
265.68970633949999
 31
0.0
  0
LINE
  5
62E
  8
0
 62
     0
 10
607.10292611720001
 20
265.68970633949999
 30
0.0
 11
602.1029261171999
 21
265.68970633949999
 31
0.0
  0
SOLID
  5
62F
  8
0
 62
     0
 10
607.10292611720001
 20
265.68970633949999
 30
0.0
 11
598.1029261171999
 21
263.43970633949999
 31
0.0
 12
598.1029261171999
 22
267.93970633949999
 32
0.0
 13
600.3529261171999
 23
265.68970633949999
 33
0.0
  0
LINE
  5
630
  8
0
 62
     0
 10
632.10292611720001
 20
265.68970633949999
 30
0.0
 11
637.10292611720001
 21
265.68970633949999
 31
0.0
  0
SOLID
  5
631
  8
0
 62
     0
 10
632.10292611720001
 20
265.68970633949999
 30
0.0
 11
641.10292611720001
 21
267.93970633949999
 31
0.0
 12
641.10292611720001
 22
263.43970633949999
 32
0.0
 13
638.85292611720001
 23
265.68970633949999
 33
0.0
  0
ENDBLK
  5
632
  8
0
  0
BLOCK
  8
0
  2
CLUMP60
 70
     0
 10
0.0
 20
0.0
 30
0.0
  3
CLUMP60
  1

  0
ARC
  5
644
  8
┌▓È_1
 10
380.5288605994001
 20
121.5181822917
 30
0.0
 40
3.5
 50
270.0
 51
90.0
  0
LINE
  5
645
  8
┌▓È_1
 10
365.52886059939999
 20
125.0181822917
 30
0.0
 11
380.5288605994001
 21
125.0181822917
 31
0.0
  0
LINE
  5
646
  8
┌▓È_1
 10
380.5288605994001
 20
118.0181822917
 30
0.0
 11
365.52886059939999
 21
118.0181822917
 31
0.0
  0
ARC
  5
647
  8
┌▓È_1
 10
365.52886059939999
 20
121.5181822917
 30
0.0
 40
3.5
 50
90.0
 51
270.0
  0
ARC
  5
648
  8
┌▓È_1
 10
380.5288605994001
 20
108.5181822917
 30
0.0
 40
3.5
 50
270.0
 51
90.0
  0
LINE
  5
649
  8
┌▓È_1
 10
365.52886059939999
 20
112.0181822917
 30
0.0
 11
380.5288605994001
 21
112.0181822917
 31
0.0
  0
LINE
  5
64A
  8
┌▓È_1
 10
380.5288605994001
 20
105.0181822917
 30
0.0
 11
365.52886059939999
 21
105.0181822917
 31
0.0
  0
ARC
  5
64B
  8
┌▓È_1
 10
365.52886059939999
 20
108.5181822917
 30
0.0
 40
3.5
 50
90.0
 51
270.0
  0
ENDBLK
  5
64C
  8
0
  0
BLOCK
  8
0
  2
CLUMP61
 70
     0
 10
0.0
 20
0.0
 30
0.0
  3
CLUMP61
  1

  0
LINE
  5
659
  8
┌▓È_1
 62
     5
 10
512.77572033080003
 20
90.018182291700001
 30
0.0
 11
524.77571997439998
 21
90.018182291700001
 31
0.0
  0
ARC
  5
65A
  8
┌▓È_1
 62
     5
 10
512.77571997439986
 20
92.018182291699986
 30
0.0
 40
2.0
 50
180.0
 51
270.00001020809998
  0
LINE
  5
65B
  8
┌▓È_1
 62
     5
 10
512.77571997439986
 20
92.018182291699986
 30
0.0
 11
524.77571997439998
 21
92.018182291699986
 31
0.0
  0
LINE
  5
65C
  8
┌▓È_1
 62
     5
 10
512.77571997439986
 20
92.018182291699986
 30
0.0
 11
512.77571997439986
 21
217.01818229169999
 31
0.0
  0
LINE
  5
65D
  8
┌▓È_1
 62
     5
 10
524.77571997439998
 20
90.018182291700001
 30
0.0
 11
524.77571997439998
 21
219.01818229169999
 31
0.0
  0
LINE
  5
65E
  8
┌▓È_1
 62
     5
 10
512.77571997439986
 20
219.01818229169999
 30
0.0
 11
524.77571997439998
 21
219.01818229169999
 31
0.0
  0
LINE
  5
65F
  8
┌▓È_1
 62
     5
 10
510.77571997439998
 20
217.01818094230001
 30
0.0
 11
510.77571997439998
 21
92.018182291699986
 31
0.0
  0
ARC
  5
660
  8
┌▓È_1
 62
     5
 10
512.77571997439986
 20
217.01818229169999
 30
0.0
 40
2.0
 50
90.0
 51
180.0000386554
  0
LINE
  5
661
  8
┌▓È_1
 62
     5
 10
512.77571997439986
 20
217.01818229169999
 30
0.0
 11
524.77571997439998
 21
217.01818229169999
 31
0.0
  0
ENDBLK
  5
662
  8
0
  0
BLOCK
  8
0
  2
CLUMP62
 70
     0
 10
0.0
 20
0.0
 30
0.0
  3
CLUMP62
  1

  0
ARC
  5
67C
  8
┌▓È_1
 10
380.5288605994001
 20
189.06274479169991
 30
0.0
 40
3.5
 50
270.0
 51
90.0
  0
LINE
  5
67D
  8
┌▓È_1
 10
365.52886059939999
 20
185.56274479169991
 30
0.0
 11
380.5288605994001
 21
185.56274479169991
 31
0.0
  0
LINE
  5
67E
  8
┌▓È_1
 10
380.5288605994001
 20
192.56274479169991
 30
0.0
 11
365.52886059939999
 21
192.56274479169991
 31
0.0
  0
ARC
  5
67F
  8
┌▓È_1
 10
365.52886059939999
 20
189.06274479169991
 30
0.0
 40
3.5
 50
90.0
 51
270.0
  0
ARC
  5
680
  8
┌▓È_1
 10
380.5288605994001
 20
202.0627447917
 30
0.0
 40
3.5
 50
270.0
 51
90.0
  0
LINE
  5
681
  8
┌▓È_1
 10
365.52886059939999
 20
198.5627447917
 30
0.0
 11
380.5288605994001
 21
198.5627447917
 31
0.0
  0
LINE
  5
682
  8
┌▓È_1
 10
380.5288605994001
 20
205.5627447917
 30
0.0
 11
365.52886059939999
 21
205.5627447917
 31
0.0
  0
ARC
  5
683
  8
┌▓È_1
 10
365.52886059939999
 20
202.0627447917
 30
0.0
 40
3.5
 50
90.0
 51
270.0
  0
ENDBLK
  5
684
  8
0
  0
BLOCK
  8
0
  2
*U109
 70
     1
 10
0.0
 20
0.0
 30
0.0
  3
*U109
  1

  0
TEXT
  5
6D4
  8
┌▓È_1
  6
CONTINUOUS
 10
-239.77103774133809
 20
35.012950977100012
 30
0.0
 40
9.8954164504999991
  1
1
  0
ENDBLK
  5
6D6
  8
0
  0
BLOCK
  8
0
  2
*U110
 70
     1
 10
0.0
 20
0.0
 30
0.0
  3
*U110
  1

  0
TEXT
  5
6D8
  8
┌▓È_1
  6
CONTINUOUS
 10
-156.73851777916639
 20
35.012950977100012
 30
0.0
 40
9.8954164504999991
  1
3
  0
ENDBLK
  5
6DA
  8
0
  0
BLOCK
  8
0
  2
*U111
 70
     1
 10
0.0
 20
0.0
 30
0.0
  3
*U111
  1

  0
TEXT
  5
6DC
  8
┌▓È_1
  6
CONTINUOUS
 10
-139.96676061258529
 20
-121.8410096512147
 30
0.0
 40
8.9958330630999992
  1
29-Å¼ö╗îè
  0
ENDBLK
  5
6DE
  8
0
  0
BLOCK
  8
0
  2
*U112
 70
     1
 10
0.0
 20
0.0
 30
0.0
  3
*U112
  1

  0
TEXT
  5
6E0
  8
É}ÿg
  6
CONTINUOUS
 10
734.26036481920983
 20
-453.84408312620002
 30
0.0
 40
11.694583225300001
  1
SHF00035
  0
ENDBLK
  5
6E2
  8
0
  0
BLOCK
  8
0
  2
*U113
 70
     1
 10
0.0
 20
0.0
 30
0.0
  3
*U113
  1

  0
TEXT
  5
6E4
  8
É}ÿg
  6
CONTINUOUS
 10
727.90848459023982
 20
-421.43771679245879
 30
0.0
 40
11.694583225300001
  1
FM15-90(D)
  0
ENDBLK
  5
6E6
  8
0
  0
BLOCK
  8
0
  2
*U114
 70
     1
 10
0.0
 20
0.0
 30
0.0
  3
*U114
  1

  0
TEXT
  5
6E8
  8
É}ÿg
  6
CONTINUOUS
 10
675.49063185958039
 20
-388.4377167924589
 30
0.0
 40
11.694583225300001
  1
ânâCéãü[éÚ(É¾î^ üEÉ[î^ )
  0
ENDBLK
  5
6EA
  8
0
  0
BLOCK
  8
0
  2
*U115
 70
     1
 10
0.0
 20
0.0
 30
0.0
  3
*U115
  1

  0
TEXT
  5
6EC
  8
É}ÿg
  6
CONTINUOUS
 10
513.52861024769948
 20
-317.20283296399998
 30
0.0
 40
8.9958330630999992
  1
Ä¿
  0
ENDBLK
  5
6EE
  8
0
  0
BLOCK
  8
0
  2
*U116
 70
     1
 10
0.0
 20
0.0
 30
0.0
  3
*U116
  1

  0
TEXT
  5
6F0
  8
É}ÿg
  6
CONTINUOUS
 10
630.47261486756372
 20
-317.20283296399998
 30
0.0
 40
8.9958330630999992
  1
SUS304 0.8t
  0
ENDBLK
  5
6F2
  8
0
  0
BLOCK
  8
0
  2
*U117
 70
     1
 10
0.0
 20
0.0
 30
0.0
  3
*U117
  1

  0
TEXT
  5
6F4
  8
É}ÿg
  6
CONTINUOUS
 10
742.12916009999685
 20
-317.20283296399998
 30
0.0
 40
8.9958330630999992
  1
2
  0
ENDBLK
  5
6F6
  8
0
  0
BLOCK
  8
0
  2
*U118
 70
     1
 10
0.0
 20
0.0
 30
0.0
  3
*U118
  1

  0
TEXT
  5
6F8
  8
É}ÿg
  6
CONTINUOUS
 10
496.79270762015562
 20
-302.65947423623862
 30
0.0
 40
8.9958330630999992
  1
èW(û┌ÄM)
  0
ENDBLK
  5
6FA
  8
0
  0
BLOCK
  8
0
  2
*U119
 70
     1
 10
0.0
 20
0.0
 30
0.0
  3
*U119
  1

  0
TEXT
  5
6FC
  8
É}ÿg
  6
CONTINUOUS
 10
630.47261486756372
 20
-302.20283296399998
 30
0.0
 40
8.9958330630999992
  1
SUS304 2.0t
  0
ENDBLK
  5
6FE
  8
0
  0
BLOCK
  8
0
  2
*U120
 70
     1
 10
0.0
 20
0.0
 30
0.0
  3
*U120
  1

  0
TEXT
  5
700
  8
É}ÿg
  6
CONTINUOUS
 10
742.12916009999685
 20
-302.20283296399998
 30
0.0
 40
8.9958330630999992
  1
2
  0
ENDBLK
  5
702
  8
0
  0
BLOCK
  8
0
  2
*U121
 70
     1
 10
0.0
 20
0.0
 30
0.0
  3
*U121
  1

  0
TEXT
  5
704
  8
É}ÿg
  6
CONTINUOUS
 10
680.29891309545314
 20
363.74877306951231
 30
0.0
 40
8.0962498784000001
  1
ë³ü@Æ¨ü@ôÓü@ùe
  0
ENDBLK
  5
706
  8
0
  0
BLOCK
  8
0
  2
*U122
 70
     1
 10
0.0
 20
0.0
 30
0.0
  3
*U122
  1

  0
TEXT
  5
708
  8
É}ÿg
  6
CONTINUOUS
 10
602.07380808799735
 20
363.83096849974982
 30
0.0
 40
8.0962498784000001
  1
ë³Æ¨ô·
  0
ENDBLK
  5
70A
  8
0
  0
BLOCK
  8
0
  2
*U123
 70
     1
 10
0.0
 20
0.0
 30
0.0
  3
*U123
  1

  0
TEXT
  5
70C
  8
É}ÿg
  6
CONTINUOUS
 10
571.3754133383203
 20
363.91316392998738
 30
0.0
 40
8.0962498784000001
  1
òøöÈ
  0
ENDBLK
  5
70E
  8
0
  0
BLOCK
  8
0
  2
*U124
 70
     1
 10
0.0
 20
0.0
 30
0.0
  3
*U124
  1

  0
TEXT
  5
710
  8
É}ÿg
  6
CONTINUOUS
 10
432.82551092540001
 20
-456.07114939031322
 30
0.0
 40
16.1924997568
  1
èöÄ«ë´Äð
  0
ENDBLK
  5
712
  8
0
  0
BLOCK
  8
0
  2
*U125
 70
     1
 10
0.0
 20
0.0
 30
0.0
  3
*U125
  1

  0
TEXT
  5
714
  8
É}ÿg
  6
CONTINUOUS
 10
821.38204095138815
 20
363.70767535439347
 30
0.0
 40
8.0962498784000001
  1
îƒöFÄÊ
  0
ENDBLK
  5
716
  8
0
  0
BLOCK
  8
0
  2
*U126
 70
     1
 10
0.0
 20
0.0
 30
0.0
  3
*U126
  1

  0
TEXT
  5
718
  8
É}ÿg
  6
CONTINUOUS
 10
645.60127337543531
 20
-443.06881772734312
 30
0.0
 40
8.9958330630999992
  1
É} öÈ
  0
ENDBLK
  5
71A
  8
0
  0
BLOCK
  8
0
  2
*U127
 70
     1
 10
0.0
 20
0.0
 30
0.0
  3
*U127
  1

  0
TEXT
  5
71C
  8
É}ÿg
  6
CONTINUOUS
 10
642.47328066060095
 20
-377.25147423623849
 30
0.0
 40
8.9958330630999992
  1
É╗òiû╝
  0
ENDBLK
  5
71E
  8
0
  0
BLOCK
  8
0
  2
*U128
 70
     1
 10
0.0
 20
0.0
 30
0.0
  3
*U128
  1

  0
TEXT
  5
720
  8
É}ÿg
  6
CONTINUOUS
 10
642.72443336033234
 20
-410.16014598179078
 30
0.0
 40
8.9958330630999992
  1
É}û╩û╝
  0
ENDBLK
  5
722
  8
0
  0
BLOCK
  8
0
  2
*U129
 70
     1
 10
0.0
 20
0.0
 30
0.0
  3
*U129
  1

  0
TEXT
  5
724
  8
É}ÿg
  6
CONTINUOUS
 10
432.11005111126008
 20
-378.20639984199551
 30
0.0
 40
8.9958330630999992
  1
ô·ü@ü@òt
  0
ENDBLK
  5
726
  8
0
  0
BLOCK
  8
0
  2
*U130
 70
     1
 10
0.0
 20
0.0
 30
0.0
  3
*U130
  1

  0
TEXT
  5
728
  8
É}ÿg
  6
CONTINUOUS
 10
506.15110443955911
 20
-378.4803846053386
 30
0.0
 40
8.9958330630999992
  1
Ä┌ü@ü@ôx
  0
ENDBLK
  5
72A
  8
0
  0
BLOCK
  8
0
  2
*U131
 70
     1
 10
0.0
 20
0.0
 30
0.0
  3
*U131
  1

  0
TEXT
  5
72C
  8
É}ÿg
  6
CONTINUOUS
 10
791.5053340967446
 20
363.74877306951231
 30
0.0
 40
8.0962498784000001
  1
ë³Æ¨ÄÊ
  0
ENDBLK
  5
72E
  8
0
  0
BLOCK
  8
0
  2
*U132
 70
     1
 10
0.0
 20
0.0
 30
0.0
  3
*U132
  1

  0
TEXT
  5
730
  8
É}ÿg
  6
CONTINUOUS
 10
419.04660958137413
 20
-347.47681772734319
 30
0.0
 40
8.9958330630999992
  1
òiöÈ
  0
ENDBLK
  5
732
  8
0
  0
BLOCK
  8
0
  2
*U133
 70
     1
 10
0.0
 20
0.0
 30
0.0
  3
*U133
  1

  0
TEXT
  5
734
  8
É}ÿg
  6
CONTINUOUS
 10
416.50600011509988
 20
-427.98038460533849
 30
0.0
 40
8.9958330630999992
  1
 É╗É}
  0
ENDBLK
  5
736
  8
0
  0
BLOCK
  8
0
  2
*U134
 70
     1
 10
0.0
 20
0.0
 30
0.0
  3
*U134
  1

  0
TEXT
  5
738
  8
É}ÿg
  6
CONTINUOUS
 10
416.50600011509988
 20
-411.38905635089083
 30
0.0
 40
8.9958330630999992
  1
 É¦îv
  0
ENDBLK
  5
73A
  8
0
  0
BLOCK
  8
0
  2
*U135
 70
     1
 10
0.0
 20
0.0
 30
0.0
  3
*U135
  1

  0
TEXT
  5
73C
  8
É}ÿg
  6
CONTINUOUS
 10
529.00600011510005
 20
-428.0260487325624
 30
0.0
 40
8.9958330630999992
  1
 îƒÉ}
  0
ENDBLK
  5
73E
  8
0
  0
BLOCK
  8
0
  2
*U136
 70
     1
 10
0.0
 20
0.0
 30
0.0
  3
*U136
  1

  0
TEXT
  5
740
  8
É}ÿg
  6
CONTINUOUS
 10
529.00600011510005
 20
-411.43472047811468
 30
0.0
 40
8.9958330630999992
  1
 Åãì©
  0
ENDBLK
  5
742
  8
0
  0
BLOCK
  8
0
  2
*U137
 70
     1
 10
0.0
 20
0.0
 30
0.0
  3
*U137
  1

  0
TEXT
  5
744
  8
É}ÿg
  6
CONTINUOUS
 10
733.74979275441888
 20
-347.65947423623862
 30
0.0
 40
8.9958330630999992
  1
Éöù╩
  0
ENDBLK
  5
746
  8
0
  0
BLOCK
  8
0
  2
*U138
 70
     1
 10
0.0
 20
0.0
 30
0.0
  3
*U138
  1

  0
TEXT
  5
748
  8
É}ÿg
  6
CONTINUOUS
 10
777.28787489021806
 20
-347.7964666179102
 30
0.0
 40
8.9958330630999992
  1
ö§ü@ü@ü@ìl
  0
ENDBLK
  5
74A
  8
0
  0
BLOCK
  8
0
  2
*U139
 70
     1
 10
0.0
 20
0.0
 30
0.0
  3
*U139
  1

  0
TEXT
  5
74C
  8
É}ÿg
  6
CONTINUOUS
 10
633.71476790045756
 20
-347.5224818545671
 30
0.0
 40
8.9958330630999992
  1
ìÌü@ü@ü@Ä┐
  0
ENDBLK
  5
74E
  8
0
  0
BLOCK
  8
0
  2
*U140
 70
     1
 10
0.0
 20
0.0
 30
0.0
  3
*U140
  1

  0
TEXT
  5
750
  8
É}ÿg
  6
CONTINUOUS
 10
490.05724885463661
 20
-347.56814598179091
 30
0.0
 40
8.9958330630999992
  1
òiü@ü@ü@û╝
  0
ENDBLK
  5
752
  8
0
  0
BLOCK
  8
0
  2
*U141
 70
     1
 10
0.0
 20
0.0
 30
0.0
  3
*U141
  1

  0
TEXT
  5
754
  8
É}ÿg
  6
CONTINUOUS
 10
471.13425780561568
 20
-428.0260487325624
 30
0.0
 40
8.9958330630999992
  1
öÆÉ{ëÛ
  0
ENDBLK
  5
756
  8
0
  0
BLOCK
  8
0
  2
*U142
 70
     1
 10
0.0
 20
0.0
 30
0.0
  3
*U142
  1

  0
TEXT
  5
758
  8
É}ÿg
  6
CONTINUOUS
 10
471.13425780561568
 20
-411.5260487325624
 30
0.0
 40
8.9958330630999992
  1
öÆÉ{ëÛ
  0
ENDBLK
  5
75A
  8
0
  0
BLOCK
  8
0
  2
*U143
 70
     1
 10
0.0
 20
0.0
 30
0.0
  3
*U143
  1

  0
TEXT
  5
75C
  8
É}ÿg
  6
CONTINUOUS
 10
586.10012067570415
 20
-427.98038460533849
 30
0.0
 40
8.9958330630999992
  1
û÷ î┤
  0
ENDBLK
  5
75E
  8
0
  0
BLOCK
  8
0
  2
*U144
 70
     1
 10
0.0
 20
0.0
 30
0.0
  3
*U144
  1

  0
TEXT
  5
760
  8
É}ÿg
  6
CONTINUOUS
 10
586.10012067570415
 20
-411.48038460533849
 30
0.0
 40
8.9958330630999992
  1
û÷ î┤
  0
ENDBLK
  5
762
  8
0
  0
BLOCK
  8
0
  2
*U145
 70
     1
 10
0.0
 20
0.0
 30
0.0
  3
*U145
  1

  0
TEXT
  5
764
  8
É}ÿg
  6
CONTINUOUS
 10
436.5851355791981
 20
-394.54524536420001
 30
0.0
 40
8.9958330630999992
  1
H09.07
  0
ENDBLK
  5
766
  8
0
  0
BLOCK
  8
0
  2
*U146
 70
     1
 10
0.0
 20
0.0
 30
0.0
  3
*U146
  1

  0
TEXT
  5
768
  8
É}ÿg
  6
CONTINUOUS
 10
427.12916009999691
 20
-317.20283296399998
 30
0.0
 40
8.9958330630999992
  1
2
  0
ENDBLK
  5
76A
  8
0
  0
BLOCK
  8
0
  2
*U147
 70
     1
 10
0.0
 20
0.0
 30
0.0
  3
*U147
  1

  0
TEXT
  5
76C
  8
É}ÿg
  6
CONTINUOUS
 10
427.65429756307128
 20
-332.20283296400009
 30
0.0
 40
8.9958330630999992
  1
1
  0
ENDBLK
  5
76E
  8
0
  0
BLOCK
  8
0
  2
*U148
 70
     1
 10
0.0
 20
0.0
 30
0.0
  3
*U148
  1

  0
TEXT
  5
770
  8
É}ÿg
  6
CONTINUOUS
 10
742.12916009999685
 20
-332.20283296400009
 30
0.0
 40
8.9958330630999992
  1
2
  0
ENDBLK
  5
772
  8
0
  0
BLOCK
  8
0
  2
*U149
 70
     1
 10
0.0
 20
0.0
 30
0.0
  3
*U149
  1

  0
TEXT
  5
774
  8
É}ÿg
  6
CONTINUOUS
 10
427.17482422722082
 20
-302.20283296399998
 30
0.0
 40
8.9958330630999992
  1
3
  0
ENDBLK
  5
776
  8
0
  0
BLOCK
  8
0
  2
*U150
 70
     1
 10
0.0
 20
0.0
 30
0.0
  3
*U150
  1

  0
TEXT
  5
778
  8
ë³Æ¨
  6
CONTINUOUS
 10
797.34120964361148
 20
349.1597502207
 30
0.0
 40
8.0962498784000001
  1
üûüû
  0
ENDBLK
  5
77A
  8
0
  0
BLOCK
  8
0
  2
*U151
 70
     1
 10
0.0
 20
0.0
 30
0.0
  3
*U151
  1

  0
TEXT
  5
77C
  8
ë³Æ¨
  6
CONTINUOUS
 10
658.64041722785532
 20
349.16725022070011
 30
0.0
 40
8.0962498784000001
  1
**********************
  0
ENDBLK
  5
77E
  8
0
  0
BLOCK
  8
0
  2
*U152
 70
     1
 10
0.0
 20
0.0
 30
0.0
  3
*U152
  1

  0
TEXT
  5
780
  8
ë³Æ¨
  6
CONTINUOUS
 10
578.53661162203025
 20
347.34657341890011
 30
0.0
 40
8.0962499027000003
  1
1
  0
ENDBLK
  5
782
  8
0
  0
BLOCK
  8
0
  2
*U153
 70
     1
 10
0.0
 20
0.0
 30
0.0
  3
*U153
  1

  0
TEXT
  5
784
  8
ë³Æ¨
  6
CONTINUOUS
 10
593.68987420376595
 20
349.1597502207
 30
0.0
 40
8.0962498784000001
  1
H**.**.**
  0
ENDBLK
  5
786
  8
0
  0
BLOCK
  8
0
  2
*U154
 70
     1
 10
0.0
 20
0.0
 30
0.0
  3
*U154
  1

  0
TEXT
  5
788
  8
É}ÿg
  6
CONTINUOUS
 10
514.96428099376374
 20
-395.04755076366251
 30
0.0
 40
8.9958330630999992
  1
ù¬ Ä┌
  0
ENDBLK
  5
78A
  8
0
  0
BLOCK
  8
0
  2
*U155
 70
     1
 10
0.0
 20
0.0
 30
0.0
  3
*U155
  1

  0
TEXT
  5
78C
  8
É}ÿg
  6
CONTINUOUS
 10
630.47261486756372
 20
-332.20283296400009
 30
0.0
 40
8.9958330630999992
  1
SUS304 0.8t
  0
ENDBLK
  5
78E
  8
0
  0
BLOCK
  8
0
  2
*U156
 70
     1
 10
0.0
 20
0.0
 30
0.0
  3
*U156
  1

  0
TEXT
  5
790
  8
É}ÿg
  6
CONTINUOUS
 10
498.64210477272178
 20
-332.70513836346248
 30
0.0
 40
8.9958330630999992
  1
û{   æ╠
  0
ENDBLK
  5
792
  8
0
  0
BLOCK
  8
0
  2
*U157
 70
     1
 10
0.0
 20
0.0
 30
0.0
  3
*U157
  1

  0
TEXT
  5
794
  8
┌▓È_1
  6
CONTINUOUS
 10
-329.85282939506652
 20
35.012950977100012
 30
0.0
 40
9.8954164504999991
  1
2
  0
ENDBLK
  5
796
  8
0
  0
BLOCK
  8
0
  2
*U158
 70
     1
 10
0.0
 20
0.0
 30
0.0
  3
*U158
  1

  0
TEXT
  5
798
  8
┌▓È_1
  6
CONTINUOUS
 10
614.71976502760003
 20
28.529377129704571
 30
0.0
 40
8.9958330630999992
  1
üiÉ[î^üj
  0
ENDBLK
  5
79A
  8
0
  0
BLOCK
  8
0
  2
*U159
 70
     1
 10
0.0
 20
0.0
 30
0.0
  3
*U159
  1

  0
TEXT
  5
79C
  8
┌▓È_1
  6
CONTINUOUS
 10
507.79451207649998
 20
28.34672062080914
 30
0.0
 40
8.9958330630999992
  1
üiÉ¾î^üj
  0
ENDBLK
  5
79E
  8
0
  0
BLOCK
  8
0
  2
*U160
 70
     1
 10
0.0
 20
0.0
 30
0.0
  3
*U160
  1

  0
TEXT
  5
7A0
  8
┌▓È_1
  6
CONTINUOUS
 10
327.5448474996
 20
-293.21231274489543
 30
0.0
 40
8.9958330630999992
  1
üiÉ[î^üj
  0
ENDBLK
  5
7A2
  8
0
  0
BLOCK
  8
0
  2
*U161
 70
     1
 10
0.0
 20
0.0
 30
0.0
  3
*U161
  1

  0
TEXT
  5
7A4
  8
┌▓È_1
  6
CONTINUOUS
 10
257.40426543500001
 20
-293.3949692537908
 30
0.0
 40
8.9958330630999992
  1
üiÉ¾î^üj
  0
ENDBLK
  5
7A6
  8
0
  0
ENDSEC
  0
SECTION
  2
ENTITIES
  0
INSERT
  5
30
  8
┌▓È_1
  2
CLUMP0
 10
0.0
 20
0.0
 30
0.0
  0
INSERT
  5
38
  8
┌▓È_1
  2
CLUMP1
 10
0.0
 20
0.0
 30
0.0
  0
INSERT
  5
40
  8
┌▓È_1
  2
CLUMP2
 10
0.0
 20
0.0
 30
0.0
  0
LINE
  5
4B
  8
┌▓È_1
 10
165.92881372439999
 20
219.01818229169999
 30
0.0
 11
165.92881372439999
 21
90.018182291700001
 31
0.0
  0
LINE
  5
4C
  8
┌▓È_1
 10
243.0287668494
 20
151.01818229169999
 30
0.0
 11
228.0287668494
 21
151.01818229169999
 31
0.0
  0
LINE
  5
4D
  8
┌▓È_1
 10
228.0287668494
 20
158.01818229169999
 30
0.0
 11
243.0287668494
 21
158.01818229169999
 31
0.0
  0
INSERT
  5
4F
  8
┌▓È_1
  2
CLUMP3
 10
0.0
 20
0.0
 30
0.0
  0
INSERT
  5
5B
  8
┌▓È_1
  2
CLUMP4
 10
0.0
 20
0.0
 30
0.0
  0
ARC
  5
66
  8
┌▓È_1
 10
243.0287668494
 20
154.51818229169999
 30
0.0
 40
3.5
 50
270.0
 51
90.0
  0
CIRCLE
  5
67
  8
┌▓È_1
 10
198.0287668494
 20
154.51818229169999
 30
0.0
 40
7.5
  0
ARC
  5
68
  8
┌▓È_1
 10
228.0287668494
 20
154.51818229169999
 30
0.0
 40
3.5
 50
90.0
 51
270.0
  0
DIMENSION
  5
79
  8
Éíû@É³
 62
     5
  2
*D5
 10
195.25946718340001
 20
-165.6638066493
 30
0.0
 11
195.25946718340001
 21
-158.1638066493
 31
0.0
 70
   128
  1
<>
 13
144.82852083329999
 23
-165.6638066493
 33
0.0
 14
144.82852083329999
 24
-150.6638066493
 34
0.0
 50
90.0
  0
DIMENSION
  5
88
  8
Éíû@É³
 62
     5
  2
*D6
 10
195.25946705999999
 20
-197.1638066493
 30
0.0
 11
195.25946705999999
 21
-181.4138066493
 31
0.0
 70
   128
  1
<>
 13
171.7198762244
 23
-197.1638066493
 33
0.0
 14
144.82852083329999
 24
-165.6638066493
 34
0.0
 50
90.0
  0
DIMENSION
  5
97
  8
Éíû@É³
 62
     5
  2
*D7
 10
195.25946718340001
 20
-243.6638066493
 30
0.0
 11
195.25946718340001
 21
-236.1638066493
 31
0.0
 70
   128
  1
<>
 13
144.82852083329999
 23
-243.6638066493
 33
0.0
 14
144.82852083329999
 24
-228.6638066493
 34
0.0
 50
90.0
  0
DIMENSION
  5
A6
  8
Éíû@É³
 62
     5
  2
*D8
 10
195.2594659614
 20
-261.6638066493
 30
0.0
 11
195.2594659614
 21
-252.6638066493
 31
0.0
 70
   128
  1
<>
 13
165.92881372439999
 23
-261.6638066493
 33
0.0
 14
144.82852083329999
 24
-243.6638066493
 34
0.0
 50
90.0
  0
DIMENSION
  5
B5
  8
Éíû@É³
 62
     5
  2
*D9
 10
195.25946705999999
 20
-228.6638066493
 30
0.0
 11
195.25946705999999
 21
-212.9138066493
 31
0.0
 70
   128
  1
<>
 13
144.82852083329999
 23
-228.6638066493
 33
0.0
 14
171.7198762244
 24
-197.1638066493
 34
0.0
 50
90.0
  0
DIMENSION
  5
C4
  8
Éíû@É³
 62
     5
  2
*D10
 10
58.828520833299997
 20
-287.24262210950002
 30
0.0
 11
96.328520833300004
 21
-287.24262210950002
 31
0.0
 70
   128
  1
<>
 13
58.828520833299997
 23
-247.1638066493
 33
0.0
 14
133.82852083329999
 24
-247.1638066493
 34
0.0
 50
180.0
  0
DIMENSION
  5
D3
  8
Éíû@É³
 62
     5
  2
*D11
 10
133.82852083329999
 20
-287.24262401689998
 30
0.0
 11
149.8786672789
 21
-287.24262401689998
 31
0.0
 70
   128
  1
<>
 13
133.82852083329999
 23
-247.1638066493
 33
0.0
 14
165.92881372439999
 24
-261.6638066493
 34
0.0
 50
180.0
  0
INSERT
  5
D5
  8
┌▓È_1
  2
CLUMP5
 10
0.0
 20
0.0
 30
0.0
  0
LINE
  5
E0
  8
┌▓È_1
  6
BORDER
 62
     3
 10
198.0287668494
 20
167.01818229169999
 30
0.0
 11
198.0287668494
 21
142.01818229169999
 31
0.0
  0
LINE
  5
E1
  8
┌▓È_1
  6
BORDER
 62
     3
 10
133.8288605994
 20
167.01818229169999
 30
0.0
 11
133.8288605994
 21
142.01818229169999
 31
0.0
  0
ARC
  5
E2
  8
┌▓È_1
 10
88.828520833300004
 20
154.51818229169999
 30
0.0
 40
3.5
 50
90.0
 51
270.0
  0
INSERT
  5
E4
  8
┌▓È_1
  2
CLUMP6
 10
0.0
 20
0.0
 30
0.0
  0
INSERT
  5
EC
  8
┌▓È_1
  2
CLUMP7
 10
0.0
 20
0.0
 30
0.0
  0
INSERT
  5
F4
  8
┌▓È_1
  2
CLUMP8
 10
0.0
 20
0.0
 30
0.0
  0
ARC
  5
FB
  8
┌▓È_1
 10
13.828520833300001
 20
154.51818229169999
 30
0.0
 40
3.5
 50
90.0
 51
270.0
  0
INSERT
  5
FD
  8
┌▓È_1
  2
CLUMP9
 10
0.0
 20
0.0
 30
0.0
  0
ARC
  5
104
  8
┌▓È_1
 10
28.828520833300001
 20
154.51818229169999
 30
0.0
 40
3.5
 50
270.0
 51
90.0
  0
LINE
  5
105
  8
┌▓È_1
 10
13.828520833300001
 20
151.01818229169999
 30
0.0
 11
28.828520833300001
 21
151.01818229169999
 31
0.0
  0
LINE
  5
106
  8
┌▓È_1
 10
28.828520833300001
 20
158.01818229169999
 30
0.0
 11
13.828520833300001
 21
158.01818229169999
 31
0.0
  0
ARC
  5
107
  8
┌▓È_1
 10
103.8285208333
 20
154.51818229169999
 30
0.0
 40
3.5
 50
270.0
 51
90.0
  0
LINE
  5
108
  8
┌▓È_1
 10
88.828520833300004
 20
151.01818229169999
 30
0.0
 11
103.8285208333
 21
151.01818229169999
 31
0.0
  0
LINE
  5
109
  8
┌▓È_1
 10
103.8285208333
 20
158.01818229169999
 30
0.0
 11
88.828520833300004
 21
158.01818229169999
 31
0.0
  0
CIRCLE
  5
10A
  8
┌▓È_1
 10
133.8288605994
 20
154.51818229169999
 30
0.0
 40
7.5
  0
INSERT
  5
10C
  8
┌▓È_1
  2
CLUMP10
 10
0.0
 20
0.0
 30
0.0
  0
INSERT
  5
114
  8
┌▓È_1
  2
CLUMP11
 10
0.0
 20
0.0
 30
0.0
  0
LINE
  5
11B
  8
┌▓È_1
 10
103.8285208333
 20
-193.6638066493
 30
0.0
 11
88.828520833300004
 21
-193.6638066493
 31
0.0
  0
ARC
  5
11C
  8
┌▓È_1
 10
88.828520833300004
 20
-197.1638066493
 30
0.0
 40
3.5
 50
90.0
 51
270.0
  0
INSERT
  5
11E
  8
┌▓È_1
  2
CLUMP12
 10
0.0
 20
0.0
 30
0.0
  0
ARC
  5
125
  8
┌▓È_1
 10
13.828520833300001
 20
-197.1638066493
 30
0.0
 40
3.5
 50
90.0
 51
270.0
  0
INSERT
  5
127
  8
┌▓È_1
  2
CLUMP13
 10
0.0
 20
0.0
 30
0.0
  0
ARC
  5
12E
  8
┌▓È_1
 10
28.828520833300001
 20
-197.1638066493
 30
0.0
 40
3.5
 50
270.0
 51
90.0
  0
LINE
  5
12F
  8
┌▓È_1
 10
13.828520833300001
 20
-200.6638066493
 30
0.0
 11
28.828520833300001
 21
-200.6638066493
 31
0.0
  0
LINE
  5
130
  8
┌▓È_1
 10
28.828520833300001
 20
-193.6638066493
 30
0.0
 11
13.828520833300001
 21
-193.6638066493
 31
0.0
  0
ARC
  5
131
  8
┌▓È_1
 10
103.8285208333
 20
-197.1638066493
 30
0.0
 40
3.5
 50
270.0
 51
90.0
  0
LINE
  5
132
  8
┌▓È_1
 10
88.828520833300004
 20
-200.6638066493
 30
0.0
 11
103.8285208333
 21
-200.6638066493
 31
0.0
  0
INSERT
  5
134
  8
┌▓È_1
  2
CLUMP14
 10
0.0
 20
0.0
 30
0.0
  0
INSERT
  5
13C
  8
┌▓È_1
  2
CLUMP15
 10
0.0
 20
0.0
 30
0.0
  0
ARC
  5
143
  8
┌▓È_1
 62
     5
 10
272.36645174770001
 20
-259.6638066493
 30
0.0
 40
2.0
 50
180.0
 51
270.00001020809998
  0
LINE
  5
144
  8
┌▓È_1
 62
     5
 10
272.36645174770001
 20
-259.6638066493
 30
0.0
 11
284.36645174770001
 21
-259.6638066493
 31
0.0
  0
LINE
  5
145
  8
┌▓È_1
  6
BORDER
 62
     3
 10
133.8288605994
 20
-184.6638066493
 30
0.0
 11
133.8288605994
 21
-209.6638066493
 31
0.0
  0
LINE
  5
146
  8
┌▓È_1
 62
     5
 10
284.36645174770001
 20
-261.6638066493
 30
0.0
 11
284.36645174770001
 21
-259.6638066493
 31
0.0
  0
LINE
  5
147
  8
┌▓È_1
  6
BORDER
 62
     3
 10
264.36645174770001
 20
-197.1638066493
 30
0.0
 11
289.36645174770001
 21
-197.1638066493
 31
0.0
  0
LINE
  5
148
  8
┌▓È_1
 62
     5
 10
272.36645210400002
 20
-261.6638066493
 30
0.0
 11
284.36645174770001
 21
-261.6638066493
 31
0.0
  0
LINE
  5
149
  8
┌▓È_1
 62
     5
 10
272.36645174770001
 20
-132.6638066493
 30
0.0
 11
284.36645174770001
 21
-132.6638066493
 31
0.0
  0
ARC
  5
14A
  8
┌▓È_1
 62
     5
 10
272.36645174770001
 20
-134.6638066493
 30
0.0
 40
2.0
 50
90.0
 51
180.0000386554
  0
LINE
  5
14B
  8
┌▓È_1
 62
     5
 10
272.36645174770001
 20
-134.6638066493
 30
0.0
 11
284.36645174770001
 21
-134.6638066493
 31
0.0
  0
LINE
  5
14C
  8
┌▓È_1
 62
     5
 10
284.36645174770001
 20
-132.6638066493
 30
0.0
 11
284.36645174770001
 21
-134.6638066493
 31
0.0
  0
DIMENSION
  5
15B
  8
Éíû@É³
 62
     5
  2
*D23
 10
284.36645174770001
 20
-102.6638066493
 30
0.0
 11
277.36645174770001
 21
-102.6638066493
 31
0.0
 70
   128
  1
<>
 13
284.36645174770001
 23
-132.6638066493
 33
0.0
 14
270.36645174770001
 24
-134.66380799859999
 34
0.0
  0
DIMENSION
  5
16A
  8
Éíû@É³
 62
     5
  2
*D24
 10
195.2594659614
 20
-150.6638066493
 30
0.0
 11
195.2594659614
 21
-141.6638066493
 31
0.0
 70
   128
  1
<>
 13
144.82852083329999
 23
-150.6638066493
 33
0.0
 14
165.92881372439999
 24
-132.6638066493
 34
0.0
 50
90.0
  0
DIMENSION
  5
179
  8
Éíû@É³
 62
     5
  2
*D25
 10
219.22664621339999
 20
-261.6638066493
 30
0.0
 11
219.22664621339999
 21
-197.1638066493
 31
0.0
 70
   128
  1
<>
 13
165.92881372439999
 23
-261.6638066493
 33
0.0
 14
165.92881372439999
 24
-132.6638066493
 34
0.0
 50
90.0
  0
ARC
  5
17A
  8
┌▓È_1
 10
-46.171479166700003
 20
154.51818229169999
 30
0.0
 40
3.5
 50
270.0
 51
90.0
  0
INSERT
  5
17C
  8
┌▓È_1
  2
CLUMP16
 10
0.0
 20
0.0
 30
0.0
  0
INSERT
  5
184
  8
┌▓È_1
  2
CLUMP17
 10
0.0
 20
0.0
 30
0.0
  0
INSERT
  5
18C
  8
┌▓È_1
  2
CLUMP18
 10
0.0
 20
0.0
 30
0.0
  0
INSERT
  5
194
  8
┌▓È_1
  2
CLUMP19
 10
0.0
 20
0.0
 30
0.0
  0
ARC
  5
19B
  8
┌▓È_1
 10
-121.1714791667
 20
154.51818229169999
 30
0.0
 40
3.5
 50
270.0
 51
90.0
  0
LINE
  5
19C
  8
┌▓È_1
 10
-136.17147916670001
 20
151.01818229169999
 30
0.0
 11
-121.1714791667
 21
151.01818229169999
 31
0.0
  0
LINE
  5
19D
  8
┌▓È_1
 10
-121.1714791667
 20
158.01818229169999
 30
0.0
 11
-136.17147916670001
 21
158.01818229169999
 31
0.0
  0
ARC
  5
19E
  8
┌▓È_1
 10
-136.17147916670001
 20
154.51818229169999
 30
0.0
 40
3.5
 50
90.0
 51
270.0
  0
INSERT
  5
1A0
  8
┌▓È_1
  2
CLUMP20
 10
0.0
 20
0.0
 30
0.0
  0
INSERT
  5
1A8
  8
┌▓È_1
  2
CLUMP21
 10
0.0
 20
0.0
 30
0.0
  0
ARC
  5
1AF
  8
┌▓È_1
 10
-196.17147916670001
 20
154.51818229169999
 30
0.0
 40
3.5
 50
270.0
 51
90.0
  0
LINE
  5
1B0
  8
┌▓È_1
 10
-196.17147916670001
 20
158.01818229169999
 30
0.0
 11
-211.17147916670001
 21
158.01818229169999
 31
0.0
  0
ARC
  5
1B1
  8
┌▓È_1
 10
-211.17147916670001
 20
154.51818229169999
 30
0.0
 40
3.5
 50
90.0
 51
270.0
  0
INSERT
  5
1B3
  8
Éíû@É³
  2
BALLON0
 10
0.0
 20
0.0
 30
0.0
  0
INSERT
  5
1BD
  8
Éíû@É³
  2
BALLON1
 10
0.0
 20
0.0
 30
0.0
  0
DIMENSION
  5
1D4
  8
Éíû@É³
 62
     5
  2
*D34
 10
-274.07076440060001
 20
264.53725484210003
 30
0.0
 11
-278.57076440060001
 21
264.53725484210003
 31
0.0
 70
   128
  1
<>
 13
-274.07076440060001
 23
219.51770833329999
 33
0.0
 14
-283.07076440060001
 24
228.51770833329999
 34
0.0
  0
CIRCLE
  5
1D5
  8
┌▓È_1
 10
133.8288605994
 20
-197.1638066493
 30
0.0
 40
7.5
  0
INSERT
  5
1D7
  8
┌▓È_1
  2
CLUMP22
 10
0.0
 20
0.0
 30
0.0
  0
INSERT
  5
1DF
  8
┌▓È_1
  2
CLUMP23
 10
0.0
 20
0.0
 30
0.0
  0
INSERT
  5
1E7
  8
┌▓È_1
  2
CLUMP24
 10
0.0
 20
0.0
 30
0.0
  0
INSERT
  5
1EF
  8
┌▓È_1
  2
CLUMP25
 10
0.0
 20
0.0
 30
0.0
  0
LINE
  5
1F6
  8
┌▓È_1
 10
165.92881372439999
 20
-132.6638066493
 30
0.0
 11
165.92881372439999
 21
-261.6638066493
 31
0.0
  0
LINE
  5
1F7
  8
┌▓È_1
 62
     5
 10
272.36645174770001
 20
-259.6638066493
 30
0.0
 11
272.36645174770001
 21
-134.6638066493
 31
0.0
  0
LINE
  5
1F8
  8
┌▓È_1
 62
     5
 10
270.36645174770001
 20
-134.66380799859999
 30
0.0
 11
270.36645174770001
 21
-259.6638066493
 31
0.0
  0
DIMENSION
  5
207
  8
Éíû@É³
 62
     5
  2
*D39
 10
-136.65264982100001
 20
-232.1638066493
 30
0.0
 11
-136.65264982100001
 21
-228.6638066493
 31
0.0
 70
   128
  1
<>
 13
-158.67147916670001
 23
-232.1638066493
 33
0.0
 14
-158.67147916670001
 24
-225.1638066493
 34
0.0
 50
90.0
  0
DIMENSION
  5
216
  8
Éíû@É³
 62
     5
  2
*D40
 10
-155.17147916670001
 20
-215.9238974772
 30
0.0
 11
-166.17147916670001
 21
-215.9238974772
 31
0.0
 70
   128
  1
<>
 13
-155.17147916670001
 23
-228.6638066493
 33
0.0
 14
-177.1714791666999
 24
-228.6638066493
 34
0.0
  0
DIMENSION
  5
225
  8
Éíû@É³
 62
     5
  2
*D41
 10
-91.171479166699996
 20
-287.24262210950002
 30
0.0
 11
-53.671479166700003
 21
-287.24262210950002
 31
0.0
 70
   128
  1
<>
 13
-91.171479166699996
 23
-247.1638066493
 33
0.0
 14
-16.171479166699999
 24
-247.1638066493
 34
0.0
 50
180.0
  0
DIMENSION
  5
234
  8
Éíû@É³
 62
     5
  2
*D42
 10
-273.27118627559997
 20
-287.24262401689998
 30
0.0
 11
-257.2213327211
 21
-287.24262401689998
 31
0.0
 70
   128
  1
<>
 13
-273.27118627559997
 23
-261.6638066493
 33
0.0
 14
-241.17147916670001
 24
-247.1638066493
 34
0.0
 50
180.0
  0
DIMENSION
  5
243
  8
Éíû@É³
 62
     5
  2
*D43
 10
-241.17147916670001
 20
-287.24262210950002
 30
0.0
 11
-203.67147916670001
 21
-287.24262210950002
 31
0.0
 70
   128
  1
<>
 13
-241.17147916670001
 23
-247.1638066493
 33
0.0
 14
-166.17147916670001
 24
-247.1638066493
 34
0.0
 50
180.0
  0
LINE
  5
244
  8
┌▓È_1
 10
-211.17147916670001
 20
151.01818229169999
 30
0.0
 11
-196.17147916670001
 21
151.01818229169999
 31
0.0
  0
INSERT
  5
246
  8
┌▓È_1
  2
CLUMP26
 10
0.0
 20
0.0
 30
0.0
  0
LINE
  5
24D
  8
┌▓È_1
 10
-274.07076440060001
 20
89.517708333300007
 30
0.0
 11
-274.07076440060001
 21
219.51770833329999
 31
0.0
  0
LINE
  5
24E
  8
┌▓È_1
 10
-273.27118627559997
 20
90.018182291700001
 30
0.0
 11
-273.27118627559997
 21
219.01818229169999
 31
0.0
  0
LINE
  5
24F
  8
┌▓È_1
 10
-283.07076440060001
 20
80.517708333299993
 30
0.0
 11
-283.07076440060001
 21
228.51770833329999
 31
0.0
  0
LINE
  5
250
  8
┌▓È_1
  6
BORDER
 62
     3
 10
-241.17147916670001
 20
167.01818229169999
 30
0.0
 11
-241.17147916670001
 21
142.01818229169999
 31
0.0
  0
ARC
  5
251
  8
┌▓È_1
 10
-282.2707644006
 20
4.5744157318000003
 30
0.0
 40
0.8
 50
90.0
 51
180.0
  0
INSERT
  5
253
  8
┌▓È_1
  2
CLUMP27
 10
0.0
 20
0.0
 30
0.0
  0
INSERT
  5
25B
  8
┌▓È_1
  2
CLUMP28
 10
0.0
 20
0.0
 30
0.0
  0
INSERT
  5
263
  8
┌▓È_1
  2
CLUMP29
 10
0.0
 20
0.0
 30
0.0
  0
CIRCLE
  5
26A
  8
┌▓È_1
 10
-241.17147916670001
 20
154.51818229169999
 30
0.0
 40
7.5
  0
INSERT
  5
26C
  8
┌▓È_1
  2
CLUMP30
 10
0.0
 20
0.0
 30
0.0
  0
INSERT
  5
274
  8
┌▓È_1
  2
CLUMP31
 10
0.0
 20
0.0
 30
0.0
  0
INSERT
  5
27C
  8
┌▓È_1
  2
CLUMP32
 10
0.0
 20
0.0
 30
0.0
  0
INSERT
  5
284
  8
┌▓È_1
  2
CLUMP33
 10
0.0
 20
0.0
 30
0.0
  0
INSERT
  5
28C
  8
┌▓È_1
  2
CLUMP34
 10
0.0
 20
0.0
 30
0.0
  0
INSERT
  5
294
  8
┌▓È_1
  2
CLUMP35
 10
0.0
 20
0.0
 30
0.0
  0
ARC
  5
29B
  8
┌▓È_1
 10
-61.171479166700003
 20
154.51818229169999
 30
0.0
 40
3.5
 50
90.0
 51
270.0
  0
LINE
  5
29C
  8
┌▓È_1
 10
-61.171479166700003
 20
151.01818229169999
 30
0.0
 11
-46.171479166700003
 21
151.01818229169999
 31
0.0
  0
LINE
  5
29D
  8
┌▓È_1
 10
-46.171479166700003
 20
158.01818229169999
 30
0.0
 11
-61.171479166700003
 21
158.01818229169999
 31
0.0
  0
INSERT
  5
29F
  8
┌▓È_1
  2
CLUMP36
 10
0.0
 20
0.0
 30
0.0
  0
INSERT
  5
2A7
  8
┌▓È_1
  2
CLUMP37
 10
0.0
 20
0.0
 30
0.0
  0
ARC
  5
2AE
  8
┌▓È_1
 10
-46.171479166700003
 20
-197.1638066493
 30
0.0
 40
3.5
 50
270.0
 51
90.0
  0
ARC
  5
2AF
  8
┌▓È_1
 10
-61.171479166700003
 20
-197.1638066493
 30
0.0
 40
3.5
 50
90.0
 51
270.0
  0
LINE
  5
2B0
  8
┌▓È_1
 10
-61.171479166700003
 20
-200.6638066493
 30
0.0
 11
-46.171479166700003
 21
-200.6638066493
 31
0.0
  0
LINE
  5
2B1
  8
┌▓È_1
 10
-46.171479166700003
 20
-193.6638066493
 30
0.0
 11
-61.171479166700003
 21
-193.6638066493
 31
0.0
  0
ARC
  5
2B2
  8
┌▓È_1
 10
-121.1714791667
 20
-197.1638066493
 30
0.0
 40
3.5
 50
270.0
 51
90.0
  0
LINE
  5
2B3
  8
┌▓È_1
 10
-136.17147916670001
 20
-200.6638066493
 30
0.0
 11
-121.1714791667
 21
-200.6638066493
 31
0.0
  0
INSERT
  5
2B5
  8
┌▓È_1
  2
CLUMP38
 10
0.0
 20
0.0
 30
0.0
  0
INSERT
  5
2BD
  8
┌▓È_1
  2
CLUMP39
 10
0.0
 20
0.0
 30
0.0
  0
INSERT
  5
2C4
  8
0
  6
CONTINUOUS
  2
*U111
 10
0.0
 20
0.0
 30
0.0
  0
INSERT
  5
2C6
  8
┌▓È_1
  2
CLUMP40
 10
0.0
 20
0.0
 30
0.0
  0
INSERT
  5
2CE
  8
┌▓È_1
  2
CLUMP41
 10
0.0
 20
0.0
 30
0.0
  0
INSERT
  5
2D6
  8
┌▓È_1
  2
CLUMP42
 10
0.0
 20
0.0
 30
0.0
  0
INSERT
  5
2DE
  8
┌▓È_1
  2
CLUMP43
 10
0.0
 20
0.0
 30
0.0
  0
LINE
  5
2E5
  8
┌▓È_1
 10
-142.36934286479999
 20
-123.163797676
 30
0.0
 11
-88.992657751099998
 21
-123.163797676
 31
0.0
  0
LINE
  5
2E6
  8
┌▓È_1
 10
-166.17147916670001
 20
-147.1638066493
 30
0.0
 11
-142.36934286479999
 21
-123.163797676
 31
0.0
  0
SOLID
  5
2E7
  8
┌▓È_1
 10
-166.17147916670001
 20
-147.1638066493
 30
0.0
 11
-163.60186719709989
 21
-142.67025420510001
 31
0.0
 12
-163.59402437860001
 22
-144.56492488270001
 32
0.0
 13
-163.59402437860001
 23
-144.56492488270001
 33
0.0
  0
SOLID
  5
2E8
  8
┌▓È_1
 10
-166.17147916670001
 20
-147.1638066493
 30
0.0
 11
-161.69935370100001
 21
-144.55708206419999
 31
0.0
 12
-163.59402437860001
 22
-144.56492488270001
 32
0.0
 13
-163.59402437860001
 23
-144.56492488270001
 33
0.0
  0
LINE
  5
2E9
  8
┌▓È_1
 10
-282.2707644006
 20
-18.625584268200001
 30
0.0
 11
-283.07076440060001
 21
-18.625584268200001
 31
0.0
  0
LINE
  5
2EA
  8
┌▓È_1
 10
-283.07076440060001
 20
-23.8255842682
 30
0.0
 11
-283.07076440060001
 21
-18.625584268200001
 31
0.0
  0
ARC
  5
2EB
  8
┌▓È_1
 10
-282.2707644006
 20
-23.8255842682
 30
0.0
 40
0.8
 50
180.0
 51
270.0
  0
ARC
  5
2EC
  8
┌▓È_1
 10
-274.87076440060002
 20
-23.8255842682
 30
0.0
 40
0.8
 50
270.0
 51
0.0
  0
LINE
  5
2ED
  8
┌▓È_1
 10
-266.07079748529998
 20
-23.8255842682
 30
0.0
 11
-282.2707644006
 21
-23.8255842682
 31
0.0
  0
LINE
  5
2EE
  8
┌▓È_1
 10
-266.07079748529998
 20
-18.625584268200001
 30
0.0
 11
-266.07079748529998
 21
-24.625584268200001
 31
0.0
  0
LINE
  5
2EF
  8
┌▓È_1
 10
-282.2707644006
 20
-23.8255842682
 30
0.0
 11
-282.2707644006
 21
-18.625584268200001
 31
0.0
  0
DIMENSION
  5
2FE
  8
Éíû@É³
 62
     5
  2
*D62
 10
-166.17147916670001
 20
-287.24262210950002
 30
0.0
 11
-128.67147916670001
 21
-287.24262210950002
 31
0.0
 70
   128
  1
<>
 13
-166.17147916670001
 23
-247.1638066493
 33
0.0
 14
-91.171479166699996
 24
-247.1638066493
 34
0.0
 50
180.0
  0
INSERT
  5
301
  8
É}ÿg
  2
CLUMP44
 10
0.0
 20
0.0
 30
0.0
  0
INSERT
  5
30A
  8
0
  6
CONTINUOUS
  2
*U112
 10
0.0
 20
0.0
 30
0.0
  0
INSERT
  5
30B
  8
0
  6
CONTINUOUS
  2
*U113
 10
0.0
 20
0.0
 30
0.0
  0
INSERT
  5
30C
  8
0
  6
CONTINUOUS
  2
*U114
 10
0.0
 20
0.0
 30
0.0
  0
LINE
  5
30D
  8
┌▓È_1
 10
-283.07076440060001
 20
-0.6255842682
 30
0.0
 11
-283.07076440060001
 21
4.5744157318000003
 31
0.0
  0
LINE
  5
30E
  8
┌▓È_1
 10
-266.87076440060002
 20
-0.6255842682
 30
0.0
 11
-266.87076440060002
 21
-23.8255842682
 31
0.0
  0
LINE
  5
30F
  8
┌▓È_1
 10
-274.87076440060002
 20
-0.6255842682
 30
0.0
 11
-274.87076440060002
 21
-23.8255842682
 31
0.0
  0
LINE
  5
310
  8
┌▓È_1
 10
-273.27118627559997
 20
-261.6638066493
 30
0.0
 11
-273.27118627559997
 21
-132.6638066493
 31
0.0
  0
LINE
  5
311
  8
┌▓È_1
  6
BORDER
 62
     3
 10
-53.6711862756
 20
-127.6638066493
 30
0.0
 11
-53.6711862756
 21
-266.6638066493
 31
0.0
  0
CIRCLE
  5
312
  8
┌▓È_1
 10
-241.17147916670001
 20
-197.1638066493
 30
0.0
 40
7.5
  0
INSERT
  5
314
  8
┌▓È_1
  2
CLUMP45
 10
0.0
 20
0.0
 30
0.0
  0
INSERT
  5
31C
  8
┌▓È_1
  2
CLUMP46
 10
0.0
 20
0.0
 30
0.0
  0
INSERT
  5
324
  8
┌▓È_1
  2
CLUMP47
 10
0.0
 20
0.0
 30
0.0
  0
INSERT
  5
32C
  8
┌▓È_1
  2
CLUMP48
 10
0.0
 20
0.0
 30
0.0
  0
LINE
  5
333
  8
┌▓È_1
  6
BORDER
 62
     3
 10
-241.17147916670001
 20
-184.6638066493
 30
0.0
 11
-241.17147916670001
 21
-209.6638066493
 31
0.0
  0
LINE
  5
334
  8
┌▓È_1
 10
-121.1714791667
 20
-193.6638066493
 30
0.0
 11
-136.17147916670001
 21
-193.6638066493
 31
0.0
  0
ARC
  5
335
  8
┌▓È_1
 10
-136.17147916670001
 20
-197.1638066493
 30
0.0
 40
3.5
 50
90.0
 51
270.0
  0
INSERT
  5
337
  8
┌▓È_1
  2
CLUMP49
 10
0.0
 20
0.0
 30
0.0
  0
ARC
  5
33E
  8
┌▓È_1
 10
-196.17147916670001
 20
-197.1638066493
 30
0.0
 40
3.5
 50
270.0
 51
90.0
  0
LINE
  5
33F
  8
┌▓È_1
 10
-196.17147916670001
 20
-193.6638066493
 30
0.0
 11
-211.17147916670001
 21
-193.6638066493
 31
0.0
  0
ARC
  5
340
  8
┌▓È_1
 10
-211.17147916670001
 20
-197.1638066493
 30
0.0
 40
3.5
 50
90.0
 51
270.0
  0
LINE
  5
341
  8
┌▓È_1
 10
-211.17147916670001
 20
-200.6638066493
 30
0.0
 11
-196.17147916670001
 21
-200.6638066493
 31
0.0
  0
INSERT
  5
343
  8
┌▓È_1
  2
CLUMP50
 10
0.0
 20
0.0
 30
0.0
  0
INSERT
  5
34B
  8
┌▓È_1
  2
CLUMP51
 10
0.0
 20
0.0
 30
0.0
  0
INSERT
  5
353
  8
┌▓È_1
  2
CLUMP52
 10
0.0
 20
0.0
 30
0.0
  0
INSERT
  5
35A
  8
0
  6
CONTINUOUS
  2
*U115
 10
0.0
 20
0.0
 30
0.0
  0
INSERT
  5
35B
  8
0
  6
CONTINUOUS
  2
*U116
 10
0.0
 20
0.0
 30
0.0
  0
INSERT
  5
35C
  8
0
  6
CONTINUOUS
  2
*U117
 10
0.0
 20
0.0
 30
0.0
  0
INSERT
  5
35E
  8
É}ÿg
  2
CLUMP53
 10
0.0
 20
0.0
 30
0.0
  0
INSERT
  5
367
  8
0
  6
CONTINUOUS
  2
*U118
 10
0.0
 20
0.0
 30
0.0
  0
INSERT
  5
368
  8
0
  6
CONTINUOUS
  2
*U119
 10
0.0
 20
0.0
 30
0.0
  0
INSERT
  5
369
  8
0
  6
CONTINUOUS
  2
*U120
 10
0.0
 20
0.0
 30
0.0
  0
INSERT
  5
36B
  8
É}ÿg
  2
CLUMP54
 10
0.0
 20
0.0
 30
0.0
  0
INSERT
  5
40F
  8
0
  6
CONTINUOUS
  2
*U141
 10
0.0
 20
0.0
 30
0.0
  0
INSERT
  5
410
  8
0
  6
CONTINUOUS
  2
*U142
 10
0.0
 20
0.0
 30
0.0
  0
INSERT
  5
411
  8
0
  6
CONTINUOUS
  2
*U143
 10
0.0
 20
0.0
 30
0.0
  0
INSERT
  5
412
  8
0
  6
CONTINUOUS
  2
*U144
 10
0.0
 20
0.0
 30
0.0
  0
INSERT
  5
413
  8
0
  6
CONTINUOUS
  2
*U145
 10
0.0
 20
0.0
 30
0.0
  0
INSERT
  5
414
  8
0
  6
CONTINUOUS
  2
*U146
 10
0.0
 20
0.0
 30
0.0
  0
INSERT
  5
415
  8
0
  6
CONTINUOUS
  2
*U147
 10
0.0
 20
0.0
 30
0.0
  0
INSERT
  5
416
  8
0
  6
CONTINUOUS
  2
*U148
 10
0.0
 20
0.0
 30
0.0
  0
INSERT
  5
417
  8
0
  6
CONTINUOUS
  2
*U149
 10
0.0
 20
0.0
 30
0.0
  0
INSERT
  5
419
  8
0
  6
CONTINUOUS
  2
*U150
 10
0.0
 20
0.0
 30
0.0
  0
INSERT
  5
41A
  8
0
  6
CONTINUOUS
  2
*U151
 10
0.0
 20
0.0
 30
0.0
  0
INSERT
  5
41B
  8
0
  6
CONTINUOUS
  2
*U152
 10
0.0
 20
0.0
 30
0.0
  0
INSERT
  5
41C
  8
0
  6
CONTINUOUS
  2
*U153
 10
0.0
 20
0.0
 30
0.0
  0
INSERT
  5
41D
  8
0
  6
CONTINUOUS
  2
*U154
 10
0.0
 20
0.0
 30
0.0
  0
INSERT
  5
41E
  8
0
  6
CONTINUOUS
  2
*U155
 10
0.0
 20
0.0
 30
0.0
  0
INSERT
  5
41F
  8
0
  6
CONTINUOUS
  2
*U156
 10
0.0
 20
0.0
 30
0.0
  0
INSERT
  5
421
  8
É}ÿg
  2
CLUMP55
 10
0.0
 20
0.0
 30
0.0
  0
DIMENSION
  5
438
  8
Éíû@É³
 62
     5
  2
*D75
 10
662.10292611720001
 20
286.36791297399998
 30
0.0
 11
634.60292611720001
 21
286.36791297399998
 31
0.0
 70
   128
  1
<>
 13
662.10292611720001
 23
227.7181822917
 33
0.0
 14
607.10292611720001
 24
227.7181822917
 34
0.0
  0
DIMENSION
  5
447
  8
Éíû@É³
 62
     5
  2
*D76
 10
562.701021717
 20
96.017710937499999
 30
0.0
 11
562.701021717
 21
154.51818229169999
 31
0.0
 70
   128
  1
<>
 13
538.97571997440002
 23
96.017710937499999
 33
0.0
 14
538.97571997440002
 24
213.01865364579999
 34
0.0
 50
90.0
  0
DIMENSION
  5
456
  8
Éíû@É³
 62
     5
  2
*D77
 10
562.76116232669995
 20
213.01865364579999
 30
0.0
 11
562.76116232669995
 21
246.2261026052
 31
0.0
 70
   128
  1
15.5
 13
538.97571997440002
 23
213.01865364579999
 33
0.0
 14
538.97571997440002
 24
228.51865364579999
 34
0.0
 50
90.0
  0
DIMENSION
  5
465
  8
Éíû@É³
 62
     5
  2
*D78
 10
539.77571997439986
 20
287.1392202047
 30
0.0
 11
524.77571997439998
 21
287.1392202047
 31
0.0
 70
   128
  1
<>
 13
539.77571997439986
 23
227.7186536458
 33
0.0
 14
509.77571997439998
 24
227.7186536458
 34
0.0
  0
DIMENSION
  5
474
  8
Éíû@É³
 62
     5
  2
*D79
 10
683.51783738730001
 20
80.518182291700015
 30
0.0
 11
683.51783738730001
 21
87.518182291700001
 31
0.0
 70
   128
  1
14
 13
662.10292611720001
 23
80.518182291700015
 33
0.0
 14
662.10292611720001
 24
94.518182291699986
 34
0.0
 50
90.0
  0
DIMENSION
  5
483
  8
Éíû@É³
 62
     5
  2
*D80
 10
562.76116232669995
 20
80.517710937499999
 30
0.0
 11
562.76116232669995
 21
62.526721252400002
 31
0.0
 70
   128
  1
15.5
 13
538.97571997440002
 23
80.517710937499999
 33
0.0
 14
538.97571997440002
 24
96.017710937499999
 34
0.0
 50
90.0
  0
DIMENSION
  5
492
  8
Éíû@É³
 62
     5
  2
*D81
 10
445.97172941959991
 20
80.517708333299993
 30
0.0
 11
445.97172941959991
 21
85.017708333299993
 31
0.0
 70
   128
  1
<>
 13
414.92923559939999
 23
80.517708333299993
 33
0.0
 14
405.92923559939999
 24
89.517708333300007
 34
0.0
 50
90.0
  0
DIMENSION
  5
4A1
  8
Éíû@É³
 62
     5
  2
*D82
 10
414.92923559939999
 20
286.89574864709999
 30
0.0
 11
65.929235599400002
 21
286.89574864709999
 31
0.0
 70
   128
  1
898
 13
414.92923559939999
 23
228.51770833329999
 33
0.0
 14
-283.07076440060001
 24
228.51770833329999
 34
0.0
  0
DIMENSION
  5
4B0
  8
Éíû@É³
 62
     5
  2
*D83
 10
405.92923559939999
 20
264.5226598104
 30
0.0
 11
65.929235599400002
 21
264.5226598104
 31
0.0
 70
   128
  1
880
 13
405.92923559939999
 23
219.51770833329999
 33
0.0
 14
-274.07076440060001
 24
219.51770833329999
 34
0.0
  0
DIMENSION
  5
4BF
  8
Éíû@É³
 62
     5
  2
*D84
 10
436.10954870979998
 20
-0.6255842682
 30
0.0
 11
436.10954870979998
 21
2.3744157318000001
 31
0.0
 70
   128
  1
<>
 13
414.92923559939999
 23
-0.6255842682
 33
0.0
 14
414.12923559939998
 24
5.3744157317999992
 34
0.0
 50
90.0
  0
DIMENSION
  5
4CE
  8
Éíû@É³
 62
     5
  2
*D85
 10
436.10954870979998
 20
-24.625584268200001
 30
0.0
 11
436.10954870979998
 21
-21.625584268200001
 31
0.0
 70
   128
  1
<>
 13
414.12923559939998
 23
-24.625584268200001
 33
0.0
 14
414.92923559939999
 24
-18.625584268200001
 34
0.0
 50
90.0
  0
INSERT
  5
4D0
  8
Éíû@É³
  2
BALLON2
 10
0.0
 20
0.0
 30
0.0
  0
DIMENSION
  5
4E7
  8
Éíû@É³
 62
     5
  2
*D87
 10
356.77618825079998
 20
-102.6638066493
 30
0.0
 11
345.27618825079998
 21
-102.6638066493
 31
0.0
 70
   128
  1
<>
 13
356.77618825079998
 23
-132.6638066493
 33
0.0
 14
333.77618825079998
 24
-134.6638066493
 34
0.0
  0
DIMENSION
  5
4EF
  8
Éíû@É³
 62
     5
  2
*D88
 10
-259.1096176552
 20
-210.74374324749999
 30
0.0
 11
-246.45690241459999
 21
-234.66722538249999
 31
0.0
 70
   131
  1
2-%%c<>
 15
-247.21933779130001
 25
-201.59927799479999
 35
0.0
 40
0.0
  0
DIMENSION
  5
4FE
  8
Éíû@É³
 62
     5
  2
*D89
 10
-16.171479166699999
 20
-287.24262210950002
 30
0.0
 11
21.328520833300001
 21
-287.24262210950002
 31
0.0
 70
   128
  1
<>
 13
-16.171479166699999
 23
-247.1638066493
 33
0.0
 14
58.828520833299997
 24
-247.1638066493
 34
0.0
 50
180.0
  0
DIMENSION
  5
505
  8
Éíû@É³
 62
     5
  2
*D90
 10
160.92881372439999
 20
-331.616145367
 30
0.0
 11
157.3078654107
 21
-347.31637501270001
 31
0.0
 70
   132
  1
<>
 15
164.4643476304
 25
-335.15167927290003
 35
0.0
 40
0.0
  0
DIMENSION
  5
514
  8
Éíû@É³
 62
     5
  2
*D91
 10
165.92881372439999
 20
-106.4680478297
 30
0.0
 11
-53.6711862756
 21
-106.4680478297
 31
0.0
 70
   128
  1
<>
 13
165.92881372439999
 23
-132.6638066493
 33
0.0
 14
-273.27118627559997
 24
-132.6638066493
 34
0.0
  0
DIMENSION
  5
523
  8
Éíû@É³
 62
     5
  2
*D92
 10
445.97172941959991
 20
219.51770833329999
 30
0.0
 11
445.97172941959991
 21
224.01770833329999
 31
0.0
 70
   128
  1
<>
 13
405.92923559939999
 23
219.51770833329999
 33
0.0
 14
414.92923559939999
 24
228.51770833329999
 34
0.0
 50
90.0
  0
DIMENSION
  5
532
  8
Éíû@É³
 62
     5
  2
*D93
 10
463.98654761119991
 20
80.517708333299993
 30
0.0
 11
463.98654761119991
 21
154.51770833329999
 31
0.0
 70
   128
  1
<>
 13
414.92923559939999
 23
80.517708333299993
 33
0.0
 14
414.92923559939999
 24
228.51770833329999
 34
0.0
 50
90.0
  0
DIMENSION
  5
541
  8
Éíû@É³
 62
     5
  2
*D94
 10
445.97172751229999
 20
89.517708333300007
 30
0.0
 11
445.97172751229999
 21
154.51770833329999
 31
0.0
 70
   128
  1
<>
 13
405.92923559939999
 23
89.517708333300007
 33
0.0
 14
405.92923559939999
 24
219.51770833329999
 34
0.0
 50
90.0
  0
DIMENSION
  5
550
  8
Éíû@É³
 62
     5
  2
*D95
 10
414.92923559939999
 20
264.64637807209999
 30
0.0
 11
410.42923559939999
 21
264.64637807209999
 31
0.0
 70
   128
  1
9
 13
414.92923559939999
 23
228.51770833329999
 33
0.0
 14
405.92923559939999
 24
219.51770833329999
 34
0.0
  0
DIMENSION
  5
55F
  8
Éíû@É³
 62
     5
  2
*D96
 10
662.10292611720001
 20
265.68970633949999
 30
0.0
 11
647.10292611720001
 21
265.68970633949999
 31
0.0
 70
   128
  1
<>
 13
662.10292611720001
 23
228.51818229169999
 33
0.0
 14
632.10292611720001
 24
219.51818229169999
 34
0.0
  0
DIMENSION
  5
56E
  8
Éíû@É³
 62
     5
  2
*D97
 10
539.77571997439986
 20
265.51905724080001
 30
0.0
 11
532.20772374069998
 21
265.51905724080001
 31
0.0
 70
   128
  1
<>
 13
539.77571997439986
 23
227.7186536458
 33
0.0
 14
524.77571997439998
 24
219.51865364579999
 34
0.0
  0
DIMENSION
  5
57D
  8
Éíû@É³
 62
     5
  2
*D98
 10
524.77571997439998
 20
265.51905724080001
 30
0.0
 11
517.03524339599994
 21
265.51905724080001
 31
0.0
 70
   128
  1
<>
 13
524.77571997439998
 23
219.51865364579999
 33
0.0
 14
509.77571997439998
 24
227.7186536458
 34
0.0
  0
DIMENSION
  5
58C
  8
Éíû@É³
 62
     5
  2
*D99
 10
683.51783738730001
 20
94.518182291699986
 30
0.0
 11
683.51783738730001
 21
154.51818229169999
 31
0.0
 70
   128
  1
<>
 13
662.10292611720001
 23
94.518182291699986
 33
0.0
 14
662.10292611720001
 24
214.51818229169999
 34
0.0
 50
90.0
  0
INSERT
  5
58E
  8
┌▓È_1
 62
     5
  2
CLUMP56
 10
0.0
 20
0.0
 30
0.0
  0
ARC
  5
5AA
  8
┌▓È_1
 62
     5
 10
611.1029261171999
 20
217.01818229169999
 30
0.0
 40
2.0
 50
90.0
 51
180.0
  0
LINE
  5
5AB
  8
┌▓È_1
 62
     5
 10
632.10292611720001
 20
219.51818229169999
 30
0.0
 11
632.10292611720001
 21
219.01818229169999
 31
0.0
  0
LINE
  5
5AC
  8
┌▓È_1
 62
     5
 10
632.10292611720001
 20
217.51818229169999
 30
0.0
 11
632.10292611720001
 21
214.51818229169999
 31
0.0
  0
ARC
  5
5AD
  8
┌▓È_1
 62
     5
 10
611.1029261171999
 20
92.018182291699986
 30
0.0
 40
2.0
 50
180.0
 51
270.0
  0
LINE
  5
5AE
  8
┌▓È_1
 62
     5
 10
611.1029261171999
 20
92.018182291699986
 30
0.0
 11
632.10292611720001
 21
92.018182291699986
 31
0.0
  0
INSERT
  5
5B0
  8
┌▓È_1
 62
     5
  2
CLUMP57
 10
0.0
 20
0.0
 30
0.0
  0
LINE
  5
5CC
  8
┌▓È_1
 62
     5
 10
611.1029261171999
 20
90.018182291700001
 30
0.0
 11
632.10292611720001
 21
90.018182291700001
 31
0.0
  0
LINE
  5
5CD
  8
┌▓È_1
 62
     5
 10
632.10292611720001
 20
91.518182291700001
 30
0.0
 11
632.10292611720001
 21
94.518182291699986
 31
0.0
  0
LINE
  5
5CE
  8
┌▓È_1
 62
     5
 10
607.10292611720001
 20
88.718182291700003
 30
0.0
 11
607.10292611720001
 21
220.3181822917
 31
0.0
  0
LINE
  5
5CF
  8
┌▓È_1
 62
     5
 10
609.10292611720001
 20
217.01818229169999
 30
0.0
 11
609.10292611720001
 21
92.018182291699986
 31
0.0
  0
LINE
  5
5D0
  8
┌▓È_1
 62
     5
 10
611.1029261171999
 20
217.01818229169999
 30
0.0
 11
611.1029261171999
 21
92.018182291699986
 31
0.0
  0
LINE
  5
5D1
  8
┌▓È_1
 62
     5
 10
662.10292611720001
 20
215.3181822917
 30
0.0
 11
662.10292611720001
 21
93.718182291700003
 31
0.0
  0
LINE
  5
5D2
  8
┌▓È_1
 62
     5
 10
632.10292611720001
 20
90.018182291700001
 30
0.0
 11
632.10292611720001
 21
219.01818229169999
 31
0.0
  0
LINE
  5
5D3
  8
┌▓È_1
 62
     5
 10
539.77571997439986
 20
95.217710937500001
 30
0.0
 11
539.77571997439986
 21
213.8186536458
 31
0.0
  0
LINE
  5
5D4
  8
┌▓È_1
  6
BORDER
 62
     3
 10
602.1029261171999
 20
154.51818229169999
 30
0.0
 11
667.10292611720001
 21
154.51818229169999
 31
0.0
  0
LINE
  5
5D5
  8
┌▓È_1
 62
     5
 10
611.1029261171999
 20
217.01818229169999
 30
0.0
 11
632.10292611720001
 21
217.01818229169999
 31
0.0
  0
LINE
  5
5D6
  8
┌▓È_1
 62
     5
 10
611.1029261171999
 20
219.01818229169999
 30
0.0
 11
632.10292611720001
 21
219.01818229169999
 31
0.0
  0
INSERT
  5
5D7
  8
0
  6
CONTINUOUS
  2
*U158
 10
0.0
 20
0.0
 30
0.0
  0
INSERT
  5
5D8
  8
0
  6
CONTINUOUS
  2
*U159
 10
0.0
 20
0.0
 30
0.0
  0
LINE
  5
5D9
  8
┌▓È_1
  6
BORDER
 62
     3
 10
504.77571997439998
 20
154.51818229169999
 30
0.0
 11
544.77571997439998
 21
154.51818229169999
 31
0.0
  0
INSERT
  5
5DB
  8
┌▓È_1
  6
BORDER
 62
     5
  2
CLUMP58
 10
0.0
 20
0.0
 30
0.0
  0
INSERT
  5
5F9
  8
┌▓È_1
  6
BORDER
 62
     5
  2
CLUMP59
 10
0.0
 20
0.0
 30
0.0
  0
DIMENSION
  5
624
  8
Éíû@É³
 62
     5
  2
*D104
 10
683.51783738730001
 20
214.51818229169999
 30
0.0
 11
683.51783738730001
 21
221.51818229169999
 31
0.0
 70
   128
  1
14
 13
662.10292611720001
 23
214.51818229169999
 33
0.0
 14
662.10292611720001
 24
228.51818229169999
 34
0.0
 50
90.0
  0
DIMENSION
  5
633
  8
Éíû@É³
 62
     5
  2
*D105
 10
632.10292611720001
 20
265.68970633949999
 30
0.0
 11
619.60292611720001
 21
265.68970633949999
 31
0.0
 70
   128
  1
<>
 13
632.10292611720001
 23
219.51818229169999
 33
0.0
 14
607.10292611720001
 24
228.51818229169999
 34
0.0
  0
LINE
  5
634
  8
┌▓È_1
 10
405.92923559939999
 20
89.517708333300007
 30
0.0
 11
311.69844132859998
 21
89.517708333300007
 31
0.0
  0
LINE
  5
635
  8
┌▓È_1
 10
405.12923559939998
 20
219.01818229169999
 30
0.0
 11
405.12923559939998
 21
90.018182291700001
 31
0.0
  0
LINE
  5
636
  8
┌▓È_1
 10
405.92923559939999
 20
219.51770833329999
 30
0.0
 11
405.92923559939999
 21
89.517708333300007
 31
0.0
  0
LINE
  5
637
  8
┌▓È_1
 10
414.92923559939999
 20
228.51770833329999
 30
0.0
 11
414.92923559939999
 21
80.517708333299993
 31
0.0
  0
LINE
  5
638
  8
┌▓È_1
  6
HIDDEN
 62
     1
 10
311.69844132859998
 20
217.01818229169999
 30
0.0
 11
405.12923559939998
 21
217.01818229169999
 31
0.0
  0
LINE
  5
639
  8
┌▓È_1
 10
311.69844132859998
 20
219.01818229169999
 30
0.0
 11
405.12923559939998
 21
219.01818229169999
 31
0.0
  0
LINE
  5
63A
  8
┌▓È_1
 10
311.69844132859998
 20
219.51770833329999
 30
0.0
 11
405.92923559939999
 21
219.51770833329999
 31
0.0
  0
CIRCLE
  5
63B
  8
┌▓È_1
 10
373.0288605994001
 20
154.51818229169999
 30
0.0
 40
7.5
  0
ARC
  5
63C
  8
┌▓È_1
 10
328.02886059939999
 20
154.51818229169999
 30
0.0
 40
3.5
 50
90.0
 51
270.0
  0
LINE
  5
63D
  8
┌▓È_1
 10
343.02886059939999
 20
158.01818229169999
 30
0.0
 11
328.02886059939999
 21
158.01818229169999
 31
0.0
  0
LINE
  5
63E
  8
┌▓È_1
 10
328.02886059939999
 20
151.01818229169999
 30
0.0
 11
343.02886059939999
 21
151.01818229169999
 31
0.0
  0
ARC
  5
63F
  8
┌▓È_1
 10
343.02886059939999
 20
154.51818229169999
 30
0.0
 40
3.5
 50
270.0
 51
90.0
  0
LINE
  5
640
  8
┌▓È_1
 10
311.69844132859998
 20
228.51770833329999
 30
0.0
 11
414.92923559939999
 21
228.51770833329999
 31
0.0
  0
INSERT
  5
642
  8
┌▓È_1
  2
CLUMP60
 10
0.0
 20
0.0
 30
0.0
  0
LINE
  5
64D
  8
┌▓È_1
 62
     5
 10
406.72923559939989
 20
-23.8255842682
 30
0.0
 11
414.12923559939998
 21
-23.8255842682
 31
0.0
  0
LINE
  5
64E
  8
┌▓È_1
 62
     5
 10
414.12923559939998
 20
4.5744157318000003
 30
0.0
 11
414.12923559939998
 21
-0.6255842682
 31
0.0
  0
LINE
  5
64F
  8
┌▓È_1
 62
     5
 10
405.17923559939999
 20
1.8744157318000001
 30
0.0
 11
405.17923559939999
 21
-4.625584268199999
 31
0.0
  0
LINE
  5
650
  8
┌▓È_1
 62
     5
 10
406.72923559939989
 20
4.5744157318000003
 30
0.0
 11
414.12923559939998
 21
4.5744157318000003
 31
0.0
  0
ARC
  5
651
  8
┌▓È_1
 62
     5
 10
406.72923559939989
 20
4.5744157318000003
 30
0.0
 40
0.8
 50
90.0
 51
180.0
  0
LINE
  5
652
  8
┌▓È_1
 62
     5
 10
311.69844132859998
 20
4.3744157318000001
 30
0.0
 11
402.67923559939999
 21
4.3744157318000001
 31
0.0
  0
LINE
  5
653
  8
┌▓È_1
 62
     5
 10
509.77571997439998
 20
220.3186536458
 30
0.0
 11
509.77571997439998
 21
154.51818229169999
 31
0.0
  0
LINE
  5
654
  8
┌▓È_1
 62
     5
 10
513.27571997439986
 20
217.01818229169999
 30
0.0
 11
512.77571997439986
 21
217.01818229169999
 31
0.0
  0
LINE
  5
655
  8
┌▓È_1
 62
     5
 10
513.27571997439986
 20
92.018182291699986
 30
0.0
 11
512.77571997439986
 21
92.018182291699986
 31
0.0
  0
INSERT
  5
657
  8
┌▓È_1
  6
BORDER
 62
     5
  2
CLUMP61
 10
0.0
 20
0.0
 30
0.0
  0
LINE
  5
663
  8
┌▓È_1
 62
     5
 10
509.77571997439998
 20
88.717710937500001
 30
0.0
 11
509.77571997439998
 21
154.51818229169999
 31
0.0
  0
LINE
  5
664
  8
┌▓È_1
 62
     5
 10
402.67923559939999
 20
2.3744157318000001
 30
0.0
 11
405.17923559939999
 21
2.3744157318000001
 31
0.0
  0
LINE
  5
665
  8
┌▓È_1
 62
     5
 10
414.12923559939998
 20
-0.6255842682
 30
0.0
 11
414.92923559939999
 21
-0.6255842682
 31
0.0
  0
LINE
  5
666
  8
┌▓È_1
 62
     5
 10
414.12923559939998
 20
-0.6255842682
 30
0.0
 11
406.72923559939989
 21
-0.6255842682
 31
0.0
  0
LINE
  5
667
  8
┌▓È_1
 62
     5
 10
405.17923559939999
 20
1.8744157318000001
 30
0.0
 11
405.17923559939999
 21
4.3744157318000001
 31
0.0
  0
LINE
  5
668
  8
┌▓È_1
 62
     5
 10
406.72923559939989
 20
-9.6255842682000008
 30
0.0
 11
406.72923559939989
 21
4.5744157318000003
 31
0.0
  0
LINE
  5
669
  8
┌▓È_1
 62
     5
 10
400.17923559939999
 20
-9.6255842682000008
 30
0.0
 11
311.69844132859998
 21
-9.6255842682000008
 31
0.0
  0
ARC
  5
66A
  8
┌▓È_1
 62
     5
 10
400.17923559939999
 20
-4.625584268199999
 30
0.0
 40
5.0
 50
270.0
 51
0.0
  0
LINE
  5
66B
  8
┌▓È_1
 62
     5
 10
406.72923559939989
 20
-9.6255842682000008
 30
0.0
 11
406.72923559939989
 21
-23.8255842682
 31
0.0
  0
LINE
  5
66C
  8
┌▓È_1
  6
BORDER
 62
     3
 10
306.69844132859998
 20
10.374415731799999
 30
0.0
 11
306.69844132859998
 21
-29.625584268200001
 31
0.0
  0
LINE
  5
66D
  8
┌▓È_1
  6
BORDER
 62
     3
 10
311.69844132859998
 20
10.374415731799999
 30
0.0
 11
311.69844132859998
 21
-29.625584268200001
 31
0.0
  0
LINE
  5
66E
  8
┌▓È_1
 62
     5
 10
405.92923559939999
 20
-9.6255842682000008
 30
0.0
 11
405.92923559939999
 21
-23.8255842682
 31
0.0
  0
LINE
  5
66F
  8
┌▓È_1
 62
     5
 10
405.92923559939999
 20
-9.6255842682000008
 30
0.0
 11
400.2292355994
 21
-9.6255842682000008
 31
0.0
  0
LINE
  5
670
  8
┌▓È_1
 62
     5
 10
405.92923559939999
 20
4.5744157318000003
 30
0.0
 11
405.92923559939999
 21
-9.6255842682000008
 31
0.0
  0
LINE
  5
671
  8
┌▓È_1
 62
     5
 10
402.67923559939999
 20
4.3744157318000001
 30
0.0
 11
405.17923559939999
 21
4.3744157318000001
 31
0.0
  0
LINE
  5
672
  8
┌▓È_1
 62
     5
 10
414.92923559939999
 20
-23.8255842682
 30
0.0
 11
414.92923559939999
 21
-18.625584268200001
 31
0.0
  0
LINE
  5
673
  8
┌▓È_1
 62
     5
 10
414.92923559939999
 20
-18.625584268200001
 30
0.0
 11
414.12923559939998
 21
-18.625584268200001
 31
0.0
  0
LINE
  5
674
  8
┌▓È_1
 62
     5
 10
400.2292355994
 20
-24.625584268200001
 30
0.0
 11
311.69844132859998
 21
-24.625584268200001
 31
0.0
  0
ARC
  5
675
  8
┌▓È_1
 62
     5
 10
406.72923559939989
 20
-23.8255842682
 30
0.0
 40
0.8
 50
180.0
 51
270.0
  0
LINE
  5
676
  8
┌▓È_1
 62
     5
 10
407.5292355993999
 20
-24.625584268200001
 30
0.0
 11
400.2292355994
 21
-24.625584268200001
 31
0.0
  0
LINE
  5
677
  8
┌▓È_1
 62
     5
 10
407.5292355993999
 20
-24.625584268200001
 30
0.0
 11
414.12923559939998
 21
-24.625584268200001
 31
0.0
  0
LINE
  5
678
  8
┌▓È_1
  6
BORDER
 62
     3
 10
373.0288605994001
 20
167.01818229169999
 30
0.0
 11
373.0288605994001
 21
142.01818229169999
 31
0.0
  0
INSERT
  5
67A
  8
┌▓È_1
  2
CLUMP62
 10
0.0
 20
0.0
 30
0.0
  0
LINE
  5
685
  8
┌▓È_1
  6
HIDDEN
 62
     1
 10
311.69844132859998
 20
92.018182291699986
 30
0.0
 11
405.12923559939998
 21
92.018182291699986
 31
0.0
  0
LINE
  5
686
  8
┌▓È_1
 10
311.69844132859998
 20
90.018182291700001
 30
0.0
 11
405.12923559939998
 21
90.018182291700001
 31
0.0
  0
LINE
  5
687
  8
┌▓È_1
 10
414.92923559939999
 20
80.517708333299993
 30
0.0
 11
311.69844132859998
 21
80.517708333299993
 31
0.0
  0
LINE
  5
688
  8
┌▓È_1
 62
     5
 10
335.77618825079998
 20
-134.6638066493
 30
0.0
 11
356.77618825079998
 21
-134.6638066493
 31
0.0
  0
LINE
  5
689
  8
┌▓È_1
 62
     5
 10
414.12923559939998
 20
-18.625584268200001
 30
0.0
 11
414.12923559939998
 21
-23.8255842682
 31
0.0
  0
ARC
  5
68A
  8
┌▓È_1
 62
     5
 10
414.12923559939998
 20
-23.8255842682
 30
0.0
 40
0.8
 50
270.0
 51
0.0
  0
LINE
  5
68B
  8
┌▓È_1
  6
BORDER
 62
     3
 10
306.69844132859998
 20
233.51770833329999
 30
0.0
 11
306.69844132859998
 21
75.517708333299993
 31
0.0
  0
LINE
  5
68C
  8
┌▓È_1
  6
BORDER
 62
     3
 10
311.69844132859998
 20
233.51770833329999
 30
0.0
 11
311.69844132859998
 21
75.517708333299993
 31
0.0
  0
LINE
  5
68D
  8
┌▓È_1
 10
306.69844132859998
 20
89.517708333300007
 30
0.0
 11
-274.07076440060001
 21
89.517708333300007
 31
0.0
  0
LINE
  5
68E
  8
┌▓È_1
 10
306.69844132859998
 20
80.517708333299993
 30
0.0
 11
-283.07076440060001
 21
80.517708333299993
 31
0.0
  0
LINE
  5
68F
  8
┌▓È_1
 10
-283.07076440060001
 20
228.51770833329999
 30
0.0
 11
306.69844132859998
 21
228.51770833329999
 31
0.0
  0
LINE
  5
690
  8
┌▓È_1
 10
-274.07076440060001
 20
219.51770833329999
 30
0.0
 11
306.69844132859998
 21
219.51770833329999
 31
0.0
  0
LINE
  5
691
  8
┌▓È_1
  6
BORDER
 62
     3
 10
-288.07076440060001
 20
154.51818229169999
 30
0.0
 11
419.92923559939999
 21
154.51818229169999
 31
0.0
  0
LINE
  5
692
  8
┌▓È_1
  6
HIDDEN
 62
     1
 10
-273.27118627559997
 20
217.01818229169999
 30
0.0
 11
306.69844132859998
 21
217.01818229169999
 31
0.0
  0
LINE
  5
693
  8
┌▓È_1
  6
HIDDEN
 62
     1
 10
-273.27118627559997
 20
92.018182291699986
 30
0.0
 11
306.69844132859998
 21
92.018182291699986
 31
0.0
  0
LINE
  5
694
  8
┌▓È_1
 10
-273.27118627559997
 20
219.01818229169999
 30
0.0
 11
306.69844132859998
 21
219.01818229169999
 31
0.0
  0
LINE
  5
695
  8
┌▓È_1
 10
-273.27118627559997
 20
90.018182291700001
 30
0.0
 11
306.69844132859998
 21
90.018182291700001
 31
0.0
  0
LINE
  5
696
  8
┌▓È_1
 10
-283.07076440060001
 20
-0.6255842682
 30
0.0
 11
306.69844132859998
 21
-0.6255842682
 31
0.0
  0
LINE
  5
697
  8
┌▓È_1
 10
-266.07079748529998
 20
-18.625584268200001
 30
0.0
 11
306.69844132859998
 21
-18.625584268200001
 31
0.0
  0
LINE
  5
698
  8
┌▓È_1
 10
-282.2707644006
 20
5.3744157317999992
 30
0.0
 11
306.69844132859998
 21
5.3744157317999992
 31
0.0
  0
LINE
  5
699
  8
┌▓È_1
 10
306.69844132859998
 20
-24.625584268200001
 30
0.0
 11
-282.2707644006
 21
-24.625584268200001
 31
0.0
  0
LINE
  5
69A
  8
┌▓È_1
 10
306.69844132859998
 20
-10.4255842682
 30
0.0
 11
-266.87076440060002
 21
-10.4255842682
 31
0.0
  0
LINE
  5
69B
  8
┌▓È_1
  6
BORDER
 62
     3
 10
-277.42250658810002
 20
154.51818229169999
 30
0.0
 11
171.7198762244
 21
154.51818229169999
 31
0.0
  0
LINE
  5
69C
  8
┌▓È_1
 62
     5
 10
402.67923559939999
 20
2.3744157318000001
 30
0.0
 11
311.69844132859998
 21
2.3744157318000001
 31
0.0
  0
LINE
  5
69D
  8
┌▓È_1
 62
     5
 10
406.72923559939989
 20
5.3744157317999992
 30
0.0
 11
311.69844132859998
 21
5.3744157317999992
 31
0.0
  0
LINE
  5
69E
  8
┌▓È_1
 62
     5
 10
414.12923559939998
 20
5.3744157317999992
 30
0.0
 11
406.72923559939989
 21
5.3744157317999992
 31
0.0
  0
LINE
  5
69F
  8
┌▓È_1
 62
     5
 10
414.92923559939999
 20
-0.6255842682
 30
0.0
 11
414.92923559939999
 21
4.5744157318000003
 31
0.0
  0
ARC
  5
6A0
  8
┌▓È_1
 62
     5
 10
414.12923559939998
 20
4.5744157318000003
 30
0.0
 40
0.8
 50
0.0
 51
90.0
  0
LINE
  5
6A1
  8
┌▓È_1
  6
HIDDEN
 62
     1
 10
-273.27118627559997
 20
-324.616145367
 30
0.0
 11
165.92881372439999
 21
-324.616145367
 31
0.0
  0
LINE
  5
6A2
  8
┌▓È_1
 62
     5
 10
-273.27118627559997
 20
-322.616145367
 30
0.0
 11
165.92881372439999
 21
-322.616145367
 31
0.0
  0
LINE
  5
6A3
  8
┌▓È_1
 62
     5
 10
160.92881347630001
 20
-336.616145367
 30
0.0
 11
-268.2711863124
 21
-336.616145367
 31
0.0
  0
LINE
  5
6A4
  8
┌▓È_1
  6
BORDER
 62
     3
 10
-277.42250658810002
 20
-197.1638066493
 30
0.0
 11
171.7198762244
 21
-197.1638066493
 31
0.0
  0
LINE
  5
6A5
  8
┌▓È_1
 10
-273.27118627559997
 20
-132.6638066493
 30
0.0
 11
165.92881372439999
 21
-132.6638066493
 31
0.0
  0
LINE
  5
6A6
  8
┌▓È_1
  6
HIDDEN
 62
     1
 10
-273.27118627559997
 20
-134.6638066493
 30
0.0
 11
165.92881372439999
 21
-134.6638066493
 31
0.0
  0
LINE
  5
6A7
  8
┌▓È_1
  6
HIDDEN
 62
     1
 10
-273.27118627559997
 20
-259.6638066493
 30
0.0
 11
165.92881372439999
 21
-259.6638066493
 31
0.0
  0
LINE
  5
6A8
  8
┌▓È_1
 10
-273.27118627559997
 20
-261.6638066493
 30
0.0
 11
165.92881372439999
 21
-261.6638066493
 31
0.0
  0
LINE
  5
6A9
  8
┌▓È_1
 62
     5
 10
333.77618825079998
 20
-134.6638066493
 30
0.0
 11
333.77618825079998
 21
-259.6638066493
 31
0.0
  0
LINE
  5
6AA
  8
┌▓È_1
 62
     5
 10
335.77618825079998
 20
-134.6638066493
 30
0.0
 11
335.77618825079998
 21
-259.6638066493
 31
0.0
  0
ARC
  5
6AB
  8
┌▓È_1
 62
     5
 10
-268.27118627559997
 20
-331.616145367
 30
0.0
 40
5.0
 50
180.0
 51
269.99999957839998
  0
LINE
  5
6AC
  8
┌▓È_1
 62
     5
 10
-273.27118627559997
 20
-322.616145367
 30
0.0
 11
-273.27118627559997
 21
-331.616145367
 31
0.0
  0
LINE
  5
6AD
  8
┌▓È_1
  6
BORDER
 62
     3
 10
-53.6711862756
 20
-317.616145367
 30
0.0
 11
-53.6711862756
 21
-341.616145367
 31
0.0
  0
INSERT
  5
6AE
  8
0
  6
CONTINUOUS
  2
*U160
 10
0.0
 20
0.0
 30
0.0
  0
INSERT
  5
6AF
  8
0
  6
CONTINUOUS
  2
*U161
 10
0.0
 20
0.0
 30
0.0
  0
ARC
  5
6B0
  8
┌▓È_1
 62
     5
 10
335.77618825079998
 20
-259.6638066493
 30
0.0
 40
2.0
 50
180.0
 51
270.0
  0
LINE
  5
6B1
  8
┌▓È_1
 62
     5
 10
335.77618825079998
 20
-261.6638066493
 30
0.0
 11
356.77618825079998
 21
-261.6638066493
 31
0.0
  0
LINE
  5
6B2
  8
┌▓È_1
  6
BORDER
 62
     3
 10
326.77618825080009
 20
-197.1638066493
 30
0.0
 11
361.77618825079998
 21
-197.1638066493
 31
0.0
  0
LINE
  5
6B3
  8
┌▓È_1
 62
     5
 10
356.77618825079998
 20
-259.6638066493
 30
0.0
 11
356.77618825079998
 21
-261.6638066493
 31
0.0
  0
LINE
  5
6B4
  8
┌▓È_1
 62
     5
 10
335.77618825079998
 20
-259.6638066493
 30
0.0
 11
356.77618825079998
 21
-259.6638066493
 31
0.0
  0
LINE
  5
6B5
  8
┌▓È_1
 62
     5
 10
165.92881372439999
 20
-322.616145367
 30
0.0
 11
165.92881372439999
 21
-331.616145367
 31
0.0
  0
ARC
  5
6B6
  8
┌▓È_1
 62
     5
 10
160.92881372439999
 20
-331.616145367
 30
0.0
 40
5.0
 50
269.99999715709998
 51
0.0
  0
LINE
  5
6B7
  8
┌▓È_1
 62
     5
 10
335.77618825079998
 20
-132.6638066493
 30
0.0
 11
356.77618825079998
 21
-132.6638066493
 31
0.0
  0
ARC
  5
6B8
  8
┌▓È_1
 62
     5
 10
335.77618825079998
 20
-134.6638066493
 30
0.0
 40
2.0
 50
90.0
 51
180.0
  0
LINE
  5
6B9
  8
┌▓È_1
 62
     5
 10
356.77618825079998
 20
-132.6638066493
 30
0.0
 11
356.77618825079998
 21
-134.6638066493
 31
0.0
  0
ENDSEC
  0
EOF
