  0
SECTION
  2
HEADER
  9
$ACADVER
  1
AC1009
  9
$INSBASE
 10
0.0
 20
0.0
 30
0.0
  9
$EXTMIN
 10
-716.9339993072
 20
-833.1910005607001
 30
0.0
  9
$EXTMAX
 10
512.9460006928
 20
32.188999439299998
 30
0.0
  9
$LIMMIN
 10
0.0
 20
0.0
  9
$LIMMAX
 10
0.0
 20
0.0
  9
$ORTHOMODE
 70
     0
  9
$REGENMODE
 70
     1
  9
$FILLMODE
 70
     1
  9
$QTEXTMODE
 70
     0
  9
$MIRRTEXT
 70
     1
  9
$DRAGMODE
 70
     2
  9
$LTSCALE
 40
1.0
  9
$OSMODE
 70
    31
  9
$ATTMODE
 70
     1
  9
$TEXTSIZE
 40
0.0
  9
$TRACEWID
 40
0.05
  9
$TEXTSTYLE
  7
STANDARD
  9
$CLAYER
  8
0
  9
$CELTYPE
  6
CONTINUOUS
  9
$CECOLOR
 62
   256
  9
$DIMSCALE
 40
1.0
  9
$DIMASZ
 40
0.18
  9
$DIMEXO
 40
0.0625
  9
$DIMDLI
 40
0.38
  9
$DIMRND
 40
0.0
  9
$DIMDLE
 40
0.0
  9
$DIMEXE
 40
0.18
  9
$DIMTP
 40
0.0
  9
$DIMTM
 40
0.0
  9
$DIMTXT
 40
0.18
  9
$DIMCEN
 40
0.09
  9
$DIMTSZ
 40
0.0
  9
$DIMTOL
 70
     0
  9
$DIMLIM
 70
     0
  9
$DIMTIH
 70
     1
  9
$DIMTOH
 70
     1
  9
$DIMSE1
 70
     0
  9
$DIMSE2
 70
     0
  9
$DIMTAD
 70
     0
  9
$DIMZIN
 70
     0
  9
$DIMBLK
  1

  9
$DIMASO
 70
     1
  9
$DIMSHO
 70
     1
  9
$DIMPOST
  1

  9
$DIMAPOST
  1

  9
$DIMALT
 70
     0
  9
$DIMALTD
 70
     2
  9
$DIMALTF
 40
25.399999999999999
  9
$DIMLFAC
 40
1.0
  9
$DIMTOFL
 70
     0
  9
$DIMTVP
 40
0.0
  9
$DIMTIX
 70
     0
  9
$DIMSOXD
 70
     0
  9
$DIMSAH
 70
     0
  9
$DIMBLK1
  1

  9
$DIMBLK2
  1

  9
$DIMSTYLE
  2
STANDARD
  9
$DIMCLRD
 70
     0
  9
$DIMCLRE
 70
     0
  9
$DIMCLRT
 70
     0
  9
$DIMTFAC
 40
1.0
  9
$DIMGAP
 40
0.09
  9
$LUNITS
 70
     2
  9
$LUPREC
 70
     4
  9
$SKETCHINC
 40
0.1
  9
$FILLETRAD
 40
0.0
  9
$AUNITS
 70
     0
  9
$AUPREC
 70
     0
  9
$MENU
  1
acad
  9
$ELEVATION
 40
0.0
  9
$PELEVATION
 40
0.0
  9
$THICKNESS
 40
0.0
  9
$LIMCHECK
 70
     0
  9
$BLIPMODE
 70
     0
  9
$CHAMFERA
 40
0.0
  9
$CHAMFERB
 40
0.0
  9
$SKPOLY
 70
     0
  9
$TDCREATE
 40
2454859.8112259381
  9
$TDUPDATE
 40
2454859.8113662731
  9
$TDINDWG
 40
0.000157338
  9
$TDUSRTIMER
 40
0.0001569676
  9
$USRTIMER
 70
     1
  9
$ANGBASE
 50
0.0
  9
$ANGDIR
 70
     0
  9
$PDMODE
 70
     3
  9
$PDSIZE
 40
-1.0
  9
$PLINEWID
 40
0.0
  9
$COORDS
 70
     2
  9
$SPLFRAME
 70
     0
  9
$SPLINETYPE
 70
     6
  9
$SPLINESEGS
 70
     8
  9
$ATTDIA
 70
     0
  9
$ATTREQ
 70
     1
  9
$HANDLING
 70
     1
  9
$HANDSEED
  5
9AB
  9
$SURFTAB1
 70
     6
  9
$SURFTAB2
 70
     6
  9
$SURFTYPE
 70
     6
  9
$SURFU
 70
     6
  9
$SURFV
 70
     6
  9
$UCSNAME
  2

  9
$UCSORG
 10
0.0
 20
0.0
 30
0.0
  9
$UCSXDIR
 10
1.0
 20
0.0
 30
0.0
  9
$UCSYDIR
 10
0.0
 20
1.0
 30
0.0
  9
$PUCSNAME
  2

  9
$PUCSORG
 10
0.0
 20
0.0
 30
0.0
  9
$PUCSXDIR
 10
1.0
 20
0.0
 30
0.0
  9
$PUCSYDIR
 10
0.0
 20
1.0
 30
0.0
  9
$USERI1
 70
     0
  9
$USERI2
 70
     0
  9
$USERI3
 70
     0
  9
$USERI4
 70
     0
  9
$USERI5
 70
     0
  9
$USERR1
 40
0.0
  9
$USERR2
 40
0.0
  9
$USERR3
 40
0.0
  9
$USERR4
 40
0.0
  9
$USERR5
 40
0.0
  9
$WORLDVIEW
 70
     1
  9
$SHADEDGE
 70
     3
  9
$SHADEDIF
 70
    70
  9
$TILEMODE
 70
     1
  9
$MAXACTVP
 70
    16
  9
$PLIMCHECK
 70
     0
  9
$PEXTMIN
 10
1.0000000000000000E+020
 20
1.0000000000000000E+020
 30
1.0000000000000000E+020
  9
$PEXTMAX
 10
-1.0000000000000000E+020
 20
-1.0000000000000000E+020
 30
-1.0000000000000000E+020
  9
$PLIMMIN
 10
0.0
 20
0.0
  9
$PLIMMAX
 10
12.0
 20
9.0
  9
$UNITMODE
 70
     0
  9
$VISRETAIN
 70
     0
  9
$PLINEGEN
 70
     1
  9
$PSLTSCALE
 70
     0
  0
ENDSEC
  0
SECTION
  2
TABLES
  0
TABLE
  2
VPORT
 70
     2
  0
VPORT
  2
*ACTIVE
 70
     0
 10
0.0
 20
0.0
 11
1.0
 21
1.0
 12
-101.9939993071999
 22
-400.50100056069999
 13
0.0
 23
0.0
 14
1.0
 24
1.0
 15
0.0
 25
0.0
 16
0.0
 26
0.0
 36
1.0
 17
0.0
 27
0.0
 37
0.0
 40
872.56157676348562
 41
1.6343490304709141
 42
50.0
 43
0.0
 44
0.0
 50
0.0
 51
0.0
 71
     0
 72
   100
 73
     1
 74
     1
 75
     0
 76
     0
 77
     0
 78
     0
  0
ENDTAB
  0
TABLE
  2
LTYPE
 70
    11
  0
LTYPE
  2
CONTINUOUS
 70
     0
  3
Solid line
 72
    65
 73
     0
 40
0.0
  0
LTYPE
  2
DOT
 70
     0
  3
. . . . . . . . 
 72
    65
 73
     2
 40
1.0
 49
0.0
 49
-1.0
  0
LTYPE
  2
DASHED
 70
     0
  3
___  ___  ___  ___  
 72
    65
 73
     2
 40
4.0
 49
3.0
 49
-1.0
  0
LTYPE
  2
HIDDEN
 70
     0
  3
__ __ __ __ 
 72
    65
 73
     2
 40
3.0
 49
2.0
 49
-1.0
  0
LTYPE
  2
STITCH
 70
     0
  3
_ _ _ _ 
 72
    65
 73
     2
 40
2.0
 49
1.0
 49
-1.0
  0
LTYPE
  2
CENTER
 70
     0
  3
______  __  ______  __  
 72
    65
 73
     4
 40
43.0
 49
40.0
 49
-1.0
 49
1.0
 49
-1.0
  0
LTYPE
  2
DASHDOT
 70
     0
  3
____ . ____ . 
 72
    65
 73
     4
 40
32.0
 49
30.0
 49
-1.0
 49
0.0
 49
-1.0
  0
LTYPE
  2
BORDER
 70
     0
  3
__ . __ . 
 72
    65
 73
     4
 40
22.0
 49
20.0
 49
-1.0
 49
0.0
 49
-1.0
  0
LTYPE
  2
CUTTING
 70
     0
  3
________   ___   ___   
 72
    65
 73
     6
 40
45.0
 49
40.0
 49
-1.0
 49
1.0
 49
-1.0
 49
1.0
 49
-1.0
  0
LTYPE
  2
PHANTOM
 70
     0
  3
______  __  __  
 72
    65
 73
     6
 40
35.0
 49
30.0
 49
-1.0
 49
1.0
 49
-1.0
 49
1.0
 49
-1.0
  0
LTYPE
  2
DIVIDE
 70
     0
  3
____ . . ____ . . 
 72
    65
 73
     6
 40
23.0
 49
20.0
 49
-1.0
 49
0.0
 49
-1.0
 49
0.0
 49
-1.0
  0
ENDTAB
  0
TABLE
  2
LAYER
 70
     5
  0
LAYER
  2
0
 70
     0
 62
     7
  6
CONTINUOUS
  0
LAYER
  2
┌▓È_1
 70
     0
 62
     7
  6
CONTINUOUS
  0
LAYER
  2
ë³Æ¨
 70
     0
 62
     7
  6
CONTINUOUS
  0
LAYER
  2
Éíû@É³
 70
     0
 62
     7
  6
CONTINUOUS
  0
LAYER
  2
É}ÿg
 70
     0
 62
     7
  6
CONTINUOUS
  0
ENDTAB
  0
TABLE
  2
STYLE
 70
     1
  0
STYLE
  2
STANDARD
 70
     0
 40
0.0
 41
1.0
 50
0.0
 71
     0
 42
0.0
  3
txt
  4
extfont
  0
ENDTAB
  0
TABLE
  2
VIEW
 70
     0
  0
ENDTAB
  0
TABLE
  2
UCS
 70
     0
  0
ENDTAB
  0
TABLE
  2
APPID
 70
     2
  0
APPID
  2
ACAD
 70
     0
  0
APPID
  2
DCO15
 70
     0
  0
ENDTAB
  0
TABLE
  2
DIMSTYLE
 70
     3
  0
DIMSTYLE
  2
STANDARD
 70
     0
  3

  4

  5

  6

  7

 40
1.0
 41
0.18
 42
0.0625
 43
0.38
 44
0.18
 45
0.0
 46
0.0
 47
0.0
 48
0.0
140
0.18
141
0.09
142
0.0
143
25.399999999999999
144
1.0
145
0.0
146
1.0
147
0.09
 71
     0
 72
     0
 73
     1
 74
     1
 75
     0
 76
     0
 77
     0
 78
     0
170
     0
171
     2
172
     0
173
     0
174
     0
175
     0
176
     0
177
     0
178
     0
  0
DIMSTYLE
  2
VELDIM0
 70
     0
  3

  4

  5

  6

  7

 40
1.0
 41
9.0
 42
0.0625
 43
0.38
 44
1.0
 45
0.0
 46
5.0
 47
0.0
 48
0.0
140
9.8954164504999991
141
0.09
142
0.0
143
25.399999999999999
144
1.0
145
0.0
146
1.0
147
0.09
 71
     0
 72
     0
 73
     0
 74
     0
 75
     0
 76
     0
 77
     0
 78
     8
170
     0
171
     2
172
     0
173
     0
174
     0
175
     0
176
     0
177
     0
178
     0
  0
DIMSTYLE
  2
VELDIM1
 70
     0
  3

  4

  5

  6

  7

 40
1.0
 41
9.0
 42
0.0625
 43
0.38
 44
1.25
 45
0.0
 46
5.0
 47
0.0
 48
0.0
140
9.8954164504999991
141
0.09
142
0.0
143
25.399999999999999
144
1.0
145
0.0
146
1.0
147
0.09
 71
     0
 72
     0
 73
     0
 74
     0
 75
     0
 76
     0
 77
     0
 78
     8
170
     0
171
     2
172
     0
173
     0
174
     0
175
     0
176
     0
177
     0
178
     0
  0
ENDTAB
  0
ENDSEC
  0
SECTION
  2
BLOCKS
  0
BLOCK
  8
0
  2
$MODEL_SPACE
 70
     0
 10
0.0
 20
0.0
 30
0.0
  3
$MODEL_SPACE
  1

  0
ENDBLK
  5
E
  8
0
  0
BLOCK
 67
     1
  8
0
  2
$PAPER_SPACE
 70
     0
 10
0.0
 20
0.0
 30
0.0
  3
$PAPER_SPACE
  1

  0
ENDBLK
  5
10
 67
     1
  8
0
  0
BLOCK
  8
0
  2
CLUMP0
 70
     0
 10
0.0
 20
0.0
 30
0.0
  3
CLUMP0
  1

  0
LINE
  5
33
  8
┌▓È_1
 62
     5
 10
280.2232246488
 20
-287.75607429109999
 30
0.0
 11
280.2232246488
 21
-288.5560742911
 31
0.0
  0
LINE
  5
34
  8
┌▓È_1
 62
     5
 10
274.32322464880002
 20
-295.15607429110003
 30
0.0
 11
274.32322464880002
 21
-287.75607429109999
 31
0.0
  0
LINE
  5
35
  8
┌▓È_1
 62
     5
 10
279.52322464880001
 20
-295.15607429110003
 30
0.0
 11
274.32322464880002
 21
-295.15607429110003
 31
0.0
  0
LINE
  5
36
  8
┌▓È_1
 62
     5
 10
279.52322464880001
 20
-295.15607429110003
 30
0.0
 11
279.52322464880001
 21
-295.95607429109998
 31
0.0
  0
LINE
  5
37
  8
┌▓È_1
 62
     5
 10
279.52322464880001
 20
-295.95607429109998
 30
0.0
 11
274.32322464880002
 21
-295.95607429109998
 31
0.0
  0
ARC
  5
38
  8
┌▓È_1
 62
     5
 10
274.32322464880002
 20
-295.15607429110003
 30
0.0
 40
0.8
 50
180.0
 51
270.0
  0
LINE
  5
39
  8
┌▓È_1
 62
     5
 10
273.52322464880001
 20
-295.15607429110003
 30
0.0
 11
273.52322464880001
 21
-287.75607429109999
 31
0.0
  0
ARC
  5
3A
  8
┌▓È_1
 62
     5
 10
274.32322464880002
 20
-287.75607429109999
 30
0.0
 40
0.8
 50
90.0
 51
180.0
  0
LINE
  5
3B
  8
┌▓È_1
 62
     5
 10
322.52322464880001
 20
-295.95607429109998
 30
0.0
 11
322.52322464880001
 21
-295.15607429110003
 31
0.0
  0
LINE
  5
3C
  8
┌▓È_1
 62
     5
 10
327.7232246488
 20
-295.15607429110003
 30
0.0
 11
322.52322464880001
 21
-295.15607429110003
 31
0.0
  0
LINE
  5
3D
  8
┌▓È_1
 62
     5
 10
327.7232246488
 20
-282.75607429109999
 30
0.0
 11
327.7232246488
 21
-295.15607429110003
 31
0.0
  0
LINE
  5
3E
  8
┌▓È_1
 62
     5
 10
299.32322464880002
 20
-282.75607429109999
 30
0.0
 11
327.7232246488
 21
-282.75607429109999
 31
0.0
  0
LINE
  5
3F
  8
┌▓È_1
 62
     5
 10
274.32322464880002
 20
-286.95607429109998
 30
0.0
 11
298.52322464880001
 21
-286.95607429109998
 31
0.0
  0
LINE
  5
40
  8
┌▓È_1
 62
     5
 10
274.32322464880002
 20
-287.75607429109999
 30
0.0
 11
298.52322464880001
 21
-287.75607429109999
 31
0.0
  0
LINE
  5
41
  8
┌▓È_1
 62
     5
 10
299.32322464880002
 20
-286.95607429109998
 30
0.0
 11
299.32322464880002
 21
-282.75607429109999
 31
0.0
  0
ARC
  5
42
  8
┌▓È_1
 62
     5
 10
298.52322464880001
 20
-286.95607429109998
 30
0.0
 40
0.8
 50
270.0
 51
0.0
  0
LINE
  5
43
  8
┌▓È_1
 62
     5
 10
298.52322464880001
 20
-286.95607429109998
 30
0.0
 11
298.52322464880001
 21
-282.75607429109999
 31
0.0
  0
ARC
  5
44
  8
┌▓È_1
 62
     5
 10
299.32322464880002
 20
-282.75607429109999
 30
0.0
 40
0.8
 50
90.0
 51
180.0
  0
LINE
  5
45
  8
┌▓È_1
 62
     5
 10
299.32322464880002
 20
-281.95607429109998
 30
0.0
 11
327.7232246488
 21
-281.95607429109998
 31
0.0
  0
ARC
  5
46
  8
┌▓È_1
 62
     5
 10
327.7232246488
 20
-282.75607429109999
 30
0.0
 40
0.8
 50
0.0
 51
90.0
  0
LINE
  5
47
  8
┌▓È_1
 62
     5
 10
327.7232246488
 20
-295.95607429109998
 30
0.0
 11
322.52322464880001
 21
-295.95607429109998
 31
0.0
  0
LINE
  5
48
  8
┌▓È_1
 62
     5
 10
328.52322464880001
 20
-282.75607429109999
 30
0.0
 11
328.52322464880001
 21
-295.15607429110003
 31
0.0
  0
ARC
  5
49
  8
┌▓È_1
 62
     5
 10
327.7232246488
 20
-295.15607429110003
 30
0.0
 40
0.8
 50
270.0
 51
0.0
  0
LINE
  5
4A
  8
┌▓È_1
 62
     5
 10
280.2232246488
 20
-288.5560742911
 30
0.0
 11
327.7232246488
 21
-288.5560742911
 31
0.0
  0
LINE
  5
4B
  8
┌▓È_1
 62
     5
 10
298.52322464880001
 20
-287.75607429109999
 30
0.0
 11
327.7232246488
 21
-287.75607429109999
 31
0.0
  0
ENDBLK
  5
4C
  8
0
  0
BLOCK
  8
0
  2
*D1
 70
     1
 10
0.0
 20
0.0
 30
0.0
  3
*D1
  1

  0
TEXT
  5
52
  8
0
 62
     0
 10
232.43946273110001
 20
-90.193020079799993
 30
0.0
 40
9.8954164504999991
  1
15.5
 50
90.0
  0
LINE
  5
53
  8
0
 62
     0
 10
212.40027034069999
 20
-113.4565456453
 30
0.0
 11
236.185712693
 21
-113.4565456453
 31
0.0
  0
LINE
  5
54
  8
0
 62
     0
 10
212.40027034069999
 20
-97.956545645300025
 30
0.0
 11
236.185712693
 21
-97.956545645300025
 31
0.0
  0
LINE
  5
55
  8
0
 62
     0
 10
235.185712693
 20
-113.4565456453
 30
0.0
 11
235.185712693
 21
-64.4843400858
 31
0.0
  0
LINE
  5
56
  8
0
 62
     0
 10
235.185712693
 20
-113.4565456453
 30
0.0
 11
235.185712693
 21
-96.013853286000014
 31
0.0
  0
LINE
  5
57
  8
0
 62
     0
 10
235.185712693
 20
-97.956545645300025
 30
0.0
 11
235.185712693
 21
-64.4843400858
 31
0.0
  0
LINE
  5
58
  8
0
 62
     0
 10
235.185712693
 20
-97.956545645300025
 30
0.0
 11
235.185712693
 21
-96.013853286000014
 31
0.0
  0
LINE
  5
59
  8
0
 62
     0
 10
235.185712693
 20
-97.956545645300025
 30
0.0
 11
235.185712693
 21
-92.956545645300025
 31
0.0
  0
SOLID
  5
5A
  8
0
 62
     0
 10
235.185712693
 20
-97.956545645300025
 30
0.0
 11
232.935712693
 21
-88.956545645300011
 31
0.0
 12
237.435712693
 22
-88.956545645300011
 32
0.0
 13
235.185712693
 23
-91.206545645300011
 33
0.0
  0
LINE
  5
5B
  8
0
 62
     0
 10
235.185712693
 20
-113.4565456453
 30
0.0
 11
235.185712693
 21
-118.4565456453
 31
0.0
  0
SOLID
  5
5C
  8
0
 62
     0
 10
235.185712693
 20
-113.4565456453
 30
0.0
 11
237.435712693
 21
-122.4565456453
 31
0.0
 12
232.935712693
 22
-122.4565456453
 32
0.0
 13
235.185712693
 23
-120.2065456453
 33
0.0
  0
ENDBLK
  5
5D
  8
0
  0
BLOCK
  8
0
  2
*D2
 70
     1
 10
0.0
 20
0.0
 30
0.0
  3
*D2
  1

  0
TEXT
  5
66
  8
0
 62
     0
 10
307.70239144269999
 20
-58.0392429897
 30
0.0
 40
9.8954164504999991
  1
30
  0
LINE
  5
67
  8
0
 62
     0
 10
328.52322464880001
 20
-96.957016999400025
 30
0.0
 11
328.52322464880001
 21
-59.785492951599998
 31
0.0
  0
LINE
  5
68
  8
0
 62
     0
 10
298.52322464880001
 20
-105.9570169994
 30
0.0
 11
298.52322464880001
 21
-59.785492951599998
 31
0.0
  0
LINE
  5
69
  8
0
 62
     0
 10
328.52322464880001
 20
-60.785492951599998
 30
0.0
 11
325.16489106120002
 21
-60.785492951599998
 31
0.0
  0
LINE
  5
6A
  8
0
 62
     0
 10
328.52322464880001
 20
-60.785492951599998
 30
0.0
 11
301.8815582365001
 21
-60.785492951599998
 31
0.0
  0
LINE
  5
6B
  8
0
 62
     0
 10
298.52322464880001
 20
-60.785492951599998
 30
0.0
 11
325.16489106120002
 21
-60.785492951599998
 31
0.0
  0
LINE
  5
6C
  8
0
 62
     0
 10
298.52322464880001
 20
-60.785492951599998
 30
0.0
 11
301.8815582365001
 21
-60.785492951599998
 31
0.0
  0
LINE
  5
6D
  8
0
 62
     0
 10
298.52322464880001
 20
-60.785492951599998
 30
0.0
 11
293.52322464880001
 21
-60.785492951599998
 31
0.0
  0
SOLID
  5
6E
  8
0
 62
     0
 10
298.52322464880001
 20
-60.785492951599998
 30
0.0
 11
289.52322464880001
 21
-63.035492951599991
 31
0.0
 12
289.52322464880001
 22
-58.535492951599998
 32
0.0
 13
291.77322464880001
 23
-60.785492951599998
 33
0.0
  0
LINE
  5
6F
  8
0
 62
     0
 10
328.52322464880001
 20
-60.785492951599998
 30
0.0
 11
333.52322464880001
 21
-60.785492951599998
 31
0.0
  0
SOLID
  5
70
  8
0
 62
     0
 10
328.52322464880001
 20
-60.785492951599998
 30
0.0
 11
337.52322464880001
 21
-58.535492951599998
 31
0.0
 12
337.52322464880001
 22
-63.035492951599991
 32
0.0
 13
335.27322464880001
 23
-60.785492951599998
 33
0.0
  0
ENDBLK
  5
71
  8
0
  0
BLOCK
  8
0
  2
*D3
 70
     1
 10
0.0
 20
0.0
 30
0.0
  3
*D3
  1

  0
TEXT
  5
75
  8
0
 62
     0
 10
295.20239144269999
 20
-37.3610363552
 30
0.0
 40
9.8954164504999991
  1
55
  0
LINE
  5
76
  8
0
 62
     0
 10
328.52322464880001
 20
-97.757016999399994
 30
0.0
 11
328.52322464880001
 21
-39.107286316999989
 31
0.0
  0
LINE
  5
77
  8
0
 62
     0
 10
273.52322464880001
 20
-97.757016999399994
 30
0.0
 11
273.52322464880001
 21
-39.107286316999989
 31
0.0
  0
LINE
  5
78
  8
0
 62
     0
 10
328.52322464880001
 20
-40.107286317000003
 30
0.0
 11
312.66489106120002
 21
-40.107286317000003
 31
0.0
  0
LINE
  5
79
  8
0
 62
     0
 10
328.52322464880001
 20
-40.107286317000003
 30
0.0
 11
289.38155823649998
 21
-40.107286317000003
 31
0.0
  0
LINE
  5
7A
  8
0
 62
     0
 10
273.52322464880001
 20
-40.107286317000003
 30
0.0
 11
312.66489106120002
 21
-40.107286317000003
 31
0.0
  0
LINE
  5
7B
  8
0
 62
     0
 10
273.52322464880001
 20
-40.107286317000003
 30
0.0
 11
289.38155823649998
 21
-40.107286317000003
 31
0.0
  0
LINE
  5
7C
  8
0
 62
     0
 10
273.52322464880001
 20
-40.107286317000003
 30
0.0
 11
278.52322464880001
 21
-40.107286317000003
 31
0.0
  0
SOLID
  5
7D
  8
0
 62
     0
 10
273.52322464880001
 20
-40.107286317000003
 30
0.0
 11
282.52322464880001
 21
-37.857286317000003
 31
0.0
 12
282.52322464880001
 22
-42.357286316999989
 32
0.0
 13
280.27322464880001
 23
-40.107286317000003
 33
0.0
  0
LINE
  5
7E
  8
0
 62
     0
 10
328.52322464880001
 20
-40.107286317000003
 30
0.0
 11
323.52322464880001
 21
-40.107286317000003
 31
0.0
  0
SOLID
  5
7F
  8
0
 62
     0
 10
328.52322464880001
 20
-40.107286317000003
 30
0.0
 11
319.52322464880001
 21
-42.357286316999989
 31
0.0
 12
319.52322464880001
 22
-37.857286317000003
 32
0.0
 13
321.77322464880001
 23
-40.107286317000003
 33
0.0
  0
ENDBLK
  5
80
  8
0
  0
BLOCK
  8
0
  2
*D4
 70
     1
 10
0.0
 20
0.0
 30
0.0
  3
*D4
  1

  0
TEXT
  5
84
  8
0
 62
     0
 10
280.20239144269999
 20
-58.0392429897
 30
0.0
 40
9.8954164504999991
  1
25
  0
LINE
  5
85
  8
0
 62
     0
 10
298.52322464880001
 20
-105.9570169994
 30
0.0
 11
298.52322464880001
 21
-59.785492951599998
 31
0.0
  0
LINE
  5
86
  8
0
 62
     0
 10
273.52322464880001
 20
-96.957016999400025
 30
0.0
 11
273.52322464880001
 21
-59.785492951599998
 31
0.0
  0
LINE
  5
87
  8
0
 62
     0
 10
298.52322464880001
 20
-60.785492951599998
 30
0.0
 11
297.66489106119991
 21
-60.785492951599998
 31
0.0
  0
LINE
  5
88
  8
0
 62
     0
 10
298.52322464880001
 20
-60.785492951599998
 30
0.0
 11
274.38155823649998
 21
-60.785492951599998
 31
0.0
  0
LINE
  5
89
  8
0
 62
     0
 10
273.52322464880001
 20
-60.785492951599998
 30
0.0
 11
297.66489106119991
 21
-60.785492951599998
 31
0.0
  0
LINE
  5
8A
  8
0
 62
     0
 10
273.52322464880001
 20
-60.785492951599998
 30
0.0
 11
274.38155823649998
 21
-60.785492951599998
 31
0.0
  0
LINE
  5
8B
  8
0
 62
     0
 10
273.52322464880001
 20
-60.785492951599998
 30
0.0
 11
268.52322464880001
 21
-60.785492951599998
 31
0.0
  0
SOLID
  5
8C
  8
0
 62
     0
 10
273.52322464880001
 20
-60.785492951599998
 30
0.0
 11
264.52322464880001
 21
-63.035492951599991
 31
0.0
 12
264.52322464880001
 22
-58.535492951599998
 32
0.0
 13
266.77322464880001
 23
-60.785492951599998
 33
0.0
  0
LINE
  5
8D
  8
0
 62
     0
 10
298.52322464880001
 20
-60.785492951599998
 30
0.0
 11
303.52322464880001
 21
-60.785492951599998
 31
0.0
  0
SOLID
  5
8E
  8
0
 62
     0
 10
298.52322464880001
 20
-60.785492951599998
 30
0.0
 11
307.52322464880001
 21
-58.535492951599998
 31
0.0
 12
307.52322464880001
 22
-63.035492951599991
 32
0.0
 13
305.27322464880001
 23
-60.785492951599998
 33
0.0
  0
ENDBLK
  5
8F
  8
0
  0
BLOCK
  8
0
  2
*D5
 70
     1
 10
0.0
 20
0.0
 30
0.0
  3
*D5
  1

  0
TEXT
  5
93
  8
0
 62
     0
 10
347.1918859571
 20
-110.7778502056
 30
0.0
 40
9.8954164504999991
  1
14
 50
90.0
  0
LINE
  5
94
  8
0
 62
     0
 10
329.52322464880001
 20
-111.9570169994
 30
0.0
 11
350.93813591899999
 21
-111.9570169994
 31
0.0
  0
LINE
  5
95
  8
0
 62
     0
 10
329.52322464880001
 20
-97.957016999400025
 30
0.0
 11
350.93813591899999
 21
-97.957016999400025
 31
0.0
  0
LINE
  5
96
  8
0
 62
     0
 10
349.93813591899999
 20
-111.9570169994
 30
0.0
 11
349.93813591899999
 21
-111.9570169994
 31
0.0
  0
LINE
  5
97
  8
0
 62
     0
 10
349.93813591899999
 20
-111.9570169994
 30
0.0
 11
349.93813591899999
 21
-97.957016999400025
 31
0.0
  0
LINE
  5
98
  8
0
 62
     0
 10
349.93813591899999
 20
-97.957016999400025
 30
0.0
 11
349.93813591899999
 21
-111.9570169994
 31
0.0
  0
LINE
  5
99
  8
0
 62
     0
 10
349.93813591899999
 20
-97.957016999400025
 30
0.0
 11
349.93813591899999
 21
-97.957016999400025
 31
0.0
  0
LINE
  5
9A
  8
0
 62
     0
 10
349.93813591899999
 20
-97.957016999400025
 30
0.0
 11
349.93813591899999
 21
-92.957016999400025
 31
0.0
  0
SOLID
  5
9B
  8
0
 62
     0
 10
349.93813591899999
 20
-97.957016999400025
 30
0.0
 11
347.68813591899999
 21
-88.957016999400011
 31
0.0
 12
352.18813591899999
 22
-88.957016999400011
 32
0.0
 13
349.93813591899999
 23
-91.207016999400011
 33
0.0
  0
LINE
  5
9C
  8
0
 62
     0
 10
349.93813591899999
 20
-111.9570169994
 30
0.0
 11
349.93813591899999
 21
-116.9570169994
 31
0.0
  0
SOLID
  5
9D
  8
0
 62
     0
 10
349.93813591899999
 20
-111.9570169994
 30
0.0
 11
352.18813591899999
 21
-120.9570169994
 31
0.0
 12
347.68813591899999
 22
-120.9570169994
 32
0.0
 13
349.93813591899999
 23
-118.7070169994
 33
0.0
  0
ENDBLK
  5
9E
  8
0
  0
BLOCK
  8
0
  2
CLUMP1
 70
     0
 10
0.0
 20
0.0
 30
0.0
  3
CLUMP1
  1

  0
LINE
  5
A7
  8
┌▓È_1
 62
     5
 10
280.2232246488
 20
-106.1570169994
 30
0.0
 11
280.2232246488
 21
-105.3570169994
 31
0.0
  0
LINE
  5
A8
  8
┌▓È_1
 62
     5
 10
274.32322464880002
 20
-98.757016999400022
 30
0.0
 11
274.32322464880002
 21
-106.1570169994
 31
0.0
  0
LINE
  5
A9
  8
┌▓È_1
 62
     5
 10
279.52322464880001
 20
-98.757016999400022
 30
0.0
 11
274.32322464880002
 21
-98.757016999400022
 31
0.0
  0
LINE
  5
AA
  8
┌▓È_1
 62
     5
 10
279.52322464880001
 20
-98.757016999400022
 30
0.0
 11
279.52322464880001
 21
-97.957016999400025
 31
0.0
  0
LINE
  5
AB
  8
┌▓È_1
 62
     5
 10
279.52322464880001
 20
-97.957016999400025
 30
0.0
 11
274.32322464880002
 21
-97.957016999400025
 31
0.0
  0
ARC
  5
AC
  8
┌▓È_1
 62
     5
 10
274.32322464880002
 20
-98.757016999400022
 30
0.0
 40
0.8
 50
90.0
 51
180.0
  0
LINE
  5
AD
  8
┌▓È_1
 62
     5
 10
273.52322464880001
 20
-98.757016999400022
 30
0.0
 11
273.52322464880001
 21
-106.1570169994
 31
0.0
  0
ARC
  5
AE
  8
┌▓È_1
 62
     5
 10
274.32322464880002
 20
-106.1570169994
 30
0.0
 40
0.8
 50
180.0
 51
270.0
  0
LINE
  5
AF
  8
┌▓È_1
 62
     5
 10
322.52322464880001
 20
-97.957016999400025
 30
0.0
 11
322.52322464880001
 21
-98.757016999400022
 31
0.0
  0
LINE
  5
B0
  8
┌▓È_1
 62
     5
 10
327.7232246488
 20
-98.757016999400022
 30
0.0
 11
322.52322464880001
 21
-98.757016999400022
 31
0.0
  0
LINE
  5
B1
  8
┌▓È_1
 62
     5
 10
327.7232246488
 20
-111.1570169994
 30
0.0
 11
327.7232246488
 21
-98.757016999400022
 31
0.0
  0
LINE
  5
B2
  8
┌▓È_1
 62
     5
 10
299.32322464880002
 20
-111.1570169994
 30
0.0
 11
327.7232246488
 21
-111.1570169994
 31
0.0
  0
LINE
  5
B3
  8
┌▓È_1
 62
     5
 10
274.32322464880002
 20
-106.9570169994
 30
0.0
 11
298.52322464880001
 21
-106.9570169994
 31
0.0
  0
LINE
  5
B4
  8
┌▓È_1
 62
     5
 10
274.32322464880002
 20
-106.1570169994
 30
0.0
 11
298.52322464880001
 21
-106.1570169994
 31
0.0
  0
LINE
  5
B5
  8
┌▓È_1
 62
     5
 10
299.32322464880002
 20
-106.9570169994
 30
0.0
 11
299.32322464880002
 21
-111.1570169994
 31
0.0
  0
ARC
  5
B6
  8
┌▓È_1
 62
     5
 10
298.52322464880001
 20
-106.9570169994
 30
0.0
 40
0.8
 50
0.0
 51
90.0
  0
LINE
  5
B7
  8
┌▓È_1
 62
     5
 10
298.52322464880001
 20
-106.9570169994
 30
0.0
 11
298.52322464880001
 21
-111.1570169994
 31
0.0
  0
ARC
  5
B8
  8
┌▓È_1
 62
     5
 10
299.32322464880002
 20
-111.1570169994
 30
0.0
 40
0.8
 50
180.0
 51
270.0
  0
LINE
  5
B9
  8
┌▓È_1
 62
     5
 10
299.32322464880002
 20
-111.9570169994
 30
0.0
 11
327.7232246488
 21
-111.9570169994
 31
0.0
  0
ARC
  5
BA
  8
┌▓È_1
 62
     5
 10
327.7232246488
 20
-111.1570169994
 30
0.0
 40
0.8
 50
270.0
 51
0.0
  0
LINE
  5
BB
  8
┌▓È_1
 62
     5
 10
327.7232246488
 20
-97.957016999400025
 30
0.0
 11
322.52322464880001
 21
-97.957016999400025
 31
0.0
  0
LINE
  5
BC
  8
┌▓È_1
 62
     5
 10
328.52322464880001
 20
-111.1570169994
 30
0.0
 11
328.52322464880001
 21
-98.757016999400022
 31
0.0
  0
ARC
  5
BD
  8
┌▓È_1
 62
     5
 10
327.7232246488
 20
-98.757016999400022
 30
0.0
 40
0.8
 50
0.0
 51
90.0
  0
LINE
  5
BE
  8
┌▓È_1
 62
     5
 10
280.2232246488
 20
-105.3570169994
 30
0.0
 11
327.7232246488
 21
-105.3570169994
 31
0.0
  0
LINE
  5
BF
  8
┌▓È_1
 62
     5
 10
298.52322464880001
 20
-106.1570169994
 30
0.0
 11
327.7232246488
 21
-106.1570169994
 31
0.0
  0
ENDBLK
  5
C0
  8
0
  0
BLOCK
  8
0
  2
*D7
 70
     1
 10
0.0
 20
0.0
 30
0.0
  3
*D7
  1

  0
TEXT
  5
D6
  8
0
 62
     0
 10
347.1918859571
 20
-294.77690749729999
 30
0.0
 40
9.8954164504999991
  1
14
 50
90.0
  0
LINE
  5
D7
  8
0
 62
     0
 10
329.52322464880001
 20
-295.95607429109998
 30
0.0
 11
350.93813591899999
 21
-295.95607429109998
 31
0.0
  0
LINE
  5
D8
  8
0
 62
     0
 10
329.52322464880001
 20
-281.95607429109998
 30
0.0
 11
350.93813591899999
 21
-281.95607429109998
 31
0.0
  0
LINE
  5
D9
  8
0
 62
     0
 10
349.93813591899999
 20
-295.95607429109998
 30
0.0
 11
349.93813591899999
 21
-295.95607429109998
 31
0.0
  0
LINE
  5
DA
  8
0
 62
     0
 10
349.93813591899999
 20
-295.95607429109998
 30
0.0
 11
349.93813591899999
 21
-281.95607429109998
 31
0.0
  0
LINE
  5
DB
  8
0
 62
     0
 10
349.93813591899999
 20
-281.95607429109998
 30
0.0
 11
349.93813591899999
 21
-295.95607429109998
 31
0.0
  0
LINE
  5
DC
  8
0
 62
     0
 10
349.93813591899999
 20
-281.95607429109998
 30
0.0
 11
349.93813591899999
 21
-281.95607429109998
 31
0.0
  0
LINE
  5
DD
  8
0
 62
     0
 10
349.93813591899999
 20
-281.95607429109998
 30
0.0
 11
349.93813591899999
 21
-276.95607429109998
 31
0.0
  0
SOLID
  5
DE
  8
0
 62
     0
 10
349.93813591899999
 20
-281.95607429109998
 30
0.0
 11
347.68813591899999
 21
-272.95607429109998
 31
0.0
 12
352.18813591899999
 22
-272.95607429109998
 32
0.0
 13
349.93813591899999
 23
-275.20607429109998
 33
0.0
  0
LINE
  5
DF
  8
0
 62
     0
 10
349.93813591899999
 20
-295.95607429109998
 30
0.0
 11
349.93813591899999
 21
-300.95607429109998
 31
0.0
  0
SOLID
  5
E0
  8
0
 62
     0
 10
349.93813591899999
 20
-295.95607429109998
 30
0.0
 11
352.18813591899999
 21
-304.95607429109998
 31
0.0
 12
347.68813591899999
 22
-304.95607429109998
 32
0.0
 13
349.93813591899999
 23
-302.70607429109998
 33
0.0
  0
ENDBLK
  5
E1
  8
0
  0
BLOCK
  8
0
  2
*D8
 70
     1
 10
0.0
 20
0.0
 30
0.0
  3
*D8
  1

  0
TEXT
  5
E5
  8
0
 62
     0
 10
232.43946273110001
 20
-323.89145872419999
 30
0.0
 40
9.8954164504999991
  1
15.5
 50
90.0
  0
LINE
  5
E6
  8
0
 62
     0
 10
212.40027034069999
 20
-295.95654564530003
 30
0.0
 11
236.185712693
 21
-295.95654564530003
 31
0.0
  0
LINE
  5
E7
  8
0
 62
     0
 10
212.40027034069999
 20
-280.45654564530003
 30
0.0
 11
236.185712693
 21
-280.45654564530003
 31
0.0
  0
LINE
  5
E8
  8
0
 62
     0
 10
235.185712693
 20
-295.95654564530003
 30
0.0
 11
235.185712693
 21
-298.18277873030002
 31
0.0
  0
LINE
  5
E9
  8
0
 62
     0
 10
235.185712693
 20
-295.95654564530003
 30
0.0
 11
235.185712693
 21
-329.7122919304
 31
0.0
  0
LINE
  5
EA
  8
0
 62
     0
 10
235.185712693
 20
-280.45654564530003
 30
0.0
 11
235.185712693
 21
-298.18277873030002
 31
0.0
  0
LINE
  5
EB
  8
0
 62
     0
 10
235.185712693
 20
-280.45654564530003
 30
0.0
 11
235.185712693
 21
-329.7122919304
 31
0.0
  0
LINE
  5
EC
  8
0
 62
     0
 10
235.185712693
 20
-280.45654564530003
 30
0.0
 11
235.185712693
 21
-275.45654564530003
 31
0.0
  0
SOLID
  5
ED
  8
0
 62
     0
 10
235.185712693
 20
-280.45654564530003
 30
0.0
 11
232.935712693
 21
-271.45654564530003
 31
0.0
 12
237.435712693
 22
-271.45654564530003
 32
0.0
 13
235.185712693
 23
-273.70654564530003
 33
0.0
  0
LINE
  5
EE
  8
0
 62
     0
 10
235.185712693
 20
-295.95654564530003
 30
0.0
 11
235.185712693
 21
-300.95654564530003
 31
0.0
  0
SOLID
  5
EF
  8
0
 62
     0
 10
235.185712693
 20
-295.95654564530003
 30
0.0
 11
237.435712693
 21
-304.95654564530003
 31
0.0
 12
232.935712693
 22
-304.95654564530003
 32
0.0
 13
235.185712693
 23
-302.70654564530003
 33
0.0
  0
ENDBLK
  5
F0
  8
0
  0
BLOCK
  8
0
  2
*D9
 70
     1
 10
0.0
 20
0.0
 30
0.0
  3
*D9
  1

  0
TEXT
  5
FE
  8
0
 62
     0
 10
183.63896055599989
 20
-58.209892088399997
 30
0.0
 40
9.8954164504999991
  1
15
  0
LINE
  5
FF
  8
0
 62
     0
 10
197.2002703407
 20
-105.9565456453
 30
0.0
 11
197.2002703407
 21
-59.956142050299988
 31
0.0
  0
LINE
  5
100
  8
0
 62
     0
 10
182.2002703407
 20
-97.756545645299994
 30
0.0
 11
182.2002703407
 21
-59.956142050299988
 31
0.0
  0
LINE
  5
101
  8
0
 62
     0
 10
197.2002703407
 20
-60.956142050299988
 30
0.0
 11
197.2002703407
 21
-60.956142050299988
 31
0.0
  0
LINE
  5
102
  8
0
 62
     0
 10
197.2002703407
 20
-60.956142050299988
 30
0.0
 11
182.2002703407
 21
-60.956142050299988
 31
0.0
  0
LINE
  5
103
  8
0
 62
     0
 10
182.2002703407
 20
-60.956142050299988
 30
0.0
 11
197.2002703407
 21
-60.956142050299988
 31
0.0
  0
LINE
  5
104
  8
0
 62
     0
 10
182.2002703407
 20
-60.956142050299988
 30
0.0
 11
182.2002703407
 21
-60.956142050299988
 31
0.0
  0
LINE
  5
105
  8
0
 62
     0
 10
182.2002703407
 20
-60.956142050299988
 30
0.0
 11
177.2002703407
 21
-60.956142050299988
 31
0.0
  0
SOLID
  5
106
  8
0
 62
     0
 10
182.2002703407
 20
-60.956142050299988
 30
0.0
 11
173.2002703407
 21
-63.206142050300002
 31
0.0
 12
173.2002703407
 22
-58.706142050299988
 32
0.0
 13
175.4502703407
 23
-60.956142050299988
 33
0.0
  0
LINE
  5
107
  8
0
 62
     0
 10
197.2002703407
 20
-60.956142050299988
 30
0.0
 11
202.2002703407
 21
-60.956142050299988
 31
0.0
  0
SOLID
  5
108
  8
0
 62
     0
 10
197.2002703407
 20
-60.956142050299988
 30
0.0
 11
206.2002703407
 21
-58.706142050299988
 31
0.0
 12
206.2002703407
 22
-63.206142050300002
 32
0.0
 13
203.9502703407
 23
-60.956142050299988
 33
0.0
  0
ENDBLK
  5
109
  8
0
  0
BLOCK
  8
0
  2
*D10
 70
     1
 10
0.0
 20
0.0
 30
0.0
  3
*D10
  1

  0
TEXT
  5
10D
  8
0
 62
     0
 10
68.492554965300002
 20
-60.766230589400003
 30
0.0
 40
9.8954164504999991
  1
9
  0
LINE
  5
10E
  8
0
 62
     0
 10
76.029238971699996
 20
-96.956545645300025
 30
0.0
 11
76.029238971699996
 21
-62.512480551300001
 31
0.0
  0
LINE
  5
10F
  8
0
 62
     0
 10
67.029238971699996
 20
-105.9565456453
 30
0.0
 11
67.029238971699996
 21
-62.512480551300001
 31
0.0
  0
LINE
  5
110
  8
0
 62
     0
 10
76.029238971699996
 20
-63.512480551300001
 30
0.0
 11
76.029238971699996
 21
-63.512480551300001
 31
0.0
  0
LINE
  5
111
  8
0
 62
     0
 10
76.029238971699996
 20
-63.512480551300001
 30
0.0
 11
67.029238971699996
 21
-63.512480551300001
 31
0.0
  0
LINE
  5
112
  8
0
 62
     0
 10
67.029238971699996
 20
-63.512480551300001
 30
0.0
 11
76.029238971699996
 21
-63.512480551300001
 31
0.0
  0
LINE
  5
113
  8
0
 62
     0
 10
67.029238971699996
 20
-63.512480551300001
 30
0.0
 11
67.029238971699996
 21
-63.512480551300001
 31
0.0
  0
LINE
  5
114
  8
0
 62
     0
 10
67.029238971699996
 20
-63.512480551300001
 30
0.0
 11
62.029238971700003
 21
-63.512480551300001
 31
0.0
  0
SOLID
  5
115
  8
0
 62
     0
 10
67.029238971699996
 20
-63.512480551300001
 30
0.0
 11
58.029238971700003
 21
-65.762480551300001
 31
0.0
 12
58.029238971700003
 22
-61.262480551300001
 32
0.0
 13
60.279238971700003
 23
-63.512480551300001
 33
0.0
  0
LINE
  5
116
  8
0
 62
     0
 10
76.029238971699996
 20
-63.512480551300001
 30
0.0
 11
81.029238971699996
 21
-63.512480551300001
 31
0.0
  0
SOLID
  5
117
  8
0
 62
     0
 10
76.029238971699996
 20
-63.512480551300001
 30
0.0
 11
85.029238971699996
 21
-61.262480551300001
 31
0.0
 12
85.029238971699996
 22
-65.762480551300001
 32
0.0
 13
82.779238971699996
 23
-63.512480551300001
 33
0.0
  0
ENDBLK
  5
118
  8
0
  0
BLOCK
  8
0
  2
*D11
 70
     1
 10
0.0
 20
0.0
 30
0.0
  3
*D11
  1

  0
TEXT
  5
11C
  8
0
 62
     0
 10
94.187769369599977
 20
-105.3669622483
 30
0.0
 40
9.8954164504999991
  1
9
 50
90.0
  0
LINE
  5
11D
  8
0
 62
     0
 10
53.914438490400002
 20
-106.9565456453
 30
0.0
 11
97.934019331500011
 21
-106.9565456453
 31
0.0
  0
LINE
  5
11E
  8
0
 62
     0
 10
62.914438490400002
 20
-97.956545645300025
 30
0.0
 11
97.934019331500011
 21
-97.956545645300025
 31
0.0
  0
LINE
  5
11F
  8
0
 62
     0
 10
96.934019331499996
 20
-106.9565456453
 30
0.0
 11
96.934019331499996
 21
-106.9565456453
 31
0.0
  0
LINE
  5
120
  8
0
 62
     0
 10
96.934019331499996
 20
-106.9565456453
 30
0.0
 11
96.934019331499996
 21
-97.956545645300025
 31
0.0
  0
LINE
  5
121
  8
0
 62
     0
 10
96.934019331499996
 20
-97.956545645300025
 30
0.0
 11
96.934019331499996
 21
-106.9565456453
 31
0.0
  0
LINE
  5
122
  8
0
 62
     0
 10
96.934019331499996
 20
-97.956545645300025
 30
0.0
 11
96.934019331499996
 21
-97.956545645300025
 31
0.0
  0
LINE
  5
123
  8
0
 62
     0
 10
96.934019331499996
 20
-97.956545645300025
 30
0.0
 11
96.934019331499996
 21
-92.956545645300025
 31
0.0
  0
SOLID
  5
124
  8
0
 62
     0
 10
96.934019331499996
 20
-97.956545645300025
 30
0.0
 11
94.684019331499996
 21
-88.956545645300011
 31
0.0
 12
99.184019331500011
 22
-88.956545645300011
 32
0.0
 13
96.934019331499996
 23
-91.206545645300011
 33
0.0
  0
LINE
  5
125
  8
0
 62
     0
 10
96.934019331499996
 20
-106.9565456453
 30
0.0
 11
96.934019331499996
 21
-111.9565456453
 31
0.0
  0
SOLID
  5
126
  8
0
 62
     0
 10
96.934019331499996
 20
-106.9565456453
 30
0.0
 11
99.184019331500011
 21
-115.9565456453
 31
0.0
 12
94.684019331499996
 22
-115.9565456453
 32
0.0
 13
96.934019331499996
 23
-113.7065456453
 33
0.0
  0
ENDBLK
  5
127
  8
0
  0
BLOCK
  8
0
  2
*D12
 70
     1
 10
0.0
 20
0.0
 30
0.0
  3
*D12
  1

  0
TEXT
  5
13D
  8
0
 62
     0
 10
97.282989009899993
 20
-365.98308040479998
 30
0.0
 40
9.8954164504999991
  1
6
 50
90.0
  0
LINE
  5
13E
  8
0
 62
     0
 10
77.029238971699996
 20
-378.00218822340003
 30
0.0
 11
101.0292389717
 21
-378.00218822340003
 31
0.0
  0
LINE
  5
13F
  8
0
 62
     0
 10
76.229238971699999
 20
-372.00218822340003
 30
0.0
 11
101.0292389717
 21
-372.00218822340003
 31
0.0
  0
LINE
  5
140
  8
0
 62
     0
 10
100.0292389717
 20
-378.00218822340003
 30
0.0
 11
100.0292389717
 21
-354.34141399240002
 31
0.0
  0
LINE
  5
141
  8
0
 62
     0
 10
100.0292389717
 20
-378.00218822340003
 30
0.0
 11
100.0292389717
 21
-371.80391361099998
 31
0.0
  0
LINE
  5
142
  8
0
 62
     0
 10
100.0292389717
 20
-372.00218822340003
 30
0.0
 11
100.0292389717
 21
-354.34141399240002
 31
0.0
  0
LINE
  5
143
  8
0
 62
     0
 10
100.0292389717
 20
-372.00218822340003
 30
0.0
 11
100.0292389717
 21
-371.80391361099998
 31
0.0
  0
LINE
  5
144
  8
0
 62
     0
 10
100.0292389717
 20
-372.00218822340003
 30
0.0
 11
100.0292389717
 21
-367.00218822340003
 31
0.0
  0
SOLID
  5
145
  8
0
 62
     0
 10
100.0292389717
 20
-372.00218822340003
 30
0.0
 11
97.779238971699996
 21
-363.00218822340003
 31
0.0
 12
102.2792389717
 22
-363.00218822340003
 32
0.0
 13
100.0292389717
 23
-365.25218822340003
 33
0.0
  0
LINE
  5
146
  8
0
 62
     0
 10
100.0292389717
 20
-378.00218822340003
 30
0.0
 11
100.0292389717
 21
-383.00218822340003
 31
0.0
  0
SOLID
  5
147
  8
0
 62
     0
 10
100.0292389717
 20
-378.00218822340003
 30
0.0
 11
102.2792389717
 21
-387.00218822340003
 31
0.0
 12
97.779238971699996
 22
-387.00218822340003
 32
0.0
 13
100.0292389717
 23
-384.75218822340003
 33
0.0
  0
ENDBLK
  5
148
  8
0
  0
BLOCK
  8
0
  2
*D13
 70
     1
 10
0.0
 20
0.0
 30
0.0
  3
*D13
  1

  0
TEXT
  5
14C
  8
0
 62
     0
 10
94.187769369599977
 20
-294.36696224830001
 30
0.0
 40
9.8954164504999991
  1
9
 50
90.0
  0
LINE
  5
14D
  8
0
 62
     0
 10
62.914438490400002
 20
-295.95654564530003
 30
0.0
 11
97.934019331500011
 21
-295.95654564530003
 31
0.0
  0
LINE
  5
14E
  8
0
 62
     0
 10
53.914438490400002
 20
-286.95654564529991
 30
0.0
 11
97.934019331500011
 21
-286.95654564529991
 31
0.0
  0
LINE
  5
14F
  8
0
 62
     0
 10
96.934019331499996
 20
-295.95654564530003
 30
0.0
 11
96.934019331499996
 21
-295.95654564530003
 31
0.0
  0
LINE
  5
150
  8
0
 62
     0
 10
96.934019331499996
 20
-295.95654564530003
 30
0.0
 11
96.934019331499996
 21
-286.95654564529991
 31
0.0
  0
LINE
  5
151
  8
0
 62
     0
 10
96.934019331499996
 20
-286.95654564529991
 30
0.0
 11
96.934019331499996
 21
-295.95654564530003
 31
0.0
  0
LINE
  5
152
  8
0
 62
     0
 10
96.934019331499996
 20
-286.95654564529991
 30
0.0
 11
96.934019331499996
 21
-286.95654564529991
 31
0.0
  0
LINE
  5
153
  8
0
 62
     0
 10
96.934019331499996
 20
-286.95654564529991
 30
0.0
 11
96.934019331499996
 21
-281.95654564530003
 31
0.0
  0
SOLID
  5
154
  8
0
 62
     0
 10
96.934019331499996
 20
-286.95654564529991
 30
0.0
 11
94.684019331499996
 21
-277.95654564530003
 31
0.0
 12
99.184019331500011
 22
-277.95654564530003
 32
0.0
 13
96.934019331499996
 23
-280.20654564530003
 33
0.0
  0
LINE
  5
155
  8
0
 62
     0
 10
96.934019331499996
 20
-295.95654564530003
 30
0.0
 11
96.934019331499996
 21
-300.95654564530003
 31
0.0
  0
SOLID
  5
156
  8
0
 62
     0
 10
96.934019331499996
 20
-295.95654564530003
 30
0.0
 11
99.184019331500011
 21
-304.95654564530003
 31
0.0
 12
94.684019331499996
 22
-304.95654564530003
 32
0.0
 13
96.934019331499996
 23
-302.70654564530003
 33
0.0
  0
ENDBLK
  5
157
  8
0
  0
BLOCK
  8
0
  2
*D14
 70
     1
 10
0.0
 20
0.0
 30
0.0
  3
*D14
  1

  0
TEXT
  5
18A
  8
0
 62
     0
 10
-72.486902784400002
 20
-466.99430678110002
 30
0.0
 40
9.8954164504999991
  1
23
  0
LINE
  5
18B
  8
0
 62
     0
 10
-55.166069578299989
 20
-490.8254528306
 30
0.0
 11
-55.166069578299989
 21
-468.7405567429999
 31
0.0
  0
LINE
  5
18C
  8
0
 62
     0
 10
-78.166069578299997
 20
-492.82545283059989
 30
0.0
 11
-78.166069578299997
 21
-468.7405567429999
 31
0.0
  0
LINE
  5
18D
  8
0
 62
     0
 10
-55.166069578299989
 20
-469.74055674300001
 30
0.0
 11
-55.166069578299989
 21
-469.74055674300001
 31
0.0
  0
LINE
  5
18E
  8
0
 62
     0
 10
-55.166069578299989
 20
-469.74055674300001
 30
0.0
 11
-78.166069578299997
 21
-469.74055674300001
 31
0.0
  0
LINE
  5
18F
  8
0
 62
     0
 10
-78.166069578299997
 20
-469.74055674300001
 30
0.0
 11
-55.166069578299989
 21
-469.74055674300001
 31
0.0
  0
LINE
  5
190
  8
0
 62
     0
 10
-78.166069578299997
 20
-469.74055674300001
 30
0.0
 11
-78.166069578299997
 21
-469.74055674300001
 31
0.0
  0
LINE
  5
191
  8
0
 62
     0
 10
-78.166069578299997
 20
-469.74055674300001
 30
0.0
 11
-73.166069578299997
 21
-469.74055674300001
 31
0.0
  0
SOLID
  5
192
  8
0
 62
     0
 10
-78.166069578299997
 20
-469.74055674300001
 30
0.0
 11
-69.166069578299997
 21
-467.49055674300001
 31
0.0
 12
-69.166069578299997
 22
-471.99055674300001
 32
0.0
 13
-71.416069578299997
 23
-469.74055674300001
 33
0.0
  0
LINE
  5
193
  8
0
 62
     0
 10
-55.166069578299989
 20
-469.74055674300001
 30
0.0
 11
-60.166069578299989
 21
-469.74055674300001
 31
0.0
  0
SOLID
  5
194
  8
0
 62
     0
 10
-55.166069578299989
 20
-469.74055674300001
 30
0.0
 11
-64.166069578299997
 21
-471.99055674300001
 31
0.0
 12
-64.166069578299997
 22
-467.49055674300001
 32
0.0
 13
-61.916069578299997
 23
-469.74055674300001
 33
0.0
  0
ENDBLK
  5
195
  8
0
  0
BLOCK
  8
0
  2
*D15
 70
     1
 10
0.0
 20
0.0
 30
0.0
  3
*D15
  1

  0
TEXT
  5
25E
  8
0
 62
     0
 10
-620.36081698269993
 20
-60.766226774700002
 30
0.0
 40
9.8954164504999991
  1
9
  0
LINE
  5
25F
  8
0
 62
     0
 10
-612.97076102829988
 20
-105.9565456453
 30
0.0
 11
-612.97076102829988
 21
-62.5124767366
 31
0.0
  0
LINE
  5
260
  8
0
 62
     0
 10
-621.97076102829988
 20
-96.956545645300025
 30
0.0
 11
-621.97076102829988
 21
-62.5124767366
 31
0.0
  0
LINE
  5
261
  8
0
 62
     0
 10
-612.97076102829988
 20
-63.5124767366
 30
0.0
 11
-612.97076102829988
 21
-63.5124767366
 31
0.0
  0
LINE
  5
262
  8
0
 62
     0
 10
-612.97076102829988
 20
-63.5124767366
 30
0.0
 11
-621.97076102829988
 21
-63.5124767366
 31
0.0
  0
LINE
  5
263
  8
0
 62
     0
 10
-621.97076102829988
 20
-63.5124767366
 30
0.0
 11
-612.97076102829988
 21
-63.5124767366
 31
0.0
  0
LINE
  5
264
  8
0
 62
     0
 10
-621.97076102829988
 20
-63.5124767366
 30
0.0
 11
-621.97076102829988
 21
-63.5124767366
 31
0.0
  0
LINE
  5
265
  8
0
 62
     0
 10
-621.97076102829988
 20
-63.5124767366
 30
0.0
 11
-626.97076102829988
 21
-63.5124767366
 31
0.0
  0
SOLID
  5
266
  8
0
 62
     0
 10
-621.97076102829988
 20
-63.5124767366
 30
0.0
 11
-630.97076102829988
 21
-65.762476736599993
 31
0.0
 12
-630.97076102829988
 22
-61.2624767366
 32
0.0
 13
-628.72076102829988
 23
-63.5124767366
 33
0.0
  0
LINE
  5
267
  8
0
 62
     0
 10
-612.97076102829988
 20
-63.5124767366
 30
0.0
 11
-607.97076102829999
 21
-63.5124767366
 31
0.0
  0
SOLID
  5
268
  8
0
 62
     0
 10
-612.97076102829988
 20
-63.5124767366
 30
0.0
 11
-603.97076102829999
 21
-61.2624767366
 31
0.0
 12
-603.97076102829999
 22
-65.762476736599993
 32
0.0
 13
-606.22076102829999
 23
-63.5124767366
 33
0.0
  0
ENDBLK
  5
269
  8
0
  0
BLOCK
  8
0
  2
BALLON0
 70
     0
 10
0.0
 20
0.0
 30
0.0
  3
BALLON0
  1

  0
INSERT
  5
29D
  8
0
  6
CONTINUOUS
  2
*U76
 10
0.0
 20
0.0
 30
0.0
  0
CIRCLE
  5
29E
  8
┌▓È_1
 10
-491.9971863614
 20
-338.28906973379998
 30
0.0
 40
10.0
  0
LINE
  5
29F
  8
Éíû@É³
 10
-475.3305196947
 20
-338.28906973379998
 30
0.0
 11
-481.99718636139988
 21
-338.28906973379998
 31
0.0
  0
LINE
  5
2A0
  8
Éíû@É³
 10
-455.70668604209999
 20
-256.00076123679997
 30
0.0
 11
-475.3305196947
 21
-338.28906973379998
 31
0.0
  0
SOLID
  5
2A1
  8
Éíû@É³
 10
-455.70668604209999
 20
-256.00076123679997
 30
0.0
 11
-456.08095633430003
 21
-266.19193004850001
 31
0.0
 12
-457.56245839180002
 22
-263.78254181620002
 32
0.0
 13
-457.56245839180002
 23
-263.78254181620002
 33
0.0
  0
SOLID
  5
2A2
  8
Éíû@É³
 10
-457.56245839180002
 20
-263.78254181620002
 30
0.0
 11
-459.97184662400002
 21
-265.26404387359997
 31
0.0
 12
-455.70668604209999
 22
-256.00076123679997
 32
0.0
 13
-455.70668604209999
 23
-256.00076123679997
 33
0.0
  0
ENDBLK
  5
2A3
  8
0
  0
BLOCK
  8
0
  2
BALLON1
 70
     0
 10
0.0
 20
0.0
 30
0.0
  3
BALLON1
  1

  0
INSERT
  5
2A7
  8
0
  6
CONTINUOUS
  2
*U77
 10
0.0
 20
0.0
 30
0.0
  0
CIRCLE
  5
2A8
  8
┌▓È_1
 10
-665.11149797730002
 20
-338.28906973379998
 30
0.0
 40
10.0
  0
LINE
  5
2A9
  8
Éíû@É³
 10
-648.44483131070001
 20
-338.28906973379998
 30
0.0
 11
-655.11149797730002
 21
-338.28906973379998
 31
0.0
  0
LINE
  5
2AA
  8
Éíû@É³
 10
-613.77076102829994
 20
-394.91800599610002
 30
0.0
 11
-648.44483131070001
 21
-338.28906973379998
 31
0.0
  0
SOLID
  5
2AB
  8
Éíû@É³
 10
-613.77076102829994
 20
-394.91800599610002
 30
0.0
 11
-620.69831876879994
 21
-387.43409366690003
 31
0.0
 12
-617.94828047030001
 22
-388.09537224429999
 32
0.0
 13
-617.94828047030001
 23
-388.09537224429999
 33
0.0
  0
SOLID
  5
2AC
  8
Éíû@É³
 10
-617.94828047030001
 20
-388.09537224429999
 30
0.0
 11
-617.28700189289998
 21
-385.34533394589988
 31
0.0
 12
-613.77076102829994
 22
-394.91800599610002
 32
0.0
 13
-613.77076102829994
 23
-394.91800599610002
 33
0.0
  0
ENDBLK
  5
2AD
  8
0
  0
BLOCK
  8
0
  2
BALLON2
 70
     0
 10
0.0
 20
0.0
 30
0.0
  3
BALLON2
  1

  0
INSERT
  5
2B1
  8
0
  6
CONTINUOUS
  2
*U78
 10
0.0
 20
0.0
 30
0.0
  0
CIRCLE
  5
2B2
  8
┌▓È_1
 10
-574.24257092410005
 20
-338.28906973379998
 30
0.0
 40
10.0
  0
LINE
  5
2B3
  8
Éíû@É³
 10
-557.5759042574
 20
-338.28906973379998
 30
0.0
 11
-564.24257092410005
 21
-338.28906973379998
 31
0.0
  0
LINE
  5
2B4
  8
Éíû@É³
 10
-538.03147021839993
 20
-372.00218822340003
 30
0.0
 11
-557.5759042574
 21
-338.28906973379998
 31
0.0
  0
SOLID
  5
2B5
  8
Éíû@É³
 10
-538.03147021839993
 20
-372.00218822340003
 30
0.0
 11
-544.77715598730003
 21
-364.35393852120001
 31
0.0
 12
-542.04380547109997
 22
-365.08112141110001
 32
0.0
 13
-542.04380547109997
 23
-365.08112141110001
 33
0.0
  0
SOLID
  5
2B6
  8
Éíû@É³
 10
-542.04380547109997
 20
-365.08112141110001
 30
0.0
 11
-541.31662258120002
 21
-362.34777089480002
 31
0.0
 12
-538.03147021839993
 22
-372.00218822340003
 32
0.0
 13
-538.03147021839993
 23
-372.00218822340003
 33
0.0
  0
ENDBLK
  5
2B7
  8
0
  0
BLOCK
  8
0
  2
*D19
 70
     1
 10
0.0
 20
0.0
 30
0.0
  3
*D19
  1

  0
TEXT
  5
2E4
  8
0
 62
     0
 10
-197.81679667899999
 20
-508.64649697429991
 30
0.0
 40
9.8954164504999991
  1
22
 50
90.0
  0
LINE
  5
2E5
  8
0
 62
     0
 10
-240.17054671720001
 20
-513.82587470559986
 30
0.0
 11
-194.07054671719999
 21
-513.82587470559986
 31
0.0
  0
LINE
  5
2E6
  8
0
 62
     0
 10
-224.07054671719999
 20
-491.82545283059989
 30
0.0
 11
-194.07054671719999
 21
-491.82545283059989
 31
0.0
  0
LINE
  5
2E7
  8
0
 62
     0
 10
-195.07054671719999
 20
-513.82587470559986
 30
0.0
 11
-195.07054671719999
 21
-513.82587470559986
 31
0.0
  0
LINE
  5
2E8
  8
0
 62
     0
 10
-195.07054671719999
 20
-513.82587470559986
 30
0.0
 11
-195.07054671719999
 21
-491.82545283059989
 31
0.0
  0
LINE
  5
2E9
  8
0
 62
     0
 10
-195.07054671719999
 20
-491.82545283059989
 30
0.0
 11
-195.07054671719999
 21
-513.82587470559986
 31
0.0
  0
LINE
  5
2EA
  8
0
 62
     0
 10
-195.07054671719999
 20
-491.82545283059989
 30
0.0
 11
-195.07054671719999
 21
-491.82545283059989
 31
0.0
  0
LINE
  5
2EB
  8
0
 62
     0
 10
-195.07054671719999
 20
-491.82545283059989
 30
0.0
 11
-195.07054671719999
 21
-496.82545283059989
 31
0.0
  0
SOLID
  5
2EC
  8
0
 62
     0
 10
-195.07054671719999
 20
-491.82545283059989
 30
0.0
 11
-192.82054671719999
 21
-500.82545283059989
 31
0.0
 12
-197.32054671719999
 22
-500.82545283059989
 32
0.0
 13
-195.07054671719999
 23
-498.57545283059989
 33
0.0
  0
LINE
  5
2ED
  8
0
 62
     0
 10
-195.07054671719999
 20
-513.82587470559986
 30
0.0
 11
-195.07054671719999
 21
-508.82587470559992
 31
0.0
  0
SOLID
  5
2EE
  8
0
 62
     0
 10
-195.07054671719999
 20
-513.82587470559986
 30
0.0
 11
-197.32054671719999
 21
-504.82587470559992
 31
0.0
 12
-192.82054671719999
 22
-504.82587470559992
 32
0.0
 13
-195.07054671719999
 23
-507.07587470559992
 33
0.0
  0
ENDBLK
  5
2EF
  8
0
  0
BLOCK
  8
0
  2
*D20
 70
     1
 10
0.0
 20
0.0
 30
0.0
  3
*D20
  1

  0
TEXT
  5
2F3
  8
0
 62
     0
 10
-131.9655746594
 20
-466.99430678110002
 30
0.0
 40
9.8954164504999991
  1
14
  0
LINE
  5
2F4
  8
0
 62
     0
 10
-119.1447414533
 20
-490.8254528306
 30
0.0
 11
-119.1447414533
 21
-468.7405567429999
 31
0.0
  0
LINE
  5
2F5
  8
0
 62
     0
 10
-133.14474145330001
 20
-492.82545417989991
 30
0.0
 11
-133.14474145330001
 21
-468.7405567429999
 31
0.0
  0
LINE
  5
2F6
  8
0
 62
     0
 10
-119.1447414533
 20
-469.74055674300001
 30
0.0
 11
-119.1447414533
 21
-469.74055674300001
 31
0.0
  0
LINE
  5
2F7
  8
0
 62
     0
 10
-119.1447414533
 20
-469.74055674300001
 30
0.0
 11
-133.14474145330001
 21
-469.74055674300001
 31
0.0
  0
LINE
  5
2F8
  8
0
 62
     0
 10
-133.14474145330001
 20
-469.74055674300001
 30
0.0
 11
-119.1447414533
 21
-469.74055674300001
 31
0.0
  0
LINE
  5
2F9
  8
0
 62
     0
 10
-133.14474145330001
 20
-469.74055674300001
 30
0.0
 11
-133.14474145330001
 21
-469.74055674300001
 31
0.0
  0
LINE
  5
2FA
  8
0
 62
     0
 10
-133.14474145330001
 20
-469.74055674300001
 30
0.0
 11
-138.14474145330001
 21
-469.74055674300001
 31
0.0
  0
SOLID
  5
2FB
  8
0
 62
     0
 10
-133.14474145330001
 20
-469.74055674300001
 30
0.0
 11
-142.14474145330001
 21
-471.99055674300001
 31
0.0
 12
-142.14474145330001
 22
-467.49055674300001
 32
0.0
 13
-139.89474145330001
 23
-469.74055674300001
 33
0.0
  0
LINE
  5
2FC
  8
0
 62
     0
 10
-119.1447414533
 20
-469.74055674300001
 30
0.0
 11
-114.1447414533
 21
-469.74055674300001
 31
0.0
  0
SOLID
  5
2FD
  8
0
 62
     0
 10
-119.1447414533
 20
-469.74055674300001
 30
0.0
 11
-110.1447414533
 21
-467.49055674300001
 31
0.0
 12
-110.1447414533
 22
-471.99055674300001
 32
0.0
 13
-112.3947414533
 23
-469.74055674300001
 33
0.0
  0
ENDBLK
  5
2FE
  8
0
  0
BLOCK
  8
0
  2
*D21
 70
     1
 10
0.0
 20
0.0
 30
0.0
  3
*D21
  1

  0
TEXT
  5
302
  8
0
 62
     0
 10
-197.8167997308
 20
-587.14670791180004
 30
0.0
 40
9.8954164504999991
  1
15
 50
90.0
  0
LINE
  5
303
  8
0
 62
     0
 10
-281.52054671719998
 20
-588.82587470559986
 30
0.0
 11
-194.07054976890001
 21
-588.82587470559986
 31
0.0
  0
LINE
  5
304
  8
0
 62
     0
 10
-281.52054671719998
 20
-573.82587470559997
 30
0.0
 11
-194.07054976890001
 21
-573.82587470559997
 31
0.0
  0
LINE
  5
305
  8
0
 62
     0
 10
-195.07054976890001
 20
-588.82587470559986
 30
0.0
 11
-195.07054976890001
 21
-588.82587470559986
 31
0.0
  0
LINE
  5
306
  8
0
 62
     0
 10
-195.07054976890001
 20
-588.82587470559986
 30
0.0
 11
-195.07054976890001
 21
-573.82587470559997
 31
0.0
  0
LINE
  5
307
  8
0
 62
     0
 10
-195.07054976890001
 20
-573.82587470559997
 30
0.0
 11
-195.07054976890001
 21
-588.82587470559986
 31
0.0
  0
LINE
  5
308
  8
0
 62
     0
 10
-195.07054976890001
 20
-573.82587470559997
 30
0.0
 11
-195.07054976890001
 21
-573.82587470559997
 31
0.0
  0
LINE
  5
309
  8
0
 62
     0
 10
-195.07054976890001
 20
-573.82587470559997
 30
0.0
 11
-195.07054976890001
 21
-568.82587470559986
 31
0.0
  0
SOLID
  5
30A
  8
0
 62
     0
 10
-195.07054976890001
 20
-573.82587470559997
 30
0.0
 11
-197.32054976890001
 21
-564.82587470559986
 31
0.0
 12
-192.82054976889989
 22
-564.82587470559986
 32
0.0
 13
-195.07054976890001
 23
-567.07587470559986
 33
0.0
  0
LINE
  5
30B
  8
0
 62
     0
 10
-195.07054976890001
 20
-588.82587470559986
 30
0.0
 11
-195.07054976890001
 21
-593.82587470559986
 31
0.0
  0
SOLID
  5
30C
  8
0
 62
     0
 10
-195.07054976890001
 20
-588.82587470559986
 30
0.0
 11
-192.82054976889989
 21
-597.82587470559986
 31
0.0
 12
-197.32054976890001
 22
-597.82587470559986
 32
0.0
 13
-195.07054976890001
 23
-595.57587470559986
 33
0.0
  0
ENDBLK
  5
30D
  8
0
  0
BLOCK
  8
0
  2
*D22
 70
     1
 10
0.0
 20
0.0
 30
0.0
  3
*D22
  1

  0
TEXT
  5
311
  8
0
 62
     0
 10
-197.81679820490001
 20
-564.64670791180004
 30
0.0
 40
9.8954164504999991
  1
30
 50
90.0
  0
LINE
  5
312
  8
0
 62
     0
 10
-281.52054671719998
 20
-573.82587470559997
 30
0.0
 11
-194.07054824299999
 21
-573.82587470559997
 31
0.0
  0
LINE
  5
313
  8
0
 62
     0
 10
-240.17054671720001
 20
-543.82587470559986
 30
0.0
 11
-194.07054824299999
 21
-543.82587470559986
 31
0.0
  0
LINE
  5
314
  8
0
 62
     0
 10
-195.07054824299999
 20
-573.82587470559997
 30
0.0
 11
-195.07054824299999
 21
-547.1842082933
 31
0.0
  0
LINE
  5
315
  8
0
 62
     0
 10
-195.07054824299999
 20
-573.82587470559997
 30
0.0
 11
-195.07054824299999
 21
-570.46754111799999
 31
0.0
  0
LINE
  5
316
  8
0
 62
     0
 10
-195.07054824299999
 20
-543.82587470559986
 30
0.0
 11
-195.07054824299999
 21
-547.1842082933
 31
0.0
  0
LINE
  5
317
  8
0
 62
     0
 10
-195.07054824299999
 20
-543.82587470559986
 30
0.0
 11
-195.07054824299999
 21
-570.46754111799999
 31
0.0
  0
LINE
  5
318
  8
0
 62
     0
 10
-195.07054824299999
 20
-543.82587470559986
 30
0.0
 11
-195.07054824299999
 21
-538.82587470559986
 31
0.0
  0
SOLID
  5
319
  8
0
 62
     0
 10
-195.07054824299999
 20
-543.82587470559986
 30
0.0
 11
-197.32054824299999
 21
-534.82587470559986
 31
0.0
 12
-192.82054824299999
 22
-534.82587470559986
 32
0.0
 13
-195.07054824299999
 23
-537.07587470559986
 33
0.0
  0
LINE
  5
31A
  8
0
 62
     0
 10
-195.07054824299999
 20
-573.82587470559997
 30
0.0
 11
-195.07054824299999
 21
-578.82587470559997
 31
0.0
  0
SOLID
  5
31B
  8
0
 62
     0
 10
-195.07054824299999
 20
-573.82587470559997
 30
0.0
 11
-192.82054824299999
 21
-582.82587470559997
 31
0.0
 12
-197.32054824299999
 22
-582.82587470559997
 32
0.0
 13
-195.07054824299999
 23
-580.57587470559997
 33
0.0
  0
ENDBLK
  5
31C
  8
0
  0
BLOCK
  8
0
  2
*D23
 70
     1
 10
0.0
 20
0.0
 30
0.0
  3
*D23
  1

  0
TEXT
  5
320
  8
0
 62
     0
 10
-197.81679820490001
 20
-542.14670791180004
 30
0.0
 40
9.8954164504999991
  1
15
 50
90.0
  0
LINE
  5
321
  8
0
 62
     0
 10
-240.17054671720001
 20
-543.82587470559986
 30
0.0
 11
-194.07054824299999
 21
-543.82587470559986
 31
0.0
  0
LINE
  5
322
  8
0
 62
     0
 10
-240.17054671720001
 20
-528.82587470559997
 30
0.0
 11
-194.07054824299999
 21
-528.82587470559997
 31
0.0
  0
LINE
  5
323
  8
0
 62
     0
 10
-195.07054824299999
 20
-543.82587470559986
 30
0.0
 11
-195.07054824299999
 21
-543.82587470559986
 31
0.0
  0
LINE
  5
324
  8
0
 62
     0
 10
-195.07054824299999
 20
-543.82587470559986
 30
0.0
 11
-195.07054824299999
 21
-528.82587470559997
 31
0.0
  0
LINE
  5
325
  8
0
 62
     0
 10
-195.07054824299999
 20
-528.82587470559997
 30
0.0
 11
-195.07054824299999
 21
-543.82587470559986
 31
0.0
  0
LINE
  5
326
  8
0
 62
     0
 10
-195.07054824299999
 20
-528.82587470559997
 30
0.0
 11
-195.07054824299999
 21
-528.82587470559997
 31
0.0
  0
LINE
  5
327
  8
0
 62
     0
 10
-195.07054824299999
 20
-528.82587470559997
 30
0.0
 11
-195.07054824299999
 21
-523.82587470559997
 31
0.0
  0
SOLID
  5
328
  8
0
 62
     0
 10
-195.07054824299999
 20
-528.82587470559997
 30
0.0
 11
-197.32054824299999
 21
-519.82587470559997
 31
0.0
 12
-192.82054824299999
 22
-519.82587470559997
 32
0.0
 13
-195.07054824299999
 23
-522.07587470559997
 33
0.0
  0
LINE
  5
329
  8
0
 62
     0
 10
-195.07054824299999
 20
-543.82587470559986
 30
0.0
 11
-195.07054824299999
 21
-548.82587470559997
 31
0.0
  0
SOLID
  5
32A
  8
0
 62
     0
 10
-195.07054824299999
 20
-543.82587470559986
 30
0.0
 11
-192.82054824299999
 21
-552.82587470559986
 31
0.0
 12
-197.32054824299999
 22
-552.82587470559986
 32
0.0
 13
-195.07054824299999
 23
-550.57587470559986
 33
0.0
  0
ENDBLK
  5
32B
  8
0
  0
BLOCK
  8
0
  2
*D24
 70
     1
 10
0.0
 20
0.0
 30
0.0
  3
*D24
  1

  0
TEXT
  5
32F
  8
0
 62
     0
 10
-197.81679820490001
 20
-527.14670791180004
 30
0.0
 40
9.8954164504999991
  1
15
 50
90.0
  0
LINE
  5
330
  8
0
 62
     0
 10
-240.17054671720001
 20
-528.82587470559997
 30
0.0
 11
-194.07054824299999
 21
-528.82587470559997
 31
0.0
  0
LINE
  5
331
  8
0
 62
     0
 10
-240.17054671720001
 20
-513.82587470559986
 30
0.0
 11
-194.07054824299999
 21
-513.82587470559986
 31
0.0
  0
LINE
  5
332
  8
0
 62
     0
 10
-195.07054824299999
 20
-528.82587470559997
 30
0.0
 11
-195.07054824299999
 21
-528.82587470559997
 31
0.0
  0
LINE
  5
333
  8
0
 62
     0
 10
-195.07054824299999
 20
-528.82587470559997
 30
0.0
 11
-195.07054824299999
 21
-513.82587470559986
 31
0.0
  0
LINE
  5
334
  8
0
 62
     0
 10
-195.07054824299999
 20
-513.82587470559986
 30
0.0
 11
-195.07054824299999
 21
-528.82587470559997
 31
0.0
  0
LINE
  5
335
  8
0
 62
     0
 10
-195.07054824299999
 20
-513.82587470559986
 30
0.0
 11
-195.07054824299999
 21
-513.82587470559986
 31
0.0
  0
LINE
  5
336
  8
0
 62
     0
 10
-195.07054824299999
 20
-513.82587470559986
 30
0.0
 11
-195.07054824299999
 21
-508.82587470559992
 31
0.0
  0
SOLID
  5
337
  8
0
 62
     0
 10
-195.07054824299999
 20
-513.82587470559986
 30
0.0
 11
-197.32054824299999
 21
-504.82587470559992
 31
0.0
 12
-192.82054824299999
 22
-504.82587470559992
 32
0.0
 13
-195.07054824299999
 23
-507.07587470559992
 33
0.0
  0
LINE
  5
338
  8
0
 62
     0
 10
-195.07054824299999
 20
-528.82587470559997
 30
0.0
 11
-195.07054824299999
 21
-533.82587470559986
 31
0.0
  0
SOLID
  5
339
  8
0
 62
     0
 10
-195.07054824299999
 20
-528.82587470559997
 30
0.0
 11
-192.82054824299999
 21
-537.82587470559986
 31
0.0
 12
-197.32054824299999
 22
-537.82587470559986
 32
0.0
 13
-195.07054824299999
 23
-535.57587470559986
 33
0.0
  0
ENDBLK
  5
33A
  8
0
  0
BLOCK
  8
0
  2
*D25
 70
     1
 10
0.0
 20
0.0
 30
0.0
  3
*D25
  1

  0
TEXT
  5
348
  8
0
 62
     0
 10
-197.81679820490001
 20
-647.14670791180004
 30
0.0
 40
9.8954164504999991
  1
15
 50
90.0
  0
LINE
  5
349
  8
0
 62
     0
 10
-240.17054671720001
 20
-648.82587470559997
 30
0.0
 11
-194.07054824299999
 21
-648.82587470559997
 31
0.0
  0
LINE
  5
34A
  8
0
 62
     0
 10
-240.17054671720001
 20
-633.82587470559986
 30
0.0
 11
-194.07054824299999
 21
-633.82587470559986
 31
0.0
  0
LINE
  5
34B
  8
0
 62
     0
 10
-195.07054824299999
 20
-648.82587470559997
 30
0.0
 11
-195.07054824299999
 21
-648.82587470559997
 31
0.0
  0
LINE
  5
34C
  8
0
 62
     0
 10
-195.07054824299999
 20
-648.82587470559997
 30
0.0
 11
-195.07054824299999
 21
-633.82587470559986
 31
0.0
  0
LINE
  5
34D
  8
0
 62
     0
 10
-195.07054824299999
 20
-633.82587470559986
 30
0.0
 11
-195.07054824299999
 21
-648.82587470559997
 31
0.0
  0
LINE
  5
34E
  8
0
 62
     0
 10
-195.07054824299999
 20
-633.82587470559986
 30
0.0
 11
-195.07054824299999
 21
-633.82587470559986
 31
0.0
  0
LINE
  5
34F
  8
0
 62
     0
 10
-195.07054824299999
 20
-633.82587470559986
 30
0.0
 11
-195.07054824299999
 21
-628.82587470559997
 31
0.0
  0
SOLID
  5
350
  8
0
 62
     0
 10
-195.07054824299999
 20
-633.82587470559986
 30
0.0
 11
-197.32054824299999
 21
-624.82587470559997
 31
0.0
 12
-192.82054824299999
 22
-624.82587470559997
 32
0.0
 13
-195.07054824299999
 23
-627.07587470559997
 33
0.0
  0
LINE
  5
351
  8
0
 62
     0
 10
-195.07054824299999
 20
-648.82587470559997
 30
0.0
 11
-195.07054824299999
 21
-653.82587470559997
 31
0.0
  0
SOLID
  5
352
  8
0
 62
     0
 10
-195.07054824299999
 20
-648.82587470559997
 30
0.0
 11
-192.82054824299999
 21
-657.82587470559997
 31
0.0
 12
-197.32054824299999
 22
-657.82587470559997
 32
0.0
 13
-195.07054824299999
 23
-655.57587470559997
 33
0.0
  0
ENDBLK
  5
353
  8
0
  0
BLOCK
  8
0
  2
*D26
 70
     1
 10
0.0
 20
0.0
 30
0.0
  3
*D26
  1

  0
TEXT
  5
357
  8
0
 62
     0
 10
-303.46447011110001
 20
-696.07920131240007
 30
0.0
 40
9.8954164504999991
  1
82.7
  0
LINE
  5
358
  8
0
 62
     0
 10
-334.8705467172
 20
-653.32587470559997
 30
0.0
 11
-334.8705467172
 21
-699.82545127419996
 31
0.0
  0
LINE
  5
359
  8
0
 62
     0
 10
-252.17054671720001
 20
-653.32587470559997
 30
0.0
 11
-252.17054671720001
 21
-699.82545127419996
 31
0.0
  0
LINE
  5
35A
  8
0
 62
     0
 10
-334.8705467172
 20
-698.82545127419985
 30
0.0
 11
-277.75579011709999
 21
-698.82545127419985
 31
0.0
  0
LINE
  5
35B
  8
0
 62
     0
 10
-334.8705467172
 20
-698.82545127419985
 30
0.0
 11
-309.28530331719998
 21
-698.82545127419985
 31
0.0
  0
LINE
  5
35C
  8
0
 62
     0
 10
-252.17054671720001
 20
-698.82545127419985
 30
0.0
 11
-277.75579011709999
 21
-698.82545127419985
 31
0.0
  0
LINE
  5
35D
  8
0
 62
     0
 10
-252.17054671720001
 20
-698.82545127419985
 30
0.0
 11
-309.28530331719998
 21
-698.82545127419985
 31
0.0
  0
LINE
  5
35E
  8
0
 62
     0
 10
-252.17054671720001
 20
-698.82545127419985
 30
0.0
 11
-257.17054671720001
 21
-698.82545127419985
 31
0.0
  0
SOLID
  5
35F
  8
0
 62
     0
 10
-252.17054671720001
 20
-698.82545127419985
 30
0.0
 11
-261.17054671720001
 21
-701.07545127419985
 31
0.0
 12
-261.17054671720001
 22
-696.57545127419985
 32
0.0
 13
-258.92054671720001
 23
-698.82545127419985
 33
0.0
  0
LINE
  5
360
  8
0
 62
     0
 10
-334.8705467172
 20
-698.82545127419985
 30
0.0
 11
-329.8705467172
 21
-698.82545127419985
 31
0.0
  0
SOLID
  5
361
  8
0
 62
     0
 10
-334.8705467172
 20
-698.82545127419985
 30
0.0
 11
-325.8705467172
 21
-696.57545127419985
 31
0.0
 12
-325.8705467172
 22
-701.07545127419985
 32
0.0
 13
-328.1205467172
 23
-698.82545127419985
 33
0.0
  0
ENDBLK
  5
362
  8
0
  0
BLOCK
  8
0
  2
*D27
 70
     1
 10
0.0
 20
0.0
 30
0.0
  3
*D27
  1

  0
TEXT
  5
366
  8
0
 62
     0
 10
-247.56447011110001
 20
-696.07920286880005
 30
0.0
 40
9.8954164504999991
  1
29.1
  0
LINE
  5
367
  8
0
 62
     0
 10
-252.17054671720001
 20
-653.32587470559997
 30
0.0
 11
-252.17054671720001
 21
-699.82545283059994
 31
0.0
  0
LINE
  5
368
  8
0
 62
     0
 10
-223.07054671719999
 20
-669.82545283059994
 30
0.0
 11
-223.07054671719999
 21
-699.82545283059994
 31
0.0
  0
LINE
  5
369
  8
0
 62
     0
 10
-252.17054671720001
 20
-698.82545283059994
 30
0.0
 11
-252.17054671720001
 21
-698.82545283059994
 31
0.0
  0
LINE
  5
36A
  8
0
 62
     0
 10
-252.17054671720001
 20
-698.82545283059994
 30
0.0
 11
-223.07054671719999
 21
-698.82545283059994
 31
0.0
  0
LINE
  5
36B
  8
0
 62
     0
 10
-223.07054671719999
 20
-698.82545283059994
 30
0.0
 11
-252.17054671720001
 21
-698.82545283059994
 31
0.0
  0
LINE
  5
36C
  8
0
 62
     0
 10
-223.07054671719999
 20
-698.82545283059994
 30
0.0
 11
-223.07054671719999
 21
-698.82545283059994
 31
0.0
  0
LINE
  5
36D
  8
0
 62
     0
 10
-223.07054671719999
 20
-698.82545283059994
 30
0.0
 11
-228.07054671719999
 21
-698.82545283059994
 31
0.0
  0
SOLID
  5
36E
  8
0
 62
     0
 10
-223.07054671719999
 20
-698.82545283059994
 30
0.0
 11
-232.07054671719999
 21
-701.07545283059994
 31
0.0
 12
-232.07054671719999
 22
-696.57545283059994
 32
0.0
 13
-229.82054671719999
 23
-698.82545283059994
 33
0.0
  0
LINE
  5
36F
  8
0
 62
     0
 10
-252.17054671720001
 20
-698.82545283059994
 30
0.0
 11
-247.17054671720001
 21
-698.82545283059994
 31
0.0
  0
SOLID
  5
370
  8
0
 62
     0
 10
-252.17054671720001
 20
-698.82545283059994
 30
0.0
 11
-243.17054671720001
 21
-696.57545283059994
 31
0.0
 12
-243.17054671720001
 22
-701.07545283059994
 32
0.0
 13
-245.42054671720001
 23
-698.82545283059994
 33
0.0
  0
ENDBLK
  5
371
  8
0
  0
BLOCK
  8
0
  2
*D28
 70
     1
 10
0.0
 20
0.0
 30
0.0
  3
*D28
  1

  0
TEXT
  5
375
  8
0
 62
     0
 10
-197.81679667899999
 20
-665.64649697430002
 30
0.0
 40
9.8954164504999991
  1
22
 50
90.0
  0
LINE
  5
376
  8
0
 62
     0
 10
-224.07054671719999
 20
-670.82545283059994
 30
0.0
 11
-194.07054671719999
 21
-670.82545283059994
 31
0.0
  0
LINE
  5
377
  8
0
 62
     0
 10
-240.17054671720001
 20
-648.82587470559997
 30
0.0
 11
-194.07054671719999
 21
-648.82587470559997
 31
0.0
  0
LINE
  5
378
  8
0
 62
     0
 10
-195.07054671719999
 20
-670.82545283059994
 30
0.0
 11
-195.07054671719999
 21
-670.82545283059994
 31
0.0
  0
LINE
  5
379
  8
0
 62
     0
 10
-195.07054671719999
 20
-670.82545283059994
 30
0.0
 11
-195.07054671719999
 21
-648.82587470559997
 31
0.0
  0
LINE
  5
37A
  8
0
 62
     0
 10
-195.07054671719999
 20
-648.82587470559997
 30
0.0
 11
-195.07054671719999
 21
-670.82545283059994
 31
0.0
  0
LINE
  5
37B
  8
0
 62
     0
 10
-195.07054671719999
 20
-648.82587470559997
 30
0.0
 11
-195.07054671719999
 21
-648.82587470559997
 31
0.0
  0
LINE
  5
37C
  8
0
 62
     0
 10
-195.07054671719999
 20
-648.82587470559997
 30
0.0
 11
-195.07054671719999
 21
-653.82587470559997
 31
0.0
  0
SOLID
  5
37D
  8
0
 62
     0
 10
-195.07054671719999
 20
-648.82587470559997
 30
0.0
 11
-192.82054671719999
 21
-657.82587470559997
 31
0.0
 12
-197.32054671719999
 22
-657.82587470559997
 32
0.0
 13
-195.07054671719999
 23
-655.57587470559997
 33
0.0
  0
LINE
  5
37E
  8
0
 62
     0
 10
-195.07054671719999
 20
-670.82545283059994
 30
0.0
 11
-195.07054671719999
 21
-665.82545283059994
 31
0.0
  0
SOLID
  5
37F
  8
0
 62
     0
 10
-195.07054671719999
 20
-670.82545283059994
 30
0.0
 11
-197.32054671719999
 21
-661.82545283059994
 31
0.0
 12
-192.82054671719999
 22
-661.82545283059994
 32
0.0
 13
-195.07054671719999
 23
-664.07545283059994
 33
0.0
  0
ENDBLK
  5
380
  8
0
  0
BLOCK
  8
0
  2
*D29
 70
     1
 10
0.0
 20
0.0
 30
0.0
  3
*D29
  1

  0
TEXT
  5
3B1
  8
0
 62
     0
 10
-656.75144566869994
 20
-613.90546966459999
 30
0.0
 40
9.8954164504999991
  1
2-â│15
 50
26.776143397399998
  0
LINE
  5
3B2
  8
0
 62
     0
 10
-589.69964517630001
 20
-584.63416418329996
 30
0.0
 11
-654.91582208049999
 21
-617.54314951000003
 31
0.0
  0
SOLID
  5
3B3
  8
0
 62
     0
 10
-589.69964517630001
 20
-584.63416418329996
 30
0.0
 11
-596.72096829569989
 21
-590.69745715440001
 31
0.0
 12
-598.74824462100003
 22
-586.67997651339999
 32
0.0
 13
-595.72586613780004
 23
-587.67507867129984
 33
0.0
  0
ENDBLK
  5
3B4
  8
0
  0
BLOCK
  8
0
  2
*D30
 70
     1
 10
0.0
 20
0.0
 30
0.0
  3
*D30
  1

  0
TEXT
  5
3B8
  8
0
 62
     0
 10
-506.09137992329988
 20
-604.15630397350003
 30
0.0
 40
9.8954164504999991
  1
22
  0
LINE
  5
3B9
  8
0
 62
     0
 10
-489.27054671719998
 20
-617.82587470559986
 30
0.0
 11
-489.27054671719998
 21
-605.90255393530003
 31
0.0
  0
LINE
  5
3BA
  8
0
 62
     0
 10
-511.27054671719998
 20
-617.82587470559986
 30
0.0
 11
-511.27054671719998
 21
-605.90255393530003
 31
0.0
  0
LINE
  5
3BB
  8
0
 62
     0
 10
-489.27054671719998
 20
-606.90255393530003
 30
0.0
 11
-489.27054671719998
 21
-606.90255393530003
 31
0.0
  0
LINE
  5
3BC
  8
0
 62
     0
 10
-489.27054671719998
 20
-606.90255393530003
 30
0.0
 11
-511.27054671719998
 21
-606.90255393530003
 31
0.0
  0
LINE
  5
3BD
  8
0
 62
     0
 10
-511.27054671719998
 20
-606.90255393530003
 30
0.0
 11
-489.27054671719998
 21
-606.90255393530003
 31
0.0
  0
LINE
  5
3BE
  8
0
 62
     0
 10
-511.27054671719998
 20
-606.90255393530003
 30
0.0
 11
-511.27054671719998
 21
-606.90255393530003
 31
0.0
  0
LINE
  5
3BF
  8
0
 62
     0
 10
-511.27054671719998
 20
-606.90255393530003
 30
0.0
 11
-506.27054671719998
 21
-606.90255393530003
 31
0.0
  0
SOLID
  5
3C0
  8
0
 62
     0
 10
-511.27054671719998
 20
-606.90255393530003
 30
0.0
 11
-502.27054671719998
 21
-604.65255393530003
 31
0.0
 12
-502.27054671719998
 22
-609.15255393530003
 32
0.0
 13
-504.52054671719998
 23
-606.90255393530003
 33
0.0
  0
LINE
  5
3C1
  8
0
 62
     0
 10
-489.27054671719998
 20
-606.90255393530003
 30
0.0
 11
-494.27054671719998
 21
-606.90255393530003
 31
0.0
  0
SOLID
  5
3C2
  8
0
 62
     0
 10
-489.27054671719998
 20
-606.90255393530003
 30
0.0
 11
-498.27054671719998
 21
-609.15255393530003
 31
0.0
 12
-498.27054671719998
 22
-604.65255393530003
 32
0.0
 13
-496.02054671719998
 23
-606.90255393530003
 33
0.0
  0
ENDBLK
  5
3C3
  8
0
  0
BLOCK
  8
0
  2
*D31
 70
     1
 10
0.0
 20
0.0
 30
0.0
  3
*D31
  1

  0
TEXT
  5
3DB
  8
0
 62
     0
 10
-468.86447011109999
 20
-696.07920286880005
 30
0.0
 40
9.8954164504999991
  1
82.7
  0
LINE
  5
3DC
  8
0
 62
     0
 10
-500.27054671719998
 20
-653.32587470559997
 30
0.0
 11
-500.27054671719998
 21
-699.82545283059994
 31
0.0
  0
LINE
  5
3DD
  8
0
 62
     0
 10
-417.57054671719987
 20
-676.82545283059994
 30
0.0
 11
-417.57054671719987
 21
-699.82545283059994
 31
0.0
  0
LINE
  5
3DE
  8
0
 62
     0
 10
-500.27054671719998
 20
-698.82545283059994
 30
0.0
 11
-443.15579011709991
 21
-698.82545283059994
 31
0.0
  0
LINE
  5
3DF
  8
0
 62
     0
 10
-500.27054671719998
 20
-698.82545283059994
 30
0.0
 11
-474.68530331720001
 21
-698.82545283059994
 31
0.0
  0
LINE
  5
3E0
  8
0
 62
     0
 10
-417.57054671719987
 20
-698.82545283059994
 30
0.0
 11
-443.15579011709991
 21
-698.82545283059994
 31
0.0
  0
LINE
  5
3E1
  8
0
 62
     0
 10
-417.57054671719987
 20
-698.82545283059994
 30
0.0
 11
-474.68530331720001
 21
-698.82545283059994
 31
0.0
  0
LINE
  5
3E2
  8
0
 62
     0
 10
-417.57054671719987
 20
-698.82545283059994
 30
0.0
 11
-422.57054671719999
 21
-698.82545283059994
 31
0.0
  0
SOLID
  5
3E3
  8
0
 62
     0
 10
-417.57054671719987
 20
-698.82545283059994
 30
0.0
 11
-426.57054671719999
 21
-701.07545283059994
 31
0.0
 12
-426.57054671719999
 22
-696.57545283059994
 32
0.0
 13
-424.32054671719999
 23
-698.82545283059994
 33
0.0
  0
LINE
  5
3E4
  8
0
 62
     0
 10
-500.27054671719998
 20
-698.82545283059994
 30
0.0
 11
-495.27054671719998
 21
-698.82545283059994
 31
0.0
  0
SOLID
  5
3E5
  8
0
 62
     0
 10
-500.27054671719998
 20
-698.82545283059994
 30
0.0
 11
-491.27054671719998
 21
-696.57545283059994
 31
0.0
 12
-491.27054671719998
 22
-701.07545283059994
 32
0.0
 13
-493.52054671719998
 23
-698.82545283059994
 33
0.0
  0
ENDBLK
  5
3E6
  8
0
  0
BLOCK
  8
0
  2
*D32
 70
     1
 10
0.0
 20
0.0
 30
0.0
  3
*D32
  1

  0
TEXT
  5
404
  8
0
 62
     0
 10
110.41772160959999
 20
-205.68779545449999
 30
0.0
 40
9.8954164504999991
  1
198
 50
90.0
  0
LINE
  5
405
  8
0
 62
     0
 10
71.651840834200001
 20
-295.95654564530003
 30
0.0
 11
114.1639715715
 21
-295.95654564530003
 31
0.0
  0
LINE
  5
406
  8
0
 62
     0
 10
71.651840834200001
 20
-97.956545645300025
 30
0.0
 11
114.1639715715
 21
-97.956545645300025
 31
0.0
  0
LINE
  5
407
  8
0
 62
     0
 10
113.1639715715
 20
-295.95654564530003
 30
0.0
 11
113.1639715715
 21
-182.40446262980001
 31
0.0
  0
LINE
  5
408
  8
0
 62
     0
 10
113.1639715715
 20
-295.95654564530003
 30
0.0
 11
113.1639715715
 21
-211.5086286607
 31
0.0
  0
LINE
  5
409
  8
0
 62
     0
 10
113.1639715715
 20
-97.956545645300025
 30
0.0
 11
113.1639715715
 21
-182.40446262980001
 31
0.0
  0
LINE
  5
40A
  8
0
 62
     0
 10
113.1639715715
 20
-97.956545645300025
 30
0.0
 11
113.1639715715
 21
-211.5086286607
 31
0.0
  0
LINE
  5
40B
  8
0
 62
     0
 10
113.1639715715
 20
-97.956545645300025
 30
0.0
 11
113.1639715715
 21
-102.9565456453
 31
0.0
  0
SOLID
  5
40C
  8
0
 62
     0
 10
113.1639715715
 20
-97.956545645300025
 30
0.0
 11
115.4139715715
 21
-106.9565456453
 31
0.0
 12
110.9139715715
 22
-106.9565456453
 32
0.0
 13
113.1639715715
 23
-104.7065456453
 33
0.0
  0
LINE
  5
40D
  8
0
 62
     0
 10
113.1639715715
 20
-295.95654564530003
 30
0.0
 11
113.1639715715
 21
-290.95654564530003
 31
0.0
  0
SOLID
  5
40E
  8
0
 62
     0
 10
113.1639715715
 20
-295.95654564530003
 30
0.0
 11
110.9139715715
 21
-286.95654564529991
 31
0.0
 12
115.4139715715
 22
-286.95654564529991
 32
0.0
 13
113.1639715715
 23
-289.20654564530003
 33
0.0
  0
ENDBLK
  5
40F
  8
0
  0
BLOCK
  8
0
  2
*D33
 70
     1
 10
0.0
 20
0.0
 30
0.0
  3
*D33
  1

  0
TEXT
  5
413
  8
0
 62
     0
 10
94.187769369599977
 20
-205.68779545449999
 30
0.0
 40
9.8954164504999991
  1
180
 50
90.0
  0
LINE
  5
414
  8
0
 62
     0
 10
53.914438490400002
 20
-286.95654564529991
 30
0.0
 11
97.934019331500011
 21
-286.95654564529991
 31
0.0
  0
LINE
  5
415
  8
0
 62
     0
 10
53.914438490400002
 20
-106.9565456453
 30
0.0
 11
97.934019331500011
 21
-106.9565456453
 31
0.0
  0
LINE
  5
416
  8
0
 62
     0
 10
96.934019331499996
 20
-286.95654564529991
 30
0.0
 11
96.934019331499996
 21
-182.40446262980001
 31
0.0
  0
LINE
  5
417
  8
0
 62
     0
 10
96.934019331499996
 20
-286.95654564529991
 30
0.0
 11
96.934019331499996
 21
-211.5086286607
 31
0.0
  0
LINE
  5
418
  8
0
 62
     0
 10
96.934019331499996
 20
-106.9565456453
 30
0.0
 11
96.934019331499996
 21
-182.40446262980001
 31
0.0
  0
LINE
  5
419
  8
0
 62
     0
 10
96.934019331499996
 20
-106.9565456453
 30
0.0
 11
96.934019331499996
 21
-211.5086286607
 31
0.0
  0
LINE
  5
41A
  8
0
 62
     0
 10
96.934019331499996
 20
-106.9565456453
 30
0.0
 11
96.934019331499996
 21
-111.9565456453
 31
0.0
  0
SOLID
  5
41B
  8
0
 62
     0
 10
96.934019331499996
 20
-106.9565456453
 30
0.0
 11
99.184019331500011
 21
-115.9565456453
 31
0.0
 12
94.684019331499996
 22
-115.9565456453
 32
0.0
 13
96.934019331499996
 23
-113.7065456453
 33
0.0
  0
LINE
  5
41C
  8
0
 62
     0
 10
96.934019331499996
 20
-286.95654564529991
 30
0.0
 11
96.934019331499996
 21
-281.95654564530003
 31
0.0
  0
SOLID
  5
41D
  8
0
 62
     0
 10
96.934019331499996
 20
-286.95654564529991
 30
0.0
 11
94.684019331499996
 21
-277.95654564530003
 31
0.0
 12
99.184019331500011
 22
-277.95654564530003
 32
0.0
 13
96.934019331499996
 23
-280.20654564530003
 33
0.0
  0
ENDBLK
  5
41E
  8
0
  0
BLOCK
  8
0
  2
*D34
 70
     1
 10
0.0
 20
0.0
 30
0.0
  3
*D34
  1

  0
TEXT
  5
42D
  8
0
 62
     0
 10
232.37932212140001
 20
-205.68779545449999
 30
0.0
 40
9.8954164504999991
  1
167
 50
90.0
  0
LINE
  5
42E
  8
0
 62
     0
 10
212.40027034069999
 20
-280.45654564530003
 30
0.0
 11
236.12557208320001
 21
-280.45654564530003
 31
0.0
  0
LINE
  5
42F
  8
0
 62
     0
 10
212.40027034069999
 20
-113.4565456453
 30
0.0
 11
236.12557208320001
 21
-113.4565456453
 31
0.0
  0
LINE
  5
430
  8
0
 62
     0
 10
235.12557208320001
 20
-280.45654564530003
 30
0.0
 11
235.12557208320001
 21
-182.40446262980001
 31
0.0
  0
LINE
  5
431
  8
0
 62
     0
 10
235.12557208320001
 20
-280.45654564530003
 30
0.0
 11
235.12557208320001
 21
-211.5086286607
 31
0.0
  0
LINE
  5
432
  8
0
 62
     0
 10
235.12557208320001
 20
-113.4565456453
 30
0.0
 11
235.12557208320001
 21
-182.40446262980001
 31
0.0
  0
LINE
  5
433
  8
0
 62
     0
 10
235.12557208320001
 20
-113.4565456453
 30
0.0
 11
235.12557208320001
 21
-211.5086286607
 31
0.0
  0
LINE
  5
434
  8
0
 62
     0
 10
235.12557208320001
 20
-113.4565456453
 30
0.0
 11
235.12557208320001
 21
-118.4565456453
 31
0.0
  0
SOLID
  5
435
  8
0
 62
     0
 10
235.12557208320001
 20
-113.4565456453
 30
0.0
 11
237.37557208320001
 21
-122.4565456453
 31
0.0
 12
232.87557208320001
 22
-122.4565456453
 32
0.0
 13
235.12557208320001
 23
-120.2065456453
 33
0.0
  0
LINE
  5
436
  8
0
 62
     0
 10
235.12557208320001
 20
-280.45654564530003
 30
0.0
 11
235.12557208320001
 21
-275.45654564530003
 31
0.0
  0
SOLID
  5
437
  8
0
 62
     0
 10
235.12557208320001
 20
-280.45654564530003
 30
0.0
 11
232.87557208320001
 21
-271.45654564530003
 31
0.0
 12
237.37557208320001
 22
-271.45654564530003
 32
0.0
 13
235.12557208320001
 23
-273.70654564530003
 33
0.0
  0
ENDBLK
  5
438
  8
0
  0
BLOCK
  8
0
  2
*D35
 70
     1
 10
0.0
 20
0.0
 30
0.0
  3
*D35
  1

  0
TEXT
  5
440
  8
0
 62
     0
 10
347.1918859571
 20
-205.68779545449999
 30
0.0
 40
9.8954164504999991
  1
170
 50
90.0
  0
LINE
  5
441
  8
0
 62
     0
 10
329.52322464880001
 20
-281.95607429109998
 30
0.0
 11
350.93813591899999
 21
-281.95607429109998
 31
0.0
  0
LINE
  5
442
  8
0
 62
     0
 10
329.52322464880001
 20
-111.9570169994
 30
0.0
 11
350.93813591899999
 21
-111.9570169994
 31
0.0
  0
LINE
  5
443
  8
0
 62
     0
 10
349.93813591899999
 20
-281.95607429109998
 30
0.0
 11
349.93813591899999
 21
-182.40446262980001
 31
0.0
  0
LINE
  5
444
  8
0
 62
     0
 10
349.93813591899999
 20
-281.95607429109998
 30
0.0
 11
349.93813591899999
 21
-211.5086286607
 31
0.0
  0
LINE
  5
445
  8
0
 62
     0
 10
349.93813591899999
 20
-111.9570169994
 30
0.0
 11
349.93813591899999
 21
-182.40446262980001
 31
0.0
  0
LINE
  5
446
  8
0
 62
     0
 10
349.93813591899999
 20
-111.9570169994
 30
0.0
 11
349.93813591899999
 21
-211.5086286607
 31
0.0
  0
LINE
  5
447
  8
0
 62
     0
 10
349.93813591899999
 20
-111.9570169994
 30
0.0
 11
349.93813591899999
 21
-116.9570169994
 31
0.0
  0
SOLID
  5
448
  8
0
 62
     0
 10
349.93813591899999
 20
-111.9570169994
 30
0.0
 11
352.18813591899999
 21
-120.9570169994
 31
0.0
 12
347.68813591899999
 22
-120.9570169994
 32
0.0
 13
349.93813591899999
 23
-118.7070169994
 33
0.0
  0
LINE
  5
449
  8
0
 62
     0
 10
349.93813591899999
 20
-281.95607429109998
 30
0.0
 11
349.93813591899999
 21
-276.95607429109998
 31
0.0
  0
SOLID
  5
44A
  8
0
 62
     0
 10
349.93813591899999
 20
-281.95607429109998
 30
0.0
 11
347.68813591899999
 21
-272.95607429109998
 31
0.0
 12
352.18813591899999
 22
-272.95607429109998
 32
0.0
 13
349.93813591899999
 23
-275.20607429109998
 33
0.0
  0
ENDBLK
  5
44B
  8
0
  0
BLOCK
  8
0
  2
*D36
 70
     1
 10
0.0
 20
0.0
 30
0.0
  3
*D36
  1

  0
TEXT
  5
451
  8
0
 62
     0
 10
-607.46447011110001
 20
-696.07920286880005
 30
0.0
 40
9.8954164504999991
  1
29.1
  0
LINE
  5
452
  8
0
 62
     0
 10
-612.07054671720005
 20
-669.82545283059994
 30
0.0
 11
-612.07054671720005
 21
-699.82545283059994
 31
0.0
  0
LINE
  5
453
  8
0
 62
     0
 10
-582.97054671720002
 20
-653.32587470559997
 30
0.0
 11
-582.97054671720002
 21
-699.82545283059994
 31
0.0
  0
LINE
  5
454
  8
0
 62
     0
 10
-612.07054671720005
 20
-698.82545283059994
 30
0.0
 11
-612.07054671720005
 21
-698.82545283059994
 31
0.0
  0
LINE
  5
455
  8
0
 62
     0
 10
-612.07054671720005
 20
-698.82545283059994
 30
0.0
 11
-582.97054671720002
 21
-698.82545283059994
 31
0.0
  0
LINE
  5
456
  8
0
 62
     0
 10
-582.97054671720002
 20
-698.82545283059994
 30
0.0
 11
-612.07054671720005
 21
-698.82545283059994
 31
0.0
  0
LINE
  5
457
  8
0
 62
     0
 10
-582.97054671720002
 20
-698.82545283059994
 30
0.0
 11
-582.97054671720002
 21
-698.82545283059994
 31
0.0
  0
LINE
  5
458
  8
0
 62
     0
 10
-582.97054671720002
 20
-698.82545283059994
 30
0.0
 11
-587.97054671720002
 21
-698.82545283059994
 31
0.0
  0
SOLID
  5
459
  8
0
 62
     0
 10
-582.97054671720002
 20
-698.82545283059994
 30
0.0
 11
-591.97054671720002
 21
-701.07545283059994
 31
0.0
 12
-591.97054671720002
 22
-696.57545283059994
 32
0.0
 13
-589.72054671720002
 23
-698.82545283059994
 33
0.0
  0
LINE
  5
45A
  8
0
 62
     0
 10
-612.07054671720005
 20
-698.82545283059994
 30
0.0
 11
-607.07054671720005
 21
-698.82545283059994
 31
0.0
  0
SOLID
  5
45B
  8
0
 62
     0
 10
-612.07054671720005
 20
-698.82545283059994
 30
0.0
 11
-603.07054671720005
 21
-696.57545283059994
 31
0.0
 12
-603.07054671720005
 22
-701.07545283059994
 32
0.0
 13
-605.32054671720005
 23
-698.82545283059994
 33
0.0
  0
ENDBLK
  5
45C
  8
0
  0
BLOCK
  8
0
  2
*D37
 70
     1
 10
0.0
 20
0.0
 30
0.0
  3
*D37
  1

  0
TEXT
  5
460
  8
0
 62
     0
 10
-551.56447011110004
 20
-696.07920131240007
 30
0.0
 40
9.8954164504999991
  1
82.7
  0
LINE
  5
461
  8
0
 62
     0
 10
-582.97054671720002
 20
-653.32587470559997
 30
0.0
 11
-582.97054671720002
 21
-699.82545127419996
 31
0.0
  0
LINE
  5
462
  8
0
 62
     0
 10
-500.27054671719998
 20
-653.32587470559997
 30
0.0
 11
-500.27054671719998
 21
-699.82545127419996
 31
0.0
  0
LINE
  5
463
  8
0
 62
     0
 10
-582.97054671720002
 20
-698.82545127419985
 30
0.0
 11
-525.85579011710001
 21
-698.82545127419985
 31
0.0
  0
LINE
  5
464
  8
0
 62
     0
 10
-582.97054671720002
 20
-698.82545127419985
 30
0.0
 11
-557.38530331720006
 21
-698.82545127419985
 31
0.0
  0
LINE
  5
465
  8
0
 62
     0
 10
-500.27054671719998
 20
-698.82545127419985
 30
0.0
 11
-525.85579011710001
 21
-698.82545127419985
 31
0.0
  0
LINE
  5
466
  8
0
 62
     0
 10
-500.27054671719998
 20
-698.82545127419985
 30
0.0
 11
-557.38530331720006
 21
-698.82545127419985
 31
0.0
  0
LINE
  5
467
  8
0
 62
     0
 10
-500.27054671719998
 20
-698.82545127419985
 30
0.0
 11
-505.27054671719998
 21
-698.82545127419985
 31
0.0
  0
SOLID
  5
468
  8
0
 62
     0
 10
-500.27054671719998
 20
-698.82545127419985
 30
0.0
 11
-509.27054671719998
 21
-701.07545127419985
 31
0.0
 12
-509.27054671719998
 22
-696.57545127419985
 32
0.0
 13
-507.02054671719998
 23
-698.82545127419985
 33
0.0
  0
LINE
  5
469
  8
0
 62
     0
 10
-582.97054671720002
 20
-698.82545127419985
 30
0.0
 11
-577.97054671720002
 21
-698.82545127419985
 31
0.0
  0
SOLID
  5
46A
  8
0
 62
     0
 10
-582.97054671720002
 20
-698.82545127419985
 30
0.0
 11
-573.97054671720002
 21
-696.57545127419985
 31
0.0
 12
-573.97054671720002
 22
-701.07545127419985
 32
0.0
 13
-576.22054671720002
 23
-698.82545127419985
 33
0.0
  0
ENDBLK
  5
46B
  8
0
  0
BLOCK
  8
0
  2
*D38
 70
     1
 10
0.0
 20
0.0
 30
0.0
  3
*D38
  1

  0
TEXT
  5
473
  8
0
 62
     0
 10
-176.92818202449999
 20
-590.05670263989987
 30
0.0
 40
9.8954164504999991
  1
179
 50
90.0
  0
LINE
  5
474
  8
0
 62
     0
 10
-224.07054671719999
 20
-670.82545283059994
 30
0.0
 11
-173.1819320626
 21
-670.82545283059994
 31
0.0
  0
LINE
  5
475
  8
0
 62
     0
 10
-224.07054671719999
 20
-491.82545283059989
 30
0.0
 11
-173.1819320626
 21
-491.82545283059989
 31
0.0
  0
LINE
  5
476
  8
0
 62
     0
 10
-174.18193206259991
 20
-670.82545283059994
 30
0.0
 11
-174.18193206259991
 21
-566.7733698152
 31
0.0
  0
LINE
  5
477
  8
0
 62
     0
 10
-174.18193206259991
 20
-670.82545283059994
 30
0.0
 11
-174.18193206259991
 21
-595.87753584610005
 31
0.0
  0
LINE
  5
478
  8
0
 62
     0
 10
-174.18193206259991
 20
-491.82545283059989
 30
0.0
 11
-174.18193206259991
 21
-566.7733698152
 31
0.0
  0
LINE
  5
479
  8
0
 62
     0
 10
-174.18193206259991
 20
-491.82545283059989
 30
0.0
 11
-174.18193206259991
 21
-595.87753584610005
 31
0.0
  0
LINE
  5
47A
  8
0
 62
     0
 10
-174.18193206259991
 20
-491.82545283059989
 30
0.0
 11
-174.18193206259991
 21
-496.82545283059989
 31
0.0
  0
SOLID
  5
47B
  8
0
 62
     0
 10
-174.18193206259991
 20
-491.82545283059989
 30
0.0
 11
-171.9319320626
 21
-500.82545283059989
 31
0.0
 12
-176.43193206259991
 22
-500.82545283059989
 32
0.0
 13
-174.18193206259991
 23
-498.57545283059989
 33
0.0
  0
LINE
  5
47C
  8
0
 62
     0
 10
-174.18193206259991
 20
-670.82545283059994
 30
0.0
 11
-174.18193206259991
 21
-665.82545283059994
 31
0.0
  0
SOLID
  5
47D
  8
0
 62
     0
 10
-174.18193206259991
 20
-670.82545283059994
 30
0.0
 11
-176.43193206259991
 21
-661.82545283059994
 31
0.0
 12
-171.9319320626
 22
-661.82545283059994
 32
0.0
 13
-174.18193206259991
 23
-664.07545283059994
 33
0.0
  0
ENDBLK
  5
47E
  8
0
  0
BLOCK
  8
0
  2
*D39
 70
     1
 10
0.0
 20
0.0
 30
0.0
  3
*D39
  1

  0
TEXT
  5
482
  8
0
 62
     0
 10
-197.81679820490001
 20
-632.14670791180004
 30
0.0
 40
9.8954164504999991
  1
15
 50
90.0
  0
LINE
  5
483
  8
0
 62
     0
 10
-240.17054671720001
 20
-633.82587470559986
 30
0.0
 11
-194.07054824299999
 21
-633.82587470559986
 31
0.0
  0
LINE
  5
484
  8
0
 62
     0
 10
-240.17054671720001
 20
-618.82587470559986
 30
0.0
 11
-194.07054824299999
 21
-618.82587470559986
 31
0.0
  0
LINE
  5
485
  8
0
 62
     0
 10
-195.07054824299999
 20
-633.82587470559986
 30
0.0
 11
-195.07054824299999
 21
-633.82587470559986
 31
0.0
  0
LINE
  5
486
  8
0
 62
     0
 10
-195.07054824299999
 20
-633.82587470559986
 30
0.0
 11
-195.07054824299999
 21
-618.82587470559986
 31
0.0
  0
LINE
  5
487
  8
0
 62
     0
 10
-195.07054824299999
 20
-618.82587470559986
 30
0.0
 11
-195.07054824299999
 21
-633.82587470559986
 31
0.0
  0
LINE
  5
488
  8
0
 62
     0
 10
-195.07054824299999
 20
-618.82587470559986
 30
0.0
 11
-195.07054824299999
 21
-618.82587470559986
 31
0.0
  0
LINE
  5
489
  8
0
 62
     0
 10
-195.07054824299999
 20
-618.82587470559986
 30
0.0
 11
-195.07054824299999
 21
-613.82587470559986
 31
0.0
  0
SOLID
  5
48A
  8
0
 62
     0
 10
-195.07054824299999
 20
-618.82587470559986
 30
0.0
 11
-197.32054824299999
 21
-609.82587470559986
 31
0.0
 12
-192.82054824299999
 22
-609.82587470559986
 32
0.0
 13
-195.07054824299999
 23
-612.07587470559986
 33
0.0
  0
LINE
  5
48B
  8
0
 62
     0
 10
-195.07054824299999
 20
-633.82587470559986
 30
0.0
 11
-195.07054824299999
 21
-638.82587470559986
 31
0.0
  0
SOLID
  5
48C
  8
0
 62
     0
 10
-195.07054824299999
 20
-633.82587470559986
 30
0.0
 11
-192.82054824299999
 21
-642.82587470559986
 31
0.0
 12
-197.32054824299999
 22
-642.82587470559986
 32
0.0
 13
-195.07054824299999
 23
-640.57587470559986
 33
0.0
  0
ENDBLK
  5
48D
  8
0
  0
BLOCK
  8
0
  2
*D40
 70
     1
 10
0.0
 20
0.0
 30
0.0
  3
*D40
  1

  0
TEXT
  5
491
  8
0
 62
     0
 10
-197.81679820490001
 20
-609.64670791180004
 30
0.0
 40
9.8954164504999991
  1
30
 50
90.0
  0
LINE
  5
492
  8
0
 62
     0
 10
-240.17054671720001
 20
-618.82587470559986
 30
0.0
 11
-194.07054824299999
 21
-618.82587470559986
 31
0.0
  0
LINE
  5
493
  8
0
 62
     0
 10
-281.52054671719998
 20
-588.82587470559986
 30
0.0
 11
-194.07054824299999
 21
-588.82587470559986
 31
0.0
  0
LINE
  5
494
  8
0
 62
     0
 10
-195.07054824299999
 20
-618.82587470559986
 30
0.0
 11
-195.07054824299999
 21
-592.18420829329989
 31
0.0
  0
LINE
  5
495
  8
0
 62
     0
 10
-195.07054824299999
 20
-618.82587470559986
 30
0.0
 11
-195.07054824299999
 21
-615.46754111799999
 31
0.0
  0
LINE
  5
496
  8
0
 62
     0
 10
-195.07054824299999
 20
-588.82587470559986
 30
0.0
 11
-195.07054824299999
 21
-592.18420829329989
 31
0.0
  0
LINE
  5
497
  8
0
 62
     0
 10
-195.07054824299999
 20
-588.82587470559986
 30
0.0
 11
-195.07054824299999
 21
-615.46754111799999
 31
0.0
  0
LINE
  5
498
  8
0
 62
     0
 10
-195.07054824299999
 20
-588.82587470559986
 30
0.0
 11
-195.07054824299999
 21
-583.82587470559986
 31
0.0
  0
SOLID
  5
499
  8
0
 62
     0
 10
-195.07054824299999
 20
-588.82587470559986
 30
0.0
 11
-197.32054824299999
 21
-579.82587470559986
 31
0.0
 12
-192.82054824299999
 22
-579.82587470559986
 32
0.0
 13
-195.07054824299999
 23
-582.07587470559986
 33
0.0
  0
LINE
  5
49A
  8
0
 62
     0
 10
-195.07054824299999
 20
-618.82587470559986
 30
0.0
 11
-195.07054824299999
 21
-623.82587470559997
 31
0.0
  0
SOLID
  5
49B
  8
0
 62
     0
 10
-195.07054824299999
 20
-618.82587470559986
 30
0.0
 11
-192.82054824299999
 21
-627.82587470559997
 31
0.0
 12
-197.32054824299999
 22
-627.82587470559997
 32
0.0
 13
-195.07054824299999
 23
-625.57587470559986
 33
0.0
  0
ENDBLK
  5
49C
  8
0
  0
BLOCK
  8
0
  2
CLUMP2
 70
     0
 10
0.0
 20
0.0
 30
0.0
  3
CLUMP2
  1

  0
LINE
  5
4B8
  8
É}ÿg
 10
240.0060006928
 20
-676.50100056070005
 30
0.0
 11
240.0060006928
 21
-661.50100056070005
 31
0.0
  0
LINE
  5
4B9
  8
É}ÿg
 10
63.006000692800001
 20
-676.50100056070005
 30
0.0
 11
63.006000692800001
 21
-661.50100056070005
 31
0.0
  0
LINE
  5
4BA
  8
É}ÿg
 10
90.006000692800001
 20
-676.50100056070005
 30
0.0
 11
90.006000692800001
 21
-661.50100056070005
 31
0.0
  0
LINE
  5
4BB
  8
É}ÿg
 10
405.00600069279989
 20
-676.50100056070005
 30
0.0
 11
405.00600069279989
 21
-661.50100056070005
 31
0.0
  0
LINE
  5
4BC
  8
É}ÿg
 10
378.0060006928
 20
-676.50100056070005
 30
0.0
 11
378.0060006928
 21
-661.50100056070005
 31
0.0
  0
LINE
  5
4BD
  8
É}ÿg
 10
498.0060006928
 20
-661.50100056070005
 30
0.0
 11
63.006000692800001
 21
-661.50100056070005
 31
0.0
  0
ENDBLK
  5
4BE
  8
0
  0
BLOCK
  8
0
  2
CLUMP3
 70
     0
 10
0.0
 20
0.0
 30
0.0
  3
CLUMP3
  1

  0
LINE
  5
4C2
  8
É}ÿg
 10
240.0060006928
 20
-691.50100056070005
 30
0.0
 11
240.0060006928
 21
-676.50100056070005
 31
0.0
  0
LINE
  5
4C3
  8
É}ÿg
 10
63.006000692800001
 20
-691.50100056070005
 30
0.0
 11
63.006000692800001
 21
-676.50100056070005
 31
0.0
  0
LINE
  5
4C4
  8
É}ÿg
 10
90.006000692800001
 20
-691.50100056070005
 30
0.0
 11
90.006000692800001
 21
-676.50100056070005
 31
0.0
  0
LINE
  5
4C5
  8
É}ÿg
 10
405.00600069279989
 20
-691.50100056070005
 30
0.0
 11
405.00600069279989
 21
-676.50100056070005
 31
0.0
  0
LINE
  5
4C6
  8
É}ÿg
 10
378.0060006928
 20
-691.50100056070005
 30
0.0
 11
378.0060006928
 21
-676.50100056070005
 31
0.0
  0
LINE
  5
4C7
  8
É}ÿg
 10
498.0060006928
 20
-676.50100056070005
 30
0.0
 11
63.006000692800001
 21
-676.50100056070005
 31
0.0
  0
ENDBLK
  5
4C8
  8
0
  0
BLOCK
  8
0
  2
CLUMP4
 70
     0
 10
0.0
 20
0.0
 30
0.0
  3
CLUMP4
  1

  0
LINE
  5
4CC
  8
É}ÿg
 10
240.0060006928
 20
-661.50100056070005
 30
0.0
 11
240.0060006928
 21
-646.50100056070005
 31
0.0
  0
LINE
  5
4CD
  8
É}ÿg
 10
63.006000692800001
 20
-661.50100056070005
 30
0.0
 11
63.006000692800001
 21
-646.50100056070005
 31
0.0
  0
LINE
  5
4CE
  8
É}ÿg
 10
90.006000692800001
 20
-661.50100056070005
 30
0.0
 11
90.006000692800001
 21
-646.50100056070005
 31
0.0
  0
LINE
  5
4CF
  8
É}ÿg
 10
405.00600069279989
 20
-661.50100056070005
 30
0.0
 11
405.00600069279989
 21
-646.50100056070005
 31
0.0
  0
LINE
  5
4D0
  8
É}ÿg
 10
378.0060006928
 20
-661.50100056070005
 30
0.0
 11
378.0060006928
 21
-646.50100056070005
 31
0.0
  0
LINE
  5
4D1
  8
É}ÿg
 10
498.0060006928
 20
-646.50100056070005
 30
0.0
 11
63.006000692800001
 21
-646.50100056070005
 31
0.0
  0
ENDBLK
  5
4D2
  8
0
  0
BLOCK
  8
0
  2
*D44
 70
     1
 10
0.0
 20
0.0
 30
0.0
  3
*D44
  1

  0
TEXT
  5
4DB
  8
0
 62
     0
 10
198.81144090079999
 20
-58.209892088399997
 30
0.0
 40
9.8954164504999991
  1
15
  0
LINE
  5
4DC
  8
0
 62
     0
 10
212.2002703407
 20
-97.756545645299994
 30
0.0
 11
212.2002703407
 21
-59.956142050299988
 31
0.0
  0
LINE
  5
4DD
  8
0
 62
     0
 10
197.2002703407
 20
-105.9565456453
 30
0.0
 11
197.2002703407
 21
-59.956142050299988
 31
0.0
  0
LINE
  5
4DE
  8
0
 62
     0
 10
212.2002703407
 20
-60.956142050299988
 30
0.0
 11
212.2002703407
 21
-60.956142050299988
 31
0.0
  0
LINE
  5
4DF
  8
0
 62
     0
 10
212.2002703407
 20
-60.956142050299988
 30
0.0
 11
197.2002703407
 21
-60.956142050299988
 31
0.0
  0
LINE
  5
4E0
  8
0
 62
     0
 10
197.2002703407
 20
-60.956142050299988
 30
0.0
 11
212.2002703407
 21
-60.956142050299988
 31
0.0
  0
LINE
  5
4E1
  8
0
 62
     0
 10
197.2002703407
 20
-60.956142050299988
 30
0.0
 11
197.2002703407
 21
-60.956142050299988
 31
0.0
  0
LINE
  5
4E2
  8
0
 62
     0
 10
197.2002703407
 20
-60.956142050299988
 30
0.0
 11
192.2002703407
 21
-60.956142050299988
 31
0.0
  0
SOLID
  5
4E3
  8
0
 62
     0
 10
197.2002703407
 20
-60.956142050299988
 30
0.0
 11
188.2002703407
 21
-63.206142050300002
 31
0.0
 12
188.2002703407
 22
-58.706142050299988
 32
0.0
 13
190.4502703407
 23
-60.956142050299988
 33
0.0
  0
LINE
  5
4E4
  8
0
 62
     0
 10
212.2002703407
 20
-60.956142050299988
 30
0.0
 11
217.2002703407
 21
-60.956142050299988
 31
0.0
  0
SOLID
  5
4E5
  8
0
 62
     0
 10
212.2002703407
 20
-60.956142050299988
 30
0.0
 11
221.2002703407
 21
-58.706142050299988
 31
0.0
 12
221.2002703407
 22
-63.206142050300002
 32
0.0
 13
218.9502703407
 23
-60.956142050299988
 33
0.0
  0
ENDBLK
  5
4E6
  8
0
  0
BLOCK
  8
0
  2
*D45
 70
     1
 10
0.0
 20
0.0
 30
0.0
  3
*D45
  1

  0
TEXT
  5
4EA
  8
0
 62
     0
 10
191.37943713449999
 20
-36.589729124599998
 30
0.0
 40
9.8954164504999991
  1
30
  0
LINE
  5
4EB
  8
0
 62
     0
 10
212.2002703407
 20
-97.756545645299994
 30
0.0
 11
212.2002703407
 21
-38.335979086400002
 31
0.0
  0
LINE
  5
4EC
  8
0
 62
     0
 10
182.2002703407
 20
-97.756545645299994
 30
0.0
 11
182.2002703407
 21
-38.335979086400002
 31
0.0
  0
LINE
  5
4ED
  8
0
 62
     0
 10
212.2002703407
 20
-39.335979086400002
 30
0.0
 11
208.841936753
 21
-39.335979086400002
 31
0.0
  0
LINE
  5
4EE
  8
0
 62
     0
 10
212.2002703407
 20
-39.335979086400002
 30
0.0
 11
185.55860392829999
 21
-39.335979086400002
 31
0.0
  0
LINE
  5
4EF
  8
0
 62
     0
 10
182.2002703407
 20
-39.335979086400002
 30
0.0
 11
208.841936753
 21
-39.335979086400002
 31
0.0
  0
LINE
  5
4F0
  8
0
 62
     0
 10
182.2002703407
 20
-39.335979086400002
 30
0.0
 11
185.55860392829999
 21
-39.335979086400002
 31
0.0
  0
LINE
  5
4F1
  8
0
 62
     0
 10
182.2002703407
 20
-39.335979086400002
 30
0.0
 11
177.2002703407
 21
-39.335979086400002
 31
0.0
  0
SOLID
  5
4F2
  8
0
 62
     0
 10
182.2002703407
 20
-39.335979086400002
 30
0.0
 11
173.2002703407
 21
-41.585979086400002
 31
0.0
 12
173.2002703407
 22
-37.085979086400002
 32
0.0
 13
175.4502703407
 23
-39.335979086400002
 33
0.0
  0
LINE
  5
4F3
  8
0
 62
     0
 10
212.2002703407
 20
-39.335979086400002
 30
0.0
 11
217.2002703407
 21
-39.335979086400002
 31
0.0
  0
SOLID
  5
4F4
  8
0
 62
     0
 10
212.2002703407
 20
-39.335979086400002
 30
0.0
 11
221.2002703407
 21
-37.085979086400002
 31
0.0
 12
221.2002703407
 22
-41.585979086400002
 32
0.0
 13
218.9502703407
 23
-39.335979086400002
 33
0.0
  0
ENDBLK
  5
4F5
  8
0
  0
BLOCK
  8
0
  2
CLUMP5
 70
     0
 10
0.0
 20
0.0
 30
0.0
  3
CLUMP5
  1

  0
LINE
  5
4FB
  8
┌▓È_1
 62
     5
 10
186.7002703407
 20
-105.3565456453
 30
0.0
 11
211.40027034069999
 21
-105.3565456453
 31
0.0
  0
LINE
  5
4FC
  8
┌▓È_1
 62
     5
 10
186.7002703407
 20
-105.3565456453
 30
0.0
 11
186.7002703407
 21
-106.1565456453
 31
0.0
  0
LINE
  5
4FD
  8
┌▓È_1
 62
     5
 10
211.40027034069999
 20
-112.6565456453
 30
0.0
 11
198.00027034070001
 21
-112.6565456453
 31
0.0
  0
LINE
  5
4FE
  8
┌▓È_1
 62
     5
 10
211.40027034069999
 20
-98.756545645300022
 30
0.0
 11
211.40027034069999
 21
-112.6565456453
 31
0.0
  0
ARC
  5
4FF
  8
┌▓È_1
 62
     5
 10
211.40027034069999
 20
-98.756545645300022
 30
0.0
 40
0.8
 50
0.0
 51
90.0
  0
LINE
  5
500
  8
┌▓È_1
 62
     5
 10
212.2002703407
 20
-112.6565456453
 30
0.0
 11
212.2002703407
 21
-98.756545645300022
 31
0.0
  0
ARC
  5
501
  8
┌▓È_1
 62
     5
 10
211.40027034069999
 20
-112.6565456453
 30
0.0
 40
0.8
 50
270.0
 51
0.0
  0
LINE
  5
502
  8
┌▓È_1
 62
     5
 10
198.00027034070001
 20
-113.4565456453
 30
0.0
 11
211.40027034069999
 21
-113.4565456453
 31
0.0
  0
LINE
  5
503
  8
┌▓È_1
 62
     5
 10
197.2002703407
 20
-106.9565456453
 30
0.0
 11
197.2002703407
 21
-112.6565456453
 31
0.0
  0
ARC
  5
504
  8
┌▓È_1
 62
     5
 10
198.00027034070001
 20
-112.6565456453
 30
0.0
 40
0.8
 50
180.0
 51
270.0
  0
LINE
  5
505
  8
┌▓È_1
 62
     5
 10
198.00027034070001
 20
-112.6565456453
 30
0.0
 11
198.00027034070001
 21
-106.9565456453
 31
0.0
  0
LINE
  5
506
  8
┌▓È_1
 62
     5
 10
206.2002703407
 20
-98.756545645300022
 30
0.0
 11
211.40027034069999
 21
-98.756545645300022
 31
0.0
  0
LINE
  5
507
  8
┌▓È_1
 62
     5
 10
206.2002703407
 20
-97.956545645300025
 30
0.0
 11
206.2002703407
 21
-98.756545645300022
 31
0.0
  0
LINE
  5
508
  8
┌▓È_1
 62
     5
 10
188.2002703407
 20
-98.756545645300022
 30
0.0
 11
188.2002703407
 21
-105.3565456453
 31
0.0
  0
LINE
  5
509
  8
┌▓È_1
 62
     5
 10
197.2002703407
 20
-106.1565456453
 30
0.0
 11
211.40027034069999
 21
-106.1565456453
 31
0.0
  0
LINE
  5
50A
  8
┌▓È_1
 62
     5
 10
188.2002703407
 20
-98.756545645300022
 30
0.0
 11
188.2002703407
 21
-97.956545645300025
 31
0.0
  0
LINE
  5
50B
  8
┌▓È_1
 62
     5
 10
211.40027034069999
 20
-97.956545645300025
 30
0.0
 11
206.2002703407
 21
-97.956545645300025
 31
0.0
  0
ARC
  5
50C
  8
┌▓È_1
 62
     5
 10
197.2002703407
 20
-106.9565456453
 30
0.0
 40
0.8
 50
0.0
 51
90.0
  0
ARC
  5
50D
  8
┌▓È_1
 62
     5
 10
183.00027034070001
 20
-106.1565456453
 30
0.0
 40
0.8
 50
180.0
 51
270.0
  0
LINE
  5
50E
  8
┌▓È_1
 62
     5
 10
183.00027034070001
 20
-106.1565456453
 30
0.0
 11
183.00027034070001
 21
-98.756545645300022
 31
0.0
  0
ARC
  5
50F
  8
┌▓È_1
 62
     5
 10
183.00027034070001
 20
-98.756545645300022
 30
0.0
 40
0.8
 50
90.0
 51
180.0
  0
LINE
  5
510
  8
┌▓È_1
 62
     5
 10
182.2002703407
 20
-98.756545645300022
 30
0.0
 11
182.2002703407
 21
-106.1565456453
 31
0.0
  0
LINE
  5
511
  8
┌▓È_1
 62
     5
 10
183.00027034070001
 20
-98.756545645300022
 30
0.0
 11
188.2002703407
 21
-98.756545645300022
 31
0.0
  0
LINE
  5
512
  8
┌▓È_1
 62
     5
 10
188.2002703407
 20
-97.956545645300025
 30
0.0
 11
183.00027034070001
 21
-97.956545645300025
 31
0.0
  0
LINE
  5
513
  8
┌▓È_1
 62
     5
 10
197.2002703407
 20
-106.1565456453
 30
0.0
 11
183.00027034070001
 21
-106.1565456453
 31
0.0
  0
LINE
  5
514
  8
┌▓È_1
 62
     5
 10
183.00027034070001
 20
-106.9565456453
 30
0.0
 11
197.2002703407
 21
-106.9565456453
 31
0.0
  0
ENDBLK
  5
515
  8
0
  0
BLOCK
  8
0
  2
CLUMP6
 70
     0
 10
0.0
 20
0.0
 30
0.0
  3
CLUMP6
  1

  0
LINE
  5
519
  8
┌▓È_1
 62
     5
 10
186.7002703407
 20
-288.55654564529999
 30
0.0
 11
211.40027034069999
 21
-288.55654564529999
 31
0.0
  0
LINE
  5
51A
  8
┌▓È_1
 62
     5
 10
186.7002703407
 20
-288.55654564529999
 30
0.0
 11
186.7002703407
 21
-287.75654564529998
 31
0.0
  0
ARC
  5
51B
  8
┌▓È_1
 62
     5
 10
197.2002703407
 20
-286.95654564529991
 30
0.0
 40
0.8
 50
270.0
 51
0.0
  0
LINE
  5
51C
  8
┌▓È_1
 62
     5
 10
206.2002703407
 20
-295.15654564530001
 30
0.0
 11
211.40027034069999
 21
-295.15654564530001
 31
0.0
  0
LINE
  5
51D
  8
┌▓È_1
 62
     5
 10
206.2002703407
 20
-295.95654564530003
 30
0.0
 11
206.2002703407
 21
-295.15654564530001
 31
0.0
  0
LINE
  5
51E
  8
┌▓È_1
 62
     5
 10
188.2002703407
 20
-295.15654564530001
 30
0.0
 11
188.2002703407
 21
-295.95654564530003
 31
0.0
  0
LINE
  5
51F
  8
┌▓È_1
 62
     5
 10
198.00027034070001
 20
-280.45654564530003
 30
0.0
 11
211.40027034069999
 21
-280.45654564530003
 31
0.0
  0
LINE
  5
520
  8
┌▓È_1
 62
     5
 10
197.2002703407
 20
-286.95654564529991
 30
0.0
 11
197.2002703407
 21
-281.25654564529998
 31
0.0
  0
ARC
  5
521
  8
┌▓È_1
 62
     5
 10
198.00027034070001
 20
-281.25654564529998
 30
0.0
 40
0.8
 50
90.0
 51
180.0
  0
LINE
  5
522
  8
┌▓È_1
 62
     5
 10
198.00027034070001
 20
-281.25654564529998
 30
0.0
 11
198.00027034070001
 21
-286.95654564529991
 31
0.0
  0
LINE
  5
523
  8
┌▓È_1
 62
     5
 10
211.40027034069999
 20
-295.15654564530001
 30
0.0
 11
211.40027034069999
 21
-281.25654564529998
 31
0.0
  0
LINE
  5
524
  8
┌▓È_1
 62
     5
 10
211.40027034069999
 20
-295.95654564530003
 30
0.0
 11
206.2002703407
 21
-295.95654564530003
 31
0.0
  0
ARC
  5
525
  8
┌▓È_1
 62
     5
 10
211.40027034069999
 20
-295.15654564530001
 30
0.0
 40
0.8
 50
270.0
 51
0.0
  0
LINE
  5
526
  8
┌▓È_1
 62
     5
 10
212.2002703407
 20
-281.25654564529998
 30
0.0
 11
212.2002703407
 21
-295.15654564530001
 31
0.0
  0
ARC
  5
527
  8
┌▓È_1
 62
     5
 10
211.40027034069999
 20
-281.25654564529998
 30
0.0
 40
0.8
 50
0.0
 51
90.0
  0
LINE
  5
528
  8
┌▓È_1
 62
     5
 10
188.2002703407
 20
-295.15654564530001
 30
0.0
 11
188.2002703407
 21
-288.55654564529999
 31
0.0
  0
LINE
  5
529
  8
┌▓È_1
 62
     5
 10
197.2002703407
 20
-287.75654564529998
 30
0.0
 11
211.40027034069999
 21
-287.75654564529998
 31
0.0
  0
LINE
  5
52A
  8
┌▓È_1
 62
     5
 10
211.40027034069999
 20
-281.25654564529998
 30
0.0
 11
198.00027034070001
 21
-281.25654564529998
 31
0.0
  0
LINE
  5
52B
  8
┌▓È_1
 62
     5
 10
183.00027034070001
 20
-287.75654564529998
 30
0.0
 11
183.00027034070001
 21
-295.15654564530001
 31
0.0
  0
ARC
  5
52C
  8
┌▓È_1
 62
     5
 10
183.00027034070001
 20
-295.15654564530001
 30
0.0
 40
0.8
 50
180.0
 51
270.0
  0
LINE
  5
52D
  8
┌▓È_1
 62
     5
 10
182.2002703407
 20
-295.15654564530001
 30
0.0
 11
182.2002703407
 21
-287.75654564529998
 31
0.0
  0
ARC
  5
52E
  8
┌▓È_1
 62
     5
 10
183.00027034070001
 20
-287.75654564529998
 30
0.0
 40
0.8
 50
90.0
 51
180.0
  0
LINE
  5
52F
  8
┌▓È_1
 62
     5
 10
183.00027034070001
 20
-286.95654564529991
 30
0.0
 11
197.2002703407
 21
-286.95654564529991
 31
0.0
  0
LINE
  5
530
  8
┌▓È_1
 62
     5
 10
183.00027034070001
 20
-295.15654564530001
 30
0.0
 11
188.2002703407
 21
-295.15654564530001
 31
0.0
  0
LINE
  5
531
  8
┌▓È_1
 62
     5
 10
188.2002703407
 20
-295.95654564530003
 30
0.0
 11
183.00027034070001
 21
-295.95654564530003
 31
0.0
  0
LINE
  5
532
  8
┌▓È_1
 62
     5
 10
197.2002703407
 20
-287.75654564529998
 30
0.0
 11
183.00027034070001
 21
-287.75654564529998
 31
0.0
  0
ENDBLK
  5
533
  8
0
  0
BLOCK
  8
0
  2
*D48
 70
     1
 10
0.0
 20
0.0
 30
0.0
  3
*D48
  1

  0
TEXT
  5
537
  8
0
 62
     0
 10
-471.51679667899998
 20
-621.73629130870006
 30
0.0
 40
9.8954164504999991
  1
7
 50
90.0
  0
LINE
  5
538
  8
0
 62
     0
 10
-491.77054671719998
 20
-622.32587470559986
 30
0.0
 11
-467.77054671719998
 21
-622.32587470559986
 31
0.0
  0
LINE
  5
539
  8
0
 62
     0
 10
-491.77054671719998
 20
-615.32587470559997
 30
0.0
 11
-467.77054671719998
 21
-615.32587470559997
 31
0.0
  0
LINE
  5
53A
  8
0
 62
     0
 10
-468.77054671719998
 20
-622.32587470559986
 30
0.0
 11
-468.77054671719998
 21
-622.32587470559986
 31
0.0
  0
LINE
  5
53B
  8
0
 62
     0
 10
-468.77054671719998
 20
-622.32587470559986
 30
0.0
 11
-468.77054671719998
 21
-615.32587470559997
 31
0.0
  0
LINE
  5
53C
  8
0
 62
     0
 10
-468.77054671719998
 20
-615.32587470559997
 30
0.0
 11
-468.77054671719998
 21
-622.32587470559986
 31
0.0
  0
LINE
  5
53D
  8
0
 62
     0
 10
-468.77054671719998
 20
-615.32587470559997
 30
0.0
 11
-468.77054671719998
 21
-615.32587470559997
 31
0.0
  0
LINE
  5
53E
  8
0
 62
     0
 10
-468.77054671719998
 20
-615.32587470559997
 30
0.0
 11
-468.77054671719998
 21
-610.32587470559986
 31
0.0
  0
SOLID
  5
53F
  8
0
 62
     0
 10
-468.77054671719998
 20
-615.32587470559997
 30
0.0
 11
-471.02054671719998
 21
-606.32587470559986
 31
0.0
 12
-466.52054671719998
 22
-606.32587470559986
 32
0.0
 13
-468.77054671719998
 23
-608.57587470559986
 33
0.0
  0
LINE
  5
540
  8
0
 62
     0
 10
-468.77054671719998
 20
-622.32587470559986
 30
0.0
 11
-468.77054671719998
 21
-627.32587470559986
 31
0.0
  0
SOLID
  5
541
  8
0
 62
     0
 10
-468.77054671719998
 20
-622.32587470559986
 30
0.0
 11
-466.52054671719998
 21
-631.32587470559986
 31
0.0
 12
-471.02054671719998
 22
-631.32587470559986
 32
0.0
 13
-468.77054671719998
 23
-629.07587470559986
 33
0.0
  0
ENDBLK
  5
542
  8
0
  0
BLOCK
  8
0
  2
*D49
 70
     1
 10
0.0
 20
0.0
 30
0.0
  3
*D49
  1

  0
TEXT
  5
569
  8
0
 62
     0
 10
-386.1644701111
 20
-696.07920286880005
 30
0.0
 40
9.8954164504999991
  1
82.7
  0
LINE
  5
56A
  8
0
 62
     0
 10
-417.57054671719987
 20
-676.82545283059994
 30
0.0
 11
-417.57054671719987
 21
-699.82545283059994
 31
0.0
  0
LINE
  5
56B
  8
0
 62
     0
 10
-334.8705467172
 20
-653.32587470559997
 30
0.0
 11
-334.8705467172
 21
-699.82545283059994
 31
0.0
  0
LINE
  5
56C
  8
0
 62
     0
 10
-417.57054671719987
 20
-698.82545283059994
 30
0.0
 11
-360.45579011709998
 21
-698.82545283059994
 31
0.0
  0
LINE
  5
56D
  8
0
 62
     0
 10
-417.57054671719987
 20
-698.82545283059994
 30
0.0
 11
-391.98530331720002
 21
-698.82545283059994
 31
0.0
  0
LINE
  5
56E
  8
0
 62
     0
 10
-334.8705467172
 20
-698.82545283059994
 30
0.0
 11
-360.45579011709998
 21
-698.82545283059994
 31
0.0
  0
LINE
  5
56F
  8
0
 62
     0
 10
-334.8705467172
 20
-698.82545283059994
 30
0.0
 11
-391.98530331720002
 21
-698.82545283059994
 31
0.0
  0
LINE
  5
570
  8
0
 62
     0
 10
-334.8705467172
 20
-698.82545283059994
 30
0.0
 11
-339.8705467172
 21
-698.82545283059994
 31
0.0
  0
SOLID
  5
571
  8
0
 62
     0
 10
-334.8705467172
 20
-698.82545283059994
 30
0.0
 11
-343.8705467172
 21
-701.07545283059994
 31
0.0
 12
-343.8705467172
 22
-696.57545283059994
 32
0.0
 13
-341.6205467172
 23
-698.82545283059994
 33
0.0
  0
LINE
  5
572
  8
0
 62
     0
 10
-417.57054671719987
 20
-698.82545283059994
 30
0.0
 11
-412.57054671719987
 21
-698.82545283059994
 31
0.0
  0
SOLID
  5
573
  8
0
 62
     0
 10
-417.57054671719987
 20
-698.82545283059994
 30
0.0
 11
-408.57054671719987
 21
-696.57545283059994
 31
0.0
 12
-408.57054671719987
 22
-701.07545283059994
 32
0.0
 13
-410.82054671719987
 23
-698.82545283059994
 33
0.0
  0
ENDBLK
  5
574
  8
0
  0
BLOCK
  8
0
  2
*D50
 70
     1
 10
0.0
 20
0.0
 30
0.0
  3
*D50
  1

  0
TEXT
  5
578
  8
0
 62
     0
 10
-426.30179652639993
 20
-461.0792028688
 30
0.0
 40
9.8954164504999991
  1
389
  0
LINE
  5
579
  8
0
 62
     0
 10
-223.07054671719999
 20
-492.82545283059989
 30
0.0
 11
-223.07054671719999
 21
-462.82545283059989
 31
0.0
  0
LINE
  5
57A
  8
0
 62
     0
 10
-612.07054671720005
 20
-492.82545283059989
 30
0.0
 11
-612.07054671720005
 21
-462.82545283059989
 31
0.0
  0
LINE
  5
57B
  8
0
 62
     0
 10
-223.07054671719999
 20
-463.82545283059989
 30
0.0
 11
-403.0184637017
 21
-463.82545283059989
 31
0.0
  0
LINE
  5
57C
  8
0
 62
     0
 10
-223.07054671719999
 20
-463.82545283059989
 30
0.0
 11
-432.12262973259999
 21
-463.82545283059989
 31
0.0
  0
LINE
  5
57D
  8
0
 62
     0
 10
-612.07054671720005
 20
-463.82545283059989
 30
0.0
 11
-403.0184637017
 21
-463.82545283059989
 31
0.0
  0
LINE
  5
57E
  8
0
 62
     0
 10
-612.07054671720005
 20
-463.82545283059989
 30
0.0
 11
-432.12262973259999
 21
-463.82545283059989
 31
0.0
  0
LINE
  5
57F
  8
0
 62
     0
 10
-612.07054671720005
 20
-463.82545283059989
 30
0.0
 11
-607.07054671720005
 21
-463.82545283059989
 31
0.0
  0
SOLID
  5
580
  8
0
 62
     0
 10
-612.07054671720005
 20
-463.82545283059989
 30
0.0
 11
-603.07054671720005
 21
-461.57545283059989
 31
0.0
 12
-603.07054671720005
 22
-466.07545283059989
 32
0.0
 13
-605.32054671720005
 23
-463.82545283059989
 33
0.0
  0
LINE
  5
581
  8
0
 62
     0
 10
-223.07054671719999
 20
-463.82545283059989
 30
0.0
 11
-228.07054671719999
 21
-463.82545283059989
 31
0.0
  0
SOLID
  5
582
  8
0
 62
     0
 10
-223.07054671719999
 20
-463.82545283059989
 30
0.0
 11
-232.07054671719999
 21
-466.07545283059989
 31
0.0
 12
-232.07054671719999
 22
-461.57545283059989
 32
0.0
 13
-229.82054671719999
 23
-463.82545283059989
 33
0.0
  0
ENDBLK
  5
583
  8
0
  0
BLOCK
  8
0
  2
*D51
 70
     1
 10
0.0
 20
0.0
 30
0.0
  3
*D51
  1

  0
TEXT
  5
5AB
  8
0
 62
     0
 10
97.282989009899993
 20
-416.70490600440002
 30
0.0
 40
9.8954164504999991
  1
6
 50
90.0
  0
LINE
  5
5AC
  8
0
 62
     0
 10
76.229238971699999
 20
-402.00218822339991
 30
0.0
 11
101.0292389717
 21
-402.00218822339991
 31
0.0
  0
LINE
  5
5AD
  8
0
 62
     0
 10
77.029238971699996
 20
-396.00218822340003
 30
0.0
 11
101.0292389717
 21
-396.00218822340003
 31
0.0
  0
LINE
  5
5AE
  8
0
 62
     0
 10
100.0292389717
 20
-402.00218822339991
 30
0.0
 11
100.0292389717
 21
-405.06323959209999
 31
0.0
  0
LINE
  5
5AF
  8
0
 62
     0
 10
100.0292389717
 20
-402.00218822339991
 30
0.0
 11
100.0292389717
 21
-422.52573921060002
 31
0.0
  0
LINE
  5
5B0
  8
0
 62
     0
 10
100.0292389717
 20
-396.00218822340003
 30
0.0
 11
100.0292389717
 21
-405.06323959209999
 31
0.0
  0
LINE
  5
5B1
  8
0
 62
     0
 10
100.0292389717
 20
-396.00218822340003
 30
0.0
 11
100.0292389717
 21
-422.52573921060002
 31
0.0
  0
LINE
  5
5B2
  8
0
 62
     0
 10
100.0292389717
 20
-396.00218822340003
 30
0.0
 11
100.0292389717
 21
-391.00218822340003
 31
0.0
  0
SOLID
  5
5B3
  8
0
 62
     0
 10
100.0292389717
 20
-396.00218822340003
 30
0.0
 11
97.779238971699996
 21
-387.00218822340003
 31
0.0
 12
102.2792389717
 22
-387.00218822340003
 32
0.0
 13
100.0292389717
 23
-389.25218822340003
 33
0.0
  0
LINE
  5
5B4
  8
0
 62
     0
 10
100.0292389717
 20
-402.00218822339991
 30
0.0
 11
100.0292389717
 21
-407.00218822340003
 31
0.0
  0
SOLID
  5
5B5
  8
0
 62
     0
 10
100.0292389717
 20
-402.00218822339991
 30
0.0
 11
102.2792389717
 21
-411.00218822339991
 31
0.0
 12
97.779238971699996
 22
-411.00218822339991
 32
0.0
 13
100.0292389717
 23
-408.75218822339991
 33
0.0
  0
ENDBLK
  5
5B6
  8
0
  0
BLOCK
  8
0
  2
CLUMP7
 70
     0
 10
0.0
 20
0.0
 30
0.0
  3
CLUMP7
  1

  0
LINE
  5
5D6
  8
É}ÿg
 10
237.9697583395
 20
-797.77098165999996
 30
0.0
 11
240.9697583395
 21
-793.27098165999996
 31
0.0
  0
LINE
  5
5D7
  8
É}ÿg
 10
193.98794015760001
 20
-793.27098165999996
 30
0.0
 11
193.98794015760001
 21
-799.27098165999985
 31
0.0
  0
LINE
  5
5D8
  8
É}ÿg
 10
265.16902908989999
 20
-803.77098165999985
 30
0.0
 11
274.62220628429998
 21
-803.77098165999985
 31
0.0
  0
LINE
  5
5D9
  8
É}ÿg
 10
213.9697583395
 20
-814.27098165999996
 30
0.0
 11
221.4697583395
 21
-814.27098165999996
 31
0.0
  0
LINE
  5
5DA
  8
É}ÿg
 10
213.9697583395
 20
-800.23731246240004
 30
0.0
 11
225.9697583395
 21
-800.23731246240004
 31
0.0
  0
INSERT
  5
5DB
  8
0
  6
CONTINUOUS
  2
*U88
 10
0.0
 20
0.0
 30
0.0
  0
LINE
  5
5DC
  8
É}ÿg
 62
     5
 10
288.0060006928
 20
-25.50100056070001
 30
0.0
 11
288.0060006928
 21
19.4989994393
 31
0.0
  0
LINE
  5
5DD
  8
É}ÿg
 62
     5
 10
438.00600069279989
 20
-25.50100056070001
 30
0.0
 11
438.00600069279989
 21
19.4989994393
 31
0.0
  0
LINE
  5
5DE
  8
É}ÿg
 62
     5
 10
240.0060006928
 20
-25.50100056070001
 30
0.0
 11
240.0060006928
 21
19.4989994393
 31
0.0
  0
LINE
  5
5DF
  8
É}ÿg
 62
     5
 10
219.72814453460001
 20
-9.2086253077000002
 30
0.0
 11
234.57814453469999
 21
-9.2086253077000002
 31
0.0
  0
LINE
  5
5E0
  8
É}ÿg
 62
     5
 10
227.15314453459999
 20
-11.1981480615
 30
0.0
 11
234.57814453469999
 21
-24.058625307700002
 31
0.0
  0
LINE
  5
5E1
  8
É}ÿg
 62
     5
 10
216.0060006928
 20
-25.50100056070001
 30
0.0
 11
216.0060006928
 21
19.4989994393
 31
0.0
  0
LINE
  5
5E2
  8
É}ÿg
 62
     5
 10
468.0060006928
 20
-25.50100056070001
 30
0.0
 11
468.0060006928
 21
19.4989994393
 31
0.0
  0
LINE
  5
5E3
  8
É}ÿg
 62
     5
 10
216.0060006928
 20
4.4989994393000003
 30
0.0
 11
498.0060006928
 21
4.4989994393000003
 31
0.0
  0
LINE
  5
5E4
  8
É}ÿg
 62
     5
 10
216.0060006928
 20
-10.5010005607
 30
0.0
 11
498.0060006928
 21
-10.5010005607
 31
0.0
  0
LINE
  5
5E5
  8
É}ÿg
 62
     5
 10
216.0060006928
 20
-25.50100056070001
 30
0.0
 11
498.0060006928
 21
-25.50100056070001
 31
0.0
  0
INSERT
  5
5E6
  8
0
  6
CONTINUOUS
  2
*U89
 10
0.0
 20
0.0
 30
0.0
  0
LINE
  5
5E7
  8
É}ÿg
 62
     5
 10
-701.99399930720006
 20
-820.50100056070005
 30
0.0
 11
-701.99399930720006
 21
19.4989994393
 31
0.0
  0
LINE
  5
5E8
  8
É}ÿg
 62
     5
 10
-701.99399930720006
 20
-820.50100056070005
 30
0.0
 11
498.0060006928
 21
-820.50100056070005
 31
0.0
  0
LINE
  5
5E9
  8
É}ÿg
 62
     5
 10
498.0060006928
 20
19.4989994393
 30
0.0
 11
-701.99399930720006
 21
19.4989994393
 31
0.0
  0
LINE
  5
5EA
  8
É}ÿg
 62
     5
 10
498.0060006928
 20
-820.50100056070005
 30
0.0
 11
498.0060006928
 21
19.4989994393
 31
0.0
  0
LINE
  5
5EB
  8
É}ÿg
 10
213.9697583395
 20
-801.20364326490005
 30
0.0
 11
213.9697583395
 21
-800.23731246240004
 31
0.0
  0
LINE
  5
5EC
  8
É}ÿg
 10
177.034628723
 20
-799.27098165999985
 30
0.0
 11
177.034628723
 21
-803.77098165999985
 31
0.0
  0
LINE
  5
5ED
  8
É}ÿg
 62
     5
 10
227.15314453459999
 20
3.6518519385000001
 30
0.0
 11
234.57814453469999
 21
-9.2086253077000002
 31
0.0
  0
LINE
  5
5EE
  8
É}ÿg
 62
     5
 10
227.15314453459999
 20
-11.1981480615
 30
0.0
 11
219.72814453460001
 21
-24.058625307700002
 31
0.0
  0
INSERT
  5
5EF
  8
0
  6
CONTINUOUS
  2
*U90
 10
0.0
 20
0.0
 30
0.0
  0
LINE
  5
5F0
  8
É}ÿg
  6
DOT
 10
-716.9339993072
 20
-833.1910005607001
 30
0.0
 11
-716.9339993072
 21
32.188999439299998
 31
0.0
  0
LINE
  5
5F1
  8
É}ÿg
  6
DOT
 10
512.9460006928
 20
-833.1910005607001
 30
0.0
 11
512.9460006928
 21
32.188999439299998
 31
0.0
  0
LINE
  5
5F2
  8
É}ÿg
  6
DOT
 10
-716.9339993072
 20
-833.1910005607001
 30
0.0
 11
512.9460006928
 21
-833.1910005607001
 31
0.0
  0
LINE
  5
5F3
  8
É}ÿg
 10
187.98794015760001
 20
-808.27098165999985
 30
0.0
 11
187.98794015760001
 21
-803.77098165999985
 31
0.0
  0
LINE
  5
5F4
  8
É}ÿg
  6
DOT
 10
512.9460006928
 20
32.188999439299998
 30
0.0
 11
-716.9339993072
 21
32.188999439299998
 31
0.0
  0
LINE
  5
5F5
  8
É}ÿg
 10
180.48794015760001
 20
-803.77098165999985
 30
0.0
 11
180.48794015760001
 21
-808.27098165999985
 31
0.0
  0
LINE
  5
5F6
  8
É}ÿg
 10
201.48794015760001
 20
-797.77098165999996
 30
0.0
 11
205.98794015760001
 21
-793.27098165999996
 31
0.0
  0
LINE
  5
5F7
  8
É}ÿg
 10
257.40620628430003
 20
-806.17098166000005
 30
0.0
 11
256.70220628430002
 21
-803.77098165999985
 31
0.0
  0
LINE
  5
5F8
  8
É}ÿg
 10
187.98794015760001
 20
-799.27098165999985
 30
0.0
 11
187.98794015760001
 21
-797.77098165999996
 31
0.0
  0
LINE
  5
5F9
  8
É}ÿg
 10
234.5579163957
 20
-807.81837528690005
 30
0.0
 11
234.0236102163
 21
-808.34150971949987
 31
0.0
  0
LINE
  5
5FA
  8
É}ÿg
 10
237.9697583395
 20
-797.77098165999996
 30
0.0
 11
240.9697583395
 21
-793.27098165999996
 31
0.0
  0
LINE
  5
5FB
  8
É}ÿg
 10
274.62220628429998
 20
-806.17098166000005
 30
0.0
 11
274.62220628429998
 21
-811.57098166000003
 31
0.0
  0
LINE
  5
5FC
  8
É}ÿg
 10
240.9697583395
 20
-809.77098165999996
 30
0.0
 11
240.9697583395
 21
-814.27098165999996
 31
0.0
  0
LINE
  5
5FD
  8
É}ÿg
 10
263.61509935240002
 20
-798.37098165999998
 30
0.0
 11
274.62220628429998
 21
-798.37098165999998
 31
0.0
  0
LINE
  5
5FE
  8
É}ÿg
 10
263.61509935240002
 20
-798.37098165999998
 30
0.0
 11
263.1759166018
 21
-796.84479498860003
 31
0.0
  0
LINE
  5
5FF
  8
É}ÿg
 10
240.9697583395
 20
-793.27098165999996
 30
0.0
 11
213.9697583395
 21
-793.27098165999996
 31
0.0
  0
INSERT
  5
600
  8
0
  6
CONTINUOUS
  2
*U91
 10
0.0
 20
0.0
 30
0.0
  0
LINE
  5
601
  8
É}ÿg
 10
260.2222062843
 20
-815.77098165999996
 30
0.0
 11
258.99020628429997
 21
-811.57098166000003
 31
0.0
  0
LINE
  5
602
  8
É}ÿg
 10
189.48794015760001
 20
-809.77098165999996
 30
0.0
 11
180.48794015760001
 21
-809.77098165999996
 31
0.0
  0
LINE
  5
603
  8
É}ÿg
 10
213.9697583395
 20
-798.67098166000005
 30
0.0
 11
228.9697583395
 21
-798.67098166000005
 31
0.0
  0
LINE
  5
604
  8
É}ÿg
 10
254.66375322779999
 20
-734.40100056070003
 30
0.0
 11
269.06375322780002
 21
-730.80100056070012
 31
0.0
  0
CIRCLE
  5
605
  8
É}ÿg
 10
238.20600069279999
 20
-738.00100056070005
 30
0.0
 40
7.2000000000000002
  0
INSERT
  5
606
  8
0
  6
CONTINUOUS
  2
*U92
 10
0.0
 20
0.0
 30
0.0
  0
LINE
  5
607
  8
É}ÿg
 10
187.98794015760001
 20
-803.77098165999985
 30
0.0
 11
193.98794015760001
 21
-803.77098165999985
 31
0.0
  0
LINE
  5
608
  8
É}ÿg
 10
247.62220628430001
 20
-803.77098165999985
 30
0.0
 11
256.70220628430002
 21
-803.77098165999985
 31
0.0
  0
LINE
  5
609
  8
É}ÿg
 10
205.98794015760001
 20
-799.27098165999985
 30
0.0
 11
201.48794015760001
 21
-799.27098165999985
 31
0.0
  0
LINE
  5
60A
  8
É}ÿg
 10
201.48794015760001
 20
-799.27098165999985
 30
0.0
 11
201.48794015760001
 21
-797.77098165999996
 31
0.0
  0
LINE
  5
60B
  8
É}ÿg
 10
247.62220628430001
 20
-798.37098165999998
 30
0.0
 11
255.11820628429999
 21
-798.37098165999998
 31
0.0
  0
LINE
  5
60C
  8
É}ÿg
 10
263.1759166018
 20
-796.84479498860003
 30
0.0
 11
265.62220628429998
 21
-793.27098165999996
 31
0.0
  0
LINE
  5
60D
  8
É}ÿg
 10
213.9697583395
 20
-814.27098165999996
 30
0.0
 11
213.9697583395
 21
-809.77098165999996
 31
0.0
  0
LINE
  5
60E
  8
É}ÿg
 10
288.0060006928
 20
-721.50100056070005
 30
0.0
 11
288.0060006928
 21
-820.50100056070005
 31
0.0
  0
INSERT
  5
60F
  8
0
  6
CONTINUOUS
  2
*U93
 10
0.0
 20
0.0
 30
0.0
  0
INSERT
  5
610
  8
0
  6
CONTINUOUS
  2
*U94
 10
0.0
 20
0.0
 30
0.0
  0
INSERT
  5
611
  8
0
  6
CONTINUOUS
  2
*U95
 10
0.0
 20
0.0
 30
0.0
  0
LINE
  5
612
  8
É}ÿg
 62
     5
 10
219.72814453460001
 20
-24.058625307700002
 30
0.0
 11
234.57814453469999
 21
-24.058625307700002
 31
0.0
  0
LINE
  5
613
  8
É}ÿg
 10
177.034628723
 20
-803.77098165999985
 30
0.0
 11
180.034628723
 21
-803.77098165999985
 31
0.0
  0
ARC
  5
614
  8
É}ÿg
 10
221.4697583395
 20
-797.77098165999996
 30
0.0
 40
16.5
 50
322.48761197969998
 51
0.0
  0
LINE
  5
615
  8
É}ÿg
 10
180.48794015760001
 20
-814.27098165999996
 30
0.0
 11
192.48794015759989
 21
-814.27098165999996
 31
0.0
  0
LINE
  5
616
  8
É}ÿg
 10
247.62220628430001
 20
-811.57098166000003
 30
0.0
 11
258.99020628429997
 21
-811.57098166000003
 31
0.0
  0
ARC
  5
617
  8
É}ÿg
 10
189.48794015760001
 20
-805.27098165999996
 30
0.0
 40
4.5
 50
270.0
 51
0.0
  0
LINE
  5
618
  8
É}ÿg
 10
247.62220628430001
 20
-806.17098166000005
 30
0.0
 11
247.62220628430001
 21
-811.57098166000003
 31
0.0
  0
LINE
  5
619
  8
É}ÿg
 10
180.48794015760001
 20
-808.27098165999985
 30
0.0
 11
187.98794015760001
 21
-808.27098165999985
 31
0.0
  0
LINE
  5
61A
  8
É}ÿg
 10
227.57869581450001
 20
-803.82819437529997
 30
0.0
 11
226.85690839559999
 21
-804.62540945699993
 31
0.0
  0
LINE
  5
61B
  8
É}ÿg
 10
268.62220628429998
 20
-815.77098165999996
 30
0.0
 11
260.2222062843
 21
-815.77098165999996
 31
0.0
  0
LINE
  5
61C
  8
É}ÿg
 10
193.98794015760001
 20
-803.77098165999985
 30
0.0
 11
193.98794015760001
 21
-805.27098165999996
 31
0.0
  0
LINE
  5
61D
  8
É}ÿg
 10
498.0060006928
 20
-721.50100056070005
 30
0.0
 11
63.006000692800001
 21
-721.50100056070005
 31
0.0
  0
LINE
  5
61E
  8
É}ÿg
 10
269.06375322780002
 20
-730.80100056070012
 30
0.0
 11
269.06375322780002
 21
-745.20100056069998
 31
0.0
  0
LINE
  5
61F
  8
É}ÿg
 62
     5
 10
227.15314453459999
 20
3.6518519385000001
 30
0.0
 11
219.72814453460001
 21
-9.2086253077000002
 31
0.0
  0
LINE
  5
620
  8
É}ÿg
 10
205.98794015760001
 20
-793.27098165999996
 30
0.0
 11
193.98794015760001
 21
-793.27098165999996
 31
0.0
  0
LINE
  5
621
  8
É}ÿg
 10
201.48794015760001
 20
-805.27098165999996
 30
0.0
 11
201.48794015760001
 21
-803.77098165999985
 31
0.0
  0
LINE
  5
622
  8
É}ÿg
 10
247.62220628430001
 20
-798.37098165999998
 30
0.0
 11
247.62220628430001
 21
-803.77098165999985
 31
0.0
  0
LINE
  5
623
  8
É}ÿg
 10
193.98794015760001
 20
-799.27098165999985
 30
0.0
 11
187.98794015760001
 21
-799.27098165999985
 31
0.0
  0
LINE
  5
624
  8
É}ÿg
 10
192.48794015759989
 20
-793.27098165999996
 30
0.0
 11
180.48794015760001
 21
-793.27098165999996
 31
0.0
  0
LINE
  5
625
  8
É}ÿg
 10
187.98794015760001
 20
-797.77098165999996
 30
0.0
 11
192.48794015759989
 21
-793.27098165999996
 31
0.0
  0
LINE
  5
626
  8
É}ÿg
 10
180.48794015760001
 20
-793.27098165999996
 30
0.0
 11
180.48794015760001
 21
-799.27098165999985
 31
0.0
  0
LINE
  5
627
  8
É}ÿg
 10
267.41359426629998
 20
-811.57098166000003
 30
0.0
 11
274.62220628429998
 21
-811.57098166000003
 31
0.0
  0
LINE
  5
628
  8
É}ÿg
 10
255.11820628429999
 20
-798.37098165999998
 30
0.0
 11
253.62220628430001
 21
-793.27098165999996
 31
0.0
  0
LINE
  5
629
  8
É}ÿg
 10
247.62220628430001
 20
-806.17098166000005
 30
0.0
 11
257.40620628430003
 21
-806.17098166000005
 31
0.0
  0
LINE
  5
62A
  8
É}ÿg
 10
265.85966452880001
 20
-806.17098166000005
 30
0.0
 11
265.16902908989999
 21
-803.77098165999985
 31
0.0
  0
ARC
  5
62B
  8
É}ÿg
 10
217.5697583395
 20
-798.37098165999998
 30
0.0
 40
11.4
 50
270.0
 51
298.08590481520002
  0
INSERT
  5
62C
  8
0
  6
CONTINUOUS
  2
*U96
 10
0.0
 20
0.0
 30
0.0
  0
LINE
  5
62D
  8
É}ÿg
 10
70.506000692800001
 20
-738.00100056070005
 30
0.0
 11
130.5060006928
 21
-738.00100056070005
 31
0.0
  0
LINE
  5
62E
  8
É}ÿg
 10
138.0060006928
 20
-721.50100056070005
 30
0.0
 11
138.0060006928
 21
-754.50100056070005
 31
0.0
  0
LINE
  5
62F
  8
É}ÿg
 10
63.006000692800001
 20
-754.50100056070005
 30
0.0
 11
498.0060006928
 21
-754.50100056070005
 31
0.0
  0
LINE
  5
630
  8
É}ÿg
 10
213.0060006928
 20
-721.50100056070005
 30
0.0
 11
213.0060006928
 21
-754.50100056070005
 31
0.0
  0
LINE
  5
631
  8
É}ÿg
  6
BORDER
 10
238.20600069279999
 20
-727.20100056069998
 30
0.0
 11
238.20600069279999
 21
-748.80100056070012
 31
0.0
  0
LINE
  5
632
  8
É}ÿg
  6
BORDER
 10
238.20600069279999
 20
-727.20100056069998
 30
0.0
 11
238.20600069279999
 21
-748.80100056070012
 31
0.0
  0
LINE
  5
633
  8
É}ÿg
 10
274.62220628429998
 20
-798.37098165999998
 30
0.0
 11
274.62220628429998
 21
-803.77098165999985
 31
0.0
  0
LINE
  5
634
  8
É}ÿg
 10
145.5060006928
 20
-738.00100056070005
 30
0.0
 11
205.5060006928
 21
-738.00100056070005
 31
0.0
  0
INSERT
  5
635
  8
0
  6
CONTINUOUS
  2
*U97
 10
0.0
 20
0.0
 30
0.0
  0
CIRCLE
  5
636
  8
É}ÿg
 10
238.20600069279999
 20
-738.00100056070005
 30
0.0
 40
7.2000000000000002
  0
LINE
  5
637
  8
É}ÿg
 10
254.66375322779999
 20
-734.40100056070003
 30
0.0
 11
269.06375322780002
 21
-730.80100056070012
 31
0.0
  0
INSERT
  5
638
  8
0
  6
CONTINUOUS
  2
*U98
 10
0.0
 20
0.0
 30
0.0
  0
CIRCLE
  5
639
  8
É}ÿg
 10
238.20600069279999
 20
-738.00100056070005
 30
0.0
 40
3.6000000000000001
  0
LINE
  5
63A
  8
É}ÿg
 10
268.62220628429998
 20
-815.77098165999996
 30
0.0
 11
267.41359426629998
 21
-811.57098166000003
 31
0.0
  0
LINE
  5
63B
  8
É}ÿg
 10
265.85966452880001
 20
-806.17098166000005
 30
0.0
 11
274.62220628429998
 21
-806.17098166000005
 31
0.0
  0
LINE
  5
63C
  8
É}ÿg
 10
213.9697583395
 20
-809.77098165999996
 30
0.0
 11
217.5697583395
 21
-809.77098165999996
 31
0.0
  0
LINE
  5
63D
  8
É}ÿg
 10
253.62220628430001
 20
-793.27098165999996
 30
0.0
 11
265.62220628429998
 21
-793.27098165999996
 31
0.0
  0
LINE
  5
63E
  8
É}ÿg
 10
180.48794015760001
 20
-799.27098165999985
 30
0.0
 11
177.034628723
 21
-799.27098165999985
 31
0.0
  0
LINE
  5
63F
  8
É}ÿg
 10
213.9697583395
 20
-809.77098165999996
 30
0.0
 11
213.9697583395
 21
-814.27098165999996
 31
0.0
  0
LINE
  5
640
  8
É}ÿg
 10
180.48794015760001
 20
-803.77098165999985
 30
0.0
 11
180.034628723
 21
-803.77098165999985
 31
0.0
  0
LINE
  5
641
  8
É}ÿg
 10
180.48794015760001
 20
-809.77098165999996
 30
0.0
 11
180.48794015760001
 21
-814.27098165999996
 31
0.0
  0
ARC
  5
642
  8
É}ÿg
 10
217.5697583395
 20
-798.37098165999998
 30
0.0
 40
11.4
 50
331.39928138329998
 51
358.49204224580001
  0
LINE
  5
643
  8
É}ÿg
 10
201.48794015760001
 20
-803.77098165999985
 30
0.0
 11
205.98794015760001
 21
-803.77098165999985
 31
0.0
  0
ARC
  5
644
  8
É}ÿg
 10
221.4697583395
 20
-797.77098165999996
 30
0.0
 40
16.5
 50
270.0
 51
302.54495885400001
  0
LINE
  5
645
  8
É}ÿg
 10
254.66375322779999
 20
-741.60100056070007
 30
0.0
 11
269.06375322780002
 21
-745.20100056069998
 31
0.0
  0
LINE
  5
646
  8
É}ÿg
 10
254.66375322779999
 20
-734.40100056070003
 30
0.0
 11
254.66375322779999
 21
-741.60100056070007
 31
0.0
  0
LINE
  5
647
  8
É}ÿg
 10
269.06375322780002
 20
-730.80100056070012
 30
0.0
 11
269.06375322780002
 21
-745.20100056069998
 31
0.0
  0
LINE
  5
648
  8
É}ÿg
 10
225.9697583395
 20
-800.23731246240004
 30
0.0
 11
224.2727020646
 21
-801.93436873729979
 31
0.0
  0
LINE
  5
649
  8
É}ÿg
  6
BORDER
 10
227.40600069280001
 20
-738.00100056070005
 30
0.0
 11
273.60600069280002
 21
-738.00100056070005
 31
0.0
  0
CIRCLE
  5
64A
  8
É}ÿg
 10
238.20600069279999
 20
-738.00100056070005
 30
0.0
 40
3.6000000000000001
  0
POLYLINE
  8
É}ÿg
  5
783
  66
     1
 10
0.000000
 20
0.000000
 30
0.000000
  70
     8
  0
VERTEX
  8
É}ÿg
  5
784
 10
234.024
 20
-808.342
 30
0.000000
  70
    32
  0
VERTEX
  8
É}ÿg
  5
785
 10
234.076
 20
-808.356
 30
0.000000
  70
    32
  0
VERTEX
  8
É}ÿg
  5
786
 10
234.129
 20
-808.371
 30
0.000000
  70
    32
  0
VERTEX
  8
É}ÿg
  5
787
 10
234.181
 20
-808.386
 30
0.000000
  70
    32
  0
VERTEX
  8
É}ÿg
  5
788
 10
234.234
 20
-808.400
 30
0.000000
  70
    32
  0
VERTEX
  8
É}ÿg
  5
789
 10
234.286
 20
-808.415
 30
0.000000
  70
    32
  0
VERTEX
  8
É}ÿg
  5
78A
 10
234.339
 20
-808.429
 30
0.000000
  70
    32
  0
VERTEX
  8
É}ÿg
  5
78B
 10
234.392
 20
-808.444
 30
0.000000
  70
    32
  0
VERTEX
  8
É}ÿg
  5
78C
 10
234.445
 20
-808.458
 30
0.000000
  70
    32
  0
VERTEX
  8
É}ÿg
  5
78D
 10
234.498
 20
-808.472
 30
0.000000
  70
    32
  0
VERTEX
  8
É}ÿg
  5
78E
 10
234.550
 20
-808.486
 30
0.000000
  70
    32
  0
VERTEX
  8
É}ÿg
  5
78F
 10
234.603
 20
-808.500
 30
0.000000
  70
    32
  0
VERTEX
  8
É}ÿg
  5
790
 10
234.656
 20
-808.514
 30
0.000000
  70
    32
  0
VERTEX
  8
É}ÿg
  5
791
 10
234.710
 20
-808.528
 30
0.000000
  70
    32
  0
VERTEX
  8
É}ÿg
  5
792
 10
234.763
 20
-808.542
 30
0.000000
  70
    32
  0
VERTEX
  8
É}ÿg
  5
793
 10
234.816
 20
-808.556
 30
0.000000
  70
    32
  0
VERTEX
  8
É}ÿg
  5
794
 10
234.869
 20
-808.569
 30
0.000000
  70
    32
  0
VERTEX
  8
É}ÿg
  5
795
 10
234.922
 20
-808.583
 30
0.000000
  70
    32
  0
VERTEX
  8
É}ÿg
  5
796
 10
234.976
 20
-808.597
 30
0.000000
  70
    32
  0
VERTEX
  8
É}ÿg
  5
797
 10
235.029
 20
-808.610
 30
0.000000
  70
    32
  0
VERTEX
  8
É}ÿg
  5
798
 10
235.082
 20
-808.623
 30
0.000000
  70
    32
  0
VERTEX
  8
É}ÿg
  5
799
 10
235.136
 20
-808.637
 30
0.000000
  70
    32
  0
VERTEX
  8
É}ÿg
  5
79A
 10
235.189
 20
-808.650
 30
0.000000
  70
    32
  0
VERTEX
  8
É}ÿg
  5
79B
 10
235.243
 20
-808.663
 30
0.000000
  70
    32
  0
VERTEX
  8
É}ÿg
  5
79C
 10
235.296
 20
-808.676
 30
0.000000
  70
    32
  0
VERTEX
  8
É}ÿg
  5
79D
 10
235.350
 20
-808.689
 30
0.000000
  70
    32
  0
VERTEX
  8
É}ÿg
  5
79E
 10
235.404
 20
-808.702
 30
0.000000
  70
    32
  0
VERTEX
  8
É}ÿg
  5
79F
 10
235.457
 20
-808.715
 30
0.000000
  70
    32
  0
VERTEX
  8
É}ÿg
  5
7A0
 10
235.511
 20
-808.728
 30
0.000000
  70
    32
  0
VERTEX
  8
É}ÿg
  5
7A1
 10
235.565
 20
-808.740
 30
0.000000
  70
    32
  0
VERTEX
  8
É}ÿg
  5
7A2
 10
235.619
 20
-808.753
 30
0.000000
  70
    32
  0
VERTEX
  8
É}ÿg
  5
7A3
 10
235.672
 20
-808.766
 30
0.000000
  70
    32
  0
VERTEX
  8
É}ÿg
  5
7A4
 10
235.726
 20
-808.778
 30
0.000000
  70
    32
  0
VERTEX
  8
É}ÿg
  5
7A5
 10
235.780
 20
-808.791
 30
0.000000
  70
    32
  0
VERTEX
  8
É}ÿg
  5
7A6
 10
235.834
 20
-808.803
 30
0.000000
  70
    32
  0
VERTEX
  8
É}ÿg
  5
7A7
 10
235.888
 20
-808.815
 30
0.000000
  70
    32
  0
VERTEX
  8
É}ÿg
  5
7A8
 10
235.942
 20
-808.828
 30
0.000000
  70
    32
  0
VERTEX
  8
É}ÿg
  5
7A9
 10
235.996
 20
-808.840
 30
0.000000
  70
    32
  0
VERTEX
  8
É}ÿg
  5
7AA
 10
236.051
 20
-808.852
 30
0.000000
  70
    32
  0
VERTEX
  8
É}ÿg
  5
7AB
 10
236.105
 20
-808.864
 30
0.000000
  70
    32
  0
VERTEX
  8
É}ÿg
  5
7AC
 10
236.159
 20
-808.876
 30
0.000000
  70
    32
  0
VERTEX
  8
É}ÿg
  5
7AD
 10
236.213
 20
-808.888
 30
0.000000
  70
    32
  0
VERTEX
  8
É}ÿg
  5
7AE
 10
236.268
 20
-808.900
 30
0.000000
  70
    32
  0
VERTEX
  8
É}ÿg
  5
7AF
 10
236.322
 20
-808.912
 30
0.000000
  70
    32
  0
VERTEX
  8
É}ÿg
  5
7B0
 10
236.376
 20
-808.924
 30
0.000000
  70
    32
  0
VERTEX
  8
É}ÿg
  5
7B1
 10
236.431
 20
-808.935
 30
0.000000
  70
    32
  0
VERTEX
  8
É}ÿg
  5
7B2
 10
236.485
 20
-808.947
 30
0.000000
  70
    32
  0
VERTEX
  8
É}ÿg
  5
7B3
 10
236.539
 20
-808.959
 30
0.000000
  70
    32
  0
VERTEX
  8
É}ÿg
  5
7B4
 10
236.594
 20
-808.970
 30
0.000000
  70
    32
  0
VERTEX
  8
É}ÿg
  5
7B5
 10
236.648
 20
-808.982
 30
0.000000
  70
    32
  0
VERTEX
  8
É}ÿg
  5
7B6
 10
236.703
 20
-808.993
 30
0.000000
  70
    32
  0
VERTEX
  8
É}ÿg
  5
7B7
 10
236.758
 20
-809.005
 30
0.000000
  70
    32
  0
VERTEX
  8
É}ÿg
  5
7B8
 10
236.812
 20
-809.016
 30
0.000000
  70
    32
  0
VERTEX
  8
É}ÿg
  5
7B9
 10
236.867
 20
-809.027
 30
0.000000
  70
    32
  0
VERTEX
  8
É}ÿg
  5
7BA
 10
236.922
 20
-809.039
 30
0.000000
  70
    32
  0
VERTEX
  8
É}ÿg
  5
7BB
 10
236.976
 20
-809.050
 30
0.000000
  70
    32
  0
VERTEX
  8
É}ÿg
  5
7BC
 10
237.031
 20
-809.061
 30
0.000000
  70
    32
  0
VERTEX
  8
É}ÿg
  5
7BD
 10
237.086
 20
-809.072
 30
0.000000
  70
    32
  0
VERTEX
  8
É}ÿg
  5
7BE
 10
237.141
 20
-809.083
 30
0.000000
  70
    32
  0
VERTEX
  8
É}ÿg
  5
7BF
 10
237.196
 20
-809.094
 30
0.000000
  70
    32
  0
VERTEX
  8
É}ÿg
  5
7C0
 10
237.250
 20
-809.105
 30
0.000000
  70
    32
  0
VERTEX
  8
É}ÿg
  5
7C1
 10
237.305
 20
-809.116
 30
0.000000
  70
    32
  0
VERTEX
  8
É}ÿg
  5
7C2
 10
237.360
 20
-809.127
 30
0.000000
  70
    32
  0
VERTEX
  8
É}ÿg
  5
7C3
 10
237.415
 20
-809.138
 30
0.000000
  70
    32
  0
VERTEX
  8
É}ÿg
  5
7C4
 10
237.470
 20
-809.149
 30
0.000000
  70
    32
  0
VERTEX
  8
É}ÿg
  5
7C5
 10
237.525
 20
-809.159
 30
0.000000
  70
    32
  0
VERTEX
  8
É}ÿg
  5
7C6
 10
237.580
 20
-809.170
 30
0.000000
  70
    32
  0
VERTEX
  8
É}ÿg
  5
7C7
 10
237.635
 20
-809.181
 30
0.000000
  70
    32
  0
VERTEX
  8
É}ÿg
  5
7C8
 10
237.690
 20
-809.191
 30
0.000000
  70
    32
  0
VERTEX
  8
É}ÿg
  5
7C9
 10
237.745
 20
-809.202
 30
0.000000
  70
    32
  0
VERTEX
  8
É}ÿg
  5
7CA
 10
237.801
 20
-809.213
 30
0.000000
  70
    32
  0
VERTEX
  8
É}ÿg
  5
7CB
 10
237.856
 20
-809.223
 30
0.000000
  70
    32
  0
VERTEX
  8
É}ÿg
  5
7CC
 10
237.911
 20
-809.234
 30
0.000000
  70
    32
  0
VERTEX
  8
É}ÿg
  5
7CD
 10
237.966
 20
-809.244
 30
0.000000
  70
    32
  0
VERTEX
  8
É}ÿg
  5
7CE
 10
238.021
 20
-809.254
 30
0.000000
  70
    32
  0
VERTEX
  8
É}ÿg
  5
7CF
 10
238.077
 20
-809.265
 30
0.000000
  70
    32
  0
VERTEX
  8
É}ÿg
  5
7D0
 10
238.132
 20
-809.275
 30
0.000000
  70
    32
  0
VERTEX
  8
É}ÿg
  5
7D1
 10
238.187
 20
-809.285
 30
0.000000
  70
    32
  0
VERTEX
  8
É}ÿg
  5
7D2
 10
238.242
 20
-809.296
 30
0.000000
  70
    32
  0
VERTEX
  8
É}ÿg
  5
7D3
 10
238.298
 20
-809.306
 30
0.000000
  70
    32
  0
VERTEX
  8
É}ÿg
  5
7D4
 10
238.353
 20
-809.316
 30
0.000000
  70
    32
  0
VERTEX
  8
É}ÿg
  5
7D5
 10
238.408
 20
-809.326
 30
0.000000
  70
    32
  0
VERTEX
  8
É}ÿg
  5
7D6
 10
238.464
 20
-809.336
 30
0.000000
  70
    32
  0
VERTEX
  8
É}ÿg
  5
7D7
 10
238.519
 20
-809.346
 30
0.000000
  70
    32
  0
VERTEX
  8
É}ÿg
  5
7D8
 10
238.575
 20
-809.357
 30
0.000000
  70
    32
  0
VERTEX
  8
É}ÿg
  5
7D9
 10
238.630
 20
-809.367
 30
0.000000
  70
    32
  0
VERTEX
  8
É}ÿg
  5
7DA
 10
238.686
 20
-809.377
 30
0.000000
  70
    32
  0
VERTEX
  8
É}ÿg
  5
7DB
 10
238.741
 20
-809.387
 30
0.000000
  70
    32
  0
VERTEX
  8
É}ÿg
  5
7DC
 10
238.797
 20
-809.397
 30
0.000000
  70
    32
  0
VERTEX
  8
É}ÿg
  5
7DD
 10
238.852
 20
-809.406
 30
0.000000
  70
    32
  0
VERTEX
  8
É}ÿg
  5
7DE
 10
238.908
 20
-809.416
 30
0.000000
  70
    32
  0
VERTEX
  8
É}ÿg
  5
7DF
 10
238.963
 20
-809.426
 30
0.000000
  70
    32
  0
VERTEX
  8
É}ÿg
  5
7E0
 10
239.019
 20
-809.436
 30
0.000000
  70
    32
  0
VERTEX
  8
É}ÿg
  5
7E1
 10
239.074
 20
-809.446
 30
0.000000
  70
    32
  0
VERTEX
  8
É}ÿg
  5
7E2
 10
239.130
 20
-809.456
 30
0.000000
  70
    32
  0
VERTEX
  8
É}ÿg
  5
7E3
 10
239.186
 20
-809.466
 30
0.000000
  70
    32
  0
VERTEX
  8
É}ÿg
  5
7E4
 10
239.241
 20
-809.475
 30
0.000000
  70
    32
  0
VERTEX
  8
É}ÿg
  5
7E5
 10
239.297
 20
-809.485
 30
0.000000
  70
    32
  0
VERTEX
  8
É}ÿg
  5
7E6
 10
239.352
 20
-809.495
 30
0.000000
  70
    32
  0
VERTEX
  8
É}ÿg
  5
7E7
 10
239.408
 20
-809.504
 30
0.000000
  70
    32
  0
VERTEX
  8
É}ÿg
  5
7E8
 10
239.464
 20
-809.514
 30
0.000000
  70
    32
  0
VERTEX
  8
É}ÿg
  5
7E9
 10
239.519
 20
-809.524
 30
0.000000
  70
    32
  0
VERTEX
  8
É}ÿg
  5
7EA
 10
239.575
 20
-809.533
 30
0.000000
  70
    32
  0
VERTEX
  8
É}ÿg
  5
7EB
 10
239.631
 20
-809.543
 30
0.000000
  70
    32
  0
VERTEX
  8
É}ÿg
  5
7EC
 10
239.687
 20
-809.553
 30
0.000000
  70
    32
  0
VERTEX
  8
É}ÿg
  5
7ED
 10
239.742
 20
-809.562
 30
0.000000
  70
    32
  0
VERTEX
  8
É}ÿg
  5
7EE
 10
239.798
 20
-809.572
 30
0.000000
  70
    32
  0
VERTEX
  8
É}ÿg
  5
7EF
 10
239.854
 20
-809.581
 30
0.000000
  70
    32
  0
VERTEX
  8
É}ÿg
  5
7F0
 10
239.909
 20
-809.591
 30
0.000000
  70
    32
  0
VERTEX
  8
É}ÿg
  5
7F1
 10
239.965
 20
-809.601
 30
0.000000
  70
    32
  0
VERTEX
  8
É}ÿg
  5
7F2
 10
240.021
 20
-809.610
 30
0.000000
  70
    32
  0
VERTEX
  8
É}ÿg
  5
7F3
 10
240.077
 20
-809.620
 30
0.000000
  70
    32
  0
VERTEX
  8
É}ÿg
  5
7F4
 10
240.133
 20
-809.629
 30
0.000000
  70
    32
  0
VERTEX
  8
É}ÿg
  5
7F5
 10
240.188
 20
-809.639
 30
0.000000
  70
    32
  0
VERTEX
  8
É}ÿg
  5
7F6
 10
240.244
 20
-809.648
 30
0.000000
  70
    32
  0
VERTEX
  8
É}ÿg
  5
7F7
 10
240.300
 20
-809.658
 30
0.000000
  70
    32
  0
VERTEX
  8
É}ÿg
  5
7F8
 10
240.356
 20
-809.667
 30
0.000000
  70
    32
  0
VERTEX
  8
É}ÿg
  5
7F9
 10
240.412
 20
-809.677
 30
0.000000
  70
    32
  0
VERTEX
  8
É}ÿg
  5
7FA
 10
240.467
 20
-809.686
 30
0.000000
  70
    32
  0
VERTEX
  8
É}ÿg
  5
7FB
 10
240.523
 20
-809.695
 30
0.000000
  70
    32
  0
VERTEX
  8
É}ÿg
  5
7FC
 10
240.579
 20
-809.705
 30
0.000000
  70
    32
  0
VERTEX
  8
É}ÿg
  5
7FD
 10
240.635
 20
-809.714
 30
0.000000
  70
    32
  0
VERTEX
  8
É}ÿg
  5
7FE
 10
240.691
 20
-809.724
 30
0.000000
  70
    32
  0
VERTEX
  8
É}ÿg
  5
7FF
 10
240.746
 20
-809.733
 30
0.000000
  70
    32
  0
VERTEX
  8
É}ÿg
  5
800
 10
240.802
 20
-809.743
 30
0.000000
  70
    32
  0
VERTEX
  8
É}ÿg
  5
801
 10
240.858
 20
-809.752
 30
0.000000
  70
    32
  0
VERTEX
  8
É}ÿg
  5
802
 10
240.914
 20
-809.762
 30
0.000000
  70
    32
  0
VERTEX
  8
É}ÿg
  5
803
 10
240.970
 20
-809.771
 30
0.000000
  70
    32
  0
SEQEND
  8
É}ÿg
  5
804
  0
POLYLINE
  8
É}ÿg
  5
805
  66
     1
 10
0.000000
 20
0.000000
 30
0.000000
  70
     8
  0
VERTEX
  8
É}ÿg
  5
806
 10
224.273
 20
-801.934
 30
0.000000
  70
    32
  0
VERTEX
  8
É}ÿg
  5
807
 10
224.293
 20
-801.956
 30
0.000000
  70
    32
  0
VERTEX
  8
É}ÿg
  5
808
 10
224.312
 20
-801.979
 30
0.000000
  70
    32
  0
VERTEX
  8
É}ÿg
  5
809
 10
224.332
 20
-802.001
 30
0.000000
  70
    32
  0
VERTEX
  8
É}ÿg
  5
80A
 10
224.352
 20
-802.023
 30
0.000000
  70
    32
  0
VERTEX
  8
É}ÿg
  5
80B
 10
224.372
 20
-802.045
 30
0.000000
  70
    32
  0
VERTEX
  8
É}ÿg
  5
80C
 10
224.391
 20
-802.067
 30
0.000000
  70
    32
  0
VERTEX
  8
É}ÿg
  5
80D
 10
224.411
 20
-802.089
 30
0.000000
  70
    32
  0
VERTEX
  8
É}ÿg
  5
80E
 10
224.431
 20
-802.111
 30
0.000000
  70
    32
  0
VERTEX
  8
É}ÿg
  5
80F
 10
224.451
 20
-802.133
 30
0.000000
  70
    32
  0
VERTEX
  8
É}ÿg
  5
810
 10
224.471
 20
-802.155
 30
0.000000
  70
    32
  0
VERTEX
  8
É}ÿg
  5
811
 10
224.491
 20
-802.177
 30
0.000000
  70
    32
  0
VERTEX
  8
É}ÿg
  5
812
 10
224.510
 20
-802.199
 30
0.000000
  70
    32
  0
VERTEX
  8
É}ÿg
  5
813
 10
224.530
 20
-802.221
 30
0.000000
  70
    32
  0
VERTEX
  8
É}ÿg
  5
814
 10
224.550
 20
-802.243
 30
0.000000
  70
    32
  0
VERTEX
  8
É}ÿg
  5
815
 10
224.570
 20
-802.265
 30
0.000000
  70
    32
  0
VERTEX
  8
É}ÿg
  5
816
 10
224.590
 20
-802.287
 30
0.000000
  70
    32
  0
VERTEX
  8
É}ÿg
  5
817
 10
224.609
 20
-802.309
 30
0.000000
  70
    32
  0
VERTEX
  8
É}ÿg
  5
818
 10
224.629
 20
-802.331
 30
0.000000
  70
    32
  0
VERTEX
  8
É}ÿg
  5
819
 10
224.649
 20
-802.353
 30
0.000000
  70
    32
  0
VERTEX
  8
É}ÿg
  5
81A
 10
224.669
 20
-802.375
 30
0.000000
  70
    32
  0
VERTEX
  8
É}ÿg
  5
81B
 10
224.689
 20
-802.397
 30
0.000000
  70
    32
  0
VERTEX
  8
É}ÿg
  5
81C
 10
224.709
 20
-802.419
 30
0.000000
  70
    32
  0
VERTEX
  8
É}ÿg
  5
81D
 10
224.728
 20
-802.441
 30
0.000000
  70
    32
  0
VERTEX
  8
É}ÿg
  5
81E
 10
224.748
 20
-802.463
 30
0.000000
  70
    32
  0
VERTEX
  8
É}ÿg
  5
81F
 10
224.768
 20
-802.485
 30
0.000000
  70
    32
  0
VERTEX
  8
É}ÿg
  5
820
 10
224.788
 20
-802.507
 30
0.000000
  70
    32
  0
VERTEX
  8
É}ÿg
  5
821
 10
224.808
 20
-802.529
 30
0.000000
  70
    32
  0
VERTEX
  8
É}ÿg
  5
822
 10
224.828
 20
-802.551
 30
0.000000
  70
    32
  0
VERTEX
  8
É}ÿg
  5
823
 10
224.848
 20
-802.573
 30
0.000000
  70
    32
  0
VERTEX
  8
É}ÿg
  5
824
 10
224.868
 20
-802.595
 30
0.000000
  70
    32
  0
VERTEX
  8
É}ÿg
  5
825
 10
224.887
 20
-802.617
 30
0.000000
  70
    32
  0
VERTEX
  8
É}ÿg
  5
826
 10
224.907
 20
-802.639
 30
0.000000
  70
    32
  0
VERTEX
  8
É}ÿg
  5
827
 10
224.927
 20
-802.661
 30
0.000000
  70
    32
  0
VERTEX
  8
É}ÿg
  5
828
 10
224.947
 20
-802.683
 30
0.000000
  70
    32
  0
VERTEX
  8
É}ÿg
  5
829
 10
224.967
 20
-802.705
 30
0.000000
  70
    32
  0
VERTEX
  8
É}ÿg
  5
82A
 10
224.987
 20
-802.727
 30
0.000000
  70
    32
  0
VERTEX
  8
É}ÿg
  5
82B
 10
225.007
 20
-802.748
 30
0.000000
  70
    32
  0
VERTEX
  8
É}ÿg
  5
82C
 10
225.027
 20
-802.770
 30
0.000000
  70
    32
  0
VERTEX
  8
É}ÿg
  5
82D
 10
225.047
 20
-802.792
 30
0.000000
  70
    32
  0
VERTEX
  8
É}ÿg
  5
82E
 10
225.067
 20
-802.814
 30
0.000000
  70
    32
  0
VERTEX
  8
É}ÿg
  5
82F
 10
225.087
 20
-802.836
 30
0.000000
  70
    32
  0
VERTEX
  8
É}ÿg
  5
830
 10
225.107
 20
-802.857
 30
0.000000
  70
    32
  0
VERTEX
  8
É}ÿg
  5
831
 10
225.127
 20
-802.879
 30
0.000000
  70
    32
  0
VERTEX
  8
É}ÿg
  5
832
 10
225.147
 20
-802.901
 30
0.000000
  70
    32
  0
VERTEX
  8
É}ÿg
  5
833
 10
225.167
 20
-802.923
 30
0.000000
  70
    32
  0
VERTEX
  8
É}ÿg
  5
834
 10
225.187
 20
-802.944
 30
0.000000
  70
    32
  0
VERTEX
  8
É}ÿg
  5
835
 10
225.207
 20
-802.966
 30
0.000000
  70
    32
  0
VERTEX
  8
É}ÿg
  5
836
 10
225.227
 20
-802.988
 30
0.000000
  70
    32
  0
VERTEX
  8
É}ÿg
  5
837
 10
225.247
 20
-803.010
 30
0.000000
  70
    32
  0
VERTEX
  8
É}ÿg
  5
838
 10
225.267
 20
-803.031
 30
0.000000
  70
    32
  0
VERTEX
  8
É}ÿg
  5
839
 10
225.287
 20
-803.053
 30
0.000000
  70
    32
  0
VERTEX
  8
É}ÿg
  5
83A
 10
225.307
 20
-803.075
 30
0.000000
  70
    32
  0
VERTEX
  8
É}ÿg
  5
83B
 10
225.327
 20
-803.096
 30
0.000000
  70
    32
  0
VERTEX
  8
É}ÿg
  5
83C
 10
225.347
 20
-803.118
 30
0.000000
  70
    32
  0
VERTEX
  8
É}ÿg
  5
83D
 10
225.367
 20
-803.139
 30
0.000000
  70
    32
  0
VERTEX
  8
É}ÿg
  5
83E
 10
225.387
 20
-803.161
 30
0.000000
  70
    32
  0
VERTEX
  8
É}ÿg
  5
83F
 10
225.408
 20
-803.182
 30
0.000000
  70
    32
  0
VERTEX
  8
É}ÿg
  5
840
 10
225.428
 20
-803.204
 30
0.000000
  70
    32
  0
VERTEX
  8
É}ÿg
  5
841
 10
225.448
 20
-803.226
 30
0.000000
  70
    32
  0
VERTEX
  8
É}ÿg
  5
842
 10
225.468
 20
-803.247
 30
0.000000
  70
    32
  0
VERTEX
  8
É}ÿg
  5
843
 10
225.488
 20
-803.268
 30
0.000000
  70
    32
  0
VERTEX
  8
É}ÿg
  5
844
 10
225.508
 20
-803.290
 30
0.000000
  70
    32
  0
VERTEX
  8
É}ÿg
  5
845
 10
225.529
 20
-803.311
 30
0.000000
  70
    32
  0
VERTEX
  8
É}ÿg
  5
846
 10
225.549
 20
-803.333
 30
0.000000
  70
    32
  0
VERTEX
  8
É}ÿg
  5
847
 10
225.569
 20
-803.354
 30
0.000000
  70
    32
  0
VERTEX
  8
É}ÿg
  5
848
 10
225.589
 20
-803.376
 30
0.000000
  70
    32
  0
VERTEX
  8
É}ÿg
  5
849
 10
225.609
 20
-803.397
 30
0.000000
  70
    32
  0
VERTEX
  8
É}ÿg
  5
84A
 10
225.630
 20
-803.418
 30
0.000000
  70
    32
  0
VERTEX
  8
É}ÿg
  5
84B
 10
225.650
 20
-803.439
 30
0.000000
  70
    32
  0
VERTEX
  8
É}ÿg
  5
84C
 10
225.670
 20
-803.461
 30
0.000000
  70
    32
  0
VERTEX
  8
É}ÿg
  5
84D
 10
225.691
 20
-803.482
 30
0.000000
  70
    32
  0
VERTEX
  8
É}ÿg
  5
84E
 10
225.711
 20
-803.503
 30
0.000000
  70
    32
  0
VERTEX
  8
É}ÿg
  5
84F
 10
225.731
 20
-803.524
 30
0.000000
  70
    32
  0
VERTEX
  8
É}ÿg
  5
850
 10
225.752
 20
-803.546
 30
0.000000
  70
    32
  0
VERTEX
  8
É}ÿg
  5
851
 10
225.772
 20
-803.567
 30
0.000000
  70
    32
  0
VERTEX
  8
É}ÿg
  5
852
 10
225.792
 20
-803.588
 30
0.000000
  70
    32
  0
VERTEX
  8
É}ÿg
  5
853
 10
225.813
 20
-803.609
 30
0.000000
  70
    32
  0
VERTEX
  8
É}ÿg
  5
854
 10
225.833
 20
-803.630
 30
0.000000
  70
    32
  0
VERTEX
  8
É}ÿg
  5
855
 10
225.854
 20
-803.651
 30
0.000000
  70
    32
  0
VERTEX
  8
É}ÿg
  5
856
 10
225.874
 20
-803.672
 30
0.000000
  70
    32
  0
VERTEX
  8
É}ÿg
  5
857
 10
225.894
 20
-803.693
 30
0.000000
  70
    32
  0
VERTEX
  8
É}ÿg
  5
858
 10
225.915
 20
-803.714
 30
0.000000
  70
    32
  0
VERTEX
  8
É}ÿg
  5
859
 10
225.935
 20
-803.735
 30
0.000000
  70
    32
  0
VERTEX
  8
É}ÿg
  5
85A
 10
225.956
 20
-803.756
 30
0.000000
  70
    32
  0
VERTEX
  8
É}ÿg
  5
85B
 10
225.976
 20
-803.777
 30
0.000000
  70
    32
  0
VERTEX
  8
É}ÿg
  5
85C
 10
225.997
 20
-803.798
 30
0.000000
  70
    32
  0
VERTEX
  8
É}ÿg
  5
85D
 10
226.018
 20
-803.819
 30
0.000000
  70
    32
  0
VERTEX
  8
É}ÿg
  5
85E
 10
226.038
 20
-803.840
 30
0.000000
  70
    32
  0
VERTEX
  8
É}ÿg
  5
85F
 10
226.059
 20
-803.860
 30
0.000000
  70
    32
  0
VERTEX
  8
É}ÿg
  5
860
 10
226.079
 20
-803.881
 30
0.000000
  70
    32
  0
VERTEX
  8
É}ÿg
  5
861
 10
226.100
 20
-803.902
 30
0.000000
  70
    32
  0
VERTEX
  8
É}ÿg
  5
862
 10
226.121
 20
-803.923
 30
0.000000
  70
    32
  0
VERTEX
  8
É}ÿg
  5
863
 10
226.141
 20
-803.943
 30
0.000000
  70
    32
  0
VERTEX
  8
É}ÿg
  5
864
 10
226.162
 20
-803.964
 30
0.000000
  70
    32
  0
VERTEX
  8
É}ÿg
  5
865
 10
226.183
 20
-803.984
 30
0.000000
  70
    32
  0
VERTEX
  8
É}ÿg
  5
866
 10
226.203
 20
-804.005
 30
0.000000
  70
    32
  0
VERTEX
  8
É}ÿg
  5
867
 10
226.224
 20
-804.026
 30
0.000000
  70
    32
  0
VERTEX
  8
É}ÿg
  5
868
 10
226.245
 20
-804.046
 30
0.000000
  70
    32
  0
VERTEX
  8
É}ÿg
  5
869
 10
226.266
 20
-804.067
 30
0.000000
  70
    32
  0
VERTEX
  8
É}ÿg
  5
86A
 10
226.287
 20
-804.087
 30
0.000000
  70
    32
  0
VERTEX
  8
É}ÿg
  5
86B
 10
226.307
 20
-804.107
 30
0.000000
  70
    32
  0
VERTEX
  8
É}ÿg
  5
86C
 10
226.328
 20
-804.128
 30
0.000000
  70
    32
  0
VERTEX
  8
É}ÿg
  5
86D
 10
226.349
 20
-804.148
 30
0.000000
  70
    32
  0
VERTEX
  8
É}ÿg
  5
86E
 10
226.370
 20
-804.168
 30
0.000000
  70
    32
  0
VERTEX
  8
É}ÿg
  5
86F
 10
226.391
 20
-804.189
 30
0.000000
  70
    32
  0
VERTEX
  8
É}ÿg
  5
870
 10
226.412
 20
-804.209
 30
0.000000
  70
    32
  0
VERTEX
  8
É}ÿg
  5
871
 10
226.433
 20
-804.229
 30
0.000000
  70
    32
  0
VERTEX
  8
É}ÿg
  5
872
 10
226.454
 20
-804.249
 30
0.000000
  70
    32
  0
VERTEX
  8
É}ÿg
  5
873
 10
226.475
 20
-804.269
 30
0.000000
  70
    32
  0
VERTEX
  8
É}ÿg
  5
874
 10
226.496
 20
-804.290
 30
0.000000
  70
    32
  0
VERTEX
  8
É}ÿg
  5
875
 10
226.517
 20
-804.310
 30
0.000000
  70
    32
  0
VERTEX
  8
É}ÿg
  5
876
 10
226.538
 20
-804.330
 30
0.000000
  70
    32
  0
VERTEX
  8
É}ÿg
  5
877
 10
226.559
 20
-804.350
 30
0.000000
  70
    32
  0
VERTEX
  8
É}ÿg
  5
878
 10
226.580
 20
-804.370
 30
0.000000
  70
    32
  0
VERTEX
  8
É}ÿg
  5
879
 10
226.601
 20
-804.389
 30
0.000000
  70
    32
  0
VERTEX
  8
É}ÿg
  5
87A
 10
226.623
 20
-804.409
 30
0.000000
  70
    32
  0
VERTEX
  8
É}ÿg
  5
87B
 10
226.644
 20
-804.429
 30
0.000000
  70
    32
  0
VERTEX
  8
É}ÿg
  5
87C
 10
226.665
 20
-804.449
 30
0.000000
  70
    32
  0
VERTEX
  8
É}ÿg
  5
87D
 10
226.686
 20
-804.469
 30
0.000000
  70
    32
  0
VERTEX
  8
É}ÿg
  5
87E
 10
226.707
 20
-804.488
 30
0.000000
  70
    32
  0
VERTEX
  8
É}ÿg
  5
87F
 10
226.729
 20
-804.508
 30
0.000000
  70
    32
  0
VERTEX
  8
É}ÿg
  5
880
 10
226.750
 20
-804.528
 30
0.000000
  70
    32
  0
VERTEX
  8
É}ÿg
  5
881
 10
226.771
 20
-804.547
 30
0.000000
  70
    32
  0
VERTEX
  8
É}ÿg
  5
882
 10
226.793
 20
-804.567
 30
0.000000
  70
    32
  0
VERTEX
  8
É}ÿg
  5
883
 10
226.814
 20
-804.586
 30
0.000000
  70
    32
  0
VERTEX
  8
É}ÿg
  5
884
 10
226.835
 20
-804.606
 30
0.000000
  70
    32
  0
VERTEX
  8
É}ÿg
  5
885
 10
226.857
 20
-804.625
 30
0.000000
  70
    32
  0
SEQEND
  8
É}ÿg
  5
886
  0
POLYLINE
  8
É}ÿg
  5
887
  66
     1
 10
0.000000
 20
0.000000
 30
0.000000
  70
     8
  0
VERTEX
  8
É}ÿg
  5
888
 10
230.346
 20
-811.680
 30
0.000000
  70
    32
  0
VERTEX
  8
É}ÿg
  5
889
 10
230.427
 20
-811.706
 30
0.000000
  70
    32
  0
VERTEX
  8
É}ÿg
  5
88A
 10
230.508
 20
-811.731
 30
0.000000
  70
    32
  0
VERTEX
  8
É}ÿg
  5
88B
 10
230.589
 20
-811.757
 30
0.000000
  70
    32
  0
VERTEX
  8
É}ÿg
  5
88C
 10
230.670
 20
-811.782
 30
0.000000
  70
    32
  0
VERTEX
  8
É}ÿg
  5
88D
 10
230.751
 20
-811.807
 30
0.000000
  70
    32
  0
VERTEX
  8
É}ÿg
  5
88E
 10
230.832
 20
-811.833
 30
0.000000
  70
    32
  0
VERTEX
  8
É}ÿg
  5
88F
 10
230.913
 20
-811.858
 30
0.000000
  70
    32
  0
VERTEX
  8
É}ÿg
  5
890
 10
230.994
 20
-811.882
 30
0.000000
  70
    32
  0
VERTEX
  8
É}ÿg
  5
891
 10
231.075
 20
-811.907
 30
0.000000
  70
    32
  0
VERTEX
  8
É}ÿg
  5
892
 10
231.157
 20
-811.932
 30
0.000000
  70
    32
  0
VERTEX
  8
É}ÿg
  5
893
 10
231.238
 20
-811.956
 30
0.000000
  70
    32
  0
VERTEX
  8
É}ÿg
  5
894
 10
231.320
 20
-811.981
 30
0.000000
  70
    32
  0
VERTEX
  8
É}ÿg
  5
895
 10
231.401
 20
-812.005
 30
0.000000
  70
    32
  0
VERTEX
  8
É}ÿg
  5
896
 10
231.483
 20
-812.029
 30
0.000000
  70
    32
  0
VERTEX
  8
É}ÿg
  5
897
 10
231.564
 20
-812.053
 30
0.000000
  70
    32
  0
VERTEX
  8
É}ÿg
  5
898
 10
231.646
 20
-812.077
 30
0.000000
  70
    32
  0
VERTEX
  8
É}ÿg
  5
899
 10
231.728
 20
-812.101
 30
0.000000
  70
    32
  0
VERTEX
  8
É}ÿg
  5
89A
 10
231.810
 20
-812.125
 30
0.000000
  70
    32
  0
VERTEX
  8
É}ÿg
  5
89B
 10
231.892
 20
-812.149
 30
0.000000
  70
    32
  0
VERTEX
  8
É}ÿg
  5
89C
 10
231.974
 20
-812.172
 30
0.000000
  70
    32
  0
VERTEX
  8
É}ÿg
  5
89D
 10
232.056
 20
-812.195
 30
0.000000
  70
    32
  0
VERTEX
  8
É}ÿg
  5
89E
 10
232.138
 20
-812.219
 30
0.000000
  70
    32
  0
VERTEX
  8
É}ÿg
  5
89F
 10
232.220
 20
-812.242
 30
0.000000
  70
    32
  0
VERTEX
  8
É}ÿg
  5
8A0
 10
232.302
 20
-812.265
 30
0.000000
  70
    32
  0
VERTEX
  8
É}ÿg
  5
8A1
 10
232.384
 20
-812.288
 30
0.000000
  70
    32
  0
VERTEX
  8
É}ÿg
  5
8A2
 10
232.467
 20
-812.311
 30
0.000000
  70
    32
  0
VERTEX
  8
É}ÿg
  5
8A3
 10
232.549
 20
-812.334
 30
0.000000
  70
    32
  0
VERTEX
  8
É}ÿg
  5
8A4
 10
232.631
 20
-812.356
 30
0.000000
  70
    32
  0
VERTEX
  8
É}ÿg
  5
8A5
 10
232.714
 20
-812.379
 30
0.000000
  70
    32
  0
VERTEX
  8
É}ÿg
  5
8A6
 10
232.796
 20
-812.401
 30
0.000000
  70
    32
  0
VERTEX
  8
É}ÿg
  5
8A7
 10
232.879
 20
-812.424
 30
0.000000
  70
    32
  0
VERTEX
  8
É}ÿg
  5
8A8
 10
232.962
 20
-812.446
 30
0.000000
  70
    32
  0
VERTEX
  8
É}ÿg
  5
8A9
 10
233.044
 20
-812.468
 30
0.000000
  70
    32
  0
VERTEX
  8
É}ÿg
  5
8AA
 10
233.127
 20
-812.490
 30
0.000000
  70
    32
  0
VERTEX
  8
É}ÿg
  5
8AB
 10
233.210
 20
-812.512
 30
0.000000
  70
    32
  0
VERTEX
  8
É}ÿg
  5
8AC
 10
233.293
 20
-812.534
 30
0.000000
  70
    32
  0
VERTEX
  8
É}ÿg
  5
8AD
 10
233.376
 20
-812.556
 30
0.000000
  70
    32
  0
VERTEX
  8
É}ÿg
  5
8AE
 10
233.459
 20
-812.578
 30
0.000000
  70
    32
  0
VERTEX
  8
É}ÿg
  5
8AF
 10
233.542
 20
-812.599
 30
0.000000
  70
    32
  0
VERTEX
  8
É}ÿg
  5
8B0
 10
233.625
 20
-812.621
 30
0.000000
  70
    32
  0
VERTEX
  8
É}ÿg
  5
8B1
 10
233.708
 20
-812.642
 30
0.000000
  70
    32
  0
VERTEX
  8
É}ÿg
  5
8B2
 10
233.791
 20
-812.664
 30
0.000000
  70
    32
  0
VERTEX
  8
É}ÿg
  5
8B3
 10
233.874
 20
-812.685
 30
0.000000
  70
    32
  0
VERTEX
  8
É}ÿg
  5
8B4
 10
233.957
 20
-812.706
 30
0.000000
  70
    32
  0
VERTEX
  8
É}ÿg
  5
8B5
 10
234.040
 20
-812.727
 30
0.000000
  70
    32
  0
VERTEX
  8
É}ÿg
  5
8B6
 10
234.124
 20
-812.749
 30
0.000000
  70
    32
  0
VERTEX
  8
É}ÿg
  5
8B7
 10
234.207
 20
-812.769
 30
0.000000
  70
    32
  0
VERTEX
  8
É}ÿg
  5
8B8
 10
234.290
 20
-812.790
 30
0.000000
  70
    32
  0
VERTEX
  8
É}ÿg
  5
8B9
 10
234.374
 20
-812.811
 30
0.000000
  70
    32
  0
VERTEX
  8
É}ÿg
  5
8BA
 10
234.457
 20
-812.832
 30
0.000000
  70
    32
  0
VERTEX
  8
É}ÿg
  5
8BB
 10
234.541
 20
-812.853
 30
0.000000
  70
    32
  0
VERTEX
  8
É}ÿg
  5
8BC
 10
234.624
 20
-812.873
 30
0.000000
  70
    32
  0
VERTEX
  8
É}ÿg
  5
8BD
 10
234.708
 20
-812.894
 30
0.000000
  70
    32
  0
VERTEX
  8
É}ÿg
  5
8BE
 10
234.792
 20
-812.914
 30
0.000000
  70
    32
  0
VERTEX
  8
É}ÿg
  5
8BF
 10
234.875
 20
-812.934
 30
0.000000
  70
    32
  0
VERTEX
  8
É}ÿg
  5
8C0
 10
234.959
 20
-812.955
 30
0.000000
  70
    32
  0
VERTEX
  8
É}ÿg
  5
8C1
 10
235.043
 20
-812.975
 30
0.000000
  70
    32
  0
VERTEX
  8
É}ÿg
  5
8C2
 10
235.127
 20
-812.995
 30
0.000000
  70
    32
  0
VERTEX
  8
É}ÿg
  5
8C3
 10
235.210
 20
-813.015
 30
0.000000
  70
    32
  0
VERTEX
  8
É}ÿg
  5
8C4
 10
235.294
 20
-813.035
 30
0.000000
  70
    32
  0
VERTEX
  8
É}ÿg
  5
8C5
 10
235.378
 20
-813.055
 30
0.000000
  70
    32
  0
VERTEX
  8
É}ÿg
  5
8C6
 10
235.462
 20
-813.075
 30
0.000000
  70
    32
  0
VERTEX
  8
É}ÿg
  5
8C7
 10
235.546
 20
-813.095
 30
0.000000
  70
    32
  0
VERTEX
  8
É}ÿg
  5
8C8
 10
235.630
 20
-813.114
 30
0.000000
  70
    32
  0
VERTEX
  8
É}ÿg
  5
8C9
 10
235.714
 20
-813.134
 30
0.000000
  70
    32
  0
VERTEX
  8
É}ÿg
  5
8CA
 10
235.798
 20
-813.154
 30
0.000000
  70
    32
  0
VERTEX
  8
É}ÿg
  5
8CB
 10
235.882
 20
-813.173
 30
0.000000
  70
    32
  0
VERTEX
  8
É}ÿg
  5
8CC
 10
235.967
 20
-813.193
 30
0.000000
  70
    32
  0
VERTEX
  8
É}ÿg
  5
8CD
 10
236.051
 20
-813.212
 30
0.000000
  70
    32
  0
VERTEX
  8
É}ÿg
  5
8CE
 10
236.135
 20
-813.231
 30
0.000000
  70
    32
  0
VERTEX
  8
É}ÿg
  5
8CF
 10
236.219
 20
-813.251
 30
0.000000
  70
    32
  0
VERTEX
  8
É}ÿg
  5
8D0
 10
236.304
 20
-813.270
 30
0.000000
  70
    32
  0
VERTEX
  8
É}ÿg
  5
8D1
 10
236.388
 20
-813.289
 30
0.000000
  70
    32
  0
VERTEX
  8
É}ÿg
  5
8D2
 10
236.472
 20
-813.308
 30
0.000000
  70
    32
  0
VERTEX
  8
É}ÿg
  5
8D3
 10
236.557
 20
-813.327
 30
0.000000
  70
    32
  0
VERTEX
  8
É}ÿg
  5
8D4
 10
236.641
 20
-813.346
 30
0.000000
  70
    32
  0
VERTEX
  8
É}ÿg
  5
8D5
 10
236.725
 20
-813.365
 30
0.000000
  70
    32
  0
VERTEX
  8
É}ÿg
  5
8D6
 10
236.810
 20
-813.384
 30
0.000000
  70
    32
  0
VERTEX
  8
É}ÿg
  5
8D7
 10
236.894
 20
-813.403
 30
0.000000
  70
    32
  0
VERTEX
  8
É}ÿg
  5
8D8
 10
236.979
 20
-813.422
 30
0.000000
  70
    32
  0
VERTEX
  8
É}ÿg
  5
8D9
 10
237.063
 20
-813.441
 30
0.000000
  70
    32
  0
VERTEX
  8
É}ÿg
  5
8DA
 10
237.148
 20
-813.459
 30
0.000000
  70
    32
  0
VERTEX
  8
É}ÿg
  5
8DB
 10
237.232
 20
-813.478
 30
0.000000
  70
    32
  0
VERTEX
  8
É}ÿg
  5
8DC
 10
237.317
 20
-813.497
 30
0.000000
  70
    32
  0
VERTEX
  8
É}ÿg
  5
8DD
 10
237.402
 20
-813.515
 30
0.000000
  70
    32
  0
VERTEX
  8
É}ÿg
  5
8DE
 10
237.486
 20
-813.534
 30
0.000000
  70
    32
  0
VERTEX
  8
É}ÿg
  5
8DF
 10
237.571
 20
-813.552
 30
0.000000
  70
    32
  0
VERTEX
  8
É}ÿg
  5
8E0
 10
237.656
 20
-813.571
 30
0.000000
  70
    32
  0
VERTEX
  8
É}ÿg
  5
8E1
 10
237.740
 20
-813.589
 30
0.000000
  70
    32
  0
VERTEX
  8
É}ÿg
  5
8E2
 10
237.825
 20
-813.608
 30
0.000000
  70
    32
  0
VERTEX
  8
É}ÿg
  5
8E3
 10
237.910
 20
-813.626
 30
0.000000
  70
    32
  0
VERTEX
  8
É}ÿg
  5
8E4
 10
237.995
 20
-813.644
 30
0.000000
  70
    32
  0
VERTEX
  8
É}ÿg
  5
8E5
 10
238.079
 20
-813.663
 30
0.000000
  70
    32
  0
VERTEX
  8
É}ÿg
  5
8E6
 10
238.164
 20
-813.681
 30
0.000000
  70
    32
  0
VERTEX
  8
É}ÿg
  5
8E7
 10
238.249
 20
-813.699
 30
0.000000
  70
    32
  0
VERTEX
  8
É}ÿg
  5
8E8
 10
238.334
 20
-813.717
 30
0.000000
  70
    32
  0
VERTEX
  8
É}ÿg
  5
8E9
 10
238.419
 20
-813.736
 30
0.000000
  70
    32
  0
VERTEX
  8
É}ÿg
  5
8EA
 10
238.504
 20
-813.754
 30
0.000000
  70
    32
  0
VERTEX
  8
É}ÿg
  5
8EB
 10
238.589
 20
-813.772
 30
0.000000
  70
    32
  0
VERTEX
  8
É}ÿg
  5
8EC
 10
238.673
 20
-813.790
 30
0.000000
  70
    32
  0
VERTEX
  8
É}ÿg
  5
8ED
 10
238.758
 20
-813.808
 30
0.000000
  70
    32
  0
VERTEX
  8
É}ÿg
  5
8EE
 10
238.843
 20
-813.826
 30
0.000000
  70
    32
  0
VERTEX
  8
É}ÿg
  5
8EF
 10
238.928
 20
-813.844
 30
0.000000
  70
    32
  0
VERTEX
  8
É}ÿg
  5
8F0
 10
239.013
 20
-813.862
 30
0.000000
  70
    32
  0
VERTEX
  8
É}ÿg
  5
8F1
 10
239.098
 20
-813.880
 30
0.000000
  70
    32
  0
VERTEX
  8
É}ÿg
  5
8F2
 10
239.183
 20
-813.898
 30
0.000000
  70
    32
  0
VERTEX
  8
É}ÿg
  5
8F3
 10
239.268
 20
-813.916
 30
0.000000
  70
    32
  0
VERTEX
  8
É}ÿg
  5
8F4
 10
239.353
 20
-813.934
 30
0.000000
  70
    32
  0
VERTEX
  8
É}ÿg
  5
8F5
 10
239.438
 20
-813.952
 30
0.000000
  70
    32
  0
VERTEX
  8
É}ÿg
  5
8F6
 10
239.523
 20
-813.969
 30
0.000000
  70
    32
  0
VERTEX
  8
É}ÿg
  5
8F7
 10
239.608
 20
-813.987
 30
0.000000
  70
    32
  0
VERTEX
  8
É}ÿg
  5
8F8
 10
239.693
 20
-814.005
 30
0.000000
  70
    32
  0
VERTEX
  8
É}ÿg
  5
8F9
 10
239.778
 20
-814.023
 30
0.000000
  70
    32
  0
VERTEX
  8
É}ÿg
  5
8FA
 10
239.863
 20
-814.041
 30
0.000000
  70
    32
  0
VERTEX
  8
É}ÿg
  5
8FB
 10
239.949
 20
-814.058
 30
0.000000
  70
    32
  0
VERTEX
  8
É}ÿg
  5
8FC
 10
240.034
 20
-814.076
 30
0.000000
  70
    32
  0
VERTEX
  8
É}ÿg
  5
8FD
 10
240.119
 20
-814.094
 30
0.000000
  70
    32
  0
VERTEX
  8
É}ÿg
  5
8FE
 10
240.204
 20
-814.112
 30
0.000000
  70
    32
  0
VERTEX
  8
É}ÿg
  5
8FF
 10
240.289
 20
-814.129
 30
0.000000
  70
    32
  0
VERTEX
  8
É}ÿg
  5
900
 10
240.374
 20
-814.147
 30
0.000000
  70
    32
  0
VERTEX
  8
É}ÿg
  5
901
 10
240.459
 20
-814.165
 30
0.000000
  70
    32
  0
VERTEX
  8
É}ÿg
  5
902
 10
240.544
 20
-814.182
 30
0.000000
  70
    32
  0
VERTEX
  8
É}ÿg
  5
903
 10
240.629
 20
-814.200
 30
0.000000
  70
    32
  0
VERTEX
  8
É}ÿg
  5
904
 10
240.714
 20
-814.218
 30
0.000000
  70
    32
  0
VERTEX
  8
É}ÿg
  5
905
 10
240.800
 20
-814.236
 30
0.000000
  70
    32
  0
VERTEX
  8
É}ÿg
  5
906
 10
240.885
 20
-814.253
 30
0.000000
  70
    32
  0
VERTEX
  8
É}ÿg
  5
907
 10
240.970
 20
-814.271
 30
0.000000
  70
    32
  0
SEQEND
  8
É}ÿg
  5
908
  0
POLYLINE
  8
É}ÿg
  5
909
  66
     1
 10
0.000000
 20
0.000000
 30
0.000000
  70
     8
  0
VERTEX
  8
É}ÿg
  5
90A
 10
213.970
 20
-801.204
 30
0.000000
  70
    32
  0
VERTEX
  8
É}ÿg
  5
90B
 10
214.024
 20
-801.253
 30
0.000000
  70
    32
  0
VERTEX
  8
É}ÿg
  5
90C
 10
214.078
 20
-801.303
 30
0.000000
  70
    32
  0
VERTEX
  8
É}ÿg
  5
90D
 10
214.132
 20
-801.353
 30
0.000000
  70
    32
  0
VERTEX
  8
É}ÿg
  5
90E
 10
214.186
 20
-801.403
 30
0.000000
  70
    32
  0
VERTEX
  8
É}ÿg
  5
90F
 10
214.240
 20
-801.453
 30
0.000000
  70
    32
  0
VERTEX
  8
É}ÿg
  5
910
 10
214.294
 20
-801.502
 30
0.000000
  70
    32
  0
VERTEX
  8
É}ÿg
  5
911
 10
214.348
 20
-801.552
 30
0.000000
  70
    32
  0
VERTEX
  8
É}ÿg
  5
912
 10
214.402
 20
-801.602
 30
0.000000
  70
    32
  0
VERTEX
  8
É}ÿg
  5
913
 10
214.456
 20
-801.652
 30
0.000000
  70
    32
  0
VERTEX
  8
É}ÿg
  5
914
 10
214.510
 20
-801.702
 30
0.000000
  70
    32
  0
VERTEX
  8
É}ÿg
  5
915
 10
214.564
 20
-801.751
 30
0.000000
  70
    32
  0
VERTEX
  8
É}ÿg
  5
916
 10
214.618
 20
-801.801
 30
0.000000
  70
    32
  0
VERTEX
  8
É}ÿg
  5
917
 10
214.672
 20
-801.851
 30
0.000000
  70
    32
  0
VERTEX
  8
É}ÿg
  5
918
 10
214.726
 20
-801.900
 30
0.000000
  70
    32
  0
VERTEX
  8
É}ÿg
  5
919
 10
214.781
 20
-801.950
 30
0.000000
  70
    32
  0
VERTEX
  8
É}ÿg
  5
91A
 10
214.835
 20
-802.000
 30
0.000000
  70
    32
  0
VERTEX
  8
É}ÿg
  5
91B
 10
214.889
 20
-802.050
 30
0.000000
  70
    32
  0
VERTEX
  8
É}ÿg
  5
91C
 10
214.943
 20
-802.099
 30
0.000000
  70
    32
  0
VERTEX
  8
É}ÿg
  5
91D
 10
214.997
 20
-802.149
 30
0.000000
  70
    32
  0
VERTEX
  8
É}ÿg
  5
91E
 10
215.051
 20
-802.198
 30
0.000000
  70
    32
  0
VERTEX
  8
É}ÿg
  5
91F
 10
215.105
 20
-802.248
 30
0.000000
  70
    32
  0
VERTEX
  8
É}ÿg
  5
920
 10
215.160
 20
-802.298
 30
0.000000
  70
    32
  0
VERTEX
  8
É}ÿg
  5
921
 10
215.214
 20
-802.347
 30
0.000000
  70
    32
  0
VERTEX
  8
É}ÿg
  5
922
 10
215.268
 20
-802.397
 30
0.000000
  70
    32
  0
VERTEX
  8
É}ÿg
  5
923
 10
215.322
 20
-802.446
 30
0.000000
  70
    32
  0
VERTEX
  8
É}ÿg
  5
924
 10
215.376
 20
-802.496
 30
0.000000
  70
    32
  0
VERTEX
  8
É}ÿg
  5
925
 10
215.431
 20
-802.545
 30
0.000000
  70
    32
  0
VERTEX
  8
É}ÿg
  5
926
 10
215.485
 20
-802.594
 30
0.000000
  70
    32
  0
VERTEX
  8
É}ÿg
  5
927
 10
215.539
 20
-802.644
 30
0.000000
  70
    32
  0
VERTEX
  8
É}ÿg
  5
928
 10
215.593
 20
-802.693
 30
0.000000
  70
    32
  0
VERTEX
  8
É}ÿg
  5
929
 10
215.648
 20
-802.743
 30
0.000000
  70
    32
  0
VERTEX
  8
É}ÿg
  5
92A
 10
215.702
 20
-802.792
 30
0.000000
  70
    32
  0
VERTEX
  8
É}ÿg
  5
92B
 10
215.756
 20
-802.841
 30
0.000000
  70
    32
  0
VERTEX
  8
É}ÿg
  5
92C
 10
215.811
 20
-802.890
 30
0.000000
  70
    32
  0
VERTEX
  8
É}ÿg
  5
92D
 10
215.865
 20
-802.940
 30
0.000000
  70
    32
  0
VERTEX
  8
É}ÿg
  5
92E
 10
215.919
 20
-802.989
 30
0.000000
  70
    32
  0
VERTEX
  8
É}ÿg
  5
92F
 10
215.974
 20
-803.038
 30
0.000000
  70
    32
  0
VERTEX
  8
É}ÿg
  5
930
 10
216.028
 20
-803.087
 30
0.000000
  70
    32
  0
VERTEX
  8
É}ÿg
  5
931
 10
216.083
 20
-803.136
 30
0.000000
  70
    32
  0
VERTEX
  8
É}ÿg
  5
932
 10
216.137
 20
-803.185
 30
0.000000
  70
    32
  0
VERTEX
  8
É}ÿg
  5
933
 10
216.192
 20
-803.234
 30
0.000000
  70
    32
  0
VERTEX
  8
É}ÿg
  5
934
 10
216.246
 20
-803.283
 30
0.000000
  70
    32
  0
VERTEX
  8
É}ÿg
  5
935
 10
216.301
 20
-803.332
 30
0.000000
  70
    32
  0
VERTEX
  8
É}ÿg
  5
936
 10
216.355
 20
-803.380
 30
0.000000
  70
    32
  0
VERTEX
  8
É}ÿg
  5
937
 10
216.410
 20
-803.429
 30
0.000000
  70
    32
  0
VERTEX
  8
É}ÿg
  5
938
 10
216.464
 20
-803.478
 30
0.000000
  70
    32
  0
VERTEX
  8
É}ÿg
  5
939
 10
216.519
 20
-803.527
 30
0.000000
  70
    32
  0
VERTEX
  8
É}ÿg
  5
93A
 10
216.574
 20
-803.575
 30
0.000000
  70
    32
  0
VERTEX
  8
É}ÿg
  5
93B
 10
216.628
 20
-803.624
 30
0.000000
  70
    32
  0
VERTEX
  8
É}ÿg
  5
93C
 10
216.683
 20
-803.672
 30
0.000000
  70
    32
  0
VERTEX
  8
É}ÿg
  5
93D
 10
216.738
 20
-803.721
 30
0.000000
  70
    32
  0
VERTEX
  8
É}ÿg
  5
93E
 10
216.793
 20
-803.769
 30
0.000000
  70
    32
  0
VERTEX
  8
É}ÿg
  5
93F
 10
216.847
 20
-803.818
 30
0.000000
  70
    32
  0
VERTEX
  8
É}ÿg
  5
940
 10
216.902
 20
-803.866
 30
0.000000
  70
    32
  0
VERTEX
  8
É}ÿg
  5
941
 10
216.957
 20
-803.914
 30
0.000000
  70
    32
  0
VERTEX
  8
É}ÿg
  5
942
 10
217.012
 20
-803.963
 30
0.000000
  70
    32
  0
VERTEX
  8
É}ÿg
  5
943
 10
217.067
 20
-804.011
 30
0.000000
  70
    32
  0
VERTEX
  8
É}ÿg
  5
944
 10
217.122
 20
-804.059
 30
0.000000
  70
    32
  0
VERTEX
  8
É}ÿg
  5
945
 10
217.177
 20
-804.107
 30
0.000000
  70
    32
  0
VERTEX
  8
É}ÿg
  5
946
 10
217.232
 20
-804.155
 30
0.000000
  70
    32
  0
VERTEX
  8
É}ÿg
  5
947
 10
217.287
 20
-804.203
 30
0.000000
  70
    32
  0
VERTEX
  8
É}ÿg
  5
948
 10
217.342
 20
-804.251
 30
0.000000
  70
    32
  0
VERTEX
  8
É}ÿg
  5
949
 10
217.397
 20
-804.298
 30
0.000000
  70
    32
  0
VERTEX
  8
É}ÿg
  5
94A
 10
217.452
 20
-804.346
 30
0.000000
  70
    32
  0
VERTEX
  8
É}ÿg
  5
94B
 10
217.508
 20
-804.394
 30
0.000000
  70
    32
  0
VERTEX
  8
É}ÿg
  5
94C
 10
217.563
 20
-804.441
 30
0.000000
  70
    32
  0
VERTEX
  8
É}ÿg
  5
94D
 10
217.618
 20
-804.489
 30
0.000000
  70
    32
  0
VERTEX
  8
É}ÿg
  5
94E
 10
217.673
 20
-804.536
 30
0.000000
  70
    32
  0
VERTEX
  8
É}ÿg
  5
94F
 10
217.729
 20
-804.584
 30
0.000000
  70
    32
  0
VERTEX
  8
É}ÿg
  5
950
 10
217.784
 20
-804.631
 30
0.000000
  70
    32
  0
VERTEX
  8
É}ÿg
  5
951
 10
217.840
 20
-804.678
 30
0.000000
  70
    32
  0
VERTEX
  8
É}ÿg
  5
952
 10
217.895
 20
-804.725
 30
0.000000
  70
    32
  0
VERTEX
  8
É}ÿg
  5
953
 10
217.951
 20
-804.772
 30
0.000000
  70
    32
  0
VERTEX
  8
É}ÿg
  5
954
 10
218.006
 20
-804.819
 30
0.000000
  70
    32
  0
VERTEX
  8
É}ÿg
  5
955
 10
218.062
 20
-804.866
 30
0.000000
  70
    32
  0
VERTEX
  8
É}ÿg
  5
956
 10
218.117
 20
-804.913
 30
0.000000
  70
    32
  0
VERTEX
  8
É}ÿg
  5
957
 10
218.173
 20
-804.960
 30
0.000000
  70
    32
  0
VERTEX
  8
É}ÿg
  5
958
 10
218.229
 20
-805.007
 30
0.000000
  70
    32
  0
VERTEX
  8
É}ÿg
  5
959
 10
218.285
 20
-805.053
 30
0.000000
  70
    32
  0
VERTEX
  8
É}ÿg
  5
95A
 10
218.340
 20
-805.100
 30
0.000000
  70
    32
  0
VERTEX
  8
É}ÿg
  5
95B
 10
218.396
 20
-805.146
 30
0.000000
  70
    32
  0
VERTEX
  8
É}ÿg
  5
95C
 10
218.452
 20
-805.193
 30
0.000000
  70
    32
  0
VERTEX
  8
É}ÿg
  5
95D
 10
218.508
 20
-805.239
 30
0.000000
  70
    32
  0
VERTEX
  8
É}ÿg
  5
95E
 10
218.564
 20
-805.285
 30
0.000000
  70
    32
  0
VERTEX
  8
É}ÿg
  5
95F
 10
218.620
 20
-805.331
 30
0.000000
  70
    32
  0
VERTEX
  8
É}ÿg
  5
960
 10
218.676
 20
-805.377
 30
0.000000
  70
    32
  0
VERTEX
  8
É}ÿg
  5
961
 10
218.732
 20
-805.423
 30
0.000000
  70
    32
  0
VERTEX
  8
É}ÿg
  5
962
 10
218.788
 20
-805.469
 30
0.000000
  70
    32
  0
VERTEX
  8
É}ÿg
  5
963
 10
218.845
 20
-805.515
 30
0.000000
  70
    32
  0
VERTEX
  8
É}ÿg
  5
964
 10
218.901
 20
-805.560
 30
0.000000
  70
    32
  0
VERTEX
  8
É}ÿg
  5
965
 10
218.957
 20
-805.606
 30
0.000000
  70
    32
  0
VERTEX
  8
É}ÿg
  5
966
 10
219.014
 20
-805.651
 30
0.000000
  70
    32
  0
VERTEX
  8
É}ÿg
  5
967
 10
219.070
 20
-805.697
 30
0.000000
  70
    32
  0
VERTEX
  8
É}ÿg
  5
968
 10
219.127
 20
-805.742
 30
0.000000
  70
    32
  0
VERTEX
  8
É}ÿg
  5
969
 10
219.183
 20
-805.787
 30
0.000000
  70
    32
  0
VERTEX
  8
É}ÿg
  5
96A
 10
219.240
 20
-805.832
 30
0.000000
  70
    32
  0
VERTEX
  8
É}ÿg
  5
96B
 10
219.296
 20
-805.877
 30
0.000000
  70
    32
  0
VERTEX
  8
É}ÿg
  5
96C
 10
219.353
 20
-805.922
 30
0.000000
  70
    32
  0
VERTEX
  8
É}ÿg
  5
96D
 10
219.410
 20
-805.967
 30
0.000000
  70
    32
  0
VERTEX
  8
É}ÿg
  5
96E
 10
219.467
 20
-806.012
 30
0.000000
  70
    32
  0
VERTEX
  8
É}ÿg
  5
96F
 10
219.523
 20
-806.056
 30
0.000000
  70
    32
  0
VERTEX
  8
É}ÿg
  5
970
 10
219.580
 20
-806.101
 30
0.000000
  70
    32
  0
VERTEX
  8
É}ÿg
  5
971
 10
219.637
 20
-806.145
 30
0.000000
  70
    32
  0
VERTEX
  8
É}ÿg
  5
972
 10
219.694
 20
-806.189
 30
0.000000
  70
    32
  0
VERTEX
  8
É}ÿg
  5
973
 10
219.752
 20
-806.233
 30
0.000000
  70
    32
  0
VERTEX
  8
É}ÿg
  5
974
 10
219.809
 20
-806.277
 30
0.000000
  70
    32
  0
VERTEX
  8
É}ÿg
  5
975
 10
219.866
 20
-806.321
 30
0.000000
  70
    32
  0
VERTEX
  8
É}ÿg
  5
976
 10
219.923
 20
-806.365
 30
0.000000
  70
    32
  0
VERTEX
  8
É}ÿg
  5
977
 10
219.981
 20
-806.409
 30
0.000000
  70
    32
  0
VERTEX
  8
É}ÿg
  5
978
 10
220.038
 20
-806.453
 30
0.000000
  70
    32
  0
VERTEX
  8
É}ÿg
  5
979
 10
220.095
 20
-806.496
 30
0.000000
  70
    32
  0
VERTEX
  8
É}ÿg
  5
97A
 10
220.153
 20
-806.539
 30
0.000000
  70
    32
  0
VERTEX
  8
É}ÿg
  5
97B
 10
220.210
 20
-806.583
 30
0.000000
  70
    32
  0
VERTEX
  8
É}ÿg
  5
97C
 10
220.268
 20
-806.626
 30
0.000000
  70
    32
  0
VERTEX
  8
É}ÿg
  5
97D
 10
220.326
 20
-806.669
 30
0.000000
  70
    32
  0
VERTEX
  8
É}ÿg
  5
97E
 10
220.384
 20
-806.712
 30
0.000000
  70
    32
  0
VERTEX
  8
É}ÿg
  5
97F
 10
220.441
 20
-806.754
 30
0.000000
  70
    32
  0
VERTEX
  8
É}ÿg
  5
980
 10
220.499
 20
-806.797
 30
0.000000
  70
    32
  0
VERTEX
  8
É}ÿg
  5
981
 10
220.557
 20
-806.840
 30
0.000000
  70
    32
  0
VERTEX
  8
É}ÿg
  5
982
 10
220.615
 20
-806.882
 30
0.000000
  70
    32
  0
VERTEX
  8
É}ÿg
  5
983
 10
220.673
 20
-806.924
 30
0.000000
  70
    32
  0
VERTEX
  8
É}ÿg
  5
984
 10
220.732
 20
-806.966
 30
0.000000
  70
    32
  0
VERTEX
  8
É}ÿg
  5
985
 10
220.790
 20
-807.008
 30
0.000000
  70
    32
  0
VERTEX
  8
É}ÿg
  5
986
 10
220.848
 20
-807.050
 30
0.000000
  70
    32
  0
VERTEX
  8
É}ÿg
  5
987
 10
220.907
 20
-807.092
 30
0.000000
  70
    32
  0
VERTEX
  8
É}ÿg
  5
988
 10
220.965
 20
-807.134
 30
0.000000
  70
    32
  0
VERTEX
  8
É}ÿg
  5
989
 10
221.024
 20
-807.175
 30
0.000000
  70
    32
  0
VERTEX
  8
É}ÿg
  5
98A
 10
221.082
 20
-807.217
 30
0.000000
  70
    32
  0
VERTEX
  8
É}ÿg
  5
98B
 10
221.141
 20
-807.258
 30
0.000000
  70
    32
  0
VERTEX
  8
É}ÿg
  5
98C
 10
221.200
 20
-807.299
 30
0.000000
  70
    32
  0
VERTEX
  8
É}ÿg
  5
98D
 10
221.258
 20
-807.340
 30
0.000000
  70
    32
  0
VERTEX
  8
É}ÿg
  5
98E
 10
221.317
 20
-807.381
 30
0.000000
  70
    32
  0
VERTEX
  8
É}ÿg
  5
98F
 10
221.376
 20
-807.422
 30
0.000000
  70
    32
  0
VERTEX
  8
É}ÿg
  5
990
 10
221.435
 20
-807.462
 30
0.000000
  70
    32
  0
VERTEX
  8
É}ÿg
  5
991
 10
221.494
 20
-807.503
 30
0.000000
  70
    32
  0
VERTEX
  8
É}ÿg
  5
992
 10
221.553
 20
-807.543
 30
0.000000
  70
    32
  0
VERTEX
  8
É}ÿg
  5
993
 10
221.613
 20
-807.583
 30
0.000000
  70
    32
  0
VERTEX
  8
É}ÿg
  5
994
 10
221.672
 20
-807.623
 30
0.000000
  70
    32
  0
VERTEX
  8
É}ÿg
  5
995
 10
221.731
 20
-807.663
 30
0.000000
  70
    32
  0
VERTEX
  8
É}ÿg
  5
996
 10
221.791
 20
-807.703
 30
0.000000
  70
    32
  0
VERTEX
  8
É}ÿg
  5
997
 10
221.851
 20
-807.742
 30
0.000000
  70
    32
  0
VERTEX
  8
É}ÿg
  5
998
 10
221.910
 20
-807.782
 30
0.000000
  70
    32
  0
VERTEX
  8
É}ÿg
  5
999
 10
221.970
 20
-807.821
 30
0.000000
  70
    32
  0
VERTEX
  8
É}ÿg
  5
99A
 10
222.030
 20
-807.860
 30
0.000000
  70
    32
  0
VERTEX
  8
É}ÿg
  5
99B
 10
222.090
 20
-807.899
 30
0.000000
  70
    32
  0
VERTEX
  8
É}ÿg
  5
99C
 10
222.150
 20
-807.938
 30
0.000000
  70
    32
  0
VERTEX
  8
É}ÿg
  5
99D
 10
222.210
 20
-807.977
 30
0.000000
  70
    32
  0
VERTEX
  8
É}ÿg
  5
99E
 10
222.270
 20
-808.015
 30
0.000000
  70
    32
  0
VERTEX
  8
É}ÿg
  5
99F
 10
222.330
 20
-808.053
 30
0.000000
  70
    32
  0
VERTEX
  8
É}ÿg
  5
9A0
 10
222.390
 20
-808.092
 30
0.000000
  70
    32
  0
VERTEX
  8
É}ÿg
  5
9A1
 10
222.451
 20
-808.130
 30
0.000000
  70
    32
  0
VERTEX
  8
É}ÿg
  5
9A2
 10
222.511
 20
-808.168
 30
0.000000
  70
    32
  0
VERTEX
  8
É}ÿg
  5
9A3
 10
222.572
 20
-808.205
 30
0.000000
  70
    32
  0
VERTEX
  8
É}ÿg
  5
9A4
 10
222.632
 20
-808.243
 30
0.000000
  70
    32
  0
VERTEX
  8
É}ÿg
  5
9A5
 10
222.693
 20
-808.280
 30
0.000000
  70
    32
  0
VERTEX
  8
É}ÿg
  5
9A6
 10
222.754
 20
-808.318
 30
0.000000
  70
    32
  0
VERTEX
  8
É}ÿg
  5
9A7
 10
222.815
 20
-808.355
 30
0.000000
  70
    32
  0
VERTEX
  8
É}ÿg
  5
9A8
 10
222.876
 20
-808.392
 30
0.000000
  70
    32
  0
VERTEX
  8
É}ÿg
  5
9A9
 10
222.937
 20
-808.429
 30
0.000000
  70
    32
  0
SEQEND
  8
É}ÿg
  5
9AA
  0
INSERT
  5
64F
  8
0
  6
CONTINUOUS
  2
*U99
 10
0.0
 20
0.0
 30
0.0
  0
LINE
  5
650
  8
É}ÿg
 10
254.66375322779999
 20
-734.40100056070003
 30
0.0
 11
254.66375322779999
 21
-741.60100056070007
 31
0.0
  0
LINE
  5
651
  8
É}ÿg
 10
205.98794015760001
 20
-799.27098165999985
 30
0.0
 11
205.98794015760001
 21
-803.77098165999985
 31
0.0
  0
LINE
  5
652
  8
É}ÿg
 10
254.66375322779999
 20
-741.60100056070007
 30
0.0
 11
269.06375322780002
 21
-745.20100056069998
 31
0.0
  0
LINE
  5
653
  8
É}ÿg
 10
213.9697583395
 20
-793.27098165999996
 30
0.0
 11
213.9697583395
 21
-798.67098166000005
 31
0.0
  0
ARC
  5
654
  8
É}ÿg
 10
192.48794015759989
 20
-805.27098165999996
 30
0.0
 40
9.0
 50
270.0
 51
0.0
  0
LINE
  5
655
  8
É}ÿg
 10
63.006000692800001
 20
-721.50100056070005
 30
0.0
 11
63.006000692800001
 21
-820.50100056070005
 31
0.0
  0
INSERT
  5
656
  8
0
  6
CONTINUOUS
  2
*U100
 10
0.0
 20
0.0
 30
0.0
  0
INSERT
  5
657
  8
0
  6
CONTINUOUS
  2
*U101
 10
0.0
 20
0.0
 30
0.0
  0
INSERT
  5
658
  8
0
  6
CONTINUOUS
  2
*U102
 10
0.0
 20
0.0
 30
0.0
  0
INSERT
  5
659
  8
0
  6
CONTINUOUS
  2
*U103
 10
0.0
 20
0.0
 30
0.0
  0
LINE
  5
65A
  8
É}ÿg
 10
175.5060006928
 20
-754.50100056070005
 30
0.0
 11
175.5060006928
 21
-787.50100056070005
 31
0.0
  0
LINE
  5
65B
  8
É}ÿg
 10
63.006000692800001
 20
-787.50100056070005
 30
0.0
 11
498.0060006928
 21
-787.50100056070005
 31
0.0
  0
LINE
  5
65C
  8
É}ÿg
 10
70.506000692800001
 20
-771.00100056070005
 30
0.0
 11
168.0060006928
 21
-771.00100056070005
 31
0.0
  0
LINE
  5
65D
  8
É}ÿg
 10
183.0060006928
 20
-771.00100056070005
 30
0.0
 11
280.5060006928
 21
-771.00100056070005
 31
0.0
  0
INSERT
  5
65E
  8
0
  6
CONTINUOUS
  2
*U104
 10
0.0
 20
0.0
 30
0.0
  0
INSERT
  5
65F
  8
0
  6
CONTINUOUS
  2
*U105
 10
0.0
 20
0.0
 30
0.0
  0
LINE
  5
660
  8
É}ÿg
 10
90.006000692800001
 20
-706.50100056070005
 30
0.0
 11
90.006000692800001
 21
-691.50100056070005
 31
0.0
  0
LINE
  5
661
  8
É}ÿg
 10
63.006000692800001
 20
-706.50100056070005
 30
0.0
 11
63.006000692800001
 21
-691.50100056070005
 31
0.0
  0
LINE
  5
662
  8
É}ÿg
 10
405.00600069279989
 20
-706.50100056070005
 30
0.0
 11
405.00600069279989
 21
-691.50100056070005
 31
0.0
  0
LINE
  5
663
  8
É}ÿg
 10
378.0060006928
 20
-706.50100056070005
 30
0.0
 11
378.0060006928
 21
-691.50100056070005
 31
0.0
  0
LINE
  5
664
  8
É}ÿg
 10
498.0060006928
 20
-691.50100056070005
 30
0.0
 11
63.006000692800001
 21
-691.50100056070005
 31
0.0
  0
LINE
  5
665
  8
É}ÿg
 10
63.006000692800001
 20
-706.50100056070005
 30
0.0
 11
498.0060006928
 21
-706.50100056070005
 31
0.0
  0
LINE
  5
666
  8
É}ÿg
 10
240.0060006928
 20
-706.50100056070005
 30
0.0
 11
240.0060006928
 21
-691.50100056070005
 31
0.0
  0
INSERT
  5
667
  8
0
  6
CONTINUOUS
  2
*U106
 10
0.0
 20
0.0
 30
0.0
  0
INSERT
  5
668
  8
0
  6
CONTINUOUS
  2
*U107
 10
0.0
 20
0.0
 30
0.0
  0
CIRCLE
  5
669
  8
É}ÿg
 10
238.20600069279999
 20
-738.00100056070005
 30
0.0
 40
3.6000000000000001
  0
LINE
  5
66A
  8
É}ÿg
 10
254.66375322779999
 20
-741.60100056070007
 30
0.0
 11
269.06375322780002
 21
-745.20100056069998
 31
0.0
  0
LINE
  5
66B
  8
É}ÿg
 10
254.66375322779999
 20
-734.40100056070003
 30
0.0
 11
254.66375322779999
 21
-741.60100056070007
 31
0.0
  0
LINE
  5
66C
  8
É}ÿg
 10
269.06375322780002
 20
-730.80100056070012
 30
0.0
 11
269.06375322780002
 21
-745.20100056069998
 31
0.0
  0
LINE
  5
66D
  8
É}ÿg
  6
BORDER
 10
238.20600069279999
 20
-727.20100056069998
 30
0.0
 11
238.20600069279999
 21
-748.80100056070012
 31
0.0
  0
LINE
  5
66E
  8
É}ÿg
  6
BORDER
 10
238.20600069279999
 20
-727.20100056069998
 30
0.0
 11
238.20600069279999
 21
-748.80100056070012
 31
0.0
  0
LINE
  5
66F
  8
É}ÿg
 10
269.06375322780002
 20
-730.80100056070012
 30
0.0
 11
269.06375322780002
 21
-745.20100056069998
 31
0.0
  0
LINE
  5
670
  8
É}ÿg
 10
254.66375322779999
 20
-734.40100056070003
 30
0.0
 11
254.66375322779999
 21
-741.60100056070007
 31
0.0
  0
LINE
  5
671
  8
É}ÿg
 10
254.66375322779999
 20
-741.60100056070007
 30
0.0
 11
269.06375322780002
 21
-745.20100056069998
 31
0.0
  0
LINE
  5
672
  8
É}ÿg
 10
254.66375322779999
 20
-734.40100056070003
 30
0.0
 11
269.06375322780002
 21
-730.80100056070012
 31
0.0
  0
CIRCLE
  5
673
  8
É}ÿg
 10
238.20600069279999
 20
-738.00100056070005
 30
0.0
 40
7.2000000000000002
  0
CIRCLE
  5
674
  8
É}ÿg
 10
238.20600069279999
 20
-738.00100056070005
 30
0.0
 40
3.6000000000000001
  0
CIRCLE
  5
675
  8
É}ÿg
 10
238.20600069279999
 20
-738.00100056070005
 30
0.0
 40
7.2000000000000002
  0
LINE
  5
676
  8
É}ÿg
 10
254.66375322779999
 20
-734.40100056070003
 30
0.0
 11
269.06375322780002
 21
-730.80100056070012
 31
0.0
  0
ENDBLK
  5
677
  8
0
  0
BLOCK
  8
0
  2
*D53
 70
     1
 10
0.0
 20
0.0
 30
0.0
  3
*D53
  1

  0
TEXT
  5
67A
  8
0
 62
     0
 10
-281.70201083749998
 20
-44.633536345000003
 30
0.0
 40
9.8954164504999991
  1
798
  0
LINE
  5
67B
  8
0
 62
     0
 10
76.029238971699996
 20
-96.956545645300025
 30
0.0
 11
76.029238971699996
 21
-46.379786306899987
 31
0.0
  0
LINE
  5
67C
  8
0
 62
     0
 10
-621.97076102829988
 20
-96.956545645300025
 30
0.0
 11
-621.97076102829988
 21
-46.379786306899987
 31
0.0
  0
LINE
  5
67D
  8
0
 62
     0
 10
76.029238971699996
 20
-47.379786306899987
 30
0.0
 11
-258.4186780128
 21
-47.379786306899987
 31
0.0
  0
LINE
  5
67E
  8
0
 62
     0
 10
76.029238971699996
 20
-47.379786306899987
 30
0.0
 11
-287.52284404369999
 21
-47.379786306899987
 31
0.0
  0
LINE
  5
67F
  8
0
 62
     0
 10
-621.97076102829988
 20
-47.379786306899987
 30
0.0
 11
-258.4186780128
 21
-47.379786306899987
 31
0.0
  0
LINE
  5
680
  8
0
 62
     0
 10
-621.97076102829988
 20
-47.379786306899987
 30
0.0
 11
-287.52284404369999
 21
-47.379786306899987
 31
0.0
  0
LINE
  5
681
  8
0
 62
     0
 10
-621.97076102829988
 20
-47.379786306899987
 30
0.0
 11
-616.97076102829988
 21
-47.379786306899987
 31
0.0
  0
SOLID
  5
682
  8
0
 62
     0
 10
-621.97076102829988
 20
-47.379786306899987
 30
0.0
 11
-612.97076102829988
 21
-45.129786306899987
 31
0.0
 12
-612.97076102829988
 22
-49.629786306899987
 32
0.0
 13
-615.22076102829988
 23
-47.379786306899987
 33
0.0
  0
LINE
  5
683
  8
0
 62
     0
 10
76.029238971699996
 20
-47.379786306899987
 30
0.0
 11
71.029238971699996
 21
-47.379786306899987
 31
0.0
  0
SOLID
  5
684
  8
0
 62
     0
 10
76.029238971699996
 20
-47.379786306899987
 30
0.0
 11
67.029238971699996
 21
-49.629786306899987
 31
0.0
 12
67.029238971699996
 22
-45.129786306899987
 32
0.0
 13
69.279238971699996
 23
-47.379786306899987
 33
0.0
  0
ENDBLK
  5
685
  8
0
  0
BLOCK
  8
0
  2
*D54
 70
     1
 10
0.0
 20
0.0
 30
0.0
  3
*D54
  1

  0
TEXT
  5
689
  8
0
 62
     0
 10
-281.70201083749998
 20
-60.766226774700002
 30
0.0
 40
9.8954164504999991
  1
780
  0
LINE
  5
68A
  8
0
 62
     0
 10
67.029238971699996
 20
-105.9565456453
 30
0.0
 11
67.029238971699996
 21
-62.5124767366
 31
0.0
  0
LINE
  5
68B
  8
0
 62
     0
 10
-612.97076102829988
 20
-105.9565456453
 30
0.0
 11
-612.97076102829988
 21
-62.5124767366
 31
0.0
  0
LINE
  5
68C
  8
0
 62
     0
 10
67.029238971699996
 20
-63.5124767366
 30
0.0
 11
-258.4186780128
 21
-63.5124767366
 31
0.0
  0
LINE
  5
68D
  8
0
 62
     0
 10
67.029238971699996
 20
-63.5124767366
 30
0.0
 11
-287.52284404369999
 21
-63.5124767366
 31
0.0
  0
LINE
  5
68E
  8
0
 62
     0
 10
-612.97076102829988
 20
-63.5124767366
 30
0.0
 11
-258.4186780128
 21
-63.5124767366
 31
0.0
  0
LINE
  5
68F
  8
0
 62
     0
 10
-612.97076102829988
 20
-63.5124767366
 30
0.0
 11
-287.52284404369999
 21
-63.5124767366
 31
0.0
  0
LINE
  5
690
  8
0
 62
     0
 10
-612.97076102829988
 20
-63.5124767366
 30
0.0
 11
-607.97076102829999
 21
-63.5124767366
 31
0.0
  0
SOLID
  5
691
  8
0
 62
     0
 10
-612.97076102829988
 20
-63.5124767366
 30
0.0
 11
-603.97076102829999
 21
-61.2624767366
 31
0.0
 12
-603.97076102829999
 22
-65.762476736599993
 32
0.0
 13
-606.22076102829999
 23
-63.5124767366
 33
0.0
  0
LINE
  5
692
  8
0
 62
     0
 10
67.029238971699996
 20
-63.5124767366
 30
0.0
 11
62.029238971700003
 21
-63.5124767366
 31
0.0
  0
SOLID
  5
693
  8
0
 62
     0
 10
67.029238971699996
 20
-63.5124767366
 30
0.0
 11
58.029238971700003
 21
-65.762476736599993
 31
0.0
 12
58.029238971700003
 22
-61.2624767366
 32
0.0
 13
60.279238971700003
 23
-63.5124767366
 33
0.0
  0
ENDBLK
  5
694
  8
0
  0
BLOCK
  8
0
  2
*U55
 70
     1
 10
0.0
 20
0.0
 30
0.0
  3
*U55
  1

  0
TEXT
  5
6B0
  8
ë³Æ¨
  6
CONTINUOUS
 10
225.03661219963021
 20
-8.1554272408999982
 30
0.0
 40
8.0962499027000003
  1
1
  0
ENDBLK
  5
6B2
  8
0
  0
BLOCK
  8
0
  2
*U56
 70
     1
 10
0.0
 20
0.0
 30
0.0
  3
*U56
  1

  0
TEXT
  5
6B4
  8
ë³Æ¨
  6
CONTINUOUS
 10
240.18987478146599
 20
-6.342250439099999
 30
0.0
 40
8.0962498784000001
  1
H**.**.**
  0
ENDBLK
  5
6B6
  8
0
  0
BLOCK
  8
0
  2
*U57
 70
     1
 10
0.0
 20
0.0
 30
0.0
  3
*U57
  1

  0
TEXT
  5
6B8
  8
ë³Æ¨
  6
CONTINUOUS
 10
305.14041780555527
 20
-6.3347504390999996
 30
0.0
 40
8.0962498784000001
  1
**********************
  0
ENDBLK
  5
6BA
  8
0
  0
BLOCK
  8
0
  2
*U58
 70
     1
 10
0.0
 20
0.0
 30
0.0
  3
*U58
  1

  0
TEXT
  5
6BC
  8
ë³Æ¨
  6
CONTINUOUS
 10
443.8412102213116
 20
-6.342250439099999
 30
0.0
 40
8.0962498784000001
  1
üûüû
  0
ENDBLK
  5
6BE
  8
0
  0
BLOCK
  8
0
  2
*U59
 70
     1
 10
0.0
 20
0.0
 30
0.0
  3
*U59
  1

  0
TEXT
  5
6C0
  8
┌▓È_1
  6
CONTINUOUS
 10
281.14006355930002
 20
-347.94487945299539
 30
0.0
 40
8.9958330630999992
  1
üiÉ[î^üj
  0
ENDBLK
  5
6C2
  8
0
  0
BLOCK
  8
0
  2
*U60
 70
     1
 10
0.0
 20
0.0
 30
0.0
  3
*U60
  1

  0
TEXT
  5
6C4
  8
┌▓È_1
  6
CONTINUOUS
 10
-84.397410329500005
 20
-691.77005809729542
 30
0.0
 40
8.9958330630999992
  1
üiÉ[î^üj
  0
ENDBLK
  5
6C6
  8
0
  0
BLOCK
  8
0
  2
*U61
 70
     1
 10
0.0
 20
0.0
 30
0.0
  3
*U61
  1

  0
TEXT
  5
6C8
  8
É}ÿg
  6
CONTINUOUS
 10
321.9906324372804
 20
-743.93971745225895
 30
0.0
 40
11.694583225300001
  1
ânâCéãü[éÚ(É¾î^ üEÉ[î^ )
  0
ENDBLK
  5
6CA
  8
0
  0
BLOCK
  8
0
  2
*U62
 70
     1
 10
0.0
 20
0.0
 30
0.0
  3
*U62
  1

  0
TEXT
  5
6CC
  8
É}ÿg
  6
CONTINUOUS
 10
374.40848516793977
 20
-776.93971745225895
 30
0.0
 40
11.694583225300001
  1
FM20-80(D)
  0
ENDBLK
  5
6CE
  8
0
  0
BLOCK
  8
0
  2
*U63
 70
     1
 10
0.0
 20
0.0
 30
0.0
  3
*U63
  1

  0
TEXT
  5
6D0
  8
É}ÿg
  6
CONTINUOUS
 10
380.61195698034521
 20
-809.34608378600024
 30
0.0
 40
11.694583225300001
  1
SHF00040
  0
ENDBLK
  5
6D2
  8
0
  0
BLOCK
  8
0
  2
*U64
 70
     1
 10
0.0
 20
0.0
 30
0.0
  3
*U64
  1

  0
TEXT
  5
6D4
  8
É}ÿg
  6
CONTINUOUS
 10
276.97261544526373
 20
-687.70483362380003
 30
0.0
 40
8.9958330630999992
  1
SUS304 0.8t
  0
ENDBLK
  5
6D6
  8
0
  0
BLOCK
  8
0
  2
*U65
 70
     1
 10
0.0
 20
0.0
 30
0.0
  3
*U65
  1

  0
TEXT
  5
6D8
  8
É}ÿg
  6
CONTINUOUS
 10
388.62916067769697
 20
-687.70483362380003
 30
0.0
 40
8.9958330630999992
  1
2
  0
ENDBLK
  5
6DA
  8
0
  0
BLOCK
  8
0
  2
*U66
 70
     1
 10
0.0
 20
0.0
 30
0.0
  3
*U66
  1

  0
TEXT
  5
6DC
  8
É}ÿg
  6
CONTINUOUS
 10
389.15429814077129
 20
-657.70483362380003
 30
0.0
 40
8.9958330630999992
  1
1
  0
ENDBLK
  5
6DE
  8
0
  0
BLOCK
  8
0
  2
*U67
 70
     1
 10
0.0
 20
0.0
 30
0.0
  3
*U67
  1

  0
TEXT
  5
6E0
  8
É}ÿg
  6
CONTINUOUS
 10
276.97261544526373
 20
-657.70483362380003
 30
0.0
 40
8.9958330630999992
  1
SUS304 2.0t
  0
ENDBLK
  5
6E2
  8
0
  0
BLOCK
  8
0
  2
*U68
 70
     1
 10
0.0
 20
0.0
 30
0.0
  3
*U68
  1

  0
TEXT
  5
6E4
  8
É}ÿg
  6
CONTINUOUS
 10
388.62916067769697
 20
-672.70483362380003
 30
0.0
 40
8.9958330630999992
  1
2
  0
ENDBLK
  5
6E6
  8
0
  0
BLOCK
  8
0
  2
*U69
 70
     1
 10
0.0
 20
0.0
 30
0.0
  3
*U69
  1

  0
TEXT
  5
6E8
  8
É}ÿg
  6
CONTINUOUS
 10
276.97261544526373
 20
-672.70483362380003
 30
0.0
 40
8.9958330630999992
  1
SUS304 0.8t
  0
ENDBLK
  5
6EA
  8
0
  0
BLOCK
  8
0
  2
*U70
 70
     1
 10
0.0
 20
0.0
 30
0.0
  3
*U70
  1

  0
TEXT
  5
6EC
  8
É}ÿg
  6
CONTINUOUS
 10
73.674824804920803
 20
-657.70483362380003
 30
0.0
 40
8.9958330630999992
  1
3
  0
ENDBLK
  5
6EE
  8
0
  0
BLOCK
  8
0
  2
*U71
 70
     1
 10
0.0
 20
0.0
 30
0.0
  3
*U71
  1

  0
TEXT
  5
6F0
  8
É}ÿg
  6
CONTINUOUS
 10
74.154298140771317
 20
-687.70483362380003
 30
0.0
 40
8.9958330630999992
  1
1
  0
ENDBLK
  5
6F2
  8
0
  0
BLOCK
  8
0
  2
*U72
 70
     1
 10
0.0
 20
0.0
 30
0.0
  3
*U72
  1

  0
TEXT
  5
6F4
  8
É}ÿg
  6
CONTINUOUS
 10
73.629160677696945
 20
-672.70483362380003
 30
0.0
 40
8.9958330630999992
  1
2
  0
ENDBLK
  5
6F6
  8
0
  0
BLOCK
  8
0
  2
*U73
 70
     1
 10
0.0
 20
0.0
 30
0.0
  3
*U73
  1

  0
TEXT
  5
6F8
  8
É}ÿg
  6
CONTINUOUS
 10
83.085136156898244
 20
-750.04724602390002
 30
0.0
 40
8.9958330630999992
  1
H09.07
  0
ENDBLK
  5
6FA
  8
0
  0
BLOCK
  8
0
  2
*U74
 70
     1
 10
0.0
 20
0.0
 30
0.0
  3
*U74
  1

  0
TEXT
  5
6FC
  8
É}ÿg
  6
CONTINUOUS
 10
117.6342583833157
 20
-767.02804939236228
 30
0.0
 40
8.9958330630999992
  1
öÆÉ{ëÛ
  0
ENDBLK
  5
6FE
  8
0
  0
BLOCK
  8
0
  2
*U75
 70
     1
 10
0.0
 20
0.0
 30
0.0
  3
*U75
  1

  0
TEXT
  5
700
  8
É}ÿg
  6
CONTINUOUS
 10
117.6342583833157
 20
-783.52804939236228
 30
0.0
 40
8.9958330630999992
  1
öÆÉ{ëÛ
  0
ENDBLK
  5
702
  8
0
  0
BLOCK
  8
0
  2
*U76
 70
     1
 10
0.0
 20
0.0
 30
0.0
  3
*U76
  1

  0
TEXT
  5
704
  8
┌▓È_1
  6
CONTINUOUS
 10
-495.63851440686642
 20
-342.36365297809999
 30
0.0
 40
9.8954164504999991
  1
3
  0
ENDBLK
  5
706
  8
0
  0
BLOCK
  8
0
  2
*U77
 70
     1
 10
0.0
 20
0.0
 30
0.0
  3
*U77
  1

  0
TEXT
  5
708
  8
┌▓È_1
  6
CONTINUOUS
 10
-668.7528260227665
 20
-342.36365297809999
 30
0.0
 40
9.8954164504999991
  1
2
  0
ENDBLK
  5
70A
  8
0
  0
BLOCK
  8
0
  2
*U78
 70
     1
 10
0.0
 20
0.0
 30
0.0
  3
*U78
  1

  0
TEXT
  5
70C
  8
┌▓È_1
  6
CONTINUOUS
 10
-578.67103436903813
 20
-342.36365297809999
 30
0.0
 40
9.8954164504999991
  1
1
  0
ENDBLK
  5
70E
  8
0
  0
BLOCK
  8
0
  2
*U79
 70
     1
 10
0.0
 20
0.0
 30
0.0
  3
*U79
  1

  0
TEXT
  5
710
  8
┌▓È_1
  6
CONTINUOUS
 10
-475.9274798598733
 20
-481.20244263121469
 30
0.0
 40
8.9958330630999992
  1
38-Å¼ö╗îè
  0
ENDBLK
  5
712
  8
0
  0
BLOCK
  8
0
  2
*U80
 70
     1
 10
0.0
 20
0.0
 30
0.0
  3
*U80
  1

  0
TEXT
  5
714
  8
É}ÿg
  6
CONTINUOUS
 10
145.14210535042179
 20
-688.20713902326236
 30
0.0
 40
8.9958330630999992
  1
û{   æ╠
  0
ENDBLK
  5
716
  8
0
  0
BLOCK
  8
0
  2
*U81
 70
     1
 10
0.0
 20
0.0
 30
0.0
  3
*U81
  1

  0
TEXT
  5
718
  8
É}ÿg
  6
CONTINUOUS
 10
161.46428157146369
 20
-750.54955142336235
 30
0.0
 40
8.9958330630999992
  1
ù¬ Ä┌
  0
ENDBLK
  5
71A
  8
0
  0
BLOCK
  8
0
  2
*U82
 70
     1
 10
0.0
 20
0.0
 30
0.0
  3
*U82
  1

  0
TEXT
  5
71C
  8
É}ÿg
  6
CONTINUOUS
 10
143.29270819785549
 20
-658.16147489603861
 30
0.0
 40
8.9958330630999992
  1
èW(û┌ÄM)
  0
ENDBLK
  5
71E
  8
0
  0
BLOCK
  8
0
  2
*U83
 70
     1
 10
0.0
 20
0.0
 30
0.0
  3
*U83
  1

  0
TEXT
  5
720
  8
É}ÿg
  6
CONTINUOUS
 10
160.0286108253994
 20
-672.70483362380003
 30
0.0
 40
8.9958330630999992
  1
Ä¿
  0
ENDBLK
  5
722
  8
0
  0
BLOCK
  8
0
  2
*U84
 70
     1
 10
0.0
 20
0.0
 30
0.0
  3
*U84
  1

  0
TEXT
  5
724
  8
É}ÿg
  6
CONTINUOUS
 10
232.6001212534041
 20
-766.98238526513853
 30
0.0
 40
8.9958330630999992
  1
û÷ î┤
  0
ENDBLK
  5
726
  8
0
  0
BLOCK
  8
0
  2
*U85
 70
     1
 10
0.0
 20
0.0
 30
0.0
  3
*U85
  1

  0
TEXT
  5
728
  8
É}ÿg
  6
CONTINUOUS
 10
232.6001212534041
 20
-783.48238526513853
 30
0.0
 40
8.9958330630999992
  1
û÷ î┤
  0
ENDBLK
  5
72A
  8
0
  0
BLOCK
  8
0
  2
*U86
 70
     1
 10
0.0
 20
0.0
 30
0.0
  3
*U86
  1

  0
TEXT
  5
72C
  8
┌▓È_1
  6
CONTINUOUS
 10
180.21906244269999
 20
-348.12753596189089
 30
0.0
 40
8.9958330630999992
  1
üiÉ¾î^üj
  0
ENDBLK
  5
72E
  8
0
  0
BLOCK
  8
0
  2
*U87
 70
     1
 10
0.0
 20
0.0
 30
0.0
  3
*U87
  1

  0
TEXT
  5
730
  8
┌▓È_1
  6
CONTINUOUS
 10
-146.1069277659
 20
-691.95271460619085
 30
0.0
 40
8.9958330630999992
  1
üiÉ¾î^üj
  0
ENDBLK
  5
732
  8
0
  0
BLOCK
  8
0
  2
*U88
 70
     1
 10
0.0
 20
0.0
 30
0.0
  3
*U88
  1

  0
TEXT
  5
734
  8
É}ÿg
  6
CONTINUOUS
 10
326.79891367315332
 20
8.2467724097121824
 30
0.0
 40
8.0962498784000001
  1
ë³ü@Æ¨ü@ôÓü@ùe
  0
ENDBLK
  5
736
  8
0
  0
BLOCK
  8
0
  2
*U89
 70
     1
 10
0.0
 20
0.0
 30
0.0
  3
*U89
  1

  0
TEXT
  5
738
  8
É}ÿg
  6
CONTINUOUS
 10
248.5738086656975
 20
8.3289678399497458
 30
0.0
 40
8.0962498784000001
  1
ë³Æ¨ô·
  0
ENDBLK
  5
73A
  8
0
  0
BLOCK
  8
0
  2
*U90
 70
     1
 10
0.0
 20
0.0
 30
0.0
  3
*U90
  1

  0
TEXT
  5
73C
  8
É}ÿg
  6
CONTINUOUS
 10
217.87541391602031
 20
8.4111632701873091
 30
0.0
 40
8.0962498784000001
  1
òøöÈ
  0
ENDBLK
  5
73E
  8
0
  0
BLOCK
  8
0
  2
*U91
 70
     1
 10
0.0
 20
0.0
 30
0.0
  3
*U91
  1

  0
TEXT
  5
740
  8
É}ÿg
  6
CONTINUOUS
 10
79.325511503100003
 20
-811.57315005011321
 30
0.0
 40
16.1924997568
  1
èöÄ«ë´Äð
  0
ENDBLK
  5
742
  8
0
  0
BLOCK
  8
0
  2
*U92
 70
     1
 10
0.0
 20
0.0
 30
0.0
  3
*U92
  1

  0
TEXT
  5
744
  8
É}ÿg
  6
CONTINUOUS
 10
467.88204152908833
 20
8.2056746945934016
 30
0.0
 40
8.0962498784000001
  1
îƒöFÄÊ
  0
ENDBLK
  5
746
  8
0
  0
BLOCK
  8
0
  2
*U93
 70
     1
 10
0.0
 20
0.0
 30
0.0
  3
*U93
  1

  0
TEXT
  5
748
  8
É}ÿg
  6
CONTINUOUS
 10
292.10127395313532
 20
-798.57081838714316
 30
0.0
 40
8.9958330630999992
  1
É} öÈ
  0
ENDBLK
  5
74A
  8
0
  0
BLOCK
  8
0
  2
*U94
 70
     1
 10
0.0
 20
0.0
 30
0.0
  3
*U94
  1

  0
TEXT
  5
74C
  8
É}ÿg
  6
CONTINUOUS
 10
288.97328123830101
 20
-732.75347489603871
 30
0.0
 40
8.9958330630999992
  1
É╗òiû╝
  0
ENDBLK
  5
74E
  8
0
  0
BLOCK
  8
0
  2
*U95
 70
     1
 10
0.0
 20
0.0
 30
0.0
  3
*U95
  1

  0
TEXT
  5
750
  8
É}ÿg
  6
CONTINUOUS
 10
289.22443393803218
 20
-765.66214664159088
 30
0.0
 40
8.9958330630999992
  1
É}û╩û╝
  0
ENDBLK
  5
752
  8
0
  0
BLOCK
  8
0
  2
*U96
 70
     1
 10
0.0
 20
0.0
 30
0.0
  3
*U96
  1

  0
TEXT
  5
754
  8
É}ÿg
  6
CONTINUOUS
 10
78.610051688960155
 20
-733.70840050179527
 30
0.0
 40
8.9958330630999992
  1
ô·ü@ü@òt
  0
ENDBLK
  5
756
  8
0
  0
BLOCK
  8
0
  2
*U97
 70
     1
 10
0.0
 20
0.0
 30
0.0
  3
*U97
  1

  0
TEXT
  5
758
  8
É}ÿg
  6
CONTINUOUS
 10
152.65110501725911
 20
-733.98238526513853
 30
0.0
 40
8.9958330630999992
  1
Ä┌ü@ü@ôx
  0
ENDBLK
  5
75A
  8
0
  0
BLOCK
  8
0
  2
*U98
 70
     1
 10
0.0
 20
0.0
 30
0.0
  3
*U98
  1

  0
TEXT
  5
75C
  8
É}ÿg
  6
CONTINUOUS
 10
438.00533467444461
 20
8.2467724097121824
 30
0.0
 40
8.0962498784000001
  1
ë³Æ¨ÄÊ
  0
ENDBLK
  5
75E
  8
0
  0
BLOCK
  8
0
  2
*U99
 70
     1
 10
0.0
 20
0.0
 30
0.0
  3
*U99
  1

  0
TEXT
  5
760
  8
É}ÿg
  6
CONTINUOUS
 10
65.546610159074106
 20
-702.97881838714306
 30
0.0
 40
8.9958330630999992
  1
òiöÈ
  0
ENDBLK
  5
762
  8
0
  0
BLOCK
  8
0
  2
*U100
 70
     1
 10
0.0
 20
0.0
 30
0.0
  3
*U100
  1

  0
TEXT
  5
764
  8
É}ÿg
  6
CONTINUOUS
 10
63.006000692800001
 20
-783.48238526513853
 30
0.0
 40
8.9958330630999992
  1
 É╗É}
  0
ENDBLK
  5
766
  8
0
  0
BLOCK
  8
0
  2
*U101
 70
     1
 10
0.0
 20
0.0
 30
0.0
  3
*U101
  1

  0
TEXT
  5
768
  8
É}ÿg
  6
CONTINUOUS
 10
63.006000692800001
 20
-766.89105701069082
 30
0.0
 40
8.9958330630999992
  1
 É¦îv
  0
ENDBLK
  5
76A
  8
0
  0
BLOCK
  8
0
  2
*U102
 70
     1
 10
0.0
 20
0.0
 30
0.0
  3
*U102
  1

  0
TEXT
  5
76C
  8
É}ÿg
  6
CONTINUOUS
 10
175.5060006928
 20
-783.52804939236228
 30
0.0
 40
8.9958330630999992
  1
 îƒÉ}
  0
ENDBLK
  5
76E
  8
0
  0
BLOCK
  8
0
  2
*U103
 70
     1
 10
0.0
 20
0.0
 30
0.0
  3
*U103
  1

  0
TEXT
  5
770
  8
É}ÿg
  6
CONTINUOUS
 10
175.5060006928
 20
-766.93672113791456
 30
0.0
 40
8.9958330630999992
  1
 Åãì©
  0
ENDBLK
  5
772
  8
0
  0
BLOCK
  8
0
  2
*U104
 70
     1
 10
0.0
 20
0.0
 30
0.0
  3
*U104
  1

  0
TEXT
  5
774
  8
É}ÿg
  6
CONTINUOUS
 10
380.24979333211911
 20
-703.16147489603861
 30
0.0
 40
8.9958330630999992
  1
Éöù╩
  0
ENDBLK
  5
776
  8
0
  0
BLOCK
  8
0
  2
*U105
 70
     1
 10
0.0
 20
0.0
 30
0.0
  3
*U105
  1

  0
TEXT
  5
778
  8
É}ÿg
  6
CONTINUOUS
 10
423.7878754679183
 20
-703.29846727771019
 30
0.0
 40
8.9958330630999992
  1
ö§ü@ü@ü@ìl
  0
ENDBLK
  5
77A
  8
0
  0
BLOCK
  8
0
  2
*U106
 70
     1
 10
0.0
 20
0.0
 30
0.0
  3
*U106
  1

  0
TEXT
  5
77C
  8
É}ÿg
  6
CONTINUOUS
 10
280.21476847815762
 20
-703.02448251436704
 30
0.0
 40
8.9958330630999992
  1
ìÌü@ü@ü@Ä┐
  0
ENDBLK
  5
77E
  8
0
  0
BLOCK
  8
0
  2
*U107
 70
     1
 10
0.0
 20
0.0
 30
0.0
  3
*U107
  1

  0
TEXT
  5
780
  8
É}ÿg
  6
CONTINUOUS
 10
136.5572494323365
 20
-703.0701466415909
 30
0.0
 40
8.9958330630999992
  1
òiü@ü@ü@û╝
  0
ENDBLK
  5
782
  8
0
  0
ENDSEC
  0
SECTION
  2
ENTITIES
  0
LINE
  5
2F
  8
┌▓È_1
  6
BORDER
 62
     3
 10
268.52322464880001
 20
-196.94840990310001
 30
0.0
 11
333.52322464880001
 21
-196.94840990310001
 31
0.0
  0
INSERT
  5
31
  8
┌▓È_1
 62
     5
  2
CLUMP0
 10
0.0
 20
0.0
 30
0.0
  0
INSERT
  5
4E
  8
0
  6
CONTINUOUS
  2
*U55
 10
0.0
 20
0.0
 30
0.0
  0
DIMENSION
  5
5F
  8
Éíû@É³
 62
     5
  2
*D1
 10
235.185712693
 20
-113.4565456453
 30
0.0
 11
235.185712693
 21
-80.2490966859
 31
0.0
 70
   128
  1
15.5
 13
211.40027034069999
 23
-113.4565456453
 33
0.0
 14
211.40027034069999
 24
-97.956545645300025
 34
0.0
 50
90.0
  0
ARC
  5
60
  8
┌▓È_1
 62
     5
 10
277.52322464880001
 20
-109.4570169994
 30
0.0
 40
2.0
 50
90.0
 51
180.0
  0
INSERT
  5
61
  8
0
  6
CONTINUOUS
  2
*U56
 10
0.0
 20
0.0
 30
0.0
  0
INSERT
  5
62
  8
0
  6
CONTINUOUS
  2
*U57
 10
0.0
 20
0.0
 30
0.0
  0
INSERT
  5
63
  8
0
  6
CONTINUOUS
  2
*U58
 10
0.0
 20
0.0
 30
0.0
  0
DIMENSION
  5
72
  8
Éíû@É³
 62
     5
  2
*D2
 10
328.52322464880001
 20
-60.785492951599998
 30
0.0
 11
313.52322464880001
 21
-60.785492951599998
 31
0.0
 70
   128
  1
<>
 13
328.52322464880001
 23
-97.957016999400025
 33
0.0
 14
298.52322464880001
 24
-106.9570169994
 34
0.0
  0
DIMENSION
  5
81
  8
Éíû@É³
 62
     5
  2
*D3
 10
328.52322464880001
 20
-40.107286317000003
 30
0.0
 11
301.02322464880001
 21
-40.107286317000003
 31
0.0
 70
   128
  1
<>
 13
328.52322464880001
 23
-98.757016999400022
 33
0.0
 14
273.52322464880001
 24
-98.757016999400022
 34
0.0
  0
DIMENSION
  5
90
  8
Éíû@É³
 62
     5
  2
*D4
 10
298.52322464880001
 20
-60.785492951599998
 30
0.0
 11
286.02322464880001
 21
-60.785492951599998
 31
0.0
 70
   128
  1
<>
 13
298.52322464880001
 23
-106.9570169994
 33
0.0
 14
273.52322464880001
 24
-97.957016999400025
 34
0.0
  0
DIMENSION
  5
9F
  8
Éíû@É³
 62
     5
  2
*D5
 10
349.93813591899999
 20
-111.9570169994
 30
0.0
 11
349.93813591899999
 21
-104.9570169994
 31
0.0
 70
   128
  1
14
 13
328.52322464880001
 23
-111.9570169994
 33
0.0
 14
328.52322464880001
 24
-97.957016999400025
 34
0.0
 50
90.0
  0
LINE
  5
A0
  8
┌▓È_1
 62
     5
 10
277.52322464880001
 20
-107.4570169994
 30
0.0
 11
298.52322464880001
 21
-107.4570169994
 31
0.0
  0
LINE
  5
A1
  8
┌▓È_1
 62
     5
 10
277.52322464880001
 20
-109.4570169994
 30
0.0
 11
298.52322464880001
 21
-109.4570169994
 31
0.0
  0
LINE
  5
A2
  8
┌▓È_1
 62
     5
 10
298.52322464880001
 20
-108.9570169994
 30
0.0
 11
298.52322464880001
 21
-111.9570169994
 31
0.0
  0
LINE
  5
A3
  8
┌▓È_1
 62
     5
 10
298.52322464880001
 20
-106.9570169994
 30
0.0
 11
298.52322464880001
 21
-107.4570169994
 31
0.0
  0
INSERT
  5
A5
  8
┌▓È_1
 62
     5
  2
CLUMP1
 10
0.0
 20
0.0
 30
0.0
  0
LINE
  5
C1
  8
┌▓È_1
 62
     5
 10
29.629526199499999
 20
-132.95674551499999
 30
0.0
 11
44.629526199499999
 21
-132.95674551499999
 31
0.0
  0
LINE
  5
C2
  8
┌▓È_1
 62
     5
 10
44.629526199499999
 20
-140.95674551499999
 30
0.0
 11
29.629526199499999
 21
-140.95674551499999
 31
0.0
  0
LINE
  5
C3
  8
┌▓È_1
 62
     5
 10
-53.070473800500011
 20
-132.95674551499999
 30
0.0
 11
-38.070473800500011
 21
-132.95674551499999
 31
0.0
  0
ARC
  5
C4
  8
┌▓È_1
 62
     5
 10
-38.070473800500011
 20
-129.45674551499999
 30
0.0
 40
3.5
 50
270.0
 51
90.0
  0
LINE
  5
C5
  8
┌▓È_1
 62
     5
 10
-53.070473800500011
 20
-147.95674551499999
 30
0.0
 11
-38.070473800500011
 21
-147.95674551499999
 31
0.0
  0
ARC
  5
C6
  8
┌▓È_1
 62
     5
 10
-53.070473800500011
 20
-144.45674551499999
 30
0.0
 40
3.5
 50
90.0
 51
270.0
  0
LINE
  5
C7
  8
┌▓È_1
 62
     5
 10
-38.070473800500011
 20
-140.95674551499999
 30
0.0
 11
-53.070473800500011
 21
-140.95674551499999
 31
0.0
  0
ARC
  5
C8
  8
┌▓È_1
 62
     5
 10
-38.070473800500011
 20
-144.45674551499999
 30
0.0
 40
3.5
 50
270.0
 51
90.0
  0
ARC
  5
C9
  8
┌▓È_1
 62
     5
 10
-53.070473800500011
 20
-129.45674551499999
 30
0.0
 40
3.5
 50
90.0
 51
270.0
  0
LINE
  5
CA
  8
┌▓È_1
 62
     5
 10
-38.070473800500011
 20
-125.95674551499999
 30
0.0
 11
-53.070473800500011
 21
-125.95674551499999
 31
0.0
  0
ARC
  5
CB
  8
┌▓È_1
 62
     5
 10
-53.070473800500011
 20
-159.45674551499999
 30
0.0
 40
3.5
 50
90.0
 51
270.0
  0
LINE
  5
CC
  8
┌▓È_1
 62
     5
 10
-38.070473800500011
 20
-155.95674551499999
 30
0.0
 11
-53.070473800500011
 21
-155.95674551499999
 31
0.0
  0
LINE
  5
CD
  8
┌▓È_1
 62
     5
 10
-53.070473800500011
 20
-162.95674551499999
 30
0.0
 11
-38.070473800500011
 21
-162.95674551499999
 31
0.0
  0
ARC
  5
CE
  8
┌▓È_1
 62
     5
 10
-38.070473800500011
 20
-159.45674551499999
 30
0.0
 40
3.5
 50
270.0
 51
90.0
  0
LINE
  5
CF
  8
┌▓È_1
 62
     5
 10
-80.277536300500003
 20
-106.9565456453
 30
0.0
 11
67.029238971699996
 21
-106.9565456453
 31
0.0
  0
LINE
  5
D0
  8
┌▓È_1
 62
     5
 10
-80.277536300500003
 20
-97.956545645300025
 30
0.0
 11
76.029238971699996
 21
-97.956545645300025
 31
0.0
  0
LINE
  5
D1
  8
┌▓È_1
 62
     5
 10
-80.277536300500003
 20
-107.4565456453
 30
0.0
 11
63.7295261995
 21
-107.4565456453
 31
0.0
  0
LINE
  5
D2
  8
┌▓È_1
  6
HIDDEN
 62
     1
 10
-80.277536300500003
 20
-109.4565456453
 30
0.0
 11
63.7295261995
 21
-109.4565456453
 31
0.0
  0
ARC
  5
D3
  8
┌▓È_1
 62
     5
 10
277.52322464880001
 20
-284.45607429109998
 30
0.0
 40
2.0
 50
180.0
 51
270.0
  0
DIMENSION
  5
E2
  8
Éíû@É³
 62
     5
  2
*D7
 10
349.93813591899999
 20
-295.95607429109998
 30
0.0
 11
349.93813591899999
 21
-288.95607429109998
 31
0.0
 70
   128
  1
14
 13
328.52322464880001
 23
-295.95607429109998
 33
0.0
 14
328.52322464880001
 24
-281.95607429109998
 34
0.0
 50
90.0
  0
DIMENSION
  5
F1
  8
Éíû@É³
 62
     5
  2
*D8
 10
235.185712693
 20
-295.95654564530003
 30
0.0
 11
235.185712693
 21
-313.94753533030001
 31
0.0
 70
   128
  1
15.5
 13
211.40027034069999
 23
-295.95654564530003
 33
0.0
 14
211.40027034069999
 24
-280.45654564530003
 34
0.0
 50
90.0
  0
INSERT
  5
F2
  8
0
  6
CONTINUOUS
  2
*U59
 10
0.0
 20
0.0
 30
0.0
  0
LINE
  5
F3
  8
┌▓È_1
 62
     5
 10
298.52322464880001
 20
-284.95607429109998
 30
0.0
 11
298.52322464880001
 21
-281.95607429109998
 31
0.0
  0
LINE
  5
F4
  8
┌▓È_1
 62
     5
 10
277.52322464880001
 20
-286.45607429109998
 30
0.0
 11
298.52322464880001
 21
-286.45607429109998
 31
0.0
  0
LINE
  5
F5
  8
┌▓È_1
 62
     5
 10
277.52322464880001
 20
-284.45607429109998
 30
0.0
 11
298.52322464880001
 21
-284.45607429109998
 31
0.0
  0
LINE
  5
F6
  8
┌▓È_1
 62
     5
 10
64.279238971699996
 20
-375.00218822340003
 30
0.0
 11
64.279238971699996
 21
-387.00218822340003
 31
0.0
  0
LINE
  5
F7
  8
┌▓È_1
 62
     5
 10
76.029238971699996
 20
-378.00218822340003
 30
0.0
 11
76.029238971699996
 21
-372.80218822339998
 31
0.0
  0
LINE
  5
F8
  8
┌▓È_1
 62
     5
 10
75.229238971699999
 20
-378.00218822340003
 30
0.0
 11
76.029238971699996
 21
-378.00218822340003
 31
0.0
  0
LINE
  5
F9
  8
┌▓È_1
 62
     5
 10
75.229238971699999
 20
-372.80218822339998
 30
0.0
 11
75.229238971699999
 21
-378.00218822340003
 31
0.0
  0
LINE
  5
FA
  8
┌▓È_1
 62
     5
 10
67.829238971699993
 20
-372.80218822339998
 30
0.0
 11
75.229238971699999
 21
-372.80218822339998
 31
0.0
  0
LINE
  5
FB
  8
┌▓È_1
 62
     5
 10
3.2795261994999989
 20
-185.95674551499999
 30
0.0
 11
-11.720473800500001
 21
-185.95674551499999
 31
0.0
  0
DIMENSION
  5
10A
  8
Éíû@É³
 62
     5
  2
*D9
 10
197.2002703407
 20
-60.956142050299988
 30
0.0
 11
189.45979376220001
 21
-60.956142050299988
 31
0.0
 70
   128
  1
<>
 13
197.2002703407
 23
-106.9565456453
 33
0.0
 14
182.2002703407
 24
-98.756545645300022
 34
0.0
  0
DIMENSION
  5
119
  8
Éíû@É³
 62
     5
  2
*D10
 10
76.029238971699996
 20
-63.512480551300001
 30
0.0
 11
71.402971568400005
 21
-63.512480551300001
 31
0.0
 70
   128
  1
9
 13
76.029238971699996
 23
-97.956545645300025
 33
0.0
 14
67.029238971699996
 24
-106.9565456453
 34
0.0
  0
DIMENSION
  5
128
  8
Éíû@É³
 62
     5
  2
*D11
 10
96.934019331499996
 20
-106.9565456453
 30
0.0
 11
96.934019331499996
 21
-102.4565456453
 31
0.0
 70
   128
  1
<>
 13
52.914438490400002
 23
-106.9565456453
 33
0.0
 14
61.914438490400002
 24
-97.956545645300025
 34
0.0
 50
90.0
  0
ARC
  5
129
  8
┌▓È_1
 62
     5
 10
29.629526199499999
 20
-159.45674551499999
 30
0.0
 40
3.5
 50
90.0
 51
270.0
  0
LINE
  5
12A
  8
┌▓È_1
 62
     5
 10
44.629526199499999
 20
-125.95674551499999
 30
0.0
 11
29.629526199499999
 21
-125.95674551499999
 31
0.0
  0
LINE
  5
12B
  8
┌▓È_1
 62
     5
 10
44.629526199499999
 20
-155.95674551499999
 30
0.0
 11
29.629526199499999
 21
-155.95674551499999
 31
0.0
  0
LINE
  5
12C
  8
┌▓È_1
 62
     5
 10
29.629526199499999
 20
-162.95674551499999
 30
0.0
 11
44.629526199499999
 21
-162.95674551499999
 31
0.0
  0
ARC
  5
12D
  8
┌▓È_1
 62
     5
 10
44.629526199499999
 20
-129.45674551499999
 30
0.0
 40
3.5
 50
270.0
 51
90.0
  0
ARC
  5
12E
  8
┌▓È_1
 62
     5
 10
44.629526199499999
 20
-144.45674551499999
 30
0.0
 40
3.5
 50
270.0
 51
90.0
  0
ARC
  5
12F
  8
┌▓È_1
 62
     5
 10
44.629526199499999
 20
-159.45674551499999
 30
0.0
 40
3.5
 50
270.0
 51
90.0
  0
LINE
  5
130
  8
┌▓È_1
 62
     5
 10
29.629526199499999
 20
-147.95674551499999
 30
0.0
 11
44.629526199499999
 21
-147.95674551499999
 31
0.0
  0
LINE
  5
131
  8
┌▓È_1
 62
     5
 10
185.2002703407
 20
-107.4570169994
 30
0.0
 11
197.2002703407
 21
-107.4570169994
 31
0.0
  0
LINE
  5
132
  8
┌▓È_1
 62
     5
 10
185.2002703407
 20
-109.4570169994
 30
0.0
 11
197.2002703407
 21
-109.4570169994
 31
0.0
  0
LINE
  5
133
  8
┌▓È_1
 62
     5
 10
185.7002703407
 20
-109.4570169994
 30
0.0
 11
185.2002703407
 21
-109.4570169994
 31
0.0
  0
ARC
  5
134
  8
┌▓È_1
 62
     5
 10
185.2002703407
 20
-109.4570169994
 30
0.0
 40
2.0
 50
90.0
 51
180.0000386554
  0
LINE
  5
135
  8
┌▓È_1
 62
     5
 10
63.7295261995
 20
-109.4565456453
 30
0.0
 11
63.7295261995
 21
-107.4565456453
 31
0.0
  0
LINE
  5
136
  8
┌▓È_1
 62
     5
 10
63.7295261995
 20
-109.4565456453
 30
0.0
 11
66.2295261995
 21
-109.4565456453
 31
0.0
  0
ARC
  5
137
  8
┌▓È_1
 62
     5
 10
29.629526199499999
 20
-144.45674551499999
 30
0.0
 40
3.5
 50
90.0
 51
270.0
  0
ARC
  5
138
  8
┌▓È_1
 62
     5
 10
29.629526199499999
 20
-129.45674551499999
 30
0.0
 40
3.5
 50
90.0
 51
270.0
  0
LINE
  5
139
  8
┌▓È_1
 62
     5
 10
-53.070473800500011
 20
-230.95674551499999
 30
0.0
 11
-38.070473800500011
 21
-230.95674551499999
 31
0.0
  0
ARC
  5
13A
  8
┌▓È_1
 62
     5
 10
-11.720473800500001
 20
-204.45674551499999
 30
0.0
 40
3.5
 50
90.0
 51
270.0
  0
DIMENSION
  5
149
  8
Éíû@É³
 62
     5
  2
*D12
 10
100.0292389717
 20
-378.00218822340003
 30
0.0
 11
100.0292389717
 21
-363.0726638017
 31
0.0
 70
   128
  1
<>
 13
76.029238971699996
 23
-378.00218822340003
 33
0.0
 14
75.229238971699999
 24
-372.00218822340003
 34
0.0
 50
90.0
  0
DIMENSION
  5
158
  8
Éíû@É³
 62
     5
  2
*D13
 10
96.934019331499996
 20
-295.95654564530003
 30
0.0
 11
96.934019331499996
 21
-291.45654564530003
 31
0.0
 70
   128
  1
<>
 13
61.914438490400002
 23
-295.95654564530003
 33
0.0
 14
52.914438490400002
 24
-286.95654564529991
 34
0.0
 50
90.0
  0
LINE
  5
159
  8
┌▓È_1
 62
     5
 10
75.229238971699999
 20
-378.00218822340003
 30
0.0
 11
67.829238971699993
 21
-378.00218822340003
 31
0.0
  0
LINE
  5
15A
  8
┌▓È_1
 62
     5
 10
67.029238971699996
 20
-372.80218822339998
 30
0.0
 11
67.029238971699996
 21
-387.00218822340003
 31
0.0
  0
LINE
  5
15B
  8
┌▓È_1
 62
     5
 10
75.229238971699999
 20
-372.00218822340003
 30
0.0
 11
67.829238971699993
 21
-372.00218822340003
 31
0.0
  0
LINE
  5
15C
  8
┌▓È_1
 62
     5
 10
67.029238971699996
 20
-387.00218822340003
 30
0.0
 11
61.329238971700001
 21
-387.00218822340003
 31
0.0
  0
ARC
  5
15D
  8
┌▓È_1
 62
     5
 10
75.229238971699999
 20
-372.80218822339998
 30
0.0
 40
0.8
 50
0.0
 51
90.0
  0
LINE
  5
15E
  8
┌▓È_1
 62
     5
 10
67.829238971699993
 20
-387.00218822340003
 30
0.0
 11
67.829238971699993
 21
-372.80218822339998
 31
0.0
  0
ARC
  5
15F
  8
┌▓È_1
 62
     5
 10
67.829238971699993
 20
-372.80218822339998
 30
0.0
 40
0.8
 50
90.0
 51
180.0
  0
LINE
  5
160
  8
┌▓È_1
 62
     5
 10
-80.277536300500003
 20
-295.95654564530003
 30
0.0
 11
76.029238971699996
 21
-295.95654564530003
 31
0.0
  0
LINE
  5
161
  8
┌▓È_1
 62
     5
 10
-80.277536300500003
 20
-286.95654564529991
 30
0.0
 11
67.029238971699996
 21
-286.95654564529991
 31
0.0
  0
LINE
  5
162
  8
┌▓È_1
 62
     5
 10
-80.277536300500003
 20
-286.45654564530003
 30
0.0
 11
63.7295261995
 21
-286.45654564530003
 31
0.0
  0
LINE
  5
163
  8
┌▓È_1
  6
HIDDEN
 62
     1
 10
-80.277536300500003
 20
-284.45654564530003
 30
0.0
 11
63.7295261995
 21
-284.45654564530003
 31
0.0
  0
LINE
  5
164
  8
┌▓È_1
 62
     5
 10
-80.277536300500003
 20
-373.00218822340003
 30
0.0
 11
64.279238971699996
 21
-373.00218822340003
 31
0.0
  0
LINE
  5
165
  8
┌▓È_1
 62
     5
 10
-80.277536300500003
 20
-375.00218822340003
 30
0.0
 11
64.279238971699996
 21
-375.00218822340003
 31
0.0
  0
LINE
  5
166
  8
┌▓È_1
 62
     5
 10
-80.277536300500003
 20
-372.00218822340003
 30
0.0
 11
67.829238971699993
 21
-372.00218822340003
 31
0.0
  0
LINE
  5
167
  8
┌▓È_1
 62
     5
 10
66.279238971699996
 20
-387.00218822340003
 30
0.0
 11
-80.277536300500003
 21
-387.00218822340003
 31
0.0
  0
LINE
  5
168
  8
┌▓È_1
 62
     5
 10
-11.720473800500001
 20
-207.95674551499999
 30
0.0
 11
3.2795261994999989
 21
-207.95674551499999
 31
0.0
  0
LINE
  5
169
  8
┌▓È_1
 62
     5
 10
-11.720473800500001
 20
-192.95674551499999
 30
0.0
 11
3.2795261994999989
 21
-192.95674551499999
 31
0.0
  0
LINE
  5
16A
  8
┌▓È_1
 62
     5
 10
3.2795261994999989
 20
-200.95674551499999
 30
0.0
 11
-11.720473800500001
 21
-200.95674551499999
 31
0.0
  0
LINE
  5
16B
  8
┌▓È_1
 62
     5
 10
76.029238971699996
 20
-396.00218822340003
 30
0.0
 11
75.229238971699999
 21
-396.00218822340003
 31
0.0
  0
ARC
  5
16C
  8
┌▓È_1
 62
     5
 10
64.279238971699996
 20
-375.00218822340003
 30
0.0
 40
2.0
 50
0.0
 51
90.0
  0
LINE
  5
16D
  8
┌▓È_1
 62
     5
 10
66.279238971699996
 20
-375.00218822340003
 30
0.0
 11
66.279238971699996
 21
-387.00218822340003
 31
0.0
  0
LINE
  5
16E
  8
┌▓È_1
 62
     5
 10
29.629526199499999
 20
-245.95674551499999
 30
0.0
 11
44.629526199499999
 21
-245.95674551499999
 31
0.0
  0
LINE
  5
16F
  8
┌▓È_1
 62
     5
 10
44.629526199499999
 20
-267.95674551500002
 30
0.0
 11
29.629526199499999
 21
-267.95674551500002
 31
0.0
  0
LINE
  5
170
  8
┌▓È_1
 62
     5
 10
29.629526199499999
 20
-260.95674551500002
 30
0.0
 11
44.629526199499999
 21
-260.95674551500002
 31
0.0
  0
LINE
  5
171
  8
┌▓È_1
 62
     5
 10
44.629526199499999
 20
-237.95674551499999
 30
0.0
 11
29.629526199499999
 21
-237.95674551499999
 31
0.0
  0
ARC
  5
172
  8
┌▓È_1
 62
     5
 10
3.2795261994999989
 20
-204.45674551499999
 30
0.0
 40
3.5
 50
270.0
 51
90.0
  0
LINE
  5
173
  8
┌▓È_1
 62
     5
 10
182.2002703407
 20
-287.75654564529998
 30
0.0
 11
182.2002703407
 21
-196.94840990310001
 31
0.0
  0
ARC
  5
174
  8
┌▓È_1
 62
     5
 10
29.629526199499999
 20
-234.45674551499999
 30
0.0
 40
3.5
 50
90.0
 51
270.0
  0
ARC
  5
175
  8
┌▓È_1
 62
     5
 10
44.629526199499999
 20
-234.45674551499999
 30
0.0
 40
3.5
 50
270.0
 51
90.0
  0
LINE
  5
176
  8
┌▓È_1
 62
     5
 10
29.629526199499999
 20
-230.95674551499999
 30
0.0
 11
44.629526199499999
 21
-230.95674551499999
 31
0.0
  0
LINE
  5
177
  8
┌▓È_1
 62
     5
 10
185.2002703407
 20
-284.45607429109998
 30
0.0
 11
197.2002703407
 21
-284.45607429109998
 31
0.0
  0
LINE
  5
178
  8
┌▓È_1
 62
     5
 10
185.20027069700001
 20
-286.45607429109998
 30
0.0
 11
197.2002703407
 21
-286.45607429109998
 31
0.0
  0
ARC
  5
179
  8
┌▓È_1
 62
     5
 10
185.2002703407
 20
-284.45607429109998
 30
0.0
 40
2.0
 50
180.0
 51
270.00001020809998
  0
LINE
  5
17A
  8
┌▓È_1
 62
     5
 10
185.7002703407
 20
-284.45607429109998
 30
0.0
 11
185.2002703407
 21
-284.45607429109998
 31
0.0
  0
ARC
  5
17B
  8
┌▓È_1
 62
     5
 10
-11.720473800500001
 20
-189.45674551499999
 30
0.0
 40
3.5
 50
90.0
 51
270.0
  0
ARC
  5
17C
  8
┌▓È_1
 62
     5
 10
-38.070473800500011
 20
-234.45674551499999
 30
0.0
 40
3.5
 50
270.0
 51
90.0
  0
ARC
  5
17D
  8
┌▓È_1
 62
     5
 10
-53.070473800500011
 20
-234.45674551499999
 30
0.0
 40
3.5
 50
90.0
 51
270.0
  0
LINE
  5
17E
  8
┌▓È_1
 62
     5
 10
-53.070473800500011
 20
-245.95674551499999
 30
0.0
 11
-38.070473800500011
 21
-245.95674551499999
 31
0.0
  0
ARC
  5
17F
  8
┌▓È_1
 62
     5
 10
-38.070473800500011
 20
-249.45674551499999
 30
0.0
 40
3.5
 50
270.0
 51
90.0
  0
LINE
  5
180
  8
┌▓È_1
 62
     5
 10
-38.070473800500011
 20
-237.95674551499999
 30
0.0
 11
-53.070473800500011
 21
-237.95674551499999
 31
0.0
  0
ARC
  5
181
  8
┌▓È_1
 62
     5
 10
-38.070473800500011
 20
-264.45674551500002
 30
0.0
 40
3.5
 50
270.0
 51
90.0
  0
LINE
  5
182
  8
┌▓È_1
 62
     5
 10
-53.070473800500011
 20
-260.95674551500002
 30
0.0
 11
-38.070473800500011
 21
-260.95674551500002
 31
0.0
  0
LINE
  5
183
  8
┌▓È_1
 62
     5
 10
-38.070473800500011
 20
-267.95674551500002
 30
0.0
 11
-53.070473800500011
 21
-267.95674551500002
 31
0.0
  0
ARC
  5
184
  8
┌▓È_1
 62
     5
 10
-53.070473800500011
 20
-264.45674551500002
 30
0.0
 40
3.5
 50
90.0
 51
270.0
  0
ARC
  5
185
  8
┌▓È_1
 62
     5
 10
-53.070473800500011
 20
-249.45674551499999
 30
0.0
 40
3.5
 50
90.0
 51
270.0
  0
LINE
  5
186
  8
┌▓È_1
 62
     5
 10
-38.070473800500011
 20
-252.95674551499999
 30
0.0
 11
-53.070473800500011
 21
-252.95674551499999
 31
0.0
  0
INSERT
  5
187
  8
0
  6
CONTINUOUS
  2
*U60
 10
0.0
 20
0.0
 30
0.0
  0
DIMENSION
  5
196
  8
Éíû@É³
 62
     5
  2
*D14
 10
-55.166069578299989
 20
-469.74055674300001
 30
0.0
 11
-66.666069578299997
 21
-469.74055674300001
 31
0.0
 70
   128
  1
<>
 13
-55.166069578299989
 23
-491.82545283059989
 33
0.0
 14
-78.166069578299997
 24
-493.8254528306
 34
0.0
  0
LINE
  5
197
  8
┌▓È_1
 62
     5
 10
-76.166069578299997
 20
-493.8254528306
 30
0.0
 11
-55.166069578299989
 21
-493.8254528306
 31
0.0
  0
LINE
  5
198
  8
┌▓È_1
 62
     5
 10
-76.166069578299997
 20
-491.82545283059989
 30
0.0
 11
-55.166069578299989
 21
-491.82545283059989
 31
0.0
  0
ARC
  5
199
  8
┌▓È_1
 62
     5
 10
-76.166069578299997
 20
-493.8254528306
 30
0.0
 40
2.0
 50
90.0
 51
180.0
  0
LINE
  5
19A
  8
┌▓È_1
 62
     5
 10
-55.166069578299989
 20
-491.82545283059989
 30
0.0
 11
-55.166069578299989
 21
-493.8254528306
 31
0.0
  0
LINE
  5
19B
  8
┌▓È_1
  6
BORDER
 62
     3
 10
-85.166069578299997
 20
-581.32545283059994
 30
0.0
 11
-50.166069578299989
 21
-581.32545283059994
 31
0.0
  0
INSERT
  5
19D
  8
0
  6
CONTINUOUS
  2
*U61
 10
0.0
 20
0.0
 30
0.0
  0
INSERT
  5
19E
  8
0
  6
CONTINUOUS
  2
*U62
 10
0.0
 20
0.0
 30
0.0
  0
INSERT
  5
19F
  8
0
  6
CONTINUOUS
  2
*U63
 10
0.0
 20
0.0
 30
0.0
  0
INSERT
  5
1A0
  8
0
  6
CONTINUOUS
  2
*U64
 10
0.0
 20
0.0
 30
0.0
  0
INSERT
  5
1A1
  8
0
  6
CONTINUOUS
  2
*U65
 10
0.0
 20
0.0
 30
0.0
  0
INSERT
  5
1A2
  8
0
  6
CONTINUOUS
  2
*U66
 10
0.0
 20
0.0
 30
0.0
  0
INSERT
  5
1A3
  8
0
  6
CONTINUOUS
  2
*U67
 10
0.0
 20
0.0
 30
0.0
  0
INSERT
  5
1A4
  8
0
  6
CONTINUOUS
  2
*U68
 10
0.0
 20
0.0
 30
0.0
  0
INSERT
  5
1A5
  8
0
  6
CONTINUOUS
  2
*U69
 10
0.0
 20
0.0
 30
0.0
  0
CIRCLE
  5
1A6
  8
┌▓È_1
 62
     5
 10
37.129526199499999
 20
-196.95674551499999
 30
0.0
 40
7.5
  0
ARC
  5
1A7
  8
┌▓È_1
 62
     5
 10
3.2795261994999989
 20
-189.45674551499999
 30
0.0
 40
3.5
 50
270.0
 51
90.0
  0
LINE
  5
1A8
  8
┌▓È_1
 62
     5
 10
63.7295261995
 20
-284.45654564530003
 30
0.0
 11
66.2295261995
 21
-284.45654564530003
 31
0.0
  0
LINE
  5
1A9
  8
┌▓È_1
 62
     5
 10
63.7295261995
 20
-284.45654564530003
 30
0.0
 11
63.7295261995
 21
-286.45654564530003
 31
0.0
  0
ARC
  5
1AA
  8
┌▓È_1
 62
     5
 10
29.629526199499999
 20
-249.45674551499999
 30
0.0
 40
3.5
 50
90.0
 51
270.0
  0
ARC
  5
1AB
  8
┌▓È_1
 62
     5
 10
29.629526199499999
 20
-264.45674551500002
 30
0.0
 40
3.5
 50
90.0
 51
270.0
  0
ARC
  5
1AC
  8
┌▓È_1
 62
     5
 10
44.629526199499999
 20
-249.45674551499999
 30
0.0
 40
3.5
 50
270.0
 51
90.0
  0
ARC
  5
1AD
  8
┌▓È_1
 62
     5
 10
44.629526199499999
 20
-264.45674551500002
 30
0.0
 40
3.5
 50
270.0
 51
90.0
  0
LINE
  5
1AE
  8
┌▓È_1
 62
     5
 10
44.629526199499999
 20
-252.95674551499999
 30
0.0
 11
29.629526199499999
 21
-252.95674551499999
 31
0.0
  0
ARC
  5
1AF
  8
┌▓È_1
 62
     5
 10
-186.4704738005
 20
-159.45674551499999
 30
0.0
 40
3.5
 50
270.0
 51
90.0
  0
ARC
  5
1B0
  8
┌▓È_1
 62
     5
 10
-259.67054671720001
 20
-144.4569675203
 30
0.0
 40
3.5
 50
90.0
 51
270.0
  0
ARC
  5
1B1
  8
┌▓È_1
 62
     5
 10
-259.67054671720001
 20
-159.4569675203
 30
0.0
 40
3.5
 50
90.0
 51
270.0
  0
ARC
  5
1B2
  8
┌▓È_1
 62
     5
 10
-342.3705467172
 20
-159.4569675203
 30
0.0
 40
3.5
 50
90.0
 51
270.0
  0
LINE
  5
1B3
  8
┌▓È_1
 62
     5
 10
-327.3705467172
 20
-155.9569675203
 30
0.0
 11
-342.3705467172
 21
-155.9569675203
 31
0.0
  0
LINE
  5
1B4
  8
┌▓È_1
 62
     5
 10
-342.3705467172
 20
-162.9569675203
 30
0.0
 11
-327.3705467172
 21
-162.9569675203
 31
0.0
  0
ARC
  5
1B5
  8
┌▓È_1
 62
     5
 10
-327.3705467172
 20
-159.4569675203
 30
0.0
 40
3.5
 50
270.0
 51
90.0
  0
ARC
  5
1B6
  8
┌▓È_1
 62
     5
 10
-327.3705467172
 20
-129.4569675203
 30
0.0
 40
3.5
 50
270.0
 51
90.0
  0
ARC
  5
1B7
  8
┌▓È_1
 62
     5
 10
-327.3705467172
 20
-144.4569675203
 30
0.0
 40
3.5
 50
270.0
 51
90.0
  0
ARC
  5
1B8
  8
┌▓È_1
 62
     5
 10
-342.3705467172
 20
-129.4569675203
 30
0.0
 40
3.5
 50
90.0
 51
270.0
  0
LINE
  5
1B9
  8
┌▓È_1
 62
     5
 10
-327.3705467172
 20
-125.9569675203
 30
0.0
 11
-342.3705467172
 21
-125.9569675203
 31
0.0
  0
LINE
  5
1BA
  8
┌▓È_1
 62
     5
 10
-342.3705467172
 20
-132.9569675203
 30
0.0
 11
-327.3705467172
 21
-132.9569675203
 31
0.0
  0
ARC
  5
1BB
  8
┌▓È_1
 62
     5
 10
-342.3705467172
 20
-144.4569675203
 30
0.0
 40
3.5
 50
90.0
 51
270.0
  0
LINE
  5
1BC
  8
┌▓È_1
 62
     5
 10
-327.3705467172
 20
-140.9569675203
 30
0.0
 11
-342.3705467172
 21
-140.9569675203
 31
0.0
  0
LINE
  5
1BD
  8
┌▓È_1
 62
     5
 10
-342.3705467172
 20
-147.9569675203
 30
0.0
 11
-327.3705467172
 21
-147.9569675203
 31
0.0
  0
INSERT
  5
1BE
  8
0
  6
CONTINUOUS
  2
*U70
 10
0.0
 20
0.0
 30
0.0
  0
INSERT
  5
1BF
  8
0
  6
CONTINUOUS
  2
*U71
 10
0.0
 20
0.0
 30
0.0
  0
INSERT
  5
1C0
  8
0
  6
CONTINUOUS
  2
*U72
 10
0.0
 20
0.0
 30
0.0
  0
INSERT
  5
1C1
  8
0
  6
CONTINUOUS
  2
*U73
 10
0.0
 20
0.0
 30
0.0
  0
INSERT
  5
1C2
  8
0
  6
CONTINUOUS
  2
*U74
 10
0.0
 20
0.0
 30
0.0
  0
INSERT
  5
1C3
  8
0
  6
CONTINUOUS
  2
*U75
 10
0.0
 20
0.0
 30
0.0
  0
LINE
  5
1C4
  8
┌▓È_1
 62
     5
 10
-76.166069578299997
 20
-668.82545283059994
 30
0.0
 11
-55.166069578299989
 21
-668.82545283059994
 31
0.0
  0
ARC
  5
1C5
  8
┌▓È_1
 62
     5
 10
-76.166069578299997
 20
-668.82545283059994
 30
0.0
 40
2.0
 50
180.0
 51
270.0
  0
LINE
  5
1C6
  8
┌▓È_1
 62
     5
 10
-76.166069578299997
 20
-670.82545283059994
 30
0.0
 11
-55.166069578299989
 21
-670.82545283059994
 31
0.0
  0
LINE
  5
1C7
  8
┌▓È_1
 62
     5
 10
-55.166069578299989
 20
-668.82545283059994
 30
0.0
 11
-55.166069578299989
 21
-670.82545283059994
 31
0.0
  0
LINE
  5
1C8
  8
┌▓È_1
 62
     5
 10
-244.67054671720001
 20
-125.9569675203
 30
0.0
 11
-259.67054671720001
 21
-125.9569675203
 31
0.0
  0
LINE
  5
1C9
  8
┌▓È_1
 62
     5
 10
-259.67054671720001
 20
-132.9569675203
 30
0.0
 11
-244.67054671720001
 21
-132.9569675203
 31
0.0
  0
ARC
  5
1CA
  8
┌▓È_1
 62
     5
 10
-244.67054671720001
 20
-129.4569675203
 30
0.0
 40
3.5
 50
270.0
 51
90.0
  0
LINE
  5
1CB
  8
┌▓È_1
 62
     5
 10
-244.67054671720001
 20
-140.9569675203
 30
0.0
 11
-259.67054671720001
 21
-140.9569675203
 31
0.0
  0
LINE
  5
1CC
  8
┌▓È_1
 62
     5
 10
-259.67054671720001
 20
-147.9569675203
 30
0.0
 11
-244.67054671720001
 21
-147.9569675203
 31
0.0
  0
ARC
  5
1CD
  8
┌▓È_1
 62
     5
 10
-244.67054671720001
 20
-144.4569675203
 30
0.0
 40
3.5
 50
270.0
 51
90.0
  0
LINE
  5
1CE
  8
┌▓È_1
 62
     5
 10
-244.67054671720001
 20
-155.9569675203
 30
0.0
 11
-259.67054671720001
 21
-155.9569675203
 31
0.0
  0
LINE
  5
1CF
  8
┌▓È_1
 62
     5
 10
-259.67054671720001
 20
-162.9569675203
 30
0.0
 11
-244.67054671720001
 21
-162.9569675203
 31
0.0
  0
ARC
  5
1D0
  8
┌▓È_1
 62
     5
 10
-244.67054671720001
 20
-159.4569675203
 30
0.0
 40
3.5
 50
270.0
 51
90.0
  0
LINE
  5
1D1
  8
┌▓È_1
 62
     5
 10
-221.07054671719999
 20
-109.4565456453
 30
0.0
 11
-221.07054671719999
 21
-107.4565456453
 31
0.0
  0
LINE
  5
1D2
  8
┌▓È_1
 62
     5
 10
-201.4704738005
 20
-147.95674551499999
 30
0.0
 11
-186.4704738005
 21
-147.95674551499999
 31
0.0
  0
LINE
  5
1D3
  8
┌▓È_1
 62
     5
 10
-186.4704738005
 20
-140.95674551499999
 30
0.0
 11
-201.4704738005
 21
-140.95674551499999
 31
0.0
  0
ARC
  5
1D4
  8
┌▓È_1
 62
     5
 10
-201.4704738005
 20
-144.45674551499999
 30
0.0
 40
3.5
 50
90.0
 51
270.0
  0
ARC
  5
1D5
  8
┌▓È_1
 62
     5
 10
-259.67054671720001
 20
-129.4569675203
 30
0.0
 40
3.5
 50
90.0
 51
270.0
  0
ARC
  5
1D6
  8
┌▓È_1
 62
     5
 10
-118.7704738005
 20
-144.45674551499999
 30
0.0
 40
3.5
 50
90.0
 51
270.0
  0
ARC
  5
1D7
  8
┌▓È_1
 62
     5
 10
-118.7704738005
 20
-129.45674551499999
 30
0.0
 40
3.5
 50
90.0
 51
270.0
  0
ARC
  5
1D8
  8
┌▓È_1
 62
     5
 10
-118.7704738005
 20
-159.45674551499999
 30
0.0
 40
3.5
 50
90.0
 51
270.0
  0
LINE
  5
1D9
  8
┌▓È_1
 62
     5
 10
-225.07054671719999
 20
-109.4565456453
 30
0.0
 11
-225.07054671719999
 21
-107.4565456453
 31
0.0
  0
LINE
  5
1DA
  8
┌▓È_1
 62
     5
 10
-225.07054671719999
 20
-109.4565456453
 30
0.0
 11
-223.07054671719999
 21
-109.4565456453
 31
0.0
  0
LINE
  5
1DB
  8
┌▓È_1
 62
     5
 10
-221.07054671719999
 20
-109.4565456453
 30
0.0
 11
-223.07054671719999
 21
-109.4565456453
 31
0.0
  0
ARC
  5
1DC
  8
┌▓È_1
 62
     5
 10
-186.4704738005
 20
-129.45674551499999
 30
0.0
 40
3.5
 50
270.0
 51
90.0
  0
LINE
  5
1DD
  8
┌▓È_1
 62
     5
 10
-201.4704738005
 20
-132.95674551499999
 30
0.0
 11
-186.4704738005
 21
-132.95674551499999
 31
0.0
  0
ARC
  5
1DE
  8
┌▓È_1
 62
     5
 10
-201.4704738005
 20
-129.45674551499999
 30
0.0
 40
3.5
 50
90.0
 51
270.0
  0
LINE
  5
1DF
  8
┌▓È_1
 62
     5
 10
-186.4704738005
 20
-125.95674551499999
 30
0.0
 11
-201.4704738005
 21
-125.95674551499999
 31
0.0
  0
ARC
  5
1E0
  8
┌▓È_1
 62
     5
 10
-186.4704738005
 20
-144.45674551499999
 30
0.0
 40
3.5
 50
270.0
 51
90.0
  0
ARC
  5
1E1
  8
┌▓È_1
 62
     5
 10
-301.02054671719998
 20
-204.4569675203
 30
0.0
 40
3.5
 50
90.0
 51
270.0
  0
ARC
  5
1E2
  8
┌▓È_1
 62
     5
 10
-383.72054671720002
 20
-204.4569675203
 30
0.0
 40
3.5
 50
90.0
 51
270.0
  0
LINE
  5
1E3
  8
┌▓È_1
 62
     5
 10
-327.3705467172
 20
-237.9569675203
 30
0.0
 11
-342.3705467172
 21
-237.9569675203
 31
0.0
  0
LINE
  5
1E4
  8
┌▓È_1
 62
     5
 10
-342.3705467172
 20
-245.9569675203
 30
0.0
 11
-327.3705467172
 21
-245.9569675203
 31
0.0
  0
ARC
  5
1E5
  8
┌▓È_1
 62
     5
 10
-327.3705467172
 20
-249.4569675203
 30
0.0
 40
3.5
 50
270.0
 51
90.0
  0
ARC
  5
1E6
  8
┌▓È_1
 62
     5
 10
-342.3705467172
 20
-264.4569675203
 30
0.0
 40
3.5
 50
90.0
 51
270.0
  0
ARC
  5
1E7
  8
┌▓È_1
 62
     5
 10
-342.3705467172
 20
-249.4569675203
 30
0.0
 40
3.5
 50
90.0
 51
270.0
  0
LINE
  5
1E8
  8
┌▓È_1
 62
     5
 10
-327.3705467172
 20
-252.9569675203
 30
0.0
 11
-342.3705467172
 21
-252.9569675203
 31
0.0
  0
ARC
  5
1E9
  8
┌▓È_1
 62
     5
 10
-327.3705467172
 20
-264.4569675203
 30
0.0
 40
3.5
 50
270.0
 51
90.0
  0
LINE
  5
1EA
  8
┌▓È_1
 62
     5
 10
-342.3705467172
 20
-260.9569675203
 30
0.0
 11
-327.3705467172
 21
-260.9569675203
 31
0.0
  0
LINE
  5
1EB
  8
┌▓È_1
 62
     5
 10
-327.3705467172
 20
-267.9569675203
 30
0.0
 11
-342.3705467172
 21
-267.9569675203
 31
0.0
  0
LINE
  5
1EC
  8
┌▓È_1
 62
     5
 10
-301.02054671719998
 20
-192.9569675203
 30
0.0
 11
-286.02054671719998
 21
-192.9569675203
 31
0.0
  0
LINE
  5
1ED
  8
┌▓È_1
 62
     5
 10
-286.02054671719998
 20
-200.9569675203
 30
0.0
 11
-301.02054671719998
 21
-200.9569675203
 31
0.0
  0
LINE
  5
1EE
  8
┌▓È_1
 62
     5
 10
-301.02054671719998
 20
-207.9569675203
 30
0.0
 11
-286.02054671719998
 21
-207.9569675203
 31
0.0
  0
ARC
  5
1EF
  8
┌▓È_1
 62
     5
 10
-342.3705467172
 20
-234.4569675203
 30
0.0
 40
3.5
 50
90.0
 51
270.0
  0
LINE
  5
1F0
  8
┌▓È_1
 62
     5
 10
-342.3705467172
 20
-230.9569675203
 30
0.0
 11
-327.3705467172
 21
-230.9569675203
 31
0.0
  0
ARC
  5
1F1
  8
┌▓È_1
 62
     5
 10
-327.3705467172
 20
-234.4569675203
 30
0.0
 40
3.5
 50
270.0
 51
90.0
  0
LINE
  5
1F2
  8
┌▓È_1
 62
     5
 10
-368.72054671720002
 20
-200.9569675203
 30
0.0
 11
-383.72054671720002
 21
-200.9569675203
 31
0.0
  0
LINE
  5
1F3
  8
┌▓È_1
 62
     5
 10
-383.72054671720002
 20
-207.9569675203
 30
0.0
 11
-368.72054671720002
 21
-207.9569675203
 31
0.0
  0
ARC
  5
1F4
  8
┌▓È_1
 62
     5
 10
-368.72054671720002
 20
-204.4569675203
 30
0.0
 40
3.5
 50
270.0
 51
90.0
  0
LINE
  5
1F5
  8
┌▓È_1
 62
     5
 10
-368.72054671720002
 20
-185.9569675203
 30
0.0
 11
-383.72054671720002
 21
-185.9569675203
 31
0.0
  0
LINE
  5
1F6
  8
┌▓È_1
 62
     5
 10
-286.02054671719998
 20
-185.9569675203
 30
0.0
 11
-301.02054671719998
 21
-185.9569675203
 31
0.0
  0
LINE
  5
1F7
  8
┌▓È_1
 62
     5
 10
-201.4704738005
 20
-162.95674551499999
 30
0.0
 11
-186.4704738005
 21
-162.95674551499999
 31
0.0
  0
LINE
  5
1F8
  8
┌▓È_1
 62
     5
 10
-186.4704738005
 20
-155.95674551499999
 30
0.0
 11
-201.4704738005
 21
-155.95674551499999
 31
0.0
  0
ARC
  5
1F9
  8
┌▓È_1
 62
     5
 10
-201.4704738005
 20
-159.45674551499999
 30
0.0
 40
3.5
 50
90.0
 51
270.0
  0
LINE
  5
1FA
  8
┌▓È_1
 62
     5
 10
-259.67054671720001
 20
-245.9569675203
 30
0.0
 11
-244.67054671720001
 21
-245.9569675203
 31
0.0
  0
ARC
  5
1FB
  8
┌▓È_1
 62
     5
 10
-244.67054671720001
 20
-249.4569675203
 30
0.0
 40
3.5
 50
270.0
 51
90.0
  0
LINE
  5
1FC
  8
┌▓È_1
 62
     5
 10
-225.07054671719999
 20
-284.45654564530003
 30
0.0
 11
-223.07054671719999
 21
-284.45654564530003
 31
0.0
  0
LINE
  5
1FD
  8
┌▓È_1
 62
     5
 10
-225.07054671719999
 20
-284.45654564530003
 30
0.0
 11
-225.07054671719999
 21
-286.45654564530003
 31
0.0
  0
LINE
  5
1FE
  8
┌▓È_1
 62
     5
 10
-221.07054671719999
 20
-284.45654564530003
 30
0.0
 11
-221.07054671719999
 21
-286.45654564530003
 31
0.0
  0
LINE
  5
1FF
  8
┌▓È_1
 62
     5
 10
-221.07054671719999
 20
-284.45654564530003
 30
0.0
 11
-223.07054671719999
 21
-284.45654564530003
 31
0.0
  0
ARC
  5
200
  8
┌▓È_1
 62
     5
 10
-186.4704738005
 20
-249.45674551499999
 30
0.0
 40
3.5
 50
270.0
 51
90.0
  0
LINE
  5
201
  8
┌▓È_1
 62
     5
 10
-201.4704738005
 20
-245.95674551499999
 30
0.0
 11
-186.4704738005
 21
-245.95674551499999
 31
0.0
  0
LINE
  5
202
  8
┌▓È_1
 62
     5
 10
-186.4704738005
 20
-252.95674551499999
 30
0.0
 11
-201.4704738005
 21
-252.95674551499999
 31
0.0
  0
ARC
  5
203
  8
┌▓È_1
 62
     5
 10
-201.4704738005
 20
-249.45674551499999
 30
0.0
 40
3.5
 50
90.0
 51
270.0
  0
ARC
  5
204
  8
┌▓È_1
 62
     5
 10
-186.4704738005
 20
-264.45674551500002
 30
0.0
 40
3.5
 50
270.0
 51
90.0
  0
LINE
  5
205
  8
┌▓È_1
 62
     5
 10
-201.4704738005
 20
-260.95674551500002
 30
0.0
 11
-186.4704738005
 21
-260.95674551500002
 31
0.0
  0
ARC
  5
206
  8
┌▓È_1
 62
     5
 10
-186.4704738005
 20
-234.45674551499999
 30
0.0
 40
3.5
 50
270.0
 51
90.0
  0
ARC
  5
207
  8
┌▓È_1
 62
     5
 10
-118.7704738005
 20
-234.45674551499999
 30
0.0
 40
3.5
 50
90.0
 51
270.0
  0
ARC
  5
208
  8
┌▓È_1
 62
     5
 10
-118.7704738005
 20
-249.45674551499999
 30
0.0
 40
3.5
 50
90.0
 51
270.0
  0
ARC
  5
209
  8
┌▓È_1
 62
     5
 10
-118.7704738005
 20
-264.45674551500002
 30
0.0
 40
3.5
 50
90.0
 51
270.0
  0
ARC
  5
20A
  8
┌▓È_1
 62
     5
 10
-145.12047380049989
 20
-204.45674551499999
 30
0.0
 40
3.5
 50
270.0
 51
90.0
  0
LINE
  5
20B
  8
┌▓È_1
 62
     5
 10
-160.12047380050001
 20
-207.95674551499999
 30
0.0
 11
-145.12047380049989
 21
-207.95674551499999
 31
0.0
  0
ARC
  5
20C
  8
┌▓È_1
 62
     5
 10
-259.67054671720001
 20
-249.4569675203
 30
0.0
 40
3.5
 50
90.0
 51
270.0
  0
ARC
  5
20D
  8
┌▓È_1
 62
     5
 10
-259.67054671720001
 20
-264.4569675203
 30
0.0
 40
3.5
 50
90.0
 51
270.0
  0
LINE
  5
20E
  8
┌▓È_1
 62
     5
 10
-145.12047380049989
 20
-185.95674551499999
 30
0.0
 11
-160.12047380050001
 21
-185.95674551499999
 31
0.0
  0
ARC
  5
20F
  8
┌▓È_1
 62
     5
 10
-301.02054671719998
 20
-189.4569675203
 30
0.0
 40
3.5
 50
90.0
 51
270.0
  0
ARC
  5
210
  8
┌▓È_1
 62
     5
 10
-368.72054671720002
 20
-189.4569675203
 30
0.0
 40
3.5
 50
270.0
 51
90.0
  0
ARC
  5
211
  8
┌▓È_1
 62
     5
 10
-383.72054671720002
 20
-189.4569675203
 30
0.0
 40
3.5
 50
90.0
 51
270.0
  0
LINE
  5
212
  8
┌▓È_1
 62
     5
 10
-383.72054671720002
 20
-192.9569675203
 30
0.0
 11
-368.72054671720002
 21
-192.9569675203
 31
0.0
  0
LINE
  5
213
  8
┌▓È_1
 62
     5
 10
-492.77054671719998
 20
-125.9569675203
 30
0.0
 11
-507.77054671719998
 21
-125.9569675203
 31
0.0
  0
LINE
  5
214
  8
┌▓È_1
 62
     5
 10
-507.77054671719998
 20
-132.9569675203
 30
0.0
 11
-492.77054671719998
 21
-132.9569675203
 31
0.0
  0
ARC
  5
215
  8
┌▓È_1
 62
     5
 10
-492.77054671719998
 20
-129.4569675203
 30
0.0
 40
3.5
 50
270.0
 51
90.0
  0
CIRCLE
  5
216
  8
┌▓È_1
 62
     5
 10
-193.9704738005
 20
-196.95674551499999
 30
0.0
 40
7.5
  0
ARC
  5
217
  8
┌▓È_1
 62
     5
 10
-160.12047380050001
 20
-189.45674551499999
 30
0.0
 40
3.5
 50
90.0
 51
270.0
  0
CIRCLE
  5
218
  8
┌▓È_1
 62
     5
 10
-252.17054671720001
 20
-196.9569675203
 30
0.0
 40
7.5
  0
ARC
  5
219
  8
┌▓È_1
 62
     5
 10
-286.02054671719998
 20
-189.4569675203
 30
0.0
 40
3.5
 50
270.0
 51
90.0
  0
ARC
  5
21A
  8
┌▓È_1
 62
     5
 10
-145.12047380049989
 20
-189.45674551499999
 30
0.0
 40
3.5
 50
270.0
 51
90.0
  0
LINE
  5
21B
  8
┌▓È_1
 62
     5
 10
-201.4704738005
 20
-230.95674551499999
 30
0.0
 11
-186.4704738005
 21
-230.95674551499999
 31
0.0
  0
ARC
  5
21C
  8
┌▓È_1
 62
     5
 10
-201.4704738005
 20
-234.45674551499999
 30
0.0
 40
3.5
 50
90.0
 51
270.0
  0
LINE
  5
21D
  8
┌▓È_1
 62
     5
 10
-259.67054671720001
 20
-230.9569675203
 30
0.0
 11
-244.67054671720001
 21
-230.9569675203
 31
0.0
  0
ARC
  5
21E
  8
┌▓È_1
 62
     5
 10
-244.67054671720001
 20
-234.4569675203
 30
0.0
 40
3.5
 50
270.0
 51
90.0
  0
ARC
  5
21F
  8
┌▓È_1
 62
     5
 10
-259.67054671720001
 20
-234.4569675203
 30
0.0
 40
3.5
 50
90.0
 51
270.0
  0
LINE
  5
220
  8
┌▓È_1
 62
     5
 10
-160.12047380050001
 20
-192.95674551499999
 30
0.0
 11
-145.12047380049989
 21
-192.95674551499999
 31
0.0
  0
LINE
  5
221
  8
┌▓È_1
 62
     5
 10
-145.12047380049989
 20
-200.95674551499999
 30
0.0
 11
-160.12047380050001
 21
-200.95674551499999
 31
0.0
  0
ARC
  5
222
  8
┌▓È_1
 62
     5
 10
-160.12047380050001
 20
-204.45674551499999
 30
0.0
 40
3.5
 50
90.0
 51
270.0
  0
ARC
  5
223
  8
┌▓È_1
 62
     5
 10
-286.02054671719998
 20
-204.4569675203
 30
0.0
 40
3.5
 50
270.0
 51
90.0
  0
ARC
  5
224
  8
┌▓È_1
 62
     5
 10
-201.4704738005
 20
-264.45674551500002
 30
0.0
 40
3.5
 50
90.0
 51
270.0
  0
LINE
  5
225
  8
┌▓È_1
 62
     5
 10
-186.4704738005
 20
-237.95674551499999
 30
0.0
 11
-201.4704738005
 21
-237.95674551499999
 31
0.0
  0
LINE
  5
226
  8
┌▓È_1
 62
     5
 10
-186.4704738005
 20
-267.95674551500002
 30
0.0
 11
-201.4704738005
 21
-267.95674551500002
 31
0.0
  0
LINE
  5
227
  8
┌▓È_1
 62
     5
 10
-244.67054671720001
 20
-237.9569675203
 30
0.0
 11
-259.67054671720001
 21
-237.9569675203
 31
0.0
  0
LINE
  5
228
  8
┌▓È_1
 62
     5
 10
-244.67054671720001
 20
-267.9569675203
 30
0.0
 11
-259.67054671720001
 21
-267.9569675203
 31
0.0
  0
LINE
  5
229
  8
┌▓È_1
 62
     5
 10
-259.67054671720001
 20
-260.9569675203
 30
0.0
 11
-244.67054671720001
 21
-260.9569675203
 31
0.0
  0
ARC
  5
22A
  8
┌▓È_1
 62
     5
 10
-244.67054671720001
 20
-264.4569675203
 30
0.0
 40
3.5
 50
270.0
 51
90.0
  0
LINE
  5
22B
  8
┌▓È_1
 62
     5
 10
-244.67054671720001
 20
-252.9569675203
 30
0.0
 11
-259.67054671720001
 21
-252.9569675203
 31
0.0
  0
ARC
  5
22C
  8
┌▓È_1
 62
     5
 10
-507.77054671719998
 20
-144.4569675203
 30
0.0
 40
3.5
 50
90.0
 51
270.0
  0
LINE
  5
22D
  8
┌▓È_1
 62
     5
 10
-492.77054671719998
 20
-140.9569675203
 30
0.0
 11
-507.77054671719998
 21
-140.9569675203
 31
0.0
  0
LINE
  5
22E
  8
┌▓È_1
 62
     5
 10
-507.77054671719998
 20
-147.9569675203
 30
0.0
 11
-492.77054671719998
 21
-147.9569675203
 31
0.0
  0
ARC
  5
22F
  8
┌▓È_1
 62
     5
 10
-492.77054671719998
 20
-144.4569675203
 30
0.0
 40
3.5
 50
270.0
 51
90.0
  0
ARC
  5
230
  8
┌▓È_1
 62
     5
 10
-507.77054671719998
 20
-159.4569675203
 30
0.0
 40
3.5
 50
90.0
 51
270.0
  0
LINE
  5
231
  8
┌▓È_1
 62
     5
 10
-492.77054671719998
 20
-155.9569675203
 30
0.0
 11
-507.77054671719998
 21
-155.9569675203
 31
0.0
  0
LINE
  5
232
  8
┌▓È_1
 62
     5
 10
-507.77054671719998
 20
-162.9569675203
 30
0.0
 11
-492.77054671719998
 21
-162.9569675203
 31
0.0
  0
ARC
  5
233
  8
┌▓È_1
 62
     5
 10
-492.77054671719998
 20
-159.4569675203
 30
0.0
 40
3.5
 50
270.0
 51
90.0
  0
ARC
  5
234
  8
┌▓È_1
 62
     5
 10
-590.47054671720002
 20
-129.4569675203
 30
0.0
 40
3.5
 50
90.0
 51
270.0
  0
LINE
  5
235
  8
┌▓È_1
 62
     5
 10
-575.47054671720002
 20
-125.9569675203
 30
0.0
 11
-590.47054671720002
 21
-125.9569675203
 31
0.0
  0
LINE
  5
236
  8
┌▓È_1
 62
     5
 10
-590.47054671720002
 20
-132.9569675203
 30
0.0
 11
-575.47054671720002
 21
-132.9569675203
 31
0.0
  0
ARC
  5
237
  8
┌▓È_1
 62
     5
 10
-575.47054671720002
 20
-129.4569675203
 30
0.0
 40
3.5
 50
270.0
 51
90.0
  0
ARC
  5
238
  8
┌▓È_1
 62
     5
 10
-590.47054671720002
 20
-144.4569675203
 30
0.0
 40
3.5
 50
90.0
 51
270.0
  0
LINE
  5
239
  8
┌▓È_1
 62
     5
 10
-575.47054671720002
 20
-140.9569675203
 30
0.0
 11
-590.47054671720002
 21
-140.9569675203
 31
0.0
  0
LINE
  5
23A
  8
┌▓È_1
 62
     5
 10
-590.47054671720002
 20
-147.9569675203
 30
0.0
 11
-575.47054671720002
 21
-147.9569675203
 31
0.0
  0
ARC
  5
23B
  8
┌▓È_1
 62
     5
 10
-575.47054671720002
 20
-144.4569675203
 30
0.0
 40
3.5
 50
270.0
 51
90.0
  0
ARC
  5
23C
  8
┌▓È_1
 62
     5
 10
-590.47054671720002
 20
-159.4569675203
 30
0.0
 40
3.5
 50
90.0
 51
270.0
  0
LINE
  5
23D
  8
┌▓È_1
 62
     5
 10
-575.47054671720002
 20
-155.9569675203
 30
0.0
 11
-590.47054671720002
 21
-155.9569675203
 31
0.0
  0
LINE
  5
23E
  8
┌▓È_1
 62
     5
 10
-590.47054671720002
 20
-162.9569675203
 30
0.0
 11
-575.47054671720002
 21
-162.9569675203
 31
0.0
  0
ARC
  5
23F
  8
┌▓È_1
 62
     5
 10
-575.47054671720002
 20
-159.4569675203
 30
0.0
 40
3.5
 50
270.0
 51
90.0
  0
LINE
  5
240
  8
┌▓È_1
 62
     5
 10
-610.07054671720005
 20
-109.4565456453
 30
0.0
 11
-610.07054671720005
 21
-107.4565456453
 31
0.0
  0
LINE
  5
241
  8
┌▓È_1
 62
     5
 10
-610.07054671720005
 20
-109.4565456453
 30
0.0
 11
-612.07054671720005
 21
-109.4565456453
 31
0.0
  0
ARC
  5
242
  8
┌▓È_1
 62
     5
 10
-425.07054671719987
 20
-144.4569675203
 30
0.0
 40
3.5
 50
90.0
 51
270.0
  0
ARC
  5
243
  8
┌▓È_1
 62
     5
 10
-425.07054671719987
 20
-129.4569675203
 30
0.0
 40
3.5
 50
90.0
 51
270.0
  0
ARC
  5
244
  8
┌▓È_1
 62
     5
 10
-425.07054671719987
 20
-159.4569675203
 30
0.0
 40
3.5
 50
90.0
 51
270.0
  0
LINE
  5
245
  8
┌▓È_1
 62
     5
 10
-466.42054671720001
 20
-192.9569675203
 30
0.0
 11
-451.42054671720001
 21
-192.9569675203
 31
0.0
  0
ARC
  5
246
  8
┌▓È_1
 62
     5
 10
-425.07054671719987
 20
-249.4569675203
 30
0.0
 40
3.5
 50
90.0
 51
270.0
  0
ARC
  5
247
  8
┌▓È_1
 62
     5
 10
-425.07054671719987
 20
-264.4569675203
 30
0.0
 40
3.5
 50
90.0
 51
270.0
  0
ARC
  5
248
  8
┌▓È_1
 62
     5
 10
-549.1205467172
 20
-204.4569675203
 30
0.0
 40
3.5
 50
90.0
 51
270.0
  0
LINE
  5
249
  8
┌▓È_1
 62
     5
 10
-534.1205467172
 20
-200.9569675203
 30
0.0
 11
-549.1205467172
 21
-200.9569675203
 31
0.0
  0
ARC
  5
24A
  8
┌▓È_1
 62
     5
 10
-534.1205467172
 20
-204.4569675203
 30
0.0
 40
3.5
 50
270.0
 51
90.0
  0
LINE
  5
24B
  8
┌▓È_1
 62
     5
 10
-549.1205467172
 20
-207.9569675203
 30
0.0
 11
-534.1205467172
 21
-207.9569675203
 31
0.0
  0
LINE
  5
24C
  8
┌▓È_1
 62
     5
 10
-549.1205467172
 20
-192.9569675203
 30
0.0
 11
-534.1205467172
 21
-192.9569675203
 31
0.0
  0
ARC
  5
24D
  8
┌▓È_1
 62
     5
 10
-466.42054671720001
 20
-204.4569675203
 30
0.0
 40
3.5
 50
90.0
 51
270.0
  0
ARC
  5
24E
  8
┌▓È_1
 62
     5
 10
-507.77054671719998
 20
-249.4569675203
 30
0.0
 40
3.5
 50
90.0
 51
270.0
  0
LINE
  5
24F
  8
┌▓È_1
 62
     5
 10
-492.77054671719998
 20
-267.9569675203
 30
0.0
 11
-507.77054671719998
 21
-267.9569675203
 31
0.0
  0
ARC
  5
250
  8
┌▓È_1
 62
     5
 10
-492.77054671719998
 20
-249.4569675203
 30
0.0
 40
3.5
 50
270.0
 51
90.0
  0
ARC
  5
251
  8
┌▓È_1
 62
     5
 10
-507.77054671719998
 20
-264.4569675203
 30
0.0
 40
3.5
 50
90.0
 51
270.0
  0
LINE
  5
252
  8
┌▓È_1
 62
     5
 10
-507.77054671719998
 20
-260.9569675203
 30
0.0
 11
-492.77054671719998
 21
-260.9569675203
 31
0.0
  0
ARC
  5
253
  8
┌▓È_1
 62
     5
 10
-492.77054671719998
 20
-264.4569675203
 30
0.0
 40
3.5
 50
270.0
 51
90.0
  0
LINE
  5
254
  8
┌▓È_1
 62
     5
 10
-575.47054671720002
 20
-267.9569675203
 30
0.0
 11
-590.47054671720002
 21
-267.9569675203
 31
0.0
  0
LINE
  5
255
  8
┌▓È_1
 62
     5
 10
-451.42054671720001
 20
-200.9569675203
 30
0.0
 11
-466.42054671720001
 21
-200.9569675203
 31
0.0
  0
LINE
  5
256
  8
┌▓È_1
 62
     5
 10
-466.42054671720001
 20
-207.9569675203
 30
0.0
 11
-451.42054671720001
 21
-207.9569675203
 31
0.0
  0
LINE
  5
257
  8
┌▓È_1
 62
     5
 10
-590.47054671720002
 20
-260.9569675203
 30
0.0
 11
-575.47054671720002
 21
-260.9569675203
 31
0.0
  0
LINE
  5
258
  8
┌▓È_1
 62
     5
 10
-590.47054671720002
 20
-230.9569675203
 30
0.0
 11
-575.47054671720002
 21
-230.9569675203
 31
0.0
  0
ARC
  5
259
  8
┌▓È_1
 62
     5
 10
-575.47054671720002
 20
-234.4569675203
 30
0.0
 40
3.5
 50
270.0
 51
90.0
  0
LINE
  5
25A
  8
┌▓È_1
 62
     5
 10
-534.1205467172
 20
-185.9569675203
 30
0.0
 11
-549.1205467172
 21
-185.9569675203
 31
0.0
  0
LINE
  5
25B
  8
┌▓È_1
 62
     5
 10
-451.42054671720001
 20
-185.9569675203
 30
0.0
 11
-466.42054671720001
 21
-185.9569675203
 31
0.0
  0
DIMENSION
  5
26A
  8
Éíû@É³
 62
     5
  2
*D15
 10
-612.97076102829988
 20
-63.5124767366
 30
0.0
 11
-617.45040037959996
 21
-63.5124767366
 31
0.0
 70
   128
  1
<>
 13
-612.97076102829988
 23
-106.9565456453
 33
0.0
 14
-621.97076102829988
 24
-97.956545645300025
 34
0.0
  0
ARC
  5
26B
  8
┌▓È_1
 62
     5
 10
-507.77054671719998
 20
-129.4569675203
 30
0.0
 40
3.5
 50
90.0
 51
270.0
  0
ARC
  5
26C
  8
┌▓È_1
 62
     5
 10
-466.42054671720001
 20
-189.4569675203
 30
0.0
 40
3.5
 50
90.0
 51
270.0
  0
ARC
  5
26D
  8
┌▓È_1
 62
     5
 10
-549.1205467172
 20
-189.4569675203
 30
0.0
 40
3.5
 50
90.0
 51
270.0
  0
CIRCLE
  5
26E
  8
┌▓È_1
 62
     5
 10
-582.97054671720002
 20
-196.9569675203
 30
0.0
 40
7.5
  0
ARC
  5
26F
  8
┌▓È_1
 62
     5
 10
-451.42054671720001
 20
-189.4569675203
 30
0.0
 40
3.5
 50
270.0
 51
90.0
  0
ARC
  5
270
  8
┌▓È_1
 62
     5
 10
-451.42054671720001
 20
-204.4569675203
 30
0.0
 40
3.5
 50
270.0
 51
90.0
  0
ARC
  5
271
  8
┌▓È_1
 62
     5
 10
-575.47054671720002
 20
-264.4569675203
 30
0.0
 40
3.5
 50
270.0
 51
90.0
  0
LINE
  5
272
  8
┌▓È_1
 62
     5
 10
-492.77054671719998
 20
-237.9569675203
 30
0.0
 11
-507.77054671719998
 21
-237.9569675203
 31
0.0
  0
LINE
  5
273
  8
┌▓È_1
 62
     5
 10
-492.77054671719998
 20
-252.9569675203
 30
0.0
 11
-507.77054671719998
 21
-252.9569675203
 31
0.0
  0
LINE
  5
274
  8
┌▓È_1
 62
     5
 10
-507.77054671719998
 20
-245.9569675203
 30
0.0
 11
-492.77054671719998
 21
-245.9569675203
 31
0.0
  0
ARC
  5
275
  8
┌▓È_1
 62
     5
 10
-590.47054671720002
 20
-249.4569675203
 30
0.0
 40
3.5
 50
90.0
 51
270.0
  0
LINE
  5
276
  8
┌▓È_1
 62
     5
 10
-575.47054671720002
 20
-252.9569675203
 30
0.0
 11
-590.47054671720002
 21
-252.9569675203
 31
0.0
  0
LINE
  5
277
  8
┌▓È_1
 62
     5
 10
-590.47054671720002
 20
-245.9569675203
 30
0.0
 11
-575.47054671720002
 21
-245.9569675203
 31
0.0
  0
ARC
  5
278
  8
┌▓È_1
 62
     5
 10
-575.47054671720002
 20
-249.4569675203
 30
0.0
 40
3.5
 50
270.0
 51
90.0
  0
LINE
  5
279
  8
┌▓È_1
 62
     5
 10
-575.47054671720002
 20
-237.9569675203
 30
0.0
 11
-590.47054671720002
 21
-237.9569675203
 31
0.0
  0
ARC
  5
27A
  8
┌▓È_1
 62
     5
 10
-590.47054671720002
 20
-264.4569675203
 30
0.0
 40
3.5
 50
90.0
 51
270.0
  0
LINE
  5
27B
  8
┌▓È_1
 62
     5
 10
-610.07054671720005
 20
-284.45654564530003
 30
0.0
 11
-610.07054671720005
 21
-286.45654564530003
 31
0.0
  0
LINE
  5
27C
  8
┌▓È_1
 62
     5
 10
-610.07054671720005
 20
-284.45654564530003
 30
0.0
 11
-612.07054671720005
 21
-284.45654564530003
 31
0.0
  0
LINE
  5
27D
  8
┌▓È_1
 10
-621.97076102819995
 20
-378.00218822340003
 30
0.0
 11
-621.97076102819995
 21
-372.80218822339998
 31
0.0
  0
LINE
  5
27E
  8
┌▓È_1
 10
-621.17076102819988
 20
-396.00218822340003
 30
0.0
 11
-621.97076102819995
 21
-396.00218822340003
 31
0.0
  0
ARC
  5
27F
  8
┌▓È_1
 10
-621.17076102819988
 20
-372.80218822339998
 30
0.0
 40
0.8
 50
90.0
 51
180.0
  0
ARC
  5
280
  8
┌▓È_1
 62
     5
 10
-425.07054671719987
 20
-234.4569675203
 30
0.0
 40
3.5
 50
90.0
 51
270.0
  0
ARC
  5
281
  8
┌▓È_1
 62
     5
 10
-507.77054671719998
 20
-234.4569675203
 30
0.0
 40
3.5
 50
90.0
 51
270.0
  0
LINE
  5
282
  8
┌▓È_1
 62
     5
 10
-507.77054671719998
 20
-230.9569675203
 30
0.0
 11
-492.77054671719998
 21
-230.9569675203
 31
0.0
  0
ARC
  5
283
  8
┌▓È_1
 62
     5
 10
-492.77054671719998
 20
-234.4569675203
 30
0.0
 40
3.5
 50
270.0
 51
90.0
  0
ARC
  5
284
  8
┌▓È_1
 62
     5
 10
-590.47054671720002
 20
-234.4569675203
 30
0.0
 40
3.5
 50
90.0
 51
270.0
  0
LINE
  5
285
  8
┌▓È_1
 62
     5
 10
-131.14474145330001
 20
-493.8254528306
 30
0.0
 11
-119.1447414533
 21
-493.8254528306
 31
0.0
  0
ARC
  5
286
  8
┌▓È_1
 62
     5
 10
-131.14474145330001
 20
-493.8254528306
 30
0.0
 40
2.0
 50
90.0
 51
180.0000386554
  0
ARC
  5
287
  8
┌▓È_1
 62
     5
 10
-259.67054671720001
 20
-543.82587470559986
 30
0.0
 40
3.5
 50
90.0
 51
270.0
  0
ARC
  5
288
  8
┌▓È_1
 62
     5
 10
-259.67054671720001
 20
-528.82587470559997
 30
0.0
 40
3.5
 50
90.0
 51
270.0
  0
ARC
  5
289
  8
┌▓È_1
 62
     5
 10
-259.67054671720001
 20
-513.82587470559986
 30
0.0
 40
3.5
 50
90.0
 51
270.0
  0
ARC
  5
28A
  8
┌▓È_1
 62
     5
 10
-286.02054671719998
 20
-588.82587470559986
 30
0.0
 40
3.5
 50
270.0
 51
90.0
  0
ARC
  5
28B
  8
┌▓È_1
 62
     5
 10
-286.02054671719998
 20
-573.82587470559997
 30
0.0
 40
3.5
 50
270.0
 51
90.0
  0
ARC
  5
28C
  8
┌▓È_1
 62
     5
 10
-244.67054671720001
 20
-543.82587470559986
 30
0.0
 40
3.5
 50
270.0
 51
90.0
  0
LINE
  5
28D
  8
┌▓È_1
 62
     5
 10
-259.67054671720001
 20
-547.32587470559986
 30
0.0
 11
-244.67054671720001
 21
-547.32587470559986
 31
0.0
  0
LINE
  5
28E
  8
┌▓È_1
 62
     5
 10
-244.67054671720001
 20
-540.32587470559986
 30
0.0
 11
-259.67054671720001
 21
-540.32587470559986
 31
0.0
  0
ARC
  5
28F
  8
┌▓È_1
 62
     5
 10
-244.67054671720001
 20
-528.82587470559997
 30
0.0
 40
3.5
 50
270.0
 51
90.0
  0
LINE
  5
290
  8
┌▓È_1
 62
     5
 10
-259.67054671720001
 20
-532.32587470559997
 30
0.0
 11
-244.67054671720001
 21
-532.32587470559997
 31
0.0
  0
LINE
  5
291
  8
┌▓È_1
 62
     5
 10
-244.67054671720001
 20
-525.32587470559986
 30
0.0
 11
-259.67054671720001
 21
-525.32587470559986
 31
0.0
  0
ARC
  5
292
  8
┌▓È_1
 62
     5
 10
-244.67054671720001
 20
-513.82587470559986
 30
0.0
 40
3.5
 50
270.0
 51
90.0
  0
LINE
  5
293
  8
┌▓È_1
 62
     5
 10
-259.67054671720001
 20
-517.32587470559986
 30
0.0
 11
-244.67054671720001
 21
-517.32587470559986
 31
0.0
  0
LINE
  5
294
  8
┌▓È_1
 62
     5
 10
-244.67054671720001
 20
-510.32587470559992
 30
0.0
 11
-259.67054671720001
 21
-510.32587470559992
 31
0.0
  0
LINE
  5
295
  8
┌▓È_1
 62
     5
 10
-225.07054671719999
 20
-493.8254528306
 30
0.0
 11
-223.07054671719999
 21
-493.8254528306
 31
0.0
  0
LINE
  5
296
  8
┌▓È_1
 62
     5
 10
-225.07054671719999
 20
-493.8254528306
 30
0.0
 11
-225.07054671719999
 21
-491.82545283059989
 31
0.0
  0
CIRCLE
  5
297
  8
┌▓È_1
 62
     5
 10
-252.17054671720001
 20
-581.32587470559986
 30
0.0
 40
7.5
  0
LINE
  5
298
  8
┌▓È_1
  6
BORDER
 62
     3
 10
-252.17054671720001
 20
-568.82587470559986
 30
0.0
 11
-252.17054671720001
 21
-593.82587470559986
 31
0.0
  0
ARC
  5
299
  8
┌▓È_1
 62
     5
 10
-342.3705467172
 20
-513.82587470559986
 30
0.0
 40
3.5
 50
90.0
 51
270.0
  0
INSERT
  5
29B
  8
Éíû@É³
  2
BALLON0
 10
0.0
 20
0.0
 30
0.0
  0
INSERT
  5
2A5
  8
Éíû@É³
  2
BALLON1
 10
0.0
 20
0.0
 30
0.0
  0
INSERT
  5
2AF
  8
Éíû@É³
  2
BALLON2
 10
0.0
 20
0.0
 30
0.0
  0
ARC
  5
2B8
  8
┌▓È_1
 62
     5
 10
-534.1205467172
 20
-189.4569675203
 30
0.0
 40
3.5
 50
270.0
 51
90.0
  0
ARC
  5
2B9
  8
┌▓È_1
 62
     5
 10
-383.72054671720002
 20
-573.82587470559997
 30
0.0
 40
3.5
 50
90.0
 51
270.0
  0
LINE
  5
2BA
  8
┌▓È_1
 62
     5
 10
-368.72054671720002
 20
-570.32587470559997
 30
0.0
 11
-383.72054671720002
 21
-570.32587470559997
 31
0.0
  0
ARC
  5
2BB
  8
┌▓È_1
 62
     5
 10
-327.3705467172
 20
-543.82587470559986
 30
0.0
 40
3.5
 50
270.0
 51
90.0
  0
LINE
  5
2BC
  8
┌▓È_1
 62
     5
 10
-342.3705467172
 20
-547.32587470559986
 30
0.0
 11
-327.3705467172
 21
-547.32587470559986
 31
0.0
  0
LINE
  5
2BD
  8
┌▓È_1
 62
     5
 10
-327.3705467172
 20
-540.32587470559986
 30
0.0
 11
-342.3705467172
 21
-540.32587470559986
 31
0.0
  0
ARC
  5
2BE
  8
┌▓È_1
 62
     5
 10
-342.3705467172
 20
-543.82587470559986
 30
0.0
 40
3.5
 50
90.0
 51
270.0
  0
LINE
  5
2BF
  8
┌▓È_1
 62
     5
 10
-342.3705467172
 20
-532.32587470559997
 30
0.0
 11
-327.3705467172
 21
-532.32587470559997
 31
0.0
  0
LINE
  5
2C0
  8
┌▓È_1
 62
     5
 10
-327.3705467172
 20
-525.32587470559986
 30
0.0
 11
-342.3705467172
 21
-525.32587470559986
 31
0.0
  0
ARC
  5
2C1
  8
┌▓È_1
 62
     5
 10
-342.3705467172
 20
-528.82587470559997
 30
0.0
 40
3.5
 50
90.0
 51
270.0
  0
ARC
  5
2C2
  8
┌▓È_1
 62
     5
 10
-368.72054671720002
 20
-573.82587470559997
 30
0.0
 40
3.5
 50
270.0
 51
90.0
  0
LINE
  5
2C3
  8
┌▓È_1
 62
     5
 10
-383.72054671720002
 20
-577.32587470559986
 30
0.0
 11
-368.72054671720002
 21
-577.32587470559986
 31
0.0
  0
ARC
  5
2C4
  8
┌▓È_1
 62
     5
 10
-368.72054671720002
 20
-588.82587470559986
 30
0.0
 40
3.5
 50
270.0
 51
90.0
  0
LINE
  5
2C5
  8
┌▓È_1
 62
     5
 10
-383.72054671720002
 20
-592.32587470559986
 30
0.0
 11
-368.72054671720002
 21
-592.32587470559986
 31
0.0
  0
LINE
  5
2C6
  8
┌▓È_1
 62
     5
 10
-368.72054671720002
 20
-585.32587470559986
 30
0.0
 11
-383.72054671720002
 21
-585.32587470559986
 31
0.0
  0
LINE
  5
2C7
  8
┌▓È_1
 62
     5
 10
-342.3705467172
 20
-517.32587470559986
 30
0.0
 11
-327.3705467172
 21
-517.32587470559986
 31
0.0
  0
LINE
  5
2C8
  8
┌▓È_1
 62
     5
 10
-327.3705467172
 20
-510.32587470559992
 30
0.0
 11
-342.3705467172
 21
-510.32587470559992
 31
0.0
  0
LINE
  5
2C9
  8
┌▓È_1
 62
     5
 10
-301.02054671719998
 20
-592.32587470559986
 30
0.0
 11
-286.02054671719998
 21
-592.32587470559986
 31
0.0
  0
LINE
  5
2CA
  8
┌▓È_1
 62
     5
 10
-286.02054671719998
 20
-585.32587470559986
 30
0.0
 11
-301.02054671719998
 21
-585.32587470559986
 31
0.0
  0
LINE
  5
2CB
  8
┌▓È_1
 62
     5
 10
-301.02054671719998
 20
-577.32587470559986
 30
0.0
 11
-286.02054671719998
 21
-577.32587470559986
 31
0.0
  0
LINE
  5
2CC
  8
┌▓È_1
 62
     5
 10
-286.02054671719998
 20
-570.32587470559997
 30
0.0
 11
-301.02054671719998
 21
-570.32587470559997
 31
0.0
  0
ARC
  5
2CD
  8
┌▓È_1
 62
     5
 10
-301.02054671719998
 20
-588.82587470559986
 30
0.0
 40
3.5
 50
90.0
 51
270.0
  0
ARC
  5
2CE
  8
┌▓È_1
 62
     5
 10
-301.02054671719998
 20
-573.82587470559997
 30
0.0
 40
3.5
 50
90.0
 51
270.0
  0
LINE
  5
2CF
  8
┌▓È_1
 62
     5
 10
-131.14474145330001
 20
-491.82545283059989
 30
0.0
 11
-119.1447414533
 21
-491.82545283059989
 31
0.0
  0
LINE
  5
2D0
  8
┌▓È_1
  6
BORDER
 62
     3
 10
-139.14474145330001
 20
-581.32545283059994
 30
0.0
 11
-114.1447414533
 21
-581.32545283059994
 31
0.0
  0
LINE
  5
2D1
  8
┌▓È_1
 62
     5
 10
-119.1447414533
 20
-491.82545283059989
 30
0.0
 11
-119.1447414533
 21
-493.8254528306
 31
0.0
  0
LINE
  5
2D2
  8
┌▓È_1
 62
     5
 10
-225.07054671719999
 20
-749.68917104789978
 30
0.0
 11
-225.07054671719999
 21
-761.68917104789989
 31
0.0
  0
LINE
  5
2D3
  8
┌▓È_1
 62
     5
 10
-131.14474145330001
 20
-668.82545283059994
 30
0.0
 11
-119.1447414533
 21
-668.82545283059994
 31
0.0
  0
LINE
  5
2D4
  8
┌▓È_1
 62
     5
 10
-131.14474109689999
 20
-670.82545283059994
 30
0.0
 11
-119.1447414533
 21
-670.82545283059994
 31
0.0
  0
LINE
  5
2D5
  8
┌▓È_1
 62
     5
 10
-119.1447414533
 20
-670.82545283059994
 30
0.0
 11
-119.1447414533
 21
-668.82545283059994
 31
0.0
  0
ARC
  5
2D6
  8
┌▓È_1
 62
     5
 10
-131.14474145330001
 20
-668.82545283059994
 30
0.0
 40
2.0
 50
180.0
 51
270.00001020809998
  0
ARC
  5
2D7
  8
┌▓È_1
 62
     5
 10
-259.67054671720001
 20
-648.82587470559997
 30
0.0
 40
3.5
 50
90.0
 51
270.0
  0
ARC
  5
2D8
  8
┌▓È_1
 62
     5
 10
-259.67054671720001
 20
-633.82587470559986
 30
0.0
 40
3.5
 50
90.0
 51
270.0
  0
ARC
  5
2D9
  8
┌▓È_1
 62
     5
 10
-244.67054671720001
 20
-633.82587470559986
 30
0.0
 40
3.5
 50
270.0
 51
90.0
  0
LINE
  5
2DA
  8
┌▓È_1
 62
     5
 10
-259.67054671720001
 20
-630.32587470559986
 30
0.0
 11
-244.67054671720001
 21
-630.32587470559986
 31
0.0
  0
LINE
  5
2DB
  8
┌▓È_1
 62
     5
 10
-244.67054671720001
 20
-637.32587470559997
 30
0.0
 11
-259.67054671720001
 21
-637.32587470559997
 31
0.0
  0
ARC
  5
2DC
  8
┌▓È_1
 62
     5
 10
-244.67054671720001
 20
-648.82587470559997
 30
0.0
 40
3.5
 50
270.0
 51
90.0
  0
LINE
  5
2DD
  8
┌▓È_1
 62
     5
 10
-259.67054671720001
 20
-645.32587470559997
 30
0.0
 11
-244.67054671720001
 21
-645.32587470559997
 31
0.0
  0
LINE
  5
2DE
  8
┌▓È_1
 62
     5
 10
-244.67054671720001
 20
-652.32587470559986
 30
0.0
 11
-259.67054671720001
 21
-652.32587470559986
 31
0.0
  0
LINE
  5
2DF
  8
┌▓È_1
 62
     5
 10
-244.67054671720001
 20
-622.32587470559986
 30
0.0
 11
-259.67054671720001
 21
-622.32587470559986
 31
0.0
  0
LINE
  5
2E0
  8
┌▓È_1
 62
     5
 10
-259.67054671720001
 20
-615.32587470559997
 30
0.0
 11
-244.67054671720001
 21
-615.32587470559997
 31
0.0
  0
LINE
  5
2E1
  8
┌▓È_1
 62
     5
 10
-342.3705467172
 20
-615.32587470559997
 30
0.0
 11
-327.3705467172
 21
-615.32587470559997
 31
0.0
  0
DIMENSION
  5
2F0
  8
Éíû@É³
 62
     5
  2
*D19
 10
-195.07054671719999
 20
-513.82587470559986
 30
0.0
 11
-195.07054671719999
 21
-502.8256637680999
 31
0.0
 70
   128
  1
<>
 13
-241.17054671720001
 23
-513.82587470559986
 33
0.0
 14
-225.07054671719999
 24
-491.82545283059989
 34
0.0
 50
90.0
  0
DIMENSION
  5
2FF
  8
Éíû@É³
 62
     5
  2
*D20
 10
-119.1447414533
 20
-469.74055674300001
 30
0.0
 11
-126.1447414533
 21
-469.74055674300001
 31
0.0
 70
   128
  1
<>
 13
-119.1447414533
 23
-491.82545283059989
 33
0.0
 14
-133.14474145330001
 24
-493.82545417990002
 34
0.0
  0
DIMENSION
  5
30E
  8
Éíû@É³
 62
     5
  2
*D21
 10
-195.07054976890001
 20
-588.82587470559986
 30
0.0
 11
-195.07054976890001
 21
-581.32587470559986
 31
0.0
 70
   128
  1
<>
 13
-282.52054671720009
 23
-588.82587470559986
 33
0.0
 14
-282.52054671720009
 24
-573.82587470559997
 34
0.0
 50
90.0
  0
DIMENSION
  5
31D
  8
Éíû@É³
 62
     5
  2
*D22
 10
-195.07054824299999
 20
-573.82587470559997
 30
0.0
 11
-195.07054824299999
 21
-558.82587470559986
 31
0.0
 70
   128
  1
<>
 13
-282.52054671720009
 23
-573.82587470559997
 33
0.0
 14
-241.17054671720001
 24
-543.82587470559986
 34
0.0
 50
90.0
  0
DIMENSION
  5
32C
  8
Éíû@É³
 62
     5
  2
*D23
 10
-195.07054824299999
 20
-543.82587470559986
 30
0.0
 11
-195.07054824299999
 21
-536.32587470559997
 31
0.0
 70
   128
  1
<>
 13
-241.17054671720001
 23
-543.82587470559986
 33
0.0
 14
-241.17054671720001
 24
-528.82587470559997
 34
0.0
 50
90.0
  0
DIMENSION
  5
33B
  8
Éíû@É³
 62
     5
  2
*D24
 10
-195.07054824299999
 20
-528.82587470559997
 30
0.0
 11
-195.07054824299999
 21
-521.32587470559986
 31
0.0
 70
   128
  1
<>
 13
-241.17054671720001
 23
-528.82587470559997
 33
0.0
 14
-241.17054671720001
 24
-513.82587470559986
 34
0.0
 50
90.0
  0
ARC
  5
33C
  8
┌▓È_1
 62
     5
 10
-327.3705467172
 20
-528.82587470559997
 30
0.0
 40
3.5
 50
270.0
 51
90.0
  0
ARC
  5
33D
  8
┌▓È_1
 62
     5
 10
-327.3705467172
 20
-513.82587470559986
 30
0.0
 40
3.5
 50
270.0
 51
90.0
  0
ARC
  5
33E
  8
┌▓È_1
 62
     5
 10
-383.72054671720002
 20
-588.82587470559986
 30
0.0
 40
3.5
 50
90.0
 51
270.0
  0
LINE
  5
33F
  8
┌▓È_1
 62
     5
 10
-575.47054671720002
 20
-510.32587470559992
 30
0.0
 11
-590.47054671720002
 21
-510.32587470559992
 31
0.0
  0
ARC
  5
340
  8
┌▓È_1
 62
     5
 10
-590.47054671720002
 20
-513.82587470559986
 30
0.0
 40
3.5
 50
90.0
 51
270.0
  0
ARC
  5
341
  8
┌▓È_1
 62
     5
 10
-466.42054671720001
 20
-588.82587470559986
 30
0.0
 40
3.5
 50
90.0
 51
270.0
  0
LINE
  5
342
  8
┌▓È_1
 62
     5
 10
-549.1205467172
 20
-577.32587470559986
 30
0.0
 11
-534.1205467172
 21
-577.32587470559986
 31
0.0
  0
LINE
  5
343
  8
┌▓È_1
 62
     5
 10
-534.1205467172
 20
-570.32587470559997
 30
0.0
 11
-549.1205467172
 21
-570.32587470559997
 31
0.0
  0
ARC
  5
344
  8
┌▓È_1
 62
     5
 10
-549.1205467172
 20
-573.82587470559997
 30
0.0
 40
3.5
 50
90.0
 51
270.0
  0
ARC
  5
345
  8
┌▓È_1
 62
     5
 10
-425.07054671719987
 20
-543.82587470559986
 30
0.0
 40
3.5
 50
90.0
 51
270.0
  0
DIMENSION
  5
354
  8
Éíû@É³
 62
     5
  2
*D25
 10
-195.07054824299999
 20
-648.82587470559997
 30
0.0
 11
-195.07054824299999
 21
-641.32587470559997
 31
0.0
 70
   128
  1
<>
 13
-241.17054671720001
 23
-648.82587470559997
 33
0.0
 14
-241.17054671720001
 24
-633.82587470559986
 34
0.0
 50
90.0
  0
DIMENSION
  5
363
  8
Éíû@É³
 62
     5
  2
*D26
 10
-334.8705467172
 20
-698.82545127419985
 30
0.0
 11
-293.52054671719998
 21
-698.82545127419985
 31
0.0
 70
   128
  1
<>
 13
-334.8705467172
 23
-652.32587470559986
 33
0.0
 14
-252.17054671720001
 24
-652.32587470559986
 34
0.0
 50
180.0
  0
DIMENSION
  5
372
  8
Éíû@É³
 62
     5
  2
*D27
 10
-252.17054671720001
 20
-698.82545283059994
 30
0.0
 11
-237.6205467172
 21
-698.82545283059994
 31
0.0
 70
   128
  1
<>
 13
-252.17054671720001
 23
-652.32587470559986
 33
0.0
 14
-223.07054671719999
 24
-668.82545283059994
 34
0.0
 50
180.0
  0
DIMENSION
  5
381
  8
Éíû@É³
 62
     5
  2
*D28
 10
-195.07054671719999
 20
-670.82545283059994
 30
0.0
 11
-195.07054671719999
 21
-659.82566376809984
 31
0.0
 70
   128
  1
<>
 13
-225.07054671719999
 23
-670.82545283059994
 33
0.0
 14
-241.17054671720001
 24
-648.82587470559997
 34
0.0
 50
90.0
  0
LINE
  5
382
  8
┌▓È_1
 62
     5
 10
-327.3705467172
 20
-652.32587470559986
 30
0.0
 11
-342.3705467172
 21
-652.32587470559986
 31
0.0
  0
LINE
  5
383
  8
┌▓È_1
 62
     5
 10
-327.3705467172
 20
-637.32587470559997
 30
0.0
 11
-342.3705467172
 21
-637.32587470559997
 31
0.0
  0
ARC
  5
384
  8
┌▓È_1
 62
     5
 10
-342.3705467172
 20
-633.82587470559986
 30
0.0
 40
3.5
 50
90.0
 51
270.0
  0
ARC
  5
385
  8
┌▓È_1
 62
     5
 10
-342.3705467172
 20
-648.82587470559997
 30
0.0
 40
3.5
 50
90.0
 51
270.0
  0
ARC
  5
386
  8
┌▓È_1
 62
     5
 10
-327.3705467172
 20
-633.82587470559986
 30
0.0
 40
3.5
 50
270.0
 51
90.0
  0
LINE
  5
387
  8
┌▓È_1
 62
     5
 10
-342.3705467172
 20
-630.32587470559986
 30
0.0
 11
-327.3705467172
 21
-630.32587470559986
 31
0.0
  0
LINE
  5
388
  8
┌▓È_1
 62
     5
 10
-327.3705467172
 20
-622.32587470559986
 30
0.0
 11
-342.3705467172
 21
-622.32587470559986
 31
0.0
  0
LINE
  5
389
  8
┌▓È_1
 62
     5
 10
-342.3705467172
 20
-645.32587470559997
 30
0.0
 11
-327.3705467172
 21
-645.32587470559997
 31
0.0
  0
ARC
  5
38A
  8
┌▓È_1
 62
     5
 10
-327.3705467172
 20
-648.82587470559997
 30
0.0
 40
3.5
 50
270.0
 51
90.0
  0
LINE
  5
38B
  8
┌▓È_1
 62
     5
 10
-225.07054671719999
 20
-668.82545283059994
 30
0.0
 11
-225.07054671719999
 21
-670.82545283059994
 31
0.0
  0
LINE
  5
38C
  8
┌▓È_1
 62
     5
 10
-225.07054671719999
 20
-668.82545283059994
 30
0.0
 11
-223.07054671719999
 21
-668.82545283059994
 31
0.0
  0
ARC
  5
38D
  8
┌▓È_1
 62
     5
 10
-225.07054671719999
 20
-749.68917104789978
 30
0.0
 40
2.0
 50
0.0
 51
90.000038655400004
  0
LINE
  5
38E
  8
┌▓È_1
 62
     5
 10
-223.07054671719999
 20
-761.68917104789989
 30
0.0
 11
-225.07054671719999
 21
-761.68917104789989
 31
0.0
  0
LINE
  5
38F
  8
┌▓È_1
 62
     5
 10
-223.07054671719999
 20
-749.68917104789978
 30
0.0
 11
-223.07054671719999
 21
-761.68917104789989
 31
0.0
  0
ARC
  5
390
  8
┌▓È_1
 62
     5
 10
-549.1205467172
 20
-588.82587470559986
 30
0.0
 40
3.5
 50
90.0
 51
270.0
  0
ARC
  5
391
  8
┌▓È_1
 62
     5
 10
-534.1205467172
 20
-573.82587470559997
 30
0.0
 40
3.5
 50
270.0
 51
90.0
  0
LINE
  5
392
  8
┌▓È_1
 62
     5
 10
-507.77054671719998
 20
-547.32587470559986
 30
0.0
 11
-492.77054671719998
 21
-547.32587470559986
 31
0.0
  0
LINE
  5
393
  8
┌▓È_1
 62
     5
 10
-492.77054671719998
 20
-540.32587470559986
 30
0.0
 11
-507.77054671719998
 21
-540.32587470559986
 31
0.0
  0
LINE
  5
394
  8
┌▓È_1
 10
-500.27054671719998
 20
-510.32587470559992
 30
0.0
 11
-478.35289417569987
 21
-483.6142049732
 31
0.0
  0
SOLID
  5
395
  8
┌▓È_1
 10
-500.27054671719998
 20
-510.32587470559992
 30
0.0
 11
-498.13464496220001
 21
-505.6107031354
 31
0.0
 12
-497.94876239960001
 22
-507.49624978269998
 32
0.0
 13
-497.94876239960001
 23
-507.49624978269998
 33
0.0
  0
SOLID
  5
396
  8
┌▓È_1
 10
-500.27054671719998
 20
-510.32587470559992
 30
0.0
 11
-496.06321575229998
 21
-507.31036722019991
 31
0.0
 12
-497.94876239960001
 22
-507.49624978269998
 32
0.0
 13
-497.94876239960001
 23
-507.49624978269998
 33
0.0
  0
LINE
  5
397
  8
┌▓È_1
 62
     5
 10
-610.07054671720005
 20
-493.8254528306
 30
0.0
 11
-612.07054671720005
 21
-493.8254528306
 31
0.0
  0
LINE
  5
398
  8
┌▓È_1
 62
     5
 10
-610.07054671720005
 20
-493.8254528306
 30
0.0
 11
-610.07054671720005
 21
-491.82545283059989
 31
0.0
  0
ARC
  5
399
  8
┌▓È_1
 62
     5
 10
-451.42054671720001
 20
-588.82587470559986
 30
0.0
 40
3.5
 50
270.0
 51
90.0
  0
LINE
  5
39A
  8
┌▓È_1
 62
     5
 10
-466.42054671720001
 20
-592.32587470559986
 30
0.0
 11
-451.42054671720001
 21
-592.32587470559986
 31
0.0
  0
LINE
  5
39B
  8
┌▓È_1
 62
     5
 10
-451.42054671720001
 20
-585.32587470559986
 30
0.0
 11
-466.42054671720001
 21
-585.32587470559986
 31
0.0
  0
ARC
  5
39C
  8
┌▓È_1
 62
     5
 10
-451.42054671720001
 20
-573.82587470559997
 30
0.0
 40
3.5
 50
270.0
 51
90.0
  0
ARC
  5
39D
  8
┌▓È_1
 62
     5
 10
-425.07054671719987
 20
-513.82587470559986
 30
0.0
 40
3.5
 50
90.0
 51
270.0
  0
ARC
  5
39E
  8
┌▓È_1
 62
     5
 10
-425.07054671719987
 20
-528.82587470559997
 30
0.0
 40
3.5
 50
90.0
 51
270.0
  0
ARC
  5
39F
  8
┌▓È_1
 62
     5
 10
-575.47054671720002
 20
-543.82587470559986
 30
0.0
 40
3.5
 50
270.0
 51
90.0
  0
LINE
  5
3A0
  8
┌▓È_1
 62
     5
 10
-590.47054671720002
 20
-547.32587470559986
 30
0.0
 11
-575.47054671720002
 21
-547.32587470559986
 31
0.0
  0
CIRCLE
  5
3A1
  8
┌▓È_1
 62
     5
 10
-582.97054671720002
 20
-581.32587470559986
 30
0.0
 40
7.5
  0
LINE
  5
3A2
  8
┌▓È_1
 62
     5
 10
-575.47054671720002
 20
-540.32587470559986
 30
0.0
 11
-590.47054671720002
 21
-540.32587470559986
 31
0.0
  0
ARC
  5
3A3
  8
┌▓È_1
 62
     5
 10
-590.47054671720002
 20
-543.82587470559986
 30
0.0
 40
3.5
 50
90.0
 51
270.0
  0
LINE
  5
3A4
  8
┌▓È_1
  6
BORDER
 62
     3
 10
-582.97054671720002
 20
-568.82587470559986
 30
0.0
 11
-582.97054671720002
 21
-593.82587470559986
 31
0.0
  0
ARC
  5
3A5
  8
┌▓È_1
 62
     5
 10
-575.47054671720002
 20
-528.82587470559997
 30
0.0
 40
3.5
 50
270.0
 51
90.0
  0
LINE
  5
3A6
  8
┌▓È_1
 62
     5
 10
-590.47054671720002
 20
-532.32587470559997
 30
0.0
 11
-575.47054671720002
 21
-532.32587470559997
 31
0.0
  0
LINE
  5
3A7
  8
┌▓È_1
 62
     5
 10
-575.47054671720002
 20
-525.32587470559986
 30
0.0
 11
-590.47054671720002
 21
-525.32587470559986
 31
0.0
  0
ARC
  5
3A8
  8
┌▓È_1
 62
     5
 10
-590.47054671720002
 20
-528.82587470559997
 30
0.0
 40
3.5
 50
90.0
 51
270.0
  0
ARC
  5
3A9
  8
┌▓È_1
 62
     5
 10
-575.47054671720002
 20
-513.82587470559986
 30
0.0
 40
3.5
 50
270.0
 51
90.0
  0
LINE
  5
3AA
  8
┌▓È_1
 62
     5
 10
-590.47054671720002
 20
-517.32587470559986
 30
0.0
 11
-575.47054671720002
 21
-517.32587470559986
 31
0.0
  0
LINE
  5
3AB
  8
┌▓È_1
  6
BORDER
 62
     3
 10
-417.57054671719987
 20
-741.68917104789978
 30
0.0
 11
-417.57054671719987
 21
-766.68917104789978
 31
0.0
  0
ARC
  5
3AC
  8
┌▓È_1
 62
     5
 10
-590.47054671720002
 20
-648.82587470559997
 30
0.0
 40
3.5
 50
90.0
 51
270.0
  0
LINE
  5
3AD
  8
┌▓È_1
 62
     5
 10
-575.47054671720002
 20
-622.32587470559986
 30
0.0
 11
-590.47054671720002
 21
-622.32587470559986
 31
0.0
  0
DIMENSION
  5
3B5
  8
Éíû@É³
 62
     5
  2
*D29
 10
-603.09124731300005
 20
-591.39175193430003
 30
0.0
 11
-615.0855266003
 21
-608.36503156920003
 31
0.0
 70
   131
  1
2-â│15
 15
-589.69964517630001
 25
-584.63416418329996
 35
0.0
 40
0.0
  0
DIMENSION
  5
3C4
  8
Éíû@É³
  2
*D30
 10
-489.27054671719998
 20
-606.90255393530003
 30
0.0
 11
-500.27054671719998
 21
-606.90255393530003
 31
0.0
 70
   128
  1
<>
 13
-489.27054671719998
 23
-618.82587470559986
 33
0.0
 14
-511.27054671719998
 24
-618.82587470559986
 34
0.0
  0
LINE
  5
3C5
  8
┌▓È_1
 62
     5
 10
-590.47054671720002
 20
-615.32587470559997
 30
0.0
 11
-575.47054671720002
 21
-615.32587470559997
 31
0.0
  0
LINE
  5
3C6
  8
┌▓È_1
 62
     5
 10
-507.77054671719998
 20
-615.32587470559997
 30
0.0
 11
-492.77054671719998
 21
-615.32587470559997
 31
0.0
  0
LINE
  5
3C7
  8
┌▓È_1
 62
     5
 10
-466.42054671720001
 20
-577.32587470559986
 30
0.0
 11
-451.42054671720001
 21
-577.32587470559986
 31
0.0
  0
LINE
  5
3C8
  8
┌▓È_1
 62
     5
 10
-451.42054671720001
 20
-570.32587470559997
 30
0.0
 11
-466.42054671720001
 21
-570.32587470559997
 31
0.0
  0
LINE
  5
3C9
  8
┌▓È_1
 10
-478.35289417569987
 20
-483.6142049732
 30
0.0
 11
-424.9762090619999
 21
-483.6142049732
 31
0.0
  0
INSERT
  5
3CA
  8
0
  6
CONTINUOUS
  2
*U79
 10
0.0
 20
0.0
 30
0.0
  0
ARC
  5
3CB
  8
┌▓È_1
 62
     5
 10
-492.77054671719998
 20
-543.82587470559986
 30
0.0
 40
3.5
 50
270.0
 51
90.0
  0
ARC
  5
3CC
  8
┌▓È_1
 62
     5
 10
-507.77054671719998
 20
-543.82587470559986
 30
0.0
 40
3.5
 50
90.0
 51
270.0
  0
LINE
  5
3CD
  8
┌▓È_1
 62
     5
 10
-549.1205467172
 20
-592.32587470559986
 30
0.0
 11
-534.1205467172
 21
-592.32587470559986
 31
0.0
  0
ARC
  5
3CE
  8
┌▓È_1
 62
     5
 10
-492.77054671719998
 20
-528.82587470559997
 30
0.0
 40
3.5
 50
270.0
 51
90.0
  0
LINE
  5
3CF
  8
┌▓È_1
 62
     5
 10
-507.77054671719998
 20
-532.32587470559997
 30
0.0
 11
-492.77054671719998
 21
-532.32587470559997
 31
0.0
  0
LINE
  5
3D0
  8
┌▓È_1
 62
     5
 10
-492.77054671719998
 20
-525.32587470559986
 30
0.0
 11
-507.77054671719998
 21
-525.32587470559986
 31
0.0
  0
ARC
  5
3D1
  8
┌▓È_1
 62
     5
 10
-507.77054671719998
 20
-528.82587470559997
 30
0.0
 40
3.5
 50
90.0
 51
270.0
  0
ARC
  5
3D2
  8
┌▓È_1
 62
     5
 10
-507.77054671719998
 20
-513.82587470559986
 30
0.0
 40
3.5
 50
90.0
 51
270.0
  0
ARC
  5
3D3
  8
┌▓È_1
 62
     5
 10
-492.77054671719998
 20
-513.82587470559986
 30
0.0
 40
3.5
 50
270.0
 51
90.0
  0
LINE
  5
3D4
  8
┌▓È_1
 62
     5
 10
-507.77054671719998
 20
-517.32587470559986
 30
0.0
 11
-492.77054671719998
 21
-517.32587470559986
 31
0.0
  0
LINE
  5
3D5
  8
┌▓È_1
 62
     5
 10
-492.77054671719998
 20
-510.32587470559992
 30
0.0
 11
-507.77054671719998
 21
-510.32587470559992
 31
0.0
  0
ARC
  5
3D6
  8
┌▓È_1
 62
     5
 10
-466.42054671720001
 20
-573.82587470559997
 30
0.0
 40
3.5
 50
90.0
 51
270.0
  0
ARC
  5
3D7
  8
┌▓È_1
 62
     5
 10
-534.1205467172
 20
-588.82587470559986
 30
0.0
 40
3.5
 50
270.0
 51
90.0
  0
LINE
  5
3D8
  8
┌▓È_1
 62
     5
 10
-534.1205467172
 20
-585.32587470559986
 30
0.0
 11
-549.1205467172
 21
-585.32587470559986
 31
0.0
  0
DIMENSION
  5
3E7
  8
Éíû@É³
 62
     5
  2
*D31
 10
-500.27054671719998
 20
-698.82545283059994
 30
0.0
 11
-458.92054671720001
 21
-698.82545283059994
 31
0.0
 70
   128
  1
<>
 13
-500.27054671719998
 23
-652.32587470559986
 33
0.0
 14
-417.57054671719987
 24
-675.82545283059994
 34
0.0
 50
180.0
  0
ARC
  5
3E8
  8
┌▓È_1
 62
     5
 10
-575.47054671720002
 20
-633.82587470559986
 30
0.0
 40
3.5
 50
270.0
 51
90.0
  0
LINE
  5
3E9
  8
┌▓È_1
 62
     5
 10
-590.47054671720002
 20
-630.32587470559986
 30
0.0
 11
-575.47054671720002
 21
-630.32587470559986
 31
0.0
  0
LINE
  5
3EA
  8
┌▓È_1
 62
     5
 10
-575.47054671720002
 20
-637.32587470559997
 30
0.0
 11
-590.47054671720002
 21
-637.32587470559997
 31
0.0
  0
ARC
  5
3EB
  8
┌▓È_1
 62
     5
 10
-590.47054671720002
 20
-633.82587470559986
 30
0.0
 40
3.5
 50
90.0
 51
270.0
  0
LINE
  5
3EC
  8
┌▓È_1
 62
     5
 10
-507.77054671719998
 20
-630.32587470559986
 30
0.0
 11
-492.77054671719998
 21
-630.32587470559986
 31
0.0
  0
LINE
  5
3ED
  8
┌▓È_1
 62
     5
 10
-492.77054671719998
 20
-637.32587470559997
 30
0.0
 11
-507.77054671719998
 21
-637.32587470559997
 31
0.0
  0
LINE
  5
3EE
  8
┌▓È_1
 62
     5
 10
-492.77054671719998
 20
-622.32587470559986
 30
0.0
 11
-507.77054671719998
 21
-622.32587470559986
 31
0.0
  0
ARC
  5
3EF
  8
┌▓È_1
 62
     5
 10
-575.47054671720002
 20
-648.82587470559997
 30
0.0
 40
3.5
 50
270.0
 51
90.0
  0
LINE
  5
3F0
  8
┌▓È_1
 62
     5
 10
-590.47054671720002
 20
-645.32587470559997
 30
0.0
 11
-575.47054671720002
 21
-645.32587470559997
 31
0.0
  0
LINE
  5
3F1
  8
┌▓È_1
 62
     5
 10
-575.47054671720002
 20
-652.32587470559986
 30
0.0
 11
-590.47054671720002
 21
-652.32587470559986
 31
0.0
  0
ARC
  5
3F2
  8
┌▓È_1
 62
     5
 10
-492.77054671719998
 20
-648.82587470559997
 30
0.0
 40
3.5
 50
270.0
 51
90.0
  0
LINE
  5
3F3
  8
┌▓È_1
 62
     5
 10
-507.77054671719998
 20
-645.32587470559997
 30
0.0
 11
-492.77054671719998
 21
-645.32587470559997
 31
0.0
  0
LINE
  5
3F4
  8
┌▓È_1
 62
     5
 10
-492.77054671719998
 20
-652.32587470559986
 30
0.0
 11
-507.77054671719998
 21
-652.32587470559986
 31
0.0
  0
ARC
  5
3F5
  8
┌▓È_1
 62
     5
 10
-507.77054671719998
 20
-633.82587470559986
 30
0.0
 40
3.5
 50
90.0
 51
270.0
  0
ARC
  5
3F6
  8
┌▓È_1
 62
     5
 10
-507.77054671719998
 20
-648.82587470559997
 30
0.0
 40
3.5
 50
90.0
 51
270.0
  0
ARC
  5
3F7
  8
┌▓È_1
 62
     5
 10
-492.77054671719998
 20
-633.82587470559986
 30
0.0
 40
3.5
 50
270.0
 51
90.0
  0
LINE
  5
3F8
  8
┌▓È_1
 62
     5
 10
-610.07054671720005
 20
-668.82545283059994
 30
0.0
 11
-612.07054671720005
 21
-668.82545283059994
 31
0.0
  0
LINE
  5
3F9
  8
┌▓È_1
 62
     5
 10
-610.07054671720005
 20
-668.82545283059994
 30
0.0
 11
-610.07054671720005
 21
-670.82545283059994
 31
0.0
  0
ARC
  5
3FA
  8
┌▓È_1
 62
     5
 10
-610.07054671720005
 20
-749.68917104789978
 30
0.0
 40
2.0
 50
90.0
 51
180.00001020810001
  0
LINE
  5
3FB
  8
┌▓È_1
 62
     5
 10
-612.07054671720005
 20
-761.68917104789989
 30
0.0
 11
-610.07054671720005
 21
-761.68917104789989
 31
0.0
  0
LINE
  5
3FC
  8
┌▓È_1
 62
     5
 10
-612.07054671720005
 20
-749.68917140420001
 30
0.0
 11
-612.07054671720005
 21
-761.68917104789989
 31
0.0
  0
LINE
  5
3FD
  8
┌▓È_1
 62
     5
 10
-610.07054671720005
 20
-749.68917104789978
 30
0.0
 11
-610.07054671720005
 21
-761.68917104789989
 31
0.0
  0
ARC
  5
3FE
  8
┌▓È_1
 62
     5
 10
-425.07054671719987
 20
-648.82587470559997
 30
0.0
 40
3.5
 50
90.0
 51
270.0
  0
ARC
  5
3FF
  8
┌▓È_1
 62
     5
 10
-425.07054671719987
 20
-633.82587470559986
 30
0.0
 40
3.5
 50
90.0
 51
270.0
  0
LINE
  5
400
  8
┌▓È_1
 62
     5
 10
-78.166069578299997
 20
-493.8254528306
 30
0.0
 11
-78.166069578299997
 21
-668.82545283059994
 31
0.0
  0
LINE
  5
401
  8
┌▓È_1
 62
     5
 10
-76.166069578299997
 20
-493.8254528306
 30
0.0
 11
-76.166069578299997
 21
-668.82545283059994
 31
0.0
  0
DIMENSION
  5
410
  8
Éíû@É³
 62
     5
  2
*D32
 10
113.1639715715
 20
-295.95654564530003
 30
0.0
 11
113.1639715715
 21
-196.9565456453
 31
0.0
 70
   128
  1
<>
 13
70.651840834200001
 23
-295.95654564530003
 33
0.0
 14
70.651840834200001
 24
-97.956545645300025
 34
0.0
 50
90.0
  0
DIMENSION
  5
41F
  8
Éíû@É³
 62
     5
  2
*D33
 10
96.934019331499996
 20
-286.95654564529991
 30
0.0
 11
96.934019331499996
 21
-196.9565456453
 31
0.0
 70
   128
  1
<>
 13
52.914438490400002
 23
-286.95654564529991
 33
0.0
 14
52.914438490400002
 24
-106.9565456453
 34
0.0
 50
90.0
  0
LINE
  5
420
  8
┌▓È_1
 62
     5
 10
182.2002703407
 20
-106.1565456453
 30
0.0
 11
182.2002703407
 21
-196.94840990310001
 31
0.0
  0
LINE
  5
421
  8
┌▓È_1
  6
BORDER
 62
     3
 10
37.129526199499999
 20
-184.45674551499999
 30
0.0
 11
37.129526199499999
 21
-209.45674551499999
 31
0.0
  0
LINE
  5
422
  8
┌▓È_1
 62
     5
 10
185.2002703407
 20
-284.45607429109998
 30
0.0
 11
185.2002703407
 21
-109.4570169994
 31
0.0
  0
LINE
  5
423
  8
┌▓È_1
 62
     5
 10
197.2002703407
 20
-286.45607429109998
 30
0.0
 11
197.2002703407
 21
-107.4570169994
 31
0.0
  0
LINE
  5
424
  8
┌▓È_1
 62
     5
 10
183.2002703407
 20
-109.4570183487
 30
0.0
 11
183.2002703407
 21
-284.45607429109998
 31
0.0
  0
LINE
  5
425
  8
┌▓È_1
  6
HIDDEN
 62
     1
 10
63.7295261995
 20
-284.45654564530003
 30
0.0
 11
63.7295261995
 21
-109.4565456453
 31
0.0
  0
LINE
  5
426
  8
┌▓È_1
 62
     5
 10
66.2295261995
 20
-109.4565456453
 30
0.0
 11
66.2295261995
 21
-284.45654564530003
 31
0.0
  0
LINE
  5
427
  8
┌▓È_1
 62
     5
 10
67.029238971699996
 20
-106.9565456453
 30
0.0
 11
67.029238971699996
 21
-286.95654564529991
 31
0.0
  0
LINE
  5
428
  8
┌▓È_1
 62
     5
 10
76.029238971699996
 20
-97.956545645300025
 30
0.0
 11
76.029238971699996
 21
-295.95654564530003
 31
0.0
  0
LINE
  5
429
  8
┌▓È_1
  6
BORDER
 62
     3
 10
-80.277536300500003
 20
-92.956545645300025
 30
0.0
 11
-80.277536300500003
 21
-300.95654564530003
 31
0.0
  0
LINE
  5
42A
  8
┌▓È_1
  6
BORDER
 62
     3
 10
-86.277536300499989
 20
-92.956545645300025
 30
0.0
 11
-86.277536300499989
 21
-300.95654564530003
 31
0.0
  0
DIMENSION
  5
439
  8
Éíû@É³
 62
     5
  2
*D34
 10
235.12557208320001
 20
-280.45654564530003
 30
0.0
 11
235.12557208320001
 21
-196.9565456453
 31
0.0
 70
   128
  1
<>
 13
211.40027034069999
 23
-280.45654564530003
 33
0.0
 14
211.40027034069999
 24
-113.4565456453
 34
0.0
 50
90.0
  0
LINE
  5
43A
  8
┌▓È_1
 62
     5
 10
275.52322464880001
 20
-109.4570169994
 30
0.0
 11
275.52322464880001
 21
-284.45607429109998
 31
0.0
  0
LINE
  5
43B
  8
┌▓È_1
 62
     5
 10
212.2002703407
 20
-281.25654564529998
 30
0.0
 11
212.2002703407
 21
-112.6565456453
 31
0.0
  0
LINE
  5
43C
  8
┌▓È_1
 62
     5
 10
277.52322464880001
 20
-109.4570169994
 30
0.0
 11
277.52322464880001
 21
-284.45607429109998
 31
0.0
  0
LINE
  5
43D
  8
┌▓È_1
 62
     5
 10
273.52322464880001
 20
-287.75607429109999
 30
0.0
 11
273.52322464880001
 21
-106.1570169994
 31
0.0
  0
DIMENSION
  5
44C
  8
Éíû@É³
 62
     5
  2
*D35
 10
349.93813591899999
 20
-281.95607429109998
 30
0.0
 11
349.93813591899999
 21
-196.9565456453
 31
0.0
 70
   128
  1
170
 13
328.52322464880001
 23
-281.95607429109998
 33
0.0
 14
328.52322464880001
 24
-111.9570169994
 34
0.0
 50
90.0
  0
LINE
  5
44D
  8
┌▓È_1
 62
     5
 10
328.52322464880001
 20
-111.1570169994
 30
0.0
 11
328.52322464880001
 21
-282.75607429109999
 31
0.0
  0
LINE
  5
44E
  8
┌▓È_1
 62
     5
 10
298.52322464880001
 20
-286.45607429109998
 30
0.0
 11
298.52322464880001
 21
-107.4570169994
 31
0.0
  0
DIMENSION
  5
45D
  8
Éíû@É³
 62
     5
  2
*D36
 10
-612.07054671720005
 20
-698.82545283059994
 30
0.0
 11
-597.52054671719986
 21
-698.82545283059994
 31
0.0
 70
   128
  1
<>
 13
-612.07054671720005
 23
-668.82545283059994
 33
0.0
 14
-582.97054671720002
 24
-652.32587470559986
 34
0.0
 50
180.0
  0
DIMENSION
  5
46C
  8
Éíû@É³
 62
     5
  2
*D37
 10
-582.97054671720002
 20
-698.82545127419985
 30
0.0
 11
-541.6205467172
 21
-698.82545127419985
 31
0.0
 70
   128
  1
<>
 13
-582.97054671720002
 23
-652.32587470559986
 33
0.0
 14
-500.27054671719998
 24
-652.32587470559986
 34
0.0
 50
180.0
  0
ARC
  5
46D
  8
┌▓È_1
 62
     5
 10
-575.47054671720002
 20
-618.82587470559986
 30
0.0
 40
3.5
 50
270.0
 51
90.0
  0
ARC
  5
46E
  8
┌▓È_1
 62
     5
 10
-590.47054671720002
 20
-618.82587470559986
 30
0.0
 40
3.5
 50
90.0
 51
270.0
  0
ARC
  5
46F
  8
┌▓È_1
 62
     5
 10
-492.77054671719998
 20
-618.82587470559986
 30
0.0
 40
3.5
 50
270.0
 51
90.0
  0
ARC
  5
470
  8
┌▓È_1
 62
     5
 10
-507.77054671719998
 20
-618.82587470559986
 30
0.0
 40
3.5
 50
90.0
 51
270.0
  0
DIMENSION
  5
47F
  8
Éíû@É³
 62
     5
  2
*D38
 10
-174.18193206259991
 20
-670.82545283059994
 30
0.0
 11
-174.18193206259991
 21
-581.32545283059994
 31
0.0
 70
   128
  1
<>
 13
-225.07054671719999
 23
-670.82545283059994
 33
0.0
 14
-225.07054671719999
 24
-491.82545283059989
 34
0.0
 50
90.0
  0
DIMENSION
  5
48E
  8
Éíû@É³
 62
     5
  2
*D39
 10
-195.07054824299999
 20
-633.82587470559986
 30
0.0
 11
-195.07054824299999
 21
-626.32587470559986
 31
0.0
 70
   128
  1
<>
 13
-241.17054671720001
 23
-633.82587470559986
 33
0.0
 14
-241.17054671720001
 24
-618.82587470559986
 34
0.0
 50
90.0
  0
DIMENSION
  5
49D
  8
Éíû@É³
 62
     5
  2
*D40
 10
-195.07054824299999
 20
-618.82587470559986
 30
0.0
 11
-195.07054824299999
 21
-603.82587470559997
 31
0.0
 70
   128
  1
<>
 13
-241.17054671720001
 23
-618.82587470559986
 33
0.0
 14
-282.52054671720009
 24
-588.82587470559986
 34
0.0
 50
90.0
  0
LINE
  5
49E
  8
┌▓È_1
 62
     5
 10
-133.14474145330001
 20
-493.82545417990002
 30
0.0
 11
-133.14474145330001
 21
-668.82545283059994
 31
0.0
  0
LINE
  5
49F
  8
┌▓È_1
  6
HIDDEN
 62
     1
 10
-225.07054671719999
 20
-493.8254528306
 30
0.0
 11
-225.07054671719999
 21
-668.82545283059994
 31
0.0
  0
LINE
  5
4A0
  8
┌▓È_1
 62
     5
 10
-223.07054671719999
 20
-493.8254528306
 30
0.0
 11
-223.07054671719999
 21
-668.82545283059994
 31
0.0
  0
LINE
  5
4A1
  8
┌▓È_1
 62
     5
 10
-131.14474145330001
 20
-668.82545283059994
 30
0.0
 11
-131.14474145330001
 21
-493.8254528306
 31
0.0
  0
ARC
  5
4A2
  8
┌▓È_1
 62
     5
 10
-259.67054671720001
 20
-618.82587470559986
 30
0.0
 40
3.5
 50
90.0
 51
270.0
  0
ARC
  5
4A3
  8
┌▓È_1
 62
     5
 10
-244.67054671720001
 20
-618.82587470559986
 30
0.0
 40
3.5
 50
270.0
 51
90.0
  0
ARC
  5
4A4
  8
┌▓È_1
 62
     5
 10
-327.3705467172
 20
-618.82587470559986
 30
0.0
 40
3.5
 50
270.0
 51
90.0
  0
ARC
  5
4A5
  8
┌▓È_1
 62
     5
 10
-342.3705467172
 20
-618.82587470559986
 30
0.0
 40
3.5
 50
90.0
 51
270.0
  0
LINE
  5
4A6
  8
┌▓È_1
  6
BORDER
 62
     3
 10
-582.97054671720002
 20
-184.4569675203
 30
0.0
 11
-582.97054671720002
 21
-209.4569675203
 31
0.0
  0
LINE
  5
4A7
  8
┌▓È_1
  6
HIDDEN
 62
     1
 10
-610.07054671720005
 20
-109.4565456453
 30
0.0
 11
-610.07054671720005
 21
-284.45654564530003
 31
0.0
  0
LINE
  5
4A8
  8
┌▓È_1
 62
     5
 10
-612.97076102829988
 20
-286.95654564529991
 30
0.0
 11
-612.97076102829988
 21
-106.9565456453
 31
0.0
  0
LINE
  5
4A9
  8
┌▓È_1
 62
     5
 10
-612.07054671720005
 20
-109.4565456453
 30
0.0
 11
-612.07054671720005
 21
-284.45654564530003
 31
0.0
  0
LINE
  5
4AA
  8
┌▓È_1
 62
     5
 10
-621.97076102829988
 20
-295.95654564530003
 30
0.0
 11
-621.97076102829988
 21
-97.956545645300025
 31
0.0
  0
LINE
  5
4AB
  8
┌▓È_1
  6
BORDER
 62
     3
 10
-193.9704738005
 20
-184.45674551499999
 30
0.0
 11
-193.9704738005
 21
-209.45674551499999
 31
0.0
  0
LINE
  5
4AC
  8
┌▓È_1
  6
BORDER
 62
     3
 10
-252.17054671720001
 20
-184.4569675203
 30
0.0
 11
-252.17054671720001
 21
-209.4569675203
 31
0.0
  0
LINE
  5
4AD
  8
┌▓È_1
  6
HIDDEN
 62
     1
 10
-225.07054671719999
 20
-109.4565456453
 30
0.0
 11
-225.07054671719999
 21
-284.45654564530003
 31
0.0
  0
LINE
  5
4AE
  8
┌▓È_1
 62
     5
 10
-223.07054671719999
 20
-109.4565456453
 30
0.0
 11
-223.07054671719999
 21
-284.45654564530003
 31
0.0
  0
LINE
  5
4AF
  8
┌▓È_1
  6
HIDDEN
 62
     1
 10
-221.07054671719999
 20
-109.4565456453
 30
0.0
 11
-221.07054671719999
 21
-284.45654564530003
 31
0.0
  0
LINE
  5
4B0
  8
┌▓È_1
 62
     5
 10
-425.07054671719987
 20
-132.9569675203
 30
0.0
 11
-410.07054671719999
 21
-132.9569675203
 31
0.0
  0
LINE
  5
4B1
  8
┌▓È_1
 62
     5
 10
-410.07054671719999
 20
-155.9569675203
 30
0.0
 11
-425.07054671719987
 21
-155.9569675203
 31
0.0
  0
LINE
  5
4B2
  8
┌▓È_1
 62
     5
 10
-425.07054671719987
 20
-162.9569675203
 30
0.0
 11
-410.07054671719999
 21
-162.9569675203
 31
0.0
  0
LINE
  5
4B3
  8
┌▓È_1
 62
     5
 10
-410.07054671719999
 20
-140.9569675203
 30
0.0
 11
-425.07054671719987
 21
-140.9569675203
 31
0.0
  0
LINE
  5
4B4
  8
┌▓È_1
 62
     5
 10
-425.07054671719987
 20
-147.9569675203
 30
0.0
 11
-410.07054671719999
 21
-147.9569675203
 31
0.0
  0
INSERT
  5
4B6
  8
É}ÿg
  2
CLUMP2
 10
0.0
 20
0.0
 30
0.0
  0
INSERT
  5
4C0
  8
É}ÿg
  2
CLUMP3
 10
0.0
 20
0.0
 30
0.0
  0
INSERT
  5
4CA
  8
É}ÿg
  2
CLUMP4
 10
0.0
 20
0.0
 30
0.0
  0
INSERT
  5
4D3
  8
0
  6
CONTINUOUS
  2
*U80
 10
0.0
 20
0.0
 30
0.0
  0
INSERT
  5
4D4
  8
0
  6
CONTINUOUS
  2
*U81
 10
0.0
 20
0.0
 30
0.0
  0
INSERT
  5
4D5
  8
0
  6
CONTINUOUS
  2
*U82
 10
0.0
 20
0.0
 30
0.0
  0
INSERT
  5
4D6
  8
0
  6
CONTINUOUS
  2
*U83
 10
0.0
 20
0.0
 30
0.0
  0
INSERT
  5
4D7
  8
0
  6
CONTINUOUS
  2
*U84
 10
0.0
 20
0.0
 30
0.0
  0
INSERT
  5
4D8
  8
0
  6
CONTINUOUS
  2
*U85
 10
0.0
 20
0.0
 30
0.0
  0
DIMENSION
  5
4E7
  8
Éíû@É³
 62
     5
  2
*D44
 10
212.2002703407
 20
-60.956142050299988
 30
0.0
 11
204.632274107
 21
-60.956142050299988
 31
0.0
 70
   128
  1
<>
 13
212.2002703407
 23
-98.756545645300022
 33
0.0
 14
197.2002703407
 24
-106.9565456453
 34
0.0
  0
DIMENSION
  5
4F6
  8
Éíû@É³
 62
     5
  2
*D45
 10
212.2002703407
 20
-39.335979086400002
 30
0.0
 11
197.2002703407
 21
-39.335979086400002
 31
0.0
 70
   128
  1
<>
 13
212.2002703407
 23
-98.756545645300022
 33
0.0
 14
182.2002703407
 24
-98.756545645300022
 34
0.0
  0
LINE
  5
4F7
  8
┌▓È_1
  6
BORDER
 62
     3
 10
177.2002703407
 20
-196.94840990310001
 30
0.0
 11
217.2002703407
 21
-196.94840990310001
 31
0.0
  0
INSERT
  5
4F9
  8
┌▓È_1
  6
BORDER
 62
     5
  2
CLUMP5
 10
0.0
 20
0.0
 30
0.0
  0
INSERT
  5
517
  8
┌▓È_1
  6
BORDER
 62
     5
  2
CLUMP6
 10
0.0
 20
0.0
 30
0.0
  0
INSERT
  5
534
  8
0
  6
CONTINUOUS
  2
*U86
 10
0.0
 20
0.0
 30
0.0
  0
DIMENSION
  5
543
  8
Éíû@É³
  2
*D48
 10
-468.77054671719998
 20
-622.32587470559986
 30
0.0
 11
-468.77054671719998
 21
-618.82587470559986
 31
0.0
 70
   128
  1
<>
 13
-492.77054671719998
 23
-622.32587470559986
 33
0.0
 14
-492.77054671719998
 24
-615.32587470559997
 34
0.0
 50
90.0
  0
LINE
  5
544
  8
┌▓È_1
  6
BORDER
 62
     3
 10
-417.57054671719987
 20
-486.8254528306
 30
0.0
 11
-417.57054671719987
 21
-675.82545283059994
 31
0.0
  0
LINE
  5
545
  8
┌▓È_1
 62
     5
 10
-612.07054671720005
 20
-493.8254528306
 30
0.0
 11
-612.07054671720005
 21
-668.82545283059994
 31
0.0
  0
LINE
  5
546
  8
┌▓È_1
  6
HIDDEN
 62
     1
 10
-610.07054671720005
 20
-493.8254528306
 30
0.0
 11
-610.07054671720005
 21
-668.82545283059994
 31
0.0
  0
ARC
  5
547
  8
┌▓È_1
 62
     5
 10
-425.07054671719987
 20
-618.82587470559986
 30
0.0
 40
3.5
 50
90.0
 51
270.0
  0
ARC
  5
548
  8
┌▓È_1
 62
     5
 10
-410.07054671719999
 20
-513.82587470559986
 30
0.0
 40
3.5
 50
270.0
 51
90.0
  0
ARC
  5
549
  8
┌▓È_1
 62
     5
 10
-410.07054671719999
 20
-543.82587470559986
 30
0.0
 40
3.5
 50
270.0
 51
90.0
  0
LINE
  5
54A
  8
┌▓È_1
 62
     5
 10
-425.07054671719987
 20
-517.32587470559986
 30
0.0
 11
-410.07054671719999
 21
-517.32587470559986
 31
0.0
  0
LINE
  5
54B
  8
┌▓È_1
 62
     5
 10
-410.07054671719999
 20
-510.32587470559992
 30
0.0
 11
-425.07054671719987
 21
-510.32587470559992
 31
0.0
  0
LINE
  5
54C
  8
┌▓È_1
 62
     5
 10
-425.07054671719987
 20
-532.32587470559997
 30
0.0
 11
-410.07054671719999
 21
-532.32587470559997
 31
0.0
  0
LINE
  5
54D
  8
┌▓È_1
 62
     5
 10
-410.07054671719999
 20
-525.32587470559986
 30
0.0
 11
-425.07054671719987
 21
-525.32587470559986
 31
0.0
  0
LINE
  5
54E
  8
┌▓È_1
 62
     5
 10
-425.07054671719987
 20
-547.32587470559986
 30
0.0
 11
-410.07054671719999
 21
-547.32587470559986
 31
0.0
  0
LINE
  5
54F
  8
┌▓È_1
 62
     5
 10
-410.07054671719999
 20
-540.32587470559986
 30
0.0
 11
-425.07054671719987
 21
-540.32587470559986
 31
0.0
  0
LINE
  5
550
  8
┌▓È_1
  6
HIDDEN
 62
     1
 10
-610.07054671720005
 20
-284.45654564530003
 30
0.0
 11
-225.07054671719999
 21
-284.45654564530003
 31
0.0
  0
LINE
  5
551
  8
┌▓È_1
  6
HIDDEN
 62
     1
 10
-610.07054671720005
 20
-109.4565456453
 30
0.0
 11
-225.07054671719999
 21
-109.4565456453
 31
0.0
  0
LINE
  5
552
  8
┌▓È_1
 62
     5
 10
-610.07054671720005
 20
-286.45654564530003
 30
0.0
 11
-225.07054671719999
 21
-286.45654564530003
 31
0.0
  0
LINE
  5
553
  8
┌▓È_1
 62
     5
 10
-610.07054671720005
 20
-107.4565456453
 30
0.0
 11
-225.07054671719999
 21
-107.4565456453
 31
0.0
  0
ARC
  5
554
  8
┌▓È_1
 62
     5
 10
-410.07054671719999
 20
-234.4569675203
 30
0.0
 40
3.5
 50
270.0
 51
90.0
  0
LINE
  5
555
  8
┌▓È_1
 62
     5
 10
-425.07054671719987
 20
-230.9569675203
 30
0.0
 11
-410.07054671719999
 21
-230.9569675203
 31
0.0
  0
ARC
  5
556
  8
┌▓È_1
 62
     5
 10
-410.07054671719999
 20
-249.4569675203
 30
0.0
 40
3.5
 50
270.0
 51
90.0
  0
ARC
  5
557
  8
┌▓È_1
 62
     5
 10
-410.07054671719999
 20
-264.4569675203
 30
0.0
 40
3.5
 50
270.0
 51
90.0
  0
LINE
  5
558
  8
┌▓È_1
 62
     5
 10
-410.07054671719999
 20
-252.9569675203
 30
0.0
 11
-425.07054671719987
 21
-252.9569675203
 31
0.0
  0
LINE
  5
559
  8
┌▓È_1
 62
     5
 10
-425.07054671719987
 20
-245.9569675203
 30
0.0
 11
-410.07054671719999
 21
-245.9569675203
 31
0.0
  0
LINE
  5
55A
  8
┌▓È_1
 62
     5
 10
-410.07054671719999
 20
-267.9569675203
 30
0.0
 11
-425.07054671719987
 21
-267.9569675203
 31
0.0
  0
LINE
  5
55B
  8
┌▓È_1
 62
     5
 10
-425.07054671719987
 20
-260.9569675203
 30
0.0
 11
-410.07054671719999
 21
-260.9569675203
 31
0.0
  0
LINE
  5
55C
  8
┌▓È_1
 62
     5
 10
-410.07054671719999
 20
-237.9569675203
 30
0.0
 11
-425.07054671719987
 21
-237.9569675203
 31
0.0
  0
ARC
  5
55D
  8
┌▓È_1
 62
     5
 10
-410.07054671719999
 20
-159.4569675203
 30
0.0
 40
3.5
 50
270.0
 51
90.0
  0
ARC
  5
55E
  8
┌▓È_1
 62
     5
 10
-410.07054671719999
 20
-129.4569675203
 30
0.0
 40
3.5
 50
270.0
 51
90.0
  0
ARC
  5
55F
  8
┌▓È_1
 62
     5
 10
-410.07054671719999
 20
-144.4569675203
 30
0.0
 40
3.5
 50
270.0
 51
90.0
  0
LINE
  5
560
  8
┌▓È_1
 62
     5
 10
-410.07054671719999
 20
-125.9569675203
 30
0.0
 11
-425.07054671719987
 21
-125.9569675203
 31
0.0
  0
LINE
  5
561
  8
┌▓È_1
 62
     5
 10
67.829238971699993
 20
-401.2021882233999
 30
0.0
 11
75.229238971699999
 21
-401.2021882233999
 31
0.0
  0
ARC
  5
562
  8
┌▓È_1
 62
     5
 10
75.229238971699999
 20
-401.2021882233999
 30
0.0
 40
0.8
 50
270.0
 51
0.0
  0
LINE
  5
563
  8
┌▓È_1
  6
BORDER
 62
     3
 10
-80.277536300500003
 20
-367.00218822340003
 30
0.0
 11
-80.277536300500003
 21
-407.00218822340003
 31
0.0
  0
LINE
  5
564
  8
┌▓È_1
  6
BORDER
 62
     3
 10
-86.277536300499989
 20
-367.00218822340003
 30
0.0
 11
-86.277536300499989
 21
-407.00218822340003
 31
0.0
  0
LINE
  5
565
  8
┌▓È_1
 62
     5
 10
68.629238971700005
 20
-402.00218822339991
 30
0.0
 11
75.229238971699999
 21
-402.00218822339991
 31
0.0
  0
LINE
  5
566
  8
┌▓È_1
 62
     5
 10
-80.277536300500003
 20
-402.00218822339991
 30
0.0
 11
68.629238971700005
 21
-402.00218822339991
 31
0.0
  0
DIMENSION
  5
575
  8
Éíû@É³
 62
     5
  2
*D49
 10
-417.57054671719987
 20
-698.82545283059994
 30
0.0
 11
-376.22054671720002
 21
-698.82545283059994
 31
0.0
 70
   128
  1
<>
 13
-417.57054671719987
 23
-675.82545283059994
 33
0.0
 14
-334.8705467172
 24
-652.32587470559986
 34
0.0
 50
180.0
  0
DIMENSION
  5
584
  8
Éíû@É³
 62
     5
  2
*D50
 10
-223.07054671719999
 20
-463.82545283059989
 30
0.0
 11
-417.57054671719987
 21
-463.82545283059989
 31
0.0
 70
   128
  1
<>
 13
-223.07054671719999
 23
-493.8254528306
 33
0.0
 14
-612.07054671720005
 24
-493.8254528306
 34
0.0
  0
LINE
  5
585
  8
┌▓È_1
 62
     5
 10
-225.07054806650001
 20
-747.68917104789989
 30
0.0
 11
-610.07054671720005
 21
-747.68917104789989
 31
0.0
  0
LINE
  5
586
  8
┌▓È_1
 62
     5
 10
-610.07054671720005
 20
-749.68917104789978
 30
0.0
 11
-225.07054671719999
 21
-749.68917104789978
 31
0.0
  0
LINE
  5
587
  8
┌▓È_1
 62
     5
 10
-610.07054671720005
 20
-670.82545283059994
 30
0.0
 11
-225.07054671719999
 21
-670.82545283059994
 31
0.0
  0
LINE
  5
588
  8
┌▓È_1
  6
HIDDEN
 62
     1
 10
-610.07054671720005
 20
-493.8254528306
 30
0.0
 11
-225.07054671719999
 21
-493.8254528306
 31
0.0
  0
LINE
  5
589
  8
┌▓È_1
  6
HIDDEN
 62
     1
 10
-610.07054671720005
 20
-668.82545283059994
 30
0.0
 11
-225.07054671719999
 21
-668.82545283059994
 31
0.0
  0
LINE
  5
58A
  8
┌▓È_1
 62
     5
 10
-610.07054671720005
 20
-491.82545283059989
 30
0.0
 11
-225.07054671719999
 21
-491.82545283059989
 31
0.0
  0
LINE
  5
58B
  8
┌▓È_1
  6
BORDER
 62
     3
 10
-617.07054671720005
 20
-581.32545283059994
 30
0.0
 11
-218.07054671719999
 21
-581.32545283059994
 31
0.0
  0
LINE
  5
58C
  8
┌▓È_1
 62
     5
 10
-425.07054671719987
 20
-615.32587470559997
 30
0.0
 11
-410.07054671719999
 21
-615.32587470559997
 31
0.0
  0
ARC
  5
58D
  8
┌▓È_1
 62
     5
 10
-410.07054671719999
 20
-618.82587470559986
 30
0.0
 40
3.5
 50
270.0
 51
90.0
  0
LINE
  5
58E
  8
┌▓È_1
 62
     5
 10
-410.07054671719999
 20
-622.32587470559986
 30
0.0
 11
-425.07054671719987
 21
-622.32587470559986
 31
0.0
  0
LINE
  5
58F
  8
┌▓È_1
 62
     5
 10
-425.07054671719987
 20
-645.32587470559997
 30
0.0
 11
-410.07054671719999
 21
-645.32587470559997
 31
0.0
  0
LINE
  5
590
  8
┌▓È_1
 62
     5
 10
-410.07054671719999
 20
-652.32587470559986
 30
0.0
 11
-425.07054671719987
 21
-652.32587470559986
 31
0.0
  0
LINE
  5
591
  8
┌▓È_1
 62
     5
 10
-425.07054671719987
 20
-630.32587470559986
 30
0.0
 11
-410.07054671719999
 21
-630.32587470559986
 31
0.0
  0
LINE
  5
592
  8
┌▓È_1
 62
     5
 10
-410.07054671719999
 20
-637.32587470559997
 30
0.0
 11
-425.07054671719987
 21
-637.32587470559997
 31
0.0
  0
ARC
  5
593
  8
┌▓È_1
 62
     5
 10
-410.07054671719999
 20
-648.82587470559997
 30
0.0
 40
3.5
 50
270.0
 51
90.0
  0
ARC
  5
594
  8
┌▓È_1
 62
     5
 10
-410.07054671719999
 20
-633.82587470559986
 30
0.0
 40
3.5
 50
270.0
 51
90.0
  0
ARC
  5
595
  8
┌▓È_1
 62
     5
 10
-410.07054671719999
 20
-528.82587470559997
 30
0.0
 40
3.5
 50
270.0
 51
90.0
  0
LINE
  5
596
  8
┌▓È_1
 62
     5
 10
-621.97076102829988
 20
-295.95654564530003
 30
0.0
 11
-86.277536300499989
 21
-295.95654564530003
 31
0.0
  0
LINE
  5
597
  8
┌▓È_1
 62
     5
 10
-621.97076102829988
 20
-97.956545645300025
 30
0.0
 11
-86.277536300499989
 21
-97.956545645300025
 31
0.0
  0
LINE
  5
598
  8
┌▓È_1
  6
BORDER
 62
     3
 10
-626.97076102819995
 20
-196.9565456453
 30
0.0
 11
81.029238971799998
 21
-196.9565456453
 31
0.0
  0
LINE
  5
599
  8
┌▓È_1
 62
     5
 10
-612.97076102829988
 20
-106.9565456453
 30
0.0
 11
-86.277536300499989
 21
-106.9565456453
 31
0.0
  0
LINE
  5
59A
  8
┌▓È_1
 62
     5
 10
-612.97076102829988
 20
-286.95654564529991
 30
0.0
 11
-86.277536300499989
 21
-286.95654564529991
 31
0.0
  0
LINE
  5
59B
  8
┌▓È_1
 10
-86.277536300499989
 20
-402.00218822339991
 30
0.0
 11
-621.17076102819988
 21
-402.00218822339991
 31
0.0
  0
LINE
  5
59C
  8
┌▓È_1
 10
-86.277536300499989
 20
-387.80218822339998
 30
0.0
 11
-605.77076102820001
 21
-387.80218822339998
 31
0.0
  0
LINE
  5
59D
  8
┌▓È_1
 10
-621.97076102819995
 20
-378.00218822340003
 30
0.0
 11
-86.277536300499989
 21
-378.00218822340003
 31
0.0
  0
LINE
  5
59E
  8
┌▓È_1
 10
-604.97079411300001
 20
-396.00218822340003
 30
0.0
 11
-86.277536300499989
 21
-396.00218822340003
 31
0.0
  0
LINE
  5
59F
  8
┌▓È_1
 10
-621.17076102819988
 20
-372.00218822340003
 30
0.0
 11
-86.277536300499989
 21
-372.00218822340003
 31
0.0
  0
INSERT
  5
5A0
  8
0
  6
CONTINUOUS
  2
*U87
 10
0.0
 20
0.0
 30
0.0
  0
LINE
  5
5A1
  8
┌▓È_1
 10
-621.97076102819995
 20
-401.2021882233999
 30
0.0
 11
-621.97076102819995
 21
-396.00218822340003
 31
0.0
  0
ARC
  5
5A2
  8
┌▓È_1
 10
-621.17076102819988
 20
-401.2021882233999
 30
0.0
 40
0.8
 50
180.0
 51
270.0
  0
LINE
  5
5A3
  8
┌▓È_1
 10
-605.77076102829994
 20
-378.00218822340003
 30
0.0
 11
-605.77076102829994
 21
-401.2021882233999
 31
0.0
  0
ARC
  5
5A4
  8
┌▓È_1
 10
-613.77076102829994
 20
-401.2021882233999
 30
0.0
 40
0.8
 50
270.0
 51
0.0
  0
LINE
  5
5A5
  8
┌▓È_1
 10
-613.77076102829994
 20
-378.00218822340003
 30
0.0
 11
-613.77076102829994
 21
-401.2021882233999
 31
0.0
  0
LINE
  5
5A6
  8
┌▓È_1
 10
-604.97079411300001
 20
-401.2021882233999
 30
0.0
 11
-621.17076102819988
 21
-401.2021882233999
 31
0.0
  0
LINE
  5
5A7
  8
┌▓È_1
 10
-604.97079411300001
 20
-396.00218822340003
 30
0.0
 11
-604.97079411300001
 21
-402.00218822339991
 31
0.0
  0
LINE
  5
5A8
  8
┌▓È_1
 10
-621.17076102819988
 20
-401.2021882233999
 30
0.0
 11
-621.17076102819988
 21
-396.00218822340003
 31
0.0
  0
DIMENSION
  5
5B7
  8
Éíû@É³
 62
     5
  2
*D51
 10
100.0292389717
 20
-402.00218822339991
 30
0.0
 11
100.0292389717
 21
-413.79448940139991
 31
0.0
 70
   128
  1
<>
 13
75.229238971699999
 23
-402.00218822339991
 33
0.0
 14
76.029238971699996
 24
-396.00218822340003
 34
0.0
 50
90.0
  0
LINE
  5
5B8
  8
┌▓È_1
 62
     5
 10
75.229238971699999
 20
-396.00218822340003
 30
0.0
 11
75.229238971699999
 21
-401.2021882233999
 31
0.0
  0
LINE
  5
5B9
  8
┌▓È_1
 62
     5
 10
67.029238971699996
 20
-387.00218822340003
 30
0.0
 11
67.029238971699996
 21
-401.2021882233999
 31
0.0
  0
LINE
  5
5BA
  8
┌▓È_1
 62
     5
 10
76.029238971699996
 20
-401.2021882233999
 30
0.0
 11
76.029238971699996
 21
-396.00218822340003
 31
0.0
  0
LINE
  5
5BB
  8
┌▓È_1
 62
     5
 10
67.829238971699993
 20
-387.00218822340003
 30
0.0
 11
67.829238971699993
 21
-401.2021882233999
 31
0.0
  0
ARC
  5
5BC
  8
┌▓È_1
 62
     5
 10
67.829238971699993
 20
-401.2021882233999
 30
0.0
 40
0.8
 50
180.0
 51
270.0
  0
ARC
  5
5BD
  8
┌▓È_1
 62
     5
 10
-103.7704738005
 20
-129.45674551499999
 30
0.0
 40
3.5
 50
270.0
 51
90.0
  0
ARC
  5
5BE
  8
┌▓È_1
 62
     5
 10
-103.7704738005
 20
-144.45674551499999
 30
0.0
 40
3.5
 50
270.0
 51
90.0
  0
ARC
  5
5BF
  8
┌▓È_1
 62
     5
 10
-103.7704738005
 20
-159.45674551499999
 30
0.0
 40
3.5
 50
270.0
 51
90.0
  0
ARC
  5
5C0
  8
┌▓È_1
 62
     5
 10
-103.7704738005
 20
-264.45674551500002
 30
0.0
 40
3.5
 50
270.0
 51
90.0
  0
ARC
  5
5C1
  8
┌▓È_1
 62
     5
 10
-103.7704738005
 20
-249.45674551499999
 30
0.0
 40
3.5
 50
270.0
 51
90.0
  0
ARC
  5
5C2
  8
┌▓È_1
 62
     5
 10
-103.7704738005
 20
-234.45674551499999
 30
0.0
 40
3.5
 50
270.0
 51
90.0
  0
LINE
  5
5C3
  8
┌▓È_1
  6
HIDDEN
 62
     1
 10
-221.07054671719999
 20
-109.4565456453
 30
0.0
 11
-86.277536300499989
 21
-109.4565456453
 31
0.0
  0
LINE
  5
5C4
  8
┌▓È_1
 62
     5
 10
-221.07054671719999
 20
-107.4565456453
 30
0.0
 11
-86.277536300499989
 21
-107.4565456453
 31
0.0
  0
LINE
  5
5C5
  8
┌▓È_1
  6
HIDDEN
 62
     1
 10
-221.07054671719999
 20
-284.45654564530003
 30
0.0
 11
-86.277536300499989
 21
-284.45654564530003
 31
0.0
  0
LINE
  5
5C6
  8
┌▓È_1
 62
     5
 10
-221.07054671719999
 20
-286.45654564530003
 30
0.0
 11
-86.277536300499989
 21
-286.45654564530003
 31
0.0
  0
LINE
  5
5C7
  8
┌▓È_1
 62
     5
 10
-118.7704738005
 20
-230.95674551499999
 30
0.0
 11
-103.7704738005
 21
-230.95674551499999
 31
0.0
  0
LINE
  5
5C8
  8
┌▓È_1
 62
     5
 10
-118.7704738005
 20
-245.95674551499999
 30
0.0
 11
-103.7704738005
 21
-245.95674551499999
 31
0.0
  0
LINE
  5
5C9
  8
┌▓È_1
 62
     5
 10
-103.7704738005
 20
-252.95674551499999
 30
0.0
 11
-118.7704738005
 21
-252.95674551499999
 31
0.0
  0
LINE
  5
5CA
  8
┌▓È_1
 62
     5
 10
-103.7704738005
 20
-267.95674551500002
 30
0.0
 11
-118.7704738005
 21
-267.95674551500002
 31
0.0
  0
LINE
  5
5CB
  8
┌▓È_1
 62
     5
 10
-103.7704738005
 20
-237.95674551499999
 30
0.0
 11
-118.7704738005
 21
-237.95674551499999
 31
0.0
  0
LINE
  5
5CC
  8
┌▓È_1
 62
     5
 10
-118.7704738005
 20
-260.95674551500002
 30
0.0
 11
-103.7704738005
 21
-260.95674551500002
 31
0.0
  0
LINE
  5
5CD
  8
┌▓È_1
 62
     5
 10
-103.7704738005
 20
-155.95674551499999
 30
0.0
 11
-118.7704738005
 21
-155.95674551499999
 31
0.0
  0
LINE
  5
5CE
  8
┌▓È_1
 62
     5
 10
-118.7704738005
 20
-132.95674551499999
 30
0.0
 11
-103.7704738005
 21
-132.95674551499999
 31
0.0
  0
LINE
  5
5CF
  8
┌▓È_1
 62
     5
 10
-103.7704738005
 20
-125.95674551499999
 30
0.0
 11
-118.7704738005
 21
-125.95674551499999
 31
0.0
  0
LINE
  5
5D0
  8
┌▓È_1
 62
     5
 10
-118.7704738005
 20
-147.95674551499999
 30
0.0
 11
-103.7704738005
 21
-147.95674551499999
 31
0.0
  0
LINE
  5
5D1
  8
┌▓È_1
 62
     5
 10
-103.7704738005
 20
-140.95674551499999
 30
0.0
 11
-118.7704738005
 21
-140.95674551499999
 31
0.0
  0
LINE
  5
5D2
  8
┌▓È_1
 62
     5
 10
-118.7704738005
 20
-162.95674551499999
 30
0.0
 11
-103.7704738005
 21
-162.95674551499999
 31
0.0
  0
INSERT
  5
5D4
  8
É}ÿg
  2
CLUMP7
 10
0.0
 20
0.0
 30
0.0
  0
DIMENSION
  5
686
  8
Éíû@É³
 62
     5
  2
*D53
 10
76.029238971699996
 20
-47.379786306899987
 30
0.0
 11
-272.97076102829999
 21
-47.379786306899987
 31
0.0
 70
   128
  1
798
 13
76.029238971699996
 23
-97.956545645300025
 33
0.0
 14
-621.97076102829988
 24
-97.956545645300025
 34
0.0
  0
DIMENSION
  5
695
  8
Éíû@É³
 62
     5
  2
*D54
 10
67.029238971699996
 20
-63.5124767366
 30
0.0
 11
-272.97076102829999
 21
-63.5124767366
 31
0.0
 70
   128
  1
780
 13
67.029238971699996
 23
-106.9565456453
 33
0.0
 14
-612.97076102829988
 24
-106.9565456453
 34
0.0
  0
ENDSEC
  0
EOF
