  0
SECTION
  2
HEADER
  9
$ACADVER
  1
AC1009
  9
$INSBASE
 10
0.0
 20
0.0
 30
0.0
  9
$EXTMIN
 10
529.53300316230002
 20
-436.96949633089991
 30
0.0
  9
$EXTMAX
 10
1144.4730031623001
 20
-4.2794963308999989
 30
0.0
  9
$LIMMIN
 10
0.0
 20
0.0
  9
$LIMMAX
 10
0.0
 20
0.0
  9
$ORTHOMODE
 70
     0
  9
$REGENMODE
 70
     1
  9
$FILLMODE
 70
     1
  9
$QTEXTMODE
 70
     0
  9
$MIRRTEXT
 70
     1
  9
$DRAGMODE
 70
     2
  9
$LTSCALE
 40
1.0
  9
$OSMODE
 70
    31
  9
$ATTMODE
 70
     1
  9
$TEXTSIZE
 40
0.0
  9
$TRACEWID
 40
0.05
  9
$TEXTSTYLE
  7
STANDARD
  9
$CLAYER
  8
0
  9
$CELTYPE
  6
CONTINUOUS
  9
$CECOLOR
 62
   256
  9
$DIMSCALE
 40
1.0
  9
$DIMASZ
 40
0.18
  9
$DIMEXO
 40
0.0625
  9
$DIMDLI
 40
0.38
  9
$DIMRND
 40
0.0
  9
$DIMDLE
 40
0.0
  9
$DIMEXE
 40
0.18
  9
$DIMTP
 40
0.0
  9
$DIMTM
 40
0.0
  9
$DIMTXT
 40
0.18
  9
$DIMCEN
 40
0.09
  9
$DIMTSZ
 40
0.0
  9
$DIMTOL
 70
     0
  9
$DIMLIM
 70
     0
  9
$DIMTIH
 70
     1
  9
$DIMTOH
 70
     1
  9
$DIMSE1
 70
     0
  9
$DIMSE2
 70
     0
  9
$DIMTAD
 70
     0
  9
$DIMZIN
 70
     0
  9
$DIMBLK
  1

  9
$DIMASO
 70
     1
  9
$DIMSHO
 70
     1
  9
$DIMPOST
  1

  9
$DIMAPOST
  1

  9
$DIMALT
 70
     0
  9
$DIMALTD
 70
     2
  9
$DIMALTF
 40
25.399999999999999
  9
$DIMLFAC
 40
1.0
  9
$DIMTOFL
 70
     0
  9
$DIMTVP
 40
0.0
  9
$DIMTIX
 70
     0
  9
$DIMSOXD
 70
     0
  9
$DIMSAH
 70
     0
  9
$DIMBLK1
  1

  9
$DIMBLK2
  1

  9
$DIMSTYLE
  2
STANDARD
  9
$DIMCLRD
 70
     0
  9
$DIMCLRE
 70
     0
  9
$DIMCLRT
 70
     0
  9
$DIMTFAC
 40
1.0
  9
$DIMGAP
 40
0.09
  9
$LUNITS
 70
     2
  9
$LUPREC
 70
     4
  9
$SKETCHINC
 40
0.1
  9
$FILLETRAD
 40
0.0
  9
$AUNITS
 70
     0
  9
$AUPREC
 70
     0
  9
$MENU
  1
acad
  9
$ELEVATION
 40
0.0
  9
$PELEVATION
 40
0.0
  9
$THICKNESS
 40
0.0
  9
$LIMCHECK
 70
     0
  9
$BLIPMODE
 70
     0
  9
$CHAMFERA
 40
0.0
  9
$CHAMFERB
 40
0.0
  9
$SKPOLY
 70
     0
  9
$TDCREATE
 40
2454860.6393972342
  9
$TDUPDATE
 40
2454860.6397213079
  9
$TDINDWG
 40
0.0003761574
  9
$TDUSRTIMER
 40
0.0003716435
  9
$USRTIMER
 70
     1
  9
$ANGBASE
 50
0.0
  9
$ANGDIR
 70
     0
  9
$PDMODE
 70
     3
  9
$PDSIZE
 40
-1.0
  9
$PLINEWID
 40
0.0
  9
$COORDS
 70
     2
  9
$SPLFRAME
 70
     0
  9
$SPLINETYPE
 70
     6
  9
$SPLINESEGS
 70
     8
  9
$ATTDIA
 70
     0
  9
$ATTREQ
 70
     1
  9
$HANDLING
 70
     1
  9
$HANDSEED
  5
8AF
  9
$SURFTAB1
 70
     6
  9
$SURFTAB2
 70
     6
  9
$SURFTYPE
 70
     6
  9
$SURFU
 70
     6
  9
$SURFV
 70
     6
  9
$UCSNAME
  2

  9
$UCSORG
 10
0.0
 20
0.0
 30
0.0
  9
$UCSXDIR
 10
1.0
 20
0.0
 30
0.0
  9
$UCSYDIR
 10
0.0
 20
1.0
 30
0.0
  9
$PUCSNAME
  2

  9
$PUCSORG
 10
0.0
 20
0.0
 30
0.0
  9
$PUCSXDIR
 10
1.0
 20
0.0
 30
0.0
  9
$PUCSYDIR
 10
0.0
 20
1.0
 30
0.0
  9
$USERI1
 70
     0
  9
$USERI2
 70
     0
  9
$USERI3
 70
     0
  9
$USERI4
 70
     0
  9
$USERI5
 70
     0
  9
$USERR1
 40
0.0
  9
$USERR2
 40
0.0
  9
$USERR3
 40
0.0
  9
$USERR4
 40
0.0
  9
$USERR5
 40
0.0
  9
$WORLDVIEW
 70
     1
  9
$SHADEDGE
 70
     3
  9
$SHADEDIF
 70
    70
  9
$TILEMODE
 70
     1
  9
$MAXACTVP
 70
    16
  9
$PLIMCHECK
 70
     0
  9
$PEXTMIN
 10
1.0000000000000000E+020
 20
1.0000000000000000E+020
 30
1.0000000000000000E+020
  9
$PEXTMAX
 10
-1.0000000000000000E+020
 20
-1.0000000000000000E+020
 30
-1.0000000000000000E+020
  9
$PLIMMIN
 10
0.0
 20
0.0
  9
$PLIMMAX
 10
12.0
 20
9.0
  9
$UNITMODE
 70
     0
  9
$VISRETAIN
 70
     0
  9
$PLINEGEN
 70
     1
  9
$PSLTSCALE
 70
     0
  0
ENDSEC
  0
SECTION
  2
TABLES
  0
TABLE
  2
VPORT
 70
     2
  0
VPORT
  2
*ACTIVE
 70
     0
 10
0.0
 20
0.0
 11
1.0
 21
1.0
 12
837.00300316229993
 22
-220.6244963309
 13
0.0
 23
0.0
 14
1.0
 24
1.0
 15
0.0
 25
0.0
 16
0.0
 26
0.0
 36
1.0
 17
0.0
 27
0.0
 37
0.0
 40
436.2807883817427
 41
1.6343490304709141
 42
50.0
 43
0.0
 44
0.0
 50
0.0
 51
0.0
 71
     0
 72
   100
 73
     1
 74
     1
 75
     0
 76
     0
 77
     0
 78
     0
  0
ENDTAB
  0
TABLE
  2
LTYPE
 70
    11
  0
LTYPE
  2
CONTINUOUS
 70
     0
  3
Solid line
 72
    65
 73
     0
 40
0.0
  0
LTYPE
  2
DOT
 70
     0
  3
. . . . . . . . 
 72
    65
 73
     2
 40
1.0
 49
0.0
 49
-1.0
  0
LTYPE
  2
DASHED
 70
     0
  3
___  ___  ___  ___  
 72
    65
 73
     2
 40
4.0
 49
3.0
 49
-1.0
  0
LTYPE
  2
HIDDEN
 70
     0
  3
__ __ __ __ 
 72
    65
 73
     2
 40
3.0
 49
2.0
 49
-1.0
  0
LTYPE
  2
STITCH
 70
     0
  3
_ _ _ _ 
 72
    65
 73
     2
 40
2.0
 49
1.0
 49
-1.0
  0
LTYPE
  2
CENTER
 70
     0
  3
______  __  ______  __  
 72
    65
 73
     4
 40
43.0
 49
40.0
 49
-1.0
 49
1.0
 49
-1.0
  0
LTYPE
  2
DASHDOT
 70
     0
  3
____ . ____ . 
 72
    65
 73
     4
 40
32.0
 49
30.0
 49
-1.0
 49
0.0
 49
-1.0
  0
LTYPE
  2
BORDER
 70
     0
  3
__ . __ . 
 72
    65
 73
     4
 40
22.0
 49
20.0
 49
-1.0
 49
0.0
 49
-1.0
  0
LTYPE
  2
CUTTING
 70
     0
  3
________   ___   ___   
 72
    65
 73
     6
 40
45.0
 49
40.0
 49
-1.0
 49
1.0
 49
-1.0
 49
1.0
 49
-1.0
  0
LTYPE
  2
PHANTOM
 70
     0
  3
______  __  __  
 72
    65
 73
     6
 40
35.0
 49
30.0
 49
-1.0
 49
1.0
 49
-1.0
 49
1.0
 49
-1.0
  0
LTYPE
  2
DIVIDE
 70
     0
  3
____ . . ____ . . 
 72
    65
 73
     6
 40
23.0
 49
20.0
 49
-1.0
 49
0.0
 49
-1.0
 49
0.0
 49
-1.0
  0
ENDTAB
  0
TABLE
  2
LAYER
 70
     5
  0
LAYER
  2
0
 70
     0
 62
     7
  6
CONTINUOUS
  0
LAYER
  2
ë³Æ¨
 70
     0
 62
     7
  6
CONTINUOUS
  0
LAYER
  2
┌▓È_1
 70
     0
 62
     7
  6
CONTINUOUS
  0
LAYER
  2
Éíû@É³
 70
     0
 62
     7
  6
CONTINUOUS
  0
LAYER
  2
É}ÿg
 70
     0
 62
     7
  6
CONTINUOUS
  0
ENDTAB
  0
TABLE
  2
STYLE
 70
     1
  0
STYLE
  2
STANDARD
 70
     0
 40
0.0
 41
1.0
 50
0.0
 71
     0
 42
0.0
  3
txt
  4
extfont
  0
ENDTAB
  0
TABLE
  2
VIEW
 70
     0
  0
ENDTAB
  0
TABLE
  2
UCS
 70
     0
  0
ENDTAB
  0
TABLE
  2
APPID
 70
     2
  0
APPID
  2
ACAD
 70
     0
  0
APPID
  2
DCO15
 70
     0
  0
ENDTAB
  0
TABLE
  2
DIMSTYLE
 70
     3
  0
DIMSTYLE
  2
STANDARD
 70
     0
  3

  4

  5

  6

  7

 40
1.0
 41
0.18
 42
0.0625
 43
0.38
 44
0.18
 45
0.0
 46
0.0
 47
0.0
 48
0.0
140
0.18
141
0.09
142
0.0
143
25.399999999999999
144
1.0
145
0.0
146
1.0
147
0.09
 71
     0
 72
     0
 73
     1
 74
     1
 75
     0
 76
     0
 77
     0
 78
     0
170
     0
171
     2
172
     0
173
     0
174
     0
175
     0
176
     0
177
     0
178
     0
  0
DIMSTYLE
  2
VELDIM0
 70
     0
  3

  4

  5

  6

  7

 40
1.0
 41
4.5
 42
0.0625
 43
0.38
 44
0.5
 45
0.0
 46
3.0
 47
0.0
 48
0.0
140
5.3974999188999986
141
0.09
142
0.0
143
25.399999999999999
144
1.0
145
0.0
146
1.0
147
0.09
 71
     0
 72
     0
 73
     0
 74
     0
 75
     0
 76
     0
 77
     0
 78
     8
170
     0
171
     2
172
     0
173
     0
174
     0
175
     0
176
     0
177
     0
178
     0
  0
DIMSTYLE
  2
VELDIM1
 70
     0
  3

  4

  5

  6

  7

 40
1.0
 41
4.5
 42
0.0625
 43
0.38
 44
0.75
 45
0.0
 46
4.5
 47
0.0
 48
0.0
140
5.3974999188999986
141
0.09
142
0.0
143
25.399999999999999
144
1.0
145
0.0
146
1.0
147
0.09
 71
     0
 72
     0
 73
     0
 74
     0
 75
     0
 76
     0
 77
     0
 78
     8
170
     0
171
     2
172
     0
173
     0
174
     0
175
     0
176
     0
177
     0
178
     0
  0
ENDTAB
  0
ENDSEC
  0
SECTION
  2
BLOCKS
  0
BLOCK
  8
0
  2
$MODEL_SPACE
 70
     0
 10
0.0
 20
0.0
 30
0.0
  3
$MODEL_SPACE
  1

  0
ENDBLK
  5
E
  8
0
  0
BLOCK
 67
     1
  8
0
  2
$PAPER_SPACE
 70
     0
 10
0.0
 20
0.0
 30
0.0
  3
$PAPER_SPACE
  1

  0
ENDBLK
  5
10
 67
     1
  8
0
  0
BLOCK
  8
0
  2
*D0
 70
     1
 10
0.0
 20
0.0
 30
0.0
  3
*D0
  1

  0
TEXT
  5
CD
  8
0
 62
     0
 10
890.73586955419989
 20
-79.732704625600007
 30
0.0
 40
5.3974999188999986
  1
15
  0
LINE
  5
CE
  8
0
 62
     0
 10
900.91086908929992
 20
-82.371548370600024
 30
0.0
 11
900.91086908929992
 21
-82.185204611299994
 31
0.0
  0
LINE
  5
CF
  8
0
 62
     0
 10
885.91086908929981
 20
-82.371548370600024
 30
0.0
 11
885.91086908929981
 21
-82.185204611299994
 31
0.0
  0
LINE
  5
D0
  8
0
 62
     0
 10
900.91086908929992
 20
-81.685204611299994
 30
0.0
 11
900.26086941119979
 21
-81.685204611299994
 31
0.0
  0
LINE
  5
D1
  8
0
 62
     0
 10
900.91086908929992
 20
-81.685204611299994
 30
0.0
 11
887.56086960189998
 21
-81.685204611299994
 31
0.0
  0
LINE
  5
D2
  8
0
 62
     0
 10
885.91086908929981
 20
-81.685204611299994
 30
0.0
 11
900.26086941119979
 21
-81.685204611299994
 31
0.0
  0
LINE
  5
D3
  8
0
 62
     0
 10
885.91086908929981
 20
-81.685204611299994
 30
0.0
 11
887.56086960189998
 21
-81.685204611299994
 31
0.0
  0
LINE
  5
D4
  8
0
 62
     0
 10
885.91086908929981
 20
-81.685204611299994
 30
0.0
 11
882.91086908929992
 21
-81.685204611299994
 31
0.0
  0
SOLID
  5
D5
  8
0
 62
     0
 10
885.91086908929981
 20
-81.685204611299994
 30
0.0
 11
881.41086908929981
 21
-82.810204611299994
 31
0.0
 12
881.41086908929981
 22
-80.560204611299994
 32
0.0
 13
882.53586908929992
 23
-81.685204611299994
 33
0.0
  0
LINE
  5
D6
  8
0
 62
     0
 10
900.91086908929992
 20
-81.685204611299994
 30
0.0
 11
903.91086908930004
 21
-81.685204611299994
 31
0.0
  0
SOLID
  5
D7
  8
0
 62
     0
 10
900.91086908929992
 20
-81.685204611299994
 30
0.0
 11
905.41086908929992
 21
-80.560204611299994
 31
0.0
 12
905.41086908929992
 22
-82.810204611299994
 32
0.0
 13
904.28586908929981
 23
-81.685204611299994
 33
0.0
  0
ENDBLK
  5
D8
  8
0
  0
BLOCK
  8
0
  2
*D1
 70
     1
 10
0.0
 20
0.0
 30
0.0
  3
*D1
  1

  0
TEXT
  5
DD
  8
0
 62
     0
 10
859.06461986659997
 20
-69.4766422557
 30
0.0
 40
5.3974999188999986
  1
2
 50
90.0
  0
LINE
  5
DE
  8
0
 62
     0
 10
884.91086908929992
 20
-58.618308787300002
 30
0.0
 11
860.51711985229986
 21
-58.618308787300002
 31
0.0
  0
LINE
  5
DF
  8
0
 62
     0
 10
884.91086908929992
 20
-60.618308787299988
 30
0.0
 11
860.51711985229986
 21
-60.618308787299988
 31
0.0
  0
LINE
  5
E0
  8
0
 62
     0
 10
861.01711985229997
 20
-58.618308787300002
 30
0.0
 11
861.01711985229997
 21
-63.126642351099989
 31
0.0
  0
LINE
  5
E1
  8
0
 62
     0
 10
861.01711985229997
 20
-58.618308787300002
 30
0.0
 11
861.01711985229997
 21
-72.651642207999998
 31
0.0
  0
LINE
  5
E2
  8
0
 62
     0
 10
861.01711985229997
 20
-60.618308787299988
 30
0.0
 11
861.01711985229997
 21
-63.126642351099989
 31
0.0
  0
LINE
  5
E3
  8
0
 62
     0
 10
861.01711985229997
 20
-60.618308787299988
 30
0.0
 11
861.01711985229997
 21
-72.651642207999998
 31
0.0
  0
LINE
  5
E4
  8
0
 62
     0
 10
861.01711985229997
 20
-60.618308787299988
 30
0.0
 11
861.01711985229997
 21
-63.618308787300002
 31
0.0
  0
SOLID
  5
E5
  8
0
 62
     0
 10
861.01711985229997
 20
-60.618308787299988
 30
0.0
 11
862.14211985229997
 21
-65.118308787299995
 31
0.0
 12
859.89211985229986
 22
-65.118308787299995
 32
0.0
 13
861.01711985229997
 23
-63.993308787299988
 33
0.0
  0
LINE
  5
E6
  8
0
 62
     0
 10
861.01711985229997
 20
-58.618308787300002
 30
0.0
 11
861.01711985229997
 21
-55.618308787299988
 31
0.0
  0
SOLID
  5
E7
  8
0
 62
     0
 10
861.01711985229997
 20
-58.618308787300002
 30
0.0
 11
859.89211985229986
 21
-54.118308787300002
 31
0.0
 12
862.14211985229997
 22
-54.118308787300002
 32
0.0
 13
861.01711985229997
 23
-55.243308787299988
 33
0.0
  0
ENDBLK
  5
E8
  8
0
  0
BLOCK
  8
0
  2
*D2
 70
     1
 10
0.0
 20
0.0
 30
0.0
  3
*D2
  1

  0
TEXT
  5
17C
  8
0
 62
     0
 10
891.05422839280004
 20
-157.56071484559999
 30
0.0
 40
5.3974999188999986
  1
2
  0
LINE
  5
17D
  8
0
 62
     0
 10
900.91086908929992
 20
-163.11830878730001
 30
0.0
 11
900.91086908929992
 21
-159.01321483129999
 31
0.0
  0
LINE
  5
17E
  8
0
 62
     0
 10
898.91086908929992
 20
-163.11830878730001
 30
0.0
 11
898.91086908929992
 21
-159.01321483129999
 31
0.0
  0
LINE
  5
17F
  8
0
 62
     0
 10
900.91086908929992
 20
-159.51321483129999
 30
0.0
 11
897.40422829739998
 21
-159.51321483129999
 31
0.0
  0
LINE
  5
180
  8
0
 62
     0
 10
900.91086908929992
 20
-159.51321483129999
 30
0.0
 11
887.8792284404999
 21
-159.51321483129999
 31
0.0
  0
LINE
  5
181
  8
0
 62
     0
 10
898.91086908929992
 20
-159.51321483129999
 30
0.0
 11
897.40422829739998
 21
-159.51321483129999
 31
0.0
  0
LINE
  5
182
  8
0
 62
     0
 10
898.91086908929992
 20
-159.51321483129999
 30
0.0
 11
887.8792284404999
 21
-159.51321483129999
 31
0.0
  0
LINE
  5
183
  8
0
 62
     0
 10
898.91086908929992
 20
-159.51321483129999
 30
0.0
 11
895.91086908930004
 21
-159.51321483129999
 31
0.0
  0
SOLID
  5
184
  8
0
 62
     0
 10
898.91086908929992
 20
-159.51321483129999
 30
0.0
 11
894.41086908929992
 21
-160.63821483129999
 31
0.0
 12
894.41086908929992
 22
-158.38821483129999
 32
0.0
 13
895.53586908930004
 23
-159.51321483129999
 33
0.0
  0
LINE
  5
185
  8
0
 62
     0
 10
900.91086908929992
 20
-159.51321483129999
 30
0.0
 11
903.91086908930004
 21
-159.51321483129999
 31
0.0
  0
SOLID
  5
186
  8
0
 62
     0
 10
900.91086908929992
 20
-159.51321483129999
 30
0.0
 11
905.41086908929992
 21
-158.38821483129999
 31
0.0
 12
905.41086908929992
 22
-160.63821483129999
 32
0.0
 13
904.28586908929981
 23
-159.51321483129999
 33
0.0
  0
ENDBLK
  5
187
  8
0
  0
BLOCK
  8
0
  2
*D3
 70
     1
 10
0.0
 20
0.0
 30
0.0
  3
*D3
  1

  0
TEXT
  5
18B
  8
0
 62
     0
 10
859.41006168479987
 20
-207.04863179200001
 30
0.0
 40
5.3974999188999986
  1
2
 50
90.0
  0
LINE
  5
18C
  8
0
 62
     0
 10
884.41086908930004
 20
-196.61830878730001
 30
0.0
 11
860.86256167049987
 21
-196.61830878730001
 31
0.0
  0
LINE
  5
18D
  8
0
 62
     0
 10
884.41086908930004
 20
-198.61830878730001
 30
0.0
 11
860.86256167049987
 21
-198.61830878730001
 31
0.0
  0
LINE
  5
18E
  8
0
 62
     0
 10
861.36256167049999
 20
-196.61830878730001
 30
0.0
 11
861.36256167049999
 21
-200.69863188740001
 31
0.0
  0
LINE
  5
18F
  8
0
 62
     0
 10
861.36256167049999
 20
-196.61830878730001
 30
0.0
 11
861.36256167049999
 21
-210.22363174430001
 31
0.0
  0
LINE
  5
190
  8
0
 62
     0
 10
861.36256167049999
 20
-198.61830878730001
 30
0.0
 11
861.36256167049999
 21
-200.69863188740001
 31
0.0
  0
LINE
  5
191
  8
0
 62
     0
 10
861.36256167049999
 20
-198.61830878730001
 30
0.0
 11
861.36256167049999
 21
-210.22363174430001
 31
0.0
  0
LINE
  5
192
  8
0
 62
     0
 10
861.36256167049999
 20
-198.61830878730001
 30
0.0
 11
861.36256167049999
 21
-201.61830878730001
 31
0.0
  0
SOLID
  5
193
  8
0
 62
     0
 10
861.36256167049999
 20
-198.61830878730001
 30
0.0
 11
862.48756167049987
 21
-203.11830878730001
 31
0.0
 12
860.23756167049999
 22
-203.11830878730001
 32
0.0
 13
861.36256167049999
 23
-201.99330878730001
 33
0.0
  0
LINE
  5
194
  8
0
 62
     0
 10
861.36256167049999
 20
-196.61830878730001
 30
0.0
 11
861.36256167049999
 21
-193.61830878730001
 31
0.0
  0
SOLID
  5
195
  8
0
 62
     0
 10
861.36256167049999
 20
-196.61830878730001
 30
0.0
 11
860.23756167049999
 21
-192.11830878730001
 31
0.0
 12
862.48756167049987
 22
-192.11830878730001
 32
0.0
 13
861.36256167049999
 23
-193.24330878730001
 33
0.0
  0
ENDBLK
  5
196
  8
0
  0
BLOCK
  8
0
  2
*D4
 70
     1
 10
0.0
 20
0.0
 30
0.0
  3
*D4
  1

  0
TEXT
  5
1D4
  8
0
 62
     0
 10
873.07403965280002
 20
-230.6428373805
 30
0.0
 40
5.3974999188999986
  1
30
  0
LINE
  5
1D5
  8
0
 62
     0
 10
891.24903960510005
 20
-251.9557537785
 30
0.0
 11
891.24903960510005
 21
-232.09533736610001
 31
0.0
  0
LINE
  5
1D6
  8
0
 62
     0
 10
861.24903960509994
 20
-257.52450377849999
 30
0.0
 11
861.24903960509994
 21
-232.09533736610001
 31
0.0
  0
LINE
  5
1D7
  8
0
 62
     0
 10
891.24903960510005
 20
-232.59533736610001
 30
0.0
 11
882.59903950979992
 21
-232.59533736610001
 31
0.0
  0
LINE
  5
1D8
  8
0
 62
     0
 10
891.24903960510005
 20
-232.59533736610001
 30
0.0
 11
869.89903970049988
 21
-232.59533736610001
 31
0.0
  0
LINE
  5
1D9
  8
0
 62
     0
 10
861.24903960509994
 20
-232.59533736610001
 30
0.0
 11
882.59903950979992
 21
-232.59533736610001
 31
0.0
  0
LINE
  5
1DA
  8
0
 62
     0
 10
861.24903960509994
 20
-232.59533736610001
 30
0.0
 11
869.89903970049988
 21
-232.59533736610001
 31
0.0
  0
LINE
  5
1DB
  8
0
 62
     0
 10
861.24903960509994
 20
-232.59533736610001
 30
0.0
 11
864.24903960510005
 21
-232.59533736610001
 31
0.0
  0
SOLID
  5
1DC
  8
0
 62
     0
 10
861.24903960509994
 20
-232.59533736610001
 30
0.0
 11
865.74903960509994
 21
-231.47033736610001
 31
0.0
 12
865.74903960509994
 22
-233.72033736610001
 32
0.0
 13
864.62403960509982
 23
-232.59533736610001
 33
0.0
  0
LINE
  5
1DD
  8
0
 62
     0
 10
891.24903960510005
 20
-232.59533736610001
 30
0.0
 11
888.24903960509982
 21
-232.59533736610001
 31
0.0
  0
SOLID
  5
1DE
  8
0
 62
     0
 10
891.24903960510005
 20
-232.59533736610001
 30
0.0
 11
886.74903960510005
 21
-233.72033736610001
 31
0.0
 12
886.74903960510005
 22
-231.47033736610001
 32
0.0
 13
887.87403960509982
 23
-232.59533736610001
 33
0.0
  0
ENDBLK
  5
1DF
  8
0
  0
BLOCK
  8
0
  2
*D5
 70
     1
 10
0.0
 20
0.0
 30
0.0
  3
*D5
  1

  0
TEXT
  5
1E3
  8
0
 62
     0
 10
922.77912060719996
 20
-272.2742633899
 30
0.0
 40
5.3974999188999986
  1

 50
90.0
  0
LINE
  5
1E4
  8
0
 62
     0
 10
905.45832232940006
 20
-300.2742633899
 30
0.0
 11
925.23162059289996
 21
-300.2742633899
 31
0.0
  0
LINE
  5
1E5
  8
0
 62
     0
 10
905.45832232940006
 20
-244.2742633899
 30
0.0
 11
925.23162059289996
 21
-244.2742633899
 31
0.0
  0
LINE
  5
1E6
  8
0
 62
     0
 10
924.73162059289984
 20
-300.2742633899
 30
0.0
 11
924.73162059289984
 21
-269.09926343759997
 31
0.0
  0
LINE
  5
1E7
  8
0
 62
     0
 10
924.73162059289984
 20
-300.2742633899
 30
0.0
 11
924.73162059289984
 21
-275.44926334220003
 31
0.0
  0
LINE
  5
1E8
  8
0
 62
     0
 10
924.73162059289984
 20
-244.2742633899
 30
0.0
 11
924.73162059289984
 21
-269.09926343759997
 31
0.0
  0
LINE
  5
1E9
  8
0
 62
     0
 10
924.73162059289984
 20
-244.2742633899
 30
0.0
 11
924.73162059289984
 21
-275.44926334220003
 31
0.0
  0
LINE
  5
1EA
  8
0
 62
     0
 10
924.73162059289984
 20
-244.2742633899
 30
0.0
 11
924.73162059289984
 21
-247.2742633899
 31
0.0
  0
SOLID
  5
1EB
  8
0
 62
     0
 10
924.73162059289984
 20
-244.2742633899
 30
0.0
 11
925.85662059289996
 21
-248.7742633899
 31
0.0
 12
923.60662059289984
 22
-248.7742633899
 32
0.0
 13
924.73162059289984
 23
-247.6492633899
 33
0.0
  0
LINE
  5
1EC
  8
0
 62
     0
 10
924.73162059289984
 20
-300.2742633899
 30
0.0
 11
924.73162059289984
 21
-297.2742633899
 31
0.0
  0
SOLID
  5
1ED
  8
0
 62
     0
 10
924.73162059289984
 20
-300.2742633899
 30
0.0
 11
923.60662059289984
 21
-295.7742633899
 31
0.0
 12
925.85662059289996
 22
-295.7742633899
 32
0.0
 13
924.73162059289984
 23
-296.8992633899
 33
0.0
  0
ENDBLK
  5
1EE
  8
0
  0
BLOCK
  8
0
  2
*D6
 70
     1
 10
0.0
 20
0.0
 30
0.0
  3
*D6
  1

  0
TEXT
  5
204
  8
0
 62
     0
 10
740.56658614539992
 20
-97.169048543900004
 30
0.0
 40
5.3974999188999986
  1
(5)
  0
LINE
  5
205
  8
0
 62
     0
 10
722.56014154210004
 20
-95.600715037299977
 30
0.0
 11
722.56014154210004
 21
-99.621548529599991
 31
0.0
  0
LINE
  5
206
  8
0
 62
     0
 10
717.56014154210004
 20
-95.600715037299977
 30
0.0
 11
717.56014154210004
 21
-99.621548529599991
 31
0.0
  0
LINE
  5
207
  8
0
 62
     0
 10
722.56014154210004
 20
-99.121548529600005
 30
0.0
 11
750.88533599039988
 21
-99.121548529600005
 31
0.0
  0
LINE
  5
208
  8
0
 62
     0
 10
722.56014154210004
 20
-99.121548529600005
 30
0.0
 11
737.39158619300008
 21
-99.121548529600005
 31
0.0
  0
LINE
  5
209
  8
0
 62
     0
 10
717.56014154210004
 20
-99.121548529600005
 30
0.0
 11
750.88533599039988
 21
-99.121548529600005
 31
0.0
  0
LINE
  5
20A
  8
0
 62
     0
 10
717.56014154210004
 20
-99.121548529600005
 30
0.0
 11
737.39158619300008
 21
-99.121548529600005
 31
0.0
  0
LINE
  5
20B
  8
0
 62
     0
 10
717.56014154210004
 20
-99.121548529600005
 30
0.0
 11
714.56014154210004
 21
-99.121548529600005
 31
0.0
  0
SOLID
  5
20C
  8
0
 62
     0
 10
717.56014154210004
 20
-99.121548529600005
 30
0.0
 11
713.06014154210004
 21
-100.24654852960001
 31
0.0
 12
713.06014154210004
 22
-97.996548529599991
 32
0.0
 13
714.18514154210004
 23
-99.121548529600005
 33
0.0
  0
LINE
  5
20D
  8
0
 62
     0
 10
722.56014154210004
 20
-99.121548529600005
 30
0.0
 11
725.56014154210004
 21
-99.121548529600005
 31
0.0
  0
SOLID
  5
20E
  8
0
 62
     0
 10
722.56014154210004
 20
-99.121548529600005
 30
0.0
 11
727.06014154210004
 21
-97.996548529599991
 31
0.0
 12
727.06014154210004
 22
-100.24654852960001
 32
0.0
 13
725.93514154210004
 23
-99.121548529600005
 33
0.0
  0
ENDBLK
  5
20F
  8
0
  0
BLOCK
  8
0
  2
BALLON0
 70
     0
 10
0.0
 20
0.0
 30
0.0
  3
BALLON0
  1

  0
INSERT
  5
23E
  8
0
  6
CONTINUOUS
  2
*U60
 10
0.0
 20
0.0
 30
0.0
  0
CIRCLE
  5
23F
  8
┌▓È_1
 10
795.00039438739998
 20
-199.63138100520001
 30
0.0
 40
6.0
  0
LINE
  5
240
  8
Éíû@É³
 10
785.00039438740009
 20
-199.63138100520001
 30
0.0
 11
789.00039438740009
 21
-199.63138100520001
 31
0.0
  0
LINE
  5
241
  8
Éíû@É³
 10
689.1619930682001
 20
-152.07363170389999
 30
0.0
 11
785.00039438740009
 21
-199.63138100520001
 31
0.0
  0
SOLID
  5
242
  8
Éíû@É³
 10
689.1619930682001
 20
-152.07363170389999
 30
0.0
 11
695.07005045080007
 21
-153.6657554315
 31
0.0
 12
693.46171048140002
 22
-154.20727416860001
 32
0.0
 13
693.46171048140002
 23
-154.20727416860001
 33
0.0
  0
SOLID
  5
243
  8
Éíû@É³
 10
693.46171048140002
 20
-154.20727416860001
 30
0.0
 11
694.00322921850011
 21
-155.81561413809999
 31
0.0
 12
689.1619930682001
 22
-152.07363170389999
 32
0.0
 13
689.1619930682001
 23
-152.07363170389999
 33
0.0
  0
ENDBLK
  5
244
  8
0
  0
BLOCK
  8
0
  2
*D8
 70
     1
 10
0.0
 20
0.0
 30
0.0
  3
*D8
  1

  0
TEXT
  5
2F2
  8
0
 62
     0
 10
747.67691264409996
 20
-257.5496592426
 30
0.0
 40
5.3974999188999986
  1
12.5
 50
90.0
  0
LINE
  5
2F3
  8
0
 62
     0
 10
727.56014154210004
 20
-258.37570099070001
 30
0.0
 11
750.12941262979984
 21
-258.37570099070001
 31
0.0
  0
LINE
  5
2F4
  8
0
 62
     0
 10
725.56014154210004
 20
-245.87570099070001
 30
0.0
 11
750.12941262979984
 21
-245.87570099070001
 31
0.0
  0
LINE
  5
2F5
  8
0
 62
     0
 10
749.62941262979984
 20
-258.37570099070001
 30
0.0
 11
749.62941262979984
 21
-258.37570099070001
 31
0.0
  0
LINE
  5
2F6
  8
0
 62
     0
 10
749.62941262979984
 20
-258.37570099070001
 30
0.0
 11
749.62941262979984
 21
-245.87570099070001
 31
0.0
  0
LINE
  5
2F7
  8
0
 62
     0
 10
749.62941262979984
 20
-245.87570099070001
 30
0.0
 11
749.62941262979984
 21
-258.37570099070001
 31
0.0
  0
LINE
  5
2F8
  8
0
 62
     0
 10
749.62941262979984
 20
-245.87570099070001
 30
0.0
 11
749.62941262979984
 21
-245.87570099070001
 31
0.0
  0
LINE
  5
2F9
  8
0
 62
     0
 10
749.62941262979984
 20
-245.87570099070001
 30
0.0
 11
749.62941262979984
 21
-248.87570099070001
 31
0.0
  0
SOLID
  5
2FA
  8
0
 62
     0
 10
749.62941262979984
 20
-245.87570099070001
 30
0.0
 11
750.75441262979984
 21
-250.37570099070001
 31
0.0
 12
748.50441262979984
 22
-250.37570099070001
 32
0.0
 13
749.62941262979984
 23
-249.25070099070001
 33
0.0
  0
LINE
  5
2FB
  8
0
 62
     0
 10
749.62941262979984
 20
-258.37570099070001
 30
0.0
 11
749.62941262979984
 21
-255.37570099070001
 31
0.0
  0
SOLID
  5
2FC
  8
0
 62
     0
 10
749.62941262979984
 20
-258.37570099070001
 30
0.0
 11
748.50441262979984
 21
-253.87570099070001
 31
0.0
 12
750.75441262979984
 22
-253.87570099070001
 32
0.0
 13
749.62941262979984
 23
-255.00070099070001
 33
0.0
  0
ENDBLK
  5
2FD
  8
0
  0
BLOCK
  8
0
  2
*D9
 70
     1
 10
0.0
 20
0.0
 30
0.0
  3
*D9
  1

  0
TEXT
  5
325
  8
0
 62
     0
 10
747.67691264409996
 20
-399.05070094299998
 30
0.0
 40
5.3974999188999986
  1
30
 50
90.0
  0
LINE
  5
326
  8
0
 62
     0
 10
687.56014154210004
 20
-410.87570099070001
 30
0.0
 11
750.12941262979984
 21
-410.87570099070001
 31
0.0
  0
LINE
  5
327
  8
0
 62
     0
 10
697.56014154210004
 20
-380.87570099070001
 30
0.0
 11
750.12941262979984
 21
-380.87570099070001
 31
0.0
  0
LINE
  5
328
  8
0
 62
     0
 10
749.62941262979984
 20
-410.87570099070001
 30
0.0
 11
749.62941262979984
 21
-389.52570108610001
 31
0.0
  0
LINE
  5
329
  8
0
 62
     0
 10
749.62941262979984
 20
-410.87570099070001
 30
0.0
 11
749.62941262979984
 21
-402.22570089529989
 31
0.0
  0
LINE
  5
32A
  8
0
 62
     0
 10
749.62941262979984
 20
-380.87570099070001
 30
0.0
 11
749.62941262979984
 21
-389.52570108610001
 31
0.0
  0
LINE
  5
32B
  8
0
 62
     0
 10
749.62941262979984
 20
-380.87570099070001
 30
0.0
 11
749.62941262979984
 21
-402.22570089529989
 31
0.0
  0
LINE
  5
32C
  8
0
 62
     0
 10
749.62941262979984
 20
-380.87570099070001
 30
0.0
 11
749.62941262979984
 21
-383.87570099070001
 31
0.0
  0
SOLID
  5
32D
  8
0
 62
     0
 10
749.62941262979984
 20
-380.87570099070001
 30
0.0
 11
750.75441262979984
 21
-385.37570099070001
 31
0.0
 12
748.50441262979984
 22
-385.37570099070001
 32
0.0
 13
749.62941262979984
 23
-384.25070099070001
 33
0.0
  0
LINE
  5
32E
  8
0
 62
     0
 10
749.62941262979984
 20
-410.87570099070001
 30
0.0
 11
749.62941262979984
 21
-407.87570099070001
 31
0.0
  0
SOLID
  5
32F
  8
0
 62
     0
 10
749.62941262979984
 20
-410.87570099070001
 30
0.0
 11
748.50441262979984
 21
-406.37570099070001
 31
0.0
 12
750.75441262979984
 22
-406.37570099070001
 32
0.0
 13
749.62941262979984
 23
-407.5007009906999
 33
0.0
  0
ENDBLK
  5
330
  8
0
  0
BLOCK
  8
0
  2
BALLON1
 70
     0
 10
0.0
 20
0.0
 30
0.0
  3
BALLON1
  1

  0
INSERT
  5
339
  8
0
  6
CONTINUOUS
  2
*U61
 10
0.0
 20
0.0
 30
0.0
  0
CIRCLE
  5
33A
  8
┌▓È_1
 10
794.65839513100002
 20
-249.7133496708
 30
0.0
 40
6.0
  0
LINE
  5
33B
  8
Éíû@É³
 10
804.65839513099991
 20
-249.7133496708
 30
0.0
 11
800.65839513100002
 21
-249.7133496708
 31
0.0
  0
LINE
  5
33C
  8
Éíû@É³
 10
832.59416180070002
 20
-269.65158711179998
 30
0.0
 11
804.65839513099991
 21
-249.7133496708
 31
0.0
  0
SOLID
  5
33D
  8
Éíû@É³
 10
832.59416180070002
 20
-269.65158711179998
 30
0.0
 11
827.0133300553
 21
-267.14273936239999
 31
0.0
 12
828.68719088110015
 22
-266.86311472829999
 32
0.0
 13
828.68719088110015
 23
-266.86311472829999
 33
0.0
  0
SOLID
  5
33E
  8
Éíû@É³
 10
828.68719088110015
 20
-266.86311472829999
 30
0.0
 11
828.40756624710002
 21
-265.1892539026
 31
0.0
 12
832.59416180070002
 22
-269.65158711179998
 32
0.0
 13
832.59416180070002
 23
-269.65158711179998
 33
0.0
  0
ENDBLK
  5
33F
  8
0
  0
BLOCK
  8
0
  2
BALLON2
 70
     0
 10
0.0
 20
0.0
 30
0.0
  3
BALLON2
  1

  0
INSERT
  5
343
  8
0
  6
CONTINUOUS
  2
*U62
 10
0.0
 20
0.0
 30
0.0
  0
CIRCLE
  5
344
  8
┌▓È_1
 10
795.00039438739998
 20
-270.3206393868
 30
0.0
 40
6.0
  0
LINE
  5
345
  8
Éíû@É³
 10
785.00039438740009
 20
-270.3206393868
 30
0.0
 11
789.00039438740009
 21
-270.3206393868
 31
0.0
  0
LINE
  5
346
  8
Éíû@É³
 10
706.56014154210004
 20
-329.5300207441
 30
0.0
 11
785.00039438740009
 21
-270.3206393868
 31
0.0
  0
SOLID
  5
347
  8
Éíû@É³
 10
706.56014154210004
 20
-329.5300207441
 30
0.0
 11
710.62604685809993
 21
-324.9574488243
 31
0.0
 12
710.39123361899988
 22
-326.63818162360002
 32
0.0
 13
710.39123361899988
 23
-326.63818162360002
 33
0.0
  0
SOLID
  5
348
  8
Éíû@É³
 10
710.39123361899988
 20
-326.63818162360002
 30
0.0
 11
712.07196641839994
 21
-326.87299486270001
 31
0.0
 12
706.56014154210004
 22
-329.5300207441
 32
0.0
 13
706.56014154210004
 23
-329.5300207441
 33
0.0
  0
ENDBLK
  5
349
  8
0
  0
BLOCK
  8
0
  2
*D12
 70
     1
 10
0.0
 20
0.0
 30
0.0
  3
*D12
  1

  0
TEXT
  5
371
  8
0
 62
     0
 10
1109.0611940141
 20
-135.04018363829999
 30
0.0
 40
5.3974999188999986
  1
(üá111)
 50
90.0
  0
LINE
  5
372
  8
0
 62
     0
 10
1007.6188117977
 20
-180.61830878730001
 30
0.0
 11
1111.5136939997999
 21
-180.61830878730001
 31
0.0
  0
LINE
  5
373
  8
0
 62
     0
 10
1007.6188117977
 20
-69.618308787299995
 30
0.0
 11
1111.5136939997999
 21
-69.618308787299995
 31
0.0
  0
LINE
  5
374
  8
0
 62
     0
 10
1111.0136939997999
 20
-180.61830878730001
 30
0.0
 11
1111.0136939997999
 21
-112.021433984
 31
0.0
  0
LINE
  5
375
  8
0
 62
     0
 10
1111.0136939997999
 20
-180.61830878730001
 30
0.0
 11
1111.0136939997999
 21
-138.21518359059999
 31
0.0
  0
LINE
  5
376
  8
0
 62
     0
 10
1111.0136939997999
 20
-69.618308787299995
 30
0.0
 11
1111.0136939997999
 21
-112.021433984
 31
0.0
  0
LINE
  5
377
  8
0
 62
     0
 10
1111.0136939997999
 20
-69.618308787299995
 30
0.0
 11
1111.0136939997999
 21
-138.21518359059999
 31
0.0
  0
LINE
  5
378
  8
0
 62
     0
 10
1111.0136939997999
 20
-69.618308787299995
 30
0.0
 11
1111.0136939997999
 21
-72.618308787299995
 31
0.0
  0
SOLID
  5
379
  8
0
 62
     0
 10
1111.0136939997999
 20
-69.618308787299995
 30
0.0
 11
1112.1386939997999
 21
-74.118308787299995
 31
0.0
 12
1109.8886939997999
 22
-74.118308787299995
 32
0.0
 13
1111.0136939997999
 23
-72.993308787299995
 33
0.0
  0
LINE
  5
37A
  8
0
 62
     0
 10
1111.0136939997999
 20
-180.61830878730001
 30
0.0
 11
1111.0136939997999
 21
-177.61830878730001
 31
0.0
  0
SOLID
  5
37B
  8
0
 62
     0
 10
1111.0136939997999
 20
-180.61830878730001
 30
0.0
 11
1109.8886939997999
 21
-176.11830878730001
 31
0.0
 12
1112.1386939997999
 22
-176.11830878730001
 32
0.0
 13
1111.0136939997999
 23
-177.24330878730001
 33
0.0
  0
ENDBLK
  5
37C
  8
0
  0
BLOCK
  8
0
  2
*D13
 70
     1
 10
0.0
 20
0.0
 30
0.0
  3
*D13
  1

  0
TEXT
  5
380
  8
0
 62
     0
 10
1088.4414896559999
 20
-117.81255763439999
 30
0.0
 40
5.3974999188999986
  1

 50
90.0
  0
LINE
  5
381
  8
0
 62
     0
 10
1076.3939896417
 20
-153.31255763440001
 30
0.0
 11
1090.8939896417
 21
-153.31255763440001
 31
0.0
  0
LINE
  5
382
  8
0
 62
     0
 10
1076.3939896417
 20
-82.312557634399994
 30
0.0
 11
1090.8939896417
 21
-82.312557634399994
 31
0.0
  0
LINE
  5
383
  8
0
 62
     0
 10
1090.3939896417
 20
-153.31255763440001
 30
0.0
 11
1090.3939896417
 21
-114.6375576821
 31
0.0
  0
LINE
  5
384
  8
0
 62
     0
 10
1090.3939896417
 20
-153.31255763440001
 30
0.0
 11
1090.3939896417
 21
-120.98755758670001
 31
0.0
  0
LINE
  5
385
  8
0
 62
     0
 10
1090.3939896417
 20
-82.312557634399994
 30
0.0
 11
1090.3939896417
 21
-114.6375576821
 31
0.0
  0
LINE
  5
386
  8
0
 62
     0
 10
1090.3939896417
 20
-82.312557634399994
 30
0.0
 11
1090.3939896417
 21
-120.98755758670001
 31
0.0
  0
LINE
  5
387
  8
0
 62
     0
 10
1090.3939896417
 20
-82.312557634399994
 30
0.0
 11
1090.3939896417
 21
-85.312557634399994
 31
0.0
  0
SOLID
  5
388
  8
0
 62
     0
 10
1090.3939896417
 20
-82.312557634399994
 30
0.0
 11
1091.5189896417
 21
-86.812557634400008
 31
0.0
 12
1089.2689896417
 22
-86.812557634400008
 32
0.0
 13
1090.3939896417
 23
-85.687557634399994
 33
0.0
  0
LINE
  5
389
  8
0
 62
     0
 10
1090.3939896417
 20
-153.31255763440001
 30
0.0
 11
1090.3939896417
 21
-150.31255763440001
 31
0.0
  0
SOLID
  5
38A
  8
0
 62
     0
 10
1090.3939896417
 20
-153.31255763440001
 30
0.0
 11
1089.2689896417
 21
-148.81255763440001
 31
0.0
 12
1091.5189896417
 22
-148.81255763440001
 32
0.0
 13
1090.3939896417
 23
-149.93755763440001
 33
0.0
  0
ENDBLK
  5
38B
  8
0
  0
BLOCK
  8
0
  2
*D14
 70
     1
 10
0.0
 20
0.0
 30
0.0
  3
*D14
  1

  0
TEXT
  5
3A0
  8
0
 62
     0
 10
757.02412638919998
 20
-129.8809232991
 30
0.0
 40
5.3974999188999986
  1
167
 50
90.0
  0
LINE
  5
3A1
  8
0
 62
     0
 10
723.56014154210004
 20
-208.6184233706
 30
0.0
 11
759.47662637490009
 21
-208.6184233706
 31
0.0
  0
LINE
  5
3A2
  8
0
 62
     0
 10
723.56014154210004
 20
-41.618423370599999
 30
0.0
 11
759.47662637490009
 21
-41.618423370599999
 31
0.0
  0
LINE
  5
3A3
  8
0
 62
     0
 10
758.97662637490009
 20
-208.6184233706
 30
0.0
 11
758.97662637490009
 21
-117.18092348979999
 31
0.0
  0
LINE
  5
3A4
  8
0
 62
     0
 10
758.97662637490009
 20
-208.6184233706
 30
0.0
 11
758.97662637490009
 21
-133.0559232514
 31
0.0
  0
LINE
  5
3A5
  8
0
 62
     0
 10
758.97662637490009
 20
-41.618423370599999
 30
0.0
 11
758.97662637490009
 21
-117.18092348979999
 31
0.0
  0
LINE
  5
3A6
  8
0
 62
     0
 10
758.97662637490009
 20
-41.618423370599999
 30
0.0
 11
758.97662637490009
 21
-133.0559232514
 31
0.0
  0
LINE
  5
3A7
  8
0
 62
     0
 10
758.97662637490009
 20
-41.618423370599999
 30
0.0
 11
758.97662637490009
 21
-44.618423370600013
 31
0.0
  0
SOLID
  5
3A8
  8
0
 62
     0
 10
758.97662637490009
 20
-41.618423370599999
 30
0.0
 11
760.10162637489998
 21
-46.118423370599999
 31
0.0
 12
757.85162637489998
 22
-46.118423370599999
 32
0.0
 13
758.97662637490009
 23
-44.993423370599999
 33
0.0
  0
LINE
  5
3A9
  8
0
 62
     0
 10
758.97662637490009
 20
-208.6184233706
 30
0.0
 11
758.97662637490009
 21
-205.6184233706
 31
0.0
  0
SOLID
  5
3AA
  8
0
 62
     0
 10
758.97662637490009
 20
-208.6184233706
 30
0.0
 11
757.85162637489998
 21
-204.1184233706
 31
0.0
 12
760.10162637489998
 22
-204.1184233706
 32
0.0
 13
758.97662637490009
 23
-205.2434233706
 33
0.0
  0
ENDBLK
  5
3AB
  8
0
  0
BLOCK
  8
0
  2
*D15
 70
     1
 10
0.0
 20
0.0
 30
0.0
  3
*D15
  1

  0
TEXT
  5
3BC
  8
0
 62
     0
 10
842.60459407919996
 20
-130.55580747600001
 30
0.0
 40
5.3974999188999986
  1
üá129
 50
90.0
  0
LINE
  5
3BD
  8
0
 62
     0
 10
884.91086908929992
 20
-60.618308787299988
 30
0.0
 11
844.05709406490007
 21
-60.618308787299988
 31
0.0
  0
LINE
  5
3BE
  8
0
 62
     0
 10
884.91086908929992
 20
-189.61830878730001
 30
0.0
 11
844.05709406490007
 21
-189.61830878730001
 31
0.0
  0
LINE
  5
3BF
  8
0
 62
     0
 10
844.55709406489996
 20
-60.618308787299988
 30
0.0
 11
844.55709406489996
 21
-111.50580776210001
 31
0.0
  0
LINE
  5
3C0
  8
0
 62
     0
 10
844.55709406489996
 20
-60.618308787299988
 30
0.0
 11
844.55709406489996
 21
-133.73080742830001
 31
0.0
  0
LINE
  5
3C1
  8
0
 62
     0
 10
844.55709406489996
 20
-189.61830878730001
 30
0.0
 11
844.55709406489996
 21
-111.50580776210001
 31
0.0
  0
LINE
  5
3C2
  8
0
 62
     0
 10
844.55709406489996
 20
-189.61830878730001
 30
0.0
 11
844.55709406489996
 21
-133.73080742830001
 31
0.0
  0
LINE
  5
3C3
  8
0
 62
     0
 10
844.55709406489996
 20
-189.61830878730001
 30
0.0
 11
844.55709406489996
 21
-186.61830878730001
 31
0.0
  0
SOLID
  5
3C4
  8
0
 62
     0
 10
844.55709406489996
 20
-189.61830878730001
 30
0.0
 11
843.43209406489996
 21
-185.11830878730001
 31
0.0
 12
845.68209406489996
 22
-185.11830878730001
 32
0.0
 13
844.55709406489996
 23
-186.24330878730001
 33
0.0
  0
LINE
  5
3C5
  8
0
 62
     0
 10
844.55709406489996
 20
-60.618308787299988
 30
0.0
 11
844.55709406489996
 21
-63.618308787300002
 31
0.0
  0
SOLID
  5
3C6
  8
0
 62
     0
 10
844.55709406489996
 20
-60.618308787299988
 30
0.0
 11
845.68209406489996
 21
-65.118308787299995
 31
0.0
 12
843.43209406489996
 22
-65.118308787299995
 32
0.0
 13
844.55709406489996
 23
-63.993308787299988
 33
0.0
  0
ENDBLK
  5
3C7
  8
0
  0
BLOCK
  8
0
  2
*D16
 70
     1
 10
0.0
 20
0.0
 30
0.0
  3
*D16
  1

  0
TEXT
  5
3E0
  8
0
 62
     0
 10
766.41331706300002
 20
-333.13820091920002
 30
0.0
 40
5.3974999188999986
  1
165
 50
90.0
  0
LINE
  5
3E1
  8
0
 62
     0
 10
687.56014154210004
 20
-410.87570099070001
 30
0.0
 11
768.8658170486998
 21
-410.87570099070001
 31
0.0
  0
LINE
  5
3E2
  8
0
 62
     0
 10
725.56014154210004
 20
-245.87570099070001
 30
0.0
 11
768.8658170486998
 21
-245.87570099070001
 31
0.0
  0
LINE
  5
3E3
  8
0
 62
     0
 10
768.36581704869991
 20
-410.87570099070001
 30
0.0
 11
768.36581704869991
 21
-320.43820110989998
 31
0.0
  0
LINE
  5
3E4
  8
0
 62
     0
 10
768.36581704869991
 20
-410.87570099070001
 30
0.0
 11
768.36581704869991
 21
-336.31320087149999
 31
0.0
  0
LINE
  5
3E5
  8
0
 62
     0
 10
768.36581704869991
 20
-245.87570099070001
 30
0.0
 11
768.36581704869991
 21
-320.43820110989998
 31
0.0
  0
LINE
  5
3E6
  8
0
 62
     0
 10
768.36581704869991
 20
-245.87570099070001
 30
0.0
 11
768.36581704869991
 21
-336.31320087149999
 31
0.0
  0
LINE
  5
3E7
  8
0
 62
     0
 10
768.36581704869991
 20
-245.87570099070001
 30
0.0
 11
768.36581704869991
 21
-248.87570099070001
 31
0.0
  0
SOLID
  5
3E8
  8
0
 62
     0
 10
768.36581704869991
 20
-245.87570099070001
 30
0.0
 11
769.49081704869991
 21
-250.37570099070001
 31
0.0
 12
767.24081704869991
 22
-250.37570099070001
 32
0.0
 13
768.36581704869991
 23
-249.25070099070001
 33
0.0
  0
LINE
  5
3E9
  8
0
 62
     0
 10
768.36581704869991
 20
-410.87570099070001
 30
0.0
 11
768.36581704869991
 21
-407.87570099070001
 31
0.0
  0
SOLID
  5
3EA
  8
0
 62
     0
 10
768.36581704869991
 20
-410.87570099070001
 30
0.0
 11
767.24081704869991
 21
-406.37570099070001
 31
0.0
 12
769.49081704869991
 22
-406.37570099070001
 32
0.0
 13
768.36581704869991
 23
-407.5007009906999
 33
0.0
  0
ENDBLK
  5
3EB
  8
0
  0
BLOCK
  8
0
  2
*D17
 70
     1
 10
0.0
 20
0.0
 30
0.0
  3
*D17
  1

  0
TEXT
  5
3EF
  8
0
 62
     0
 10
747.67691264409996
 20
-326.63715921869999
 30
0.0
 40
5.3974999188999986
  1
122.5
 50
90.0
  0
LINE
  5
3F0
  8
0
 62
     0
 10
697.56014154210004
 20
-380.87570099070001
 30
0.0
 11
750.12941262979984
 21
-380.87570099070001
 31
0.0
  0
LINE
  5
3F1
  8
0
 62
     0
 10
727.56014154210004
 20
-258.37570099070001
 30
0.0
 11
750.12941262979984
 21
-258.37570099070001
 31
0.0
  0
LINE
  5
3F2
  8
0
 62
     0
 10
749.62941262979984
 20
-380.87570099070001
 30
0.0
 11
749.62941262979984
 21
-309.43924281030002
 31
0.0
  0
LINE
  5
3F3
  8
0
 62
     0
 10
749.62941262979984
 20
-380.87570099070001
 30
0.0
 11
749.62941262979984
 21
-329.81215917100002
 31
0.0
  0
LINE
  5
3F4
  8
0
 62
     0
 10
749.62941262979984
 20
-258.37570099070001
 30
0.0
 11
749.62941262979984
 21
-309.43924281030002
 31
0.0
  0
LINE
  5
3F5
  8
0
 62
     0
 10
749.62941262979984
 20
-258.37570099070001
 30
0.0
 11
749.62941262979984
 21
-329.81215917100002
 31
0.0
  0
LINE
  5
3F6
  8
0
 62
     0
 10
749.62941262979984
 20
-258.37570099070001
 30
0.0
 11
749.62941262979984
 21
-261.37570099070001
 31
0.0
  0
SOLID
  5
3F7
  8
0
 62
     0
 10
749.62941262979984
 20
-258.37570099070001
 30
0.0
 11
750.75441262979984
 21
-262.87570099070001
 31
0.0
 12
748.50441262979984
 22
-262.87570099070001
 32
0.0
 13
749.62941262979984
 23
-261.75070099070001
 33
0.0
  0
LINE
  5
3F8
  8
0
 62
     0
 10
749.62941262979984
 20
-380.87570099070001
 30
0.0
 11
749.62941262979984
 21
-377.87570099070001
 31
0.0
  0
SOLID
  5
3F9
  8
0
 62
     0
 10
749.62941262979984
 20
-380.87570099070001
 30
0.0
 11
748.50441262979984
 21
-376.37570099070001
 31
0.0
 12
750.75441262979984
 22
-376.37570099070001
 32
0.0
 13
749.62941262979984
 23
-377.50070099070001
 33
0.0
  0
ENDBLK
  5
3FA
  8
0
  0
BLOCK
  8
0
  2
CLUMP0
 70
     0
 10
0.0
 20
0.0
 30
0.0
  3
CLUMP0
  1

  0
LINE
  5
418
  8
É}ÿg
 10
1008.0030031623
 20
-343.62449633089989
 30
0.0
 11
1008.0030031623
 21
-336.1244963309
 31
0.0
  0
LINE
  5
419
  8
É}ÿg
 10
919.50300316230005
 20
-343.62449633089989
 30
0.0
 11
919.50300316230005
 21
-336.1244963309
 31
0.0
  0
LINE
  5
41A
  8
É}ÿg
 10
933.00300316230005
 20
-343.62449633089989
 30
0.0
 11
933.00300316230005
 21
-336.1244963309
 31
0.0
  0
LINE
  5
41B
  8
É}ÿg
 10
1090.5030031623
 20
-343.62449633089989
 30
0.0
 11
1090.5030031623
 21
-336.1244963309
 31
0.0
  0
LINE
  5
41C
  8
É}ÿg
 10
1077.0030031623
 20
-343.62449633089989
 30
0.0
 11
1077.0030031623
 21
-336.1244963309
 31
0.0
  0
LINE
  5
41D
  8
É}ÿg
 10
1137.0030031623
 20
-336.1244963309
 30
0.0
 11
919.50300316230005
 21
-336.1244963309
 31
0.0
  0
ENDBLK
  5
41E
  8
0
  0
BLOCK
  8
0
  2
CLUMP1
 70
     0
 10
0.0
 20
0.0
 30
0.0
  3
CLUMP1
  1

  0
LINE
  5
422
  8
É}ÿg
 10
1008.0030031623
 20
-351.1244963309
 30
0.0
 11
1008.0030031623
 21
-343.62449633089989
 31
0.0
  0
LINE
  5
423
  8
É}ÿg
 10
919.50300316230005
 20
-351.1244963309
 30
0.0
 11
919.50300316230005
 21
-343.62449633089989
 31
0.0
  0
LINE
  5
424
  8
É}ÿg
 10
933.00300316230005
 20
-351.1244963309
 30
0.0
 11
933.00300316230005
 21
-343.62449633089989
 31
0.0
  0
LINE
  5
425
  8
É}ÿg
 10
1090.5030031623
 20
-351.1244963309
 30
0.0
 11
1090.5030031623
 21
-343.62449633089989
 31
0.0
  0
LINE
  5
426
  8
É}ÿg
 10
1077.0030031623
 20
-351.1244963309
 30
0.0
 11
1077.0030031623
 21
-343.62449633089989
 31
0.0
  0
LINE
  5
427
  8
É}ÿg
 10
1137.0030031623
 20
-343.62449633089989
 30
0.0
 11
919.50300316230005
 21
-343.62449633089989
 31
0.0
  0
ENDBLK
  5
428
  8
0
  0
BLOCK
  8
0
  2
CLUMP2
 70
     0
 10
0.0
 20
0.0
 30
0.0
  3
CLUMP2
  1

  0
LINE
  5
42C
  8
É}ÿg
 10
1008.0030031623
 20
-358.62449633089989
 30
0.0
 11
1008.0030031623
 21
-351.1244963309
 31
0.0
  0
LINE
  5
42D
  8
É}ÿg
 10
919.50300316230005
 20
-358.62449633089989
 30
0.0
 11
919.50300316230005
 21
-351.1244963309
 31
0.0
  0
LINE
  5
42E
  8
É}ÿg
 10
933.00300316230005
 20
-358.62449633089989
 30
0.0
 11
933.00300316230005
 21
-351.1244963309
 31
0.0
  0
LINE
  5
42F
  8
É}ÿg
 10
1090.5030031623
 20
-358.62449633089989
 30
0.0
 11
1090.5030031623
 21
-351.1244963309
 31
0.0
  0
LINE
  5
430
  8
É}ÿg
 10
1077.0030031623
 20
-358.62449633089989
 30
0.0
 11
1077.0030031623
 21
-351.1244963309
 31
0.0
  0
LINE
  5
431
  8
É}ÿg
 10
1137.0030031623
 20
-351.1244963309
 30
0.0
 11
919.50300316230005
 21
-351.1244963309
 31
0.0
  0
ENDBLK
  5
432
  8
0
  0
BLOCK
  8
0
  2
CLUMP3
 70
     0
 10
0.0
 20
0.0
 30
0.0
  3
CLUMP3
  1

  0
LINE
  5
436
  8
É}ÿg
 10
1008.0030031623
 20
-366.1244963309
 30
0.0
 11
1008.0030031623
 21
-358.62449633089989
 31
0.0
  0
LINE
  5
437
  8
É}ÿg
 10
919.50300316230005
 20
-366.1244963309
 30
0.0
 11
919.50300316230005
 21
-358.62449633089989
 31
0.0
  0
LINE
  5
438
  8
É}ÿg
 10
933.00300316230005
 20
-366.1244963309
 30
0.0
 11
933.00300316230005
 21
-358.62449633089989
 31
0.0
  0
LINE
  5
439
  8
É}ÿg
 10
1090.5030031623
 20
-366.1244963309
 30
0.0
 11
1090.5030031623
 21
-358.62449633089989
 31
0.0
  0
LINE
  5
43A
  8
É}ÿg
 10
1077.0030031623
 20
-366.1244963309
 30
0.0
 11
1077.0030031623
 21
-358.62449633089989
 31
0.0
  0
LINE
  5
43B
  8
É}ÿg
 10
1137.0030031623
 20
-358.62449633089989
 30
0.0
 11
919.50300316230005
 21
-358.62449633089989
 31
0.0
  0
ENDBLK
  5
43C
  8
0
  0
BLOCK
  8
0
  2
CLUMP4
 70
     0
 10
0.0
 20
0.0
 30
0.0
  3
CLUMP4
  1

  0
LINE
  5
440
  8
É}ÿg
 10
1008.0030031623
 20
-328.6244963309
 30
0.0
 11
1008.0030031623
 21
-321.1244963309
 31
0.0
  0
LINE
  5
441
  8
É}ÿg
 10
919.50300316230005
 20
-328.6244963309
 30
0.0
 11
919.50300316230005
 21
-321.1244963309
 31
0.0
  0
LINE
  5
442
  8
É}ÿg
 10
933.00300316230005
 20
-328.6244963309
 30
0.0
 11
933.00300316230005
 21
-321.1244963309
 31
0.0
  0
LINE
  5
443
  8
É}ÿg
 10
1090.5030031623
 20
-328.6244963309
 30
0.0
 11
1090.5030031623
 21
-321.1244963309
 31
0.0
  0
LINE
  5
444
  8
É}ÿg
 10
1077.0030031623
 20
-328.6244963309
 30
0.0
 11
1077.0030031623
 21
-321.1244963309
 31
0.0
  0
LINE
  5
445
  8
É}ÿg
 10
1137.0030031623
 20
-321.1244963309
 30
0.0
 11
919.50300316230005
 21
-321.1244963309
 31
0.0
  0
ENDBLK
  5
446
  8
0
  0
BLOCK
  8
0
  2
CLUMP5
 70
     0
 10
0.0
 20
0.0
 30
0.0
  3
CLUMP5
  1

  0
LINE
  5
44A
  8
É}ÿg
 10
1008.0030031623
 20
-336.1244963309
 30
0.0
 11
1008.0030031623
 21
-328.6244963309
 31
0.0
  0
LINE
  5
44B
  8
É}ÿg
 10
919.50300316230005
 20
-336.1244963309
 30
0.0
 11
919.50300316230005
 21
-328.6244963309
 31
0.0
  0
LINE
  5
44C
  8
É}ÿg
 10
933.00300316230005
 20
-336.1244963309
 30
0.0
 11
933.00300316230005
 21
-328.6244963309
 31
0.0
  0
LINE
  5
44D
  8
É}ÿg
 10
1090.5030031623
 20
-336.1244963309
 30
0.0
 11
1090.5030031623
 21
-328.6244963309
 31
0.0
  0
LINE
  5
44E
  8
É}ÿg
 10
1077.0030031623
 20
-336.1244963309
 30
0.0
 11
1077.0030031623
 21
-328.6244963309
 31
0.0
  0
LINE
  5
44F
  8
É}ÿg
 10
1137.0030031623
 20
-328.6244963309
 30
0.0
 11
919.50300316230005
 21
-328.6244963309
 31
0.0
  0
ENDBLK
  5
450
  8
0
  0
BLOCK
  8
0
  2
*D24
 70
     1
 10
0.0
 20
0.0
 30
0.0
  3
*D24
  1

  0
TEXT
  5
455
  8
0
 62
     0
 10
978.19745841379995
 20
-46.827382211600003
 30
0.0
 40
5.3974999188999986
  1
50
  0
LINE
  5
456
  8
0
 62
     0
 10
1006.4108690893
 20
-75.118308787299995
 30
0.0
 11
1006.4108690893
 21
-48.27988219729999
 31
0.0
  0
LINE
  5
457
  8
0
 62
     0
 10
956.41086908929981
 20
-88.118308787299995
 30
0.0
 11
956.41086908929981
 21
-48.27988219729999
 31
0.0
  0
LINE
  5
458
  8
0
 62
     0
 10
1006.4108690893
 20
-48.77988219729999
 30
0.0
 11
987.72245827079985
 21
-48.77988219729999
 31
0.0
  0
LINE
  5
459
  8
0
 62
     0
 10
1006.4108690893
 20
-48.77988219729999
 30
0.0
 11
975.02245846149992
 21
-48.77988219729999
 31
0.0
  0
LINE
  5
45A
  8
0
 62
     0
 10
956.41086908929981
 20
-48.77988219729999
 30
0.0
 11
987.72245827079985
 21
-48.77988219729999
 31
0.0
  0
LINE
  5
45B
  8
0
 62
     0
 10
956.41086908929981
 20
-48.77988219729999
 30
0.0
 11
975.02245846149992
 21
-48.77988219729999
 31
0.0
  0
LINE
  5
45C
  8
0
 62
     0
 10
956.41086908929981
 20
-48.77988219729999
 30
0.0
 11
959.41086908930004
 21
-48.77988219729999
 31
0.0
  0
SOLID
  5
45D
  8
0
 62
     0
 10
956.41086908929981
 20
-48.77988219729999
 30
0.0
 11
960.91086908929981
 21
-47.65488219729999
 31
0.0
 12
960.91086908929981
 22
-49.904882197299997
 32
0.0
 13
959.78586908930004
 23
-48.77988219729999
 33
0.0
  0
LINE
  5
45E
  8
0
 62
     0
 10
1006.4108690893
 20
-48.77988219729999
 30
0.0
 11
1003.4108690893
 21
-48.77988219729999
 31
0.0
  0
SOLID
  5
45F
  8
0
 62
     0
 10
1006.4108690893
 20
-48.77988219729999
 30
0.0
 11
1001.9108690893
 21
-49.904882197299997
 31
0.0
 12
1001.9108690893
 22
-47.65488219729999
 32
0.0
 13
1003.0358690893
 23
-48.77988219729999
 33
0.0
  0
ENDBLK
  5
460
  8
0
  0
BLOCK
  8
0
  2
CLUMP6
 70
     0
 10
0.0
 20
0.0
 30
0.0
  3
CLUMP6
  1

  0
LINE
  5
466
  8
É}ÿg
 10
1006.9848819857
 20
-419.25948688049999
 30
0.0
 11
1008.4848819857
 21
-417.00948688049999
 31
0.0
  0
LINE
  5
467
  8
É}ÿg
 10
984.99397289479987
 20
-417.00948688049999
 30
0.0
 11
984.99397289479987
 21
-420.00948688049999
 31
0.0
  0
LINE
  5
468
  8
É}ÿg
 10
1020.5845173609
 20
-422.25948688049999
 30
0.0
 11
1025.3111059580999
 21
-422.25948688049999
 31
0.0
  0
LINE
  5
469
  8
É}ÿg
 10
994.9848819857001
 20
-427.50948688049999
 30
0.0
 11
998.73488198569999
 21
-427.50948688049999
 31
0.0
  0
LINE
  5
46A
  8
É}ÿg
 10
994.9848819857001
 20
-420.49265228179991
 30
0.0
 11
1000.9848819857
 21
-420.49265228179991
 31
0.0
  0
INSERT
  5
46B
  8
0
  6
CONTINUOUS
  2
*U75
 10
0.0
 20
0.0
 30
0.0
  0
LINE
  5
46C
  8
É}ÿg
 62
     5
 10
1032.0030031623
 20
-33.124496330900001
 30
0.0
 11
1032.0030031623
 21
-10.6244963309
 31
0.0
  0
LINE
  5
46D
  8
É}ÿg
 62
     5
 10
1107.0030031623
 20
-33.124496330900001
 30
0.0
 11
1107.0030031623
 21
-10.6244963309
 31
0.0
  0
LINE
  5
46E
  8
É}ÿg
 62
     5
 10
1008.0030031623
 20
-33.124496330900001
 30
0.0
 11
1008.0030031623
 21
-10.6244963309
 31
0.0
  0
LINE
  5
46F
  8
É}ÿg
 62
     5
 10
997.86407508329989
 20
-24.9783087044
 30
0.0
 11
1005.2890750833
 21
-24.9783087044
 31
0.0
  0
LINE
  5
470
  8
É}ÿg
 62
     5
 10
1001.5765750833
 20
-25.973070081300001
 30
0.0
 11
1005.2890750833
 21
-32.403308704400011
 31
0.0
  0
LINE
  5
471
  8
É}ÿg
 62
     5
 10
996.00300316229993
 20
-33.124496330900001
 30
0.0
 11
996.00300316229993
 21
-10.6244963309
 31
0.0
  0
LINE
  5
472
  8
É}ÿg
 62
     5
 10
1122.0030031623
 20
-33.124496330900001
 30
0.0
 11
1122.0030031623
 21
-10.6244963309
 31
0.0
  0
LINE
  5
473
  8
É}ÿg
 62
     5
 10
996.00300316229993
 20
-18.124496330900001
 30
0.0
 11
1137.0030031623
 21
-18.124496330900001
 31
0.0
  0
LINE
  5
474
  8
É}ÿg
 62
     5
 10
996.00300316229993
 20
-25.624496330900001
 30
0.0
 11
1137.0030031623
 21
-25.624496330900001
 31
0.0
  0
LINE
  5
475
  8
É}ÿg
 62
     5
 10
996.00300316229993
 20
-33.124496330900001
 30
0.0
 11
1137.0030031623
 21
-33.124496330900001
 31
0.0
  0
INSERT
  5
476
  8
0
  6
CONTINUOUS
  2
*U76
 10
0.0
 20
0.0
 30
0.0
  0
LINE
  5
477
  8
É}ÿg
 62
     5
 10
537.00300316230005
 20
-430.62449633089989
 30
0.0
 11
537.00300316230005
 21
-10.6244963309
 31
0.0
  0
LINE
  5
478
  8
É}ÿg
 62
     5
 10
537.00300316230005
 20
-430.62449633089989
 30
0.0
 11
1137.0030031623
 21
-430.62449633089989
 31
0.0
  0
LINE
  5
479
  8
É}ÿg
 62
     5
 10
1137.0030031623
 20
-10.6244963309
 30
0.0
 11
537.00300316230005
 21
-10.6244963309
 31
0.0
  0
LINE
  5
47A
  8
É}ÿg
 62
     5
 10
1137.0030031623
 20
-430.62449633089989
 30
0.0
 11
1137.0030031623
 21
-10.6244963309
 31
0.0
  0
LINE
  5
47B
  8
É}ÿg
 10
994.9848819857001
 20
-420.975817683
 30
0.0
 11
994.9848819857001
 21
-420.49265228179991
 31
0.0
  0
LINE
  5
47C
  8
É}ÿg
 10
976.51731717739995
 20
-420.00948688049999
 30
0.0
 11
976.51731717739995
 21
-422.25948688049999
 31
0.0
  0
LINE
  5
47D
  8
É}ÿg
 62
     5
 10
1001.5765750833
 20
-18.548070081300001
 30
0.0
 11
1005.2890750833
 21
-24.9783087044
 31
0.0
  0
LINE
  5
47E
  8
É}ÿg
 62
     5
 10
1001.5765750833
 20
-25.973070081300001
 30
0.0
 11
997.86407508329989
 21
-32.403308704400011
 31
0.0
  0
INSERT
  5
47F
  8
0
  6
CONTINUOUS
  2
*U77
 10
0.0
 20
0.0
 30
0.0
  0
LINE
  5
480
  8
É}ÿg
  6
DOT
 10
529.53300316230002
 20
-436.96949633089991
 30
0.0
 11
529.53300316230002
 21
-4.2794963308999989
 31
0.0
  0
LINE
  5
481
  8
É}ÿg
  6
DOT
 10
1144.4730031623001
 20
-436.96949633089991
 30
0.0
 11
1144.4730031623001
 21
-4.2794963308999989
 31
0.0
  0
LINE
  5
482
  8
É}ÿg
  6
DOT
 10
529.53300316230002
 20
-436.96949633089991
 30
0.0
 11
1144.4730031623001
 21
-436.96949633089991
 31
0.0
  0
LINE
  5
483
  8
É}ÿg
 10
981.99397289479998
 20
-424.50948688049999
 30
0.0
 11
981.99397289479998
 21
-422.25948688049999
 31
0.0
  0
LINE
  5
484
  8
É}ÿg
  6
DOT
 10
1144.4730031623001
 20
-4.2794963308999989
 30
0.0
 11
529.53300316230002
 21
-4.2794963308999989
 31
0.0
  0
LINE
  5
485
  8
É}ÿg
 10
978.24397289479998
 20
-422.25948688049999
 30
0.0
 11
978.24397289479998
 21
-424.50948688049999
 31
0.0
  0
LINE
  5
486
  8
É}ÿg
 10
988.74397289479987
 20
-419.25948688049999
 30
0.0
 11
990.99397289479998
 21
-417.00948688049999
 31
0.0
  0
LINE
  5
487
  8
É}ÿg
 10
1016.7031059581
 20
-423.45948688049998
 30
0.0
 11
1016.3511059581
 21
-422.25948688049999
 31
0.0
  0
LINE
  5
488
  8
É}ÿg
 10
981.99397289479998
 20
-420.00948688049999
 30
0.0
 11
981.99397289479998
 21
-419.25948688049999
 31
0.0
  0
LINE
  5
489
  8
É}ÿg
 10
1005.2789610138
 20
-424.28318369399989
 30
0.0
 11
1005.0118079241
 21
-424.54475091030002
 31
0.0
  0
LINE
  5
48A
  8
É}ÿg
 10
1006.9848819857
 20
-419.25948688049999
 30
0.0
 11
1008.4848819857
 21
-417.00948688049999
 31
0.0
  0
LINE
  5
48B
  8
É}ÿg
 10
1025.3111059580999
 20
-423.45948688049998
 30
0.0
 11
1025.3111059580999
 21
-426.15948688050003
 31
0.0
  0
LINE
  5
48C
  8
É}ÿg
 10
1008.4848819857
 20
-425.25948688049999
 30
0.0
 11
1008.4848819857
 21
-427.50948688049999
 31
0.0
  0
LINE
  5
48D
  8
É}ÿg
 10
1019.8075524922
 20
-419.5594868805
 30
0.0
 11
1025.3111059580999
 21
-419.5594868805
 31
0.0
  0
LINE
  5
48E
  8
É}ÿg
 10
1019.8075524922
 20
-419.5594868805
 30
0.0
 11
1019.5879611168
 21
-418.79639354480003
 31
0.0
  0
LINE
  5
48F
  8
É}ÿg
 10
1008.4848819857
 20
-417.00948688049999
 30
0.0
 11
994.9848819857001
 21
-417.00948688049999
 31
0.0
  0
INSERT
  5
490
  8
0
  6
CONTINUOUS
  2
*U78
 10
0.0
 20
0.0
 30
0.0
  0
LINE
  5
491
  8
É}ÿg
 10
1018.1111059581
 20
-428.25948688049999
 30
0.0
 11
1017.4951059581
 21
-426.15948688050003
 31
0.0
  0
LINE
  5
492
  8
É}ÿg
 10
982.74397289479998
 20
-425.25948688049999
 30
0.0
 11
978.24397289479998
 21
-425.25948688049999
 31
0.0
  0
LINE
  5
493
  8
É}ÿg
 10
994.9848819857001
 20
-419.70948688049998
 30
0.0
 11
1002.4848819857
 21
-419.70948688049998
 31
0.0
  0
LINE
  5
494
  8
É}ÿg
 10
1015.3318794299
 20
-387.57449633089999
 30
0.0
 11
1022.5318794299
 21
-385.77449633089998
 31
0.0
  0
CIRCLE
  5
495
  8
É}ÿg
 10
1007.1030031623
 20
-389.3744963309
 30
0.0
 40
3.6000000000000001
  0
INSERT
  5
496
  8
0
  6
CONTINUOUS
  2
*U79
 10
0.0
 20
0.0
 30
0.0
  0
LINE
  5
497
  8
É}ÿg
 10
981.99397289479998
 20
-422.25948688049999
 30
0.0
 11
984.99397289479987
 21
-422.25948688049999
 31
0.0
  0
LINE
  5
498
  8
É}ÿg
 10
1011.8111059581
 20
-422.25948688049999
 30
0.0
 11
1016.3511059581
 21
-422.25948688049999
 31
0.0
  0
LINE
  5
499
  8
É}ÿg
 10
990.99397289479998
 20
-420.00948688049999
 30
0.0
 11
988.74397289479987
 21
-420.00948688049999
 31
0.0
  0
LINE
  5
49A
  8
É}ÿg
 10
988.74397289479987
 20
-420.00948688049999
 30
0.0
 11
988.74397289479987
 21
-419.25948688049999
 31
0.0
  0
LINE
  5
49B
  8
É}ÿg
 10
1011.8111059581
 20
-419.5594868805
 30
0.0
 11
1015.5591059581
 21
-419.5594868805
 31
0.0
  0
LINE
  5
49C
  8
É}ÿg
 10
1019.5879611168
 20
-418.79639354480003
 30
0.0
 11
1020.8111059581
 21
-417.00948688049999
 31
0.0
  0
LINE
  5
49D
  8
É}ÿg
 10
994.9848819857001
 20
-427.50948688049999
 30
0.0
 11
994.9848819857001
 21
-425.25948688049999
 31
0.0
  0
LINE
  5
49E
  8
É}ÿg
 10
1032.0030031623
 20
-381.12449633089989
 30
0.0
 11
1032.0030031623
 21
-430.62449633089989
 31
0.0
  0
INSERT
  5
49F
  8
0
  6
CONTINUOUS
  2
*U80
 10
0.0
 20
0.0
 30
0.0
  0
INSERT
  5
4A0
  8
0
  6
CONTINUOUS
  2
*U81
 10
0.0
 20
0.0
 30
0.0
  0
INSERT
  5
4A1
  8
0
  6
CONTINUOUS
  2
*U82
 10
0.0
 20
0.0
 30
0.0
  0
LINE
  5
4A2
  8
É}ÿg
 62
     5
 10
997.86407508329989
 20
-32.403308704400011
 30
0.0
 11
1005.2890750833
 21
-32.403308704400011
 31
0.0
  0
LINE
  5
4A3
  8
É}ÿg
 10
976.51731717739995
 20
-422.25948688049999
 30
0.0
 11
978.01731717739995
 21
-422.25948688049999
 31
0.0
  0
ARC
  5
4A4
  8
É}ÿg
 10
998.73488198569999
 20
-419.25948688049999
 30
0.0
 40
8.25
 50
322.48761197969998
 51
0.0
  0
LINE
  5
4A5
  8
É}ÿg
 10
978.24397289479998
 20
-427.50948688049999
 30
0.0
 11
984.24397289479987
 21
-427.50948688049999
 31
0.0
  0
LINE
  5
4A6
  8
É}ÿg
 10
1011.8111059581
 20
-426.15948688050003
 30
0.0
 11
1017.4951059581
 21
-426.15948688050003
 31
0.0
  0
ARC
  5
4A7
  8
É}ÿg
 10
982.74397289479998
 20
-423.00948688049999
 30
0.0
 40
2.25
 50
270.0
 51
0.0
  0
LINE
  5
4A8
  8
É}ÿg
 10
1011.8111059581
 20
-423.45948688049998
 30
0.0
 11
1011.8111059581
 21
-426.15948688050003
 31
0.0
  0
LINE
  5
4A9
  8
É}ÿg
 10
978.24397289479998
 20
-424.50948688049999
 30
0.0
 11
981.99397289479998
 21
-424.50948688049999
 31
0.0
  0
LINE
  5
4AA
  8
É}ÿg
 10
1001.7893507232
 20
-422.28809323820002
 30
0.0
 11
1001.4284570137
 21
-422.68670077899998
 31
0.0
  0
LINE
  5
4AB
  8
É}ÿg
 10
1022.3111059581
 20
-428.25948688049999
 30
0.0
 11
1018.1111059581
 21
-428.25948688049999
 31
0.0
  0
LINE
  5
4AC
  8
É}ÿg
 10
984.99397289479987
 20
-422.25948688049999
 30
0.0
 11
984.99397289479987
 21
-423.00948688049999
 31
0.0
  0
LINE
  5
4AD
  8
É}ÿg
 10
1137.0030031623
 20
-381.12449633089989
 30
0.0
 11
919.50300316230005
 21
-381.12449633089989
 31
0.0
  0
LINE
  5
4AE
  8
É}ÿg
 10
1022.5318794299
 20
-385.77449633089998
 30
0.0
 11
1022.5318794299
 21
-392.97449633090002
 31
0.0
  0
LINE
  5
4AF
  8
É}ÿg
 62
     5
 10
1001.5765750833
 20
-18.548070081300001
 30
0.0
 11
997.86407508329989
 21
-24.9783087044
 31
0.0
  0
LINE
  5
4B0
  8
É}ÿg
 10
990.99397289479998
 20
-417.00948688049999
 30
0.0
 11
984.99397289479987
 21
-417.00948688049999
 31
0.0
  0
LINE
  5
4B1
  8
É}ÿg
 10
988.74397289479987
 20
-423.00948688049999
 30
0.0
 11
988.74397289479987
 21
-422.25948688049999
 31
0.0
  0
LINE
  5
4B2
  8
É}ÿg
 10
1011.8111059581
 20
-419.5594868805
 30
0.0
 11
1011.8111059581
 21
-422.25948688049999
 31
0.0
  0
LINE
  5
4B3
  8
É}ÿg
 10
984.99397289479987
 20
-420.00948688049999
 30
0.0
 11
981.99397289479998
 21
-420.00948688049999
 31
0.0
  0
LINE
  5
4B4
  8
É}ÿg
 10
984.24397289479987
 20
-417.00948688049999
 30
0.0
 11
978.24397289479998
 21
-417.00948688049999
 31
0.0
  0
LINE
  5
4B5
  8
É}ÿg
 10
981.99397289479998
 20
-419.25948688049999
 30
0.0
 11
984.24397289479987
 21
-417.00948688049999
 31
0.0
  0
LINE
  5
4B6
  8
É}ÿg
 10
978.24397289479998
 20
-417.00948688049999
 30
0.0
 11
978.24397289479998
 21
-420.00948688049999
 31
0.0
  0
LINE
  5
4B7
  8
É}ÿg
 10
1021.7067999490999
 20
-426.15948688050003
 30
0.0
 11
1025.3111059580999
 21
-426.15948688050003
 31
0.0
  0
LINE
  5
4B8
  8
É}ÿg
 10
1015.5591059581
 20
-419.5594868805
 30
0.0
 11
1014.8111059581
 21
-417.00948688049999
 31
0.0
  0
LINE
  5
4B9
  8
É}ÿg
 10
1011.8111059581
 20
-423.45948688049998
 30
0.0
 11
1016.7031059581
 21
-423.45948688049998
 31
0.0
  0
LINE
  5
4BA
  8
É}ÿg
 10
1020.9298350803
 20
-423.45948688049998
 30
0.0
 11
1020.5845173609
 21
-422.25948688049999
 31
0.0
  0
ARC
  5
4BB
  8
É}ÿg
 10
996.78488198570005
 20
-419.5594868805
 30
0.0
 40
5.7000000000000002
 50
270.0
 51
298.08590481520002
  0
INSERT
  5
4BC
  8
0
  6
CONTINUOUS
  2
*U83
 10
0.0
 20
0.0
 30
0.0
  0
LINE
  5
4BD
  8
É}ÿg
 10
923.25300316229993
 20
-389.3744963309
 30
0.0
 11
953.25300316229982
 21
-389.3744963309
 31
0.0
  0
LINE
  5
4BE
  8
É}ÿg
 10
957.00300316230005
 20
-381.12449633089989
 30
0.0
 11
957.00300316230005
 21
-397.6244963309
 31
0.0
  0
LINE
  5
4BF
  8
É}ÿg
 10
919.50300316230005
 20
-397.6244963309
 30
0.0
 11
1137.0030031623
 21
-397.6244963309
 31
0.0
  0
LINE
  5
4C0
  8
É}ÿg
 10
994.50300316230005
 20
-381.12449633089989
 30
0.0
 11
994.50300316230005
 21
-397.6244963309
 31
0.0
  0
LINE
  5
4C1
  8
É}ÿg
  6
BORDER
 10
1007.1030031623
 20
-383.97449633090002
 30
0.0
 11
1007.1030031623
 21
-394.77449633089998
 31
0.0
  0
LINE
  5
4C2
  8
É}ÿg
  6
BORDER
 10
1007.1030031623
 20
-383.97449633090002
 30
0.0
 11
1007.1030031623
 21
-394.77449633089998
 31
0.0
  0
LINE
  5
4C3
  8
É}ÿg
 10
1025.3111059580999
 20
-419.5594868805
 30
0.0
 11
1025.3111059580999
 21
-422.25948688049999
 31
0.0
  0
LINE
  5
4C4
  8
É}ÿg
 10
960.75300316229993
 20
-389.3744963309
 30
0.0
 11
990.75300316229982
 21
-389.3744963309
 31
0.0
  0
INSERT
  5
4C5
  8
0
  6
CONTINUOUS
  2
*U84
 10
0.0
 20
0.0
 30
0.0
  0
CIRCLE
  5
4C6
  8
É}ÿg
 10
1007.1030031623
 20
-389.3744963309
 30
0.0
 40
3.6000000000000001
  0
LINE
  5
4C7
  8
É}ÿg
 10
1015.3318794299
 20
-387.57449633089999
 30
0.0
 11
1022.5318794299
 21
-385.77449633089998
 31
0.0
  0
INSERT
  5
4C8
  8
0
  6
CONTINUOUS
  2
*U85
 10
0.0
 20
0.0
 30
0.0
  0
CIRCLE
  5
4C9
  8
É}ÿg
 10
1007.1030031623
 20
-389.3744963309
 30
0.0
 40
1.8
  0
LINE
  5
4CA
  8
É}ÿg
 10
1022.3111059581
 20
-428.25948688049999
 30
0.0
 11
1021.7067999490999
 21
-426.15948688050003
 31
0.0
  0
LINE
  5
4CB
  8
É}ÿg
 10
1020.9298350803
 20
-423.45948688049998
 30
0.0
 11
1025.3111059580999
 21
-423.45948688049998
 31
0.0
  0
LINE
  5
4CC
  8
É}ÿg
 10
994.9848819857001
 20
-425.25948688049999
 30
0.0
 11
996.78488198570005
 21
-425.25948688049999
 31
0.0
  0
LINE
  5
4CD
  8
É}ÿg
 10
1014.8111059581
 20
-417.00948688049999
 30
0.0
 11
1020.8111059581
 21
-417.00948688049999
 31
0.0
  0
LINE
  5
4CE
  8
É}ÿg
 10
978.24397289479998
 20
-420.00948688049999
 30
0.0
 11
976.51731717739995
 21
-420.00948688049999
 31
0.0
  0
LINE
  5
4CF
  8
É}ÿg
 10
994.9848819857001
 20
-425.25948688049999
 30
0.0
 11
994.9848819857001
 21
-427.50948688049999
 31
0.0
  0
LINE
  5
4D0
  8
É}ÿg
 10
978.24397289479998
 20
-422.25948688049999
 30
0.0
 11
978.01731717739995
 21
-422.25948688049999
 31
0.0
  0
LINE
  5
4D1
  8
É}ÿg
 10
978.24397289479998
 20
-425.25948688049999
 30
0.0
 11
978.24397289479998
 21
-427.50948688049999
 31
0.0
  0
ARC
  5
4D2
  8
É}ÿg
 10
996.78488198570005
 20
-419.5594868805
 30
0.0
 40
5.7000000000000002
 50
331.39928138329998
 51
358.49204224580001
  0
LINE
  5
4D3
  8
É}ÿg
 10
988.74397289479987
 20
-422.25948688049999
 30
0.0
 11
990.99397289479998
 21
-422.25948688049999
 31
0.0
  0
ARC
  5
4D4
  8
É}ÿg
 10
998.73488198569999
 20
-419.25948688049999
 30
0.0
 40
8.25
 50
270.0
 51
302.54495885400001
  0
LINE
  5
4D5
  8
É}ÿg
 10
1015.3318794299
 20
-391.17449633090001
 30
0.0
 11
1022.5318794299
 21
-392.97449633090002
 31
0.0
  0
LINE
  5
4D6
  8
É}ÿg
 10
1015.3318794299
 20
-387.57449633089999
 30
0.0
 11
1015.3318794299
 21
-391.17449633090001
 31
0.0
  0
LINE
  5
4D7
  8
É}ÿg
 10
1022.5318794299
 20
-385.77449633089998
 30
0.0
 11
1022.5318794299
 21
-392.97449633090002
 31
0.0
  0
LINE
  5
4D8
  8
É}ÿg
 10
1000.9848819857
 20
-420.49265228179991
 30
0.0
 11
1000.1363538482
 21
-421.34118041919987
 31
0.0
  0
LINE
  5
4D9
  8
É}ÿg
  6
BORDER
 10
1001.7030031623
 20
-389.3744963309
 30
0.0
 11
1024.8030031623
 21
-389.3744963309
 31
0.0
  0
CIRCLE
  5
4DA
  8
É}ÿg
 10
1007.1030031623
 20
-389.3744963309
 30
0.0
 40
1.8
  0
POLYLINE
  8
É}ÿg
  5
687
  66
     1
 10
0.000000
 20
0.000000
 30
0.000000
  70
     8
  0
VERTEX
  8
É}ÿg
  5
688
 10
1005.01
 20
-424.545
 30
0.000000
  70
    32
  0
VERTEX
  8
É}ÿg
  5
689
 10
1005.04
 20
-424.552
 30
0.000000
  70
    32
  0
VERTEX
  8
É}ÿg
  5
68A
 10
1005.06
 20
-424.560
 30
0.000000
  70
    32
  0
VERTEX
  8
É}ÿg
  5
68B
 10
1005.09
 20
-424.567
 30
0.000000
  70
    32
  0
VERTEX
  8
É}ÿg
  5
68C
 10
1005.12
 20
-424.574
 30
0.000000
  70
    32
  0
VERTEX
  8
É}ÿg
  5
68D
 10
1005.14
 20
-424.581
 30
0.000000
  70
    32
  0
VERTEX
  8
É}ÿg
  5
68E
 10
1005.17
 20
-424.589
 30
0.000000
  70
    32
  0
VERTEX
  8
É}ÿg
  5
68F
 10
1005.20
 20
-424.596
 30
0.000000
  70
    32
  0
VERTEX
  8
É}ÿg
  5
690
 10
1005.22
 20
-424.603
 30
0.000000
  70
    32
  0
VERTEX
  8
É}ÿg
  5
691
 10
1005.25
 20
-424.610
 30
0.000000
  70
    32
  0
VERTEX
  8
É}ÿg
  5
692
 10
1005.28
 20
-424.617
 30
0.000000
  70
    32
  0
VERTEX
  8
É}ÿg
  5
693
 10
1005.30
 20
-424.624
 30
0.000000
  70
    32
  0
VERTEX
  8
É}ÿg
  5
694
 10
1005.33
 20
-424.631
 30
0.000000
  70
    32
  0
VERTEX
  8
É}ÿg
  5
695
 10
1005.35
 20
-424.638
 30
0.000000
  70
    32
  0
VERTEX
  8
É}ÿg
  5
696
 10
1005.38
 20
-424.645
 30
0.000000
  70
    32
  0
VERTEX
  8
É}ÿg
  5
697
 10
1005.41
 20
-424.652
 30
0.000000
  70
    32
  0
VERTEX
  8
É}ÿg
  5
698
 10
1005.43
 20
-424.659
 30
0.000000
  70
    32
  0
VERTEX
  8
É}ÿg
  5
699
 10
1005.46
 20
-424.666
 30
0.000000
  70
    32
  0
VERTEX
  8
É}ÿg
  5
69A
 10
1005.49
 20
-424.672
 30
0.000000
  70
    32
  0
VERTEX
  8
É}ÿg
  5
69B
 10
1005.51
 20
-424.679
 30
0.000000
  70
    32
  0
VERTEX
  8
É}ÿg
  5
69C
 10
1005.54
 20
-424.686
 30
0.000000
  70
    32
  0
VERTEX
  8
É}ÿg
  5
69D
 10
1005.57
 20
-424.692
 30
0.000000
  70
    32
  0
VERTEX
  8
É}ÿg
  5
69E
 10
1005.59
 20
-424.699
 30
0.000000
  70
    32
  0
VERTEX
  8
É}ÿg
  5
69F
 10
1005.62
 20
-424.705
 30
0.000000
  70
    32
  0
VERTEX
  8
É}ÿg
  5
6A0
 10
1005.65
 20
-424.712
 30
0.000000
  70
    32
  0
VERTEX
  8
É}ÿg
  5
6A1
 10
1005.67
 20
-424.719
 30
0.000000
  70
    32
  0
VERTEX
  8
É}ÿg
  5
6A2
 10
1005.70
 20
-424.725
 30
0.000000
  70
    32
  0
VERTEX
  8
É}ÿg
  5
6A3
 10
1005.73
 20
-424.731
 30
0.000000
  70
    32
  0
VERTEX
  8
É}ÿg
  5
6A4
 10
1005.76
 20
-424.738
 30
0.000000
  70
    32
  0
VERTEX
  8
É}ÿg
  5
6A5
 10
1005.78
 20
-424.744
 30
0.000000
  70
    32
  0
VERTEX
  8
É}ÿg
  5
6A6
 10
1005.81
 20
-424.751
 30
0.000000
  70
    32
  0
VERTEX
  8
É}ÿg
  5
6A7
 10
1005.84
 20
-424.757
 30
0.000000
  70
    32
  0
VERTEX
  8
É}ÿg
  5
6A8
 10
1005.86
 20
-424.763
 30
0.000000
  70
    32
  0
VERTEX
  8
É}ÿg
  5
6A9
 10
1005.89
 20
-424.769
 30
0.000000
  70
    32
  0
VERTEX
  8
É}ÿg
  5
6AA
 10
1005.92
 20
-424.775
 30
0.000000
  70
    32
  0
VERTEX
  8
É}ÿg
  5
6AB
 10
1005.94
 20
-424.782
 30
0.000000
  70
    32
  0
VERTEX
  8
É}ÿg
  5
6AC
 10
1005.97
 20
-424.788
 30
0.000000
  70
    32
  0
VERTEX
  8
É}ÿg
  5
6AD
 10
1006.00
 20
-424.794
 30
0.000000
  70
    32
  0
VERTEX
  8
É}ÿg
  5
6AE
 10
1006.03
 20
-424.800
 30
0.000000
  70
    32
  0
VERTEX
  8
É}ÿg
  5
6AF
 10
1006.05
 20
-424.806
 30
0.000000
  70
    32
  0
VERTEX
  8
É}ÿg
  5
6B0
 10
1006.08
 20
-424.812
 30
0.000000
  70
    32
  0
VERTEX
  8
É}ÿg
  5
6B1
 10
1006.11
 20
-424.818
 30
0.000000
  70
    32
  0
VERTEX
  8
É}ÿg
  5
6B2
 10
1006.13
 20
-424.824
 30
0.000000
  70
    32
  0
VERTEX
  8
É}ÿg
  5
6B3
 10
1006.16
 20
-424.830
 30
0.000000
  70
    32
  0
VERTEX
  8
É}ÿg
  5
6B4
 10
1006.19
 20
-424.836
 30
0.000000
  70
    32
  0
VERTEX
  8
É}ÿg
  5
6B5
 10
1006.22
 20
-424.842
 30
0.000000
  70
    32
  0
VERTEX
  8
É}ÿg
  5
6B6
 10
1006.24
 20
-424.848
 30
0.000000
  70
    32
  0
VERTEX
  8
É}ÿg
  5
6B7
 10
1006.27
 20
-424.853
 30
0.000000
  70
    32
  0
VERTEX
  8
É}ÿg
  5
6B8
 10
1006.30
 20
-424.859
 30
0.000000
  70
    32
  0
VERTEX
  8
É}ÿg
  5
6B9
 10
1006.32
 20
-424.865
 30
0.000000
  70
    32
  0
VERTEX
  8
É}ÿg
  5
6BA
 10
1006.35
 20
-424.871
 30
0.000000
  70
    32
  0
VERTEX
  8
É}ÿg
  5
6BB
 10
1006.38
 20
-424.876
 30
0.000000
  70
    32
  0
VERTEX
  8
É}ÿg
  5
6BC
 10
1006.41
 20
-424.882
 30
0.000000
  70
    32
  0
VERTEX
  8
É}ÿg
  5
6BD
 10
1006.43
 20
-424.888
 30
0.000000
  70
    32
  0
VERTEX
  8
É}ÿg
  5
6BE
 10
1006.46
 20
-424.893
 30
0.000000
  70
    32
  0
VERTEX
  8
É}ÿg
  5
6BF
 10
1006.49
 20
-424.899
 30
0.000000
  70
    32
  0
VERTEX
  8
É}ÿg
  5
6C0
 10
1006.52
 20
-424.904
 30
0.000000
  70
    32
  0
VERTEX
  8
É}ÿg
  5
6C1
 10
1006.54
 20
-424.910
 30
0.000000
  70
    32
  0
VERTEX
  8
É}ÿg
  5
6C2
 10
1006.57
 20
-424.916
 30
0.000000
  70
    32
  0
VERTEX
  8
É}ÿg
  5
6C3
 10
1006.60
 20
-424.921
 30
0.000000
  70
    32
  0
VERTEX
  8
É}ÿg
  5
6C4
 10
1006.63
 20
-424.927
 30
0.000000
  70
    32
  0
VERTEX
  8
É}ÿg
  5
6C5
 10
1006.65
 20
-424.932
 30
0.000000
  70
    32
  0
VERTEX
  8
É}ÿg
  5
6C6
 10
1006.68
 20
-424.937
 30
0.000000
  70
    32
  0
VERTEX
  8
É}ÿg
  5
6C7
 10
1006.71
 20
-424.943
 30
0.000000
  70
    32
  0
VERTEX
  8
É}ÿg
  5
6C8
 10
1006.74
 20
-424.948
 30
0.000000
  70
    32
  0
VERTEX
  8
É}ÿg
  5
6C9
 10
1006.76
 20
-424.954
 30
0.000000
  70
    32
  0
VERTEX
  8
É}ÿg
  5
6CA
 10
1006.79
 20
-424.959
 30
0.000000
  70
    32
  0
VERTEX
  8
É}ÿg
  5
6CB
 10
1006.82
 20
-424.964
 30
0.000000
  70
    32
  0
VERTEX
  8
É}ÿg
  5
6CC
 10
1006.85
 20
-424.970
 30
0.000000
  70
    32
  0
VERTEX
  8
É}ÿg
  5
6CD
 10
1006.87
 20
-424.975
 30
0.000000
  70
    32
  0
VERTEX
  8
É}ÿg
  5
6CE
 10
1006.90
 20
-424.980
 30
0.000000
  70
    32
  0
VERTEX
  8
É}ÿg
  5
6CF
 10
1006.93
 20
-424.986
 30
0.000000
  70
    32
  0
VERTEX
  8
É}ÿg
  5
6D0
 10
1006.96
 20
-424.991
 30
0.000000
  70
    32
  0
VERTEX
  8
É}ÿg
  5
6D1
 10
1006.98
 20
-424.996
 30
0.000000
  70
    32
  0
VERTEX
  8
É}ÿg
  5
6D2
 10
1007.01
 20
-425.001
 30
0.000000
  70
    32
  0
VERTEX
  8
É}ÿg
  5
6D3
 10
1007.04
 20
-425.006
 30
0.000000
  70
    32
  0
VERTEX
  8
É}ÿg
  5
6D4
 10
1007.07
 20
-425.012
 30
0.000000
  70
    32
  0
VERTEX
  8
É}ÿg
  5
6D5
 10
1007.09
 20
-425.017
 30
0.000000
  70
    32
  0
VERTEX
  8
É}ÿg
  5
6D6
 10
1007.12
 20
-425.022
 30
0.000000
  70
    32
  0
VERTEX
  8
É}ÿg
  5
6D7
 10
1007.15
 20
-425.027
 30
0.000000
  70
    32
  0
VERTEX
  8
É}ÿg
  5
6D8
 10
1007.18
 20
-425.032
 30
0.000000
  70
    32
  0
VERTEX
  8
É}ÿg
  5
6D9
 10
1007.20
 20
-425.037
 30
0.000000
  70
    32
  0
VERTEX
  8
É}ÿg
  5
6DA
 10
1007.23
 20
-425.042
 30
0.000000
  70
    32
  0
VERTEX
  8
É}ÿg
  5
6DB
 10
1007.26
 20
-425.047
 30
0.000000
  70
    32
  0
VERTEX
  8
É}ÿg
  5
6DC
 10
1007.29
 20
-425.052
 30
0.000000
  70
    32
  0
VERTEX
  8
É}ÿg
  5
6DD
 10
1007.32
 20
-425.057
 30
0.000000
  70
    32
  0
VERTEX
  8
É}ÿg
  5
6DE
 10
1007.34
 20
-425.062
 30
0.000000
  70
    32
  0
VERTEX
  8
É}ÿg
  5
6DF
 10
1007.37
 20
-425.067
 30
0.000000
  70
    32
  0
VERTEX
  8
É}ÿg
  5
6E0
 10
1007.40
 20
-425.072
 30
0.000000
  70
    32
  0
VERTEX
  8
É}ÿg
  5
6E1
 10
1007.43
 20
-425.077
 30
0.000000
  70
    32
  0
VERTEX
  8
É}ÿg
  5
6E2
 10
1007.45
 20
-425.082
 30
0.000000
  70
    32
  0
VERTEX
  8
É}ÿg
  5
6E3
 10
1007.48
 20
-425.087
 30
0.000000
  70
    32
  0
VERTEX
  8
É}ÿg
  5
6E4
 10
1007.51
 20
-425.092
 30
0.000000
  70
    32
  0
VERTEX
  8
É}ÿg
  5
6E5
 10
1007.54
 20
-425.097
 30
0.000000
  70
    32
  0
VERTEX
  8
É}ÿg
  5
6E6
 10
1007.56
 20
-425.102
 30
0.000000
  70
    32
  0
VERTEX
  8
É}ÿg
  5
6E7
 10
1007.59
 20
-425.107
 30
0.000000
  70
    32
  0
VERTEX
  8
É}ÿg
  5
6E8
 10
1007.62
 20
-425.112
 30
0.000000
  70
    32
  0
VERTEX
  8
É}ÿg
  5
6E9
 10
1007.65
 20
-425.117
 30
0.000000
  70
    32
  0
VERTEX
  8
É}ÿg
  5
6EA
 10
1007.68
 20
-425.121
 30
0.000000
  70
    32
  0
VERTEX
  8
É}ÿg
  5
6EB
 10
1007.70
 20
-425.126
 30
0.000000
  70
    32
  0
VERTEX
  8
É}ÿg
  5
6EC
 10
1007.73
 20
-425.131
 30
0.000000
  70
    32
  0
VERTEX
  8
É}ÿg
  5
6ED
 10
1007.76
 20
-425.136
 30
0.000000
  70
    32
  0
VERTEX
  8
É}ÿg
  5
6EE
 10
1007.79
 20
-425.141
 30
0.000000
  70
    32
  0
VERTEX
  8
É}ÿg
  5
6EF
 10
1007.82
 20
-425.146
 30
0.000000
  70
    32
  0
VERTEX
  8
É}ÿg
  5
6F0
 10
1007.84
 20
-425.150
 30
0.000000
  70
    32
  0
VERTEX
  8
É}ÿg
  5
6F1
 10
1007.87
 20
-425.155
 30
0.000000
  70
    32
  0
VERTEX
  8
É}ÿg
  5
6F2
 10
1007.90
 20
-425.160
 30
0.000000
  70
    32
  0
VERTEX
  8
É}ÿg
  5
6F3
 10
1007.93
 20
-425.165
 30
0.000000
  70
    32
  0
VERTEX
  8
É}ÿg
  5
6F4
 10
1007.95
 20
-425.170
 30
0.000000
  70
    32
  0
VERTEX
  8
É}ÿg
  5
6F5
 10
1007.98
 20
-425.174
 30
0.000000
  70
    32
  0
VERTEX
  8
É}ÿg
  5
6F6
 10
1008.01
 20
-425.179
 30
0.000000
  70
    32
  0
VERTEX
  8
É}ÿg
  5
6F7
 10
1008.04
 20
-425.184
 30
0.000000
  70
    32
  0
VERTEX
  8
É}ÿg
  5
6F8
 10
1008.07
 20
-425.189
 30
0.000000
  70
    32
  0
VERTEX
  8
É}ÿg
  5
6F9
 10
1008.09
 20
-425.193
 30
0.000000
  70
    32
  0
VERTEX
  8
É}ÿg
  5
6FA
 10
1008.12
 20
-425.198
 30
0.000000
  70
    32
  0
VERTEX
  8
É}ÿg
  5
6FB
 10
1008.15
 20
-425.203
 30
0.000000
  70
    32
  0
VERTEX
  8
É}ÿg
  5
6FC
 10
1008.18
 20
-425.208
 30
0.000000
  70
    32
  0
VERTEX
  8
É}ÿg
  5
6FD
 10
1008.21
 20
-425.212
 30
0.000000
  70
    32
  0
VERTEX
  8
É}ÿg
  5
6FE
 10
1008.23
 20
-425.217
 30
0.000000
  70
    32
  0
VERTEX
  8
É}ÿg
  5
6FF
 10
1008.26
 20
-425.222
 30
0.000000
  70
    32
  0
VERTEX
  8
É}ÿg
  5
700
 10
1008.29
 20
-425.226
 30
0.000000
  70
    32
  0
VERTEX
  8
É}ÿg
  5
701
 10
1008.32
 20
-425.231
 30
0.000000
  70
    32
  0
VERTEX
  8
É}ÿg
  5
702
 10
1008.35
 20
-425.236
 30
0.000000
  70
    32
  0
VERTEX
  8
É}ÿg
  5
703
 10
1008.37
 20
-425.241
 30
0.000000
  70
    32
  0
VERTEX
  8
É}ÿg
  5
704
 10
1008.40
 20
-425.245
 30
0.000000
  70
    32
  0
VERTEX
  8
É}ÿg
  5
705
 10
1008.43
 20
-425.250
 30
0.000000
  70
    32
  0
VERTEX
  8
É}ÿg
  5
706
 10
1008.46
 20
-425.255
 30
0.000000
  70
    32
  0
VERTEX
  8
É}ÿg
  5
707
 10
1008.48
 20
-425.259
 30
0.000000
  70
    32
  0
SEQEND
  8
É}ÿg
  5
708
  0
POLYLINE
  8
É}ÿg
  5
709
  66
     1
 10
0.000000
 20
0.000000
 30
0.000000
  70
     8
  0
VERTEX
  8
É}ÿg
  5
70A
 10
1000.14
 20
-421.341
 30
0.000000
  70
    32
  0
VERTEX
  8
É}ÿg
  5
70B
 10
1000.15
 20
-421.352
 30
0.000000
  70
    32
  0
VERTEX
  8
É}ÿg
  5
70C
 10
1000.16
 20
-421.363
 30
0.000000
  70
    32
  0
VERTEX
  8
É}ÿg
  5
70D
 10
1000.17
 20
-421.374
 30
0.000000
  70
    32
  0
VERTEX
  8
É}ÿg
  5
70E
 10
1000.18
 20
-421.385
 30
0.000000
  70
    32
  0
VERTEX
  8
É}ÿg
  5
70F
 10
1000.19
 20
-421.396
 30
0.000000
  70
    32
  0
VERTEX
  8
É}ÿg
  5
710
 10
1000.20
 20
-421.407
 30
0.000000
  70
    32
  0
VERTEX
  8
É}ÿg
  5
711
 10
1000.21
 20
-421.418
 30
0.000000
  70
    32
  0
VERTEX
  8
É}ÿg
  5
712
 10
1000.22
 20
-421.429
 30
0.000000
  70
    32
  0
VERTEX
  8
É}ÿg
  5
713
 10
1000.23
 20
-421.440
 30
0.000000
  70
    32
  0
VERTEX
  8
É}ÿg
  5
714
 10
1000.24
 20
-421.452
 30
0.000000
  70
    32
  0
VERTEX
  8
É}ÿg
  5
715
 10
1000.25
 20
-421.463
 30
0.000000
  70
    32
  0
VERTEX
  8
É}ÿg
  5
716
 10
1000.26
 20
-421.474
 30
0.000000
  70
    32
  0
VERTEX
  8
É}ÿg
  5
717
 10
1000.27
 20
-421.485
 30
0.000000
  70
    32
  0
VERTEX
  8
É}ÿg
  5
718
 10
1000.27
 20
-421.496
 30
0.000000
  70
    32
  0
VERTEX
  8
É}ÿg
  5
719
 10
1000.28
 20
-421.507
 30
0.000000
  70
    32
  0
VERTEX
  8
É}ÿg
  5
71A
 10
1000.29
 20
-421.518
 30
0.000000
  70
    32
  0
VERTEX
  8
É}ÿg
  5
71B
 10
1000.30
 20
-421.529
 30
0.000000
  70
    32
  0
VERTEX
  8
É}ÿg
  5
71C
 10
1000.31
 20
-421.540
 30
0.000000
  70
    32
  0
VERTEX
  8
É}ÿg
  5
71D
 10
1000.32
 20
-421.551
 30
0.000000
  70
    32
  0
VERTEX
  8
É}ÿg
  5
71E
 10
1000.33
 20
-421.562
 30
0.000000
  70
    32
  0
VERTEX
  8
É}ÿg
  5
71F
 10
1000.34
 20
-421.573
 30
0.000000
  70
    32
  0
VERTEX
  8
É}ÿg
  5
720
 10
1000.35
 20
-421.584
 30
0.000000
  70
    32
  0
VERTEX
  8
É}ÿg
  5
721
 10
1000.36
 20
-421.595
 30
0.000000
  70
    32
  0
VERTEX
  8
É}ÿg
  5
722
 10
1000.37
 20
-421.606
 30
0.000000
  70
    32
  0
VERTEX
  8
É}ÿg
  5
723
 10
1000.38
 20
-421.617
 30
0.000000
  70
    32
  0
VERTEX
  8
É}ÿg
  5
724
 10
1000.39
 20
-421.628
 30
0.000000
  70
    32
  0
VERTEX
  8
É}ÿg
  5
725
 10
1000.40
 20
-421.639
 30
0.000000
  70
    32
  0
VERTEX
  8
É}ÿg
  5
726
 10
1000.41
 20
-421.650
 30
0.000000
  70
    32
  0
VERTEX
  8
É}ÿg
  5
727
 10
1000.42
 20
-421.661
 30
0.000000
  70
    32
  0
VERTEX
  8
É}ÿg
  5
728
 10
1000.43
 20
-421.672
 30
0.000000
  70
    32
  0
VERTEX
  8
É}ÿg
  5
729
 10
1000.44
 20
-421.683
 30
0.000000
  70
    32
  0
VERTEX
  8
É}ÿg
  5
72A
 10
1000.45
 20
-421.693
 30
0.000000
  70
    32
  0
VERTEX
  8
É}ÿg
  5
72B
 10
1000.46
 20
-421.704
 30
0.000000
  70
    32
  0
VERTEX
  8
É}ÿg
  5
72C
 10
1000.47
 20
-421.715
 30
0.000000
  70
    32
  0
VERTEX
  8
É}ÿg
  5
72D
 10
1000.48
 20
-421.726
 30
0.000000
  70
    32
  0
VERTEX
  8
É}ÿg
  5
72E
 10
1000.49
 20
-421.737
 30
0.000000
  70
    32
  0
VERTEX
  8
É}ÿg
  5
72F
 10
1000.50
 20
-421.748
 30
0.000000
  70
    32
  0
VERTEX
  8
É}ÿg
  5
730
 10
1000.51
 20
-421.759
 30
0.000000
  70
    32
  0
VERTEX
  8
É}ÿg
  5
731
 10
1000.52
 20
-421.770
 30
0.000000
  70
    32
  0
VERTEX
  8
É}ÿg
  5
732
 10
1000.53
 20
-421.781
 30
0.000000
  70
    32
  0
VERTEX
  8
É}ÿg
  5
733
 10
1000.54
 20
-421.792
 30
0.000000
  70
    32
  0
VERTEX
  8
É}ÿg
  5
734
 10
1000.55
 20
-421.803
 30
0.000000
  70
    32
  0
VERTEX
  8
É}ÿg
  5
735
 10
1000.56
 20
-421.814
 30
0.000000
  70
    32
  0
VERTEX
  8
É}ÿg
  5
736
 10
1000.57
 20
-421.824
 30
0.000000
  70
    32
  0
VERTEX
  8
É}ÿg
  5
737
 10
1000.58
 20
-421.835
 30
0.000000
  70
    32
  0
VERTEX
  8
É}ÿg
  5
738
 10
1000.59
 20
-421.846
 30
0.000000
  70
    32
  0
VERTEX
  8
É}ÿg
  5
739
 10
1000.60
 20
-421.857
 30
0.000000
  70
    32
  0
VERTEX
  8
É}ÿg
  5
73A
 10
1000.61
 20
-421.868
 30
0.000000
  70
    32
  0
VERTEX
  8
É}ÿg
  5
73B
 10
1000.62
 20
-421.879
 30
0.000000
  70
    32
  0
VERTEX
  8
É}ÿg
  5
73C
 10
1000.63
 20
-421.890
 30
0.000000
  70
    32
  0
VERTEX
  8
É}ÿg
  5
73D
 10
1000.64
 20
-421.900
 30
0.000000
  70
    32
  0
VERTEX
  8
É}ÿg
  5
73E
 10
1000.65
 20
-421.911
 30
0.000000
  70
    32
  0
VERTEX
  8
É}ÿg
  5
73F
 10
1000.66
 20
-421.922
 30
0.000000
  70
    32
  0
VERTEX
  8
É}ÿg
  5
740
 10
1000.67
 20
-421.933
 30
0.000000
  70
    32
  0
VERTEX
  8
É}ÿg
  5
741
 10
1000.68
 20
-421.944
 30
0.000000
  70
    32
  0
VERTEX
  8
É}ÿg
  5
742
 10
1000.69
 20
-421.954
 30
0.000000
  70
    32
  0
VERTEX
  8
É}ÿg
  5
743
 10
1000.70
 20
-421.965
 30
0.000000
  70
    32
  0
VERTEX
  8
É}ÿg
  5
744
 10
1000.71
 20
-421.976
 30
0.000000
  70
    32
  0
VERTEX
  8
É}ÿg
  5
745
 10
1000.72
 20
-421.987
 30
0.000000
  70
    32
  0
VERTEX
  8
É}ÿg
  5
746
 10
1000.73
 20
-421.997
 30
0.000000
  70
    32
  0
VERTEX
  8
É}ÿg
  5
747
 10
1000.74
 20
-422.008
 30
0.000000
  70
    32
  0
VERTEX
  8
É}ÿg
  5
748
 10
1000.75
 20
-422.019
 30
0.000000
  70
    32
  0
VERTEX
  8
É}ÿg
  5
749
 10
1000.76
 20
-422.030
 30
0.000000
  70
    32
  0
VERTEX
  8
É}ÿg
  5
74A
 10
1000.77
 20
-422.040
 30
0.000000
  70
    32
  0
VERTEX
  8
É}ÿg
  5
74B
 10
1000.78
 20
-422.051
 30
0.000000
  70
    32
  0
VERTEX
  8
É}ÿg
  5
74C
 10
1000.79
 20
-422.062
 30
0.000000
  70
    32
  0
VERTEX
  8
É}ÿg
  5
74D
 10
1000.80
 20
-422.072
 30
0.000000
  70
    32
  0
VERTEX
  8
É}ÿg
  5
74E
 10
1000.81
 20
-422.083
 30
0.000000
  70
    32
  0
VERTEX
  8
É}ÿg
  5
74F
 10
1000.82
 20
-422.094
 30
0.000000
  70
    32
  0
VERTEX
  8
É}ÿg
  5
750
 10
1000.84
 20
-422.104
 30
0.000000
  70
    32
  0
VERTEX
  8
É}ÿg
  5
751
 10
1000.85
 20
-422.115
 30
0.000000
  70
    32
  0
VERTEX
  8
É}ÿg
  5
752
 10
1000.86
 20
-422.126
 30
0.000000
  70
    32
  0
VERTEX
  8
É}ÿg
  5
753
 10
1000.87
 20
-422.136
 30
0.000000
  70
    32
  0
VERTEX
  8
É}ÿg
  5
754
 10
1000.88
 20
-422.147
 30
0.000000
  70
    32
  0
VERTEX
  8
É}ÿg
  5
755
 10
1000.89
 20
-422.157
 30
0.000000
  70
    32
  0
VERTEX
  8
É}ÿg
  5
756
 10
1000.90
 20
-422.168
 30
0.000000
  70
    32
  0
VERTEX
  8
É}ÿg
  5
757
 10
1000.91
 20
-422.179
 30
0.000000
  70
    32
  0
VERTEX
  8
É}ÿg
  5
758
 10
1000.92
 20
-422.189
 30
0.000000
  70
    32
  0
VERTEX
  8
É}ÿg
  5
759
 10
1000.93
 20
-422.200
 30
0.000000
  70
    32
  0
VERTEX
  8
É}ÿg
  5
75A
 10
1000.94
 20
-422.210
 30
0.000000
  70
    32
  0
VERTEX
  8
É}ÿg
  5
75B
 10
1000.95
 20
-422.221
 30
0.000000
  70
    32
  0
VERTEX
  8
É}ÿg
  5
75C
 10
1000.96
 20
-422.231
 30
0.000000
  70
    32
  0
VERTEX
  8
É}ÿg
  5
75D
 10
1000.97
 20
-422.242
 30
0.000000
  70
    32
  0
VERTEX
  8
É}ÿg
  5
75E
 10
1000.98
 20
-422.252
 30
0.000000
  70
    32
  0
VERTEX
  8
É}ÿg
  5
75F
 10
1000.99
 20
-422.263
 30
0.000000
  70
    32
  0
VERTEX
  8
É}ÿg
  5
760
 10
1001.00
 20
-422.273
 30
0.000000
  70
    32
  0
VERTEX
  8
É}ÿg
  5
761
 10
1001.01
 20
-422.283
 30
0.000000
  70
    32
  0
VERTEX
  8
É}ÿg
  5
762
 10
1001.02
 20
-422.294
 30
0.000000
  70
    32
  0
VERTEX
  8
É}ÿg
  5
763
 10
1001.03
 20
-422.304
 30
0.000000
  70
    32
  0
VERTEX
  8
É}ÿg
  5
764
 10
1001.04
 20
-422.315
 30
0.000000
  70
    32
  0
VERTEX
  8
É}ÿg
  5
765
 10
1001.05
 20
-422.325
 30
0.000000
  70
    32
  0
VERTEX
  8
É}ÿg
  5
766
 10
1001.06
 20
-422.335
 30
0.000000
  70
    32
  0
VERTEX
  8
É}ÿg
  5
767
 10
1001.07
 20
-422.346
 30
0.000000
  70
    32
  0
VERTEX
  8
É}ÿg
  5
768
 10
1001.08
 20
-422.356
 30
0.000000
  70
    32
  0
VERTEX
  8
É}ÿg
  5
769
 10
1001.09
 20
-422.366
 30
0.000000
  70
    32
  0
VERTEX
  8
É}ÿg
  5
76A
 10
1001.10
 20
-422.376
 30
0.000000
  70
    32
  0
VERTEX
  8
É}ÿg
  5
76B
 10
1001.11
 20
-422.387
 30
0.000000
  70
    32
  0
VERTEX
  8
É}ÿg
  5
76C
 10
1001.12
 20
-422.397
 30
0.000000
  70
    32
  0
VERTEX
  8
É}ÿg
  5
76D
 10
1001.13
 20
-422.407
 30
0.000000
  70
    32
  0
VERTEX
  8
É}ÿg
  5
76E
 10
1001.14
 20
-422.417
 30
0.000000
  70
    32
  0
VERTEX
  8
É}ÿg
  5
76F
 10
1001.15
 20
-422.428
 30
0.000000
  70
    32
  0
VERTEX
  8
É}ÿg
  5
770
 10
1001.16
 20
-422.438
 30
0.000000
  70
    32
  0
VERTEX
  8
É}ÿg
  5
771
 10
1001.17
 20
-422.448
 30
0.000000
  70
    32
  0
VERTEX
  8
É}ÿg
  5
772
 10
1001.19
 20
-422.458
 30
0.000000
  70
    32
  0
VERTEX
  8
É}ÿg
  5
773
 10
1001.20
 20
-422.468
 30
0.000000
  70
    32
  0
VERTEX
  8
É}ÿg
  5
774
 10
1001.21
 20
-422.478
 30
0.000000
  70
    32
  0
VERTEX
  8
É}ÿg
  5
775
 10
1001.22
 20
-422.489
 30
0.000000
  70
    32
  0
VERTEX
  8
É}ÿg
  5
776
 10
1001.23
 20
-422.499
 30
0.000000
  70
    32
  0
VERTEX
  8
É}ÿg
  5
777
 10
1001.24
 20
-422.509
 30
0.000000
  70
    32
  0
VERTEX
  8
É}ÿg
  5
778
 10
1001.25
 20
-422.519
 30
0.000000
  70
    32
  0
VERTEX
  8
É}ÿg
  5
779
 10
1001.26
 20
-422.529
 30
0.000000
  70
    32
  0
VERTEX
  8
É}ÿg
  5
77A
 10
1001.27
 20
-422.539
 30
0.000000
  70
    32
  0
VERTEX
  8
É}ÿg
  5
77B
 10
1001.28
 20
-422.549
 30
0.000000
  70
    32
  0
VERTEX
  8
É}ÿg
  5
77C
 10
1001.29
 20
-422.559
 30
0.000000
  70
    32
  0
VERTEX
  8
É}ÿg
  5
77D
 10
1001.30
 20
-422.569
 30
0.000000
  70
    32
  0
VERTEX
  8
É}ÿg
  5
77E
 10
1001.31
 20
-422.579
 30
0.000000
  70
    32
  0
VERTEX
  8
É}ÿg
  5
77F
 10
1001.32
 20
-422.589
 30
0.000000
  70
    32
  0
VERTEX
  8
É}ÿg
  5
780
 10
1001.33
 20
-422.598
 30
0.000000
  70
    32
  0
VERTEX
  8
É}ÿg
  5
781
 10
1001.34
 20
-422.608
 30
0.000000
  70
    32
  0
VERTEX
  8
É}ÿg
  5
782
 10
1001.35
 20
-422.618
 30
0.000000
  70
    32
  0
VERTEX
  8
É}ÿg
  5
783
 10
1001.36
 20
-422.628
 30
0.000000
  70
    32
  0
VERTEX
  8
É}ÿg
  5
784
 10
1001.37
 20
-422.638
 30
0.000000
  70
    32
  0
VERTEX
  8
É}ÿg
  5
785
 10
1001.39
 20
-422.648
 30
0.000000
  70
    32
  0
VERTEX
  8
É}ÿg
  5
786
 10
1001.40
 20
-422.657
 30
0.000000
  70
    32
  0
VERTEX
  8
É}ÿg
  5
787
 10
1001.41
 20
-422.667
 30
0.000000
  70
    32
  0
VERTEX
  8
É}ÿg
  5
788
 10
1001.42
 20
-422.677
 30
0.000000
  70
    32
  0
VERTEX
  8
É}ÿg
  5
789
 10
1001.43
 20
-422.687
 30
0.000000
  70
    32
  0
SEQEND
  8
É}ÿg
  5
78A
  0
POLYLINE
  8
É}ÿg
  5
78B
  66
     1
 10
0.000000
 20
0.000000
 30
0.000000
  70
     8
  0
VERTEX
  8
É}ÿg
  5
78C
 10
1003.17
 20
-426.214
 30
0.000000
  70
    32
  0
VERTEX
  8
É}ÿg
  5
78D
 10
1003.21
 20
-426.227
 30
0.000000
  70
    32
  0
VERTEX
  8
É}ÿg
  5
78E
 10
1003.25
 20
-426.240
 30
0.000000
  70
    32
  0
VERTEX
  8
É}ÿg
  5
78F
 10
1003.29
 20
-426.252
 30
0.000000
  70
    32
  0
VERTEX
  8
É}ÿg
  5
790
 10
1003.33
 20
-426.265
 30
0.000000
  70
    32
  0
VERTEX
  8
É}ÿg
  5
791
 10
1003.38
 20
-426.278
 30
0.000000
  70
    32
  0
VERTEX
  8
É}ÿg
  5
792
 10
1003.42
 20
-426.290
 30
0.000000
  70
    32
  0
VERTEX
  8
É}ÿg
  5
793
 10
1003.46
 20
-426.303
 30
0.000000
  70
    32
  0
VERTEX
  8
É}ÿg
  5
794
 10
1003.50
 20
-426.315
 30
0.000000
  70
    32
  0
VERTEX
  8
É}ÿg
  5
795
 10
1003.54
 20
-426.328
 30
0.000000
  70
    32
  0
VERTEX
  8
É}ÿg
  5
796
 10
1003.58
 20
-426.340
 30
0.000000
  70
    32
  0
VERTEX
  8
É}ÿg
  5
797
 10
1003.62
 20
-426.352
 30
0.000000
  70
    32
  0
VERTEX
  8
É}ÿg
  5
798
 10
1003.66
 20
-426.364
 30
0.000000
  70
    32
  0
VERTEX
  8
É}ÿg
  5
799
 10
1003.70
 20
-426.377
 30
0.000000
  70
    32
  0
VERTEX
  8
É}ÿg
  5
79A
 10
1003.74
 20
-426.389
 30
0.000000
  70
    32
  0
VERTEX
  8
É}ÿg
  5
79B
 10
1003.78
 20
-426.401
 30
0.000000
  70
    32
  0
VERTEX
  8
É}ÿg
  5
79C
 10
1003.82
 20
-426.413
 30
0.000000
  70
    32
  0
VERTEX
  8
É}ÿg
  5
79D
 10
1003.86
 20
-426.425
 30
0.000000
  70
    32
  0
VERTEX
  8
É}ÿg
  5
79E
 10
1003.90
 20
-426.436
 30
0.000000
  70
    32
  0
VERTEX
  8
É}ÿg
  5
79F
 10
1003.95
 20
-426.448
 30
0.000000
  70
    32
  0
VERTEX
  8
É}ÿg
  5
7A0
 10
1003.99
 20
-426.460
 30
0.000000
  70
    32
  0
VERTEX
  8
É}ÿg
  5
7A1
 10
1004.03
 20
-426.472
 30
0.000000
  70
    32
  0
VERTEX
  8
É}ÿg
  5
7A2
 10
1004.07
 20
-426.483
 30
0.000000
  70
    32
  0
VERTEX
  8
É}ÿg
  5
7A3
 10
1004.11
 20
-426.495
 30
0.000000
  70
    32
  0
VERTEX
  8
É}ÿg
  5
7A4
 10
1004.15
 20
-426.507
 30
0.000000
  70
    32
  0
VERTEX
  8
É}ÿg
  5
7A5
 10
1004.19
 20
-426.518
 30
0.000000
  70
    32
  0
VERTEX
  8
É}ÿg
  5
7A6
 10
1004.23
 20
-426.529
 30
0.000000
  70
    32
  0
VERTEX
  8
É}ÿg
  5
7A7
 10
1004.27
 20
-426.541
 30
0.000000
  70
    32
  0
VERTEX
  8
É}ÿg
  5
7A8
 10
1004.32
 20
-426.552
 30
0.000000
  70
    32
  0
VERTEX
  8
É}ÿg
  5
7A9
 10
1004.36
 20
-426.563
 30
0.000000
  70
    32
  0
VERTEX
  8
É}ÿg
  5
7AA
 10
1004.40
 20
-426.575
 30
0.000000
  70
    32
  0
VERTEX
  8
É}ÿg
  5
7AB
 10
1004.44
 20
-426.586
 30
0.000000
  70
    32
  0
VERTEX
  8
É}ÿg
  5
7AC
 10
1004.48
 20
-426.597
 30
0.000000
  70
    32
  0
VERTEX
  8
É}ÿg
  5
7AD
 10
1004.52
 20
-426.608
 30
0.000000
  70
    32
  0
VERTEX
  8
É}ÿg
  5
7AE
 10
1004.56
 20
-426.619
 30
0.000000
  70
    32
  0
VERTEX
  8
É}ÿg
  5
7AF
 10
1004.60
 20
-426.630
 30
0.000000
  70
    32
  0
VERTEX
  8
É}ÿg
  5
7B0
 10
1004.65
 20
-426.641
 30
0.000000
  70
    32
  0
VERTEX
  8
É}ÿg
  5
7B1
 10
1004.69
 20
-426.652
 30
0.000000
  70
    32
  0
VERTEX
  8
É}ÿg
  5
7B2
 10
1004.73
 20
-426.663
 30
0.000000
  70
    32
  0
VERTEX
  8
É}ÿg
  5
7B3
 10
1004.77
 20
-426.674
 30
0.000000
  70
    32
  0
VERTEX
  8
É}ÿg
  5
7B4
 10
1004.81
 20
-426.685
 30
0.000000
  70
    32
  0
VERTEX
  8
É}ÿg
  5
7B5
 10
1004.85
 20
-426.695
 30
0.000000
  70
    32
  0
VERTEX
  8
É}ÿg
  5
7B6
 10
1004.90
 20
-426.706
 30
0.000000
  70
    32
  0
VERTEX
  8
É}ÿg
  5
7B7
 10
1004.94
 20
-426.717
 30
0.000000
  70
    32
  0
VERTEX
  8
É}ÿg
  5
7B8
 10
1004.98
 20
-426.727
 30
0.000000
  70
    32
  0
VERTEX
  8
É}ÿg
  5
7B9
 10
1005.02
 20
-426.738
 30
0.000000
  70
    32
  0
VERTEX
  8
É}ÿg
  5
7BA
 10
1005.06
 20
-426.748
 30
0.000000
  70
    32
  0
VERTEX
  8
É}ÿg
  5
7BB
 10
1005.10
 20
-426.759
 30
0.000000
  70
    32
  0
VERTEX
  8
É}ÿg
  5
7BC
 10
1005.15
 20
-426.769
 30
0.000000
  70
    32
  0
VERTEX
  8
É}ÿg
  5
7BD
 10
1005.19
 20
-426.780
 30
0.000000
  70
    32
  0
VERTEX
  8
É}ÿg
  5
7BE
 10
1005.23
 20
-426.790
 30
0.000000
  70
    32
  0
VERTEX
  8
É}ÿg
  5
7BF
 10
1005.27
 20
-426.800
 30
0.000000
  70
    32
  0
VERTEX
  8
É}ÿg
  5
7C0
 10
1005.31
 20
-426.811
 30
0.000000
  70
    32
  0
VERTEX
  8
É}ÿg
  5
7C1
 10
1005.35
 20
-426.821
 30
0.000000
  70
    32
  0
VERTEX
  8
É}ÿg
  5
7C2
 10
1005.40
 20
-426.831
 30
0.000000
  70
    32
  0
VERTEX
  8
É}ÿg
  5
7C3
 10
1005.44
 20
-426.841
 30
0.000000
  70
    32
  0
VERTEX
  8
É}ÿg
  5
7C4
 10
1005.48
 20
-426.851
 30
0.000000
  70
    32
  0
VERTEX
  8
É}ÿg
  5
7C5
 10
1005.52
 20
-426.861
 30
0.000000
  70
    32
  0
VERTEX
  8
É}ÿg
  5
7C6
 10
1005.56
 20
-426.871
 30
0.000000
  70
    32
  0
VERTEX
  8
É}ÿg
  5
7C7
 10
1005.61
 20
-426.881
 30
0.000000
  70
    32
  0
VERTEX
  8
É}ÿg
  5
7C8
 10
1005.65
 20
-426.891
 30
0.000000
  70
    32
  0
VERTEX
  8
É}ÿg
  5
7C9
 10
1005.69
 20
-426.901
 30
0.000000
  70
    32
  0
VERTEX
  8
É}ÿg
  5
7CA
 10
1005.73
 20
-426.911
 30
0.000000
  70
    32
  0
VERTEX
  8
É}ÿg
  5
7CB
 10
1005.77
 20
-426.921
 30
0.000000
  70
    32
  0
VERTEX
  8
É}ÿg
  5
7CC
 10
1005.82
 20
-426.931
 30
0.000000
  70
    32
  0
VERTEX
  8
É}ÿg
  5
7CD
 10
1005.86
 20
-426.941
 30
0.000000
  70
    32
  0
VERTEX
  8
É}ÿg
  5
7CE
 10
1005.90
 20
-426.951
 30
0.000000
  70
    32
  0
VERTEX
  8
É}ÿg
  5
7CF
 10
1005.94
 20
-426.961
 30
0.000000
  70
    32
  0
VERTEX
  8
É}ÿg
  5
7D0
 10
1005.98
 20
-426.970
 30
0.000000
  70
    32
  0
VERTEX
  8
É}ÿg
  5
7D1
 10
1006.03
 20
-426.980
 30
0.000000
  70
    32
  0
VERTEX
  8
É}ÿg
  5
7D2
 10
1006.07
 20
-426.990
 30
0.000000
  70
    32
  0
VERTEX
  8
É}ÿg
  5
7D3
 10
1006.11
 20
-426.999
 30
0.000000
  70
    32
  0
VERTEX
  8
É}ÿg
  5
7D4
 10
1006.15
 20
-427.009
 30
0.000000
  70
    32
  0
VERTEX
  8
É}ÿg
  5
7D5
 10
1006.19
 20
-427.019
 30
0.000000
  70
    32
  0
VERTEX
  8
É}ÿg
  5
7D6
 10
1006.24
 20
-427.028
 30
0.000000
  70
    32
  0
VERTEX
  8
É}ÿg
  5
7D7
 10
1006.28
 20
-427.038
 30
0.000000
  70
    32
  0
VERTEX
  8
É}ÿg
  5
7D8
 10
1006.32
 20
-427.047
 30
0.000000
  70
    32
  0
VERTEX
  8
É}ÿg
  5
7D9
 10
1006.36
 20
-427.057
 30
0.000000
  70
    32
  0
VERTEX
  8
É}ÿg
  5
7DA
 10
1006.40
 20
-427.066
 30
0.000000
  70
    32
  0
VERTEX
  8
É}ÿg
  5
7DB
 10
1006.45
 20
-427.076
 30
0.000000
  70
    32
  0
VERTEX
  8
É}ÿg
  5
7DC
 10
1006.49
 20
-427.085
 30
0.000000
  70
    32
  0
VERTEX
  8
É}ÿg
  5
7DD
 10
1006.53
 20
-427.094
 30
0.000000
  70
    32
  0
VERTEX
  8
É}ÿg
  5
7DE
 10
1006.57
 20
-427.104
 30
0.000000
  70
    32
  0
VERTEX
  8
É}ÿg
  5
7DF
 10
1006.62
 20
-427.113
 30
0.000000
  70
    32
  0
VERTEX
  8
É}ÿg
  5
7E0
 10
1006.66
 20
-427.122
 30
0.000000
  70
    32
  0
VERTEX
  8
É}ÿg
  5
7E1
 10
1006.70
 20
-427.132
 30
0.000000
  70
    32
  0
VERTEX
  8
É}ÿg
  5
7E2
 10
1006.74
 20
-427.141
 30
0.000000
  70
    32
  0
VERTEX
  8
É}ÿg
  5
7E3
 10
1006.79
 20
-427.150
 30
0.000000
  70
    32
  0
VERTEX
  8
É}ÿg
  5
7E4
 10
1006.83
 20
-427.159
 30
0.000000
  70
    32
  0
VERTEX
  8
É}ÿg
  5
7E5
 10
1006.87
 20
-427.169
 30
0.000000
  70
    32
  0
VERTEX
  8
É}ÿg
  5
7E6
 10
1006.91
 20
-427.178
 30
0.000000
  70
    32
  0
VERTEX
  8
É}ÿg
  5
7E7
 10
1006.95
 20
-427.187
 30
0.000000
  70
    32
  0
VERTEX
  8
É}ÿg
  5
7E8
 10
1007.00
 20
-427.196
 30
0.000000
  70
    32
  0
VERTEX
  8
É}ÿg
  5
7E9
 10
1007.04
 20
-427.205
 30
0.000000
  70
    32
  0
VERTEX
  8
É}ÿg
  5
7EA
 10
1007.08
 20
-427.215
 30
0.000000
  70
    32
  0
VERTEX
  8
É}ÿg
  5
7EB
 10
1007.12
 20
-427.224
 30
0.000000
  70
    32
  0
VERTEX
  8
É}ÿg
  5
7EC
 10
1007.17
 20
-427.233
 30
0.000000
  70
    32
  0
VERTEX
  8
É}ÿg
  5
7ED
 10
1007.21
 20
-427.242
 30
0.000000
  70
    32
  0
VERTEX
  8
É}ÿg
  5
7EE
 10
1007.25
 20
-427.251
 30
0.000000
  70
    32
  0
VERTEX
  8
É}ÿg
  5
7EF
 10
1007.29
 20
-427.260
 30
0.000000
  70
    32
  0
VERTEX
  8
É}ÿg
  5
7F0
 10
1007.34
 20
-427.269
 30
0.000000
  70
    32
  0
VERTEX
  8
É}ÿg
  5
7F1
 10
1007.38
 20
-427.278
 30
0.000000
  70
    32
  0
VERTEX
  8
É}ÿg
  5
7F2
 10
1007.42
 20
-427.287
 30
0.000000
  70
    32
  0
VERTEX
  8
É}ÿg
  5
7F3
 10
1007.46
 20
-427.296
 30
0.000000
  70
    32
  0
VERTEX
  8
É}ÿg
  5
7F4
 10
1007.51
 20
-427.305
 30
0.000000
  70
    32
  0
VERTEX
  8
É}ÿg
  5
7F5
 10
1007.55
 20
-427.314
 30
0.000000
  70
    32
  0
VERTEX
  8
É}ÿg
  5
7F6
 10
1007.59
 20
-427.323
 30
0.000000
  70
    32
  0
VERTEX
  8
É}ÿg
  5
7F7
 10
1007.63
 20
-427.332
 30
0.000000
  70
    32
  0
VERTEX
  8
É}ÿg
  5
7F8
 10
1007.68
 20
-427.341
 30
0.000000
  70
    32
  0
VERTEX
  8
É}ÿg
  5
7F9
 10
1007.72
 20
-427.350
 30
0.000000
  70
    32
  0
VERTEX
  8
É}ÿg
  5
7FA
 10
1007.76
 20
-427.359
 30
0.000000
  70
    32
  0
VERTEX
  8
É}ÿg
  5
7FB
 10
1007.80
 20
-427.368
 30
0.000000
  70
    32
  0
VERTEX
  8
É}ÿg
  5
7FC
 10
1007.85
 20
-427.376
 30
0.000000
  70
    32
  0
VERTEX
  8
É}ÿg
  5
7FD
 10
1007.89
 20
-427.385
 30
0.000000
  70
    32
  0
VERTEX
  8
É}ÿg
  5
7FE
 10
1007.93
 20
-427.394
 30
0.000000
  70
    32
  0
VERTEX
  8
É}ÿg
  5
7FF
 10
1007.97
 20
-427.403
 30
0.000000
  70
    32
  0
VERTEX
  8
É}ÿg
  5
800
 10
1008.02
 20
-427.412
 30
0.000000
  70
    32
  0
VERTEX
  8
É}ÿg
  5
801
 10
1008.06
 20
-427.421
 30
0.000000
  70
    32
  0
VERTEX
  8
É}ÿg
  5
802
 10
1008.10
 20
-427.430
 30
0.000000
  70
    32
  0
VERTEX
  8
É}ÿg
  5
803
 10
1008.14
 20
-427.439
 30
0.000000
  70
    32
  0
VERTEX
  8
É}ÿg
  5
804
 10
1008.19
 20
-427.448
 30
0.000000
  70
    32
  0
VERTEX
  8
É}ÿg
  5
805
 10
1008.23
 20
-427.456
 30
0.000000
  70
    32
  0
VERTEX
  8
É}ÿg
  5
806
 10
1008.27
 20
-427.465
 30
0.000000
  70
    32
  0
VERTEX
  8
É}ÿg
  5
807
 10
1008.31
 20
-427.474
 30
0.000000
  70
    32
  0
VERTEX
  8
É}ÿg
  5
808
 10
1008.36
 20
-427.483
 30
0.000000
  70
    32
  0
VERTEX
  8
É}ÿg
  5
809
 10
1008.40
 20
-427.492
 30
0.000000
  70
    32
  0
VERTEX
  8
É}ÿg
  5
80A
 10
1008.44
 20
-427.501
 30
0.000000
  70
    32
  0
VERTEX
  8
É}ÿg
  5
80B
 10
1008.48
 20
-427.509
 30
0.000000
  70
    32
  0
SEQEND
  8
É}ÿg
  5
80C
  0
POLYLINE
  8
É}ÿg
  5
80D
  66
     1
 10
0.000000
 20
0.000000
 30
0.000000
  70
     8
  0
VERTEX
  8
É}ÿg
  5
80E
 10
994.985
 20
-420.976
 30
0.000000
  70
    32
  0
VERTEX
  8
É}ÿg
  5
80F
 10
995.012
 20
-421.001
 30
0.000000
  70
    32
  0
VERTEX
  8
É}ÿg
  5
810
 10
995.039
 20
-421.026
 30
0.000000
  70
    32
  0
VERTEX
  8
É}ÿg
  5
811
 10
995.066
 20
-421.051
 30
0.000000
  70
    32
  0
VERTEX
  8
É}ÿg
  5
812
 10
995.093
 20
-421.075
 30
0.000000
  70
    32
  0
VERTEX
  8
É}ÿg
  5
813
 10
995.120
 20
-421.100
 30
0.000000
  70
    32
  0
VERTEX
  8
É}ÿg
  5
814
 10
995.147
 20
-421.125
 30
0.000000
  70
    32
  0
VERTEX
  8
É}ÿg
  5
815
 10
995.174
 20
-421.150
 30
0.000000
  70
    32
  0
VERTEX
  8
É}ÿg
  5
816
 10
995.201
 20
-421.175
 30
0.000000
  70
    32
  0
VERTEX
  8
É}ÿg
  5
817
 10
995.228
 20
-421.200
 30
0.000000
  70
    32
  0
VERTEX
  8
É}ÿg
  5
818
 10
995.255
 20
-421.225
 30
0.000000
  70
    32
  0
VERTEX
  8
É}ÿg
  5
819
 10
995.282
 20
-421.250
 30
0.000000
  70
    32
  0
VERTEX
  8
É}ÿg
  5
81A
 10
995.309
 20
-421.275
 30
0.000000
  70
    32
  0
VERTEX
  8
É}ÿg
  5
81B
 10
995.336
 20
-421.299
 30
0.000000
  70
    32
  0
VERTEX
  8
É}ÿg
  5
81C
 10
995.363
 20
-421.324
 30
0.000000
  70
    32
  0
VERTEX
  8
É}ÿg
  5
81D
 10
995.390
 20
-421.349
 30
0.000000
  70
    32
  0
VERTEX
  8
É}ÿg
  5
81E
 10
995.417
 20
-421.374
 30
0.000000
  70
    32
  0
VERTEX
  8
É}ÿg
  5
81F
 10
995.444
 20
-421.399
 30
0.000000
  70
    32
  0
VERTEX
  8
É}ÿg
  5
820
 10
995.471
 20
-421.424
 30
0.000000
  70
    32
  0
VERTEX
  8
É}ÿg
  5
821
 10
995.499
 20
-421.448
 30
0.000000
  70
    32
  0
VERTEX
  8
É}ÿg
  5
822
 10
995.526
 20
-421.473
 30
0.000000
  70
    32
  0
VERTEX
  8
É}ÿg
  5
823
 10
995.553
 20
-421.498
 30
0.000000
  70
    32
  0
VERTEX
  8
É}ÿg
  5
824
 10
995.580
 20
-421.523
 30
0.000000
  70
    32
  0
VERTEX
  8
É}ÿg
  5
825
 10
995.607
 20
-421.548
 30
0.000000
  70
    32
  0
VERTEX
  8
É}ÿg
  5
826
 10
995.634
 20
-421.572
 30
0.000000
  70
    32
  0
VERTEX
  8
É}ÿg
  5
827
 10
995.661
 20
-421.597
 30
0.000000
  70
    32
  0
VERTEX
  8
É}ÿg
  5
828
 10
995.688
 20
-421.622
 30
0.000000
  70
    32
  0
VERTEX
  8
É}ÿg
  5
829
 10
995.715
 20
-421.647
 30
0.000000
  70
    32
  0
VERTEX
  8
É}ÿg
  5
82A
 10
995.742
 20
-421.671
 30
0.000000
  70
    32
  0
VERTEX
  8
É}ÿg
  5
82B
 10
995.770
 20
-421.696
 30
0.000000
  70
    32
  0
VERTEX
  8
É}ÿg
  5
82C
 10
995.797
 20
-421.721
 30
0.000000
  70
    32
  0
VERTEX
  8
É}ÿg
  5
82D
 10
995.824
 20
-421.745
 30
0.000000
  70
    32
  0
VERTEX
  8
É}ÿg
  5
82E
 10
995.851
 20
-421.770
 30
0.000000
  70
    32
  0
VERTEX
  8
É}ÿg
  5
82F
 10
995.878
 20
-421.795
 30
0.000000
  70
    32
  0
VERTEX
  8
É}ÿg
  5
830
 10
995.905
 20
-421.819
 30
0.000000
  70
    32
  0
VERTEX
  8
É}ÿg
  5
831
 10
995.932
 20
-421.844
 30
0.000000
  70
    32
  0
VERTEX
  8
É}ÿg
  5
832
 10
995.960
 20
-421.868
 30
0.000000
  70
    32
  0
VERTEX
  8
É}ÿg
  5
833
 10
995.987
 20
-421.893
 30
0.000000
  70
    32
  0
VERTEX
  8
É}ÿg
  5
834
 10
996.014
 20
-421.917
 30
0.000000
  70
    32
  0
VERTEX
  8
É}ÿg
  5
835
 10
996.041
 20
-421.942
 30
0.000000
  70
    32
  0
VERTEX
  8
É}ÿg
  5
836
 10
996.069
 20
-421.966
 30
0.000000
  70
    32
  0
VERTEX
  8
É}ÿg
  5
837
 10
996.096
 20
-421.991
 30
0.000000
  70
    32
  0
VERTEX
  8
É}ÿg
  5
838
 10
996.123
 20
-422.015
 30
0.000000
  70
    32
  0
VERTEX
  8
É}ÿg
  5
839
 10
996.150
 20
-422.040
 30
0.000000
  70
    32
  0
VERTEX
  8
É}ÿg
  5
83A
 10
996.178
 20
-422.064
 30
0.000000
  70
    32
  0
VERTEX
  8
É}ÿg
  5
83B
 10
996.205
 20
-422.089
 30
0.000000
  70
    32
  0
VERTEX
  8
É}ÿg
  5
83C
 10
996.232
 20
-422.113
 30
0.000000
  70
    32
  0
VERTEX
  8
É}ÿg
  5
83D
 10
996.260
 20
-422.137
 30
0.000000
  70
    32
  0
VERTEX
  8
É}ÿg
  5
83E
 10
996.287
 20
-422.162
 30
0.000000
  70
    32
  0
VERTEX
  8
É}ÿg
  5
83F
 10
996.314
 20
-422.186
 30
0.000000
  70
    32
  0
VERTEX
  8
É}ÿg
  5
840
 10
996.342
 20
-422.210
 30
0.000000
  70
    32
  0
VERTEX
  8
É}ÿg
  5
841
 10
996.369
 20
-422.234
 30
0.000000
  70
    32
  0
VERTEX
  8
É}ÿg
  5
842
 10
996.396
 20
-422.259
 30
0.000000
  70
    32
  0
VERTEX
  8
É}ÿg
  5
843
 10
996.424
 20
-422.283
 30
0.000000
  70
    32
  0
VERTEX
  8
É}ÿg
  5
844
 10
996.451
 20
-422.307
 30
0.000000
  70
    32
  0
VERTEX
  8
É}ÿg
  5
845
 10
996.479
 20
-422.331
 30
0.000000
  70
    32
  0
VERTEX
  8
É}ÿg
  5
846
 10
996.506
 20
-422.355
 30
0.000000
  70
    32
  0
VERTEX
  8
É}ÿg
  5
847
 10
996.534
 20
-422.379
 30
0.000000
  70
    32
  0
VERTEX
  8
É}ÿg
  5
848
 10
996.561
 20
-422.403
 30
0.000000
  70
    32
  0
VERTEX
  8
É}ÿg
  5
849
 10
996.588
 20
-422.427
 30
0.000000
  70
    32
  0
VERTEX
  8
É}ÿg
  5
84A
 10
996.616
 20
-422.451
 30
0.000000
  70
    32
  0
VERTEX
  8
É}ÿg
  5
84B
 10
996.644
 20
-422.475
 30
0.000000
  70
    32
  0
VERTEX
  8
É}ÿg
  5
84C
 10
996.671
 20
-422.499
 30
0.000000
  70
    32
  0
VERTEX
  8
É}ÿg
  5
84D
 10
996.699
 20
-422.523
 30
0.000000
  70
    32
  0
VERTEX
  8
É}ÿg
  5
84E
 10
996.726
 20
-422.547
 30
0.000000
  70
    32
  0
VERTEX
  8
É}ÿg
  5
84F
 10
996.754
 20
-422.571
 30
0.000000
  70
    32
  0
VERTEX
  8
É}ÿg
  5
850
 10
996.781
 20
-422.595
 30
0.000000
  70
    32
  0
VERTEX
  8
É}ÿg
  5
851
 10
996.809
 20
-422.618
 30
0.000000
  70
    32
  0
VERTEX
  8
É}ÿg
  5
852
 10
996.837
 20
-422.642
 30
0.000000
  70
    32
  0
VERTEX
  8
É}ÿg
  5
853
 10
996.864
 20
-422.666
 30
0.000000
  70
    32
  0
VERTEX
  8
É}ÿg
  5
854
 10
996.892
 20
-422.689
 30
0.000000
  70
    32
  0
VERTEX
  8
É}ÿg
  5
855
 10
996.920
 20
-422.713
 30
0.000000
  70
    32
  0
VERTEX
  8
É}ÿg
  5
856
 10
996.948
 20
-422.737
 30
0.000000
  70
    32
  0
VERTEX
  8
É}ÿg
  5
857
 10
996.975
 20
-422.760
 30
0.000000
  70
    32
  0
VERTEX
  8
É}ÿg
  5
858
 10
997.003
 20
-422.784
 30
0.000000
  70
    32
  0
VERTEX
  8
É}ÿg
  5
859
 10
997.031
 20
-422.807
 30
0.000000
  70
    32
  0
VERTEX
  8
É}ÿg
  5
85A
 10
997.059
 20
-422.831
 30
0.000000
  70
    32
  0
VERTEX
  8
É}ÿg
  5
85B
 10
997.087
 20
-422.854
 30
0.000000
  70
    32
  0
VERTEX
  8
É}ÿg
  5
85C
 10
997.114
 20
-422.877
 30
0.000000
  70
    32
  0
VERTEX
  8
É}ÿg
  5
85D
 10
997.142
 20
-422.901
 30
0.000000
  70
    32
  0
VERTEX
  8
É}ÿg
  5
85E
 10
997.170
 20
-422.924
 30
0.000000
  70
    32
  0
VERTEX
  8
É}ÿg
  5
85F
 10
997.198
 20
-422.947
 30
0.000000
  70
    32
  0
VERTEX
  8
É}ÿg
  5
860
 10
997.226
 20
-422.970
 30
0.000000
  70
    32
  0
VERTEX
  8
É}ÿg
  5
861
 10
997.254
 20
-422.993
 30
0.000000
  70
    32
  0
VERTEX
  8
É}ÿg
  5
862
 10
997.282
 20
-423.017
 30
0.000000
  70
    32
  0
VERTEX
  8
É}ÿg
  5
863
 10
997.310
 20
-423.040
 30
0.000000
  70
    32
  0
VERTEX
  8
É}ÿg
  5
864
 10
997.338
 20
-423.063
 30
0.000000
  70
    32
  0
VERTEX
  8
É}ÿg
  5
865
 10
997.366
 20
-423.086
 30
0.000000
  70
    32
  0
VERTEX
  8
É}ÿg
  5
866
 10
997.394
 20
-423.108
 30
0.000000
  70
    32
  0
VERTEX
  8
É}ÿg
  5
867
 10
997.422
 20
-423.131
 30
0.000000
  70
    32
  0
VERTEX
  8
É}ÿg
  5
868
 10
997.450
 20
-423.154
 30
0.000000
  70
    32
  0
VERTEX
  8
É}ÿg
  5
869
 10
997.479
 20
-423.177
 30
0.000000
  70
    32
  0
VERTEX
  8
É}ÿg
  5
86A
 10
997.507
 20
-423.200
 30
0.000000
  70
    32
  0
VERTEX
  8
É}ÿg
  5
86B
 10
997.535
 20
-423.222
 30
0.000000
  70
    32
  0
VERTEX
  8
É}ÿg
  5
86C
 10
997.563
 20
-423.245
 30
0.000000
  70
    32
  0
VERTEX
  8
É}ÿg
  5
86D
 10
997.592
 20
-423.268
 30
0.000000
  70
    32
  0
VERTEX
  8
É}ÿg
  5
86E
 10
997.620
 20
-423.290
 30
0.000000
  70
    32
  0
VERTEX
  8
É}ÿg
  5
86F
 10
997.648
 20
-423.313
 30
0.000000
  70
    32
  0
VERTEX
  8
É}ÿg
  5
870
 10
997.677
 20
-423.335
 30
0.000000
  70
    32
  0
VERTEX
  8
É}ÿg
  5
871
 10
997.705
 20
-423.357
 30
0.000000
  70
    32
  0
VERTEX
  8
É}ÿg
  5
872
 10
997.733
 20
-423.380
 30
0.000000
  70
    32
  0
VERTEX
  8
É}ÿg
  5
873
 10
997.762
 20
-423.402
 30
0.000000
  70
    32
  0
VERTEX
  8
É}ÿg
  5
874
 10
997.790
 20
-423.424
 30
0.000000
  70
    32
  0
VERTEX
  8
É}ÿg
  5
875
 10
997.819
 20
-423.447
 30
0.000000
  70
    32
  0
VERTEX
  8
É}ÿg
  5
876
 10
997.847
 20
-423.469
 30
0.000000
  70
    32
  0
VERTEX
  8
É}ÿg
  5
877
 10
997.876
 20
-423.491
 30
0.000000
  70
    32
  0
VERTEX
  8
É}ÿg
  5
878
 10
997.904
 20
-423.513
 30
0.000000
  70
    32
  0
VERTEX
  8
É}ÿg
  5
879
 10
997.933
 20
-423.535
 30
0.000000
  70
    32
  0
VERTEX
  8
É}ÿg
  5
87A
 10
997.962
 20
-423.557
 30
0.000000
  70
    32
  0
VERTEX
  8
É}ÿg
  5
87B
 10
997.990
 20
-423.578
 30
0.000000
  70
    32
  0
VERTEX
  8
É}ÿg
  5
87C
 10
998.019
 20
-423.600
 30
0.000000
  70
    32
  0
VERTEX
  8
É}ÿg
  5
87D
 10
998.048
 20
-423.622
 30
0.000000
  70
    32
  0
VERTEX
  8
É}ÿg
  5
87E
 10
998.076
 20
-423.644
 30
0.000000
  70
    32
  0
VERTEX
  8
É}ÿg
  5
87F
 10
998.105
 20
-423.665
 30
0.000000
  70
    32
  0
VERTEX
  8
É}ÿg
  5
880
 10
998.134
 20
-423.687
 30
0.000000
  70
    32
  0
VERTEX
  8
É}ÿg
  5
881
 10
998.163
 20
-423.708
 30
0.000000
  70
    32
  0
VERTEX
  8
É}ÿg
  5
882
 10
998.192
 20
-423.730
 30
0.000000
  70
    32
  0
VERTEX
  8
É}ÿg
  5
883
 10
998.221
 20
-423.751
 30
0.000000
  70
    32
  0
VERTEX
  8
É}ÿg
  5
884
 10
998.250
 20
-423.773
 30
0.000000
  70
    32
  0
VERTEX
  8
É}ÿg
  5
885
 10
998.279
 20
-423.794
 30
0.000000
  70
    32
  0
VERTEX
  8
É}ÿg
  5
886
 10
998.308
 20
-423.815
 30
0.000000
  70
    32
  0
VERTEX
  8
É}ÿg
  5
887
 10
998.337
 20
-423.836
 30
0.000000
  70
    32
  0
VERTEX
  8
É}ÿg
  5
888
 10
998.366
 20
-423.857
 30
0.000000
  70
    32
  0
VERTEX
  8
É}ÿg
  5
889
 10
998.395
 20
-423.878
 30
0.000000
  70
    32
  0
VERTEX
  8
É}ÿg
  5
88A
 10
998.424
 20
-423.899
 30
0.000000
  70
    32
  0
VERTEX
  8
É}ÿg
  5
88B
 10
998.453
 20
-423.920
 30
0.000000
  70
    32
  0
VERTEX
  8
É}ÿg
  5
88C
 10
998.483
 20
-423.941
 30
0.000000
  70
    32
  0
VERTEX
  8
É}ÿg
  5
88D
 10
998.512
 20
-423.962
 30
0.000000
  70
    32
  0
VERTEX
  8
É}ÿg
  5
88E
 10
998.541
 20
-423.982
 30
0.000000
  70
    32
  0
VERTEX
  8
É}ÿg
  5
88F
 10
998.570
 20
-424.003
 30
0.000000
  70
    32
  0
VERTEX
  8
É}ÿg
  5
890
 10
998.600
 20
-424.024
 30
0.000000
  70
    32
  0
VERTEX
  8
É}ÿg
  5
891
 10
998.629
 20
-424.044
 30
0.000000
  70
    32
  0
VERTEX
  8
É}ÿg
  5
892
 10
998.659
 20
-424.064
 30
0.000000
  70
    32
  0
VERTEX
  8
É}ÿg
  5
893
 10
998.688
 20
-424.085
 30
0.000000
  70
    32
  0
VERTEX
  8
É}ÿg
  5
894
 10
998.718
 20
-424.105
 30
0.000000
  70
    32
  0
VERTEX
  8
É}ÿg
  5
895
 10
998.747
 20
-424.125
 30
0.000000
  70
    32
  0
VERTEX
  8
É}ÿg
  5
896
 10
998.777
 20
-424.145
 30
0.000000
  70
    32
  0
VERTEX
  8
É}ÿg
  5
897
 10
998.806
 20
-424.166
 30
0.000000
  70
    32
  0
VERTEX
  8
É}ÿg
  5
898
 10
998.836
 20
-424.186
 30
0.000000
  70
    32
  0
VERTEX
  8
É}ÿg
  5
899
 10
998.866
 20
-424.205
 30
0.000000
  70
    32
  0
VERTEX
  8
É}ÿg
  5
89A
 10
998.895
 20
-424.225
 30
0.000000
  70
    32
  0
VERTEX
  8
É}ÿg
  5
89B
 10
998.925
 20
-424.245
 30
0.000000
  70
    32
  0
VERTEX
  8
É}ÿg
  5
89C
 10
998.955
 20
-424.265
 30
0.000000
  70
    32
  0
VERTEX
  8
É}ÿg
  5
89D
 10
998.985
 20
-424.284
 30
0.000000
  70
    32
  0
VERTEX
  8
É}ÿg
  5
89E
 10
999.015
 20
-424.304
 30
0.000000
  70
    32
  0
VERTEX
  8
É}ÿg
  5
89F
 10
999.045
 20
-424.324
 30
0.000000
  70
    32
  0
VERTEX
  8
É}ÿg
  5
8A0
 10
999.075
 20
-424.343
 30
0.000000
  70
    32
  0
VERTEX
  8
É}ÿg
  5
8A1
 10
999.105
 20
-424.362
 30
0.000000
  70
    32
  0
VERTEX
  8
É}ÿg
  5
8A2
 10
999.135
 20
-424.382
 30
0.000000
  70
    32
  0
VERTEX
  8
É}ÿg
  5
8A3
 10
999.165
 20
-424.401
 30
0.000000
  70
    32
  0
VERTEX
  8
É}ÿg
  5
8A4
 10
999.195
 20
-424.420
 30
0.000000
  70
    32
  0
VERTEX
  8
É}ÿg
  5
8A5
 10
999.225
 20
-424.439
 30
0.000000
  70
    32
  0
VERTEX
  8
É}ÿg
  5
8A6
 10
999.256
 20
-424.458
 30
0.000000
  70
    32
  0
VERTEX
  8
É}ÿg
  5
8A7
 10
999.286
 20
-424.477
 30
0.000000
  70
    32
  0
VERTEX
  8
É}ÿg
  5
8A8
 10
999.316
 20
-424.495
 30
0.000000
  70
    32
  0
VERTEX
  8
É}ÿg
  5
8A9
 10
999.347
 20
-424.514
 30
0.000000
  70
    32
  0
VERTEX
  8
É}ÿg
  5
8AA
 10
999.377
 20
-424.533
 30
0.000000
  70
    32
  0
VERTEX
  8
É}ÿg
  5
8AB
 10
999.407
 20
-424.551
 30
0.000000
  70
    32
  0
VERTEX
  8
É}ÿg
  5
8AC
 10
999.438
 20
-424.570
 30
0.000000
  70
    32
  0
VERTEX
  8
É}ÿg
  5
8AD
 10
999.468
 20
-424.588
 30
0.000000
  70
    32
  0
SEQEND
  8
É}ÿg
  5
8AE
  0
INSERT
  5
4DF
  8
0
  6
CONTINUOUS
  2
*U86
 10
0.0
 20
0.0
 30
0.0
  0
LINE
  5
4E0
  8
É}ÿg
 10
1015.3318794299
 20
-387.57449633089999
 30
0.0
 11
1015.3318794299
 21
-391.17449633090001
 31
0.0
  0
LINE
  5
4E1
  8
É}ÿg
 10
990.99397289479998
 20
-420.00948688049999
 30
0.0
 11
990.99397289479998
 21
-422.25948688049999
 31
0.0
  0
LINE
  5
4E2
  8
É}ÿg
 10
1015.3318794299
 20
-391.17449633090001
 30
0.0
 11
1022.5318794299
 21
-392.97449633090002
 31
0.0
  0
LINE
  5
4E3
  8
É}ÿg
 10
994.9848819857001
 20
-417.00948688049999
 30
0.0
 11
994.9848819857001
 21
-419.70948688049998
 31
0.0
  0
ARC
  5
4E4
  8
É}ÿg
 10
984.24397289479987
 20
-423.00948688049999
 30
0.0
 40
4.5
 50
270.0
 51
0.0
  0
LINE
  5
4E5
  8
É}ÿg
 10
919.50300316230005
 20
-381.12449633089989
 30
0.0
 11
919.50300316230005
 21
-430.62449633089989
 31
0.0
  0
INSERT
  5
4E6
  8
0
  6
CONTINUOUS
  2
*U87
 10
0.0
 20
0.0
 30
0.0
  0
INSERT
  5
4E7
  8
0
  6
CONTINUOUS
  2
*U88
 10
0.0
 20
0.0
 30
0.0
  0
INSERT
  5
4E8
  8
0
  6
CONTINUOUS
  2
*U89
 10
0.0
 20
0.0
 30
0.0
  0
INSERT
  5
4E9
  8
0
  6
CONTINUOUS
  2
*U90
 10
0.0
 20
0.0
 30
0.0
  0
LINE
  5
4EA
  8
É}ÿg
 10
975.75300316230005
 20
-397.6244963309
 30
0.0
 11
975.75300316230005
 21
-414.12449633089989
 31
0.0
  0
LINE
  5
4EB
  8
É}ÿg
 10
919.50300316230005
 20
-414.12449633089989
 30
0.0
 11
1137.0030031623
 21
-414.12449633089989
 31
0.0
  0
LINE
  5
4EC
  8
É}ÿg
 10
923.25300316229993
 20
-405.87449633089989
 30
0.0
 11
972.00300316229982
 21
-405.87449633089989
 31
0.0
  0
LINE
  5
4ED
  8
É}ÿg
 10
979.50300316229993
 20
-405.87449633089989
 30
0.0
 11
1028.2530031623
 21
-405.87449633089989
 31
0.0
  0
INSERT
  5
4EE
  8
0
  6
CONTINUOUS
  2
*U91
 10
0.0
 20
0.0
 30
0.0
  0
INSERT
  5
4EF
  8
0
  6
CONTINUOUS
  2
*U92
 10
0.0
 20
0.0
 30
0.0
  0
LINE
  5
4F0
  8
É}ÿg
 10
933.00300316230005
 20
-373.62449633089989
 30
0.0
 11
933.00300316230005
 21
-366.1244963309
 31
0.0
  0
LINE
  5
4F1
  8
É}ÿg
 10
919.50300316230005
 20
-373.62449633089989
 30
0.0
 11
919.50300316230005
 21
-366.1244963309
 31
0.0
  0
LINE
  5
4F2
  8
É}ÿg
 10
1090.5030031623
 20
-373.62449633089989
 30
0.0
 11
1090.5030031623
 21
-366.1244963309
 31
0.0
  0
LINE
  5
4F3
  8
É}ÿg
 10
1077.0030031623
 20
-373.62449633089989
 30
0.0
 11
1077.0030031623
 21
-366.1244963309
 31
0.0
  0
LINE
  5
4F4
  8
É}ÿg
 10
1137.0030031623
 20
-366.1244963309
 30
0.0
 11
919.50300316230005
 21
-366.1244963309
 31
0.0
  0
LINE
  5
4F5
  8
É}ÿg
 10
919.50300316230005
 20
-373.62449633089989
 30
0.0
 11
1137.0030031623
 21
-373.62449633089989
 31
0.0
  0
LINE
  5
4F6
  8
É}ÿg
 10
1008.0030031623
 20
-373.62449633089989
 30
0.0
 11
1008.0030031623
 21
-366.1244963309
 31
0.0
  0
INSERT
  5
4F7
  8
0
  6
CONTINUOUS
  2
*U93
 10
0.0
 20
0.0
 30
0.0
  0
INSERT
  5
4F8
  8
0
  6
CONTINUOUS
  2
*U94
 10
0.0
 20
0.0
 30
0.0
  0
CIRCLE
  5
4F9
  8
É}ÿg
 10
1007.1030031623
 20
-389.3744963309
 30
0.0
 40
1.8
  0
LINE
  5
4FA
  8
É}ÿg
 10
1015.3318794299
 20
-391.17449633090001
 30
0.0
 11
1022.5318794299
 21
-392.97449633090002
 31
0.0
  0
LINE
  5
4FB
  8
É}ÿg
 10
1015.3318794299
 20
-387.57449633089999
 30
0.0
 11
1015.3318794299
 21
-391.17449633090001
 31
0.0
  0
LINE
  5
4FC
  8
É}ÿg
 10
1022.5318794299
 20
-385.77449633089998
 30
0.0
 11
1022.5318794299
 21
-392.97449633090002
 31
0.0
  0
LINE
  5
4FD
  8
É}ÿg
  6
BORDER
 10
1007.1030031623
 20
-383.97449633090002
 30
0.0
 11
1007.1030031623
 21
-394.77449633089998
 31
0.0
  0
LINE
  5
4FE
  8
É}ÿg
  6
BORDER
 10
1007.1030031623
 20
-383.97449633090002
 30
0.0
 11
1007.1030031623
 21
-394.77449633089998
 31
0.0
  0
LINE
  5
4FF
  8
É}ÿg
 10
1022.5318794299
 20
-385.77449633089998
 30
0.0
 11
1022.5318794299
 21
-392.97449633090002
 31
0.0
  0
LINE
  5
500
  8
É}ÿg
 10
1015.3318794299
 20
-387.57449633089999
 30
0.0
 11
1015.3318794299
 21
-391.17449633090001
 31
0.0
  0
LINE
  5
501
  8
É}ÿg
 10
1015.3318794299
 20
-391.17449633090001
 30
0.0
 11
1022.5318794299
 21
-392.97449633090002
 31
0.0
  0
LINE
  5
502
  8
É}ÿg
 10
1015.3318794299
 20
-387.57449633089999
 30
0.0
 11
1022.5318794299
 21
-385.77449633089998
 31
0.0
  0
CIRCLE
  5
503
  8
É}ÿg
 10
1007.1030031623
 20
-389.3744963309
 30
0.0
 40
3.6000000000000001
  0
CIRCLE
  5
504
  8
É}ÿg
 10
1007.1030031623
 20
-389.3744963309
 30
0.0
 40
1.8
  0
CIRCLE
  5
505
  8
É}ÿg
 10
1007.1030031623
 20
-389.3744963309
 30
0.0
 40
3.6000000000000001
  0
LINE
  5
506
  8
É}ÿg
 10
1015.3318794299
 20
-387.57449633089999
 30
0.0
 11
1022.5318794299
 21
-385.77449633089998
 31
0.0
  0
ENDBLK
  5
507
  8
0
  0
BLOCK
  8
0
  2
BALLON3
 70
     0
 10
0.0
 20
0.0
 30
0.0
  3
BALLON3
  1

  0
INSERT
  5
50B
  8
0
  6
CONTINUOUS
  2
*U95
 10
0.0
 20
0.0
 30
0.0
  0
CIRCLE
  5
50C
  8
┌▓È_1
 10
794.82089513100004
 20
-99.330548202700015
 30
0.0
 40
6.0
  0
LINE
  5
50D
  8
Éíû@É³
 10
804.82089513100004
 20
-99.330548202700015
 30
0.0
 11
800.82089513100016
 21
-99.330548202700015
 31
0.0
  0
LINE
  5
50E
  8
Éíû@É³
 10
865.56020962729997
 20
-116.7873568924
 30
0.0
 11
804.82089513100004
 21
-99.330548202700015
 31
0.0
  0
SOLID
  5
50F
  8
Éíû@É³
 10
865.56020962729997
 20
-116.7873568924
 30
0.0
 11
859.46218084179986
 21
-116.2833281923
 31
0.0
 12
860.94696113079999
 22
-115.46148423299999
 32
0.0
 13
860.94696113079999
 23
-115.46148423299999
 33
0.0
  0
SOLID
  5
510
  8
Éíû@É³
 10
860.94696113079999
 20
-115.46148423299999
 30
0.0
 11
860.12511717149994
 21
-113.97670394399999
 31
0.0
 12
865.56020962729997
 22
-116.7873568924
 32
0.0
 13
865.56020962729997
 23
-116.7873568924
 33
0.0
  0
ENDBLK
  5
511
  8
0
  0
BLOCK
  8
0
  2
BALLON4
 70
     0
 10
0.0
 20
0.0
 30
0.0
  3
BALLON4
  1

  0
INSERT
  5
515
  8
0
  6
CONTINUOUS
  2
*U96
 10
0.0
 20
0.0
 30
0.0
  0
CIRCLE
  5
516
  8
┌▓È_1
 10
794.65839513100002
 20
-149.36946503729999
 30
0.0
 40
6.0
  0
LINE
  5
517
  8
Éíû@É³
 10
804.65839513099991
 20
-149.36946503729999
 30
0.0
 11
800.65839513100002
 21
-149.36946503729999
 31
0.0
  0
LINE
  5
518
  8
Éíû@É³
 10
892.91086908929992
 20
-189.61830878730001
 30
0.0
 11
804.65839513099991
 21
-149.36946503729999
 31
0.0
  0
SOLID
  5
519
  8
Éíû@É³
 10
892.91086908929992
 20
-189.61830878730001
 30
0.0
 11
886.95386110690004
 21
-188.2204332929
 31
0.0
 12
888.54361302509994
 22
-187.62655717889999
 32
0.0
 13
888.54361302509994
 23
-187.62655717889999
 33
0.0
  0
SOLID
  5
51A
  8
Éíû@É³
 10
888.54361302509994
 20
-187.62655717889999
 30
0.0
 11
887.94973691109999
 21
-186.03680526080001
 31
0.0
 12
892.91086908929992
 22
-189.61830878730001
 32
0.0
 13
892.91086908929992
 23
-189.61830878730001
 33
0.0
  0
ENDBLK
  5
51B
  8
0
  0
BLOCK
  8
0
  2
BALLON5
 70
     0
 10
0.0
 20
0.0
 30
0.0
  3
BALLON5
  1

  0
INSERT
  5
51F
  8
0
  6
CONTINUOUS
  2
*U97
 10
0.0
 20
0.0
 30
0.0
  0
CIRCLE
  5
520
  8
┌▓È_1
 10
793.99316406249989
 20
-31.0
 30
0.0
 40
6.0
  0
LINE
  5
521
  8
Éíû@É³
 10
803.99316406249989
 20
-31.0
 30
0.0
 11
799.9931640625
 21
-31.0
 31
0.0
  0
LINE
  5
522
  8
Éíû@É³
 10
892.91086908929992
 20
-51.618308787300002
 30
0.0
 11
803.99316406249989
 21
-31.0
 31
0.0
  0
SOLID
  5
523
  8
Éíû@É³
 10
892.91086908929992
 20
-51.618308787300002
 30
0.0
 11
886.79488371299988
 21
-51.431968034799993
 31
0.0
 12
888.23493276169995
 22
-50.534048919799993
 32
0.0
 13
888.23493276169995
 23
-50.534048919799993
 33
0.0
  0
SOLID
  5
524
  8
Éíû@É³
 10
888.23493276169995
 20
-50.534048919799993
 30
0.0
 11
887.33701364670003
 21
-49.093999871000001
 31
0.0
 12
892.91086908929992
 22
-51.618308787300002
 32
0.0
 13
892.91086908929992
 23
-51.618308787300002
 33
0.0
  0
ENDBLK
  5
525
  8
0
  0
BLOCK
  8
0
  2
*D29
 70
     1
 10
0.0
 20
0.0
 30
0.0
  3
*D29
  1

  0
TEXT
  5
528
  8
0
 62
     0
 10
853.07403965279991
 20
-219.33949456120001
 30
0.0
 40
5.3974999188999986
  1
70
  0
LINE
  5
529
  8
0
 62
     0
 10
891.24903960510005
 20
-251.9557537785
 30
0.0
 11
891.24903960510005
 21
-220.79199454690001
 31
0.0
  0
LINE
  5
52A
  8
0
 62
     0
 10
821.24903960509982
 20
-240.9557537785
 30
0.0
 11
821.24903960509982
 21
-220.79199454690001
 31
0.0
  0
LINE
  5
52B
  8
0
 62
     0
 10
891.24903960510005
 20
-221.29199454690001
 30
0.0
 11
862.59903950979981
 21
-221.29199454690001
 31
0.0
  0
LINE
  5
52C
  8
0
 62
     0
 10
891.24903960510005
 20
-221.29199454690001
 30
0.0
 11
849.8990397005
 21
-221.29199454690001
 31
0.0
  0
LINE
  5
52D
  8
0
 62
     0
 10
821.24903960509982
 20
-221.29199454690001
 30
0.0
 11
862.59903950979981
 21
-221.29199454690001
 31
0.0
  0
LINE
  5
52E
  8
0
 62
     0
 10
821.24903960509982
 20
-221.29199454690001
 30
0.0
 11
849.8990397005
 21
-221.29199454690001
 31
0.0
  0
LINE
  5
52F
  8
0
 62
     0
 10
821.24903960509982
 20
-221.29199454690001
 30
0.0
 11
824.24903960510005
 21
-221.29199454690001
 31
0.0
  0
SOLID
  5
530
  8
0
 62
     0
 10
821.24903960509982
 20
-221.29199454690001
 30
0.0
 11
825.74903960509982
 21
-220.16699454690001
 31
0.0
 12
825.74903960509982
 22
-222.41699454690001
 32
0.0
 13
824.62403960510005
 23
-221.29199454690001
 33
0.0
  0
LINE
  5
531
  8
0
 62
     0
 10
891.24903960510005
 20
-221.29199454690001
 30
0.0
 11
888.24903960509982
 21
-221.29199454690001
 31
0.0
  0
SOLID
  5
532
  8
0
 62
     0
 10
891.24903960510005
 20
-221.29199454690001
 30
0.0
 11
886.74903960510005
 21
-222.41699454690001
 31
0.0
 12
886.74903960510005
 22
-220.16699454690001
 32
0.0
 13
887.87403960509982
 23
-221.29199454690001
 33
0.0
  0
ENDBLK
  5
533
  8
0
  0
BLOCK
  8
0
  2
*D30
 70
     1
 10
0.0
 20
0.0
 30
0.0
  3
*D30
  1

  0
TEXT
  5
537
  8
0
 62
     0
 10
824.30863842129997
 20
-130.5558069395
 30
0.0
 40
5.3974999188999986
  1
üá147
 50
90.0
  0
LINE
  5
538
  8
0
 62
     0
 10
884.41086908930004
 20
-51.618308787300002
 30
0.0
 11
825.76113840699986
 21
-51.618308787300002
 31
0.0
  0
LINE
  5
539
  8
0
 62
     0
 10
884.41086908930004
 20
-198.61830878730001
 30
0.0
 11
825.76113840699986
 21
-198.61830878730001
 31
0.0
  0
LINE
  5
53A
  8
0
 62
     0
 10
826.26113840699998
 20
-51.618308787300002
 30
0.0
 11
826.26113840699998
 21
-111.50580722559999
 31
0.0
  0
LINE
  5
53B
  8
0
 62
     0
 10
826.26113840699998
 20
-51.618308787300002
 30
0.0
 11
826.26113840699998
 21
-133.7308068918
 31
0.0
  0
LINE
  5
53C
  8
0
 62
     0
 10
826.26113840699998
 20
-198.61830878730001
 30
0.0
 11
826.26113840699998
 21
-111.50580722559999
 31
0.0
  0
LINE
  5
53D
  8
0
 62
     0
 10
826.26113840699998
 20
-198.61830878730001
 30
0.0
 11
826.26113840699998
 21
-133.7308068918
 31
0.0
  0
LINE
  5
53E
  8
0
 62
     0
 10
826.26113840699998
 20
-198.61830878730001
 30
0.0
 11
826.26113840699998
 21
-195.61830878730001
 31
0.0
  0
SOLID
  5
53F
  8
0
 62
     0
 10
826.26113840699998
 20
-198.61830878730001
 30
0.0
 11
825.13613840699986
 21
-194.11830878730001
 31
0.0
 12
827.38613840699986
 22
-194.11830878730001
 32
0.0
 13
826.26113840699998
 23
-195.24330878730001
 33
0.0
  0
LINE
  5
540
  8
0
 62
     0
 10
826.26113840699998
 20
-51.618308787300002
 30
0.0
 11
826.26113840699998
 21
-54.618308787299988
 31
0.0
  0
SOLID
  5
541
  8
0
 62
     0
 10
826.26113840699998
 20
-51.618308787300002
 30
0.0
 11
827.38613840699986
 21
-56.118308787300002
 31
0.0
 12
825.13613840699986
 22
-56.118308787300002
 32
0.0
 13
826.26113840699998
 23
-54.993308787299988
 33
0.0
  0
ENDBLK
  5
542
  8
0
  0
BLOCK
  8
0
  2
*D31
 70
     1
 10
0.0
 20
0.0
 30
0.0
  3
*D31
  1

  0
TEXT
  5
551
  8
0
 62
     0
 10
646.29764161369997
 20
-24.690675048100001
 30
0.0
 40
5.3974999188999986
  1
167
  0
LINE
  5
552
  8
0
 62
     0
 10
734.56014154210004
 20
-52.618423370599999
 30
0.0
 11
734.56014154210004
 21
-26.393175033799999
 31
0.0
  0
LINE
  5
553
  8
0
 62
     0
 10
567.56014154210004
 20
-52.618423370599999
 30
0.0
 11
567.56014154210004
 21
-26.393175033799999
 31
0.0
  0
LINE
  5
554
  8
0
 62
     0
 10
734.56014154210004
 20
-27.143175033799999
 30
0.0
 11
658.99764142289985
 21
-27.143175033799999
 31
0.0
  0
LINE
  5
555
  8
0
 62
     0
 10
734.56014154210004
 20
-27.143175033799999
 30
0.0
 11
643.12264166139994
 21
-27.143175033799999
 31
0.0
  0
LINE
  5
556
  8
0
 62
     0
 10
567.56014154210004
 20
-27.143175033799999
 30
0.0
 11
658.99764142289985
 21
-27.143175033799999
 31
0.0
  0
LINE
  5
557
  8
0
 62
     0
 10
567.56014154210004
 20
-27.143175033799999
 30
0.0
 11
643.12264166139994
 21
-27.143175033799999
 31
0.0
  0
LINE
  5
558
  8
0
 62
     0
 10
567.56014154210004
 20
-27.143175033799999
 30
0.0
 11
572.06014154210004
 21
-27.143175033799999
 31
0.0
  0
SOLID
  5
559
  8
0
 62
     0
 10
567.56014154210004
 20
-27.143175033799999
 30
0.0
 11
572.06014154210004
 21
-26.018175033799999
 31
0.0
 12
572.06014154210004
 22
-28.268175033799999
 32
0.0
 13
570.93514154210004
 23
-27.143175033799999
 33
0.0
  0
LINE
  5
55A
  8
0
 62
     0
 10
734.56014154210004
 20
-27.143175033799999
 30
0.0
 11
730.06014154210004
 21
-27.143175033799999
 31
0.0
  0
SOLID
  5
55B
  8
0
 62
     0
 10
734.56014154210004
 20
-27.143175033799999
 30
0.0
 11
730.06014154210004
 21
-28.268175033799999
 31
0.0
 12
730.06014154210004
 22
-26.018175033799999
 32
0.0
 13
731.18514154210004
 23
-27.143175033799999
 33
0.0
  0
ENDBLK
  5
55C
  8
0
  0
BLOCK
  8
0
  2
*U32
 70
     1
 10
0.0
 20
0.0
 30
0.0
  3
*U32
  1

  0
TEXT
  5
580
  8
ë³Æ¨
  6
CONTINUOUS
 10
1040.570211718677
 20
-23.541371270100001
 30
0.0
 40
4.0481249392
  1
**********************
  0
ENDBLK
  5
582
  8
0
  0
BLOCK
  8
0
  2
*U33
 70
     1
 10
0.0
 20
0.0
 30
0.0
  3
*U33
  1

  0
TEXT
  5
584
  8
ë³Æ¨
  6
CONTINUOUS
 10
1000.518308915802
 20
-24.45170967100001
 30
0.0
 40
4.0481249514000002
  1
1
  0
ENDBLK
  5
586
  8
0
  0
BLOCK
  8
0
  2
*U34
 70
     1
 10
0.0
 20
0.0
 30
0.0
  3
*U34
  1

  0
TEXT
  5
588
  8
ë³Æ¨
  6
CONTINUOUS
 10
1008.0949402066331
 20
-23.545121270100001
 30
0.0
 40
4.0481249392
  1
H**.**.**
  0
ENDBLK
  5
58A
  8
0
  0
BLOCK
  8
0
  2
*U35
 70
     1
 10
0.0
 20
0.0
 30
0.0
  3
*U35
  1

  0
TEXT
  5
58C
  8
ë³Æ¨
  6
CONTINUOUS
 10
1109.9206079265559
 20
-23.545121270100001
 30
0.0
 40
4.0481249392
  1
üûüû
  0
ENDBLK
  5
58E
  8
0
  0
BLOCK
  8
0
  2
*U36
 70
     1
 10
0.0
 20
0.0
 30
0.0
  3
*U36
  1

  0
TEXT
  5
590
  8
┌▓È_1
  6
CONTINUOUS
 10
975.76718601420919
 20
-55.577121411097458
 30
0.0
 40
4.4979165315999996
  1
òòÉà
  0
ENDBLK
  5
592
  8
0
  0
BLOCK
  8
0
  2
*U37
 70
     1
 10
0.0
 20
0.0
 30
0.0
  3
*U37
  1

  0
TEXT
  5
594
  8
É}ÿg
  6
CONTINUOUS
 10
1011.211659981803
 20
-327.00039762584618
 30
0.0
 40
4.4979165315999996
  1
é`éaérÄ¸Äëüiæ¤û‗òiÄÝüj
  0
ENDBLK
  5
596
  8
0
  0
BLOCK
  8
0
  2
*U38
 70
     1
 10
0.0
 20
0.0
 30
0.0
  3
*U38
  1

  0
TEXT
  5
598
  8
É}ÿg
  6
CONTINUOUS
 10
1082.5771518862721
 20
-326.72641286250001
 30
0.0
 40
4.4979165315999996
  1
1
  0
ENDBLK
  5
59A
  8
0
  0
BLOCK
  8
0
  2
*U39
 70
     1
 10
0.0
 20
0.0
 30
0.0
  3
*U39
  1

  0
TEXT
  5
59C
  8
É}ÿg
  6
CONTINUOUS
 10
1077.7762768352541
 20
-425.49682983989987
 30
0.0
 40
6.2970835090000001
  1
SHM00001
  0
ENDBLK
  5
59E
  8
0
  0
BLOCK
  8
0
  2
*U40
 70
     1
 10
0.0
 20
0.0
 30
0.0
  3
*U40
  1

  0
TEXT
  5
5A0
  8
É}ÿg
  6
CONTINUOUS
 10
1073.8126303625841
 20
-392.9443383126208
 30
0.0
 40
6.2970835090000001
  1
âüâWâXâïü[
  0
ENDBLK
  5
5A2
  8
0
  0
BLOCK
  8
0
  2
*U41
 70
     1
 10
0.0
 20
0.0
 30
0.0
  3
*U41
  1

  0
TEXT
  5
5A4
  8
É}ÿg
  6
CONTINUOUS
 10
1077.7762768352541
 20
-408.99682983989987
 30
0.0
 40
6.2970835090000001
  1
MT-56151
  0
ENDBLK
  5
5A6
  8
0
  0
BLOCK
  8
0
  2
*U42
 70
     1
 10
0.0
 20
0.0
 30
0.0
  3
*U42
  1

  0
TEXT
  5
5A8
  8
É}ÿg
  6
CONTINUOUS
 10
1011.211659981803
 20
-364.50039762584618
 30
0.0
 40
4.4979165315999996
  1
é`éaérÄ¸Äëüiæ¤û‗òiÄÝüj
  0
ENDBLK
  5
5AA
  8
0
  0
BLOCK
  8
0
  2
*U43
 70
     1
 10
0.0
 20
0.0
 30
0.0
  3
*U43
  1

  0
TEXT
  5
5AC
  8
É}ÿg
  6
CONTINUOUS
 10
1031.5093645330339
 20
-356.93190143500959
 30
0.0
 40
4.4979165315999996
  1
éoéoÄ¸Äë
  0
ENDBLK
  5
5AE
  8
0
  0
BLOCK
  8
0
  2
*U44
 70
     1
 10
0.0
 20
0.0
 30
0.0
  3
*U44
  1

  0
TEXT
  5
5B0
  8
É}ÿg
  6
CONTINUOUS
 10
1012.364679194219
 20
-349.22641286250001
 30
0.0
 40
4.4979165315999996
  1
érétéréRéOéS  éQ.éOéö
  0
ENDBLK
  5
5B2
  8
0
  0
BLOCK
  8
0
  2
*U45
 70
     1
 10
0.0
 20
0.0
 30
0.0
  3
*U45
  1

  0
TEXT
  5
5B4
  8
É}ÿg
  6
CONTINUOUS
 10
1012.364679194219
 20
-341.72641286250001
 30
0.0
 40
4.4979165315999996
  1
érétéréRéOéS  éQ.éOéö
  0
ENDBLK
  5
5B6
  8
0
  0
BLOCK
  8
0
  2
*U46
 70
     1
 10
0.0
 20
0.0
 30
0.0
  3
*U46
  1

  0
TEXT
  5
5B8
  8
É}ÿg
  6
CONTINUOUS
 10
1082.5771518862721
 20
-341.72641286250001
 30
0.0
 40
4.4979165315999996
  1
1
  0
ENDBLK
  5
5BA
  8
0
  0
BLOCK
  8
0
  2
*U47
 70
     1
 10
0.0
 20
0.0
 30
0.0
  3
*U47
  1

  0
TEXT
  5
5BC
  8
É}ÿg
  6
CONTINUOUS
 10
1082.5771518862721
 20
-349.22641286250001
 30
0.0
 40
4.4979165315999996
  1
1
  0
ENDBLK
  5
5BE
  8
0
  0
BLOCK
  8
0
  2
*U48
 70
     1
 10
0.0
 20
0.0
 30
0.0
  3
*U48
  1

  0
TEXT
  5
5C0
  8
É}ÿg
  6
CONTINUOUS
 10
1082.5771518862721
 20
-356.72641286250001
 30
0.0
 40
4.4979165315999996
  1
1
  0
ENDBLK
  5
5C2
  8
0
  0
BLOCK
  8
0
  2
*U49
 70
     1
 10
0.0
 20
0.0
 30
0.0
  3
*U49
  1

  0
TEXT
  5
5C4
  8
É}ÿg
  6
CONTINUOUS
 10
1082.5771518862721
 20
-364.22641286250001
 30
0.0
 40
4.4979165315999996
  1
1
  0
ENDBLK
  5
5C6
  8
0
  0
BLOCK
  8
0
  2
*U50
 70
     1
 10
0.0
 20
0.0
 30
0.0
  3
*U50
  1

  0
TEXT
  5
5C8
  8
É}ÿg
  6
CONTINUOUS
 10
966.87133041716095
 20
-395.39761906259997
 30
0.0
 40
4.4979165315999996
  1
1üF1.5
  0
ENDBLK
  5
5CA
  8
0
  0
BLOCK
  8
0
  2
*U51
 70
     1
 10
0.0
 20
0.0
 30
0.0
  3
*U51
  1

  0
TEXT
  5
5CC
  8
É}ÿg
  6
CONTINUOUS
 10
924.80316712292631
 20
-341.72641286250001
 30
0.0
 40
4.4979165315999996
  1
4
  0
ENDBLK
  5
5CE
  8
0
  0
BLOCK
  8
0
  2
*U52
 70
     1
 10
0.0
 20
0.0
 30
0.0
  3
*U52
  1

  0
TEXT
  5
5D0
  8
É}ÿg
  6
CONTINUOUS
 10
924.83741521834463
 20
-349.22641286250001
 30
0.0
 40
4.4979165315999996
  1
3
  0
ENDBLK
  5
5D2
  8
0
  0
BLOCK
  8
0
  2
*U53
 70
     1
 10
0.0
 20
0.0
 30
0.0
  3
*U53
  1

  0
TEXT
  5
5D4
  8
É}ÿg
  6
CONTINUOUS
 10
925.07715188627253
 20
-364.22641286250001
 30
0.0
 40
4.4979165315999996
  1
1
  0
ENDBLK
  5
5D6
  8
0
  0
BLOCK
  8
0
  2
*U54
 70
     1
 10
0.0
 20
0.0
 30
0.0
  3
*U54
  1

  0
TEXT
  5
5D8
  8
É}ÿg
  6
CONTINUOUS
 10
924.81458315473242
 20
-356.72641286250001
 30
0.0
 40
4.4979165315999996
  1
2
  0
ENDBLK
  5
5DA
  8
0
  0
BLOCK
  8
0
  2
*U55
 70
     1
 10
0.0
 20
0.0
 30
0.0
  3
*U55
  1

  0
TEXT
  5
5DC
  8
É}ÿg
  6
CONTINUOUS
 10
948.16422376058415
 20
-412.16085281034611
 30
0.0
 40
4.4979165315999996
  1
è¦ û{
  0
ENDBLK
  5
5DE
  8
0
  0
BLOCK
  8
0
  2
*U56
 70
     1
 10
0.0
 20
0.0
 30
0.0
  3
*U56
  1

  0
TEXT
  5
5E0
  8
É}ÿg
  6
CONTINUOUS
 10
946.81713200746537
 20
-403.8880207467339
 30
0.0
 40
4.4979165315999996
  1
öÆÉ{ëÛ
  0
ENDBLK
  5
5E2
  8
0
  0
BLOCK
  8
0
  2
*U57
 70
     1
 10
0.0
 20
0.0
 30
0.0
  3
*U57
  1

  0
TEXT
  5
5E4
  8
É}ÿg
  6
CONTINUOUS
 10
930.9124947109832
 20
-395.39761906259997
 30
0.0
 40
4.4979165315999996
  1
H16.4
  0
ENDBLK
  5
5E6
  8
0
  0
BLOCK
  8
0
  2
*U58
 70
     1
 10
0.0
 20
0.0
 30
0.0
  3
*U58
  1

  0
TEXT
  5
5E8
  8
É}ÿg
  6
CONTINUOUS
 10
924.79175109112043
 20
-326.72641286250001
 30
0.0
 40
4.4979165315999996
  1
6
  0
ENDBLK
  5
5EA
  8
0
  0
BLOCK
  8
0
  2
*U59
 70
     1
 10
0.0
 20
0.0
 30
0.0
  3
*U59
  1

  0
TEXT
  5
5EC
  8
┌▓È_1
  6
CONTINUOUS
 10
920.08765196502429
 20
-293.18507170872442
 30
0.0
 40
4.4979165315999996
  1
éuétéTéOüiâ│56üj
 50
90.0
  0
ENDBLK
  5
5EE
  8
0
  0
BLOCK
  8
0
  2
*U60
 70
     1
 10
0.0
 20
0.0
 30
0.0
  3
*U60
  1

  0
TEXT
  5
5F0
  8
┌▓È_1
  6
CONTINUOUS
 10
793.01421543991762
 20
-201.85388097180001
 30
0.0
 40
5.3974999188999986
  1
2
  0
ENDBLK
  5
5F2
  8
0
  0
BLOCK
  8
0
  2
*U61
 70
     1
 10
0.0
 20
0.0
 30
0.0
  3
*U61
  1

  0
TEXT
  5
5F4
  8
┌▓È_1
  6
CONTINUOUS
 10
792.64154857034202
 20
-251.9358496374
 30
0.0
 40
5.3974999188999986
  1
6
  0
ENDBLK
  5
5F6
  8
0
  0
BLOCK
  8
0
  2
*U62
 70
     1
 10
0.0
 20
0.0
 30
0.0
  3
*U62
  1

  0
TEXT
  5
5F8
  8
┌▓È_1
  6
CONTINUOUS
 10
792.58486885545949
 20
-272.54313935340002
 30
0.0
 40
5.3974999188999986
  1
1
  0
ENDBLK
  5
5FA
  8
0
  0
BLOCK
  8
0
  2
*U63
 70
     1
 10
0.0
 20
0.0
 30
0.0
  3
*U63
  1

  0
TEXT
  5
5FC
  8
┌▓È_1
  6
CONTINUOUS
 10
1086.8521487685221
 20
-137.03514220729241
 30
0.0
 40
4.4979165315999996
  1
éuétéUéTüiâ│71)
 50
90.0
  0
ENDBLK
  5
5FE
  8
0
  0
BLOCK
  8
0
  2
*U64
 70
     1
 10
0.0
 20
0.0
 30
0.0
  3
*U64
  1

  0
TEXT
  5
600
  8
É}ÿg
  6
CONTINUOUS
 10
924.83741521834463
 20
-334.22641286250001
 30
0.0
 40
4.4979165315999996
  1
5
  0
ENDBLK
  5
602
  8
0
  0
BLOCK
  8
0
  2
*U65
 70
     1
 10
0.0
 20
0.0
 30
0.0
  3
*U65
  1

  0
TEXT
  5
604
  8
É}ÿg
  6
CONTINUOUS
 10
1012.364679194219
 20
-334.22641286250001
 30
0.0
 40
4.4979165315999996
  1
érétéréRéOéS  éQ.éOéö
  0
ENDBLK
  5
606
  8
0
  0
BLOCK
  8
0
  2
*U66
 70
     1
 10
0.0
 20
0.0
 30
0.0
  3
*U66
  1

  0
TEXT
  5
608
  8
É}ÿg
  6
CONTINUOUS
 10
1082.314583154732
 20
-334.22641286250001
 30
0.0
 40
4.4979165315999996
  1
2
  0
ENDBLK
  5
60A
  8
0
  0
BLOCK
  8
0
  2
*U67
 70
     1
 10
0.0
 20
0.0
 30
0.0
  3
*U67
  1

  0
TEXT
  5
60C
  8
É}ÿg
  6
CONTINUOUS
 10
956.29004356371604
 20
-364.47756556223402
 30
0.0
 40
4.4979165315999996
  1
âxü[âXû{æ╠
  0
ENDBLK
  5
60E
  8
0
  0
BLOCK
  8
0
  2
*U68
 70
     1
 10
0.0
 20
0.0
 30
0.0
  3
*U68
  1

  0
TEXT
  5
610
  8
É}ÿg
  6
CONTINUOUS
 10
967.77457156064406
 20
-356.93190143500959
 30
0.0
 40
4.4979165315999996
  1
èW
  0
ENDBLK
  5
612
  8
0
  0
BLOCK
  8
0
  2
*U69
 70
     1
 10
0.0
 20
0.0
 30
0.0
  3
*U69
  1

  0
TEXT
  5
614
  8
É}ÿg
  6
CONTINUOUS
 10
959.05272326079034
 20
-349.45473349862181
 30
0.0
 40
4.4979165315999996
  1
èO    ÿg
  0
ENDBLK
  5
616
  8
0
  0
BLOCK
  8
0
  2
*U70
 70
     1
 10
0.0
 20
0.0
 30
0.0
  3
*U70
  1

  0
TEXT
  5
618
  8
É}ÿg
  6
CONTINUOUS
 10
959.2353797696876
 20
-341.95473349862181
 30
0.0
 40
4.4979165315999996
  1
ôÓ    ÿg
  0
ENDBLK
  5
61A
  8
0
  0
BLOCK
  8
0
  2
*U71
 70
     1
 10
0.0
 20
0.0
 30
0.0
  3
*U71
  1

  0
TEXT
  5
61C
  8
É}ÿg
  6
CONTINUOUS
 10
956.19871530926741
 20
-334.50039762584618
 30
0.0
 40
4.4979165315999996
  1
ë±ô]ÄµéÞÄÞ
  0
ENDBLK
  5
61E
  8
0
  0
BLOCK
  8
0
  2
*U72
 70
     1
 10
0.0
 20
0.0
 30
0.0
  3
*U72
  1

  0
TEXT
  5
620
  8
É}ÿg
  6
CONTINUOUS
 10
948.18466098139118
 20
-327.20588619835581
 30
0.0
 40
4.4979165315999996
  1
éuét50âAâ_âvâ^ü|
  0
ENDBLK
  5
622
  8
0
  0
BLOCK
  8
0
  2
*U73
 70
     1
 10
0.0
 20
0.0
 30
0.0
  3
*U73
  1

  0
TEXT
  5
624
  8
É}ÿg
  6
CONTINUOUS
 10
1004.300063442523
 20
-412.1151886831218
 30
0.0
 40
4.4979165315999996
  1
û÷ î┤
  0
ENDBLK
  5
626
  8
0
  0
BLOCK
  8
0
  2
*U74
 70
     1
 10
0.0
 20
0.0
 30
0.0
  3
*U74
  1

  0
TEXT
  5
628
  8
É}ÿg
  6
CONTINUOUS
 10
1004.300063442523
 20
-403.8651886831218
 30
0.0
 40
4.4979165315999996
  1
û÷ î┤
  0
ENDBLK
  5
62A
  8
0
  0
BLOCK
  8
0
  2
*U75
 70
     1
 10
0.0
 20
0.0
 30
0.0
  3
*U75
  1

  0
TEXT
  5
62C
  8
É}ÿg
  6
CONTINUOUS
 10
1051.399459652476
 20
-16.250609845693909
 30
0.0
 40
4.0481249392
  1
ë³ü@Æ¨ü@ôÓü@ùe
  0
ENDBLK
  5
62E
  8
0
  0
BLOCK
  8
0
  2
*U76
 70
     1
 10
0.0
 20
0.0
 30
0.0
  3
*U76
  1

  0
TEXT
  5
630
  8
É}ÿg
  6
CONTINUOUS
 10
1012.286907148749
 20
-16.209512130575121
 30
0.0
 40
4.0481249392
  1
ë³Æ¨ô·
  0
ENDBLK
  5
632
  8
0
  0
BLOCK
  8
0
  2
*U77
 70
     1
 10
0.0
 20
0.0
 30
0.0
  3
*U77
  1

  0
TEXT
  5
634
  8
É}ÿg
  6
CONTINUOUS
 10
996.93770977391011
 20
-16.16841441545634
 30
0.0
 40
4.0481249392
  1
òøöÈ
  0
ENDBLK
  5
636
  8
0
  0
BLOCK
  8
0
  2
*U78
 70
     1
 10
0.0
 20
0.0
 30
0.0
  3
*U78
  1

  0
TEXT
  5
638
  8
É}ÿg
  6
CONTINUOUS
 10
927.66275856749985
 20
-426.16057107560641
 30
0.0
 40
8.0962498784000001
  1
èöÄ«ë´Äð
  0
ENDBLK
  5
63A
  8
0
  0
BLOCK
  8
0
  2
*U79
 70
     1
 10
0.0
 20
0.0
 30
0.0
  3
*U79
  1

  0
TEXT
  5
63C
  8
É}ÿg
  6
CONTINUOUS
 10
1121.9410235804439
 20
-16.271158703253299
 30
0.0
 40
4.0481249392
  1
îƒöFÄÊ
  0
ENDBLK
  5
63E
  8
0
  0
BLOCK
  8
0
  2
*U80
 70
     1
 10
0.0
 20
0.0
 30
0.0
  3
*U80
  1

  0
TEXT
  5
640
  8
É}ÿg
  6
CONTINUOUS
 10
1034.05063979239
 20
-419.659405244173
 30
0.0
 40
4.4979165315999996
  1
É} öÈ
  0
ENDBLK
  5
642
  8
0
  0
BLOCK
  8
0
  2
*U81
 70
     1
 10
0.0
 20
0.0
 30
0.0
  3
*U81
  1

  0
TEXT
  5
644
  8
É}ÿg
  6
CONTINUOUS
 10
1032.4866434349551
 20
-386.7507334986218
 30
0.0
 40
4.4979165315999996
  1
É╗òiû╝
  0
ENDBLK
  5
646
  8
0
  0
BLOCK
  8
0
  2
*U82
 70
     1
 10
0.0
 20
0.0
 30
0.0
  3
*U82
  1

  0
TEXT
  5
648
  8
É}ÿg
  6
CONTINUOUS
 10
1032.6122197848231
 20
-403.20506937139743
 30
0.0
 40
4.4979165315999996
  1
É}û╩û╝
  0
ENDBLK
  5
64A
  8
0
  0
BLOCK
  8
0
  2
*U83
 70
     1
 10
0.0
 20
0.0
 30
0.0
  3
*U83
  1

  0
TEXT
  5
64C
  8
É}ÿg
  6
CONTINUOUS
 10
927.30502866025824
 20
-387.22819630144869
 30
0.0
 40
4.4979165315999996
  1
ô·ü@ü@òt
  0
ENDBLK
  5
64E
  8
0
  0
BLOCK
  8
0
  2
*U84
 70
     1
 10
0.0
 20
0.0
 30
0.0
  3
*U84
  1

  0
TEXT
  5
650
  8
É}ÿg
  6
CONTINUOUS
 10
964.32555532440244
 20
-387.3651886831218
 30
0.0
 40
4.4979165315999996
  1
Ä┌ü@ü@ôx
  0
ENDBLK
  5
652
  8
0
  0
BLOCK
  8
0
  2
*U85
 70
     1
 10
0.0
 20
0.0
 30
0.0
  3
*U85
  1

  0
TEXT
  5
654
  8
É}ÿg
  6
CONTINUOUS
 10
1107.0026701531219
 20
-16.250609845693909
 30
0.0
 40
4.0481249392
  1
ë³Æ¨ÄÊ
  0
ENDBLK
  5
656
  8
0
  0
BLOCK
  8
0
  2
*U86
 70
     1
 10
0.0
 20
0.0
 30
0.0
  3
*U86
  1

  0
TEXT
  5
658
  8
É}ÿg
  6
CONTINUOUS
 10
920.77330789537609
 20
-371.86340524417312
 30
0.0
 40
4.4979165315999996
  1
òiöÈ
  0
ENDBLK
  5
65A
  8
0
  0
BLOCK
  8
0
  2
*U87
 70
     1
 10
0.0
 20
0.0
 30
0.0
  3
*U87
  1

  0
TEXT
  5
65C
  8
É}ÿg
  6
CONTINUOUS
 10
919.50300316230005
 20
-412.1151886831218
 30
0.0
 40
4.4979165315999996
  1
 É╗É}
  0
ENDBLK
  5
65E
  8
0
  0
BLOCK
  8
0
  2
*U88
 70
     1
 10
0.0
 20
0.0
 30
0.0
  3
*U88
  1

  0
TEXT
  5
660
  8
É}ÿg
  6
CONTINUOUS
 10
919.50300316230005
 20
-403.81952455589737
 30
0.0
 40
4.4979165315999996
  1
 É¦îv
  0
ENDBLK
  5
662
  8
0
  0
BLOCK
  8
0
  2
*U89
 70
     1
 10
0.0
 20
0.0
 30
0.0
  3
*U89
  1

  0
TEXT
  5
664
  8
É}ÿg
  6
CONTINUOUS
 10
975.75300316230005
 20
-412.13802074673401
 30
0.0
 40
4.4979165315999996
  1
 îƒÉ}
  0
ENDBLK
  5
666
  8
0
  0
BLOCK
  8
0
  2
*U90
 70
     1
 10
0.0
 20
0.0
 30
0.0
  3
*U90
  1

  0
TEXT
  5
668
  8
É}ÿg
  6
CONTINUOUS
 10
975.75300316230005
 20
-403.84235661950959
 30
0.0
 40
4.4979165315999996
  1
 Åãì©
  0
ENDBLK
  5
66A
  8
0
  0
BLOCK
  8
0
  2
*U91
 70
     1
 10
0.0
 20
0.0
 30
0.0
  3
*U91
  1

  0
TEXT
  5
66C
  8
É}ÿg
  6
CONTINUOUS
 10
1078.124899481897
 20
-371.95473349862181
 30
0.0
 40
4.4979165315999996
  1
Éöù╩
  0
ENDBLK
  5
66E
  8
0
  0
BLOCK
  8
0
  2
*U92
 70
     1
 10
0.0
 20
0.0
 30
0.0
  3
*U92
  1

  0
TEXT
  5
670
  8
É}ÿg
  6
CONTINUOUS
 10
1099.8939405497049
 20
-372.02322968945839
 30
0.0
 40
4.4979165315999996
  1
ö§ü@ü@ü@ìl
  0
ENDBLK
  5
672
  8
0
  0
BLOCK
  8
0
  2
*U93
 70
     1
 10
0.0
 20
0.0
 30
0.0
  3
*U93
  1

  0
TEXT
  5
674
  8
É}ÿg
  6
CONTINUOUS
 10
1028.1073870548189
 20
-371.88623730778528
 30
0.0
 40
4.4979165315999996
  1
ìÌü@ü@ü@Ä┐
  0
ENDBLK
  5
676
  8
0
  0
BLOCK
  8
0
  2
*U94
 70
     1
 10
0.0
 20
0.0
 30
0.0
  3
*U94
  1

  0
TEXT
  5
678
  8
É}ÿg
  6
CONTINUOUS
 10
956.27862753190993
 20
-371.90906937139738
 30
0.0
 40
4.4979165315999996
  1
òiü@ü@ü@û╝
  0
ENDBLK
  5
67A
  8
0
  0
BLOCK
  8
0
  2
*U95
 70
     1
 10
0.0
 20
0.0
 30
0.0
  3
*U95
  1

  0
TEXT
  5
67C
  8
┌▓È_1
  6
CONTINUOUS
 10
792.83471618351746
 20
-101.5530481693
 30
0.0
 40
5.3974999188999986
  1
5
  0
ENDBLK
  5
67E
  8
0
  0
BLOCK
  8
0
  2
*U96
 70
     1
 10
0.0
 20
0.0
 30
0.0
  3
*U96
  1

  0
TEXT
  5
680
  8
┌▓È_1
  6
CONTINUOUS
 10
792.79488663621964
 20
-151.59196500389999
 30
0.0
 40
5.3974999188999986
  1
4
  0
ENDBLK
  5
682
  8
0
  0
BLOCK
  8
0
  2
*U97
 70
     1
 10
0.0
 20
0.0
 30
0.0
  3
*U97
  1

  0
TEXT
  5
684
  8
┌▓È_1
  6
CONTINUOUS
 10
792.00698511501764
 20
-33.222499966599997
 30
0.0
 40
5.3974999188999986
  1
3
  0
ENDBLK
  5
686
  8
0
  0
ENDSEC
  0
SECTION
  2
ENTITIES
  0
INSERT
  5
2F
  8
0
  6
CONTINUOUS
  2
*U32
 10
0.0
 20
0.0
 30
0.0
  0
INSERT
  5
30
  8
0
  6
CONTINUOUS
  2
*U33
 10
0.0
 20
0.0
 30
0.0
  0
INSERT
  5
31
  8
0
  6
CONTINUOUS
  2
*U34
 10
0.0
 20
0.0
 30
0.0
  0
LINE
  5
33
  8
┌▓È_1
 10
1060.5725930427
 20
-84.395569083900014
 30
0.0
 11
1075.3939896417
 21
-82.312557634399994
 31
0.0
  0
LINE
  5
34
  8
┌▓È_1
 10
1023.4108690893
 20
-89.618308787299995
 30
0.0
 11
1060.5725930427
 21
-84.395569083900014
 31
0.0
  0
LINE
  5
35
  8
┌▓È_1
 62
     5
 10
1018.4108690893
 20
-79.618308787299995
 30
0.0
 11
1018.4108690893
 21
-84.618308787299995
 31
0.0
  0
LINE
  5
36
  8
┌▓È_1
 62
     5
 10
1020.4108690893
 20
-79.618308787299995
 30
0.0
 11
1020.4108690893
 21
-86.618308787299995
 31
0.0
  0
LINE
  5
37
  8
┌▓È_1
 62
     5
 10
1006.4108690893
 20
-76.118308787299995
 30
0.0
 11
1006.4108690893
 21
-78.118308787299995
 31
0.0
  0
LINE
  5
38
  8
┌▓È_1
 62
     5
 10
1050.4108690892999
 20
-91.618308787299995
 30
0.0
 11
1050.4108690892999
 21
-89.618308787299995
 31
0.0
  0
ARC
  5
39
  8
┌▓È_1
 62
     5
 10
1023.4108690893
 20
-86.618308787299995
 30
0.0
 40
3.0
 50
180.0
 51
270.0
  0
LINE
  5
3A
  8
┌▓È_1
 62
     5
 10
1023.4108690893
 20
-89.618308787299995
 30
0.0
 11
1050.4108690892999
 21
-89.618308787299995
 31
0.0
  0
ARC
  5
3B
  8
┌▓È_1
 62
     5
 10
1010.4108690893
 20
-79.618308787299995
 30
0.0
 40
8.0
 50
0.0
 51
90.0
  0
ARC
  5
3C
  8
┌▓È_1
 62
     5
 10
1010.4108690893
 20
-79.618308787299995
 30
0.0
 40
10.0
 50
0.0
 51
90.0
  0
LINE
  5
3D
  8
┌▓È_1
 62
     5
 10
1006.4108690893
 20
-78.118308787299995
 30
0.0
 11
1006.4108690893
 21
-89.618308787299995
 31
0.0
  0
ARC
  5
3E
  8
┌▓È_1
 62
     5
 10
1013.4108690893
 20
-84.618308787299995
 30
0.0
 40
5.0
 50
270.0
 51
0.0
  0
LINE
  5
3F
  8
┌▓È_1
 62
     5
 10
954.41086908929992
 20
-94.118308787299995
 30
0.0
 11
943.41086908929992
 21
-94.118308787299995
 31
0.0
  0
ARC
  5
40
  8
┌▓È_1
 62
     5
 10
954.41086908929992
 20
-92.118308787299995
 30
0.0
 40
2.0
 50
270.0
 51
0.0
  0
LINE
  5
41
  8
┌▓È_1
 62
     5
 10
956.41086908929981
 20
-89.618308787299995
 30
0.0
 11
956.41086908929981
 21
-91.618308787299995
 31
0.0
  0
LINE
  5
42
  8
┌▓È_1
 62
     5
 10
933.41086908930004
 20
-74.118308787299995
 30
0.0
 11
938.82508265169986
 21
-79.532522349600001
 31
0.0
  0
ARC
  5
43
  8
┌▓È_1
 62
     5
 10
937.41086908929992
 20
-80.946735911999994
 30
0.0
 40
2.0
 50
0.0
 51
45.0
  0
ARC
  5
44
  8
┌▓È_1
 62
     5
 10
942.41086908930004
 20
-79.118308787299995
 30
0.0
 40
1.0
 50
90.0
 51
180.0
  0
ARC
  5
45
  8
┌▓È_1
 62
     5
 10
942.41086908930004
 20
-79.118308787299995
 30
0.0
 40
3.0
 50
90.0
 51
180.0
  0
LINE
  5
46
  8
┌▓È_1
 62
     5
 10
971.41086908929992
 20
-80.118308787299995
 30
0.0
 11
971.41086908929992
 21
-87.118308787299995
 31
0.0
  0
ARC
  5
47
  8
┌▓È_1
 62
     5
 10
973.41086908929981
 20
-80.118308787299995
 30
0.0
 40
2.0
 50
90.0
 51
180.0
  0
ARC
  5
48
  8
┌▓È_1
 62
     5
 10
937.41086908929992
 20
-101.61830878729999
 30
0.0
 40
2.0
 50
270.0
 51
0.0
  0
LINE
  5
49
  8
┌▓È_1
 62
     5
 10
931.41086908929981
 20
-100.61830878729999
 30
0.0
 11
931.41086908929981
 21
-74.118308787299995
 31
0.0
  0
LINE
  5
4A
  8
┌▓È_1
 10
1060.5725930427
 20
-155.3955690839
 30
0.0
 11
1075.3939896417
 21
-153.31255763440001
 31
0.0
  0
LINE
  5
4B
  8
┌▓È_1
 10
1023.4108690893
 20
-160.61830878730001
 30
0.0
 11
1060.5725930427
 21
-155.3955690839
 31
0.0
  0
ARC
  5
4C
  8
┌▓È_1
 62
     5
 10
1023.4108690893
 20
-163.61830878730001
 30
0.0
 40
3.0
 50
90.0
 51
180.0
  0
LINE
  5
4D
  8
┌▓È_1
 62
     5
 10
1006.4108690893
 20
-174.11830878730001
 30
0.0
 11
1006.4108690893
 21
-172.11830878730001
 31
0.0
  0
LINE
  5
4E
  8
┌▓È_1
 62
     5
 10
1018.4108690893
 20
-170.61830878730001
 30
0.0
 11
1018.4108690893
 21
-165.61830878730001
 31
0.0
  0
ARC
  5
4F
  8
┌▓È_1
 62
     5
 10
1010.4108690893
 20
-170.61830878730001
 30
0.0
 40
10.0
 50
270.0
 51
0.0
  0
ARC
  5
50
  8
┌▓È_1
 62
     5
 10
1010.4108690893
 20
-170.61830878730001
 30
0.0
 40
8.0
 50
270.0
 51
0.0
  0
LINE
  5
51
  8
┌▓È_1
 62
     5
 10
1020.4108690893
 20
-170.61830878730001
 30
0.0
 11
1020.4108690893
 21
-163.61830878730001
 31
0.0
  0
LINE
  5
52
  8
┌▓È_1
 62
     5
 10
1006.4108690893
 20
-172.11830878730001
 30
0.0
 11
1006.4108690893
 21
-160.61830878730001
 31
0.0
  0
ARC
  5
53
  8
┌▓È_1
 62
     5
 10
1013.4108690893
 20
-165.61830878730001
 30
0.0
 40
5.0
 50
0.0
 51
90.0
  0
LINE
  5
54
  8
┌▓È_1
 62
     5
 10
1050.4108690892999
 20
-158.61830878730001
 30
0.0
 11
1050.4108690892999
 21
-160.61830878730001
 31
0.0
  0
LINE
  5
55
  8
┌▓È_1
 62
     5
 10
1023.4108690893
 20
-160.61830878730001
 30
0.0
 11
1050.4108690892999
 21
-160.61830878730001
 31
0.0
  0
LINE
  5
56
  8
┌▓È_1
 62
     5
 10
1050.4108690892999
 20
-158.61830878730001
 30
0.0
 11
1050.4108690892999
 21
-125.11830878729999
 31
0.0
  0
INSERT
  5
57
  8
0
  6
CONTINUOUS
  2
*U35
 10
0.0
 20
0.0
 30
0.0
  0
LINE
  5
58
  8
┌▓È_1
 62
     5
 10
928.41086908929992
 20
-101.61830878729999
 30
0.0
 11
918.41086908929992
 21
-101.61830878729999
 31
0.0
  0
LINE
  5
59
  8
┌▓È_1
 62
     5
 10
924.41086908929981
 20
-72.118308787299995
 30
0.0
 11
924.41086908929981
 21
-101.61830878729999
 31
0.0
  0
LINE
  5
5A
  8
┌▓È_1
 62
     5
 10
912.65350977640003
 20
-58.618308787300002
 30
0.0
 11
915.91086908929992
 21
-58.618308787300002
 31
0.0
  0
LINE
  5
5B
  8
┌▓È_1
 62
     5
 10
910.94640299529999
 20
-57.325415568500013
 30
0.0
 11
911.94640299529999
 21
-58.325415568499999
 31
0.0
  0
LINE
  5
5C
  8
┌▓È_1
 62
     5
 10
908.41086908930004
 20
-48.618308787300002
 30
0.0
 11
908.41086908930004
 21
-49.618308787299988
 31
0.0
  0
LINE
  5
5D
  8
┌▓È_1
 62
     5
 10
913.41086908929992
 20
-51.618308787300002
 30
0.0
 11
913.41086908929992
 21
-55.618308787299988
 31
0.0
  0
LINE
  5
5E
  8
┌▓È_1
 62
     5
 10
915.91086908929992
 20
-60.618308787299988
 30
0.0
 11
912.65350977640003
 21
-60.618308787299988
 31
0.0
  0
LINE
  5
5F
  8
┌▓È_1
 62
     5
 10
928.41086908929992
 20
-49.618308787299988
 30
0.0
 11
928.41086908929992
 21
-51.618308787300002
 31
0.0
  0
LINE
  5
60
  8
┌▓È_1
 62
     5
 10
953.91086908930004
 20
-67.618308787299995
 30
0.0
 11
953.91086908930004
 21
-69.618308787299995
 31
0.0
  0
LINE
  5
61
  8
┌▓È_1
 62
     5
 10
928.41086908929992
 20
-103.61830878729999
 30
0.0
 11
918.41086908929992
 21
-103.61830878729999
 31
0.0
  0
ARC
  5
62
  8
┌▓È_1
 62
     5
 10
928.41086908929992
 20
-100.61830878729999
 30
0.0
 40
3.0
 50
270.0
 51
0.0
  0
LINE
  5
63
  8
┌▓È_1
 62
     5
 10
941.41086908930004
 20
-96.118308787299995
 30
0.0
 11
941.41086908930004
 21
-107.11830878729999
 31
0.0
  0
LINE
  5
64
  8
┌▓È_1
 62
     5
 10
920.41086908929992
 20
-108.11830878729999
 30
0.0
 11
920.41086908929992
 21
-104.36830878729999
 31
0.0
  0
LINE
  5
65
  8
┌▓È_1
 62
     5
 10
920.41086908929992
 20
-104.36830878729999
 30
0.0
 11
917.41086908930004
 21
-104.36830878729999
 31
0.0
  0
ARC
  5
66
  8
┌▓È_1
 62
     5
 10
918.41086908929992
 20
-102.61830878729999
 30
0.0
 40
1.0
 50
90.0
 51
270.0
  0
LINE
  5
67
  8
┌▓È_1
 62
     5
 10
917.41086908930004
 20
-102.61830878729999
 30
0.0
 11
917.41086908930004
 21
-104.36830878729999
 31
0.0
  0
LINE
  5
68
  8
┌▓È_1
 62
     5
 10
918.91086908929981
 20
-61.618308787300002
 30
0.0
 11
918.91086908929981
 21
-69.618308787299995
 31
0.0
  0
ARC
  5
69
  8
┌▓È_1
 62
     5
 10
918.91086908929981
 20
-69.618308787299995
 30
0.0
 40
2.0
 50
180.0
 51
270.0
  0
LINE
  5
6A
  8
┌▓È_1
 62
     5
 10
916.91086908929992
 20
-61.618308787300002
 30
0.0
 11
916.91086908929992
 21
-69.618308787299995
 31
0.0
  0
ARC
  5
6B
  8
┌▓È_1
 62
     5
 10
915.91086908929992
 20
-61.618308787300002
 30
0.0
 40
1.0
 50
0.0
 51
90.0
  0
ARC
  5
6C
  8
┌▓È_1
 62
     5
 10
912.65350977640003
 20
-57.618308787299988
 30
0.0
 40
1.0
 50
225.0
 51
270.0
  0
ARC
  5
6D
  8
┌▓È_1
 62
     5
 10
928.41086908929992
 20
-100.61830878729999
 30
0.0
 40
1.0
 50
270.0
 51
0.0
  0
ARC
  5
6E
  8
┌▓È_1
 62
     5
 10
943.41086908929992
 20
-96.118308787299995
 30
0.0
 40
2.0
 50
90.0
 51
180.0
  0
LINE
  5
6F
  8
┌▓È_1
 62
     5
 10
956.41086908929981
 20
-89.118308787299995
 30
0.0
 11
956.41086908929981
 21
-92.118308787299995
 31
0.0
  0
LINE
  5
70
  8
┌▓È_1
 62
     5
 10
941.41086908930004
 20
-96.118308787299995
 30
0.0
 11
941.41086908930004
 21
-79.118308787299995
 31
0.0
  0
LINE
  5
71
  8
┌▓È_1
 62
     5
 10
907.28954874579995
 20
-56.496988443699998
 30
0.0
 11
910.53218943290005
 21
-59.739629130799997
 31
0.0
  0
LINE
  5
72
  8
┌▓È_1
 62
     5
 10
923.91086908929992
 20
-41.618308787300002
 30
0.0
 11
934.85850996210013
 21
-62.297185991499987
 31
0.0
  0
LINE
  5
73
  8
┌▓È_1
 62
     5
 10
906.41086908929981
 20
-64.618308787299995
 30
0.0
 11
906.41086908929981
 21
-72.618308787299995
 31
0.0
  0
LINE
  5
74
  8
┌▓È_1
 62
     5
 10
912.41086908929992
 20
-41.618308787300002
 30
0.0
 11
923.91086908929992
 21
-41.618308787300002
 31
0.0
  0
LINE
  5
75
  8
┌▓È_1
 62
     5
 10
913.41086908929992
 20
-43.618308787299988
 30
0.0
 11
913.41086908929992
 21
-49.618308787299988
 31
0.0
  0
LINE
  5
76
  8
┌▓È_1
 62
     5
 10
924.41086908929981
 20
-72.118308787299995
 30
0.0
 11
933.41086908930004
 21
-72.118308787299995
 31
0.0
  0
ARC
  5
77
  8
┌▓È_1
 62
     5
 10
912.65350977640003
 20
-57.618308787299988
 30
0.0
 40
3.0
 50
225.0
 51
270.0
  0
LINE
  5
78
  8
┌▓È_1
 62
     5
 10
906.41086908929981
 20
-53.618308787300002
 30
0.0
 11
906.41086908929981
 21
-54.375668100200002
 31
0.0
  0
LINE
  5
79
  8
┌▓È_1
 62
     5
 10
916.91086908929992
 20
-76.618308787299995
 30
0.0
 11
916.91086908929992
 21
-78.618308787299995
 31
0.0
  0
ARC
  5
7A
  8
┌▓È_1
 62
     5
 10
912.41086908929992
 20
-42.618308787300002
 30
0.0
 40
1.0
 50
90.0
 51
180.0
  0
LINE
  5
7B
  8
┌▓È_1
 62
     5
 10
911.41086908929992
 20
-49.618308787299988
 30
0.0
 11
911.41086908929992
 21
-42.618308787300002
 31
0.0
  0
ARC
  5
7C
  8
┌▓È_1
 62
     5
 10
938.41086908929992
 20
-107.11830878729999
 30
0.0
 40
1.0
 50
270.0
 51
0.0
  0
LINE
  5
7D
  8
┌▓È_1
 62
     5
 10
938.41086908929992
 20
-108.11830878729999
 30
0.0
 11
920.41086908929992
 21
-108.11830878729999
 31
0.0
  0
LINE
  5
7E
  8
┌▓È_1
 62
     5
 10
928.41086908929992
 20
-103.61830878729999
 30
0.0
 11
937.41086908929992
 21
-103.61830878729999
 31
0.0
  0
LINE
  5
7F
  8
┌▓È_1
 62
     5
 10
931.41086908929981
 20
-103.61830878729999
 30
0.0
 11
931.41086908929981
 21
-108.11830878729999
 31
0.0
  0
LINE
  5
80
  8
┌▓È_1
 62
     5
 10
969.41086908929992
 20
-89.118308787299995
 30
0.0
 11
956.41086908929981
 21
-89.118308787299995
 31
0.0
  0
ARC
  5
81
  8
┌▓È_1
 62
     5
 10
969.41086908929992
 20
-87.118308787299995
 30
0.0
 40
2.0
 50
270.0
 51
0.0
  0
LINE
  5
82
  8
┌▓È_1
 62
     5
 10
973.41086908929981
 20
-78.118308787299995
 30
0.0
 11
942.41086908930004
 21
-78.118308787299995
 31
0.0
  0
LINE
  5
83
  8
┌▓È_1
 62
     5
 10
939.41086908929981
 20
-79.118308787299995
 30
0.0
 11
939.41086908929981
 21
-107.11830878729999
 31
0.0
  0
LINE
  5
84
  8
┌▓È_1
 62
     5
 10
929.41086908929992
 20
-74.118308787299995
 30
0.0
 11
926.41086908929992
 21
-74.118308787299995
 31
0.0
  0
LINE
  5
85
  8
┌▓È_1
 62
     5
 10
929.41086908929992
 20
-74.118308787299995
 30
0.0
 11
929.41086908929992
 21
-100.61830878729999
 31
0.0
  0
LINE
  5
86
  8
┌▓È_1
 62
     5
 10
953.91086908930004
 20
-67.618308787299995
 30
0.0
 11
943.69638912559992
 21
-67.618308787299995
 31
0.0
  0
LINE
  5
87
  8
┌▓È_1
 62
     5
 10
923.91086908929992
 20
-43.618308787299988
 30
0.0
 11
913.41086908929992
 21
-43.618308787299988
 31
0.0
  0
LINE
  5
88
  8
┌▓È_1
 62
     5
 10
923.91086908929992
 20
-41.618308787300002
 30
0.0
 11
923.91086908929992
 21
-43.618308787299988
 31
0.0
  0
LINE
  5
89
  8
┌▓È_1
 62
     5
 10
928.41086908929992
 20
-51.618308787300002
 30
0.0
 11
913.41086908929992
 21
-51.618308787300002
 31
0.0
  0
LINE
  5
8A
  8
┌▓È_1
 62
     5
 10
898.91086908929992
 20
-106.11830878729999
 30
0.0
 11
900.91086908929992
 21
-106.11830878729999
 31
0.0
  0
LINE
  5
8B
  8
┌▓È_1
 62
     5
 10
885.91086908929981
 20
-58.618308787300002
 30
0.0
 11
899.91086908929992
 21
-58.618308787300002
 31
0.0
  0
LINE
  5
8C
  8
┌▓È_1
 62
     5
 10
900.91086908929992
 20
-74.618308787299995
 30
0.0
 11
900.91086908929992
 21
-61.618308787300002
 31
0.0
  0
LINE
  5
8D
  8
┌▓È_1
 62
     5
 10
885.41086908929992
 20
-51.618308787300002
 30
0.0
 11
885.41086908929992
 21
-53.618308787300002
 31
0.0
  0
LINE
  5
8E
  8
┌▓È_1
 62
     5
 10
899.91086908929992
 20
-48.118308787299988
 30
0.0
 11
899.91086908929992
 21
-48.618308787300002
 31
0.0
  0
LINE
  5
8F
  8
┌▓È_1
 62
     5
 10
898.91086908929992
 20
-104.11830878729999
 30
0.0
 11
898.91086908929992
 21
-106.11830878729999
 31
0.0
  0
LINE
  5
90
  8
┌▓È_1
 62
     5
 10
900.91086908929992
 20
-104.11830878729999
 30
0.0
 11
898.91086908929992
 21
-104.11830878729999
 31
0.0
  0
LINE
  5
91
  8
┌▓È_1
 62
     5
 10
900.41086908930004
 20
-52.538151305200003
 30
0.0
 11
899.33071160719987
 21
-53.618308787300002
 31
0.0
  0
LINE
  5
92
  8
┌▓È_1
 62
     5
 10
900.41086908930004
 20
-71.118308787299995
 30
0.0
 11
900.91086908929992
 21
-71.118308787299995
 31
0.0
  0
LINE
  5
93
  8
┌▓È_1
 62
     5
 10
900.41086908930004
 20
-66.118308787299995
 30
0.0
 11
900.41086908930004
 21
-71.118308787299995
 31
0.0
  0
LINE
  5
94
  8
┌▓È_1
 62
     5
 10
898.91086908929992
 20
-84.118308787299995
 30
0.0
 11
898.91086908929992
 21
-86.118308787299995
 31
0.0
  0
LINE
  5
95
  8
┌▓È_1
 62
     5
 10
900.91086908929992
 20
-84.118308787299995
 30
0.0
 11
898.91086908929992
 21
-84.118308787299995
 31
0.0
  0
LINE
  5
96
  8
┌▓È_1
 62
     5
 10
898.91086908929992
 20
-86.118308787299995
 30
0.0
 11
900.91086908929992
 21
-86.118308787299995
 31
0.0
  0
ARC
  5
97
  8
┌▓È_1
 62
     5
 10
915.91086908929992
 20
-62.618308787299988
 30
0.0
 40
1.0
 50
0.0
 51
90.0
  0
ARC
  5
98
  8
┌▓È_1
 62
     5
 10
911.65350977640003
 20
-56.618308787300002
 30
0.0
 40
1.0
 50
90.0
 51
225.0
  0
LINE
  5
99
  8
┌▓È_1
 62
     5
 10
911.65350977640003
 20
-55.618308787299988
 30
0.0
 11
913.41086908929992
 21
-55.618308787299988
 31
0.0
  0
ARC
  5
9A
  8
┌▓È_1
 62
     5
 10
915.91086908929992
 20
-61.618308787300002
 30
0.0
 40
3.0
 50
0.0
 51
90.0
  0
LINE
  5
9B
  8
┌▓È_1
 62
     5
 10
910.41086908929992
 20
-51.618308787300002
 30
0.0
 11
910.41086908929992
 21
-53.618308787300002
 31
0.0
  0
ARC
  5
9C
  8
┌▓È_1
 62
     5
 10
943.69638912559992
 20
-57.618308787299988
 30
0.0
 40
10.0
 50
207.89727103089999
 51
270.0
  0
ARC
  5
9D
  8
┌▓È_1
 62
     5
 10
926.41086908929992
 20
-72.118308787299995
 30
0.0
 40
2.0
 50
180.0
 51
270.0
  0
LINE
  5
9E
  8
┌▓È_1
 62
     5
 10
933.41086908930004
 20
-72.118308787299995
 30
0.0
 11
933.41086908930004
 21
-74.118308787299995
 31
0.0
  0
LINE
  5
9F
  8
┌▓È_1
 62
     5
 10
933.41086908930004
 20
-74.118308787299995
 30
0.0
 11
931.41086908929981
 21
-74.118308787299995
 31
0.0
  0
LINE
  5
A0
  8
┌▓È_1
 62
     5
 10
931.41086908929981
 20
-74.118308787299995
 30
0.0
 11
929.41086908929992
 21
-74.118308787299995
 31
0.0
  0
LINE
  5
A1
  8
┌▓È_1
 62
     5
 10
913.41086908929992
 20
-49.618308787299988
 30
0.0
 11
928.41086908929992
 21
-49.618308787299988
 31
0.0
  0
ARC
  5
A2
  8
┌▓È_1
 62
     5
 10
909.41086908930004
 20
-54.375668100200002
 30
0.0
 40
3.0
 50
180.0
 51
225.0
  0
LINE
  5
A3
  8
┌▓È_1
 62
     5
 10
904.41086908929992
 20
-49.618308787299988
 30
0.0
 11
911.41086908929992
 21
-49.618308787299988
 31
0.0
  0
LINE
  5
A4
  8
┌▓È_1
 62
     5
 10
885.41086908929992
 20
-53.618308787300002
 30
0.0
 11
910.41086908929992
 21
-53.618308787300002
 31
0.0
  0
LINE
  5
A5
  8
┌▓È_1
 62
     5
 10
916.91086908929992
 20
-78.618308787299995
 30
0.0
 11
902.91086908929981
 21
-78.618308787299995
 31
0.0
  0
LINE
  5
A6
  8
┌▓È_1
 62
     5
 10
902.91086908929981
 20
-74.618308787299995
 30
0.0
 11
900.91086908929992
 21
-74.618308787299995
 31
0.0
  0
LINE
  5
A7
  8
┌▓È_1
 62
     5
 10
902.91086908929981
 20
-61.618308787300002
 30
0.0
 11
902.91086908929981
 21
-66.618308787299995
 31
0.0
  0
LINE
  5
A8
  8
┌▓È_1
 62
     5
 10
906.41086908929981
 20
-72.618308787299995
 30
0.0
 11
904.91086908930004
 21
-72.618308787299995
 31
0.0
  0
LINE
  5
A9
  8
┌▓È_1
 62
     5
 10
902.91086908929981
 20
-76.618308787299995
 30
0.0
 11
902.91086908929981
 21
-74.618308787299995
 31
0.0
  0
LINE
  5
AA
  8
┌▓È_1
 62
     5
 10
904.91086908930004
 20
-48.118308787299988
 30
0.0
 11
904.91086908930004
 21
-48.618308787300002
 31
0.0
  0
LINE
  5
AB
  8
┌▓È_1
 62
     5
 10
915.91086908929992
 20
-61.618308787300002
 30
0.0
 11
902.91086908929981
 21
-61.618308787300002
 31
0.0
  0
LINE
  5
AC
  8
┌▓È_1
 62
     5
 10
904.41086908929992
 20
-52.538151305200003
 30
0.0
 11
905.4910265714999
 21
-53.618308787300002
 31
0.0
  0
LINE
  5
AD
  8
┌▓È_1
 62
     5
 10
902.91086908929981
 20
-70.618308787299995
 30
0.0
 11
902.91086908929981
 21
-74.618308787299995
 31
0.0
  0
LINE
  5
AE
  8
┌▓È_1
 62
     5
 10
900.91086908929992
 20
-70.618308787299995
 30
0.0
 11
904.91086908930004
 21
-70.618308787299995
 31
0.0
  0
ARC
  5
AF
  8
┌▓È_1
 62
     5
 10
902.91086908929981
 20
-78.618308787299995
 30
0.0
 40
2.0
 50
90.0
 51
180.0
  0
LINE
  5
B0
  8
┌▓È_1
 62
     5
 10
900.91086908929992
 20
-66.618308787299995
 30
0.0
 11
904.91086908930004
 21
-66.618308787299995
 31
0.0
  0
LINE
  5
B1
  8
┌▓È_1
 62
     5
 10
896.41086908929992
 20
-48.618308787300002
 30
0.0
 11
908.41086908930004
 21
-48.618308787300002
 31
0.0
  0
LINE
  5
B2
  8
┌▓È_1
 62
     5
 10
899.91086908929992
 20
-60.618308787299988
 30
0.0
 11
885.91086908929981
 21
-60.618308787299988
 31
0.0
  0
ARC
  5
B3
  8
┌▓È_1
 10
893.91086908929981
 20
-125.11830878729999
 30
0.0
 40
33.000946956100002
 50
102.2463328597
 51
148.53151070460001
  0
SOLID
  5
B4
  8
┌▓È_1
 10
865.76345748170002
 20
-107.8908388689
 30
0.0
 11
867.60273410229991
 21
-103.0522460202
 31
0.0
 12
867.90523072639985
 22
-104.9226294778
 32
0.0
 13
867.90523072639985
 23
-104.9226294778
 33
0.0
  0
SOLID
  5
B5
  8
┌▓È_1
 10
865.76345748170002
 20
-107.8908388689
 30
0.0
 11
869.77561418410005
 21
-104.6201328536
 31
0.0
 12
867.90523072639985
 22
-104.9226294778
 32
0.0
 13
867.90523072639985
 23
-104.9226294778
 33
0.0
  0
LINE
  5
B6
  8
┌▓È_1
 62
     5
 10
896.41086908929992
 20
-49.618308787299988
 30
0.0
 11
896.41086908929992
 21
-48.618308787300002
 31
0.0
  0
LINE
  5
B7
  8
┌▓È_1
 62
     5
 10
896.41086908929992
 20
-49.618308787299988
 30
0.0
 11
900.41086908930004
 21
-49.618308787299988
 31
0.0
  0
LINE
  5
B8
  8
┌▓È_1
 62
     5
 10
885.91086908929981
 20
-58.618308787300002
 30
0.0
 11
885.91086908929981
 21
-60.618308787299988
 31
0.0
  0
LINE
  5
B9
  8
┌▓È_1
 62
     5
 10
896.41086908929992
 20
-51.618308787300002
 30
0.0
 11
896.41086908929992
 21
-49.618308787299988
 31
0.0
  0
LINE
  5
BA
  8
┌▓È_1
 62
     5
 10
900.41086908930004
 20
-48.618308787300002
 30
0.0
 11
900.41086908930004
 21
-52.538151305200003
 31
0.0
  0
ARC
  5
BB
  8
┌▓È_1
 62
     5
 10
899.91086908929992
 20
-61.618308787300002
 30
0.0
 40
1.0
 50
0.0
 51
90.0
  0
LINE
  5
BC
  8
┌▓È_1
 62
     5
 10
885.41086908929992
 20
-51.618308787300002
 30
0.0
 11
900.41086908930004
 21
-51.618308787300002
 31
0.0
  0
LINE
  5
BD
  8
┌▓È_1
 62
     5
 10
900.91086908929992
 20
-66.118308787299995
 30
0.0
 11
900.41086908930004
 21
-66.118308787299995
 31
0.0
  0
LINE
  5
BE
  8
┌▓È_1
 62
     5
 10
928.41086908929992
 20
-146.61830878730001
 30
0.0
 11
937.41086908929992
 21
-146.61830878730001
 31
0.0
  0
LINE
  5
BF
  8
┌▓È_1
 62
     5
 10
917.41086908930004
 20
-147.61830878730001
 30
0.0
 11
917.41086908930004
 21
-145.86830878730001
 31
0.0
  0
LINE
  5
C0
  8
┌▓È_1
 62
     5
 10
928.41086908929992
 20
-146.61830878730001
 30
0.0
 11
918.41086908929992
 21
-146.61830878730001
 31
0.0
  0
LINE
  5
C1
  8
┌▓È_1
 62
     5
 10
931.41086908929981
 20
-146.61830878730001
 30
0.0
 11
931.41086908929981
 21
-142.11830878730001
 31
0.0
  0
LINE
  5
C2
  8
┌▓È_1
 62
     5
 10
917.41086908930004
 20
-145.86830878730001
 30
0.0
 11
917.41086908930004
 21
-125.11830878729999
 31
0.0
  0
LINE
  5
C3
  8
┌▓È_1
 62
     5
 10
916.91086908929992
 20
-180.61830878730001
 30
0.0
 11
916.91086908929992
 21
-125.11830878729999
 31
0.0
  0
LINE
  5
C4
  8
┌▓È_1
 62
     5
 10
939.41086908929981
 20
-171.11830878730001
 30
0.0
 11
939.41086908929981
 21
-143.11830878730001
 31
0.0
  0
LINE
  5
C5
  8
┌▓È_1
 62
     5
 10
941.41086908930004
 20
-154.11830878730001
 30
0.0
 11
941.41086908930004
 21
-143.11830878730001
 31
0.0
  0
LINE
  5
C6
  8
┌▓È_1
 62
     5
 10
956.41086908929981
 20
-158.61830878730001
 30
0.0
 11
956.41086908929981
 21
-125.11830878729999
 31
0.0
  0
ARC
  5
C7
  8
┌▓È_1
 62
     5
 10
928.41086908929992
 20
-149.61830878730001
 30
0.0
 40
3.0
 50
0.0
 51
90.0
  0
ARC
  5
C8
  8
┌▓È_1
 62
     5
 10
918.41086908929992
 20
-147.61830878730001
 30
0.0
 40
1.0
 50
90.0
 51
270.0
  0
INSERT
  5
C9
  8
0
  6
CONTINUOUS
  2
*U36
 10
0.0
 20
0.0
 30
0.0
  0
DIMENSION
  5
DA
  8
Éíû@É³
  2
*D0
 10
900.91086908929992
 20
-81.685204611299994
 30
0.0
 11
893.91086950659997
 21
-81.685204611299994
 31
0.0
 70
   128
  1
<>
 13
900.91086908929992
 23
-81.371548370599996
 33
0.0
 14
885.91086908929981
 24
-81.371548370599996
 34
0.0
  0
DIMENSION
  5
E9
  8
Éíû@É³
  2
*D1
 10
861.01711985229997
 20
-58.618308787300002
 30
0.0
 11
861.01711985229997
 21
-67.889142279599994
 31
0.0
 70
   128
  1
<>
 13
885.91086908929981
 23
-58.618308787300002
 33
0.0
 14
885.91086908929981
 24
-60.618308787299988
 34
0.0
 50
90.0
  0
LINE
  5
EA
  8
┌▓È_1
 62
     5
 10
898.91086908929992
 20
-48.618308787300002
 30
0.0
 11
905.91086908929992
 21
-41.618308787300002
 31
0.0
  0
LINE
  5
EB
  8
┌▓È_1
 62
     5
 10
916.91086908929992
 20
-63.618308787300002
 30
0.0
 11
904.91086908930004
 21
-63.618308787300002
 31
0.0
  0
ARC
  5
EC
  8
┌▓È_1
  6
STITCH
 10
896.41086908929992
 20
-104.2676493253
 30
0.0
 40
9.5
 50
337.9185669972
 51
188.34597099370001
  0
LINE
  5
ED
  8
┌▓È_1
 62
     5
 10
904.91086908930004
 20
-76.618308787299995
 30
0.0
 11
916.91086908929992
 21
-76.618308787299995
 31
0.0
  0
LINE
  5
EE
  8
┌▓È_1
 62
     5
 10
904.91086908930004
 20
-63.618308787300002
 30
0.0
 11
904.91086908930004
 21
-76.618308787299995
 31
0.0
  0
LINE
  5
EF
  8
┌▓È_1
 62
     5
 10
905.91086908929992
 20
-41.618308787300002
 30
0.0
 11
923.91086908929992
 21
-41.618308787300002
 31
0.0
  0
LINE
  5
F0
  8
┌▓È_1
 62
     5
 10
904.41086908929992
 20
-51.618308787300002
 30
0.0
 11
910.41086908929992
 21
-51.618308787300002
 31
0.0
  0
LINE
  5
F1
  8
┌▓È_1
 62
     5
 10
904.41086908929992
 20
-48.618308787300002
 30
0.0
 11
904.41086908929992
 21
-52.538151305200003
 31
0.0
  0
LINE
  5
F2
  8
┌▓È_1
 62
     5
 10
904.91086908930004
 20
-64.618308787299995
 30
0.0
 11
906.41086908929981
 21
-64.618308787299995
 31
0.0
  0
LINE
  5
F3
  8
┌▓È_1
 62
     5
 10
899.91086908929992
 20
-48.118308787299988
 30
0.0
 11
904.91086908930004
 21
-48.118308787299988
 31
0.0
  0
ARC
  5
F4
  8
┌▓È_1
 62
     5
 10
899.91086908929992
 20
-61.618308787300002
 30
0.0
 40
3.0
 50
0.0
 51
90.0
  0
ARC
  5
F5
  8
┌▓È_1
 62
     5
 10
912.65350977640003
 20
-192.61830878730001
 30
0.0
 40
1.0
 50
90.0
 51
135.0
  0
ARC
  5
F6
  8
┌▓È_1
 62
     5
 10
912.41086908929992
 20
-207.61830878730001
 30
0.0
 40
1.0
 50
180.0
 51
270.0
  0
ARC
  5
F7
  8
┌▓È_1
 62
     5
 10
915.91086908929992
 20
-188.61830878730001
 30
0.0
 40
3.0
 50
270.0
 51
0.0
  0
LINE
  5
F8
  8
┌▓È_1
 62
     5
 10
931.41086908929981
 20
-149.61830878730001
 30
0.0
 11
931.41086908929981
 21
-176.11830878730001
 31
0.0
  0
ARC
  5
F9
  8
┌▓È_1
 62
     5
 10
928.41086908929992
 20
-149.61830878730001
 30
0.0
 40
1.0
 50
0.0
 51
90.0
  0
LINE
  5
FA
  8
┌▓È_1
 62
     5
 10
928.41086908929992
 20
-148.61830878730001
 30
0.0
 11
918.41086908929992
 21
-148.61830878730001
 31
0.0
  0
LINE
  5
FB
  8
┌▓È_1
 62
     5
 10
913.41086908929992
 20
-200.61830878730001
 30
0.0
 11
928.41086908929992
 21
-200.61830878730001
 31
0.0
  0
LINE
  5
FC
  8
┌▓È_1
 62
     5
 10
928.41086908929992
 20
-198.61830878730001
 30
0.0
 11
913.41086908929992
 21
-198.61830878730001
 31
0.0
  0
LINE
  5
FD
  8
┌▓È_1
 62
     5
 10
923.91086908929992
 20
-206.61830878730001
 30
0.0
 11
913.41086908929992
 21
-206.61830878730001
 31
0.0
  0
ARC
  5
FE
  8
┌▓È_1
 62
     5
 10
909.41086908930004
 20
-195.86094947439989
 30
0.0
 40
3.0
 50
135.0
 51
180.0
  0
LINE
  5
FF
  8
┌▓È_1
 62
     5
 10
912.41086908929992
 20
-208.61830878730001
 30
0.0
 11
923.91086908929992
 21
-208.61830878730001
 31
0.0
  0
LINE
  5
100
  8
┌▓È_1
 62
     5
 10
923.91086908929992
 20
-208.61830878730001
 30
0.0
 11
934.85850996210013
 21
-187.9394315831
 31
0.0
  0
LINE
  5
101
  8
┌▓È_1
 62
     5
 10
923.91086908929992
 20
-208.61830878730001
 30
0.0
 11
923.91086908929992
 21
-206.61830878730001
 31
0.0
  0
LINE
  5
102
  8
┌▓È_1
 62
     5
 10
908.41086908930004
 20
-201.61830878730001
 30
0.0
 11
908.41086908930004
 21
-200.61830878730001
 31
0.0
  0
LINE
  5
103
  8
┌▓È_1
 62
     5
 10
928.41086908929992
 20
-200.61830878730001
 30
0.0
 11
928.41086908929992
 21
-198.61830878730001
 31
0.0
  0
LINE
  5
104
  8
┌▓È_1
 62
     5
 10
913.41086908929992
 20
-206.61830878730001
 30
0.0
 11
913.41086908929992
 21
-200.61830878730001
 31
0.0
  0
LINE
  5
105
  8
┌▓È_1
 62
     5
 10
911.65350977640003
 20
-194.61830878730001
 30
0.0
 11
913.41086908929992
 21
-194.61830878730001
 31
0.0
  0
LINE
  5
106
  8
┌▓È_1
 62
     5
 10
924.41086908929981
 20
-178.11830878730001
 30
0.0
 11
933.41086908930004
 21
-178.11830878730001
 31
0.0
  0
ARC
  5
107
  8
┌▓È_1
 62
     5
 10
912.65350977640003
 20
-192.61830878730001
 30
0.0
 40
3.0
 50
90.0
 51
135.0
  0
ARC
  5
108
  8
┌▓È_1
 62
     5
 10
954.41086908929992
 20
-158.11830878730001
 30
0.0
 40
2.0
 50
0.0
 51
90.0
  0
LINE
  5
109
  8
┌▓È_1
 62
     5
 10
954.41086908929992
 20
-156.11830878730001
 30
0.0
 11
943.41086908929992
 21
-156.11830878730001
 31
0.0
  0
LINE
  5
10A
  8
┌▓È_1
 62
     5
 10
910.41086908929992
 20
-198.61830878730001
 30
0.0
 11
910.41086908929992
 21
-196.61830878730001
 31
0.0
  0
LINE
  5
10B
  8
┌▓È_1
 62
     5
 10
920.41086908929992
 20
-145.86830878730001
 30
0.0
 11
917.41086908930004
 21
-145.86830878730001
 31
0.0
  0
LINE
  5
10C
  8
┌▓È_1
 62
     5
 10
920.41086908929992
 20
-142.11830878730001
 30
0.0
 11
920.41086908929992
 21
-145.86830878730001
 31
0.0
  0
ARC
  5
10D
  8
┌▓È_1
 62
     5
 10
937.41086908929992
 20
-148.61830878730001
 30
0.0
 40
2.0
 50
0.0
 51
90.0
  0
LINE
  5
10E
  8
┌▓È_1
 62
     5
 10
911.41086908929992
 20
-200.61830878730001
 30
0.0
 11
911.41086908929992
 21
-207.61830878730001
 31
0.0
  0
ARC
  5
10F
  8
┌▓È_1
 62
     5
 10
943.69638912559992
 20
-192.61830878730001
 30
0.0
 40
10.0
 50
90.0
 51
152.10272896910001
  0
LINE
  5
110
  8
┌▓È_1
 62
     5
 10
953.91086908930004
 20
-182.61830878730001
 30
0.0
 11
943.69638912559992
 21
-182.61830878730001
 31
0.0
  0
LINE
  5
111
  8
┌▓È_1
 62
     5
 10
933.41086908930004
 20
-176.11830878730001
 30
0.0
 11
931.41086908929981
 21
-176.11830878730001
 31
0.0
  0
LINE
  5
112
  8
┌▓È_1
 62
     5
 10
933.41086908930004
 20
-178.11830878730001
 30
0.0
 11
933.41086908930004
 21
-176.11830878730001
 31
0.0
  0
LINE
  5
113
  8
┌▓È_1
 62
     5
 10
916.91086908929992
 20
-173.61830878730001
 30
0.0
 11
916.91086908929992
 21
-171.61830878730001
 31
0.0
  0
ARC
  5
114
  8
┌▓È_1
 62
     5
 10
969.41086908929992
 20
-163.11830878730001
 30
0.0
 40
2.0
 50
0.0
 51
90.0
  0
LINE
  5
115
  8
┌▓È_1
 62
     5
 10
973.41086908929981
 20
-172.11830878730001
 30
0.0
 11
942.41086908930004
 21
-172.11830878730001
 31
0.0
  0
LINE
  5
116
  8
┌▓È_1
 62
     5
 10
969.41086908929992
 20
-161.11830878730001
 30
0.0
 11
956.41086908929981
 21
-161.11830878730001
 31
0.0
  0
LINE
  5
117
  8
┌▓È_1
 62
     5
 10
907.28954874579995
 20
-193.73962913080001
 30
0.0
 11
910.53218943290005
 21
-190.49698844369999
 31
0.0
  0
ARC
  5
118
  8
┌▓È_1
 62
     5
 10
942.41086908930004
 20
-171.11830878730001
 30
0.0
 40
1.0
 50
180.0
 51
270.0
  0
ARC
  5
119
  8
┌▓È_1
 62
     5
 10
943.41086908929992
 20
-154.11830878730001
 30
0.0
 40
2.0
 50
180.0
 51
270.0
  0
LINE
  5
11A
  8
┌▓È_1
 62
     5
 10
941.41086908930004
 20
-154.11830878730001
 30
0.0
 11
941.41086908930004
 21
-171.11830878730001
 31
0.0
  0
ARC
  5
11B
  8
┌▓È_1
 62
     5
 10
926.41086908929992
 20
-178.11830878730001
 30
0.0
 40
2.0
 50
90.0
 51
180.0
  0
LINE
  5
11C
  8
┌▓È_1
 62
     5
 10
933.41086908930004
 20
-176.11830878730001
 30
0.0
 11
938.82508265169986
 21
-170.70409522489999
 31
0.0
  0
LINE
  5
11D
  8
┌▓È_1
 62
     5
 10
956.41086908929981
 20
-161.11830878730001
 30
0.0
 11
956.41086908929981
 21
-158.11830878730001
 31
0.0
  0
LINE
  5
11E
  8
┌▓È_1
 62
     5
 10
956.41086908929981
 20
-160.61830878730001
 30
0.0
 11
956.41086908929981
 21
-158.61830878730001
 31
0.0
  0
LINE
  5
11F
  8
┌▓È_1
 62
     5
 10
929.41086908929992
 20
-176.11830878730001
 30
0.0
 11
926.41086908929992
 21
-176.11830878730001
 31
0.0
  0
LINE
  5
120
  8
┌▓È_1
 62
     5
 10
931.41086908929981
 20
-176.11830878730001
 30
0.0
 11
929.41086908929992
 21
-176.11830878730001
 31
0.0
  0
LINE
  5
121
  8
┌▓È_1
 62
     5
 10
953.91086908930004
 20
-182.61830878730001
 30
0.0
 11
953.91086908930004
 21
-180.61830878730001
 31
0.0
  0
LINE
  5
122
  8
┌▓È_1
 62
     5
 10
913.41086908929992
 20
-198.61830878730001
 30
0.0
 11
913.41086908929992
 21
-194.61830878730001
 31
0.0
  0
ARC
  5
123
  8
┌▓È_1
 62
     5
 10
911.65350977640003
 20
-193.61830878730001
 30
0.0
 40
1.0
 50
135.0
 51
270.0
  0
LINE
  5
124
  8
┌▓È_1
 62
     5
 10
910.94640299529999
 20
-192.91120200610001
 30
0.0
 11
911.94640299529999
 21
-191.91120200610001
 31
0.0
  0
LINE
  5
125
  8
┌▓È_1
 62
     5
 10
918.91086908929981
 20
-188.61830878730001
 30
0.0
 11
918.91086908929981
 21
-180.61830878730001
 31
0.0
  0
LINE
  5
126
  8
┌▓È_1
 62
     5
 10
912.65350977640003
 20
-191.61830878730001
 30
0.0
 11
915.91086908929992
 21
-191.61830878730001
 31
0.0
  0
LINE
  5
127
  8
┌▓È_1
 62
     5
 10
898.91086908929992
 20
-146.11830878730001
 30
0.0
 11
898.91086908929992
 21
-144.11830878730001
 31
0.0
  0
LINE
  5
128
  8
┌▓È_1
 62
     5
 10
900.91086908929992
 20
-171.61830878730001
 30
0.0
 11
900.91086908929992
 21
-132.11830878730001
 31
0.0
  0
LINE
  5
129
  8
┌▓È_1
 62
     5
 10
885.41086908929992
 20
-196.61830878730001
 30
0.0
 11
885.41086908929992
 21
-125.11830878729999
 31
0.0
  0
LINE
  5
12A
  8
┌▓È_1
 62
     5
 10
885.91086908929981
 20
-189.61830878730001
 30
0.0
 11
885.91086908929981
 21
-125.11830878729999
 31
0.0
  0
LINE
  5
12B
  8
┌▓È_1
 62
     5
 10
900.91086908929992
 20
-146.11830878730001
 30
0.0
 11
898.91086908929992
 21
-146.11830878730001
 31
0.0
  0
ARC
  5
12C
  8
┌▓È_1
 62
     5
 10
921.41086908929992
 20
-139.11830878730001
 30
0.0
 40
1.0
 50
180.0
 51
270.0
  0
LINE
  5
12D
  8
┌▓È_1
 62
     5
 10
920.41086908929992
 20
-139.11830878730001
 30
0.0
 11
920.41086908929992
 21
-125.11830878729999
 31
0.0
  0
LINE
  5
12E
  8
┌▓È_1
 62
     5
 10
938.41086908929992
 20
-140.11830878730001
 30
0.0
 11
921.41086908929992
 21
-140.11830878730001
 31
0.0
  0
LINE
  5
12F
  8
┌▓È_1
 62
     5
 10
938.41086908929992
 20
-142.11830878730001
 30
0.0
 11
920.41086908929992
 21
-142.11830878730001
 31
0.0
  0
LINE
  5
130
  8
┌▓È_1
 62
     5
 10
941.41086908930004
 20
-143.11830878730001
 30
0.0
 11
941.41086908930004
 21
-125.11830878729999
 31
0.0
  0
ARC
  5
131
  8
┌▓È_1
 62
     5
 10
938.41086908929992
 20
-143.11830878730001
 30
0.0
 40
3.0
 50
0.0
 51
90.0
  0
ARC
  5
132
  8
┌▓È_1
 62
     5
 10
938.41086908929992
 20
-143.11830878730001
 30
0.0
 40
1.0
 50
0.0
 51
90.0
  0
LINE
  5
133
  8
┌▓È_1
 62
     5
 10
906.41086908929981
 20
-196.61830878730001
 30
0.0
 11
906.41086908929981
 21
-195.86094947439989
 31
0.0
  0
LINE
  5
134
  8
┌▓È_1
 62
     5
 10
906.41086908929981
 20
-185.61830878730001
 30
0.0
 11
906.41086908929981
 21
-177.61830878730001
 31
0.0
  0
ARC
  5
135
  8
┌▓È_1
 62
     5
 10
915.91086908929992
 20
-187.61830878730001
 30
0.0
 40
1.0
 50
270.0
 51
0.0
  0
LINE
  5
136
  8
┌▓È_1
 62
     5
 10
915.91086908929992
 20
-189.61830878730001
 30
0.0
 11
912.65350977640003
 21
-189.61830878730001
 31
0.0
  0
ARC
  5
137
  8
┌▓È_1
 62
     5
 10
915.91086908929992
 20
-188.61830878730001
 30
0.0
 40
1.0
 50
270.0
 51
0.0
  0
LINE
  5
138
  8
┌▓È_1
 62
     5
 10
916.91086908929992
 20
-188.61830878730001
 30
0.0
 11
916.91086908929992
 21
-180.61830878730001
 31
0.0
  0
ARC
  5
139
  8
┌▓È_1
 62
     5
 10
918.91086908929981
 20
-180.61830878730001
 30
0.0
 40
2.0
 50
90.0
 51
180.0
  0
ARC
  5
13A
  8
┌▓È_1
 62
     5
 10
937.41086908929992
 20
-169.28988166249999
 30
0.0
 40
2.0
 50
315.0
 51
0.0
  0
LINE
  5
13B
  8
┌▓È_1
 62
     5
 10
971.41086908929992
 20
-170.11830878730001
 30
0.0
 11
971.41086908929992
 21
-163.11830878730001
 31
0.0
  0
ARC
  5
13C
  8
┌▓È_1
 62
     5
 10
973.41086908929981
 20
-170.11830878730001
 30
0.0
 40
2.0
 50
180.0
 51
270.0
  0
ARC
  5
13D
  8
┌▓È_1
 62
     5
 10
942.41086908930004
 20
-171.11830878730001
 30
0.0
 40
3.0
 50
180.0
 51
270.0
  0
LINE
  5
13E
  8
┌▓È_1
 62
     5
 10
924.41086908929981
 20
-178.11830878730001
 30
0.0
 11
924.41086908929981
 21
-148.61830878730001
 31
0.0
  0
LINE
  5
13F
  8
┌▓È_1
 62
     5
 10
929.41086908929992
 20
-176.11830878730001
 30
0.0
 11
929.41086908929992
 21
-149.61830878730001
 31
0.0
  0
ARC
  5
140
  8
┌▓È_1
  6
STITCH
 10
893.91086908929981
 20
-125.11830878729999
 30
0.0
 40
4.0
 50
188.34596891999999
 51
247.975687163
  0
LINE
  5
141
  8
┌▓È_1
  6
STITCH
 10
897.44122599309981
 20
-126.9988885203
 30
0.0
 11
896.64732698589989
 21
-136.9673249256
 31
0.0
  0
LINE
  5
142
  8
┌▓È_1
  6
STITCH
 10
896.64732698589989
 20
-136.9673249256
 30
0.0
 11
892.41086908930004
 21
-136.6299280078
 31
0.0
  0
LINE
  5
143
  8
┌▓È_1
  6
STITCH
 10
892.41086908930004
 20
-128.8264080308
 30
0.0
 11
892.41086908930004
 21
-136.6299280078
 31
0.0
  0
LINE
  5
144
  8
┌▓È_1
 62
     5
 10
900.91086908929992
 20
-132.11830878730001
 30
0.0
 11
900.91086908929992
 21
-125.11830878729999
 31
0.0
  0
LINE
  5
145
  8
┌▓È_1
 62
     5
 10
898.91086908929992
 20
-144.11830878730001
 30
0.0
 11
900.91086908929992
 21
-144.11830878730001
 31
0.0
  0
LINE
  5
146
  8
┌▓È_1
 62
     5
 10
900.41086908930004
 20
-184.11830878730001
 30
0.0
 11
900.41086908930004
 21
-179.11830878730001
 31
0.0
  0
LINE
  5
147
  8
┌▓È_1
 62
     5
 10
885.91086908929981
 20
-191.61830878730001
 30
0.0
 11
885.91086908929981
 21
-189.61830878730001
 31
0.0
  0
LINE
  5
148
  8
┌▓È_1
 62
     5
 10
900.91086908929992
 20
-184.11830878730001
 30
0.0
 11
900.41086908930004
 21
-184.11830878730001
 31
0.0
  0
LINE
  5
149
  8
┌▓È_1
 62
     5
 10
900.91086908929992
 20
-175.61830878730001
 30
0.0
 11
900.91086908929992
 21
-188.61830878730001
 31
0.0
  0
ARC
  5
14A
  8
┌▓È_1
 62
     5
 10
899.91086908929992
 20
-188.61830878730001
 30
0.0
 40
1.0
 50
270.0
 51
0.0
  0
LINE
  5
14B
  8
┌▓È_1
 62
     5
 10
900.41086908930004
 20
-179.11830878730001
 30
0.0
 11
900.91086908929992
 21
-179.11830878730001
 31
0.0
  0
LINE
  5
14C
  8
┌▓È_1
 62
     5
 10
885.41086908929992
 20
-198.61830878730001
 30
0.0
 11
900.41086908930004
 21
-198.61830878730001
 31
0.0
  0
LINE
  5
14D
  8
┌▓È_1
 62
     5
 10
885.91086908929981
 20
-191.61830878730001
 30
0.0
 11
899.91086908929992
 21
-191.61830878730001
 31
0.0
  0
LINE
  5
14E
  8
┌▓È_1
 62
     5
 10
899.91086908929992
 20
-189.61830878730001
 30
0.0
 11
885.91086908929981
 21
-189.61830878730001
 31
0.0
  0
LINE
  5
14F
  8
┌▓È_1
 62
     5
 10
885.41086908929992
 20
-198.61830878730001
 30
0.0
 11
885.41086908929992
 21
-196.61830878730001
 31
0.0
  0
LINE
  5
150
  8
┌▓È_1
 62
     5
 10
898.91086908929992
 20
-164.11830878730001
 30
0.0
 11
900.91086908929992
 21
-164.11830878730001
 31
0.0
  0
LINE
  5
151
  8
┌▓È_1
 62
     5
 10
900.91086908929992
 20
-166.11830878730001
 30
0.0
 11
898.91086908929992
 21
-166.11830878730001
 31
0.0
  0
LINE
  5
152
  8
┌▓È_1
 62
     5
 10
898.91086908929992
 20
-166.11830878730001
 30
0.0
 11
898.91086908929992
 21
-164.11830878730001
 31
0.0
  0
LINE
  5
153
  8
┌▓È_1
 62
     5
 10
900.41086908930004
 20
-201.61830878730001
 30
0.0
 11
900.41086908930004
 21
-197.69846626939989
 31
0.0
  0
LINE
  5
154
  8
┌▓È_1
 62
     5
 10
900.41086908930004
 20
-197.69846626939989
 30
0.0
 11
899.33071160719987
 21
-196.61830878730001
 31
0.0
  0
LINE
  5
155
  8
┌▓È_1
 62
     5
 10
899.91086908929992
 20
-202.11830878730001
 30
0.0
 11
899.91086908929992
 21
-201.61830878730001
 31
0.0
  0
LINE
  5
156
  8
┌▓È_1
 62
     5
 10
896.41086908929992
 20
-200.61830878730001
 30
0.0
 11
900.41086908930004
 21
-200.61830878730001
 31
0.0
  0
LINE
  5
157
  8
┌▓È_1
 62
     5
 10
896.41086908929992
 20
-198.61830878730001
 30
0.0
 11
896.41086908929992
 21
-200.61830878730001
 31
0.0
  0
LINE
  5
158
  8
┌▓È_1
 62
     5
 10
896.41086908929992
 20
-200.61830878730001
 30
0.0
 11
896.41086908929992
 21
-201.61830878730001
 31
0.0
  0
LINE
  5
159
  8
┌▓È_1
 62
     5
 10
902.91086908929981
 20
-188.61830878730001
 30
0.0
 11
902.91086908929981
 21
-183.61830878730001
 31
0.0
  0
LINE
  5
15A
  8
┌▓È_1
 62
     5
 10
916.91086908929992
 20
-171.61830878730001
 30
0.0
 11
902.91086908929981
 21
-171.61830878730001
 31
0.0
  0
LINE
  5
15B
  8
┌▓È_1
 62
     5
 10
906.41086908929981
 20
-177.61830878730001
 30
0.0
 11
904.91086908930004
 21
-177.61830878730001
 31
0.0
  0
LINE
  5
15C
  8
┌▓È_1
 62
     5
 10
915.91086908929992
 20
-188.61830878730001
 30
0.0
 11
902.91086908929981
 21
-188.61830878730001
 31
0.0
  0
LINE
  5
15D
  8
┌▓È_1
 62
     5
 10
904.41086908929992
 20
-198.61830878730001
 30
0.0
 11
910.41086908929992
 21
-198.61830878730001
 31
0.0
  0
ARC
  5
15E
  8
┌▓È_1
 62
     5
 10
899.91086908929992
 20
-188.61830878730001
 30
0.0
 40
3.0
 50
270.0
 51
0.0
  0
LINE
  5
15F
  8
┌▓È_1
 62
     5
 10
900.91086908929992
 20
-183.61830878730001
 30
0.0
 11
904.91086908930004
 21
-183.61830878730001
 31
0.0
  0
ARC
  5
160
  8
┌▓È_1
 62
     5
 10
902.91086908929981
 20
-171.61830878730001
 30
0.0
 40
2.0
 50
180.0
 51
270.0
  0
LINE
  5
161
  8
┌▓È_1
 62
     5
 10
904.91086908930004
 20
-186.61830878730001
 30
0.0
 11
904.91086908930004
 21
-173.61830878730001
 31
0.0
  0
LINE
  5
162
  8
┌▓È_1
 62
     5
 10
904.91086908930004
 20
-173.61830878730001
 30
0.0
 11
916.91086908929992
 21
-173.61830878730001
 31
0.0
  0
LINE
  5
163
  8
┌▓È_1
 62
     5
 10
902.91086908929981
 20
-173.61830878730001
 30
0.0
 11
902.91086908929981
 21
-175.61830878730001
 31
0.0
  0
LINE
  5
164
  8
┌▓È_1
 62
     5
 10
902.91086908929981
 20
-175.61830878730001
 30
0.0
 11
900.91086908929992
 21
-175.61830878730001
 31
0.0
  0
LINE
  5
165
  8
┌▓È_1
 62
     5
 10
904.41086908929992
 20
-201.61830878730001
 30
0.0
 11
904.41086908929992
 21
-197.69846626939989
 31
0.0
  0
LINE
  5
166
  8
┌▓È_1
 62
     5
 10
904.41086908929992
 20
-197.69846626939989
 30
0.0
 11
905.4910265714999
 21
-196.61830878730001
 31
0.0
  0
LINE
  5
167
  8
┌▓È_1
 62
     5
 10
905.91086908929992
 20
-208.61830878730001
 30
0.0
 11
923.91086908929992
 21
-208.61830878730001
 31
0.0
  0
LINE
  5
168
  8
┌▓È_1
 62
     5
 10
899.91086908929992
 20
-202.11830878730001
 30
0.0
 11
904.91086908930004
 21
-202.11830878730001
 31
0.0
  0
LINE
  5
169
  8
┌▓È_1
 62
     5
 10
904.41086908929992
 20
-200.61830878730001
 30
0.0
 11
911.41086908929992
 21
-200.61830878730001
 31
0.0
  0
LINE
  5
16A
  8
┌▓È_1
 62
     5
 10
898.91086908929992
 20
-201.61830878730001
 30
0.0
 11
905.91086908929992
 21
-208.61830878730001
 31
0.0
  0
LINE
  5
16B
  8
┌▓È_1
 62
     5
 10
902.91086908929981
 20
-179.61830878730001
 30
0.0
 11
902.91086908929981
 21
-175.61830878730001
 31
0.0
  0
LINE
  5
16C
  8
┌▓È_1
 62
     5
 10
885.41086908929992
 20
-196.61830878730001
 30
0.0
 11
910.41086908929992
 21
-196.61830878730001
 31
0.0
  0
LINE
  5
16D
  8
┌▓È_1
 62
     5
 10
902.91086908929981
 20
-171.61830878730001
 30
0.0
 11
902.91086908929981
 21
-132.11830878730001
 31
0.0
  0
ARC
  5
16E
  8
┌▓È_1
  6
BORDER
 62
     3
 10
893.91086908929981
 20
-125.11830878729999
 30
0.0
 40
4.0
 50
278.34596892000002
 51
337.97568716299998
  0
LINE
  5
16F
  8
┌▓È_1
  6
BORDER
 62
     3
 10
894.49146960219991
 20
-129.0759473565
 30
0.0
 11
874.43913584539985
 21
-132.01770038910001
 31
0.0
  0
CIRCLE
  5
170
  8
┌▓È_1
  6
STITCH
 10
890.91086908929992
 20
-132.76830878729999
 30
0.0
 40
1.5
  0
CIRCLE
  5
171
  8
┌▓È_1
  6
STITCH
 10
893.91086908929981
 20
-125.11830878729999
 30
0.0
 40
1.5
  0
INSERT
  5
173
  8
0
  6
CONTINUOUS
  2
*U37
 10
0.0
 20
0.0
 30
0.0
  0
INSERT
  5
174
  8
0
  6
CONTINUOUS
  2
*U38
 10
0.0
 20
0.0
 30
0.0
  0
ARC
  5
175
  8
┌▓È_1
 62
     5
 10
902.91086908929981
 20
-118.11830878729999
 30
0.0
 40
2.0
 50
180.0
 51
270.0
  0
LINE
  5
176
  8
┌▓È_1
 62
     5
 10
902.91086908929981
 20
-118.11830878729999
 30
0.0
 11
916.91086908929992
 21
-118.11830878729999
 31
0.0
  0
LINE
  5
177
  8
┌▓È_1
  6
BORDER
 62
     3
 10
895.7914488222998
 20
-121.5879518835
 30
0.0
 11
876.63148800990007
 21
-113.81512920749999
 31
0.0
  0
CIRCLE
  5
178
  8
┌▓È_1
  6
BORDER
 62
     3
 10
873.06020962729986
 20
-122.61830878729999
 30
0.0
 40
7.5
  0
LINE
  5
179
  8
┌▓È_1
 62
     5
 10
900.91086908929992
 20
-118.11830878729999
 30
0.0
 11
900.91086908929992
 21
-125.11830878729999
 31
0.0
  0
DIMENSION
  5
188
  8
Éíû@É³
  2
*D2
 10
900.91086908929992
 20
-159.51321483129999
 30
0.0
 11
892.64172836899979
 21
-159.51321483129999
 31
0.0
 70
   128
  1
<>
 13
900.91086908929992
 23
-164.11830878730001
 33
0.0
 14
898.91086908929992
 24
-164.11830878730001
 34
0.0
  0
DIMENSION
  5
197
  8
Éíû@É³
  2
*D3
 10
861.36256167049999
 20
-196.61830878730001
 30
0.0
 11
861.36256167049999
 21
-205.4611318158
 31
0.0
 70
   128
  1
<>
 13
885.41086908929992
 23
-196.61830878730001
 33
0.0
 14
885.41086908929992
 24
-198.61830878730001
 34
0.0
 50
90.0
  0
LINE
  5
198
  8
┌▓È_1
  6
BORDER
 62
     3
 10
897.61896833289995
 20
-126.61830878729999
 30
0.0
 11
905.4224883098999
 21
-126.61830878729999
 31
0.0
  0
LINE
  5
199
  8
┌▓È_1
  6
BORDER
 62
     3
 10
905.75988522759985
 20
-122.38185089069999
 30
0.0
 11
905.4224883098999
 21
-126.61830878729999
 31
0.0
  0
LINE
  5
19A
  8
┌▓È_1
  6
BORDER
 62
     3
 10
895.7914488222998
 20
-121.5879518835
 30
0.0
 11
905.75988522759985
 21
-122.38185089069999
 31
0.0
  0
ARC
  5
19B
  8
┌▓È_1
 62
     5
 10
902.91086908929981
 20
-132.11830878730001
 30
0.0
 40
2.0
 50
90.0
 51
180.0
  0
LINE
  5
19C
  8
┌▓È_1
 62
     5
 10
902.91086908929981
 20
-130.11830878730001
 30
0.0
 11
902.91086908929981
 21
-125.11830878729999
 31
0.0
  0
LINE
  5
19D
  8
┌▓È_1
 62
     5
 10
904.91086908930004
 20
-130.11830878730001
 30
0.0
 11
904.91086908930004
 21
-125.11830878729999
 31
0.0
  0
LINE
  5
19E
  8
┌▓È_1
 62
     5
 10
902.91086908929981
 20
-132.11830878730001
 30
0.0
 11
916.91086908929992
 21
-132.11830878730001
 31
0.0
  0
LINE
  5
19F
  8
┌▓È_1
 62
     5
 10
904.91086908930004
 20
-130.11830878730001
 30
0.0
 11
916.91086908929992
 21
-130.11830878730001
 31
0.0
  0
LINE
  5
1A0
  8
┌▓È_1
 62
     5
 10
904.91086908930004
 20
-120.11830878729999
 30
0.0
 11
916.91086908929992
 21
-120.11830878729999
 31
0.0
  0
LINE
  5
1A1
  8
┌▓È_1
 62
     5
 10
904.91086908930004
 20
-120.11830878729999
 30
0.0
 11
904.91086908930004
 21
-125.11830878729999
 31
0.0
  0
LINE
  5
1A2
  8
┌▓È_1
 62
     5
 10
902.91086908929981
 20
-120.11830878729999
 30
0.0
 11
902.91086908929981
 21
-125.11830878729999
 31
0.0
  0
LINE
  5
1A3
  8
┌▓È_1
 62
     5
 10
896.41086908929992
 20
-201.61830878730001
 30
0.0
 11
908.41086908930004
 21
-201.61830878730001
 31
0.0
  0
LINE
  5
1A4
  8
┌▓È_1
 62
     5
 10
904.91086908930004
 20
-202.11830878730001
 30
0.0
 11
904.91086908930004
 21
-201.61830878730001
 31
0.0
  0
LINE
  5
1A5
  8
┌▓È_1
 62
     5
 10
904.91086908930004
 20
-185.61830878730001
 30
0.0
 11
906.41086908929981
 21
-185.61830878730001
 31
0.0
  0
LINE
  5
1A6
  8
┌▓È_1
 62
     5
 10
916.91086908929992
 20
-186.61830878730001
 30
0.0
 11
904.91086908930004
 21
-186.61830878730001
 31
0.0
  0
LINE
  5
1A7
  8
┌▓È_1
 62
     5
 10
900.91086908929992
 20
-179.61830878730001
 30
0.0
 11
904.91086908930004
 21
-179.61830878730001
 31
0.0
  0
LINE
  5
1A8
  8
┌▓È_1
 62
     5
 10
890.24903960510005
 20
-251.9557537785
 30
0.0
 11
863.24903960509982
 21
-251.9557537785
 31
0.0
  0
LINE
  5
1A9
  8
┌▓È_1
 62
     5
 10
891.24903960510005
 20
-252.9557537785
 30
0.0
 11
890.24903960510005
 21
-251.9557537785
 31
0.0
  0
ARC
  5
1AA
  8
┌▓È_1
 62
     5
 10
859.24903960509994
 20
-250.30981970139999
 30
0.0
 40
2.0
 50
0.0
 51
68.198590513599996
  0
LINE
  5
1AB
  8
┌▓È_1
 62
     5
 10
853.74903960510005
 20
-313.95575377850002
 30
0.0
 11
859.99182095790002
 21
-311.4586412374
 31
0.0
  0
ARC
  5
1AC
  8
┌▓È_1
 62
     5
 10
851.74903960509982
 20
-315.95575377850002
 30
0.0
 40
2.0
 50
270.0
 51
0.0
  0
ARC
  5
1AD
  8
┌▓È_1
 62
     5
 10
859.24903960509994
 20
-309.60168785560001
 30
0.0
 40
2.0
 50
291.80140948640002
 51
0.0
  0
LINE
  5
1AE
  8
┌▓È_1
 62
     5
 10
861.24903960509994
 20
-309.60168785560001
 30
0.0
 11
861.24903960509994
 21
-309.95575377849991
 31
0.0
  0
LINE
  5
1AF
  8
┌▓È_1
 62
     5
 10
853.74903960510005
 20
-315.95575377850002
 30
0.0
 11
853.74903960510005
 21
-243.9557537785
 31
0.0
  0
LINE
  5
1B0
  8
┌▓È_1
 62
     5
 10
861.24903960509994
 20
-309.60168785560001
 30
0.0
 11
861.24903960509994
 21
-250.30981970139999
 31
0.0
  0
ARC
  5
1B1
  8
┌▓È_1
 62
     5
 10
863.24903960509982
 20
-309.95575377849991
 30
0.0
 40
2.0
 50
90.0
 51
180.0
  0
LINE
  5
1B2
  8
┌▓È_1
 62
     5
 10
853.74903960510005
 20
-245.9557537785
 30
0.0
 11
859.99182095790002
 21
-248.45286631959999
 31
0.0
  0
LINE
  5
1B3
  8
┌▓È_1
 62
     5
 10
891.24903960510005
 20
-306.95575377850002
 30
0.0
 11
891.24903960510005
 21
-252.9557537785
 31
0.0
  0
LINE
  5
1B4
  8
┌▓È_1
 62
     5
 10
890.24903960510005
 20
-307.95575377850002
 30
0.0
 11
890.24903960510005
 21
-251.9557537785
 31
0.0
  0
ARC
  5
1B5
  8
┌▓È_1
 62
     5
 10
851.74903960509982
 20
-243.9557537785
 30
0.0
 40
2.0
 50
0.0
 51
90.0
  0
INSERT
  5
1B6
  8
0
  6
CONTINUOUS
  2
*U39
 10
0.0
 20
0.0
 30
0.0
  0
INSERT
  5
1B7
  8
0
  6
CONTINUOUS
  2
*U40
 10
0.0
 20
0.0
 30
0.0
  0
INSERT
  5
1B8
  8
0
  6
CONTINUOUS
  2
*U41
 10
0.0
 20
0.0
 30
0.0
  0
INSERT
  5
1B9
  8
0
  6
CONTINUOUS
  2
*U42
 10
0.0
 20
0.0
 30
0.0
  0
INSERT
  5
1BA
  8
0
  6
CONTINUOUS
  2
*U43
 10
0.0
 20
0.0
 30
0.0
  0
INSERT
  5
1BB
  8
0
  6
CONTINUOUS
  2
*U44
 10
0.0
 20
0.0
 30
0.0
  0
INSERT
  5
1BC
  8
0
  6
CONTINUOUS
  2
*U45
 10
0.0
 20
0.0
 30
0.0
  0
INSERT
  5
1BD
  8
0
  6
CONTINUOUS
  2
*U46
 10
0.0
 20
0.0
 30
0.0
  0
INSERT
  5
1BE
  8
0
  6
CONTINUOUS
  2
*U47
 10
0.0
 20
0.0
 30
0.0
  0
INSERT
  5
1BF
  8
0
  6
CONTINUOUS
  2
*U48
 10
0.0
 20
0.0
 30
0.0
  0
INSERT
  5
1C0
  8
0
  6
CONTINUOUS
  2
*U49
 10
0.0
 20
0.0
 30
0.0
  0
ARC
  5
1C1
  8
┌▓È_1
 62
     5
 10
697.56014154210004
 20
-78.618423370599999
 30
0.0
 40
2.0
 50
0.0
 51
90.0
  0
ARC
  5
1C2
  8
┌▓È_1
 62
     5
 10
714.56014154210004
 20
-61.618423370600013
 30
0.0
 40
1.0
 50
0.0
 51
90.0
  0
LINE
  5
1C3
  8
┌▓È_1
 62
     5
 10
716.06014154210004
 20
-41.618423370599999
 30
0.0
 11
716.06014154210004
 21
-49.618423370600013
 31
0.0
  0
LINE
  5
1C4
  8
┌▓È_1
 62
     5
 10
714.56014154210004
 20
-60.618423370599999
 30
0.0
 11
700.56014154210004
 21
-74.618423370599999
 31
0.0
  0
LINE
  5
1C5
  8
┌▓È_1
 62
     5
 10
699.56014154210004
 20
-78.618423370599999
 30
0.0
 11
699.56014154210004
 21
-101.1184233706
 31
0.0
  0
LINE
  5
1C6
  8
┌▓È_1
 62
     5
 10
734.56014154210004
 20
-89.118423370599984
 30
0.0
 11
726.56014154210004
 21
-89.118423370599984
 31
0.0
  0
LINE
  5
1C7
  8
┌▓È_1
 62
     5
 10
734.56014154210004
 20
-60.118423370599999
 30
0.0
 11
726.56014154210004
 21
-60.118423370599999
 31
0.0
  0
INSERT
  5
1C8
  8
0
  6
CONTINUOUS
  2
*U50
 10
0.0
 20
0.0
 30
0.0
  0
INSERT
  5
1C9
  8
0
  6
CONTINUOUS
  2
*U51
 10
0.0
 20
0.0
 30
0.0
  0
INSERT
  5
1CA
  8
0
  6
CONTINUOUS
  2
*U52
 10
0.0
 20
0.0
 30
0.0
  0
INSERT
  5
1CB
  8
0
  6
CONTINUOUS
  2
*U53
 10
0.0
 20
0.0
 30
0.0
  0
INSERT
  5
1CC
  8
0
  6
CONTINUOUS
  2
*U54
 10
0.0
 20
0.0
 30
0.0
  0
INSERT
  5
1CD
  8
0
  6
CONTINUOUS
  2
*U55
 10
0.0
 20
0.0
 30
0.0
  0
INSERT
  5
1CE
  8
0
  6
CONTINUOUS
  2
*U56
 10
0.0
 20
0.0
 30
0.0
  0
INSERT
  5
1CF
  8
0
  6
CONTINUOUS
  2
*U57
 10
0.0
 20
0.0
 30
0.0
  0
INSERT
  5
1D0
  8
0
  6
CONTINUOUS
  2
*U58
 10
0.0
 20
0.0
 30
0.0
  0
INSERT
  5
1D1
  8
0
  6
CONTINUOUS
  2
*U59
 10
0.0
 20
0.0
 30
0.0
  0
DIMENSION
  5
1E0
  8
Éíû@É³
  2
*D4
 10
891.24903960510005
 20
-232.59533736610001
 30
0.0
 11
876.24903960509994
 21
-232.59533736610001
 31
0.0
 70
   128
  1
<>
 13
891.24903960510005
 23
-252.9557537785
 33
0.0
 14
861.24903960509994
 24
-258.52450377849999
 34
0.0
  0
DIMENSION
  5
1EF
  8
Éíû@É³
  2
*D5
 10
924.73162059289984
 20
-300.2742633899
 30
0.0
 11
924.73162059289984
 21
-272.2742633899
 31
0.0
 70
   128
 13
904.45832232940006
 23
-300.2742633899
 33
0.0
 14
904.45832232940006
 24
-244.2742633899
 34
0.0
 50
90.0
  0
LINE
  5
1F0
  8
┌▓È_1
 10
863.24903960509982
 20
-251.9557537785
 30
0.0
 11
904.45832232940006
 21
-244.2742633899
 31
0.0
  0
LINE
  5
1F1
  8
┌▓È_1
 10
863.24903960509982
 20
-307.95575377850002
 30
0.0
 11
904.45832232940006
 21
-300.2742633899
 31
0.0
  0
LINE
  5
1F2
  8
┌▓È_1
 62
     5
 10
890.24903960510005
 20
-307.95575377850002
 30
0.0
 11
863.24903960509982
 21
-307.95575377850002
 31
0.0
  0
LINE
  5
1F3
  8
┌▓È_1
 62
     5
 10
890.24903960510005
 20
-307.95575377850002
 30
0.0
 11
891.24903960510005
 21
-306.95575377850002
 31
0.0
  0
LINE
  5
1F4
  8
┌▓È_1
 62
     5
 10
861.24903960509994
 20
-249.9557537785
 30
0.0
 11
861.24903960509994
 21
-250.30981970139999
 31
0.0
  0
ARC
  5
1F5
  8
┌▓È_1
 62
     5
 10
863.24903960509982
 20
-249.9557537785
 30
0.0
 40
2.0
 50
180.0
 51
270.0
  0
LINE
  5
1F6
  8
┌▓È_1
 62
     5
 10
697.56014154210004
 20
-147.1184233706
 30
0.0
 11
701.56014154210004
 21
-147.1184233706
 31
0.0
  0
ARC
  5
1F7
  8
┌▓È_1
 62
     5
 10
697.56014154210004
 20
-145.1184233706
 30
0.0
 40
2.0
 50
180.0
 51
270.0
  0
LINE
  5
1F8
  8
┌▓È_1
 62
     5
 10
728.06014154210004
 20
-122.6184233706
 30
0.0
 11
727.56014154210004
 21
-122.6184233706
 31
0.0
  0
LINE
  5
1F9
  8
┌▓È_1
 62
     5
 10
728.06014154210004
 20
-122.6184233706
 30
0.0
 11
728.06014154210004
 21
-127.6184233706
 31
0.0
  0
LINE
  5
1FA
  8
┌▓È_1
 62
     5
 10
727.56014154210004
 20
-119.1184233706
 30
0.0
 11
727.56014154210004
 21
-131.1184233706
 31
0.0
  0
LINE
  5
1FB
  8
┌▓È_1
 62
     5
 10
728.06014154210004
 20
-127.6184233706
 30
0.0
 11
727.56014154210004
 21
-127.6184233706
 31
0.0
  0
LINE
  5
1FC
  8
┌▓È_1
 62
     5
 10
727.56014154210004
 20
-119.1184233706
 30
0.0
 11
726.56014154210004
 21
-119.1184233706
 31
0.0
  0
LINE
  5
1FD
  8
┌▓È_1
 62
     5
 10
727.56014154210004
 20
-131.1184233706
 30
0.0
 11
726.56014154210004
 21
-131.1184233706
 31
0.0
  0
LINE
  5
1FE
  8
┌▓È_1
 62
     5
 10
734.56014154210004
 20
-132.1184233706
 30
0.0
 11
726.56014154210004
 21
-132.1184233706
 31
0.0
  0
LINE
  5
1FF
  8
┌▓È_1
 62
     5
 10
734.56014154210004
 20
-190.1184233706
 30
0.0
 11
726.56014154210004
 21
-190.1184233706
 31
0.0
  0
LINE
  5
200
  8
┌▓È_1
 62
     5
 10
734.56014154210004
 20
-161.1184233706
 30
0.0
 11
726.56014154210004
 21
-161.1184233706
 31
0.0
  0
LINE
  5
201
  8
┌▓È_1
 62
     5
 10
687.06014154210004
 20
-41.618423370599999
 30
0.0
 11
687.06014154210004
 21
-49.618423370600013
 31
0.0
  0
DIMENSION
  5
210
  8
Éíû@É³
  2
*D6
 10
722.56014154210004
 20
-99.121548529600005
 30
0.0
 11
744.13846109170004
 21
-99.121548529600005
 31
0.0
 70
   128
  1
(5)
 13
722.56014154210004
 23
-94.600715037299992
 33
0.0
 14
717.56014154210004
 24
-94.600715037299992
 34
0.0
  0
CIRCLE
  5
211
  8
┌▓È_1
 62
     5
 10
691.06014154210004
 20
-105.1184233706
 30
0.0
 40
1.0
  0
CIRCLE
  5
212
  8
┌▓È_1
 62
     5
 10
691.06014154210004
 20
-85.118423370599999
 30
0.0
 40
1.0
  0
ARC
  5
213
  8
┌▓È_1
 62
     5
 10
722.56014154210004
 20
-53.618423370599999
 30
0.0
 40
12.0
 50
0.0
 51
90.0
  0
ARC
  5
214
  8
┌▓È_1
 62
     5
 10
714.56014154210004
 20
-61.618423370600013
 30
0.0
 40
3.0
 50
0.0
 51
90.0
  0
ARC
  5
215
  8
┌▓È_1
 62
     5
 10
721.56014154210004
 20
-54.618423370600013
 30
0.0
 40
5.0
 50
0.0
 51
90.0
  0
LINE
  5
216
  8
┌▓È_1
 62
     5
 10
719.56014154210004
 20
-105.1184233706
 30
0.0
 11
718.06014154210004
 21
-105.1184233706
 31
0.0
  0
ARC
  5
217
  8
┌▓È_1
 62
     5
 10
721.56014154210004
 20
-54.618423370600013
 30
0.0
 40
1.0
 50
0.0
 51
90.0
  0
ARC
  5
218
  8
┌▓È_1
 62
     5
 10
721.56014154210004
 20
-54.618423370600013
 30
0.0
 40
3.0
 50
0.0
 51
90.0
  0
LINE
  5
219
  8
┌▓È_1
 62
     5
 10
697.56014154210004
 20
-103.1184233706
 30
0.0
 11
701.56014154210004
 21
-103.1184233706
 31
0.0
  0
ARC
  5
21A
  8
┌▓È_1
 62
     5
 10
697.56014154210004
 20
-105.1184233706
 30
0.0
 40
2.0
 50
90.0
 51
180.0
  0
ARC
  5
21B
  8
┌▓È_1
 62
     5
 10
697.56014154210004
 20
-101.1184233706
 30
0.0
 40
2.0
 50
270.0
 51
0.0
  0
LINE
  5
21C
  8
┌▓È_1
 62
     5
 10
715.56014154210004
 20
-61.618423370600013
 30
0.0
 11
701.56014154210004
 21
-75.618423370599984
 31
0.0
  0
LINE
  5
21D
  8
┌▓È_1
 62
     5
 10
719.56014154210004
 20
-125.1184233706
 30
0.0
 11
719.56014154210004
 21
-135.1184233706
 31
0.0
  0
LINE
  5
21E
  8
┌▓È_1
 62
     5
 10
717.56014154210004
 20
-126.6184233706
 30
0.0
 11
718.06014154210004
 21
-126.6184233706
 31
0.0
  0
LINE
  5
21F
  8
┌▓È_1
 62
     5
 10
720.06014154210004
 20
-122.6184233706
 30
0.0
 11
719.56014154210004
 21
-122.6184233706
 31
0.0
  0
ARC
  5
220
  8
┌▓È_1
 62
     5
 10
721.56014154210004
 20
-195.6184233706
 30
0.0
 40
3.0
 50
270.0
 51
0.0
  0
ARC
  5
221
  8
┌▓È_1
 62
     5
 10
714.56014154210004
 20
-188.6184233706
 30
0.0
 40
3.0
 50
270.0
 51
360.0
  0
ARC
  5
222
  8
┌▓È_1
 62
     5
 10
722.56014154210004
 20
-196.6184233706
 30
0.0
 40
12.0
 50
270.0
 51
0.0
  0
ARC
  5
223
  8
┌▓È_1
 62
     5
 10
721.56014154210004
 20
-195.6184233706
 30
0.0
 40
1.0
 50
270.0
 51
0.0
  0
ARC
  5
224
  8
┌▓È_1
 62
     5
 10
721.56014154210004
 20
-195.6184233706
 30
0.0
 40
5.0
 50
270.0
 51
0.0
  0
ARC
  5
225
  8
┌▓È_1
 62
     5
 10
697.56014154210004
 20
-134.1184233706
 30
0.0
 40
2.0
 50
90.0
 51
180.0
  0
LINE
  5
226
  8
┌▓È_1
 62
     5
 10
699.56014154210004
 20
-120.1184233706
 30
0.0
 11
699.56014154210004
 21
-130.1184233706
 31
0.0
  0
CIRCLE
  5
227
  8
┌▓È_1
 62
     5
 10
707.56014154210004
 20
-125.1184233706
 30
0.0
 40
1.5
  0
ARC
  5
228
  8
┌▓È_1
 62
     5
 10
715.56014154210004
 20
-123.1184233706
 30
0.0
 40
0.5
 50
90.0
 51
180.0
  0
CIRCLE
  5
229
  8
┌▓È_1
 62
     5
 10
707.56014154210004
 20
-125.1184233706
 30
0.0
 40
3.0
  0
LINE
  5
22A
  8
┌▓È_1
 62
     5
 10
715.06014154210004
 20
-123.1184233706
 30
0.0
 11
715.06014154210004
 21
-127.1184233706
 31
0.0
  0
LINE
  5
22B
  8
┌▓È_1
 62
     5
 10
697.56014154210004
 20
-132.1184233706
 30
0.0
 11
701.56014154210004
 21
-132.1184233706
 31
0.0
  0
ARC
  5
22C
  8
┌▓È_1
 62
     5
 10
697.56014154210004
 20
-130.1184233706
 30
0.0
 40
2.0
 50
270.0
 51
0.0
  0
ARC
  5
22D
  8
┌▓È_1
 62
     5
 10
715.56014154210004
 20
-127.1184233706
 30
0.0
 40
0.5
 50
180.0
 51
270.0
  0
LINE
  5
22E
  8
┌▓È_1
 62
     5
 10
715.56014154210004
 20
-188.6184233706
 30
0.0
 11
701.56014154210004
 21
-174.6184233706
 31
0.0
  0
LINE
  5
22F
  8
┌▓È_1
 62
     5
 10
716.06014154210004
 20
-208.6184233706
 30
0.0
 11
716.06014154210004
 21
-200.6184233706
 31
0.0
  0
LINE
  5
230
  8
┌▓È_1
 62
     5
 10
699.56014154210004
 20
-149.1184233706
 30
0.0
 11
699.56014154210004
 21
-171.6184233706
 31
0.0
  0
LINE
  5
231
  8
┌▓È_1
 62
     5
 10
714.56014154210004
 20
-189.6184233706
 30
0.0
 11
700.56014154210004
 21
-175.6184233706
 31
0.0
  0
ARC
  5
232
  8
┌▓È_1
 62
     5
 10
697.56014154210004
 20
-171.6184233706
 30
0.0
 40
2.0
 50
270.0
 51
0.0
  0
ARC
  5
233
  8
┌▓È_1
 62
     5
 10
714.56014154210004
 20
-188.6184233706
 30
0.0
 40
1.0
 50
270.0
 51
0.0
  0
LINE
  5
234
  8
┌▓È_1
 62
     5
 10
695.56014154210004
 20
-134.1184233706
 30
0.0
 11
695.56014154210004
 21
-145.1184233706
 31
0.0
  0
ARC
  5
235
  8
┌▓È_1
 62
     5
 10
697.56014154210004
 20
-149.1184233706
 30
0.0
 40
2.0
 50
0.0
 51
90.0
  0
ARC
  5
236
  8
┌▓È_1
 62
     5
 10
656.06014154210004
 20
-78.618423370599999
 30
0.0
 40
2.0
 50
0.0
 51
90.0
  0
LINE
  5
237
  8
┌▓È_1
 62
     5
 10
658.06014154210004
 20
-78.618423370599999
 30
0.0
 11
658.06014154210004
 21
-74.618423370599999
 31
0.0
  0
LINE
  5
238
  8
┌▓È_1
 62
     5
 10
658.06014154210004
 20
-41.618423370599999
 30
0.0
 11
658.06014154210004
 21
-49.618423370600013
 31
0.0
  0
LINE
  5
239
  8
┌▓È_1
 62
     5
 10
658.06014154210004
 20
-78.618423370599999
 30
0.0
 11
658.06014154210004
 21
-78.618423370599999
 31
0.0
  0
LINE
  5
23A
  8
┌▓È_1
 62
     5
 10
653.56014154210004
 20
-48.118423370599999
 30
0.0
 11
653.56014154210004
 21
-48.618423370599999
 31
0.0
  0
INSERT
  5
23C
  8
Éíû@É³
  2
BALLON0
 10
0.0
 20
0.0
 30
0.0
  0
LINE
  5
245
  8
┌▓È_1
 62
     5
 10
687.06014154210004
 20
-208.6184233706
 30
0.0
 11
687.06014154210004
 21
-200.6184233706
 31
0.0
  0
ARC
  5
246
  8
┌▓È_1
 62
     5
 10
697.56014154210004
 20
-116.1184233706
 30
0.0
 40
2.0
 50
180.0
 51
270.0
  0
ARC
  5
247
  8
┌▓È_1
 62
     5
 10
697.56014154210004
 20
-120.1184233706
 30
0.0
 40
2.0
 50
0.0
 51
90.0
  0
LINE
  5
248
  8
┌▓È_1
 62
     5
 10
697.56014154210004
 20
-118.1184233706
 30
0.0
 11
701.56014154210004
 21
-118.1184233706
 31
0.0
  0
LINE
  5
249
  8
┌▓È_1
 62
     5
 10
734.56014154210004
 20
-118.1184233706
 30
0.0
 11
726.56014154210004
 21
-118.1184233706
 31
0.0
  0
CIRCLE
  5
24A
  8
┌▓È_1
 62
     5
 10
691.06014154210004
 20
-125.1184233706
 30
0.0
 40
1.0
  0
CIRCLE
  5
24B
  8
┌▓È_1
 62
     5
 10
691.06014154210004
 20
-165.1184233706
 30
0.0
 40
1.0
  0
CIRCLE
  5
24C
  8
┌▓È_1
 62
     5
 10
691.06014154210004
 20
-145.1184233706
 30
0.0
 40
1.0
  0
LINE
  5
24D
  8
┌▓È_1
 62
     5
 10
721.06014154210004
 20
-135.1184233706
 30
0.0
 11
721.06014154210004
 21
-136.6184233706
 31
0.0
  0
LINE
  5
24E
  8
┌▓È_1
 62
     5
 10
718.06014154210004
 20
-135.1184233706
 30
0.0
 11
718.06014154210004
 21
-134.6184233706
 31
0.0
  0
LINE
  5
24F
  8
┌▓È_1
 62
     5
 10
720.06014154210004
 20
-127.6184233706
 30
0.0
 11
720.06014154210004
 21
-122.6184233706
 31
0.0
  0
LINE
  5
250
  8
┌▓È_1
 62
     5
 10
721.06014154210004
 20
-136.6184233706
 30
0.0
 11
719.56014154210004
 21
-136.6184233706
 31
0.0
  0
LINE
  5
251
  8
┌▓È_1
 62
     5
 10
718.56014154210004
 20
-131.6184233706
 30
0.0
 11
717.56014154210004
 21
-131.6184233706
 31
0.0
  0
LINE
  5
252
  8
┌▓È_1
 62
     5
 10
720.06014154210004
 20
-127.6184233706
 30
0.0
 11
719.56014154210004
 21
-127.6184233706
 31
0.0
  0
LINE
  5
253
  8
┌▓È_1
 62
     5
 10
718.56014154210004
 20
-134.6184233706
 30
0.0
 11
718.56014154210004
 21
-131.6184233706
 31
0.0
  0
LINE
  5
254
  8
┌▓È_1
 62
     5
 10
717.56014154210004
 20
-134.6184233706
 30
0.0
 11
718.56014154210004
 21
-134.6184233706
 31
0.0
  0
LINE
  5
255
  8
┌▓È_1
 62
     5
 10
717.56014154210004
 20
-123.6184233706
 30
0.0
 11
718.06014154210004
 21
-123.6184233706
 31
0.0
  0
ARC
  5
256
  8
┌▓È_1
 62
     5
 10
719.56014154210004
 20
-135.1184233706
 30
0.0
 40
1.5
 50
180.0
 51
270.0
  0
LINE
  5
257
  8
┌▓È_1
 62
     5
 10
719.56014154210004
 20
-135.1184233706
 30
0.0
 11
721.06014154210004
 21
-135.1184233706
 31
0.0
  0
ARC
  5
258
  8
┌▓È_1
 62
     5
 10
604.56014154210004
 20
-105.1184233706
 30
0.0
 40
2.0
 50
0.0
 51
90.0
  0
CIRCLE
  5
259
  8
┌▓È_1
 62
     5
 10
611.06014154210004
 20
-105.1184233706
 30
0.0
 40
1.0
  0
LINE
  5
25A
  8
┌▓È_1
 62
     5
 10
604.56014154210004
 20
-103.1184233706
 30
0.0
 11
600.56014154210004
 21
-103.1184233706
 31
0.0
  0
LINE
  5
25B
  8
┌▓È_1
 62
     5
 10
582.56014154210004
 20
-105.1184233706
 30
0.0
 11
584.06014154210004
 21
-105.1184233706
 31
0.0
  0
LINE
  5
25C
  8
┌▓È_1
 62
     5
 10
645.06014154210004
 20
-48.618423370599999
 30
0.0
 11
645.06014154210004
 21
-49.618423370600013
 31
0.0
  0
ARC
  5
25D
  8
┌▓È_1
 62
     5
 10
646.06014154210004
 20
-78.618423370599999
 30
0.0
 40
2.0
 50
90.0
 51
180.0
  0
LINE
  5
25E
  8
┌▓È_1
 62
     5
 10
645.06014154210004
 20
-48.618423370599999
 30
0.0
 11
657.06014154210004
 21
-48.618423370599999
 31
0.0
  0
LINE
  5
25F
  8
┌▓È_1
 62
     5
 10
660.06014154210004
 20
-80.618423370599984
 30
0.0
 11
671.06014154210004
 21
-80.618423370599984
 31
0.0
  0
LINE
  5
260
  8
┌▓È_1
 62
     5
 10
648.56014154210004
 20
-48.118423370599999
 30
0.0
 11
648.56014154210004
 21
-48.618423370599999
 31
0.0
  0
LINE
  5
261
  8
┌▓È_1
 62
     5
 10
657.06014154210004
 20
-48.618423370599999
 30
0.0
 11
657.06014154210004
 21
-49.618423370600013
 31
0.0
  0
LINE
  5
262
  8
┌▓È_1
 62
     5
 10
648.56014154210004
 20
-48.118423370599999
 30
0.0
 11
653.56014154210004
 21
-48.118423370599999
 31
0.0
  0
CIRCLE
  5
263
  8
┌▓È_1
 62
     5
 10
651.06014154210004
 20
-105.1184233706
 30
0.0
 40
1.0
  0
CIRCLE
  5
264
  8
┌▓È_1
 62
     5
 10
671.06014154210004
 20
-85.118423370599999
 30
0.0
 40
1.0
  0
ARC
  5
265
  8
┌▓È_1
 62
     5
 10
671.06014154210004
 20
-78.618423370599999
 30
0.0
 40
2.0
 50
270.0
 51
0.0
  0
ARC
  5
266
  8
┌▓È_1
 62
     5
 10
642.06014154210004
 20
-78.618423370599999
 30
0.0
 40
2.0
 50
270.0
 51
0.0
  0
LINE
  5
267
  8
┌▓È_1
 62
     5
 10
673.06014154210004
 20
-78.618423370599999
 30
0.0
 11
673.06014154210004
 21
-74.618423370599999
 31
0.0
  0
ARC
  5
268
  8
┌▓È_1
 62
     5
 10
675.06014154210004
 20
-78.618423370599999
 30
0.0
 40
2.0
 50
90.0
 51
180.0
  0
LINE
  5
269
  8
┌▓È_1
 62
     5
 10
644.06014154210004
 20
-41.618423370599999
 30
0.0
 11
644.06014154210004
 21
-49.618423370600013
 31
0.0
  0
LINE
  5
26A
  8
┌▓È_1
 62
     5
 10
644.06014154210004
 20
-78.618423370599999
 30
0.0
 11
644.06014154210004
 21
-74.618423370599999
 31
0.0
  0
CIRCLE
  5
26B
  8
┌▓È_1
 62
     5
 10
651.06014154210004
 20
-85.118423370599999
 30
0.0
 40
1.0
  0
LINE
  5
26C
  8
┌▓È_1
 62
     5
 10
646.06014154210004
 20
-76.618423370599999
 30
0.0
 11
656.06014154210004
 21
-76.618423370599999
 31
0.0
  0
CIRCLE
  5
26D
  8
┌▓È_1
 62
     5
 10
651.06014154210004
 20
-68.618423370599999
 30
0.0
 40
1.5
  0
CIRCLE
  5
26E
  8
┌▓È_1
 62
     5
 10
651.06014154210004
 20
-68.618423370599999
 30
0.0
 40
3.0
  0
CIRCLE
  5
26F
  8
┌▓È_1
 62
     5
 10
671.06014154210004
 20
-105.1184233706
 30
0.0
 40
1.0
  0
ARC
  5
270
  8
┌▓È_1
 62
     5
 10
660.06014154210004
 20
-78.618423370599999
 30
0.0
 40
2.0
 50
180.0
 51
270.0
  0
CIRCLE
  5
271
  8
┌▓È_1
 62
     5
 10
651.06014154210004
 20
-145.1184233706
 30
0.0
 40
1.0
  0
CIRCLE
  5
272
  8
┌▓È_1
 62
     5
 10
671.06014154210004
 20
-145.1184233706
 30
0.0
 40
1.0
  0
ARC
  5
273
  8
┌▓È_1
 62
     5
 10
627.06014154210004
 20
-78.618423370599999
 30
0.0
 40
2.0
 50
0.0
 51
90.0
  0
LINE
  5
274
  8
┌▓È_1
 62
     5
 10
604.56014154210004
 20
-76.618423370599999
 30
0.0
 11
627.06014154210004
 21
-76.618423370599999
 31
0.0
  0
LINE
  5
275
  8
┌▓È_1
 62
     5
 10
642.06014154210004
 20
-80.618423370599984
 30
0.0
 11
631.06014154210004
 21
-80.618423370599984
 31
0.0
  0
ARC
  5
276
  8
┌▓È_1
 62
     5
 10
631.06014154210004
 20
-78.618423370599999
 30
0.0
 40
2.0
 50
180.0
 51
270.0
  0
LINE
  5
277
  8
┌▓È_1
 62
     5
 10
629.06014154210004
 20
-78.618423370599999
 30
0.0
 11
629.06014154210004
 21
-74.618423370599999
 31
0.0
  0
CIRCLE
  5
278
  8
┌▓È_1
 62
     5
 10
631.06014154210004
 20
-105.1184233706
 30
0.0
 40
1.0
  0
CIRCLE
  5
279
  8
┌▓È_1
 62
     5
 10
631.06014154210004
 20
-85.118423370599999
 30
0.0
 40
1.0
  0
ARC
  5
27A
  8
┌▓È_1
 62
     5
 10
580.56014154210004
 20
-54.618423370600013
 30
0.0
 40
1.0
 50
90.0
 51
180.0
  0
ARC
  5
27B
  8
┌▓È_1
 62
     5
 10
580.56014154210004
 20
-54.618423370600013
 30
0.0
 40
3.0
 50
90.0
 51
180.0
  0
LINE
  5
27C
  8
┌▓È_1
 62
     5
 10
586.06014154210004
 20
-41.618423370599999
 30
0.0
 11
586.06014154210004
 21
-49.618423370600013
 31
0.0
  0
ARC
  5
27D
  8
┌▓È_1
 62
     5
 10
579.56014154210004
 20
-53.618423370599999
 30
0.0
 40
12.0
 50
90.0
 51
180.0
  0
LINE
  5
27E
  8
┌▓È_1
 62
     5
 10
615.06014154210004
 20
-41.618423370599999
 30
0.0
 11
615.06014154210004
 21
-49.618423370600013
 31
0.0
  0
LINE
  5
27F
  8
┌▓È_1
 62
     5
 10
567.56014154210004
 20
-60.118423370599999
 30
0.0
 11
575.56014154210004
 21
-60.118423370599999
 31
0.0
  0
LINE
  5
280
  8
┌▓È_1
 62
     5
 10
586.56014154210004
 20
-61.618423370600013
 30
0.0
 11
600.56014154210004
 21
-75.618423370599984
 31
0.0
  0
ARC
  5
281
  8
┌▓È_1
 62
     5
 10
587.56014154210004
 20
-61.618423370600013
 30
0.0
 40
1.0
 50
90.0
 51
180.0
  0
ARC
  5
282
  8
┌▓È_1
 62
     5
 10
587.56014154210004
 20
-61.618423370600013
 30
0.0
 40
3.0
 50
90.0
 51
180.0
  0
ARC
  5
283
  8
┌▓È_1
 62
     5
 10
604.56014154210004
 20
-78.618423370599999
 30
0.0
 40
2.0
 50
90.0
 51
180.0
  0
CIRCLE
  5
284
  8
┌▓È_1
 62
     5
 10
611.06014154210004
 20
-85.118423370599999
 30
0.0
 40
1.0
  0
ARC
  5
285
  8
┌▓È_1
 62
     5
 10
580.56014154210004
 20
-54.618423370600013
 30
0.0
 40
5.0
 50
90.0
 51
180.0
  0
LINE
  5
286
  8
┌▓È_1
 62
     5
 10
567.56014154210004
 20
-89.118423370599984
 30
0.0
 11
575.56014154210004
 21
-89.118423370599984
 31
0.0
  0
LINE
  5
287
  8
┌▓È_1
 62
     5
 10
587.56014154210004
 20
-60.618423370599999
 30
0.0
 11
601.56014154210004
 21
-74.618423370599999
 31
0.0
  0
ARC
  5
288
  8
┌▓È_1
 62
     5
 10
604.56014154210004
 20
-101.1184233706
 30
0.0
 40
2.0
 50
180.0
 51
270.0
  0
LINE
  5
289
  8
┌▓È_1
 62
     5
 10
602.56014154210004
 20
-101.1184233706
 30
0.0
 11
602.56014154210004
 21
-78.618423370599999
 31
0.0
  0
LINE
  5
28A
  8
┌▓È_1
 62
     5
 10
644.06014154210004
 20
-171.6184233706
 30
0.0
 11
644.06014154210004
 21
-175.6184233706
 31
0.0
  0
LINE
  5
28B
  8
┌▓È_1
 62
     5
 10
658.06014154210004
 20
-171.6184233706
 30
0.0
 11
658.06014154210004
 21
-175.6184233706
 31
0.0
  0
CIRCLE
  5
28C
  8
┌▓È_1
 62
     5
 10
651.06014154210004
 20
-165.1184233706
 30
0.0
 40
1.0
  0
LINE
  5
28D
  8
┌▓È_1
 62
     5
 10
657.06014154210004
 20
-201.6184233706
 30
0.0
 11
645.06014154210004
 21
-201.6184233706
 31
0.0
  0
LINE
  5
28E
  8
┌▓È_1
 62
     5
 10
657.06014154210004
 20
-201.6184233706
 30
0.0
 11
657.06014154210004
 21
-200.6184233706
 31
0.0
  0
LINE
  5
28F
  8
┌▓È_1
 62
     5
 10
648.56014154210004
 20
-202.1184233706
 30
0.0
 11
648.56014154210004
 21
-201.6184233706
 31
0.0
  0
LINE
  5
290
  8
┌▓È_1
 62
     5
 10
673.06014154210004
 20
-171.6184233706
 30
0.0
 11
673.06014154210004
 21
-175.6184233706
 31
0.0
  0
CIRCLE
  5
291
  8
┌▓È_1
 62
     5
 10
671.06014154210004
 20
-165.1184233706
 30
0.0
 40
1.0
  0
ARC
  5
292
  8
┌▓È_1
 62
     5
 10
671.06014154210004
 20
-171.6184233706
 30
0.0
 40
2.0
 50
0.0
 51
90.0
  0
ARC
  5
293
  8
┌▓È_1
 62
     5
 10
642.06014154210004
 20
-171.6184233706
 30
0.0
 40
2.0
 50
0.0
 51
90.0
  0
LINE
  5
294
  8
┌▓È_1
 62
     5
 10
653.56014154210004
 20
-202.1184233706
 30
0.0
 11
648.56014154210004
 21
-202.1184233706
 31
0.0
  0
LINE
  5
295
  8
┌▓È_1
 62
     5
 10
658.06014154210004
 20
-208.6184233706
 30
0.0
 11
658.06014154210004
 21
-200.6184233706
 31
0.0
  0
LINE
  5
296
  8
┌▓È_1
 62
     5
 10
644.06014154210004
 20
-208.6184233706
 30
0.0
 11
644.06014154210004
 21
-200.6184233706
 31
0.0
  0
LINE
  5
297
  8
┌▓È_1
 62
     5
 10
673.06014154210004
 20
-171.6184233706
 30
0.0
 11
673.06014154210004
 21
-171.6184233706
 31
0.0
  0
ARC
  5
298
  8
┌▓È_1
 62
     5
 10
675.06014154210004
 20
-171.6184233706
 30
0.0
 40
2.0
 50
180.0
 51
270.0
  0
LINE
  5
299
  8
┌▓È_1
 62
     5
 10
644.06014154210004
 20
-171.6184233706
 30
0.0
 11
644.06014154210004
 21
-171.6184233706
 31
0.0
  0
ARC
  5
29A
  8
┌▓È_1
 62
     5
 10
656.06014154210004
 20
-171.6184233706
 30
0.0
 40
2.0
 50
270.0
 51
0.0
  0
ARC
  5
29B
  8
┌▓È_1
 62
     5
 10
660.06014154210004
 20
-171.6184233706
 30
0.0
 40
2.0
 50
90.0
 51
180.0
  0
LINE
  5
29C
  8
┌▓È_1
 62
     5
 10
660.06014154210004
 20
-169.6184233706
 30
0.0
 11
671.06014154210004
 21
-169.6184233706
 31
0.0
  0
CIRCLE
  5
29D
  8
┌▓È_1
 62
     5
 10
651.06014154210004
 20
-181.6184233706
 30
0.0
 40
1.5
  0
LINE
  5
29E
  8
┌▓È_1
 62
     5
 10
656.06014154210004
 20
-173.6184233706
 30
0.0
 11
646.06014154210004
 21
-173.6184233706
 31
0.0
  0
CIRCLE
  5
29F
  8
┌▓È_1
 62
     5
 10
651.06014154210004
 20
-181.6184233706
 30
0.0
 40
3.0
  0
LINE
  5
2A0
  8
┌▓È_1
 62
     5
 10
645.06014154210004
 20
-201.6184233706
 30
0.0
 11
645.06014154210004
 21
-200.6184233706
 31
0.0
  0
LINE
  5
2A1
  8
┌▓È_1
 62
     5
 10
653.56014154210004
 20
-202.1184233706
 30
0.0
 11
653.56014154210004
 21
-201.6184233706
 31
0.0
  0
LINE
  5
2A2
  8
┌▓È_1
 62
     5
 10
658.06014154210004
 20
-171.6184233706
 30
0.0
 11
658.06014154210004
 21
-171.6184233706
 31
0.0
  0
LINE
  5
2A3
  8
┌▓È_1
 62
     5
 10
586.56014154210004
 20
-188.6184233706
 30
0.0
 11
600.56014154210004
 21
-174.6184233706
 31
0.0
  0
ARC
  5
2A4
  8
┌▓È_1
 62
     5
 10
587.56014154210004
 20
-188.6184233706
 30
0.0
 40
3.0
 50
180.0
 51
270.0
  0
ARC
  5
2A5
  8
┌▓È_1
 62
     5
 10
580.56014154210004
 20
-195.6184233706
 30
0.0
 40
3.0
 50
180.0
 51
270.0
  0
CIRCLE
  5
2A6
  8
┌▓È_1
 62
     5
 10
611.06014154210004
 20
-165.1184233706
 30
0.0
 40
1.0
  0
ARC
  5
2A7
  8
┌▓È_1
 62
     5
 10
580.56014154210004
 20
-195.6184233706
 30
0.0
 40
5.0
 50
180.0
 51
270.0
  0
LINE
  5
2A8
  8
┌▓È_1
 62
     5
 10
587.56014154210004
 20
-189.6184233706
 30
0.0
 11
601.56014154210004
 21
-175.6184233706
 31
0.0
  0
LINE
  5
2A9
  8
┌▓È_1
 62
     5
 10
602.56014154210004
 20
-171.6184233706
 30
0.0
 11
602.56014154210004
 21
-149.1184233706
 31
0.0
  0
ARC
  5
2AA
  8
┌▓È_1
 62
     5
 10
587.56014154210004
 20
-188.6184233706
 30
0.0
 40
1.0
 50
180.0
 51
270.0
  0
ARC
  5
2AB
  8
┌▓È_1
 62
     5
 10
580.56014154210004
 20
-195.6184233706
 30
0.0
 40
1.0
 50
180.0
 51
270.0
  0
ARC
  5
2AC
  8
┌▓È_1
 62
     5
 10
579.56014154210004
 20
-196.6184233706
 30
0.0
 40
12.0
 50
180.0
 51
270.0
  0
LINE
  5
2AD
  8
┌▓È_1
 62
     5
 10
586.06014154210004
 20
-208.6184233706
 30
0.0
 11
586.06014154210004
 21
-200.6184233706
 31
0.0
  0
LINE
  5
2AE
  8
┌▓È_1
 62
     5
 10
615.06014154210004
 20
-208.6184233706
 30
0.0
 11
615.06014154210004
 21
-200.6184233706
 31
0.0
  0
LINE
  5
2AF
  8
┌▓È_1
 62
     5
 10
567.56014154210004
 20
-161.1184233706
 30
0.0
 11
575.56014154210004
 21
-161.1184233706
 31
0.0
  0
ARC
  5
2B0
  8
┌▓È_1
 62
     5
 10
604.56014154210004
 20
-171.6184233706
 30
0.0
 40
2.0
 50
180.0
 51
270.0
  0
LINE
  5
2B1
  8
┌▓È_1
 62
     5
 10
606.56014154210004
 20
-134.1184233706
 30
0.0
 11
606.56014154210004
 21
-145.1184233706
 31
0.0
  0
ARC
  5
2B2
  8
┌▓È_1
 62
     5
 10
604.56014154210004
 20
-149.1184233706
 30
0.0
 40
2.0
 50
90.0
 51
180.0
  0
LINE
  5
2B3
  8
┌▓È_1
 62
     5
 10
604.56014154210004
 20
-147.1184233706
 30
0.0
 11
600.56014154210004
 21
-147.1184233706
 31
0.0
  0
CIRCLE
  5
2B4
  8
┌▓È_1
 62
     5
 10
611.06014154210004
 20
-145.1184233706
 30
0.0
 40
1.0
  0
ARC
  5
2B5
  8
┌▓È_1
 62
     5
 10
604.56014154210004
 20
-145.1184233706
 30
0.0
 40
2.0
 50
270.0
 51
0.0
  0
LINE
  5
2B6
  8
┌▓È_1
 62
     5
 10
656.06014154210004
 20
-120.1184233706
 30
0.0
 11
646.06014154210004
 21
-120.1184233706
 31
0.0
  0
LINE
  5
2B7
  8
┌▓È_1
 62
     5
 10
646.06014154210004
 20
-130.1184233706
 30
0.0
 11
656.06014154210004
 21
-130.1184233706
 31
0.0
  0
LINE
  5
2B8
  8
┌▓È_1
 62
     5
 10
656.06014154210004
 20
-130.1184233706
 30
0.0
 11
656.06014154210004
 21
-120.1184233706
 31
0.0
  0
CIRCLE
  5
2B9
  8
┌▓È_1
 62
     5
 10
671.06014154210004
 20
-125.1184233706
 30
0.0
 40
1.0
  0
LINE
  5
2BA
  8
┌▓È_1
 62
     5
 10
646.06014154210004
 20
-120.1184233706
 30
0.0
 11
646.06014154210004
 21
-130.1184233706
 31
0.0
  0
ARC
  5
2BB
  8
┌▓È_1
 62
     5
 10
646.06014154210004
 20
-171.6184233706
 30
0.0
 40
2.0
 50
180.0
 51
270.0
  0
LINE
  5
2BC
  8
┌▓È_1
 62
     5
 10
584.56014154210004
 20
-126.6184233706
 30
0.0
 11
584.06014154210004
 21
-126.6184233706
 31
0.0
  0
LINE
  5
2BD
  8
┌▓È_1
 62
     5
 10
582.06014154210004
 20
-122.6184233706
 30
0.0
 11
582.56014154210004
 21
-122.6184233706
 31
0.0
  0
ARC
  5
2BE
  8
┌▓È_1
 62
     5
 10
586.56014154210004
 20
-123.1184233706
 30
0.0
 40
0.5
 50
0.0
 51
90.0
  0
LINE
  5
2BF
  8
┌▓È_1
 62
     5
 10
587.06014154210004
 20
-123.1184233706
 30
0.0
 11
587.06014154210004
 21
-127.1184233706
 31
0.0
  0
LINE
  5
2C0
  8
┌▓È_1
 62
     5
 10
574.06014154210004
 20
-127.6184233706
 30
0.0
 11
574.06014154210004
 21
-122.6184233706
 31
0.0
  0
LINE
  5
2C1
  8
┌▓È_1
 62
     5
 10
582.56014154210004
 20
-135.1184233706
 30
0.0
 11
581.06014154210004
 21
-135.1184233706
 31
0.0
  0
ARC
  5
2C2
  8
┌▓È_1
 62
     5
 10
604.56014154210004
 20
-134.1184233706
 30
0.0
 40
2.0
 50
0.0
 51
90.0
  0
LINE
  5
2C3
  8
┌▓È_1
 62
     5
 10
584.06014154210004
 20
-135.1184233706
 30
0.0
 11
584.06014154210004
 21
-134.6184233706
 31
0.0
  0
LINE
  5
2C4
  8
┌▓È_1
 62
     5
 10
584.56014154210004
 20
-134.6184233706
 30
0.0
 11
583.56014154210004
 21
-134.6184233706
 31
0.0
  0
LINE
  5
2C5
  8
┌▓È_1
 62
     5
 10
583.56014154210004
 20
-134.6184233706
 30
0.0
 11
583.56014154210004
 21
-131.6184233706
 31
0.0
  0
ARC
  5
2C6
  8
┌▓È_1
 62
     5
 10
586.56014154210004
 20
-127.1184233706
 30
0.0
 40
0.5
 50
270.0
 51
0.0
  0
ARC
  5
2C7
  8
┌▓È_1
 62
     5
 10
582.56014154210004
 20
-135.1184233706
 30
0.0
 40
1.5
 50
270.0
 51
0.0
  0
LINE
  5
2C8
  8
┌▓È_1
 62
     5
 10
582.06014154210004
 20
-127.6184233706
 30
0.0
 11
582.06014154210004
 21
-122.6184233706
 31
0.0
  0
LINE
  5
2C9
  8
┌▓È_1
 62
     5
 10
574.56014154210004
 20
-131.1184233706
 30
0.0
 11
574.56014154210004
 21
-119.1184233706
 31
0.0
  0
LINE
  5
2CA
  8
┌▓È_1
 62
     5
 10
574.06014154210004
 20
-127.6184233706
 30
0.0
 11
574.56014154210004
 21
-127.6184233706
 31
0.0
  0
LINE
  5
2CB
  8
┌▓È_1
 62
     5
 10
574.56014154210004
 20
-131.1184233706
 30
0.0
 11
575.56014154210004
 21
-131.1184233706
 31
0.0
  0
LINE
  5
2CC
  8
┌▓È_1
 62
     5
 10
574.56014154210004
 20
-119.1184233706
 30
0.0
 11
575.56014154210004
 21
-119.1184233706
 31
0.0
  0
LINE
  5
2CD
  8
┌▓È_1
 62
     5
 10
581.06014154210004
 20
-135.1184233706
 30
0.0
 11
581.06014154210004
 21
-136.6184233706
 31
0.0
  0
LINE
  5
2CE
  8
┌▓È_1
 62
     5
 10
582.06014154210004
 20
-127.6184233706
 30
0.0
 11
582.56014154210004
 21
-127.6184233706
 31
0.0
  0
LINE
  5
2CF
  8
┌▓È_1
 62
     5
 10
583.56014154210004
 20
-131.6184233706
 30
0.0
 11
584.56014154210004
 21
-131.6184233706
 31
0.0
  0
LINE
  5
2D0
  8
┌▓È_1
 62
     5
 10
584.56014154210004
 20
-123.6184233706
 30
0.0
 11
584.06014154210004
 21
-123.6184233706
 31
0.0
  0
LINE
  5
2D1
  8
┌▓È_1
 62
     5
 10
581.06014154210004
 20
-136.6184233706
 30
0.0
 11
582.56014154210004
 21
-136.6184233706
 31
0.0
  0
LINE
  5
2D2
  8
┌▓È_1
 62
     5
 10
567.56014154210004
 20
-132.1184233706
 30
0.0
 11
575.56014154210004
 21
-132.1184233706
 31
0.0
  0
LINE
  5
2D3
  8
┌▓È_1
 62
     5
 10
574.06014154210004
 20
-122.6184233706
 30
0.0
 11
574.56014154210004
 21
-122.6184233706
 31
0.0
  0
LINE
  5
2D4
  8
┌▓È_1
 62
     5
 10
567.56014154210004
 20
-190.1184233706
 30
0.0
 11
575.56014154210004
 21
-190.1184233706
 31
0.0
  0
LINE
  5
2D5
  8
┌▓È_1
 62
     5
 10
734.56014154210004
 20
-266.37570099070001
 30
0.0
 11
734.56014154210004
 21
-284.37570099070001
 31
0.0
  0
LINE
  5
2D6
  8
┌▓È_1
 62
     5
 10
726.06014154210004
 20
-288.87570099070001
 30
0.0
 11
734.56014154210004
 21
-284.37570099070001
 31
0.0
  0
LINE
  5
2D7
  8
┌▓È_1
 62
     5
 10
726.06014154210004
 20
-288.87570099070001
 30
0.0
 11
726.06014154210004
 21
-284.37570099070001
 31
0.0
  0
LINE
  5
2D8
  8
┌▓È_1
 62
     5
 10
821.24903960509982
 20
-317.95575377850002
 30
0.0
 11
821.24903960509982
 21
-241.9557537785
 31
0.0
  0
LINE
  5
2D9
  8
┌▓È_1
 62
     5
 10
821.24903960509982
 20
-315.45575377850002
 30
0.0
 11
821.24903960509982
 21
-244.4557537785
 31
0.0
  0
ARC
  5
2DA
  8
┌▓È_1
 62
     5
 10
604.56014154210004
 20
-116.1184233706
 30
0.0
 40
2.0
 50
270.0
 51
0.0
  0
LINE
  5
2DB
  8
┌▓È_1
 62
     5
 10
604.56014154210004
 20
-118.1184233706
 30
0.0
 11
600.56014154210004
 21
-118.1184233706
 31
0.0
  0
LINE
  5
2DC
  8
┌▓È_1
 62
     5
 10
567.56014154210004
 20
-118.1184233706
 30
0.0
 11
575.56014154210004
 21
-118.1184233706
 31
0.0
  0
ARC
  5
2DD
  8
┌▓È_1
 62
     5
 10
604.56014154210004
 20
-120.1184233706
 30
0.0
 40
2.0
 50
90.0
 51
180.0
  0
CIRCLE
  5
2DE
  8
┌▓È_1
 62
     5
 10
631.06014154210004
 20
-125.1184233706
 30
0.0
 40
1.0
  0
LINE
  5
2DF
  8
┌▓È_1
 62
     5
 10
629.06014154210004
 20
-171.6184233706
 30
0.0
 11
629.06014154210004
 21
-175.6184233706
 31
0.0
  0
LINE
  5
2E0
  8
┌▓È_1
 62
     5
 10
629.06014154210004
 20
-171.6184233706
 30
0.0
 11
629.06014154210004
 21
-171.6184233706
 31
0.0
  0
ARC
  5
2E1
  8
┌▓È_1
 62
     5
 10
631.06014154210004
 20
-171.6184233706
 30
0.0
 40
2.0
 50
90.0
 51
180.0
  0
LINE
  5
2E2
  8
┌▓È_1
 62
     5
 10
642.06014154210004
 20
-169.6184233706
 30
0.0
 11
631.06014154210004
 21
-169.6184233706
 31
0.0
  0
CIRCLE
  5
2E3
  8
┌▓È_1
 62
     5
 10
631.06014154210004
 20
-165.1184233706
 30
0.0
 40
1.0
  0
LINE
  5
2E4
  8
┌▓È_1
 62
     5
 10
627.06014154210004
 20
-173.6184233706
 30
0.0
 11
604.56014154210004
 21
-173.6184233706
 31
0.0
  0
ARC
  5
2E5
  8
┌▓È_1
 62
     5
 10
627.06014154210004
 20
-171.6184233706
 30
0.0
 40
2.0
 50
270.0
 51
0.0
  0
CIRCLE
  5
2E6
  8
┌▓È_1
 62
     5
 10
631.06014154210004
 20
-145.1184233706
 30
0.0
 40
1.0
  0
LINE
  5
2E7
  8
┌▓È_1
 62
     5
 10
582.56014154210004
 20
-125.1184233706
 30
0.0
 11
582.56014154210004
 21
-135.1184233706
 31
0.0
  0
LINE
  5
2E8
  8
┌▓È_1
 62
     5
 10
602.56014154210004
 20
-130.1184233706
 30
0.0
 11
602.56014154210004
 21
-120.1184233706
 31
0.0
  0
CIRCLE
  5
2E9
  8
┌▓È_1
 62
     5
 10
611.06014154210004
 20
-125.1184233706
 30
0.0
 40
1.0
  0
CIRCLE
  5
2EA
  8
┌▓È_1
 62
     5
 10
594.56014154210004
 20
-125.1184233706
 30
0.0
 40
3.0
  0
CIRCLE
  5
2EB
  8
┌▓È_1
 62
     5
 10
594.56014154210004
 20
-125.1184233706
 30
0.0
 40
1.5
  0
ARC
  5
2EC
  8
┌▓È_1
 62
     5
 10
604.56014154210004
 20
-130.1184233706
 30
0.0
 40
2.0
 50
180.0
 51
270.0
  0
LINE
  5
2ED
  8
┌▓È_1
 62
     5
 10
604.56014154210004
 20
-132.1184233706
 30
0.0
 11
600.56014154210004
 21
-132.1184233706
 31
0.0
  0
LINE
  5
2EE
  8
┌▓È_1
 62
     5
 10
687.06014154210004
 20
-284.37570099070001
 30
0.0
 11
687.06014154210004
 21
-314.37570099070001
 31
0.0
  0
LINE
  5
2EF
  8
┌▓È_1
 62
     5
 10
685.06014154210004
 20
-314.37570099070001
 30
0.0
 11
685.06014154210004
 21
-284.37570099070001
 31
0.0
  0
DIMENSION
  5
2FE
  8
Éíû@É³
  2
*D8
 10
749.62941262979984
 20
-258.37570099070001
 30
0.0
 11
749.62941262979984
 21
-252.12570099070001
 31
0.0
 70
   128
  1
<>
 13
726.56014154210004
 23
-258.37570099070001
 33
0.0
 14
724.56014154210004
 24
-245.87570099070001
 34
0.0
 50
90.0
  0
LINE
  5
2FF
  8
┌▓È_1
 62
     5
 10
716.06014154210004
 20
-266.37570099070001
 30
0.0
 11
734.56014154210004
 21
-266.37570099070001
 31
0.0
  0
LINE
  5
300
  8
┌▓È_1
 62
     5
 10
726.06014154210004
 20
-288.87570099070001
 30
0.0
 11
713.88126433800005
 21
-295.32334186349999
 31
0.0
  0
LINE
  5
301
  8
┌▓È_1
 62
     5
 10
718.06014154210004
 20
-288.87570099070001
 30
0.0
 11
705.88126433800005
 21
-295.32334186349999
 31
0.0
  0
LINE
  5
302
  8
┌▓È_1
 62
     5
 10
718.06014154210004
 20
-284.37570099070001
 30
0.0
 11
718.06014154210004
 21
-288.87570099070001
 31
0.0
  0
LINE
  5
303
  8
┌▓È_1
 62
     5
 10
716.06014154210004
 20
-258.37570099070001
 30
0.0
 11
716.06014154210004
 21
-271.87570099070001
 31
0.0
  0
LINE
  5
304
  8
┌▓È_1
 62
     5
 10
708.56014154210004
 20
-314.37570099070001
 30
0.0
 11
708.56014154210004
 21
-304.16122102700001
 31
0.0
  0
LINE
  5
305
  8
┌▓È_1
 62
     5
 10
706.56014154210004
 20
-314.37570099070001
 30
0.0
 11
708.56014154210004
 21
-314.37570099070001
 31
0.0
  0
ARC
  5
306
  8
┌▓È_1
 62
     5
 10
710.56014154210004
 20
-304.16122102700001
 30
0.0
 40
10.0
 50
117.8972710309
 51
180.0
  0
LINE
  5
307
  8
┌▓È_1
 62
     5
 10
700.56014154210004
 20
-304.16122102700001
 30
0.0
 11
700.64592797979992
 21
-314.37570099070001
 31
0.0
  0
LINE
  5
308
  8
┌▓È_1
 62
     5
 10
698.56014154210004
 20
-304.16122102700001
 30
0.0
 11
698.56014154210004
 21
-314.37570099070001
 31
0.0
  0
LINE
  5
309
  8
┌▓È_1
 62
     5
 10
697.56014154210004
 20
-314.37570099070001
 30
0.0
 11
700.64592797979992
 21
-314.37570099070001
 31
0.0
  0
ARC
  5
30A
  8
┌▓È_1
 62
     5
 10
708.56014154210004
 20
-304.16122102700001
 30
0.0
 40
10.0
 50
117.8972710309
 51
180.0
  0
ARC
  5
30B
  8
┌▓È_1
 62
     5
 10
718.56014154210004
 20
-304.16122102700001
 30
0.0
 40
10.0
 50
117.8972710309
 51
180.0
  0
LINE
  5
30C
  8
┌▓È_1
 62
     5
 10
716.06014154210004
 20
-288.87570099070001
 30
0.0
 11
703.88126433800005
 21
-295.32334186349999
 31
0.0
  0
LINE
  5
30D
  8
┌▓È_1
 62
     5
 10
697.56014154210004
 20
-314.37570099070001
 30
0.0
 11
697.56014154210004
 21
-288.87570099070001
 31
0.0
  0
LINE
  5
30E
  8
┌▓È_1
 62
     5
 10
716.06014154210004
 20
-284.37570099070001
 30
0.0
 11
716.06014154210004
 21
-288.87570099070001
 31
0.0
  0
LINE
  5
30F
  8
┌▓È_1
 62
     5
 10
726.56014154210004
 20
-258.37570099070001
 30
0.0
 11
734.56014154210004
 21
-266.37570099070001
 31
0.0
  0
LINE
  5
310
  8
┌▓È_1
 62
     5
 10
724.56014154210004
 20
-245.87570099070001
 30
0.0
 11
724.56014154210004
 21
-258.37570099070001
 31
0.0
  0
LINE
  5
311
  8
┌▓È_1
 62
     5
 10
727.56014154210004
 20
-256.87570099070001
 30
0.0
 11
727.56014154210004
 21
-259.37570099070001
 31
0.0
  0
LINE
  5
312
  8
┌▓È_1
 62
     5
 10
726.56014154210004
 20
-256.87570099070001
 30
0.0
 11
727.56014154210004
 21
-256.87570099070001
 31
0.0
  0
LINE
  5
313
  8
┌▓È_1
 62
     5
 10
726.56014154210004
 20
-256.87570099070001
 30
0.0
 11
726.56014154210004
 21
-258.37570099070001
 31
0.0
  0
LINE
  5
314
  8
┌▓È_1
 62
     5
 10
724.56014154210004
 20
-256.87570099070001
 30
0.0
 11
726.56014154210004
 21
-256.87570099070001
 31
0.0
  0
LINE
  5
315
  8
┌▓È_1
 62
     5
 10
644.06014154210004
 20
-258.37570099070001
 30
0.0
 11
644.06014154210004
 21
-271.87570099070001
 31
0.0
  0
LINE
  5
316
  8
┌▓È_1
 62
     5
 10
644.06014154210004
 20
-271.87570099070001
 30
0.0
 11
658.06014154210004
 21
-271.87570099070001
 31
0.0
  0
LINE
  5
317
  8
┌▓È_1
 62
     5
 10
658.06014154210004
 20
-258.37570099070001
 30
0.0
 11
658.06014154210004
 21
-271.87570099070001
 31
0.0
  0
CIRCLE
  5
318
  8
┌▓È_1
 62
     5
 10
651.06014154210004
 20
-262.87570099070001
 30
0.0
 40
6.0
  0
CIRCLE
  5
319
  8
┌▓È_1
 62
     5
 10
651.06014154210004
 20
-262.87570099070001
 30
0.0
 40
2.5
  0
CIRCLE
  5
31A
  8
┌▓È_1
 62
     5
 10
651.06014154210004
 20
-262.87570099070001
 30
0.0
 40
3.0
  0
ARC
  5
31B
  8
┌▓È_1
 62
     5
 10
651.06014154210004
 20
-262.87570099070001
 30
0.0
 40
6.5
 50
43.8130614604
 51
136.18693853959999
  0
LINE
  5
31C
  8
┌▓È_1
 62
     5
 10
644.06014154210004
 20
-314.37570099070001
 30
0.0
 11
642.06014154210004
 21
-314.37570099070001
 31
0.0
  0
LINE
  5
31D
  8
┌▓È_1
 62
     5
 10
658.06014154210004
 20
-314.37570099070001
 30
0.0
 11
660.06014154210004
 21
-314.37570099070001
 31
0.0
  0
LINE
  5
31E
  8
┌▓È_1
 62
     5
 10
644.06014154210004
 20
-288.87570099070001
 30
0.0
 11
658.06014154210004
 21
-288.87570099070001
 31
0.0
  0
LINE
  5
31F
  8
┌▓È_1
 62
     5
 10
644.06014154210004
 20
-284.37570099070001
 30
0.0
 11
644.06014154210004
 21
-314.37570099070001
 31
0.0
  0
LINE
  5
320
  8
┌▓È_1
 62
     5
 10
642.06014154210004
 20
-314.37570099070001
 30
0.0
 11
642.06014154210004
 21
-284.37570099070001
 31
0.0
  0
LINE
  5
321
  8
┌▓È_1
 62
     5
 10
660.06014154210004
 20
-314.37570099070001
 30
0.0
 11
660.06014154210004
 21
-284.37570099070001
 31
0.0
  0
LINE
  5
322
  8
┌▓È_1
 62
     5
 10
658.06014154210004
 20
-284.37570099070001
 30
0.0
 11
658.06014154210004
 21
-314.37570099070001
 31
0.0
  0
DIMENSION
  5
331
  8
Éíû@É³
  2
*D9
 10
749.62941262979984
 20
-410.87570099070001
 30
0.0
 11
749.62941262979984
 21
-395.87570099070001
 31
0.0
 70
   128
  1
<>
 13
686.56014154210004
 23
-410.87570099070001
 33
0.0
 14
696.56014154210004
 24
-380.87570099070001
 34
0.0
 50
90.0
  0
LINE
  5
332
  8
┌▓È_1
 62
     5
 10
686.56014154210004
 20
-383.87570099070001
 30
0.0
 11
686.56014154210004
 21
-410.87570099070001
 31
0.0
  0
ARC
  5
333
  8
┌▓È_1
 62
     5
 10
689.56014154210004
 20
-383.87570099070001
 30
0.0
 40
3.0
 50
90.0
 51
180.0
  0
LINE
  5
334
  8
┌▓È_1
 62
     5
 10
689.56014154210004
 20
-380.87570099070001
 30
0.0
 11
696.56014154210004
 21
-380.87570099070001
 31
0.0
  0
ARC
  5
335
  8
┌▓È_1
 62
     5
 10
696.56014154210004
 20
-370.87570099070001
 30
0.0
 40
10.0
 50
270.0
 51
0.0
  0
INSERT
  5
337
  8
Éíû@É³
  2
BALLON1
 10
0.0
 20
0.0
 30
0.0
  0
INSERT
  5
341
  8
Éíû@É³
  2
BALLON2
 10
0.0
 20
0.0
 30
0.0
  0
LINE
  5
34A
  8
┌▓È_1
 62
     5
 10
687.06014154210004
 20
-288.87570099070001
 30
0.0
 11
726.06014154210004
 21
-288.87570099070001
 31
0.0
  0
LINE
  5
34B
  8
┌▓È_1
 62
     5
 10
687.06014154210004
 20
-258.37570099070001
 30
0.0
 11
687.06014154210004
 21
-271.87570099070001
 31
0.0
  0
LINE
  5
34C
  8
┌▓È_1
 62
     5
 10
687.06014154210004
 20
-314.37570099070001
 30
0.0
 11
685.06014154210004
 21
-314.37570099070001
 31
0.0
  0
LINE
  5
34D
  8
┌▓È_1
 62
     5
 10
687.06014154210004
 20
-271.87570099070001
 30
0.0
 11
716.06014154210004
 21
-271.87570099070001
 31
0.0
  0
LINE
  5
34E
  8
┌▓È_1
 62
     5
 10
577.56014154210004
 20
-258.37570099070001
 30
0.0
 11
577.56014154210004
 21
-245.87570099070001
 31
0.0
  0
LINE
  5
34F
  8
┌▓È_1
 62
     5
 10
577.56014154210004
 20
-256.87570099070001
 30
0.0
 11
575.56014154210004
 21
-256.87570099070001
 31
0.0
  0
LINE
  5
350
  8
┌▓È_1
 62
     5
 10
575.56014154210004
 20
-256.87570099070001
 30
0.0
 11
574.56014154210004
 21
-256.87570099070001
 31
0.0
  0
LINE
  5
351
  8
┌▓È_1
 62
     5
 10
574.56014154210004
 20
-256.87570099070001
 30
0.0
 11
574.56014154210004
 21
-259.37570099070001
 31
0.0
  0
LINE
  5
352
  8
┌▓È_1
 62
     5
 10
575.56014154210004
 20
-258.37570099070001
 30
0.0
 11
567.56014154210004
 21
-266.37570099070001
 31
0.0
  0
LINE
  5
353
  8
┌▓È_1
 62
     5
 10
601.47435510449998
 20
-314.37570099070001
 30
0.0
 11
604.56014154210004
 21
-314.37570099070001
 31
0.0
  0
LINE
  5
354
  8
┌▓È_1
 62
     5
 10
615.06014154210004
 20
-314.37570099070001
 30
0.0
 11
617.06014154210004
 21
-314.37570099070001
 31
0.0
  0
LINE
  5
355
  8
┌▓È_1
 62
     5
 10
593.56014154210004
 20
-314.37570099070001
 30
0.0
 11
593.56014154210004
 21
-304.16122102700001
 31
0.0
  0
ARC
  5
356
  8
┌▓È_1
 62
     5
 10
591.56014154210004
 20
-304.16122102700001
 30
0.0
 40
10.0
 50
0.0
 51
62.102728969099999
  0
LINE
  5
357
  8
┌▓È_1
 62
     5
 10
595.56014154210004
 20
-314.37570099070001
 30
0.0
 11
593.56014154210004
 21
-314.37570099070001
 31
0.0
  0
ARC
  5
358
  8
┌▓È_1
 62
     5
 10
583.56014154210004
 20
-304.16122102700001
 30
0.0
 40
10.0
 50
0.0
 51
62.102728969099999
  0
ARC
  5
359
  8
┌▓È_1
 62
     5
 10
593.56014154210004
 20
-304.16122102700001
 30
0.0
 40
10.0
 50
0.0
 51
62.102728969099999
  0
LINE
  5
35A
  8
┌▓È_1
 62
     5
 10
603.56014154210004
 20
-304.16122102700001
 30
0.0
 11
603.56014154210004
 21
-314.37570099070001
 31
0.0
  0
LINE
  5
35B
  8
┌▓È_1
 62
     5
 10
601.56014154210004
 20
-304.16122102700001
 30
0.0
 11
601.47435510449998
 21
-314.37570099070001
 31
0.0
  0
LINE
  5
35C
  8
┌▓È_1
 62
     5
 10
576.06014154210004
 20
-288.87570099070001
 30
0.0
 11
615.06014154210004
 21
-288.87570099070001
 31
0.0
  0
LINE
  5
35D
  8
┌▓È_1
 62
     5
 10
586.06014154210004
 20
-288.87570099070001
 30
0.0
 11
598.23901874629985
 21
-295.32334186349999
 31
0.0
  0
LINE
  5
35E
  8
┌▓È_1
 62
     5
 10
584.06014154210004
 20
-288.87570099070001
 30
0.0
 11
596.23901874629985
 21
-295.32334186349999
 31
0.0
  0
LINE
  5
35F
  8
┌▓È_1
 62
     5
 10
576.06014154210004
 20
-288.87570099070001
 30
0.0
 11
588.23901874629985
 21
-295.32334186349999
 31
0.0
  0
LINE
  5
360
  8
┌▓È_1
 62
     5
 10
604.56014154210004
 20
-314.37570099070001
 30
0.0
 11
604.56014154210004
 21
-288.87570099070001
 31
0.0
  0
LINE
  5
361
  8
┌▓È_1
 62
     5
 10
584.06014154210004
 20
-284.37570099070001
 30
0.0
 11
584.06014154210004
 21
-288.87570099070001
 31
0.0
  0
LINE
  5
362
  8
┌▓È_1
 62
     5
 10
576.06014154210004
 20
-284.37570099070001
 30
0.0
 11
576.06014154210004
 21
-288.87570099070001
 31
0.0
  0
LINE
  5
363
  8
┌▓È_1
 62
     5
 10
586.06014154210004
 20
-284.37570099070001
 30
0.0
 11
586.06014154210004
 21
-288.87570099070001
 31
0.0
  0
LINE
  5
364
  8
┌▓È_1
 62
     5
 10
576.06014154210004
 20
-288.87570099070001
 30
0.0
 11
567.56014154210004
 21
-284.37570099070001
 31
0.0
  0
LINE
  5
365
  8
┌▓È_1
 62
     5
 10
617.06014154210004
 20
-314.37570099070001
 30
0.0
 11
617.06014154210004
 21
-284.37570099070001
 31
0.0
  0
LINE
  5
366
  8
┌▓È_1
 62
     5
 10
615.06014154210004
 20
-284.37570099070001
 30
0.0
 11
615.06014154210004
 21
-314.37570099070001
 31
0.0
  0
LINE
  5
367
  8
┌▓È_1
 62
     5
 10
941.41086908930004
 20
-107.11830878729999
 30
0.0
 11
941.41086908930004
 21
-125.11830878729999
 31
0.0
  0
LINE
  5
368
  8
┌▓È_1
 62
     5
 10
917.41086908930004
 20
-104.36830878729999
 30
0.0
 11
917.41086908930004
 21
-125.11830878729999
 31
0.0
  0
LINE
  5
369
  8
┌▓È_1
 62
     5
 10
916.91086908929992
 20
-69.618308787299995
 30
0.0
 11
916.91086908929992
 21
-125.11830878729999
 31
0.0
  0
LINE
  5
36A
  8
┌▓È_1
 62
     5
 10
956.41086908929981
 20
-91.618308787299995
 30
0.0
 11
956.41086908929981
 21
-125.11830878729999
 31
0.0
  0
CIRCLE
  5
36B
  8
┌▓È_1
  6
STITCH
 10
896.41086908929992
 20
-104.2676493253
 30
0.0
 40
7.5
  0
ARC
  5
36C
  8
┌▓È_1
 62
     5
 10
921.41086908929992
 20
-111.11830878729999
 30
0.0
 40
1.0
 50
90.0
 51
180.0
  0
LINE
  5
36D
  8
┌▓È_1
 62
     5
 10
938.41086908929992
 20
-110.11830878729999
 30
0.0
 11
921.41086908929992
 21
-110.11830878729999
 31
0.0
  0
ARC
  5
36E
  8
┌▓È_1
 62
     5
 10
938.41086908929992
 20
-107.11830878729999
 30
0.0
 40
3.0
 50
270.0
 51
360.0
  0
DIMENSION
  5
37D
  8
Éíû@É³
  2
*D12
 10
1111.0136939997999
 20
-180.61830878730001
 30
0.0
 11
1111.0136939997999
 21
-125.11830878729999
 31
0.0
 70
   128
  1
(üá111)
 13
1006.6188117977
 23
-180.61830878730001
 33
0.0
 14
1006.6188117977
 24
-69.618308787299995
 34
0.0
 50
90.0
  0
DIMENSION
  5
38C
  8
Éíû@É³
  2
*D13
 10
1090.3939896417
 20
-153.31255763440001
 30
0.0
 11
1090.3939896417
 21
-117.81255763439999
 31
0.0
 70
   128
 13
1075.3939896417
 23
-153.31255763440001
 33
0.0
 14
1075.3939896417
 24
-82.312557634399994
 34
0.0
 50
90.0
  0
INSERT
  5
38D
  8
0
  6
CONTINUOUS
  2
*U63
 10
0.0
 20
0.0
 30
0.0
  0
LINE
  5
38E
  8
┌▓È_1
 62
     5
 10
1050.4108690892999
 20
-91.618308787299995
 30
0.0
 11
1050.4108690892999
 21
-125.11830878729999
 31
0.0
  0
ARC
  5
38F
  8
┌▓È_1
 62
     5
 10
612.56014154210004
 20
-383.87570099070001
 30
0.0
 40
3.0
 50
0.0
 51
90.0
  0
LINE
  5
390
  8
┌▓È_1
 62
     5
 10
615.56014154210004
 20
-383.87570099070001
 30
0.0
 11
615.56014154210004
 21
-410.87570099070001
 31
0.0
  0
LINE
  5
391
  8
┌▓È_1
 62
     5
 10
605.56014154210004
 20
-380.87570099070001
 30
0.0
 11
612.56014154210004
 21
-380.87570099070001
 31
0.0
  0
ARC
  5
392
  8
┌▓È_1
 62
     5
 10
605.56014154210004
 20
-370.87570099070001
 30
0.0
 40
10.0
 50
180.0
 51
270.0
  0
LINE
  5
393
  8
┌▓È_1
 62
     5
 10
575.56014154210004
 20
-258.37570099070001
 30
0.0
 11
646.36972578229995
 21
-258.37570099070001
 31
0.0
  0
LINE
  5
394
  8
┌▓È_1
 62
     5
 10
615.06014154210004
 20
-266.37570099070001
 30
0.0
 11
644.06014154210004
 21
-266.37570099070001
 31
0.0
  0
LINE
  5
395
  8
┌▓È_1
 62
     5
 10
617.06014154210004
 20
-288.87570099070001
 30
0.0
 11
642.06014154210004
 21
-288.87570099070001
 31
0.0
  0
LINE
  5
396
  8
┌▓È_1
 62
     5
 10
586.06014154210004
 20
-271.87570099070001
 30
0.0
 11
615.06014154210004
 21
-271.87570099070001
 31
0.0
  0
LINE
  5
397
  8
┌▓È_1
 62
     5
 10
615.06014154210004
 20
-258.37570099070001
 30
0.0
 11
615.06014154210004
 21
-271.87570099070001
 31
0.0
  0
LINE
  5
398
  8
┌▓È_1
 62
     5
 10
567.56014154210004
 20
-266.37570099070001
 30
0.0
 11
567.56014154210004
 21
-284.37570099070001
 31
0.0
  0
LINE
  5
399
  8
┌▓È_1
 62
     5
 10
586.06014154210004
 20
-258.37570099070001
 30
0.0
 11
586.06014154210004
 21
-271.87570099070001
 31
0.0
  0
LINE
  5
39A
  8
┌▓È_1
 62
     5
 10
575.56014154210004
 20
-256.87570099070001
 30
0.0
 11
575.56014154210004
 21
-258.37570099070001
 31
0.0
  0
LINE
  5
39B
  8
┌▓È_1
 62
     5
 10
567.56014154210004
 20
-266.37570099070001
 30
0.0
 11
586.06014154210004
 21
-266.37570099070001
 31
0.0
  0
LINE
  5
39C
  8
┌▓È_1
 62
     5
 10
567.56014154210004
 20
-53.618423370599999
 30
0.0
 11
567.56014154210004
 21
-196.6184233706
 31
0.0
  0
LINE
  5
39D
  8
┌▓È_1
 62
     5
 10
600.56014154210004
 20
-174.6184233706
 30
0.0
 11
600.56014154210004
 21
-75.618423370599984
 31
0.0
  0
DIMENSION
  5
3AC
  8
Éíû@É³
  2
*D14
 10
758.97662637490009
 20
-208.6184233706
 30
0.0
 11
758.97662637490009
 21
-125.1184233706
 31
0.0
 70
   128
  1
<>
 13
722.56014154210004
 23
-208.6184233706
 33
0.0
 14
722.56014154210004
 24
-41.618423370599999
 34
0.0
 50
90.0
  0
LINE
  5
3AD
  8
┌▓È_1
 62
     5
 10
719.56014154210004
 20
-125.1184233706
 30
0.0
 11
719.56014154210004
 21
-105.1184233706
 31
0.0
  0
LINE
  5
3AE
  8
┌▓È_1
 62
     5
 10
718.06014154210004
 20
-131.6184233706
 30
0.0
 11
718.06014154210004
 21
-105.1184233706
 31
0.0
  0
LINE
  5
3AF
  8
┌▓È_1
 62
     5
 10
717.56014154210004
 20
-61.618423370600013
 30
0.0
 11
717.56014154210004
 21
-188.6184233706
 31
0.0
  0
LINE
  5
3B0
  8
┌▓È_1
 62
     5
 10
722.56014154210004
 20
-54.618423370600013
 30
0.0
 11
722.56014154210004
 21
-195.6184233706
 31
0.0
  0
LINE
  5
3B1
  8
┌▓È_1
 62
     5
 10
695.56014154210004
 20
-116.1184233706
 30
0.0
 11
695.56014154210004
 21
-105.1184233706
 31
0.0
  0
LINE
  5
3B2
  8
┌▓È_1
 62
     5
 10
701.56014154210004
 20
-75.618423370599984
 30
0.0
 11
701.56014154210004
 21
-174.6184233706
 31
0.0
  0
LINE
  5
3B3
  8
┌▓È_1
 62
     5
 10
715.56014154210004
 20
-61.618423370600013
 30
0.0
 11
715.56014154210004
 21
-188.6184233706
 31
0.0
  0
LINE
  5
3B4
  8
┌▓È_1
 62
     5
 10
726.56014154210004
 20
-54.618423370600013
 30
0.0
 11
726.56014154210004
 21
-195.6184233706
 31
0.0
  0
LINE
  5
3B5
  8
┌▓È_1
 62
     5
 10
724.56014154210004
 20
-54.618423370600013
 30
0.0
 11
724.56014154210004
 21
-195.6184233706
 31
0.0
  0
LINE
  5
3B6
  8
┌▓È_1
 62
     5
 10
734.56014154210004
 20
-196.6184233706
 30
0.0
 11
734.56014154210004
 21
-53.618423370599999
 31
0.0
  0
INSERT
  5
3B7
  8
0
  6
CONTINUOUS
  2
*U64
 10
0.0
 20
0.0
 30
0.0
  0
INSERT
  5
3B8
  8
0
  6
CONTINUOUS
  2
*U65
 10
0.0
 20
0.0
 30
0.0
  0
INSERT
  5
3B9
  8
0
  6
CONTINUOUS
  2
*U66
 10
0.0
 20
0.0
 30
0.0
  0
DIMENSION
  5
3C8
  8
Éíû@É³
  2
*D15
 10
844.55709406489996
 20
-60.618308787299988
 30
0.0
 11
844.55709406489996
 21
-122.61830759519999
 31
0.0
 70
   128
  1
üá129
 13
885.91086908929981
 23
-60.618308787299988
 33
0.0
 14
885.91086908929981
 24
-189.61830878730001
 34
0.0
 50
90.0
  0
LINE
  5
3C9
  8
┌▓È_1
  6
STITCH
 10
897.44122599309981
 20
-126.9988885203
 30
0.0
 11
905.21404866909995
 21
-107.8389277078
 31
0.0
  0
LINE
  5
3CA
  8
┌▓È_1
 62
     5
 10
902.91086908929981
 20
-78.618308787299995
 30
0.0
 11
902.91086908929981
 21
-118.11830878729999
 31
0.0
  0
ARC
  5
3CB
  8
┌▓È_1
  6
BORDER
 62
     3
 10
873.06020962729986
 20
-122.61830878729999
 30
0.0
 40
9.5
 50
67.918566997200003
 51
278.34597099370001
  0
LINE
  5
3CC
  8
┌▓È_1
  6
STITCH
 10
889.95323052009985
 20
-125.6989093001
 30
0.0
 11
887.01147748749997
 21
-105.6465755433
 31
0.0
  0
LINE
  5
3CD
  8
┌▓È_1
 62
     5
 10
900.91086908929992
 20
-78.618308787299995
 30
0.0
 11
900.91086908929992
 21
-118.11830878729999
 31
0.0
  0
LINE
  5
3CE
  8
┌▓È_1
 62
     5
 10
885.41086908929992
 20
-53.618308787300002
 30
0.0
 11
885.41086908929992
 21
-125.11830878729999
 31
0.0
  0
LINE
  5
3CF
  8
┌▓È_1
 62
     5
 10
885.91086908929981
 20
-60.618308787299988
 30
0.0
 11
885.91086908929981
 21
-125.11830878729999
 31
0.0
  0
LINE
  5
3D0
  8
┌▓È_1
 62
     5
 10
920.41086908929992
 20
-111.11830878729999
 30
0.0
 11
920.41086908929992
 21
-125.11830878729999
 31
0.0
  0
LINE
  5
3D1
  8
┌▓È_1
 62
     5
 10
956.41086908929981
 20
-158.61830878730001
 30
0.0
 11
1050.4108690892999
 21
-158.61830878730001
 31
0.0
  0
LINE
  5
3D2
  8
┌▓È_1
 62
     5
 10
1013.4108690893
 20
-160.61830878730001
 30
0.0
 11
956.41086908929981
 21
-160.61830878730001
 31
0.0
  0
LINE
  5
3D3
  8
┌▓È_1
 62
     5
 10
1006.4108690893
 20
-174.11830878730001
 30
0.0
 11
942.41086908930004
 21
-174.11830878730001
 31
0.0
  0
LINE
  5
3D4
  8
┌▓È_1
 62
     5
 10
918.91086908929981
 20
-180.61830878730001
 30
0.0
 11
1010.4108690893
 21
-180.61830878730001
 31
0.0
  0
LINE
  5
3D5
  8
┌▓È_1
 62
     5
 10
918.91086908929981
 20
-178.61830878730001
 30
0.0
 11
1010.4108690893
 21
-178.61830878730001
 31
0.0
  0
LINE
  5
3D6
  8
┌▓È_1
 62
     5
 10
1006.4108690893
 20
-78.118308787299995
 30
0.0
 11
973.41086908929981
 21
-78.118308787299995
 31
0.0
  0
LINE
  5
3D7
  8
┌▓È_1
 62
     5
 10
1006.4108690893
 20
-76.118308787299995
 30
0.0
 11
942.41086908930004
 21
-76.118308787299995
 31
0.0
  0
LINE
  5
3D8
  8
┌▓È_1
 62
     5
 10
1013.4108690893
 20
-89.618308787299995
 30
0.0
 11
956.41086908929981
 21
-89.618308787299995
 31
0.0
  0
LINE
  5
3D9
  8
┌▓È_1
 62
     5
 10
956.41086908929981
 20
-91.618308787299995
 30
0.0
 11
1050.4108690892999
 21
-91.618308787299995
 31
0.0
  0
LINE
  5
3DA
  8
┌▓È_1
 62
     5
 10
918.91086908929981
 20
-71.618308787299995
 30
0.0
 11
1010.4108690893
 21
-71.618308787299995
 31
0.0
  0
LINE
  5
3DB
  8
┌▓È_1
 62
     5
 10
918.91086908929981
 20
-69.618308787299995
 30
0.0
 11
1010.4108690893
 21
-69.618308787299995
 31
0.0
  0
LINE
  5
3DC
  8
┌▓È_1
 62
     5
 10
595.56014154210004
 20
-370.87570099070001
 30
0.0
 11
595.56014154210004
 21
-294.96393628480001
 31
0.0
  0
LINE
  5
3DD
  8
┌▓È_1
  6
BORDER
 62
     3
 10
651.06014154210004
 20
-240.87570099070001
 30
0.0
 11
651.06014154210004
 21
-415.87570099070001
 31
0.0
  0
DIMENSION
  5
3EC
  8
Éíû@É³
  2
*D16
 10
768.36581704869991
 20
-410.87570099070001
 30
0.0
 11
768.36581704869991
 21
-328.37570099070001
 31
0.0
 70
   128
  1
<>
 13
686.56014154210004
 23
-410.87570099070001
 33
0.0
 14
724.56014154210004
 24
-245.87570099070001
 34
0.0
 50
90.0
  0
DIMENSION
  5
3FB
  8
Éíû@É³
  2
*D17
 10
749.62941262979984
 20
-380.87570099070001
 30
0.0
 11
749.62941262979984
 21
-319.62570099070001
 31
0.0
 70
   128
  1
<>
 13
696.56014154210004
 23
-380.87570099070001
 33
0.0
 14
726.56014154210004
 24
-258.37570099070001
 34
0.0
 50
90.0
  0
LINE
  5
3FC
  8
┌▓È_1
 62
     5
 10
706.56014154210004
 20
-370.87570099070001
 30
0.0
 11
706.56014154210004
 21
-294.96393628480001
 31
0.0
  0
LINE
  5
3FD
  8
┌▓È_1
 62
     5
 10
582.56014154210004
 20
-125.1184233706
 30
0.0
 11
582.56014154210004
 21
-105.1184233706
 31
0.0
  0
LINE
  5
3FE
  8
┌▓È_1
 62
     5
 10
606.56014154210004
 20
-116.1184233706
 30
0.0
 11
606.56014154210004
 21
-105.1184233706
 31
0.0
  0
LINE
  5
3FF
  8
┌▓È_1
 62
     5
 10
584.06014154210004
 20
-131.6184233706
 30
0.0
 11
584.06014154210004
 21
-105.1184233706
 31
0.0
  0
LINE
  5
400
  8
┌▓È_1
 62
     5
 10
586.56014154210004
 20
-188.6184233706
 30
0.0
 11
586.56014154210004
 21
-61.618423370600013
 31
0.0
  0
LINE
  5
401
  8
┌▓È_1
 62
     5
 10
584.56014154210004
 20
-188.6184233706
 30
0.0
 11
584.56014154210004
 21
-61.618423370600013
 31
0.0
  0
LINE
  5
402
  8
┌▓È_1
 62
     5
 10
575.56014154210004
 20
-195.6184233706
 30
0.0
 11
575.56014154210004
 21
-54.618423370600013
 31
0.0
  0
LINE
  5
403
  8
┌▓È_1
  6
BORDER
 62
     3
 10
651.06014154210004
 20
-213.6184233706
 30
0.0
 11
651.06014154210004
 21
-36.618423370599999
 31
0.0
  0
LINE
  5
404
  8
┌▓È_1
 62
     5
 10
579.56014154210004
 20
-195.6184233706
 30
0.0
 11
579.56014154210004
 21
-54.618423370600013
 31
0.0
  0
LINE
  5
405
  8
┌▓È_1
 62
     5
 10
577.56014154210004
 20
-195.6184233706
 30
0.0
 11
577.56014154210004
 21
-54.618423370600013
 31
0.0
  0
LINE
  5
406
  8
┌▓È_1
  6
BORDER
 62
     3
 10
562.56014154210004
 20
-125.1184233706
 30
0.0
 11
739.56014154210004
 21
-125.1184233706
 31
0.0
  0
LINE
  5
407
  8
┌▓È_1
 62
     5
 10
700.56014154210004
 20
-175.6184233706
 30
0.0
 11
601.56014154210004
 21
-175.6184233706
 31
0.0
  0
LINE
  5
408
  8
┌▓È_1
 62
     5
 10
714.56014154210004
 20
-189.6184233706
 30
0.0
 11
587.56014154210004
 21
-189.6184233706
 31
0.0
  0
LINE
  5
409
  8
┌▓È_1
 62
     5
 10
714.56014154210004
 20
-191.6184233706
 30
0.0
 11
587.56014154210004
 21
-191.6184233706
 31
0.0
  0
LINE
  5
40A
  8
┌▓È_1
 62
     5
 10
601.56014154210004
 20
-74.618423370599999
 30
0.0
 11
700.56014154210004
 21
-74.618423370599999
 31
0.0
  0
LINE
  5
40B
  8
┌▓È_1
 62
     5
 10
587.56014154210004
 20
-60.618423370599999
 30
0.0
 11
714.56014154210004
 21
-60.618423370599999
 31
0.0
  0
LINE
  5
40C
  8
┌▓È_1
 62
     5
 10
587.56014154210004
 20
-58.618423370599999
 30
0.0
 11
714.56014154210004
 21
-58.618423370599999
 31
0.0
  0
LINE
  5
40D
  8
┌▓È_1
 62
     5
 10
697.56014154210004
 20
-173.6184233706
 30
0.0
 11
675.06014154210004
 21
-173.6184233706
 31
0.0
  0
LINE
  5
40E
  8
┌▓È_1
 62
     5
 10
675.06014154210004
 20
-76.618423370599999
 30
0.0
 11
697.56014154210004
 21
-76.618423370599999
 31
0.0
  0
INSERT
  5
40F
  8
0
  6
CONTINUOUS
  2
*U67
 10
0.0
 20
0.0
 30
0.0
  0
INSERT
  5
410
  8
0
  6
CONTINUOUS
  2
*U68
 10
0.0
 20
0.0
 30
0.0
  0
INSERT
  5
411
  8
0
  6
CONTINUOUS
  2
*U69
 10
0.0
 20
0.0
 30
0.0
  0
INSERT
  5
412
  8
0
  6
CONTINUOUS
  2
*U70
 10
0.0
 20
0.0
 30
0.0
  0
INSERT
  5
413
  8
0
  6
CONTINUOUS
  2
*U71
 10
0.0
 20
0.0
 30
0.0
  0
INSERT
  5
414
  8
0
  6
CONTINUOUS
  2
*U72
 10
0.0
 20
0.0
 30
0.0
  0
INSERT
  5
416
  8
É}ÿg
  2
CLUMP0
 10
0.0
 20
0.0
 30
0.0
  0
INSERT
  5
420
  8
É}ÿg
  2
CLUMP1
 10
0.0
 20
0.0
 30
0.0
  0
INSERT
  5
42A
  8
É}ÿg
  2
CLUMP2
 10
0.0
 20
0.0
 30
0.0
  0
INSERT
  5
434
  8
É}ÿg
  2
CLUMP3
 10
0.0
 20
0.0
 30
0.0
  0
INSERT
  5
43E
  8
É}ÿg
  2
CLUMP4
 10
0.0
 20
0.0
 30
0.0
  0
INSERT
  5
448
  8
É}ÿg
  2
CLUMP5
 10
0.0
 20
0.0
 30
0.0
  0
INSERT
  5
451
  8
0
  6
CONTINUOUS
  2
*U73
 10
0.0
 20
0.0
 30
0.0
  0
INSERT
  5
452
  8
0
  6
CONTINUOUS
  2
*U74
 10
0.0
 20
0.0
 30
0.0
  0
DIMENSION
  5
461
  8
Éíû@É³
  2
*D24
 10
1006.4108690893
 20
-48.77988219729999
 30
0.0
 11
981.37245836609986
 21
-48.77988219729999
 31
0.0
 70
   128
  1
<>
 13
1006.4108690893
 23
-76.118308787299995
 33
0.0
 14
956.41086908929981
 24
-89.118308787299995
 34
0.0
  0
LINE
  5
462
  8
┌▓È_1
 62
     5
 10
1006.4108690893
 20
-172.11830878730001
 30
0.0
 11
973.41086908929981
 21
-172.11830878730001
 31
0.0
  0
INSERT
  5
464
  8
É}ÿg
  2
CLUMP6
 10
0.0
 20
0.0
 30
0.0
  0
INSERT
  5
509
  8
Éíû@É³
  2
BALLON3
 10
0.0
 20
0.0
 30
0.0
  0
INSERT
  5
513
  8
Éíû@É³
  2
BALLON4
 10
0.0
 20
0.0
 30
0.0
  0
INSERT
  5
51D
  8
Éíû@É³
  2
BALLON5
 10
0.0
 20
0.0
 30
0.0
  0
DIMENSION
  5
534
  8
Éíû@É³
  2
*D29
 10
891.24903960510005
 20
-221.29199454690001
 30
0.0
 11
856.24903960510005
 21
-221.29199454690001
 31
0.0
 70
   128
  1
<>
 13
891.24903960510005
 23
-252.9557537785
 33
0.0
 14
821.24903960509982
 24
-241.9557537785
 34
0.0
  0
DIMENSION
  5
543
  8
Éíû@É³
  2
*D30
 10
826.26113840699998
 20
-51.618308787300002
 30
0.0
 11
826.26113840699998
 21
-122.6183070587
 31
0.0
 70
   128
  1
üá147
 13
885.41086908929992
 23
-51.618308787300002
 33
0.0
 14
885.41086908929992
 24
-198.61830878730001
 34
0.0
 50
90.0
  0
LINE
  5
544
  8
┌▓È_1
  6
BORDER
 62
     3
 10
816.24903960510005
 20
-279.95575377850002
 30
0.0
 11
896.24903960509982
 21
-279.95575377850002
 31
0.0
  0
LINE
  5
545
  8
┌▓È_1
 62
     5
 10
821.24903960509982
 20
-241.9557537785
 30
0.0
 11
851.74903960509982
 21
-241.9557537785
 31
0.0
  0
LINE
  5
546
  8
┌▓È_1
 62
     5
 10
821.24903960509982
 20
-317.95575377850002
 30
0.0
 11
851.74903960509982
 21
-317.95575377850002
 31
0.0
  0
LINE
  5
547
  8
┌▓È_1
 62
     5
 10
655.75055730199995
 20
-258.37570099070001
 30
0.0
 11
726.56014154210004
 21
-258.37570099070001
 31
0.0
  0
LINE
  5
548
  8
┌▓È_1
 62
     5
 10
577.56014154210004
 20
-245.87570099070001
 30
0.0
 11
724.56014154210004
 21
-245.87570099070001
 31
0.0
  0
LINE
  5
549
  8
┌▓È_1
 62
     5
 10
734.56014154210004
 20
-284.37570099070001
 30
0.0
 11
567.56014154210004
 21
-284.37570099070001
 31
0.0
  0
LINE
  5
54A
  8
┌▓È_1
 62
     5
 10
615.56014154210004
 20
-410.87570099070001
 30
0.0
 11
686.56014154210004
 21
-410.87570099070001
 31
0.0
  0
LINE
  5
54B
  8
┌▓È_1
 62
     5
 10
612.56014154210004
 20
-380.87570099070001
 30
0.0
 11
689.56014154210004
 21
-380.87570099070001
 31
0.0
  0
LINE
  5
54C
  8
┌▓È_1
 62
     5
 10
658.06014154210004
 20
-266.37570099070001
 30
0.0
 11
687.06014154210004
 21
-266.37570099070001
 31
0.0
  0
LINE
  5
54D
  8
┌▓È_1
 62
     5
 10
660.06014154210004
 20
-288.87570099070001
 30
0.0
 11
685.06014154210004
 21
-288.87570099070001
 31
0.0
  0
DIMENSION
  5
55D
  8
Éíû@É³
  2
*D31
 10
734.56014154210004
 20
-27.143175033799999
 30
0.0
 11
651.06014154210004
 21
-27.143175033799999
 31
0.0
 70
   128
  1
<>
 13
734.56014154210004
 23
-53.618423370599999
 33
0.0
 14
567.56014154210004
 24
-53.618423370599999
 34
0.0
  0
LINE
  5
55E
  8
┌▓È_1
 62
     5
 10
721.56014154210004
 20
-198.6184233706
 30
0.0
 11
580.56014154210004
 21
-198.6184233706
 31
0.0
  0
LINE
  5
55F
  8
┌▓È_1
 62
     5
 10
580.56014154210004
 20
-53.618423370599999
 30
0.0
 11
721.56014154210004
 21
-53.618423370599999
 31
0.0
  0
LINE
  5
560
  8
┌▓È_1
 62
     5
 10
579.56014154210004
 20
-208.6184233706
 30
0.0
 11
722.56014154210004
 21
-208.6184233706
 31
0.0
  0
LINE
  5
561
  8
┌▓È_1
 62
     5
 10
721.56014154210004
 20
-200.6184233706
 30
0.0
 11
580.56014154210004
 21
-200.6184233706
 31
0.0
  0
LINE
  5
562
  8
┌▓È_1
 62
     5
 10
721.56014154210004
 20
-196.6184233706
 30
0.0
 11
580.56014154210004
 21
-196.6184233706
 31
0.0
  0
LINE
  5
563
  8
┌▓È_1
 62
     5
 10
580.56014154210004
 20
-49.618423370600013
 30
0.0
 11
721.56014154210004
 21
-49.618423370600013
 31
0.0
  0
LINE
  5
564
  8
┌▓È_1
 62
     5
 10
580.56014154210004
 20
-51.618423370600013
 30
0.0
 11
721.56014154210004
 21
-51.618423370600013
 31
0.0
  0
LINE
  5
565
  8
┌▓È_1
 62
     5
 10
722.56014154210004
 20
-41.618423370599999
 30
0.0
 11
579.56014154210004
 21
-41.618423370599999
 31
0.0
  0
ENDSEC
  0
EOF
