  0
SECTION
  2
HEADER
  9
$ACADVER
  1
AC1009
  9
$INSBASE
 10
0.0
 20
0.0
 30
0.0
  9
$EXTMIN
 10
119.5770002467
 20
-725.42883419600003
 30
0.0
  9
$EXTMAX
 10
1554.4370002467001
 20
284.18116580399999
 30
0.0
  9
$LIMMIN
 10
0.0
 20
0.0
  9
$LIMMAX
 10
0.0
 20
0.0
  9
$ORTHOMODE
 70
     0
  9
$REGENMODE
 70
     1
  9
$FILLMODE
 70
     1
  9
$QTEXTMODE
 70
     0
  9
$MIRRTEXT
 70
     1
  9
$DRAGMODE
 70
     2
  9
$LTSCALE
 40
1.0
  9
$OSMODE
 70
    31
  9
$ATTMODE
 70
     1
  9
$TEXTSIZE
 40
0.0
  9
$TRACEWID
 40
0.05
  9
$TEXTSTYLE
  7
STANDARD
  9
$CLAYER
  8
0
  9
$CELTYPE
  6
CONTINUOUS
  9
$CECOLOR
 62
   256
  9
$DIMSCALE
 40
1.0
  9
$DIMASZ
 40
0.18
  9
$DIMEXO
 40
0.0625
  9
$DIMDLI
 40
0.38
  9
$DIMRND
 40
0.0
  9
$DIMDLE
 40
0.0
  9
$DIMEXE
 40
0.18
  9
$DIMTP
 40
0.0
  9
$DIMTM
 40
0.0
  9
$DIMTXT
 40
0.18
  9
$DIMCEN
 40
0.09
  9
$DIMTSZ
 40
0.0
  9
$DIMTOL
 70
     0
  9
$DIMLIM
 70
     0
  9
$DIMTIH
 70
     1
  9
$DIMTOH
 70
     1
  9
$DIMSE1
 70
     0
  9
$DIMSE2
 70
     0
  9
$DIMTAD
 70
     0
  9
$DIMZIN
 70
     0
  9
$DIMBLK
  1

  9
$DIMASO
 70
     1
  9
$DIMSHO
 70
     1
  9
$DIMPOST
  1

  9
$DIMAPOST
  1

  9
$DIMALT
 70
     0
  9
$DIMALTD
 70
     2
  9
$DIMALTF
 40
25.399999999999999
  9
$DIMLFAC
 40
1.0
  9
$DIMTOFL
 70
     0
  9
$DIMTVP
 40
0.0
  9
$DIMTIX
 70
     0
  9
$DIMSOXD
 70
     0
  9
$DIMSAH
 70
     0
  9
$DIMBLK1
  1

  9
$DIMBLK2
  1

  9
$DIMSTYLE
  2
STANDARD
  9
$DIMCLRD
 70
     0
  9
$DIMCLRE
 70
     0
  9
$DIMCLRT
 70
     0
  9
$DIMTFAC
 40
1.0
  9
$DIMGAP
 40
0.09
  9
$LUNITS
 70
     2
  9
$LUPREC
 70
     4
  9
$SKETCHINC
 40
0.1
  9
$FILLETRAD
 40
0.0
  9
$AUNITS
 70
     0
  9
$AUPREC
 70
     0
  9
$MENU
  1
acad
  9
$ELEVATION
 40
0.0
  9
$PELEVATION
 40
0.0
  9
$THICKNESS
 40
0.0
  9
$LIMCHECK
 70
     0
  9
$BLIPMODE
 70
     0
  9
$CHAMFERA
 40
0.0
  9
$CHAMFERB
 40
0.0
  9
$SKPOLY
 70
     0
  9
$TDCREATE
 40
2454860.4599258448
  9
$TDUPDATE
 40
2454860.460490081
  9
$TDINDWG
 40
0.0006257176
  9
$TDUSRTIMER
 40
0.0006215625
  9
$USRTIMER
 70
     1
  9
$ANGBASE
 50
0.0
  9
$ANGDIR
 70
     0
  9
$PDMODE
 70
     3
  9
$PDSIZE
 40
-1.0
  9
$PLINEWID
 40
0.0
  9
$COORDS
 70
     2
  9
$SPLFRAME
 70
     0
  9
$SPLINETYPE
 70
     6
  9
$SPLINESEGS
 70
     8
  9
$ATTDIA
 70
     0
  9
$ATTREQ
 70
     1
  9
$HANDLING
 70
     1
  9
$HANDSEED
  5
6FB
  9
$SURFTAB1
 70
     6
  9
$SURFTAB2
 70
     6
  9
$SURFTYPE
 70
     6
  9
$SURFU
 70
     6
  9
$SURFV
 70
     6
  9
$UCSNAME
  2

  9
$UCSORG
 10
0.0
 20
0.0
 30
0.0
  9
$UCSXDIR
 10
1.0
 20
0.0
 30
0.0
  9
$UCSYDIR
 10
0.0
 20
1.0
 30
0.0
  9
$PUCSNAME
  2

  9
$PUCSORG
 10
0.0
 20
0.0
 30
0.0
  9
$PUCSXDIR
 10
1.0
 20
0.0
 30
0.0
  9
$PUCSYDIR
 10
0.0
 20
1.0
 30
0.0
  9
$USERI1
 70
     0
  9
$USERI2
 70
     0
  9
$USERI3
 70
     0
  9
$USERI4
 70
     0
  9
$USERI5
 70
     0
  9
$USERR1
 40
0.0
  9
$USERR2
 40
0.0
  9
$USERR3
 40
0.0
  9
$USERR4
 40
0.0
  9
$USERR5
 40
0.0
  9
$WORLDVIEW
 70
     1
  9
$SHADEDGE
 70
     3
  9
$SHADEDIF
 70
    70
  9
$TILEMODE
 70
     1
  9
$MAXACTVP
 70
    16
  9
$PLIMCHECK
 70
     0
  9
$PEXTMIN
 10
1.0000000000000000E+020
 20
1.0000000000000000E+020
 30
1.0000000000000000E+020
  9
$PEXTMAX
 10
-1.0000000000000000E+020
 20
-1.0000000000000000E+020
 30
-1.0000000000000000E+020
  9
$PLIMMIN
 10
0.0
 20
0.0
  9
$PLIMMAX
 10
12.0
 20
9.0
  9
$UNITMODE
 70
     0
  9
$VISRETAIN
 70
     0
  9
$PLINEGEN
 70
     1
  9
$PSLTSCALE
 70
     0
  0
ENDSEC
  0
SECTION
  2
TABLES
  0
TABLE
  2
VPORT
 70
     2
  0
VPORT
  2
*ACTIVE
 70
     0
 10
0.0
 20
0.0
 11
1.0
 21
1.0
 12
837.00700024670004
 22
-220.62383419599999
 13
0.0
 23
0.0
 14
1.0
 24
1.0
 15
0.0
 25
0.0
 16
0.0
 26
0.0
 36
1.0
 17
0.0
 27
0.0
 37
0.0
 40
1017.988506224066
 41
1.6343490304709141
 42
50.0
 43
0.0
 44
0.0
 50
0.0
 51
0.0
 71
     0
 72
   100
 73
     1
 74
     1
 75
     0
 76
     0
 77
     0
 78
     0
  0
ENDTAB
  0
TABLE
  2
LTYPE
 70
    11
  0
LTYPE
  2
CONTINUOUS
 70
     0
  3
Solid line
 72
    65
 73
     0
 40
0.0
  0
LTYPE
  2
DOT
 70
     0
  3
. . . . . . . . 
 72
    65
 73
     2
 40
1.0
 49
0.0
 49
-1.0
  0
LTYPE
  2
DASHED
 70
     0
  3
___  ___  ___  ___  
 72
    65
 73
     2
 40
4.0
 49
3.0
 49
-1.0
  0
LTYPE
  2
HIDDEN
 70
     0
  3
__ __ __ __ 
 72
    65
 73
     2
 40
3.0
 49
2.0
 49
-1.0
  0
LTYPE
  2
STITCH
 70
     0
  3
_ _ _ _ 
 72
    65
 73
     2
 40
2.0
 49
1.0
 49
-1.0
  0
LTYPE
  2
CENTER
 70
     0
  3
______  __  ______  __  
 72
    65
 73
     4
 40
43.0
 49
40.0
 49
-1.0
 49
1.0
 49
-1.0
  0
LTYPE
  2
DASHDOT
 70
     0
  3
____ . ____ . 
 72
    65
 73
     4
 40
32.0
 49
30.0
 49
-1.0
 49
0.0
 49
-1.0
  0
LTYPE
  2
BORDER
 70
     0
  3
__ . __ . 
 72
    65
 73
     4
 40
22.0
 49
20.0
 49
-1.0
 49
0.0
 49
-1.0
  0
LTYPE
  2
CUTTING
 70
     0
  3
________   ___   ___   
 72
    65
 73
     6
 40
45.0
 49
40.0
 49
-1.0
 49
1.0
 49
-1.0
 49
1.0
 49
-1.0
  0
LTYPE
  2
PHANTOM
 70
     0
  3
______  __  __  
 72
    65
 73
     6
 40
35.0
 49
30.0
 49
-1.0
 49
1.0
 49
-1.0
 49
1.0
 49
-1.0
  0
LTYPE
  2
DIVIDE
 70
     0
  3
____ . . ____ . . 
 72
    65
 73
     6
 40
23.0
 49
20.0
 49
-1.0
 49
0.0
 49
-1.0
 49
0.0
 49
-1.0
  0
ENDTAB
  0
TABLE
  2
LAYER
 70
     5
  0
LAYER
  2
0
 70
     0
 62
     7
  6
CONTINUOUS
  0
LAYER
  2
図枠
 70
     0
 62
     7
  6
CONTINUOUS
  0
LAYER
  2
ﾚｲﾔ_1
 70
     0
 62
     7
  6
CONTINUOUS
  0
LAYER
  2
寸法線
 70
     0
 62
     7
  6
CONTINUOUS
  0
LAYER
  2
改訂
 70
     0
 62
     7
  6
CONTINUOUS
  0
ENDTAB
  0
TABLE
  2
STYLE
 70
     1
  0
STYLE
  2
STANDARD
 70
     0
 40
0.0
 41
1.0
 50
0.0
 71
     0
 42
0.0
  3
txt
  4
extfont
  0
ENDTAB
  0
TABLE
  2
VIEW
 70
     0
  0
ENDTAB
  0
TABLE
  2
UCS
 70
     0
  0
ENDTAB
  0
TABLE
  2
APPID
 70
     2
  0
APPID
  2
ACAD
 70
     0
  0
APPID
  2
DCO15
 70
     0
  0
ENDTAB
  0
TABLE
  2
DIMSTYLE
 70
     2
  0
DIMSTYLE
  2
STANDARD
 70
     0
  3

  4

  5

  6

  7

 40
1.0
 41
0.18
 42
0.0625
 43
0.38
 44
0.18
 45
0.0
 46
0.0
 47
0.0
 48
0.0
140
0.18
141
0.09
142
0.0
143
25.399999999999999
144
1.0
145
0.0
146
1.0
147
0.09
 71
     0
 72
     0
 73
     1
 74
     1
 75
     0
 76
     0
 77
     0
 78
     0
170
     0
171
     2
172
     0
173
     0
174
     0
175
     0
176
     0
177
     0
178
     0
  0
DIMSTYLE
  2
VELDIM0
 70
     0
  3

  4

  5

  6

  7

 40
1.0
 41
10.5
 42
0.0625
 43
0.38
 44
0.5
 45
0.0
 46
3.0
 47
0.0
 48
0.0
140
10.495138979
141
0.09
142
0.0
143
25.399999999999999
144
1.0
145
0.0
146
1.0
147
0.09
 71
     0
 72
     0
 73
     0
 74
     0
 75
     0
 76
     0
 77
     0
 78
     8
170
     0
171
     2
172
     0
173
     0
174
     0
175
     0
176
     0
177
     0
178
     0
  0
ENDTAB
  0
ENDSEC
  0
SECTION
  2
BLOCKS
  0
BLOCK
  8
0
  2
$MODEL_SPACE
 70
     0
 10
0.0
 20
0.0
 30
0.0
  3
$MODEL_SPACE
  1

  0
ENDBLK
  5
E
  8
0
  0
BLOCK
 67
     1
  8
0
  2
$PAPER_SPACE
 70
     0
 10
0.0
 20
0.0
 30
0.0
  3
$PAPER_SPACE
  1

  0
ENDBLK
  5
10
 67
     1
  8
0
  0
BLOCK
  8
0
  2
*D0
 70
     1
 10
0.0
 20
0.0
 30
0.0
  3
*D0
  1

  0
TEXT
  5
3D
  8
0
 62
     0
 10
214.29225875660001
 20
113.2414536746
 30
0.0
 40
10.495138979
  1
48
 50
90.0
  0
LINE
  5
3E
  8
0
 62
     0
 10
251.14434210589999
 20
143.4150648387
 30
0.0
 11
216.64434210589999
 21
143.4150648387
 31
0.0
  0
LINE
  5
3F
  8
0
 62
     0
 10
251.14434210589999
 20
95.415064838700005
 30
0.0
 11
216.64434210589999
 21
95.415064838700005
 31
0.0
  0
LINE
  5
40
  8
0
 62
     0
 10
217.14434210589999
 20
143.4150648387
 30
0.0
 11
217.14434210589999
 21
131.76228716689999
 31
0.0
  0
LINE
  5
41
  8
0
 62
     0
 10
217.14434210589999
 20
143.4150648387
 30
0.0
 11
217.14434210589999
 21
107.0678425106
 31
0.0
  0
LINE
  5
42
  8
0
 62
     0
 10
217.14434210589999
 20
95.415064838700005
 30
0.0
 11
217.14434210589999
 21
131.76228716689999
 31
0.0
  0
LINE
  5
43
  8
0
 62
     0
 10
217.14434210589999
 20
95.415064838700005
 30
0.0
 11
217.14434210589999
 21
107.0678425106
 31
0.0
  0
LINE
  5
44
  8
0
 62
     0
 10
217.14434210589999
 20
95.415064838700005
 30
0.0
 11
217.14434210589999
 21
98.415064838700005
 31
0.0
  0
SOLID
  5
45
  8
0
 62
     0
 10
217.14434210589999
 20
95.415064838700005
 30
0.0
 11
214.51934210589999
 21
105.9150648387
 31
0.0
 12
219.76934210589999
 22
105.9150648387
 32
0.0
 13
217.14434210589999
 23
103.2900648387
 33
0.0
  0
LINE
  5
46
  8
0
 62
     0
 10
217.14434210589999
 20
143.4150648387
 30
0.0
 11
217.14434210589999
 21
140.4150648387
 31
0.0
  0
SOLID
  5
47
  8
0
 62
     0
 10
217.14434210589999
 20
143.4150648387
 30
0.0
 11
219.76934210589999
 21
132.9150648387
 31
0.0
 12
214.51934210589999
 22
132.9150648387
 32
0.0
 13
217.14434210589999
 23
135.5400648387
 33
0.0
  0
ENDBLK
  5
48
  8
0
  0
BLOCK
  8
0
  2
CLUMP0
 70
     0
 10
0.0
 20
0.0
 30
0.0
  3
CLUMP0
  1

  0
LINE
  5
58
  8
図枠
 10
1236.0070002467
 20
-560.12383419599985
 30
0.0
 11
1236.0070002467
 21
-542.62383419599985
 31
0.0
  0
LINE
  5
59
  8
図枠
 10
1029.5070002467
 20
-560.12383419599985
 30
0.0
 11
1029.5070002467
 21
-542.62383419599985
 31
0.0
  0
LINE
  5
5A
  8
図枠
 10
1061.0070002467
 20
-560.12383419599985
 30
0.0
 11
1061.0070002467
 21
-542.62383419599985
 31
0.0
  0
LINE
  5
5B
  8
図枠
 10
1428.5070002467
 20
-560.12383419599985
 30
0.0
 11
1428.5070002467
 21
-542.62383419599985
 31
0.0
  0
LINE
  5
5C
  8
図枠
 10
1397.0070002467
 20
-560.12383419599985
 30
0.0
 11
1397.0070002467
 21
-542.62383419599985
 31
0.0
  0
LINE
  5
5D
  8
図枠
 10
1537.0070002467
 20
-542.62383419599985
 30
0.0
 11
1029.5070002467
 21
-542.62383419599985
 31
0.0
  0
ENDBLK
  5
5E
  8
0
  0
BLOCK
  8
0
  2
CLUMP1
 70
     0
 10
0.0
 20
0.0
 30
0.0
  3
CLUMP1
  1

  0
LINE
  5
62
  8
図枠
 10
1236.0070002467
 20
-542.62383419599985
 30
0.0
 11
1236.0070002467
 21
-525.12383419599985
 31
0.0
  0
LINE
  5
63
  8
図枠
 10
1029.5070002467
 20
-542.62383419599985
 30
0.0
 11
1029.5070002467
 21
-525.12383419599985
 31
0.0
  0
LINE
  5
64
  8
図枠
 10
1061.0070002467
 20
-542.62383419599985
 30
0.0
 11
1061.0070002467
 21
-525.12383419599985
 31
0.0
  0
LINE
  5
65
  8
図枠
 10
1428.5070002467
 20
-542.62383419599985
 30
0.0
 11
1428.5070002467
 21
-525.12383419599985
 31
0.0
  0
LINE
  5
66
  8
図枠
 10
1397.0070002467
 20
-542.62383419599985
 30
0.0
 11
1397.0070002467
 21
-525.12383419599985
 31
0.0
  0
LINE
  5
67
  8
図枠
 10
1537.0070002467
 20
-525.12383419599985
 30
0.0
 11
1029.5070002467
 21
-525.12383419599985
 31
0.0
  0
ENDBLK
  5
68
  8
0
  0
BLOCK
  8
0
  2
CLUMP2
 70
     0
 10
0.0
 20
0.0
 30
0.0
  3
CLUMP2
  1

  0
LINE
  5
6C
  8
図枠
 10
1236.0070002467
 20
-525.12383419599985
 30
0.0
 11
1236.0070002467
 21
-507.6238341959999
 31
0.0
  0
LINE
  5
6D
  8
図枠
 10
1029.5070002467
 20
-525.12383419599985
 30
0.0
 11
1029.5070002467
 21
-507.6238341959999
 31
0.0
  0
LINE
  5
6E
  8
図枠
 10
1061.0070002467
 20
-525.12383419599985
 30
0.0
 11
1061.0070002467
 21
-507.6238341959999
 31
0.0
  0
LINE
  5
6F
  8
図枠
 10
1428.5070002467
 20
-525.12383419599985
 30
0.0
 11
1428.5070002467
 21
-507.6238341959999
 31
0.0
  0
LINE
  5
70
  8
図枠
 10
1397.0070002467
 20
-525.12383419599985
 30
0.0
 11
1397.0070002467
 21
-507.6238341959999
 31
0.0
  0
LINE
  5
71
  8
図枠
 10
1537.0070002467
 20
-507.6238341959999
 30
0.0
 11
1029.5070002467
 21
-507.6238341959999
 31
0.0
  0
ENDBLK
  5
72
  8
0
  0
BLOCK
  8
0
  2
CLUMP3
 70
     0
 10
0.0
 20
0.0
 30
0.0
  3
CLUMP3
  1

  0
LINE
  5
76
  8
図枠
 10
1236.0070002467
 20
-507.6238341959999
 30
0.0
 11
1236.0070002467
 21
-490.12383419600002
 31
0.0
  0
LINE
  5
77
  8
図枠
 10
1029.5070002467
 20
-507.6238341959999
 30
0.0
 11
1029.5070002467
 21
-490.12383419600002
 31
0.0
  0
LINE
  5
78
  8
図枠
 10
1061.0070002467
 20
-507.6238341959999
 30
0.0
 11
1061.0070002467
 21
-490.12383419600002
 31
0.0
  0
LINE
  5
79
  8
図枠
 10
1428.5070002467
 20
-507.6238341959999
 30
0.0
 11
1428.5070002467
 21
-490.12383419600002
 31
0.0
  0
LINE
  5
7A
  8
図枠
 10
1397.0070002467
 20
-507.6238341959999
 30
0.0
 11
1397.0070002467
 21
-490.12383419600002
 31
0.0
  0
LINE
  5
7B
  8
図枠
 10
1537.0070002467
 20
-490.12383419600002
 30
0.0
 11
1029.5070002467
 21
-490.12383419600002
 31
0.0
  0
ENDBLK
  5
7C
  8
0
  0
BLOCK
  8
0
  2
*D5
 70
     1
 10
0.0
 20
0.0
 30
0.0
  3
*D5
  1

  0
TEXT
  5
95
  8
0
 62
     0
 10
677.44989744949987
 20
211.05621068799999
 30
0.0
 40
10.495138979
  1
全長  Ｌ
  0
LINE
  5
96
  8
0
 62
     0
 10
1152.1443421059
 20
144.4150648387
 30
0.0
 11
1152.1443421059
 21
208.7041273387
 31
0.0
  0
LINE
  5
97
  8
0
 62
     0
 10
252.14434210589999
 20
144.4150648387
 30
0.0
 11
252.14434210589999
 21
208.7041273387
 31
0.0
  0
LINE
  5
98
  8
0
 62
     0
 10
1152.1443421059
 20
208.2041273387
 30
0.0
 11
733.01239792629997
 21
208.2041273387
 31
0.0
  0
LINE
  5
99
  8
0
 62
     0
 10
1152.1443421059
 20
208.2041273387
 30
0.0
 11
671.27628628540003
 21
208.2041273387
 31
0.0
  0
LINE
  5
9A
  8
0
 62
     0
 10
252.14434210589999
 20
208.2041273387
 30
0.0
 11
733.01239792629997
 21
208.2041273387
 31
0.0
  0
LINE
  5
9B
  8
0
 62
     0
 10
252.14434210589999
 20
208.2041273387
 30
0.0
 11
671.27628628540003
 21
208.2041273387
 31
0.0
  0
LINE
  5
9C
  8
0
 62
     0
 10
252.14434210589999
 20
208.2041273387
 30
0.0
 11
255.14434210589999
 21
208.2041273387
 31
0.0
  0
SOLID
  5
9D
  8
0
 62
     0
 10
252.14434210589999
 20
208.2041273387
 30
0.0
 11
262.64434210590002
 21
210.8291273387
 31
0.0
 12
262.64434210590002
 22
205.5791273387
 32
0.0
 13
260.01934210590002
 23
208.2041273387
 33
0.0
  0
LINE
  5
9E
  8
0
 62
     0
 10
1152.1443421059
 20
208.2041273387
 30
0.0
 11
1149.1443421059
 21
208.2041273387
 31
0.0
  0
SOLID
  5
9F
  8
0
 62
     0
 10
1152.1443421059
 20
208.2041273387
 30
0.0
 11
1141.6443421059
 21
205.5791273387
 31
0.0
 12
1141.6443421059
 22
210.8291273387
 32
0.0
 13
1144.2693421059
 23
208.2041273387
 33
0.0
  0
ENDBLK
  5
A0
  8
0
  0
BLOCK
  8
0
  2
*D6
 70
     1
 10
0.0
 20
0.0
 30
0.0
  3
*D6
  1

  0
TEXT
  5
A4
  8
0
 62
     0
 10
1195.3705490341999
 20
-379.52345517949999
 30
0.0
 40
10.495138979
  1
26
 50
90.0
  0
LINE
  5
A5
  8
0
 62
     0
 10
1099.1443421059
 20
-386.34984401539998
 30
0.0
 11
1198.7226323835
 21
-386.34984401539998
 31
0.0
  0
LINE
  5
A6
  8
0
 62
     0
 10
1112.1443421059
 20
-360.34984401539998
 30
0.0
 11
1198.7226323835
 21
-360.34984401539998
 31
0.0
  0
LINE
  5
A7
  8
0
 62
     0
 10
1198.2226323835
 20
-386.34984401539998
 30
0.0
 11
1198.2226323835
 21
-361.00262168720002
 31
0.0
  0
LINE
  5
A8
  8
0
 62
     0
 10
1198.2226323835
 20
-386.34984401539998
 30
0.0
 11
1198.2226323835
 21
-385.6970663436
 31
0.0
  0
LINE
  5
A9
  8
0
 62
     0
 10
1198.2226323835
 20
-360.34984401539998
 30
0.0
 11
1198.2226323835
 21
-361.00262168720002
 31
0.0
  0
LINE
  5
AA
  8
0
 62
     0
 10
1198.2226323835
 20
-360.34984401539998
 30
0.0
 11
1198.2226323835
 21
-385.6970663436
 31
0.0
  0
LINE
  5
AB
  8
0
 62
     0
 10
1198.2226323835
 20
-360.34984401539998
 30
0.0
 11
1198.2226323835
 21
-357.34984401539998
 31
0.0
  0
SOLID
  5
AC
  8
0
 62
     0
 10
1198.2226323835
 20
-360.34984401539998
 30
0.0
 11
1195.5976323835
 21
-349.84984401539998
 31
0.0
 12
1200.8476323835
 22
-349.84984401539998
 32
0.0
 13
1198.2226323835
 23
-352.47484401539998
 33
0.0
  0
LINE
  5
AD
  8
0
 62
     0
 10
1198.2226323835
 20
-386.34984401539998
 30
0.0
 11
1198.2226323835
 21
-389.34984401539998
 31
0.0
  0
SOLID
  5
AE
  8
0
 62
     0
 10
1198.2226323835
 20
-386.34984401539998
 30
0.0
 11
1200.8476323835
 21
-396.84984401539998
 31
0.0
 12
1195.5976323835
 22
-396.84984401539998
 32
0.0
 13
1198.2226323835
 23
-394.22484401539998
 33
0.0
  0
ENDBLK
  5
AF
  8
0
  0
BLOCK
  8
0
  2
*D7
 70
     1
 10
0.0
 20
0.0
 30
0.0
  3
*D7
  1

  0
TEXT
  5
B3
  8
0
 62
     0
 10
1226.0523797957001
 20
-274.21026076160001
 30
0.0
 40
10.495138979
  1
243
 50
90.0
  0
LINE
  5
B4
  8
0
 62
     0
 10
1153.1443421059
 20
-143.5498440154
 30
0.0
 11
1229.4044631449999
 21
-143.5498440154
 31
0.0
  0
LINE
  5
B5
  8
0
 62
     0
 10
1099.1443421059
 20
-386.34984401539998
 30
0.0
 11
1229.4044631449999
 21
-386.34984401539998
 31
0.0
  0
LINE
  5
B6
  8
0
 62
     0
 10
1228.9044631449999
 20
-143.5498440154
 30
0.0
 11
1228.9044631449999
 21
-249.5158161052
 31
0.0
  0
LINE
  5
B7
  8
0
 62
     0
 10
1228.9044631449999
 20
-143.5498440154
 30
0.0
 11
1228.9044631449999
 21
-280.38387192570002
 31
0.0
  0
LINE
  5
B8
  8
0
 62
     0
 10
1228.9044631449999
 20
-386.34984401539998
 30
0.0
 11
1228.9044631449999
 21
-249.5158161052
 31
0.0
  0
LINE
  5
B9
  8
0
 62
     0
 10
1228.9044631449999
 20
-386.34984401539998
 30
0.0
 11
1228.9044631449999
 21
-280.38387192570002
 31
0.0
  0
LINE
  5
BA
  8
0
 62
     0
 10
1228.9044631449999
 20
-386.34984401539998
 30
0.0
 11
1228.9044631449999
 21
-383.34984401539998
 31
0.0
  0
SOLID
  5
BB
  8
0
 62
     0
 10
1228.9044631449999
 20
-386.34984401539998
 30
0.0
 11
1226.2794631449999
 21
-375.84984401539998
 31
0.0
 12
1231.5294631449999
 22
-375.84984401539998
 32
0.0
 13
1228.9044631449999
 23
-378.47484401539998
 33
0.0
  0
LINE
  5
BC
  8
0
 62
     0
 10
1228.9044631449999
 20
-143.5498440154
 30
0.0
 11
1228.9044631449999
 21
-146.5498440154
 31
0.0
  0
SOLID
  5
BD
  8
0
 62
     0
 10
1228.9044631449999
 20
-143.5498440154
 30
0.0
 11
1231.5294631449999
 21
-154.0498440154
 31
0.0
 12
1226.2794631449999
 22
-154.0498440154
 32
0.0
 13
1228.9044631449999
 23
-151.4248440154
 33
0.0
  0
ENDBLK
  5
BE
  8
0
  0
BLOCK
  8
0
  2
*D8
 70
     1
 10
0.0
 20
0.0
 30
0.0
  3
*D8
  1

  0
TEXT
  5
C2
  8
0
 62
     0
 10
1209.4366638245999
 20
60.154648092599999
 30
0.0
 40
10.495138979
  1
148
 50
90.0
  0
LINE
  5
C3
  8
0
 62
     0
 10
1153.1443421059
 20
-4.5849351612999989
 30
0.0
 11
1212.7887471737999
 21
-4.5849351612999989
 31
0.0
  0
LINE
  5
C4
  8
0
 62
     0
 10
1153.1443421059
 20
143.4150648387
 30
0.0
 11
1212.7887471737999
 21
143.4150648387
 31
0.0
  0
LINE
  5
C5
  8
0
 62
     0
 10
1212.2887471737999
 20
-4.5849351612999989
 30
0.0
 11
1212.2887471737999
 21
84.849092748999993
 31
0.0
  0
LINE
  5
C6
  8
0
 62
     0
 10
1212.2887471737999
 20
-4.5849351612999989
 30
0.0
 11
1212.2887471737999
 21
53.981036928499996
 31
0.0
  0
LINE
  5
C7
  8
0
 62
     0
 10
1212.2887471737999
 20
143.4150648387
 30
0.0
 11
1212.2887471737999
 21
84.849092748999993
 31
0.0
  0
LINE
  5
C8
  8
0
 62
     0
 10
1212.2887471737999
 20
143.4150648387
 30
0.0
 11
1212.2887471737999
 21
53.981036928499996
 31
0.0
  0
LINE
  5
C9
  8
0
 62
     0
 10
1212.2887471737999
 20
143.4150648387
 30
0.0
 11
1212.2887471737999
 21
140.4150648387
 31
0.0
  0
SOLID
  5
CA
  8
0
 62
     0
 10
1212.2887471737999
 20
143.4150648387
 30
0.0
 11
1214.9137471737999
 21
132.9150648387
 31
0.0
 12
1209.6637471737999
 22
132.9150648387
 32
0.0
 13
1212.2887471737999
 23
135.5400648387
 33
0.0
  0
LINE
  5
CB
  8
0
 62
     0
 10
1212.2887471737999
 20
-4.5849351612999989
 30
0.0
 11
1212.2887471737999
 21
-1.5849351612999989
 31
0.0
  0
SOLID
  5
CC
  8
0
 62
     0
 10
1212.2887471737999
 20
-4.5849351612999989
 30
0.0
 11
1209.6637471737999
 21
5.9150648387000002
 31
0.0
 12
1214.9137471737999
 22
5.9150648387000002
 32
0.0
 13
1212.2887471737999
 23
3.2900648387000002
 33
0.0
  0
ENDBLK
  5
CD
  8
0
  0
BLOCK
  8
0
  2
*D9
 70
     1
 10
0.0
 20
0.0
 30
0.0
  3
*D9
  1

  0
TEXT
  5
D1
  8
0
 62
     0
 10
1195.3705490341999
 20
-261.21026076160001
 30
0.0
 40
10.495138979
  1
217
 50
90.0
  0
LINE
  5
D2
  8
0
 62
     0
 10
1112.1443421059
 20
-360.34984401539998
 30
0.0
 11
1198.7226323835
 21
-360.34984401539998
 31
0.0
  0
LINE
  5
D3
  8
0
 62
     0
 10
1153.1443421059
 20
-143.5498440154
 30
0.0
 11
1198.7226323835
 21
-143.5498440154
 31
0.0
  0
LINE
  5
D4
  8
0
 62
     0
 10
1198.2226323835
 20
-360.34984401539998
 30
0.0
 11
1198.2226323835
 21
-236.5158161052
 31
0.0
  0
LINE
  5
D5
  8
0
 62
     0
 10
1198.2226323835
 20
-360.34984401539998
 30
0.0
 11
1198.2226323835
 21
-267.38387192570002
 31
0.0
  0
LINE
  5
D6
  8
0
 62
     0
 10
1198.2226323835
 20
-143.5498440154
 30
0.0
 11
1198.2226323835
 21
-236.5158161052
 31
0.0
  0
LINE
  5
D7
  8
0
 62
     0
 10
1198.2226323835
 20
-143.5498440154
 30
0.0
 11
1198.2226323835
 21
-267.38387192570002
 31
0.0
  0
LINE
  5
D8
  8
0
 62
     0
 10
1198.2226323835
 20
-143.5498440154
 30
0.0
 11
1198.2226323835
 21
-146.5498440154
 31
0.0
  0
SOLID
  5
D9
  8
0
 62
     0
 10
1198.2226323835
 20
-143.5498440154
 30
0.0
 11
1200.8476323835
 21
-154.0498440154
 31
0.0
 12
1195.5976323835
 22
-154.0498440154
 32
0.0
 13
1198.2226323835
 23
-151.4248440154
 33
0.0
  0
LINE
  5
DA
  8
0
 62
     0
 10
1198.2226323835
 20
-360.34984401539998
 30
0.0
 11
1198.2226323835
 21
-357.34984401539998
 31
0.0
  0
SOLID
  5
DB
  8
0
 62
     0
 10
1198.2226323835
 20
-360.34984401539998
 30
0.0
 11
1195.5976323835
 21
-349.84984401539998
 31
0.0
 12
1200.8476323835
 22
-349.84984401539998
 32
0.0
 13
1198.2226323835
 23
-352.47484401539998
 33
0.0
  0
ENDBLK
  5
DC
  8
0
  0
BLOCK
  8
0
  2
*D10
 70
     1
 10
0.0
 20
0.0
 30
0.0
  3
*D10
  1

  0
TEXT
  5
E0
  8
0
 62
     0
 10
1121.5354380947001
 20
-430.23722128970002
 30
0.0
 40
10.495138979
  1
VU40(%%c44)
  0
LINE
  5
E1
  8
0
 62
     0
 10
1100.1443421059
 20
-385.34984401539998
 30
0.0
 11
1100.1443421059
 21
-433.58930463899998
 31
0.0
  0
LINE
  5
E2
  8
0
 62
     0
 10
1056.1443421059
 20
-385.34984401539998
 30
0.0
 11
1056.1443421059
 21
-433.58930463899998
 31
0.0
  0
LINE
  5
E3
  8
0
 62
     0
 10
1100.1443421059
 20
-433.08930463899998
 30
0.0
 11
1189.4451608997001
 21
-433.08930463899998
 31
0.0
  0
LINE
  5
E4
  8
0
 62
     0
 10
1100.1443421059
 20
-433.08930463899998
 30
0.0
 11
1115.3618269306
 21
-433.08930463899998
 31
0.0
  0
LINE
  5
E5
  8
0
 62
     0
 10
1056.1443421059
 20
-433.08930463899998
 30
0.0
 11
1189.4451608997001
 21
-433.08930463899998
 31
0.0
  0
LINE
  5
E6
  8
0
 62
     0
 10
1056.1443421059
 20
-433.08930463899998
 30
0.0
 11
1115.3618269306
 21
-433.08930463899998
 31
0.0
  0
LINE
  5
E7
  8
0
 62
     0
 10
1056.1443421059
 20
-433.08930463899998
 30
0.0
 11
1059.1443421059
 21
-433.08930463899998
 31
0.0
  0
SOLID
  5
E8
  8
0
 62
     0
 10
1056.1443421059
 20
-433.08930463899998
 30
0.0
 11
1066.6443421059
 21
-430.46430463899998
 31
0.0
 12
1066.6443421059
 22
-435.71430463899998
 32
0.0
 13
1064.0193421059
 23
-433.08930463899998
 33
0.0
  0
LINE
  5
E9
  8
0
 62
     0
 10
1100.1443421059
 20
-433.08930463899998
 30
0.0
 11
1097.1443421059
 21
-433.08930463899998
 31
0.0
  0
SOLID
  5
EA
  8
0
 62
     0
 10
1100.1443421059
 20
-433.08930463899998
 30
0.0
 11
1089.6443421059
 21
-435.71430463899998
 31
0.0
 12
1089.6443421059
 22
-430.46430463899998
 32
0.0
 13
1092.2693421059
 23
-433.08930463899998
 33
0.0
  0
ENDBLK
  5
EB
  8
0
  0
BLOCK
  8
0
  2
*D11
 70
     1
 10
0.0
 20
0.0
 30
0.0
  3
*D11
  1

  0
TEXT
  5
EF
  8
0
 62
     0
 10
1122.1711224860001
 20
-457.32394003970001
 30
0.0
 40
10.495138979
  1
VU50(%%c56)
  0
LINE
  5
F0
  8
0
 62
     0
 10
1106.1443421059
 20
-376.34984401539998
 30
0.0
 11
1106.1443421059
 21
-460.67602338900002
 31
0.0
  0
LINE
  5
F1
  8
0
 62
     0
 10
1050.1443421059
 20
-376.34984401539998
 30
0.0
 11
1050.1443421059
 21
-460.67602338900002
 31
0.0
  0
LINE
  5
F2
  8
0
 62
     0
 10
1106.1443421059
 20
-460.17602338900002
 30
0.0
 11
1190.0808452911001
 21
-460.17602338900002
 31
0.0
  0
LINE
  5
F3
  8
0
 62
     0
 10
1106.1443421059
 20
-460.17602338900002
 30
0.0
 11
1115.997511322
 21
-460.17602338900002
 31
0.0
  0
LINE
  5
F4
  8
0
 62
     0
 10
1050.1443421059
 20
-460.17602338900002
 30
0.0
 11
1190.0808452911001
 21
-460.17602338900002
 31
0.0
  0
LINE
  5
F5
  8
0
 62
     0
 10
1050.1443421059
 20
-460.17602338900002
 30
0.0
 11
1115.997511322
 21
-460.17602338900002
 31
0.0
  0
LINE
  5
F6
  8
0
 62
     0
 10
1050.1443421059
 20
-460.17602338900002
 30
0.0
 11
1053.1443421059
 21
-460.17602338900002
 31
0.0
  0
SOLID
  5
F7
  8
0
 62
     0
 10
1050.1443421059
 20
-460.17602338900002
 30
0.0
 11
1060.6443421059
 21
-457.55102338900002
 31
0.0
 12
1060.6443421059
 22
-462.80102338900002
 32
0.0
 13
1058.0193421059
 23
-460.17602338900002
 33
0.0
  0
LINE
  5
F8
  8
0
 62
     0
 10
1106.1443421059
 20
-460.17602338900002
 30
0.0
 11
1103.1443421059
 21
-460.17602338900002
 31
0.0
  0
SOLID
  5
F9
  8
0
 62
     0
 10
1106.1443421059
 20
-460.17602338900002
 30
0.0
 11
1095.6443421059
 21
-462.80102338900002
 31
0.0
 12
1095.6443421059
 22
-457.55102338900002
 32
0.0
 13
1098.2693421059
 23
-460.17602338900002
 33
0.0
  0
ENDBLK
  5
FA
  8
0
  0
BLOCK
  8
0
  2
*D12
 70
     1
 10
0.0
 20
0.0
 30
0.0
  3
*D12
  1

  0
TEXT
  5
FE
  8
0
 62
     0
 10
936.99225875659999
 20
-129.4248082172
 30
0.0
 40
10.495138979
  1
40.8
 50
90.0
  0
LINE
  5
FF
  8
0
 62
     0
 10
1008.8443421059
 20
-184.34984401540001
 30
0.0
 11
939.34434210589995
 21
-184.34984401540001
 31
0.0
  0
LINE
  5
100
  8
0
 62
     0
 10
1022.9035868975
 20
-143.5498440154
 30
0.0
 11
939.34434210589995
 21
-143.5498440154
 31
0.0
  0
LINE
  5
101
  8
0
 62
     0
 10
939.84434210589995
 20
-184.34984401540001
 30
0.0
 11
939.84434210589995
 21
-98.556752396700006
 31
0.0
  0
LINE
  5
102
  8
0
 62
     0
 10
939.84434210589995
 20
-184.34984401540001
 30
0.0
 11
939.84434210589995
 21
-135.59841938119999
 31
0.0
  0
LINE
  5
103
  8
0
 62
     0
 10
939.84434210589995
 20
-143.5498440154
 30
0.0
 11
939.84434210589995
 21
-98.556752396700006
 31
0.0
  0
LINE
  5
104
  8
0
 62
     0
 10
939.84434210589995
 20
-143.5498440154
 30
0.0
 11
939.84434210589995
 21
-135.59841938119999
 31
0.0
  0
LINE
  5
105
  8
0
 62
     0
 10
939.84434210589995
 20
-143.5498440154
 30
0.0
 11
939.84434210589995
 21
-146.5498440154
 31
0.0
  0
SOLID
  5
106
  8
0
 62
     0
 10
939.84434210589995
 20
-143.5498440154
 30
0.0
 11
942.46934210589995
 21
-154.0498440154
 31
0.0
 12
937.21934210589995
 22
-154.0498440154
 32
0.0
 13
939.84434210589995
 23
-151.4248440154
 33
0.0
  0
LINE
  5
107
  8
0
 62
     0
 10
939.84434210589995
 20
-184.34984401540001
 30
0.0
 11
939.84434210589995
 21
-181.34984401540001
 31
0.0
  0
SOLID
  5
108
  8
0
 62
     0
 10
939.84434210589995
 20
-184.34984401540001
 30
0.0
 11
937.21934210589995
 21
-173.84984401540001
 31
0.0
 12
942.46934210589995
 22
-173.84984401540001
 32
0.0
 13
939.84434210589995
 23
-176.47484401540001
 33
0.0
  0
ENDBLK
  5
109
  8
0
  0
BLOCK
  8
0
  2
*D13
 70
     1
 10
0.0
 20
0.0
 30
0.0
  3
*D13
  1

  0
TEXT
  5
10D
  8
0
 62
     0
 10
1068.8839253597
 20
-46.912539312
 30
0.0
 40
10.495138979
  1
148
  0
LINE
  5
10E
  8
0
 62
     0
 10
1152.1443421059
 20
-5.5849351612999989
 30
0.0
 11
1152.1443421059
 21
-50.264622661300002
 31
0.0
  0
LINE
  5
10F
  8
0
 62
     0
 10
1004.1443421059
 20
-5.5849351612999989
 30
0.0
 11
1004.1443421059
 21
-50.264622661300002
 31
0.0
  0
LINE
  5
110
  8
0
 62
     0
 10
1152.1443421059
 20
-49.764622661300002
 30
0.0
 11
1093.5783700161001
 21
-49.764622661300002
 31
0.0
  0
LINE
  5
111
  8
0
 62
     0
 10
1152.1443421059
 20
-49.764622661300002
 30
0.0
 11
1062.7103141955999
 21
-49.764622661300002
 31
0.0
  0
LINE
  5
112
  8
0
 62
     0
 10
1004.1443421059
 20
-49.764622661300002
 30
0.0
 11
1093.5783700161001
 21
-49.764622661300002
 31
0.0
  0
LINE
  5
113
  8
0
 62
     0
 10
1004.1443421059
 20
-49.764622661300002
 30
0.0
 11
1062.7103141955999
 21
-49.764622661300002
 31
0.0
  0
LINE
  5
114
  8
0
 62
     0
 10
1004.1443421059
 20
-49.764622661300002
 30
0.0
 11
1007.1443421059
 21
-49.764622661300002
 31
0.0
  0
SOLID
  5
115
  8
0
 62
     0
 10
1004.1443421059
 20
-49.764622661300002
 30
0.0
 11
1014.6443421059
 21
-47.139622661300002
 31
0.0
 12
1014.6443421059
 22
-52.389622661300002
 32
0.0
 13
1012.0193421059
 23
-49.764622661300002
 33
0.0
  0
LINE
  5
116
  8
0
 62
     0
 10
1152.1443421059
 20
-49.764622661300002
 30
0.0
 11
1149.1443421059
 21
-49.764622661300002
 31
0.0
  0
SOLID
  5
117
  8
0
 62
     0
 10
1152.1443421059
 20
-49.764622661300002
 30
0.0
 11
1141.6443421059
 21
-52.389622661300002
 31
0.0
 12
1141.6443421059
 22
-47.139622661300002
 32
0.0
 13
1144.2693421059
 23
-49.764622661300002
 33
0.0
  0
ENDBLK
  5
118
  8
0
  0
BLOCK
  8
0
  2
*D14
 70
     1
 10
0.0
 20
0.0
 30
0.0
  3
*D14
  1

  0
TEXT
  5
11C
  8
0
 62
     0
 10
1108.9707309418
 20
-100.6977606662
 30
0.0
 40
10.495138979
  1
74
  0
LINE
  5
11D
  8
0
 62
     0
 10
1152.1443421059
 20
-142.5498440154
 30
0.0
 11
1152.1443421059
 21
-103.0498440154
 31
0.0
  0
LINE
  5
11E
  8
0
 62
     0
 10
1078.1443421059
 20
-137.5498440154
 30
0.0
 11
1078.1443421059
 21
-103.0498440154
 31
0.0
  0
LINE
  5
11F
  8
0
 62
     0
 10
1152.1443421059
 20
-103.5498440154
 30
0.0
 11
1127.4915644340001
 21
-103.5498440154
 31
0.0
  0
LINE
  5
120
  8
0
 62
     0
 10
1152.1443421059
 20
-103.5498440154
 30
0.0
 11
1102.7971197776999
 21
-103.5498440154
 31
0.0
  0
LINE
  5
121
  8
0
 62
     0
 10
1078.1443421059
 20
-103.5498440154
 30
0.0
 11
1127.4915644340001
 21
-103.5498440154
 31
0.0
  0
LINE
  5
122
  8
0
 62
     0
 10
1078.1443421059
 20
-103.5498440154
 30
0.0
 11
1102.7971197776999
 21
-103.5498440154
 31
0.0
  0
LINE
  5
123
  8
0
 62
     0
 10
1078.1443421059
 20
-103.5498440154
 30
0.0
 11
1081.1443421059
 21
-103.5498440154
 31
0.0
  0
SOLID
  5
124
  8
0
 62
     0
 10
1078.1443421059
 20
-103.5498440154
 30
0.0
 11
1088.6443421059
 21
-100.9248440154
 31
0.0
 12
1088.6443421059
 22
-106.1748440154
 32
0.0
 13
1086.0193421059
 23
-103.5498440154
 33
0.0
  0
LINE
  5
125
  8
0
 62
     0
 10
1152.1443421059
 20
-103.5498440154
 30
0.0
 11
1149.1443421059
 21
-103.5498440154
 31
0.0
  0
SOLID
  5
126
  8
0
 62
     0
 10
1152.1443421059
 20
-103.5498440154
 30
0.0
 11
1141.6443421059
 21
-106.1748440154
 31
0.0
 12
1141.6443421059
 22
-100.9248440154
 32
0.0
 13
1144.2693421059
 23
-103.5498440154
 33
0.0
  0
ENDBLK
  5
127
  8
0
  0
BLOCK
  8
0
  2
CLUMP4
 70
     0
 10
0.0
 20
0.0
 30
0.0
  3
CLUMP4
  1

  0
LINE
  5
12D
  8
図枠
 10
1233.6313841678
 20
-684.10547881189996
 30
0.0
 11
1237.1313841678
 21
-678.85547881189996
 31
0.0
  0
LINE
  5
12E
  8
図枠
 10
1182.3192629557
 20
-678.85547881189996
 30
0.0
 11
1182.3192629557
 21
-685.85547881189996
 31
0.0
  0
LINE
  5
12F
  8
図枠
 10
1265.3638667099999
 20
-691.10547881190007
 30
0.0
 11
1276.3925734367999
 21
-691.10547881190007
 31
0.0
  0
LINE
  5
130
  8
図枠
 10
1205.6313841678
 20
-703.35547881189996
 30
0.0
 11
1214.3813841678
 21
-703.35547881189996
 31
0.0
  0
LINE
  5
131
  8
図枠
 10
1205.6313841678
 20
-686.98286474809993
 30
0.0
 11
1219.6313841678
 21
-686.98286474809993
 31
0.0
  0
INSERT
  5
132
  8
0
  6
CONTINUOUS
  2
*U50
 10
0.0
 20
0.0
 30
0.0
  0
LINE
  5
133
  8
図枠
 62
     5
 10
1292.0070002467
 20
216.87616580400001
 30
0.0
 11
1292.0070002467
 21
269.3761658040001
 31
0.0
  0
LINE
  5
134
  8
図枠
 62
     5
 10
1467.0070002467
 20
216.87616580400001
 30
0.0
 11
1467.0070002467
 21
269.3761658040001
 31
0.0
  0
LINE
  5
135
  8
図枠
 62
     5
 10
1236.0070002467
 20
216.87616580400001
 30
0.0
 11
1236.0070002467
 21
269.3761658040001
 31
0.0
  0
LINE
  5
136
  8
図枠
 62
     5
 10
1212.3495013956001
 20
235.88393693250001
 30
0.0
 11
1229.6745013955999
 21
235.88393693250001
 31
0.0
  0
LINE
  5
137
  8
図枠
 62
     5
 10
1221.0120013956
 20
233.56282705309999
 30
0.0
 11
1229.6745013955999
 21
218.55893693249999
 31
0.0
  0
LINE
  5
138
  8
図枠
 62
     5
 10
1208.0070002467
 20
216.87616580400001
 30
0.0
 11
1208.0070002467
 21
269.3761658040001
 31
0.0
  0
LINE
  5
139
  8
図枠
 62
     5
 10
1502.0070002467
 20
216.87616580400001
 30
0.0
 11
1502.0070002467
 21
269.3761658040001
 31
0.0
  0
LINE
  5
13A
  8
図枠
 62
     5
 10
1208.0070002467
 20
251.87616580400001
 30
0.0
 11
1537.0070002467
 21
251.87616580400001
 31
0.0
  0
LINE
  5
13B
  8
図枠
 62
     5
 10
1208.0070002467
 20
234.37616580400001
 30
0.0
 11
1537.0070002467
 21
234.37616580400001
 31
0.0
  0
LINE
  5
13C
  8
図枠
 62
     5
 10
1208.0070002467
 20
216.87616580400001
 30
0.0
 11
1537.0070002467
 21
216.87616580400001
 31
0.0
  0
INSERT
  5
13D
  8
0
  6
CONTINUOUS
  2
*U51
 10
0.0
 20
0.0
 30
0.0
  0
LINE
  5
13E
  8
図枠
 62
     5
 10
137.00700024669999
 20
-710.62383419600008
 30
0.0
 11
137.00700024669999
 21
269.3761658040001
 31
0.0
  0
LINE
  5
13F
  8
図枠
 62
     5
 10
137.00700024669999
 20
-710.62383419600008
 30
0.0
 11
1537.0070002467
 21
-710.62383419600008
 31
0.0
  0
LINE
  5
140
  8
図枠
 62
     5
 10
1537.0070002467
 20
269.3761658040001
 30
0.0
 11
137.00700024669999
 21
269.3761658040001
 31
0.0
  0
LINE
  5
141
  8
図枠
 62
     5
 10
1537.0070002467
 20
-710.62383419600008
 30
0.0
 11
1537.0070002467
 21
269.3761658040001
 31
0.0
  0
LINE
  5
142
  8
図枠
 10
1205.6313841678
 20
-688.11025068429979
 30
0.0
 11
1205.6313841678
 21
-686.98286474809993
 31
0.0
  0
LINE
  5
143
  8
図枠
 10
1162.5403996153
 20
-685.85547881189996
 30
0.0
 11
1162.5403996153
 21
-691.10547881190007
 31
0.0
  0
LINE
  5
144
  8
図枠
 62
     5
 10
1221.0120013956
 20
250.88782705310001
 30
0.0
 11
1229.6745013955999
 21
235.88393693250001
 31
0.0
  0
LINE
  5
145
  8
図枠
 62
     5
 10
1221.0120013956
 20
233.56282705309999
 30
0.0
 11
1212.3495013956001
 21
218.55893693249999
 31
0.0
  0
INSERT
  5
146
  8
0
  6
CONTINUOUS
  2
*U52
 10
0.0
 20
0.0
 30
0.0
  0
LINE
  5
147
  8
図枠
  6
DOT
 10
119.5770002467
 20
-725.42883419600003
 30
0.0
 11
119.5770002467
 21
284.18116580399999
 31
0.0
  0
LINE
  5
148
  8
図枠
  6
DOT
 10
1554.4370002467001
 20
-725.42883419600003
 30
0.0
 11
1554.4370002467001
 21
284.18116580399999
 31
0.0
  0
LINE
  5
149
  8
図枠
  6
DOT
 10
119.5770002467
 20
-725.42883419600003
 30
0.0
 11
1554.4370002467001
 21
-725.42883419600003
 31
0.0
  0
LINE
  5
14A
  8
図枠
 10
1175.3192629557
 20
-696.35547881189996
 30
0.0
 11
1175.3192629557
 21
-691.10547881190007
 31
0.0
  0
LINE
  5
14B
  8
図枠
  6
DOT
 10
1554.4370002467001
 20
284.18116580399999
 30
0.0
 11
119.5770002467
 21
284.18116580399999
 31
0.0
  0
LINE
  5
14C
  8
図枠
 10
1166.5692629557
 20
-691.10547881190007
 30
0.0
 11
1166.5692629557
 21
-696.35547881189996
 31
0.0
  0
LINE
  5
14D
  8
図枠
 10
1191.0692629557
 20
-684.10547881189996
 30
0.0
 11
1196.3192629557
 21
-678.85547881189996
 31
0.0
  0
LINE
  5
14E
  8
図枠
 10
1256.3072401034999
 20
-693.90547881190002
 30
0.0
 11
1255.4859067702
 21
-691.10547881190007
 31
0.0
  0
LINE
  5
14F
  8
図枠
 10
1175.3192629557
 20
-685.85547881189996
 30
0.0
 11
1175.3192629557
 21
-684.10547881189996
 31
0.0
  0
LINE
  5
150
  8
図枠
 10
1229.6509019001001
 20
-695.82743804330005
 30
0.0
 11
1229.0275446909
 21
-696.43776154800003
 31
0.0
  0
LINE
  5
151
  8
図枠
 10
1233.6313841678
 20
-684.10547881189996
 30
0.0
 11
1237.1313841678
 21
-678.85547881189996
 31
0.0
  0
LINE
  5
152
  8
図枠
 10
1276.3925734367999
 20
-693.90547881190002
 30
0.0
 11
1276.3925734367999
 21
-700.20547881189987
 31
0.0
  0
LINE
  5
153
  8
図枠
 10
1237.1313841678
 20
-698.10547881189996
 30
0.0
 11
1237.1313841678
 21
-703.35547881189996
 31
0.0
  0
LINE
  5
154
  8
図枠
 10
1263.5509486829999
 20
-684.8054788119
 30
0.0
 11
1276.3925734367999
 21
-684.8054788119
 31
0.0
  0
LINE
  5
155
  8
図枠
 10
1263.5509486829999
 20
-684.8054788119
 30
0.0
 11
1263.0385688071999
 21
-683.02492769529999
 31
0.0
  0
LINE
  5
156
  8
図枠
 10
1237.1313841678
 20
-678.85547881189996
 30
0.0
 11
1205.6313841678
 21
-678.85547881189996
 31
0.0
  0
INSERT
  5
157
  8
0
  6
CONTINUOUS
  2
*U53
 10
0.0
 20
0.0
 30
0.0
  0
LINE
  5
158
  8
図枠
 10
1259.5925734368
 20
-705.10547881189996
 30
0.0
 11
1258.1552401035001
 21
-700.20547881189987
 31
0.0
  0
LINE
  5
159
  8
図枠
 10
1177.0692629557
 20
-698.10547881189996
 30
0.0
 11
1166.5692629557
 21
-698.10547881189996
 31
0.0
  0
LINE
  5
15A
  8
図枠
 10
1205.6313841678
 20
-685.15547881190002
 30
0.0
 11
1223.1313841678
 21
-685.15547881190002
 31
0.0
  0
LINE
  5
15B
  8
図枠
 10
1253.1077115375999
 20
-610.17383419600003
 30
0.0
 11
1269.9077115376001
 21
-605.97383419599998
 31
0.0
  0
CIRCLE
  5
15C
  8
図枠
 10
1233.9070002466999
 20
-614.37383419599985
 30
0.0
 40
8.4000000000000004
  0
INSERT
  5
15D
  8
0
  6
CONTINUOUS
  2
*U54
 10
0.0
 20
0.0
 30
0.0
  0
LINE
  5
15E
  8
図枠
 10
1175.3192629557
 20
-691.10547881190007
 30
0.0
 11
1182.3192629557
 21
-691.10547881190007
 31
0.0
  0
LINE
  5
15F
  8
図枠
 10
1244.8925734367999
 20
-691.10547881190007
 30
0.0
 11
1255.4859067702
 21
-691.10547881190007
 31
0.0
  0
LINE
  5
160
  8
図枠
 10
1196.3192629557
 20
-685.85547881189996
 30
0.0
 11
1191.0692629557
 21
-685.85547881189996
 31
0.0
  0
LINE
  5
161
  8
図枠
 10
1191.0692629557
 20
-685.85547881189996
 30
0.0
 11
1191.0692629557
 21
-684.10547881189996
 31
0.0
  0
LINE
  5
162
  8
図枠
 10
1244.8925734367999
 20
-684.8054788119
 30
0.0
 11
1253.6379067702001
 21
-684.8054788119
 31
0.0
  0
LINE
  5
163
  8
図枠
 10
1263.0385688071999
 20
-683.02492769529999
 30
0.0
 11
1265.8925734367999
 21
-678.85547881189996
 31
0.0
  0
LINE
  5
164
  8
図枠
 10
1205.6313841678
 20
-703.35547881189996
 30
0.0
 11
1205.6313841678
 21
-698.10547881189996
 31
0.0
  0
LINE
  5
165
  8
図枠
 10
1292.0070002467
 20
-595.12383419599985
 30
0.0
 11
1292.0070002467
 21
-710.62383419600008
 31
0.0
  0
INSERT
  5
166
  8
0
  6
CONTINUOUS
  2
*U55
 10
0.0
 20
0.0
 30
0.0
  0
INSERT
  5
167
  8
0
  6
CONTINUOUS
  2
*U56
 10
0.0
 20
0.0
 30
0.0
  0
INSERT
  5
168
  8
0
  6
CONTINUOUS
  2
*U57
 10
0.0
 20
0.0
 30
0.0
  0
LINE
  5
169
  8
図枠
 62
     5
 10
1212.3495013956001
 20
218.55893693249999
 30
0.0
 11
1229.6745013955999
 21
218.55893693249999
 31
0.0
  0
LINE
  5
16A
  8
図枠
 10
1162.5403996153
 20
-691.10547881190007
 30
0.0
 11
1166.0403996153
 21
-691.10547881190007
 31
0.0
  0
ARC
  5
16B
  8
図枠
 10
1214.3813841678
 20
-684.10547881189996
 30
0.0
 40
19.25
 50
322.48761197969998
 51
0.0
  0
LINE
  5
16C
  8
図枠
 10
1166.5692629557
 20
-703.35547881189996
 30
0.0
 11
1180.5692629557
 21
-703.35547881189996
 31
0.0
  0
LINE
  5
16D
  8
図枠
 10
1244.8925734367999
 20
-700.20547881189987
 30
0.0
 11
1258.1552401035001
 21
-700.20547881189987
 31
0.0
  0
ARC
  5
16E
  8
図枠
 10
1177.0692629557
 20
-692.85547881190007
 30
0.0
 40
5.25
 50
270.0
 51
0.0
  0
LINE
  5
16F
  8
図枠
 10
1244.8925734367999
 20
-693.90547881190002
 30
0.0
 11
1244.8925734367999
 21
-700.20547881189987
 31
0.0
  0
LINE
  5
170
  8
図枠
 10
1166.5692629557
 20
-696.35547881189996
 30
0.0
 11
1175.3192629557
 21
-696.35547881189996
 31
0.0
  0
LINE
  5
171
  8
図枠
 10
1221.5084778887001
 20
-691.17222697979992
 30
0.0
 11
1220.6663925666001
 21
-692.10231124170002
 31
0.0
  0
LINE
  5
172
  8
図枠
 10
1269.3925734367999
 20
-705.10547881189996
 30
0.0
 11
1259.5925734368
 21
-705.10547881189996
 31
0.0
  0
LINE
  5
173
  8
図枠
 10
1182.3192629557
 20
-691.10547881190007
 30
0.0
 11
1182.3192629557
 21
-692.85547881190007
 31
0.0
  0
LINE
  5
174
  8
図枠
 10
1537.0070002467
 20
-595.12383419599985
 30
0.0
 11
1029.5070002467
 21
-595.12383419599985
 31
0.0
  0
LINE
  5
175
  8
図枠
 10
1269.9077115376001
 20
-605.97383419599998
 30
0.0
 11
1269.9077115376001
 21
-622.77383419599994
 31
0.0
  0
LINE
  5
176
  8
図枠
 62
     5
 10
1221.0120013956
 20
250.88782705310001
 30
0.0
 11
1212.3495013956001
 21
235.88393693250001
 31
0.0
  0
LINE
  5
177
  8
図枠
 10
1196.3192629557
 20
-678.85547881189996
 30
0.0
 11
1182.3192629557
 21
-678.85547881189996
 31
0.0
  0
LINE
  5
178
  8
図枠
 10
1191.0692629557
 20
-692.85547881190007
 30
0.0
 11
1191.0692629557
 21
-691.10547881190007
 31
0.0
  0
LINE
  5
179
  8
図枠
 10
1244.8925734367999
 20
-684.8054788119
 30
0.0
 11
1244.8925734367999
 21
-691.10547881190007
 31
0.0
  0
LINE
  5
17A
  8
図枠
 10
1182.3192629557
 20
-685.85547881189996
 30
0.0
 11
1175.3192629557
 21
-685.85547881189996
 31
0.0
  0
LINE
  5
17B
  8
図枠
 10
1180.5692629557
 20
-678.85547881189996
 30
0.0
 11
1166.5692629557
 21
-678.85547881189996
 31
0.0
  0
LINE
  5
17C
  8
図枠
 10
1175.3192629557
 20
-684.10547881189996
 30
0.0
 11
1180.5692629557
 21
-678.85547881189996
 31
0.0
  0
LINE
  5
17D
  8
図枠
 10
1166.5692629557
 20
-678.85547881189996
 30
0.0
 11
1166.5692629557
 21
-685.85547881189996
 31
0.0
  0
LINE
  5
17E
  8
図枠
 10
1267.9825260825
 20
-700.20547881189987
 30
0.0
 11
1276.3925734367999
 21
-700.20547881189987
 31
0.0
  0
LINE
  5
17F
  8
図枠
 10
1253.6379067702001
 20
-684.8054788119
 30
0.0
 11
1251.8925734367999
 21
-678.85547881189996
 31
0.0
  0
LINE
  5
180
  8
図枠
 10
1244.8925734367999
 20
-693.90547881190002
 30
0.0
 11
1256.3072401034999
 21
-693.90547881190002
 31
0.0
  0
LINE
  5
181
  8
図枠
 10
1266.1696080554
 20
-693.90547881190002
 30
0.0
 11
1265.3638667099999
 21
-691.10547881190007
 31
0.0
  0
ARC
  5
182
  8
図枠
 10
1209.8313841678
 20
-684.8054788119
 30
0.0
 40
13.300000000000001
 50
270.0
 51
298.08590481520002
  0
INSERT
  5
183
  8
0
  6
CONTINUOUS
  2
*U58
 10
0.0
 20
0.0
 30
0.0
  0
LINE
  5
184
  8
図枠
 10
1038.2570002467
 20
-614.37383419599985
 30
0.0
 11
1108.2570002467
 21
-614.37383419599985
 31
0.0
  0
LINE
  5
185
  8
図枠
 10
1117.0070002467
 20
-595.12383419599985
 30
0.0
 11
1117.0070002467
 21
-633.62383419599985
 31
0.0
  0
LINE
  5
186
  8
図枠
 10
1029.5070002467
 20
-633.62383419599985
 30
0.0
 11
1537.0070002467
 21
-633.62383419599985
 31
0.0
  0
LINE
  5
187
  8
図枠
 10
1204.5070002467
 20
-595.12383419599985
 30
0.0
 11
1204.5070002467
 21
-633.62383419599985
 31
0.0
  0
LINE
  5
188
  8
図枠
  6
BORDER
 10
1233.9070002466999
 20
-601.77383419599994
 30
0.0
 11
1233.9070002466999
 21
-626.97383419599998
 31
0.0
  0
LINE
  5
189
  8
図枠
  6
BORDER
 10
1233.9070002466999
 20
-601.77383419599994
 30
0.0
 11
1233.9070002466999
 21
-626.97383419599998
 31
0.0
  0
LINE
  5
18A
  8
図枠
 10
1276.3925734367999
 20
-684.8054788119
 30
0.0
 11
1276.3925734367999
 21
-691.10547881190007
 31
0.0
  0
LINE
  5
18B
  8
図枠
 10
1125.7570002467
 20
-614.37383419599985
 30
0.0
 11
1195.7570002467
 21
-614.37383419599985
 31
0.0
  0
INSERT
  5
18C
  8
0
  6
CONTINUOUS
  2
*U59
 10
0.0
 20
0.0
 30
0.0
  0
CIRCLE
  5
18D
  8
図枠
 10
1233.9070002466999
 20
-614.37383419599985
 30
0.0
 40
8.4000000000000004
  0
LINE
  5
18E
  8
図枠
 10
1253.1077115375999
 20
-610.17383419600003
 30
0.0
 11
1269.9077115376001
 21
-605.97383419599998
 31
0.0
  0
INSERT
  5
18F
  8
0
  6
CONTINUOUS
  2
*U60
 10
0.0
 20
0.0
 30
0.0
  0
CIRCLE
  5
190
  8
図枠
 10
1233.9070002466999
 20
-614.37383419599985
 30
0.0
 40
4.2000000000000002
  0
LINE
  5
191
  8
図枠
 10
1269.3925734367999
 20
-705.10547881189996
 30
0.0
 11
1267.9825260825
 21
-700.20547881189987
 31
0.0
  0
LINE
  5
192
  8
図枠
 10
1266.1696080554
 20
-693.90547881190002
 30
0.0
 11
1276.3925734367999
 21
-693.90547881190002
 31
0.0
  0
LINE
  5
193
  8
図枠
 10
1205.6313841678
 20
-698.10547881189996
 30
0.0
 11
1209.8313841678
 21
-698.10547881189996
 31
0.0
  0
LINE
  5
194
  8
図枠
 10
1251.8925734367999
 20
-678.85547881189996
 30
0.0
 11
1265.8925734367999
 21
-678.85547881189996
 31
0.0
  0
LINE
  5
195
  8
図枠
 10
1166.5692629557
 20
-685.85547881189996
 30
0.0
 11
1162.5403996153
 21
-685.85547881189996
 31
0.0
  0
LINE
  5
196
  8
図枠
 10
1205.6313841678
 20
-698.10547881189996
 30
0.0
 11
1205.6313841678
 21
-703.35547881189996
 31
0.0
  0
LINE
  5
197
  8
図枠
 10
1166.5692629557
 20
-691.10547881190007
 30
0.0
 11
1166.0403996153
 21
-691.10547881190007
 31
0.0
  0
LINE
  5
198
  8
図枠
 10
1166.5692629557
 20
-698.10547881189996
 30
0.0
 11
1166.5692629557
 21
-703.35547881189996
 31
0.0
  0
ARC
  5
199
  8
図枠
 10
1209.8313841678
 20
-684.8054788119
 30
0.0
 40
13.300000000000001
 50
331.39928138329998
 51
358.49204224580001
  0
LINE
  5
19A
  8
図枠
 10
1191.0692629557
 20
-691.10547881190007
 30
0.0
 11
1196.3192629557
 21
-691.10547881190007
 31
0.0
  0
ARC
  5
19B
  8
図枠
 10
1214.3813841678
 20
-684.10547881189996
 30
0.0
 40
19.25
 50
270.0
 51
302.54495885400001
  0
LINE
  5
19C
  8
図枠
 10
1253.1077115375999
 20
-618.57383419600001
 30
0.0
 11
1269.9077115376001
 21
-622.77383419599994
 31
0.0
  0
LINE
  5
19D
  8
図枠
 10
1253.1077115375999
 20
-610.17383419600003
 30
0.0
 11
1253.1077115375999
 21
-618.57383419600001
 31
0.0
  0
LINE
  5
19E
  8
図枠
 10
1269.9077115376001
 20
-605.97383419599998
 30
0.0
 11
1269.9077115376001
 21
-622.77383419599994
 31
0.0
  0
LINE
  5
19F
  8
図枠
 10
1219.6313841678
 20
-686.98286474809993
 30
0.0
 11
1217.6514851805
 21
-688.96276373539979
 31
0.0
  0
LINE
  5
1A0
  8
図枠
  6
BORDER
 10
1221.3070002467
 20
-614.37383419599985
 30
0.0
 11
1275.2070002467001
 21
-614.37383419599985
 31
0.0
  0
CIRCLE
  5
1A1
  8
図枠
 10
1233.9070002466999
 20
-614.37383419599985
 30
0.0
 40
4.2000000000000002
  0
POLYLINE
  8
図枠
  5
4D3
  66
     1
 10
0.000000
 20
0.000000
 30
0.000000
  70
     8
  0
VERTEX
  8
図枠
  5
4D4
 10
1229.03
 20
-696.438
 30
0.000000
  70
    32
  0
VERTEX
  8
図枠
  5
4D5
 10
1229.09
 20
-696.455
 30
0.000000
  70
    32
  0
VERTEX
  8
図枠
  5
4D6
 10
1229.15
 20
-696.472
 30
0.000000
  70
    32
  0
VERTEX
  8
図枠
  5
4D7
 10
1229.21
 20
-696.489
 30
0.000000
  70
    32
  0
VERTEX
  8
図枠
  5
4D8
 10
1229.27
 20
-696.507
 30
0.000000
  70
    32
  0
VERTEX
  8
図枠
  5
4D9
 10
1229.33
 20
-696.523
 30
0.000000
  70
    32
  0
VERTEX
  8
図枠
  5
4DA
 10
1229.40
 20
-696.540
 30
0.000000
  70
    32
  0
VERTEX
  8
図枠
  5
4DB
 10
1229.46
 20
-696.557
 30
0.000000
  70
    32
  0
VERTEX
  8
図枠
  5
4DC
 10
1229.52
 20
-696.574
 30
0.000000
  70
    32
  0
VERTEX
  8
図枠
  5
4DD
 10
1229.58
 20
-696.590
 30
0.000000
  70
    32
  0
VERTEX
  8
図枠
  5
4DE
 10
1229.64
 20
-696.607
 30
0.000000
  70
    32
  0
VERTEX
  8
図枠
  5
4DF
 10
1229.70
 20
-696.623
 30
0.000000
  70
    32
  0
VERTEX
  8
図枠
  5
4E0
 10
1229.77
 20
-696.639
 30
0.000000
  70
    32
  0
VERTEX
  8
図枠
  5
4E1
 10
1229.83
 20
-696.656
 30
0.000000
  70
    32
  0
VERTEX
  8
図枠
  5
4E2
 10
1229.89
 20
-696.672
 30
0.000000
  70
    32
  0
VERTEX
  8
図枠
  5
4E3
 10
1229.95
 20
-696.688
 30
0.000000
  70
    32
  0
VERTEX
  8
図枠
  5
4E4
 10
1230.01
 20
-696.704
 30
0.000000
  70
    32
  0
VERTEX
  8
図枠
  5
4E5
 10
1230.08
 20
-696.720
 30
0.000000
  70
    32
  0
VERTEX
  8
図枠
  5
4E6
 10
1230.14
 20
-696.735
 30
0.000000
  70
    32
  0
VERTEX
  8
図枠
  5
4E7
 10
1230.20
 20
-696.751
 30
0.000000
  70
    32
  0
VERTEX
  8
図枠
  5
4E8
 10
1230.26
 20
-696.767
 30
0.000000
  70
    32
  0
VERTEX
  8
図枠
  5
4E9
 10
1230.32
 20
-696.782
 30
0.000000
  70
    32
  0
VERTEX
  8
図枠
  5
4EA
 10
1230.39
 20
-696.797
 30
0.000000
  70
    32
  0
VERTEX
  8
図枠
  5
4EB
 10
1230.45
 20
-696.813
 30
0.000000
  70
    32
  0
VERTEX
  8
図枠
  5
4EC
 10
1230.51
 20
-696.828
 30
0.000000
  70
    32
  0
VERTEX
  8
図枠
  5
4ED
 10
1230.57
 20
-696.843
 30
0.000000
  70
    32
  0
VERTEX
  8
図枠
  5
4EE
 10
1230.64
 20
-696.858
 30
0.000000
  70
    32
  0
VERTEX
  8
図枠
  5
4EF
 10
1230.70
 20
-696.873
 30
0.000000
  70
    32
  0
VERTEX
  8
図枠
  5
4F0
 10
1230.76
 20
-696.888
 30
0.000000
  70
    32
  0
VERTEX
  8
図枠
  5
4F1
 10
1230.83
 20
-696.903
 30
0.000000
  70
    32
  0
VERTEX
  8
図枠
  5
4F2
 10
1230.89
 20
-696.918
 30
0.000000
  70
    32
  0
VERTEX
  8
図枠
  5
4F3
 10
1230.95
 20
-696.933
 30
0.000000
  70
    32
  0
VERTEX
  8
図枠
  5
4F4
 10
1231.01
 20
-696.947
 30
0.000000
  70
    32
  0
VERTEX
  8
図枠
  5
4F5
 10
1231.08
 20
-696.962
 30
0.000000
  70
    32
  0
VERTEX
  8
図枠
  5
4F6
 10
1231.14
 20
-696.976
 30
0.000000
  70
    32
  0
VERTEX
  8
図枠
  5
4F7
 10
1231.20
 20
-696.991
 30
0.000000
  70
    32
  0
VERTEX
  8
図枠
  5
4F8
 10
1231.27
 20
-697.005
 30
0.000000
  70
    32
  0
VERTEX
  8
図枠
  5
4F9
 10
1231.33
 20
-697.019
 30
0.000000
  70
    32
  0
VERTEX
  8
図枠
  5
4FA
 10
1231.39
 20
-697.033
 30
0.000000
  70
    32
  0
VERTEX
  8
図枠
  5
4FB
 10
1231.46
 20
-697.047
 30
0.000000
  70
    32
  0
VERTEX
  8
図枠
  5
4FC
 10
1231.52
 20
-697.061
 30
0.000000
  70
    32
  0
VERTEX
  8
図枠
  5
4FD
 10
1231.58
 20
-697.075
 30
0.000000
  70
    32
  0
VERTEX
  8
図枠
  5
4FE
 10
1231.65
 20
-697.089
 30
0.000000
  70
    32
  0
VERTEX
  8
図枠
  5
4FF
 10
1231.71
 20
-697.103
 30
0.000000
  70
    32
  0
VERTEX
  8
図枠
  5
500
 10
1231.77
 20
-697.117
 30
0.000000
  70
    32
  0
VERTEX
  8
図枠
  5
501
 10
1231.84
 20
-697.131
 30
0.000000
  70
    32
  0
VERTEX
  8
図枠
  5
502
 10
1231.90
 20
-697.144
 30
0.000000
  70
    32
  0
VERTEX
  8
図枠
  5
503
 10
1231.96
 20
-697.158
 30
0.000000
  70
    32
  0
VERTEX
  8
図枠
  5
504
 10
1232.03
 20
-697.171
 30
0.000000
  70
    32
  0
VERTEX
  8
図枠
  5
505
 10
1232.09
 20
-697.185
 30
0.000000
  70
    32
  0
VERTEX
  8
図枠
  5
506
 10
1232.15
 20
-697.198
 30
0.000000
  70
    32
  0
VERTEX
  8
図枠
  5
507
 10
1232.22
 20
-697.211
 30
0.000000
  70
    32
  0
VERTEX
  8
図枠
  5
508
 10
1232.28
 20
-697.225
 30
0.000000
  70
    32
  0
VERTEX
  8
図枠
  5
509
 10
1232.34
 20
-697.238
 30
0.000000
  70
    32
  0
VERTEX
  8
図枠
  5
50A
 10
1232.41
 20
-697.251
 30
0.000000
  70
    32
  0
VERTEX
  8
図枠
  5
50B
 10
1232.47
 20
-697.264
 30
0.000000
  70
    32
  0
VERTEX
  8
図枠
  5
50C
 10
1232.54
 20
-697.277
 30
0.000000
  70
    32
  0
VERTEX
  8
図枠
  5
50D
 10
1232.60
 20
-697.290
 30
0.000000
  70
    32
  0
VERTEX
  8
図枠
  5
50E
 10
1232.66
 20
-697.303
 30
0.000000
  70
    32
  0
VERTEX
  8
図枠
  5
50F
 10
1232.73
 20
-697.316
 30
0.000000
  70
    32
  0
VERTEX
  8
図枠
  5
510
 10
1232.79
 20
-697.329
 30
0.000000
  70
    32
  0
VERTEX
  8
図枠
  5
511
 10
1232.86
 20
-697.341
 30
0.000000
  70
    32
  0
VERTEX
  8
図枠
  5
512
 10
1232.92
 20
-697.354
 30
0.000000
  70
    32
  0
VERTEX
  8
図枠
  5
513
 10
1232.98
 20
-697.367
 30
0.000000
  70
    32
  0
VERTEX
  8
図枠
  5
514
 10
1233.05
 20
-697.379
 30
0.000000
  70
    32
  0
VERTEX
  8
図枠
  5
515
 10
1233.11
 20
-697.392
 30
0.000000
  70
    32
  0
VERTEX
  8
図枠
  5
516
 10
1233.18
 20
-697.404
 30
0.000000
  70
    32
  0
VERTEX
  8
図枠
  5
517
 10
1233.24
 20
-697.417
 30
0.000000
  70
    32
  0
VERTEX
  8
図枠
  5
518
 10
1233.31
 20
-697.429
 30
0.000000
  70
    32
  0
VERTEX
  8
図枠
  5
519
 10
1233.37
 20
-697.442
 30
0.000000
  70
    32
  0
VERTEX
  8
図枠
  5
51A
 10
1233.43
 20
-697.454
 30
0.000000
  70
    32
  0
VERTEX
  8
図枠
  5
51B
 10
1233.50
 20
-697.466
 30
0.000000
  70
    32
  0
VERTEX
  8
図枠
  5
51C
 10
1233.56
 20
-697.478
 30
0.000000
  70
    32
  0
VERTEX
  8
図枠
  5
51D
 10
1233.63
 20
-697.491
 30
0.000000
  70
    32
  0
VERTEX
  8
図枠
  5
51E
 10
1233.69
 20
-697.503
 30
0.000000
  70
    32
  0
VERTEX
  8
図枠
  5
51F
 10
1233.76
 20
-697.515
 30
0.000000
  70
    32
  0
VERTEX
  8
図枠
  5
520
 10
1233.82
 20
-697.527
 30
0.000000
  70
    32
  0
VERTEX
  8
図枠
  5
521
 10
1233.88
 20
-697.539
 30
0.000000
  70
    32
  0
VERTEX
  8
図枠
  5
522
 10
1233.95
 20
-697.551
 30
0.000000
  70
    32
  0
VERTEX
  8
図枠
  5
523
 10
1234.01
 20
-697.563
 30
0.000000
  70
    32
  0
VERTEX
  8
図枠
  5
524
 10
1234.08
 20
-697.575
 30
0.000000
  70
    32
  0
VERTEX
  8
図枠
  5
525
 10
1234.14
 20
-697.587
 30
0.000000
  70
    32
  0
VERTEX
  8
図枠
  5
526
 10
1234.21
 20
-697.598
 30
0.000000
  70
    32
  0
VERTEX
  8
図枠
  5
527
 10
1234.27
 20
-697.610
 30
0.000000
  70
    32
  0
VERTEX
  8
図枠
  5
528
 10
1234.34
 20
-697.622
 30
0.000000
  70
    32
  0
VERTEX
  8
図枠
  5
529
 10
1234.40
 20
-697.634
 30
0.000000
  70
    32
  0
VERTEX
  8
図枠
  5
52A
 10
1234.47
 20
-697.645
 30
0.000000
  70
    32
  0
VERTEX
  8
図枠
  5
52B
 10
1234.53
 20
-697.657
 30
0.000000
  70
    32
  0
VERTEX
  8
図枠
  5
52C
 10
1234.60
 20
-697.669
 30
0.000000
  70
    32
  0
VERTEX
  8
図枠
  5
52D
 10
1234.66
 20
-697.680
 30
0.000000
  70
    32
  0
VERTEX
  8
図枠
  5
52E
 10
1234.73
 20
-697.692
 30
0.000000
  70
    32
  0
VERTEX
  8
図枠
  5
52F
 10
1234.79
 20
-697.703
 30
0.000000
  70
    32
  0
VERTEX
  8
図枠
  5
530
 10
1234.86
 20
-697.715
 30
0.000000
  70
    32
  0
VERTEX
  8
図枠
  5
531
 10
1234.92
 20
-697.726
 30
0.000000
  70
    32
  0
VERTEX
  8
図枠
  5
532
 10
1234.98
 20
-697.738
 30
0.000000
  70
    32
  0
VERTEX
  8
図枠
  5
533
 10
1235.05
 20
-697.749
 30
0.000000
  70
    32
  0
VERTEX
  8
図枠
  5
534
 10
1235.11
 20
-697.761
 30
0.000000
  70
    32
  0
VERTEX
  8
図枠
  5
535
 10
1235.18
 20
-697.772
 30
0.000000
  70
    32
  0
VERTEX
  8
図枠
  5
536
 10
1235.24
 20
-697.783
 30
0.000000
  70
    32
  0
VERTEX
  8
図枠
  5
537
 10
1235.31
 20
-697.795
 30
0.000000
  70
    32
  0
VERTEX
  8
図枠
  5
538
 10
1235.37
 20
-697.806
 30
0.000000
  70
    32
  0
VERTEX
  8
図枠
  5
539
 10
1235.44
 20
-697.817
 30
0.000000
  70
    32
  0
VERTEX
  8
図枠
  5
53A
 10
1235.50
 20
-697.828
 30
0.000000
  70
    32
  0
VERTEX
  8
図枠
  5
53B
 10
1235.57
 20
-697.840
 30
0.000000
  70
    32
  0
VERTEX
  8
図枠
  5
53C
 10
1235.63
 20
-697.851
 30
0.000000
  70
    32
  0
VERTEX
  8
図枠
  5
53D
 10
1235.70
 20
-697.862
 30
0.000000
  70
    32
  0
VERTEX
  8
図枠
  5
53E
 10
1235.76
 20
-697.873
 30
0.000000
  70
    32
  0
VERTEX
  8
図枠
  5
53F
 10
1235.83
 20
-697.884
 30
0.000000
  70
    32
  0
VERTEX
  8
図枠
  5
540
 10
1235.89
 20
-697.896
 30
0.000000
  70
    32
  0
VERTEX
  8
図枠
  5
541
 10
1235.96
 20
-697.907
 30
0.000000
  70
    32
  0
VERTEX
  8
図枠
  5
542
 10
1236.02
 20
-697.918
 30
0.000000
  70
    32
  0
VERTEX
  8
図枠
  5
543
 10
1236.09
 20
-697.929
 30
0.000000
  70
    32
  0
VERTEX
  8
図枠
  5
544
 10
1236.15
 20
-697.940
 30
0.000000
  70
    32
  0
VERTEX
  8
図枠
  5
545
 10
1236.22
 20
-697.951
 30
0.000000
  70
    32
  0
VERTEX
  8
図枠
  5
546
 10
1236.28
 20
-697.962
 30
0.000000
  70
    32
  0
VERTEX
  8
図枠
  5
547
 10
1236.35
 20
-697.973
 30
0.000000
  70
    32
  0
VERTEX
  8
図枠
  5
548
 10
1236.42
 20
-697.984
 30
0.000000
  70
    32
  0
VERTEX
  8
図枠
  5
549
 10
1236.48
 20
-697.995
 30
0.000000
  70
    32
  0
VERTEX
  8
図枠
  5
54A
 10
1236.55
 20
-698.006
 30
0.000000
  70
    32
  0
VERTEX
  8
図枠
  5
54B
 10
1236.61
 20
-698.017
 30
0.000000
  70
    32
  0
VERTEX
  8
図枠
  5
54C
 10
1236.68
 20
-698.028
 30
0.000000
  70
    32
  0
VERTEX
  8
図枠
  5
54D
 10
1236.74
 20
-698.039
 30
0.000000
  70
    32
  0
VERTEX
  8
図枠
  5
54E
 10
1236.81
 20
-698.050
 30
0.000000
  70
    32
  0
VERTEX
  8
図枠
  5
54F
 10
1236.87
 20
-698.061
 30
0.000000
  70
    32
  0
VERTEX
  8
図枠
  5
550
 10
1236.94
 20
-698.072
 30
0.000000
  70
    32
  0
VERTEX
  8
図枠
  5
551
 10
1237.00
 20
-698.083
 30
0.000000
  70
    32
  0
VERTEX
  8
図枠
  5
552
 10
1237.07
 20
-698.094
 30
0.000000
  70
    32
  0
VERTEX
  8
図枠
  5
553
 10
1237.13
 20
-698.105
 30
0.000000
  70
    32
  0
SEQEND
  8
図枠
  5
554
  0
POLYLINE
  8
図枠
  5
555
  66
     1
 10
0.000000
 20
0.000000
 30
0.000000
  70
     8
  0
VERTEX
  8
図枠
  5
556
 10
1217.65
 20
-688.963
 30
0.000000
  70
    32
  0
VERTEX
  8
図枠
  5
557
 10
1217.67
 20
-688.989
 30
0.000000
  70
    32
  0
VERTEX
  8
図枠
  5
558
 10
1217.70
 20
-689.014
 30
0.000000
  70
    32
  0
VERTEX
  8
図枠
  5
559
 10
1217.72
 20
-689.040
 30
0.000000
  70
    32
  0
VERTEX
  8
図枠
  5
55A
 10
1217.74
 20
-689.066
 30
0.000000
  70
    32
  0
VERTEX
  8
図枠
  5
55B
 10
1217.77
 20
-689.092
 30
0.000000
  70
    32
  0
VERTEX
  8
図枠
  5
55C
 10
1217.79
 20
-689.117
 30
0.000000
  70
    32
  0
VERTEX
  8
図枠
  5
55D
 10
1217.81
 20
-689.143
 30
0.000000
  70
    32
  0
VERTEX
  8
図枠
  5
55E
 10
1217.84
 20
-689.169
 30
0.000000
  70
    32
  0
VERTEX
  8
図枠
  5
55F
 10
1217.86
 20
-689.195
 30
0.000000
  70
    32
  0
VERTEX
  8
図枠
  5
560
 10
1217.88
 20
-689.220
 30
0.000000
  70
    32
  0
VERTEX
  8
図枠
  5
561
 10
1217.91
 20
-689.246
 30
0.000000
  70
    32
  0
VERTEX
  8
図枠
  5
562
 10
1217.93
 20
-689.272
 30
0.000000
  70
    32
  0
VERTEX
  8
図枠
  5
563
 10
1217.95
 20
-689.297
 30
0.000000
  70
    32
  0
VERTEX
  8
図枠
  5
564
 10
1217.97
 20
-689.323
 30
0.000000
  70
    32
  0
VERTEX
  8
図枠
  5
565
 10
1218.00
 20
-689.349
 30
0.000000
  70
    32
  0
VERTEX
  8
図枠
  5
566
 10
1218.02
 20
-689.375
 30
0.000000
  70
    32
  0
VERTEX
  8
図枠
  5
567
 10
1218.04
 20
-689.400
 30
0.000000
  70
    32
  0
VERTEX
  8
図枠
  5
568
 10
1218.07
 20
-689.426
 30
0.000000
  70
    32
  0
VERTEX
  8
図枠
  5
569
 10
1218.09
 20
-689.452
 30
0.000000
  70
    32
  0
VERTEX
  8
図枠
  5
56A
 10
1218.11
 20
-689.477
 30
0.000000
  70
    32
  0
VERTEX
  8
図枠
  5
56B
 10
1218.14
 20
-689.503
 30
0.000000
  70
    32
  0
VERTEX
  8
図枠
  5
56C
 10
1218.16
 20
-689.529
 30
0.000000
  70
    32
  0
VERTEX
  8
図枠
  5
56D
 10
1218.18
 20
-689.554
 30
0.000000
  70
    32
  0
VERTEX
  8
図枠
  5
56E
 10
1218.21
 20
-689.580
 30
0.000000
  70
    32
  0
VERTEX
  8
図枠
  5
56F
 10
1218.23
 20
-689.606
 30
0.000000
  70
    32
  0
VERTEX
  8
図枠
  5
570
 10
1218.25
 20
-689.631
 30
0.000000
  70
    32
  0
VERTEX
  8
図枠
  5
571
 10
1218.28
 20
-689.657
 30
0.000000
  70
    32
  0
VERTEX
  8
図枠
  5
572
 10
1218.30
 20
-689.682
 30
0.000000
  70
    32
  0
VERTEX
  8
図枠
  5
573
 10
1218.32
 20
-689.708
 30
0.000000
  70
    32
  0
VERTEX
  8
図枠
  5
574
 10
1218.35
 20
-689.734
 30
0.000000
  70
    32
  0
VERTEX
  8
図枠
  5
575
 10
1218.37
 20
-689.759
 30
0.000000
  70
    32
  0
VERTEX
  8
図枠
  5
576
 10
1218.39
 20
-689.785
 30
0.000000
  70
    32
  0
VERTEX
  8
図枠
  5
577
 10
1218.42
 20
-689.810
 30
0.000000
  70
    32
  0
VERTEX
  8
図枠
  5
578
 10
1218.44
 20
-689.836
 30
0.000000
  70
    32
  0
VERTEX
  8
図枠
  5
579
 10
1218.46
 20
-689.861
 30
0.000000
  70
    32
  0
VERTEX
  8
図枠
  5
57A
 10
1218.48
 20
-689.887
 30
0.000000
  70
    32
  0
VERTEX
  8
図枠
  5
57B
 10
1218.51
 20
-689.912
 30
0.000000
  70
    32
  0
VERTEX
  8
図枠
  5
57C
 10
1218.53
 20
-689.938
 30
0.000000
  70
    32
  0
VERTEX
  8
図枠
  5
57D
 10
1218.55
 20
-689.963
 30
0.000000
  70
    32
  0
VERTEX
  8
図枠
  5
57E
 10
1218.58
 20
-689.989
 30
0.000000
  70
    32
  0
VERTEX
  8
図枠
  5
57F
 10
1218.60
 20
-690.014
 30
0.000000
  70
    32
  0
VERTEX
  8
図枠
  5
580
 10
1218.62
 20
-690.040
 30
0.000000
  70
    32
  0
VERTEX
  8
図枠
  5
581
 10
1218.65
 20
-690.065
 30
0.000000
  70
    32
  0
VERTEX
  8
図枠
  5
582
 10
1218.67
 20
-690.090
 30
0.000000
  70
    32
  0
VERTEX
  8
図枠
  5
583
 10
1218.69
 20
-690.116
 30
0.000000
  70
    32
  0
VERTEX
  8
図枠
  5
584
 10
1218.72
 20
-690.141
 30
0.000000
  70
    32
  0
VERTEX
  8
図枠
  5
585
 10
1218.74
 20
-690.167
 30
0.000000
  70
    32
  0
VERTEX
  8
図枠
  5
586
 10
1218.76
 20
-690.192
 30
0.000000
  70
    32
  0
VERTEX
  8
図枠
  5
587
 10
1218.79
 20
-690.217
 30
0.000000
  70
    32
  0
VERTEX
  8
図枠
  5
588
 10
1218.81
 20
-690.242
 30
0.000000
  70
    32
  0
VERTEX
  8
図枠
  5
589
 10
1218.83
 20
-690.268
 30
0.000000
  70
    32
  0
VERTEX
  8
図枠
  5
58A
 10
1218.86
 20
-690.293
 30
0.000000
  70
    32
  0
VERTEX
  8
図枠
  5
58B
 10
1218.88
 20
-690.318
 30
0.000000
  70
    32
  0
VERTEX
  8
図枠
  5
58C
 10
1218.91
 20
-690.343
 30
0.000000
  70
    32
  0
VERTEX
  8
図枠
  5
58D
 10
1218.93
 20
-690.369
 30
0.000000
  70
    32
  0
VERTEX
  8
図枠
  5
58E
 10
1218.95
 20
-690.394
 30
0.000000
  70
    32
  0
VERTEX
  8
図枠
  5
58F
 10
1218.98
 20
-690.419
 30
0.000000
  70
    32
  0
VERTEX
  8
図枠
  5
590
 10
1219.00
 20
-690.444
 30
0.000000
  70
    32
  0
VERTEX
  8
図枠
  5
591
 10
1219.02
 20
-690.469
 30
0.000000
  70
    32
  0
VERTEX
  8
図枠
  5
592
 10
1219.05
 20
-690.494
 30
0.000000
  70
    32
  0
VERTEX
  8
図枠
  5
593
 10
1219.07
 20
-690.519
 30
0.000000
  70
    32
  0
VERTEX
  8
図枠
  5
594
 10
1219.09
 20
-690.544
 30
0.000000
  70
    32
  0
VERTEX
  8
図枠
  5
595
 10
1219.12
 20
-690.569
 30
0.000000
  70
    32
  0
VERTEX
  8
図枠
  5
596
 10
1219.14
 20
-690.594
 30
0.000000
  70
    32
  0
VERTEX
  8
図枠
  5
597
 10
1219.16
 20
-690.619
 30
0.000000
  70
    32
  0
VERTEX
  8
図枠
  5
598
 10
1219.19
 20
-690.644
 30
0.000000
  70
    32
  0
VERTEX
  8
図枠
  5
599
 10
1219.21
 20
-690.669
 30
0.000000
  70
    32
  0
VERTEX
  8
図枠
  5
59A
 10
1219.23
 20
-690.694
 30
0.000000
  70
    32
  0
VERTEX
  8
図枠
  5
59B
 10
1219.26
 20
-690.719
 30
0.000000
  70
    32
  0
VERTEX
  8
図枠
  5
59C
 10
1219.28
 20
-690.744
 30
0.000000
  70
    32
  0
VERTEX
  8
図枠
  5
59D
 10
1219.31
 20
-690.768
 30
0.000000
  70
    32
  0
VERTEX
  8
図枠
  5
59E
 10
1219.33
 20
-690.793
 30
0.000000
  70
    32
  0
VERTEX
  8
図枠
  5
59F
 10
1219.35
 20
-690.818
 30
0.000000
  70
    32
  0
VERTEX
  8
図枠
  5
5A0
 10
1219.38
 20
-690.843
 30
0.000000
  70
    32
  0
VERTEX
  8
図枠
  5
5A1
 10
1219.40
 20
-690.867
 30
0.000000
  70
    32
  0
VERTEX
  8
図枠
  5
5A2
 10
1219.42
 20
-690.892
 30
0.000000
  70
    32
  0
VERTEX
  8
図枠
  5
5A3
 10
1219.45
 20
-690.917
 30
0.000000
  70
    32
  0
VERTEX
  8
図枠
  5
5A4
 10
1219.47
 20
-690.941
 30
0.000000
  70
    32
  0
VERTEX
  8
図枠
  5
5A5
 10
1219.50
 20
-690.966
 30
0.000000
  70
    32
  0
VERTEX
  8
図枠
  5
5A6
 10
1219.52
 20
-690.990
 30
0.000000
  70
    32
  0
VERTEX
  8
図枠
  5
5A7
 10
1219.54
 20
-691.015
 30
0.000000
  70
    32
  0
VERTEX
  8
図枠
  5
5A8
 10
1219.57
 20
-691.039
 30
0.000000
  70
    32
  0
VERTEX
  8
図枠
  5
5A9
 10
1219.59
 20
-691.064
 30
0.000000
  70
    32
  0
VERTEX
  8
図枠
  5
5AA
 10
1219.62
 20
-691.088
 30
0.000000
  70
    32
  0
VERTEX
  8
図枠
  5
5AB
 10
1219.64
 20
-691.113
 30
0.000000
  70
    32
  0
VERTEX
  8
図枠
  5
5AC
 10
1219.66
 20
-691.137
 30
0.000000
  70
    32
  0
VERTEX
  8
図枠
  5
5AD
 10
1219.69
 20
-691.161
 30
0.000000
  70
    32
  0
VERTEX
  8
図枠
  5
5AE
 10
1219.71
 20
-691.185
 30
0.000000
  70
    32
  0
VERTEX
  8
図枠
  5
5AF
 10
1219.74
 20
-691.210
 30
0.000000
  70
    32
  0
VERTEX
  8
図枠
  5
5B0
 10
1219.76
 20
-691.234
 30
0.000000
  70
    32
  0
VERTEX
  8
図枠
  5
5B1
 10
1219.78
 20
-691.258
 30
0.000000
  70
    32
  0
VERTEX
  8
図枠
  5
5B2
 10
1219.81
 20
-691.282
 30
0.000000
  70
    32
  0
VERTEX
  8
図枠
  5
5B3
 10
1219.83
 20
-691.306
 30
0.000000
  70
    32
  0
VERTEX
  8
図枠
  5
5B4
 10
1219.86
 20
-691.330
 30
0.000000
  70
    32
  0
VERTEX
  8
図枠
  5
5B5
 10
1219.88
 20
-691.354
 30
0.000000
  70
    32
  0
VERTEX
  8
図枠
  5
5B6
 10
1219.90
 20
-691.378
 30
0.000000
  70
    32
  0
VERTEX
  8
図枠
  5
5B7
 10
1219.93
 20
-691.402
 30
0.000000
  70
    32
  0
VERTEX
  8
図枠
  5
5B8
 10
1219.95
 20
-691.426
 30
0.000000
  70
    32
  0
VERTEX
  8
図枠
  5
5B9
 10
1219.98
 20
-691.450
 30
0.000000
  70
    32
  0
VERTEX
  8
図枠
  5
5BA
 10
1220.00
 20
-691.474
 30
0.000000
  70
    32
  0
VERTEX
  8
図枠
  5
5BB
 10
1220.03
 20
-691.498
 30
0.000000
  70
    32
  0
VERTEX
  8
図枠
  5
5BC
 10
1220.05
 20
-691.522
 30
0.000000
  70
    32
  0
VERTEX
  8
図枠
  5
5BD
 10
1220.07
 20
-691.545
 30
0.000000
  70
    32
  0
VERTEX
  8
図枠
  5
5BE
 10
1220.10
 20
-691.569
 30
0.000000
  70
    32
  0
VERTEX
  8
図枠
  5
5BF
 10
1220.12
 20
-691.593
 30
0.000000
  70
    32
  0
VERTEX
  8
図枠
  5
5C0
 10
1220.15
 20
-691.616
 30
0.000000
  70
    32
  0
VERTEX
  8
図枠
  5
5C1
 10
1220.17
 20
-691.640
 30
0.000000
  70
    32
  0
VERTEX
  8
図枠
  5
5C2
 10
1220.20
 20
-691.664
 30
0.000000
  70
    32
  0
VERTEX
  8
図枠
  5
5C3
 10
1220.22
 20
-691.687
 30
0.000000
  70
    32
  0
VERTEX
  8
図枠
  5
5C4
 10
1220.25
 20
-691.710
 30
0.000000
  70
    32
  0
VERTEX
  8
図枠
  5
5C5
 10
1220.27
 20
-691.734
 30
0.000000
  70
    32
  0
VERTEX
  8
図枠
  5
5C6
 10
1220.29
 20
-691.757
 30
0.000000
  70
    32
  0
VERTEX
  8
図枠
  5
5C7
 10
1220.32
 20
-691.781
 30
0.000000
  70
    32
  0
VERTEX
  8
図枠
  5
5C8
 10
1220.34
 20
-691.804
 30
0.000000
  70
    32
  0
VERTEX
  8
図枠
  5
5C9
 10
1220.37
 20
-691.827
 30
0.000000
  70
    32
  0
VERTEX
  8
図枠
  5
5CA
 10
1220.39
 20
-691.850
 30
0.000000
  70
    32
  0
VERTEX
  8
図枠
  5
5CB
 10
1220.42
 20
-691.873
 30
0.000000
  70
    32
  0
VERTEX
  8
図枠
  5
5CC
 10
1220.44
 20
-691.896
 30
0.000000
  70
    32
  0
VERTEX
  8
図枠
  5
5CD
 10
1220.47
 20
-691.920
 30
0.000000
  70
    32
  0
VERTEX
  8
図枠
  5
5CE
 10
1220.49
 20
-691.943
 30
0.000000
  70
    32
  0
VERTEX
  8
図枠
  5
5CF
 10
1220.52
 20
-691.966
 30
0.000000
  70
    32
  0
VERTEX
  8
図枠
  5
5D0
 10
1220.54
 20
-691.988
 30
0.000000
  70
    32
  0
VERTEX
  8
図枠
  5
5D1
 10
1220.57
 20
-692.011
 30
0.000000
  70
    32
  0
VERTEX
  8
図枠
  5
5D2
 10
1220.59
 20
-692.034
 30
0.000000
  70
    32
  0
VERTEX
  8
図枠
  5
5D3
 10
1220.62
 20
-692.057
 30
0.000000
  70
    32
  0
VERTEX
  8
図枠
  5
5D4
 10
1220.64
 20
-692.080
 30
0.000000
  70
    32
  0
VERTEX
  8
図枠
  5
5D5
 10
1220.67
 20
-692.102
 30
0.000000
  70
    32
  0
SEQEND
  8
図枠
  5
5D6
  0
POLYLINE
  8
図枠
  5
5D7
  66
     1
 10
0.000000
 20
0.000000
 30
0.000000
  70
     8
  0
VERTEX
  8
図枠
  5
5D8
 10
1224.74
 20
-700.333
 30
0.000000
  70
    32
  0
VERTEX
  8
図枠
  5
5D9
 10
1224.83
 20
-700.363
 30
0.000000
  70
    32
  0
VERTEX
  8
図枠
  5
5DA
 10
1224.93
 20
-700.393
 30
0.000000
  70
    32
  0
VERTEX
  8
図枠
  5
5DB
 10
1225.02
 20
-700.422
 30
0.000000
  70
    32
  0
VERTEX
  8
図枠
  5
5DC
 10
1225.11
 20
-700.452
 30
0.000000
  70
    32
  0
VERTEX
  8
図枠
  5
5DD
 10
1225.21
 20
-700.481
 30
0.000000
  70
    32
  0
VERTEX
  8
図枠
  5
5DE
 10
1225.30
 20
-700.511
 30
0.000000
  70
    32
  0
VERTEX
  8
図枠
  5
5DF
 10
1225.40
 20
-700.540
 30
0.000000
  70
    32
  0
VERTEX
  8
図枠
  5
5E0
 10
1225.49
 20
-700.569
 30
0.000000
  70
    32
  0
VERTEX
  8
図枠
  5
5E1
 10
1225.59
 20
-700.598
 30
0.000000
  70
    32
  0
VERTEX
  8
図枠
  5
5E2
 10
1225.68
 20
-700.627
 30
0.000000
  70
    32
  0
VERTEX
  8
図枠
  5
5E3
 10
1225.78
 20
-700.655
 30
0.000000
  70
    32
  0
VERTEX
  8
図枠
  5
5E4
 10
1225.87
 20
-700.684
 30
0.000000
  70
    32
  0
VERTEX
  8
図枠
  5
5E5
 10
1225.97
 20
-700.712
 30
0.000000
  70
    32
  0
VERTEX
  8
図枠
  5
5E6
 10
1226.06
 20
-700.740
 30
0.000000
  70
    32
  0
VERTEX
  8
図枠
  5
5E7
 10
1226.16
 20
-700.768
 30
0.000000
  70
    32
  0
VERTEX
  8
図枠
  5
5E8
 10
1226.25
 20
-700.796
 30
0.000000
  70
    32
  0
VERTEX
  8
図枠
  5
5E9
 10
1226.35
 20
-700.824
 30
0.000000
  70
    32
  0
VERTEX
  8
図枠
  5
5EA
 10
1226.44
 20
-700.852
 30
0.000000
  70
    32
  0
VERTEX
  8
図枠
  5
5EB
 10
1226.54
 20
-700.879
 30
0.000000
  70
    32
  0
VERTEX
  8
図枠
  5
5EC
 10
1226.64
 20
-700.907
 30
0.000000
  70
    32
  0
VERTEX
  8
図枠
  5
5ED
 10
1226.73
 20
-700.934
 30
0.000000
  70
    32
  0
VERTEX
  8
図枠
  5
5EE
 10
1226.83
 20
-700.961
 30
0.000000
  70
    32
  0
VERTEX
  8
図枠
  5
5EF
 10
1226.92
 20
-700.988
 30
0.000000
  70
    32
  0
VERTEX
  8
図枠
  5
5F0
 10
1227.02
 20
-701.015
 30
0.000000
  70
    32
  0
VERTEX
  8
図枠
  5
5F1
 10
1227.12
 20
-701.042
 30
0.000000
  70
    32
  0
VERTEX
  8
図枠
  5
5F2
 10
1227.21
 20
-701.069
 30
0.000000
  70
    32
  0
VERTEX
  8
図枠
  5
5F3
 10
1227.31
 20
-701.095
 30
0.000000
  70
    32
  0
VERTEX
  8
図枠
  5
5F4
 10
1227.40
 20
-701.122
 30
0.000000
  70
    32
  0
VERTEX
  8
図枠
  5
5F5
 10
1227.50
 20
-701.148
 30
0.000000
  70
    32
  0
VERTEX
  8
図枠
  5
5F6
 10
1227.60
 20
-701.174
 30
0.000000
  70
    32
  0
VERTEX
  8
図枠
  5
5F7
 10
1227.69
 20
-701.200
 30
0.000000
  70
    32
  0
VERTEX
  8
図枠
  5
5F8
 10
1227.79
 20
-701.226
 30
0.000000
  70
    32
  0
VERTEX
  8
図枠
  5
5F9
 10
1227.89
 20
-701.252
 30
0.000000
  70
    32
  0
VERTEX
  8
図枠
  5
5FA
 10
1227.98
 20
-701.278
 30
0.000000
  70
    32
  0
VERTEX
  8
図枠
  5
5FB
 10
1228.08
 20
-701.304
 30
0.000000
  70
    32
  0
VERTEX
  8
図枠
  5
5FC
 10
1228.17
 20
-701.329
 30
0.000000
  70
    32
  0
VERTEX
  8
図枠
  5
5FD
 10
1228.27
 20
-701.355
 30
0.000000
  70
    32
  0
VERTEX
  8
図枠
  5
5FE
 10
1228.37
 20
-701.380
 30
0.000000
  70
    32
  0
VERTEX
  8
図枠
  5
5FF
 10
1228.47
 20
-701.405
 30
0.000000
  70
    32
  0
VERTEX
  8
図枠
  5
600
 10
1228.56
 20
-701.431
 30
0.000000
  70
    32
  0
VERTEX
  8
図枠
  5
601
 10
1228.66
 20
-701.456
 30
0.000000
  70
    32
  0
VERTEX
  8
図枠
  5
602
 10
1228.76
 20
-701.481
 30
0.000000
  70
    32
  0
VERTEX
  8
図枠
  5
603
 10
1228.85
 20
-701.505
 30
0.000000
  70
    32
  0
VERTEX
  8
図枠
  5
604
 10
1228.95
 20
-701.530
 30
0.000000
  70
    32
  0
VERTEX
  8
図枠
  5
605
 10
1229.05
 20
-701.555
 30
0.000000
  70
    32
  0
VERTEX
  8
図枠
  5
606
 10
1229.14
 20
-701.579
 30
0.000000
  70
    32
  0
VERTEX
  8
図枠
  5
607
 10
1229.24
 20
-701.604
 30
0.000000
  70
    32
  0
VERTEX
  8
図枠
  5
608
 10
1229.34
 20
-701.628
 30
0.000000
  70
    32
  0
VERTEX
  8
図枠
  5
609
 10
1229.44
 20
-701.652
 30
0.000000
  70
    32
  0
VERTEX
  8
図枠
  5
60A
 10
1229.53
 20
-701.677
 30
0.000000
  70
    32
  0
VERTEX
  8
図枠
  5
60B
 10
1229.63
 20
-701.701
 30
0.000000
  70
    32
  0
VERTEX
  8
図枠
  5
60C
 10
1229.73
 20
-701.725
 30
0.000000
  70
    32
  0
VERTEX
  8
図枠
  5
60D
 10
1229.83
 20
-701.749
 30
0.000000
  70
    32
  0
VERTEX
  8
図枠
  5
60E
 10
1229.92
 20
-701.772
 30
0.000000
  70
    32
  0
VERTEX
  8
図枠
  5
60F
 10
1230.02
 20
-701.796
 30
0.000000
  70
    32
  0
VERTEX
  8
図枠
  5
610
 10
1230.12
 20
-701.820
 30
0.000000
  70
    32
  0
VERTEX
  8
図枠
  5
611
 10
1230.22
 20
-701.843
 30
0.000000
  70
    32
  0
VERTEX
  8
図枠
  5
612
 10
1230.31
 20
-701.867
 30
0.000000
  70
    32
  0
VERTEX
  8
図枠
  5
613
 10
1230.41
 20
-701.890
 30
0.000000
  70
    32
  0
VERTEX
  8
図枠
  5
614
 10
1230.51
 20
-701.913
 30
0.000000
  70
    32
  0
VERTEX
  8
図枠
  5
615
 10
1230.61
 20
-701.937
 30
0.000000
  70
    32
  0
VERTEX
  8
図枠
  5
616
 10
1230.71
 20
-701.960
 30
0.000000
  70
    32
  0
VERTEX
  8
図枠
  5
617
 10
1230.80
 20
-701.983
 30
0.000000
  70
    32
  0
VERTEX
  8
図枠
  5
618
 10
1230.90
 20
-702.006
 30
0.000000
  70
    32
  0
VERTEX
  8
図枠
  5
619
 10
1231.00
 20
-702.029
 30
0.000000
  70
    32
  0
VERTEX
  8
図枠
  5
61A
 10
1231.10
 20
-702.052
 30
0.000000
  70
    32
  0
VERTEX
  8
図枠
  5
61B
 10
1231.20
 20
-702.075
 30
0.000000
  70
    32
  0
VERTEX
  8
図枠
  5
61C
 10
1231.29
 20
-702.097
 30
0.000000
  70
    32
  0
VERTEX
  8
図枠
  5
61D
 10
1231.39
 20
-702.120
 30
0.000000
  70
    32
  0
VERTEX
  8
図枠
  5
61E
 10
1231.49
 20
-702.143
 30
0.000000
  70
    32
  0
VERTEX
  8
図枠
  5
61F
 10
1231.59
 20
-702.165
 30
0.000000
  70
    32
  0
VERTEX
  8
図枠
  5
620
 10
1231.69
 20
-702.188
 30
0.000000
  70
    32
  0
VERTEX
  8
図枠
  5
621
 10
1231.79
 20
-702.210
 30
0.000000
  70
    32
  0
VERTEX
  8
図枠
  5
622
 10
1231.88
 20
-702.232
 30
0.000000
  70
    32
  0
VERTEX
  8
図枠
  5
623
 10
1231.98
 20
-702.254
 30
0.000000
  70
    32
  0
VERTEX
  8
図枠
  5
624
 10
1232.08
 20
-702.277
 30
0.000000
  70
    32
  0
VERTEX
  8
図枠
  5
625
 10
1232.18
 20
-702.299
 30
0.000000
  70
    32
  0
VERTEX
  8
図枠
  5
626
 10
1232.28
 20
-702.321
 30
0.000000
  70
    32
  0
VERTEX
  8
図枠
  5
627
 10
1232.38
 20
-702.343
 30
0.000000
  70
    32
  0
VERTEX
  8
図枠
  5
628
 10
1232.48
 20
-702.365
 30
0.000000
  70
    32
  0
VERTEX
  8
図枠
  5
629
 10
1232.57
 20
-702.387
 30
0.000000
  70
    32
  0
VERTEX
  8
図枠
  5
62A
 10
1232.67
 20
-702.409
 30
0.000000
  70
    32
  0
VERTEX
  8
図枠
  5
62B
 10
1232.77
 20
-702.430
 30
0.000000
  70
    32
  0
VERTEX
  8
図枠
  5
62C
 10
1232.87
 20
-702.452
 30
0.000000
  70
    32
  0
VERTEX
  8
図枠
  5
62D
 10
1232.97
 20
-702.474
 30
0.000000
  70
    32
  0
VERTEX
  8
図枠
  5
62E
 10
1233.07
 20
-702.496
 30
0.000000
  70
    32
  0
VERTEX
  8
図枠
  5
62F
 10
1233.17
 20
-702.517
 30
0.000000
  70
    32
  0
VERTEX
  8
図枠
  5
630
 10
1233.26
 20
-702.539
 30
0.000000
  70
    32
  0
VERTEX
  8
図枠
  5
631
 10
1233.36
 20
-702.560
 30
0.000000
  70
    32
  0
VERTEX
  8
図枠
  5
632
 10
1233.46
 20
-702.582
 30
0.000000
  70
    32
  0
VERTEX
  8
図枠
  5
633
 10
1233.56
 20
-702.603
 30
0.000000
  70
    32
  0
VERTEX
  8
図枠
  5
634
 10
1233.66
 20
-702.625
 30
0.000000
  70
    32
  0
VERTEX
  8
図枠
  5
635
 10
1233.76
 20
-702.646
 30
0.000000
  70
    32
  0
VERTEX
  8
図枠
  5
636
 10
1233.86
 20
-702.667
 30
0.000000
  70
    32
  0
VERTEX
  8
図枠
  5
637
 10
1233.96
 20
-702.688
 30
0.000000
  70
    32
  0
VERTEX
  8
図枠
  5
638
 10
1234.06
 20
-702.710
 30
0.000000
  70
    32
  0
VERTEX
  8
図枠
  5
639
 10
1234.16
 20
-702.731
 30
0.000000
  70
    32
  0
VERTEX
  8
図枠
  5
63A
 10
1234.25
 20
-702.752
 30
0.000000
  70
    32
  0
VERTEX
  8
図枠
  5
63B
 10
1234.35
 20
-702.773
 30
0.000000
  70
    32
  0
VERTEX
  8
図枠
  5
63C
 10
1234.45
 20
-702.794
 30
0.000000
  70
    32
  0
VERTEX
  8
図枠
  5
63D
 10
1234.55
 20
-702.815
 30
0.000000
  70
    32
  0
VERTEX
  8
図枠
  5
63E
 10
1234.65
 20
-702.836
 30
0.000000
  70
    32
  0
VERTEX
  8
図枠
  5
63F
 10
1234.75
 20
-702.857
 30
0.000000
  70
    32
  0
VERTEX
  8
図枠
  5
640
 10
1234.85
 20
-702.878
 30
0.000000
  70
    32
  0
VERTEX
  8
図枠
  5
641
 10
1234.95
 20
-702.899
 30
0.000000
  70
    32
  0
VERTEX
  8
図枠
  5
642
 10
1235.05
 20
-702.920
 30
0.000000
  70
    32
  0
VERTEX
  8
図枠
  5
643
 10
1235.15
 20
-702.941
 30
0.000000
  70
    32
  0
VERTEX
  8
図枠
  5
644
 10
1235.25
 20
-702.962
 30
0.000000
  70
    32
  0
VERTEX
  8
図枠
  5
645
 10
1235.34
 20
-702.983
 30
0.000000
  70
    32
  0
VERTEX
  8
図枠
  5
646
 10
1235.44
 20
-703.004
 30
0.000000
  70
    32
  0
VERTEX
  8
図枠
  5
647
 10
1235.54
 20
-703.024
 30
0.000000
  70
    32
  0
VERTEX
  8
図枠
  5
648
 10
1235.64
 20
-703.045
 30
0.000000
  70
    32
  0
VERTEX
  8
図枠
  5
649
 10
1235.74
 20
-703.066
 30
0.000000
  70
    32
  0
VERTEX
  8
図枠
  5
64A
 10
1235.84
 20
-703.087
 30
0.000000
  70
    32
  0
VERTEX
  8
図枠
  5
64B
 10
1235.94
 20
-703.107
 30
0.000000
  70
    32
  0
VERTEX
  8
図枠
  5
64C
 10
1236.04
 20
-703.128
 30
0.000000
  70
    32
  0
VERTEX
  8
図枠
  5
64D
 10
1236.14
 20
-703.149
 30
0.000000
  70
    32
  0
VERTEX
  8
図枠
  5
64E
 10
1236.24
 20
-703.170
 30
0.000000
  70
    32
  0
VERTEX
  8
図枠
  5
64F
 10
1236.34
 20
-703.190
 30
0.000000
  70
    32
  0
VERTEX
  8
図枠
  5
650
 10
1236.44
 20
-703.211
 30
0.000000
  70
    32
  0
VERTEX
  8
図枠
  5
651
 10
1236.54
 20
-703.232
 30
0.000000
  70
    32
  0
VERTEX
  8
図枠
  5
652
 10
1236.63
 20
-703.252
 30
0.000000
  70
    32
  0
VERTEX
  8
図枠
  5
653
 10
1236.73
 20
-703.273
 30
0.000000
  70
    32
  0
VERTEX
  8
図枠
  5
654
 10
1236.83
 20
-703.294
 30
0.000000
  70
    32
  0
VERTEX
  8
図枠
  5
655
 10
1236.93
 20
-703.314
 30
0.000000
  70
    32
  0
VERTEX
  8
図枠
  5
656
 10
1237.03
 20
-703.335
 30
0.000000
  70
    32
  0
VERTEX
  8
図枠
  5
657
 10
1237.13
 20
-703.355
 30
0.000000
  70
    32
  0
SEQEND
  8
図枠
  5
658
  0
POLYLINE
  8
図枠
  5
659
  66
     1
 10
0.000000
 20
0.000000
 30
0.000000
  70
     8
  0
VERTEX
  8
図枠
  5
65A
 10
1205.63
 20
-688.110
 30
0.000000
  70
    32
  0
VERTEX
  8
図枠
  5
65B
 10
1205.69
 20
-688.168
 30
0.000000
  70
    32
  0
VERTEX
  8
図枠
  5
65C
 10
1205.76
 20
-688.226
 30
0.000000
  70
    32
  0
VERTEX
  8
図枠
  5
65D
 10
1205.82
 20
-688.285
 30
0.000000
  70
    32
  0
VERTEX
  8
図枠
  5
65E
 10
1205.88
 20
-688.343
 30
0.000000
  70
    32
  0
VERTEX
  8
図枠
  5
65F
 10
1205.95
 20
-688.401
 30
0.000000
  70
    32
  0
VERTEX
  8
図枠
  5
660
 10
1206.01
 20
-688.459
 30
0.000000
  70
    32
  0
VERTEX
  8
図枠
  5
661
 10
1206.07
 20
-688.517
 30
0.000000
  70
    32
  0
VERTEX
  8
図枠
  5
662
 10
1206.14
 20
-688.575
 30
0.000000
  70
    32
  0
VERTEX
  8
図枠
  5
663
 10
1206.20
 20
-688.633
 30
0.000000
  70
    32
  0
VERTEX
  8
図枠
  5
664
 10
1206.26
 20
-688.691
 30
0.000000
  70
    32
  0
VERTEX
  8
図枠
  5
665
 10
1206.32
 20
-688.749
 30
0.000000
  70
    32
  0
VERTEX
  8
図枠
  5
666
 10
1206.39
 20
-688.807
 30
0.000000
  70
    32
  0
VERTEX
  8
図枠
  5
667
 10
1206.45
 20
-688.865
 30
0.000000
  70
    32
  0
VERTEX
  8
図枠
  5
668
 10
1206.51
 20
-688.923
 30
0.000000
  70
    32
  0
VERTEX
  8
図枠
  5
669
 10
1206.58
 20
-688.981
 30
0.000000
  70
    32
  0
VERTEX
  8
図枠
  5
66A
 10
1206.64
 20
-689.039
 30
0.000000
  70
    32
  0
VERTEX
  8
図枠
  5
66B
 10
1206.70
 20
-689.097
 30
0.000000
  70
    32
  0
VERTEX
  8
図枠
  5
66C
 10
1206.77
 20
-689.155
 30
0.000000
  70
    32
  0
VERTEX
  8
図枠
  5
66D
 10
1206.83
 20
-689.213
 30
0.000000
  70
    32
  0
VERTEX
  8
図枠
  5
66E
 10
1206.89
 20
-689.271
 30
0.000000
  70
    32
  0
VERTEX
  8
図枠
  5
66F
 10
1206.96
 20
-689.329
 30
0.000000
  70
    32
  0
VERTEX
  8
図枠
  5
670
 10
1207.02
 20
-689.387
 30
0.000000
  70
    32
  0
VERTEX
  8
図枠
  5
671
 10
1207.08
 20
-689.444
 30
0.000000
  70
    32
  0
VERTEX
  8
図枠
  5
672
 10
1207.15
 20
-689.502
 30
0.000000
  70
    32
  0
VERTEX
  8
図枠
  5
673
 10
1207.21
 20
-689.560
 30
0.000000
  70
    32
  0
VERTEX
  8
図枠
  5
674
 10
1207.27
 20
-689.618
 30
0.000000
  70
    32
  0
VERTEX
  8
図枠
  5
675
 10
1207.34
 20
-689.675
 30
0.000000
  70
    32
  0
VERTEX
  8
図枠
  5
676
 10
1207.40
 20
-689.733
 30
0.000000
  70
    32
  0
VERTEX
  8
図枠
  5
677
 10
1207.46
 20
-689.790
 30
0.000000
  70
    32
  0
VERTEX
  8
図枠
  5
678
 10
1207.53
 20
-689.848
 30
0.000000
  70
    32
  0
VERTEX
  8
図枠
  5
679
 10
1207.59
 20
-689.906
 30
0.000000
  70
    32
  0
VERTEX
  8
図枠
  5
67A
 10
1207.65
 20
-689.963
 30
0.000000
  70
    32
  0
VERTEX
  8
図枠
  5
67B
 10
1207.72
 20
-690.021
 30
0.000000
  70
    32
  0
VERTEX
  8
図枠
  5
67C
 10
1207.78
 20
-690.078
 30
0.000000
  70
    32
  0
VERTEX
  8
図枠
  5
67D
 10
1207.84
 20
-690.135
 30
0.000000
  70
    32
  0
VERTEX
  8
図枠
  5
67E
 10
1207.91
 20
-690.193
 30
0.000000
  70
    32
  0
VERTEX
  8
図枠
  5
67F
 10
1207.97
 20
-690.250
 30
0.000000
  70
    32
  0
VERTEX
  8
図枠
  5
680
 10
1208.03
 20
-690.307
 30
0.000000
  70
    32
  0
VERTEX
  8
図枠
  5
681
 10
1208.10
 20
-690.365
 30
0.000000
  70
    32
  0
VERTEX
  8
図枠
  5
682
 10
1208.16
 20
-690.422
 30
0.000000
  70
    32
  0
VERTEX
  8
図枠
  5
683
 10
1208.22
 20
-690.479
 30
0.000000
  70
    32
  0
VERTEX
  8
図枠
  5
684
 10
1208.29
 20
-690.536
 30
0.000000
  70
    32
  0
VERTEX
  8
図枠
  5
685
 10
1208.35
 20
-690.593
 30
0.000000
  70
    32
  0
VERTEX
  8
図枠
  5
686
 10
1208.41
 20
-690.650
 30
0.000000
  70
    32
  0
VERTEX
  8
図枠
  5
687
 10
1208.48
 20
-690.707
 30
0.000000
  70
    32
  0
VERTEX
  8
図枠
  5
688
 10
1208.54
 20
-690.764
 30
0.000000
  70
    32
  0
VERTEX
  8
図枠
  5
689
 10
1208.61
 20
-690.820
 30
0.000000
  70
    32
  0
VERTEX
  8
図枠
  5
68A
 10
1208.67
 20
-690.877
 30
0.000000
  70
    32
  0
VERTEX
  8
図枠
  5
68B
 10
1208.73
 20
-690.934
 30
0.000000
  70
    32
  0
VERTEX
  8
図枠
  5
68C
 10
1208.80
 20
-690.991
 30
0.000000
  70
    32
  0
VERTEX
  8
図枠
  5
68D
 10
1208.86
 20
-691.047
 30
0.000000
  70
    32
  0
VERTEX
  8
図枠
  5
68E
 10
1208.92
 20
-691.104
 30
0.000000
  70
    32
  0
VERTEX
  8
図枠
  5
68F
 10
1208.99
 20
-691.160
 30
0.000000
  70
    32
  0
VERTEX
  8
図枠
  5
690
 10
1209.05
 20
-691.216
 30
0.000000
  70
    32
  0
VERTEX
  8
図枠
  5
691
 10
1209.12
 20
-691.273
 30
0.000000
  70
    32
  0
VERTEX
  8
図枠
  5
692
 10
1209.18
 20
-691.329
 30
0.000000
  70
    32
  0
VERTEX
  8
図枠
  5
693
 10
1209.24
 20
-691.385
 30
0.000000
  70
    32
  0
VERTEX
  8
図枠
  5
694
 10
1209.31
 20
-691.441
 30
0.000000
  70
    32
  0
VERTEX
  8
図枠
  5
695
 10
1209.37
 20
-691.497
 30
0.000000
  70
    32
  0
VERTEX
  8
図枠
  5
696
 10
1209.44
 20
-691.553
 30
0.000000
  70
    32
  0
VERTEX
  8
図枠
  5
697
 10
1209.50
 20
-691.609
 30
0.000000
  70
    32
  0
VERTEX
  8
図枠
  5
698
 10
1209.57
 20
-691.665
 30
0.000000
  70
    32
  0
VERTEX
  8
図枠
  5
699
 10
1209.63
 20
-691.721
 30
0.000000
  70
    32
  0
VERTEX
  8
図枠
  5
69A
 10
1209.69
 20
-691.776
 30
0.000000
  70
    32
  0
VERTEX
  8
図枠
  5
69B
 10
1209.76
 20
-691.832
 30
0.000000
  70
    32
  0
VERTEX
  8
図枠
  5
69C
 10
1209.82
 20
-691.888
 30
0.000000
  70
    32
  0
VERTEX
  8
図枠
  5
69D
 10
1209.89
 20
-691.943
 30
0.000000
  70
    32
  0
VERTEX
  8
図枠
  5
69E
 10
1209.95
 20
-691.998
 30
0.000000
  70
    32
  0
VERTEX
  8
図枠
  5
69F
 10
1210.02
 20
-692.054
 30
0.000000
  70
    32
  0
VERTEX
  8
図枠
  5
6A0
 10
1210.08
 20
-692.109
 30
0.000000
  70
    32
  0
VERTEX
  8
図枠
  5
6A1
 10
1210.15
 20
-692.164
 30
0.000000
  70
    32
  0
VERTEX
  8
図枠
  5
6A2
 10
1210.21
 20
-692.219
 30
0.000000
  70
    32
  0
VERTEX
  8
図枠
  5
6A3
 10
1210.28
 20
-692.274
 30
0.000000
  70
    32
  0
VERTEX
  8
図枠
  5
6A4
 10
1210.34
 20
-692.329
 30
0.000000
  70
    32
  0
VERTEX
  8
図枠
  5
6A5
 10
1210.41
 20
-692.383
 30
0.000000
  70
    32
  0
VERTEX
  8
図枠
  5
6A6
 10
1210.47
 20
-692.438
 30
0.000000
  70
    32
  0
VERTEX
  8
図枠
  5
6A7
 10
1210.54
 20
-692.493
 30
0.000000
  70
    32
  0
VERTEX
  8
図枠
  5
6A8
 10
1210.60
 20
-692.547
 30
0.000000
  70
    32
  0
VERTEX
  8
図枠
  5
6A9
 10
1210.67
 20
-692.601
 30
0.000000
  70
    32
  0
VERTEX
  8
図枠
  5
6AA
 10
1210.73
 20
-692.656
 30
0.000000
  70
    32
  0
VERTEX
  8
図枠
  5
6AB
 10
1210.80
 20
-692.710
 30
0.000000
  70
    32
  0
VERTEX
  8
図枠
  5
6AC
 10
1210.86
 20
-692.764
 30
0.000000
  70
    32
  0
VERTEX
  8
図枠
  5
6AD
 10
1210.93
 20
-692.818
 30
0.000000
  70
    32
  0
VERTEX
  8
図枠
  5
6AE
 10
1210.99
 20
-692.872
 30
0.000000
  70
    32
  0
VERTEX
  8
図枠
  5
6AF
 10
1211.06
 20
-692.926
 30
0.000000
  70
    32
  0
VERTEX
  8
図枠
  5
6B0
 10
1211.12
 20
-692.979
 30
0.000000
  70
    32
  0
VERTEX
  8
図枠
  5
6B1
 10
1211.19
 20
-693.033
 30
0.000000
  70
    32
  0
VERTEX
  8
図枠
  5
6B2
 10
1211.25
 20
-693.086
 30
0.000000
  70
    32
  0
VERTEX
  8
図枠
  5
6B3
 10
1211.32
 20
-693.140
 30
0.000000
  70
    32
  0
VERTEX
  8
図枠
  5
6B4
 10
1211.38
 20
-693.193
 30
0.000000
  70
    32
  0
VERTEX
  8
図枠
  5
6B5
 10
1211.45
 20
-693.246
 30
0.000000
  70
    32
  0
VERTEX
  8
図枠
  5
6B6
 10
1211.52
 20
-693.299
 30
0.000000
  70
    32
  0
VERTEX
  8
図枠
  5
6B7
 10
1211.58
 20
-693.352
 30
0.000000
  70
    32
  0
VERTEX
  8
図枠
  5
6B8
 10
1211.65
 20
-693.405
 30
0.000000
  70
    32
  0
VERTEX
  8
図枠
  5
6B9
 10
1211.71
 20
-693.458
 30
0.000000
  70
    32
  0
VERTEX
  8
図枠
  5
6BA
 10
1211.78
 20
-693.510
 30
0.000000
  70
    32
  0
VERTEX
  8
図枠
  5
6BB
 10
1211.85
 20
-693.563
 30
0.000000
  70
    32
  0
VERTEX
  8
図枠
  5
6BC
 10
1211.91
 20
-693.615
 30
0.000000
  70
    32
  0
VERTEX
  8
図枠
  5
6BD
 10
1211.98
 20
-693.667
 30
0.000000
  70
    32
  0
VERTEX
  8
図枠
  5
6BE
 10
1212.04
 20
-693.720
 30
0.000000
  70
    32
  0
VERTEX
  8
図枠
  5
6BF
 10
1212.11
 20
-693.772
 30
0.000000
  70
    32
  0
VERTEX
  8
図枠
  5
6C0
 10
1212.18
 20
-693.823
 30
0.000000
  70
    32
  0
VERTEX
  8
図枠
  5
6C1
 10
1212.24
 20
-693.875
 30
0.000000
  70
    32
  0
VERTEX
  8
図枠
  5
6C2
 10
1212.31
 20
-693.927
 30
0.000000
  70
    32
  0
VERTEX
  8
図枠
  5
6C3
 10
1212.38
 20
-693.978
 30
0.000000
  70
    32
  0
VERTEX
  8
図枠
  5
6C4
 10
1212.44
 20
-694.030
 30
0.000000
  70
    32
  0
VERTEX
  8
図枠
  5
6C5
 10
1212.51
 20
-694.081
 30
0.000000
  70
    32
  0
VERTEX
  8
図枠
  5
6C6
 10
1212.58
 20
-694.132
 30
0.000000
  70
    32
  0
VERTEX
  8
図枠
  5
6C7
 10
1212.64
 20
-694.183
 30
0.000000
  70
    32
  0
VERTEX
  8
図枠
  5
6C8
 10
1212.71
 20
-694.234
 30
0.000000
  70
    32
  0
VERTEX
  8
図枠
  5
6C9
 10
1212.78
 20
-694.285
 30
0.000000
  70
    32
  0
VERTEX
  8
図枠
  5
6CA
 10
1212.85
 20
-694.335
 30
0.000000
  70
    32
  0
VERTEX
  8
図枠
  5
6CB
 10
1212.91
 20
-694.386
 30
0.000000
  70
    32
  0
VERTEX
  8
図枠
  5
6CC
 10
1212.98
 20
-694.436
 30
0.000000
  70
    32
  0
VERTEX
  8
図枠
  5
6CD
 10
1213.05
 20
-694.486
 30
0.000000
  70
    32
  0
VERTEX
  8
図枠
  5
6CE
 10
1213.11
 20
-694.536
 30
0.000000
  70
    32
  0
VERTEX
  8
図枠
  5
6CF
 10
1213.18
 20
-694.586
 30
0.000000
  70
    32
  0
VERTEX
  8
図枠
  5
6D0
 10
1213.25
 20
-694.636
 30
0.000000
  70
    32
  0
VERTEX
  8
図枠
  5
6D1
 10
1213.32
 20
-694.686
 30
0.000000
  70
    32
  0
VERTEX
  8
図枠
  5
6D2
 10
1213.38
 20
-694.735
 30
0.000000
  70
    32
  0
VERTEX
  8
図枠
  5
6D3
 10
1213.45
 20
-694.784
 30
0.000000
  70
    32
  0
VERTEX
  8
図枠
  5
6D4
 10
1213.52
 20
-694.834
 30
0.000000
  70
    32
  0
VERTEX
  8
図枠
  5
6D5
 10
1213.59
 20
-694.883
 30
0.000000
  70
    32
  0
VERTEX
  8
図枠
  5
6D6
 10
1213.66
 20
-694.931
 30
0.000000
  70
    32
  0
VERTEX
  8
図枠
  5
6D7
 10
1213.72
 20
-694.980
 30
0.000000
  70
    32
  0
VERTEX
  8
図枠
  5
6D8
 10
1213.79
 20
-695.029
 30
0.000000
  70
    32
  0
VERTEX
  8
図枠
  5
6D9
 10
1213.86
 20
-695.077
 30
0.000000
  70
    32
  0
VERTEX
  8
図枠
  5
6DA
 10
1213.93
 20
-695.125
 30
0.000000
  70
    32
  0
VERTEX
  8
図枠
  5
6DB
 10
1214.00
 20
-695.174
 30
0.000000
  70
    32
  0
VERTEX
  8
図枠
  5
6DC
 10
1214.07
 20
-695.222
 30
0.000000
  70
    32
  0
VERTEX
  8
図枠
  5
6DD
 10
1214.13
 20
-695.269
 30
0.000000
  70
    32
  0
VERTEX
  8
図枠
  5
6DE
 10
1214.20
 20
-695.317
 30
0.000000
  70
    32
  0
VERTEX
  8
図枠
  5
6DF
 10
1214.27
 20
-695.365
 30
0.000000
  70
    32
  0
VERTEX
  8
図枠
  5
6E0
 10
1214.34
 20
-695.412
 30
0.000000
  70
    32
  0
VERTEX
  8
図枠
  5
6E1
 10
1214.41
 20
-695.459
 30
0.000000
  70
    32
  0
VERTEX
  8
図枠
  5
6E2
 10
1214.48
 20
-695.506
 30
0.000000
  70
    32
  0
VERTEX
  8
図枠
  5
6E3
 10
1214.55
 20
-695.553
 30
0.000000
  70
    32
  0
VERTEX
  8
図枠
  5
6E4
 10
1214.62
 20
-695.600
 30
0.000000
  70
    32
  0
VERTEX
  8
図枠
  5
6E5
 10
1214.69
 20
-695.646
 30
0.000000
  70
    32
  0
VERTEX
  8
図枠
  5
6E6
 10
1214.76
 20
-695.692
 30
0.000000
  70
    32
  0
VERTEX
  8
図枠
  5
6E7
 10
1214.83
 20
-695.739
 30
0.000000
  70
    32
  0
VERTEX
  8
図枠
  5
6E8
 10
1214.90
 20
-695.785
 30
0.000000
  70
    32
  0
VERTEX
  8
図枠
  5
6E9
 10
1214.96
 20
-695.830
 30
0.000000
  70
    32
  0
VERTEX
  8
図枠
  5
6EA
 10
1215.03
 20
-695.876
 30
0.000000
  70
    32
  0
VERTEX
  8
図枠
  5
6EB
 10
1215.10
 20
-695.922
 30
0.000000
  70
    32
  0
VERTEX
  8
図枠
  5
6EC
 10
1215.17
 20
-695.967
 30
0.000000
  70
    32
  0
VERTEX
  8
図枠
  5
6ED
 10
1215.24
 20
-696.012
 30
0.000000
  70
    32
  0
VERTEX
  8
図枠
  5
6EE
 10
1215.31
 20
-696.057
 30
0.000000
  70
    32
  0
VERTEX
  8
図枠
  5
6EF
 10
1215.38
 20
-696.102
 30
0.000000
  70
    32
  0
VERTEX
  8
図枠
  5
6F0
 10
1215.46
 20
-696.146
 30
0.000000
  70
    32
  0
VERTEX
  8
図枠
  5
6F1
 10
1215.53
 20
-696.191
 30
0.000000
  70
    32
  0
VERTEX
  8
図枠
  5
6F2
 10
1215.60
 20
-696.235
 30
0.000000
  70
    32
  0
VERTEX
  8
図枠
  5
6F3
 10
1215.67
 20
-696.279
 30
0.000000
  70
    32
  0
VERTEX
  8
図枠
  5
6F4
 10
1215.74
 20
-696.323
 30
0.000000
  70
    32
  0
VERTEX
  8
図枠
  5
6F5
 10
1215.81
 20
-696.366
 30
0.000000
  70
    32
  0
VERTEX
  8
図枠
  5
6F6
 10
1215.88
 20
-696.410
 30
0.000000
  70
    32
  0
VERTEX
  8
図枠
  5
6F7
 10
1215.95
 20
-696.453
 30
0.000000
  70
    32
  0
VERTEX
  8
図枠
  5
6F8
 10
1216.02
 20
-696.496
 30
0.000000
  70
    32
  0
VERTEX
  8
図枠
  5
6F9
 10
1216.09
 20
-696.539
 30
0.000000
  70
    32
  0
SEQEND
  8
図枠
  5
6FA
  0
INSERT
  5
1A6
  8
0
  6
CONTINUOUS
  2
*U61
 10
0.0
 20
0.0
 30
0.0
  0
LINE
  5
1A7
  8
図枠
 10
1253.1077115375999
 20
-610.17383419600003
 30
0.0
 11
1253.1077115375999
 21
-618.57383419600001
 31
0.0
  0
LINE
  5
1A8
  8
図枠
 10
1196.3192629557
 20
-685.85547881189996
 30
0.0
 11
1196.3192629557
 21
-691.10547881190007
 31
0.0
  0
LINE
  5
1A9
  8
図枠
 10
1253.1077115375999
 20
-618.57383419600001
 30
0.0
 11
1269.9077115376001
 21
-622.77383419599994
 31
0.0
  0
LINE
  5
1AA
  8
図枠
 10
1205.6313841678
 20
-678.85547881189996
 30
0.0
 11
1205.6313841678
 21
-685.15547881190002
 31
0.0
  0
ARC
  5
1AB
  8
図枠
 10
1180.5692629557
 20
-692.85547881190007
 30
0.0
 40
10.5
 50
270.0
 51
0.0
  0
LINE
  5
1AC
  8
図枠
 10
1029.5070002467
 20
-595.12383419599985
 30
0.0
 11
1029.5070002467
 21
-710.62383419600008
 31
0.0
  0
INSERT
  5
1AD
  8
0
  6
CONTINUOUS
  2
*U62
 10
0.0
 20
0.0
 30
0.0
  0
INSERT
  5
1AE
  8
0
  6
CONTINUOUS
  2
*U63
 10
0.0
 20
0.0
 30
0.0
  0
INSERT
  5
1AF
  8
0
  6
CONTINUOUS
  2
*U64
 10
0.0
 20
0.0
 30
0.0
  0
INSERT
  5
1B0
  8
0
  6
CONTINUOUS
  2
*U65
 10
0.0
 20
0.0
 30
0.0
  0
LINE
  5
1B1
  8
図枠
 10
1160.7570002467
 20
-633.62383419599985
 30
0.0
 11
1160.7570002467
 21
-672.12383419599985
 31
0.0
  0
LINE
  5
1B2
  8
図枠
 10
1029.5070002467
 20
-672.12383419599985
 30
0.0
 11
1537.0070002467
 21
-672.12383419599985
 31
0.0
  0
LINE
  5
1B3
  8
図枠
 10
1038.2570002467
 20
-652.87383419599985
 30
0.0
 11
1152.0070002467
 21
-652.87383419599985
 31
0.0
  0
LINE
  5
1B4
  8
図枠
 10
1169.5070002467
 20
-652.87383419599985
 30
0.0
 11
1283.2570002467
 21
-652.87383419599985
 31
0.0
  0
INSERT
  5
1B5
  8
0
  6
CONTINUOUS
  2
*U66
 10
0.0
 20
0.0
 30
0.0
  0
INSERT
  5
1B6
  8
0
  6
CONTINUOUS
  2
*U67
 10
0.0
 20
0.0
 30
0.0
  0
LINE
  5
1B7
  8
図枠
 10
1061.0070002467
 20
-577.62383419599996
 30
0.0
 11
1061.0070002467
 21
-560.12383419599985
 31
0.0
  0
LINE
  5
1B8
  8
図枠
 10
1029.5070002467
 20
-577.62383419599996
 30
0.0
 11
1029.5070002467
 21
-560.12383419599985
 31
0.0
  0
LINE
  5
1B9
  8
図枠
 10
1428.5070002467
 20
-577.62383419599996
 30
0.0
 11
1428.5070002467
 21
-560.12383419599985
 31
0.0
  0
LINE
  5
1BA
  8
図枠
 10
1397.0070002467
 20
-577.62383419599996
 30
0.0
 11
1397.0070002467
 21
-560.12383419599985
 31
0.0
  0
LINE
  5
1BB
  8
図枠
 10
1537.0070002467
 20
-560.12383419599985
 30
0.0
 11
1029.5070002467
 21
-560.12383419599985
 31
0.0
  0
LINE
  5
1BC
  8
図枠
 10
1029.5070002467
 20
-577.62383419599996
 30
0.0
 11
1537.0070002467
 21
-577.62383419599996
 31
0.0
  0
LINE
  5
1BD
  8
図枠
 10
1236.0070002467
 20
-577.62383419599996
 30
0.0
 11
1236.0070002467
 21
-560.12383419599985
 31
0.0
  0
INSERT
  5
1BE
  8
0
  6
CONTINUOUS
  2
*U68
 10
0.0
 20
0.0
 30
0.0
  0
INSERT
  5
1BF
  8
0
  6
CONTINUOUS
  2
*U69
 10
0.0
 20
0.0
 30
0.0
  0
CIRCLE
  5
1C0
  8
図枠
 10
1233.9070002466999
 20
-614.37383419599985
 30
0.0
 40
4.2000000000000002
  0
LINE
  5
1C1
  8
図枠
 10
1253.1077115375999
 20
-618.57383419600001
 30
0.0
 11
1269.9077115376001
 21
-622.77383419599994
 31
0.0
  0
LINE
  5
1C2
  8
図枠
 10
1253.1077115375999
 20
-610.17383419600003
 30
0.0
 11
1253.1077115375999
 21
-618.57383419600001
 31
0.0
  0
LINE
  5
1C3
  8
図枠
 10
1269.9077115376001
 20
-605.97383419599998
 30
0.0
 11
1269.9077115376001
 21
-622.77383419599994
 31
0.0
  0
LINE
  5
1C4
  8
図枠
  6
BORDER
 10
1233.9070002466999
 20
-601.77383419599994
 30
0.0
 11
1233.9070002466999
 21
-626.97383419599998
 31
0.0
  0
LINE
  5
1C5
  8
図枠
  6
BORDER
 10
1233.9070002466999
 20
-601.77383419599994
 30
0.0
 11
1233.9070002466999
 21
-626.97383419599998
 31
0.0
  0
LINE
  5
1C6
  8
図枠
 10
1269.9077115376001
 20
-605.97383419599998
 30
0.0
 11
1269.9077115376001
 21
-622.77383419599994
 31
0.0
  0
LINE
  5
1C7
  8
図枠
 10
1253.1077115375999
 20
-610.17383419600003
 30
0.0
 11
1253.1077115375999
 21
-618.57383419600001
 31
0.0
  0
LINE
  5
1C8
  8
図枠
 10
1253.1077115375999
 20
-618.57383419600001
 30
0.0
 11
1269.9077115376001
 21
-622.77383419599994
 31
0.0
  0
LINE
  5
1C9
  8
図枠
 10
1253.1077115375999
 20
-610.17383419600003
 30
0.0
 11
1269.9077115376001
 21
-605.97383419599998
 31
0.0
  0
CIRCLE
  5
1CA
  8
図枠
 10
1233.9070002466999
 20
-614.37383419599985
 30
0.0
 40
8.4000000000000004
  0
CIRCLE
  5
1CB
  8
図枠
 10
1233.9070002466999
 20
-614.37383419599985
 30
0.0
 40
4.2000000000000002
  0
CIRCLE
  5
1CC
  8
図枠
 10
1233.9070002466999
 20
-614.37383419599985
 30
0.0
 40
8.4000000000000004
  0
LINE
  5
1CD
  8
図枠
 10
1253.1077115375999
 20
-610.17383419600003
 30
0.0
 11
1269.9077115376001
 21
-605.97383419599998
 31
0.0
  0
ENDBLK
  5
1CE
  8
0
  0
BLOCK
  8
0
  2
BALLON0
 70
     0
 10
0.0
 20
0.0
 30
0.0
  3
BALLON0
  1

  0
INSERT
  5
21A
  8
0
  6
CONTINUOUS
  2
*U73
 10
0.0
 20
0.0
 30
0.0
  0
CIRCLE
  5
21B
  8
ﾚｲﾔ_1
 10
944.18243130320002
 20
20.735705189200001
 30
0.0
 40
14.0
  0
LINE
  5
21C
  8
寸法線
 10
967.51576463660012
 20
20.735705189200001
 30
0.0
 11
958.18243130319991
 21
20.735705189200001
 31
0.0
  0
LINE
  5
21D
  8
寸法線
 10
1045.9599671059
 20
68.712532310200004
 30
0.0
 11
967.51576463660012
 21
20.735705189200001
 31
0.0
  0
SOLID
  5
21E
  8
寸法線
 10
1045.9599671059
 20
68.712532310200004
 30
0.0
 11
1035.477562133
 21
59.019277645999999
 31
0.0
 12
1036.4053087167999
 22
62.868860256700003
 32
0.0
 13
1036.4053087167999
 23
62.868860256700003
 33
0.0
  0
SOLID
  5
21F
  8
寸法線
 10
1036.4053087167999
 20
62.868860256700003
 30
0.0
 11
1032.5557261061999
 21
63.796606840499997
 31
0.0
 12
1045.9599671059
 22
68.712532310200004
 32
0.0
 13
1045.9599671059
 23
68.712532310200004
 33
0.0
  0
ENDBLK
  5
220
  8
0
  0
BLOCK
  8
0
  2
BALLON1
 70
     0
 10
0.0
 20
0.0
 30
0.0
  3
BALLON1
  1

  0
INSERT
  5
224
  8
0
  6
CONTINUOUS
  2
*U74
 10
0.0
 20
0.0
 30
0.0
  0
CIRCLE
  5
225
  8
ﾚｲﾔ_1
 10
913.56287502170005
 20
-298.21265107020002
 30
0.0
 40
14.0
  0
LINE
  5
226
  8
寸法線
 10
936.896208355
 20
-298.21265107020002
 30
0.0
 11
927.56287502169982
 21
-298.21265107020002
 31
0.0
  0
LINE
  5
227
  8
寸法線
 10
1031.7162171058999
 20
-210.4849351613
 30
0.0
 11
936.896208355
 21
-298.21265107020002
 31
0.0
  0
SOLID
  5
228
  8
寸法線
 10
1031.7162171058999
 20
-210.4849351613
 30
0.0
 11
1023.3414046081
 21
-222.04791555680001
 31
0.0
 12
1023.4951335852001
 22
-218.0911027736
 32
0.0
 13
1023.4951335852001
 23
-218.0911027736
 33
0.0
  0
SOLID
  5
229
  8
寸法線
 10
1023.4951335852001
 20
-218.0911027736
 30
0.0
 11
1019.538320802
 21
-217.9373737965
 31
0.0
 12
1031.7162171058999
 22
-210.4849351613
 32
0.0
 13
1031.7162171058999
 23
-210.4849351613
 33
0.0
  0
ENDBLK
  5
22A
  8
0
  0
BLOCK
  8
0
  2
CLUMP5
 70
     0
 10
0.0
 20
0.0
 30
0.0
  3
CLUMP5
  1

  0
LINE
  5
251
  8
ﾚｲﾔ_1
 62
     5
 10
1053.3943421059
 20
113.9650648387
 30
0.0
 11
1053.3943421059
 21
109.36506483869999
 31
0.0
  0
LINE
  5
252
  8
ﾚｲﾔ_1
 62
     5
 10
1143.3943421059
 20
2.6650648387000002
 30
0.0
 11
1012.8943421059
 21
2.6650648387000002
 31
0.0
  0
LINE
  5
253
  8
ﾚｲﾔ_1
 62
     5
 10
1143.3943421059
 20
100.1650648387
 30
0.0
 11
1144.8943421059
 21
100.1650648387
 31
0.0
  0
LINE
  5
254
  8
ﾚｲﾔ_1
 62
     5
 10
1143.3943421059
 20
101.6650648387
 30
0.0
 11
1143.3943421059
 21
100.1650648387
 31
0.0
  0
LINE
  5
255
  8
ﾚｲﾔ_1
 62
     5
 10
1012.8943421059
 20
101.6650648387
 30
0.0
 11
1012.8943421059
 21
100.1650648387
 31
0.0
  0
LINE
  5
256
  8
ﾚｲﾔ_1
 62
     5
 10
1011.3943421059
 20
100.1650648387
 30
0.0
 11
1012.8943421059
 21
100.1650648387
 31
0.0
  0
LINE
  5
257
  8
ﾚｲﾔ_1
 62
     5
 10
1011.3943421059
 20
4.1650648387000002
 30
0.0
 11
1011.3943421059
 21
100.1650648387
 31
0.0
  0
LINE
  5
258
  8
ﾚｲﾔ_1
 62
     5
 10
1144.8943421059
 20
100.1650648387
 30
0.0
 11
1144.8943421059
 21
4.1650648387000002
 31
0.0
  0
LINE
  5
259
  8
ﾚｲﾔ_1
 62
     5
 10
1012.8943421059
 20
101.6650648387
 30
0.0
 11
1143.3943421059
 21
101.6650648387
 31
0.0
  0
LINE
  5
25A
  8
ﾚｲﾔ_1
 62
     5
 10
1102.8943421059
 20
132.1650648387
 30
0.0
 11
1102.8943421059
 21
136.1650648387
 31
0.0
  0
LINE
  5
25B
  8
ﾚｲﾔ_1
 62
     5
 10
1114.8943421059
 20
136.1650648387
 30
0.0
 11
1114.8943421059
 21
132.1650648387
 31
0.0
  0
LINE
  5
25C
  8
ﾚｲﾔ_1
 62
     5
 10
1114.8943421059
 20
129.1650648387
 30
0.0
 11
1114.8943421059
 21
124.5650648387
 31
0.0
  0
LINE
  5
25D
  8
ﾚｲﾔ_1
 62
     5
 10
1114.8943421059
 20
121.5650648387
 30
0.0
 11
1114.8943421059
 21
116.9650648387
 31
0.0
  0
LINE
  5
25E
  8
ﾚｲﾔ_1
 62
     5
 10
1114.8943421059
 20
113.9650648387
 30
0.0
 11
1114.8943421059
 21
109.36506483869999
 31
0.0
  0
LINE
  5
25F
  8
ﾚｲﾔ_1
 62
     5
 10
1114.8943421059
 20
101.6650648387
 30
0.0
 11
1114.8943421059
 21
106.36506483869999
 31
0.0
  0
LINE
  5
260
  8
ﾚｲﾔ_1
 62
     5
 10
1102.8943421059
 20
124.5650648387
 30
0.0
 11
1102.8943421059
 21
129.1650648387
 31
0.0
  0
LINE
  5
261
  8
ﾚｲﾔ_1
 62
     5
 10
1102.8943421059
 20
116.9650648387
 30
0.0
 11
1102.8943421059
 21
121.5650648387
 31
0.0
  0
LINE
  5
262
  8
ﾚｲﾔ_1
 62
     5
 10
1102.8943421059
 20
109.36506483869999
 30
0.0
 11
1102.8943421059
 21
113.9650648387
 31
0.0
  0
LINE
  5
263
  8
ﾚｲﾔ_1
 62
     5
 10
1102.8943421059
 20
101.6650648387
 30
0.0
 11
1102.8943421059
 21
106.36506483869999
 31
0.0
  0
LINE
  5
264
  8
ﾚｲﾔ_1
 62
     5
 10
1102.8943421059
 20
136.1650648387
 30
0.0
 11
1114.8943421059
 21
136.1650648387
 31
0.0
  0
LINE
  5
265
  8
ﾚｲﾔ_1
 62
     5
 10
1041.3943421059
 20
136.1650648387
 30
0.0
 11
1053.3943421059
 21
136.1650648387
 31
0.0
  0
LINE
  5
266
  8
ﾚｲﾔ_1
 62
     5
 10
1041.3943421059
 20
101.6650648387
 30
0.0
 11
1041.3943421059
 21
106.36506483869999
 31
0.0
  0
LINE
  5
267
  8
ﾚｲﾔ_1
 62
     5
 10
1041.3943421059
 20
109.36506483869999
 30
0.0
 11
1041.3943421059
 21
113.9650648387
 31
0.0
  0
LINE
  5
268
  8
ﾚｲﾔ_1
 62
     5
 10
1041.3943421059
 20
116.9650648387
 30
0.0
 11
1041.3943421059
 21
121.5650648387
 31
0.0
  0
LINE
  5
269
  8
ﾚｲﾔ_1
 62
     5
 10
1041.3943421059
 20
124.5650648387
 30
0.0
 11
1041.3943421059
 21
129.1650648387
 31
0.0
  0
LINE
  5
26A
  8
ﾚｲﾔ_1
 62
     5
 10
1053.3943421059
 20
101.6650648387
 30
0.0
 11
1053.3943421059
 21
106.36506483869999
 31
0.0
  0
CIRCLE
  5
26B
  8
ﾚｲﾔ_1
 62
     5
 10
1078.1443421059
 20
76.665064838700005
 30
0.0
 40
7.5
  0
LINE
  5
26C
  8
ﾚｲﾔ_1
 62
     5
 10
1053.3943421059
 20
121.5650648387
 30
0.0
 11
1053.3943421059
 21
116.9650648387
 31
0.0
  0
LINE
  5
26D
  8
ﾚｲﾔ_1
 62
     5
 10
1053.3943421059
 20
129.1650648387
 30
0.0
 11
1053.3943421059
 21
124.5650648387
 31
0.0
  0
LINE
  5
26E
  8
ﾚｲﾔ_1
 62
     5
 10
1053.3943421059
 20
136.1650648387
 30
0.0
 11
1053.3943421059
 21
132.1650648387
 31
0.0
  0
LINE
  5
26F
  8
ﾚｲﾔ_1
 62
     5
 10
1041.3943421059
 20
132.1650648387
 30
0.0
 11
1041.3943421059
 21
136.1650648387
 31
0.0
  0
LINE
  5
270
  8
ﾚｲﾔ_1
 62
     5
 10
1011.3943421059
 20
132.1650648387
 30
0.0
 11
1144.8943421059
 21
132.1650648387
 31
0.0
  0
LINE
  5
271
  8
ﾚｲﾔ_1
 62
     5
 10
1144.8943421059
 20
132.1650648387
 30
0.0
 11
1144.8943421059
 21
129.1650648387
 31
0.0
  0
LINE
  5
272
  8
ﾚｲﾔ_1
 62
     5
 10
1144.8943421059
 20
129.1650648387
 30
0.0
 11
1011.3943421059
 21
129.1650648387
 31
0.0
  0
LINE
  5
273
  8
ﾚｲﾔ_1
 62
     5
 10
1011.3943421059
 20
129.1650648387
 30
0.0
 11
1011.3943421059
 21
132.1650648387
 31
0.0
  0
LINE
  5
274
  8
ﾚｲﾔ_1
 62
     5
 10
1011.3943421059
 20
124.5650648387
 30
0.0
 11
1144.8943421059
 21
124.5650648387
 31
0.0
  0
LINE
  5
275
  8
ﾚｲﾔ_1
 62
     5
 10
1144.8943421059
 20
124.5650648387
 30
0.0
 11
1144.8943421059
 21
121.5650648387
 31
0.0
  0
LINE
  5
276
  8
ﾚｲﾔ_1
 62
     5
 10
1144.8943421059
 20
121.5650648387
 30
0.0
 11
1011.3943421059
 21
121.5650648387
 31
0.0
  0
LINE
  5
277
  8
ﾚｲﾔ_1
 62
     5
 10
1011.3943421059
 20
121.5650648387
 30
0.0
 11
1011.3943421059
 21
124.5650648387
 31
0.0
  0
LINE
  5
278
  8
ﾚｲﾔ_1
 62
     5
 10
1011.3943421059
 20
116.9650648387
 30
0.0
 11
1144.8943421059
 21
116.9650648387
 31
0.0
  0
LINE
  5
279
  8
ﾚｲﾔ_1
 62
     5
 10
1144.8943421059
 20
116.9650648387
 30
0.0
 11
1144.8943421059
 21
113.9650648387
 31
0.0
  0
LINE
  5
27A
  8
ﾚｲﾔ_1
 62
     5
 10
1144.8943421059
 20
113.9650648387
 30
0.0
 11
1011.3943421059
 21
113.9650648387
 31
0.0
  0
LINE
  5
27B
  8
ﾚｲﾔ_1
 62
     5
 10
1011.3943421059
 20
113.9650648387
 30
0.0
 11
1011.3943421059
 21
116.9650648387
 31
0.0
  0
LINE
  5
27C
  8
ﾚｲﾔ_1
 62
     5
 10
1011.3943421059
 20
106.36506483869999
 30
0.0
 11
1011.3943421059
 21
109.36506483869999
 31
0.0
  0
LINE
  5
27D
  8
ﾚｲﾔ_1
 62
     5
 10
1144.8943421059
 20
106.36506483869999
 30
0.0
 11
1011.3943421059
 21
106.36506483869999
 31
0.0
  0
LINE
  5
27E
  8
ﾚｲﾔ_1
 62
     5
 10
1144.8943421059
 20
109.36506483869999
 30
0.0
 11
1144.8943421059
 21
106.36506483869999
 31
0.0
  0
LINE
  5
27F
  8
ﾚｲﾔ_1
 62
     5
 10
1011.3943421059
 20
109.36506483869999
 30
0.0
 11
1144.8943421059
 21
109.36506483869999
 31
0.0
  0
LINE
  5
280
  8
ﾚｲﾔ_1
 62
     5
 10
1012.8943421059
 20
4.1650648387000002
 30
0.0
 11
1012.8943421059
 21
2.6650648387000002
 31
0.0
  0
LINE
  5
281
  8
ﾚｲﾔ_1
 62
     5
 10
1011.3943421059
 20
4.1650648387000002
 30
0.0
 11
1012.8943421059
 21
4.1650648387000002
 31
0.0
  0
LINE
  5
282
  8
ﾚｲﾔ_1
 62
     5
 10
1143.3943421059
 20
4.1650648387000002
 30
0.0
 11
1144.8943421059
 21
4.1650648387000002
 31
0.0
  0
LINE
  5
283
  8
ﾚｲﾔ_1
 62
     5
 10
1143.3943421059
 20
2.6650648387000002
 30
0.0
 11
1143.3943421059
 21
4.1650648387000002
 31
0.0
  0
ENDBLK
  5
284
  8
0
  0
BLOCK
  8
0
  2
CLUMP6
 70
     0
 10
0.0
 20
0.0
 30
0.0
  3
CLUMP6
  1

  0
LINE
  5
296
  8
ﾚｲﾔ_1
 62
     5
 10
899.84434210589995
 20
-177.84984401540001
 30
0.0
 11
919.84434210589995
 21
-177.84984401540001
 31
0.0
  0
LINE
  5
297
  8
ﾚｲﾔ_1
 62
     5
 10
899.84434210589995
 20
-178.5498440154
 30
0.0
 11
899.84434210589995
 21
-149.5498440154
 31
0.0
  0
LINE
  5
298
  8
ﾚｲﾔ_1
 62
     5
 10
919.84434210589995
 20
-178.5498440154
 30
0.0
 11
899.84434210589995
 21
-178.5498440154
 31
0.0
  0
LINE
  5
299
  8
ﾚｲﾔ_1
 62
     5
 10
919.84434210589995
 20
-149.5498440154
 30
0.0
 11
919.84434210589995
 21
-178.5498440154
 31
0.0
  0
ENDBLK
  5
29A
  8
0
  0
BLOCK
  8
0
  2
CLUMP7
 70
     0
 10
0.0
 20
0.0
 30
0.0
  3
CLUMP7
  1

  0
LINE
  5
2C6
  8
ﾚｲﾔ_1
 62
     5
 10
399.84434210590001
 20
-177.84984401540001
 30
0.0
 11
419.8443421058999
 21
-177.84984401540001
 31
0.0
  0
LINE
  5
2C7
  8
ﾚｲﾔ_1
 62
     5
 10
399.84434210590001
 20
-178.5498440154
 30
0.0
 11
399.84434210590001
 21
-149.5498440154
 31
0.0
  0
LINE
  5
2C8
  8
ﾚｲﾔ_1
 62
     5
 10
419.8443421058999
 20
-178.5498440154
 30
0.0
 11
399.84434210590001
 21
-178.5498440154
 31
0.0
  0
LINE
  5
2C9
  8
ﾚｲﾔ_1
 62
     5
 10
419.8443421058999
 20
-149.5498440154
 30
0.0
 11
419.8443421058999
 21
-178.5498440154
 31
0.0
  0
ENDBLK
  5
2CA
  8
0
  0
BLOCK
  8
0
  2
BALLON2
 70
     0
 10
0.0
 20
0.0
 30
0.0
  3
BALLON2
  1

  0
INSERT
  5
2D1
  8
0
  6
CONTINUOUS
  2
*U83
 10
0.0
 20
0.0
 30
0.0
  0
CIRCLE
  5
2D2
  8
ﾚｲﾔ_1
 10
723.92647592720004
 20
20.735705189200001
 30
0.0
 40
14.0
  0
LINE
  5
2D3
  8
寸法線
 10
747.25980926049988
 20
20.735705189200001
 30
0.0
 11
737.92647592720004
 21
20.735705189200001
 31
0.0
  0
LINE
  5
2D4
  8
寸法線
 10
784.42704089890003
 20
106.5150648387
 30
0.0
 11
747.25980926049988
 21
20.735705189200001
 31
0.0
  0
SOLID
  5
2D5
  8
寸法線
 10
784.42704089890003
 20
106.5150648387
 30
0.0
 11
781.4302164723
 21
92.555872764900002
 31
0.0
 12
779.97422332860003
 22
96.238274693700006
 32
0.0
 13
779.97422332860003
 23
96.238274693700006
 33
0.0
  0
SOLID
  5
2D6
  8
寸法線
 10
779.97422332860003
 20
96.238274693700006
 30
0.0
 11
776.29182139969987
 21
94.782281549999993
 31
0.0
 12
784.42704089890003
 22
106.5150648387
 32
0.0
 13
784.42704089890003
 23
106.5150648387
 33
0.0
  0
ENDBLK
  5
2D7
  8
0
  0
BLOCK
  8
0
  2
BALLON3
 70
     0
 10
0.0
 20
0.0
 30
0.0
  3
BALLON3
  1

  0
INSERT
  5
2EA
  8
0
  6
CONTINUOUS
  2
*U85
 10
0.0
 20
0.0
 30
0.0
  0
CIRCLE
  5
2EB
  8
ﾚｲﾔ_1
 10
913.56287502170005
 20
-386.44318414120011
 30
0.0
 40
14.0
  0
LINE
  5
2EC
  8
寸法線
 10
936.896208355
 20
-386.44318414120011
 30
0.0
 11
927.56287502169982
 21
-386.44318414120011
 31
0.0
  0
LINE
  5
2ED
  8
寸法線
 10
1038.1443421059
 20
-338.6998440154
 30
0.0
 11
936.896208355
 21
-386.44318414120011
 31
0.0
  0
SOLID
  5
2EE
  8
寸法線
 10
1038.1443421059
 20
-338.6998440154
 30
0.0
 11
1026.6757867532001
 21
-347.20350429339999
 31
0.0
 12
1028.0141210226
 22
-343.47672802120002
 32
0.0
 13
1028.0141210226
 23
-343.47672802120002
 33
0.0
  0
SOLID
  5
2EF
  8
寸法線
 10
1028.0141210226
 20
-343.47672802120002
 30
0.0
 11
1024.2873447503989
 21
-342.13839375179998
 31
0.0
 12
1038.1443421059
 22
-338.6998440154
 32
0.0
 13
1038.1443421059
 23
-338.6998440154
 33
0.0
  0
ENDBLK
  5
2F0
  8
0
  0
BLOCK
  8
0
  2
CLUMP8
 70
     0
 10
0.0
 20
0.0
 30
0.0
  3
CLUMP8
  1

  0
LINE
  5
314
  8
ﾚｲﾔ_1
 62
     5
 10
829.64434210589991
 20
136.31506483870001
 30
0.0
 11
841.6443421058998
 21
136.31506483870001
 31
0.0
  0
LINE
  5
315
  8
ﾚｲﾔ_1
 62
     5
 10
829.64434210589991
 20
102.5150648387
 30
0.0
 11
841.6443421058998
 21
102.5150648387
 31
0.0
  0
LINE
  5
316
  8
ﾚｲﾔ_1
 62
     5
 10
829.64434210589991
 20
136.31506483870001
 30
0.0
 11
829.64434210589991
 21
132.31506483870001
 31
0.0
  0
LINE
  5
317
  8
ﾚｲﾔ_1
 62
     5
 10
829.64434210589991
 20
129.31506483870001
 30
0.0
 11
829.64434210589991
 21
124.7150648387
 31
0.0
  0
LINE
  5
318
  8
ﾚｲﾔ_1
 62
     5
 10
829.64434210589991
 20
121.7150648387
 30
0.0
 11
829.64434210589991
 21
117.11506483869999
 31
0.0
  0
LINE
  5
319
  8
ﾚｲﾔ_1
 62
     5
 10
829.64434210589991
 20
114.11506483869999
 30
0.0
 11
829.64434210589991
 21
109.5150648387
 31
0.0
  0
LINE
  5
31A
  8
ﾚｲﾔ_1
 62
     5
 10
829.64434210589991
 20
106.5150648387
 30
0.0
 11
829.64434210589991
 21
102.5150648387
 31
0.0
  0
LINE
  5
31B
  8
ﾚｲﾔ_1
 62
     5
 10
841.6443421058998
 20
106.5150648387
 30
0.0
 11
841.6443421058998
 21
102.5150648387
 31
0.0
  0
LINE
  5
31C
  8
ﾚｲﾔ_1
 62
     5
 10
841.6443421058998
 20
114.11506483869999
 30
0.0
 11
841.6443421058998
 21
109.5150648387
 31
0.0
  0
LINE
  5
31D
  8
ﾚｲﾔ_1
 62
     5
 10
841.6443421058998
 20
121.7150648387
 30
0.0
 11
841.6443421058998
 21
117.11506483869999
 31
0.0
  0
LINE
  5
31E
  8
ﾚｲﾔ_1
 62
     5
 10
841.6443421058998
 20
136.31506483870001
 30
0.0
 11
841.6443421058998
 21
132.31506483870001
 31
0.0
  0
LINE
  5
31F
  8
ﾚｲﾔ_1
 62
     5
 10
841.6443421058998
 20
129.31506483870001
 30
0.0
 11
841.6443421058998
 21
124.7150648387
 31
0.0
  0
LINE
  5
320
  8
ﾚｲﾔ_1
 62
     5
 10
695.64434210589991
 20
136.31506483870001
 30
0.0
 11
707.64434210589991
 21
136.31506483870001
 31
0.0
  0
LINE
  5
321
  8
ﾚｲﾔ_1
 62
     5
 10
561.64434210589991
 20
102.5150648387
 30
0.0
 11
573.64434210589991
 21
102.5150648387
 31
0.0
  0
LINE
  5
322
  8
ﾚｲﾔ_1
 62
     5
 10
561.64434210589991
 20
136.31506483870001
 30
0.0
 11
561.64434210589991
 21
132.31506483870001
 31
0.0
  0
LINE
  5
323
  8
ﾚｲﾔ_1
 62
     5
 10
561.64434210589991
 20
129.31506483870001
 30
0.0
 11
561.64434210589991
 21
124.7150648387
 31
0.0
  0
LINE
  5
324
  8
ﾚｲﾔ_1
 62
     5
 10
561.64434210589991
 20
121.7150648387
 30
0.0
 11
561.64434210589991
 21
117.11506483869999
 31
0.0
  0
LINE
  5
325
  8
ﾚｲﾔ_1
 62
     5
 10
561.64434210589991
 20
114.11506483869999
 30
0.0
 11
561.64434210589991
 21
109.5150648387
 31
0.0
  0
LINE
  5
326
  8
ﾚｲﾔ_1
 62
     5
 10
561.64434210589991
 20
106.5150648387
 30
0.0
 11
561.64434210589991
 21
102.5150648387
 31
0.0
  0
LINE
  5
327
  8
ﾚｲﾔ_1
 62
     5
 10
573.64434210589991
 20
106.5150648387
 30
0.0
 11
573.64434210589991
 21
102.5150648387
 31
0.0
  0
LINE
  5
328
  8
ﾚｲﾔ_1
 62
     5
 10
573.64434210589991
 20
114.11506483869999
 30
0.0
 11
573.64434210589991
 21
109.5150648387
 31
0.0
  0
LINE
  5
329
  8
ﾚｲﾔ_1
 62
     5
 10
573.64434210589991
 20
121.7150648387
 30
0.0
 11
573.64434210589991
 21
117.11506483869999
 31
0.0
  0
LINE
  5
32A
  8
ﾚｲﾔ_1
 62
     5
 10
573.64434210589991
 20
136.31506483870001
 30
0.0
 11
573.64434210589991
 21
132.31506483870001
 31
0.0
  0
LINE
  5
32B
  8
ﾚｲﾔ_1
 62
     5
 10
573.64434210589991
 20
129.31506483870001
 30
0.0
 11
573.64434210589991
 21
124.7150648387
 31
0.0
  0
LINE
  5
32C
  8
ﾚｲﾔ_1
 62
     5
 10
427.64434210589991
 20
136.31506483870001
 30
0.0
 11
439.64434210589991
 21
136.31506483870001
 31
0.0
  0
LINE
  5
32D
  8
ﾚｲﾔ_1
 62
     5
 10
427.64434210589991
 20
102.5150648387
 30
0.0
 11
439.64434210589991
 21
102.5150648387
 31
0.0
  0
LINE
  5
32E
  8
ﾚｲﾔ_1
 62
     5
 10
963.64434210589991
 20
136.31506483870001
 30
0.0
 11
975.64434210590002
 21
136.31506483870001
 31
0.0
  0
LINE
  5
32F
  8
ﾚｲﾔ_1
 62
     5
 10
963.64434210589991
 20
102.5150648387
 30
0.0
 11
975.64434210590002
 21
102.5150648387
 31
0.0
  0
LINE
  5
330
  8
ﾚｲﾔ_1
 62
     5
 10
963.64434210589991
 20
136.31506483870001
 30
0.0
 11
963.64434210589991
 21
132.31506483870001
 31
0.0
  0
LINE
  5
331
  8
ﾚｲﾔ_1
 62
     5
 10
963.64434210589991
 20
129.31506483870001
 30
0.0
 11
963.64434210589991
 21
124.7150648387
 31
0.0
  0
LINE
  5
332
  8
ﾚｲﾔ_1
 62
     5
 10
963.64434210589991
 20
121.7150648387
 30
0.0
 11
963.64434210589991
 21
117.11506483869999
 31
0.0
  0
LINE
  5
333
  8
ﾚｲﾔ_1
 62
     5
 10
963.64434210589991
 20
114.11506483869999
 30
0.0
 11
963.64434210589991
 21
109.5150648387
 31
0.0
  0
LINE
  5
334
  8
ﾚｲﾔ_1
 62
     5
 10
963.64434210589991
 20
106.5150648387
 30
0.0
 11
963.64434210589991
 21
102.5150648387
 31
0.0
  0
LINE
  5
335
  8
ﾚｲﾔ_1
 62
     5
 10
975.64434210590002
 20
106.5150648387
 30
0.0
 11
975.64434210590002
 21
102.5150648387
 31
0.0
  0
LINE
  5
336
  8
ﾚｲﾔ_1
 62
     5
 10
975.64434210590002
 20
114.11506483869999
 30
0.0
 11
975.64434210590002
 21
109.5150648387
 31
0.0
  0
LINE
  5
337
  8
ﾚｲﾔ_1
 62
     5
 10
975.64434210590002
 20
121.7150648387
 30
0.0
 11
975.64434210590002
 21
117.11506483869999
 31
0.0
  0
LINE
  5
338
  8
ﾚｲﾔ_1
 62
     5
 10
975.64434210590002
 20
136.31506483870001
 30
0.0
 11
975.64434210590002
 21
132.31506483870001
 31
0.0
  0
LINE
  5
339
  8
ﾚｲﾔ_1
 62
     5
 10
975.64434210590002
 20
129.31506483870001
 30
0.0
 11
975.64434210590002
 21
124.7150648387
 31
0.0
  0
LINE
  5
33A
  8
ﾚｲﾔ_1
 62
     5
 10
305.64434210590002
 20
121.7150648387
 30
0.0
 11
305.64434210590002
 21
117.11506483869999
 31
0.0
  0
LINE
  5
33B
  8
ﾚｲﾔ_1
 62
     5
 10
305.64434210590002
 20
114.11506483869999
 30
0.0
 11
305.64434210590002
 21
109.5150648387
 31
0.0
  0
LINE
  5
33C
  8
ﾚｲﾔ_1
 62
     5
 10
305.64434210590002
 20
106.5150648387
 30
0.0
 11
305.64434210590002
 21
102.5150648387
 31
0.0
  0
LINE
  5
33D
  8
ﾚｲﾔ_1
 62
     5
 10
293.64434210590002
 20
106.5150648387
 30
0.0
 11
293.64434210590002
 21
102.5150648387
 31
0.0
  0
LINE
  5
33E
  8
ﾚｲﾔ_1
 62
     5
 10
293.64434210590002
 20
114.11506483869999
 30
0.0
 11
293.64434210590002
 21
109.5150648387
 31
0.0
  0
LINE
  5
33F
  8
ﾚｲﾔ_1
 62
     5
 10
293.64434210590002
 20
121.7150648387
 30
0.0
 11
293.64434210590002
 21
117.11506483869999
 31
0.0
  0
LINE
  5
340
  8
ﾚｲﾔ_1
 62
     5
 10
293.64434210590002
 20
129.31506483870001
 30
0.0
 11
293.64434210590002
 21
124.7150648387
 31
0.0
  0
LINE
  5
341
  8
ﾚｲﾔ_1
 62
     5
 10
293.64434210590002
 20
136.31506483870001
 30
0.0
 11
293.64434210590002
 21
132.31506483870001
 31
0.0
  0
LINE
  5
342
  8
ﾚｲﾔ_1
 62
     5
 10
293.64434210590002
 20
102.5150648387
 30
0.0
 11
305.64434210590002
 21
102.5150648387
 31
0.0
  0
LINE
  5
343
  8
ﾚｲﾔ_1
 62
     5
 10
293.64434210590002
 20
136.31506483870001
 30
0.0
 11
305.64434210590002
 21
136.31506483870001
 31
0.0
  0
LINE
  5
344
  8
ﾚｲﾔ_1
 62
     5
 10
259.64434210590002
 20
132.31506483870001
 30
0.0
 11
1009.6443421059
 21
132.31506483870001
 31
0.0
  0
LINE
  5
345
  8
ﾚｲﾔ_1
 62
     5
 10
1009.6443421059
 20
132.31506483870001
 30
0.0
 11
1009.6443421059
 21
129.31506483870001
 31
0.0
  0
LINE
  5
346
  8
ﾚｲﾔ_1
 62
     5
 10
1009.6443421059
 20
129.31506483870001
 30
0.0
 11
259.64434210590002
 21
129.31506483870001
 31
0.0
  0
LINE
  5
347
  8
ﾚｲﾔ_1
 62
     5
 10
695.64434210589991
 20
102.5150648387
 30
0.0
 11
707.64434210589991
 21
102.5150648387
 31
0.0
  0
LINE
  5
348
  8
ﾚｲﾔ_1
 62
     5
 10
695.64434210589991
 20
136.31506483870001
 30
0.0
 11
695.64434210589991
 21
132.31506483870001
 31
0.0
  0
LINE
  5
349
  8
ﾚｲﾔ_1
 62
     5
 10
695.64434210589991
 20
129.31506483870001
 30
0.0
 11
695.64434210589991
 21
124.7150648387
 31
0.0
  0
LINE
  5
34A
  8
ﾚｲﾔ_1
 62
     5
 10
695.64434210589991
 20
121.7150648387
 30
0.0
 11
695.64434210589991
 21
117.11506483869999
 31
0.0
  0
LINE
  5
34B
  8
ﾚｲﾔ_1
 62
     5
 10
695.64434210589991
 20
114.11506483869999
 30
0.0
 11
695.64434210589991
 21
109.5150648387
 31
0.0
  0
LINE
  5
34C
  8
ﾚｲﾔ_1
 62
     5
 10
695.64434210589991
 20
106.5150648387
 30
0.0
 11
695.64434210589991
 21
102.5150648387
 31
0.0
  0
LINE
  5
34D
  8
ﾚｲﾔ_1
 62
     5
 10
707.64434210589991
 20
106.5150648387
 30
0.0
 11
707.64434210589991
 21
102.5150648387
 31
0.0
  0
LINE
  5
34E
  8
ﾚｲﾔ_1
 62
     5
 10
707.64434210589991
 20
114.11506483869999
 30
0.0
 11
707.64434210589991
 21
109.5150648387
 31
0.0
  0
LINE
  5
34F
  8
ﾚｲﾔ_1
 62
     5
 10
707.64434210589991
 20
121.7150648387
 30
0.0
 11
707.64434210589991
 21
117.11506483869999
 31
0.0
  0
LINE
  5
350
  8
ﾚｲﾔ_1
 62
     5
 10
707.64434210589991
 20
136.31506483870001
 30
0.0
 11
707.64434210589991
 21
132.31506483870001
 31
0.0
  0
LINE
  5
351
  8
ﾚｲﾔ_1
 62
     5
 10
707.64434210589991
 20
129.31506483870001
 30
0.0
 11
707.64434210589991
 21
124.7150648387
 31
0.0
  0
LINE
  5
352
  8
ﾚｲﾔ_1
 62
     5
 10
561.64434210589991
 20
136.31506483870001
 30
0.0
 11
573.64434210589991
 21
136.31506483870001
 31
0.0
  0
LINE
  5
353
  8
ﾚｲﾔ_1
 62
     5
 10
259.64434210590002
 20
129.31506483870001
 30
0.0
 11
259.64434210590002
 21
132.31506483870001
 31
0.0
  0
LINE
  5
354
  8
ﾚｲﾔ_1
 62
     5
 10
259.64434210590002
 20
124.7150648387
 30
0.0
 11
1009.6443421059
 21
124.7150648387
 31
0.0
  0
LINE
  5
355
  8
ﾚｲﾔ_1
 62
     5
 10
1009.6443421059
 20
124.7150648387
 30
0.0
 11
1009.6443421059
 21
121.7150648387
 31
0.0
  0
LINE
  5
356
  8
ﾚｲﾔ_1
 62
     5
 10
1009.6443421059
 20
121.7150648387
 30
0.0
 11
259.64434210590002
 21
121.7150648387
 31
0.0
  0
LINE
  5
357
  8
ﾚｲﾔ_1
 62
     5
 10
259.64434210590002
 20
121.7150648387
 30
0.0
 11
259.64434210590002
 21
124.7150648387
 31
0.0
  0
LINE
  5
358
  8
ﾚｲﾔ_1
 62
     5
 10
259.64434210590002
 20
117.11506483869999
 30
0.0
 11
1009.6443421059
 21
117.11506483869999
 31
0.0
  0
LINE
  5
359
  8
ﾚｲﾔ_1
 62
     5
 10
1009.6443421059
 20
117.11506483869999
 30
0.0
 11
1009.6443421059
 21
114.11506483869999
 31
0.0
  0
LINE
  5
35A
  8
ﾚｲﾔ_1
 62
     5
 10
1009.6443421059
 20
114.11506483869999
 30
0.0
 11
259.64434210590002
 21
114.11506483869999
 31
0.0
  0
LINE
  5
35B
  8
ﾚｲﾔ_1
 62
     5
 10
259.64434210590002
 20
114.11506483869999
 30
0.0
 11
259.64434210590002
 21
117.11506483869999
 31
0.0
  0
LINE
  5
35C
  8
ﾚｲﾔ_1
 62
     5
 10
259.64434210590002
 20
106.5150648387
 30
0.0
 11
259.64434210590002
 21
109.5150648387
 31
0.0
  0
LINE
  5
35D
  8
ﾚｲﾔ_1
 62
     5
 10
1009.6443421059
 20
106.5150648387
 30
0.0
 11
259.64434210590002
 21
106.5150648387
 31
0.0
  0
LINE
  5
35E
  8
ﾚｲﾔ_1
 62
     5
 10
1009.6443421059
 20
109.5150648387
 30
0.0
 11
1009.6443421059
 21
106.5150648387
 31
0.0
  0
LINE
  5
35F
  8
ﾚｲﾔ_1
 62
     5
 10
259.64434210590002
 20
109.5150648387
 30
0.0
 11
1009.6443421059
 21
109.5150648387
 31
0.0
  0
LINE
  5
360
  8
ﾚｲﾔ_1
 62
     5
 10
427.64434210589991
 20
136.31506483870001
 30
0.0
 11
427.64434210589991
 21
132.31506483870001
 31
0.0
  0
LINE
  5
361
  8
ﾚｲﾔ_1
 62
     5
 10
427.64434210589991
 20
129.31506483870001
 30
0.0
 11
427.64434210589991
 21
124.7150648387
 31
0.0
  0
LINE
  5
362
  8
ﾚｲﾔ_1
 62
     5
 10
427.64434210589991
 20
121.7150648387
 30
0.0
 11
427.64434210589991
 21
117.11506483869999
 31
0.0
  0
LINE
  5
363
  8
ﾚｲﾔ_1
 62
     5
 10
427.64434210589991
 20
114.11506483869999
 30
0.0
 11
427.64434210589991
 21
109.5150648387
 31
0.0
  0
LINE
  5
364
  8
ﾚｲﾔ_1
 62
     5
 10
427.64434210589991
 20
106.5150648387
 30
0.0
 11
427.64434210589991
 21
102.5150648387
 31
0.0
  0
LINE
  5
365
  8
ﾚｲﾔ_1
 62
     5
 10
439.64434210589991
 20
106.5150648387
 30
0.0
 11
439.64434210589991
 21
102.5150648387
 31
0.0
  0
LINE
  5
366
  8
ﾚｲﾔ_1
 62
     5
 10
439.64434210589991
 20
114.11506483869999
 30
0.0
 11
439.64434210589991
 21
109.5150648387
 31
0.0
  0
LINE
  5
367
  8
ﾚｲﾔ_1
 62
     5
 10
439.64434210589991
 20
121.7150648387
 30
0.0
 11
439.64434210589991
 21
117.11506483869999
 31
0.0
  0
LINE
  5
368
  8
ﾚｲﾔ_1
 62
     5
 10
439.64434210589991
 20
136.31506483870001
 30
0.0
 11
439.64434210589991
 21
132.31506483870001
 31
0.0
  0
LINE
  5
369
  8
ﾚｲﾔ_1
 62
     5
 10
439.64434210589991
 20
129.31506483870001
 30
0.0
 11
439.64434210589991
 21
124.7150648387
 31
0.0
  0
LINE
  5
36A
  8
ﾚｲﾔ_1
 62
     5
 10
305.64434210590002
 20
129.31506483870001
 30
0.0
 11
305.64434210590002
 21
124.7150648387
 31
0.0
  0
LINE
  5
36B
  8
ﾚｲﾔ_1
 62
     5
 10
305.64434210590002
 20
136.31506483870001
 30
0.0
 11
305.64434210590002
 21
132.31506483870001
 31
0.0
  0
ENDBLK
  5
36C
  8
0
  0
BLOCK
  8
0
  2
*U24
 70
     1
 10
0.0
 20
0.0
 30
0.0
  3
*U24
  1

  0
TEXT
  5
38F
  8
図枠
  6
CONTINUOUS
 10
1410.1505298069501
 20
-537.67021626650001
 30
0.0
 40
9.9703820704999995
  1
1
  0
ENDBLK
  5
391
  8
0
  0
BLOCK
  8
0
  2
*U25
 70
     1
 10
0.0
 20
0.0
 30
0.0
  3
*U25
  1

  0
TEXT
  5
393
  8
図枠
  6
CONTINUOUS
 10
1410.1505298069501
 20
-520.17021626649989
 30
0.0
 40
9.9703820704999995
  1
1
  0
ENDBLK
  5
395
  8
0
  0
BLOCK
  8
0
  2
*U26
 70
     1
 10
0.0
 20
0.0
 30
0.0
  3
*U26
  1

  0
TEXT
  5
397
  8
図枠
  6
CONTINUOUS
 10
1410.1505298069501
 20
-502.67021626649989
 30
0.0
 40
9.9703820704999995
  1
1
  0
ENDBLK
  5
399
  8
0
  0
BLOCK
  8
0
  2
*U27
 70
     1
 10
0.0
 20
0.0
 30
0.0
  3
*U27
  1

  0
TEXT
  5
39B
  8
図枠
  6
CONTINUOUS
 10
1230.5693923496999
 20
-537.67021626650001
 30
0.0
 40
9.9703820704999995
  1
ＳＵＳ３０４　３ｘ１０ ＦＢ
  0
ENDBLK
  5
39D
  8
0
  0
BLOCK
  8
0
  2
*U28
 70
     1
 10
0.0
 20
0.0
 30
0.0
  3
*U28
  1

  0
TEXT
  5
39F
  8
改訂
  6
CONTINUOUS
 10
1473.814744696668
 20
239.22804094590001
 30
0.0
 40
9.4456248580999986
  1
＊＊
  0
ENDBLK
  5
3A1
  8
0
  0
BLOCK
  8
0
  2
*U29
 70
     1
 10
0.0
 20
0.0
 30
0.0
  3
*U29
  1

  0
TEXT
  5
3A3
  8
図枠
  6
CONTINUOUS
 10
1056.129147193845
 20
-628.42778723649997
 30
0.0
 40
10.4951385736
  1
H16.4
  0
ENDBLK
  5
3A5
  8
0
  0
BLOCK
  8
0
  2
*U30
 70
     1
 10
0.0
 20
0.0
 30
0.0
  3
*U30
  1

  0
TEXT
  5
3A7
  8
図枠
  6
CONTINUOUS
 10
1404.0535501232871
 20
-696.56025020070001
 30
0.0
 40
12.5941660047
  1
SHN00001
  0
ENDBLK
  5
3A9
  8
0
  0
BLOCK
  8
0
  2
*U31
 70
     1
 10
0.0
 20
0.0
 30
0.0
  3
*U31
  1

  0
TEXT
  5
3AB
  8
図枠
  6
CONTINUOUS
 10
1403.1904981381931
 20
-620.19954796743605
 30
0.0
 40
12.5941660047
  1
流れーる
  0
ENDBLK
  5
3AD
  8
0
  0
BLOCK
  8
0
  2
*U32
 70
     1
 10
0.0
 20
0.0
 30
0.0
  3
*U32
  1

  0
TEXT
  5
3AF
  8
図枠
  6
CONTINUOUS
 10
1227.3668075674309
 20
-648.1854496845441
 30
0.0
 40
10.4951385736
  1
柳 原
  0
ENDBLK
  5
3B1
  8
0
  0
BLOCK
  8
0
  2
*U33
 70
     1
 10
0.0
 20
0.0
 30
0.0
  3
*U33
  1

  0
TEXT
  5
3B3
  8
図枠
  6
CONTINUOUS
 10
1227.3668075674309
 20
-667.4354496845441
 30
0.0
 40
10.4951385736
  1
柳 原
  0
ENDBLK
  5
3B5
  8
0
  0
BLOCK
  8
0
  2
*U34
 70
     1
 10
0.0
 20
0.0
 30
0.0
  3
*U34
  1

  0
TEXT
  5
3B7
  8
図枠
  6
CONTINUOUS
 10
1093.239967552332
 20
-648.23872449963847
 30
0.0
 40
10.4951385736
  1
白須賀
  0
ENDBLK
  5
3B9
  8
0
  0
BLOCK
  8
0
  2
*U35
 70
     1
 10
0.0
 20
0.0
 30
0.0
  3
*U35
  1

  0
TEXT
  5
3BB
  8
図枠
  6
CONTINUOUS
 10
1096.3831816429031
 20
-667.54199931473295
 30
0.0
 40
10.4951385736
  1
岸 本
  0
ENDBLK
  5
3BD
  8
0
  0
BLOCK
  8
0
  2
*U36
 70
     1
 10
0.0
 20
0.0
 30
0.0
  3
*U36
  1

  0
TEXT
  5
3BF
  8
図枠
  6
CONTINUOUS
 10
1351.9188172459631
 20
-659.40277551084569
 30
0.0
 40
12.5941660047
  1
排水トラップ付 承認図
  0
ENDBLK
  5
3C1
  8
0
  0
BLOCK
  8
0
  2
*U37
 70
     1
 10
0.0
 20
0.0
 30
0.0
  3
*U37
  1

  0
TEXT
  5
3C3
  8
図枠
  6
CONTINUOUS
 10
1233.7578901692
 20
-520.17021626649989
 30
0.0
 40
9.9703820704999995
  1
ＳＵＳ３０４　１５ｔ　ＨＬ
  0
ENDBLK
  5
3C5
  8
0
  0
BLOCK
  8
0
  2
*U38
 70
     1
 10
0.0
 20
0.0
 30
0.0
  3
*U38
  1

  0
TEXT
  5
3C7
  8
図枠
  6
CONTINUOUS
 10
1249.7003792667001
 20
-555.17021626650001
 30
0.0
 40
9.9703820704999995
  1
ＳＵＳ３０４　０.８ｔ
  0
ENDBLK
  5
3C9
  8
0
  0
BLOCK
  8
0
  2
*U39
 70
     1
 10
0.0
 20
0.0
 30
0.0
  3
*U39
  1

  0
TEXT
  5
3CB
  8
図枠
  6
CONTINUOUS
 10
1285.1281328166999
 20
-503.12571595499992
 30
0.0
 40
9.9703820704999995
  1
ＡＢＳ樹脂
  0
ENDBLK
  5
3CD
  8
0
  0
BLOCK
  8
0
  2
*U40
 70
     1
 10
0.0
 20
0.0
 30
0.0
  3
*U40
  1

  0
TEXT
  5
3CF
  8
図枠
  6
CONTINUOUS
 10
1110.2956374892001
 20
-503.73304887299992
 30
0.0
 40
9.9703820704999995
  1
排水トラップ
  0
ENDBLK
  5
3D1
  8
0
  0
BLOCK
  8
0
  2
*U41
 70
     1
 10
0.0
 20
0.0
 30
0.0
  3
*U41
  1

  0
TEXT
  5
3D3
  8
図枠
  6
CONTINUOUS
 10
1142.4589766049501
 20
-520.62571595500003
 30
0.0
 40
9.9703820704999995
  1
蓋
  0
ENDBLK
  5
3D5
  8
0
  0
BLOCK
  8
0
  2
*U42
 70
     1
 10
0.0
 20
0.0
 30
0.0
  3
*U42
  1

  0
TEXT
  5
3D7
  8
図枠
  6
CONTINUOUS
 10
1124.1124613736999
 20
-537.67021626650001
 30
0.0
 40
9.9703820704999995
  1
目　　皿
  0
ENDBLK
  5
3D9
  8
0
  0
BLOCK
  8
0
  2
*U43
 70
     1
 10
0.0
 20
0.0
 30
0.0
  3
*U43
  1

  0
TEXT
  5
3DB
  8
図枠
  6
CONTINUOUS
 10
1123.2520730732001
 20
-555.72693810800001
 30
0.0
 40
9.9703820704999995
  1
本　　体
  0
ENDBLK
  5
3DD
  8
0
  0
BLOCK
  8
0
  2
*U44
 70
     1
 10
0.0
 20
0.0
 30
0.0
  3
*U44
  1

  0
TEXT
  5
3DF
  8
図枠
  6
CONTINUOUS
 10
1042.0685024272
 20
-537.67021626650001
 30
0.0
 40
9.9703820704999995
  1
2
  0
ENDBLK
  5
3E1
  8
0
  0
BLOCK
  8
0
  2
*U45
 70
     1
 10
0.0
 20
0.0
 30
0.0
  3
*U45
  1

  0
TEXT
  5
3E3
  8
図枠
  6
CONTINUOUS
 10
1042.6505298069501
 20
-555.17021626650001
 30
0.0
 40
9.9703820704999995
  1
1
  0
ENDBLK
  5
3E5
  8
0
  0
BLOCK
  8
0
  2
*U46
 70
     1
 10
0.0
 20
0.0
 30
0.0
  3
*U46
  1

  0
TEXT
  5
3E7
  8
図枠
  6
CONTINUOUS
 10
1410.1505298069501
 20
-555.17021626650001
 30
0.0
 40
9.9703820704999995
  1
1
  0
ENDBLK
  5
3E9
  8
0
  0
BLOCK
  8
0
  2
*U47
 70
     1
 10
0.0
 20
0.0
 30
0.0
  3
*U47
  1

  0
TEXT
  5
3EB
  8
図枠
  6
CONTINUOUS
 10
1042.1191135037
 20
-520.17021626649989
 30
0.0
 40
9.9703820704999995
  1
3
  0
ENDBLK
  5
3ED
  8
0
  0
BLOCK
  8
0
  2
*U48
 70
     1
 10
0.0
 20
0.0
 30
0.0
  3
*U48
  1

  0
TEXT
  5
3EF
  8
図枠
  6
CONTINUOUS
 10
1042.04319688895
 20
-502.67021626649989
 30
0.0
 40
9.9703820704999995
  1
4
  0
ENDBLK
  5
3F1
  8
0
  0
BLOCK
  8
0
  2
*U49
 70
     1
 10
0.0
 20
0.0
 30
0.0
  3
*U49
  1

  0
TEXT
  5
3F3
  8
図枠
  6
CONTINUOUS
 10
1144.3749946051671
 20
-629.01381020253859
 30
0.0
 40
10.4951385736
  1
略 尺
  0
ENDBLK
  5
3F5
  8
0
  0
BLOCK
  8
0
  2
*U50
 70
     1
 10
0.0
 20
0.0
 30
0.0
  3
*U50
  1

  0
TEXT
  5
3F7
  8
図枠
  6
CONTINUOUS
 10
1337.265398723928
 20
256.24856760284922
 30
0.0
 40
9.4456248580999986
  1
改　訂　内　容
  0
ENDBLK
  5
3F9
  8
0
  0
BLOCK
  8
0
  2
*U51
 70
     1
 10
0.0
 20
0.0
 30
0.0
  3
*U51
  1

  0
TEXT
  5
3FB
  8
図枠
  6
CONTINUOUS
 10
1246.002776215144
 20
256.34446227145941
 30
0.0
 40
9.4456248580999986
  1
改訂日
  0
ENDBLK
  5
3FD
  8
0
  0
BLOCK
  8
0
  2
*U52
 70
     1
 10
0.0
 20
0.0
 30
0.0
  3
*U52
  1

  0
TEXT
  5
3FF
  8
図枠
  6
CONTINUOUS
 10
1210.187982340499
 20
256.44035694006948
 30
0.0
 40
9.4456248580999986
  1
副番
  0
ENDBLK
  5
401
  8
0
  0
BLOCK
  8
0
  2
*U53
 70
     1
 10
0.0
 20
0.0
 30
0.0
  3
*U53
  1

  0
TEXT
  5
403
  8
図枠
  6
CONTINUOUS
 10
1048.5464295254001
 20
-700.2080086004172
 30
0.0
 40
18.891249716299999
  1
株式会社
  0
ENDBLK
  5
405
  8
0
  0
BLOCK
  8
0
  2
*U54
 70
     1
 10
0.0
 20
0.0
 30
0.0
  3
*U54
  1

  0
TEXT
  5
407
  8
図枠
  6
CONTINUOUS
 10
1501.8623812224321
 20
256.20062026854418
 30
0.0
 40
9.4456248580999986
  1
検認者
  0
ENDBLK
  5
409
  8
0
  0
BLOCK
  8
0
  2
*U55
 70
     1
 10
0.0
 20
0.0
 30
0.0
  3
*U55
  1

  0
TEXT
  5
40B
  8
図枠
  6
CONTINUOUS
 10
1296.7848190504501
 20
-685.03862166016643
 30
0.0
 40
10.4951385736
  1
図 番
  0
ENDBLK
  5
40D
  8
0
  0
BLOCK
  8
0
  2
*U56
 70
     1
 10
0.0
 20
0.0
 30
0.0
  3
*U56
  1

  0
TEXT
  5
40F
  8
図枠
  6
CONTINUOUS
 10
1293.135494216483
 20
-608.25172092054413
 30
0.0
 40
10.4951385736
  1
製品名
  0
ENDBLK
  5
411
  8
0
  0
BLOCK
  8
0
  2
*U57
 70
     1
 10
0.0
 20
0.0
 30
0.0
  3
*U57
  1

  0
TEXT
  5
413
  8
図枠
  6
CONTINUOUS
 10
1293.428505699502
 20
-646.64517129035528
 30
0.0
 40
10.4951385736
  1
図面名
  0
ENDBLK
  5
415
  8
0
  0
BLOCK
  8
0
  2
*U58
 70
     1
 10
0.0
 20
0.0
 30
0.0
  3
*U58
  1

  0
TEXT
  5
417
  8
図枠
  6
CONTINUOUS
 10
1047.711726408927
 20
-609.36580079397766
 30
0.0
 40
10.4951385736
  1
日　　付
  0
ENDBLK
  5
419
  8
0
  0
BLOCK
  8
0
  2
*U59
 70
     1
 10
0.0
 20
0.0
 30
0.0
  3
*U59
  1

  0
TEXT
  5
41B
  8
図枠
  6
CONTINUOUS
 10
1134.092955291944
 20
-609.68544968454398
 30
0.0
 40
10.4951385736
  1
尺　　度
  0
ENDBLK
  5
41D
  8
0
  0
BLOCK
  8
0
  2
*U60
 70
     1
 10
0.0
 20
0.0
 30
0.0
  3
*U60
  1

  0
TEXT
  5
41F
  8
図枠
  6
CONTINUOUS
 10
1467.006223225347
 20
256.24856760284922
 30
0.0
 40
9.4456248580999986
  1
改訂者
  0
ENDBLK
  5
421
  8
0
  0
BLOCK
  8
0
  2
*U61
 70
     1
 10
0.0
 20
0.0
 30
0.0
  3
*U61
  1

  0
TEXT
  5
423
  8
図枠
  6
CONTINUOUS
 10
1032.4710446240399
 20
-573.51462166016643
 30
0.0
 40
10.4951385736
  1
品番
  0
ENDBLK
  5
425
  8
0
  0
BLOCK
  8
0
  2
*U62
 70
     1
 10
0.0
 20
0.0
 30
0.0
  3
*U62
  1

  0
TEXT
  5
427
  8
図枠
  6
CONTINUOUS
 10
1029.5070002467
 20
-667.4354496845441
 30
0.0
 40
10.4951385736
  1
 製図
  0
ENDBLK
  5
429
  8
0
  0
BLOCK
  8
0
  2
*U63
 70
     1
 10
0.0
 20
0.0
 30
0.0
  3
*U63
  1

  0
TEXT
  5
42B
  8
図枠
  6
CONTINUOUS
 10
1029.5070002467
 20
-648.07890005435524
 30
0.0
 40
10.4951385736
  1
 設計
  0
ENDBLK
  5
42D
  8
0
  0
BLOCK
  8
0
  2
*U64
 70
     1
 10
0.0
 20
0.0
 30
0.0
  3
*U64
  1

  0
TEXT
  5
42F
  8
図枠
  6
CONTINUOUS
 10
1160.7570002467
 20
-667.48872449963847
 30
0.0
 40
10.4951385736
  1
 検図
  0
ENDBLK
  5
431
  8
0
  0
BLOCK
  8
0
  2
*U65
 70
     1
 10
0.0
 20
0.0
 30
0.0
  3
*U65
  1

  0
TEXT
  5
433
  8
図枠
  6
CONTINUOUS
 10
1160.7570002467
 20
-648.13217486944973
 30
0.0
 40
10.4951385736
  1
 照査
  0
ENDBLK
  5
435
  8
0
  0
BLOCK
  8
0
  2
*U66
 70
     1
 10
0.0
 20
0.0
 30
0.0
  3
*U66
  1

  0
TEXT
  5
437
  8
図枠
  6
CONTINUOUS
 10
1399.624758325926
 20
-573.72772092054413
 30
0.0
 40
10.4951385736
  1
数量
  0
ENDBLK
  5
439
  8
0
  0
BLOCK
  8
0
  2
*U67
 70
     1
 10
0.0
 20
0.0
 30
0.0
  3
*U67
  1

  0
TEXT
  5
43B
  8
図枠
  6
CONTINUOUS
 10
1450.4191874843891
 20
-573.88754536582735
 30
0.0
 40
10.4951385736
  1
備　　　考
  0
ENDBLK
  5
43D
  8
0
  0
BLOCK
  8
0
  2
*U68
 70
     1
 10
0.0
 20
0.0
 30
0.0
  3
*U68
  1

  0
TEXT
  5
43F
  8
図枠
  6
CONTINUOUS
 10
1282.9172293296699
 20
-573.56789647526091
 30
0.0
 40
10.4951385736
  1
材　　　質
  0
ENDBLK
  5
441
  8
0
  0
BLOCK
  8
0
  2
*U69
 70
     1
 10
0.0
 20
0.0
 30
0.0
  3
*U69
  1

  0
TEXT
  5
443
  8
図枠
  6
CONTINUOUS
 10
1115.316790442879
 20
-573.62117129035528
 30
0.0
 40
10.4951385736
  1
品　　　名
  0
ENDBLK
  5
445
  8
0
  0
BLOCK
  8
0
  2
*U70
 70
     1
 10
0.0
 20
0.0
 30
0.0
  3
*U70
  1

  0
TEXT
  5
447
  8
改訂
  6
CONTINUOUS
 10
1236.221520016908
 20
239.22804094590001
 30
0.0
 40
9.4456248580999986
  1
H**.**.**
  0
ENDBLK
  5
449
  8
0
  0
BLOCK
  8
0
  2
*U71
 70
     1
 10
0.0
 20
0.0
 30
0.0
  3
*U71
  1

  0
TEXT
  5
44B
  8
改訂
  6
CONTINUOUS
 10
1218.5427136714641
 20
237.11266801030001
 30
0.0
 40
9.4456248864999992
  1
1
  0
ENDBLK
  5
44D
  8
0
  0
BLOCK
  8
0
  2
*U72
 70
     1
 10
0.0
 20
0.0
 30
0.0
  3
*U72
  1

  0
TEXT
  5
44F
  8
改訂
  6
CONTINUOUS
 10
1311.997153545153
 20
239.2367909459
 30
0.0
 40
9.4456248580999986
  1
**********************
  0
ENDBLK
  5
451
  8
0
  0
BLOCK
  8
0
  2
*U73
 70
     1
 10
0.0
 20
0.0
 30
0.0
  3
*U73
  1

  0
TEXT
  5
453
  8
ﾚｲﾔ_1
  6
CONTINUOUS
 10
940.50960273252485
 20
16.414177374299999
 30
0.0
 40
10.495138979
  1
3
  0
ENDBLK
  5
455
  8
0
  0
BLOCK
  8
0
  2
*U74
 70
     1
 10
0.0
 20
0.0
 30
0.0
  3
*U74
  1

  0
TEXT
  5
457
  8
ﾚｲﾔ_1
  6
CONTINUOUS
 10
909.14419901079305
 20
-302.5341788851
 30
0.0
 40
10.495138979
  1
1
  0
ENDBLK
  5
459
  8
0
  0
BLOCK
  8
0
  2
*U75
 70
     1
 10
0.0
 20
0.0
 30
0.0
  3
*U75
  1

  0
TEXT
  5
45B
  8
ﾚｲﾔ_1
  6
CONTINUOUS
 10
620.55753794409998
 20
-470.29540630389999
 30
0.0
 40
12.594165801999999
  1
１８００
  0
ENDBLK
  5
45D
  8
0
  0
BLOCK
  8
0
  2
*U76
 70
     1
 10
0.0
 20
0.0
 30
0.0
  3
*U76
  1

  0
TEXT
  5
45F
  8
ﾚｲﾔ_1
  6
CONTINUOUS
 10
620.55753794409998
 20
-450.29540630389999
 30
0.0
 40
12.594165801999999
  1
１８００
  0
ENDBLK
  5
461
  8
0
  0
BLOCK
  8
0
  2
*U77
 70
     1
 10
0.0
 20
0.0
 30
0.0
  3
*U77
  1

  0
TEXT
  5
463
  8
ﾚｲﾔ_1
  6
CONTINUOUS
 10
549.04501034140003
 20
-410.80684450905733
 30
0.0
 40
12.594165801999999
  1
右
  0
ENDBLK
  5
465
  8
0
  0
BLOCK
  8
0
  2
*U78
 70
     1
 10
0.0
 20
0.0
 30
0.0
  3
*U78
  1

  0
TEXT
  5
467
  8
ﾚｲﾔ_1
  6
CONTINUOUS
 10
549.04501034140003
 20
-430.80684450905733
 30
0.0
 40
12.594165801999999
  1
左
  0
ENDBLK
  5
469
  8
0
  0
BLOCK
  8
0
  2
*U79
 70
     1
 10
0.0
 20
0.0
 30
0.0
  3
*U79
  1

  0
TEXT
  5
46B
  8
ﾚｲﾔ_1
  6
CONTINUOUS
 10
549.04501034140003
 20
-390.80684450905738
 30
0.0
 40
12.594165801999999
  1
左
  0
ENDBLK
  5
46D
  8
0
  0
BLOCK
  8
0
  2
*U80
 70
     1
 10
0.0
 20
0.0
 30
0.0
  3
*U80
  1

  0
TEXT
  5
46F
  8
ﾚｲﾔ_1
  6
CONTINUOUS
 10
429.92368732749992
 20
-350.67898495776802
 30
0.0
 40
12.594165801999999
  1
型番
  0
ENDBLK
  5
471
  8
0
  0
BLOCK
  8
0
  2
*U81
 70
     1
 10
0.0
 20
0.0
 30
0.0
  3
*U81
  1

  0
TEXT
  5
473
  8
ﾚｲﾔ_1
  6
CONTINUOUS
 10
534.66513615790006
 20
-350.87077428470201
 30
0.0
 40
12.594165801999999
  1
排水口
  0
ENDBLK
  5
475
  8
0
  0
BLOCK
  8
0
  2
*U82
 70
     1
 10
0.0
 20
0.0
 30
0.0
  3
*U82
  1

  0
TEXT
  5
477
  8
ﾚｲﾔ_1
  6
CONTINUOUS
 10
630.1765848604
 20
-351.06256361163599
 30
0.0
 40
12.594165801999999
  1
全長Ｌ
  0
ENDBLK
  5
479
  8
0
  0
BLOCK
  8
0
  2
*U83
 70
     1
 10
0.0
 20
0.0
 30
0.0
  3
*U83
  1

  0
TEXT
  5
47B
  8
ﾚｲﾔ_1
  6
CONTINUOUS
 10
720.20037253927262
 20
16.414177374299999
 30
0.0
 40
10.495138979
  1
2
  0
ENDBLK
  5
47D
  8
0
  0
BLOCK
  8
0
  2
*U84
 70
     1
 10
0.0
 20
0.0
 30
0.0
  3
*U84
  1

  0
TEXT
  5
47F
  8
ﾚｲﾔ_1
  6
CONTINUOUS
 10
620.55753794409998
 20
-370.29540630390011
 30
0.0
 40
12.594165801999999
  1
１２００
  0
ENDBLK
  5
481
  8
0
  0
BLOCK
  8
0
  2
*U85
 70
     1
 10
0.0
 20
0.0
 30
0.0
  3
*U85
  1

  0
TEXT
  5
483
  8
ﾚｲﾔ_1
  6
CONTINUOUS
 10
910.04987090238194
 20
-390.76471195609997
 30
0.0
 40
10.495138979
  1
4
  0
ENDBLK
  5
485
  8
0
  0
BLOCK
  8
0
  2
*U86
 70
     1
 10
0.0
 20
0.0
 30
0.0
  3
*U86
  1

  0
TEXT
  5
487
  8
ﾚｲﾔ_1
  6
CONTINUOUS
 10
409.50618148119997
 20
-542.90380919424706
 30
0.0
 40
12.5941666126
  1
＊本図は、右排水口タイプです。
  0
TEXT
  5
488
  8
ﾚｲﾔ_1
  6
CONTINUOUS
 10
409.50618148119997
 20
-565.23661225686101
 30
0.0
 40
12.5941666126
  1
左排水口タイプは 左右 逆になります。
  0
ENDBLK
  5
48A
  8
0
  0
BLOCK
  8
0
  2
*U87
 70
     1
 10
0.0
 20
0.0
 30
0.0
  3
*U87
  1

  0
TEXT
  5
48C
  8
ﾚｲﾔ_1
  6
CONTINUOUS
 10
389.95189983170002
 20
-490.27642684009987
 30
0.0
 40
12.594165801999999
  1
ＮＴ-５９１２１
  0
ENDBLK
  5
48E
  8
0
  0
BLOCK
  8
0
  2
*U88
 70
     1
 10
0.0
 20
0.0
 30
0.0
  3
*U88
  1

  0
TEXT
  5
490
  8
ﾚｲﾔ_1
  6
CONTINUOUS
 10
389.95189983170002
 20
-470.27642684009999
 30
0.0
 40
12.594165801999999
  1
ＮＴ-５９２１８
  0
ENDBLK
  5
492
  8
0
  0
BLOCK
  8
0
  2
*U89
 70
     1
 10
0.0
 20
0.0
 30
0.0
  3
*U89
  1

  0
TEXT
  5
494
  8
ﾚｲﾔ_1
  6
CONTINUOUS
 10
389.95189983170002
 20
-450.27642684009999
 30
0.0
 40
12.594165801999999
  1
ＮＴ-５９１１８
  0
ENDBLK
  5
496
  8
0
  0
BLOCK
  8
0
  2
*U90
 70
     1
 10
0.0
 20
0.0
 30
0.0
  3
*U90
  1

  0
TEXT
  5
498
  8
ﾚｲﾔ_1
  6
CONTINUOUS
 10
389.95189983170002
 20
-390.27642684009999
 30
0.0
 40
12.594165801999999
  1
ＮＴ-５９２１２
  0
ENDBLK
  5
49A
  8
0
  0
BLOCK
  8
0
  2
*U91
 70
     1
 10
0.0
 20
0.0
 30
0.0
  3
*U91
  1

  0
TEXT
  5
49C
  8
ﾚｲﾔ_1
  6
CONTINUOUS
 10
389.95189983170002
 20
-410.27642684009987
 30
0.0
 40
12.594165801999999
  1
ＮＴ-５９１１５
  0
ENDBLK
  5
49E
  8
0
  0
BLOCK
  8
0
  2
*U92
 70
     1
 10
0.0
 20
0.0
 30
0.0
  3
*U92
  1

  0
TEXT
  5
4A0
  8
ﾚｲﾔ_1
  6
CONTINUOUS
 10
389.95189983170002
 20
-430.27642684009987
 30
0.0
 40
12.594165801999999
  1
ＮＴ-５９２１５
  0
ENDBLK
  5
4A2
  8
0
  0
BLOCK
  8
0
  2
*U93
 70
     1
 10
0.0
 20
0.0
 30
0.0
  3
*U93
  1

  0
TEXT
  5
4A4
  8
ﾚｲﾔ_1
  6
CONTINUOUS
 10
389.95189983170002
 20
-510.27642684009987
 30
0.0
 40
12.594165801999999
  1
ＮＴ-５９２２１
  0
ENDBLK
  5
4A6
  8
0
  0
BLOCK
  8
0
  2
*U94
 70
     1
 10
0.0
 20
0.0
 30
0.0
  3
*U94
  1

  0
TEXT
  5
4A8
  8
ﾚｲﾔ_1
  6
CONTINUOUS
 10
549.04501034140003
 20
-490.80684450905738
 30
0.0
 40
12.594165801999999
  1
右
  0
ENDBLK
  5
4AA
  8
0
  0
BLOCK
  8
0
  2
*U95
 70
     1
 10
0.0
 20
0.0
 30
0.0
  3
*U95
  1

  0
TEXT
  5
4AC
  8
ﾚｲﾔ_1
  6
CONTINUOUS
 10
549.04501034140003
 20
-510.80684450905733
 30
0.0
 40
12.594165801999999
  1
左
  0
ENDBLK
  5
4AE
  8
0
  0
BLOCK
  8
0
  2
*U96
 70
     1
 10
0.0
 20
0.0
 30
0.0
  3
*U96
  1

  0
TEXT
  5
4B0
  8
ﾚｲﾔ_1
  6
CONTINUOUS
 10
549.04501034140003
 20
-470.80684450905738
 30
0.0
 40
12.594165801999999
  1
左
  0
ENDBLK
  5
4B2
  8
0
  0
BLOCK
  8
0
  2
*U97
 70
     1
 10
0.0
 20
0.0
 30
0.0
  3
*U97
  1

  0
TEXT
  5
4B4
  8
ﾚｲﾔ_1
  6
CONTINUOUS
 10
549.04501034140003
 20
-450.80684450905733
 30
0.0
 40
12.594165801999999
  1
右
  0
ENDBLK
  5
4B6
  8
0
  0
BLOCK
  8
0
  2
*U98
 70
     1
 10
0.0
 20
0.0
 30
0.0
  3
*U98
  1

  0
TEXT
  5
4B8
  8
ﾚｲﾔ_1
  6
CONTINUOUS
 10
620.55753794409998
 20
-410.29540630389999
 30
0.0
 40
12.594165801999999
  1
１５００
  0
ENDBLK
  5
4BA
  8
0
  0
BLOCK
  8
0
  2
*U99
 70
     1
 10
0.0
 20
0.0
 30
0.0
  3
*U99
  1

  0
TEXT
  5
4BC
  8
ﾚｲﾔ_1
  6
CONTINUOUS
 10
620.55753794409998
 20
-430.29540630389999
 30
0.0
 40
12.594165801999999
  1
１５００
  0
ENDBLK
  5
4BE
  8
0
  0
BLOCK
  8
0
  2
*U100
 70
     1
 10
0.0
 20
0.0
 30
0.0
  3
*U100
  1

  0
TEXT
  5
4C0
  8
ﾚｲﾔ_1
  6
CONTINUOUS
 10
620.55753794409998
 20
-390.29540630389999
 30
0.0
 40
12.594165801999999
  1
１２００
  0
ENDBLK
  5
4C2
  8
0
  0
BLOCK
  8
0
  2
*U101
 70
     1
 10
0.0
 20
0.0
 30
0.0
  3
*U101
  1

  0
TEXT
  5
4C4
  8
ﾚｲﾔ_1
  6
CONTINUOUS
 10
620.55753794409998
 20
-490.29540630389999
 30
0.0
 40
12.594165801999999
  1
２１００
  0
ENDBLK
  5
4C6
  8
0
  0
BLOCK
  8
0
  2
*U102
 70
     1
 10
0.0
 20
0.0
 30
0.0
  3
*U102
  1

  0
TEXT
  5
4C8
  8
ﾚｲﾔ_1
  6
CONTINUOUS
 10
620.55753794409998
 20
-510.29540630389999
 30
0.0
 40
12.594165801999999
  1
２１００
  0
ENDBLK
  5
4CA
  8
0
  0
BLOCK
  8
0
  2
*U103
 70
     1
 10
0.0
 20
0.0
 30
0.0
  3
*U103
  1

  0
TEXT
  5
4CC
  8
ﾚｲﾔ_1
  6
CONTINUOUS
 10
549.04501034140003
 20
-370.80684450905738
 30
0.0
 40
12.594165801999999
  1
右
  0
ENDBLK
  5
4CE
  8
0
  0
BLOCK
  8
0
  2
*U104
 70
     1
 10
0.0
 20
0.0
 30
0.0
  3
*U104
  1

  0
TEXT
  5
4D0
  8
ﾚｲﾔ_1
  6
CONTINUOUS
 10
389.95189983170002
 20
-370.27642684009999
 30
0.0
 40
12.594165801999999
  1
ＮＴ-５９１１２
  0
ENDBLK
  5
4D2
  8
0
  0
ENDSEC
  0
SECTION
  2
ENTITIES
  0
INSERT
  5
2F
  8
0
  6
CONTINUOUS
  2
*U24
 10
0.0
 20
0.0
 30
0.0
  0
INSERT
  5
30
  8
0
  6
CONTINUOUS
  2
*U25
 10
0.0
 20
0.0
 30
0.0
  0
INSERT
  5
31
  8
0
  6
CONTINUOUS
  2
*U26
 10
0.0
 20
0.0
 30
0.0
  0
INSERT
  5
32
  8
0
  6
CONTINUOUS
  2
*U27
 10
0.0
 20
0.0
 30
0.0
  0
LINE
  5
34
  8
ﾚｲﾔ_1
 62
     5
 10
258.18446562780002
 20
-149.5498440154
 30
0.0
 11
258.18446562780002
 21
-179.6141261388
 31
0.0
  0
LINE
  5
35
  8
ﾚｲﾔ_1
 62
     5
 10
252.14434210589999
 20
-143.5498440154
 30
0.0
 11
252.14434210589999
 21
-149.5498440154
 31
0.0
  0
LINE
  5
36
  8
ﾚｲﾔ_1
 62
     5
 10
252.14434210589999
 20
143.4150648387
 30
0.0
 11
252.14434210589999
 21
95.415064838700005
 31
0.0
  0
LINE
  5
37
  8
ﾚｲﾔ_1
 62
     5
 10
258.64434210590002
 20
136.9150648387
 30
0.0
 11
258.64434210590002
 21
101.9150648387
 31
0.0
  0
LINE
  5
38
  8
ﾚｲﾔ_1
 62
     5
 10
259.64434210590002
 20
106.9150648387
 30
0.0
 11
258.64434210590002
 21
106.9150648387
 31
0.0
  0
LINE
  5
39
  8
ﾚｲﾔ_1
 62
     5
 10
259.64434210590002
 20
131.9150648387
 30
0.0
 11
258.64434210590002
 21
131.9150648387
 31
0.0
  0
DIMENSION
  5
4A
  8
寸法線
  2
*D0
 10
217.14434210589999
 20
143.4150648387
 30
0.0
 11
217.14434210589999
 21
119.4150648387
 31
0.0
 70
   128
  1
<>
 13
252.14434210589999
 23
143.4150648387
 33
0.0
 14
252.14434210589999
 24
95.415064838700005
 34
0.0
 50
90.0
  0
INSERT
  5
4C
  8
0
  6
CONTINUOUS
  2
*U28
 10
0.0
 20
0.0
 30
0.0
  0
INSERT
  5
4D
  8
0
  6
CONTINUOUS
  2
*U29
 10
0.0
 20
0.0
 30
0.0
  0
INSERT
  5
4E
  8
0
  6
CONTINUOUS
  2
*U30
 10
0.0
 20
0.0
 30
0.0
  0
INSERT
  5
4F
  8
0
  6
CONTINUOUS
  2
*U31
 10
0.0
 20
0.0
 30
0.0
  0
INSERT
  5
50
  8
0
  6
CONTINUOUS
  2
*U32
 10
0.0
 20
0.0
 30
0.0
  0
INSERT
  5
51
  8
0
  6
CONTINUOUS
  2
*U33
 10
0.0
 20
0.0
 30
0.0
  0
INSERT
  5
52
  8
0
  6
CONTINUOUS
  2
*U34
 10
0.0
 20
0.0
 30
0.0
  0
INSERT
  5
53
  8
0
  6
CONTINUOUS
  2
*U35
 10
0.0
 20
0.0
 30
0.0
  0
INSERT
  5
54
  8
0
  6
CONTINUOUS
  2
*U36
 10
0.0
 20
0.0
 30
0.0
  0
INSERT
  5
56
  8
図枠
  2
CLUMP0
 10
0.0
 20
0.0
 30
0.0
  0
INSERT
  5
60
  8
図枠
  2
CLUMP1
 10
0.0
 20
0.0
 30
0.0
  0
INSERT
  5
6A
  8
図枠
  2
CLUMP2
 10
0.0
 20
0.0
 30
0.0
  0
INSERT
  5
74
  8
図枠
  2
CLUMP3
 10
0.0
 20
0.0
 30
0.0
  0
INSERT
  5
7D
  8
0
  6
CONTINUOUS
  2
*U37
 10
0.0
 20
0.0
 30
0.0
  0
INSERT
  5
7E
  8
0
  6
CONTINUOUS
  2
*U38
 10
0.0
 20
0.0
 30
0.0
  0
INSERT
  5
7F
  8
0
  6
CONTINUOUS
  2
*U39
 10
0.0
 20
0.0
 30
0.0
  0
INSERT
  5
80
  8
0
  6
CONTINUOUS
  2
*U40
 10
0.0
 20
0.0
 30
0.0
  0
INSERT
  5
81
  8
0
  6
CONTINUOUS
  2
*U41
 10
0.0
 20
0.0
 30
0.0
  0
INSERT
  5
82
  8
0
  6
CONTINUOUS
  2
*U42
 10
0.0
 20
0.0
 30
0.0
  0
INSERT
  5
83
  8
0
  6
CONTINUOUS
  2
*U43
 10
0.0
 20
0.0
 30
0.0
  0
INSERT
  5
84
  8
0
  6
CONTINUOUS
  2
*U44
 10
0.0
 20
0.0
 30
0.0
  0
INSERT
  5
85
  8
0
  6
CONTINUOUS
  2
*U45
 10
0.0
 20
0.0
 30
0.0
  0
INSERT
  5
86
  8
0
  6
CONTINUOUS
  2
*U46
 10
0.0
 20
0.0
 30
0.0
  0
INSERT
  5
87
  8
0
  6
CONTINUOUS
  2
*U47
 10
0.0
 20
0.0
 30
0.0
  0
INSERT
  5
88
  8
0
  6
CONTINUOUS
  2
*U48
 10
0.0
 20
0.0
 30
0.0
  0
LINE
  5
89
  8
ﾚｲﾔ_1
 62
     5
 10
1323.5837952309
 20
-325.24984401540001
 30
0.0
 11
1325.0837952309
 21
-326.74984401540001
 31
0.0
  0
LINE
  5
8A
  8
ﾚｲﾔ_1
 62
     5
 10
1443.2837952309001
 20
-178.74984401539999
 30
0.0
 11
1443.2837952309001
 21
-179.5498440154
 31
0.0
  0
LINE
  5
8B
  8
ﾚｲﾔ_1
 62
     5
 10
1286.8837952309
 20
-178.74984401539999
 30
0.0
 11
1286.8837952309
 21
-179.5498440154
 31
0.0
  0
LINE
  5
8C
  8
ﾚｲﾔ_1
 62
     5
 10
1291.8837952309
 20
-149.5498440154
 30
0.0
 11
1291.8837952309
 21
-178.74984401539999
 31
0.0
  0
LINE
  5
8D
  8
ﾚｲﾔ_1
 62
     5
 10
1317.5837952309
 20
-312.04984401540003
 30
0.0
 11
1317.5837952309
 21
-311.54984401540003
 31
0.0
  0
LINE
  5
8E
  8
ﾚｲﾔ_1
 62
     5
 10
1317.5837952309
 20
-312.04984401540003
 30
0.0
 11
1317.5837952309
 21
-311.54984401540003
 31
0.0
  0
LINE
  5
8F
  8
ﾚｲﾔ_1
 62
     5
 10
1292.6837952308999
 20
-178.74984401539999
 30
0.0
 11
1292.6837952308999
 21
-149.5498440154
 31
0.0
  0
LINE
  5
90
  8
ﾚｲﾔ_1
 62
     5
 10
1412.5837952309
 20
-312.04984401540003
 30
0.0
 11
1412.5837952309
 21
-314.04984401540003
 31
0.0
  0
LINE
  5
91
  8
ﾚｲﾔ_1
 62
     5
 10
1406.5837952309
 20
-324.04984401540003
 30
0.0
 11
1406.5837952309
 21
-325.24984401540001
 31
0.0
  0
LINE
  5
92
  8
ﾚｲﾔ_1
 62
     5
 10
1332.0837952309
 20
-360.34984401539998
 30
0.0
 11
1337.0837952309
 21
-360.34984401539998
 31
0.0
  0
DIMENSION
  5
A1
  8
寸法線
  2
*D5
 10
1152.1443421059
 20
208.2041273387
 30
0.0
 11
702.1443421058998
 21
208.2041273387
 31
0.0
 70
   128
  1
全長  Ｌ
 13
1152.1443421059
 23
143.4150648387
 33
0.0
 14
252.14434210589999
 24
143.4150648387
 34
0.0
  0
DIMENSION
  5
B0
  8
寸法線
  2
*D6
 10
1198.2226323835
 20
-386.34984401539998
 30
0.0
 11
1198.2226323835
 21
-373.34984401539998
 31
0.0
 70
   128
  1
26
 13
1098.1443421059
 23
-386.34984401539998
 33
0.0
 14
1111.1443421059
 24
-360.34984401539998
 34
0.0
 50
90.0
  0
DIMENSION
  5
BF
  8
寸法線
  2
*D7
 10
1228.9044631449999
 20
-143.5498440154
 30
0.0
 11
1228.9044631449999
 21
-264.9498440154
 31
0.0
 70
   128
  1
243
 13
1152.1443421059
 23
-143.5498440154
 33
0.0
 14
1098.1443421059
 24
-386.34984401539998
 34
0.0
 50
90.0
  0
DIMENSION
  5
CE
  8
寸法線
  2
*D8
 10
1212.2887471737999
 20
-4.5849351612999989
 30
0.0
 11
1212.2887471737999
 21
69.415064838700005
 31
0.0
 70
   128
  1
<>
 13
1152.1443421059
 23
-4.5849351612999989
 33
0.0
 14
1152.1443421059
 24
143.4150648387
 34
0.0
 50
90.0
  0
DIMENSION
  5
DD
  8
寸法線
  2
*D9
 10
1198.2226323835
 20
-360.34984401539998
 30
0.0
 11
1198.2226323835
 21
-251.9498440154
 31
0.0
 70
   128
  1
217
 13
1111.1443421059
 23
-360.34984401539998
 33
0.0
 14
1152.1443421059
 24
-143.5498440154
 34
0.0
 50
90.0
  0
DIMENSION
  5
EC
  8
寸法線
  2
*D10
 10
1100.1443421059
 20
-433.08930463899998
 30
0.0
 11
1152.4034939152
 21
-433.08930463899998
 31
0.0
 70
   128
  1
VU40(%%c44)
 13
1100.1443421059
 23
-384.34984401539998
 33
0.0
 14
1056.1443421059
 24
-384.34984401539998
 34
0.0
  0
DIMENSION
  5
FB
  8
寸法線
  2
*D11
 10
1106.1443421059
 20
-460.17602338900002
 30
0.0
 11
1153.0391783064999
 21
-460.17602338900002
 31
0.0
 70
   128
  1
VU50(%%c56)
 13
1106.1443421059
 23
-375.34984401539998
 33
0.0
 14
1050.1443421059
 24
-375.34984401539998
 34
0.0
  0
DIMENSION
  5
10A
  8
寸法線
  2
*D12
 10
939.84434210589995
 20
-184.34984401540001
 30
0.0
 11
939.84434210589995
 21
-117.07758588900001
 31
0.0
 70
   128
  1
<>
 13
1009.8443421059
 23
-184.34984401540001
 33
0.0
 14
1023.9035868975
 24
-143.5498440154
 34
0.0
 50
90.0
  0
DIMENSION
  5
119
  8
寸法線
  2
*D13
 10
1152.1443421059
 20
-49.764622661300002
 30
0.0
 11
1078.1443421059
 21
-49.764622661300002
 31
0.0
 70
   128
  1
<>
 13
1152.1443421059
 23
-4.5849351612999989
 33
0.0
 14
1004.1443421059
 24
-4.5849351612999989
 34
0.0
  0
DIMENSION
  5
128
  8
寸法線
  2
*D14
 10
1152.1443421059
 20
-103.5498440154
 30
0.0
 11
1115.1443421059
 21
-103.5498440154
 31
0.0
 70
   128
  1
<>
 13
1152.1443421059
 23
-143.5498440154
 33
0.0
 14
1078.1443421059
 24
-138.5498440154
 34
0.0
  0
INSERT
  5
129
  8
0
  6
CONTINUOUS
  2
*U49
 10
0.0
 20
0.0
 30
0.0
  0
INSERT
  5
12B
  8
図枠
  2
CLUMP4
 10
0.0
 20
0.0
 30
0.0
  0
INSERT
  5
1CF
  8
0
  6
CONTINUOUS
  2
*U70
 10
0.0
 20
0.0
 30
0.0
  0
INSERT
  5
1D0
  8
0
  6
CONTINUOUS
  2
*U71
 10
0.0
 20
0.0
 30
0.0
  0
INSERT
  5
1D1
  8
0
  6
CONTINUOUS
  2
*U72
 10
0.0
 20
0.0
 30
0.0
  0
LINE
  5
1D2
  8
ﾚｲﾔ_1
 62
     5
 10
1428.3837952309
 20
-159.34984401540001
 30
0.0
 11
1428.3837952309
 21
-303.54984401540003
 31
0.0
  0
LINE
  5
1D3
  8
ﾚｲﾔ_1
 62
     5
 10
1337.0837952309
 20
-360.34984401539998
 30
0.0
 11
1393.0837952309
 21
-360.34984401539998
 31
0.0
  0
LINE
  5
1D4
  8
ﾚｲﾔ_1
 62
     5
 10
1437.4837952308999
 20
-178.74984401539999
 30
0.0
 11
1437.4837952308999
 21
-149.5498440154
 31
0.0
  0
LINE
  5
1D5
  8
ﾚｲﾔ_1
 62
     5
 10
1291.8837952309
 20
-178.74984401539999
 30
0.0
 11
1286.8837952309
 21
-178.74984401539999
 31
0.0
  0
LINE
  5
1D6
  8
ﾚｲﾔ_1
 62
     5
 10
1296.7837952309001
 20
-149.5498440154
 30
0.0
 11
1296.7837952309001
 21
-159.34984401540001
 31
0.0
  0
LINE
  5
1D7
  8
ﾚｲﾔ_1
 62
     5
 10
1286.8837952309
 20
-179.5498440154
 30
0.0
 11
1291.8837952309
 21
-179.5498440154
 31
0.0
  0
ARC
  5
1D8
  8
ﾚｲﾔ_1
 62
     5
 10
1291.8837952309
 20
-178.74984401539999
 30
0.0
 40
0.8
 50
270.0
 51
0.0
  0
LINE
  5
1D9
  8
ﾚｲﾔ_1
 62
     5
 10
1339.0837952309
 20
-360.34984401539998
 30
0.0
 11
1343.0837952309
 21
-360.34984401539998
 31
0.0
  0
LINE
  5
1DA
  8
ﾚｲﾔ_1
 62
     5
 10
1336.0716521272
 20
-314.04984401540003
 30
0.0
 11
1336.0716521272
 21
-324.04984401540003
 31
0.0
  0
LINE
  5
1DB
  8
ﾚｲﾔ_1
 62
     5
 10
1339.0837952309
 20
-360.34984401539998
 30
0.0
 11
1343.0837952309
 21
-360.34984401539998
 31
0.0
  0
LINE
  5
1DC
  8
ﾚｲﾔ_1
 62
     5
 10
1332.0837952309
 20
-360.34984401539998
 30
0.0
 11
1337.0837952309
 21
-360.34984401539998
 31
0.0
  0
LINE
  5
1DD
  8
ﾚｲﾔ_1
 62
     5
 10
1394.0959383345
 20
-314.04984401540003
 30
0.0
 11
1394.0959383345
 21
-324.04984401540003
 31
0.0
  0
LINE
  5
1DE
  8
ﾚｲﾔ_1
 62
     5
 10
1414.8837952309
 20
-311.54984401540003
 30
0.0
 11
1414.8837952309
 21
-303.54984401540003
 31
0.0
  0
LINE
  5
1DF
  8
ﾚｲﾔ_1
 62
     5
 10
1412.5837952309
 20
-312.04984401540003
 30
0.0
 11
1412.5837952309
 21
-311.54984401540003
 31
0.0
  0
LINE
  5
1E0
  8
ﾚｲﾔ_1
 62
     5
 10
1412.5837952309
 20
-312.04984401540003
 30
0.0
 11
1412.5837952309
 21
-311.54984401540003
 31
0.0
  0
LINE
  5
1E1
  8
ﾚｲﾔ_1
 62
     5
 10
1362.4101110203001
 20
-314.04984401540003
 30
0.0
 11
1362.4101110203001
 21
-324.04984401540003
 31
0.0
  0
LINE
  5
1E2
  8
ﾚｲﾔ_1
 62
     5
 10
1367.7574794413999
 20
-314.04984401540003
 30
0.0
 11
1367.7574794413999
 21
-324.04984401540003
 31
0.0
  0
LINE
  5
1E3
  8
ﾚｲﾔ_1
 62
     5
 10
1406.5837952309
 20
-325.24984401540001
 30
0.0
 11
1405.0837952309
 21
-326.74984401540001
 31
0.0
  0
LINE
  5
1E4
  8
ﾚｲﾔ_1
 62
     5
 10
1412.5837952309
 20
-312.04984401540003
 30
0.0
 11
1412.5837952309
 21
-314.04984401540003
 31
0.0
  0
LINE
  5
1E5
  8
ﾚｲﾔ_1
 62
     5
 10
1393.0837952309
 20
-360.34984401539998
 30
0.0
 11
1398.0837952309
 21
-360.34984401539998
 31
0.0
  0
LINE
  5
1E6
  8
ﾚｲﾔ_1
 62
     5
 10
1291.0837952309
 20
-149.5498440154
 30
0.0
 11
1291.0837952309
 21
-143.5498440154
 31
0.0
  0
LINE
  5
1E7
  8
ﾚｲﾔ_1
 62
     5
 10
1438.2837952309001
 20
-178.74984401539999
 30
0.0
 11
1443.2837952309001
 21
-178.74984401539999
 31
0.0
  0
LINE
  5
1E8
  8
ﾚｲﾔ_1
 62
     5
 10
1438.2837952309001
 20
-149.5498440154
 30
0.0
 11
1438.2837952309001
 21
-178.74984401539999
 31
0.0
  0
LINE
  5
1E9
  8
ﾚｲﾔ_1
 62
     5
 10
1321.0837952309
 20
-314.04984401540003
 30
0.0
 11
1321.0837952309
 21
-324.04984401540003
 31
0.0
  0
LINE
  5
1EA
  8
ﾚｲﾔ_1
 62
     5
 10
1387.0837952309
 20
-360.34984401539998
 30
0.0
 11
1391.0837952309
 21
-360.34984401539998
 31
0.0
  0
ARC
  5
1EB
  8
ﾚｲﾔ_1
 62
     5
 10
1332.0837952309
 20
-353.34984401539998
 30
0.0
 40
7.0
 50
180.0
 51
270.0
  0
LINE
  5
1EC
  8
ﾚｲﾔ_1
 62
     5
 10
1439.0837952309
 20
-143.5498440154
 30
0.0
 11
1439.0837952309
 21
-149.5498440154
 31
0.0
  0
LINE
  5
1ED
  8
ﾚｲﾔ_1
 62
     5
 10
1393.0837952309
 20
-360.34984401539998
 30
0.0
 11
1398.0837952309
 21
-360.34984401539998
 31
0.0
  0
LINE
  5
1EE
  8
ﾚｲﾔ_1
 62
     5
 10
1317.5837952309
 20
-312.04984401540003
 30
0.0
 11
1317.5837952309
 21
-314.04984401540003
 31
0.0
  0
LINE
  5
1EF
  8
ﾚｲﾔ_1
 62
     5
 10
1330.7242837061001
 20
-314.04984401540003
 30
0.0
 11
1330.7242837061001
 21
-324.04984401540003
 31
0.0
  0
LINE
  5
1F0
  8
ﾚｲﾔ_1
 62
     5
 10
1443.2837952309001
 20
-179.5498440154
 30
0.0
 11
1438.2837952309001
 21
-179.5498440154
 31
0.0
  0
ARC
  5
1F1
  8
ﾚｲﾔ_1
 62
     5
 10
1438.2837952309001
 20
-178.74984401539999
 30
0.0
 40
0.8
 50
180.0
 51
270.0
  0
LINE
  5
1F2
  8
ﾚｲﾔ_1
 62
     5
 10
1296.7837952309001
 20
-159.34984401540001
 30
0.0
 11
1301.7837952309001
 21
-159.34984401540001
 31
0.0
  0
LINE
  5
1F3
  8
ﾚｲﾔ_1
 62
     5
 10
1387.0837952309
 20
-360.34984401539998
 30
0.0
 11
1391.0837952309
 21
-360.34984401539998
 31
0.0
  0
LINE
  5
1F4
  8
ﾚｲﾔ_1
 62
     5
 10
1399.4433067555999
 20
-314.04984401540003
 30
0.0
 11
1399.4433067555999
 21
-324.04984401540003
 31
0.0
  0
LINE
  5
1F5
  8
ﾚｲﾔ_1
 62
     5
 10
1317.5837952309
 20
-312.04984401540003
 30
0.0
 11
1317.5837952309
 21
-314.04984401540003
 31
0.0
  0
LINE
  5
1F6
  8
ﾚｲﾔ_1
 62
     5
 10
1301.7837952309001
 20
-159.34984401540001
 30
0.0
 11
1301.7837952309001
 21
-303.54984401540003
 31
0.0
  0
LINE
  5
1F7
  8
ﾚｲﾔ_1
 62
     5
 10
1321.0837952309
 20
-324.04984401540003
 30
0.0
 11
1409.0837952309
 21
-324.04984401540003
 31
0.0
  0
LINE
  5
1F8
  8
ﾚｲﾔ_1
 62
     5
 10
1317.5837952309
 20
-314.04984401540003
 30
0.0
 11
1412.5837952309
 21
-314.04984401540003
 31
0.0
  0
LINE
  5
1F9
  8
ﾚｲﾔ_1
 62
     5
 10
1325.0837952309
 20
-326.74984401540001
 30
0.0
 11
1405.0837952309
 21
-326.74984401540001
 31
0.0
  0
LINE
  5
1FA
  8
ﾚｲﾔ_1
 62
     5
 10
1315.2837952309001
 20
-311.54984401540003
 30
0.0
 11
1414.8837952309
 21
-311.54984401540003
 31
0.0
  0
LINE
  5
1FB
  8
ﾚｲﾔ_1
 62
     5
 10
1291.0837952309
 20
-143.5498440154
 30
0.0
 11
1439.0837952309
 21
-143.5498440154
 31
0.0
  0
LINE
  5
1FC
  8
ﾚｲﾔ_1
 62
     5
 10
1439.0837952309
 20
-149.5498440154
 30
0.0
 11
1291.0837952309
 21
-149.5498440154
 31
0.0
  0
LINE
  5
1FD
  8
ﾚｲﾔ_1
 62
     5
 10
1323.5837952309
 20
-324.04984401540003
 30
0.0
 11
1323.5837952309
 21
-325.24984401540001
 31
0.0
  0
LINE
  5
1FE
  8
ﾚｲﾔ_1
 62
     5
 10
1323.5837952309
 20
-325.24984401540001
 30
0.0
 11
1406.5837952309
 21
-325.24984401540001
 31
0.0
  0
LINE
  5
1FF
  8
ﾚｲﾔ_1
 62
     5
 10
1409.0837952309
 20
-314.04984401540003
 30
0.0
 11
1409.0837952309
 21
-324.04984401540003
 31
0.0
  0
LINE
  5
200
  8
ﾚｲﾔ_1
 62
     5
 10
1317.5837952309
 20
-312.04984401540003
 30
0.0
 11
1412.5837952309
 21
-312.04984401540003
 31
0.0
  0
LINE
  5
201
  8
ﾚｲﾔ_1
 62
     5
 10
1433.3837952309
 20
-149.5498440154
 30
0.0
 11
1433.3837952309
 21
-159.34984401540001
 31
0.0
  0
LINE
  5
202
  8
ﾚｲﾔ_1
 62
     5
 10
1433.3837952309
 20
-159.34984401540001
 30
0.0
 11
1428.3837952309
 21
-159.34984401540001
 31
0.0
  0
LINE
  5
203
  8
ﾚｲﾔ_1
 62
     5
 10
1325.0837952309
 20
-324.04984401540003
 30
0.0
 11
1325.0837952309
 21
-353.34984401539998
 31
0.0
  0
LINE
  5
204
  8
ﾚｲﾔ_1
 62
     5
 10
1030.6443421059
 20
-312.04984401540003
 30
0.0
 11
1030.6443421059
 21
-314.04984401540003
 31
0.0
  0
LINE
  5
205
  8
ﾚｲﾔ_1
 62
     5
 10
1028.3443421059001
 20
-311.54984401540003
 30
0.0
 11
1127.9443421059
 21
-311.54984401540003
 31
0.0
  0
LINE
  5
206
  8
ﾚｲﾔ_1
 62
     5
 10
1119.6443421059
 20
-324.04984401540003
 30
0.0
 11
1119.6443421059
 21
-325.24984401540001
 31
0.0
  0
LINE
  5
207
  8
ﾚｲﾔ_1
 62
     5
 10
1119.6443421059
 20
-325.24984401540001
 30
0.0
 11
1118.1443421059
 21
-326.74984401540001
 31
0.0
  0
ARC
  5
208
  8
ﾚｲﾔ_1
 62
     5
 10
1111.1443421059
 20
-353.34984401539998
 30
0.0
 40
7.0
 50
270.0
 51
0.0
  0
LINE
  5
209
  8
ﾚｲﾔ_1
 62
     5
 10
1052.1443421059
 20
-360.34984401539998
 30
0.0
 11
1056.1443421059
 21
-360.34984401539998
 31
0.0
  0
LINE
  5
20A
  8
ﾚｲﾔ_1
 62
     5
 10
1125.6443421059
 20
-312.04984401540003
 30
0.0
 11
1125.6443421059
 21
-314.04984401540003
 31
0.0
  0
LINE
  5
20B
  8
ﾚｲﾔ_1
 62
     5
 10
1009.8443421059
 20
-160.14984401539999
 30
0.0
 11
959.84434210589995
 21
-160.14984401539999
 31
0.0
  0
LINE
  5
20C
  8
ﾚｲﾔ_1
 62
     5
 10
1030.6443421059
 20
-312.04984401540003
 30
0.0
 11
1030.6443421059
 21
-314.04984401540003
 31
0.0
  0
LINE
  5
20D
  8
ﾚｲﾔ_1
 62
     5
 10
1125.6443421059
 20
-312.04984401540003
 30
0.0
 11
1125.6443421059
 21
-314.04984401540003
 31
0.0
  0
LINE
  5
20E
  8
ﾚｲﾔ_1
 62
     5
 10
1122.1443421059
 20
-324.04984401540003
 30
0.0
 11
1125.6443421059
 21
-324.04984401540003
 31
0.0
  0
LINE
  5
20F
  8
ﾚｲﾔ_1
 62
     5
 10
1125.6443421059
 20
-314.04984401540003
 30
0.0
 11
1125.6443421059
 21
-324.04984401540003
 31
0.0
  0
LINE
  5
210
  8
ﾚｲﾔ_1
 62
     5
 10
1146.4443421059
 20
-159.34984401540001
 30
0.0
 11
1009.8443421059
 21
-159.34984401540001
 31
0.0
  0
LINE
  5
211
  8
ﾚｲﾔ_1
 62
     5
 10
1038.1443421059
 20
-326.74984401540001
 30
0.0
 11
1118.1443421059
 21
-326.74984401540001
 31
0.0
  0
LINE
  5
212
  8
ﾚｲﾔ_1
 62
     5
 10
959.84434210589995
 20
-159.34984401540001
 30
0.0
 11
919.84434210589995
 21
-159.34984401540001
 31
0.0
  0
LINE
  5
213
  8
ﾚｲﾔ_1
 62
     5
 10
1118.1443421059
 20
-324.04984401540003
 30
0.0
 11
1118.1443421059
 21
-353.34984401539998
 31
0.0
  0
LINE
  5
214
  8
ﾚｲﾔ_1
 62
     5
 10
1094.4989151254999
 20
-314.04984401540003
 30
0.0
 11
1094.4989151254999
 21
-324.04984401540003
 31
0.0
  0
LINE
  5
215
  8
ﾚｲﾔ_1
 62
     5
 10
1045.1443421059
 20
-360.34984401539998
 30
0.0
 11
1050.1443421059
 21
-360.34984401539998
 31
0.0
  0
LINE
  5
216
  8
ﾚｲﾔ_1
 62
     5
 10
1152.1443421059
 20
-149.5498440154
 30
0.0
 11
1152.1443421059
 21
-143.5498440154
 31
0.0
  0
INSERT
  5
218
  8
寸法線
  2
BALLON0
 10
0.0
 20
0.0
 30
0.0
  0
INSERT
  5
222
  8
寸法線
  2
BALLON1
 10
0.0
 20
0.0
 30
0.0
  0
LINE
  5
22B
  8
ﾚｲﾔ_1
 62
     5
 10
1405.0837952309
 20
-324.04984401540003
 30
0.0
 11
1405.0837952309
 21
-353.34984401539998
 31
0.0
  0
ARC
  5
22C
  8
ﾚｲﾔ_1
 62
     5
 10
1398.0837952309
 20
-353.34984401539998
 30
0.0
 40
7.0
 50
270.0
 51
0.0
  0
LINE
  5
22D
  8
ﾚｲﾔ_1
 62
     5
 10
1315.2837952309001
 20
-311.54984401540003
 30
0.0
 11
1315.2837952309001
 21
-303.54984401540003
 31
0.0
  0
LINE
  5
22E
  8
ﾚｲﾔ_1
 62
     5
 10
1301.7837952309001
 20
-303.54984401540003
 30
0.0
 11
1428.3837952309
 21
-303.54984401540003
 31
0.0
  0
LINE
  5
22F
  8
ﾚｲﾔ_1
 62
     5
 10
1125.6443421059
 20
-312.04984401540003
 30
0.0
 11
1125.6443421059
 21
-311.54984401540003
 31
0.0
  0
LINE
  5
230
  8
ﾚｲﾔ_1
 62
     5
 10
1146.4443421059
 20
-149.5498440154
 30
0.0
 11
1146.4443421059
 21
-303.54984401540003
 31
0.0
  0
LINE
  5
231
  8
ﾚｲﾔ_1
 62
     5
 10
1122.1443421059
 20
-314.04984401540003
 30
0.0
 11
1122.1443421059
 21
-324.04984401540003
 31
0.0
  0
LINE
  5
232
  8
ﾚｲﾔ_1
 62
     5
 10
1052.1443421059
 20
-360.34984401539998
 30
0.0
 11
1056.1443421059
 21
-360.34984401539998
 31
0.0
  0
LINE
  5
233
  8
ﾚｲﾔ_1
 62
     5
 10
1030.6443421059
 20
-312.04984401540003
 30
0.0
 11
1030.6443421059
 21
-311.54984401540003
 31
0.0
  0
LINE
  5
234
  8
ﾚｲﾔ_1
 62
     5
 10
1038.1443421059
 20
-324.04984401540003
 30
0.0
 11
1038.1443421059
 21
-353.34984401539998
 31
0.0
  0
LINE
  5
235
  8
ﾚｲﾔ_1
 62
     5
 10
1034.1443421059
 20
-324.04984401540003
 30
0.0
 11
1030.6443421059
 21
-324.04984401540003
 31
0.0
  0
LINE
  5
236
  8
ﾚｲﾔ_1
 62
     5
 10
1004.1443421059
 20
-143.5498440154
 30
0.0
 11
1004.1443421059
 21
-149.5498440154
 31
0.0
  0
LINE
  5
237
  8
ﾚｲﾔ_1
 62
     5
 10
1146.4443421059
 20
-149.5498440154
 30
0.0
 11
1146.4443421059
 21
-303.54984401540003
 31
0.0
  0
LINE
  5
238
  8
ﾚｲﾔ_1
 62
     5
 10
959.84434210589995
 20
-149.5498440154
 30
0.0
 11
959.84434210589995
 21
-184.34984401540001
 31
0.0
  0
LINE
  5
239
  8
ﾚｲﾔ_1
 62
     5
 10
1056.4424006652
 20
-314.04984401540003
 30
0.0
 11
1056.4424006652
 21
-324.04984401540003
 31
0.0
  0
LINE
  5
23A
  8
ﾚｲﾔ_1
 62
     5
 10
1009.8443421059
 20
-303.54984401540003
 30
0.0
 11
1146.4443421059
 21
-303.54984401540003
 31
0.0
  0
LINE
  5
23B
  8
ﾚｲﾔ_1
 62
     5
 10
1030.6443421059
 20
-312.04984401540003
 30
0.0
 11
1125.6443421059
 21
-312.04984401540003
 31
0.0
  0
LINE
  5
23C
  8
ﾚｲﾔ_1
 62
     5
 10
1034.1443421059
 20
-314.04984401540003
 30
0.0
 11
1034.1443421059
 21
-324.04984401540003
 31
0.0
  0
LINE
  5
23D
  8
ﾚｲﾔ_1
 62
     5
 10
1125.6443421059
 20
-312.04984401540003
 30
0.0
 11
1125.6443421059
 21
-311.54984401540003
 31
0.0
  0
LINE
  5
23E
  8
ﾚｲﾔ_1
 62
     5
 10
1127.9443421059
 20
-311.54984401540003
 30
0.0
 11
1127.9443421059
 21
-303.54984401540003
 31
0.0
  0
LINE
  5
23F
  8
ﾚｲﾔ_1
 62
     5
 10
1061.7897690862001
 20
-314.04984401540003
 30
0.0
 11
1061.7897690862001
 21
-324.04984401540003
 31
0.0
  0
LINE
  5
240
  8
ﾚｲﾔ_1
 62
     5
 10
1050.1443421059
 20
-360.34984401539998
 30
0.0
 11
1106.1443421059
 21
-360.34984401539998
 31
0.0
  0
LINE
  5
241
  8
ﾚｲﾔ_1
 62
     5
 10
1028.3443421059001
 20
-311.54984401540003
 30
0.0
 11
1028.3443421059001
 21
-303.54984401540003
 31
0.0
  0
LINE
  5
242
  8
ﾚｲﾔ_1
 62
     5
 10
1099.8462835466
 20
-314.04984401540003
 30
0.0
 11
1099.8462835466
 21
-324.04984401540003
 31
0.0
  0
LINE
  5
243
  8
ﾚｲﾔ_1
 62
     5
 10
1106.1443421059
 20
-360.34984401539998
 30
0.0
 11
1111.1443421059
 21
-360.34984401539998
 31
0.0
  0
LINE
  5
244
  8
ﾚｲﾔ_1
 62
     5
 10
1100.1443421059
 20
-360.34984401539998
 30
0.0
 11
1104.1443421059
 21
-360.34984401539998
 31
0.0
  0
LINE
  5
245
  8
ﾚｲﾔ_1
 62
     5
 10
1100.1443421059
 20
-360.34984401539998
 30
0.0
 11
1104.1443421059
 21
-360.34984401539998
 31
0.0
  0
LINE
  5
246
  8
ﾚｲﾔ_1
 62
     5
 10
1106.1443421059
 20
-360.34984401539998
 30
0.0
 11
1111.1443421059
 21
-360.34984401539998
 31
0.0
  0
LINE
  5
247
  8
ﾚｲﾔ_1
 62
     5
 10
1036.6443421059
 20
-324.04984401540003
 30
0.0
 11
1036.6443421059
 21
-325.24984401540001
 31
0.0
  0
LINE
  5
248
  8
ﾚｲﾔ_1
 62
     5
 10
1010.6443421059
 20
101.9150648387
 30
0.0
 11
1010.6443421059
 21
131.9150648387
 31
0.0
  0
LINE
  5
249
  8
ﾚｲﾔ_1
 62
     5
 10
1011.3943421059
 20
131.9150648387
 30
0.0
 11
1009.6443421059
 21
131.9150648387
 31
0.0
  0
LINE
  5
24A
  8
ﾚｲﾔ_1
 62
     5
 10
1010.6443421059
 20
106.9150648387
 30
0.0
 11
1009.6443421059
 21
106.9150648387
 31
0.0
  0
LINE
  5
24B
  8
ﾚｲﾔ_1
 62
     5
 10
1145.6443421059
 20
1.9150648387
 30
0.0
 11
1010.6443421059
 21
1.9150648387
 31
0.0
  0
LINE
  5
24C
  8
ﾚｲﾔ_1
 62
     5
 10
1011.3943421059
 20
7.1381012971000004
 30
0.0
 11
1010.6443421059
 21
7.1381012971000004
 31
0.0
  0
LINE
  5
24D
  8
ﾚｲﾔ_1
 62
     5
 10
1004.1443421059
 20
-4.5849351612999989
 30
0.0
 11
1152.1443421059
 21
-4.5849351612999989
 31
0.0
  0
INSERT
  5
24F
  8
ﾚｲﾔ_1
 62
     5
  2
CLUMP5
 10
0.0
 20
0.0
 30
0.0
  0
LINE
  5
285
  8
ﾚｲﾔ_1
 62
     5
 10
1010.6443421059
 20
1.9150648387
 30
0.0
 11
1010.6443421059
 21
101.9150648387
 31
0.0
  0
LINE
  5
286
  8
ﾚｲﾔ_1
 62
     5
 10
1004.1443421059
 20
95.415064838700005
 30
0.0
 11
1004.1443421059
 21
-4.5849351612999989
 31
0.0
  0
LINE
  5
287
  8
ﾚｲﾔ_1
 62
     5
 10
1145.6443421059
 20
7.1381012971000004
 30
0.0
 11
1144.8943421059
 21
7.1381012971000004
 31
0.0
  0
LINE
  5
288
  8
ﾚｲﾔ_1
 62
     5
 10
1145.6443421059
 20
136.9150648387
 30
0.0
 11
1145.6443421059
 21
1.9150648387
 31
0.0
  0
LINE
  5
289
  8
ﾚｲﾔ_1
 62
     5
 10
1152.1443421059
 20
-4.5849351612999989
 30
0.0
 11
1152.1443421059
 21
143.4150648387
 31
0.0
  0
LINE
  5
28A
  8
ﾚｲﾔ_1
 62
     5
 10
1145.6443421059
 20
131.9150648387
 30
0.0
 11
1144.8943421059
 21
131.9150648387
 31
0.0
  0
LINE
  5
28B
  8
ﾚｲﾔ_1
 62
     5
 10
1030.6443421059
 20
-314.04984401540003
 30
0.0
 11
1030.6443421059
 21
-324.04984401540003
 31
0.0
  0
ARC
  5
28C
  8
ﾚｲﾔ_1
 62
     5
 10
1045.1443421059
 20
-353.34984401539998
 30
0.0
 40
7.0
 50
180.0
 51
270.0
  0
LINE
  5
28D
  8
ﾚｲﾔ_1
 62
     5
 10
1030.6443421059
 20
-312.04984401540003
 30
0.0
 11
1030.6443421059
 21
-311.54984401540003
 31
0.0
  0
LINE
  5
28E
  8
ﾚｲﾔ_1
 62
     5
 10
1034.1443421059
 20
-324.04984401540003
 30
0.0
 11
1122.1443421059
 21
-324.04984401540003
 31
0.0
  0
LINE
  5
28F
  8
ﾚｲﾔ_1
 62
     5
 10
1036.6443421059
 20
-325.24984401540001
 30
0.0
 11
1119.6443421059
 21
-325.24984401540001
 31
0.0
  0
LINE
  5
290
  8
ﾚｲﾔ_1
 62
     5
 10
1030.6443421059
 20
-314.04984401540003
 30
0.0
 11
1125.6443421059
 21
-314.04984401540003
 31
0.0
  0
LINE
  5
291
  8
ﾚｲﾔ_1
 62
     5
 10
1009.8443421059
 20
-303.54984401540003
 30
0.0
 11
1009.8443421059
 21
-149.5498440154
 31
0.0
  0
LINE
  5
292
  8
ﾚｲﾔ_1
 62
     5
 10
1009.8443421059
 20
-303.54984401540003
 30
0.0
 11
1009.8443421059
 21
-149.5498440154
 31
0.0
  0
INSERT
  5
294
  8
ﾚｲﾔ_1
 62
     5
  2
CLUMP6
 10
0.0
 20
0.0
 30
0.0
  0
LINE
  5
29B
  8
ﾚｲﾔ_1
 62
     5
 10
1045.1443421059
 20
-360.34984401539998
 30
0.0
 11
1050.1443421059
 21
-360.34984401539998
 31
0.0
  0
LINE
  5
29C
  8
ﾚｲﾔ_1
 62
     5
 10
959.84434210589995
 20
-184.34984401540001
 30
0.0
 11
1009.8443421059
 21
-184.34984401540001
 31
0.0
  0
LINE
  5
29D
  8
ﾚｲﾔ_1
 62
     5
 10
1036.6443421059
 20
-325.24984401540001
 30
0.0
 11
1038.1443421059
 21
-326.74984401540001
 31
0.0
  0
LINE
  5
29E
  8
ﾚｲﾔ_1
 62
     5
 10
1100.1443421059
 20
-377.34984401539998
 30
0.0
 11
1100.1443421059
 21
-384.34984401539998
 31
0.0
  0
LINE
  5
29F
  8
ﾚｲﾔ_1
 62
     5
 10
1050.1443421059
 20
-375.34984401539998
 30
0.0
 11
1106.1443421059
 21
-375.34984401539998
 31
0.0
  0
LINE
  5
2A0
  8
ﾚｲﾔ_1
 62
     5
 10
1050.1443421059
 20
-375.34984401539998
 30
0.0
 11
1052.1443421059
 21
-377.34984401539998
 31
0.0
  0
LINE
  5
2A1
  8
ﾚｲﾔ_1
 62
     5
 10
1056.1443421059
 20
-384.34984401539998
 30
0.0
 11
1056.1443421059
 21
-377.34984401539998
 31
0.0
  0
LINE
  5
2A2
  8
ﾚｲﾔ_1
 62
     5
 10
1337.0837952309
 20
-375.34984401539998
 30
0.0
 11
1339.0837952309
 21
-377.34984401539998
 31
0.0
  0
LINE
  5
2A3
  8
ﾚｲﾔ_1
 62
     5
 10
1343.0837952309
 20
-384.34984401539998
 30
0.0
 11
1343.0837952309
 21
-377.34984401539998
 31
0.0
  0
LINE
  5
2A4
  8
ﾚｲﾔ_1
 62
     5
 10
1343.0837952309
 20
-384.34984401539998
 30
0.0
 11
1343.0837952309
 21
-377.34984401539998
 31
0.0
  0
LINE
  5
2A5
  8
ﾚｲﾔ_1
 62
     5
 10
1385.0837952309
 20
-386.34984401539998
 30
0.0
 11
1387.0837952309
 21
-384.34984401539998
 31
0.0
  0
LINE
  5
2A6
  8
ﾚｲﾔ_1
 62
     5
 10
1391.0837952309
 20
-377.34984401539998
 30
0.0
 11
1393.0837952309
 21
-375.34984401539998
 31
0.0
  0
LINE
  5
2A7
  8
ﾚｲﾔ_1
 62
     5
 10
1339.0837952309
 20
-377.34984401539998
 30
0.0
 11
1391.0837952309
 21
-377.34984401539998
 31
0.0
  0
LINE
  5
2A8
  8
ﾚｲﾔ_1
 62
     5
 10
1345.0837952309
 20
-386.34984401539998
 30
0.0
 11
1385.0837952309
 21
-386.34984401539998
 31
0.0
  0
LINE
  5
2A9
  8
ﾚｲﾔ_1
 62
     5
 10
1343.0837952309
 20
-384.34984401539998
 30
0.0
 11
1387.0837952309
 21
-384.34984401539998
 31
0.0
  0
LINE
  5
2AA
  8
ﾚｲﾔ_1
 62
     5
 10
1337.0837952309
 20
-375.34984401539998
 30
0.0
 11
1393.0837952309
 21
-375.34984401539998
 31
0.0
  0
LINE
  5
2AB
  8
ﾚｲﾔ_1
 62
     5
 10
1387.0837952309
 20
-377.34984401539998
 30
0.0
 11
1387.0837952309
 21
-384.34984401539998
 31
0.0
  0
LINE
  5
2AC
  8
ﾚｲﾔ_1
 62
     5
 10
1387.0837952309
 20
-377.34984401539998
 30
0.0
 11
1387.0837952309
 21
-384.34984401539998
 31
0.0
  0
LINE
  5
2AD
  8
ﾚｲﾔ_1
 62
     5
 10
1343.0837952309
 20
-384.34984401539998
 30
0.0
 11
1345.0837952309
 21
-386.34984401539998
 31
0.0
  0
LINE
  5
2AE
  8
ﾚｲﾔ_1
 10
1211.5312583028999
 20
-386.34984401539998
 30
0.0
 11
1226.5214222372999
 21
-386.34984401539998
 31
0.0
  0
LINE
  5
2AF
  8
ﾚｲﾔ_1
  6
BORDER
 62
     3
 10
1078.1443421059
 20
91.665064838700005
 30
0.0
 11
1078.1443421059
 21
61.665064838699998
 31
0.0
  0
LINE
  5
2B0
  8
ﾚｲﾔ_1
  6
BORDER
 62
     3
 10
1063.1443421059
 20
76.665064838700005
 30
0.0
 11
1093.1443421059
 21
76.665064838700005
 31
0.0
  0
LINE
  5
2B1
  8
ﾚｲﾔ_1
 62
     5
 10
899.84434210589995
 20
147.4150648387
 30
0.0
 11
899.84434210589995
 21
143.4150648387
 31
0.0
  0
LINE
  5
2B2
  8
ﾚｲﾔ_1
 62
     5
 10
919.84434210589995
 20
147.4150648387
 30
0.0
 11
899.84434210589995
 21
147.4150648387
 31
0.0
  0
LINE
  5
2B3
  8
ﾚｲﾔ_1
 62
     5
 10
919.84434210589995
 20
143.4150648387
 30
0.0
 11
919.84434210589995
 21
147.4150648387
 31
0.0
  0
LINE
  5
2B4
  8
ﾚｲﾔ_1
 62
     5
 10
919.84434210589995
 20
91.415064838700005
 30
0.0
 11
919.84434210589995
 21
95.415064838700005
 31
0.0
  0
LINE
  5
2B5
  8
ﾚｲﾔ_1
 62
     5
 10
899.84434210589995
 20
91.415064838700005
 30
0.0
 11
919.84434210589995
 21
91.415064838700005
 31
0.0
  0
LINE
  5
2B6
  8
ﾚｲﾔ_1
 62
     5
 10
899.84434210589995
 20
95.415064838700005
 30
0.0
 11
899.84434210589995
 21
91.415064838700005
 31
0.0
  0
INSERT
  5
2B7
  8
0
  6
CONTINUOUS
  2
*U75
 10
0.0
 20
0.0
 30
0.0
  0
INSERT
  5
2B8
  8
0
  6
CONTINUOUS
  2
*U76
 10
0.0
 20
0.0
 30
0.0
  0
INSERT
  5
2B9
  8
0
  6
CONTINUOUS
  2
*U77
 10
0.0
 20
0.0
 30
0.0
  0
INSERT
  5
2BA
  8
0
  6
CONTINUOUS
  2
*U78
 10
0.0
 20
0.0
 30
0.0
  0
INSERT
  5
2BB
  8
0
  6
CONTINUOUS
  2
*U79
 10
0.0
 20
0.0
 30
0.0
  0
INSERT
  5
2BC
  8
0
  6
CONTINUOUS
  2
*U80
 10
0.0
 20
0.0
 30
0.0
  0
LINE
  5
2BD
  8
ﾚｲﾔ_1
 62
     5
 10
399.84434210590001
 20
95.415064838700005
 30
0.0
 11
399.84434210590001
 21
91.415064838700005
 31
0.0
  0
LINE
  5
2BE
  8
ﾚｲﾔ_1
 62
     5
 10
399.84434210590001
 20
91.415064838700005
 30
0.0
 11
419.8443421058999
 21
91.415064838700005
 31
0.0
  0
LINE
  5
2BF
  8
ﾚｲﾔ_1
 62
     5
 10
419.8443421058999
 20
91.415064838700005
 30
0.0
 11
419.8443421058999
 21
95.415064838700005
 31
0.0
  0
LINE
  5
2C0
  8
ﾚｲﾔ_1
 62
     5
 10
419.8443421058999
 20
143.4150648387
 30
0.0
 11
419.8443421058999
 21
147.4150648387
 31
0.0
  0
LINE
  5
2C1
  8
ﾚｲﾔ_1
 62
     5
 10
419.8443421058999
 20
147.4150648387
 30
0.0
 11
399.84434210590001
 21
147.4150648387
 31
0.0
  0
LINE
  5
2C2
  8
ﾚｲﾔ_1
 62
     5
 10
399.84434210590001
 20
147.4150648387
 30
0.0
 11
399.84434210590001
 21
143.4150648387
 31
0.0
  0
INSERT
  5
2C4
  8
ﾚｲﾔ_1
 62
     5
  2
CLUMP7
 10
0.0
 20
0.0
 30
0.0
  0
LINE
  5
2CB
  8
ﾚｲﾔ_1
 62
     5
 10
399.84434210590001
 20
-159.34984401540001
 30
0.0
 11
258.18446562780002
 21
-159.34984401540001
 31
0.0
  0
INSERT
  5
2CC
  8
0
  6
CONTINUOUS
  2
*U81
 10
0.0
 20
0.0
 30
0.0
  0
INSERT
  5
2CD
  8
0
  6
CONTINUOUS
  2
*U82
 10
0.0
 20
0.0
 30
0.0
  0
INSERT
  5
2CF
  8
寸法線
  2
BALLON2
 10
0.0
 20
0.0
 30
0.0
  0
LINE
  5
2D8
  8
ﾚｲﾔ_1
 62
     5
 10
1100.1443421059
 20
-377.34984401539998
 30
0.0
 11
1100.1443421059
 21
-384.34984401539998
 31
0.0
  0
LINE
  5
2D9
  8
ﾚｲﾔ_1
 62
     5
 10
1058.1443421059
 20
-386.34984401539998
 30
0.0
 11
1098.1443421059
 21
-386.34984401539998
 31
0.0
  0
LINE
  5
2DA
  8
ﾚｲﾔ_1
 62
     5
 10
1058.1443421059
 20
-386.34984401539998
 30
0.0
 11
1056.1443421059
 21
-384.34984401539998
 31
0.0
  0
LINE
  5
2DB
  8
ﾚｲﾔ_1
 62
     5
 10
1052.1443421059
 20
-377.34984401539998
 30
0.0
 11
1104.1443421059
 21
-377.34984401539998
 31
0.0
  0
LINE
  5
2DC
  8
ﾚｲﾔ_1
 62
     5
 10
1056.1443421059
 20
-384.34984401539998
 30
0.0
 11
1100.1443421059
 21
-384.34984401539998
 31
0.0
  0
LINE
  5
2DD
  8
ﾚｲﾔ_1
 62
     5
 10
1104.1443421059
 20
-377.34984401539998
 30
0.0
 11
1106.1443421059
 21
-375.34984401539998
 31
0.0
  0
LINE
  5
2DE
  8
ﾚｲﾔ_1
 62
     5
 10
1056.1443421059
 20
-384.34984401539998
 30
0.0
 11
1056.1443421059
 21
-377.34984401539998
 31
0.0
  0
LINE
  5
2DF
  8
ﾚｲﾔ_1
 62
     5
 10
1100.1443421059
 20
-384.34984401539998
 30
0.0
 11
1098.1443421059
 21
-386.34984401539998
 31
0.0
  0
INSERT
  5
2E0
  8
0
  6
CONTINUOUS
  2
*U84
 10
0.0
 20
0.0
 30
0.0
  0
LINE
  5
2E1
  8
ﾚｲﾔ_1
  6
BORDER
 62
     3
 10
1365.0837952309
 20
-138.5498440154
 30
0.0
 11
1365.0837952309
 21
-391.34984401539998
 31
0.0
  0
LINE
  5
2E2
  8
ﾚｲﾔ_1
  6
BORDER
 62
     3
 10
1078.1443421059
 20
-138.5498440154
 30
0.0
 11
1078.1443421059
 21
-391.34984401539998
 31
0.0
  0
LINE
  5
2E3
  8
ﾚｲﾔ_1
 62
     5
 10
1106.1443421059
 20
-360.34984401539998
 30
0.0
 11
1106.1443421059
 21
-375.34984401539998
 31
0.0
  0
LINE
  5
2E4
  8
ﾚｲﾔ_1
 62
     5
 10
1050.1443421059
 20
-360.34984401539998
 30
0.0
 11
1050.1443421059
 21
-375.34984401539998
 31
0.0
  0
LINE
  5
2E5
  8
ﾚｲﾔ_1
 62
     5
 10
1337.0837952309
 20
-360.34984401539998
 30
0.0
 11
1337.0837952309
 21
-375.34984401539998
 31
0.0
  0
LINE
  5
2E6
  8
ﾚｲﾔ_1
 62
     5
 10
1393.0837952309
 20
-360.34984401539998
 30
0.0
 11
1393.0837952309
 21
-375.34984401539998
 31
0.0
  0
INSERT
  5
2E8
  8
寸法線
  2
BALLON3
 10
0.0
 20
0.0
 30
0.0
  0
INSERT
  5
2F1
  8
0
  6
CONTINUOUS
  2
*U86
 10
0.0
 20
0.0
 30
0.0
  0
INSERT
  5
2F2
  8
0
  6
CONTINUOUS
  2
*U87
 10
0.0
 20
0.0
 30
0.0
  0
INSERT
  5
2F3
  8
0
  6
CONTINUOUS
  2
*U88
 10
0.0
 20
0.0
 30
0.0
  0
INSERT
  5
2F4
  8
0
  6
CONTINUOUS
  2
*U89
 10
0.0
 20
0.0
 30
0.0
  0
INSERT
  5
2F5
  8
0
  6
CONTINUOUS
  2
*U90
 10
0.0
 20
0.0
 30
0.0
  0
INSERT
  5
2F6
  8
0
  6
CONTINUOUS
  2
*U91
 10
0.0
 20
0.0
 30
0.0
  0
INSERT
  5
2F7
  8
0
  6
CONTINUOUS
  2
*U92
 10
0.0
 20
0.0
 30
0.0
  0
INSERT
  5
2F8
  8
0
  6
CONTINUOUS
  2
*U93
 10
0.0
 20
0.0
 30
0.0
  0
INSERT
  5
2F9
  8
0
  6
CONTINUOUS
  2
*U94
 10
0.0
 20
0.0
 30
0.0
  0
INSERT
  5
2FA
  8
0
  6
CONTINUOUS
  2
*U95
 10
0.0
 20
0.0
 30
0.0
  0
INSERT
  5
2FB
  8
0
  6
CONTINUOUS
  2
*U96
 10
0.0
 20
0.0
 30
0.0
  0
INSERT
  5
2FC
  8
0
  6
CONTINUOUS
  2
*U97
 10
0.0
 20
0.0
 30
0.0
  0
INSERT
  5
2FD
  8
0
  6
CONTINUOUS
  2
*U98
 10
0.0
 20
0.0
 30
0.0
  0
INSERT
  5
2FE
  8
0
  6
CONTINUOUS
  2
*U99
 10
0.0
 20
0.0
 30
0.0
  0
INSERT
  5
2FF
  8
0
  6
CONTINUOUS
  2
*U100
 10
0.0
 20
0.0
 30
0.0
  0
INSERT
  5
300
  8
0
  6
CONTINUOUS
  2
*U101
 10
0.0
 20
0.0
 30
0.0
  0
INSERT
  5
301
  8
0
  6
CONTINUOUS
  2
*U102
 10
0.0
 20
0.0
 30
0.0
  0
LINE
  5
302
  8
ﾚｲﾔ_1
 62
     5
 10
369.79722508290001
 20
-435.04860269649998
 30
0.0
 11
709.79722508289979
 21
-435.04860269649998
 31
0.0
  0
LINE
  5
303
  8
ﾚｲﾔ_1
 62
     5
 10
369.79722508290001
 20
-455.04860269649998
 30
0.0
 11
709.79722508289979
 21
-455.04860269649998
 31
0.0
  0
LINE
  5
304
  8
ﾚｲﾔ_1
 62
     5
 10
369.79722508290001
 20
-475.04860269649998
 30
0.0
 11
709.79722508289979
 21
-475.04860269649998
 31
0.0
  0
LINE
  5
305
  8
ﾚｲﾔ_1
 62
     5
 10
369.79722508290001
 20
-495.04860269649998
 30
0.0
 11
709.79722508289979
 21
-495.04860269649998
 31
0.0
  0
LINE
  5
306
  8
ﾚｲﾔ_1
 62
     5
 10
369.79722508290001
 20
-515.04860269649987
 30
0.0
 11
709.79722508289979
 21
-515.04860269649987
 31
0.0
  0
LINE
  5
307
  8
ﾚｲﾔ_1
 62
     5
 10
369.79722508290001
 20
-335.04860269649998
 30
0.0
 11
709.79722508289979
 21
-335.04860269649998
 31
0.0
  0
LINE
  5
308
  8
ﾚｲﾔ_1
 62
     5
 10
369.79722508290001
 20
-355.04860269649998
 30
0.0
 11
709.79722508289979
 21
-355.04860269649998
 31
0.0
  0
LINE
  5
309
  8
ﾚｲﾔ_1
 62
     5
 10
369.79722508290001
 20
-375.04860269649998
 30
0.0
 11
709.79722508289979
 21
-375.04860269649998
 31
0.0
  0
LINE
  5
30A
  8
ﾚｲﾔ_1
 62
     5
 10
369.79722508290001
 20
-395.04860269649998
 30
0.0
 11
709.79722508289979
 21
-395.04860269649998
 31
0.0
  0
LINE
  5
30B
  8
ﾚｲﾔ_1
 62
     5
 10
369.79722508290001
 20
-415.04860269649998
 30
0.0
 11
709.79722508289979
 21
-415.04860269649998
 31
0.0
  0
LINE
  5
30C
  8
ﾚｲﾔ_1
 62
     5
 10
369.79722508290001
 20
-335.04860269649998
 30
0.0
 11
369.79722508290001
 21
-515.04860269649987
 31
0.0
  0
LINE
  5
30D
  8
ﾚｲﾔ_1
 62
     5
 10
709.79722508289979
 20
-335.04860269649998
 30
0.0
 11
709.79722508289979
 21
-515.04860269649987
 31
0.0
  0
LINE
  5
30E
  8
ﾚｲﾔ_1
 62
     5
 10
594.79722508290001
 20
-335.04860269649998
 30
0.0
 11
594.79722508290001
 21
-515.04860269649987
 31
0.0
  0
LINE
  5
30F
  8
ﾚｲﾔ_1
 62
     5
 10
519.79722508290001
 20
-335.04860269649998
 30
0.0
 11
519.79722508290001
 21
-515.04860269649987
 31
0.0
  0
LINE
  5
310
  8
ﾚｲﾔ_1
 62
     5
 10
1152.1443421059
 20
143.4150648387
 30
0.0
 11
252.14434210589999
 21
143.4150648387
 31
0.0
  0
INSERT
  5
312
  8
ﾚｲﾔ_1
 62
     5
  2
CLUMP8
 10
0.0
 20
0.0
 30
0.0
  0
LINE
  5
36D
  8
ﾚｲﾔ_1
 62
     5
 10
1010.6443421059
 20
101.9150648387
 30
0.0
 11
258.64434210590002
 21
101.9150648387
 31
0.0
  0
LINE
  5
36E
  8
ﾚｲﾔ_1
 62
     5
 10
1145.6443421059
 20
136.9150648387
 30
0.0
 11
258.64434210590002
 21
136.9150648387
 31
0.0
  0
LINE
  5
36F
  8
ﾚｲﾔ_1
 62
     5
 10
1004.1443421059
 20
95.415064838700005
 30
0.0
 11
252.14434210589999
 21
95.415064838700005
 31
0.0
  0
LINE
  5
370
  8
ﾚｲﾔ_1
 62
     5
 10
959.84434210589995
 20
-183.28804223509999
 30
0.0
 11
258.18446562780002
 21
-179.6141261388
 31
0.0
  0
LINE
  5
371
  8
ﾚｲﾔ_1
 62
     5
 10
252.14434210589999
 20
-143.5498440154
 30
0.0
 11
1152.1443421059
 21
-143.5498440154
 31
0.0
  0
LINE
  5
372
  8
ﾚｲﾔ_1
 62
     5
 10
252.14434210589999
 20
-149.5498440154
 30
0.0
 11
1152.1443421059
 21
-149.5498440154
 31
0.0
  0
LINE
  5
373
  8
ﾚｲﾔ_1
 62
     5
 10
899.84434210589995
 20
-159.34984401540001
 30
0.0
 11
419.8443421058999
 21
-159.34984401540001
 31
0.0
  0
INSERT
  5
374
  8
0
  6
CONTINUOUS
  2
*U103
 10
0.0
 20
0.0
 30
0.0
  0
INSERT
  5
375
  8
0
  6
CONTINUOUS
  2
*U104
 10
0.0
 20
0.0
 30
0.0
  0
ENDSEC
  0
EOF
