  0
SECTION
  2
HEADER
  9
$ACADVER
  1
AC1009
  9
$INSBASE
 10
0.0
 20
0.0
 30
0.0
  9
$EXTMIN
 10
427.04439061609997
 20
-509.1088588248
 30
0.0
  9
$EXTMAX
 10
1246.9643906161
 20
67.811141175200007
 30
0.0
  9
$LIMMIN
 10
0.0
 20
0.0
  9
$LIMMAX
 10
0.0
 20
0.0
  9
$ORTHOMODE
 70
     0
  9
$REGENMODE
 70
     1
  9
$FILLMODE
 70
     1
  9
$QTEXTMODE
 70
     0
  9
$MIRRTEXT
 70
     1
  9
$DRAGMODE
 70
     2
  9
$LTSCALE
 40
1.0
  9
$OSMODE
 70
    31
  9
$ATTMODE
 70
     1
  9
$TEXTSIZE
 40
0.0
  9
$TRACEWID
 40
0.05
  9
$TEXTSTYLE
  7
STANDARD
  9
$CLAYER
  8
0
  9
$CELTYPE
  6
CONTINUOUS
  9
$CECOLOR
 62
   256
  9
$DIMSCALE
 40
1.0
  9
$DIMASZ
 40
0.18
  9
$DIMEXO
 40
0.0625
  9
$DIMDLI
 40
0.38
  9
$DIMRND
 40
0.0
  9
$DIMDLE
 40
0.0
  9
$DIMEXE
 40
0.18
  9
$DIMTP
 40
0.0
  9
$DIMTM
 40
0.0
  9
$DIMTXT
 40
0.18
  9
$DIMCEN
 40
0.09
  9
$DIMTSZ
 40
0.0
  9
$DIMTOL
 70
     0
  9
$DIMLIM
 70
     0
  9
$DIMTIH
 70
     1
  9
$DIMTOH
 70
     1
  9
$DIMSE1
 70
     0
  9
$DIMSE2
 70
     0
  9
$DIMTAD
 70
     0
  9
$DIMZIN
 70
     0
  9
$DIMBLK
  1

  9
$DIMASO
 70
     1
  9
$DIMSHO
 70
     1
  9
$DIMPOST
  1

  9
$DIMAPOST
  1

  9
$DIMALT
 70
     0
  9
$DIMALTD
 70
     2
  9
$DIMALTF
 40
25.399999999999999
  9
$DIMLFAC
 40
1.0
  9
$DIMTOFL
 70
     0
  9
$DIMTVP
 40
0.0
  9
$DIMTIX
 70
     0
  9
$DIMSOXD
 70
     0
  9
$DIMSAH
 70
     0
  9
$DIMBLK1
  1

  9
$DIMBLK2
  1

  9
$DIMSTYLE
  2
STANDARD
  9
$DIMCLRD
 70
     0
  9
$DIMCLRE
 70
     0
  9
$DIMCLRT
 70
     0
  9
$DIMTFAC
 40
1.0
  9
$DIMGAP
 40
0.09
  9
$LUNITS
 70
     2
  9
$LUPREC
 70
     4
  9
$SKETCHINC
 40
0.1
  9
$FILLETRAD
 40
0.0
  9
$AUNITS
 70
     0
  9
$AUPREC
 70
     0
  9
$MENU
  1
acad
  9
$ELEVATION
 40
0.0
  9
$PELEVATION
 40
0.0
  9
$THICKNESS
 40
0.0
  9
$LIMCHECK
 70
     0
  9
$BLIPMODE
 70
     0
  9
$CHAMFERA
 40
0.0
  9
$CHAMFERB
 40
0.0
  9
$SKPOLY
 70
     0
  9
$TDCREATE
 40
2454860.6782535762
  9
$TDUPDATE
 40
2454860.6784291789
  9
$TDINDWG
 40
0.0001996528
  9
$TDUSRTIMER
 40
0.000199294
  9
$USRTIMER
 70
     1
  9
$ANGBASE
 50
0.0
  9
$ANGDIR
 70
     0
  9
$PDMODE
 70
     3
  9
$PDSIZE
 40
-1.0
  9
$PLINEWID
 40
0.0
  9
$COORDS
 70
     2
  9
$SPLFRAME
 70
     0
  9
$SPLINETYPE
 70
     6
  9
$SPLINESEGS
 70
     8
  9
$ATTDIA
 70
     0
  9
$ATTREQ
 70
     1
  9
$HANDLING
 70
     1
  9
$HANDSEED
  5
AEF
  9
$SURFTAB1
 70
     6
  9
$SURFTAB2
 70
     6
  9
$SURFTYPE
 70
     6
  9
$SURFU
 70
     6
  9
$SURFV
 70
     6
  9
$UCSNAME
  2

  9
$UCSORG
 10
0.0
 20
0.0
 30
0.0
  9
$UCSXDIR
 10
1.0
 20
0.0
 30
0.0
  9
$UCSYDIR
 10
0.0
 20
1.0
 30
0.0
  9
$PUCSNAME
  2

  9
$PUCSORG
 10
0.0
 20
0.0
 30
0.0
  9
$PUCSXDIR
 10
1.0
 20
0.0
 30
0.0
  9
$PUCSYDIR
 10
0.0
 20
1.0
 30
0.0
  9
$USERI1
 70
     0
  9
$USERI2
 70
     0
  9
$USERI3
 70
     0
  9
$USERI4
 70
     0
  9
$USERI5
 70
     0
  9
$USERR1
 40
0.0
  9
$USERR2
 40
0.0
  9
$USERR3
 40
0.0
  9
$USERR4
 40
0.0
  9
$USERR5
 40
0.0
  9
$WORLDVIEW
 70
     1
  9
$SHADEDGE
 70
     3
  9
$SHADEDIF
 70
    70
  9
$TILEMODE
 70
     1
  9
$MAXACTVP
 70
    16
  9
$PLIMCHECK
 70
     0
  9
$PEXTMIN
 10
1.0000000000000000E+020
 20
1.0000000000000000E+020
 30
1.0000000000000000E+020
  9
$PEXTMAX
 10
-1.0000000000000000E+020
 20
-1.0000000000000000E+020
 30
-1.0000000000000000E+020
  9
$PLIMMIN
 10
0.0
 20
0.0
  9
$PLIMMAX
 10
12.0
 20
9.0
  9
$UNITMODE
 70
     0
  9
$VISRETAIN
 70
     0
  9
$PLINEGEN
 70
     1
  9
$PSLTSCALE
 70
     0
  0
ENDSEC
  0
SECTION
  2
TABLES
  0
TABLE
  2
VPORT
 70
     2
  0
VPORT
  2
*ACTIVE
 70
     0
 10
0.0
 20
0.0
 11
1.0
 21
1.0
 12
837.00439061610007
 22
-220.64885882479999
 13
0.0
 23
0.0
 14
1.0
 24
1.0
 15
0.0
 25
0.0
 16
0.0
 26
0.0
 36
1.0
 17
0.0
 27
0.0
 37
0.0
 40
581.70771784232375
 41
1.6343490304709141
 42
50.0
 43
0.0
 44
0.0
 50
0.0
 51
0.0
 71
     0
 72
   100
 73
     1
 74
     1
 75
     0
 76
     0
 77
     0
 78
     0
  0
ENDTAB
  0
TABLE
  2
LTYPE
 70
    11
  0
LTYPE
  2
CONTINUOUS
 70
     0
  3
Solid line
 72
    65
 73
     0
 40
0.0
  0
LTYPE
  2
DOT
 70
     0
  3
. . . . . . . . 
 72
    65
 73
     2
 40
1.0
 49
0.0
 49
-1.0
  0
LTYPE
  2
DASHED
 70
     0
  3
___  ___  ___  ___  
 72
    65
 73
     2
 40
4.0
 49
3.0
 49
-1.0
  0
LTYPE
  2
HIDDEN
 70
     0
  3
__ __ __ __ 
 72
    65
 73
     2
 40
3.0
 49
2.0
 49
-1.0
  0
LTYPE
  2
STITCH
 70
     0
  3
_ _ _ _ 
 72
    65
 73
     2
 40
2.0
 49
1.0
 49
-1.0
  0
LTYPE
  2
CENTER
 70
     0
  3
______  __  ______  __  
 72
    65
 73
     4
 40
43.0
 49
40.0
 49
-1.0
 49
1.0
 49
-1.0
  0
LTYPE
  2
DASHDOT
 70
     0
  3
____ . ____ . 
 72
    65
 73
     4
 40
32.0
 49
30.0
 49
-1.0
 49
0.0
 49
-1.0
  0
LTYPE
  2
BORDER
 70
     0
  3
__ . __ . 
 72
    65
 73
     4
 40
22.0
 49
20.0
 49
-1.0
 49
0.0
 49
-1.0
  0
LTYPE
  2
CUTTING
 70
     0
  3
________   ___   ___   
 72
    65
 73
     6
 40
45.0
 49
40.0
 49
-1.0
 49
1.0
 49
-1.0
 49
1.0
 49
-1.0
  0
LTYPE
  2
PHANTOM
 70
     0
  3
______  __  __  
 72
    65
 73
     6
 40
35.0
 49
30.0
 49
-1.0
 49
1.0
 49
-1.0
 49
1.0
 49
-1.0
  0
LTYPE
  2
DIVIDE
 70
     0
  3
____ . . ____ . . 
 72
    65
 73
     6
 40
23.0
 49
20.0
 49
-1.0
 49
0.0
 49
-1.0
 49
0.0
 49
-1.0
  0
ENDTAB
  0
TABLE
  2
LAYER
 70
     4
  0
LAYER
  2
0
 70
     0
 62
     7
  6
CONTINUOUS
  0
LAYER
  2
É}ÿg
 70
     0
 62
     7
  6
CONTINUOUS
  0
LAYER
  2
┌▓È_1
 70
     0
 62
     7
  6
CONTINUOUS
  0
LAYER
  2
Éíû@É³
 70
     0
 62
     7
  6
CONTINUOUS
  0
ENDTAB
  0
TABLE
  2
STYLE
 70
     1
  0
STYLE
  2
STANDARD
 70
     0
 40
0.0
 41
1.0
 50
0.0
 71
     0
 42
0.0
  3
txt
  4
extfont
  0
ENDTAB
  0
TABLE
  2
VIEW
 70
     0
  0
ENDTAB
  0
TABLE
  2
UCS
 70
     0
  0
ENDTAB
  0
TABLE
  2
APPID
 70
     2
  0
APPID
  2
ACAD
 70
     0
  0
APPID
  2
DCO15
 70
     0
  0
ENDTAB
  0
TABLE
  2
DIMSTYLE
 70
     5
  0
DIMSTYLE
  2
STANDARD
 70
     0
  3

  4

  5

  6

  7

 40
1.0
 41
0.18
 42
0.0625
 43
0.38
 44
0.18
 45
0.0
 46
0.0
 47
0.0
 48
0.0
140
0.18
141
0.09
142
0.0
143
25.399999999999999
144
1.0
145
0.0
146
1.0
147
0.09
 71
     0
 72
     0
 73
     1
 74
     1
 75
     0
 76
     0
 77
     0
 78
     0
170
     0
171
     2
172
     0
173
     0
174
     0
175
     0
176
     0
177
     0
178
     0
  0
DIMSTYLE
  2
VELDIM0
 70
     0
  3

  4

  5

  6

  7

 40
1.0
 41
6.0003314017999987
 42
0.0625
 43
0.38
 44
2.0
 45
0.0
 46
5.0
 47
0.0
 48
0.0
140
5.9972220420999998
141
0.09
142
0.0
143
25.399999999999999
144
1.0
145
0.0
146
1.0
147
0.09
 71
     0
 72
     0
 73
     0
 74
     0
 75
     0
 76
     0
 77
     0
 78
     8
170
     0
171
     2
172
     0
173
     0
174
     0
175
     0
176
     0
177
     0
178
     0
  0
DIMSTYLE
  2
VELDIM1
 70
     0
  3

  4

  5

  6

  7

 40
1.0
 41
6.0
 42
0.0625
 43
0.38
 44
1.0
 45
0.0
 46
6.0
 47
0.0
 48
0.0
140
5.9972220420999998
141
0.09
142
0.0
143
25.399999999999999
144
1.0
145
0.0
146
1.0
147
0.09
 71
     0
 72
     0
 73
     0
 74
     0
 75
     0
 76
     0
 77
     0
 78
     8
170
     0
171
     2
172
     0
173
     0
174
     0
175
     0
176
     0
177
     0
178
     0
  0
DIMSTYLE
  2
VELDIM2
 70
     0
  3

  4

  5

  6

  7

 40
1.0
 41
6.0003314017999987
 42
0.0625
 43
0.38
 44
4.0
 45
0.0
 46
10.0
 47
0.0
 48
0.0
140
5.9972220420999998
141
0.09
142
0.0
143
25.399999999999999
144
1.0
145
0.0
146
1.0
147
0.09
 71
     0
 72
     0
 73
     0
 74
     0
 75
     0
 76
     0
 77
     0
 78
     8
170
     0
171
     2
172
     0
173
     0
174
     0
175
     0
176
     0
177
     0
178
     0
  0
DIMSTYLE
  2
VELDIM3
 70
     0
  3

  4

  5

  6

  7

 40
1.0
 41
6.0003314017999987
 42
0.0625
 43
0.38
 44
1.25
 45
0.0
 46
5.0
 47
0.0
 48
0.0
140
5.9972220420999998
141
0.09
142
0.0
143
25.399999999999999
144
1.0
145
0.0
146
1.0
147
0.09
 71
     0
 72
     0
 73
     0
 74
     0
 75
     0
 76
     0
 77
     0
 78
     8
170
     0
171
     2
172
     0
173
     0
174
     0
175
     0
176
     0
177
     0
178
     0
  0
ENDTAB
  0
ENDSEC
  0
SECTION
  2
BLOCKS
  0
BLOCK
  8
0
  2
$MODEL_SPACE
 70
     0
 10
0.0
 20
0.0
 30
0.0
  3
$MODEL_SPACE
  1

  0
ENDBLK
  5
E
  8
0
  0
BLOCK
 67
     1
  8
0
  2
$PAPER_SPACE
 70
     0
 10
0.0
 20
0.0
 30
0.0
  3
$PAPER_SPACE
  1

  0
ENDBLK
  5
10
 67
     1
  8
0
  0
BLOCK
  8
0
  2
CLUMP0
 70
     0
 10
0.0
 20
0.0
 30
0.0
  3
CLUMP0
  1

  0
LINE
  5
32
  8
É}ÿg
 10
1065.0043906161
 20
-354.64885882480002
 30
0.0
 11
1065.0043906161
 21
-344.64885882480002
 31
0.0
  0
LINE
  5
33
  8
É}ÿg
 10
947.00439061609995
 20
-354.64885882480002
 30
0.0
 11
947.00439061609995
 21
-344.64885882480002
 31
0.0
  0
LINE
  5
34
  8
É}ÿg
 10
965.00439061609995
 20
-354.64885882480002
 30
0.0
 11
965.00439061609995
 21
-344.64885882480002
 31
0.0
  0
LINE
  5
35
  8
É}ÿg
 10
1175.0043906161
 20
-354.64885882480002
 30
0.0
 11
1175.0043906161
 21
-344.64885882480002
 31
0.0
  0
LINE
  5
36
  8
É}ÿg
 10
1157.0043906161
 20
-354.64885882480002
 30
0.0
 11
1157.0043906161
 21
-344.64885882480002
 31
0.0
  0
LINE
  5
37
  8
É}ÿg
 10
1237.0043906161
 20
-344.64885882480002
 30
0.0
 11
947.00439061609995
 21
-344.64885882480002
 31
0.0
  0
ENDBLK
  5
38
  8
0
  0
BLOCK
  8
0
  2
CLUMP1
 70
     0
 10
0.0
 20
0.0
 30
0.0
  3
CLUMP1
  1

  0
LINE
  5
3C
  8
É}ÿg
 10
1065.0043906161
 20
-364.64885882480002
 30
0.0
 11
1065.0043906161
 21
-354.64885882480002
 31
0.0
  0
LINE
  5
3D
  8
É}ÿg
 10
947.00439061609995
 20
-364.64885882480002
 30
0.0
 11
947.00439061609995
 21
-354.64885882480002
 31
0.0
  0
LINE
  5
3E
  8
É}ÿg
 10
965.00439061609995
 20
-364.64885882480002
 30
0.0
 11
965.00439061609995
 21
-354.64885882480002
 31
0.0
  0
LINE
  5
3F
  8
É}ÿg
 10
1175.0043906161
 20
-364.64885882480002
 30
0.0
 11
1175.0043906161
 21
-354.64885882480002
 31
0.0
  0
LINE
  5
40
  8
É}ÿg
 10
1157.0043906161
 20
-364.64885882480002
 30
0.0
 11
1157.0043906161
 21
-354.64885882480002
 31
0.0
  0
LINE
  5
41
  8
É}ÿg
 10
1237.0043906161
 20
-354.64885882480002
 30
0.0
 11
947.00439061609995
 21
-354.64885882480002
 31
0.0
  0
ENDBLK
  5
42
  8
0
  0
BLOCK
  8
0
  2
CLUMP2
 70
     0
 10
0.0
 20
0.0
 30
0.0
  3
CLUMP2
  1

  0
LINE
  5
46
  8
É}ÿg
 10
1065.0043906161
 20
-394.64885882480002
 30
0.0
 11
1065.0043906161
 21
-384.64885882480002
 31
0.0
  0
LINE
  5
47
  8
É}ÿg
 10
947.00439061609995
 20
-394.64885882480002
 30
0.0
 11
947.00439061609995
 21
-384.64885882480002
 31
0.0
  0
LINE
  5
48
  8
É}ÿg
 10
965.00439061609995
 20
-394.64885882480002
 30
0.0
 11
965.00439061609995
 21
-384.64885882480002
 31
0.0
  0
LINE
  5
49
  8
É}ÿg
 10
1175.0043906161
 20
-394.64885882480002
 30
0.0
 11
1175.0043906161
 21
-384.64885882480002
 31
0.0
  0
LINE
  5
4A
  8
É}ÿg
 10
1157.0043906161
 20
-394.64885882480002
 30
0.0
 11
1157.0043906161
 21
-384.64885882480002
 31
0.0
  0
LINE
  5
4B
  8
É}ÿg
 10
1237.0043906161
 20
-384.64885882480002
 30
0.0
 11
947.00439061609995
 21
-384.64885882480002
 31
0.0
  0
ENDBLK
  5
4C
  8
0
  0
BLOCK
  8
0
  2
CLUMP3
 70
     0
 10
0.0
 20
0.0
 30
0.0
  3
CLUMP3
  1

  0
LINE
  5
50
  8
É}ÿg
 10
1065.0043906161
 20
-414.64885882480002
 30
0.0
 11
1065.0043906161
 21
-404.64885882480002
 31
0.0
  0
LINE
  5
51
  8
É}ÿg
 10
947.00439061609995
 20
-414.64885882480002
 30
0.0
 11
947.00439061609995
 21
-404.64885882480002
 31
0.0
  0
LINE
  5
52
  8
É}ÿg
 10
965.00439061609995
 20
-414.64885882480002
 30
0.0
 11
965.00439061609995
 21
-404.64885882480002
 31
0.0
  0
LINE
  5
53
  8
É}ÿg
 10
1175.0043906161
 20
-414.64885882480002
 30
0.0
 11
1175.0043906161
 21
-404.64885882480002
 31
0.0
  0
LINE
  5
54
  8
É}ÿg
 10
1157.0043906161
 20
-414.64885882480002
 30
0.0
 11
1157.0043906161
 21
-404.64885882480002
 31
0.0
  0
LINE
  5
55
  8
É}ÿg
 10
1237.0043906161
 20
-404.64885882480002
 30
0.0
 11
947.00439061609995
 21
-404.64885882480002
 31
0.0
  0
ENDBLK
  5
56
  8
0
  0
BLOCK
  8
0
  2
CLUMP4
 70
     0
 10
0.0
 20
0.0
 30
0.0
  3
CLUMP4
  1

  0
LINE
  5
5A
  8
É}ÿg
 10
1065.0043906161
 20
-404.64885882480002
 30
0.0
 11
1065.0043906161
 21
-394.64885882480002
 31
0.0
  0
LINE
  5
5B
  8
É}ÿg
 10
947.00439061609995
 20
-404.64885882480002
 30
0.0
 11
947.00439061609995
 21
-394.64885882480002
 31
0.0
  0
LINE
  5
5C
  8
É}ÿg
 10
965.00439061609995
 20
-404.64885882480002
 30
0.0
 11
965.00439061609995
 21
-394.64885882480002
 31
0.0
  0
LINE
  5
5D
  8
É}ÿg
 10
1175.0043906161
 20
-404.64885882480002
 30
0.0
 11
1175.0043906161
 21
-394.64885882480002
 31
0.0
  0
LINE
  5
5E
  8
É}ÿg
 10
1157.0043906161
 20
-404.64885882480002
 30
0.0
 11
1157.0043906161
 21
-394.64885882480002
 31
0.0
  0
LINE
  5
5F
  8
É}ÿg
 10
1237.0043906161
 20
-394.64885882480002
 30
0.0
 11
947.00439061609995
 21
-394.64885882480002
 31
0.0
  0
ENDBLK
  5
60
  8
0
  0
BLOCK
  8
0
  2
CLUMP5
 70
     0
 10
0.0
 20
0.0
 30
0.0
  3
CLUMP5
  1

  0
LINE
  5
64
  8
É}ÿg
 10
1065.0043906161
 20
-384.64885882480002
 30
0.0
 11
1065.0043906161
 21
-374.64885882480002
 31
0.0
  0
LINE
  5
65
  8
É}ÿg
 10
947.00439061609995
 20
-384.64885882480002
 30
0.0
 11
947.00439061609995
 21
-374.64885882480002
 31
0.0
  0
LINE
  5
66
  8
É}ÿg
 10
965.00439061609995
 20
-384.64885882480002
 30
0.0
 11
965.00439061609995
 21
-374.64885882480002
 31
0.0
  0
LINE
  5
67
  8
É}ÿg
 10
1175.0043906161
 20
-384.64885882480002
 30
0.0
 11
1175.0043906161
 21
-374.64885882480002
 31
0.0
  0
LINE
  5
68
  8
É}ÿg
 10
1157.0043906161
 20
-384.64885882480002
 30
0.0
 11
1157.0043906161
 21
-374.64885882480002
 31
0.0
  0
LINE
  5
69
  8
É}ÿg
 10
1237.0043906161
 20
-374.64885882480002
 30
0.0
 11
947.00439061609995
 21
-374.64885882480002
 31
0.0
  0
ENDBLK
  5
6A
  8
0
  0
BLOCK
  8
0
  2
CLUMP6
 70
     0
 10
0.0
 20
0.0
 30
0.0
  3
CLUMP6
  1

  0
LINE
  5
6E
  8
É}ÿg
 10
1065.0043906161
 20
-374.64885882480002
 30
0.0
 11
1065.0043906161
 21
-364.64885882480002
 31
0.0
  0
LINE
  5
6F
  8
É}ÿg
 10
947.00439061609995
 20
-374.64885882480002
 30
0.0
 11
947.00439061609995
 21
-364.64885882480002
 31
0.0
  0
LINE
  5
70
  8
É}ÿg
 10
965.00439061609995
 20
-374.64885882480002
 30
0.0
 11
965.00439061609995
 21
-364.64885882480002
 31
0.0
  0
LINE
  5
71
  8
É}ÿg
 10
1175.0043906161
 20
-374.64885882480002
 30
0.0
 11
1175.0043906161
 21
-364.64885882480002
 31
0.0
  0
LINE
  5
72
  8
É}ÿg
 10
1157.0043906161
 20
-374.64885882480002
 30
0.0
 11
1157.0043906161
 21
-364.64885882480002
 31
0.0
  0
LINE
  5
73
  8
É}ÿg
 10
1237.0043906161
 20
-364.64885882480002
 30
0.0
 11
947.00439061609995
 21
-364.64885882480002
 31
0.0
  0
ENDBLK
  5
74
  8
0
  0
BLOCK
  8
0
  2
CLUMP7
 70
     0
 10
0.0
 20
0.0
 30
0.0
  3
CLUMP7
  1

  0
LINE
  5
80
  8
É}ÿg
 10
1063.6468957139
 20
-485.49551289099992
 30
0.0
 11
1065.6468957139
 21
-482.49551289099998
 31
0.0
  0
LINE
  5
81
  8
É}ÿg
 10
1034.3256835927
 20
-482.49551289099998
 30
0.0
 11
1034.3256835927
 21
-486.49551289099998
 31
0.0
  0
LINE
  5
82
  8
É}ÿg
 10
1081.7797428808999
 20
-489.49551289099992
 30
0.0
 11
1088.0818610105
 21
-489.49551289099992
 31
0.0
  0
LINE
  5
83
  8
É}ÿg
 10
1047.6468957139
 20
-496.49551289099992
 30
0.0
 11
1052.6468957139
 21
-496.49551289099992
 31
0.0
  0
LINE
  5
84
  8
É}ÿg
 10
1047.6468957139
 20
-487.13973342600002
 30
0.0
 11
1055.6468957139
 21
-487.13973342600002
 31
0.0
  0
INSERT
  5
85
  8
0
  6
CONTINUOUS
  2
*U43
 10
0.0
 20
0.0
 30
0.0
  0
LINE
  5
86
  8
É}ÿg
 62
     5
 10
1097.0043906161
 20
29.351141175199999
 30
0.0
 11
1097.0043906161
 21
59.351141175200013
 31
0.0
  0
LINE
  5
87
  8
É}ÿg
 62
     5
 10
1197.0043906161
 20
29.351141175199999
 30
0.0
 11
1197.0043906161
 21
59.351141175200013
 31
0.0
  0
LINE
  5
88
  8
É}ÿg
 62
     5
 10
1065.0043906161
 20
29.351141175199999
 30
0.0
 11
1065.0043906161
 21
59.351141175200013
 31
0.0
  0
LINE
  5
89
  8
É}ÿg
 62
     5
 10
1051.4858198439999
 20
40.212724677200001
 30
0.0
 11
1061.385819844
 21
40.212724677200001
 31
0.0
  0
LINE
  5
8A
  8
É}ÿg
 62
     5
 10
1056.435819844
 20
38.886376174699997
 30
0.0
 11
1061.385819844
 21
30.312724677199999
 31
0.0
  0
LINE
  5
8B
  8
É}ÿg
 62
     5
 10
1049.0043906161
 20
29.351141175199999
 30
0.0
 11
1049.0043906161
 21
59.351141175200013
 31
0.0
  0
LINE
  5
8C
  8
É}ÿg
 62
     5
 10
1217.0043906161
 20
29.351141175199999
 30
0.0
 11
1217.0043906161
 21
59.351141175200013
 31
0.0
  0
LINE
  5
8D
  8
É}ÿg
 62
     5
 10
1049.0043906161
 20
49.351141175200013
 30
0.0
 11
1237.0043906161
 21
49.351141175200013
 31
0.0
  0
LINE
  5
8E
  8
É}ÿg
 62
     5
 10
1049.0043906161
 20
39.351141175199999
 30
0.0
 11
1237.0043906161
 21
39.351141175199999
 31
0.0
  0
LINE
  5
8F
  8
É}ÿg
 62
     5
 10
1049.0043906161
 20
29.351141175199999
 30
0.0
 11
1237.0043906161
 21
29.351141175199999
 31
0.0
  0
INSERT
  5
90
  8
0
  6
CONTINUOUS
  2
*U44
 10
0.0
 20
0.0
 30
0.0
  0
LINE
  5
91
  8
É}ÿg
 62
     5
 10
437.00439061610001
 20
-500.64885882480002
 30
0.0
 11
437.00439061610001
 21
59.351141175200013
 31
0.0
  0
LINE
  5
92
  8
É}ÿg
 62
     5
 10
437.00439061610001
 20
-500.64885882480002
 30
0.0
 11
1237.0043906161
 21
-500.64885882480002
 31
0.0
  0
LINE
  5
93
  8
É}ÿg
 62
     5
 10
1237.0043906161
 20
59.351141175200013
 30
0.0
 11
437.00439061610001
 21
59.351141175200013
 31
0.0
  0
LINE
  5
94
  8
É}ÿg
 62
     5
 10
1237.0043906161
 20
-500.64885882480002
 30
0.0
 11
1237.0043906161
 21
59.351141175200013
 31
0.0
  0
LINE
  5
95
  8
É}ÿg
 10
1047.6468957139
 20
-487.78395396089991
 30
0.0
 11
1047.6468957139
 21
-487.13973342600002
 31
0.0
  0
LINE
  5
96
  8
É}ÿg
 10
1023.0234759696
 20
-486.49551289099998
 30
0.0
 11
1023.0234759696
 21
-489.49551289099992
 31
0.0
  0
LINE
  5
97
  8
É}ÿg
 62
     5
 10
1056.435819844
 20
48.786376174700003
 30
0.0
 11
1061.385819844
 21
40.212724677200001
 31
0.0
  0
LINE
  5
98
  8
É}ÿg
 62
     5
 10
1056.435819844
 20
38.886376174699997
 30
0.0
 11
1051.4858198439999
 21
30.312724677199999
 31
0.0
  0
INSERT
  5
99
  8
0
  6
CONTINUOUS
  2
*U45
 10
0.0
 20
0.0
 30
0.0
  0
LINE
  5
9A
  8
É}ÿg
  6
DOT
 10
427.04439061609997
 20
-509.1088588248
 30
0.0
 11
427.04439061609997
 21
67.811141175200007
 31
0.0
  0
LINE
  5
9B
  8
É}ÿg
  6
DOT
 10
1246.9643906161
 20
-509.1088588248
 30
0.0
 11
1246.9643906161
 21
67.811141175200007
 31
0.0
  0
LINE
  5
9C
  8
É}ÿg
  6
DOT
 10
427.04439061609997
 20
-509.1088588248
 30
0.0
 11
1246.9643906161
 21
-509.1088588248
 31
0.0
  0
LINE
  5
9D
  8
É}ÿg
 10
1030.3256835927
 20
-492.49551289099992
 30
0.0
 11
1030.3256835927
 21
-489.49551289099992
 31
0.0
  0
LINE
  5
9E
  8
É}ÿg
  6
DOT
 10
1246.9643906161
 20
67.811141175200007
 30
0.0
 11
427.04439061609997
 21
67.811141175200007
 31
0.0
  0
LINE
  5
9F
  8
É}ÿg
 10
1025.3256835927
 20
-489.49551289099992
 30
0.0
 11
1025.3256835927
 21
-492.49551289099992
 31
0.0
  0
LINE
  5
A0
  8
É}ÿg
 10
1039.3256835927
 20
-485.49551289099992
 30
0.0
 11
1042.3256835927
 21
-482.49551289099998
 31
0.0
  0
LINE
  5
A1
  8
É}ÿg
 10
1076.6045276770999
 20
-491.095512891
 30
0.0
 11
1076.1351943438001
 21
-489.49551289099992
 31
0.0
  0
LINE
  5
A2
  8
É}ÿg
 10
1030.3256835927
 20
-486.49551289099998
 30
0.0
 11
1030.3256835927
 21
-485.49551289099992
 31
0.0
  0
LINE
  5
A3
  8
É}ÿg
 10
1061.3723344181001
 20
-492.19377530899988
 30
0.0
 11
1061.0161302985
 21
-492.54253159730001
 31
0.0
  0
LINE
  5
A4
  8
É}ÿg
 10
1063.6468957139
 20
-485.49551289099992
 30
0.0
 11
1065.6468957139
 21
-482.49551289099998
 31
0.0
  0
LINE
  5
A5
  8
É}ÿg
 10
1088.0818610105
 20
-491.095512891
 30
0.0
 11
1088.0818610105
 21
-494.69551289099991
 31
0.0
  0
LINE
  5
A6
  8
É}ÿg
 10
1065.6468957139
 20
-493.49551289099992
 30
0.0
 11
1065.6468957139
 21
-496.49551289099992
 31
0.0
  0
LINE
  5
A7
  8
É}ÿg
 10
1080.7437897226
 20
-485.8955128909999
 30
0.0
 11
1088.0818610105
 21
-485.8955128909999
 31
0.0
  0
LINE
  5
A8
  8
É}ÿg
 10
1080.7437897226
 20
-485.8955128909999
 30
0.0
 11
1080.4510012221001
 21
-484.87805511009998
 31
0.0
  0
LINE
  5
A9
  8
É}ÿg
 10
1065.6468957139
 20
-482.49551289099998
 30
0.0
 11
1047.6468957139
 21
-482.49551289099998
 31
0.0
  0
INSERT
  5
AA
  8
0
  6
CONTINUOUS
  2
*U46
 10
0.0
 20
0.0
 30
0.0
  0
LINE
  5
AB
  8
É}ÿg
 10
1078.4818610105001
 20
-497.49551289099992
 30
0.0
 11
1077.6605276770999
 21
-494.69551289099991
 31
0.0
  0
LINE
  5
AC
  8
É}ÿg
 10
1031.3256835927
 20
-493.49551289099992
 30
0.0
 11
1025.3256835927
 21
-493.49551289099992
 31
0.0
  0
LINE
  5
AD
  8
É}ÿg
 10
1047.6468957139
 20
-486.09551289099988
 30
0.0
 11
1057.6468957139
 21
-486.09551289099988
 31
0.0
  0
LINE
  5
AE
  8
É}ÿg
 10
1074.7762256394999
 20
-443.24885882479998
 30
0.0
 11
1084.3762256395
 21
-440.8488588248
 31
0.0
  0
CIRCLE
  5
AF
  8
É}ÿg
 10
1063.8043906160999
 20
-445.6488588247999
 30
0.0
 40
4.7999999999999989
  0
INSERT
  5
B0
  8
0
  6
CONTINUOUS
  2
*U47
 10
0.0
 20
0.0
 30
0.0
  0
LINE
  5
B1
  8
É}ÿg
 10
1030.3256835927
 20
-489.49551289099992
 30
0.0
 11
1034.3256835927
 21
-489.49551289099992
 31
0.0
  0
LINE
  5
B2
  8
É}ÿg
 10
1070.0818610105
 20
-489.49551289099992
 30
0.0
 11
1076.1351943438001
 21
-489.49551289099992
 31
0.0
  0
LINE
  5
B3
  8
É}ÿg
 10
1042.3256835927
 20
-486.49551289099998
 30
0.0
 11
1039.3256835927
 21
-486.49551289099998
 31
0.0
  0
LINE
  5
B4
  8
É}ÿg
 10
1039.3256835927
 20
-486.49551289099998
 30
0.0
 11
1039.3256835927
 21
-485.49551289099992
 31
0.0
  0
LINE
  5
B5
  8
É}ÿg
 10
1070.0818610105
 20
-485.8955128909999
 30
0.0
 11
1075.0791943438001
 21
-485.8955128909999
 31
0.0
  0
LINE
  5
B6
  8
É}ÿg
 10
1080.4510012221001
 20
-484.87805511009998
 30
0.0
 11
1082.0818610105
 21
-482.49551289099998
 31
0.0
  0
LINE
  5
B7
  8
É}ÿg
 10
1047.6468957139
 20
-496.49551289099992
 30
0.0
 11
1047.6468957139
 21
-493.49551289099992
 31
0.0
  0
LINE
  5
B8
  8
É}ÿg
 10
1097.0043906161
 20
-434.64885882480002
 30
0.0
 11
1097.0043906161
 21
-500.64885882480002
 31
0.0
  0
INSERT
  5
B9
  8
0
  6
CONTINUOUS
  2
*U48
 10
0.0
 20
0.0
 30
0.0
  0
INSERT
  5
BA
  8
0
  6
CONTINUOUS
  2
*U49
 10
0.0
 20
0.0
 30
0.0
  0
INSERT
  5
BB
  8
0
  6
CONTINUOUS
  2
*U50
 10
0.0
 20
0.0
 30
0.0
  0
LINE
  5
BC
  8
É}ÿg
 62
     5
 10
1051.4858198439999
 20
30.312724677199999
 30
0.0
 11
1061.385819844
 21
30.312724677199999
 31
0.0
  0
LINE
  5
BD
  8
É}ÿg
 10
1023.0234759696
 20
-489.49551289099992
 30
0.0
 11
1025.0234759696
 21
-489.49551289099992
 31
0.0
  0
ARC
  5
BE
  8
É}ÿg
 10
1052.6468957139
 20
-485.49551289099992
 30
0.0
 40
11.0
 50
322.48761197969998
 51
0.0
  0
LINE
  5
BF
  8
É}ÿg
 10
1025.3256835927
 20
-496.49551289099992
 30
0.0
 11
1033.3256835927
 21
-496.49551289099992
 31
0.0
  0
LINE
  5
C0
  8
É}ÿg
 10
1070.0818610105
 20
-494.69551289099991
 30
0.0
 11
1077.6605276770999
 21
-494.69551289099991
 31
0.0
  0
ARC
  5
C1
  8
É}ÿg
 10
1031.3256835927
 20
-490.49551289099998
 30
0.0
 40
3.0
 50
270.0
 51
0.0
  0
LINE
  5
C2
  8
É}ÿg
 10
1070.0818610105
 20
-491.095512891
 30
0.0
 11
1070.0818610105
 21
-494.69551289099991
 31
0.0
  0
LINE
  5
C3
  8
É}ÿg
 10
1025.3256835927
 20
-492.49551289099992
 30
0.0
 11
1030.3256835927
 21
-492.49551289099992
 31
0.0
  0
LINE
  5
C4
  8
É}ÿg
 10
1056.7195206972999
 20
-489.53365470120002
 30
0.0
 11
1056.2383290846001
 21
-490.0651314223
 31
0.0
  0
LINE
  5
C5
  8
É}ÿg
 10
1084.0818610105
 20
-497.49551289099992
 30
0.0
 11
1078.4818610105001
 21
-497.49551289099992
 31
0.0
  0
LINE
  5
C6
  8
É}ÿg
 10
1034.3256835927
 20
-489.49551289099992
 30
0.0
 11
1034.3256835927
 21
-490.49551289099998
 31
0.0
  0
LINE
  5
C7
  8
É}ÿg
 10
1237.0043906161
 20
-434.64885882480002
 30
0.0
 11
947.00439061609995
 21
-434.64885882480002
 31
0.0
  0
LINE
  5
C8
  8
É}ÿg
 10
1084.3762256395
 20
-440.8488588248
 30
0.0
 11
1084.3762256395
 21
-450.44885882480003
 31
0.0
  0
LINE
  5
C9
  8
É}ÿg
 62
     5
 10
1056.435819844
 20
48.786376174700003
 30
0.0
 11
1051.4858198439999
 21
40.212724677200001
 31
0.0
  0
LINE
  5
CA
  8
É}ÿg
 10
1042.3256835927
 20
-482.49551289099998
 30
0.0
 11
1034.3256835927
 21
-482.49551289099998
 31
0.0
  0
LINE
  5
CB
  8
É}ÿg
 10
1039.3256835927
 20
-490.49551289099998
 30
0.0
 11
1039.3256835927
 21
-489.49551289099992
 31
0.0
  0
LINE
  5
CC
  8
É}ÿg
 10
1070.0818610105
 20
-485.8955128909999
 30
0.0
 11
1070.0818610105
 21
-489.49551289099992
 31
0.0
  0
LINE
  5
CD
  8
É}ÿg
 10
1034.3256835927
 20
-486.49551289099998
 30
0.0
 11
1030.3256835927
 21
-486.49551289099998
 31
0.0
  0
LINE
  5
CE
  8
É}ÿg
 10
1033.3256835927
 20
-482.49551289099998
 30
0.0
 11
1025.3256835927
 21
-482.49551289099998
 31
0.0
  0
LINE
  5
CF
  8
É}ÿg
 10
1030.3256835927
 20
-485.49551289099992
 30
0.0
 11
1033.3256835927
 21
-482.49551289099998
 31
0.0
  0
LINE
  5
D0
  8
É}ÿg
 10
1025.3256835927
 20
-482.49551289099998
 30
0.0
 11
1025.3256835927
 21
-486.49551289099998
 31
0.0
  0
LINE
  5
D1
  8
É}ÿg
 10
1083.2761196650999
 20
-494.69551289099991
 30
0.0
 11
1088.0818610105
 21
-494.69551289099991
 31
0.0
  0
LINE
  5
D2
  8
É}ÿg
 10
1075.0791943438001
 20
-485.8955128909999
 30
0.0
 11
1074.0818610105
 21
-482.49551289099998
 31
0.0
  0
LINE
  5
D3
  8
É}ÿg
 10
1070.0818610105
 20
-491.095512891
 30
0.0
 11
1076.6045276770999
 21
-491.095512891
 31
0.0
  0
LINE
  5
D4
  8
É}ÿg
 10
1082.2401665067989
 20
-491.095512891
 30
0.0
 11
1081.7797428808999
 21
-489.49551289099992
 31
0.0
  0
ARC
  5
D5
  8
É}ÿg
 10
1050.0468957139001
 20
-485.8955128909999
 30
0.0
 40
7.5999999999999988
 50
270.0
 51
298.08590481520002
  0
INSERT
  5
D6
  8
0
  6
CONTINUOUS
  2
*U51
 10
0.0
 20
0.0
 30
0.0
  0
LINE
  5
D7
  8
É}ÿg
 10
952.00439061609995
 20
-445.6488588247999
 30
0.0
 11
992.00439061609995
 21
-445.6488588247999
 31
0.0
  0
LINE
  5
D8
  8
É}ÿg
 10
997.00439061609995
 20
-434.64885882480002
 30
0.0
 11
997.00439061609995
 21
-456.64885882480002
 31
0.0
  0
LINE
  5
D9
  8
É}ÿg
 10
947.00439061609995
 20
-456.64885882480002
 30
0.0
 11
1237.0043906161
 21
-456.64885882480002
 31
0.0
  0
LINE
  5
DA
  8
É}ÿg
 10
1047.0043906161
 20
-434.64885882480002
 30
0.0
 11
1047.0043906161
 21
-456.64885882480002
 31
0.0
  0
LINE
  5
DB
  8
É}ÿg
  6
BORDER
 10
1063.8043906160999
 20
-438.44885882480003
 30
0.0
 11
1063.8043906160999
 21
-452.8488588248
 31
0.0
  0
LINE
  5
DC
  8
É}ÿg
  6
BORDER
 10
1063.8043906160999
 20
-438.44885882480003
 30
0.0
 11
1063.8043906160999
 21
-452.8488588248
 31
0.0
  0
LINE
  5
DD
  8
É}ÿg
 10
1088.0818610105
 20
-485.8955128909999
 30
0.0
 11
1088.0818610105
 21
-489.49551289099992
 31
0.0
  0
LINE
  5
DE
  8
É}ÿg
 10
1002.0043906161
 20
-445.6488588247999
 30
0.0
 11
1042.0043906161
 21
-445.6488588247999
 31
0.0
  0
INSERT
  5
DF
  8
0
  6
CONTINUOUS
  2
*U52
 10
0.0
 20
0.0
 30
0.0
  0
CIRCLE
  5
E0
  8
É}ÿg
 10
1063.8043906160999
 20
-445.6488588247999
 30
0.0
 40
4.7999999999999989
  0
LINE
  5
E1
  8
É}ÿg
 10
1074.7762256394999
 20
-443.24885882479998
 30
0.0
 11
1084.3762256395
 21
-440.8488588248
 31
0.0
  0
INSERT
  5
E2
  8
0
  6
CONTINUOUS
  2
*U53
 10
0.0
 20
0.0
 30
0.0
  0
CIRCLE
  5
E3
  8
É}ÿg
 10
1063.8043906160999
 20
-445.6488588247999
 30
0.0
 40
2.399999999999999
  0
LINE
  5
E4
  8
É}ÿg
 10
1084.0818610105
 20
-497.49551289099992
 30
0.0
 11
1083.2761196650999
 21
-494.69551289099991
 31
0.0
  0
LINE
  5
E5
  8
É}ÿg
 10
1082.2401665067989
 20
-491.095512891
 30
0.0
 11
1088.0818610105
 21
-491.095512891
 31
0.0
  0
LINE
  5
E6
  8
É}ÿg
 10
1047.6468957139
 20
-493.49551289099992
 30
0.0
 11
1050.0468957139001
 21
-493.49551289099992
 31
0.0
  0
LINE
  5
E7
  8
É}ÿg
 10
1074.0818610105
 20
-482.49551289099998
 30
0.0
 11
1082.0818610105
 21
-482.49551289099998
 31
0.0
  0
LINE
  5
E8
  8
É}ÿg
 10
1025.3256835927
 20
-486.49551289099998
 30
0.0
 11
1023.0234759696
 21
-486.49551289099998
 31
0.0
  0
LINE
  5
E9
  8
É}ÿg
 10
1047.6468957139
 20
-493.49551289099992
 30
0.0
 11
1047.6468957139
 21
-496.49551289099992
 31
0.0
  0
LINE
  5
EA
  8
É}ÿg
 10
1025.3256835927
 20
-489.49551289099992
 30
0.0
 11
1025.0234759696
 21
-489.49551289099992
 31
0.0
  0
LINE
  5
EB
  8
É}ÿg
 10
1025.3256835927
 20
-493.49551289099992
 30
0.0
 11
1025.3256835927
 21
-496.49551289099992
 31
0.0
  0
ARC
  5
EC
  8
É}ÿg
 10
1050.0468957139001
 20
-485.8955128909999
 30
0.0
 40
7.5999999999999988
 50
331.39928138329998
 51
358.49204224580001
  0
LINE
  5
ED
  8
É}ÿg
 10
1039.3256835927
 20
-489.49551289099992
 30
0.0
 11
1042.3256835927
 21
-489.49551289099992
 31
0.0
  0
ARC
  5
EE
  8
É}ÿg
 10
1052.6468957139
 20
-485.49551289099992
 30
0.0
 40
11.0
 50
270.0
 51
302.54495885400001
  0
LINE
  5
EF
  8
É}ÿg
 10
1074.7762256394999
 20
-448.04885882479999
 30
0.0
 11
1084.3762256395
 21
-450.44885882480003
 31
0.0
  0
LINE
  5
F0
  8
É}ÿg
 10
1074.7762256394999
 20
-443.24885882479998
 30
0.0
 11
1074.7762256394999
 21
-448.04885882479999
 31
0.0
  0
LINE
  5
F1
  8
É}ÿg
 10
1084.3762256395
 20
-440.8488588248
 30
0.0
 11
1084.3762256395
 21
-450.44885882480003
 31
0.0
  0
LINE
  5
F2
  8
É}ÿg
 10
1055.6468957139
 20
-487.13973342600002
 30
0.0
 11
1054.5155248640001
 21
-488.27110427589992
 31
0.0
  0
LINE
  5
F3
  8
É}ÿg
  6
BORDER
 10
1056.6043906161001
 20
-445.6488588247999
 30
0.0
 11
1087.4043906161
 21
-445.6488588247999
 31
0.0
  0
CIRCLE
  5
F4
  8
É}ÿg
 10
1063.8043906160999
 20
-445.6488588247999
 30
0.0
 40
2.399999999999999
  0
POLYLINE
  8
É}ÿg
  5
57B
  66
     1
 10
0.000000
 20
0.000000
 30
0.000000
  70
     8
  0
VERTEX
  8
É}ÿg
  5
57C
 10
1061.02
 20
-492.543
 30
0.000000
  70
    32
  0
VERTEX
  8
É}ÿg
  5
57D
 10
1061.05
 20
-492.552
 30
0.000000
  70
    32
  0
VERTEX
  8
É}ÿg
  5
57E
 10
1061.09
 20
-492.562
 30
0.000000
  70
    32
  0
VERTEX
  8
É}ÿg
  5
57F
 10
1061.12
 20
-492.572
 30
0.000000
  70
    32
  0
VERTEX
  8
É}ÿg
  5
580
 10
1061.16
 20
-492.582
 30
0.000000
  70
    32
  0
VERTEX
  8
É}ÿg
  5
581
 10
1061.19
 20
-492.592
 30
0.000000
  70
    32
  0
VERTEX
  8
É}ÿg
  5
582
 10
1061.23
 20
-492.601
 30
0.000000
  70
    32
  0
VERTEX
  8
É}ÿg
  5
583
 10
1061.26
 20
-492.611
 30
0.000000
  70
    32
  0
VERTEX
  8
É}ÿg
  5
584
 10
1061.30
 20
-492.620
 30
0.000000
  70
    32
  0
VERTEX
  8
É}ÿg
  5
585
 10
1061.33
 20
-492.630
 30
0.000000
  70
    32
  0
VERTEX
  8
É}ÿg
  5
586
 10
1061.37
 20
-492.639
 30
0.000000
  70
    32
  0
VERTEX
  8
É}ÿg
  5
587
 10
1061.40
 20
-492.648
 30
0.000000
  70
    32
  0
VERTEX
  8
É}ÿg
  5
588
 10
1061.44
 20
-492.658
 30
0.000000
  70
    32
  0
VERTEX
  8
É}ÿg
  5
589
 10
1061.47
 20
-492.667
 30
0.000000
  70
    32
  0
VERTEX
  8
É}ÿg
  5
58A
 10
1061.51
 20
-492.676
 30
0.000000
  70
    32
  0
VERTEX
  8
É}ÿg
  5
58B
 10
1061.54
 20
-492.685
 30
0.000000
  70
    32
  0
VERTEX
  8
É}ÿg
  5
58C
 10
1061.58
 20
-492.695
 30
0.000000
  70
    32
  0
VERTEX
  8
É}ÿg
  5
58D
 10
1061.62
 20
-492.704
 30
0.000000
  70
    32
  0
VERTEX
  8
É}ÿg
  5
58E
 10
1061.65
 20
-492.713
 30
0.000000
  70
    32
  0
VERTEX
  8
É}ÿg
  5
58F
 10
1061.69
 20
-492.722
 30
0.000000
  70
    32
  0
VERTEX
  8
É}ÿg
  5
590
 10
1061.72
 20
-492.730
 30
0.000000
  70
    32
  0
VERTEX
  8
É}ÿg
  5
591
 10
1061.76
 20
-492.739
 30
0.000000
  70
    32
  0
VERTEX
  8
É}ÿg
  5
592
 10
1061.79
 20
-492.748
 30
0.000000
  70
    32
  0
VERTEX
  8
É}ÿg
  5
593
 10
1061.83
 20
-492.757
 30
0.000000
  70
    32
  0
VERTEX
  8
É}ÿg
  5
594
 10
1061.86
 20
-492.766
 30
0.000000
  70
    32
  0
VERTEX
  8
É}ÿg
  5
595
 10
1061.90
 20
-492.774
 30
0.000000
  70
    32
  0
VERTEX
  8
É}ÿg
  5
596
 10
1061.94
 20
-492.783
 30
0.000000
  70
    32
  0
VERTEX
  8
É}ÿg
  5
597
 10
1061.97
 20
-492.791
 30
0.000000
  70
    32
  0
VERTEX
  8
É}ÿg
  5
598
 10
1062.01
 20
-492.800
 30
0.000000
  70
    32
  0
VERTEX
  8
É}ÿg
  5
599
 10
1062.04
 20
-492.808
 30
0.000000
  70
    32
  0
VERTEX
  8
É}ÿg
  5
59A
 10
1062.08
 20
-492.817
 30
0.000000
  70
    32
  0
VERTEX
  8
É}ÿg
  5
59B
 10
1062.12
 20
-492.825
 30
0.000000
  70
    32
  0
VERTEX
  8
É}ÿg
  5
59C
 10
1062.15
 20
-492.834
 30
0.000000
  70
    32
  0
VERTEX
  8
É}ÿg
  5
59D
 10
1062.19
 20
-492.842
 30
0.000000
  70
    32
  0
VERTEX
  8
É}ÿg
  5
59E
 10
1062.22
 20
-492.850
 30
0.000000
  70
    32
  0
VERTEX
  8
É}ÿg
  5
59F
 10
1062.26
 20
-492.858
 30
0.000000
  70
    32
  0
VERTEX
  8
É}ÿg
  5
5A0
 10
1062.30
 20
-492.867
 30
0.000000
  70
    32
  0
VERTEX
  8
É}ÿg
  5
5A1
 10
1062.33
 20
-492.875
 30
0.000000
  70
    32
  0
VERTEX
  8
É}ÿg
  5
5A2
 10
1062.37
 20
-492.883
 30
0.000000
  70
    32
  0
VERTEX
  8
É}ÿg
  5
5A3
 10
1062.40
 20
-492.891
 30
0.000000
  70
    32
  0
VERTEX
  8
É}ÿg
  5
5A4
 10
1062.44
 20
-492.899
 30
0.000000
  70
    32
  0
VERTEX
  8
É}ÿg
  5
5A5
 10
1062.48
 20
-492.907
 30
0.000000
  70
    32
  0
VERTEX
  8
É}ÿg
  5
5A6
 10
1062.51
 20
-492.915
 30
0.000000
  70
    32
  0
VERTEX
  8
É}ÿg
  5
5A7
 10
1062.55
 20
-492.923
 30
0.000000
  70
    32
  0
VERTEX
  8
É}ÿg
  5
5A8
 10
1062.58
 20
-492.931
 30
0.000000
  70
    32
  0
VERTEX
  8
É}ÿg
  5
5A9
 10
1062.62
 20
-492.938
 30
0.000000
  70
    32
  0
VERTEX
  8
É}ÿg
  5
5AA
 10
1062.66
 20
-492.946
 30
0.000000
  70
    32
  0
VERTEX
  8
É}ÿg
  5
5AB
 10
1062.69
 20
-492.954
 30
0.000000
  70
    32
  0
VERTEX
  8
É}ÿg
  5
5AC
 10
1062.73
 20
-492.962
 30
0.000000
  70
    32
  0
VERTEX
  8
É}ÿg
  5
5AD
 10
1062.77
 20
-492.969
 30
0.000000
  70
    32
  0
VERTEX
  8
É}ÿg
  5
5AE
 10
1062.80
 20
-492.977
 30
0.000000
  70
    32
  0
VERTEX
  8
É}ÿg
  5
5AF
 10
1062.84
 20
-492.985
 30
0.000000
  70
    32
  0
VERTEX
  8
É}ÿg
  5
5B0
 10
1062.88
 20
-492.992
 30
0.000000
  70
    32
  0
VERTEX
  8
É}ÿg
  5
5B1
 10
1062.91
 20
-493.000
 30
0.000000
  70
    32
  0
VERTEX
  8
É}ÿg
  5
5B2
 10
1062.95
 20
-493.007
 30
0.000000
  70
    32
  0
VERTEX
  8
É}ÿg
  5
5B3
 10
1062.98
 20
-493.015
 30
0.000000
  70
    32
  0
VERTEX
  8
É}ÿg
  5
5B4
 10
1063.02
 20
-493.022
 30
0.000000
  70
    32
  0
VERTEX
  8
É}ÿg
  5
5B5
 10
1063.06
 20
-493.030
 30
0.000000
  70
    32
  0
VERTEX
  8
É}ÿg
  5
5B6
 10
1063.09
 20
-493.037
 30
0.000000
  70
    32
  0
VERTEX
  8
É}ÿg
  5
5B7
 10
1063.13
 20
-493.044
 30
0.000000
  70
    32
  0
VERTEX
  8
É}ÿg
  5
5B8
 10
1063.17
 20
-493.052
 30
0.000000
  70
    32
  0
VERTEX
  8
É}ÿg
  5
5B9
 10
1063.20
 20
-493.059
 30
0.000000
  70
    32
  0
VERTEX
  8
É}ÿg
  5
5BA
 10
1063.24
 20
-493.066
 30
0.000000
  70
    32
  0
VERTEX
  8
É}ÿg
  5
5BB
 10
1063.28
 20
-493.073
 30
0.000000
  70
    32
  0
VERTEX
  8
É}ÿg
  5
5BC
 10
1063.31
 20
-493.081
 30
0.000000
  70
    32
  0
VERTEX
  8
É}ÿg
  5
5BD
 10
1063.35
 20
-493.088
 30
0.000000
  70
    32
  0
VERTEX
  8
É}ÿg
  5
5BE
 10
1063.39
 20
-493.095
 30
0.000000
  70
    32
  0
VERTEX
  8
É}ÿg
  5
5BF
 10
1063.42
 20
-493.102
 30
0.000000
  70
    32
  0
VERTEX
  8
É}ÿg
  5
5C0
 10
1063.46
 20
-493.109
 30
0.000000
  70
    32
  0
VERTEX
  8
É}ÿg
  5
5C1
 10
1063.50
 20
-493.116
 30
0.000000
  70
    32
  0
VERTEX
  8
É}ÿg
  5
5C2
 10
1063.53
 20
-493.123
 30
0.000000
  70
    32
  0
VERTEX
  8
É}ÿg
  5
5C3
 10
1063.57
 20
-493.130
 30
0.000000
  70
    32
  0
VERTEX
  8
É}ÿg
  5
5C4
 10
1063.61
 20
-493.137
 30
0.000000
  70
    32
  0
VERTEX
  8
É}ÿg
  5
5C5
 10
1063.64
 20
-493.144
 30
0.000000
  70
    32
  0
VERTEX
  8
É}ÿg
  5
5C6
 10
1063.68
 20
-493.151
 30
0.000000
  70
    32
  0
VERTEX
  8
É}ÿg
  5
5C7
 10
1063.72
 20
-493.158
 30
0.000000
  70
    32
  0
VERTEX
  8
É}ÿg
  5
5C8
 10
1063.75
 20
-493.165
 30
0.000000
  70
    32
  0
VERTEX
  8
É}ÿg
  5
5C9
 10
1063.79
 20
-493.172
 30
0.000000
  70
    32
  0
VERTEX
  8
É}ÿg
  5
5CA
 10
1063.83
 20
-493.179
 30
0.000000
  70
    32
  0
VERTEX
  8
É}ÿg
  5
5CB
 10
1063.87
 20
-493.185
 30
0.000000
  70
    32
  0
VERTEX
  8
É}ÿg
  5
5CC
 10
1063.90
 20
-493.192
 30
0.000000
  70
    32
  0
VERTEX
  8
É}ÿg
  5
5CD
 10
1063.94
 20
-493.199
 30
0.000000
  70
    32
  0
VERTEX
  8
É}ÿg
  5
5CE
 10
1063.98
 20
-493.206
 30
0.000000
  70
    32
  0
VERTEX
  8
É}ÿg
  5
5CF
 10
1064.01
 20
-493.213
 30
0.000000
  70
    32
  0
VERTEX
  8
É}ÿg
  5
5D0
 10
1064.05
 20
-493.219
 30
0.000000
  70
    32
  0
VERTEX
  8
É}ÿg
  5
5D1
 10
1064.09
 20
-493.226
 30
0.000000
  70
    32
  0
VERTEX
  8
É}ÿg
  5
5D2
 10
1064.12
 20
-493.233
 30
0.000000
  70
    32
  0
VERTEX
  8
É}ÿg
  5
5D3
 10
1064.16
 20
-493.239
 30
0.000000
  70
    32
  0
VERTEX
  8
É}ÿg
  5
5D4
 10
1064.20
 20
-493.246
 30
0.000000
  70
    32
  0
VERTEX
  8
É}ÿg
  5
5D5
 10
1064.24
 20
-493.253
 30
0.000000
  70
    32
  0
VERTEX
  8
É}ÿg
  5
5D6
 10
1064.27
 20
-493.259
 30
0.000000
  70
    32
  0
VERTEX
  8
É}ÿg
  5
5D7
 10
1064.31
 20
-493.266
 30
0.000000
  70
    32
  0
VERTEX
  8
É}ÿg
  5
5D8
 10
1064.35
 20
-493.272
 30
0.000000
  70
    32
  0
VERTEX
  8
É}ÿg
  5
5D9
 10
1064.38
 20
-493.279
 30
0.000000
  70
    32
  0
VERTEX
  8
É}ÿg
  5
5DA
 10
1064.42
 20
-493.285
 30
0.000000
  70
    32
  0
VERTEX
  8
É}ÿg
  5
5DB
 10
1064.46
 20
-493.292
 30
0.000000
  70
    32
  0
VERTEX
  8
É}ÿg
  5
5DC
 10
1064.49
 20
-493.298
 30
0.000000
  70
    32
  0
VERTEX
  8
É}ÿg
  5
5DD
 10
1064.53
 20
-493.305
 30
0.000000
  70
    32
  0
VERTEX
  8
É}ÿg
  5
5DE
 10
1064.57
 20
-493.311
 30
0.000000
  70
    32
  0
VERTEX
  8
É}ÿg
  5
5DF
 10
1064.61
 20
-493.318
 30
0.000000
  70
    32
  0
VERTEX
  8
É}ÿg
  5
5E0
 10
1064.64
 20
-493.324
 30
0.000000
  70
    32
  0
VERTEX
  8
É}ÿg
  5
5E1
 10
1064.68
 20
-493.331
 30
0.000000
  70
    32
  0
VERTEX
  8
É}ÿg
  5
5E2
 10
1064.72
 20
-493.337
 30
0.000000
  70
    32
  0
VERTEX
  8
É}ÿg
  5
5E3
 10
1064.75
 20
-493.344
 30
0.000000
  70
    32
  0
VERTEX
  8
É}ÿg
  5
5E4
 10
1064.79
 20
-493.350
 30
0.000000
  70
    32
  0
VERTEX
  8
É}ÿg
  5
5E5
 10
1064.83
 20
-493.356
 30
0.000000
  70
    32
  0
VERTEX
  8
É}ÿg
  5
5E6
 10
1064.87
 20
-493.363
 30
0.000000
  70
    32
  0
VERTEX
  8
É}ÿg
  5
5E7
 10
1064.90
 20
-493.369
 30
0.000000
  70
    32
  0
VERTEX
  8
É}ÿg
  5
5E8
 10
1064.94
 20
-493.376
 30
0.000000
  70
    32
  0
VERTEX
  8
É}ÿg
  5
5E9
 10
1064.98
 20
-493.382
 30
0.000000
  70
    32
  0
VERTEX
  8
É}ÿg
  5
5EA
 10
1065.01
 20
-493.388
 30
0.000000
  70
    32
  0
VERTEX
  8
É}ÿg
  5
5EB
 10
1065.05
 20
-493.395
 30
0.000000
  70
    32
  0
VERTEX
  8
É}ÿg
  5
5EC
 10
1065.09
 20
-493.401
 30
0.000000
  70
    32
  0
VERTEX
  8
É}ÿg
  5
5ED
 10
1065.13
 20
-493.407
 30
0.000000
  70
    32
  0
VERTEX
  8
É}ÿg
  5
5EE
 10
1065.16
 20
-493.414
 30
0.000000
  70
    32
  0
VERTEX
  8
É}ÿg
  5
5EF
 10
1065.20
 20
-493.420
 30
0.000000
  70
    32
  0
VERTEX
  8
É}ÿg
  5
5F0
 10
1065.24
 20
-493.426
 30
0.000000
  70
    32
  0
VERTEX
  8
É}ÿg
  5
5F1
 10
1065.27
 20
-493.433
 30
0.000000
  70
    32
  0
VERTEX
  8
É}ÿg
  5
5F2
 10
1065.31
 20
-493.439
 30
0.000000
  70
    32
  0
VERTEX
  8
É}ÿg
  5
5F3
 10
1065.35
 20
-493.445
 30
0.000000
  70
    32
  0
VERTEX
  8
É}ÿg
  5
5F4
 10
1065.39
 20
-493.451
 30
0.000000
  70
    32
  0
VERTEX
  8
É}ÿg
  5
5F5
 10
1065.42
 20
-493.458
 30
0.000000
  70
    32
  0
VERTEX
  8
É}ÿg
  5
5F6
 10
1065.46
 20
-493.464
 30
0.000000
  70
    32
  0
VERTEX
  8
É}ÿg
  5
5F7
 10
1065.50
 20
-493.470
 30
0.000000
  70
    32
  0
VERTEX
  8
É}ÿg
  5
5F8
 10
1065.54
 20
-493.477
 30
0.000000
  70
    32
  0
VERTEX
  8
É}ÿg
  5
5F9
 10
1065.57
 20
-493.483
 30
0.000000
  70
    32
  0
VERTEX
  8
É}ÿg
  5
5FA
 10
1065.61
 20
-493.489
 30
0.000000
  70
    32
  0
VERTEX
  8
É}ÿg
  5
5FB
 10
1065.65
 20
-493.496
 30
0.000000
  70
    32
  0
SEQEND
  8
É}ÿg
  5
5FC
  0
POLYLINE
  8
É}ÿg
  5
5FD
  66
     1
 10
0.000000
 20
0.000000
 30
0.000000
  70
     8
  0
VERTEX
  8
É}ÿg
  5
5FE
 10
1054.52
 20
-488.271
 30
0.000000
  70
    32
  0
VERTEX
  8
É}ÿg
  5
5FF
 10
1054.53
 20
-488.286
 30
0.000000
  70
    32
  0
VERTEX
  8
É}ÿg
  5
600
 10
1054.54
 20
-488.301
 30
0.000000
  70
    32
  0
VERTEX
  8
É}ÿg
  5
601
 10
1054.56
 20
-488.315
 30
0.000000
  70
    32
  0
VERTEX
  8
É}ÿg
  5
602
 10
1054.57
 20
-488.330
 30
0.000000
  70
    32
  0
VERTEX
  8
É}ÿg
  5
603
 10
1054.58
 20
-488.345
 30
0.000000
  70
    32
  0
VERTEX
  8
É}ÿg
  5
604
 10
1054.59
 20
-488.359
 30
0.000000
  70
    32
  0
VERTEX
  8
É}ÿg
  5
605
 10
1054.61
 20
-488.374
 30
0.000000
  70
    32
  0
VERTEX
  8
É}ÿg
  5
606
 10
1054.62
 20
-488.389
 30
0.000000
  70
    32
  0
VERTEX
  8
É}ÿg
  5
607
 10
1054.63
 20
-488.404
 30
0.000000
  70
    32
  0
VERTEX
  8
É}ÿg
  5
608
 10
1054.65
 20
-488.418
 30
0.000000
  70
    32
  0
VERTEX
  8
É}ÿg
  5
609
 10
1054.66
 20
-488.433
 30
0.000000
  70
    32
  0
VERTEX
  8
É}ÿg
  5
60A
 10
1054.67
 20
-488.448
 30
0.000000
  70
    32
  0
VERTEX
  8
É}ÿg
  5
60B
 10
1054.69
 20
-488.462
 30
0.000000
  70
    32
  0
VERTEX
  8
É}ÿg
  5
60C
 10
1054.70
 20
-488.477
 30
0.000000
  70
    32
  0
VERTEX
  8
É}ÿg
  5
60D
 10
1054.71
 20
-488.492
 30
0.000000
  70
    32
  0
VERTEX
  8
É}ÿg
  5
60E
 10
1054.73
 20
-488.506
 30
0.000000
  70
    32
  0
VERTEX
  8
É}ÿg
  5
60F
 10
1054.74
 20
-488.521
 30
0.000000
  70
    32
  0
VERTEX
  8
É}ÿg
  5
610
 10
1054.75
 20
-488.536
 30
0.000000
  70
    32
  0
VERTEX
  8
É}ÿg
  5
611
 10
1054.77
 20
-488.550
 30
0.000000
  70
    32
  0
VERTEX
  8
É}ÿg
  5
612
 10
1054.78
 20
-488.565
 30
0.000000
  70
    32
  0
VERTEX
  8
É}ÿg
  5
613
 10
1054.79
 20
-488.580
 30
0.000000
  70
    32
  0
VERTEX
  8
É}ÿg
  5
614
 10
1054.81
 20
-488.594
 30
0.000000
  70
    32
  0
VERTEX
  8
É}ÿg
  5
615
 10
1054.82
 20
-488.609
 30
0.000000
  70
    32
  0
VERTEX
  8
É}ÿg
  5
616
 10
1054.83
 20
-488.624
 30
0.000000
  70
    32
  0
VERTEX
  8
É}ÿg
  5
617
 10
1054.85
 20
-488.638
 30
0.000000
  70
    32
  0
VERTEX
  8
É}ÿg
  5
618
 10
1054.86
 20
-488.653
 30
0.000000
  70
    32
  0
VERTEX
  8
É}ÿg
  5
619
 10
1054.87
 20
-488.668
 30
0.000000
  70
    32
  0
VERTEX
  8
É}ÿg
  5
61A
 10
1054.89
 20
-488.682
 30
0.000000
  70
    32
  0
VERTEX
  8
É}ÿg
  5
61B
 10
1054.90
 20
-488.697
 30
0.000000
  70
    32
  0
VERTEX
  8
É}ÿg
  5
61C
 10
1054.91
 20
-488.712
 30
0.000000
  70
    32
  0
VERTEX
  8
É}ÿg
  5
61D
 10
1054.93
 20
-488.726
 30
0.000000
  70
    32
  0
VERTEX
  8
É}ÿg
  5
61E
 10
1054.94
 20
-488.741
 30
0.000000
  70
    32
  0
VERTEX
  8
É}ÿg
  5
61F
 10
1054.95
 20
-488.755
 30
0.000000
  70
    32
  0
VERTEX
  8
É}ÿg
  5
620
 10
1054.97
 20
-488.770
 30
0.000000
  70
    32
  0
VERTEX
  8
É}ÿg
  5
621
 10
1054.98
 20
-488.785
 30
0.000000
  70
    32
  0
VERTEX
  8
É}ÿg
  5
622
 10
1054.99
 20
-488.799
 30
0.000000
  70
    32
  0
VERTEX
  8
É}ÿg
  5
623
 10
1055.01
 20
-488.814
 30
0.000000
  70
    32
  0
VERTEX
  8
É}ÿg
  5
624
 10
1055.02
 20
-488.828
 30
0.000000
  70
    32
  0
VERTEX
  8
É}ÿg
  5
625
 10
1055.03
 20
-488.843
 30
0.000000
  70
    32
  0
VERTEX
  8
É}ÿg
  5
626
 10
1055.04
 20
-488.857
 30
0.000000
  70
    32
  0
VERTEX
  8
É}ÿg
  5
627
 10
1055.06
 20
-488.872
 30
0.000000
  70
    32
  0
VERTEX
  8
É}ÿg
  5
628
 10
1055.07
 20
-488.886
 30
0.000000
  70
    32
  0
VERTEX
  8
É}ÿg
  5
629
 10
1055.08
 20
-488.901
 30
0.000000
  70
    32
  0
VERTEX
  8
É}ÿg
  5
62A
 10
1055.10
 20
-488.916
 30
0.000000
  70
    32
  0
VERTEX
  8
É}ÿg
  5
62B
 10
1055.11
 20
-488.930
 30
0.000000
  70
    32
  0
VERTEX
  8
É}ÿg
  5
62C
 10
1055.12
 20
-488.945
 30
0.000000
  70
    32
  0
VERTEX
  8
É}ÿg
  5
62D
 10
1055.14
 20
-488.959
 30
0.000000
  70
    32
  0
VERTEX
  8
É}ÿg
  5
62E
 10
1055.15
 20
-488.973
 30
0.000000
  70
    32
  0
VERTEX
  8
É}ÿg
  5
62F
 10
1055.16
 20
-488.988
 30
0.000000
  70
    32
  0
VERTEX
  8
É}ÿg
  5
630
 10
1055.18
 20
-489.002
 30
0.000000
  70
    32
  0
VERTEX
  8
É}ÿg
  5
631
 10
1055.19
 20
-489.017
 30
0.000000
  70
    32
  0
VERTEX
  8
É}ÿg
  5
632
 10
1055.21
 20
-489.031
 30
0.000000
  70
    32
  0
VERTEX
  8
É}ÿg
  5
633
 10
1055.22
 20
-489.046
 30
0.000000
  70
    32
  0
VERTEX
  8
É}ÿg
  5
634
 10
1055.23
 20
-489.060
 30
0.000000
  70
    32
  0
VERTEX
  8
É}ÿg
  5
635
 10
1055.25
 20
-489.074
 30
0.000000
  70
    32
  0
VERTEX
  8
É}ÿg
  5
636
 10
1055.26
 20
-489.089
 30
0.000000
  70
    32
  0
VERTEX
  8
É}ÿg
  5
637
 10
1055.27
 20
-489.103
 30
0.000000
  70
    32
  0
VERTEX
  8
É}ÿg
  5
638
 10
1055.29
 20
-489.118
 30
0.000000
  70
    32
  0
VERTEX
  8
É}ÿg
  5
639
 10
1055.30
 20
-489.132
 30
0.000000
  70
    32
  0
VERTEX
  8
É}ÿg
  5
63A
 10
1055.31
 20
-489.146
 30
0.000000
  70
    32
  0
VERTEX
  8
É}ÿg
  5
63B
 10
1055.33
 20
-489.161
 30
0.000000
  70
    32
  0
VERTEX
  8
É}ÿg
  5
63C
 10
1055.34
 20
-489.175
 30
0.000000
  70
    32
  0
VERTEX
  8
É}ÿg
  5
63D
 10
1055.35
 20
-489.189
 30
0.000000
  70
    32
  0
VERTEX
  8
É}ÿg
  5
63E
 10
1055.37
 20
-489.203
 30
0.000000
  70
    32
  0
VERTEX
  8
É}ÿg
  5
63F
 10
1055.38
 20
-489.218
 30
0.000000
  70
    32
  0
VERTEX
  8
É}ÿg
  5
640
 10
1055.39
 20
-489.232
 30
0.000000
  70
    32
  0
VERTEX
  8
É}ÿg
  5
641
 10
1055.41
 20
-489.246
 30
0.000000
  70
    32
  0
VERTEX
  8
É}ÿg
  5
642
 10
1055.42
 20
-489.260
 30
0.000000
  70
    32
  0
VERTEX
  8
É}ÿg
  5
643
 10
1055.43
 20
-489.275
 30
0.000000
  70
    32
  0
VERTEX
  8
É}ÿg
  5
644
 10
1055.45
 20
-489.289
 30
0.000000
  70
    32
  0
VERTEX
  8
É}ÿg
  5
645
 10
1055.46
 20
-489.303
 30
0.000000
  70
    32
  0
VERTEX
  8
É}ÿg
  5
646
 10
1055.47
 20
-489.317
 30
0.000000
  70
    32
  0
VERTEX
  8
É}ÿg
  5
647
 10
1055.49
 20
-489.331
 30
0.000000
  70
    32
  0
VERTEX
  8
É}ÿg
  5
648
 10
1055.50
 20
-489.345
 30
0.000000
  70
    32
  0
VERTEX
  8
É}ÿg
  5
649
 10
1055.52
 20
-489.359
 30
0.000000
  70
    32
  0
VERTEX
  8
É}ÿg
  5
64A
 10
1055.53
 20
-489.373
 30
0.000000
  70
    32
  0
VERTEX
  8
É}ÿg
  5
64B
 10
1055.54
 20
-489.388
 30
0.000000
  70
    32
  0
VERTEX
  8
É}ÿg
  5
64C
 10
1055.56
 20
-489.402
 30
0.000000
  70
    32
  0
VERTEX
  8
É}ÿg
  5
64D
 10
1055.57
 20
-489.416
 30
0.000000
  70
    32
  0
VERTEX
  8
É}ÿg
  5
64E
 10
1055.58
 20
-489.430
 30
0.000000
  70
    32
  0
VERTEX
  8
É}ÿg
  5
64F
 10
1055.60
 20
-489.444
 30
0.000000
  70
    32
  0
VERTEX
  8
É}ÿg
  5
650
 10
1055.61
 20
-489.458
 30
0.000000
  70
    32
  0
VERTEX
  8
É}ÿg
  5
651
 10
1055.62
 20
-489.472
 30
0.000000
  70
    32
  0
VERTEX
  8
É}ÿg
  5
652
 10
1055.64
 20
-489.486
 30
0.000000
  70
    32
  0
VERTEX
  8
É}ÿg
  5
653
 10
1055.65
 20
-489.500
 30
0.000000
  70
    32
  0
VERTEX
  8
É}ÿg
  5
654
 10
1055.67
 20
-489.513
 30
0.000000
  70
    32
  0
VERTEX
  8
É}ÿg
  5
655
 10
1055.68
 20
-489.527
 30
0.000000
  70
    32
  0
VERTEX
  8
É}ÿg
  5
656
 10
1055.69
 20
-489.541
 30
0.000000
  70
    32
  0
VERTEX
  8
É}ÿg
  5
657
 10
1055.71
 20
-489.555
 30
0.000000
  70
    32
  0
VERTEX
  8
É}ÿg
  5
658
 10
1055.72
 20
-489.569
 30
0.000000
  70
    32
  0
VERTEX
  8
É}ÿg
  5
659
 10
1055.73
 20
-489.583
 30
0.000000
  70
    32
  0
VERTEX
  8
É}ÿg
  5
65A
 10
1055.75
 20
-489.597
 30
0.000000
  70
    32
  0
VERTEX
  8
É}ÿg
  5
65B
 10
1055.76
 20
-489.610
 30
0.000000
  70
    32
  0
VERTEX
  8
É}ÿg
  5
65C
 10
1055.78
 20
-489.624
 30
0.000000
  70
    32
  0
VERTEX
  8
É}ÿg
  5
65D
 10
1055.79
 20
-489.638
 30
0.000000
  70
    32
  0
VERTEX
  8
É}ÿg
  5
65E
 10
1055.80
 20
-489.652
 30
0.000000
  70
    32
  0
VERTEX
  8
É}ÿg
  5
65F
 10
1055.82
 20
-489.665
 30
0.000000
  70
    32
  0
VERTEX
  8
É}ÿg
  5
660
 10
1055.83
 20
-489.679
 30
0.000000
  70
    32
  0
VERTEX
  8
É}ÿg
  5
661
 10
1055.84
 20
-489.693
 30
0.000000
  70
    32
  0
VERTEX
  8
É}ÿg
  5
662
 10
1055.86
 20
-489.706
 30
0.000000
  70
    32
  0
VERTEX
  8
É}ÿg
  5
663
 10
1055.87
 20
-489.720
 30
0.000000
  70
    32
  0
VERTEX
  8
É}ÿg
  5
664
 10
1055.89
 20
-489.733
 30
0.000000
  70
    32
  0
VERTEX
  8
É}ÿg
  5
665
 10
1055.90
 20
-489.747
 30
0.000000
  70
    32
  0
VERTEX
  8
É}ÿg
  5
666
 10
1055.91
 20
-489.760
 30
0.000000
  70
    32
  0
VERTEX
  8
É}ÿg
  5
667
 10
1055.93
 20
-489.774
 30
0.000000
  70
    32
  0
VERTEX
  8
É}ÿg
  5
668
 10
1055.94
 20
-489.787
 30
0.000000
  70
    32
  0
VERTEX
  8
É}ÿg
  5
669
 10
1055.96
 20
-489.801
 30
0.000000
  70
    32
  0
VERTEX
  8
É}ÿg
  5
66A
 10
1055.97
 20
-489.814
 30
0.000000
  70
    32
  0
VERTEX
  8
É}ÿg
  5
66B
 10
1055.98
 20
-489.828
 30
0.000000
  70
    32
  0
VERTEX
  8
É}ÿg
  5
66C
 10
1056.00
 20
-489.841
 30
0.000000
  70
    32
  0
VERTEX
  8
É}ÿg
  5
66D
 10
1056.01
 20
-489.855
 30
0.000000
  70
    32
  0
VERTEX
  8
É}ÿg
  5
66E
 10
1056.03
 20
-489.868
 30
0.000000
  70
    32
  0
VERTEX
  8
É}ÿg
  5
66F
 10
1056.04
 20
-489.881
 30
0.000000
  70
    32
  0
VERTEX
  8
É}ÿg
  5
670
 10
1056.05
 20
-489.895
 30
0.000000
  70
    32
  0
VERTEX
  8
É}ÿg
  5
671
 10
1056.07
 20
-489.908
 30
0.000000
  70
    32
  0
VERTEX
  8
É}ÿg
  5
672
 10
1056.08
 20
-489.921
 30
0.000000
  70
    32
  0
VERTEX
  8
É}ÿg
  5
673
 10
1056.10
 20
-489.934
 30
0.000000
  70
    32
  0
VERTEX
  8
É}ÿg
  5
674
 10
1056.11
 20
-489.948
 30
0.000000
  70
    32
  0
VERTEX
  8
É}ÿg
  5
675
 10
1056.12
 20
-489.961
 30
0.000000
  70
    32
  0
VERTEX
  8
É}ÿg
  5
676
 10
1056.14
 20
-489.974
 30
0.000000
  70
    32
  0
VERTEX
  8
É}ÿg
  5
677
 10
1056.15
 20
-489.987
 30
0.000000
  70
    32
  0
VERTEX
  8
É}ÿg
  5
678
 10
1056.17
 20
-490.000
 30
0.000000
  70
    32
  0
VERTEX
  8
É}ÿg
  5
679
 10
1056.18
 20
-490.013
 30
0.000000
  70
    32
  0
VERTEX
  8
É}ÿg
  5
67A
 10
1056.20
 20
-490.026
 30
0.000000
  70
    32
  0
VERTEX
  8
É}ÿg
  5
67B
 10
1056.21
 20
-490.039
 30
0.000000
  70
    32
  0
VERTEX
  8
É}ÿg
  5
67C
 10
1056.22
 20
-490.052
 30
0.000000
  70
    32
  0
VERTEX
  8
É}ÿg
  5
67D
 10
1056.24
 20
-490.065
 30
0.000000
  70
    32
  0
SEQEND
  8
É}ÿg
  5
67E
  0
POLYLINE
  8
É}ÿg
  5
67F
  66
     1
 10
0.000000
 20
0.000000
 30
0.000000
  70
     8
  0
VERTEX
  8
É}ÿg
  5
680
 10
1058.56
 20
-494.768
 30
0.000000
  70
    32
  0
VERTEX
  8
É}ÿg
  5
681
 10
1058.62
 20
-494.785
 30
0.000000
  70
    32
  0
VERTEX
  8
É}ÿg
  5
682
 10
1058.67
 20
-494.802
 30
0.000000
  70
    32
  0
VERTEX
  8
É}ÿg
  5
683
 10
1058.73
 20
-494.819
 30
0.000000
  70
    32
  0
VERTEX
  8
É}ÿg
  5
684
 10
1058.78
 20
-494.836
 30
0.000000
  70
    32
  0
VERTEX
  8
É}ÿg
  5
685
 10
1058.83
 20
-494.853
 30
0.000000
  70
    32
  0
VERTEX
  8
É}ÿg
  5
686
 10
1058.89
 20
-494.870
 30
0.000000
  70
    32
  0
VERTEX
  8
É}ÿg
  5
687
 10
1058.94
 20
-494.887
 30
0.000000
  70
    32
  0
VERTEX
  8
É}ÿg
  5
688
 10
1059.00
 20
-494.903
 30
0.000000
  70
    32
  0
VERTEX
  8
É}ÿg
  5
689
 10
1059.05
 20
-494.920
 30
0.000000
  70
    32
  0
VERTEX
  8
É}ÿg
  5
68A
 10
1059.10
 20
-494.936
 30
0.000000
  70
    32
  0
VERTEX
  8
É}ÿg
  5
68B
 10
1059.16
 20
-494.952
 30
0.000000
  70
    32
  0
VERTEX
  8
É}ÿg
  5
68C
 10
1059.21
 20
-494.969
 30
0.000000
  70
    32
  0
VERTEX
  8
É}ÿg
  5
68D
 10
1059.27
 20
-494.985
 30
0.000000
  70
    32
  0
VERTEX
  8
É}ÿg
  5
68E
 10
1059.32
 20
-495.001
 30
0.000000
  70
    32
  0
VERTEX
  8
É}ÿg
  5
68F
 10
1059.38
 20
-495.017
 30
0.000000
  70
    32
  0
VERTEX
  8
É}ÿg
  5
690
 10
1059.43
 20
-495.033
 30
0.000000
  70
    32
  0
VERTEX
  8
É}ÿg
  5
691
 10
1059.49
 20
-495.049
 30
0.000000
  70
    32
  0
VERTEX
  8
É}ÿg
  5
692
 10
1059.54
 20
-495.065
 30
0.000000
  70
    32
  0
VERTEX
  8
É}ÿg
  5
693
 10
1059.59
 20
-495.081
 30
0.000000
  70
    32
  0
VERTEX
  8
É}ÿg
  5
694
 10
1059.65
 20
-495.096
 30
0.000000
  70
    32
  0
VERTEX
  8
É}ÿg
  5
695
 10
1059.70
 20
-495.112
 30
0.000000
  70
    32
  0
VERTEX
  8
É}ÿg
  5
696
 10
1059.76
 20
-495.127
 30
0.000000
  70
    32
  0
VERTEX
  8
É}ÿg
  5
697
 10
1059.81
 20
-495.143
 30
0.000000
  70
    32
  0
VERTEX
  8
É}ÿg
  5
698
 10
1059.87
 20
-495.158
 30
0.000000
  70
    32
  0
VERTEX
  8
É}ÿg
  5
699
 10
1059.92
 20
-495.174
 30
0.000000
  70
    32
  0
VERTEX
  8
É}ÿg
  5
69A
 10
1059.98
 20
-495.189
 30
0.000000
  70
    32
  0
VERTEX
  8
É}ÿg
  5
69B
 10
1060.03
 20
-495.204
 30
0.000000
  70
    32
  0
VERTEX
  8
É}ÿg
  5
69C
 10
1060.09
 20
-495.219
 30
0.000000
  70
    32
  0
VERTEX
  8
É}ÿg
  5
69D
 10
1060.14
 20
-495.234
 30
0.000000
  70
    32
  0
VERTEX
  8
É}ÿg
  5
69E
 10
1060.20
 20
-495.249
 30
0.000000
  70
    32
  0
VERTEX
  8
É}ÿg
  5
69F
 10
1060.25
 20
-495.264
 30
0.000000
  70
    32
  0
VERTEX
  8
É}ÿg
  5
6A0
 10
1060.31
 20
-495.279
 30
0.000000
  70
    32
  0
VERTEX
  8
É}ÿg
  5
6A1
 10
1060.36
 20
-495.294
 30
0.000000
  70
    32
  0
VERTEX
  8
É}ÿg
  5
6A2
 10
1060.42
 20
-495.308
 30
0.000000
  70
    32
  0
VERTEX
  8
É}ÿg
  5
6A3
 10
1060.47
 20
-495.323
 30
0.000000
  70
    32
  0
VERTEX
  8
É}ÿg
  5
6A4
 10
1060.53
 20
-495.338
 30
0.000000
  70
    32
  0
VERTEX
  8
É}ÿg
  5
6A5
 10
1060.58
 20
-495.352
 30
0.000000
  70
    32
  0
VERTEX
  8
É}ÿg
  5
6A6
 10
1060.64
 20
-495.367
 30
0.000000
  70
    32
  0
VERTEX
  8
É}ÿg
  5
6A7
 10
1060.69
 20
-495.381
 30
0.000000
  70
    32
  0
VERTEX
  8
É}ÿg
  5
6A8
 10
1060.75
 20
-495.396
 30
0.000000
  70
    32
  0
VERTEX
  8
É}ÿg
  5
6A9
 10
1060.81
 20
-495.410
 30
0.000000
  70
    32
  0
VERTEX
  8
É}ÿg
  5
6AA
 10
1060.86
 20
-495.424
 30
0.000000
  70
    32
  0
VERTEX
  8
É}ÿg
  5
6AB
 10
1060.92
 20
-495.438
 30
0.000000
  70
    32
  0
VERTEX
  8
É}ÿg
  5
6AC
 10
1060.97
 20
-495.452
 30
0.000000
  70
    32
  0
VERTEX
  8
É}ÿg
  5
6AD
 10
1061.03
 20
-495.467
 30
0.000000
  70
    32
  0
VERTEX
  8
É}ÿg
  5
6AE
 10
1061.08
 20
-495.481
 30
0.000000
  70
    32
  0
VERTEX
  8
É}ÿg
  5
6AF
 10
1061.14
 20
-495.495
 30
0.000000
  70
    32
  0
VERTEX
  8
É}ÿg
  5
6B0
 10
1061.19
 20
-495.508
 30
0.000000
  70
    32
  0
VERTEX
  8
É}ÿg
  5
6B1
 10
1061.25
 20
-495.522
 30
0.000000
  70
    32
  0
VERTEX
  8
É}ÿg
  5
6B2
 10
1061.31
 20
-495.536
 30
0.000000
  70
    32
  0
VERTEX
  8
É}ÿg
  5
6B3
 10
1061.36
 20
-495.550
 30
0.000000
  70
    32
  0
VERTEX
  8
É}ÿg
  5
6B4
 10
1061.42
 20
-495.564
 30
0.000000
  70
    32
  0
VERTEX
  8
É}ÿg
  5
6B5
 10
1061.47
 20
-495.577
 30
0.000000
  70
    32
  0
VERTEX
  8
É}ÿg
  5
6B6
 10
1061.53
 20
-495.591
 30
0.000000
  70
    32
  0
VERTEX
  8
É}ÿg
  5
6B7
 10
1061.58
 20
-495.604
 30
0.000000
  70
    32
  0
VERTEX
  8
É}ÿg
  5
6B8
 10
1061.64
 20
-495.618
 30
0.000000
  70
    32
  0
VERTEX
  8
É}ÿg
  5
6B9
 10
1061.70
 20
-495.631
 30
0.000000
  70
    32
  0
VERTEX
  8
É}ÿg
  5
6BA
 10
1061.75
 20
-495.645
 30
0.000000
  70
    32
  0
VERTEX
  8
É}ÿg
  5
6BB
 10
1061.81
 20
-495.658
 30
0.000000
  70
    32
  0
VERTEX
  8
É}ÿg
  5
6BC
 10
1061.86
 20
-495.672
 30
0.000000
  70
    32
  0
VERTEX
  8
É}ÿg
  5
6BD
 10
1061.92
 20
-495.685
 30
0.000000
  70
    32
  0
VERTEX
  8
É}ÿg
  5
6BE
 10
1061.98
 20
-495.698
 30
0.000000
  70
    32
  0
VERTEX
  8
É}ÿg
  5
6BF
 10
1062.03
 20
-495.711
 30
0.000000
  70
    32
  0
VERTEX
  8
É}ÿg
  5
6C0
 10
1062.09
 20
-495.724
 30
0.000000
  70
    32
  0
VERTEX
  8
É}ÿg
  5
6C1
 10
1062.14
 20
-495.737
 30
0.000000
  70
    32
  0
VERTEX
  8
É}ÿg
  5
6C2
 10
1062.20
 20
-495.751
 30
0.000000
  70
    32
  0
VERTEX
  8
É}ÿg
  5
6C3
 10
1062.26
 20
-495.764
 30
0.000000
  70
    32
  0
VERTEX
  8
É}ÿg
  5
6C4
 10
1062.31
 20
-495.777
 30
0.000000
  70
    32
  0
VERTEX
  8
É}ÿg
  5
6C5
 10
1062.37
 20
-495.789
 30
0.000000
  70
    32
  0
VERTEX
  8
É}ÿg
  5
6C6
 10
1062.42
 20
-495.802
 30
0.000000
  70
    32
  0
VERTEX
  8
É}ÿg
  5
6C7
 10
1062.48
 20
-495.815
 30
0.000000
  70
    32
  0
VERTEX
  8
É}ÿg
  5
6C8
 10
1062.54
 20
-495.828
 30
0.000000
  70
    32
  0
VERTEX
  8
É}ÿg
  5
6C9
 10
1062.59
 20
-495.841
 30
0.000000
  70
    32
  0
VERTEX
  8
É}ÿg
  5
6CA
 10
1062.65
 20
-495.854
 30
0.000000
  70
    32
  0
VERTEX
  8
É}ÿg
  5
6CB
 10
1062.70
 20
-495.866
 30
0.000000
  70
    32
  0
VERTEX
  8
É}ÿg
  5
6CC
 10
1062.76
 20
-495.879
 30
0.000000
  70
    32
  0
VERTEX
  8
É}ÿg
  5
6CD
 10
1062.82
 20
-495.892
 30
0.000000
  70
    32
  0
VERTEX
  8
É}ÿg
  5
6CE
 10
1062.87
 20
-495.904
 30
0.000000
  70
    32
  0
VERTEX
  8
É}ÿg
  5
6CF
 10
1062.93
 20
-495.917
 30
0.000000
  70
    32
  0
VERTEX
  8
É}ÿg
  5
6D0
 10
1062.99
 20
-495.929
 30
0.000000
  70
    32
  0
VERTEX
  8
É}ÿg
  5
6D1
 10
1063.04
 20
-495.942
 30
0.000000
  70
    32
  0
VERTEX
  8
É}ÿg
  5
6D2
 10
1063.10
 20
-495.954
 30
0.000000
  70
    32
  0
VERTEX
  8
É}ÿg
  5
6D3
 10
1063.16
 20
-495.967
 30
0.000000
  70
    32
  0
VERTEX
  8
É}ÿg
  5
6D4
 10
1063.21
 20
-495.979
 30
0.000000
  70
    32
  0
VERTEX
  8
É}ÿg
  5
6D5
 10
1063.27
 20
-495.992
 30
0.000000
  70
    32
  0
VERTEX
  8
É}ÿg
  5
6D6
 10
1063.32
 20
-496.004
 30
0.000000
  70
    32
  0
VERTEX
  8
É}ÿg
  5
6D7
 10
1063.38
 20
-496.016
 30
0.000000
  70
    32
  0
VERTEX
  8
É}ÿg
  5
6D8
 10
1063.44
 20
-496.029
 30
0.000000
  70
    32
  0
VERTEX
  8
É}ÿg
  5
6D9
 10
1063.49
 20
-496.041
 30
0.000000
  70
    32
  0
VERTEX
  8
É}ÿg
  5
6DA
 10
1063.55
 20
-496.053
 30
0.000000
  70
    32
  0
VERTEX
  8
É}ÿg
  5
6DB
 10
1063.61
 20
-496.066
 30
0.000000
  70
    32
  0
VERTEX
  8
É}ÿg
  5
6DC
 10
1063.66
 20
-496.078
 30
0.000000
  70
    32
  0
VERTEX
  8
É}ÿg
  5
6DD
 10
1063.72
 20
-496.090
 30
0.000000
  70
    32
  0
VERTEX
  8
É}ÿg
  5
6DE
 10
1063.78
 20
-496.102
 30
0.000000
  70
    32
  0
VERTEX
  8
É}ÿg
  5
6DF
 10
1063.83
 20
-496.114
 30
0.000000
  70
    32
  0
VERTEX
  8
É}ÿg
  5
6E0
 10
1063.89
 20
-496.126
 30
0.000000
  70
    32
  0
VERTEX
  8
É}ÿg
  5
6E1
 10
1063.95
 20
-496.139
 30
0.000000
  70
    32
  0
VERTEX
  8
É}ÿg
  5
6E2
 10
1064.00
 20
-496.151
 30
0.000000
  70
    32
  0
VERTEX
  8
É}ÿg
  5
6E3
 10
1064.06
 20
-496.163
 30
0.000000
  70
    32
  0
VERTEX
  8
É}ÿg
  5
6E4
 10
1064.12
 20
-496.175
 30
0.000000
  70
    32
  0
VERTEX
  8
É}ÿg
  5
6E5
 10
1064.17
 20
-496.187
 30
0.000000
  70
    32
  0
VERTEX
  8
É}ÿg
  5
6E6
 10
1064.23
 20
-496.199
 30
0.000000
  70
    32
  0
VERTEX
  8
É}ÿg
  5
6E7
 10
1064.29
 20
-496.211
 30
0.000000
  70
    32
  0
VERTEX
  8
É}ÿg
  5
6E8
 10
1064.34
 20
-496.223
 30
0.000000
  70
    32
  0
VERTEX
  8
É}ÿg
  5
6E9
 10
1064.40
 20
-496.235
 30
0.000000
  70
    32
  0
VERTEX
  8
É}ÿg
  5
6EA
 10
1064.46
 20
-496.247
 30
0.000000
  70
    32
  0
VERTEX
  8
É}ÿg
  5
6EB
 10
1064.51
 20
-496.259
 30
0.000000
  70
    32
  0
VERTEX
  8
É}ÿg
  5
6EC
 10
1064.57
 20
-496.271
 30
0.000000
  70
    32
  0
VERTEX
  8
É}ÿg
  5
6ED
 10
1064.63
 20
-496.283
 30
0.000000
  70
    32
  0
VERTEX
  8
É}ÿg
  5
6EE
 10
1064.68
 20
-496.294
 30
0.000000
  70
    32
  0
VERTEX
  8
É}ÿg
  5
6EF
 10
1064.74
 20
-496.306
 30
0.000000
  70
    32
  0
VERTEX
  8
É}ÿg
  5
6F0
 10
1064.80
 20
-496.318
 30
0.000000
  70
    32
  0
VERTEX
  8
É}ÿg
  5
6F1
 10
1064.85
 20
-496.330
 30
0.000000
  70
    32
  0
VERTEX
  8
É}ÿg
  5
6F2
 10
1064.91
 20
-496.342
 30
0.000000
  70
    32
  0
VERTEX
  8
É}ÿg
  5
6F3
 10
1064.97
 20
-496.354
 30
0.000000
  70
    32
  0
VERTEX
  8
É}ÿg
  5
6F4
 10
1065.02
 20
-496.366
 30
0.000000
  70
    32
  0
VERTEX
  8
É}ÿg
  5
6F5
 10
1065.08
 20
-496.377
 30
0.000000
  70
    32
  0
VERTEX
  8
É}ÿg
  5
6F6
 10
1065.14
 20
-496.389
 30
0.000000
  70
    32
  0
VERTEX
  8
É}ÿg
  5
6F7
 10
1065.19
 20
-496.401
 30
0.000000
  70
    32
  0
VERTEX
  8
É}ÿg
  5
6F8
 10
1065.25
 20
-496.413
 30
0.000000
  70
    32
  0
VERTEX
  8
É}ÿg
  5
6F9
 10
1065.31
 20
-496.425
 30
0.000000
  70
    32
  0
VERTEX
  8
É}ÿg
  5
6FA
 10
1065.36
 20
-496.437
 30
0.000000
  70
    32
  0
VERTEX
  8
É}ÿg
  5
6FB
 10
1065.42
 20
-496.448
 30
0.000000
  70
    32
  0
VERTEX
  8
É}ÿg
  5
6FC
 10
1065.48
 20
-496.460
 30
0.000000
  70
    32
  0
VERTEX
  8
É}ÿg
  5
6FD
 10
1065.53
 20
-496.472
 30
0.000000
  70
    32
  0
VERTEX
  8
É}ÿg
  5
6FE
 10
1065.59
 20
-496.484
 30
0.000000
  70
    32
  0
VERTEX
  8
É}ÿg
  5
6FF
 10
1065.65
 20
-496.496
 30
0.000000
  70
    32
  0
SEQEND
  8
É}ÿg
  5
700
  0
POLYLINE
  8
É}ÿg
  5
701
  66
     1
 10
0.000000
 20
0.000000
 30
0.000000
  70
     8
  0
VERTEX
  8
É}ÿg
  5
702
 10
1047.65
 20
-487.784
 30
0.000000
  70
    32
  0
VERTEX
  8
É}ÿg
  5
703
 10
1047.68
 20
-487.817
 30
0.000000
  70
    32
  0
VERTEX
  8
É}ÿg
  5
704
 10
1047.72
 20
-487.850
 30
0.000000
  70
    32
  0
VERTEX
  8
É}ÿg
  5
705
 10
1047.75
 20
-487.884
 30
0.000000
  70
    32
  0
VERTEX
  8
É}ÿg
  5
706
 10
1047.79
 20
-487.917
 30
0.000000
  70
    32
  0
VERTEX
  8
É}ÿg
  5
707
 10
1047.83
 20
-487.950
 30
0.000000
  70
    32
  0
VERTEX
  8
É}ÿg
  5
708
 10
1047.86
 20
-487.983
 30
0.000000
  70
    32
  0
VERTEX
  8
É}ÿg
  5
709
 10
1047.90
 20
-488.016
 30
0.000000
  70
    32
  0
VERTEX
  8
É}ÿg
  5
70A
 10
1047.94
 20
-488.050
 30
0.000000
  70
    32
  0
VERTEX
  8
É}ÿg
  5
70B
 10
1047.97
 20
-488.083
 30
0.000000
  70
    32
  0
VERTEX
  8
É}ÿg
  5
70C
 10
1048.01
 20
-488.116
 30
0.000000
  70
    32
  0
VERTEX
  8
É}ÿg
  5
70D
 10
1048.04
 20
-488.149
 30
0.000000
  70
    32
  0
VERTEX
  8
É}ÿg
  5
70E
 10
1048.08
 20
-488.182
 30
0.000000
  70
    32
  0
VERTEX
  8
É}ÿg
  5
70F
 10
1048.12
 20
-488.215
 30
0.000000
  70
    32
  0
VERTEX
  8
É}ÿg
  5
710
 10
1048.15
 20
-488.249
 30
0.000000
  70
    32
  0
VERTEX
  8
É}ÿg
  5
711
 10
1048.19
 20
-488.282
 30
0.000000
  70
    32
  0
VERTEX
  8
É}ÿg
  5
712
 10
1048.22
 20
-488.315
 30
0.000000
  70
    32
  0
VERTEX
  8
É}ÿg
  5
713
 10
1048.26
 20
-488.348
 30
0.000000
  70
    32
  0
VERTEX
  8
É}ÿg
  5
714
 10
1048.30
 20
-488.381
 30
0.000000
  70
    32
  0
VERTEX
  8
É}ÿg
  5
715
 10
1048.33
 20
-488.414
 30
0.000000
  70
    32
  0
VERTEX
  8
É}ÿg
  5
716
 10
1048.37
 20
-488.447
 30
0.000000
  70
    32
  0
VERTEX
  8
É}ÿg
  5
717
 10
1048.40
 20
-488.480
 30
0.000000
  70
    32
  0
VERTEX
  8
É}ÿg
  5
718
 10
1048.44
 20
-488.513
 30
0.000000
  70
    32
  0
VERTEX
  8
É}ÿg
  5
719
 10
1048.48
 20
-488.546
 30
0.000000
  70
    32
  0
VERTEX
  8
É}ÿg
  5
71A
 10
1048.51
 20
-488.579
 30
0.000000
  70
    32
  0
VERTEX
  8
É}ÿg
  5
71B
 10
1048.55
 20
-488.612
 30
0.000000
  70
    32
  0
VERTEX
  8
É}ÿg
  5
71C
 10
1048.58
 20
-488.645
 30
0.000000
  70
    32
  0
VERTEX
  8
É}ÿg
  5
71D
 10
1048.62
 20
-488.678
 30
0.000000
  70
    32
  0
VERTEX
  8
É}ÿg
  5
71E
 10
1048.66
 20
-488.711
 30
0.000000
  70
    32
  0
VERTEX
  8
É}ÿg
  5
71F
 10
1048.69
 20
-488.744
 30
0.000000
  70
    32
  0
VERTEX
  8
É}ÿg
  5
720
 10
1048.73
 20
-488.777
 30
0.000000
  70
    32
  0
VERTEX
  8
É}ÿg
  5
721
 10
1048.77
 20
-488.810
 30
0.000000
  70
    32
  0
VERTEX
  8
É}ÿg
  5
722
 10
1048.80
 20
-488.843
 30
0.000000
  70
    32
  0
VERTEX
  8
É}ÿg
  5
723
 10
1048.84
 20
-488.876
 30
0.000000
  70
    32
  0
VERTEX
  8
É}ÿg
  5
724
 10
1048.87
 20
-488.908
 30
0.000000
  70
    32
  0
VERTEX
  8
É}ÿg
  5
725
 10
1048.91
 20
-488.941
 30
0.000000
  70
    32
  0
VERTEX
  8
É}ÿg
  5
726
 10
1048.95
 20
-488.974
 30
0.000000
  70
    32
  0
VERTEX
  8
É}ÿg
  5
727
 10
1048.98
 20
-489.007
 30
0.000000
  70
    32
  0
VERTEX
  8
É}ÿg
  5
728
 10
1049.02
 20
-489.039
 30
0.000000
  70
    32
  0
VERTEX
  8
É}ÿg
  5
729
 10
1049.06
 20
-489.072
 30
0.000000
  70
    32
  0
VERTEX
  8
É}ÿg
  5
72A
 10
1049.09
 20
-489.105
 30
0.000000
  70
    32
  0
VERTEX
  8
É}ÿg
  5
72B
 10
1049.13
 20
-489.137
 30
0.000000
  70
    32
  0
VERTEX
  8
É}ÿg
  5
72C
 10
1049.16
 20
-489.170
 30
0.000000
  70
    32
  0
VERTEX
  8
É}ÿg
  5
72D
 10
1049.20
 20
-489.203
 30
0.000000
  70
    32
  0
VERTEX
  8
É}ÿg
  5
72E
 10
1049.24
 20
-489.235
 30
0.000000
  70
    32
  0
VERTEX
  8
É}ÿg
  5
72F
 10
1049.27
 20
-489.268
 30
0.000000
  70
    32
  0
VERTEX
  8
É}ÿg
  5
730
 10
1049.31
 20
-489.300
 30
0.000000
  70
    32
  0
VERTEX
  8
É}ÿg
  5
731
 10
1049.35
 20
-489.333
 30
0.000000
  70
    32
  0
VERTEX
  8
É}ÿg
  5
732
 10
1049.38
 20
-489.365
 30
0.000000
  70
    32
  0
VERTEX
  8
É}ÿg
  5
733
 10
1049.42
 20
-489.397
 30
0.000000
  70
    32
  0
VERTEX
  8
É}ÿg
  5
734
 10
1049.46
 20
-489.430
 30
0.000000
  70
    32
  0
VERTEX
  8
É}ÿg
  5
735
 10
1049.49
 20
-489.462
 30
0.000000
  70
    32
  0
VERTEX
  8
É}ÿg
  5
736
 10
1049.53
 20
-489.494
 30
0.000000
  70
    32
  0
VERTEX
  8
É}ÿg
  5
737
 10
1049.57
 20
-489.527
 30
0.000000
  70
    32
  0
VERTEX
  8
É}ÿg
  5
738
 10
1049.60
 20
-489.559
 30
0.000000
  70
    32
  0
VERTEX
  8
É}ÿg
  5
739
 10
1049.64
 20
-489.591
 30
0.000000
  70
    32
  0
VERTEX
  8
É}ÿg
  5
73A
 10
1049.68
 20
-489.623
 30
0.000000
  70
    32
  0
VERTEX
  8
É}ÿg
  5
73B
 10
1049.71
 20
-489.655
 30
0.000000
  70
    32
  0
VERTEX
  8
É}ÿg
  5
73C
 10
1049.75
 20
-489.687
 30
0.000000
  70
    32
  0
VERTEX
  8
É}ÿg
  5
73D
 10
1049.79
 20
-489.719
 30
0.000000
  70
    32
  0
VERTEX
  8
É}ÿg
  5
73E
 10
1049.82
 20
-489.751
 30
0.000000
  70
    32
  0
VERTEX
  8
É}ÿg
  5
73F
 10
1049.86
 20
-489.783
 30
0.000000
  70
    32
  0
VERTEX
  8
É}ÿg
  5
740
 10
1049.90
 20
-489.815
 30
0.000000
  70
    32
  0
VERTEX
  8
É}ÿg
  5
741
 10
1049.93
 20
-489.847
 30
0.000000
  70
    32
  0
VERTEX
  8
É}ÿg
  5
742
 10
1049.97
 20
-489.879
 30
0.000000
  70
    32
  0
VERTEX
  8
É}ÿg
  5
743
 10
1050.01
 20
-489.911
 30
0.000000
  70
    32
  0
VERTEX
  8
É}ÿg
  5
744
 10
1050.04
 20
-489.942
 30
0.000000
  70
    32
  0
VERTEX
  8
É}ÿg
  5
745
 10
1050.08
 20
-489.974
 30
0.000000
  70
    32
  0
VERTEX
  8
É}ÿg
  5
746
 10
1050.12
 20
-490.006
 30
0.000000
  70
    32
  0
VERTEX
  8
É}ÿg
  5
747
 10
1050.15
 20
-490.037
 30
0.000000
  70
    32
  0
VERTEX
  8
É}ÿg
  5
748
 10
1050.19
 20
-490.069
 30
0.000000
  70
    32
  0
VERTEX
  8
É}ÿg
  5
749
 10
1050.23
 20
-490.100
 30
0.000000
  70
    32
  0
VERTEX
  8
É}ÿg
  5
74A
 10
1050.26
 20
-490.132
 30
0.000000
  70
    32
  0
VERTEX
  8
É}ÿg
  5
74B
 10
1050.30
 20
-490.163
 30
0.000000
  70
    32
  0
VERTEX
  8
É}ÿg
  5
74C
 10
1050.34
 20
-490.194
 30
0.000000
  70
    32
  0
VERTEX
  8
É}ÿg
  5
74D
 10
1050.37
 20
-490.226
 30
0.000000
  70
    32
  0
VERTEX
  8
É}ÿg
  5
74E
 10
1050.41
 20
-490.257
 30
0.000000
  70
    32
  0
VERTEX
  8
É}ÿg
  5
74F
 10
1050.45
 20
-490.288
 30
0.000000
  70
    32
  0
VERTEX
  8
É}ÿg
  5
750
 10
1050.49
 20
-490.319
 30
0.000000
  70
    32
  0
VERTEX
  8
É}ÿg
  5
751
 10
1050.52
 20
-490.350
 30
0.000000
  70
    32
  0
VERTEX
  8
É}ÿg
  5
752
 10
1050.56
 20
-490.381
 30
0.000000
  70
    32
  0
VERTEX
  8
É}ÿg
  5
753
 10
1050.60
 20
-490.412
 30
0.000000
  70
    32
  0
VERTEX
  8
É}ÿg
  5
754
 10
1050.64
 20
-490.443
 30
0.000000
  70
    32
  0
VERTEX
  8
É}ÿg
  5
755
 10
1050.67
 20
-490.474
 30
0.000000
  70
    32
  0
VERTEX
  8
É}ÿg
  5
756
 10
1050.71
 20
-490.505
 30
0.000000
  70
    32
  0
VERTEX
  8
É}ÿg
  5
757
 10
1050.75
 20
-490.536
 30
0.000000
  70
    32
  0
VERTEX
  8
É}ÿg
  5
758
 10
1050.78
 20
-490.566
 30
0.000000
  70
    32
  0
VERTEX
  8
É}ÿg
  5
759
 10
1050.82
 20
-490.597
 30
0.000000
  70
    32
  0
VERTEX
  8
É}ÿg
  5
75A
 10
1050.86
 20
-490.628
 30
0.000000
  70
    32
  0
VERTEX
  8
É}ÿg
  5
75B
 10
1050.90
 20
-490.658
 30
0.000000
  70
    32
  0
VERTEX
  8
É}ÿg
  5
75C
 10
1050.93
 20
-490.688
 30
0.000000
  70
    32
  0
VERTEX
  8
É}ÿg
  5
75D
 10
1050.97
 20
-490.719
 30
0.000000
  70
    32
  0
VERTEX
  8
É}ÿg
  5
75E
 10
1051.01
 20
-490.749
 30
0.000000
  70
    32
  0
VERTEX
  8
É}ÿg
  5
75F
 10
1051.05
 20
-490.779
 30
0.000000
  70
    32
  0
VERTEX
  8
É}ÿg
  5
760
 10
1051.08
 20
-490.810
 30
0.000000
  70
    32
  0
VERTEX
  8
É}ÿg
  5
761
 10
1051.12
 20
-490.840
 30
0.000000
  70
    32
  0
VERTEX
  8
É}ÿg
  5
762
 10
1051.16
 20
-490.870
 30
0.000000
  70
    32
  0
VERTEX
  8
É}ÿg
  5
763
 10
1051.20
 20
-490.900
 30
0.000000
  70
    32
  0
VERTEX
  8
É}ÿg
  5
764
 10
1051.24
 20
-490.930
 30
0.000000
  70
    32
  0
VERTEX
  8
É}ÿg
  5
765
 10
1051.27
 20
-490.960
 30
0.000000
  70
    32
  0
VERTEX
  8
É}ÿg
  5
766
 10
1051.31
 20
-490.989
 30
0.000000
  70
    32
  0
VERTEX
  8
É}ÿg
  5
767
 10
1051.35
 20
-491.019
 30
0.000000
  70
    32
  0
VERTEX
  8
É}ÿg
  5
768
 10
1051.39
 20
-491.049
 30
0.000000
  70
    32
  0
VERTEX
  8
É}ÿg
  5
769
 10
1051.43
 20
-491.078
 30
0.000000
  70
    32
  0
VERTEX
  8
É}ÿg
  5
76A
 10
1051.46
 20
-491.108
 30
0.000000
  70
    32
  0
VERTEX
  8
É}ÿg
  5
76B
 10
1051.50
 20
-491.137
 30
0.000000
  70
    32
  0
VERTEX
  8
É}ÿg
  5
76C
 10
1051.54
 20
-491.167
 30
0.000000
  70
    32
  0
VERTEX
  8
É}ÿg
  5
76D
 10
1051.58
 20
-491.196
 30
0.000000
  70
    32
  0
VERTEX
  8
É}ÿg
  5
76E
 10
1051.62
 20
-491.225
 30
0.000000
  70
    32
  0
VERTEX
  8
É}ÿg
  5
76F
 10
1051.65
 20
-491.254
 30
0.000000
  70
    32
  0
VERTEX
  8
É}ÿg
  5
770
 10
1051.69
 20
-491.283
 30
0.000000
  70
    32
  0
VERTEX
  8
É}ÿg
  5
771
 10
1051.73
 20
-491.312
 30
0.000000
  70
    32
  0
VERTEX
  8
É}ÿg
  5
772
 10
1051.77
 20
-491.341
 30
0.000000
  70
    32
  0
VERTEX
  8
É}ÿg
  5
773
 10
1051.81
 20
-491.370
 30
0.000000
  70
    32
  0
VERTEX
  8
É}ÿg
  5
774
 10
1051.85
 20
-491.399
 30
0.000000
  70
    32
  0
VERTEX
  8
É}ÿg
  5
775
 10
1051.88
 20
-491.427
 30
0.000000
  70
    32
  0
VERTEX
  8
É}ÿg
  5
776
 10
1051.92
 20
-491.456
 30
0.000000
  70
    32
  0
VERTEX
  8
É}ÿg
  5
777
 10
1051.96
 20
-491.484
 30
0.000000
  70
    32
  0
VERTEX
  8
É}ÿg
  5
778
 10
1052.00
 20
-491.513
 30
0.000000
  70
    32
  0
VERTEX
  8
É}ÿg
  5
779
 10
1052.04
 20
-491.541
 30
0.000000
  70
    32
  0
VERTEX
  8
É}ÿg
  5
77A
 10
1052.08
 20
-491.570
 30
0.000000
  70
    32
  0
VERTEX
  8
É}ÿg
  5
77B
 10
1052.12
 20
-491.598
 30
0.000000
  70
    32
  0
VERTEX
  8
É}ÿg
  5
77C
 10
1052.15
 20
-491.626
 30
0.000000
  70
    32
  0
VERTEX
  8
É}ÿg
  5
77D
 10
1052.19
 20
-491.654
 30
0.000000
  70
    32
  0
VERTEX
  8
É}ÿg
  5
77E
 10
1052.23
 20
-491.682
 30
0.000000
  70
    32
  0
VERTEX
  8
É}ÿg
  5
77F
 10
1052.27
 20
-491.710
 30
0.000000
  70
    32
  0
VERTEX
  8
É}ÿg
  5
780
 10
1052.31
 20
-491.737
 30
0.000000
  70
    32
  0
VERTEX
  8
É}ÿg
  5
781
 10
1052.35
 20
-491.765
 30
0.000000
  70
    32
  0
VERTEX
  8
É}ÿg
  5
782
 10
1052.39
 20
-491.793
 30
0.000000
  70
    32
  0
VERTEX
  8
É}ÿg
  5
783
 10
1052.43
 20
-491.820
 30
0.000000
  70
    32
  0
VERTEX
  8
É}ÿg
  5
784
 10
1052.47
 20
-491.848
 30
0.000000
  70
    32
  0
VERTEX
  8
É}ÿg
  5
785
 10
1052.51
 20
-491.875
 30
0.000000
  70
    32
  0
VERTEX
  8
É}ÿg
  5
786
 10
1052.55
 20
-491.902
 30
0.000000
  70
    32
  0
VERTEX
  8
É}ÿg
  5
787
 10
1052.58
 20
-491.929
 30
0.000000
  70
    32
  0
VERTEX
  8
É}ÿg
  5
788
 10
1052.62
 20
-491.956
 30
0.000000
  70
    32
  0
VERTEX
  8
É}ÿg
  5
789
 10
1052.66
 20
-491.983
 30
0.000000
  70
    32
  0
VERTEX
  8
É}ÿg
  5
78A
 10
1052.70
 20
-492.010
 30
0.000000
  70
    32
  0
VERTEX
  8
É}ÿg
  5
78B
 10
1052.74
 20
-492.037
 30
0.000000
  70
    32
  0
VERTEX
  8
É}ÿg
  5
78C
 10
1052.78
 20
-492.064
 30
0.000000
  70
    32
  0
VERTEX
  8
É}ÿg
  5
78D
 10
1052.82
 20
-492.090
 30
0.000000
  70
    32
  0
VERTEX
  8
É}ÿg
  5
78E
 10
1052.86
 20
-492.117
 30
0.000000
  70
    32
  0
VERTEX
  8
É}ÿg
  5
78F
 10
1052.90
 20
-492.143
 30
0.000000
  70
    32
  0
VERTEX
  8
É}ÿg
  5
790
 10
1052.94
 20
-492.169
 30
0.000000
  70
    32
  0
VERTEX
  8
É}ÿg
  5
791
 10
1052.98
 20
-492.195
 30
0.000000
  70
    32
  0
VERTEX
  8
É}ÿg
  5
792
 10
1053.02
 20
-492.222
 30
0.000000
  70
    32
  0
VERTEX
  8
É}ÿg
  5
793
 10
1053.06
 20
-492.248
 30
0.000000
  70
    32
  0
VERTEX
  8
É}ÿg
  5
794
 10
1053.10
 20
-492.273
 30
0.000000
  70
    32
  0
VERTEX
  8
É}ÿg
  5
795
 10
1053.14
 20
-492.299
 30
0.000000
  70
    32
  0
VERTEX
  8
É}ÿg
  5
796
 10
1053.18
 20
-492.325
 30
0.000000
  70
    32
  0
VERTEX
  8
É}ÿg
  5
797
 10
1053.22
 20
-492.350
 30
0.000000
  70
    32
  0
VERTEX
  8
É}ÿg
  5
798
 10
1053.26
 20
-492.376
 30
0.000000
  70
    32
  0
VERTEX
  8
É}ÿg
  5
799
 10
1053.30
 20
-492.401
 30
0.000000
  70
    32
  0
VERTEX
  8
É}ÿg
  5
79A
 10
1053.34
 20
-492.427
 30
0.000000
  70
    32
  0
VERTEX
  8
É}ÿg
  5
79B
 10
1053.38
 20
-492.452
 30
0.000000
  70
    32
  0
VERTEX
  8
É}ÿg
  5
79C
 10
1053.42
 20
-492.477
 30
0.000000
  70
    32
  0
VERTEX
  8
É}ÿg
  5
79D
 10
1053.46
 20
-492.502
 30
0.000000
  70
    32
  0
VERTEX
  8
É}ÿg
  5
79E
 10
1053.50
 20
-492.527
 30
0.000000
  70
    32
  0
VERTEX
  8
É}ÿg
  5
79F
 10
1053.54
 20
-492.551
 30
0.000000
  70
    32
  0
VERTEX
  8
É}ÿg
  5
7A0
 10
1053.58
 20
-492.576
 30
0.000000
  70
    32
  0
VERTEX
  8
É}ÿg
  5
7A1
 10
1053.62
 20
-492.601
 30
0.000000
  70
    32
  0
SEQEND
  8
É}ÿg
  5
7A2
  0
INSERT
  5
F9
  8
0
  6
CONTINUOUS
  2
*U54
 10
0.0
 20
0.0
 30
0.0
  0
LINE
  5
FA
  8
É}ÿg
 10
1074.7762256394999
 20
-443.24885882479998
 30
0.0
 11
1074.7762256394999
 21
-448.04885882479999
 31
0.0
  0
LINE
  5
FB
  8
É}ÿg
 10
1042.3256835927
 20
-486.49551289099998
 30
0.0
 11
1042.3256835927
 21
-489.49551289099992
 31
0.0
  0
LINE
  5
FC
  8
É}ÿg
 10
1074.7762256394999
 20
-448.04885882479999
 30
0.0
 11
1084.3762256395
 21
-450.44885882480003
 31
0.0
  0
LINE
  5
FD
  8
É}ÿg
 10
1047.6468957139
 20
-482.49551289099998
 30
0.0
 11
1047.6468957139
 21
-486.09551289099988
 31
0.0
  0
ARC
  5
FE
  8
É}ÿg
 10
1033.3256835927
 20
-490.49551289099998
 30
0.0
 40
6.0
 50
270.0
 51
0.0
  0
LINE
  5
FF
  8
É}ÿg
 10
947.00439061609995
 20
-434.64885882480002
 30
0.0
 11
947.00439061609995
 21
-500.64885882480002
 31
0.0
  0
INSERT
  5
100
  8
0
  6
CONTINUOUS
  2
*U55
 10
0.0
 20
0.0
 30
0.0
  0
INSERT
  5
101
  8
0
  6
CONTINUOUS
  2
*U56
 10
0.0
 20
0.0
 30
0.0
  0
INSERT
  5
102
  8
0
  6
CONTINUOUS
  2
*U57
 10
0.0
 20
0.0
 30
0.0
  0
INSERT
  5
103
  8
0
  6
CONTINUOUS
  2
*U58
 10
0.0
 20
0.0
 30
0.0
  0
LINE
  5
104
  8
É}ÿg
 10
1022.0043906161
 20
-456.64885882480002
 30
0.0
 11
1022.0043906161
 21
-478.6488588247999
 31
0.0
  0
LINE
  5
105
  8
É}ÿg
 10
947.00439061609995
 20
-478.6488588247999
 30
0.0
 11
1237.0043906161
 21
-478.6488588247999
 31
0.0
  0
LINE
  5
106
  8
É}ÿg
 10
952.00439061609995
 20
-467.64885882480002
 30
0.0
 11
1017.0043906161
 21
-467.64885882480002
 31
0.0
  0
LINE
  5
107
  8
É}ÿg
 10
1027.0043906161
 20
-467.64885882480002
 30
0.0
 11
1092.0043906161
 21
-467.64885882480002
 31
0.0
  0
INSERT
  5
108
  8
0
  6
CONTINUOUS
  2
*U59
 10
0.0
 20
0.0
 30
0.0
  0
INSERT
  5
109
  8
0
  6
CONTINUOUS
  2
*U60
 10
0.0
 20
0.0
 30
0.0
  0
LINE
  5
10A
  8
É}ÿg
 10
965.00439061609995
 20
-424.6488588247999
 30
0.0
 11
965.00439061609995
 21
-414.64885882480002
 31
0.0
  0
LINE
  5
10B
  8
É}ÿg
 10
947.00439061609995
 20
-424.6488588247999
 30
0.0
 11
947.00439061609995
 21
-414.64885882480002
 31
0.0
  0
LINE
  5
10C
  8
É}ÿg
 10
1175.0043906161
 20
-424.6488588247999
 30
0.0
 11
1175.0043906161
 21
-414.64885882480002
 31
0.0
  0
LINE
  5
10D
  8
É}ÿg
 10
1157.0043906161
 20
-424.6488588247999
 30
0.0
 11
1157.0043906161
 21
-414.64885882480002
 31
0.0
  0
LINE
  5
10E
  8
É}ÿg
 10
1237.0043906161
 20
-414.64885882480002
 30
0.0
 11
947.00439061609995
 21
-414.64885882480002
 31
0.0
  0
LINE
  5
10F
  8
É}ÿg
 10
947.00439061609995
 20
-424.6488588247999
 30
0.0
 11
1237.0043906161
 21
-424.6488588247999
 31
0.0
  0
LINE
  5
110
  8
É}ÿg
 10
1065.0043906161
 20
-424.6488588247999
 30
0.0
 11
1065.0043906161
 21
-414.64885882480002
 31
0.0
  0
INSERT
  5
111
  8
0
  6
CONTINUOUS
  2
*U61
 10
0.0
 20
0.0
 30
0.0
  0
INSERT
  5
112
  8
0
  6
CONTINUOUS
  2
*U62
 10
0.0
 20
0.0
 30
0.0
  0
CIRCLE
  5
113
  8
É}ÿg
 10
1063.8043906160999
 20
-445.6488588247999
 30
0.0
 40
2.399999999999999
  0
LINE
  5
114
  8
É}ÿg
 10
1074.7762256394999
 20
-448.04885882479999
 30
0.0
 11
1084.3762256395
 21
-450.44885882480003
 31
0.0
  0
LINE
  5
115
  8
É}ÿg
 10
1074.7762256394999
 20
-443.24885882479998
 30
0.0
 11
1074.7762256394999
 21
-448.04885882479999
 31
0.0
  0
LINE
  5
116
  8
É}ÿg
 10
1084.3762256395
 20
-440.8488588248
 30
0.0
 11
1084.3762256395
 21
-450.44885882480003
 31
0.0
  0
LINE
  5
117
  8
É}ÿg
  6
BORDER
 10
1063.8043906160999
 20
-438.44885882480003
 30
0.0
 11
1063.8043906160999
 21
-452.8488588248
 31
0.0
  0
LINE
  5
118
  8
É}ÿg
  6
BORDER
 10
1063.8043906160999
 20
-438.44885882480003
 30
0.0
 11
1063.8043906160999
 21
-452.8488588248
 31
0.0
  0
LINE
  5
119
  8
É}ÿg
 10
1084.3762256395
 20
-440.8488588248
 30
0.0
 11
1084.3762256395
 21
-450.44885882480003
 31
0.0
  0
LINE
  5
11A
  8
É}ÿg
 10
1074.7762256394999
 20
-443.24885882479998
 30
0.0
 11
1074.7762256394999
 21
-448.04885882479999
 31
0.0
  0
LINE
  5
11B
  8
É}ÿg
 10
1074.7762256394999
 20
-448.04885882479999
 30
0.0
 11
1084.3762256395
 21
-450.44885882480003
 31
0.0
  0
LINE
  5
11C
  8
É}ÿg
 10
1074.7762256394999
 20
-443.24885882479998
 30
0.0
 11
1084.3762256395
 21
-440.8488588248
 31
0.0
  0
CIRCLE
  5
11D
  8
É}ÿg
 10
1063.8043906160999
 20
-445.6488588247999
 30
0.0
 40
4.7999999999999989
  0
CIRCLE
  5
11E
  8
É}ÿg
 10
1063.8043906160999
 20
-445.6488588247999
 30
0.0
 40
2.399999999999999
  0
CIRCLE
  5
11F
  8
É}ÿg
 10
1063.8043906160999
 20
-445.6488588247999
 30
0.0
 40
4.7999999999999989
  0
LINE
  5
120
  8
É}ÿg
 10
1074.7762256394999
 20
-443.24885882479998
 30
0.0
 11
1084.3762256395
 21
-440.8488588248
 31
0.0
  0
ENDBLK
  5
121
  8
0
  0
BLOCK
  8
0
  2
*D8
 70
     1
 10
0.0
 20
0.0
 30
0.0
  3
*D8
  1

  0
TEXT
  5
127
  8
0
 62
     0
 10
818.96073550759991
 20
-119.33655178879999
 30
0.0
 40
5.9972220420999998
  1
190
 50
90.0
  0
LINE
  5
128
  8
0
 62
     0
 10
783.15812130999996
 20
-209.04488528109999
 30
0.0
 11
823.01906880910008
 21
-209.04488528109999
 31
0.0
  0
LINE
  5
129
  8
0
 62
     0
 10
783.15812130999996
 20
-19.044885281100001
 30
0.0
 11
823.01906880910008
 21
-19.044885281100001
 31
0.0
  0
LINE
  5
12A
  8
0
 62
     0
 10
821.01906880909996
 20
-209.04488528109999
 30
0.0
 11
821.01906880909996
 21
-105.2254411015
 31
0.0
  0
LINE
  5
12B
  8
0
 62
     0
 10
821.01906880909996
 20
-209.04488528109999
 30
0.0
 11
821.01906880909996
 21
-122.8643294606
 31
0.0
  0
LINE
  5
12C
  8
0
 62
     0
 10
821.01906880909996
 20
-19.044885281100001
 30
0.0
 11
821.01906880909996
 21
-105.2254411015
 31
0.0
  0
LINE
  5
12D
  8
0
 62
     0
 10
821.01906880909996
 20
-19.044885281100001
 30
0.0
 11
821.01906880909996
 21
-122.8643294606
 31
0.0
  0
LINE
  5
12E
  8
0
 62
     0
 10
821.01906880909996
 20
-19.044885281100001
 30
0.0
 11
821.01906880909996
 21
-24.044885281100001
 31
0.0
  0
SOLID
  5
12F
  8
0
 62
     0
 10
821.01906880909996
 20
-19.044885281100001
 30
0.0
 11
822.51906880909996
 21
-25.045216682900001
 31
0.0
 12
819.51906880910008
 22
-25.045216682900001
 32
0.0
 13
821.01906880909996
 23
-23.545133832400001
 33
0.0
  0
LINE
  5
130
  8
0
 62
     0
 10
821.01906880909996
 20
-209.04488528109999
 30
0.0
 11
821.01906880909996
 21
-204.04488528109999
 31
0.0
  0
SOLID
  5
131
  8
0
 62
     0
 10
821.01906880909996
 20
-209.04488528109999
 30
0.0
 11
819.51906880910008
 21
-203.0445538793
 31
0.0
 12
822.51906880909996
 22
-203.0445538793
 32
0.0
 13
821.01906880909996
 23
-204.54463672969999
 33
0.0
  0
ENDBLK
  5
132
  8
0
  0
BLOCK
  8
0
  2
CLUMP8
 70
     0
 10
0.0
 20
0.0
 30
0.0
  3
CLUMP8
  1

  0
LINE
  5
13C
  8
┌▓È_1
  6
STITCH
 10
764.65812130999996
 20
-24.044885281100001
 30
0.0
 11
764.65812130999996
 21
-204.04488528109999
 31
0.0
  0
LINE
  5
13D
  8
┌▓È_1
  6
STITCH
 10
764.65812130999996
 20
-204.04488528109999
 30
0.0
 11
757.65812130999996
 21
-204.04488528109999
 31
0.0
  0
LINE
  5
13E
  8
┌▓È_1
  6
STITCH
 10
757.65812130999996
 20
-204.04488528109999
 30
0.0
 11
757.65812130999996
 21
-24.044885281100001
 31
0.0
  0
LINE
  5
13F
  8
┌▓È_1
  6
STITCH
 10
757.65812130999996
 20
-24.044885281100001
 30
0.0
 11
764.65812130999996
 21
-24.044885281100001
 31
0.0
  0
LINE
  5
140
  8
┌▓È_1
  6
BORDER
 62
     3
 10
761.15812130999996
 20
-207.04488528109999
 30
0.0
 11
761.15812130999996
 21
-21.044885281100001
 31
0.0
  0
ENDBLK
  5
141
  8
0
  0
BLOCK
  8
0
  2
BALLON0
 70
     0
 10
0.0
 20
0.0
 30
0.0
  3
BALLON0
  1

  0
INSERT
  5
14B
  8
0
  6
CONTINUOUS
  2
*U64
 10
0.0
 20
0.0
 30
0.0
  0
CIRCLE
  5
14C
  8
┌▓È_1
 10
752.26016450229997
 20
-250.79488528109999
 30
0.0
 40
8.0
  0
LINE
  5
14D
  8
Éíû@É³
 10
738.92683116899991
 20
-250.79488528109999
 30
0.0
 11
744.26016450229997
 21
-250.79488528109999
 31
0.0
  0
LINE
  5
14E
  8
Éíû@É³
 10
700.96801714330002
 20
-177.29488528109999
 30
0.0
 11
738.92683116899991
 21
-250.79488528109999
 31
0.0
  0
SOLID
  5
14F
  8
Éíû@É³
 10
700.96801714330002
 20
-177.29488528109999
 30
0.0
 11
706.06055109710007
 21
-183.66874580109999
 31
0.0
 12
703.90475702779986
 22
-182.98132167399999
 32
0.0
 13
703.90475702779986
 23
-182.98132167399999
 33
0.0
  0
SOLID
  5
150
  8
Éíû@É³
 10
703.90475702779986
 20
-182.98132167399999
 30
0.0
 11
703.21733290069994
 21
-185.13711574339999
 31
0.0
 12
700.96801714330002
 22
-177.29488528109999
 32
0.0
 13
700.96801714330002
 23
-177.29488528109999
 33
0.0
  0
ENDBLK
  5
151
  8
0
  0
BLOCK
  8
0
  2
*D11
 70
     1
 10
0.0
 20
0.0
 30
0.0
  3
*D11
  1

  0
TEXT
  5
154
  8
0
 62
     0
 10
992.55603081289996
 20
18.304005881799998
 30
0.0
 40
5.9972220420999998
  1
95
  0
LINE
  5
155
  8
0
 62
     0
 10
1043.5838084847001
 20
-20.044885281100001
 30
0.0
 11
1043.5838084847001
 21
18.245672580299999
 31
0.0
  0
LINE
  5
156
  8
0
 62
     0
 10
948.58380848470006
 20
-19.044885281100001
 30
0.0
 11
948.58380848470006
 21
18.245672580299999
 31
0.0
  0
LINE
  5
157
  8
0
 62
     0
 10
1043.5838084847001
 20
16.245672580299999
 30
0.0
 11
1003.1393638284
 21
16.245672580299999
 31
0.0
  0
LINE
  5
158
  8
0
 62
     0
 10
1043.5838084847001
 20
16.245672580299999
 30
0.0
 11
989.02825314109987
 21
16.245672580299999
 31
0.0
  0
LINE
  5
159
  8
0
 62
     0
 10
948.58380848470006
 20
16.245672580299999
 30
0.0
 11
1003.1393638284
 21
16.245672580299999
 31
0.0
  0
LINE
  5
15A
  8
0
 62
     0
 10
948.58380848470006
 20
16.245672580299999
 30
0.0
 11
989.02825314109987
 21
16.245672580299999
 31
0.0
  0
LINE
  5
15B
  8
0
 62
     0
 10
948.58380848470006
 20
16.245672580299999
 30
0.0
 11
953.58380848469994
 21
16.245672580299999
 31
0.0
  0
SOLID
  5
15C
  8
0
 62
     0
 10
948.58380848470006
 20
16.245672580299999
 30
0.0
 11
954.58413988649988
 21
17.745672580299999
 31
0.0
 12
954.58413988649988
 22
14.745672580300001
 32
0.0
 13
953.08405703610003
 23
16.245672580299999
 33
0.0
  0
LINE
  5
15D
  8
0
 62
     0
 10
1043.5838084847001
 20
16.245672580299999
 30
0.0
 11
1038.5838084847001
 21
16.245672580299999
 31
0.0
  0
SOLID
  5
15E
  8
0
 62
     0
 10
1043.5838084847001
 20
16.245672580299999
 30
0.0
 11
1037.5834770828999
 21
14.745672580300001
 31
0.0
 12
1037.5834770828999
 22
17.745672580299999
 32
0.0
 13
1039.0835599334
 23
16.245672580299999
 33
0.0
  0
ENDBLK
  5
15F
  8
0
  0
BLOCK
  8
0
  2
*D12
 70
     1
 10
0.0
 20
0.0
 30
0.0
  3
*D12
  1

  0
TEXT
  5
164
  8
0
 62
     0
 10
1016.5560308129
 20
-78.486551979499993
 30
0.0
 40
5.9972220420999998
  1
47
  0
LINE
  5
165
  8
0
 62
     0
 10
1043.5838084847001
 20
-113.04488528109999
 30
0.0
 11
1043.5838084847001
 21
-80.544885281099994
 31
0.0
  0
LINE
  5
166
  8
0
 62
     0
 10
996.58380848469994
 20
-100.54488528109999
 30
0.0
 11
996.58380848469994
 21
-80.544885281099994
 31
0.0
  0
LINE
  5
167
  8
0
 62
     0
 10
1043.5838084847001
 20
-81.544885281099994
 30
0.0
 11
1027.1393638284001
 21
-81.544885281099994
 31
0.0
  0
LINE
  5
168
  8
0
 62
     0
 10
1043.5838084847001
 20
-81.544885281099994
 30
0.0
 11
1013.0282531411
 21
-81.544885281099994
 31
0.0
  0
LINE
  5
169
  8
0
 62
     0
 10
996.58380848469994
 20
-81.544885281099994
 30
0.0
 11
1027.1393638284001
 21
-81.544885281099994
 31
0.0
  0
LINE
  5
16A
  8
0
 62
     0
 10
996.58380848469994
 20
-81.544885281099994
 30
0.0
 11
1013.0282531411
 21
-81.544885281099994
 31
0.0
  0
LINE
  5
16B
  8
0
 62
     0
 10
996.58380848469994
 20
-81.544885281099994
 30
0.0
 11
1002.5838084846999
 21
-81.544885281099994
 31
0.0
  0
SOLID
  5
16C
  8
0
 62
     0
 10
996.58380848469994
 20
-81.544885281099994
 30
0.0
 11
1002.5838084846999
 21
-80.044885281099994
 31
0.0
 12
1002.5838084846999
 22
-83.044885281099994
 32
0.0
 13
1001.0838084846999
 23
-81.544885281099994
 33
0.0
  0
LINE
  5
16D
  8
0
 62
     0
 10
1043.5838084847001
 20
-81.544885281099994
 30
0.0
 11
1037.5838084847001
 21
-81.544885281099994
 31
0.0
  0
SOLID
  5
16E
  8
0
 62
     0
 10
1043.5838084847001
 20
-81.544885281099994
 30
0.0
 11
1037.5838084847001
 21
-83.044885281099994
 31
0.0
 12
1037.5838084847001
 22
-80.044885281099994
 32
0.0
 13
1039.0838084847001
 23
-81.544885281099994
 33
0.0
  0
ENDBLK
  5
16F
  8
0
  0
BLOCK
  8
0
  2
BALLON1
 70
     0
 10
0.0
 20
0.0
 30
0.0
  3
BALLON1
  1

  0
INSERT
  5
17D
  8
0
  6
CONTINUOUS
  2
*U68
 10
0.0
 20
0.0
 30
0.0
  0
CIRCLE
  5
17E
  8
┌▓È_1
 10
650.49450532669994
 20
-250.79488528109999
 30
0.0
 40
8.0
  0
LINE
  5
17F
  8
Éíû@É³
 10
637.16117199339999
 20
-250.79488528109999
 30
0.0
 11
642.49450532669994
 21
-250.79488528109999
 31
0.0
  0
LINE
  5
180
  8
Éíû@É³
 10
593.90849510750002
 20
-315.16544740299997
 30
0.0
 11
637.16117199339999
 21
-250.79488528109999
 31
0.0
  0
SOLID
  5
181
  8
Éíû@É³
 10
593.90849510750002
 20
-315.16544740299997
 30
0.0
 11
597.04223109010002
 21
-307.63287156270002
 31
0.0
 12
597.47791906960003
 22
-309.85327152320002
 32
0.0
 13
597.47791906960003
 23
-309.85327152320002
 33
0.0
  0
SOLID
  5
182
  8
Éíû@É³
 10
597.47791906960003
 20
-309.85327152320002
 30
0.0
 11
599.69831903010004
 21
-309.4175835437
 31
0.0
 12
593.90849510750002
 22
-315.16544740299997
 32
0.0
 13
593.90849510750002
 23
-315.16544740299997
 33
0.0
  0
ENDBLK
  5
183
  8
0
  0
BLOCK
  8
0
  2
BALLON2
 70
     0
 10
0.0
 20
0.0
 30
0.0
  3
BALLON2
  1

  0
INSERT
  5
188
  8
0
  6
CONTINUOUS
  2
*U69
 10
0.0
 20
0.0
 30
0.0
  0
CIRCLE
  5
189
  8
┌▓È_1
 10
561.94982287389985
 20
-250.79488528109999
 30
0.0
 40
8.0
  0
LINE
  5
18A
  8
Éíû@É³
 10
575.28315620730007
 20
-250.79488528109999
 30
0.0
 11
569.94982287389985
 21
-250.79488528109999
 31
0.0
  0
LINE
  5
18B
  8
Éíû@É³
 10
610.69718380999996
 20
-209.04488528109999
 30
0.0
 11
575.28315620730007
 21
-250.79488528109999
 31
0.0
  0
SOLID
  5
18C
  8
Éíû@É³
 10
610.69718380999996
 20
-209.04488528109999
 30
0.0
 11
606.74239401939997
 21
-216.18068500589999
 31
0.0
 12
606.55722247489985
 22
-213.9255327939
 32
0.0
 13
606.55722247489985
 23
-213.9255327939
 33
0.0
  0
SOLID
  5
18D
  8
Éíû@É³
 10
606.55722247489985
 20
-213.9255327939
 30
0.0
 11
604.30207026300002
 21
-214.1107043383
 31
0.0
 12
610.69718380999996
 22
-209.04488528109999
 32
0.0
 13
610.69718380999996
 23
-209.04488528109999
 33
0.0
  0
ENDBLK
  5
18E
  8
0
  0
BLOCK
  8
0
  2
*D15
 70
     1
 10
0.0
 20
0.0
 30
0.0
  3
*D15
  1

  0
TEXT
  5
191
  8
0
 62
     0
 10
662.36645480219988
 20
24.109152721099999
 30
0.0
 40
5.9972220420999998
  1
235
  0
LINE
  5
192
  8
0
 62
     0
 10
785.15812130999996
 20
-21.044885281100001
 30
0.0
 11
785.15812130999996
 21
24.050819419500002
 31
0.0
  0
LINE
  5
193
  8
0
 62
     0
 10
550.15812130999996
 20
-21.044885281100001
 30
0.0
 11
550.15812130999996
 21
24.050819419500002
 31
0.0
  0
LINE
  5
194
  8
0
 62
     0
 10
785.15812130999996
 20
22.050819419500002
 30
0.0
 11
676.47756548949985
 21
22.050819419500002
 31
0.0
  0
LINE
  5
195
  8
0
 62
     0
 10
785.15812130999996
 20
22.050819419500002
 30
0.0
 11
658.83867713040001
 21
22.050819419500002
 31
0.0
  0
LINE
  5
196
  8
0
 62
     0
 10
550.15812130999996
 20
22.050819419500002
 30
0.0
 11
676.47756548949985
 21
22.050819419500002
 31
0.0
  0
LINE
  5
197
  8
0
 62
     0
 10
550.15812130999996
 20
22.050819419500002
 30
0.0
 11
658.83867713040001
 21
22.050819419500002
 31
0.0
  0
LINE
  5
198
  8
0
 62
     0
 10
550.15812130999996
 20
22.050819419500002
 30
0.0
 11
555.15812130999996
 21
22.050819419500002
 31
0.0
  0
SOLID
  5
199
  8
0
 62
     0
 10
550.15812130999996
 20
22.050819419500002
 30
0.0
 11
556.1584527117999
 21
23.550819419500002
 31
0.0
 12
556.1584527117999
 22
20.550819419500002
 32
0.0
 13
554.6583698613
 23
22.050819419500002
 33
0.0
  0
LINE
  5
19A
  8
0
 62
     0
 10
785.15812130999996
 20
22.050819419500002
 30
0.0
 11
780.15812130999996
 21
22.050819419500002
 31
0.0
  0
SOLID
  5
19B
  8
0
 62
     0
 10
785.15812130999996
 20
22.050819419500002
 30
0.0
 11
779.15778990809997
 21
20.550819419500002
 31
0.0
 12
779.15778990809997
 22
23.550819419500002
 32
0.0
 13
780.65787275859998
 23
22.050819419500002
 33
0.0
  0
ENDBLK
  5
19C
  8
0
  0
BLOCK
  8
0
  2
*D16
 70
     1
 10
0.0
 20
0.0
 30
0.0
  3
*D16
  1

  0
TEXT
  5
1A7
  8
0
 62
     0
 10
658.83867713040001
 20
-447.46609825609988
 30
0.0
 40
5.9972220420999998
  1
(230)
  0
LINE
  5
1A8
  8
0
 62
     0
 10
552.65812130999996
 20
-399.55699427799999
 30
0.0
 11
552.65812130999996
 21
-451.5244315576
 31
0.0
  0
LINE
  5
1A9
  8
0
 62
     0
 10
782.65812130999996
 20
-399.55699427799999
 30
0.0
 11
782.65812130999996
 21
-451.5244315576
 31
0.0
  0
LINE
  5
1AA
  8
0
 62
     0
 10
552.65812130999996
 20
-449.5244315576
 30
0.0
 11
680.00534316129995
 21
-449.5244315576
 31
0.0
  0
LINE
  5
1AB
  8
0
 62
     0
 10
552.65812130999996
 20
-449.5244315576
 30
0.0
 11
655.31089945860003
 21
-449.5244315576
 31
0.0
  0
LINE
  5
1AC
  8
0
 62
     0
 10
782.65812130999996
 20
-449.5244315576
 30
0.0
 11
680.00534316129995
 21
-449.5244315576
 31
0.0
  0
LINE
  5
1AD
  8
0
 62
     0
 10
782.65812130999996
 20
-449.5244315576
 30
0.0
 11
655.31089945860003
 21
-449.5244315576
 31
0.0
  0
LINE
  5
1AE
  8
0
 62
     0
 10
782.65812130999996
 20
-449.5244315576
 30
0.0
 11
777.65812130999996
 21
-449.5244315576
 31
0.0
  0
SOLID
  5
1AF
  8
0
 62
     0
 10
782.65812130999996
 20
-449.5244315576
 30
0.0
 11
776.65778990809986
 21
-451.0244315576
 31
0.0
 12
776.65778990809986
 22
-448.02443155759988
 32
0.0
 13
778.15787275859986
 23
-449.5244315576
 33
0.0
  0
LINE
  5
1B0
  8
0
 62
     0
 10
552.65812130999996
 20
-449.5244315576
 30
0.0
 11
557.65812130999996
 21
-449.5244315576
 31
0.0
  0
SOLID
  5
1B1
  8
0
 62
     0
 10
552.65812130999996
 20
-449.5244315576
 30
0.0
 11
558.65845271180001
 21
-448.02443155759988
 31
0.0
 12
558.65845271180001
 22
-451.0244315576
 32
0.0
 13
557.15836986129989
 23
-449.5244315576
 33
0.0
  0
ENDBLK
  5
1B2
  8
0
  0
BLOCK
  8
0
  2
*D17
 70
     1
 10
0.0
 20
0.0
 30
0.0
  3
*D17
  1

  0
TEXT
  5
1B7
  8
0
 62
     0
 10
651.78312178680005
 20
-428.42266128609992
 30
0.0
 40
5.9972220420999998
  1
(217)ôÓÉí
  0
LINE
  5
1B8
  8
0
 62
     0
 10
559.15812130999996
 20
-398.5569942780001
 30
0.0
 11
559.15812130999996
 21
-435.48099458759998
 31
0.0
  0
LINE
  5
1B9
  8
0
 62
     0
 10
776.15812130999996
 20
-398.5569942780001
 30
0.0
 11
776.15812130999996
 21
-435.48099458759998
 31
0.0
  0
LINE
  5
1BA
  8
0
 62
     0
 10
559.15812130999996
 20
-431.48099458759998
 30
0.0
 11
687.06089850490002
 21
-431.48099458759998
 31
0.0
  0
LINE
  5
1BB
  8
0
 62
     0
 10
559.15812130999996
 20
-431.48099458759998
 30
0.0
 11
648.25534411499984
 21
-431.48099458759998
 31
0.0
  0
LINE
  5
1BC
  8
0
 62
     0
 10
776.15812130999996
 20
-431.48099458759998
 30
0.0
 11
687.06089850490002
 21
-431.48099458759998
 31
0.0
  0
LINE
  5
1BD
  8
0
 62
     0
 10
776.15812130999996
 20
-431.48099458759998
 30
0.0
 11
648.25534411499984
 21
-431.48099458759998
 31
0.0
  0
LINE
  5
1BE
  8
0
 62
     0
 10
776.15812130999996
 20
-431.48099458759998
 30
0.0
 11
766.15812130999996
 21
-431.48099458759998
 31
0.0
  0
SOLID
  5
1BF
  8
0
 62
     0
 10
776.15812130999996
 20
-431.48099458759998
 30
0.0
 11
770.15778990809997
 21
-432.98099458759998
 31
0.0
 12
770.15778990809997
 22
-429.98099458759998
 32
0.0
 13
771.65787275859986
 23
-431.48099458759998
 33
0.0
  0
LINE
  5
1C0
  8
0
 62
     0
 10
559.15812130999996
 20
-431.48099458759998
 30
0.0
 11
569.15812130999996
 21
-431.48099458759998
 31
0.0
  0
SOLID
  5
1C1
  8
0
 62
     0
 10
559.15812130999996
 20
-431.48099458759998
 30
0.0
 11
565.15845271180001
 21
-429.98099458759998
 31
0.0
 12
565.15845271180001
 22
-432.98099458759998
 32
0.0
 13
563.6583698613
 23
-431.48099458759998
 33
0.0
  0
ENDBLK
  5
1C2
  8
0
  0
BLOCK
  8
0
  2
BALLON3
 70
     0
 10
0.0
 20
0.0
 30
0.0
  3
BALLON3
  1

  0
INSERT
  5
1C8
  8
0
  6
CONTINUOUS
  2
*U72
 10
0.0
 20
0.0
 30
0.0
  0
CIRCLE
  5
1C9
  8
┌▓È_1
 10
709.88719402939989
 20
-250.79488528109999
 30
0.0
 40
8.0
  0
LINE
  5
1CA
  8
Éíû@É³
 10
723.22052736269995
 20
-250.79488528109999
 30
0.0
 11
717.88719402939989
 21
-250.79488528109999
 31
0.0
  0
LINE
  5
1CB
  8
Éíû@É³
 10
758.35328156080004
 20
-309.46346281619998
 30
0.0
 11
723.22052736269995
 21
-250.79488528109999
 31
0.0
  0
SOLID
  5
1CC
  8
Éíû@É³
 10
758.35328156080004
 20
-309.46346281619998
 30
0.0
 11
752.87050598769997
 21
-303.42200835429998
 31
0.0
 12
755.06521642179985
 22
-303.97268621889998
 32
0.0
 13
755.06521642179985
 23
-303.97268621889998
 33
0.0
  0
SOLID
  5
1CD
  8
Éíû@É³
 10
755.06521642179985
 20
-303.97268621889998
 30
0.0
 11
755.61589428640002
 21
-301.77797578479999
 31
0.0
 12
758.35328156080004
 22
-309.46346281619998
 32
0.0
 13
758.35328156080004
 23
-309.46346281619998
 33
0.0
  0
ENDBLK
  5
1CE
  8
0
  0
BLOCK
  8
0
  2
*D19
 70
     1
 10
0.0
 20
0.0
 30
0.0
  3
*D19
  1

  0
TEXT
  5
1D8
  8
0
 62
     0
 10
1099.9834372193
 20
-122.8643294606
 30
0.0
 40
5.9972220420999998
  1
(186)
 50
90.0
  0
LINE
  5
1D9
  8
0
 62
     0
 10
1044.5838084847001
 20
-207.04488528109999
 30
0.0
 11
1104.0417705208999
 21
-207.04488528109999
 31
0.0
  0
LINE
  5
1DA
  8
0
 62
     0
 10
1044.5838084847001
 20
-21.044885281100001
 30
0.0
 11
1104.0417705208999
 21
-21.044885281100001
 31
0.0
  0
LINE
  5
1DB
  8
0
 62
     0
 10
1102.0417705208999
 20
-207.04488528109999
 30
0.0
 11
1102.0417705208999
 21
-101.6976634297
 31
0.0
  0
LINE
  5
1DC
  8
0
 62
     0
 10
1102.0417705208999
 20
-207.04488528109999
 30
0.0
 11
1102.0417705208999
 21
-126.3921071324
 31
0.0
  0
LINE
  5
1DD
  8
0
 62
     0
 10
1102.0417705208999
 20
-21.044885281100001
 30
0.0
 11
1102.0417705208999
 21
-101.6976634297
 31
0.0
  0
LINE
  5
1DE
  8
0
 62
     0
 10
1102.0417705208999
 20
-21.044885281100001
 30
0.0
 11
1102.0417705208999
 21
-126.3921071324
 31
0.0
  0
LINE
  5
1DF
  8
0
 62
     0
 10
1102.0417705208999
 20
-21.044885281100001
 30
0.0
 11
1102.0417705208999
 21
-26.044885281100001
 31
0.0
  0
SOLID
  5
1E0
  8
0
 62
     0
 10
1102.0417705208999
 20
-21.044885281100001
 30
0.0
 11
1103.5417705208999
 21
-27.045216682900001
 31
0.0
 12
1100.5417705208999
 22
-27.045216682900001
 32
0.0
 13
1102.0417705208999
 23
-25.545133832400001
 33
0.0
  0
LINE
  5
1E1
  8
0
 62
     0
 10
1102.0417705208999
 20
-207.04488528109999
 30
0.0
 11
1102.0417705208999
 21
-202.04488528109999
 31
0.0
  0
SOLID
  5
1E2
  8
0
 62
     0
 10
1102.0417705208999
 20
-207.04488528109999
 30
0.0
 11
1100.5417705208999
 21
-201.0445538793
 31
0.0
 12
1103.5417705208999
 22
-201.0445538793
 32
0.0
 13
1102.0417705208999
 23
-202.54463672969999
 33
0.0
  0
ENDBLK
  5
1E3
  8
0
  0
BLOCK
  8
0
  2
*D20
 70
     1
 10
0.0
 20
0.0
 30
0.0
  3
*D20
  1

  0
TEXT
  5
1E7
  8
0
 62
     0
 10
1081.0116040620001
 20
-129.9198848042
 30
0.0
 40
5.9972220420999998
  1
(173)ôÓÉí
 50
90.0
  0
LINE
  5
1E8
  8
0
 62
     0
 10
1043.5838084847001
 20
-200.54488528109999
 30
0.0
 11
1085.0699373636
 21
-200.54488528109999
 31
0.0
  0
LINE
  5
1E9
  8
0
 62
     0
 10
1043.5838084847001
 20
-27.544885281100001
 30
0.0
 11
1085.0699373636
 21
-27.544885281100001
 31
0.0
  0
LINE
  5
1EA
  8
0
 62
     0
 10
1083.0699373636
 20
-200.54488528109999
 30
0.0
 11
1083.0699373636
 21
-94.642108086100009
 31
0.0
  0
LINE
  5
1EB
  8
0
 62
     0
 10
1083.0699373636
 20
-200.54488528109999
 30
0.0
 11
1083.0699373636
 21
-133.44766247609999
 31
0.0
  0
LINE
  5
1EC
  8
0
 62
     0
 10
1083.0699373636
 20
-27.544885281100001
 30
0.0
 11
1083.0699373636
 21
-94.642108086100009
 31
0.0
  0
LINE
  5
1ED
  8
0
 62
     0
 10
1083.0699373636
 20
-27.544885281100001
 30
0.0
 11
1083.0699373636
 21
-133.44766247609999
 31
0.0
  0
LINE
  5
1EE
  8
0
 62
     0
 10
1083.0699373636
 20
-27.544885281100001
 30
0.0
 11
1083.0699373636
 21
-32.544885281100001
 31
0.0
  0
SOLID
  5
1EF
  8
0
 62
     0
 10
1083.0699373636
 20
-27.544885281100001
 30
0.0
 11
1084.5699373636
 21
-33.545216682899998
 31
0.0
 12
1081.5699373636
 22
-33.545216682899998
 32
0.0
 13
1083.0699373636
 23
-32.045133832399998
 33
0.0
  0
LINE
  5
1F0
  8
0
 62
     0
 10
1083.0699373636
 20
-200.54488528109999
 30
0.0
 11
1083.0699373636
 21
-195.54488528109999
 31
0.0
  0
SOLID
  5
1F1
  8
0
 62
     0
 10
1083.0699373636
 20
-200.54488528109999
 30
0.0
 11
1081.5699373636
 21
-194.5445538793
 31
0.0
 12
1084.5699373636
 22
-194.5445538793
 32
0.0
 13
1083.0699373636
 23
-196.04463672969999
 33
0.0
  0
ENDBLK
  5
1F2
  8
0
  0
BLOCK
  8
0
  2
BALLON4
 70
     0
 10
0.0
 20
0.0
 30
0.0
  3
BALLON4
  1

  0
INSERT
  5
252
  8
0
  6
CONTINUOUS
  2
*U74
 10
0.0
 20
0.0
 30
0.0
  0
CIRCLE
  5
253
  8
┌▓È_1
 10
609.05535760439989
 20
-250.79488528109999
 30
0.0
 40
8.0
  0
LINE
  5
254
  8
Éíû@É³
 10
595.72202427110005
 20
-250.79488528109999
 30
0.0
 11
601.05535760439989
 21
-250.79488528109999
 31
0.0
  0
LINE
  5
255
  8
Éíû@É³
 10
560.65812130999996
 20
-339.00699427799998
 30
0.0
 11
595.72202427110005
 21
-250.79488528109999
 31
0.0
  0
SOLID
  5
256
  8
Éíû@É³
 10
560.65812130999996
 20
-339.00699427799998
 30
0.0
 11
562.12634456670003
 21
-330.98176403410002
 31
0.0
 12
563.02217462190004
 22
-333.05962074529998
 32
0.0
 13
563.02217462190004
 23
-333.05962074529998
 33
0.0
  0
SOLID
  5
257
  8
Éíû@É³
 10
563.02217462190004
 20
-333.05962074529998
 30
0.0
 11
565.10003133309999
 21
-332.16379069009997
 31
0.0
 12
560.65812130999996
 22
-339.00699427799998
 32
0.0
 13
560.65812130999996
 23
-339.00699427799998
 33
0.0
  0
ENDBLK
  5
258
  8
0
  0
BLOCK
  8
0
  2
*D22
 70
     1
 10
0.0
 20
0.0
 30
0.0
  3
*D22
  1

  0
TEXT
  5
276
  8
0
 62
     0
 10
569.63034363819997
 20
-275.49866097649999
 30
0.0
 40
5.9972220420999998
  1
24
  0
LINE
  5
277
  8
0
 62
     0
 10
585.15812130999996
 20
-297.55699427799999
 30
0.0
 11
585.15812130999996
 21
-277.55699427799999
 31
0.0
  0
LINE
  5
278
  8
0
 62
     0
 10
561.15812130999996
 20
-304.05699427799999
 30
0.0
 11
561.15812130999996
 21
-277.55699427799999
 31
0.0
  0
LINE
  5
279
  8
0
 62
     0
 10
585.15812130999996
 20
-278.55699427799999
 30
0.0
 11
580.21367665360003
 21
-278.55699427799999
 31
0.0
  0
LINE
  5
27A
  8
0
 62
     0
 10
585.15812130999996
 20
-278.55699427799999
 30
0.0
 11
566.10256596629995
 21
-278.55699427799999
 31
0.0
  0
LINE
  5
27B
  8
0
 62
     0
 10
561.15812130999996
 20
-278.55699427799999
 30
0.0
 11
580.21367665360003
 21
-278.55699427799999
 31
0.0
  0
LINE
  5
27C
  8
0
 62
     0
 10
561.15812130999996
 20
-278.55699427799999
 30
0.0
 11
566.10256596629995
 21
-278.55699427799999
 31
0.0
  0
LINE
  5
27D
  8
0
 62
     0
 10
561.15812130999996
 20
-278.55699427799999
 30
0.0
 11
555.15812130999996
 21
-278.55699427799999
 31
0.0
  0
SOLID
  5
27E
  8
0
 62
     0
 10
561.15812130999996
 20
-278.55699427799999
 30
0.0
 11
555.15812130999996
 21
-280.05699427799999
 31
0.0
 12
555.15812130999996
 22
-277.05699427799999
 32
0.0
 13
556.65812130999996
 23
-278.55699427799999
 33
0.0
  0
LINE
  5
27F
  8
0
 62
     0
 10
585.15812130999996
 20
-278.55699427799999
 30
0.0
 11
591.15812130999996
 21
-278.55699427799999
 31
0.0
  0
SOLID
  5
280
  8
0
 62
     0
 10
585.15812130999996
 20
-278.55699427799999
 30
0.0
 11
591.15812130999996
 21
-277.05699427799999
 31
0.0
 12
591.15812130999996
 22
-280.05699427799999
 32
0.0
 13
589.65812130999996
 23
-278.55699427799999
 33
0.0
  0
ENDBLK
  5
281
  8
0
  0
BLOCK
  8
0
  2
CLUMP9
 70
     0
 10
0.0
 20
0.0
 30
0.0
  3
CLUMP9
  1

  0
CIRCLE
  5
2A9
  8
┌▓È_1
  6
STITCH
 10
585.1577198233
 20
-114.04490449079999
 30
0.0
 40
6.5
  0
CIRCLE
  5
2AA
  8
┌▓È_1
  6
STITCH
 10
585.15792558459987
 20
-114.0451102521
 30
0.0
 40
7.5
  0
LINE
  5
2AB
  8
┌▓È_1
  6
STITCH
 10
575.15771982329989
 20
-133.04490449080001
 30
0.0
 11
575.15771982329989
 21
-143.04490449080001
 31
0.0
  0
LINE
  5
2AC
  8
┌▓È_1
  6
STITCH
 10
575.15771982329989
 20
-95.044904490799993
 30
0.0
 11
575.15771982329989
 21
-85.044904490799993
 31
0.0
  0
LINE
  5
2AD
  8
┌▓È_1
  6
STITCH
 10
585.15812130999996
 20
-108.38803103159999
 30
0.0
 11
590.81497555949989
 21
-114.04488528109999
 31
0.0
  0
LINE
  5
2AE
  8
┌▓È_1
  6
STITCH
 10
579.50126706050003
 20
-114.04488528109999
 30
0.0
 11
585.15812130999996
 21
-119.70173953059999
 31
0.0
  0
LINE
  5
2AF
  8
┌▓È_1
  6
STITCH
 10
594.35010797869995
 20
-119.70175874029999
 30
0.0
 11
598.02706324090002
 21
-123.3787140025
 31
0.0
  0
LINE
  5
2B0
  8
┌▓È_1
  6
STITCH
 10
594.35010797869995
 20
-119.70175874029999
 30
0.0
 11
590.81457407280004
 21
-123.23729264630001
 31
0.0
  0
LINE
  5
2B1
  8
┌▓È_1
  6
STITCH
 10
595.05721475990003
 20
-120.4088655215
 30
0.0
 11
591.52168085400001
 21
-123.9443994274
 31
0.0
  0
LINE
  5
2B2
  8
┌▓È_1
  6
STITCH
 10
575.15771982329989
 20
-143.04490449080001
 30
0.0
 11
600.15771982329989
 21
-143.04490449080001
 31
0.0
  0
LINE
  5
2B3
  8
┌▓È_1
  6
STITCH
 10
600.15771982329989
 20
-85.044904490799993
 30
0.0
 11
575.15771982329989
 21
-85.044904490799993
 31
0.0
  0
LINE
  5
2B4
  8
┌▓È_1
  6
STITCH
 10
600.15771982329989
 20
-133.04490449080001
 30
0.0
 11
600.15771982329989
 21
-143.04490449080001
 31
0.0
  0
LINE
  5
2B5
  8
┌▓È_1
  6
STITCH
 10
560.15812130999996
 20
-126.54488528109999
 30
0.0
 11
560.15812130999996
 21
-101.54488528109999
 31
0.0
  0
LINE
  5
2B6
  8
┌▓È_1
  6
STITCH
 10
558.65812130999996
 20
-126.54488528109999
 30
0.0
 11
558.65812130999996
 21
-101.54488528109999
 31
0.0
  0
ARC
  5
2B7
  8
┌▓È_1
  6
STITCH
 10
563.65812130999996
 20
-121.54488528109999
 30
0.0
 40
5.0
 50
270.0
 51
0.0
  0
LINE
  5
2B8
  8
┌▓È_1
  6
STITCH
 10
563.65812130999996
 20
-126.54488528109999
 30
0.0
 11
558.65812130999996
 21
-126.54488528109999
 31
0.0
  0
LINE
  5
2B9
  8
┌▓È_1
  6
STITCH
 10
568.65812130999996
 20
-106.54488528109999
 30
0.0
 11
568.65812130999996
 21
-121.54488528109999
 31
0.0
  0
ARC
  5
2BA
  8
┌▓È_1
  6
STITCH
 10
563.65812130999996
 20
-106.54488528109999
 30
0.0
 40
5.0
 50
0.0
 51
90.0
  0
LINE
  5
2BB
  8
┌▓È_1
  6
STITCH
 10
558.65812130999996
 20
-101.54488528109999
 30
0.0
 11
563.65812130999996
 21
-101.54488528109999
 31
0.0
  0
LINE
  5
2BC
  8
┌▓È_1
  6
STITCH
 10
589.65792558459987
 20
-121.8393388862
 30
0.0
 11
591.90792558459987
 21
-125.7364532032
 31
0.0
  0
LINE
  5
2BD
  8
┌▓È_1
  6
STITCH
 10
564.76184753019993
 20
-119.0451102521
 30
0.0
 11
575.15792558459987
 21
-124.1676155767
 31
0.0
  0
LINE
  5
2BE
  8
┌▓È_1
  6
STITCH
 10
579.19103279470005
 20
-126.15486625440001
 30
0.0
 11
575.15792558459987
 21
-124.1676155767
 31
0.0
  0
ARC
  5
2BF
  8
┌▓È_1
  6
STITCH
 10
585.15792558459987
 20
-114.0451102521
 30
0.0
 40
21.0
 50
166.22585300200001
 51
193.77414699799999
  0
ARC
  5
2C0
  8
┌▓È_1
  6
STITCH
 10
585.15792558459987
 20
-114.0451102521
 30
0.0
 40
9.0
 50
300.0
 51
60.0
  0
ARC
  5
2C1
  8
┌▓È_1
  6
STITCH
 10
585.15792558459987
 20
-114.0451102521
 30
0.0
 40
13.5
 50
243.76894846249999
 51
300.0
  0
LINE
  5
2C2
  8
┌▓È_1
  6
STITCH
 10
579.19103188749989
 20
-101.93535469690001
 30
0.0
 11
575.15792558459987
 21
-103.9226049275
 31
0.0
  0
ARC
  5
2C3
  8
┌▓È_1
  6
STITCH
 10
585.15792558459987
 20
-114.0451102521
 30
0.0
 40
13.5
 50
60.0
 51
116.2310558298
  0
LINE
  5
2C4
  8
┌▓È_1
  6
STITCH
 10
564.76184753019993
 20
-109.0451102521
 30
0.0
 11
575.15792558459987
 21
-103.9226049275
 31
0.0
  0
LINE
  5
2C5
  8
┌▓È_1
  6
STITCH
 10
589.65792558459987
 20
-106.2508816181
 30
0.0
 11
591.90792558459987
 21
-102.35376730110001
 31
0.0
  0
LINE
  5
2C6
  8
┌▓È_1
  6
BORDER
 62
     3
 10
558.40622467649985
 20
-114.04488528109999
 30
0.0
 11
600.39631476659997
 21
-114.04488528109999
 31
0.0
  0
ARC
  5
2C7
  8
┌▓È_1
  6
STITCH
 10
585.1577198233
 20
-114.04490449079999
 30
0.0
 40
3.5
 50
20.924832427599998
 51
159.07516757240001
  0
LINE
  5
2C8
  8
┌▓È_1
  6
STITCH
 10
600.15771982329989
 20
-95.044904490799993
 30
0.0
 11
600.15771982329989
 21
-85.044904490799993
 31
0.0
  0
LINE
  5
2C9
  8
┌▓È_1
  6
STITCH
 10
600.15771982329989
 20
-95.044904490799993
 30
0.0
 11
600.15771982329989
 21
-133.04490449080001
 31
0.0
  0
LINE
  5
2CA
  8
┌▓È_1
  6
BORDER
 62
     3
 10
585.15812130999996
 20
-97.9130784914
 30
0.0
 11
585.15812130999996
 21
-130.66571007030001
 31
0.0
  0
LINE
  5
2CB
  8
┌▓È_1
  6
STITCH
 10
591.6531161129999
 20
-117.7951102521
 30
0.0
 11
589.70455895449993
 21
-116.6701102521
 31
0.0
  0
LINE
  5
2CC
  8
┌▓È_1
  6
STITCH
 10
575.15771982329989
 20
-95.044904490799993
 30
0.0
 11
575.15771982329989
 21
-133.04490449080001
 31
0.0
  0
ARC
  5
2CD
  8
┌▓È_1
  6
STITCH
 10
585.1577198233
 20
-114.04490449079999
 30
0.0
 40
3.5
 50
200.92483242759999
 51
339.07516757240001
  0
ARC
  5
2CE
  8
┌▓È_1
  6
STITCH
 10
590.35771982330004
 20
-114.9949044908
 30
0.0
 40
0.3
 50
270.0
 51
0.0
  0
LINE
  5
2CF
  8
┌▓È_1
  6
STITCH
 10
590.6577198233
 20
-113.0949044908
 30
0.0
 11
590.6577198233
 21
-114.9949044908
 31
0.0
  0
ARC
  5
2D0
  8
┌▓È_1
  6
STITCH
 10
590.35771982330004
 20
-113.0949044908
 30
0.0
 40
0.3
 50
0.0
 51
90.0
  0
LINE
  5
2D1
  8
┌▓È_1
  6
STITCH
 10
578.66273505619995
 20
-117.7951102521
 30
0.0
 11
580.61129221470003
 21
-116.6701102521
 31
0.0
  0
LINE
  5
2D2
  8
┌▓È_1
  6
STITCH
 10
598.02706324090002
 20
-123.3787140025
 30
0.0
 11
594.491529335
 21
-126.9142479084
 31
0.0
  0
LINE
  5
2D3
  8
┌▓È_1
  6
STITCH
 10
590.81457407280004
 20
-123.23729264630001
 30
0.0
 11
594.491529335
 21
-126.9142479084
 31
0.0
  0
LINE
  5
2D4
  8
┌▓È_1
  6
STITCH
 10
600.15771982329989
 20
-95.044904490799993
 30
0.0
 11
575.15771982329989
 21
-95.044904490799993
 31
0.0
  0
LINE
  5
2D5
  8
┌▓È_1
  6
STITCH
 10
575.15771982329989
 20
-133.04490449080001
 30
0.0
 11
600.15771982329989
 21
-133.04490449080001
 31
0.0
  0
LINE
  5
2D6
  8
┌▓È_1
  6
STITCH
 10
575.15771982329989
 20
-132.04490449080001
 30
0.0
 11
600.15771982329989
 21
-132.04490449080001
 31
0.0
  0
LINE
  5
2D7
  8
┌▓È_1
  6
STITCH
 10
600.15771982329989
 20
-96.044904490799993
 30
0.0
 11
575.15771982329989
 21
-96.044904490799993
 31
0.0
  0
LINE
  5
2D8
  8
┌▓È_1
  6
STITCH
 10
585.15792558459987
 20
-106.5451102521
 30
0.0
 11
585.15792558459987
 21
-108.7951102521
 31
0.0
  0
CIRCLE
  5
2D9
  8
┌▓È_1
  6
STITCH
 10
585.15792558459987
 20
-114.0451102521
 30
0.0
 40
5.25
  0
ARC
  5
2DA
  8
┌▓È_1
  6
STITCH
 10
579.95771982329995
 20
-113.0949044908
 30
0.0
 40
0.3
 50
90.0
 51
180.0
  0
LINE
  5
2DB
  8
┌▓È_1
  6
STITCH
 10
590.35771982330004
 20
-112.79490449079999
 30
0.0
 11
579.95771982329995
 21
-112.79490449079999
 31
0.0
  0
ARC
  5
2DC
  8
┌▓È_1
  6
STITCH
 10
579.95771982329995
 20
-114.9949044908
 30
0.0
 40
0.3
 50
180.0
 51
270.0
  0
LINE
  5
2DD
  8
┌▓È_1
  6
STITCH
 10
579.65771982329989
 20
-113.0949044908
 30
0.0
 11
579.65771982329989
 21
-114.9949044908
 31
0.0
  0
LINE
  5
2DE
  8
┌▓È_1
  6
STITCH
 10
590.35771982330004
 20
-115.29490449079999
 30
0.0
 11
579.95771982329995
 21
-115.29490449079999
 31
0.0
  0
LINE
  5
2DF
  8
┌▓È_1
  6
STITCH
 10
590.81497555949989
 20
-114.04488528109999
 30
0.0
 11
585.15812130999996
 21
-119.70173953059999
 31
0.0
  0
LINE
  5
2E0
  8
┌▓È_1
  6
STITCH
 10
585.15812130999996
 20
-108.38803103159999
 30
0.0
 11
579.50126706050003
 21
-114.04488528109999
 31
0.0
  0
ENDBLK
  5
2E1
  8
0
  0
BLOCK
  8
0
  2
*D24
 70
     1
 10
0.0
 20
0.0
 30
0.0
  3
*D24
  1

  0
TEXT
  5
2ED
  8
0
 62
     0
 10
800.09978800839997
 20
-207.5726629529
 30
0.0
 40
5.9972220420999998
  1
10
 50
90.0
  0
LINE
  5
2EE
  8
0
 62
     0
 10
783.15812130999996
 20
-209.04488528109999
 30
0.0
 11
804.15812130999984
 21
-209.04488528109999
 31
0.0
  0
LINE
  5
2EF
  8
0
 62
     0
 10
773.15812130999996
 20
-199.04488528109999
 30
0.0
 11
804.15812130999984
 21
-199.04488528109999
 31
0.0
  0
LINE
  5
2F0
  8
0
 62
     0
 10
802.15812130999996
 20
-209.04488528109999
 30
0.0
 11
802.15812130999996
 21
-209.04488528109999
 31
0.0
  0
LINE
  5
2F1
  8
0
 62
     0
 10
802.15812130999996
 20
-209.04488528109999
 30
0.0
 11
802.15812130999996
 21
-199.04488528109999
 31
0.0
  0
LINE
  5
2F2
  8
0
 62
     0
 10
802.15812130999996
 20
-199.04488528109999
 30
0.0
 11
802.15812130999996
 21
-209.04488528109999
 31
0.0
  0
LINE
  5
2F3
  8
0
 62
     0
 10
802.15812130999996
 20
-199.04488528109999
 30
0.0
 11
802.15812130999996
 21
-199.04488528109999
 31
0.0
  0
LINE
  5
2F4
  8
0
 62
     0
 10
802.15812130999996
 20
-199.04488528109999
 30
0.0
 11
802.15812130999996
 21
-194.04488528109999
 31
0.0
  0
SOLID
  5
2F5
  8
0
 62
     0
 10
802.15812130999996
 20
-199.04488528109999
 30
0.0
 11
800.65812130999996
 21
-193.0445538793
 31
0.0
 12
803.65812130999996
 22
-193.0445538793
 32
0.0
 13
802.15812130999996
 23
-194.54463672969999
 33
0.0
  0
LINE
  5
2F6
  8
0
 62
     0
 10
802.15812130999996
 20
-209.04488528109999
 30
0.0
 11
802.15812130999996
 21
-214.04488528109999
 31
0.0
  0
SOLID
  5
2F7
  8
0
 62
     0
 10
802.15812130999996
 20
-209.04488528109999
 30
0.0
 11
803.65812130999996
 21
-215.04521668289999
 31
0.0
 12
800.65812130999996
 22
-215.04521668289999
 32
0.0
 13
802.15812130999996
 23
-213.54513383240001
 33
0.0
  0
ENDBLK
  5
2F8
  8
0
  0
BLOCK
  8
0
  2
*D25
 70
     1
 10
0.0
 20
0.0
 30
0.0
  3
*D25
  1

  0
TEXT
  5
2FC
  8
0
 62
     0
 10
764.13034363820009
 20
-280.49866097649999
 30
0.0
 40
5.9972220420999998
  1
13
  0
LINE
  5
2FD
  8
0
 62
     0
 10
774.15812130999996
 20
-304.05699427799999
 30
0.0
 11
774.15812130999996
 21
-282.55699427799999
 31
0.0
  0
LINE
  5
2FE
  8
0
 62
     0
 10
761.15812130999996
 20
-302.55699427799999
 30
0.0
 11
761.15812130999996
 21
-282.55699427799999
 31
0.0
  0
LINE
  5
2FF
  8
0
 62
     0
 10
774.15812130999996
 20
-283.55699427799999
 30
0.0
 11
774.15812130999996
 21
-283.55699427799999
 31
0.0
  0
LINE
  5
300
  8
0
 62
     0
 10
774.15812130999996
 20
-283.55699427799999
 30
0.0
 11
761.15812130999996
 21
-283.55699427799999
 31
0.0
  0
LINE
  5
301
  8
0
 62
     0
 10
761.15812130999996
 20
-283.55699427799999
 30
0.0
 11
774.15812130999996
 21
-283.55699427799999
 31
0.0
  0
LINE
  5
302
  8
0
 62
     0
 10
761.15812130999996
 20
-283.55699427799999
 30
0.0
 11
761.15812130999996
 21
-283.55699427799999
 31
0.0
  0
LINE
  5
303
  8
0
 62
     0
 10
761.15812130999996
 20
-283.55699427799999
 30
0.0
 11
767.15812130999996
 21
-283.55699427799999
 31
0.0
  0
SOLID
  5
304
  8
0
 62
     0
 10
761.15812130999996
 20
-283.55699427799999
 30
0.0
 11
767.15812130999996
 21
-282.05699427799999
 31
0.0
 12
767.15812130999996
 22
-285.05699427799999
 32
0.0
 13
765.65812130999996
 23
-283.55699427799999
 33
0.0
  0
LINE
  5
305
  8
0
 62
     0
 10
774.15812130999996
 20
-283.55699427799999
 30
0.0
 11
768.15812130999996
 21
-283.55699427799999
 31
0.0
  0
SOLID
  5
306
  8
0
 62
     0
 10
774.15812130999996
 20
-283.55699427799999
 30
0.0
 11
768.15812130999996
 21
-285.05699427799999
 31
0.0
 12
768.15812130999996
 22
-282.05699427799999
 32
0.0
 13
769.65812130999996
 23
-283.55699427799999
 33
0.0
  0
ENDBLK
  5
307
  8
0
  0
BLOCK
  8
0
  2
BALLON5
 70
     0
 10
0.0
 20
0.0
 30
0.0
  3
BALLON5
  1

  0
INSERT
  5
30E
  8
0
  6
CONTINUOUS
  2
*U87
 10
0.0
 20
0.0
 30
0.0
  0
CIRCLE
  5
30F
  8
┌▓È_1
 10
891.17731963329993
 20
-331.33659170440001
 30
0.0
 40
8.0
  0
LINE
  5
310
  8
Éíû@É³
 10
904.51065296659999
 20
-331.33659170440001
 30
0.0
 11
899.17731963329993
 21
-331.33659170440001
 31
0.0
  0
LINE
  5
311
  8
Éíû@É³
 10
993.30231214999992
 20
-291.91058637079999
 30
0.0
 11
904.51065296659999
 21
-331.33659170440001
 31
0.0
  0
SOLID
  5
312
  8
Éíû@É³
 10
993.30231214999992
 20
-291.91058637079999
 30
0.0
 11
986.64000411860002
 21
-296.61947707820002
 31
0.0
 12
987.45301509399997
 22
-294.5078395255
 32
0.0
 13
987.45301509399997
 23
-294.5078395255
 33
0.0
  0
SOLID
  5
313
  8
Éíû@É³
 10
987.45301509399997
 20
-294.5078395255
 30
0.0
 11
985.34137754130006
 21
-293.69482855019999
 31
0.0
 12
993.30231214999992
 22
-291.91058637079999
 32
0.0
 13
993.30231214999992
 23
-291.91058637079999
 33
0.0
  0
ENDBLK
  5
314
  8
0
  0
BLOCK
  8
0
  2
BALLON6
 70
     0
 10
0.0
 20
0.0
 30
0.0
  3
BALLON6
  1

  0
INSERT
  5
327
  8
0
  6
CONTINUOUS
  2
*U88
 10
0.0
 20
0.0
 30
0.0
  0
CIRCLE
  5
328
  8
┌▓È_1
 10
893.6059439014
 20
-109.2448412782
 30
0.0
 40
8.0
  0
LINE
  5
329
  8
Éíû@É³
 10
906.93927723470006
 20
-109.2448412782
 30
0.0
 11
901.6059439014
 21
-109.2448412782
 31
0.0
  0
LINE
  5
32A
  8
Éíû@É³
 10
977.80640490329995
 20
-58.100281615699998
 30
0.0
 11
906.93927723470006
 21
-109.2448412782
 31
0.0
  0
SOLID
  5
32B
  8
Éíû@É³
 10
977.80640490329995
 20
-58.100281615699998
 30
0.0
 11
972.25568940020003
 21
-64.079374975500002
 31
0.0
 12
972.61676323020015
 22
-61.845627968899997
 32
0.0
 13
972.61676323020015
 23
-61.845627968899997
 33
0.0
  0
SOLID
  5
32C
  8
Éíû@É³
 10
972.61676323020015
 20
-61.845627968899997
 30
0.0
 11
970.38301622359995
 21
-61.484554138900002
 31
0.0
 12
977.80640490329995
 22
-58.100281615699998
 32
0.0
 13
977.80640490329995
 23
-58.100281615699998
 33
0.0
  0
ENDBLK
  5
32D
  8
0
  0
BLOCK
  8
0
  2
*D28
 70
     1
 10
0.0
 20
0.0
 30
0.0
  3
*D28
  1

  0
TEXT
  5
330
  8
0
 62
     0
 10
551.63034363819986
 20
5.6513625640999994
 30
0.0
 40
5.9972220420999998
  1
10
  0
LINE
  5
331
  8
0
 62
     0
 10
560.15812130999996
 20
-31.044885281100001
 30
0.0
 11
560.15812130999996
 21
5.5930292625999991
 31
0.0
  0
LINE
  5
332
  8
0
 62
     0
 10
550.15812130999996
 20
-21.044885281100001
 30
0.0
 11
550.15812130999996
 21
5.5930292625999991
 31
0.0
  0
LINE
  5
333
  8
0
 62
     0
 10
560.15812130999996
 20
3.5930292625999991
 30
0.0
 11
560.15812130999996
 21
3.5930292625999991
 31
0.0
  0
LINE
  5
334
  8
0
 62
     0
 10
560.15812130999996
 20
3.5930292625999991
 30
0.0
 11
550.15812130999996
 21
3.5930292625999991
 31
0.0
  0
LINE
  5
335
  8
0
 62
     0
 10
550.15812130999996
 20
3.5930292625999991
 30
0.0
 11
560.15812130999996
 21
3.5930292625999991
 31
0.0
  0
LINE
  5
336
  8
0
 62
     0
 10
550.15812130999996
 20
3.5930292625999991
 30
0.0
 11
550.15812130999996
 21
3.5930292625999991
 31
0.0
  0
LINE
  5
337
  8
0
 62
     0
 10
550.15812130999996
 20
3.5930292625999991
 30
0.0
 11
545.15812130999996
 21
3.5930292625999991
 31
0.0
  0
SOLID
  5
338
  8
0
 62
     0
 10
550.15812130999996
 20
3.5930292625999991
 30
0.0
 11
544.15778990809986
 21
2.0930292625999991
 31
0.0
 12
544.15778990809986
 22
5.0930292625999991
 32
0.0
 13
545.65787275859986
 23
3.5930292625999991
 33
0.0
  0
LINE
  5
339
  8
0
 62
     0
 10
560.15812130999996
 20
3.5930292625999991
 30
0.0
 11
565.15812130999996
 21
3.5930292625999991
 31
0.0
  0
SOLID
  5
33A
  8
0
 62
     0
 10
560.15812130999996
 20
3.5930292625999991
 30
0.0
 11
566.15845271180001
 21
5.0930292625999991
 31
0.0
 12
566.15845271180001
 22
2.0930292625999991
 32
0.0
 13
564.6583698613
 23
3.5930292625999991
 33
0.0
  0
ENDBLK
  5
33B
  8
0
  0
BLOCK
  8
0
  2
*D29
 70
     1
 10
0.0
 20
0.0
 30
0.0
  3
*D29
  1

  0
TEXT
  5
33F
  8
0
 62
     0
 10
569.63018346640001
 20
-70.191544323299993
 30
0.0
 40
5.9972220420999998
  1
24
  0
LINE
  5
340
  8
0
 62
     0
 10
585.15812130999996
 20
-98.044885281100008
 30
0.0
 11
585.15812130999996
 21
-72.249877624799993
 31
0.0
  0
LINE
  5
341
  8
0
 62
     0
 10
561.15780096639992
 20
-113.04488528109999
 30
0.0
 11
561.15780096639992
 21
-72.249877624799993
 31
0.0
  0
LINE
  5
342
  8
0
 62
     0
 10
585.15812130999996
 20
-73.249877624799993
 30
0.0
 11
580.21351648179996
 21
-73.249877624799993
 31
0.0
  0
LINE
  5
343
  8
0
 62
     0
 10
585.15812130999996
 20
-73.249877624799993
 30
0.0
 11
566.10240579460003
 21
-73.249877624799993
 31
0.0
  0
LINE
  5
344
  8
0
 62
     0
 10
561.15780096639992
 20
-73.249877624799993
 30
0.0
 11
580.21351648179996
 21
-73.249877624799993
 31
0.0
  0
LINE
  5
345
  8
0
 62
     0
 10
561.15780096639992
 20
-73.249877624799993
 30
0.0
 11
566.10240579460003
 21
-73.249877624799993
 31
0.0
  0
LINE
  5
346
  8
0
 62
     0
 10
561.15780096639992
 20
-73.249877624799993
 30
0.0
 11
555.15780096640003
 21
-73.249877624799993
 31
0.0
  0
SOLID
  5
347
  8
0
 62
     0
 10
561.15780096639992
 20
-73.249877624799993
 30
0.0
 11
555.15780096640003
 21
-74.749877624799993
 31
0.0
 12
555.15780096640003
 22
-71.749877624799993
 32
0.0
 13
556.65780096640003
 23
-73.249877624799993
 33
0.0
  0
LINE
  5
348
  8
0
 62
     0
 10
585.15812130999996
 20
-73.249877624799993
 30
0.0
 11
591.15812130999996
 21
-73.249877624799993
 31
0.0
  0
SOLID
  5
349
  8
0
 62
     0
 10
585.15812130999996
 20
-73.249877624799993
 30
0.0
 11
591.15812130999996
 21
-71.749877624799993
 31
0.0
 12
591.15812130999996
 22
-74.749877624799993
 32
0.0
 13
589.65812130999996
 23
-73.249877624799993
 33
0.0
  0
ENDBLK
  5
34A
  8
0
  0
BLOCK
  8
0
  2
*D30
 70
     1
 10
0.0
 20
0.0
 30
0.0
  3
*D30
  1

  0
TEXT
  5
34F
  8
0
 62
     0
 10
615.882549746
 20
-84.848701646300015
 30
0.0
 40
5.9972220420999998
  1
%%c13
 50
40.198870940200003
  0
LINE
  5
350
  8
0
 62
     0
 10
580.19336444960004
 20
-118.24026241750001
 30
0.0
 11
628.25462421420002
 21
-77.626972374199994
 31
0.0
  0
LINE
  5
351
  8
0
 62
     0
 10
580.19336444960004
 20
-118.24026241750001
 30
0.0
 11
590.12287817039987
 21
-109.84950814459999
 31
0.0
  0
SOLID
  5
352
  8
0
 62
     0
 10
580.19336444960004
 20
-118.24026241750001
 30
0.0
 11
583.80830610910004
 21
-113.2216795768
 31
0.0
 12
585.74463401829985
 22
-115.51310582000001
 32
0.0
 13
583.63069366019988
 23
-115.3356101282
 33
0.0
  0
SOLID
  5
353
  8
0
 62
     0
 10
590.12287817039987
 20
-109.84950814459999
 30
0.0
 11
586.50793651080005
 21
-114.8680909854
 31
0.0
 12
584.57160860169995
 22
-112.57666474209999
 32
0.0
 13
586.68554895980003
 23
-112.754160434
 33
0.0
  0
ENDBLK
  5
354
  8
0
  0
BLOCK
  8
0
  2
*D31
 70
     1
 10
0.0
 20
0.0
 30
0.0
  3
*D31
  1

  0
TEXT
  5
379
  8
0
 62
     0
 10
949.81991964880001
 20
3.0134480204999998
 30
0.0
 40
5.9972220420999998
  1
6
  0
LINE
  5
37A
  8
0
 62
     0
 10
954.58380848469994
 20
-18.044885281100001
 30
0.0
 11
954.58380848469994
 21
2.9551147188999991
 31
0.0
  0
LINE
  5
37B
  8
0
 62
     0
 10
948.58380848470006
 20
-19.044885281100001
 30
0.0
 11
948.58380848470006
 21
2.9551147188999991
 31
0.0
  0
LINE
  5
37C
  8
0
 62
     0
 10
954.58380848469994
 20
0.9551147188999999
 30
0.0
 11
954.58380848469994
 21
0.9551147188999999
 31
0.0
  0
LINE
  5
37D
  8
0
 62
     0
 10
954.58380848469994
 20
0.9551147188999999
 30
0.0
 11
948.58380848470006
 21
0.9551147188999999
 31
0.0
  0
LINE
  5
37E
  8
0
 62
     0
 10
948.58380848470006
 20
0.9551147188999999
 30
0.0
 11
954.58380848469994
 21
0.9551147188999999
 31
0.0
  0
LINE
  5
37F
  8
0
 62
     0
 10
948.58380848470006
 20
0.9551147188999999
 30
0.0
 11
948.58380848470006
 21
0.9551147188999999
 31
0.0
  0
LINE
  5
380
  8
0
 62
     0
 10
948.58380848470006
 20
0.9551147188999999
 30
0.0
 11
943.58380848469994
 21
0.9551147188999999
 31
0.0
  0
SOLID
  5
381
  8
0
 62
     0
 10
948.58380848470006
 20
0.9551147188999999
 30
0.0
 11
942.58347708289978
 21
-0.5448852811
 31
0.0
 12
942.58347708289978
 22
2.4551147188999991
 32
0.0
 13
944.08355993340001
 23
0.9551147188999999
 33
0.0
  0
LINE
  5
382
  8
0
 62
     0
 10
954.58380848469994
 20
0.9551147188999999
 30
0.0
 11
959.58380848470006
 21
0.9551147188999999
 31
0.0
  0
SOLID
  5
383
  8
0
 62
     0
 10
954.58380848469994
 20
0.9551147188999999
 30
0.0
 11
960.58413988649988
 21
2.4551147188999991
 31
0.0
 12
960.58413988649988
 22
-0.5448852811
 32
0.0
 13
959.08405703610015
 23
0.9551147188999999
 33
0.0
  0
ENDBLK
  5
384
  8
0
  0
BLOCK
  8
0
  2
*D32
 70
     1
 10
0.0
 20
0.0
 30
0.0
  3
*D32
  1

  0
TEXT
  5
388
  8
0
 62
     0
 10
800.09978800839997
 20
-27.5726629529
 30
0.0
 40
5.9972220420999998
  1
10
 50
90.0
  0
LINE
  5
389
  8
0
 62
     0
 10
773.15812130999996
 20
-29.044885281100001
 30
0.0
 11
804.15812130999984
 21
-29.044885281100001
 31
0.0
  0
LINE
  5
38A
  8
0
 62
     0
 10
783.15812130999996
 20
-19.044885281100001
 30
0.0
 11
804.15812130999984
 21
-19.044885281100001
 31
0.0
  0
LINE
  5
38B
  8
0
 62
     0
 10
802.15812130999996
 20
-29.044885281100001
 30
0.0
 11
802.15812130999996
 21
-29.044885281100001
 31
0.0
  0
LINE
  5
38C
  8
0
 62
     0
 10
802.15812130999996
 20
-29.044885281100001
 30
0.0
 11
802.15812130999996
 21
-19.044885281100001
 31
0.0
  0
LINE
  5
38D
  8
0
 62
     0
 10
802.15812130999996
 20
-19.044885281100001
 30
0.0
 11
802.15812130999996
 21
-29.044885281100001
 31
0.0
  0
LINE
  5
38E
  8
0
 62
     0
 10
802.15812130999996
 20
-19.044885281100001
 30
0.0
 11
802.15812130999996
 21
-19.044885281100001
 31
0.0
  0
LINE
  5
38F
  8
0
 62
     0
 10
802.15812130999996
 20
-19.044885281100001
 30
0.0
 11
802.15812130999996
 21
-14.044885281099999
 31
0.0
  0
SOLID
  5
390
  8
0
 62
     0
 10
802.15812130999996
 20
-19.044885281100001
 30
0.0
 11
800.65812130999996
 21
-13.0445538793
 31
0.0
 12
803.65812130999996
 22
-13.0445538793
 32
0.0
 13
802.15812130999996
 23
-14.544636729700001
 33
0.0
  0
LINE
  5
391
  8
0
 62
     0
 10
802.15812130999996
 20
-29.044885281100001
 30
0.0
 11
802.15812130999996
 21
-34.044885281100001
 31
0.0
  0
SOLID
  5
392
  8
0
 62
     0
 10
802.15812130999996
 20
-29.044885281100001
 30
0.0
 11
803.65812130999996
 21
-35.045216682899998
 31
0.0
 12
800.65812130999996
 22
-35.045216682899998
 32
0.0
 13
802.15812130999996
 23
-33.545133832399998
 33
0.0
  0
ENDBLK
  5
393
  8
0
  0
BLOCK
  8
0
  2
*D33
 70
     1
 10
0.0
 20
0.0
 30
0.0
  3
*D33
  1

  0
TEXT
  5
397
  8
0
 62
     0
 10
776.63034363820009
 20
5.6513625640999994
 30
0.0
 40
5.9972220420999998
  1
10
  0
LINE
  5
398
  8
0
 62
     0
 10
785.15812130999996
 20
-21.044885281100001
 30
0.0
 11
785.15812130999996
 21
5.5930292625999991
 31
0.0
  0
LINE
  5
399
  8
0
 62
     0
 10
775.15812130999996
 20
-31.044885281100001
 30
0.0
 11
775.15812130999996
 21
5.5930292625999991
 31
0.0
  0
LINE
  5
39A
  8
0
 62
     0
 10
785.15812130999996
 20
3.5930292625999991
 30
0.0
 11
785.15812130999996
 21
3.5930292625999991
 31
0.0
  0
LINE
  5
39B
  8
0
 62
     0
 10
785.15812130999996
 20
3.5930292625999991
 30
0.0
 11
775.15812130999996
 21
3.5930292625999991
 31
0.0
  0
LINE
  5
39C
  8
0
 62
     0
 10
775.15812130999996
 20
3.5930292625999991
 30
0.0
 11
785.15812130999996
 21
3.5930292625999991
 31
0.0
  0
LINE
  5
39D
  8
0
 62
     0
 10
775.15812130999996
 20
3.5930292625999991
 30
0.0
 11
775.15812130999996
 21
3.5930292625999991
 31
0.0
  0
LINE
  5
39E
  8
0
 62
     0
 10
775.15812130999996
 20
3.5930292625999991
 30
0.0
 11
770.15812130999996
 21
3.5930292625999991
 31
0.0
  0
SOLID
  5
39F
  8
0
 62
     0
 10
775.15812130999996
 20
3.5930292625999991
 30
0.0
 11
769.15778990809986
 21
2.0930292625999991
 31
0.0
 12
769.15778990809986
 22
5.0930292625999991
 32
0.0
 13
770.65787275859986
 23
3.5930292625999991
 33
0.0
  0
LINE
  5
3A0
  8
0
 62
     0
 10
785.15812130999996
 20
3.5930292625999991
 30
0.0
 11
790.15812130999996
 21
3.5930292625999991
 31
0.0
  0
SOLID
  5
3A1
  8
0
 62
     0
 10
785.15812130999996
 20
3.5930292625999991
 30
0.0
 11
791.1584527117999
 21
5.0930292625999991
 31
0.0
 12
791.1584527117999
 22
2.0930292625999991
 32
0.0
 13
789.6583698613
 23
3.5930292625999991
 33
0.0
  0
ENDBLK
  5
3A2
  8
0
  0
BLOCK
  8
0
  2
CLUMP10
 70
     0
 10
0.0
 20
0.0
 30
0.0
  3
CLUMP10
  1

  0
LINE
  5
3AC
  8
┌▓È_1
  6
STITCH
 10
996.58380848469994
 20
-126.54488528109999
 30
0.0
 11
996.58380848469994
 21
-101.54488528109999
 31
0.0
  0
LINE
  5
3AD
  8
┌▓È_1
  6
STITCH
 10
977.08390107729997
 20
-126.54488528109999
 30
0.0
 11
996.58380848469994
 21
-126.54488528109999
 31
0.0
  0
LINE
  5
3AE
  8
┌▓È_1
  6
STITCH
 10
996.58380848469994
 20
-101.54488528109999
 30
0.0
 11
977.08409836289979
 21
-101.54488528109999
 31
0.0
  0
LINE
  5
3AF
  8
┌▓È_1
  6
STITCH
 10
975.08399035639991
 20
-108.3882553114
 30
0.0
 11
975.08390107809998
 21
-114.0450098634
 31
0.0
  0
LINE
  5
3B0
  8
┌▓È_1
  6
STITCH
 10
975.08411402809998
 20
-100.55231114119999
 30
0.0
 11
975.08405731639994
 21
-104.14561462429999
 31
0.0
  0
LINE
  5
3B1
  8
┌▓È_1
  6
STITCH
 10
977.08399035669993
 20
-108.3882553114
 30
0.0
 11
977.0839010778999
 21
-114.0450414286
 31
0.0
  0
LINE
  5
3B2
  8
┌▓È_1
  6
STITCH
 10
986.08396829920014
 20
-110.64506239249999
 30
0.0
 11
985.58396420880001
 21
-110.04506580109999
 31
0.0
  0
LINE
  5
3B3
  8
┌▓È_1
  6
STITCH
 10
986.083896987
 20
-117.4450623931
 30
0.0
 11
985.58390107729986
 21
-118.04506580170001
 31
0.0
  0
LINE
  5
3B4
  8
┌▓È_1
  6
STITCH
 10
985.08396829890012
 20
-110.6450692096
 30
0.0
 11
986.08396829920014
 21
-110.64506239249999
 31
0.0
  0
LINE
  5
3B5
  8
┌▓È_1
  6
STITCH
 10
985.08400051039996
 20
-107.74495729749999
 30
0.0
 11
984.88400366699989
 21
-107.54495414100001
 31
0.0
  0
LINE
  5
3B6
  8
┌▓È_1
  6
STITCH
 10
985.08400051039996
 20
-107.74495729749999
 30
0.0
 11
985.08390107699995
 21
-114.0451440155
 31
0.0
  0
LINE
  5
3B7
  8
┌▓È_1
  6
STITCH
 10
978.78390107729979
 20
-120.54495729750001
 30
0.0
 11
978.58390265560013
 21
-120.3449572975
 31
0.0
  0
ARC
  5
3B8
  8
┌▓È_1
  6
STITCH
 10
972.08390107729997
 20
-120.5403000893
 30
0.0
 40
2.7999999999999989
 50
338.9697665173
 51
7.4495788158999998
  0
ARC
  5
3B9
  8
┌▓È_1
  6
STITCH
 10
977.08390107729997
 20
-114.0451095609
 30
0.0
 40
2.7999999999999989
 50
180.0
 51
187.02164538509999
  0
ARC
  5
3BA
  8
┌▓È_1
  6
STITCH
 10
977.08390107729997
 20
-114.0451095609
 30
0.0
 40
3.0
 50
180.0
 51
187.02164538509999
  0
LINE
  5
3BB
  8
┌▓È_1
  6
STITCH
 10
974.08390107729986
 20
-114.0451095609
 30
0.0
 11
974.08390107729986
 21
-121.5451095609
 31
0.0
  0
LINE
  5
3BC
  8
┌▓È_1
  6
STITCH
 10
974.91062319410003
 20
-121.5451095609
 30
0.0
 11
974.08390107729986
 21
-121.5451095609
 31
0.0
  0
LINE
  5
3BD
  8
┌▓È_1
  6
STITCH
 10
974.10640095550002
 20
-114.4118424669
 30
0.0
 11
974.65629360690002
 21
-118.6173179388
 31
0.0
  0
LINE
  5
3BE
  8
┌▓È_1
  6
STITCH
 10
985.08390107729986
 20
-120.3449572975
 30
0.0
 11
985.08390107729986
 21
-114.0451095609
 31
0.0
  0
LINE
  5
3BF
  8
┌▓È_1
  6
STITCH
 10
975.08390107729986
 20
-121.839338195
 30
0.0
 11
977.08390107729997
 21
-121.839338195
 31
0.0
  0
LINE
  5
3C0
  8
┌▓È_1
  6
STITCH
 10
984.50290107849992
 20
-114.0450731709
 30
0.0
 11
979.16490107729987
 21
-114.0451095609
 31
0.0
  0
LINE
  5
3C1
  8
┌▓È_1
  6
STITCH
 10
985.08390107699995
 20
-114.0451440155
 30
0.0
 11
987.62340541740002
 21
-114.04518409550001
 31
0.0
  0
LINE
  5
3C2
  8
┌▓È_1
  6
STITCH
 10
978.58390265560013
 20
-107.74518904430001
 30
0.0
 11
978.58386336299998
 21
-106.5450558002
 31
0.0
  0
LINE
  5
3C3
  8
┌▓È_1
  6
STITCH
 10
985.08396420869985
 20
-110.0450692096
 30
0.0
 11
985.58396420880001
 21
-110.04506580109999
 31
0.0
  0
LINE
  5
3C4
  8
┌▓È_1
  6
STITCH
 10
986.08395473960002
 20
-110.6450461212
 30
0.0
 11
986.08390107690002
 21
-114.0451597982
 31
0.0
  0
LINE
  5
3C5
  8
┌▓È_1
  6
STITCH
 10
986.08390107729997
 20
-117.4450574847
 30
0.0
 11
986.08390107729997
 21
-114.0451095609
 31
0.0
  0
LINE
  5
3C6
  8
┌▓È_1
  6
STITCH
 10
985.083896987
 20
-117.44506921030001
 30
0.0
 11
986.083896987
 21
-117.4450623931
 31
0.0
  0
LINE
  5
3C7
  8
┌▓È_1
  6
STITCH
 10
978.58395237249999
 20
-115.2949060041
 30
0.0
 11
977.08392475429991
 21
-113.79487838590001
 31
0.0
  0
LINE
  5
3C8
  8
┌▓È_1
  6
STITCH
 10
953.38390107729981
 20
-143.04510956089999
 30
0.0
 11
954.38390107729981
 21
-143.04510956089999
 31
0.0
  0
LINE
  5
3C9
  8
┌▓È_1
  6
STITCH
 10
954.38390107729981
 20
-133.04510956089999
 30
0.0
 11
973.08390107729986
 21
-133.04510956089999
 31
0.0
  0
LINE
  5
3CA
  8
┌▓È_1
  6
STITCH
 10
978.58386336299998
 20
-121.54509054170001
 30
0.0
 11
977.08365552649991
 21
-121.5450414246
 31
0.0
  0
ARC
  5
3CB
  8
┌▓È_1
  6
STITCH
 10
972.08390107729997
 20
-120.5403000893
 30
0.0
 40
3.0
 50
340.43132398559999
 51
7.4495788158999998
  0
LINE
  5
3CC
  8
┌▓È_1
  6
STITCH
 10
978.58395237249999
 20
-114.2949060041
 30
0.0
 11
977.08392475429991
 21
-112.79487838590001
 31
0.0
  0
LINE
  5
3CD
  8
┌▓È_1
  6
STITCH
 10
971.58425087160015
 20
-117.54495318230001
 30
0.0
 11
971.58425087160015
 21
-110.54495318230001
 31
0.0
  0
LINE
  5
3CE
  8
┌▓È_1
  6
STITCH
 10
971.58425087160015
 20
-107.54495318230001
 30
0.0
 11
973.08425087159992
 21
-107.54495318230001
 31
0.0
  0
LINE
  5
3CF
  8
┌▓È_1
  6
STITCH
 10
966.83425087159992
 20
-110.54495318230001
 30
0.0
 11
964.33425087160015
 21
-110.54495318230001
 31
0.0
  0
CIRCLE
  5
3D0
  8
┌▓È_1
  6
STITCH
 10
965.58425087160003
 20
-114.0074552399
 30
0.0
 40
1.2505670105999991
  0
LINE
  5
3D1
  8
┌▓È_1
  6
STITCH
 10
971.58425087160015
 20
-120.54495318230001
 30
0.0
 11
973.08425087159992
 21
-120.54495318230001
 31
0.0
  0
LINE
  5
3D2
  8
┌▓È_1
  6
STITCH
 10
971.58425087160015
 20
-107.54495318230001
 30
0.0
 11
971.58425087160015
 21
-110.54495318230001
 31
0.0
  0
POLYLINE
  5
3D3
  8
┌▓È_1
  6
STITCH
 10
979.16490107729987
 20
-120.54495729751252
 30
0.0
 66
     1
 70
     8
  0
VERTEX
  8
┌▓È_1
  5
7A3
 10
979.165
 20
-120.545
 30
0.000000
  70
    32
  0
VERTEX
  8
┌▓È_1
  5
7A4
 10
979.151
 20
-120.544
 30
0.000000
  70
    32
  0
VERTEX
  8
┌▓È_1
  5
7A5
 10
979.136
 20
-120.541
 30
0.000000
  70
    32
  0
VERTEX
  8
┌▓È_1
  5
7A6
 10
979.122
 20
-120.536
 30
0.000000
  70
    32
  0
VERTEX
  8
┌▓È_1
  5
7A7
 10
979.108
 20
-120.529
 30
0.000000
  70
    32
  0
VERTEX
  8
┌▓È_1
  5
7A8
 10
979.094
 20
-120.521
 30
0.000000
  70
    32
  0
VERTEX
  8
┌▓È_1
  5
7A9
 10
979.080
 20
-120.510
 30
0.000000
  70
    32
  0
VERTEX
  8
┌▓È_1
  5
7AA
 10
979.066
 20
-120.497
 30
0.000000
  70
    32
  0
VERTEX
  8
┌▓È_1
  5
7AB
 10
979.052
 20
-120.483
 30
0.000000
  70
    32
  0
VERTEX
  8
┌▓È_1
  5
7AC
 10
979.038
 20
-120.466
 30
0.000000
  70
    32
  0
VERTEX
  8
┌▓È_1
  5
7AD
 10
979.024
 20
-120.448
 30
0.000000
  70
    32
  0
VERTEX
  8
┌▓È_1
  5
7AE
 10
979.010
 20
-120.427
 30
0.000000
  70
    32
  0
VERTEX
  8
┌▓È_1
  5
7AF
 10
978.996
 20
-120.405
 30
0.000000
  70
    32
  0
VERTEX
  8
┌▓È_1
  5
7B0
 10
978.983
 20
-120.381
 30
0.000000
  70
    32
  0
VERTEX
  8
┌▓È_1
  5
7B1
 10
978.969
 20
-120.355
 30
0.000000
  70
    32
  0
VERTEX
  8
┌▓È_1
  5
7B2
 10
978.956
 20
-120.327
 30
0.000000
  70
    32
  0
VERTEX
  8
┌▓È_1
  5
7B3
 10
978.943
 20
-120.298
 30
0.000000
  70
    32
  0
VERTEX
  8
┌▓È_1
  5
7B4
 10
978.929
 20
-120.266
 30
0.000000
  70
    32
  0
VERTEX
  8
┌▓È_1
  5
7B5
 10
978.916
 20
-120.233
 30
0.000000
  70
    32
  0
VERTEX
  8
┌▓È_1
  5
7B6
 10
978.904
 20
-120.198
 30
0.000000
  70
    32
  0
VERTEX
  8
┌▓È_1
  5
7B7
 10
978.891
 20
-120.161
 30
0.000000
  70
    32
  0
VERTEX
  8
┌▓È_1
  5
7B8
 10
978.879
 20
-120.123
 30
0.000000
  70
    32
  0
VERTEX
  8
┌▓È_1
  5
7B9
 10
978.866
 20
-120.083
 30
0.000000
  70
    32
  0
VERTEX
  8
┌▓È_1
  5
7BA
 10
978.854
 20
-120.041
 30
0.000000
  70
    32
  0
VERTEX
  8
┌▓È_1
  5
7BB
 10
978.842
 20
-119.997
 30
0.000000
  70
    32
  0
VERTEX
  8
┌▓È_1
  5
7BC
 10
978.830
 20
-119.952
 30
0.000000
  70
    32
  0
VERTEX
  8
┌▓È_1
  5
7BD
 10
978.819
 20
-119.905
 30
0.000000
  70
    32
  0
VERTEX
  8
┌▓È_1
  5
7BE
 10
978.807
 20
-119.857
 30
0.000000
  70
    32
  0
VERTEX
  8
┌▓È_1
  5
7BF
 10
978.796
 20
-119.807
 30
0.000000
  70
    32
  0
VERTEX
  8
┌▓È_1
  5
7C0
 10
978.785
 20
-119.756
 30
0.000000
  70
    32
  0
VERTEX
  8
┌▓È_1
  5
7C1
 10
978.775
 20
-119.703
 30
0.000000
  70
    32
  0
VERTEX
  8
┌▓È_1
  5
7C2
 10
978.764
 20
-119.649
 30
0.000000
  70
    32
  0
VERTEX
  8
┌▓È_1
  5
7C3
 10
978.754
 20
-119.593
 30
0.000000
  70
    32
  0
VERTEX
  8
┌▓È_1
  5
7C4
 10
978.744
 20
-119.536
 30
0.000000
  70
    32
  0
VERTEX
  8
┌▓È_1
  5
7C5
 10
978.734
 20
-119.478
 30
0.000000
  70
    32
  0
VERTEX
  8
┌▓È_1
  5
7C6
 10
978.725
 20
-119.418
 30
0.000000
  70
    32
  0
VERTEX
  8
┌▓È_1
  5
7C7
 10
978.716
 20
-119.357
 30
0.000000
  70
    32
  0
VERTEX
  8
┌▓È_1
  5
7C8
 10
978.707
 20
-119.294
 30
0.000000
  70
    32
  0
VERTEX
  8
┌▓È_1
  5
7C9
 10
978.698
 20
-119.231
 30
0.000000
  70
    32
  0
VERTEX
  8
┌▓È_1
  5
7CA
 10
978.690
 20
-119.166
 30
0.000000
  70
    32
  0
VERTEX
  8
┌▓È_1
  5
7CB
 10
978.682
 20
-119.101
 30
0.000000
  70
    32
  0
VERTEX
  8
┌▓È_1
  5
7CC
 10
978.674
 20
-119.034
 30
0.000000
  70
    32
  0
VERTEX
  8
┌▓È_1
  5
7CD
 10
978.667
 20
-118.966
 30
0.000000
  70
    32
  0
VERTEX
  8
┌▓È_1
  5
7CE
 10
978.659
 20
-118.897
 30
0.000000
  70
    32
  0
VERTEX
  8
┌▓È_1
  5
7CF
 10
978.653
 20
-118.827
 30
0.000000
  70
    32
  0
VERTEX
  8
┌▓È_1
  5
7D0
 10
978.646
 20
-118.756
 30
0.000000
  70
    32
  0
VERTEX
  8
┌▓È_1
  5
7D1
 10
978.640
 20
-118.685
 30
0.000000
  70
    32
  0
VERTEX
  8
┌▓È_1
  5
7D2
 10
978.634
 20
-118.612
 30
0.000000
  70
    32
  0
VERTEX
  8
┌▓È_1
  5
7D3
 10
978.628
 20
-118.539
 30
0.000000
  70
    32
  0
VERTEX
  8
┌▓È_1
  5
7D4
 10
978.623
 20
-118.465
 30
0.000000
  70
    32
  0
VERTEX
  8
┌▓È_1
  5
7D5
 10
978.618
 20
-118.390
 30
0.000000
  70
    32
  0
VERTEX
  8
┌▓È_1
  5
7D6
 10
978.613
 20
-118.314
 30
0.000000
  70
    32
  0
VERTEX
  8
┌▓È_1
  5
7D7
 10
978.609
 20
-118.238
 30
0.000000
  70
    32
  0
VERTEX
  8
┌▓È_1
  5
7D8
 10
978.605
 20
-118.162
 30
0.000000
  70
    32
  0
VERTEX
  8
┌▓È_1
  5
7D9
 10
978.601
 20
-118.085
 30
0.000000
  70
    32
  0
VERTEX
  8
┌▓È_1
  5
7DA
 10
978.598
 20
-118.007
 30
0.000000
  70
    32
  0
VERTEX
  8
┌▓È_1
  5
7DB
 10
978.595
 20
-117.929
 30
0.000000
  70
    32
  0
VERTEX
  8
┌▓È_1
  5
7DC
 10
978.592
 20
-117.851
 30
0.000000
  70
    32
  0
VERTEX
  8
┌▓È_1
  5
7DD
 10
978.590
 20
-117.772
 30
0.000000
  70
    32
  0
VERTEX
  8
┌▓È_1
  5
7DE
 10
978.588
 20
-117.693
 30
0.000000
  70
    32
  0
VERTEX
  8
┌▓È_1
  5
7DF
 10
978.587
 20
-117.614
 30
0.000000
  70
    32
  0
VERTEX
  8
┌▓È_1
  5
7E0
 10
978.585
 20
-117.534
 30
0.000000
  70
    32
  0
VERTEX
  8
┌▓È_1
  5
7E1
 10
978.585
 20
-117.454
 30
0.000000
  70
    32
  0
VERTEX
  8
┌▓È_1
  5
7E2
 10
978.584
 20
-117.375
 30
0.000000
  70
    32
  0
VERTEX
  8
┌▓È_1
  5
7E3
 10
978.584
 20
-117.295
 30
0.000000
  70
    32
  0
VERTEX
  8
┌▓È_1
  5
7E4
 10
978.584
 20
-117.215
 30
0.000000
  70
    32
  0
VERTEX
  8
┌▓È_1
  5
7E5
 10
978.585
 20
-117.136
 30
0.000000
  70
    32
  0
VERTEX
  8
┌▓È_1
  5
7E6
 10
978.585
 20
-117.056
 30
0.000000
  70
    32
  0
VERTEX
  8
┌▓È_1
  5
7E7
 10
978.587
 20
-116.976
 30
0.000000
  70
    32
  0
VERTEX
  8
┌▓È_1
  5
7E8
 10
978.588
 20
-116.897
 30
0.000000
  70
    32
  0
VERTEX
  8
┌▓È_1
  5
7E9
 10
978.590
 20
-116.818
 30
0.000000
  70
    32
  0
VERTEX
  8
┌▓È_1
  5
7EA
 10
978.592
 20
-116.739
 30
0.000000
  70
    32
  0
VERTEX
  8
┌▓È_1
  5
7EB
 10
978.595
 20
-116.661
 30
0.000000
  70
    32
  0
VERTEX
  8
┌▓È_1
  5
7EC
 10
978.598
 20
-116.583
 30
0.000000
  70
    32
  0
VERTEX
  8
┌▓È_1
  5
7ED
 10
978.601
 20
-116.505
 30
0.000000
  70
    32
  0
VERTEX
  8
┌▓È_1
  5
7EE
 10
978.605
 20
-116.428
 30
0.000000
  70
    32
  0
VERTEX
  8
┌▓È_1
  5
7EF
 10
978.609
 20
-116.352
 30
0.000000
  70
    32
  0
VERTEX
  8
┌▓È_1
  5
7F0
 10
978.613
 20
-116.276
 30
0.000000
  70
    32
  0
VERTEX
  8
┌▓È_1
  5
7F1
 10
978.618
 20
-116.200
 30
0.000000
  70
    32
  0
VERTEX
  8
┌▓È_1
  5
7F2
 10
978.623
 20
-116.125
 30
0.000000
  70
    32
  0
VERTEX
  8
┌▓È_1
  5
7F3
 10
978.628
 20
-116.051
 30
0.000000
  70
    32
  0
VERTEX
  8
┌▓È_1
  5
7F4
 10
978.634
 20
-115.978
 30
0.000000
  70
    32
  0
VERTEX
  8
┌▓È_1
  5
7F5
 10
978.640
 20
-115.906
 30
0.000000
  70
    32
  0
VERTEX
  8
┌▓È_1
  5
7F6
 10
978.646
 20
-115.834
 30
0.000000
  70
    32
  0
VERTEX
  8
┌▓È_1
  5
7F7
 10
978.653
 20
-115.763
 30
0.000000
  70
    32
  0
VERTEX
  8
┌▓È_1
  5
7F8
 10
978.659
 20
-115.693
 30
0.000000
  70
    32
  0
VERTEX
  8
┌▓È_1
  5
7F9
 10
978.667
 20
-115.624
 30
0.000000
  70
    32
  0
VERTEX
  8
┌▓È_1
  5
7FA
 10
978.674
 20
-115.556
 30
0.000000
  70
    32
  0
VERTEX
  8
┌▓È_1
  5
7FB
 10
978.682
 20
-115.489
 30
0.000000
  70
    32
  0
VERTEX
  8
┌▓È_1
  5
7FC
 10
978.690
 20
-115.424
 30
0.000000
  70
    32
  0
VERTEX
  8
┌▓È_1
  5
7FD
 10
978.698
 20
-115.359
 30
0.000000
  70
    32
  0
VERTEX
  8
┌▓È_1
  5
7FE
 10
978.707
 20
-115.296
 30
0.000000
  70
    32
  0
VERTEX
  8
┌▓È_1
  5
7FF
 10
978.716
 20
-115.233
 30
0.000000
  70
    32
  0
VERTEX
  8
┌▓È_1
  5
800
 10
978.725
 20
-115.172
 30
0.000000
  70
    32
  0
VERTEX
  8
┌▓È_1
  5
801
 10
978.734
 20
-115.113
 30
0.000000
  70
    32
  0
VERTEX
  8
┌▓È_1
  5
802
 10
978.744
 20
-115.054
 30
0.000000
  70
    32
  0
VERTEX
  8
┌▓È_1
  5
803
 10
978.754
 20
-114.997
 30
0.000000
  70
    32
  0
VERTEX
  8
┌▓È_1
  5
804
 10
978.764
 20
-114.941
 30
0.000000
  70
    32
  0
VERTEX
  8
┌▓È_1
  5
805
 10
978.775
 20
-114.887
 30
0.000000
  70
    32
  0
VERTEX
  8
┌▓È_1
  5
806
 10
978.785
 20
-114.834
 30
0.000000
  70
    32
  0
VERTEX
  8
┌▓È_1
  5
807
 10
978.796
 20
-114.783
 30
0.000000
  70
    32
  0
VERTEX
  8
┌▓È_1
  5
808
 10
978.807
 20
-114.733
 30
0.000000
  70
    32
  0
VERTEX
  8
┌▓È_1
  5
809
 10
978.819
 20
-114.685
 30
0.000000
  70
    32
  0
VERTEX
  8
┌▓È_1
  5
80A
 10
978.830
 20
-114.638
 30
0.000000
  70
    32
  0
VERTEX
  8
┌▓È_1
  5
80B
 10
978.842
 20
-114.593
 30
0.000000
  70
    32
  0
VERTEX
  8
┌▓È_1
  5
80C
 10
978.854
 20
-114.549
 30
0.000000
  70
    32
  0
VERTEX
  8
┌▓È_1
  5
80D
 10
978.866
 20
-114.507
 30
0.000000
  70
    32
  0
VERTEX
  8
┌▓È_1
  5
80E
 10
978.879
 20
-114.467
 30
0.000000
  70
    32
  0
VERTEX
  8
┌▓È_1
  5
80F
 10
978.891
 20
-114.429
 30
0.000000
  70
    32
  0
VERTEX
  8
┌▓È_1
  5
810
 10
978.904
 20
-114.392
 30
0.000000
  70
    32
  0
VERTEX
  8
┌▓È_1
  5
811
 10
978.916
 20
-114.357
 30
0.000000
  70
    32
  0
VERTEX
  8
┌▓È_1
  5
812
 10
978.929
 20
-114.324
 30
0.000000
  70
    32
  0
VERTEX
  8
┌▓È_1
  5
813
 10
978.943
 20
-114.292
 30
0.000000
  70
    32
  0
VERTEX
  8
┌▓È_1
  5
814
 10
978.956
 20
-114.263
 30
0.000000
  70
    32
  0
VERTEX
  8
┌▓È_1
  5
815
 10
978.969
 20
-114.235
 30
0.000000
  70
    32
  0
VERTEX
  8
┌▓È_1
  5
816
 10
978.983
 20
-114.209
 30
0.000000
  70
    32
  0
VERTEX
  8
┌▓È_1
  5
817
 10
978.996
 20
-114.185
 30
0.000000
  70
    32
  0
VERTEX
  8
┌▓È_1
  5
818
 10
979.010
 20
-114.163
 30
0.000000
  70
    32
  0
VERTEX
  8
┌▓È_1
  5
819
 10
979.024
 20
-114.143
 30
0.000000
  70
    32
  0
VERTEX
  8
┌▓È_1
  5
81A
 10
979.038
 20
-114.124
 30
0.000000
  70
    32
  0
VERTEX
  8
┌▓È_1
  5
81B
 10
979.052
 20
-114.108
 30
0.000000
  70
    32
  0
VERTEX
  8
┌▓È_1
  5
81C
 10
979.066
 20
-114.093
 30
0.000000
  70
    32
  0
VERTEX
  8
┌▓È_1
  5
81D
 10
979.080
 20
-114.080
 30
0.000000
  70
    32
  0
VERTEX
  8
┌▓È_1
  5
81E
 10
979.094
 20
-114.070
 30
0.000000
  70
    32
  0
VERTEX
  8
┌▓È_1
  5
81F
 10
979.108
 20
-114.061
 30
0.000000
  70
    32
  0
VERTEX
  8
┌▓È_1
  5
820
 10
979.122
 20
-114.054
 30
0.000000
  70
    32
  0
VERTEX
  8
┌▓È_1
  5
821
 10
979.136
 20
-114.049
 30
0.000000
  70
    32
  0
VERTEX
  8
┌▓È_1
  5
822
 10
979.151
 20
-114.046
 30
0.000000
  70
    32
  0
VERTEX
  8
┌▓È_1
  5
823
 10
979.165
 20
-114.045
 30
0.000000
  70
    32
  0
SEQEND
  8
┌▓È_1
  5
824
  0
POLYLINE
  5
3D4
  8
┌▓È_1
  6
STITCH
 10
979.16449396881433
 20
-107.54522544706211
 30
0.0
 66
     1
 70
     8
  0
VERTEX
  8
┌▓È_1
  5
825
 10
979.164
 20
-107.545
 30
0.000000
  70
    32
  0
VERTEX
  8
┌▓È_1
  5
826
 10
979.150
 20
-107.546
 30
0.000000
  70
    32
  0
VERTEX
  8
┌▓È_1
  5
827
 10
979.136
 20
-107.549
 30
0.000000
  70
    32
  0
VERTEX
  8
┌▓È_1
  5
828
 10
979.122
 20
-107.554
 30
0.000000
  70
    32
  0
VERTEX
  8
┌▓È_1
  5
829
 10
979.108
 20
-107.561
 30
0.000000
  70
    32
  0
VERTEX
  8
┌▓È_1
  5
82A
 10
979.093
 20
-107.570
 30
0.000000
  70
    32
  0
VERTEX
  8
┌▓È_1
  5
82B
 10
979.079
 20
-107.580
 30
0.000000
  70
    32
  0
VERTEX
  8
┌▓È_1
  5
82C
 10
979.065
 20
-107.593
 30
0.000000
  70
    32
  0
VERTEX
  8
┌▓È_1
  5
82D
 10
979.051
 20
-107.608
 30
0.000000
  70
    32
  0
VERTEX
  8
┌▓È_1
  5
82E
 10
979.037
 20
-107.624
 30
0.000000
  70
    32
  0
VERTEX
  8
┌▓È_1
  5
82F
 10
979.023
 20
-107.643
 30
0.000000
  70
    32
  0
VERTEX
  8
┌▓È_1
  5
830
 10
979.010
 20
-107.663
 30
0.000000
  70
    32
  0
VERTEX
  8
┌▓È_1
  5
831
 10
978.996
 20
-107.685
 30
0.000000
  70
    32
  0
VERTEX
  8
┌▓È_1
  5
832
 10
978.982
 20
-107.709
 30
0.000000
  70
    32
  0
VERTEX
  8
┌▓È_1
  5
833
 10
978.969
 20
-107.735
 30
0.000000
  70
    32
  0
VERTEX
  8
┌▓È_1
  5
834
 10
978.955
 20
-107.763
 30
0.000000
  70
    32
  0
VERTEX
  8
┌▓È_1
  5
835
 10
978.942
 20
-107.793
 30
0.000000
  70
    32
  0
VERTEX
  8
┌▓È_1
  5
836
 10
978.929
 20
-107.824
 30
0.000000
  70
    32
  0
VERTEX
  8
┌▓È_1
  5
837
 10
978.916
 20
-107.857
 30
0.000000
  70
    32
  0
VERTEX
  8
┌▓È_1
  5
838
 10
978.903
 20
-107.892
 30
0.000000
  70
    32
  0
VERTEX
  8
┌▓È_1
  5
839
 10
978.891
 20
-107.929
 30
0.000000
  70
    32
  0
VERTEX
  8
┌▓È_1
  5
83A
 10
978.878
 20
-107.967
 30
0.000000
  70
    32
  0
VERTEX
  8
┌▓È_1
  5
83B
 10
978.866
 20
-108.008
 30
0.000000
  70
    32
  0
VERTEX
  8
┌▓È_1
  5
83C
 10
978.854
 20
-108.049
 30
0.000000
  70
    32
  0
VERTEX
  8
┌▓È_1
  5
83D
 10
978.842
 20
-108.093
 30
0.000000
  70
    32
  0
VERTEX
  8
┌▓È_1
  5
83E
 10
978.830
 20
-108.138
 30
0.000000
  70
    32
  0
VERTEX
  8
┌▓È_1
  5
83F
 10
978.818
 20
-108.185
 30
0.000000
  70
    32
  0
VERTEX
  8
┌▓È_1
  5
840
 10
978.807
 20
-108.233
 30
0.000000
  70
    32
  0
VERTEX
  8
┌▓È_1
  5
841
 10
978.796
 20
-108.283
 30
0.000000
  70
    32
  0
VERTEX
  8
┌▓È_1
  5
842
 10
978.785
 20
-108.334
 30
0.000000
  70
    32
  0
VERTEX
  8
┌▓È_1
  5
843
 10
978.774
 20
-108.387
 30
0.000000
  70
    32
  0
VERTEX
  8
┌▓È_1
  5
844
 10
978.764
 20
-108.441
 30
0.000000
  70
    32
  0
VERTEX
  8
┌▓È_1
  5
845
 10
978.754
 20
-108.497
 30
0.000000
  70
    32
  0
VERTEX
  8
┌▓È_1
  5
846
 10
978.744
 20
-108.554
 30
0.000000
  70
    32
  0
VERTEX
  8
┌▓È_1
  5
847
 10
978.734
 20
-108.613
 30
0.000000
  70
    32
  0
VERTEX
  8
┌▓È_1
  5
848
 10
978.725
 20
-108.672
 30
0.000000
  70
    32
  0
VERTEX
  8
┌▓È_1
  5
849
 10
978.715
 20
-108.733
 30
0.000000
  70
    32
  0
VERTEX
  8
┌▓È_1
  5
84A
 10
978.707
 20
-108.796
 30
0.000000
  70
    32
  0
VERTEX
  8
┌▓È_1
  5
84B
 10
978.698
 20
-108.859
 30
0.000000
  70
    32
  0
VERTEX
  8
┌▓È_1
  5
84C
 10
978.690
 20
-108.924
 30
0.000000
  70
    32
  0
VERTEX
  8
┌▓È_1
  5
84D
 10
978.682
 20
-108.990
 30
0.000000
  70
    32
  0
VERTEX
  8
┌▓È_1
  5
84E
 10
978.674
 20
-109.056
 30
0.000000
  70
    32
  0
VERTEX
  8
┌▓È_1
  5
84F
 10
978.666
 20
-109.124
 30
0.000000
  70
    32
  0
VERTEX
  8
┌▓È_1
  5
850
 10
978.659
 20
-109.193
 30
0.000000
  70
    32
  0
VERTEX
  8
┌▓È_1
  5
851
 10
978.652
 20
-109.263
 30
0.000000
  70
    32
  0
VERTEX
  8
┌▓È_1
  5
852
 10
978.646
 20
-109.334
 30
0.000000
  70
    32
  0
VERTEX
  8
┌▓È_1
  5
853
 10
978.639
 20
-109.406
 30
0.000000
  70
    32
  0
VERTEX
  8
┌▓È_1
  5
854
 10
978.633
 20
-109.478
 30
0.000000
  70
    32
  0
VERTEX
  8
┌▓È_1
  5
855
 10
978.628
 20
-109.551
 30
0.000000
  70
    32
  0
VERTEX
  8
┌▓È_1
  5
856
 10
978.623
 20
-109.626
 30
0.000000
  70
    32
  0
VERTEX
  8
┌▓È_1
  5
857
 10
978.618
 20
-109.700
 30
0.000000
  70
    32
  0
VERTEX
  8
┌▓È_1
  5
858
 10
978.613
 20
-109.776
 30
0.000000
  70
    32
  0
VERTEX
  8
┌▓È_1
  5
859
 10
978.609
 20
-109.852
 30
0.000000
  70
    32
  0
VERTEX
  8
┌▓È_1
  5
85A
 10
978.605
 20
-109.928
 30
0.000000
  70
    32
  0
VERTEX
  8
┌▓È_1
  5
85B
 10
978.601
 20
-110.006
 30
0.000000
  70
    32
  0
VERTEX
  8
┌▓È_1
  5
85C
 10
978.598
 20
-110.083
 30
0.000000
  70
    32
  0
VERTEX
  8
┌▓È_1
  5
85D
 10
978.595
 20
-110.161
 30
0.000000
  70
    32
  0
VERTEX
  8
┌▓È_1
  5
85E
 10
978.592
 20
-110.240
 30
0.000000
  70
    32
  0
VERTEX
  8
┌▓È_1
  5
85F
 10
978.590
 20
-110.318
 30
0.000000
  70
    32
  0
VERTEX
  8
┌▓È_1
  5
860
 10
978.588
 20
-110.397
 30
0.000000
  70
    32
  0
VERTEX
  8
┌▓È_1
  5
861
 10
978.586
 20
-110.477
 30
0.000000
  70
    32
  0
VERTEX
  8
┌▓È_1
  5
862
 10
978.585
 20
-110.556
 30
0.000000
  70
    32
  0
VERTEX
  8
┌▓È_1
  5
863
 10
978.584
 20
-110.636
 30
0.000000
  70
    32
  0
VERTEX
  8
┌▓È_1
  5
864
 10
978.584
 20
-110.715
 30
0.000000
  70
    32
  0
VERTEX
  8
┌▓È_1
  5
865
 10
978.584
 20
-110.795
 30
0.000000
  70
    32
  0
VERTEX
  8
┌▓È_1
  5
866
 10
978.584
 20
-110.875
 30
0.000000
  70
    32
  0
VERTEX
  8
┌▓È_1
  5
867
 10
978.584
 20
-110.955
 30
0.000000
  70
    32
  0
VERTEX
  8
┌▓È_1
  5
868
 10
978.585
 20
-111.034
 30
0.000000
  70
    32
  0
VERTEX
  8
┌▓È_1
  5
869
 10
978.587
 20
-111.114
 30
0.000000
  70
    32
  0
VERTEX
  8
┌▓È_1
  5
86A
 10
978.588
 20
-111.193
 30
0.000000
  70
    32
  0
VERTEX
  8
┌▓È_1
  5
86B
 10
978.590
 20
-111.272
 30
0.000000
  70
    32
  0
VERTEX
  8
┌▓È_1
  5
86C
 10
978.592
 20
-111.351
 30
0.000000
  70
    32
  0
VERTEX
  8
┌▓È_1
  5
86D
 10
978.595
 20
-111.429
 30
0.000000
  70
    32
  0
VERTEX
  8
┌▓È_1
  5
86E
 10
978.598
 20
-111.507
 30
0.000000
  70
    32
  0
VERTEX
  8
┌▓È_1
  5
86F
 10
978.601
 20
-111.585
 30
0.000000
  70
    32
  0
VERTEX
  8
┌▓È_1
  5
870
 10
978.605
 20
-111.662
 30
0.000000
  70
    32
  0
VERTEX
  8
┌▓È_1
  5
871
 10
978.609
 20
-111.739
 30
0.000000
  70
    32
  0
VERTEX
  8
┌▓È_1
  5
872
 10
978.613
 20
-111.815
 30
0.000000
  70
    32
  0
VERTEX
  8
┌▓È_1
  5
873
 10
978.618
 20
-111.890
 30
0.000000
  70
    32
  0
VERTEX
  8
┌▓È_1
  5
874
 10
978.623
 20
-111.965
 30
0.000000
  70
    32
  0
VERTEX
  8
┌▓È_1
  5
875
 10
978.628
 20
-112.039
 30
0.000000
  70
    32
  0
VERTEX
  8
┌▓È_1
  5
876
 10
978.634
 20
-112.112
 30
0.000000
  70
    32
  0
VERTEX
  8
┌▓È_1
  5
877
 10
978.640
 20
-112.185
 30
0.000000
  70
    32
  0
VERTEX
  8
┌▓È_1
  5
878
 10
978.646
 20
-112.256
 30
0.000000
  70
    32
  0
VERTEX
  8
┌▓È_1
  5
879
 10
978.652
 20
-112.327
 30
0.000000
  70
    32
  0
VERTEX
  8
┌▓È_1
  5
87A
 10
978.659
 20
-112.397
 30
0.000000
  70
    32
  0
VERTEX
  8
┌▓È_1
  5
87B
 10
978.666
 20
-112.466
 30
0.000000
  70
    32
  0
VERTEX
  8
┌▓È_1
  5
87C
 10
978.674
 20
-112.534
 30
0.000000
  70
    32
  0
VERTEX
  8
┌▓È_1
  5
87D
 10
978.682
 20
-112.601
 30
0.000000
  70
    32
  0
VERTEX
  8
┌▓È_1
  5
87E
 10
978.690
 20
-112.667
 30
0.000000
  70
    32
  0
VERTEX
  8
┌▓È_1
  5
87F
 10
978.698
 20
-112.731
 30
0.000000
  70
    32
  0
VERTEX
  8
┌▓È_1
  5
880
 10
978.707
 20
-112.795
 30
0.000000
  70
    32
  0
VERTEX
  8
┌▓È_1
  5
881
 10
978.716
 20
-112.857
 30
0.000000
  70
    32
  0
VERTEX
  8
┌▓È_1
  5
882
 10
978.725
 20
-112.918
 30
0.000000
  70
    32
  0
VERTEX
  8
┌▓È_1
  5
883
 10
978.734
 20
-112.978
 30
0.000000
  70
    32
  0
VERTEX
  8
┌▓È_1
  5
884
 10
978.744
 20
-113.036
 30
0.000000
  70
    32
  0
VERTEX
  8
┌▓È_1
  5
885
 10
978.754
 20
-113.093
 30
0.000000
  70
    32
  0
VERTEX
  8
┌▓È_1
  5
886
 10
978.764
 20
-113.149
 30
0.000000
  70
    32
  0
VERTEX
  8
┌▓È_1
  5
887
 10
978.775
 20
-113.203
 30
0.000000
  70
    32
  0
VERTEX
  8
┌▓È_1
  5
888
 10
978.785
 20
-113.256
 30
0.000000
  70
    32
  0
VERTEX
  8
┌▓È_1
  5
889
 10
978.796
 20
-113.307
 30
0.000000
  70
    32
  0
VERTEX
  8
┌▓È_1
  5
88A
 10
978.807
 20
-113.357
 30
0.000000
  70
    32
  0
VERTEX
  8
┌▓È_1
  5
88B
 10
978.819
 20
-113.406
 30
0.000000
  70
    32
  0
VERTEX
  8
┌▓È_1
  5
88C
 10
978.830
 20
-113.452
 30
0.000000
  70
    32
  0
VERTEX
  8
┌▓È_1
  5
88D
 10
978.842
 20
-113.497
 30
0.000000
  70
    32
  0
VERTEX
  8
┌▓È_1
  5
88E
 10
978.854
 20
-113.541
 30
0.000000
  70
    32
  0
VERTEX
  8
┌▓È_1
  5
88F
 10
978.866
 20
-113.583
 30
0.000000
  70
    32
  0
VERTEX
  8
┌▓È_1
  5
890
 10
978.879
 20
-113.623
 30
0.000000
  70
    32
  0
VERTEX
  8
┌▓È_1
  5
891
 10
978.891
 20
-113.661
 30
0.000000
  70
    32
  0
VERTEX
  8
┌▓È_1
  5
892
 10
978.904
 20
-113.698
 30
0.000000
  70
    32
  0
VERTEX
  8
┌▓È_1
  5
893
 10
978.916
 20
-113.733
 30
0.000000
  70
    32
  0
VERTEX
  8
┌▓È_1
  5
894
 10
978.929
 20
-113.766
 30
0.000000
  70
    32
  0
VERTEX
  8
┌▓È_1
  5
895
 10
978.943
 20
-113.798
 30
0.000000
  70
    32
  0
VERTEX
  8
┌▓È_1
  5
896
 10
978.956
 20
-113.827
 30
0.000000
  70
    32
  0
VERTEX
  8
┌▓È_1
  5
897
 10
978.969
 20
-113.855
 30
0.000000
  70
    32
  0
VERTEX
  8
┌▓È_1
  5
898
 10
978.983
 20
-113.881
 30
0.000000
  70
    32
  0
VERTEX
  8
┌▓È_1
  5
899
 10
978.996
 20
-113.905
 30
0.000000
  70
    32
  0
VERTEX
  8
┌▓È_1
  5
89A
 10
979.010
 20
-113.927
 30
0.000000
  70
    32
  0
VERTEX
  8
┌▓È_1
  5
89B
 10
979.024
 20
-113.948
 30
0.000000
  70
    32
  0
VERTEX
  8
┌▓È_1
  5
89C
 10
979.038
 20
-113.966
 30
0.000000
  70
    32
  0
VERTEX
  8
┌▓È_1
  5
89D
 10
979.052
 20
-113.983
 30
0.000000
  70
    32
  0
VERTEX
  8
┌▓È_1
  5
89E
 10
979.066
 20
-113.997
 30
0.000000
  70
    32
  0
VERTEX
  8
┌▓È_1
  5
89F
 10
979.080
 20
-114.010
 30
0.000000
  70
    32
  0
VERTEX
  8
┌▓È_1
  5
8A0
 10
979.094
 20
-114.021
 30
0.000000
  70
    32
  0
VERTEX
  8
┌▓È_1
  5
8A1
 10
979.108
 20
-114.029
 30
0.000000
  70
    32
  0
VERTEX
  8
┌▓È_1
  5
8A2
 10
979.122
 20
-114.036
 30
0.000000
  70
    32
  0
VERTEX
  8
┌▓È_1
  5
8A3
 10
979.136
 20
-114.041
 30
0.000000
  70
    32
  0
VERTEX
  8
┌▓È_1
  5
8A4
 10
979.151
 20
-114.044
 30
0.000000
  70
    32
  0
VERTEX
  8
┌▓È_1
  5
8A5
 10
979.165
 20
-114.045
 30
0.000000
  70
    32
  0
SEQEND
  8
┌▓È_1
  5
8A6
  0
POLYLINE
  5
3D5
  8
┌▓È_1
  6
STITCH
 10
984.5033081857855
 20
-107.54522544706211
 30
0.0
 66
     1
 70
     8
  0
VERTEX
  8
┌▓È_1
  5
8A7
 10
984.503
 20
-107.545
 30
0.000000
  70
    32
  0
VERTEX
  8
┌▓È_1
  5
8A8
 10
984.518
 20
-107.546
 30
0.000000
  70
    32
  0
VERTEX
  8
┌▓È_1
  5
8A9
 10
984.532
 20
-107.549
 30
0.000000
  70
    32
  0
VERTEX
  8
┌▓È_1
  5
8AA
 10
984.546
 20
-107.554
 30
0.000000
  70
    32
  0
VERTEX
  8
┌▓È_1
  5
8AB
 10
984.560
 20
-107.561
 30
0.000000
  70
    32
  0
VERTEX
  8
┌▓È_1
  5
8AC
 10
984.574
 20
-107.570
 30
0.000000
  70
    32
  0
VERTEX
  8
┌▓È_1
  5
8AD
 10
984.589
 20
-107.580
 30
0.000000
  70
    32
  0
VERTEX
  8
┌▓È_1
  5
8AE
 10
984.603
 20
-107.593
 30
0.000000
  70
    32
  0
VERTEX
  8
┌▓È_1
  5
8AF
 10
984.617
 20
-107.608
 30
0.000000
  70
    32
  0
VERTEX
  8
┌▓È_1
  5
8B0
 10
984.631
 20
-107.624
 30
0.000000
  70
    32
  0
VERTEX
  8
┌▓È_1
  5
8B1
 10
984.644
 20
-107.643
 30
0.000000
  70
    32
  0
VERTEX
  8
┌▓È_1
  5
8B2
 10
984.658
 20
-107.663
 30
0.000000
  70
    32
  0
VERTEX
  8
┌▓È_1
  5
8B3
 10
984.672
 20
-107.685
 30
0.000000
  70
    32
  0
VERTEX
  8
┌▓È_1
  5
8B4
 10
984.686
 20
-107.709
 30
0.000000
  70
    32
  0
VERTEX
  8
┌▓È_1
  5
8B5
 10
984.699
 20
-107.735
 30
0.000000
  70
    32
  0
VERTEX
  8
┌▓È_1
  5
8B6
 10
984.712
 20
-107.763
 30
0.000000
  70
    32
  0
VERTEX
  8
┌▓È_1
  5
8B7
 10
984.726
 20
-107.793
 30
0.000000
  70
    32
  0
VERTEX
  8
┌▓È_1
  5
8B8
 10
984.739
 20
-107.824
 30
0.000000
  70
    32
  0
VERTEX
  8
┌▓È_1
  5
8B9
 10
984.752
 20
-107.857
 30
0.000000
  70
    32
  0
VERTEX
  8
┌▓È_1
  5
8BA
 10
984.765
 20
-107.892
 30
0.000000
  70
    32
  0
VERTEX
  8
┌▓È_1
  5
8BB
 10
984.777
 20
-107.929
 30
0.000000
  70
    32
  0
VERTEX
  8
┌▓È_1
  5
8BC
 10
984.790
 20
-107.967
 30
0.000000
  70
    32
  0
VERTEX
  8
┌▓È_1
  5
8BD
 10
984.802
 20
-108.008
 30
0.000000
  70
    32
  0
VERTEX
  8
┌▓È_1
  5
8BE
 10
984.814
 20
-108.049
 30
0.000000
  70
    32
  0
VERTEX
  8
┌▓È_1
  5
8BF
 10
984.826
 20
-108.093
 30
0.000000
  70
    32
  0
VERTEX
  8
┌▓È_1
  5
8C0
 10
984.838
 20
-108.138
 30
0.000000
  70
    32
  0
VERTEX
  8
┌▓È_1
  5
8C1
 10
984.849
 20
-108.185
 30
0.000000
  70
    32
  0
VERTEX
  8
┌▓È_1
  5
8C2
 10
984.861
 20
-108.233
 30
0.000000
  70
    32
  0
VERTEX
  8
┌▓È_1
  5
8C3
 10
984.872
 20
-108.283
 30
0.000000
  70
    32
  0
VERTEX
  8
┌▓È_1
  5
8C4
 10
984.883
 20
-108.334
 30
0.000000
  70
    32
  0
VERTEX
  8
┌▓È_1
  5
8C5
 10
984.893
 20
-108.387
 30
0.000000
  70
    32
  0
VERTEX
  8
┌▓È_1
  5
8C6
 10
984.904
 20
-108.441
 30
0.000000
  70
    32
  0
VERTEX
  8
┌▓È_1
  5
8C7
 10
984.914
 20
-108.497
 30
0.000000
  70
    32
  0
VERTEX
  8
┌▓È_1
  5
8C8
 10
984.924
 20
-108.554
 30
0.000000
  70
    32
  0
VERTEX
  8
┌▓È_1
  5
8C9
 10
984.934
 20
-108.613
 30
0.000000
  70
    32
  0
VERTEX
  8
┌▓È_1
  5
8CA
 10
984.943
 20
-108.672
 30
0.000000
  70
    32
  0
VERTEX
  8
┌▓È_1
  5
8CB
 10
984.952
 20
-108.733
 30
0.000000
  70
    32
  0
VERTEX
  8
┌▓È_1
  5
8CC
 10
984.961
 20
-108.796
 30
0.000000
  70
    32
  0
VERTEX
  8
┌▓È_1
  5
8CD
 10
984.970
 20
-108.859
 30
0.000000
  70
    32
  0
VERTEX
  8
┌▓È_1
  5
8CE
 10
984.978
 20
-108.924
 30
0.000000
  70
    32
  0
VERTEX
  8
┌▓È_1
  5
8CF
 10
984.986
 20
-108.990
 30
0.000000
  70
    32
  0
VERTEX
  8
┌▓È_1
  5
8D0
 10
984.994
 20
-109.056
 30
0.000000
  70
    32
  0
VERTEX
  8
┌▓È_1
  5
8D1
 10
985.002
 20
-109.124
 30
0.000000
  70
    32
  0
VERTEX
  8
┌▓È_1
  5
8D2
 10
985.009
 20
-109.193
 30
0.000000
  70
    32
  0
VERTEX
  8
┌▓È_1
  5
8D3
 10
985.016
 20
-109.263
 30
0.000000
  70
    32
  0
VERTEX
  8
┌▓È_1
  5
8D4
 10
985.022
 20
-109.334
 30
0.000000
  70
    32
  0
VERTEX
  8
┌▓È_1
  5
8D5
 10
985.028
 20
-109.406
 30
0.000000
  70
    32
  0
VERTEX
  8
┌▓È_1
  5
8D6
 10
985.034
 20
-109.478
 30
0.000000
  70
    32
  0
VERTEX
  8
┌▓È_1
  5
8D7
 10
985.040
 20
-109.551
 30
0.000000
  70
    32
  0
VERTEX
  8
┌▓È_1
  5
8D8
 10
985.045
 20
-109.626
 30
0.000000
  70
    32
  0
VERTEX
  8
┌▓È_1
  5
8D9
 10
985.050
 20
-109.700
 30
0.000000
  70
    32
  0
VERTEX
  8
┌▓È_1
  5
8DA
 10
985.055
 20
-109.776
 30
0.000000
  70
    32
  0
VERTEX
  8
┌▓È_1
  5
8DB
 10
985.059
 20
-109.852
 30
0.000000
  70
    32
  0
VERTEX
  8
┌▓È_1
  5
8DC
 10
985.063
 20
-109.928
 30
0.000000
  70
    32
  0
VERTEX
  8
┌▓È_1
  5
8DD
 10
985.067
 20
-110.006
 30
0.000000
  70
    32
  0
VERTEX
  8
┌▓È_1
  5
8DE
 10
985.070
 20
-110.083
 30
0.000000
  70
    32
  0
VERTEX
  8
┌▓È_1
  5
8DF
 10
985.073
 20
-110.161
 30
0.000000
  70
    32
  0
VERTEX
  8
┌▓È_1
  5
8E0
 10
985.076
 20
-110.240
 30
0.000000
  70
    32
  0
VERTEX
  8
┌▓È_1
  5
8E1
 10
985.078
 20
-110.318
 30
0.000000
  70
    32
  0
VERTEX
  8
┌▓È_1
  5
8E2
 10
985.080
 20
-110.397
 30
0.000000
  70
    32
  0
VERTEX
  8
┌▓È_1
  5
8E3
 10
985.081
 20
-110.477
 30
0.000000
  70
    32
  0
VERTEX
  8
┌▓È_1
  5
8E4
 10
985.083
 20
-110.556
 30
0.000000
  70
    32
  0
VERTEX
  8
┌▓È_1
  5
8E5
 10
985.083
 20
-110.636
 30
0.000000
  70
    32
  0
VERTEX
  8
┌▓È_1
  5
8E6
 10
985.084
 20
-110.715
 30
0.000000
  70
    32
  0
VERTEX
  8
┌▓È_1
  5
8E7
 10
985.084
 20
-110.795
 30
0.000000
  70
    32
  0
VERTEX
  8
┌▓È_1
  5
8E8
 10
985.084
 20
-110.875
 30
0.000000
  70
    32
  0
VERTEX
  8
┌▓È_1
  5
8E9
 10
985.083
 20
-110.955
 30
0.000000
  70
    32
  0
VERTEX
  8
┌▓È_1
  5
8EA
 10
985.083
 20
-111.034
 30
0.000000
  70
    32
  0
VERTEX
  8
┌▓È_1
  5
8EB
 10
985.081
 20
-111.114
 30
0.000000
  70
    32
  0
VERTEX
  8
┌▓È_1
  5
8EC
 10
985.080
 20
-111.193
 30
0.000000
  70
    32
  0
VERTEX
  8
┌▓È_1
  5
8ED
 10
985.078
 20
-111.272
 30
0.000000
  70
    32
  0
VERTEX
  8
┌▓È_1
  5
8EE
 10
985.076
 20
-111.351
 30
0.000000
  70
    32
  0
VERTEX
  8
┌▓È_1
  5
8EF
 10
985.073
 20
-111.429
 30
0.000000
  70
    32
  0
VERTEX
  8
┌▓È_1
  5
8F0
 10
985.070
 20
-111.507
 30
0.000000
  70
    32
  0
VERTEX
  8
┌▓È_1
  5
8F1
 10
985.067
 20
-111.585
 30
0.000000
  70
    32
  0
VERTEX
  8
┌▓È_1
  5
8F2
 10
985.063
 20
-111.662
 30
0.000000
  70
    32
  0
VERTEX
  8
┌▓È_1
  5
8F3
 10
985.059
 20
-111.739
 30
0.000000
  70
    32
  0
VERTEX
  8
┌▓È_1
  5
8F4
 10
985.055
 20
-111.815
 30
0.000000
  70
    32
  0
VERTEX
  8
┌▓È_1
  5
8F5
 10
985.050
 20
-111.890
 30
0.000000
  70
    32
  0
VERTEX
  8
┌▓È_1
  5
8F6
 10
985.045
 20
-111.965
 30
0.000000
  70
    32
  0
VERTEX
  8
┌▓È_1
  5
8F7
 10
985.040
 20
-112.039
 30
0.000000
  70
    32
  0
VERTEX
  8
┌▓È_1
  5
8F8
 10
985.034
 20
-112.112
 30
0.000000
  70
    32
  0
VERTEX
  8
┌▓È_1
  5
8F9
 10
985.028
 20
-112.185
 30
0.000000
  70
    32
  0
VERTEX
  8
┌▓È_1
  5
8FA
 10
985.022
 20
-112.256
 30
0.000000
  70
    32
  0
VERTEX
  8
┌▓È_1
  5
8FB
 10
985.015
 20
-112.327
 30
0.000000
  70
    32
  0
VERTEX
  8
┌▓È_1
  5
8FC
 10
985.009
 20
-112.397
 30
0.000000
  70
    32
  0
VERTEX
  8
┌▓È_1
  5
8FD
 10
985.001
 20
-112.466
 30
0.000000
  70
    32
  0
VERTEX
  8
┌▓È_1
  5
8FE
 10
984.994
 20
-112.534
 30
0.000000
  70
    32
  0
VERTEX
  8
┌▓È_1
  5
8FF
 10
984.986
 20
-112.601
 30
0.000000
  70
    32
  0
VERTEX
  8
┌▓È_1
  5
900
 10
984.978
 20
-112.667
 30
0.000000
  70
    32
  0
VERTEX
  8
┌▓È_1
  5
901
 10
984.970
 20
-112.731
 30
0.000000
  70
    32
  0
VERTEX
  8
┌▓È_1
  5
902
 10
984.961
 20
-112.795
 30
0.000000
  70
    32
  0
VERTEX
  8
┌▓È_1
  5
903
 10
984.952
 20
-112.857
 30
0.000000
  70
    32
  0
VERTEX
  8
┌▓È_1
  5
904
 10
984.943
 20
-112.918
 30
0.000000
  70
    32
  0
VERTEX
  8
┌▓È_1
  5
905
 10
984.933
 20
-112.978
 30
0.000000
  70
    32
  0
VERTEX
  8
┌▓È_1
  5
906
 10
984.924
 20
-113.036
 30
0.000000
  70
    32
  0
VERTEX
  8
┌▓È_1
  5
907
 10
984.914
 20
-113.093
 30
0.000000
  70
    32
  0
VERTEX
  8
┌▓È_1
  5
908
 10
984.904
 20
-113.149
 30
0.000000
  70
    32
  0
VERTEX
  8
┌▓È_1
  5
909
 10
984.893
 20
-113.203
 30
0.000000
  70
    32
  0
VERTEX
  8
┌▓È_1
  5
90A
 10
984.882
 20
-113.256
 30
0.000000
  70
    32
  0
VERTEX
  8
┌▓È_1
  5
90B
 10
984.872
 20
-113.307
 30
0.000000
  70
    32
  0
VERTEX
  8
┌▓È_1
  5
90C
 10
984.860
 20
-113.357
 30
0.000000
  70
    32
  0
VERTEX
  8
┌▓È_1
  5
90D
 10
984.849
 20
-113.406
 30
0.000000
  70
    32
  0
VERTEX
  8
┌▓È_1
  5
90E
 10
984.837
 20
-113.452
 30
0.000000
  70
    32
  0
VERTEX
  8
┌▓È_1
  5
90F
 10
984.826
 20
-113.497
 30
0.000000
  70
    32
  0
VERTEX
  8
┌▓È_1
  5
910
 10
984.814
 20
-113.541
 30
0.000000
  70
    32
  0
VERTEX
  8
┌▓È_1
  5
911
 10
984.802
 20
-113.583
 30
0.000000
  70
    32
  0
VERTEX
  8
┌▓È_1
  5
912
 10
984.789
 20
-113.623
 30
0.000000
  70
    32
  0
VERTEX
  8
┌▓È_1
  5
913
 10
984.777
 20
-113.661
 30
0.000000
  70
    32
  0
VERTEX
  8
┌▓È_1
  5
914
 10
984.764
 20
-113.698
 30
0.000000
  70
    32
  0
VERTEX
  8
┌▓È_1
  5
915
 10
984.751
 20
-113.733
 30
0.000000
  70
    32
  0
VERTEX
  8
┌▓È_1
  5
916
 10
984.738
 20
-113.766
 30
0.000000
  70
    32
  0
VERTEX
  8
┌▓È_1
  5
917
 10
984.725
 20
-113.798
 30
0.000000
  70
    32
  0
VERTEX
  8
┌▓È_1
  5
918
 10
984.712
 20
-113.827
 30
0.000000
  70
    32
  0
VERTEX
  8
┌▓È_1
  5
919
 10
984.699
 20
-113.855
 30
0.000000
  70
    32
  0
VERTEX
  8
┌▓È_1
  5
91A
 10
984.685
 20
-113.881
 30
0.000000
  70
    32
  0
VERTEX
  8
┌▓È_1
  5
91B
 10
984.672
 20
-113.905
 30
0.000000
  70
    32
  0
VERTEX
  8
┌▓È_1
  5
91C
 10
984.658
 20
-113.927
 30
0.000000
  70
    32
  0
VERTEX
  8
┌▓È_1
  5
91D
 10
984.644
 20
-113.948
 30
0.000000
  70
    32
  0
VERTEX
  8
┌▓È_1
  5
91E
 10
984.630
 20
-113.966
 30
0.000000
  70
    32
  0
VERTEX
  8
┌▓È_1
  5
91F
 10
984.616
 20
-113.983
 30
0.000000
  70
    32
  0
VERTEX
  8
┌▓È_1
  5
920
 10
984.602
 20
-113.997
 30
0.000000
  70
    32
  0
VERTEX
  8
┌▓È_1
  5
921
 10
984.588
 20
-114.010
 30
0.000000
  70
    32
  0
VERTEX
  8
┌▓È_1
  5
922
 10
984.574
 20
-114.021
 30
0.000000
  70
    32
  0
VERTEX
  8
┌▓È_1
  5
923
 10
984.560
 20
-114.029
 30
0.000000
  70
    32
  0
VERTEX
  8
┌▓È_1
  5
924
 10
984.546
 20
-114.036
 30
0.000000
  70
    32
  0
VERTEX
  8
┌▓È_1
  5
925
 10
984.531
 20
-114.041
 30
0.000000
  70
    32
  0
VERTEX
  8
┌▓È_1
  5
926
 10
984.517
 20
-114.044
 30
0.000000
  70
    32
  0
VERTEX
  8
┌▓È_1
  5
927
 10
984.503
 20
-114.045
 30
0.000000
  70
    32
  0
SEQEND
  8
┌▓È_1
  5
928
  0
POLYLINE
  5
3D6
  8
┌▓È_1
  6
STITCH
 10
984.50290107729995
 20
-120.54495729751252
 30
0.0
 66
     1
 70
     8
  0
VERTEX
  8
┌▓È_1
  5
929
 10
984.503
 20
-120.545
 30
0.000000
  70
    32
  0
VERTEX
  8
┌▓È_1
  5
92A
 10
984.517
 20
-120.544
 30
0.000000
  70
    32
  0
VERTEX
  8
┌▓È_1
  5
92B
 10
984.531
 20
-120.541
 30
0.000000
  70
    32
  0
VERTEX
  8
┌▓È_1
  5
92C
 10
984.546
 20
-120.536
 30
0.000000
  70
    32
  0
VERTEX
  8
┌▓È_1
  5
92D
 10
984.560
 20
-120.529
 30
0.000000
  70
    32
  0
VERTEX
  8
┌▓È_1
  5
92E
 10
984.574
 20
-120.521
 30
0.000000
  70
    32
  0
VERTEX
  8
┌▓È_1
  5
92F
 10
984.588
 20
-120.510
 30
0.000000
  70
    32
  0
VERTEX
  8
┌▓È_1
  5
930
 10
984.602
 20
-120.497
 30
0.000000
  70
    32
  0
VERTEX
  8
┌▓È_1
  5
931
 10
984.616
 20
-120.483
 30
0.000000
  70
    32
  0
VERTEX
  8
┌▓È_1
  5
932
 10
984.630
 20
-120.466
 30
0.000000
  70
    32
  0
VERTEX
  8
┌▓È_1
  5
933
 10
984.644
 20
-120.448
 30
0.000000
  70
    32
  0
VERTEX
  8
┌▓È_1
  5
934
 10
984.658
 20
-120.427
 30
0.000000
  70
    32
  0
VERTEX
  8
┌▓È_1
  5
935
 10
984.672
 20
-120.405
 30
0.000000
  70
    32
  0
VERTEX
  8
┌▓È_1
  5
936
 10
984.685
 20
-120.381
 30
0.000000
  70
    32
  0
VERTEX
  8
┌▓È_1
  5
937
 10
984.699
 20
-120.355
 30
0.000000
  70
    32
  0
VERTEX
  8
┌▓È_1
  5
938
 10
984.712
 20
-120.327
 30
0.000000
  70
    32
  0
VERTEX
  8
┌▓È_1
  5
939
 10
984.725
 20
-120.298
 30
0.000000
  70
    32
  0
VERTEX
  8
┌▓È_1
  5
93A
 10
984.738
 20
-120.266
 30
0.000000
  70
    32
  0
VERTEX
  8
┌▓È_1
  5
93B
 10
984.751
 20
-120.233
 30
0.000000
  70
    32
  0
VERTEX
  8
┌▓È_1
  5
93C
 10
984.764
 20
-120.198
 30
0.000000
  70
    32
  0
VERTEX
  8
┌▓È_1
  5
93D
 10
984.777
 20
-120.161
 30
0.000000
  70
    32
  0
VERTEX
  8
┌▓È_1
  5
93E
 10
984.789
 20
-120.123
 30
0.000000
  70
    32
  0
VERTEX
  8
┌▓È_1
  5
93F
 10
984.802
 20
-120.083
 30
0.000000
  70
    32
  0
VERTEX
  8
┌▓È_1
  5
940
 10
984.814
 20
-120.041
 30
0.000000
  70
    32
  0
VERTEX
  8
┌▓È_1
  5
941
 10
984.826
 20
-119.997
 30
0.000000
  70
    32
  0
VERTEX
  8
┌▓È_1
  5
942
 10
984.837
 20
-119.952
 30
0.000000
  70
    32
  0
VERTEX
  8
┌▓È_1
  5
943
 10
984.849
 20
-119.905
 30
0.000000
  70
    32
  0
VERTEX
  8
┌▓È_1
  5
944
 10
984.860
 20
-119.857
 30
0.000000
  70
    32
  0
VERTEX
  8
┌▓È_1
  5
945
 10
984.871
 20
-119.807
 30
0.000000
  70
    32
  0
VERTEX
  8
┌▓È_1
  5
946
 10
984.882
 20
-119.756
 30
0.000000
  70
    32
  0
VERTEX
  8
┌▓È_1
  5
947
 10
984.893
 20
-119.703
 30
0.000000
  70
    32
  0
VERTEX
  8
┌▓È_1
  5
948
 10
984.904
 20
-119.649
 30
0.000000
  70
    32
  0
VERTEX
  8
┌▓È_1
  5
949
 10
984.914
 20
-119.593
 30
0.000000
  70
    32
  0
VERTEX
  8
┌▓È_1
  5
94A
 10
984.924
 20
-119.536
 30
0.000000
  70
    32
  0
VERTEX
  8
┌▓È_1
  5
94B
 10
984.933
 20
-119.478
 30
0.000000
  70
    32
  0
VERTEX
  8
┌▓È_1
  5
94C
 10
984.943
 20
-119.418
 30
0.000000
  70
    32
  0
VERTEX
  8
┌▓È_1
  5
94D
 10
984.952
 20
-119.357
 30
0.000000
  70
    32
  0
VERTEX
  8
┌▓È_1
  5
94E
 10
984.961
 20
-119.294
 30
0.000000
  70
    32
  0
VERTEX
  8
┌▓È_1
  5
94F
 10
984.970
 20
-119.231
 30
0.000000
  70
    32
  0
VERTEX
  8
┌▓È_1
  5
950
 10
984.978
 20
-119.166
 30
0.000000
  70
    32
  0
VERTEX
  8
┌▓È_1
  5
951
 10
984.986
 20
-119.101
 30
0.000000
  70
    32
  0
VERTEX
  8
┌▓È_1
  5
952
 10
984.994
 20
-119.034
 30
0.000000
  70
    32
  0
VERTEX
  8
┌▓È_1
  5
953
 10
985.001
 20
-118.966
 30
0.000000
  70
    32
  0
VERTEX
  8
┌▓È_1
  5
954
 10
985.008
 20
-118.897
 30
0.000000
  70
    32
  0
VERTEX
  8
┌▓È_1
  5
955
 10
985.015
 20
-118.827
 30
0.000000
  70
    32
  0
VERTEX
  8
┌▓È_1
  5
956
 10
985.022
 20
-118.756
 30
0.000000
  70
    32
  0
VERTEX
  8
┌▓È_1
  5
957
 10
985.028
 20
-118.685
 30
0.000000
  70
    32
  0
VERTEX
  8
┌▓È_1
  5
958
 10
985.034
 20
-118.612
 30
0.000000
  70
    32
  0
VERTEX
  8
┌▓È_1
  5
959
 10
985.040
 20
-118.539
 30
0.000000
  70
    32
  0
VERTEX
  8
┌▓È_1
  5
95A
 10
985.045
 20
-118.465
 30
0.000000
  70
    32
  0
VERTEX
  8
┌▓È_1
  5
95B
 10
985.050
 20
-118.390
 30
0.000000
  70
    32
  0
VERTEX
  8
┌▓È_1
  5
95C
 10
985.055
 20
-118.314
 30
0.000000
  70
    32
  0
VERTEX
  8
┌▓È_1
  5
95D
 10
985.059
 20
-118.238
 30
0.000000
  70
    32
  0
VERTEX
  8
┌▓È_1
  5
95E
 10
985.063
 20
-118.162
 30
0.000000
  70
    32
  0
VERTEX
  8
┌▓È_1
  5
95F
 10
985.066
 20
-118.085
 30
0.000000
  70
    32
  0
VERTEX
  8
┌▓È_1
  5
960
 10
985.070
 20
-118.007
 30
0.000000
  70
    32
  0
VERTEX
  8
┌▓È_1
  5
961
 10
985.073
 20
-117.929
 30
0.000000
  70
    32
  0
VERTEX
  8
┌▓È_1
  5
962
 10
985.075
 20
-117.851
 30
0.000000
  70
    32
  0
VERTEX
  8
┌▓È_1
  5
963
 10
985.078
 20
-117.772
 30
0.000000
  70
    32
  0
VERTEX
  8
┌▓È_1
  5
964
 10
985.080
 20
-117.693
 30
0.000000
  70
    32
  0
VERTEX
  8
┌▓È_1
  5
965
 10
985.081
 20
-117.614
 30
0.000000
  70
    32
  0
VERTEX
  8
┌▓È_1
  5
966
 10
985.082
 20
-117.534
 30
0.000000
  70
    32
  0
VERTEX
  8
┌▓È_1
  5
967
 10
985.083
 20
-117.454
 30
0.000000
  70
    32
  0
VERTEX
  8
┌▓È_1
  5
968
 10
985.084
 20
-117.375
 30
0.000000
  70
    32
  0
VERTEX
  8
┌▓È_1
  5
969
 10
985.084
 20
-117.295
 30
0.000000
  70
    32
  0
VERTEX
  8
┌▓È_1
  5
96A
 10
985.084
 20
-117.215
 30
0.000000
  70
    32
  0
VERTEX
  8
┌▓È_1
  5
96B
 10
985.083
 20
-117.136
 30
0.000000
  70
    32
  0
VERTEX
  8
┌▓È_1
  5
96C
 10
985.082
 20
-117.056
 30
0.000000
  70
    32
  0
VERTEX
  8
┌▓È_1
  5
96D
 10
985.081
 20
-116.976
 30
0.000000
  70
    32
  0
VERTEX
  8
┌▓È_1
  5
96E
 10
985.080
 20
-116.897
 30
0.000000
  70
    32
  0
VERTEX
  8
┌▓È_1
  5
96F
 10
985.078
 20
-116.818
 30
0.000000
  70
    32
  0
VERTEX
  8
┌▓È_1
  5
970
 10
985.075
 20
-116.739
 30
0.000000
  70
    32
  0
VERTEX
  8
┌▓È_1
  5
971
 10
985.073
 20
-116.661
 30
0.000000
  70
    32
  0
VERTEX
  8
┌▓È_1
  5
972
 10
985.070
 20
-116.583
 30
0.000000
  70
    32
  0
VERTEX
  8
┌▓È_1
  5
973
 10
985.066
 20
-116.505
 30
0.000000
  70
    32
  0
VERTEX
  8
┌▓È_1
  5
974
 10
985.063
 20
-116.428
 30
0.000000
  70
    32
  0
VERTEX
  8
┌▓È_1
  5
975
 10
985.059
 20
-116.352
 30
0.000000
  70
    32
  0
VERTEX
  8
┌▓È_1
  5
976
 10
985.055
 20
-116.276
 30
0.000000
  70
    32
  0
VERTEX
  8
┌▓È_1
  5
977
 10
985.050
 20
-116.200
 30
0.000000
  70
    32
  0
VERTEX
  8
┌▓È_1
  5
978
 10
985.045
 20
-116.125
 30
0.000000
  70
    32
  0
VERTEX
  8
┌▓È_1
  5
979
 10
985.040
 20
-116.051
 30
0.000000
  70
    32
  0
VERTEX
  8
┌▓È_1
  5
97A
 10
985.034
 20
-115.978
 30
0.000000
  70
    32
  0
VERTEX
  8
┌▓È_1
  5
97B
 10
985.028
 20
-115.906
 30
0.000000
  70
    32
  0
VERTEX
  8
┌▓È_1
  5
97C
 10
985.022
 20
-115.834
 30
0.000000
  70
    32
  0
VERTEX
  8
┌▓È_1
  5
97D
 10
985.015
 20
-115.763
 30
0.000000
  70
    32
  0
VERTEX
  8
┌▓È_1
  5
97E
 10
985.008
 20
-115.693
 30
0.000000
  70
    32
  0
VERTEX
  8
┌▓È_1
  5
97F
 10
985.001
 20
-115.624
 30
0.000000
  70
    32
  0
VERTEX
  8
┌▓È_1
  5
980
 10
984.994
 20
-115.556
 30
0.000000
  70
    32
  0
VERTEX
  8
┌▓È_1
  5
981
 10
984.986
 20
-115.489
 30
0.000000
  70
    32
  0
VERTEX
  8
┌▓È_1
  5
982
 10
984.978
 20
-115.424
 30
0.000000
  70
    32
  0
VERTEX
  8
┌▓È_1
  5
983
 10
984.970
 20
-115.359
 30
0.000000
  70
    32
  0
VERTEX
  8
┌▓È_1
  5
984
 10
984.961
 20
-115.296
 30
0.000000
  70
    32
  0
VERTEX
  8
┌▓È_1
  5
985
 10
984.952
 20
-115.233
 30
0.000000
  70
    32
  0
VERTEX
  8
┌▓È_1
  5
986
 10
984.943
 20
-115.172
 30
0.000000
  70
    32
  0
VERTEX
  8
┌▓È_1
  5
987
 10
984.933
 20
-115.113
 30
0.000000
  70
    32
  0
VERTEX
  8
┌▓È_1
  5
988
 10
984.924
 20
-115.054
 30
0.000000
  70
    32
  0
VERTEX
  8
┌▓È_1
  5
989
 10
984.914
 20
-114.997
 30
0.000000
  70
    32
  0
VERTEX
  8
┌▓È_1
  5
98A
 10
984.904
 20
-114.941
 30
0.000000
  70
    32
  0
VERTEX
  8
┌▓È_1
  5
98B
 10
984.893
 20
-114.887
 30
0.000000
  70
    32
  0
VERTEX
  8
┌▓È_1
  5
98C
 10
984.882
 20
-114.834
 30
0.000000
  70
    32
  0
VERTEX
  8
┌▓È_1
  5
98D
 10
984.871
 20
-114.783
 30
0.000000
  70
    32
  0
VERTEX
  8
┌▓È_1
  5
98E
 10
984.860
 20
-114.733
 30
0.000000
  70
    32
  0
VERTEX
  8
┌▓È_1
  5
98F
 10
984.849
 20
-114.685
 30
0.000000
  70
    32
  0
VERTEX
  8
┌▓È_1
  5
990
 10
984.837
 20
-114.638
 30
0.000000
  70
    32
  0
VERTEX
  8
┌▓È_1
  5
991
 10
984.826
 20
-114.593
 30
0.000000
  70
    32
  0
VERTEX
  8
┌▓È_1
  5
992
 10
984.814
 20
-114.549
 30
0.000000
  70
    32
  0
VERTEX
  8
┌▓È_1
  5
993
 10
984.802
 20
-114.507
 30
0.000000
  70
    32
  0
VERTEX
  8
┌▓È_1
  5
994
 10
984.789
 20
-114.467
 30
0.000000
  70
    32
  0
VERTEX
  8
┌▓È_1
  5
995
 10
984.777
 20
-114.429
 30
0.000000
  70
    32
  0
VERTEX
  8
┌▓È_1
  5
996
 10
984.764
 20
-114.392
 30
0.000000
  70
    32
  0
VERTEX
  8
┌▓È_1
  5
997
 10
984.751
 20
-114.357
 30
0.000000
  70
    32
  0
VERTEX
  8
┌▓È_1
  5
998
 10
984.738
 20
-114.324
 30
0.000000
  70
    32
  0
VERTEX
  8
┌▓È_1
  5
999
 10
984.725
 20
-114.292
 30
0.000000
  70
    32
  0
VERTEX
  8
┌▓È_1
  5
99A
 10
984.712
 20
-114.263
 30
0.000000
  70
    32
  0
VERTEX
  8
┌▓È_1
  5
99B
 10
984.699
 20
-114.235
 30
0.000000
  70
    32
  0
VERTEX
  8
┌▓È_1
  5
99C
 10
984.685
 20
-114.209
 30
0.000000
  70
    32
  0
VERTEX
  8
┌▓È_1
  5
99D
 10
984.672
 20
-114.185
 30
0.000000
  70
    32
  0
VERTEX
  8
┌▓È_1
  5
99E
 10
984.658
 20
-114.163
 30
0.000000
  70
    32
  0
VERTEX
  8
┌▓È_1
  5
99F
 10
984.644
 20
-114.143
 30
0.000000
  70
    32
  0
VERTEX
  8
┌▓È_1
  5
9A0
 10
984.630
 20
-114.124
 30
0.000000
  70
    32
  0
VERTEX
  8
┌▓È_1
  5
9A1
 10
984.616
 20
-114.108
 30
0.000000
  70
    32
  0
VERTEX
  8
┌▓È_1
  5
9A2
 10
984.602
 20
-114.093
 30
0.000000
  70
    32
  0
VERTEX
  8
┌▓È_1
  5
9A3
 10
984.588
 20
-114.080
 30
0.000000
  70
    32
  0
VERTEX
  8
┌▓È_1
  5
9A4
 10
984.574
 20
-114.070
 30
0.000000
  70
    32
  0
VERTEX
  8
┌▓È_1
  5
9A5
 10
984.560
 20
-114.061
 30
0.000000
  70
    32
  0
VERTEX
  8
┌▓È_1
  5
9A6
 10
984.546
 20
-114.054
 30
0.000000
  70
    32
  0
VERTEX
  8
┌▓È_1
  5
9A7
 10
984.531
 20
-114.049
 30
0.000000
  70
    32
  0
VERTEX
  8
┌▓È_1
  5
9A8
 10
984.517
 20
-114.046
 30
0.000000
  70
    32
  0
VERTEX
  8
┌▓È_1
  5
9A9
 10
984.503
 20
-114.045
 30
0.000000
  70
    32
  0
SEQEND
  8
┌▓È_1
  5
9AA
  0
LINE
  5
3D7
  8
┌▓È_1
  6
STITCH
 10
974.08390107729986
 20
-132.04510956089999
 30
0.0
 11
974.08390107729986
 21
-121.5451095609
 31
0.0
  0
LINE
  5
3D8
  8
┌▓È_1
  6
STITCH
 10
975.08390107729986
 20
-127.53780828479999
 30
0.0
 11
975.08390107729986
 21
-114.0451095609
 31
0.0
  0
LINE
  5
3D9
  8
┌▓È_1
  6
STITCH
 10
978.08390107729997
 20
-104.14561462429999
 30
0.0
 11
978.08390107729997
 21
-108.3882553114
 31
0.0
  0
LINE
  5
3DA
  8
┌▓È_1
  6
STITCH
 10
974.30490096360006
 20
-114.3873936065
 30
0.0
 11
975.05857910499992
 21
-120.15133912500001
 31
0.0
  0
ARC
  5
3DB
  8
┌▓È_1
  6
STITCH
 10
962.58425087160015
 20
-111.54495318230001
 30
0.0
 40
1.0
 50
90.0
 51
180.0
  0
ARC
  5
3DC
  8
┌▓È_1
  6
STITCH
 10
962.58425087160015
 20
-116.54495318230001
 30
0.0
 40
1.0
 50
180.0
 51
270.0
  0
LINE
  5
3DD
  8
┌▓È_1
  6
STITCH
 10
966.83425087159992
 20
-117.54495318230001
 30
0.0
 11
964.33425087160015
 21
-117.54495318230001
 31
0.0
  0
LINE
  5
3DE
  8
┌▓È_1
  6
STITCH
 10
974.06135792679981
 20
-119.2951095609
 30
0.0
 11
974.08390107729986
 21
-119.2951095609
 31
0.0
  0
LINE
  5
3DF
  8
┌▓È_1
  6
STITCH
 10
977.08390107729997
 20
-127.53780828479999
 30
0.0
 11
977.08390107729997
 21
-114.0451095609
 31
0.0
  0
LINE
  5
3E0
  8
┌▓È_1
  6
STITCH
 10
975.08390107729986
 20
-127.53780828479999
 30
0.0
 11
977.08390107729997
 21
-127.53780828479999
 31
0.0
  0
LINE
  5
3E1
  8
┌▓È_1
  6
BORDER
 62
     3
 10
965.58425087160003
 20
-120.9323523593
 30
0.0
 11
965.58425087160003
 21
-106.9780313716
 31
0.0
  0
LINE
  5
3E2
  8
┌▓È_1
  6
BORDER
 62
     3
 10
976.12546486329995
 20
-114.04495318230001
 30
0.0
 11
958.35591753820006
 21
-114.04495318230001
 31
0.0
  0
LINE
  5
3E3
  8
┌▓È_1
  6
STITCH
 10
977.08411402779996
 20
-100.5523427064
 30
0.0
 11
977.08405731659991
 21
-104.14561462429999
 31
0.0
  0
LINE
  5
3E4
  8
┌▓È_1
  6
STITCH
 10
962.58425087160015
 20
-117.54495318230001
 30
0.0
 11
964.33425087160015
 21
-117.54495318230001
 31
0.0
  0
LINE
  5
3E5
  8
┌▓È_1
  6
STITCH
 10
966.83425087159992
 20
-117.54495318230001
 30
0.0
 11
971.58425087160015
 21
-117.54495318230001
 31
0.0
  0
LINE
  5
3E6
  8
┌▓È_1
  6
STITCH
 10
961.58425087159992
 20
-116.54495318230001
 30
0.0
 11
961.58425087159992
 21
-111.54495318230001
 31
0.0
  0
LINE
  5
3E7
  8
┌▓È_1
  6
STITCH
 10
975.08409836270005
 20
-101.54488528109999
 30
0.0
 11
973.58380848470006
 21
-101.54488528109999
 31
0.0
  0
LINE
  5
3E8
  8
┌▓È_1
  6
STITCH
 10
954.38390107729981
 20
-132.04510956089999
 30
0.0
 11
973.08390107729986
 21
-132.04510956089999
 31
0.0
  0
LINE
  5
3E9
  8
┌▓È_1
  6
STITCH
 10
953.38390107729981
 20
-143.04510956089999
 30
0.0
 11
953.38390107729981
 21
-133.04510956089999
 31
0.0
  0
LINE
  5
3EA
  8
┌▓È_1
  6
STITCH
 10
984.88390107730004
 20
-120.54495729750001
 30
0.0
 11
978.78390107729979
 21
-120.54495729750001
 31
0.0
  0
LINE
  5
3EB
  8
┌▓È_1
  6
STITCH
 10
978.58390265560013
 20
-120.3449572975
 30
0.0
 11
978.58386336299998
 21
-121.54509054170001
 31
0.0
  0
LINE
  5
3EC
  8
┌▓È_1
  6
STITCH
 10
978.78400366769995
 20
-107.54485786710001
 30
0.0
 11
978.58400208939986
 21
-107.74485471059999
 31
0.0
  0
LINE
  5
3ED
  8
┌▓È_1
  6
STITCH
 10
978.58390265560013
 20
-120.3449572975
 30
0.0
 11
978.58400208939986
 21
-107.74485471059999
 31
0.0
  0
LINE
  5
3EE
  8
┌▓È_1
  6
STITCH
 10
984.88400366699989
 20
-107.54495414100001
 30
0.0
 11
978.78400366769995
 21
-107.54485786710001
 31
0.0
  0
LINE
  5
3EF
  8
┌▓È_1
  6
STITCH
 10
985.08390107729986
 20
-120.3449572975
 30
0.0
 11
984.88390107730004
 21
-120.54495729750001
 31
0.0
  0
ARC
  5
3F0
  8
┌▓È_1
  6
STITCH
 10
954.38390107729981
 20
-133.04510956089999
 30
0.0
 40
1.0
 50
90.0
 51
180.0
  0
LINE
  5
3F1
  8
┌▓È_1
  6
STITCH
 10
973.08390107729986
 20
-132.04510956089999
 30
0.0
 11
973.08390107729986
 21
-114.0451095609
 31
0.0
  0
LINE
  5
3F2
  8
┌▓È_1
  6
STITCH
 10
973.08390107729986
 20
-96.045109560900016
 30
0.0
 11
973.08390107729986
 21
-114.0451095609
 31
0.0
  0
LINE
  5
3F3
  8
┌▓È_1
  6
STITCH
 10
985.08390107729986
 20
-118.0450692102
 30
0.0
 11
985.58390107729986
 21
-118.04506580170001
 31
0.0
  0
LINE
  5
3F4
  8
┌▓È_1
  6
STITCH
 10
953.38390107729981
 20
-85.045109560899988
 30
0.0
 11
953.38390107729981
 21
-95.045109560899988
 31
0.0
  0
LINE
  5
3F5
  8
┌▓È_1
  6
STITCH
 10
954.38390107729981
 20
-96.045109560900016
 30
0.0
 11
973.08390107729986
 21
-96.045109560900016
 31
0.0
  0
LINE
  5
3F6
  8
┌▓È_1
  6
STITCH
 10
978.58386336299998
 20
-106.5450558002
 30
0.0
 11
978.08390107729997
 21
-106.5450721691
 31
0.0
  0
LINE
  5
3F7
  8
┌▓È_1
  6
STITCH
 10
975.08411402809998
 20
-100.55231114119999
 30
0.0
 11
977.08411402779996
 21
-100.5523427064
 31
0.0
  0
LINE
  5
3F8
  8
┌▓È_1
  6
STITCH
 10
954.38390107729981
 20
-143.04510956089999
 30
0.0
 11
954.38390107729981
 21
-133.04510956089999
 31
0.0
  0
ARC
  5
3F9
  8
┌▓È_1
  6
STITCH
 10
973.08390107729986
 20
-132.04510956089999
 30
0.0
 40
1.0
 50
270.0
 51
0.0
  0
ARC
  5
3FA
  8
┌▓È_1
  6
STITCH
 10
973.08390107729986
 20
-96.045109560900016
 30
0.0
 40
1.0
 50
0.0
 51
90.0
  0
LINE
  5
3FB
  8
┌▓È_1
  6
STITCH
 10
954.38390107729981
 20
-95.045109560899988
 30
0.0
 11
973.08390107729986
 21
-95.045109560899988
 31
0.0
  0
LINE
  5
3FC
  8
┌▓È_1
  6
STITCH
 10
953.38390107729981
 20
-85.045109560899988
 30
0.0
 11
954.38390107729981
 21
-85.045109560899988
 31
0.0
  0
LINE
  5
3FD
  8
┌▓È_1
  6
STITCH
 10
954.38390107729981
 20
-85.045109560899988
 30
0.0
 11
954.38390107729981
 21
-95.045109560899988
 31
0.0
  0
LINE
  5
3FE
  8
┌▓È_1
  6
STITCH
 10
974.08390107729986
 20
-108.3882553114
 30
0.0
 11
978.08390107729997
 21
-108.3882553114
 31
0.0
  0
LINE
  5
3FF
  8
┌▓È_1
  6
STITCH
 10
974.08390107729986
 20
-107.68114853020001
 30
0.0
 11
978.08390107729997
 21
-107.68114853020001
 31
0.0
  0
LINE
  5
400
  8
┌▓È_1
  6
STITCH
 10
974.08390107729986
 20
-104.14561462429999
 30
0.0
 11
978.08390107729997
 21
-104.14561462429999
 31
0.0
  0
ARC
  5
401
  8
┌▓È_1
  6
STITCH
 10
974.06135792679981
 20
-118.69510956089999
 30
0.0
 40
0.6
 50
270.0
 51
7.4495238473000001
  0
LINE
  5
402
  8
┌▓È_1
  6
STITCH
 10
974.65629360690002
 20
-118.6173179388
 30
0.0
 11
974.86026723649991
 21
-120.17726985589999
 31
0.0
  0
LINE
  5
403
  8
┌▓È_1
  6
STITCH
 10
975.08380848469994
 20
-121.54488528109999
 30
0.0
 11
975.08380848469994
 21
-126.54488528109999
 31
0.0
  0
LINE
  5
404
  8
┌▓È_1
  6
STITCH
 10
973.58380848470006
 20
-121.54488528109999
 30
0.0
 11
973.58380848470006
 21
-126.54488528109999
 31
0.0
  0
LINE
  5
405
  8
┌▓È_1
  6
STITCH
 10
973.58380848470006
 20
-101.54488528109999
 30
0.0
 11
973.58380848470006
 21
-121.54488528109999
 31
0.0
  0
LINE
  5
406
  8
┌▓È_1
  6
STITCH
 10
971.58425087160015
 20
-117.54495318230001
 30
0.0
 11
971.58425087160015
 21
-120.54495318230001
 31
0.0
  0
LINE
  5
407
  8
┌▓È_1
  6
STITCH
 10
973.58380848470006
 20
-126.54488528109999
 30
0.0
 11
975.08380848469994
 21
-126.54488528109999
 31
0.0
  0
LINE
  5
408
  8
┌▓È_1
  6
STITCH
 10
974.08390107729986
 20
-96.045109560900016
 30
0.0
 11
974.08390107729986
 21
-114.0451095609
 31
0.0
  0
ARC
  5
409
  8
┌▓È_1
  6
STITCH
 10
954.38390107729981
 20
-95.045109560899988
 30
0.0
 40
1.0
 50
180.0
 51
270.0
  0
LINE
  5
40A
  8
┌▓È_1
  6
STITCH
 10
962.58425087160015
 20
-110.54495318230001
 30
0.0
 11
964.33425087160015
 21
-110.54495318230001
 31
0.0
  0
LINE
  5
40B
  8
┌▓È_1
  6
STITCH
 10
966.83425087159992
 20
-110.54495318230001
 30
0.0
 11
971.58425087160015
 21
-110.54495318230001
 31
0.0
  0
LINE
  5
40C
  8
┌▓È_1
  6
STITCH
 10
991.27735974559982
 20
-108.911674468
 30
0.0
 11
987.03486421699984
 21
-104.66888862730001
 31
0.0
  0
LINE
  5
40D
  8
┌▓È_1
  6
STITCH
 10
987.03471906100015
 20
-108.911529312
 30
0.0
 11
991.27750490160008
 21
-104.6690337834
 31
0.0
  0
LINE
  5
40E
  8
┌▓È_1
  6
STITCH
 10
987.03471906100015
 20
-119.1783770526
 30
0.0
 11
991.27750490160008
 21
-123.4208725813
 31
0.0
  0
LINE
  5
40F
  8
┌▓È_1
  6
STITCH
 10
991.27735974559982
 20
-119.1782318966
 30
0.0
 11
987.03486421699984
 21
-123.42101773730001
 31
0.0
  0
ENDBLK
  5
410
  8
0
  0
BLOCK
  8
0
  2
*U35
 70
     1
 10
0.0
 20
0.0
 30
0.0
  3
*U35
  1

  0
TEXT
  5
448
  8
É}ÿg
  6
CONTINUOUS
 10
1011.7987688368549
 20
-411.7923435111569
 30
0.0
 40
5.3974999188999986
  1
ÿg
  0
ENDBLK
  5
44A
  8
0
  0
BLOCK
  8
0
  2
*U36
 70
     1
 10
0.0
 20
0.0
 30
0.0
  3
*U36
  1

  0
TEXT
  5
44C
  8
É}ÿg
  6
CONTINUOUS
 10
1011.73027264499
 20
-401.76494503441108
 30
0.0
 40
5.3974999188999986
  1
èW
  0
ENDBLK
  5
44E
  8
0
  0
BLOCK
  8
0
  2
*U37
 70
     1
 10
0.0
 20
0.0
 30
0.0
  3
*U37
  1

  0
TEXT
  5
450
  8
É}ÿg
  6
CONTINUOUS
 10
996.05834394645854
 20
-381.7649450344112
 30
0.0
 40
5.3974999188999986
  1
öÓ Ä¾ é» Ä▓
  0
ENDBLK
  5
452
  8
0
  0
BLOCK
  8
0
  2
*U38
 70
     1
 10
0.0
 20
0.0
 30
0.0
  3
*U38
  1

  0
TEXT
  5
454
  8
É}ÿg
  6
CONTINUOUS
 10
1001.332550720003
 20
-391.8197419879026
 30
0.0
 40
5.3974999188999986
  1
û{ü@ü@æ╠
  0
ENDBLK
  5
456
  8
0
  0
BLOCK
  8
0
  2
*U39
 70
     1
 10
0.0
 20
0.0
 30
0.0
  3
*U39
  1

  0
TEXT
  5
458
  8
É}ÿg
  6
CONTINUOUS
 10
990.71564098105
 20
-371.84714046464831
 30
0.0
 40
5.3974999188999986
  1
î« âå âj âb âg
  0
ENDBLK
  5
45A
  8
0
  0
BLOCK
  8
0
  2
*U40
 70
     1
 10
0.0
 20
0.0
 30
0.0
  3
*U40
  1

  0
TEXT
  5
45C
  8
É}ÿg
  6
CONTINUOUS
 10
985.21935141386382
 20
-476.0306674640928
 30
0.0
 40
5.9972220420999998
  1
è¦ û{
  0
ENDBLK
  5
45E
  8
0
  0
BLOCK
  8
0
  2
*U41
 70
     1
 10
0.0
 20
0.0
 30
0.0
  3
*U41
  1

  0
TEXT
  5
460
  8
É}ÿg
  6
CONTINUOUS
 10
983.42322907638209
 20
-465.00022471261008
 30
0.0
 40
5.9972220420999998
  1
öÆÉ{ëÛ
  0
ENDBLK
  5
462
  8
0
  0
BLOCK
  8
0
  2
*U42
 70
     1
 10
0.0
 20
0.0
 30
0.0
  3
*U42
  1

  0
TEXT
  5
464
  8
É}ÿg
  6
CONTINUOUS
 10
1014.043611103363
 20
-453.67968913369998
 30
0.0
 40
5.9972220420999998
  1
1üF2
  0
ENDBLK
  5
466
  8
0
  0
BLOCK
  8
0
  2
*U43
 70
     1
 10
0.0
 20
0.0
 30
0.0
  3
*U43
  1

  0
TEXT
  5
468
  8
É}ÿg
  6
CONTINUOUS
 10
1122.866332603151
 20
51.849656488843152
 30
0.0
 40
5.3974999188999986
  1
ë³ü@Æ¨ü@ôÓü@ùe
  0
ENDBLK
  5
46A
  8
0
  0
BLOCK
  8
0
  2
*U44
 70
     1
 10
0.0
 20
0.0
 30
0.0
  3
*U44
  1

  0
TEXT
  5
46C
  8
É}ÿg
  6
CONTINUOUS
 10
1070.716262598095
 20
51.904453442334521
 30
0.0
 40
5.3974999188999986
  1
ë³Æ¨ô·
  0
ENDBLK
  5
46E
  8
0
  0
BLOCK
  8
0
  2
*U45
 70
     1
 10
0.0
 20
0.0
 30
0.0
  3
*U45
  1

  0
TEXT
  5
470
  8
É}ÿg
  6
CONTINUOUS
 10
1050.2506660982881
 20
51.959250395825897
 30
0.0
 40
5.3974999188999986
  1
òøöÈ
  0
ENDBLK
  5
472
  8
0
  0
BLOCK
  8
0
  2
*U46
 70
     1
 10
0.0
 20
0.0
 30
0.0
  3
*U46
  1

  0
TEXT
  5
474
  8
É}ÿg
  6
CONTINUOUS
 10
957.88406448969988
 20
-494.69695848441057
 30
0.0
 40
10.794999837900001
  1
èöÄ«ë´Äð
  0
ENDBLK
  5
476
  8
0
  0
BLOCK
  8
0
  2
*U47
 70
     1
 10
0.0
 20
0.0
 30
0.0
  3
*U47
  1

  0
TEXT
  5
478
  8
É}ÿg
  6
CONTINUOUS
 10
1216.9217511736881
 20
51.822258012097471
 30
0.0
 40
5.3974999188999986
  1
îƒöFÄÊ
  0
ENDBLK
  5
47A
  8
0
  0
BLOCK
  8
0
  2
*U48
 70
     1
 10
0.0
 20
0.0
 30
0.0
  3
*U48
  1

  0
TEXT
  5
47C
  8
É}ÿg
  6
CONTINUOUS
 10
1099.734572789605
 20
-486.02873737579642
 30
0.0
 40
5.9972220420999998
  1
É} öÈ
  0
ENDBLK
  5
47E
  8
0
  0
BLOCK
  8
0
  2
*U49
 70
     1
 10
0.0
 20
0.0
 30
0.0
  3
*U49
  1

  0
TEXT
  5
480
  8
É}ÿg
  6
CONTINUOUS
 10
1097.6492443130369
 20
-442.15050838172738
 30
0.0
 40
5.9972220420999998
  1
É╗òiû╝
  0
ENDBLK
  5
482
  8
0
  0
BLOCK
  8
0
  2
*U50
 70
     1
 10
0.0
 20
0.0
 30
0.0
  3
*U50
  1

  0
TEXT
  5
484
  8
É}ÿg
  6
CONTINUOUS
 10
1097.816679446192
 20
-464.08962287876187
 30
0.0
 40
5.9972220420999998
  1
É}û╩û╝
  0
ENDBLK
  5
486
  8
0
  0
BLOCK
  8
0
  2
*U51
 70
     1
 10
0.0
 20
0.0
 30
0.0
  3
*U51
  1

  0
TEXT
  5
488
  8
É}ÿg
  6
CONTINUOUS
 10
957.40709128012554
 20
-442.7871254522309
 30
0.0
 40
5.9972220420999998
  1
ô·ü@ü@òt
  0
ENDBLK
  5
48A
  8
0
  0
BLOCK
  8
0
  2
*U52
 70
     1
 10
0.0
 20
0.0
 30
0.0
  3
*U52
  1

  0
TEXT
  5
48C
  8
É}ÿg
  6
CONTINUOUS
 10
1006.767793498988
 20
-442.9697819611273
 30
0.0
 40
5.9972220420999998
  1
Ä┌ü@ü@ôx
  0
ENDBLK
  5
48E
  8
0
  0
BLOCK
  8
0
  2
*U53
 70
     1
 10
0.0
 20
0.0
 30
0.0
  3
*U53
  1

  0
TEXT
  5
490
  8
É}ÿg
  6
CONTINUOUS
 10
1197.003946603925
 20
51.849656488843152
 30
0.0
 40
5.3974999188999986
  1
ë³Æ¨ÄÊ
  0
ENDBLK
  5
492
  8
0
  0
BLOCK
  8
0
  2
*U54
 70
     1
 10
0.0
 20
0.0
 30
0.0
  3
*U54
  1

  0
TEXT
  5
494
  8
É}ÿg
  6
CONTINUOUS
 10
948.69813026024212
 20
-422.30073737579642
 30
0.0
 40
5.9972220420999998
  1
òiöÈ
  0
ENDBLK
  5
496
  8
0
  0
BLOCK
  8
0
  2
*U55
 70
     1
 10
0.0
 20
0.0
 30
0.0
  3
*U55
  1

  0
TEXT
  5
498
  8
É}ÿg
  6
CONTINUOUS
 10
947.00439061609995
 20
-475.96978196112741
 30
0.0
 40
5.9972220420999998
  1
 É╗É}
  0
ENDBLK
  5
49A
  8
0
  0
BLOCK
  8
0
  2
*U56
 70
     1
 10
0.0
 20
0.0
 30
0.0
  3
*U56
  1

  0
TEXT
  5
49C
  8
É}ÿg
  6
CONTINUOUS
 10
947.00439061609995
 20
-464.90889645816179
 30
0.0
 40
5.9972220420999998
  1
 É¦îv
  0
ENDBLK
  5
49E
  8
0
  0
BLOCK
  8
0
  2
*U57
 70
     1
 10
0.0
 20
0.0
 30
0.0
  3
*U57
  1

  0
TEXT
  5
4A0
  8
É}ÿg
  6
CONTINUOUS
 10
1022.0043906161
 20
-476.00022471261008
 30
0.0
 40
5.9972220420999998
  1
 îƒÉ}
  0
ENDBLK
  5
4A2
  8
0
  0
BLOCK
  8
0
  2
*U58
 70
     1
 10
0.0
 20
0.0
 30
0.0
  3
*U58
  1

  0
TEXT
  5
4A4
  8
É}ÿg
  6
CONTINUOUS
 10
1022.0043906161
 20
-464.93933920964457
 30
0.0
 40
5.9972220420999998
  1
 Åãì©
  0
ENDBLK
  5
4A6
  8
0
  0
BLOCK
  8
0
  2
*U59
 70
     1
 10
0.0
 20
0.0
 30
0.0
  3
*U59
  1

  0
TEXT
  5
4A8
  8
É}ÿg
  6
CONTINUOUS
 10
1158.5002523756041
 20
-422.42250838172743
 30
0.0
 40
5.9972220420999998
  1
Éöù╩
  0
ENDBLK
  5
4AA
  8
0
  0
BLOCK
  8
0
  2
*U60
 70
     1
 10
0.0
 20
0.0
 30
0.0
  3
*U60
  1

  0
TEXT
  5
4AC
  8
É}ÿg
  6
CONTINUOUS
 10
1187.5256404660761
 20
-422.51383663617571
 30
0.0
 40
5.9972220420999998
  1
ö§ü@ü@ü@ìl
  0
ENDBLK
  5
4AE
  8
0
  0
BLOCK
  8
0
  2
*U61
 70
     1
 10
0.0
 20
0.0
 30
0.0
  3
*U61
  1

  0
TEXT
  5
4B0
  8
É}ÿg
  6
CONTINUOUS
 10
1091.810235806232
 20
-422.3311801272792
 30
0.0
 40
5.9972220420999998
  1
ìÌü@ü@ü@Ä┐
  0
ENDBLK
  5
4B2
  8
0
  0
BLOCK
  8
0
  2
*U62
 70
     1
 10
0.0
 20
0.0
 30
0.0
  3
*U62
  1

  0
TEXT
  5
4B4
  8
É}ÿg
  6
CONTINUOUS
 10
996.03855644235227
 20
-422.36162287876192
 30
0.0
 40
5.9972220420999998
  1
òiü@ü@ü@û╝
  0
ENDBLK
  5
4B6
  8
0
  0
BLOCK
  8
0
  2
*U63
 70
     1
 10
0.0
 20
0.0
 30
0.0
  3
*U63
  1

  0
TEXT
  5
4B8
  8
┌▓È_1
  6
CONTINUOUS
 10
606.03962466136602
 20
-187.10606985920001
 30
0.0
 40
5.9972220420999998
  1
égék
  0
ENDBLK
  5
4BA
  8
0
  0
BLOCK
  8
0
  2
*U64
 70
     1
 10
0.0
 20
0.0
 30
0.0
  3
*U64
  1

  0
TEXT
  5
4BC
  8
┌▓È_1
  6
CONTINUOUS
 10
750.13096264860712
 20
-253.2643296514
 30
0.0
 40
5.9972220420999998
  1
2
  0
ENDBLK
  5
4BE
  8
0
  0
BLOCK
  8
0
  2
*U65
 70
     1
 10
0.0
 20
0.0
 30
0.0
  3
*U65
  1

  0
TEXT
  5
4C0
  8
┌▓È_1
  6
CONTINUOUS
 10
1001.2238563122
 20
-148.2954747528766
 30
0.0
 40
5.3974999188999986
  1
âXâ|âbâgùnÉ┌
  0
ENDBLK
  5
4C2
  8
0
  0
BLOCK
  8
0
  2
*U66
 70
     1
 10
0.0
 20
0.0
 30
0.0
  3
*U66
  1

  0
TEXT
  5
4C4
  8
É}ÿg
  6
CONTINUOUS
 10
1012.045355127566
 20
-361.84714046464819
 30
0.0
 40
5.3974999188999986
  1
î«
  0
ENDBLK
  5
4C6
  8
0
  0
BLOCK
  8
0
  2
*U67
 70
     1
 10
0.0
 20
0.0
 30
0.0
  3
*U67
  1

  0
TEXT
  5
4C8
  8
É}ÿg
  6
CONTINUOUS
 10
1004.949149650433
 20
-351.5731556971914
 30
0.0
 40
5.3974999188999986
  1
ôûü@éÞ
  0
ENDBLK
  5
4CA
  8
0
  0
BLOCK
  8
0
  2
*U68
 70
     1
 10
0.0
 20
0.0
 30
0.0
  3
*U68
  1

  0
TEXT
  5
4CC
  8
┌▓È_1
  6
CONTINUOUS
 10
648.39574622448981
 20
-253.2643296514
 30
0.0
 40
5.9972220420999998
  1
5
  0
ENDBLK
  5
4CE
  8
0
  0
BLOCK
  8
0
  2
*U69
 70
     1
 10
0.0
 20
0.0
 30
0.0
  3
*U69
  1

  0
TEXT
  5
4D0
  8
┌▓È_1
  6
CONTINUOUS
 10
559.42486525093136
 20
-253.2643296514
 30
0.0
 40
5.9972220420999998
  1
1
  0
ENDBLK
  5
4D2
  8
0
  0
BLOCK
  8
0
  2
*U70
 70
     1
 10
0.0
 20
0.0
 30
0.0
  3
*U70
  1

  0
TEXT
  5
4D4
  8
┌▓È_1
  6
CONTINUOUS
 10
701.47911746520003
 20
-52.947722311111157
 30
0.0
 40
5.3974999188999986
  1
âAâïâSâôùnÉ┌
  0
ENDBLK
  5
4D6
  8
0
  0
BLOCK
  8
0
  2
*U71
 70
     1
 10
0.0
 20
0.0
 30
0.0
  3
*U71
  1

  0
TEXT
  5
4D8
  8
┌▓È_1
  6
CONTINUOUS
 62
     5
 10
613.35626732840103
 20
-123.2068132784913
 30
0.0
 40
21.462499999999999
  1
ÄU Éà É­
  0
ENDBLK
  5
4DA
  8
0
  0
BLOCK
  8
0
  2
*U72
 70
     1
 10
0.0
 20
0.0
 30
0.0
  3
*U72
  1

  0
TEXT
  5
4DC
  8
┌▓È_1
  6
CONTINUOUS
 10
707.87976318163817
 20
-253.2643296514
 30
0.0
 40
5.9972220420999998
  1
4
  0
ENDBLK
  5
4DE
  8
0
  0
BLOCK
  8
0
  2
*U73
 70
     1
 10
0.0
 20
0.0
 30
0.0
  3
*U73
  1

  0
TEXT
  5
4E0
  8
┌▓È_1
  6
CONTINUOUS
 10
494.94031495540003
 20
-382.82890656817671
 30
0.0
 40
5.3974999188999986
  1
âXâ|âbâgùnÉ┌
  0
ENDBLK
  5
4E2
  8
0
  0
BLOCK
  8
0
  2
*U74
 70
     1
 10
0.0
 20
0.0
 30
0.0
  3
*U74
  1

  0
TEXT
  5
4E4
  8
┌▓È_1
  6
CONTINUOUS
 10
606.80438474477614
 20
-253.2643296514
 30
0.0
 40
5.9972220420999998
  1
7
  0
ENDBLK
  5
4E6
  8
0
  0
BLOCK
  8
0
  2
*U75
 70
     1
 10
0.0
 20
0.0
 30
0.0
  3
*U75
  1

  0
TEXT
  5
4E8
  8
┌▓È_1
  6
CONTINUOUS
 10
939.90108346849684
 20
-382.32863348709998
 30
0.0
 40
4.9752947043999987
  1
1
  0
ENDBLK
  5
4EA
  8
0
  0
BLOCK
  8
0
  2
*U76
 70
     1
 10
0.0
 20
0.0
 30
0.0
  3
*U76
  1

  0
TEXT
  5
4EC
  8
É}ÿg
  6
CONTINUOUS
 10
954.25088810437603
 20
-361.51835874369999
 30
0.0
 40
5.3974999188999986
  1
6
  0
ENDBLK
  5
4EE
  8
0
  0
BLOCK
  8
0
  2
*U77
 70
     1
 10
0.0
 20
0.0
 30
0.0
  3
*U77
  1

  0
TEXT
  5
4F0
  8
É}ÿg
  6
CONTINUOUS
 10
954.26458734274877
 20
-351.51835874370011
 30
0.0
 40
5.3974999188999986
  1
7
  0
ENDBLK
  5
4F2
  8
0
  0
BLOCK
  8
0
  2
*U78
 70
     1
 10
0.0
 20
0.0
 30
0.0
  3
*U78
  1

  0
TEXT
  5
4F4
  8
É}ÿg
  6
CONTINUOUS
 10
954.30568505786755
 20
-391.51835874370011
 30
0.0
 40
5.3974999188999986
  1
3
  0
ENDBLK
  5
4F6
  8
0
  0
BLOCK
  8
0
  2
*U79
 70
     1
 10
0.0
 20
0.0
 30
0.0
  3
*U79
  1

  0
TEXT
  5
4F8
  8
É}ÿg
  6
CONTINUOUS
 10
954.26458734274877
 20
-381.51835874370011
 30
0.0
 40
5.3974999188999986
  1
4
  0
ENDBLK
  5
4FA
  8
0
  0
BLOCK
  8
0
  2
*U80
 70
     1
 10
0.0
 20
0.0
 30
0.0
  3
*U80
  1

  0
TEXT
  5
4FC
  8
É}ÿg
  6
CONTINUOUS
 10
954.30568505786755
 20
-371.51835874369999
 30
0.0
 40
5.3974999188999986
  1
5
  0
ENDBLK
  5
4FE
  8
0
  0
BLOCK
  8
0
  2
*U81
 70
     1
 10
0.0
 20
0.0
 30
0.0
  3
*U81
  1

  0
TEXT
  5
500
  8
É}ÿg
  6
CONTINUOUS
 10
954.27828658112185
 20
-401.51835874369999
 30
0.0
 40
5.3974999188999986
  1
2
  0
ENDBLK
  5
502
  8
0
  0
BLOCK
  8
0
  2
*U82
 70
     1
 10
0.0
 20
0.0
 30
0.0
  3
*U82
  1

  0
TEXT
  5
504
  8
É}ÿg
  6
CONTINUOUS
 10
954.59336906369708
 20
-411.51835874369999
 30
0.0
 40
5.3974999188999986
  1
1
  0
ENDBLK
  5
506
  8
0
  0
BLOCK
  8
0
  2
*U83
 70
     1
 10
0.0
 20
0.0
 30
0.0
  3
*U83
  1

  0
TEXT
  5
508
  8
É}ÿg
  6
CONTINUOUS
 10
964.25671036374229
 20
-453.67968913369998
 30
0.0
 40
5.9972220420999998
  1
H9.3
  0
ENDBLK
  5
50A
  8
0
  0
BLOCK
  8
0
  2
*U84
 70
     1
 10
0.0
 20
0.0
 30
0.0
  3
*U84
  1

  0
TEXT
  5
50C
  8
┌▓È_1
  6
CONTINUOUS
 10
485.36326541049999
 20
-352.6581501869594
 30
0.0
 40
5.3974999188999986
  1
âvâîâXâJâVâü
  0
ENDBLK
  5
50E
  8
0
  0
BLOCK
  8
0
  2
*U85
 70
     1
 10
0.0
 20
0.0
 30
0.0
  3
*U85
  1

  0
TEXT
  5
510
  8
┌▓È_1
  6
CONTINUOUS
 10
622.77947168910009
 20
-154.5244365014766
 30
0.0
 40
5.3974999188999986
  1
âXâ|âbâgùnÉ┌
  0
ENDBLK
  5
512
  8
0
  0
BLOCK
  8
0
  2
*U86
 70
     1
 10
0.0
 20
0.0
 30
0.0
  3
*U86
  1

  0
TEXT
  5
514
  8
┌▓È_1
  6
CONTINUOUS
 10
576.1746510408999
 20
-49.249188920044674
 30
0.0
 40
5.9972220420999998
  1
èWÉíû@213ü~168ü~3éö
  0
ENDBLK
  5
516
  8
0
  0
BLOCK
  8
0
  2
*U87
 70
     1
 10
0.0
 20
0.0
 30
0.0
  3
*U87
  1

  0
TEXT
  5
518
  8
┌▓È_1
  6
CONTINUOUS
 10
888.98723227664175
 20
-333.80603607469999
 30
0.0
 40
5.9972220420999998
  1
6
  0
ENDBLK
  5
51A
  8
0
  0
BLOCK
  8
0
  2
*U88
 70
     1
 10
0.0
 20
0.0
 30
0.0
  3
*U88
  1

  0
TEXT
  5
51C
  8
┌▓È_1
  6
CONTINUOUS
 10
891.50718479918976
 20
-111.7142856485
 30
0.0
 40
5.9972220420999998
  1
3
  0
ENDBLK
  5
51E
  8
0
  0
BLOCK
  8
0
  2
*U89
 70
     1
 10
0.0
 20
0.0
 30
0.0
  3
*U89
  1

  0
TEXT
  5
520
  8
É}ÿg
  6
CONTINUOUS
 10
1060.249794165346
 20
-475.81756820371362
 30
0.0
 40
5.9972220420999998
  1
ëÇ î┤
  0
ENDBLK
  5
522
  8
0
  0
BLOCK
  8
0
  2
*U90
 70
     1
 10
0.0
 20
0.0
 30
0.0
  3
*U90
  1

  0
TEXT
  5
524
  8
É}ÿg
  6
CONTINUOUS
 10
1060.249794165346
 20
-464.81756820371368
 30
0.0
 40
5.9972220420999998
  1
ëÇ î┤
  0
ENDBLK
  5
526
  8
0
  0
BLOCK
  8
0
  2
*U91
 70
     1
 10
0.0
 20
0.0
 30
0.0
  3
*U91
  1

  0
TEXT
  5
528
  8
É}ÿg
  6
CONTINUOUS
 10
1073.4460636098911
 20
-381.80961958569998
 30
0.0
 40
5.3974999188999986
  1
érétéréRéOéSü@âËéV âË6
  0
ENDBLK
  5
52A
  8
0
  0
BLOCK
  8
0
  2
*U92
 70
     1
 10
0.0
 20
0.0
 30
0.0
  3
*U92
  1

  0
TEXT
  5
52C
  8
É}ÿg
  6
CONTINUOUS
 10
1064.45437862518
 20
-411.51835874369999
 30
0.0
 40
5.3974999188999986
  1
érétéréRéOéSü@éP.éOéöü@égék
  0
ENDBLK
  5
52E
  8
0
  0
BLOCK
  8
0
  2
*U93
 70
     1
 10
0.0
 20
0.0
 30
0.0
  3
*U93
  1

  0
TEXT
  5
530
  8
É}ÿg
  6
CONTINUOUS
 10
1064.45437862518
 20
-401.51835874369999
 30
0.0
 40
5.3974999188999986
  1
érétéréRéOéSü@éR.éOéöü@égék
  0
ENDBLK
  5
532
  8
0
  0
BLOCK
  8
0
  2
*U94
 70
     1
 10
0.0
 20
0.0
 30
0.0
  3
*U94
  1

  0
TEXT
  5
534
  8
É}ÿg
  6
CONTINUOUS
 10
1062.591282206474
 20
-371.9019374181396
 30
0.0
 40
5.3974999188999986
  1
SUS304/É^ ÞJ(âNâìü[âÇâüâbâL)
  0
ENDBLK
  5
536
  8
0
  0
BLOCK
  8
0
  2
*U95
 70
     1
 10
0.0
 20
0.0
 30
0.0
  3
*U95
  1

  0
TEXT
  5
538
  8
É}ÿg
  6
CONTINUOUS
 10
1076.9754824979591
 20
-361.87453894139389
 30
0.0
 40
5.3974999188999986
  1
É^ÞJ(âNâìü[âÇâüâbâL)
  0
ENDBLK
  5
53A
  8
0
  0
BLOCK
  8
0
  2
*U96
 70
     1
 10
0.0
 20
0.0
 30
0.0
  3
*U96
  1

  0
TEXT
  5
53C
  8
É}ÿg
  6
CONTINUOUS
 10
1074.838401311795
 20
-351.51835874370011
 30
0.0
 40
5.3974999188999986
  1
érétéréRéOéSü@éP.éTéö
  0
ENDBLK
  5
53E
  8
0
  0
BLOCK
  8
0
  2
*U97
 70
     1
 10
0.0
 20
0.0
 30
0.0
  3
*U97
  1

  0
TEXT
  5
540
  8
É}ÿg
  6
CONTINUOUS
 10
1164.5933690636971
 20
-351.51835874370011
 30
0.0
 40
5.3974999188999986
  1
1
  0
ENDBLK
  5
542
  8
0
  0
BLOCK
  8
0
  2
*U98
 70
     1
 10
0.0
 20
0.0
 30
0.0
  3
*U98
  1

  0
TEXT
  5
544
  8
É}ÿg
  6
CONTINUOUS
 10
1164.5933690636971
 20
-361.51835874369999
 30
0.0
 40
5.3974999188999986
  1
1
  0
ENDBLK
  5
546
  8
0
  0
BLOCK
  8
0
  2
*U99
 70
     1
 10
0.0
 20
0.0
 30
0.0
  3
*U99
  1

  0
TEXT
  5
548
  8
É}ÿg
  6
CONTINUOUS
 10
1064.4817771019259
 20
-391.51835874370011
 30
0.0
 40
5.3974999188999986
  1
érétéréRéOéSü@éO.éVéöü@éQéa
  0
ENDBLK
  5
54A
  8
0
  0
BLOCK
  8
0
  2
*U100
 70
     1
 10
0.0
 20
0.0
 30
0.0
  3
*U100
  1

  0
TEXT
  5
54C
  8
É}ÿg
  6
CONTINUOUS
 10
1164.5933690636971
 20
-411.51835874369999
 30
0.0
 40
5.3974999188999986
  1
1
  0
ENDBLK
  5
54E
  8
0
  0
BLOCK
  8
0
  2
*U101
 70
     1
 10
0.0
 20
0.0
 30
0.0
  3
*U101
  1

  0
TEXT
  5
550
  8
É}ÿg
  6
CONTINUOUS
 10
1164.5933690636971
 20
-401.51835874369999
 30
0.0
 40
5.3974999188999986
  1
1
  0
ENDBLK
  5
552
  8
0
  0
BLOCK
  8
0
  2
*U102
 70
     1
 10
0.0
 20
0.0
 30
0.0
  3
*U102
  1

  0
TEXT
  5
554
  8
É}ÿg
  6
CONTINUOUS
 10
1164.5933690636971
 20
-391.51835874370011
 30
0.0
 40
5.3974999188999986
  1
1
  0
ENDBLK
  5
556
  8
0
  0
BLOCK
  8
0
  2
*U103
 70
     1
 10
0.0
 20
0.0
 30
0.0
  3
*U103
  1

  0
TEXT
  5
558
  8
┌▓È_1
  6
CONTINUOUS
 10
1200.1325311099899
 20
42.240119465551778
 30
0.0
 40
5.3974999188999986
  1
è¦û{
  0
ENDBLK
  5
55A
  8
0
  0
BLOCK
  8
0
  2
*U104
 70
     1
 10
0.0
 20
0.0
 30
0.0
  3
*U104
  1

  0
TEXT
  5
55C
  8
┌▓È_1
  6
CONTINUOUS
 10
1095.9624231918051
 20
41.511024602989849
 30
0.0
 40
5.9972220420999998
  1
öÓÄ¾é»Ä▓ü@âËéVü¿âËéUé╔ò¤ìX
  0
ENDBLK
  5
55E
  8
0
  0
BLOCK
  8
0
  2
*U105
 70
     1
 10
0.0
 20
0.0
 30
0.0
  3
*U105
  1

  0
TEXT
  5
560
  8
┌▓È_1
  6
CONTINUOUS
 10
1068.391686327273
 20
41.596758577599999
 30
0.0
 40
5.9972220420999998
  1
H16.7.8
  0
ENDBLK
  5
562
  8
0
  0
BLOCK
  8
0
  2
*U106
 70
     1
 10
0.0
 20
0.0
 30
0.0
  3
*U106
  1

  0
TEXT
  5
564
  8
┌▓È_1
  6
CONTINUOUS
 10
1055.107008845097
 20
40.651966094400002
 30
0.0
 40
4.9752947043999987
  1
1
  0
ENDBLK
  5
566
  8
0
  0
BLOCK
  8
0
  2
*U107
 70
     1
 10
0.0
 20
0.0
 30
0.0
  3
*U107
  1

  0
TEXT
  5
568
  8
É}ÿg
  6
CONTINUOUS
 10
1164.5933690636971
 20
-381.51835874370011
 30
0.0
 40
5.3974999188999986
  1
1
  0
ENDBLK
  5
56A
  8
0
  0
BLOCK
  8
0
  2
*U108
 70
     1
 10
0.0
 20
0.0
 30
0.0
  3
*U108
  1

  0
TEXT
  5
56C
  8
É}ÿg
  6
CONTINUOUS
 10
1164.5933690636971
 20
-371.51835874369999
 30
0.0
 40
5.3974999188999986
  1
1
  0
ENDBLK
  5
56E
  8
0
  0
BLOCK
  8
0
  2
*U109
 70
     1
 10
0.0
 20
0.0
 30
0.0
  3
*U109
  1

  0
TEXT
  5
570
  8
É}ÿg
  6
CONTINUOUS
 10
1146.6376579687781
 20
-449.2335572294578
 30
0.0
 40
7.1966662884000003
  1
ÄUÉàÉ­â{âbâNâX
  0
ENDBLK
  5
572
  8
0
  0
BLOCK
  8
0
  2
*U110
 70
     1
 10
0.0
 20
0.0
 30
0.0
  3
*U110
  1

  0
TEXT
  5
574
  8
É}ÿg
  6
CONTINUOUS
 10
1142.7105431159709
 20
-492.61252511319998
 30
0.0
 40
7.1966662884000003
  1
éréaévéOéOéOéRéT
  0
ENDBLK
  5
576
  8
0
  0
BLOCK
  8
0
  2
*U111
 70
     1
 10
0.0
 20
0.0
 30
0.0
  3
*U111
  1

  0
TEXT
  5
578
  8
É}ÿg
  6
CONTINUOUS
 10
1134.198749993142
 20
-470.75865031702529
 30
0.0
 40
7.1966662884000003
  1
éréaéQéS-éPéQ Å│öFÉ}
  0
ENDBLK
  5
57A
  8
0
  0
ENDSEC
  0
SECTION
  2
ENTITIES
  0
INSERT
  5
30
  8
É}ÿg
  2
CLUMP0
 10
0.0
 20
0.0
 30
0.0
  0
INSERT
  5
3A
  8
É}ÿg
  2
CLUMP1
 10
0.0
 20
0.0
 30
0.0
  0
INSERT
  5
44
  8
É}ÿg
  2
CLUMP2
 10
0.0
 20
0.0
 30
0.0
  0
INSERT
  5
4E
  8
É}ÿg
  2
CLUMP3
 10
0.0
 20
0.0
 30
0.0
  0
INSERT
  5
58
  8
É}ÿg
  2
CLUMP4
 10
0.0
 20
0.0
 30
0.0
  0
INSERT
  5
62
  8
É}ÿg
  2
CLUMP5
 10
0.0
 20
0.0
 30
0.0
  0
INSERT
  5
6C
  8
É}ÿg
  2
CLUMP6
 10
0.0
 20
0.0
 30
0.0
  0
INSERT
  5
75
  8
0
  6
CONTINUOUS
  2
*U35
 10
0.0
 20
0.0
 30
0.0
  0
INSERT
  5
76
  8
0
  6
CONTINUOUS
  2
*U36
 10
0.0
 20
0.0
 30
0.0
  0
INSERT
  5
77
  8
0
  6
CONTINUOUS
  2
*U37
 10
0.0
 20
0.0
 30
0.0
  0
INSERT
  5
78
  8
0
  6
CONTINUOUS
  2
*U38
 10
0.0
 20
0.0
 30
0.0
  0
INSERT
  5
79
  8
0
  6
CONTINUOUS
  2
*U39
 10
0.0
 20
0.0
 30
0.0
  0
INSERT
  5
7A
  8
0
  6
CONTINUOUS
  2
*U40
 10
0.0
 20
0.0
 30
0.0
  0
INSERT
  5
7B
  8
0
  6
CONTINUOUS
  2
*U41
 10
0.0
 20
0.0
 30
0.0
  0
INSERT
  5
7C
  8
0
  6
CONTINUOUS
  2
*U42
 10
0.0
 20
0.0
 30
0.0
  0
INSERT
  5
7E
  8
É}ÿg
  2
CLUMP7
 10
0.0
 20
0.0
 30
0.0
  0
LINE
  5
123
  8
┌▓È_1
 62
     5
 10
1043.5838084847001
 20
-200.04488528109999
 30
0.0
 11
1043.5838084847001
 21
-28.044885281100001
 31
0.0
  0
DIMENSION
  5
134
  8
Éíû@É³
  2
*D8
 10
821.01906880909996
 20
-209.04488528109999
 30
0.0
 11
821.01906880909996
 21
-114.04488528109999
 31
0.0
 70
   128
  1
<>
 13
782.15812130999996
 23
-209.04488528109999
 33
0.0
 14
782.15812130999996
 24
-19.044885281100001
 34
0.0
 50
90.0
  0
INSERT
  5
135
  8
0
  6
CONTINUOUS
  2
*U63
 10
0.0
 20
0.0
 30
0.0
  0
LINE
  5
136
  8
┌▓È_1
 62
     5
 10
954.58380848469994
 20
-209.04488528109999
 30
0.0
 11
954.58380848469994
 21
-19.044885281100001
 31
0.0
  0
LINE
  5
137
  8
┌▓È_1
 62
     5
 10
948.58380848470006
 20
-208.04488528109999
 30
0.0
 11
948.58380848470006
 21
-20.044885281100001
 31
0.0
  0
LINE
  5
138
  8
┌▓È_1
  6
BORDER
 62
     3
 10
667.65812130999996
 20
-14.044885281099999
 30
0.0
 11
667.65812130999996
 21
-214.04488528109999
 31
0.0
  0
INSERT
  5
13A
  8
┌▓È_1
  6
STITCH
  2
CLUMP8
 10
0.0
 20
0.0
 30
0.0
  0
LINE
  5
142
  8
┌▓È_1
 62
     5
 10
774.15844165349995
 20
-32.044564937499999
 30
0.0
 11
774.15844165349995
 21
-196.04520562459999
 31
0.0
  0
LINE
  5
143
  8
┌▓È_1
 62
     5
 10
775.15812130999996
 20
-32.044885281100001
 30
0.0
 11
775.15812130999996
 21
-196.04488528109999
 31
0.0
  0
LINE
  5
144
  8
┌▓È_1
 62
     5
 10
785.15812130999996
 20
-206.04488528109999
 30
0.0
 11
785.15812130999996
 21
-22.044885281100001
 31
0.0
  0
LINE
  5
145
  8
┌▓È_1
 62
     5
 10
550.15812130999996
 20
-22.044885281100001
 30
0.0
 11
550.15812130999996
 21
-206.04488528109999
 31
0.0
  0
LINE
  5
146
  8
┌▓È_1
 62
     5
 10
560.15812130999996
 20
-196.04488528109999
 30
0.0
 11
560.15812130999996
 21
-32.044885281100001
 31
0.0
  0
LINE
  5
147
  8
┌▓È_1
 62
     5
 10
561.15780096639992
 20
-196.04520562459999
 30
0.0
 11
561.15780096639992
 21
-32.044564937499999
 31
0.0
  0
INSERT
  5
149
  8
Éíû@É³
  2
BALLON0
 10
0.0
 20
0.0
 30
0.0
  0
DIMENSION
  5
160
  8
Éíû@É³
  2
*D11
 10
1043.5838084847001
 20
16.245672580299999
 30
0.0
 11
996.08380848470006
 21
16.245672580299999
 31
0.0
 70
   128
  1
<>
 13
1043.5838084847001
 23
-21.044885281100001
 33
0.0
 14
948.58380848470006
 24
-20.044885281100001
 34
0.0
  0
DIMENSION
  5
170
  8
Éíû@É³
  2
*D12
 10
1043.5838084847001
 20
-81.544885281099994
 30
0.0
 11
1020.0838084846999
 21
-81.544885281099994
 31
0.0
 70
   128
  1
<>
 13
1043.5838084847001
 23
-114.04488528109999
 33
0.0
 14
996.58380848469994
 24
-101.54488528109999
 34
0.0
  0
LINE
  5
171
  8
┌▓È_1
 62
     5
 10
1042.5838084847001
 20
-26.544885281100001
 30
0.0
 11
954.58380848469994
 21
-26.544885281100001
 31
0.0
  0
INSERT
  5
172
  8
0
  6
CONTINUOUS
  2
*U65
 10
0.0
 20
0.0
 30
0.0
  0
LINE
  5
173
  8
┌▓È_1
 10
995.5977136718999
 20
-152.4272795782
 30
0.0
 11
1040.7368721461
 21
-152.4272795782
 31
0.0
  0
LINE
  5
174
  8
┌▓È_1
 62
     5
 10
1042.5838084847001
 20
-201.54488528109999
 30
0.0
 11
954.58380848469994
 21
-201.54488528109999
 31
0.0
  0
LINE
  5
175
  8
┌▓È_1
 62
     5
 10
1033.8794029666001
 20
-280.72909298079998
 30
0.0
 11
1003.8794029666
 21
-280.72909298079998
 31
0.0
  0
LINE
  5
176
  8
┌▓È_1
 62
     5
 10
1003.8794029666
 20
-291.72909298079998
 30
0.0
 11
1033.8794029666001
 21
-291.72909298079998
 31
0.0
  0
LINE
  5
177
  8
┌▓È_1
  6
BORDER
 62
     3
 10
1048.5838084847001
 20
-114.04488528109999
 30
0.0
 11
943.58380848469994
 21
-114.04488528109999
 31
0.0
  0
INSERT
  5
178
  8
0
  6
CONTINUOUS
  2
*U66
 10
0.0
 20
0.0
 30
0.0
  0
INSERT
  5
179
  8
0
  6
CONTINUOUS
  2
*U67
 10
0.0
 20
0.0
 30
0.0
  0
INSERT
  5
17B
  8
Éíû@É³
  2
BALLON1
 10
0.0
 20
0.0
 30
0.0
  0
LINE
  5
184
  8
┌▓È_1
 62
     5
 10
660.24192282290005
 20
-311.05699427799999
 30
0.0
 11
600.15812130999996
 21
-311.05699427799999
 31
0.0
  0
INSERT
  5
186
  8
Éíû@É³
  2
BALLON2
 10
0.0
 20
0.0
 30
0.0
  0
DIMENSION
  5
19D
  8
Éíû@É³
  2
*D15
 10
785.15812130999996
 20
22.050819419500002
 30
0.0
 11
667.65812130999996
 21
22.050819419500002
 31
0.0
 70
   128
  1
<>
 13
785.15812130999996
 23
-22.044885281100001
 33
0.0
 14
550.15812130999996
 24
-22.044885281100001
 34
0.0
  0
INSERT
  5
19E
  8
0
  6
CONTINUOUS
  2
*U70
 10
0.0
 20
0.0
 30
0.0
  0
LINE
  5
19F
  8
┌▓È_1
 10
741.63884415029986
 20
-54.860803150499997
 30
0.0
 11
700.34009033559994
 21
-54.860803150499997
 31
0.0
  0
INSERT
  5
1A0
  8
0
  6
CONTINUOUS
  2
*U71
 10
0.0
 20
0.0
 30
0.0
  0
LINE
  5
1A1
  8
┌▓È_1
 62
     5
 10
563.15780096640003
 20
-30.044564937499999
 30
0.0
 11
772.15844165350006
 21
-30.044564937499999
 31
0.0
  0
LINE
  5
1A2
  8
┌▓È_1
 62
     5
 10
782.15812130999996
 20
-19.044885281100001
 30
0.0
 11
553.15812130999996
 21
-19.044885281100001
 31
0.0
  0
LINE
  5
1A3
  8
┌▓È_1
 62
     5
 10
563.15812130999996
 20
-29.044885281100001
 30
0.0
 11
772.15812130999996
 21
-29.044885281100001
 31
0.0
  0
LINE
  5
1A4
  8
┌▓È_1
  6
BORDER
 62
     3
 10
545.15812130999996
 20
-114.04488528109999
 30
0.0
 11
790.15812130999996
 21
-114.04488528109999
 31
0.0
  0
DIMENSION
  5
1B3
  8
Éíû@É³
  2
*D16
 10
552.65812130999996
 20
-449.5244315576
 30
0.0
 11
667.65812130999996
 21
-449.5244315576
 31
0.0
 70
   128
  1
(<>)
 13
552.65812130999996
 23
-398.5569942780001
 33
0.0
 14
782.65812130999996
 24
-398.5569942780001
 34
0.0
 50
180.0
  0
DIMENSION
  5
1C3
  8
Éíû@É³
  2
*D17
 10
559.15812130999996
 20
-431.48099458759998
 30
0.0
 11
667.65812130999996
 21
-431.48099458759998
 31
0.0
 70
   128
  1
(<>)ôÓÉí
 13
559.15812130999996
 23
-397.55699427799999
 33
0.0
 14
776.15812130999996
 24
-397.55699427799999
 34
0.0
 50
180.0
  0
LINE
  5
1C4
  8
┌▓È_1
 62
     5
 10
748.15812130999996
 20
-311.05699427799999
 30
0.0
 11
660.24192282290005
 21
-311.05699427799999
 31
0.0
  0
INSERT
  5
1C6
  8
Éíû@É³
  2
BALLON3
 10
0.0
 20
0.0
 30
0.0
  0
LINE
  5
1CF
  8
┌▓È_1
 62
     5
 10
772.15844165350006
 20
-198.04520562459999
 30
0.0
 11
563.15780096640003
 21
-198.04520562459999
 31
0.0
  0
LINE
  5
1D0
  8
┌▓È_1
 62
     5
 10
772.15812130999996
 20
-199.04488528109999
 30
0.0
 11
563.15812130999996
 21
-199.04488528109999
 31
0.0
  0
LINE
  5
1D1
  8
┌▓È_1
 62
     5
 10
553.15812130999996
 20
-209.04488528109999
 30
0.0
 11
782.15812130999996
 21
-209.04488528109999
 31
0.0
  0
LINE
  5
1D2
  8
┌▓È_1
 62
     5
 10
776.15812130999996
 20
-303.55699427799999
 30
0.0
 11
559.15812130999996
 21
-303.55699427799999
 31
0.0
  0
LINE
  5
1D3
  8
┌▓È_1
 62
     5
 10
774.15812130999996
 20
-308.05699427799999
 30
0.0
 11
567.35812131
 21
-308.05699427799999
 31
0.0
  0
LINE
  5
1D4
  8
┌▓È_1
 62
     5
 10
774.15812130999996
 20
-305.05699427799999
 30
0.0
 11
561.15812130999996
 21
-305.05699427799999
 31
0.0
  0
LINE
  5
1D5
  8
┌▓È_1
 62
     5
 10
778.21212104619985
 20
-398.5569942780001
 30
0.0
 11
558.15812109980004
 21
-398.5569942780001
 31
0.0
  0
DIMENSION
  5
1E4
  8
Éíû@É³
  2
*D19
 10
1102.0417705208999
 20
-207.04488528109999
 30
0.0
 11
1102.0417705208999
 21
-114.04488528109999
 31
0.0
 70
   128
  1
(<>)
 13
1043.5838084847001
 23
-207.04488528109999
 33
0.0
 14
1043.5838084847001
 24
-21.044885281100001
 34
0.0
 50
90.0
  0
DIMENSION
  5
1F3
  8
Éíû@É³
  2
*D20
 10
1083.0699373636
 20
-200.54488528109999
 30
0.0
 11
1083.0699373636
 21
-114.04488528109999
 31
0.0
 70
   128
  1
(<>)ôÓÉí
 13
1042.5838084847001
 23
-200.54488528109999
 33
0.0
 14
1042.5838084847001
 24
-27.544885281100001
 34
0.0
 50
90.0
  0
LINE
  5
1F4
  8
┌▓È_1
 62
     5
 10
1042.5838084847001
 20
-207.04488528109999
 30
0.0
 11
1042.5838084847001
 21
-21.044885281100001
 31
0.0
  0
LINE
  5
1F5
  8
┌▓È_1
 62
     5
 10
567.15812130999996
 20
-310.05699427799999
 30
0.0
 11
567.15812130999996
 21
-309.05699427799999
 31
0.0
  0
ARC
  5
1F6
  8
┌▓È_1
 62
     5
 10
567.15812130999996
 20
-310.05699427799999
 30
0.0
 40
1.0
 50
270.0
 51
0.0
  0
LINE
  5
1F7
  8
┌▓È_1
 62
     5
 10
568.15812130999996
 20
-309.05699427799999
 30
0.0
 11
568.15812130999996
 21
-310.05699427799999
 31
0.0
  0
LINE
  5
1F8
  8
┌▓È_1
 62
     5
 10
567.15812130999996
 20
-309.05699427799999
 30
0.0
 11
560.15812130999996
 21
-309.05699427799999
 31
0.0
  0
ARC
  5
1F9
  8
┌▓È_1
 62
     5
 10
559.15812130999996
 20
-310.05699427799999
 30
0.0
 40
1.0
 50
90.0
 51
180.0
  0
LINE
  5
1FA
  8
┌▓È_1
 62
     5
 10
560.65812130999996
 20
-309.05699427799999
 30
0.0
 11
559.15812130999996
 21
-309.05699427799999
 31
0.0
  0
ARC
  5
1FB
  8
┌▓È_1
 62
     5
 10
559.15812130999996
 20
-304.55699427799999
 30
0.0
 40
1.0
 50
0.0
 51
90.0
  0
LINE
  5
1FC
  8
┌▓È_1
 62
     5
 10
551.15812130999996
 20
-303.55699427799999
 30
0.0
 11
559.15812130999996
 21
-303.55699427799999
 31
0.0
  0
ARC
  5
1FD
  8
┌▓È_1
 62
     5
 10
551.15812130999996
 20
-304.55699427799999
 30
0.0
 40
1.0
 50
90.0
 51
180.0
  0
LINE
  5
1FE
  8
┌▓È_1
 62
     5
 10
563.15812130999996
 20
-310.05699427799999
 30
0.0
 11
559.15812130999996
 21
-310.05699427799999
 31
0.0
  0
LINE
  5
1FF
  8
┌▓È_1
 62
     5
 10
551.15812130999996
 20
-309.55699427799999
 30
0.0
 11
558.29209590620007
 21
-309.55699427799999
 31
0.0
  0
LINE
  5
200
  8
┌▓È_1
 10
544.78376900529986
 20
-386.96071139349999
 30
0.0
 11
490.36779678309989
 21
-386.96071139349999
 31
0.0
  0
INSERT
  5
201
  8
0
  6
CONTINUOUS
  2
*U73
 10
0.0
 20
0.0
 30
0.0
  0
LINE
  5
202
  8
┌▓È_1
  6
STITCH
 10
566.15812130999996
 20
-396.5569942780001
 30
0.0
 11
558.15812130999996
 21
-396.5569942780001
 31
0.0
  0
LINE
  5
203
  8
┌▓È_1
  6
STITCH
 10
564.06034910599999
 20
-388.55208018450003
 30
0.0
 11
559.8177084189
 21
-392.79472087160002
 31
0.0
  0
LINE
  5
204
  8
┌▓È_1
  6
STITCH
 10
559.8177084189
 20
-388.55208018450003
 30
0.0
 11
564.06034910599999
 21
-392.79472087160002
 31
0.0
  0
LINE
  5
205
  8
┌▓È_1
 62
     5
 10
558.15812130999996
 20
-397.55699427799999
 30
0.0
 11
552.65812130999996
 21
-397.55699427799999
 31
0.0
  0
LINE
  5
206
  8
┌▓È_1
 62
     5
 10
552.65812130999996
 20
-398.5569942780001
 30
0.0
 11
558.15812130999996
 21
-398.5569942780001
 31
0.0
  0
ARC
  5
207
  8
┌▓È_1
 62
     5
 10
558.15812130999996
 20
-397.55699427799999
 30
0.0
 40
1.0
 50
270.0
 51
0.0
  0
LINE
  5
208
  8
┌▓È_1
 62
     5
 10
552.65812130999996
 20
-397.55699427799999
 30
0.0
 11
552.65812130999996
 21
-398.5569942780001
 31
0.0
  0
LINE
  5
209
  8
┌▓È_1
  6
BORDER
 62
     3
 10
667.65812130999996
 20
-298.55699427799999
 30
0.0
 11
667.65812130999996
 21
-403.55699427799999
 31
0.0
  0
LINE
  5
20A
  8
┌▓È_1
 10
560.14759482399995
 20
-358.71445977980011
 30
0.0
 11
544.78376900529986
 21
-386.96071139349999
 31
0.0
  0
SOLID
  5
20B
  8
┌▓È_1
 10
560.14759482399995
 20
-358.71445977980011
 30
0.0
 11
558.69299563460004
 21
-364.75340214649998
 31
0.0
 12
558.04888194239993
 22
-362.57292399440001
 32
0.0
 13
558.04888194239993
 23
-362.57292399440001
 33
0.0
  0
SOLID
  5
20C
  8
┌▓È_1
 10
560.14759482399995
 20
-358.71445977980011
 30
0.0
 11
555.86840379030002
 21
-363.21703768660001
 31
0.0
 12
558.04888194239993
 22
-362.57292399440001
 32
0.0
 13
558.04888194239993
 23
-362.57292399440001
 33
0.0
  0
LINE
  5
20D
  8
┌▓È_1
  6
STITCH
 10
566.15812130999996
 20
-310.55699427799999
 30
0.0
 11
566.15812130999996
 21
-396.5569942780001
 31
0.0
  0
LINE
  5
20E
  8
┌▓È_1
 62
     5
 10
558.15812130999996
 20
-310.05699427799999
 30
0.0
 11
558.15812130999996
 21
-397.55699427799999
 31
0.0
  0
LINE
  5
20F
  8
┌▓È_1
 62
     5
 10
559.15812130999996
 20
-397.55699427799999
 30
0.0
 11
559.15812130999996
 21
-310.05699427799999
 31
0.0
  0
LINE
  5
210
  8
┌▓È_1
 62
     5
 10
579.65812130999996
 20
-321.50699427799998
 30
0.0
 11
581.65812130999996
 21
-321.50699427799998
 31
0.0
  0
LINE
  5
211
  8
┌▓È_1
 62
     5
 10
581.65812130999996
 20
-317.25699427799998
 30
0.0
 11
581.65812130999996
 21
-326.25699427799998
 31
0.0
  0
LINE
  5
212
  8
┌▓È_1
 62
     5
 10
588.65812130999996
 20
-317.25699427799998
 30
0.0
 11
588.65812130999996
 21
-326.25699427799998
 31
0.0
  0
LINE
  5
213
  8
┌▓È_1
 62
     5
 10
590.65812130999996
 20
-319.00699427799998
 30
0.0
 11
588.65812130999996
 21
-319.00699427799998
 31
0.0
  0
LINE
  5
214
  8
┌▓È_1
 62
     5
 10
579.65812130999996
 20
-326.25699427799998
 30
0.0
 11
579.65812130999996
 21
-327.75699427799998
 31
0.0
  0
ARC
  5
215
  8
┌▓È_1
 62
     5
 10
587.65812130999996
 20
-317.25699427799998
 30
0.0
 40
1.0
 50
0.0
 51
90.0
  0
LINE
  5
216
  8
┌▓È_1
 62
     5
 10
582.65812130999996
 20
-316.25699427799998
 30
0.0
 11
587.65812130999996
 21
-316.25699427799998
 31
0.0
  0
LINE
  5
217
  8
┌▓È_1
 62
     5
 10
592.65812130999996
 20
-329.75699427799998
 30
0.0
 11
592.65812130999996
 21
-328.75699427799998
 31
0.0
  0
ARC
  5
218
  8
┌▓È_1
 62
     5
 10
579.40812130999996
 20
-336.75699427799998
 30
0.0
 40
3.5
 50
60.0
 51
120.0
  0
LINE
  5
219
  8
┌▓È_1
 62
     5
 10
550.15812130999996
 20
-309.55699427799999
 30
0.0
 11
550.15812130999996
 21
-304.55699427799999
 31
0.0
  0
LINE
  5
21A
  8
┌▓È_1
 62
     5
 10
559.15812130999996
 20
-308.05699427799999
 30
0.0
 11
559.15812130999996
 21
-304.55699427799999
 31
0.0
  0
LINE
  5
21B
  8
┌▓È_1
 62
     5
 10
561.15812130999996
 20
-305.05699427799999
 30
0.0
 11
561.15812130999996
 21
-308.05699427799999
 31
0.0
  0
LINE
  5
21C
  8
┌▓È_1
 62
     5
 10
551.15812130999996
 20
-304.55699427799999
 30
0.0
 11
551.15812130999996
 21
-309.55699427799999
 31
0.0
  0
LINE
  5
21D
  8
┌▓È_1
 62
     5
 10
563.15812130999996
 20
-311.05699427799999
 30
0.0
 11
563.15812130999996
 21
-310.05699427799999
 31
0.0
  0
LINE
  5
21E
  8
┌▓È_1
 62
     5
 10
579.15812130999996
 20
-305.05699427799999
 30
0.0
 11
579.15812130999996
 21
-308.05699427799999
 31
0.0
  0
LINE
  5
21F
  8
┌▓È_1
 62
     5
 10
591.15812130999996
 20
-305.05699427799999
 30
0.0
 11
591.15812130999996
 21
-308.05699427799999
 31
0.0
  0
LINE
  5
220
  8
┌▓È_1
 62
     5
 10
559.15812130999996
 20
-304.55699427799999
 30
0.0
 11
551.15812130999996
 21
-304.55699427799999
 31
0.0
  0
LINE
  5
221
  8
┌▓È_1
 62
     5
 10
567.15812130999996
 20
-311.05699427799999
 30
0.0
 11
563.15812130999996
 21
-311.05699427799999
 31
0.0
  0
LINE
  5
222
  8
┌▓È_1
 62
     5
 10
560.15812130999996
 20
-308.05699427799999
 30
0.0
 11
567.15812130999996
 21
-308.05699427799999
 31
0.0
  0
ARC
  5
223
  8
┌▓È_1
 62
     5
 10
560.15812130999996
 20
-308.05699427799999
 30
0.0
 40
1.0
 50
180.0
 51
270.0
  0
ARC
  5
224
  8
┌▓È_1
 62
     5
 10
567.15812130999996
 20
-309.05699427799999
 30
0.0
 40
1.0
 50
0.0
 51
90.0
  0
LINE
  5
225
  8
┌▓È_1
 62
     5
 10
551.15812130999996
 20
-309.55699427799999
 30
0.0
 11
550.15812130999996
 21
-309.55699427799999
 31
0.0
  0
LINE
  5
226
  8
┌▓È_1
 62
     5
 10
563.15812130999996
 20
-310.05699427799999
 30
0.0
 11
567.15812130999996
 21
-310.05699427799999
 31
0.0
  0
LINE
  5
227
  8
┌▓È_1
 62
     5
 10
560.15812130999996
 20
-304.55699427799999
 30
0.0
 11
560.15812130999996
 21
-308.05699427799999
 31
0.0
  0
LINE
  5
228
  8
┌▓È_1
 62
     5
 10
567.15812130999996
 20
-311.05699427799999
 30
0.0
 11
575.15812130999996
 21
-311.05699427799999
 31
0.0
  0
LINE
  5
229
  8
┌▓È_1
 62
     5
 10
577.65812130999996
 20
-339.78808319130002
 30
0.0
 11
577.65812130999996
 21
-333.72590536479998
 31
0.0
  0
LINE
  5
22A
  8
┌▓È_1
 62
     5
 10
581.15812130999996
 20
-339.78808319130002
 30
0.0
 11
581.15812130999996
 21
-333.72590536479998
 31
0.0
  0
LINE
  5
22B
  8
┌▓È_1
 62
     5
 10
579.65812130999996
 20
-326.25699427799998
 30
0.0
 11
590.65812130999996
 21
-326.25699427799998
 31
0.0
  0
LINE
  5
22C
  8
┌▓È_1
 62
     5
 10
582.45812131000002
 20
-342.75699427799998
 30
0.0
 11
581.15812130999996
 21
-341.45699427800002
 31
0.0
  0
LINE
  5
22D
  8
┌▓È_1
 62
     5
 10
577.65812130999996
 20
-333.25699427799998
 30
0.0
 11
577.65812130999996
 21
-331.75699427799998
 31
0.0
  0
LINE
  5
22E
  8
┌▓È_1
 62
     5
 10
592.65812130999996
 20
-333.72590536479998
 30
0.0
 11
592.65812130999996
 21
-339.78808319130002
 31
0.0
  0
LINE
  5
22F
  8
┌▓È_1
 62
     5
 10
590.65812130999996
 20
-319.00699427799998
 30
0.0
 11
590.65812130999996
 21
-321.50699427799998
 31
0.0
  0
LINE
  5
230
  8
┌▓È_1
 62
     5
 10
582.45812131000002
 20
-342.75699427799998
 30
0.0
 11
582.45812131000002
 21
-340.25699427799998
 31
0.0
  0
LINE
  5
231
  8
┌▓È_1
 62
     5
 10
582.45812131000002
 20
-342.75699427799998
 30
0.0
 11
587.85812131
 21
-342.75699427799998
 31
0.0
  0
LINE
  5
232
  8
┌▓È_1
 62
     5
 10
579.65812130999996
 20
-319.00699427799998
 30
0.0
 11
581.65812130999996
 21
-319.00699427799998
 31
0.0
  0
LINE
  5
233
  8
┌▓È_1
 62
     5
 10
577.65812130999996
 20
-329.75699427799998
 30
0.0
 11
592.65812130999996
 21
-329.75699427799998
 31
0.0
  0
LINE
  5
234
  8
┌▓È_1
 62
     5
 10
579.65812130999996
 20
-319.00699427799998
 30
0.0
 11
579.65812130999996
 21
-321.50699427799998
 31
0.0
  0
LINE
  5
235
  8
┌▓È_1
 62
     5
 10
564.65812130999996
 20
-329.75699427799998
 30
0.0
 11
577.65812130999996
 21
-329.75699427799998
 31
0.0
  0
LINE
  5
236
  8
┌▓È_1
 62
     5
 10
590.65812130999996
 20
-321.50699427799998
 30
0.0
 11
588.65812130999996
 21
-321.50699427799998
 31
0.0
  0
ARC
  5
237
  8
┌▓È_1
 62
     5
 10
579.40812130999996
 20
-336.75699427799998
 30
0.0
 40
3.5
 50
240.0
 51
300.0
  0
ARC
  5
238
  8
┌▓È_1
 62
     5
 10
560.65812130999996
 20
-329.75699427799998
 30
0.0
 40
1.5
 50
90.0
 51
180.0
  0
LINE
  5
239
  8
┌▓È_1
 62
     5
 10
565.15812130999996
 20
-329.75699427799998
 30
0.0
 11
560.65812130999996
 21
-329.75699427799998
 31
0.0
  0
LINE
  5
23A
  8
┌▓È_1
 62
     5
 10
577.65812130999996
 20
-329.75699427799998
 30
0.0
 11
577.65812130999996
 21
-328.75699427799998
 31
0.0
  0
LINE
  5
23B
  8
┌▓È_1
 62
     5
 10
575.15812130999996
 20
-328.75699427799998
 30
0.0
 11
600.15812130999996
 21
-328.75699427799998
 31
0.0
  0
LINE
  5
23C
  8
┌▓È_1
 62
     5
 10
600.15812130999996
 20
-327.75699427799998
 30
0.0
 11
575.15812130999996
 21
-327.75699427799998
 31
0.0
  0
ARC
  5
23D
  8
┌▓È_1
 62
     5
 10
582.65812130999996
 20
-317.25699427799998
 30
0.0
 40
1.0
 50
90.0
 51
180.0
  0
LINE
  5
23E
  8
┌▓È_1
 62
     5
 10
590.65812130999996
 20
-326.25699427799998
 30
0.0
 11
590.65812130999996
 21
-327.75699427799998
 31
0.0
  0
LINE
  5
23F
  8
┌▓È_1
 62
     5
 10
589.15812130999996
 20
-341.45699427800002
 30
0.0
 11
589.15812130999996
 21
-340.25699427799998
 31
0.0
  0
LINE
  5
240
  8
┌▓È_1
 62
     5
 10
589.15812130999996
 20
-341.45699427800002
 30
0.0
 11
587.85812131
 21
-342.75699427799998
 31
0.0
  0
LINE
  5
241
  8
┌▓È_1
 62
     5
 10
581.15812130999996
 20
-341.45699427800002
 30
0.0
 11
581.15812130999996
 21
-340.25699427799998
 31
0.0
  0
LINE
  5
242
  8
┌▓È_1
  6
STITCH
 10
564.06034910599999
 20
-352.33298982980011
 30
0.0
 11
559.8177084189
 21
-356.57563051690011
 31
0.0
  0
LINE
  5
243
  8
┌▓È_1
  6
STITCH
 10
564.06034910599999
 20
-315.44290049699998
 30
0.0
 11
559.8177084189
 21
-319.68554118409997
 31
0.0
  0
LINE
  5
244
  8
┌▓È_1
  6
STITCH
 10
559.8177084189
 20
-315.44290049699998
 30
0.0
 11
564.06034910599999
 21
-319.68554118409997
 31
0.0
  0
LINE
  5
245
  8
┌▓È_1
 62
     5
 10
594.65812130999996
 20
-331.75699427799998
 30
0.0
 11
564.65812130999996
 21
-331.75699427799998
 31
0.0
  0
LINE
  5
246
  8
┌▓È_1
 62
     5
 10
592.65812130999996
 20
-329.75699427799998
 30
0.0
 11
594.65812130999996
 21
-329.75699427799998
 31
0.0
  0
LINE
  5
247
  8
┌▓È_1
 62
     5
 10
594.65812130999996
 20
-331.75699427799998
 30
0.0
 11
594.65812130999996
 21
-329.75699427799998
 31
0.0
  0
LINE
  5
248
  8
┌▓È_1
 62
     5
 10
560.65812130999996
 20
-351.25699427799998
 30
0.0
 11
560.65812130999996
 21
-329.75699427799998
 31
0.0
  0
LINE
  5
249
  8
┌▓È_1
 62
     5
 10
559.15812130999996
 20
-351.25699427799998
 30
0.0
 11
560.65812130999996
 21
-351.25699427799998
 31
0.0
  0
LINE
  5
24A
  8
┌▓È_1
 62
     5
 10
569.15812130999996
 20
-329.75699427799998
 30
0.0
 11
569.15812130999996
 21
-328.25699427799998
 31
0.0
  0
LINE
  5
24B
  8
┌▓È_1
 62
     5
 10
560.65812130999996
 20
-328.25699427799998
 30
0.0
 11
569.15812130999996
 21
-328.25699427799998
 31
0.0
  0
LINE
  5
24C
  8
┌▓È_1
 62
     5
 10
600.15812130999996
 20
-328.75699427799998
 30
0.0
 11
600.15812130999996
 21
-308.05699427799999
 31
0.0
  0
LINE
  5
24D
  8
┌▓È_1
 62
     5
 10
575.15812130999996
 20
-328.75699427799998
 30
0.0
 11
575.15812130999996
 21
-308.05699427799999
 31
0.0
  0
LINE
  5
24E
  8
┌▓È_1
  6
BORDER
 62
     3
 10
585.15812130999996
 20
-298.55699427799999
 30
0.0
 11
585.15812130999996
 21
-347.75699427800009
 31
0.0
  0
INSERT
  5
250
  8
Éíû@É³
  2
BALLON4
 10
0.0
 20
0.0
 30
0.0
  0
POLYLINE
  8
┌▓È_1
  5
9AB
  62
5
  66
     1
 10
0.000000
 20
0.000000
 30
0.000000
  70
     8
  0
VERTEX
  8
┌▓È_1
  5
9AC
 10
589.158
 20
-339.788
 30
0.000000
  70
    32
  0
VERTEX
  8
┌▓È_1
  5
9AD
 10
589.108
 20
-339.797
 30
0.000000
  70
    32
  0
VERTEX
  8
┌▓È_1
  5
9AE
 10
589.057
 20
-339.806
 30
0.000000
  70
    32
  0
VERTEX
  8
┌▓È_1
  5
9AF
 10
589.007
 20
-339.815
 30
0.000000
  70
    32
  0
VERTEX
  8
┌▓È_1
  5
9B0
 10
588.957
 20
-339.823
 30
0.000000
  70
    32
  0
VERTEX
  8
┌▓È_1
  5
9B1
 10
588.907
 20
-339.832
 30
0.000000
  70
    32
  0
VERTEX
  8
┌▓È_1
  5
9B2
 10
588.856
 20
-339.841
 30
0.000000
  70
    32
  0
VERTEX
  8
┌▓È_1
  5
9B3
 10
588.806
 20
-339.850
 30
0.000000
  70
    32
  0
VERTEX
  8
┌▓È_1
  5
9B4
 10
588.756
 20
-339.859
 30
0.000000
  70
    32
  0
VERTEX
  8
┌▓È_1
  5
9B5
 10
588.705
 20
-339.867
 30
0.000000
  70
    32
  0
VERTEX
  8
┌▓È_1
  5
9B6
 10
588.655
 20
-339.876
 30
0.000000
  70
    32
  0
VERTEX
  8
┌▓È_1
  5
9B7
 10
588.605
 20
-339.885
 30
0.000000
  70
    32
  0
VERTEX
  8
┌▓È_1
  5
9B8
 10
588.554
 20
-339.893
 30
0.000000
  70
    32
  0
VERTEX
  8
┌▓È_1
  5
9B9
 10
588.504
 20
-339.902
 30
0.000000
  70
    32
  0
VERTEX
  8
┌▓È_1
  5
9BA
 10
588.454
 20
-339.911
 30
0.000000
  70
    32
  0
VERTEX
  8
┌▓È_1
  5
9BB
 10
588.403
 20
-339.919
 30
0.000000
  70
    32
  0
VERTEX
  8
┌▓È_1
  5
9BC
 10
588.353
 20
-339.928
 30
0.000000
  70
    32
  0
VERTEX
  8
┌▓È_1
  5
9BD
 10
588.303
 20
-339.936
 30
0.000000
  70
    32
  0
VERTEX
  8
┌▓È_1
  5
9BE
 10
588.252
 20
-339.945
 30
0.000000
  70
    32
  0
VERTEX
  8
┌▓È_1
  5
9BF
 10
588.202
 20
-339.953
 30
0.000000
  70
    32
  0
VERTEX
  8
┌▓È_1
  5
9C0
 10
588.152
 20
-339.961
 30
0.000000
  70
    32
  0
VERTEX
  8
┌▓È_1
  5
9C1
 10
588.102
 20
-339.970
 30
0.000000
  70
    32
  0
VERTEX
  8
┌▓È_1
  5
9C2
 10
588.051
 20
-339.978
 30
0.000000
  70
    32
  0
VERTEX
  8
┌▓È_1
  5
9C3
 10
588.001
 20
-339.986
 30
0.000000
  70
    32
  0
VERTEX
  8
┌▓È_1
  5
9C4
 10
587.951
 20
-339.994
 30
0.000000
  70
    32
  0
VERTEX
  8
┌▓È_1
  5
9C5
 10
587.900
 20
-340.002
 30
0.000000
  70
    32
  0
VERTEX
  8
┌▓È_1
  5
9C6
 10
587.850
 20
-340.010
 30
0.000000
  70
    32
  0
VERTEX
  8
┌▓È_1
  5
9C7
 10
587.800
 20
-340.018
 30
0.000000
  70
    32
  0
VERTEX
  8
┌▓È_1
  5
9C8
 10
587.749
 20
-340.026
 30
0.000000
  70
    32
  0
VERTEX
  8
┌▓È_1
  5
9C9
 10
587.699
 20
-340.033
 30
0.000000
  70
    32
  0
VERTEX
  8
┌▓È_1
  5
9CA
 10
587.649
 20
-340.041
 30
0.000000
  70
    32
  0
VERTEX
  8
┌▓È_1
  5
9CB
 10
587.598
 20
-340.048
 30
0.000000
  70
    32
  0
VERTEX
  8
┌▓È_1
  5
9CC
 10
587.548
 20
-340.056
 30
0.000000
  70
    32
  0
VERTEX
  8
┌▓È_1
  5
9CD
 10
587.498
 20
-340.063
 30
0.000000
  70
    32
  0
VERTEX
  8
┌▓È_1
  5
9CE
 10
587.447
 20
-340.071
 30
0.000000
  70
    32
  0
VERTEX
  8
┌▓È_1
  5
9CF
 10
587.397
 20
-340.078
 30
0.000000
  70
    32
  0
VERTEX
  8
┌▓È_1
  5
9D0
 10
587.347
 20
-340.085
 30
0.000000
  70
    32
  0
VERTEX
  8
┌▓È_1
  5
9D1
 10
587.296
 20
-340.092
 30
0.000000
  70
    32
  0
VERTEX
  8
┌▓È_1
  5
9D2
 10
587.246
 20
-340.099
 30
0.000000
  70
    32
  0
VERTEX
  8
┌▓È_1
  5
9D3
 10
587.196
 20
-340.105
 30
0.000000
  70
    32
  0
VERTEX
  8
┌▓È_1
  5
9D4
 10
587.146
 20
-340.112
 30
0.000000
  70
    32
  0
VERTEX
  8
┌▓È_1
  5
9D5
 10
587.095
 20
-340.119
 30
0.000000
  70
    32
  0
VERTEX
  8
┌▓È_1
  5
9D6
 10
587.045
 20
-340.125
 30
0.000000
  70
    32
  0
VERTEX
  8
┌▓È_1
  5
9D7
 10
586.995
 20
-340.131
 30
0.000000
  70
    32
  0
VERTEX
  8
┌▓È_1
  5
9D8
 10
586.944
 20
-340.138
 30
0.000000
  70
    32
  0
VERTEX
  8
┌▓È_1
  5
9D9
 10
586.894
 20
-340.144
 30
0.000000
  70
    32
  0
VERTEX
  8
┌▓È_1
  5
9DA
 10
586.844
 20
-340.150
 30
0.000000
  70
    32
  0
VERTEX
  8
┌▓È_1
  5
9DB
 10
586.793
 20
-340.155
 30
0.000000
  70
    32
  0
VERTEX
  8
┌▓È_1
  5
9DC
 10
586.743
 20
-340.161
 30
0.000000
  70
    32
  0
VERTEX
  8
┌▓È_1
  5
9DD
 10
586.693
 20
-340.167
 30
0.000000
  70
    32
  0
VERTEX
  8
┌▓È_1
  5
9DE
 10
586.642
 20
-340.172
 30
0.000000
  70
    32
  0
VERTEX
  8
┌▓È_1
  5
9DF
 10
586.592
 20
-340.177
 30
0.000000
  70
    32
  0
VERTEX
  8
┌▓È_1
  5
9E0
 10
586.542
 20
-340.183
 30
0.000000
  70
    32
  0
VERTEX
  8
┌▓È_1
  5
9E1
 10
586.491
 20
-340.188
 30
0.000000
  70
    32
  0
VERTEX
  8
┌▓È_1
  5
9E2
 10
586.441
 20
-340.192
 30
0.000000
  70
    32
  0
VERTEX
  8
┌▓È_1
  5
9E3
 10
586.391
 20
-340.197
 30
0.000000
  70
    32
  0
VERTEX
  8
┌▓È_1
  5
9E4
 10
586.341
 20
-340.202
 30
0.000000
  70
    32
  0
VERTEX
  8
┌▓È_1
  5
9E5
 10
586.290
 20
-340.206
 30
0.000000
  70
    32
  0
VERTEX
  8
┌▓È_1
  5
9E6
 10
586.240
 20
-340.210
 30
0.000000
  70
    32
  0
VERTEX
  8
┌▓È_1
  5
9E7
 10
586.190
 20
-340.214
 30
0.000000
  70
    32
  0
VERTEX
  8
┌▓È_1
  5
9E8
 10
586.139
 20
-340.218
 30
0.000000
  70
    32
  0
VERTEX
  8
┌▓È_1
  5
9E9
 10
586.089
 20
-340.222
 30
0.000000
  70
    32
  0
VERTEX
  8
┌▓È_1
  5
9EA
 10
586.039
 20
-340.225
 30
0.000000
  70
    32
  0
VERTEX
  8
┌▓È_1
  5
9EB
 10
585.988
 20
-340.229
 30
0.000000
  70
    32
  0
VERTEX
  8
┌▓È_1
  5
9EC
 10
585.938
 20
-340.232
 30
0.000000
  70
    32
  0
VERTEX
  8
┌▓È_1
  5
9ED
 10
585.888
 20
-340.235
 30
0.000000
  70
    32
  0
VERTEX
  8
┌▓È_1
  5
9EE
 10
585.837
 20
-340.238
 30
0.000000
  70
    32
  0
VERTEX
  8
┌▓È_1
  5
9EF
 10
585.787
 20
-340.241
 30
0.000000
  70
    32
  0
VERTEX
  8
┌▓È_1
  5
9F0
 10
585.737
 20
-340.243
 30
0.000000
  70
    32
  0
VERTEX
  8
┌▓È_1
  5
9F1
 10
585.686
 20
-340.245
 30
0.000000
  70
    32
  0
VERTEX
  8
┌▓È_1
  5
9F2
 10
585.636
 20
-340.247
 30
0.000000
  70
    32
  0
VERTEX
  8
┌▓È_1
  5
9F3
 10
585.586
 20
-340.249
 30
0.000000
  70
    32
  0
VERTEX
  8
┌▓È_1
  5
9F4
 10
585.535
 20
-340.251
 30
0.000000
  70
    32
  0
VERTEX
  8
┌▓È_1
  5
9F5
 10
585.485
 20
-340.252
 30
0.000000
  70
    32
  0
VERTEX
  8
┌▓È_1
  5
9F6
 10
585.435
 20
-340.254
 30
0.000000
  70
    32
  0
VERTEX
  8
┌▓È_1
  5
9F7
 10
585.385
 20
-340.255
 30
0.000000
  70
    32
  0
VERTEX
  8
┌▓È_1
  5
9F8
 10
585.334
 20
-340.256
 30
0.000000
  70
    32
  0
VERTEX
  8
┌▓È_1
  5
9F9
 10
585.284
 20
-340.256
 30
0.000000
  70
    32
  0
VERTEX
  8
┌▓È_1
  5
9FA
 10
585.234
 20
-340.257
 30
0.000000
  70
    32
  0
VERTEX
  8
┌▓È_1
  5
9FB
 10
585.183
 20
-340.257
 30
0.000000
  70
    32
  0
VERTEX
  8
┌▓È_1
  5
9FC
 10
585.133
 20
-340.257
 30
0.000000
  70
    32
  0
VERTEX
  8
┌▓È_1
  5
9FD
 10
585.083
 20
-340.257
 30
0.000000
  70
    32
  0
VERTEX
  8
┌▓È_1
  5
9FE
 10
585.032
 20
-340.256
 30
0.000000
  70
    32
  0
VERTEX
  8
┌▓È_1
  5
9FF
 10
584.982
 20
-340.256
 30
0.000000
  70
    32
  0
VERTEX
  8
┌▓È_1
  5
A00
 10
584.932
 20
-340.255
 30
0.000000
  70
    32
  0
VERTEX
  8
┌▓È_1
  5
A01
 10
584.881
 20
-340.254
 30
0.000000
  70
    32
  0
VERTEX
  8
┌▓È_1
  5
A02
 10
584.831
 20
-340.252
 30
0.000000
  70
    32
  0
VERTEX
  8
┌▓È_1
  5
A03
 10
584.781
 20
-340.251
 30
0.000000
  70
    32
  0
VERTEX
  8
┌▓È_1
  5
A04
 10
584.730
 20
-340.249
 30
0.000000
  70
    32
  0
VERTEX
  8
┌▓È_1
  5
A05
 10
584.680
 20
-340.247
 30
0.000000
  70
    32
  0
VERTEX
  8
┌▓È_1
  5
A06
 10
584.630
 20
-340.245
 30
0.000000
  70
    32
  0
VERTEX
  8
┌▓È_1
  5
A07
 10
584.580
 20
-340.243
 30
0.000000
  70
    32
  0
VERTEX
  8
┌▓È_1
  5
A08
 10
584.529
 20
-340.241
 30
0.000000
  70
    32
  0
VERTEX
  8
┌▓È_1
  5
A09
 10
584.479
 20
-340.238
 30
0.000000
  70
    32
  0
VERTEX
  8
┌▓È_1
  5
A0A
 10
584.429
 20
-340.235
 30
0.000000
  70
    32
  0
VERTEX
  8
┌▓È_1
  5
A0B
 10
584.378
 20
-340.232
 30
0.000000
  70
    32
  0
VERTEX
  8
┌▓È_1
  5
A0C
 10
584.328
 20
-340.229
 30
0.000000
  70
    32
  0
VERTEX
  8
┌▓È_1
  5
A0D
 10
584.278
 20
-340.225
 30
0.000000
  70
    32
  0
VERTEX
  8
┌▓È_1
  5
A0E
 10
584.227
 20
-340.222
 30
0.000000
  70
    32
  0
VERTEX
  8
┌▓È_1
  5
A0F
 10
584.177
 20
-340.218
 30
0.000000
  70
    32
  0
VERTEX
  8
┌▓È_1
  5
A10
 10
584.127
 20
-340.214
 30
0.000000
  70
    32
  0
VERTEX
  8
┌▓È_1
  5
A11
 10
584.076
 20
-340.210
 30
0.000000
  70
    32
  0
VERTEX
  8
┌▓È_1
  5
A12
 10
584.026
 20
-340.206
 30
0.000000
  70
    32
  0
VERTEX
  8
┌▓È_1
  5
A13
 10
583.976
 20
-340.202
 30
0.000000
  70
    32
  0
VERTEX
  8
┌▓È_1
  5
A14
 10
583.925
 20
-340.197
 30
0.000000
  70
    32
  0
VERTEX
  8
┌▓È_1
  5
A15
 10
583.875
 20
-340.192
 30
0.000000
  70
    32
  0
VERTEX
  8
┌▓È_1
  5
A16
 10
583.825
 20
-340.188
 30
0.000000
  70
    32
  0
VERTEX
  8
┌▓È_1
  5
A17
 10
583.774
 20
-340.183
 30
0.000000
  70
    32
  0
VERTEX
  8
┌▓È_1
  5
A18
 10
583.724
 20
-340.177
 30
0.000000
  70
    32
  0
VERTEX
  8
┌▓È_1
  5
A19
 10
583.674
 20
-340.172
 30
0.000000
  70
    32
  0
VERTEX
  8
┌▓È_1
  5
A1A
 10
583.624
 20
-340.167
 30
0.000000
  70
    32
  0
VERTEX
  8
┌▓È_1
  5
A1B
 10
583.573
 20
-340.161
 30
0.000000
  70
    32
  0
VERTEX
  8
┌▓È_1
  5
A1C
 10
583.523
 20
-340.155
 30
0.000000
  70
    32
  0
VERTEX
  8
┌▓È_1
  5
A1D
 10
583.473
 20
-340.150
 30
0.000000
  70
    32
  0
VERTEX
  8
┌▓È_1
  5
A1E
 10
583.422
 20
-340.144
 30
0.000000
  70
    32
  0
VERTEX
  8
┌▓È_1
  5
A1F
 10
583.372
 20
-340.138
 30
0.000000
  70
    32
  0
VERTEX
  8
┌▓È_1
  5
A20
 10
583.322
 20
-340.131
 30
0.000000
  70
    32
  0
VERTEX
  8
┌▓È_1
  5
A21
 10
583.271
 20
-340.125
 30
0.000000
  70
    32
  0
VERTEX
  8
┌▓È_1
  5
A22
 10
583.221
 20
-340.119
 30
0.000000
  70
    32
  0
VERTEX
  8
┌▓È_1
  5
A23
 10
583.171
 20
-340.112
 30
0.000000
  70
    32
  0
VERTEX
  8
┌▓È_1
  5
A24
 10
583.120
 20
-340.105
 30
0.000000
  70
    32
  0
VERTEX
  8
┌▓È_1
  5
A25
 10
583.070
 20
-340.099
 30
0.000000
  70
    32
  0
VERTEX
  8
┌▓È_1
  5
A26
 10
583.020
 20
-340.092
 30
0.000000
  70
    32
  0
VERTEX
  8
┌▓È_1
  5
A27
 10
582.969
 20
-340.085
 30
0.000000
  70
    32
  0
VERTEX
  8
┌▓È_1
  5
A28
 10
582.919
 20
-340.078
 30
0.000000
  70
    32
  0
VERTEX
  8
┌▓È_1
  5
A29
 10
582.869
 20
-340.071
 30
0.000000
  70
    32
  0
VERTEX
  8
┌▓È_1
  5
A2A
 10
582.818
 20
-340.063
 30
0.000000
  70
    32
  0
VERTEX
  8
┌▓È_1
  5
A2B
 10
582.768
 20
-340.056
 30
0.000000
  70
    32
  0
VERTEX
  8
┌▓È_1
  5
A2C
 10
582.718
 20
-340.048
 30
0.000000
  70
    32
  0
VERTEX
  8
┌▓È_1
  5
A2D
 10
582.668
 20
-340.041
 30
0.000000
  70
    32
  0
VERTEX
  8
┌▓È_1
  5
A2E
 10
582.617
 20
-340.033
 30
0.000000
  70
    32
  0
VERTEX
  8
┌▓È_1
  5
A2F
 10
582.567
 20
-340.026
 30
0.000000
  70
    32
  0
VERTEX
  8
┌▓È_1
  5
A30
 10
582.517
 20
-340.018
 30
0.000000
  70
    32
  0
VERTEX
  8
┌▓È_1
  5
A31
 10
582.466
 20
-340.010
 30
0.000000
  70
    32
  0
VERTEX
  8
┌▓È_1
  5
A32
 10
582.416
 20
-340.002
 30
0.000000
  70
    32
  0
VERTEX
  8
┌▓È_1
  5
A33
 10
582.366
 20
-339.994
 30
0.000000
  70
    32
  0
VERTEX
  8
┌▓È_1
  5
A34
 10
582.315
 20
-339.986
 30
0.000000
  70
    32
  0
VERTEX
  8
┌▓È_1
  5
A35
 10
582.265
 20
-339.978
 30
0.000000
  70
    32
  0
VERTEX
  8
┌▓È_1
  5
A36
 10
582.215
 20
-339.970
 30
0.000000
  70
    32
  0
VERTEX
  8
┌▓È_1
  5
A37
 10
582.164
 20
-339.961
 30
0.000000
  70
    32
  0
VERTEX
  8
┌▓È_1
  5
A38
 10
582.114
 20
-339.953
 30
0.000000
  70
    32
  0
VERTEX
  8
┌▓È_1
  5
A39
 10
582.064
 20
-339.945
 30
0.000000
  70
    32
  0
VERTEX
  8
┌▓È_1
  5
A3A
 10
582.013
 20
-339.936
 30
0.000000
  70
    32
  0
VERTEX
  8
┌▓È_1
  5
A3B
 10
581.963
 20
-339.928
 30
0.000000
  70
    32
  0
VERTEX
  8
┌▓È_1
  5
A3C
 10
581.913
 20
-339.919
 30
0.000000
  70
    32
  0
VERTEX
  8
┌▓È_1
  5
A3D
 10
581.863
 20
-339.911
 30
0.000000
  70
    32
  0
VERTEX
  8
┌▓È_1
  5
A3E
 10
581.812
 20
-339.902
 30
0.000000
  70
    32
  0
VERTEX
  8
┌▓È_1
  5
A3F
 10
581.762
 20
-339.893
 30
0.000000
  70
    32
  0
VERTEX
  8
┌▓È_1
  5
A40
 10
581.712
 20
-339.885
 30
0.000000
  70
    32
  0
VERTEX
  8
┌▓È_1
  5
A41
 10
581.661
 20
-339.876
 30
0.000000
  70
    32
  0
VERTEX
  8
┌▓È_1
  5
A42
 10
581.611
 20
-339.867
 30
0.000000
  70
    32
  0
VERTEX
  8
┌▓È_1
  5
A43
 10
581.561
 20
-339.859
 30
0.000000
  70
    32
  0
VERTEX
  8
┌▓È_1
  5
A44
 10
581.510
 20
-339.850
 30
0.000000
  70
    32
  0
VERTEX
  8
┌▓È_1
  5
A45
 10
581.460
 20
-339.841
 30
0.000000
  70
    32
  0
VERTEX
  8
┌▓È_1
  5
A46
 10
581.410
 20
-339.832
 30
0.000000
  70
    32
  0
VERTEX
  8
┌▓È_1
  5
A47
 10
581.359
 20
-339.823
 30
0.000000
  70
    32
  0
VERTEX
  8
┌▓È_1
  5
A48
 10
581.309
 20
-339.815
 30
0.000000
  70
    32
  0
VERTEX
  8
┌▓È_1
  5
A49
 10
581.259
 20
-339.806
 30
0.000000
  70
    32
  0
VERTEX
  8
┌▓È_1
  5
A4A
 10
581.208
 20
-339.797
 30
0.000000
  70
    32
  0
VERTEX
  8
┌▓È_1
  5
A4B
 10
581.158
 20
-339.788
 30
0.000000
  70
    32
  0
SEQEND
  8
┌▓È_1
  5
A4C
  0
POLYLINE
  8
┌▓È_1
  5
A4D
  62
5
  66
     1
 10
0.000000
 20
0.000000
 30
0.000000
  70
     8
  0
VERTEX
  8
┌▓È_1
  5
A4E
 10
589.158
 20
-333.726
 30
0.000000
  70
    32
  0
VERTEX
  8
┌▓È_1
  5
A4F
 10
589.108
 20
-333.717
 30
0.000000
  70
    32
  0
VERTEX
  8
┌▓È_1
  5
A50
 10
589.057
 20
-333.708
 30
0.000000
  70
    32
  0
VERTEX
  8
┌▓È_1
  5
A51
 10
589.007
 20
-333.699
 30
0.000000
  70
    32
  0
VERTEX
  8
┌▓È_1
  5
A52
 10
588.957
 20
-333.691
 30
0.000000
  70
    32
  0
VERTEX
  8
┌▓È_1
  5
A53
 10
588.907
 20
-333.682
 30
0.000000
  70
    32
  0
VERTEX
  8
┌▓È_1
  5
A54
 10
588.856
 20
-333.673
 30
0.000000
  70
    32
  0
VERTEX
  8
┌▓È_1
  5
A55
 10
588.806
 20
-333.664
 30
0.000000
  70
    32
  0
VERTEX
  8
┌▓È_1
  5
A56
 10
588.756
 20
-333.655
 30
0.000000
  70
    32
  0
VERTEX
  8
┌▓È_1
  5
A57
 10
588.705
 20
-333.647
 30
0.000000
  70
    32
  0
VERTEX
  8
┌▓È_1
  5
A58
 10
588.655
 20
-333.638
 30
0.000000
  70
    32
  0
VERTEX
  8
┌▓È_1
  5
A59
 10
588.605
 20
-333.629
 30
0.000000
  70
    32
  0
VERTEX
  8
┌▓È_1
  5
A5A
 10
588.554
 20
-333.621
 30
0.000000
  70
    32
  0
VERTEX
  8
┌▓È_1
  5
A5B
 10
588.504
 20
-333.612
 30
0.000000
  70
    32
  0
VERTEX
  8
┌▓È_1
  5
A5C
 10
588.454
 20
-333.603
 30
0.000000
  70
    32
  0
VERTEX
  8
┌▓È_1
  5
A5D
 10
588.403
 20
-333.595
 30
0.000000
  70
    32
  0
VERTEX
  8
┌▓È_1
  5
A5E
 10
588.353
 20
-333.586
 30
0.000000
  70
    32
  0
VERTEX
  8
┌▓È_1
  5
A5F
 10
588.303
 20
-333.578
 30
0.000000
  70
    32
  0
VERTEX
  8
┌▓È_1
  5
A60
 10
588.252
 20
-333.569
 30
0.000000
  70
    32
  0
VERTEX
  8
┌▓È_1
  5
A61
 10
588.202
 20
-333.561
 30
0.000000
  70
    32
  0
VERTEX
  8
┌▓È_1
  5
A62
 10
588.152
 20
-333.553
 30
0.000000
  70
    32
  0
VERTEX
  8
┌▓È_1
  5
A63
 10
588.102
 20
-333.544
 30
0.000000
  70
    32
  0
VERTEX
  8
┌▓È_1
  5
A64
 10
588.051
 20
-333.536
 30
0.000000
  70
    32
  0
VERTEX
  8
┌▓È_1
  5
A65
 10
588.001
 20
-333.528
 30
0.000000
  70
    32
  0
VERTEX
  8
┌▓È_1
  5
A66
 10
587.951
 20
-333.520
 30
0.000000
  70
    32
  0
VERTEX
  8
┌▓È_1
  5
A67
 10
587.900
 20
-333.512
 30
0.000000
  70
    32
  0
VERTEX
  8
┌▓È_1
  5
A68
 10
587.850
 20
-333.504
 30
0.000000
  70
    32
  0
VERTEX
  8
┌▓È_1
  5
A69
 10
587.800
 20
-333.496
 30
0.000000
  70
    32
  0
VERTEX
  8
┌▓È_1
  5
A6A
 10
587.749
 20
-333.488
 30
0.000000
  70
    32
  0
VERTEX
  8
┌▓È_1
  5
A6B
 10
587.699
 20
-333.481
 30
0.000000
  70
    32
  0
VERTEX
  8
┌▓È_1
  5
A6C
 10
587.649
 20
-333.473
 30
0.000000
  70
    32
  0
VERTEX
  8
┌▓È_1
  5
A6D
 10
587.598
 20
-333.466
 30
0.000000
  70
    32
  0
VERTEX
  8
┌▓È_1
  5
A6E
 10
587.548
 20
-333.458
 30
0.000000
  70
    32
  0
VERTEX
  8
┌▓È_1
  5
A6F
 10
587.498
 20
-333.451
 30
0.000000
  70
    32
  0
VERTEX
  8
┌▓È_1
  5
A70
 10
587.447
 20
-333.443
 30
0.000000
  70
    32
  0
VERTEX
  8
┌▓È_1
  5
A71
 10
587.397
 20
-333.436
 30
0.000000
  70
    32
  0
VERTEX
  8
┌▓È_1
  5
A72
 10
587.347
 20
-333.429
 30
0.000000
  70
    32
  0
VERTEX
  8
┌▓È_1
  5
A73
 10
587.296
 20
-333.422
 30
0.000000
  70
    32
  0
VERTEX
  8
┌▓È_1
  5
A74
 10
587.246
 20
-333.415
 30
0.000000
  70
    32
  0
VERTEX
  8
┌▓È_1
  5
A75
 10
587.196
 20
-333.409
 30
0.000000
  70
    32
  0
VERTEX
  8
┌▓È_1
  5
A76
 10
587.146
 20
-333.402
 30
0.000000
  70
    32
  0
VERTEX
  8
┌▓È_1
  5
A77
 10
587.095
 20
-333.395
 30
0.000000
  70
    32
  0
VERTEX
  8
┌▓È_1
  5
A78
 10
587.045
 20
-333.389
 30
0.000000
  70
    32
  0
VERTEX
  8
┌▓È_1
  5
A79
 10
586.995
 20
-333.383
 30
0.000000
  70
    32
  0
VERTEX
  8
┌▓È_1
  5
A7A
 10
586.944
 20
-333.376
 30
0.000000
  70
    32
  0
VERTEX
  8
┌▓È_1
  5
A7B
 10
586.894
 20
-333.370
 30
0.000000
  70
    32
  0
VERTEX
  8
┌▓È_1
  5
A7C
 10
586.844
 20
-333.364
 30
0.000000
  70
    32
  0
VERTEX
  8
┌▓È_1
  5
A7D
 10
586.793
 20
-333.359
 30
0.000000
  70
    32
  0
VERTEX
  8
┌▓È_1
  5
A7E
 10
586.743
 20
-333.353
 30
0.000000
  70
    32
  0
VERTEX
  8
┌▓È_1
  5
A7F
 10
586.693
 20
-333.347
 30
0.000000
  70
    32
  0
VERTEX
  8
┌▓È_1
  5
A80
 10
586.642
 20
-333.342
 30
0.000000
  70
    32
  0
VERTEX
  8
┌▓È_1
  5
A81
 10
586.592
 20
-333.337
 30
0.000000
  70
    32
  0
VERTEX
  8
┌▓È_1
  5
A82
 10
586.542
 20
-333.331
 30
0.000000
  70
    32
  0
VERTEX
  8
┌▓È_1
  5
A83
 10
586.491
 20
-333.326
 30
0.000000
  70
    32
  0
VERTEX
  8
┌▓È_1
  5
A84
 10
586.441
 20
-333.322
 30
0.000000
  70
    32
  0
VERTEX
  8
┌▓È_1
  5
A85
 10
586.391
 20
-333.317
 30
0.000000
  70
    32
  0
VERTEX
  8
┌▓È_1
  5
A86
 10
586.341
 20
-333.312
 30
0.000000
  70
    32
  0
VERTEX
  8
┌▓È_1
  5
A87
 10
586.290
 20
-333.308
 30
0.000000
  70
    32
  0
VERTEX
  8
┌▓È_1
  5
A88
 10
586.240
 20
-333.304
 30
0.000000
  70
    32
  0
VERTEX
  8
┌▓È_1
  5
A89
 10
586.190
 20
-333.300
 30
0.000000
  70
    32
  0
VERTEX
  8
┌▓È_1
  5
A8A
 10
586.139
 20
-333.296
 30
0.000000
  70
    32
  0
VERTEX
  8
┌▓È_1
  5
A8B
 10
586.089
 20
-333.292
 30
0.000000
  70
    32
  0
VERTEX
  8
┌▓È_1
  5
A8C
 10
586.039
 20
-333.289
 30
0.000000
  70
    32
  0
VERTEX
  8
┌▓È_1
  5
A8D
 10
585.988
 20
-333.285
 30
0.000000
  70
    32
  0
VERTEX
  8
┌▓È_1
  5
A8E
 10
585.938
 20
-333.282
 30
0.000000
  70
    32
  0
VERTEX
  8
┌▓È_1
  5
A8F
 10
585.888
 20
-333.279
 30
0.000000
  70
    32
  0
VERTEX
  8
┌▓È_1
  5
A90
 10
585.837
 20
-333.276
 30
0.000000
  70
    32
  0
VERTEX
  8
┌▓È_1
  5
A91
 10
585.787
 20
-333.273
 30
0.000000
  70
    32
  0
VERTEX
  8
┌▓È_1
  5
A92
 10
585.737
 20
-333.271
 30
0.000000
  70
    32
  0
VERTEX
  8
┌▓È_1
  5
A93
 10
585.686
 20
-333.269
 30
0.000000
  70
    32
  0
VERTEX
  8
┌▓È_1
  5
A94
 10
585.636
 20
-333.267
 30
0.000000
  70
    32
  0
VERTEX
  8
┌▓È_1
  5
A95
 10
585.586
 20
-333.265
 30
0.000000
  70
    32
  0
VERTEX
  8
┌▓È_1
  5
A96
 10
585.535
 20
-333.263
 30
0.000000
  70
    32
  0
VERTEX
  8
┌▓È_1
  5
A97
 10
585.485
 20
-333.262
 30
0.000000
  70
    32
  0
VERTEX
  8
┌▓È_1
  5
A98
 10
585.435
 20
-333.260
 30
0.000000
  70
    32
  0
VERTEX
  8
┌▓È_1
  5
A99
 10
585.385
 20
-333.259
 30
0.000000
  70
    32
  0
VERTEX
  8
┌▓È_1
  5
A9A
 10
585.334
 20
-333.258
 30
0.000000
  70
    32
  0
VERTEX
  8
┌▓È_1
  5
A9B
 10
585.284
 20
-333.258
 30
0.000000
  70
    32
  0
VERTEX
  8
┌▓È_1
  5
A9C
 10
585.234
 20
-333.257
 30
0.000000
  70
    32
  0
VERTEX
  8
┌▓È_1
  5
A9D
 10
585.183
 20
-333.257
 30
0.000000
  70
    32
  0
VERTEX
  8
┌▓È_1
  5
A9E
 10
585.133
 20
-333.257
 30
0.000000
  70
    32
  0
VERTEX
  8
┌▓È_1
  5
A9F
 10
585.083
 20
-333.257
 30
0.000000
  70
    32
  0
VERTEX
  8
┌▓È_1
  5
AA0
 10
585.032
 20
-333.258
 30
0.000000
  70
    32
  0
VERTEX
  8
┌▓È_1
  5
AA1
 10
584.982
 20
-333.258
 30
0.000000
  70
    32
  0
VERTEX
  8
┌▓È_1
  5
AA2
 10
584.932
 20
-333.259
 30
0.000000
  70
    32
  0
VERTEX
  8
┌▓È_1
  5
AA3
 10
584.881
 20
-333.260
 30
0.000000
  70
    32
  0
VERTEX
  8
┌▓È_1
  5
AA4
 10
584.831
 20
-333.262
 30
0.000000
  70
    32
  0
VERTEX
  8
┌▓È_1
  5
AA5
 10
584.781
 20
-333.263
 30
0.000000
  70
    32
  0
VERTEX
  8
┌▓È_1
  5
AA6
 10
584.730
 20
-333.265
 30
0.000000
  70
    32
  0
VERTEX
  8
┌▓È_1
  5
AA7
 10
584.680
 20
-333.267
 30
0.000000
  70
    32
  0
VERTEX
  8
┌▓È_1
  5
AA8
 10
584.630
 20
-333.269
 30
0.000000
  70
    32
  0
VERTEX
  8
┌▓È_1
  5
AA9
 10
584.580
 20
-333.271
 30
0.000000
  70
    32
  0
VERTEX
  8
┌▓È_1
  5
AAA
 10
584.529
 20
-333.273
 30
0.000000
  70
    32
  0
VERTEX
  8
┌▓È_1
  5
AAB
 10
584.479
 20
-333.276
 30
0.000000
  70
    32
  0
VERTEX
  8
┌▓È_1
  5
AAC
 10
584.429
 20
-333.279
 30
0.000000
  70
    32
  0
VERTEX
  8
┌▓È_1
  5
AAD
 10
584.378
 20
-333.282
 30
0.000000
  70
    32
  0
VERTEX
  8
┌▓È_1
  5
AAE
 10
584.328
 20
-333.285
 30
0.000000
  70
    32
  0
VERTEX
  8
┌▓È_1
  5
AAF
 10
584.278
 20
-333.289
 30
0.000000
  70
    32
  0
VERTEX
  8
┌▓È_1
  5
AB0
 10
584.227
 20
-333.292
 30
0.000000
  70
    32
  0
VERTEX
  8
┌▓È_1
  5
AB1
 10
584.177
 20
-333.296
 30
0.000000
  70
    32
  0
VERTEX
  8
┌▓È_1
  5
AB2
 10
584.127
 20
-333.300
 30
0.000000
  70
    32
  0
VERTEX
  8
┌▓È_1
  5
AB3
 10
584.076
 20
-333.304
 30
0.000000
  70
    32
  0
VERTEX
  8
┌▓È_1
  5
AB4
 10
584.026
 20
-333.308
 30
0.000000
  70
    32
  0
VERTEX
  8
┌▓È_1
  5
AB5
 10
583.976
 20
-333.312
 30
0.000000
  70
    32
  0
VERTEX
  8
┌▓È_1
  5
AB6
 10
583.925
 20
-333.317
 30
0.000000
  70
    32
  0
VERTEX
  8
┌▓È_1
  5
AB7
 10
583.875
 20
-333.322
 30
0.000000
  70
    32
  0
VERTEX
  8
┌▓È_1
  5
AB8
 10
583.825
 20
-333.326
 30
0.000000
  70
    32
  0
VERTEX
  8
┌▓È_1
  5
AB9
 10
583.774
 20
-333.331
 30
0.000000
  70
    32
  0
VERTEX
  8
┌▓È_1
  5
ABA
 10
583.724
 20
-333.337
 30
0.000000
  70
    32
  0
VERTEX
  8
┌▓È_1
  5
ABB
 10
583.674
 20
-333.342
 30
0.000000
  70
    32
  0
VERTEX
  8
┌▓È_1
  5
ABC
 10
583.624
 20
-333.347
 30
0.000000
  70
    32
  0
VERTEX
  8
┌▓È_1
  5
ABD
 10
583.573
 20
-333.353
 30
0.000000
  70
    32
  0
VERTEX
  8
┌▓È_1
  5
ABE
 10
583.523
 20
-333.359
 30
0.000000
  70
    32
  0
VERTEX
  8
┌▓È_1
  5
ABF
 10
583.473
 20
-333.364
 30
0.000000
  70
    32
  0
VERTEX
  8
┌▓È_1
  5
AC0
 10
583.422
 20
-333.370
 30
0.000000
  70
    32
  0
VERTEX
  8
┌▓È_1
  5
AC1
 10
583.372
 20
-333.376
 30
0.000000
  70
    32
  0
VERTEX
  8
┌▓È_1
  5
AC2
 10
583.322
 20
-333.383
 30
0.000000
  70
    32
  0
VERTEX
  8
┌▓È_1
  5
AC3
 10
583.271
 20
-333.389
 30
0.000000
  70
    32
  0
VERTEX
  8
┌▓È_1
  5
AC4
 10
583.221
 20
-333.395
 30
0.000000
  70
    32
  0
VERTEX
  8
┌▓È_1
  5
AC5
 10
583.171
 20
-333.402
 30
0.000000
  70
    32
  0
VERTEX
  8
┌▓È_1
  5
AC6
 10
583.120
 20
-333.409
 30
0.000000
  70
    32
  0
VERTEX
  8
┌▓È_1
  5
AC7
 10
583.070
 20
-333.415
 30
0.000000
  70
    32
  0
VERTEX
  8
┌▓È_1
  5
AC8
 10
583.020
 20
-333.422
 30
0.000000
  70
    32
  0
VERTEX
  8
┌▓È_1
  5
AC9
 10
582.969
 20
-333.429
 30
0.000000
  70
    32
  0
VERTEX
  8
┌▓È_1
  5
ACA
 10
582.919
 20
-333.436
 30
0.000000
  70
    32
  0
VERTEX
  8
┌▓È_1
  5
ACB
 10
582.869
 20
-333.443
 30
0.000000
  70
    32
  0
VERTEX
  8
┌▓È_1
  5
ACC
 10
582.818
 20
-333.451
 30
0.000000
  70
    32
  0
VERTEX
  8
┌▓È_1
  5
ACD
 10
582.768
 20
-333.458
 30
0.000000
  70
    32
  0
VERTEX
  8
┌▓È_1
  5
ACE
 10
582.718
 20
-333.466
 30
0.000000
  70
    32
  0
VERTEX
  8
┌▓È_1
  5
ACF
 10
582.668
 20
-333.473
 30
0.000000
  70
    32
  0
VERTEX
  8
┌▓È_1
  5
AD0
 10
582.617
 20
-333.481
 30
0.000000
  70
    32
  0
VERTEX
  8
┌▓È_1
  5
AD1
 10
582.567
 20
-333.488
 30
0.000000
  70
    32
  0
VERTEX
  8
┌▓È_1
  5
AD2
 10
582.517
 20
-333.496
 30
0.000000
  70
    32
  0
VERTEX
  8
┌▓È_1
  5
AD3
 10
582.466
 20
-333.504
 30
0.000000
  70
    32
  0
VERTEX
  8
┌▓È_1
  5
AD4
 10
582.416
 20
-333.512
 30
0.000000
  70
    32
  0
VERTEX
  8
┌▓È_1
  5
AD5
 10
582.366
 20
-333.520
 30
0.000000
  70
    32
  0
VERTEX
  8
┌▓È_1
  5
AD6
 10
582.315
 20
-333.528
 30
0.000000
  70
    32
  0
VERTEX
  8
┌▓È_1
  5
AD7
 10
582.265
 20
-333.536
 30
0.000000
  70
    32
  0
VERTEX
  8
┌▓È_1
  5
AD8
 10
582.215
 20
-333.544
 30
0.000000
  70
    32
  0
VERTEX
  8
┌▓È_1
  5
AD9
 10
582.164
 20
-333.553
 30
0.000000
  70
    32
  0
VERTEX
  8
┌▓È_1
  5
ADA
 10
582.114
 20
-333.561
 30
0.000000
  70
    32
  0
VERTEX
  8
┌▓È_1
  5
ADB
 10
582.064
 20
-333.569
 30
0.000000
  70
    32
  0
VERTEX
  8
┌▓È_1
  5
ADC
 10
582.013
 20
-333.578
 30
0.000000
  70
    32
  0
VERTEX
  8
┌▓È_1
  5
ADD
 10
581.963
 20
-333.586
 30
0.000000
  70
    32
  0
VERTEX
  8
┌▓È_1
  5
ADE
 10
581.913
 20
-333.595
 30
0.000000
  70
    32
  0
VERTEX
  8
┌▓È_1
  5
ADF
 10
581.863
 20
-333.603
 30
0.000000
  70
    32
  0
VERTEX
  8
┌▓È_1
  5
AE0
 10
581.812
 20
-333.612
 30
0.000000
  70
    32
  0
VERTEX
  8
┌▓È_1
  5
AE1
 10
581.762
 20
-333.621
 30
0.000000
  70
    32
  0
VERTEX
  8
┌▓È_1
  5
AE2
 10
581.712
 20
-333.629
 30
0.000000
  70
    32
  0
VERTEX
  8
┌▓È_1
  5
AE3
 10
581.661
 20
-333.638
 30
0.000000
  70
    32
  0
VERTEX
  8
┌▓È_1
  5
AE4
 10
581.611
 20
-333.647
 30
0.000000
  70
    32
  0
VERTEX
  8
┌▓È_1
  5
AE5
 10
581.561
 20
-333.655
 30
0.000000
  70
    32
  0
VERTEX
  8
┌▓È_1
  5
AE6
 10
581.510
 20
-333.664
 30
0.000000
  70
    32
  0
VERTEX
  8
┌▓È_1
  5
AE7
 10
581.460
 20
-333.673
 30
0.000000
  70
    32
  0
VERTEX
  8
┌▓È_1
  5
AE8
 10
581.410
 20
-333.682
 30
0.000000
  70
    32
  0
VERTEX
  8
┌▓È_1
  5
AE9
 10
581.359
 20
-333.691
 30
0.000000
  70
    32
  0
VERTEX
  8
┌▓È_1
  5
AEA
 10
581.309
 20
-333.699
 30
0.000000
  70
    32
  0
VERTEX
  8
┌▓È_1
  5
AEB
 10
581.259
 20
-333.708
 30
0.000000
  70
    32
  0
VERTEX
  8
┌▓È_1
  5
AEC
 10
581.208
 20
-333.717
 30
0.000000
  70
    32
  0
VERTEX
  8
┌▓È_1
  5
AED
 10
581.158
 20
-333.726
 30
0.000000
  70
    32
  0
SEQEND
  8
┌▓È_1
  5
AEE
  0
LINE
  5
25B
  8
┌▓È_1
 62
     5
 10
564.65812130999996
 20
-331.75699427799998
 30
0.0
 11
564.65812130999996
 21
-329.75699427799998
 31
0.0
  0
LINE
  5
25C
  8
┌▓È_1
 62
     5
 10
577.65812130999996
 20
-333.25699427799998
 30
0.0
 11
592.65812130999996
 21
-333.25699427799998
 31
0.0
  0
ARC
  5
25D
  8
┌▓È_1
 62
     5
 10
590.90812130999996
 20
-336.75699427799998
 30
0.0
 40
3.5
 50
60.0
 51
120.0
  0
LINE
  5
25E
  8
┌▓È_1
 62
     5
 10
587.85812131
 20
-342.75699427799998
 30
0.0
 11
587.85812131
 21
-340.25699427799998
 31
0.0
  0
LINE
  5
25F
  8
┌▓È_1
 62
     5
 10
581.15812130999996
 20
-341.45699427800002
 30
0.0
 11
589.15812130999996
 21
-341.45699427800002
 31
0.0
  0
LINE
  5
260
  8
┌▓È_1
 62
     5
 10
589.15812130999996
 20
-339.78808319130002
 30
0.0
 11
589.15812130999996
 21
-333.72590536479998
 31
0.0
  0
ARC
  5
261
  8
┌▓È_1
 62
     5
 10
590.90812130999996
 20
-336.75699427799998
 30
0.0
 40
3.5
 50
240.0
 51
300.0
  0
LINE
  5
262
  8
┌▓È_1
 62
     5
 10
590.90812205359987
 20
-340.25699427799998
 30
0.0
 11
579.40812018550002
 21
-340.25699427799998
 31
0.0
  0
LINE
  5
263
  8
┌▓È_1
 62
     5
 10
592.65812130999996
 20
-333.25699427799998
 30
0.0
 11
592.65812130999996
 21
-331.75699427799998
 31
0.0
  0
LINE
  5
264
  8
┌▓È_1
 62
     5
 10
782.65812130999996
 20
-397.55699427799999
 30
0.0
 11
782.65812130999996
 21
-398.5569942780001
 31
0.0
  0
LINE
  5
265
  8
┌▓È_1
 62
     5
 10
782.65812130999996
 20
-398.5569942780001
 30
0.0
 11
778.21212131000004
 21
-398.5569942780001
 31
0.0
  0
LINE
  5
266
  8
┌▓È_1
 62
     5
 10
776.15812130999996
 20
-397.55699427799999
 30
0.0
 11
776.15812130999996
 21
-316.60065522090002
 31
0.0
  0
LINE
  5
267
  8
┌▓È_1
 62
     5
 10
777.15812130999996
 20
-316.55699427799999
 30
0.0
 11
777.15812130999996
 21
-397.55699427799999
 31
0.0
  0
LINE
  5
268
  8
┌▓È_1
 62
     5
 10
936.25173157649999
 20
-383.45297076230003
 30
0.0
 11
946.15173157649997
 21
-383.45297076230003
 31
0.0
  0
INSERT
  5
269
  8
0
  6
CONTINUOUS
  2
*U75
 10
0.0
 20
0.0
 30
0.0
  0
INSERT
  5
26A
  8
0
  6
CONTINUOUS
  2
*U76
 10
0.0
 20
0.0
 30
0.0
  0
INSERT
  5
26B
  8
0
  6
CONTINUOUS
  2
*U77
 10
0.0
 20
0.0
 30
0.0
  0
INSERT
  5
26C
  8
0
  6
CONTINUOUS
  2
*U78
 10
0.0
 20
0.0
 30
0.0
  0
LINE
  5
26D
  8
┌▓È_1
 62
     5
 10
941.20173157649981
 20
-374.87931926480002
 30
0.0
 11
936.25173157649999
 21
-383.45297076230003
 31
0.0
  0
LINE
  5
26E
  8
┌▓È_1
 62
     5
 10
941.20173157649981
 20
-374.87931926480002
 30
0.0
 11
946.15173157649997
 21
-383.45297076230003
 31
0.0
  0
INSERT
  5
26F
  8
0
  6
CONTINUOUS
  2
*U79
 10
0.0
 20
0.0
 30
0.0
  0
INSERT
  5
270
  8
0
  6
CONTINUOUS
  2
*U80
 10
0.0
 20
0.0
 30
0.0
  0
INSERT
  5
271
  8
0
  6
CONTINUOUS
  2
*U81
 10
0.0
 20
0.0
 30
0.0
  0
INSERT
  5
272
  8
0
  6
CONTINUOUS
  2
*U82
 10
0.0
 20
0.0
 30
0.0
  0
INSERT
  5
273
  8
0
  6
CONTINUOUS
  2
*U83
 10
0.0
 20
0.0
 30
0.0
  0
DIMENSION
  5
282
  8
Éíû@É³
  2
*D22
 10
585.15812130999996
 20
-278.55699427799999
 30
0.0
 11
573.15812130999996
 21
-278.55699427799999
 31
0.0
 70
   128
  1
<>
 13
585.15812130999996
 23
-298.55699427799999
 33
0.0
 14
561.15812130999996
 24
-305.05699427799999
 34
0.0
  0
ARC
  5
283
  8
┌▓È_1
 62
     5
 10
563.15812130999996
 20
-196.04488528109999
 30
0.0
 40
3.0
 50
180.0
 51
270.0
  0
ARC
  5
284
  8
┌▓È_1
 62
     5
 10
563.15780096640003
 20
-196.04520562459999
 30
0.0
 40
2.0
 50
180.0
 51
270.0
  0
ARC
  5
285
  8
┌▓È_1
 62
     5
 10
553.15812130999996
 20
-206.04488528109999
 30
0.0
 40
3.0
 50
180.0
 51
270.0
  0
LINE
  5
286
  8
┌▓È_1
 10
536.66872038309987
 20
-356.15878446310001
 30
0.0
 11
481.0070016331
 21
-356.15878446310001
 31
0.0
  0
INSERT
  5
287
  8
0
  6
CONTINUOUS
  2
*U84
 10
0.0
 20
0.0
 30
0.0
  0
LINE
  5
288
  8
┌▓È_1
 10
555.25
 20
-311.25
 30
0.0
 11
536.66872038309987
 21
-356.15878446310001
 31
0.0
  0
SOLID
  5
289
  8
┌▓È_1
 10
555.25
 20
-311.25
 30
0.0
 11
554.4416216674
 21
-317.40883172209999
 31
0.0
 12
553.57072289699988
 22
-315.30861679219998
 32
0.0
 13
553.57072289699988
 23
-315.30861679219998
 33
0.0
  0
SOLID
  5
28A
  8
┌▓È_1
 10
555.25
 20
-311.25
 30
0.0
 11
551.47050796710005
 21
-316.17951556269998
 31
0.0
 12
553.57072289699988
 22
-315.30861679219998
 32
0.0
 13
553.57072289699988
 23
-315.30861679219998
 33
0.0
  0
LINE
  5
28B
  8
┌▓È_1
  6
STITCH
 10
566.15812130999996
 20
-310.55699427799999
 30
0.0
 11
558.15812130999996
 21
-310.55699427799999
 31
0.0
  0
LINE
  5
28C
  8
┌▓È_1
  6
STITCH
 10
559.8177084189
 20
-352.33298982980011
 30
0.0
 11
564.06034910599999
 21
-356.57563051690011
 31
0.0
  0
LINE
  5
28D
  8
┌▓È_1
 62
     5
 10
990.87940296660008
 20
-301.22909298079998
 30
0.0
 11
1001.8794029666
 21
-301.22909298079998
 31
0.0
  0
ARC
  5
28E
  8
┌▓È_1
 62
     5
 10
990.87940296660008
 20
-299.22909298079998
 30
0.0
 40
2.0
 50
180.0
 51
270.0
  0
ARC
  5
28F
  8
┌▓È_1
 62
     5
 10
772.15812130999996
 20
-196.04488528109999
 30
0.0
 40
3.0
 50
270.0
 51
0.0
  0
ARC
  5
290
  8
┌▓È_1
 62
     5
 10
772.15844165350006
 20
-196.04520562459999
 30
0.0
 40
2.0
 50
270.0
 51
0.0
  0
ARC
  5
291
  8
┌▓È_1
 62
     5
 10
782.15812130999996
 20
-206.04488528109999
 30
0.0
 40
3.0
 50
270.0
 51
0.0
  0
LINE
  5
292
  8
┌▓È_1
  6
BORDER
 62
     3
 10
761.15812130999996
 20
-304.55699427799999
 30
0.0
 11
761.15812130999996
 21
-318.55699427799999
 31
0.0
  0
CIRCLE
  5
293
  8
┌▓È_1
 62
     5
 10
761.15812130999996
 20
-311.55699427799999
 30
0.0
 40
3.5
  0
LINE
  5
294
  8
┌▓È_1
 62
     5
 10
774.60792661189987
 20
-304.6441500208
 30
0.0
 11
775.16880598659998
 21
-316.77005676089999
 31
0.0
  0
LINE
  5
295
  8
┌▓È_1
 62
     5
 10
776.60603360289986
 20
-304.55699427799999
 30
0.0
 11
777.16666992240005
 21
-316.67764629639998
 31
0.0
  0
LINE
  5
296
  8
┌▓È_1
 62
     5
 10
775.60496442889985
 20
-304.55699427799999
 30
0.0
 11
776.16773795450001
 21
-316.72385152869998
 31
0.0
  0
LINE
  5
297
  8
┌▓È_1
 62
     5
 10
776.16500068469986
 20
-316.68290101820003
 30
0.0
 11
775.16880598659998
 21
-316.77005676089999
 31
0.0
  0
LINE
  5
298
  8
┌▓È_1
  6
BORDER
 62
     3
 10
768.15812130999996
 20
-311.55699427799999
 30
0.0
 11
754.15812130999996
 21
-311.55699427799999
 31
0.0
  0
LINE
  5
299
  8
┌▓È_1
 62
     5
 10
774.15812130999996
 20
-305.05699427799999
 30
0.0
 11
774.15812130999996
 21
-308.05699427799999
 31
0.0
  0
LINE
  5
29A
  8
┌▓È_1
 62
     5
 10
784.15812130999996
 20
-309.55699427799999
 30
0.0
 11
777.04570066529993
 21
-309.55699427799999
 31
0.0
  0
LINE
  5
29B
  8
┌▓È_1
 62
     5
 10
748.15812130999996
 20
-311.05699427799999
 30
0.0
 11
748.15812130999996
 21
-308.05699427799999
 31
0.0
  0
LINE
  5
29C
  8
┌▓È_1
 62
     5
 10
784.15812130999996
 20
-304.55699427799999
 30
0.0
 11
784.15812130999996
 21
-309.55699427799999
 31
0.0
  0
LINE
  5
29D
  8
┌▓È_1
 62
     5
 10
784.15812130999996
 20
-303.55699427799999
 30
0.0
 11
775.60412130999987
 21
-303.55699427799999
 31
0.0
  0
LINE
  5
29E
  8
┌▓È_1
 62
     5
 10
776.60603360289986
 20
-304.55699427799999
 30
0.0
 11
775.60899918399991
 21
-304.6442234868
 31
0.0
  0
LINE
  5
29F
  8
┌▓È_1
 62
     5
 10
775.60496442889985
 20
-304.55699427799999
 30
0.0
 11
784.15812130999996
 21
-304.55699427799999
 31
0.0
  0
ARC
  5
2A0
  8
┌▓È_1
 62
     5
 10
775.60412130999987
 20
-304.55699427799999
 30
0.0
 40
1.0
 50
90.0
 51
185.0
  0
LINE
  5
2A1
  8
┌▓È_1
 62
     5
 10
785.15812130999996
 20
-309.55699427799999
 30
0.0
 11
785.15812130999996
 21
-304.55699427799999
 31
0.0
  0
LINE
  5
2A2
  8
┌▓È_1
 62
     5
 10
784.15812130999996
 20
-309.55699427799999
 30
0.0
 11
785.15812130999996
 21
-309.55699427799999
 31
0.0
  0
ARC
  5
2A3
  8
┌▓È_1
 62
     5
 10
784.15812130999996
 20
-304.55699427799999
 30
0.0
 40
1.0
 50
0.0
 51
90.0
  0
ARC
  5
2A4
  8
┌▓È_1
 62
     5
 10
777.15812130999996
 20
-397.55699427799999
 30
0.0
 40
1.0
 50
180.0
 51
270.0
  0
LINE
  5
2A5
  8
┌▓È_1
 62
     5
 10
777.15812130999996
 20
-397.55699427799999
 30
0.0
 11
782.65812130999996
 21
-397.55699427799999
 31
0.0
  0
INSERT
  5
2A7
  8
┌▓È_1
  6
STITCH
  2
CLUMP9
 10
0.0
 20
0.0
 30
0.0
  0
LINE
  5
2E2
  8
┌▓È_1
  6
BORDER
 62
     3
 10
585.15812130999996
 20
-129.04488528109999
 30
0.0
 11
585.15812130999996
 21
-99.044885281099994
 31
0.0
  0
CIRCLE
  5
2E3
  8
┌▓È_1
 62
     5
 10
585.15812130999996
 20
-114.04488528109999
 30
0.0
 40
6.5
  0
LINE
  5
2E4
  8
┌▓È_1
 10
584.16269136009987
 20
-174.3522247107
 30
0.0
 11
634.16269136009987
 21
-174.3522247107
 31
0.0
  0
LINE
  5
2E5
  8
┌▓È_1
 10
585.66269136009987
 20
-175.8522247107
 30
0.0
 11
635.66269136009987
 21
-175.8522247107
 31
0.0
  0
LINE
  5
2E6
  8
┌▓È_1
 10
588.66269136009987
 20
-178.8522247107
 30
0.0
 11
638.66269136009987
 21
-178.8522247107
 31
0.0
  0
LINE
  5
2E7
  8
┌▓È_1
 10
587.16269136009998
 20
-177.3522247107
 30
0.0
 11
637.16269136009998
 21
-177.3522247107
 31
0.0
  0
INSERT
  5
2E8
  8
0
  6
CONTINUOUS
  2
*U85
 10
0.0
 20
0.0
 30
0.0
  0
LINE
  5
2E9
  8
┌▓È_1
 10
612.21767865790002
 20
-158.6562413268
 30
0.0
 11
666.63365088010005
 21
-158.6562413268
 31
0.0
  0
INSERT
  5
2EA
  8
0
  6
CONTINUOUS
  2
*U86
 10
0.0
 20
0.0
 30
0.0
  0
DIMENSION
  5
2F9
  8
Éíû@É³
  2
*D24
 10
802.15812130999996
 20
-209.04488528109999
 30
0.0
 11
802.15812130999996
 21
-204.04488528109999
 31
0.0
 70
   128
  1
<>
 13
782.15812130999996
 23
-209.04488528109999
 33
0.0
 14
772.15812130999996
 24
-199.04488528109999
 34
0.0
 50
90.0
  0
DIMENSION
  5
308
  8
Éíû@É³
  2
*D25
 10
774.15812130999996
 20
-283.55699427799999
 30
0.0
 11
767.65812130999996
 21
-283.55699427799999
 31
0.0
 70
   128
  1
<>
 13
774.15812130999996
 23
-305.05699427799999
 33
0.0
 14
761.15812130999996
 24
-303.55699427799999
 34
0.0
  0
ARC
  5
309
  8
┌▓È_1
 62
     5
 10
949.58380848470006
 20
-208.04488528109999
 30
0.0
 40
1.0
 50
180.0
 51
270.0
  0
LINE
  5
30A
  8
┌▓È_1
 62
     5
 10
949.58380848470006
 20
-209.04488528109999
 30
0.0
 11
954.58380848469994
 21
-209.04488528109999
 31
0.0
  0
INSERT
  5
30C
  8
Éíû@É³
  2
BALLON5
 10
0.0
 20
0.0
 30
0.0
  0
ARC
  5
315
  8
┌▓È_1
 62
     5
 10
1001.8794029666
 20
-273.22909298079998
 30
0.0
 40
2.0
 50
0.0
 51
90.0
  0
ARC
  5
316
  8
┌▓È_1
 62
     5
 10
990.87940296660008
 20
-273.22909298079998
 30
0.0
 40
2.0
 50
90.0
 51
180.0
  0
LINE
  5
317
  8
┌▓È_1
 62
     5
 10
988.87940296659997
 20
-273.22909298079998
 30
0.0
 11
988.87940296659997
 21
-299.22909298079998
 31
0.0
  0
LINE
  5
318
  8
┌▓È_1
 62
     5
 10
1003.8794029666
 20
-299.22909298079998
 30
0.0
 11
1003.8794029666
 21
-291.72909298079998
 31
0.0
  0
ARC
  5
319
  8
┌▓È_1
 62
     5
 10
1013.0578677056
 20
-286.22909298080009
 30
0.0
 40
9.1784647389999972
 50
143.1853187495
 51
216.8146812505
  0
LINE
  5
31A
  8
┌▓È_1
 62
     5
 10
1005.7097921096
 20
-291.72909298079998
 30
0.0
 11
1005.7097921096
 21
-280.72909298079998
 31
0.0
  0
LINE
  5
31B
  8
┌▓È_1
 62
     5
 10
1001.8794029666
 20
-271.22909298079998
 30
0.0
 11
990.87940296660008
 21
-271.22909298079998
 31
0.0
  0
CIRCLE
  5
31C
  8
┌▓È_1
 62
     5
 10
993.30231214999992
 20
-286.22909298080009
 30
0.0
 40
1.5
  0
LINE
  5
31D
  8
┌▓È_1
 62
     5
 10
1003.8794029666
 20
-280.72909298079998
 30
0.0
 11
1003.8794029666
 21
-273.22909298079998
 31
0.0
  0
ARC
  5
31E
  8
┌▓È_1
 62
     5
 10
1001.8794029666
 20
-299.22909298079998
 30
0.0
 40
2.0
 50
270.0
 51
0.0
  0
ARC
  5
31F
  8
┌▓È_1
 62
     5
 10
772.15812130999996
 20
-32.044885281100001
 30
0.0
 40
3.0
 50
0.0
 51
90.0
  0
ARC
  5
320
  8
┌▓È_1
 62
     5
 10
772.15844165350006
 20
-32.044564937499999
 30
0.0
 40
2.0
 50
0.0
 51
90.0
  0
ARC
  5
321
  8
┌▓È_1
 62
     5
 10
782.15812130999996
 20
-22.044885281100001
 30
0.0
 40
3.0
 50
0.0
 51
90.0
  0
ARC
  5
322
  8
┌▓È_1
  6
STITCH
 10
764.65812130999996
 20
-159.04488528109999
 30
0.0
 40
2.0
 50
270.0
 51
90.0
  0
ARC
  5
323
  8
┌▓È_1
  6
STITCH
 10
757.65812130999996
 20
-159.04488528109999
 30
0.0
 40
2.0
 50
90.0
 51
270.0
  0
INSERT
  5
325
  8
Éíû@É³
  2
BALLON6
 10
0.0
 20
0.0
 30
0.0
  0
DIMENSION
  5
33C
  8
Éíû@É³
  2
*D28
 10
560.15812130999996
 20
3.5930292625999991
 30
0.0
 11
555.15812130999996
 21
3.5930292625999991
 31
0.0
 70
   128
  1
<>
 13
560.15812130999996
 23
-32.044885281100001
 33
0.0
 14
550.15812130999996
 24
-22.044885281100001
 34
0.0
  0
DIMENSION
  5
34B
  8
Éíû@É³
  2
*D29
 10
585.15812130999996
 20
-73.249877624799993
 30
0.0
 11
573.15796113819999
 21
-73.249877624799993
 31
0.0
 70
   128
  1
<>
 13
585.15812130999996
 23
-99.044885281099994
 33
0.0
 14
561.15780096639992
 24
-114.04488528109999
 34
0.0
  0
DIMENSION
  5
355
  8
Éíû@É³
  2
*D30
 10
590.12287817039987
 20
-109.84950814459999
 30
0.0
 11
618.47012073619999
 21
-82.180928616300008
 31
0.0
 70
   131
  1
<>
 15
580.19336444960004
 25
-118.24026241750001
 35
0.0
 40
0.0
  0
ARC
  5
356
  8
┌▓È_1
 62
     5
 10
553.15812130999996
 20
-22.044885281100001
 30
0.0
 40
3.0
 50
90.0
 51
180.0
  0
ARC
  5
357
  8
┌▓È_1
 62
     5
 10
563.15812130999996
 20
-32.044885281100001
 30
0.0
 40
3.0
 50
90.0
 51
180.0
  0
ARC
  5
358
  8
┌▓È_1
 62
     5
 10
563.15780096640003
 20
-32.044564937499999
 30
0.0
 40
2.0
 50
90.0
 51
180.0
  0
LINE
  5
359
  8
┌▓È_1
 10
578.16269136009998
 20
-168.3522247107
 30
0.0
 11
628.16269136009998
 21
-168.3522247107
 31
0.0
  0
LINE
  5
35A
  8
┌▓È_1
 10
582.66269136009998
 20
-172.8522247107
 30
0.0
 11
632.66269136009998
 21
-172.8522247107
 31
0.0
  0
LINE
  5
35B
  8
┌▓È_1
 10
581.16269136009987
 20
-171.3522247107
 30
0.0
 11
631.16269136009987
 21
-171.3522247107
 31
0.0
  0
LINE
  5
35C
  8
┌▓È_1
 10
579.66269136009998
 20
-169.8522247107
 30
0.0
 11
629.66269136009998
 21
-169.8522247107
 31
0.0
  0
LINE
  5
35D
  8
┌▓È_1
 10
597.25
 20
-141.25
 30
0.0
 11
612.21767865790002
 21
-158.6562413268
 31
0.0
  0
SOLID
  5
35E
  8
┌▓È_1
 10
597.25
 20
-141.25
 30
0.0
 11
602.38097100059986
 21
-144.75111700759999
 31
0.0
 12
600.11376948329996
 22
-144.58034025309999
 32
0.0
 13
600.11376948329996
 23
-144.58034025309999
 33
0.0
  0
SOLID
  5
35F
  8
┌▓È_1
 10
597.25
 20
-141.25
 30
0.0
 11
599.94299272879994
 21
-146.84754177049999
 31
0.0
 12
600.11376948329996
 22
-144.58034025309999
 32
0.0
 13
600.11376948329996
 23
-144.58034025309999
 33
0.0
  0
LINE
  5
360
  8
┌▓È_1
  6
STITCH
 10
576.85138263589999
 20
-135.92358414730001
 30
0.0
 11
581.09402332310003
 21
-140.1662248344
 31
0.0
  0
LINE
  5
361
  8
┌▓È_1
  6
STITCH
 10
581.09402332310003
 20
-135.92358414730001
 30
0.0
 11
576.85138263589999
 21
-140.1662248344
 31
0.0
  0
LINE
  5
362
  8
┌▓È_1
  6
STITCH
 10
594.22141632349985
 20
-135.92358414730001
 30
0.0
 11
598.46405701059984
 21
-140.1662248344
 31
0.0
  0
LINE
  5
363
  8
┌▓È_1
  6
STITCH
 10
598.46405701059984
 20
-135.92358414730001
 30
0.0
 11
594.22141632349985
 21
-140.1662248344
 31
0.0
  0
LINE
  5
364
  8
┌▓È_1
  6
STITCH
 10
598.46330846879994
 20
-92.166610923999997
 30
0.0
 11
594.22052262819989
 21
-87.924115395300007
 31
0.0
  0
LINE
  5
365
  8
┌▓È_1
  6
STITCH
 10
594.22066778420003
 20
-92.166756079999999
 30
0.0
 11
598.46316331280002
 21
-87.923970239300004
 31
0.0
  0
LINE
  5
366
  8
┌▓È_1
  6
STITCH
 10
581.09327479139995
 20
-92.167205215400003
 30
0.0
 11
576.85048895080001
 21
-87.924709686699998
 31
0.0
  0
LINE
  5
367
  8
┌▓È_1
  6
STITCH
 10
576.85063410680004
 20
-92.167350371399991
 30
0.0
 11
581.09312963540003
 21
-87.924564530699996
 31
0.0
  0
INSERT
  5
368
  8
0
  6
CONTINUOUS
  2
*U89
 10
0.0
 20
0.0
 30
0.0
  0
INSERT
  5
369
  8
0
  6
CONTINUOUS
  2
*U90
 10
0.0
 20
0.0
 30
0.0
  0
LINE
  5
36A
  8
┌▓È_1
 10
1121.25
 20
-378.64714301880002
 30
0.0
 11
1132.7458500226001
 21
-378.64714301880002
 31
0.0
  0
INSERT
  5
36B
  8
0
  6
CONTINUOUS
  2
*U91
 10
0.0
 20
0.0
 30
0.0
  0
INSERT
  5
36C
  8
0
  6
CONTINUOUS
  2
*U92
 10
0.0
 20
0.0
 30
0.0
  0
INSERT
  5
36D
  8
0
  6
CONTINUOUS
  2
*U93
 10
0.0
 20
0.0
 30
0.0
  0
INSERT
  5
36E
  8
0
  6
CONTINUOUS
  2
*U94
 10
0.0
 20
0.0
 30
0.0
  0
INSERT
  5
36F
  8
0
  6
CONTINUOUS
  2
*U95
 10
0.0
 20
0.0
 30
0.0
  0
INSERT
  5
370
  8
0
  6
CONTINUOUS
  2
*U96
 10
0.0
 20
0.0
 30
0.0
  0
INSERT
  5
371
  8
0
  6
CONTINUOUS
  2
*U97
 10
0.0
 20
0.0
 30
0.0
  0
INSERT
  5
372
  8
0
  6
CONTINUOUS
  2
*U98
 10
0.0
 20
0.0
 30
0.0
  0
INSERT
  5
373
  8
0
  6
CONTINUOUS
  2
*U99
 10
0.0
 20
0.0
 30
0.0
  0
INSERT
  5
374
  8
0
  6
CONTINUOUS
  2
*U100
 10
0.0
 20
0.0
 30
0.0
  0
INSERT
  5
375
  8
0
  6
CONTINUOUS
  2
*U101
 10
0.0
 20
0.0
 30
0.0
  0
INSERT
  5
376
  8
0
  6
CONTINUOUS
  2
*U102
 10
0.0
 20
0.0
 30
0.0
  0
DIMENSION
  5
385
  8
Éíû@É³
  2
*D31
 10
954.58380848469994
 20
0.9551147188999999
 30
0.0
 11
951.58380848469994
 21
0.9551147188999999
 31
0.0
 70
   128
  1
<>
 13
954.58380848469994
 23
-19.044885281100001
 33
0.0
 14
948.58380848470006
 24
-20.044885281100001
 34
0.0
  0
DIMENSION
  5
394
  8
Éíû@É³
  2
*D32
 10
802.15812130999996
 20
-29.044885281100001
 30
0.0
 11
802.15812130999996
 21
-24.044885281100001
 31
0.0
 70
   128
  1
<>
 13
772.15812130999996
 23
-29.044885281100001
 33
0.0
 14
782.15812130999996
 24
-19.044885281100001
 34
0.0
 50
90.0
  0
DIMENSION
  5
3A3
  8
Éíû@É³
  2
*D33
 10
785.15812130999996
 20
3.5930292625999991
 30
0.0
 11
780.15812130999996
 21
3.5930292625999991
 31
0.0
 70
   128
  1
<>
 13
785.15812130999996
 23
-22.044885281100001
 33
0.0
 14
775.15812130999996
 24
-32.044885281100001
 34
0.0
  0
ARC
  5
3A4
  8
┌▓È_1
 62
     5
 10
949.58380848470006
 20
-20.044885281100001
 30
0.0
 40
1.0
 50
90.0
 51
180.0
  0
LINE
  5
3A5
  8
┌▓È_1
 62
     5
 10
949.58380848470006
 20
-19.044885281100001
 30
0.0
 11
954.58380848469994
 21
-19.044885281100001
 31
0.0
  0
LINE
  5
3A6
  8
┌▓È_1
 10
989.12499999999989
 20
-124.75
 30
0.0
 11
995.5977136718999
 21
-152.4272795782
 31
0.0
  0
SOLID
  5
3A7
  8
┌▓È_1
 10
989.12499999999989
 20
-124.75
 30
0.0
 11
992.05677249419989
 21
-130.2262572759
 31
0.0
 12
990.12521321229997
 22
-129.0269048838
 32
0.0
 13
990.12521321229997
 23
-129.0269048838
 33
0.0
  0
SOLID
  5
3A8
  8
┌▓È_1
 10
989.12499999999989
 20
-124.75
 30
0.0
 11
988.9258608202
 21
-130.95846416570001
 31
0.0
 12
990.12521321229997
 22
-129.0269048838
 32
0.0
 13
990.12521321229997
 23
-129.0269048838
 33
0.0
  0
INSERT
  5
3AA
  8
┌▓È_1
  6
STITCH
  2
CLUMP10
 10
0.0
 20
0.0
 30
0.0
  0
LINE
  5
411
  8
┌▓È_1
 10
754.82538435189986
 20
-68.0473433521
 30
0.0
 11
741.63884415029986
 21
-54.860803150499997
 31
0.0
  0
SOLID
  5
412
  8
┌▓È_1
 10
754.82538435189986
 20
-68.0473433521
 30
0.0
 11
749.44593151890001
 21
-64.941514810900003
 31
0.0
 12
751.71955581069994
 22
-64.941514810900003
 32
0.0
 13
751.71955581069994
 23
-64.941514810900003
 33
0.0
  0
SOLID
  5
413
  8
┌▓È_1
 10
754.82538435189986
 20
-68.0473433521
 30
0.0
 11
751.71955581069994
 21
-62.667890519099998
 31
0.0
 12
751.71955581069994
 22
-64.941514810900003
 32
0.0
 13
751.71955581069994
 23
-64.941514810900003
 33
0.0
  0
ARC
  5
414
  8
┌▓È_1
  6
STITCH
 10
757.65812130999996
 20
-69.044885281099994
 30
0.0
 40
2.0
 50
90.0
 51
270.0
  0
ARC
  5
415
  8
┌▓È_1
  6
STITCH
 10
764.65812130999996
 20
-69.044885281099994
 30
0.0
 40
2.0
 50
270.0
 51
90.0
  0
LINE
  5
416
  8
┌▓È_1
 62
     5
 10
1043.5838084847001
 20
-21.044885281100001
 30
0.0
 11
1042.5838084847001
 21
-21.044885281100001
 31
0.0
  0
LINE
  5
417
  8
┌▓È_1
 62
     5
 10
1043.5838084847001
 20
-28.044885281100001
 30
0.0
 11
1043.5838084847001
 21
-21.044885281100001
 31
0.0
  0
INSERT
  5
418
  8
0
  6
CONTINUOUS
  2
*U103
 10
0.0
 20
0.0
 30
0.0
  0
INSERT
  5
419
  8
0
  6
CONTINUOUS
  2
*U104
 10
0.0
 20
0.0
 30
0.0
  0
INSERT
  5
41A
  8
0
  6
CONTINUOUS
  2
*U105
 10
0.0
 20
0.0
 30
0.0
  0
INSERT
  5
41B
  8
0
  6
CONTINUOUS
  2
*U106
 10
0.0
 20
0.0
 30
0.0
  0
LINE
  5
41C
  8
┌▓È_1
 62
     5
 10
1043.5838084847001
 20
-207.04488528109999
 30
0.0
 11
1042.5838084847001
 21
-207.04488528109999
 31
0.0
  0
LINE
  5
41D
  8
┌▓È_1
 62
     5
 10
1043.5838084847001
 20
-207.04488528109999
 30
0.0
 11
1043.5838084847001
 21
-200.04488528109999
 31
0.0
  0
LINE
  5
41E
  8
┌▓È_1
 62
     5
 10
1033.8794029666001
 20
-280.72909298079998
 30
0.0
 11
1033.8794029666001
 21
-284.72909298079998
 31
0.0
  0
LINE
  5
41F
  8
┌▓È_1
 62
     5
 10
1033.8794029666001
 20
-287.72909298079998
 30
0.0
 11
1033.8794029666001
 21
-291.72909298079998
 31
0.0
  0
LINE
  5
420
  8
┌▓È_1
 62
     5
 10
1033.8794029666001
 20
-287.72909298079998
 30
0.0
 11
1027.8794029666001
 21
-287.72909298079998
 31
0.0
  0
ARC
  5
421
  8
┌▓È_1
 62
     5
 10
1030.8794029666001
 20
-283.72909298079998
 30
0.0
 40
1.0
 50
180.0
 51
270.0
  0
LINE
  5
422
  8
┌▓È_1
 62
     5
 10
1030.8794029666001
 20
-284.72909298079998
 30
0.0
 11
1033.8794029666001
 21
-284.72909298079998
 31
0.0
  0
ARC
  5
423
  8
┌▓È_1
 62
     5
 10
1027.8794029666001
 20
-286.72909298079998
 30
0.0
 40
1.0
 50
180.0
 51
270.0
  0
LINE
  5
424
  8
┌▓È_1
 62
     5
 10
1026.8794029666001
 20
-286.72909298079998
 30
0.0
 11
1026.8794029666001
 21
-283.72909298079998
 31
0.0
  0
LINE
  5
425
  8
┌▓È_1
 62
     5
 10
1029.8794029666001
 20
-282.22909298080009
 30
0.0
 11
1029.8794029666001
 21
-283.72909298079998
 31
0.0
  0
LINE
  5
426
  8
┌▓È_1
 62
     5
 10
1026.8794029666001
 20
-282.22909298080009
 30
0.0
 11
1026.8794029666001
 21
-283.72909298079998
 31
0.0
  0
ARC
  5
427
  8
┌▓È_1
 62
     5
 10
1028.3794029666001
 20
-283.72909298079998
 30
0.0
 40
1.5
 50
360.0
 51
180.0
  0
ARC
  5
428
  8
┌▓È_1
 62
     5
 10
1028.3794029666001
 20
-282.22909298080009
 30
0.0
 40
1.5
 50
360.0
 51
180.0
  0
INSERT
  5
429
  8
0
  6
CONTINUOUS
  2
*U107
 10
0.0
 20
0.0
 30
0.0
  0
INSERT
  5
42A
  8
0
  6
CONTINUOUS
  2
*U108
 10
0.0
 20
0.0
 30
0.0
  0
INSERT
  5
42B
  8
0
  6
CONTINUOUS
  2
*U109
 10
0.0
 20
0.0
 30
0.0
  0
INSERT
  5
42C
  8
0
  6
CONTINUOUS
  2
*U110
 10
0.0
 20
0.0
 30
0.0
  0
LINE
  5
42D
  8
┌▓È_1
 10
1120.9375
 20
-380.27214301880002
 30
0.0
 11
1132.8602644370001
 21
-380.27214301880002
 31
0.0
  0
INSERT
  5
42E
  8
0
  6
CONTINUOUS
  2
*U111
 10
0.0
 20
0.0
 30
0.0
  0
ENDSEC
  0
EOF
