  0
SECTION
  2
HEADER
  9
$ACADVER
  1
AC1009
  9
$INSBASE
 10
0.0
 20
0.0
 30
0.0
  9
$EXTMIN
 10
426.94053420109958
 20
-509.1032715273459
 30
-0.0015258207003583
  9
$EXTMAX
 10
1247.019489958325
 20
67.851940875038963
 30
0.0000000349246037
  9
$LIMMIN
 10
0.0
 20
0.0
  9
$LIMMAX
 10
0.0
 20
0.0
  9
$ORTHOMODE
 70
     0
  9
$REGENMODE
 70
     1
  9
$FILLMODE
 70
     1
  9
$QTEXTMODE
 70
     0
  9
$MIRRTEXT
 70
     1
  9
$DRAGMODE
 70
     2
  9
$LTSCALE
 40
1.0
  9
$OSMODE
 70
    31
  9
$ATTMODE
 70
     1
  9
$TEXTSIZE
 40
0.0
  9
$TRACEWID
 40
0.05
  9
$TEXTSTYLE
  7
STANDARD
  9
$CLAYER
  8
0
  9
$CELTYPE
  6
CONTINUOUS
  9
$CECOLOR
 62
   256
  9
$DIMSCALE
 40
1.0
  9
$DIMASZ
 40
0.18
  9
$DIMEXO
 40
0.0625
  9
$DIMDLI
 40
0.38
  9
$DIMRND
 40
0.0
  9
$DIMDLE
 40
0.0
  9
$DIMEXE
 40
0.18
  9
$DIMTP
 40
0.0
  9
$DIMTM
 40
0.0
  9
$DIMTXT
 40
0.18
  9
$DIMCEN
 40
0.09
  9
$DIMTSZ
 40
0.0
  9
$DIMTOL
 70
     0
  9
$DIMLIM
 70
     0
  9
$DIMTIH
 70
     1
  9
$DIMTOH
 70
     1
  9
$DIMSE1
 70
     0
  9
$DIMSE2
 70
     0
  9
$DIMTAD
 70
     0
  9
$DIMZIN
 70
     0
  9
$DIMBLK
  1

  9
$DIMASO
 70
     1
  9
$DIMSHO
 70
     1
  9
$DIMPOST
  1

  9
$DIMAPOST
  1

  9
$DIMALT
 70
     0
  9
$DIMALTD
 70
     2
  9
$DIMALTF
 40
25.399999999999999
  9
$DIMLFAC
 40
1.0
  9
$DIMTOFL
 70
     0
  9
$DIMTVP
 40
0.0
  9
$DIMTIX
 70
     0
  9
$DIMSOXD
 70
     0
  9
$DIMSAH
 70
     0
  9
$DIMBLK1
  1

  9
$DIMBLK2
  1

  9
$DIMSTYLE
  2
STANDARD
  9
$DIMCLRD
 70
     0
  9
$DIMCLRE
 70
     0
  9
$DIMCLRT
 70
     0
  9
$DIMTFAC
 40
1.0
  9
$DIMGAP
 40
0.09
  9
$LUNITS
 70
     2
  9
$LUPREC
 70
     4
  9
$SKETCHINC
 40
0.1
  9
$FILLETRAD
 40
0.0
  9
$AUNITS
 70
     0
  9
$AUPREC
 70
     0
  9
$MENU
  1
acad
  9
$ELEVATION
 40
0.0
  9
$PELEVATION
 40
0.0
  9
$THICKNESS
 40
0.0
  9
$LIMCHECK
 70
     0
  9
$BLIPMODE
 70
     0
  9
$CHAMFERA
 40
0.0
  9
$CHAMFERB
 40
0.0
  9
$SKPOLY
 70
     0
  9
$TDCREATE
 40
2454860.6891993978
  9
$TDUPDATE
 40
2454860.69203794
  9
$TDINDWG
 40
0.0028866551
  9
$TDUSRTIMER
 40
0.0028837616
  9
$USRTIMER
 70
     1
  9
$ANGBASE
 50
0.0
  9
$ANGDIR
 70
     0
  9
$PDMODE
 70
     3
  9
$PDSIZE
 40
-1.0
  9
$PLINEWID
 40
0.0
  9
$COORDS
 70
     2
  9
$SPLFRAME
 70
     0
  9
$SPLINETYPE
 70
     6
  9
$SPLINESEGS
 70
     8
  9
$ATTDIA
 70
     0
  9
$ATTREQ
 70
     1
  9
$HANDLING
 70
     1
  9
$HANDSEED
  5
6A0
  9
$SURFTAB1
 70
     6
  9
$SURFTAB2
 70
     6
  9
$SURFTYPE
 70
     6
  9
$SURFU
 70
     6
  9
$SURFV
 70
     6
  9
$UCSNAME
  2

  9
$UCSORG
 10
0.0
 20
0.0
 30
0.0
  9
$UCSXDIR
 10
1.0
 20
0.0
 30
0.0
  9
$UCSYDIR
 10
0.0
 20
1.0
 30
0.0
  9
$PUCSNAME
  2

  9
$PUCSORG
 10
0.0
 20
0.0
 30
0.0
  9
$PUCSXDIR
 10
1.0
 20
0.0
 30
0.0
  9
$PUCSYDIR
 10
0.0
 20
1.0
 30
0.0
  9
$USERI1
 70
     0
  9
$USERI2
 70
     0
  9
$USERI3
 70
     0
  9
$USERI4
 70
     0
  9
$USERI5
 70
     0
  9
$USERR1
 40
0.0
  9
$USERR2
 40
0.0
  9
$USERR3
 40
0.0
  9
$USERR4
 40
0.0
  9
$USERR5
 40
0.0
  9
$WORLDVIEW
 70
     1
  9
$SHADEDGE
 70
     3
  9
$SHADEDIF
 70
    70
  9
$TILEMODE
 70
     1
  9
$MAXACTVP
 70
    16
  9
$PLIMCHECK
 70
     0
  9
$PEXTMIN
 10
1.0000000000000000E+020
 20
1.0000000000000000E+020
 30
1.0000000000000000E+020
  9
$PEXTMAX
 10
-1.0000000000000000E+020
 20
-1.0000000000000000E+020
 30
-1.0000000000000000E+020
  9
$PLIMMIN
 10
0.0
 20
0.0
  9
$PLIMMAX
 10
12.0
 20
9.0
  9
$UNITMODE
 70
     0
  9
$VISRETAIN
 70
     0
  9
$PLINEGEN
 70
     1
  9
$PSLTSCALE
 70
     0
  0
ENDSEC
  0
SECTION
  2
TABLES
  0
TABLE
  2
VPORT
 70
     3
  0
VPORT
  2
*ACTIVE
 70
     0
 10
0.0
 20
0.0
 11
1.0
 21
1.0
 12
836.98001207971208
 22
-220.6256653261535
 13
0.0
 23
0.0
 14
1.0
 24
1.0
 15
0.0
 25
0.0
 16
0.0
 26
0.0
 36
1.0
 17
0.0
 27
0.0
 37
0.0
 40
581.74322246381541
 41
1.6343490304709141
 42
50.0
 43
0.0
 44
0.0
 50
0.0
 51
0.0
 71
     0
 72
   100
 73
     1
 74
     1
 75
     0
 76
     0
 77
     0
 78
     0
  0
ENDTAB
  0
TABLE
  2
LTYPE
 70
    11
  0
LTYPE
  2
CONTINUOUS
 70
     0
  3
Solid line
 72
    65
 73
     0
 40
0.0
  0
LTYPE
  2
DOT
 70
     0
  3
. . . . . . . . 
 72
    65
 73
     2
 40
1.0
 49
0.0
 49
-1.0
  0
LTYPE
  2
DASHED
 70
     0
  3
___  ___  ___  ___  
 72
    65
 73
     2
 40
4.0
 49
3.0
 49
-1.0
  0
LTYPE
  2
HIDDEN
 70
     0
  3
__ __ __ __ 
 72
    65
 73
     2
 40
3.0
 49
2.0
 49
-1.0
  0
LTYPE
  2
STITCH
 70
     0
  3
_ _ _ _ 
 72
    65
 73
     2
 40
2.0
 49
1.0
 49
-1.0
  0
LTYPE
  2
CENTER
 70
     0
  3
______  __  ______  __  
 72
    65
 73
     4
 40
43.0
 49
40.0
 49
-1.0
 49
1.0
 49
-1.0
  0
LTYPE
  2
DASHDOT
 70
     0
  3
____ . ____ . 
 72
    65
 73
     4
 40
32.0
 49
30.0
 49
-1.0
 49
0.0
 49
-1.0
  0
LTYPE
  2
BORDER
 70
     0
  3
__ . __ . 
 72
    65
 73
     4
 40
22.0
 49
20.0
 49
-1.0
 49
0.0
 49
-1.0
  0
LTYPE
  2
CUTTING
 70
     0
  3
________   ___   ___   
 72
    65
 73
     6
 40
45.0
 49
40.0
 49
-1.0
 49
1.0
 49
-1.0
 49
1.0
 49
-1.0
  0
LTYPE
  2
PHANTOM
 70
     0
  3
______  __  __  
 72
    65
 73
     6
 40
35.0
 49
30.0
 49
-1.0
 49
1.0
 49
-1.0
 49
1.0
 49
-1.0
  0
LTYPE
  2
DIVIDE
 70
     0
  3
____ . . ____ . . 
 72
    65
 73
     6
 40
23.0
 49
20.0
 49
-1.0
 49
0.0
 49
-1.0
 49
0.0
 49
-1.0
  0
ENDTAB
  0
TABLE
  2
LAYER
 70
     4
  0
LAYER
  2
0
 70
     0
 62
     7
  6
CONTINUOUS
  0
LAYER
  2
図枠
 70
     0
 62
     7
  6
CONTINUOUS
  0
LAYER
  2
ﾚｲﾔ_1
 70
     0
 62
     7
  6
CONTINUOUS
  0
LAYER
  2
寸法線
 70
     0
 62
     7
  6
CONTINUOUS
  0
ENDTAB
  0
TABLE
  2
STYLE
 70
     1
  0
STYLE
  2
STANDARD
 70
     0
 40
0.0
 41
1.0
 50
0.0
 71
     0
 42
0.0
  3
txt
  4
extfont
  0
ENDTAB
  0
TABLE
  2
VIEW
 70
     0
  0
ENDTAB
  0
TABLE
  2
UCS
 70
     0
  0
ENDTAB
  0
TABLE
  2
APPID
 70
     2
  0
APPID
  2
ACAD
 70
     0
  0
APPID
  2
DCO15
 70
     0
  0
ENDTAB
  0
TABLE
  2
DIMSTYLE
 70
     3
  0
DIMSTYLE
  2
STANDARD
 70
     0
  3

  4

  5

  6

  7

 40
1.0
 41
0.18
 42
0.0625
 43
0.38
 44
0.18
 45
0.0
 46
0.0
 47
0.0
 48
0.0
140
0.18
141
0.09
142
0.0
143
25.399999999999999
144
1.0
145
0.0
146
1.0
147
0.09
 71
     0
 72
     0
 73
     1
 74
     1
 75
     0
 76
     0
 77
     0
 78
     0
170
     0
171
     2
172
     0
173
     0
174
     0
175
     0
176
     0
177
     0
178
     0
  0
DIMSTYLE
  2
VELDIM0
 70
     0
  3

  4

  5

  6

  7

 40
1.0
 41
6.0
 42
0.0625
 43
0.38
 44
0.5
 45
0.0
 46
3.0
 47
0.0
 48
0.0
140
5.9972220420999998
141
0.09
142
0.0
143
25.399999999999999
144
1.0
145
0.0
146
1.0
147
0.09
 71
     0
 72
     0
 73
     0
 74
     0
 75
     0
 76
     0
 77
     0
 78
     8
170
     0
171
     2
172
     0
173
     0
174
     0
175
     0
176
     0
177
     0
178
     0
  0
DIMSTYLE
  2
VELDIM1
 70
     0
  3

  4

  5

  6

  7

 40
1.0
 41
6.0
 42
0.0625
 43
0.38
 44
1.0
 45
0.0
 46
6.0
 47
0.0
 48
0.0
140
5.9972220420999998
141
0.09
142
0.0
143
25.399999999999999
144
1.0
145
0.0
146
1.0
147
0.09
 71
     0
 72
     0
 73
     0
 74
     0
 75
     0
 76
     0
 77
     0
 78
     8
170
     0
171
     2
172
     0
173
     0
174
     0
175
     0
176
     0
177
     0
178
     0
  0
ENDTAB
  0
ENDSEC
  0
SECTION
  2
BLOCKS
  0
BLOCK
  8
0
  2
$MODEL_SPACE
 70
     0
 10
0.0
 20
0.0
 30
0.0
  3
$MODEL_SPACE
  1

  0
ENDBLK
  5
E
  8
0
  0
BLOCK
 67
     1
  8
0
  2
$PAPER_SPACE
 70
     0
 10
0.0
 20
0.0
 30
0.0
  3
$PAPER_SPACE
  1

  0
ENDBLK
  5
10
 67
     1
  8
0
  0
BLOCK
  8
0
  2
CLUMP0
 70
     0
 10
0.0
 20
0.0
 30
0.0
  3
CLUMP0
  1

  0
LINE
  5
32
  8
図枠
 10
1065.0040000040001
 20
-364.6256666694
 30
0.0
 11
1065.0040000040001
 21
-354.6256666694
 31
0.0
  0
LINE
  5
33
  8
図枠
 10
947.00400000399986
 20
-364.6256666694
 30
0.0
 11
947.00400000399986
 21
-354.6256666694
 31
0.0
  0
LINE
  5
34
  8
図枠
 10
965.00400000399998
 20
-364.6256666694
 30
0.0
 11
965.00400000399998
 21
-354.6256666694
 31
0.0
  0
LINE
  5
35
  8
図枠
 10
1175.0040000040001
 20
-364.6256666694
 30
0.0
 11
1175.0040000040001
 21
-354.6256666694
 31
0.0
  0
LINE
  5
36
  8
図枠
 10
1157.0040000040001
 20
-364.6256666694
 30
0.0
 11
1157.0040000040001
 21
-354.6256666694
 31
0.0
  0
LINE
  5
37
  8
図枠
 10
1237.0040000040001
 20
-354.6256666694
 30
0.0
 11
947.00400000399986
 21
-354.6256666694
 31
0.0
  0
ENDBLK
  5
38
  8
0
  0
BLOCK
  8
0
  2
CLUMP1
 70
     0
 10
0.0
 20
0.0
 30
0.0
  3
CLUMP1
  1

  0
LINE
  5
3C
  8
図枠
 10
1065.0040000040001
 20
-394.6256666694
 30
0.0
 11
1065.0040000040001
 21
-384.6256666694
 31
0.0
  0
LINE
  5
3D
  8
図枠
 10
947.00400000399986
 20
-394.6256666694
 30
0.0
 11
947.00400000399986
 21
-384.6256666694
 31
0.0
  0
LINE
  5
3E
  8
図枠
 10
965.00400000399998
 20
-394.6256666694
 30
0.0
 11
965.00400000399998
 21
-384.6256666694
 31
0.0
  0
LINE
  5
3F
  8
図枠
 10
1175.0040000040001
 20
-394.6256666694
 30
0.0
 11
1175.0040000040001
 21
-384.6256666694
 31
0.0
  0
LINE
  5
40
  8
図枠
 10
1157.0040000040001
 20
-394.6256666694
 30
0.0
 11
1157.0040000040001
 21
-384.6256666694
 31
0.0
  0
LINE
  5
41
  8
図枠
 10
1237.0040000040001
 20
-384.6256666694
 30
0.0
 11
947.00400000399986
 21
-384.6256666694
 31
0.0
  0
ENDBLK
  5
42
  8
0
  0
BLOCK
  8
0
  2
CLUMP2
 70
     0
 10
0.0
 20
0.0
 30
0.0
  3
CLUMP2
  1

  0
LINE
  5
46
  8
図枠
 10
1065.0040000040001
 20
-414.62566666939989
 30
0.0
 11
1065.0040000040001
 21
-404.6256666694
 31
0.0
  0
LINE
  5
47
  8
図枠
 10
947.00400000399986
 20
-414.62566666939989
 30
0.0
 11
947.00400000399986
 21
-404.6256666694
 31
0.0
  0
LINE
  5
48
  8
図枠
 10
965.00400000399998
 20
-414.62566666939989
 30
0.0
 11
965.00400000399998
 21
-404.6256666694
 31
0.0
  0
LINE
  5
49
  8
図枠
 10
1175.0040000040001
 20
-414.62566666939989
 30
0.0
 11
1175.0040000040001
 21
-404.6256666694
 31
0.0
  0
LINE
  5
4A
  8
図枠
 10
1157.0040000040001
 20
-414.62566666939989
 30
0.0
 11
1157.0040000040001
 21
-404.6256666694
 31
0.0
  0
LINE
  5
4B
  8
図枠
 10
1237.0040000040001
 20
-404.6256666694
 30
0.0
 11
947.00400000399986
 21
-404.6256666694
 31
0.0
  0
ENDBLK
  5
4C
  8
0
  0
BLOCK
  8
0
  2
CLUMP3
 70
     0
 10
0.0
 20
0.0
 30
0.0
  3
CLUMP3
  1

  0
LINE
  5
50
  8
図枠
 10
1065.0040000040001
 20
-404.6256666694
 30
0.0
 11
1065.0040000040001
 21
-394.6256666694
 31
0.0
  0
LINE
  5
51
  8
図枠
 10
947.00400000399986
 20
-404.6256666694
 30
0.0
 11
947.00400000399986
 21
-394.6256666694
 31
0.0
  0
LINE
  5
52
  8
図枠
 10
965.00400000399998
 20
-404.6256666694
 30
0.0
 11
965.00400000399998
 21
-394.6256666694
 31
0.0
  0
LINE
  5
53
  8
図枠
 10
1175.0040000040001
 20
-404.6256666694
 30
0.0
 11
1175.0040000040001
 21
-394.6256666694
 31
0.0
  0
LINE
  5
54
  8
図枠
 10
1157.0040000040001
 20
-404.6256666694
 30
0.0
 11
1157.0040000040001
 21
-394.6256666694
 31
0.0
  0
LINE
  5
55
  8
図枠
 10
1237.0040000040001
 20
-394.6256666694
 30
0.0
 11
947.00400000399986
 21
-394.6256666694
 31
0.0
  0
ENDBLK
  5
56
  8
0
  0
BLOCK
  8
0
  2
CLUMP4
 70
     0
 10
0.0
 20
0.0
 30
0.0
  3
CLUMP4
  1

  0
LINE
  5
5A
  8
図枠
 10
1065.0040000040001
 20
-384.6256666694
 30
0.0
 11
1065.0040000040001
 21
-374.6256666694
 31
0.0
  0
LINE
  5
5B
  8
図枠
 10
947.00400000399986
 20
-384.6256666694
 30
0.0
 11
947.00400000399986
 21
-374.6256666694
 31
0.0
  0
LINE
  5
5C
  8
図枠
 10
965.00400000399998
 20
-384.6256666694
 30
0.0
 11
965.00400000399998
 21
-374.6256666694
 31
0.0
  0
LINE
  5
5D
  8
図枠
 10
1175.0040000040001
 20
-384.6256666694
 30
0.0
 11
1175.0040000040001
 21
-374.6256666694
 31
0.0
  0
LINE
  5
5E
  8
図枠
 10
1157.0040000040001
 20
-384.6256666694
 30
0.0
 11
1157.0040000040001
 21
-374.6256666694
 31
0.0
  0
LINE
  5
5F
  8
図枠
 10
1237.0040000040001
 20
-374.6256666694
 30
0.0
 11
947.00400000399986
 21
-374.6256666694
 31
0.0
  0
ENDBLK
  5
60
  8
0
  0
BLOCK
  8
0
  2
CLUMP5
 70
     0
 10
0.0
 20
0.0
 30
0.0
  3
CLUMP5
  1

  0
LINE
  5
64
  8
図枠
 10
1065.0040000040001
 20
-374.6256666694
 30
0.0
 11
1065.0040000040001
 21
-364.6256666694
 31
0.0
  0
LINE
  5
65
  8
図枠
 10
947.00400000399986
 20
-374.6256666694
 30
0.0
 11
947.00400000399986
 21
-364.6256666694
 31
0.0
  0
LINE
  5
66
  8
図枠
 10
965.00400000399998
 20
-374.6256666694
 30
0.0
 11
965.00400000399998
 21
-364.6256666694
 31
0.0
  0
LINE
  5
67
  8
図枠
 10
1175.0040000040001
 20
-374.6256666694
 30
0.0
 11
1175.0040000040001
 21
-364.6256666694
 31
0.0
  0
LINE
  5
68
  8
図枠
 10
1157.0040000040001
 20
-374.6256666694
 30
0.0
 11
1157.0040000040001
 21
-364.6256666694
 31
0.0
  0
LINE
  5
69
  8
図枠
 10
1237.0040000040001
 20
-364.6256666694
 30
0.0
 11
947.00400000399986
 21
-364.6256666694
 31
0.0
  0
ENDBLK
  5
6A
  8
0
  0
BLOCK
  8
0
  2
CLUMP6
 70
     0
 10
0.0
 20
0.0
 30
0.0
  3
CLUMP6
  1

  0
LINE
  5
70
  8
図枠
 10
1063.6465051017999
 20
-485.47232073559991
 30
0.0
 11
1065.6465051017999
 21
-482.47232073559991
 31
0.0
  0
LINE
  5
71
  8
図枠
 10
1034.3252929805999
 20
-482.47232073559991
 30
0.0
 11
1034.3252929805999
 21
-486.47232073559991
 31
0.0
  0
LINE
  5
72
  8
図枠
 10
1081.7793522688
 20
-489.47232073559991
 30
0.0
 11
1088.0814703983999
 21
-489.47232073559991
 31
0.0
  0
LINE
  5
73
  8
図枠
 10
1047.6465051017999
 20
-496.47232073560002
 30
0.0
 11
1052.6465051017999
 21
-496.47232073560002
 31
0.0
  0
LINE
  5
74
  8
図枠
 10
1047.6465051017999
 20
-487.1165412705999
 30
0.0
 11
1055.6465051017999
 21
-487.1165412705999
 31
0.0
  0
INSERT
  5
75
  8
0
  6
CONTINUOUS
  2
*U30
 10
0.0
 20
0.0
 30
0.0
  0
LINE
  5
76
  8
図枠
 62
     5
 10
1097.0040000040001
 20
29.374333330599999
 30
0.0
 11
1097.0040000040001
 21
59.374333330600003
 31
0.0
  0
LINE
  5
77
  8
図枠
 62
     5
 10
1197.0040000040001
 20
29.374333330599999
 30
0.0
 11
1197.0040000040001
 21
59.374333330600003
 31
0.0
  0
LINE
  5
78
  8
図枠
 62
     5
 10
1065.0040000040001
 20
29.374333330599999
 30
0.0
 11
1065.0040000040001
 21
59.374333330600003
 31
0.0
  0
LINE
  5
79
  8
図枠
 62
     5
 10
1051.4854292319001
 20
40.235916832599997
 30
0.0
 11
1061.3854292318999
 21
40.235916832599997
 31
0.0
  0
LINE
  5
7A
  8
図枠
 62
     5
 10
1056.4354292318999
 20
38.909568330100001
 30
0.0
 11
1061.3854292318999
 21
30.335916832599999
 31
0.0
  0
LINE
  5
7B
  8
図枠
 62
     5
 10
1049.0040000040001
 20
29.374333330599999
 30
0.0
 11
1049.0040000040001
 21
59.374333330600003
 31
0.0
  0
LINE
  5
7C
  8
図枠
 62
     5
 10
1217.0040000040001
 20
29.374333330599999
 30
0.0
 11
1217.0040000040001
 21
59.374333330600003
 31
0.0
  0
LINE
  5
7D
  8
図枠
 62
     5
 10
1049.0040000040001
 20
49.374333330600003
 30
0.0
 11
1237.0040000040001
 21
49.374333330600003
 31
0.0
  0
LINE
  5
7E
  8
図枠
 62
     5
 10
1049.0040000040001
 20
39.374333330600003
 30
0.0
 11
1237.0040000040001
 21
39.374333330600003
 31
0.0
  0
LINE
  5
7F
  8
図枠
 62
     5
 10
1049.0040000040001
 20
29.374333330599999
 30
0.0
 11
1237.0040000040001
 21
29.374333330599999
 31
0.0
  0
INSERT
  5
80
  8
0
  6
CONTINUOUS
  2
*U31
 10
0.0
 20
0.0
 30
0.0
  0
LINE
  5
81
  8
図枠
 62
     5
 10
437.00400000399998
 20
-500.6256666694
 30
0.0
 11
437.00400000399998
 21
59.374333330600003
 31
0.0
  0
LINE
  5
82
  8
図枠
 62
     5
 10
437.00400000399998
 20
-500.6256666694
 30
0.0
 11
1237.0040000040001
 21
-500.6256666694
 31
0.0
  0
LINE
  5
83
  8
図枠
 62
     5
 10
1237.0040000040001
 20
59.374333330600003
 30
0.0
 11
437.00400000399998
 21
59.374333330600003
 31
0.0
  0
LINE
  5
84
  8
図枠
 62
     5
 10
1237.0040000040001
 20
-500.6256666694
 30
0.0
 11
1237.0040000040001
 21
59.374333330600003
 31
0.0
  0
LINE
  5
85
  8
図枠
 10
1047.6465051017999
 20
-487.7607618056
 30
0.0
 11
1047.6465051017999
 21
-487.1165412705999
 31
0.0
  0
LINE
  5
86
  8
図枠
 10
1023.0230853575
 20
-486.47232073559991
 30
0.0
 11
1023.0230853575
 21
-489.47232073559991
 31
0.0
  0
LINE
  5
87
  8
図枠
 62
     5
 10
1056.4354292318999
 20
48.809568330099992
 30
0.0
 11
1061.3854292318999
 21
40.235916832599997
 31
0.0
  0
LINE
  5
88
  8
図枠
 62
     5
 10
1056.4354292318999
 20
38.909568330100001
 30
0.0
 11
1051.4854292319001
 21
30.335916832599999
 31
0.0
  0
INSERT
  5
89
  8
0
  6
CONTINUOUS
  2
*U32
 10
0.0
 20
0.0
 30
0.0
  0
LINE
  5
8A
  8
図枠
  6
DOT
 10
427.04400000399988
 20
-509.08566666939998
 30
0.0
 11
427.04400000399988
 21
67.834333330600003
 31
0.0
  0
LINE
  5
8B
  8
図枠
  6
DOT
 10
1246.9640000039999
 20
-509.08566666939998
 30
0.0
 11
1246.9640000039999
 21
67.834333330600003
 31
0.0
  0
LINE
  5
8C
  8
図枠
  6
DOT
 10
427.04400000399988
 20
-509.08566666939998
 30
0.0
 11
1246.9640000039999
 21
-509.08566666939998
 31
0.0
  0
LINE
  5
8D
  8
図枠
 10
1030.3252929805999
 20
-492.47232073560002
 30
0.0
 11
1030.3252929805999
 21
-489.47232073559991
 31
0.0
  0
LINE
  5
8E
  8
図枠
  6
DOT
 10
1246.9640000039999
 20
67.834333330600003
 30
0.0
 11
427.04400000399988
 21
67.834333330600003
 31
0.0
  0
LINE
  5
8F
  8
図枠
 10
1025.3252929805999
 20
-489.47232073559991
 30
0.0
 11
1025.3252929805999
 21
-492.47232073560002
 31
0.0
  0
LINE
  5
90
  8
図枠
 10
1039.3252929805999
 20
-485.47232073559991
 30
0.0
 11
1042.3252929805999
 21
-482.47232073559991
 31
0.0
  0
LINE
  5
91
  8
図枠
 10
1076.6041370651001
 20
-491.07232073559987
 30
0.0
 11
1076.1348037317
 21
-489.47232073559991
 31
0.0
  0
LINE
  5
92
  8
図枠
 10
1030.3252929805999
 20
-486.47232073559991
 30
0.0
 11
1030.3252929805999
 21
-485.47232073559991
 31
0.0
  0
LINE
  5
93
  8
図枠
 10
1061.371943806
 20
-492.17058315359998
 30
0.0
 11
1061.0157396863999
 21
-492.51933944199988
 31
0.0
  0
LINE
  5
94
  8
図枠
 10
1063.6465051017999
 20
-485.47232073559991
 30
0.0
 11
1065.6465051017999
 21
-482.47232073559991
 31
0.0
  0
LINE
  5
95
  8
図枠
 10
1088.0814703983999
 20
-491.07232073559987
 30
0.0
 11
1088.0814703983999
 21
-494.6723207355999
 31
0.0
  0
LINE
  5
96
  8
図枠
 10
1065.6465051017999
 20
-493.47232073559991
 30
0.0
 11
1065.6465051017999
 21
-496.47232073560002
 31
0.0
  0
LINE
  5
97
  8
図枠
 10
1080.7433991104999
 20
-485.8723207356
 30
0.0
 11
1088.0814703983999
 21
-485.8723207356
 31
0.0
  0
LINE
  5
98
  8
図枠
 10
1080.7433991104999
 20
-485.8723207356
 30
0.0
 11
1080.45061061
 21
-484.85486295470002
 31
0.0
  0
LINE
  5
99
  8
図枠
 10
1065.6465051017999
 20
-482.47232073559991
 30
0.0
 11
1047.6465051017999
 21
-482.47232073559991
 31
0.0
  0
INSERT
  5
9A
  8
0
  6
CONTINUOUS
  2
*U33
 10
0.0
 20
0.0
 30
0.0
  0
LINE
  5
9B
  8
図枠
 10
1078.4814703984
 20
-497.47232073559991
 30
0.0
 11
1077.6601370650999
 21
-494.6723207355999
 31
0.0
  0
LINE
  5
9C
  8
図枠
 10
1031.3252929805999
 20
-493.47232073559991
 30
0.0
 11
1025.3252929805999
 21
-493.47232073559991
 31
0.0
  0
LINE
  5
9D
  8
図枠
 10
1047.6465051017999
 20
-486.07232073559999
 30
0.0
 11
1057.6465051017999
 21
-486.07232073559999
 31
0.0
  0
LINE
  5
9E
  8
図枠
 10
1074.7758350274
 20
-443.22566666940003
 30
0.0
 11
1084.3758350273999
 21
-440.82566666939999
 31
0.0
  0
CIRCLE
  5
9F
  8
図枠
 10
1063.804000004
 20
-445.6256666694
 30
0.0
 40
4.7999999999999989
  0
INSERT
  5
A0
  8
0
  6
CONTINUOUS
  2
*U34
 10
0.0
 20
0.0
 30
0.0
  0
LINE
  5
A1
  8
図枠
 10
1030.3252929805999
 20
-489.47232073559991
 30
0.0
 11
1034.3252929805999
 21
-489.47232073559991
 31
0.0
  0
LINE
  5
A2
  8
図枠
 10
1070.0814703983999
 20
-489.47232073559991
 30
0.0
 11
1076.1348037317
 21
-489.47232073559991
 31
0.0
  0
LINE
  5
A3
  8
図枠
 10
1042.3252929805999
 20
-486.47232073559991
 30
0.0
 11
1039.3252929805999
 21
-486.47232073559991
 31
0.0
  0
LINE
  5
A4
  8
図枠
 10
1039.3252929805999
 20
-486.47232073559991
 30
0.0
 11
1039.3252929805999
 21
-485.47232073559991
 31
0.0
  0
LINE
  5
A5
  8
図枠
 10
1070.0814703983999
 20
-485.8723207356
 30
0.0
 11
1075.0788037317
 21
-485.8723207356
 31
0.0
  0
LINE
  5
A6
  8
図枠
 10
1080.45061061
 20
-484.85486295470002
 30
0.0
 11
1082.0814703983999
 21
-482.47232073559991
 31
0.0
  0
LINE
  5
A7
  8
図枠
 10
1047.6465051017999
 20
-496.47232073560002
 30
0.0
 11
1047.6465051017999
 21
-493.47232073559991
 31
0.0
  0
LINE
  5
A8
  8
図枠
 10
1097.0040000040001
 20
-434.62566666939989
 30
0.0
 11
1097.0040000040001
 21
-500.6256666694
 31
0.0
  0
INSERT
  5
A9
  8
0
  6
CONTINUOUS
  2
*U35
 10
0.0
 20
0.0
 30
0.0
  0
INSERT
  5
AA
  8
0
  6
CONTINUOUS
  2
*U36
 10
0.0
 20
0.0
 30
0.0
  0
INSERT
  5
AB
  8
0
  6
CONTINUOUS
  2
*U37
 10
0.0
 20
0.0
 30
0.0
  0
LINE
  5
AC
  8
図枠
 62
     5
 10
1051.4854292319001
 20
30.335916832599999
 30
0.0
 11
1061.3854292318999
 21
30.335916832599999
 31
0.0
  0
LINE
  5
AD
  8
図枠
 10
1023.0230853575
 20
-489.47232073559991
 30
0.0
 11
1025.0230853574999
 21
-489.47232073559991
 31
0.0
  0
ARC
  5
AE
  8
図枠
 10
1052.6465051017999
 20
-485.47232073559991
 30
0.0
 40
11.0
 50
322.48761197969998
 51
0.0
  0
LINE
  5
AF
  8
図枠
 10
1025.3252929805999
 20
-496.47232073560002
 30
0.0
 11
1033.3252929805999
 21
-496.47232073560002
 31
0.0
  0
LINE
  5
B0
  8
図枠
 10
1070.0814703983999
 20
-494.6723207355999
 30
0.0
 11
1077.6601370650999
 21
-494.6723207355999
 31
0.0
  0
ARC
  5
B1
  8
図枠
 10
1031.3252929805999
 20
-490.47232073559991
 30
0.0
 40
3.0
 50
270.0
 51
0.0
  0
LINE
  5
B2
  8
図枠
 10
1070.0814703983999
 20
-491.07232073559987
 30
0.0
 11
1070.0814703983999
 21
-494.6723207355999
 31
0.0
  0
LINE
  5
B3
  8
図枠
 10
1025.3252929805999
 20
-492.47232073560002
 30
0.0
 11
1030.3252929805999
 21
-492.47232073560002
 31
0.0
  0
LINE
  5
B4
  8
図枠
 10
1056.7191300852
 20
-489.5104625457999
 30
0.0
 11
1056.2379384726
 21
-490.04193926699992
 31
0.0
  0
LINE
  5
B5
  8
図枠
 10
1084.0814703983999
 20
-497.47232073559991
 30
0.0
 11
1078.4814703984
 21
-497.47232073559991
 31
0.0
  0
LINE
  5
B6
  8
図枠
 10
1034.3252929805999
 20
-489.47232073559991
 30
0.0
 11
1034.3252929805999
 21
-490.47232073559991
 31
0.0
  0
LINE
  5
B7
  8
図枠
 10
1237.0040000040001
 20
-434.62566666939989
 30
0.0
 11
947.00400000399986
 21
-434.62566666939989
 31
0.0
  0
LINE
  5
B8
  8
図枠
 10
1084.3758350273999
 20
-440.82566666939999
 30
0.0
 11
1084.3758350273999
 21
-450.42566666940002
 31
0.0
  0
LINE
  5
B9
  8
図枠
 62
     5
 10
1056.4354292318999
 20
48.809568330099992
 30
0.0
 11
1051.4854292319001
 21
40.235916832599997
 31
0.0
  0
LINE
  5
BA
  8
図枠
 10
1042.3252929805999
 20
-482.47232073559991
 30
0.0
 11
1034.3252929805999
 21
-482.47232073559991
 31
0.0
  0
LINE
  5
BB
  8
図枠
 10
1039.3252929805999
 20
-490.47232073559991
 30
0.0
 11
1039.3252929805999
 21
-489.47232073559991
 31
0.0
  0
LINE
  5
BC
  8
図枠
 10
1070.0814703983999
 20
-485.8723207356
 30
0.0
 11
1070.0814703983999
 21
-489.47232073559991
 31
0.0
  0
LINE
  5
BD
  8
図枠
 10
1034.3252929805999
 20
-486.47232073559991
 30
0.0
 11
1030.3252929805999
 21
-486.47232073559991
 31
0.0
  0
LINE
  5
BE
  8
図枠
 10
1033.3252929805999
 20
-482.47232073559991
 30
0.0
 11
1025.3252929805999
 21
-482.47232073559991
 31
0.0
  0
LINE
  5
BF
  8
図枠
 10
1030.3252929805999
 20
-485.47232073559991
 30
0.0
 11
1033.3252929805999
 21
-482.47232073559991
 31
0.0
  0
LINE
  5
C0
  8
図枠
 10
1025.3252929805999
 20
-482.47232073559991
 30
0.0
 11
1025.3252929805999
 21
-486.47232073559991
 31
0.0
  0
LINE
  5
C1
  8
図枠
 10
1083.2757290530001
 20
-494.6723207355999
 30
0.0
 11
1088.0814703983999
 21
-494.6723207355999
 31
0.0
  0
LINE
  5
C2
  8
図枠
 10
1075.0788037317
 20
-485.8723207356
 30
0.0
 11
1074.0814703983999
 21
-482.47232073559991
 31
0.0
  0
LINE
  5
C3
  8
図枠
 10
1070.0814703983999
 20
-491.07232073559987
 30
0.0
 11
1076.6041370651001
 21
-491.07232073559987
 31
0.0
  0
LINE
  5
C4
  8
図枠
 10
1082.2397758947
 20
-491.07232073559987
 30
0.0
 11
1081.7793522688
 21
-489.47232073559991
 31
0.0
  0
ARC
  5
C5
  8
図枠
 10
1050.0465051018
 20
-485.8723207356
 30
0.0
 40
7.5999999999999988
 50
270.0
 51
298.08590481520002
  0
INSERT
  5
C6
  8
0
  6
CONTINUOUS
  2
*U38
 10
0.0
 20
0.0
 30
0.0
  0
LINE
  5
C7
  8
図枠
 10
952.00400000399986
 20
-445.6256666694
 30
0.0
 11
992.00400000399998
 21
-445.6256666694
 31
0.0
  0
LINE
  5
C8
  8
図枠
 10
997.00400000399986
 20
-434.62566666939989
 30
0.0
 11
997.00400000399986
 21
-456.6256666694
 31
0.0
  0
LINE
  5
C9
  8
図枠
 10
947.00400000399986
 20
-456.6256666694
 30
0.0
 11
1237.0040000040001
 21
-456.6256666694
 31
0.0
  0
LINE
  5
CA
  8
図枠
 10
1047.0040000040001
 20
-434.62566666939989
 30
0.0
 11
1047.0040000040001
 21
-456.6256666694
 31
0.0
  0
LINE
  5
CB
  8
図枠
  6
BORDER
 10
1063.804000004
 20
-438.42566666940002
 30
0.0
 11
1063.804000004
 21
-452.82566666939999
 31
0.0
  0
LINE
  5
CC
  8
図枠
  6
BORDER
 10
1063.804000004
 20
-438.42566666940002
 30
0.0
 11
1063.804000004
 21
-452.82566666939999
 31
0.0
  0
LINE
  5
CD
  8
図枠
 10
1088.0814703983999
 20
-485.8723207356
 30
0.0
 11
1088.0814703983999
 21
-489.47232073559991
 31
0.0
  0
LINE
  5
CE
  8
図枠
 10
1002.004000004
 20
-445.6256666694
 30
0.0
 11
1042.0040000040001
 21
-445.6256666694
 31
0.0
  0
INSERT
  5
CF
  8
0
  6
CONTINUOUS
  2
*U39
 10
0.0
 20
0.0
 30
0.0
  0
CIRCLE
  5
D0
  8
図枠
 10
1063.804000004
 20
-445.6256666694
 30
0.0
 40
4.7999999999999989
  0
LINE
  5
D1
  8
図枠
 10
1074.7758350274
 20
-443.22566666940003
 30
0.0
 11
1084.3758350273999
 21
-440.82566666939999
 31
0.0
  0
INSERT
  5
D2
  8
0
  6
CONTINUOUS
  2
*U40
 10
0.0
 20
0.0
 30
0.0
  0
CIRCLE
  5
D3
  8
図枠
 10
1063.804000004
 20
-445.6256666694
 30
0.0
 40
2.399999999999999
  0
LINE
  5
D4
  8
図枠
 10
1084.0814703983999
 20
-497.47232073559991
 30
0.0
 11
1083.2757290530001
 21
-494.6723207355999
 31
0.0
  0
LINE
  5
D5
  8
図枠
 10
1082.2397758947
 20
-491.07232073559987
 30
0.0
 11
1088.0814703983999
 21
-491.07232073559987
 31
0.0
  0
LINE
  5
D6
  8
図枠
 10
1047.6465051017999
 20
-493.47232073559991
 30
0.0
 11
1050.0465051018
 21
-493.47232073559991
 31
0.0
  0
LINE
  5
D7
  8
図枠
 10
1074.0814703983999
 20
-482.47232073559991
 30
0.0
 11
1082.0814703983999
 21
-482.47232073559991
 31
0.0
  0
LINE
  5
D8
  8
図枠
 10
1025.3252929805999
 20
-486.47232073559991
 30
0.0
 11
1023.0230853575
 21
-486.47232073559991
 31
0.0
  0
LINE
  5
D9
  8
図枠
 10
1047.6465051017999
 20
-493.47232073559991
 30
0.0
 11
1047.6465051017999
 21
-496.47232073560002
 31
0.0
  0
LINE
  5
DA
  8
図枠
 10
1025.3252929805999
 20
-489.47232073559991
 30
0.0
 11
1025.0230853574999
 21
-489.47232073559991
 31
0.0
  0
LINE
  5
DB
  8
図枠
 10
1025.3252929805999
 20
-493.47232073559991
 30
0.0
 11
1025.3252929805999
 21
-496.47232073560002
 31
0.0
  0
ARC
  5
DC
  8
図枠
 10
1050.0465051018
 20
-485.8723207356
 30
0.0
 40
7.5999999999999988
 50
331.39928138329998
 51
358.49204224580001
  0
LINE
  5
DD
  8
図枠
 10
1039.3252929805999
 20
-489.47232073559991
 30
0.0
 11
1042.3252929805999
 21
-489.47232073559991
 31
0.0
  0
ARC
  5
DE
  8
図枠
 10
1052.6465051017999
 20
-485.47232073559991
 30
0.0
 40
11.0
 50
270.0
 51
302.54495885400001
  0
LINE
  5
DF
  8
図枠
 10
1074.7758350274
 20
-448.02566666939998
 30
0.0
 11
1084.3758350273999
 21
-450.42566666940002
 31
0.0
  0
LINE
  5
E0
  8
図枠
 10
1074.7758350274
 20
-443.22566666940003
 30
0.0
 11
1074.7758350274
 21
-448.02566666939998
 31
0.0
  0
LINE
  5
E1
  8
図枠
 10
1084.3758350273999
 20
-440.82566666939999
 30
0.0
 11
1084.3758350273999
 21
-450.42566666940002
 31
0.0
  0
LINE
  5
E2
  8
図枠
 10
1055.6465051017999
 20
-487.1165412705999
 30
0.0
 11
1054.5151342519
 21
-488.24791212050002
 31
0.0
  0
LINE
  5
E3
  8
図枠
  6
BORDER
 10
1056.604000004
 20
-445.6256666694
 30
0.0
 11
1087.404000004
 21
-445.6256666694
 31
0.0
  0
CIRCLE
  5
E4
  8
図枠
 10
1063.804000004
 20
-445.6256666694
 30
0.0
 40
2.399999999999999
  0
POLYLINE
  8
図枠
  5
478
  66
     1
 10
0.000000
 20
0.000000
 30
0.000000
  70
     8
  0
VERTEX
  8
図枠
  5
479
 10
1061.02
 20
-492.519
 30
0.000000
  70
    32
  0
VERTEX
  8
図枠
  5
47A
 10
1061.05
 20
-492.529
 30
0.000000
  70
    32
  0
VERTEX
  8
図枠
  5
47B
 10
1061.09
 20
-492.539
 30
0.000000
  70
    32
  0
VERTEX
  8
図枠
  5
47C
 10
1061.12
 20
-492.549
 30
0.000000
  70
    32
  0
VERTEX
  8
図枠
  5
47D
 10
1061.16
 20
-492.559
 30
0.000000
  70
    32
  0
VERTEX
  8
図枠
  5
47E
 10
1061.19
 20
-492.568
 30
0.000000
  70
    32
  0
VERTEX
  8
図枠
  5
47F
 10
1061.23
 20
-492.578
 30
0.000000
  70
    32
  0
VERTEX
  8
図枠
  5
480
 10
1061.26
 20
-492.588
 30
0.000000
  70
    32
  0
VERTEX
  8
図枠
  5
481
 10
1061.30
 20
-492.597
 30
0.000000
  70
    32
  0
VERTEX
  8
図枠
  5
482
 10
1061.33
 20
-492.607
 30
0.000000
  70
    32
  0
VERTEX
  8
図枠
  5
483
 10
1061.37
 20
-492.616
 30
0.000000
  70
    32
  0
VERTEX
  8
図枠
  5
484
 10
1061.40
 20
-492.625
 30
0.000000
  70
    32
  0
VERTEX
  8
図枠
  5
485
 10
1061.44
 20
-492.635
 30
0.000000
  70
    32
  0
VERTEX
  8
図枠
  5
486
 10
1061.47
 20
-492.644
 30
0.000000
  70
    32
  0
VERTEX
  8
図枠
  5
487
 10
1061.51
 20
-492.653
 30
0.000000
  70
    32
  0
VERTEX
  8
図枠
  5
488
 10
1061.54
 20
-492.662
 30
0.000000
  70
    32
  0
VERTEX
  8
図枠
  5
489
 10
1061.58
 20
-492.671
 30
0.000000
  70
    32
  0
VERTEX
  8
図枠
  5
48A
 10
1061.61
 20
-492.680
 30
0.000000
  70
    32
  0
VERTEX
  8
図枠
  5
48B
 10
1061.65
 20
-492.689
 30
0.000000
  70
    32
  0
VERTEX
  8
図枠
  5
48C
 10
1061.69
 20
-492.698
 30
0.000000
  70
    32
  0
VERTEX
  8
図枠
  5
48D
 10
1061.72
 20
-492.707
 30
0.000000
  70
    32
  0
VERTEX
  8
図枠
  5
48E
 10
1061.76
 20
-492.716
 30
0.000000
  70
    32
  0
VERTEX
  8
図枠
  5
48F
 10
1061.79
 20
-492.725
 30
0.000000
  70
    32
  0
VERTEX
  8
図枠
  5
490
 10
1061.83
 20
-492.734
 30
0.000000
  70
    32
  0
VERTEX
  8
図枠
  5
491
 10
1061.86
 20
-492.742
 30
0.000000
  70
    32
  0
VERTEX
  8
図枠
  5
492
 10
1061.90
 20
-492.751
 30
0.000000
  70
    32
  0
VERTEX
  8
図枠
  5
493
 10
1061.94
 20
-492.760
 30
0.000000
  70
    32
  0
VERTEX
  8
図枠
  5
494
 10
1061.97
 20
-492.768
 30
0.000000
  70
    32
  0
VERTEX
  8
図枠
  5
495
 10
1062.01
 20
-492.777
 30
0.000000
  70
    32
  0
VERTEX
  8
図枠
  5
496
 10
1062.04
 20
-492.785
 30
0.000000
  70
    32
  0
VERTEX
  8
図枠
  5
497
 10
1062.08
 20
-492.794
 30
0.000000
  70
    32
  0
VERTEX
  8
図枠
  5
498
 10
1062.11
 20
-492.802
 30
0.000000
  70
    32
  0
VERTEX
  8
図枠
  5
499
 10
1062.15
 20
-492.810
 30
0.000000
  70
    32
  0
VERTEX
  8
図枠
  5
49A
 10
1062.19
 20
-492.819
 30
0.000000
  70
    32
  0
VERTEX
  8
図枠
  5
49B
 10
1062.22
 20
-492.827
 30
0.000000
  70
    32
  0
VERTEX
  8
図枠
  5
49C
 10
1062.26
 20
-492.835
 30
0.000000
  70
    32
  0
VERTEX
  8
図枠
  5
49D
 10
1062.29
 20
-492.843
 30
0.000000
  70
    32
  0
VERTEX
  8
図枠
  5
49E
 10
1062.33
 20
-492.852
 30
0.000000
  70
    32
  0
VERTEX
  8
図枠
  5
49F
 10
1062.37
 20
-492.860
 30
0.000000
  70
    32
  0
VERTEX
  8
図枠
  5
4A0
 10
1062.40
 20
-492.868
 30
0.000000
  70
    32
  0
VERTEX
  8
図枠
  5
4A1
 10
1062.44
 20
-492.876
 30
0.000000
  70
    32
  0
VERTEX
  8
図枠
  5
4A2
 10
1062.48
 20
-492.884
 30
0.000000
  70
    32
  0
VERTEX
  8
図枠
  5
4A3
 10
1062.51
 20
-492.892
 30
0.000000
  70
    32
  0
VERTEX
  8
図枠
  5
4A4
 10
1062.55
 20
-492.900
 30
0.000000
  70
    32
  0
VERTEX
  8
図枠
  5
4A5
 10
1062.58
 20
-492.907
 30
0.000000
  70
    32
  0
VERTEX
  8
図枠
  5
4A6
 10
1062.62
 20
-492.915
 30
0.000000
  70
    32
  0
VERTEX
  8
図枠
  5
4A7
 10
1062.66
 20
-492.923
 30
0.000000
  70
    32
  0
VERTEX
  8
図枠
  5
4A8
 10
1062.69
 20
-492.931
 30
0.000000
  70
    32
  0
VERTEX
  8
図枠
  5
4A9
 10
1062.73
 20
-492.939
 30
0.000000
  70
    32
  0
VERTEX
  8
図枠
  5
4AA
 10
1062.77
 20
-492.946
 30
0.000000
  70
    32
  0
VERTEX
  8
図枠
  5
4AB
 10
1062.80
 20
-492.954
 30
0.000000
  70
    32
  0
VERTEX
  8
図枠
  5
4AC
 10
1062.84
 20
-492.961
 30
0.000000
  70
    32
  0
VERTEX
  8
図枠
  5
4AD
 10
1062.87
 20
-492.969
 30
0.000000
  70
    32
  0
VERTEX
  8
図枠
  5
4AE
 10
1062.91
 20
-492.977
 30
0.000000
  70
    32
  0
VERTEX
  8
図枠
  5
4AF
 10
1062.95
 20
-492.984
 30
0.000000
  70
    32
  0
VERTEX
  8
図枠
  5
4B0
 10
1062.98
 20
-492.992
 30
0.000000
  70
    32
  0
VERTEX
  8
図枠
  5
4B1
 10
1063.02
 20
-492.999
 30
0.000000
  70
    32
  0
VERTEX
  8
図枠
  5
4B2
 10
1063.06
 20
-493.006
 30
0.000000
  70
    32
  0
VERTEX
  8
図枠
  5
4B3
 10
1063.09
 20
-493.014
 30
0.000000
  70
    32
  0
VERTEX
  8
図枠
  5
4B4
 10
1063.13
 20
-493.021
 30
0.000000
  70
    32
  0
VERTEX
  8
図枠
  5
4B5
 10
1063.17
 20
-493.028
 30
0.000000
  70
    32
  0
VERTEX
  8
図枠
  5
4B6
 10
1063.20
 20
-493.036
 30
0.000000
  70
    32
  0
VERTEX
  8
図枠
  5
4B7
 10
1063.24
 20
-493.043
 30
0.000000
  70
    32
  0
VERTEX
  8
図枠
  5
4B8
 10
1063.28
 20
-493.050
 30
0.000000
  70
    32
  0
VERTEX
  8
図枠
  5
4B9
 10
1063.31
 20
-493.057
 30
0.000000
  70
    32
  0
VERTEX
  8
図枠
  5
4BA
 10
1063.35
 20
-493.065
 30
0.000000
  70
    32
  0
VERTEX
  8
図枠
  5
4BB
 10
1063.39
 20
-493.072
 30
0.000000
  70
    32
  0
VERTEX
  8
図枠
  5
4BC
 10
1063.42
 20
-493.079
 30
0.000000
  70
    32
  0
VERTEX
  8
図枠
  5
4BD
 10
1063.46
 20
-493.086
 30
0.000000
  70
    32
  0
VERTEX
  8
図枠
  5
4BE
 10
1063.50
 20
-493.093
 30
0.000000
  70
    32
  0
VERTEX
  8
図枠
  5
4BF
 10
1063.53
 20
-493.100
 30
0.000000
  70
    32
  0
VERTEX
  8
図枠
  5
4C0
 10
1063.57
 20
-493.107
 30
0.000000
  70
    32
  0
VERTEX
  8
図枠
  5
4C1
 10
1063.61
 20
-493.114
 30
0.000000
  70
    32
  0
VERTEX
  8
図枠
  5
4C2
 10
1063.64
 20
-493.121
 30
0.000000
  70
    32
  0
VERTEX
  8
図枠
  5
4C3
 10
1063.68
 20
-493.128
 30
0.000000
  70
    32
  0
VERTEX
  8
図枠
  5
4C4
 10
1063.72
 20
-493.135
 30
0.000000
  70
    32
  0
VERTEX
  8
図枠
  5
4C5
 10
1063.75
 20
-493.142
 30
0.000000
  70
    32
  0
VERTEX
  8
図枠
  5
4C6
 10
1063.79
 20
-493.149
 30
0.000000
  70
    32
  0
VERTEX
  8
図枠
  5
4C7
 10
1063.83
 20
-493.155
 30
0.000000
  70
    32
  0
VERTEX
  8
図枠
  5
4C8
 10
1063.87
 20
-493.162
 30
0.000000
  70
    32
  0
VERTEX
  8
図枠
  5
4C9
 10
1063.90
 20
-493.169
 30
0.000000
  70
    32
  0
VERTEX
  8
図枠
  5
4CA
 10
1063.94
 20
-493.176
 30
0.000000
  70
    32
  0
VERTEX
  8
図枠
  5
4CB
 10
1063.98
 20
-493.183
 30
0.000000
  70
    32
  0
VERTEX
  8
図枠
  5
4CC
 10
1064.01
 20
-493.189
 30
0.000000
  70
    32
  0
VERTEX
  8
図枠
  5
4CD
 10
1064.05
 20
-493.196
 30
0.000000
  70
    32
  0
VERTEX
  8
図枠
  5
4CE
 10
1064.09
 20
-493.203
 30
0.000000
  70
    32
  0
VERTEX
  8
図枠
  5
4CF
 10
1064.12
 20
-493.209
 30
0.000000
  70
    32
  0
VERTEX
  8
図枠
  5
4D0
 10
1064.16
 20
-493.216
 30
0.000000
  70
    32
  0
VERTEX
  8
図枠
  5
4D1
 10
1064.20
 20
-493.223
 30
0.000000
  70
    32
  0
VERTEX
  8
図枠
  5
4D2
 10
1064.23
 20
-493.229
 30
0.000000
  70
    32
  0
VERTEX
  8
図枠
  5
4D3
 10
1064.27
 20
-493.236
 30
0.000000
  70
    32
  0
VERTEX
  8
図枠
  5
4D4
 10
1064.31
 20
-493.243
 30
0.000000
  70
    32
  0
VERTEX
  8
図枠
  5
4D5
 10
1064.35
 20
-493.249
 30
0.000000
  70
    32
  0
VERTEX
  8
図枠
  5
4D6
 10
1064.38
 20
-493.256
 30
0.000000
  70
    32
  0
VERTEX
  8
図枠
  5
4D7
 10
1064.42
 20
-493.262
 30
0.000000
  70
    32
  0
VERTEX
  8
図枠
  5
4D8
 10
1064.46
 20
-493.269
 30
0.000000
  70
    32
  0
VERTEX
  8
図枠
  5
4D9
 10
1064.49
 20
-493.275
 30
0.000000
  70
    32
  0
VERTEX
  8
図枠
  5
4DA
 10
1064.53
 20
-493.282
 30
0.000000
  70
    32
  0
VERTEX
  8
図枠
  5
4DB
 10
1064.57
 20
-493.288
 30
0.000000
  70
    32
  0
VERTEX
  8
図枠
  5
4DC
 10
1064.61
 20
-493.295
 30
0.000000
  70
    32
  0
VERTEX
  8
図枠
  5
4DD
 10
1064.64
 20
-493.301
 30
0.000000
  70
    32
  0
VERTEX
  8
図枠
  5
4DE
 10
1064.68
 20
-493.308
 30
0.000000
  70
    32
  0
VERTEX
  8
図枠
  5
4DF
 10
1064.72
 20
-493.314
 30
0.000000
  70
    32
  0
VERTEX
  8
図枠
  5
4E0
 10
1064.75
 20
-493.320
 30
0.000000
  70
    32
  0
VERTEX
  8
図枠
  5
4E1
 10
1064.79
 20
-493.327
 30
0.000000
  70
    32
  0
VERTEX
  8
図枠
  5
4E2
 10
1064.83
 20
-493.333
 30
0.000000
  70
    32
  0
VERTEX
  8
図枠
  5
4E3
 10
1064.87
 20
-493.340
 30
0.000000
  70
    32
  0
VERTEX
  8
図枠
  5
4E4
 10
1064.90
 20
-493.346
 30
0.000000
  70
    32
  0
VERTEX
  8
図枠
  5
4E5
 10
1064.94
 20
-493.352
 30
0.000000
  70
    32
  0
VERTEX
  8
図枠
  5
4E6
 10
1064.98
 20
-493.359
 30
0.000000
  70
    32
  0
VERTEX
  8
図枠
  5
4E7
 10
1065.01
 20
-493.365
 30
0.000000
  70
    32
  0
VERTEX
  8
図枠
  5
4E8
 10
1065.05
 20
-493.371
 30
0.000000
  70
    32
  0
VERTEX
  8
図枠
  5
4E9
 10
1065.09
 20
-493.378
 30
0.000000
  70
    32
  0
VERTEX
  8
図枠
  5
4EA
 10
1065.13
 20
-493.384
 30
0.000000
  70
    32
  0
VERTEX
  8
図枠
  5
4EB
 10
1065.16
 20
-493.390
 30
0.000000
  70
    32
  0
VERTEX
  8
図枠
  5
4EC
 10
1065.20
 20
-493.397
 30
0.000000
  70
    32
  0
VERTEX
  8
図枠
  5
4ED
 10
1065.24
 20
-493.403
 30
0.000000
  70
    32
  0
VERTEX
  8
図枠
  5
4EE
 10
1065.27
 20
-493.409
 30
0.000000
  70
    32
  0
VERTEX
  8
図枠
  5
4EF
 10
1065.31
 20
-493.416
 30
0.000000
  70
    32
  0
VERTEX
  8
図枠
  5
4F0
 10
1065.35
 20
-493.422
 30
0.000000
  70
    32
  0
VERTEX
  8
図枠
  5
4F1
 10
1065.39
 20
-493.428
 30
0.000000
  70
    32
  0
VERTEX
  8
図枠
  5
4F2
 10
1065.42
 20
-493.435
 30
0.000000
  70
    32
  0
VERTEX
  8
図枠
  5
4F3
 10
1065.46
 20
-493.441
 30
0.000000
  70
    32
  0
VERTEX
  8
図枠
  5
4F4
 10
1065.50
 20
-493.447
 30
0.000000
  70
    32
  0
VERTEX
  8
図枠
  5
4F5
 10
1065.53
 20
-493.453
 30
0.000000
  70
    32
  0
VERTEX
  8
図枠
  5
4F6
 10
1065.57
 20
-493.460
 30
0.000000
  70
    32
  0
VERTEX
  8
図枠
  5
4F7
 10
1065.61
 20
-493.466
 30
0.000000
  70
    32
  0
VERTEX
  8
図枠
  5
4F8
 10
1065.65
 20
-493.472
 30
0.000000
  70
    32
  0
SEQEND
  8
図枠
  5
4F9
  0
POLYLINE
  8
図枠
  5
4FA
  66
     1
 10
0.000000
 20
0.000000
 30
0.000000
  70
     8
  0
VERTEX
  8
図枠
  5
4FB
 10
1054.52
 20
-488.248
 30
0.000000
  70
    32
  0
VERTEX
  8
図枠
  5
4FC
 10
1054.53
 20
-488.263
 30
0.000000
  70
    32
  0
VERTEX
  8
図枠
  5
4FD
 10
1054.54
 20
-488.277
 30
0.000000
  70
    32
  0
VERTEX
  8
図枠
  5
4FE
 10
1054.55
 20
-488.292
 30
0.000000
  70
    32
  0
VERTEX
  8
図枠
  5
4FF
 10
1054.57
 20
-488.307
 30
0.000000
  70
    32
  0
VERTEX
  8
図枠
  5
500
 10
1054.58
 20
-488.321
 30
0.000000
  70
    32
  0
VERTEX
  8
図枠
  5
501
 10
1054.59
 20
-488.336
 30
0.000000
  70
    32
  0
VERTEX
  8
図枠
  5
502
 10
1054.61
 20
-488.351
 30
0.000000
  70
    32
  0
VERTEX
  8
図枠
  5
503
 10
1054.62
 20
-488.366
 30
0.000000
  70
    32
  0
VERTEX
  8
図枠
  5
504
 10
1054.63
 20
-488.380
 30
0.000000
  70
    32
  0
VERTEX
  8
図枠
  5
505
 10
1054.65
 20
-488.395
 30
0.000000
  70
    32
  0
VERTEX
  8
図枠
  5
506
 10
1054.66
 20
-488.410
 30
0.000000
  70
    32
  0
VERTEX
  8
図枠
  5
507
 10
1054.67
 20
-488.424
 30
0.000000
  70
    32
  0
VERTEX
  8
図枠
  5
508
 10
1054.69
 20
-488.439
 30
0.000000
  70
    32
  0
VERTEX
  8
図枠
  5
509
 10
1054.70
 20
-488.454
 30
0.000000
  70
    32
  0
VERTEX
  8
図枠
  5
50A
 10
1054.71
 20
-488.469
 30
0.000000
  70
    32
  0
VERTEX
  8
図枠
  5
50B
 10
1054.73
 20
-488.483
 30
0.000000
  70
    32
  0
VERTEX
  8
図枠
  5
50C
 10
1054.74
 20
-488.498
 30
0.000000
  70
    32
  0
VERTEX
  8
図枠
  5
50D
 10
1054.75
 20
-488.513
 30
0.000000
  70
    32
  0
VERTEX
  8
図枠
  5
50E
 10
1054.77
 20
-488.527
 30
0.000000
  70
    32
  0
VERTEX
  8
図枠
  5
50F
 10
1054.78
 20
-488.542
 30
0.000000
  70
    32
  0
VERTEX
  8
図枠
  5
510
 10
1054.79
 20
-488.557
 30
0.000000
  70
    32
  0
VERTEX
  8
図枠
  5
511
 10
1054.81
 20
-488.571
 30
0.000000
  70
    32
  0
VERTEX
  8
図枠
  5
512
 10
1054.82
 20
-488.586
 30
0.000000
  70
    32
  0
VERTEX
  8
図枠
  5
513
 10
1054.83
 20
-488.601
 30
0.000000
  70
    32
  0
VERTEX
  8
図枠
  5
514
 10
1054.85
 20
-488.615
 30
0.000000
  70
    32
  0
VERTEX
  8
図枠
  5
515
 10
1054.86
 20
-488.630
 30
0.000000
  70
    32
  0
VERTEX
  8
図枠
  5
516
 10
1054.87
 20
-488.645
 30
0.000000
  70
    32
  0
VERTEX
  8
図枠
  5
517
 10
1054.89
 20
-488.659
 30
0.000000
  70
    32
  0
VERTEX
  8
図枠
  5
518
 10
1054.90
 20
-488.674
 30
0.000000
  70
    32
  0
VERTEX
  8
図枠
  5
519
 10
1054.91
 20
-488.688
 30
0.000000
  70
    32
  0
VERTEX
  8
図枠
  5
51A
 10
1054.92
 20
-488.703
 30
0.000000
  70
    32
  0
VERTEX
  8
図枠
  5
51B
 10
1054.94
 20
-488.718
 30
0.000000
  70
    32
  0
VERTEX
  8
図枠
  5
51C
 10
1054.95
 20
-488.732
 30
0.000000
  70
    32
  0
VERTEX
  8
図枠
  5
51D
 10
1054.96
 20
-488.747
 30
0.000000
  70
    32
  0
VERTEX
  8
図枠
  5
51E
 10
1054.98
 20
-488.761
 30
0.000000
  70
    32
  0
VERTEX
  8
図枠
  5
51F
 10
1054.99
 20
-488.776
 30
0.000000
  70
    32
  0
VERTEX
  8
図枠
  5
520
 10
1055.00
 20
-488.791
 30
0.000000
  70
    32
  0
VERTEX
  8
図枠
  5
521
 10
1055.02
 20
-488.805
 30
0.000000
  70
    32
  0
VERTEX
  8
図枠
  5
522
 10
1055.03
 20
-488.820
 30
0.000000
  70
    32
  0
VERTEX
  8
図枠
  5
523
 10
1055.04
 20
-488.834
 30
0.000000
  70
    32
  0
VERTEX
  8
図枠
  5
524
 10
1055.06
 20
-488.849
 30
0.000000
  70
    32
  0
VERTEX
  8
図枠
  5
525
 10
1055.07
 20
-488.863
 30
0.000000
  70
    32
  0
VERTEX
  8
図枠
  5
526
 10
1055.08
 20
-488.878
 30
0.000000
  70
    32
  0
VERTEX
  8
図枠
  5
527
 10
1055.10
 20
-488.892
 30
0.000000
  70
    32
  0
VERTEX
  8
図枠
  5
528
 10
1055.11
 20
-488.907
 30
0.000000
  70
    32
  0
VERTEX
  8
図枠
  5
529
 10
1055.12
 20
-488.921
 30
0.000000
  70
    32
  0
VERTEX
  8
図枠
  5
52A
 10
1055.14
 20
-488.936
 30
0.000000
  70
    32
  0
VERTEX
  8
図枠
  5
52B
 10
1055.15
 20
-488.950
 30
0.000000
  70
    32
  0
VERTEX
  8
図枠
  5
52C
 10
1055.16
 20
-488.965
 30
0.000000
  70
    32
  0
VERTEX
  8
図枠
  5
52D
 10
1055.18
 20
-488.979
 30
0.000000
  70
    32
  0
VERTEX
  8
図枠
  5
52E
 10
1055.19
 20
-488.994
 30
0.000000
  70
    32
  0
VERTEX
  8
図枠
  5
52F
 10
1055.20
 20
-489.008
 30
0.000000
  70
    32
  0
VERTEX
  8
図枠
  5
530
 10
1055.22
 20
-489.022
 30
0.000000
  70
    32
  0
VERTEX
  8
図枠
  5
531
 10
1055.23
 20
-489.037
 30
0.000000
  70
    32
  0
VERTEX
  8
図枠
  5
532
 10
1055.24
 20
-489.051
 30
0.000000
  70
    32
  0
VERTEX
  8
図枠
  5
533
 10
1055.26
 20
-489.066
 30
0.000000
  70
    32
  0
VERTEX
  8
図枠
  5
534
 10
1055.27
 20
-489.080
 30
0.000000
  70
    32
  0
VERTEX
  8
図枠
  5
535
 10
1055.29
 20
-489.094
 30
0.000000
  70
    32
  0
VERTEX
  8
図枠
  5
536
 10
1055.30
 20
-489.109
 30
0.000000
  70
    32
  0
VERTEX
  8
図枠
  5
537
 10
1055.31
 20
-489.123
 30
0.000000
  70
    32
  0
VERTEX
  8
図枠
  5
538
 10
1055.33
 20
-489.137
 30
0.000000
  70
    32
  0
VERTEX
  8
図枠
  5
539
 10
1055.34
 20
-489.152
 30
0.000000
  70
    32
  0
VERTEX
  8
図枠
  5
53A
 10
1055.35
 20
-489.166
 30
0.000000
  70
    32
  0
VERTEX
  8
図枠
  5
53B
 10
1055.37
 20
-489.180
 30
0.000000
  70
    32
  0
VERTEX
  8
図枠
  5
53C
 10
1055.38
 20
-489.194
 30
0.000000
  70
    32
  0
VERTEX
  8
図枠
  5
53D
 10
1055.39
 20
-489.209
 30
0.000000
  70
    32
  0
VERTEX
  8
図枠
  5
53E
 10
1055.41
 20
-489.223
 30
0.000000
  70
    32
  0
VERTEX
  8
図枠
  5
53F
 10
1055.42
 20
-489.237
 30
0.000000
  70
    32
  0
VERTEX
  8
図枠
  5
540
 10
1055.43
 20
-489.251
 30
0.000000
  70
    32
  0
VERTEX
  8
図枠
  5
541
 10
1055.45
 20
-489.266
 30
0.000000
  70
    32
  0
VERTEX
  8
図枠
  5
542
 10
1055.46
 20
-489.280
 30
0.000000
  70
    32
  0
VERTEX
  8
図枠
  5
543
 10
1055.47
 20
-489.294
 30
0.000000
  70
    32
  0
VERTEX
  8
図枠
  5
544
 10
1055.49
 20
-489.308
 30
0.000000
  70
    32
  0
VERTEX
  8
図枠
  5
545
 10
1055.50
 20
-489.322
 30
0.000000
  70
    32
  0
VERTEX
  8
図枠
  5
546
 10
1055.51
 20
-489.336
 30
0.000000
  70
    32
  0
VERTEX
  8
図枠
  5
547
 10
1055.53
 20
-489.350
 30
0.000000
  70
    32
  0
VERTEX
  8
図枠
  5
548
 10
1055.54
 20
-489.364
 30
0.000000
  70
    32
  0
VERTEX
  8
図枠
  5
549
 10
1055.56
 20
-489.378
 30
0.000000
  70
    32
  0
VERTEX
  8
図枠
  5
54A
 10
1055.57
 20
-489.392
 30
0.000000
  70
    32
  0
VERTEX
  8
図枠
  5
54B
 10
1055.58
 20
-489.406
 30
0.000000
  70
    32
  0
VERTEX
  8
図枠
  5
54C
 10
1055.60
 20
-489.421
 30
0.000000
  70
    32
  0
VERTEX
  8
図枠
  5
54D
 10
1055.61
 20
-489.434
 30
0.000000
  70
    32
  0
VERTEX
  8
図枠
  5
54E
 10
1055.62
 20
-489.448
 30
0.000000
  70
    32
  0
VERTEX
  8
図枠
  5
54F
 10
1055.64
 20
-489.462
 30
0.000000
  70
    32
  0
VERTEX
  8
図枠
  5
550
 10
1055.65
 20
-489.476
 30
0.000000
  70
    32
  0
VERTEX
  8
図枠
  5
551
 10
1055.66
 20
-489.490
 30
0.000000
  70
    32
  0
VERTEX
  8
図枠
  5
552
 10
1055.68
 20
-489.504
 30
0.000000
  70
    32
  0
VERTEX
  8
図枠
  5
553
 10
1055.69
 20
-489.518
 30
0.000000
  70
    32
  0
VERTEX
  8
図枠
  5
554
 10
1055.71
 20
-489.532
 30
0.000000
  70
    32
  0
VERTEX
  8
図枠
  5
555
 10
1055.72
 20
-489.546
 30
0.000000
  70
    32
  0
VERTEX
  8
図枠
  5
556
 10
1055.73
 20
-489.560
 30
0.000000
  70
    32
  0
VERTEX
  8
図枠
  5
557
 10
1055.75
 20
-489.573
 30
0.000000
  70
    32
  0
VERTEX
  8
図枠
  5
558
 10
1055.76
 20
-489.587
 30
0.000000
  70
    32
  0
VERTEX
  8
図枠
  5
559
 10
1055.77
 20
-489.601
 30
0.000000
  70
    32
  0
VERTEX
  8
図枠
  5
55A
 10
1055.79
 20
-489.615
 30
0.000000
  70
    32
  0
VERTEX
  8
図枠
  5
55B
 10
1055.80
 20
-489.628
 30
0.000000
  70
    32
  0
VERTEX
  8
図枠
  5
55C
 10
1055.82
 20
-489.642
 30
0.000000
  70
    32
  0
VERTEX
  8
図枠
  5
55D
 10
1055.83
 20
-489.656
 30
0.000000
  70
    32
  0
VERTEX
  8
図枠
  5
55E
 10
1055.84
 20
-489.669
 30
0.000000
  70
    32
  0
VERTEX
  8
図枠
  5
55F
 10
1055.86
 20
-489.683
 30
0.000000
  70
    32
  0
VERTEX
  8
図枠
  5
560
 10
1055.87
 20
-489.697
 30
0.000000
  70
    32
  0
VERTEX
  8
図枠
  5
561
 10
1055.89
 20
-489.710
 30
0.000000
  70
    32
  0
VERTEX
  8
図枠
  5
562
 10
1055.90
 20
-489.724
 30
0.000000
  70
    32
  0
VERTEX
  8
図枠
  5
563
 10
1055.91
 20
-489.737
 30
0.000000
  70
    32
  0
VERTEX
  8
図枠
  5
564
 10
1055.93
 20
-489.751
 30
0.000000
  70
    32
  0
VERTEX
  8
図枠
  5
565
 10
1055.94
 20
-489.764
 30
0.000000
  70
    32
  0
VERTEX
  8
図枠
  5
566
 10
1055.96
 20
-489.778
 30
0.000000
  70
    32
  0
VERTEX
  8
図枠
  5
567
 10
1055.97
 20
-489.791
 30
0.000000
  70
    32
  0
VERTEX
  8
図枠
  5
568
 10
1055.98
 20
-489.805
 30
0.000000
  70
    32
  0
VERTEX
  8
図枠
  5
569
 10
1056.00
 20
-489.818
 30
0.000000
  70
    32
  0
VERTEX
  8
図枠
  5
56A
 10
1056.01
 20
-489.831
 30
0.000000
  70
    32
  0
VERTEX
  8
図枠
  5
56B
 10
1056.03
 20
-489.845
 30
0.000000
  70
    32
  0
VERTEX
  8
図枠
  5
56C
 10
1056.04
 20
-489.858
 30
0.000000
  70
    32
  0
VERTEX
  8
図枠
  5
56D
 10
1056.05
 20
-489.871
 30
0.000000
  70
    32
  0
VERTEX
  8
図枠
  5
56E
 10
1056.07
 20
-489.885
 30
0.000000
  70
    32
  0
VERTEX
  8
図枠
  5
56F
 10
1056.08
 20
-489.898
 30
0.000000
  70
    32
  0
VERTEX
  8
図枠
  5
570
 10
1056.10
 20
-489.911
 30
0.000000
  70
    32
  0
VERTEX
  8
図枠
  5
571
 10
1056.11
 20
-489.924
 30
0.000000
  70
    32
  0
VERTEX
  8
図枠
  5
572
 10
1056.12
 20
-489.938
 30
0.000000
  70
    32
  0
VERTEX
  8
図枠
  5
573
 10
1056.14
 20
-489.951
 30
0.000000
  70
    32
  0
VERTEX
  8
図枠
  5
574
 10
1056.15
 20
-489.964
 30
0.000000
  70
    32
  0
VERTEX
  8
図枠
  5
575
 10
1056.17
 20
-489.977
 30
0.000000
  70
    32
  0
VERTEX
  8
図枠
  5
576
 10
1056.18
 20
-489.990
 30
0.000000
  70
    32
  0
VERTEX
  8
図枠
  5
577
 10
1056.20
 20
-490.003
 30
0.000000
  70
    32
  0
VERTEX
  8
図枠
  5
578
 10
1056.21
 20
-490.016
 30
0.000000
  70
    32
  0
VERTEX
  8
図枠
  5
579
 10
1056.22
 20
-490.029
 30
0.000000
  70
    32
  0
VERTEX
  8
図枠
  5
57A
 10
1056.24
 20
-490.042
 30
0.000000
  70
    32
  0
SEQEND
  8
図枠
  5
57B
  0
POLYLINE
  8
図枠
  5
57C
  66
     1
 10
0.000000
 20
0.000000
 30
0.000000
  70
     8
  0
VERTEX
  8
図枠
  5
57D
 10
1058.56
 20
-494.745
 30
0.000000
  70
    32
  0
VERTEX
  8
図枠
  5
57E
 10
1058.62
 20
-494.762
 30
0.000000
  70
    32
  0
VERTEX
  8
図枠
  5
57F
 10
1058.67
 20
-494.779
 30
0.000000
  70
    32
  0
VERTEX
  8
図枠
  5
580
 10
1058.73
 20
-494.796
 30
0.000000
  70
    32
  0
VERTEX
  8
図枠
  5
581
 10
1058.78
 20
-494.813
 30
0.000000
  70
    32
  0
VERTEX
  8
図枠
  5
582
 10
1058.83
 20
-494.830
 30
0.000000
  70
    32
  0
VERTEX
  8
図枠
  5
583
 10
1058.89
 20
-494.847
 30
0.000000
  70
    32
  0
VERTEX
  8
図枠
  5
584
 10
1058.94
 20
-494.863
 30
0.000000
  70
    32
  0
VERTEX
  8
図枠
  5
585
 10
1059.00
 20
-494.880
 30
0.000000
  70
    32
  0
VERTEX
  8
図枠
  5
586
 10
1059.05
 20
-494.897
 30
0.000000
  70
    32
  0
VERTEX
  8
図枠
  5
587
 10
1059.10
 20
-494.913
 30
0.000000
  70
    32
  0
VERTEX
  8
図枠
  5
588
 10
1059.16
 20
-494.929
 30
0.000000
  70
    32
  0
VERTEX
  8
図枠
  5
589
 10
1059.21
 20
-494.946
 30
0.000000
  70
    32
  0
VERTEX
  8
図枠
  5
58A
 10
1059.27
 20
-494.962
 30
0.000000
  70
    32
  0
VERTEX
  8
図枠
  5
58B
 10
1059.32
 20
-494.978
 30
0.000000
  70
    32
  0
VERTEX
  8
図枠
  5
58C
 10
1059.38
 20
-494.994
 30
0.000000
  70
    32
  0
VERTEX
  8
図枠
  5
58D
 10
1059.43
 20
-495.010
 30
0.000000
  70
    32
  0
VERTEX
  8
図枠
  5
58E
 10
1059.49
 20
-495.026
 30
0.000000
  70
    32
  0
VERTEX
  8
図枠
  5
58F
 10
1059.54
 20
-495.042
 30
0.000000
  70
    32
  0
VERTEX
  8
図枠
  5
590
 10
1059.59
 20
-495.057
 30
0.000000
  70
    32
  0
VERTEX
  8
図枠
  5
591
 10
1059.65
 20
-495.073
 30
0.000000
  70
    32
  0
VERTEX
  8
図枠
  5
592
 10
1059.70
 20
-495.089
 30
0.000000
  70
    32
  0
VERTEX
  8
図枠
  5
593
 10
1059.76
 20
-495.104
 30
0.000000
  70
    32
  0
VERTEX
  8
図枠
  5
594
 10
1059.81
 20
-495.120
 30
0.000000
  70
    32
  0
VERTEX
  8
図枠
  5
595
 10
1059.87
 20
-495.135
 30
0.000000
  70
    32
  0
VERTEX
  8
図枠
  5
596
 10
1059.92
 20
-495.150
 30
0.000000
  70
    32
  0
VERTEX
  8
図枠
  5
597
 10
1059.98
 20
-495.166
 30
0.000000
  70
    32
  0
VERTEX
  8
図枠
  5
598
 10
1060.03
 20
-495.181
 30
0.000000
  70
    32
  0
VERTEX
  8
図枠
  5
599
 10
1060.09
 20
-495.196
 30
0.000000
  70
    32
  0
VERTEX
  8
図枠
  5
59A
 10
1060.14
 20
-495.211
 30
0.000000
  70
    32
  0
VERTEX
  8
図枠
  5
59B
 10
1060.20
 20
-495.226
 30
0.000000
  70
    32
  0
VERTEX
  8
図枠
  5
59C
 10
1060.25
 20
-495.241
 30
0.000000
  70
    32
  0
VERTEX
  8
図枠
  5
59D
 10
1060.31
 20
-495.256
 30
0.000000
  70
    32
  0
VERTEX
  8
図枠
  5
59E
 10
1060.36
 20
-495.271
 30
0.000000
  70
    32
  0
VERTEX
  8
図枠
  5
59F
 10
1060.42
 20
-495.285
 30
0.000000
  70
    32
  0
VERTEX
  8
図枠
  5
5A0
 10
1060.47
 20
-495.300
 30
0.000000
  70
    32
  0
VERTEX
  8
図枠
  5
5A1
 10
1060.53
 20
-495.315
 30
0.000000
  70
    32
  0
VERTEX
  8
図枠
  5
5A2
 10
1060.58
 20
-495.329
 30
0.000000
  70
    32
  0
VERTEX
  8
図枠
  5
5A3
 10
1060.64
 20
-495.344
 30
0.000000
  70
    32
  0
VERTEX
  8
図枠
  5
5A4
 10
1060.69
 20
-495.358
 30
0.000000
  70
    32
  0
VERTEX
  8
図枠
  5
5A5
 10
1060.75
 20
-495.372
 30
0.000000
  70
    32
  0
VERTEX
  8
図枠
  5
5A6
 10
1060.81
 20
-495.387
 30
0.000000
  70
    32
  0
VERTEX
  8
図枠
  5
5A7
 10
1060.86
 20
-495.401
 30
0.000000
  70
    32
  0
VERTEX
  8
図枠
  5
5A8
 10
1060.92
 20
-495.415
 30
0.000000
  70
    32
  0
VERTEX
  8
図枠
  5
5A9
 10
1060.97
 20
-495.429
 30
0.000000
  70
    32
  0
VERTEX
  8
図枠
  5
5AA
 10
1061.03
 20
-495.443
 30
0.000000
  70
    32
  0
VERTEX
  8
図枠
  5
5AB
 10
1061.08
 20
-495.457
 30
0.000000
  70
    32
  0
VERTEX
  8
図枠
  5
5AC
 10
1061.14
 20
-495.471
 30
0.000000
  70
    32
  0
VERTEX
  8
図枠
  5
5AD
 10
1061.19
 20
-495.485
 30
0.000000
  70
    32
  0
VERTEX
  8
図枠
  5
5AE
 10
1061.25
 20
-495.499
 30
0.000000
  70
    32
  0
VERTEX
  8
図枠
  5
5AF
 10
1061.30
 20
-495.513
 30
0.000000
  70
    32
  0
VERTEX
  8
図枠
  5
5B0
 10
1061.36
 20
-495.527
 30
0.000000
  70
    32
  0
VERTEX
  8
図枠
  5
5B1
 10
1061.42
 20
-495.540
 30
0.000000
  70
    32
  0
VERTEX
  8
図枠
  5
5B2
 10
1061.47
 20
-495.554
 30
0.000000
  70
    32
  0
VERTEX
  8
図枠
  5
5B3
 10
1061.53
 20
-495.568
 30
0.000000
  70
    32
  0
VERTEX
  8
図枠
  5
5B4
 10
1061.58
 20
-495.581
 30
0.000000
  70
    32
  0
VERTEX
  8
図枠
  5
5B5
 10
1061.64
 20
-495.595
 30
0.000000
  70
    32
  0
VERTEX
  8
図枠
  5
5B6
 10
1061.70
 20
-495.608
 30
0.000000
  70
    32
  0
VERTEX
  8
図枠
  5
5B7
 10
1061.75
 20
-495.622
 30
0.000000
  70
    32
  0
VERTEX
  8
図枠
  5
5B8
 10
1061.81
 20
-495.635
 30
0.000000
  70
    32
  0
VERTEX
  8
図枠
  5
5B9
 10
1061.86
 20
-495.648
 30
0.000000
  70
    32
  0
VERTEX
  8
図枠
  5
5BA
 10
1061.92
 20
-495.662
 30
0.000000
  70
    32
  0
VERTEX
  8
図枠
  5
5BB
 10
1061.97
 20
-495.675
 30
0.000000
  70
    32
  0
VERTEX
  8
図枠
  5
5BC
 10
1062.03
 20
-495.688
 30
0.000000
  70
    32
  0
VERTEX
  8
図枠
  5
5BD
 10
1062.09
 20
-495.701
 30
0.000000
  70
    32
  0
VERTEX
  8
図枠
  5
5BE
 10
1062.14
 20
-495.714
 30
0.000000
  70
    32
  0
VERTEX
  8
図枠
  5
5BF
 10
1062.20
 20
-495.727
 30
0.000000
  70
    32
  0
VERTEX
  8
図枠
  5
5C0
 10
1062.25
 20
-495.740
 30
0.000000
  70
    32
  0
VERTEX
  8
図枠
  5
5C1
 10
1062.31
 20
-495.753
 30
0.000000
  70
    32
  0
VERTEX
  8
図枠
  5
5C2
 10
1062.37
 20
-495.766
 30
0.000000
  70
    32
  0
VERTEX
  8
図枠
  5
5C3
 10
1062.42
 20
-495.779
 30
0.000000
  70
    32
  0
VERTEX
  8
図枠
  5
5C4
 10
1062.48
 20
-495.792
 30
0.000000
  70
    32
  0
VERTEX
  8
図枠
  5
5C5
 10
1062.54
 20
-495.805
 30
0.000000
  70
    32
  0
VERTEX
  8
図枠
  5
5C6
 10
1062.59
 20
-495.818
 30
0.000000
  70
    32
  0
VERTEX
  8
図枠
  5
5C7
 10
1062.65
 20
-495.830
 30
0.000000
  70
    32
  0
VERTEX
  8
図枠
  5
5C8
 10
1062.70
 20
-495.843
 30
0.000000
  70
    32
  0
VERTEX
  8
図枠
  5
5C9
 10
1062.76
 20
-495.856
 30
0.000000
  70
    32
  0
VERTEX
  8
図枠
  5
5CA
 10
1062.82
 20
-495.869
 30
0.000000
  70
    32
  0
VERTEX
  8
図枠
  5
5CB
 10
1062.87
 20
-495.881
 30
0.000000
  70
    32
  0
VERTEX
  8
図枠
  5
5CC
 10
1062.93
 20
-495.894
 30
0.000000
  70
    32
  0
VERTEX
  8
図枠
  5
5CD
 10
1062.99
 20
-495.906
 30
0.000000
  70
    32
  0
VERTEX
  8
図枠
  5
5CE
 10
1063.04
 20
-495.919
 30
0.000000
  70
    32
  0
VERTEX
  8
図枠
  5
5CF
 10
1063.10
 20
-495.931
 30
0.000000
  70
    32
  0
VERTEX
  8
図枠
  5
5D0
 10
1063.15
 20
-495.944
 30
0.000000
  70
    32
  0
VERTEX
  8
図枠
  5
5D1
 10
1063.21
 20
-495.956
 30
0.000000
  70
    32
  0
VERTEX
  8
図枠
  5
5D2
 10
1063.27
 20
-495.969
 30
0.000000
  70
    32
  0
VERTEX
  8
図枠
  5
5D3
 10
1063.32
 20
-495.981
 30
0.000000
  70
    32
  0
VERTEX
  8
図枠
  5
5D4
 10
1063.38
 20
-495.993
 30
0.000000
  70
    32
  0
VERTEX
  8
図枠
  5
5D5
 10
1063.44
 20
-496.006
 30
0.000000
  70
    32
  0
VERTEX
  8
図枠
  5
5D6
 10
1063.49
 20
-496.018
 30
0.000000
  70
    32
  0
VERTEX
  8
図枠
  5
5D7
 10
1063.55
 20
-496.030
 30
0.000000
  70
    32
  0
VERTEX
  8
図枠
  5
5D8
 10
1063.61
 20
-496.042
 30
0.000000
  70
    32
  0
VERTEX
  8
図枠
  5
5D9
 10
1063.66
 20
-496.055
 30
0.000000
  70
    32
  0
VERTEX
  8
図枠
  5
5DA
 10
1063.72
 20
-496.067
 30
0.000000
  70
    32
  0
VERTEX
  8
図枠
  5
5DB
 10
1063.78
 20
-496.079
 30
0.000000
  70
    32
  0
VERTEX
  8
図枠
  5
5DC
 10
1063.83
 20
-496.091
 30
0.000000
  70
    32
  0
VERTEX
  8
図枠
  5
5DD
 10
1063.89
 20
-496.103
 30
0.000000
  70
    32
  0
VERTEX
  8
図枠
  5
5DE
 10
1063.95
 20
-496.115
 30
0.000000
  70
    32
  0
VERTEX
  8
図枠
  5
5DF
 10
1064.00
 20
-496.127
 30
0.000000
  70
    32
  0
VERTEX
  8
図枠
  5
5E0
 10
1064.06
 20
-496.140
 30
0.000000
  70
    32
  0
VERTEX
  8
図枠
  5
5E1
 10
1064.12
 20
-496.152
 30
0.000000
  70
    32
  0
VERTEX
  8
図枠
  5
5E2
 10
1064.17
 20
-496.164
 30
0.000000
  70
    32
  0
VERTEX
  8
図枠
  5
5E3
 10
1064.23
 20
-496.176
 30
0.000000
  70
    32
  0
VERTEX
  8
図枠
  5
5E4
 10
1064.29
 20
-496.188
 30
0.000000
  70
    32
  0
VERTEX
  8
図枠
  5
5E5
 10
1064.34
 20
-496.200
 30
0.000000
  70
    32
  0
VERTEX
  8
図枠
  5
5E6
 10
1064.40
 20
-496.212
 30
0.000000
  70
    32
  0
VERTEX
  8
図枠
  5
5E7
 10
1064.46
 20
-496.224
 30
0.000000
  70
    32
  0
VERTEX
  8
図枠
  5
5E8
 10
1064.51
 20
-496.235
 30
0.000000
  70
    32
  0
VERTEX
  8
図枠
  5
5E9
 10
1064.57
 20
-496.247
 30
0.000000
  70
    32
  0
VERTEX
  8
図枠
  5
5EA
 10
1064.63
 20
-496.259
 30
0.000000
  70
    32
  0
VERTEX
  8
図枠
  5
5EB
 10
1064.68
 20
-496.271
 30
0.000000
  70
    32
  0
VERTEX
  8
図枠
  5
5EC
 10
1064.74
 20
-496.283
 30
0.000000
  70
    32
  0
VERTEX
  8
図枠
  5
5ED
 10
1064.80
 20
-496.295
 30
0.000000
  70
    32
  0
VERTEX
  8
図枠
  5
5EE
 10
1064.85
 20
-496.307
 30
0.000000
  70
    32
  0
VERTEX
  8
図枠
  5
5EF
 10
1064.91
 20
-496.319
 30
0.000000
  70
    32
  0
VERTEX
  8
図枠
  5
5F0
 10
1064.97
 20
-496.331
 30
0.000000
  70
    32
  0
VERTEX
  8
図枠
  5
5F1
 10
1065.02
 20
-496.342
 30
0.000000
  70
    32
  0
VERTEX
  8
図枠
  5
5F2
 10
1065.08
 20
-496.354
 30
0.000000
  70
    32
  0
VERTEX
  8
図枠
  5
5F3
 10
1065.14
 20
-496.366
 30
0.000000
  70
    32
  0
VERTEX
  8
図枠
  5
5F4
 10
1065.19
 20
-496.378
 30
0.000000
  70
    32
  0
VERTEX
  8
図枠
  5
5F5
 10
1065.25
 20
-496.390
 30
0.000000
  70
    32
  0
VERTEX
  8
図枠
  5
5F6
 10
1065.31
 20
-496.402
 30
0.000000
  70
    32
  0
VERTEX
  8
図枠
  5
5F7
 10
1065.36
 20
-496.413
 30
0.000000
  70
    32
  0
VERTEX
  8
図枠
  5
5F8
 10
1065.42
 20
-496.425
 30
0.000000
  70
    32
  0
VERTEX
  8
図枠
  5
5F9
 10
1065.48
 20
-496.437
 30
0.000000
  70
    32
  0
VERTEX
  8
図枠
  5
5FA
 10
1065.53
 20
-496.449
 30
0.000000
  70
    32
  0
VERTEX
  8
図枠
  5
5FB
 10
1065.59
 20
-496.461
 30
0.000000
  70
    32
  0
VERTEX
  8
図枠
  5
5FC
 10
1065.65
 20
-496.472
 30
0.000000
  70
    32
  0
SEQEND
  8
図枠
  5
5FD
  0
POLYLINE
  8
図枠
  5
5FE
  66
     1
 10
0.000000
 20
0.000000
 30
0.000000
  70
     8
  0
VERTEX
  8
図枠
  5
5FF
 10
1047.65
 20
-487.761
 30
0.000000
  70
    32
  0
VERTEX
  8
図枠
  5
600
 10
1047.68
 20
-487.794
 30
0.000000
  70
    32
  0
VERTEX
  8
図枠
  5
601
 10
1047.72
 20
-487.827
 30
0.000000
  70
    32
  0
VERTEX
  8
図枠
  5
602
 10
1047.75
 20
-487.860
 30
0.000000
  70
    32
  0
VERTEX
  8
図枠
  5
603
 10
1047.79
 20
-487.894
 30
0.000000
  70
    32
  0
VERTEX
  8
図枠
  5
604
 10
1047.83
 20
-487.927
 30
0.000000
  70
    32
  0
VERTEX
  8
図枠
  5
605
 10
1047.86
 20
-487.960
 30
0.000000
  70
    32
  0
VERTEX
  8
図枠
  5
606
 10
1047.90
 20
-487.993
 30
0.000000
  70
    32
  0
VERTEX
  8
図枠
  5
607
 10
1047.93
 20
-488.026
 30
0.000000
  70
    32
  0
VERTEX
  8
図枠
  5
608
 10
1047.97
 20
-488.060
 30
0.000000
  70
    32
  0
VERTEX
  8
図枠
  5
609
 10
1048.01
 20
-488.093
 30
0.000000
  70
    32
  0
VERTEX
  8
図枠
  5
60A
 10
1048.04
 20
-488.126
 30
0.000000
  70
    32
  0
VERTEX
  8
図枠
  5
60B
 10
1048.08
 20
-488.159
 30
0.000000
  70
    32
  0
VERTEX
  8
図枠
  5
60C
 10
1048.11
 20
-488.192
 30
0.000000
  70
    32
  0
VERTEX
  8
図枠
  5
60D
 10
1048.15
 20
-488.225
 30
0.000000
  70
    32
  0
VERTEX
  8
図枠
  5
60E
 10
1048.19
 20
-488.258
 30
0.000000
  70
    32
  0
VERTEX
  8
図枠
  5
60F
 10
1048.22
 20
-488.292
 30
0.000000
  70
    32
  0
VERTEX
  8
図枠
  5
610
 10
1048.26
 20
-488.325
 30
0.000000
  70
    32
  0
VERTEX
  8
図枠
  5
611
 10
1048.30
 20
-488.358
 30
0.000000
  70
    32
  0
VERTEX
  8
図枠
  5
612
 10
1048.33
 20
-488.391
 30
0.000000
  70
    32
  0
VERTEX
  8
図枠
  5
613
 10
1048.37
 20
-488.424
 30
0.000000
  70
    32
  0
VERTEX
  8
図枠
  5
614
 10
1048.40
 20
-488.457
 30
0.000000
  70
    32
  0
VERTEX
  8
図枠
  5
615
 10
1048.44
 20
-488.490
 30
0.000000
  70
    32
  0
VERTEX
  8
図枠
  5
616
 10
1048.48
 20
-488.523
 30
0.000000
  70
    32
  0
VERTEX
  8
図枠
  5
617
 10
1048.51
 20
-488.556
 30
0.000000
  70
    32
  0
VERTEX
  8
図枠
  5
618
 10
1048.55
 20
-488.589
 30
0.000000
  70
    32
  0
VERTEX
  8
図枠
  5
619
 10
1048.58
 20
-488.622
 30
0.000000
  70
    32
  0
VERTEX
  8
図枠
  5
61A
 10
1048.62
 20
-488.655
 30
0.000000
  70
    32
  0
VERTEX
  8
図枠
  5
61B
 10
1048.66
 20
-488.688
 30
0.000000
  70
    32
  0
VERTEX
  8
図枠
  5
61C
 10
1048.69
 20
-488.721
 30
0.000000
  70
    32
  0
VERTEX
  8
図枠
  5
61D
 10
1048.73
 20
-488.754
 30
0.000000
  70
    32
  0
VERTEX
  8
図枠
  5
61E
 10
1048.77
 20
-488.787
 30
0.000000
  70
    32
  0
VERTEX
  8
図枠
  5
61F
 10
1048.80
 20
-488.820
 30
0.000000
  70
    32
  0
VERTEX
  8
図枠
  5
620
 10
1048.84
 20
-488.852
 30
0.000000
  70
    32
  0
VERTEX
  8
図枠
  5
621
 10
1048.87
 20
-488.885
 30
0.000000
  70
    32
  0
VERTEX
  8
図枠
  5
622
 10
1048.91
 20
-488.918
 30
0.000000
  70
    32
  0
VERTEX
  8
図枠
  5
623
 10
1048.95
 20
-488.951
 30
0.000000
  70
    32
  0
VERTEX
  8
図枠
  5
624
 10
1048.98
 20
-488.984
 30
0.000000
  70
    32
  0
VERTEX
  8
図枠
  5
625
 10
1049.02
 20
-489.016
 30
0.000000
  70
    32
  0
VERTEX
  8
図枠
  5
626
 10
1049.06
 20
-489.049
 30
0.000000
  70
    32
  0
VERTEX
  8
図枠
  5
627
 10
1049.09
 20
-489.082
 30
0.000000
  70
    32
  0
VERTEX
  8
図枠
  5
628
 10
1049.13
 20
-489.114
 30
0.000000
  70
    32
  0
VERTEX
  8
図枠
  5
629
 10
1049.16
 20
-489.147
 30
0.000000
  70
    32
  0
VERTEX
  8
図枠
  5
62A
 10
1049.20
 20
-489.179
 30
0.000000
  70
    32
  0
VERTEX
  8
図枠
  5
62B
 10
1049.24
 20
-489.212
 30
0.000000
  70
    32
  0
VERTEX
  8
図枠
  5
62C
 10
1049.27
 20
-489.245
 30
0.000000
  70
    32
  0
VERTEX
  8
図枠
  5
62D
 10
1049.31
 20
-489.277
 30
0.000000
  70
    32
  0
VERTEX
  8
図枠
  5
62E
 10
1049.35
 20
-489.309
 30
0.000000
  70
    32
  0
VERTEX
  8
図枠
  5
62F
 10
1049.38
 20
-489.342
 30
0.000000
  70
    32
  0
VERTEX
  8
図枠
  5
630
 10
1049.42
 20
-489.374
 30
0.000000
  70
    32
  0
VERTEX
  8
図枠
  5
631
 10
1049.46
 20
-489.407
 30
0.000000
  70
    32
  0
VERTEX
  8
図枠
  5
632
 10
1049.49
 20
-489.439
 30
0.000000
  70
    32
  0
VERTEX
  8
図枠
  5
633
 10
1049.53
 20
-489.471
 30
0.000000
  70
    32
  0
VERTEX
  8
図枠
  5
634
 10
1049.56
 20
-489.503
 30
0.000000
  70
    32
  0
VERTEX
  8
図枠
  5
635
 10
1049.60
 20
-489.536
 30
0.000000
  70
    32
  0
VERTEX
  8
図枠
  5
636
 10
1049.64
 20
-489.568
 30
0.000000
  70
    32
  0
VERTEX
  8
図枠
  5
637
 10
1049.67
 20
-489.600
 30
0.000000
  70
    32
  0
VERTEX
  8
図枠
  5
638
 10
1049.71
 20
-489.632
 30
0.000000
  70
    32
  0
VERTEX
  8
図枠
  5
639
 10
1049.75
 20
-489.664
 30
0.000000
  70
    32
  0
VERTEX
  8
図枠
  5
63A
 10
1049.78
 20
-489.696
 30
0.000000
  70
    32
  0
VERTEX
  8
図枠
  5
63B
 10
1049.82
 20
-489.728
 30
0.000000
  70
    32
  0
VERTEX
  8
図枠
  5
63C
 10
1049.86
 20
-489.760
 30
0.000000
  70
    32
  0
VERTEX
  8
図枠
  5
63D
 10
1049.89
 20
-489.792
 30
0.000000
  70
    32
  0
VERTEX
  8
図枠
  5
63E
 10
1049.93
 20
-489.824
 30
0.000000
  70
    32
  0
VERTEX
  8
図枠
  5
63F
 10
1049.97
 20
-489.856
 30
0.000000
  70
    32
  0
VERTEX
  8
図枠
  5
640
 10
1050.01
 20
-489.887
 30
0.000000
  70
    32
  0
VERTEX
  8
図枠
  5
641
 10
1050.04
 20
-489.919
 30
0.000000
  70
    32
  0
VERTEX
  8
図枠
  5
642
 10
1050.08
 20
-489.951
 30
0.000000
  70
    32
  0
VERTEX
  8
図枠
  5
643
 10
1050.12
 20
-489.982
 30
0.000000
  70
    32
  0
VERTEX
  8
図枠
  5
644
 10
1050.15
 20
-490.014
 30
0.000000
  70
    32
  0
VERTEX
  8
図枠
  5
645
 10
1050.19
 20
-490.046
 30
0.000000
  70
    32
  0
VERTEX
  8
図枠
  5
646
 10
1050.23
 20
-490.077
 30
0.000000
  70
    32
  0
VERTEX
  8
図枠
  5
647
 10
1050.26
 20
-490.109
 30
0.000000
  70
    32
  0
VERTEX
  8
図枠
  5
648
 10
1050.30
 20
-490.140
 30
0.000000
  70
    32
  0
VERTEX
  8
図枠
  5
649
 10
1050.34
 20
-490.171
 30
0.000000
  70
    32
  0
VERTEX
  8
図枠
  5
64A
 10
1050.37
 20
-490.203
 30
0.000000
  70
    32
  0
VERTEX
  8
図枠
  5
64B
 10
1050.41
 20
-490.234
 30
0.000000
  70
    32
  0
VERTEX
  8
図枠
  5
64C
 10
1050.45
 20
-490.265
 30
0.000000
  70
    32
  0
VERTEX
  8
図枠
  5
64D
 10
1050.49
 20
-490.296
 30
0.000000
  70
    32
  0
VERTEX
  8
図枠
  5
64E
 10
1050.52
 20
-490.327
 30
0.000000
  70
    32
  0
VERTEX
  8
図枠
  5
64F
 10
1050.56
 20
-490.358
 30
0.000000
  70
    32
  0
VERTEX
  8
図枠
  5
650
 10
1050.60
 20
-490.389
 30
0.000000
  70
    32
  0
VERTEX
  8
図枠
  5
651
 10
1050.63
 20
-490.420
 30
0.000000
  70
    32
  0
VERTEX
  8
図枠
  5
652
 10
1050.67
 20
-490.451
 30
0.000000
  70
    32
  0
VERTEX
  8
図枠
  5
653
 10
1050.71
 20
-490.482
 30
0.000000
  70
    32
  0
VERTEX
  8
図枠
  5
654
 10
1050.75
 20
-490.512
 30
0.000000
  70
    32
  0
VERTEX
  8
図枠
  5
655
 10
1050.78
 20
-490.543
 30
0.000000
  70
    32
  0
VERTEX
  8
図枠
  5
656
 10
1050.82
 20
-490.574
 30
0.000000
  70
    32
  0
VERTEX
  8
図枠
  5
657
 10
1050.86
 20
-490.604
 30
0.000000
  70
    32
  0
VERTEX
  8
図枠
  5
658
 10
1050.90
 20
-490.635
 30
0.000000
  70
    32
  0
VERTEX
  8
図枠
  5
659
 10
1050.93
 20
-490.665
 30
0.000000
  70
    32
  0
VERTEX
  8
図枠
  5
65A
 10
1050.97
 20
-490.696
 30
0.000000
  70
    32
  0
VERTEX
  8
図枠
  5
65B
 10
1051.01
 20
-490.726
 30
0.000000
  70
    32
  0
VERTEX
  8
図枠
  5
65C
 10
1051.05
 20
-490.756
 30
0.000000
  70
    32
  0
VERTEX
  8
図枠
  5
65D
 10
1051.08
 20
-490.786
 30
0.000000
  70
    32
  0
VERTEX
  8
図枠
  5
65E
 10
1051.12
 20
-490.816
 30
0.000000
  70
    32
  0
VERTEX
  8
図枠
  5
65F
 10
1051.16
 20
-490.847
 30
0.000000
  70
    32
  0
VERTEX
  8
図枠
  5
660
 10
1051.20
 20
-490.877
 30
0.000000
  70
    32
  0
VERTEX
  8
図枠
  5
661
 10
1051.24
 20
-490.906
 30
0.000000
  70
    32
  0
VERTEX
  8
図枠
  5
662
 10
1051.27
 20
-490.936
 30
0.000000
  70
    32
  0
VERTEX
  8
図枠
  5
663
 10
1051.31
 20
-490.966
 30
0.000000
  70
    32
  0
VERTEX
  8
図枠
  5
664
 10
1051.35
 20
-490.996
 30
0.000000
  70
    32
  0
VERTEX
  8
図枠
  5
665
 10
1051.39
 20
-491.025
 30
0.000000
  70
    32
  0
VERTEX
  8
図枠
  5
666
 10
1051.42
 20
-491.055
 30
0.000000
  70
    32
  0
VERTEX
  8
図枠
  5
667
 10
1051.46
 20
-491.085
 30
0.000000
  70
    32
  0
VERTEX
  8
図枠
  5
668
 10
1051.50
 20
-491.114
 30
0.000000
  70
    32
  0
VERTEX
  8
図枠
  5
669
 10
1051.54
 20
-491.143
 30
0.000000
  70
    32
  0
VERTEX
  8
図枠
  5
66A
 10
1051.58
 20
-491.173
 30
0.000000
  70
    32
  0
VERTEX
  8
図枠
  5
66B
 10
1051.62
 20
-491.202
 30
0.000000
  70
    32
  0
VERTEX
  8
図枠
  5
66C
 10
1051.65
 20
-491.231
 30
0.000000
  70
    32
  0
VERTEX
  8
図枠
  5
66D
 10
1051.69
 20
-491.260
 30
0.000000
  70
    32
  0
VERTEX
  8
図枠
  5
66E
 10
1051.73
 20
-491.289
 30
0.000000
  70
    32
  0
VERTEX
  8
図枠
  5
66F
 10
1051.77
 20
-491.318
 30
0.000000
  70
    32
  0
VERTEX
  8
図枠
  5
670
 10
1051.81
 20
-491.347
 30
0.000000
  70
    32
  0
VERTEX
  8
図枠
  5
671
 10
1051.85
 20
-491.375
 30
0.000000
  70
    32
  0
VERTEX
  8
図枠
  5
672
 10
1051.88
 20
-491.404
 30
0.000000
  70
    32
  0
VERTEX
  8
図枠
  5
673
 10
1051.92
 20
-491.433
 30
0.000000
  70
    32
  0
VERTEX
  8
図枠
  5
674
 10
1051.96
 20
-491.461
 30
0.000000
  70
    32
  0
VERTEX
  8
図枠
  5
675
 10
1052.00
 20
-491.490
 30
0.000000
  70
    32
  0
VERTEX
  8
図枠
  5
676
 10
1052.04
 20
-491.518
 30
0.000000
  70
    32
  0
VERTEX
  8
図枠
  5
677
 10
1052.08
 20
-491.546
 30
0.000000
  70
    32
  0
VERTEX
  8
図枠
  5
678
 10
1052.12
 20
-491.575
 30
0.000000
  70
    32
  0
VERTEX
  8
図枠
  5
679
 10
1052.15
 20
-491.603
 30
0.000000
  70
    32
  0
VERTEX
  8
図枠
  5
67A
 10
1052.19
 20
-491.631
 30
0.000000
  70
    32
  0
VERTEX
  8
図枠
  5
67B
 10
1052.23
 20
-491.659
 30
0.000000
  70
    32
  0
VERTEX
  8
図枠
  5
67C
 10
1052.27
 20
-491.686
 30
0.000000
  70
    32
  0
VERTEX
  8
図枠
  5
67D
 10
1052.31
 20
-491.714
 30
0.000000
  70
    32
  0
VERTEX
  8
図枠
  5
67E
 10
1052.35
 20
-491.742
 30
0.000000
  70
    32
  0
VERTEX
  8
図枠
  5
67F
 10
1052.39
 20
-491.769
 30
0.000000
  70
    32
  0
VERTEX
  8
図枠
  5
680
 10
1052.43
 20
-491.797
 30
0.000000
  70
    32
  0
VERTEX
  8
図枠
  5
681
 10
1052.47
 20
-491.824
 30
0.000000
  70
    32
  0
VERTEX
  8
図枠
  5
682
 10
1052.51
 20
-491.852
 30
0.000000
  70
    32
  0
VERTEX
  8
図枠
  5
683
 10
1052.54
 20
-491.879
 30
0.000000
  70
    32
  0
VERTEX
  8
図枠
  5
684
 10
1052.58
 20
-491.906
 30
0.000000
  70
    32
  0
VERTEX
  8
図枠
  5
685
 10
1052.62
 20
-491.933
 30
0.000000
  70
    32
  0
VERTEX
  8
図枠
  5
686
 10
1052.66
 20
-491.960
 30
0.000000
  70
    32
  0
VERTEX
  8
図枠
  5
687
 10
1052.70
 20
-491.987
 30
0.000000
  70
    32
  0
VERTEX
  8
図枠
  5
688
 10
1052.74
 20
-492.014
 30
0.000000
  70
    32
  0
VERTEX
  8
図枠
  5
689
 10
1052.78
 20
-492.040
 30
0.000000
  70
    32
  0
VERTEX
  8
図枠
  5
68A
 10
1052.82
 20
-492.067
 30
0.000000
  70
    32
  0
VERTEX
  8
図枠
  5
68B
 10
1052.86
 20
-492.093
 30
0.000000
  70
    32
  0
VERTEX
  8
図枠
  5
68C
 10
1052.90
 20
-492.120
 30
0.000000
  70
    32
  0
VERTEX
  8
図枠
  5
68D
 10
1052.94
 20
-492.146
 30
0.000000
  70
    32
  0
VERTEX
  8
図枠
  5
68E
 10
1052.98
 20
-492.172
 30
0.000000
  70
    32
  0
VERTEX
  8
図枠
  5
68F
 10
1053.02
 20
-492.198
 30
0.000000
  70
    32
  0
VERTEX
  8
図枠
  5
690
 10
1053.06
 20
-492.224
 30
0.000000
  70
    32
  0
VERTEX
  8
図枠
  5
691
 10
1053.10
 20
-492.250
 30
0.000000
  70
    32
  0
VERTEX
  8
図枠
  5
692
 10
1053.14
 20
-492.276
 30
0.000000
  70
    32
  0
VERTEX
  8
図枠
  5
693
 10
1053.18
 20
-492.302
 30
0.000000
  70
    32
  0
VERTEX
  8
図枠
  5
694
 10
1053.22
 20
-492.327
 30
0.000000
  70
    32
  0
VERTEX
  8
図枠
  5
695
 10
1053.26
 20
-492.353
 30
0.000000
  70
    32
  0
VERTEX
  8
図枠
  5
696
 10
1053.30
 20
-492.378
 30
0.000000
  70
    32
  0
VERTEX
  8
図枠
  5
697
 10
1053.34
 20
-492.403
 30
0.000000
  70
    32
  0
VERTEX
  8
図枠
  5
698
 10
1053.38
 20
-492.429
 30
0.000000
  70
    32
  0
VERTEX
  8
図枠
  5
699
 10
1053.42
 20
-492.454
 30
0.000000
  70
    32
  0
VERTEX
  8
図枠
  5
69A
 10
1053.46
 20
-492.479
 30
0.000000
  70
    32
  0
VERTEX
  8
図枠
  5
69B
 10
1053.50
 20
-492.503
 30
0.000000
  70
    32
  0
VERTEX
  8
図枠
  5
69C
 10
1053.54
 20
-492.528
 30
0.000000
  70
    32
  0
VERTEX
  8
図枠
  5
69D
 10
1053.58
 20
-492.553
 30
0.000000
  70
    32
  0
VERTEX
  8
図枠
  5
69E
 10
1053.62
 20
-492.577
 30
0.000000
  70
    32
  0
SEQEND
  8
図枠
  5
69F
  0
INSERT
  5
E9
  8
0
  6
CONTINUOUS
  2
*U41
 10
0.0
 20
0.0
 30
0.0
  0
LINE
  5
EA
  8
図枠
 10
1074.7758350274
 20
-443.22566666940003
 30
0.0
 11
1074.7758350274
 21
-448.02566666939998
 31
0.0
  0
LINE
  5
EB
  8
図枠
 10
1042.3252929805999
 20
-486.47232073559991
 30
0.0
 11
1042.3252929805999
 21
-489.47232073559991
 31
0.0
  0
LINE
  5
EC
  8
図枠
 10
1074.7758350274
 20
-448.02566666939998
 30
0.0
 11
1084.3758350273999
 21
-450.42566666940002
 31
0.0
  0
LINE
  5
ED
  8
図枠
 10
1047.6465051017999
 20
-482.47232073559991
 30
0.0
 11
1047.6465051017999
 21
-486.07232073559999
 31
0.0
  0
ARC
  5
EE
  8
図枠
 10
1033.3252929805999
 20
-490.47232073559991
 30
0.0
 40
6.0
 50
270.0
 51
0.0
  0
LINE
  5
EF
  8
図枠
 10
947.00400000399986
 20
-434.62566666939989
 30
0.0
 11
947.00400000399986
 21
-500.6256666694
 31
0.0
  0
INSERT
  5
F0
  8
0
  6
CONTINUOUS
  2
*U42
 10
0.0
 20
0.0
 30
0.0
  0
INSERT
  5
F1
  8
0
  6
CONTINUOUS
  2
*U43
 10
0.0
 20
0.0
 30
0.0
  0
INSERT
  5
F2
  8
0
  6
CONTINUOUS
  2
*U44
 10
0.0
 20
0.0
 30
0.0
  0
INSERT
  5
F3
  8
0
  6
CONTINUOUS
  2
*U45
 10
0.0
 20
0.0
 30
0.0
  0
LINE
  5
F4
  8
図枠
 10
1022.004000004
 20
-456.6256666694
 30
0.0
 11
1022.004000004
 21
-478.6256666694
 31
0.0
  0
LINE
  5
F5
  8
図枠
 10
947.00400000399986
 20
-478.6256666694
 30
0.0
 11
1237.0040000040001
 21
-478.6256666694
 31
0.0
  0
LINE
  5
F6
  8
図枠
 10
952.00400000399986
 20
-467.62566666939989
 30
0.0
 11
1017.004000004
 21
-467.62566666939989
 31
0.0
  0
LINE
  5
F7
  8
図枠
 10
1027.0040000040001
 20
-467.62566666939989
 30
0.0
 11
1092.0040000040001
 21
-467.62566666939989
 31
0.0
  0
INSERT
  5
F8
  8
0
  6
CONTINUOUS
  2
*U46
 10
0.0
 20
0.0
 30
0.0
  0
INSERT
  5
F9
  8
0
  6
CONTINUOUS
  2
*U47
 10
0.0
 20
0.0
 30
0.0
  0
LINE
  5
FA
  8
図枠
 10
965.00400000399998
 20
-424.6256666694
 30
0.0
 11
965.00400000399998
 21
-414.62566666939989
 31
0.0
  0
LINE
  5
FB
  8
図枠
 10
947.00400000399986
 20
-424.6256666694
 30
0.0
 11
947.00400000399986
 21
-414.62566666939989
 31
0.0
  0
LINE
  5
FC
  8
図枠
 10
1175.0040000040001
 20
-424.6256666694
 30
0.0
 11
1175.0040000040001
 21
-414.62566666939989
 31
0.0
  0
LINE
  5
FD
  8
図枠
 10
1157.0040000040001
 20
-424.6256666694
 30
0.0
 11
1157.0040000040001
 21
-414.62566666939989
 31
0.0
  0
LINE
  5
FE
  8
図枠
 10
1237.0040000040001
 20
-414.62566666939989
 30
0.0
 11
947.00400000399986
 21
-414.62566666939989
 31
0.0
  0
LINE
  5
FF
  8
図枠
 10
947.00400000399986
 20
-424.6256666694
 30
0.0
 11
1237.0040000040001
 21
-424.6256666694
 31
0.0
  0
LINE
  5
100
  8
図枠
 10
1065.0040000040001
 20
-424.6256666694
 30
0.0
 11
1065.0040000040001
 21
-414.62566666939989
 31
0.0
  0
INSERT
  5
101
  8
0
  6
CONTINUOUS
  2
*U48
 10
0.0
 20
0.0
 30
0.0
  0
INSERT
  5
102
  8
0
  6
CONTINUOUS
  2
*U49
 10
0.0
 20
0.0
 30
0.0
  0
CIRCLE
  5
103
  8
図枠
 10
1063.804000004
 20
-445.6256666694
 30
0.0
 40
2.399999999999999
  0
LINE
  5
104
  8
図枠
 10
1074.7758350274
 20
-448.02566666939998
 30
0.0
 11
1084.3758350273999
 21
-450.42566666940002
 31
0.0
  0
LINE
  5
105
  8
図枠
 10
1074.7758350274
 20
-443.22566666940003
 30
0.0
 11
1074.7758350274
 21
-448.02566666939998
 31
0.0
  0
LINE
  5
106
  8
図枠
 10
1084.3758350273999
 20
-440.82566666939999
 30
0.0
 11
1084.3758350273999
 21
-450.42566666940002
 31
0.0
  0
LINE
  5
107
  8
図枠
  6
BORDER
 10
1063.804000004
 20
-438.42566666940002
 30
0.0
 11
1063.804000004
 21
-452.82566666939999
 31
0.0
  0
LINE
  5
108
  8
図枠
  6
BORDER
 10
1063.804000004
 20
-438.42566666940002
 30
0.0
 11
1063.804000004
 21
-452.82566666939999
 31
0.0
  0
LINE
  5
109
  8
図枠
 10
1084.3758350273999
 20
-440.82566666939999
 30
0.0
 11
1084.3758350273999
 21
-450.42566666940002
 31
0.0
  0
LINE
  5
10A
  8
図枠
 10
1074.7758350274
 20
-443.22566666940003
 30
0.0
 11
1074.7758350274
 21
-448.02566666939998
 31
0.0
  0
LINE
  5
10B
  8
図枠
 10
1074.7758350274
 20
-448.02566666939998
 30
0.0
 11
1084.3758350273999
 21
-450.42566666940002
 31
0.0
  0
LINE
  5
10C
  8
図枠
 10
1074.7758350274
 20
-443.22566666940003
 30
0.0
 11
1084.3758350273999
 21
-440.82566666939999
 31
0.0
  0
CIRCLE
  5
10D
  8
図枠
 10
1063.804000004
 20
-445.6256666694
 30
0.0
 40
4.7999999999999989
  0
CIRCLE
  5
10E
  8
図枠
 10
1063.804000004
 20
-445.6256666694
 30
0.0
 40
2.399999999999999
  0
CIRCLE
  5
10F
  8
図枠
 10
1063.804000004
 20
-445.6256666694
 30
0.0
 40
4.7999999999999989
  0
LINE
  5
110
  8
図枠
 10
1074.7758350274
 20
-443.22566666940003
 30
0.0
 11
1084.3758350273999
 21
-440.82566666939999
 31
0.0
  0
ENDBLK
  5
111
  8
0
  0
BLOCK
  8
0
  2
BALLON0
 70
     0
 10
0.0
 20
0.0
 30
0.0
  3
BALLON0
  1

  0
INSERT
  5
11E
  8
0
  6
CONTINUOUS
  2
*U52
 10
0.0
 20
0.0
 30
0.0
  0
CIRCLE
  5
11F
  8
ﾚｲﾔ_1
 10
-412.17197238659998
 20
-265.35666205500002
 30
0.0
 40
8.0
  0
LINE
  5
120
  8
寸法線
 10
-425.50530572000002
 20
-265.35666205500002
 30
0.0
 11
-420.17197238659998
 21
-265.35666205500002
 31
0.0
  0
LINE
  5
121
  8
寸法線
 10
-455.16085691929999
 20
-164.44371135829999
 30
0.0
 11
-425.50530572000002
 21
-265.35666205500002
 31
0.0
  0
SOLID
  5
122
  8
寸法線
 10
-455.16085691929999
 20
-164.44371135829999
 30
0.0
 11
-451.37017088569991
 21
-171.6680244325
 31
0.0
 12
-453.35637736640001
 22
-170.5840577283
 32
0.0
 13
-453.35637736640001
 23
-170.5840577283
 33
0.0
  0
SOLID
  5
123
  8
寸法線
 10
-453.35637736640001
 20
-170.5840577283
 30
0.0
 11
-454.44034407069989
 21
-172.57026420899999
 31
0.0
 12
-455.16085691929999
 22
-164.44371135829999
 32
0.0
 13
-455.16085691929999
 23
-164.44371135829999
 33
0.0
  0
ENDBLK
  5
124
  8
0
  0
BLOCK
  8
0
  2
*D8
 70
     1
 10
0.0
 20
0.0
 30
0.0
  3
*D8
  1

  0
TEXT
  5
129
  8
0
 62
     0
 10
983.74625082559987
 20
11.7074776548
 30
0.0
 40
5.9972220420999998
  1
95
  0
LINE
  5
12A
  8
0
 62
     0
 10
1034.7740284974
 20
-25.755438624
 30
0.0
 11
1034.7740284974
 21
10.149144353300001
 31
0.0
  0
LINE
  5
12B
  8
0
 62
     0
 10
939.77402849739997
 20
-24.755438624
 30
0.0
 11
939.77402849739997
 21
10.149144353300001
 31
0.0
  0
LINE
  5
12C
  8
0
 62
     0
 10
1034.7740284974
 20
9.6491443533000005
 30
0.0
 11
994.32958384100004
 21
9.6491443533000005
 31
0.0
  0
LINE
  5
12D
  8
0
 62
     0
 10
1034.7740284974
 20
9.6491443533000005
 30
0.0
 11
980.21847315369996
 21
9.6491443533000005
 31
0.0
  0
LINE
  5
12E
  8
0
 62
     0
 10
939.77402849739997
 20
9.6491443533000005
 30
0.0
 11
994.32958384100004
 21
9.6491443533000005
 31
0.0
  0
LINE
  5
12F
  8
0
 62
     0
 10
939.77402849739997
 20
9.6491443533000005
 30
0.0
 11
980.21847315369996
 21
9.6491443533000005
 31
0.0
  0
LINE
  5
130
  8
0
 62
     0
 10
939.77402849739997
 20
9.6491443533000005
 30
0.0
 11
942.77402849740008
 21
9.6491443533000005
 31
0.0
  0
SOLID
  5
131
  8
0
 62
     0
 10
939.77402849739997
 20
9.6491443533000005
 30
0.0
 11
945.77402849740008
 21
11.149144353300001
 31
0.0
 12
945.77402849740008
 22
8.1491443533000005
 32
0.0
 13
944.27402849739997
 23
9.6491443533000005
 33
0.0
  0
LINE
  5
132
  8
0
 62
     0
 10
1034.7740284974
 20
9.6491443533000005
 30
0.0
 11
1031.7740284974
 21
9.6491443533000005
 31
0.0
  0
SOLID
  5
133
  8
0
 62
     0
 10
1034.7740284974
 20
9.6491443533000005
 30
0.0
 11
1028.7740284974
 21
8.1491443533000005
 31
0.0
 12
1028.7740284974
 22
11.149144353300001
 32
0.0
 13
1030.2740284974
 23
9.6491443533000005
 33
0.0
  0
ENDBLK
  5
134
  8
0
  0
BLOCK
  8
0
  2
*D9
 70
     1
 10
0.0
 20
0.0
 30
0.0
  3
*D9
  1

  0
TEXT
  5
163
  8
0
 62
     0
 10
675.96388282299995
 20
-455.9058116537999
 30
0.0
 40
5.9972220420999998
  1
230
  0
LINE
  5
164
  8
0
 62
     0
 10
566.25554933069986
 20
-407.341189633
 30
0.0
 11
566.25554933069986
 21
-458.46414495530001
 31
0.0
  0
LINE
  5
165
  8
0
 62
     0
 10
796.25554933070009
 20
-407.341189633
 30
0.0
 11
796.25554933070009
 21
-458.46414495530001
 31
0.0
  0
LINE
  5
166
  8
0
 62
     0
 10
566.25554933069986
 20
-457.96414495530001
 30
0.0
 11
690.07499351019987
 21
-457.96414495530001
 31
0.0
  0
LINE
  5
167
  8
0
 62
     0
 10
566.25554933069986
 20
-457.96414495530001
 30
0.0
 11
672.43610515119997
 21
-457.96414495530001
 31
0.0
  0
LINE
  5
168
  8
0
 62
     0
 10
796.25554933070009
 20
-457.96414495530001
 30
0.0
 11
690.07499351019987
 21
-457.96414495530001
 31
0.0
  0
LINE
  5
169
  8
0
 62
     0
 10
796.25554933070009
 20
-457.96414495530001
 30
0.0
 11
672.43610515119997
 21
-457.96414495530001
 31
0.0
  0
LINE
  5
16A
  8
0
 62
     0
 10
796.25554933070009
 20
-457.96414495530001
 30
0.0
 11
793.25554933070009
 21
-457.96414495530001
 31
0.0
  0
SOLID
  5
16B
  8
0
 62
     0
 10
796.25554933070009
 20
-457.96414495530001
 30
0.0
 11
790.25554933070009
 21
-459.46414495530001
 31
0.0
 12
790.25554933070009
 22
-456.46414495530001
 32
0.0
 13
791.75554933069998
 23
-457.96414495530001
 33
0.0
  0
LINE
  5
16C
  8
0
 62
     0
 10
566.25554933069986
 20
-457.96414495530001
 30
0.0
 11
569.25554933069998
 21
-457.96414495530001
 31
0.0
  0
SOLID
  5
16D
  8
0
 62
     0
 10
566.25554933069986
 20
-457.96414495530001
 30
0.0
 11
572.25554933069986
 21
-456.46414495530001
 31
0.0
 12
572.25554933069986
 22
-459.46414495530001
 32
0.0
 13
570.75554933069986
 23
-457.96414495530001
 33
0.0
  0
ENDBLK
  5
16E
  8
0
  0
BLOCK
  8
0
  2
BALLON1
 70
     0
 10
0.0
 20
0.0
 30
0.0
  3
BALLON1
  1

  0
INSERT
  5
173
  8
0
  6
CONTINUOUS
  2
*U61
 10
0.0
 20
0.0
 30
0.0
  0
CIRCLE
  5
174
  8
ﾚｲﾔ_1
 10
-479.79014848729997
 20
-265.35666205500002
 30
0.0
 40
8.0
  0
LINE
  5
175
  8
寸法線
 10
-466.45681515389998
 20
-265.35666205500002
 30
0.0
 11
-471.79014848729997
 21
-265.35666205500002
 31
0.0
  0
LINE
  5
176
  8
寸法線
 10
-447.10252358600002
 20
-338.69182364800002
 30
0.0
 11
-466.45681515389998
 21
-265.35666205500002
 31
0.0
  0
SOLID
  5
177
  8
寸法線
 10
-447.10252358600002
 20
-338.69182364800002
 30
0.0
 11
-450.69098106659999
 21
-331.36495713430003
 31
0.0
 12
-448.73566526119998
 22
-332.50370210199998
 32
0.0
 13
-448.73566526119998
 23
-332.50370210199998
 33
0.0
  0
SOLID
  5
178
  8
寸法線
 10
-448.73566526119998
 20
-332.50370210199998
 30
0.0
 11
-447.59692029349992
 21
-330.54838629670002
 31
0.0
 12
-447.10252358600002
 22
-338.69182364800002
 32
0.0
 13
-447.10252358600002
 23
-338.69182364800002
 33
0.0
  0
ENDBLK
  5
179
  8
0
  0
BLOCK
  8
0
  2
*D11
 70
     1
 10
0.0
 20
0.0
 30
0.0
  3
*D11
  1

  0
TEXT
  5
183
  8
0
 62
     0
 10
1083.7678021342999
 20
-125.321805535
 30
0.0
 40
5.9972220420999998
  1
186
 50
90.0
  0
LINE
  5
184
  8
0
 62
     0
 10
1035.7740284974
 20
-212.75543862399999
 30
0.0
 11
1086.3261354358999
 21
-212.75543862399999
 31
0.0
  0
LINE
  5
185
  8
0
 62
     0
 10
1035.7740284974
 20
-26.755438624
 30
0.0
 11
1086.3261354358999
 21
-26.755438624
 31
0.0
  0
LINE
  5
186
  8
0
 62
     0
 10
1085.8261354358999
 20
-212.75543862399999
 30
0.0
 11
1085.8261354358999
 21
-111.2106948477
 31
0.0
  0
LINE
  5
187
  8
0
 62
     0
 10
1085.8261354358999
 20
-212.75543862399999
 30
0.0
 11
1085.8261354358999
 21
-128.84958320679999
 31
0.0
  0
LINE
  5
188
  8
0
 62
     0
 10
1085.8261354358999
 20
-26.755438624
 30
0.0
 11
1085.8261354358999
 21
-111.2106948477
 31
0.0
  0
LINE
  5
189
  8
0
 62
     0
 10
1085.8261354358999
 20
-26.755438624
 30
0.0
 11
1085.8261354358999
 21
-128.84958320679999
 31
0.0
  0
LINE
  5
18A
  8
0
 62
     0
 10
1085.8261354358999
 20
-26.755438624
 30
0.0
 11
1085.8261354358999
 21
-29.755438624
 31
0.0
  0
SOLID
  5
18B
  8
0
 62
     0
 10
1085.8261354358999
 20
-26.755438624
 30
0.0
 11
1087.3261354358999
 21
-32.755438624
 31
0.0
 12
1084.3261354358999
 22
-32.755438624
 32
0.0
 13
1085.8261354358999
 23
-31.255438624
 33
0.0
  0
LINE
  5
18C
  8
0
 62
     0
 10
1085.8261354358999
 20
-212.75543862399999
 30
0.0
 11
1085.8261354358999
 21
-209.75543862399999
 31
0.0
  0
SOLID
  5
18D
  8
0
 62
     0
 10
1085.8261354358999
 20
-212.75543862399999
 30
0.0
 11
1084.3261354358999
 21
-206.75543862399999
 31
0.0
 12
1087.3261354358999
 22
-206.75543862399999
 32
0.0
 13
1085.8261354358999
 23
-208.25543862399999
 33
0.0
  0
ENDBLK
  5
18E
  8
0
  0
BLOCK
  8
0
  2
*D12
 70
     1
 10
0.0
 20
0.0
 30
0.0
  3
*D12
  1

  0
TEXT
  5
192
  8
0
 62
     0
 10
1062.9138071192001
 20
-135.63043814720001
 30
0.0
 40
5.9972220420999998
  1
(173)内寸
 50
90.0
  0
LINE
  5
193
  8
0
 62
     0
 10
1034.7740284974
 20
-206.25543862399999
 30
0.0
 11
1065.4721404207
 21
-206.25543862399999
 31
0.0
  0
LINE
  5
194
  8
0
 62
     0
 10
1034.7740284974
 20
-33.255438624
 30
0.0
 11
1065.4721404207
 21
-33.255438624
 31
0.0
  0
LINE
  5
195
  8
0
 62
     0
 10
1064.9721404207
 20
-206.25543862399999
 30
0.0
 11
1064.9721404207
 21
-100.3526614291
 31
0.0
  0
LINE
  5
196
  8
0
 62
     0
 10
1064.9721404207
 20
-206.25543862399999
 30
0.0
 11
1064.9721404207
 21
-139.15821581899999
 31
0.0
  0
LINE
  5
197
  8
0
 62
     0
 10
1064.9721404207
 20
-33.255438624
 30
0.0
 11
1064.9721404207
 21
-100.3526614291
 31
0.0
  0
LINE
  5
198
  8
0
 62
     0
 10
1064.9721404207
 20
-33.255438624
 30
0.0
 11
1064.9721404207
 21
-139.15821581899999
 31
0.0
  0
LINE
  5
199
  8
0
 62
     0
 10
1064.9721404207
 20
-33.255438624
 30
0.0
 11
1064.9721404207
 21
-36.255438624
 31
0.0
  0
SOLID
  5
19A
  8
0
 62
     0
 10
1064.9721404207
 20
-33.255438624
 30
0.0
 11
1066.4721404207
 21
-39.255438624
 31
0.0
 12
1063.4721404207
 22
-39.255438624
 32
0.0
 13
1064.9721404207
 23
-37.755438624
 33
0.0
  0
LINE
  5
19B
  8
0
 62
     0
 10
1064.9721404207
 20
-206.25543862399999
 30
0.0
 11
1064.9721404207
 21
-203.25543862399999
 31
0.0
  0
SOLID
  5
19C
  8
0
 62
     0
 10
1064.9721404207
 20
-206.25543862399999
 30
0.0
 11
1063.4721404207
 21
-200.25543862399999
 31
0.0
 12
1066.4721404207
 22
-200.25543862399999
 32
0.0
 13
1064.9721404207
 23
-201.75543862399999
 33
0.0
  0
ENDBLK
  5
19D
  8
0
  0
BLOCK
  8
0
  2
*D13
 70
     1
 10
0.0
 20
0.0
 30
0.0
  3
*D13
  1

  0
TEXT
  5
1A3
  8
0
 62
     0
 10
718.19753634100005
 20
-195.28337646759999
 30
0.0
 40
5.9972220420999998
  1
24
 50
90.0
  0
LINE
  5
1A4
  8
0
 62
     0
 10
682.25554933069998
 20
-203.7557589676
 30
0.0
 11
722.25586964259981
 21
-203.7557589676
 31
0.0
  0
LINE
  5
1A5
  8
0
 62
     0
 10
702.25586964259992
 20
-179.75543862399999
 30
0.0
 11
722.25586964259981
 21
-179.75543862399999
 31
0.0
  0
LINE
  5
1A6
  8
0
 62
     0
 10
721.25586964259992
 20
-203.7557589676
 30
0.0
 11
721.25586964259992
 21
-184.70004345219999
 31
0.0
  0
LINE
  5
1A7
  8
0
 62
     0
 10
721.25586964259992
 20
-203.7557589676
 30
0.0
 11
721.25586964259992
 21
-198.81115413939989
 31
0.0
  0
LINE
  5
1A8
  8
0
 62
     0
 10
721.25586964259992
 20
-179.75543862399999
 30
0.0
 11
721.25586964259992
 21
-184.70004345219999
 31
0.0
  0
LINE
  5
1A9
  8
0
 62
     0
 10
721.25586964259992
 20
-179.75543862399999
 30
0.0
 11
721.25586964259992
 21
-198.81115413939989
 31
0.0
  0
LINE
  5
1AA
  8
0
 62
     0
 10
721.25586964259992
 20
-179.75543862399999
 30
0.0
 11
721.25586964259992
 21
-173.75543862399999
 31
0.0
  0
SOLID
  5
1AB
  8
0
 62
     0
 10
721.25586964259992
 20
-179.75543862399999
 30
0.0
 11
719.75586964259992
 21
-173.75543862399999
 31
0.0
 12
722.75586964259992
 22
-173.75543862399999
 32
0.0
 13
721.25586964259992
 23
-175.25543862399999
 33
0.0
  0
LINE
  5
1AC
  8
0
 62
     0
 10
721.25586964259992
 20
-203.7557589676
 30
0.0
 11
721.25586964259992
 21
-209.7557589676
 31
0.0
  0
SOLID
  5
1AD
  8
0
 62
     0
 10
721.25586964259992
 20
-203.7557589676
 30
0.0
 11
722.75586964259992
 21
-209.7557589676
 31
0.0
 12
719.75586964259992
 22
-209.7557589676
 32
0.0
 13
721.25586964259992
 23
-208.2557589676
 33
0.0
  0
ENDBLK
  5
1AE
  8
0
  0
BLOCK
  8
0
  2
*D14
 70
     1
 10
0.0
 20
0.0
 30
0.0
  3
*D14
  1

  0
TEXT
  5
1B2
  8
0
 62
     0
 10
829.03575262959998
 20
-125.0471051318
 30
0.0
 40
5.9972220420999998
  1
190
 50
90.0
  0
LINE
  5
1B3
  8
0
 62
     0
 10
796.75554933070009
 20
-214.75543862399999
 30
0.0
 11
831.59408593110004
 21
-214.75543862399999
 31
0.0
  0
LINE
  5
1B4
  8
0
 62
     0
 10
796.75554933070009
 20
-24.755438624
 30
0.0
 11
831.59408593110004
 21
-24.755438624
 31
0.0
  0
LINE
  5
1B5
  8
0
 62
     0
 10
831.09408593109993
 20
-214.75543862399999
 30
0.0
 11
831.09408593109993
 21
-110.9359944445
 31
0.0
  0
LINE
  5
1B6
  8
0
 62
     0
 10
831.09408593109993
 20
-214.75543862399999
 30
0.0
 11
831.09408593109993
 21
-128.57488280359999
 31
0.0
  0
LINE
  5
1B7
  8
0
 62
     0
 10
831.09408593109993
 20
-24.755438624
 30
0.0
 11
831.09408593109993
 21
-110.9359944445
 31
0.0
  0
LINE
  5
1B8
  8
0
 62
     0
 10
831.09408593109993
 20
-24.755438624
 30
0.0
 11
831.09408593109993
 21
-128.57488280359999
 31
0.0
  0
LINE
  5
1B9
  8
0
 62
     0
 10
831.09408593109993
 20
-24.755438624
 30
0.0
 11
831.09408593109993
 21
-27.755438624
 31
0.0
  0
SOLID
  5
1BA
  8
0
 62
     0
 10
831.09408593109993
 20
-24.755438624
 30
0.0
 11
832.59408593110004
 21
-30.755438624
 31
0.0
 12
829.59408593110004
 22
-30.755438624
 32
0.0
 13
831.09408593109993
 23
-29.255438624
 33
0.0
  0
LINE
  5
1BB
  8
0
 62
     0
 10
831.09408593109993
 20
-214.75543862399999
 30
0.0
 11
831.09408593109993
 21
-211.75543862399999
 31
0.0
  0
SOLID
  5
1BC
  8
0
 62
     0
 10
831.09408593109993
 20
-214.75543862399999
 30
0.0
 11
829.59408593110004
 21
-208.75543862399999
 31
0.0
 12
832.59408593110004
 22
-208.75543862399999
 32
0.0
 13
831.09408593109993
 23
-210.25543862399999
 33
0.0
  0
ENDBLK
  5
1BD
  8
0
  0
BLOCK
  8
0
  2
BALLON2
 70
     0
 10
0.0
 20
0.0
 30
0.0
  3
BALLON2
  1

  0
INSERT
  5
1DC
  8
0
  6
CONTINUOUS
  2
*U62
 10
0.0
 20
0.0
 30
0.0
  0
CIRCLE
  5
1DD
  8
ﾚｲﾔ_1
 10
-544.19424511389991
 20
-265.35666205500002
 30
0.0
 40
8.0
  0
LINE
  5
1DE
  8
寸法線
 10
-557.52757844719986
 20
-265.35666205500002
 30
0.0
 11
-552.19424511390002
 21
-265.35666205500002
 31
0.0
  0
LINE
  5
1DF
  8
寸法線
 10
-571.19210691930004
 20
-217.75060388899999
 30
0.0
 11
-557.52757844719986
 21
-265.35666205500002
 31
0.0
  0
SOLID
  5
1E0
  8
寸法線
 10
-571.19210691930004
 20
-217.75060388899999
 30
0.0
 11
-567.44706046509987
 21
-224.9986813621
 31
0.0
 12
-569.42639079649985
 22
-223.90220909210001
 32
0.0
 13
-569.42639079649985
 23
-223.90220909210001
 33
0.0
  0
SOLID
  5
1E1
  8
寸法線
 10
-569.42639079649985
 20
-223.90220909210001
 30
0.0
 11
-570.52286306660005
 21
-225.88153942349999
 31
0.0
 12
-571.19210691930004
 22
-217.75060388899999
 32
0.0
 13
-571.19210691930004
 23
-217.75060388899999
 33
0.0
  0
ENDBLK
  5
1E2
  8
0
  0
BLOCK
  8
0
  2
*D16
 70
     1
 10
0.0
 20
0.0
 30
0.0
  3
*D16
  1

  0
TEXT
  5
1E5
  8
0
 62
     0
 10
675.96388282299995
 20
11.4766673783
 30
0.0
 40
5.9972220420999998
  1
235
  0
LINE
  5
1E6
  8
0
 62
     0
 10
798.75554933069998
 20
-26.755438624
 30
0.0
 11
798.75554933069998
 21
9.918334076799999
 31
0.0
  0
LINE
  5
1E7
  8
0
 62
     0
 10
563.75554933069986
 20
-26.755438624
 30
0.0
 11
563.75554933069986
 21
9.918334076799999
 31
0.0
  0
LINE
  5
1E8
  8
0
 62
     0
 10
798.75554933069998
 20
9.418334076799999
 30
0.0
 11
690.07499351019987
 21
9.418334076799999
 31
0.0
  0
LINE
  5
1E9
  8
0
 62
     0
 10
798.75554933069998
 20
9.418334076799999
 30
0.0
 11
672.43610515119997
 21
9.418334076799999
 31
0.0
  0
LINE
  5
1EA
  8
0
 62
     0
 10
563.75554933069986
 20
9.418334076799999
 30
0.0
 11
690.07499351019987
 21
9.418334076799999
 31
0.0
  0
LINE
  5
1EB
  8
0
 62
     0
 10
563.75554933069986
 20
9.418334076799999
 30
0.0
 11
672.43610515119997
 21
9.418334076799999
 31
0.0
  0
LINE
  5
1EC
  8
0
 62
     0
 10
563.75554933069986
 20
9.418334076799999
 30
0.0
 11
566.75554933069986
 21
9.418334076799999
 31
0.0
  0
SOLID
  5
1ED
  8
0
 62
     0
 10
563.75554933069986
 20
9.418334076799999
 30
0.0
 11
569.75554933069998
 21
10.918334076800001
 31
0.0
 12
569.75554933069998
 22
7.918334076799999
 32
0.0
 13
568.25554933069986
 23
9.418334076799999
 33
0.0
  0
LINE
  5
1EE
  8
0
 62
     0
 10
798.75554933069998
 20
9.418334076799999
 30
0.0
 11
795.75554933069998
 21
9.418334076799999
 31
0.0
  0
SOLID
  5
1EF
  8
0
 62
     0
 10
798.75554933069998
 20
9.418334076799999
 30
0.0
 11
792.75554933070009
 21
7.918334076799999
 31
0.0
 12
792.75554933070009
 22
10.918334076800001
 32
0.0
 13
794.25554933070009
 23
9.418334076799999
 33
0.0
  0
ENDBLK
  5
1F0
  8
0
  0
BLOCK
  8
0
  2
CLUMP7
 70
     0
 10
0.0
 20
0.0
 30
0.0
  3
CLUMP7
  1

  0
LINE
  5
1FB
  8
ﾚｲﾔ_1
  6
BORDER
 62
     3
 10
565.75554933069998
 20
-48.755438623999993
 30
0.0
 11
796.75554933070009
 21
-48.755438623999993
 31
0.0
  0
LINE
  5
1FC
  8
ﾚｲﾔ_1
  6
STITCH
 10
568.75554933069998
 20
-52.255438623999993
 30
0.0
 11
793.75554933070009
 21
-52.255438623999993
 31
0.0
  0
LINE
  5
1FD
  8
ﾚｲﾔ_1
  6
STITCH
 10
568.75554933069998
 20
-45.255438623999993
 30
0.0
 11
793.75554933070009
 21
-45.255438623999993
 31
0.0
  0
LINE
  5
1FE
  8
ﾚｲﾔ_1
  6
STITCH
 10
568.75554933069998
 20
-52.255438623999993
 30
0.0
 11
568.75554933069998
 21
-45.255438623999993
 31
0.0
  0
LINE
  5
1FF
  8
ﾚｲﾔ_1
  6
STITCH
 10
793.75554933070009
 20
-45.255438623999993
 30
0.0
 11
793.75554933070009
 21
-52.255438623999993
 31
0.0
  0
ENDBLK
  5
200
  8
0
  0
BLOCK
  8
0
  2
*D18
 70
     1
 10
0.0
 20
0.0
 30
0.0
  3
*D18
  1

  0
TEXT
  5
203
  8
0
 62
     0
 10
665.38054980749996
 20
-435.56436677080001
 30
0.0
 40
5.9972220420999998
  1
(217)内寸
  0
LINE
  5
204
  8
0
 62
     0
 10
572.75554933069998
 20
-407.341189633
 30
0.0
 11
572.75554933069998
 21
-438.12270007239999
 31
0.0
  0
LINE
  5
205
  8
0
 62
     0
 10
789.75554933070009
 20
-407.341189633
 30
0.0
 11
789.75554933070009
 21
-438.12270007239999
 31
0.0
  0
LINE
  5
206
  8
0
 62
     0
 10
572.75554933069998
 20
-437.62270007239988
 30
0.0
 11
700.65832652570009
 21
-437.62270007239988
 31
0.0
  0
LINE
  5
207
  8
0
 62
     0
 10
572.75554933069998
 20
-437.62270007239988
 30
0.0
 11
661.85277213569998
 21
-437.62270007239988
 31
0.0
  0
LINE
  5
208
  8
0
 62
     0
 10
789.75554933070009
 20
-437.62270007239988
 30
0.0
 11
700.65832652570009
 21
-437.62270007239988
 31
0.0
  0
LINE
  5
209
  8
0
 62
     0
 10
789.75554933070009
 20
-437.62270007239988
 30
0.0
 11
661.85277213569998
 21
-437.62270007239988
 31
0.0
  0
LINE
  5
20A
  8
0
 62
     0
 10
789.75554933070009
 20
-437.62270007239988
 30
0.0
 11
786.75554933069998
 21
-437.62270007239988
 31
0.0
  0
SOLID
  5
20B
  8
0
 62
     0
 10
789.75554933070009
 20
-437.62270007239988
 30
0.0
 11
783.75554933070009
 21
-439.12270007239999
 31
0.0
 12
783.75554933070009
 22
-436.12270007239988
 32
0.0
 13
785.25554933070009
 23
-437.62270007239988
 33
0.0
  0
LINE
  5
20C
  8
0
 62
     0
 10
572.75554933069998
 20
-437.62270007239988
 30
0.0
 11
575.75554933069986
 21
-437.62270007239988
 31
0.0
  0
SOLID
  5
20D
  8
0
 62
     0
 10
572.75554933069998
 20
-437.62270007239988
 30
0.0
 11
578.75554933069986
 21
-436.12270007239988
 31
0.0
 12
578.75554933069986
 22
-439.12270007239999
 32
0.0
 13
577.25554933069998
 23
-437.62270007239988
 33
0.0
  0
ENDBLK
  5
20E
  8
0
  0
BLOCK
  8
0
  2
BALLON3
 70
     0
 10
0.0
 20
0.0
 30
0.0
  3
BALLON3
  1

  0
INSERT
  5
25D
  8
0
  6
CONTINUOUS
  2
*U70
 10
0.0
 20
0.0
 30
0.0
  0
CIRCLE
  5
25E
  8
ﾚｲﾔ_1
 10
881.04522730589986
 20
-208.31004728400001
 30
0.0
 40
8.0
  0
LINE
  5
25F
  8
寸法線
 10
894.37856063919992
 20
-208.31004728400001
 30
0.0
 11
889.04522730589986
 21
-208.31004728400001
 31
0.0
  0
LINE
  5
260
  8
寸法線
 10
947.97363266399987
 20
-194.82587223780001
 30
0.0
 11
894.37856063919992
 21
-208.31004728400001
 31
0.0
  0
SOLID
  5
261
  8
寸法線
 10
947.97363266399987
 20
-194.82587223780001
 30
0.0
 11
940.6057941299
 21
-198.32943547190001
 31
0.0
 12
941.76705483249998
 22
-196.38740725880001
 32
0.0
 13
941.76705483249998
 23
-196.38740725880001
 33
0.0
  0
SOLID
  5
262
  8
寸法線
 10
941.76705483249998
 20
-196.38740725880001
 30
0.0
 11
939.82502661939986
 21
-195.22614655619989
 31
0.0
 12
947.97363266399987
 22
-194.82587223780001
 32
0.0
 13
947.97363266399987
 23
-194.82587223780001
 33
0.0
  0
ENDBLK
  5
263
  8
0
  0
BLOCK
  8
0
  2
*D20
 70
     1
 10
0.0
 20
0.0
 30
0.0
  3
*D20
  1

  0
TEXT
  5
268
  8
0
 62
     0
 10
813.69721602920004
 20
-213.28321629589999
 30
0.0
 40
5.9972220420999998
  1
10
 50
90.0
  0
LINE
  5
269
  8
0
 62
     0
 10
796.75554933070009
 20
-214.75543862399999
 30
0.0
 11
816.25554933070009
 21
-214.75543862399999
 31
0.0
  0
LINE
  5
26A
  8
0
 62
     0
 10
786.75554933069998
 20
-204.75543862399999
 30
0.0
 11
816.25554933070009
 21
-204.75543862399999
 31
0.0
  0
LINE
  5
26B
  8
0
 62
     0
 10
815.75554933069998
 20
-214.75543862399999
 30
0.0
 11
815.75554933069998
 21
-214.75543862399999
 31
0.0
  0
LINE
  5
26C
  8
0
 62
     0
 10
815.75554933069998
 20
-214.75543862399999
 30
0.0
 11
815.75554933069998
 21
-204.75543862399999
 31
0.0
  0
LINE
  5
26D
  8
0
 62
     0
 10
815.75554933069998
 20
-204.75543862399999
 30
0.0
 11
815.75554933069998
 21
-214.75543862399999
 31
0.0
  0
LINE
  5
26E
  8
0
 62
     0
 10
815.75554933069998
 20
-204.75543862399999
 30
0.0
 11
815.75554933069998
 21
-204.75543862399999
 31
0.0
  0
LINE
  5
26F
  8
0
 62
     0
 10
815.75554933069998
 20
-204.75543862399999
 30
0.0
 11
815.75554933069998
 21
-201.75543862399999
 31
0.0
  0
SOLID
  5
270
  8
0
 62
     0
 10
815.75554933069998
 20
-204.75543862399999
 30
0.0
 11
814.25554933069998
 21
-198.75543862399999
 31
0.0
 12
817.25554933070009
 22
-198.75543862399999
 32
0.0
 13
815.75554933069998
 23
-200.25543862399999
 33
0.0
  0
LINE
  5
271
  8
0
 62
     0
 10
815.75554933069998
 20
-214.75543862399999
 30
0.0
 11
815.75554933069998
 21
-217.75543862399999
 31
0.0
  0
SOLID
  5
272
  8
0
 62
     0
 10
815.75554933069998
 20
-214.75543862399999
 30
0.0
 11
817.25554933070009
 21
-220.75543862399999
 31
0.0
 12
814.25554933069998
 22
-220.75543862399999
 32
0.0
 13
815.75554933069998
 23
-219.25543862399999
 33
0.0
  0
ENDBLK
  5
273
  8
0
  0
BLOCK
  8
0
  2
BALLON4
 70
     0
 10
0.0
 20
0.0
 30
0.0
  3
BALLON4
  1

  0
INSERT
  5
291
  8
0
  6
CONTINUOUS
  2
*U71
 10
0.0
 20
0.0
 30
0.0
  0
CIRCLE
  5
292
  8
ﾚｲﾔ_1
 10
-302.25055587409997
 20
-126.77349939280001
 30
0.0
 40
8.0
  0
LINE
  5
293
  8
寸法線
 10
-288.91722254069998
 20
-126.77349939280001
 30
0.0
 11
-294.25055587409997
 21
-126.77349939280001
 31
0.0
  0
LINE
  5
294
  8
寸法線
 10
-261.5023933775999
 20
-180.25089570110001
 30
0.0
 11
-288.91722254069998
 21
-126.77349939280001
 31
0.0
  0
SOLID
  5
295
  8
寸法線
 10
-261.5023933775999
 20
-180.25089570110001
 30
0.0
 11
-266.5757380291999
 21
-173.86175068430001
 31
0.0
 12
-264.4220207994
 22
-174.55565420330001
 32
0.0
 13
-264.4220207994
 23
-174.55565420330001
 33
0.0
  0
SOLID
  5
296
  8
寸法線
 10
-264.4220207994
 20
-174.55565420330001
 30
0.0
 11
-263.72811728030001
 21
-172.40193697340001
 31
0.0
 12
-261.5023933775999
 22
-180.25089570110001
 32
0.0
 13
-261.5023933775999
 23
-180.25089570110001
 33
0.0
  0
ENDBLK
  5
297
  8
0
  0
BLOCK
  8
0
  2
BALLON5
 70
     0
 10
0.0
 20
0.0
 30
0.0
  3
BALLON5
  1

  0
INSERT
  5
2AD
  8
0
  6
CONTINUOUS
  2
*U73
 10
0.0
 20
0.0
 30
0.0
  0
CIRCLE
  5
2AE
  8
ﾚｲﾔ_1
 10
-302.25055587409997
 20
-91.542754520599999
 30
0.0
 40
8.0
  0
LINE
  5
2AF
  8
寸法線
 10
-288.91722254069998
 20
-91.542754520599999
 30
0.0
 11
-294.25055587409997
 21
-91.542754520599999
 31
0.0
  0
LINE
  5
2B0
  8
寸法線
 10
-241.6027238854
 20
-54.187142985000001
 30
0.0
 11
-288.91722254069998
 21
-91.542754520599999
 31
0.0
  0
SOLID
  5
2B1
  8
寸法線
 10
-241.6027238854
 20
-54.187142985000001
 30
0.0
 11
-246.89018851150001
 21
-60.4002515329
 31
0.0
 12
-246.6258672205
 22
-58.1530011563
 32
0.0
 13
-246.6258672205
 23
-58.1530011563
 33
0.0
  0
SOLID
  5
2B2
  8
寸法線
 10
-246.6258672205
 20
-58.1530011563
 30
0.0
 11
-248.87311759709999
 21
-57.888679865299999
 31
0.0
 12
-241.6027238854
 22
-54.187142985000001
 32
0.0
 13
-241.6027238854
 23
-54.187142985000001
 33
0.0
  0
ENDBLK
  5
2B3
  8
0
  0
BLOCK
  8
0
  2
*D23
 70
     1
 10
0.0
 20
0.0
 30
0.0
  3
*D23
  1

  0
TEXT
  5
2B8
  8
0
 62
     0
 10
565.2277716589
 20
-5.6971053224999988
 30
0.0
 40
5.9972220420999998
  1
10
  0
LINE
  5
2B9
  8
0
 62
     0
 10
573.75554933069998
 20
-36.755438624
 30
0.0
 11
573.75554933069998
 21
-7.2554386239999991
 31
0.0
  0
LINE
  5
2BA
  8
0
 62
     0
 10
563.75554933069986
 20
-26.755438624
 30
0.0
 11
563.75554933069986
 21
-7.2554386239999991
 31
0.0
  0
LINE
  5
2BB
  8
0
 62
     0
 10
573.75554933069998
 20
-7.7554386239999991
 30
0.0
 11
573.75554933069998
 21
-7.7554386239999991
 31
0.0
  0
LINE
  5
2BC
  8
0
 62
     0
 10
573.75554933069998
 20
-7.7554386239999991
 30
0.0
 11
563.75554933069986
 21
-7.7554386239999991
 31
0.0
  0
LINE
  5
2BD
  8
0
 62
     0
 10
563.75554933069986
 20
-7.7554386239999991
 30
0.0
 11
573.75554933069998
 21
-7.7554386239999991
 31
0.0
  0
LINE
  5
2BE
  8
0
 62
     0
 10
563.75554933069986
 20
-7.7554386239999991
 30
0.0
 11
563.75554933069986
 21
-7.7554386239999991
 31
0.0
  0
LINE
  5
2BF
  8
0
 62
     0
 10
563.75554933069986
 20
-7.7554386239999991
 30
0.0
 11
560.75554933069998
 21
-7.7554386239999991
 31
0.0
  0
SOLID
  5
2C0
  8
0
 62
     0
 10
563.75554933069986
 20
-7.7554386239999991
 30
0.0
 11
557.75554933069986
 21
-9.2554386239999982
 31
0.0
 12
557.75554933069986
 22
-6.2554386239999991
 32
0.0
 13
559.25554933069986
 23
-7.7554386239999991
 33
0.0
  0
LINE
  5
2C1
  8
0
 62
     0
 10
573.75554933069998
 20
-7.7554386239999991
 30
0.0
 11
576.75554933069986
 21
-7.7554386239999991
 31
0.0
  0
SOLID
  5
2C2
  8
0
 62
     0
 10
573.75554933069998
 20
-7.7554386239999991
 30
0.0
 11
579.75554933069986
 21
-6.2554386239999991
 31
0.0
 12
579.75554933069986
 22
-9.2554386239999982
 32
0.0
 13
578.25554933069998
 23
-7.7554386239999991
 33
0.0
  0
ENDBLK
  5
2C3
  8
0
  0
BLOCK
  8
0
  2
*D24
 70
     1
 10
0.0
 20
0.0
 30
0.0
  3
*D24
  1

  0
TEXT
  5
2EE
  8
0
 62
     0
 10
941.01013966149992
 20
-2.6971053225000001
 30
0.0
 40
5.9972220420999998
  1
6
  0
LINE
  5
2EF
  8
0
 62
     0
 10
945.77402849740008
 20
-23.755438624
 30
0.0
 11
945.77402849740008
 21
-4.2554386239999991
 31
0.0
  0
LINE
  5
2F0
  8
0
 62
     0
 10
939.77402849739997
 20
-24.755438624
 30
0.0
 11
939.77402849739997
 21
-4.2554386239999991
 31
0.0
  0
LINE
  5
2F1
  8
0
 62
     0
 10
945.77402849740008
 20
-4.7554386239999991
 30
0.0
 11
945.77402849740008
 21
-4.7554386239999991
 31
0.0
  0
LINE
  5
2F2
  8
0
 62
     0
 10
945.77402849740008
 20
-4.7554386239999991
 30
0.0
 11
939.77402849739997
 21
-4.7554386239999991
 31
0.0
  0
LINE
  5
2F3
  8
0
 62
     0
 10
939.77402849739997
 20
-4.7554386239999991
 30
0.0
 11
945.77402849740008
 21
-4.7554386239999991
 31
0.0
  0
LINE
  5
2F4
  8
0
 62
     0
 10
939.77402849739997
 20
-4.7554386239999991
 30
0.0
 11
939.77402849739997
 21
-4.7554386239999991
 31
0.0
  0
LINE
  5
2F5
  8
0
 62
     0
 10
939.77402849739997
 20
-4.7554386239999991
 30
0.0
 11
936.77402849740008
 21
-4.7554386239999991
 31
0.0
  0
SOLID
  5
2F6
  8
0
 62
     0
 10
939.77402849739997
 20
-4.7554386239999991
 30
0.0
 11
933.77402849740008
 21
-6.2554386239999991
 31
0.0
 12
933.77402849740008
 22
-3.2554386239999991
 32
0.0
 13
935.27402849739997
 23
-4.7554386239999991
 33
0.0
  0
LINE
  5
2F7
  8
0
 62
     0
 10
945.77402849740008
 20
-4.7554386239999991
 30
0.0
 11
948.77402849739997
 21
-4.7554386239999991
 31
0.0
  0
SOLID
  5
2F8
  8
0
 62
     0
 10
945.77402849740008
 20
-4.7554386239999991
 30
0.0
 11
951.77402849740008
 21
-3.2554386239999991
 31
0.0
 12
951.77402849740008
 22
-6.2554386239999991
 32
0.0
 13
950.27402849740008
 23
-4.7554386239999991
 33
0.0
  0
ENDBLK
  5
2F9
  8
0
  0
BLOCK
  8
0
  2
*D25
 70
     1
 10
0.0
 20
0.0
 30
0.0
  3
*D25
  1

  0
TEXT
  5
2FD
  8
0
 62
     0
 10
917.21539154020013
 20
-40.283216295899997
 30
0.0
 40
5.9972220420999998
  1
24
 50
90.0
  0
LINE
  5
2FE
  8
0
 62
     0
 10
939.77402849739997
 20
-24.755438624
 30
0.0
 11
919.27372484179978
 21
-24.755438624
 31
0.0
  0
LINE
  5
2FF
  8
0
 62
     0
 10
939.27372484179989
 20
-48.755438623999993
 30
0.0
 11
919.27372484179978
 21
-48.755438623999993
 31
0.0
  0
LINE
  5
300
  8
0
 62
     0
 10
920.27372484179989
 20
-24.755438624
 30
0.0
 11
920.27372484179989
 21
-29.699883280400002
 31
0.0
  0
LINE
  5
301
  8
0
 62
     0
 10
920.27372484179989
 20
-24.755438624
 30
0.0
 11
920.27372484179989
 21
-43.8109939677
 31
0.0
  0
LINE
  5
302
  8
0
 62
     0
 10
920.27372484179989
 20
-48.755438623999993
 30
0.0
 11
920.27372484179989
 21
-29.699883280400002
 31
0.0
  0
LINE
  5
303
  8
0
 62
     0
 10
920.27372484179989
 20
-48.755438623999993
 30
0.0
 11
920.27372484179989
 21
-43.8109939677
 31
0.0
  0
LINE
  5
304
  8
0
 62
     0
 10
920.27372484179989
 20
-48.755438623999993
 30
0.0
 11
920.27372484179989
 21
-54.755438623999993
 31
0.0
  0
SOLID
  5
305
  8
0
 62
     0
 10
920.27372484179989
 20
-48.755438623999993
 30
0.0
 11
921.77372484179978
 21
-54.755438623999993
 31
0.0
 12
918.77372484179989
 22
-54.755438623999993
 32
0.0
 13
920.27372484179989
 23
-53.255438623999993
 33
0.0
  0
LINE
  5
306
  8
0
 62
     0
 10
920.27372484179989
 20
-24.755438624
 30
0.0
 11
920.27372484179989
 21
-18.755438624
 31
0.0
  0
SOLID
  5
307
  8
0
 62
     0
 10
920.27372484179989
 20
-24.755438624
 30
0.0
 11
918.77372484179989
 21
-18.755438624
 31
0.0
 12
921.77372484179978
 22
-18.755438624
 32
0.0
 13
920.27372484179989
 23
-20.255438624
 33
0.0
  0
ENDBLK
  5
308
  8
0
  0
BLOCK
  8
0
  2
*D26
 70
     1
 10
0.0
 20
0.0
 30
0.0
  3
*D26
  1

  0
TEXT
  5
30C
  8
0
 62
     0
 10
790.2277716589
 20
-5.6971053224999988
 30
0.0
 40
5.9972220420999998
  1
10
  0
LINE
  5
30D
  8
0
 62
     0
 10
798.75554933069998
 20
-26.755438624
 30
0.0
 11
798.75554933069998
 21
-7.2554386239999991
 31
0.0
  0
LINE
  5
30E
  8
0
 62
     0
 10
788.75554933070009
 20
-36.755438624
 30
0.0
 11
788.75554933070009
 21
-7.2554386239999991
 31
0.0
  0
LINE
  5
30F
  8
0
 62
     0
 10
798.75554933069998
 20
-7.7554386239999991
 30
0.0
 11
798.75554933069998
 21
-7.7554386239999991
 31
0.0
  0
LINE
  5
310
  8
0
 62
     0
 10
798.75554933069998
 20
-7.7554386239999991
 30
0.0
 11
788.75554933070009
 21
-7.7554386239999991
 31
0.0
  0
LINE
  5
311
  8
0
 62
     0
 10
788.75554933070009
 20
-7.7554386239999991
 30
0.0
 11
798.75554933069998
 21
-7.7554386239999991
 31
0.0
  0
LINE
  5
312
  8
0
 62
     0
 10
788.75554933070009
 20
-7.7554386239999991
 30
0.0
 11
788.75554933070009
 21
-7.7554386239999991
 31
0.0
  0
LINE
  5
313
  8
0
 62
     0
 10
788.75554933070009
 20
-7.7554386239999991
 30
0.0
 11
785.75554933070009
 21
-7.7554386239999991
 31
0.0
  0
SOLID
  5
314
  8
0
 62
     0
 10
788.75554933070009
 20
-7.7554386239999991
 30
0.0
 11
782.75554933069998
 21
-9.2554386239999982
 31
0.0
 12
782.75554933069998
 22
-6.2554386239999991
 32
0.0
 13
784.25554933070009
 23
-7.7554386239999991
 33
0.0
  0
LINE
  5
315
  8
0
 62
     0
 10
798.75554933069998
 20
-7.7554386239999991
 30
0.0
 11
801.75554933069998
 21
-7.7554386239999991
 31
0.0
  0
SOLID
  5
316
  8
0
 62
     0
 10
798.75554933069998
 20
-7.7554386239999991
 30
0.0
 11
804.75554933070009
 21
-6.2554386239999991
 31
0.0
 12
804.75554933070009
 22
-9.2554386239999982
 32
0.0
 13
803.25554933069998
 23
-7.7554386239999991
 33
0.0
  0
ENDBLK
  5
317
  8
0
  0
BLOCK
  8
0
  2
*D27
 70
     1
 10
0.0
 20
0.0
 30
0.0
  3
*D27
  1

  0
TEXT
  5
31B
  8
0
 62
     0
 10
813.69721602920004
 20
-33.283216295899997
 30
0.0
 40
5.9972220420999998
  1
10
 50
90.0
  0
LINE
  5
31C
  8
0
 62
     0
 10
786.75554933069998
 20
-34.755438624
 30
0.0
 11
816.25554933070009
 21
-34.755438624
 31
0.0
  0
LINE
  5
31D
  8
0
 62
     0
 10
796.75554933070009
 20
-24.755438624
 30
0.0
 11
816.25554933070009
 21
-24.755438624
 31
0.0
  0
LINE
  5
31E
  8
0
 62
     0
 10
815.75554933069998
 20
-34.755438624
 30
0.0
 11
815.75554933069998
 21
-34.755438624
 31
0.0
  0
LINE
  5
31F
  8
0
 62
     0
 10
815.75554933069998
 20
-34.755438624
 30
0.0
 11
815.75554933069998
 21
-24.755438624
 31
0.0
  0
LINE
  5
320
  8
0
 62
     0
 10
815.75554933069998
 20
-24.755438624
 30
0.0
 11
815.75554933069998
 21
-34.755438624
 31
0.0
  0
LINE
  5
321
  8
0
 62
     0
 10
815.75554933069998
 20
-24.755438624
 30
0.0
 11
815.75554933069998
 21
-24.755438624
 31
0.0
  0
LINE
  5
322
  8
0
 62
     0
 10
815.75554933069998
 20
-24.755438624
 30
0.0
 11
815.75554933069998
 21
-21.755438624
 31
0.0
  0
SOLID
  5
323
  8
0
 62
     0
 10
815.75554933069998
 20
-24.755438624
 30
0.0
 11
814.25554933069998
 21
-18.755438624
 31
0.0
 12
817.25554933070009
 22
-18.755438624
 32
0.0
 13
815.75554933069998
 23
-20.255438624
 33
0.0
  0
LINE
  5
324
  8
0
 62
     0
 10
815.75554933069998
 20
-34.755438624
 30
0.0
 11
815.75554933069998
 21
-37.755438624
 31
0.0
  0
SOLID
  5
325
  8
0
 62
     0
 10
815.75554933069998
 20
-34.755438624
 30
0.0
 11
817.25554933070009
 21
-40.755438623999993
 31
0.0
 12
814.25554933069998
 22
-40.755438623999993
 32
0.0
 13
815.75554933069998
 23
-39.255438624
 33
0.0
  0
ENDBLK
  5
326
  8
0
  0
BLOCK
  8
0
  2
*U28
 70
     1
 10
0.0
 20
0.0
 30
0.0
  3
*U28
  1

  0
TEXT
  5
365
  8
図枠
  6
CONTINUOUS
 10
1005.250142282536
 20
-361.57736201853709
 30
0.0
 40
5.3974999188999986
  1
フック
  0
ENDBLK
  5
367
  8
0
  0
BLOCK
  8
0
  2
*U29
 70
     1
 10
0.0
 20
0.0
 30
0.0
  3
*U29
  1

  0
TEXT
  5
369
  8
図枠
  6
CONTINUOUS
 10
990.92073894454245
 20
-371.65955744877408
 30
0.0
 40
5.3974999188999986
  1
イカリ型つまみ
  0
ENDBLK
  5
36B
  8
0
  0
BLOCK
  8
0
  2
*U30
 70
     1
 10
0.0
 20
0.0
 30
0.0
  3
*U30
  1

  0
TEXT
  5
36D
  8
図枠
  6
CONTINUOUS
 10
1122.8659419910509
 20
51.872848644243149
 30
0.0
 40
5.3974999188999986
  1
改　訂　内　容
  0
ENDBLK
  5
36F
  8
0
  0
BLOCK
  8
0
  2
*U31
 70
     1
 10
0.0
 20
0.0
 30
0.0
  3
*U31
  1

  0
TEXT
  5
371
  8
図枠
  6
CONTINUOUS
 10
1070.7158719859949
 20
51.927645597734518
 30
0.0
 40
5.3974999188999986
  1
改訂日
  0
ENDBLK
  5
373
  8
0
  0
BLOCK
  8
0
  2
*U32
 70
     1
 10
0.0
 20
0.0
 30
0.0
  3
*U32
  1

  0
TEXT
  5
375
  8
図枠
  6
CONTINUOUS
 10
1050.250275486188
 20
51.982442551225887
 30
0.0
 40
5.3974999188999986
  1
副番
  0
ENDBLK
  5
377
  8
0
  0
BLOCK
  8
0
  2
*U33
 70
     1
 10
0.0
 20
0.0
 30
0.0
  3
*U33
  1

  0
TEXT
  5
379
  8
図枠
  6
CONTINUOUS
 10
957.8836738775999
 20
-494.67376632901062
 30
0.0
 40
10.794999837900001
  1
株式会社
  0
ENDBLK
  5
37B
  8
0
  0
BLOCK
  8
0
  2
*U34
 70
     1
 10
0.0
 20
0.0
 30
0.0
  3
*U34
  1

  0
TEXT
  5
37D
  8
図枠
  6
CONTINUOUS
 10
1216.921360561588
 20
51.845450167497468
 30
0.0
 40
5.3974999188999986
  1
検認者
  0
ENDBLK
  5
37F
  8
0
  0
BLOCK
  8
0
  2
*U35
 70
     1
 10
0.0
 20
0.0
 30
0.0
  3
*U35
  1

  0
TEXT
  5
381
  8
図枠
  6
CONTINUOUS
 10
1099.7341821775051
 20
-486.00554522039641
 30
0.0
 40
5.9972220420999998
  1
図 番
  0
ENDBLK
  5
383
  8
0
  0
BLOCK
  8
0
  2
*U36
 70
     1
 10
0.0
 20
0.0
 30
0.0
  3
*U36
  1

  0
TEXT
  5
385
  8
図枠
  6
CONTINUOUS
 10
1097.648853700937
 20
-442.12731622632748
 30
0.0
 40
5.9972220420999998
  1
製品名
  0
ENDBLK
  5
387
  8
0
  0
BLOCK
  8
0
  2
*U37
 70
     1
 10
0.0
 20
0.0
 30
0.0
  3
*U37
  1

  0
TEXT
  5
389
  8
図枠
  6
CONTINUOUS
 10
1097.8162888340919
 20
-464.06643072336198
 30
0.0
 40
5.9972220420999998
  1
図面名
  0
ENDBLK
  5
38B
  8
0
  0
BLOCK
  8
0
  2
*U38
 70
     1
 10
0.0
 20
0.0
 30
0.0
  3
*U38
  1

  0
TEXT
  5
38D
  8
図枠
  6
CONTINUOUS
 10
957.40670066802545
 20
-442.76393329683088
 30
0.0
 40
5.9972220420999998
  1
日　　付
  0
ENDBLK
  5
38F
  8
0
  0
BLOCK
  8
0
  2
*U39
 70
     1
 10
0.0
 20
0.0
 30
0.0
  3
*U39
  1

  0
TEXT
  5
391
  8
図枠
  6
CONTINUOUS
 10
1006.767402886888
 20
-442.9465898057274
 30
0.0
 40
5.9972220420999998
  1
尺　　度
  0
ENDBLK
  5
393
  8
0
  0
BLOCK
  8
0
  2
*U40
 70
     1
 10
0.0
 20
0.0
 30
0.0
  3
*U40
  1

  0
TEXT
  5
395
  8
図枠
  6
CONTINUOUS
 10
1197.003555991824
 20
51.872848644243149
 30
0.0
 40
5.3974999188999986
  1
改訂者
  0
ENDBLK
  5
397
  8
0
  0
BLOCK
  8
0
  2
*U41
 70
     1
 10
0.0
 20
0.0
 30
0.0
  3
*U41
  1

  0
TEXT
  5
399
  8
図枠
  6
CONTINUOUS
 10
948.69773964814215
 20
-422.27754522039641
 30
0.0
 40
5.9972220420999998
  1
品番
  0
ENDBLK
  5
39B
  8
0
  0
BLOCK
  8
0
  2
*U42
 70
     1
 10
0.0
 20
0.0
 30
0.0
  3
*U42
  1

  0
TEXT
  5
39D
  8
図枠
  6
CONTINUOUS
 10
947.00400000399986
 20
-475.9465898057274
 30
0.0
 40
5.9972220420999998
  1
 製図
  0
ENDBLK
  5
39F
  8
0
  0
BLOCK
  8
0
  2
*U43
 70
     1
 10
0.0
 20
0.0
 30
0.0
  3
*U43
  1

  0
TEXT
  5
3A1
  8
図枠
  6
CONTINUOUS
 10
947.00400000399986
 20
-464.88570430276189
 30
0.0
 40
5.9972220420999998
  1
 設計
  0
ENDBLK
  5
3A3
  8
0
  0
BLOCK
  8
0
  2
*U44
 70
     1
 10
0.0
 20
0.0
 30
0.0
  3
*U44
  1

  0
TEXT
  5
3A5
  8
図枠
  6
CONTINUOUS
 10
1022.004000004
 20
-475.97703255721012
 30
0.0
 40
5.9972220420999998
  1
 検図
  0
ENDBLK
  5
3A7
  8
0
  0
BLOCK
  8
0
  2
*U45
 70
     1
 10
0.0
 20
0.0
 30
0.0
  3
*U45
  1

  0
TEXT
  5
3A9
  8
図枠
  6
CONTINUOUS
 10
1022.004000004
 20
-464.91614705424462
 30
0.0
 40
5.9972220420999998
  1
 照査
  0
ENDBLK
  5
3AB
  8
0
  0
BLOCK
  8
0
  2
*U46
 70
     1
 10
0.0
 20
0.0
 30
0.0
  3
*U46
  1

  0
TEXT
  5
3AD
  8
図枠
  6
CONTINUOUS
 10
1158.499861763504
 20
-422.39931622632741
 30
0.0
 40
5.9972220420999998
  1
数量
  0
ENDBLK
  5
3AF
  8
0
  0
BLOCK
  8
0
  2
*U47
 70
     1
 10
0.0
 20
0.0
 30
0.0
  3
*U47
  1

  0
TEXT
  5
3B1
  8
図枠
  6
CONTINUOUS
 10
1187.525249853976
 20
-422.49064448077559
 30
0.0
 40
5.9972220420999998
  1
備　　　考
  0
ENDBLK
  5
3B3
  8
0
  0
BLOCK
  8
0
  2
*U48
 70
     1
 10
0.0
 20
0.0
 30
0.0
  3
*U48
  1

  0
TEXT
  5
3B5
  8
図枠
  6
CONTINUOUS
 10
1091.8098451941321
 20
-422.30798797187919
 30
0.0
 40
5.9972220420999998
  1
材　　　質
  0
ENDBLK
  5
3B7
  8
0
  0
BLOCK
  8
0
  2
*U49
 70
     1
 10
0.0
 20
0.0
 30
0.0
  3
*U49
  1

  0
TEXT
  5
3B9
  8
図枠
  6
CONTINUOUS
 10
996.0381658302523
 20
-422.33843072336202
 30
0.0
 40
5.9972220420999998
  1
品　　　名
  0
ENDBLK
  5
3BB
  8
0
  0
BLOCK
  8
0
  2
*U50
 70
     1
 10
0.0
 20
0.0
 30
0.0
  3
*U50
  1

  0
TEXT
  5
3BD
  8
図枠
  6
CONTINUOUS
 10
1142.7101525038699
 20
-492.58933295780002
 30
0.0
 40
7.1966662884000003
  1
ＳＢＷ０００３６
  0
ENDBLK
  5
3BF
  8
0
  0
BLOCK
  8
0
  2
*U51
 70
     1
 10
0.0
 20
0.0
 30
0.0
  3
*U51
  1

  0
TEXT
  5
3C1
  8
ﾚｲﾔ_1
  6
CONTINUOUS
 62
     5
 10
637.93955276309134
 20
-175.01224724929889
 30
0.0
 40
21.462499999999999
  1
散 水 栓
 50
90.0
  0
ENDBLK
  5
3C3
  8
0
  0
BLOCK
  8
0
  2
*U52
 70
     1
 10
0.0
 20
0.0
 30
0.0
  3
*U52
  1

  0
TEXT
  5
3C5
  8
ﾚｲﾔ_1
  6
CONTINUOUS
 10
-414.30117424039281
 20
-267.8261064253
 30
0.0
 40
5.9972220420999998
  1
2
  0
ENDBLK
  5
3C7
  8
0
  0
BLOCK
  8
0
  2
*U53
 70
     1
 10
0.0
 20
0.0
 30
0.0
  3
*U53
  1

  0
TEXT
  5
3C9
  8
ﾚｲﾔ_1
  6
CONTINUOUS
 10
981.93290952380005
 20
-250.70533096495939
 30
0.0
 40
5.3974999188999986
  1
プレスカシメ
  0
ENDBLK
  5
3CB
  8
0
  0
BLOCK
  8
0
  2
*U54
 70
     1
 10
0.0
 20
0.0
 30
0.0
  3
*U54
  1

  0
TEXT
  5
3CD
  8
図枠
  6
CONTINUOUS
 10
964.25631975164231
 20
-453.65649697829991
 30
0.0
 40
5.9972220420999998
  1
H9.3
  0
ENDBLK
  5
3CF
  8
0
  0
BLOCK
  8
0
  2
*U55
 70
     1
 10
0.0
 20
0.0
 30
0.0
  3
*U55
  1

  0
TEXT
  5
3D1
  8
図枠
  6
CONTINUOUS
 10
983.42283846428222
 20
-464.97703255721012
 30
0.0
 40
5.9972220420999998
  1
白須賀
  0
ENDBLK
  5
3D3
  8
0
  0
BLOCK
  8
0
  2
*U56
 70
     1
 10
0.0
 20
0.0
 30
0.0
  3
*U56
  1

  0
TEXT
  5
3D5
  8
図枠
  6
CONTINUOUS
 10
985.21896080176384
 20
-476.00747530869279
 30
0.0
 40
5.9972220420999998
  1
岸 本
  0
ENDBLK
  5
3D7
  8
0
  0
BLOCK
  8
0
  2
*U57
 70
     1
 10
0.0
 20
0.0
 30
0.0
  3
*U57
  1

  0
TEXT
  5
3D9
  8
図枠
  6
CONTINUOUS
 10
1011.798378224755
 20
-411.76915135575678
 30
0.0
 40
5.3974999188999986
  1
枠
  0
ENDBLK
  5
3DB
  8
0
  0
BLOCK
  8
0
  2
*U58
 70
     1
 10
0.0
 20
0.0
 30
0.0
  3
*U58
  1

  0
TEXT
  5
3DD
  8
図枠
  6
CONTINUOUS
 10
1011.7298820328911
 20
-401.74175287901119
 30
0.0
 40
5.3974999188999986
  1
蓋
  0
ENDBLK
  5
3DF
  8
0
  0
BLOCK
  8
0
  2
*U59
 70
     1
 10
0.0
 20
0.0
 30
0.0
  3
*U59
  1

  0
TEXT
  5
3E1
  8
図枠
  6
CONTINUOUS
 10
996.05795333435844
 20
-381.74175287901119
 30
0.0
 40
5.3974999188999986
  1
扉 受 け 軸
  0
ENDBLK
  5
3E3
  8
0
  0
BLOCK
  8
0
  2
*U60
 70
     1
 10
0.0
 20
0.0
 30
0.0
  3
*U60
  1

  0
TEXT
  5
3E5
  8
図枠
  6
CONTINUOUS
 10
1001.332160107903
 20
-391.79654983250259
 30
0.0
 40
5.3974999188999986
  1
本　　体
  0
ENDBLK
  5
3E7
  8
0
  0
BLOCK
  8
0
  2
*U61
 70
     1
 10
0.0
 20
0.0
 30
0.0
  3
*U61
  1

  0
TEXT
  5
3E9
  8
ﾚｲﾔ_1
  6
CONTINUOUS
 10
-481.8889075895101
 20
-267.8261064253
 30
0.0
 40
5.9972220420999998
  1
3
  0
ENDBLK
  5
3EB
  8
0
  0
BLOCK
  8
0
  2
*U62
 70
     1
 10
0.0
 20
0.0
 30
0.0
  3
*U62
  1

  0
TEXT
  5
3ED
  8
ﾚｲﾔ_1
  6
CONTINUOUS
 10
-546.71920273686862
 20
-267.8261064253
 30
0.0
 40
5.9972220420999998
  1
1
  0
ENDBLK
  5
3EF
  8
0
  0
BLOCK
  8
0
  2
*U63
 70
     1
 10
0.0
 20
0.0
 30
0.0
  3
*U63
  1

  0
TEXT
  5
3F1
  8
図枠
  6
CONTINUOUS
 10
954.26419673064879
 20
-381.49516658829998
 30
0.0
 40
5.3974999188999986
  1
4
  0
ENDBLK
  5
3F3
  8
0
  0
BLOCK
  8
0
  2
*U64
 70
     1
 10
0.0
 20
0.0
 30
0.0
  3
*U64
  1

  0
TEXT
  5
3F5
  8
ﾚｲﾔ_1
  6
CONTINUOUS
 10
939.79031940773609
 20
-382.72764656250013
 30
0.0
 40
5.397499935199999
  1
1
  0
ENDBLK
  5
3F7
  8
0
  0
BLOCK
  8
0
  2
*U65
 70
     1
 10
0.0
 20
0.0
 30
0.0
  3
*U65
  1

  0
TEXT
  5
3F9
  8
図枠
  6
CONTINUOUS
 10
954.25049749227605
 20
-361.49516658829998
 30
0.0
 40
5.3974999188999986
  1
6
  0
ENDBLK
  5
3FB
  8
0
  0
BLOCK
  8
0
  2
*U66
 70
     1
 10
0.0
 20
0.0
 30
0.0
  3
*U66
  1

  0
TEXT
  5
3FD
  8
図枠
  6
CONTINUOUS
 10
954.30529444576746
 20
-371.49516658829998
 30
0.0
 40
5.3974999188999986
  1
5
  0
ENDBLK
  5
3FF
  8
0
  0
BLOCK
  8
0
  2
*U67
 70
     1
 10
0.0
 20
0.0
 30
0.0
  3
*U67
  1

  0
TEXT
  5
401
  8
図枠
  6
CONTINUOUS
 10
954.27789596902187
 20
-401.49516658829998
 30
0.0
 40
5.3974999188999986
  1
2
  0
ENDBLK
  5
403
  8
0
  0
BLOCK
  8
0
  2
*U68
 70
     1
 10
0.0
 20
0.0
 30
0.0
  3
*U68
  1

  0
TEXT
  5
405
  8
図枠
  6
CONTINUOUS
 10
954.59297845159733
 20
-411.49516658829998
 30
0.0
 40
5.3974999188999986
  1
1
  0
ENDBLK
  5
407
  8
0
  0
BLOCK
  8
0
  2
*U69
 70
     1
 10
0.0
 20
0.0
 30
0.0
  3
*U69
  1

  0
TEXT
  5
409
  8
図枠
  6
CONTINUOUS
 10
954.30529444576746
 20
-391.49516658829998
 30
0.0
 40
5.3974999188999986
  1
3
  0
ENDBLK
  5
40B
  8
0
  0
BLOCK
  8
0
  2
*U70
 70
     1
 10
0.0
 20
0.0
 30
0.0
  3
*U70
  1

  0
TEXT
  5
40D
  8
ﾚｲﾔ_1
  6
CONTINUOUS
 10
878.85513994924167
 20
-210.77949165429999
 30
0.0
 40
5.9972220420999998
  1
6
  0
ENDBLK
  5
40F
  8
0
  0
BLOCK
  8
0
  2
*U71
 70
     1
 10
0.0
 20
0.0
 30
0.0
  3
*U71
  1

  0
TEXT
  5
411
  8
ﾚｲﾔ_1
  6
CONTINUOUS
 10
-304.34931497631021
 20
-129.242943763
 30
0.0
 40
5.9972220420999998
  1
5
  0
ENDBLK
  5
413
  8
0
  0
BLOCK
  8
0
  2
*U72
 70
     1
 10
0.0
 20
0.0
 30
0.0
  3
*U72
  1

  0
TEXT
  5
415
  8
ﾚｲﾔ_1
  6
CONTINUOUS
 10
731.169376257566
 20
-98.957605478800005
 30
0.0
 40
5.9972220420999998
  1
ＨＬ
  0
ENDBLK
  5
417
  8
0
  0
BLOCK
  8
0
  2
*U73
 70
     1
 10
0.0
 20
0.0
 30
0.0
  3
*U73
  1

  0
TEXT
  5
419
  8
ﾚｲﾔ_1
  6
CONTINUOUS
 10
-304.25798672186193
 20
-94.012198890800008
 30
0.0
 40
5.9972220420999998
  1
4
  0
ENDBLK
  5
41B
  8
0
  0
BLOCK
  8
0
  2
*U74
 70
     1
 10
0.0
 20
0.0
 30
0.0
  3
*U74
  1

  0
TEXT
  5
41D
  8
ﾚｲﾔ_1
  6
CONTINUOUS
 10
820.78234132729995
 20
-1.047663416711166
 30
0.0
 40
5.3974999188999986
  1
片側溶接止め
  0
ENDBLK
  5
41F
  8
0
  0
BLOCK
  8
0
  2
*U75
 70
     1
 10
0.0
 20
0.0
 30
0.0
  3
*U75
  1

  0
TEXT
  5
421
  8
図枠
  6
CONTINUOUS
 10
1164.592978451597
 20
-371.49516658829998
 30
0.0
 40
5.3974999188999986
  1
1
  0
ENDBLK
  5
423
  8
0
  0
BLOCK
  8
0
  2
*U76
 70
     1
 10
0.0
 20
0.0
 30
0.0
  3
*U76
  1

  0
TEXT
  5
425
  8
図枠
  6
CONTINUOUS
 10
1073.4456729978911
 20
-381.78642743030002
 30
0.0
 40
5.3974999188999986
  1
ＳＵＳ３０４　φ７ φ6
  0
ENDBLK
  5
427
  8
0
  0
BLOCK
  8
0
  2
*U77
 70
     1
 10
0.0
 20
0.0
 30
0.0
  3
*U77
  1

  0
TEXT
  5
429
  8
図枠
  6
CONTINUOUS
 10
1064.4539880130801
 20
-411.49516658829998
 30
0.0
 40
5.3974999188999986
  1
ＳＵＳ３０４　１.０ｔ　ＨＬ
  0
ENDBLK
  5
42B
  8
0
  0
BLOCK
  8
0
  2
*U78
 70
     1
 10
0.0
 20
0.0
 30
0.0
  3
*U78
  1

  0
TEXT
  5
42D
  8
図枠
  6
CONTINUOUS
 10
1064.4539880130801
 20
-401.49516658829998
 30
0.0
 40
5.3974999188999986
  1
ＳＵＳ３０４　１.０ｔ　ＨＬ
  0
ENDBLK
  5
42F
  8
0
  0
BLOCK
  8
0
  2
*U79
 70
     1
 10
0.0
 20
0.0
 30
0.0
  3
*U79
  1

  0
TEXT
  5
431
  8
図枠
  6
CONTINUOUS
 10
1164.592978451597
 20
-361.49516658829998
 30
0.0
 40
5.3974999188999986
  1
1
  0
ENDBLK
  5
433
  8
0
  0
BLOCK
  8
0
  2
*U80
 70
     1
 10
0.0
 20
0.0
 30
0.0
  3
*U80
  1

  0
TEXT
  5
435
  8
図枠
  6
CONTINUOUS
 10
1064.481386489826
 20
-391.49516658829998
 30
0.0
 40
5.3974999188999986
  1
ＳＵＳ３０４　０.７ｔ　２Ｂ
  0
ENDBLK
  5
437
  8
0
  0
BLOCK
  8
0
  2
*U81
 70
     1
 10
0.0
 20
0.0
 30
0.0
  3
*U81
  1

  0
TEXT
  5
439
  8
図枠
  6
CONTINUOUS
 10
1164.592978451597
 20
-411.49516658829998
 30
0.0
 40
5.3974999188999986
  1
1
  0
ENDBLK
  5
43B
  8
0
  0
BLOCK
  8
0
  2
*U82
 70
     1
 10
0.0
 20
0.0
 30
0.0
  3
*U82
  1

  0
TEXT
  5
43D
  8
図枠
  6
CONTINUOUS
 10
1074.8380106996949
 20
-361.49516658829998
 30
0.0
 40
5.3974999188999986
  1
ＳＵＳ３０４　１.５ｔ
  0
ENDBLK
  5
43F
  8
0
  0
BLOCK
  8
0
  2
*U83
 70
     1
 10
0.0
 20
0.0
 30
0.0
  3
*U83
  1

  0
TEXT
  5
441
  8
図枠
  6
CONTINUOUS
 10
1085.3316272932921
 20
-371.87874526273959
 30
0.0
 40
5.3974999188999986
  1
タキゲンＡ-20-5
  0
ENDBLK
  5
443
  8
0
  0
BLOCK
  8
0
  2
*U84
 70
     1
 10
0.0
 20
0.0
 30
0.0
  3
*U84
  1

  0
TEXT
  5
445
  8
ﾚｲﾔ_1
  6
CONTINUOUS
 10
1055.1066182329971
 20
40.675158249799999
 30
0.0
 40
4.9752947043999987
  1
1
  0
ENDBLK
  5
447
  8
0
  0
BLOCK
  8
0
  2
*U85
 70
     1
 10
0.0
 20
0.0
 30
0.0
  3
*U85
  1

  0
TEXT
  5
449
  8
ﾚｲﾔ_1
  6
CONTINUOUS
 10
1068.3912957151731
 20
41.619950733000003
 30
0.0
 40
5.9972220420999998
  1
H16.7.8
  0
ENDBLK
  5
44B
  8
0
  0
BLOCK
  8
0
  2
*U86
 70
     1
 10
0.0
 20
0.0
 30
0.0
  3
*U86
  1

  0
TEXT
  5
44D
  8
ﾚｲﾔ_1
  6
CONTINUOUS
 10
1095.962032579705
 20
41.534216758389839
 30
0.0
 40
5.9972220420999998
  1
扉受け軸　φ７→φ６に変更
  0
ENDBLK
  5
44F
  8
0
  0
BLOCK
  8
0
  2
*U87
 70
     1
 10
0.0
 20
0.0
 30
0.0
  3
*U87
  1

  0
TEXT
  5
451
  8
ﾚｲﾔ_1
  6
CONTINUOUS
 10
1200.1321404979899
 20
42.263311620951768
 30
0.0
 40
5.3974999188999986
  1
岸本
  0
ENDBLK
  5
453
  8
0
  0
BLOCK
  8
0
  2
*U88
 70
     1
 10
0.0
 20
0.0
 30
0.0
  3
*U88
  1

  0
TEXT
  5
455
  8
ﾚｲﾔ_1
  6
CONTINUOUS
 10
1018.388397181
 20
-231.84912756637661
 30
0.0
 40
5.3974999188999986
  1
スポット溶接
  0
ENDBLK
  5
457
  8
0
  0
BLOCK
  8
0
  2
*U89
 70
     1
 10
0.0
 20
0.0
 30
0.0
  3
*U89
  1

  0
TEXT
  5
459
  8
図枠
  6
CONTINUOUS
 10
1014.043220491263
 20
-453.65649697829991
 30
0.0
 40
5.9972220420999998
  1
1：2
  0
ENDBLK
  5
45B
  8
0
  0
BLOCK
  8
0
  2
*U90
 70
     1
 10
0.0
 20
0.0
 30
0.0
  3
*U90
  1

  0
TEXT
  5
45D
  8
図枠
  6
CONTINUOUS
 10
1060.2494035532461
 20
-464.79437604831361
 30
0.0
 40
5.9972220420999998
  1
園 原
  0
ENDBLK
  5
45F
  8
0
  0
BLOCK
  8
0
  2
*U91
 70
     1
 10
0.0
 20
0.0
 30
0.0
  3
*U91
  1

  0
TEXT
  5
461
  8
図枠
  6
CONTINUOUS
 10
1060.2494035532461
 20
-475.79437604831361
 30
0.0
 40
5.9972220420999998
  1
園 原
  0
ENDBLK
  5
463
  8
0
  0
BLOCK
  8
0
  2
*U92
 70
     1
 10
0.0
 20
0.0
 30
0.0
  3
*U92
  1

  0
TEXT
  5
465
  8
図枠
  6
CONTINUOUS
 10
1134.1983593810421
 20
-470.73545816162539
 30
0.0
 40
7.1966662884000003
  1
ＳＢ２５-１３ 承認図
  0
ENDBLK
  5
467
  8
0
  0
BLOCK
  8
0
  2
*U93
 70
     1
 10
0.0
 20
0.0
 30
0.0
  3
*U93
  1

  0
TEXT
  5
469
  8
図枠
  6
CONTINUOUS
 10
1146.637267356678
 20
-449.21036507405779
 30
0.0
 40
7.1966662884000003
  1
散水栓ボックス
  0
ENDBLK
  5
46B
  8
0
  0
BLOCK
  8
0
  2
*U94
 70
     1
 10
0.0
 20
0.0
 30
0.0
  3
*U94
  1

  0
TEXT
  5
46D
  8
図枠
  6
CONTINUOUS
 10
1164.592978451597
 20
-401.49516658829998
 30
0.0
 40
5.3974999188999986
  1
1
  0
ENDBLK
  5
46F
  8
0
  0
BLOCK
  8
0
  2
*U95
 70
     1
 10
0.0
 20
0.0
 30
0.0
  3
*U95
  1

  0
TEXT
  5
471
  8
図枠
  6
CONTINUOUS
 10
1164.592978451597
 20
-391.49516658829998
 30
0.0
 40
5.3974999188999986
  1
1
  0
ENDBLK
  5
473
  8
0
  0
BLOCK
  8
0
  2
*U96
 70
     1
 10
0.0
 20
0.0
 30
0.0
  3
*U96
  1

  0
TEXT
  5
475
  8
図枠
  6
CONTINUOUS
 10
1164.592978451597
 20
-381.49516658829998
 30
0.0
 40
5.3974999188999986
  1
1
  0
ENDBLK
  5
477
  8
0
  0
ENDSEC
  0
SECTION
  2
ENTITIES
  0
INSERT
  5
30
  8
図枠
  2
CLUMP0
 10
0.0
 20
0.0
 30
0.0
  0
INSERT
  5
3A
  8
図枠
  2
CLUMP1
 10
0.0
 20
0.0
 30
0.0
  0
INSERT
  5
44
  8
図枠
  2
CLUMP2
 10
0.0
 20
0.0
 30
0.0
  0
INSERT
  5
4E
  8
図枠
  2
CLUMP3
 10
0.0
 20
0.0
 30
0.0
  0
INSERT
  5
58
  8
図枠
  2
CLUMP4
 10
0.0
 20
0.0
 30
0.0
  0
INSERT
  5
62
  8
図枠
  2
CLUMP5
 10
0.0
 20
0.0
 30
0.0
  0
INSERT
  5
6B
  8
0
  6
CONTINUOUS
  2
*U28
 10
0.0
 20
0.0
 30
0.0
  0
INSERT
  5
6C
  8
0
  6
CONTINUOUS
  2
*U29
 10
0.0
 20
0.0
 30
0.0
  0
INSERT
  5
6E
  8
図枠
  2
CLUMP6
 10
0.0
 20
0.0
 30
0.0
  0
INSERT
  5
112
  8
0
  6
CONTINUOUS
  2
*U50
 10
0.0
 20
0.0
 30
0.0
  0
LINE
  5
114
  8
ﾚｲﾔ_1
 62
     5
 10
788.75554933070009
 20
-37.755438624
 30
0.0
 11
788.75554933070009
 21
-201.75543862399999
 31
0.0
  0
LINE
  5
115
  8
ﾚｲﾔ_1
 62
     5
 10
787.75586967429979
 20
-37.7551182805
 30
0.0
 11
787.75586967429979
 21
-201.7557589676
 31
0.0
  0
LINE
  5
116
  8
ﾚｲﾔ_1
 62
     5
 10
563.75554933069986
 20
-27.755438624
 30
0.0
 11
563.75554933069986
 21
-211.75543862399999
 31
0.0
  0
LINE
  5
117
  8
ﾚｲﾔ_1
 62
     5
 10
573.75554933069998
 20
-201.75543862399999
 30
0.0
 11
573.75554933069998
 21
-37.755438624
 31
0.0
  0
LINE
  5
118
  8
ﾚｲﾔ_1
 62
     5
 10
574.75522898709994
 20
-201.7557589676
 30
0.0
 11
574.75522898709994
 21
-37.7551182805
 31
0.0
  0
INSERT
  5
119
  8
0
  6
CONTINUOUS
  2
*U51
 10
0.0
 20
0.0
 30
0.0
  0
INSERT
  5
11C
  8
寸法線
  2
BALLON0
 10
1187.0639645654389
 20
1.3707043200240601
 30
0.0
  0
LINE
  5
125
  8
ﾚｲﾔ_1
  6
BORDER
 62
     3
 10
681.25554933069998
 20
-19.755438624
 30
0.0
 11
681.25554933069998
 21
-219.75543862399999
 31
0.0
  0
DIMENSION
  5
135
  8
寸法線
  2
*D8
 10
1034.7740284974
 20
9.6491443533000005
 30
0.0
 11
987.27402849739997
 21
9.6491443533000005
 31
0.0
 70
   128
  1
<>
 13
1034.7740284974
 23
-26.755438624
 33
0.0
 14
939.77402849739997
 24
-25.755438624
 34
0.0
  0
LINE
  5
136
  8
ﾚｲﾔ_1
 62
     5
 10
952.77402849740008
 20
-32.255438624
 30
0.0
 11
1033.7740284974
 21
-32.255438624
 31
0.0
  0
LINE
  5
137
  8
ﾚｲﾔ_1
 62
     5
 10
1033.7740284974
 20
-33.255438624
 30
0.0
 11
952.81768944029989
 21
-33.255438624
 31
0.0
  0
LINE
  5
138
  8
ﾚｲﾔ_1
  6
BORDER
 62
     3
 10
934.77390870570002
 20
-119.75543862400001
 30
0.0
 11
1039.7740284974
 21
-119.75543862400001
 31
0.0
  0
LINE
  5
139
  8
ﾚｲﾔ_1
 62
     5
 10
1033.7740284974
 20
-206.25543862399999
 30
0.0
 11
946.27402849740008
 21
-206.25543862399999
 31
0.0
  0
LINE
  5
13A
  8
ﾚｲﾔ_1
 62
     5
 10
946.27402849740008
 20
-207.25543862399999
 30
0.0
 11
1033.7740284974
 21
-207.25543862399999
 31
0.0
  0
LINE
  5
13B
  8
ﾚｲﾔ_1
  6
STITCH
 10
946.77402849739997
 20
-199.25543862399999
 30
0.0
 11
1032.7740284974
 21
-199.25543862399999
 31
0.0
  0
LINE
  5
13C
  8
ﾚｲﾔ_1
 10
966.98155794799993
 20
-254.20596524109999
 30
0.0
 11
1022.643276698
 21
-254.20596524109999
 31
0.0
  0
INSERT
  5
13D
  8
0
  6
CONTINUOUS
  2
*U53
 10
0.0
 20
0.0
 30
0.0
  0
LINE
  5
13E
  8
ﾚｲﾔ_1
 10
992.46277833110014
 20
-207.73468077800001
 30
0.0
 11
1007.8266041498
 21
-235.98093239170001
 31
0.0
  0
SOLID
  5
13F
  8
ﾚｲﾔ_1
 10
992.46277833110014
 20
-207.73468077800001
 30
0.0
 11
996.7419693649
 21
-212.2372586848
 31
0.0
 12
994.56149121279998
 22
-211.5931449926
 32
0.0
 13
994.56149121279998
 23
-211.5931449926
 33
0.0
  0
SOLID
  5
140
  8
ﾚｲﾔ_1
 10
992.46277833110014
 20
-207.73468077800001
 30
0.0
 11
993.91737752059987
 21
-213.7736231447
 31
0.0
 12
994.56149121279998
 22
-211.5931449926
 32
0.0
 13
994.56149121279998
 23
-211.5931449926
 33
0.0
  0
INSERT
  5
141
  8
0
  6
CONTINUOUS
  2
*U54
 10
0.0
 20
0.0
 30
0.0
  0
INSERT
  5
142
  8
0
  6
CONTINUOUS
  2
*U55
 10
0.0
 20
0.0
 30
0.0
  0
INSERT
  5
143
  8
0
  6
CONTINUOUS
  2
*U56
 10
0.0
 20
0.0
 30
0.0
  0
INSERT
  5
144
  8
0
  6
CONTINUOUS
  2
*U57
 10
0.0
 20
0.0
 30
0.0
  0
INSERT
  5
145
  8
0
  6
CONTINUOUS
  2
*U58
 10
0.0
 20
0.0
 30
0.0
  0
INSERT
  5
146
  8
0
  6
CONTINUOUS
  2
*U59
 10
0.0
 20
0.0
 30
0.0
  0
INSERT
  5
147
  8
0
  6
CONTINUOUS
  2
*U60
 10
0.0
 20
0.0
 30
0.0
  0
ARC
  5
148
  8
ﾚｲﾔ_1
 62
     5
 10
920.47390870570007
 20
-179.75573043610001
 30
0.0
 40
2.5
 50
90.0
 51
270.0
  0
LINE
  5
149
  8
ﾚｲﾔ_1
 62
     5
 10
936.97390870569996
 20
-191.25573043610001
 30
0.0
 11
936.97390870569996
 21
-168.25573043610001
 31
0.0
  0
LINE
  5
14A
  8
ﾚｲﾔ_1
 62
     5
 10
945.97363266399987
 20
-188.75543862399999
 30
0.0
 11
945.97363266399987
 21
-168.25543862399999
 31
0.0
  0
LINE
  5
14B
  8
ﾚｲﾔ_1
 62
     5
 10
942.47363266399987
 20
-180.10002224819999
 30
0.0
 11
940.97363266399987
 21
-180.75331442929999
 31
0.0
  0
ARC
  5
14C
  8
ﾚｲﾔ_1
 62
     5
 10
928.97390870569996
 20
-178.25573043610001
 30
0.0
 40
1.0
 50
0.0
 51
90.0
  0
LINE
  5
14D
  8
ﾚｲﾔ_1
 62
     5
 10
942.97363266399998
 20
-168.25543862399999
 30
0.0
 11
942.97363266399998
 21
-191.25543862399999
 31
0.0
  0
LINE
  5
14E
  8
ﾚｲﾔ_1
 62
     5
 10
947.97363266399987
 20
-163.7554386164
 30
0.0
 11
947.97363266399987
 21
-188.75543862399999
 31
0.0
  0
LINE
  5
14F
  8
ﾚｲﾔ_1
 62
     5
 10
951.47363266399987
 20
-171.7554386059
 30
0.0
 11
951.47363266399987
 21
-187.7554386059
 31
0.0
  0
LINE
  5
150
  8
ﾚｲﾔ_1
 62
     5
 10
952.97363266399998
 20
-185.25543860560001
 30
0.0
 11
952.97363266399998
 21
-174.25543860560001
 31
0.0
  0
LINE
  5
151
  8
ﾚｲﾔ_1
 62
     5
 10
952.97363266399998
 20
-175.13663646040001
 30
0.0
 11
952.97363266399998
 21
-184.37424076740001
 31
0.0
  0
ARC
  5
152
  8
ﾚｲﾔ_1
 62
     5
 10
948.97363266399987
 20
-179.7554386139
 30
0.0
 40
7.5
 50
340.52877936549999
 51
19.4712206345
  0
ARC
  5
153
  8
ﾚｲﾔ_1
 62
     5
 10
954.88266529780003
 20
-176.1960375372
 30
0.0
 40
1.590967366299999
 50
318.24975495680002
 51
41.750245043200003
  0
LINE
  5
154
  8
ﾚｲﾔ_1
 62
     5
 10
949.47363266399998
 20
-163.7554386063
 30
0.0
 11
949.47363266399998
 21
-187.7554386139
 31
0.0
  0
LINE
  5
155
  8
ﾚｲﾔ_1
 62
     5
 10
956.47363266399998
 20
-176.19603722650001
 30
0.0
 11
956.47363266399998
 21
-183.31483998120001
 31
0.0
  0
LINE
  5
156
  8
ﾚｲﾔ_1
 62
     5
 10
952.97363266399998
 20
-177.2554386139
 30
0.0
 11
956.06961370399983
 21
-177.2554386139
 31
0.0
  0
ARC
  5
157
  8
ﾚｲﾔ_1
 62
     5
 10
692.50586964319996
 20
-179.75528237399999
 30
0.0
 40
2.5
 50
270.0
 51
90.0
  0
ARC
  5
158
  8
ﾚｲﾔ_1
 62
     5
 10
681.25586964319984
 20
-179.75528237399999
 30
0.0
 40
5.0
 50
30.0
 51
150.0
  0
ARC
  5
159
  8
ﾚｲﾔ_1
 62
     5
 10
670.00586964319984
 20
-179.75528237399999
 30
0.0
 40
2.5
 50
90.0
 51
270.0
  0
ARC
  5
15A
  8
ﾚｲﾔ_1
 62
     5
 10
681.25586964319984
 20
-179.75528237399999
 30
0.0
 40
11.5
 50
12.5558577986
 51
167.44414220140001
  0
ARC
  5
15B
  8
ﾚｲﾔ_1
 62
     5
 10
681.25586964319984
 20
-179.75528237399999
 30
0.0
 40
9.0
 50
16.1276202132
 51
163.8723797868
  0
LINE
  5
15C
  8
ﾚｲﾔ_1
 62
     5
 10
670.00586964319984
 20
-177.25528237399999
 30
0.0
 11
692.50586964319996
 21
-177.25528237399999
 31
0.0
  0
LINE
  5
15D
  8
ﾚｲﾔ_1
  6
BORDER
 62
     3
 10
661.2558696438
 20
-179.75543862399999
 30
0.0
 11
701.25586964259981
 21
-179.75543862399999
 31
0.0
  0
LINE
  5
15E
  8
ﾚｲﾔ_1
 62
     5
 10
939.77390870570014
 20
-202.55559096779999
 30
0.0
 11
939.77390870570014
 21
-37.414801905300003
 31
0.0
  0
LINE
  5
15F
  8
ﾚｲﾔ_1
 62
     5
 10
940.97390870570007
 20
-202.55559096779999
 30
0.0
 11
940.97390870570007
 21
-37.414801905300003
 31
0.0
  0
LINE
  5
160
  8
ﾚｲﾔ_1
 62
     5
 10
798.75554933069998
 20
-211.75543862399999
 30
0.0
 11
798.75554933069998
 21
-27.755438624
 31
0.0
  0
DIMENSION
  5
16F
  8
寸法線
  2
*D9
 10
566.25554933069986
 20
-457.96414495530001
 30
0.0
 11
681.25554933069998
 21
-457.96414495530001
 31
0.0
 70
   128
  1
<>
 13
566.25554933069986
 23
-406.341189633
 33
0.0
 14
796.25554933070009
 24
-406.341189633
 34
0.0
 50
180.0
  0
INSERT
  5
171
  8
寸法線
  2
BALLON1
 10
1187.0639645654389
 20
1.3707043200240601
 30
0.0
  0
LINE
  5
17A
  8
ﾚｲﾔ_1
 62
     5
 10
566.75554933069986
 20
-214.75543862399999
 30
0.0
 11
795.75554933069998
 21
-214.75543862399999
 31
0.0
  0
LINE
  5
17B
  8
ﾚｲﾔ_1
 62
     5
 10
785.75554933070009
 20
-204.75543862399999
 30
0.0
 11
576.75554933069986
 21
-204.75543862399999
 31
0.0
  0
LINE
  5
17C
  8
ﾚｲﾔ_1
 62
     5
 10
785.7558696742999
 20
-203.7557589676
 30
0.0
 11
576.75522898709994
 21
-203.7557589676
 31
0.0
  0
LINE
  5
17D
  8
ﾚｲﾔ_1
 62
     5
 10
564.75554933069998
 20
-311.341189633
 30
0.0
 11
797.75554933070009
 21
-311.341189633
 31
0.0
  0
LINE
  5
17E
  8
ﾚｲﾔ_1
 62
     5
 10
563.75554933069986
 20
-317.341189633
 30
0.0
 11
798.75554933069998
 21
-317.341189633
 31
0.0
  0
LINE
  5
17F
  8
ﾚｲﾔ_1
 62
     5
 10
572.75554933069998
 20
-405.341189633
 30
0.0
 11
789.75554933070009
 21
-405.341189633
 31
0.0
  0
LINE
  5
180
  8
ﾚｲﾔ_1
 62
     5
 10
566.25554933069986
 20
-406.341189633
 30
0.0
 11
796.25554933070009
 21
-406.341189633
 31
0.0
  0
DIMENSION
  5
18F
  8
寸法線
  2
*D11
 10
1085.8261354358999
 20
-212.75543862399999
 30
0.0
 11
1085.8261354358999
 21
-120.0301390273
 31
0.0
 70
   128
  1
<>
 13
1034.7740284974
 23
-212.75543862399999
 33
0.0
 14
1034.7740284974
 24
-26.755438624
 34
0.0
 50
90.0
  0
DIMENSION
  5
19E
  8
寸法線
  2
*D12
 10
1064.9721404207
 20
-206.25543862399999
 30
0.0
 11
1064.9721404207
 21
-119.75543862400001
 31
0.0
 70
   128
  1
(<>)内寸
 13
1033.7740284974
 23
-206.25543862399999
 33
0.0
 14
1033.7740284974
 24
-33.255438624
 34
0.0
 50
90.0
  0
LINE
  5
19F
  8
ﾚｲﾔ_1
 62
     5
 10
1034.7740284974
 20
-32.255438903300004
 30
0.0
 11
1034.7740284974
 21
-207.25543848999999
 31
0.0
  0
DIMENSION
  5
1AF
  8
寸法線
  2
*D13
 10
721.25586964259992
 20
-203.7557589676
 30
0.0
 11
721.25586964259992
 21
-191.75559879580001
 31
0.0
 70
   128
  1
<>
 13
681.25554933069998
 23
-203.7557589676
 33
0.0
 14
701.25586964259981
 24
-179.75543862399999
 34
0.0
 50
90.0
  0
DIMENSION
  5
1BE
  8
寸法線
  2
*D14
 10
831.09408593109993
 20
-214.75543862399999
 30
0.0
 11
831.09408593109993
 21
-119.75543862400001
 31
0.0
 70
   128
  1
<>
 13
795.75554933069998
 23
-214.75543862399999
 33
0.0
 14
795.75554933069998
 24
-24.755438624
 34
0.0
 50
90.0
  0
LINE
  5
1BF
  8
ﾚｲﾔ_1
  6
BORDER
 62
     3
 10
912.47363266399998
 20
-179.75543862399999
 30
0.0
 11
960.97363266399998
 21
-179.7554386139
 31
0.0
  0
LINE
  5
1C0
  8
ﾚｲﾔ_1
 62
     5
 10
920.47390870570007
 20
-177.25573043610001
 30
0.0
 11
928.97390870569996
 21
-177.25573043610001
 31
0.0
  0
LINE
  5
1C1
  8
ﾚｲﾔ_1
 62
     5
 10
933.97390870570007
 20
-177.25573043610001
 30
0.0
 11
928.97390870569996
 21
-177.25573043610001
 31
0.0
  0
LINE
  5
1C2
  8
ﾚｲﾔ_1
 62
     5
 10
929.97390870569996
 20
-178.25573043610001
 30
0.0
 11
929.97390870569996
 21
-181.25573043610001
 31
0.0
  0
LINE
  5
1C3
  8
ﾚｲﾔ_1
 62
     5
 10
942.47363266399987
 20
-179.1592815075
 30
0.0
 11
940.97363266399987
 21
-179.75543862399999
 31
0.0
  0
LINE
  5
1C4
  8
ﾚｲﾔ_1
 62
     5
 10
942.47363266399987
 20
-190.50543862399999
 30
0.0
 11
942.47363266399987
 21
-180.10002224819999
 31
0.0
  0
LINE
  5
1C5
  8
ﾚｲﾔ_1
 62
     5
 10
934.97390870570007
 20
-183.25573043610001
 30
0.0
 11
934.97390870570007
 21
-176.25573043610001
 31
0.0
  0
ARC
  5
1C6
  8
ﾚｲﾔ_1
 62
     5
 10
933.97390870570007
 20
-176.25573043610001
 30
0.0
 40
1.0
 50
270.0
 51
0.0
  0
LINE
  5
1C7
  8
ﾚｲﾔ_1
 62
     5
 10
942.47363266399987
 20
-180.10002224819999
 30
0.0
 11
942.47363266399987
 21
-179.1592815075
 31
0.0
  0
LINE
  5
1C8
  8
ﾚｲﾔ_1
 62
     5
 10
945.47363266399998
 20
-193.75543862399999
 30
0.0
 11
945.47363266399998
 21
-165.75543862399999
 31
0.0
  0
LINE
  5
1C9
  8
ﾚｲﾔ_1
 62
     5
 10
942.47363266399987
 20
-179.1592815075
 30
0.0
 11
942.47363266399987
 21
-169.00543862399999
 31
0.0
  0
LINE
  5
1CA
  8
ﾚｲﾔ_1
 62
     5
 10
669.75564614439986
 20
-311.34152537590001
 30
0.0
 11
669.75564614439986
 21
-308.34152537590001
 31
0.0
  0
LINE
  5
1CB
  8
ﾚｲﾔ_1
 62
     5
 10
669.75564614439986
 20
-308.34152537590001
 30
0.0
 11
671.75564614439986
 21
-306.34152537590001
 31
0.0
  0
ARC
  5
1CC
  8
ﾚｲﾔ_1
 62
     5
 10
668.70367086830004
 20
-300.34152537590001
 30
0.0
 40
1.0
 50
167.0877781678
 51
270.0
  0
LINE
  5
1CD
  8
ﾚｲﾔ_1
 62
     5
 10
668.70367086830004
 20
-301.34152537590001
 30
0.0
 11
671.7392129891
 21
-301.34152537590001
 31
0.0
  0
ARC
  5
1CE
  8
ﾚｲﾔ_1
 62
     5
 10
681.25564614439998
 20
-303.31027537590001
 30
0.0
 40
8.96875
 50
116.05384954269999
 51
162.674147498
  0
ARC
  5
1CF
  8
ﾚｲﾔ_1
 62
     5
 10
681.25564614439998
 20
-303.2191295426
 30
0.0
 40
13.877604166699999
 50
12.9122218322
 51
167.0877781678
  0
LINE
  5
1D0
  8
ﾚｲﾔ_1
 62
     5
 10
669.75564614439986
 20
-308.34152537590001
 30
0.0
 11
692.75564614439986
 21
-308.34152537590001
 31
0.0
  0
LINE
  5
1D1
  8
ﾚｲﾔ_1
 62
     5
 10
671.75564614439986
 20
-306.34152537590001
 30
0.0
 11
677.75564614439998
 21
-306.34152537590001
 31
0.0
  0
ARC
  5
1D2
  8
ﾚｲﾔ_1
 62
     5
 10
671.7392129891
 20
-300.34152537590001
 30
0.0
 40
1.0
 50
270.0
 51
342.67414749800002
  0
ARC
  5
1D3
  8
ﾚｲﾔ_1
 62
     5
 10
564.75554933069998
 20
-312.341189633
 30
0.0
 40
1.0
 50
90.0
 51
180.0
  0
LINE
  5
1D4
  8
ﾚｲﾔ_1
 62
     5
 10
563.75554933069986
 20
-312.341189633
 30
0.0
 11
563.75554933069986
 21
-317.341189633
 31
0.0
  0
LINE
  5
1D5
  8
ﾚｲﾔ_1
 62
     5
 10
566.25554933069986
 20
-405.341189633
 30
0.0
 11
572.75554933069998
 21
-405.341189633
 31
0.0
  0
LINE
  5
1D6
  8
ﾚｲﾔ_1
 62
     5
 10
566.25554933069986
 20
-406.341189633
 30
0.0
 11
566.25554933069986
 21
-405.341189633
 31
0.0
  0
LINE
  5
1D7
  8
ﾚｲﾔ_1
  6
BORDER
 62
     3
 10
681.25554933069998
 20
-283.341189633
 30
0.0
 11
681.25554933069998
 21
-411.341189633
 31
0.0
  0
LINE
  5
1D8
  8
ﾚｲﾔ_1
 62
     5
 10
571.75554933069986
 20
-317.341189633
 30
0.0
 11
571.75554933069986
 21
-405.341189633
 31
0.0
  0
INSERT
  5
1DA
  8
寸法線
  2
BALLON2
 10
1187.0639645654389
 20
1.3707043200240601
 30
0.0
  0
DIMENSION
  5
1F1
  8
寸法線
  2
*D16
 10
798.75554933069998
 20
9.418334076799999
 30
0.0
 11
681.25554933069998
 21
9.418334076799999
 31
0.0
 70
   128
  1
<>
 13
798.75554933069998
 23
-27.755438624
 33
0.0
 14
563.75554933069986
 24
-27.755438624
 34
0.0
  0
LINE
  5
1F2
  8
ﾚｲﾔ_1
 10
703.29244295629996
 20
-80.2037603303
 30
0.0
 11
753.29244295629996
 21
-80.2037603303
 31
0.0
  0
LINE
  5
1F3
  8
ﾚｲﾔ_1
 10
704.79244295630008
 20
-81.703760330300014
 30
0.0
 11
754.79244295630008
 21
-81.703760330300014
 31
0.0
  0
LINE
  5
1F4
  8
ﾚｲﾔ_1
 62
     5
 10
795.75554933069998
 20
-24.755438624
 30
0.0
 11
566.75554933069986
 21
-24.755438624
 31
0.0
  0
LINE
  5
1F5
  8
ﾚｲﾔ_1
 62
     5
 10
576.75522898709994
 20
-35.7551182805
 30
0.0
 11
785.7558696742999
 21
-35.7551182805
 31
0.0
  0
LINE
  5
1F6
  8
ﾚｲﾔ_1
 62
     5
 10
576.75554933069986
 20
-34.755438624
 30
0.0
 11
785.75554933070009
 21
-34.755438624
 31
0.0
  0
LINE
  5
1F7
  8
ﾚｲﾔ_1
  6
BORDER
 62
     3
 10
558.75554933069986
 20
-119.75543862400001
 30
0.0
 11
803.75554933070009
 21
-119.75543862400001
 31
0.0
  0
INSERT
  5
1F9
  8
ﾚｲﾔ_1
  6
STITCH
  2
CLUMP7
 10
0.0
 20
0.0
 30
0.0
  0
DIMENSION
  5
20F
  8
寸法線
  2
*D18
 10
572.75554933069998
 20
-437.62270007239988
 30
0.0
 11
681.25554933069998
 21
-437.62270007239988
 31
0.0
 70
   128
  1
(<>)内寸
 13
572.75554933069998
 23
-406.341189633
 33
0.0
 14
789.75554933070009
 24
-406.341189633
 34
0.0
 50
180.0
  0
LINE
  5
210
  8
ﾚｲﾔ_1
 62
     5
 10
941.20134096439995
 20
-374.85612710949999
 30
0.0
 11
936.25134096440001
 21
-383.42977860690002
 31
0.0
  0
LINE
  5
211
  8
ﾚｲﾔ_1
 62
     5
 10
941.20134096439995
 20
-374.85612710949999
 30
0.0
 11
946.15134096439999
 21
-383.42977860690002
 31
0.0
  0
INSERT
  5
212
  8
0
  6
CONTINUOUS
  2
*U63
 10
0.0
 20
0.0
 30
0.0
  0
INSERT
  5
213
  8
0
  6
CONTINUOUS
  2
*U64
 10
0.0
 20
0.0
 30
0.0
  0
ARC
  5
214
  8
ﾚｲﾔ_1
 62
     5
 10
681.25586964319984
 20
-179.75528237399999
 30
0.0
 40
5.0
 50
210.0
 51
330.0
  0
LINE
  5
215
  8
ﾚｲﾔ_1
 62
     5
 10
692.50586964319996
 20
-182.25528237399999
 30
0.0
 11
670.00586964319984
 21
-182.25528237399999
 31
0.0
  0
ARC
  5
216
  8
ﾚｲﾔ_1
 62
     5
 10
681.25586964319984
 20
-179.75528237399999
 30
0.0
 40
11.5
 50
192.55585779859999
 51
347.44414220139998
  0
ARC
  5
217
  8
ﾚｲﾔ_1
 62
     5
 10
681.25586964319984
 20
-179.75528237399999
 30
0.0
 40
9.0
 50
196.1276202132
 51
343.87237978680002
  0
ARC
  5
218
  8
ﾚｲﾔ_1
 62
     5
 10
566.75554933069986
 20
-211.75543862399999
 30
0.0
 40
3.0
 50
180.0
 51
270.0
  0
ARC
  5
219
  8
ﾚｲﾔ_1
 62
     5
 10
576.75554933069986
 20
-201.75543862399999
 30
0.0
 40
3.0
 50
180.0
 51
270.0
  0
ARC
  5
21A
  8
ﾚｲﾔ_1
 62
     5
 10
576.75522898709994
 20
-201.7557589676
 30
0.0
 40
2.0
 50
180.0
 51
270.0
  0
LINE
  5
21B
  8
ﾚｲﾔ_1
 62
     5
 10
678.75564614439986
 20
-296.1512966384999
 30
0.0
 11
678.75564614439986
 21
-305.34152537590001
 31
0.0
  0
ARC
  5
21C
  8
ﾚｲﾔ_1
 62
     5
 10
693.80762142059984
 20
-300.34152537590001
 30
0.0
 40
1.0
 50
270.0
 51
12.9122218322
  0
ARC
  5
21D
  8
ﾚｲﾔ_1
 62
     5
 10
684.75564614439998
 20
-305.34152537590001
 30
0.0
 40
1.0
 50
180.0
 51
270.0
  0
ARC
  5
21E
  8
ﾚｲﾔ_1
 62
     5
 10
677.75564614439998
 20
-305.34152537590001
 30
0.0
 40
1.0
 50
270.0
 51
0.0
  0
LINE
  5
21F
  8
ﾚｲﾔ_1
 62
     5
 10
690.75564614439986
 20
-306.34152537590001
 30
0.0
 11
692.75564614439986
 21
-308.34152537590001
 31
0.0
  0
LINE
  5
220
  8
ﾚｲﾔ_1
 62
     5
 10
684.75564614439998
 20
-306.34152537590001
 30
0.0
 11
690.75564614439986
 21
-306.34152537590001
 31
0.0
  0
LINE
  5
221
  8
ﾚｲﾔ_1
 62
     5
 10
692.75564614439986
 20
-308.34152537590001
 30
0.0
 11
692.75564614439986
 21
-311.34152537590001
 31
0.0
  0
ARC
  5
222
  8
ﾚｲﾔ_1
 62
     5
 10
684.75564614439998
 20
-296.1512966384999
 30
0.0
 40
1.0
 50
63.9461504573
 51
180.0
  0
ARC
  5
223
  8
ﾚｲﾔ_1
 62
     5
 10
677.75564614439998
 20
-296.1512966384999
 30
0.0
 40
1.0
 50
0.0
 51
116.05384954269999
  0
LINE
  5
224
  8
ﾚｲﾔ_1
 62
     5
 10
677.75564614439998
 20
-306.34152537590001
 30
0.0
 11
684.75564614439998
 21
-306.34152537590001
 31
0.0
  0
ARC
  5
225
  8
ﾚｲﾔ_1
 62
     5
 10
690.7720792998
 20
-300.34152537590001
 30
0.0
 40
1.0
 50
197.325852502
 51
270.0
  0
LINE
  5
226
  8
ﾚｲﾔ_1
 62
     5
 10
693.80762142059984
 20
-301.34152537590001
 30
0.0
 11
690.7720792998
 21
-301.34152537590001
 31
0.0
  0
LINE
  5
227
  8
ﾚｲﾔ_1
 62
     5
 10
683.75564614439986
 20
-296.1512966384999
 30
0.0
 11
683.75564614439986
 21
-305.34152537590001
 31
0.0
  0
ARC
  5
228
  8
ﾚｲﾔ_1
 62
     5
 10
681.25564614439998
 20
-303.31027537590001
 30
0.0
 40
8.96875
 50
17.325852502
 51
63.9461504573
  0
ARC
  5
229
  8
ﾚｲﾔ_1
 62
     5
 10
954.88266529780003
 20
-183.31483969070001
 30
0.0
 40
1.590967366299999
 50
318.24975495680002
 51
41.750245043200003
  0
LINE
  5
22A
  8
ﾚｲﾔ_1
 62
     5
 10
956.06961370399983
 20
-184.37424076740001
 30
0.0
 11
952.97363266399998
 21
-184.37424076740001
 31
0.0
  0
LINE
  5
22B
  8
ﾚｲﾔ_1
 62
     5
 10
952.97363266399998
 20
-182.2554386139
 30
0.0
 11
956.06961370399983
 21
-182.2554386139
 31
0.0
  0
LINE
  5
22C
  8
ﾚｲﾔ_1
 62
     5
 10
949.47363266399998
 20
-187.7554386139
 30
0.0
 11
949.47363266399998
 21
-204.75542544769999
 31
0.0
  0
LINE
  5
22D
  8
ﾚｲﾔ_1
 62
     5
 10
947.97363266399987
 20
-204.75542545779999
 30
0.0
 11
949.47363266399998
 21
-204.75542544769999
 31
0.0
  0
LINE
  5
22E
  8
ﾚｲﾔ_1
  6
STITCH
 10
951.65993471630009
 20
-201.35321082799999
 30
0.0
 11
955.90257540339985
 21
-205.59585151510001
 31
0.0
  0
LINE
  5
22F
  8
ﾚｲﾔ_1
  6
STITCH
 10
988.55002404909987
 20
-201.35321082799999
 30
0.0
 11
992.79266473619987
 21
-205.59585151510001
 31
0.0
  0
LINE
  5
230
  8
ﾚｲﾔ_1
  6
STITCH
 10
988.55002404909987
 20
-205.59585151510001
 30
0.0
 11
992.79266473619987
 21
-201.35321082799999
 31
0.0
  0
LINE
  5
231
  8
ﾚｲﾔ_1
  6
STITCH
 10
946.77402849739997
 20
-199.25543862399999
 30
0.0
 11
946.77402849739997
 21
-207.25543862399999
 31
0.0
  0
LINE
  5
232
  8
ﾚｲﾔ_1
  6
STITCH
 10
951.65993471630009
 20
-205.59585151510001
 30
0.0
 11
955.90257540339985
 21
-201.35321082799999
 31
0.0
  0
ARC
  5
233
  8
ﾚｲﾔ_1
 62
     5
 10
795.75554933069998
 20
-211.75543862399999
 30
0.0
 40
3.0
 50
270.0
 51
0.0
  0
ARC
  5
234
  8
ﾚｲﾔ_1
 62
     5
 10
785.75554933070009
 20
-201.75543862399999
 30
0.0
 40
3.0
 50
270.0
 51
0.0
  0
ARC
  5
235
  8
ﾚｲﾔ_1
 62
     5
 10
785.7558696742999
 20
-201.7557589676
 30
0.0
 40
2.0
 50
270.0
 51
0.0
  0
ARC
  5
236
  8
ﾚｲﾔ_1
 62
     5
 10
797.75554933070009
 20
-312.341189633
 30
0.0
 40
1.0
 50
0.0
 51
90.0
  0
LINE
  5
237
  8
ﾚｲﾔ_1
 62
     5
 10
798.75554933069998
 20
-312.341189633
 30
0.0
 11
798.75554933069998
 21
-317.341189633
 31
0.0
  0
LINE
  5
238
  8
ﾚｲﾔ_1
 62
     5
 10
796.25554933070009
 20
-406.341189633
 30
0.0
 11
796.25554933070009
 21
-405.341189633
 31
0.0
  0
LINE
  5
239
  8
ﾚｲﾔ_1
 62
     5
 10
789.75554933070009
 20
-405.341189633
 30
0.0
 11
796.25554933070009
 21
-405.341189633
 31
0.0
  0
LINE
  5
23A
  8
ﾚｲﾔ_1
 62
     5
 10
790.75554933069998
 20
-317.341189633
 30
0.0
 11
790.75554933069998
 21
-405.341189633
 31
0.0
  0
LINE
  5
23B
  8
ﾚｲﾔ_1
 10
948.40027833110003
 20
-209.29718077800001
 30
0.0
 11
966.98155794799993
 21
-254.20596524109999
 31
0.0
  0
SOLID
  5
23C
  8
ﾚｲﾔ_1
 10
948.40027833110003
 20
-209.29718077800001
 30
0.0
 11
952.17977036399998
 21
-214.22669634069999
 31
0.0
 12
950.07955543409992
 22
-213.35579757030001
 32
0.0
 13
950.07955543409992
 23
-213.35579757030001
 33
0.0
  0
SOLID
  5
23D
  8
ﾚｲﾔ_1
 10
948.40027833110003
 20
-209.29718077800001
 30
0.0
 11
949.20865666369991
 21
-215.45601250019999
 31
0.0
 12
950.07955543409992
 22
-213.35579757030001
 32
0.0
 13
950.07955543409992
 23
-213.35579757030001
 33
0.0
  0
INSERT
  5
23E
  8
0
  6
CONTINUOUS
  2
*U65
 10
0.0
 20
0.0
 30
0.0
  0
INSERT
  5
23F
  8
0
  6
CONTINUOUS
  2
*U66
 10
0.0
 20
0.0
 30
0.0
  0
INSERT
  5
240
  8
0
  6
CONTINUOUS
  2
*U67
 10
0.0
 20
0.0
 30
0.0
  0
INSERT
  5
241
  8
0
  6
CONTINUOUS
  2
*U68
 10
0.0
 20
0.0
 30
0.0
  0
LINE
  5
242
  8
ﾚｲﾔ_1
 62
     5
 10
936.25134096440001
 20
-383.42977860690002
 30
0.0
 11
946.15134096439999
 21
-383.42977860690002
 31
0.0
  0
INSERT
  5
243
  8
0
  6
CONTINUOUS
  2
*U69
 10
0.0
 20
0.0
 30
0.0
  0
LINE
  5
244
  8
ﾚｲﾔ_1
 62
     5
 10
946.27402849740008
 20
-197.75543862399999
 30
0.0
 11
945.27402849739997
 21
-197.75543862399999
 31
0.0
  0
ARC
  5
245
  8
ﾚｲﾔ_1
 62
     5
 10
946.27402849740008
 20
-197.75543862399999
 30
0.0
 40
1.0
 50
0.0
 51
90.0
  0
LINE
  5
246
  8
ﾚｲﾔ_1
 62
     5
 10
945.77402849740008
 20
-213.75543862399999
 30
0.0
 11
945.77402849740008
 21
-207.12146402779999
 31
0.0
  0
ARC
  5
247
  8
ﾚｲﾔ_1
 62
     5
 10
940.77402849739997
 20
-213.75543862399999
 30
0.0
 40
1.0
 50
180.0
 51
270.0
  0
LINE
  5
248
  8
ﾚｲﾔ_1
 62
     5
 10
945.77402849740008
 20
-214.75543862399999
 30
0.0
 11
940.77402849739997
 21
-214.75543862399999
 31
0.0
  0
LINE
  5
249
  8
ﾚｲﾔ_1
 62
     5
 10
942.97363266399998
 20
-193.75543862399999
 30
0.0
 11
945.47363266399998
 21
-193.75543862399999
 31
0.0
  0
ARC
  5
24A
  8
ﾚｲﾔ_1
 62
     5
 10
940.97390870570007
 20
-202.55559096779999
 30
0.0
 40
1.1999999999999991
 50
180.0
 51
270.0
  0
LINE
  5
24B
  8
ﾚｲﾔ_1
 62
     5
 10
940.97390870570007
 20
-203.7555909678
 30
0.0
 11
944.27390870570014
 21
-203.7555909678
 31
0.0
  0
LINE
  5
24C
  8
ﾚｲﾔ_1
 62
     5
 10
944.27390870570014
 20
-203.7555909678
 30
0.0
 11
944.27390870570014
 21
-193.75543862399999
 31
0.0
  0
LINE
  5
24D
  8
ﾚｲﾔ_1
 62
     5
 10
947.97363266399987
 20
-188.75543862399999
 30
0.0
 11
947.97363266399987
 21
-204.75542545779999
 31
0.0
  0
LINE
  5
24E
  8
ﾚｲﾔ_1
 62
     5
 10
940.97390870570007
 20
-202.55559096779999
 30
0.0
 11
944.27390870570014
 21
-202.55559096779999
 31
0.0
  0
LINE
  5
24F
  8
ﾚｲﾔ_1
 62
     5
 10
937.97390870569996
 20
-191.25573043610001
 30
0.0
 11
939.77390870570014
 21
-191.25573043610001
 31
0.0
  0
ARC
  5
250
  8
ﾚｲﾔ_1
 62
     5
 10
928.97390870569996
 20
-181.25573043610001
 30
0.0
 40
1.0
 50
270.0
 51
0.0
  0
LINE
  5
251
  8
ﾚｲﾔ_1
 62
     5
 10
920.47390870570007
 20
-182.25573043610001
 30
0.0
 11
928.97390870569996
 21
-182.25573043610001
 31
0.0
  0
LINE
  5
252
  8
ﾚｲﾔ_1
 62
     5
 10
947.97363266399987
 20
-188.75543862399999
 30
0.0
 11
945.97363266399987
 21
-188.75543862399999
 31
0.0
  0
LINE
  5
253
  8
ﾚｲﾔ_1
 62
     5
 10
936.97390870569996
 20
-191.25573043610001
 30
0.0
 11
934.97390870570007
 21
-189.25573043610001
 31
0.0
  0
LINE
  5
254
  8
ﾚｲﾔ_1
 62
     5
 10
945.97363266399987
 20
-191.25543862399999
 30
0.0
 11
945.97363266399987
 21
-188.75543862399999
 31
0.0
  0
ARC
  5
255
  8
ﾚｲﾔ_1
 62
     5
 10
933.97390870570007
 20
-183.25573043610001
 30
0.0
 40
1.0
 50
0.0
 51
90.0
  0
LINE
  5
256
  8
ﾚｲﾔ_1
 62
     5
 10
942.97363266399998
 20
-193.75543862399999
 30
0.0
 11
942.97363266399998
 21
-191.25543862399999
 31
0.0
  0
LINE
  5
257
  8
ﾚｲﾔ_1
 62
     5
 10
942.47363266399987
 20
-191.25543862399999
 30
0.0
 11
942.97363266399998
 21
-191.25543862399999
 31
0.0
  0
ARC
  5
258
  8
ﾚｲﾔ_1
 62
     5
 10
941.72363266399987
 20
-190.50543862399999
 30
0.0
 40
0.75
 50
180.0
 51
360.0
  0
LINE
  5
259
  8
ﾚｲﾔ_1
 62
     5
 10
942.47363266399987
 20
-191.25543862399999
 30
0.0
 11
942.47363266399987
 21
-190.50543862399999
 31
0.0
  0
INSERT
  5
25B
  8
寸法線
  2
BALLON3
 10
0.0
 20
0.0
 30
0.0
  0
LINE
  5
264
  8
ﾚｲﾔ_1
 62
     5
 10
949.47363266399998
 20
-187.7554386063
 30
0.0
 11
951.47363266399987
 21
-187.7554386059
 31
0.0
  0
LINE
  5
265
  8
ﾚｲﾔ_1
 62
     5
 10
951.47363266399987
 20
-185.2554386059
 30
0.0
 11
952.97363266399998
 21
-185.25543860560001
 31
0.0
  0
DIMENSION
  5
274
  8
寸法線
  2
*D20
 10
815.75554933069998
 20
-214.75543862399999
 30
0.0
 11
815.75554933069998
 21
-209.75543862399999
 31
0.0
 70
   128
  1
<>
 13
795.75554933069998
 23
-214.75543862399999
 33
0.0
 14
785.75554933070009
 24
-204.75543862399999
 34
0.0
 50
90.0
  0
LINE
  5
275
  8
ﾚｲﾔ_1
 62
     5
 10
939.77390870570014
 20
-202.55559096779999
 30
0.0
 11
939.77402849739997
 21
-205.75543862399999
 31
0.0
  0
LINE
  5
276
  8
ﾚｲﾔ_1
 62
     5
 10
945.77402849740008
 20
-213.75543862399999
 30
0.0
 11
945.77402849740008
 21
-214.75543862399999
 31
0.0
  0
LINE
  5
277
  8
ﾚｲﾔ_1
 62
     5
 10
940.77402849739997
 20
-213.75543862399999
 30
0.0
 11
945.77402849740008
 21
-213.75543862399999
 31
0.0
  0
LINE
  5
278
  8
ﾚｲﾔ_1
 62
     5
 10
939.77402849739997
 20
-213.75543862399999
 30
0.0
 11
939.77402849739997
 21
-205.75543862399999
 31
0.0
  0
LINE
  5
279
  8
ﾚｲﾔ_1
 62
     5
 10
940.77402849739997
 20
-205.75543862399999
 30
0.0
 11
940.77402849739997
 21
-213.75543862399999
 31
0.0
  0
LINE
  5
27A
  8
ﾚｲﾔ_1
 62
     5
 10
945.27402849739997
 20
-196.75543862399999
 30
0.0
 11
946.27402849740008
 21
-196.75543862399999
 31
0.0
  0
LINE
  5
27B
  8
ﾚｲﾔ_1
 62
     5
 10
944.27402849739997
 20
-204.75543862399999
 30
0.0
 11
944.27390870570014
 21
-203.79259096780001
 31
0.0
  0
ARC
  5
27C
  8
ﾚｲﾔ_1
 62
     5
 10
940.77402849739997
 20
-205.75543862399999
 30
0.0
 40
1.0
 50
90.0
 51
180.0
  0
LINE
  5
27D
  8
ﾚｲﾔ_1
 62
     5
 10
940.77402849739997
 20
-204.75543862399999
 30
0.0
 11
944.27402849739997
 21
-204.75543862399999
 31
0.0
  0
LINE
  5
27E
  8
ﾚｲﾔ_1
 62
     5
 10
946.27402849740008
 20
-201.75543862399999
 30
0.0
 11
946.27402849740008
 21
-197.75543862399999
 31
0.0
  0
LINE
  5
27F
  8
ﾚｲﾔ_1
 62
     5
 10
945.27402849739997
 20
-197.75543862399999
 30
0.0
 11
945.27402849739997
 21
-204.75543862399999
 31
0.0
  0
LINE
  5
280
  8
ﾚｲﾔ_1
 62
     5
 10
933.97390870570007
 20
-182.25573043610001
 30
0.0
 11
928.97390870569996
 21
-182.25573043610001
 31
0.0
  0
LINE
  5
281
  8
ﾚｲﾔ_1
 62
     5
 10
934.97390870570007
 20
-189.25573043610001
 30
0.0
 11
934.97390870570007
 21
-183.25573043610001
 31
0.0
  0
LINE
  5
282
  8
ﾚｲﾔ_1
 62
     5
 10
937.97390870569996
 20
-191.25573043610001
 30
0.0
 11
936.97390870569996
 21
-191.25573043610001
 31
0.0
  0
LINE
  5
283
  8
ﾚｲﾔ_1
 62
     5
 10
945.27402849739997
 20
-204.75543862399999
 30
0.0
 11
945.27402849739997
 21
-206.25543862399999
 31
0.0
  0
ARC
  5
284
  8
ﾚｲﾔ_1
 62
     5
 10
946.27402849740008
 20
-206.25543862399999
 30
0.0
 40
1.0
 50
180.0
 51
270.0
  0
LINE
  5
285
  8
ﾚｲﾔ_1
 62
     5
 10
946.27402849740008
 20
-201.75543862399999
 30
0.0
 11
946.27402849740008
 21
-206.25543862399999
 31
0.0
  0
LINE
  5
286
  8
ﾚｲﾔ_1
 62
     5
 10
944.27402849739997
 20
-205.75543862399999
 30
0.0
 11
940.77402849739997
 21
-205.75543862399999
 31
0.0
  0
LINE
  5
287
  8
ﾚｲﾔ_1
 62
     5
 10
947.27402849740008
 20
-201.75543862399999
 30
0.0
 11
946.27402849740008
 21
-201.75543862399999
 31
0.0
  0
LINE
  5
288
  8
ﾚｲﾔ_1
 62
     5
 10
947.27402849740008
 20
-197.75543862399999
 30
0.0
 11
947.27402849740008
 21
-201.75543862399999
 31
0.0
  0
LINE
  5
289
  8
ﾚｲﾔ_1
 62
     5
 10
942.97363266399998
 20
-189.75543862399999
 30
0.0
 11
945.47363266399998
 21
-189.75543862399999
 31
0.0
  0
LINE
  5
28A
  8
ﾚｲﾔ_1
 62
     5
 10
945.47363266399998
 20
-191.25543862399999
 30
0.0
 11
945.97363266399987
 21
-191.25543862399999
 31
0.0
  0
ARC
  5
28B
  8
ﾚｲﾔ_1
 62
     5
 10
944.27402849739997
 20
-204.75543862399999
 30
0.0
 40
1.0
 50
270.0
 51
0.0
  0
ARC
  5
28C
  8
ﾚｲﾔ_1
 62
     5
 10
945.27402849739997
 20
-197.75543862399999
 30
0.0
 40
1.0
 50
90.0
 51
180.0
  0
LINE
  5
28D
  8
ﾚｲﾔ_1
 62
     5
 10
942.47363266399987
 20
-168.25543862399999
 30
0.0
 11
942.97363266399998
 21
-168.25543862399999
 31
0.0
  0
INSERT
  5
28F
  8
寸法線
  2
BALLON4
 10
1187.0639645654389
 20
1.3707043200240601
 30
0.0
  0
LINE
  5
298
  8
ﾚｲﾔ_1
 62
     5
 10
947.97363266399987
 20
-163.7554386164
 30
0.0
 11
949.47363266399998
 21
-163.7554386063
 31
0.0
  0
LINE
  5
299
  8
ﾚｲﾔ_1
 62
     5
 10
949.47363266399998
 20
-171.7554386063
 30
0.0
 11
951.47363266399987
 21
-171.7554386059
 31
0.0
  0
LINE
  5
29A
  8
ﾚｲﾔ_1
 62
     5
 10
951.47363266399987
 20
-174.2554386059
 30
0.0
 11
952.97363266399998
 21
-174.25543860560001
 31
0.0
  0
LINE
  5
29B
  8
ﾚｲﾔ_1
 62
     5
 10
952.97363266399998
 20
-175.13663646040001
 30
0.0
 11
956.06961370399983
 21
-175.13663646040001
 31
0.0
  0
ARC
  5
29C
  8
ﾚｲﾔ_1
 62
     5
 10
785.75554933070009
 20
-37.755438624
 30
0.0
 40
3.0
 50
0.0
 51
90.0
  0
ARC
  5
29D
  8
ﾚｲﾔ_1
 62
     5
 10
785.7558696742999
 20
-37.7551182805
 30
0.0
 40
2.0
 50
0.0
 51
90.0
  0
ARC
  5
29E
  8
ﾚｲﾔ_1
 62
     5
 10
795.75554933069998
 20
-27.755438624
 30
0.0
 40
3.0
 50
0.0
 51
90.0
  0
LINE
  5
29F
  8
ﾚｲﾔ_1
 10
792.125
 20
-42.8125
 30
0.0
 11
815.80195728119986
 21
-3.9505450341000001
 31
0.0
  0
SOLID
  5
2A0
  8
ﾚｲﾔ_1
 10
792.125
 20
-42.8125
 30
0.0
 11
793.87383604230001
 21
-36.852109391399999
 31
0.0
 12
794.41030441999999
 22
-39.061536715300001
 32
0.0
 13
794.41030441999999
 23
-39.061536715300001
 33
0.0
  0
SOLID
  5
2A1
  8
ﾚｲﾔ_1
 10
792.125
 20
-42.8125
 30
0.0
 11
796.61973174399986
 21
-38.525068337600011
 31
0.0
 12
794.41030441999999
 22
-39.061536715300001
 32
0.0
 13
794.41030441999999
 23
-39.061536715300001
 33
0.0
  0
INSERT
  5
2A2
  8
0
  6
CONTINUOUS
  2
*U72
 10
0.0
 20
0.0
 30
0.0
  0
LINE
  5
2A3
  8
ﾚｲﾔ_1
 10
712.29244295629996
 20
-89.203760330300014
 30
0.0
 11
762.29244295629996
 21
-89.203760330300014
 31
0.0
  0
LINE
  5
2A4
  8
ﾚｲﾔ_1
 10
710.79244295629996
 20
-87.703760330300014
 30
0.0
 11
760.79244295629996
 21
-87.703760330300014
 31
0.0
  0
LINE
  5
2A5
  8
ﾚｲﾔ_1
 10
709.29244295630008
 20
-86.203760330300014
 30
0.0
 11
759.29244295630008
 21
-86.203760330300014
 31
0.0
  0
LINE
  5
2A6
  8
ﾚｲﾔ_1
 10
707.79244295629996
 20
-84.703760330299986
 30
0.0
 11
757.79244295629996
 21
-84.703760330299986
 31
0.0
  0
LINE
  5
2A7
  8
ﾚｲﾔ_1
 10
706.29244295629996
 20
-83.203760330299986
 30
0.0
 11
756.29244295629996
 21
-83.203760330299986
 31
0.0
  0
LINE
  5
2A8
  8
ﾚｲﾔ_1
 10
713.79244295630008
 20
-90.703760330300014
 30
0.0
 11
763.79244295630008
 21
-90.703760330300014
 31
0.0
  0
LINE
  5
2A9
  8
ﾚｲﾔ_1
 62
     5
 10
944.27390870570014
 20
-165.75543862399999
 30
0.0
 11
944.27390870570014
 21
-59.7148019053
 31
0.0
  0
INSERT
  5
2AB
  8
寸法線
  2
BALLON5
 10
1187.0639645654389
 20
1.3707043200240601
 30
0.0
  0
LINE
  5
2B4
  8
ﾚｲﾔ_1
 10
815.80195728119986
 20
-3.9505450341000001
 30
0.0
 11
867.14374589720001
 21
-3.9505450341000001
 31
0.0
  0
INSERT
  5
2B5
  8
0
  6
CONTINUOUS
  2
*U74
 10
0.0
 20
0.0
 30
0.0
  0
DIMENSION
  5
2C4
  8
寸法線
  2
*D23
 10
573.75554933069998
 20
-7.7554386239999991
 30
0.0
 11
568.75554933069998
 21
-7.7554386239999991
 31
0.0
 70
   128
  1
<>
 13
573.75554933069998
 23
-37.755438624
 33
0.0
 14
563.75554933069986
 24
-27.755438624
 34
0.0
  0
ARC
  5
2C5
  8
ﾚｲﾔ_1
 62
     5
 10
576.75554933069986
 20
-37.755438624
 30
0.0
 40
3.0
 50
90.0
 51
180.0
  0
ARC
  5
2C6
  8
ﾚｲﾔ_1
 62
     5
 10
566.75554933069986
 20
-27.755438624
 30
0.0
 40
3.0
 50
90.0
 51
180.0
  0
ARC
  5
2C7
  8
ﾚｲﾔ_1
 62
     5
 10
576.75522898709994
 20
-37.7551182805
 30
0.0
 40
2.0
 50
90.0
 51
180.0
  0
LINE
  5
2C8
  8
ﾚｲﾔ_1
 62
     5
 10
941.28449155979979
 20
-36.255690913700001
 30
0.0
 11
949.7846388311998
 21
-38.533298510599998
 31
0.0
  0
LINE
  5
2C9
  8
ﾚｲﾔ_1
 62
     5
 10
949.7846388311998
 20
-38.533298510599998
 30
0.0
 11
949.47405597699992
 21
-39.6924095022
 31
0.0
  0
LINE
  5
2CA
  8
ﾚｲﾔ_1
 62
     5
 10
949.43316696860006
 20
-39.6814533254
 30
0.0
 11
952.77390870570002
 21
-40.57660237599999
 31
0.0
  0
LINE
  5
2CB
  8
ﾚｲﾔ_1
 62
     5
 10
940.86118424009987
 20
-34.751633322099998
 30
0.0
 11
952.98709098029985
 21
-34.2447539474
 31
0.0
  0
LINE
  5
2CC
  8
ﾚｲﾔ_1
 62
     5
 10
952.89993523750002
 20
-33.248559249300001
 30
0.0
 11
952.98709098029985
 21
-34.2447539474
 31
0.0
  0
LINE
  5
2CD
  8
ﾚｲﾔ_1
 62
     5
 10
952.77402849740008
 20
-32.255438624
 30
0.0
 11
940.77402849739997
 21
-32.751302586400001
 31
0.0
  0
LINE
  5
2CE
  8
ﾚｲﾔ_1
 62
     5
 10
940.77402849739997
 20
-33.755122423899998
 30
0.0
 11
952.81768944029989
 21
-33.255438624
 31
0.0
  0
LINE
  5
2CF
  8
ﾚｲﾔ_1
 62
     5
 10
945.77402849740008
 20
-25.755438624
 30
0.0
 11
945.77402849740008
 21
-32.5446926021
 31
0.0
  0
LINE
  5
2D0
  8
ﾚｲﾔ_1
  6
BORDER
 62
     3
 10
940.27372484179989
 20
-48.755438623999993
 30
0.0
 11
954.27372484179989
 21
-48.755438623999993
 31
0.0
  0
LINE
  5
2D1
  8
ﾚｲﾔ_1
  6
BORDER
 62
     3
 10
947.27372484179989
 20
-55.755438623999993
 30
0.0
 11
947.27372484179989
 21
-41.755438624
 31
0.0
  0
CIRCLE
  5
2D2
  8
ﾚｲﾔ_1
 62
     5
 10
947.27372484179989
 20
-48.755438623999993
 30
0.0
 40
3.6000000000000001
  0
LINE
  5
2D3
  8
ﾚｲﾔ_1
 62
     5
 10
940.77402849739997
 20
-33.755122423899998
 30
0.0
 11
940.77402849739997
 21
-25.755438624
 31
0.0
  0
ARC
  5
2D4
  8
ﾚｲﾔ_1
 62
     5
 10
940.97390870570007
 20
-37.414801905300003
 30
0.0
 40
1.1999999999999991
 50
75.0
 51
180.0
  0
LINE
  5
2D5
  8
ﾚｲﾔ_1
 62
     5
 10
940.77402849739997
 20
-32.751302586400001
 30
0.0
 11
940.86118424009987
 21
-33.747497284399998
 31
0.0
  0
LINE
  5
2D6
  8
ﾚｲﾔ_1
 62
     5
 10
942.47363266399987
 20
-169.00543862399999
 30
0.0
 11
942.47363266399987
 21
-168.25543862399999
 31
0.0
  0
ARC
  5
2D7
  8
ﾚｲﾔ_1
 62
     5
 10
941.72363266399987
 20
-169.00543862399999
 30
0.0
 40
0.75
 50
0.0
 51
180.0
  0
LINE
  5
2D8
  8
ﾚｲﾔ_1
 62
     5
 10
934.97390870570007
 20
-176.25573043610001
 30
0.0
 11
934.97390870570007
 21
-170.25573043610001
 31
0.0
  0
LINE
  5
2D9
  8
ﾚｲﾔ_1
 62
     5
 10
942.97363266399998
 20
-168.25543862399999
 30
0.0
 11
942.97363266399998
 21
-165.75543862399999
 31
0.0
  0
LINE
  5
2DA
  8
ﾚｲﾔ_1
 62
     5
 10
945.47363266399998
 20
-168.25543862399999
 30
0.0
 11
945.97363266399987
 21
-168.25543862399999
 31
0.0
  0
LINE
  5
2DB
  8
ﾚｲﾔ_1
 62
     5
 10
945.97363266399987
 20
-169.75543862399999
 30
0.0
 11
947.97363266399987
 21
-169.75543862399999
 31
0.0
  0
LINE
  5
2DC
  8
ﾚｲﾔ_1
 62
     5
 10
936.97390870569996
 20
-168.25573043610001
 30
0.0
 11
937.97390870569996
 21
-168.25573043610001
 31
0.0
  0
LINE
  5
2DD
  8
ﾚｲﾔ_1
 62
     5
 10
945.47363266399998
 20
-165.75543862399999
 30
0.0
 11
942.97363266399998
 21
-165.75543862399999
 31
0.0
  0
LINE
  5
2DE
  8
ﾚｲﾔ_1
 62
     5
 10
937.97390870569996
 20
-168.25573043610001
 30
0.0
 11
939.77390870570014
 21
-168.25573043610001
 31
0.0
  0
LINE
  5
2DF
  8
ﾚｲﾔ_1
 62
     5
 10
934.97390870570007
 20
-170.25573043610001
 30
0.0
 11
936.97390870569996
 21
-168.25573043610001
 31
0.0
  0
LINE
  5
2E0
  8
ﾚｲﾔ_1
 62
     5
 10
942.97363266399998
 20
-169.75543862399999
 30
0.0
 11
945.47363266399998
 21
-169.75543862399999
 31
0.0
  0
INSERT
  5
2E1
  8
0
  6
CONTINUOUS
  2
*U75
 10
0.0
 20
0.0
 30
0.0
  0
LINE
  5
2E2
  8
ﾚｲﾔ_1
 10
1120.9371093878999
 20
-380.24895086340001
 30
0.0
 11
1132.8598738249
 21
-380.24895086340001
 31
0.0
  0
LINE
  5
2E3
  8
ﾚｲﾔ_1
 10
1121.2496093878999
 20
-378.6239508633999
 30
0.0
 11
1132.7454594105
 21
-378.6239508633999
 31
0.0
  0
INSERT
  5
2E4
  8
0
  6
CONTINUOUS
  2
*U76
 10
0.0
 20
0.0
 30
0.0
  0
INSERT
  5
2E5
  8
0
  6
CONTINUOUS
  2
*U77
 10
0.0
 20
0.0
 30
0.0
  0
INSERT
  5
2E6
  8
0
  6
CONTINUOUS
  2
*U78
 10
0.0
 20
0.0
 30
0.0
  0
INSERT
  5
2E7
  8
0
  6
CONTINUOUS
  2
*U79
 10
0.0
 20
0.0
 30
0.0
  0
INSERT
  5
2E8
  8
0
  6
CONTINUOUS
  2
*U80
 10
0.0
 20
0.0
 30
0.0
  0
INSERT
  5
2E9
  8
0
  6
CONTINUOUS
  2
*U81
 10
0.0
 20
0.0
 30
0.0
  0
INSERT
  5
2EA
  8
0
  6
CONTINUOUS
  2
*U82
 10
0.0
 20
0.0
 30
0.0
  0
INSERT
  5
2EB
  8
0
  6
CONTINUOUS
  2
*U83
 10
0.0
 20
0.0
 30
0.0
  0
DIMENSION
  5
2FA
  8
寸法線
  2
*D24
 10
945.77402849740008
 20
-4.7554386239999991
 30
0.0
 11
942.77402849740008
 21
-4.7554386239999991
 31
0.0
 70
   128
  1
<>
 13
945.77402849740008
 23
-24.755438624
 33
0.0
 14
939.77402849739997
 24
-25.755438624
 34
0.0
  0
DIMENSION
  5
309
  8
寸法線
  2
*D25
 10
920.27372484179989
 20
-24.755438624
 30
0.0
 11
920.27372484179989
 21
-36.755438624
 31
0.0
 70
   128
  1
<>
 13
940.77402849739997
 23
-24.755438624
 33
0.0
 14
940.27372484179989
 24
-48.755438623999993
 34
0.0
 50
90.0
  0
DIMENSION
  5
318
  8
寸法線
  2
*D26
 10
798.75554933069998
 20
-7.7554386239999991
 30
0.0
 11
793.75554933070009
 21
-7.7554386239999991
 31
0.0
 70
   128
  1
<>
 13
798.75554933069998
 23
-27.755438624
 33
0.0
 14
788.75554933070009
 24
-37.755438624
 34
0.0
  0
DIMENSION
  5
327
  8
寸法線
  2
*D27
 10
815.75554933069998
 20
-34.755438624
 30
0.0
 11
815.75554933069998
 21
-29.755438624
 31
0.0
 70
   128
  1
<>
 13
785.75554933070009
 23
-34.755438624
 33
0.0
 14
795.75554933069998
 24
-24.755438624
 34
0.0
 50
90.0
  0
LINE
  5
328
  8
ﾚｲﾔ_1
 62
     5
 10
939.77402849739997
 20
-33.755438624
 30
0.0
 11
939.77390870570014
 21
-37.414801905300003
 31
0.0
  0
LINE
  5
329
  8
ﾚｲﾔ_1
 62
     5
 10
940.77402849739997
 20
-25.755438624
 30
0.0
 11
945.77402849740008
 21
-25.755438624
 31
0.0
  0
LINE
  5
32A
  8
ﾚｲﾔ_1
 62
     5
 10
952.77390870570002
 20
-40.57660237599999
 30
0.0
 11
952.77390870570002
 21
-57.437233769599999
 31
0.0
  0
LINE
  5
32B
  8
ﾚｲﾔ_1
 62
     5
 10
944.27390870570014
 20
-59.7148019053
 30
0.0
 11
952.77390870570002
 21
-57.437233769599999
 31
0.0
  0
LINE
  5
32C
  8
ﾚｲﾔ_1
 62
     5
 10
940.97390870570007
 20
-37.414801905300003
 30
0.0
 11
949.43316696860006
 21
-39.6814533254
 31
0.0
  0
LINE
  5
32D
  8
ﾚｲﾔ_1
 62
     5
 10
945.77402849740008
 20
-25.755438624
 30
0.0
 11
945.77402849740008
 21
-24.755438624
 31
0.0
  0
ARC
  5
32E
  8
ﾚｲﾔ_1
 62
     5
 10
940.77402849739997
 20
-33.755438624
 30
0.0
 40
1.0
 50
180.0
 51
275.0
  0
LINE
  5
32F
  8
ﾚｲﾔ_1
 62
     5
 10
939.77402849739997
 20
-25.755438624
 30
0.0
 11
939.77402849739997
 21
-33.755438624
 31
0.0
  0
ARC
  5
330
  8
ﾚｲﾔ_1
 62
     5
 10
940.77402849739997
 20
-25.755438624
 30
0.0
 40
1.0
 50
90.0
 51
180.0
  0
LINE
  5
331
  8
ﾚｲﾔ_1
 62
     5
 10
945.77402849740008
 20
-24.755438624
 30
0.0
 11
940.77402849739997
 21
-24.755438624
 31
0.0
  0
ARC
  5
332
  8
ﾚｲﾔ_1
 62
     5
 10
1033.7740284974
 20
-32.255438624
 30
0.0
 40
1.0
 50
270.0
 51
0.0
  0
LINE
  5
333
  8
ﾚｲﾔ_1
 62
     5
 10
1034.7740284974
 20
-26.755438624
 30
0.0
 11
1034.7740284974
 21
-32.255438624
 31
0.0
  0
LINE
  5
334
  8
ﾚｲﾔ_1
 62
     5
 10
1033.7740284974
 20
-32.255438624
 30
0.0
 11
1033.7740284974
 21
-26.755438624
 31
0.0
  0
LINE
  5
335
  8
ﾚｲﾔ_1
 62
     5
 10
1033.7740284974
 20
-26.755438624
 30
0.0
 11
1034.7740284974
 21
-26.755438624
 31
0.0
  0
INSERT
  5
336
  8
0
  6
CONTINUOUS
  2
*U84
 10
0.0
 20
0.0
 30
0.0
  0
INSERT
  5
337
  8
0
  6
CONTINUOUS
  2
*U85
 10
0.0
 20
0.0
 30
0.0
  0
INSERT
  5
338
  8
0
  6
CONTINUOUS
  2
*U86
 10
0.0
 20
0.0
 30
0.0
  0
INSERT
  5
339
  8
0
  6
CONTINUOUS
  2
*U87
 10
0.0
 20
0.0
 30
0.0
  0
LINE
  5
33A
  8
ﾚｲﾔ_1
 62
     5
 10
1034.7740284974
 20
-212.75543862399999
 30
0.0
 11
1034.7740284974
 21
-207.25543862399999
 31
0.0
  0
LINE
  5
33B
  8
ﾚｲﾔ_1
 62
     5
 10
1033.7740284974
 20
-207.25543862399999
 30
0.0
 11
1033.7740284974
 21
-212.75543862399999
 31
0.0
  0
LINE
  5
33C
  8
ﾚｲﾔ_1
 62
     5
 10
1033.7740284974
 20
-212.75543862399999
 30
0.0
 11
1034.7740284974
 21
-212.75543862399999
 31
0.0
  0
ARC
  5
33D
  8
ﾚｲﾔ_1
 62
     5
 10
1033.7740284974
 20
-207.25543862399999
 30
0.0
 40
1.0
 50
360.0
 51
90.0
  0
LINE
  5
33E
  8
ﾚｲﾔ_1
  6
STITCH
 10
1024.7691144037999
 20
-201.35321082799999
 30
0.0
 11
1029.0117550908999
 21
-205.59585151510001
 31
0.0
  0
LINE
  5
33F
  8
ﾚｲﾔ_1
  6
STITCH
 10
1032.7740284974
 20
-199.25543862399999
 30
0.0
 11
1032.7740284974
 21
-207.25543862399999
 31
0.0
  0
LINE
  5
340
  8
ﾚｲﾔ_1
  6
STITCH
 10
1024.7691144037999
 20
-205.59585151510001
 30
0.0
 11
1029.0117550908999
 21
-201.35321082799999
 31
0.0
  0
LINE
  5
341
  8
ﾚｲﾔ_1
 10
1007.8266041498
 20
-235.98093239170001
 30
0.0
 11
1062.242576372
 21
-235.98093239170001
 31
0.0
  0
INSERT
  5
342
  8
0
  6
CONTINUOUS
  2
*U88
 10
0.0
 20
0.0
 30
0.0
  0
INSERT
  5
343
  8
0
  6
CONTINUOUS
  2
*U89
 10
0.0
 20
0.0
 30
0.0
  0
INSERT
  5
344
  8
0
  6
CONTINUOUS
  2
*U90
 10
0.0
 20
0.0
 30
0.0
  0
INSERT
  5
345
  8
0
  6
CONTINUOUS
  2
*U91
 10
0.0
 20
0.0
 30
0.0
  0
INSERT
  5
346
  8
0
  6
CONTINUOUS
  2
*U92
 10
0.0
 20
0.0
 30
0.0
  0
INSERT
  5
347
  8
0
  6
CONTINUOUS
  2
*U93
 10
0.0
 20
0.0
 30
0.0
  0
INSERT
  5
348
  8
0
  6
CONTINUOUS
  2
*U94
 10
0.0
 20
0.0
 30
0.0
  0
INSERT
  5
349
  8
0
  6
CONTINUOUS
  2
*U95
 10
0.0
 20
0.0
 30
0.0
  0
INSERT
  5
34A
  8
0
  6
CONTINUOUS
  2
*U96
 10
0.0
 20
0.0
 30
0.0
  0
ENDSEC
  0
EOF
