  0
SECTION
  2
HEADER
  9
$ACADVER
  1
AC1009
  9
$INSBASE
 10
0.0
 20
0.0
 30
0.0
  9
$EXTMIN
 10
426.94558843850967
 20
-509.10469680815538
 30
-0.0015258207003583
  9
$EXTMAX
 10
1247.0130183211579
 20
67.851101526115826
 30
0.0000000349246037
  9
$LIMMIN
 10
0.0
 20
0.0
  9
$LIMMAX
 10
0.0
 20
0.0
  9
$ORTHOMODE
 70
     0
  9
$REGENMODE
 70
     1
  9
$FILLMODE
 70
     1
  9
$QTEXTMODE
 70
     0
  9
$MIRRTEXT
 70
     1
  9
$DRAGMODE
 70
     2
  9
$LTSCALE
 40
1.0
  9
$OSMODE
 70
    31
  9
$ATTMODE
 70
     1
  9
$TEXTSIZE
 40
0.0
  9
$TRACEWID
 40
0.05
  9
$TEXTSTYLE
  7
STANDARD
  9
$CLAYER
  8
0
  9
$CELTYPE
  6
CONTINUOUS
  9
$CECOLOR
 62
   256
  9
$DIMSCALE
 40
1.0
  9
$DIMASZ
 40
0.18
  9
$DIMEXO
 40
0.0625
  9
$DIMDLI
 40
0.38
  9
$DIMRND
 40
0.0
  9
$DIMDLE
 40
0.0
  9
$DIMEXE
 40
0.18
  9
$DIMTP
 40
0.0
  9
$DIMTM
 40
0.0
  9
$DIMTXT
 40
0.18
  9
$DIMCEN
 40
0.09
  9
$DIMTSZ
 40
0.0
  9
$DIMTOL
 70
     0
  9
$DIMLIM
 70
     0
  9
$DIMTIH
 70
     1
  9
$DIMTOH
 70
     1
  9
$DIMSE1
 70
     0
  9
$DIMSE2
 70
     0
  9
$DIMTAD
 70
     0
  9
$DIMZIN
 70
     0
  9
$DIMBLK
  1

  9
$DIMASO
 70
     1
  9
$DIMSHO
 70
     1
  9
$DIMPOST
  1

  9
$DIMAPOST
  1

  9
$DIMALT
 70
     0
  9
$DIMALTD
 70
     2
  9
$DIMALTF
 40
25.399999999999999
  9
$DIMLFAC
 40
1.0
  9
$DIMTOFL
 70
     0
  9
$DIMTVP
 40
0.0
  9
$DIMTIX
 70
     0
  9
$DIMSOXD
 70
     0
  9
$DIMSAH
 70
     0
  9
$DIMBLK1
  1

  9
$DIMBLK2
  1

  9
$DIMSTYLE
  2
STANDARD
  9
$DIMCLRD
 70
     0
  9
$DIMCLRE
 70
     0
  9
$DIMCLRT
 70
     0
  9
$DIMTFAC
 40
1.0
  9
$DIMGAP
 40
0.09
  9
$LUNITS
 70
     2
  9
$LUPREC
 70
     4
  9
$SKETCHINC
 40
0.1
  9
$FILLETRAD
 40
0.0
  9
$AUNITS
 70
     0
  9
$AUPREC
 70
     0
  9
$MENU
  1
acad
  9
$ELEVATION
 40
0.0
  9
$PELEVATION
 40
0.0
  9
$THICKNESS
 40
0.0
  9
$LIMCHECK
 70
     0
  9
$BLIPMODE
 70
     0
  9
$CHAMFERA
 40
0.0
  9
$CHAMFERB
 40
0.0
  9
$SKPOLY
 70
     0
  9
$TDCREATE
 40
2454860.6921335999
  9
$TDUPDATE
 40
2454860.6943124188
  9
$TDINDWG
 40
0.0021996181
  9
$TDUSRTIMER
 40
0.0021992477
  9
$USRTIMER
 70
     1
  9
$ANGBASE
 50
0.0
  9
$ANGDIR
 70
     0
  9
$PDMODE
 70
     3
  9
$PDSIZE
 40
-1.0
  9
$PLINEWID
 40
0.0
  9
$COORDS
 70
     2
  9
$SPLFRAME
 70
     0
  9
$SPLINETYPE
 70
     6
  9
$SPLINESEGS
 70
     8
  9
$ATTDIA
 70
     0
  9
$ATTREQ
 70
     1
  9
$HANDLING
 70
     1
  9
$HANDSEED
  5
8E8
  9
$SURFTAB1
 70
     6
  9
$SURFTAB2
 70
     6
  9
$SURFTYPE
 70
     6
  9
$SURFU
 70
     6
  9
$SURFV
 70
     6
  9
$UCSNAME
  2

  9
$UCSORG
 10
0.0
 20
0.0
 30
0.0
  9
$UCSXDIR
 10
1.0
 20
0.0
 30
0.0
  9
$UCSYDIR
 10
0.0
 20
1.0
 30
0.0
  9
$PUCSNAME
  2

  9
$PUCSORG
 10
0.0
 20
0.0
 30
0.0
  9
$PUCSXDIR
 10
1.0
 20
0.0
 30
0.0
  9
$PUCSYDIR
 10
0.0
 20
1.0
 30
0.0
  9
$USERI1
 70
     0
  9
$USERI2
 70
     0
  9
$USERI3
 70
     0
  9
$USERI4
 70
     0
  9
$USERI5
 70
     0
  9
$USERR1
 40
0.0
  9
$USERR2
 40
0.0
  9
$USERR3
 40
0.0
  9
$USERR4
 40
0.0
  9
$USERR5
 40
0.0
  9
$WORLDVIEW
 70
     1
  9
$SHADEDGE
 70
     3
  9
$SHADEDIF
 70
    70
  9
$TILEMODE
 70
     1
  9
$MAXACTVP
 70
    16
  9
$PLIMCHECK
 70
     0
  9
$PEXTMIN
 10
1.0000000000000000E+020
 20
1.0000000000000000E+020
 30
1.0000000000000000E+020
  9
$PEXTMAX
 10
-1.0000000000000000E+020
 20
-1.0000000000000000E+020
 30
-1.0000000000000000E+020
  9
$PLIMMIN
 10
0.0
 20
0.0
  9
$PLIMMAX
 10
12.0
 20
9.0
  9
$UNITMODE
 70
     0
  9
$VISRETAIN
 70
     0
  9
$PLINEGEN
 70
     1
  9
$PSLTSCALE
 70
     0
  0
ENDSEC
  0
SECTION
  2
TABLES
  0
TABLE
  2
VPORT
 70
     4
  0
VPORT
  2
*ACTIVE
 70
     0
 10
0.0
 20
0.0
 11
1.0
 21
1.0
 12
836.97930337983405
 22
-220.62679764101981
 13
0.0
 23
0.0
 14
1.0
 24
1.0
 15
0.0
 25
0.0
 16
0.0
 26
0.0
 36
1.0
 17
0.0
 27
0.0
 37
0.0
 40
581.74381325820707
 41
1.6343490304709141
 42
50.0
 43
0.0
 44
0.0
 50
0.0
 51
0.0
 71
     0
 72
   100
 73
     1
 74
     1
 75
     0
 76
     0
 77
     0
 78
     0
  0
ENDTAB
  0
TABLE
  2
LTYPE
 70
    11
  0
LTYPE
  2
CONTINUOUS
 70
     0
  3
Solid line
 72
    65
 73
     0
 40
0.0
  0
LTYPE
  2
DOT
 70
     0
  3
. . . . . . . . 
 72
    65
 73
     2
 40
1.0
 49
0.0
 49
-1.0
  0
LTYPE
  2
DASHED
 70
     0
  3
___  ___  ___  ___  
 72
    65
 73
     2
 40
4.0
 49
3.0
 49
-1.0
  0
LTYPE
  2
HIDDEN
 70
     0
  3
__ __ __ __ 
 72
    65
 73
     2
 40
3.0
 49
2.0
 49
-1.0
  0
LTYPE
  2
STITCH
 70
     0
  3
_ _ _ _ 
 72
    65
 73
     2
 40
2.0
 49
1.0
 49
-1.0
  0
LTYPE
  2
CENTER
 70
     0
  3
______  __  ______  __  
 72
    65
 73
     4
 40
43.0
 49
40.0
 49
-1.0
 49
1.0
 49
-1.0
  0
LTYPE
  2
DASHDOT
 70
     0
  3
____ . ____ . 
 72
    65
 73
     4
 40
32.0
 49
30.0
 49
-1.0
 49
0.0
 49
-1.0
  0
LTYPE
  2
BORDER
 70
     0
  3
__ . __ . 
 72
    65
 73
     4
 40
22.0
 49
20.0
 49
-1.0
 49
0.0
 49
-1.0
  0
LTYPE
  2
CUTTING
 70
     0
  3
________   ___   ___   
 72
    65
 73
     6
 40
45.0
 49
40.0
 49
-1.0
 49
1.0
 49
-1.0
 49
1.0
 49
-1.0
  0
LTYPE
  2
PHANTOM
 70
     0
  3
______  __  __  
 72
    65
 73
     6
 40
35.0
 49
30.0
 49
-1.0
 49
1.0
 49
-1.0
 49
1.0
 49
-1.0
  0
LTYPE
  2
DIVIDE
 70
     0
  3
____ . . ____ . . 
 72
    65
 73
     6
 40
23.0
 49
20.0
 49
-1.0
 49
0.0
 49
-1.0
 49
0.0
 49
-1.0
  0
ENDTAB
  0
TABLE
  2
LAYER
 70
     4
  0
LAYER
  2
0
 70
     0
 62
     7
  6
CONTINUOUS
  0
LAYER
  2
図枠
 70
     0
 62
     7
  6
CONTINUOUS
  0
LAYER
  2
ﾚｲﾔ_1
 70
     0
 62
     7
  6
CONTINUOUS
  0
LAYER
  2
寸法線
 70
     0
 62
     7
  6
CONTINUOUS
  0
ENDTAB
  0
TABLE
  2
STYLE
 70
     1
  0
STYLE
  2
STANDARD
 70
     0
 40
0.0
 41
1.0
 50
0.0
 71
     0
 42
0.0
  3
txt
  4
extfont
  0
ENDTAB
  0
TABLE
  2
VIEW
 70
     0
  0
ENDTAB
  0
TABLE
  2
UCS
 70
     0
  0
ENDTAB
  0
TABLE
  2
APPID
 70
     2
  0
APPID
  2
ACAD
 70
     0
  0
APPID
  2
DCO15
 70
     0
  0
ENDTAB
  0
TABLE
  2
DIMSTYLE
 70
     3
  0
DIMSTYLE
  2
STANDARD
 70
     0
  3

  4

  5

  6

  7

 40
1.0
 41
0.18
 42
0.0625
 43
0.38
 44
0.18
 45
0.0
 46
0.0
 47
0.0
 48
0.0
140
0.18
141
0.09
142
0.0
143
25.399999999999999
144
1.0
145
0.0
146
1.0
147
0.09
 71
     0
 72
     0
 73
     1
 74
     1
 75
     0
 76
     0
 77
     0
 78
     0
170
     0
171
     2
172
     0
173
     0
174
     0
175
     0
176
     0
177
     0
178
     0
  0
DIMSTYLE
  2
VELDIM0
 70
     0
  3

  4

  5

  6

  7

 40
1.0
 41
6.0
 42
0.0625
 43
0.38
 44
0.5
 45
0.0
 46
3.0
 47
0.0
 48
0.0
140
5.9972220420999998
141
0.09
142
0.0
143
25.399999999999999
144
1.0
145
0.0
146
1.0
147
0.09
 71
     0
 72
     0
 73
     0
 74
     0
 75
     0
 76
     0
 77
     0
 78
     8
170
     0
171
     2
172
     0
173
     0
174
     0
175
     0
176
     0
177
     0
178
     0
  0
DIMSTYLE
  2
VELDIM1
 70
     0
  3

  4

  5

  6

  7

 40
1.0
 41
6.0
 42
0.0625
 43
0.38
 44
1.0
 45
0.0
 46
6.0
 47
0.0
 48
0.0
140
5.9972220420999998
141
0.09
142
0.0
143
25.399999999999999
144
1.0
145
0.0
146
1.0
147
0.09
 71
     0
 72
     0
 73
     0
 74
     0
 75
     0
 76
     0
 77
     0
 78
     8
170
     0
171
     2
172
     0
173
     0
174
     0
175
     0
176
     0
177
     0
178
     0
  0
ENDTAB
  0
ENDSEC
  0
SECTION
  2
BLOCKS
  0
BLOCK
  8
0
  2
$MODEL_SPACE
 70
     0
 10
0.0
 20
0.0
 30
0.0
  3
$MODEL_SPACE
  1

  0
ENDBLK
  5
E
  8
0
  0
BLOCK
 67
     1
  8
0
  2
$PAPER_SPACE
 70
     0
 10
0.0
 20
0.0
 30
0.0
  3
$PAPER_SPACE
  1

  0
ENDBLK
  5
10
 67
     1
  8
0
  0
BLOCK
  8
0
  2
CLUMP0
 70
     0
 10
0.0
 20
0.0
 30
0.0
  3
CLUMP0
  1

  0
LINE
  5
32
  8
図枠
 10
1065.0040918484999
 20
-384.6259018323999
 30
0.0
 11
1065.0040918484999
 21
-374.62590183240002
 31
0.0
  0
LINE
  5
33
  8
図枠
 10
947.00409184850002
 20
-384.6259018323999
 30
0.0
 11
947.00409184850002
 21
-374.62590183240002
 31
0.0
  0
LINE
  5
34
  8
図枠
 10
965.00409184850002
 20
-384.6259018323999
 30
0.0
 11
965.00409184850002
 21
-374.62590183240002
 31
0.0
  0
LINE
  5
35
  8
図枠
 10
1175.0040918484999
 20
-384.6259018323999
 30
0.0
 11
1175.0040918484999
 21
-374.62590183240002
 31
0.0
  0
LINE
  5
36
  8
図枠
 10
1157.0040918484999
 20
-384.6259018323999
 30
0.0
 11
1157.0040918484999
 21
-374.62590183240002
 31
0.0
  0
LINE
  5
37
  8
図枠
 10
1237.0040918484999
 20
-374.62590183240002
 30
0.0
 11
947.00409184850002
 21
-374.62590183240002
 31
0.0
  0
ENDBLK
  5
38
  8
0
  0
BLOCK
  8
0
  2
CLUMP1
 70
     0
 10
0.0
 20
0.0
 30
0.0
  3
CLUMP1
  1

  0
LINE
  5
3C
  8
図枠
 10
1065.0040918484999
 20
-404.6259018323999
 30
0.0
 11
1065.0040918484999
 21
-394.6259018323999
 31
0.0
  0
LINE
  5
3D
  8
図枠
 10
947.00409184850002
 20
-404.6259018323999
 30
0.0
 11
947.00409184850002
 21
-394.6259018323999
 31
0.0
  0
LINE
  5
3E
  8
図枠
 10
965.00409184850002
 20
-404.6259018323999
 30
0.0
 11
965.00409184850002
 21
-394.6259018323999
 31
0.0
  0
LINE
  5
3F
  8
図枠
 10
1175.0040918484999
 20
-404.6259018323999
 30
0.0
 11
1175.0040918484999
 21
-394.6259018323999
 31
0.0
  0
LINE
  5
40
  8
図枠
 10
1157.0040918484999
 20
-404.6259018323999
 30
0.0
 11
1157.0040918484999
 21
-394.6259018323999
 31
0.0
  0
LINE
  5
41
  8
図枠
 10
1237.0040918484999
 20
-394.6259018323999
 30
0.0
 11
947.00409184850002
 21
-394.6259018323999
 31
0.0
  0
ENDBLK
  5
42
  8
0
  0
BLOCK
  8
0
  2
CLUMP2
 70
     0
 10
0.0
 20
0.0
 30
0.0
  3
CLUMP2
  1

  0
LINE
  5
46
  8
図枠
 10
1065.0040918484999
 20
-414.6259018323999
 30
0.0
 11
1065.0040918484999
 21
-404.6259018323999
 31
0.0
  0
LINE
  5
47
  8
図枠
 10
947.00409184850002
 20
-414.6259018323999
 30
0.0
 11
947.00409184850002
 21
-404.6259018323999
 31
0.0
  0
LINE
  5
48
  8
図枠
 10
965.00409184850002
 20
-414.6259018323999
 30
0.0
 11
965.00409184850002
 21
-404.6259018323999
 31
0.0
  0
LINE
  5
49
  8
図枠
 10
1175.0040918484999
 20
-414.6259018323999
 30
0.0
 11
1175.0040918484999
 21
-404.6259018323999
 31
0.0
  0
LINE
  5
4A
  8
図枠
 10
1157.0040918484999
 20
-414.6259018323999
 30
0.0
 11
1157.0040918484999
 21
-404.6259018323999
 31
0.0
  0
LINE
  5
4B
  8
図枠
 10
1237.0040918484999
 20
-404.6259018323999
 30
0.0
 11
947.00409184850002
 21
-404.6259018323999
 31
0.0
  0
ENDBLK
  5
4C
  8
0
  0
BLOCK
  8
0
  2
CLUMP3
 70
     0
 10
0.0
 20
0.0
 30
0.0
  3
CLUMP3
  1

  0
LINE
  5
50
  8
図枠
 10
1065.0040918484999
 20
-394.6259018323999
 30
0.0
 11
1065.0040918484999
 21
-384.6259018323999
 31
0.0
  0
LINE
  5
51
  8
図枠
 10
947.00409184850002
 20
-394.6259018323999
 30
0.0
 11
947.00409184850002
 21
-384.6259018323999
 31
0.0
  0
LINE
  5
52
  8
図枠
 10
965.00409184850002
 20
-394.6259018323999
 30
0.0
 11
965.00409184850002
 21
-384.6259018323999
 31
0.0
  0
LINE
  5
53
  8
図枠
 10
1175.0040918484999
 20
-394.6259018323999
 30
0.0
 11
1175.0040918484999
 21
-384.6259018323999
 31
0.0
  0
LINE
  5
54
  8
図枠
 10
1157.0040918484999
 20
-394.6259018323999
 30
0.0
 11
1157.0040918484999
 21
-384.6259018323999
 31
0.0
  0
LINE
  5
55
  8
図枠
 10
1237.0040918484999
 20
-384.6259018323999
 30
0.0
 11
947.00409184850002
 21
-384.6259018323999
 31
0.0
  0
ENDBLK
  5
56
  8
0
  0
BLOCK
  8
0
  2
CLUMP4
 70
     0
 10
0.0
 20
0.0
 30
0.0
  3
CLUMP4
  1

  0
LINE
  5
5A
  8
図枠
 10
1065.0040918484999
 20
-364.62590183240002
 30
0.0
 11
1065.0040918484999
 21
-354.62590183240002
 31
0.0
  0
LINE
  5
5B
  8
図枠
 10
947.00409184850002
 20
-364.62590183240002
 30
0.0
 11
947.00409184850002
 21
-354.62590183240002
 31
0.0
  0
LINE
  5
5C
  8
図枠
 10
965.00409184850002
 20
-364.62590183240002
 30
0.0
 11
965.00409184850002
 21
-354.62590183240002
 31
0.0
  0
LINE
  5
5D
  8
図枠
 10
1175.0040918484999
 20
-364.62590183240002
 30
0.0
 11
1175.0040918484999
 21
-354.62590183240002
 31
0.0
  0
LINE
  5
5E
  8
図枠
 10
1157.0040918484999
 20
-364.62590183240002
 30
0.0
 11
1157.0040918484999
 21
-354.62590183240002
 31
0.0
  0
LINE
  5
5F
  8
図枠
 10
1237.0040918484999
 20
-354.62590183240002
 30
0.0
 11
947.00409184850002
 21
-354.62590183240002
 31
0.0
  0
ENDBLK
  5
60
  8
0
  0
BLOCK
  8
0
  2
CLUMP5
 70
     0
 10
0.0
 20
0.0
 30
0.0
  3
CLUMP5
  1

  0
LINE
  5
68
  8
図枠
 10
1063.6465969463
 20
-485.47255589859992
 30
0.0
 11
1065.6465969463
 21
-482.47255589859992
 31
0.0
  0
LINE
  5
69
  8
図枠
 10
1034.3253848250999
 20
-482.47255589859992
 30
0.0
 11
1034.3253848250999
 21
-486.47255589859992
 31
0.0
  0
LINE
  5
6A
  8
図枠
 10
1081.7794441133001
 20
-489.47255589859992
 30
0.0
 11
1088.0815622429
 21
-489.47255589859992
 31
0.0
  0
LINE
  5
6B
  8
図枠
 10
1047.6465969463
 20
-496.47255589859998
 30
0.0
 11
1052.6465969463
 21
-496.47255589859998
 31
0.0
  0
LINE
  5
6C
  8
図枠
 10
1047.6465969463
 20
-487.11677643360002
 30
0.0
 11
1055.6465969463
 21
-487.11677643360002
 31
0.0
  0
INSERT
  5
6D
  8
0
  6
CONTINUOUS
  2
*U32
 10
0.0
 20
0.0
 30
0.0
  0
LINE
  5
6E
  8
図枠
 62
     5
 10
1097.0040918484999
 20
29.37409816760001
 30
0.0
 11
1097.0040918484999
 21
59.374098167600003
 31
0.0
  0
LINE
  5
6F
  8
図枠
 62
     5
 10
1197.0040918484999
 20
29.37409816760001
 30
0.0
 11
1197.0040918484999
 21
59.374098167600003
 31
0.0
  0
LINE
  5
70
  8
図枠
 62
     5
 10
1065.0040918484999
 20
29.37409816760001
 30
0.0
 11
1065.0040918484999
 21
59.374098167600003
 31
0.0
  0
LINE
  5
71
  8
図枠
 62
     5
 10
1051.4855210764999
 20
40.235681669599991
 30
0.0
 11
1061.3855210765
 21
40.235681669599991
 31
0.0
  0
LINE
  5
72
  8
図枠
 62
     5
 10
1056.4355210765
 20
38.909333167100002
 30
0.0
 11
1061.3855210765
 21
30.3356816696
 31
0.0
  0
LINE
  5
73
  8
図枠
 62
     5
 10
1049.0040918484999
 20
29.37409816760001
 30
0.0
 11
1049.0040918484999
 21
59.374098167600003
 31
0.0
  0
LINE
  5
74
  8
図枠
 62
     5
 10
1217.0040918484999
 20
29.37409816760001
 30
0.0
 11
1217.0040918484999
 21
59.374098167600003
 31
0.0
  0
LINE
  5
75
  8
図枠
 62
     5
 10
1049.0040918484999
 20
49.374098167600003
 30
0.0
 11
1237.0040918484999
 21
49.374098167600003
 31
0.0
  0
LINE
  5
76
  8
図枠
 62
     5
 10
1049.0040918484999
 20
39.37409816760001
 30
0.0
 11
1237.0040918484999
 21
39.37409816760001
 31
0.0
  0
LINE
  5
77
  8
図枠
 62
     5
 10
1049.0040918484999
 20
29.37409816760001
 30
0.0
 11
1237.0040918484999
 21
29.37409816760001
 31
0.0
  0
INSERT
  5
78
  8
0
  6
CONTINUOUS
  2
*U33
 10
0.0
 20
0.0
 30
0.0
  0
LINE
  5
79
  8
図枠
 62
     5
 10
437.00409184849991
 20
-500.62590183240002
 30
0.0
 11
437.00409184849991
 21
59.374098167600003
 31
0.0
  0
LINE
  5
7A
  8
図枠
 62
     5
 10
437.00409184849991
 20
-500.62590183240002
 30
0.0
 11
1237.0040918484999
 21
-500.62590183240002
 31
0.0
  0
LINE
  5
7B
  8
図枠
 62
     5
 10
1237.0040918484999
 20
59.374098167600003
 30
0.0
 11
437.00409184849991
 21
59.374098167600003
 31
0.0
  0
LINE
  5
7C
  8
図枠
 62
     5
 10
1237.0040918484999
 20
-500.62590183240002
 30
0.0
 11
1237.0040918484999
 21
59.374098167600003
 31
0.0
  0
LINE
  5
7D
  8
図枠
 10
1047.6465969463
 20
-487.76099696860001
 30
0.0
 11
1047.6465969463
 21
-487.11677643360002
 31
0.0
  0
LINE
  5
7E
  8
図枠
 10
1023.0231772020001
 20
-486.47255589859992
 30
0.0
 11
1023.0231772020001
 21
-489.47255589859992
 31
0.0
  0
LINE
  5
7F
  8
図枠
 62
     5
 10
1056.4355210765
 20
48.8093331671
 30
0.0
 11
1061.3855210765
 21
40.235681669599991
 31
0.0
  0
LINE
  5
80
  8
図枠
 62
     5
 10
1056.4355210765
 20
38.909333167100002
 30
0.0
 11
1051.4855210764999
 21
30.3356816696
 31
0.0
  0
INSERT
  5
81
  8
0
  6
CONTINUOUS
  2
*U34
 10
0.0
 20
0.0
 30
0.0
  0
LINE
  5
82
  8
図枠
  6
DOT
 10
427.04409184849987
 20
-509.0859018324
 30
0.0
 11
427.04409184849987
 21
67.834098167600004
 31
0.0
  0
LINE
  5
83
  8
図枠
  6
DOT
 10
1246.9640918484999
 20
-509.0859018324
 30
0.0
 11
1246.9640918484999
 21
67.834098167600004
 31
0.0
  0
LINE
  5
84
  8
図枠
  6
DOT
 10
427.04409184849987
 20
-509.0859018324
 30
0.0
 11
1246.9640918484999
 21
-509.0859018324
 31
0.0
  0
LINE
  5
85
  8
図枠
 10
1030.3253848250999
 20
-492.47255589859998
 30
0.0
 11
1030.3253848250999
 21
-489.47255589859992
 31
0.0
  0
LINE
  5
86
  8
図枠
  6
DOT
 10
1246.9640918484999
 20
67.834098167600004
 30
0.0
 11
427.04409184849987
 21
67.834098167600004
 31
0.0
  0
LINE
  5
87
  8
図枠
 10
1025.3253848250999
 20
-489.47255589859992
 30
0.0
 11
1025.3253848250999
 21
-492.47255589859998
 31
0.0
  0
LINE
  5
88
  8
図枠
 10
1039.3253848250999
 20
-485.47255589859992
 30
0.0
 11
1042.3253848250999
 21
-482.47255589859992
 31
0.0
  0
LINE
  5
89
  8
図枠
 10
1076.6042289095999
 20
-491.07255589859989
 30
0.0
 11
1076.1348955762001
 21
-489.47255589859992
 31
0.0
  0
LINE
  5
8A
  8
図枠
 10
1030.3253848250999
 20
-486.47255589859992
 30
0.0
 11
1030.3253848250999
 21
-485.47255589859992
 31
0.0
  0
LINE
  5
8B
  8
図枠
 10
1061.3720356505
 20
-492.17081831659999
 30
0.0
 11
1061.0158315309
 21
-492.51957460499989
 31
0.0
  0
LINE
  5
8C
  8
図枠
 10
1063.6465969463
 20
-485.47255589859992
 30
0.0
 11
1065.6465969463
 21
-482.47255589859992
 31
0.0
  0
LINE
  5
8D
  8
図枠
 10
1088.0815622429
 20
-491.07255589859989
 30
0.0
 11
1088.0815622429
 21
-494.67255589860002
 31
0.0
  0
LINE
  5
8E
  8
図枠
 10
1065.6465969463
 20
-493.47255589859992
 30
0.0
 11
1065.6465969463
 21
-496.47255589859998
 31
0.0
  0
LINE
  5
8F
  8
図枠
 10
1080.743490955
 20
-485.87255589860001
 30
0.0
 11
1088.0815622429
 21
-485.87255589860001
 31
0.0
  0
LINE
  5
90
  8
図枠
 10
1080.743490955
 20
-485.87255589860001
 30
0.0
 11
1080.4507024545001
 21
-484.85509811769992
 31
0.0
  0
LINE
  5
91
  8
図枠
 10
1065.6465969463
 20
-482.47255589859992
 30
0.0
 11
1047.6465969463
 21
-482.47255589859992
 31
0.0
  0
INSERT
  5
92
  8
0
  6
CONTINUOUS
  2
*U35
 10
0.0
 20
0.0
 30
0.0
  0
LINE
  5
93
  8
図枠
 10
1078.4815622429001
 20
-497.47255589859992
 30
0.0
 11
1077.6602289095999
 21
-494.67255589860002
 31
0.0
  0
LINE
  5
94
  8
図枠
 10
1031.3253848250999
 20
-493.47255589859992
 30
0.0
 11
1025.3253848250999
 21
-493.47255589859992
 31
0.0
  0
LINE
  5
95
  8
図枠
 10
1047.6465969463
 20
-486.0725558986
 30
0.0
 11
1057.6465969463
 21
-486.0725558986
 31
0.0
  0
LINE
  5
96
  8
図枠
 10
1074.7759268719001
 20
-443.22590183239998
 30
0.0
 11
1084.3759268719
 21
-440.82590183240001
 31
0.0
  0
CIRCLE
  5
97
  8
図枠
 10
1063.8040918485001
 20
-445.6259018323999
 30
0.0
 40
4.7999999999999989
  0
INSERT
  5
98
  8
0
  6
CONTINUOUS
  2
*U36
 10
0.0
 20
0.0
 30
0.0
  0
LINE
  5
99
  8
図枠
 10
1030.3253848250999
 20
-489.47255589859992
 30
0.0
 11
1034.3253848250999
 21
-489.47255589859992
 31
0.0
  0
LINE
  5
9A
  8
図枠
 10
1070.0815622429
 20
-489.47255589859992
 30
0.0
 11
1076.1348955762001
 21
-489.47255589859992
 31
0.0
  0
LINE
  5
9B
  8
図枠
 10
1042.3253848250999
 20
-486.47255589859992
 30
0.0
 11
1039.3253848250999
 21
-486.47255589859992
 31
0.0
  0
LINE
  5
9C
  8
図枠
 10
1039.3253848250999
 20
-486.47255589859992
 30
0.0
 11
1039.3253848250999
 21
-485.47255589859992
 31
0.0
  0
LINE
  5
9D
  8
図枠
 10
1070.0815622429
 20
-485.87255589860001
 30
0.0
 11
1075.0788955762
 21
-485.87255589860001
 31
0.0
  0
LINE
  5
9E
  8
図枠
 10
1080.4507024545001
 20
-484.85509811769992
 30
0.0
 11
1082.0815622429
 21
-482.47255589859992
 31
0.0
  0
LINE
  5
9F
  8
図枠
 10
1047.6465969463
 20
-496.47255589859998
 30
0.0
 11
1047.6465969463
 21
-493.47255589859992
 31
0.0
  0
LINE
  5
A0
  8
図枠
 10
1097.0040918484999
 20
-434.6259018323999
 30
0.0
 11
1097.0040918484999
 21
-500.62590183240002
 31
0.0
  0
INSERT
  5
A1
  8
0
  6
CONTINUOUS
  2
*U37
 10
0.0
 20
0.0
 30
0.0
  0
INSERT
  5
A2
  8
0
  6
CONTINUOUS
  2
*U38
 10
0.0
 20
0.0
 30
0.0
  0
INSERT
  5
A3
  8
0
  6
CONTINUOUS
  2
*U39
 10
0.0
 20
0.0
 30
0.0
  0
LINE
  5
A4
  8
図枠
 62
     5
 10
1051.4855210764999
 20
30.3356816696
 30
0.0
 11
1061.3855210765
 21
30.3356816696
 31
0.0
  0
LINE
  5
A5
  8
図枠
 10
1023.0231772020001
 20
-489.47255589859992
 30
0.0
 11
1025.0231772019999
 21
-489.47255589859992
 31
0.0
  0
ARC
  5
A6
  8
図枠
 10
1052.6465969463
 20
-485.47255589859992
 30
0.0
 40
11.0
 50
322.48761197969998
 51
0.0
  0
LINE
  5
A7
  8
図枠
 10
1025.3253848250999
 20
-496.47255589859998
 30
0.0
 11
1033.3253848250999
 21
-496.47255589859998
 31
0.0
  0
LINE
  5
A8
  8
図枠
 10
1070.0815622429
 20
-494.67255589860002
 30
0.0
 11
1077.6602289095999
 21
-494.67255589860002
 31
0.0
  0
ARC
  5
A9
  8
図枠
 10
1031.3253848250999
 20
-490.47255589859992
 30
0.0
 40
3.0
 50
270.0
 51
0.0
  0
LINE
  5
AA
  8
図枠
 10
1070.0815622429
 20
-491.07255589859989
 30
0.0
 11
1070.0815622429
 21
-494.67255589860002
 31
0.0
  0
LINE
  5
AB
  8
図枠
 10
1025.3253848250999
 20
-492.47255589859998
 30
0.0
 11
1030.3253848250999
 21
-492.47255589859998
 31
0.0
  0
LINE
  5
AC
  8
図枠
 10
1056.7192219297001
 20
-489.51069770890001
 30
0.0
 11
1056.2380303171001
 21
-490.04217442999987
 31
0.0
  0
LINE
  5
AD
  8
図枠
 10
1084.0815622429
 20
-497.47255589859992
 30
0.0
 11
1078.4815622429001
 21
-497.47255589859992
 31
0.0
  0
LINE
  5
AE
  8
図枠
 10
1034.3253848250999
 20
-489.47255589859992
 30
0.0
 11
1034.3253848250999
 21
-490.47255589859992
 31
0.0
  0
LINE
  5
AF
  8
図枠
 10
1237.0040918484999
 20
-434.6259018323999
 30
0.0
 11
947.00409184850002
 21
-434.6259018323999
 31
0.0
  0
LINE
  5
B0
  8
図枠
 10
1084.3759268719
 20
-440.82590183240001
 30
0.0
 11
1084.3759268719
 21
-450.42590183239992
 31
0.0
  0
LINE
  5
B1
  8
図枠
 62
     5
 10
1056.4355210765
 20
48.8093331671
 30
0.0
 11
1051.4855210764999
 21
40.235681669599991
 31
0.0
  0
LINE
  5
B2
  8
図枠
 10
1042.3253848250999
 20
-482.47255589859992
 30
0.0
 11
1034.3253848250999
 21
-482.47255589859992
 31
0.0
  0
LINE
  5
B3
  8
図枠
 10
1039.3253848250999
 20
-490.47255589859992
 30
0.0
 11
1039.3253848250999
 21
-489.47255589859992
 31
0.0
  0
LINE
  5
B4
  8
図枠
 10
1070.0815622429
 20
-485.87255589860001
 30
0.0
 11
1070.0815622429
 21
-489.47255589859992
 31
0.0
  0
LINE
  5
B5
  8
図枠
 10
1034.3253848250999
 20
-486.47255589859992
 30
0.0
 11
1030.3253848250999
 21
-486.47255589859992
 31
0.0
  0
LINE
  5
B6
  8
図枠
 10
1033.3253848250999
 20
-482.47255589859992
 30
0.0
 11
1025.3253848250999
 21
-482.47255589859992
 31
0.0
  0
LINE
  5
B7
  8
図枠
 10
1030.3253848250999
 20
-485.47255589859992
 30
0.0
 11
1033.3253848250999
 21
-482.47255589859992
 31
0.0
  0
LINE
  5
B8
  8
図枠
 10
1025.3253848250999
 20
-482.47255589859992
 30
0.0
 11
1025.3253848250999
 21
-486.47255589859992
 31
0.0
  0
LINE
  5
B9
  8
図枠
 10
1083.2758208974999
 20
-494.67255589860002
 30
0.0
 11
1088.0815622429
 21
-494.67255589860002
 31
0.0
  0
LINE
  5
BA
  8
図枠
 10
1075.0788955762
 20
-485.87255589860001
 30
0.0
 11
1074.0815622429
 21
-482.47255589859992
 31
0.0
  0
LINE
  5
BB
  8
図枠
 10
1070.0815622429
 20
-491.07255589859989
 30
0.0
 11
1076.6042289095999
 21
-491.07255589859989
 31
0.0
  0
LINE
  5
BC
  8
図枠
 10
1082.2398677392
 20
-491.07255589859989
 30
0.0
 11
1081.7794441133001
 21
-489.47255589859992
 31
0.0
  0
ARC
  5
BD
  8
図枠
 10
1050.0465969463
 20
-485.87255589860001
 30
0.0
 40
7.5999999999999988
 50
270.0
 51
298.08590481520002
  0
INSERT
  5
BE
  8
0
  6
CONTINUOUS
  2
*U40
 10
0.0
 20
0.0
 30
0.0
  0
LINE
  5
BF
  8
図枠
 10
952.00409184849991
 20
-445.6259018323999
 30
0.0
 11
992.00409184850002
 21
-445.6259018323999
 31
0.0
  0
LINE
  5
C0
  8
図枠
 10
997.00409184850002
 20
-434.6259018323999
 30
0.0
 11
997.00409184850002
 21
-456.6259018323999
 31
0.0
  0
LINE
  5
C1
  8
図枠
 10
947.00409184850002
 20
-456.6259018323999
 30
0.0
 11
1237.0040918484999
 21
-456.6259018323999
 31
0.0
  0
LINE
  5
C2
  8
図枠
 10
1047.0040918484999
 20
-434.6259018323999
 30
0.0
 11
1047.0040918484999
 21
-456.6259018323999
 31
0.0
  0
LINE
  5
C3
  8
図枠
  6
BORDER
 10
1063.8040918485001
 20
-438.42590183239997
 30
0.0
 11
1063.8040918485001
 21
-452.82590183240001
 31
0.0
  0
LINE
  5
C4
  8
図枠
  6
BORDER
 10
1063.8040918485001
 20
-438.42590183239997
 30
0.0
 11
1063.8040918485001
 21
-452.82590183240001
 31
0.0
  0
LINE
  5
C5
  8
図枠
 10
1088.0815622429
 20
-485.87255589860001
 30
0.0
 11
1088.0815622429
 21
-489.47255589859992
 31
0.0
  0
LINE
  5
C6
  8
図枠
 10
1002.0040918485
 20
-445.6259018323999
 30
0.0
 11
1042.0040918484999
 21
-445.6259018323999
 31
0.0
  0
INSERT
  5
C7
  8
0
  6
CONTINUOUS
  2
*U41
 10
0.0
 20
0.0
 30
0.0
  0
CIRCLE
  5
C8
  8
図枠
 10
1063.8040918485001
 20
-445.6259018323999
 30
0.0
 40
4.7999999999999989
  0
LINE
  5
C9
  8
図枠
 10
1074.7759268719001
 20
-443.22590183239998
 30
0.0
 11
1084.3759268719
 21
-440.82590183240001
 31
0.0
  0
INSERT
  5
CA
  8
0
  6
CONTINUOUS
  2
*U42
 10
0.0
 20
0.0
 30
0.0
  0
CIRCLE
  5
CB
  8
図枠
 10
1063.8040918485001
 20
-445.6259018323999
 30
0.0
 40
2.399999999999999
  0
LINE
  5
CC
  8
図枠
 10
1084.0815622429
 20
-497.47255589859992
 30
0.0
 11
1083.2758208974999
 21
-494.67255589860002
 31
0.0
  0
LINE
  5
CD
  8
図枠
 10
1082.2398677392
 20
-491.07255589859989
 30
0.0
 11
1088.0815622429
 21
-491.07255589859989
 31
0.0
  0
LINE
  5
CE
  8
図枠
 10
1047.6465969463
 20
-493.47255589859992
 30
0.0
 11
1050.0465969463
 21
-493.47255589859992
 31
0.0
  0
LINE
  5
CF
  8
図枠
 10
1074.0815622429
 20
-482.47255589859992
 30
0.0
 11
1082.0815622429
 21
-482.47255589859992
 31
0.0
  0
LINE
  5
D0
  8
図枠
 10
1025.3253848250999
 20
-486.47255589859992
 30
0.0
 11
1023.0231772020001
 21
-486.47255589859992
 31
0.0
  0
LINE
  5
D1
  8
図枠
 10
1047.6465969463
 20
-493.47255589859992
 30
0.0
 11
1047.6465969463
 21
-496.47255589859998
 31
0.0
  0
LINE
  5
D2
  8
図枠
 10
1025.3253848250999
 20
-489.47255589859992
 30
0.0
 11
1025.0231772019999
 21
-489.47255589859992
 31
0.0
  0
LINE
  5
D3
  8
図枠
 10
1025.3253848250999
 20
-493.47255589859992
 30
0.0
 11
1025.3253848250999
 21
-496.47255589859998
 31
0.0
  0
ARC
  5
D4
  8
図枠
 10
1050.0465969463
 20
-485.87255589860001
 30
0.0
 40
7.5999999999999988
 50
331.39928138329998
 51
358.49204224580001
  0
LINE
  5
D5
  8
図枠
 10
1039.3253848250999
 20
-489.47255589859992
 30
0.0
 11
1042.3253848250999
 21
-489.47255589859992
 31
0.0
  0
ARC
  5
D6
  8
図枠
 10
1052.6465969463
 20
-485.47255589859992
 30
0.0
 40
11.0
 50
270.0
 51
302.54495885400001
  0
LINE
  5
D7
  8
図枠
 10
1074.7759268719001
 20
-448.0259018324
 30
0.0
 11
1084.3759268719
 21
-450.42590183239992
 31
0.0
  0
LINE
  5
D8
  8
図枠
 10
1074.7759268719001
 20
-443.22590183239998
 30
0.0
 11
1074.7759268719001
 21
-448.0259018324
 31
0.0
  0
LINE
  5
D9
  8
図枠
 10
1084.3759268719
 20
-440.82590183240001
 30
0.0
 11
1084.3759268719
 21
-450.42590183239992
 31
0.0
  0
LINE
  5
DA
  8
図枠
 10
1055.6465969463
 20
-487.11677643360002
 30
0.0
 11
1054.5152260964001
 21
-488.24814728349992
 31
0.0
  0
LINE
  5
DB
  8
図枠
  6
BORDER
 10
1056.6040918485
 20
-445.6259018323999
 30
0.0
 11
1087.4040918485
 21
-445.6259018323999
 31
0.0
  0
CIRCLE
  5
DC
  8
図枠
 10
1063.8040918485001
 20
-445.6259018323999
 30
0.0
 40
2.399999999999999
  0
POLYLINE
  8
図枠
  5
57C
  66
     1
 10
0.000000
 20
0.000000
 30
0.000000
  70
     8
  0
VERTEX
  8
図枠
  5
57D
 10
1061.02
 20
-492.520
 30
0.000000
  70
    32
  0
VERTEX
  8
図枠
  5
57E
 10
1061.05
 20
-492.529
 30
0.000000
  70
    32
  0
VERTEX
  8
図枠
  5
57F
 10
1061.09
 20
-492.539
 30
0.000000
  70
    32
  0
VERTEX
  8
図枠
  5
580
 10
1061.12
 20
-492.549
 30
0.000000
  70
    32
  0
VERTEX
  8
図枠
  5
581
 10
1061.16
 20
-492.559
 30
0.000000
  70
    32
  0
VERTEX
  8
図枠
  5
582
 10
1061.19
 20
-492.569
 30
0.000000
  70
    32
  0
VERTEX
  8
図枠
  5
583
 10
1061.23
 20
-492.578
 30
0.000000
  70
    32
  0
VERTEX
  8
図枠
  5
584
 10
1061.26
 20
-492.588
 30
0.000000
  70
    32
  0
VERTEX
  8
図枠
  5
585
 10
1061.30
 20
-492.597
 30
0.000000
  70
    32
  0
VERTEX
  8
図枠
  5
586
 10
1061.33
 20
-492.607
 30
0.000000
  70
    32
  0
VERTEX
  8
図枠
  5
587
 10
1061.37
 20
-492.616
 30
0.000000
  70
    32
  0
VERTEX
  8
図枠
  5
588
 10
1061.40
 20
-492.626
 30
0.000000
  70
    32
  0
VERTEX
  8
図枠
  5
589
 10
1061.44
 20
-492.635
 30
0.000000
  70
    32
  0
VERTEX
  8
図枠
  5
58A
 10
1061.47
 20
-492.644
 30
0.000000
  70
    32
  0
VERTEX
  8
図枠
  5
58B
 10
1061.51
 20
-492.653
 30
0.000000
  70
    32
  0
VERTEX
  8
図枠
  5
58C
 10
1061.54
 20
-492.662
 30
0.000000
  70
    32
  0
VERTEX
  8
図枠
  5
58D
 10
1061.58
 20
-492.672
 30
0.000000
  70
    32
  0
VERTEX
  8
図枠
  5
58E
 10
1061.61
 20
-492.681
 30
0.000000
  70
    32
  0
VERTEX
  8
図枠
  5
58F
 10
1061.65
 20
-492.690
 30
0.000000
  70
    32
  0
VERTEX
  8
図枠
  5
590
 10
1061.69
 20
-492.699
 30
0.000000
  70
    32
  0
VERTEX
  8
図枠
  5
591
 10
1061.72
 20
-492.707
 30
0.000000
  70
    32
  0
VERTEX
  8
図枠
  5
592
 10
1061.76
 20
-492.716
 30
0.000000
  70
    32
  0
VERTEX
  8
図枠
  5
593
 10
1061.79
 20
-492.725
 30
0.000000
  70
    32
  0
VERTEX
  8
図枠
  5
594
 10
1061.83
 20
-492.734
 30
0.000000
  70
    32
  0
VERTEX
  8
図枠
  5
595
 10
1061.86
 20
-492.743
 30
0.000000
  70
    32
  0
VERTEX
  8
図枠
  5
596
 10
1061.90
 20
-492.751
 30
0.000000
  70
    32
  0
VERTEX
  8
図枠
  5
597
 10
1061.94
 20
-492.760
 30
0.000000
  70
    32
  0
VERTEX
  8
図枠
  5
598
 10
1061.97
 20
-492.768
 30
0.000000
  70
    32
  0
VERTEX
  8
図枠
  5
599
 10
1062.01
 20
-492.777
 30
0.000000
  70
    32
  0
VERTEX
  8
図枠
  5
59A
 10
1062.04
 20
-492.785
 30
0.000000
  70
    32
  0
VERTEX
  8
図枠
  5
59B
 10
1062.08
 20
-492.794
 30
0.000000
  70
    32
  0
VERTEX
  8
図枠
  5
59C
 10
1062.12
 20
-492.802
 30
0.000000
  70
    32
  0
VERTEX
  8
図枠
  5
59D
 10
1062.15
 20
-492.811
 30
0.000000
  70
    32
  0
VERTEX
  8
図枠
  5
59E
 10
1062.19
 20
-492.819
 30
0.000000
  70
    32
  0
VERTEX
  8
図枠
  5
59F
 10
1062.22
 20
-492.827
 30
0.000000
  70
    32
  0
VERTEX
  8
図枠
  5
5A0
 10
1062.26
 20
-492.835
 30
0.000000
  70
    32
  0
VERTEX
  8
図枠
  5
5A1
 10
1062.29
 20
-492.844
 30
0.000000
  70
    32
  0
VERTEX
  8
図枠
  5
5A2
 10
1062.33
 20
-492.852
 30
0.000000
  70
    32
  0
VERTEX
  8
図枠
  5
5A3
 10
1062.37
 20
-492.860
 30
0.000000
  70
    32
  0
VERTEX
  8
図枠
  5
5A4
 10
1062.40
 20
-492.868
 30
0.000000
  70
    32
  0
VERTEX
  8
図枠
  5
5A5
 10
1062.44
 20
-492.876
 30
0.000000
  70
    32
  0
VERTEX
  8
図枠
  5
5A6
 10
1062.48
 20
-492.884
 30
0.000000
  70
    32
  0
VERTEX
  8
図枠
  5
5A7
 10
1062.51
 20
-492.892
 30
0.000000
  70
    32
  0
VERTEX
  8
図枠
  5
5A8
 10
1062.55
 20
-492.900
 30
0.000000
  70
    32
  0
VERTEX
  8
図枠
  5
5A9
 10
1062.58
 20
-492.908
 30
0.000000
  70
    32
  0
VERTEX
  8
図枠
  5
5AA
 10
1062.62
 20
-492.915
 30
0.000000
  70
    32
  0
VERTEX
  8
図枠
  5
5AB
 10
1062.66
 20
-492.923
 30
0.000000
  70
    32
  0
VERTEX
  8
図枠
  5
5AC
 10
1062.69
 20
-492.931
 30
0.000000
  70
    32
  0
VERTEX
  8
図枠
  5
5AD
 10
1062.73
 20
-492.939
 30
0.000000
  70
    32
  0
VERTEX
  8
図枠
  5
5AE
 10
1062.77
 20
-492.946
 30
0.000000
  70
    32
  0
VERTEX
  8
図枠
  5
5AF
 10
1062.80
 20
-492.954
 30
0.000000
  70
    32
  0
VERTEX
  8
図枠
  5
5B0
 10
1062.84
 20
-492.962
 30
0.000000
  70
    32
  0
VERTEX
  8
図枠
  5
5B1
 10
1062.87
 20
-492.969
 30
0.000000
  70
    32
  0
VERTEX
  8
図枠
  5
5B2
 10
1062.91
 20
-492.977
 30
0.000000
  70
    32
  0
VERTEX
  8
図枠
  5
5B3
 10
1062.95
 20
-492.984
 30
0.000000
  70
    32
  0
VERTEX
  8
図枠
  5
5B4
 10
1062.98
 20
-492.992
 30
0.000000
  70
    32
  0
VERTEX
  8
図枠
  5
5B5
 10
1063.02
 20
-492.999
 30
0.000000
  70
    32
  0
VERTEX
  8
図枠
  5
5B6
 10
1063.06
 20
-493.007
 30
0.000000
  70
    32
  0
VERTEX
  8
図枠
  5
5B7
 10
1063.09
 20
-493.014
 30
0.000000
  70
    32
  0
VERTEX
  8
図枠
  5
5B8
 10
1063.13
 20
-493.021
 30
0.000000
  70
    32
  0
VERTEX
  8
図枠
  5
5B9
 10
1063.17
 20
-493.029
 30
0.000000
  70
    32
  0
VERTEX
  8
図枠
  5
5BA
 10
1063.20
 20
-493.036
 30
0.000000
  70
    32
  0
VERTEX
  8
図枠
  5
5BB
 10
1063.24
 20
-493.043
 30
0.000000
  70
    32
  0
VERTEX
  8
図枠
  5
5BC
 10
1063.28
 20
-493.050
 30
0.000000
  70
    32
  0
VERTEX
  8
図枠
  5
5BD
 10
1063.31
 20
-493.058
 30
0.000000
  70
    32
  0
VERTEX
  8
図枠
  5
5BE
 10
1063.35
 20
-493.065
 30
0.000000
  70
    32
  0
VERTEX
  8
図枠
  5
5BF
 10
1063.39
 20
-493.072
 30
0.000000
  70
    32
  0
VERTEX
  8
図枠
  5
5C0
 10
1063.42
 20
-493.079
 30
0.000000
  70
    32
  0
VERTEX
  8
図枠
  5
5C1
 10
1063.46
 20
-493.086
 30
0.000000
  70
    32
  0
VERTEX
  8
図枠
  5
5C2
 10
1063.50
 20
-493.093
 30
0.000000
  70
    32
  0
VERTEX
  8
図枠
  5
5C3
 10
1063.53
 20
-493.100
 30
0.000000
  70
    32
  0
VERTEX
  8
図枠
  5
5C4
 10
1063.57
 20
-493.107
 30
0.000000
  70
    32
  0
VERTEX
  8
図枠
  5
5C5
 10
1063.61
 20
-493.114
 30
0.000000
  70
    32
  0
VERTEX
  8
図枠
  5
5C6
 10
1063.64
 20
-493.121
 30
0.000000
  70
    32
  0
VERTEX
  8
図枠
  5
5C7
 10
1063.68
 20
-493.128
 30
0.000000
  70
    32
  0
VERTEX
  8
図枠
  5
5C8
 10
1063.72
 20
-493.135
 30
0.000000
  70
    32
  0
VERTEX
  8
図枠
  5
5C9
 10
1063.75
 20
-493.142
 30
0.000000
  70
    32
  0
VERTEX
  8
図枠
  5
5CA
 10
1063.79
 20
-493.149
 30
0.000000
  70
    32
  0
VERTEX
  8
図枠
  5
5CB
 10
1063.83
 20
-493.156
 30
0.000000
  70
    32
  0
VERTEX
  8
図枠
  5
5CC
 10
1063.87
 20
-493.162
 30
0.000000
  70
    32
  0
VERTEX
  8
図枠
  5
5CD
 10
1063.90
 20
-493.169
 30
0.000000
  70
    32
  0
VERTEX
  8
図枠
  5
5CE
 10
1063.94
 20
-493.176
 30
0.000000
  70
    32
  0
VERTEX
  8
図枠
  5
5CF
 10
1063.98
 20
-493.183
 30
0.000000
  70
    32
  0
VERTEX
  8
図枠
  5
5D0
 10
1064.01
 20
-493.190
 30
0.000000
  70
    32
  0
VERTEX
  8
図枠
  5
5D1
 10
1064.05
 20
-493.196
 30
0.000000
  70
    32
  0
VERTEX
  8
図枠
  5
5D2
 10
1064.09
 20
-493.203
 30
0.000000
  70
    32
  0
VERTEX
  8
図枠
  5
5D3
 10
1064.12
 20
-493.210
 30
0.000000
  70
    32
  0
VERTEX
  8
図枠
  5
5D4
 10
1064.16
 20
-493.216
 30
0.000000
  70
    32
  0
VERTEX
  8
図枠
  5
5D5
 10
1064.20
 20
-493.223
 30
0.000000
  70
    32
  0
VERTEX
  8
図枠
  5
5D6
 10
1064.23
 20
-493.230
 30
0.000000
  70
    32
  0
VERTEX
  8
図枠
  5
5D7
 10
1064.27
 20
-493.236
 30
0.000000
  70
    32
  0
VERTEX
  8
図枠
  5
5D8
 10
1064.31
 20
-493.243
 30
0.000000
  70
    32
  0
VERTEX
  8
図枠
  5
5D9
 10
1064.35
 20
-493.249
 30
0.000000
  70
    32
  0
VERTEX
  8
図枠
  5
5DA
 10
1064.38
 20
-493.256
 30
0.000000
  70
    32
  0
VERTEX
  8
図枠
  5
5DB
 10
1064.42
 20
-493.262
 30
0.000000
  70
    32
  0
VERTEX
  8
図枠
  5
5DC
 10
1064.46
 20
-493.269
 30
0.000000
  70
    32
  0
VERTEX
  8
図枠
  5
5DD
 10
1064.49
 20
-493.275
 30
0.000000
  70
    32
  0
VERTEX
  8
図枠
  5
5DE
 10
1064.53
 20
-493.282
 30
0.000000
  70
    32
  0
VERTEX
  8
図枠
  5
5DF
 10
1064.57
 20
-493.288
 30
0.000000
  70
    32
  0
VERTEX
  8
図枠
  5
5E0
 10
1064.61
 20
-493.295
 30
0.000000
  70
    32
  0
VERTEX
  8
図枠
  5
5E1
 10
1064.64
 20
-493.301
 30
0.000000
  70
    32
  0
VERTEX
  8
図枠
  5
5E2
 10
1064.68
 20
-493.308
 30
0.000000
  70
    32
  0
VERTEX
  8
図枠
  5
5E3
 10
1064.72
 20
-493.314
 30
0.000000
  70
    32
  0
VERTEX
  8
図枠
  5
5E4
 10
1064.75
 20
-493.321
 30
0.000000
  70
    32
  0
VERTEX
  8
図枠
  5
5E5
 10
1064.79
 20
-493.327
 30
0.000000
  70
    32
  0
VERTEX
  8
図枠
  5
5E6
 10
1064.83
 20
-493.333
 30
0.000000
  70
    32
  0
VERTEX
  8
図枠
  5
5E7
 10
1064.87
 20
-493.340
 30
0.000000
  70
    32
  0
VERTEX
  8
図枠
  5
5E8
 10
1064.90
 20
-493.346
 30
0.000000
  70
    32
  0
VERTEX
  8
図枠
  5
5E9
 10
1064.94
 20
-493.353
 30
0.000000
  70
    32
  0
VERTEX
  8
図枠
  5
5EA
 10
1064.98
 20
-493.359
 30
0.000000
  70
    32
  0
VERTEX
  8
図枠
  5
5EB
 10
1065.01
 20
-493.365
 30
0.000000
  70
    32
  0
VERTEX
  8
図枠
  5
5EC
 10
1065.05
 20
-493.372
 30
0.000000
  70
    32
  0
VERTEX
  8
図枠
  5
5ED
 10
1065.09
 20
-493.378
 30
0.000000
  70
    32
  0
VERTEX
  8
図枠
  5
5EE
 10
1065.13
 20
-493.384
 30
0.000000
  70
    32
  0
VERTEX
  8
図枠
  5
5EF
 10
1065.16
 20
-493.391
 30
0.000000
  70
    32
  0
VERTEX
  8
図枠
  5
5F0
 10
1065.20
 20
-493.397
 30
0.000000
  70
    32
  0
VERTEX
  8
図枠
  5
5F1
 10
1065.24
 20
-493.403
 30
0.000000
  70
    32
  0
VERTEX
  8
図枠
  5
5F2
 10
1065.27
 20
-493.410
 30
0.000000
  70
    32
  0
VERTEX
  8
図枠
  5
5F3
 10
1065.31
 20
-493.416
 30
0.000000
  70
    32
  0
VERTEX
  8
図枠
  5
5F4
 10
1065.35
 20
-493.422
 30
0.000000
  70
    32
  0
VERTEX
  8
図枠
  5
5F5
 10
1065.39
 20
-493.429
 30
0.000000
  70
    32
  0
VERTEX
  8
図枠
  5
5F6
 10
1065.42
 20
-493.435
 30
0.000000
  70
    32
  0
VERTEX
  8
図枠
  5
5F7
 10
1065.46
 20
-493.441
 30
0.000000
  70
    32
  0
VERTEX
  8
図枠
  5
5F8
 10
1065.50
 20
-493.447
 30
0.000000
  70
    32
  0
VERTEX
  8
図枠
  5
5F9
 10
1065.53
 20
-493.454
 30
0.000000
  70
    32
  0
VERTEX
  8
図枠
  5
5FA
 10
1065.57
 20
-493.460
 30
0.000000
  70
    32
  0
VERTEX
  8
図枠
  5
5FB
 10
1065.61
 20
-493.466
 30
0.000000
  70
    32
  0
VERTEX
  8
図枠
  5
5FC
 10
1065.65
 20
-493.473
 30
0.000000
  70
    32
  0
SEQEND
  8
図枠
  5
5FD
  0
POLYLINE
  8
図枠
  5
5FE
  66
     1
 10
0.000000
 20
0.000000
 30
0.000000
  70
     8
  0
VERTEX
  8
図枠
  5
5FF
 10
1054.52
 20
-488.248
 30
0.000000
  70
    32
  0
VERTEX
  8
図枠
  5
600
 10
1054.53
 20
-488.263
 30
0.000000
  70
    32
  0
VERTEX
  8
図枠
  5
601
 10
1054.54
 20
-488.278
 30
0.000000
  70
    32
  0
VERTEX
  8
図枠
  5
602
 10
1054.55
 20
-488.292
 30
0.000000
  70
    32
  0
VERTEX
  8
図枠
  5
603
 10
1054.57
 20
-488.307
 30
0.000000
  70
    32
  0
VERTEX
  8
図枠
  5
604
 10
1054.58
 20
-488.322
 30
0.000000
  70
    32
  0
VERTEX
  8
図枠
  5
605
 10
1054.59
 20
-488.336
 30
0.000000
  70
    32
  0
VERTEX
  8
図枠
  5
606
 10
1054.61
 20
-488.351
 30
0.000000
  70
    32
  0
VERTEX
  8
図枠
  5
607
 10
1054.62
 20
-488.366
 30
0.000000
  70
    32
  0
VERTEX
  8
図枠
  5
608
 10
1054.63
 20
-488.381
 30
0.000000
  70
    32
  0
VERTEX
  8
図枠
  5
609
 10
1054.65
 20
-488.395
 30
0.000000
  70
    32
  0
VERTEX
  8
図枠
  5
60A
 10
1054.66
 20
-488.410
 30
0.000000
  70
    32
  0
VERTEX
  8
図枠
  5
60B
 10
1054.67
 20
-488.425
 30
0.000000
  70
    32
  0
VERTEX
  8
図枠
  5
60C
 10
1054.69
 20
-488.439
 30
0.000000
  70
    32
  0
VERTEX
  8
図枠
  5
60D
 10
1054.70
 20
-488.454
 30
0.000000
  70
    32
  0
VERTEX
  8
図枠
  5
60E
 10
1054.71
 20
-488.469
 30
0.000000
  70
    32
  0
VERTEX
  8
図枠
  5
60F
 10
1054.73
 20
-488.483
 30
0.000000
  70
    32
  0
VERTEX
  8
図枠
  5
610
 10
1054.74
 20
-488.498
 30
0.000000
  70
    32
  0
VERTEX
  8
図枠
  5
611
 10
1054.75
 20
-488.513
 30
0.000000
  70
    32
  0
VERTEX
  8
図枠
  5
612
 10
1054.77
 20
-488.528
 30
0.000000
  70
    32
  0
VERTEX
  8
図枠
  5
613
 10
1054.78
 20
-488.542
 30
0.000000
  70
    32
  0
VERTEX
  8
図枠
  5
614
 10
1054.79
 20
-488.557
 30
0.000000
  70
    32
  0
VERTEX
  8
図枠
  5
615
 10
1054.81
 20
-488.572
 30
0.000000
  70
    32
  0
VERTEX
  8
図枠
  5
616
 10
1054.82
 20
-488.586
 30
0.000000
  70
    32
  0
VERTEX
  8
図枠
  5
617
 10
1054.83
 20
-488.601
 30
0.000000
  70
    32
  0
VERTEX
  8
図枠
  5
618
 10
1054.85
 20
-488.615
 30
0.000000
  70
    32
  0
VERTEX
  8
図枠
  5
619
 10
1054.86
 20
-488.630
 30
0.000000
  70
    32
  0
VERTEX
  8
図枠
  5
61A
 10
1054.87
 20
-488.645
 30
0.000000
  70
    32
  0
VERTEX
  8
図枠
  5
61B
 10
1054.89
 20
-488.659
 30
0.000000
  70
    32
  0
VERTEX
  8
図枠
  5
61C
 10
1054.90
 20
-488.674
 30
0.000000
  70
    32
  0
VERTEX
  8
図枠
  5
61D
 10
1054.91
 20
-488.689
 30
0.000000
  70
    32
  0
VERTEX
  8
図枠
  5
61E
 10
1054.93
 20
-488.703
 30
0.000000
  70
    32
  0
VERTEX
  8
図枠
  5
61F
 10
1054.94
 20
-488.718
 30
0.000000
  70
    32
  0
VERTEX
  8
図枠
  5
620
 10
1054.95
 20
-488.732
 30
0.000000
  70
    32
  0
VERTEX
  8
図枠
  5
621
 10
1054.96
 20
-488.747
 30
0.000000
  70
    32
  0
VERTEX
  8
図枠
  5
622
 10
1054.98
 20
-488.762
 30
0.000000
  70
    32
  0
VERTEX
  8
図枠
  5
623
 10
1054.99
 20
-488.776
 30
0.000000
  70
    32
  0
VERTEX
  8
図枠
  5
624
 10
1055.00
 20
-488.791
 30
0.000000
  70
    32
  0
VERTEX
  8
図枠
  5
625
 10
1055.02
 20
-488.805
 30
0.000000
  70
    32
  0
VERTEX
  8
図枠
  5
626
 10
1055.03
 20
-488.820
 30
0.000000
  70
    32
  0
VERTEX
  8
図枠
  5
627
 10
1055.04
 20
-488.834
 30
0.000000
  70
    32
  0
VERTEX
  8
図枠
  5
628
 10
1055.06
 20
-488.849
 30
0.000000
  70
    32
  0
VERTEX
  8
図枠
  5
629
 10
1055.07
 20
-488.864
 30
0.000000
  70
    32
  0
VERTEX
  8
図枠
  5
62A
 10
1055.08
 20
-488.878
 30
0.000000
  70
    32
  0
VERTEX
  8
図枠
  5
62B
 10
1055.10
 20
-488.893
 30
0.000000
  70
    32
  0
VERTEX
  8
図枠
  5
62C
 10
1055.11
 20
-488.907
 30
0.000000
  70
    32
  0
VERTEX
  8
図枠
  5
62D
 10
1055.12
 20
-488.922
 30
0.000000
  70
    32
  0
VERTEX
  8
図枠
  5
62E
 10
1055.14
 20
-488.936
 30
0.000000
  70
    32
  0
VERTEX
  8
図枠
  5
62F
 10
1055.15
 20
-488.950
 30
0.000000
  70
    32
  0
VERTEX
  8
図枠
  5
630
 10
1055.16
 20
-488.965
 30
0.000000
  70
    32
  0
VERTEX
  8
図枠
  5
631
 10
1055.18
 20
-488.979
 30
0.000000
  70
    32
  0
VERTEX
  8
図枠
  5
632
 10
1055.19
 20
-488.994
 30
0.000000
  70
    32
  0
VERTEX
  8
図枠
  5
633
 10
1055.20
 20
-489.008
 30
0.000000
  70
    32
  0
VERTEX
  8
図枠
  5
634
 10
1055.22
 20
-489.023
 30
0.000000
  70
    32
  0
VERTEX
  8
図枠
  5
635
 10
1055.23
 20
-489.037
 30
0.000000
  70
    32
  0
VERTEX
  8
図枠
  5
636
 10
1055.24
 20
-489.051
 30
0.000000
  70
    32
  0
VERTEX
  8
図枠
  5
637
 10
1055.26
 20
-489.066
 30
0.000000
  70
    32
  0
VERTEX
  8
図枠
  5
638
 10
1055.27
 20
-489.080
 30
0.000000
  70
    32
  0
VERTEX
  8
図枠
  5
639
 10
1055.29
 20
-489.095
 30
0.000000
  70
    32
  0
VERTEX
  8
図枠
  5
63A
 10
1055.30
 20
-489.109
 30
0.000000
  70
    32
  0
VERTEX
  8
図枠
  5
63B
 10
1055.31
 20
-489.123
 30
0.000000
  70
    32
  0
VERTEX
  8
図枠
  5
63C
 10
1055.33
 20
-489.138
 30
0.000000
  70
    32
  0
VERTEX
  8
図枠
  5
63D
 10
1055.34
 20
-489.152
 30
0.000000
  70
    32
  0
VERTEX
  8
図枠
  5
63E
 10
1055.35
 20
-489.166
 30
0.000000
  70
    32
  0
VERTEX
  8
図枠
  5
63F
 10
1055.37
 20
-489.180
 30
0.000000
  70
    32
  0
VERTEX
  8
図枠
  5
640
 10
1055.38
 20
-489.195
 30
0.000000
  70
    32
  0
VERTEX
  8
図枠
  5
641
 10
1055.39
 20
-489.209
 30
0.000000
  70
    32
  0
VERTEX
  8
図枠
  5
642
 10
1055.41
 20
-489.223
 30
0.000000
  70
    32
  0
VERTEX
  8
図枠
  5
643
 10
1055.42
 20
-489.237
 30
0.000000
  70
    32
  0
VERTEX
  8
図枠
  5
644
 10
1055.43
 20
-489.252
 30
0.000000
  70
    32
  0
VERTEX
  8
図枠
  5
645
 10
1055.45
 20
-489.266
 30
0.000000
  70
    32
  0
VERTEX
  8
図枠
  5
646
 10
1055.46
 20
-489.280
 30
0.000000
  70
    32
  0
VERTEX
  8
図枠
  5
647
 10
1055.47
 20
-489.294
 30
0.000000
  70
    32
  0
VERTEX
  8
図枠
  5
648
 10
1055.49
 20
-489.308
 30
0.000000
  70
    32
  0
VERTEX
  8
図枠
  5
649
 10
1055.50
 20
-489.322
 30
0.000000
  70
    32
  0
VERTEX
  8
図枠
  5
64A
 10
1055.51
 20
-489.336
 30
0.000000
  70
    32
  0
VERTEX
  8
図枠
  5
64B
 10
1055.53
 20
-489.351
 30
0.000000
  70
    32
  0
VERTEX
  8
図枠
  5
64C
 10
1055.54
 20
-489.365
 30
0.000000
  70
    32
  0
VERTEX
  8
図枠
  5
64D
 10
1055.56
 20
-489.379
 30
0.000000
  70
    32
  0
VERTEX
  8
図枠
  5
64E
 10
1055.57
 20
-489.393
 30
0.000000
  70
    32
  0
VERTEX
  8
図枠
  5
64F
 10
1055.58
 20
-489.407
 30
0.000000
  70
    32
  0
VERTEX
  8
図枠
  5
650
 10
1055.60
 20
-489.421
 30
0.000000
  70
    32
  0
VERTEX
  8
図枠
  5
651
 10
1055.61
 20
-489.435
 30
0.000000
  70
    32
  0
VERTEX
  8
図枠
  5
652
 10
1055.62
 20
-489.449
 30
0.000000
  70
    32
  0
VERTEX
  8
図枠
  5
653
 10
1055.64
 20
-489.463
 30
0.000000
  70
    32
  0
VERTEX
  8
図枠
  5
654
 10
1055.65
 20
-489.477
 30
0.000000
  70
    32
  0
VERTEX
  8
図枠
  5
655
 10
1055.66
 20
-489.490
 30
0.000000
  70
    32
  0
VERTEX
  8
図枠
  5
656
 10
1055.68
 20
-489.504
 30
0.000000
  70
    32
  0
VERTEX
  8
図枠
  5
657
 10
1055.69
 20
-489.518
 30
0.000000
  70
    32
  0
VERTEX
  8
図枠
  5
658
 10
1055.71
 20
-489.532
 30
0.000000
  70
    32
  0
VERTEX
  8
図枠
  5
659
 10
1055.72
 20
-489.546
 30
0.000000
  70
    32
  0
VERTEX
  8
図枠
  5
65A
 10
1055.73
 20
-489.560
 30
0.000000
  70
    32
  0
VERTEX
  8
図枠
  5
65B
 10
1055.75
 20
-489.574
 30
0.000000
  70
    32
  0
VERTEX
  8
図枠
  5
65C
 10
1055.76
 20
-489.587
 30
0.000000
  70
    32
  0
VERTEX
  8
図枠
  5
65D
 10
1055.77
 20
-489.601
 30
0.000000
  70
    32
  0
VERTEX
  8
図枠
  5
65E
 10
1055.79
 20
-489.615
 30
0.000000
  70
    32
  0
VERTEX
  8
図枠
  5
65F
 10
1055.80
 20
-489.629
 30
0.000000
  70
    32
  0
VERTEX
  8
図枠
  5
660
 10
1055.82
 20
-489.642
 30
0.000000
  70
    32
  0
VERTEX
  8
図枠
  5
661
 10
1055.83
 20
-489.656
 30
0.000000
  70
    32
  0
VERTEX
  8
図枠
  5
662
 10
1055.84
 20
-489.670
 30
0.000000
  70
    32
  0
VERTEX
  8
図枠
  5
663
 10
1055.86
 20
-489.683
 30
0.000000
  70
    32
  0
VERTEX
  8
図枠
  5
664
 10
1055.87
 20
-489.697
 30
0.000000
  70
    32
  0
VERTEX
  8
図枠
  5
665
 10
1055.89
 20
-489.710
 30
0.000000
  70
    32
  0
VERTEX
  8
図枠
  5
666
 10
1055.90
 20
-489.724
 30
0.000000
  70
    32
  0
VERTEX
  8
図枠
  5
667
 10
1055.91
 20
-489.737
 30
0.000000
  70
    32
  0
VERTEX
  8
図枠
  5
668
 10
1055.93
 20
-489.751
 30
0.000000
  70
    32
  0
VERTEX
  8
図枠
  5
669
 10
1055.94
 20
-489.765
 30
0.000000
  70
    32
  0
VERTEX
  8
図枠
  5
66A
 10
1055.96
 20
-489.778
 30
0.000000
  70
    32
  0
VERTEX
  8
図枠
  5
66B
 10
1055.97
 20
-489.791
 30
0.000000
  70
    32
  0
VERTEX
  8
図枠
  5
66C
 10
1055.98
 20
-489.805
 30
0.000000
  70
    32
  0
VERTEX
  8
図枠
  5
66D
 10
1056.00
 20
-489.818
 30
0.000000
  70
    32
  0
VERTEX
  8
図枠
  5
66E
 10
1056.01
 20
-489.832
 30
0.000000
  70
    32
  0
VERTEX
  8
図枠
  5
66F
 10
1056.03
 20
-489.845
 30
0.000000
  70
    32
  0
VERTEX
  8
図枠
  5
670
 10
1056.04
 20
-489.858
 30
0.000000
  70
    32
  0
VERTEX
  8
図枠
  5
671
 10
1056.05
 20
-489.872
 30
0.000000
  70
    32
  0
VERTEX
  8
図枠
  5
672
 10
1056.07
 20
-489.885
 30
0.000000
  70
    32
  0
VERTEX
  8
図枠
  5
673
 10
1056.08
 20
-489.898
 30
0.000000
  70
    32
  0
VERTEX
  8
図枠
  5
674
 10
1056.10
 20
-489.911
 30
0.000000
  70
    32
  0
VERTEX
  8
図枠
  5
675
 10
1056.11
 20
-489.925
 30
0.000000
  70
    32
  0
VERTEX
  8
図枠
  5
676
 10
1056.12
 20
-489.938
 30
0.000000
  70
    32
  0
VERTEX
  8
図枠
  5
677
 10
1056.14
 20
-489.951
 30
0.000000
  70
    32
  0
VERTEX
  8
図枠
  5
678
 10
1056.15
 20
-489.964
 30
0.000000
  70
    32
  0
VERTEX
  8
図枠
  5
679
 10
1056.17
 20
-489.977
 30
0.000000
  70
    32
  0
VERTEX
  8
図枠
  5
67A
 10
1056.18
 20
-489.990
 30
0.000000
  70
    32
  0
VERTEX
  8
図枠
  5
67B
 10
1056.20
 20
-490.003
 30
0.000000
  70
    32
  0
VERTEX
  8
図枠
  5
67C
 10
1056.21
 20
-490.016
 30
0.000000
  70
    32
  0
VERTEX
  8
図枠
  5
67D
 10
1056.22
 20
-490.029
 30
0.000000
  70
    32
  0
VERTEX
  8
図枠
  5
67E
 10
1056.24
 20
-490.042
 30
0.000000
  70
    32
  0
SEQEND
  8
図枠
  5
67F
  0
POLYLINE
  8
図枠
  5
680
  66
     1
 10
0.000000
 20
0.000000
 30
0.000000
  70
     8
  0
VERTEX
  8
図枠
  5
681
 10
1058.56
 20
-494.745
 30
0.000000
  70
    32
  0
VERTEX
  8
図枠
  5
682
 10
1058.62
 20
-494.762
 30
0.000000
  70
    32
  0
VERTEX
  8
図枠
  5
683
 10
1058.67
 20
-494.779
 30
0.000000
  70
    32
  0
VERTEX
  8
図枠
  5
684
 10
1058.73
 20
-494.796
 30
0.000000
  70
    32
  0
VERTEX
  8
図枠
  5
685
 10
1058.78
 20
-494.813
 30
0.000000
  70
    32
  0
VERTEX
  8
図枠
  5
686
 10
1058.83
 20
-494.830
 30
0.000000
  70
    32
  0
VERTEX
  8
図枠
  5
687
 10
1058.89
 20
-494.847
 30
0.000000
  70
    32
  0
VERTEX
  8
図枠
  5
688
 10
1058.94
 20
-494.864
 30
0.000000
  70
    32
  0
VERTEX
  8
図枠
  5
689
 10
1059.00
 20
-494.880
 30
0.000000
  70
    32
  0
VERTEX
  8
図枠
  5
68A
 10
1059.05
 20
-494.897
 30
0.000000
  70
    32
  0
VERTEX
  8
図枠
  5
68B
 10
1059.10
 20
-494.913
 30
0.000000
  70
    32
  0
VERTEX
  8
図枠
  5
68C
 10
1059.16
 20
-494.930
 30
0.000000
  70
    32
  0
VERTEX
  8
図枠
  5
68D
 10
1059.21
 20
-494.946
 30
0.000000
  70
    32
  0
VERTEX
  8
図枠
  5
68E
 10
1059.27
 20
-494.962
 30
0.000000
  70
    32
  0
VERTEX
  8
図枠
  5
68F
 10
1059.32
 20
-494.978
 30
0.000000
  70
    32
  0
VERTEX
  8
図枠
  5
690
 10
1059.38
 20
-494.994
 30
0.000000
  70
    32
  0
VERTEX
  8
図枠
  5
691
 10
1059.43
 20
-495.010
 30
0.000000
  70
    32
  0
VERTEX
  8
図枠
  5
692
 10
1059.49
 20
-495.026
 30
0.000000
  70
    32
  0
VERTEX
  8
図枠
  5
693
 10
1059.54
 20
-495.042
 30
0.000000
  70
    32
  0
VERTEX
  8
図枠
  5
694
 10
1059.59
 20
-495.058
 30
0.000000
  70
    32
  0
VERTEX
  8
図枠
  5
695
 10
1059.65
 20
-495.073
 30
0.000000
  70
    32
  0
VERTEX
  8
図枠
  5
696
 10
1059.70
 20
-495.089
 30
0.000000
  70
    32
  0
VERTEX
  8
図枠
  5
697
 10
1059.76
 20
-495.104
 30
0.000000
  70
    32
  0
VERTEX
  8
図枠
  5
698
 10
1059.81
 20
-495.120
 30
0.000000
  70
    32
  0
VERTEX
  8
図枠
  5
699
 10
1059.87
 20
-495.135
 30
0.000000
  70
    32
  0
VERTEX
  8
図枠
  5
69A
 10
1059.92
 20
-495.151
 30
0.000000
  70
    32
  0
VERTEX
  8
図枠
  5
69B
 10
1059.98
 20
-495.166
 30
0.000000
  70
    32
  0
VERTEX
  8
図枠
  5
69C
 10
1060.03
 20
-495.181
 30
0.000000
  70
    32
  0
VERTEX
  8
図枠
  5
69D
 10
1060.09
 20
-495.196
 30
0.000000
  70
    32
  0
VERTEX
  8
図枠
  5
69E
 10
1060.14
 20
-495.211
 30
0.000000
  70
    32
  0
VERTEX
  8
図枠
  5
69F
 10
1060.20
 20
-495.226
 30
0.000000
  70
    32
  0
VERTEX
  8
図枠
  5
6A0
 10
1060.25
 20
-495.241
 30
0.000000
  70
    32
  0
VERTEX
  8
図枠
  5
6A1
 10
1060.31
 20
-495.256
 30
0.000000
  70
    32
  0
VERTEX
  8
図枠
  5
6A2
 10
1060.36
 20
-495.271
 30
0.000000
  70
    32
  0
VERTEX
  8
図枠
  5
6A3
 10
1060.42
 20
-495.285
 30
0.000000
  70
    32
  0
VERTEX
  8
図枠
  5
6A4
 10
1060.47
 20
-495.300
 30
0.000000
  70
    32
  0
VERTEX
  8
図枠
  5
6A5
 10
1060.53
 20
-495.315
 30
0.000000
  70
    32
  0
VERTEX
  8
図枠
  5
6A6
 10
1060.58
 20
-495.329
 30
0.000000
  70
    32
  0
VERTEX
  8
図枠
  5
6A7
 10
1060.64
 20
-495.344
 30
0.000000
  70
    32
  0
VERTEX
  8
図枠
  5
6A8
 10
1060.69
 20
-495.358
 30
0.000000
  70
    32
  0
VERTEX
  8
図枠
  5
6A9
 10
1060.75
 20
-495.373
 30
0.000000
  70
    32
  0
VERTEX
  8
図枠
  5
6AA
 10
1060.81
 20
-495.387
 30
0.000000
  70
    32
  0
VERTEX
  8
図枠
  5
6AB
 10
1060.86
 20
-495.401
 30
0.000000
  70
    32
  0
VERTEX
  8
図枠
  5
6AC
 10
1060.92
 20
-495.415
 30
0.000000
  70
    32
  0
VERTEX
  8
図枠
  5
6AD
 10
1060.97
 20
-495.429
 30
0.000000
  70
    32
  0
VERTEX
  8
図枠
  5
6AE
 10
1061.03
 20
-495.444
 30
0.000000
  70
    32
  0
VERTEX
  8
図枠
  5
6AF
 10
1061.08
 20
-495.458
 30
0.000000
  70
    32
  0
VERTEX
  8
図枠
  5
6B0
 10
1061.14
 20
-495.472
 30
0.000000
  70
    32
  0
VERTEX
  8
図枠
  5
6B1
 10
1061.19
 20
-495.485
 30
0.000000
  70
    32
  0
VERTEX
  8
図枠
  5
6B2
 10
1061.25
 20
-495.499
 30
0.000000
  70
    32
  0
VERTEX
  8
図枠
  5
6B3
 10
1061.31
 20
-495.513
 30
0.000000
  70
    32
  0
VERTEX
  8
図枠
  5
6B4
 10
1061.36
 20
-495.527
 30
0.000000
  70
    32
  0
VERTEX
  8
図枠
  5
6B5
 10
1061.42
 20
-495.541
 30
0.000000
  70
    32
  0
VERTEX
  8
図枠
  5
6B6
 10
1061.47
 20
-495.554
 30
0.000000
  70
    32
  0
VERTEX
  8
図枠
  5
6B7
 10
1061.53
 20
-495.568
 30
0.000000
  70
    32
  0
VERTEX
  8
図枠
  5
6B8
 10
1061.58
 20
-495.581
 30
0.000000
  70
    32
  0
VERTEX
  8
図枠
  5
6B9
 10
1061.64
 20
-495.595
 30
0.000000
  70
    32
  0
VERTEX
  8
図枠
  5
6BA
 10
1061.70
 20
-495.608
 30
0.000000
  70
    32
  0
VERTEX
  8
図枠
  5
6BB
 10
1061.75
 20
-495.622
 30
0.000000
  70
    32
  0
VERTEX
  8
図枠
  5
6BC
 10
1061.81
 20
-495.635
 30
0.000000
  70
    32
  0
VERTEX
  8
図枠
  5
6BD
 10
1061.86
 20
-495.649
 30
0.000000
  70
    32
  0
VERTEX
  8
図枠
  5
6BE
 10
1061.92
 20
-495.662
 30
0.000000
  70
    32
  0
VERTEX
  8
図枠
  5
6BF
 10
1061.97
 20
-495.675
 30
0.000000
  70
    32
  0
VERTEX
  8
図枠
  5
6C0
 10
1062.03
 20
-495.688
 30
0.000000
  70
    32
  0
VERTEX
  8
図枠
  5
6C1
 10
1062.09
 20
-495.701
 30
0.000000
  70
    32
  0
VERTEX
  8
図枠
  5
6C2
 10
1062.14
 20
-495.715
 30
0.000000
  70
    32
  0
VERTEX
  8
図枠
  5
6C3
 10
1062.20
 20
-495.728
 30
0.000000
  70
    32
  0
VERTEX
  8
図枠
  5
6C4
 10
1062.26
 20
-495.741
 30
0.000000
  70
    32
  0
VERTEX
  8
図枠
  5
6C5
 10
1062.31
 20
-495.754
 30
0.000000
  70
    32
  0
VERTEX
  8
図枠
  5
6C6
 10
1062.37
 20
-495.767
 30
0.000000
  70
    32
  0
VERTEX
  8
図枠
  5
6C7
 10
1062.42
 20
-495.779
 30
0.000000
  70
    32
  0
VERTEX
  8
図枠
  5
6C8
 10
1062.48
 20
-495.792
 30
0.000000
  70
    32
  0
VERTEX
  8
図枠
  5
6C9
 10
1062.54
 20
-495.805
 30
0.000000
  70
    32
  0
VERTEX
  8
図枠
  5
6CA
 10
1062.59
 20
-495.818
 30
0.000000
  70
    32
  0
VERTEX
  8
図枠
  5
6CB
 10
1062.65
 20
-495.831
 30
0.000000
  70
    32
  0
VERTEX
  8
図枠
  5
6CC
 10
1062.70
 20
-495.843
 30
0.000000
  70
    32
  0
VERTEX
  8
図枠
  5
6CD
 10
1062.76
 20
-495.856
 30
0.000000
  70
    32
  0
VERTEX
  8
図枠
  5
6CE
 10
1062.82
 20
-495.869
 30
0.000000
  70
    32
  0
VERTEX
  8
図枠
  5
6CF
 10
1062.87
 20
-495.881
 30
0.000000
  70
    32
  0
VERTEX
  8
図枠
  5
6D0
 10
1062.93
 20
-495.894
 30
0.000000
  70
    32
  0
VERTEX
  8
図枠
  5
6D1
 10
1062.99
 20
-495.907
 30
0.000000
  70
    32
  0
VERTEX
  8
図枠
  5
6D2
 10
1063.04
 20
-495.919
 30
0.000000
  70
    32
  0
VERTEX
  8
図枠
  5
6D3
 10
1063.10
 20
-495.932
 30
0.000000
  70
    32
  0
VERTEX
  8
図枠
  5
6D4
 10
1063.16
 20
-495.944
 30
0.000000
  70
    32
  0
VERTEX
  8
図枠
  5
6D5
 10
1063.21
 20
-495.956
 30
0.000000
  70
    32
  0
VERTEX
  8
図枠
  5
6D6
 10
1063.27
 20
-495.969
 30
0.000000
  70
    32
  0
VERTEX
  8
図枠
  5
6D7
 10
1063.32
 20
-495.981
 30
0.000000
  70
    32
  0
VERTEX
  8
図枠
  5
6D8
 10
1063.38
 20
-495.994
 30
0.000000
  70
    32
  0
VERTEX
  8
図枠
  5
6D9
 10
1063.44
 20
-496.006
 30
0.000000
  70
    32
  0
VERTEX
  8
図枠
  5
6DA
 10
1063.49
 20
-496.018
 30
0.000000
  70
    32
  0
VERTEX
  8
図枠
  5
6DB
 10
1063.55
 20
-496.030
 30
0.000000
  70
    32
  0
VERTEX
  8
図枠
  5
6DC
 10
1063.61
 20
-496.043
 30
0.000000
  70
    32
  0
VERTEX
  8
図枠
  5
6DD
 10
1063.66
 20
-496.055
 30
0.000000
  70
    32
  0
VERTEX
  8
図枠
  5
6DE
 10
1063.72
 20
-496.067
 30
0.000000
  70
    32
  0
VERTEX
  8
図枠
  5
6DF
 10
1063.78
 20
-496.079
 30
0.000000
  70
    32
  0
VERTEX
  8
図枠
  5
6E0
 10
1063.83
 20
-496.091
 30
0.000000
  70
    32
  0
VERTEX
  8
図枠
  5
6E1
 10
1063.89
 20
-496.104
 30
0.000000
  70
    32
  0
VERTEX
  8
図枠
  5
6E2
 10
1063.95
 20
-496.116
 30
0.000000
  70
    32
  0
VERTEX
  8
図枠
  5
6E3
 10
1064.00
 20
-496.128
 30
0.000000
  70
    32
  0
VERTEX
  8
図枠
  5
6E4
 10
1064.06
 20
-496.140
 30
0.000000
  70
    32
  0
VERTEX
  8
図枠
  5
6E5
 10
1064.12
 20
-496.152
 30
0.000000
  70
    32
  0
VERTEX
  8
図枠
  5
6E6
 10
1064.17
 20
-496.164
 30
0.000000
  70
    32
  0
VERTEX
  8
図枠
  5
6E7
 10
1064.23
 20
-496.176
 30
0.000000
  70
    32
  0
VERTEX
  8
図枠
  5
6E8
 10
1064.29
 20
-496.188
 30
0.000000
  70
    32
  0
VERTEX
  8
図枠
  5
6E9
 10
1064.34
 20
-496.200
 30
0.000000
  70
    32
  0
VERTEX
  8
図枠
  5
6EA
 10
1064.40
 20
-496.212
 30
0.000000
  70
    32
  0
VERTEX
  8
図枠
  5
6EB
 10
1064.46
 20
-496.224
 30
0.000000
  70
    32
  0
VERTEX
  8
図枠
  5
6EC
 10
1064.51
 20
-496.236
 30
0.000000
  70
    32
  0
VERTEX
  8
図枠
  5
6ED
 10
1064.57
 20
-496.248
 30
0.000000
  70
    32
  0
VERTEX
  8
図枠
  5
6EE
 10
1064.63
 20
-496.260
 30
0.000000
  70
    32
  0
VERTEX
  8
図枠
  5
6EF
 10
1064.68
 20
-496.271
 30
0.000000
  70
    32
  0
VERTEX
  8
図枠
  5
6F0
 10
1064.74
 20
-496.283
 30
0.000000
  70
    32
  0
VERTEX
  8
図枠
  5
6F1
 10
1064.80
 20
-496.295
 30
0.000000
  70
    32
  0
VERTEX
  8
図枠
  5
6F2
 10
1064.85
 20
-496.307
 30
0.000000
  70
    32
  0
VERTEX
  8
図枠
  5
6F3
 10
1064.91
 20
-496.319
 30
0.000000
  70
    32
  0
VERTEX
  8
図枠
  5
6F4
 10
1064.97
 20
-496.331
 30
0.000000
  70
    32
  0
VERTEX
  8
図枠
  5
6F5
 10
1065.02
 20
-496.343
 30
0.000000
  70
    32
  0
VERTEX
  8
図枠
  5
6F6
 10
1065.08
 20
-496.354
 30
0.000000
  70
    32
  0
VERTEX
  8
図枠
  5
6F7
 10
1065.14
 20
-496.366
 30
0.000000
  70
    32
  0
VERTEX
  8
図枠
  5
6F8
 10
1065.19
 20
-496.378
 30
0.000000
  70
    32
  0
VERTEX
  8
図枠
  5
6F9
 10
1065.25
 20
-496.390
 30
0.000000
  70
    32
  0
VERTEX
  8
図枠
  5
6FA
 10
1065.31
 20
-496.402
 30
0.000000
  70
    32
  0
VERTEX
  8
図枠
  5
6FB
 10
1065.36
 20
-496.414
 30
0.000000
  70
    32
  0
VERTEX
  8
図枠
  5
6FC
 10
1065.42
 20
-496.425
 30
0.000000
  70
    32
  0
VERTEX
  8
図枠
  5
6FD
 10
1065.48
 20
-496.437
 30
0.000000
  70
    32
  0
VERTEX
  8
図枠
  5
6FE
 10
1065.53
 20
-496.449
 30
0.000000
  70
    32
  0
VERTEX
  8
図枠
  5
6FF
 10
1065.59
 20
-496.461
 30
0.000000
  70
    32
  0
VERTEX
  8
図枠
  5
700
 10
1065.65
 20
-496.473
 30
0.000000
  70
    32
  0
SEQEND
  8
図枠
  5
701
  0
POLYLINE
  8
図枠
  5
702
  66
     1
 10
0.000000
 20
0.000000
 30
0.000000
  70
     8
  0
VERTEX
  8
図枠
  5
703
 10
1047.65
 20
-487.761
 30
0.000000
  70
    32
  0
VERTEX
  8
図枠
  5
704
 10
1047.68
 20
-487.794
 30
0.000000
  70
    32
  0
VERTEX
  8
図枠
  5
705
 10
1047.72
 20
-487.827
 30
0.000000
  70
    32
  0
VERTEX
  8
図枠
  5
706
 10
1047.75
 20
-487.861
 30
0.000000
  70
    32
  0
VERTEX
  8
図枠
  5
707
 10
1047.79
 20
-487.894
 30
0.000000
  70
    32
  0
VERTEX
  8
図枠
  5
708
 10
1047.83
 20
-487.927
 30
0.000000
  70
    32
  0
VERTEX
  8
図枠
  5
709
 10
1047.86
 20
-487.960
 30
0.000000
  70
    32
  0
VERTEX
  8
図枠
  5
70A
 10
1047.90
 20
-487.993
 30
0.000000
  70
    32
  0
VERTEX
  8
図枠
  5
70B
 10
1047.93
 20
-488.027
 30
0.000000
  70
    32
  0
VERTEX
  8
図枠
  5
70C
 10
1047.97
 20
-488.060
 30
0.000000
  70
    32
  0
VERTEX
  8
図枠
  5
70D
 10
1048.01
 20
-488.093
 30
0.000000
  70
    32
  0
VERTEX
  8
図枠
  5
70E
 10
1048.04
 20
-488.126
 30
0.000000
  70
    32
  0
VERTEX
  8
図枠
  5
70F
 10
1048.08
 20
-488.159
 30
0.000000
  70
    32
  0
VERTEX
  8
図枠
  5
710
 10
1048.12
 20
-488.192
 30
0.000000
  70
    32
  0
VERTEX
  8
図枠
  5
711
 10
1048.15
 20
-488.226
 30
0.000000
  70
    32
  0
VERTEX
  8
図枠
  5
712
 10
1048.19
 20
-488.259
 30
0.000000
  70
    32
  0
VERTEX
  8
図枠
  5
713
 10
1048.22
 20
-488.292
 30
0.000000
  70
    32
  0
VERTEX
  8
図枠
  5
714
 10
1048.26
 20
-488.325
 30
0.000000
  70
    32
  0
VERTEX
  8
図枠
  5
715
 10
1048.30
 20
-488.358
 30
0.000000
  70
    32
  0
VERTEX
  8
図枠
  5
716
 10
1048.33
 20
-488.391
 30
0.000000
  70
    32
  0
VERTEX
  8
図枠
  5
717
 10
1048.37
 20
-488.424
 30
0.000000
  70
    32
  0
VERTEX
  8
図枠
  5
718
 10
1048.40
 20
-488.457
 30
0.000000
  70
    32
  0
VERTEX
  8
図枠
  5
719
 10
1048.44
 20
-488.490
 30
0.000000
  70
    32
  0
VERTEX
  8
図枠
  5
71A
 10
1048.48
 20
-488.523
 30
0.000000
  70
    32
  0
VERTEX
  8
図枠
  5
71B
 10
1048.51
 20
-488.556
 30
0.000000
  70
    32
  0
VERTEX
  8
図枠
  5
71C
 10
1048.55
 20
-488.589
 30
0.000000
  70
    32
  0
VERTEX
  8
図枠
  5
71D
 10
1048.58
 20
-488.622
 30
0.000000
  70
    32
  0
VERTEX
  8
図枠
  5
71E
 10
1048.62
 20
-488.655
 30
0.000000
  70
    32
  0
VERTEX
  8
図枠
  5
71F
 10
1048.66
 20
-488.688
 30
0.000000
  70
    32
  0
VERTEX
  8
図枠
  5
720
 10
1048.69
 20
-488.721
 30
0.000000
  70
    32
  0
VERTEX
  8
図枠
  5
721
 10
1048.73
 20
-488.754
 30
0.000000
  70
    32
  0
VERTEX
  8
図枠
  5
722
 10
1048.77
 20
-488.787
 30
0.000000
  70
    32
  0
VERTEX
  8
図枠
  5
723
 10
1048.80
 20
-488.820
 30
0.000000
  70
    32
  0
VERTEX
  8
図枠
  5
724
 10
1048.84
 20
-488.853
 30
0.000000
  70
    32
  0
VERTEX
  8
図枠
  5
725
 10
1048.87
 20
-488.885
 30
0.000000
  70
    32
  0
VERTEX
  8
図枠
  5
726
 10
1048.91
 20
-488.918
 30
0.000000
  70
    32
  0
VERTEX
  8
図枠
  5
727
 10
1048.95
 20
-488.951
 30
0.000000
  70
    32
  0
VERTEX
  8
図枠
  5
728
 10
1048.98
 20
-488.984
 30
0.000000
  70
    32
  0
VERTEX
  8
図枠
  5
729
 10
1049.02
 20
-489.016
 30
0.000000
  70
    32
  0
VERTEX
  8
図枠
  5
72A
 10
1049.06
 20
-489.049
 30
0.000000
  70
    32
  0
VERTEX
  8
図枠
  5
72B
 10
1049.09
 20
-489.082
 30
0.000000
  70
    32
  0
VERTEX
  8
図枠
  5
72C
 10
1049.13
 20
-489.114
 30
0.000000
  70
    32
  0
VERTEX
  8
図枠
  5
72D
 10
1049.16
 20
-489.147
 30
0.000000
  70
    32
  0
VERTEX
  8
図枠
  5
72E
 10
1049.20
 20
-489.180
 30
0.000000
  70
    32
  0
VERTEX
  8
図枠
  5
72F
 10
1049.24
 20
-489.212
 30
0.000000
  70
    32
  0
VERTEX
  8
図枠
  5
730
 10
1049.27
 20
-489.245
 30
0.000000
  70
    32
  0
VERTEX
  8
図枠
  5
731
 10
1049.31
 20
-489.277
 30
0.000000
  70
    32
  0
VERTEX
  8
図枠
  5
732
 10
1049.35
 20
-489.310
 30
0.000000
  70
    32
  0
VERTEX
  8
図枠
  5
733
 10
1049.38
 20
-489.342
 30
0.000000
  70
    32
  0
VERTEX
  8
図枠
  5
734
 10
1049.42
 20
-489.375
 30
0.000000
  70
    32
  0
VERTEX
  8
図枠
  5
735
 10
1049.46
 20
-489.407
 30
0.000000
  70
    32
  0
VERTEX
  8
図枠
  5
736
 10
1049.49
 20
-489.439
 30
0.000000
  70
    32
  0
VERTEX
  8
図枠
  5
737
 10
1049.53
 20
-489.471
 30
0.000000
  70
    32
  0
VERTEX
  8
図枠
  5
738
 10
1049.57
 20
-489.504
 30
0.000000
  70
    32
  0
VERTEX
  8
図枠
  5
739
 10
1049.60
 20
-489.536
 30
0.000000
  70
    32
  0
VERTEX
  8
図枠
  5
73A
 10
1049.64
 20
-489.568
 30
0.000000
  70
    32
  0
VERTEX
  8
図枠
  5
73B
 10
1049.67
 20
-489.600
 30
0.000000
  70
    32
  0
VERTEX
  8
図枠
  5
73C
 10
1049.71
 20
-489.632
 30
0.000000
  70
    32
  0
VERTEX
  8
図枠
  5
73D
 10
1049.75
 20
-489.664
 30
0.000000
  70
    32
  0
VERTEX
  8
図枠
  5
73E
 10
1049.78
 20
-489.696
 30
0.000000
  70
    32
  0
VERTEX
  8
図枠
  5
73F
 10
1049.82
 20
-489.728
 30
0.000000
  70
    32
  0
VERTEX
  8
図枠
  5
740
 10
1049.86
 20
-489.760
 30
0.000000
  70
    32
  0
VERTEX
  8
図枠
  5
741
 10
1049.89
 20
-489.792
 30
0.000000
  70
    32
  0
VERTEX
  8
図枠
  5
742
 10
1049.93
 20
-489.824
 30
0.000000
  70
    32
  0
VERTEX
  8
図枠
  5
743
 10
1049.97
 20
-489.856
 30
0.000000
  70
    32
  0
VERTEX
  8
図枠
  5
744
 10
1050.01
 20
-489.888
 30
0.000000
  70
    32
  0
VERTEX
  8
図枠
  5
745
 10
1050.04
 20
-489.919
 30
0.000000
  70
    32
  0
VERTEX
  8
図枠
  5
746
 10
1050.08
 20
-489.951
 30
0.000000
  70
    32
  0
VERTEX
  8
図枠
  5
747
 10
1050.12
 20
-489.983
 30
0.000000
  70
    32
  0
VERTEX
  8
図枠
  5
748
 10
1050.15
 20
-490.014
 30
0.000000
  70
    32
  0
VERTEX
  8
図枠
  5
749
 10
1050.19
 20
-490.046
 30
0.000000
  70
    32
  0
VERTEX
  8
図枠
  5
74A
 10
1050.23
 20
-490.077
 30
0.000000
  70
    32
  0
VERTEX
  8
図枠
  5
74B
 10
1050.26
 20
-490.109
 30
0.000000
  70
    32
  0
VERTEX
  8
図枠
  5
74C
 10
1050.30
 20
-490.140
 30
0.000000
  70
    32
  0
VERTEX
  8
図枠
  5
74D
 10
1050.34
 20
-490.172
 30
0.000000
  70
    32
  0
VERTEX
  8
図枠
  5
74E
 10
1050.37
 20
-490.203
 30
0.000000
  70
    32
  0
VERTEX
  8
図枠
  5
74F
 10
1050.41
 20
-490.234
 30
0.000000
  70
    32
  0
VERTEX
  8
図枠
  5
750
 10
1050.45
 20
-490.265
 30
0.000000
  70
    32
  0
VERTEX
  8
図枠
  5
751
 10
1050.49
 20
-490.296
 30
0.000000
  70
    32
  0
VERTEX
  8
図枠
  5
752
 10
1050.52
 20
-490.327
 30
0.000000
  70
    32
  0
VERTEX
  8
図枠
  5
753
 10
1050.56
 20
-490.358
 30
0.000000
  70
    32
  0
VERTEX
  8
図枠
  5
754
 10
1050.60
 20
-490.389
 30
0.000000
  70
    32
  0
VERTEX
  8
図枠
  5
755
 10
1050.63
 20
-490.420
 30
0.000000
  70
    32
  0
VERTEX
  8
図枠
  5
756
 10
1050.67
 20
-490.451
 30
0.000000
  70
    32
  0
VERTEX
  8
図枠
  5
757
 10
1050.71
 20
-490.482
 30
0.000000
  70
    32
  0
VERTEX
  8
図枠
  5
758
 10
1050.75
 20
-490.513
 30
0.000000
  70
    32
  0
VERTEX
  8
図枠
  5
759
 10
1050.78
 20
-490.543
 30
0.000000
  70
    32
  0
VERTEX
  8
図枠
  5
75A
 10
1050.82
 20
-490.574
 30
0.000000
  70
    32
  0
VERTEX
  8
図枠
  5
75B
 10
1050.86
 20
-490.605
 30
0.000000
  70
    32
  0
VERTEX
  8
図枠
  5
75C
 10
1050.90
 20
-490.635
 30
0.000000
  70
    32
  0
VERTEX
  8
図枠
  5
75D
 10
1050.93
 20
-490.665
 30
0.000000
  70
    32
  0
VERTEX
  8
図枠
  5
75E
 10
1050.97
 20
-490.696
 30
0.000000
  70
    32
  0
VERTEX
  8
図枠
  5
75F
 10
1051.01
 20
-490.726
 30
0.000000
  70
    32
  0
VERTEX
  8
図枠
  5
760
 10
1051.05
 20
-490.756
 30
0.000000
  70
    32
  0
VERTEX
  8
図枠
  5
761
 10
1051.08
 20
-490.787
 30
0.000000
  70
    32
  0
VERTEX
  8
図枠
  5
762
 10
1051.12
 20
-490.817
 30
0.000000
  70
    32
  0
VERTEX
  8
図枠
  5
763
 10
1051.16
 20
-490.847
 30
0.000000
  70
    32
  0
VERTEX
  8
図枠
  5
764
 10
1051.20
 20
-490.877
 30
0.000000
  70
    32
  0
VERTEX
  8
図枠
  5
765
 10
1051.24
 20
-490.907
 30
0.000000
  70
    32
  0
VERTEX
  8
図枠
  5
766
 10
1051.27
 20
-490.937
 30
0.000000
  70
    32
  0
VERTEX
  8
図枠
  5
767
 10
1051.31
 20
-490.966
 30
0.000000
  70
    32
  0
VERTEX
  8
図枠
  5
768
 10
1051.35
 20
-490.996
 30
0.000000
  70
    32
  0
VERTEX
  8
図枠
  5
769
 10
1051.39
 20
-491.026
 30
0.000000
  70
    32
  0
VERTEX
  8
図枠
  5
76A
 10
1051.43
 20
-491.055
 30
0.000000
  70
    32
  0
VERTEX
  8
図枠
  5
76B
 10
1051.46
 20
-491.085
 30
0.000000
  70
    32
  0
VERTEX
  8
図枠
  5
76C
 10
1051.50
 20
-491.114
 30
0.000000
  70
    32
  0
VERTEX
  8
図枠
  5
76D
 10
1051.54
 20
-491.144
 30
0.000000
  70
    32
  0
VERTEX
  8
図枠
  5
76E
 10
1051.58
 20
-491.173
 30
0.000000
  70
    32
  0
VERTEX
  8
図枠
  5
76F
 10
1051.62
 20
-491.202
 30
0.000000
  70
    32
  0
VERTEX
  8
図枠
  5
770
 10
1051.65
 20
-491.231
 30
0.000000
  70
    32
  0
VERTEX
  8
図枠
  5
771
 10
1051.69
 20
-491.260
 30
0.000000
  70
    32
  0
VERTEX
  8
図枠
  5
772
 10
1051.73
 20
-491.289
 30
0.000000
  70
    32
  0
VERTEX
  8
図枠
  5
773
 10
1051.77
 20
-491.318
 30
0.000000
  70
    32
  0
VERTEX
  8
図枠
  5
774
 10
1051.81
 20
-491.347
 30
0.000000
  70
    32
  0
VERTEX
  8
図枠
  5
775
 10
1051.85
 20
-491.376
 30
0.000000
  70
    32
  0
VERTEX
  8
図枠
  5
776
 10
1051.88
 20
-491.404
 30
0.000000
  70
    32
  0
VERTEX
  8
図枠
  5
777
 10
1051.92
 20
-491.433
 30
0.000000
  70
    32
  0
VERTEX
  8
図枠
  5
778
 10
1051.96
 20
-491.462
 30
0.000000
  70
    32
  0
VERTEX
  8
図枠
  5
779
 10
1052.00
 20
-491.490
 30
0.000000
  70
    32
  0
VERTEX
  8
図枠
  5
77A
 10
1052.04
 20
-491.518
 30
0.000000
  70
    32
  0
VERTEX
  8
図枠
  5
77B
 10
1052.08
 20
-491.547
 30
0.000000
  70
    32
  0
VERTEX
  8
図枠
  5
77C
 10
1052.12
 20
-491.575
 30
0.000000
  70
    32
  0
VERTEX
  8
図枠
  5
77D
 10
1052.15
 20
-491.603
 30
0.000000
  70
    32
  0
VERTEX
  8
図枠
  5
77E
 10
1052.19
 20
-491.631
 30
0.000000
  70
    32
  0
VERTEX
  8
図枠
  5
77F
 10
1052.23
 20
-491.659
 30
0.000000
  70
    32
  0
VERTEX
  8
図枠
  5
780
 10
1052.27
 20
-491.687
 30
0.000000
  70
    32
  0
VERTEX
  8
図枠
  5
781
 10
1052.31
 20
-491.714
 30
0.000000
  70
    32
  0
VERTEX
  8
図枠
  5
782
 10
1052.35
 20
-491.742
 30
0.000000
  70
    32
  0
VERTEX
  8
図枠
  5
783
 10
1052.39
 20
-491.770
 30
0.000000
  70
    32
  0
VERTEX
  8
図枠
  5
784
 10
1052.43
 20
-491.797
 30
0.000000
  70
    32
  0
VERTEX
  8
図枠
  5
785
 10
1052.47
 20
-491.825
 30
0.000000
  70
    32
  0
VERTEX
  8
図枠
  5
786
 10
1052.51
 20
-491.852
 30
0.000000
  70
    32
  0
VERTEX
  8
図枠
  5
787
 10
1052.54
 20
-491.879
 30
0.000000
  70
    32
  0
VERTEX
  8
図枠
  5
788
 10
1052.58
 20
-491.906
 30
0.000000
  70
    32
  0
VERTEX
  8
図枠
  5
789
 10
1052.62
 20
-491.933
 30
0.000000
  70
    32
  0
VERTEX
  8
図枠
  5
78A
 10
1052.66
 20
-491.960
 30
0.000000
  70
    32
  0
VERTEX
  8
図枠
  5
78B
 10
1052.70
 20
-491.987
 30
0.000000
  70
    32
  0
VERTEX
  8
図枠
  5
78C
 10
1052.74
 20
-492.014
 30
0.000000
  70
    32
  0
VERTEX
  8
図枠
  5
78D
 10
1052.78
 20
-492.041
 30
0.000000
  70
    32
  0
VERTEX
  8
図枠
  5
78E
 10
1052.82
 20
-492.067
 30
0.000000
  70
    32
  0
VERTEX
  8
図枠
  5
78F
 10
1052.86
 20
-492.094
 30
0.000000
  70
    32
  0
VERTEX
  8
図枠
  5
790
 10
1052.90
 20
-492.120
 30
0.000000
  70
    32
  0
VERTEX
  8
図枠
  5
791
 10
1052.94
 20
-492.146
 30
0.000000
  70
    32
  0
VERTEX
  8
図枠
  5
792
 10
1052.98
 20
-492.173
 30
0.000000
  70
    32
  0
VERTEX
  8
図枠
  5
793
 10
1053.02
 20
-492.199
 30
0.000000
  70
    32
  0
VERTEX
  8
図枠
  5
794
 10
1053.06
 20
-492.225
 30
0.000000
  70
    32
  0
VERTEX
  8
図枠
  5
795
 10
1053.10
 20
-492.250
 30
0.000000
  70
    32
  0
VERTEX
  8
図枠
  5
796
 10
1053.14
 20
-492.276
 30
0.000000
  70
    32
  0
VERTEX
  8
図枠
  5
797
 10
1053.18
 20
-492.302
 30
0.000000
  70
    32
  0
VERTEX
  8
図枠
  5
798
 10
1053.22
 20
-492.328
 30
0.000000
  70
    32
  0
VERTEX
  8
図枠
  5
799
 10
1053.26
 20
-492.353
 30
0.000000
  70
    32
  0
VERTEX
  8
図枠
  5
79A
 10
1053.30
 20
-492.378
 30
0.000000
  70
    32
  0
VERTEX
  8
図枠
  5
79B
 10
1053.34
 20
-492.404
 30
0.000000
  70
    32
  0
VERTEX
  8
図枠
  5
79C
 10
1053.38
 20
-492.429
 30
0.000000
  70
    32
  0
VERTEX
  8
図枠
  5
79D
 10
1053.42
 20
-492.454
 30
0.000000
  70
    32
  0
VERTEX
  8
図枠
  5
79E
 10
1053.46
 20
-492.479
 30
0.000000
  70
    32
  0
VERTEX
  8
図枠
  5
79F
 10
1053.50
 20
-492.504
 30
0.000000
  70
    32
  0
VERTEX
  8
図枠
  5
7A0
 10
1053.54
 20
-492.528
 30
0.000000
  70
    32
  0
VERTEX
  8
図枠
  5
7A1
 10
1053.58
 20
-492.553
 30
0.000000
  70
    32
  0
VERTEX
  8
図枠
  5
7A2
 10
1053.62
 20
-492.578
 30
0.000000
  70
    32
  0
SEQEND
  8
図枠
  5
7A3
  0
INSERT
  5
E1
  8
0
  6
CONTINUOUS
  2
*U43
 10
0.0
 20
0.0
 30
0.0
  0
LINE
  5
E2
  8
図枠
 10
1074.7759268719001
 20
-443.22590183239998
 30
0.0
 11
1074.7759268719001
 21
-448.0259018324
 31
0.0
  0
LINE
  5
E3
  8
図枠
 10
1042.3253848250999
 20
-486.47255589859992
 30
0.0
 11
1042.3253848250999
 21
-489.47255589859992
 31
0.0
  0
LINE
  5
E4
  8
図枠
 10
1074.7759268719001
 20
-448.0259018324
 30
0.0
 11
1084.3759268719
 21
-450.42590183239992
 31
0.0
  0
LINE
  5
E5
  8
図枠
 10
1047.6465969463
 20
-482.47255589859992
 30
0.0
 11
1047.6465969463
 21
-486.0725558986
 31
0.0
  0
ARC
  5
E6
  8
図枠
 10
1033.3253848250999
 20
-490.47255589859992
 30
0.0
 40
6.0
 50
270.0
 51
0.0
  0
LINE
  5
E7
  8
図枠
 10
947.00409184850002
 20
-434.6259018323999
 30
0.0
 11
947.00409184850002
 21
-500.62590183240002
 31
0.0
  0
INSERT
  5
E8
  8
0
  6
CONTINUOUS
  2
*U44
 10
0.0
 20
0.0
 30
0.0
  0
INSERT
  5
E9
  8
0
  6
CONTINUOUS
  2
*U45
 10
0.0
 20
0.0
 30
0.0
  0
INSERT
  5
EA
  8
0
  6
CONTINUOUS
  2
*U46
 10
0.0
 20
0.0
 30
0.0
  0
INSERT
  5
EB
  8
0
  6
CONTINUOUS
  2
*U47
 10
0.0
 20
0.0
 30
0.0
  0
LINE
  5
EC
  8
図枠
 10
1022.0040918485
 20
-456.6259018323999
 30
0.0
 11
1022.0040918485
 21
-478.6259018323999
 31
0.0
  0
LINE
  5
ED
  8
図枠
 10
947.00409184850002
 20
-478.6259018323999
 30
0.0
 11
1237.0040918484999
 21
-478.6259018323999
 31
0.0
  0
LINE
  5
EE
  8
図枠
 10
952.00409184849991
 20
-467.62590183240002
 30
0.0
 11
1017.0040918485
 21
-467.62590183240002
 31
0.0
  0
LINE
  5
EF
  8
図枠
 10
1027.0040918484999
 20
-467.62590183240002
 30
0.0
 11
1092.0040918484999
 21
-467.62590183240002
 31
0.0
  0
INSERT
  5
F0
  8
0
  6
CONTINUOUS
  2
*U48
 10
0.0
 20
0.0
 30
0.0
  0
INSERT
  5
F1
  8
0
  6
CONTINUOUS
  2
*U49
 10
0.0
 20
0.0
 30
0.0
  0
LINE
  5
F2
  8
図枠
 10
965.00409184850002
 20
-424.6259018323999
 30
0.0
 11
965.00409184850002
 21
-414.6259018323999
 31
0.0
  0
LINE
  5
F3
  8
図枠
 10
947.00409184850002
 20
-424.6259018323999
 30
0.0
 11
947.00409184850002
 21
-414.6259018323999
 31
0.0
  0
LINE
  5
F4
  8
図枠
 10
1175.0040918484999
 20
-424.6259018323999
 30
0.0
 11
1175.0040918484999
 21
-414.6259018323999
 31
0.0
  0
LINE
  5
F5
  8
図枠
 10
1157.0040918484999
 20
-424.6259018323999
 30
0.0
 11
1157.0040918484999
 21
-414.6259018323999
 31
0.0
  0
LINE
  5
F6
  8
図枠
 10
1237.0040918484999
 20
-414.6259018323999
 30
0.0
 11
947.00409184850002
 21
-414.6259018323999
 31
0.0
  0
LINE
  5
F7
  8
図枠
 10
947.00409184850002
 20
-424.6259018323999
 30
0.0
 11
1237.0040918484999
 21
-424.6259018323999
 31
0.0
  0
LINE
  5
F8
  8
図枠
 10
1065.0040918484999
 20
-424.6259018323999
 30
0.0
 11
1065.0040918484999
 21
-414.6259018323999
 31
0.0
  0
INSERT
  5
F9
  8
0
  6
CONTINUOUS
  2
*U50
 10
0.0
 20
0.0
 30
0.0
  0
INSERT
  5
FA
  8
0
  6
CONTINUOUS
  2
*U51
 10
0.0
 20
0.0
 30
0.0
  0
CIRCLE
  5
FB
  8
図枠
 10
1063.8040918485001
 20
-445.6259018323999
 30
0.0
 40
2.399999999999999
  0
LINE
  5
FC
  8
図枠
 10
1074.7759268719001
 20
-448.0259018324
 30
0.0
 11
1084.3759268719
 21
-450.42590183239992
 31
0.0
  0
LINE
  5
FD
  8
図枠
 10
1074.7759268719001
 20
-443.22590183239998
 30
0.0
 11
1074.7759268719001
 21
-448.0259018324
 31
0.0
  0
LINE
  5
FE
  8
図枠
 10
1084.3759268719
 20
-440.82590183240001
 30
0.0
 11
1084.3759268719
 21
-450.42590183239992
 31
0.0
  0
LINE
  5
FF
  8
図枠
  6
BORDER
 10
1063.8040918485001
 20
-438.42590183239997
 30
0.0
 11
1063.8040918485001
 21
-452.82590183240001
 31
0.0
  0
LINE
  5
100
  8
図枠
  6
BORDER
 10
1063.8040918485001
 20
-438.42590183239997
 30
0.0
 11
1063.8040918485001
 21
-452.82590183240001
 31
0.0
  0
LINE
  5
101
  8
図枠
 10
1084.3759268719
 20
-440.82590183240001
 30
0.0
 11
1084.3759268719
 21
-450.42590183239992
 31
0.0
  0
LINE
  5
102
  8
図枠
 10
1074.7759268719001
 20
-443.22590183239998
 30
0.0
 11
1074.7759268719001
 21
-448.0259018324
 31
0.0
  0
LINE
  5
103
  8
図枠
 10
1074.7759268719001
 20
-448.0259018324
 30
0.0
 11
1084.3759268719
 21
-450.42590183239992
 31
0.0
  0
LINE
  5
104
  8
図枠
 10
1074.7759268719001
 20
-443.22590183239998
 30
0.0
 11
1084.3759268719
 21
-440.82590183240001
 31
0.0
  0
CIRCLE
  5
105
  8
図枠
 10
1063.8040918485001
 20
-445.6259018323999
 30
0.0
 40
4.7999999999999989
  0
CIRCLE
  5
106
  8
図枠
 10
1063.8040918485001
 20
-445.6259018323999
 30
0.0
 40
2.399999999999999
  0
CIRCLE
  5
107
  8
図枠
 10
1063.8040918485001
 20
-445.6259018323999
 30
0.0
 40
4.7999999999999989
  0
LINE
  5
108
  8
図枠
 10
1074.7759268719001
 20
-443.22590183239998
 30
0.0
 11
1084.3759268719
 21
-440.82590183240001
 31
0.0
  0
ENDBLK
  5
109
  8
0
  0
BLOCK
  8
0
  2
*D6
 70
     1
 10
0.0
 20
0.0
 30
0.0
  3
*D6
  1

  0
TEXT
  5
117
  8
0
 62
     0
 10
991.66875870759986
 20
0.0467789786
 30
0.0
 40
5.9972220420999998
  1
95
  0
LINE
  5
118
  8
0
 62
     0
 10
1042.6965363794
 20
-38.305129609799998
 30
0.0
 11
1042.6965363794
 21
-1.5115543229999999
 31
0.0
  0
LINE
  5
119
  8
0
 62
     0
 10
947.69653637940007
 20
-37.305129609799998
 30
0.0
 11
947.69653637940007
 21
-1.5115543229999999
 31
0.0
  0
LINE
  5
11A
  8
0
 62
     0
 10
1042.6965363794
 20
-2.011554322999999
 30
0.0
 11
1002.2520917231
 21
-2.011554322999999
 31
0.0
  0
LINE
  5
11B
  8
0
 62
     0
 10
1042.6965363794
 20
-2.011554322999999
 30
0.0
 11
988.1409810358
 21
-2.011554322999999
 31
0.0
  0
LINE
  5
11C
  8
0
 62
     0
 10
947.69653637940007
 20
-2.011554322999999
 30
0.0
 11
1002.2520917231
 21
-2.011554322999999
 31
0.0
  0
LINE
  5
11D
  8
0
 62
     0
 10
947.69653637940007
 20
-2.011554322999999
 30
0.0
 11
988.1409810358
 21
-2.011554322999999
 31
0.0
  0
LINE
  5
11E
  8
0
 62
     0
 10
947.69653637940007
 20
-2.011554322999999
 30
0.0
 11
950.69653637939996
 21
-2.011554322999999
 31
0.0
  0
SOLID
  5
11F
  8
0
 62
     0
 10
947.69653637940007
 20
-2.011554322999999
 30
0.0
 11
953.69653637940007
 21
-0.511554323
 31
0.0
 12
953.69653637940007
 22
-3.511554322999999
 32
0.0
 13
952.19653637939996
 23
-2.011554322999999
 33
0.0
  0
LINE
  5
120
  8
0
 62
     0
 10
1042.6965363794
 20
-2.011554322999999
 30
0.0
 11
1039.6965363794
 21
-2.011554322999999
 31
0.0
  0
SOLID
  5
121
  8
0
 62
     0
 10
1042.6965363794
 20
-2.011554322999999
 30
0.0
 11
1036.6965363794
 21
-3.511554322999999
 31
0.0
 12
1036.6965363794
 22
-0.511554323
 32
0.0
 13
1038.1965363794
 23
-2.011554322999999
 33
0.0
  0
ENDBLK
  5
122
  8
0
  0
BLOCK
  8
0
  2
CLUMP6
 70
     0
 10
0.0
 20
0.0
 30
0.0
  3
CLUMP6
  1

  0
LINE
  5
138
  8
図枠
 10
1065.0040918484999
 20
-374.62590183240002
 30
0.0
 11
1065.0040918484999
 21
-364.62590183240002
 31
0.0
  0
LINE
  5
139
  8
図枠
 10
947.00409184850002
 20
-374.62590183240002
 30
0.0
 11
947.00409184850002
 21
-364.62590183240002
 31
0.0
  0
LINE
  5
13A
  8
図枠
 10
965.00409184850002
 20
-374.62590183240002
 30
0.0
 11
965.00409184850002
 21
-364.62590183240002
 31
0.0
  0
LINE
  5
13B
  8
図枠
 10
1175.0040918484999
 20
-374.62590183240002
 30
0.0
 11
1175.0040918484999
 21
-364.62590183240002
 31
0.0
  0
LINE
  5
13C
  8
図枠
 10
1157.0040918484999
 20
-374.62590183240002
 30
0.0
 11
1157.0040918484999
 21
-364.62590183240002
 31
0.0
  0
LINE
  5
13D
  8
図枠
 10
1237.0040918484999
 20
-364.62590183240002
 30
0.0
 11
947.00409184850002
 21
-364.62590183240002
 31
0.0
  0
ENDBLK
  5
13E
  8
0
  0
BLOCK
  8
0
  2
BALLON0
 70
     0
 10
0.0
 20
0.0
 30
0.0
  3
BALLON0
  1

  0
INSERT
  5
142
  8
0
  6
CONTINUOUS
  2
*U59
 10
0.0
 20
0.0
 30
0.0
  0
CIRCLE
  5
143
  8
ﾚｲﾔ_1
 10
-50.574307370600003
 20
22.288320106899999
 30
0.0
 40
8.0
  0
LINE
  5
144
  8
寸法線
 10
-37.240974037199997
 20
22.288320106899999
 30
0.0
 11
-42.574307370599989
 21
22.288320106899999
 31
0.0
  0
LINE
  5
145
  8
寸法線
 10
-7.8500042580999994
 20
-21.528973260299999
 30
0.0
 11
-37.240974037199997
 21
22.288320106899999
 31
0.0
  0
SOLID
  5
146
  8
寸法線
 10
-7.8500042580999994
 20
-21.528973260299999
 30
0.0
 11
-13.635187886000001
 21
-15.7764390021
 31
0.0
 12
-11.415140239899999
 22
-16.213918657400001
 32
0.0
 13
-11.415140239899999
 23
-16.213918657400001
 33
0.0
  0
SOLID
  5
147
  8
寸法線
 10
-11.415140239899999
 20
-16.213918657400001
 30
0.0
 11
-10.977660584600001
 21
-13.9938710112
 31
0.0
 12
-7.8500042580999994
 22
-21.528973260299999
 32
0.0
 13
-7.8500042580999994
 23
-21.528973260299999
 33
0.0
  0
ENDBLK
  5
148
  8
0
  0
BLOCK
  8
0
  2
CLUMP7
 70
     0
 10
0.0
 20
0.0
 30
0.0
  3
CLUMP7
  1

  0
LINE
  5
16D
  8
ﾚｲﾔ_1
  6
BORDER
 62
     3
 10
547.61223169189986
 20
-61.305129609799991
 30
0.0
 11
778.61223169189998
 21
-61.305129609799991
 31
0.0
  0
LINE
  5
16E
  8
ﾚｲﾔ_1
  6
STITCH
 10
550.61223169189986
 20
-64.805129609799991
 30
0.0
 11
775.61223169189986
 21
-64.805129609799991
 31
0.0
  0
LINE
  5
16F
  8
ﾚｲﾔ_1
  6
STITCH
 10
550.61223169189986
 20
-57.805129609799998
 30
0.0
 11
775.61223169189986
 21
-57.805129609799998
 31
0.0
  0
LINE
  5
170
  8
ﾚｲﾔ_1
  6
STITCH
 10
550.61223169189986
 20
-64.805129609799991
 30
0.0
 11
550.61223169189986
 21
-57.805129609799998
 31
0.0
  0
LINE
  5
171
  8
ﾚｲﾔ_1
  6
STITCH
 10
775.61223169189986
 20
-57.805129609799998
 30
0.0
 11
775.61223169189986
 21
-64.805129609799991
 31
0.0
  0
ENDBLK
  5
172
  8
0
  0
BLOCK
  8
0
  2
*D10
 70
     1
 10
0.0
 20
0.0
 30
0.0
  3
*D10
  1

  0
TEXT
  5
175
  8
0
 62
     0
 10
657.82055505690005
 20
-448.84027864260003
 30
0.0
 40
5.9972220420999998
  1
230
  0
LINE
  5
176
  8
0
 62
     0
 10
548.11222156439987
 20
-406.69966085980002
 30
0.0
 11
548.11222156439987
 21
-451.39861194410003
 31
0.0
  0
LINE
  5
177
  8
0
 62
     0
 10
778.11222156479994
 20
-406.69966085980002
 30
0.0
 11
778.11222156479994
 21
-451.39861194410003
 31
0.0
  0
LINE
  5
178
  8
0
 62
     0
 10
548.11222156439987
 20
-450.89861194410003
 30
0.0
 11
671.93166574410009
 21
-450.89861194410003
 31
0.0
  0
LINE
  5
179
  8
0
 62
     0
 10
548.11222156439987
 20
-450.89861194410003
 30
0.0
 11
654.29277738509995
 21
-450.89861194410003
 31
0.0
  0
LINE
  5
17A
  8
0
 62
     0
 10
778.11222156479994
 20
-450.89861194410003
 30
0.0
 11
671.93166574410009
 21
-450.89861194410003
 31
0.0
  0
LINE
  5
17B
  8
0
 62
     0
 10
778.11222156479994
 20
-450.89861194410003
 30
0.0
 11
654.29277738509995
 21
-450.89861194410003
 31
0.0
  0
LINE
  5
17C
  8
0
 62
     0
 10
778.11222156479994
 20
-450.89861194410003
 30
0.0
 11
775.11222156479994
 21
-450.89861194410003
 31
0.0
  0
SOLID
  5
17D
  8
0
 62
     0
 10
778.11222156479994
 20
-450.89861194410003
 30
0.0
 11
772.11222156479994
 21
-452.39861194410003
 31
0.0
 12
772.11222156479994
 22
-449.39861194410003
 32
0.0
 13
773.61222156479994
 23
-450.89861194410003
 33
0.0
  0
LINE
  5
17E
  8
0
 62
     0
 10
548.11222156439987
 20
-450.89861194410003
 30
0.0
 11
551.11222156439987
 21
-450.89861194410003
 31
0.0
  0
SOLID
  5
17F
  8
0
 62
     0
 10
548.11222156439987
 20
-450.89861194410003
 30
0.0
 11
554.11222156439999
 21
-449.39861194410003
 31
0.0
 12
554.11222156439999
 22
-452.39861194410003
 32
0.0
 13
552.61222156439999
 23
-450.89861194410003
 33
0.0
  0
ENDBLK
  5
180
  8
0
  0
BLOCK
  8
0
  2
*D11
 70
     1
 10
0.0
 20
0.0
 30
0.0
  3
*D11
  1

  0
TEXT
  5
184
  8
0
 62
     0
 10
647.23723216879989
 20
-431.46437991649998
 30
0.0
 40
5.9972220420999998
  1
(217)内寸
  0
LINE
  5
185
  8
0
 62
     0
 10
554.61223169189986
 20
-406.69966085980002
 30
0.0
 11
554.61223169189986
 21
-434.02271321809991
 31
0.0
  0
LINE
  5
186
  8
0
 62
     0
 10
771.61223169189986
 20
-406.69966085980002
 30
0.0
 11
771.61223169189986
 21
-434.02271321809991
 31
0.0
  0
LINE
  5
187
  8
0
 62
     0
 10
554.61223169189986
 20
-433.52271321810002
 30
0.0
 11
682.51500888689986
 21
-433.52271321810002
 31
0.0
  0
LINE
  5
188
  8
0
 62
     0
 10
554.61223169189986
 20
-433.52271321810002
 30
0.0
 11
643.70945449689987
 21
-433.52271321810002
 31
0.0
  0
LINE
  5
189
  8
0
 62
     0
 10
771.61223169189986
 20
-433.52271321810002
 30
0.0
 11
682.51500888689986
 21
-433.52271321810002
 31
0.0
  0
LINE
  5
18A
  8
0
 62
     0
 10
771.61223169189986
 20
-433.52271321810002
 30
0.0
 11
643.70945449689987
 21
-433.52271321810002
 31
0.0
  0
LINE
  5
18B
  8
0
 62
     0
 10
771.61223169189986
 20
-433.52271321810002
 30
0.0
 11
768.61223169189986
 21
-433.52271321810002
 31
0.0
  0
SOLID
  5
18C
  8
0
 62
     0
 10
771.61223169189986
 20
-433.52271321810002
 30
0.0
 11
765.61223169189998
 21
-435.02271321809991
 31
0.0
 12
765.61223169189998
 22
-432.02271321809991
 32
0.0
 13
767.11223169189986
 23
-433.52271321810002
 33
0.0
  0
LINE
  5
18D
  8
0
 62
     0
 10
554.61223169189986
 20
-433.52271321810002
 30
0.0
 11
557.61223169189998
 21
-433.52271321810002
 31
0.0
  0
SOLID
  5
18E
  8
0
 62
     0
 10
554.61223169189986
 20
-433.52271321810002
 30
0.0
 11
560.61223169189986
 21
-432.02271321809991
 31
0.0
 12
560.61223169189986
 22
-435.02271321809991
 32
0.0
 13
559.11223169189986
 23
-433.52271321810002
 33
0.0
  0
ENDBLK
  5
18F
  8
0
  0
BLOCK
  8
0
  2
BALLON1
 70
     0
 10
0.0
 20
0.0
 30
0.0
  3
BALLON1
  1

  0
INSERT
  5
19B
  8
0
  6
CONTINUOUS
  2
*U61
 10
0.0
 20
0.0
 30
0.0
  0
CIRCLE
  5
19C
  8
ﾚｲﾔ_1
 10
-179.80124167349999
 20
-106.2785500832
 30
0.0
 40
8.0
  0
LINE
  5
19D
  8
寸法線
 10
-193.13457500679999
 20
-106.2785500832
 30
0.0
 11
-187.80124167349999
 21
-106.2785500832
 31
0.0
  0
LINE
  5
19E
  8
寸法線
 10
-226.8243568497
 20
-18.278550083199999
 30
0.0
 11
-193.13457500679999
 21
-106.2785500832
 31
0.0
  0
SOLID
  5
19F
  8
寸法線
 10
-226.8243568497
 20
-18.278550083199999
 30
0.0
 11
-222.46985201999999
 21
-25.177701312699998
 31
0.0
 12
-224.53614563139999
 22
-24.2555133105
 32
0.0
 13
-224.53614563139999
 23
-24.2555133105
 33
0.0
  0
SOLID
  5
1A0
  8
寸法線
 10
-224.53614563139999
 20
-24.2555133105
 30
0.0
 11
-225.45833363369999
 21
-26.321806921899999
 31
0.0
 12
-226.8243568497
 22
-18.278550083199999
 32
0.0
 13
-226.8243568497
 23
-18.278550083199999
 33
0.0
  0
ENDBLK
  5
1A1
  8
0
  0
BLOCK
  8
0
  2
*D13
 70
     1
 10
0.0
 20
0.0
 30
0.0
  3
*D13
  1

  0
TEXT
  5
1A4
  8
0
 62
     0
 10
1068.1734543821001
 20
-148.18012913300001
 30
0.0
 40
5.9972220420999998
  1
(173)内寸
 50
90.0
  0
LINE
  5
1A5
  8
0
 62
     0
 10
1042.6965363794
 20
-218.80512960979999
 30
0.0
 11
1070.7317876837001
 21
-218.80512960979999
 31
0.0
  0
LINE
  5
1A6
  8
0
 62
     0
 10
1042.6965363794
 20
-45.805129609799998
 30
0.0
 11
1070.7317876837001
 21
-45.805129609799998
 31
0.0
  0
LINE
  5
1A7
  8
0
 62
     0
 10
1070.2317876837001
 20
-218.80512960979999
 30
0.0
 11
1070.2317876837001
 21
-112.90235241489999
 31
0.0
  0
LINE
  5
1A8
  8
0
 62
     0
 10
1070.2317876837001
 20
-218.80512960979999
 30
0.0
 11
1070.2317876837001
 21
-151.70790680479999
 31
0.0
  0
LINE
  5
1A9
  8
0
 62
     0
 10
1070.2317876837001
 20
-45.805129609799998
 30
0.0
 11
1070.2317876837001
 21
-112.90235241489999
 31
0.0
  0
LINE
  5
1AA
  8
0
 62
     0
 10
1070.2317876837001
 20
-45.805129609799998
 30
0.0
 11
1070.2317876837001
 21
-151.70790680479999
 31
0.0
  0
LINE
  5
1AB
  8
0
 62
     0
 10
1070.2317876837001
 20
-45.805129609799998
 30
0.0
 11
1070.2317876837001
 21
-48.805129609799991
 31
0.0
  0
SOLID
  5
1AC
  8
0
 62
     0
 10
1070.2317876837001
 20
-45.805129609799998
 30
0.0
 11
1071.7317876837001
 21
-51.805129609799991
 31
0.0
 12
1068.7317876837001
 22
-51.805129609799991
 32
0.0
 13
1070.2317876837001
 23
-50.305129609799998
 33
0.0
  0
LINE
  5
1AD
  8
0
 62
     0
 10
1070.2317876837001
 20
-218.80512960979999
 30
0.0
 11
1070.2317876837001
 21
-215.80512960979999
 31
0.0
  0
SOLID
  5
1AE
  8
0
 62
     0
 10
1070.2317876837001
 20
-218.80512960979999
 30
0.0
 11
1068.7317876837001
 21
-212.80512960979999
 31
0.0
 12
1071.7317876837001
 22
-212.80512960979999
 32
0.0
 13
1070.2317876837001
 23
-214.30512960979999
 33
0.0
  0
ENDBLK
  5
1AF
  8
0
  0
BLOCK
  8
0
  2
*D14
 70
     1
 10
0.0
 20
0.0
 30
0.0
  3
*D14
  1

  0
TEXT
  5
1B3
  8
0
 62
     0
 10
1085.5799025454
 20
-137.59679611760001
 30
0.0
 40
5.9972220420999998
  1
186
 50
90.0
  0
LINE
  5
1B4
  8
0
 62
     0
 10
1043.6965363794
 20
-225.30512960979999
 30
0.0
 11
1088.1382358469
 21
-225.30512960979999
 31
0.0
  0
LINE
  5
1B5
  8
0
 62
     0
 10
1043.6965363794
 20
-39.305129609799998
 30
0.0
 11
1088.1382358469
 21
-39.305129609799998
 31
0.0
  0
LINE
  5
1B6
  8
0
 62
     0
 10
1087.6382358469
 20
-225.30512960979999
 30
0.0
 11
1087.6382358469
 21
-123.48568543029999
 31
0.0
  0
LINE
  5
1B7
  8
0
 62
     0
 10
1087.6382358469
 20
-225.30512960979999
 30
0.0
 11
1087.6382358469
 21
-141.12457378939999
 31
0.0
  0
LINE
  5
1B8
  8
0
 62
     0
 10
1087.6382358469
 20
-39.305129609799998
 30
0.0
 11
1087.6382358469
 21
-123.48568543029999
 31
0.0
  0
LINE
  5
1B9
  8
0
 62
     0
 10
1087.6382358469
 20
-39.305129609799998
 30
0.0
 11
1087.6382358469
 21
-141.12457378939999
 31
0.0
  0
LINE
  5
1BA
  8
0
 62
     0
 10
1087.6382358469
 20
-39.305129609799998
 30
0.0
 11
1087.6382358469
 21
-42.305129609799991
 31
0.0
  0
SOLID
  5
1BB
  8
0
 62
     0
 10
1087.6382358469
 20
-39.305129609799998
 30
0.0
 11
1089.1382358469
 21
-45.305129609799998
 31
0.0
 12
1086.1382358469
 22
-45.305129609799998
 32
0.0
 13
1087.6382358469
 23
-43.805129609799991
 33
0.0
  0
LINE
  5
1BC
  8
0
 62
     0
 10
1087.6382358469
 20
-225.30512960979999
 30
0.0
 11
1087.6382358469
 21
-222.30512960979999
 31
0.0
  0
SOLID
  5
1BD
  8
0
 62
     0
 10
1087.6382358469
 20
-225.30512960979999
 30
0.0
 11
1086.1382358469
 21
-219.30512960979999
 31
0.0
 12
1089.1382358469
 22
-219.30512960979999
 32
0.0
 13
1087.6382358469
 23
-220.80512960979999
 33
0.0
  0
ENDBLK
  5
1BE
  8
0
  0
BLOCK
  8
0
  2
*D15
 70
     1
 10
0.0
 20
0.0
 30
0.0
  3
*D15
  1

  0
TEXT
  5
1C3
  8
0
 62
     0
 10
810.15726117089991
 20
-137.59679611760001
 30
0.0
 40
5.9972220420999998
  1
190
 50
90.0
  0
LINE
  5
1C4
  8
0
 62
     0
 10
778.61223169189998
 20
-227.30512960979999
 30
0.0
 11
812.71559447239997
 21
-227.30512960979999
 31
0.0
  0
LINE
  5
1C5
  8
0
 62
     0
 10
778.61223169189998
 20
-37.305129609799998
 30
0.0
 11
812.71559447239997
 21
-37.305129609799998
 31
0.0
  0
LINE
  5
1C6
  8
0
 62
     0
 10
812.21559447240008
 20
-227.30512960979999
 30
0.0
 11
812.21559447240008
 21
-123.48568543029999
 31
0.0
  0
LINE
  5
1C7
  8
0
 62
     0
 10
812.21559447240008
 20
-227.30512960979999
 30
0.0
 11
812.21559447240008
 21
-141.12457378939999
 31
0.0
  0
LINE
  5
1C8
  8
0
 62
     0
 10
812.21559447240008
 20
-37.305129609799998
 30
0.0
 11
812.21559447240008
 21
-123.48568543029999
 31
0.0
  0
LINE
  5
1C9
  8
0
 62
     0
 10
812.21559447240008
 20
-37.305129609799998
 30
0.0
 11
812.21559447240008
 21
-141.12457378939999
 31
0.0
  0
LINE
  5
1CA
  8
0
 62
     0
 10
812.21559447240008
 20
-37.305129609799998
 30
0.0
 11
812.21559447240008
 21
-40.305129609799998
 31
0.0
  0
SOLID
  5
1CB
  8
0
 62
     0
 10
812.21559447240008
 20
-37.305129609799998
 30
0.0
 11
813.71559447239997
 21
-43.305129609799998
 31
0.0
 12
810.71559447239997
 22
-43.305129609799998
 32
0.0
 13
812.21559447240008
 23
-41.805129609799991
 33
0.0
  0
LINE
  5
1CC
  8
0
 62
     0
 10
812.21559447240008
 20
-227.30512960979999
 30
0.0
 11
812.21559447240008
 21
-224.30512960979999
 31
0.0
  0
SOLID
  5
1CD
  8
0
 62
     0
 10
812.21559447240008
 20
-227.30512960979999
 30
0.0
 11
810.71559447239997
 21
-221.30512960979999
 31
0.0
 12
813.71559447239997
 22
-221.30512960979999
 32
0.0
 13
812.21559447240008
 23
-222.80512960979999
 33
0.0
  0
ENDBLK
  5
1CE
  8
0
  0
BLOCK
  8
0
  2
*D16
 70
     1
 10
0.0
 20
0.0
 30
0.0
  3
*D16
  1

  0
TEXT
  5
1D2
  8
0
 62
     0
 10
701.0538659857001
 20
-207.83306745339999
 30
0.0
 40
5.9972220420999998
  1
24
 50
90.0
  0
LINE
  5
1D3
  8
0
 62
     0
 10
664.11223169189986
 20
-216.3054499534
 30
0.0
 11
703.61219928720004
 21
-216.3054499534
 31
0.0
  0
LINE
  5
1D4
  8
0
 62
     0
 10
684.11219928720004
 20
-192.30512960979999
 30
0.0
 11
703.61219928720004
 21
-192.30512960979999
 31
0.0
  0
LINE
  5
1D5
  8
0
 62
     0
 10
703.11219928720004
 20
-216.3054499534
 30
0.0
 11
703.11219928720004
 21
-197.24973443799999
 31
0.0
  0
LINE
  5
1D6
  8
0
 62
     0
 10
703.11219928720004
 20
-216.3054499534
 30
0.0
 11
703.11219928720004
 21
-211.3608451252
 31
0.0
  0
LINE
  5
1D7
  8
0
 62
     0
 10
703.11219928720004
 20
-192.30512960979999
 30
0.0
 11
703.11219928720004
 21
-197.24973443799999
 31
0.0
  0
LINE
  5
1D8
  8
0
 62
     0
 10
703.11219928720004
 20
-192.30512960979999
 30
0.0
 11
703.11219928720004
 21
-211.3608451252
 31
0.0
  0
LINE
  5
1D9
  8
0
 62
     0
 10
703.11219928720004
 20
-192.30512960979999
 30
0.0
 11
703.11219928720004
 21
-189.30512960979999
 31
0.0
  0
SOLID
  5
1DA
  8
0
 62
     0
 10
703.11219928720004
 20
-192.30512960979999
 30
0.0
 11
701.61219928720004
 21
-186.30512960979999
 31
0.0
 12
704.61219928720004
 22
-186.30512960979999
 32
0.0
 13
703.11219928720004
 23
-187.80512960979999
 33
0.0
  0
LINE
  5
1DB
  8
0
 62
     0
 10
703.11219928720004
 20
-216.3054499534
 30
0.0
 11
703.11219928720004
 21
-219.3054499534
 31
0.0
  0
SOLID
  5
1DC
  8
0
 62
     0
 10
703.11219928720004
 20
-216.3054499534
 30
0.0
 11
704.61219928720004
 21
-222.3054499534
 31
0.0
 12
701.61219928720004
 22
-222.3054499534
 32
0.0
 13
703.11219928720004
 23
-220.8054499534
 33
0.0
  0
ENDBLK
  5
1DD
  8
0
  0
BLOCK
  8
0
  2
BALLON2
 70
     0
 10
0.0
 20
0.0
 30
0.0
  3
BALLON2
  1

  0
INSERT
  5
1E8
  8
0
  6
CONTINUOUS
  2
*U62
 10
0.0
 20
0.0
 30
0.0
  0
CIRCLE
  5
1E9
  8
ﾚｲﾔ_1
 10
-270.27766443770003
 20
-106.2785500832
 30
0.0
 40
8.0
  0
LINE
  5
1EA
  8
寸法線
 10
-256.94433110440002
 20
-106.2785500832
 30
0.0
 11
-262.27766443770003
 21
-106.2785500832
 31
0.0
  0
LINE
  5
1EB
  8
寸法線
 10
-232.12383601639999
 20
-167.2785500832
 30
0.0
 11
-256.94433110440002
 21
-106.2785500832
 31
0.0
  0
SOLID
  5
1EC
  8
寸法線
 10
-232.12383601639999
 20
-167.2785500832
 30
0.0
 11
-236.62095776960001
 21
-160.47150256340001
 31
0.0
 12
-234.53592236200001
 22
-161.3504947982
 32
0.0
 13
-234.53592236200001
 23
-161.3504947982
 33
0.0
  0
SOLID
  5
1ED
  8
寸法線
 10
-234.53592236200001
 20
-161.3504947982
 30
0.0
 11
-233.65693012720001
 21
-159.2654593906
 31
0.0
 12
-232.12383601639999
 22
-167.2785500832
 32
0.0
 13
-232.12383601639999
 23
-167.2785500832
 33
0.0
  0
ENDBLK
  5
1EE
  8
0
  0
BLOCK
  8
0
  2
BALLON3
 70
     0
 10
0.0
 20
0.0
 30
0.0
  3
BALLON3
  1

  0
INSERT
  5
1FE
  8
0
  6
CONTINUOUS
  2
*U63
 10
0.0
 20
0.0
 30
0.0
  0
CIRCLE
  5
1FF
  8
ﾚｲﾔ_1
 10
-320.43050996620002
 20
-106.2785500832
 30
0.0
 40
8.0
  0
LINE
  5
200
  8
寸法線
 10
-333.76384329950002
 20
-106.2785500832
 30
0.0
 11
-328.43050996620002
 21
-106.2785500832
 31
0.0
  0
LINE
  5
201
  8
寸法線
 10
-356.13625549020003
 20
-56.528550083199988
 30
0.0
 11
-333.76384329950002
 21
-106.2785500832
 31
0.0
  0
SOLID
  5
202
  8
寸法線
 10
-356.13625549020003
 20
-56.528550083199988
 30
0.0
 11
-351.3959383179
 21
-63.168534503799997
 31
0.0
 12
-353.51139373000001
 22
-62.3655099717
 32
0.0
 13
-353.51139373000001
 23
-62.3655099717
 33
0.0
  0
SOLID
  5
203
  8
寸法線
 10
-353.51139373000001
 20
-62.3655099717
 30
0.0
 11
-354.31441826209999
 21
-64.480965383899999
 31
0.0
 12
-356.13625549020003
 22
-56.528550083199988
 32
0.0
 13
-356.13625549020003
 23
-56.528550083199988
 33
0.0
  0
ENDBLK
  5
204
  8
0
  0
BLOCK
  8
0
  2
*D19
 70
     1
 10
0.0
 20
0.0
 30
0.0
  3
*D19
  1

  0
TEXT
  5
207
  8
0
 62
     0
 10
657.82056518419995
 20
0.0060113208
 30
0.0
 40
5.9972220420999998
  1
235
  0
LINE
  5
208
  8
0
 62
     0
 10
780.61223169189986
 20
-39.305129609799998
 30
0.0
 11
780.61223169189986
 21
-1.552321980699999
 31
0.0
  0
LINE
  5
209
  8
0
 62
     0
 10
545.61223169189998
 20
-39.305129609799998
 30
0.0
 11
545.61223169189998
 21
-1.552321980699999
 31
0.0
  0
LINE
  5
20A
  8
0
 62
     0
 10
780.61223169189986
 20
-2.052321980699999
 30
0.0
 11
671.93167587150003
 21
-2.052321980699999
 31
0.0
  0
LINE
  5
20B
  8
0
 62
     0
 10
780.61223169189986
 20
-2.052321980699999
 30
0.0
 11
654.29278751239985
 21
-2.052321980699999
 31
0.0
  0
LINE
  5
20C
  8
0
 62
     0
 10
545.61223169189998
 20
-2.052321980699999
 30
0.0
 11
671.93167587150003
 21
-2.052321980699999
 31
0.0
  0
LINE
  5
20D
  8
0
 62
     0
 10
545.61223169189998
 20
-2.052321980699999
 30
0.0
 11
654.29278751239985
 21
-2.052321980699999
 31
0.0
  0
LINE
  5
20E
  8
0
 62
     0
 10
545.61223169189998
 20
-2.052321980699999
 30
0.0
 11
548.61223169189998
 21
-2.052321980699999
 31
0.0
  0
SOLID
  5
20F
  8
0
 62
     0
 10
545.61223169189998
 20
-2.052321980699999
 30
0.0
 11
551.61223169189986
 21
-0.5523219807000001
 31
0.0
 12
551.61223169189986
 22
-3.552321980699999
 32
0.0
 13
550.11223169189986
 23
-2.052321980699999
 33
0.0
  0
LINE
  5
210
  8
0
 62
     0
 10
780.61223169189986
 20
-2.052321980699999
 30
0.0
 11
777.61223169189998
 21
-2.052321980699999
 31
0.0
  0
SOLID
  5
211
  8
0
 62
     0
 10
780.61223169189986
 20
-2.052321980699999
 30
0.0
 11
774.61223169189998
 21
-3.552321980699999
 31
0.0
 12
774.61223169189998
 22
-0.5523219807000001
 32
0.0
 13
776.11223169189986
 23
-2.052321980699999
 33
0.0
  0
ENDBLK
  5
212
  8
0
  0
BLOCK
  8
0
  2
BALLON4
 70
     0
 10
0.0
 20
0.0
 30
0.0
  3
BALLON4
  1

  0
INSERT
  5
227
  8
0
  6
CONTINUOUS
  2
*U64
 10
0.0
 20
0.0
 30
0.0
  0
CIRCLE
  5
228
  8
ﾚｲﾔ_1
 10
900.47165617109988
 20
-220.8597382698
 30
0.0
 40
8.0
  0
LINE
  5
229
  8
寸法線
 10
913.80498950440006
 20
-220.8597382698
 30
0.0
 11
908.47165617109988
 21
-220.8597382698
 31
0.0
  0
LINE
  5
22A
  8
寸法線
 10
955.19653637939996
 20
-207.3755632237
 30
0.0
 11
913.80498950440006
 21
-220.8597382698
 31
0.0
  0
SOLID
  5
22B
  8
寸法線
 10
955.19653637939996
 20
-207.3755632237
 30
0.0
 11
948.08558889369999
 21
-211.37486639490001
 31
0.0
 12
949.11129936410009
 22
-209.35795835760001
 32
0.0
 13
949.11129936410009
 23
-209.35795835760001
 33
0.0
  0
SOLID
  5
22C
  8
寸法線
 10
949.11129936410009
 20
-209.35795835760001
 30
0.0
 11
947.09439132679995
 21
-208.33224788730001
 31
0.0
 12
955.19653637939996
 22
-207.3755632237
 32
0.0
 13
955.19653637939996
 23
-207.3755632237
 33
0.0
  0
ENDBLK
  5
22D
  8
0
  0
BLOCK
  8
0
  2
BALLON5
 70
     0
 10
0.0
 20
0.0
 30
0.0
  3
BALLON5
  1

  0
INSERT
  5
278
  8
0
  6
CONTINUOUS
  2
*U73
 10
0.0
 20
0.0
 30
0.0
  0
CIRCLE
  5
279
  8
ﾚｲﾔ_1
 10
-50.574307370600003
 20
79.537285289500005
 30
0.0
 40
8.0
  0
LINE
  5
27A
  8
寸法線
 10
-37.240974037199997
 20
79.537285289500005
 30
0.0
 11
-42.574307370599989
 21
79.537285289500005
 31
0.0
  0
LINE
  5
27B
  8
寸法線
 10
1.6990731173
 20
106.83485403349999
 30
0.0
 11
-37.240974037199997
 21
79.537285289500005
 31
0.0
  0
SOLID
  5
27C
  8
寸法線
 10
1.6990731173
 20
106.83485403349999
 30
0.0
 11
-3.933223842499999
 21
100.9325467765
 31
0.0
 12
-3.541510275899999
 22
103.16112490659999
 32
0.0
 13
-3.541510275899999
 23
103.16112490659999
 33
0.0
  0
SOLID
  5
27D
  8
寸法線
 10
-3.541510275899999
 20
103.16112490659999
 30
0.0
 11
-5.7700884060000002
 21
103.5528384731
 31
0.0
 12
1.6990731173
 22
106.83485403349999
 32
0.0
 13
1.6990731173
 23
106.83485403349999
 33
0.0
  0
ENDBLK
  5
27E
  8
0
  0
BLOCK
  8
0
  2
*D22
 70
     1
 10
0.0
 20
0.0
 30
0.0
  3
*D22
  1

  0
TEXT
  5
284
  8
0
 62
     0
 10
547.08445402009988
 20
-18.246796308299999
 30
0.0
 40
5.9972220420999998
  1
10
  0
LINE
  5
285
  8
0
 62
     0
 10
555.61223169189986
 20
-49.305129609799991
 30
0.0
 11
555.61223169189986
 21
-19.805129609800002
 31
0.0
  0
LINE
  5
286
  8
0
 62
     0
 10
545.61223169189998
 20
-39.305129609799998
 30
0.0
 11
545.61223169189998
 21
-19.805129609800002
 31
0.0
  0
LINE
  5
287
  8
0
 62
     0
 10
555.61223169189986
 20
-20.305129609800002
 30
0.0
 11
555.61223169189986
 21
-20.305129609800002
 31
0.0
  0
LINE
  5
288
  8
0
 62
     0
 10
555.61223169189986
 20
-20.305129609800002
 30
0.0
 11
545.61223169189998
 21
-20.305129609800002
 31
0.0
  0
LINE
  5
289
  8
0
 62
     0
 10
545.61223169189998
 20
-20.305129609800002
 30
0.0
 11
555.61223169189986
 21
-20.305129609800002
 31
0.0
  0
LINE
  5
28A
  8
0
 62
     0
 10
545.61223169189998
 20
-20.305129609800002
 30
0.0
 11
545.61223169189998
 21
-20.305129609800002
 31
0.0
  0
LINE
  5
28B
  8
0
 62
     0
 10
545.61223169189998
 20
-20.305129609800002
 30
0.0
 11
542.61223169189986
 21
-20.305129609800002
 31
0.0
  0
SOLID
  5
28C
  8
0
 62
     0
 10
545.61223169189998
 20
-20.305129609800002
 30
0.0
 11
539.61223169189986
 21
-21.805129609800002
 31
0.0
 12
539.61223169189986
 22
-18.805129609800002
 32
0.0
 13
541.11223169189998
 23
-20.305129609800002
 33
0.0
  0
LINE
  5
28D
  8
0
 62
     0
 10
555.61223169189986
 20
-20.305129609800002
 30
0.0
 11
558.61223169189986
 21
-20.305129609800002
 31
0.0
  0
SOLID
  5
28E
  8
0
 62
     0
 10
555.61223169189986
 20
-20.305129609800002
 30
0.0
 11
561.61223169189998
 21
-18.805129609800002
 31
0.0
 12
561.61223169189998
 22
-21.805129609800002
 32
0.0
 13
560.11223169189986
 23
-20.305129609800002
 33
0.0
  0
ENDBLK
  5
28F
  8
0
  0
BLOCK
  8
0
  2
*D23
 70
     1
 10
0.0
 20
0.0
 30
0.0
  3
*D23
  1

  0
TEXT
  5
296
  8
0
 62
     0
 10
795.55389839039992
 20
-225.83290728169999
 30
0.0
 40
5.9972220420999998
  1
10
 50
90.0
  0
LINE
  5
297
  8
0
 62
     0
 10
778.61223169189998
 20
-227.30512960979999
 30
0.0
 11
798.11223169189986
 21
-227.30512960979999
 31
0.0
  0
LINE
  5
298
  8
0
 62
     0
 10
768.61223169189986
 20
-217.30512960979999
 30
0.0
 11
798.11223169189986
 21
-217.30512960979999
 31
0.0
  0
LINE
  5
299
  8
0
 62
     0
 10
797.61223169189986
 20
-227.30512960979999
 30
0.0
 11
797.61223169189986
 21
-227.30512960979999
 31
0.0
  0
LINE
  5
29A
  8
0
 62
     0
 10
797.61223169189986
 20
-227.30512960979999
 30
0.0
 11
797.61223169189986
 21
-217.30512960979999
 31
0.0
  0
LINE
  5
29B
  8
0
 62
     0
 10
797.61223169189986
 20
-217.30512960979999
 30
0.0
 11
797.61223169189986
 21
-227.30512960979999
 31
0.0
  0
LINE
  5
29C
  8
0
 62
     0
 10
797.61223169189986
 20
-217.30512960979999
 30
0.0
 11
797.61223169189986
 21
-217.30512960979999
 31
0.0
  0
LINE
  5
29D
  8
0
 62
     0
 10
797.61223169189986
 20
-217.30512960979999
 30
0.0
 11
797.61223169189986
 21
-214.30512960979999
 31
0.0
  0
SOLID
  5
29E
  8
0
 62
     0
 10
797.61223169189986
 20
-217.30512960979999
 30
0.0
 11
796.11223169189986
 21
-211.30512960979999
 31
0.0
 12
799.11223169189998
 22
-211.30512960979999
 32
0.0
 13
797.61223169189986
 23
-212.80512960979999
 33
0.0
  0
LINE
  5
29F
  8
0
 62
     0
 10
797.61223169189986
 20
-227.30512960979999
 30
0.0
 11
797.61223169189986
 21
-230.30512960979999
 31
0.0
  0
SOLID
  5
2A0
  8
0
 62
     0
 10
797.61223169189986
 20
-227.30512960979999
 30
0.0
 11
799.11223169189998
 21
-233.30512960979999
 31
0.0
 12
796.11223169189986
 22
-233.30512960979999
 32
0.0
 13
797.61223169189986
 23
-231.80512960979999
 33
0.0
  0
ENDBLK
  5
2A1
  8
0
  0
BLOCK
  8
0
  2
*D24
 70
     1
 10
0.0
 20
0.0
 30
0.0
  3
*D24
  1

  0
TEXT
  5
2D5
  8
0
 62
     0
 10
925.13789942229994
 20
-52.832907281700002
 30
0.0
 40
5.9972220420999998
  1
24
 50
90.0
  0
LINE
  5
2D6
  8
0
 62
     0
 10
947.69653637940007
 20
-37.305129609799998
 30
0.0
 11
927.19623272379999
 21
-37.305129609799998
 31
0.0
  0
LINE
  5
2D7
  8
0
 62
     0
 10
947.19623272379988
 20
-61.305129609799991
 30
0.0
 11
927.19623272379999
 21
-61.305129609799991
 31
0.0
  0
LINE
  5
2D8
  8
0
 62
     0
 10
928.19623272379999
 20
-37.305129609799998
 30
0.0
 11
928.19623272379999
 21
-42.2495742662
 31
0.0
  0
LINE
  5
2D9
  8
0
 62
     0
 10
928.19623272379999
 20
-37.305129609799998
 30
0.0
 11
928.19623272379999
 21
-56.360684953499998
 31
0.0
  0
LINE
  5
2DA
  8
0
 62
     0
 10
928.19623272379999
 20
-61.305129609799991
 30
0.0
 11
928.19623272379999
 21
-42.2495742662
 31
0.0
  0
LINE
  5
2DB
  8
0
 62
     0
 10
928.19623272379999
 20
-61.305129609799991
 30
0.0
 11
928.19623272379999
 21
-56.360684953499998
 31
0.0
  0
LINE
  5
2DC
  8
0
 62
     0
 10
928.19623272379999
 20
-61.305129609799991
 30
0.0
 11
928.19623272379999
 21
-67.305129609799991
 31
0.0
  0
SOLID
  5
2DD
  8
0
 62
     0
 10
928.19623272379999
 20
-61.305129609799991
 30
0.0
 11
929.69623272379999
 21
-67.305129609799991
 31
0.0
 12
926.69623272379988
 22
-67.305129609799991
 32
0.0
 13
928.19623272379999
 23
-65.805129609799991
 33
0.0
  0
LINE
  5
2DE
  8
0
 62
     0
 10
928.19623272379999
 20
-37.305129609799998
 30
0.0
 11
928.19623272379999
 21
-31.305129609800002
 31
0.0
  0
SOLID
  5
2DF
  8
0
 62
     0
 10
928.19623272379999
 20
-37.305129609799998
 30
0.0
 11
926.69623272379988
 21
-31.305129609800002
 31
0.0
 12
929.69623272379999
 22
-31.305129609800002
 32
0.0
 13
928.19623272379999
 23
-32.805129609799998
 33
0.0
  0
ENDBLK
  5
2E0
  8
0
  0
BLOCK
  8
0
  2
*D25
 70
     1
 10
0.0
 20
0.0
 30
0.0
  3
*D25
  1

  0
TEXT
  5
2E4
  8
0
 62
     0
 10
948.93264754349991
 20
-15.2467963083
 30
0.0
 40
5.9972220420999998
  1
6
  0
LINE
  5
2E5
  8
0
 62
     0
 10
953.69653637940007
 20
-36.305129609799998
 30
0.0
 11
953.69653637940007
 21
-16.805129609800002
 31
0.0
  0
LINE
  5
2E6
  8
0
 62
     0
 10
947.69653637940007
 20
-37.305129609799998
 30
0.0
 11
947.69653637940007
 21
-16.805129609800002
 31
0.0
  0
LINE
  5
2E7
  8
0
 62
     0
 10
953.69653637940007
 20
-17.305129609800002
 30
0.0
 11
953.69653637940007
 21
-17.305129609800002
 31
0.0
  0
LINE
  5
2E8
  8
0
 62
     0
 10
953.69653637940007
 20
-17.305129609800002
 30
0.0
 11
947.69653637940007
 21
-17.305129609800002
 31
0.0
  0
LINE
  5
2E9
  8
0
 62
     0
 10
947.69653637940007
 20
-17.305129609800002
 30
0.0
 11
953.69653637940007
 21
-17.305129609800002
 31
0.0
  0
LINE
  5
2EA
  8
0
 62
     0
 10
947.69653637940007
 20
-17.305129609800002
 30
0.0
 11
947.69653637940007
 21
-17.305129609800002
 31
0.0
  0
LINE
  5
2EB
  8
0
 62
     0
 10
947.69653637940007
 20
-17.305129609800002
 30
0.0
 11
944.69653637940007
 21
-17.305129609800002
 31
0.0
  0
SOLID
  5
2EC
  8
0
 62
     0
 10
947.69653637940007
 20
-17.305129609800002
 30
0.0
 11
941.69653637939996
 21
-18.805129609800002
 31
0.0
 12
941.69653637939996
 22
-15.8051296098
 32
0.0
 13
943.19653637940007
 23
-17.305129609800002
 33
0.0
  0
LINE
  5
2ED
  8
0
 62
     0
 10
953.69653637940007
 20
-17.305129609800002
 30
0.0
 11
956.69653637939996
 21
-17.305129609800002
 31
0.0
  0
SOLID
  5
2EE
  8
0
 62
     0
 10
953.69653637940007
 20
-17.305129609800002
 30
0.0
 11
959.69653637939996
 21
-15.8051296098
 31
0.0
 12
959.69653637939996
 22
-18.805129609800002
 32
0.0
 13
958.19653637940007
 23
-17.305129609800002
 33
0.0
  0
ENDBLK
  5
2EF
  8
0
  0
BLOCK
  8
0
  2
*D26
 70
     1
 10
0.0
 20
0.0
 30
0.0
  3
*D26
  1

  0
TEXT
  5
2F3
  8
0
 62
     0
 10
772.08445402009988
 20
-18.246796308299999
 30
0.0
 40
5.9972220420999998
  1
10
  0
LINE
  5
2F4
  8
0
 62
     0
 10
780.61223169189986
 20
-39.305129609799998
 30
0.0
 11
780.61223169189986
 21
-19.805129609800002
 31
0.0
  0
LINE
  5
2F5
  8
0
 62
     0
 10
770.61223169189998
 20
-49.305129609799991
 30
0.0
 11
770.61223169189998
 21
-19.805129609800002
 31
0.0
  0
LINE
  5
2F6
  8
0
 62
     0
 10
780.61223169189986
 20
-20.305129609800002
 30
0.0
 11
780.61223169189986
 21
-20.305129609800002
 31
0.0
  0
LINE
  5
2F7
  8
0
 62
     0
 10
780.61223169189986
 20
-20.305129609800002
 30
0.0
 11
770.61223169189998
 21
-20.305129609800002
 31
0.0
  0
LINE
  5
2F8
  8
0
 62
     0
 10
770.61223169189998
 20
-20.305129609800002
 30
0.0
 11
780.61223169189986
 21
-20.305129609800002
 31
0.0
  0
LINE
  5
2F9
  8
0
 62
     0
 10
770.61223169189998
 20
-20.305129609800002
 30
0.0
 11
770.61223169189998
 21
-20.305129609800002
 31
0.0
  0
LINE
  5
2FA
  8
0
 62
     0
 10
770.61223169189998
 20
-20.305129609800002
 30
0.0
 11
767.61223169189986
 21
-20.305129609800002
 31
0.0
  0
SOLID
  5
2FB
  8
0
 62
     0
 10
770.61223169189998
 20
-20.305129609800002
 30
0.0
 11
764.61223169189986
 21
-21.805129609800002
 31
0.0
 12
764.61223169189986
 22
-18.805129609800002
 32
0.0
 13
766.11223169189998
 23
-20.305129609800002
 33
0.0
  0
LINE
  5
2FC
  8
0
 62
     0
 10
780.61223169189986
 20
-20.305129609800002
 30
0.0
 11
783.61223169189986
 21
-20.305129609800002
 31
0.0
  0
SOLID
  5
2FD
  8
0
 62
     0
 10
780.61223169189986
 20
-20.305129609800002
 30
0.0
 11
786.61223169189998
 21
-18.805129609800002
 31
0.0
 12
786.61223169189998
 22
-21.805129609800002
 32
0.0
 13
785.11223169189986
 23
-20.305129609800002
 33
0.0
  0
ENDBLK
  5
2FE
  8
0
  0
BLOCK
  8
0
  2
*D27
 70
     1
 10
0.0
 20
0.0
 30
0.0
  3
*D27
  1

  0
TEXT
  5
302
  8
0
 62
     0
 10
795.55389839039992
 20
-45.832907281700002
 30
0.0
 40
5.9972220420999998
  1
10
 50
90.0
  0
LINE
  5
303
  8
0
 62
     0
 10
768.61223169189986
 20
-47.305129609799991
 30
0.0
 11
798.11223169189986
 21
-47.305129609799991
 31
0.0
  0
LINE
  5
304
  8
0
 62
     0
 10
778.61223169189998
 20
-37.305129609799998
 30
0.0
 11
798.11223169189986
 21
-37.305129609799998
 31
0.0
  0
LINE
  5
305
  8
0
 62
     0
 10
797.61223169189986
 20
-47.305129609799991
 30
0.0
 11
797.61223169189986
 21
-47.305129609799991
 31
0.0
  0
LINE
  5
306
  8
0
 62
     0
 10
797.61223169189986
 20
-47.305129609799991
 30
0.0
 11
797.61223169189986
 21
-37.305129609799998
 31
0.0
  0
LINE
  5
307
  8
0
 62
     0
 10
797.61223169189986
 20
-37.305129609799998
 30
0.0
 11
797.61223169189986
 21
-47.305129609799991
 31
0.0
  0
LINE
  5
308
  8
0
 62
     0
 10
797.61223169189986
 20
-37.305129609799998
 30
0.0
 11
797.61223169189986
 21
-37.305129609799998
 31
0.0
  0
LINE
  5
309
  8
0
 62
     0
 10
797.61223169189986
 20
-37.305129609799998
 30
0.0
 11
797.61223169189986
 21
-34.305129609799998
 31
0.0
  0
SOLID
  5
30A
  8
0
 62
     0
 10
797.61223169189986
 20
-37.305129609799998
 30
0.0
 11
796.11223169189986
 21
-31.305129609800002
 31
0.0
 12
799.11223169189998
 22
-31.305129609800002
 32
0.0
 13
797.61223169189986
 23
-32.805129609799998
 33
0.0
  0
LINE
  5
30B
  8
0
 62
     0
 10
797.61223169189986
 20
-47.305129609799991
 30
0.0
 11
797.61223169189986
 21
-50.305129609799998
 31
0.0
  0
SOLID
  5
30C
  8
0
 62
     0
 10
797.61223169189986
 20
-47.305129609799991
 30
0.0
 11
799.11223169189998
 21
-53.305129609799998
 31
0.0
 12
796.11223169189986
 22
-53.305129609799998
 32
0.0
 13
797.61223169189986
 23
-51.805129609799991
 33
0.0
  0
ENDBLK
  5
30D
  8
0
  0
BLOCK
  8
0
  2
*U28
 70
     1
 10
0.0
 20
0.0
 30
0.0
  3
*U28
  1

  0
TEXT
  5
469
  8
図枠
  6
CONTINUOUS
 10
1001.332251952403
 20
-391.79678499550249
 30
0.0
 40
5.3974999188999986
  1
本　　体
  0
ENDBLK
  5
46B
  8
0
  0
BLOCK
  8
0
  2
*U29
 70
     1
 10
0.0
 20
0.0
 30
0.0
  3
*U29
  1

  0
TEXT
  5
46D
  8
図枠
  6
CONTINUOUS
 10
996.05804517885849
 20
-381.7419880420112
 30
0.0
 40
5.3974999188999986
  1
扉 受 け 軸
  0
ENDBLK
  5
46F
  8
0
  0
BLOCK
  8
0
  2
*U30
 70
     1
 10
0.0
 20
0.0
 30
0.0
  3
*U30
  1

  0
TEXT
  5
471
  8
図枠
  6
CONTINUOUS
 10
1011.729973877391
 20
-401.74198804201109
 30
0.0
 40
5.3974999188999986
  1
蓋
  0
ENDBLK
  5
473
  8
0
  0
BLOCK
  8
0
  2
*U31
 70
     1
 10
0.0
 20
0.0
 30
0.0
  3
*U31
  1

  0
TEXT
  5
475
  8
図枠
  6
CONTINUOUS
 10
1011.798470069255
 20
-411.76938651875679
 30
0.0
 40
5.3974999188999986
  1
枠
  0
ENDBLK
  5
477
  8
0
  0
BLOCK
  8
0
  2
*U32
 70
     1
 10
0.0
 20
0.0
 30
0.0
  3
*U32
  1

  0
TEXT
  5
479
  8
図枠
  6
CONTINUOUS
 10
1122.866033835551
 20
51.87261348124315
 30
0.0
 40
5.3974999188999986
  1
改　訂　内　容
  0
ENDBLK
  5
47B
  8
0
  0
BLOCK
  8
0
  2
*U33
 70
     1
 10
0.0
 20
0.0
 30
0.0
  3
*U33
  1

  0
TEXT
  5
47D
  8
図枠
  6
CONTINUOUS
 10
1070.715963830495
 20
51.927410434734533
 30
0.0
 40
5.3974999188999986
  1
改訂日
  0
ENDBLK
  5
47F
  8
0
  0
BLOCK
  8
0
  2
*U34
 70
     1
 10
0.0
 20
0.0
 30
0.0
  3
*U34
  1

  0
TEXT
  5
481
  8
図枠
  6
CONTINUOUS
 10
1050.250367330689
 20
51.982207388225888
 30
0.0
 40
5.3974999188999986
  1
副番
  0
ENDBLK
  5
483
  8
0
  0
BLOCK
  8
0
  2
*U35
 70
     1
 10
0.0
 20
0.0
 30
0.0
  3
*U35
  1

  0
TEXT
  5
485
  8
図枠
  6
CONTINUOUS
 10
957.88376572210007
 20
-494.67400149211068
 30
0.0
 40
10.794999837900001
  1
株式会社
  0
ENDBLK
  5
487
  8
0
  0
BLOCK
  8
0
  2
*U36
 70
     1
 10
0.0
 20
0.0
 30
0.0
  3
*U36
  1

  0
TEXT
  5
489
  8
図枠
  6
CONTINUOUS
 10
1216.9214524060881
 20
51.845215004497469
 30
0.0
 40
5.3974999188999986
  1
検認者
  0
ENDBLK
  5
48B
  8
0
  0
BLOCK
  8
0
  2
*U37
 70
     1
 10
0.0
 20
0.0
 30
0.0
  3
*U37
  1

  0
TEXT
  5
48D
  8
図枠
  6
CONTINUOUS
 10
1099.7342740220049
 20
-486.00578038339643
 30
0.0
 40
5.9972220420999998
  1
図 番
  0
ENDBLK
  5
48F
  8
0
  0
BLOCK
  8
0
  2
*U38
 70
     1
 10
0.0
 20
0.0
 30
0.0
  3
*U38
  1

  0
TEXT
  5
491
  8
図枠
  6
CONTINUOUS
 10
1097.6489455454371
 20
-442.12755138932738
 30
0.0
 40
5.9972220420999998
  1
製品名
  0
ENDBLK
  5
493
  8
0
  0
BLOCK
  8
0
  2
*U39
 70
     1
 10
0.0
 20
0.0
 30
0.0
  3
*U39
  1

  0
TEXT
  5
495
  8
図枠
  6
CONTINUOUS
 10
1097.8163806785931
 20
-464.06666588636187
 30
0.0
 40
5.9972220420999998
  1
図面名
  0
ENDBLK
  5
497
  8
0
  0
BLOCK
  8
0
  2
*U40
 70
     1
 10
0.0
 20
0.0
 30
0.0
  3
*U40
  1

  0
TEXT
  5
499
  8
図枠
  6
CONTINUOUS
 10
957.4067925125255
 20
-442.7641684598309
 30
0.0
 40
5.9972220420999998
  1
日　　付
  0
ENDBLK
  5
49B
  8
0
  0
BLOCK
  8
0
  2
*U41
 70
     1
 10
0.0
 20
0.0
 30
0.0
  3
*U41
  1

  0
TEXT
  5
49D
  8
図枠
  6
CONTINUOUS
 10
1006.767494731388
 20
-442.94682496872741
 30
0.0
 40
5.9972220420999998
  1
尺　　度
  0
ENDBLK
  5
49F
  8
0
  0
BLOCK
  8
0
  2
*U42
 70
     1
 10
0.0
 20
0.0
 30
0.0
  3
*U42
  1

  0
TEXT
  5
4A1
  8
図枠
  6
CONTINUOUS
 10
1197.0036478363249
 20
51.87261348124315
 30
0.0
 40
5.3974999188999986
  1
改訂者
  0
ENDBLK
  5
4A3
  8
0
  0
BLOCK
  8
0
  2
*U43
 70
     1
 10
0.0
 20
0.0
 30
0.0
  3
*U43
  1

  0
TEXT
  5
4A5
  8
図枠
  6
CONTINUOUS
 10
948.69783149264208
 20
-422.27778038339642
 30
0.0
 40
5.9972220420999998
  1
品番
  0
ENDBLK
  5
4A7
  8
0
  0
BLOCK
  8
0
  2
*U44
 70
     1
 10
0.0
 20
0.0
 30
0.0
  3
*U44
  1

  0
TEXT
  5
4A9
  8
図枠
  6
CONTINUOUS
 10
947.00409184850002
 20
-475.94682496872741
 30
0.0
 40
5.9972220420999998
  1
 製図
  0
ENDBLK
  5
4AB
  8
0
  0
BLOCK
  8
0
  2
*U45
 70
     1
 10
0.0
 20
0.0
 30
0.0
  3
*U45
  1

  0
TEXT
  5
4AD
  8
図枠
  6
CONTINUOUS
 10
947.00409184850002
 20
-464.88593946576191
 30
0.0
 40
5.9972220420999998
  1
 設計
  0
ENDBLK
  5
4AF
  8
0
  0
BLOCK
  8
0
  2
*U46
 70
     1
 10
0.0
 20
0.0
 30
0.0
  3
*U46
  1

  0
TEXT
  5
4B1
  8
図枠
  6
CONTINUOUS
 10
1022.0040918485
 20
-475.97726772021008
 30
0.0
 40
5.9972220420999998
  1
 検図
  0
ENDBLK
  5
4B3
  8
0
  0
BLOCK
  8
0
  2
*U47
 70
     1
 10
0.0
 20
0.0
 30
0.0
  3
*U47
  1

  0
TEXT
  5
4B5
  8
図枠
  6
CONTINUOUS
 10
1022.0040918485
 20
-464.91638221724457
 30
0.0
 40
5.9972220420999998
  1
 照査
  0
ENDBLK
  5
4B7
  8
0
  0
BLOCK
  8
0
  2
*U48
 70
     1
 10
0.0
 20
0.0
 30
0.0
  3
*U48
  1

  0
TEXT
  5
4B9
  8
図枠
  6
CONTINUOUS
 10
1158.499953608004
 20
-422.39955138932743
 30
0.0
 40
5.9972220420999998
  1
数量
  0
ENDBLK
  5
4BB
  8
0
  0
BLOCK
  8
0
  2
*U49
 70
     1
 10
0.0
 20
0.0
 30
0.0
  3
*U49
  1

  0
TEXT
  5
4BD
  8
図枠
  6
CONTINUOUS
 10
1187.525341698476
 20
-422.4908796437756
 30
0.0
 40
5.9972220420999998
  1
備　　　考
  0
ENDBLK
  5
4BF
  8
0
  0
BLOCK
  8
0
  2
*U50
 70
     1
 10
0.0
 20
0.0
 30
0.0
  3
*U50
  1

  0
TEXT
  5
4C1
  8
図枠
  6
CONTINUOUS
 10
1091.8099370386319
 20
-422.3082231348792
 30
0.0
 40
5.9972220420999998
  1
材　　　質
  0
ENDBLK
  5
4C3
  8
0
  0
BLOCK
  8
0
  2
*U51
 70
     1
 10
0.0
 20
0.0
 30
0.0
  3
*U51
  1

  0
TEXT
  5
4C5
  8
図枠
  6
CONTINUOUS
 10
996.03825767475234
 20
-422.33866588636192
 30
0.0
 40
5.9972220420999998
  1
品　　　名
  0
ENDBLK
  5
4C7
  8
0
  0
BLOCK
  8
0
  2
*U52
 70
     1
 10
0.0
 20
0.0
 30
0.0
  3
*U52
  1

  0
TEXT
  5
4C9
  8
ﾚｲﾔ_1
  6
CONTINUOUS
 62
     5
 10
619.79623512429134
 20
-187.56193823509901
 30
0.0
 40
21.462499999999999
  1
散 水 栓
 50
90.0
  0
ENDBLK
  5
4CB
  8
0
  0
BLOCK
  8
0
  2
*U53
 70
     1
 10
0.0
 20
0.0
 30
0.0
  3
*U53
  1

  0
TEXT
  5
4CD
  8
ﾚｲﾔ_1
  6
CONTINUOUS
 10
989.85541740589986
 20
-263.25502195075939
 30
0.0
 40
5.3974999188999986
  1
プレスカシメ
  0
ENDBLK
  5
4CF
  8
0
  0
BLOCK
  8
0
  2
*U54
 70
     1
 10
0.0
 20
0.0
 30
0.0
  3
*U54
  1

  0
TEXT
  5
4D1
  8
図枠
  6
CONTINUOUS
 10
983.42293030878216
 20
-464.97726772021008
 30
0.0
 40
5.9972220420999998
  1
白須賀
  0
ENDBLK
  5
4D3
  8
0
  0
BLOCK
  8
0
  2
*U55
 70
     1
 10
0.0
 20
0.0
 30
0.0
  3
*U55
  1

  0
TEXT
  5
4D5
  8
図枠
  6
CONTINUOUS
 10
985.219052646264
 20
-476.0077104716928
 30
0.0
 40
5.9972220420999998
  1
岸 本
  0
ENDBLK
  5
4D7
  8
0
  0
BLOCK
  8
0
  2
*U56
 70
     1
 10
0.0
 20
0.0
 30
0.0
  3
*U56
  1

  0
TEXT
  5
4D9
  8
図枠
  6
CONTINUOUS
 10
1014.0433123357629
 20
-453.65673214129998
 30
0.0
 40
5.9972220420999998
  1
1：2
  0
ENDBLK
  5
4DB
  8
0
  0
BLOCK
  8
0
  2
*U57
 70
     1
 10
0.0
 20
0.0
 30
0.0
  3
*U57
  1

  0
TEXT
  5
4DD
  8
図枠
  6
CONTINUOUS
 10
991.1126201262623
 20
-371.5775971815371
 30
0.0
 40
5.3974999188999986
  1
システムロック
  0
ENDBLK
  5
4DF
  8
0
  0
BLOCK
  8
0
  2
*U58
 70
     1
 10
0.0
 20
0.0
 30
0.0
  3
*U58
  1

  0
TEXT
  5
4E1
  8
図枠
  6
CONTINUOUS
 10
1005.250234127036
 20
-361.5775971815371
 30
0.0
 40
5.3974999188999986
  1
フック
  0
ENDBLK
  5
4E3
  8
0
  0
BLOCK
  8
0
  2
*U59
 70
     1
 10
0.0
 20
0.0
 30
0.0
  3
*U59
  1

  0
TEXT
  5
4E5
  8
ﾚｲﾔ_1
  6
CONTINUOUS
 10
-52.673066472810149
 20
19.818875736599999
 30
0.0
 40
5.9972220420999998
  1
5
  0
ENDBLK
  5
4E7
  8
0
  0
BLOCK
  8
0
  2
*U60
 70
     1
 10
0.0
 20
0.0
 30
0.0
  3
*U60
  1

  0
TEXT
  5
4E9
  8
ﾚｲﾔ_1
  6
CONTINUOUS
 10
717.21072931996605
 20
-101.2391648337
 30
0.0
 40
5.9972220420999998
  1
ＨＬ
  0
ENDBLK
  5
4EB
  8
0
  0
BLOCK
  8
0
  2
*U61
 70
     1
 10
0.0
 20
0.0
 30
0.0
  3
*U61
  1

  0
TEXT
  5
4ED
  8
ﾚｲﾔ_1
  6
CONTINUOUS
 10
-181.93044352719289
 20
-108.7479944535
 30
0.0
 40
5.9972220420999998
  1
2
  0
ENDBLK
  5
4EF
  8
0
  0
BLOCK
  8
0
  2
*U62
 70
     1
 10
0.0
 20
0.0
 30
0.0
  3
*U62
  1

  0
TEXT
  5
4F1
  8
ﾚｲﾔ_1
  6
CONTINUOUS
 10
-272.37642353991021
 20
-108.7479944535
 30
0.0
 40
5.9972220420999998
  1
3
  0
ENDBLK
  5
4F3
  8
0
  0
BLOCK
  8
0
  2
*U63
 70
     1
 10
0.0
 20
0.0
 30
0.0
  3
*U63
  1

  0
TEXT
  5
4F5
  8
ﾚｲﾔ_1
  6
CONTINUOUS
 10
-322.95546758916851
 20
-108.7479944535
 30
0.0
 40
5.9972220420999998
  1
1
  0
ENDBLK
  5
4F7
  8
0
  0
BLOCK
  8
0
  2
*U64
 70
     1
 10
0.0
 20
0.0
 30
0.0
  3
*U64
  1

  0
TEXT
  5
4F9
  8
ﾚｲﾔ_1
  6
CONTINUOUS
 10
898.28156881444158
 20
-223.32918264009999
 30
0.0
 40
5.9972220420999998
  1
6
  0
ENDBLK
  5
4FB
  8
0
  0
BLOCK
  8
0
  2
*U65
 70
     1
 10
0.0
 20
0.0
 30
0.0
  3
*U65
  1

  0
TEXT
  5
4FD
  8
図枠
  6
CONTINUOUS
 10
964.25641159614236
 20
-453.65673214129998
 30
0.0
 40
5.9972220420999998
  1
H9.3
  0
ENDBLK
  5
4FF
  8
0
  0
BLOCK
  8
0
  2
*U66
 70
     1
 10
0.0
 20
0.0
 30
0.0
  3
*U66
  1

  0
TEXT
  5
501
  8
図枠
  6
CONTINUOUS
 10
954.30538629026751
 20
-391.49540175129999
 30
0.0
 40
5.3974999188999986
  1
3
  0
ENDBLK
  5
503
  8
0
  0
BLOCK
  8
0
  2
*U67
 70
     1
 10
0.0
 20
0.0
 30
0.0
  3
*U67
  1

  0
TEXT
  5
505
  8
図枠
  6
CONTINUOUS
 10
954.59307029609727
 20
-411.49540175129988
 30
0.0
 40
5.3974999188999986
  1
1
  0
ENDBLK
  5
507
  8
0
  0
BLOCK
  8
0
  2
*U68
 70
     1
 10
0.0
 20
0.0
 30
0.0
  3
*U68
  1

  0
TEXT
  5
509
  8
図枠
  6
CONTINUOUS
 10
954.27798781352192
 20
-401.49540175129999
 30
0.0
 40
5.3974999188999986
  1
2
  0
ENDBLK
  5
50B
  8
0
  0
BLOCK
  8
0
  2
*U69
 70
     1
 10
0.0
 20
0.0
 30
0.0
  3
*U69
  1

  0
TEXT
  5
50D
  8
図枠
  6
CONTINUOUS
 10
954.30538629026751
 20
-371.49540175129999
 30
0.0
 40
5.3974999188999986
  1
5
  0
ENDBLK
  5
50F
  8
0
  0
BLOCK
  8
0
  2
*U70
 70
     1
 10
0.0
 20
0.0
 30
0.0
  3
*U70
  1

  0
TEXT
  5
511
  8
図枠
  6
CONTINUOUS
 10
954.25058933677599
 20
-361.49540175129999
 30
0.0
 40
5.3974999188999986
  1
6
  0
ENDBLK
  5
513
  8
0
  0
BLOCK
  8
0
  2
*U71
 70
     1
 10
0.0
 20
0.0
 30
0.0
  3
*U71
  1

  0
TEXT
  5
515
  8
ﾚｲﾔ_1
  6
CONTINUOUS
 10
939.79041125223591
 20
-382.72788172550003
 30
0.0
 40
5.397499935199999
  1
1
  0
ENDBLK
  5
517
  8
0
  0
BLOCK
  8
0
  2
*U72
 70
     1
 10
0.0
 20
0.0
 30
0.0
  3
*U72
  1

  0
TEXT
  5
519
  8
図枠
  6
CONTINUOUS
 10
954.26428857514884
 20
-381.49540175129999
 30
0.0
 40
5.3974999188999986
  1
4
  0
ENDBLK
  5
51B
  8
0
  0
BLOCK
  8
0
  2
*U73
 70
     1
 10
0.0
 20
0.0
 30
0.0
  3
*U73
  1

  0
TEXT
  5
51D
  8
ﾚｲﾔ_1
  6
CONTINUOUS
 10
-52.58173821836192
 20
77.067840919199995
 30
0.0
 40
5.9972220420999998
  1
4
  0
ENDBLK
  5
51F
  8
0
  0
BLOCK
  8
0
  2
*U74
 70
     1
 10
0.0
 20
0.0
 30
0.0
  3
*U74
  1

  0
TEXT
  5
521
  8
ﾚｲﾔ_1
  6
CONTINUOUS
 10
802.63902368859988
 20
-13.59735440251117
 30
0.0
 40
5.3974999188999986
  1
片側溶接止め
  0
ENDBLK
  5
523
  8
0
  0
BLOCK
  8
0
  2
*U75
 70
     1
 10
0.0
 20
0.0
 30
0.0
  3
*U75
  1

  0
TEXT
  5
525
  8
図枠
  6
CONTINUOUS
 10
1064.4540798575811
 20
-411.49540175129988
 30
0.0
 40
5.3974999188999986
  1
ＳＵＳ３０４　１.０ｔ　ＨＬ
  0
ENDBLK
  5
527
  8
0
  0
BLOCK
  8
0
  2
*U76
 70
     1
 10
0.0
 20
0.0
 30
0.0
  3
*U76
  1

  0
TEXT
  5
529
  8
図枠
  6
CONTINUOUS
 10
1073.4457648423911
 20
-381.78666259329998
 30
0.0
 40
5.3974999188999986
  1
ＳＵＳ３０４　φ７ φ6
  0
ENDBLK
  5
52B
  8
0
  0
BLOCK
  8
0
  2
*U77
 70
     1
 10
0.0
 20
0.0
 30
0.0
  3
*U77
  1

  0
TEXT
  5
52D
  8
図枠
  6
CONTINUOUS
 10
1164.593070296097
 20
-371.49540175129999
 30
0.0
 40
5.3974999188999986
  1
1
  0
ENDBLK
  5
52F
  8
0
  0
BLOCK
  8
0
  2
*U78
 70
     1
 10
0.0
 20
0.0
 30
0.0
  3
*U78
  1

  0
TEXT
  5
531
  8
図枠
  6
CONTINUOUS
 10
1164.593070296097
 20
-381.49540175129999
 30
0.0
 40
5.3974999188999986
  1
1
  0
ENDBLK
  5
533
  8
0
  0
BLOCK
  8
0
  2
*U79
 70
     1
 10
0.0
 20
0.0
 30
0.0
  3
*U79
  1

  0
TEXT
  5
535
  8
図枠
  6
CONTINUOUS
 10
1164.593070296097
 20
-391.49540175129999
 30
0.0
 40
5.3974999188999986
  1
1
  0
ENDBLK
  5
537
  8
0
  0
BLOCK
  8
0
  2
*U80
 70
     1
 10
0.0
 20
0.0
 30
0.0
  3
*U80
  1

  0
TEXT
  5
539
  8
図枠
  6
CONTINUOUS
 10
1164.593070296097
 20
-401.49540175129999
 30
0.0
 40
5.3974999188999986
  1
1
  0
ENDBLK
  5
53B
  8
0
  0
BLOCK
  8
0
  2
*U81
 70
     1
 10
0.0
 20
0.0
 30
0.0
  3
*U81
  1

  0
TEXT
  5
53D
  8
図枠
  6
CONTINUOUS
 10
1088.6880325391389
 20
-371.8789804257396
 30
0.0
 40
5.3974999188999986
  1
タキゲンC-35A
  0
ENDBLK
  5
53F
  8
0
  0
BLOCK
  8
0
  2
*U82
 70
     1
 10
0.0
 20
0.0
 30
0.0
  3
*U82
  1

  0
TEXT
  5
541
  8
図枠
  6
CONTINUOUS
 10
1074.838102544195
 20
-361.49540175129999
 30
0.0
 40
5.3974999188999986
  1
ＳＵＳ３０４　１.５ｔ
  0
ENDBLK
  5
543
  8
0
  0
BLOCK
  8
0
  2
*U83
 70
     1
 10
0.0
 20
0.0
 30
0.0
  3
*U83
  1

  0
TEXT
  5
545
  8
図枠
  6
CONTINUOUS
 10
1164.593070296097
 20
-411.49540175129988
 30
0.0
 40
5.3974999188999986
  1
1
  0
ENDBLK
  5
547
  8
0
  0
BLOCK
  8
0
  2
*U84
 70
     1
 10
0.0
 20
0.0
 30
0.0
  3
*U84
  1

  0
TEXT
  5
549
  8
ﾚｲﾔ_1
  6
CONTINUOUS
 10
1200.1322323424899
 20
42.263076457851781
 30
0.0
 40
5.3974999188999986
  1
岸本
  0
ENDBLK
  5
54B
  8
0
  0
BLOCK
  8
0
  2
*U85
 70
     1
 10
0.0
 20
0.0
 30
0.0
  3
*U85
  1

  0
TEXT
  5
54D
  8
ﾚｲﾔ_1
  6
CONTINUOUS
 10
1095.9621244242051
 20
41.533981595389839
 30
0.0
 40
5.9972220420999998
  1
扉受け軸　φ７→φ６に変更
  0
ENDBLK
  5
54F
  8
0
  0
BLOCK
  8
0
  2
*U86
 70
     1
 10
0.0
 20
0.0
 30
0.0
  3
*U86
  1

  0
TEXT
  5
551
  8
ﾚｲﾔ_1
  6
CONTINUOUS
 10
1068.3913875596729
 20
41.619715569999997
 30
0.0
 40
5.9972220420999998
  1
H16.7.8
  0
ENDBLK
  5
553
  8
0
  0
BLOCK
  8
0
  2
*U87
 70
     1
 10
0.0
 20
0.0
 30
0.0
  3
*U87
  1

  0
TEXT
  5
555
  8
ﾚｲﾔ_1
  6
CONTINUOUS
 10
1055.1067100774969
 20
40.6749230868
 30
0.0
 40
4.9752947043999987
  1
1
  0
ENDBLK
  5
557
  8
0
  0
BLOCK
  8
0
  2
*U88
 70
     1
 10
0.0
 20
0.0
 30
0.0
  3
*U88
  1

  0
TEXT
  5
559
  8
ﾚｲﾔ_1
  6
CONTINUOUS
 10
1026.3109050630001
 20
-244.39881855217669
 30
0.0
 40
5.3974999188999986
  1
スポット溶接
  0
ENDBLK
  5
55B
  8
0
  0
BLOCK
  8
0
  2
*U89
 70
     1
 10
0.0
 20
0.0
 30
0.0
  3
*U89
  1

  0
TEXT
  5
55D
  8
図枠
  6
CONTINUOUS
 10
1142.600650445502
 20
-492.58956812079992
 30
0.0
 40
7.1966662884000003
  1
ＳＢＷ０００３７
  0
ENDBLK
  5
55F
  8
0
  0
BLOCK
  8
0
  2
*U90
 70
     1
 10
0.0
 20
0.0
 30
0.0
  3
*U90
  1

  0
TEXT
  5
561
  8
図枠
  6
CONTINUOUS
 10
1060.2494953977471
 20
-475.79461121131368
 30
0.0
 40
5.9972220420999998
  1
園 原
  0
ENDBLK
  5
563
  8
0
  0
BLOCK
  8
0
  2
*U91
 70
     1
 10
0.0
 20
0.0
 30
0.0
  3
*U91
  1

  0
TEXT
  5
565
  8
図枠
  6
CONTINUOUS
 10
1060.2494953977471
 20
-464.79461121131362
 30
0.0
 40
5.9972220420999998
  1
園 原
  0
ENDBLK
  5
567
  8
0
  0
BLOCK
  8
0
  2
*U92
 70
     1
 10
0.0
 20
0.0
 30
0.0
  3
*U92
  1

  0
TEXT
  5
569
  8
図枠
  6
CONTINUOUS
 10
1146.637359201178
 20
-449.2106002370578
 30
0.0
 40
7.1966662884000003
  1
散水栓ボックス
  0
ENDBLK
  5
56B
  8
0
  0
BLOCK
  8
0
  2
*U93
 70
     1
 10
0.0
 20
0.0
 30
0.0
  3
*U93
  1

  0
TEXT
  5
56D
  8
図枠
  6
CONTINUOUS
 10
1134.1984512255431
 20
-470.73569332462529
 30
0.0
 40
7.1966662884000003
  1
ＳＢ２５-１４ 承認図
  0
ENDBLK
  5
56F
  8
0
  0
BLOCK
  8
0
  2
*U94
 70
     1
 10
0.0
 20
0.0
 30
0.0
  3
*U94
  1

  0
TEXT
  5
571
  8
図枠
  6
CONTINUOUS
 10
1064.4814783343261
 20
-391.49540175129999
 30
0.0
 40
5.3974999188999986
  1
ＳＵＳ３０４　０.７ｔ　２Ｂ
  0
ENDBLK
  5
573
  8
0
  0
BLOCK
  8
0
  2
*U95
 70
     1
 10
0.0
 20
0.0
 30
0.0
  3
*U95
  1

  0
TEXT
  5
575
  8
図枠
  6
CONTINUOUS
 10
1164.593070296097
 20
-361.49540175129999
 30
0.0
 40
5.3974999188999986
  1
1
  0
ENDBLK
  5
577
  8
0
  0
BLOCK
  8
0
  2
*U96
 70
     1
 10
0.0
 20
0.0
 30
0.0
  3
*U96
  1

  0
TEXT
  5
579
  8
図枠
  6
CONTINUOUS
 10
1064.4540798575811
 20
-401.49540175129999
 30
0.0
 40
5.3974999188999986
  1
ＳＵＳ３０４　１.０ｔ　ＨＬ
  0
ENDBLK
  5
57B
  8
0
  0
ENDSEC
  0
SECTION
  2
ENTITIES
  0
INSERT
  5
30
  8
図枠
  2
CLUMP0
 10
0.0
 20
0.0
 30
0.0
  0
INSERT
  5
3A
  8
図枠
  2
CLUMP1
 10
0.0
 20
0.0
 30
0.0
  0
INSERT
  5
44
  8
図枠
  2
CLUMP2
 10
0.0
 20
0.0
 30
0.0
  0
INSERT
  5
4E
  8
図枠
  2
CLUMP3
 10
0.0
 20
0.0
 30
0.0
  0
INSERT
  5
58
  8
図枠
  2
CLUMP4
 10
0.0
 20
0.0
 30
0.0
  0
INSERT
  5
61
  8
0
  6
CONTINUOUS
  2
*U28
 10
0.0
 20
0.0
 30
0.0
  0
INSERT
  5
62
  8
0
  6
CONTINUOUS
  2
*U29
 10
0.0
 20
0.0
 30
0.0
  0
INSERT
  5
63
  8
0
  6
CONTINUOUS
  2
*U30
 10
0.0
 20
0.0
 30
0.0
  0
INSERT
  5
64
  8
0
  6
CONTINUOUS
  2
*U31
 10
0.0
 20
0.0
 30
0.0
  0
INSERT
  5
66
  8
図枠
  2
CLUMP5
 10
0.0
 20
0.0
 30
0.0
  0
LINE
  5
10B
  8
ﾚｲﾔ_1
 62
     5
 10
947.69641658779994
 20
-215.10528195360001
 30
0.0
 11
947.69641658779994
 21
-49.964492891100001
 31
0.0
  0
LINE
  5
10C
  8
ﾚｲﾔ_1
 62
     5
 10
769.61255203550002
 20
-50.304809266299998
 30
0.0
 11
769.61255203550002
 21
-214.3054499534
 31
0.0
  0
LINE
  5
10D
  8
ﾚｲﾔ_1
 62
     5
 10
770.61223169189998
 20
-50.305129609799998
 30
0.0
 11
770.61223169189998
 21
-214.30512960979999
 31
0.0
  0
INSERT
  5
10E
  8
0
  6
CONTINUOUS
  2
*U52
 10
0.0
 20
0.0
 30
0.0
  0
LINE
  5
10F
  8
ﾚｲﾔ_1
 62
     5
 10
556.61191134839987
 20
-214.3054499534
 30
0.0
 11
556.61191134839987
 21
-50.304809266299998
 31
0.0
  0
LINE
  5
110
  8
ﾚｲﾔ_1
 62
     5
 10
555.61223169189986
 20
-214.30512960979999
 30
0.0
 11
555.61223169189986
 21
-50.305129609799998
 31
0.0
  0
LINE
  5
111
  8
ﾚｲﾔ_1
  6
BORDER
 62
     3
 10
663.11223169189986
 20
-32.305129609799998
 30
0.0
 11
663.11223169189986
 21
-232.30512960979999
 31
0.0
  0
LINE
  5
112
  8
ﾚｲﾔ_1
 62
     5
 10
780.61223169189986
 20
-224.30512960979999
 30
0.0
 11
780.61223169189986
 21
-40.305129609799998
 31
0.0
  0
LINE
  5
113
  8
ﾚｲﾔ_1
 62
     5
 10
545.61223169189998
 20
-40.305129609799998
 30
0.0
 11
545.61223169189998
 21
-224.30512960979999
 31
0.0
  0
DIMENSION
  5
124
  8
寸法線
  2
*D6
 10
1042.6965363794
 20
-2.011554322999999
 30
0.0
 11
995.19653637939996
 21
-2.011554322999999
 31
0.0
 70
   128
  1
<>
 13
1042.6965363794
 23
-39.305129609799998
 33
0.0
 14
947.69653637940007
 24
-38.305129609799998
 34
0.0
  0
LINE
  5
125
  8
ﾚｲﾔ_1
 62
     5
 10
960.69653637940007
 20
-44.805129609799991
 30
0.0
 11
1041.6965363794
 21
-44.805129609799991
 31
0.0
  0
LINE
  5
126
  8
ﾚｲﾔ_1
 62
     5
 10
1041.6965363794
 20
-45.805129609799998
 30
0.0
 11
960.74019732229999
 21
-45.805129609799998
 31
0.0
  0
LINE
  5
127
  8
ﾚｲﾔ_1
  6
STITCH
 10
954.69653637940007
 20
-211.80512960979999
 30
0.0
 11
1040.6965363794
 21
-211.80512960979999
 31
0.0
  0
LINE
  5
128
  8
ﾚｲﾔ_1
 62
     5
 10
1041.6965363794
 20
-218.80512960979999
 30
0.0
 11
954.19653637939996
 21
-218.80512960979999
 31
0.0
  0
LINE
  5
129
  8
ﾚｲﾔ_1
 10
974.90406583009997
 20
-266.75565622689999
 30
0.0
 11
1030.5657845800999
 21
-266.75565622689999
 31
0.0
  0
INSERT
  5
12A
  8
0
  6
CONTINUOUS
  2
*U53
 10
0.0
 20
0.0
 30
0.0
  0
LINE
  5
12B
  8
ﾚｲﾔ_1
  6
BORDER
 62
     3
 10
942.69641658779994
 20
-132.30512960979999
 30
0.0
 11
1047.6965363794
 21
-132.30512960979999
 31
0.0
  0
LINE
  5
12C
  8
ﾚｲﾔ_1
 10
1000.3852862131999
 20
-220.28437176380001
 30
0.0
 11
1015.7491120319
 21
-248.53062337750001
 31
0.0
  0
SOLID
  5
12D
  8
ﾚｲﾔ_1
 10
1000.3852862131999
 20
-220.28437176380001
 30
0.0
 11
1004.6644772469
 21
-224.78694967059999
 31
0.0
 12
1002.4839990948
 22
-224.1428359784
 32
0.0
 13
1002.4839990948
 23
-224.1428359784
 33
0.0
  0
SOLID
  5
12E
  8
ﾚｲﾔ_1
 10
1000.3852862131999
 20
-220.28437176380001
 30
0.0
 11
1001.8398854026
 21
-226.32331413049999
 31
0.0
 12
1002.4839990948
 22
-224.1428359784
 32
0.0
 13
1002.4839990948
 23
-224.1428359784
 33
0.0
  0
LINE
  5
12F
  8
ﾚｲﾔ_1
 62
     5
 10
954.19653637939996
 20
-219.80512960979999
 30
0.0
 11
1041.6965363794
 21
-219.80512960979999
 31
0.0
  0
INSERT
  5
130
  8
0
  6
CONTINUOUS
  2
*U54
 10
0.0
 20
0.0
 30
0.0
  0
INSERT
  5
131
  8
0
  6
CONTINUOUS
  2
*U55
 10
0.0
 20
0.0
 30
0.0
  0
INSERT
  5
132
  8
0
  6
CONTINUOUS
  2
*U56
 10
0.0
 20
0.0
 30
0.0
  0
INSERT
  5
133
  8
0
  6
CONTINUOUS
  2
*U57
 10
0.0
 20
0.0
 30
0.0
  0
INSERT
  5
134
  8
0
  6
CONTINUOUS
  2
*U58
 10
0.0
 20
0.0
 30
0.0
  0
INSERT
  5
136
  8
図枠
  2
CLUMP6
 10
0.0
 20
0.0
 30
0.0
  0
INSERT
  5
140
  8
寸法線
  2
BALLON0
 10
951.930876811909
 20
-171.31208081217659
 30
0.0
  0
LINE
  5
149
  8
ﾚｲﾔ_1
 62
     5
 10
945.19595928360013
 20
-203.80555278689999
 30
0.0
 11
945.19595928360013
 21
-180.80555278689999
 31
0.0
  0
LINE
  5
14A
  8
ﾚｲﾔ_1
 62
     5
 10
943.1959592835999
 20
-201.80555278689999
 30
0.0
 11
943.1959592835999
 21
-182.80555278689999
 31
0.0
  0
LINE
  5
14B
  8
ﾚｲﾔ_1
 62
     5
 10
957.68231399609999
 20
-201.30555278689999
 30
0.0
 11
957.68231399609999
 21
-183.30555278689999
 31
0.0
  0
LINE
  5
14C
  8
ﾚｲﾔ_1
 62
     5
 10
958.68231399609988
 20
-200.30555278689999
 30
0.0
 11
958.68231399609988
 21
-184.30555278689999
 31
0.0
  0
LINE
  5
14D
  8
ﾚｲﾔ_1
 62
     5
 10
961.89641658779988
 20
-202.30555278689999
 30
0.0
 11
961.89641658779988
 21
-180.30555278689999
 31
0.0
  0
LINE
  5
14E
  8
ﾚｲﾔ_1
 62
     5
 10
963.39641658779988
 20
-202.30555278689999
 30
0.0
 11
963.39641658779988
 21
-180.30555278689999
 31
0.0
  0
POLYLINE
  8
ﾚｲﾔ_1
  5
7A4
  62
5
  66
     1
 10
0.000000
 20
0.000000
 30
0.000000
  70
     8
  0
VERTEX
  8
ﾚｲﾔ_1
  5
7A5
 10
971.428
 20
-188.306
 30
0.000000
  70
    32
  0
VERTEX
  8
ﾚｲﾔ_1
  5
7A6
 10
971.436
 20
-188.356
 30
0.000000
  70
    32
  0
VERTEX
  8
ﾚｲﾔ_1
  5
7A7
 10
971.445
 20
-188.406
 30
0.000000
  70
    32
  0
VERTEX
  8
ﾚｲﾔ_1
  5
7A8
 10
971.454
 20
-188.456
 30
0.000000
  70
    32
  0
VERTEX
  8
ﾚｲﾔ_1
  5
7A9
 10
971.463
 20
-188.507
 30
0.000000
  70
    32
  0
VERTEX
  8
ﾚｲﾔ_1
  5
7AA
 10
971.472
 20
-188.557
 30
0.000000
  70
    32
  0
VERTEX
  8
ﾚｲﾔ_1
  5
7AB
 10
971.480
 20
-188.607
 30
0.000000
  70
    32
  0
VERTEX
  8
ﾚｲﾔ_1
  5
7AC
 10
971.489
 20
-188.658
 30
0.000000
  70
    32
  0
VERTEX
  8
ﾚｲﾔ_1
  5
7AD
 10
971.498
 20
-188.708
 30
0.000000
  70
    32
  0
VERTEX
  8
ﾚｲﾔ_1
  5
7AE
 10
971.507
 20
-188.758
 30
0.000000
  70
    32
  0
VERTEX
  8
ﾚｲﾔ_1
  5
7AF
 10
971.516
 20
-188.809
 30
0.000000
  70
    32
  0
VERTEX
  8
ﾚｲﾔ_1
  5
7B0
 10
971.524
 20
-188.859
 30
0.000000
  70
    32
  0
VERTEX
  8
ﾚｲﾔ_1
  5
7B1
 10
971.533
 20
-188.909
 30
0.000000
  70
    32
  0
VERTEX
  8
ﾚｲﾔ_1
  5
7B2
 10
971.541
 20
-188.960
 30
0.000000
  70
    32
  0
VERTEX
  8
ﾚｲﾔ_1
  5
7B3
 10
971.550
 20
-189.010
 30
0.000000
  70
    32
  0
VERTEX
  8
ﾚｲﾔ_1
  5
7B4
 10
971.559
 20
-189.060
 30
0.000000
  70
    32
  0
VERTEX
  8
ﾚｲﾔ_1
  5
7B5
 10
971.567
 20
-189.111
 30
0.000000
  70
    32
  0
VERTEX
  8
ﾚｲﾔ_1
  5
7B6
 10
971.576
 20
-189.161
 30
0.000000
  70
    32
  0
VERTEX
  8
ﾚｲﾔ_1
  5
7B7
 10
971.584
 20
-189.211
 30
0.000000
  70
    32
  0
VERTEX
  8
ﾚｲﾔ_1
  5
7B8
 10
971.592
 20
-189.262
 30
0.000000
  70
    32
  0
VERTEX
  8
ﾚｲﾔ_1
  5
7B9
 10
971.601
 20
-189.312
 30
0.000000
  70
    32
  0
VERTEX
  8
ﾚｲﾔ_1
  5
7BA
 10
971.609
 20
-189.362
 30
0.000000
  70
    32
  0
VERTEX
  8
ﾚｲﾔ_1
  5
7BB
 10
971.617
 20
-189.412
 30
0.000000
  70
    32
  0
VERTEX
  8
ﾚｲﾔ_1
  5
7BC
 10
971.625
 20
-189.463
 30
0.000000
  70
    32
  0
VERTEX
  8
ﾚｲﾔ_1
  5
7BD
 10
971.633
 20
-189.513
 30
0.000000
  70
    32
  0
VERTEX
  8
ﾚｲﾔ_1
  5
7BE
 10
971.641
 20
-189.563
 30
0.000000
  70
    32
  0
VERTEX
  8
ﾚｲﾔ_1
  5
7BF
 10
971.649
 20
-189.614
 30
0.000000
  70
    32
  0
VERTEX
  8
ﾚｲﾔ_1
  5
7C0
 10
971.657
 20
-189.664
 30
0.000000
  70
    32
  0
VERTEX
  8
ﾚｲﾔ_1
  5
7C1
 10
971.665
 20
-189.714
 30
0.000000
  70
    32
  0
VERTEX
  8
ﾚｲﾔ_1
  5
7C2
 10
971.673
 20
-189.765
 30
0.000000
  70
    32
  0
VERTEX
  8
ﾚｲﾔ_1
  5
7C3
 10
971.680
 20
-189.815
 30
0.000000
  70
    32
  0
VERTEX
  8
ﾚｲﾔ_1
  5
7C4
 10
971.688
 20
-189.865
 30
0.000000
  70
    32
  0
VERTEX
  8
ﾚｲﾔ_1
  5
7C5
 10
971.695
 20
-189.916
 30
0.000000
  70
    32
  0
VERTEX
  8
ﾚｲﾔ_1
  5
7C6
 10
971.703
 20
-189.966
 30
0.000000
  70
    32
  0
VERTEX
  8
ﾚｲﾔ_1
  5
7C7
 10
971.710
 20
-190.016
 30
0.000000
  70
    32
  0
VERTEX
  8
ﾚｲﾔ_1
  5
7C8
 10
971.717
 20
-190.067
 30
0.000000
  70
    32
  0
VERTEX
  8
ﾚｲﾔ_1
  5
7C9
 10
971.724
 20
-190.117
 30
0.000000
  70
    32
  0
VERTEX
  8
ﾚｲﾔ_1
  5
7CA
 10
971.731
 20
-190.167
 30
0.000000
  70
    32
  0
VERTEX
  8
ﾚｲﾔ_1
  5
7CB
 10
971.738
 20
-190.218
 30
0.000000
  70
    32
  0
VERTEX
  8
ﾚｲﾔ_1
  5
7CC
 10
971.745
 20
-190.268
 30
0.000000
  70
    32
  0
VERTEX
  8
ﾚｲﾔ_1
  5
7CD
 10
971.752
 20
-190.318
 30
0.000000
  70
    32
  0
VERTEX
  8
ﾚｲﾔ_1
  5
7CE
 10
971.758
 20
-190.368
 30
0.000000
  70
    32
  0
VERTEX
  8
ﾚｲﾔ_1
  5
7CF
 10
971.765
 20
-190.419
 30
0.000000
  70
    32
  0
VERTEX
  8
ﾚｲﾔ_1
  5
7D0
 10
971.771
 20
-190.469
 30
0.000000
  70
    32
  0
VERTEX
  8
ﾚｲﾔ_1
  5
7D1
 10
971.777
 20
-190.519
 30
0.000000
  70
    32
  0
VERTEX
  8
ﾚｲﾔ_1
  5
7D2
 10
971.783
 20
-190.570
 30
0.000000
  70
    32
  0
VERTEX
  8
ﾚｲﾔ_1
  5
7D3
 10
971.789
 20
-190.620
 30
0.000000
  70
    32
  0
VERTEX
  8
ﾚｲﾔ_1
  5
7D4
 10
971.795
 20
-190.670
 30
0.000000
  70
    32
  0
VERTEX
  8
ﾚｲﾔ_1
  5
7D5
 10
971.801
 20
-190.721
 30
0.000000
  70
    32
  0
VERTEX
  8
ﾚｲﾔ_1
  5
7D6
 10
971.806
 20
-190.771
 30
0.000000
  70
    32
  0
VERTEX
  8
ﾚｲﾔ_1
  5
7D7
 10
971.812
 20
-190.821
 30
0.000000
  70
    32
  0
VERTEX
  8
ﾚｲﾔ_1
  5
7D8
 10
971.817
 20
-190.872
 30
0.000000
  70
    32
  0
VERTEX
  8
ﾚｲﾔ_1
  5
7D9
 10
971.822
 20
-190.922
 30
0.000000
  70
    32
  0
VERTEX
  8
ﾚｲﾔ_1
  5
7DA
 10
971.827
 20
-190.972
 30
0.000000
  70
    32
  0
VERTEX
  8
ﾚｲﾔ_1
  5
7DB
 10
971.832
 20
-191.023
 30
0.000000
  70
    32
  0
VERTEX
  8
ﾚｲﾔ_1
  5
7DC
 10
971.836
 20
-191.073
 30
0.000000
  70
    32
  0
VERTEX
  8
ﾚｲﾔ_1
  5
7DD
 10
971.841
 20
-191.123
 30
0.000000
  70
    32
  0
VERTEX
  8
ﾚｲﾔ_1
  5
7DE
 10
971.845
 20
-191.173
 30
0.000000
  70
    32
  0
VERTEX
  8
ﾚｲﾔ_1
  5
7DF
 10
971.850
 20
-191.224
 30
0.000000
  70
    32
  0
VERTEX
  8
ﾚｲﾔ_1
  5
7E0
 10
971.854
 20
-191.274
 30
0.000000
  70
    32
  0
VERTEX
  8
ﾚｲﾔ_1
  5
7E1
 10
971.858
 20
-191.324
 30
0.000000
  70
    32
  0
VERTEX
  8
ﾚｲﾔ_1
  5
7E2
 10
971.861
 20
-191.375
 30
0.000000
  70
    32
  0
VERTEX
  8
ﾚｲﾔ_1
  5
7E3
 10
971.865
 20
-191.425
 30
0.000000
  70
    32
  0
VERTEX
  8
ﾚｲﾔ_1
  5
7E4
 10
971.868
 20
-191.475
 30
0.000000
  70
    32
  0
VERTEX
  8
ﾚｲﾔ_1
  5
7E5
 10
971.871
 20
-191.526
 30
0.000000
  70
    32
  0
VERTEX
  8
ﾚｲﾔ_1
  5
7E6
 10
971.874
 20
-191.576
 30
0.000000
  70
    32
  0
VERTEX
  8
ﾚｲﾔ_1
  5
7E7
 10
971.877
 20
-191.626
 30
0.000000
  70
    32
  0
VERTEX
  8
ﾚｲﾔ_1
  5
7E8
 10
971.880
 20
-191.677
 30
0.000000
  70
    32
  0
VERTEX
  8
ﾚｲﾔ_1
  5
7E9
 10
971.882
 20
-191.727
 30
0.000000
  70
    32
  0
VERTEX
  8
ﾚｲﾔ_1
  5
7EA
 10
971.885
 20
-191.777
 30
0.000000
  70
    32
  0
VERTEX
  8
ﾚｲﾔ_1
  5
7EB
 10
971.887
 20
-191.828
 30
0.000000
  70
    32
  0
VERTEX
  8
ﾚｲﾔ_1
  5
7EC
 10
971.889
 20
-191.878
 30
0.000000
  70
    32
  0
VERTEX
  8
ﾚｲﾔ_1
  5
7ED
 10
971.890
 20
-191.928
 30
0.000000
  70
    32
  0
VERTEX
  8
ﾚｲﾔ_1
  5
7EE
 10
971.892
 20
-191.979
 30
0.000000
  70
    32
  0
VERTEX
  8
ﾚｲﾔ_1
  5
7EF
 10
971.893
 20
-192.029
 30
0.000000
  70
    32
  0
VERTEX
  8
ﾚｲﾔ_1
  5
7F0
 10
971.894
 20
-192.079
 30
0.000000
  70
    32
  0
VERTEX
  8
ﾚｲﾔ_1
  5
7F1
 10
971.895
 20
-192.129
 30
0.000000
  70
    32
  0
VERTEX
  8
ﾚｲﾔ_1
  5
7F2
 10
971.896
 20
-192.180
 30
0.000000
  70
    32
  0
VERTEX
  8
ﾚｲﾔ_1
  5
7F3
 10
971.896
 20
-192.230
 30
0.000000
  70
    32
  0
VERTEX
  8
ﾚｲﾔ_1
  5
7F4
 10
971.896
 20
-192.280
 30
0.000000
  70
    32
  0
VERTEX
  8
ﾚｲﾔ_1
  5
7F5
 10
971.896
 20
-192.331
 30
0.000000
  70
    32
  0
VERTEX
  8
ﾚｲﾔ_1
  5
7F6
 10
971.896
 20
-192.381
 30
0.000000
  70
    32
  0
VERTEX
  8
ﾚｲﾔ_1
  5
7F7
 10
971.896
 20
-192.431
 30
0.000000
  70
    32
  0
VERTEX
  8
ﾚｲﾔ_1
  5
7F8
 10
971.895
 20
-192.482
 30
0.000000
  70
    32
  0
VERTEX
  8
ﾚｲﾔ_1
  5
7F9
 10
971.894
 20
-192.532
 30
0.000000
  70
    32
  0
VERTEX
  8
ﾚｲﾔ_1
  5
7FA
 10
971.893
 20
-192.582
 30
0.000000
  70
    32
  0
VERTEX
  8
ﾚｲﾔ_1
  5
7FB
 10
971.892
 20
-192.633
 30
0.000000
  70
    32
  0
VERTEX
  8
ﾚｲﾔ_1
  5
7FC
 10
971.890
 20
-192.683
 30
0.000000
  70
    32
  0
VERTEX
  8
ﾚｲﾔ_1
  5
7FD
 10
971.889
 20
-192.733
 30
0.000000
  70
    32
  0
VERTEX
  8
ﾚｲﾔ_1
  5
7FE
 10
971.887
 20
-192.784
 30
0.000000
  70
    32
  0
VERTEX
  8
ﾚｲﾔ_1
  5
7FF
 10
971.885
 20
-192.834
 30
0.000000
  70
    32
  0
VERTEX
  8
ﾚｲﾔ_1
  5
800
 10
971.882
 20
-192.884
 30
0.000000
  70
    32
  0
VERTEX
  8
ﾚｲﾔ_1
  5
801
 10
971.880
 20
-192.934
 30
0.000000
  70
    32
  0
VERTEX
  8
ﾚｲﾔ_1
  5
802
 10
971.877
 20
-192.985
 30
0.000000
  70
    32
  0
VERTEX
  8
ﾚｲﾔ_1
  5
803
 10
971.874
 20
-193.035
 30
0.000000
  70
    32
  0
VERTEX
  8
ﾚｲﾔ_1
  5
804
 10
971.871
 20
-193.085
 30
0.000000
  70
    32
  0
VERTEX
  8
ﾚｲﾔ_1
  5
805
 10
971.868
 20
-193.136
 30
0.000000
  70
    32
  0
VERTEX
  8
ﾚｲﾔ_1
  5
806
 10
971.865
 20
-193.186
 30
0.000000
  70
    32
  0
VERTEX
  8
ﾚｲﾔ_1
  5
807
 10
971.861
 20
-193.236
 30
0.000000
  70
    32
  0
VERTEX
  8
ﾚｲﾔ_1
  5
808
 10
971.858
 20
-193.287
 30
0.000000
  70
    32
  0
VERTEX
  8
ﾚｲﾔ_1
  5
809
 10
971.854
 20
-193.337
 30
0.000000
  70
    32
  0
VERTEX
  8
ﾚｲﾔ_1
  5
80A
 10
971.850
 20
-193.387
 30
0.000000
  70
    32
  0
VERTEX
  8
ﾚｲﾔ_1
  5
80B
 10
971.845
 20
-193.438
 30
0.000000
  70
    32
  0
VERTEX
  8
ﾚｲﾔ_1
  5
80C
 10
971.841
 20
-193.488
 30
0.000000
  70
    32
  0
VERTEX
  8
ﾚｲﾔ_1
  5
80D
 10
971.836
 20
-193.538
 30
0.000000
  70
    32
  0
VERTEX
  8
ﾚｲﾔ_1
  5
80E
 10
971.832
 20
-193.589
 30
0.000000
  70
    32
  0
VERTEX
  8
ﾚｲﾔ_1
  5
80F
 10
971.827
 20
-193.639
 30
0.000000
  70
    32
  0
VERTEX
  8
ﾚｲﾔ_1
  5
810
 10
971.822
 20
-193.689
 30
0.000000
  70
    32
  0
VERTEX
  8
ﾚｲﾔ_1
  5
811
 10
971.817
 20
-193.740
 30
0.000000
  70
    32
  0
VERTEX
  8
ﾚｲﾔ_1
  5
812
 10
971.812
 20
-193.790
 30
0.000000
  70
    32
  0
VERTEX
  8
ﾚｲﾔ_1
  5
813
 10
971.806
 20
-193.840
 30
0.000000
  70
    32
  0
VERTEX
  8
ﾚｲﾔ_1
  5
814
 10
971.801
 20
-193.890
 30
0.000000
  70
    32
  0
VERTEX
  8
ﾚｲﾔ_1
  5
815
 10
971.795
 20
-193.941
 30
0.000000
  70
    32
  0
VERTEX
  8
ﾚｲﾔ_1
  5
816
 10
971.789
 20
-193.991
 30
0.000000
  70
    32
  0
VERTEX
  8
ﾚｲﾔ_1
  5
817
 10
971.783
 20
-194.041
 30
0.000000
  70
    32
  0
VERTEX
  8
ﾚｲﾔ_1
  5
818
 10
971.777
 20
-194.092
 30
0.000000
  70
    32
  0
VERTEX
  8
ﾚｲﾔ_1
  5
819
 10
971.771
 20
-194.142
 30
0.000000
  70
    32
  0
VERTEX
  8
ﾚｲﾔ_1
  5
81A
 10
971.765
 20
-194.192
 30
0.000000
  70
    32
  0
VERTEX
  8
ﾚｲﾔ_1
  5
81B
 10
971.758
 20
-194.243
 30
0.000000
  70
    32
  0
VERTEX
  8
ﾚｲﾔ_1
  5
81C
 10
971.752
 20
-194.293
 30
0.000000
  70
    32
  0
VERTEX
  8
ﾚｲﾔ_1
  5
81D
 10
971.745
 20
-194.343
 30
0.000000
  70
    32
  0
VERTEX
  8
ﾚｲﾔ_1
  5
81E
 10
971.738
 20
-194.394
 30
0.000000
  70
    32
  0
VERTEX
  8
ﾚｲﾔ_1
  5
81F
 10
971.731
 20
-194.444
 30
0.000000
  70
    32
  0
VERTEX
  8
ﾚｲﾔ_1
  5
820
 10
971.724
 20
-194.494
 30
0.000000
  70
    32
  0
VERTEX
  8
ﾚｲﾔ_1
  5
821
 10
971.717
 20
-194.545
 30
0.000000
  70
    32
  0
VERTEX
  8
ﾚｲﾔ_1
  5
822
 10
971.710
 20
-194.595
 30
0.000000
  70
    32
  0
VERTEX
  8
ﾚｲﾔ_1
  5
823
 10
971.703
 20
-194.645
 30
0.000000
  70
    32
  0
VERTEX
  8
ﾚｲﾔ_1
  5
824
 10
971.695
 20
-194.695
 30
0.000000
  70
    32
  0
VERTEX
  8
ﾚｲﾔ_1
  5
825
 10
971.688
 20
-194.746
 30
0.000000
  70
    32
  0
VERTEX
  8
ﾚｲﾔ_1
  5
826
 10
971.680
 20
-194.796
 30
0.000000
  70
    32
  0
VERTEX
  8
ﾚｲﾔ_1
  5
827
 10
971.673
 20
-194.846
 30
0.000000
  70
    32
  0
VERTEX
  8
ﾚｲﾔ_1
  5
828
 10
971.665
 20
-194.897
 30
0.000000
  70
    32
  0
VERTEX
  8
ﾚｲﾔ_1
  5
829
 10
971.657
 20
-194.947
 30
0.000000
  70
    32
  0
VERTEX
  8
ﾚｲﾔ_1
  5
82A
 10
971.649
 20
-194.997
 30
0.000000
  70
    32
  0
VERTEX
  8
ﾚｲﾔ_1
  5
82B
 10
971.641
 20
-195.048
 30
0.000000
  70
    32
  0
VERTEX
  8
ﾚｲﾔ_1
  5
82C
 10
971.633
 20
-195.098
 30
0.000000
  70
    32
  0
VERTEX
  8
ﾚｲﾔ_1
  5
82D
 10
971.625
 20
-195.148
 30
0.000000
  70
    32
  0
VERTEX
  8
ﾚｲﾔ_1
  5
82E
 10
971.617
 20
-195.199
 30
0.000000
  70
    32
  0
VERTEX
  8
ﾚｲﾔ_1
  5
82F
 10
971.609
 20
-195.249
 30
0.000000
  70
    32
  0
VERTEX
  8
ﾚｲﾔ_1
  5
830
 10
971.601
 20
-195.299
 30
0.000000
  70
    32
  0
VERTEX
  8
ﾚｲﾔ_1
  5
831
 10
971.592
 20
-195.350
 30
0.000000
  70
    32
  0
VERTEX
  8
ﾚｲﾔ_1
  5
832
 10
971.584
 20
-195.400
 30
0.000000
  70
    32
  0
VERTEX
  8
ﾚｲﾔ_1
  5
833
 10
971.576
 20
-195.450
 30
0.000000
  70
    32
  0
VERTEX
  8
ﾚｲﾔ_1
  5
834
 10
971.567
 20
-195.501
 30
0.000000
  70
    32
  0
VERTEX
  8
ﾚｲﾔ_1
  5
835
 10
971.559
 20
-195.551
 30
0.000000
  70
    32
  0
VERTEX
  8
ﾚｲﾔ_1
  5
836
 10
971.550
 20
-195.601
 30
0.000000
  70
    32
  0
VERTEX
  8
ﾚｲﾔ_1
  5
837
 10
971.541
 20
-195.651
 30
0.000000
  70
    32
  0
VERTEX
  8
ﾚｲﾔ_1
  5
838
 10
971.533
 20
-195.702
 30
0.000000
  70
    32
  0
VERTEX
  8
ﾚｲﾔ_1
  5
839
 10
971.524
 20
-195.752
 30
0.000000
  70
    32
  0
VERTEX
  8
ﾚｲﾔ_1
  5
83A
 10
971.516
 20
-195.802
 30
0.000000
  70
    32
  0
VERTEX
  8
ﾚｲﾔ_1
  5
83B
 10
971.507
 20
-195.853
 30
0.000000
  70
    32
  0
VERTEX
  8
ﾚｲﾔ_1
  5
83C
 10
971.498
 20
-195.903
 30
0.000000
  70
    32
  0
VERTEX
  8
ﾚｲﾔ_1
  5
83D
 10
971.489
 20
-195.953
 30
0.000000
  70
    32
  0
VERTEX
  8
ﾚｲﾔ_1
  5
83E
 10
971.480
 20
-196.004
 30
0.000000
  70
    32
  0
VERTEX
  8
ﾚｲﾔ_1
  5
83F
 10
971.472
 20
-196.054
 30
0.000000
  70
    32
  0
VERTEX
  8
ﾚｲﾔ_1
  5
840
 10
971.463
 20
-196.104
 30
0.000000
  70
    32
  0
VERTEX
  8
ﾚｲﾔ_1
  5
841
 10
971.454
 20
-196.155
 30
0.000000
  70
    32
  0
VERTEX
  8
ﾚｲﾔ_1
  5
842
 10
971.445
 20
-196.205
 30
0.000000
  70
    32
  0
VERTEX
  8
ﾚｲﾔ_1
  5
843
 10
971.436
 20
-196.255
 30
0.000000
  70
    32
  0
VERTEX
  8
ﾚｲﾔ_1
  5
844
 10
971.428
 20
-196.306
 30
0.000000
  70
    32
  0
SEQEND
  8
ﾚｲﾔ_1
  5
845
  0
POLYLINE
  8
ﾚｲﾔ_1
  5
846
  62
5
  66
     1
 10
0.000000
 20
0.000000
 30
0.000000
  70
     8
  0
VERTEX
  8
ﾚｲﾔ_1
  5
847
 10
965.365
 20
-188.306
 30
0.000000
  70
    32
  0
VERTEX
  8
ﾚｲﾔ_1
  5
848
 10
965.356
 20
-188.356
 30
0.000000
  70
    32
  0
VERTEX
  8
ﾚｲﾔ_1
  5
849
 10
965.348
 20
-188.406
 30
0.000000
  70
    32
  0
VERTEX
  8
ﾚｲﾔ_1
  5
84A
 10
965.339
 20
-188.456
 30
0.000000
  70
    32
  0
VERTEX
  8
ﾚｲﾔ_1
  5
84B
 10
965.330
 20
-188.507
 30
0.000000
  70
    32
  0
VERTEX
  8
ﾚｲﾔ_1
  5
84C
 10
965.321
 20
-188.557
 30
0.000000
  70
    32
  0
VERTEX
  8
ﾚｲﾔ_1
  5
84D
 10
965.312
 20
-188.607
 30
0.000000
  70
    32
  0
VERTEX
  8
ﾚｲﾔ_1
  5
84E
 10
965.304
 20
-188.658
 30
0.000000
  70
    32
  0
VERTEX
  8
ﾚｲﾔ_1
  5
84F
 10
965.295
 20
-188.708
 30
0.000000
  70
    32
  0
VERTEX
  8
ﾚｲﾔ_1
  5
850
 10
965.286
 20
-188.758
 30
0.000000
  70
    32
  0
VERTEX
  8
ﾚｲﾔ_1
  5
851
 10
965.277
 20
-188.809
 30
0.000000
  70
    32
  0
VERTEX
  8
ﾚｲﾔ_1
  5
852
 10
965.269
 20
-188.859
 30
0.000000
  70
    32
  0
VERTEX
  8
ﾚｲﾔ_1
  5
853
 10
965.260
 20
-188.909
 30
0.000000
  70
    32
  0
VERTEX
  8
ﾚｲﾔ_1
  5
854
 10
965.251
 20
-188.960
 30
0.000000
  70
    32
  0
VERTEX
  8
ﾚｲﾔ_1
  5
855
 10
965.243
 20
-189.010
 30
0.000000
  70
    32
  0
VERTEX
  8
ﾚｲﾔ_1
  5
856
 10
965.234
 20
-189.060
 30
0.000000
  70
    32
  0
VERTEX
  8
ﾚｲﾔ_1
  5
857
 10
965.226
 20
-189.111
 30
0.000000
  70
    32
  0
VERTEX
  8
ﾚｲﾔ_1
  5
858
 10
965.217
 20
-189.161
 30
0.000000
  70
    32
  0
VERTEX
  8
ﾚｲﾔ_1
  5
859
 10
965.209
 20
-189.211
 30
0.000000
  70
    32
  0
VERTEX
  8
ﾚｲﾔ_1
  5
85A
 10
965.200
 20
-189.262
 30
0.000000
  70
    32
  0
VERTEX
  8
ﾚｲﾔ_1
  5
85B
 10
965.192
 20
-189.312
 30
0.000000
  70
    32
  0
VERTEX
  8
ﾚｲﾔ_1
  5
85C
 10
965.184
 20
-189.362
 30
0.000000
  70
    32
  0
VERTEX
  8
ﾚｲﾔ_1
  5
85D
 10
965.176
 20
-189.412
 30
0.000000
  70
    32
  0
VERTEX
  8
ﾚｲﾔ_1
  5
85E
 10
965.168
 20
-189.463
 30
0.000000
  70
    32
  0
VERTEX
  8
ﾚｲﾔ_1
  5
85F
 10
965.159
 20
-189.513
 30
0.000000
  70
    32
  0
VERTEX
  8
ﾚｲﾔ_1
  5
860
 10
965.151
 20
-189.563
 30
0.000000
  70
    32
  0
VERTEX
  8
ﾚｲﾔ_1
  5
861
 10
965.143
 20
-189.614
 30
0.000000
  70
    32
  0
VERTEX
  8
ﾚｲﾔ_1
  5
862
 10
965.136
 20
-189.664
 30
0.000000
  70
    32
  0
VERTEX
  8
ﾚｲﾔ_1
  5
863
 10
965.128
 20
-189.714
 30
0.000000
  70
    32
  0
VERTEX
  8
ﾚｲﾔ_1
  5
864
 10
965.120
 20
-189.765
 30
0.000000
  70
    32
  0
VERTEX
  8
ﾚｲﾔ_1
  5
865
 10
965.113
 20
-189.815
 30
0.000000
  70
    32
  0
VERTEX
  8
ﾚｲﾔ_1
  5
866
 10
965.105
 20
-189.865
 30
0.000000
  70
    32
  0
VERTEX
  8
ﾚｲﾔ_1
  5
867
 10
965.098
 20
-189.916
 30
0.000000
  70
    32
  0
VERTEX
  8
ﾚｲﾔ_1
  5
868
 10
965.090
 20
-189.966
 30
0.000000
  70
    32
  0
VERTEX
  8
ﾚｲﾔ_1
  5
869
 10
965.083
 20
-190.016
 30
0.000000
  70
    32
  0
VERTEX
  8
ﾚｲﾔ_1
  5
86A
 10
965.076
 20
-190.067
 30
0.000000
  70
    32
  0
VERTEX
  8
ﾚｲﾔ_1
  5
86B
 10
965.069
 20
-190.117
 30
0.000000
  70
    32
  0
VERTEX
  8
ﾚｲﾔ_1
  5
86C
 10
965.062
 20
-190.167
 30
0.000000
  70
    32
  0
VERTEX
  8
ﾚｲﾔ_1
  5
86D
 10
965.055
 20
-190.218
 30
0.000000
  70
    32
  0
VERTEX
  8
ﾚｲﾔ_1
  5
86E
 10
965.048
 20
-190.268
 30
0.000000
  70
    32
  0
VERTEX
  8
ﾚｲﾔ_1
  5
86F
 10
965.041
 20
-190.318
 30
0.000000
  70
    32
  0
VERTEX
  8
ﾚｲﾔ_1
  5
870
 10
965.035
 20
-190.368
 30
0.000000
  70
    32
  0
VERTEX
  8
ﾚｲﾔ_1
  5
871
 10
965.028
 20
-190.419
 30
0.000000
  70
    32
  0
VERTEX
  8
ﾚｲﾔ_1
  5
872
 10
965.022
 20
-190.469
 30
0.000000
  70
    32
  0
VERTEX
  8
ﾚｲﾔ_1
  5
873
 10
965.016
 20
-190.519
 30
0.000000
  70
    32
  0
VERTEX
  8
ﾚｲﾔ_1
  5
874
 10
965.010
 20
-190.570
 30
0.000000
  70
    32
  0
VERTEX
  8
ﾚｲﾔ_1
  5
875
 10
965.004
 20
-190.620
 30
0.000000
  70
    32
  0
VERTEX
  8
ﾚｲﾔ_1
  5
876
 10
964.998
 20
-190.670
 30
0.000000
  70
    32
  0
VERTEX
  8
ﾚｲﾔ_1
  5
877
 10
964.992
 20
-190.721
 30
0.000000
  70
    32
  0
VERTEX
  8
ﾚｲﾔ_1
  5
878
 10
964.987
 20
-190.771
 30
0.000000
  70
    32
  0
VERTEX
  8
ﾚｲﾔ_1
  5
879
 10
964.981
 20
-190.821
 30
0.000000
  70
    32
  0
VERTEX
  8
ﾚｲﾔ_1
  5
87A
 10
964.976
 20
-190.872
 30
0.000000
  70
    32
  0
VERTEX
  8
ﾚｲﾔ_1
  5
87B
 10
964.971
 20
-190.922
 30
0.000000
  70
    32
  0
VERTEX
  8
ﾚｲﾔ_1
  5
87C
 10
964.966
 20
-190.972
 30
0.000000
  70
    32
  0
VERTEX
  8
ﾚｲﾔ_1
  5
87D
 10
964.961
 20
-191.023
 30
0.000000
  70
    32
  0
VERTEX
  8
ﾚｲﾔ_1
  5
87E
 10
964.956
 20
-191.073
 30
0.000000
  70
    32
  0
VERTEX
  8
ﾚｲﾔ_1
  5
87F
 10
964.952
 20
-191.123
 30
0.000000
  70
    32
  0
VERTEX
  8
ﾚｲﾔ_1
  5
880
 10
964.947
 20
-191.173
 30
0.000000
  70
    32
  0
VERTEX
  8
ﾚｲﾔ_1
  5
881
 10
964.943
 20
-191.224
 30
0.000000
  70
    32
  0
VERTEX
  8
ﾚｲﾔ_1
  5
882
 10
964.939
 20
-191.274
 30
0.000000
  70
    32
  0
VERTEX
  8
ﾚｲﾔ_1
  5
883
 10
964.935
 20
-191.324
 30
0.000000
  70
    32
  0
VERTEX
  8
ﾚｲﾔ_1
  5
884
 10
964.932
 20
-191.375
 30
0.000000
  70
    32
  0
VERTEX
  8
ﾚｲﾔ_1
  5
885
 10
964.928
 20
-191.425
 30
0.000000
  70
    32
  0
VERTEX
  8
ﾚｲﾔ_1
  5
886
 10
964.925
 20
-191.475
 30
0.000000
  70
    32
  0
VERTEX
  8
ﾚｲﾔ_1
  5
887
 10
964.921
 20
-191.526
 30
0.000000
  70
    32
  0
VERTEX
  8
ﾚｲﾔ_1
  5
888
 10
964.918
 20
-191.576
 30
0.000000
  70
    32
  0
VERTEX
  8
ﾚｲﾔ_1
  5
889
 10
964.916
 20
-191.626
 30
0.000000
  70
    32
  0
VERTEX
  8
ﾚｲﾔ_1
  5
88A
 10
964.913
 20
-191.677
 30
0.000000
  70
    32
  0
VERTEX
  8
ﾚｲﾔ_1
  5
88B
 10
964.910
 20
-191.727
 30
0.000000
  70
    32
  0
VERTEX
  8
ﾚｲﾔ_1
  5
88C
 10
964.908
 20
-191.777
 30
0.000000
  70
    32
  0
VERTEX
  8
ﾚｲﾔ_1
  5
88D
 10
964.906
 20
-191.828
 30
0.000000
  70
    32
  0
VERTEX
  8
ﾚｲﾔ_1
  5
88E
 10
964.904
 20
-191.878
 30
0.000000
  70
    32
  0
VERTEX
  8
ﾚｲﾔ_1
  5
88F
 10
964.902
 20
-191.928
 30
0.000000
  70
    32
  0
VERTEX
  8
ﾚｲﾔ_1
  5
890
 10
964.901
 20
-191.979
 30
0.000000
  70
    32
  0
VERTEX
  8
ﾚｲﾔ_1
  5
891
 10
964.900
 20
-192.029
 30
0.000000
  70
    32
  0
VERTEX
  8
ﾚｲﾔ_1
  5
892
 10
964.899
 20
-192.079
 30
0.000000
  70
    32
  0
VERTEX
  8
ﾚｲﾔ_1
  5
893
 10
964.898
 20
-192.129
 30
0.000000
  70
    32
  0
VERTEX
  8
ﾚｲﾔ_1
  5
894
 10
964.897
 20
-192.180
 30
0.000000
  70
    32
  0
VERTEX
  8
ﾚｲﾔ_1
  5
895
 10
964.897
 20
-192.230
 30
0.000000
  70
    32
  0
VERTEX
  8
ﾚｲﾔ_1
  5
896
 10
964.896
 20
-192.280
 30
0.000000
  70
    32
  0
VERTEX
  8
ﾚｲﾔ_1
  5
897
 10
964.896
 20
-192.331
 30
0.000000
  70
    32
  0
VERTEX
  8
ﾚｲﾔ_1
  5
898
 10
964.897
 20
-192.381
 30
0.000000
  70
    32
  0
VERTEX
  8
ﾚｲﾔ_1
  5
899
 10
964.897
 20
-192.431
 30
0.000000
  70
    32
  0
VERTEX
  8
ﾚｲﾔ_1
  5
89A
 10
964.898
 20
-192.482
 30
0.000000
  70
    32
  0
VERTEX
  8
ﾚｲﾔ_1
  5
89B
 10
964.899
 20
-192.532
 30
0.000000
  70
    32
  0
VERTEX
  8
ﾚｲﾔ_1
  5
89C
 10
964.900
 20
-192.582
 30
0.000000
  70
    32
  0
VERTEX
  8
ﾚｲﾔ_1
  5
89D
 10
964.901
 20
-192.633
 30
0.000000
  70
    32
  0
VERTEX
  8
ﾚｲﾔ_1
  5
89E
 10
964.902
 20
-192.683
 30
0.000000
  70
    32
  0
VERTEX
  8
ﾚｲﾔ_1
  5
89F
 10
964.904
 20
-192.733
 30
0.000000
  70
    32
  0
VERTEX
  8
ﾚｲﾔ_1
  5
8A0
 10
964.906
 20
-192.784
 30
0.000000
  70
    32
  0
VERTEX
  8
ﾚｲﾔ_1
  5
8A1
 10
964.908
 20
-192.834
 30
0.000000
  70
    32
  0
VERTEX
  8
ﾚｲﾔ_1
  5
8A2
 10
964.910
 20
-192.884
 30
0.000000
  70
    32
  0
VERTEX
  8
ﾚｲﾔ_1
  5
8A3
 10
964.913
 20
-192.934
 30
0.000000
  70
    32
  0
VERTEX
  8
ﾚｲﾔ_1
  5
8A4
 10
964.916
 20
-192.985
 30
0.000000
  70
    32
  0
VERTEX
  8
ﾚｲﾔ_1
  5
8A5
 10
964.918
 20
-193.035
 30
0.000000
  70
    32
  0
VERTEX
  8
ﾚｲﾔ_1
  5
8A6
 10
964.921
 20
-193.085
 30
0.000000
  70
    32
  0
VERTEX
  8
ﾚｲﾔ_1
  5
8A7
 10
964.925
 20
-193.136
 30
0.000000
  70
    32
  0
VERTEX
  8
ﾚｲﾔ_1
  5
8A8
 10
964.928
 20
-193.186
 30
0.000000
  70
    32
  0
VERTEX
  8
ﾚｲﾔ_1
  5
8A9
 10
964.932
 20
-193.236
 30
0.000000
  70
    32
  0
VERTEX
  8
ﾚｲﾔ_1
  5
8AA
 10
964.935
 20
-193.287
 30
0.000000
  70
    32
  0
VERTEX
  8
ﾚｲﾔ_1
  5
8AB
 10
964.939
 20
-193.337
 30
0.000000
  70
    32
  0
VERTEX
  8
ﾚｲﾔ_1
  5
8AC
 10
964.943
 20
-193.387
 30
0.000000
  70
    32
  0
VERTEX
  8
ﾚｲﾔ_1
  5
8AD
 10
964.947
 20
-193.438
 30
0.000000
  70
    32
  0
VERTEX
  8
ﾚｲﾔ_1
  5
8AE
 10
964.952
 20
-193.488
 30
0.000000
  70
    32
  0
VERTEX
  8
ﾚｲﾔ_1
  5
8AF
 10
964.956
 20
-193.538
 30
0.000000
  70
    32
  0
VERTEX
  8
ﾚｲﾔ_1
  5
8B0
 10
964.961
 20
-193.589
 30
0.000000
  70
    32
  0
VERTEX
  8
ﾚｲﾔ_1
  5
8B1
 10
964.966
 20
-193.639
 30
0.000000
  70
    32
  0
VERTEX
  8
ﾚｲﾔ_1
  5
8B2
 10
964.971
 20
-193.689
 30
0.000000
  70
    32
  0
VERTEX
  8
ﾚｲﾔ_1
  5
8B3
 10
964.976
 20
-193.740
 30
0.000000
  70
    32
  0
VERTEX
  8
ﾚｲﾔ_1
  5
8B4
 10
964.981
 20
-193.790
 30
0.000000
  70
    32
  0
VERTEX
  8
ﾚｲﾔ_1
  5
8B5
 10
964.987
 20
-193.840
 30
0.000000
  70
    32
  0
VERTEX
  8
ﾚｲﾔ_1
  5
8B6
 10
964.992
 20
-193.890
 30
0.000000
  70
    32
  0
VERTEX
  8
ﾚｲﾔ_1
  5
8B7
 10
964.998
 20
-193.941
 30
0.000000
  70
    32
  0
VERTEX
  8
ﾚｲﾔ_1
  5
8B8
 10
965.004
 20
-193.991
 30
0.000000
  70
    32
  0
VERTEX
  8
ﾚｲﾔ_1
  5
8B9
 10
965.010
 20
-194.041
 30
0.000000
  70
    32
  0
VERTEX
  8
ﾚｲﾔ_1
  5
8BA
 10
965.016
 20
-194.092
 30
0.000000
  70
    32
  0
VERTEX
  8
ﾚｲﾔ_1
  5
8BB
 10
965.022
 20
-194.142
 30
0.000000
  70
    32
  0
VERTEX
  8
ﾚｲﾔ_1
  5
8BC
 10
965.028
 20
-194.192
 30
0.000000
  70
    32
  0
VERTEX
  8
ﾚｲﾔ_1
  5
8BD
 10
965.035
 20
-194.243
 30
0.000000
  70
    32
  0
VERTEX
  8
ﾚｲﾔ_1
  5
8BE
 10
965.041
 20
-194.293
 30
0.000000
  70
    32
  0
VERTEX
  8
ﾚｲﾔ_1
  5
8BF
 10
965.048
 20
-194.343
 30
0.000000
  70
    32
  0
VERTEX
  8
ﾚｲﾔ_1
  5
8C0
 10
965.055
 20
-194.394
 30
0.000000
  70
    32
  0
VERTEX
  8
ﾚｲﾔ_1
  5
8C1
 10
965.062
 20
-194.444
 30
0.000000
  70
    32
  0
VERTEX
  8
ﾚｲﾔ_1
  5
8C2
 10
965.069
 20
-194.494
 30
0.000000
  70
    32
  0
VERTEX
  8
ﾚｲﾔ_1
  5
8C3
 10
965.076
 20
-194.545
 30
0.000000
  70
    32
  0
VERTEX
  8
ﾚｲﾔ_1
  5
8C4
 10
965.083
 20
-194.595
 30
0.000000
  70
    32
  0
VERTEX
  8
ﾚｲﾔ_1
  5
8C5
 10
965.090
 20
-194.645
 30
0.000000
  70
    32
  0
VERTEX
  8
ﾚｲﾔ_1
  5
8C6
 10
965.098
 20
-194.695
 30
0.000000
  70
    32
  0
VERTEX
  8
ﾚｲﾔ_1
  5
8C7
 10
965.105
 20
-194.746
 30
0.000000
  70
    32
  0
VERTEX
  8
ﾚｲﾔ_1
  5
8C8
 10
965.113
 20
-194.796
 30
0.000000
  70
    32
  0
VERTEX
  8
ﾚｲﾔ_1
  5
8C9
 10
965.120
 20
-194.846
 30
0.000000
  70
    32
  0
VERTEX
  8
ﾚｲﾔ_1
  5
8CA
 10
965.128
 20
-194.897
 30
0.000000
  70
    32
  0
VERTEX
  8
ﾚｲﾔ_1
  5
8CB
 10
965.136
 20
-194.947
 30
0.000000
  70
    32
  0
VERTEX
  8
ﾚｲﾔ_1
  5
8CC
 10
965.143
 20
-194.997
 30
0.000000
  70
    32
  0
VERTEX
  8
ﾚｲﾔ_1
  5
8CD
 10
965.151
 20
-195.048
 30
0.000000
  70
    32
  0
VERTEX
  8
ﾚｲﾔ_1
  5
8CE
 10
965.159
 20
-195.098
 30
0.000000
  70
    32
  0
VERTEX
  8
ﾚｲﾔ_1
  5
8CF
 10
965.168
 20
-195.148
 30
0.000000
  70
    32
  0
VERTEX
  8
ﾚｲﾔ_1
  5
8D0
 10
965.176
 20
-195.199
 30
0.000000
  70
    32
  0
VERTEX
  8
ﾚｲﾔ_1
  5
8D1
 10
965.184
 20
-195.249
 30
0.000000
  70
    32
  0
VERTEX
  8
ﾚｲﾔ_1
  5
8D2
 10
965.192
 20
-195.299
 30
0.000000
  70
    32
  0
VERTEX
  8
ﾚｲﾔ_1
  5
8D3
 10
965.200
 20
-195.350
 30
0.000000
  70
    32
  0
VERTEX
  8
ﾚｲﾔ_1
  5
8D4
 10
965.209
 20
-195.400
 30
0.000000
  70
    32
  0
VERTEX
  8
ﾚｲﾔ_1
  5
8D5
 10
965.217
 20
-195.450
 30
0.000000
  70
    32
  0
VERTEX
  8
ﾚｲﾔ_1
  5
8D6
 10
965.226
 20
-195.501
 30
0.000000
  70
    32
  0
VERTEX
  8
ﾚｲﾔ_1
  5
8D7
 10
965.234
 20
-195.551
 30
0.000000
  70
    32
  0
VERTEX
  8
ﾚｲﾔ_1
  5
8D8
 10
965.243
 20
-195.601
 30
0.000000
  70
    32
  0
VERTEX
  8
ﾚｲﾔ_1
  5
8D9
 10
965.251
 20
-195.651
 30
0.000000
  70
    32
  0
VERTEX
  8
ﾚｲﾔ_1
  5
8DA
 10
965.260
 20
-195.702
 30
0.000000
  70
    32
  0
VERTEX
  8
ﾚｲﾔ_1
  5
8DB
 10
965.269
 20
-195.752
 30
0.000000
  70
    32
  0
VERTEX
  8
ﾚｲﾔ_1
  5
8DC
 10
965.277
 20
-195.802
 30
0.000000
  70
    32
  0
VERTEX
  8
ﾚｲﾔ_1
  5
8DD
 10
965.286
 20
-195.853
 30
0.000000
  70
    32
  0
VERTEX
  8
ﾚｲﾔ_1
  5
8DE
 10
965.295
 20
-195.903
 30
0.000000
  70
    32
  0
VERTEX
  8
ﾚｲﾔ_1
  5
8DF
 10
965.304
 20
-195.953
 30
0.000000
  70
    32
  0
VERTEX
  8
ﾚｲﾔ_1
  5
8E0
 10
965.312
 20
-196.004
 30
0.000000
  70
    32
  0
VERTEX
  8
ﾚｲﾔ_1
  5
8E1
 10
965.321
 20
-196.054
 30
0.000000
  70
    32
  0
VERTEX
  8
ﾚｲﾔ_1
  5
8E2
 10
965.330
 20
-196.104
 30
0.000000
  70
    32
  0
VERTEX
  8
ﾚｲﾔ_1
  5
8E3
 10
965.339
 20
-196.155
 30
0.000000
  70
    32
  0
VERTEX
  8
ﾚｲﾔ_1
  5
8E4
 10
965.348
 20
-196.205
 30
0.000000
  70
    32
  0
VERTEX
  8
ﾚｲﾔ_1
  5
8E5
 10
965.356
 20
-196.255
 30
0.000000
  70
    32
  0
VERTEX
  8
ﾚｲﾔ_1
  5
8E6
 10
965.365
 20
-196.306
 30
0.000000
  70
    32
  0
SEQEND
  8
ﾚｲﾔ_1
  5
8E7
  0
ARC
  5
151
  8
ﾚｲﾔ_1
 62
     5
 10
968.39641658779999
 20
-186.55555278689999
 30
0.0
 40
3.5
 50
150.0
 51
210.0
  0
LINE
  5
152
  8
ﾚｲﾔ_1
 62
     5
 10
964.89641658779999
 20
-199.80555278689999
 30
0.0
 11
964.89641658779999
 21
-184.80555278689999
 31
0.0
  0
LINE
  5
153
  8
ﾚｲﾔ_1
 62
     5
 10
971.89641658779999
 20
-186.5555520433
 30
0.0
 11
971.89641658779999
 21
-198.05555391140001
 31
0.0
  0
LINE
  5
154
  8
ﾚｲﾔ_1
 62
     5
 10
973.09641658780015
 20
-188.30555278689999
 30
0.0
 11
974.39641658779988
 21
-189.60555278690001
 31
0.0
  0
LINE
  5
155
  8
ﾚｲﾔ_1
 62
     5
 10
973.09641658780015
 20
-196.30555278689999
 30
0.0
 11
973.09641658780015
 21
-188.30555278689999
 31
0.0
  0
ARC
  5
156
  8
ﾚｲﾔ_1
 62
     5
 10
968.39641658779999
 20
-186.55555278689999
 30
0.0
 40
3.5
 50
330.0
 51
30.0
  0
LINE
  5
157
  8
ﾚｲﾔ_1
 62
     5
 10
973.09641658780015
 20
-188.30555278689999
 30
0.0
 11
971.89641658779999
 21
-188.30555278689999
 31
0.0
  0
LINE
  5
158
  8
ﾚｲﾔ_1
 62
     5
 10
971.42750550100004
 20
-188.30555278689999
 30
0.0
 11
965.36532767450001
 21
-188.30555278689999
 31
0.0
  0
LINE
  5
159
  8
ﾚｲﾔ_1
 62
     5
 10
953.39595928359995
 20
-206.30555278689999
 30
0.0
 11
953.39595928359995
 21
-178.30555278689999
 31
0.0
  0
LINE
  5
15A
  8
ﾚｲﾔ_1
 62
     5
 10
662.11221606690003
 20
-185.7975722994
 30
0.0
 11
664.11221606690003
 21
-185.7975722994
 31
0.0
  0
LINE
  5
15B
  8
ﾚｲﾔ_1
 62
     5
 10
664.11221606690003
 20
-195.7975722994
 30
0.0
 11
664.11221606690003
 21
-185.7975722994
 31
0.0
  0
LINE
  5
15C
  8
ﾚｲﾔ_1
 62
     5
 10
662.11221606690003
 20
-185.7975722994
 30
0.0
 11
662.11221606690003
 21
-195.7975722994
 31
0.0
  0
CIRCLE
  5
15D
  8
ﾚｲﾔ_1
 62
     5
 10
663.11221606690003
 20
-192.3051362198
 30
0.0
 40
7.5
  0
CIRCLE
  5
15E
  8
ﾚｲﾔ_1
 62
     5
 10
663.11221606690003
 20
-192.3051362198
 30
0.0
 40
11.0
  0
CIRCLE
  5
15F
  8
ﾚｲﾔ_1
 62
     5
 10
663.11221606690003
 20
-192.3051362198
 30
0.0
 40
9.5
  0
LINE
  5
160
  8
ﾚｲﾔ_1
 62
     5
 10
948.89641658779999
 20
-215.10528195360001
 30
0.0
 11
948.89641658779999
 21
-49.964492891100001
 31
0.0
  0
LINE
  5
161
  8
ﾚｲﾔ_1
 10
689.3337960186999
 20
-82.485319685200011
 30
0.0
 11
739.3337960186999
 21
-82.485319685200011
 31
0.0
  0
LINE
  5
162
  8
ﾚｲﾔ_1
 10
690.83379601869979
 20
-83.985319685200025
 30
0.0
 11
740.83379601869979
 21
-83.985319685200025
 31
0.0
  0
LINE
  5
163
  8
ﾚｲﾔ_1
 10
692.3337960186999
 20
-85.485319685199997
 30
0.0
 11
742.3337960186999
 21
-85.485319685199997
 31
0.0
  0
LINE
  5
164
  8
ﾚｲﾔ_1
 10
693.83379601869979
 20
-86.985319685200011
 30
0.0
 11
743.83379601869979
 21
-86.985319685200011
 31
0.0
  0
INSERT
  5
165
  8
0
  6
CONTINUOUS
  2
*U60
 10
0.0
 20
0.0
 30
0.0
  0
LINE
  5
166
  8
ﾚｲﾔ_1
 62
     5
 10
558.61191134839999
 20
-48.304809266299991
 30
0.0
 11
767.61255203550002
 21
-48.304809266299991
 31
0.0
  0
LINE
  5
167
  8
ﾚｲﾔ_1
 62
     5
 10
777.61223169189998
 20
-37.305129609799998
 30
0.0
 11
548.61223169189998
 21
-37.305129609799998
 31
0.0
  0
LINE
  5
168
  8
ﾚｲﾔ_1
 62
     5
 10
558.61223169189986
 20
-47.305129609799991
 30
0.0
 11
767.61223169189986
 21
-47.305129609799991
 31
0.0
  0
LINE
  5
169
  8
ﾚｲﾔ_1
  6
BORDER
 62
     3
 10
540.61223169189998
 20
-132.30512960979999
 30
0.0
 11
785.61223169189986
 21
-132.30512960979999
 31
0.0
  0
INSERT
  5
16B
  8
ﾚｲﾔ_1
  6
STITCH
  2
CLUMP7
 10
0.0
 20
0.0
 30
0.0
  0
DIMENSION
  5
181
  8
寸法線
  2
*D10
 10
548.11222156439987
 20
-450.89861194410003
 30
0.0
 11
663.11222156459996
 21
-450.89861194410003
 31
0.0
 70
   128
  1
<>
 13
548.11222156439987
 23
-405.69966085980002
 33
0.0
 14
778.11222156479994
 24
-405.69966085980002
 34
0.0
 50
180.0
  0
DIMENSION
  5
190
  8
寸法線
  2
*D11
 10
554.61223169189986
 20
-433.52271321810002
 30
0.0
 11
663.11223169189986
 21
-433.52271321810002
 31
0.0
 70
   128
  1
(<>)内寸
 13
554.61223169189986
 23
-405.69966085980002
 33
0.0
 14
771.61223169189986
 24
-405.69966085980002
 34
0.0
 50
180.0
  0
LINE
  5
191
  8
ﾚｲﾔ_1
 62
     5
 10
767.61255203550002
 20
-216.3054499534
 30
0.0
 11
558.61191134839999
 21
-216.3054499534
 31
0.0
  0
LINE
  5
192
  8
ﾚｲﾔ_1
 62
     5
 10
767.61223169189986
 20
-217.30512960979999
 30
0.0
 11
558.61223169189986
 21
-217.30512960979999
 31
0.0
  0
LINE
  5
193
  8
ﾚｲﾔ_1
 62
     5
 10
554.61223169189986
 20
-404.69966085980002
 30
0.0
 11
771.61223169189986
 21
-404.69966085980002
 31
0.0
  0
LINE
  5
194
  8
ﾚｲﾔ_1
 62
     5
 10
545.61223169189998
 20
-316.69966085980002
 30
0.0
 11
780.61223169189986
 21
-316.69966085980002
 31
0.0
  0
LINE
  5
195
  8
ﾚｲﾔ_1
 62
     5
 10
546.61223169189986
 20
-310.69966085980002
 30
0.0
 11
779.61223169189986
 21
-310.69966085980002
 31
0.0
  0
LINE
  5
196
  8
ﾚｲﾔ_1
 62
     5
 10
548.61223169189998
 20
-227.30512960979999
 30
0.0
 11
777.61223169189998
 21
-227.30512960979999
 31
0.0
  0
LINE
  5
197
  8
ﾚｲﾔ_1
 62
     5
 10
554.61223169189986
 20
-405.69966085980002
 30
0.0
 11
771.61223169189986
 21
-405.69966085980002
 31
0.0
  0
INSERT
  5
199
  8
寸法線
  2
BALLON1
 10
951.930876811909
 20
-171.31208081217659
 30
0.0
  0
DIMENSION
  5
1B0
  8
寸法線
  2
*D13
 10
1070.2317876837001
 20
-218.80512960979999
 30
0.0
 11
1070.2317876837001
 21
-132.30512960979999
 31
0.0
 70
   128
  1
(<>)内寸
 13
1041.6965363794
 23
-218.80512960979999
 33
0.0
 14
1041.6965363794
 24
-45.805129609799998
 34
0.0
 50
90.0
  0
DIMENSION
  5
1BF
  8
寸法線
  2
*D14
 10
1087.6382358469
 20
-225.30512960979999
 30
0.0
 11
1087.6382358469
 21
-132.30512960979999
 31
0.0
 70
   128
  1
<>
 13
1042.6965363794
 23
-225.30512960979999
 33
0.0
 14
1042.6965363794
 24
-39.305129609799998
 34
0.0
 50
90.0
  0
LINE
  5
1C0
  8
ﾚｲﾔ_1
 62
     5
 10
1042.6965363794
 20
-44.805130053999989
 30
0.0
 11
1042.6965363794
 21
-219.80512941809999
 31
0.0
  0
DIMENSION
  5
1CF
  8
寸法線
  2
*D15
 10
812.21559447240008
 20
-227.30512960979999
 30
0.0
 11
812.21559447240008
 21
-132.30512960979999
 31
0.0
 70
   128
  1
<>
 13
777.61223169189998
 23
-227.30512960979999
 33
0.0
 14
777.61223169189998
 24
-37.305129609799998
 34
0.0
 50
90.0
  0
DIMENSION
  5
1DE
  8
寸法線
  2
*D16
 10
703.11219928720004
 20
-216.3054499534
 30
0.0
 11
703.11219928720004
 21
-204.30528978160001
 31
0.0
 70
   128
  1
<>
 13
663.11223169189986
 23
-216.3054499534
 33
0.0
 14
683.11219928720004
 24
-192.30512960979999
 34
0.0
 50
90.0
  0
LINE
  5
1DF
  8
ﾚｲﾔ_1
  6
BORDER
 62
     3
 10
643.11226409660003
 20
-192.30512960979999
 30
0.0
 11
683.11219928720004
 21
-192.30512960979999
 31
0.0
  0
ARC
  5
1E0
  8
ﾚｲﾔ_1
 62
     5
 10
558.61191134839999
 20
-214.3054499534
 30
0.0
 40
2.0
 50
180.0
 51
270.0
  0
ARC
  5
1E1
  8
ﾚｲﾔ_1
 62
     5
 10
558.61223169189986
 20
-214.30512960979999
 30
0.0
 40
3.0
 50
180.0
 51
270.0
  0
LINE
  5
1E2
  8
ﾚｲﾔ_1
 62
     5
 10
674.61201294190005
 20
-309.69975601150003
 30
0.0
 11
674.61201294190005
 21
-310.69975601150003
 31
0.0
  0
LINE
  5
1E3
  8
ﾚｲﾔ_1
 62
     5
 10
672.61201294190005
 20
-307.69975601150003
 30
0.0
 11
674.61201294190005
 21
-309.69975601150003
 31
0.0
  0
LINE
  5
1E4
  8
ﾚｲﾔ_1
 62
     5
 10
663.11201294190005
 20
-307.69975601150003
 30
0.0
 11
672.61201294190005
 21
-307.69975601150003
 31
0.0
  0
INSERT
  5
1E6
  8
寸法線
  2
BALLON2
 10
951.930876811909
 20
-171.31208081217659
 30
0.0
  0
LINE
  5
1EF
  8
ﾚｲﾔ_1
 62
     5
 10
651.61201294190005
 20
-310.69975601150003
 30
0.0
 11
651.61201294190005
 21
-309.69975601150003
 31
0.0
  0
LINE
  5
1F0
  8
ﾚｲﾔ_1
 62
     5
 10
651.61201294190005
 20
-309.69975601150003
 30
0.0
 11
653.61201294190005
 21
-307.69975601150003
 31
0.0
  0
LINE
  5
1F1
  8
ﾚｲﾔ_1
 62
     5
 10
651.61201294190005
 20
-309.69975601150003
 30
0.0
 11
674.61201294190005
 21
-309.69975601150003
 31
0.0
  0
LINE
  5
1F2
  8
ﾚｲﾔ_1
 62
     5
 10
653.61201294190005
 20
-307.69975601150003
 30
0.0
 11
663.11201294190005
 21
-307.69975601150003
 31
0.0
  0
ARC
  5
1F3
  8
ﾚｲﾔ_1
 62
     5
 10
546.61223169189986
 20
-311.69966085980002
 30
0.0
 40
1.0
 50
90.0
 51
180.0
  0
LINE
  5
1F4
  8
ﾚｲﾔ_1
 62
     5
 10
545.61223169189998
 20
-311.69966085980002
 30
0.0
 11
545.61223169189998
 21
-316.69966085980002
 31
0.0
  0
ARC
  5
1F5
  8
ﾚｲﾔ_1
 62
     5
 10
548.61223169189998
 20
-224.30512960979999
 30
0.0
 40
3.0
 50
180.0
 51
270.0
  0
LINE
  5
1F6
  8
ﾚｲﾔ_1
 62
     5
 10
548.11222156439987
 20
-404.69966085980002
 30
0.0
 11
554.61223169189986
 21
-404.69966085980002
 31
0.0
  0
LINE
  5
1F7
  8
ﾚｲﾔ_1
 62
     5
 10
548.11222156439987
 20
-405.69966085980002
 30
0.0
 11
548.11222156439987
 21
-404.69966085980002
 31
0.0
  0
LINE
  5
1F8
  8
ﾚｲﾔ_1
 62
     5
 10
548.11222156439987
 20
-405.69966085980002
 30
0.0
 11
554.61223169189986
 21
-405.69966085980002
 31
0.0
  0
LINE
  5
1F9
  8
ﾚｲﾔ_1
  6
BORDER
 62
     3
 10
663.11201294190005
 20
-302.69975601150003
 30
0.0
 11
663.11223169189986
 21
-410.69966085980002
 31
0.0
  0
LINE
  5
1FA
  8
ﾚｲﾔ_1
 62
     5
 10
553.61221953890004
 20
-316.69966085980002
 30
0.0
 11
553.61221953890004
 21
-404.69966085980002
 31
0.0
  0
INSERT
  5
1FC
  8
寸法線
  2
BALLON3
 10
951.930876811909
 20
-171.31208081217659
 30
0.0
  0
DIMENSION
  5
213
  8
寸法線
  2
*D19
 10
780.61223169189986
 20
-2.052321980699999
 30
0.0
 11
663.11223169189986
 21
-2.052321980699999
 31
0.0
 70
   128
  1
<>
 13
780.61223169189986
 23
-40.305129609799998
 33
0.0
 14
545.61223169189998
 24
-40.305129609799998
 34
0.0
  0
LINE
  5
214
  8
ﾚｲﾔ_1
 10
695.3337960186999
 20
-88.485319685200011
 30
0.0
 11
745.3337960186999
 21
-88.485319685200011
 31
0.0
  0
LINE
  5
215
  8
ﾚｲﾔ_1
 10
696.8337960186999
 20
-89.985319685200011
 30
0.0
 11
746.8337960186999
 21
-89.985319685200011
 31
0.0
  0
LINE
  5
216
  8
ﾚｲﾔ_1
 10
698.33379601869979
 20
-91.485319685200025
 30
0.0
 11
748.33379601869979
 21
-91.485319685200025
 31
0.0
  0
LINE
  5
217
  8
ﾚｲﾔ_1
 10
699.8337960186999
 20
-92.985319685199997
 30
0.0
 11
749.8337960186999
 21
-92.985319685199997
 31
0.0
  0
LINE
  5
218
  8
ﾚｲﾔ_1
 62
     5
 10
778.11222156479994
 20
-405.69966085980002
 30
0.0
 11
778.11222156479994
 21
-404.69966085980002
 31
0.0
  0
LINE
  5
219
  8
ﾚｲﾔ_1
 62
     5
 10
771.61223169189986
 20
-404.69966085980002
 30
0.0
 11
778.11222156479994
 21
-404.69966085980002
 31
0.0
  0
LINE
  5
21A
  8
ﾚｲﾔ_1
 62
     5
 10
771.61223169189986
 20
-405.69966085980002
 30
0.0
 11
778.11222156479994
 21
-405.69966085980002
 31
0.0
  0
LINE
  5
21B
  8
ﾚｲﾔ_1
 62
     5
 10
772.61221953940003
 20
-316.69966085980002
 30
0.0
 11
772.61221953940003
 21
-404.69966085980002
 31
0.0
  0
LINE
  5
21C
  8
ﾚｲﾔ_1
 10
956.32278621319995
 20
-221.84687176380001
 30
0.0
 11
974.90406583009997
 21
-266.75565622689999
 31
0.0
  0
SOLID
  5
21D
  8
ﾚｲﾔ_1
 10
956.32278621319995
 20
-221.84687176380001
 30
0.0
 11
960.1022782460999
 21
-226.77638732649999
 31
0.0
 12
958.00206331619995
 22
-225.90548855610001
 32
0.0
 13
958.00206331619995
 23
-225.90548855610001
 33
0.0
  0
SOLID
  5
21E
  8
ﾚｲﾔ_1
 10
956.32278621319995
 20
-221.84687176380001
 30
0.0
 11
957.1311645456999
 21
-228.00570348599999
 31
0.0
 12
958.00206331619995
 22
-225.90548855610001
 32
0.0
 13
958.00206331619995
 23
-225.90548855610001
 33
0.0
  0
LINE
  5
21F
  8
ﾚｲﾔ_1
 62
     5
 10
953.69653637940007
 20
-226.30512960979999
 30
0.0
 11
953.69653637940007
 21
-219.67115501360001
 31
0.0
  0
ARC
  5
220
  8
ﾚｲﾔ_1
 62
     5
 10
954.19653637939996
 20
-218.80512960979999
 30
0.0
 40
1.0
 50
180.0
 51
270.0
  0
LINE
  5
221
  8
ﾚｲﾔ_1
 62
     5
 10
947.69653637940007
 20
-226.30512960979999
 30
0.0
 11
947.69653637940007
 21
-218.30512960979999
 31
0.0
  0
LINE
  5
222
  8
ﾚｲﾔ_1
 62
     5
 10
948.69653637939996
 20
-218.30512960979999
 30
0.0
 11
948.69653637939996
 21
-226.30512960979999
 31
0.0
  0
LINE
  5
223
  8
ﾚｲﾔ_1
  6
STITCH
 10
954.69653637940007
 20
-211.80512960979999
 30
0.0
 11
954.69653637940007
 21
-219.80512960979999
 31
0.0
  0
INSERT
  5
225
  8
寸法線
  2
BALLON4
 10
0.0
 20
0.0
 30
0.0
  0
INSERT
  5
22E
  8
0
  6
CONTINUOUS
  2
*U65
 10
0.0
 20
0.0
 30
0.0
  0
INSERT
  5
22F
  8
0
  6
CONTINUOUS
  2
*U66
 10
0.0
 20
0.0
 30
0.0
  0
LINE
  5
230
  8
ﾚｲﾔ_1
 62
     5
 10
936.25143280889995
 20
-383.43001377000002
 30
0.0
 11
946.15143280890004
 21
-383.43001377000002
 31
0.0
  0
INSERT
  5
231
  8
0
  6
CONTINUOUS
  2
*U67
 10
0.0
 20
0.0
 30
0.0
  0
INSERT
  5
232
  8
0
  6
CONTINUOUS
  2
*U68
 10
0.0
 20
0.0
 30
0.0
  0
INSERT
  5
233
  8
0
  6
CONTINUOUS
  2
*U69
 10
0.0
 20
0.0
 30
0.0
  0
INSERT
  5
234
  8
0
  6
CONTINUOUS
  2
*U70
 10
0.0
 20
0.0
 30
0.0
  0
INSERT
  5
235
  8
0
  6
CONTINUOUS
  2
*U71
 10
0.0
 20
0.0
 30
0.0
  0
INSERT
  5
236
  8
0
  6
CONTINUOUS
  2
*U72
 10
0.0
 20
0.0
 30
0.0
  0
LINE
  5
237
  8
ﾚｲﾔ_1
 62
     5
 10
941.20143280889999
 20
-374.85636227250001
 30
0.0
 11
946.15143280890004
 21
-383.43001377000002
 31
0.0
  0
LINE
  5
238
  8
ﾚｲﾔ_1
 62
     5
 10
941.20143280889999
 20
-374.85636227250001
 30
0.0
 11
936.25143280889995
 21
-383.43001377000002
 31
0.0
  0
ARC
  5
239
  8
ﾚｲﾔ_1
 62
     5
 10
663.11221606690003
 20
-192.3051362198
 30
0.0
 40
2.0
 50
300.0
 51
60.0
  0
LINE
  5
23A
  8
ﾚｲﾔ_1
 62
     5
 10
662.11221606690003
 20
-195.7975722994
 30
0.0
 11
664.11221606690003
 21
-195.7975722994
 31
0.0
  0
ARC
  5
23B
  8
ﾚｲﾔ_1
 62
     5
 10
663.11221606690003
 20
-192.3051362198
 30
0.0
 40
2.0
 50
120.0
 51
240.0
  0
LINE
  5
23C
  8
ﾚｲﾔ_1
 62
     5
 10
953.19653637939996
 20
-210.30512960979999
 30
0.0
 11
953.19653637939996
 21
-217.30512960979999
 31
0.0
  0
LINE
  5
23D
  8
ﾚｲﾔ_1
 62
     5
 10
952.19641658779994
 20
-216.3052819536
 30
0.0
 11
952.19641658779994
 21
-206.30511644360001
 31
0.0
  0
LINE
  5
23E
  8
ﾚｲﾔ_1
 62
     5
 10
955.19653637939996
 20
-214.30512960979999
 30
0.0
 11
954.19653637939996
 21
-214.30512960979999
 31
0.0
  0
LINE
  5
23F
  8
ﾚｲﾔ_1
 62
     5
 10
948.89641658779999
 20
-216.3052819536
 30
0.0
 11
952.19641658779994
 21
-216.3052819536
 31
0.0
  0
LINE
  5
240
  8
ﾚｲﾔ_1
 62
     5
 10
952.19653637939996
 20
-217.30512960979999
 30
0.0
 11
952.19641658779994
 21
-216.34228195360001
 31
0.0
  0
LINE
  5
241
  8
ﾚｲﾔ_1
 62
     5
 10
948.89641658779999
 20
-215.10528195360001
 30
0.0
 11
952.19641658779994
 21
-215.10528195360001
 31
0.0
  0
ARC
  5
242
  8
ﾚｲﾔ_1
 62
     5
 10
948.89641658779999
 20
-215.10528195360001
 30
0.0
 40
1.1999999999999991
 50
180.0
 51
270.0
  0
LINE
  5
243
  8
ﾚｲﾔ_1
 62
     5
 10
954.19653637939996
 20
-214.30512960979999
 30
0.0
 11
954.19653637939996
 21
-210.30512960979999
 31
0.0
  0
LINE
  5
244
  8
ﾚｲﾔ_1
 62
     5
 10
947.69641658779994
 20
-215.10528195360001
 30
0.0
 11
947.69653637940007
 21
-218.30512960979999
 31
0.0
  0
LINE
  5
245
  8
ﾚｲﾔ_1
 62
     5
 10
954.19653637939996
 20
-214.30512960979999
 30
0.0
 11
954.19653637939996
 21
-218.80512960979999
 31
0.0
  0
LINE
  5
246
  8
ﾚｲﾔ_1
  6
STITCH
 10
959.58244259840001
 20
-213.90290181380001
 30
0.0
 11
963.8250832855
 21
-218.14554250090001
 31
0.0
  0
LINE
  5
247
  8
ﾚｲﾔ_1
  6
STITCH
 10
996.4725319311998
 20
-213.90290181380001
 30
0.0
 11
1000.7151726183
 21
-218.14554250090001
 31
0.0
  0
LINE
  5
248
  8
ﾚｲﾔ_1
  6
STITCH
 10
996.4725319311998
 20
-218.14554250090001
 30
0.0
 11
1000.7151726183
 21
-213.90290181380001
 31
0.0
  0
LINE
  5
249
  8
ﾚｲﾔ_1
  6
STITCH
 10
959.58244259840001
 20
-218.14554250090001
 30
0.0
 11
963.8250832855
 21
-213.90290181380001
 31
0.0
  0
LINE
  5
24A
  8
ﾚｲﾔ_1
 62
     5
 10
955.39641658779988
 20
-217.30555278689999
 30
0.0
 11
955.39641658779988
 21
-203.80555278689999
 31
0.0
  0
LINE
  5
24B
  8
ﾚｲﾔ_1
 62
     5
 10
956.89641658779999
 20
-217.30555278689999
 30
0.0
 11
956.89641658779999
 21
-203.80555278689999
 31
0.0
  0
LINE
  5
24C
  8
ﾚｲﾔ_1
 62
     5
 10
953.69653637940007
 20
-226.30512960979999
 30
0.0
 11
953.69653637940007
 21
-227.30512960979999
 31
0.0
  0
LINE
  5
24D
  8
ﾚｲﾔ_1
 62
     5
 10
948.69653637939996
 20
-226.30512960979999
 30
0.0
 11
953.69653637940007
 21
-226.30512960979999
 31
0.0
  0
LINE
  5
24E
  8
ﾚｲﾔ_1
 62
     5
 10
953.69653637940007
 20
-227.30512960979999
 30
0.0
 11
948.69653637939996
 21
-227.30512960979999
 31
0.0
  0
ARC
  5
24F
  8
ﾚｲﾔ_1
 62
     5
 10
948.69653637939996
 20
-226.30512960979999
 30
0.0
 40
1.0
 50
180.0
 51
270.0
  0
ARC
  5
250
  8
ﾚｲﾔ_1
 62
     5
 10
767.61223169189986
 20
-214.30512960979999
 30
0.0
 40
3.0
 50
270.0
 51
0.0
  0
ARC
  5
251
  8
ﾚｲﾔ_1
 62
     5
 10
767.61255203550002
 20
-214.3054499534
 30
0.0
 40
2.0
 50
270.0
 51
0.0
  0
ARC
  5
252
  8
ﾚｲﾔ_1
 62
     5
 10
779.61223169189986
 20
-311.69966085980002
 30
0.0
 40
1.0
 50
0.0
 51
90.0
  0
LINE
  5
253
  8
ﾚｲﾔ_1
 62
     5
 10
780.61223169189986
 20
-311.69966085980002
 30
0.0
 11
780.61223169189986
 21
-316.69966085980002
 31
0.0
  0
ARC
  5
254
  8
ﾚｲﾔ_1
 62
     5
 10
777.61223169189998
 20
-224.30512960979999
 30
0.0
 40
3.0
 50
270.0
 51
0.0
  0
ARC
  5
255
  8
ﾚｲﾔ_1
 62
     5
 10
956.89641658779999
 20
-203.80555278689999
 30
0.0
 40
1.5
 50
90.0
 51
180.0
  0
LINE
  5
256
  8
ﾚｲﾔ_1
 62
     5
 10
974.39641658779988
 20
-195.00555278690001
 30
0.0
 11
971.89641658779999
 21
-195.00555278690001
 31
0.0
  0
LINE
  5
257
  8
ﾚｲﾔ_1
 62
     5
 10
974.39641658779988
 20
-189.60555278690001
 30
0.0
 11
971.89641658779999
 21
-189.60555278690001
 31
0.0
  0
LINE
  5
258
  8
ﾚｲﾔ_1
 62
     5
 10
974.39641658779988
 20
-195.00555278690001
 30
0.0
 11
974.39641658779988
 21
-189.60555278690001
 31
0.0
  0
ARC
  5
259
  8
ﾚｲﾔ_1
 62
     5
 10
968.39641658779999
 20
-198.05555278689999
 30
0.0
 40
3.5
 50
330.0
 51
30.0
  0
ARC
  5
25A
  8
ﾚｲﾔ_1
 62
     5
 10
968.39641658779999
 20
-198.05555278689999
 30
0.0
 40
3.5
 50
150.0
 51
210.0
  0
LINE
  5
25B
  8
ﾚｲﾔ_1
 62
     5
 10
974.39641658779988
 20
-195.00555278690001
 30
0.0
 11
973.09641658780015
 21
-196.30555278689999
 31
0.0
  0
LINE
  5
25C
  8
ﾚｲﾔ_1
  6
BORDER
 62
     3
 10
979.39641658779999
 20
-192.30555278689999
 30
0.0
 11
938.19595928360002
 21
-192.30555278689999
 31
0.0
  0
LINE
  5
25D
  8
ﾚｲﾔ_1
 62
     5
 10
971.42750550100004
 20
-199.80555278689999
 30
0.0
 11
965.36532767450001
 21
-199.80555278689999
 31
0.0
  0
LINE
  5
25E
  8
ﾚｲﾔ_1
 62
     5
 10
964.89641658779999
 20
-199.80555278689999
 30
0.0
 11
963.39641658779988
 21
-199.80555278689999
 31
0.0
  0
LINE
  5
25F
  8
ﾚｲﾔ_1
 62
     5
 10
973.09641658780015
 20
-196.30555278689999
 30
0.0
 11
971.89641658779999
 21
-196.30555278689999
 31
0.0
  0
LINE
  5
260
  8
ﾚｲﾔ_1
 62
     5
 10
971.42750550100004
 20
-196.30555278689999
 30
0.0
 11
965.36532767450001
 21
-196.30555278689999
 31
0.0
  0
LINE
  5
261
  8
ﾚｲﾔ_1
 62
     5
 10
950.89595928359995
 20
-206.30555278689999
 30
0.0
 11
948.89595928359995
 21
-206.30555278689999
 31
0.0
  0
LINE
  5
262
  8
ﾚｲﾔ_1
 62
     5
 10
950.89595928359995
 20
-206.30555278689999
 30
0.0
 11
953.39595928359995
 21
-206.30555278689999
 31
0.0
  0
LINE
  5
263
  8
ﾚｲﾔ_1
 62
     5
 10
955.39641658779988
 20
-217.30555278689999
 30
0.0
 11
956.89641658779999
 21
-217.30555278689999
 31
0.0
  0
LINE
  5
264
  8
ﾚｲﾔ_1
 62
     5
 10
948.69653637939996
 20
-217.30512960979999
 30
0.0
 11
952.19653637939996
 21
-217.30512960979999
 31
0.0
  0
LINE
  5
265
  8
ﾚｲﾔ_1
 62
     5
 10
952.19653637939996
 20
-218.30512960979999
 30
0.0
 11
948.69653637939996
 21
-218.30512960979999
 31
0.0
  0
ARC
  5
266
  8
ﾚｲﾔ_1
 62
     5
 10
948.69653637939996
 20
-218.30512960979999
 30
0.0
 40
1.0
 50
90.0
 51
180.0
  0
ARC
  5
267
  8
ﾚｲﾔ_1
 62
     5
 10
952.19653637939996
 20
-217.30512960979999
 30
0.0
 40
1.0
 50
270.0
 51
0.0
  0
LINE
  5
268
  8
ﾚｲﾔ_1
 62
     5
 10
953.19653637939996
 20
-217.30512960979999
 30
0.0
 11
953.19653637939996
 21
-218.80512960979999
 31
0.0
  0
ARC
  5
269
  8
ﾚｲﾔ_1
 62
     5
 10
954.19653637939996
 20
-210.30512960979999
 30
0.0
 40
1.0
 50
0.0
 51
90.0
  0
ARC
  5
26A
  8
ﾚｲﾔ_1
 62
     5
 10
953.19653637939996
 20
-210.30512960979999
 30
0.0
 40
1.0
 50
90.0
 51
180.0
  0
LINE
  5
26B
  8
ﾚｲﾔ_1
 62
     5
 10
953.19653637939996
 20
-209.30512960979999
 30
0.0
 11
954.19653637939996
 21
-209.30512960979999
 31
0.0
  0
LINE
  5
26C
  8
ﾚｲﾔ_1
 62
     5
 10
954.19653637939996
 20
-210.30512960979999
 30
0.0
 11
953.19653637939996
 21
-210.30512960979999
 31
0.0
  0
LINE
  5
26D
  8
ﾚｲﾔ_1
 62
     5
 10
955.19653637939996
 20
-210.30512960979999
 30
0.0
 11
955.19653637939996
 21
-214.30512960979999
 31
0.0
  0
LINE
  5
26E
  8
ﾚｲﾔ_1
 62
     5
 10
964.89641658779999
 20
-184.80555278689999
 30
0.0
 11
963.39641658779988
 21
-184.80555278689999
 31
0.0
  0
ARC
  5
26F
  8
ﾚｲﾔ_1
 62
     5
 10
767.61223169189986
 20
-50.305129609799998
 30
0.0
 40
3.0
 50
0.0
 51
90.0
  0
ARC
  5
270
  8
ﾚｲﾔ_1
 62
     5
 10
777.61223169189998
 20
-40.305129609799998
 30
0.0
 40
3.0
 50
0.0
 51
90.0
  0
ARC
  5
271
  8
ﾚｲﾔ_1
 62
     5
 10
767.61255203550002
 20
-50.304809266299998
 30
0.0
 40
2.0
 50
0.0
 51
90.0
  0
LINE
  5
272
  8
ﾚｲﾔ_1
 10
773.9816823612
 20
-55.362190985799998
 30
0.0
 11
797.65863964240009
 21
-16.500236019900001
 31
0.0
  0
SOLID
  5
273
  8
ﾚｲﾔ_1
 10
773.9816823612
 20
-55.362190985799998
 30
0.0
 11
775.73051840350001
 21
-49.401800377200011
 31
0.0
 12
776.26698678119988
 22
-51.611227701099999
 32
0.0
 13
776.26698678119988
 23
-51.611227701099999
 33
0.0
  0
SOLID
  5
274
  8
ﾚｲﾔ_1
 10
773.9816823612
 20
-55.362190985799998
 30
0.0
 11
778.47641410520009
 21
-51.074759323400002
 31
0.0
 12
776.26698678119988
 22
-51.611227701099999
 32
0.0
 13
776.26698678119988
 23
-51.611227701099999
 33
0.0
  0
INSERT
  5
276
  8
寸法線
  2
BALLON5
 10
951.930876811909
 20
-171.31208081217659
 30
0.0
  0
LINE
  5
27F
  8
ﾚｲﾔ_1
 62
     5
 10
952.19641658779994
 20
-178.30511644360001
 30
0.0
 11
952.19641658779994
 21
-72.264492891099991
 31
0.0
  0
INSERT
  5
280
  8
0
  6
CONTINUOUS
  2
*U74
 10
0.0
 20
0.0
 30
0.0
  0
LINE
  5
281
  8
ﾚｲﾔ_1
 10
797.65863964240009
 20
-16.500236019900001
 30
0.0
 11
849.00042825839989
 21
-16.500236019900001
 31
0.0
  0
DIMENSION
  5
290
  8
寸法線
  2
*D22
 10
555.61223169189986
 20
-20.305129609800002
 30
0.0
 11
550.61223169189986
 21
-20.305129609800002
 31
0.0
 70
   128
  1
<>
 13
555.61223169189986
 23
-50.305129609799998
 33
0.0
 14
545.61223169189998
 24
-40.305129609799998
 34
0.0
  0
ARC
  5
291
  8
ﾚｲﾔ_1
 62
     5
 10
548.61223169189998
 20
-40.305129609799998
 30
0.0
 40
3.0
 50
90.0
 51
180.0
  0
ARC
  5
292
  8
ﾚｲﾔ_1
 62
     5
 10
558.61191134839999
 20
-50.304809266299998
 30
0.0
 40
2.0
 50
90.0
 51
180.0
  0
ARC
  5
293
  8
ﾚｲﾔ_1
 62
     5
 10
558.61223169189986
 20
-50.305129609799998
 30
0.0
 40
3.0
 50
90.0
 51
180.0
  0
DIMENSION
  5
2A2
  8
寸法線
  2
*D23
 10
797.61223169189986
 20
-227.30512960979999
 30
0.0
 11
797.61223169189986
 21
-222.30512960979999
 31
0.0
 70
   128
  1
<>
 13
777.61223169189998
 23
-227.30512960979999
 33
0.0
 14
767.61223169189986
 24
-217.30512960979999
 34
0.0
 50
90.0
  0
LINE
  5
2A3
  8
ﾚｲﾔ_1
 62
     5
 10
950.89595928359995
 20
-199.80555278689999
 30
0.0
 11
953.39595928359995
 21
-199.80555278689999
 31
0.0
  0
LINE
  5
2A4
  8
ﾚｲﾔ_1
 62
     5
 10
947.6959592835999
 20
-203.80555278689999
 30
0.0
 11
945.19595928360013
 21
-203.80555278689999
 31
0.0
  0
LINE
  5
2A5
  8
ﾚｲﾔ_1
 62
     5
 10
950.89595928359995
 20
-199.80555278689999
 30
0.0
 11
948.89595928359995
 21
-199.80555278689999
 31
0.0
  0
LINE
  5
2A6
  8
ﾚｲﾔ_1
 62
     5
 10
945.19595928360013
 20
-203.80555278689999
 30
0.0
 11
943.1959592835999
 21
-201.80555278689999
 31
0.0
  0
LINE
  5
2A7
  8
ﾚｲﾔ_1
 62
     5
 10
957.68231399609999
 20
-200.30555278689999
 30
0.0
 11
961.89641658779988
 21
-200.30555278689999
 31
0.0
  0
LINE
  5
2A8
  8
ﾚｲﾔ_1
 62
     5
 10
957.68231399609999
 20
-201.30555278689999
 30
0.0
 11
958.68231399609988
 21
-200.30555278689999
 31
0.0
  0
LINE
  5
2A9
  8
ﾚｲﾔ_1
 62
     5
 10
953.39595928359995
 20
-201.30555278689999
 30
0.0
 11
957.68231399609999
 21
-201.30555278689999
 31
0.0
  0
LINE
  5
2AA
  8
ﾚｲﾔ_1
 62
     5
 10
953.39595928359995
 20
-200.30555278689999
 30
0.0
 11
957.68231399609999
 21
-200.30555278689999
 31
0.0
  0
LINE
  5
2AB
  8
ﾚｲﾔ_1
 62
     5
 10
956.89641658779999
 20
-203.80555278689999
 30
0.0
 11
961.89641658779988
 21
-203.80555278689999
 31
0.0
  0
ARC
  5
2AC
  8
ﾚｲﾔ_1
 62
     5
 10
961.89641658779988
 20
-202.30555278689999
 30
0.0
 40
1.5
 50
270.0
 51
0.0
  0
LINE
  5
2AD
  8
ﾚｲﾔ_1
 62
     5
 10
956.89641658779999
 20
-202.30555278689999
 30
0.0
 11
961.89641658779988
 21
-202.30555278689999
 31
0.0
  0
ARC
  5
2AE
  8
ﾚｲﾔ_1
 62
     5
 10
948.69653637939996
 20
-38.305129609799998
 30
0.0
 40
1.0
 50
90.0
 51
180.0
  0
LINE
  5
2AF
  8
ﾚｲﾔ_1
 62
     5
 10
948.69653637939996
 20
-38.305129609799998
 30
0.0
 11
953.69653637940007
 21
-38.305129609799998
 31
0.0
  0
LINE
  5
2B0
  8
ﾚｲﾔ_1
 62
     5
 10
952.19641658779994
 20
-72.264492891099991
 30
0.0
 11
960.69641658779983
 21
-69.986924755399997
 31
0.0
  0
CIRCLE
  5
2B1
  8
ﾚｲﾔ_1
 62
     5
 10
955.19623272379988
 20
-61.305129609799991
 30
0.0
 40
3.6000000000000001
  0
LINE
  5
2B2
  8
ﾚｲﾔ_1
  6
BORDER
 62
     3
 10
948.19623272379988
 20
-61.305129609799991
 30
0.0
 11
962.19623272379999
 21
-61.305129609799991
 31
0.0
  0
LINE
  5
2B3
  8
ﾚｲﾔ_1
  6
BORDER
 62
     3
 10
955.19623272379988
 20
-68.305129609799991
 30
0.0
 11
955.19623272379988
 21
-54.305129609799991
 31
0.0
  0
LINE
  5
2B4
  8
ﾚｲﾔ_1
 62
     5
 10
948.69653637939996
 20
-46.304813409700003
 30
0.0
 11
948.69653637939996
 21
-38.305129609799998
 31
0.0
  0
LINE
  5
2B5
  8
ﾚｲﾔ_1
 62
     5
 10
957.35567485060005
 20
-52.231144311199991
 30
0.0
 11
960.69641658779983
 21
-53.126293361800002
 31
0.0
  0
LINE
  5
2B6
  8
ﾚｲﾔ_1
 62
     5
 10
960.69641658779983
 20
-53.126293361800002
 30
0.0
 11
960.69641658779983
 21
-69.986924755399997
 31
0.0
  0
LINE
  5
2B7
  8
ﾚｲﾔ_1
 62
     5
 10
953.69653637940007
 20
-38.305129609799998
 30
0.0
 11
953.69653637940007
 21
-37.305129609799998
 31
0.0
  0
ARC
  5
2B8
  8
ﾚｲﾔ_1
 62
     5
 10
948.89641658779999
 20
-49.964492891100001
 30
0.0
 40
1.1999999999999991
 50
75.0
 51
180.0
  0
LINE
  5
2B9
  8
ﾚｲﾔ_1
 62
     5
 10
953.69653637940007
 20
-38.305129609799998
 30
0.0
 11
953.69653637940007
 21
-45.094383587899991
 31
0.0
  0
LINE
  5
2BA
  8
ﾚｲﾔ_1
 62
     5
 10
960.82244311960005
 20
-45.798250235099992
 30
0.0
 11
960.90959886229996
 21
-46.794444933199998
 31
0.0
  0
LINE
  5
2BB
  8
ﾚｲﾔ_1
 62
     5
 10
947.69653637940007
 20
-46.305129609799991
 30
0.0
 11
947.69641658779994
 21
-49.964492891100001
 31
0.0
  0
LINE
  5
2BC
  8
ﾚｲﾔ_1
 62
     5
 10
950.89595928359995
 20
-184.80555278689999
 30
0.0
 11
948.89595928359995
 21
-184.80555278689999
 31
0.0
  0
LINE
  5
2BD
  8
ﾚｲﾔ_1
 62
     5
 10
953.39595928359995
 20
-178.30555278689999
 30
0.0
 11
950.89595928359995
 21
-178.30555278689999
 31
0.0
  0
LINE
  5
2BE
  8
ﾚｲﾔ_1
 62
     5
 10
943.1959592835999
 20
-182.80555278689999
 30
0.0
 11
945.19595928360013
 21
-180.80555278689999
 31
0.0
  0
LINE
  5
2BF
  8
ﾚｲﾔ_1
 62
     5
 10
945.19595928360013
 20
-180.80555278689999
 30
0.0
 11
947.6959592835999
 21
-180.80555278689999
 31
0.0
  0
LINE
  5
2C0
  8
ﾚｲﾔ_1
 62
     5
 10
950.89595928359995
 20
-184.80555278689999
 30
0.0
 11
953.39595928359995
 21
-184.80555278689999
 31
0.0
  0
LINE
  5
2C1
  8
ﾚｲﾔ_1
 62
     5
 10
950.89595928359995
 20
-178.30555278689999
 30
0.0
 11
948.89595928359995
 21
-178.30555278689999
 31
0.0
  0
LINE
  5
2C2
  8
ﾚｲﾔ_1
 62
     5
 10
957.68231399609999
 20
-183.30555278689999
 30
0.0
 11
958.68231399609988
 21
-184.30555278689999
 31
0.0
  0
LINE
  5
2C3
  8
ﾚｲﾔ_1
 62
     5
 10
953.39595928359995
 20
-184.30555278689999
 30
0.0
 11
961.89641658779988
 21
-184.30555278689999
 31
0.0
  0
LINE
  5
2C4
  8
ﾚｲﾔ_1
 62
     5
 10
953.39595928359995
 20
-183.30555278689999
 30
0.0
 11
957.68231399609999
 21
-183.30555278689999
 31
0.0
  0
LINE
  5
2C5
  8
ﾚｲﾔ_1
 62
     5
 10
961.89641658779988
 20
-180.30555278689999
 30
0.0
 11
963.39641658779988
 21
-180.30555278689999
 31
0.0
  0
LINE
  5
2C6
  8
ﾚｲﾔ_1
 62
     5
 10
965.36532767450001
 20
-184.80555278689999
 30
0.0
 11
971.42750550100004
 21
-184.80555278689999
 31
0.0
  0
INSERT
  5
2C7
  8
0
  6
CONTINUOUS
  2
*U75
 10
0.0
 20
0.0
 30
0.0
  0
INSERT
  5
2C8
  8
0
  6
CONTINUOUS
  2
*U76
 10
0.0
 20
0.0
 30
0.0
  0
LINE
  5
2C9
  8
ﾚｲﾔ_1
 10
1121.2497012324
 20
-378.62418602640003
 30
0.0
 11
1132.745551255
 21
-378.62418602640003
 31
0.0
  0
LINE
  5
2CA
  8
ﾚｲﾔ_1
 10
1120.9372012324
 20
-380.24918602640003
 30
0.0
 11
1132.8599656694
 21
-380.24918602640003
 31
0.0
  0
INSERT
  5
2CB
  8
0
  6
CONTINUOUS
  2
*U77
 10
0.0
 20
0.0
 30
0.0
  0
INSERT
  5
2CC
  8
0
  6
CONTINUOUS
  2
*U78
 10
0.0
 20
0.0
 30
0.0
  0
INSERT
  5
2CD
  8
0
  6
CONTINUOUS
  2
*U79
 10
0.0
 20
0.0
 30
0.0
  0
INSERT
  5
2CE
  8
0
  6
CONTINUOUS
  2
*U80
 10
0.0
 20
0.0
 30
0.0
  0
INSERT
  5
2CF
  8
0
  6
CONTINUOUS
  2
*U81
 10
0.0
 20
0.0
 30
0.0
  0
INSERT
  5
2D0
  8
0
  6
CONTINUOUS
  2
*U82
 10
0.0
 20
0.0
 30
0.0
  0
INSERT
  5
2D1
  8
0
  6
CONTINUOUS
  2
*U83
 10
0.0
 20
0.0
 30
0.0
  0
DIMENSION
  5
2E1
  8
寸法線
  2
*D24
 10
928.19623272379999
 20
-37.305129609799998
 30
0.0
 11
928.19623272379999
 21
-49.305129609799991
 31
0.0
 70
   128
  1
<>
 13
948.69653637939996
 23
-37.305129609799998
 33
0.0
 14
948.19623272379988
 24
-61.305129609799991
 34
0.0
 50
90.0
  0
DIMENSION
  5
2F0
  8
寸法線
  2
*D25
 10
953.69653637940007
 20
-17.305129609800002
 30
0.0
 11
950.69653637939996
 21
-17.305129609800002
 31
0.0
 70
   128
  1
<>
 13
953.69653637940007
 23
-37.305129609799998
 33
0.0
 14
947.69653637940007
 24
-38.305129609799998
 34
0.0
  0
DIMENSION
  5
2FF
  8
寸法線
  2
*D26
 10
780.61223169189986
 20
-20.305129609800002
 30
0.0
 11
775.61223169189986
 21
-20.305129609800002
 31
0.0
 70
   128
  1
<>
 13
780.61223169189986
 23
-40.305129609799998
 33
0.0
 14
770.61223169189998
 24
-50.305129609799998
 34
0.0
  0
DIMENSION
  5
30E
  8
寸法線
  2
*D27
 10
797.61223169189986
 20
-47.305129609799991
 30
0.0
 11
797.61223169189986
 21
-42.305129609799991
 31
0.0
 70
   128
  1
<>
 13
767.61223169189986
 23
-47.305129609799991
 33
0.0
 14
777.61223169189998
 24
-37.305129609799998
 34
0.0
 50
90.0
  0
LINE
  5
30F
  8
ﾚｲﾔ_1
 62
     5
 10
948.69653637939996
 20
-46.304813409700003
 30
0.0
 11
960.74019732229999
 21
-45.805129609799998
 31
0.0
  0
LINE
  5
310
  8
ﾚｲﾔ_1
 62
     5
 10
960.69653637940007
 20
-44.805129609799991
 30
0.0
 11
948.69653637939996
 21
-45.300993572199999
 31
0.0
  0
LINE
  5
311
  8
ﾚｲﾔ_1
 62
     5
 10
948.78369212219991
 20
-47.301324307899989
 30
0.0
 11
960.90959886229996
 21
-46.794444933199998
 31
0.0
  0
LINE
  5
312
  8
ﾚｲﾔ_1
 62
     5
 10
948.69653637939996
 20
-45.300993572199999
 30
0.0
 11
948.78369212219991
 21
-46.297188270200003
 31
0.0
  0
LINE
  5
313
  8
ﾚｲﾔ_1
 62
     5
 10
957.70714671320002
 20
-51.082989496400003
 30
0.0
 11
957.39656385910007
 21
-52.242100487999991
 31
0.0
  0
LINE
  5
314
  8
ﾚｲﾔ_1
 62
     5
 10
949.20699944190005
 20
-48.805381899499999
 30
0.0
 11
957.70714671320002
 21
-51.082989496400003
 31
0.0
  0
LINE
  5
315
  8
ﾚｲﾔ_1
 62
     5
 10
948.89641658779999
 20
-49.964492891100001
 30
0.0
 11
957.35567485060005
 21
-52.231144311199991
 31
0.0
  0
LINE
  5
316
  8
ﾚｲﾔ_1
 62
     5
 10
953.69653637940007
 20
-37.305129609799998
 30
0.0
 11
948.69653637939996
 21
-37.305129609799998
 31
0.0
  0
ARC
  5
317
  8
ﾚｲﾔ_1
 62
     5
 10
948.69653637939996
 20
-46.305129609799991
 30
0.0
 40
1.0
 50
180.0
 51
275.0
  0
LINE
  5
318
  8
ﾚｲﾔ_1
 62
     5
 10
947.69653637940007
 20
-38.305129609799998
 30
0.0
 11
947.69653637940007
 21
-46.305129609799991
 31
0.0
  0
LINE
  5
319
  8
ﾚｲﾔ_1
 62
     5
 10
1041.6965363794
 20
-44.805129609799991
 30
0.0
 11
1041.6965363794
 21
-39.305129609799998
 31
0.0
  0
ARC
  5
31A
  8
ﾚｲﾔ_1
 62
     5
 10
1041.6965363794
 20
-44.805129609799991
 30
0.0
 40
1.0
 50
270.0
 51
0.0
  0
LINE
  5
31B
  8
ﾚｲﾔ_1
 62
     5
 10
1041.6965363794
 20
-39.305129609799998
 30
0.0
 11
1042.6965363794
 21
-39.305129609799998
 31
0.0
  0
LINE
  5
31C
  8
ﾚｲﾔ_1
 62
     5
 10
1042.6965363794
 20
-39.305129609799998
 30
0.0
 11
1042.6965363794
 21
-44.805129609799991
 31
0.0
  0
INSERT
  5
31D
  8
0
  6
CONTINUOUS
  2
*U84
 10
0.0
 20
0.0
 30
0.0
  0
INSERT
  5
31E
  8
0
  6
CONTINUOUS
  2
*U85
 10
0.0
 20
0.0
 30
0.0
  0
INSERT
  5
31F
  8
0
  6
CONTINUOUS
  2
*U86
 10
0.0
 20
0.0
 30
0.0
  0
INSERT
  5
320
  8
0
  6
CONTINUOUS
  2
*U87
 10
0.0
 20
0.0
 30
0.0
  0
LINE
  5
321
  8
ﾚｲﾔ_1
  6
STITCH
 10
1032.6916222858999
 20
-213.90290181380001
 30
0.0
 11
1036.9342629729999
 21
-218.14554250090001
 31
0.0
  0
LINE
  5
322
  8
ﾚｲﾔ_1
  6
STITCH
 10
1032.6916222858999
 20
-218.14554250090001
 30
0.0
 11
1036.9342629729999
 21
-213.90290181380001
 31
0.0
  0
LINE
  5
323
  8
ﾚｲﾔ_1
 62
     5
 10
1041.6965363794
 20
-225.30512960979999
 30
0.0
 11
1042.6965363794
 21
-225.30512960979999
 31
0.0
  0
INSERT
  5
324
  8
0
  6
CONTINUOUS
  2
*U88
 10
0.0
 20
0.0
 30
0.0
  0
LINE
  5
325
  8
ﾚｲﾔ_1
 10
1015.7491120319
 20
-248.53062337750001
 30
0.0
 11
1070.1650842541001
 21
-248.53062337750001
 31
0.0
  0
LINE
  5
326
  8
ﾚｲﾔ_1
 62
     5
 10
1042.6965363794
 20
-225.30512960979999
 30
0.0
 11
1042.6965363794
 21
-219.80512960979999
 31
0.0
  0
LINE
  5
327
  8
ﾚｲﾔ_1
 62
     5
 10
1041.6965363794
 20
-219.80512960979999
 30
0.0
 11
1041.6965363794
 21
-225.30512960979999
 31
0.0
  0
ARC
  5
328
  8
ﾚｲﾔ_1
 62
     5
 10
1041.6965363794
 20
-219.80512960979999
 30
0.0
 40
1.0
 50
360.0
 51
90.0
  0
LINE
  5
329
  8
ﾚｲﾔ_1
  6
STITCH
 10
1040.6965363794
 20
-211.80512960979999
 30
0.0
 11
1040.6965363794
 21
-219.80512960979999
 31
0.0
  0
INSERT
  5
32A
  8
0
  6
CONTINUOUS
  2
*U89
 10
0.0
 20
0.0
 30
0.0
  0
INSERT
  5
32B
  8
0
  6
CONTINUOUS
  2
*U90
 10
0.0
 20
0.0
 30
0.0
  0
INSERT
  5
32C
  8
0
  6
CONTINUOUS
  2
*U91
 10
0.0
 20
0.0
 30
0.0
  0
INSERT
  5
32D
  8
0
  6
CONTINUOUS
  2
*U92
 10
0.0
 20
0.0
 30
0.0
  0
INSERT
  5
32E
  8
0
  6
CONTINUOUS
  2
*U93
 10
0.0
 20
0.0
 30
0.0
  0
INSERT
  5
32F
  8
0
  6
CONTINUOUS
  2
*U94
 10
0.0
 20
0.0
 30
0.0
  0
INSERT
  5
330
  8
0
  6
CONTINUOUS
  2
*U95
 10
0.0
 20
0.0
 30
0.0
  0
INSERT
  5
331
  8
0
  6
CONTINUOUS
  2
*U96
 10
0.0
 20
0.0
 30
0.0
  0
ENDSEC
  0
EOF
