  0
SECTION
  2
HEADER
  9
$ACADVER
  1
AC1024
  9
$ACADMAINTVER
 70
   183
  9
$DWGCODEPAGE
  3
ANSI_932
  9
$LASTSAVEDBY
  1
MINATO
  9
$INSBASE
 10
0.0
 20
0.0
 30
0.0
  9
$EXTMIN
 10
738.0081701629685
 20
-364.8846894252523
 30
-0.0000000349181948
  9
$EXTMAX
 10
936.031958075185
 20
-76.37535676004086
 30
0.0000000814935747
  9
$LIMMIN
 10
0.0
 20
0.0
  9
$LIMMAX
 10
0.0
 20
0.0
  9
$ORTHOMODE
 70
     0
  9
$REGENMODE
 70
     1
  9
$FILLMODE
 70
     1
  9
$QTEXTMODE
 70
     0
  9
$MIRRTEXT
 70
     1
  9
$LTSCALE
 40
1.0
  9
$ATTMODE
 70
     1
  9
$TEXTSIZE
 40
0.0
  9
$TRACEWID
 40
0.05
  9
$TEXTSTYLE
  7
STANDARD
  9
$CLAYER
  8
0
  9
$CELTYPE
  6
CONTINUOUS
  9
$CECOLOR
 62
   256
  9
$CELTSCALE
 40
1.0
  9
$DISPSILH
 70
     0
  9
$DIMSCALE
 40
1.0
  9
$DIMASZ
 40
0.18
  9
$DIMEXO
 40
0.0625
  9
$DIMDLI
 40
0.38
  9
$DIMRND
 40
0.0
  9
$DIMDLE
 40
0.0
  9
$DIMEXE
 40
0.18
  9
$DIMTP
 40
0.0
  9
$DIMTM
 40
0.0
  9
$DIMTXT
 40
0.18
  9
$DIMCEN
 40
0.09
  9
$DIMTSZ
 40
0.0
  9
$DIMTOL
 70
     0
  9
$DIMLIM
 70
     0
  9
$DIMTIH
 70
     1
  9
$DIMTOH
 70
     1
  9
$DIMSE1
 70
     0
  9
$DIMSE2
 70
     0
  9
$DIMTAD
 70
     0
  9
$DIMZIN
 70
     0
  9
$DIMBLK
  1

  9
$DIMASO
 70
     1
  9
$DIMSHO
 70
     1
  9
$DIMPOST
  1

  9
$DIMAPOST
  1

  9
$DIMALT
 70
     0
  9
$DIMALTD
 70
     2
  9
$DIMALTF
 40
25.4
  9
$DIMLFAC
 40
1.0
  9
$DIMTOFL
 70
     0
  9
$DIMTVP
 40
0.0
  9
$DIMTIX
 70
     0
  9
$DIMSOXD
 70
     0
  9
$DIMSAH
 70
     0
  9
$DIMBLK1
  1

  9
$DIMBLK2
  1

  9
$DIMSTYLE
  2
STANDARD
  9
$DIMCLRD
 70
     0
  9
$DIMCLRE
 70
     0
  9
$DIMCLRT
 70
     0
  9
$DIMTFAC
 40
1.0
  9
$DIMGAP
 40
0.09
  9
$DIMJUST
 70
     0
  9
$DIMSD1
 70
     0
  9
$DIMSD2
 70
     0
  9
$DIMTOLJ
 70
     1
  9
$DIMTZIN
 70
     0
  9
$DIMALTZ
 70
     0
  9
$DIMALTTZ
 70
     0
  9
$DIMUPT
 70
     0
  9
$DIMDEC
 70
     4
  9
$DIMTDEC
 70
     4
  9
$DIMALTU
 70
     2
  9
$DIMALTTD
 70
     2
  9
$DIMTXSTY
  7
STANDARD
  9
$DIMAUNIT
 70
     0
  9
$DIMADEC
 70
     0
  9
$DIMALTRND
 40
0.0
  9
$DIMAZIN
 70
     0
  9
$DIMDSEP
 70
    46
  9
$DIMATFIT
 70
     3
  9
$DIMFRAC
 70
     0
  9
$DIMLDRBLK
  1

  9
$DIMLUNIT
 70
     2
  9
$DIMLWD
 70
    -2
  9
$DIMLWE
 70
    -2
  9
$DIMTMOVE
 70
     0
  9
$DIMFXL
 40
1.0
  9
$DIMFXLON
 70
     0
  9
$DIMJOGANG
 40
0.7853981633974483
  9
$DIMTFILL
 70
     0
  9
$DIMTFILLCLR
 70
     0
  9
$DIMARCSYM
 70
     0
  9
$DIMLTYPE
  6

  9
$DIMLTEX1
  6

  9
$DIMLTEX2
  6

  9
$DIMTXTDIRECTION
 70
     0
  9
$LUNITS
 70
     2
  9
$LUPREC
 70
     4
  9
$SKETCHINC
 40
0.1
  9
$FILLETRAD
 40
0.0
  9
$AUNITS
 70
     0
  9
$AUPREC
 70
     0
  9
$MENU
  1
acad
  9
$ELEVATION
 40
0.0
  9
$PELEVATION
 40
0.0
  9
$THICKNESS
 40
0.0
  9
$LIMCHECK
 70
     0
  9
$CHAMFERA
 40
0.0
  9
$CHAMFERB
 40
0.0
  9
$CHAMFERC
 40
0.0
  9
$CHAMFERD
 40
0.0
  9
$SKPOLY
 70
     0
  9
$TDCREATE
 40
2454861.483987083
  9
$TDUCREATE
 40
2454861.108987083
  9
$TDUPDATE
 40
2458856.542527534
  9
$TDUUPDATE
 40
2458856.167527535
  9
$TDINDWG
 40
0.0007245139
  9
$TDUSRTIMER
 40
0.0007241319
  9
$USRTIMER
 70
     1
  9
$ANGBASE
 50
0.0
  9
$ANGDIR
 70
     0
  9
$PDMODE
 70
     3
  9
$PDSIZE
 40
-1.0
  9
$PLINEWID
 40
0.0
  9
$SPLFRAME
 70
     0
  9
$SPLINETYPE
 70
     6
  9
$SPLINESEGS
 70
     8
  9
$HANDSEED
  5
6D8
  9
$SURFTAB1
 70
     6
  9
$SURFTAB2
 70
     6
  9
$SURFTYPE
 70
     6
  9
$SURFU
 70
     6
  9
$SURFV
 70
     6
  9
$UCSBASE
  2

  9
$UCSNAME
  2

  9
$UCSORG
 10
0.0
 20
0.0
 30
0.0
  9
$UCSXDIR
 10
1.0
 20
0.0
 30
0.0
  9
$UCSYDIR
 10
0.0
 20
1.0
 30
0.0
  9
$UCSORTHOREF
  2

  9
$UCSORTHOVIEW
 70
     0
  9
$UCSORGTOP
 10
0.0
 20
0.0
 30
0.0
  9
$UCSORGBOTTOM
 10
0.0
 20
0.0
 30
0.0
  9
$UCSORGLEFT
 10
0.0
 20
0.0
 30
0.0
  9
$UCSORGRIGHT
 10
0.0
 20
0.0
 30
0.0
  9
$UCSORGFRONT
 10
0.0
 20
0.0
 30
0.0
  9
$UCSORGBACK
 10
0.0
 20
0.0
 30
0.0
  9
$PUCSBASE
  2

  9
$PUCSNAME
  2

  9
$PUCSORG
 10
0.0
 20
0.0
 30
0.0
  9
$PUCSXDIR
 10
1.0
 20
0.0
 30
0.0
  9
$PUCSYDIR
 10
0.0
 20
1.0
 30
0.0
  9
$PUCSORTHOREF
  2

  9
$PUCSORTHOVIEW
 70
     0
  9
$PUCSORGTOP
 10
0.0
 20
0.0
 30
0.0
  9
$PUCSORGBOTTOM
 10
0.0
 20
0.0
 30
0.0
  9
$PUCSORGLEFT
 10
0.0
 20
0.0
 30
0.0
  9
$PUCSORGRIGHT
 10
0.0
 20
0.0
 30
0.0
  9
$PUCSORGFRONT
 10
0.0
 20
0.0
 30
0.0
  9
$PUCSORGBACK
 10
0.0
 20
0.0
 30
0.0
  9
$USERI1
 70
     0
  9
$USERI2
 70
     0
  9
$USERI3
 70
     0
  9
$USERI4
 70
     0
  9
$USERI5
 70
     0
  9
$USERR1
 40
0.0
  9
$USERR2
 40
0.0
  9
$USERR3
 40
0.0
  9
$USERR4
 40
0.0
  9
$USERR5
 40
0.0
  9
$WORLDVIEW
 70
     1
  9
$SHADEDGE
 70
     3
  9
$SHADEDIF
 70
    70
  9
$TILEMODE
 70
     1
  9
$MAXACTVP
 70
    16
  9
$PINSBASE
 10
0.0
 20
0.0
 30
0.0
  9
$PLIMCHECK
 70
     0
  9
$PEXTMIN
 10
1.000000000000000E+20
 20
1.000000000000000E+20
 30
1.000000000000000E+20
  9
$PEXTMAX
 10
-1.000000000000000E+20
 20
-1.000000000000000E+20
 30
-1.000000000000000E+20
  9
$PLIMMIN
 10
0.0
 20
0.0
  9
$PLIMMAX
 10
12.0
 20
9.0
  9
$UNITMODE
 70
     0
  9
$VISRETAIN
 70
     0
  9
$PLINEGEN
 70
     1
  9
$PSLTSCALE
 70
     0
  9
$TREEDEPTH
 70
  3020
  9
$CMLSTYLE
  2
Standard
  9
$CMLJUST
 70
     0
  9
$CMLSCALE
 40
1.0
  9
$PROXYGRAPHICS
 70
     1
  9
$MEASUREMENT
 70
     0
  9
$CELWEIGHT
370
    -1
  9
$ENDCAPS
280
     0
  9
$JOINSTYLE
280
     0
  9
$LWDISPLAY
290
     0
  9
$INSUNITS
 70
     0
  9
$HYPERLINKBASE
  1

  9
$STYLESHEET
  1

  9
$XEDIT
290
     1
  9
$CEPSNTYPE
380
     0
  9
$PSTYLEMODE
290
     1
  9
$FINGERPRINTGUID
  2
{C2E35AA3-8548-4CE3-AE2E-54818B88DB3B}
  9
$VERSIONGUID
  2
{A0F2F76D-4EEF-4007-ADEB-3B49763B7180}
  9
$EXTNAMES
290
     1
  9
$PSVPSCALE
 40
0.0
  9
$OLESTARTUP
290
     0
  9
$SORTENTS
280
   127
  9
$INDEXCTL
280
     0
  9
$HIDETEXT
280
     0
  9
$XCLIPFRAME
280
     2
  9
$HALOGAP
280
     0
  9
$OBSCOLOR
 70
   257
  9
$OBSLTYPE
280
     0
  9
$INTERSECTIONDISPLAY
280
     0
  9
$INTERSECTIONCOLOR
 70
   257
  9
$DIMASSOC
280
     1
  9
$PROJECTNAME
  1

  9
$CAMERADISPLAY
290
     0
  9
$LENSLENGTH
 40
50.0
  9
$CAMERAHEIGHT
 40
0.0
  9
$STEPSPERSEC
 40
2.0
  9
$STEPSIZE
 40
6.0
  9
$3DDWFPREC
 40
2.0
  9
$PSOLWIDTH
 40
0.25
  9
$PSOLHEIGHT
 40
4.0
  9
$LOFTANG1
 40
1.570796326794896
  9
$LOFTANG2
 40
1.570796326794896
  9
$LOFTMAG1
 40
0.0
  9
$LOFTMAG2
 40
0.0
  9
$LOFTPARAM
 70
     7
  9
$LOFTNORMALS
280
     1
  9
$LATITUDE
 40
37.795
  9
$LONGITUDE
 40
-122.394
  9
$NORTHDIRECTION
 40
0.0
  9
$TIMEZONE
 70
 -8000
  9
$LIGHTGLYPHDISPLAY
280
     1
  9
$TILEMODELIGHTSYNCH
280
     1
  9
$CMATERIAL
347
5B2
  9
$SOLIDHIST
280
     0
  9
$SHOWHIST
280
     1
  9
$DWFFRAME
280
     2
  9
$DGNFRAME
280
     0
  9
$REALWORLDSCALE
290
     1
  9
$INTERFERECOLOR
 62
     1
  9
$INTERFEREOBJVS
345
5D4
  9
$INTERFEREVPVS
346
5D1
  9
$CSHADOW
280
     0
  9
$SHADOWPLANELOCATION
 40
0.0
  0
ENDSEC
  0
SECTION
  2
CLASSES
  0
CLASS
  1
ACDBDICTIONARYWDFLT
  2
AcDbDictionaryWithDefault
  3
ObjectDBX Classes
 90
        0
 91
        1
280
     0
281
     0
  0
CLASS
  1
MATERIAL
  2
AcDbMaterial
  3
ObjectDBX Classes
 90
     1153
 91
        3
280
     0
281
     0
  0
CLASS
  1
VISUALSTYLE
  2
AcDbVisualStyle
  3
ObjectDBX Classes
 90
     4095
 91
       24
280
     0
281
     0
  0
CLASS
  1
SCALE
  2
AcDbScale
  3
ObjectDBX Classes
 90
     1153
 91
       17
280
     0
281
     0
  0
CLASS
  1
TABLESTYLE
  2
AcDbTableStyle
  3
ObjectDBX Classes
 90
     4095
 91
        1
280
     0
281
     0
  0
CLASS
  1
MLEADERSTYLE
  2
AcDbMLeaderStyle
  3
ACDB_MLEADERSTYLE_CLASS
 90
     4095
 91
        1
280
     0
281
     0
  0
CLASS
  1
ACDBSECTIONVIEWSTYLE
  2
AcDbSectionViewStyle
  3
ObjectDBX Classes
 90
     1025
 91
        1
280
     0
281
     0
  0
CLASS
  1
ACDBDETAILVIEWSTYLE
  2
AcDbDetailViewStyle
  3
ObjectDBX Classes
 90
     1025
 91
        1
280
     0
281
     0
  0
CLASS
  1
SORTENTSTABLE
  2
AcDbSortentsTable
  3
ObjectDBX Classes
 90
        0
 91
        1
280
     0
281
     0
  0
CLASS
  1
DICTIONARYVAR
  2
AcDbDictionaryVar
  3
ObjectDBX Classes
 90
        0
 91
        9
280
     0
281
     0
  0
CLASS
  1
CELLSTYLEMAP
  2
AcDbCellStyleMap
  3
ObjectDBX Classes
 90
     1152
 91
        1
280
     0
281
     0
  0
ENDSEC
  0
SECTION
  2
TABLES
  0
TABLE
  2
VPORT
  5
5A9
330
0
100
AcDbSymbolTable
 70
     1
  0
VPORT
  5
614
330
5A9
100
AcDbSymbolTableRecord
100
AcDbViewportTableRecord
  2
*ACTIVE
 70
     0
 10
0.0
 20
0.0
 11
1.0
 21
1.0
 12
837.0200641190766
 22
-220.6300230926466
 13
0.0
 23
0.0
 14
1.0
 24
1.0
 15
0.0
 25
0.0
 16
0.0
 26
0.0
 36
1.0
 17
0.0
 27
0.0
 37
0.0
 40
290.717312251935
 41
2.438058748403575
 42
50.0
 43
0.0
 44
0.0
 50
0.0
 51
0.0
 71
     0
 72
   100
 73
     1
 74
     1
 75
     0
 76
     0
 77
     0
 78
     0
281
     0
 65
     1
110
0.0
120
0.0
130
0.0
111
1.0
121
0.0
131
0.0
112
0.0
122
1.0
132
0.0
 79
     0
146
0.0
348
5D0
 60
     3
 61
     5
292
     1
282
     0
141
0.0
142
0.0
 63
   250
421
  3355443
1001
ACAD_NAV_VCDISPLAY
1070
     3
  0
ENDTAB
  0
TABLE
  2
LTYPE
  5
5A6
330
0
100
AcDbSymbolTable
 70
    12
  0
LTYPE
  5
5FB
330
5A6
100
AcDbSymbolTableRecord
100
AcDbLinetypeTableRecord
  2
ByBlock
 70
     0
  3

 72
    65
 73
     0
 40
0.0
  0
LTYPE
  5
5FC
330
5A6
100
AcDbSymbolTableRecord
100
AcDbLinetypeTableRecord
  2
ByLayer
 70
     0
  3

 72
    65
 73
     0
 40
0.0
  0
LTYPE
  5
5FD
330
5A6
100
AcDbSymbolTableRecord
100
AcDbLinetypeTableRecord
  2
CONTINUOUS
 70
     0
  3
Solid line
 72
    65
 73
     0
 40
0.0
  0
LTYPE
  5
615
330
5A6
100
AcDbSymbolTableRecord
100
AcDbLinetypeTableRecord
  2
DOT
 70
     0
  3
. . . . . . . . 
 72
    65
 73
     2
 40
1.0
 49
0.0
 74
     0
 49
-1.0
 74
     0
  0
LTYPE
  5
616
330
5A6
100
AcDbSymbolTableRecord
100
AcDbLinetypeTableRecord
  2
DASHED
 70
     0
  3
___  ___  ___  ___  
 72
    65
 73
     2
 40
4.0
 49
3.0
 74
     0
 49
-1.0
 74
     0
  0
LTYPE
  5
617
330
5A6
100
AcDbSymbolTableRecord
100
AcDbLinetypeTableRecord
  2
HIDDEN
 70
     0
  3
__ __ __ __ 
 72
    65
 73
     2
 40
3.0
 49
2.0
 74
     0
 49
-1.0
 74
     0
  0
LTYPE
  5
618
330
5A6
100
AcDbSymbolTableRecord
100
AcDbLinetypeTableRecord
  2
STITCH
 70
     0
  3
_ _ _ _ 
 72
    65
 73
     2
 40
2.0
 49
1.0
 74
     0
 49
-1.0
 74
     0
  0
LTYPE
  5
619
330
5A6
100
AcDbSymbolTableRecord
100
AcDbLinetypeTableRecord
  2
CENTER
 70
     0
  3
______  __  ______  __  
 72
    65
 73
     4
 40
43.0
 49
40.0
 74
     0
 49
-1.0
 74
     0
 49
1.0
 74
     0
 49
-1.0
 74
     0
  0
LTYPE
  5
61A
330
5A6
100
AcDbSymbolTableRecord
100
AcDbLinetypeTableRecord
  2
DASHDOT
 70
     0
  3
____ . ____ . 
 72
    65
 73
     4
 40
32.0
 49
30.0
 74
     0
 49
-1.0
 74
     0
 49
0.0
 74
     0
 49
-1.0
 74
     0
  0
LTYPE
  5
61B
330
5A6
100
AcDbSymbolTableRecord
100
AcDbLinetypeTableRecord
  2
BORDER
 70
     0
  3
__ . __ . 
 72
    65
 73
     4
 40
22.0
 49
20.0
 74
     0
 49
-1.0
 74
     0
 49
0.0
 74
     0
 49
-1.0
 74
     0
  0
LTYPE
  5
61C
330
5A6
100
AcDbSymbolTableRecord
100
AcDbLinetypeTableRecord
  2
CUTTING
 70
     0
  3
________   ___   ___   
 72
    65
 73
     6
 40
45.0
 49
40.0
 74
     0
 49
-1.0
 74
     0
 49
1.0
 74
     0
 49
-1.0
 74
     0
 49
1.0
 74
     0
 49
-1.0
 74
     0
  0
LTYPE
  5
61D
330
5A6
100
AcDbSymbolTableRecord
100
AcDbLinetypeTableRecord
  2
PHANTOM
 70
     0
  3
______  __  __  
 72
    65
 73
     6
 40
35.0
 49
30.0
 74
     0
 49
-1.0
 74
     0
 49
1.0
 74
     0
 49
-1.0
 74
     0
 49
1.0
 74
     0
 49
-1.0
 74
     0
  0
LTYPE
  5
61E
330
5A6
100
AcDbSymbolTableRecord
100
AcDbLinetypeTableRecord
  2
DIVIDE
 70
     0
  3
____ . . ____ . . 
 72
    65
 73
     6
 40
23.0
 49
20.0
 74
     0
 49
-1.0
 74
     0
 49
0.0
 74
     0
 49
-1.0
 74
     0
 49
0.0
 74
     0
 49
-1.0
 74
     0
  0
ENDTAB
  0
TABLE
  2
LAYER
  5
5A3
330
0
100
AcDbSymbolTable
 70
     5
  0
LAYER
  5
5F5
102
{ACAD_XDICTIONARY
360
68C
102
}
330
5A3
100
AcDbSymbolTableRecord
100
AcDbLayerTableRecord
  2
0
 70
     0
 62
     7
  6
CONTINUOUS
370
    -3
390
5B0
347
5C2
  0
LAYER
  5
61F
102
{ACAD_XDICTIONARY
360
68E
102
}
330
5A3
100
AcDbSymbolTableRecord
100
AcDbLayerTableRecord
  2
図枠
 70
     0
 62
     7
  6
CONTINUOUS
370
    -3
390
5B0
347
5C2
  0
LAYER
  5
620
102
{ACAD_XDICTIONARY
360
690
102
}
330
5A3
100
AcDbSymbolTableRecord
100
AcDbLayerTableRecord
  2
ﾚｲﾔ_1
 70
     0
 62
     7
  6
CONTINUOUS
370
    -3
390
5B0
347
5C2
  0
LAYER
  5
621
102
{ACAD_XDICTIONARY
360
692
102
}
330
5A3
100
AcDbSymbolTableRecord
100
AcDbLayerTableRecord
  2
寸法線
 70
     0
 62
     7
  6
CONTINUOUS
370
    -3
390
5B0
347
5C2
  0
LAYER
  5
622
102
{ACAD_XDICTIONARY
360
694
102
}
330
5A3
100
AcDbSymbolTableRecord
100
AcDbLayerTableRecord
  2
改訂
 70
     0
 62
     7
  6
CONTINUOUS
370
    -3
390
5B0
347
5C2
  0
ENDTAB
  0
TABLE
  2
STYLE
  5
5A4
330
0
100
AcDbSymbolTable
 70
     2
  0
STYLE
  5
5F6
330
5A4
100
AcDbSymbolTableRecord
100
AcDbTextStyleTableRecord
  2
STANDARD
 70
     0
 40
0.0
 41
1.0
 50
0.0
 71
     0
 42
0.0
  3
txt
  4
extfont
  0
STYLE
  5
5FA
330
5A4
100
AcDbSymbolTableRecord
100
AcDbTextStyleTableRecord
  2
Annotative
 70
     0
 40
0.0
 41
1.0
 50
0.0
 71
     0
 42
0.2
  3
txt
  4

1001
AcadAnnotative
1000
AnnotativeData
1002
{
1070
     1
1070
     1
1002
}
  0
ENDTAB
  0
TABLE
  2
VIEW
  5
5A7
330
0
100
AcDbSymbolTable
 70
     0
  0
ENDTAB
  0
TABLE
  2
UCS
  5
5A8
330
0
100
AcDbSymbolTable
 70
     0
  0
ENDTAB
  0
TABLE
  2
APPID
  5
5AA
330
0
100
AcDbSymbolTable
 70
     5
  0
APPID
  5
5F7
330
5AA
100
AcDbSymbolTableRecord
100
AcDbRegAppTableRecord
  2
ACAD
 70
     0
  0
APPID
  5
5FE
330
5AA
100
AcDbSymbolTableRecord
100
AcDbRegAppTableRecord
  2
AcadAnnotative
 70
     0
  0
APPID
  5
623
330
5AA
100
AcDbSymbolTableRecord
100
AcDbRegAppTableRecord
  2
DCO15
 70
     0
  0
APPID
  5
68A
330
5AA
100
AcDbSymbolTableRecord
100
AcDbRegAppTableRecord
  2
ACAD_EXEMPT_FROM_CAD_STANDARDS
 70
     0
  0
APPID
  5
6A0
330
5AA
100
AcDbSymbolTableRecord
100
AcDbRegAppTableRecord
  2
ACAD_NAV_VCDISPLAY
 70
     0
  0
ENDTAB
  0
TABLE
  2
DIMSTYLE
  5
5AB
330
0
100
AcDbSymbolTable
 70
     3
100
AcDbDimStyleTable
 71
     0
  0
DIMSTYLE
105
5F8
102
{ACAD_REACTORS
330
EA
330
F9
330
108
330
13E
330
14D
330
15C
330
16B
330
17A
330
189
330
198
330
1A7
102
}
330
5AB
100
AcDbSymbolTableRecord
100
AcDbDimStyleTableRecord
  2
STANDARD
 70
     0
279
     2
340
5F6
  0
DIMSTYLE
105
5F9
330
5AB
100
AcDbSymbolTableRecord
100
AcDbDimStyleTableRecord
  2
Annotative
 70
     0
340
5F6
1001
AcadAnnotative
1000
AnnotativeData
1002
{
1070
     1
1070
     1
1002
}
  0
DIMSTYLE
105
624
330
5AB
100
AcDbSymbolTableRecord
100
AcDbDimStyleTableRecord
  2
VELDIM0
 70
     0
 41
3.0
 44
0.5
 46
3.0
 73
     0
 74
     0
 78
     8
140
2.998611020999999
279
     2
340
5F6
  0
ENDTAB
  0
TABLE
  2
BLOCK_RECORD
  5
5A2
330
0
100
AcDbSymbolTable
 70
    47
  0
BLOCK_RECORD
  5
610
102
{ACAD_XDICTIONARY
360
688
102
}
330
5A2
100
AcDbSymbolTableRecord
100
AcDbBlockTableRecord
  2
*Model_Space
340
613
 70
     0
280
     1
281
     0
  0
BLOCK_RECORD
  5
60C
330
5A2
100
AcDbSymbolTableRecord
100
AcDbBlockTableRecord
  2
*Paper_Space
340
60F
 70
     0
280
     1
281
     0
  0
BLOCK_RECORD
  5
627
330
5A2
100
AcDbSymbolTableRecord
100
AcDbBlockTableRecord
  2
$MODEL_SPACE
340
0
 70
     0
280
     1
281
     0
  0
BLOCK_RECORD
  5
629
330
5A2
100
AcDbSymbolTableRecord
100
AcDbBlockTableRecord
  2
$PAPER_SPACE
340
0
 70
     0
280
     1
281
     0
  0
BLOCK_RECORD
  5
62B
330
5A2
100
AcDbSymbolTableRecord
100
AcDbBlockTableRecord
  2
CLUMP0
340
0
102
{BLKREFS
331
39
102
}
 70
     0
280
     1
281
     0
  0
BLOCK_RECORD
  5
62D
330
5A2
100
AcDbSymbolTableRecord
100
AcDbBlockTableRecord
  2
*U3
340
0
102
{BLKREFS
331
41
102
}
 70
     0
280
     1
281
     0
  0
BLOCK_RECORD
  5
62E
330
5A2
100
AcDbSymbolTableRecord
100
AcDbBlockTableRecord
  2
*U4
340
0
102
{BLKREFS
331
65
102
}
 70
     0
280
     1
281
     0
  0
BLOCK_RECORD
  5
62F
330
5A2
100
AcDbSymbolTableRecord
100
AcDbBlockTableRecord
  2
*U5
340
0
102
{BLKREFS
331
66
102
}
 70
     0
280
     1
281
     0
  0
BLOCK_RECORD
  5
630
330
5A2
100
AcDbSymbolTableRecord
100
AcDbBlockTableRecord
  2
*U6
340
0
102
{BLKREFS
331
6B
102
}
 70
     0
280
     1
281
     0
  0
BLOCK_RECORD
  5
631
330
5A2
100
AcDbSymbolTableRecord
100
AcDbBlockTableRecord
  2
*U7
340
0
102
{BLKREFS
331
7E
102
}
 70
     0
280
     1
281
     0
  0
BLOCK_RECORD
  5
632
330
5A2
100
AcDbSymbolTableRecord
100
AcDbBlockTableRecord
  2
*U8
340
0
102
{BLKREFS
331
7F
102
}
 70
     0
280
     1
281
     0
  0
BLOCK_RECORD
  5
633
330
5A2
100
AcDbSymbolTableRecord
100
AcDbBlockTableRecord
  2
*U9
340
0
102
{BLKREFS
331
80
102
}
 70
     0
280
     1
281
     0
  0
BLOCK_RECORD
  5
634
330
5A2
100
AcDbSymbolTableRecord
100
AcDbBlockTableRecord
  2
*U10
340
0
102
{BLKREFS
331
81
102
}
 70
     0
280
     1
281
     0
  0
BLOCK_RECORD
  5
635
330
5A2
100
AcDbSymbolTableRecord
100
AcDbBlockTableRecord
  2
*U11
340
0
102
{BLKREFS
331
82
102
}
 70
     0
280
     1
281
     0
  0
BLOCK_RECORD
  5
636
330
5A2
100
AcDbSymbolTableRecord
100
AcDbBlockTableRecord
  2
*U12
340
0
102
{BLKREFS
331
83
102
}
 70
     0
280
     1
281
     0
  0
BLOCK_RECORD
  5
637
330
5A2
100
AcDbSymbolTableRecord
100
AcDbBlockTableRecord
  2
*U13
340
0
102
{BLKREFS
331
84
102
}
 70
     0
280
     1
281
     0
  0
BLOCK_RECORD
  5
638
330
5A2
100
AcDbSymbolTableRecord
100
AcDbBlockTableRecord
  2
*U14
340
0
102
{BLKREFS
331
96
102
}
 70
     0
280
     1
281
     0
  0
BLOCK_RECORD
  5
639
330
5A2
100
AcDbSymbolTableRecord
100
AcDbBlockTableRecord
  2
*U15
340
0
102
{BLKREFS
331
A7
102
}
 70
     0
280
     1
281
     0
  0
BLOCK_RECORD
  5
63A
330
5A2
100
AcDbSymbolTableRecord
100
AcDbBlockTableRecord
  2
*U16
340
0
102
{BLKREFS
331
A8
102
}
 70
     0
280
     1
281
     0
  0
BLOCK_RECORD
  5
63B
330
5A2
100
AcDbSymbolTableRecord
100
AcDbBlockTableRecord
  2
*U17
340
0
102
{BLKREFS
331
A9
102
}
 70
     0
280
     1
281
     0
  0
BLOCK_RECORD
  5
63C
330
5A2
100
AcDbSymbolTableRecord
100
AcDbBlockTableRecord
  2
*U18
340
0
102
{BLKREFS
331
AF
102
}
 70
     0
280
     1
281
     0
  0
BLOCK_RECORD
  5
63D
330
5A2
100
AcDbSymbolTableRecord
100
AcDbBlockTableRecord
  2
*U19
340
0
102
{BLKREFS
331
D7
102
}
 70
     0
280
     1
281
     0
  0
BLOCK_RECORD
  5
63E
330
5A2
100
AcDbSymbolTableRecord
100
AcDbBlockTableRecord
  2
*U20
340
0
102
{BLKREFS
331
D8
102
}
 70
     0
280
     1
281
     0
  0
BLOCK_RECORD
  5
63F
330
5A2
100
AcDbSymbolTableRecord
100
AcDbBlockTableRecord
  2
*D21
340
0
 70
     0
280
     1
281
     0
  0
BLOCK_RECORD
  5
641
330
5A2
100
AcDbSymbolTableRecord
100
AcDbBlockTableRecord
  2
*D22
340
0
 70
     0
280
     1
281
     0
  0
BLOCK_RECORD
  5
643
330
5A2
100
AcDbSymbolTableRecord
100
AcDbBlockTableRecord
  2
*D23
340
0
 70
     0
280
     1
281
     0
  0
BLOCK_RECORD
  5
645
330
5A2
100
AcDbSymbolTableRecord
100
AcDbBlockTableRecord
  2
*D24
340
0
 70
     0
280
     1
281
     0
  0
BLOCK_RECORD
  5
647
330
5A2
100
AcDbSymbolTableRecord
100
AcDbBlockTableRecord
  2
*D25
340
0
 70
     0
280
     1
281
     0
  0
BLOCK_RECORD
  5
649
330
5A2
100
AcDbSymbolTableRecord
100
AcDbBlockTableRecord
  2
*D26
340
0
 70
     0
280
     1
281
     0
  0
BLOCK_RECORD
  5
64B
330
5A2
100
AcDbSymbolTableRecord
100
AcDbBlockTableRecord
  2
*D27
340
0
 70
     0
280
     1
281
     0
  0
BLOCK_RECORD
  5
64D
330
5A2
100
AcDbSymbolTableRecord
100
AcDbBlockTableRecord
  2
*D28
340
0
 70
     0
280
     1
281
     0
  0
BLOCK_RECORD
  5
64F
330
5A2
100
AcDbSymbolTableRecord
100
AcDbBlockTableRecord
  2
*D29
340
0
 70
     0
280
     1
281
     0
  0
BLOCK_RECORD
  5
651
330
5A2
100
AcDbSymbolTableRecord
100
AcDbBlockTableRecord
  2
*D30
340
0
 70
     0
280
     1
281
     0
  0
BLOCK_RECORD
  5
653
330
5A2
100
AcDbSymbolTableRecord
100
AcDbBlockTableRecord
  2
*D31
340
0
 70
     0
280
     1
281
     0
  0
BLOCK_RECORD
  5
655
330
5A2
100
AcDbSymbolTableRecord
100
AcDbBlockTableRecord
  2
*U32
340
0
102
{BLKREFS
331
31
102
}
 70
     0
280
     1
281
     0
  0
BLOCK_RECORD
  5
657
330
5A2
100
AcDbSymbolTableRecord
100
AcDbBlockTableRecord
  2
*U33
340
0
 70
     0
280
     1
281
     0
  0
BLOCK_RECORD
  5
659
330
5A2
100
AcDbSymbolTableRecord
100
AcDbBlockTableRecord
  2
*U34
340
0
102
{BLKREFS
331
33
102
}
 70
     0
280
     1
281
     0
  0
BLOCK_RECORD
  5
65B
330
5A2
100
AcDbSymbolTableRecord
100
AcDbBlockTableRecord
  2
*U35
340
0
102
{BLKREFS
331
34
102
}
 70
     0
280
     1
281
     0
  0
BLOCK_RECORD
  5
65D
330
5A2
100
AcDbSymbolTableRecord
100
AcDbBlockTableRecord
  2
*U36
340
0
102
{BLKREFS
331
35
102
}
 70
     0
280
     1
281
     0
  0
BLOCK_RECORD
  5
65F
330
5A2
100
AcDbSymbolTableRecord
100
AcDbBlockTableRecord
  2
*U37
340
0
102
{BLKREFS
331
36
102
}
 70
     0
280
     1
281
     0
  0
BLOCK_RECORD
  5
673
330
5A2
100
AcDbSymbolTableRecord
100
AcDbBlockTableRecord
  2
*U38
340
0
102
{BLKREFS
331
117
102
}
 70
     0
280
     1
281
     0
  0
BLOCK_RECORD
  5
675
330
5A2
100
AcDbSymbolTableRecord
100
AcDbBlockTableRecord
  2
*U39
340
0
102
{BLKREFS
331
118
102
}
 70
     0
280
     1
281
     0
  0
BLOCK_RECORD
  5
677
330
5A2
100
AcDbSymbolTableRecord
100
AcDbBlockTableRecord
  2
*U40
340
0
102
{BLKREFS
331
119
102
}
 70
     0
280
     1
281
     0
  0
BLOCK_RECORD
  5
679
330
5A2
100
AcDbSymbolTableRecord
100
AcDbBlockTableRecord
  2
*U41
340
0
102
{BLKREFS
331
11A
102
}
 70
     0
280
     1
281
     0
  0
BLOCK_RECORD
  5
67B
330
5A2
100
AcDbSymbolTableRecord
100
AcDbBlockTableRecord
  2
*U42
340
0
102
{BLKREFS
331
11B
102
}
 70
     0
280
     1
281
     0
  0
BLOCK_RECORD
  5
67D
330
5A2
100
AcDbSymbolTableRecord
100
AcDbBlockTableRecord
  2
*U43
340
0
102
{BLKREFS
331
11C
102
}
 70
     0
280
     1
281
     0
  0
BLOCK_RECORD
  5
67F
330
5A2
100
AcDbSymbolTableRecord
100
AcDbBlockTableRecord
  2
*U44
340
0
102
{BLKREFS
331
11D
102
}
 70
     0
280
     1
281
     0
  0
BLOCK_RECORD
  5
681
330
5A2
100
AcDbSymbolTableRecord
100
AcDbBlockTableRecord
  2
*U45
340
0
102
{BLKREFS
331
11E
102
}
 70
     0
280
     1
281
     0
  0
BLOCK_RECORD
  5
683
330
5A2
100
AcDbSymbolTableRecord
100
AcDbBlockTableRecord
  2
*U46
340
0
102
{BLKREFS
331
239
102
}
 70
     0
280
     1
281
     0
  0
ENDTAB
  0
ENDSEC
  0
SECTION
  2
BLOCKS
  0
BLOCK
  5
611
330
610
100
AcDbEntity
  8
0
100
AcDbBlockBegin
  2
*Model_Space
 70
     0
 10
0.0
 20
0.0
 30
0.0
  3
*Model_Space
  1

  0
ENDBLK
  5
612
330
610
100
AcDbEntity
  8
0
100
AcDbBlockEnd
  0
BLOCK
  5
60D
330
60C
100
AcDbEntity
 67
     1
  8
0
100
AcDbBlockBegin
  2
*Paper_Space
 70
     0
 10
0.0
 20
0.0
 30
0.0
  3
*Paper_Space
  1

  0
ENDBLK
  5
60E
330
60C
100
AcDbEntity
 67
     1
  8
0
100
AcDbBlockEnd
  0
BLOCK
  5
628
330
627
100
AcDbEntity
  8
0
100
AcDbBlockBegin
  2
$MODEL_SPACE
 70
     0
 10
0.0
 20
0.0
 30
0.0
  3
$MODEL_SPACE
  1

  0
ENDBLK
  5
E
330
627
100
AcDbEntity
  8
0
100
AcDbBlockEnd
  0
BLOCK
  5
62A
330
629
100
AcDbEntity
  8
0
100
AcDbBlockBegin
  2
$PAPER_SPACE
 70
     0
 10
0.0
 20
0.0
 30
0.0
  3
$PAPER_SPACE
  1

  0
ENDBLK
  5
10
330
629
100
AcDbEntity
  8
0
100
AcDbBlockEnd
  0
BLOCK
  5
62C
330
62B
100
AcDbEntity
  8
0
100
AcDbBlockBegin
  2
CLUMP0
 70
     0
 10
0.0
 20
0.0
 30
0.0
  3
CLUMP0
  1

  0
CIRCLE
  5
3B
330
62B
100
AcDbEntity
  8
図枠
100
AcDbCircle
 10
859.5638254750999
 20
-336.5154213496
 30
0.0
 40
2.303999999999999
  0
CIRCLE
  5
3C
330
62B
100
AcDbEntity
  8
図枠
100
AcDbCircle
 10
859.5638254750999
 20
-336.5154213496
 30
0.0
 40
1.151999999999999
  0
LINE
  5
3D
330
62B
100
AcDbEntity
  8
図枠
100
AcDbLine
 10
864.8303062863998
 20
-337.6674213496
 30
0.0
 11
869.4383062864
 21
-338.8194213496
 31
0.0
  0
LINE
  5
3E
330
62B
100
AcDbEntity
  8
図枠
100
AcDbLine
 10
864.8303062863998
 20
-335.3634213496
 30
0.0
 11
869.4383062864
 21
-334.2114213496
 31
0.0
  0
LINE
  5
3F
330
62B
100
AcDbEntity
  8
図枠
100
AcDbLine
 10
864.8303062863998
 20
-337.6674213496
 30
0.0
 11
869.4383062864
 21
-338.8194213496
 31
0.0
  0
LINE
  5
40
330
62B
100
AcDbEntity
  8
図枠
100
AcDbLine
 10
843.4998254750999
 20
-340.7654213496
 30
0.0
 11
843.4998254750999
 21
-349.2654213496
 31
0.0
  0
INSERT
  5
41
330
62B
100
AcDbEntity
  8
0
  6
Continuous
100
AcDbBlockReference
  2
*U3
 10
0.0
 20
0.0
 30
0.0
  0
ARC
  5
42
330
62B
100
AcDbEntity
  8
図枠
100
AcDbCircle
 10
847.0970268411001
 20
-353.8372829761001
 30
0.0
 40
1.199999999999999
100
AcDbArc
 50
270.0
 51
0.0
  0
LINE
  5
43
330
62B
100
AcDbEntity
  8
図枠
100
AcDbLine
 10
862.5994978082998
 20
-351.9972829761
 30
0.0
 11
862.5994978082998
 21
-353.4372829761
 31
0.0
  0
LINE
  5
44
330
62B
100
AcDbEntity
  8
図枠
100
AcDbLine
 10
850.2970268410999
 20
-353.4372829761
 30
0.0
 11
851.4970268411
 21
-353.4372829761
 31
0.0
  0
LINE
  5
45
330
62B
100
AcDbEntity
  8
図枠
100
AcDbLine
 10
865.9594978083001
 20
-356.6372829761
 30
0.0
 11
865.6309644749001
 21
-355.5172829761001
 31
0.0
  0
LINE
  5
46
330
62B
100
AcDbEntity
  8
図枠
100
AcDbLine
 10
847.0970268411001
 20
-355.0372829761
 30
0.0
 11
844.6970268410998
 21
-355.0372829761
 31
0.0
  0
LINE
  5
47
330
62B
100
AcDbEntity
  8
図枠
100
AcDbLine
 10
864.8303062863998
 20
-335.3634213496
 30
0.0
 11
864.8303062863998
 21
-337.6674213496
 31
0.0
  0
LINE
  5
48
330
62B
100
AcDbEntity
  8
図枠
  6
BORDER
100
AcDbLine
 10
859.5638254750999
 20
-333.0594213496
 30
0.0
 11
859.5638254750999
 21
-339.9714213496
 31
0.0
  0
LINE
  5
49
330
62B
100
AcDbEntity
  8
図枠
100
AcDbLine
 10
864.8303062863998
 20
-335.3634213496
 30
0.0
 11
864.8303062863998
 21
-337.6674213496
 31
0.0
  0
LINE
  5
4A
330
62B
100
AcDbEntity
  8
図枠
100
AcDbLine
 10
869.7994978082999
 20
-351.9972829761
 30
0.0
 11
869.7994978082999
 21
-353.4372829761
 31
0.0
  0
LINE
  5
4B
330
62B
100
AcDbEntity
  8
図枠
 62
     5
100
AcDbLine
 10
929.4998254750995
 20
-357.7654213496
 30
0.0
 11
744.4998254750998
 21
-357.7654213496
 31
0.0
  0
LINE
  5
4C
330
62B
100
AcDbEntity
  8
図枠
  6
DOT
100
AcDbLine
 10
935.9748254750998
 20
-364.8624213496
 30
0.0
 11
738.0248254750999
 21
-364.8624213496
 31
0.0
  0
LINE
  5
4D
330
62B
100
AcDbEntity
  8
図枠
  6
DOT
100
AcDbLine
 10
935.9748254750998
 20
-76.3954213496
 30
0.0
 11
738.0248254750999
 21
-76.3954213496
 31
0.0
  0
LINE
  5
4E
330
62B
100
AcDbEntity
  8
図枠
 62
     5
100
AcDbLine
 10
929.4998254750995
 20
-82.76542134960001
 30
0.0
 11
744.4998254750998
 21
-82.76542134960001
 31
0.0
  0
LINE
  5
4F
330
62B
100
AcDbEntity
  8
図枠
 62
     5
100
AcDbLine
 10
744.4998254750998
 20
-357.7654213496
 30
0.0
 11
744.4998254750998
 21
-82.76542134960001
 31
0.0
  0
LINE
  5
50
330
62B
100
AcDbEntity
  8
図枠
  6
DOT
100
AcDbLine
 10
738.0248254750999
 20
-364.8624213496
 30
0.0
 11
738.0248254750999
 21
-76.3954213496
 31
0.0
  0
LINE
  5
51
330
62B
100
AcDbEntity
  8
図枠
  6
DOT
100
AcDbLine
 10
935.9748254750998
 20
-364.8624213496
 30
0.0
 11
935.9748254750998
 21
-76.3954213496
 31
0.0
  0
LINE
  5
52
330
62B
100
AcDbEntity
  8
図枠
 62
     5
100
AcDbLine
 10
929.4998254750995
 20
-357.7654213496
 30
0.0
 11
929.4998254750995
 21
-82.76542134960001
 31
0.0
  0
POLYLINE
  5
37A
330
62B
100
AcDbEntity
  8
図枠
100
AcDb3dPolyline
 66
     1
 10
0.0
 20
0.0
 30
0.0
 70
     8
  0
VERTEX
  5
37B
330
37A
100
AcDbEntity
  8
図枠
100
AcDbVertex
100
AcDb3dPolylineVertex
 10
856.3730000000001
 20
-352.948
 30
0.0
 70
    32
  0
VERTEX
  5
37C
330
37A
100
AcDbEntity
  8
図枠
100
AcDbVertex
100
AcDb3dPolylineVertex
 10
856.3780000000001
 20
-352.953
 30
0.0
 70
    32
  0
VERTEX
  5
37D
330
37A
100
AcDbEntity
  8
図枠
100
AcDbVertex
100
AcDb3dPolylineVertex
 10
856.3839999999999
 20
-352.959
 30
0.0
 70
    32
  0
VERTEX
  5
37E
330
37A
100
AcDbEntity
  8
図枠
100
AcDbVertex
100
AcDb3dPolylineVertex
 10
856.3889999999998
 20
-352.965
 30
0.0
 70
    32
  0
VERTEX
  5
37F
330
37A
100
AcDbEntity
  8
図枠
100
AcDbVertex
100
AcDb3dPolylineVertex
 10
856.3939999999998
 20
-352.971
 30
0.0
 70
    32
  0
VERTEX
  5
380
330
37A
100
AcDbEntity
  8
図枠
100
AcDbVertex
100
AcDb3dPolylineVertex
 10
856.3989999999998
 20
-352.977
 30
0.0
 70
    32
  0
VERTEX
  5
381
330
37A
100
AcDbEntity
  8
図枠
100
AcDbVertex
100
AcDb3dPolylineVertex
 10
856.4049999999999
 20
-352.983
 30
0.0
 70
    32
  0
VERTEX
  5
382
330
37A
100
AcDbEntity
  8
図枠
100
AcDbVertex
100
AcDb3dPolylineVertex
 10
856.4099999999999
 20
-352.989
 30
0.0
 70
    32
  0
VERTEX
  5
383
330
37A
100
AcDbEntity
  8
図枠
100
AcDbVertex
100
AcDb3dPolylineVertex
 10
856.4149999999999
 20
-352.995
 30
0.0
 70
    32
  0
VERTEX
  5
384
330
37A
100
AcDbEntity
  8
図枠
100
AcDbVertex
100
AcDb3dPolylineVertex
 10
856.4199999999999
 20
-353.0
 30
0.0
 70
    32
  0
VERTEX
  5
385
330
37A
100
AcDbEntity
  8
図枠
100
AcDbVertex
100
AcDb3dPolylineVertex
 10
856.426
 20
-353.006
 30
0.0
 70
    32
  0
VERTEX
  5
386
330
37A
100
AcDbEntity
  8
図枠
100
AcDbVertex
100
AcDb3dPolylineVertex
 10
856.431
 20
-353.012
 30
0.0
 70
    32
  0
VERTEX
  5
387
330
37A
100
AcDbEntity
  8
図枠
100
AcDbVertex
100
AcDb3dPolylineVertex
 10
856.436
 20
-353.018
 30
0.0
 70
    32
  0
VERTEX
  5
388
330
37A
100
AcDbEntity
  8
図枠
100
AcDbVertex
100
AcDb3dPolylineVertex
 10
856.442
 20
-353.024
 30
0.0
 70
    32
  0
VERTEX
  5
389
330
37A
100
AcDbEntity
  8
図枠
100
AcDbVertex
100
AcDb3dPolylineVertex
 10
856.447
 20
-353.03
 30
0.0
 70
    32
  0
VERTEX
  5
38A
330
37A
100
AcDbEntity
  8
図枠
100
AcDbVertex
100
AcDb3dPolylineVertex
 10
856.4519999999999
 20
-353.036
 30
0.0
 70
    32
  0
VERTEX
  5
38B
330
37A
100
AcDbEntity
  8
図枠
100
AcDbVertex
100
AcDb3dPolylineVertex
 10
856.4569999999999
 20
-353.042
 30
0.0
 70
    32
  0
VERTEX
  5
38C
330
37A
100
AcDbEntity
  8
図枠
100
AcDbVertex
100
AcDb3dPolylineVertex
 10
856.4630000000001
 20
-353.048
 30
0.0
 70
    32
  0
VERTEX
  5
38D
330
37A
100
AcDbEntity
  8
図枠
100
AcDbVertex
100
AcDb3dPolylineVertex
 10
856.468
 20
-353.0530000000001
 30
0.0
 70
    32
  0
VERTEX
  5
38E
330
37A
100
AcDbEntity
  8
図枠
100
AcDbVertex
100
AcDb3dPolylineVertex
 10
856.473
 20
-353.059
 30
0.0
 70
    32
  0
VERTEX
  5
38F
330
37A
100
AcDbEntity
  8
図枠
100
AcDbVertex
100
AcDb3dPolylineVertex
 10
856.479
 20
-353.065
 30
0.0
 70
    32
  0
VERTEX
  5
390
330
37A
100
AcDbEntity
  8
図枠
100
AcDbVertex
100
AcDb3dPolylineVertex
 10
856.484
 20
-353.071
 30
0.0
 70
    32
  0
VERTEX
  5
391
330
37A
100
AcDbEntity
  8
図枠
100
AcDbVertex
100
AcDb3dPolylineVertex
 10
856.489
 20
-353.077
 30
0.0
 70
    32
  0
VERTEX
  5
392
330
37A
100
AcDbEntity
  8
図枠
100
AcDbVertex
100
AcDb3dPolylineVertex
 10
856.4949999999999
 20
-353.083
 30
0.0
 70
    32
  0
VERTEX
  5
393
330
37A
100
AcDbEntity
  8
図枠
100
AcDbVertex
100
AcDb3dPolylineVertex
 10
856.4999999999999
 20
-353.089
 30
0.0
 70
    32
  0
VERTEX
  5
394
330
37A
100
AcDbEntity
  8
図枠
100
AcDbVertex
100
AcDb3dPolylineVertex
 10
856.5049999999999
 20
-353.094
 30
0.0
 70
    32
  0
VERTEX
  5
395
330
37A
100
AcDbEntity
  8
図枠
100
AcDbVertex
100
AcDb3dPolylineVertex
 10
856.5099999999999
 20
-353.1
 30
0.0
 70
    32
  0
VERTEX
  5
396
330
37A
100
AcDbEntity
  8
図枠
100
AcDbVertex
100
AcDb3dPolylineVertex
 10
856.516
 20
-353.106
 30
0.0
 70
    32
  0
VERTEX
  5
397
330
37A
100
AcDbEntity
  8
図枠
100
AcDbVertex
100
AcDb3dPolylineVertex
 10
856.521
 20
-353.112
 30
0.0
 70
    32
  0
VERTEX
  5
398
330
37A
100
AcDbEntity
  8
図枠
100
AcDbVertex
100
AcDb3dPolylineVertex
 10
856.526
 20
-353.118
 30
0.0
 70
    32
  0
VERTEX
  5
399
330
37A
100
AcDbEntity
  8
図枠
100
AcDbVertex
100
AcDb3dPolylineVertex
 10
856.5319999999999
 20
-353.124
 30
0.0
 70
    32
  0
VERTEX
  5
39A
330
37A
100
AcDbEntity
  8
図枠
100
AcDbVertex
100
AcDb3dPolylineVertex
 10
856.5369999999999
 20
-353.13
 30
0.0
 70
    32
  0
VERTEX
  5
39B
330
37A
100
AcDbEntity
  8
図枠
100
AcDbVertex
100
AcDb3dPolylineVertex
 10
856.5419999999999
 20
-353.135
 30
0.0
 70
    32
  0
VERTEX
  5
39C
330
37A
100
AcDbEntity
  8
図枠
100
AcDbVertex
100
AcDb3dPolylineVertex
 10
856.548
 20
-353.141
 30
0.0
 70
    32
  0
VERTEX
  5
39D
330
37A
100
AcDbEntity
  8
図枠
100
AcDbVertex
100
AcDb3dPolylineVertex
 10
856.553
 20
-353.147
 30
0.0
 70
    32
  0
VERTEX
  5
39E
330
37A
100
AcDbEntity
  8
図枠
100
AcDbVertex
100
AcDb3dPolylineVertex
 10
856.558
 20
-353.153
 30
0.0
 70
    32
  0
VERTEX
  5
39F
330
37A
100
AcDbEntity
  8
図枠
100
AcDbVertex
100
AcDb3dPolylineVertex
 10
856.563
 20
-353.159
 30
0.0
 70
    32
  0
VERTEX
  5
3A0
330
37A
100
AcDbEntity
  8
図枠
100
AcDbVertex
100
AcDb3dPolylineVertex
 10
856.569
 20
-353.165
 30
0.0
 70
    32
  0
VERTEX
  5
3A1
330
37A
100
AcDbEntity
  8
図枠
100
AcDbVertex
100
AcDb3dPolylineVertex
 10
856.5739999999999
 20
-353.17
 30
0.0
 70
    32
  0
VERTEX
  5
3A2
330
37A
100
AcDbEntity
  8
図枠
100
AcDbVertex
100
AcDb3dPolylineVertex
 10
856.5789999999999
 20
-353.176
 30
0.0
 70
    32
  0
VERTEX
  5
3A3
330
37A
100
AcDbEntity
  8
図枠
100
AcDbVertex
100
AcDb3dPolylineVertex
 10
856.5850000000001
 20
-353.182
 30
0.0
 70
    32
  0
VERTEX
  5
3A4
330
37A
100
AcDbEntity
  8
図枠
100
AcDbVertex
100
AcDb3dPolylineVertex
 10
856.59
 20
-353.1880000000001
 30
0.0
 70
    32
  0
VERTEX
  5
3A5
330
37A
100
AcDbEntity
  8
図枠
100
AcDbVertex
100
AcDb3dPolylineVertex
 10
856.595
 20
-353.194
 30
0.0
 70
    32
  0
VERTEX
  5
3A6
330
37A
100
AcDbEntity
  8
図枠
100
AcDbVertex
100
AcDb3dPolylineVertex
 10
856.6010000000002
 20
-353.199
 30
0.0
 70
    32
  0
VERTEX
  5
3A7
330
37A
100
AcDbEntity
  8
図枠
100
AcDbVertex
100
AcDb3dPolylineVertex
 10
856.6060000000002
 20
-353.205
 30
0.0
 70
    32
  0
VERTEX
  5
3A8
330
37A
100
AcDbEntity
  8
図枠
100
AcDbVertex
100
AcDb3dPolylineVertex
 10
856.6110000000001
 20
-353.211
 30
0.0
 70
    32
  0
VERTEX
  5
3A9
330
37A
100
AcDbEntity
  8
図枠
100
AcDbVertex
100
AcDb3dPolylineVertex
 10
856.6169999999999
 20
-353.217
 30
0.0
 70
    32
  0
VERTEX
  5
3AA
330
37A
100
AcDbEntity
  8
図枠
100
AcDbVertex
100
AcDb3dPolylineVertex
 10
856.6219999999999
 20
-353.223
 30
0.0
 70
    32
  0
VERTEX
  5
3AB
330
37A
100
AcDbEntity
  8
図枠
100
AcDbVertex
100
AcDb3dPolylineVertex
 10
856.6269999999999
 20
-353.228
 30
0.0
 70
    32
  0
VERTEX
  5
3AC
330
37A
100
AcDbEntity
  8
図枠
100
AcDbVertex
100
AcDb3dPolylineVertex
 10
856.633
 20
-353.234
 30
0.0
 70
    32
  0
VERTEX
  5
3AD
330
37A
100
AcDbEntity
  8
図枠
100
AcDbVertex
100
AcDb3dPolylineVertex
 10
856.638
 20
-353.24
 30
0.0
 70
    32
  0
VERTEX
  5
3AE
330
37A
100
AcDbEntity
  8
図枠
100
AcDbVertex
100
AcDb3dPolylineVertex
 10
856.643
 20
-353.246
 30
0.0
 70
    32
  0
VERTEX
  5
3AF
330
37A
100
AcDbEntity
  8
図枠
100
AcDbVertex
100
AcDb3dPolylineVertex
 10
856.6489999999999
 20
-353.2519999999999
 30
0.0
 70
    32
  0
VERTEX
  5
3B0
330
37A
100
AcDbEntity
  8
図枠
100
AcDbVertex
100
AcDb3dPolylineVertex
 10
856.6539999999999
 20
-353.257
 30
0.0
 70
    32
  0
VERTEX
  5
3B1
330
37A
100
AcDbEntity
  8
図枠
100
AcDbVertex
100
AcDb3dPolylineVertex
 10
856.6589999999999
 20
-353.2630000000001
 30
0.0
 70
    32
  0
VERTEX
  5
3B2
330
37A
100
AcDbEntity
  8
図枠
100
AcDbVertex
100
AcDb3dPolylineVertex
 10
856.6649999999999
 20
-353.269
 30
0.0
 70
    32
  0
VERTEX
  5
3B3
330
37A
100
AcDbEntity
  8
図枠
100
AcDbVertex
100
AcDb3dPolylineVertex
 10
856.6699999999999
 20
-353.275
 30
0.0
 70
    32
  0
VERTEX
  5
3B4
330
37A
100
AcDbEntity
  8
図枠
100
AcDbVertex
100
AcDb3dPolylineVertex
 10
856.676
 20
-353.28
 30
0.0
 70
    32
  0
VERTEX
  5
3B5
330
37A
100
AcDbEntity
  8
図枠
100
AcDbVertex
100
AcDb3dPolylineVertex
 10
856.681
 20
-353.286
 30
0.0
 70
    32
  0
VERTEX
  5
3B6
330
37A
100
AcDbEntity
  8
図枠
100
AcDbVertex
100
AcDb3dPolylineVertex
 10
856.686
 20
-353.292
 30
0.0
 70
    32
  0
VERTEX
  5
3B7
330
37A
100
AcDbEntity
  8
図枠
100
AcDbVertex
100
AcDb3dPolylineVertex
 10
856.6919999999999
 20
-353.298
 30
0.0
 70
    32
  0
VERTEX
  5
3B8
330
37A
100
AcDbEntity
  8
図枠
100
AcDbVertex
100
AcDb3dPolylineVertex
 10
856.6969999999999
 20
-353.3030000000001
 30
0.0
 70
    32
  0
VERTEX
  5
3B9
330
37A
100
AcDbEntity
  8
図枠
100
AcDbVertex
100
AcDb3dPolylineVertex
 10
856.7019999999999
 20
-353.309
 30
0.0
 70
    32
  0
VERTEX
  5
3BA
330
37A
100
AcDbEntity
  8
図枠
100
AcDbVertex
100
AcDb3dPolylineVertex
 10
856.708
 20
-353.315
 30
0.0
 70
    32
  0
VERTEX
  5
3BB
330
37A
100
AcDbEntity
  8
図枠
100
AcDbVertex
100
AcDb3dPolylineVertex
 10
856.713
 20
-353.32
 30
0.0
 70
    32
  0
VERTEX
  5
3BC
330
37A
100
AcDbEntity
  8
図枠
100
AcDbVertex
100
AcDb3dPolylineVertex
 10
856.719
 20
-353.326
 30
0.0
 70
    32
  0
VERTEX
  5
3BD
330
37A
100
AcDbEntity
  8
図枠
100
AcDbVertex
100
AcDb3dPolylineVertex
 10
856.7239999999999
 20
-353.332
 30
0.0
 70
    32
  0
VERTEX
  5
3BE
330
37A
100
AcDbEntity
  8
図枠
100
AcDbVertex
100
AcDb3dPolylineVertex
 10
856.7289999999999
 20
-353.338
 30
0.0
 70
    32
  0
VERTEX
  5
3BF
330
37A
100
AcDbEntity
  8
図枠
100
AcDbVertex
100
AcDb3dPolylineVertex
 10
856.7350000000001
 20
-353.343
 30
0.0
 70
    32
  0
VERTEX
  5
3C0
330
37A
100
AcDbEntity
  8
図枠
100
AcDbVertex
100
AcDb3dPolylineVertex
 10
856.7400000000001
 20
-353.349
 30
0.0
 70
    32
  0
VERTEX
  5
3C1
330
37A
100
AcDbEntity
  8
図枠
100
AcDbVertex
100
AcDb3dPolylineVertex
 10
856.746
 20
-353.355
 30
0.0
 70
    32
  0
VERTEX
  5
3C2
330
37A
100
AcDbEntity
  8
図枠
100
AcDbVertex
100
AcDb3dPolylineVertex
 10
856.751
 20
-353.36
 30
0.0
 70
    32
  0
VERTEX
  5
3C3
330
37A
100
AcDbEntity
  8
図枠
100
AcDbVertex
100
AcDb3dPolylineVertex
 10
856.756
 20
-353.366
 30
0.0
 70
    32
  0
VERTEX
  5
3C4
330
37A
100
AcDbEntity
  8
図枠
100
AcDbVertex
100
AcDb3dPolylineVertex
 10
856.7619999999999
 20
-353.372
 30
0.0
 70
    32
  0
VERTEX
  5
3C5
330
37A
100
AcDbEntity
  8
図枠
100
AcDbVertex
100
AcDb3dPolylineVertex
 10
856.7669999999999
 20
-353.377
 30
0.0
 70
    32
  0
VERTEX
  5
3C6
330
37A
100
AcDbEntity
  8
図枠
100
AcDbVertex
100
AcDb3dPolylineVertex
 10
856.773
 20
-353.383
 30
0.0
 70
    32
  0
VERTEX
  5
3C7
330
37A
100
AcDbEntity
  8
図枠
100
AcDbVertex
100
AcDb3dPolylineVertex
 10
856.778
 20
-353.388
 30
0.0
 70
    32
  0
VERTEX
  5
3C8
330
37A
100
AcDbEntity
  8
図枠
100
AcDbVertex
100
AcDb3dPolylineVertex
 10
856.784
 20
-353.394
 30
0.0
 70
    32
  0
VERTEX
  5
3C9
330
37A
100
AcDbEntity
  8
図枠
100
AcDbVertex
100
AcDb3dPolylineVertex
 10
856.789
 20
-353.4
 30
0.0
 70
    32
  0
VERTEX
  5
3CA
330
37A
100
AcDbEntity
  8
図枠
100
AcDbVertex
100
AcDb3dPolylineVertex
 10
856.7949999999999
 20
-353.405
 30
0.0
 70
    32
  0
VERTEX
  5
3CB
330
37A
100
AcDbEntity
  8
図枠
100
AcDbVertex
100
AcDb3dPolylineVertex
 10
856.7999999999999
 20
-353.411
 30
0.0
 70
    32
  0
VERTEX
  5
3CC
330
37A
100
AcDbEntity
  8
図枠
100
AcDbVertex
100
AcDb3dPolylineVertex
 10
856.8049999999999
 20
-353.417
 30
0.0
 70
    32
  0
VERTEX
  5
3CD
330
37A
100
AcDbEntity
  8
図枠
100
AcDbVertex
100
AcDb3dPolylineVertex
 10
856.811
 20
-353.422
 30
0.0
 70
    32
  0
VERTEX
  5
3CE
330
37A
100
AcDbEntity
  8
図枠
100
AcDbVertex
100
AcDb3dPolylineVertex
 10
856.816
 20
-353.4280000000001
 30
0.0
 70
    32
  0
VERTEX
  5
3CF
330
37A
100
AcDbEntity
  8
図枠
100
AcDbVertex
100
AcDb3dPolylineVertex
 10
856.822
 20
-353.4330000000001
 30
0.0
 70
    32
  0
VERTEX
  5
3D0
330
37A
100
AcDbEntity
  8
図枠
100
AcDbVertex
100
AcDb3dPolylineVertex
 10
856.827
 20
-353.439
 30
0.0
 70
    32
  0
VERTEX
  5
3D1
330
37A
100
AcDbEntity
  8
図枠
100
AcDbVertex
100
AcDb3dPolylineVertex
 10
856.8330000000001
 20
-353.444
 30
0.0
 70
    32
  0
VERTEX
  5
3D2
330
37A
100
AcDbEntity
  8
図枠
100
AcDbVertex
100
AcDb3dPolylineVertex
 10
856.8380000000001
 20
-353.45
 30
0.0
 70
    32
  0
VERTEX
  5
3D3
330
37A
100
AcDbEntity
  8
図枠
100
AcDbVertex
100
AcDb3dPolylineVertex
 10
856.8439999999998
 20
-353.4559999999999
 30
0.0
 70
    32
  0
VERTEX
  5
3D4
330
37A
100
AcDbEntity
  8
図枠
100
AcDbVertex
100
AcDb3dPolylineVertex
 10
856.8489999999998
 20
-353.461
 30
0.0
 70
    32
  0
VERTEX
  5
3D5
330
37A
100
AcDbEntity
  8
図枠
100
AcDbVertex
100
AcDb3dPolylineVertex
 10
856.855
 20
-353.467
 30
0.0
 70
    32
  0
VERTEX
  5
3D6
330
37A
100
AcDbEntity
  8
図枠
100
AcDbVertex
100
AcDb3dPolylineVertex
 10
856.8599999999999
 20
-353.472
 30
0.0
 70
    32
  0
VERTEX
  5
3D7
330
37A
100
AcDbEntity
  8
図枠
100
AcDbVertex
100
AcDb3dPolylineVertex
 10
856.8660000000001
 20
-353.478
 30
0.0
 70
    32
  0
VERTEX
  5
3D8
330
37A
100
AcDbEntity
  8
図枠
100
AcDbVertex
100
AcDb3dPolylineVertex
 10
856.8710000000001
 20
-353.483
 30
0.0
 70
    32
  0
VERTEX
  5
3D9
330
37A
100
AcDbEntity
  8
図枠
100
AcDbVertex
100
AcDb3dPolylineVertex
 10
856.8769999999998
 20
-353.489
 30
0.0
 70
    32
  0
VERTEX
  5
3DA
330
37A
100
AcDbEntity
  8
図枠
100
AcDbVertex
100
AcDb3dPolylineVertex
 10
856.882
 20
-353.494
 30
0.0
 70
    32
  0
VERTEX
  5
3DB
330
37A
100
AcDbEntity
  8
図枠
100
AcDbVertex
100
AcDb3dPolylineVertex
 10
856.888
 20
-353.5
 30
0.0
 70
    32
  0
VERTEX
  5
3DC
330
37A
100
AcDbEntity
  8
図枠
100
AcDbVertex
100
AcDb3dPolylineVertex
 10
856.8929999999999
 20
-353.505
 30
0.0
 70
    32
  0
VERTEX
  5
3DD
330
37A
100
AcDbEntity
  8
図枠
100
AcDbVertex
100
AcDb3dPolylineVertex
 10
856.8989999999999
 20
-353.5109999999999
 30
0.0
 70
    32
  0
VERTEX
  5
3DE
330
37A
100
AcDbEntity
  8
図枠
100
AcDbVertex
100
AcDb3dPolylineVertex
 10
856.9039999999999
 20
-353.516
 30
0.0
 70
    32
  0
VERTEX
  5
3DF
330
37A
100
AcDbEntity
  8
図枠
100
AcDbVertex
100
AcDb3dPolylineVertex
 10
856.91
 20
-353.522
 30
0.0
 70
    32
  0
VERTEX
  5
3E0
330
37A
100
AcDbEntity
  8
図枠
100
AcDbVertex
100
AcDb3dPolylineVertex
 10
856.916
 20
-353.527
 30
0.0
 70
    32
  0
VERTEX
  5
3E1
330
37A
100
AcDbEntity
  8
図枠
100
AcDbVertex
100
AcDb3dPolylineVertex
 10
856.9209999999999
 20
-353.532
 30
0.0
 70
    32
  0
VERTEX
  5
3E2
330
37A
100
AcDbEntity
  8
図枠
100
AcDbVertex
100
AcDb3dPolylineVertex
 10
856.9270000000001
 20
-353.538
 30
0.0
 70
    32
  0
VERTEX
  5
3E3
330
37A
100
AcDbEntity
  8
図枠
100
AcDbVertex
100
AcDb3dPolylineVertex
 10
856.9320000000001
 20
-353.543
 30
0.0
 70
    32
  0
VERTEX
  5
3E4
330
37A
100
AcDbEntity
  8
図枠
100
AcDbVertex
100
AcDb3dPolylineVertex
 10
856.938
 20
-353.549
 30
0.0
 70
    32
  0
VERTEX
  5
3E5
330
37A
100
AcDbEntity
  8
図枠
100
AcDbVertex
100
AcDb3dPolylineVertex
 10
856.943
 20
-353.5540000000001
 30
0.0
 70
    32
  0
VERTEX
  5
3E6
330
37A
100
AcDbEntity
  8
図枠
100
AcDbVertex
100
AcDb3dPolylineVertex
 10
856.949
 20
-353.559
 30
0.0
 70
    32
  0
VERTEX
  5
3E7
330
37A
100
AcDbEntity
  8
図枠
100
AcDbVertex
100
AcDb3dPolylineVertex
 10
856.9550000000001
 20
-353.565
 30
0.0
 70
    32
  0
VERTEX
  5
3E8
330
37A
100
AcDbEntity
  8
図枠
100
AcDbVertex
100
AcDb3dPolylineVertex
 10
856.9600000000001
 20
-353.57
 30
0.0
 70
    32
  0
VERTEX
  5
3E9
330
37A
100
AcDbEntity
  8
図枠
100
AcDbVertex
100
AcDb3dPolylineVertex
 10
856.966
 20
-353.576
 30
0.0
 70
    32
  0
VERTEX
  5
3EA
330
37A
100
AcDbEntity
  8
図枠
100
AcDbVertex
100
AcDb3dPolylineVertex
 10
856.971
 20
-353.581
 30
0.0
 70
    32
  0
VERTEX
  5
3EB
330
37A
100
AcDbEntity
  8
図枠
100
AcDbVertex
100
AcDb3dPolylineVertex
 10
856.977
 20
-353.586
 30
0.0
 70
    32
  0
VERTEX
  5
3EC
330
37A
100
AcDbEntity
  8
図枠
100
AcDbVertex
100
AcDb3dPolylineVertex
 10
856.9830000000001
 20
-353.592
 30
0.0
 70
    32
  0
VERTEX
  5
3ED
330
37A
100
AcDbEntity
  8
図枠
100
AcDbVertex
100
AcDb3dPolylineVertex
 10
856.9880000000001
 20
-353.597
 30
0.0
 70
    32
  0
VERTEX
  5
3EE
330
37A
100
AcDbEntity
  8
図枠
100
AcDbVertex
100
AcDb3dPolylineVertex
 10
856.9939999999999
 20
-353.602
 30
0.0
 70
    32
  0
VERTEX
  5
3EF
330
37A
100
AcDbEntity
  8
図枠
100
AcDbVertex
100
AcDb3dPolylineVertex
 10
857.0
 20
-353.608
 30
0.0
 70
    32
  0
VERTEX
  5
3F0
330
37A
100
AcDbEntity
  8
図枠
100
AcDbVertex
100
AcDb3dPolylineVertex
 10
857.005
 20
-353.613
 30
0.0
 70
    32
  0
VERTEX
  5
3F1
330
37A
100
AcDbEntity
  8
図枠
100
AcDbVertex
100
AcDb3dPolylineVertex
 10
857.0110000000001
 20
-353.6180000000001
 30
0.0
 70
    32
  0
VERTEX
  5
3F2
330
37A
100
AcDbEntity
  8
図枠
100
AcDbVertex
100
AcDb3dPolylineVertex
 10
857.0169999999999
 20
-353.6230000000001
 30
0.0
 70
    32
  0
VERTEX
  5
3F3
330
37A
100
AcDbEntity
  8
図枠
100
AcDbVertex
100
AcDb3dPolylineVertex
 10
857.0219999999999
 20
-353.629
 30
0.0
 70
    32
  0
VERTEX
  5
3F4
330
37A
100
AcDbEntity
  8
図枠
100
AcDbVertex
100
AcDb3dPolylineVertex
 10
857.028
 20
-353.634
 30
0.0
 70
    32
  0
VERTEX
  5
3F5
330
37A
100
AcDbEntity
  8
図枠
100
AcDbVertex
100
AcDb3dPolylineVertex
 10
857.0339999999999
 20
-353.639
 30
0.0
 70
    32
  0
VERTEX
  5
3F6
330
37A
100
AcDbEntity
  8
図枠
100
AcDbVertex
100
AcDb3dPolylineVertex
 10
857.0389999999999
 20
-353.644
 30
0.0
 70
    32
  0
VERTEX
  5
3F7
330
37A
100
AcDbEntity
  8
図枠
100
AcDbVertex
100
AcDb3dPolylineVertex
 10
857.0449999999999
 20
-353.65
 30
0.0
 70
    32
  0
VERTEX
  5
3F8
330
37A
100
AcDbEntity
  8
図枠
100
AcDbVertex
100
AcDb3dPolylineVertex
 10
857.051
 20
-353.655
 30
0.0
 70
    32
  0
VERTEX
  5
3F9
330
37A
100
AcDbEntity
  8
図枠
100
AcDbVertex
100
AcDb3dPolylineVertex
 10
857.056
 20
-353.66
 30
0.0
 70
    32
  0
VERTEX
  5
3FA
330
37A
100
AcDbEntity
  8
図枠
100
AcDbVertex
100
AcDb3dPolylineVertex
 10
857.0619999999999
 20
-353.665
 30
0.0
 70
    32
  0
SEQEND
  5
3FB
330
37A
100
AcDbEntity
  8
図枠
  0
LINE
  5
54
330
62B
100
AcDbEntity
  8
図枠
100
AcDbLine
 10
864.8303062863998
 20
-335.3634213496
 30
0.0
 11
864.8303062863998
 21
-337.6674213496
 31
0.0
  0
LINE
  5
55
330
62B
100
AcDbEntity
  8
図枠
100
AcDbLine
 10
869.4383062864
 20
-334.2114213496
 30
0.0
 11
869.4383062864
 21
-338.8194213496
 31
0.0
  0
CIRCLE
  5
56
330
62B
100
AcDbEntity
  8
図枠
100
AcDbCircle
 10
859.5638254750999
 20
-336.5154213496
 30
0.0
 40
1.151999999999999
  0
LINE
  5
57
330
62B
100
AcDbEntity
  8
図枠
  6
BORDER
100
AcDbLine
 10
856.1078254750999
 20
-336.5154213496
 30
0.0
 11
870.8918254750999
 21
-336.5154213496
 31
0.0
  0
CIRCLE
  5
58
330
62B
100
AcDbEntity
  8
図枠
100
AcDbCircle
 10
859.5638254750999
 20
-336.5154213496
 30
0.0
 40
1.151999999999999
  0
LINE
  5
59
330
62B
100
AcDbEntity
  8
図枠
100
AcDbLine
 10
864.8303062863998
 20
-335.3634213496
 30
0.0
 11
869.4383062864
 21
-334.2114213496
 31
0.0
  0
LINE
  5
5A
330
62B
100
AcDbEntity
  8
図枠
100
AcDbLine
 10
864.8303062863998
 20
-337.6674213496
 30
0.0
 11
869.4383062864
 21
-338.8194213496
 31
0.0
  0
LINE
  5
5B
330
62B
100
AcDbEntity
  8
図枠
100
AcDbLine
 10
864.8303062863998
 20
-335.3634213496
 30
0.0
 11
864.8303062863998
 21
-337.6674213496
 31
0.0
  0
LINE
  5
5C
330
62B
100
AcDbEntity
  8
図枠
100
AcDbLine
 10
844.6970268410998
 20
-356.2372829761
 30
0.0
 11
847.8970268411
 21
-356.2372829761
 31
0.0
  0
LINE
  5
5D
330
62B
100
AcDbEntity
  8
図枠
100
AcDbLine
 10
853.6255116896001
 20
-356.2372829761
 30
0.0
 11
855.6255116896
 21
-356.2372829761
 31
0.0
  0
LINE
  5
5E
330
62B
100
AcDbEntity
  8
図枠
100
AcDbLine
 10
856.8255116896001
 20
-352.4949711901001
 30
0.0
 11
856.3729633497001
 21
-352.94751953
 31
0.0
  0
LINE
  5
5F
330
62B
100
AcDbEntity
  8
図枠
100
AcDbLine
 10
853.6255116896001
 20
-352.7526594041
 30
0.0
 11
853.6255116896001
 21
-352.4949711901001
 31
0.0
  0
LINE
  5
60
330
62B
100
AcDbEntity
  8
図枠
100
AcDbLine
 10
848.2970268410998
 20
-353.4372829761
 30
0.0
 11
848.2970268410998
 21
-353.8372829761001
 31
0.0
  0
ARC
  5
61
330
62B
100
AcDbEntity
  8
図枠
100
AcDbCircle
 10
854.5855116895999
 20
-351.9972829761
 30
0.0
 40
3.04
100
AcDbArc
 50
331.3992813833
 51
358.4920422458
  0
ARC
  5
62
330
62B
100
AcDbEntity
  8
図枠
100
AcDbCircle
 10
855.6255116896
 20
-351.8372829761001
 30
0.0
 40
4.4
100
AcDbArc
 50
322.4876119797
 51
0.0
  0
LINE
  5
63
330
62B
100
AcDbEntity
  8
図枠
100
AcDbLine
 10
853.6255116896001
 20
-356.2372829761
 30
0.0
 11
853.6255116896001
 21
-355.0372829761
 31
0.0
  0
CIRCLE
  5
64
330
62B
100
AcDbEntity
  8
図枠
100
AcDbCircle
 10
859.5638254750999
 20
-336.5154213496
 30
0.0
 40
2.303999999999999
  0
INSERT
  5
65
330
62B
100
AcDbEntity
  8
0
  6
Continuous
100
AcDbBlockReference
  2
*U4
 10
0.0
 20
0.0
 30
0.0
  0
INSERT
  5
66
330
62B
100
AcDbEntity
  8
0
  6
Continuous
100
AcDbBlockReference
  2
*U5
 10
0.0
 20
0.0
 30
0.0
  0
LINE
  5
67
330
62B
100
AcDbEntity
  8
図枠
100
AcDbLine
 10
844.6970268410998
 20
-353.4372829761
 30
0.0
 11
844.6970268410998
 21
-354.6372829761
 31
0.0
  0
LINE
  5
68
330
62B
100
AcDbEntity
  8
図枠
100
AcDbLine
 10
844.6970268410998
 20
-350.6372829761
 30
0.0
 11
844.6970268410998
 21
-352.2372829761
 31
0.0
  0
LINE
  5
69
330
62B
100
AcDbEntity
  8
図枠
100
AcDbLine
 10
864.5984311416
 20
-351.9972829761
 30
0.0
 11
864.1994978083001
 21
-350.6372829761
 31
0.0
  0
LINE
  5
6A
330
62B
100
AcDbEntity
  8
図枠
100
AcDbLine
 10
866.8642692930998
 20
-351.9972829761
 30
0.0
 11
869.7994978082999
 21
-351.9972829761
 31
0.0
  0
INSERT
  5
6B
330
62B
100
AcDbEntity
  8
0
  6
Continuous
100
AcDbBlockReference
  2
*U6
 10
0.0
 20
0.0
 30
0.0
  0
POLYLINE
  5
3FC
330
62B
100
AcDbEntity
  8
図枠
100
AcDb3dPolyline
 66
     1
 10
0.0
 20
0.0
 30
0.0
 70
     8
  0
VERTEX
  5
3FD
330
3FC
100
AcDbEntity
  8
図枠
100
AcDbVertex
100
AcDb3dPolylineVertex
 10
858.9730000000001
 20
-354.656
 30
0.0
 70
    32
  0
VERTEX
  5
3FE
330
3FC
100
AcDbEntity
  8
図枠
100
AcDbVertex
100
AcDb3dPolylineVertex
 10
858.9869999999999
 20
-354.66
 30
0.0
 70
    32
  0
VERTEX
  5
3FF
330
3FC
100
AcDbEntity
  8
図枠
100
AcDbVertex
100
AcDb3dPolylineVertex
 10
859.0010000000001
 20
-354.664
 30
0.0
 70
    32
  0
VERTEX
  5
400
330
3FC
100
AcDbEntity
  8
図枠
100
AcDbVertex
100
AcDb3dPolylineVertex
 10
859.0149999999999
 20
-354.668
 30
0.0
 70
    32
  0
VERTEX
  5
401
330
3FC
100
AcDbEntity
  8
図枠
100
AcDbVertex
100
AcDb3dPolylineVertex
 10
859.0289999999999
 20
-354.672
 30
0.0
 70
    32
  0
VERTEX
  5
402
330
3FC
100
AcDbEntity
  8
図枠
100
AcDbVertex
100
AcDb3dPolylineVertex
 10
859.0429999999999
 20
-354.676
 30
0.0
 70
    32
  0
VERTEX
  5
403
330
3FC
100
AcDbEntity
  8
図枠
100
AcDbVertex
100
AcDb3dPolylineVertex
 10
859.0569999999999
 20
-354.68
 30
0.0
 70
    32
  0
VERTEX
  5
404
330
3FC
100
AcDbEntity
  8
図枠
100
AcDbVertex
100
AcDb3dPolylineVertex
 10
859.0709999999999
 20
-354.683
 30
0.0
 70
    32
  0
VERTEX
  5
405
330
3FC
100
AcDbEntity
  8
図枠
100
AcDbVertex
100
AcDb3dPolylineVertex
 10
859.0850000000001
 20
-354.687
 30
0.0
 70
    32
  0
VERTEX
  5
406
330
3FC
100
AcDbEntity
  8
図枠
100
AcDbVertex
100
AcDb3dPolylineVertex
 10
859.1000000000001
 20
-354.691
 30
0.0
 70
    32
  0
VERTEX
  5
407
330
3FC
100
AcDbEntity
  8
図枠
100
AcDbVertex
100
AcDb3dPolylineVertex
 10
859.1139999999999
 20
-354.695
 30
0.0
 70
    32
  0
VERTEX
  5
408
330
3FC
100
AcDbEntity
  8
図枠
100
AcDbVertex
100
AcDb3dPolylineVertex
 10
859.1280000000001
 20
-354.698
 30
0.0
 70
    32
  0
VERTEX
  5
409
330
3FC
100
AcDbEntity
  8
図枠
100
AcDbVertex
100
AcDb3dPolylineVertex
 10
859.1419999999999
 20
-354.702
 30
0.0
 70
    32
  0
VERTEX
  5
40A
330
3FC
100
AcDbEntity
  8
図枠
100
AcDbVertex
100
AcDb3dPolylineVertex
 10
859.1560000000001
 20
-354.706
 30
0.0
 70
    32
  0
VERTEX
  5
40B
330
3FC
100
AcDbEntity
  8
図枠
100
AcDbVertex
100
AcDb3dPolylineVertex
 10
859.1699999999999
 20
-354.71
 30
0.0
 70
    32
  0
VERTEX
  5
40C
330
3FC
100
AcDbEntity
  8
図枠
100
AcDbVertex
100
AcDb3dPolylineVertex
 10
859.1839999999999
 20
-354.713
 30
0.0
 70
    32
  0
VERTEX
  5
40D
330
3FC
100
AcDbEntity
  8
図枠
100
AcDbVertex
100
AcDb3dPolylineVertex
 10
859.1989999999999
 20
-354.717
 30
0.0
 70
    32
  0
VERTEX
  5
40E
330
3FC
100
AcDbEntity
  8
図枠
100
AcDbVertex
100
AcDb3dPolylineVertex
 10
859.213
 20
-354.721
 30
0.0
 70
    32
  0
VERTEX
  5
40F
330
3FC
100
AcDbEntity
  8
図枠
100
AcDbVertex
100
AcDb3dPolylineVertex
 10
859.2269999999999
 20
-354.724
 30
0.0
 70
    32
  0
VERTEX
  5
410
330
3FC
100
AcDbEntity
  8
図枠
100
AcDbVertex
100
AcDb3dPolylineVertex
 10
859.241
 20
-354.728
 30
0.0
 70
    32
  0
VERTEX
  5
411
330
3FC
100
AcDbEntity
  8
図枠
100
AcDbVertex
100
AcDb3dPolylineVertex
 10
859.256
 20
-354.731
 30
0.0
 70
    32
  0
VERTEX
  5
412
330
3FC
100
AcDbEntity
  8
図枠
100
AcDbVertex
100
AcDb3dPolylineVertex
 10
859.27
 20
-354.735
 30
0.0
 70
    32
  0
VERTEX
  5
413
330
3FC
100
AcDbEntity
  8
図枠
100
AcDbVertex
100
AcDb3dPolylineVertex
 10
859.284
 20
-354.738
 30
0.0
 70
    32
  0
VERTEX
  5
414
330
3FC
100
AcDbEntity
  8
図枠
100
AcDbVertex
100
AcDb3dPolylineVertex
 10
859.298
 20
-354.742
 30
0.0
 70
    32
  0
VERTEX
  5
415
330
3FC
100
AcDbEntity
  8
図枠
100
AcDbVertex
100
AcDb3dPolylineVertex
 10
859.313
 20
-354.745
 30
0.0
 70
    32
  0
VERTEX
  5
416
330
3FC
100
AcDbEntity
  8
図枠
100
AcDbVertex
100
AcDb3dPolylineVertex
 10
859.327
 20
-354.749
 30
0.0
 70
    32
  0
VERTEX
  5
417
330
3FC
100
AcDbEntity
  8
図枠
100
AcDbVertex
100
AcDb3dPolylineVertex
 10
859.341
 20
-354.752
 30
0.0
 70
    32
  0
VERTEX
  5
418
330
3FC
100
AcDbEntity
  8
図枠
100
AcDbVertex
100
AcDb3dPolylineVertex
 10
859.3560000000001
 20
-354.756
 30
0.0
 70
    32
  0
VERTEX
  5
419
330
3FC
100
AcDbEntity
  8
図枠
100
AcDbVertex
100
AcDb3dPolylineVertex
 10
859.37
 20
-354.759
 30
0.0
 70
    32
  0
VERTEX
  5
41A
330
3FC
100
AcDbEntity
  8
図枠
100
AcDbVertex
100
AcDb3dPolylineVertex
 10
859.3839999999998
 20
-354.7619999999999
 30
0.0
 70
    32
  0
VERTEX
  5
41B
330
3FC
100
AcDbEntity
  8
図枠
100
AcDbVertex
100
AcDb3dPolylineVertex
 10
859.3989999999999
 20
-354.766
 30
0.0
 70
    32
  0
VERTEX
  5
41C
330
3FC
100
AcDbEntity
  8
図枠
100
AcDbVertex
100
AcDb3dPolylineVertex
 10
859.4129999999999
 20
-354.769
 30
0.0
 70
    32
  0
VERTEX
  5
41D
330
3FC
100
AcDbEntity
  8
図枠
100
AcDbVertex
100
AcDb3dPolylineVertex
 10
859.4269999999999
 20
-354.773
 30
0.0
 70
    32
  0
VERTEX
  5
41E
330
3FC
100
AcDbEntity
  8
図枠
100
AcDbVertex
100
AcDb3dPolylineVertex
 10
859.4419999999999
 20
-354.776
 30
0.0
 70
    32
  0
VERTEX
  5
41F
330
3FC
100
AcDbEntity
  8
図枠
100
AcDbVertex
100
AcDb3dPolylineVertex
 10
859.4559999999999
 20
-354.779
 30
0.0
 70
    32
  0
VERTEX
  5
420
330
3FC
100
AcDbEntity
  8
図枠
100
AcDbVertex
100
AcDb3dPolylineVertex
 10
859.4700000000001
 20
-354.782
 30
0.0
 70
    32
  0
VERTEX
  5
421
330
3FC
100
AcDbEntity
  8
図枠
100
AcDbVertex
100
AcDb3dPolylineVertex
 10
859.485
 20
-354.786
 30
0.0
 70
    32
  0
VERTEX
  5
422
330
3FC
100
AcDbEntity
  8
図枠
100
AcDbVertex
100
AcDb3dPolylineVertex
 10
859.4989999999999
 20
-354.789
 30
0.0
 70
    32
  0
VERTEX
  5
423
330
3FC
100
AcDbEntity
  8
図枠
100
AcDbVertex
100
AcDb3dPolylineVertex
 10
859.5139999999998
 20
-354.792
 30
0.0
 70
    32
  0
VERTEX
  5
424
330
3FC
100
AcDbEntity
  8
図枠
100
AcDbVertex
100
AcDb3dPolylineVertex
 10
859.528
 20
-354.795
 30
0.0
 70
    32
  0
VERTEX
  5
425
330
3FC
100
AcDbEntity
  8
図枠
100
AcDbVertex
100
AcDb3dPolylineVertex
 10
859.543
 20
-354.799
 30
0.0
 70
    32
  0
VERTEX
  5
426
330
3FC
100
AcDbEntity
  8
図枠
100
AcDbVertex
100
AcDb3dPolylineVertex
 10
859.557
 20
-354.802
 30
0.0
 70
    32
  0
VERTEX
  5
427
330
3FC
100
AcDbEntity
  8
図枠
100
AcDbVertex
100
AcDb3dPolylineVertex
 10
859.572
 20
-354.805
 30
0.0
 70
    32
  0
VERTEX
  5
428
330
3FC
100
AcDbEntity
  8
図枠
100
AcDbVertex
100
AcDb3dPolylineVertex
 10
859.586
 20
-354.8080000000001
 30
0.0
 70
    32
  0
VERTEX
  5
429
330
3FC
100
AcDbEntity
  8
図枠
100
AcDbVertex
100
AcDb3dPolylineVertex
 10
859.6010000000001
 20
-354.811
 30
0.0
 70
    32
  0
VERTEX
  5
42A
330
3FC
100
AcDbEntity
  8
図枠
100
AcDbVertex
100
AcDb3dPolylineVertex
 10
859.6149999999999
 20
-354.814
 30
0.0
 70
    32
  0
VERTEX
  5
42B
330
3FC
100
AcDbEntity
  8
図枠
100
AcDbVertex
100
AcDb3dPolylineVertex
 10
859.6299999999999
 20
-354.818
 30
0.0
 70
    32
  0
VERTEX
  5
42C
330
3FC
100
AcDbEntity
  8
図枠
100
AcDbVertex
100
AcDb3dPolylineVertex
 10
859.6439999999999
 20
-354.821
 30
0.0
 70
    32
  0
VERTEX
  5
42D
330
3FC
100
AcDbEntity
  8
図枠
100
AcDbVertex
100
AcDb3dPolylineVertex
 10
859.659
 20
-354.824
 30
0.0
 70
    32
  0
VERTEX
  5
42E
330
3FC
100
AcDbEntity
  8
図枠
100
AcDbVertex
100
AcDb3dPolylineVertex
 10
859.673
 20
-354.827
 30
0.0
 70
    32
  0
VERTEX
  5
42F
330
3FC
100
AcDbEntity
  8
図枠
100
AcDbVertex
100
AcDb3dPolylineVertex
 10
859.688
 20
-354.83
 30
0.0
 70
    32
  0
VERTEX
  5
430
330
3FC
100
AcDbEntity
  8
図枠
100
AcDbVertex
100
AcDb3dPolylineVertex
 10
859.702
 20
-354.833
 30
0.0
 70
    32
  0
VERTEX
  5
431
330
3FC
100
AcDbEntity
  8
図枠
100
AcDbVertex
100
AcDb3dPolylineVertex
 10
859.717
 20
-354.836
 30
0.0
 70
    32
  0
VERTEX
  5
432
330
3FC
100
AcDbEntity
  8
図枠
100
AcDbVertex
100
AcDb3dPolylineVertex
 10
859.7310000000002
 20
-354.839
 30
0.0
 70
    32
  0
VERTEX
  5
433
330
3FC
100
AcDbEntity
  8
図枠
100
AcDbVertex
100
AcDb3dPolylineVertex
 10
859.7460000000001
 20
-354.842
 30
0.0
 70
    32
  0
VERTEX
  5
434
330
3FC
100
AcDbEntity
  8
図枠
100
AcDbVertex
100
AcDb3dPolylineVertex
 10
859.7610000000001
 20
-354.845
 30
0.0
 70
    32
  0
VERTEX
  5
435
330
3FC
100
AcDbEntity
  8
図枠
100
AcDbVertex
100
AcDb3dPolylineVertex
 10
859.7749999999999
 20
-354.848
 30
0.0
 70
    32
  0
VERTEX
  5
436
330
3FC
100
AcDbEntity
  8
図枠
100
AcDbVertex
100
AcDb3dPolylineVertex
 10
859.7899999999999
 20
-354.851
 30
0.0
 70
    32
  0
VERTEX
  5
437
330
3FC
100
AcDbEntity
  8
図枠
100
AcDbVertex
100
AcDb3dPolylineVertex
 10
859.8039999999999
 20
-354.854
 30
0.0
 70
    32
  0
VERTEX
  5
438
330
3FC
100
AcDbEntity
  8
図枠
100
AcDbVertex
100
AcDb3dPolylineVertex
 10
859.819
 20
-354.857
 30
0.0
 70
    32
  0
VERTEX
  5
439
330
3FC
100
AcDbEntity
  8
図枠
100
AcDbVertex
100
AcDb3dPolylineVertex
 10
859.834
 20
-354.86
 30
0.0
 70
    32
  0
VERTEX
  5
43A
330
3FC
100
AcDbEntity
  8
図枠
100
AcDbVertex
100
AcDb3dPolylineVertex
 10
859.848
 20
-354.8630000000001
 30
0.0
 70
    32
  0
VERTEX
  5
43B
330
3FC
100
AcDbEntity
  8
図枠
100
AcDbVertex
100
AcDb3dPolylineVertex
 10
859.8629999999999
 20
-354.866
 30
0.0
 70
    32
  0
VERTEX
  5
43C
330
3FC
100
AcDbEntity
  8
図枠
100
AcDbVertex
100
AcDb3dPolylineVertex
 10
859.8780000000001
 20
-354.868
 30
0.0
 70
    32
  0
VERTEX
  5
43D
330
3FC
100
AcDbEntity
  8
図枠
100
AcDbVertex
100
AcDb3dPolylineVertex
 10
859.8919999999999
 20
-354.871
 30
0.0
 70
    32
  0
VERTEX
  5
43E
330
3FC
100
AcDbEntity
  8
図枠
100
AcDbVertex
100
AcDb3dPolylineVertex
 10
859.9069999999999
 20
-354.874
 30
0.0
 70
    32
  0
VERTEX
  5
43F
330
3FC
100
AcDbEntity
  8
図枠
100
AcDbVertex
100
AcDb3dPolylineVertex
 10
859.922
 20
-354.877
 30
0.0
 70
    32
  0
VERTEX
  5
440
330
3FC
100
AcDbEntity
  8
図枠
100
AcDbVertex
100
AcDb3dPolylineVertex
 10
859.936
 20
-354.88
 30
0.0
 70
    32
  0
VERTEX
  5
441
330
3FC
100
AcDbEntity
  8
図枠
100
AcDbVertex
100
AcDb3dPolylineVertex
 10
859.951
 20
-354.8830000000001
 30
0.0
 70
    32
  0
VERTEX
  5
442
330
3FC
100
AcDbEntity
  8
図枠
100
AcDbVertex
100
AcDb3dPolylineVertex
 10
859.966
 20
-354.886
 30
0.0
 70
    32
  0
VERTEX
  5
443
330
3FC
100
AcDbEntity
  8
図枠
100
AcDbVertex
100
AcDb3dPolylineVertex
 10
859.98
 20
-354.888
 30
0.0
 70
    32
  0
VERTEX
  5
444
330
3FC
100
AcDbEntity
  8
図枠
100
AcDbVertex
100
AcDb3dPolylineVertex
 10
859.9949999999999
 20
-354.891
 30
0.0
 70
    32
  0
VERTEX
  5
445
330
3FC
100
AcDbEntity
  8
図枠
100
AcDbVertex
100
AcDb3dPolylineVertex
 10
860.0099999999999
 20
-354.894
 30
0.0
 70
    32
  0
VERTEX
  5
446
330
3FC
100
AcDbEntity
  8
図枠
100
AcDbVertex
100
AcDb3dPolylineVertex
 10
860.025
 20
-354.897
 30
0.0
 70
    32
  0
VERTEX
  5
447
330
3FC
100
AcDbEntity
  8
図枠
100
AcDbVertex
100
AcDb3dPolylineVertex
 10
860.039
 20
-354.9
 30
0.0
 70
    32
  0
VERTEX
  5
448
330
3FC
100
AcDbEntity
  8
図枠
100
AcDbVertex
100
AcDb3dPolylineVertex
 10
860.054
 20
-354.902
 30
0.0
 70
    32
  0
VERTEX
  5
449
330
3FC
100
AcDbEntity
  8
図枠
100
AcDbVertex
100
AcDb3dPolylineVertex
 10
860.069
 20
-354.905
 30
0.0
 70
    32
  0
VERTEX
  5
44A
330
3FC
100
AcDbEntity
  8
図枠
100
AcDbVertex
100
AcDb3dPolylineVertex
 10
860.083
 20
-354.908
 30
0.0
 70
    32
  0
VERTEX
  5
44B
330
3FC
100
AcDbEntity
  8
図枠
100
AcDbVertex
100
AcDb3dPolylineVertex
 10
860.0980000000001
 20
-354.911
 30
0.0
 70
    32
  0
VERTEX
  5
44C
330
3FC
100
AcDbEntity
  8
図枠
100
AcDbVertex
100
AcDb3dPolylineVertex
 10
860.1130000000001
 20
-354.913
 30
0.0
 70
    32
  0
VERTEX
  5
44D
330
3FC
100
AcDbEntity
  8
図枠
100
AcDbVertex
100
AcDb3dPolylineVertex
 10
860.128
 20
-354.916
 30
0.0
 70
    32
  0
VERTEX
  5
44E
330
3FC
100
AcDbEntity
  8
図枠
100
AcDbVertex
100
AcDb3dPolylineVertex
 10
860.143
 20
-354.919
 30
0.0
 70
    32
  0
VERTEX
  5
44F
330
3FC
100
AcDbEntity
  8
図枠
100
AcDbVertex
100
AcDb3dPolylineVertex
 10
860.1569999999998
 20
-354.921
 30
0.0
 70
    32
  0
VERTEX
  5
450
330
3FC
100
AcDbEntity
  8
図枠
100
AcDbVertex
100
AcDb3dPolylineVertex
 10
860.172
 20
-354.9240000000001
 30
0.0
 70
    32
  0
VERTEX
  5
451
330
3FC
100
AcDbEntity
  8
図枠
100
AcDbVertex
100
AcDb3dPolylineVertex
 10
860.1869999999999
 20
-354.927
 30
0.0
 70
    32
  0
VERTEX
  5
452
330
3FC
100
AcDbEntity
  8
図枠
100
AcDbVertex
100
AcDb3dPolylineVertex
 10
860.2019999999999
 20
-354.929
 30
0.0
 70
    32
  0
VERTEX
  5
453
330
3FC
100
AcDbEntity
  8
図枠
100
AcDbVertex
100
AcDb3dPolylineVertex
 10
860.2159999999999
 20
-354.932
 30
0.0
 70
    32
  0
VERTEX
  5
454
330
3FC
100
AcDbEntity
  8
図枠
100
AcDbVertex
100
AcDb3dPolylineVertex
 10
860.2310000000001
 20
-354.935
 30
0.0
 70
    32
  0
VERTEX
  5
455
330
3FC
100
AcDbEntity
  8
図枠
100
AcDbVertex
100
AcDb3dPolylineVertex
 10
860.246
 20
-354.937
 30
0.0
 70
    32
  0
VERTEX
  5
456
330
3FC
100
AcDbEntity
  8
図枠
100
AcDbVertex
100
AcDb3dPolylineVertex
 10
860.261
 20
-354.94
 30
0.0
 70
    32
  0
VERTEX
  5
457
330
3FC
100
AcDbEntity
  8
図枠
100
AcDbVertex
100
AcDb3dPolylineVertex
 10
860.2760000000001
 20
-354.943
 30
0.0
 70
    32
  0
VERTEX
  5
458
330
3FC
100
AcDbEntity
  8
図枠
100
AcDbVertex
100
AcDb3dPolylineVertex
 10
860.2899999999999
 20
-354.945
 30
0.0
 70
    32
  0
VERTEX
  5
459
330
3FC
100
AcDbEntity
  8
図枠
100
AcDbVertex
100
AcDb3dPolylineVertex
 10
860.3049999999999
 20
-354.948
 30
0.0
 70
    32
  0
VERTEX
  5
45A
330
3FC
100
AcDbEntity
  8
図枠
100
AcDbVertex
100
AcDb3dPolylineVertex
 10
860.3200000000001
 20
-354.951
 30
0.0
 70
    32
  0
VERTEX
  5
45B
330
3FC
100
AcDbEntity
  8
図枠
100
AcDbVertex
100
AcDb3dPolylineVertex
 10
860.335
 20
-354.953
 30
0.0
 70
    32
  0
VERTEX
  5
45C
330
3FC
100
AcDbEntity
  8
図枠
100
AcDbVertex
100
AcDb3dPolylineVertex
 10
860.35
 20
-354.956
 30
0.0
 70
    32
  0
VERTEX
  5
45D
330
3FC
100
AcDbEntity
  8
図枠
100
AcDbVertex
100
AcDb3dPolylineVertex
 10
860.365
 20
-354.958
 30
0.0
 70
    32
  0
VERTEX
  5
45E
330
3FC
100
AcDbEntity
  8
図枠
100
AcDbVertex
100
AcDb3dPolylineVertex
 10
860.379
 20
-354.961
 30
0.0
 70
    32
  0
VERTEX
  5
45F
330
3FC
100
AcDbEntity
  8
図枠
100
AcDbVertex
100
AcDb3dPolylineVertex
 10
860.3939999999999
 20
-354.964
 30
0.0
 70
    32
  0
VERTEX
  5
460
330
3FC
100
AcDbEntity
  8
図枠
100
AcDbVertex
100
AcDb3dPolylineVertex
 10
860.4089999999999
 20
-354.966
 30
0.0
 70
    32
  0
VERTEX
  5
461
330
3FC
100
AcDbEntity
  8
図枠
100
AcDbVertex
100
AcDb3dPolylineVertex
 10
860.424
 20
-354.969
 30
0.0
 70
    32
  0
VERTEX
  5
462
330
3FC
100
AcDbEntity
  8
図枠
100
AcDbVertex
100
AcDb3dPolylineVertex
 10
860.439
 20
-354.971
 30
0.0
 70
    32
  0
VERTEX
  5
463
330
3FC
100
AcDbEntity
  8
図枠
100
AcDbVertex
100
AcDb3dPolylineVertex
 10
860.454
 20
-354.974
 30
0.0
 70
    32
  0
VERTEX
  5
464
330
3FC
100
AcDbEntity
  8
図枠
100
AcDbVertex
100
AcDb3dPolylineVertex
 10
860.468
 20
-354.977
 30
0.0
 70
    32
  0
VERTEX
  5
465
330
3FC
100
AcDbEntity
  8
図枠
100
AcDbVertex
100
AcDb3dPolylineVertex
 10
860.4830000000001
 20
-354.9790000000001
 30
0.0
 70
    32
  0
VERTEX
  5
466
330
3FC
100
AcDbEntity
  8
図枠
100
AcDbVertex
100
AcDb3dPolylineVertex
 10
860.4980000000001
 20
-354.982
 30
0.0
 70
    32
  0
VERTEX
  5
467
330
3FC
100
AcDbEntity
  8
図枠
100
AcDbVertex
100
AcDb3dPolylineVertex
 10
860.513
 20
-354.984
 30
0.0
 70
    32
  0
VERTEX
  5
468
330
3FC
100
AcDbEntity
  8
図枠
100
AcDbVertex
100
AcDb3dPolylineVertex
 10
860.528
 20
-354.987
 30
0.0
 70
    32
  0
VERTEX
  5
469
330
3FC
100
AcDbEntity
  8
図枠
100
AcDbVertex
100
AcDb3dPolylineVertex
 10
860.543
 20
-354.989
 30
0.0
 70
    32
  0
VERTEX
  5
46A
330
3FC
100
AcDbEntity
  8
図枠
100
AcDbVertex
100
AcDb3dPolylineVertex
 10
860.5579999999999
 20
-354.992
 30
0.0
 70
    32
  0
VERTEX
  5
46B
330
3FC
100
AcDbEntity
  8
図枠
100
AcDbVertex
100
AcDb3dPolylineVertex
 10
860.5729999999999
 20
-354.994
 30
0.0
 70
    32
  0
VERTEX
  5
46C
330
3FC
100
AcDbEntity
  8
図枠
100
AcDbVertex
100
AcDb3dPolylineVertex
 10
860.5869999999999
 20
-354.997
 30
0.0
 70
    32
  0
VERTEX
  5
46D
330
3FC
100
AcDbEntity
  8
図枠
100
AcDbVertex
100
AcDb3dPolylineVertex
 10
860.6019999999999
 20
-354.999
 30
0.0
 70
    32
  0
VERTEX
  5
46E
330
3FC
100
AcDbEntity
  8
図枠
100
AcDbVertex
100
AcDb3dPolylineVertex
 10
860.617
 20
-355.0019999999999
 30
0.0
 70
    32
  0
VERTEX
  5
46F
330
3FC
100
AcDbEntity
  8
図枠
100
AcDbVertex
100
AcDb3dPolylineVertex
 10
860.632
 20
-355.005
 30
0.0
 70
    32
  0
VERTEX
  5
470
330
3FC
100
AcDbEntity
  8
図枠
100
AcDbVertex
100
AcDb3dPolylineVertex
 10
860.6469999999999
 20
-355.0069999999999
 30
0.0
 70
    32
  0
VERTEX
  5
471
330
3FC
100
AcDbEntity
  8
図枠
100
AcDbVertex
100
AcDb3dPolylineVertex
 10
860.6619999999999
 20
-355.01
 30
0.0
 70
    32
  0
VERTEX
  5
472
330
3FC
100
AcDbEntity
  8
図枠
100
AcDbVertex
100
AcDb3dPolylineVertex
 10
860.677
 20
-355.012
 30
0.0
 70
    32
  0
VERTEX
  5
473
330
3FC
100
AcDbEntity
  8
図枠
100
AcDbVertex
100
AcDb3dPolylineVertex
 10
860.692
 20
-355.015
 30
0.0
 70
    32
  0
VERTEX
  5
474
330
3FC
100
AcDbEntity
  8
図枠
100
AcDbVertex
100
AcDb3dPolylineVertex
 10
860.706
 20
-355.017
 30
0.0
 70
    32
  0
VERTEX
  5
475
330
3FC
100
AcDbEntity
  8
図枠
100
AcDbVertex
100
AcDb3dPolylineVertex
 10
860.721
 20
-355.02
 30
0.0
 70
    32
  0
VERTEX
  5
476
330
3FC
100
AcDbEntity
  8
図枠
100
AcDbVertex
100
AcDb3dPolylineVertex
 10
860.7360000000001
 20
-355.022
 30
0.0
 70
    32
  0
VERTEX
  5
477
330
3FC
100
AcDbEntity
  8
図枠
100
AcDbVertex
100
AcDb3dPolylineVertex
 10
860.7510000000001
 20
-355.025
 30
0.0
 70
    32
  0
VERTEX
  5
478
330
3FC
100
AcDbEntity
  8
図枠
100
AcDbVertex
100
AcDb3dPolylineVertex
 10
860.766
 20
-355.027
 30
0.0
 70
    32
  0
VERTEX
  5
479
330
3FC
100
AcDbEntity
  8
図枠
100
AcDbVertex
100
AcDb3dPolylineVertex
 10
860.781
 20
-355.03
 30
0.0
 70
    32
  0
VERTEX
  5
47A
330
3FC
100
AcDbEntity
  8
図枠
100
AcDbVertex
100
AcDb3dPolylineVertex
 10
860.796
 20
-355.032
 30
0.0
 70
    32
  0
VERTEX
  5
47B
330
3FC
100
AcDbEntity
  8
図枠
100
AcDbVertex
100
AcDb3dPolylineVertex
 10
860.8109999999999
 20
-355.035
 30
0.0
 70
    32
  0
VERTEX
  5
47C
330
3FC
100
AcDbEntity
  8
図枠
100
AcDbVertex
100
AcDb3dPolylineVertex
 10
860.8259999999999
 20
-355.037
 30
0.0
 70
    32
  0
SEQEND
  5
47D
330
3FC
100
AcDbEntity
  8
図枠
  0
POLYLINE
  5
47E
330
62B
100
AcDbEntity
  8
図枠
100
AcDb3dPolyline
 66
     1
 10
0.0
 20
0.0
 30
0.0
 70
     8
  0
VERTEX
  5
47F
330
47E
100
AcDbEntity
  8
図枠
100
AcDbVertex
100
AcDb3dPolylineVertex
 10
853.626
 20
-352.753
 30
0.0
 70
    32
  0
VERTEX
  5
480
330
47E
100
AcDbEntity
  8
図枠
100
AcDbVertex
100
AcDb3dPolylineVertex
 10
853.64
 20
-352.766
 30
0.0
 70
    32
  0
VERTEX
  5
481
330
47E
100
AcDbEntity
  8
図枠
100
AcDbVertex
100
AcDb3dPolylineVertex
 10
853.654
 20
-352.779
 30
0.0
 70
    32
  0
VERTEX
  5
482
330
47E
100
AcDbEntity
  8
図枠
100
AcDbVertex
100
AcDb3dPolylineVertex
 10
853.669
 20
-352.793
 30
0.0
 70
    32
  0
VERTEX
  5
483
330
47E
100
AcDbEntity
  8
図枠
100
AcDbVertex
100
AcDb3dPolylineVertex
 10
853.683
 20
-352.806
 30
0.0
 70
    32
  0
VERTEX
  5
484
330
47E
100
AcDbEntity
  8
図枠
100
AcDbVertex
100
AcDb3dPolylineVertex
 10
853.6979999999999
 20
-352.819
 30
0.0
 70
    32
  0
VERTEX
  5
485
330
47E
100
AcDbEntity
  8
図枠
100
AcDbVertex
100
AcDb3dPolylineVertex
 10
853.7119999999999
 20
-352.832
 30
0.0
 70
    32
  0
VERTEX
  5
486
330
47E
100
AcDbEntity
  8
図枠
100
AcDbVertex
100
AcDb3dPolylineVertex
 10
853.7260000000001
 20
-352.846
 30
0.0
 70
    32
  0
VERTEX
  5
487
330
47E
100
AcDbEntity
  8
図枠
100
AcDbVertex
100
AcDb3dPolylineVertex
 10
853.7410000000001
 20
-352.859
 30
0.0
 70
    32
  0
VERTEX
  5
488
330
47E
100
AcDbEntity
  8
図枠
100
AcDbVertex
100
AcDb3dPolylineVertex
 10
853.7549999999999
 20
-352.872
 30
0.0
 70
    32
  0
VERTEX
  5
489
330
47E
100
AcDbEntity
  8
図枠
100
AcDbVertex
100
AcDb3dPolylineVertex
 10
853.7699999999999
 20
-352.885
 30
0.0
 70
    32
  0
VERTEX
  5
48A
330
47E
100
AcDbEntity
  8
図枠
100
AcDbVertex
100
AcDb3dPolylineVertex
 10
853.784
 20
-352.899
 30
0.0
 70
    32
  0
VERTEX
  5
48B
330
47E
100
AcDbEntity
  8
図枠
100
AcDbVertex
100
AcDb3dPolylineVertex
 10
853.7980000000001
 20
-352.912
 30
0.0
 70
    32
  0
VERTEX
  5
48C
330
47E
100
AcDbEntity
  8
図枠
100
AcDbVertex
100
AcDb3dPolylineVertex
 10
853.813
 20
-352.925
 30
0.0
 70
    32
  0
VERTEX
  5
48D
330
47E
100
AcDbEntity
  8
図枠
100
AcDbVertex
100
AcDb3dPolylineVertex
 10
853.827
 20
-352.9380000000001
 30
0.0
 70
    32
  0
VERTEX
  5
48E
330
47E
100
AcDbEntity
  8
図枠
100
AcDbVertex
100
AcDb3dPolylineVertex
 10
853.842
 20
-352.952
 30
0.0
 70
    32
  0
VERTEX
  5
48F
330
47E
100
AcDbEntity
  8
図枠
100
AcDbVertex
100
AcDb3dPolylineVertex
 10
853.8560000000002
 20
-352.965
 30
0.0
 70
    32
  0
VERTEX
  5
490
330
47E
100
AcDbEntity
  8
図枠
100
AcDbVertex
100
AcDb3dPolylineVertex
 10
853.8710000000001
 20
-352.978
 30
0.0
 70
    32
  0
VERTEX
  5
491
330
47E
100
AcDbEntity
  8
図枠
100
AcDbVertex
100
AcDb3dPolylineVertex
 10
853.885
 20
-352.991
 30
0.0
 70
    32
  0
VERTEX
  5
492
330
47E
100
AcDbEntity
  8
図枠
100
AcDbVertex
100
AcDb3dPolylineVertex
 10
853.8989999999998
 20
-353.005
 30
0.0
 70
    32
  0
VERTEX
  5
493
330
47E
100
AcDbEntity
  8
図枠
100
AcDbVertex
100
AcDb3dPolylineVertex
 10
853.9139999999999
 20
-353.018
 30
0.0
 70
    32
  0
VERTEX
  5
494
330
47E
100
AcDbEntity
  8
図枠
100
AcDbVertex
100
AcDb3dPolylineVertex
 10
853.9279999999999
 20
-353.031
 30
0.0
 70
    32
  0
VERTEX
  5
495
330
47E
100
AcDbEntity
  8
図枠
100
AcDbVertex
100
AcDb3dPolylineVertex
 10
853.9429999999999
 20
-353.044
 30
0.0
 70
    32
  0
VERTEX
  5
496
330
47E
100
AcDbEntity
  8
図枠
100
AcDbVertex
100
AcDb3dPolylineVertex
 10
853.9569999999999
 20
-353.058
 30
0.0
 70
    32
  0
VERTEX
  5
497
330
47E
100
AcDbEntity
  8
図枠
100
AcDbVertex
100
AcDb3dPolylineVertex
 10
853.972
 20
-353.071
 30
0.0
 70
    32
  0
VERTEX
  5
498
330
47E
100
AcDbEntity
  8
図枠
100
AcDbVertex
100
AcDb3dPolylineVertex
 10
853.986
 20
-353.084
 30
0.0
 70
    32
  0
VERTEX
  5
499
330
47E
100
AcDbEntity
  8
図枠
100
AcDbVertex
100
AcDb3dPolylineVertex
 10
854.001
 20
-353.097
 30
0.0
 70
    32
  0
VERTEX
  5
49A
330
47E
100
AcDbEntity
  8
図枠
100
AcDbVertex
100
AcDb3dPolylineVertex
 10
854.015
 20
-353.11
 30
0.0
 70
    32
  0
VERTEX
  5
49B
330
47E
100
AcDbEntity
  8
図枠
100
AcDbVertex
100
AcDb3dPolylineVertex
 10
854.03
 20
-353.124
 30
0.0
 70
    32
  0
VERTEX
  5
49C
330
47E
100
AcDbEntity
  8
図枠
100
AcDbVertex
100
AcDb3dPolylineVertex
 10
854.044
 20
-353.1369999999999
 30
0.0
 70
    32
  0
VERTEX
  5
49D
330
47E
100
AcDbEntity
  8
図枠
100
AcDbVertex
100
AcDb3dPolylineVertex
 10
854.058
 20
-353.15
 30
0.0
 70
    32
  0
VERTEX
  5
49E
330
47E
100
AcDbEntity
  8
図枠
100
AcDbVertex
100
AcDb3dPolylineVertex
 10
854.0729999999999
 20
-353.163
 30
0.0
 70
    32
  0
VERTEX
  5
49F
330
47E
100
AcDbEntity
  8
図枠
100
AcDbVertex
100
AcDb3dPolylineVertex
 10
854.0869999999999
 20
-353.176
 30
0.0
 70
    32
  0
VERTEX
  5
4A0
330
47E
100
AcDbEntity
  8
図枠
100
AcDbVertex
100
AcDb3dPolylineVertex
 10
854.1019999999999
 20
-353.189
 30
0.0
 70
    32
  0
VERTEX
  5
4A1
330
47E
100
AcDbEntity
  8
図枠
100
AcDbVertex
100
AcDb3dPolylineVertex
 10
854.1160000000001
 20
-353.202
 30
0.0
 70
    32
  0
VERTEX
  5
4A2
330
47E
100
AcDbEntity
  8
図枠
100
AcDbVertex
100
AcDb3dPolylineVertex
 10
854.1310000000001
 20
-353.216
 30
0.0
 70
    32
  0
VERTEX
  5
4A3
330
47E
100
AcDbEntity
  8
図枠
100
AcDbVertex
100
AcDb3dPolylineVertex
 10
854.1449999999999
 20
-353.2290000000001
 30
0.0
 70
    32
  0
VERTEX
  5
4A4
330
47E
100
AcDbEntity
  8
図枠
100
AcDbVertex
100
AcDb3dPolylineVertex
 10
854.16
 20
-353.242
 30
0.0
 70
    32
  0
VERTEX
  5
4A5
330
47E
100
AcDbEntity
  8
図枠
100
AcDbVertex
100
AcDb3dPolylineVertex
 10
854.174
 20
-353.255
 30
0.0
 70
    32
  0
VERTEX
  5
4A6
330
47E
100
AcDbEntity
  8
図枠
100
AcDbVertex
100
AcDb3dPolylineVertex
 10
854.189
 20
-353.268
 30
0.0
 70
    32
  0
VERTEX
  5
4A7
330
47E
100
AcDbEntity
  8
図枠
100
AcDbVertex
100
AcDb3dPolylineVertex
 10
854.203
 20
-353.281
 30
0.0
 70
    32
  0
VERTEX
  5
4A8
330
47E
100
AcDbEntity
  8
図枠
100
AcDbVertex
100
AcDb3dPolylineVertex
 10
854.218
 20
-353.294
 30
0.0
 70
    32
  0
VERTEX
  5
4A9
330
47E
100
AcDbEntity
  8
図枠
100
AcDbVertex
100
AcDb3dPolylineVertex
 10
854.2330000000001
 20
-353.3069999999999
 30
0.0
 70
    32
  0
VERTEX
  5
4AA
330
47E
100
AcDbEntity
  8
図枠
100
AcDbVertex
100
AcDb3dPolylineVertex
 10
854.2469999999999
 20
-353.32
 30
0.0
 70
    32
  0
VERTEX
  5
4AB
330
47E
100
AcDbEntity
  8
図枠
100
AcDbVertex
100
AcDb3dPolylineVertex
 10
854.2619999999999
 20
-353.333
 30
0.0
 70
    32
  0
VERTEX
  5
4AC
330
47E
100
AcDbEntity
  8
図枠
100
AcDbVertex
100
AcDb3dPolylineVertex
 10
854.2760000000001
 20
-353.346
 30
0.0
 70
    32
  0
VERTEX
  5
4AD
330
47E
100
AcDbEntity
  8
図枠
100
AcDbVertex
100
AcDb3dPolylineVertex
 10
854.291
 20
-353.359
 30
0.0
 70
    32
  0
VERTEX
  5
4AE
330
47E
100
AcDbEntity
  8
図枠
100
AcDbVertex
100
AcDb3dPolylineVertex
 10
854.3049999999999
 20
-353.372
 30
0.0
 70
    32
  0
VERTEX
  5
4AF
330
47E
100
AcDbEntity
  8
図枠
100
AcDbVertex
100
AcDb3dPolylineVertex
 10
854.32
 20
-353.385
 30
0.0
 70
    32
  0
VERTEX
  5
4B0
330
47E
100
AcDbEntity
  8
図枠
100
AcDbVertex
100
AcDb3dPolylineVertex
 10
854.3339999999998
 20
-353.398
 30
0.0
 70
    32
  0
VERTEX
  5
4B1
330
47E
100
AcDbEntity
  8
図枠
100
AcDbVertex
100
AcDb3dPolylineVertex
 10
854.349
 20
-353.411
 30
0.0
 70
    32
  0
VERTEX
  5
4B2
330
47E
100
AcDbEntity
  8
図枠
100
AcDbVertex
100
AcDb3dPolylineVertex
 10
854.3639999999999
 20
-353.424
 30
0.0
 70
    32
  0
VERTEX
  5
4B3
330
47E
100
AcDbEntity
  8
図枠
100
AcDbVertex
100
AcDb3dPolylineVertex
 10
854.3779999999999
 20
-353.437
 30
0.0
 70
    32
  0
VERTEX
  5
4B4
330
47E
100
AcDbEntity
  8
図枠
100
AcDbVertex
100
AcDb3dPolylineVertex
 10
854.3930000000001
 20
-353.45
 30
0.0
 70
    32
  0
VERTEX
  5
4B5
330
47E
100
AcDbEntity
  8
図枠
100
AcDbVertex
100
AcDb3dPolylineVertex
 10
854.4080000000001
 20
-353.463
 30
0.0
 70
    32
  0
VERTEX
  5
4B6
330
47E
100
AcDbEntity
  8
図枠
100
AcDbVertex
100
AcDb3dPolylineVertex
 10
854.4220000000001
 20
-353.476
 30
0.0
 70
    32
  0
VERTEX
  5
4B7
330
47E
100
AcDbEntity
  8
図枠
100
AcDbVertex
100
AcDb3dPolylineVertex
 10
854.437
 20
-353.4880000000001
 30
0.0
 70
    32
  0
VERTEX
  5
4B8
330
47E
100
AcDbEntity
  8
図枠
100
AcDbVertex
100
AcDb3dPolylineVertex
 10
854.451
 20
-353.501
 30
0.0
 70
    32
  0
VERTEX
  5
4B9
330
47E
100
AcDbEntity
  8
図枠
100
AcDbVertex
100
AcDb3dPolylineVertex
 10
854.466
 20
-353.514
 30
0.0
 70
    32
  0
VERTEX
  5
4BA
330
47E
100
AcDbEntity
  8
図枠
100
AcDbVertex
100
AcDb3dPolylineVertex
 10
854.4810000000001
 20
-353.527
 30
0.0
 70
    32
  0
VERTEX
  5
4BB
330
47E
100
AcDbEntity
  8
図枠
100
AcDbVertex
100
AcDb3dPolylineVertex
 10
854.495
 20
-353.54
 30
0.0
 70
    32
  0
VERTEX
  5
4BC
330
47E
100
AcDbEntity
  8
図枠
100
AcDbVertex
100
AcDb3dPolylineVertex
 10
854.5099999999999
 20
-353.5519999999999
 30
0.0
 70
    32
  0
VERTEX
  5
4BD
330
47E
100
AcDbEntity
  8
図枠
100
AcDbVertex
100
AcDb3dPolylineVertex
 10
854.5249999999999
 20
-353.565
 30
0.0
 70
    32
  0
VERTEX
  5
4BE
330
47E
100
AcDbEntity
  8
図枠
100
AcDbVertex
100
AcDb3dPolylineVertex
 10
854.5399999999998
 20
-353.578
 30
0.0
 70
    32
  0
VERTEX
  5
4BF
330
47E
100
AcDbEntity
  8
図枠
100
AcDbVertex
100
AcDb3dPolylineVertex
 10
854.554
 20
-353.591
 30
0.0
 70
    32
  0
VERTEX
  5
4C0
330
47E
100
AcDbEntity
  8
図枠
100
AcDbVertex
100
AcDb3dPolylineVertex
 10
854.569
 20
-353.603
 30
0.0
 70
    32
  0
VERTEX
  5
4C1
330
47E
100
AcDbEntity
  8
図枠
100
AcDbVertex
100
AcDb3dPolylineVertex
 10
854.584
 20
-353.616
 30
0.0
 70
    32
  0
VERTEX
  5
4C2
330
47E
100
AcDbEntity
  8
図枠
100
AcDbVertex
100
AcDb3dPolylineVertex
 10
854.598
 20
-353.629
 30
0.0
 70
    32
  0
VERTEX
  5
4C3
330
47E
100
AcDbEntity
  8
図枠
100
AcDbVertex
100
AcDb3dPolylineVertex
 10
854.6130000000001
 20
-353.641
 30
0.0
 70
    32
  0
VERTEX
  5
4C4
330
47E
100
AcDbEntity
  8
図枠
100
AcDbVertex
100
AcDb3dPolylineVertex
 10
854.6280000000001
 20
-353.654
 30
0.0
 70
    32
  0
VERTEX
  5
4C5
330
47E
100
AcDbEntity
  8
図枠
100
AcDbVertex
100
AcDb3dPolylineVertex
 10
854.643
 20
-353.667
 30
0.0
 70
    32
  0
VERTEX
  5
4C6
330
47E
100
AcDbEntity
  8
図枠
100
AcDbVertex
100
AcDb3dPolylineVertex
 10
854.6569999999999
 20
-353.679
 30
0.0
 70
    32
  0
VERTEX
  5
4C7
330
47E
100
AcDbEntity
  8
図枠
100
AcDbVertex
100
AcDb3dPolylineVertex
 10
854.672
 20
-353.6919999999999
 30
0.0
 70
    32
  0
VERTEX
  5
4C8
330
47E
100
AcDbEntity
  8
図枠
100
AcDbVertex
100
AcDb3dPolylineVertex
 10
854.687
 20
-353.704
 30
0.0
 70
    32
  0
VERTEX
  5
4C9
330
47E
100
AcDbEntity
  8
図枠
100
AcDbVertex
100
AcDb3dPolylineVertex
 10
854.7019999999999
 20
-353.717
 30
0.0
 70
    32
  0
VERTEX
  5
4CA
330
47E
100
AcDbEntity
  8
図枠
100
AcDbVertex
100
AcDb3dPolylineVertex
 10
854.7169999999999
 20
-353.729
 30
0.0
 70
    32
  0
VERTEX
  5
4CB
330
47E
100
AcDbEntity
  8
図枠
100
AcDbVertex
100
AcDb3dPolylineVertex
 10
854.7319999999999
 20
-353.742
 30
0.0
 70
    32
  0
VERTEX
  5
4CC
330
47E
100
AcDbEntity
  8
図枠
100
AcDbVertex
100
AcDb3dPolylineVertex
 10
854.746
 20
-353.754
 30
0.0
 70
    32
  0
VERTEX
  5
4CD
330
47E
100
AcDbEntity
  8
図枠
100
AcDbVertex
100
AcDb3dPolylineVertex
 10
854.761
 20
-353.767
 30
0.0
 70
    32
  0
VERTEX
  5
4CE
330
47E
100
AcDbEntity
  8
図枠
100
AcDbVertex
100
AcDb3dPolylineVertex
 10
854.776
 20
-353.779
 30
0.0
 70
    32
  0
VERTEX
  5
4CF
330
47E
100
AcDbEntity
  8
図枠
100
AcDbVertex
100
AcDb3dPolylineVertex
 10
854.7909999999999
 20
-353.792
 30
0.0
 70
    32
  0
VERTEX
  5
4D0
330
47E
100
AcDbEntity
  8
図枠
100
AcDbVertex
100
AcDb3dPolylineVertex
 10
854.8060000000001
 20
-353.804
 30
0.0
 70
    32
  0
VERTEX
  5
4D1
330
47E
100
AcDbEntity
  8
図枠
100
AcDbVertex
100
AcDb3dPolylineVertex
 10
854.821
 20
-353.816
 30
0.0
 70
    32
  0
VERTEX
  5
4D2
330
47E
100
AcDbEntity
  8
図枠
100
AcDbVertex
100
AcDb3dPolylineVertex
 10
854.836
 20
-353.829
 30
0.0
 70
    32
  0
VERTEX
  5
4D3
330
47E
100
AcDbEntity
  8
図枠
100
AcDbVertex
100
AcDb3dPolylineVertex
 10
854.8510000000002
 20
-353.841
 30
0.0
 70
    32
  0
VERTEX
  5
4D4
330
47E
100
AcDbEntity
  8
図枠
100
AcDbVertex
100
AcDb3dPolylineVertex
 10
854.8660000000001
 20
-353.853
 30
0.0
 70
    32
  0
VERTEX
  5
4D5
330
47E
100
AcDbEntity
  8
図枠
100
AcDbVertex
100
AcDb3dPolylineVertex
 10
854.8810000000001
 20
-353.866
 30
0.0
 70
    32
  0
VERTEX
  5
4D6
330
47E
100
AcDbEntity
  8
図枠
100
AcDbVertex
100
AcDb3dPolylineVertex
 10
854.8960000000001
 20
-353.878
 30
0.0
 70
    32
  0
VERTEX
  5
4D7
330
47E
100
AcDbEntity
  8
図枠
100
AcDbVertex
100
AcDb3dPolylineVertex
 10
854.9099999999999
 20
-353.89
 30
0.0
 70
    32
  0
VERTEX
  5
4D8
330
47E
100
AcDbEntity
  8
図枠
100
AcDbVertex
100
AcDb3dPolylineVertex
 10
854.9249999999998
 20
-353.902
 30
0.0
 70
    32
  0
VERTEX
  5
4D9
330
47E
100
AcDbEntity
  8
図枠
100
AcDbVertex
100
AcDb3dPolylineVertex
 10
854.94
 20
-353.914
 30
0.0
 70
    32
  0
VERTEX
  5
4DA
330
47E
100
AcDbEntity
  8
図枠
100
AcDbVertex
100
AcDb3dPolylineVertex
 10
854.9559999999999
 20
-353.927
 30
0.0
 70
    32
  0
VERTEX
  5
4DB
330
47E
100
AcDbEntity
  8
図枠
100
AcDbVertex
100
AcDb3dPolylineVertex
 10
854.9710000000001
 20
-353.939
 30
0.0
 70
    32
  0
VERTEX
  5
4DC
330
47E
100
AcDbEntity
  8
図枠
100
AcDbVertex
100
AcDb3dPolylineVertex
 10
854.986
 20
-353.951
 30
0.0
 70
    32
  0
VERTEX
  5
4DD
330
47E
100
AcDbEntity
  8
図枠
100
AcDbVertex
100
AcDb3dPolylineVertex
 10
855.001
 20
-353.963
 30
0.0
 70
    32
  0
VERTEX
  5
4DE
330
47E
100
AcDbEntity
  8
図枠
100
AcDbVertex
100
AcDb3dPolylineVertex
 10
855.0160000000001
 20
-353.975
 30
0.0
 70
    32
  0
VERTEX
  5
4DF
330
47E
100
AcDbEntity
  8
図枠
100
AcDbVertex
100
AcDb3dPolylineVertex
 10
855.0310000000001
 20
-353.987
 30
0.0
 70
    32
  0
VERTEX
  5
4E0
330
47E
100
AcDbEntity
  8
図枠
100
AcDbVertex
100
AcDb3dPolylineVertex
 10
855.0460000000001
 20
-353.999
 30
0.0
 70
    32
  0
VERTEX
  5
4E1
330
47E
100
AcDbEntity
  8
図枠
100
AcDbVertex
100
AcDb3dPolylineVertex
 10
855.061
 20
-354.011
 30
0.0
 70
    32
  0
VERTEX
  5
4E2
330
47E
100
AcDbEntity
  8
図枠
100
AcDbVertex
100
AcDb3dPolylineVertex
 10
855.076
 20
-354.023
 30
0.0
 70
    32
  0
VERTEX
  5
4E3
330
47E
100
AcDbEntity
  8
図枠
100
AcDbVertex
100
AcDb3dPolylineVertex
 10
855.091
 20
-354.035
 30
0.0
 70
    32
  0
VERTEX
  5
4E4
330
47E
100
AcDbEntity
  8
図枠
100
AcDbVertex
100
AcDb3dPolylineVertex
 10
855.1069999999999
 20
-354.047
 30
0.0
 70
    32
  0
VERTEX
  5
4E5
330
47E
100
AcDbEntity
  8
図枠
100
AcDbVertex
100
AcDb3dPolylineVertex
 10
855.1219999999998
 20
-354.059
 30
0.0
 70
    32
  0
VERTEX
  5
4E6
330
47E
100
AcDbEntity
  8
図枠
100
AcDbVertex
100
AcDb3dPolylineVertex
 10
855.137
 20
-354.07
 30
0.0
 70
    32
  0
VERTEX
  5
4E7
330
47E
100
AcDbEntity
  8
図枠
100
AcDbVertex
100
AcDb3dPolylineVertex
 10
855.152
 20
-354.082
 30
0.0
 70
    32
  0
VERTEX
  5
4E8
330
47E
100
AcDbEntity
  8
図枠
100
AcDbVertex
100
AcDb3dPolylineVertex
 10
855.1669999999999
 20
-354.094
 30
0.0
 70
    32
  0
VERTEX
  5
4E9
330
47E
100
AcDbEntity
  8
図枠
100
AcDbVertex
100
AcDb3dPolylineVertex
 10
855.183
 20
-354.106
 30
0.0
 70
    32
  0
VERTEX
  5
4EA
330
47E
100
AcDbEntity
  8
図枠
100
AcDbVertex
100
AcDb3dPolylineVertex
 10
855.198
 20
-354.117
 30
0.0
 70
    32
  0
VERTEX
  5
4EB
330
47E
100
AcDbEntity
  8
図枠
100
AcDbVertex
100
AcDb3dPolylineVertex
 10
855.2130000000001
 20
-354.129
 30
0.0
 70
    32
  0
VERTEX
  5
4EC
330
47E
100
AcDbEntity
  8
図枠
100
AcDbVertex
100
AcDb3dPolylineVertex
 10
855.2280000000001
 20
-354.1409999999999
 30
0.0
 70
    32
  0
VERTEX
  5
4ED
330
47E
100
AcDbEntity
  8
図枠
100
AcDbVertex
100
AcDb3dPolylineVertex
 10
855.2439999999998
 20
-354.152
 30
0.0
 70
    32
  0
VERTEX
  5
4EE
330
47E
100
AcDbEntity
  8
図枠
100
AcDbVertex
100
AcDb3dPolylineVertex
 10
855.2589999999998
 20
-354.164
 30
0.0
 70
    32
  0
VERTEX
  5
4EF
330
47E
100
AcDbEntity
  8
図枠
100
AcDbVertex
100
AcDb3dPolylineVertex
 10
855.2739999999998
 20
-354.176
 30
0.0
 70
    32
  0
VERTEX
  5
4F0
330
47E
100
AcDbEntity
  8
図枠
100
AcDbVertex
100
AcDb3dPolylineVertex
 10
855.2899999999999
 20
-354.1869999999999
 30
0.0
 70
    32
  0
VERTEX
  5
4F1
330
47E
100
AcDbEntity
  8
図枠
100
AcDbVertex
100
AcDb3dPolylineVertex
 10
855.3049999999998
 20
-354.199
 30
0.0
 70
    32
  0
VERTEX
  5
4F2
330
47E
100
AcDbEntity
  8
図枠
100
AcDbVertex
100
AcDb3dPolylineVertex
 10
855.32
 20
-354.21
 30
0.0
 70
    32
  0
VERTEX
  5
4F3
330
47E
100
AcDbEntity
  8
図枠
100
AcDbVertex
100
AcDb3dPolylineVertex
 10
855.3359999999999
 20
-354.221
 30
0.0
 70
    32
  0
VERTEX
  5
4F4
330
47E
100
AcDbEntity
  8
図枠
100
AcDbVertex
100
AcDb3dPolylineVertex
 10
855.3510000000001
 20
-354.233
 30
0.0
 70
    32
  0
VERTEX
  5
4F5
330
47E
100
AcDbEntity
  8
図枠
100
AcDbVertex
100
AcDb3dPolylineVertex
 10
855.367
 20
-354.244
 30
0.0
 70
    32
  0
VERTEX
  5
4F6
330
47E
100
AcDbEntity
  8
図枠
100
AcDbVertex
100
AcDb3dPolylineVertex
 10
855.3819999999999
 20
-354.256
 30
0.0
 70
    32
  0
VERTEX
  5
4F7
330
47E
100
AcDbEntity
  8
図枠
100
AcDbVertex
100
AcDb3dPolylineVertex
 10
855.3980000000001
 20
-354.267
 30
0.0
 70
    32
  0
VERTEX
  5
4F8
330
47E
100
AcDbEntity
  8
図枠
100
AcDbVertex
100
AcDb3dPolylineVertex
 10
855.413
 20
-354.278
 30
0.0
 70
    32
  0
VERTEX
  5
4F9
330
47E
100
AcDbEntity
  8
図枠
100
AcDbVertex
100
AcDb3dPolylineVertex
 10
855.4289999999999
 20
-354.289
 30
0.0
 70
    32
  0
VERTEX
  5
4FA
330
47E
100
AcDbEntity
  8
図枠
100
AcDbVertex
100
AcDb3dPolylineVertex
 10
855.4439999999999
 20
-354.301
 30
0.0
 70
    32
  0
VERTEX
  5
4FB
330
47E
100
AcDbEntity
  8
図枠
100
AcDbVertex
100
AcDb3dPolylineVertex
 10
855.46
 20
-354.312
 30
0.0
 70
    32
  0
VERTEX
  5
4FC
330
47E
100
AcDbEntity
  8
図枠
100
AcDbVertex
100
AcDb3dPolylineVertex
 10
855.475
 20
-354.323
 30
0.0
 70
    32
  0
VERTEX
  5
4FD
330
47E
100
AcDbEntity
  8
図枠
100
AcDbVertex
100
AcDb3dPolylineVertex
 10
855.4910000000001
 20
-354.334
 30
0.0
 70
    32
  0
VERTEX
  5
4FE
330
47E
100
AcDbEntity
  8
図枠
100
AcDbVertex
100
AcDb3dPolylineVertex
 10
855.5069999999998
 20
-354.345
 30
0.0
 70
    32
  0
VERTEX
  5
4FF
330
47E
100
AcDbEntity
  8
図枠
100
AcDbVertex
100
AcDb3dPolylineVertex
 10
855.522
 20
-354.356
 30
0.0
 70
    32
  0
VERTEX
  5
500
330
47E
100
AcDbEntity
  8
図枠
100
AcDbVertex
100
AcDb3dPolylineVertex
 10
855.5379999999999
 20
-354.367
 30
0.0
 70
    32
  0
VERTEX
  5
501
330
47E
100
AcDbEntity
  8
図枠
100
AcDbVertex
100
AcDb3dPolylineVertex
 10
855.553
 20
-354.378
 30
0.0
 70
    32
  0
VERTEX
  5
502
330
47E
100
AcDbEntity
  8
図枠
100
AcDbVertex
100
AcDb3dPolylineVertex
 10
855.569
 20
-354.389
 30
0.0
 70
    32
  0
VERTEX
  5
503
330
47E
100
AcDbEntity
  8
図枠
100
AcDbVertex
100
AcDb3dPolylineVertex
 10
855.5850000000001
 20
-354.4
 30
0.0
 70
    32
  0
VERTEX
  5
504
330
47E
100
AcDbEntity
  8
図枠
100
AcDbVertex
100
AcDb3dPolylineVertex
 10
855.601
 20
-354.411
 30
0.0
 70
    32
  0
VERTEX
  5
505
330
47E
100
AcDbEntity
  8
図枠
100
AcDbVertex
100
AcDb3dPolylineVertex
 10
855.6160000000001
 20
-354.422
 30
0.0
 70
    32
  0
VERTEX
  5
506
330
47E
100
AcDbEntity
  8
図枠
100
AcDbVertex
100
AcDb3dPolylineVertex
 10
855.6319999999999
 20
-354.4319999999999
 30
0.0
 70
    32
  0
VERTEX
  5
507
330
47E
100
AcDbEntity
  8
図枠
100
AcDbVertex
100
AcDb3dPolylineVertex
 10
855.648
 20
-354.4430000000001
 30
0.0
 70
    32
  0
VERTEX
  5
508
330
47E
100
AcDbEntity
  8
図枠
100
AcDbVertex
100
AcDb3dPolylineVertex
 10
855.6639999999999
 20
-354.454
 30
0.0
 70
    32
  0
VERTEX
  5
509
330
47E
100
AcDbEntity
  8
図枠
100
AcDbVertex
100
AcDb3dPolylineVertex
 10
855.6789999999999
 20
-354.464
 30
0.0
 70
    32
  0
VERTEX
  5
50A
330
47E
100
AcDbEntity
  8
図枠
100
AcDbVertex
100
AcDb3dPolylineVertex
 10
855.695
 20
-354.475
 30
0.0
 70
    32
  0
VERTEX
  5
50B
330
47E
100
AcDbEntity
  8
図枠
100
AcDbVertex
100
AcDb3dPolylineVertex
 10
855.7109999999999
 20
-354.486
 30
0.0
 70
    32
  0
VERTEX
  5
50C
330
47E
100
AcDbEntity
  8
図枠
100
AcDbVertex
100
AcDb3dPolylineVertex
 10
855.727
 20
-354.496
 30
0.0
 70
    32
  0
VERTEX
  5
50D
330
47E
100
AcDbEntity
  8
図枠
100
AcDbVertex
100
AcDb3dPolylineVertex
 10
855.743
 20
-354.5069999999999
 30
0.0
 70
    32
  0
VERTEX
  5
50E
330
47E
100
AcDbEntity
  8
図枠
100
AcDbVertex
100
AcDb3dPolylineVertex
 10
855.7589999999999
 20
-354.517
 30
0.0
 70
    32
  0
VERTEX
  5
50F
330
47E
100
AcDbEntity
  8
図枠
100
AcDbVertex
100
AcDb3dPolylineVertex
 10
855.775
 20
-354.528
 30
0.0
 70
    32
  0
VERTEX
  5
510
330
47E
100
AcDbEntity
  8
図枠
100
AcDbVertex
100
AcDb3dPolylineVertex
 10
855.7910000000001
 20
-354.538
 30
0.0
 70
    32
  0
VERTEX
  5
511
330
47E
100
AcDbEntity
  8
図枠
100
AcDbVertex
100
AcDb3dPolylineVertex
 10
855.807
 20
-354.548
 30
0.0
 70
    32
  0
VERTEX
  5
512
330
47E
100
AcDbEntity
  8
図枠
100
AcDbVertex
100
AcDb3dPolylineVertex
 10
855.823
 20
-354.559
 30
0.0
 70
    32
  0
VERTEX
  5
513
330
47E
100
AcDbEntity
  8
図枠
100
AcDbVertex
100
AcDb3dPolylineVertex
 10
855.8389999999999
 20
-354.569
 30
0.0
 70
    32
  0
VERTEX
  5
514
330
47E
100
AcDbEntity
  8
図枠
100
AcDbVertex
100
AcDb3dPolylineVertex
 10
855.855
 20
-354.579
 30
0.0
 70
    32
  0
VERTEX
  5
515
330
47E
100
AcDbEntity
  8
図枠
100
AcDbVertex
100
AcDb3dPolylineVertex
 10
855.8710000000001
 20
-354.589
 30
0.0
 70
    32
  0
VERTEX
  5
516
330
47E
100
AcDbEntity
  8
図枠
100
AcDbVertex
100
AcDb3dPolylineVertex
 10
855.8869999999998
 20
-354.6
 30
0.0
 70
    32
  0
VERTEX
  5
517
330
47E
100
AcDbEntity
  8
図枠
100
AcDbVertex
100
AcDb3dPolylineVertex
 10
855.9029999999999
 20
-354.61
 30
0.0
 70
    32
  0
VERTEX
  5
518
330
47E
100
AcDbEntity
  8
図枠
100
AcDbVertex
100
AcDb3dPolylineVertex
 10
855.9189999999999
 20
-354.62
 30
0.0
 70
    32
  0
VERTEX
  5
519
330
47E
100
AcDbEntity
  8
図枠
100
AcDbVertex
100
AcDb3dPolylineVertex
 10
855.9359999999999
 20
-354.63
 30
0.0
 70
    32
  0
VERTEX
  5
51A
330
47E
100
AcDbEntity
  8
図枠
100
AcDbVertex
100
AcDb3dPolylineVertex
 10
855.952
 20
-354.64
 30
0.0
 70
    32
  0
VERTEX
  5
51B
330
47E
100
AcDbEntity
  8
図枠
100
AcDbVertex
100
AcDb3dPolylineVertex
 10
855.968
 20
-354.65
 30
0.0
 70
    32
  0
VERTEX
  5
51C
330
47E
100
AcDbEntity
  8
図枠
100
AcDbVertex
100
AcDb3dPolylineVertex
 10
855.9839999999999
 20
-354.66
 30
0.0
 70
    32
  0
VERTEX
  5
51D
330
47E
100
AcDbEntity
  8
図枠
100
AcDbVertex
100
AcDb3dPolylineVertex
 10
856.0
 20
-354.669
 30
0.0
 70
    32
  0
VERTEX
  5
51E
330
47E
100
AcDbEntity
  8
図枠
100
AcDbVertex
100
AcDb3dPolylineVertex
 10
856.0169999999999
 20
-354.679
 30
0.0
 70
    32
  0
SEQEND
  5
51F
330
47E
100
AcDbEntity
  8
図枠
  0
POLYLINE
  5
520
330
62B
100
AcDbEntity
  8
図枠
100
AcDb3dPolyline
 66
     1
 10
0.0
 20
0.0
 30
0.0
 70
     8
  0
VERTEX
  5
521
330
520
100
AcDbEntity
  8
図枠
100
AcDbVertex
100
AcDb3dPolylineVertex
 10
857.993
 20
-355.546
 30
0.0
 70
    32
  0
VERTEX
  5
522
330
520
100
AcDbEntity
  8
図枠
100
AcDbVertex
100
AcDb3dPolylineVertex
 10
858.0139999999998
 20
-355.553
 30
0.0
 70
    32
  0
VERTEX
  5
523
330
520
100
AcDbEntity
  8
図枠
100
AcDbVertex
100
AcDb3dPolylineVertex
 10
858.036
 20
-355.56
 30
0.0
 70
    32
  0
VERTEX
  5
524
330
520
100
AcDbEntity
  8
図枠
100
AcDbVertex
100
AcDb3dPolylineVertex
 10
858.0569999999999
 20
-355.567
 30
0.0
 70
    32
  0
VERTEX
  5
525
330
520
100
AcDbEntity
  8
図枠
100
AcDbVertex
100
AcDb3dPolylineVertex
 10
858.079
 20
-355.574
 30
0.0
 70
    32
  0
VERTEX
  5
526
330
520
100
AcDbEntity
  8
図枠
100
AcDbVertex
100
AcDb3dPolylineVertex
 10
858.1000000000001
 20
-355.58
 30
0.0
 70
    32
  0
VERTEX
  5
527
330
520
100
AcDbEntity
  8
図枠
100
AcDbVertex
100
AcDb3dPolylineVertex
 10
858.122
 20
-355.587
 30
0.0
 70
    32
  0
VERTEX
  5
528
330
520
100
AcDbEntity
  8
図枠
100
AcDbVertex
100
AcDb3dPolylineVertex
 10
858.1439999999998
 20
-355.594
 30
0.0
 70
    32
  0
VERTEX
  5
529
330
520
100
AcDbEntity
  8
図枠
100
AcDbVertex
100
AcDb3dPolylineVertex
 10
858.1649999999999
 20
-355.6
 30
0.0
 70
    32
  0
VERTEX
  5
52A
330
520
100
AcDbEntity
  8
図枠
100
AcDbVertex
100
AcDb3dPolylineVertex
 10
858.187
 20
-355.607
 30
0.0
 70
    32
  0
VERTEX
  5
52B
330
520
100
AcDbEntity
  8
図枠
100
AcDbVertex
100
AcDb3dPolylineVertex
 10
858.2089999999999
 20
-355.614
 30
0.0
 70
    32
  0
VERTEX
  5
52C
330
520
100
AcDbEntity
  8
図枠
100
AcDbVertex
100
AcDb3dPolylineVertex
 10
858.23
 20
-355.62
 30
0.0
 70
    32
  0
VERTEX
  5
52D
330
520
100
AcDbEntity
  8
図枠
100
AcDbVertex
100
AcDb3dPolylineVertex
 10
858.252
 20
-355.627
 30
0.0
 70
    32
  0
VERTEX
  5
52E
330
520
100
AcDbEntity
  8
図枠
100
AcDbVertex
100
AcDb3dPolylineVertex
 10
858.2739999999999
 20
-355.633
 30
0.0
 70
    32
  0
VERTEX
  5
52F
330
520
100
AcDbEntity
  8
図枠
100
AcDbVertex
100
AcDb3dPolylineVertex
 10
858.2959999999999
 20
-355.64
 30
0.0
 70
    32
  0
VERTEX
  5
530
330
520
100
AcDbEntity
  8
図枠
100
AcDbVertex
100
AcDb3dPolylineVertex
 10
858.317
 20
-355.6459999999999
 30
0.0
 70
    32
  0
VERTEX
  5
531
330
520
100
AcDbEntity
  8
図枠
100
AcDbVertex
100
AcDb3dPolylineVertex
 10
858.3389999999999
 20
-355.652
 30
0.0
 70
    32
  0
VERTEX
  5
532
330
520
100
AcDbEntity
  8
図枠
100
AcDbVertex
100
AcDb3dPolylineVertex
 10
858.3610000000001
 20
-355.659
 30
0.0
 70
    32
  0
VERTEX
  5
533
330
520
100
AcDbEntity
  8
図枠
100
AcDbVertex
100
AcDb3dPolylineVertex
 10
858.383
 20
-355.665
 30
0.0
 70
    32
  0
VERTEX
  5
534
330
520
100
AcDbEntity
  8
図枠
100
AcDbVertex
100
AcDb3dPolylineVertex
 10
858.4049999999999
 20
-355.671
 30
0.0
 70
    32
  0
VERTEX
  5
535
330
520
100
AcDbEntity
  8
図枠
100
AcDbVertex
100
AcDb3dPolylineVertex
 10
858.427
 20
-355.6780000000001
 30
0.0
 70
    32
  0
VERTEX
  5
536
330
520
100
AcDbEntity
  8
図枠
100
AcDbVertex
100
AcDb3dPolylineVertex
 10
858.4479999999999
 20
-355.684
 30
0.0
 70
    32
  0
VERTEX
  5
537
330
520
100
AcDbEntity
  8
図枠
100
AcDbVertex
100
AcDb3dPolylineVertex
 10
858.4699999999999
 20
-355.69
 30
0.0
 70
    32
  0
VERTEX
  5
538
330
520
100
AcDbEntity
  8
図枠
100
AcDbVertex
100
AcDb3dPolylineVertex
 10
858.492
 20
-355.696
 30
0.0
 70
    32
  0
VERTEX
  5
539
330
520
100
AcDbEntity
  8
図枠
100
AcDbVertex
100
AcDb3dPolylineVertex
 10
858.5139999999999
 20
-355.702
 30
0.0
 70
    32
  0
VERTEX
  5
53A
330
520
100
AcDbEntity
  8
図枠
100
AcDbVertex
100
AcDb3dPolylineVertex
 10
858.5360000000001
 20
-355.708
 30
0.0
 70
    32
  0
VERTEX
  5
53B
330
520
100
AcDbEntity
  8
図枠
100
AcDbVertex
100
AcDb3dPolylineVertex
 10
858.558
 20
-355.715
 30
0.0
 70
    32
  0
VERTEX
  5
53C
330
520
100
AcDbEntity
  8
図枠
100
AcDbVertex
100
AcDb3dPolylineVertex
 10
858.58
 20
-355.721
 30
0.0
 70
    32
  0
VERTEX
  5
53D
330
520
100
AcDbEntity
  8
図枠
100
AcDbVertex
100
AcDb3dPolylineVertex
 10
858.6019999999999
 20
-355.727
 30
0.0
 70
    32
  0
VERTEX
  5
53E
330
520
100
AcDbEntity
  8
図枠
100
AcDbVertex
100
AcDb3dPolylineVertex
 10
858.624
 20
-355.733
 30
0.0
 70
    32
  0
VERTEX
  5
53F
330
520
100
AcDbEntity
  8
図枠
100
AcDbVertex
100
AcDb3dPolylineVertex
 10
858.646
 20
-355.739
 30
0.0
 70
    32
  0
VERTEX
  5
540
330
520
100
AcDbEntity
  8
図枠
100
AcDbVertex
100
AcDb3dPolylineVertex
 10
858.6679999999999
 20
-355.745
 30
0.0
 70
    32
  0
VERTEX
  5
541
330
520
100
AcDbEntity
  8
図枠
100
AcDbVertex
100
AcDb3dPolylineVertex
 10
858.6899999999999
 20
-355.751
 30
0.0
 70
    32
  0
VERTEX
  5
542
330
520
100
AcDbEntity
  8
図枠
100
AcDbVertex
100
AcDb3dPolylineVertex
 10
858.712
 20
-355.757
 30
0.0
 70
    32
  0
VERTEX
  5
543
330
520
100
AcDbEntity
  8
図枠
100
AcDbVertex
100
AcDb3dPolylineVertex
 10
858.7339999999999
 20
-355.762
 30
0.0
 70
    32
  0
VERTEX
  5
544
330
520
100
AcDbEntity
  8
図枠
100
AcDbVertex
100
AcDb3dPolylineVertex
 10
858.7560000000001
 20
-355.768
 30
0.0
 70
    32
  0
VERTEX
  5
545
330
520
100
AcDbEntity
  8
図枠
100
AcDbVertex
100
AcDb3dPolylineVertex
 10
858.778
 20
-355.774
 30
0.0
 70
    32
  0
VERTEX
  5
546
330
520
100
AcDbEntity
  8
図枠
100
AcDbVertex
100
AcDb3dPolylineVertex
 10
858.7999999999999
 20
-355.78
 30
0.0
 70
    32
  0
VERTEX
  5
547
330
520
100
AcDbEntity
  8
図枠
100
AcDbVertex
100
AcDb3dPolylineVertex
 10
858.8229999999999
 20
-355.786
 30
0.0
 70
    32
  0
VERTEX
  5
548
330
520
100
AcDbEntity
  8
図枠
100
AcDbVertex
100
AcDb3dPolylineVertex
 10
858.8449999999999
 20
-355.792
 30
0.0
 70
    32
  0
VERTEX
  5
549
330
520
100
AcDbEntity
  8
図枠
100
AcDbVertex
100
AcDb3dPolylineVertex
 10
858.867
 20
-355.797
 30
0.0
 70
    32
  0
VERTEX
  5
54A
330
520
100
AcDbEntity
  8
図枠
100
AcDbVertex
100
AcDb3dPolylineVertex
 10
858.8889999999999
 20
-355.803
 30
0.0
 70
    32
  0
VERTEX
  5
54B
330
520
100
AcDbEntity
  8
図枠
100
AcDbVertex
100
AcDb3dPolylineVertex
 10
858.9110000000001
 20
-355.809
 30
0.0
 70
    32
  0
VERTEX
  5
54C
330
520
100
AcDbEntity
  8
図枠
100
AcDbVertex
100
AcDb3dPolylineVertex
 10
858.933
 20
-355.814
 30
0.0
 70
    32
  0
VERTEX
  5
54D
330
520
100
AcDbEntity
  8
図枠
100
AcDbVertex
100
AcDb3dPolylineVertex
 10
858.955
 20
-355.82
 30
0.0
 70
    32
  0
VERTEX
  5
54E
330
520
100
AcDbEntity
  8
図枠
100
AcDbVertex
100
AcDb3dPolylineVertex
 10
858.9780000000001
 20
-355.826
 30
0.0
 70
    32
  0
VERTEX
  5
54F
330
520
100
AcDbEntity
  8
図枠
100
AcDbVertex
100
AcDb3dPolylineVertex
 10
859.0
 20
-355.831
 30
0.0
 70
    32
  0
VERTEX
  5
550
330
520
100
AcDbEntity
  8
図枠
100
AcDbVertex
100
AcDb3dPolylineVertex
 10
859.022
 20
-355.837
 30
0.0
 70
    32
  0
VERTEX
  5
551
330
520
100
AcDbEntity
  8
図枠
100
AcDbVertex
100
AcDb3dPolylineVertex
 10
859.0439999999999
 20
-355.842
 30
0.0
 70
    32
  0
VERTEX
  5
552
330
520
100
AcDbEntity
  8
図枠
100
AcDbVertex
100
AcDb3dPolylineVertex
 10
859.0670000000001
 20
-355.848
 30
0.0
 70
    32
  0
VERTEX
  5
553
330
520
100
AcDbEntity
  8
図枠
100
AcDbVertex
100
AcDb3dPolylineVertex
 10
859.0889999999999
 20
-355.8540000000001
 30
0.0
 70
    32
  0
VERTEX
  5
554
330
520
100
AcDbEntity
  8
図枠
100
AcDbVertex
100
AcDb3dPolylineVertex
 10
859.111
 20
-355.8590000000001
 30
0.0
 70
    32
  0
VERTEX
  5
555
330
520
100
AcDbEntity
  8
図枠
100
AcDbVertex
100
AcDb3dPolylineVertex
 10
859.1330000000001
 20
-355.865
 30
0.0
 70
    32
  0
VERTEX
  5
556
330
520
100
AcDbEntity
  8
図枠
100
AcDbVertex
100
AcDb3dPolylineVertex
 10
859.1560000000001
 20
-355.87
 30
0.0
 70
    32
  0
VERTEX
  5
557
330
520
100
AcDbEntity
  8
図枠
100
AcDbVertex
100
AcDb3dPolylineVertex
 10
859.1779999999999
 20
-355.875
 30
0.0
 70
    32
  0
VERTEX
  5
558
330
520
100
AcDbEntity
  8
図枠
100
AcDbVertex
100
AcDb3dPolylineVertex
 10
859.2
 20
-355.881
 30
0.0
 70
    32
  0
VERTEX
  5
559
330
520
100
AcDbEntity
  8
図枠
100
AcDbVertex
100
AcDb3dPolylineVertex
 10
859.223
 20
-355.886
 30
0.0
 70
    32
  0
VERTEX
  5
55A
330
520
100
AcDbEntity
  8
図枠
100
AcDbVertex
100
AcDb3dPolylineVertex
 10
859.2449999999999
 20
-355.892
 30
0.0
 70
    32
  0
VERTEX
  5
55B
330
520
100
AcDbEntity
  8
図枠
100
AcDbVertex
100
AcDb3dPolylineVertex
 10
859.267
 20
-355.897
 30
0.0
 70
    32
  0
VERTEX
  5
55C
330
520
100
AcDbEntity
  8
図枠
100
AcDbVertex
100
AcDb3dPolylineVertex
 10
859.29
 20
-355.902
 30
0.0
 70
    32
  0
VERTEX
  5
55D
330
520
100
AcDbEntity
  8
図枠
100
AcDbVertex
100
AcDb3dPolylineVertex
 10
859.312
 20
-355.908
 30
0.0
 70
    32
  0
VERTEX
  5
55E
330
520
100
AcDbEntity
  8
図枠
100
AcDbVertex
100
AcDb3dPolylineVertex
 10
859.3339999999999
 20
-355.913
 30
0.0
 70
    32
  0
VERTEX
  5
55F
330
520
100
AcDbEntity
  8
図枠
100
AcDbVertex
100
AcDb3dPolylineVertex
 10
859.3569999999999
 20
-355.918
 30
0.0
 70
    32
  0
VERTEX
  5
560
330
520
100
AcDbEntity
  8
図枠
100
AcDbVertex
100
AcDb3dPolylineVertex
 10
859.3789999999998
 20
-355.924
 30
0.0
 70
    32
  0
VERTEX
  5
561
330
520
100
AcDbEntity
  8
図枠
100
AcDbVertex
100
AcDb3dPolylineVertex
 10
859.4019999999998
 20
-355.929
 30
0.0
 70
    32
  0
VERTEX
  5
562
330
520
100
AcDbEntity
  8
図枠
100
AcDbVertex
100
AcDb3dPolylineVertex
 10
859.4239999999999
 20
-355.934
 30
0.0
 70
    32
  0
VERTEX
  5
563
330
520
100
AcDbEntity
  8
図枠
100
AcDbVertex
100
AcDb3dPolylineVertex
 10
859.4459999999999
 20
-355.939
 30
0.0
 70
    32
  0
VERTEX
  5
564
330
520
100
AcDbEntity
  8
図枠
100
AcDbVertex
100
AcDb3dPolylineVertex
 10
859.4689999999999
 20
-355.945
 30
0.0
 70
    32
  0
VERTEX
  5
565
330
520
100
AcDbEntity
  8
図枠
100
AcDbVertex
100
AcDb3dPolylineVertex
 10
859.491
 20
-355.95
 30
0.0
 70
    32
  0
VERTEX
  5
566
330
520
100
AcDbEntity
  8
図枠
100
AcDbVertex
100
AcDb3dPolylineVertex
 10
859.5139999999998
 20
-355.955
 30
0.0
 70
    32
  0
VERTEX
  5
567
330
520
100
AcDbEntity
  8
図枠
100
AcDbVertex
100
AcDb3dPolylineVertex
 10
859.5360000000001
 20
-355.96
 30
0.0
 70
    32
  0
VERTEX
  5
568
330
520
100
AcDbEntity
  8
図枠
100
AcDbVertex
100
AcDb3dPolylineVertex
 10
859.5589999999999
 20
-355.965
 30
0.0
 70
    32
  0
VERTEX
  5
569
330
520
100
AcDbEntity
  8
図枠
100
AcDbVertex
100
AcDb3dPolylineVertex
 10
859.581
 20
-355.97
 30
0.0
 70
    32
  0
VERTEX
  5
56A
330
520
100
AcDbEntity
  8
図枠
100
AcDbVertex
100
AcDb3dPolylineVertex
 10
859.604
 20
-355.975
 30
0.0
 70
    32
  0
VERTEX
  5
56B
330
520
100
AcDbEntity
  8
図枠
100
AcDbVertex
100
AcDb3dPolylineVertex
 10
859.626
 20
-355.981
 30
0.0
 70
    32
  0
VERTEX
  5
56C
330
520
100
AcDbEntity
  8
図枠
100
AcDbVertex
100
AcDb3dPolylineVertex
 10
859.6489999999999
 20
-355.986
 30
0.0
 70
    32
  0
VERTEX
  5
56D
330
520
100
AcDbEntity
  8
図枠
100
AcDbVertex
100
AcDb3dPolylineVertex
 10
859.6709999999999
 20
-355.991
 30
0.0
 70
    32
  0
VERTEX
  5
56E
330
520
100
AcDbEntity
  8
図枠
100
AcDbVertex
100
AcDb3dPolylineVertex
 10
859.694
 20
-355.996
 30
0.0
 70
    32
  0
VERTEX
  5
56F
330
520
100
AcDbEntity
  8
図枠
100
AcDbVertex
100
AcDb3dPolylineVertex
 10
859.716
 20
-356.001
 30
0.0
 70
    32
  0
VERTEX
  5
570
330
520
100
AcDbEntity
  8
図枠
100
AcDbVertex
100
AcDb3dPolylineVertex
 10
859.7389999999998
 20
-356.006
 30
0.0
 70
    32
  0
VERTEX
  5
571
330
520
100
AcDbEntity
  8
図枠
100
AcDbVertex
100
AcDb3dPolylineVertex
 10
859.7610000000001
 20
-356.011
 30
0.0
 70
    32
  0
VERTEX
  5
572
330
520
100
AcDbEntity
  8
図枠
100
AcDbVertex
100
AcDb3dPolylineVertex
 10
859.7839999999999
 20
-356.016
 30
0.0
 70
    32
  0
VERTEX
  5
573
330
520
100
AcDbEntity
  8
図枠
100
AcDbVertex
100
AcDb3dPolylineVertex
 10
859.806
 20
-356.021
 30
0.0
 70
    32
  0
VERTEX
  5
574
330
520
100
AcDbEntity
  8
図枠
100
AcDbVertex
100
AcDb3dPolylineVertex
 10
859.829
 20
-356.026
 30
0.0
 70
    32
  0
VERTEX
  5
575
330
520
100
AcDbEntity
  8
図枠
100
AcDbVertex
100
AcDb3dPolylineVertex
 10
859.851
 20
-356.031
 30
0.0
 70
    32
  0
VERTEX
  5
576
330
520
100
AcDbEntity
  8
図枠
100
AcDbVertex
100
AcDb3dPolylineVertex
 10
859.8739999999999
 20
-356.036
 30
0.0
 70
    32
  0
VERTEX
  5
577
330
520
100
AcDbEntity
  8
図枠
100
AcDbVertex
100
AcDb3dPolylineVertex
 10
859.8969999999999
 20
-356.041
 30
0.0
 70
    32
  0
VERTEX
  5
578
330
520
100
AcDbEntity
  8
図枠
100
AcDbVertex
100
AcDb3dPolylineVertex
 10
859.919
 20
-356.046
 30
0.0
 70
    32
  0
VERTEX
  5
579
330
520
100
AcDbEntity
  8
図枠
100
AcDbVertex
100
AcDb3dPolylineVertex
 10
859.942
 20
-356.051
 30
0.0
 70
    32
  0
VERTEX
  5
57A
330
520
100
AcDbEntity
  8
図枠
100
AcDbVertex
100
AcDb3dPolylineVertex
 10
859.9639999999999
 20
-356.056
 30
0.0
 70
    32
  0
VERTEX
  5
57B
330
520
100
AcDbEntity
  8
図枠
100
AcDbVertex
100
AcDb3dPolylineVertex
 10
859.9869999999999
 20
-356.06
 30
0.0
 70
    32
  0
VERTEX
  5
57C
330
520
100
AcDbEntity
  8
図枠
100
AcDbVertex
100
AcDb3dPolylineVertex
 10
860.0099999999999
 20
-356.065
 30
0.0
 70
    32
  0
VERTEX
  5
57D
330
520
100
AcDbEntity
  8
図枠
100
AcDbVertex
100
AcDb3dPolylineVertex
 10
860.0319999999999
 20
-356.07
 30
0.0
 70
    32
  0
VERTEX
  5
57E
330
520
100
AcDbEntity
  8
図枠
100
AcDbVertex
100
AcDb3dPolylineVertex
 10
860.055
 20
-356.075
 30
0.0
 70
    32
  0
VERTEX
  5
57F
330
520
100
AcDbEntity
  8
図枠
100
AcDbVertex
100
AcDb3dPolylineVertex
 10
860.077
 20
-356.08
 30
0.0
 70
    32
  0
VERTEX
  5
580
330
520
100
AcDbEntity
  8
図枠
100
AcDbVertex
100
AcDb3dPolylineVertex
 10
860.1
 20
-356.085
 30
0.0
 70
    32
  0
VERTEX
  5
581
330
520
100
AcDbEntity
  8
図枠
100
AcDbVertex
100
AcDb3dPolylineVertex
 10
860.1230000000001
 20
-356.09
 30
0.0
 70
    32
  0
VERTEX
  5
582
330
520
100
AcDbEntity
  8
図枠
100
AcDbVertex
100
AcDb3dPolylineVertex
 10
860.1449999999999
 20
-356.095
 30
0.0
 70
    32
  0
VERTEX
  5
583
330
520
100
AcDbEntity
  8
図枠
100
AcDbVertex
100
AcDb3dPolylineVertex
 10
860.1679999999999
 20
-356.099
 30
0.0
 70
    32
  0
VERTEX
  5
584
330
520
100
AcDbEntity
  8
図枠
100
AcDbVertex
100
AcDb3dPolylineVertex
 10
860.191
 20
-356.1040000000001
 30
0.0
 70
    32
  0
VERTEX
  5
585
330
520
100
AcDbEntity
  8
図枠
100
AcDbVertex
100
AcDb3dPolylineVertex
 10
860.213
 20
-356.109
 30
0.0
 70
    32
  0
VERTEX
  5
586
330
520
100
AcDbEntity
  8
図枠
100
AcDbVertex
100
AcDb3dPolylineVertex
 10
860.236
 20
-356.114
 30
0.0
 70
    32
  0
VERTEX
  5
587
330
520
100
AcDbEntity
  8
図枠
100
AcDbVertex
100
AcDb3dPolylineVertex
 10
860.2580000000001
 20
-356.119
 30
0.0
 70
    32
  0
VERTEX
  5
588
330
520
100
AcDbEntity
  8
図枠
100
AcDbVertex
100
AcDb3dPolylineVertex
 10
860.2810000000001
 20
-356.1230000000001
 30
0.0
 70
    32
  0
VERTEX
  5
589
330
520
100
AcDbEntity
  8
図枠
100
AcDbVertex
100
AcDb3dPolylineVertex
 10
860.304
 20
-356.128
 30
0.0
 70
    32
  0
VERTEX
  5
58A
330
520
100
AcDbEntity
  8
図枠
100
AcDbVertex
100
AcDb3dPolylineVertex
 10
860.326
 20
-356.133
 30
0.0
 70
    32
  0
VERTEX
  5
58B
330
520
100
AcDbEntity
  8
図枠
100
AcDbVertex
100
AcDb3dPolylineVertex
 10
860.3489999999998
 20
-356.138
 30
0.0
 70
    32
  0
VERTEX
  5
58C
330
520
100
AcDbEntity
  8
図枠
100
AcDbVertex
100
AcDb3dPolylineVertex
 10
860.3719999999999
 20
-356.143
 30
0.0
 70
    32
  0
VERTEX
  5
58D
330
520
100
AcDbEntity
  8
図枠
100
AcDbVertex
100
AcDb3dPolylineVertex
 10
860.3939999999999
 20
-356.147
 30
0.0
 70
    32
  0
VERTEX
  5
58E
330
520
100
AcDbEntity
  8
図枠
100
AcDbVertex
100
AcDb3dPolylineVertex
 10
860.4169999999999
 20
-356.152
 30
0.0
 70
    32
  0
VERTEX
  5
58F
330
520
100
AcDbEntity
  8
図枠
100
AcDbVertex
100
AcDb3dPolylineVertex
 10
860.44
 20
-356.157
 30
0.0
 70
    32
  0
VERTEX
  5
590
330
520
100
AcDbEntity
  8
図枠
100
AcDbVertex
100
AcDb3dPolylineVertex
 10
860.462
 20
-356.162
 30
0.0
 70
    32
  0
VERTEX
  5
591
330
520
100
AcDbEntity
  8
図枠
100
AcDbVertex
100
AcDb3dPolylineVertex
 10
860.485
 20
-356.166
 30
0.0
 70
    32
  0
VERTEX
  5
592
330
520
100
AcDbEntity
  8
図枠
100
AcDbVertex
100
AcDb3dPolylineVertex
 10
860.508
 20
-356.171
 30
0.0
 70
    32
  0
VERTEX
  5
593
330
520
100
AcDbEntity
  8
図枠
100
AcDbVertex
100
AcDb3dPolylineVertex
 10
860.5310000000001
 20
-356.176
 30
0.0
 70
    32
  0
VERTEX
  5
594
330
520
100
AcDbEntity
  8
図枠
100
AcDbVertex
100
AcDb3dPolylineVertex
 10
860.5529999999999
 20
-356.181
 30
0.0
 70
    32
  0
VERTEX
  5
595
330
520
100
AcDbEntity
  8
図枠
100
AcDbVertex
100
AcDb3dPolylineVertex
 10
860.576
 20
-356.185
 30
0.0
 70
    32
  0
VERTEX
  5
596
330
520
100
AcDbEntity
  8
図枠
100
AcDbVertex
100
AcDb3dPolylineVertex
 10
860.599
 20
-356.19
 30
0.0
 70
    32
  0
VERTEX
  5
597
330
520
100
AcDbEntity
  8
図枠
100
AcDbVertex
100
AcDb3dPolylineVertex
 10
860.621
 20
-356.195
 30
0.0
 70
    32
  0
VERTEX
  5
598
330
520
100
AcDbEntity
  8
図枠
100
AcDbVertex
100
AcDb3dPolylineVertex
 10
860.6439999999999
 20
-356.2
 30
0.0
 70
    32
  0
VERTEX
  5
599
330
520
100
AcDbEntity
  8
図枠
100
AcDbVertex
100
AcDb3dPolylineVertex
 10
860.6669999999999
 20
-356.204
 30
0.0
 70
    32
  0
VERTEX
  5
59A
330
520
100
AcDbEntity
  8
図枠
100
AcDbVertex
100
AcDb3dPolylineVertex
 10
860.6889999999999
 20
-356.209
 30
0.0
 70
    32
  0
VERTEX
  5
59B
330
520
100
AcDbEntity
  8
図枠
100
AcDbVertex
100
AcDb3dPolylineVertex
 10
860.712
 20
-356.214
 30
0.0
 70
    32
  0
VERTEX
  5
59C
330
520
100
AcDbEntity
  8
図枠
100
AcDbVertex
100
AcDb3dPolylineVertex
 10
860.735
 20
-356.218
 30
0.0
 70
    32
  0
VERTEX
  5
59D
330
520
100
AcDbEntity
  8
図枠
100
AcDbVertex
100
AcDb3dPolylineVertex
 10
860.7569999999999
 20
-356.223
 30
0.0
 70
    32
  0
VERTEX
  5
59E
330
520
100
AcDbEntity
  8
図枠
100
AcDbVertex
100
AcDb3dPolylineVertex
 10
860.7799999999999
 20
-356.228
 30
0.0
 70
    32
  0
VERTEX
  5
59F
330
520
100
AcDbEntity
  8
図枠
100
AcDbVertex
100
AcDb3dPolylineVertex
 10
860.8029999999999
 20
-356.233
 30
0.0
 70
    32
  0
VERTEX
  5
5A0
330
520
100
AcDbEntity
  8
図枠
100
AcDbVertex
100
AcDb3dPolylineVertex
 10
860.8259999999999
 20
-356.237
 30
0.0
 70
    32
  0
SEQEND
  5
5A1
330
520
100
AcDbEntity
  8
図枠
  0
LINE
  5
6F
330
62B
100
AcDbEntity
  8
図枠
100
AcDbLine
 10
862.5994978082998
 20
-354.0772829761
 30
0.0
 11
865.2085644749
 21
-354.0772829761
 31
0.0
  0
LINE
  5
70
330
62B
100
AcDbEntity
  8
図枠
100
AcDbLine
 10
853.6255116896001
 20
-350.6372829761
 30
0.0
 11
853.6255116896001
 21
-352.0772829761
 31
0.0
  0
LINE
  5
71
330
62B
100
AcDbEntity
  8
図枠
100
AcDbLine
 10
873.4998254750999
 20
-332.2654213496
 30
0.0
 11
873.4998254750999
 21
-357.7654213496
 31
0.0
  0
LINE
  5
72
330
62B
100
AcDbEntity
  8
図枠
100
AcDbLine
 10
869.4383062864
 20
-334.2114213496
 30
0.0
 11
869.4383062864
 21
-338.8194213496
 31
0.0
  0
LINE
  5
73
330
62B
100
AcDbEntity
  8
図枠
100
AcDbLine
 10
846.6970268410998
 20
-354.6372829761
 30
0.0
 11
846.6970268410998
 21
-353.4372829761
 31
0.0
  0
LINE
  5
74
330
62B
100
AcDbEntity
  8
図枠
100
AcDbLine
 10
867.8772012700999
 20
-355.5172829761001
 30
0.0
 11
869.7994978082999
 21
-355.5172829761001
 31
0.0
  0
LINE
  5
75
330
62B
100
AcDbEntity
  8
図枠
100
AcDbLine
 10
848.2970268410998
 20
-350.6372829761
 30
0.0
 11
848.2970268410998
 21
-352.2372829761
 31
0.0
  0
LINE
  5
76
330
62B
100
AcDbEntity
  8
図枠
100
AcDbLine
 10
869.7994978082999
 20
-354.0772829761
 30
0.0
 11
869.7994978082999
 21
-355.5172829761001
 31
0.0
  0
LINE
  5
77
330
62B
100
AcDbEntity
  8
図枠
100
AcDbLine
 10
860.8255116896
 20
-355.0372829761
 30
0.0
 11
860.8255116896
 21
-356.2372829761
 31
0.0
  0
LINE
  5
78
330
62B
100
AcDbEntity
  8
図枠
100
AcDbLine
 10
844.6970268410998
 20
-353.4372829761
 30
0.0
 11
844.5761437918999
 21
-353.4372829761
 31
0.0
  0
LINE
  5
79
330
62B
100
AcDbEntity
  8
図枠
100
AcDbLine
 10
844.6970268410998
 20
-355.0372829761
 30
0.0
 11
844.6970268410998
 21
-356.2372829761
 31
0.0
  0
LINE
  5
7A
330
62B
100
AcDbEntity
  8
図枠
100
AcDbLine
 10
851.4970268411
 20
-352.2372829761
 30
0.0
 11
850.2970268410999
 21
-352.2372829761
 31
0.0
  0
LINE
  5
7B
330
62B
100
AcDbEntity
  8
図枠
100
AcDbLine
 10
850.2970268410999
 20
-352.2372829761
 30
0.0
 11
850.2970268410999
 21
-351.8372829761001
 31
0.0
  0
LINE
  5
7C
330
62B
100
AcDbEntity
  8
図枠
100
AcDbLine
 10
866.8642692930998
 20
-351.9972829761
 30
0.0
 11
866.7471538929
 21
-351.5902998637
 31
0.0
  0
CIRCLE
  5
7D
330
62B
100
AcDbEntity
  8
図枠
100
AcDbCircle
 10
859.5638254750999
 20
-336.5154213496
 30
0.0
 40
1.151999999999999
  0
INSERT
  5
7E
330
62B
100
AcDbEntity
  8
0
  6
Continuous
100
AcDbBlockReference
  2
*U7
 10
0.0
 20
0.0
 30
0.0
  0
INSERT
  5
7F
330
62B
100
AcDbEntity
  8
0
  6
Continuous
100
AcDbBlockReference
  2
*U8
 10
0.0
 20
0.0
 30
0.0
  0
INSERT
  5
80
330
62B
100
AcDbEntity
  8
0
  6
Continuous
100
AcDbBlockReference
  2
*U9
 10
0.0
 20
0.0
 30
0.0
  0
INSERT
  5
81
330
62B
100
AcDbEntity
  8
0
  6
Continuous
100
AcDbBlockReference
  2
*U10
 10
0.0
 20
0.0
 30
0.0
  0
INSERT
  5
82
330
62B
100
AcDbEntity
  8
0
  6
Continuous
100
AcDbBlockReference
  2
*U11
 10
0.0
 20
0.0
 30
0.0
  0
INSERT
  5
83
330
62B
100
AcDbEntity
  8
0
  6
Continuous
100
AcDbBlockReference
  2
*U12
 10
0.0
 20
0.0
 30
0.0
  0
INSERT
  5
84
330
62B
100
AcDbEntity
  8
0
  6
Continuous
100
AcDbBlockReference
  2
*U13
 10
0.0
 20
0.0
 30
0.0
  0
LINE
  5
85
330
62B
100
AcDbEntity
  8
図枠
  6
BORDER
100
AcDbLine
 10
859.5638254750999
 20
-333.0594213496
 30
0.0
 11
859.5638254750999
 21
-339.9714213496
 31
0.0
  0
LINE
  5
86
330
62B
100
AcDbEntity
  8
図枠
  6
BORDER
100
AcDbLine
 10
859.5638254750999
 20
-333.0594213496
 30
0.0
 11
859.5638254750999
 21
-339.9714213496
 31
0.0
  0
LINE
  5
87
330
62B
100
AcDbEntity
  8
図枠
100
AcDbLine
 10
869.4383062864
 20
-334.2114213496
 30
0.0
 11
869.4383062864
 21
-338.8194213496
 31
0.0
  0
LINE
  5
88
330
62B
100
AcDbEntity
  8
図枠
100
AcDbLine
 10
862.5994978082998
 20
-353.4372829761
 30
0.0
 11
865.0208311416001
 21
-353.4372829761
 31
0.0
  0
LINE
  5
89
330
62B
100
AcDbEntity
  8
図枠
100
AcDbLine
 10
853.6255116896001
 20
-352.4949711901001
 30
0.0
 11
856.8255116896001
 21
-352.4949711901001
 31
0.0
  0
LINE
  5
8A
330
62B
100
AcDbEntity
  8
図枠
100
AcDbLine
 10
850.2970268410999
 20
-353.8372829761001
 30
0.0
 11
850.2970268410999
 21
-353.4372829761
 31
0.0
  0
LINE
  5
8B
330
62B
100
AcDbEntity
  8
図枠
100
AcDbLine
 10
853.6255116896001
 20
-355.0372829761
 30
0.0
 11
854.5855116895999
 21
-355.0372829761
 31
0.0
  0
LINE
  5
8C
330
62B
100
AcDbEntity
  8
図枠
100
AcDbLine
 10
864.1994978083001
 20
-350.6372829761
 30
0.0
 11
867.3994978082999
 21
-350.6372829761
 31
0.0
  0
LINE
  5
8D
330
62B
100
AcDbEntity
  8
図枠
100
AcDbLine
 10
860.0255116896001
 20
-351.8372829761001
 30
0.0
 11
860.8255116896
 21
-350.6372829761
 31
0.0
  0
LINE
  5
8E
330
62B
100
AcDbEntity
  8
図枠
100
AcDbLine
 10
813.4998254750998
 20
-321.2654213496
 30
0.0
 11
929.4998254750995
 21
-321.2654213496
 31
0.0
  0
LINE
  5
8F
330
62B
100
AcDbEntity
  8
図枠
100
AcDbLine
 10
813.4998254750998
 20
-315.7654213496
 30
0.0
 11
929.4998254750995
 21
-315.7654213496
 31
0.0
  0
LINE
  5
90
330
62B
100
AcDbEntity
  8
図枠
100
AcDbLine
 10
813.4998254750998
 20
-332.2654213496
 30
0.0
 11
929.4998254750995
 21
-332.2654213496
 31
0.0
  0
LINE
  5
91
330
62B
100
AcDbEntity
  8
図枠
100
AcDbLine
 10
868.1994978082999
 20
-356.6372829761
 30
0.0
 11
867.8772012700999
 21
-355.5172829761001
 31
0.0
  0
LINE
  5
92
330
62B
100
AcDbEntity
  8
図枠
100
AcDbLine
 10
867.4628200067999
 20
-354.0772829761
 30
0.0
 11
869.7994978082999
 21
-354.0772829761
 31
0.0
  0
LINE
  5
93
330
62B
100
AcDbEntity
  8
図枠
100
AcDbLine
 10
862.5994978082998
 20
-351.9972829761
 30
0.0
 11
864.5984311416
 21
-351.9972829761
 31
0.0
  0
LINE
  5
94
330
62B
100
AcDbEntity
  8
図枠
100
AcDbLine
 10
862.5994978082998
 20
-355.5172829761001
 30
0.0
 11
865.6309644749001
 21
-355.5172829761001
 31
0.0
  0
LINE
  5
95
330
62B
100
AcDbEntity
  8
図枠
100
AcDbLine
 10
860.8255116896
 20
-350.6372829761
 30
0.0
 11
853.6255116896001
 21
-350.6372829761
 31
0.0
  0
INSERT
  5
96
330
62B
100
AcDbEntity
  8
0
  6
Continuous
100
AcDbBlockReference
  2
*U14
 10
0.0
 20
0.0
 30
0.0
  0
LINE
  5
97
330
62B
100
AcDbEntity
  8
図枠
  6
BORDER
100
AcDbLine
 10
859.5638254750999
 20
-333.0594213496
 30
0.0
 11
859.5638254750999
 21
-339.9714213496
 31
0.0
  0
LINE
  5
98
330
62B
100
AcDbEntity
  8
図枠
100
AcDbLine
 10
869.4383062864
 20
-334.2114213496
 30
0.0
 11
869.4383062864
 21
-338.8194213496
 31
0.0
  0
LINE
  5
99
330
62B
100
AcDbEntity
  8
図枠
100
AcDbLine
 10
846.6970268410998
 20
-353.4372829761
 30
0.0
 11
848.2970268410998
 21
-353.4372829761
 31
0.0
  0
LINE
  5
9A
330
62B
100
AcDbEntity
  8
図枠
100
AcDbLine
 10
864.8303062863998
 20
-337.6674213496
 30
0.0
 11
869.4383062864
 21
-338.8194213496
 31
0.0
  0
LINE
  5
9B
330
62B
100
AcDbEntity
  8
図枠
100
AcDbLine
 10
864.8303062863998
 20
-335.3634213496
 30
0.0
 11
869.4383062864
 21
-334.2114213496
 31
0.0
  0
CIRCLE
  5
9C
330
62B
100
AcDbEntity
  8
図枠
100
AcDbCircle
 10
859.5638254750999
 20
-336.5154213496
 30
0.0
 40
2.303999999999999
  0
LINE
  5
9D
330
62B
100
AcDbEntity
  8
図枠
100
AcDbLine
 10
850.2970268410999
 20
-351.8372829761001
 30
0.0
 11
851.4970268411
 21
-350.6372829761
 31
0.0
  0
ARC
  5
9E
330
62B
100
AcDbEntity
  8
図枠
100
AcDbCircle
 10
855.6255116896
 20
-351.8372829761001
 30
0.0
 40
4.4
100
AcDbArc
 50
270.0
 51
302.544958854
  0
CIRCLE
  5
9F
330
62B
100
AcDbEntity
  8
図枠
100
AcDbCircle
 10
859.5638254750999
 20
-336.5154213496
 30
0.0
 40
2.303999999999999
  0
LINE
  5
A0
330
62B
100
AcDbEntity
  8
図枠
100
AcDbLine
 10
843.7761437919
 20
-353.4372829761
 30
0.0
 11
844.5761437918999
 21
-353.4372829761
 31
0.0
  0
LINE
  5
A1
330
62B
100
AcDbEntity
  8
図枠
100
AcDbLine
 10
847.8970268411
 20
-350.6372829761
 30
0.0
 11
844.6970268410998
 21
-350.6372829761
 31
0.0
  0
LINE
  5
A2
330
62B
100
AcDbEntity
  8
図枠
100
AcDbLine
 10
846.6970268410998
 20
-351.8372829761001
 30
0.0
 11
847.8970268411
 21
-350.6372829761
 31
0.0
  0
LINE
  5
A3
330
62B
100
AcDbEntity
  8
図枠
100
AcDbLine
 10
844.6970268410998
 20
-352.2372829761
 30
0.0
 11
843.7761437919
 21
-352.2372829761
 31
0.0
  0
ARC
  5
A4
330
62B
100
AcDbEntity
  8
図枠
100
AcDbCircle
 10
847.8970268411
 20
-353.8372829761001
 30
0.0
 40
2.399999999999999
100
AcDbArc
 50
270.0
 51
0.0
  0
ARC
  5
A5
330
62B
100
AcDbEntity
  8
図枠
100
AcDbCircle
 10
854.5855116895999
 20
-351.9972829761
 30
0.0
 40
3.04
100
AcDbArc
 50
270.0
 51
298.0859048152
  0
LINE
  5
A6
330
62B
100
AcDbEntity
  8
図枠
100
AcDbLine
 10
867.2786505563998
 20
-353.4372829761
 30
0.0
 11
869.7994978082999
 21
-353.4372829761
 31
0.0
  0
INSERT
  5
A7
330
62B
100
AcDbEntity
  8
0
  6
Continuous
100
AcDbBlockReference
  2
*U15
 10
0.0
 20
0.0
 30
0.0
  0
INSERT
  5
A8
330
62B
100
AcDbEntity
  8
0
  6
Continuous
100
AcDbBlockReference
  2
*U16
 10
0.0
 20
0.0
 30
0.0
  0
INSERT
  5
A9
330
62B
100
AcDbEntity
  8
0
  6
Continuous
100
AcDbBlockReference
  2
*U17
 10
0.0
 20
0.0
 30
0.0
  0
LINE
  5
AA
330
62B
100
AcDbEntity
  8
図枠
 62
     5
100
AcDbLine
 10
859.4998254750999
 20
-97.76542134959999
 30
0.0
 11
859.4998254750999
 21
-82.76542134960001
 31
0.0
  0
LINE
  5
AB
330
62B
100
AcDbEntity
  8
図枠
 62
     5
100
AcDbLine
 10
909.4998254750999
 20
-97.76542134959999
 30
0.0
 11
909.4998254750999
 21
-82.76542134960001
 31
0.0
  0
LINE
  5
AC
330
62B
100
AcDbEntity
  8
図枠
 62
     5
100
AcDbLine
 10
843.4998254750999
 20
-97.76542134959999
 30
0.0
 11
843.4998254750999
 21
-82.76542134960001
 31
0.0
  0
LINE
  5
AD
330
62B
100
AcDbEntity
  8
図枠
 62
     5
100
AcDbLine
 10
836.7405400891
 20
-92.3346295986
 30
0.0
 11
841.6905400890998
 21
-92.3346295986
 31
0.0
  0
LINE
  5
AE
330
62B
100
AcDbEntity
  8
図枠
 62
     5
100
AcDbLine
 10
839.2155400891001
 20
-88.04780384989998
 30
0.0
 11
841.6905400890998
 21
-92.3346295986
 31
0.0
  0
INSERT
  5
AF
330
62B
100
AcDbEntity
  8
0
  6
Continuous
100
AcDbBlockReference
  2
*U18
 10
0.0
 20
0.0
 30
0.0
  0
LINE
  5
B0
330
62B
100
AcDbEntity
  8
図枠
100
AcDbLine
 10
835.4998254750999
 20
-336.5154213496
 30
0.0
 11
849.4998254750999
 21
-336.5154213496
 31
0.0
  0
LINE
  5
B1
330
62B
100
AcDbEntity
  8
図枠
100
AcDbLine
 10
845.4998254750998
 20
-345.0154213496
 30
0.0
 11
871.4998254750998
 21
-345.0154213496
 31
0.0
  0
LINE
  5
B2
330
62B
100
AcDbEntity
  8
図枠
100
AcDbLine
 10
815.4998254750999
 20
-345.0154213496
 30
0.0
 11
841.4998254750999
 21
-345.0154213496
 31
0.0
  0
LINE
  5
B3
330
62B
100
AcDbEntity
  8
図枠
100
AcDbLine
 10
853.4998254750998
 20
-332.2654213496
 30
0.0
 11
853.4998254750998
 21
-340.7654213496
 31
0.0
  0
LINE
  5
B4
330
62B
100
AcDbEntity
  8
図枠
100
AcDbLine
 10
833.4998254750999
 20
-332.2654213496
 30
0.0
 11
833.4998254750999
 21
-340.7654213496
 31
0.0
  0
LINE
  5
B5
330
62B
100
AcDbEntity
  8
図枠
100
AcDbLine
 10
833.4998254750999
 20
-332.2654213496
 30
0.0
 11
833.4998254750999
 21
-315.7654213496
 31
0.0
  0
LINE
  5
B6
330
62B
100
AcDbEntity
  8
図枠
100
AcDbLine
 10
851.4970268411
 20
-352.2372829761
 30
0.0
 11
851.4970268411
 21
-353.4372829761
 31
0.0
  0
LINE
  5
B7
330
62B
100
AcDbEntity
  8
図枠
100
AcDbLine
 10
865.9594978083001
 20
-356.6372829761
 30
0.0
 11
868.1994978082999
 21
-356.6372829761
 31
0.0
  0
LINE
  5
B8
330
62B
100
AcDbEntity
  8
図枠
100
AcDbLine
 10
846.6970268410998
 20
-352.2372829761
 30
0.0
 11
846.6970268410998
 21
-351.8372829761001
 31
0.0
  0
LINE
  5
B9
330
62B
100
AcDbEntity
  8
図枠
100
AcDbLine
 10
815.4998254750999
 20
-336.5154213496
 30
0.0
 11
831.4998254750999
 21
-336.5154213496
 31
0.0
  0
LINE
  5
BA
330
62B
100
AcDbEntity
  8
図枠
100
AcDbLine
 10
813.4998254750998
 20
-315.7654213496
 30
0.0
 11
813.4998254750998
 21
-332.2654213496
 31
0.0
  0
LINE
  5
BB
330
62B
100
AcDbEntity
  8
図枠
100
AcDbLine
 10
813.4998254750998
 20
-332.2654213496
 30
0.0
 11
813.4998254750998
 21
-357.7654213496
 31
0.0
  0
LINE
  5
BC
330
62B
100
AcDbEntity
  8
図枠
100
AcDbLine
 10
813.4998254750998
 20
-315.7654213496
 30
0.0
 11
813.4998254750998
 21
-332.2654213496
 31
0.0
  0
LINE
  5
BD
330
62B
100
AcDbEntity
  8
図枠
100
AcDbLine
 10
813.4998254750998
 20
-340.7654213496
 30
0.0
 11
929.4998254750995
 21
-340.7654213496
 31
0.0
  0
LINE
  5
BE
330
62B
100
AcDbEntity
  8
図枠
100
AcDbLine
 10
813.4998254750998
 20
-349.2654213496
 30
0.0
 11
929.4998254750995
 21
-349.2654213496
 31
0.0
  0
LINE
  5
BF
330
62B
100
AcDbEntity
  8
図枠
100
AcDbLine
 10
813.4998254750998
 20
-326.7654213496
 30
0.0
 11
929.4998254750995
 21
-326.7654213496
 31
0.0
  0
LINE
  5
C0
330
62B
100
AcDbEntity
  8
図枠
 62
     5
100
AcDbLine
 10
839.2155400891001
 20
-88.04780384989998
 30
0.0
 11
836.7405400891
 21
-92.3346295986
 31
0.0
  0
LINE
  5
C1
330
62B
100
AcDbEntity
  8
図枠
 62
     5
100
AcDbLine
 10
839.2155400891001
 20
-92.99780384989999
 30
0.0
 11
836.7405400891
 21
-97.28462959860001
 31
0.0
  0
LINE
  5
C2
330
62B
100
AcDbEntity
  8
図枠
 62
     5
100
AcDbLine
 10
839.2155400891001
 20
-92.99780384989999
 30
0.0
 11
841.6905400890998
 21
-97.28462959860001
 31
0.0
  0
LINE
  5
C3
330
62B
100
AcDbEntity
  8
図枠
 62
     5
100
AcDbLine
 10
836.7405400891
 20
-97.28462959860001
 30
0.0
 11
841.6905400890998
 21
-97.28462959860001
 31
0.0
  0
LINE
  5
C4
330
62B
100
AcDbEntity
  8
図枠
 62
     5
100
AcDbLine
 10
835.4998254750999
 20
-97.76542134959999
 30
0.0
 11
835.4998254750999
 21
-82.76542134960001
 31
0.0
  0
LINE
  5
C5
330
62B
100
AcDbEntity
  8
図枠
 62
     5
100
AcDbLine
 10
919.4998254750995
 20
-97.76542134959999
 30
0.0
 11
919.4998254750995
 21
-82.76542134960001
 31
0.0
  0
LINE
  5
C6
330
62B
100
AcDbEntity
  8
図枠
 62
     5
100
AcDbLine
 10
835.4998254750999
 20
-87.76542134959999
 30
0.0
 11
929.4998254750995
 21
-87.76542134959999
 31
0.0
  0
LINE
  5
C7
330
62B
100
AcDbEntity
  8
図枠
 62
     5
100
AcDbLine
 10
835.4998254750999
 20
-92.76542134959999
 30
0.0
 11
929.4998254750995
 21
-92.76542134959999
 31
0.0
  0
LINE
  5
C8
330
62B
100
AcDbEntity
  8
図枠
100
AcDbLine
 10
844.6970268410998
 20
-354.6372829761
 30
0.0
 11
846.6970268410998
 21
-354.6372829761
 31
0.0
  0
LINE
  5
C9
330
62B
100
AcDbEntity
  8
図枠
100
AcDbLine
 10
864.8303062863998
 20
-335.3634213496
 30
0.0
 11
869.4383062864
 21
-334.2114213496
 31
0.0
  0
LINE
  5
CA
330
62B
100
AcDbEntity
  8
図枠
100
AcDbLine
 10
862.5994978082998
 20
-354.0772829761
 30
0.0
 11
862.5994978082998
 21
-355.5172829761001
 31
0.0
  0
LINE
  5
CB
330
62B
100
AcDbEntity
  8
図枠
100
AcDbLine
 10
853.6255116896001
 20
-352.0772829761
 30
0.0
 11
857.6255116896001
 21
-352.0772829761
 31
0.0
  0
LINE
  5
CC
330
62B
100
AcDbEntity
  8
図枠
100
AcDbLine
 10
866.7471538929
 20
-351.5902998637
 30
0.0
 11
867.3994978082999
 21
-350.6372829761
 31
0.0
  0
LINE
  5
CD
330
62B
100
AcDbEntity
  8
図枠
100
AcDbLine
 10
848.2970268410998
 20
-352.2372829761
 30
0.0
 11
846.6970268410998
 21
-352.2372829761
 31
0.0
  0
LINE
  5
CE
330
62B
100
AcDbEntity
  8
図枠
100
AcDbLine
 10
851.4970268411
 20
-350.6372829761
 30
0.0
 11
848.2970268410998
 21
-350.6372829761
 31
0.0
  0
LINE
  5
CF
330
62B
100
AcDbEntity
  8
図枠
100
AcDbLine
 10
865.2085644749
 20
-354.0772829761
 30
0.0
 11
865.0208311416001
 21
-353.4372829761
 31
0.0
  0
LINE
  5
D0
330
62B
100
AcDbEntity
  8
図枠
100
AcDbLine
 10
860.0255116896001
 20
-351.8372829761001
 30
0.0
 11
860.8255116896
 21
-350.6372829761
 31
0.0
  0
LINE
  5
D1
330
62B
100
AcDbEntity
  8
図枠
100
AcDbLine
 10
857.254561683
 20
-353.4525397002
 30
0.0
 11
857.0620850378999
 21
-353.6651303886
 31
0.0
  0
LINE
  5
D2
330
62B
100
AcDbEntity
  8
図枠
100
AcDbLine
 10
859.1156871713
 20
-354.5165879433
 30
0.0
 11
858.9732055235
 21
-354.6560904586
 31
0.0
  0
LINE
  5
D3
330
62B
100
AcDbEntity
  8
図枠
100
AcDbLine
 10
867.4628200067999
 20
-354.0772829761
 30
0.0
 11
867.2786505563998
 21
-353.4372829761
 31
0.0
  0
LINE
  5
D4
330
62B
100
AcDbEntity
  8
図枠
100
AcDbLine
 10
843.7761437919
 20
-352.2372829761
 30
0.0
 11
843.7761437919
 21
-353.4372829761
 31
0.0
  0
LINE
  5
D5
330
62B
100
AcDbEntity
  8
図枠
100
AcDbLine
 10
853.6255116896001
 20
-355.0372829761
 30
0.0
 11
853.6255116896001
 21
-356.2372829761
 31
0.0
  0
LINE
  5
D6
330
62B
100
AcDbEntity
  8
図枠
 62
     5
100
AcDbLine
 10
835.4998254750999
 20
-97.76542134959999
 30
0.0
 11
929.4998254750995
 21
-97.76542134959999
 31
0.0
  0
INSERT
  5
D7
330
62B
100
AcDbEntity
  8
0
  6
Continuous
100
AcDbBlockReference
  2
*U19
 10
0.0
 20
0.0
 30
0.0
  0
INSERT
  5
D8
330
62B
100
AcDbEntity
  8
0
  6
Continuous
100
AcDbBlockReference
  2
*U20
 10
0.0
 20
0.0
 30
0.0
  0
ENDBLK
  5
D9
330
62B
100
AcDbEntity
  8
0
100
AcDbBlockEnd
  0
BLOCK
  5
661
330
62D
100
AcDbEntity
  8
0
100
AcDbBlockBegin
  2
*U3
 70
     1
 10
0.0
 20
0.0
 30
0.0
  3
*U3
  1

  0
TEXT
  5
30F
330
62D
100
AcDbEntity
  8
図枠
  6
Continuous
100
AcDbText
 10
817.7203791999001
 20
-355.5511948011666
 30
0.0
 40
4.317999935199999
  1
株式会社
100
AcDbText
  0
ENDBLK
  5
311
330
62D
100
AcDbEntity
  8
0
100
AcDbBlockEnd
  0
BLOCK
  5
662
330
62E
100
AcDbEntity
  8
0
100
AcDbBlockBegin
  2
*U4
 70
     1
 10
0.0
 20
0.0
 30
0.0
  3
*U4
  1

  0
TEXT
  5
313
330
62E
100
AcDbEntity
  8
図枠
  6
Continuous
100
AcDbText
 10
813.4998254750998
 20
-343.903378614868
 30
0.0
 40
2.337499999999999
  1
 設計
100
AcDbText
  0
ENDBLK
  5
315
330
62E
100
AcDbEntity
  8
0
100
AcDbBlockEnd
  0
BLOCK
  5
663
330
62F
100
AcDbEntity
  8
0
100
AcDbBlockBegin
  2
*U5
 70
     1
 10
0.0
 20
0.0
 30
0.0
  3
*U5
  1

  0
TEXT
  5
317
330
62F
100
AcDbEntity
  8
図枠
  6
Continuous
100
AcDbText
 10
816.3449397916036
 20
-319.7700913584224
 30
0.0
 40
2.804999959499999
  1
材　　質
100
AcDbText
  0
ENDBLK
  5
319
330
62F
100
AcDbEntity
  8
0
100
AcDbBlockEnd
  0
BLOCK
  5
664
330
630
100
AcDbEntity
  8
0
100
AcDbBlockBegin
  2
*U6
 70
     1
 10
0.0
 20
0.0
 30
0.0
  3
*U6
  1

  0
TEXT
  5
31B
330
630
100
AcDbEntity
  8
図枠
  6
Continuous
100
AcDbText
 10
816.3164626346544
 20
-325.2985685153717
 30
0.0
 40
2.804999959499999
  1
表面処理
100
AcDbText
  0
ENDBLK
  5
31D
330
630
100
AcDbEntity
  8
0
100
AcDbBlockEnd
  0
BLOCK
  5
665
330
631
100
AcDbEntity
  8
0
100
AcDbBlockBegin
  2
*U7
 70
     1
 10
0.0
 20
0.0
 30
0.0
  3
*U7
  1

  0
TEXT
  5
31F
330
631
100
AcDbEntity
  8
図枠
  6
Continuous
100
AcDbText
 10
843.4998254750999
 20
-348.1889750615685
 30
0.0
 40
2.337499999999999
  1
 検図
100
AcDbText
  0
ENDBLK
  5
321
330
631
100
AcDbEntity
  8
0
100
AcDbBlockEnd
  0
BLOCK
  5
666
330
632
100
AcDbEntity
  8
0
100
AcDbBlockBegin
  2
*U8
 70
     1
 10
0.0
 20
0.0
 30
0.0
  3
*U8
  1

  0
TEXT
  5
323
330
632
100
AcDbEntity
  8
図枠
  6
Continuous
100
AcDbText
 10
843.4998254750999
 20
-343.9152440971016
 30
0.0
 40
2.337499999999999
  1
 照査
100
AcDbText
  0
ENDBLK
  5
325
330
632
100
AcDbEntity
  8
0
100
AcDbBlockEnd
  0
BLOCK
  5
667
330
633
100
AcDbEntity
  8
0
100
AcDbBlockBegin
  2
*U9
 70
     1
 10
0.0
 20
0.0
 30
0.0
  3
*U9
  1

  0
TEXT
  5
327
330
633
100
AcDbEntity
  8
図枠
  6
Continuous
100
AcDbText
 10
814.9012848659628
 20
-348.1771095793351
 30
0.0
 40
2.337499999999999
  1
製図
100
AcDbText
  0
ENDBLK
  5
329
330
633
100
AcDbEntity
  8
0
100
AcDbBlockEnd
  0
BLOCK
  5
668
330
634
100
AcDbEntity
  8
0
100
AcDbBlockBegin
  2
*U10
 70
     1
 10
0.0
 20
0.0
 30
0.0
  3
*U10
  1

  0
TEXT
  5
32B
330
634
100
AcDbEntity
  8
図枠
  6
Continuous
100
AcDbText
 10
818.5697176070796
 20
-335.355916685934
 30
0.0
 40
2.337499999999999
  1
日 　付
100
AcDbText
  0
ENDBLK
  5
32D
330
634
100
AcDbEntity
  8
0
100
AcDbBlockEnd
  0
BLOCK
  5
669
330
635
100
AcDbEntity
  8
0
100
AcDbBlockBegin
  2
*U11
 70
     1
 10
0.0
 20
0.0
 30
0.0
  3
*U11
  1

  0
TEXT
  5
32F
330
635
100
AcDbEntity
  8
図枠
  6
Continuous
100
AcDbText
 10
873.7892607542878
 20
-343.6978452074681
 30
0.0
 40
2.337499999999999
  1
図面名
100
AcDbText
  0
ENDBLK
  5
331
330
635
100
AcDbEntity
  8
0
100
AcDbBlockEnd
  0
BLOCK
  5
66A
330
636
100
AcDbEntity
  8
0
100
AcDbBlockBegin
  2
*U12
 70
     1
 10
0.0
 20
0.0
 30
0.0
  3
*U12
  1

  0
TEXT
  5
333
330
636
100
AcDbEntity
  8
図枠
  6
Continuous
100
AcDbText
 10
873.7773952720543
 20
-352.174114243001
 30
0.0
 40
2.337499999999999
  1
図　番
100
AcDbText
  0
ENDBLK
  5
335
330
636
100
AcDbEntity
  8
0
100
AcDbBlockEnd
  0
BLOCK
  5
66B
330
637
100
AcDbEntity
  8
0
100
AcDbBlockBegin
  2
*U13
 70
     1
 10
0.0
 20
0.0
 30
0.0
  3
*U13
  1

  0
TEXT
  5
337
330
637
100
AcDbEntity
  8
図枠
  6
Continuous
100
AcDbText
 10
873.7240006020034
 20
-335.221576171935
 30
0.0
 40
2.337499999999999
  1
製品名
100
AcDbText
  0
ENDBLK
  5
339
330
637
100
AcDbEntity
  8
0
100
AcDbBlockEnd
  0
BLOCK
  5
66C
330
638
100
AcDbEntity
  8
0
100
AcDbBlockBegin
  2
*U14
 70
     1
 10
0.0
 20
0.0
 30
0.0
  3
*U14
  1

  0
TEXT
  5
33B
330
638
100
AcDbEntity
  8
図枠
  6
Continuous
100
AcDbText
 10
816.3876555270274
 20
-330.85552282927
 30
0.0
 40
2.804999959499999
  1
一般公差
100
AcDbText
  0
ENDBLK
  5
33D
330
638
100
AcDbEntity
  8
0
100
AcDbBlockEnd
  0
BLOCK
  5
66D
330
639
100
AcDbEntity
  8
0
100
AcDbBlockBegin
  2
*U15
 70
     1
 10
0.0
 20
0.0
 30
0.0
  3
*U15
  1

  0
TEXT
  5
33F
330
639
100
AcDbEntity
  8
図枠
  6
Continuous
100
AcDbText
 10
919.4585057538004
 20
-86.52986293120404
 30
0.0
 40
2.698749959499998
  1
検認者
100
AcDbText
  0
ENDBLK
  5
341
330
639
100
AcDbEntity
  8
0
100
AcDbBlockEnd
  0
BLOCK
  5
66E
330
63A
100
AcDbEntity
  8
0
100
AcDbBlockBegin
  2
*U16
 70
     1
 10
0.0
 20
0.0
 30
0.0
  3
*U16
  1

  0
TEXT
  5
343
330
63A
100
AcDbEntity
  8
図枠
  6
Continuous
100
AcDbText
 10
909.4996034689197
 20
-86.51616369283095
 30
0.0
 40
2.698749959499998
  1
改訂者
100
AcDbText
  0
ENDBLK
  5
345
330
63A
100
AcDbEntity
  8
0
100
AcDbBlockEnd
  0
BLOCK
  5
66F
330
63B
100
AcDbEntity
  8
0
100
AcDbBlockBegin
  2
*U17
 70
     1
 10
0.0
 20
0.0
 30
0.0
  3
*U17
  1

  0
TEXT
  5
347
330
63B
100
AcDbEntity
  8
図枠
  6
Continuous
100
AcDbText
 10
836.1229632161315
 20
-86.46136673933858
 30
0.0
 40
2.698749959499998
  1
副番
100
AcDbText
  0
ENDBLK
  5
349
330
63B
100
AcDbEntity
  8
0
100
AcDbBlockEnd
  0
BLOCK
  5
670
330
63C
100
AcDbEntity
  8
0
100
AcDbBlockBegin
  2
*U18
 70
     1
 10
0.0
 20
0.0
 30
0.0
  3
*U18
  1

  0
TEXT
  5
34B
330
63C
100
AcDbEntity
  8
図枠
  6
Continuous
100
AcDbText
 10
838.320542480176
 20
-335.4271095793351
 30
0.0
 40
2.337499999999999
  1
尺 　度
100
AcDbText
  0
ENDBLK
  5
34D
330
63C
100
AcDbEntity
  8
0
100
AcDbBlockEnd
  0
BLOCK
  5
671
330
63D
100
AcDbEntity
  8
0
100
AcDbBlockBegin
  2
*U19
 70
     1
 10
0.0
 20
0.0
 30
0.0
  3
*U19
  1

  0
TEXT
  5
34F
330
63D
100
AcDbEntity
  8
図枠
  6
Continuous
100
AcDbText
 10
846.3557614660022
 20
-86.48876521608476
 30
0.0
 40
2.698749959499998
  1
改訂日
100
AcDbText
  0
ENDBLK
  5
351
330
63D
100
AcDbEntity
  8
0
100
AcDbBlockEnd
  0
BLOCK
  5
672
330
63E
100
AcDbEntity
  8
0
100
AcDbBlockBegin
  2
*U20
 70
     1
 10
0.0
 20
0.0
 30
0.0
  3
*U20
  1

  0
TEXT
  5
353
330
63E
100
AcDbEntity
  8
図枠
  6
Continuous
100
AcDbText
 10
872.4307964684019
 20
-86.51616369283095
 30
0.0
 40
2.698749959499998
  1
改　訂　内　容
100
AcDbText
  0
ENDBLK
  5
355
330
63E
100
AcDbEntity
  8
0
100
AcDbBlockEnd
  0
BLOCK
  5
640
330
63F
100
AcDbEntity
  8
0
100
AcDbBlockBegin
  2
*D21
 70
     1
 10
0.0
 20
0.0
 30
0.0
  3
*D21
  1

  0
TEXT
  5
DD
330
63F
100
AcDbEntity
  8
0
 62
     0
100
AcDbText
 10
870.4158569008997
 20
-241.2213312827
 30
0.0
 40
2.998611020999999
  1
71
 50
90.0
100
AcDbText
  0
LINE
  5
DE
330
63F
100
AcDbEntity
  8
0
 62
     0
100
AcDbLine
 10
862.9450235516998
 20
-274.9574424468
 30
0.0
 11
872.4450235516998
 21
-274.9574424468
 31
0.0
  0
LINE
  5
DF
330
63F
100
AcDbEntity
  8
0
 62
     0
100
AcDbLine
 10
862.9450235516998
 20
-203.9574424468
 30
0.0
 11
872.4450235516998
 21
-203.9574424468
 31
0.0
  0
LINE
  5
E0
330
63F
100
AcDbEntity
  8
0
 62
     0
100
AcDbLine
 10
871.9450235516998
 20
-274.9574424468
 30
0.0
 11
871.9450235516998
 21
-235.929664775
 31
0.0
  0
LINE
  5
E1
330
63F
100
AcDbEntity
  8
0
 62
     0
100
AcDbLine
 10
871.9450235516998
 20
-274.9574424468
 30
0.0
 11
871.9450235516998
 21
-242.9852201186
 31
0.0
  0
LINE
  5
E2
330
63F
100
AcDbEntity
  8
0
 62
     0
100
AcDbLine
 10
871.9450235516998
 20
-203.9574424468
 30
0.0
 11
871.9450235516998
 21
-235.929664775
 31
0.0
  0
LINE
  5
E3
330
63F
100
AcDbEntity
  8
0
 62
     0
100
AcDbLine
 10
871.9450235516998
 20
-203.9574424468
 30
0.0
 11
871.9450235516998
 21
-242.9852201186
 31
0.0
  0
LINE
  5
E4
330
63F
100
AcDbEntity
  8
0
 62
     0
100
AcDbLine
 10
871.9450235516998
 20
-203.9574424468
 30
0.0
 11
871.9450235516998
 21
-206.9574424468
 31
0.0
  0
SOLID
  5
E5
330
63F
100
AcDbEntity
  8
0
 62
     0
100
AcDbTrace
 10
871.9450235516998
 20
-203.9574424468
 30
0.0
 11
872.6950235517
 21
-206.9574424468
 31
0.0
 12
871.1950235516997
 22
-206.9574424468
 32
0.0
 13
871.9450235516998
 23
-206.2074424468
 33
0.0
  0
LINE
  5
E6
330
63F
100
AcDbEntity
  8
0
 62
     0
100
AcDbLine
 10
871.9450235516998
 20
-274.9574424468
 30
0.0
 11
871.9450235516998
 21
-271.9574424468
 31
0.0
  0
SOLID
  5
E7
330
63F
100
AcDbEntity
  8
0
 62
     0
100
AcDbTrace
 10
871.9450235516998
 20
-274.9574424468
 30
0.0
 11
871.1950235516997
 21
-271.9574424468
 31
0.0
 12
872.6950235517
 22
-271.9574424468
 32
0.0
 13
871.9450235516998
 23
-272.7074424468
 33
0.0
  0
ENDBLK
  5
E8
330
63F
100
AcDbEntity
  8
0
100
AcDbBlockEnd
  0
BLOCK
  5
642
330
641
100
AcDbEntity
  8
0
100
AcDbBlockBegin
  2
*D22
 70
     1
 10
0.0
 20
0.0
 30
0.0
  3
*D22
  1

  0
TEXT
  5
ED
330
641
100
AcDbEntity
  8
0
 62
     0
100
AcDbText
 10
754.7057253414
 20
-236.1025931835
 30
0.0
 40
2.998611020999999
  1
(125)
 50
90.0
100
AcDbText
  0
LINE
  5
EE
330
641
100
AcDbEntity
  8
0
 62
     0
100
AcDbLine
 10
779.5483685547
 20
-169.1928710938
 30
0.0
 11
755.7348919922
 21
-169.1928710938
 31
0.0
  0
LINE
  5
EF
330
641
100
AcDbEntity
  8
0
 62
     0
100
AcDbLine
 10
779.5483685547
 20
-294.1928710938
 30
0.0
 11
755.7348919922
 21
-294.1928710938
 31
0.0
  0
LINE
  5
F0
330
641
100
AcDbEntity
  8
0
 62
     0
100
AcDbLine
 10
756.2348919921999
 20
-169.1928710938
 30
0.0
 11
756.2348919921999
 21
-225.5192601681
 31
0.0
  0
LINE
  5
F1
330
641
100
AcDbEntity
  8
0
 62
     0
100
AcDbLine
 10
756.2348919921999
 20
-169.1928710938
 30
0.0
 11
756.2348919921999
 21
-237.8664820194
 31
0.0
  0
LINE
  5
F2
330
641
100
AcDbEntity
  8
0
 62
     0
100
AcDbLine
 10
756.2348919921999
 20
-294.1928710938
 30
0.0
 11
756.2348919921999
 21
-225.5192601681
 31
0.0
  0
LINE
  5
F3
330
641
100
AcDbEntity
  8
0
 62
     0
100
AcDbLine
 10
756.2348919921999
 20
-294.1928710938
 30
0.0
 11
756.2348919921999
 21
-237.8664820194
 31
0.0
  0
LINE
  5
F4
330
641
100
AcDbEntity
  8
0
 62
     0
100
AcDbLine
 10
756.2348919921999
 20
-294.1928710938
 30
0.0
 11
756.2348919921999
 21
-291.1928710938
 31
0.0
  0
SOLID
  5
F5
330
641
100
AcDbEntity
  8
0
 62
     0
100
AcDbTrace
 10
756.2348919921999
 20
-294.1928710938
 30
0.0
 11
755.4848919922
 21
-291.1928710938
 31
0.0
 12
756.9848919922
 22
-291.1928710938
 32
0.0
 13
756.2348919921999
 23
-291.9428710938
 33
0.0
  0
LINE
  5
F6
330
641
100
AcDbEntity
  8
0
 62
     0
100
AcDbLine
 10
756.2348919921999
 20
-169.1928710938
 30
0.0
 11
756.2348919921999
 21
-172.1928710938
 31
0.0
  0
SOLID
  5
F7
330
641
100
AcDbEntity
  8
0
 62
     0
100
AcDbTrace
 10
756.2348919921999
 20
-169.1928710938
 30
0.0
 11
756.9848919922
 21
-172.1928710938
 31
0.0
 12
755.4848919922
 22
-172.1928710938
 32
0.0
 13
756.2348919921999
 23
-171.4428710938
 33
0.0
  0
ENDBLK
  5
F8
330
641
100
AcDbEntity
  8
0
100
AcDbBlockEnd
  0
BLOCK
  5
644
330
643
100
AcDbEntity
  8
0
100
AcDbBlockBegin
  2
*D23
 70
     1
 10
0.0
 20
0.0
 30
0.0
  3
*D23
  1

  0
TEXT
  5
FC
330
643
100
AcDbEntity
  8
0
 62
     0
100
AcDbText
 10
805.8042361865998
 20
-236.1025931835
 30
0.0
 40
2.998611020999999
  1
(101)
 50
90.0
100
AcDbText
  0
LINE
  5
FD
330
643
100
AcDbEntity
  8
0
 62
     0
100
AcDbLine
 10
798.3334028374001
 20
-282.1928710938
 30
0.0
 11
807.8334028373999
 21
-282.1928710938
 31
0.0
  0
LINE
  5
FE
330
643
100
AcDbEntity
  8
0
 62
     0
100
AcDbLine
 10
798.3334028374001
 20
-181.1928710938
 30
0.0
 11
807.8334028373999
 21
-181.1928710938
 31
0.0
  0
LINE
  5
FF
330
643
100
AcDbEntity
  8
0
 62
     0
100
AcDbLine
 10
807.3334028373999
 20
-282.1928710938
 30
0.0
 11
807.3334028373999
 21
-225.5192601681
 31
0.0
  0
LINE
  5
100
330
643
100
AcDbEntity
  8
0
 62
     0
100
AcDbLine
 10
807.3334028373999
 20
-282.1928710938
 30
0.0
 11
807.3334028373999
 21
-237.8664820194
 31
0.0
  0
LINE
  5
101
330
643
100
AcDbEntity
  8
0
 62
     0
100
AcDbLine
 10
807.3334028373999
 20
-181.1928710938
 30
0.0
 11
807.3334028373999
 21
-225.5192601681
 31
0.0
  0
LINE
  5
102
330
643
100
AcDbEntity
  8
0
 62
     0
100
AcDbLine
 10
807.3334028373999
 20
-181.1928710938
 30
0.0
 11
807.3334028373999
 21
-237.8664820194
 31
0.0
  0
LINE
  5
103
330
643
100
AcDbEntity
  8
0
 62
     0
100
AcDbLine
 10
807.3334028373999
 20
-181.1928710938
 30
0.0
 11
807.3334028373999
 21
-184.1928710938
 31
0.0
  0
SOLID
  5
104
330
643
100
AcDbEntity
  8
0
 62
     0
100
AcDbTrace
 10
807.3334028373999
 20
-181.1928710938
 30
0.0
 11
808.0834028374001
 21
-184.1928710938
 31
0.0
 12
806.5834028373998
 22
-184.1928710938
 32
0.0
 13
807.3334028373999
 23
-183.4428710938
 33
0.0
  0
LINE
  5
105
330
643
100
AcDbEntity
  8
0
 62
     0
100
AcDbLine
 10
807.3334028373999
 20
-282.1928710938
 30
0.0
 11
807.3334028373999
 21
-279.1928710938
 31
0.0
  0
SOLID
  5
106
330
643
100
AcDbEntity
  8
0
 62
     0
100
AcDbTrace
 10
807.3334028373999
 20
-282.1928710938
 30
0.0
 11
806.5834028373998
 21
-279.1928710938
 31
0.0
 12
808.0834028374001
 22
-279.1928710938
 32
0.0
 13
807.3334028373999
 23
-279.9428710938
 33
0.0
  0
ENDBLK
  5
107
330
643
100
AcDbEntity
  8
0
100
AcDbBlockEnd
  0
BLOCK
  5
646
330
645
100
AcDbEntity
  8
0
100
AcDbBlockBegin
  2
*D24
 70
     1
 10
0.0
 20
0.0
 30
0.0
  3
*D24
  1

  0
TEXT
  5
132
330
645
100
AcDbEntity
  8
0
 62
     0
100
AcDbText
 10
836.0109930428999
 20
-252.981282568
 30
0.0
 40
2.998611020999999
  1
(4)
100
AcDbText
  0
LINE
  5
133
330
645
100
AcDbEntity
  8
0
 62
     0
100
AcDbLine
 10
829.9672487630001
 20
-254.5104492188
 30
0.0
 11
829.9672487630001
 21
-254.5104492188
 31
0.0
  0
LINE
  5
134
330
645
100
AcDbEntity
  8
0
 62
     0
100
AcDbLine
 10
825.967248763
 20
-254.5104492188
 30
0.0
 11
825.967248763
 21
-254.5104492188
 31
0.0
  0
LINE
  5
135
330
645
100
AcDbEntity
  8
0
 62
     0
100
AcDbLine
 10
829.9672487630001
 20
-254.5104492188
 30
0.0
 11
843.0665483864999
 21
-254.5104492188
 31
0.0
  0
LINE
  5
136
330
645
100
AcDbEntity
  8
0
 62
     0
100
AcDbLine
 10
829.9672487630001
 20
-254.5104492188
 30
0.0
 11
834.247104207
 21
-254.5104492188
 31
0.0
  0
LINE
  5
137
330
645
100
AcDbEntity
  8
0
 62
     0
100
AcDbLine
 10
825.967248763
 20
-254.5104492188
 30
0.0
 11
843.0665483864999
 21
-254.5104492188
 31
0.0
  0
LINE
  5
138
330
645
100
AcDbEntity
  8
0
 62
     0
100
AcDbLine
 10
825.967248763
 20
-254.5104492188
 30
0.0
 11
834.247104207
 21
-254.5104492188
 31
0.0
  0
LINE
  5
139
330
645
100
AcDbEntity
  8
0
 62
     0
100
AcDbLine
 10
825.967248763
 20
-254.5104492188
 30
0.0
 11
822.9672487630001
 21
-254.5104492188
 31
0.0
  0
SOLID
  5
13A
330
645
100
AcDbEntity
  8
0
 62
     0
100
AcDbTrace
 10
825.967248763
 20
-254.5104492188
 30
0.0
 11
822.9672487630001
 21
-255.2604492188
 31
0.0
 12
822.9672487630001
 22
-253.7604492188
 32
0.0
 13
823.7172487630001
 23
-254.5104492188
 33
0.0
  0
LINE
  5
13B
330
645
100
AcDbEntity
  8
0
 62
     0
100
AcDbLine
 10
829.9672487630001
 20
-254.5104492188
 30
0.0
 11
832.967248763
 21
-254.5104492188
 31
0.0
  0
SOLID
  5
13C
330
645
100
AcDbEntity
  8
0
 62
     0
100
AcDbTrace
 10
829.9672487630001
 20
-254.5104492188
 30
0.0
 11
832.967248763
 21
-253.7604492188
 31
0.0
 12
832.967248763
 22
-255.2604492188
 32
0.0
 13
832.217248763
 23
-254.5104492188
 33
0.0
  0
ENDBLK
  5
13D
330
645
100
AcDbEntity
  8
0
100
AcDbBlockEnd
  0
BLOCK
  5
648
330
647
100
AcDbEntity
  8
0
100
AcDbBlockBegin
  2
*D25
 70
     1
 10
0.0
 20
0.0
 30
0.0
  3
*D25
  1

  0
TEXT
  5
141
330
647
100
AcDbEntity
  8
0
 62
     0
100
AcDbText
 10
911.7879181739001
 20
-186.2206487656
 30
0.0
 40
2.998611020999999
  1
(27)
 50
90.0
100
AcDbText
  0
LINE
  5
142
330
647
100
AcDbEntity
  8
0
 62
     0
100
AcDbLine
 10
897.9672487630001
 20
-196.1928710938
 30
0.0
 11
913.8170848247
 21
-196.1928710938
 31
0.0
  0
LINE
  5
143
330
647
100
AcDbEntity
  8
0
 62
     0
100
AcDbLine
 10
901.967248763
 20
-169.1928710938
 30
0.0
 11
913.8170848247
 21
-169.1928710938
 31
0.0
  0
LINE
  5
144
330
647
100
AcDbEntity
  8
0
 62
     0
100
AcDbLine
 10
913.3170848247001
 20
-196.1928710938
 30
0.0
 11
913.3170848247001
 21
-177.4012045859998
 31
0.0
  0
LINE
  5
145
330
647
100
AcDbEntity
  8
0
 62
     0
100
AcDbLine
 10
913.3170848247001
 20
-196.1928710938
 30
0.0
 11
913.3170848247001
 21
-187.9845376015
 31
0.0
  0
LINE
  5
146
330
647
100
AcDbEntity
  8
0
 62
     0
100
AcDbLine
 10
913.3170848247001
 20
-169.1928710938
 30
0.0
 11
913.3170848247001
 21
-177.4012045859998
 31
0.0
  0
LINE
  5
147
330
647
100
AcDbEntity
  8
0
 62
     0
100
AcDbLine
 10
913.3170848247001
 20
-169.1928710938
 30
0.0
 11
913.3170848247001
 21
-187.9845376015
 31
0.0
  0
LINE
  5
148
330
647
100
AcDbEntity
  8
0
 62
     0
100
AcDbLine
 10
913.3170848247001
 20
-169.1928710938
 30
0.0
 11
913.3170848247001
 21
-172.1928710938
 31
0.0
  0
SOLID
  5
149
330
647
100
AcDbEntity
  8
0
 62
     0
100
AcDbTrace
 10
913.3170848247001
 20
-169.1928710938
 30
0.0
 11
914.0670848246999
 21
-172.1928710938
 31
0.0
 12
912.5670848247001
 22
-172.1928710938
 32
0.0
 13
913.3170848247001
 23
-171.4428710938
 33
0.0
  0
LINE
  5
14A
330
647
100
AcDbEntity
  8
0
 62
     0
100
AcDbLine
 10
913.3170848247001
 20
-196.1928710938
 30
0.0
 11
913.3170848247001
 21
-193.1928710938
 31
0.0
  0
SOLID
  5
14B
330
647
100
AcDbEntity
  8
0
 62
     0
100
AcDbTrace
 10
913.3170848247001
 20
-196.1928710938
 30
0.0
 11
912.5670848247001
 21
-193.1928710938
 31
0.0
 12
914.0670848246999
 22
-193.1928710938
 32
0.0
 13
913.3170848247001
 23
-193.9428710938
 33
0.0
  0
ENDBLK
  5
14C
330
647
100
AcDbEntity
  8
0
100
AcDbBlockEnd
  0
BLOCK
  5
64A
330
649
100
AcDbEntity
  8
0
100
AcDbBlockBegin
  2
*D26
 70
     1
 10
0.0
 20
0.0
 30
0.0
  3
*D26
  1

  0
TEXT
  5
150
330
649
100
AcDbEntity
  8
0
 62
     0
100
AcDbText
 10
776.8213721328999
 20
-151.1950615889
 30
0.0
 40
2.998611020999999
  1
(28)
100
AcDbText
  0
LINE
  5
151
330
649
100
AcDbEntity
  8
0
 62
     0
100
AcDbLine
 10
794.5483685546999
 20
-171.6598727709
 30
0.0
 11
794.5483685546999
 21
-152.2242282397
 31
0.0
  0
LINE
  5
152
330
649
100
AcDbEntity
  8
0
 62
     0
100
AcDbLine
 10
766.5483685547
 20
-171.6598727709
 30
0.0
 11
766.5483685547
 21
-152.2242282397
 31
0.0
  0
LINE
  5
153
330
649
100
AcDbEntity
  8
0
 62
     0
100
AcDbLine
 10
794.5483685546999
 20
-152.7242282397
 30
0.0
 11
785.6408163124
 21
-152.7242282397
 31
0.0
  0
LINE
  5
154
330
649
100
AcDbEntity
  8
0
 62
     0
100
AcDbLine
 10
794.5483685546999
 20
-152.7242282397
 30
0.0
 11
775.0574832969999
 21
-152.7242282397
 31
0.0
  0
LINE
  5
155
330
649
100
AcDbEntity
  8
0
 62
     0
100
AcDbLine
 10
766.5483685547
 20
-152.7242282397
 30
0.0
 11
785.6408163124
 21
-152.7242282397
 31
0.0
  0
LINE
  5
156
330
649
100
AcDbEntity
  8
0
 62
     0
100
AcDbLine
 10
766.5483685547
 20
-152.7242282397
 30
0.0
 11
775.0574832969999
 21
-152.7242282397
 31
0.0
  0
LINE
  5
157
330
649
100
AcDbEntity
  8
0
 62
     0
100
AcDbLine
 10
766.5483685547
 20
-152.7242282397
 30
0.0
 11
769.5483685546999
 21
-152.7242282397
 31
0.0
  0
SOLID
  5
158
330
649
100
AcDbEntity
  8
0
 62
     0
100
AcDbTrace
 10
766.5483685547
 20
-152.7242282397
 30
0.0
 11
769.5483685546999
 21
-151.9742282397
 31
0.0
 12
769.5483685546999
 22
-153.4742282397
 32
0.0
 13
768.7983685547
 23
-152.7242282397
 33
0.0
  0
LINE
  5
159
330
649
100
AcDbEntity
  8
0
 62
     0
100
AcDbLine
 10
794.5483685546999
 20
-152.7242282397
 30
0.0
 11
791.5483685547
 21
-152.7242282397
 31
0.0
  0
SOLID
  5
15A
330
649
100
AcDbEntity
  8
0
 62
     0
100
AcDbTrace
 10
794.5483685546999
 20
-152.7242282397
 30
0.0
 11
791.5483685547
 21
-153.4742282397
 31
0.0
 12
791.5483685547
 22
-151.9742282397
 32
0.0
 13
792.2983685546999
 23
-152.7242282397
 33
0.0
  0
ENDBLK
  5
15B
330
649
100
AcDbEntity
  8
0
100
AcDbBlockEnd
  0
BLOCK
  5
64C
330
64B
100
AcDbEntity
  8
0
100
AcDbBlockBegin
  2
*D27
 70
     1
 10
0.0
 20
0.0
 30
0.0
  3
*D27
  1

  0
TEXT
  5
15F
330
64B
100
AcDbEntity
  8
0
 62
     0
100
AcDbText
 10
903.7408520887
 20
-307.8939264272
 30
0.0
 40
2.998611020999999
  1
0.8t
100
AcDbText
  0
LINE
  5
160
330
64B
100
AcDbEntity
  8
0
 62
     0
100
AcDbLine
 10
899.4672487629999
 20
-295.1928710938
 30
0.0
 11
899.4672487629999
 21
-309.923093078
 31
0.0
  0
LINE
  5
161
330
64B
100
AcDbEntity
  8
0
 62
     0
100
AcDbLine
 10
900.967248763
 20
-295.1928710938
 30
0.0
 11
900.967248763
 21
-309.923093078
 31
0.0
  0
LINE
  5
162
330
64B
100
AcDbEntity
  8
0
 62
     0
100
AcDbLine
 10
899.4672487629999
 20
-309.423093078
 30
0.0
 11
912.5602962682
 21
-309.423093078
 31
0.0
  0
LINE
  5
163
330
64B
100
AcDbEntity
  8
0
 62
     0
100
AcDbLine
 10
899.4672487629999
 20
-309.423093078
 30
0.0
 11
901.9769632527999
 21
-309.423093078
 31
0.0
  0
LINE
  5
164
330
64B
100
AcDbEntity
  8
0
 62
     0
100
AcDbLine
 10
900.967248763
 20
-309.423093078
 30
0.0
 11
912.5602962682
 21
-309.423093078
 31
0.0
  0
LINE
  5
165
330
64B
100
AcDbEntity
  8
0
 62
     0
100
AcDbLine
 10
900.967248763
 20
-309.423093078
 30
0.0
 11
901.9769632527999
 21
-309.423093078
 31
0.0
  0
LINE
  5
166
330
64B
100
AcDbEntity
  8
0
 62
     0
100
AcDbLine
 10
900.967248763
 20
-309.423093078
 30
0.0
 11
903.9672487629999
 21
-309.423093078
 31
0.0
  0
SOLID
  5
167
330
64B
100
AcDbEntity
  8
0
 62
     0
100
AcDbTrace
 10
900.967248763
 20
-309.423093078
 30
0.0
 11
903.9672487629999
 21
-308.673093078
 31
0.0
 12
903.9672487629999
 22
-310.173093078
 32
0.0
 13
903.2172487630001
 23
-309.423093078
 33
0.0
  0
LINE
  5
168
330
64B
100
AcDbEntity
  8
0
 62
     0
100
AcDbLine
 10
899.4672487629999
 20
-309.423093078
 30
0.0
 11
896.467248763
 21
-309.423093078
 31
0.0
  0
SOLID
  5
169
330
64B
100
AcDbEntity
  8
0
 62
     0
100
AcDbTrace
 10
899.4672487629999
 20
-309.423093078
 30
0.0
 11
896.467248763
 21
-310.173093078
 31
0.0
 12
896.467248763
 22
-308.673093078
 32
0.0
 13
897.217248763
 23
-309.423093078
 33
0.0
  0
ENDBLK
  5
16A
330
64B
100
AcDbEntity
  8
0
100
AcDbBlockEnd
  0
BLOCK
  5
64E
330
64D
100
AcDbEntity
  8
0
100
AcDbBlockBegin
  2
*D28
 70
     1
 10
0.0
 20
0.0
 30
0.0
  3
*D28
  1

  0
TEXT
  5
16E
330
64D
100
AcDbEntity
  8
0
 62
     0
100
AcDbText
 10
863.7033599271001
 20
-157.663704443
 30
0.0
 40
2.998611020999999
  1
71
100
AcDbText
  0
LINE
  5
16F
330
64D
100
AcDbEntity
  8
0
 62
     0
100
AcDbLine
 10
900.967248763
 20
-168.1928710938
 30
0.0
 11
900.967248763
 21
-158.6928710938
 31
0.0
  0
LINE
  5
170
330
64D
100
AcDbEntity
  8
0
 62
     0
100
AcDbLine
 10
829.9672487630001
 20
-198.1928710938
 30
0.0
 11
829.9672487630001
 21
-158.6928710938
 31
0.0
  0
LINE
  5
171
330
64D
100
AcDbEntity
  8
0
 62
     0
100
AcDbLine
 10
900.967248763
 20
-159.1928710938
 30
0.0
 11
868.9950264347997
 21
-159.1928710938
 31
0.0
  0
LINE
  5
172
330
64D
100
AcDbEntity
  8
0
 62
     0
100
AcDbLine
 10
900.967248763
 20
-159.1928710938
 30
0.0
 11
861.9394710911999
 21
-159.1928710938
 31
0.0
  0
LINE
  5
173
330
64D
100
AcDbEntity
  8
0
 62
     0
100
AcDbLine
 10
829.9672487630001
 20
-159.1928710938
 30
0.0
 11
868.9950264347997
 21
-159.1928710938
 31
0.0
  0
LINE
  5
174
330
64D
100
AcDbEntity
  8
0
 62
     0
100
AcDbLine
 10
829.9672487630001
 20
-159.1928710938
 30
0.0
 11
861.9394710911999
 21
-159.1928710938
 31
0.0
  0
LINE
  5
175
330
64D
100
AcDbEntity
  8
0
 62
     0
100
AcDbLine
 10
829.9672487630001
 20
-159.1928710938
 30
0.0
 11
832.967248763
 21
-159.1928710938
 31
0.0
  0
SOLID
  5
176
330
64D
100
AcDbEntity
  8
0
 62
     0
100
AcDbTrace
 10
829.9672487630001
 20
-159.1928710938
 30
0.0
 11
832.967248763
 21
-158.4428710938
 31
0.0
 12
832.967248763
 22
-159.9428710938
 32
0.0
 13
832.217248763
 23
-159.1928710938
 33
0.0
  0
LINE
  5
177
330
64D
100
AcDbEntity
  8
0
 62
     0
100
AcDbLine
 10
900.967248763
 20
-159.1928710938
 30
0.0
 11
897.9672487630001
 21
-159.1928710938
 31
0.0
  0
SOLID
  5
178
330
64D
100
AcDbEntity
  8
0
 62
     0
100
AcDbTrace
 10
900.967248763
 20
-159.1928710938
 30
0.0
 11
897.9672487630001
 21
-159.9428710938
 31
0.0
 12
897.9672487630001
 22
-158.4428710938
 32
0.0
 13
898.7172487630001
 23
-159.1928710938
 33
0.0
  0
ENDBLK
  5
179
330
64D
100
AcDbEntity
  8
0
100
AcDbBlockEnd
  0
BLOCK
  5
650
330
64F
100
AcDbEntity
  8
0
100
AcDbBlockBegin
  2
*D29
 70
     1
 10
0.0
 20
0.0
 30
0.0
  3
*D29
  1

  0
TEXT
  5
17D
330
64F
100
AcDbEntity
  8
0
 62
     0
100
AcDbText
 10
859.9394710911999
 20
-148.9834961096
 30
0.0
 40
2.998611020999999
  1
(75)
100
AcDbText
  0
LINE
  5
17E
330
64F
100
AcDbEntity
  8
0
 62
     0
100
AcDbLine
 10
900.967248763
 20
-168.1928710938
 30
0.0
 11
900.967248763
 21
-150.0126627604
 31
0.0
  0
LINE
  5
17F
330
64F
100
AcDbEntity
  8
0
 62
     0
100
AcDbLine
 10
825.967248763
 20
-198.1928710938
 30
0.0
 11
825.967248763
 21
-150.0126627604
 31
0.0
  0
LINE
  5
180
330
64F
100
AcDbEntity
  8
0
 62
     0
100
AcDbLine
 10
900.967248763
 20
-150.5126627604
 30
0.0
 11
868.7589152707001
 21
-150.5126627604
 31
0.0
  0
LINE
  5
181
330
64F
100
AcDbEntity
  8
0
 62
     0
100
AcDbLine
 10
900.967248763
 20
-150.5126627604
 30
0.0
 11
858.1755822553001
 21
-150.5126627604
 31
0.0
  0
LINE
  5
182
330
64F
100
AcDbEntity
  8
0
 62
     0
100
AcDbLine
 10
825.967248763
 20
-150.5126627604
 30
0.0
 11
868.7589152707001
 21
-150.5126627604
 31
0.0
  0
LINE
  5
183
330
64F
100
AcDbEntity
  8
0
 62
     0
100
AcDbLine
 10
825.967248763
 20
-150.5126627604
 30
0.0
 11
858.1755822553001
 21
-150.5126627604
 31
0.0
  0
LINE
  5
184
330
64F
100
AcDbEntity
  8
0
 62
     0
100
AcDbLine
 10
825.967248763
 20
-150.5126627604
 30
0.0
 11
828.9672487629999
 21
-150.5126627604
 31
0.0
  0
SOLID
  5
185
330
64F
100
AcDbEntity
  8
0
 62
     0
100
AcDbTrace
 10
825.967248763
 20
-150.5126627604
 30
0.0
 11
828.9672487629999
 21
-149.7626627604
 31
0.0
 12
828.9672487629999
 22
-151.2626627604
 32
0.0
 13
828.2172487630001
 23
-150.5126627604
 33
0.0
  0
LINE
  5
186
330
64F
100
AcDbEntity
  8
0
 62
     0
100
AcDbLine
 10
900.967248763
 20
-150.5126627604
 30
0.0
 11
897.9672487630001
 21
-150.5126627604
 31
0.0
  0
SOLID
  5
187
330
64F
100
AcDbEntity
  8
0
 62
     0
100
AcDbTrace
 10
900.967248763
 20
-150.5126627604
 30
0.0
 11
897.9672487630001
 21
-151.2626627604
 31
0.0
 12
897.9672487630001
 22
-149.7626627604
 32
0.0
 13
898.7172487630001
 23
-150.5126627604
 33
0.0
  0
ENDBLK
  5
188
330
64F
100
AcDbEntity
  8
0
100
AcDbBlockEnd
  0
BLOCK
  5
652
330
651
100
AcDbEntity
  8
0
100
AcDbBlockBegin
  2
*D30
 70
     1
 10
0.0
 20
0.0
 30
0.0
  3
*D30
  1

  0
TEXT
  5
18C
330
651
100
AcDbEntity
  8
0
 62
     0
100
AcDbText
 10
911.7618439552002
 20
-284.2206487656
 30
0.0
 40
2.998611020999999
  1
(27)
 50
90.0
100
AcDbText
  0
LINE
  5
18D
330
651
100
AcDbEntity
  8
0
 62
     0
100
AcDbLine
 10
901.967248763
 20
-294.1928710938
 30
0.0
 11
913.7910106058999
 21
-294.1928710938
 31
0.0
  0
LINE
  5
18E
330
651
100
AcDbEntity
  8
0
 62
     0
100
AcDbLine
 10
897.9672487630001
 20
-267.1928710938
 30
0.0
 11
913.7910106058999
 21
-267.1928710938
 31
0.0
  0
LINE
  5
18F
330
651
100
AcDbEntity
  8
0
 62
     0
100
AcDbLine
 10
913.2910106058998
 20
-294.1928710938
 30
0.0
 11
913.2910106058998
 21
-275.401204586
 31
0.0
  0
LINE
  5
190
330
651
100
AcDbEntity
  8
0
 62
     0
100
AcDbLine
 10
913.2910106058998
 20
-294.1928710938
 30
0.0
 11
913.2910106058998
 21
-285.9845376015
 31
0.0
  0
LINE
  5
191
330
651
100
AcDbEntity
  8
0
 62
     0
100
AcDbLine
 10
913.2910106058998
 20
-267.1928710938
 30
0.0
 11
913.2910106058998
 21
-275.401204586
 31
0.0
  0
LINE
  5
192
330
651
100
AcDbEntity
  8
0
 62
     0
100
AcDbLine
 10
913.2910106058998
 20
-267.1928710938
 30
0.0
 11
913.2910106058998
 21
-285.9845376015
 31
0.0
  0
LINE
  5
193
330
651
100
AcDbEntity
  8
0
 62
     0
100
AcDbLine
 10
913.2910106058998
 20
-267.1928710938
 30
0.0
 11
913.2910106058998
 21
-270.1928710938
 31
0.0
  0
SOLID
  5
194
330
651
100
AcDbEntity
  8
0
 62
     0
100
AcDbTrace
 10
913.2910106058998
 20
-267.1928710938
 30
0.0
 11
914.0410106058999
 21
-270.1928710938
 31
0.0
 12
912.5410106059
 22
-270.1928710938
 32
0.0
 13
913.2910106058998
 23
-269.4428710938
 33
0.0
  0
LINE
  5
195
330
651
100
AcDbEntity
  8
0
 62
     0
100
AcDbLine
 10
913.2910106058998
 20
-294.1928710938
 30
0.0
 11
913.2910106058998
 21
-291.1928710938
 31
0.0
  0
SOLID
  5
196
330
651
100
AcDbEntity
  8
0
 62
     0
100
AcDbTrace
 10
913.2910106058998
 20
-294.1928710938
 30
0.0
 11
912.5410106059
 21
-291.1928710938
 31
0.0
 12
914.0410106058999
 22
-291.1928710938
 32
0.0
 13
913.2910106058998
 23
-291.9428710938
 33
0.0
  0
ENDBLK
  5
197
330
651
100
AcDbEntity
  8
0
100
AcDbBlockEnd
  0
BLOCK
  5
654
330
653
100
AcDbEntity
  8
0
100
AcDbBlockBegin
  2
*D31
 70
     1
 10
0.0
 20
0.0
 30
0.0
  3
*D31
  1

  0
TEXT
  5
19B
330
653
100
AcDbEntity
  8
0
 62
     0
100
AcDbText
 10
814.8736289872001
 20
-235.2206487656
 30
0.0
 40
2.998611020999999
  1
(79)
 50
90.0
100
AcDbText
  0
LINE
  5
19C
330
653
100
AcDbEntity
  8
0
 62
     0
100
AcDbLine
 10
831.9672487630001
 20
-192.1928710938
 30
0.0
 11
815.9027956380001
 21
-192.1928710938
 31
0.0
  0
LINE
  5
19D
330
653
100
AcDbEntity
  8
0
 62
     0
100
AcDbLine
 10
831.9672487630001
 20
-271.1928710938
 30
0.0
 11
815.9027956380001
 21
-271.1928710938
 31
0.0
  0
LINE
  5
19E
330
653
100
AcDbEntity
  8
0
 62
     0
100
AcDbLine
 10
816.402795638
 20
-192.1928710938
 30
0.0
 11
816.402795638
 21
-226.401204586
 31
0.0
  0
LINE
  5
19F
330
653
100
AcDbEntity
  8
0
 62
     0
100
AcDbLine
 10
816.402795638
 20
-192.1928710938
 30
0.0
 11
816.402795638
 21
-236.9845376015
 31
0.0
  0
LINE
  5
1A0
330
653
100
AcDbEntity
  8
0
 62
     0
100
AcDbLine
 10
816.402795638
 20
-271.1928710938
 30
0.0
 11
816.402795638
 21
-226.401204586
 31
0.0
  0
LINE
  5
1A1
330
653
100
AcDbEntity
  8
0
 62
     0
100
AcDbLine
 10
816.402795638
 20
-271.1928710938
 30
0.0
 11
816.402795638
 21
-236.9845376015
 31
0.0
  0
LINE
  5
1A2
330
653
100
AcDbEntity
  8
0
 62
     0
100
AcDbLine
 10
816.402795638
 20
-271.1928710938
 30
0.0
 11
816.402795638
 21
-268.1928710938
 31
0.0
  0
SOLID
  5
1A3
330
653
100
AcDbEntity
  8
0
 62
     0
100
AcDbTrace
 10
816.402795638
 20
-271.1928710938
 30
0.0
 11
815.6527956379999
 21
-268.1928710938
 31
0.0
 12
817.152795638
 22
-268.1928710938
 32
0.0
 13
816.402795638
 23
-268.9428710938
 33
0.0
  0
LINE
  5
1A4
330
653
100
AcDbEntity
  8
0
 62
     0
100
AcDbLine
 10
816.402795638
 20
-192.1928710938
 30
0.0
 11
816.402795638
 21
-195.1928710938
 31
0.0
  0
SOLID
  5
1A5
330
653
100
AcDbEntity
  8
0
 62
     0
100
AcDbTrace
 10
816.402795638
 20
-192.1928710938
 30
0.0
 11
817.152795638
 21
-195.1928710938
 31
0.0
 12
815.6527956379999
 22
-195.1928710938
 32
0.0
 13
816.402795638
 23
-194.4428710938
 33
0.0
  0
ENDBLK
  5
1A6
330
653
100
AcDbEntity
  8
0
100
AcDbBlockEnd
  0
BLOCK
  5
656
330
655
100
AcDbEntity
  8
0
100
AcDbBlockBegin
  2
*U32
 70
     1
 10
0.0
 20
0.0
 30
0.0
  3
*U32
  1

  0
TEXT
  5
2F7
330
655
100
AcDbEntity
  8
図枠
  6
Continuous
100
AcDbText
 10
872.309343345417
 20
-319.8270456723208
 30
0.0
 40
2.804999959499999
  1
板　　厚
100
AcDbText
  0
ENDBLK
  5
2F9
330
655
100
AcDbEntity
  8
0
100
AcDbBlockEnd
  0
BLOCK
  5
658
330
657
100
AcDbEntity
  8
0
100
AcDbBlockBegin
  2
*U33
 70
     1
 10
0.0
 20
0.0
 30
0.0
  3
*U33
  1

  0
TEXT
  5
2FB
330
657
100
AcDbEntity
  8
図枠
  6
Continuous
100
AcDbText
 10
867.2327698435312
 20
-325.4124771431685
 30
0.0
 40
2.804999959499999
  1
＃400 研磨仕上げ
100
AcDbText
  0
ENDBLK
  5
2FD
330
657
100
AcDbEntity
  8
0
100
AcDbBlockEnd
  0
BLOCK
  5
65A
330
659
100
AcDbEntity
  8
0
100
AcDbBlockBegin
  2
*U34
 70
     1
 10
0.0
 20
0.0
 30
0.0
  3
*U34
  1

  0
TEXT
  5
2FF
330
659
100
AcDbEntity
  8
図枠
  6
Continuous
100
AcDbText
 10
842.5639626492509
 20
-319.8454213091
 30
0.0
 40
3.229999959499998
  1
SUS304-HL
100
AcDbText
  0
ENDBLK
  5
301
330
659
100
AcDbEntity
  8
0
100
AcDbBlockEnd
  0
BLOCK
  5
65C
330
65B
100
AcDbEntity
  8
0
100
AcDbBlockBegin
  2
*U35
 70
     1
 10
0.0
 20
0.0
 30
0.0
  3
*U35
  1

  0
TEXT
  5
303
330
65B
100
AcDbEntity
  8
図枠
  6
Continuous
100
AcDbText
 10
892.3980507924063
 20
-337.9164675037523
 30
0.0
 40
2.998611020999999
  1
水栓柱支持金具
100
AcDbText
  0
ENDBLK
  5
305
330
65B
100
AcDbEntity
  8
0
100
AcDbBlockEnd
  0
BLOCK
  5
65E
330
65D
100
AcDbEntity
  8
0
100
AcDbBlockBegin
  2
*U36
 70
     1
 10
0.0
 20
0.0
 30
0.0
  3
*U36
  1

  0
TEXT
  5
307
330
65D
100
AcDbEntity
  8
図枠
  6
Continuous
100
AcDbText
 10
887.9229663245178
 20
-346.3099178735645
 30
0.0
 40
2.998611020999999
  1
ＷＰ－７０Ｂ 承認図
100
AcDbText
  0
ENDBLK
  5
309
330
65D
100
AcDbEntity
  8
0
100
AcDbBlockEnd
  0
BLOCK
  5
660
330
65F
100
AcDbEntity
  8
0
100
AcDbBlockBegin
  2
*U37
 70
     1
 10
0.0
 20
0.0
 30
0.0
  3
*U37
  1

  0
TEXT
  5
30B
330
65F
100
AcDbEntity
  8
図枠
  6
Continuous
100
AcDbText
 10
890.776974275977
 20
-354.7490323706
 30
0.0
 40
2.998611020999999
  1
ＳＢＰ０００３３
100
AcDbText
  0
ENDBLK
  5
30D
330
65F
100
AcDbEntity
  8
0
100
AcDbBlockEnd
  0
BLOCK
  5
674
330
673
100
AcDbEntity
  8
0
100
AcDbBlockBegin
  2
*U38
 70
     1
 10
0.0
 20
0.0
 30
0.0
  3
*U38
  1

  0
TEXT
  5
357
330
673
100
AcDbEntity
  8
図枠
  6
Continuous
100
AcDbText
 10
819.6850729370288
 20
-339.558454757
 30
0.0
 40
2.337499999999999
  1
H16.4
100
AcDbText
  0
ENDBLK
  5
359
330
673
100
AcDbEntity
  8
0
100
AcDbBlockEnd
  0
BLOCK
  5
676
330
675
100
AcDbEntity
  8
0
100
AcDbBlockBegin
  2
*U39
 70
     1
 10
0.0
 20
0.0
 30
0.0
  3
*U39
  1

  0
TEXT
  5
35B
330
675
100
AcDbEntity
  8
図枠
  6
Continuous
100
AcDbText
 10
828.8808533938816
 20
-348.200840543802
 30
0.0
 40
2.337499999999999
  1
岸 本
100
AcDbText
  0
ENDBLK
  5
35D
330
675
100
AcDbEntity
  8
0
100
AcDbBlockEnd
  0
BLOCK
  5
678
330
677
100
AcDbEntity
  8
0
100
AcDbBlockBegin
  2
*U40
 70
     1
 10
0.0
 20
0.0
 30
0.0
  3
*U40
  1

  0
TEXT
  5
35F
330
677
100
AcDbEntity
  8
図枠
  6
Continuous
100
AcDbText
 10
840.6105805512421
 20
-339.558454757
 30
0.0
 40
2.337499999999999
  1
1：1
100
AcDbText
  0
ENDBLK
  5
361
330
677
100
AcDbEntity
  8
0
100
AcDbBlockEnd
  0
BLOCK
  5
67A
330
679
100
AcDbEntity
  8
0
100
AcDbBlockBegin
  2
*U41
 70
     1
 10
0.0
 20
0.0
 30
0.0
  3
*U41
  1

  0
TEXT
  5
363
330
679
100
AcDbEntity
  8
図枠
  6
Continuous
100
AcDbText
 10
905.3598509077202
 20
-319.8454213091
 30
0.0
 40
3.229999959499998
  1
0.8t
100
AcDbText
  0
ENDBLK
  5
365
330
679
100
AcDbEntity
  8
0
100
AcDbBlockEnd
  0
BLOCK
  5
67C
330
67B
100
AcDbEntity
  8
0
100
AcDbBlockBegin
  2
*U42
 70
     1
 10
0.0
 20
0.0
 30
0.0
  3
*U42
  1

  0
TEXT
  5
367
330
67B
100
AcDbEntity
  8
図枠
  6
Continuous
100
AcDbText
 10
850.7017802344984
 20
-330.8270456723208
 30
0.0
 40
2.804999959499999
  1
指定無き公差はJIS 0408-Bによること
100
AcDbText
  0
ENDBLK
  5
369
330
67B
100
AcDbEntity
  8
0
100
AcDbBlockEnd
  0
BLOCK
  5
67E
330
67D
100
AcDbEntity
  8
0
100
AcDbBlockBegin
  2
*U43
 70
     1
 10
0.0
 20
0.0
 30
0.0
  3
*U43
  1

  0
TEXT
  5
36B
330
67D
100
AcDbEntity
  8
図枠
  6
Continuous
100
AcDbText
 10
828.180789942105
 20
-343.9389750615685
 30
0.0
 40
2.337499999999999
  1
白須賀
100
AcDbText
  0
ENDBLK
  5
36D
330
67D
100
AcDbEntity
  8
0
100
AcDbBlockEnd
  0
BLOCK
  5
680
330
67F
100
AcDbEntity
  8
0
100
AcDbBlockBegin
  2
*U44
 70
     1
 10
0.0
 20
0.0
 30
0.0
  3
*U44
  1

  0
TEXT
  5
36F
330
67F
100
AcDbEntity
  8
図枠
  6
Continuous
100
AcDbText
 10
858.8927188761148
 20
-348.1177821681675
 30
0.0
 40
2.337499999999999
  1
園 原
100
AcDbText
  0
ENDBLK
  5
371
330
67F
100
AcDbEntity
  8
0
100
AcDbBlockEnd
  0
BLOCK
  5
682
330
681
100
AcDbEntity
  8
0
100
AcDbBlockBegin
  2
*U45
 70
     1
 10
0.0
 20
0.0
 30
0.0
  3
*U45
  1

  0
TEXT
  5
373
330
681
100
AcDbEntity
  8
図枠
  6
Continuous
100
AcDbText
 10
858.8927188761148
 20
-343.8677821681675
 30
0.0
 40
2.337499999999999
  1
園 原
100
AcDbText
  0
ENDBLK
  5
375
330
681
100
AcDbEntity
  8
0
100
AcDbBlockEnd
  0
BLOCK
  5
684
330
683
100
AcDbEntity
  8
0
100
AcDbBlockBegin
  2
*U46
 70
     1
 10
0.0
 20
0.0
 30
0.0
  3
*U46
  1

  0
TEXT
  5
377
330
683
100
AcDbEntity
  8
ﾚｲﾔ_1
  6
Continuous
100
AcDbText
 10
777.1247680798607
 20
-141.4149041982523
 30
0.0
 40
2.998611020999999
  1
2-Φ5.1×皿押しΦ10
100
AcDbText
  0
ENDBLK
  5
379
330
683
100
AcDbEntity
  8
0
100
AcDbBlockEnd
  0
ENDSEC
  0
SECTION
  2
ENTITIES
  0
LINE
  5
2F
330
610
100
AcDbEntity
  8
図枠
100
AcDbLine
 10
870.4998254750998
 20
-321.2654213496
 30
0.0
 11
870.4998254750998
 21
-315.7654213496
 31
0.0
  0
LINE
  5
30
330
610
100
AcDbEntity
  8
図枠
100
AcDbLine
 10
888.4998254750998
 20
-321.2654213496
 30
0.0
 11
888.4998254750998
 21
-315.7654213496
 31
0.0
  0
INSERT
  5
31
330
610
100
AcDbEntity
  8
0
  6
Continuous
100
AcDbBlockReference
  2
*U32
 10
0.0
 20
0.0
 30
0.0
  0
INSERT
  5
33
330
610
100
AcDbEntity
  8
0
  6
Continuous
100
AcDbBlockReference
  2
*U34
 10
0.0
 20
0.0
 30
0.0
  0
INSERT
  5
34
330
610
100
AcDbEntity
  8
0
  6
Continuous
100
AcDbBlockReference
  2
*U35
 10
0.0
 20
0.0
 30
0.0
  0
INSERT
  5
35
330
610
100
AcDbEntity
  8
0
  6
Continuous
100
AcDbBlockReference
  2
*U36
 10
0.0
 20
0.0
 30
0.0
  0
INSERT
  5
36
330
610
100
AcDbEntity
  8
0
  6
Continuous
100
AcDbBlockReference
  2
*U37
 10
0.0
 20
0.0
 30
0.0
  0
INSERT
  5
39
330
610
100
AcDbEntity
  8
ﾚｲﾔ_1
100
AcDbBlockReference
  2
CLUMP0
 10
0.0
 20
0.0
 30
0.0
  0
DIMENSION
  5
EA
330
610
100
AcDbEntity
  8
寸法線
100
AcDbDimension
280
     0
  2
*D21
 10
871.9450235516998
 20
-274.9574424468
 30
0.0
 11
871.9450235516998
 21
-239.4574424468
 31
0.0
 70
   128
  1
<>
 71
     5
 42
-1.0
 73
     0
 74
     0
 75
     0
  3
STANDARD
100
AcDbAlignedDimension
 13
861.9450235517
 23
-274.9574424468
 33
0.0
 14
861.9450235517
 24
-203.9574424468
 34
0.0
 50
90.0
100
AcDbRotatedDimension
  0
DIMENSION
  5
F9
330
610
100
AcDbEntity
  8
寸法線
100
AcDbDimension
280
     0
  2
*D22
 10
756.2348919921999
 20
-169.1928710938
 30
0.0
 11
756.2348919921999
 21
-231.6928710938
 31
0.0
 70
   128
  1
(125)
 71
     5
 42
-1.0
 73
     0
 74
     0
 75
     0
  3
STANDARD
100
AcDbAlignedDimension
 13
780.5483685547
 23
-169.1928710938
 33
0.0
 14
780.5483685547
 24
-294.1928710938
 34
0.0
 50
90.0
100
AcDbRotatedDimension
  0
DIMENSION
  5
108
330
610
100
AcDbEntity
  8
寸法線
100
AcDbDimension
280
     0
  2
*D23
 10
807.3334028373999
 20
-282.1928710938
 30
0.0
 11
807.3334028373999
 21
-231.6928710938
 31
0.0
 70
   128
  1
(<>)
 71
     5
 42
-1.0
 73
     0
 74
     0
 75
     0
  3
STANDARD
100
AcDbAlignedDimension
 13
797.3334028373999
 23
-282.1928710938
 33
0.0
 14
797.3334028373999
 24
-181.1928710938
 34
0.0
 50
90.0
100
AcDbRotatedDimension
  0
ARC
  5
109
330
610
100
AcDbEntity
  8
ﾚｲﾔ_1
 62
     5
100
AcDbCircle
 10
899.4672487629999
 20
-129.2393489223
 30
0.0
 40
1.5
100
AcDbArc
 50
0.0
 51
90.0
  0
LINE
  5
10A
330
610
100
AcDbEntity
  8
ﾚｲﾔ_1
 62
     5
100
AcDbLine
 10
900.967248763
 20
-133.2393489223
 30
0.0
 11
900.967248763
 21
-129.2393489223
 31
0.0
  0
LINE
  5
10B
330
610
100
AcDbEntity
  8
ﾚｲﾔ_1
 62
     5
100
AcDbLine
 10
898.467248763
 20
-124.8606692658
 30
0.0
 11
898.467248763
 21
-113.6180285787
 31
0.0
  0
LINE
  5
10C
330
610
100
AcDbEntity
  8
ﾚｲﾔ_1
 62
     5
100
AcDbLine
 10
900.967248763
 20
-109.2393489223
 30
0.0
 11
900.967248763
 21
-119.2393489223
 31
0.0
  0
ARC
  5
10D
330
610
100
AcDbEntity
  8
ﾚｲﾔ_1
 62
     5
100
AcDbCircle
 10
899.4672487629999
 20
-109.2393489223
 30
0.0
 40
1.5
100
AcDbArc
 50
270.0
 51
0.0
  0
LINE
  5
10E
330
610
100
AcDbEntity
  8
ﾚｲﾔ_1
 62
     5
100
AcDbLine
 10
900.967248763
 20
-105.2393489223
 30
0.0
 11
900.967248763
 21
-109.2393489223
 31
0.0
  0
LINE
  5
10F
330
610
100
AcDbEntity
  8
ﾚｲﾔ_1
 62
     5
100
AcDbLine
 10
898.467248763
 20
-110.7393489223
 30
0.0
 11
898.467248763
 21
-113.6180285787
 31
0.0
  0
LINE
  5
110
330
610
100
AcDbEntity
  8
ﾚｲﾔ_1
 62
     5
100
AcDbLine
 10
898.467248763
 20
-127.7393489223
 30
0.0
 11
898.467248763
 21
-124.8606692658
 31
0.0
  0
LINE
  5
111
330
610
100
AcDbEntity
  8
ﾚｲﾔ_1
 62
     5
100
AcDbLine
 10
900.967248763
 20
-129.2393489223
 30
0.0
 11
900.967248763
 21
-119.2393489223
 31
0.0
  0
LINE
  5
112
330
610
100
AcDbEntity
  8
ﾚｲﾔ_1
  6
STITCH
100
AcDbLine
 10
899.7172487630001
 20
-121.4893489223
 30
0.0
 11
900.7779089348
 21
-122.550009094
 31
0.0
  0
LINE
  5
113
330
610
100
AcDbEntity
  8
ﾚｲﾔ_1
  6
STITCH
100
AcDbLine
 10
896.9672487630001
 20
-124.2393489223
 30
0.0
 11
899.7172487630001
 21
-121.4893489223
 31
0.0
  0
LINE
  5
114
330
610
100
AcDbEntity
  8
ﾚｲﾔ_1
  6
STITCH
100
AcDbLine
 10
896.9672487630001
 20
-127.7393489223
 30
0.0
 11
896.9672487630001
 21
-119.2393489223
 31
0.0
  0
LINE
  5
115
330
610
100
AcDbEntity
  8
ﾚｲﾔ_1
  6
STITCH
100
AcDbLine
 10
900.7779089348
 20
-122.550009094
 30
0.0
 11
898.467248763
 21
-124.8606692658
 31
0.0
  0
LINE
  5
116
330
610
100
AcDbEntity
  8
ﾚｲﾔ_1
  6
STITCH
100
AcDbLine
 10
900.7779089348
 20
-122.550009094
 30
0.0
 11
900.7779089348
 21
-115.9286887505
 31
0.0
  0
INSERT
  5
117
330
610
100
AcDbEntity
  8
0
  6
Continuous
100
AcDbBlockReference
  2
*U38
 10
0.0
 20
0.0
 30
0.0
  0
INSERT
  5
118
330
610
100
AcDbEntity
  8
0
  6
Continuous
100
AcDbBlockReference
  2
*U39
 10
0.0
 20
0.0
 30
0.0
  0
INSERT
  5
119
330
610
100
AcDbEntity
  8
0
  6
Continuous
100
AcDbBlockReference
  2
*U40
 10
0.0
 20
0.0
 30
0.0
  0
INSERT
  5
11A
330
610
100
AcDbEntity
  8
0
  6
Continuous
100
AcDbBlockReference
  2
*U41
 10
0.0
 20
0.0
 30
0.0
  0
INSERT
  5
11B
330
610
100
AcDbEntity
  8
0
  6
Continuous
100
AcDbBlockReference
  2
*U42
 10
0.0
 20
0.0
 30
0.0
  0
INSERT
  5
11C
330
610
100
AcDbEntity
  8
0
  6
Continuous
100
AcDbBlockReference
  2
*U43
 10
0.0
 20
0.0
 30
0.0
  0
INSERT
  5
11D
330
610
100
AcDbEntity
  8
0
  6
Continuous
100
AcDbBlockReference
  2
*U44
 10
0.0
 20
0.0
 30
0.0
  0
INSERT
  5
11E
330
610
100
AcDbEntity
  8
0
  6
Continuous
100
AcDbBlockReference
  2
*U45
 10
0.0
 20
0.0
 30
0.0
  0
LINE
  5
11F
330
610
100
AcDbEntity
  8
ﾚｲﾔ_1
  6
STITCH
100
AcDbLine
 10
899.4672487629999
 20
-129.2393489223
 30
0.0
 11
898.467248763
 21
-129.2393489223
 31
0.0
  0
LINE
  5
120
330
610
100
AcDbEntity
  8
ﾚｲﾔ_1
  6
STITCH
100
AcDbLine
 10
899.4672487629999
 20
-133.2393489223
 30
0.0
 11
899.4672487629999
 21
-129.2393489223
 31
0.0
  0
LINE
  5
121
330
610
100
AcDbEntity
  8
ﾚｲﾔ_1
  6
HIDDEN
100
AcDbLine
 10
899.7172487630001
 20
-184.4430035724
 30
0.0
 11
900.7779089348
 21
-185.5036637441999
 31
0.0
  0
LINE
  5
122
330
610
100
AcDbEntity
  8
ﾚｲﾔ_1
  6
HIDDEN
100
AcDbLine
 10
896.9672487630001
 20
-187.1930035724
 30
0.0
 11
899.7172487630001
 21
-184.4430035724
 31
0.0
  0
LINE
  5
123
330
610
100
AcDbEntity
  8
ﾚｲﾔ_1
  6
HIDDEN
100
AcDbLine
 10
896.9672487630001
 20
-177.1930035724
 30
0.0
 11
899.7172487630001
 21
-179.9430035724
 31
0.0
  0
LINE
  5
124
330
610
100
AcDbEntity
  8
ﾚｲﾔ_1
  6
HIDDEN
100
AcDbLine
 10
899.7172487630001
 20
-179.9430035724
 30
0.0
 11
900.7779089348
 21
-178.8823434006
 31
0.0
  0
LINE
  5
125
330
610
100
AcDbEntity
  8
ﾚｲﾔ_1
  6
HIDDEN
100
AcDbLine
 10
900.7779089348
 20
-185.5036637441999
 30
0.0
 11
898.467248763
 21
-187.8143239159
 31
0.0
  0
LINE
  5
126
330
610
100
AcDbEntity
  8
ﾚｲﾔ_1
  6
HIDDEN
100
AcDbLine
 10
900.7779089348
 20
-178.8823434006
 30
0.0
 11
898.467248763
 21
-176.5716832288
 31
0.0
  0
LINE
  5
127
330
610
100
AcDbEntity
  8
ﾚｲﾔ_1
  6
HIDDEN
100
AcDbLine
 10
900.7779089348
 20
-185.5036637441999
 30
0.0
 11
900.7779089348
 21
-178.8823434006
 31
0.0
  0
LINE
  5
128
330
610
100
AcDbEntity
  8
ﾚｲﾔ_1
  6
BORDER
 62
     3
100
AcDbLine
 10
903.5114795322
 20
-182.1930035724
 30
0.0
 11
894.7191718399
 21
-182.1930035724
 31
0.0
  0
LINE
  5
129
330
610
100
AcDbEntity
  8
ﾚｲﾔ_1
 62
     5
100
AcDbLine
 10
832.967248763
 20
-194.6928710938
 30
0.0
 11
896.9672487630001
 21
-194.6928710938
 31
0.0
  0
LINE
  5
12A
330
610
100
AcDbEntity
  8
ﾚｲﾔ_1
 62
     5
100
AcDbLine
 10
832.967248763
 20
-196.1928710938
 30
0.0
 11
896.9672487630001
 21
-196.1928710938
 31
0.0
  0
LINE
  5
12B
330
610
100
AcDbEntity
  8
ﾚｲﾔ_1
 62
     5
100
AcDbLine
 10
832.967248763
 20
-192.1928710938
 30
0.0
 11
895.9672487629999
 21
-192.1928710938
 31
0.0
  0
LINE
  5
12C
330
610
100
AcDbEntity
  8
ﾚｲﾔ_1
 62
     5
100
AcDbLine
 10
899.4672487629999
 20
-172.6928710938
 30
0.0
 11
899.4672487629999
 21
-169.1928710938
 31
0.0
  0
LINE
  5
12D
330
610
100
AcDbEntity
  8
ﾚｲﾔ_1
 62
     5
100
AcDbLine
 10
900.967248763
 20
-169.1928710938
 30
0.0
 11
899.4672487629999
 21
-169.1928710938
 31
0.0
  0
LINE
  5
12E
330
610
100
AcDbEntity
  8
ﾚｲﾔ_1
 62
     5
100
AcDbLine
 10
900.967248763
 20
-173.1928710938
 30
0.0
 11
900.967248763
 21
-169.1928710938
 31
0.0
  0
ARC
  5
12F
330
610
100
AcDbEntity
  8
ﾚｲﾔ_1
 62
     5
100
AcDbCircle
 10
895.9672487629999
 20
-191.1928710938
 30
0.0
 40
1.0
100
AcDbArc
 50
270.0
 51
0.0
  0
DIMENSION
  5
13E
330
610
100
AcDbEntity
  8
寸法線
100
AcDbDimension
280
     0
  2
*D24
 10
829.9672487630001
 20
-254.5104492188
 30
0.0
 11
838.6568262966997
 21
-254.5104492188
 31
0.0
 70
   128
  1
(4)
 71
     5
 42
-1.0
 73
     0
 74
     0
 75
     0
  3
STANDARD
100
AcDbAlignedDimension
 13
829.9672487630001
 23
-254.5104492188
 33
0.0
 14
825.967248763
 24
-254.5104492188
 34
0.0
100
AcDbRotatedDimension
  0
DIMENSION
  5
14D
330
610
100
AcDbEntity
  8
寸法線
100
AcDbDimension
280
     0
  2
*D25
 10
913.3170848247001
 20
-196.1928710938
 30
0.0
 11
913.3170848247001
 21
-182.6928710938
 31
0.0
 70
   128
  1
(27)
 71
     5
 42
-1.0
 73
     0
 74
     0
 75
     0
  3
STANDARD
100
AcDbAlignedDimension
 13
896.9672487630001
 23
-196.1928710938
 33
0.0
 14
900.967248763
 24
-169.1928710938
 34
0.0
 50
90.0
100
AcDbRotatedDimension
  0
DIMENSION
  5
15C
330
610
100
AcDbEntity
  8
寸法線
100
AcDbDimension
280
     0
  2
*D26
 10
794.5483685546999
 20
-152.7242282397
 30
0.0
 11
780.3491498047
 21
-152.7242282397
 31
0.0
 70
   128
  1
(28)
 71
     5
 42
-1.0
 73
     0
 74
     0
 75
     0
  3
STANDARD
100
AcDbAlignedDimension
 13
794.5483685546999
 23
-172.6598727709
 33
0.0
 14
766.5483685547
 24
-172.6598727709
 34
0.0
100
AcDbRotatedDimension
  0
DIMENSION
  5
16B
330
610
100
AcDbEntity
  8
寸法線
100
AcDbDimension
280
     0
  2
*D27
 10
899.4672487629999
 20
-309.423093078
 30
0.0
 11
907.2686297605001
 21
-309.423093078
 31
0.0
 70
   128
  1
0.8t
 71
     5
 42
-1.0
 73
     0
 74
     0
 75
     0
  3
STANDARD
100
AcDbAlignedDimension
 13
899.4672487629999
 23
-294.1928710938
 33
0.0
 14
900.967248763
 24
-294.1928710938
 34
0.0
 50
180.0
100
AcDbRotatedDimension
  0
DIMENSION
  5
17A
330
610
100
AcDbEntity
  8
寸法線
100
AcDbDimension
280
     0
  2
*D28
 10
900.967248763
 20
-159.1928710938
 30
0.0
 11
865.467248763
 21
-159.1928710938
 31
0.0
 70
   128
  1
<>
 71
     5
 42
-1.0
 73
     0
 74
     0
 75
     0
  3
STANDARD
100
AcDbAlignedDimension
 13
900.967248763
 23
-169.1928710938
 33
0.0
 14
829.9672487630001
 24
-199.1928710938
 34
0.0
100
AcDbRotatedDimension
  0
DIMENSION
  5
189
330
610
100
AcDbEntity
  8
寸法線
100
AcDbDimension
280
     0
  2
*D29
 10
900.967248763
 20
-150.5126627604
 30
0.0
 11
863.467248763
 21
-150.5126627604
 31
0.0
 70
   128
  1
(75)
 71
     5
 42
-1.0
 73
     0
 74
     0
 75
     0
  3
STANDARD
100
AcDbAlignedDimension
 13
900.967248763
 23
-169.1928710938
 33
0.0
 14
825.967248763
 24
-199.1928710938
 34
0.0
100
AcDbRotatedDimension
  0
DIMENSION
  5
198
330
610
100
AcDbEntity
  8
寸法線
100
AcDbDimension
280
     0
  2
*D30
 10
913.2910106058998
 20
-294.1928710938
 30
0.0
 11
913.2910106058998
 21
-280.6928710938
 31
0.0
 70
   128
  1
(27)
 71
     5
 42
-1.0
 73
     0
 74
     0
 75
     0
  3
STANDARD
100
AcDbAlignedDimension
 13
900.967248763
 23
-294.1928710938
 33
0.0
 14
896.9672487630001
 24
-267.1928710938
 34
0.0
 50
90.0
100
AcDbRotatedDimension
  0
DIMENSION
  5
1A7
330
610
100
AcDbEntity
  8
寸法線
100
AcDbDimension
280
     0
  2
*D31
 10
816.402795638
 20
-192.1928710938
 30
0.0
 11
816.402795638
 21
-231.6928710938
 31
0.0
 70
   128
  1
(79)
 71
     5
 42
-1.0
 73
     0
 74
     0
 75
     0
  3
STANDARD
100
AcDbAlignedDimension
 13
832.967248763
 23
-192.1928710938
 33
0.0
 14
832.967248763
 24
-271.1928710938
 34
0.0
 50
90.0
100
AcDbRotatedDimension
  0
ARC
  5
1A8
330
610
100
AcDbEntity
  8
ﾚｲﾔ_1
  6
STITCH
100
AcDbCircle
 10
896.467248763
 20
-191.6928710938
 30
0.0
 40
2.0
100
AcDbArc
 50
270.0
 51
0.0
  0
LINE
  5
1A9
330
610
100
AcDbEntity
  8
ﾚｲﾔ_1
  6
STITCH
100
AcDbLine
 10
898.467248763
 20
-175.1928710938
 30
0.0
 11
898.467248763
 21
-191.6928710938
 31
0.0
  0
ARC
  5
1AA
330
610
100
AcDbEntity
  8
ﾚｲﾔ_1
  6
STITCH
100
AcDbCircle
 10
898.967248763
 20
-175.1928710938
 30
0.0
 40
0.5
100
AcDbArc
 50
90.0
 51
180.0
  0
LINE
  5
1AB
330
610
100
AcDbEntity
  8
ﾚｲﾔ_1
  6
STITCH
100
AcDbLine
 10
898.967248763
 20
-174.6928710938
 30
0.0
 11
899.4672487629999
 21
-174.6928710938
 31
0.0
  0
ARC
  5
1AC
330
610
100
AcDbEntity
  8
ﾚｲﾔ_1
  6
STITCH
100
AcDbCircle
 10
899.4672487629999
 20
-173.1928710938
 30
0.0
 40
1.5
100
AcDbArc
 50
270.0
 51
0.0
  0
LINE
  5
1AD
330
610
100
AcDbEntity
  8
ﾚｲﾔ_1
100
AcDbLine
 10
832.967248763
 20
-196.1928710938
 30
0.0
 11
861.9450235517
 21
-203.9574424468
 31
0.0
  0
LINE
  5
1AE
330
610
100
AcDbEntity
  8
ﾚｲﾔ_1
 62
     5
100
AcDbLine
 10
829.9672487630001
 20
-133.2393489223
 30
0.0
 11
828.467248763
 21
-133.2393489223
 31
0.0
  0
LINE
  5
1AF
330
610
100
AcDbEntity
  8
ﾚｲﾔ_1
 62
     5
100
AcDbLine
 10
827.967248763
 20
-110.7393489223
 30
0.0
 11
827.4672487630001
 21
-110.7393489223
 31
0.0
  0
ARC
  5
1B0
330
610
100
AcDbEntity
  8
ﾚｲﾔ_1
 62
     5
100
AcDbCircle
 10
827.967248763
 20
-108.7393489223
 30
0.0
 40
0.5
100
AcDbArc
 50
270.0
 51
0.0
  0
LINE
  5
1B1
330
610
100
AcDbEntity
  8
ﾚｲﾔ_1
 62
     5
100
AcDbLine
 10
828.467248763
 20
-105.2393489223
 30
0.0
 11
828.467248763
 21
-108.7393489223
 31
0.0
  0
LINE
  5
1B2
330
610
100
AcDbEntity
  8
ﾚｲﾔ_1
 62
     5
100
AcDbLine
 10
827.967248763
 20
-109.2393489223
 30
0.0
 11
827.4672487630001
 21
-109.2393489223
 31
0.0
  0
ARC
  5
1B3
330
610
100
AcDbEntity
  8
ﾚｲﾔ_1
 62
     5
100
AcDbCircle
 10
827.4672487630001
 20
-110.7393489223
 30
0.0
 40
1.5
100
AcDbArc
 50
90.0
 51
180.0
  0
LINE
  5
1B4
330
610
100
AcDbEntity
  8
ﾚｲﾔ_1
 62
     5
100
AcDbLine
 10
825.967248763
 20
-110.7393489223
 30
0.0
 11
825.967248763
 21
-119.2393489223
 31
0.0
  0
LINE
  5
1B5
330
610
100
AcDbEntity
  8
ﾚｲﾔ_1
 62
     5
100
AcDbLine
 10
827.4672487630001
 20
-110.7393489223
 30
0.0
 11
827.4672487630001
 21
-119.2393489223
 31
0.0
  0
LINE
  5
1B6
330
610
100
AcDbEntity
  8
ﾚｲﾔ_1
 62
     5
100
AcDbLine
 10
827.4672487630001
 20
-127.7393489223
 30
0.0
 11
827.4672487630001
 21
-119.2393489223
 31
0.0
  0
LINE
  5
1B7
330
610
100
AcDbEntity
  8
ﾚｲﾔ_1
 62
     5
100
AcDbLine
 10
825.967248763
 20
-127.7393489223
 30
0.0
 11
825.967248763
 21
-119.2393489223
 31
0.0
  0
LINE
  5
1B8
330
610
100
AcDbEntity
  8
ﾚｲﾔ_1
 62
     5
100
AcDbLine
 10
827.967248763
 20
-127.7393489223
 30
0.0
 11
827.4672487630001
 21
-127.7393489223
 31
0.0
  0
LINE
  5
1B9
330
610
100
AcDbEntity
  8
ﾚｲﾔ_1
  6
STITCH
100
AcDbLine
 10
896.9672487630001
 20
-114.2393489223
 30
0.0
 11
899.7172487630001
 21
-116.9893489223
 31
0.0
  0
LINE
  5
1BA
330
610
100
AcDbEntity
  8
ﾚｲﾔ_1
  6
STITCH
100
AcDbLine
 10
899.7172487630001
 20
-116.9893489223
 30
0.0
 11
900.7779089348
 21
-115.9286887505
 31
0.0
  0
LINE
  5
1BB
330
610
100
AcDbEntity
  8
ﾚｲﾔ_1
  6
STITCH
100
AcDbLine
 10
896.9672487630001
 20
-110.7393489223
 30
0.0
 11
896.9672487630001
 21
-119.2393489223
 31
0.0
  0
LINE
  5
1BC
330
610
100
AcDbEntity
  8
ﾚｲﾔ_1
  6
STITCH
100
AcDbLine
 10
899.4672487629999
 20
-109.2393489223
 30
0.0
 11
898.467248763
 21
-109.2393489223
 31
0.0
  0
ARC
  5
1BD
330
610
100
AcDbEntity
  8
ﾚｲﾔ_1
  6
STITCH
100
AcDbCircle
 10
898.467248763
 20
-110.7393489223
 30
0.0
 40
1.5
100
AcDbArc
 50
90.0
 51
180.0
  0
LINE
  5
1BE
330
610
100
AcDbEntity
  8
ﾚｲﾔ_1
  6
STITCH
100
AcDbLine
 10
899.4672487629999
 20
-105.2393489223
 30
0.0
 11
899.4672487629999
 21
-109.2393489223
 31
0.0
  0
LINE
  5
1BF
330
610
100
AcDbEntity
  8
ﾚｲﾔ_1
  6
STITCH
100
AcDbLine
 10
900.7779089348
 20
-115.9286887505
 30
0.0
 11
898.467248763
 21
-113.6180285787
 31
0.0
  0
ARC
  5
1C0
330
610
100
AcDbEntity
  8
ﾚｲﾔ_1
  6
STITCH
100
AcDbCircle
 10
898.467248763
 20
-127.7393489223
 30
0.0
 40
1.5
100
AcDbArc
 50
180.0
 51
270.0
  0
ARC
  5
1C1
330
610
100
AcDbEntity
  8
ﾚｲﾔ_1
 62
     5
100
AcDbCircle
 10
827.967248763
 20
-129.7393489223
 30
0.0
 40
2.0
100
AcDbArc
 50
0.0
 51
90.0
  0
LINE
  5
1C2
330
610
100
AcDbEntity
  8
ﾚｲﾔ_1
  6
BORDER
 62
     3
100
AcDbLine
 10
764.6456391242999
 20
-181.1928710937
 30
0.0
 11
797.3334028373999
 21
-181.1928710938
 31
0.0
  0
LINE
  5
1C3
330
610
100
AcDbEntity
  8
ﾚｲﾔ_1
100
AcDbLine
 10
784.1044573378999
 20
-177.6780122678
 30
0.0
 11
818.5978184657001
 21
-143.5845736089
 31
0.0
  0
SOLID
  5
1C4
330
610
100
AcDbEntity
  8
ﾚｲﾔ_1
100
AcDbTrace
 10
784.1044573378999
 20
-177.6780122678
 30
0.0
 11
785.9489807285998
 21
-174.5257947912
 31
0.0
 12
785.9411860799998
 22
-175.8625789016
 32
0.0
 13
785.9411860799998
 23
-175.8625789016
 33
0.0
  0
SOLID
  5
1C5
330
610
100
AcDbEntity
  8
ﾚｲﾔ_1
100
AcDbTrace
 10
784.1044573378999
 20
-177.6780122678
 30
0.0
 11
787.2779701904
 21
-175.8703735502
 31
0.0
 12
785.9411860799998
 22
-175.8625789016
 32
0.0
 13
785.9411860799998
 23
-175.8625789016
 33
0.0
  0
LINE
  5
1C6
330
610
100
AcDbEntity
  8
ﾚｲﾔ_1
100
AcDbLine
 10
818.5978184657001
 20
-143.5845736089
 30
0.0
 11
776.1861289713
 21
-143.5845736089
 31
0.0
  0
ARC
  5
1C7
330
610
100
AcDbEntity
  8
ﾚｲﾔ_1
 62
     5
100
AcDbCircle
 10
773.0483685547
 20
-193.6928710938
 30
0.0
 40
2.5
100
AcDbArc
 50
90.0
 51
180.0
  0
LINE
  5
1C8
330
610
100
AcDbEntity
  8
ﾚｲﾔ_1
 62
     5
100
AcDbLine
 10
788.0483685547
 20
-191.1928710938
 30
0.0
 11
773.0483685547
 21
-191.1928710938
 31
0.0
  0
LINE
  5
1C9
330
610
100
AcDbEntity
  8
ﾚｲﾔ_1
 62
     5
100
AcDbLine
 10
770.5483685547
 20
-193.6928710938
 30
0.0
 11
770.5483685547
 21
-175.1928710938
 31
0.0
  0
LINE
  5
1CA
330
610
100
AcDbEntity
  8
ﾚｲﾔ_1
 62
     5
100
AcDbLine
 10
770.5483685547
 20
-194.6928710938
 30
0.0
 11
766.5483685547
 21
-194.6928710938
 31
0.0
  0
CIRCLE
  5
1CB
330
610
100
AcDbEntity
  8
ﾚｲﾔ_1
 62
     5
100
AcDbCircle
 10
780.5483685547
 20
-181.1928710938
 30
0.0
 40
5.0
  0
ARC
  5
1CC
330
610
100
AcDbEntity
  8
ﾚｲﾔ_1
 62
     5
100
AcDbCircle
 10
780.5483685547
 20
-199.1928710938
 30
0.0
 40
26.0
100
AcDbArc
 50
67.380135052
 51
112.619864948
  0
ARC
  5
1CD
330
610
100
AcDbEntity
  8
ﾚｲﾔ_1
 62
     5
100
AcDbCircle
 10
780.5483685547
 20
-199.1928710938
 30
0.0
 40
30.0
100
AcDbArc
 50
62.18186071529999
 51
117.8181392847
  0
CIRCLE
  5
1CE
330
610
100
AcDbEntity
  8
ﾚｲﾔ_1
 62
     5
100
AcDbCircle
 10
780.5483685547
 20
-181.1928710938
 30
0.0
 40
2.25
  0
LINE
  5
1CF
330
610
100
AcDbEntity
  8
ﾚｲﾔ_1
 62
     5
100
AcDbLine
 10
790.5483685546999
 20
-193.6928710938
 30
0.0
 11
790.5483685546999
 21
-175.1928710938
 31
0.0
  0
ARC
  5
1D0
330
610
100
AcDbEntity
  8
ﾚｲﾔ_1
 62
     5
100
AcDbCircle
 10
788.0483685547
 20
-193.6928710938
 30
0.0
 40
2.5
100
AcDbArc
 50
0.0
 51
90.0
  0
LINE
  5
1D1
330
610
100
AcDbEntity
  8
ﾚｲﾔ_1
 62
     5
100
AcDbLine
 10
794.5483685546999
 20
-194.6928710938
 30
0.0
 11
790.5483685546999
 21
-194.6928710938
 31
0.0
  0
ARC
  5
1D2
330
610
100
AcDbEntity
  8
ﾚｲﾔ_1
  6
STITCH
100
AcDbCircle
 10
773.0483685547
 20
-193.6928710938
 30
0.0
 40
1.0
100
AcDbArc
 50
90.0
 51
180.0
  0
LINE
  5
1D3
330
610
100
AcDbEntity
  8
ﾚｲﾔ_1
  6
STITCH
100
AcDbLine
 10
780.5483685547
 20
-192.6928710938
 30
0.0
 11
773.0483685547
 21
-192.6928710938
 31
0.0
  0
LINE
  5
1D4
330
610
100
AcDbEntity
  8
ﾚｲﾔ_1
 62
     5
100
AcDbLine
 10
899.4672487629999
 20
-192.1928710938
 30
0.0
 11
899.4672487629999
 21
-172.6928710938
 31
0.0
  0
LINE
  5
1D5
330
610
100
AcDbEntity
  8
ﾚｲﾔ_1
 62
     5
100
AcDbLine
 10
900.967248763
 20
-192.1928710938
 30
0.0
 11
900.967248763
 21
-173.1928710938
 31
0.0
  0
ARC
  5
1D6
330
610
100
AcDbEntity
  8
ﾚｲﾔ_1
 62
     5
100
AcDbCircle
 10
896.9672487630001
 20
-192.1928710938
 30
0.0
 40
4.0
100
AcDbArc
 50
270.0
 51
0.0
  0
ARC
  5
1D7
330
610
100
AcDbEntity
  8
ﾚｲﾔ_1
 62
     5
100
AcDbCircle
 10
896.9672487630001
 20
-192.1928710938
 30
0.0
 40
2.5
100
AcDbArc
 50
270.0
 51
0.0
  0
LINE
  5
1D8
330
610
100
AcDbEntity
  8
ﾚｲﾔ_1
 62
     5
100
AcDbLine
 10
896.9672487630001
 20
-175.1928710938
 30
0.0
 11
896.9672487630001
 21
-191.1928710938
 31
0.0
  0
ARC
  5
1D9
330
610
100
AcDbEntity
  8
ﾚｲﾔ_1
 62
     5
100
AcDbCircle
 10
898.967248763
 20
-172.6928710938
 30
0.0
 40
0.5
100
AcDbArc
 50
270.0
 51
0.0
  0
ARC
  5
1DA
330
610
100
AcDbEntity
  8
ﾚｲﾔ_1
 62
     5
100
AcDbCircle
 10
898.967248763
 20
-175.1928710938
 30
0.0
 40
2.0
100
AcDbArc
 50
90.0
 51
180.0
  0
LINE
  5
1DB
330
610
100
AcDbEntity
  8
ﾚｲﾔ_1
  6
STITCH
100
AcDbLine
 10
832.967248763
 20
-193.6928710938
 30
0.0
 11
896.467248763
 21
-193.6928710938
 31
0.0
  0
ARC
  5
1DC
330
610
100
AcDbEntity
  8
ﾚｲﾔ_1
 62
     5
100
AcDbCircle
 10
896.9672487630001
 20
-271.1928710938
 30
0.0
 40
4.0
100
AcDbArc
 50
0.0
 51
90.0
  0
LINE
  5
1DD
330
610
100
AcDbEntity
  8
ﾚｲﾔ_1
 62
     5
100
AcDbLine
 10
832.967248763
 20
-271.1928710938
 30
0.0
 11
895.9672487629999
 21
-271.1928710938
 31
0.0
  0
LINE
  5
1DE
330
610
100
AcDbEntity
  8
ﾚｲﾔ_1
 62
     5
100
AcDbLine
 10
832.967248763
 20
-267.1928710938
 30
0.0
 11
896.9672487630001
 21
-267.1928710938
 31
0.0
  0
LINE
  5
1DF
330
610
100
AcDbEntity
  8
ﾚｲﾔ_1
  6
STITCH
100
AcDbLine
 10
832.967248763
 20
-269.6928710938
 30
0.0
 11
896.467248763
 21
-269.6928710938
 31
0.0
  0
LINE
  5
1E0
330
610
100
AcDbEntity
  8
ﾚｲﾔ_1
  6
STITCH
100
AcDbLine
 10
900.7779089348
 20
-277.8820784433
 30
0.0
 11
898.467248763
 21
-275.5714182716
 31
0.0
  0
LINE
  5
1E1
330
610
100
AcDbEntity
  8
ﾚｲﾔ_1
  6
STITCH
100
AcDbLine
 10
896.9672487630001
 20
-276.1927386151
 30
0.0
 11
899.7172487630001
 21
-278.9427386151
 31
0.0
  0
LINE
  5
1E2
330
610
100
AcDbEntity
  8
ﾚｲﾔ_1
  6
STITCH
100
AcDbLine
 10
899.7172487630001
 20
-278.9427386151
 30
0.0
 11
900.7779089348
 21
-277.8820784433
 31
0.0
  0
ARC
  5
1E3
330
610
100
AcDbEntity
  8
ﾚｲﾔ_1
  6
STITCH
100
AcDbCircle
 10
896.467248763
 20
-271.6928710938
 30
0.0
 40
2.0
100
AcDbArc
 50
0.0
 51
90.0
  0
LINE
  5
1E4
330
610
100
AcDbEntity
  8
ﾚｲﾔ_1
100
AcDbLine
 10
832.967248763
 20
-267.1928710938
 30
0.0
 11
861.9450235517
 21
-274.9574424468
 31
0.0
  0
LINE
  5
1E5
330
610
100
AcDbEntity
  8
ﾚｲﾔ_1
 62
     5
100
AcDbLine
 10
900.967248763
 20
-290.1928710938
 30
0.0
 11
900.967248763
 21
-294.1928710938
 31
0.0
  0
LINE
  5
1E6
330
610
100
AcDbEntity
  8
ﾚｲﾔ_1
 62
     5
100
AcDbLine
 10
900.967248763
 20
-294.1928710938
 30
0.0
 11
899.4672487629999
 21
-294.1928710938
 31
0.0
  0
LINE
  5
1E7
330
610
100
AcDbEntity
  8
ﾚｲﾔ_1
 62
     5
100
AcDbLine
 10
899.4672487629999
 20
-290.6928710938
 30
0.0
 11
899.4672487629999
 21
-294.1928710938
 31
0.0
  0
ARC
  5
1E8
330
610
100
AcDbEntity
  8
ﾚｲﾔ_1
 62
     5
100
AcDbCircle
 10
898.967248763
 20
-290.6928710938
 30
0.0
 40
0.5
100
AcDbArc
 50
0.0
 51
90.0
  0
ARC
  5
1E9
330
610
100
AcDbEntity
  8
ﾚｲﾔ_1
 62
     5
100
AcDbCircle
 10
898.967248763
 20
-288.1928710938
 30
0.0
 40
2.0
100
AcDbArc
 50
180.0
 51
270.0
  0
LINE
  5
1EA
330
610
100
AcDbEntity
  8
ﾚｲﾔ_1
  6
STITCH
100
AcDbLine
 10
899.7172487630001
 20
-283.4427386151
 30
0.0
 11
900.7779089348
 21
-284.5033987869
 31
0.0
  0
LINE
  5
1EB
330
610
100
AcDbEntity
  8
ﾚｲﾔ_1
  6
STITCH
100
AcDbLine
 10
896.9672487630001
 20
-286.1927386151
 30
0.0
 11
899.7172487630001
 21
-283.4427386151
 31
0.0
  0
LINE
  5
1EC
330
610
100
AcDbEntity
  8
ﾚｲﾔ_1
  6
STITCH
100
AcDbLine
 10
900.7779089348
 20
-284.5033987869
 30
0.0
 11
898.467248763
 21
-286.8140589587
 31
0.0
  0
ARC
  5
1ED
330
610
100
AcDbEntity
  8
ﾚｲﾔ_1
 62
     5
100
AcDbCircle
 10
827.4672487630001
 20
-127.7393489223
 30
0.0
 40
1.5
100
AcDbArc
 50
180.0
 51
270.0
  0
LINE
  5
1EE
330
610
100
AcDbEntity
  8
ﾚｲﾔ_1
 62
     5
100
AcDbLine
 10
827.967248763
 20
-129.2393489223
 30
0.0
 11
827.4672487630001
 21
-129.2393489223
 31
0.0
  0
ARC
  5
1EF
330
610
100
AcDbEntity
  8
ﾚｲﾔ_1
 62
     5
100
AcDbCircle
 10
827.967248763
 20
-129.7393489223
 30
0.0
 40
0.5
100
AcDbArc
 50
0.0
 51
90.0
  0
LINE
  5
1F0
330
610
100
AcDbEntity
  8
ﾚｲﾔ_1
 62
     5
100
AcDbLine
 10
828.467248763
 20
-133.2393489223
 30
0.0
 11
828.467248763
 21
-129.7393489223
 31
0.0
  0
LINE
  5
1F1
330
610
100
AcDbEntity
  8
ﾚｲﾔ_1
 62
     5
100
AcDbLine
 10
829.9672487630001
 20
-105.2393489223
 30
0.0
 11
829.9672487630001
 21
-108.7393489223
 31
0.0
  0
LINE
  5
1F2
330
610
100
AcDbEntity
  8
ﾚｲﾔ_1
 62
     5
100
AcDbLine
 10
829.9672487630001
 20
-105.2393489223
 30
0.0
 11
828.467248763
 21
-105.2393489223
 31
0.0
  0
ARC
  5
1F3
330
610
100
AcDbEntity
  8
ﾚｲﾔ_1
 62
     5
100
AcDbCircle
 10
827.967248763
 20
-108.7393489223
 30
0.0
 40
2.0
100
AcDbArc
 50
270.0
 51
0.0
  0
LINE
  5
1F4
330
610
100
AcDbEntity
  8
ﾚｲﾔ_1
 62
     5
100
AcDbLine
 10
829.9672487630001
 20
-133.2393489223
 30
0.0
 11
829.9672487630001
 21
-129.7393489223
 31
0.0
  0
LINE
  5
1F5
330
610
100
AcDbEntity
  8
ﾚｲﾔ_1
 62
     5
100
AcDbLine
 10
790.5483685546999
 20
-269.6928710938
 30
0.0
 11
790.5483685546999
 21
-231.6928710938
 31
0.0
  0
LINE
  5
1F6
330
610
100
AcDbEntity
  8
ﾚｲﾔ_1
 62
     5
100
AcDbLine
 10
788.0483685547
 20
-272.1928710938
 30
0.0
 11
773.0483685547
 21
-272.1928710938
 31
0.0
  0
ARC
  5
1F7
330
610
100
AcDbEntity
  8
ﾚｲﾔ_1
 62
     5
100
AcDbCircle
 10
773.0483685547
 20
-269.6928710938
 30
0.0
 40
2.5
100
AcDbArc
 50
180.0
 51
270.0
  0
LINE
  5
1F8
330
610
100
AcDbEntity
  8
ﾚｲﾔ_1
 62
     5
100
AcDbLine
 10
770.5483685547
 20
-268.6928710938
 30
0.0
 11
766.5483685547
 21
-268.6928710938
 31
0.0
  0
ARC
  5
1F9
330
610
100
AcDbEntity
  8
ﾚｲﾔ_1
 62
     5
100
AcDbCircle
 10
788.0483685547
 20
-269.6928710938
 30
0.0
 40
2.5
100
AcDbArc
 50
270.0
 51
0.0
  0
LINE
  5
1FA
330
610
100
AcDbEntity
  8
ﾚｲﾔ_1
 62
     5
100
AcDbLine
 10
794.5483685546999
 20
-268.6928710938
 30
0.0
 11
790.5483685546999
 21
-268.6928710938
 31
0.0
  0
LINE
  5
1FB
330
610
100
AcDbEntity
  8
ﾚｲﾔ_1
 62
     5
100
AcDbLine
 10
770.5483685547
 20
-269.6928710938
 30
0.0
 11
770.5483685547
 21
-231.6928710938
 31
0.0
  0
ARC
  5
1FC
330
610
100
AcDbEntity
  8
ﾚｲﾔ_1
  6
STITCH
100
AcDbCircle
 10
773.0483685547
 20
-269.6928710938
 30
0.0
 40
1.0
100
AcDbArc
 50
180.0
 51
270.0
  0
LINE
  5
1FD
330
610
100
AcDbEntity
  8
ﾚｲﾔ_1
  6
STITCH
100
AcDbLine
 10
780.5483685547
 20
-270.6928710938
 30
0.0
 11
773.0483685547
 21
-270.6928710938
 31
0.0
  0
LINE
  5
1FE
330
610
100
AcDbEntity
  8
ﾚｲﾔ_1
  6
STITCH
100
AcDbLine
 10
780.5483685547
 20
-270.6928710938
 30
0.0
 11
788.0483685547
 21
-270.6928710938
 31
0.0
  0
LINE
  5
1FF
330
610
100
AcDbEntity
  8
ﾚｲﾔ_1
  6
STITCH
100
AcDbLine
 10
772.0483685547
 20
-268.1928710938
 30
0.0
 11
770.5483685547
 21
-268.1928710938
 31
0.0
  0
LINE
  5
200
330
610
100
AcDbEntity
  8
ﾚｲﾔ_1
  6
STITCH
100
AcDbLine
 10
790.5483685546999
 20
-268.1928710938
 30
0.0
 11
789.0483685547
 21
-268.1928710938
 31
0.0
  0
ARC
  5
201
330
610
100
AcDbEntity
  8
ﾚｲﾔ_1
  6
STITCH
100
AcDbCircle
 10
788.0483685547
 20
-269.6928710938
 30
0.0
 40
1.0
100
AcDbArc
 50
270.0
 51
0.0
  0
LINE
  5
202
330
610
100
AcDbEntity
  8
ﾚｲﾔ_1
  6
STITCH
100
AcDbLine
 10
772.0483685547
 20
-269.6928710938
 30
0.0
 11
772.0483685547
 21
-231.6928710938
 31
0.0
  0
LINE
  5
203
330
610
100
AcDbEntity
  8
ﾚｲﾔ_1
  6
STITCH
100
AcDbLine
 10
789.0483685547
 20
-269.6928710938
 30
0.0
 11
789.0483685547
 21
-231.6928710938
 31
0.0
  0
ARC
  5
204
330
610
100
AcDbEntity
  8
ﾚｲﾔ_1
 62
     5
100
AcDbCircle
 10
780.5483685547
 20
-264.1928710938
 30
0.0
 40
26.0
100
AcDbArc
 50
247.380135052
 51
292.619864948
  0
ARC
  5
205
330
610
100
AcDbEntity
  8
ﾚｲﾔ_1
 62
     5
100
AcDbCircle
 10
780.5483685547
 20
-264.1928710938
 30
0.0
 40
30.0
100
AcDbArc
 50
242.1818607153
 51
297.8181392847
  0
LINE
  5
206
330
610
100
AcDbEntity
  8
ﾚｲﾔ_1
  6
STITCH
100
AcDbLine
 10
772.0483685547
 20
-195.1928710938
 30
0.0
 11
770.5483685547
 21
-195.1928710938
 31
0.0
  0
LINE
  5
207
330
610
100
AcDbEntity
  8
ﾚｲﾔ_1
  6
STITCH
100
AcDbLine
 10
790.5483685546999
 20
-195.1928710938
 30
0.0
 11
789.0483685547
 21
-195.1928710938
 31
0.0
  0
ARC
  5
208
330
610
100
AcDbEntity
  8
ﾚｲﾔ_1
  6
STITCH
100
AcDbCircle
 10
788.0483685547
 20
-193.6928710938
 30
0.0
 40
1.0
100
AcDbArc
 50
0.0
 51
90.0
  0
LINE
  5
209
330
610
100
AcDbEntity
  8
ﾚｲﾔ_1
  6
STITCH
100
AcDbLine
 10
780.5483685547
 20
-192.6928710938
 30
0.0
 11
788.0483685547
 21
-192.6928710938
 31
0.0
  0
LINE
  5
20A
330
610
100
AcDbEntity
  8
ﾚｲﾔ_1
  6
BORDER
 62
     3
100
AcDbLine
 10
903.5114795322
 20
-281.1927386151
 30
0.0
 11
894.7191718399
 21
-281.1927386151
 31
0.0
  0
LINE
  5
20B
330
610
100
AcDbEntity
  8
ﾚｲﾔ_1
 62
     5
100
AcDbLine
 10
832.967248763
 20
-268.6928710938
 30
0.0
 11
896.9672487630001
 21
-268.6928710938
 31
0.0
  0
ARC
  5
20C
330
610
100
AcDbEntity
  8
ﾚｲﾔ_1
 62
     5
100
AcDbCircle
 10
896.9672487630001
 20
-271.1928710938
 30
0.0
 40
2.5
100
AcDbArc
 50
0.0
 51
90.0
  0
ARC
  5
20D
330
610
100
AcDbEntity
  8
ﾚｲﾔ_1
 62
     5
100
AcDbCircle
 10
895.9672487629999
 20
-272.1928710938
 30
0.0
 40
1.0
100
AcDbArc
 50
0.0
 51
90.0
  0
LINE
  5
20E
330
610
100
AcDbEntity
  8
ﾚｲﾔ_1
 62
     5
100
AcDbLine
 10
770.5483685547
 20
-269.6928710938
 30
0.0
 11
770.5483685547
 21
-288.1928710938
 31
0.0
  0
LINE
  5
20F
330
610
100
AcDbEntity
  8
ﾚｲﾔ_1
 62
     5
100
AcDbLine
 10
790.5483685546999
 20
-269.6928710938
 30
0.0
 11
790.5483685546999
 21
-288.1928710938
 31
0.0
  0
LINE
  5
210
330
610
100
AcDbEntity
  8
ﾚｲﾔ_1
 62
     5
100
AcDbLine
 10
766.5483685547
 20
-290.7258694166
 30
0.0
 11
766.5483685547
 21
-231.6928710938
 31
0.0
  0
LINE
  5
211
330
610
100
AcDbEntity
  8
ﾚｲﾔ_1
 62
     5
100
AcDbLine
 10
794.5483685546999
 20
-290.7258694166
 30
0.0
 11
794.5483685546999
 21
-231.6928710938
 31
0.0
  0
CIRCLE
  5
212
330
610
100
AcDbEntity
  8
ﾚｲﾔ_1
 62
     5
100
AcDbCircle
 10
780.5483685547
 20
-282.1928710938
 30
0.0
 40
5.0
  0
ARC
  5
213
330
610
100
AcDbEntity
  8
ﾚｲﾔ_1
 62
     5
100
AcDbCircle
 10
832.967248763
 20
-199.1928710938
 30
0.0
 40
4.5
100
AcDbArc
 50
90.0
 51
180.0
  0
ARC
  5
214
330
610
100
AcDbEntity
  8
ﾚｲﾔ_1
 62
     5
100
AcDbCircle
 10
832.967248763
 20
-199.1928710938
 30
0.0
 40
7.0
100
AcDbArc
 50
90.0
 51
180.0
  0
ARC
  5
215
330
610
100
AcDbEntity
  8
ﾚｲﾔ_1
 62
     5
100
AcDbCircle
 10
832.967248763
 20
-199.1928710938
 30
0.0
 40
3.0
100
AcDbArc
 50
90.0
 51
180.0
  0
ARC
  5
216
330
610
100
AcDbEntity
  8
ﾚｲﾔ_1
  6
STITCH
100
AcDbCircle
 10
832.967248763
 20
-199.1928710938
 30
0.0
 40
5.5
100
AcDbArc
 50
90.0
 51
180.0
  0
LINE
  5
217
330
610
100
AcDbEntity
  8
ﾚｲﾔ_1
 62
     5
100
AcDbLine
 10
829.9672487630001
 20
-105.2393489223
 30
0.0
 11
900.967248763
 21
-105.2393489223
 31
0.0
  0
LINE
  5
218
330
610
100
AcDbEntity
  8
ﾚｲﾔ_1
 62
     5
100
AcDbLine
 10
829.9672487630001
 20
-133.2393489223
 30
0.0
 11
900.967248763
 21
-133.2393489223
 31
0.0
  0
LINE
  5
219
330
610
100
AcDbEntity
  8
ﾚｲﾔ_1
 62
     5
100
AcDbLine
 10
899.4672487629999
 20
-110.7393489223
 30
0.0
 11
827.967248763
 21
-110.7393489223
 31
0.0
  0
LINE
  5
21A
330
610
100
AcDbEntity
  8
ﾚｲﾔ_1
 62
     5
100
AcDbLine
 10
899.4672487629999
 20
-127.7393489223
 30
0.0
 11
827.967248763
 21
-127.7393489223
 31
0.0
  0
LINE
  5
21B
330
610
100
AcDbEntity
  8
ﾚｲﾔ_1
  6
BORDER
 62
     3
100
AcDbLine
 10
821.115686263
 20
-119.2393489223
 30
0.0
 11
905.7906211588001
 21
-119.2393489223
 31
0.0
  0
LINE
  5
21C
330
610
100
AcDbEntity
  8
ﾚｲﾔ_1
  6
BORDER
 62
     3
100
AcDbLine
 10
821.5869753255001
 20
-231.6928710938
 30
0.0
 11
900.2475873047
 21
-231.6928710938
 31
0.0
  0
ARC
  5
21D
330
610
100
AcDbEntity
  8
ﾚｲﾔ_1
 62
     5
100
AcDbCircle
 10
832.967248763
 20
-264.1928710938
 30
0.0
 40
4.5
100
AcDbArc
 50
180.0
 51
270.0
  0
ARC
  5
21E
330
610
100
AcDbEntity
  8
ﾚｲﾔ_1
 62
     5
100
AcDbCircle
 10
832.967248763
 20
-264.1928710938
 30
0.0
 40
3.0
100
AcDbArc
 50
180.0
 51
270.0
  0
ARC
  5
21F
330
610
100
AcDbEntity
  8
ﾚｲﾔ_1
  6
STITCH
100
AcDbCircle
 10
899.4672487629999
 20
-290.1928710938
 30
0.0
 40
1.5
100
AcDbArc
 50
0.0
 51
90.0
  0
LINE
  5
220
330
610
100
AcDbEntity
  8
ﾚｲﾔ_1
  6
STITCH
100
AcDbLine
 10
898.967248763
 20
-288.6928710938
 30
0.0
 11
899.4672487629999
 21
-288.6928710938
 31
0.0
  0
ARC
  5
221
330
610
100
AcDbEntity
  8
ﾚｲﾔ_1
  6
STITCH
100
AcDbCircle
 10
898.967248763
 20
-288.1928710938
 30
0.0
 40
0.5
100
AcDbArc
 50
180.0
 51
270.0
  0
LINE
  5
222
330
610
100
AcDbEntity
  8
ﾚｲﾔ_1
  6
BORDER
 62
     3
100
AcDbLine
 10
799.7505820963
 20
-231.6928710938
 30
0.0
 11
761.1048789713001
 21
-231.6928710938
 31
0.0
  0
LINE
  5
223
330
610
100
AcDbEntity
  8
ﾚｲﾔ_1
 62
     5
100
AcDbLine
 10
829.9672487630001
 20
-264.1928710938
 30
0.0
 11
829.9672487630001
 21
-231.6928710938
 31
0.0
  0
LINE
  5
224
330
610
100
AcDbEntity
  8
ﾚｲﾔ_1
 62
     5
100
AcDbLine
 10
828.467248763
 20
-264.1928710938
 30
0.0
 11
828.467248763
 21
-231.6928710938
 31
0.0
  0
LINE
  5
225
330
610
100
AcDbEntity
  8
ﾚｲﾔ_1
 62
     5
100
AcDbLine
 10
825.967248763
 20
-264.1928710938
 30
0.0
 11
825.967248763
 21
-231.6928710938
 31
0.0
  0
LINE
  5
226
330
610
100
AcDbEntity
  8
ﾚｲﾔ_1
  6
STITCH
100
AcDbLine
 10
827.4672487630001
 20
-264.1928710938
 30
0.0
 11
827.4672487630001
 21
-231.6928710938
 31
0.0
  0
ARC
  5
22C
330
610
100
AcDbEntity
  8
ﾚｲﾔ_1
 62
     5
100
AcDbCircle
 10
832.967248763
 20
-264.1928710938
 30
0.0
 40
7.0
100
AcDbArc
 50
180.0
 51
270.0
  0
ARC
  5
22D
330
610
100
AcDbEntity
  8
ﾚｲﾔ_1
  6
STITCH
100
AcDbCircle
 10
832.967248763
 20
-264.1928710938
 30
0.0
 40
5.5
100
AcDbArc
 50
180.0
 51
270.0
  0
LINE
  5
22E
330
610
100
AcDbEntity
  8
ﾚｲﾔ_1
  6
BORDER
 62
     3
100
AcDbLine
 10
780.5483685547
 20
-164.4556315104
 30
0.0
 11
780.5483685547
 21
-299.2443033854
 31
0.0
  0
LINE
  5
22F
330
610
100
AcDbEntity
  8
ﾚｲﾔ_1
 62
     5
100
AcDbLine
 10
825.967248763
 20
-199.1928710938
 30
0.0
 11
825.967248763
 21
-231.6928710938
 31
0.0
  0
LINE
  5
230
330
610
100
AcDbEntity
  8
ﾚｲﾔ_1
 62
     5
100
AcDbLine
 10
829.9672487630001
 20
-199.1928710938
 30
0.0
 11
829.9672487630001
 21
-231.6928710938
 31
0.0
  0
LINE
  5
231
330
610
100
AcDbEntity
  8
ﾚｲﾔ_1
 62
     5
100
AcDbLine
 10
828.467248763
 20
-199.1928710938
 30
0.0
 11
828.467248763
 21
-231.6928710938
 31
0.0
  0
LINE
  5
232
330
610
100
AcDbEntity
  8
ﾚｲﾔ_1
  6
STITCH
100
AcDbLine
 10
827.4672487630001
 20
-199.1928710938
 30
0.0
 11
827.4672487630001
 21
-231.6928710938
 31
0.0
  0
LINE
  5
233
330
610
100
AcDbEntity
  8
ﾚｲﾔ_1
 62
     5
100
AcDbLine
 10
766.5483685547
 20
-172.6598727709
 30
0.0
 11
766.5483685547
 21
-231.6928710938
 31
0.0
  0
LINE
  5
234
330
610
100
AcDbEntity
  8
ﾚｲﾔ_1
 62
     5
100
AcDbLine
 10
794.5483685546999
 20
-172.6598727709
 30
0.0
 11
794.5483685546999
 21
-231.6928710938
 31
0.0
  0
LINE
  5
235
330
610
100
AcDbEntity
  8
ﾚｲﾔ_1
 62
     5
100
AcDbLine
 10
790.5483685546999
 20
-193.6928710938
 30
0.0
 11
790.5483685546999
 21
-231.6928710938
 31
0.0
  0
LINE
  5
236
330
610
100
AcDbEntity
  8
ﾚｲﾔ_1
 62
     5
100
AcDbLine
 10
770.5483685547
 20
-193.6928710938
 30
0.0
 11
770.5483685547
 21
-231.6928710938
 31
0.0
  0
LINE
  5
237
330
610
100
AcDbEntity
  8
ﾚｲﾔ_1
  6
STITCH
100
AcDbLine
 10
789.0483685547
 20
-193.6928710938
 30
0.0
 11
789.0483685547
 21
-231.6928710938
 31
0.0
  0
LINE
  5
238
330
610
100
AcDbEntity
  8
ﾚｲﾔ_1
  6
STITCH
100
AcDbLine
 10
772.0483685547
 20
-193.6928710938
 30
0.0
 11
772.0483685547
 21
-231.6928710938
 31
0.0
  0
INSERT
  5
239
330
610
100
AcDbEntity
  8
0
  6
Continuous
100
AcDbBlockReference
  2
*U46
 10
0.0
 20
0.0
 30
0.0
  0
LINE
  5
23A
330
610
100
AcDbEntity
  8
ﾚｲﾔ_1
 62
     5
100
AcDbLine
 10
900.967248763
 20
-271.1928710938
 30
0.0
 11
900.967248763
 21
-290.1928710938
 31
0.0
  0
LINE
  5
23B
330
610
100
AcDbEntity
  8
ﾚｲﾔ_1
 62
     5
100
AcDbLine
 10
896.9672487630001
 20
-288.1928710938
 30
0.0
 11
896.9672487630001
 21
-272.1928710938
 31
0.0
  0
LINE
  5
23C
330
610
100
AcDbEntity
  8
ﾚｲﾔ_1
 62
     5
100
AcDbLine
 10
899.4672487629999
 20
-271.1928710938
 30
0.0
 11
899.4672487629999
 21
-290.6928710938
 31
0.0
  0
LINE
  5
23D
330
610
100
AcDbEntity
  8
ﾚｲﾔ_1
  6
STITCH
100
AcDbLine
 10
898.467248763
 20
-288.1928710938
 30
0.0
 11
898.467248763
 21
-271.6928710938
 31
0.0
  0
LINE
  5
23E
330
610
100
AcDbEntity
  8
ﾚｲﾔ_1
  6
STITCH
100
AcDbLine
 10
900.7779089348
 20
-277.8820784433
 30
0.0
 11
900.7779089348
 21
-284.5033987869
 31
0.0
  0
LINE
  5
23F
330
610
100
AcDbEntity
  8
ﾚｲﾔ_1
  6
BORDER
 62
     3
100
AcDbLine
 10
764.6456391242999
 20
-282.1928710938
 30
0.0
 11
797.3334028373999
 21
-282.1928710938
 31
0.0
  0
CIRCLE
  5
240
330
610
100
AcDbEntity
  8
ﾚｲﾔ_1
 62
     5
100
AcDbCircle
 10
780.5483685547
 20
-282.1928710938
 30
0.0
 40
2.25
  0
TEXT
  5
687
330
610
100
AcDbEntity
  8
図枠
  6
Continuous
100
AcDbText
 10
867.2327698435312
 20
-325.4124771431685
 30
0.0
 40
2.804999959499999
  1
HL研磨仕上げ
100
AcDbText
  0
ENDSEC
  0
SECTION
  2
OBJECTS
  0
DICTIONARY
  5
5AD
330
0
100
AcDbDictionary
281
     1
  3
ACAD_CIP_PREVIOUS_PRODUCT_INFO
350
686
  3
ACAD_COLOR
350
603
  3
ACAD_DETAILVIEWSTYLE
350
60A
  3
ACAD_GROUP
350
5AE
  3
ACAD_LAYOUT
350
602
  3
ACAD_MATERIAL
350
5B1
  3
ACAD_MLEADERSTYLE
350
606
  3
ACAD_MLINESTYLE
350
5FF
  3
ACAD_PLOTSETTINGS
350
601
  3
ACAD_PLOTSTYLENAME
350
5AF
  3
ACAD_SCALELIST
350
5E3
  3
ACAD_SECTIONVIEWSTYLE
350
608
  3
ACAD_TABLESTYLE
350
604
  3
ACAD_VISUALSTYLE
350
5CA
  3
ACDB_RECOMPOSE_DATA
350
6A3
  3
AcDbVariableDictionary
350
696
  0
DICTIONARY
  5
68C
330
5F5
100
AcDbDictionary
280
     1
281
     1
  3
ADSK_XREC_LAYER_RECONCILED
360
68D
  0
DICTIONARY
  5
68E
330
61F
100
AcDbDictionary
280
     1
281
     1
  3
ADSK_XREC_LAYER_RECONCILED
360
68F
  0
DICTIONARY
  5
690
330
620
100
AcDbDictionary
280
     1
281
     1
  3
ADSK_XREC_LAYER_RECONCILED
360
691
  0
DICTIONARY
  5
692
330
621
100
AcDbDictionary
280
     1
281
     1
  3
ADSK_XREC_LAYER_RECONCILED
360
693
  0
DICTIONARY
  5
694
330
622
100
AcDbDictionary
280
     1
281
     1
  3
ADSK_XREC_LAYER_RECONCILED
360
695
  0
DICTIONARY
  5
688
330
610
100
AcDbDictionary
280
     1
281
     1
  3
ACAD_SORTENTS
360
689
  0
XRECORD
  5
686
102
{ACAD_REACTORS
330
5AD
102
}
330
5AD
100
AcDbXrecord
280
     1
300
ACDLT
300
2015
300
ACDLT_F_S
  0
DICTIONARY
  5
603
102
{ACAD_REACTORS
330
5AD
102
}
330
5AD
100
AcDbDictionary
281
     1
  0
DICTIONARY
  5
60A
102
{ACAD_REACTORS
330
5AD
102
}
330
5AD
100
AcDbDictionary
281
     1
  3
Imperial24
350
60B
  0
DICTIONARY
  5
5AE
102
{ACAD_REACTORS
330
5AD
102
}
330
5AD
100
AcDbDictionary
281
     1
  0
DICTIONARY
  5
602
102
{ACAD_REACTORS
330
5AD
102
}
330
5AD
100
AcDbDictionary
281
     1
  3
Model
350
613
  3
レイアウト1
350
60F
  0
DICTIONARY
  5
5B1
102
{ACAD_REACTORS
330
5AD
102
}
330
5AD
100
AcDbDictionary
281
     1
  3
ByBlock
350
5BA
  3
ByLayer
350
5B2
  3
Global
350
5C2
  0
DICTIONARY
  5
606
102
{ACAD_REACTORS
330
5AD
102
}
330
5AD
100
AcDbDictionary
281
     1
  3
Standard
350
607
  0
DICTIONARY
  5
5FF
102
{ACAD_REACTORS
330
5AD
102
}
330
5AD
100
AcDbDictionary
281
     1
  3
Standard
350
600
  0
DICTIONARY
  5
601
102
{ACAD_REACTORS
330
5AD
102
}
330
5AD
100
AcDbDictionary
281
     1
  0
ACDBDICTIONARYWDFLT
  5
5AF
102
{ACAD_REACTORS
330
5AD
102
}
330
5AD
100
AcDbDictionary
281
     1
  3
Normal
350
5B0
100
AcDbDictionaryWithDefault
340
5B0
  0
DICTIONARY
  5
5E3
102
{ACAD_REACTORS
330
5AD
102
}
330
5AD
100
AcDbDictionary
281
     1
  3
A0
350
5E4
  3
A1
350
5E5
  3
A2
350
5E6
  3
A3
350
5E7
  3
A4
350
5E8
  3
A5
350
5E9
  3
A6
350
5EA
  3
A7
350
5EB
  3
A8
350
5EC
  3
A9
350
5ED
  3
B0
350
5EE
  3
B1
350
5EF
  3
B2
350
5F0
  3
B3
350
5F1
  3
B4
350
5F2
  3
B5
350
5F3
  3
B6
350
5F4
  0
DICTIONARY
  5
608
102
{ACAD_REACTORS
330
5AD
102
}
330
5AD
100
AcDbDictionary
281
     1
  3
Imperial24
350
609
  0
DICTIONARY
  5
604
102
{ACAD_REACTORS
330
5AD
102
}
330
5AD
100
AcDbDictionary
281
     1
  3
Standard
350
605
  0
DICTIONARY
  5
5CA
102
{ACAD_REACTORS
330
5AD
102
}
330
5AD
100
AcDbDictionary
281
     1
  3
2dWireframe
350
5D0
  3
Basic
350
5CF
  3
Brighten
350
5D6
  3
ColorChange
350
5DA
  3
Conceptual
350
5D3
  3
Dim
350
5D5
  3
EdgeColorOff
350
5E2
  3
Facepattern
350
5D9
  3
Flat
350
5CB
  3
FlatWithEdges
350
5CC
  3
Gouraud
350
5CD
  3
GouraudWithEdges
350
5CE
  3
Hidden
350
5D2
  3
JitterOff
350
5E0
  3
Linepattern
350
5D8
  3
OverhangOff
350
5E1
  3
Realistic
350
5D4
  3
Shaded
350
5DF
  3
Shaded with edges
350
5DE
  3
Shades of Gray
350
5DB
  3
Sketchy
350
5DC
  3
Thicken
350
5D7
  3
Wireframe
350
5D1
  3
X-Ray
350
5DD
  0
XRECORD
  5
6A3
102
{ACAD_REACTORS
330
5AD
102
}
330
5AD
100
AcDbXrecord
280
     1
 90
        1
330
605
  0
DICTIONARY
  5
696
102
{ACAD_REACTORS
330
5AD
102
}
330
5AD
100
AcDbDictionary
281
     1
  3
CANNOSCALE
350
69C
  3
CMLEADERSTYLE
350
698
  3
CTABLESTYLE
350
697
  3
CVIEWDETAILSTYLE
350
699
  3
CVIEWSECTIONSTYLE
350
69A
  3
LAYEREVAL
350
69E
  3
LAYERNOTIFY
350
69F
  3
LIGHTINGUNITS
350
69D
  3
MSLTSCALE
350
69B
  0
XRECORD
  5
68D
102
{ACAD_REACTORS
330
68C
102
}
330
68C
100
AcDbXrecord
280
     1
290
     1
  0
XRECORD
  5
68F
102
{ACAD_REACTORS
330
68E
102
}
330
68E
100
AcDbXrecord
280
     1
290
     1
  0
XRECORD
  5
691
102
{ACAD_REACTORS
330
690
102
}
330
690
100
AcDbXrecord
280
     1
290
     1
  0
XRECORD
  5
693
102
{ACAD_REACTORS
330
692
102
}
330
692
100
AcDbXrecord
280
     1
290
     1
  0
XRECORD
  5
695
102
{ACAD_REACTORS
330
694
102
}
330
694
100
AcDbXrecord
280
     1
290
     1
  0
SORTENTSTABLE
  5
689
102
{ACAD_REACTORS
330
688
102
}
330
688
100
AcDbSortentsTable
330
610
331
1EB
  5
1EC
331
12B
  5
12C
331
11A
  5
11B
331
109
  5
10A
331
1FC
  5
1FD
331
20D
  5
20E
331
1C5
  5
1C6
331
21E
  5
21F
331
240
  5
687
331
22F
  5
230
331
1E7
  5
1E8
331
1A7
  5
1A8
331
1D6
  5
1D7
331
687
  5
33
331
1B4
  5
1B5
331
1EC
  5
1ED
331
12C
  5
12D
331
11B
  5
11C
331
10A
  5
10B
331
1FD
  5
1FE
331
20E
  5
20F
331
1C6
  5
1C7
331
230
  5
231
331
21F
  5
220
331
1D7
  5
1D8
331
1B5
  5
1B6
331
1ED
  5
1EE
331
12D
  5
12E
331
11C
  5
11D
331
10B
  5
10C
331
1FE
  5
1FF
331
20F
  5
210
331
1C7
  5
1C8
331
231
  5
232
331
220
  5
221
331
1D8
  5
1D9
331
198
  5
1A7
331
1B6
  5
1B7
331
1EE
  5
1EF
331
12E
  5
12F
331
11D
  5
11E
331
10C
  5
10D
331
1FF
  5
200
331
210
  5
211
331
1C8
  5
1C9
331
232
  5
233
331
221
  5
222
331
1D9
  5
1DA
331
1B7
  5
1B8
331
1EF
  5
1F0
331
12F
  5
13E
331
11E
  5
11F
331
10D
  5
10E
331
39
  5
EA
331
200
  5
201
331
211
  5
212
331
1C9
  5
1CA
331
189
  5
198
331
233
  5
234
331
222
  5
223
331
1DA
  5
1DB
331
1B8
  5
1B9
331
1F0
  5
1F1
331
1A8
  5
1A9
331
11F
  5
120
331
10E
  5
10F
331
201
  5
202
331
212
  5
213
331
1CA
  5
1CB
331
234
  5
235
331
223
  5
224
331
1DB
  5
1DC
331
1B9
  5
1BA
331
1F1
  5
1F2
331
1A9
  5
1AA
331
120
  5
121
331
10F
  5
110
331
202
  5
203
331
213
  5
214
331
1CB
  5
1CC
331
235
  5
236
331
224
  5
225
331
1DC
  5
1DD
331
1BA
  5
1BB
331
13E
  5
14D
331
1F2
  5
1F3
331
1AA
  5
1AB
331
121
  5
122
331
110
  5
111
331
203
  5
204
331
214
  5
215
331
1CC
  5
1CD
331
236
  5
237
331
225
  5
226
331
1DD
  5
1DE
331
1BB
  5
1BC
331
2F
  5
2F
331
1F3
  5
1F4
331
1AB
  5
1AC
331
122
  5
123
331
111
  5
112
331
204
  5
205
331
215
  5
216
331
1CD
  5
1CE
331
237
  5
238
331
226
  5
22C
331
1DE
  5
1DF
331
1BC
  5
1BD
331
30
  5
30
331
238
  5
239
331
16B
  5
17A
331
112
  5
113
331
1F4
  5
1F5
331
1AC
  5
1AD
331
123
  5
124
331
205
  5
206
331
216
  5
217
331
1CE
  5
1CF
331
1DF
  5
1E0
331
1BD
  5
1BE
331
31
  5
31
331
239
  5
23A
331
1E0
  5
1E1
331
1F5
  5
1F6
331
1AD
  5
1AE
331
124
  5
125
331
113
  5
114
331
206
  5
207
331
217
  5
218
331
1CF
  5
1D0
331
1BE
  5
1BF
331
218
  5
219
331
1D0
  5
1D1
331
23A
  5
23B
331
1E1
  5
1E2
331
15C
  5
16B
331
33
  5
34
331
1F6
  5
1F7
331
1AE
  5
1AF
331
125
  5
126
331
207
  5
208
331
1BF
  5
1C0
331
114
  5
115
331
208
  5
209
331
1C0
  5
1C1
331
219
  5
21A
331
1D1
  5
1D2
331
23B
  5
23C
331
F9
  5
108
331
1E2
  5
1E3
331
1F7
  5
1F8
331
1AF
  5
1B0
331
126
  5
127
331
115
  5
116
331
34
  5
35
331
1F8
  5
1F9
331
1B0
  5
1B1
331
209
  5
20A
331
1C1
  5
1C2
331
21A
  5
21B
331
23C
  5
23D
331
1E3
  5
1E4
331
14D
  5
15C
331
1D2
  5
1D3
331
127
  5
128
331
116
  5
117
331
35
  5
36
331
1E8
  5
1E9
331
128
  5
129
331
1F9
  5
1FA
331
1B1
  5
1B2
331
20A
  5
20B
331
21B
  5
21C
331
1D3
  5
1D4
331
23D
  5
23E
331
22C
  5
22D
331
EA
  5
F9
331
1E4
  5
1E5
331
1C2
  5
1C3
331
117
  5
118
331
36
  5
39
331
1E9
  5
1EA
331
129
  5
12A
331
118
  5
119
331
1FA
  5
1FB
331
1B2
  5
1B3
331
20B
  5
20C
331
21C
  5
21D
331
1D4
  5
1D5
331
23E
  5
23F
331
22D
  5
22E
331
1E5
  5
1E6
331
1C3
  5
1C4
331
17A
  5
189
331
1EA
  5
1EB
331
12A
  5
12B
331
119
  5
11A
331
108
  5
109
331
1FB
  5
1FC
331
20C
  5
20D
331
1C4
  5
1C5
331
21D
  5
21E
331
23F
  5
240
331
22E
  5
22F
331
1E6
  5
1E7
331
1D5
  5
1D6
331
1B3
  5
1B4
  0
ACDBDETAILVIEWSTYLE
  5
60B
102
{ACAD_XDICTIONARY
360
6D6
102
}
102
{ACAD_REACTORS
330
60A
102
}
330
60A
100
AcDbModelDocViewStyle
 70
     0
  3
Imperial24
290
     0
100
AcDbDetailViewStyle
 70
     0
 71
     0
 90
        3
 71
     1
340
5F6
 62
   256
 40
0.24
340
0
 62
   256
 40
0.24
300

 40
0.36
280
     3
 71
     2
340
5FD
 90
       25
 62
   256
 71
     3
340
5F6
 62
   256
 40
0.24
 90
        1
 40
0.75
 90
        1
300
%<\AcVar ViewType \f "%tc1">% %<\AcVar ViewDetailId>%\PSCALE %<\AcVar ViewScale \f "%sn">%
 71
     4
340
5FD
 90
       25
 62
   256
340
5FD
 90
       25
 62
   256
280
     0
  0
LAYOUT
  5
613
102
{ACAD_REACTORS
330
602
102
}
330
602
100
AcDbPlotSettings
  1

  2
EPSON PX-1700F
  4

  6

 40
0.0
 41
0.0
 42
0.0
 43
0.0
 44
0.0
 45
0.0
 46
0.0
 47
0.0
 48
0.0
 49
0.0
140
0.0
141
0.0
142
1.0
143
1.0
 70
  1712
 72
     0
 73
     0
 74
     0
  7

 75
     0
147
1.0
 76
     0
 77
     2
 78
   300
148
0.0
149
0.0
100
AcDbLayout
  1
Model
 70
     1
 71
     0
 10
0.0
 20
0.0
 11
12.0
 21
9.0
 12
0.0
 22
0.0
 32
0.0
 14
0.0
 24
0.0
 34
0.0
 15
0.0
 25
0.0
 35
0.0
146
0.0
 13
0.0
 23
0.0
 33
0.0
 16
1.0
 26
0.0
 36
0.0
 17
0.0
 27
1.0
 37
0.0
 76
     0
330
610
331
614
  0
LAYOUT
  5
60F
102
{ACAD_REACTORS
330
602
102
}
330
602
100
AcDbPlotSettings
  1

  2
EPSON PX-1700F
  4

  6

 40
0.0
 41
0.0
 42
0.0
 43
0.0
 44
0.0
 45
0.0
 46
0.0
 47
0.0
 48
0.0
 49
0.0
140
0.0
141
0.0
142
1.0
143
1.0
 70
   688
 72
     0
 73
     0
 74
     5
  7

 75
    16
147
1.0
 76
     0
 77
     2
 78
   300
148
0.0
149
0.0
100
AcDbLayout
  1
レイアウト1
 70
     0
 71
     1
 10
0.0
 20
0.0
 11
12.0
 21
9.0
 12
0.0
 22
0.0
 32
0.0
 14
1.000000000000000E+20
 24
1.000000000000000E+20
 34
1.000000000000000E+20
 15
-1.000000000000000E+20
 25
-1.000000000000000E+20
 35
-1.000000000000000E+20
146
0.0
 13
0.0
 23
0.0
 33
0.0
 16
1.0
 26
0.0
 36
0.0
 17
0.0
 27
1.0
 37
0.0
 76
     0
330
60C
  0
MATERIAL
  5
5BA
102
{ACAD_XDICTIONARY
360
5BB
102
}
102
{ACAD_REACTORS
330
5B1
102
}
330
5B1
100
AcDbMaterial
  1
ByBlock
 72
     0
 43
0.0208333333333333
 43
0.0
 43
0.0
 43
0.0
 43
0.0
 43
0.0208333333333333
 43
0.0
 43
0.0
 43
0.0
 43
0.0
 43
1.0
 43
0.0
 43
0.0
 43
0.0
 43
0.0
 43
1.0
 77
     0
 47
0.0208333333333333
 47
0.0
 47
0.0
 47
0.0
 47
0.0
 47
0.0208333333333333
 47
0.0
 47
0.0
 47
0.0
 47
0.0
 47
1.0
 47
0.0
 47
0.0
 47
0.0
 47
0.0
 47
1.0
171
     0
 49
0.0208333333333333
 49
0.0
 49
0.0
 49
0.0
 49
0.0
 49
0.0208333333333333
 49
0.0
 49
0.0
 49
0.0
 49
0.0
 49
1.0
 49
0.0
 49
0.0
 49
0.0
 49
0.0
 49
1.0
175
     0
142
0.0208333333333333
142
0.0
142
0.0
142
0.0
142
0.0
142
0.0208333333333333
142
0.0
142
0.0
142
0.0
142
0.0
142
1.0
142
0.0
142
0.0
142
0.0
142
0.0
142
1.0
179
     0
144
0.0208333333333333
144
0.0
144
0.0
144
0.0
144
0.0
144
0.0208333333333333
144
0.0
144
0.0
144
0.0
144
0.0
144
1.0
144
0.0
144
0.0
144
0.0
144
0.0
144
1.0
147
0.0208333333333333
147
0.0
147
0.0
147
0.0
147
0.0
147
0.0208333333333333
147
0.0
147
0.0
147
0.0
147
0.0
147
1.0
147
0.0
147
0.0
147
0.0
147
0.0
147
1.0
  0
MATERIAL
  5
5B2
102
{ACAD_XDICTIONARY
360
5B3
102
}
102
{ACAD_REACTORS
330
5B1
102
}
330
5B1
100
AcDbMaterial
  1
ByLayer
 72
     0
 43
0.0208333333333333
 43
0.0
 43
0.0
 43
0.0
 43
0.0
 43
0.0208333333333333
 43
0.0
 43
0.0
 43
0.0
 43
0.0
 43
1.0
 43
0.0
 43
0.0
 43
0.0
 43
0.0
 43
1.0
 77
     0
 47
0.0208333333333333
 47
0.0
 47
0.0
 47
0.0
 47
0.0
 47
0.0208333333333333
 47
0.0
 47
0.0
 47
0.0
 47
0.0
 47
1.0
 47
0.0
 47
0.0
 47
0.0
 47
0.0
 47
1.0
171
     0
 49
0.0208333333333333
 49
0.0
 49
0.0
 49
0.0
 49
0.0
 49
0.0208333333333333
 49
0.0
 49
0.0
 49
0.0
 49
0.0
 49
1.0
 49
0.0
 49
0.0
 49
0.0
 49
0.0
 49
1.0
175
     0
142
0.0208333333333333
142
0.0
142
0.0
142
0.0
142
0.0
142
0.0208333333333333
142
0.0
142
0.0
142
0.0
142
0.0
142
1.0
142
0.0
142
0.0
142
0.0
142
0.0
142
1.0
179
     0
144
0.0208333333333333
144
0.0
144
0.0
144
0.0
144
0.0
144
0.0208333333333333
144
0.0
144
0.0
144
0.0
144
0.0
144
1.0
144
0.0
144
0.0
144
0.0
144
0.0
144
1.0
147
0.0208333333333333
147
0.0
147
0.0
147
0.0
147
0.0
147
0.0208333333333333
147
0.0
147
0.0
147
0.0
147
0.0
147
1.0
147
0.0
147
0.0
147
0.0
147
0.0
147
1.0
  0
MATERIAL
  5
5C2
102
{ACAD_XDICTIONARY
360
5C3
102
}
102
{ACAD_REACTORS
330
5B1
102
}
330
5B1
100
AcDbMaterial
  1
Global
 72
     0
 43
0.0208333333333333
 43
0.0
 43
0.0
 43
0.0
 43
0.0
 43
0.0208333333333333
 43
0.0
 43
0.0
 43
0.0
 43
0.0
 43
1.0
 43
0.0
 43
0.0
 43
0.0
 43
0.0
 43
1.0
 77
     0
 47
0.0208333333333333
 47
0.0
 47
0.0
 47
0.0
 47
0.0
 47
0.0208333333333333
 47
0.0
 47
0.0
 47
0.0
 47
0.0
 47
1.0
 47
0.0
 47
0.0
 47
0.0
 47
0.0
 47
1.0
171
     0
 49
0.0208333333333333
 49
0.0
 49
0.0
 49
0.0
 49
0.0
 49
0.0208333333333333
 49
0.0
 49
0.0
 49
0.0
 49
0.0
 49
1.0
 49
0.0
 49
0.0
 49
0.0
 49
0.0
 49
1.0
175
     0
142
0.0208333333333333
142
0.0
142
0.0
142
0.0
142
0.0
142
0.0208333333333333
142
0.0
142
0.0
142
0.0
142
0.0
142
1.0
142
0.0
142
0.0
142
0.0
142
0.0
142
1.0
179
     0
144
0.0208333333333333
144
0.0
144
0.0
144
0.0
144
0.0
144
0.0208333333333333
144
0.0
144
0.0
144
0.0
144
0.0
144
1.0
144
0.0
144
0.0
144
0.0
144
0.0
144
1.0
147
0.0208333333333333
147
0.0
147
0.0
147
0.0
147
0.0
147
0.0208333333333333
147
0.0
147
0.0
147
0.0
147
0.0
147
1.0
147
0.0
147
0.0
147
0.0
147
0.0
147
1.0
  0
MLEADERSTYLE
  5
607
102
{ACAD_REACTORS
330
606
102
}
330
606
100
AcDbMLeaderStyle
179
     2
170
     2
171
     1
172
     0
 90
        2
 40
0.0
 41
0.0
173
     1
 91
-1056964608
340
5FB
 92
       -2
290
     1
 42
0.09
291
     1
 43
0.36
  3
Standard
 44
0.18
300

342
5F6
174
     1
178
     6
175
     1
176
     0
 93
-1056964608
 45
0.18
292
     0
297
     0
 46
0.18
 94
-1056964608
 47
1.0
 49
1.0
140
1.0
293
     1
141
0.0
294
     1
177
     0
142
1.0
295
     0
296
     0
143
0.125
271
     0
272
     9
273
     9
  0
MLINESTYLE
  5
600
102
{ACAD_REACTORS
330
5FF
102
}
330
5FF
100
AcDbMlineStyle
  2
STANDARD
 70
     0
  3

 62
   256
 51
90.0
 52
90.0
 71
     2
 49
0.5
 62
   256
  6
BYLAYER
 49
-0.5
 62
   256
  6
BYLAYER
  0
ACDBPLACEHOLDER
  5
5B0
102
{ACAD_REACTORS
330
5AF
102
}
330
5AF
  0
SCALE
  5
5E4
102
{ACAD_REACTORS
330
5E3
102
}
330
5E3
100
AcDbScale
 70
     0
300
1:1
140
1.0
141
1.0
290
     1
  0
SCALE
  5
5E5
102
{ACAD_REACTORS
330
5E3
102
}
330
5E3
100
AcDbScale
 70
     0
300
1/128" = 1'-0"
140
0.0078125
141
12.0
290
     0
  0
SCALE
  5
5E6
102
{ACAD_REACTORS
330
5E3
102
}
330
5E3
100
AcDbScale
 70
     0
300
1/64" = 1'-0"
140
0.015625
141
12.0
290
     0
  0
SCALE
  5
5E7
102
{ACAD_REACTORS
330
5E3
102
}
330
5E3
100
AcDbScale
 70
     0
300
1/32" = 1'-0"
140
0.03125
141
12.0
290
     0
  0
SCALE
  5
5E8
102
{ACAD_REACTORS
330
5E3
102
}
330
5E3
100
AcDbScale
 70
     0
300
1/16" = 1'-0"
140
0.0625
141
12.0
290
     0
  0
SCALE
  5
5E9
102
{ACAD_REACTORS
330
5E3
102
}
330
5E3
100
AcDbScale
 70
     0
300
3/32" = 1'-0"
140
0.09375
141
12.0
290
     0
  0
SCALE
  5
5EA
102
{ACAD_REACTORS
330
5E3
102
}
330
5E3
100
AcDbScale
 70
     0
300
1/8" = 1'-0"
140
0.125
141
12.0
290
     0
  0
SCALE
  5
5EB
102
{ACAD_REACTORS
330
5E3
102
}
330
5E3
100
AcDbScale
 70
     0
300
3/16" = 1'-0"
140
0.1875
141
12.0
290
     0
  0
SCALE
  5
5EC
102
{ACAD_REACTORS
330
5E3
102
}
330
5E3
100
AcDbScale
 70
     0
300
1/4" = 1'-0"
140
0.25
141
12.0
290
     0
  0
SCALE
  5
5ED
102
{ACAD_REACTORS
330
5E3
102
}
330
5E3
100
AcDbScale
 70
     0
300
3/8" = 1'-0"
140
0.375
141
12.0
290
     0
  0
SCALE
  5
5EE
102
{ACAD_REACTORS
330
5E3
102
}
330
5E3
100
AcDbScale
 70
     0
300
1/2" = 1'-0"
140
0.5
141
12.0
290
     0
  0
SCALE
  5
5EF
102
{ACAD_REACTORS
330
5E3
102
}
330
5E3
100
AcDbScale
 70
     0
300
3/4" = 1'-0"
140
0.75
141
12.0
290
     0
  0
SCALE
  5
5F0
102
{ACAD_REACTORS
330
5E3
102
}
330
5E3
100
AcDbScale
 70
     0
300
1" = 1'-0"
140
1.0
141
12.0
290
     0
  0
SCALE
  5
5F1
102
{ACAD_REACTORS
330
5E3
102
}
330
5E3
100
AcDbScale
 70
     0
300
1-1/2" = 1'-0"
140
1.5
141
12.0
290
     0
  0
SCALE
  5
5F2
102
{ACAD_REACTORS
330
5E3
102
}
330
5E3
100
AcDbScale
 70
     0
300
3" = 1'-0"
140
3.0
141
12.0
290
     0
  0
SCALE
  5
5F3
102
{ACAD_REACTORS
330
5E3
102
}
330
5E3
100
AcDbScale
 70
     0
300
6" = 1'-0"
140
6.0
141
12.0
290
     0
  0
SCALE
  5
5F4
102
{ACAD_REACTORS
330
5E3
102
}
330
5E3
100
AcDbScale
 70
     0
300
1'-0" = 1'-0"
140
12.0
141
12.0
290
     0
  0
ACDBSECTIONVIEWSTYLE
  5
609
102
{ACAD_XDICTIONARY
360
6D4
102
}
102
{ACAD_REACTORS
330
608
102
}
330
608
100
AcDbModelDocViewStyle
 70
     0
  3
Imperial24
290
     0
100
AcDbSectionViewStyle
 70
     0
 71
     0
 90
       78
 71
     1
340
5F6
 62
   256
 40
0.24
340
0
340
0
 62
   256
 40
0.24
300
I, O, Q, S, X, Z
 40
0.48
 90
        3
 40
0.18
 90
        1
 71
     2
340
5FD
 90
       25
 62
   256
340
5FD
 90
       50
 62
   256
 40
0.24
 40
0.0
 40
0.24
 71
     3
340
5F6
 62
   256
 40
0.24
 90
        1
 40
0.75
 90
        1
300
%<\AcVar ViewType \f "%tc1">% %<\AcVar ViewSectionStartId>%-%<\AcVar ViewSectionEndId>%\PSCALE %<\AcVar ViewScale \f "%sn">%
 71
     4
 62
   256
 62
   257
300
ANSI31
 40
1.0
 90
        0
290
     0
290
     0
 90
        6
 40
0.0
 40
1.570796326794896
 40
0.2617993877991494
 40
1.308996938995747
 40
-0.2617993877991494
 40
1.832595714594046
  0
TABLESTYLE
  5
605
102
{ACAD_XDICTIONARY
360
6A1
102
}
102
{ACAD_REACTORS
330
604
102
}
330
604
100
AcDbTableStyle
280
     0
  3
Standard
 70
     0
 71
     0
 40
0.06
 41
0.06
280
     0
281
     0
  7
STANDARD
140
0.18
170
     2
 62
     0
 63
     7
283
     0
 90
      512
 91
        0
  1

274
    -2
284
     1
 64
     0
275
    -2
285
     1
 65
     0
276
    -2
286
     1
 66
     0
277
    -2
287
     1
 67
     0
278
    -2
288
     1
 68
     0
279
    -2
289
     1
 69
     0
  7
STANDARD
140
0.25
170
     5
 62
     0
 63
     7
283
     0
 90
      512
 91
        0
  1

274
    -2
284
     1
 64
     0
275
    -2
285
     1
 65
     0
276
    -2
286
     1
 66
     0
277
    -2
287
     1
 67
     0
278
    -2
288
     1
 68
     0
279
    -2
289
     1
 69
     0
  7
STANDARD
140
0.18
170
     5
 62
     0
 63
     7
283
     0
 90
      512
 91
        0
  1

274
    -2
284
     1
 64
     0
275
    -2
285
     1
 65
     0
276
    -2
286
     1
 66
     0
277
    -2
287
     1
 67
     0
278
    -2
288
     1
 68
     0
279
    -2
289
     1
 69
     0
  0
VISUALSTYLE
  5
5D0
102
{ACAD_XDICTIONARY
360
6AE
102
}
102
{ACAD_REACTORS
330
5CA
102
}
330
5CA
100
AcDbVisualStyle
  2
2dWireframe
 70
     4
177
     2
291
     0
 71
     0
176
     1
 72
     2
176
     1
 73
     0
176
     1
 90
        0
176
     1
 40
0.6
176
     1
 41
30.0
176
     1
 63
     7
421
 16777215
176
     1
 74
     1
176
     1
 91
        4
176
     1
 64
     7
176
     1
 65
   257
176
     1
 75
     1
176
     1
175
     1
176
     1
 42
1.0
176
     1
 92
        0
176
     1
 66
   257
176
     1
 43
1.0
176
     1
 76
     1
176
     1
 77
     6
176
     1
 78
     2
176
     1
 67
     7
176
     1
 79
     5
176
     1
170
     0
176
     1
171
     0
176
     1
290
     0
176
     1
 93
        1
176
     1
 44
0.0
176
     1
173
     0
176
     1
1001
ACAD
1000
AcDbSavedByObjectVersion
1070
     0
  0
VISUALSTYLE
  5
5CF
102
{ACAD_XDICTIONARY
360
6AC
102
}
102
{ACAD_REACTORS
330
5CA
102
}
330
5CA
100
AcDbVisualStyle
  2
Basic
 70
     7
177
     2
291
     1
 71
     1
176
     1
 72
     0
176
     1
 73
     1
176
     1
 90
        0
176
     1
 40
0.6
176
     1
 41
30.0
176
     1
 63
     7
421
 16777215
176
     1
 74
     0
176
     1
 91
        4
176
     1
 64
     7
176
     1
 65
   257
176
     1
 75
     1
176
     1
175
     1
176
     1
 42
1.0
176
     1
 92
        8
176
     1
 66
     7
176
     1
 43
1.0
176
     1
 76
     1
176
     1
 77
     6
176
     1
 78
     2
176
     1
 67
     7
176
     1
 79
     5
176
     1
170
     0
176
     1
171
     0
176
     1
290
     0
176
     1
 93
        1
176
     1
 44
0.0
176
     1
173
     0
176
     1
1001
ACAD
1000
AcDbSavedByObjectVersion
1070
     0
  0
VISUALSTYLE
  5
5D6
102
{ACAD_XDICTIONARY
360
6BA
102
}
102
{ACAD_REACTORS
330
5CA
102
}
330
5CA
100
AcDbVisualStyle
  2
Brighten
 70
    12
177
     2
291
     1
 71
     2
176
     1
 72
     2
176
     1
 73
     0
176
     1
 90
        0
176
     1
 40
0.6
176
     1
 41
30.0
176
     1
 63
     7
421
 16777215
176
     1
 74
     1
176
     1
 91
        4
176
     1
 64
     7
176
     1
 65
   257
176
     1
 75
     1
176
     1
175
     1
176
     1
 42
1.0
176
     1
 92
        8
176
     1
 66
     7
176
     1
 43
1.0
176
     1
 76
     1
176
     1
 77
     6
176
     1
 78
     2
176
     1
 67
     7
176
     1
 79
     5
176
     1
170
     0
176
     1
171
     0
176
     1
290
     0
176
     1
 93
        1
176
     1
 44
50.0
176
     1
173
     0
176
     1
1001
ACAD
1000
AcDbSavedByObjectVersion
1070
     0
  0
VISUALSTYLE
  5
5DA
102
{ACAD_XDICTIONARY
360
6C2
102
}
102
{ACAD_REACTORS
330
5CA
102
}
330
5CA
100
AcDbVisualStyle
  2
ColorChange
 70
    16
177
     2
291
     1
 71
     2
176
     1
 72
     2
176
     1
 73
     3
176
     1
 90
        0
176
     1
 40
0.6
176
     1
 41
30.0
176
     1
 63
     8
421
  8421504
176
     1
 74
     1
176
     1
 91
        4
176
     1
 64
     7
176
     1
 65
   257
176
     1
 75
     1
176
     1
175
     1
176
     1
 42
1.0
176
     1
 92
        8
176
     1
 66
     8
424
  8421504
176
     1
 43
1.0
176
     1
 76
     1
176
     1
 77
     6
176
     1
 78
     2
176
     1
 67
     7
176
     1
 79
     5
176
     1
170
     0
176
     1
171
     0
176
     1
290
     0
176
     1
 93
        1
176
     1
 44
0.0
176
     1
173
     0
176
     1
1001
ACAD
1000
AcDbSavedByObjectVersion
1070
     0
  0
VISUALSTYLE
  5
5D3
102
{ACAD_XDICTIONARY
360
6B4
102
}
102
{ACAD_REACTORS
330
5CA
102
}
330
5CA
100
AcDbVisualStyle
  2
Conceptual
 70
     9
177
     2
291
     0
 71
     3
176
     1
 72
     2
176
     1
 73
     0
176
     1
 90
        0
176
     1
 40
0.6
176
     1
 41
30.0
176
     1
 63
     7
421
 16777215
176
     1
 74
     2
176
     1
 91
        2
176
     1
 64
     7
176
     1
 65
   257
176
     1
 75
     1
176
     1
175
     1
176
     1
 42
179.0
176
     1
 92
        8
176
     1
 66
     7
176
     1
 43
1.0
176
     1
 76
     1
176
     1
 77
     6
176
     1
 78
     2
176
     1
 67
     7
176
     1
 79
     3
176
     1
170
     0
176
     1
171
     0
176
     1
290
     0
176
     1
 93
        1
176
     1
 44
0.0
176
     1
173
     0
176
     1
1001
ACAD
1000
AcDbSavedByObjectVersion
1070
     0
  0
VISUALSTYLE
  5
5D5
102
{ACAD_XDICTIONARY
360
6B8
102
}
102
{ACAD_REACTORS
330
5CA
102
}
330
5CA
100
AcDbVisualStyle
  2
Dim
 70
    11
177
     2
291
     1
 71
     2
176
     1
 72
     2
176
     1
 73
     0
176
     1
 90
        0
176
     1
 40
0.6
176
     1
 41
30.0
176
     1
 63
     7
421
 16777215
176
     1
 74
     1
176
     1
 91
        4
176
     1
 64
     7
176
     1
 65
   257
176
     1
 75
     1
176
     1
175
     1
176
     1
 42
1.0
176
     1
 92
        8
176
     1
 66
     7
176
     1
 43
1.0
176
     1
 76
     1
176
     1
 77
     6
176
     1
 78
     2
176
     1
 67
     7
176
     1
 79
     5
176
     1
170
     0
176
     1
171
     0
176
     1
290
     0
176
     1
 93
        1
176
     1
 44
-50.0
176
     1
173
     0
176
     1
1001
ACAD
1000
AcDbSavedByObjectVersion
1070
     0
  0
VISUALSTYLE
  5
5E2
102
{ACAD_XDICTIONARY
360
6D2
102
}
102
{ACAD_REACTORS
330
5CA
102
}
330
5CA
100
AcDbVisualStyle
  2
EdgeColorOff
 70
    22
177
     2
291
     1
 71
     2
176
     0
 72
     2
176
     0
 73
     0
176
     0
 90
        0
176
     0
 40
0.6
176
     0
 41
30.0
176
     0
 63
     7
421
 16777215
176
     0
 74
     1
176
     0
 91
        4
176
     0
 64
     7
176
     0
 65
   257
176
     0
 75
     1
176
     0
175
     1
176
     0
 42
1.0
176
     0
 92
        8
176
     2
 66
     7
176
     0
 43
1.0
176
     0
 76
     1
176
     0
 77
     6
176
     0
 78
     2
176
     0
 67
     7
176
     0
 79
     5
176
     0
170
     0
176
     0
171
     0
176
     0
290
     0
176
     0
 93
        1
176
     0
 44
0.0
176
     0
173
     0
176
     0
1001
ACAD
1000
AcDbSavedByObjectVersion
1070
     0
  0
VISUALSTYLE
  5
5D9
102
{ACAD_XDICTIONARY
360
6C0
102
}
102
{ACAD_REACTORS
330
5CA
102
}
330
5CA
100
AcDbVisualStyle
  2
Facepattern
 70
    15
177
     2
291
     1
 71
     2
176
     1
 72
     2
176
     1
 73
     0
176
     1
 90
        0
176
     1
 40
0.6
176
     1
 41
30.0
176
     1
 63
     7
421
 16777215
176
     1
 74
     1
176
     1
 91
        4
176
     1
 64
     7
176
     1
 65
   257
176
     1
 75
     1
176
     1
175
     1
176
     1
 42
1.0
176
     1
 92
        8
176
     1
 66
     7
176
     1
 43
1.0
176
     1
 76
     1
176
     1
 77
     6
176
     1
 78
     2
176
     1
 67
     7
176
     1
 79
     5
176
     1
170
     0
176
     1
171
     0
176
     1
290
     0
176
     1
 93
        1
176
     1
 44
0.0
176
     1
173
     0
176
     1
1001
ACAD
1000
AcDbSavedByObjectVersion
1070
     0
  0
VISUALSTYLE
  5
5CB
102
{ACAD_XDICTIONARY
360
6A4
102
}
102
{ACAD_REACTORS
330
5CA
102
}
330
5CA
100
AcDbVisualStyle
  2
Flat
 70
     0
177
     2
291
     1
 71
     2
176
     1
 72
     1
176
     1
 73
     1
176
     1
 90
        2
176
     1
 40
0.6
176
     1
 41
30.0
176
     1
 63
     7
421
 16777215
176
     1
 74
     0
176
     1
 91
        0
176
     1
 64
     7
176
     1
 65
   257
176
     1
 75
     1
176
     1
175
     1
176
     1
 42
1.0
176
     1
 92
        8
176
     1
 66
     7
176
     1
 43
1.0
176
     1
 76
     1
176
     1
 77
     6
176
     1
 78
     2
176
     1
 67
     7
176
     1
 79
     5
176
     1
170
     0
176
     1
171
     0
176
     1
290
     0
176
     1
 93
       13
176
     1
 44
0.0
176
     1
173
     0
176
     1
1001
ACAD
1000
AcDbSavedByObjectVersion
1070
     0
  0
VISUALSTYLE
  5
5CC
102
{ACAD_XDICTIONARY
360
6A6
102
}
102
{ACAD_REACTORS
330
5CA
102
}
330
5CA
100
AcDbVisualStyle
  2
FlatWithEdges
 70
     1
177
     2
291
     1
 71
     2
176
     1
 72
     1
176
     1
 73
     1
176
     1
 90
        2
176
     1
 40
0.6
176
     1
 41
30.0
176
     1
 63
     7
421
 16777215
176
     1
 74
     1
176
     1
 91
        0
176
     1
 64
     7
176
     1
 65
   257
176
     1
 75
     1
176
     1
175
     1
176
     1
 42
1.0
176
     1
 92
        0
176
     1
 66
   257
176
     1
 43
1.0
176
     1
 76
     1
176
     1
 77
     6
176
     1
 78
     2
176
     1
 67
     7
176
     1
 79
     5
176
     1
170
     0
176
     1
171
     0
176
     1
290
     0
176
     1
 93
       13
176
     1
 44
0.0
176
     1
173
     0
176
     1
1001
ACAD
1000
AcDbSavedByObjectVersion
1070
     0
  0
VISUALSTYLE
  5
5CD
102
{ACAD_XDICTIONARY
360
6A8
102
}
102
{ACAD_REACTORS
330
5CA
102
}
330
5CA
100
AcDbVisualStyle
  2
Gouraud
 70
     2
177
     2
291
     1
 71
     2
176
     1
 72
     2
176
     1
 73
     1
176
     1
 90
        2
176
     1
 40
0.6
176
     1
 41
30.0
176
     1
 63
     7
421
 16777215
176
     1
 74
     0
176
     1
 91
        0
176
     1
 64
     7
176
     1
 65
   257
176
     1
 75
     1
176
     1
175
     1
176
     1
 42
1.0
176
     1
 92
        0
176
     1
 66
     7
176
     1
 43
1.0
176
     1
 76
     1
176
     1
 77
     6
176
     1
 78
     2
176
     1
 67
     7
176
     1
 79
     5
176
     1
170
     0
176
     1
171
     0
176
     1
290
     0
176
     1
 93
       13
176
     1
 44
0.0
176
     1
173
     0
176
     1
1001
ACAD
1000
AcDbSavedByObjectVersion
1070
     0
  0
VISUALSTYLE
  5
5CE
102
{ACAD_XDICTIONARY
360
6AA
102
}
102
{ACAD_REACTORS
330
5CA
102
}
330
5CA
100
AcDbVisualStyle
  2
GouraudWithEdges
 70
     3
177
     2
291
     1
 71
     2
176
     1
 72
     2
176
     1
 73
     1
176
     1
 90
        2
176
     1
 40
0.6
176
     1
 41
30.0
176
     1
 63
     7
421
 16777215
176
     1
 74
     1
176
     1
 91
        0
176
     1
 64
     7
176
     1
 65
   257
176
     1
 75
     1
176
     1
175
     1
176
     1
 42
1.0
176
     1
 92
        0
176
     1
 66
   257
176
     1
 43
1.0
176
     1
 76
     1
176
     1
 77
     6
176
     1
 78
     2
176
     1
 67
     7
176
     1
 79
     5
176
     1
170
     0
176
     1
171
     0
176
     1
290
     0
176
     1
 93
       13
176
     1
 44
0.0
176
     1
173
     0
176
     1
1001
ACAD
1000
AcDbSavedByObjectVersion
1070
     0
  0
VISUALSTYLE
  5
5D2
102
{ACAD_XDICTIONARY
360
6B2
102
}
102
{ACAD_REACTORS
330
5CA
102
}
330
5CA
100
AcDbVisualStyle
  2
Hidden
 70
     6
177
     2
291
     0
 71
     1
176
     1
 72
     2
176
     1
 73
     2
176
     1
 90
        0
176
     1
 40
0.6
176
     1
 41
30.0
176
     1
 63
     7
421
 16777215
176
     1
 74
     2
176
     1
 91
        2
176
     1
 64
     7
176
     1
 65
   257
176
     1
 75
     2
176
     1
175
     1
176
     1
 42
40.0
176
     1
 92
        0
176
     1
 66
   257
176
     1
 43
1.0
176
     1
 76
     1
176
     1
 77
     6
176
     1
 78
     2
176
     1
 67
     7
176
     1
 79
     3
176
     1
170
     0
176
     1
171
     0
176
     1
290
     0
176
     1
 93
        1
176
     1
 44
0.0
176
     1
173
     0
176
     1
1001
ACAD
1000
AcDbSavedByObjectVersion
1070
     0
  0
VISUALSTYLE
  5
5E0
102
{ACAD_XDICTIONARY
360
6CE
102
}
102
{ACAD_REACTORS
330
5CA
102
}
330
5CA
100
AcDbVisualStyle
  2
JitterOff
 70
    20
177
     2
291
     1
 71
     2
176
     0
 72
     2
176
     0
 73
     0
176
     0
 90
        0
176
     0
 40
0.6
176
     0
 41
30.0
176
     0
 63
     7
421
 16777215
176
     0
 74
     1
176
     0
 91
        4
176
     0
 64
     7
176
     0
 65
   257
176
     0
 75
     1
176
     0
175
     1
176
     0
 42
1.0
176
     0
 92
       10
176
     2
 66
     7
176
     0
 43
1.0
176
     0
 76
     1
176
     0
 77
     6
176
     0
 78
     2
176
     0
 67
     7
176
     0
 79
     5
176
     0
170
     0
176
     0
171
     0
176
     0
290
     0
176
     0
 93
        1
176
     0
 44
0.0
176
     0
173
     0
176
     0
1001
ACAD
1000
AcDbSavedByObjectVersion
1070
     0
  0
VISUALSTYLE
  5
5D8
102
{ACAD_XDICTIONARY
360
6BE
102
}
102
{ACAD_REACTORS
330
5CA
102
}
330
5CA
100
AcDbVisualStyle
  2
Linepattern
 70
    14
177
     2
291
     1
 71
     2
176
     1
 72
     2
176
     1
 73
     0
176
     1
 90
        0
176
     1
 40
0.6
176
     1
 41
30.0
176
     1
 63
     7
421
 16777215
176
     1
 74
     1
176
     1
 91
        4
176
     1
 64
     7
176
     1
 65
   257
176
     1
 75
     7
176
     1
175
     7
176
     1
 42
1.0
176
     1
 92
        8
176
     1
 66
     7
176
     1
 43
1.0
176
     1
 76
     1
176
     1
 77
     6
176
     1
 78
     2
176
     1
 67
     7
176
     1
 79
     5
176
     1
170
     0
176
     1
171
     0
176
     1
290
     0
176
     1
 93
        1
176
     1
 44
0.0
176
     1
173
     0
176
     1
1001
ACAD
1000
AcDbSavedByObjectVersion
1070
     0
  0
VISUALSTYLE
  5
5E1
102
{ACAD_XDICTIONARY
360
6D0
102
}
102
{ACAD_REACTORS
330
5CA
102
}
330
5CA
100
AcDbVisualStyle
  2
OverhangOff
 70
    21
177
     2
291
     1
 71
     2
176
     0
 72
     2
176
     0
 73
     0
176
     0
 90
        0
176
     0
 40
0.6
176
     0
 41
30.0
176
     0
 63
     7
421
 16777215
176
     0
 74
     1
176
     0
 91
        4
176
     0
 64
     7
176
     0
 65
   257
176
     0
 75
     1
176
     0
175
     1
176
     0
 42
1.0
176
     0
 92
        9
176
     2
 66
     7
176
     0
 43
1.0
176
     0
 76
     1
176
     0
 77
     6
176
     0
 78
     2
176
     0
 67
     7
176
     0
 79
     5
176
     0
170
     0
176
     0
171
     0
176
     0
290
     0
176
     0
 93
        1
176
     0
 44
0.0
176
     0
173
     0
176
     0
1001
ACAD
1000
AcDbSavedByObjectVersion
1070
     0
  0
VISUALSTYLE
  5
5D4
102
{ACAD_XDICTIONARY
360
6B6
102
}
102
{ACAD_REACTORS
330
5CA
102
}
330
5CA
100
AcDbVisualStyle
  2
Realistic
 70
     8
177
     2
291
     0
 71
     2
176
     1
 72
     3
176
     1
 73
     0
176
     1
 90
        2
176
     1
 40
0.6
176
     1
 41
30.0
176
     1
 63
     7
421
 16777215
176
     1
 74
     0
176
     1
 91
        0
176
     1
 64
     7
176
     1
 65
   257
176
     1
 75
     1
176
     1
175
     1
176
     1
 42
1.0
176
     1
 92
        8
176
     1
 66
   257
176
     1
 43
1.0
176
     1
 76
     1
176
     1
 77
     6
176
     1
 78
     2
176
     1
 67
     7
176
     1
 79
     3
176
     1
170
     0
176
     1
171
     0
176
     1
290
     0
176
     1
 93
       13
176
     1
 44
0.0
176
     1
173
     0
176
     1
1001
ACAD
1000
AcDbSavedByObjectVersion
1070
     0
  0
VISUALSTYLE
  5
5DF
102
{ACAD_XDICTIONARY
360
6CC
102
}
102
{ACAD_REACTORS
330
5CA
102
}
330
5CA
100
AcDbVisualStyle
  2
Shaded
 70
    27
177
     2
291
     0
 71
     2
176
     1
 72
     2
176
     1
 73
     1
176
     1
 90
        2
176
     1
 40
0.6
176
     1
 41
30.0
176
     1
 63
     7
421
 16777215
176
     1
 74
     0
176
     1
 91
        4
176
     1
 64
     7
176
     1
 65
   257
176
     1
 75
     1
176
     1
175
     1
176
     1
 42
1.0
176
     1
 92
        8
176
     1
 66
   257
176
     1
 43
1.0
176
     1
 76
     1
176
     1
 77
     6
176
     1
 78
     2
176
     1
 67
     8
425
  7895160
176
     1
 79
     3
176
     1
170
     0
176
     1
171
     0
176
     1
290
     0
176
     1
 93
        5
176
     1
 44
0.0
176
     1
173
     0
176
     1
1001
ACAD
1000
AcDbSavedByObjectVersion
1070
     0
  0
VISUALSTYLE
  5
5DE
102
{ACAD_XDICTIONARY
360
6CA
102
}
102
{ACAD_REACTORS
330
5CA
102
}
330
5CA
100
AcDbVisualStyle
  2
Shaded with edges
 70
    26
177
     2
291
     0
 71
     2
176
     1
 72
     2
176
     1
 73
     1
176
     1
 90
        2
176
     1
 40
0.6
176
     1
 41
30.0
176
     1
 63
     7
421
 16777215
176
     1
 74
     1
176
     1
 91
       10
176
     1
 64
     7
176
     1
 65
   257
176
     1
 75
     2
176
     1
175
     1
176
     1
 42
1.0
176
     1
 92
        8
176
     1
 66
   257
176
     1
 43
1.0
176
     1
 76
     1
176
     1
 77
     6
176
     1
 78
     2
176
     1
 67
     7
176
     1
 79
     3
176
     1
170
     0
176
     1
171
     0
176
     1
290
     0
176
     1
 93
        5
176
     1
 44
0.0
176
     1
173
     0
176
     1
1001
ACAD
1000
AcDbSavedByObjectVersion
1070
     0
  0
VISUALSTYLE
  5
5DB
102
{ACAD_XDICTIONARY
360
6C4
102
}
102
{ACAD_REACTORS
330
5CA
102
}
330
5CA
100
AcDbVisualStyle
  2
Shades of Gray
 70
    23
177
     2
291
     0
 71
     2
176
     1
 72
     2
176
     1
 73
     3
176
     1
 90
        0
176
     1
 40
0.6
176
     1
 41
30.0
176
     1
 63
     7
421
 16777215
176
     1
 74
     2
176
     1
 91
        2
176
     1
 64
     7
176
     1
 65
     7
176
     1
 75
     1
176
     1
175
     1
176
     1
 42
40.0
176
     1
 92
        8
176
     1
 66
     7
176
     1
 43
1.0
176
     1
 76
     1
176
     1
 77
     6
176
     1
 78
     2
176
     1
 67
     7
176
     1
 79
     3
176
     1
170
     0
176
     1
171
     0
176
     1
290
     0
176
     1
 93
        1
176
     1
 44
0.0
176
     1
173
     0
176
     1
1001
ACAD
1000
AcDbSavedByObjectVersion
1070
     0
  0
VISUALSTYLE
  5
5DC
102
{ACAD_XDICTIONARY
360
6C6
102
}
102
{ACAD_REACTORS
330
5CA
102
}
330
5CA
100
AcDbVisualStyle
  2
Sketchy
 70
    24
177
     2
291
     0
 71
     1
176
     1
 72
     2
176
     1
 73
     2
176
     1
 90
        0
176
     1
 40
0.6
176
     1
 41
30.0
176
     1
 63
     7
421
 16777215
176
     1
 74
     2
176
     1
 91
        2
176
     1
 64
     7
176
     1
 65
     7
176
     1
 75
     1
176
     1
175
     1
176
     1
 42
40.0
176
     1
 92
       11
176
     1
 66
     7
176
     1
 43
1.0
176
     1
 76
     1
176
     1
 77
     6
176
     1
 78
     2
176
     1
 67
     7
176
     1
 79
     6
176
     1
170
     0
176
     1
171
     0
176
     1
290
     0
176
     1
 93
        1
176
     1
 44
0.0
176
     1
173
     0
176
     1
1001
ACAD
1000
AcDbSavedByObjectVersion
1070
     0
  0
VISUALSTYLE
  5
5D7
102
{ACAD_XDICTIONARY
360
6BC
102
}
102
{ACAD_REACTORS
330
5CA
102
}
330
5CA
100
AcDbVisualStyle
  2
Thicken
 70
    13
177
     2
291
     1
 71
     2
176
     1
 72
     2
176
     1
 73
     0
176
     1
 90
        0
176
     1
 40
0.6
176
     1
 41
30.0
176
     1
 63
     7
421
 16777215
176
     1
 74
     1
176
     1
 91
        4
176
     1
 64
     7
176
     1
 65
   257
176
     1
 75
     1
176
     1
175
     1
176
     1
 42
1.0
176
     1
 92
       12
176
     1
 66
     7
176
     1
 43
1.0
176
     1
 76
     1
176
     1
 77
     6
176
     1
 78
     2
176
     1
 67
     7
176
     1
 79
     5
176
     1
170
     0
176
     1
171
     0
176
     1
290
     0
176
     1
 93
        1
176
     1
 44
0.0
176
     1
173
     0
176
     1
1001
ACAD
1000
AcDbSavedByObjectVersion
1070
     0
  0
VISUALSTYLE
  5
5D1
102
{ACAD_XDICTIONARY
360
6B0
102
}
102
{ACAD_REACTORS
330
5CA
102
}
330
5CA
100
AcDbVisualStyle
  2
Wireframe
 70
     5
177
     2
291
     0
 71
     0
176
     1
 72
     2
176
     1
 73
     0
176
     1
 90
        0
176
     1
 40
0.6
176
     1
 41
30.0
176
     1
 63
     7
421
 16777215
176
     1
 74
     1
176
     1
 91
        4
176
     1
 64
     7
176
     1
 65
   257
176
     1
 75
     1
176
     1
175
     1
176
     1
 42
1.0
176
     1
 92
        0
176
     1
 66
   257
176
     1
 43
1.0
176
     1
 76
     1
176
     1
 77
     6
176
     1
 78
     2
176
     1
 67
     7
176
     1
 79
     3
176
     1
170
     0
176
     1
171
     0
176
     1
290
     0
176
     1
 93
        1
176
     1
 44
0.0
176
     1
173
     0
176
     1
1001
ACAD
1000
AcDbSavedByObjectVersion
1070
     0
  0
VISUALSTYLE
  5
5DD
102
{ACAD_XDICTIONARY
360
6C8
102
}
102
{ACAD_REACTORS
330
5CA
102
}
330
5CA
100
AcDbVisualStyle
  2
X-Ray
 70
    25
177
     2
291
     0
 71
     2
176
     1
 72
     2
176
     1
 73
     1
176
     1
 90
        1
176
     1
 40
0.5
176
     1
 41
30.0
176
     1
 63
     7
421
 16777215
176
     1
 74
     1
176
     1
 91
        0
176
     1
 64
     7
176
     1
 65
   257
176
     1
 75
     1
176
     1
175
     1
176
     1
 42
1.0
176
     1
 92
        8
176
     1
 66
     7
176
     1
 43
1.0
176
     1
 76
     1
176
     1
 77
     6
176
     1
 78
     2
176
     1
 67
     7
176
     1
 79
     3
176
     1
170
     0
176
     1
171
     0
176
     1
290
     0
176
     1
 93
       13
176
     1
 44
0.0
176
     1
173
     0
176
     1
1001
ACAD
1000
AcDbSavedByObjectVersion
1070
     0
  0
DICTIONARYVAR
  5
69C
102
{ACAD_REACTORS
330
696
102
}
330
696
100
DictionaryVariables
280
     0
  1
1:1
  0
DICTIONARYVAR
  5
698
102
{ACAD_REACTORS
330
696
102
}
330
696
100
DictionaryVariables
280
     0
  1
STANDARD
  0
DICTIONARYVAR
  5
697
102
{ACAD_REACTORS
330
696
102
}
330
696
100
DictionaryVariables
280
     0
  1
STANDARD
  0
DICTIONARYVAR
  5
699
102
{ACAD_REACTORS
330
696
102
}
330
696
100
DictionaryVariables
280
     0
  1
Imperial24
  0
DICTIONARYVAR
  5
69A
102
{ACAD_REACTORS
330
696
102
}
330
696
100
DictionaryVariables
280
     0
  1
Imperial24
  0
DICTIONARYVAR
  5
69E
102
{ACAD_REACTORS
330
696
102
}
330
696
100
DictionaryVariables
280
     0
  1
1
  0
DICTIONARYVAR
  5
69F
102
{ACAD_REACTORS
330
696
102
}
330
696
100
DictionaryVariables
280
     0
  1
15
  0
DICTIONARYVAR
  5
69D
102
{ACAD_REACTORS
330
696
102
}
330
696
100
DictionaryVariables
280
     0
  1
0
  0
DICTIONARYVAR
  5
69B
102
{ACAD_REACTORS
330
696
102
}
330
696
100
DictionaryVariables
280
     0
  1
0
  0
DICTIONARY
  5
6D6
330
60B
100
AcDbDictionary
280
     1
281
     1
  3
ACAD_XREC_ROUNDTRIP
360
6D7
  0
DICTIONARY
  5
5BB
330
5BA
100
AcDbDictionary
280
     1
281
     1
  3
BUMPTILE
360
5BD
  3
DIFFUSETILE
360
5BC
  3
OPACITYTILE
360
5C0
  3
REFLECTIONTILE
360
5BF
  3
REFRACTIONTILE
360
5C1
  3
SPECULARTILE
360
5BE
  0
DICTIONARY
  5
5B3
330
5B2
100
AcDbDictionary
280
     1
281
     1
  3
BUMPTILE
360
5B5
  3
DIFFUSETILE
360
5B4
  3
OPACITYTILE
360
5B8
  3
REFLECTIONTILE
360
5B7
  3
REFRACTIONTILE
360
5B9
  3
SPECULARTILE
360
5B6
  0
DICTIONARY
  5
5C3
330
5C2
100
AcDbDictionary
280
     1
281
     1
  3
BUMPTILE
360
5C5
  3
DIFFUSETILE
360
5C4
  3
OPACITYTILE
360
5C8
  3
REFLECTIONTILE
360
5C7
  3
REFRACTIONTILE
360
5C9
  3
SPECULARTILE
360
5C6
  0
DICTIONARY
  5
6D4
330
609
100
AcDbDictionary
280
     1
281
     1
  3
ACAD_XREC_ROUNDTRIP
360
6D5
  0
DICTIONARY
  5
6A1
330
605
100
AcDbDictionary
280
     1
281
     1
  3
ACAD_ROUNDTRIP_2008_TABLESTYLE_CELLSTYLEMAP
360
6A2
  0
DICTIONARY
  5
6AE
330
5D0
100
AcDbDictionary
280
     1
281
     1
  3
ACAD_XREC_ROUNDTRIP
360
6AF
  0
DICTIONARY
  5
6AC
330
5CF
100
AcDbDictionary
280
     1
281
     1
  3
ACAD_XREC_ROUNDTRIP
360
6AD
  0
DICTIONARY
  5
6BA
330
5D6
100
AcDbDictionary
280
     1
281
     1
  3
ACAD_XREC_ROUNDTRIP
360
6BB
  0
DICTIONARY
  5
6C2
330
5DA
100
AcDbDictionary
280
     1
281
     1
  3
ACAD_XREC_ROUNDTRIP
360
6C3
  0
DICTIONARY
  5
6B4
330
5D3
100
AcDbDictionary
280
     1
281
     1
  3
ACAD_XREC_ROUNDTRIP
360
6B5
  0
DICTIONARY
  5
6B8
330
5D5
100
AcDbDictionary
280
     1
281
     1
  3
ACAD_XREC_ROUNDTRIP
360
6B9
  0
DICTIONARY
  5
6D2
330
5E2
100
AcDbDictionary
280
     1
281
     1
  3
ACAD_XREC_ROUNDTRIP
360
6D3
  0
DICTIONARY
  5
6C0
330
5D9
100
AcDbDictionary
280
     1
281
     1
  3
ACAD_XREC_ROUNDTRIP
360
6C1
  0
DICTIONARY
  5
6A4
330
5CB
100
AcDbDictionary
280
     1
281
     1
  3
ACAD_XREC_ROUNDTRIP
360
6A5
  0
DICTIONARY
  5
6A6
330
5CC
100
AcDbDictionary
280
     1
281
     1
  3
ACAD_XREC_ROUNDTRIP
360
6A7
  0
DICTIONARY
  5
6A8
330
5CD
100
AcDbDictionary
280
     1
281
     1
  3
ACAD_XREC_ROUNDTRIP
360
6A9
  0
DICTIONARY
  5
6AA
330
5CE
100
AcDbDictionary
280
     1
281
     1
  3
ACAD_XREC_ROUNDTRIP
360
6AB
  0
DICTIONARY
  5
6B2
330
5D2
100
AcDbDictionary
280
     1
281
     1
  3
ACAD_XREC_ROUNDTRIP
360
6B3
  0
DICTIONARY
  5
6CE
330
5E0
100
AcDbDictionary
280
     1
281
     1
  3
ACAD_XREC_ROUNDTRIP
360
6CF
  0
DICTIONARY
  5
6BE
330
5D8
100
AcDbDictionary
280
     1
281
     1
  3
ACAD_XREC_ROUNDTRIP
360
6BF
  0
DICTIONARY
  5
6D0
330
5E1
100
AcDbDictionary
280
     1
281
     1
  3
ACAD_XREC_ROUNDTRIP
360
6D1
  0
DICTIONARY
  5
6B6
330
5D4
100
AcDbDictionary
280
     1
281
     1
  3
ACAD_XREC_ROUNDTRIP
360
6B7
  0
DICTIONARY
  5
6CC
330
5DF
100
AcDbDictionary
280
     1
281
     1
  3
ACAD_XREC_ROUNDTRIP
360
6CD
  0
DICTIONARY
  5
6CA
330
5DE
100
AcDbDictionary
280
     1
281
     1
  3
ACAD_XREC_ROUNDTRIP
360
6CB
  0
DICTIONARY
  5
6C4
330
5DB
100
AcDbDictionary
280
     1
281
     1
  3
ACAD_XREC_ROUNDTRIP
360
6C5
  0
DICTIONARY
  5
6C6
330
5DC
100
AcDbDictionary
280
     1
281
     1
  3
ACAD_XREC_ROUNDTRIP
360
6C7
  0
DICTIONARY
  5
6BC
330
5D7
100
AcDbDictionary
280
     1
281
     1
  3
ACAD_XREC_ROUNDTRIP
360
6BD
  0
DICTIONARY
  5
6B0
330
5D1
100
AcDbDictionary
280
     1
281
     1
  3
ACAD_XREC_ROUNDTRIP
360
6B1
  0
DICTIONARY
  5
6C8
330
5DD
100
AcDbDictionary
280
     1
281
     1
  3
ACAD_XREC_ROUNDTRIP
360
6C9
  0
XRECORD
  5
6D7
102
{ACAD_REACTORS
330
6D6
102
}
330
6D6
100
AcDbXrecord
280
     1
102
DISPLAYNAME
  1
Imperial24
102
FLAGS
 90
        0
  0
XRECORD
  5
5BD
102
{ACAD_REACTORS
330
5BB
102
}
330
5BB
100
AcDbXrecord
280
     1
270
     1
271
     1
  0
XRECORD
  5
5BC
102
{ACAD_REACTORS
330
5BB
102
}
330
5BB
100
AcDbXrecord
280
     1
270
     1
271
     1
  0
XRECORD
  5
5C0
102
{ACAD_REACTORS
330
5BB
102
}
330
5BB
100
AcDbXrecord
280
     1
270
     1
271
     1
  0
XRECORD
  5
5BF
102
{ACAD_REACTORS
330
5BB
102
}
330
5BB
100
AcDbXrecord
280
     1
270
     1
271
     1
  0
XRECORD
  5
5C1
102
{ACAD_REACTORS
330
5BB
102
}
330
5BB
100
AcDbXrecord
280
     1
270
     1
271
     1
  0
XRECORD
  5
5BE
102
{ACAD_REACTORS
330
5BB
102
}
330
5BB
100
AcDbXrecord
280
     1
270
     1
271
     1
  0
XRECORD
  5
5B5
102
{ACAD_REACTORS
330
5B3
102
}
330
5B3
100
AcDbXrecord
280
     1
270
     1
271
     1
  0
XRECORD
  5
5B4
102
{ACAD_REACTORS
330
5B3
102
}
330
5B3
100
AcDbXrecord
280
     1
270
     1
271
     1
  0
XRECORD
  5
5B8
102
{ACAD_REACTORS
330
5B3
102
}
330
5B3
100
AcDbXrecord
280
     1
270
     1
271
     1
  0
XRECORD
  5
5B7
102
{ACAD_REACTORS
330
5B3
102
}
330
5B3
100
AcDbXrecord
280
     1
270
     1
271
     1
  0
XRECORD
  5
5B9
102
{ACAD_REACTORS
330
5B3
102
}
330
5B3
100
AcDbXrecord
280
     1
270
     1
271
     1
  0
XRECORD
  5
5B6
102
{ACAD_REACTORS
330
5B3
102
}
330
5B3
100
AcDbXrecord
280
     1
270
     1
271
     1
  0
XRECORD
  5
5C5
102
{ACAD_REACTORS
330
5C3
102
}
330
5C3
100
AcDbXrecord
280
     1
270
     1
271
     1
  0
XRECORD
  5
5C4
102
{ACAD_REACTORS
330
5C3
102
}
330
5C3
100
AcDbXrecord
280
     1
270
     1
271
     1
  0
XRECORD
  5
5C8
102
{ACAD_REACTORS
330
5C3
102
}
330
5C3
100
AcDbXrecord
280
     1
270
     1
271
     1
  0
XRECORD
  5
5C7
102
{ACAD_REACTORS
330
5C3
102
}
330
5C3
100
AcDbXrecord
280
     1
270
     1
271
     1
  0
XRECORD
  5
5C9
102
{ACAD_REACTORS
330
5C3
102
}
330
5C3
100
AcDbXrecord
280
     1
270
     1
271
     1
  0
XRECORD
  5
5C6
102
{ACAD_REACTORS
330
5C3
102
}
330
5C3
100
AcDbXrecord
280
     1
270
     1
271
     1
  0
XRECORD
  5
6D5
102
{ACAD_REACTORS
330
6D4
102
}
330
6D4
100
AcDbXrecord
280
     1
102
DISPLAYNAME
  1
Imperial24
102
FLAGS
 90
        0
  0
CELLSTYLEMAP
  5
6A2
102
{ACAD_REACTORS
330
6A1
102
}
330
6A1
100
AcDbCellStyleMap
 90
        3
300
CELLSTYLE
  1
TABLEFORMAT_BEGIN
 90
        5
170
     1
 91
        0
 92
    32768
 62
   257
 93
        1
300
CONTENTFORMAT
  1
CONTENTFORMAT_BEGIN
 90
        0
 91
        0
 92
      512
 93
        0
300

 40
0.0
140
1.0
 94
        5
 62
     0
340
5F6
144
0.25
309
CONTENTFORMAT_END
171
     0
 94
        0
309
TABLEFORMAT_END
  1
CELLSTYLE_BEGIN
 90
        1
 91
        1
300
_TITLE
309
CELLSTYLE_END
300
CELLSTYLE
  1
TABLEFORMAT_BEGIN
 90
        5
170
     1
 91
        0
 92
        0
 62
   257
 93
        1
300
CONTENTFORMAT
  1
CONTENTFORMAT_BEGIN
 90
        0
 91
        0
 92
      512
 93
        0
300

 40
0.0
140
1.0
 94
        5
 62
     0
340
5F6
144
0.18
309
CONTENTFORMAT_END
171
     0
 94
        0
309
TABLEFORMAT_END
  1
CELLSTYLE_BEGIN
 90
        2
 91
        1
300
_HEADER
309
CELLSTYLE_END
300
CELLSTYLE
  1
TABLEFORMAT_BEGIN
 90
        5
170
     1
 91
        0
 92
        0
 62
   257
 93
        1
300
CONTENTFORMAT
  1
CONTENTFORMAT_BEGIN
 90
        0
 91
        0
 92
      512
 93
        0
300

 40
0.0
140
1.0
 94
        2
 62
     0
340
5F6
144
0.18
309
CONTENTFORMAT_END
171
     0
 94
        0
309
TABLEFORMAT_END
  1
CELLSTYLE_BEGIN
 90
        3
 91
        2
300
_DATA
309
CELLSTYLE_END
  0
XRECORD
  5
6AF
102
{ACAD_REACTORS
330
6AE
102
}
330
6AE
100
AcDbXrecord
280
     1
102
RTVSPost2010Prop28
280
     1
102
RTVSPost2010PropOp28
 70
     1
102
RTVSPost2010Prop29
280
     1
102
RTVSPost2010PropOp29
 70
     1
102
RTVSPost2010Prop30
280
     0
102
RTVSPost2010PropOp30
 70
     1
102
RTVSPost2010Prop31
280
     0
102
RTVSPost2010PropOp31
 70
     1
102
RTVSPost2010Prop32
280
     0
102
RTVSPost2010PropOp32
 70
     1
102
RTVSPost2010Prop33
280
     0
102
RTVSPost2010PropOp33
 70
     1
102
RTVSPost2010Prop34
280
     0
102
RTVSPost2010PropOp34
 70
     1
102
RTVSPost2010Prop35
280
     0
102
RTVSPost2010PropOp35
 70
     1
102
RTVSPost2010Prop36
280
     0
102
RTVSPost2010PropOp36
 70
     1
102
RTVSPost2010Prop37
 90
       50
102
RTVSPost2010PropOp37
 70
     1
102
RTVSPost2010Prop38
140
0.0
102
RTVSPost2010PropOp38
 70
     1
102
RTVSPost2010Prop39
140
1.0
102
RTVSPost2010PropOp39
 70
     1
102
RTVSPost2010Prop40
 90
        0
102
RTVSPost2010PropOp40
 70
     1
102
RTVSPost2010Prop41ColorIndex
 90
       18
102
RTVSPost2010Prop41ColorRGB
 90
        0
102
RTVSPost2010PropOp41
 70
     1
102
RTVSPost2010Prop42
 90
       50
102
RTVSPost2010PropOp42
 70
     1
102
RTVSPost2010Prop43
 90
        3
102
RTVSPost2010PropOp43
 70
     1
102
RTVSPost2010Prop44ColorIndex
 90
        5
102
RTVSPost2010Prop44ColorRGB
 90
      255
102
RTVSPost2010PropOp44
 70
     1
102
RTVSPost2010Prop45
280
     0
102
RTVSPost2010PropOp45
 70
     1
102
RTVSPost2010Prop46
 90
       50
102
RTVSPost2010PropOp46
 70
     1
102
RTVSPost2010Prop47
 90
       50
102
RTVSPost2010PropOp47
 70
     1
102
RTVSPost2010Prop48
 90
       50
102
RTVSPost2010PropOp48
 70
     1
102
RTVSPost2010Prop49
280
     0
102
RTVSPost2010PropOp49
 70
     1
102
RTVSPost2010Prop50
 90
       50
102
RTVSPost2010PropOp50
 70
     1
102
RTVSPost2010Prop51ColorIndex
 90
      256
102
RTVSPost2010Prop51ColorRGB
 90
-16777216
102
RTVSPost2010PropOp51
 70
     0
102
RTVSPost2010Prop52
140
1.0
102
RTVSPost2010PropOp52
 70
     0
102
RTVSPost2010Prop53
 90
        2
102
RTVSPost2010PropOp53
 70
     1
102
RTVSPost2010Prop54
  1
strokes_ogs.tif
102
RTVSPost2010PropOp54
 70
     1
102
RTVSPost2010Prop55
280
     0
102
RTVSPost2010PropOp55
 70
     1
102
RTVSPost2010Prop56
140
1.0
102
RTVSPost2010PropOp56
 70
     1
102
RTVSPost2010Prop57
140
1.0
102
RTVSPost2010PropOp57
 70
     1
  0
XRECORD
  5
6AD
102
{ACAD_REACTORS
330
6AC
102
}
330
6AC
100
AcDbXrecord
280
     1
102
RTVSPost2010Prop28
280
     0
102
RTVSPost2010PropOp28
 70
     1
102
RTVSPost2010Prop29
280
     1
102
RTVSPost2010PropOp29
 70
     1
102
RTVSPost2010Prop30
280
     1
102
RTVSPost2010PropOp30
 70
     1
102
RTVSPost2010Prop31
280
     0
102
RTVSPost2010PropOp31
 70
     1
102
RTVSPost2010Prop32
280
     0
102
RTVSPost2010PropOp32
 70
     1
102
RTVSPost2010Prop33
280
     0
102
RTVSPost2010PropOp33
 70
     1
102
RTVSPost2010Prop34
280
     0
102
RTVSPost2010PropOp34
 70
     1
102
RTVSPost2010Prop35
280
     0
102
RTVSPost2010PropOp35
 70
     1
102
RTVSPost2010Prop36
280
     0
102
RTVSPost2010PropOp36
 70
     1
102
RTVSPost2010Prop37
 90
       50
102
RTVSPost2010PropOp37
 70
     1
102
RTVSPost2010Prop38
140
0.0
102
RTVSPost2010PropOp38
 70
     1
102
RTVSPost2010Prop39
140
1.0
102
RTVSPost2010PropOp39
 70
     1
102
RTVSPost2010Prop40
 90
        0
102
RTVSPost2010PropOp40
 70
     1
102
RTVSPost2010Prop41ColorIndex
 90
       18
102
RTVSPost2010Prop41ColorRGB
 90
        0
102
RTVSPost2010PropOp41
 70
     1
102
RTVSPost2010Prop42
 90
       50
102
RTVSPost2010PropOp42
 70
     1
102
RTVSPost2010Prop43
 90
        3
102
RTVSPost2010PropOp43
 70
     1
102
RTVSPost2010Prop44ColorIndex
 90
        5
102
RTVSPost2010Prop44ColorRGB
 90
      255
102
RTVSPost2010PropOp44
 70
     1
102
RTVSPost2010Prop45
280
     0
102
RTVSPost2010PropOp45
 70
     1
102
RTVSPost2010Prop46
 90
       50
102
RTVSPost2010PropOp46
 70
     1
102
RTVSPost2010Prop47
 90
       50
102
RTVSPost2010PropOp47
 70
     1
102
RTVSPost2010Prop48
 90
       50
102
RTVSPost2010PropOp48
 70
     1
102
RTVSPost2010Prop49
280
     0
102
RTVSPost2010PropOp49
 70
     1
102
RTVSPost2010Prop50
 90
       50
102
RTVSPost2010PropOp50
 70
     1
102
RTVSPost2010Prop51ColorIndex
 90
      256
102
RTVSPost2010Prop51ColorRGB
 90
-16777216
102
RTVSPost2010PropOp51
 70
     0
102
RTVSPost2010Prop52
140
1.0
102
RTVSPost2010PropOp52
 70
     0
102
RTVSPost2010Prop53
 90
        2
102
RTVSPost2010PropOp53
 70
     1
102
RTVSPost2010Prop54
  1
strokes_ogs.tif
102
RTVSPost2010PropOp54
 70
     1
102
RTVSPost2010Prop55
280
     0
102
RTVSPost2010PropOp55
 70
     1
102
RTVSPost2010Prop56
140
1.0
102
RTVSPost2010PropOp56
 70
     1
102
RTVSPost2010Prop57
140
1.0
102
RTVSPost2010PropOp57
 70
     1
  0
XRECORD
  5
6BB
102
{ACAD_REACTORS
330
6BA
102
}
330
6BA
100
AcDbXrecord
280
     1
102
RTVSPost2010Prop28
280
     0
102
RTVSPost2010PropOp28
 70
     1
102
RTVSPost2010Prop29
280
     1
102
RTVSPost2010PropOp29
 70
     1
102
RTVSPost2010Prop30
280
     1
102
RTVSPost2010PropOp30
 70
     1
102
RTVSPost2010Prop31
280
     0
102
RTVSPost2010PropOp31
 70
     1
102
RTVSPost2010Prop32
280
     0
102
RTVSPost2010PropOp32
 70
     1
102
RTVSPost2010Prop33
280
     0
102
RTVSPost2010PropOp33
 70
     1
102
RTVSPost2010Prop34
280
     0
102
RTVSPost2010PropOp34
 70
     1
102
RTVSPost2010Prop35
280
     0
102
RTVSPost2010PropOp35
 70
     1
102
RTVSPost2010Prop36
280
     0
102
RTVSPost2010PropOp36
 70
     1
102
RTVSPost2010Prop37
 90
       50
102
RTVSPost2010PropOp37
 70
     1
102
RTVSPost2010Prop38
140
0.0
102
RTVSPost2010PropOp38
 70
     1
102
RTVSPost2010Prop39
140
1.0
102
RTVSPost2010PropOp39
 70
     1
102
RTVSPost2010Prop40
 90
        0
102
RTVSPost2010PropOp40
 70
     1
102
RTVSPost2010Prop41ColorIndex
 90
       18
102
RTVSPost2010Prop41ColorRGB
 90
        0
102
RTVSPost2010PropOp41
 70
     1
102
RTVSPost2010Prop42
 90
       50
102
RTVSPost2010PropOp42
 70
     1
102
RTVSPost2010Prop43
 90
        3
102
RTVSPost2010PropOp43
 70
     1
102
RTVSPost2010Prop44ColorIndex
 90
        5
102
RTVSPost2010Prop44ColorRGB
 90
      255
102
RTVSPost2010PropOp44
 70
     1
102
RTVSPost2010Prop45
280
     0
102
RTVSPost2010PropOp45
 70
     1
102
RTVSPost2010Prop46
 90
       50
102
RTVSPost2010PropOp46
 70
     1
102
RTVSPost2010Prop47
 90
       50
102
RTVSPost2010PropOp47
 70
     1
102
RTVSPost2010Prop48
 90
       50
102
RTVSPost2010PropOp48
 70
     1
102
RTVSPost2010Prop49
280
     0
102
RTVSPost2010PropOp49
 70
     1
102
RTVSPost2010Prop50
 90
       50
102
RTVSPost2010PropOp50
 70
     1
102
RTVSPost2010Prop51ColorIndex
 90
      256
102
RTVSPost2010Prop51ColorRGB
 90
-16777216
102
RTVSPost2010PropOp51
 70
     0
102
RTVSPost2010Prop52
140
1.0
102
RTVSPost2010PropOp52
 70
     0
102
RTVSPost2010Prop53
 90
        2
102
RTVSPost2010PropOp53
 70
     1
102
RTVSPost2010Prop54
  1
strokes_ogs.tif
102
RTVSPost2010PropOp54
 70
     1
102
RTVSPost2010Prop55
280
     0
102
RTVSPost2010PropOp55
 70
     1
102
RTVSPost2010Prop56
140
1.0
102
RTVSPost2010PropOp56
 70
     1
102
RTVSPost2010Prop57
140
1.0
102
RTVSPost2010PropOp57
 70
     1
  0
XRECORD
  5
6C3
102
{ACAD_REACTORS
330
6C2
102
}
330
6C2
100
AcDbXrecord
280
     1
102
RTVSPost2010Prop28
280
     0
102
RTVSPost2010PropOp28
 70
     1
102
RTVSPost2010Prop29
280
     1
102
RTVSPost2010PropOp29
 70
     1
102
RTVSPost2010Prop30
280
     1
102
RTVSPost2010PropOp30
 70
     1
102
RTVSPost2010Prop31
280
     0
102
RTVSPost2010PropOp31
 70
     1
102
RTVSPost2010Prop32
280
     0
102
RTVSPost2010PropOp32
 70
     1
102
RTVSPost2010Prop33
280
     0
102
RTVSPost2010PropOp33
 70
     1
102
RTVSPost2010Prop34
280
     0
102
RTVSPost2010PropOp34
 70
     1
102
RTVSPost2010Prop35
280
     0
102
RTVSPost2010PropOp35
 70
     1
102
RTVSPost2010Prop36
280
     0
102
RTVSPost2010PropOp36
 70
     1
102
RTVSPost2010Prop37
 90
       50
102
RTVSPost2010PropOp37
 70
     1
102
RTVSPost2010Prop38
140
0.0
102
RTVSPost2010PropOp38
 70
     1
102
RTVSPost2010Prop39
140
1.0
102
RTVSPost2010PropOp39
 70
     1
102
RTVSPost2010Prop40
 90
        0
102
RTVSPost2010PropOp40
 70
     1
102
RTVSPost2010Prop41ColorIndex
 90
       18
102
RTVSPost2010Prop41ColorRGB
 90
        0
102
RTVSPost2010PropOp41
 70
     1
102
RTVSPost2010Prop42
 90
       50
102
RTVSPost2010PropOp42
 70
     1
102
RTVSPost2010Prop43
 90
        3
102
RTVSPost2010PropOp43
 70
     1
102
RTVSPost2010Prop44ColorIndex
 90
        5
102
RTVSPost2010Prop44ColorRGB
 90
      255
102
RTVSPost2010PropOp44
 70
     1
102
RTVSPost2010Prop45
280
     0
102
RTVSPost2010PropOp45
 70
     1
102
RTVSPost2010Prop46
 90
       50
102
RTVSPost2010PropOp46
 70
     1
102
RTVSPost2010Prop47
 90
       50
102
RTVSPost2010PropOp47
 70
     1
102
RTVSPost2010Prop48
 90
       50
102
RTVSPost2010PropOp48
 70
     1
102
RTVSPost2010Prop49
280
     0
102
RTVSPost2010PropOp49
 70
     1
102
RTVSPost2010Prop50
 90
       50
102
RTVSPost2010PropOp50
 70
     1
102
RTVSPost2010Prop51ColorIndex
 90
      256
102
RTVSPost2010Prop51ColorRGB
 90
-16777216
102
RTVSPost2010PropOp51
 70
     0
102
RTVSPost2010Prop52
140
1.0
102
RTVSPost2010PropOp52
 70
     0
102
RTVSPost2010Prop53
 90
        2
102
RTVSPost2010PropOp53
 70
     1
102
RTVSPost2010Prop54
  1
strokes_ogs.tif
102
RTVSPost2010PropOp54
 70
     1
102
RTVSPost2010Prop55
280
     0
102
RTVSPost2010PropOp55
 70
     1
102
RTVSPost2010Prop56
140
1.0
102
RTVSPost2010PropOp56
 70
     1
102
RTVSPost2010Prop57
140
1.0
102
RTVSPost2010PropOp57
 70
     1
  0
XRECORD
  5
6B5
102
{ACAD_REACTORS
330
6B4
102
}
330
6B4
100
AcDbXrecord
280
     1
102
RTVSPost2010Prop28
280
     0
102
RTVSPost2010PropOp28
 70
     1
102
RTVSPost2010Prop29
280
     1
102
RTVSPost2010PropOp29
 70
     1
102
RTVSPost2010Prop30
280
     1
102
RTVSPost2010PropOp30
 70
     1
102
RTVSPost2010Prop31
280
     0
102
RTVSPost2010PropOp31
 70
     1
102
RTVSPost2010Prop32
280
     0
102
RTVSPost2010PropOp32
 70
     1
102
RTVSPost2010Prop33
280
     0
102
RTVSPost2010PropOp33
 70
     1
102
RTVSPost2010Prop34
280
     0
102
RTVSPost2010PropOp34
 70
     1
102
RTVSPost2010Prop35
280
     0
102
RTVSPost2010PropOp35
 70
     1
102
RTVSPost2010Prop36
280
     0
102
RTVSPost2010PropOp36
 70
     1
102
RTVSPost2010Prop37
 90
       50
102
RTVSPost2010PropOp37
 70
     1
102
RTVSPost2010Prop38
140
0.0
102
RTVSPost2010PropOp38
 70
     1
102
RTVSPost2010Prop39
140
1.0
102
RTVSPost2010PropOp39
 70
     1
102
RTVSPost2010Prop40
 90
        0
102
RTVSPost2010PropOp40
 70
     1
102
RTVSPost2010Prop41ColorIndex
 90
       18
102
RTVSPost2010Prop41ColorRGB
 90
        0
102
RTVSPost2010PropOp41
 70
     1
102
RTVSPost2010Prop42
 90
       50
102
RTVSPost2010PropOp42
 70
     1
102
RTVSPost2010Prop43
 90
        3
102
RTVSPost2010PropOp43
 70
     1
102
RTVSPost2010Prop44ColorIndex
 90
        5
102
RTVSPost2010Prop44ColorRGB
 90
      255
102
RTVSPost2010PropOp44
 70
     1
102
RTVSPost2010Prop45
280
     0
102
RTVSPost2010PropOp45
 70
     1
102
RTVSPost2010Prop46
 90
       50
102
RTVSPost2010PropOp46
 70
     1
102
RTVSPost2010Prop47
 90
       50
102
RTVSPost2010PropOp47
 70
     1
102
RTVSPost2010Prop48
 90
       50
102
RTVSPost2010PropOp48
 70
     1
102
RTVSPost2010Prop49
280
     0
102
RTVSPost2010PropOp49
 70
     1
102
RTVSPost2010Prop50
 90
       50
102
RTVSPost2010PropOp50
 70
     1
102
RTVSPost2010Prop51ColorIndex
 90
      256
102
RTVSPost2010Prop51ColorRGB
 90
-16777216
102
RTVSPost2010PropOp51
 70
     0
102
RTVSPost2010Prop52
140
1.0
102
RTVSPost2010PropOp52
 70
     0
102
RTVSPost2010Prop53
 90
        2
102
RTVSPost2010PropOp53
 70
     1
102
RTVSPost2010Prop54
  1
strokes_ogs.tif
102
RTVSPost2010PropOp54
 70
     1
102
RTVSPost2010Prop55
280
     0
102
RTVSPost2010PropOp55
 70
     1
102
RTVSPost2010Prop56
140
1.0
102
RTVSPost2010PropOp56
 70
     1
102
RTVSPost2010Prop57
140
1.0
102
RTVSPost2010PropOp57
 70
     1
  0
XRECORD
  5
6B9
102
{ACAD_REACTORS
330
6B8
102
}
330
6B8
100
AcDbXrecord
280
     1
102
RTVSPost2010Prop28
280
     0
102
RTVSPost2010PropOp28
 70
     1
102
RTVSPost2010Prop29
280
     1
102
RTVSPost2010PropOp29
 70
     1
102
RTVSPost2010Prop30
280
     1
102
RTVSPost2010PropOp30
 70
     1
102
RTVSPost2010Prop31
280
     0
102
RTVSPost2010PropOp31
 70
     1
102
RTVSPost2010Prop32
280
     0
102
RTVSPost2010PropOp32
 70
     1
102
RTVSPost2010Prop33
280
     0
102
RTVSPost2010PropOp33
 70
     1
102
RTVSPost2010Prop34
280
     0
102
RTVSPost2010PropOp34
 70
     1
102
RTVSPost2010Prop35
280
     0
102
RTVSPost2010PropOp35
 70
     1
102
RTVSPost2010Prop36
280
     0
102
RTVSPost2010PropOp36
 70
     1
102
RTVSPost2010Prop37
 90
       50
102
RTVSPost2010PropOp37
 70
     1
102
RTVSPost2010Prop38
140
0.0
102
RTVSPost2010PropOp38
 70
     1
102
RTVSPost2010Prop39
140
1.0
102
RTVSPost2010PropOp39
 70
     1
102
RTVSPost2010Prop40
 90
        0
102
RTVSPost2010PropOp40
 70
     1
102
RTVSPost2010Prop41ColorIndex
 90
       18
102
RTVSPost2010Prop41ColorRGB
 90
        0
102
RTVSPost2010PropOp41
 70
     1
102
RTVSPost2010Prop42
 90
       50
102
RTVSPost2010PropOp42
 70
     1
102
RTVSPost2010Prop43
 90
        3
102
RTVSPost2010PropOp43
 70
     1
102
RTVSPost2010Prop44ColorIndex
 90
        5
102
RTVSPost2010Prop44ColorRGB
 90
      255
102
RTVSPost2010PropOp44
 70
     1
102
RTVSPost2010Prop45
280
     0
102
RTVSPost2010PropOp45
 70
     1
102
RTVSPost2010Prop46
 90
       50
102
RTVSPost2010PropOp46
 70
     1
102
RTVSPost2010Prop47
 90
       50
102
RTVSPost2010PropOp47
 70
     1
102
RTVSPost2010Prop48
 90
       50
102
RTVSPost2010PropOp48
 70
     1
102
RTVSPost2010Prop49
280
     0
102
RTVSPost2010PropOp49
 70
     1
102
RTVSPost2010Prop50
 90
       50
102
RTVSPost2010PropOp50
 70
     1
102
RTVSPost2010Prop51ColorIndex
 90
      256
102
RTVSPost2010Prop51ColorRGB
 90
-16777216
102
RTVSPost2010PropOp51
 70
     0
102
RTVSPost2010Prop52
140
1.0
102
RTVSPost2010PropOp52
 70
     0
102
RTVSPost2010Prop53
 90
        2
102
RTVSPost2010PropOp53
 70
     1
102
RTVSPost2010Prop54
  1
strokes_ogs.tif
102
RTVSPost2010PropOp54
 70
     1
102
RTVSPost2010Prop55
280
     0
102
RTVSPost2010PropOp55
 70
     1
102
RTVSPost2010Prop56
140
1.0
102
RTVSPost2010PropOp56
 70
     1
102
RTVSPost2010Prop57
140
1.0
102
RTVSPost2010PropOp57
 70
     1
  0
XRECORD
  5
6D3
102
{ACAD_REACTORS
330
6D2
102
}
330
6D2
100
AcDbXrecord
280
     1
102
RTVSPost2010Prop28
280
     0
102
RTVSPost2010PropOp28
 70
     1
102
RTVSPost2010Prop29
280
     1
102
RTVSPost2010PropOp29
 70
     1
102
RTVSPost2010Prop30
280
     1
102
RTVSPost2010PropOp30
 70
     1
102
RTVSPost2010Prop31
280
     0
102
RTVSPost2010PropOp31
 70
     1
102
RTVSPost2010Prop32
280
     0
102
RTVSPost2010PropOp32
 70
     1
102
RTVSPost2010Prop33
280
     0
102
RTVSPost2010PropOp33
 70
     1
102
RTVSPost2010Prop34
280
     0
102
RTVSPost2010PropOp34
 70
     1
102
RTVSPost2010Prop35
280
     0
102
RTVSPost2010PropOp35
 70
     1
102
RTVSPost2010Prop36
280
     0
102
RTVSPost2010PropOp36
 70
     1
102
RTVSPost2010Prop37
 90
       50
102
RTVSPost2010PropOp37
 70
     0
102
RTVSPost2010Prop38
140
0.0
102
RTVSPost2010PropOp38
 70
     0
102
RTVSPost2010Prop39
140
1.0
102
RTVSPost2010PropOp39
 70
     0
102
RTVSPost2010Prop40
 90
        0
102
RTVSPost2010PropOp40
 70
     0
102
RTVSPost2010Prop41ColorIndex
 90
       18
102
RTVSPost2010Prop41ColorRGB
 90
        0
102
RTVSPost2010PropOp41
 70
     0
102
RTVSPost2010Prop42
 90
       50
102
RTVSPost2010PropOp42
 70
     0
102
RTVSPost2010Prop43
 90
        3
102
RTVSPost2010PropOp43
 70
     0
102
RTVSPost2010Prop44ColorIndex
 90
        5
102
RTVSPost2010Prop44ColorRGB
 90
      255
102
RTVSPost2010PropOp44
 70
     0
102
RTVSPost2010Prop45
280
     0
102
RTVSPost2010PropOp45
 70
     1
102
RTVSPost2010Prop46
 90
       50
102
RTVSPost2010PropOp46
 70
     0
102
RTVSPost2010Prop47
 90
       50
102
RTVSPost2010PropOp47
 70
     0
102
RTVSPost2010Prop48
 90
       50
102
RTVSPost2010PropOp48
 70
     0
102
RTVSPost2010Prop49
280
     0
102
RTVSPost2010PropOp49
 70
     1
102
RTVSPost2010Prop50
 90
       50
102
RTVSPost2010PropOp50
 70
     0
102
RTVSPost2010Prop51ColorIndex
 90
      256
102
RTVSPost2010Prop51ColorRGB
 90
-16777216
102
RTVSPost2010PropOp51
 70
     0
102
RTVSPost2010Prop52
140
1.0
102
RTVSPost2010PropOp52
 70
     0
102
RTVSPost2010Prop53
 90
        2
102
RTVSPost2010PropOp53
 70
     0
102
RTVSPost2010Prop54
  1
strokes_ogs.tif
102
RTVSPost2010PropOp54
 70
     0
102
RTVSPost2010Prop55
280
     0
102
RTVSPost2010PropOp55
 70
     1
102
RTVSPost2010Prop56
140
1.0
102
RTVSPost2010PropOp56
 70
     0
102
RTVSPost2010Prop57
140
1.0
102
RTVSPost2010PropOp57
 70
     0
  0
XRECORD
  5
6C1
102
{ACAD_REACTORS
330
6C0
102
}
330
6C0
100
AcDbXrecord
280
     1
102
RTVSPost2010Prop28
280
     0
102
RTVSPost2010PropOp28
 70
     1
102
RTVSPost2010Prop29
280
     1
102
RTVSPost2010PropOp29
 70
     1
102
RTVSPost2010Prop30
280
     1
102
RTVSPost2010PropOp30
 70
     1
102
RTVSPost2010Prop31
280
     0
102
RTVSPost2010PropOp31
 70
     1
102
RTVSPost2010Prop32
280
     0
102
RTVSPost2010PropOp32
 70
     1
102
RTVSPost2010Prop33
280
     0
102
RTVSPost2010PropOp33
 70
     1
102
RTVSPost2010Prop34
280
     0
102
RTVSPost2010PropOp34
 70
     1
102
RTVSPost2010Prop35
280
     0
102
RTVSPost2010PropOp35
 70
     1
102
RTVSPost2010Prop36
280
     0
102
RTVSPost2010PropOp36
 70
     1
102
RTVSPost2010Prop37
 90
       50
102
RTVSPost2010PropOp37
 70
     1
102
RTVSPost2010Prop38
140
0.0
102
RTVSPost2010PropOp38
 70
     1
102
RTVSPost2010Prop39
140
1.0
102
RTVSPost2010PropOp39
 70
     1
102
RTVSPost2010Prop40
 90
        0
102
RTVSPost2010PropOp40
 70
     1
102
RTVSPost2010Prop41ColorIndex
 90
       18
102
RTVSPost2010Prop41ColorRGB
 90
        0
102
RTVSPost2010PropOp41
 70
     1
102
RTVSPost2010Prop42
 90
       50
102
RTVSPost2010PropOp42
 70
     1
102
RTVSPost2010Prop43
 90
        3
102
RTVSPost2010PropOp43
 70
     1
102
RTVSPost2010Prop44ColorIndex
 90
        5
102
RTVSPost2010Prop44ColorRGB
 90
      255
102
RTVSPost2010PropOp44
 70
     1
102
RTVSPost2010Prop45
280
     0
102
RTVSPost2010PropOp45
 70
     1
102
RTVSPost2010Prop46
 90
       50
102
RTVSPost2010PropOp46
 70
     1
102
RTVSPost2010Prop47
 90
       50
102
RTVSPost2010PropOp47
 70
     1
102
RTVSPost2010Prop48
 90
       50
102
RTVSPost2010PropOp48
 70
     1
102
RTVSPost2010Prop49
280
     0
102
RTVSPost2010PropOp49
 70
     1
102
RTVSPost2010Prop50
 90
       50
102
RTVSPost2010PropOp50
 70
     1
102
RTVSPost2010Prop51ColorIndex
 90
      256
102
RTVSPost2010Prop51ColorRGB
 90
-16777216
102
RTVSPost2010PropOp51
 70
     0
102
RTVSPost2010Prop52
140
1.0
102
RTVSPost2010PropOp52
 70
     0
102
RTVSPost2010Prop53
 90
        2
102
RTVSPost2010PropOp53
 70
     1
102
RTVSPost2010Prop54
  1
strokes_ogs.tif
102
RTVSPost2010PropOp54
 70
     1
102
RTVSPost2010Prop55
280
     0
102
RTVSPost2010PropOp55
 70
     1
102
RTVSPost2010Prop56
140
1.0
102
RTVSPost2010PropOp56
 70
     1
102
RTVSPost2010Prop57
140
1.0
102
RTVSPost2010PropOp57
 70
     1
  0
XRECORD
  5
6A5
102
{ACAD_REACTORS
330
6A4
102
}
330
6A4
100
AcDbXrecord
280
     1
102
RTVSPost2010Prop28
280
     0
102
RTVSPost2010PropOp28
 70
     1
102
RTVSPost2010Prop29
280
     1
102
RTVSPost2010PropOp29
 70
     1
102
RTVSPost2010Prop30
280
     1
102
RTVSPost2010PropOp30
 70
     1
102
RTVSPost2010Prop31
280
     0
102
RTVSPost2010PropOp31
 70
     1
102
RTVSPost2010Prop32
280
     0
102
RTVSPost2010PropOp32
 70
     1
102
RTVSPost2010Prop33
280
     0
102
RTVSPost2010PropOp33
 70
     1
102
RTVSPost2010Prop34
280
     0
102
RTVSPost2010PropOp34
 70
     1
102
RTVSPost2010Prop35
280
     0
102
RTVSPost2010PropOp35
 70
     1
102
RTVSPost2010Prop36
280
     0
102
RTVSPost2010PropOp36
 70
     1
102
RTVSPost2010Prop37
 90
       50
102
RTVSPost2010PropOp37
 70
     1
102
RTVSPost2010Prop38
140
0.0
102
RTVSPost2010PropOp38
 70
     1
102
RTVSPost2010Prop39
140
1.0
102
RTVSPost2010PropOp39
 70
     1
102
RTVSPost2010Prop40
 90
        0
102
RTVSPost2010PropOp40
 70
     1
102
RTVSPost2010Prop41ColorIndex
 90
       18
102
RTVSPost2010Prop41ColorRGB
 90
        0
102
RTVSPost2010PropOp41
 70
     1
102
RTVSPost2010Prop42
 90
       50
102
RTVSPost2010PropOp42
 70
     1
102
RTVSPost2010Prop43
 90
        3
102
RTVSPost2010PropOp43
 70
     1
102
RTVSPost2010Prop44ColorIndex
 90
        5
102
RTVSPost2010Prop44ColorRGB
 90
      255
102
RTVSPost2010PropOp44
 70
     1
102
RTVSPost2010Prop45
280
     0
102
RTVSPost2010PropOp45
 70
     1
102
RTVSPost2010Prop46
 90
       50
102
RTVSPost2010PropOp46
 70
     1
102
RTVSPost2010Prop47
 90
       50
102
RTVSPost2010PropOp47
 70
     1
102
RTVSPost2010Prop48
 90
       50
102
RTVSPost2010PropOp48
 70
     1
102
RTVSPost2010Prop49
280
     0
102
RTVSPost2010PropOp49
 70
     1
102
RTVSPost2010Prop50
 90
       50
102
RTVSPost2010PropOp50
 70
     1
102
RTVSPost2010Prop51ColorIndex
 90
      256
102
RTVSPost2010Prop51ColorRGB
 90
-16777216
102
RTVSPost2010PropOp51
 70
     0
102
RTVSPost2010Prop52
140
1.0
102
RTVSPost2010PropOp52
 70
     0
102
RTVSPost2010Prop53
 90
        2
102
RTVSPost2010PropOp53
 70
     1
102
RTVSPost2010Prop54
  1
strokes_ogs.tif
102
RTVSPost2010PropOp54
 70
     1
102
RTVSPost2010Prop55
280
     0
102
RTVSPost2010PropOp55
 70
     1
102
RTVSPost2010Prop56
140
1.0
102
RTVSPost2010PropOp56
 70
     1
102
RTVSPost2010Prop57
140
1.0
102
RTVSPost2010PropOp57
 70
     1
  0
XRECORD
  5
6A7
102
{ACAD_REACTORS
330
6A6
102
}
330
6A6
100
AcDbXrecord
280
     1
102
RTVSPost2010Prop28
280
     0
102
RTVSPost2010PropOp28
 70
     1
102
RTVSPost2010Prop29
280
     1
102
RTVSPost2010PropOp29
 70
     1
102
RTVSPost2010Prop30
280
     1
102
RTVSPost2010PropOp30
 70
     1
102
RTVSPost2010Prop31
280
     0
102
RTVSPost2010PropOp31
 70
     1
102
RTVSPost2010Prop32
280
     0
102
RTVSPost2010PropOp32
 70
     1
102
RTVSPost2010Prop33
280
     0
102
RTVSPost2010PropOp33
 70
     1
102
RTVSPost2010Prop34
280
     0
102
RTVSPost2010PropOp34
 70
     1
102
RTVSPost2010Prop35
280
     0
102
RTVSPost2010PropOp35
 70
     1
102
RTVSPost2010Prop36
280
     0
102
RTVSPost2010PropOp36
 70
     1
102
RTVSPost2010Prop37
 90
       50
102
RTVSPost2010PropOp37
 70
     1
102
RTVSPost2010Prop38
140
0.0
102
RTVSPost2010PropOp38
 70
     1
102
RTVSPost2010Prop39
140
1.0
102
RTVSPost2010PropOp39
 70
     1
102
RTVSPost2010Prop40
 90
        0
102
RTVSPost2010PropOp40
 70
     1
102
RTVSPost2010Prop41ColorIndex
 90
       18
102
RTVSPost2010Prop41ColorRGB
 90
        0
102
RTVSPost2010PropOp41
 70
     1
102
RTVSPost2010Prop42
 90
       50
102
RTVSPost2010PropOp42
 70
     1
102
RTVSPost2010Prop43
 90
        3
102
RTVSPost2010PropOp43
 70
     1
102
RTVSPost2010Prop44ColorIndex
 90
        5
102
RTVSPost2010Prop44ColorRGB
 90
      255
102
RTVSPost2010PropOp44
 70
     1
102
RTVSPost2010Prop45
280
     0
102
RTVSPost2010PropOp45
 70
     1
102
RTVSPost2010Prop46
 90
       50
102
RTVSPost2010PropOp46
 70
     1
102
RTVSPost2010Prop47
 90
       50
102
RTVSPost2010PropOp47
 70
     1
102
RTVSPost2010Prop48
 90
       50
102
RTVSPost2010PropOp48
 70
     1
102
RTVSPost2010Prop49
280
     0
102
RTVSPost2010PropOp49
 70
     1
102
RTVSPost2010Prop50
 90
       50
102
RTVSPost2010PropOp50
 70
     1
102
RTVSPost2010Prop51ColorIndex
 90
      256
102
RTVSPost2010Prop51ColorRGB
 90
-16777216
102
RTVSPost2010PropOp51
 70
     0
102
RTVSPost2010Prop52
140
1.0
102
RTVSPost2010PropOp52
 70
     0
102
RTVSPost2010Prop53
 90
        2
102
RTVSPost2010PropOp53
 70
     1
102
RTVSPost2010Prop54
  1
strokes_ogs.tif
102
RTVSPost2010PropOp54
 70
     1
102
RTVSPost2010Prop55
280
     0
102
RTVSPost2010PropOp55
 70
     1
102
RTVSPost2010Prop56
140
1.0
102
RTVSPost2010PropOp56
 70
     1
102
RTVSPost2010Prop57
140
1.0
102
RTVSPost2010PropOp57
 70
     1
  0
XRECORD
  5
6A9
102
{ACAD_REACTORS
330
6A8
102
}
330
6A8
100
AcDbXrecord
280
     1
102
RTVSPost2010Prop28
280
     0
102
RTVSPost2010PropOp28
 70
     1
102
RTVSPost2010Prop29
280
     1
102
RTVSPost2010PropOp29
 70
     1
102
RTVSPost2010Prop30
280
     1
102
RTVSPost2010PropOp30
 70
     1
102
RTVSPost2010Prop31
280
     0
102
RTVSPost2010PropOp31
 70
     1
102
RTVSPost2010Prop32
280
     0
102
RTVSPost2010PropOp32
 70
     1
102
RTVSPost2010Prop33
280
     0
102
RTVSPost2010PropOp33
 70
     1
102
RTVSPost2010Prop34
280
     0
102
RTVSPost2010PropOp34
 70
     1
102
RTVSPost2010Prop35
280
     0
102
RTVSPost2010PropOp35
 70
     1
102
RTVSPost2010Prop36
280
     0
102
RTVSPost2010PropOp36
 70
     1
102
RTVSPost2010Prop37
 90
       50
102
RTVSPost2010PropOp37
 70
     1
102
RTVSPost2010Prop38
140
0.0
102
RTVSPost2010PropOp38
 70
     1
102
RTVSPost2010Prop39
140
1.0
102
RTVSPost2010PropOp39
 70
     1
102
RTVSPost2010Prop40
 90
        0
102
RTVSPost2010PropOp40
 70
     1
102
RTVSPost2010Prop41ColorIndex
 90
       18
102
RTVSPost2010Prop41ColorRGB
 90
        0
102
RTVSPost2010PropOp41
 70
     1
102
RTVSPost2010Prop42
 90
       50
102
RTVSPost2010PropOp42
 70
     1
102
RTVSPost2010Prop43
 90
        3
102
RTVSPost2010PropOp43
 70
     1
102
RTVSPost2010Prop44ColorIndex
 90
        5
102
RTVSPost2010Prop44ColorRGB
 90
      255
102
RTVSPost2010PropOp44
 70
     1
102
RTVSPost2010Prop45
280
     0
102
RTVSPost2010PropOp45
 70
     1
102
RTVSPost2010Prop46
 90
       50
102
RTVSPost2010PropOp46
 70
     1
102
RTVSPost2010Prop47
 90
       50
102
RTVSPost2010PropOp47
 70
     1
102
RTVSPost2010Prop48
 90
       50
102
RTVSPost2010PropOp48
 70
     1
102
RTVSPost2010Prop49
280
     0
102
RTVSPost2010PropOp49
 70
     1
102
RTVSPost2010Prop50
 90
       50
102
RTVSPost2010PropOp50
 70
     1
102
RTVSPost2010Prop51ColorIndex
 90
      256
102
RTVSPost2010Prop51ColorRGB
 90
-16777216
102
RTVSPost2010PropOp51
 70
     0
102
RTVSPost2010Prop52
140
1.0
102
RTVSPost2010PropOp52
 70
     0
102
RTVSPost2010Prop53
 90
        2
102
RTVSPost2010PropOp53
 70
     1
102
RTVSPost2010Prop54
  1
strokes_ogs.tif
102
RTVSPost2010PropOp54
 70
     1
102
RTVSPost2010Prop55
280
     0
102
RTVSPost2010PropOp55
 70
     1
102
RTVSPost2010Prop56
140
1.0
102
RTVSPost2010PropOp56
 70
     1
102
RTVSPost2010Prop57
140
1.0
102
RTVSPost2010PropOp57
 70
     1
  0
XRECORD
  5
6AB
102
{ACAD_REACTORS
330
6AA
102
}
330
6AA
100
AcDbXrecord
280
     1
102
RTVSPost2010Prop28
280
     0
102
RTVSPost2010PropOp28
 70
     1
102
RTVSPost2010Prop29
280
     1
102
RTVSPost2010PropOp29
 70
     1
102
RTVSPost2010Prop30
280
     1
102
RTVSPost2010PropOp30
 70
     1
102
RTVSPost2010Prop31
280
     0
102
RTVSPost2010PropOp31
 70
     1
102
RTVSPost2010Prop32
280
     0
102
RTVSPost2010PropOp32
 70
     1
102
RTVSPost2010Prop33
280
     0
102
RTVSPost2010PropOp33
 70
     1
102
RTVSPost2010Prop34
280
     0
102
RTVSPost2010PropOp34
 70
     1
102
RTVSPost2010Prop35
280
     0
102
RTVSPost2010PropOp35
 70
     1
102
RTVSPost2010Prop36
280
     0
102
RTVSPost2010PropOp36
 70
     1
102
RTVSPost2010Prop37
 90
       50
102
RTVSPost2010PropOp37
 70
     1
102
RTVSPost2010Prop38
140
0.0
102
RTVSPost2010PropOp38
 70
     1
102
RTVSPost2010Prop39
140
1.0
102
RTVSPost2010PropOp39
 70
     1
102
RTVSPost2010Prop40
 90
        0
102
RTVSPost2010PropOp40
 70
     1
102
RTVSPost2010Prop41ColorIndex
 90
       18
102
RTVSPost2010Prop41ColorRGB
 90
        0
102
RTVSPost2010PropOp41
 70
     1
102
RTVSPost2010Prop42
 90
       50
102
RTVSPost2010PropOp42
 70
     1
102
RTVSPost2010Prop43
 90
        3
102
RTVSPost2010PropOp43
 70
     1
102
RTVSPost2010Prop44ColorIndex
 90
        5
102
RTVSPost2010Prop44ColorRGB
 90
      255
102
RTVSPost2010PropOp44
 70
     1
102
RTVSPost2010Prop45
280
     0
102
RTVSPost2010PropOp45
 70
     1
102
RTVSPost2010Prop46
 90
       50
102
RTVSPost2010PropOp46
 70
     1
102
RTVSPost2010Prop47
 90
       50
102
RTVSPost2010PropOp47
 70
     1
102
RTVSPost2010Prop48
 90
       50
102
RTVSPost2010PropOp48
 70
     1
102
RTVSPost2010Prop49
280
     0
102
RTVSPost2010PropOp49
 70
     1
102
RTVSPost2010Prop50
 90
       50
102
RTVSPost2010PropOp50
 70
     1
102
RTVSPost2010Prop51ColorIndex
 90
      256
102
RTVSPost2010Prop51ColorRGB
 90
-16777216
102
RTVSPost2010PropOp51
 70
     0
102
RTVSPost2010Prop52
140
1.0
102
RTVSPost2010PropOp52
 70
     0
102
RTVSPost2010Prop53
 90
        2
102
RTVSPost2010PropOp53
 70
     1
102
RTVSPost2010Prop54
  1
strokes_ogs.tif
102
RTVSPost2010PropOp54
 70
     1
102
RTVSPost2010Prop55
280
     0
102
RTVSPost2010PropOp55
 70
     1
102
RTVSPost2010Prop56
140
1.0
102
RTVSPost2010PropOp56
 70
     1
102
RTVSPost2010Prop57
140
1.0
102
RTVSPost2010PropOp57
 70
     1
  0
XRECORD
  5
6B3
102
{ACAD_REACTORS
330
6B2
102
}
330
6B2
100
AcDbXrecord
280
     1
102
RTVSPost2010Prop28
280
     0
102
RTVSPost2010PropOp28
 70
     1
102
RTVSPost2010Prop29
280
     1
102
RTVSPost2010PropOp29
 70
     1
102
RTVSPost2010Prop30
280
     1
102
RTVSPost2010PropOp30
 70
     1
102
RTVSPost2010Prop31
280
     0
102
RTVSPost2010PropOp31
 70
     1
102
RTVSPost2010Prop32
280
     0
102
RTVSPost2010PropOp32
 70
     1
102
RTVSPost2010Prop33
280
     0
102
RTVSPost2010PropOp33
 70
     1
102
RTVSPost2010Prop34
280
     0
102
RTVSPost2010PropOp34
 70
     1
102
RTVSPost2010Prop35
280
     0
102
RTVSPost2010PropOp35
 70
     1
102
RTVSPost2010Prop36
280
     0
102
RTVSPost2010PropOp36
 70
     1
102
RTVSPost2010Prop37
 90
       50
102
RTVSPost2010PropOp37
 70
     1
102
RTVSPost2010Prop38
140
0.0
102
RTVSPost2010PropOp38
 70
     1
102
RTVSPost2010Prop39
140
1.0
102
RTVSPost2010PropOp39
 70
     1
102
RTVSPost2010Prop40
 90
        0
102
RTVSPost2010PropOp40
 70
     1
102
RTVSPost2010Prop41ColorIndex
 90
       18
102
RTVSPost2010Prop41ColorRGB
 90
        0
102
RTVSPost2010PropOp41
 70
     1
102
RTVSPost2010Prop42
 90
       50
102
RTVSPost2010PropOp42
 70
     1
102
RTVSPost2010Prop43
 90
        3
102
RTVSPost2010PropOp43
 70
     1
102
RTVSPost2010Prop44ColorIndex
 90
        5
102
RTVSPost2010Prop44ColorRGB
 90
      255
102
RTVSPost2010PropOp44
 70
     1
102
RTVSPost2010Prop45
280
     0
102
RTVSPost2010PropOp45
 70
     1
102
RTVSPost2010Prop46
 90
       50
102
RTVSPost2010PropOp46
 70
     1
102
RTVSPost2010Prop47
 90
       50
102
RTVSPost2010PropOp47
 70
     1
102
RTVSPost2010Prop48
 90
       50
102
RTVSPost2010PropOp48
 70
     1
102
RTVSPost2010Prop49
280
     0
102
RTVSPost2010PropOp49
 70
     1
102
RTVSPost2010Prop50
 90
       50
102
RTVSPost2010PropOp50
 70
     1
102
RTVSPost2010Prop51ColorIndex
 90
      256
102
RTVSPost2010Prop51ColorRGB
 90
-16777216
102
RTVSPost2010PropOp51
 70
     0
102
RTVSPost2010Prop52
140
1.0
102
RTVSPost2010PropOp52
 70
     0
102
RTVSPost2010Prop53
 90
        2
102
RTVSPost2010PropOp53
 70
     1
102
RTVSPost2010Prop54
  1
strokes_ogs.tif
102
RTVSPost2010PropOp54
 70
     1
102
RTVSPost2010Prop55
280
     0
102
RTVSPost2010PropOp55
 70
     1
102
RTVSPost2010Prop56
140
1.0
102
RTVSPost2010PropOp56
 70
     1
102
RTVSPost2010Prop57
140
1.0
102
RTVSPost2010PropOp57
 70
     1
  0
XRECORD
  5
6CF
102
{ACAD_REACTORS
330
6CE
102
}
330
6CE
100
AcDbXrecord
280
     1
102
RTVSPost2010Prop28
280
     0
102
RTVSPost2010PropOp28
 70
     1
102
RTVSPost2010Prop29
280
     1
102
RTVSPost2010PropOp29
 70
     1
102
RTVSPost2010Prop30
280
     1
102
RTVSPost2010PropOp30
 70
     1
102
RTVSPost2010Prop31
280
     0
102
RTVSPost2010PropOp31
 70
     1
102
RTVSPost2010Prop32
280
     0
102
RTVSPost2010PropOp32
 70
     1
102
RTVSPost2010Prop33
280
     0
102
RTVSPost2010PropOp33
 70
     1
102
RTVSPost2010Prop34
280
     0
102
RTVSPost2010PropOp34
 70
     1
102
RTVSPost2010Prop35
280
     0
102
RTVSPost2010PropOp35
 70
     1
102
RTVSPost2010Prop36
280
     0
102
RTVSPost2010PropOp36
 70
     1
102
RTVSPost2010Prop37
 90
       50
102
RTVSPost2010PropOp37
 70
     0
102
RTVSPost2010Prop38
140
0.0
102
RTVSPost2010PropOp38
 70
     0
102
RTVSPost2010Prop39
140
1.0
102
RTVSPost2010PropOp39
 70
     0
102
RTVSPost2010Prop40
 90
        0
102
RTVSPost2010PropOp40
 70
     0
102
RTVSPost2010Prop41ColorIndex
 90
       18
102
RTVSPost2010Prop41ColorRGB
 90
        0
102
RTVSPost2010PropOp41
 70
     0
102
RTVSPost2010Prop42
 90
       50
102
RTVSPost2010PropOp42
 70
     0
102
RTVSPost2010Prop43
 90
        3
102
RTVSPost2010PropOp43
 70
     0
102
RTVSPost2010Prop44ColorIndex
 90
        5
102
RTVSPost2010Prop44ColorRGB
 90
      255
102
RTVSPost2010PropOp44
 70
     0
102
RTVSPost2010Prop45
280
     0
102
RTVSPost2010PropOp45
 70
     1
102
RTVSPost2010Prop46
 90
       50
102
RTVSPost2010PropOp46
 70
     0
102
RTVSPost2010Prop47
 90
       50
102
RTVSPost2010PropOp47
 70
     0
102
RTVSPost2010Prop48
 90
       50
102
RTVSPost2010PropOp48
 70
     0
102
RTVSPost2010Prop49
280
     0
102
RTVSPost2010PropOp49
 70
     1
102
RTVSPost2010Prop50
 90
       50
102
RTVSPost2010PropOp50
 70
     0
102
RTVSPost2010Prop51ColorIndex
 90
      256
102
RTVSPost2010Prop51ColorRGB
 90
-16777216
102
RTVSPost2010PropOp51
 70
     0
102
RTVSPost2010Prop52
140
1.0
102
RTVSPost2010PropOp52
 70
     0
102
RTVSPost2010Prop53
 90
        2
102
RTVSPost2010PropOp53
 70
     0
102
RTVSPost2010Prop54
  1
strokes_ogs.tif
102
RTVSPost2010PropOp54
 70
     0
102
RTVSPost2010Prop55
280
     0
102
RTVSPost2010PropOp55
 70
     1
102
RTVSPost2010Prop56
140
1.0
102
RTVSPost2010PropOp56
 70
     0
102
RTVSPost2010Prop57
140
1.0
102
RTVSPost2010PropOp57
 70
     0
  0
XRECORD
  5
6BF
102
{ACAD_REACTORS
330
6BE
102
}
330
6BE
100
AcDbXrecord
280
     1
102
RTVSPost2010Prop28
280
     0
102
RTVSPost2010PropOp28
 70
     1
102
RTVSPost2010Prop29
280
     1
102
RTVSPost2010PropOp29
 70
     1
102
RTVSPost2010Prop30
280
     1
102
RTVSPost2010PropOp30
 70
     1
102
RTVSPost2010Prop31
280
     0
102
RTVSPost2010PropOp31
 70
     1
102
RTVSPost2010Prop32
280
     0
102
RTVSPost2010PropOp32
 70
     1
102
RTVSPost2010Prop33
280
     0
102
RTVSPost2010PropOp33
 70
     1
102
RTVSPost2010Prop34
280
     0
102
RTVSPost2010PropOp34
 70
     1
102
RTVSPost2010Prop35
280
     0
102
RTVSPost2010PropOp35
 70
     1
102
RTVSPost2010Prop36
280
     0
102
RTVSPost2010PropOp36
 70
     1
102
RTVSPost2010Prop37
 90
       50
102
RTVSPost2010PropOp37
 70
     1
102
RTVSPost2010Prop38
140
0.0
102
RTVSPost2010PropOp38
 70
     1
102
RTVSPost2010Prop39
140
1.0
102
RTVSPost2010PropOp39
 70
     1
102
RTVSPost2010Prop40
 90
        0
102
RTVSPost2010PropOp40
 70
     1
102
RTVSPost2010Prop41ColorIndex
 90
       18
102
RTVSPost2010Prop41ColorRGB
 90
        0
102
RTVSPost2010PropOp41
 70
     1
102
RTVSPost2010Prop42
 90
       50
102
RTVSPost2010PropOp42
 70
     1
102
RTVSPost2010Prop43
 90
        3
102
RTVSPost2010PropOp43
 70
     1
102
RTVSPost2010Prop44ColorIndex
 90
        5
102
RTVSPost2010Prop44ColorRGB
 90
      255
102
RTVSPost2010PropOp44
 70
     1
102
RTVSPost2010Prop45
280
     0
102
RTVSPost2010PropOp45
 70
     1
102
RTVSPost2010Prop46
 90
       50
102
RTVSPost2010PropOp46
 70
     1
102
RTVSPost2010Prop47
 90
       50
102
RTVSPost2010PropOp47
 70
     1
102
RTVSPost2010Prop48
 90
       50
102
RTVSPost2010PropOp48
 70
     1
102
RTVSPost2010Prop49
280
     0
102
RTVSPost2010PropOp49
 70
     1
102
RTVSPost2010Prop50
 90
       50
102
RTVSPost2010PropOp50
 70
     1
102
RTVSPost2010Prop51ColorIndex
 90
      256
102
RTVSPost2010Prop51ColorRGB
 90
-16777216
102
RTVSPost2010PropOp51
 70
     0
102
RTVSPost2010Prop52
140
1.0
102
RTVSPost2010PropOp52
 70
     0
102
RTVSPost2010Prop53
 90
        2
102
RTVSPost2010PropOp53
 70
     1
102
RTVSPost2010Prop54
  1
strokes_ogs.tif
102
RTVSPost2010PropOp54
 70
     1
102
RTVSPost2010Prop55
280
     0
102
RTVSPost2010PropOp55
 70
     1
102
RTVSPost2010Prop56
140
1.0
102
RTVSPost2010PropOp56
 70
     1
102
RTVSPost2010Prop57
140
1.0
102
RTVSPost2010PropOp57
 70
     1
  0
XRECORD
  5
6D1
102
{ACAD_REACTORS
330
6D0
102
}
330
6D0
100
AcDbXrecord
280
     1
102
RTVSPost2010Prop28
280
     0
102
RTVSPost2010PropOp28
 70
     1
102
RTVSPost2010Prop29
280
     1
102
RTVSPost2010PropOp29
 70
     1
102
RTVSPost2010Prop30
280
     1
102
RTVSPost2010PropOp30
 70
     1
102
RTVSPost2010Prop31
280
     0
102
RTVSPost2010PropOp31
 70
     1
102
RTVSPost2010Prop32
280
     0
102
RTVSPost2010PropOp32
 70
     1
102
RTVSPost2010Prop33
280
     0
102
RTVSPost2010PropOp33
 70
     1
102
RTVSPost2010Prop34
280
     0
102
RTVSPost2010PropOp34
 70
     1
102
RTVSPost2010Prop35
280
     0
102
RTVSPost2010PropOp35
 70
     1
102
RTVSPost2010Prop36
280
     0
102
RTVSPost2010PropOp36
 70
     1
102
RTVSPost2010Prop37
 90
       50
102
RTVSPost2010PropOp37
 70
     0
102
RTVSPost2010Prop38
140
0.0
102
RTVSPost2010PropOp38
 70
     0
102
RTVSPost2010Prop39
140
1.0
102
RTVSPost2010PropOp39
 70
     0
102
RTVSPost2010Prop40
 90
        0
102
RTVSPost2010PropOp40
 70
     0
102
RTVSPost2010Prop41ColorIndex
 90
       18
102
RTVSPost2010Prop41ColorRGB
 90
        0
102
RTVSPost2010PropOp41
 70
     0
102
RTVSPost2010Prop42
 90
       50
102
RTVSPost2010PropOp42
 70
     0
102
RTVSPost2010Prop43
 90
        3
102
RTVSPost2010PropOp43
 70
     0
102
RTVSPost2010Prop44ColorIndex
 90
        5
102
RTVSPost2010Prop44ColorRGB
 90
      255
102
RTVSPost2010PropOp44
 70
     0
102
RTVSPost2010Prop45
280
     0
102
RTVSPost2010PropOp45
 70
     1
102
RTVSPost2010Prop46
 90
       50
102
RTVSPost2010PropOp46
 70
     0
102
RTVSPost2010Prop47
 90
       50
102
RTVSPost2010PropOp47
 70
     0
102
RTVSPost2010Prop48
 90
       50
102
RTVSPost2010PropOp48
 70
     0
102
RTVSPost2010Prop49
280
     0
102
RTVSPost2010PropOp49
 70
     1
102
RTVSPost2010Prop50
 90
       50
102
RTVSPost2010PropOp50
 70
     0
102
RTVSPost2010Prop51ColorIndex
 90
      256
102
RTVSPost2010Prop51ColorRGB
 90
-16777216
102
RTVSPost2010PropOp51
 70
     0
102
RTVSPost2010Prop52
140
1.0
102
RTVSPost2010PropOp52
 70
     0
102
RTVSPost2010Prop53
 90
        2
102
RTVSPost2010PropOp53
 70
     0
102
RTVSPost2010Prop54
  1
strokes_ogs.tif
102
RTVSPost2010PropOp54
 70
     0
102
RTVSPost2010Prop55
280
     0
102
RTVSPost2010PropOp55
 70
     1
102
RTVSPost2010Prop56
140
1.0
102
RTVSPost2010PropOp56
 70
     0
102
RTVSPost2010Prop57
140
1.0
102
RTVSPost2010PropOp57
 70
     0
  0
XRECORD
  5
6B7
102
{ACAD_REACTORS
330
6B6
102
}
330
6B6
100
AcDbXrecord
280
     1
102
RTVSPost2010Prop28
280
     0
102
RTVSPost2010PropOp28
 70
     1
102
RTVSPost2010Prop29
280
     1
102
RTVSPost2010PropOp29
 70
     1
102
RTVSPost2010Prop30
280
     1
102
RTVSPost2010PropOp30
 70
     1
102
RTVSPost2010Prop31
280
     0
102
RTVSPost2010PropOp31
 70
     1
102
RTVSPost2010Prop32
280
     0
102
RTVSPost2010PropOp32
 70
     1
102
RTVSPost2010Prop33
280
     0
102
RTVSPost2010PropOp33
 70
     1
102
RTVSPost2010Prop34
280
     0
102
RTVSPost2010PropOp34
 70
     1
102
RTVSPost2010Prop35
280
     0
102
RTVSPost2010PropOp35
 70
     1
102
RTVSPost2010Prop36
280
     0
102
RTVSPost2010PropOp36
 70
     1
102
RTVSPost2010Prop37
 90
       50
102
RTVSPost2010PropOp37
 70
     1
102
RTVSPost2010Prop38
140
0.0
102
RTVSPost2010PropOp38
 70
     1
102
RTVSPost2010Prop39
140
1.0
102
RTVSPost2010PropOp39
 70
     1
102
RTVSPost2010Prop40
 90
        0
102
RTVSPost2010PropOp40
 70
     1
102
RTVSPost2010Prop41ColorIndex
 90
       18
102
RTVSPost2010Prop41ColorRGB
 90
        0
102
RTVSPost2010PropOp41
 70
     1
102
RTVSPost2010Prop42
 90
       50
102
RTVSPost2010PropOp42
 70
     1
102
RTVSPost2010Prop43
 90
        3
102
RTVSPost2010PropOp43
 70
     1
102
RTVSPost2010Prop44ColorIndex
 90
        5
102
RTVSPost2010Prop44ColorRGB
 90
      255
102
RTVSPost2010PropOp44
 70
     1
102
RTVSPost2010Prop45
280
     0
102
RTVSPost2010PropOp45
 70
     1
102
RTVSPost2010Prop46
 90
       50
102
RTVSPost2010PropOp46
 70
     1
102
RTVSPost2010Prop47
 90
       50
102
RTVSPost2010PropOp47
 70
     1
102
RTVSPost2010Prop48
 90
       50
102
RTVSPost2010PropOp48
 70
     1
102
RTVSPost2010Prop49
280
     0
102
RTVSPost2010PropOp49
 70
     1
102
RTVSPost2010Prop50
 90
       50
102
RTVSPost2010PropOp50
 70
     1
102
RTVSPost2010Prop51ColorIndex
 90
      256
102
RTVSPost2010Prop51ColorRGB
 90
-16777216
102
RTVSPost2010PropOp51
 70
     0
102
RTVSPost2010Prop52
140
1.0
102
RTVSPost2010PropOp52
 70
     0
102
RTVSPost2010Prop53
 90
        2
102
RTVSPost2010PropOp53
 70
     1
102
RTVSPost2010Prop54
  1
strokes_ogs.tif
102
RTVSPost2010PropOp54
 70
     1
102
RTVSPost2010Prop55
280
     0
102
RTVSPost2010PropOp55
 70
     1
102
RTVSPost2010Prop56
140
1.0
102
RTVSPost2010PropOp56
 70
     1
102
RTVSPost2010Prop57
140
1.0
102
RTVSPost2010PropOp57
 70
     1
  0
XRECORD
  5
6CD
102
{ACAD_REACTORS
330
6CC
102
}
330
6CC
100
AcDbXrecord
280
     1
102
RTVSPost2010Prop28
280
     0
102
RTVSPost2010PropOp28
 70
     1
102
RTVSPost2010Prop29
280
     1
102
RTVSPost2010PropOp29
 70
     1
102
RTVSPost2010Prop30
280
     1
102
RTVSPost2010PropOp30
 70
     1
102
RTVSPost2010Prop31
280
     0
102
RTVSPost2010PropOp31
 70
     1
102
RTVSPost2010Prop32
280
     0
102
RTVSPost2010PropOp32
 70
     1
102
RTVSPost2010Prop33
280
     0
102
RTVSPost2010PropOp33
 70
     1
102
RTVSPost2010Prop34
280
     0
102
RTVSPost2010PropOp34
 70
     1
102
RTVSPost2010Prop35
280
     0
102
RTVSPost2010PropOp35
 70
     1
102
RTVSPost2010Prop36
280
     0
102
RTVSPost2010PropOp36
 70
     1
102
RTVSPost2010Prop37
 90
       50
102
RTVSPost2010PropOp37
 70
     1
102
RTVSPost2010Prop38
140
0.0
102
RTVSPost2010PropOp38
 70
     1
102
RTVSPost2010Prop39
140
1.0
102
RTVSPost2010PropOp39
 70
     1
102
RTVSPost2010Prop40
 90
        0
102
RTVSPost2010PropOp40
 70
     1
102
RTVSPost2010Prop41ColorIndex
 90
       18
102
RTVSPost2010Prop41ColorRGB
 90
        0
102
RTVSPost2010PropOp41
 70
     1
102
RTVSPost2010Prop42
 90
       50
102
RTVSPost2010PropOp42
 70
     1
102
RTVSPost2010Prop43
 90
        3
102
RTVSPost2010PropOp43
 70
     1
102
RTVSPost2010Prop44ColorIndex
 90
        5
102
RTVSPost2010Prop44ColorRGB
 90
      255
102
RTVSPost2010PropOp44
 70
     1
102
RTVSPost2010Prop45
280
     0
102
RTVSPost2010PropOp45
 70
     1
102
RTVSPost2010Prop46
 90
       50
102
RTVSPost2010PropOp46
 70
     1
102
RTVSPost2010Prop47
 90
       50
102
RTVSPost2010PropOp47
 70
     1
102
RTVSPost2010Prop48
 90
       50
102
RTVSPost2010PropOp48
 70
     1
102
RTVSPost2010Prop49
280
     0
102
RTVSPost2010PropOp49
 70
     1
102
RTVSPost2010Prop50
 90
       50
102
RTVSPost2010PropOp50
 70
     1
102
RTVSPost2010Prop51ColorIndex
 90
      256
102
RTVSPost2010Prop51ColorRGB
 90
-16777216
102
RTVSPost2010PropOp51
 70
     0
102
RTVSPost2010Prop52
140
1.0
102
RTVSPost2010PropOp52
 70
     0
102
RTVSPost2010Prop53
 90
        2
102
RTVSPost2010PropOp53
 70
     1
102
RTVSPost2010Prop54
  1
strokes_ogs.tif
102
RTVSPost2010PropOp54
 70
     1
102
RTVSPost2010Prop55
280
     0
102
RTVSPost2010PropOp55
 70
     1
102
RTVSPost2010Prop56
140
1.0
102
RTVSPost2010PropOp56
 70
     1
102
RTVSPost2010Prop57
140
1.0
102
RTVSPost2010PropOp57
 70
     1
  0
XRECORD
  5
6CB
102
{ACAD_REACTORS
330
6CA
102
}
330
6CA
100
AcDbXrecord
280
     1
102
RTVSPost2010Prop28
280
     0
102
RTVSPost2010PropOp28
 70
     1
102
RTVSPost2010Prop29
280
     1
102
RTVSPost2010PropOp29
 70
     1
102
RTVSPost2010Prop30
280
     1
102
RTVSPost2010PropOp30
 70
     1
102
RTVSPost2010Prop31
280
     0
102
RTVSPost2010PropOp31
 70
     1
102
RTVSPost2010Prop32
280
     0
102
RTVSPost2010PropOp32
 70
     1
102
RTVSPost2010Prop33
280
     0
102
RTVSPost2010PropOp33
 70
     1
102
RTVSPost2010Prop34
280
     0
102
RTVSPost2010PropOp34
 70
     1
102
RTVSPost2010Prop35
280
     0
102
RTVSPost2010PropOp35
 70
     1
102
RTVSPost2010Prop36
280
     0
102
RTVSPost2010PropOp36
 70
     1
102
RTVSPost2010Prop37
 90
       50
102
RTVSPost2010PropOp37
 70
     1
102
RTVSPost2010Prop38
140
0.0
102
RTVSPost2010PropOp38
 70
     1
102
RTVSPost2010Prop39
140
1.0
102
RTVSPost2010PropOp39
 70
     1
102
RTVSPost2010Prop40
 90
        0
102
RTVSPost2010PropOp40
 70
     1
102
RTVSPost2010Prop41ColorIndex
 90
       18
102
RTVSPost2010Prop41ColorRGB
 90
        0
102
RTVSPost2010PropOp41
 70
     1
102
RTVSPost2010Prop42
 90
       50
102
RTVSPost2010PropOp42
 70
     1
102
RTVSPost2010Prop43
 90
        3
102
RTVSPost2010PropOp43
 70
     1
102
RTVSPost2010Prop44ColorIndex
 90
        5
102
RTVSPost2010Prop44ColorRGB
 90
      255
102
RTVSPost2010PropOp44
 70
     1
102
RTVSPost2010Prop45
280
     0
102
RTVSPost2010PropOp45
 70
     1
102
RTVSPost2010Prop46
 90
       50
102
RTVSPost2010PropOp46
 70
     1
102
RTVSPost2010Prop47
 90
       50
102
RTVSPost2010PropOp47
 70
     1
102
RTVSPost2010Prop48
 90
       50
102
RTVSPost2010PropOp48
 70
     1
102
RTVSPost2010Prop49
280
     0
102
RTVSPost2010PropOp49
 70
     1
102
RTVSPost2010Prop50
 90
       50
102
RTVSPost2010PropOp50
 70
     1
102
RTVSPost2010Prop51ColorIndex
 90
      256
102
RTVSPost2010Prop51ColorRGB
 90
-16777216
102
RTVSPost2010PropOp51
 70
     0
102
RTVSPost2010Prop52
140
1.0
102
RTVSPost2010PropOp52
 70
     0
102
RTVSPost2010Prop53
 90
        2
102
RTVSPost2010PropOp53
 70
     1
102
RTVSPost2010Prop54
  1
strokes_ogs.tif
102
RTVSPost2010PropOp54
 70
     1
102
RTVSPost2010Prop55
280
     0
102
RTVSPost2010PropOp55
 70
     1
102
RTVSPost2010Prop56
140
1.0
102
RTVSPost2010PropOp56
 70
     1
102
RTVSPost2010Prop57
140
1.0
102
RTVSPost2010PropOp57
 70
     1
  0
XRECORD
  5
6C5
102
{ACAD_REACTORS
330
6C4
102
}
330
6C4
100
AcDbXrecord
280
     1
102
RTVSPost2010Prop28
280
     0
102
RTVSPost2010PropOp28
 70
     1
102
RTVSPost2010Prop29
280
     1
102
RTVSPost2010PropOp29
 70
     1
102
RTVSPost2010Prop30
280
     1
102
RTVSPost2010PropOp30
 70
     1
102
RTVSPost2010Prop31
280
     0
102
RTVSPost2010PropOp31
 70
     1
102
RTVSPost2010Prop32
280
     0
102
RTVSPost2010PropOp32
 70
     1
102
RTVSPost2010Prop33
280
     0
102
RTVSPost2010PropOp33
 70
     1
102
RTVSPost2010Prop34
280
     0
102
RTVSPost2010PropOp34
 70
     1
102
RTVSPost2010Prop35
280
     0
102
RTVSPost2010PropOp35
 70
     1
102
RTVSPost2010Prop36
280
     0
102
RTVSPost2010PropOp36
 70
     1
102
RTVSPost2010Prop37
 90
       50
102
RTVSPost2010PropOp37
 70
     1
102
RTVSPost2010Prop38
140
0.0
102
RTVSPost2010PropOp38
 70
     1
102
RTVSPost2010Prop39
140
1.0
102
RTVSPost2010PropOp39
 70
     1
102
RTVSPost2010Prop40
 90
        0
102
RTVSPost2010PropOp40
 70
     1
102
RTVSPost2010Prop41ColorIndex
 90
       18
102
RTVSPost2010Prop41ColorRGB
 90
        0
102
RTVSPost2010PropOp41
 70
     1
102
RTVSPost2010Prop42
 90
       50
102
RTVSPost2010PropOp42
 70
     1
102
RTVSPost2010Prop43
 90
        3
102
RTVSPost2010PropOp43
 70
     1
102
RTVSPost2010Prop44ColorIndex
 90
        5
102
RTVSPost2010Prop44ColorRGB
 90
      255
102
RTVSPost2010PropOp44
 70
     1
102
RTVSPost2010Prop45
280
     0
102
RTVSPost2010PropOp45
 70
     1
102
RTVSPost2010Prop46
 90
       50
102
RTVSPost2010PropOp46
 70
     1
102
RTVSPost2010Prop47
 90
       50
102
RTVSPost2010PropOp47
 70
     1
102
RTVSPost2010Prop48
 90
       50
102
RTVSPost2010PropOp48
 70
     1
102
RTVSPost2010Prop49
280
     0
102
RTVSPost2010PropOp49
 70
     1
102
RTVSPost2010Prop50
 90
       50
102
RTVSPost2010PropOp50
 70
     1
102
RTVSPost2010Prop51ColorIndex
 90
      256
102
RTVSPost2010Prop51ColorRGB
 90
-16777216
102
RTVSPost2010PropOp51
 70
     0
102
RTVSPost2010Prop52
140
1.0
102
RTVSPost2010PropOp52
 70
     0
102
RTVSPost2010Prop53
 90
        2
102
RTVSPost2010PropOp53
 70
     1
102
RTVSPost2010Prop54
  1
strokes_ogs.tif
102
RTVSPost2010PropOp54
 70
     1
102
RTVSPost2010Prop55
280
     0
102
RTVSPost2010PropOp55
 70
     1
102
RTVSPost2010Prop56
140
1.0
102
RTVSPost2010PropOp56
 70
     1
102
RTVSPost2010Prop57
140
1.0
102
RTVSPost2010PropOp57
 70
     1
  0
XRECORD
  5
6C7
102
{ACAD_REACTORS
330
6C6
102
}
330
6C6
100
AcDbXrecord
280
     1
102
RTVSPost2010Prop28
280
     0
102
RTVSPost2010PropOp28
 70
     1
102
RTVSPost2010Prop29
280
     1
102
RTVSPost2010PropOp29
 70
     1
102
RTVSPost2010Prop30
280
     1
102
RTVSPost2010PropOp30
 70
     1
102
RTVSPost2010Prop31
280
     0
102
RTVSPost2010PropOp31
 70
     1
102
RTVSPost2010Prop32
280
     0
102
RTVSPost2010PropOp32
 70
     1
102
RTVSPost2010Prop33
280
     0
102
RTVSPost2010PropOp33
 70
     1
102
RTVSPost2010Prop34
280
     0
102
RTVSPost2010PropOp34
 70
     1
102
RTVSPost2010Prop35
280
     0
102
RTVSPost2010PropOp35
 70
     1
102
RTVSPost2010Prop36
280
     0
102
RTVSPost2010PropOp36
 70
     1
102
RTVSPost2010Prop37
 90
       50
102
RTVSPost2010PropOp37
 70
     1
102
RTVSPost2010Prop38
140
0.0
102
RTVSPost2010PropOp38
 70
     1
102
RTVSPost2010Prop39
140
1.0
102
RTVSPost2010PropOp39
 70
     1
102
RTVSPost2010Prop40
 90
        0
102
RTVSPost2010PropOp40
 70
     1
102
RTVSPost2010Prop41ColorIndex
 90
       18
102
RTVSPost2010Prop41ColorRGB
 90
        0
102
RTVSPost2010PropOp41
 70
     1
102
RTVSPost2010Prop42
 90
       50
102
RTVSPost2010PropOp42
 70
     1
102
RTVSPost2010Prop43
 90
        3
102
RTVSPost2010PropOp43
 70
     1
102
RTVSPost2010Prop44ColorIndex
 90
        5
102
RTVSPost2010Prop44ColorRGB
 90
      255
102
RTVSPost2010PropOp44
 70
     1
102
RTVSPost2010Prop45
280
     0
102
RTVSPost2010PropOp45
 70
     1
102
RTVSPost2010Prop46
 90
       50
102
RTVSPost2010PropOp46
 70
     1
102
RTVSPost2010Prop47
 90
       50
102
RTVSPost2010PropOp47
 70
     1
102
RTVSPost2010Prop48
 90
       50
102
RTVSPost2010PropOp48
 70
     1
102
RTVSPost2010Prop49
280
     0
102
RTVSPost2010PropOp49
 70
     1
102
RTVSPost2010Prop50
 90
       50
102
RTVSPost2010PropOp50
 70
     1
102
RTVSPost2010Prop51ColorIndex
 90
      256
102
RTVSPost2010Prop51ColorRGB
 90
-16777216
102
RTVSPost2010PropOp51
 70
     0
102
RTVSPost2010Prop52
140
1.0
102
RTVSPost2010PropOp52
 70
     0
102
RTVSPost2010Prop53
 90
        2
102
RTVSPost2010PropOp53
 70
     1
102
RTVSPost2010Prop54
  1
strokes_ogs.tif
102
RTVSPost2010PropOp54
 70
     1
102
RTVSPost2010Prop55
280
     0
102
RTVSPost2010PropOp55
 70
     1
102
RTVSPost2010Prop56
140
1.0
102
RTVSPost2010PropOp56
 70
     1
102
RTVSPost2010Prop57
140
1.0
102
RTVSPost2010PropOp57
 70
     1
  0
XRECORD
  5
6BD
102
{ACAD_REACTORS
330
6BC
102
}
330
6BC
100
AcDbXrecord
280
     1
102
RTVSPost2010Prop28
280
     0
102
RTVSPost2010PropOp28
 70
     1
102
RTVSPost2010Prop29
280
     1
102
RTVSPost2010PropOp29
 70
     1
102
RTVSPost2010Prop30
280
     1
102
RTVSPost2010PropOp30
 70
     1
102
RTVSPost2010Prop31
280
     0
102
RTVSPost2010PropOp31
 70
     1
102
RTVSPost2010Prop32
280
     0
102
RTVSPost2010PropOp32
 70
     1
102
RTVSPost2010Prop33
280
     0
102
RTVSPost2010PropOp33
 70
     1
102
RTVSPost2010Prop34
280
     0
102
RTVSPost2010PropOp34
 70
     1
102
RTVSPost2010Prop35
280
     0
102
RTVSPost2010PropOp35
 70
     1
102
RTVSPost2010Prop36
280
     0
102
RTVSPost2010PropOp36
 70
     1
102
RTVSPost2010Prop37
 90
       50
102
RTVSPost2010PropOp37
 70
     1
102
RTVSPost2010Prop38
140
0.0
102
RTVSPost2010PropOp38
 70
     1
102
RTVSPost2010Prop39
140
1.0
102
RTVSPost2010PropOp39
 70
     1
102
RTVSPost2010Prop40
 90
        0
102
RTVSPost2010PropOp40
 70
     1
102
RTVSPost2010Prop41ColorIndex
 90
       18
102
RTVSPost2010Prop41ColorRGB
 90
        0
102
RTVSPost2010PropOp41
 70
     1
102
RTVSPost2010Prop42
 90
       50
102
RTVSPost2010PropOp42
 70
     1
102
RTVSPost2010Prop43
 90
        3
102
RTVSPost2010PropOp43
 70
     1
102
RTVSPost2010Prop44ColorIndex
 90
        5
102
RTVSPost2010Prop44ColorRGB
 90
      255
102
RTVSPost2010PropOp44
 70
     1
102
RTVSPost2010Prop45
280
     0
102
RTVSPost2010PropOp45
 70
     1
102
RTVSPost2010Prop46
 90
       50
102
RTVSPost2010PropOp46
 70
     1
102
RTVSPost2010Prop47
 90
       50
102
RTVSPost2010PropOp47
 70
     1
102
RTVSPost2010Prop48
 90
       50
102
RTVSPost2010PropOp48
 70
     1
102
RTVSPost2010Prop49
280
     0
102
RTVSPost2010PropOp49
 70
     1
102
RTVSPost2010Prop50
 90
       50
102
RTVSPost2010PropOp50
 70
     1
102
RTVSPost2010Prop51ColorIndex
 90
      256
102
RTVSPost2010Prop51ColorRGB
 90
-16777216
102
RTVSPost2010PropOp51
 70
     0
102
RTVSPost2010Prop52
140
1.0
102
RTVSPost2010PropOp52
 70
     0
102
RTVSPost2010Prop53
 90
        2
102
RTVSPost2010PropOp53
 70
     1
102
RTVSPost2010Prop54
  1
strokes_ogs.tif
102
RTVSPost2010PropOp54
 70
     1
102
RTVSPost2010Prop55
280
     0
102
RTVSPost2010PropOp55
 70
     1
102
RTVSPost2010Prop56
140
1.0
102
RTVSPost2010PropOp56
 70
     1
102
RTVSPost2010Prop57
140
1.0
102
RTVSPost2010PropOp57
 70
     1
  0
XRECORD
  5
6B1
102
{ACAD_REACTORS
330
6B0
102
}
330
6B0
100
AcDbXrecord
280
     1
102
RTVSPost2010Prop28
280
     0
102
RTVSPost2010PropOp28
 70
     1
102
RTVSPost2010Prop29
280
     1
102
RTVSPost2010PropOp29
 70
     1
102
RTVSPost2010Prop30
280
     1
102
RTVSPost2010PropOp30
 70
     1
102
RTVSPost2010Prop31
280
     0
102
RTVSPost2010PropOp31
 70
     1
102
RTVSPost2010Prop32
280
     0
102
RTVSPost2010PropOp32
 70
     1
102
RTVSPost2010Prop33
280
     0
102
RTVSPost2010PropOp33
 70
     1
102
RTVSPost2010Prop34
280
     0
102
RTVSPost2010PropOp34
 70
     1
102
RTVSPost2010Prop35
280
     0
102
RTVSPost2010PropOp35
 70
     1
102
RTVSPost2010Prop36
280
     0
102
RTVSPost2010PropOp36
 70
     1
102
RTVSPost2010Prop37
 90
       50
102
RTVSPost2010PropOp37
 70
     1
102
RTVSPost2010Prop38
140
0.0
102
RTVSPost2010PropOp38
 70
     1
102
RTVSPost2010Prop39
140
1.0
102
RTVSPost2010PropOp39
 70
     1
102
RTVSPost2010Prop40
 90
        0
102
RTVSPost2010PropOp40
 70
     1
102
RTVSPost2010Prop41ColorIndex
 90
       18
102
RTVSPost2010Prop41ColorRGB
 90
        0
102
RTVSPost2010PropOp41
 70
     1
102
RTVSPost2010Prop42
 90
       50
102
RTVSPost2010PropOp42
 70
     1
102
RTVSPost2010Prop43
 90
        3
102
RTVSPost2010PropOp43
 70
     1
102
RTVSPost2010Prop44ColorIndex
 90
        5
102
RTVSPost2010Prop44ColorRGB
 90
      255
102
RTVSPost2010PropOp44
 70
     1
102
RTVSPost2010Prop45
280
     0
102
RTVSPost2010PropOp45
 70
     1
102
RTVSPost2010Prop46
 90
       50
102
RTVSPost2010PropOp46
 70
     1
102
RTVSPost2010Prop47
 90
       50
102
RTVSPost2010PropOp47
 70
     1
102
RTVSPost2010Prop48
 90
       50
102
RTVSPost2010PropOp48
 70
     1
102
RTVSPost2010Prop49
280
     0
102
RTVSPost2010PropOp49
 70
     1
102
RTVSPost2010Prop50
 90
       50
102
RTVSPost2010PropOp50
 70
     1
102
RTVSPost2010Prop51ColorIndex
 90
      256
102
RTVSPost2010Prop51ColorRGB
 90
-16777216
102
RTVSPost2010PropOp51
 70
     0
102
RTVSPost2010Prop52
140
1.0
102
RTVSPost2010PropOp52
 70
     0
102
RTVSPost2010Prop53
 90
        2
102
RTVSPost2010PropOp53
 70
     1
102
RTVSPost2010Prop54
  1
strokes_ogs.tif
102
RTVSPost2010PropOp54
 70
     1
102
RTVSPost2010Prop55
280
     0
102
RTVSPost2010PropOp55
 70
     1
102
RTVSPost2010Prop56
140
1.0
102
RTVSPost2010PropOp56
 70
     1
102
RTVSPost2010Prop57
140
1.0
102
RTVSPost2010PropOp57
 70
     1
  0
XRECORD
  5
6C9
102
{ACAD_REACTORS
330
6C8
102
}
330
6C8
100
AcDbXrecord
280
     1
102
RTVSPost2010Prop28
280
     0
102
RTVSPost2010PropOp28
 70
     1
102
RTVSPost2010Prop29
280
     1
102
RTVSPost2010PropOp29
 70
     1
102
RTVSPost2010Prop30
280
     1
102
RTVSPost2010PropOp30
 70
     1
102
RTVSPost2010Prop31
280
     0
102
RTVSPost2010PropOp31
 70
     1
102
RTVSPost2010Prop32
280
     0
102
RTVSPost2010PropOp32
 70
     1
102
RTVSPost2010Prop33
280
     0
102
RTVSPost2010PropOp33
 70
     1
102
RTVSPost2010Prop34
280
     0
102
RTVSPost2010PropOp34
 70
     1
102
RTVSPost2010Prop35
280
     0
102
RTVSPost2010PropOp35
 70
     1
102
RTVSPost2010Prop36
280
     0
102
RTVSPost2010PropOp36
 70
     1
102
RTVSPost2010Prop37
 90
       50
102
RTVSPost2010PropOp37
 70
     1
102
RTVSPost2010Prop38
140
0.0
102
RTVSPost2010PropOp38
 70
     1
102
RTVSPost2010Prop39
140
1.0
102
RTVSPost2010PropOp39
 70
     1
102
RTVSPost2010Prop40
 90
        0
102
RTVSPost2010PropOp40
 70
     1
102
RTVSPost2010Prop41ColorIndex
 90
       18
102
RTVSPost2010Prop41ColorRGB
 90
        0
102
RTVSPost2010PropOp41
 70
     1
102
RTVSPost2010Prop42
 90
       50
102
RTVSPost2010PropOp42
 70
     1
102
RTVSPost2010Prop43
 90
        3
102
RTVSPost2010PropOp43
 70
     1
102
RTVSPost2010Prop44ColorIndex
 90
        5
102
RTVSPost2010Prop44ColorRGB
 90
      255
102
RTVSPost2010PropOp44
 70
     1
102
RTVSPost2010Prop45
280
     0
102
RTVSPost2010PropOp45
 70
     1
102
RTVSPost2010Prop46
 90
       50
102
RTVSPost2010PropOp46
 70
     1
102
RTVSPost2010Prop47
 90
       50
102
RTVSPost2010PropOp47
 70
     1
102
RTVSPost2010Prop48
 90
       50
102
RTVSPost2010PropOp48
 70
     1
102
RTVSPost2010Prop49
280
     0
102
RTVSPost2010PropOp49
 70
     1
102
RTVSPost2010Prop50
 90
       50
102
RTVSPost2010PropOp50
 70
     1
102
RTVSPost2010Prop51ColorIndex
 90
      256
102
RTVSPost2010Prop51ColorRGB
 90
-16777216
102
RTVSPost2010PropOp51
 70
     0
102
RTVSPost2010Prop52
140
1.0
102
RTVSPost2010PropOp52
 70
     0
102
RTVSPost2010Prop53
 90
        2
102
RTVSPost2010PropOp53
 70
     1
102
RTVSPost2010Prop54
  1
strokes_ogs.tif
102
RTVSPost2010PropOp54
 70
     1
102
RTVSPost2010Prop55
280
     0
102
RTVSPost2010PropOp55
 70
     1
102
RTVSPost2010Prop56
140
1.0
102
RTVSPost2010PropOp56
 70
     1
102
RTVSPost2010Prop57
140
1.0
102
RTVSPost2010PropOp57
 70
     1
  0
ENDSEC
  0
EOF
