  0
SECTION
  2
HEADER
  9
$ACADVER
  1
AC1009
  9
$INSBASE
 10
0.0
 20
0.0
 30
0.0
  9
$EXTMIN
 10
480.82380420714111
 20
-735.69039530684665
 30
-0.0015258207003583
  9
$EXTMAX
 10
1193.0575979542421
 20
294.08812144836702
 30
0.0000000349246037
  9
$LIMMIN
 10
0.0
 20
0.0
  9
$LIMMAX
 10
0.0
 20
0.0
  9
$ORTHOMODE
 70
     0
  9
$REGENMODE
 70
     1
  9
$FILLMODE
 70
     1
  9
$QTEXTMODE
 70
     0
  9
$MIRRTEXT
 70
     1
  9
$DRAGMODE
 70
     2
  9
$LTSCALE
 40
1.0
  9
$OSMODE
 70
    31
  9
$ATTMODE
 70
     1
  9
$TEXTSIZE
 40
0.0
  9
$TRACEWID
 40
0.05
  9
$TEXTSTYLE
  7
STANDARD
  9
$CLAYER
  8
0
  9
$CELTYPE
  6
CONTINUOUS
  9
$CECOLOR
 62
   256
  9
$DIMSCALE
 40
1.0
  9
$DIMASZ
 40
0.18
  9
$DIMEXO
 40
0.0625
  9
$DIMDLI
 40
0.38
  9
$DIMRND
 40
0.0
  9
$DIMDLE
 40
0.0
  9
$DIMEXE
 40
0.18
  9
$DIMTP
 40
0.0
  9
$DIMTM
 40
0.0
  9
$DIMTXT
 40
0.18
  9
$DIMCEN
 40
0.09
  9
$DIMTSZ
 40
0.0
  9
$DIMTOL
 70
     0
  9
$DIMLIM
 70
     0
  9
$DIMTIH
 70
     1
  9
$DIMTOH
 70
     1
  9
$DIMSE1
 70
     0
  9
$DIMSE2
 70
     0
  9
$DIMTAD
 70
     0
  9
$DIMZIN
 70
     0
  9
$DIMBLK
  1

  9
$DIMASO
 70
     1
  9
$DIMSHO
 70
     1
  9
$DIMPOST
  1

  9
$DIMAPOST
  1

  9
$DIMALT
 70
     0
  9
$DIMALTD
 70
     2
  9
$DIMALTF
 40
25.399999999999999
  9
$DIMLFAC
 40
1.0
  9
$DIMTOFL
 70
     0
  9
$DIMTVP
 40
0.0
  9
$DIMTIX
 70
     0
  9
$DIMSOXD
 70
     0
  9
$DIMSAH
 70
     0
  9
$DIMBLK1
  1

  9
$DIMBLK2
  1

  9
$DIMSTYLE
  2
STANDARD
  9
$DIMCLRD
 70
     0
  9
$DIMCLRE
 70
     0
  9
$DIMCLRT
 70
     0
  9
$DIMTFAC
 40
1.0
  9
$DIMGAP
 40
0.09
  9
$LUNITS
 70
     2
  9
$LUPREC
 70
     4
  9
$SKETCHINC
 40
0.1
  9
$FILLETRAD
 40
0.0
  9
$AUNITS
 70
     0
  9
$AUPREC
 70
     0
  9
$MENU
  1
acad
  9
$ELEVATION
 40
0.0
  9
$PELEVATION
 40
0.0
  9
$THICKNESS
 40
0.0
  9
$LIMCHECK
 70
     0
  9
$BLIPMODE
 70
     0
  9
$CHAMFERA
 40
0.0
  9
$CHAMFERB
 40
0.0
  9
$SKPOLY
 70
     0
  9
$TDCREATE
 40
2454860.7174198842
  9
$TDUPDATE
 40
2454860.7177141211
  9
$TDINDWG
 40
0.0003141204
  9
$TDUSRTIMER
 40
0.0003137616
  9
$USRTIMER
 70
     1
  9
$ANGBASE
 50
0.0
  9
$ANGDIR
 70
     0
  9
$PDMODE
 70
     3
  9
$PDSIZE
 40
-1.0
  9
$PLINEWID
 40
0.0
  9
$COORDS
 70
     2
  9
$SPLFRAME
 70
     0
  9
$SPLINETYPE
 70
     6
  9
$SPLINESEGS
 70
     8
  9
$ATTDIA
 70
     0
  9
$ATTREQ
 70
     1
  9
$HANDLING
 70
     1
  9
$HANDSEED
  5
6F3
  9
$SURFTAB1
 70
     6
  9
$SURFTAB2
 70
     6
  9
$SURFTYPE
 70
     6
  9
$SURFU
 70
     6
  9
$SURFV
 70
     6
  9
$UCSNAME
  2

  9
$UCSORG
 10
0.0
 20
0.0
 30
0.0
  9
$UCSXDIR
 10
1.0
 20
0.0
 30
0.0
  9
$UCSYDIR
 10
0.0
 20
1.0
 30
0.0
  9
$PUCSNAME
  2

  9
$PUCSORG
 10
0.0
 20
0.0
 30
0.0
  9
$PUCSXDIR
 10
1.0
 20
0.0
 30
0.0
  9
$PUCSYDIR
 10
0.0
 20
1.0
 30
0.0
  9
$USERI1
 70
     0
  9
$USERI2
 70
     0
  9
$USERI3
 70
     0
  9
$USERI4
 70
     0
  9
$USERI5
 70
     0
  9
$USERR1
 40
0.0
  9
$USERR2
 40
0.0
  9
$USERR3
 40
0.0
  9
$USERR4
 40
0.0
  9
$USERR5
 40
0.0
  9
$WORLDVIEW
 70
     1
  9
$SHADEDGE
 70
     3
  9
$SHADEDIF
 70
    70
  9
$TILEMODE
 70
     1
  9
$MAXACTVP
 70
    16
  9
$PLIMCHECK
 70
     0
  9
$PEXTMIN
 10
1.0000000000000000E+020
 20
1.0000000000000000E+020
 30
1.0000000000000000E+020
  9
$PEXTMAX
 10
-1.0000000000000000E+020
 20
-1.0000000000000000E+020
 30
-1.0000000000000000E+020
  9
$PLIMMIN
 10
0.0
 20
0.0
  9
$PLIMMAX
 10
12.0
 20
9.0
  9
$UNITMODE
 70
     0
  9
$VISRETAIN
 70
     0
  9
$PLINEGEN
 70
     1
  9
$PSLTSCALE
 70
     0
  0
ENDSEC
  0
SECTION
  2
TABLES
  0
TABLE
  2
VPORT
 70
     2
  0
VPORT
  2
*ACTIVE
 70
     0
 10
0.0
 20
0.0
 11
1.0
 21
1.0
 12
836.94070108069195
 22
-220.8011369292399
 13
0.0
 23
0.0
 14
1.0
 24
1.0
 15
0.0
 25
0.0
 16
0.0
 26
0.0
 36
1.0
 17
0.0
 27
0.0
 37
0.0
 40
1038.324396562311
 41
1.6343490304709141
 42
50.0
 43
0.0
 44
0.0
 50
0.0
 51
0.0
 71
     0
 72
   100
 73
     1
 74
     1
 75
     0
 76
     0
 77
     0
 78
     0
  0
ENDTAB
  0
TABLE
  2
LTYPE
 70
    11
  0
LTYPE
  2
CONTINUOUS
 70
     0
  3
Solid line
 72
    65
 73
     0
 40
0.0
  0
LTYPE
  2
DOT
 70
     0
  3
. . . . . . . . 
 72
    65
 73
     2
 40
1.0
 49
0.0
 49
-1.0
  0
LTYPE
  2
DASHED
 70
     0
  3
___  ___  ___  ___  
 72
    65
 73
     2
 40
4.0
 49
3.0
 49
-1.0
  0
LTYPE
  2
HIDDEN
 70
     0
  3
__ __ __ __ 
 72
    65
 73
     2
 40
3.0
 49
2.0
 49
-1.0
  0
LTYPE
  2
STITCH
 70
     0
  3
_ _ _ _ 
 72
    65
 73
     2
 40
2.0
 49
1.0
 49
-1.0
  0
LTYPE
  2
CENTER
 70
     0
  3
______  __  ______  __  
 72
    65
 73
     4
 40
43.0
 49
40.0
 49
-1.0
 49
1.0
 49
-1.0
  0
LTYPE
  2
DASHDOT
 70
     0
  3
____ . ____ . 
 72
    65
 73
     4
 40
32.0
 49
30.0
 49
-1.0
 49
0.0
 49
-1.0
  0
LTYPE
  2
BORDER
 70
     0
  3
__ . __ . 
 72
    65
 73
     4
 40
22.0
 49
20.0
 49
-1.0
 49
0.0
 49
-1.0
  0
LTYPE
  2
CUTTING
 70
     0
  3
________   ___   ___   
 72
    65
 73
     6
 40
45.0
 49
40.0
 49
-1.0
 49
1.0
 49
-1.0
 49
1.0
 49
-1.0
  0
LTYPE
  2
PHANTOM
 70
     0
  3
______  __  __  
 72
    65
 73
     6
 40
35.0
 49
30.0
 49
-1.0
 49
1.0
 49
-1.0
 49
1.0
 49
-1.0
  0
LTYPE
  2
DIVIDE
 70
     0
  3
____ . . ____ . . 
 72
    65
 73
     6
 40
23.0
 49
20.0
 49
-1.0
 49
0.0
 49
-1.0
 49
0.0
 49
-1.0
  0
ENDTAB
  0
TABLE
  2
LAYER
 70
     6
  0
LAYER
  2
0
 70
     0
 62
     7
  6
CONTINUOUS
  0
LAYER
  2
ﾚｲﾔ_1
 70
     0
 62
     7
  6
CONTINUOUS
  0
LAYER
  2
図枠
 70
     0
 62
     7
  6
CONTINUOUS
  0
LAYER
  2
CONSTRUCTION
 70
     0
 62
     7
  6
CONTINUOUS
  0
LAYER
  2
寸法線
 70
     0
 62
     7
  6
CONTINUOUS
  0
LAYER
  2
改訂
 70
     0
 62
     7
  6
CONTINUOUS
  0
ENDTAB
  0
TABLE
  2
STYLE
 70
     1
  0
STYLE
  2
STANDARD
 70
     0
 40
0.0
 41
1.0
 50
0.0
 71
     0
 42
0.0
  3
txt
  4
extfont
  0
ENDTAB
  0
TABLE
  2
VIEW
 70
     0
  0
ENDTAB
  0
TABLE
  2
UCS
 70
     0
  0
ENDTAB
  0
TABLE
  2
APPID
 70
     2
  0
APPID
  2
ACAD
 70
     0
  0
APPID
  2
DCO15
 70
     0
  0
ENDTAB
  0
TABLE
  2
DIMSTYLE
 70
     2
  0
DIMSTYLE
  2
STANDARD
 70
     0
  3

  4

  5

  6

  7

 40
1.0
 41
0.18
 42
0.0625
 43
0.38
 44
0.18
 45
0.0
 46
0.0
 47
0.0
 48
0.0
140
0.18
141
0.09
142
0.0
143
25.399999999999999
144
1.0
145
0.0
146
1.0
147
0.09
 71
     0
 72
     0
 73
     1
 74
     1
 75
     0
 76
     0
 77
     0
 78
     0
170
     0
171
     2
172
     0
173
     0
174
     0
175
     0
176
     0
177
     0
178
     0
  0
DIMSTYLE
  2
VELDIM0
 70
     0
  3

  4

  5

  6

  7

 40
1.0
 41
7.5
 42
0.0625
 43
0.38
 44
0.5
 45
0.0
 46
3.0
 47
0.0
 48
0.0
140
7.4965279578999988
141
0.09
142
0.0
143
25.399999999999999
144
1.0
145
0.0
146
1.0
147
0.09
 71
     0
 72
     0
 73
     0
 74
     0
 75
     0
 76
     0
 77
     0
 78
     8
170
     0
171
     2
172
     0
173
     0
174
     0
175
     0
176
     0
177
     0
178
     0
  0
ENDTAB
  0
ENDSEC
  0
SECTION
  2
BLOCKS
  0
BLOCK
  8
0
  2
$MODEL_SPACE
 70
     0
 10
0.0
 20
0.0
 30
0.0
  3
$MODEL_SPACE
  1

  0
ENDBLK
  5
E
  8
0
  0
BLOCK
 67
     1
  8
0
  2
$PAPER_SPACE
 70
     0
 10
0.0
 20
0.0
 30
0.0
  3
$PAPER_SPACE
  1

  0
ENDBLK
  5
10
 67
     1
  8
0
  0
BLOCK
  8
0
  2
*X0
 70
     1
 10
0.0
 20
0.0
 30
0.0
  3
*X0
  1

  0
LINE
  5
8C
  8
ﾚｲﾔ_1
 10
1120.0
 20
-123.6566269021
 30
0.0
 11
1120.0
 21
9.4599095562999995
 31
0.0
  0
LINE
  5
8D
  8
ﾚｲﾔ_1
 10
1110.0
 20
-123.6566269021
 30
0.0
 11
1110.0
 21
9.4599095562999995
 31
0.0
  0
LINE
  5
8E
  8
ﾚｲﾔ_1
 10
1100.7806813007001
 20
0.7601341502
 30
0.0
 11
1109.4804567067999
 21
9.4599095562999995
 31
0.0
  0
LINE
  5
8F
  8
ﾚｲﾔ_1
 10
1100.7806813007001
 20
-19.240239434399999
 30
0.0
 11
1121.6911439943999
 21
1.6702232592999999
 31
0.0
  0
LINE
  5
90
  8
ﾚｲﾔ_1
 10
1100.7806813007001
 20
-39.240613019000001
 30
0.0
 11
1121.6911439943999
 21
-18.330150325200002
 31
0.0
  0
LINE
  5
91
  8
ﾚｲﾔ_1
 10
1100.7806813007001
 20
-59.240986603500012
 30
0.0
 11
1121.6911439943999
 21
-38.3305239098
 31
0.0
  0
LINE
  5
92
  8
ﾚｲﾔ_1
 10
1100.7806813007001
 20
-79.241360188100003
 30
0.0
 11
1121.6911439943999
 21
-58.330897494299997
 31
0.0
  0
LINE
  5
93
  8
ﾚｲﾔ_1
 10
1100.7806813007001
 20
-99.2417337726
 30
0.0
 11
1121.6911439943999
 21
-78.331271078900002
 31
0.0
  0
LINE
  5
94
  8
ﾚｲﾔ_1
 10
1100.7806813007001
 20
-119.2421073572
 30
0.0
 11
1121.6911439943999
 21
-98.331644663400013
 31
0.0
  0
LINE
  5
95
  8
ﾚｲﾔ_1
 10
1116.3665353403001
 20
-123.6566269021
 30
0.0
 11
1121.6911439943999
 21
-118.332018248
 31
0.0
  0
LINE
  5
96
  8
ﾚｲﾔ_1
 10
1103.6749325451999
 20
-123.6566269021
 30
0.0
 11
1100.7806813007001
 21
-120.7623756575
 31
0.0
  0
LINE
  5
97
  8
ﾚｲﾔ_1
 10
1121.6911439943999
 20
-121.6724647667
 30
0.0
 11
1100.7806813007001
 21
-100.7620020729
 31
0.0
  0
LINE
  5
98
  8
ﾚｲﾔ_1
 10
1121.6911439943999
 20
-101.6720911821
 30
0.0
 11
1100.7806813007001
 21
-80.761628488400007
 31
0.0
  0
LINE
  5
99
  8
ﾚｲﾔ_1
 10
1121.6911439943999
 20
-81.671717597599994
 30
0.0
 11
1100.7806813007001
 21
-60.761254903800001
 31
0.0
  0
LINE
  5
9A
  8
ﾚｲﾔ_1
 10
1121.6911439943999
 20
-61.671344013000002
 30
0.0
 11
1100.7806813007001
 21
-40.76088131929999
 31
0.0
  0
LINE
  5
9B
  8
ﾚｲﾔ_1
 10
1121.6911439943999
 20
-41.670970428499999
 30
0.0
 11
1100.7806813007001
 21
-20.760507734699999
 31
0.0
  0
LINE
  5
9C
  8
ﾚｲﾔ_1
 10
1121.6911439943999
 20
-21.6705968439
 30
0.0
 11
1100.7806813007001
 21
-0.7601341502
 31
0.0
  0
LINE
  5
9D
  8
ﾚｲﾔ_1
 10
1121.6911439943999
 20
-1.6702232592999999
 30
0.0
 11
1110.5610111788001
 21
9.4599095562999995
 31
0.0
  0
ENDBLK
  5
9E
  8
0
  0
BLOCK
  8
0
  2
*X1
 70
     1
 10
0.0
 20
0.0
 30
0.0
  3
*X1
  1

  0
LINE
  5
A2
  8
ﾚｲﾔ_1
 10
1060.0
 20
-125.5417831521
 30
0.0
 11
1060.0
 21
-23.7433456521
 31
0.0
  0
LINE
  5
A3
  8
ﾚｲﾔ_1
 10
1070.0
 20
-125.5417831521
 30
0.0
 11
1070.0
 21
-23.7433456521
 31
0.0
  0
LINE
  5
A4
  8
ﾚｲﾔ_1
 10
1056.9732197574001
 20
-43.047327393099998
 30
0.0
 11
1075.2732197574001
 21
-24.747327393100001
 31
0.0
  0
LINE
  5
A5
  8
ﾚｲﾔ_1
 10
1056.9732197574001
 20
-63.047700977600002
 30
0.0
 11
1075.2732197574001
 21
-44.747700977599997
 31
0.0
  0
LINE
  5
A6
  8
ﾚｲﾔ_1
 10
1056.9732197574001
 20
-83.0480745622
 30
0.0
 11
1075.2732197574001
 21
-64.748074562200003
 31
0.0
  0
LINE
  5
A7
  8
ﾚｲﾔ_1
 10
1056.9732197574001
 20
-103.0484481467
 30
0.0
 11
1075.2732197574001
 21
-84.748448146699985
 31
0.0
  0
LINE
  5
A8
  8
ﾚｲﾔ_1
 10
1056.9732197574001
 20
-123.0488217313
 30
0.0
 11
1075.2732197574001
 21
-104.7488217313
 31
0.0
  0
LINE
  5
A9
  8
ﾚｲﾔ_1
 10
1074.4806319212
 20
-125.5417831521
 30
0.0
 11
1075.2732197574001
 21
-124.74919531579999
 31
0.0
  0
LINE
  5
AA
  8
ﾚｲﾔ_1
 10
1065.5593416260999
 20
-125.5417831521
 30
0.0
 11
1056.9732197574001
 21
-116.9556612834
 31
0.0
  0
LINE
  5
AB
  8
ﾚｲﾔ_1
 10
1075.2732197574001
 20
-115.2552876988
 30
0.0
 11
1056.9732197574001
 21
-96.955287698799992
 31
0.0
  0
LINE
  5
AC
  8
ﾚｲﾔ_1
 10
1075.2732197574001
 20
-95.254914114300007
 30
0.0
 11
1056.9732197574001
 21
-76.95491411430001
 31
0.0
  0
LINE
  5
AD
  8
ﾚｲﾔ_1
 10
1075.2732197574001
 20
-75.254540529700009
 30
0.0
 11
1056.9732197574001
 21
-56.954540529699997
 31
0.0
  0
LINE
  5
AE
  8
ﾚｲﾔ_1
 10
1075.2732197574001
 20
-55.254166945100003
 30
0.0
 11
1056.9732197574001
 21
-36.954166945099999
 31
0.0
  0
LINE
  5
AF
  8
ﾚｲﾔ_1
 10
1075.2732197574001
 20
-35.2537933606
 30
0.0
 11
1063.7627720488999
 21
-23.7433456521
 31
0.0
  0
ENDBLK
  5
B0
  8
0
  0
BLOCK
  8
0
  2
BALLON0
 70
     0
 10
0.0
 20
0.0
 30
0.0
  3
BALLON0
  1

  0
INSERT
  5
DC
  8
0
  6
CONTINUOUS
  2
*U37
 10
0.0
 20
0.0
 30
0.0
  0
CIRCLE
  5
DD
  8
ﾚｲﾔ_1
 10
991.91687342590012
 20
-39.456337490000003
 30
0.0
 40
8.75
  0
LINE
  5
DE
  8
寸法線
 10
1006.5002067592
 20
-39.456337490000003
 30
0.0
 11
1000.6668734259
 21
-39.456337490000003
 31
0.0
  0
LINE
  5
DF
  8
寸法線
 10
1054.2732197574001
 20
-1.8684080359999991
 30
0.0
 11
1006.5002067592
 21
-39.456337490000003
 31
0.0
  0
SOLID
  5
E0
  8
寸法線
 10
1054.2732197574001
 20
-1.8684080359999991
 30
0.0
 11
1048.4786843975
 21
-8.6543022264000005
 31
0.0
 12
1048.7719011436
 22
-6.196859665499999
 32
0.0
 13
1048.7719011436
 23
-6.196859665499999
 33
0.0
  0
SOLID
  5
E1
  8
寸法線
 10
1048.7719011436
 20
-6.196859665499999
 30
0.0
 11
1046.3144585827999
 21
-5.9036429195000002
 31
0.0
 12
1054.2732197574001
 22
-1.8684080359999991
 32
0.0
 13
1054.2732197574001
 23
-1.8684080359999991
 33
0.0
  0
ENDBLK
  5
E2
  8
0
  0
BLOCK
  8
0
  2
BALLON1
 70
     0
 10
0.0
 20
0.0
 30
0.0
  3
BALLON1
  1

  0
INSERT
  5
E6
  8
0
  6
CONTINUOUS
  2
*U38
 10
0.0
 20
0.0
 30
0.0
  0
CIRCLE
  5
E7
  8
ﾚｲﾔ_1
 10
991.91687342590012
 20
10.8112852348
 30
0.0
 40
8.75
  0
LINE
  5
E8
  8
寸法線
 10
1006.5002067592
 20
10.8112852348
 30
0.0
 11
1000.6668734259
 21
10.8112852348
 31
0.0
  0
LINE
  5
E9
  8
寸法線
 10
1051.8732197574
 20
35.131591964000002
 30
0.0
 11
1006.5002067592
 21
10.8112852348
 31
0.0
  0
SOLID
  5
EA
  8
寸法線
 10
1051.8732197574
 20
35.131591964000002
 30
0.0
 11
1044.9879533951
 21
29.455492324400002
 31
0.0
 12
1045.7036149186999
 22
31.824633219999999
 32
0.0
 13
1045.7036149186999
 23
31.824633219999999
 33
0.0
  0
SOLID
  5
EB
  8
寸法線
 10
1045.7036149186999
 20
31.824633219999999
 30
0.0
 11
1043.3344740231
 21
32.540294743700002
 31
0.0
 12
1051.8732197574
 22
35.131591964000002
 32
0.0
 13
1051.8732197574
 23
35.131591964000002
 33
0.0
  0
ENDBLK
  5
EC
  8
0
  0
BLOCK
  8
0
  2
BALLON2
 70
     0
 10
0.0
 20
0.0
 30
0.0
  3
BALLON2
  1

  0
INSERT
  5
F0
  8
0
  6
CONTINUOUS
  2
*U39
 10
0.0
 20
0.0
 30
0.0
  0
CIRCLE
  5
F1
  8
ﾚｲﾔ_1
 10
991.91687342590012
 20
-117.7236182473
 30
0.0
 40
8.75
  0
LINE
  5
F2
  8
寸法線
 10
1006.5002067592
 20
-117.7236182473
 30
0.0
 11
1000.6668734259
 21
-117.7236182473
 31
0.0
  0
LINE
  5
F3
  8
寸法線
 10
1066.8888447574
 20
-71.823423777100004
 30
0.0
 11
1006.5002067592
 21
-117.7236182473
 31
0.0
  0
SOLID
  5
F4
  8
寸法線
 10
1066.8888447574
 20
-71.823423777100004
 30
0.0
 11
1060.9816603023
 21
-78.511485664700004
 31
0.0
 12
1061.3159241169001
 22
-76.059289159100004
 32
0.0
 13
1061.3159241169001
 23
-76.059289159100004
 33
0.0
  0
SOLID
  5
F5
  8
寸法線
 10
1061.3159241169001
 20
-76.059289159100004
 30
0.0
 11
1058.8637276113
 21
-75.725025344499997
 31
0.0
 12
1066.8888447574
 22
-71.823423777100004
 32
0.0
 13
1066.8888447574
 23
-71.823423777100004
 33
0.0
  0
ENDBLK
  5
F6
  8
0
  0
BLOCK
  8
0
  2
BALLON3
 70
     0
 10
0.0
 20
0.0
 30
0.0
  3
BALLON3
  1

  0
INSERT
  5
FA
  8
0
  6
CONTINUOUS
  2
*U40
 10
0.0
 20
0.0
 30
0.0
  0
CIRCLE
  5
FB
  8
ﾚｲﾔ_1
 10
991.91687342590012
 20
-204.4896789101
 30
0.0
 40
8.75
  0
LINE
  5
FC
  8
寸法線
 10
1006.5002067592
 20
-204.4896789101
 30
0.0
 11
1000.6668734259
 21
-204.4896789101
 31
0.0
  0
LINE
  5
FD
  8
寸法線
 10
1075.2732197574001
 20
-161.35975190209999
 30
0.0
 11
1006.5002067592
 21
-204.4896789101
 31
0.0
  0
SOLID
  5
FE
  8
寸法線
 10
1075.2732197574001
 20
-161.35975190209999
 30
0.0
 11
1068.7901272267
 21
-167.49118821319999
 31
0.0
 12
1069.3429276090001
 22
-165.0788425213
 32
0.0
 13
1069.3429276090001
 23
-165.0788425213
 33
0.0
  0
SOLID
  5
FF
  8
寸法線
 10
1069.3429276090001
 20
-165.0788425213
 30
0.0
 11
1066.9305819171
 21
-164.526042139
 31
0.0
 12
1075.2732197574001
 22
-161.35975190209999
 32
0.0
 13
1075.2732197574001
 23
-161.35975190209999
 33
0.0
  0
ENDBLK
  5
100
  8
0
  0
BLOCK
  8
0
  2
BALLON4
 70
     0
 10
0.0
 20
0.0
 30
0.0
  3
BALLON4
  1

  0
INSERT
  5
15D
  8
0
  6
CONTINUOUS
  2
*U52
 10
0.0
 20
0.0
 30
0.0
  0
CIRCLE
  5
15E
  8
ﾚｲﾔ_1
 10
991.91687342590012
 20
-376.93881220460003
 30
0.0
 40
8.75
  0
LINE
  5
15F
  8
寸法線
 10
1006.5002067592
 20
-376.93881220460003
 30
0.0
 11
1000.6668734259
 21
-376.93881220460003
 31
0.0
  0
LINE
  5
160
  8
寸法線
 10
1054.2732197574001
 20
-351.86840803600001
 30
0.0
 11
1006.5002067592
 21
-376.93881220460003
 31
0.0
  0
SOLID
  5
161
  8
寸法線
 10
1054.2732197574001
 20
-351.86840803600001
 30
0.0
 11
1047.3384863527001
 21
-357.48396434009999
 31
0.0
 12
1048.074877707
 22
-355.12118466919998
 32
0.0
 13
1048.074877707
 23
-355.12118466919998
 33
0.0
  0
SOLID
  5
162
  8
寸法線
 10
1048.074877707
 20
-355.12118466919998
 30
0.0
 11
1045.7120980361001
 21
-354.38479331489998
 31
0.0
 12
1054.2732197574001
 22
-351.86840803600001
 32
0.0
 13
1054.2732197574001
 23
-351.86840803600001
 33
0.0
  0
ENDBLK
  5
163
  8
0
  0
BLOCK
  8
0
  2
BALLON5
 70
     0
 10
0.0
 20
0.0
 30
0.0
  3
BALLON5
  1

  0
INSERT
  5
167
  8
0
  6
CONTINUOUS
  2
*U53
 10
0.0
 20
0.0
 30
0.0
  0
CIRCLE
  5
168
  8
ﾚｲﾔ_1
 10
991.91687342590012
 20
-290.83191149530001
 30
0.0
 40
8.75
  0
LINE
  5
169
  8
寸法線
 10
1006.5002067592
 20
-290.83191149530001
 30
0.0
 11
1000.6668734259
 21
-290.83191149530001
 31
0.0
  0
LINE
  5
16A
  8
寸法線
 10
1054.4732197574001
 20
-250.43338471460001
 30
0.0
 11
1006.5002067592
 21
-290.83191149530001
 31
0.0
  0
SOLID
  5
16B
  8
寸法線
 10
1054.4732197574001
 20
-250.43338471460001
 30
0.0
 11
1048.9075013460999
 21
-257.40818066610001
 31
0.0
 12
1049.1188523715
 22
-254.94234799860001
 32
0.0
 13
1049.1188523715
 23
-254.94234799860001
 33
0.0
  0
SOLID
  5
16C
  8
寸法線
 10
1049.1188523715
 20
-254.94234799860001
 30
0.0
 11
1046.6530197039999
 21
-254.73099697309999
 31
0.0
 12
1054.4732197574001
 22
-250.43338471460001
 32
0.0
 13
1054.4732197574001
 23
-250.43338471460001
 33
0.0
  0
ENDBLK
  5
16D
  8
0
  0
BLOCK
  8
0
  2
BALLON6
 70
     0
 10
0.0
 20
0.0
 30
0.0
  3
BALLON6
  1

  0
INSERT
  5
171
  8
0
  6
CONTINUOUS
  2
*U54
 10
0.0
 20
0.0
 30
0.0
  0
CIRCLE
  5
172
  8
ﾚｲﾔ_1
 10
991.91687342590012
 20
-468.24110241599999
 30
0.0
 40
8.75
  0
LINE
  5
173
  8
寸法線
 10
1006.5002067592
 20
-468.24110241599999
 30
0.0
 11
1000.6668734259
 21
-468.24110241599999
 31
0.0
  0
LINE
  5
174
  8
寸法線
 10
1053.6732197573999
 20
-442.46840803599991
 30
0.0
 11
1006.5002067592
 21
-468.24110241599999
 31
0.0
  0
SOLID
  5
175
  8
寸法線
 10
1053.6732197573999
 20
-442.46840803599991
 30
0.0
 11
1046.8335504057
 21
-448.19936983650001
 31
0.0
 12
1047.5302492098999
 22
-445.82458336690001
 32
0.0
 13
1047.5302492098999
 23
-445.82458336690001
 33
0.0
  0
SOLID
  5
176
  8
寸法線
 10
1047.5302492098999
 20
-445.82458336690001
 30
0.0
 11
1045.1554627401999
 21
-445.12788456269988
 31
0.0
 12
1053.6732197573999
 22
-442.46840803599991
 32
0.0
 13
1053.6732197573999
 23
-442.46840803599991
 33
0.0
  0
ENDBLK
  5
177
  8
0
  0
BLOCK
  8
0
  2
*X9
 70
     1
 10
0.0
 20
0.0
 30
0.0
  3
*X9
  1

  0
LINE
  5
181
  8
ﾚｲﾔ_1
 10
1060.0
 20
-445.8234237771
 30
0.0
 11
1060.0
 21
-382.3234237771
 31
0.0
  0
LINE
  5
182
  8
ﾚｲﾔ_1
 10
1080.0
 20
-445.8234237771
 30
0.0
 11
1080.0
 21
-382.3234237771
 31
0.0
  0
LINE
  5
183
  8
ﾚｲﾔ_1
 10
1100.0
 20
-445.8234237771
 30
0.0
 11
1100.0
 21
-382.3234237771
 31
0.0
  0
LINE
  5
184
  8
ﾚｲﾔ_1
 10
1070.0
 20
-445.8234237771
 30
0.0
 11
1070.0
 21
-382.3234237771
 31
0.0
  0
LINE
  5
185
  8
ﾚｲﾔ_1
 10
1090.0
 20
-445.8234237771
 30
0.0
 11
1090.0
 21
-382.3234237771
 31
0.0
  0
LINE
  5
186
  8
ﾚｲﾔ_1
 10
1110.0
 20
-445.8234237771
 30
0.0
 11
1110.0
 21
-382.3234237771
 31
0.0
  0
LINE
  5
187
  8
ﾚｲﾔ_1
 10
1059.9350242027001
 20
-400.09224746979999
 30
0.0
 11
1077.7038478954
 21
-382.3234237771
 31
0.0
  0
LINE
  5
188
  8
ﾚｲﾔ_1
 10
1059.9350242027001
 20
-420.09262105430003
 30
0.0
 11
1097.7042214799999
 21
-382.3234237771
 31
0.0
  0
LINE
  5
189
  8
ﾚｲﾔ_1
 10
1059.9350242027001
 20
-440.09299463889988
 30
0.0
 11
1117.7045950644999
 21
-382.3234237771
 31
0.0
  0
LINE
  5
18A
  8
ﾚｲﾔ_1
 10
1074.2049686491
 20
-445.8234237771
 30
0.0
 11
1117.9350242027001
 21
-402.09336822339998
 31
0.0
  0
LINE
  5
18B
  8
ﾚｲﾔ_1
 10
1094.2053422336
 20
-445.8234237771
 30
0.0
 11
1117.9350242027001
 21
-422.093741808
 31
0.0
  0
LINE
  5
18C
  8
ﾚｲﾔ_1
 10
1114.2057158181999
 20
-445.8234237771
 30
0.0
 11
1117.9350242027001
 21
-442.09411539249987
 31
0.0
  0
LINE
  5
18D
  8
ﾚｲﾔ_1
 10
1065.8350048983
 20
-445.8234237771
 30
0.0
 11
1059.9350242027001
 21
-439.92344308150001
 31
0.0
  0
LINE
  5
18E
  8
ﾚｲﾔ_1
 10
1085.8353784828
 20
-445.8234237771
 30
0.0
 11
1059.9350242027001
 21
-419.92306949699991
 31
0.0
  0
LINE
  5
18F
  8
ﾚｲﾔ_1
 10
1105.8357520674001
 20
-445.8234237771
 30
0.0
 11
1059.9350242027001
 21
-399.9226959124
 31
0.0
  0
LINE
  5
190
  8
ﾚｲﾔ_1
 10
1117.9350242027001
 20
-437.92232232790002
 30
0.0
 11
1062.3361256518999
 21
-382.3234237771
 31
0.0
  0
LINE
  5
191
  8
ﾚｲﾔ_1
 10
1117.9350242027001
 20
-417.92194874329999
 30
0.0
 11
1082.3364992365
 21
-382.3234237771
 31
0.0
  0
LINE
  5
192
  8
ﾚｲﾔ_1
 10
1117.9350242027001
 20
-397.92157515880001
 30
0.0
 11
1102.336872821
 21
-382.3234237771
 31
0.0
  0
ENDBLK
  5
193
  8
0
  0
BLOCK
  8
0
  2
*D10
 70
     1
 10
0.0
 20
0.0
 30
0.0
  3
*D10
  1

  0
TEXT
  5
21E
  8
0
 62
     0
 10
591.86245085550001
 20
-408.48299152829998
 30
0.0
 40
7.4965279578999988
  1
200
 50
90.0
  0
LINE
  5
21F
  8
0
 62
     0
 10
648.60824579910002
 20
-351.86840803600001
 30
0.0
 11
593.68536755399998
 21
-351.86840803600001
 31
0.0
  0
LINE
  5
220
  8
0
 62
     0
 10
637.04887079909997
 20
-451.86840803599989
 30
0.0
 11
593.68536755399998
 21
-451.86840803599989
 31
0.0
  0
LINE
  5
221
  8
0
 62
     0
 10
594.18536755399987
 20
-351.86840803600001
 30
0.0
 11
594.18536755399987
 21
-390.84410221550002
 31
0.0
  0
LINE
  5
222
  8
0
 62
     0
 10
594.18536755399987
 20
-351.86840803600001
 30
0.0
 11
594.18536755399987
 21
-412.8927138565
 31
0.0
  0
LINE
  5
223
  8
0
 62
     0
 10
594.18536755399987
 20
-451.86840803599989
 30
0.0
 11
594.18536755399987
 21
-390.84410221550002
 31
0.0
  0
LINE
  5
224
  8
0
 62
     0
 10
594.18536755399987
 20
-451.86840803599989
 30
0.0
 11
594.18536755399987
 21
-412.8927138565
 31
0.0
  0
LINE
  5
225
  8
0
 62
     0
 10
594.18536755399987
 20
-451.86840803599989
 30
0.0
 11
594.18536755399987
 21
-448.86840803600001
 31
0.0
  0
SOLID
  5
226
  8
0
 62
     0
 10
594.18536755399987
 20
-451.86840803599989
 30
0.0
 11
592.31036755399998
 21
-444.36840803599989
 31
0.0
 12
596.06036755399987
 22
-444.36840803599989
 32
0.0
 13
594.18536755399987
 23
-446.24340803600001
 33
0.0
  0
LINE
  5
227
  8
0
 62
     0
 10
594.18536755399987
 20
-351.86840803600001
 30
0.0
 11
594.18536755399987
 21
-354.86840803600001
 31
0.0
  0
SOLID
  5
228
  8
0
 62
     0
 10
594.18536755399987
 20
-351.86840803600001
 30
0.0
 11
596.06036755399987
 21
-359.36840803600001
 31
0.0
 12
592.31036755399998
 22
-359.36840803600001
 32
0.0
 13
594.18536755399987
 23
-357.49340803600001
 33
0.0
  0
ENDBLK
  5
229
  8
0
  0
BLOCK
  8
0
  2
*X11
 70
     1
 10
0.0
 20
0.0
 30
0.0
  3
*X11
  1

  0
LINE
  5
246
  8
ﾚｲﾔ_1
 10
1060.0
 20
14.7099095563
 30
0.0
 11
1060.0
 21
39.209909556299998
 31
0.0
  0
LINE
  5
247
  8
ﾚｲﾔ_1
 10
1080.0
 20
14.7099095563
 30
0.0
 11
1080.0
 21
39.209909556299998
 31
0.0
  0
LINE
  5
248
  8
ﾚｲﾔ_1
 10
1100.0
 20
14.7099095563
 30
0.0
 11
1100.0
 21
39.209909556299998
 31
0.0
  0
LINE
  5
249
  8
ﾚｲﾔ_1
 10
1120.0
 20
14.7099095563
 30
0.0
 11
1120.0
 21
39.209909556299998
 31
0.0
  0
LINE
  5
24A
  8
ﾚｲﾔ_1
 10
1070.0
 20
14.7099095563
 30
0.0
 11
1070.0
 21
39.209909556299998
 31
0.0
  0
LINE
  5
24B
  8
ﾚｲﾔ_1
 10
1090.0
 20
14.7099095563
 30
0.0
 11
1090.0
 21
39.209909556299998
 31
0.0
  0
LINE
  5
24C
  8
ﾚｲﾔ_1
 10
1110.0
 20
14.7099095563
 30
0.0
 11
1110.0
 21
39.209909556299998
 31
0.0
  0
LINE
  5
24D
  8
ﾚｲﾔ_1
 10
1058.4350242027001
 20
38.415971390499998
 30
0.0
 11
1059.2289623685999
 21
39.209909556299998
 31
0.0
  0
LINE
  5
24E
  8
ﾚｲﾔ_1
 10
1058.4350242027001
 20
18.415597805899999
 30
0.0
 11
1079.2293359531
 21
39.209909556299998
 31
0.0
  0
LINE
  5
24F
  8
ﾚｲﾔ_1
 10
1074.7297095377
 20
14.7099095563
 30
0.0
 11
1099.2297095377
 21
39.209909556299998
 31
0.0
  0
LINE
  5
250
  8
ﾚｲﾔ_1
 10
1094.7300831222001
 20
14.7099095563
 30
0.0
 11
1119.2300831222001
 21
39.209909556299998
 31
0.0
  0
LINE
  5
251
  8
ﾚｲﾔ_1
 10
1114.7304567067999
 20
14.7099095563
 30
0.0
 11
1121.4350242027001
 21
21.414477052199999
 31
0.0
  0
LINE
  5
252
  8
ﾚｲﾔ_1
 10
1065.3102640096999
 20
14.7099095563
 30
0.0
 11
1058.4350242027001
 21
21.585149363199999
 31
0.0
  0
LINE
  5
253
  8
ﾚｲﾔ_1
 10
1085.3106375942
 20
14.7099095563
 30
0.0
 11
1060.8106375942
 21
39.209909556299998
 31
0.0
  0
LINE
  5
254
  8
ﾚｲﾔ_1
 10
1105.3110111788001
 20
14.7099095563
 30
0.0
 11
1080.8110111788001
 21
39.209909556299998
 31
0.0
  0
LINE
  5
255
  8
ﾚｲﾔ_1
 10
1121.4350242027001
 20
18.5862701169
 30
0.0
 11
1100.8113847633001
 21
39.209909556299998
 31
0.0
  0
LINE
  5
256
  8
ﾚｲﾔ_1
 10
1121.4350242027001
 20
38.5866437014
 30
0.0
 11
1120.8117583479
 21
39.209909556299998
 31
0.0
  0
ENDBLK
  5
257
  8
0
  0
BLOCK
  8
0
  2
*D12
 70
     1
 10
0.0
 20
0.0
 30
0.0
  3
*D12
  1

  0
TEXT
  5
272
  8
0
 62
     0
 10
861.37146361329997
 20
94.516680421399997
 30
0.0
 40
7.4965279578999988
  1
□75
  0
LINE
  5
273
  8
0
 62
     0
 10
907.79090826970014
 20
42.631591964000002
 30
0.0
 11
907.79090826970014
 21
92.693763722900016
 31
0.0
  0
LINE
  5
274
  8
0
 62
     0
 10
832.59090826969998
 20
42.631591964000002
 30
0.0
 11
832.59090826969998
 21
92.693763722900016
 31
0.0
  0
LINE
  5
275
  8
0
 62
     0
 10
907.79090826970014
 20
92.193763722900016
 30
0.0
 11
883.42007525429995
 21
92.193763722900016
 31
0.0
  0
LINE
  5
276
  8
0
 62
     0
 10
907.79090826970014
 20
92.193763722900016
 30
0.0
 11
856.96174128519999
 21
92.193763722900016
 31
0.0
  0
LINE
  5
277
  8
0
 62
     0
 10
832.59090826969998
 20
92.193763722900016
 30
0.0
 11
883.42007525429995
 21
92.193763722900016
 31
0.0
  0
LINE
  5
278
  8
0
 62
     0
 10
832.59090826969998
 20
92.193763722900016
 30
0.0
 11
856.96174128519999
 21
92.193763722900016
 31
0.0
  0
LINE
  5
279
  8
0
 62
     0
 10
832.59090826969998
 20
92.193763722900016
 30
0.0
 11
835.59090826969987
 21
92.193763722900016
 31
0.0
  0
SOLID
  5
27A
  8
0
 62
     0
 10
832.59090826969998
 20
92.193763722900016
 30
0.0
 11
840.09090826969987
 21
94.068763722900016
 31
0.0
 12
840.09090826969987
 22
90.318763722900016
 32
0.0
 13
838.21590826969987
 23
92.193763722900016
 33
0.0
  0
LINE
  5
27B
  8
0
 62
     0
 10
907.79090826970014
 20
92.193763722900016
 30
0.0
 11
904.79090826970003
 21
92.193763722900016
 31
0.0
  0
SOLID
  5
27C
  8
0
 62
     0
 10
907.79090826970014
 20
92.193763722900016
 30
0.0
 11
900.29090826970003
 21
90.318763722900016
 31
0.0
 12
900.29090826970003
 22
94.068763722900016
 32
0.0
 13
902.16590826970003
 23
92.193763722900016
 33
0.0
  0
ENDBLK
  5
27D
  8
0
  0
BLOCK
  8
0
  2
CLUMP0
 70
     0
 10
0.0
 20
0.0
 30
0.0
  3
CLUMP0
  1

  0
INSERT
  5
284
  8
0
  6
CONTINUOUS
  2
*U86
 10
0.0
 20
0.0
 30
0.0
  0
LINE
  5
285
  8
ﾚｲﾔ_1
 10
873.34999713939999
 20
3.349563199399999
 30
0.0
 11
873.34999713939999
 21
-71.650436800600005
 31
0.0
  0
LINE
  5
286
  8
ﾚｲﾔ_1
 10
871.34999713939999
 20
1.349563199399999
 30
0.0
 11
871.34999713939999
 21
-73.650436800600005
 31
0.0
  0
LINE
  5
287
  8
ﾚｲﾔ_1
 10
869.34999713939999
 20
-0.6504368006
 30
0.0
 11
869.34999713939999
 21
-75.650436800600005
 31
0.0
  0
LINE
  5
288
  8
ﾚｲﾔ_1
 10
867.34999713939987
 20
-2.6504368006000001
 30
0.0
 11
867.34999713939987
 21
-77.650436800600005
 31
0.0
  0
LINE
  5
289
  8
ﾚｲﾔ_1
 10
865.34999713939987
 20
-4.6504368005999988
 30
0.0
 11
865.34999713939987
 21
-79.650436800600005
 31
0.0
  0
LINE
  5
28A
  8
ﾚｲﾔ_1
 10
861.34999713939999
 20
-8.6504368005999996
 30
0.0
 11
861.34999713939999
 21
-83.650436800600005
 31
0.0
  0
LINE
  5
28B
  8
ﾚｲﾔ_1
 10
859.34999713939987
 20
-10.6504368006
 30
0.0
 11
859.34999713939987
 21
-85.650436800600005
 31
0.0
  0
LINE
  5
28C
  8
ﾚｲﾔ_1
 10
857.34999713939987
 20
-12.6504368006
 30
0.0
 11
857.34999713939987
 21
-87.650436800599991
 31
0.0
  0
LINE
  5
28D
  8
ﾚｲﾔ_1
 10
855.34999713939999
 20
-14.6504368006
 30
0.0
 11
855.34999713939999
 21
-89.650436800599991
 31
0.0
  0
LINE
  5
28E
  8
ﾚｲﾔ_1
 10
863.34999713939999
 20
-6.6504368005999988
 30
0.0
 11
863.34999713939999
 21
-81.650436800600005
 31
0.0
  0
ENDBLK
  5
28F
  8
0
  0
BLOCK
  8
0
  2
*D14
 70
     1
 10
0.0
 20
0.0
 30
0.0
  3
*D14
  1

  0
TEXT
  5
29C
  8
0
 62
     0
 10
560.04470562649988
 20
59.644569468699999
 30
0.0
 40
7.4965279578999988
  1
4
 50
90.0
  0
LINE
  5
29D
  8
0
 62
     0
 10
662.34887079910004
 20
48.031591963999993
 30
0.0
 11
561.86762232499996
 21
48.031591963999993
 31
0.0
  0
LINE
  5
29E
  8
0
 62
     0
 10
635.24887079910002
 20
44.131591963999988
 30
0.0
 11
561.86762232499996
 21
44.131591963999988
 31
0.0
  0
LINE
  5
29F
  8
0
 62
     0
 10
562.36762232499996
 20
48.031591963999993
 30
0.0
 11
562.36762232499996
 21
68.464014125100007
 31
0.0
  0
LINE
  5
2A0
  8
0
 62
     0
 10
562.36762232499996
 20
48.031591963999993
 30
0.0
 11
562.36762232499996
 21
55.234847140600003
 31
0.0
  0
LINE
  5
2A1
  8
0
 62
     0
 10
562.36762232499996
 20
44.131591963999988
 30
0.0
 11
562.36762232499996
 21
68.464014125100007
 31
0.0
  0
LINE
  5
2A2
  8
0
 62
     0
 10
562.36762232499996
 20
44.131591963999988
 30
0.0
 11
562.36762232499996
 21
55.234847140600003
 31
0.0
  0
LINE
  5
2A3
  8
0
 62
     0
 10
562.36762232499996
 20
44.131591963999988
 30
0.0
 11
562.36762232499996
 21
41.131591964000002
 31
0.0
  0
SOLID
  5
2A4
  8
0
 62
     0
 10
562.36762232499996
 20
44.131591963999988
 30
0.0
 11
564.24262232499996
 21
36.631591964000002
 31
0.0
 12
560.49262232499996
 22
36.631591964000002
 32
0.0
 13
562.36762232499996
 23
38.506591964000002
 33
0.0
  0
LINE
  5
2A5
  8
0
 62
     0
 10
562.36762232499996
 20
48.031591963999993
 30
0.0
 11
562.36762232499996
 21
51.031591964
 31
0.0
  0
SOLID
  5
2A6
  8
0
 62
     0
 10
562.36762232499996
 20
48.031591963999993
 30
0.0
 11
560.49262232499996
 21
55.531591963999993
 31
0.0
 12
564.24262232499996
 22
55.531591963999993
 32
0.0
 13
562.36762232499996
 23
53.656591963999993
 33
0.0
  0
ENDBLK
  5
2A7
  8
0
  0
BLOCK
  8
0
  2
*D15
 70
     1
 10
0.0
 20
0.0
 30
0.0
  3
*D15
  1

  0
TEXT
  5
2AB
  8
0
 62
     0
 10
662.5294261427
 20
92.093050837800007
 30
0.0
 40
7.4965279578999988
  1
□70
  0
LINE
  5
2AC
  8
0
 62
     0
 10
706.34887079910004
 20
27.131591963999998
 30
0.0
 11
706.34887079910004
 21
90.270134139299984
 31
0.0
  0
LINE
  5
2AD
  8
0
 62
     0
 10
636.34887079910004
 20
27.131591963999998
 30
0.0
 11
636.34887079910004
 21
90.270134139299984
 31
0.0
  0
LINE
  5
2AE
  8
0
 62
     0
 10
706.34887079910004
 20
89.770134139299998
 30
0.0
 11
684.57803778369998
 21
89.770134139299998
 31
0.0
  0
LINE
  5
2AF
  8
0
 62
     0
 10
706.34887079910004
 20
89.770134139299998
 30
0.0
 11
658.11970381449987
 21
89.770134139299998
 31
0.0
  0
LINE
  5
2B0
  8
0
 62
     0
 10
636.34887079910004
 20
89.770134139299998
 30
0.0
 11
684.57803778369998
 21
89.770134139299998
 31
0.0
  0
LINE
  5
2B1
  8
0
 62
     0
 10
636.34887079910004
 20
89.770134139299998
 30
0.0
 11
658.11970381449987
 21
89.770134139299998
 31
0.0
  0
LINE
  5
2B2
  8
0
 62
     0
 10
636.34887079910004
 20
89.770134139299998
 30
0.0
 11
639.34887079910004
 21
89.770134139299998
 31
0.0
  0
SOLID
  5
2B3
  8
0
 62
     0
 10
636.34887079910004
 20
89.770134139299998
 30
0.0
 11
643.84887079910004
 21
91.645134139299998
 31
0.0
 12
643.84887079910004
 22
87.895134139299998
 32
0.0
 13
641.97387079910004
 23
89.770134139299998
 33
0.0
  0
LINE
  5
2B4
  8
0
 62
     0
 10
706.34887079910004
 20
89.770134139299998
 30
0.0
 11
703.34887079910004
 21
89.770134139299998
 31
0.0
  0
SOLID
  5
2B5
  8
0
 62
     0
 10
706.34887079910004
 20
89.770134139299998
 30
0.0
 11
698.84887079910004
 21
87.895134139299998
 31
0.0
 12
698.84887079910004
 22
91.645134139299998
 32
0.0
 13
700.72387079910004
 23
89.770134139299998
 33
0.0
  0
ENDBLK
  5
2B6
  8
0
  0
BLOCK
  8
0
  2
*D16
 70
     1
 10
0.0
 20
0.0
 30
0.0
  3
*D16
  1

  0
TEXT
  5
2BA
  8
0
 62
     0
 10
592.29292111109987
 20
10.3121473076
 30
0.0
 40
7.4965279578999988
  1
(50)
 50
90.0
  0
LINE
  5
2BB
  8
0
 62
     0
 10
635.24887079910002
 20
44.131591963999988
 30
0.0
 11
594.11583780959995
 21
44.131591963999988
 31
0.0
  0
LINE
  5
2BC
  8
0
 62
     0
 10
648.60824579910002
 20
-5.8684080359999991
 30
0.0
 11
594.11583780959995
 21
-5.8684080359999991
 31
0.0
  0
LINE
  5
2BD
  8
0
 62
     0
 10
594.61583780959995
 20
44.131591963999988
 30
0.0
 11
594.61583780959995
 21
32.360758948600001
 31
0.0
  0
LINE
  5
2BE
  8
0
 62
     0
 10
594.61583780959995
 20
44.131591963999988
 30
0.0
 11
594.61583780959995
 21
5.9024249795000001
 31
0.0
  0
LINE
  5
2BF
  8
0
 62
     0
 10
594.61583780959995
 20
-5.8684080359999991
 30
0.0
 11
594.61583780959995
 21
32.360758948600001
 31
0.0
  0
LINE
  5
2C0
  8
0
 62
     0
 10
594.61583780959995
 20
-5.8684080359999991
 30
0.0
 11
594.61583780959995
 21
5.9024249795000001
 31
0.0
  0
LINE
  5
2C1
  8
0
 62
     0
 10
594.61583780959995
 20
-5.8684080359999991
 30
0.0
 11
594.61583780959995
 21
-2.8684080359999999
 31
0.0
  0
SOLID
  5
2C2
  8
0
 62
     0
 10
594.61583780959995
 20
-5.8684080359999991
 30
0.0
 11
592.74083780959995
 21
1.6315919640000001
 31
0.0
 12
596.49083780959995
 22
1.6315919640000001
 32
0.0
 13
594.61583780959995
 23
-0.243408036
 33
0.0
  0
LINE
  5
2C3
  8
0
 62
     0
 10
594.61583780959995
 20
44.131591963999988
 30
0.0
 11
594.61583780959995
 21
41.131591964000002
 31
0.0
  0
SOLID
  5
2C4
  8
0
 62
     0
 10
594.61583780959995
 20
44.131591963999988
 30
0.0
 11
596.49083780959995
 21
36.631591964000002
 31
0.0
 12
592.74083780959995
 22
36.631591964000002
 32
0.0
 13
594.61583780959995
 23
38.506591964000002
 33
0.0
  0
ENDBLK
  5
2C5
  8
0
  0
BLOCK
  8
0
  2
*X17
 70
     1
 10
0.0
 20
0.0
 30
0.0
  3
*X17
  1

  0
LINE
  5
2CB
  8
ﾚｲﾔ_1
 10
1100.0
 20
-385.54009044370002
 30
0.0
 11
1100.0
 21
-149.10623627710001
 31
0.0
  0
LINE
  5
2CC
  8
ﾚｲﾔ_1
 10
1110.0
 20
-385.54009044370002
 30
0.0
 11
1110.0
 21
-149.10623627710001
 31
0.0
  0
LINE
  5
2CD
  8
ﾚｲﾔ_1
 10
1098.4433399730001
 20
-161.58019585389999
 30
0.0
 11
1110.9172995499
 21
-149.10623627710001
 31
0.0
  0
LINE
  5
2CE
  8
ﾚｲﾔ_1
 10
1098.4433399730001
 20
-181.58056943849999
 30
0.0
 11
1118.9350242027001
 21
-161.08888520880001
 31
0.0
  0
LINE
  5
2CF
  8
ﾚｲﾔ_1
 10
1098.4433399730001
 20
-201.580943023
 30
0.0
 11
1118.9350242027001
 21
-181.08925879329999
 31
0.0
  0
LINE
  5
2D0
  8
ﾚｲﾔ_1
 10
1098.4433399730001
 20
-221.5813166076
 30
0.0
 11
1118.9350242027001
 21
-201.08963237789999
 31
0.0
  0
LINE
  5
2D1
  8
ﾚｲﾔ_1
 10
1098.4433399730001
 20
-241.58169019210001
 30
0.0
 11
1118.9350242027001
 21
-221.0900059624
 31
0.0
  0
LINE
  5
2D2
  8
ﾚｲﾔ_1
 10
1098.4433399730001
 20
-261.5820637766999
 30
0.0
 11
1118.9350242027001
 21
-241.090379547
 31
0.0
  0
LINE
  5
2D3
  8
ﾚｲﾔ_1
 10
1098.4433399730001
 20
-281.58243736119999
 30
0.0
 11
1118.9350242027001
 21
-261.09075313149998
 31
0.0
  0
LINE
  5
2D4
  8
ﾚｲﾔ_1
 10
1098.4433399730001
 20
-301.58281094580002
 30
0.0
 11
1118.9350242027001
 21
-281.09112671610001
 31
0.0
  0
LINE
  5
2D5
  8
ﾚｲﾔ_1
 10
1098.4433399730001
 20
-321.5831845303
 30
0.0
 11
1118.9350242027001
 21
-301.09150030059999
 31
0.0
  0
LINE
  5
2D6
  8
ﾚｲﾔ_1
 10
1098.4433399730001
 20
-341.58355811489997
 30
0.0
 11
1118.9350242027001
 21
-321.09187388520002
 31
0.0
  0
LINE
  5
2D7
  8
ﾚｲﾔ_1
 10
1098.4433399730001
 20
-361.58393169949989
 30
0.0
 11
1118.9350242027001
 21
-341.09224746979999
 31
0.0
  0
LINE
  5
2D8
  8
ﾚｲﾔ_1
 10
1098.4433399730001
 20
-381.58430528399998
 30
0.0
 11
1118.9350242027001
 21
-361.09262105430003
 31
0.0
  0
LINE
  5
2D9
  8
ﾚｲﾔ_1
 10
1114.4879283979001
 20
-385.54009044370002
 30
0.0
 11
1118.9350242027001
 21
-381.0929946389
 31
0.0
  0
LINE
  5
2DA
  8
ﾚｲﾔ_1
 10
1105.5535394876999
 20
-385.54009044370002
 30
0.0
 11
1098.4433399730001
 21
-378.4298909291
 31
0.0
  0
LINE
  5
2DB
  8
ﾚｲﾔ_1
 10
1118.9350242027001
 20
-378.92120157419998
 30
0.0
 11
1098.4433399730001
 21
-358.42951734450003
 31
0.0
  0
LINE
  5
2DC
  8
ﾚｲﾔ_1
 10
1118.9350242027001
 20
-358.9208279897
 30
0.0
 11
1098.4433399730001
 21
-338.42914375999999
 31
0.0
  0
LINE
  5
2DD
  8
ﾚｲﾔ_1
 10
1118.9350242027001
 20
-338.92045440509997
 30
0.0
 11
1098.4433399730001
 21
-318.42877017540002
 31
0.0
  0
LINE
  5
2DE
  8
ﾚｲﾔ_1
 10
1118.9350242027001
 20
-318.92008082059999
 30
0.0
 11
1098.4433399730001
 21
-298.42839659079999
 31
0.0
  0
LINE
  5
2DF
  8
ﾚｲﾔ_1
 10
1118.9350242027001
 20
-298.91970723600002
 30
0.0
 11
1098.4433399730001
 21
-278.42802300630001
 31
0.0
  0
LINE
  5
2E0
  8
ﾚｲﾔ_1
 10
1118.9350242027001
 20
-278.9193336514
 30
0.0
 11
1098.4433399730001
 21
-258.42764942169998
 31
0.0
  0
LINE
  5
2E1
  8
ﾚｲﾔ_1
 10
1118.9350242027001
 20
-258.91896006690001
 30
0.0
 11
1098.4433399730001
 21
-238.4272758372
 31
0.0
  0
LINE
  5
2E2
  8
ﾚｲﾔ_1
 10
1118.9350242027001
 20
-238.91858648229999
 30
0.0
 11
1098.4433399730001
 21
-218.4269022526
 31
0.0
  0
LINE
  5
2E3
  8
ﾚｲﾔ_1
 10
1118.9350242027001
 20
-218.9182128978
 30
0.0
 11
1098.4433399730001
 21
-198.42652866809999
 31
0.0
  0
LINE
  5
2E4
  8
ﾚｲﾔ_1
 10
1118.9350242027001
 20
-198.91783931320001
 30
0.0
 11
1098.4433399730001
 21
-178.42615508349999
 31
0.0
  0
LINE
  5
2E5
  8
ﾚｲﾔ_1
 10
1118.9350242027001
 20
-178.91746572869999
 30
0.0
 11
1098.4433399730001
 21
-158.42578149900001
 31
0.0
  0
LINE
  5
2E6
  8
ﾚｲﾔ_1
 10
1118.9350242027001
 20
-158.9170921441
 30
0.0
 11
1109.1241683357
 21
-149.10623627710001
 31
0.0
  0
ENDBLK
  5
2E7
  8
0
  0
BLOCK
  8
0
  2
CLUMP1
 70
     0
 10
0.0
 20
0.0
 30
0.0
  3
CLUMP1
  1

  0
LINE
  5
2F3
  8
図枠
 10
963.82118705920004
 20
-625.6251438413999
 30
0.0
 11
963.82118705920004
 21
-613.1251438413999
 31
0.0
  0
LINE
  5
2F4
  8
図枠
 10
816.32118705919981
 20
-625.6251438413999
 30
0.0
 11
816.32118705919981
 21
-613.1251438413999
 31
0.0
  0
LINE
  5
2F5
  8
図枠
 10
838.82118705919981
 20
-625.6251438413999
 30
0.0
 11
838.82118705919981
 21
-613.1251438413999
 31
0.0
  0
LINE
  5
2F6
  8
図枠
 10
1101.3211870591999
 20
-625.6251438413999
 30
0.0
 11
1101.3211870591999
 21
-613.1251438413999
 31
0.0
  0
LINE
  5
2F7
  8
図枠
 10
1078.8211870591999
 20
-625.6251438413999
 30
0.0
 11
1078.8211870591999
 21
-613.1251438413999
 31
0.0
  0
LINE
  5
2F8
  8
図枠
 10
1178.8211870591999
 20
-613.1251438413999
 30
0.0
 11
816.32118705919981
 21
-613.1251438413999
 31
0.0
  0
ENDBLK
  5
2F9
  8
0
  0
BLOCK
  8
0
  2
CLUMP2
 70
     0
 10
0.0
 20
0.0
 30
0.0
  3
CLUMP2
  1

  0
LINE
  5
2FD
  8
図枠
 10
963.82118705920004
 20
-613.1251438413999
 30
0.0
 11
963.82118705920004
 21
-600.6251438413999
 31
0.0
  0
LINE
  5
2FE
  8
図枠
 10
816.32118705919981
 20
-613.1251438413999
 30
0.0
 11
816.32118705919981
 21
-600.6251438413999
 31
0.0
  0
LINE
  5
2FF
  8
図枠
 10
838.82118705919981
 20
-613.1251438413999
 30
0.0
 11
838.82118705919981
 21
-600.6251438413999
 31
0.0
  0
LINE
  5
300
  8
図枠
 10
1101.3211870591999
 20
-613.1251438413999
 30
0.0
 11
1101.3211870591999
 21
-600.6251438413999
 31
0.0
  0
LINE
  5
301
  8
図枠
 10
1078.8211870591999
 20
-613.1251438413999
 30
0.0
 11
1078.8211870591999
 21
-600.6251438413999
 31
0.0
  0
LINE
  5
302
  8
図枠
 10
1178.8211870591999
 20
-600.6251438413999
 30
0.0
 11
816.32118705919981
 21
-600.6251438413999
 31
0.0
  0
ENDBLK
  5
303
  8
0
  0
BLOCK
  8
0
  2
CLUMP3
 70
     0
 10
0.0
 20
0.0
 30
0.0
  3
CLUMP3
  1

  0
LINE
  5
307
  8
図枠
 10
963.82118705920004
 20
-563.1251438413999
 30
0.0
 11
963.82118705920004
 21
-550.6251438413999
 31
0.0
  0
LINE
  5
308
  8
図枠
 10
816.32118705919981
 20
-563.1251438413999
 30
0.0
 11
816.32118705919981
 21
-550.6251438413999
 31
0.0
  0
LINE
  5
309
  8
図枠
 10
838.82118705919981
 20
-563.1251438413999
 30
0.0
 11
838.82118705919981
 21
-550.6251438413999
 31
0.0
  0
LINE
  5
30A
  8
図枠
 10
1101.3211870591999
 20
-563.1251438413999
 30
0.0
 11
1101.3211870591999
 21
-550.6251438413999
 31
0.0
  0
LINE
  5
30B
  8
図枠
 10
1078.8211870591999
 20
-563.1251438413999
 30
0.0
 11
1078.8211870591999
 21
-550.6251438413999
 31
0.0
  0
LINE
  5
30C
  8
図枠
 10
1178.8211870591999
 20
-550.6251438413999
 30
0.0
 11
816.32118705919981
 21
-550.6251438413999
 31
0.0
  0
ENDBLK
  5
30D
  8
0
  0
BLOCK
  8
0
  2
CLUMP4
 70
     0
 10
0.0
 20
0.0
 30
0.0
  3
CLUMP4
  1

  0
LINE
  5
311
  8
図枠
 10
963.82118705920004
 20
-588.1251438413999
 30
0.0
 11
963.82118705920004
 21
-575.6251438413999
 31
0.0
  0
LINE
  5
312
  8
図枠
 10
816.32118705919981
 20
-588.1251438413999
 30
0.0
 11
816.32118705919981
 21
-575.6251438413999
 31
0.0
  0
LINE
  5
313
  8
図枠
 10
838.82118705919981
 20
-588.1251438413999
 30
0.0
 11
838.82118705919981
 21
-575.6251438413999
 31
0.0
  0
LINE
  5
314
  8
図枠
 10
1101.3211870591999
 20
-588.1251438413999
 30
0.0
 11
1101.3211870591999
 21
-575.6251438413999
 31
0.0
  0
LINE
  5
315
  8
図枠
 10
1078.8211870591999
 20
-588.1251438413999
 30
0.0
 11
1078.8211870591999
 21
-575.6251438413999
 31
0.0
  0
LINE
  5
316
  8
図枠
 10
1178.8211870591999
 20
-575.6251438413999
 30
0.0
 11
816.32118705919981
 21
-575.6251438413999
 31
0.0
  0
ENDBLK
  5
317
  8
0
  0
BLOCK
  8
0
  2
CLUMP5
 70
     0
 10
0.0
 20
0.0
 30
0.0
  3
CLUMP5
  1

  0
LINE
  5
31B
  8
図枠
 10
963.82118705920004
 20
-575.6251438413999
 30
0.0
 11
963.82118705920004
 21
-563.1251438413999
 31
0.0
  0
LINE
  5
31C
  8
図枠
 10
816.32118705919981
 20
-575.6251438413999
 30
0.0
 11
816.32118705919981
 21
-563.1251438413999
 31
0.0
  0
LINE
  5
31D
  8
図枠
 10
838.82118705919981
 20
-575.6251438413999
 30
0.0
 11
838.82118705919981
 21
-563.1251438413999
 31
0.0
  0
LINE
  5
31E
  8
図枠
 10
1101.3211870591999
 20
-575.6251438413999
 30
0.0
 11
1101.3211870591999
 21
-563.1251438413999
 31
0.0
  0
LINE
  5
31F
  8
図枠
 10
1078.8211870591999
 20
-575.6251438413999
 30
0.0
 11
1078.8211870591999
 21
-563.1251438413999
 31
0.0
  0
LINE
  5
320
  8
図枠
 10
1178.8211870591999
 20
-563.1251438413999
 30
0.0
 11
816.32118705919981
 21
-563.1251438413999
 31
0.0
  0
ENDBLK
  5
321
  8
0
  0
BLOCK
  8
0
  2
CLUMP6
 70
     0
 10
0.0
 20
0.0
 30
0.0
  3
CLUMP6
  1

  0
LINE
  5
325
  8
図枠
 10
963.82118705920004
 20
-600.6251438413999
 30
0.0
 11
963.82118705920004
 21
-588.1251438413999
 31
0.0
  0
LINE
  5
326
  8
図枠
 10
816.32118705919981
 20
-600.6251438413999
 30
0.0
 11
816.32118705919981
 21
-588.1251438413999
 31
0.0
  0
LINE
  5
327
  8
図枠
 10
838.82118705919981
 20
-600.6251438413999
 30
0.0
 11
838.82118705919981
 21
-588.1251438413999
 31
0.0
  0
LINE
  5
328
  8
図枠
 10
1101.3211870591999
 20
-600.6251438413999
 30
0.0
 11
1101.3211870591999
 21
-588.1251438413999
 31
0.0
  0
LINE
  5
329
  8
図枠
 10
1078.8211870591999
 20
-600.6251438413999
 30
0.0
 11
1078.8211870591999
 21
-588.1251438413999
 31
0.0
  0
LINE
  5
32A
  8
図枠
 10
1178.8211870591999
 20
-588.1251438413999
 30
0.0
 11
816.32118705919981
 21
-588.1251438413999
 31
0.0
  0
ENDBLK
  5
32B
  8
0
  0
BLOCK
  8
0
  2
*D24
 70
     1
 10
0.0
 20
0.0
 30
0.0
  3
*D24
  1

  0
TEXT
  5
340
  8
0
 62
     0
 10
592.03949475010006
 20
-190.54267884469999
 30
0.0
 40
7.4965279578999988
  1
950
 50
90.0
  0
LINE
  5
341
  8
0
 62
     0
 10
648.60824579910002
 20
-5.8684080359999991
 30
0.0
 11
593.86241144849998
 21
-5.8684080359999991
 31
0.0
  0
LINE
  5
342
  8
0
 62
     0
 10
648.60824579910002
 20
-351.86840803600001
 30
0.0
 11
593.86241144849998
 21
-351.86840803600001
 31
0.0
  0
LINE
  5
343
  8
0
 62
     0
 10
594.36241144849987
 20
-5.8684080359999991
 30
0.0
 11
594.36241144849987
 21
-172.9037895319
 31
0.0
  0
LINE
  5
344
  8
0
 62
     0
 10
594.36241144849987
 20
-5.8684080359999991
 30
0.0
 11
594.36241144849987
 21
-194.95240117290001
 31
0.0
  0
LINE
  5
345
  8
0
 62
     0
 10
594.36241144849987
 20
-351.86840803600001
 30
0.0
 11
594.36241144849987
 21
-172.9037895319
 31
0.0
  0
LINE
  5
346
  8
0
 62
     0
 10
594.36241144849987
 20
-351.86840803600001
 30
0.0
 11
594.36241144849987
 21
-194.95240117290001
 31
0.0
  0
LINE
  5
347
  8
0
 62
     0
 10
594.36241144849987
 20
-351.86840803600001
 30
0.0
 11
594.36241144849987
 21
-348.86840803600001
 31
0.0
  0
SOLID
  5
348
  8
0
 62
     0
 10
594.36241144849987
 20
-351.86840803600001
 30
0.0
 11
592.48741144849998
 21
-344.36840803600001
 31
0.0
 12
596.23741144849987
 22
-344.36840803600001
 32
0.0
 13
594.36241144849987
 23
-346.24340803600001
 33
0.0
  0
LINE
  5
349
  8
0
 62
     0
 10
594.36241144849987
 20
-5.8684080359999991
 30
0.0
 11
594.36241144849987
 21
-8.8684080359999982
 31
0.0
  0
SOLID
  5
34A
  8
0
 62
     0
 10
594.36241144849987
 20
-5.8684080359999991
 30
0.0
 11
596.23741144849987
 21
-13.368408036
 31
0.0
 12
592.48741144849998
 22
-13.368408036
 32
0.0
 13
594.36241144849987
 23
-11.493408036
 33
0.0
  0
ENDBLK
  5
34B
  8
0
  0
BLOCK
  8
0
  2
*D25
 70
     1
 10
0.0
 20
0.0
 30
0.0
  3
*D25
  1

  0
TEXT
  5
34F
  8
0
 62
     0
 10
559.8563328237999
 20
-216.83539517720001
 30
0.0
 40
7.4965279578999988
  1
1200
 50
90.0
  0
LINE
  5
350
  8
0
 62
     0
 10
637.04887079909997
 20
44.131591963999988
 30
0.0
 11
561.67924952220005
 21
44.131591963999988
 31
0.0
  0
LINE
  5
351
  8
0
 62
     0
 10
637.04887079909997
 20
-451.86840803599989
 30
0.0
 11
561.67924952220005
 21
-451.86840803599989
 31
0.0
  0
LINE
  5
352
  8
0
 62
     0
 10
562.17924952220005
 20
44.131591963999988
 30
0.0
 11
562.17924952220005
 21
-194.78678353629999
 31
0.0
  0
LINE
  5
353
  8
0
 62
     0
 10
562.17924952220005
 20
44.131591963999988
 30
0.0
 11
562.17924952220005
 21
-221.2451175054
 31
0.0
  0
LINE
  5
354
  8
0
 62
     0
 10
562.17924952220005
 20
-451.86840803599989
 30
0.0
 11
562.17924952220005
 21
-194.78678353629999
 31
0.0
  0
LINE
  5
355
  8
0
 62
     0
 10
562.17924952220005
 20
-451.86840803599989
 30
0.0
 11
562.17924952220005
 21
-221.2451175054
 31
0.0
  0
LINE
  5
356
  8
0
 62
     0
 10
562.17924952220005
 20
-451.86840803599989
 30
0.0
 11
562.17924952220005
 21
-448.86840803600001
 31
0.0
  0
SOLID
  5
357
  8
0
 62
     0
 10
562.17924952220005
 20
-451.86840803599989
 30
0.0
 11
560.30424952220005
 21
-444.36840803599989
 31
0.0
 12
564.05424952220005
 22
-444.36840803599989
 32
0.0
 13
562.17924952220005
 23
-446.24340803600001
 33
0.0
  0
LINE
  5
358
  8
0
 62
     0
 10
562.17924952220005
 20
44.131591963999988
 30
0.0
 11
562.17924952220005
 21
41.131591964000002
 31
0.0
  0
SOLID
  5
359
  8
0
 62
     0
 10
562.17924952220005
 20
44.131591963999988
 30
0.0
 11
564.05424952220005
 21
36.631591964000002
 31
0.0
 12
560.30424952220005
 22
36.631591964000002
 32
0.0
 13
562.17924952220005
 23
38.506591964000002
 33
0.0
  0
ENDBLK
  5
35A
  8
0
  0
BLOCK
  8
0
  2
*X26
 70
     1
 10
0.0
 20
0.0
 30
0.0
  3
*X26
  1

  0
LINE
  5
36E
  8
ﾚｲﾔ_1
 10
1060.0
 20
-331.96639252710003
 30
0.0
 11
1060.0
 21
-141.8798039854
 31
0.0
  0
LINE
  5
36F
  8
ﾚｲﾔ_1
 10
1070.0
 20
-331.96639252710003
 30
0.0
 11
1070.0
 21
-141.8798039854
 31
0.0
  0
LINE
  5
370
  8
ﾚｲﾔ_1
 10
1055.4732197574001
 20
-144.54919531580001
 30
0.0
 11
1058.1426110878999
 21
-141.8798039854
 31
0.0
  0
LINE
  5
371
  8
ﾚｲﾔ_1
 10
1055.4732197574001
 20
-164.5495689004
 30
0.0
 11
1072.2732197574001
 21
-147.74956890039999
 31
0.0
  0
LINE
  5
372
  8
ﾚｲﾔ_1
 10
1055.4732197574001
 20
-184.549942485
 30
0.0
 11
1072.2732197574001
 21
-167.74994248499999
 31
0.0
  0
LINE
  5
373
  8
ﾚｲﾔ_1
 10
1055.4732197574001
 20
-204.55031606950001
 30
0.0
 11
1072.2732197574001
 21
-187.7503160695
 31
0.0
  0
LINE
  5
374
  8
ﾚｲﾔ_1
 10
1055.4732197574001
 20
-224.55068965410001
 30
0.0
 11
1072.2732197574001
 21
-207.7506896541
 31
0.0
  0
LINE
  5
375
  8
ﾚｲﾔ_1
 10
1055.4732197574001
 20
-244.55106323859999
 30
0.0
 11
1072.2732197574001
 21
-227.75106323860001
 31
0.0
  0
LINE
  5
376
  8
ﾚｲﾔ_1
 10
1055.4732197574001
 20
-264.55143682319999
 30
0.0
 11
1072.2732197574001
 21
-247.75143682320001
 31
0.0
  0
LINE
  5
377
  8
ﾚｲﾔ_1
 10
1055.4732197574001
 20
-284.55181040770009
 30
0.0
 11
1072.2732197574001
 21
-267.75181040770002
 31
0.0
  0
LINE
  5
378
  8
ﾚｲﾔ_1
 10
1055.4732197574001
 20
-304.5521839923
 30
0.0
 11
1072.2732197574001
 21
-287.75218399229999
 31
0.0
  0
LINE
  5
379
  8
ﾚｲﾔ_1
 10
1055.4732197574001
 20
-324.55255757679998
 30
0.0
 11
1072.2732197574001
 21
-307.75255757679997
 31
0.0
  0
LINE
  5
37A
  8
ﾚｲﾔ_1
 10
1068.0597583918
 20
-331.96639252710003
 30
0.0
 11
1072.2732197574001
 21
-327.7529311614
 31
0.0
  0
LINE
  5
37B
  8
ﾚｲﾔ_1
 10
1071.9802151556
 20
-331.96639252710003
 30
0.0
 11
1055.4732197574001
 21
-315.45939712889998
 31
0.0
  0
LINE
  5
37C
  8
ﾚｲﾔ_1
 10
1072.2732197574001
 20
-312.25902354440001
 30
0.0
 11
1055.4732197574001
 21
-295.4590235444
 31
0.0
  0
LINE
  5
37D
  8
ﾚｲﾔ_1
 10
1072.2732197574001
 20
-292.25864995979998
 30
0.0
 11
1055.4732197574001
 21
-275.45864995980003
 31
0.0
  0
LINE
  5
37E
  8
ﾚｲﾔ_1
 10
1072.2732197574001
 20
-272.25827637520001
 30
0.0
 11
1055.4732197574001
 21
-255.4582763752
 31
0.0
  0
LINE
  5
37F
  8
ﾚｲﾔ_1
 10
1072.2732197574001
 20
-252.2579027907
 30
0.0
 11
1055.4732197574001
 21
-235.45790279069999
 31
0.0
  0
LINE
  5
380
  8
ﾚｲﾔ_1
 10
1072.2732197574001
 20
-232.2575292061
 30
0.0
 11
1055.4732197574001
 21
-215.45752920609999
 31
0.0
  0
LINE
  5
381
  8
ﾚｲﾔ_1
 10
1072.2732197574001
 20
-212.25715562159999
 30
0.0
 11
1055.4732197574001
 21
-195.45715562160001
 31
0.0
  0
LINE
  5
382
  8
ﾚｲﾔ_1
 10
1072.2732197574001
 20
-192.25678203699999
 30
0.0
 11
1055.4732197574001
 21
-175.45678203700001
 31
0.0
  0
LINE
  5
383
  8
ﾚｲﾔ_1
 10
1072.2732197574001
 20
-172.25640845250001
 30
0.0
 11
1055.4732197574001
 21
-155.4564084525
 31
0.0
  0
LINE
  5
384
  8
ﾚｲﾔ_1
 10
1072.2732197574001
 20
-152.25603486790001
 30
0.0
 11
1061.8969888749
 21
-141.8798039854
 31
0.0
  0
ENDBLK
  5
385
  8
0
  0
BLOCK
  8
0
  2
*U27
 70
     1
 10
0.0
 20
0.0
 30
0.0
  3
*U27
  1

  0
TEXT
  5
3B8
  8
図枠
  6
CONTINUOUS
 10
951.36352904417686
 20
257.05743374970001
 30
0.0
 40
6.7468748986999989
  1
1
  0
ENDBLK
  5
3BA
  8
0
  0
BLOCK
  8
0
  2
*U28
 70
     1
 10
0.0
 20
0.0
 30
0.0
  3
*U28
  1

  0
TEXT
  5
3BC
  8
図枠
  6
CONTINUOUS
 10
966.33753408566508
 20
257.8404812599
 30
0.0
 40
6.7468748986999989
  1
H19.3.13
  0
ENDBLK
  5
3BE
  8
0
  0
BLOCK
  8
0
  2
*U29
 70
     1
 10
0.0
 20
0.0
 30
0.0
  3
*U29
  1

  0
TEXT
  5
3C0
  8
図枠
  6
CONTINUOUS
 10
1158.1016440354031
 20
257.6692407802376
 30
0.0
 40
6.7468748986999989
  1
園原
  0
ENDBLK
  5
3C2
  8
0
  0
BLOCK
  8
0
  2
*U30
 70
     1
 10
0.0
 20
0.0
 30
0.0
  3
*U30
  1

  0
TEXT
  5
3C4
  8
図枠
  6
CONTINUOUS
 10
1137.4854003147609
 20
257.39525601277768
 30
0.0
 40
6.7468748986999989
  1
湊
  0
ENDBLK
  5
3C6
  8
0
  0
BLOCK
  8
0
  2
*U31
 70
     1
 10
0.0
 20
0.0
 30
0.0
  3
*U31
  1

  0
TEXT
  5
3C8
  8
図枠
  6
CONTINUOUS
 10
1153.717887756045
 20
269.96375220464267
 30
0.0
 40
6.7468748986999989
  1
検認者
  0
ENDBLK
  5
3CA
  8
0
  0
BLOCK
  8
0
  2
*U32
 70
     1
 10
0.0
 20
0.0
 30
0.0
  3
*U32
  1

  0
TEXT
  5
3CC
  8
図枠
  6
CONTINUOUS
 10
1128.8206320438419
 20
269.9980003005752
 30
0.0
 40
6.7468748986999989
  1
改訂者
  0
ENDBLK
  5
3CE
  8
0
  0
BLOCK
  8
0
  2
*U33
 70
     1
 10
0.0
 20
0.0
 30
0.0
  3
*U33
  1

  0
TEXT
  5
3D0
  8
図枠
  6
CONTINUOUS
 10
970.96102703655095
 20
270.06649649244008
 30
0.0
 40
6.7468748986999989
  1
改訂日
  0
ENDBLK
  5
3D2
  8
0
  0
BLOCK
  8
0
  2
*U34
 70
     1
 10
0.0
 20
0.0
 30
0.0
  3
*U34
  1

  0
TEXT
  5
3D4
  8
図枠
  6
CONTINUOUS
 10
945.37903141184177
 20
270.13499268430508
 30
0.0
 40
6.7468748986999989
  1
副番
  0
ENDBLK
  5
3D6
  8
0
  0
BLOCK
  8
0
  2
*U35
 70
     1
 10
0.0
 20
0.0
 30
0.0
  3
*U35
  1

  0
TEXT
  5
3D8
  8
図枠
  6
CONTINUOUS
 10
1036.1486145426779
 20
269.9980003005752
 30
0.0
 40
6.7468748986999989
  1
改　訂　内　容
  0
ENDBLK
  5
3DA
  8
0
  0
BLOCK
  8
0
  2
*U36
 70
     1
 10
0.0
 20
0.0
 30
0.0
  3
*U36
  1

  0
TEXT
  5
3DC
  8
図枠
  6
CONTINUOUS
 10
1011.729722142815
 20
257.46375220464267
 30
0.0
 40
6.7468748986999989
  1
本体板厚変更 1.0ｔ⇒0.8ｔ
  0
ENDBLK
  5
3DE
  8
0
  0
BLOCK
  8
0
  2
*U37
 70
     1
 10
0.0
 20
0.0
 30
0.0
  3
*U37
  1

  0
TEXT
  5
3E0
  8
ﾚｲﾔ_1
  6
CONTINUOUS
 10
989.40758473051471
 20
-42.543143119699991
 30
0.0
 40
7.4965279578999988
  1
4
  0
ENDBLK
  5
3E2
  8
0
  0
BLOCK
  8
0
  2
*U38
 70
     1
 10
0.0
 20
0.0
 30
0.0
  3
*U38
  1

  0
TEXT
  5
3E4
  8
ﾚｲﾔ_1
  6
CONTINUOUS
 10
989.25537096487187
 20
7.7244796050999991
 30
0.0
 40
7.4965279578999988
  1
2
  0
ENDBLK
  5
3E6
  8
0
  0
BLOCK
  8
0
  2
*U39
 70
     1
 10
0.0
 20
0.0
 30
0.0
  3
*U39
  1

  0
TEXT
  5
3E8
  8
ﾚｲﾔ_1
  6
CONTINUOUS
 10
989.17926408205085
 20
-120.81042387700001
 30
0.0
 40
7.4965279578999988
  1
6
  0
ENDBLK
  5
3EA
  8
0
  0
BLOCK
  8
0
  2
*U40
 70
     1
 10
0.0
 20
0.0
 30
0.0
  3
*U40
  1

  0
TEXT
  5
3EC
  8
ﾚｲﾔ_1
  6
CONTINUOUS
 10
989.29342440628272
 20
-207.57648453979999
 30
0.0
 40
7.4965279578999988
  1
5
  0
ENDBLK
  5
3EE
  8
0
  0
BLOCK
  8
0
  2
*U41
 70
     1
 10
0.0
 20
0.0
 30
0.0
  3
*U41
  1

  0
TEXT
  5
3F0
  8
ﾚｲﾔ_1
  6
CONTINUOUS
 10
744.94650806330003
 20
-80.380128072699975
 30
0.0
 40
7.4965279578999988
  1
１３Ａ
  0
ENDBLK
  5
3F2
  8
0
  0
BLOCK
  8
0
  2
*U42
 70
     1
 10
0.0
 20
0.0
 30
0.0
  3
*U42
  1

  0
TEXT
  5
3F4
  8
ﾚｲﾔ_1
  6
CONTINUOUS
 10
729.07628118387197
 20
-65.520639532349236
 30
0.0
 40
7.4965279578999988
  1
2-ＲＰ1/2ネジ
  0
ENDBLK
  5
3F6
  8
0
  0
BLOCK
  8
0
  2
*U43
 70
     1
 10
0.0
 20
0.0
 30
0.0
  3
*U43
  1

  0
TEXT
  5
3F8
  8
図枠
  6
CONTINUOUS
 10
1080.6910142586109
 20
-635.34220578753309
 30
0.0
 40
7.496527552599999
  1
数量
  0
ENDBLK
  5
3FA
  8
0
  0
BLOCK
  8
0
  2
*U44
 70
     1
 10
0.0
 20
0.0
 30
0.0
  3
*U44
  1

  0
TEXT
  5
3FC
  8
図枠
  6
CONTINUOUS
 10
1088.307410118676
 20
-596.71201874010001
 30
0.0
 40
6.7468748986999989
  1
1
  0
ENDBLK
  5
3FE
  8
0
  0
BLOCK
  8
0
  2
*U45
 70
     1
 10
0.0
 20
0.0
 30
0.0
  3
*U45
  1

  0
TEXT
  5
400
  8
図枠
  6
CONTINUOUS
 10
1087.9135570154531
 20
-584.21201874010001
 30
0.0
 40
6.7468748986999989
  1
2
  0
ENDBLK
  5
402
  8
0
  0
BLOCK
  8
0
  2
*U46
 70
     1
 10
0.0
 20
0.0
 30
0.0
  3
*U46
  1

  0
TEXT
  5
404
  8
図枠
  6
CONTINUOUS
 10
1004.627254180419
 20
-647.50220578753294
 30
0.0
 40
7.496527552599999
  1
製品名
  0
ENDBLK
  5
406
  8
0
  0
BLOCK
  8
0
  2
*U47
 70
     1
 10
0.0
 20
0.0
 30
0.0
  3
*U47
  1

  0
TEXT
  5
408
  8
図枠
  6
CONTINUOUS
 10
1004.836548096862
 20
-674.92609890882625
 30
0.0
 40
7.496527552599999
  1
図面名
  0
ENDBLK
  5
40A
  8
0
  0
BLOCK
  8
0
  2
*U48
 70
     1
 10
0.0
 20
0.0
 30
0.0
  3
*U48
  1

  0
TEXT
  5
40C
  8
図枠
  6
CONTINUOUS
 10
1007.2339147761199
 20
-702.34999203011978
 30
0.0
 40
7.496527552599999
  1
図 番
  0
ENDBLK
  5
40E
  8
0
  0
BLOCK
  8
0
  2
*U49
 70
     1
 10
0.0
 20
0.0
 30
0.0
  3
*U49
  1

  0
TEXT
  5
410
  8
図枠
  6
CONTINUOUS
 10
1089.060147357327
 20
-656.08203209004967
 30
0.0
 40
8.9958328605000002
  1
水栓柱
  0
ENDBLK
  5
412
  8
0
  0
BLOCK
  8
0
  2
*U50
 70
     1
 10
0.0
 20
0.0
 30
0.0
  3
*U50
  1

  0
TEXT
  5
414
  8
図枠
  6
CONTINUOUS
 10
1060.8168853054519
 20
-710.57972670189986
 30
0.0
 40
8.9958328605000002
  1
ＳＢＰ０００２７
  0
ENDBLK
  5
416
  8
0
  0
BLOCK
  8
0
  2
*U51
 70
     1
 10
0.0
 20
0.0
 30
0.0
  3
*U51
  1

  0
TEXT
  5
418
  8
図枠
  6
CONTINUOUS
 10
1043.487349414286
 20
-683.26238320668176
 30
0.0
 40
8.9958328605000002
  1
ＷＰ７-１２０Ｈ 承認図
  0
ENDBLK
  5
41A
  8
0
  0
BLOCK
  8
0
  2
*U52
 70
     1
 10
0.0
 20
0.0
 30
0.0
  3
*U52
  1

  0
TEXT
  5
41C
  8
ﾚｲﾔ_1
  6
CONTINUOUS
 10
989.40758473051471
 20
-380.02561783430002
 30
0.0
 40
7.4965279578999988
  1
4
  0
ENDBLK
  5
41E
  8
0
  0
BLOCK
  8
0
  2
*U53
 70
     1
 10
0.0
 20
0.0
 30
0.0
  3
*U53
  1

  0
TEXT
  5
420
  8
ﾚｲﾔ_1
  6
CONTINUOUS
 10
988.76067622653329
 20
-293.9187171251001
 30
0.0
 40
7.4965279578999988
  1
1
  0
ENDBLK
  5
422
  8
0
  0
BLOCK
  8
0
  2
*U54
 70
     1
 10
0.0
 20
0.0
 30
0.0
  3
*U54
  1

  0
TEXT
  5
424
  8
ﾚｲﾔ_1
  6
CONTINUOUS
 10
989.29342440628272
 20
-471.32790804569998
 30
0.0
 40
7.4965279578999988
  1
3
  0
ENDBLK
  5
426
  8
0
  0
BLOCK
  8
0
  2
*U55
 70
     1
 10
0.0
 20
0.0
 30
0.0
  3
*U55
  1

  0
TEXT
  5
428
  8
図枠
  6
CONTINUOUS
 10
1088.307410118676
 20
-621.71201874010001
 30
0.0
 40
6.7468748986999989
  1
1
  0
ENDBLK
  5
42A
  8
0
  0
BLOCK
  8
0
  2
*U56
 70
     1
 10
0.0
 20
0.0
 30
0.0
  3
*U56
  1

  0
TEXT
  5
42C
  8
図枠
  6
CONTINUOUS
 10
1088.307410118676
 20
-609.21201874010001
 30
0.0
 40
6.7468748986999989
  1
1
  0
ENDBLK
  5
42E
  8
0
  0
BLOCK
  8
0
  2
*U57
 70
     1
 10
0.0
 20
0.0
 30
0.0
  3
*U57
  1

  0
TEXT
  5
430
  8
図枠
  6
CONTINUOUS
 10
1088.307410118676
 20
-571.71201874010001
 30
0.0
 40
6.7468748986999989
  1
1
  0
ENDBLK
  5
432
  8
0
  0
BLOCK
  8
0
  2
*U58
 70
     1
 10
0.0
 20
0.0
 30
0.0
  3
*U58
  1

  0
TEXT
  5
434
  8
図枠
  6
CONTINUOUS
 10
1088.307410118676
 20
-559.21201874010001
 30
0.0
 40
6.7468748986999989
  1
1
  0
ENDBLK
  5
436
  8
0
  0
BLOCK
  8
0
  2
*U59
 70
     1
 10
0.0
 20
0.0
 30
0.0
  3
*U59
  1

  0
TEXT
  5
438
  8
図枠
  6
CONTINUOUS
 10
1116.9727493717471
 20
-635.45636610559279
 30
0.0
 40
7.496527552599999
  1
備　　　考
  0
ENDBLK
  5
43A
  8
0
  0
BLOCK
  8
0
  2
*U60
 70
     1
 10
0.0
 20
0.0
 30
0.0
  3
*U60
  1

  0
TEXT
  5
43C
  8
図枠
  6
CONTINUOUS
 10
891.02544066287362
 20
-648.52629776183289
 30
0.0
 40
7.496527552599999
  1
尺　　度
  0
ENDBLK
  5
43E
  8
0
  0
BLOCK
  8
0
  2
*U61
 70
     1
 10
0.0
 20
0.0
 30
0.0
  3
*U61
  1

  0
TEXT
  5
440
  8
図枠
  6
CONTINUOUS
 10
910.07118705919981
 20
-689.81435120118624
 30
0.0
 40
7.496527552599999
  1
 検図
  0
ENDBLK
  5
442
  8
0
  0
BLOCK
  8
0
  2
*U62
 70
     1
 10
0.0
 20
0.0
 30
0.0
  3
*U62
  1

  0
TEXT
  5
444
  8
図枠
  6
CONTINUOUS
 10
910.07118705919981
 20
-675.98824432247955
 30
0.0
 40
7.496527552599999
  1
 照査
  0
ENDBLK
  5
446
  8
0
  0
BLOCK
  8
0
  2
*U63
 70
     1
 10
0.0
 20
0.0
 30
0.0
  3
*U63
  1

  0
TEXT
  5
448
  8
図枠
  6
CONTINUOUS
 10
986.33675706416398
 20
-596.71201874010001
 30
0.0
 40
6.7468748986999989
  1
SUS304  HL  0.8t
  0
ENDBLK
  5
44A
  8
0
  0
BLOCK
  8
0
  2
*U64
 70
     1
 10
0.0
 20
0.0
 30
0.0
  3
*U64
  1

  0
TEXT
  5
44C
  8
図枠
  6
CONTINUOUS
 10
987.38132399010499
 20
-572.43122875468225
 30
0.0
 40
6.7468748986999989
  1
ＨＩ  ＶＰパイプ
  0
ENDBLK
  5
44E
  8
0
  0
BLOCK
  8
0
  2
*U65
 70
     1
 10
0.0
 20
0.0
 30
0.0
  3
*U65
  1

  0
TEXT
  5
450
  8
図枠
  6
CONTINUOUS
 10
960.42807249123734
 20
-584.79423637095226
 30
0.0
 40
6.7468748986999989
  1
金属インサ－ト    ＨＩエルボ
  0
ENDBLK
  5
452
  8
0
  0
BLOCK
  8
0
  2
*U66
 70
     1
 10
0.0
 20
0.0
 30
0.0
  3
*U66
  1

  0
TEXT
  5
454
  8
図枠
  6
CONTINUOUS
 10
986.33675706416398
 20
-609.21201874010001
 30
0.0
 40
6.7468748986999989
  1
SUS304  HL  0.8t
  0
ENDBLK
  5
456
  8
0
  0
BLOCK
  8
0
  2
*U67
 70
     1
 10
0.0
 20
0.0
 30
0.0
  3
*U67
  1

  0
TEXT
  5
458
  8
図枠
  6
CONTINUOUS
 10
997.32849354694474
 20
-635.22804546947316
 30
0.0
 40
7.496527552599999
  1
材　　　質
  0
ENDBLK
  5
45A
  8
0
  0
BLOCK
  8
0
  2
*U68
 70
     1
 10
0.0
 20
0.0
 30
0.0
  3
*U68
  1

  0
TEXT
  5
45C
  8
図枠
  6
CONTINUOUS
 10
986.33675706416398
 20
-621.71201874010001
 30
0.0
 40
6.7468748986999989
  1
SUS304  HL  0.8t
  0
ENDBLK
  5
45E
  8
0
  0
BLOCK
  8
0
  2
*U69
 70
     1
 10
0.0
 20
0.0
 30
0.0
  3
*U69
  1

  0
TEXT
  5
460
  8
図枠
  6
CONTINUOUS
 10
967.00370691027501
 20
-559.58874779535745
 30
0.0
 40
6.7468748986999989
  1
硬質膿R砲ウレタンフォ－ム
  0
ENDBLK
  5
462
  8
0
  0
BLOCK
  8
0
  2
*U70
 70
     1
 10
0.0
 20
0.0
 30
0.0
  3
*U70
  1

  0
TEXT
  5
464
  8
図枠
  6
CONTINUOUS
 10
957.8779414957969
 20
-675.83603056506649
 30
0.0
 40
7.496527552599999
  1
園 原
  0
ENDBLK
  5
466
  8
0
  0
BLOCK
  8
0
  2
*U71
 70
     1
 10
0.0
 20
0.0
 30
0.0
  3
*U71
  1

  0
TEXT
  5
468
  8
図枠
  6
CONTINUOUS
 10
957.8779414957969
 20
-689.58603056506638
 30
0.0
 40
7.496527552599999
  1
園 原
  0
ENDBLK
  5
46A
  8
0
  0
BLOCK
  8
0
  2
*U72
 70
     1
 10
0.0
 20
0.0
 30
0.0
  3
*U72
  1

  0
TEXT
  5
46C
  8
図枠
  6
CONTINUOUS
 10
898.36975445806036
 20
-662.33226956038629
 30
0.0
 40
7.496527552599999
  1
略 尺
  0
ENDBLK
  5
46E
  8
0
  0
BLOCK
  8
0
  2
*U73
 70
     1
 10
0.0
 20
0.0
 30
0.0
  3
*U73
  1

  0
TEXT
  5
470
  8
図枠
  6
CONTINUOUS
 10
825.41355701545308
 20
-609.21201874010001
 30
0.0
 40
6.7468748986999989
  1
2
  0
ENDBLK
  5
472
  8
0
  0
BLOCK
  8
0
  2
*U74
 70
     1
 10
0.0
 20
0.0
 30
0.0
  3
*U74
  1

  0
TEXT
  5
474
  8
図枠
  6
CONTINUOUS
 10
816.32118705919981
 20
-689.77629776183301
 30
0.0
 40
7.496527552599999
  1
 製図
  0
ENDBLK
  5
476
  8
0
  0
BLOCK
  8
0
  2
*U75
 70
     1
 10
0.0
 20
0.0
 30
0.0
  3
*U75
  1

  0
TEXT
  5
478
  8
図枠
  6
CONTINUOUS
 10
816.32118705919981
 20
-675.9501908831262
 30
0.0
 40
7.496527552599999
  1
 設計
  0
ENDBLK
  5
47A
  8
0
  0
BLOCK
  8
0
  2
*U76
 70
     1
 10
0.0
 20
0.0
 30
0.0
  3
*U76
  1

  0
TEXT
  5
47C
  8
図枠
  6
CONTINUOUS
 10
825.39643296748704
 20
-584.21201874010001
 30
0.0
 40
6.7468748986999989
  1
4
  0
ENDBLK
  5
47E
  8
0
  0
BLOCK
  8
0
  2
*U77
 70
     1
 10
0.0
 20
0.0
 30
0.0
  3
*U77
  1

  0
TEXT
  5
480
  8
図枠
  6
CONTINUOUS
 10
872.85593952547799
 20
-623.87185141029988
 30
0.0
 40
7.1578947901999994
  1
1
  0
ENDBLK
  5
482
  8
0
  0
BLOCK
  8
0
  2
*U78
 70
     1
 10
0.0
 20
0.0
 30
0.0
  3
*U78
  1

  0
TEXT
  5
484
  8
図枠
  6
CONTINUOUS
 10
818.438361614408
 20
-635.18999203011981
 30
0.0
 40
7.496527552599999
  1
品番
  0
ENDBLK
  5
486
  8
0
  0
BLOCK
  8
0
  2
*U79
 70
     1
 10
0.0
 20
0.0
 30
0.0
  3
*U79
  1

  0
TEXT
  5
488
  8
図枠
  6
CONTINUOUS
 10
825.37930891952067
 20
-559.21201874010001
 30
0.0
 40
6.7468748986999989
  1
6
  0
ENDBLK
  5
48A
  8
0
  0
BLOCK
  8
0
  2
*U80
 70
     1
 10
0.0
 20
0.0
 30
0.0
  3
*U80
  1

  0
TEXT
  5
48C
  8
図枠
  6
CONTINUOUS
 10
825.80741011867667
 20
-621.71201874010001
 30
0.0
 40
6.7468748986999989
  1
1
  0
ENDBLK
  5
48E
  8
0
  0
BLOCK
  8
0
  2
*U81
 70
     1
 10
0.0
 20
0.0
 30
0.0
  3
*U81
  1

  0
TEXT
  5
490
  8
図枠
  6
CONTINUOUS
 10
825.44780511138561
 20
-596.71201874010001
 30
0.0
 40
6.7468748986999989
  1
3
  0
ENDBLK
  5
492
  8
0
  0
BLOCK
  8
0
  2
*U82
 70
     1
 10
0.0
 20
0.0
 30
0.0
  3
*U82
  1

  0
TEXT
  5
494
  8
図枠
  6
CONTINUOUS
 10
825.44780511138561
 20
-571.71201874010001
 30
0.0
 40
6.7468748986999989
  1
5
  0
ENDBLK
  5
496
  8
0
  0
BLOCK
  8
0
  2
*U83
 70
     1
 10
0.0
 20
0.0
 30
0.0
  3
*U83
  1

  0
TEXT
  5
498
  8
図枠
  6
CONTINUOUS
 10
829.32456288929268
 20
-648.29797712571315
 30
0.0
 40
7.496527552599999
  1
日　　付
  0
ENDBLK
  5
49A
  8
0
  0
BLOCK
  8
0
  2
*U84
 70
     1
 10
0.0
 20
0.0
 30
0.0
  3
*U84
  1

  0
TEXT
  5
49C
  8
図枠
  6
CONTINUOUS
 10
835.33700630711405
 20
-661.91368172750003
 30
0.0
 40
7.496527552599999
  1
H16.4
  0
ENDBLK
  5
49E
  8
0
  0
BLOCK
  8
0
  2
*U85
 70
     1
 10
0.0
 20
0.0
 30
0.0
  3
*U85
  1

  0
TEXT
  5
4A0
  8
図枠
  6
CONTINUOUS
 10
829.92077940110005
 20
-713.18526841590915
 30
0.0
 40
13.4937497973
  1
株式会社
  0
ENDBLK
  5
4A2
  8
0
  0
BLOCK
  8
0
  2
*U86
 70
     1
 10
0.0
 20
0.0
 30
0.0
  3
*U86
  1

  0
TEXT
  5
4A4
  8
ﾚｲﾔ_1
  6
CONTINUOUS
 10
883.16354012229999
 20
-45.878150020200003
 30
0.0
 40
7.4965279578999988
  1
ＨＬ
 50
90.0
  0
ENDBLK
  5
4A6
  8
0
  0
BLOCK
  8
0
  2
*U87
 70
     1
 10
0.0
 20
0.0
 30
0.0
  3
*U87
  1

  0
TEXT
  5
4A8
  8
図枠
  6
CONTINUOUS
 10
889.65971039418798
 20
-559.52025160349228
 30
0.0
 40
6.7468748986999989
  1
断熱材
  0
ENDBLK
  5
4AA
  8
0
  0
BLOCK
  8
0
  2
*U88
 70
     1
 10
0.0
 20
0.0
 30
0.0
  3
*U88
  1

  0
TEXT
  5
4AC
  8
図枠
  6
CONTINUOUS
 10
888.35828274875348
 20
-584.58874779535745
 30
0.0
 40
6.7468748986999989
  1
給水口
  0
ENDBLK
  5
4AE
  8
0
  0
BLOCK
  8
0
  2
*U89
 70
     1
 10
0.0
 20
0.0
 30
0.0
  3
*U89
  1

  0
TEXT
  5
4B0
  8
図枠
  6
CONTINUOUS
 10
879.93325114936147
 20
-597.43122875468225
 30
0.0
 40
6.7468748986999989
  1
下キャップ
  0
ENDBLK
  5
4B2
  8
0
  0
BLOCK
  8
0
  2
*U90
 70
     1
 10
0.0
 20
0.0
 30
0.0
  3
*U90
  1

  0
TEXT
  5
4B4
  8
図枠
  6
CONTINUOUS
 10
879.89900305342906
 20
-609.93122875468225
 30
0.0
 40
6.7468748986999989
  1
上キャップ
  0
ENDBLK
  5
4B6
  8
0
  0
BLOCK
  8
0
  2
*U91
 70
     1
 10
0.0
 20
0.0
 30
0.0
  3
*U91
  1

  0
TEXT
  5
4B8
  8
図枠
  6
CONTINUOUS
 10
892.99889974760549
 20
-622.08874779535745
 30
0.0
 40
6.7468748986999989
  1
本体
  0
ENDBLK
  5
4BA
  8
0
  0
BLOCK
  8
0
  2
*U92
 70
     1
 10
0.0
 20
0.0
 30
0.0
  3
*U92
  1

  0
TEXT
  5
4BC
  8
図枠
  6
CONTINUOUS
 10
879.79625876563159
 20
-572.43122875468225
 30
0.0
 40
6.7468748986999989
  1
給水パイプ
  0
ENDBLK
  5
4BE
  8
0
  0
BLOCK
  8
0
  2
*U93
 70
     1
 10
0.0
 20
0.0
 30
0.0
  3
*U93
  1

  0
TEXT
  5
4C0
  8
図枠
  6
CONTINUOUS
 10
864.08988805644356
 20
-689.85240464053959
 30
0.0
 40
7.496527552599999
  1
岸 本
  0
ENDBLK
  5
4C2
  8
0
  0
BLOCK
  8
0
  2
*U94
 70
     1
 10
0.0
 20
0.0
 30
0.0
  3
*U94
  1

  0
TEXT
  5
4C4
  8
図枠
  6
CONTINUOUS
 10
861.84473513459875
 20
-676.06435120118624
 30
0.0
 40
7.496527552599999
  1
白須賀
  0
ENDBLK
  5
4C6
  8
0
  0
BLOCK
  8
0
  2
*U95
 70
     1
 10
0.0
 20
0.0
 30
0.0
  3
*U95
  1

  0
TEXT
  5
4C8
  8
図枠
  6
CONTINUOUS
 10
877.61389434209445
 20
-635.26609890882628
 30
0.0
 40
7.496527552599999
  1
品　　　名
  0
ENDBLK
  5
4CA
  8
0
  0
ENDSEC
  0
SECTION
  2
ENTITIES
  0
LINE
  5
2F
  8
ﾚｲﾔ_1
 62
     5
 10
1065.5933363455999
 20
43.131591964000002
 30
0.0
 11
1081.5933363455999
 21
47.031591963999993
 31
0.0
  0
LINE
  5
30
  8
ﾚｲﾔ_1
 62
     5
 10
1113.3531031693001
 20
43.131591964000002
 30
0.0
 11
1097.3531031693001
 21
47.031591963999993
 31
0.0
  0
LINE
  5
31
  8
ﾚｲﾔ_1
 62
     5
 10
1054.3732197574
 20
44.131591963999988
 30
0.0
 11
1065.4732197574001
 21
44.131591963999988
 31
0.0
  0
LINE
  5
32
  8
ﾚｲﾔ_1
 62
     5
 10
1113.4732197574001
 20
44.131591963999988
 30
0.0
 11
1097.4732197574001
 21
48.031591963999993
 31
0.0
  0
LINE
  5
33
  8
ﾚｲﾔ_1
 62
     5
 10
1065.4732197574001
 20
44.131591963999988
 30
0.0
 11
1081.4732197574001
 21
48.031591963999993
 31
0.0
  0
LINE
  5
34
  8
ﾚｲﾔ_1
 62
     5
 10
1081.4732197574001
 20
48.031591963999993
 30
0.0
 11
1097.4732197574001
 21
48.031591963999993
 31
0.0
  0
LINE
  5
35
  8
ﾚｲﾔ_1
 62
     5
 10
1113.4732197574001
 20
44.131591963999988
 30
0.0
 11
1124.5732197574
 21
44.131591963999988
 31
0.0
  0
LINE
  5
36
  8
ﾚｲﾔ_1
 62
     5
 10
1054.3732197574
 20
43.131591964000002
 30
0.0
 11
1124.5732197574
 21
43.131591964000002
 31
0.0
  0
INSERT
  5
38
  8
0
  6
CONTINUOUS
  2
*U27
 10
0.0
 20
0.0
 30
0.0
  0
INSERT
  5
39
  8
0
  6
CONTINUOUS
  2
*U28
 10
0.0
 20
0.0
 30
0.0
  0
INSERT
  5
3A
  8
0
  6
CONTINUOUS
  2
*U29
 10
0.0
 20
0.0
 30
0.0
  0
INSERT
  5
3B
  8
0
  6
CONTINUOUS
  2
*U30
 10
0.0
 20
0.0
 30
0.0
  0
LINE
  5
3C
  8
図枠
 62
     5
 10
1153.8211870591999
 20
241.87485615860001
 30
0.0
 11
1153.8211870591999
 21
279.37485615859998
 31
0.0
  0
LINE
  5
3D
  8
図枠
 62
     5
 10
1128.8211870591999
 20
241.87485615860001
 30
0.0
 11
1128.8211870591999
 21
279.37485615859998
 31
0.0
  0
INSERT
  5
3E
  8
0
  6
CONTINUOUS
  2
*U31
 10
0.0
 20
0.0
 30
0.0
  0
INSERT
  5
3F
  8
0
  6
CONTINUOUS
  2
*U32
 10
0.0
 20
0.0
 30
0.0
  0
LINE
  5
40
  8
図枠
 62
     5
 10
943.82118705919993
 20
241.87485615860001
 30
0.0
 11
943.82118705919993
 21
279.37485615859998
 31
0.0
  0
LINE
  5
41
  8
図枠
 62
     5
 10
1003.8211870592
 20
241.87485615860001
 30
0.0
 11
1003.8211870592
 21
279.37485615859998
 31
0.0
  0
LINE
  5
42
  8
図枠
 62
     5
 10
963.82118705920004
 20
241.87485615860001
 30
0.0
 11
963.82118705920004
 21
279.37485615859998
 31
0.0
  0
LINE
  5
43
  8
図枠
 62
     5
 10
946.92297359409997
 20
255.45183553609999
 30
0.0
 11
959.29797359409997
 21
255.45183553609999
 31
0.0
  0
LINE
  5
44
  8
図枠
 62
     5
 10
953.11047359410009
 20
266.16889990790003
 30
0.0
 11
959.29797359409997
 21
255.45183553609999
 31
0.0
  0
LINE
  5
45
  8
図枠
 62
     5
 10
953.11047359410009
 20
266.16889990790003
 30
0.0
 11
946.92297359409997
 21
255.45183553609999
 31
0.0
  0
LINE
  5
46
  8
図枠
 62
     5
 10
953.11047359410009
 20
253.7938999079
 30
0.0
 11
946.92297359409997
 21
243.07683553609999
 31
0.0
  0
LINE
  5
47
  8
図枠
 62
     5
 10
953.11047359410009
 20
253.7938999079
 30
0.0
 11
959.29797359409997
 21
243.07683553609999
 31
0.0
  0
LINE
  5
48
  8
図枠
 62
     5
 10
946.92297359409997
 20
243.07683553609999
 30
0.0
 11
959.29797359409997
 21
243.07683553609999
 31
0.0
  0
INSERT
  5
49
  8
0
  6
CONTINUOUS
  2
*U33
 10
0.0
 20
0.0
 30
0.0
  0
INSERT
  5
4A
  8
0
  6
CONTINUOUS
  2
*U34
 10
0.0
 20
0.0
 30
0.0
  0
INSERT
  5
4B
  8
0
  6
CONTINUOUS
  2
*U35
 10
0.0
 20
0.0
 30
0.0
  0
LINE
  5
4C
  8
図枠
 62
     5
 10
943.82118705919993
 20
266.87485615859998
 30
0.0
 11
1178.8211870591999
 21
266.87485615859998
 31
0.0
  0
LINE
  5
4D
  8
図枠
 62
     5
 10
943.82118705919993
 20
254.37485615860001
 30
0.0
 11
1178.8211870591999
 21
254.37485615860001
 31
0.0
  0
LINE
  5
4E
  8
図枠
 62
     5
 10
943.82118705919993
 20
241.87485615860001
 30
0.0
 11
1178.8211870591999
 21
241.87485615860001
 31
0.0
  0
LINE
  5
4F
  8
ﾚｲﾔ_1
 62
     5
 10
894.1909082697
 20
44.131591963999988
 30
0.0
 11
878.1909082697
 21
48.031591963999993
 31
0.0
  0
LINE
  5
50
  8
ﾚｲﾔ_1
 62
     5
 10
1081.5933363455999
 20
47.031591963999993
 30
0.0
 11
1097.3531031693001
 21
47.031591963999993
 31
0.0
  0
LINE
  5
51
  8
ﾚｲﾔ_1
 62
     5
 10
1056.2732197574001
 20
-13.368408036
 30
0.0
 11
1056.2732197574001
 21
9.6315919640000001
 31
0.0
  0
LINE
  5
52
  8
ﾚｲﾔ_1
 62
     5
 10
1054.2732197574001
 20
-13.368408036
 30
0.0
 11
1056.2732197574001
 21
-13.368408036
 31
0.0
  0
LINE
  5
53
  8
ﾚｲﾔ_1
 62
     5
 10
1077.2732197574001
 20
-13.368408036
 30
0.0
 11
1077.2732197574001
 21
-128.95077001519999
 31
0.0
  0
LINE
  5
54
  8
ﾚｲﾔ_1
 62
     5
 10
1055.4732197574001
 20
-16.868408036000002
 30
0.0
 11
1055.4732197574001
 21
-128.95077001519999
 31
0.0
  0
LINE
  5
55
  8
ﾚｲﾔ_1
 62
     5
 10
1069.7732197574001
 20
-11.868408035999989
 30
0.0
 11
1070.7732197574001
 21
-10.868408036
 31
0.0
  0
LINE
  5
56
  8
ﾚｲﾔ_1
 62
     5
 10
1056.2732197574001
 20
-11.868408035999989
 30
0.0
 11
1057.2732197574001
 21
-10.868408036
 31
0.0
  0
LINE
  5
57
  8
ﾚｲﾔ_1
 62
     5
 10
1069.7732197574001
 20
-11.868408035999989
 30
0.0
 11
1069.7732197574001
 21
8.1315919640000001
 31
0.0
  0
LINE
  5
58
  8
ﾚｲﾔ_1
 62
     5
 10
1054.4732197574001
 20
-16.868408036000002
 30
0.0
 11
1054.4732197574001
 21
-128.95077001519999
 31
0.0
  0
LINE
  5
59
  8
ﾚｲﾔ_1
 62
     5
 10
1091.2732197574001
 20
-13.368408036
 30
0.0
 11
1091.2732197574001
 21
-129.8223163804
 31
0.0
  0
LINE
  5
5A
  8
ﾚｲﾔ_1
 62
     5
 10
1091.7732197574001
 20
-13.368408036
 30
0.0
 11
1091.7732197574001
 21
-8.3684080359999982
 31
0.0
  0
LINE
  5
5B
  8
ﾚｲﾔ_1
 62
     5
 10
1124.4732197574001
 20
30.131591963999998
 30
0.0
 11
1124.4732197574001
 21
-128.95077001519999
 31
0.0
  0
LINE
  5
5C
  8
ﾚｲﾔ_1
 62
     5
 10
1075.2732197574001
 20
-13.368408036
 30
0.0
 11
1093.2732197574001
 21
-13.368408036
 31
0.0
  0
ARC
  5
5D
  8
ﾚｲﾔ_1
 62
     5
 10
1074.7732197574001
 20
-12.868408036
 30
0.0
 40
2.0
 50
0.0
 51
90.0
  0
LINE
  5
5E
  8
ﾚｲﾔ_1
  6
BORDER
 62
     3
 10
1080.9907938648
 20
-124.7255747027
 30
0.0
 11
1080.9907938648
 21
-128.95077001519999
 31
0.0
  0
LINE
  5
5F
  8
ﾚｲﾔ_1
  6
BORDER
 62
     3
 10
1080.9907938648
 20
-133.1759653277
 30
0.0
 11
1080.9907938648
 21
-137.4011606402
 31
0.0
  0
LINE
  5
60
  8
ﾚｲﾔ_1
  6
BORDER
 62
     3
 10
1098.4433399730001
 20
-128.95077001519999
 30
0.0
 11
1136.2476338199001
 21
-128.95077001519999
 31
0.0
  0
LINE
  5
61
  8
ﾚｲﾔ_1
 62
     5
 10
1076.7732197574001
 20
-13.368408036
 30
0.0
 11
1076.7732197574001
 21
-12.868408036
 31
0.0
  0
LINE
  5
62
  8
ﾚｲﾔ_1
 62
     5
 10
1075.2732197574001
 20
-40.368408035999991
 30
0.0
 11
1075.2732197574001
 21
-13.368408036
 31
0.0
  0
LINE
  5
63
  8
ﾚｲﾔ_1
 62
     5
 10
1093.2732197574001
 20
-40.368408035999991
 30
0.0
 11
1093.2732197574001
 21
-13.368408036
 31
0.0
  0
LINE
  5
64
  8
ﾚｲﾔ_1
 62
     5
 10
1058.4732197574001
 20
-16.868408036000002
 30
0.0
 11
1072.2732197574001
 21
-16.868408036000002
 31
0.0
  0
LINE
  5
65
  8
ﾚｲﾔ_1
  6
BORDER
 62
     3
 10
1098.4433399730001
 20
-141.62635595270001
 30
0.0
 11
1098.4433399730001
 21
-137.4011606402
 31
0.0
  0
LINE
  5
66
  8
ﾚｲﾔ_1
  6
BORDER
 62
     3
 10
1044.5695088199
 20
-128.95077001519999
 30
0.0
 11
1080.9907938648
 21
-128.95077001519999
 31
0.0
  0
LINE
  5
67
  8
ﾚｲﾔ_1
  6
BORDER
 62
     3
 10
1044.5695088199
 20
-137.4011606402
 30
0.0
 11
1080.9907938648
 21
-137.4011606402
 31
0.0
  0
LINE
  5
68
  8
ﾚｲﾔ_1
 62
     5
 10
1052.8732197574
 20
42.131591964000002
 30
0.0
 11
1126.0732197574
 21
42.131591964000002
 31
0.0
  0
INSERT
  5
69
  8
0
  6
CONTINUOUS
  2
*U36
 10
0.0
 20
0.0
 30
0.0
  0
LINE
  5
6A
  8
ﾚｲﾔ_1
 62
     5
 10
1124.4732197574001
 20
30.131591963999998
 30
0.0
 11
1124.5732197574
 21
30.131591963999998
 31
0.0
  0
ARC
  5
6B
  8
ﾚｲﾔ_1
 62
     5
 10
1076.2732197574001
 20
-9.5215154196
 30
0.0
 40
20.0
 50
0.0
 51
90.0
  0
LINE
  5
6C
  8
ﾚｲﾔ_1
 62
     5
 10
1058.4732197574001
 20
15.131591964
 30
0.0
 11
1058.4732197574001
 21
13.131591964
 31
0.0
  0
LINE
  5
6D
  8
ﾚｲﾔ_1
  6
BORDER
 62
     3
 10
1080.9907938648
 20
-124.7255747027
 30
0.0
 11
1098.4433399730001
 21
-133.1759653277
 31
0.0
  0
LINE
  5
6E
  8
ﾚｲﾔ_1
  6
BORDER
 62
     3
 10
1098.4433399730001
 20
-137.4011606402
 30
0.0
 11
1136.2476338199001
 21
-137.4011606402
 31
0.0
  0
LINE
  5
6F
  8
ﾚｲﾔ_1
  6
BORDER
 62
     3
 10
1098.4433399730001
 20
-133.1759653277
 30
0.0
 11
1098.4433399730001
 21
-128.95077001519999
 31
0.0
  0
LINE
  5
70
  8
ﾚｲﾔ_1
 62
     5
 10
1093.2732197574001
 20
-130.79070123069999
 30
0.0
 11
1093.2732197574001
 21
-40.368408035999991
 31
0.0
  0
LINE
  5
71
  8
ﾚｲﾔ_1
 62
     5
 10
1072.2732197574001
 20
-40.368408035999991
 30
0.0
 11
1075.2732197574001
 21
-40.368408035999991
 31
0.0
  0
LINE
  5
72
  8
ﾚｲﾔ_1
 62
     5
 10
1055.4732197574001
 20
-18.868408036000002
 30
0.0
 11
1058.4732197574001
 21
-18.868408036000002
 31
0.0
  0
LINE
  5
73
  8
ﾚｲﾔ_1
 62
     5
 10
1075.2732197574001
 20
-128.95077001519999
 30
0.0
 11
1075.2732197574001
 21
-40.368408035999991
 31
0.0
  0
LINE
  5
74
  8
ﾚｲﾔ_1
 62
     5
 10
1093.2732197574001
 20
-40.368408035999991
 30
0.0
 11
1096.2732197574001
 21
-40.368408035999991
 31
0.0
  0
LINE
  5
75
  8
ﾚｲﾔ_1
  6
BORDER
 62
     3
 10
1049.2732197574001
 20
-1.8684080359999991
 30
0.0
 11
1075.5232197574001
 21
-1.8684080359999991
 31
0.0
  0
ARC
  5
76
  8
ﾚｲﾔ_1
  6
BORDER
 62
     3
 10
1075.5232197574001
 20
-10.618408036
 30
0.0
 40
8.75
 50
0.0000106003
 51
90.0
  0
ARC
  5
77
  8
ﾚｲﾔ_1
 62
     5
 10
1124.5732197574
 20
28.631591963999998
 30
0.0
 40
2.5
 50
270.0
 51
0.0
  0
ARC
  5
78
  8
ﾚｲﾔ_1
 62
     5
 10
1124.5732197574
 20
28.631591963999998
 30
0.0
 40
1.5
 50
270.0
 51
0.0
  0
LINE
  5
79
  8
ﾚｲﾔ_1
 62
     5
 10
1054.4732197574001
 20
31.131591963999998
 30
0.0
 11
1054.3732197574
 21
31.131591963999998
 31
0.0
  0
LINE
  5
7A
  8
ﾚｲﾔ_1
 62
     5
 10
1054.4732197574001
 20
30.131591963999998
 30
0.0
 11
1054.4732197574001
 21
13.131591964
 31
0.0
  0
LINE
  5
7B
  8
ﾚｲﾔ_1
 62
     5
 10
1124.4732197574001
 20
31.131591963999998
 30
0.0
 11
1124.5732197574
 21
31.131591963999998
 31
0.0
  0
LINE
  5
7C
  8
ﾚｲﾔ_1
  6
BORDER
 62
     3
 10
1080.9907938648
 20
-133.1759653277
 30
0.0
 11
1098.4433399730001
 21
-141.62635595270001
 31
0.0
  0
LINE
  5
7D
  8
ﾚｲﾔ_1
 62
     5
 10
1072.2732197574001
 20
-40.368408035999991
 30
0.0
 11
1072.2732197574001
 21
-16.868408036000002
 31
0.0
  0
LINE
  5
7E
  8
ﾚｲﾔ_1
 62
     5
 10
1058.4732197574001
 20
-18.868408036000002
 30
0.0
 11
1058.4732197574001
 21
-16.868408036000002
 31
0.0
  0
LINE
  5
7F
  8
ﾚｲﾔ_1
 62
     5
 10
1056.2732197574001
 20
-11.868408035999989
 30
0.0
 11
1069.7732197574001
 21
-11.868408035999989
 31
0.0
  0
LINE
  5
80
  8
ﾚｲﾔ_1
 62
     5
 10
1096.2732197574001
 20
-40.368408035999991
 30
0.0
 11
1096.2732197574001
 21
-9.5215154196
 31
0.0
  0
LINE
  5
81
  8
ﾚｲﾔ_1
 62
     5
 10
1054.2732197574001
 20
-16.868408036000002
 30
0.0
 11
1055.4732197574001
 21
-16.868408036000002
 31
0.0
  0
LINE
  5
82
  8
ﾚｲﾔ_1
 62
     5
 10
1054.2732197574001
 20
13.131591964
 30
0.0
 11
1054.2732197574001
 21
-16.868408036000002
 31
0.0
  0
ARC
  5
83
  8
ﾚｲﾔ_1
 62
     5
 10
905.29090826970003
 20
28.631591963999998
 30
0.0
 40
2.5
 50
270.0
 51
0.0
  0
LINE
  5
84
  8
ﾚｲﾔ_1
  6
BORDER
 62
     3
 10
878.91718132380015
 20
-128.95077001519999
 30
0.0
 11
916.72147517070005
 21
-128.95077001519999
 31
0.0
  0
LINE
  5
85
  8
ﾚｲﾔ_1
  6
BORDER
 62
     3
 10
878.91718132380015
 20
-141.62635595270001
 30
0.0
 11
878.91718132380015
 21
-137.4011606402
 31
0.0
  0
LINE
  5
86
  8
ﾚｲﾔ_1
  6
BORDER
 62
     3
 10
878.91718132380015
 20
-133.1759653277
 30
0.0
 11
878.91718132380015
 21
-128.95077001519999
 31
0.0
  0
LINE
  5
87
  8
ﾚｲﾔ_1
  6
BORDER
 62
     3
 10
878.91718132380015
 20
-137.4011606402
 30
0.0
 11
916.72147517070005
 21
-137.4011606402
 31
0.0
  0
LINE
  5
88
  8
ﾚｲﾔ_1
 62
     5
 10
905.19090826969989
 20
26.131591963999998
 30
0.0
 11
905.19090826969989
 21
-128.95077001519999
 31
0.0
  0
INSERT
  5
8A
  8
ﾚｲﾔ_1
  2
*X0
 10
0.0
 20
0.0
 30
0.0
  0
INSERT
  5
A0
  8
ﾚｲﾔ_1
  2
*X1
 10
0.0
 20
0.0
 30
0.0
  0
ARC
  5
B1
  8
ﾚｲﾔ_1
 62
     5
 10
1074.2732197574001
 20
11.131591964
 30
0.0
 40
2.0
 50
0.0
 51
90.0
  0
LINE
  5
B2
  8
ﾚｲﾔ_1
 62
     5
 10
1055.4732197574001
 20
15.131591964
 30
0.0
 11
1058.4732197574001
 21
15.131591964
 31
0.0
  0
LINE
  5
B3
  8
ﾚｲﾔ_1
 62
     5
 10
1055.4732197574001
 20
13.131591964
 30
0.0
 11
1054.2732197574001
 21
13.131591964
 31
0.0
  0
LINE
  5
B4
  8
ﾚｲﾔ_1
 62
     5
 10
1056.2732197574001
 20
8.1315919640000001
 30
0.0
 11
1069.7732197574001
 21
8.1315919640000001
 31
0.0
  0
LINE
  5
B5
  8
ﾚｲﾔ_1
 62
     5
 10
1057.2732197574001
 20
7.1315919640000001
 30
0.0
 11
1076.2732197574001
 21
7.1315919640000001
 31
0.0
  0
LINE
  5
B6
  8
ﾚｲﾔ_1
 62
     5
 10
1057.2732197574001
 20
7.1315919640000001
 30
0.0
 11
1057.2732197574001
 21
-10.868408036
 31
0.0
  0
LINE
  5
B7
  8
ﾚｲﾔ_1
 62
     5
 10
1069.7732197574001
 20
8.1315919640000001
 30
0.0
 11
1070.7732197574001
 21
7.1315919640000001
 31
0.0
  0
LINE
  5
B8
  8
ﾚｲﾔ_1
 62
     5
 10
1056.2732197574001
 20
8.1315919640000001
 30
0.0
 11
1057.2732197574001
 21
7.1315919640000001
 31
0.0
  0
ARC
  5
B9
  8
ﾚｲﾔ_1
 62
     5
 10
1076.2732197574001
 20
-8.3684080359999982
 30
0.0
 40
15.5
 50
0.0
 51
90.0
  0
LINE
  5
BA
  8
ﾚｲﾔ_1
 62
     5
 10
1070.7732197574001
 20
7.1315919640000001
 30
0.0
 11
1070.7732197574001
 21
-10.868408036
 31
0.0
  0
LINE
  5
BB
  8
ﾚｲﾔ_1
 62
     5
 10
1054.2732197574001
 20
9.6315919640000001
 30
0.0
 11
1056.2732197574001
 21
9.6315919640000001
 31
0.0
  0
LINE
  5
BC
  8
ﾚｲﾔ_1
 62
     5
 10
1054.3732197574
 20
30.131591963999998
 30
0.0
 11
1054.4732197574001
 21
30.131591963999998
 31
0.0
  0
ARC
  5
BD
  8
ﾚｲﾔ_1
 62
     5
 10
1054.3732197574
 20
28.631591963999998
 30
0.0
 40
1.5
 50
180.0
 51
270.0
  0
LINE
  5
BE
  8
ﾚｲﾔ_1
 62
     5
 10
1057.2732197574001
 20
-10.868408036
 30
0.0
 11
1074.7732197574001
 21
-10.868408036
 31
0.0
  0
LINE
  5
BF
  8
ﾚｲﾔ_1
 62
     5
 10
1074.2732197574001
 20
13.131591964
 30
0.0
 11
1058.4732197574001
 21
13.131591964
 31
0.0
  0
LINE
  5
C0
  8
ﾚｲﾔ_1
 62
     5
 10
1076.2732197574001
 20
10.4784845804
 30
0.0
 11
1076.2732197574001
 21
11.131591964
 31
0.0
  0
ARC
  5
C1
  8
ﾚｲﾔ_1
 62
     5
 10
1054.3732197574
 20
28.631591963999998
 30
0.0
 40
2.5
 50
180.0
 51
270.0
  0
ARC
  5
C3
  8
CONSTRUCTION
 62
     5
 10
706.44887079909995
 20
144.6083470563
 30
0.0
 40
2.5
 50
270.0
 51
0.0
  0
LINE
  5
C4
  8
CONSTRUCTION
 62
     5
 10
636.2488707990999
 20
217.30834705629999
 30
0.0
 11
706.44887079909995
 21
217.30834705629999
 31
0.0
  0
LINE
  5
C5
  8
CONSTRUCTION
 62
     5
 10
663.34887079910004
 20
171.7083470563
 30
0.0
 11
647.34887079910004
 21
155.7083470563
 31
0.0
  0
LINE
  5
C6
  8
ﾚｲﾔ_1
 62
     5
 10
695.34887079910004
 20
44.131591963999988
 30
0.0
 11
679.34887079910004
 21
48.031591963999993
 31
0.0
  0
LINE
  5
C7
  8
ﾚｲﾔ_1
 62
     5
 10
647.34887079910004
 20
44.131591963999988
 30
0.0
 11
663.34887079910004
 21
48.031591963999993
 31
0.0
  0
LINE
  5
C8
  8
CONSTRUCTION
 62
     5
 10
647.34887079910004
 20
203.7083470563
 30
0.0
 11
663.34887079910004
 21
187.7083470563
 31
0.0
  0
LINE
  5
C9
  8
CONSTRUCTION
 62
     5
 10
695.34887079910004
 20
203.7083470563
 30
0.0
 11
695.34887079910004
 21
155.7083470563
 31
0.0
  0
LINE
  5
CA
  8
CONSTRUCTION
 62
     5
 10
647.34887079910004
 20
203.7083470563
 30
0.0
 11
695.34887079910004
 21
203.7083470563
 31
0.0
  0
ARC
  5
CB
  8
CONSTRUCTION
 62
     5
 10
636.2488707990999
 20
144.6083470563
 30
0.0
 40
2.5
 50
180.0
 51
270.0
  0
LINE
  5
CC
  8
CONSTRUCTION
 62
     5
 10
679.34887079910004
 20
171.7083470563
 30
0.0
 11
663.34887079910004
 21
171.7083470563
 31
0.0
  0
LINE
  5
CD
  8
CONSTRUCTION
 62
     5
 10
679.34887079910004
 20
187.7083470563
 30
0.0
 11
679.34887079910004
 21
171.7083470563
 31
0.0
  0
ARC
  5
CE
  8
CONSTRUCTION
 62
     5
 10
636.2488707990999
 20
214.80834705629999
 30
0.0
 40
2.5
 50
90.0
 51
180.0
  0
LINE
  5
CF
  8
CONSTRUCTION
 62
     5
 10
663.34887079910004
 20
171.7083470563
 30
0.0
 11
663.34887079910004
 21
187.7083470563
 31
0.0
  0
LINE
  5
D0
  8
ﾚｲﾔ_1
 62
     5
 10
663.34887079910004
 20
48.031591963999993
 30
0.0
 11
679.34887079910004
 21
48.031591963999993
 31
0.0
  0
LINE
  5
D1
  8
CONSTRUCTION
 62
     5
 10
663.34887079910004
 20
187.7083470563
 30
0.0
 11
679.34887079910004
 21
187.7083470563
 31
0.0
  0
LINE
  5
D2
  8
CONSTRUCTION
 62
     5
 10
647.34887079910004
 20
155.7083470563
 30
0.0
 11
647.34887079910004
 21
203.7083470563
 31
0.0
  0
LINE
  5
D3
  8
CONSTRUCTION
 62
     5
 10
695.34887079910004
 20
155.7083470563
 30
0.0
 11
647.34887079910004
 21
155.7083470563
 31
0.0
  0
LINE
  5
D4
  8
CONSTRUCTION
 62
     5
 10
679.34887079910004
 20
187.7083470563
 30
0.0
 11
695.34887079910004
 21
203.7083470563
 31
0.0
  0
LINE
  5
D5
  8
CONSTRUCTION
 62
     5
 10
679.34887079910004
 20
171.7083470563
 30
0.0
 11
695.34887079910004
 21
155.7083470563
 31
0.0
  0
LINE
  5
D6
  8
CONSTRUCTION
 62
     5
 10
633.74887079910002
 20
144.6083470563
 30
0.0
 11
633.74887079910002
 21
214.80834705629999
 31
0.0
  0
LINE
  5
D7
  8
CONSTRUCTION
 62
     5
 10
708.94887079910006
 20
214.80834705629999
 30
0.0
 11
708.94887079910006
 21
144.6083470563
 31
0.0
  0
INSERT
  5
DA
  8
寸法線
  2
BALLON0
 10
0.0
 20
0.0
 30
0.0
  0
INSERT
  5
E4
  8
寸法線
  2
BALLON1
 10
0.0
 20
0.0
 30
0.0
  0
INSERT
  5
EE
  8
寸法線
  2
BALLON2
 10
0.0
 20
0.0
 30
0.0
  0
INSERT
  5
F8
  8
寸法線
  2
BALLON3
 10
0.0
 20
0.0
 30
0.0
  0
LINE
  5
101
  8
ﾚｲﾔ_1
 62
     5
 10
636.2488707990999
 20
26.131591963999998
 30
0.0
 11
706.44887079909995
 21
26.131591963999998
 31
0.0
  0
LINE
  5
102
  8
ﾚｲﾔ_1
 62
     5
 10
706.34887079910004
 20
26.131591963999998
 30
0.0
 11
706.34887079910004
 21
-128.95077001519999
 31
0.0
  0
LINE
  5
103
  8
ﾚｲﾔ_1
  6
BORDER
 62
     3
 10
649.60824579910002
 20
-5.8684080359999991
 30
0.0
 11
693.26449579910002
 21
-5.8684080359999991
 31
0.0
  0
ARC
  5
104
  8
ﾚｲﾔ_1
 62
     5
 10
636.2488707990999
 20
28.631591963999998
 30
0.0
 40
2.5
 50
180.0
 51
270.0
  0
LINE
  5
105
  8
ﾚｲﾔ_1
  6
BORDER
 62
     3
 10
662.62259774499989
 20
-133.1759653277
 30
0.0
 11
662.62259774499989
 21
-137.4011606402
 31
0.0
  0
LINE
  5
106
  8
ﾚｲﾔ_1
  6
BORDER
 62
     3
 10
680.07514385319996
 20
-133.1759653277
 30
0.0
 11
680.07514385319996
 21
-128.95077001519999
 31
0.0
  0
LINE
  5
107
  8
ﾚｲﾔ_1
  6
BORDER
 62
     3
 10
680.07514385319996
 20
-141.62635595270001
 30
0.0
 11
680.07514385319996
 21
-137.4011606402
 31
0.0
  0
LINE
  5
108
  8
ﾚｲﾔ_1
  6
BORDER
 62
     3
 10
626.20131270009995
 20
-128.95077001519999
 30
0.0
 11
662.62259774499989
 21
-128.95077001519999
 31
0.0
  0
LINE
  5
109
  8
ﾚｲﾔ_1
  6
BORDER
 62
     3
 10
626.20131270009995
 20
-137.4011606402
 30
0.0
 11
662.62259774499989
 21
-137.4011606402
 31
0.0
  0
LINE
  5
10A
  8
ﾚｲﾔ_1
  6
BORDER
 62
     3
 10
662.62259774499989
 20
-124.7255747027
 30
0.0
 11
662.62259774499989
 21
-128.95077001519999
 31
0.0
  0
LINE
  5
10B
  8
ﾚｲﾔ_1
  6
BORDER
 62
     3
 10
662.62259774499989
 20
-124.7255747027
 30
0.0
 11
680.07514385319996
 21
-133.1759653277
 31
0.0
  0
LINE
  5
10C
  8
ﾚｲﾔ_1
  6
BORDER
 62
     3
 10
662.62259774499989
 20
-133.1759653277
 30
0.0
 11
680.07514385319996
 21
-141.62635595270001
 31
0.0
  0
LINE
  5
10D
  8
ﾚｲﾔ_1
 62
     5
 10
636.34887079910004
 20
26.131591963999998
 30
0.0
 11
636.34887079910004
 21
-128.95077001519999
 31
0.0
  0
CIRCLE
  5
10E
  8
ﾚｲﾔ_1
 62
     5
 10
671.34887079910004
 20
-5.8684080359999991
 30
0.0
 40
9.5
  0
CIRCLE
  5
10F
  8
ﾚｲﾔ_1
 10
671.34887079910004
 20
-5.8684080359999991
 30
0.0
 40
10.5
  0
CIRCLE
  5
110
  8
ﾚｲﾔ_1
 62
     5
 10
671.34887079910004
 20
-5.8684080359999991
 30
0.0
 40
11.5
  0
CIRCLE
  5
111
  8
ﾚｲﾔ_1
 62
     5
 10
671.34887079910004
 20
-5.8684080359999991
 30
0.0
 40
15.25
  0
LINE
  5
112
  8
ﾚｲﾔ_1
 10
720.56878752660009
 20
-69.470558995600001
 30
0.0
 11
792.18315419600003
 21
-69.470558995600001
 31
0.0
  0
INSERT
  5
113
  8
0
  6
CONTINUOUS
  2
*U41
 10
0.0
 20
0.0
 30
0.0
  0
INSERT
  5
114
  8
0
  6
CONTINUOUS
  2
*U42
 10
0.0
 20
0.0
 30
0.0
  0
ARC
  5
115
  8
ﾚｲﾔ_1
 62
     5
 10
835.09090826969987
 20
28.631591963999998
 30
0.0
 40
2.5
 50
180.0
 51
270.0
  0
LINE
  5
116
  8
ﾚｲﾔ_1
 62
     5
 10
835.1909082697
 20
26.131591963999998
 30
0.0
 11
835.1909082697
 21
-128.95077001519999
 31
0.0
  0
ARC
  5
117
  8
CONSTRUCTION
 62
     5
 10
706.44887079909995
 20
214.80834705629999
 30
0.0
 40
2.5
 50
0.0
 51
90.0
  0
LINE
  5
118
  8
ﾚｲﾔ_1
 62
     5
 10
636.2488707990999
 20
44.131591963999988
 30
0.0
 11
706.44887079909995
 21
44.131591963999988
 31
0.0
  0
LINE
  5
119
  8
CONSTRUCTION
 62
     5
 10
706.44887079909995
 20
142.1083470563
 30
0.0
 11
636.2488707990999
 21
142.1083470563
 31
0.0
  0
LINE
  5
11A
  8
ﾚｲﾔ_1
 62
     5
 10
1055.4732197574001
 20
-334.86840803600001
 30
0.0
 11
1058.4732197574001
 21
-334.86840803600001
 31
0.0
  0
LINE
  5
11B
  8
ﾚｲﾔ_1
 62
     5
 10
1055.4732197574001
 20
-368.86840803600001
 30
0.0
 11
1058.4732197574001
 21
-368.86840803600001
 31
0.0
  0
LINE
  5
11C
  8
ﾚｲﾔ_1
 62
     5
 10
1053.6732197573999
 20
-435.56840803599988
 30
0.0
 11
1054.4732197574001
 21
-435.56840803599988
 31
0.0
  0
ARC
  5
11D
  8
ﾚｲﾔ_1
 62
     5
 10
1074.2732197574001
 20
-364.86840803600001
 30
0.0
 40
2.0
 50
270.0
 51
0.0
  0
ARC
  5
11E
  8
ﾚｲﾔ_1
 62
     5
 10
1076.2732197574001
 20
-344.2153006524
 30
0.0
 40
20.0
 50
270.0
 51
0.0
  0
LINE
  5
11F
  8
ﾚｲﾔ_1
 62
     5
 10
1055.4732197574001
 20
-366.86840803600001
 30
0.0
 11
1054.2732197574001
 21
-366.86840803600001
 31
0.0
  0
LINE
  5
120
  8
ﾚｲﾔ_1
 62
     5
 10
1074.2732197574001
 20
-366.86840803600001
 30
0.0
 11
1058.4732197574001
 21
-366.86840803600001
 31
0.0
  0
ARC
  5
121
  8
ﾚｲﾔ_1
 62
     5
 10
1122.9732197574001
 20
-449.36840803600001
 30
0.0
 40
1.5
 50
270.0
 51
0.0
  0
ARC
  5
122
  8
ﾚｲﾔ_1
 62
     5
 10
1122.7732197574001
 20
-449.36840803600001
 30
0.0
 40
2.5
 50
270.0
 51
0.0
  0
ARC
  5
123
  8
ﾚｲﾔ_1
 62
     5
 10
1056.1732197573999
 20
-449.36840803600001
 30
0.0
 40
2.5
 50
180.0
 51
270.0
  0
LINE
  5
124
  8
ﾚｲﾔ_1
 62
     5
 10
1056.1732197573999
 20
-451.86840803599989
 30
0.0
 11
1122.7732197574001
 21
-451.86840803599989
 31
0.0
  0
LINE
  5
125
  8
ﾚｲﾔ_1
 62
     5
 10
1055.9732197574001
 20
-450.86840803600001
 30
0.0
 11
1122.9732197574001
 21
-450.86840803600001
 31
0.0
  0
LINE
  5
126
  8
ﾚｲﾔ_1
 62
     5
 10
1054.4732197574001
 20
-449.36840803600001
 30
0.0
 11
1055.4732197574001
 21
-449.36840803600001
 31
0.0
  0
LINE
  5
127
  8
ﾚｲﾔ_1
 62
     5
 10
1123.4732197574001
 20
-449.36840803600001
 30
0.0
 11
1124.4732197574001
 21
-449.36840803600001
 31
0.0
  0
ARC
  5
128
  8
ﾚｲﾔ_1
 62
     5
 10
1055.9732197574001
 20
-449.36840803600001
 30
0.0
 40
1.5
 50
180.0
 51
270.0
  0
LINE
  5
129
  8
ﾚｲﾔ_1
 62
     5
 10
1055.4732197574001
 20
-366.86840803600001
 30
0.0
 11
1055.4732197574001
 21
-449.36840803600001
 31
0.0
  0
LINE
  5
12A
  8
ﾚｲﾔ_1
 62
     5
 10
1125.2732197574001
 20
-435.56840803599988
 30
0.0
 11
1125.2732197574001
 21
-449.36840803600001
 31
0.0
  0
LINE
  5
12B
  8
ﾚｲﾔ_1
 62
     5
 10
1053.6732197573999
 20
-435.56840803599988
 30
0.0
 11
1053.6732197573999
 21
-449.36840803600001
 31
0.0
  0
LINE
  5
12C
  8
ﾚｲﾔ_1
 62
     5
 10
1054.4732197574001
 20
-366.86840803600001
 30
0.0
 11
1054.4732197574001
 21
-449.36840803600001
 31
0.0
  0
LINE
  5
12D
  8
ﾚｲﾔ_1
 62
     5
 10
1093.2732197574001
 20
-313.36840803600001
 30
0.0
 11
1096.2732197574001
 21
-313.36840803600001
 31
0.0
  0
LINE
  5
12E
  8
ﾚｲﾔ_1
 62
     5
 10
1072.2732197574001
 20
-313.36840803600001
 30
0.0
 11
1075.2732197574001
 21
-313.36840803600001
 31
0.0
  0
LINE
  5
12F
  8
ﾚｲﾔ_1
 10
720.56878752660009
 20
-69.470558995600001
 30
0.0
 11
680.59458626829996
 21
-17.928822166700002
 31
0.0
  0
SOLID
  5
130
  8
ﾚｲﾔ_1
 10
680.59458626829996
 20
-17.928822166700002
 30
0.0
 11
688.84044098669995
 21
-24.1886589806
 31
0.0
 12
685.0809801301998
 22
-23.713466373799999
 32
0.0
 13
685.0809801301998
 23
-23.713466373799999
 33
0.0
  0
SOLID
  5
131
  8
ﾚｲﾔ_1
 10
680.59458626829996
 20
-17.928822166700002
 30
0.0
 11
684.60578752339995
 21
-27.4729272302
 31
0.0
 12
685.0809801301998
 22
-23.713466373799999
 32
0.0
 13
685.0809801301998
 23
-23.713466373799999
 33
0.0
  0
ARC
  5
132
  8
ﾚｲﾔ_1
 62
     5
 10
706.44887079909995
 20
28.631591963999998
 30
0.0
 40
2.5
 50
270.0
 51
0.0
  0
LINE
  5
133
  8
ﾚｲﾔ_1
  6
BORDER
 62
     3
 10
680.07514385319996
 20
-137.4011606402
 30
0.0
 11
717.87943770009997
 21
-137.4011606402
 31
0.0
  0
LINE
  5
134
  8
ﾚｲﾔ_1
  6
BORDER
 62
     3
 10
680.07514385319996
 20
-128.95077001519999
 30
0.0
 11
717.87943770009997
 21
-128.95077001519999
 31
0.0
  0
LINE
  5
135
  8
ﾚｲﾔ_1
 62
     5
 10
1054.2732197574001
 20
-366.86840803600001
 30
0.0
 11
1054.2732197574001
 21
-336.86840803600001
 31
0.0
  0
LINE
  5
136
  8
ﾚｲﾔ_1
 62
     5
 10
1075.2732197574001
 20
-340.36840803600001
 30
0.0
 11
1093.2732197574001
 21
-340.36840803600001
 31
0.0
  0
LINE
  5
137
  8
ﾚｲﾔ_1
 62
     5
 10
1124.4732197574001
 20
-435.56840803599988
 30
0.0
 11
1125.2732197574001
 21
-435.56840803599988
 31
0.0
  0
LINE
  5
138
  8
ﾚｲﾔ_1
 62
     5
 10
1056.2732197574001
 20
-341.86840803600001
 30
0.0
 11
1057.2732197574001
 21
-342.86840803600001
 31
0.0
  0
LINE
  5
139
  8
ﾚｲﾔ_1
 62
     5
 10
1056.2732197574001
 20
-361.86840803600001
 30
0.0
 11
1057.2732197574001
 21
-360.86840803600001
 31
0.0
  0
LINE
  5
13A
  8
ﾚｲﾔ_1
 62
     5
 10
1056.2732197574001
 20
-341.86840803600001
 30
0.0
 11
1069.7732197574001
 21
-341.86840803600001
 31
0.0
  0
LINE
  5
13B
  8
ﾚｲﾔ_1
 62
     5
 10
1056.2732197574001
 20
-361.86840803600001
 30
0.0
 11
1069.7732197574001
 21
-361.86840803600001
 31
0.0
  0
LINE
  5
13C
  8
ﾚｲﾔ_1
 62
     5
 10
1057.2732197574001
 20
-360.86840803600001
 30
0.0
 11
1057.2732197574001
 21
-342.86840803600001
 31
0.0
  0
LINE
  5
13D
  8
ﾚｲﾔ_1
 62
     5
 10
1091.7732197574001
 20
-340.36840803600001
 30
0.0
 11
1091.7732197574001
 21
-345.36840803600001
 31
0.0
  0
LINE
  5
13E
  8
ﾚｲﾔ_1
 62
     5
 10
1057.2732197574001
 20
-342.86840803600001
 30
0.0
 11
1074.7732197574001
 21
-342.86840803600001
 31
0.0
  0
ARC
  5
13F
  8
ﾚｲﾔ_1
 62
     5
 10
1076.2732197574001
 20
-345.36840803600001
 30
0.0
 40
15.5
 50
270.0
 51
0.0
  0
LINE
  5
140
  8
ﾚｲﾔ_1
 62
     5
 10
1056.2732197574001
 20
-340.36840803600001
 30
0.0
 11
1056.2732197574001
 21
-363.36840803600001
 31
0.0
  0
LINE
  5
141
  8
ﾚｲﾔ_1
 62
     5
 10
1054.2732197574001
 20
-340.36840803600001
 30
0.0
 11
1056.2732197574001
 21
-340.36840803600001
 31
0.0
  0
LINE
  5
142
  8
ﾚｲﾔ_1
 62
     5
 10
1054.2732197574001
 20
-363.36840803600001
 30
0.0
 11
1056.2732197574001
 21
-363.36840803600001
 31
0.0
  0
LINE
  5
143
  8
ﾚｲﾔ_1
 62
     5
 10
1070.7732197574001
 20
-360.86840803600001
 30
0.0
 11
1070.7732197574001
 21
-342.86840803600001
 31
0.0
  0
LINE
  5
144
  8
ﾚｲﾔ_1
 62
     5
 10
1069.7732197574001
 20
-341.86840803600001
 30
0.0
 11
1069.7732197574001
 21
-361.86840803600001
 31
0.0
  0
LINE
  5
145
  8
ﾚｲﾔ_1
 62
     5
 10
1076.7732197574001
 20
-340.36840803600001
 30
0.0
 11
1076.7732197574001
 21
-340.86840803600001
 31
0.0
  0
LINE
  5
146
  8
ﾚｲﾔ_1
 62
     5
 10
1076.2732197574001
 20
-364.2153006524
 30
0.0
 11
1076.2732197574001
 21
-364.86840803600001
 31
0.0
  0
LINE
  5
147
  8
ﾚｲﾔ_1
 62
     5
 10
1058.4732197574001
 20
-336.86840803600001
 30
0.0
 11
1072.2732197574001
 21
-336.86840803600001
 31
0.0
  0
ARC
  5
148
  8
ﾚｲﾔ_1
 62
     5
 10
1074.7732197574001
 20
-340.86840803600001
 30
0.0
 40
2.0
 50
270.0
 51
0.0
  0
LINE
  5
149
  8
ﾚｲﾔ_1
 62
     5
 10
1057.2732197574001
 20
-360.86840803600001
 30
0.0
 11
1076.2732197574001
 21
-360.86840803600001
 31
0.0
  0
LINE
  5
14A
  8
ﾚｲﾔ_1
 62
     5
 10
1069.7732197574001
 20
-361.86840803600001
 30
0.0
 11
1070.7732197574001
 21
-360.86840803600001
 31
0.0
  0
LINE
  5
14B
  8
ﾚｲﾔ_1
 62
     5
 10
1069.7732197574001
 20
-341.86840803600001
 30
0.0
 11
1070.7732197574001
 21
-342.86840803600001
 31
0.0
  0
LINE
  5
14C
  8
ﾚｲﾔ_1
 62
     5
 10
1058.4732197574001
 20
-334.86840803600001
 30
0.0
 11
1058.4732197574001
 21
-336.86840803600001
 31
0.0
  0
LINE
  5
14D
  8
ﾚｲﾔ_1
 62
     5
 10
1058.4732197574001
 20
-368.86840803600001
 30
0.0
 11
1058.4732197574001
 21
-366.86840803600001
 31
0.0
  0
INSERT
  5
14E
  8
0
  6
CONTINUOUS
  2
*U43
 10
0.0
 20
0.0
 30
0.0
  0
INSERT
  5
14F
  8
0
  6
CONTINUOUS
  2
*U44
 10
0.0
 20
0.0
 30
0.0
  0
INSERT
  5
150
  8
0
  6
CONTINUOUS
  2
*U45
 10
0.0
 20
0.0
 30
0.0
  0
LINE
  5
151
  8
図枠
 10
1078.8211870591999
 20
-638.1251438413999
 30
0.0
 11
1078.8211870591999
 21
-625.6251438413999
 31
0.0
  0
LINE
  5
152
  8
図枠
 10
1101.3211870591999
 20
-638.1251438413999
 30
0.0
 11
1101.3211870591999
 21
-625.6251438413999
 31
0.0
  0
INSERT
  5
153
  8
0
  6
CONTINUOUS
  2
*U46
 10
0.0
 20
0.0
 30
0.0
  0
LINE
  5
154
  8
図枠
 10
1003.8211870592
 20
-638.1251438413999
 30
0.0
 11
1003.8211870592
 21
-720.62514384140002
 31
0.0
  0
INSERT
  5
155
  8
0
  6
CONTINUOUS
  2
*U47
 10
0.0
 20
0.0
 30
0.0
  0
INSERT
  5
156
  8
0
  6
CONTINUOUS
  2
*U48
 10
0.0
 20
0.0
 30
0.0
  0
INSERT
  5
157
  8
0
  6
CONTINUOUS
  2
*U49
 10
0.0
 20
0.0
 30
0.0
  0
INSERT
  5
158
  8
0
  6
CONTINUOUS
  2
*U50
 10
0.0
 20
0.0
 30
0.0
  0
INSERT
  5
159
  8
0
  6
CONTINUOUS
  2
*U51
 10
0.0
 20
0.0
 30
0.0
  0
INSERT
  5
15B
  8
寸法線
  2
BALLON4
 10
0.0
 20
0.0
 30
0.0
  0
INSERT
  5
165
  8
寸法線
  2
BALLON5
 10
0.0
 20
0.0
 30
0.0
  0
INSERT
  5
16F
  8
寸法線
  2
BALLON6
 10
0.0
 20
0.0
 30
0.0
  0
LINE
  5
178
  8
ﾚｲﾔ_1
 62
     5
 10
1093.2732197574001
 20
-313.36840803600001
 30
0.0
 11
1093.2732197574001
 21
-340.36840803600001
 31
0.0
  0
LINE
  5
179
  8
ﾚｲﾔ_1
 62
     5
 10
1075.2732197574001
 20
-313.36840803600001
 30
0.0
 11
1075.2732197574001
 21
-340.36840803600001
 31
0.0
  0
LINE
  5
17A
  8
ﾚｲﾔ_1
 62
     5
 10
1096.2732197574001
 20
-313.36840803600001
 30
0.0
 11
1096.2732197574001
 21
-344.2153006524
 31
0.0
  0
LINE
  5
17B
  8
ﾚｲﾔ_1
 62
     5
 10
1072.2732197574001
 20
-313.36840803600001
 30
0.0
 11
1072.2732197574001
 21
-336.86840803600001
 31
0.0
  0
LINE
  5
17C
  8
ﾚｲﾔ_1
 62
     5
 10
905.99090826969996
 20
-435.56840803599988
 30
0.0
 11
905.99090826969996
 21
-449.36840803600001
 31
0.0
  0
ARC
  5
17D
  8
ﾚｲﾔ_1
 62
     5
 10
903.49090826969996
 20
-449.36840803600001
 30
0.0
 40
2.5
 50
270.0
 51
0.0
  0
INSERT
  5
17F
  8
ﾚｲﾔ_1
  2
*X9
 10
0.0
 20
0.0
 30
0.0
  0
LINE
  5
194
  8
ﾚｲﾔ_1
  6
BORDER
 62
     3
 10
1049.2732197574001
 20
-351.86840803600001
 30
0.0
 11
1075.5232197574001
 21
-351.86840803600001
 31
0.0
  0
ARC
  5
195
  8
ﾚｲﾔ_1
  6
BORDER
 62
     3
 10
1075.5232197574001
 20
-343.11840803600001
 30
0.0
 40
8.75
 50
270.0
 51
0.0
  0
LINE
  5
196
  8
ﾚｲﾔ_1
 62
     5
 10
1054.2732197574001
 20
-336.86840803600001
 30
0.0
 11
1055.4732197574001
 21
-336.86840803600001
 31
0.0
  0
LINE
  5
197
  8
図枠
 10
914.22280327989995
 20
-711.6834614242
 30
0.0
 11
914.22280327989995
 21
-715.43346142419989
 31
0.0
  0
LINE
  5
198
  8
図枠
 10
984.79037739009982
 20
-706.6834614242
 30
0.0
 11
992.66802505210001
 21
-706.6834614242
 31
0.0
  0
LINE
  5
199
  8
図枠
 10
964.62431843139996
 20
-711.6834614242
 30
0.0
 11
964.62431843139996
 21
-715.43346142419989
 31
0.0
  0
LINE
  5
19A
  8
図枠
 10
920.47280327989995
 20
-710.4334614242
 30
0.0
 11
920.47280327989995
 21
-706.6834614242
 31
0.0
  0
LINE
  5
19B
  8
図枠
 10
970.16802505210001
 20
-702.1834614242
 30
0.0
 11
970.16802505210001
 21
-706.6834614242
 31
0.0
  0
LINE
  5
19C
  8
図枠
 10
925.47280327989995
 20
-702.93346142419989
 30
0.0
 11
920.47280327989995
 21
-702.93346142419989
 31
0.0
  0
POLYLINE
  8
図枠
  5
4CB
  66
     1
 10
0.000000
 20
0.000000
 30
0.000000
  70
     8
  0
VERTEX
  8
図枠
  5
4CC
 10
958.836
 20
-710.492
 30
0.000000
  70
    32
  0
VERTEX
  8
図枠
  5
4CD
 10
958.880
 20
-710.505
 30
0.000000
  70
    32
  0
VERTEX
  8
図枠
  5
4CE
 10
958.923
 20
-710.517
 30
0.000000
  70
    32
  0
VERTEX
  8
図枠
  5
4CF
 10
958.967
 20
-710.529
 30
0.000000
  70
    32
  0
VERTEX
  8
図枠
  5
4D0
 10
959.011
 20
-710.541
 30
0.000000
  70
    32
  0
VERTEX
  8
図枠
  5
4D1
 10
959.055
 20
-710.553
 30
0.000000
  70
    32
  0
VERTEX
  8
図枠
  5
4D2
 10
959.099
 20
-710.566
 30
0.000000
  70
    32
  0
VERTEX
  8
図枠
  5
4D3
 10
959.143
 20
-710.577
 30
0.000000
  70
    32
  0
VERTEX
  8
図枠
  5
4D4
 10
959.187
 20
-710.589
 30
0.000000
  70
    32
  0
VERTEX
  8
図枠
  5
4D5
 10
959.231
 20
-710.601
 30
0.000000
  70
    32
  0
VERTEX
  8
図枠
  5
4D6
 10
959.275
 20
-710.613
 30
0.000000
  70
    32
  0
VERTEX
  8
図枠
  5
4D7
 10
959.319
 20
-710.625
 30
0.000000
  70
    32
  0
VERTEX
  8
図枠
  5
4D8
 10
959.363
 20
-710.636
 30
0.000000
  70
    32
  0
VERTEX
  8
図枠
  5
4D9
 10
959.407
 20
-710.648
 30
0.000000
  70
    32
  0
VERTEX
  8
図枠
  5
4DA
 10
959.452
 20
-710.659
 30
0.000000
  70
    32
  0
VERTEX
  8
図枠
  5
4DB
 10
959.496
 20
-710.671
 30
0.000000
  70
    32
  0
VERTEX
  8
図枠
  5
4DC
 10
959.540
 20
-710.682
 30
0.000000
  70
    32
  0
VERTEX
  8
図枠
  5
4DD
 10
959.585
 20
-710.694
 30
0.000000
  70
    32
  0
VERTEX
  8
図枠
  5
4DE
 10
959.629
 20
-710.705
 30
0.000000
  70
    32
  0
VERTEX
  8
図枠
  5
4DF
 10
959.674
 20
-710.716
 30
0.000000
  70
    32
  0
VERTEX
  8
図枠
  5
4E0
 10
959.718
 20
-710.727
 30
0.000000
  70
    32
  0
VERTEX
  8
図枠
  5
4E1
 10
959.763
 20
-710.738
 30
0.000000
  70
    32
  0
VERTEX
  8
図枠
  5
4E2
 10
959.807
 20
-710.749
 30
0.000000
  70
    32
  0
VERTEX
  8
図枠
  5
4E3
 10
959.852
 20
-710.760
 30
0.000000
  70
    32
  0
VERTEX
  8
図枠
  5
4E4
 10
959.896
 20
-710.771
 30
0.000000
  70
    32
  0
VERTEX
  8
図枠
  5
4E5
 10
959.941
 20
-710.782
 30
0.000000
  70
    32
  0
VERTEX
  8
図枠
  5
4E6
 10
959.986
 20
-710.793
 30
0.000000
  70
    32
  0
VERTEX
  8
図枠
  5
4E7
 10
960.031
 20
-710.803
 30
0.000000
  70
    32
  0
VERTEX
  8
図枠
  5
4E8
 10
960.075
 20
-710.814
 30
0.000000
  70
    32
  0
VERTEX
  8
図枠
  5
4E9
 10
960.120
 20
-710.825
 30
0.000000
  70
    32
  0
VERTEX
  8
図枠
  5
4EA
 10
960.165
 20
-710.835
 30
0.000000
  70
    32
  0
VERTEX
  8
図枠
  5
4EB
 10
960.210
 20
-710.846
 30
0.000000
  70
    32
  0
VERTEX
  8
図枠
  5
4EC
 10
960.255
 20
-710.856
 30
0.000000
  70
    32
  0
VERTEX
  8
図枠
  5
4ED
 10
960.300
 20
-710.866
 30
0.000000
  70
    32
  0
VERTEX
  8
図枠
  5
4EE
 10
960.345
 20
-710.877
 30
0.000000
  70
    32
  0
VERTEX
  8
図枠
  5
4EF
 10
960.390
 20
-710.887
 30
0.000000
  70
    32
  0
VERTEX
  8
図枠
  5
4F0
 10
960.435
 20
-710.897
 30
0.000000
  70
    32
  0
VERTEX
  8
図枠
  5
4F1
 10
960.480
 20
-710.907
 30
0.000000
  70
    32
  0
VERTEX
  8
図枠
  5
4F2
 10
960.525
 20
-710.918
 30
0.000000
  70
    32
  0
VERTEX
  8
図枠
  5
4F3
 10
960.570
 20
-710.928
 30
0.000000
  70
    32
  0
VERTEX
  8
図枠
  5
4F4
 10
960.615
 20
-710.938
 30
0.000000
  70
    32
  0
VERTEX
  8
図枠
  5
4F5
 10
960.661
 20
-710.948
 30
0.000000
  70
    32
  0
VERTEX
  8
図枠
  5
4F6
 10
960.706
 20
-710.958
 30
0.000000
  70
    32
  0
VERTEX
  8
図枠
  5
4F7
 10
960.751
 20
-710.967
 30
0.000000
  70
    32
  0
VERTEX
  8
図枠
  5
4F8
 10
960.796
 20
-710.977
 30
0.000000
  70
    32
  0
VERTEX
  8
図枠
  5
4F9
 10
960.842
 20
-710.987
 30
0.000000
  70
    32
  0
VERTEX
  8
図枠
  5
4FA
 10
960.887
 20
-710.997
 30
0.000000
  70
    32
  0
VERTEX
  8
図枠
  5
4FB
 10
960.932
 20
-711.007
 30
0.000000
  70
    32
  0
VERTEX
  8
図枠
  5
4FC
 10
960.978
 20
-711.016
 30
0.000000
  70
    32
  0
VERTEX
  8
図枠
  5
4FD
 10
961.023
 20
-711.026
 30
0.000000
  70
    32
  0
VERTEX
  8
図枠
  5
4FE
 10
961.069
 20
-711.035
 30
0.000000
  70
    32
  0
VERTEX
  8
図枠
  5
4FF
 10
961.114
 20
-711.045
 30
0.000000
  70
    32
  0
VERTEX
  8
図枠
  5
500
 10
961.160
 20
-711.054
 30
0.000000
  70
    32
  0
VERTEX
  8
図枠
  5
501
 10
961.205
 20
-711.064
 30
0.000000
  70
    32
  0
VERTEX
  8
図枠
  5
502
 10
961.251
 20
-711.073
 30
0.000000
  70
    32
  0
VERTEX
  8
図枠
  5
503
 10
961.296
 20
-711.083
 30
0.000000
  70
    32
  0
VERTEX
  8
図枠
  5
504
 10
961.342
 20
-711.092
 30
0.000000
  70
    32
  0
VERTEX
  8
図枠
  5
505
 10
961.388
 20
-711.101
 30
0.000000
  70
    32
  0
VERTEX
  8
図枠
  5
506
 10
961.433
 20
-711.110
 30
0.000000
  70
    32
  0
VERTEX
  8
図枠
  5
507
 10
961.479
 20
-711.119
 30
0.000000
  70
    32
  0
VERTEX
  8
図枠
  5
508
 10
961.525
 20
-711.129
 30
0.000000
  70
    32
  0
VERTEX
  8
図枠
  5
509
 10
961.571
 20
-711.138
 30
0.000000
  70
    32
  0
VERTEX
  8
図枠
  5
50A
 10
961.616
 20
-711.147
 30
0.000000
  70
    32
  0
VERTEX
  8
図枠
  5
50B
 10
961.662
 20
-711.156
 30
0.000000
  70
    32
  0
VERTEX
  8
図枠
  5
50C
 10
961.708
 20
-711.165
 30
0.000000
  70
    32
  0
VERTEX
  8
図枠
  5
50D
 10
961.754
 20
-711.174
 30
0.000000
  70
    32
  0
VERTEX
  8
図枠
  5
50E
 10
961.800
 20
-711.183
 30
0.000000
  70
    32
  0
VERTEX
  8
図枠
  5
50F
 10
961.846
 20
-711.192
 30
0.000000
  70
    32
  0
VERTEX
  8
図枠
  5
510
 10
961.891
 20
-711.200
 30
0.000000
  70
    32
  0
VERTEX
  8
図枠
  5
511
 10
961.937
 20
-711.209
 30
0.000000
  70
    32
  0
VERTEX
  8
図枠
  5
512
 10
961.983
 20
-711.218
 30
0.000000
  70
    32
  0
VERTEX
  8
図枠
  5
513
 10
962.029
 20
-711.227
 30
0.000000
  70
    32
  0
VERTEX
  8
図枠
  5
514
 10
962.075
 20
-711.236
 30
0.000000
  70
    32
  0
VERTEX
  8
図枠
  5
515
 10
962.121
 20
-711.244
 30
0.000000
  70
    32
  0
VERTEX
  8
図枠
  5
516
 10
962.167
 20
-711.253
 30
0.000000
  70
    32
  0
VERTEX
  8
図枠
  5
517
 10
962.213
 20
-711.262
 30
0.000000
  70
    32
  0
VERTEX
  8
図枠
  5
518
 10
962.259
 20
-711.270
 30
0.000000
  70
    32
  0
VERTEX
  8
図枠
  5
519
 10
962.305
 20
-711.279
 30
0.000000
  70
    32
  0
VERTEX
  8
図枠
  5
51A
 10
962.352
 20
-711.287
 30
0.000000
  70
    32
  0
VERTEX
  8
図枠
  5
51B
 10
962.398
 20
-711.296
 30
0.000000
  70
    32
  0
VERTEX
  8
図枠
  5
51C
 10
962.444
 20
-711.304
 30
0.000000
  70
    32
  0
VERTEX
  8
図枠
  5
51D
 10
962.490
 20
-711.313
 30
0.000000
  70
    32
  0
VERTEX
  8
図枠
  5
51E
 10
962.536
 20
-711.321
 30
0.000000
  70
    32
  0
VERTEX
  8
図枠
  5
51F
 10
962.582
 20
-711.330
 30
0.000000
  70
    32
  0
VERTEX
  8
図枠
  5
520
 10
962.628
 20
-711.338
 30
0.000000
  70
    32
  0
VERTEX
  8
図枠
  5
521
 10
962.675
 20
-711.346
 30
0.000000
  70
    32
  0
VERTEX
  8
図枠
  5
522
 10
962.721
 20
-711.355
 30
0.000000
  70
    32
  0
VERTEX
  8
図枠
  5
523
 10
962.767
 20
-711.363
 30
0.000000
  70
    32
  0
VERTEX
  8
図枠
  5
524
 10
962.813
 20
-711.371
 30
0.000000
  70
    32
  0
VERTEX
  8
図枠
  5
525
 10
962.860
 20
-711.380
 30
0.000000
  70
    32
  0
VERTEX
  8
図枠
  5
526
 10
962.906
 20
-711.388
 30
0.000000
  70
    32
  0
VERTEX
  8
図枠
  5
527
 10
962.952
 20
-711.396
 30
0.000000
  70
    32
  0
VERTEX
  8
図枠
  5
528
 10
962.998
 20
-711.404
 30
0.000000
  70
    32
  0
VERTEX
  8
図枠
  5
529
 10
963.045
 20
-711.413
 30
0.000000
  70
    32
  0
VERTEX
  8
図枠
  5
52A
 10
963.091
 20
-711.421
 30
0.000000
  70
    32
  0
VERTEX
  8
図枠
  5
52B
 10
963.137
 20
-711.429
 30
0.000000
  70
    32
  0
VERTEX
  8
図枠
  5
52C
 10
963.184
 20
-711.437
 30
0.000000
  70
    32
  0
VERTEX
  8
図枠
  5
52D
 10
963.230
 20
-711.445
 30
0.000000
  70
    32
  0
VERTEX
  8
図枠
  5
52E
 10
963.277
 20
-711.453
 30
0.000000
  70
    32
  0
VERTEX
  8
図枠
  5
52F
 10
963.323
 20
-711.461
 30
0.000000
  70
    32
  0
VERTEX
  8
図枠
  5
530
 10
963.369
 20
-711.469
 30
0.000000
  70
    32
  0
VERTEX
  8
図枠
  5
531
 10
963.416
 20
-711.478
 30
0.000000
  70
    32
  0
VERTEX
  8
図枠
  5
532
 10
963.462
 20
-711.486
 30
0.000000
  70
    32
  0
VERTEX
  8
図枠
  5
533
 10
963.509
 20
-711.494
 30
0.000000
  70
    32
  0
VERTEX
  8
図枠
  5
534
 10
963.555
 20
-711.502
 30
0.000000
  70
    32
  0
VERTEX
  8
図枠
  5
535
 10
963.601
 20
-711.510
 30
0.000000
  70
    32
  0
VERTEX
  8
図枠
  5
536
 10
963.648
 20
-711.518
 30
0.000000
  70
    32
  0
VERTEX
  8
図枠
  5
537
 10
963.694
 20
-711.526
 30
0.000000
  70
    32
  0
VERTEX
  8
図枠
  5
538
 10
963.741
 20
-711.534
 30
0.000000
  70
    32
  0
VERTEX
  8
図枠
  5
539
 10
963.787
 20
-711.541
 30
0.000000
  70
    32
  0
VERTEX
  8
図枠
  5
53A
 10
963.834
 20
-711.549
 30
0.000000
  70
    32
  0
VERTEX
  8
図枠
  5
53B
 10
963.880
 20
-711.557
 30
0.000000
  70
    32
  0
VERTEX
  8
図枠
  5
53C
 10
963.927
 20
-711.565
 30
0.000000
  70
    32
  0
VERTEX
  8
図枠
  5
53D
 10
963.973
 20
-711.573
 30
0.000000
  70
    32
  0
VERTEX
  8
図枠
  5
53E
 10
964.020
 20
-711.581
 30
0.000000
  70
    32
  0
VERTEX
  8
図枠
  5
53F
 10
964.066
 20
-711.589
 30
0.000000
  70
    32
  0
VERTEX
  8
図枠
  5
540
 10
964.113
 20
-711.597
 30
0.000000
  70
    32
  0
VERTEX
  8
図枠
  5
541
 10
964.159
 20
-711.605
 30
0.000000
  70
    32
  0
VERTEX
  8
図枠
  5
542
 10
964.206
 20
-711.613
 30
0.000000
  70
    32
  0
VERTEX
  8
図枠
  5
543
 10
964.252
 20
-711.621
 30
0.000000
  70
    32
  0
VERTEX
  8
図枠
  5
544
 10
964.299
 20
-711.628
 30
0.000000
  70
    32
  0
VERTEX
  8
図枠
  5
545
 10
964.345
 20
-711.636
 30
0.000000
  70
    32
  0
VERTEX
  8
図枠
  5
546
 10
964.392
 20
-711.644
 30
0.000000
  70
    32
  0
VERTEX
  8
図枠
  5
547
 10
964.438
 20
-711.652
 30
0.000000
  70
    32
  0
VERTEX
  8
図枠
  5
548
 10
964.485
 20
-711.660
 30
0.000000
  70
    32
  0
VERTEX
  8
図枠
  5
549
 10
964.531
 20
-711.668
 30
0.000000
  70
    32
  0
VERTEX
  8
図枠
  5
54A
 10
964.578
 20
-711.676
 30
0.000000
  70
    32
  0
VERTEX
  8
図枠
  5
54B
 10
964.624
 20
-711.683
 30
0.000000
  70
    32
  0
SEQEND
  8
図枠
  5
54C
  0
POLYLINE
  8
図枠
  5
54D
  66
     1
 10
0.000000
 20
0.000000
 30
0.000000
  70
     8
  0
VERTEX
  8
図枠
  5
54E
 10
950.710
 20
-705.153
 30
0.000000
  70
    32
  0
VERTEX
  8
図枠
  5
54F
 10
950.727
 20
-705.171
 30
0.000000
  70
    32
  0
VERTEX
  8
図枠
  5
550
 10
950.743
 20
-705.190
 30
0.000000
  70
    32
  0
VERTEX
  8
図枠
  5
551
 10
950.760
 20
-705.208
 30
0.000000
  70
    32
  0
VERTEX
  8
図枠
  5
552
 10
950.776
 20
-705.227
 30
0.000000
  70
    32
  0
VERTEX
  8
図枠
  5
553
 10
950.793
 20
-705.245
 30
0.000000
  70
    32
  0
VERTEX
  8
図枠
  5
554
 10
950.809
 20
-705.263
 30
0.000000
  70
    32
  0
VERTEX
  8
図枠
  5
555
 10
950.826
 20
-705.282
 30
0.000000
  70
    32
  0
VERTEX
  8
図枠
  5
556
 10
950.842
 20
-705.300
 30
0.000000
  70
    32
  0
VERTEX
  8
図枠
  5
557
 10
950.859
 20
-705.318
 30
0.000000
  70
    32
  0
VERTEX
  8
図枠
  5
558
 10
950.875
 20
-705.337
 30
0.000000
  70
    32
  0
VERTEX
  8
図枠
  5
559
 10
950.892
 20
-705.355
 30
0.000000
  70
    32
  0
VERTEX
  8
図枠
  5
55A
 10
950.908
 20
-705.374
 30
0.000000
  70
    32
  0
VERTEX
  8
図枠
  5
55B
 10
950.925
 20
-705.392
 30
0.000000
  70
    32
  0
VERTEX
  8
図枠
  5
55C
 10
950.941
 20
-705.410
 30
0.000000
  70
    32
  0
VERTEX
  8
図枠
  5
55D
 10
950.958
 20
-705.429
 30
0.000000
  70
    32
  0
VERTEX
  8
図枠
  5
55E
 10
950.974
 20
-705.447
 30
0.000000
  70
    32
  0
VERTEX
  8
図枠
  5
55F
 10
950.991
 20
-705.465
 30
0.000000
  70
    32
  0
VERTEX
  8
図枠
  5
560
 10
951.007
 20
-705.484
 30
0.000000
  70
    32
  0
VERTEX
  8
図枠
  5
561
 10
951.024
 20
-705.502
 30
0.000000
  70
    32
  0
VERTEX
  8
図枠
  5
562
 10
951.040
 20
-705.520
 30
0.000000
  70
    32
  0
VERTEX
  8
図枠
  5
563
 10
951.057
 20
-705.539
 30
0.000000
  70
    32
  0
VERTEX
  8
図枠
  5
564
 10
951.073
 20
-705.557
 30
0.000000
  70
    32
  0
VERTEX
  8
図枠
  5
565
 10
951.090
 20
-705.575
 30
0.000000
  70
    32
  0
VERTEX
  8
図枠
  5
566
 10
951.106
 20
-705.594
 30
0.000000
  70
    32
  0
VERTEX
  8
図枠
  5
567
 10
951.123
 20
-705.612
 30
0.000000
  70
    32
  0
VERTEX
  8
図枠
  5
568
 10
951.140
 20
-705.630
 30
0.000000
  70
    32
  0
VERTEX
  8
図枠
  5
569
 10
951.156
 20
-705.649
 30
0.000000
  70
    32
  0
VERTEX
  8
図枠
  5
56A
 10
951.173
 20
-705.667
 30
0.000000
  70
    32
  0
VERTEX
  8
図枠
  5
56B
 10
951.189
 20
-705.685
 30
0.000000
  70
    32
  0
VERTEX
  8
図枠
  5
56C
 10
951.206
 20
-705.704
 30
0.000000
  70
    32
  0
VERTEX
  8
図枠
  5
56D
 10
951.222
 20
-705.722
 30
0.000000
  70
    32
  0
VERTEX
  8
図枠
  5
56E
 10
951.239
 20
-705.740
 30
0.000000
  70
    32
  0
VERTEX
  8
図枠
  5
56F
 10
951.256
 20
-705.758
 30
0.000000
  70
    32
  0
VERTEX
  8
図枠
  5
570
 10
951.272
 20
-705.777
 30
0.000000
  70
    32
  0
VERTEX
  8
図枠
  5
571
 10
951.289
 20
-705.795
 30
0.000000
  70
    32
  0
VERTEX
  8
図枠
  5
572
 10
951.305
 20
-705.813
 30
0.000000
  70
    32
  0
VERTEX
  8
図枠
  5
573
 10
951.322
 20
-705.831
 30
0.000000
  70
    32
  0
VERTEX
  8
図枠
  5
574
 10
951.339
 20
-705.849
 30
0.000000
  70
    32
  0
VERTEX
  8
図枠
  5
575
 10
951.355
 20
-705.868
 30
0.000000
  70
    32
  0
VERTEX
  8
図枠
  5
576
 10
951.372
 20
-705.886
 30
0.000000
  70
    32
  0
VERTEX
  8
図枠
  5
577
 10
951.388
 20
-705.904
 30
0.000000
  70
    32
  0
VERTEX
  8
図枠
  5
578
 10
951.405
 20
-705.922
 30
0.000000
  70
    32
  0
VERTEX
  8
図枠
  5
579
 10
951.422
 20
-705.940
 30
0.000000
  70
    32
  0
VERTEX
  8
図枠
  5
57A
 10
951.438
 20
-705.958
 30
0.000000
  70
    32
  0
VERTEX
  8
図枠
  5
57B
 10
951.455
 20
-705.977
 30
0.000000
  70
    32
  0
VERTEX
  8
図枠
  5
57C
 10
951.472
 20
-705.995
 30
0.000000
  70
    32
  0
VERTEX
  8
図枠
  5
57D
 10
951.488
 20
-706.013
 30
0.000000
  70
    32
  0
VERTEX
  8
図枠
  5
57E
 10
951.505
 20
-706.031
 30
0.000000
  70
    32
  0
VERTEX
  8
図枠
  5
57F
 10
951.522
 20
-706.049
 30
0.000000
  70
    32
  0
VERTEX
  8
図枠
  5
580
 10
951.539
 20
-706.067
 30
0.000000
  70
    32
  0
VERTEX
  8
図枠
  5
581
 10
951.555
 20
-706.085
 30
0.000000
  70
    32
  0
VERTEX
  8
図枠
  5
582
 10
951.572
 20
-706.103
 30
0.000000
  70
    32
  0
VERTEX
  8
図枠
  5
583
 10
951.589
 20
-706.121
 30
0.000000
  70
    32
  0
VERTEX
  8
図枠
  5
584
 10
951.605
 20
-706.139
 30
0.000000
  70
    32
  0
VERTEX
  8
図枠
  5
585
 10
951.622
 20
-706.157
 30
0.000000
  70
    32
  0
VERTEX
  8
図枠
  5
586
 10
951.639
 20
-706.175
 30
0.000000
  70
    32
  0
VERTEX
  8
図枠
  5
587
 10
951.656
 20
-706.193
 30
0.000000
  70
    32
  0
VERTEX
  8
図枠
  5
588
 10
951.673
 20
-706.211
 30
0.000000
  70
    32
  0
VERTEX
  8
図枠
  5
589
 10
951.689
 20
-706.229
 30
0.000000
  70
    32
  0
VERTEX
  8
図枠
  5
58A
 10
951.706
 20
-706.247
 30
0.000000
  70
    32
  0
VERTEX
  8
図枠
  5
58B
 10
951.723
 20
-706.265
 30
0.000000
  70
    32
  0
VERTEX
  8
図枠
  5
58C
 10
951.740
 20
-706.283
 30
0.000000
  70
    32
  0
VERTEX
  8
図枠
  5
58D
 10
951.757
 20
-706.300
 30
0.000000
  70
    32
  0
VERTEX
  8
図枠
  5
58E
 10
951.773
 20
-706.318
 30
0.000000
  70
    32
  0
VERTEX
  8
図枠
  5
58F
 10
951.790
 20
-706.336
 30
0.000000
  70
    32
  0
VERTEX
  8
図枠
  5
590
 10
951.807
 20
-706.354
 30
0.000000
  70
    32
  0
VERTEX
  8
図枠
  5
591
 10
951.824
 20
-706.372
 30
0.000000
  70
    32
  0
VERTEX
  8
図枠
  5
592
 10
951.841
 20
-706.389
 30
0.000000
  70
    32
  0
VERTEX
  8
図枠
  5
593
 10
951.858
 20
-706.407
 30
0.000000
  70
    32
  0
VERTEX
  8
図枠
  5
594
 10
951.875
 20
-706.425
 30
0.000000
  70
    32
  0
VERTEX
  8
図枠
  5
595
 10
951.892
 20
-706.443
 30
0.000000
  70
    32
  0
VERTEX
  8
図枠
  5
596
 10
951.909
 20
-706.460
 30
0.000000
  70
    32
  0
VERTEX
  8
図枠
  5
597
 10
951.926
 20
-706.478
 30
0.000000
  70
    32
  0
VERTEX
  8
図枠
  5
598
 10
951.943
 20
-706.496
 30
0.000000
  70
    32
  0
VERTEX
  8
図枠
  5
599
 10
951.959
 20
-706.513
 30
0.000000
  70
    32
  0
VERTEX
  8
図枠
  5
59A
 10
951.976
 20
-706.531
 30
0.000000
  70
    32
  0
VERTEX
  8
図枠
  5
59B
 10
951.993
 20
-706.549
 30
0.000000
  70
    32
  0
VERTEX
  8
図枠
  5
59C
 10
952.010
 20
-706.566
 30
0.000000
  70
    32
  0
VERTEX
  8
図枠
  5
59D
 10
952.027
 20
-706.584
 30
0.000000
  70
    32
  0
VERTEX
  8
図枠
  5
59E
 10
952.045
 20
-706.601
 30
0.000000
  70
    32
  0
VERTEX
  8
図枠
  5
59F
 10
952.062
 20
-706.619
 30
0.000000
  70
    32
  0
VERTEX
  8
図枠
  5
5A0
 10
952.079
 20
-706.636
 30
0.000000
  70
    32
  0
VERTEX
  8
図枠
  5
5A1
 10
952.096
 20
-706.654
 30
0.000000
  70
    32
  0
VERTEX
  8
図枠
  5
5A2
 10
952.113
 20
-706.671
 30
0.000000
  70
    32
  0
VERTEX
  8
図枠
  5
5A3
 10
952.130
 20
-706.688
 30
0.000000
  70
    32
  0
VERTEX
  8
図枠
  5
5A4
 10
952.147
 20
-706.706
 30
0.000000
  70
    32
  0
VERTEX
  8
図枠
  5
5A5
 10
952.164
 20
-706.723
 30
0.000000
  70
    32
  0
VERTEX
  8
図枠
  5
5A6
 10
952.181
 20
-706.741
 30
0.000000
  70
    32
  0
VERTEX
  8
図枠
  5
5A7
 10
952.198
 20
-706.758
 30
0.000000
  70
    32
  0
VERTEX
  8
図枠
  5
5A8
 10
952.216
 20
-706.775
 30
0.000000
  70
    32
  0
VERTEX
  8
図枠
  5
5A9
 10
952.233
 20
-706.792
 30
0.000000
  70
    32
  0
VERTEX
  8
図枠
  5
5AA
 10
952.250
 20
-706.810
 30
0.000000
  70
    32
  0
VERTEX
  8
図枠
  5
5AB
 10
952.267
 20
-706.827
 30
0.000000
  70
    32
  0
VERTEX
  8
図枠
  5
5AC
 10
952.285
 20
-706.844
 30
0.000000
  70
    32
  0
VERTEX
  8
図枠
  5
5AD
 10
952.302
 20
-706.861
 30
0.000000
  70
    32
  0
VERTEX
  8
図枠
  5
5AE
 10
952.319
 20
-706.878
 30
0.000000
  70
    32
  0
VERTEX
  8
図枠
  5
5AF
 10
952.336
 20
-706.896
 30
0.000000
  70
    32
  0
VERTEX
  8
図枠
  5
5B0
 10
952.354
 20
-706.913
 30
0.000000
  70
    32
  0
VERTEX
  8
図枠
  5
5B1
 10
952.371
 20
-706.930
 30
0.000000
  70
    32
  0
VERTEX
  8
図枠
  5
5B2
 10
952.388
 20
-706.947
 30
0.000000
  70
    32
  0
VERTEX
  8
図枠
  5
5B3
 10
952.406
 20
-706.964
 30
0.000000
  70
    32
  0
VERTEX
  8
図枠
  5
5B4
 10
952.423
 20
-706.981
 30
0.000000
  70
    32
  0
VERTEX
  8
図枠
  5
5B5
 10
952.440
 20
-706.998
 30
0.000000
  70
    32
  0
VERTEX
  8
図枠
  5
5B6
 10
952.458
 20
-707.015
 30
0.000000
  70
    32
  0
VERTEX
  8
図枠
  5
5B7
 10
952.475
 20
-707.032
 30
0.000000
  70
    32
  0
VERTEX
  8
図枠
  5
5B8
 10
952.493
 20
-707.048
 30
0.000000
  70
    32
  0
VERTEX
  8
図枠
  5
5B9
 10
952.510
 20
-707.065
 30
0.000000
  70
    32
  0
VERTEX
  8
図枠
  5
5BA
 10
952.528
 20
-707.082
 30
0.000000
  70
    32
  0
VERTEX
  8
図枠
  5
5BB
 10
952.545
 20
-707.099
 30
0.000000
  70
    32
  0
VERTEX
  8
図枠
  5
5BC
 10
952.563
 20
-707.116
 30
0.000000
  70
    32
  0
VERTEX
  8
図枠
  5
5BD
 10
952.580
 20
-707.132
 30
0.000000
  70
    32
  0
VERTEX
  8
図枠
  5
5BE
 10
952.598
 20
-707.149
 30
0.000000
  70
    32
  0
VERTEX
  8
図枠
  5
5BF
 10
952.615
 20
-707.166
 30
0.000000
  70
    32
  0
VERTEX
  8
図枠
  5
5C0
 10
952.633
 20
-707.182
 30
0.000000
  70
    32
  0
VERTEX
  8
図枠
  5
5C1
 10
952.651
 20
-707.199
 30
0.000000
  70
    32
  0
VERTEX
  8
図枠
  5
5C2
 10
952.668
 20
-707.215
 30
0.000000
  70
    32
  0
VERTEX
  8
図枠
  5
5C3
 10
952.686
 20
-707.232
 30
0.000000
  70
    32
  0
VERTEX
  8
図枠
  5
5C4
 10
952.704
 20
-707.248
 30
0.000000
  70
    32
  0
VERTEX
  8
図枠
  5
5C5
 10
952.721
 20
-707.265
 30
0.000000
  70
    32
  0
VERTEX
  8
図枠
  5
5C6
 10
952.739
 20
-707.281
 30
0.000000
  70
    32
  0
VERTEX
  8
図枠
  5
5C7
 10
952.757
 20
-707.298
 30
0.000000
  70
    32
  0
VERTEX
  8
図枠
  5
5C8
 10
952.775
 20
-707.314
 30
0.000000
  70
    32
  0
VERTEX
  8
図枠
  5
5C9
 10
952.792
 20
-707.330
 30
0.000000
  70
    32
  0
VERTEX
  8
図枠
  5
5CA
 10
952.810
 20
-707.347
 30
0.000000
  70
    32
  0
VERTEX
  8
図枠
  5
5CB
 10
952.828
 20
-707.363
 30
0.000000
  70
    32
  0
VERTEX
  8
図枠
  5
5CC
 10
952.846
 20
-707.379
 30
0.000000
  70
    32
  0
VERTEX
  8
図枠
  5
5CD
 10
952.864
 20
-707.395
 30
0.000000
  70
    32
  0
SEQEND
  8
図枠
  5
5CE
  0
LINE
  5
19F
  8
図枠
 10
920.47280327989995
 20
-701.6834614242
 30
0.0
 11
924.22280327990006
 21
-697.9334614242
 31
0.0
  0
LINE
  5
1A0
  8
図枠
 10
952.12431843139996
 20
-703.7387370928999
 30
0.0
 11
950.71010486900002
 21
-705.15295065529995
 31
0.0
  0
LINE
  5
1A1
  8
図枠
 10
992.66802505210001
 20
-708.6834614242
 30
0.0
 11
992.66802505210001
 21
-713.18346142419989
 31
0.0
  0
LINE
  5
1A2
  8
図枠
  6
BORDER
 10
962.32118705919993
 20
-642.87514384140002
 30
0.0
 11
962.32118705919993
 21
-660.87514384140002
 31
0.0
  0
LINE
  5
1A3
  8
図枠
 10
920.47280327989995
 20
-702.93346142419989
 30
0.0
 11
920.47280327989995
 21
-701.6834614242
 31
0.0
  0
LINE
  5
1A4
  8
図枠
 10
959.28111681159999
 20
-710.05628944659998
 30
0.0
 11
958.8358616621
 21
-710.49223480709998
 31
0.0
  0
LINE
  5
1A5
  8
図枠
 10
963.82118705920004
 20
-638.1251438413999
 30
0.0
 11
963.82118705920004
 21
-625.6251438413999
 31
0.0
  0
CIRCLE
  5
1A6
  8
図枠
 10
962.32118705919993
 20
-651.87514384140002
 30
0.0
 40
3.0
  0
POLYLINE
  8
図枠
  5
5CF
  66
     1
 10
0.000000
 20
0.000000
 30
0.000000
  70
     8
  0
VERTEX
  8
図枠
  5
5D0
 10
955.771
 20
-713.274
 30
0.000000
  70
    32
  0
VERTEX
  8
図枠
  5
5D1
 10
955.839
 20
-713.296
 30
0.000000
  70
    32
  0
VERTEX
  8
図枠
  5
5D2
 10
955.906
 20
-713.317
 30
0.000000
  70
    32
  0
VERTEX
  8
図枠
  5
5D3
 10
955.973
 20
-713.338
 30
0.000000
  70
    32
  0
VERTEX
  8
図枠
  5
5D4
 10
956.041
 20
-713.360
 30
0.000000
  70
    32
  0
VERTEX
  8
図枠
  5
5D5
 10
956.108
 20
-713.381
 30
0.000000
  70
    32
  0
VERTEX
  8
図枠
  5
5D6
 10
956.176
 20
-713.401
 30
0.000000
  70
    32
  0
VERTEX
  8
図枠
  5
5D7
 10
956.244
 20
-713.422
 30
0.000000
  70
    32
  0
VERTEX
  8
図枠
  5
5D8
 10
956.311
 20
-713.443
 30
0.000000
  70
    32
  0
VERTEX
  8
図枠
  5
5D9
 10
956.379
 20
-713.464
 30
0.000000
  70
    32
  0
VERTEX
  8
図枠
  5
5DA
 10
956.447
 20
-713.484
 30
0.000000
  70
    32
  0
VERTEX
  8
図枠
  5
5DB
 10
956.515
 20
-713.505
 30
0.000000
  70
    32
  0
VERTEX
  8
図枠
  5
5DC
 10
956.583
 20
-713.525
 30
0.000000
  70
    32
  0
VERTEX
  8
図枠
  5
5DD
 10
956.650
 20
-713.545
 30
0.000000
  70
    32
  0
VERTEX
  8
図枠
  5
5DE
 10
956.718
 20
-713.565
 30
0.000000
  70
    32
  0
VERTEX
  8
図枠
  5
5DF
 10
956.787
 20
-713.585
 30
0.000000
  70
    32
  0
VERTEX
  8
図枠
  5
5E0
 10
956.855
 20
-713.605
 30
0.000000
  70
    32
  0
VERTEX
  8
図枠
  5
5E1
 10
956.923
 20
-713.625
 30
0.000000
  70
    32
  0
VERTEX
  8
図枠
  5
5E2
 10
956.991
 20
-713.645
 30
0.000000
  70
    32
  0
VERTEX
  8
図枠
  5
5E3
 10
957.059
 20
-713.665
 30
0.000000
  70
    32
  0
VERTEX
  8
図枠
  5
5E4
 10
957.128
 20
-713.684
 30
0.000000
  70
    32
  0
VERTEX
  8
図枠
  5
5E5
 10
957.196
 20
-713.704
 30
0.000000
  70
    32
  0
VERTEX
  8
図枠
  5
5E6
 10
957.264
 20
-713.723
 30
0.000000
  70
    32
  0
VERTEX
  8
図枠
  5
5E7
 10
957.333
 20
-713.743
 30
0.000000
  70
    32
  0
VERTEX
  8
図枠
  5
5E8
 10
957.401
 20
-713.762
 30
0.000000
  70
    32
  0
VERTEX
  8
図枠
  5
5E9
 10
957.470
 20
-713.781
 30
0.000000
  70
    32
  0
VERTEX
  8
図枠
  5
5EA
 10
957.538
 20
-713.800
 30
0.000000
  70
    32
  0
VERTEX
  8
図枠
  5
5EB
 10
957.607
 20
-713.819
 30
0.000000
  70
    32
  0
VERTEX
  8
図枠
  5
5EC
 10
957.676
 20
-713.838
 30
0.000000
  70
    32
  0
VERTEX
  8
図枠
  5
5ED
 10
957.744
 20
-713.857
 30
0.000000
  70
    32
  0
VERTEX
  8
図枠
  5
5EE
 10
957.813
 20
-713.876
 30
0.000000
  70
    32
  0
VERTEX
  8
図枠
  5
5EF
 10
957.882
 20
-713.894
 30
0.000000
  70
    32
  0
VERTEX
  8
図枠
  5
5F0
 10
957.951
 20
-713.913
 30
0.000000
  70
    32
  0
VERTEX
  8
図枠
  5
5F1
 10
958.020
 20
-713.931
 30
0.000000
  70
    32
  0
VERTEX
  8
図枠
  5
5F2
 10
958.089
 20
-713.950
 30
0.000000
  70
    32
  0
VERTEX
  8
図枠
  5
5F3
 10
958.158
 20
-713.968
 30
0.000000
  70
    32
  0
VERTEX
  8
図枠
  5
5F4
 10
958.227
 20
-713.986
 30
0.000000
  70
    32
  0
VERTEX
  8
図枠
  5
5F5
 10
958.296
 20
-714.004
 30
0.000000
  70
    32
  0
VERTEX
  8
図枠
  5
5F6
 10
958.365
 20
-714.023
 30
0.000000
  70
    32
  0
VERTEX
  8
図枠
  5
5F7
 10
958.434
 20
-714.041
 30
0.000000
  70
    32
  0
VERTEX
  8
図枠
  5
5F8
 10
958.503
 20
-714.059
 30
0.000000
  70
    32
  0
VERTEX
  8
図枠
  5
5F9
 10
958.573
 20
-714.076
 30
0.000000
  70
    32
  0
VERTEX
  8
図枠
  5
5FA
 10
958.642
 20
-714.094
 30
0.000000
  70
    32
  0
VERTEX
  8
図枠
  5
5FB
 10
958.711
 20
-714.112
 30
0.000000
  70
    32
  0
VERTEX
  8
図枠
  5
5FC
 10
958.780
 20
-714.130
 30
0.000000
  70
    32
  0
VERTEX
  8
図枠
  5
5FD
 10
958.850
 20
-714.147
 30
0.000000
  70
    32
  0
VERTEX
  8
図枠
  5
5FE
 10
958.919
 20
-714.165
 30
0.000000
  70
    32
  0
VERTEX
  8
図枠
  5
5FF
 10
958.989
 20
-714.182
 30
0.000000
  70
    32
  0
VERTEX
  8
図枠
  5
600
 10
959.058
 20
-714.200
 30
0.000000
  70
    32
  0
VERTEX
  8
図枠
  5
601
 10
959.128
 20
-714.217
 30
0.000000
  70
    32
  0
VERTEX
  8
図枠
  5
602
 10
959.197
 20
-714.234
 30
0.000000
  70
    32
  0
VERTEX
  8
図枠
  5
603
 10
959.267
 20
-714.251
 30
0.000000
  70
    32
  0
VERTEX
  8
図枠
  5
604
 10
959.337
 20
-714.269
 30
0.000000
  70
    32
  0
VERTEX
  8
図枠
  5
605
 10
959.406
 20
-714.286
 30
0.000000
  70
    32
  0
VERTEX
  8
図枠
  5
606
 10
959.476
 20
-714.303
 30
0.000000
  70
    32
  0
VERTEX
  8
図枠
  5
607
 10
959.546
 20
-714.320
 30
0.000000
  70
    32
  0
VERTEX
  8
図枠
  5
608
 10
959.615
 20
-714.336
 30
0.000000
  70
    32
  0
VERTEX
  8
図枠
  5
609
 10
959.685
 20
-714.353
 30
0.000000
  70
    32
  0
VERTEX
  8
図枠
  5
60A
 10
959.755
 20
-714.370
 30
0.000000
  70
    32
  0
VERTEX
  8
図枠
  5
60B
 10
959.825
 20
-714.387
 30
0.000000
  70
    32
  0
VERTEX
  8
図枠
  5
60C
 10
959.895
 20
-714.403
 30
0.000000
  70
    32
  0
VERTEX
  8
図枠
  5
60D
 10
959.965
 20
-714.420
 30
0.000000
  70
    32
  0
VERTEX
  8
図枠
  5
60E
 10
960.035
 20
-714.437
 30
0.000000
  70
    32
  0
VERTEX
  8
図枠
  5
60F
 10
960.105
 20
-714.453
 30
0.000000
  70
    32
  0
VERTEX
  8
図枠
  5
610
 10
960.175
 20
-714.470
 30
0.000000
  70
    32
  0
VERTEX
  8
図枠
  5
611
 10
960.245
 20
-714.486
 30
0.000000
  70
    32
  0
VERTEX
  8
図枠
  5
612
 10
960.315
 20
-714.502
 30
0.000000
  70
    32
  0
VERTEX
  8
図枠
  5
613
 10
960.385
 20
-714.519
 30
0.000000
  70
    32
  0
VERTEX
  8
図枠
  5
614
 10
960.455
 20
-714.535
 30
0.000000
  70
    32
  0
VERTEX
  8
図枠
  5
615
 10
960.525
 20
-714.551
 30
0.000000
  70
    32
  0
VERTEX
  8
図枠
  5
616
 10
960.595
 20
-714.567
 30
0.000000
  70
    32
  0
VERTEX
  8
図枠
  5
617
 10
960.666
 20
-714.583
 30
0.000000
  70
    32
  0
VERTEX
  8
図枠
  5
618
 10
960.736
 20
-714.599
 30
0.000000
  70
    32
  0
VERTEX
  8
図枠
  5
619
 10
960.806
 20
-714.615
 30
0.000000
  70
    32
  0
VERTEX
  8
図枠
  5
61A
 10
960.876
 20
-714.631
 30
0.000000
  70
    32
  0
VERTEX
  8
図枠
  5
61B
 10
960.947
 20
-714.647
 30
0.000000
  70
    32
  0
VERTEX
  8
図枠
  5
61C
 10
961.017
 20
-714.663
 30
0.000000
  70
    32
  0
VERTEX
  8
図枠
  5
61D
 10
961.087
 20
-714.679
 30
0.000000
  70
    32
  0
VERTEX
  8
図枠
  5
61E
 10
961.158
 20
-714.694
 30
0.000000
  70
    32
  0
VERTEX
  8
図枠
  5
61F
 10
961.228
 20
-714.710
 30
0.000000
  70
    32
  0
VERTEX
  8
図枠
  5
620
 10
961.299
 20
-714.726
 30
0.000000
  70
    32
  0
VERTEX
  8
図枠
  5
621
 10
961.369
 20
-714.742
 30
0.000000
  70
    32
  0
VERTEX
  8
図枠
  5
622
 10
961.439
 20
-714.757
 30
0.000000
  70
    32
  0
VERTEX
  8
図枠
  5
623
 10
961.510
 20
-714.773
 30
0.000000
  70
    32
  0
VERTEX
  8
図枠
  5
624
 10
961.580
 20
-714.788
 30
0.000000
  70
    32
  0
VERTEX
  8
図枠
  5
625
 10
961.651
 20
-714.804
 30
0.000000
  70
    32
  0
VERTEX
  8
図枠
  5
626
 10
961.721
 20
-714.819
 30
0.000000
  70
    32
  0
VERTEX
  8
図枠
  5
627
 10
961.792
 20
-714.835
 30
0.000000
  70
    32
  0
VERTEX
  8
図枠
  5
628
 10
961.863
 20
-714.850
 30
0.000000
  70
    32
  0
VERTEX
  8
図枠
  5
629
 10
961.933
 20
-714.865
 30
0.000000
  70
    32
  0
VERTEX
  8
図枠
  5
62A
 10
962.004
 20
-714.881
 30
0.000000
  70
    32
  0
VERTEX
  8
図枠
  5
62B
 10
962.074
 20
-714.896
 30
0.000000
  70
    32
  0
VERTEX
  8
図枠
  5
62C
 10
962.145
 20
-714.911
 30
0.000000
  70
    32
  0
VERTEX
  8
図枠
  5
62D
 10
962.216
 20
-714.927
 30
0.000000
  70
    32
  0
VERTEX
  8
図枠
  5
62E
 10
962.286
 20
-714.942
 30
0.000000
  70
    32
  0
VERTEX
  8
図枠
  5
62F
 10
962.357
 20
-714.957
 30
0.000000
  70
    32
  0
VERTEX
  8
図枠
  5
630
 10
962.428
 20
-714.972
 30
0.000000
  70
    32
  0
VERTEX
  8
図枠
  5
631
 10
962.498
 20
-714.987
 30
0.000000
  70
    32
  0
VERTEX
  8
図枠
  5
632
 10
962.569
 20
-715.002
 30
0.000000
  70
    32
  0
VERTEX
  8
図枠
  5
633
 10
962.640
 20
-715.018
 30
0.000000
  70
    32
  0
VERTEX
  8
図枠
  5
634
 10
962.711
 20
-715.033
 30
0.000000
  70
    32
  0
VERTEX
  8
図枠
  5
635
 10
962.781
 20
-715.048
 30
0.000000
  70
    32
  0
VERTEX
  8
図枠
  5
636
 10
962.852
 20
-715.063
 30
0.000000
  70
    32
  0
VERTEX
  8
図枠
  5
637
 10
962.923
 20
-715.078
 30
0.000000
  70
    32
  0
VERTEX
  8
図枠
  5
638
 10
962.994
 20
-715.093
 30
0.000000
  70
    32
  0
VERTEX
  8
図枠
  5
639
 10
963.065
 20
-715.108
 30
0.000000
  70
    32
  0
VERTEX
  8
図枠
  5
63A
 10
963.136
 20
-715.123
 30
0.000000
  70
    32
  0
VERTEX
  8
図枠
  5
63B
 10
963.206
 20
-715.137
 30
0.000000
  70
    32
  0
VERTEX
  8
図枠
  5
63C
 10
963.277
 20
-715.152
 30
0.000000
  70
    32
  0
VERTEX
  8
図枠
  5
63D
 10
963.348
 20
-715.167
 30
0.000000
  70
    32
  0
VERTEX
  8
図枠
  5
63E
 10
963.419
 20
-715.182
 30
0.000000
  70
    32
  0
VERTEX
  8
図枠
  5
63F
 10
963.490
 20
-715.197
 30
0.000000
  70
    32
  0
VERTEX
  8
図枠
  5
640
 10
963.561
 20
-715.212
 30
0.000000
  70
    32
  0
VERTEX
  8
図枠
  5
641
 10
963.632
 20
-715.227
 30
0.000000
  70
    32
  0
VERTEX
  8
図枠
  5
642
 10
963.702
 20
-715.241
 30
0.000000
  70
    32
  0
VERTEX
  8
図枠
  5
643
 10
963.773
 20
-715.256
 30
0.000000
  70
    32
  0
VERTEX
  8
図枠
  5
644
 10
963.844
 20
-715.271
 30
0.000000
  70
    32
  0
VERTEX
  8
図枠
  5
645
 10
963.915
 20
-715.286
 30
0.000000
  70
    32
  0
VERTEX
  8
図枠
  5
646
 10
963.986
 20
-715.301
 30
0.000000
  70
    32
  0
VERTEX
  8
図枠
  5
647
 10
964.057
 20
-715.315
 30
0.000000
  70
    32
  0
VERTEX
  8
図枠
  5
648
 10
964.128
 20
-715.330
 30
0.000000
  70
    32
  0
VERTEX
  8
図枠
  5
649
 10
964.199
 20
-715.345
 30
0.000000
  70
    32
  0
VERTEX
  8
図枠
  5
64A
 10
964.270
 20
-715.360
 30
0.000000
  70
    32
  0
VERTEX
  8
図枠
  5
64B
 10
964.341
 20
-715.374
 30
0.000000
  70
    32
  0
VERTEX
  8
図枠
  5
64C
 10
964.412
 20
-715.389
 30
0.000000
  70
    32
  0
VERTEX
  8
図枠
  5
64D
 10
964.482
 20
-715.404
 30
0.000000
  70
    32
  0
VERTEX
  8
図枠
  5
64E
 10
964.553
 20
-715.419
 30
0.000000
  70
    32
  0
VERTEX
  8
図枠
  5
64F
 10
964.624
 20
-715.433
 30
0.000000
  70
    32
  0
SEQEND
  8
図枠
  5
650
  0
LINE
  5
1A8
  8
図枠
 10
976.03598083839995
 20
-648.8751438413999
 30
0.0
 11
988.03598083839995
 21
-645.87514384140002
 31
0.0
  0
LINE
  5
1A9
  8
図枠
 10
978.32135838539989
 20
-708.6834614242
 30
0.0
 11
977.73469171879992
 21
-706.6834614242
 31
0.0
  0
POLYLINE
  8
図枠
  5
651
  66
     1
 10
0.000000
 20
0.000000
 30
0.000000
  70
     8
  0
VERTEX
  8
図枠
  5
652
 10
942.124
 20
-704.544
 30
0.000000
  70
    32
  0
VERTEX
  8
図枠
  5
653
 10
942.169
 20
-704.586
 30
0.000000
  70
    32
  0
VERTEX
  8
図枠
  5
654
 10
942.214
 20
-704.627
 30
0.000000
  70
    32
  0
VERTEX
  8
図枠
  5
655
 10
942.259
 20
-704.669
 30
0.000000
  70
    32
  0
VERTEX
  8
図枠
  5
656
 10
942.304
 20
-704.710
 30
0.000000
  70
    32
  0
VERTEX
  8
図枠
  5
657
 10
942.349
 20
-704.752
 30
0.000000
  70
    32
  0
VERTEX
  8
図枠
  5
658
 10
942.395
 20
-704.793
 30
0.000000
  70
    32
  0
VERTEX
  8
図枠
  5
659
 10
942.440
 20
-704.835
 30
0.000000
  70
    32
  0
VERTEX
  8
図枠
  5
65A
 10
942.485
 20
-704.876
 30
0.000000
  70
    32
  0
VERTEX
  8
図枠
  5
65B
 10
942.530
 20
-704.917
 30
0.000000
  70
    32
  0
VERTEX
  8
図枠
  5
65C
 10
942.575
 20
-704.959
 30
0.000000
  70
    32
  0
VERTEX
  8
図枠
  5
65D
 10
942.620
 20
-705.000
 30
0.000000
  70
    32
  0
VERTEX
  8
図枠
  5
65E
 10
942.665
 20
-705.042
 30
0.000000
  70
    32
  0
VERTEX
  8
図枠
  5
65F
 10
942.710
 20
-705.083
 30
0.000000
  70
    32
  0
VERTEX
  8
図枠
  5
660
 10
942.755
 20
-705.125
 30
0.000000
  70
    32
  0
VERTEX
  8
図枠
  5
661
 10
942.800
 20
-705.166
 30
0.000000
  70
    32
  0
VERTEX
  8
図枠
  5
662
 10
942.845
 20
-705.208
 30
0.000000
  70
    32
  0
VERTEX
  8
図枠
  5
663
 10
942.890
 20
-705.249
 30
0.000000
  70
    32
  0
VERTEX
  8
図枠
  5
664
 10
942.935
 20
-705.290
 30
0.000000
  70
    32
  0
VERTEX
  8
図枠
  5
665
 10
942.980
 20
-705.332
 30
0.000000
  70
    32
  0
VERTEX
  8
図枠
  5
666
 10
943.026
 20
-705.373
 30
0.000000
  70
    32
  0
VERTEX
  8
図枠
  5
667
 10
943.071
 20
-705.414
 30
0.000000
  70
    32
  0
VERTEX
  8
図枠
  5
668
 10
943.116
 20
-705.456
 30
0.000000
  70
    32
  0
VERTEX
  8
図枠
  5
669
 10
943.161
 20
-705.497
 30
0.000000
  70
    32
  0
VERTEX
  8
図枠
  5
66A
 10
943.206
 20
-705.538
 30
0.000000
  70
    32
  0
VERTEX
  8
図枠
  5
66B
 10
943.251
 20
-705.579
 30
0.000000
  70
    32
  0
VERTEX
  8
図枠
  5
66C
 10
943.296
 20
-705.621
 30
0.000000
  70
    32
  0
VERTEX
  8
図枠
  5
66D
 10
943.342
 20
-705.662
 30
0.000000
  70
    32
  0
VERTEX
  8
図枠
  5
66E
 10
943.387
 20
-705.703
 30
0.000000
  70
    32
  0
VERTEX
  8
図枠
  5
66F
 10
943.432
 20
-705.744
 30
0.000000
  70
    32
  0
VERTEX
  8
図枠
  5
670
 10
943.477
 20
-705.785
 30
0.000000
  70
    32
  0
VERTEX
  8
図枠
  5
671
 10
943.523
 20
-705.826
 30
0.000000
  70
    32
  0
VERTEX
  8
図枠
  5
672
 10
943.568
 20
-705.868
 30
0.000000
  70
    32
  0
VERTEX
  8
図枠
  5
673
 10
943.613
 20
-705.909
 30
0.000000
  70
    32
  0
VERTEX
  8
図枠
  5
674
 10
943.658
 20
-705.950
 30
0.000000
  70
    32
  0
VERTEX
  8
図枠
  5
675
 10
943.704
 20
-705.991
 30
0.000000
  70
    32
  0
VERTEX
  8
図枠
  5
676
 10
943.749
 20
-706.032
 30
0.000000
  70
    32
  0
VERTEX
  8
図枠
  5
677
 10
943.794
 20
-706.072
 30
0.000000
  70
    32
  0
VERTEX
  8
図枠
  5
678
 10
943.840
 20
-706.113
 30
0.000000
  70
    32
  0
VERTEX
  8
図枠
  5
679
 10
943.885
 20
-706.154
 30
0.000000
  70
    32
  0
VERTEX
  8
図枠
  5
67A
 10
943.930
 20
-706.195
 30
0.000000
  70
    32
  0
VERTEX
  8
図枠
  5
67B
 10
943.976
 20
-706.236
 30
0.000000
  70
    32
  0
VERTEX
  8
図枠
  5
67C
 10
944.021
 20
-706.277
 30
0.000000
  70
    32
  0
VERTEX
  8
図枠
  5
67D
 10
944.067
 20
-706.317
 30
0.000000
  70
    32
  0
VERTEX
  8
図枠
  5
67E
 10
944.112
 20
-706.358
 30
0.000000
  70
    32
  0
VERTEX
  8
図枠
  5
67F
 10
944.158
 20
-706.399
 30
0.000000
  70
    32
  0
VERTEX
  8
図枠
  5
680
 10
944.203
 20
-706.439
 30
0.000000
  70
    32
  0
VERTEX
  8
図枠
  5
681
 10
944.249
 20
-706.480
 30
0.000000
  70
    32
  0
VERTEX
  8
図枠
  5
682
 10
944.294
 20
-706.520
 30
0.000000
  70
    32
  0
VERTEX
  8
図枠
  5
683
 10
944.340
 20
-706.561
 30
0.000000
  70
    32
  0
VERTEX
  8
図枠
  5
684
 10
944.385
 20
-706.601
 30
0.000000
  70
    32
  0
VERTEX
  8
図枠
  5
685
 10
944.431
 20
-706.642
 30
0.000000
  70
    32
  0
VERTEX
  8
図枠
  5
686
 10
944.477
 20
-706.682
 30
0.000000
  70
    32
  0
VERTEX
  8
図枠
  5
687
 10
944.522
 20
-706.722
 30
0.000000
  70
    32
  0
VERTEX
  8
図枠
  5
688
 10
944.568
 20
-706.763
 30
0.000000
  70
    32
  0
VERTEX
  8
図枠
  5
689
 10
944.614
 20
-706.803
 30
0.000000
  70
    32
  0
VERTEX
  8
図枠
  5
68A
 10
944.660
 20
-706.843
 30
0.000000
  70
    32
  0
VERTEX
  8
図枠
  5
68B
 10
944.705
 20
-706.883
 30
0.000000
  70
    32
  0
VERTEX
  8
図枠
  5
68C
 10
944.751
 20
-706.923
 30
0.000000
  70
    32
  0
VERTEX
  8
図枠
  5
68D
 10
944.797
 20
-706.963
 30
0.000000
  70
    32
  0
VERTEX
  8
図枠
  5
68E
 10
944.843
 20
-707.003
 30
0.000000
  70
    32
  0
VERTEX
  8
図枠
  5
68F
 10
944.889
 20
-707.043
 30
0.000000
  70
    32
  0
VERTEX
  8
図枠
  5
690
 10
944.935
 20
-707.083
 30
0.000000
  70
    32
  0
VERTEX
  8
図枠
  5
691
 10
944.981
 20
-707.123
 30
0.000000
  70
    32
  0
VERTEX
  8
図枠
  5
692
 10
945.027
 20
-707.163
 30
0.000000
  70
    32
  0
VERTEX
  8
図枠
  5
693
 10
945.073
 20
-707.202
 30
0.000000
  70
    32
  0
VERTEX
  8
図枠
  5
694
 10
945.119
 20
-707.242
 30
0.000000
  70
    32
  0
VERTEX
  8
図枠
  5
695
 10
945.165
 20
-707.282
 30
0.000000
  70
    32
  0
VERTEX
  8
図枠
  5
696
 10
945.211
 20
-707.321
 30
0.000000
  70
    32
  0
VERTEX
  8
図枠
  5
697
 10
945.257
 20
-707.361
 30
0.000000
  70
    32
  0
VERTEX
  8
図枠
  5
698
 10
945.303
 20
-707.400
 30
0.000000
  70
    32
  0
VERTEX
  8
図枠
  5
699
 10
945.349
 20
-707.439
 30
0.000000
  70
    32
  0
VERTEX
  8
図枠
  5
69A
 10
945.395
 20
-707.479
 30
0.000000
  70
    32
  0
VERTEX
  8
図枠
  5
69B
 10
945.442
 20
-707.518
 30
0.000000
  70
    32
  0
VERTEX
  8
図枠
  5
69C
 10
945.488
 20
-707.557
 30
0.000000
  70
    32
  0
VERTEX
  8
図枠
  5
69D
 10
945.534
 20
-707.596
 30
0.000000
  70
    32
  0
VERTEX
  8
図枠
  5
69E
 10
945.581
 20
-707.635
 30
0.000000
  70
    32
  0
VERTEX
  8
図枠
  5
69F
 10
945.627
 20
-707.674
 30
0.000000
  70
    32
  0
VERTEX
  8
図枠
  5
6A0
 10
945.673
 20
-707.713
 30
0.000000
  70
    32
  0
VERTEX
  8
図枠
  5
6A1
 10
945.720
 20
-707.752
 30
0.000000
  70
    32
  0
VERTEX
  8
図枠
  5
6A2
 10
945.766
 20
-707.791
 30
0.000000
  70
    32
  0
VERTEX
  8
図枠
  5
6A3
 10
945.813
 20
-707.830
 30
0.000000
  70
    32
  0
VERTEX
  8
図枠
  5
6A4
 10
945.860
 20
-707.868
 30
0.000000
  70
    32
  0
VERTEX
  8
図枠
  5
6A5
 10
945.906
 20
-707.907
 30
0.000000
  70
    32
  0
VERTEX
  8
図枠
  5
6A6
 10
945.953
 20
-707.945
 30
0.000000
  70
    32
  0
VERTEX
  8
図枠
  5
6A7
 10
946.000
 20
-707.984
 30
0.000000
  70
    32
  0
VERTEX
  8
図枠
  5
6A8
 10
946.046
 20
-708.022
 30
0.000000
  70
    32
  0
VERTEX
  8
図枠
  5
6A9
 10
946.093
 20
-708.060
 30
0.000000
  70
    32
  0
VERTEX
  8
図枠
  5
6AA
 10
946.140
 20
-708.098
 30
0.000000
  70
    32
  0
VERTEX
  8
図枠
  5
6AB
 10
946.187
 20
-708.137
 30
0.000000
  70
    32
  0
VERTEX
  8
図枠
  5
6AC
 10
946.234
 20
-708.175
 30
0.000000
  70
    32
  0
VERTEX
  8
図枠
  5
6AD
 10
946.281
 20
-708.213
 30
0.000000
  70
    32
  0
VERTEX
  8
図枠
  5
6AE
 10
946.328
 20
-708.250
 30
0.000000
  70
    32
  0
VERTEX
  8
図枠
  5
6AF
 10
946.375
 20
-708.288
 30
0.000000
  70
    32
  0
VERTEX
  8
図枠
  5
6B0
 10
946.422
 20
-708.326
 30
0.000000
  70
    32
  0
VERTEX
  8
図枠
  5
6B1
 10
946.469
 20
-708.364
 30
0.000000
  70
    32
  0
VERTEX
  8
図枠
  5
6B2
 10
946.516
 20
-708.401
 30
0.000000
  70
    32
  0
VERTEX
  8
図枠
  5
6B3
 10
946.563
 20
-708.439
 30
0.000000
  70
    32
  0
VERTEX
  8
図枠
  5
6B4
 10
946.610
 20
-708.476
 30
0.000000
  70
    32
  0
VERTEX
  8
図枠
  5
6B5
 10
946.658
 20
-708.513
 30
0.000000
  70
    32
  0
VERTEX
  8
図枠
  5
6B6
 10
946.705
 20
-708.551
 30
0.000000
  70
    32
  0
VERTEX
  8
図枠
  5
6B7
 10
946.752
 20
-708.588
 30
0.000000
  70
    32
  0
VERTEX
  8
図枠
  5
6B8
 10
946.800
 20
-708.625
 30
0.000000
  70
    32
  0
VERTEX
  8
図枠
  5
6B9
 10
946.847
 20
-708.662
 30
0.000000
  70
    32
  0
VERTEX
  8
図枠
  5
6BA
 10
946.895
 20
-708.699
 30
0.000000
  70
    32
  0
VERTEX
  8
図枠
  5
6BB
 10
946.942
 20
-708.736
 30
0.000000
  70
    32
  0
VERTEX
  8
図枠
  5
6BC
 10
946.990
 20
-708.772
 30
0.000000
  70
    32
  0
VERTEX
  8
図枠
  5
6BD
 10
947.038
 20
-708.809
 30
0.000000
  70
    32
  0
VERTEX
  8
図枠
  5
6BE
 10
947.085
 20
-708.845
 30
0.000000
  70
    32
  0
VERTEX
  8
図枠
  5
6BF
 10
947.133
 20
-708.882
 30
0.000000
  70
    32
  0
VERTEX
  8
図枠
  5
6C0
 10
947.181
 20
-708.918
 30
0.000000
  70
    32
  0
VERTEX
  8
図枠
  5
6C1
 10
947.229
 20
-708.954
 30
0.000000
  70
    32
  0
VERTEX
  8
図枠
  5
6C2
 10
947.277
 20
-708.990
 30
0.000000
  70
    32
  0
VERTEX
  8
図枠
  5
6C3
 10
947.325
 20
-709.026
 30
0.000000
  70
    32
  0
VERTEX
  8
図枠
  5
6C4
 10
947.373
 20
-709.062
 30
0.000000
  70
    32
  0
VERTEX
  8
図枠
  5
6C5
 10
947.421
 20
-709.098
 30
0.000000
  70
    32
  0
VERTEX
  8
図枠
  5
6C6
 10
947.469
 20
-709.134
 30
0.000000
  70
    32
  0
VERTEX
  8
図枠
  5
6C7
 10
947.517
 20
-709.170
 30
0.000000
  70
    32
  0
VERTEX
  8
図枠
  5
6C8
 10
947.566
 20
-709.205
 30
0.000000
  70
    32
  0
VERTEX
  8
図枠
  5
6C9
 10
947.614
 20
-709.241
 30
0.000000
  70
    32
  0
VERTEX
  8
図枠
  5
6CA
 10
947.662
 20
-709.276
 30
0.000000
  70
    32
  0
VERTEX
  8
図枠
  5
6CB
 10
947.711
 20
-709.311
 30
0.000000
  70
    32
  0
VERTEX
  8
図枠
  5
6CC
 10
947.759
 20
-709.346
 30
0.000000
  70
    32
  0
VERTEX
  8
図枠
  5
6CD
 10
947.808
 20
-709.381
 30
0.000000
  70
    32
  0
VERTEX
  8
図枠
  5
6CE
 10
947.856
 20
-709.416
 30
0.000000
  70
    32
  0
VERTEX
  8
図枠
  5
6CF
 10
947.905
 20
-709.451
 30
0.000000
  70
    32
  0
VERTEX
  8
図枠
  5
6D0
 10
947.954
 20
-709.486
 30
0.000000
  70
    32
  0
VERTEX
  8
図枠
  5
6D1
 10
948.002
 20
-709.520
 30
0.000000
  70
    32
  0
VERTEX
  8
図枠
  5
6D2
 10
948.051
 20
-709.555
 30
0.000000
  70
    32
  0
VERTEX
  8
図枠
  5
6D3
 10
948.100
 20
-709.589
 30
0.000000
  70
    32
  0
VERTEX
  8
図枠
  5
6D4
 10
948.149
 20
-709.624
 30
0.000000
  70
    32
  0
VERTEX
  8
図枠
  5
6D5
 10
948.198
 20
-709.658
 30
0.000000
  70
    32
  0
VERTEX
  8
図枠
  5
6D6
 10
948.247
 20
-709.692
 30
0.000000
  70
    32
  0
VERTEX
  8
図枠
  5
6D7
 10
948.296
 20
-709.726
 30
0.000000
  70
    32
  0
VERTEX
  8
図枠
  5
6D8
 10
948.346
 20
-709.759
 30
0.000000
  70
    32
  0
VERTEX
  8
図枠
  5
6D9
 10
948.395
 20
-709.793
 30
0.000000
  70
    32
  0
VERTEX
  8
図枠
  5
6DA
 10
948.444
 20
-709.827
 30
0.000000
  70
    32
  0
VERTEX
  8
図枠
  5
6DB
 10
948.493
 20
-709.860
 30
0.000000
  70
    32
  0
VERTEX
  8
図枠
  5
6DC
 10
948.543
 20
-709.894
 30
0.000000
  70
    32
  0
VERTEX
  8
図枠
  5
6DD
 10
948.592
 20
-709.927
 30
0.000000
  70
    32
  0
VERTEX
  8
図枠
  5
6DE
 10
948.642
 20
-709.960
 30
0.000000
  70
    32
  0
VERTEX
  8
図枠
  5
6DF
 10
948.692
 20
-709.993
 30
0.000000
  70
    32
  0
VERTEX
  8
図枠
  5
6E0
 10
948.741
 20
-710.026
 30
0.000000
  70
    32
  0
VERTEX
  8
図枠
  5
6E1
 10
948.791
 20
-710.058
 30
0.000000
  70
    32
  0
VERTEX
  8
図枠
  5
6E2
 10
948.841
 20
-710.091
 30
0.000000
  70
    32
  0
VERTEX
  8
図枠
  5
6E3
 10
948.891
 20
-710.123
 30
0.000000
  70
    32
  0
VERTEX
  8
図枠
  5
6E4
 10
948.941
 20
-710.156
 30
0.000000
  70
    32
  0
VERTEX
  8
図枠
  5
6E5
 10
948.991
 20
-710.188
 30
0.000000
  70
    32
  0
VERTEX
  8
図枠
  5
6E6
 10
949.041
 20
-710.220
 30
0.000000
  70
    32
  0
VERTEX
  8
図枠
  5
6E7
 10
949.091
 20
-710.252
 30
0.000000
  70
    32
  0
VERTEX
  8
図枠
  5
6E8
 10
949.141
 20
-710.284
 30
0.000000
  70
    32
  0
VERTEX
  8
図枠
  5
6E9
 10
949.192
 20
-710.316
 30
0.000000
  70
    32
  0
VERTEX
  8
図枠
  5
6EA
 10
949.242
 20
-710.347
 30
0.000000
  70
    32
  0
VERTEX
  8
図枠
  5
6EB
 10
949.293
 20
-710.379
 30
0.000000
  70
    32
  0
VERTEX
  8
図枠
  5
6EC
 10
949.343
 20
-710.410
 30
0.000000
  70
    32
  0
VERTEX
  8
図枠
  5
6ED
 10
949.394
 20
-710.441
 30
0.000000
  70
    32
  0
VERTEX
  8
図枠
  5
6EE
 10
949.444
 20
-710.472
 30
0.000000
  70
    32
  0
VERTEX
  8
図枠
  5
6EF
 10
949.495
 20
-710.503
 30
0.000000
  70
    32
  0
VERTEX
  8
図枠
  5
6F0
 10
949.546
 20
-710.534
 30
0.000000
  70
    32
  0
VERTEX
  8
図枠
  5
6F1
 10
949.597
 20
-710.565
 30
0.000000
  70
    32
  0
SEQEND
  8
図枠
  5
6F2
  0
INSERT
  5
1AB
  8
0
  6
CONTINUOUS
  2
*U55
 10
0.0
 20
0.0
 30
0.0
  0
INSERT
  5
1AC
  8
0
  6
CONTINUOUS
  2
*U56
 10
0.0
 20
0.0
 30
0.0
  0
INSERT
  5
1AD
  8
0
  6
CONTINUOUS
  2
*U57
 10
0.0
 20
0.0
 30
0.0
  0
INSERT
  5
1AE
  8
0
  6
CONTINUOUS
  2
*U58
 10
0.0
 20
0.0
 30
0.0
  0
INSERT
  5
1AF
  8
0
  6
CONTINUOUS
  2
*U59
 10
0.0
 20
0.0
 30
0.0
  0
LINE
  5
1B0
  8
図枠
 10
976.41469171879999
 20
-702.1834614242
 30
0.0
 11
975.16802505210012
 21
-697.9334614242
 31
0.0
  0
LINE
  5
1B1
  8
図枠
  6
BORDER
 10
962.32118705919993
 20
-642.87514384140002
 30
0.0
 11
962.32118705919993
 21
-660.87514384140002
 31
0.0
  0
LINE
  5
1B2
  8
図枠
 10
942.12431843139996
 20
-703.7387370928999
 30
0.0
 11
952.12431843139996
 21
-703.7387370928999
 31
0.0
  0
ARC
  5
1B3
  8
図枠
 10
945.12431843139996
 20
-702.1834614242
 30
0.0
 40
9.5
 50
270.0
 51
298.08590481520002
  0
LINE
  5
1B4
  8
図枠
 10
962.12431843139996
 20
-701.6834614242
 30
0.0
 11
964.62431843139996
 21
-697.9334614242
 31
0.0
  0
LINE
  5
1B5
  8
図枠
 10
975.16802505210012
 20
-697.9334614242
 30
0.0
 11
985.16802505210012
 21
-697.9334614242
 31
0.0
  0
LINE
  5
1B6
  8
図枠
 10
925.47280327989995
 20
-697.9334614242
 30
0.0
 11
925.47280327989995
 21
-702.93346142419989
 31
0.0
  0
LINE
  5
1B7
  8
図枠
 10
976.03598083839995
 20
-654.87514384140002
 30
0.0
 11
988.03598083839995
 21
-657.87514384140002
 31
0.0
  0
LINE
  5
1B8
  8
図枠
 10
988.03598083839995
 20
-645.87514384140002
 30
0.0
 11
988.03598083839995
 21
-657.87514384140002
 31
0.0
  0
CIRCLE
  5
1B9
  8
図枠
 10
962.32118705919993
 20
-651.87514384140002
 30
0.0
 40
6.0
  0
LINE
  5
1BA
  8
図枠
 10
988.03598083839995
 20
-645.87514384140002
 30
0.0
 11
988.03598083839995
 21
-657.87514384140002
 31
0.0
  0
LINE
  5
1BB
  8
図枠
 10
976.03598083839995
 20
-648.8751438413999
 30
0.0
 11
988.03598083839995
 21
-645.87514384140002
 31
0.0
  0
LINE
  5
1BC
  8
図枠
 10
976.03598083839995
 20
-654.87514384140002
 30
0.0
 11
988.03598083839995
 21
-657.87514384140002
 31
0.0
  0
LINE
  5
1BD
  8
図枠
 10
970.16802505210001
 20
-708.6834614242
 30
0.0
 11
970.16802505210001
 21
-713.18346142419989
 31
0.0
  0
LINE
  5
1BE
  8
図枠
 10
925.47280327989995
 20
-706.6834614242
 30
0.0
 11
925.47280327989995
 21
-707.9334614242
 31
0.0
  0
LINE
  5
1BF
  8
図枠
 10
931.72280327989995
 20
-702.93346142419989
 30
0.0
 11
931.72280327989995
 21
-701.6834614242
 31
0.0
  0
ARC
  5
1C0
  8
図枠
 10
921.72280327990006
 20
-707.9334614242
 30
0.0
 40
3.75
 50
270.0
 51
0.0
  0
ARC
  5
1C1
  8
図枠
 10
948.37431843139996
 20
-701.6834614242
 30
0.0
 40
13.75
 50
270.0
 51
302.54495885400001
  0
LINE
  5
1C2
  8
図枠
 10
980.66802505210012
 20
-716.6834614242
 30
0.0
 11
979.64135838539994
 21
-713.18346142419989
 31
0.0
  0
LINE
  5
1C3
  8
図枠
 10
970.16802505210001
 20
-713.18346142419989
 30
0.0
 11
979.64135838539994
 21
-713.18346142419989
 31
0.0
  0
LINE
  5
1C4
  8
図枠
 10
942.12431843139996
 20
-711.6834614242
 30
0.0
 11
945.12431843139996
 21
-711.6834614242
 31
0.0
  0
LINE
  5
1C5
  8
図枠
 10
942.12431843139996
 20
-704.54401276160002
 30
0.0
 11
942.12431843139996
 21
-703.7387370928999
 31
0.0
  0
LINE
  5
1C6
  8
図枠
 10
970.16802505210001
 20
-708.6834614242
 30
0.0
 11
978.32135838539989
 21
-708.6834614242
 31
0.0
  0
LINE
  5
1C7
  8
図枠
 10
942.12431843139996
 20
-711.6834614242
 30
0.0
 11
942.12431843139996
 21
-715.43346142419989
 31
0.0
  0
LINE
  5
1C8
  8
図枠
 10
914.22280327989995
 20
-706.6834614242
 30
0.0
 11
913.84504375100005
 21
-706.6834614242
 31
0.0
  0
LINE
  5
1C9
  8
図枠
 10
914.22280327989995
 20
-715.43346142419989
 30
0.0
 11
924.22280327990006
 21
-715.43346142419989
 31
0.0
  0
LINE
  5
1CA
  8
図枠
 10
942.12431843139996
 20
-715.43346142419989
 30
0.0
 11
942.12431843139996
 21
-711.6834614242
 31
0.0
  0
LINE
  5
1CB
  8
図枠
 10
964.62431843139996
 20
-697.9334614242
 30
0.0
 11
942.12431843139996
 21
-697.9334614242
 31
0.0
  0
LINE
  5
1CC
  8
図枠
 10
916.32118705919981
 20
-679.37514384140002
 30
0.0
 11
997.57118705919981
 21
-679.37514384140002
 31
0.0
  0
LINE
  5
1CD
  8
図枠
 10
910.07118705919981
 20
-665.62514384140002
 30
0.0
 11
910.07118705919981
 21
-693.12514384140002
 31
0.0
  0
INSERT
  5
1CE
  8
0
  6
CONTINUOUS
  2
*U60
 10
0.0
 20
0.0
 30
0.0
  0
LINE
  5
1CF
  8
図枠
 10
885.07118705919981
 20
-651.87514384140002
 30
0.0
 11
935.07118705919981
 21
-651.87514384140002
 31
0.0
  0
LINE
  5
1D0
  8
図枠
 10
941.32118705919981
 20
-638.1251438413999
 30
0.0
 11
941.32118705919981
 21
-665.62514384140002
 31
0.0
  0
INSERT
  5
1D1
  8
0
  6
CONTINUOUS
  2
*U61
 10
0.0
 20
0.0
 30
0.0
  0
LINE
  5
1D2
  8
図枠
 10
986.66084837039978
 20
-713.18346142419989
 30
0.0
 11
992.66802505210001
 21
-713.18346142419989
 31
0.0
  0
LINE
  5
1D3
  8
図枠
 10
987.66802505210012
 20
-716.6834614242
 30
0.0
 11
980.66802505210012
 21
-716.6834614242
 31
0.0
  0
LINE
  5
1D4
  8
図枠
 10
931.72280327989995
 20
-707.9334614242
 30
0.0
 11
931.72280327989995
 21
-706.6834614242
 31
0.0
  0
LINE
  5
1D5
  8
図枠
 10
924.22280327990006
 20
-697.9334614242
 30
0.0
 11
914.22280327989995
 21
-697.9334614242
 31
0.0
  0
CIRCLE
  5
1D6
  8
図枠
 10
962.32118705919993
 20
-651.87514384140002
 30
0.0
 40
3.0
  0
LINE
  5
1D7
  8
図枠
 10
921.72280327990006
 20
-711.6834614242
 30
0.0
 11
914.22280327989995
 21
-711.6834614242
 31
0.0
  0
LINE
  5
1D8
  8
図枠
 10
985.36590692250013
 20
-708.6834614242
 30
0.0
 11
984.79037739009982
 21
-706.6834614242
 31
0.0
  0
LINE
  5
1D9
  8
図枠
 10
983.49543594220006
 20
-702.1834614242
 30
0.0
 11
992.66802505210001
 21
-702.1834614242
 31
0.0
  0
LINE
  5
1DA
  8
図枠
 10
983.49543594220006
 20
-702.1834614242
 30
0.0
 11
983.12945031669994
 21
-700.91163919799999
 31
0.0
  0
LINE
  5
1DB
  8
図枠
 10
976.03598083839995
 20
-654.87514384140002
 30
0.0
 11
988.03598083839995
 21
-657.87514384140002
 31
0.0
  0
LINE
  5
1DC
  8
図枠
 10
988.03598083839995
 20
-645.87514384140002
 30
0.0
 11
988.03598083839995
 21
-657.87514384140002
 31
0.0
  0
LINE
  5
1DD
  8
図枠
 10
976.03598083839995
 20
-648.8751438413999
 30
0.0
 11
976.03598083839995
 21
-654.87514384140002
 31
0.0
  0
CIRCLE
  5
1DE
  8
図枠
 10
962.32118705919993
 20
-651.87514384140002
 30
0.0
 40
3.0
  0
LINE
  5
1DF
  8
図枠
 10
976.03598083839995
 20
-648.8751438413999
 30
0.0
 11
976.03598083839995
 21
-654.87514384140002
 31
0.0
  0
LINE
  5
1E0
  8
図枠
 10
914.22280327989995
 20
-697.9334614242
 30
0.0
 11
914.22280327989995
 21
-702.93346142419989
 31
0.0
  0
ARC
  5
1E1
  8
図枠
 10
924.22280327990006
 20
-707.9334614242
 30
0.0
 40
7.5
 50
270.0
 51
0.0
  0
LINE
  5
1E2
  8
図枠
  6
BORDER
 10
962.32118705919993
 20
-642.87514384140002
 30
0.0
 11
962.32118705919993
 21
-660.87514384140002
 31
0.0
  0
CIRCLE
  5
1E3
  8
図枠
 10
962.32118705919993
 20
-651.87514384140002
 30
0.0
 40
6.0
  0
LINE
  5
1E4
  8
図枠
 10
987.66802505210012
 20
-716.6834614242
 30
0.0
 11
986.66084837039978
 21
-713.18346142419989
 31
0.0
  0
LINE
  5
1E5
  8
図枠
 10
942.12431843139996
 20
-697.9334614242
 30
0.0
 11
942.12431843139996
 21
-702.4334614242
 31
0.0
  0
LINE
  5
1E6
  8
図枠
 10
920.47280327989995
 20
-706.6834614242
 30
0.0
 11
925.47280327989995
 21
-706.6834614242
 31
0.0
  0
LINE
  5
1E7
  8
図枠
 10
911.34504375100005
 20
-706.6834614242
 30
0.0
 11
913.84504375100005
 21
-706.6834614242
 31
0.0
  0
ARC
  5
1E8
  8
図枠
 10
948.37431843139996
 20
-701.6834614242
 30
0.0
 40
13.75
 50
322.48761197969998
 51
0.0
  0
LINE
  5
1E9
  8
図枠
 10
970.16802505210001
 20
-702.1834614242
 30
0.0
 11
976.41469171879999
 21
-702.1834614242
 31
0.0
  0
LINE
  5
1EA
  8
図枠
 10
942.12431843139996
 20
-702.4334614242
 30
0.0
 11
954.62431843139996
 21
-702.4334614242
 31
0.0
  0
LINE
  5
1EB
  8
図枠
 10
914.22280327989995
 20
-710.4334614242
 30
0.0
 11
920.47280327989995
 21
-710.4334614242
 31
0.0
  0
LINE
  5
1EC
  8
図枠
 10
953.4650996606
 20
-706.731138687
 30
0.0
 11
952.86361014479985
 21
-707.39548458839988
 31
0.0
  0
LINE
  5
1ED
  8
図枠
 10
911.34504375100005
 20
-702.93346142419989
 30
0.0
 11
911.34504375100005
 21
-706.6834614242
 31
0.0
  0
LINE
  5
1EE
  8
図枠
 10
935.47280327989995
 20
-702.93346142419989
 30
0.0
 11
935.47280327989995
 21
-706.6834614242
 31
0.0
  0
LINE
  5
1EF
  8
図枠
 10
935.47280327989995
 20
-697.9334614242
 30
0.0
 11
925.47280327989995
 21
-697.9334614242
 31
0.0
  0
LINE
  5
1F0
  8
図枠
 10
985.36590692250013
 20
-708.6834614242
 30
0.0
 11
992.66802505210001
 21
-708.6834614242
 31
0.0
  0
INSERT
  5
1F1
  8
0
  6
CONTINUOUS
  2
*U62
 10
0.0
 20
0.0
 30
0.0
  0
LINE
  5
1F2
  8
図枠
 10
976.03598083839995
 20
-648.8751438413999
 30
0.0
 11
976.03598083839995
 21
-654.87514384140002
 31
0.0
  0
ARC
  5
1F3
  8
図枠
 10
945.12431843139996
 20
-702.1834614242
 30
0.0
 40
9.5
 50
331.39928138329998
 51
358.49204224580001
  0
LINE
  5
1F4
  8
図枠
 10
931.72280327989995
 20
-706.6834614242
 30
0.0
 11
935.47280327989995
 21
-706.6834614242
 31
0.0
  0
LINE
  5
1F5
  8
図枠
 10
992.66802505210001
 20
-702.1834614242
 30
0.0
 11
992.66802505210001
 21
-706.6834614242
 31
0.0
  0
LINE
  5
1F6
  8
図枠
 10
970.16802505210001
 20
-706.6834614242
 30
0.0
 11
977.73469171879992
 21
-706.6834614242
 31
0.0
  0
LINE
  5
1F7
  8
図枠
 10
935.47280327989995
 20
-702.93346142419989
 30
0.0
 11
931.72280327989995
 21
-702.93346142419989
 31
0.0
  0
LINE
  5
1F8
  8
図枠
 10
914.22280327989995
 20
-702.93346142419989
 30
0.0
 11
911.34504375100005
 21
-702.93346142419989
 31
0.0
  0
LINE
  5
1F9
  8
図枠
 10
914.22280327989995
 20
-706.6834614242
 30
0.0
 11
914.22280327989995
 21
-710.4334614242
 31
0.0
  0
LINE
  5
1FA
  8
図枠
 10
931.72280327989995
 20
-701.6834614242
 30
0.0
 11
935.47280327989995
 21
-697.9334614242
 31
0.0
  0
LINE
  5
1FB
  8
図枠
 62
     5
 10
874.71033343780005
 20
-614.34936536060002
 30
0.0
 11
868.52283343779993
 21
-625.06642973240002
 31
0.0
  0
INSERT
  5
1FC
  8
0
  6
CONTINUOUS
  2
*U63
 10
0.0
 20
0.0
 30
0.0
  0
INSERT
  5
1FD
  8
0
  6
CONTINUOUS
  2
*U64
 10
0.0
 20
0.0
 30
0.0
  0
INSERT
  5
1FE
  8
0
  6
CONTINUOUS
  2
*U65
 10
0.0
 20
0.0
 30
0.0
  0
INSERT
  5
1FF
  8
0
  6
CONTINUOUS
  2
*U66
 10
0.0
 20
0.0
 30
0.0
  0
INSERT
  5
200
  8
0
  6
CONTINUOUS
  2
*U67
 10
0.0
 20
0.0
 30
0.0
  0
INSERT
  5
201
  8
0
  6
CONTINUOUS
  2
*U68
 10
0.0
 20
0.0
 30
0.0
  0
INSERT
  5
202
  8
0
  6
CONTINUOUS
  2
*U69
 10
0.0
 20
0.0
 30
0.0
  0
LINE
  5
203
  8
図枠
 10
942.12431843139996
 20
-715.43346142419989
 30
0.0
 11
948.37431843139996
 21
-715.43346142419989
 31
0.0
  0
LINE
  5
204
  8
図枠
 10
988.03598083839995
 20
-645.87514384140002
 30
0.0
 11
988.03598083839995
 21
-657.87514384140002
 31
0.0
  0
LINE
  5
205
  8
図枠
  6
BORDER
 10
962.32118705919993
 20
-642.87514384140002
 30
0.0
 11
962.32118705919993
 21
-660.87514384140002
 31
0.0
  0
LINE
  5
206
  8
図枠
 10
983.12945031669994
 20
-700.91163919799999
 30
0.0
 11
985.16802505210012
 21
-697.9334614242
 31
0.0
  0
LINE
  5
207
  8
図枠
 10
878.82118705919981
 20
-638.1251438413999
 30
0.0
 11
878.82118705919981
 21
-665.62514384140002
 31
0.0
  0
LINE
  5
208
  8
図枠
 10
976.03598083839995
 20
-654.87514384140002
 30
0.0
 11
988.03598083839995
 21
-657.87514384140002
 31
0.0
  0
LINE
  5
209
  8
図枠
 10
976.03598083839995
 20
-648.8751438413999
 30
0.0
 11
988.03598083839995
 21
-645.87514384140002
 31
0.0
  0
CIRCLE
  5
20A
  8
図枠
 10
962.32118705919993
 20
-651.87514384140002
 30
0.0
 40
6.0
  0
CIRCLE
  5
20B
  8
図枠
 10
962.32118705919993
 20
-651.87514384140002
 30
0.0
 40
3.0
  0
LINE
  5
20C
  8
図枠
  6
BORDER
 10
953.32118705919993
 20
-651.87514384140002
 30
0.0
 11
991.82118705919993
 21
-651.87514384140002
 31
0.0
  0
LINE
  5
20D
  8
図枠
 10
962.12431843139996
 20
-701.6834614242
 30
0.0
 11
964.62431843139996
 21
-697.9334614242
 31
0.0
  0
INSERT
  5
20E
  8
0
  6
CONTINUOUS
  2
*U70
 10
0.0
 20
0.0
 30
0.0
  0
INSERT
  5
20F
  8
0
  6
CONTINUOUS
  2
*U71
 10
0.0
 20
0.0
 30
0.0
  0
INSERT
  5
210
  8
0
  6
CONTINUOUS
  2
*U72
 10
0.0
 20
0.0
 30
0.0
  0
CIRCLE
  5
211
  8
図枠
 10
962.32118705919993
 20
-651.87514384140002
 30
0.0
 40
6.0
  0
LINE
  5
212
  8
図枠
 10
976.03598083839995
 20
-648.8751438413999
 30
0.0
 11
988.03598083839995
 21
-645.87514384140002
 31
0.0
  0
LINE
  5
213
  8
図枠
 10
976.03598083839995
 20
-648.8751438413999
 30
0.0
 11
976.03598083839995
 21
-654.87514384140002
 31
0.0
  0
INSERT
  5
214
  8
0
  6
CONTINUOUS
  2
*U73
 10
0.0
 20
0.0
 30
0.0
  0
LINE
  5
215
  8
図枠
 10
816.32118705919981
 20
-638.1251438413999
 30
0.0
 11
816.32118705919981
 21
-720.62514384140002
 31
0.0
  0
LINE
  5
216
  8
図枠
 10
816.32118705919981
 20
-638.1251438413999
 30
0.0
 11
816.32118705919981
 21
-625.6251438413999
 31
0.0
  0
INSERT
  5
217
  8
0
  6
CONTINUOUS
  2
*U74
 10
0.0
 20
0.0
 30
0.0
  0
INSERT
  5
218
  8
0
  6
CONTINUOUS
  2
*U75
 10
0.0
 20
0.0
 30
0.0
  0
LINE
  5
219
  8
図枠
 10
838.82118705919981
 20
-638.1251438413999
 30
0.0
 11
838.82118705919981
 21
-625.6251438413999
 31
0.0
  0
INSERT
  5
21A
  8
0
  6
CONTINUOUS
  2
*U76
 10
0.0
 20
0.0
 30
0.0
  0
DIMENSION
  5
22A
  8
寸法線
  2
*D10
 10
594.18536755399987
 20
-351.86840803600001
 30
0.0
 11
594.18536755399987
 21
-401.86840803599989
 31
0.0
 70
   128
  1
200
 13
649.60824579910002
 23
-351.86840803600001
 33
0.0
 14
638.04887079909997
 24
-451.86840803599989
 34
0.0
 50
90.0
  0
LINE
  5
22B
  8
ﾚｲﾔ_1
 62
     5
 10
635.54887079910009
 20
-435.56840803599988
 30
0.0
 11
707.1488707991
 21
-435.56840803599988
 31
0.0
  0
ARC
  5
22C
  8
ﾚｲﾔ_1
 62
     5
 10
704.6488707991
 20
-449.36840803600001
 30
0.0
 40
2.5
 50
270.0
 51
0.0
  0
LINE
  5
22D
  8
ﾚｲﾔ_1
 62
     5
 10
635.54887079910009
 20
-435.56840803599988
 30
0.0
 11
635.54887079910009
 21
-449.36840803600001
 31
0.0
  0
LINE
  5
22E
  8
ﾚｲﾔ_1
 62
     5
 10
638.04887079909997
 20
-451.86840803599989
 30
0.0
 11
704.6488707991
 21
-451.86840803599989
 31
0.0
  0
ARC
  5
22F
  8
ﾚｲﾔ_1
 62
     5
 10
638.04887079909997
 20
-449.36840803600001
 30
0.0
 40
2.5
 50
180.0
 51
270.0
  0
LINE
  5
230
  8
ﾚｲﾔ_1
  6
BORDER
 62
     3
 10
649.60824579910002
 20
-351.86840803600001
 30
0.0
 11
692.07387079909995
 21
-351.86840803600001
 31
0.0
  0
CIRCLE
  5
231
  8
ﾚｲﾔ_1
 10
671.34887079910004
 20
-351.86840803600001
 30
0.0
 40
10.5
  0
CIRCLE
  5
232
  8
ﾚｲﾔ_1
 62
     5
 10
671.34887079910004
 20
-351.86840803600001
 30
0.0
 40
9.5
  0
CIRCLE
  5
233
  8
ﾚｲﾔ_1
 62
     5
 10
671.34887079910004
 20
-351.86840803600001
 30
0.0
 40
9.5
  0
CIRCLE
  5
234
  8
ﾚｲﾔ_1
 62
     5
 10
671.34887079910004
 20
-351.86840803600001
 30
0.0
 40
11.5
  0
CIRCLE
  5
235
  8
ﾚｲﾔ_1
 62
     5
 10
671.34887079910004
 20
-351.86840803600001
 30
0.0
 40
15.25
  0
LINE
  5
236
  8
ﾚｲﾔ_1
 62
     5
 10
834.39090826970005
 20
-435.56840803599988
 30
0.0
 11
834.39090826970005
 21
-449.36840803600001
 31
0.0
  0
ARC
  5
237
  8
ﾚｲﾔ_1
 62
     5
 10
836.89090826969993
 20
-449.36840803600001
 30
0.0
 40
2.5
 50
180.0
 51
270.0
  0
LINE
  5
238
  8
ﾚｲﾔ_1
 62
     5
 10
707.1488707991
 20
-435.56840803599988
 30
0.0
 11
707.1488707991
 21
-449.36840803600001
 31
0.0
  0
INSERT
  5
239
  8
0
  6
CONTINUOUS
  2
*U77
 10
0.0
 20
0.0
 30
0.0
  0
LINE
  5
23A
  8
図枠
 62
     5
 10
868.52283343779993
 20
-625.06642973240002
 30
0.0
 11
880.89783343779982
 21
-625.06642973240002
 31
0.0
  0
LINE
  5
23B
  8
図枠
 62
     5
 10
874.71033343780005
 20
-614.34936536060002
 30
0.0
 11
880.89783343779982
 21
-625.06642973240002
 31
0.0
  0
ARC
  5
23C
  8
ﾚｲﾔ_1
 62
     5
 10
636.2488707990999
 20
41.631591964000002
 30
0.0
 40
2.5
 50
90.0
 51
180.0
  0
LINE
  5
23D
  8
ﾚｲﾔ_1
 62
     5
 10
633.74887079910002
 20
28.631591963999998
 30
0.0
 11
633.74887079910002
 21
41.631591964000002
 31
0.0
  0
ARC
  5
23E
  8
ﾚｲﾔ_1
 62
     5
 10
835.09090826969987
 20
41.631591964000002
 30
0.0
 40
2.5
 50
90.0
 51
180.0
  0
LINE
  5
23F
  8
ﾚｲﾔ_1
 62
     5
 10
832.59090826969998
 20
28.631591963999998
 30
0.0
 11
832.59090826969998
 21
41.631591964000002
 31
0.0
  0
LINE
  5
240
  8
ﾚｲﾔ_1
 62
     5
 10
708.94887079910006
 20
28.631591963999998
 30
0.0
 11
708.94887079910006
 21
41.631591964000002
 31
0.0
  0
ARC
  5
241
  8
ﾚｲﾔ_1
 62
     5
 10
905.29090826970003
 20
41.631591964000002
 30
0.0
 40
2.5
 50
0.0
 51
90.0
  0
LINE
  5
242
  8
ﾚｲﾔ_1
 62
     5
 10
907.79090826970014
 20
28.631591963999998
 30
0.0
 11
907.79090826970014
 21
41.631591964000002
 31
0.0
  0
INSERT
  5
244
  8
ﾚｲﾔ_1
  2
*X11
 10
0.0
 20
0.0
 30
0.0
  0
LINE
  5
258
  8
ﾚｲﾔ_1
 62
     5
 10
1055.4732197574001
 20
42.131591964000002
 30
0.0
 11
1055.4732197574001
 21
13.131591964
 31
0.0
  0
LINE
  5
259
  8
ﾚｲﾔ_1
 62
     5
 10
1054.4732197574001
 20
30.131591963999998
 30
0.0
 11
1054.4732197574001
 21
42.131591964000002
 31
0.0
  0
LINE
  5
25A
  8
ﾚｲﾔ_1
 62
     5
 10
1051.8732197574
 20
28.631591963999998
 30
0.0
 11
1051.8732197574
 21
41.631591964000002
 31
0.0
  0
ARC
  5
25B
  8
ﾚｲﾔ_1
 62
     5
 10
1054.3732197574
 20
41.631591964000002
 30
0.0
 40
1.5
 50
90.0
 51
180.0
  0
LINE
  5
25C
  8
ﾚｲﾔ_1
 62
     5
 10
1124.4732197574001
 20
30.131591963999998
 30
0.0
 11
1124.4732197574001
 21
42.131591964000002
 31
0.0
  0
LINE
  5
25D
  8
ﾚｲﾔ_1
 62
     5
 10
1052.8732197574
 20
28.631591963999998
 30
0.0
 11
1052.8732197574
 21
41.631591964000002
 31
0.0
  0
ARC
  5
25E
  8
ﾚｲﾔ_1
 62
     5
 10
1054.3732197574
 20
41.631591964000002
 30
0.0
 40
2.5
 50
90.0
 51
180.0
  0
LINE
  5
25F
  8
ﾚｲﾔ_1
 62
     5
 10
1126.0732197574
 20
41.631591964000002
 30
0.0
 11
1126.0732197574
 21
28.631591963999998
 31
0.0
  0
ARC
  5
260
  8
ﾚｲﾔ_1
 62
     5
 10
1124.5732197574
 20
41.631591964000002
 30
0.0
 40
2.5
 50
0.0
 51
90.0
  0
ARC
  5
261
  8
ﾚｲﾔ_1
 62
     5
 10
1124.5732197574
 20
41.631591964000002
 30
0.0
 40
1.5
 50
0.0
 51
90.0
  0
LINE
  5
262
  8
ﾚｲﾔ_1
 62
     5
 10
1127.0732197574
 20
28.631591963999998
 30
0.0
 11
1127.0732197574
 21
41.631591964000002
 31
0.0
  0
LINE
  5
263
  8
ﾚｲﾔ_1
 62
     5
 10
1123.4732197574001
 20
42.131591964000002
 30
0.0
 11
1123.4732197574001
 21
-128.95077001519999
 31
0.0
  0
INSERT
  5
264
  8
0
  6
CONTINUOUS
  2
*U78
 10
0.0
 20
0.0
 30
0.0
  0
INSERT
  5
265
  8
0
  6
CONTINUOUS
  2
*U79
 10
0.0
 20
0.0
 30
0.0
  0
INSERT
  5
266
  8
0
  6
CONTINUOUS
  2
*U80
 10
0.0
 20
0.0
 30
0.0
  0
INSERT
  5
267
  8
0
  6
CONTINUOUS
  2
*U81
 10
0.0
 20
0.0
 30
0.0
  0
INSERT
  5
268
  8
0
  6
CONTINUOUS
  2
*U82
 10
0.0
 20
0.0
 30
0.0
  0
LINE
  5
269
  8
図枠
 10
822.57118705919981
 20
-651.87514384140002
 30
0.0
 11
872.57118705919981
 21
-651.87514384140002
 31
0.0
  0
INSERT
  5
26A
  8
0
  6
CONTINUOUS
  2
*U83
 10
0.0
 20
0.0
 30
0.0
  0
INSERT
  5
26B
  8
0
  6
CONTINUOUS
  2
*U84
 10
0.0
 20
0.0
 30
0.0
  0
INSERT
  5
26C
  8
0
  6
CONTINUOUS
  2
*U85
 10
0.0
 20
0.0
 30
0.0
  0
LINE
  5
26D
  8
図枠
 10
822.57118705919981
 20
-679.37514384140002
 30
0.0
 11
903.82118705919981
 21
-679.37514384140002
 31
0.0
  0
LINE
  5
26E
  8
ﾚｲﾔ_1
 62
     5
 10
834.39090826970005
 20
-435.56840803599988
 30
0.0
 11
905.99090826969996
 21
-435.56840803599988
 31
0.0
  0
LINE
  5
26F
  8
ﾚｲﾔ_1
 62
     5
 10
836.89090826969993
 20
-451.86840803599989
 30
0.0
 11
903.49090826969996
 21
-451.86840803599989
 31
0.0
  0
DIMENSION
  5
27E
  8
寸法線
  2
*D12
 10
907.79090826970014
 20
92.193763722900016
 30
0.0
 11
870.1909082697
 21
92.193763722900016
 31
0.0
 70
   128
  1
□75
 13
907.79090826970014
 23
41.631591964000002
 33
0.0
 14
832.59090826969998
 24
41.631591964000002
 34
0.0
  0
LINE
  5
27F
  8
図枠
 62
     5
 10
1178.8211870591999
 20
279.37485615859998
 30
0.0
 11
495.07118705919999
 21
279.37485615859998
 31
0.0
  0
LINE
  5
280
  8
図枠
  6
DOT
 10
1193.0211870592
 20
293.72485615860001
 30
0.0
 11
480.8711870592
 21
293.72485615860001
 31
0.0
  0
INSERT
  5
282
  8
ﾚｲﾔ_1
  2
CLUMP0
 10
0.0
 20
0.0
 30
0.0
  0
LINE
  5
290
  8
ﾚｲﾔ_1
 62
     5
 10
862.19090826969989
 20
48.031591963999993
 30
0.0
 11
878.1909082697
 21
48.031591963999993
 31
0.0
  0
LINE
  5
291
  8
ﾚｲﾔ_1
 62
     5
 10
846.19090826969989
 20
44.131591963999988
 30
0.0
 11
862.19090826969989
 21
48.031591963999993
 31
0.0
  0
LINE
  5
292
  8
ﾚｲﾔ_1
 62
     5
 10
835.09090826969987
 20
26.131591963999998
 30
0.0
 11
905.29090826970003
 21
26.131591963999998
 31
0.0
  0
LINE
  5
293
  8
ﾚｲﾔ_1
 62
     5
 10
835.09090826969987
 20
44.131591963999988
 30
0.0
 11
905.29090826970003
 21
44.131591963999988
 31
0.0
  0
LINE
  5
294
  8
ﾚｲﾔ_1
  6
BORDER
 62
     3
 10
861.46463521559986
 20
-124.7255747027
 30
0.0
 11
861.46463521559986
 21
-128.95077001519999
 31
0.0
  0
LINE
  5
295
  8
ﾚｲﾔ_1
  6
BORDER
 62
     3
 10
861.46463521559986
 20
-133.1759653277
 30
0.0
 11
878.91718132380015
 21
-141.62635595270001
 31
0.0
  0
LINE
  5
296
  8
ﾚｲﾔ_1
  6
BORDER
 62
     3
 10
861.46463521559986
 20
-124.7255747027
 30
0.0
 11
878.91718132380015
 21
-133.1759653277
 31
0.0
  0
LINE
  5
297
  8
ﾚｲﾔ_1
  6
BORDER
 62
     3
 10
825.04335017070002
 20
-137.4011606402
 30
0.0
 11
861.46463521559986
 21
-137.4011606402
 31
0.0
  0
LINE
  5
298
  8
ﾚｲﾔ_1
  6
BORDER
 62
     3
 10
825.04335017070002
 20
-128.95077001519999
 30
0.0
 11
861.46463521559986
 21
-128.95077001519999
 31
0.0
  0
LINE
  5
299
  8
ﾚｲﾔ_1
  6
BORDER
 62
     3
 10
861.46463521559986
 20
-133.1759653277
 30
0.0
 11
861.46463521559986
 21
-137.4011606402
 31
0.0
  0
DIMENSION
  5
2A8
  8
寸法線
  2
*D14
 10
562.36762232499996
 20
48.031591963999993
 30
0.0
 11
562.36762232499996
 21
61.849430632800001
 31
0.0
 70
   128
  1
4
 13
663.34887079910004
 23
48.031591963999993
 33
0.0
 14
636.2488707990999
 24
44.131591963999988
 34
0.0
 50
90.0
  0
DIMENSION
  5
2B7
  8
寸法線
  2
*D15
 10
706.34887079910004
 20
89.770134139299998
 30
0.0
 11
671.34887079910004
 21
89.770134139299998
 31
0.0
 70
   128
  1
□70
 13
706.34887079910004
 23
26.131591963999998
 33
0.0
 14
636.34887079910004
 24
26.131591963999998
 34
0.0
  0
DIMENSION
  5
2C6
  8
寸法線
  2
*D16
 10
594.61583780959995
 20
44.131591963999988
 30
0.0
 11
594.61583780959995
 21
19.131591963999998
 31
0.0
 70
   128
  1
(50)
 13
636.2488707990999
 23
44.131591963999988
 33
0.0
 14
649.60824579910002
 24
-5.8684080359999991
 34
0.0
 50
90.0
  0
ARC
  5
2C7
  8
ﾚｲﾔ_1
 62
     5
 10
706.44887079909995
 20
41.631591964000002
 30
0.0
 40
2.5
 50
0.0
 51
90.0
  0
INSERT
  5
2C9
  8
ﾚｲﾔ_1
  2
*X17
 10
0.0
 20
0.0
 30
0.0
  0
LINE
  5
2E8
  8
ﾚｲﾔ_1
 62
     5
 10
1093.2732197574001
 20
-313.36840803600001
 30
0.0
 11
1093.2732197574001
 21
-139.24109185570001
 31
0.0
  0
LINE
  5
2E9
  8
ﾚｲﾔ_1
 62
     5
 10
1075.2732197574001
 20
-313.36840803600001
 30
0.0
 11
1075.2732197574001
 21
-137.4011606402
 31
0.0
  0
LINE
  5
2EA
  8
図枠
 62
     5
 10
1178.8211870591999
 20
-720.62514384140002
 30
0.0
 11
495.07118705919999
 21
-720.62514384140002
 31
0.0
  0
LINE
  5
2EB
  8
図枠
 10
1178.8211870591999
 20
-638.1251438413999
 30
0.0
 11
816.32118705919981
 21
-638.1251438413999
 31
0.0
  0
LINE
  5
2EC
  8
図枠
 10
816.32118705919981
 20
-693.12514384140002
 30
0.0
 11
1178.8211870591999
 21
-693.12514384140002
 31
0.0
  0
LINE
  5
2ED
  8
図枠
 10
816.32118705919981
 20
-665.62514384140002
 30
0.0
 11
1178.8211870591999
 21
-665.62514384140002
 31
0.0
  0
LINE
  5
2EE
  8
図枠
 10
1178.8211870591999
 20
-625.6251438413999
 30
0.0
 11
816.32118705919981
 21
-625.6251438413999
 31
0.0
  0
LINE
  5
2EF
  8
図枠
 10
1178.8211870591999
 20
-638.1251438413999
 30
0.0
 11
816.32118705919981
 21
-638.1251438413999
 31
0.0
  0
INSERT
  5
2F1
  8
図枠
  2
CLUMP1
 10
0.0
 20
0.0
 30
0.0
  0
INSERT
  5
2FB
  8
図枠
  2
CLUMP2
 10
0.0
 20
0.0
 30
0.0
  0
INSERT
  5
305
  8
図枠
  2
CLUMP3
 10
0.0
 20
0.0
 30
0.0
  0
INSERT
  5
30F
  8
図枠
  2
CLUMP4
 10
0.0
 20
0.0
 30
0.0
  0
INSERT
  5
319
  8
図枠
  2
CLUMP5
 10
0.0
 20
0.0
 30
0.0
  0
INSERT
  5
323
  8
図枠
  2
CLUMP6
 10
0.0
 20
0.0
 30
0.0
  0
LINE
  5
32C
  8
図枠
 10
816.32118705919981
 20
-638.1251438413999
 30
0.0
 11
1178.8211870591999
 21
-638.1251438413999
 31
0.0
  0
INSERT
  5
32D
  8
0
  6
CONTINUOUS
  2
*U87
 10
0.0
 20
0.0
 30
0.0
  0
INSERT
  5
32E
  8
0
  6
CONTINUOUS
  2
*U88
 10
0.0
 20
0.0
 30
0.0
  0
INSERT
  5
32F
  8
0
  6
CONTINUOUS
  2
*U89
 10
0.0
 20
0.0
 30
0.0
  0
INSERT
  5
330
  8
0
  6
CONTINUOUS
  2
*U90
 10
0.0
 20
0.0
 30
0.0
  0
INSERT
  5
331
  8
0
  6
CONTINUOUS
  2
*U91
 10
0.0
 20
0.0
 30
0.0
  0
INSERT
  5
332
  8
0
  6
CONTINUOUS
  2
*U92
 10
0.0
 20
0.0
 30
0.0
  0
INSERT
  5
333
  8
0
  6
CONTINUOUS
  2
*U93
 10
0.0
 20
0.0
 30
0.0
  0
INSERT
  5
334
  8
0
  6
CONTINUOUS
  2
*U94
 10
0.0
 20
0.0
 30
0.0
  0
INSERT
  5
335
  8
0
  6
CONTINUOUS
  2
*U95
 10
0.0
 20
0.0
 30
0.0
  0
DIMENSION
  5
34C
  8
寸法線
  2
*D24
 10
594.36241144849987
 20
-5.8684080359999991
 30
0.0
 11
594.36241144849987
 21
-183.92809535239999
 31
0.0
 70
   128
  1
950
 13
649.60824579910002
 23
-5.8684080359999991
 33
0.0
 14
649.60824579910002
 24
-351.86840803600001
 34
0.0
 50
90.0
  0
DIMENSION
  5
35B
  8
寸法線
  2
*D25
 10
562.17924952220005
 20
44.131591963999988
 30
0.0
 11
562.17924952220005
 21
-208.0159505208
 31
0.0
 70
   128
  1
1200
 13
638.04887079909997
 23
44.131591963999988
 33
0.0
 14
638.04887079909997
 24
-451.86840803599989
 34
0.0
 50
90.0
  0
LINE
  5
35C
  8
図枠
 62
     5
 10
1178.8211870591999
 20
279.37485615859998
 30
0.0
 11
1178.8211870591999
 21
-720.62514384140002
 31
0.0
  0
LINE
  5
35D
  8
図枠
  6
DOT
 10
480.8711870592
 20
293.72485615860001
 30
0.0
 11
480.8711870592
 21
-734.97514384140004
 31
0.0
  0
LINE
  5
35E
  8
図枠
 62
     5
 10
495.07118705919999
 20
279.37485615859998
 30
0.0
 11
495.07118705919999
 21
-720.62514384140002
 31
0.0
  0
LINE
  5
35F
  8
ﾚｲﾔ_1
 62
     5
 10
905.19090826969989
 20
-137.4011606402
 30
0.0
 11
905.19090826969989
 21
-435.56840803599988
 31
0.0
  0
LINE
  5
360
  8
ﾚｲﾔ_1
 62
     5
 10
835.1909082697
 20
-137.4011606402
 30
0.0
 11
835.1909082697
 21
-435.56840803599988
 31
0.0
  0
LINE
  5
361
  8
ﾚｲﾔ_1
  6
BORDER
 62
     3
 10
671.34887079910004
 20
53.031591963999993
 30
0.0
 11
671.34887079910004
 21
-456.86840803599989
 31
0.0
  0
LINE
  5
362
  8
ﾚｲﾔ_1
 62
     5
 10
636.34887079910004
 20
-137.4011606402
 30
0.0
 11
636.34887079910004
 21
-435.56840803599988
 31
0.0
  0
LINE
  5
363
  8
ﾚｲﾔ_1
 62
     5
 10
706.34887079910004
 20
-137.4011606402
 30
0.0
 11
706.34887079910004
 21
-435.56840803599988
 31
0.0
  0
LINE
  5
364
  8
ﾚｲﾔ_1
  6
BORDER
 62
     3
 10
1084.2732197574001
 20
-10.618406417099999
 30
0.0
 11
1084.2732197574001
 21
-343.11840803600001
 31
0.0
  0
LINE
  5
365
  8
ﾚｲﾔ_1
 62
     5
 10
1077.2732197574001
 20
-137.4011606402
 30
0.0
 11
1077.2732197574001
 21
-340.36840803600001
 31
0.0
  0
LINE
  5
366
  8
ﾚｲﾔ_1
 62
     5
 10
1054.4732197574001
 20
-137.4011606402
 30
0.0
 11
1054.4732197574001
 21
-336.86840803600001
 31
0.0
  0
LINE
  5
367
  8
ﾚｲﾔ_1
 62
     5
 10
1123.4732197574001
 20
-137.4011606402
 30
0.0
 11
1123.4732197574001
 21
-449.36840803600001
 31
0.0
  0
LINE
  5
368
  8
ﾚｲﾔ_1
 62
     5
 10
1124.4732197574001
 20
-137.4011606402
 30
0.0
 11
1124.4732197574001
 21
-449.36840803600001
 31
0.0
  0
LINE
  5
369
  8
ﾚｲﾔ_1
 62
     5
 10
1091.2732197574001
 20
-138.27270700540001
 30
0.0
 11
1091.2732197574001
 21
-340.36840803600001
 31
0.0
  0
LINE
  5
36A
  8
ﾚｲﾔ_1
 62
     5
 10
1055.4732197574001
 20
-137.4011606402
 30
0.0
 11
1055.4732197574001
 21
-336.86840803600001
 31
0.0
  0
INSERT
  5
36C
  8
ﾚｲﾔ_1
  2
*X26
 10
0.0
 20
0.0
 30
0.0
  0
ENDSEC
  0
EOF
