  0
SECTION
  2
HEADER
  9
$ACADVER
  1
AC1009
  9
$INSBASE
 10
0.0
 20
0.0
 30
0.0
  9
$EXTMIN
 10
480.82366164485069
 20
-735.32083671685177
 30
-6.6004028012980731
  9
$EXTMAX
 10
1193.0572442175469
 20
294.04847143916419
 30
6.600402862765363
  9
$LIMMIN
 10
0.0
 20
0.0
  9
$LIMMAX
 10
0.0
 20
0.0
  9
$ORTHOMODE
 70
     0
  9
$REGENMODE
 70
     1
  9
$FILLMODE
 70
     1
  9
$QTEXTMODE
 70
     0
  9
$MIRRTEXT
 70
     1
  9
$DRAGMODE
 70
     2
  9
$LTSCALE
 40
1.0
  9
$OSMODE
 70
    31
  9
$ATTMODE
 70
     1
  9
$TEXTSIZE
 40
0.0
  9
$TRACEWID
 40
0.05
  9
$TEXTSTYLE
  7
STANDARD
  9
$CLAYER
  8
0
  9
$CELTYPE
  6
CONTINUOUS
  9
$CECOLOR
 62
   256
  9
$DIMSCALE
 40
1.0
  9
$DIMASZ
 40
0.18
  9
$DIMEXO
 40
0.0625
  9
$DIMDLI
 40
0.38
  9
$DIMRND
 40
0.0
  9
$DIMDLE
 40
0.0
  9
$DIMEXE
 40
0.18
  9
$DIMTP
 40
0.0
  9
$DIMTM
 40
0.0
  9
$DIMTXT
 40
0.18
  9
$DIMCEN
 40
0.09
  9
$DIMTSZ
 40
0.0
  9
$DIMTOL
 70
     0
  9
$DIMLIM
 70
     0
  9
$DIMTIH
 70
     1
  9
$DIMTOH
 70
     1
  9
$DIMSE1
 70
     0
  9
$DIMSE2
 70
     0
  9
$DIMTAD
 70
     0
  9
$DIMZIN
 70
     0
  9
$DIMBLK
  1

  9
$DIMASO
 70
     1
  9
$DIMSHO
 70
     1
  9
$DIMPOST
  1

  9
$DIMAPOST
  1

  9
$DIMALT
 70
     0
  9
$DIMALTD
 70
     2
  9
$DIMALTF
 40
25.399999999999999
  9
$DIMLFAC
 40
1.0
  9
$DIMTOFL
 70
     0
  9
$DIMTVP
 40
0.0
  9
$DIMTIX
 70
     0
  9
$DIMSOXD
 70
     0
  9
$DIMSAH
 70
     0
  9
$DIMBLK1
  1

  9
$DIMBLK2
  1

  9
$DIMSTYLE
  2
STANDARD
  9
$DIMCLRD
 70
     0
  9
$DIMCLRE
 70
     0
  9
$DIMCLRT
 70
     0
  9
$DIMTFAC
 40
1.0
  9
$DIMGAP
 40
0.09
  9
$LUNITS
 70
     2
  9
$LUPREC
 70
     4
  9
$SKETCHINC
 40
0.1
  9
$FILLETRAD
 40
0.0
  9
$AUNITS
 70
     0
  9
$AUPREC
 70
     0
  9
$MENU
  1
acad
  9
$ELEVATION
 40
0.0
  9
$PELEVATION
 40
0.0
  9
$THICKNESS
 40
0.0
  9
$LIMCHECK
 70
     0
  9
$BLIPMODE
 70
     0
  9
$CHAMFERA
 40
0.0
  9
$CHAMFERB
 40
0.0
  9
$SKPOLY
 70
     0
  9
$TDCREATE
 40
2454860.7187792938
  9
$TDUPDATE
 40
2454860.7202620371
  9
$TDINDWG
 40
0.001514213
  9
$TDUSRTIMER
 40
0.001513669
  9
$USRTIMER
 70
     1
  9
$ANGBASE
 50
0.0
  9
$ANGDIR
 70
     0
  9
$PDMODE
 70
     3
  9
$PDSIZE
 40
-1.0
  9
$PLINEWID
 40
0.0
  9
$COORDS
 70
     2
  9
$SPLFRAME
 70
     0
  9
$SPLINETYPE
 70
     6
  9
$SPLINESEGS
 70
     8
  9
$ATTDIA
 70
     0
  9
$ATTREQ
 70
     1
  9
$HANDLING
 70
     1
  9
$HANDSEED
  5
B67
  9
$SURFTAB1
 70
     6
  9
$SURFTAB2
 70
     6
  9
$SURFTYPE
 70
     6
  9
$SURFU
 70
     6
  9
$SURFV
 70
     6
  9
$UCSNAME
  2

  9
$UCSORG
 10
0.0
 20
0.0
 30
0.0
  9
$UCSXDIR
 10
1.0
 20
0.0
 30
0.0
  9
$UCSYDIR
 10
0.0
 20
1.0
 30
0.0
  9
$PUCSNAME
  2

  9
$PUCSORG
 10
0.0
 20
0.0
 30
0.0
  9
$PUCSXDIR
 10
1.0
 20
0.0
 30
0.0
  9
$PUCSYDIR
 10
0.0
 20
1.0
 30
0.0
  9
$USERI1
 70
     0
  9
$USERI2
 70
     0
  9
$USERI3
 70
     0
  9
$USERI4
 70
     0
  9
$USERI5
 70
     0
  9
$USERR1
 40
0.0
  9
$USERR2
 40
0.0
  9
$USERR3
 40
0.0
  9
$USERR4
 40
0.0
  9
$USERR5
 40
0.0
  9
$WORLDVIEW
 70
     1
  9
$SHADEDGE
 70
     3
  9
$SHADEDIF
 70
    70
  9
$TILEMODE
 70
     1
  9
$MAXACTVP
 70
    16
  9
$PLIMCHECK
 70
     0
  9
$PEXTMIN
 10
1.0000000000000000E+020
 20
1.0000000000000000E+020
 30
1.0000000000000000E+020
  9
$PEXTMAX
 10
-1.0000000000000000E+020
 20
-1.0000000000000000E+020
 30
-1.0000000000000000E+020
  9
$PLIMMIN
 10
0.0
 20
0.0
  9
$PLIMMAX
 10
12.0
 20
9.0
  9
$UNITMODE
 70
     0
  9
$VISRETAIN
 70
     0
  9
$PLINEGEN
 70
     1
  9
$PSLTSCALE
 70
     0
  0
ENDSEC
  0
SECTION
  2
TABLES
  0
TABLE
  2
VPORT
 70
     3
  0
VPORT
  2
*ACTIVE
 70
     0
 10
0.0
 20
0.0
 11
1.0
 21
1.0
 12
836.94045293119893
 22
-220.63618263884379
 13
0.0
 23
0.0
 14
1.0
 24
1.0
 15
0.0
 25
0.0
 16
0.0
 26
0.0
 36
1.0
 17
0.0
 27
0.0
 37
0.0
 40
1037.9117920411279
 41
1.6343490304709141
 42
50.0
 43
0.0
 44
0.0
 50
0.0
 51
0.0
 71
     0
 72
   100
 73
     1
 74
     1
 75
     0
 76
     0
 77
     0
 78
     0
  0
ENDTAB
  0
TABLE
  2
LTYPE
 70
    11
  0
LTYPE
  2
CONTINUOUS
 70
     0
  3
Solid line
 72
    65
 73
     0
 40
0.0
  0
LTYPE
  2
DOT
 70
     0
  3
. . . . . . . . 
 72
    65
 73
     2
 40
1.0
 49
0.0
 49
-1.0
  0
LTYPE
  2
DASHED
 70
     0
  3
___  ___  ___  ___  
 72
    65
 73
     2
 40
4.0
 49
3.0
 49
-1.0
  0
LTYPE
  2
HIDDEN
 70
     0
  3
__ __ __ __ 
 72
    65
 73
     2
 40
3.0
 49
2.0
 49
-1.0
  0
LTYPE
  2
STITCH
 70
     0
  3
_ _ _ _ 
 72
    65
 73
     2
 40
2.0
 49
1.0
 49
-1.0
  0
LTYPE
  2
CENTER
 70
     0
  3
______  __  ______  __  
 72
    65
 73
     4
 40
43.0
 49
40.0
 49
-1.0
 49
1.0
 49
-1.0
  0
LTYPE
  2
DASHDOT
 70
     0
  3
____ . ____ . 
 72
    65
 73
     4
 40
32.0
 49
30.0
 49
-1.0
 49
0.0
 49
-1.0
  0
LTYPE
  2
BORDER
 70
     0
  3
__ . __ . 
 72
    65
 73
     4
 40
22.0
 49
20.0
 49
-1.0
 49
0.0
 49
-1.0
  0
LTYPE
  2
CUTTING
 70
     0
  3
________   ___   ___   
 72
    65
 73
     6
 40
45.0
 49
40.0
 49
-1.0
 49
1.0
 49
-1.0
 49
1.0
 49
-1.0
  0
LTYPE
  2
PHANTOM
 70
     0
  3
______  __  __  
 72
    65
 73
     6
 40
35.0
 49
30.0
 49
-1.0
 49
1.0
 49
-1.0
 49
1.0
 49
-1.0
  0
LTYPE
  2
DIVIDE
 70
     0
  3
____ . . ____ . . 
 72
    65
 73
     6
 40
23.0
 49
20.0
 49
-1.0
 49
0.0
 49
-1.0
 49
0.0
 49
-1.0
  0
ENDTAB
  0
TABLE
  2
LAYER
 70
     6
  0
LAYER
  2
0
 70
     0
 62
     7
  6
CONTINUOUS
  0
LAYER
  2
ﾚｲﾔ_1
 70
     0
 62
     7
  6
CONTINUOUS
  0
LAYER
  2
図枠
 70
     0
 62
     7
  6
CONTINUOUS
  0
LAYER
  2
寸法線
 70
     0
 62
     7
  6
CONTINUOUS
  0
LAYER
  2
CONSTRUCTION
 70
     0
 62
     7
  6
CONTINUOUS
  0
LAYER
  2
改訂
 70
     0
 62
     7
  6
CONTINUOUS
  0
ENDTAB
  0
TABLE
  2
STYLE
 70
     1
  0
STYLE
  2
STANDARD
 70
     0
 40
0.0
 41
1.0
 50
0.0
 71
     0
 42
0.0
  3
txt
  4
extfont
  0
ENDTAB
  0
TABLE
  2
VIEW
 70
     0
  0
ENDTAB
  0
TABLE
  2
UCS
 70
     0
  0
ENDTAB
  0
TABLE
  2
APPID
 70
     2
  0
APPID
  2
ACAD
 70
     0
  0
APPID
  2
DCO15
 70
     0
  0
ENDTAB
  0
TABLE
  2
DIMSTYLE
 70
     2
  0
DIMSTYLE
  2
STANDARD
 70
     0
  3

  4

  5

  6

  7

 40
1.0
 41
0.18
 42
0.0625
 43
0.38
 44
0.18
 45
0.0
 46
0.0
 47
0.0
 48
0.0
140
0.18
141
0.09
142
0.0
143
25.399999999999999
144
1.0
145
0.0
146
1.0
147
0.09
 71
     0
 72
     0
 73
     1
 74
     1
 75
     0
 76
     0
 77
     0
 78
     0
170
     0
171
     2
172
     0
173
     0
174
     0
175
     0
176
     0
177
     0
178
     0
  0
DIMSTYLE
  2
VELDIM0
 70
     0
  3

  4

  5

  6

  7

 40
1.0
 41
7.5
 42
0.0625
 43
0.38
 44
0.5
 45
0.0
 46
3.0
 47
0.0
 48
0.0
140
7.4965279578999988
141
0.09
142
0.0
143
25.399999999999999
144
1.0
145
0.0
146
1.0
147
0.09
 71
     0
 72
     0
 73
     0
 74
     0
 75
     0
 76
     0
 77
     0
 78
     8
170
     0
171
     2
172
     0
173
     0
174
     0
175
     0
176
     0
177
     0
178
     0
  0
ENDTAB
  0
ENDSEC
  0
SECTION
  2
BLOCKS
  0
BLOCK
  8
0
  2
$MODEL_SPACE
 70
     0
 10
0.0
 20
0.0
 30
0.0
  3
$MODEL_SPACE
  1

  0
ENDBLK
  5
E
  8
0
  0
BLOCK
 67
     1
  8
0
  2
$PAPER_SPACE
 70
     0
 10
0.0
 20
0.0
 30
0.0
  3
$PAPER_SPACE
  1

  0
ENDBLK
  5
10
 67
     1
  8
0
  0
BLOCK
  8
0
  2
*X0
 70
     1
 10
0.0
 20
0.0
 30
0.0
  3
*X0
  1

  0
ENDBLK
  5
76
  8
0
  0
BLOCK
  8
0
  2
*X1
 70
     1
 10
0.0
 20
0.0
 30
0.0
  3
*X1
  1

  0
ENDBLK
  5
A2
  8
0
  0
BLOCK
  8
0
  2
*X2
 70
     1
 10
0.0
 20
0.0
 30
0.0
  3
*X2
  1

  0
ENDBLK
  5
F6
  8
0
  0
BLOCK
  8
0
  2
*X3
 70
     1
 10
0.0
 20
0.0
 30
0.0
  3
*X3
  1

  0
ENDBLK
  5
139
  8
0
  0
BLOCK
  8
0
  2
BALLON0
 70
     0
 10
0.0
 20
0.0
 30
0.0
  3
BALLON0
  1

  0
INSERT
  5
17E
  8
0
  6
CONTINUOUS
  2
*U51
 10
0.0
 20
0.0
 30
0.0
  0
CIRCLE
  5
17F
  8
ﾚｲﾔ_1
 10
958.36152525699981
 20
-22.770238904799999
 30
0.0
 40
8.75
  0
LINE
  5
180
  8
寸法線
 10
972.94485859029999
 20
-22.770238904799999
 30
0.0
 11
967.11152525699993
 21
-22.770238904799999
 31
0.0
  0
LINE
  5
181
  8
寸法線
 10
1018.3178715885
 20
1.550067824399999
 30
0.0
 11
972.94485859029999
 21
-22.770238904799999
 31
0.0
  0
SOLID
  5
182
  8
寸法線
 10
1018.3178715885
 20
1.550067824399999
 30
0.0
 11
1011.4326052261
 21
-4.1260318152000002
 31
0.0
 12
1012.1482667498
 22
-1.7568909195999991
 32
0.0
 13
1012.1482667498
 23
-1.7568909195999991
 33
0.0
  0
SOLID
  5
183
  8
寸法線
 10
1012.1482667498
 20
-1.7568909195999991
 30
0.0
 11
1009.7791258541999
 21
-1.0412293959000001
 31
0.0
 12
1018.3178715885
 22
1.550067824399999
 32
0.0
 13
1018.3178715885
 23
1.550067824399999
 33
0.0
  0
ENDBLK
  5
184
  8
0
  0
BLOCK
  8
0
  2
BALLON1
 70
     0
 10
0.0
 20
0.0
 30
0.0
  3
BALLON1
  1

  0
INSERT
  5
18E
  8
0
  6
CONTINUOUS
  2
*U52
 10
0.0
 20
0.0
 30
0.0
  0
CIRCLE
  5
18F
  8
ﾚｲﾔ_1
 10
958.36152525699981
 20
-22.770238904799999
 30
0.0
 40
8.75
  0
LINE
  5
190
  8
寸法線
 10
972.94485859029999
 20
-22.770238904799999
 30
0.0
 11
967.11152525699993
 21
-22.770238904799999
 31
0.0
  0
LINE
  5
191
  8
寸法線
 10
1018.3178715885
 20
1.550067824399999
 30
0.0
 11
972.94485859029999
 21
-22.770238904799999
 31
0.0
  0
SOLID
  5
192
  8
寸法線
 10
1018.3178715885
 20
1.550067824399999
 30
0.0
 11
1011.4326052261
 21
-4.1260318152000002
 31
0.0
 12
1012.1482667498
 22
-1.7568909195999991
 32
0.0
 13
1012.1482667498
 23
-1.7568909195999991
 33
0.0
  0
SOLID
  5
193
  8
寸法線
 10
1012.1482667498
 20
-1.7568909195999991
 30
0.0
 11
1009.7791258541999
 21
-1.0412293959000001
 31
0.0
 12
1018.3178715885
 22
1.550067824399999
 32
0.0
 13
1018.3178715885
 23
1.550067824399999
 33
0.0
  0
ENDBLK
  5
194
  8
0
  0
BLOCK
  8
0
  2
BALLON2
 70
     0
 10
0.0
 20
0.0
 30
0.0
  3
BALLON2
  1

  0
INSERT
  5
198
  8
0
  6
CONTINUOUS
  2
*U53
 10
0.0
 20
0.0
 30
0.0
  0
CIRCLE
  5
199
  8
ﾚｲﾔ_1
 10
958.36152525699981
 20
-22.770238904799999
 30
0.0
 40
8.75
  0
LINE
  5
19A
  8
寸法線
 10
972.94485859029999
 20
-22.770238904799999
 30
0.0
 11
967.11152525699993
 21
-22.770238904799999
 31
0.0
  0
LINE
  5
19B
  8
寸法線
 10
1018.3178715885
 20
1.550067824399999
 30
0.0
 11
972.94485859029999
 21
-22.770238904799999
 31
0.0
  0
SOLID
  5
19C
  8
寸法線
 10
1018.3178715885
 20
1.550067824399999
 30
0.0
 11
1011.4326052261
 21
-4.1260318152000002
 31
0.0
 12
1012.1482667498
 22
-1.7568909195999991
 32
0.0
 13
1012.1482667498
 23
-1.7568909195999991
 33
0.0
  0
SOLID
  5
19D
  8
寸法線
 10
1012.1482667498
 20
-1.7568909195999991
 30
0.0
 11
1009.7791258541999
 21
-1.0412293959000001
 31
0.0
 12
1018.3178715885
 22
1.550067824399999
 32
0.0
 13
1018.3178715885
 23
1.550067824399999
 33
0.0
  0
ENDBLK
  5
19E
  8
0
  0
BLOCK
  8
0
  2
BALLON3
 70
     0
 10
0.0
 20
0.0
 30
0.0
  3
BALLON3
  1

  0
INSERT
  5
1A2
  8
0
  6
CONTINUOUS
  2
*U54
 10
0.0
 20
0.0
 30
0.0
  0
CIRCLE
  5
1A3
  8
ﾚｲﾔ_1
 10
958.36152525699981
 20
-22.770238904799999
 30
0.0
 40
8.75
  0
LINE
  5
1A4
  8
寸法線
 10
972.94485859029999
 20
-22.770238904799999
 30
0.0
 11
967.11152525699993
 21
-22.770238904799999
 31
0.0
  0
LINE
  5
1A5
  8
寸法線
 10
1018.3178715885
 20
1.550067824399999
 30
0.0
 11
972.94485859029999
 21
-22.770238904799999
 31
0.0
  0
SOLID
  5
1A6
  8
寸法線
 10
1018.3178715885
 20
1.550067824399999
 30
0.0
 11
1011.4326052261
 21
-4.1260318152000002
 31
0.0
 12
1012.1482667498
 22
-1.7568909195999991
 32
0.0
 13
1012.1482667498
 23
-1.7568909195999991
 33
0.0
  0
SOLID
  5
1A7
  8
寸法線
 10
1012.1482667498
 20
-1.7568909195999991
 30
0.0
 11
1009.7791258541999
 21
-1.0412293959000001
 31
0.0
 12
1018.3178715885
 22
1.550067824399999
 32
0.0
 13
1018.3178715885
 23
1.550067824399999
 33
0.0
  0
ENDBLK
  5
1A8
  8
0
  0
BLOCK
  8
0
  2
BALLON4
 70
     0
 10
0.0
 20
0.0
 30
0.0
  3
BALLON4
  1

  0
INSERT
  5
1AC
  8
0
  6
CONTINUOUS
  2
*U55
 10
0.0
 20
0.0
 30
0.0
  0
CIRCLE
  5
1AD
  8
ﾚｲﾔ_1
 10
958.36152525699981
 20
-22.770238904799999
 30
0.0
 40
8.75
  0
LINE
  5
1AE
  8
寸法線
 10
972.94485859029999
 20
-22.770238904799999
 30
0.0
 11
967.11152525699993
 21
-22.770238904799999
 31
0.0
  0
LINE
  5
1AF
  8
寸法線
 10
1018.3178715885
 20
1.550067824399999
 30
0.0
 11
972.94485859029999
 21
-22.770238904799999
 31
0.0
  0
SOLID
  5
1B0
  8
寸法線
 10
1018.3178715885
 20
1.550067824399999
 30
0.0
 11
1011.4326052261
 21
-4.1260318152000002
 31
0.0
 12
1012.1482667498
 22
-1.7568909195999991
 32
0.0
 13
1012.1482667498
 23
-1.7568909195999991
 33
0.0
  0
SOLID
  5
1B1
  8
寸法線
 10
1012.1482667498
 20
-1.7568909195999991
 30
0.0
 11
1009.7791258541999
 21
-1.0412293959000001
 31
0.0
 12
1018.3178715885
 22
1.550067824399999
 32
0.0
 13
1018.3178715885
 23
1.550067824399999
 33
0.0
  0
ENDBLK
  5
1B2
  8
0
  0
BLOCK
  8
0
  2
BALLON5
 70
     0
 10
0.0
 20
0.0
 30
0.0
  3
BALLON5
  1

  0
INSERT
  5
1BB
  8
0
  6
CONTINUOUS
  2
*U56
 10
0.0
 20
0.0
 30
0.0
  0
CIRCLE
  5
1BC
  8
ﾚｲﾔ_1
 10
958.36152525699981
 20
-151.3051423869
 30
0.0
 40
8.75
  0
LINE
  5
1BD
  8
寸法線
 10
972.94485859029999
 20
-151.3051423869
 30
0.0
 11
967.11152525699993
 21
-151.3051423869
 31
0.0
  0
LINE
  5
1BE
  8
寸法線
 10
1033.3334965885001
 20
-105.4049479167
 30
0.0
 11
972.94485859029999
 21
-151.3051423869
 31
0.0
  0
SOLID
  5
1BF
  8
寸法線
 10
1033.3334965885001
 20
-105.4049479167
 30
0.0
 11
1027.4263121334
 21
-112.0930098043
 31
0.0
 12
1027.760575948
 22
-109.6408132987
 32
0.0
 13
1027.760575948
 23
-109.6408132987
 33
0.0
  0
SOLID
  5
1C0
  8
寸法線
 10
1027.760575948
 20
-109.6408132987
 30
0.0
 11
1025.3083794424001
 21
-109.3065494841
 31
0.0
 12
1033.3334965885001
 22
-105.4049479167
 32
0.0
 13
1033.3334965885001
 23
-105.4049479167
 33
0.0
  0
ENDBLK
  5
1C1
  8
0
  0
BLOCK
  8
0
  2
BALLON6
 70
     0
 10
0.0
 20
0.0
 30
0.0
  3
BALLON6
  1

  0
INSERT
  5
1C6
  8
0
  6
CONTINUOUS
  2
*U57
 10
0.0
 20
0.0
 30
0.0
  0
CIRCLE
  5
1C7
  8
ﾚｲﾔ_1
 10
958.36152525699981
 20
-73.037861629600002
 30
0.0
 40
8.75
  0
LINE
  5
1C8
  8
寸法線
 10
972.94485859029999
 20
-73.037861629600002
 30
0.0
 11
967.11152525699993
 21
-73.037861629600002
 31
0.0
  0
LINE
  5
1C9
  8
寸法線
 10
1020.7178715885
 20
-35.449932175599997
 30
0.0
 11
972.94485859029999
 21
-73.037861629600002
 31
0.0
  0
SOLID
  5
1CA
  8
寸法線
 10
1020.7178715885
 20
-35.449932175599997
 30
0.0
 11
1014.9233362286
 21
-42.235826365999991
 31
0.0
 12
1015.2165529747
 22
-39.778383805099999
 32
0.0
 13
1015.2165529747
 23
-39.778383805099999
 33
0.0
  0
SOLID
  5
1CB
  8
寸法線
 10
1015.2165529747
 20
-39.778383805099999
 30
0.0
 11
1012.7591104139
 21
-39.4851670591
 31
0.0
 12
1020.7178715885
 22
-35.449932175599997
 32
0.0
 13
1020.7178715885
 23
-35.449932175599997
 33
0.0
  0
ENDBLK
  5
1CC
  8
0
  0
BLOCK
  8
0
  2
*X11
 70
     1
 10
0.0
 20
0.0
 30
0.0
  3
*X11
  1

  0
LINE
  5
1D4
  8
ﾚｲﾔ_1
 10
1040.0
 20
-159.1233072917
 30
0.0
 11
1040.0
 21
-57.324869791700003
 31
0.0
  0
LINE
  5
1D5
  8
ﾚｲﾔ_1
 10
1030.0
 20
-159.1233072917
 30
0.0
 11
1030.0
 21
-57.324869791700003
 31
0.0
  0
LINE
  5
1D6
  8
ﾚｲﾔ_1
 10
1023.66171875
 20
-76.358828400500002
 30
0.0
 11
1041.96171875
 21
-58.058828400499998
 31
0.0
  0
LINE
  5
1D7
  8
ﾚｲﾔ_1
 10
1023.66171875
 20
-96.3592019851
 30
0.0
 11
1041.96171875
 21
-78.059201985100003
 31
0.0
  0
LINE
  5
1D8
  8
ﾚｲﾔ_1
 10
1023.66171875
 20
-116.3595755696
 30
0.0
 11
1041.96171875
 21
-98.059575569599986
 31
0.0
  0
LINE
  5
1D9
  8
ﾚｲﾔ_1
 10
1023.66171875
 20
-136.3599491542
 30
0.0
 11
1041.96171875
 21
-118.0599491542
 31
0.0
  0
LINE
  5
1DA
  8
ﾚｲﾔ_1
 10
1023.66171875
 20
-156.36032273870001
 30
0.0
 11
1041.96171875
 21
-138.06032273869999
 31
0.0
  0
LINE
  5
1DB
  8
ﾚｲﾔ_1
 10
1040.8991077815999
 20
-159.1233072917
 30
0.0
 11
1041.96171875
 21
-158.06069632329999
 31
0.0
  0
LINE
  5
1DC
  8
ﾚｲﾔ_1
 10
1039.1397450121001
 20
-159.1233072917
 30
0.0
 11
1023.66171875
 21
-143.6452810296
 31
0.0
  0
LINE
  5
1DD
  8
ﾚｲﾔ_1
 10
1041.96171875
 20
-141.94490744500001
 30
0.0
 11
1023.66171875
 21
-123.644907445
 31
0.0
  0
LINE
  5
1DE
  8
ﾚｲﾔ_1
 10
1041.96171875
 20
-121.9445338605
 30
0.0
 11
1023.66171875
 21
-103.6445338605
 31
0.0
  0
LINE
  5
1DF
  8
ﾚｲﾔ_1
 10
1041.96171875
 20
-101.9441602759
 30
0.0
 11
1023.66171875
 21
-83.644160275900006
 31
0.0
  0
LINE
  5
1E0
  8
ﾚｲﾔ_1
 10
1041.96171875
 20
-81.943786691400007
 30
0.0
 11
1023.66171875
 21
-63.643786691400003
 31
0.0
  0
LINE
  5
1E1
  8
ﾚｲﾔ_1
 10
1041.96171875
 20
-61.943413106800001
 30
0.0
 11
1037.3431754348001
 21
-57.324869791700003
 31
0.0
  0
ENDBLK
  5
1E2
  8
0
  0
BLOCK
  8
0
  2
*X12
 70
     1
 10
0.0
 20
0.0
 30
0.0
  3
*X12
  1

  0
LINE
  5
244
  8
ﾚｲﾔ_1
 10
1040.0
 20
-18.871614583300001
 30
0.0
 11
1040.0
 21
5.6283854166999987
 31
0.0
  0
LINE
  5
245
  8
ﾚｲﾔ_1
 10
1060.0
 20
-18.871614583300001
 30
0.0
 11
1060.0
 21
5.6283854166999987
 31
0.0
  0
LINE
  5
246
  8
ﾚｲﾔ_1
 10
1080.0
 20
-18.871614583300001
 30
0.0
 11
1080.0
 21
5.6283854166999987
 31
0.0
  0
LINE
  5
247
  8
ﾚｲﾔ_1
 10
1030.0
 20
-18.871614583300001
 30
0.0
 11
1030.0
 21
5.6283854166999987
 31
0.0
  0
LINE
  5
248
  8
ﾚｲﾔ_1
 10
1050.0
 20
-18.871614583300001
 30
0.0
 11
1050.0
 21
5.6283854166999987
 31
0.0
  0
LINE
  5
249
  8
ﾚｲﾔ_1
 10
1070.0
 20
-18.871614583300001
 30
0.0
 11
1070.0
 21
5.6283854166999987
 31
0.0
  0
LINE
  5
24A
  8
ﾚｲﾔ_1
 10
1025.1235231953001
 20
5.1044703829999989
 30
0.0
 11
1025.6474382289
 21
5.6283854166999987
 31
0.0
  0
LINE
  5
24B
  8
ﾚｲﾔ_1
 10
1025.1235231953001
 20
-14.895903201499999
 30
0.0
 11
1045.6478118135001
 21
5.6283854166999987
 31
0.0
  0
LINE
  5
24C
  8
ﾚｲﾔ_1
 10
1041.1481853980999
 20
-18.871614583300001
 30
0.0
 11
1065.6481853980999
 21
5.6283854166999987
 31
0.0
  0
LINE
  5
24D
  8
ﾚｲﾔ_1
 10
1061.1485589826
 20
-18.871614583300001
 30
0.0
 11
1085.6485589826
 21
5.6283854166999987
 31
0.0
  0
LINE
  5
24E
  8
ﾚｲﾔ_1
 10
1081.1489325672001
 20
-18.871614583300001
 30
0.0
 11
1088.1235231953001
 21
-11.8970239552
 31
0.0
  0
LINE
  5
24F
  8
ﾚｲﾔ_1
 10
1038.8906673956001
 20
-18.871614583300001
 30
0.0
 11
1025.1235231953001
 21
-5.1044703829999989
 31
0.0
  0
LINE
  5
250
  8
ﾚｲﾔ_1
 10
1058.8910409801999
 20
-18.871614583300001
 30
0.0
 11
1034.3910409801999
 21
5.6283854166999987
 31
0.0
  0
LINE
  5
251
  8
ﾚｲﾔ_1
 10
1078.8914145647
 20
-18.871614583300001
 30
0.0
 11
1054.3914145647
 21
5.6283854166999987
 31
0.0
  0
LINE
  5
252
  8
ﾚｲﾔ_1
 10
1088.1235231953001
 20
-8.1033496294000003
 30
0.0
 11
1074.3917881493001
 21
5.6283854166999987
 31
0.0
  0
ENDBLK
  5
253
  8
0
  0
BLOCK
  8
0
  2
*X13
 70
     1
 10
0.0
 20
0.0
 30
0.0
  3
*X13
  1

  0
LINE
  5
257
  8
ﾚｲﾔ_1
 10
1080.0
 20
-157.23815104170001
 30
0.0
 11
1080.0
 21
-24.121614583300001
 31
0.0
  0
LINE
  5
258
  8
ﾚｲﾔ_1
 10
1070.0
 20
-157.23815104170001
 30
0.0
 11
1070.0
 21
-24.121614583300001
 31
0.0
  0
LINE
  5
259
  8
ﾚｲﾔ_1
 10
1067.4691802932
 20
-32.55136685730001
 30
0.0
 11
1075.8989325672001
 21
-24.121614583300001
 31
0.0
  0
LINE
  5
25A
  8
ﾚｲﾔ_1
 10
1067.4691802932
 20
-52.5517404418
 30
0.0
 11
1088.3796429869999
 21
-31.641277748099998
 31
0.0
  0
LINE
  5
25B
  8
ﾚｲﾔ_1
 10
1067.4691802932
 20
-72.552114026400005
 30
0.0
 11
1088.3796429869999
 21
-51.641651332599999
 31
0.0
  0
LINE
  5
25C
  8
ﾚｲﾔ_1
 10
1067.4691802932
 20
-92.552487610899988
 30
0.0
 11
1088.3796429869999
 21
-71.642024917200004
 31
0.0
  0
LINE
  5
25D
  8
ﾚｲﾔ_1
 10
1067.4691802932
 20
-112.5528611955
 30
0.0
 11
1088.3796429869999
 21
-91.642398501700001
 31
0.0
  0
LINE
  5
25E
  8
ﾚｲﾔ_1
 10
1067.4691802932
 20
-132.55323478
 30
0.0
 11
1088.3796429869999
 21
-111.6427720863
 31
0.0
  0
LINE
  5
25F
  8
ﾚｲﾔ_1
 10
1067.4691802932
 20
-152.5536083646
 30
0.0
 11
1088.3796429869999
 21
-131.6431456709
 31
0.0
  0
LINE
  5
260
  8
ﾚｲﾔ_1
 10
1082.7850112007
 20
-157.23815104170001
 30
0.0
 11
1088.3796429869999
 21
-151.64351925540001
 31
0.0
  0
LINE
  5
261
  8
ﾚｲﾔ_1
 10
1077.2553359312001
 20
-157.23815104170001
 30
0.0
 11
1067.4691802932
 21
-147.45199540370001
 31
0.0
  0
LINE
  5
262
  8
ﾚｲﾔ_1
 10
1088.3796429869999
 20
-148.3620845129
 30
0.0
 11
1067.4691802932
 21
-127.4516218192
 31
0.0
  0
LINE
  5
263
  8
ﾚｲﾔ_1
 10
1088.3796429869999
 20
-128.36171092839999
 30
0.0
 11
1067.4691802932
 21
-107.4512482346
 31
0.0
  0
LINE
  5
264
  8
ﾚｲﾔ_1
 10
1088.3796429869999
 20
-108.3613373438
 30
0.0
 11
1067.4691802932
 21
-87.450874650100005
 31
0.0
  0
LINE
  5
265
  8
ﾚｲﾔ_1
 10
1088.3796429869999
 20
-88.360963759200004
 30
0.0
 11
1067.4691802932
 21
-67.450501065500006
 31
0.0
  0
LINE
  5
266
  8
ﾚｲﾔ_1
 10
1088.3796429869999
 20
-68.360590174700008
 30
0.0
 11
1067.4691802932
 21
-47.450127480900001
 31
0.0
  0
LINE
  5
267
  8
ﾚｲﾔ_1
 10
1088.3796429869999
 20
-48.360216590100002
 30
0.0
 11
1067.4691802932
 21
-27.449753896400001
 31
0.0
  0
LINE
  5
268
  8
ﾚｲﾔ_1
 10
1088.3796429869999
 20
-28.359843005599998
 30
0.0
 11
1084.1414145647
 21
-24.121614583300001
 31
0.0
  0
ENDBLK
  5
269
  8
0
  0
BLOCK
  8
0
  2
CLUMP0
 70
     0
 10
0.0
 20
0.0
 30
0.0
  3
CLUMP0
  1

  0
INSERT
  5
296
  8
0
  6
CONTINUOUS
  2
*U59
 10
0.0
 20
0.0
 30
0.0
  0
LINE
  5
297
  8
ﾚｲﾔ_1
 10
850.9982525488
 20
-30.2319609402
 30
0.0
 11
850.9982525488
 21
-105.2319609402
 31
0.0
  0
LINE
  5
298
  8
ﾚｲﾔ_1
 10
848.99825254879988
 20
-32.231960940199997
 30
0.0
 11
848.99825254879988
 21
-107.2319609402
 31
0.0
  0
LINE
  5
299
  8
ﾚｲﾔ_1
 10
846.99825254879988
 20
-34.231960940199997
 30
0.0
 11
846.99825254879988
 21
-109.2319609402
 31
0.0
  0
LINE
  5
29A
  8
ﾚｲﾔ_1
 10
844.9982525488
 20
-36.231960940199997
 30
0.0
 11
844.9982525488
 21
-111.2319609402
 31
0.0
  0
LINE
  5
29B
  8
ﾚｲﾔ_1
 10
842.9982525488
 20
-38.231960940199997
 30
0.0
 11
842.9982525488
 21
-113.2319609402
 31
0.0
  0
LINE
  5
29C
  8
ﾚｲﾔ_1
 10
838.99825254879988
 20
-42.23196094019999
 30
0.0
 11
838.99825254879988
 21
-117.2319609402
 31
0.0
  0
LINE
  5
29D
  8
ﾚｲﾔ_1
 10
836.9982525488
 20
-44.231960940199997
 30
0.0
 11
836.9982525488
 21
-119.2319609402
 31
0.0
  0
LINE
  5
29E
  8
ﾚｲﾔ_1
 10
834.9982525488
 20
-46.231960940199997
 30
0.0
 11
834.9982525488
 21
-121.2319609402
 31
0.0
  0
LINE
  5
29F
  8
ﾚｲﾔ_1
 10
832.9982525488
 20
-48.231960940199997
 30
0.0
 11
832.9982525488
 21
-123.2319609402
 31
0.0
  0
LINE
  5
2A0
  8
ﾚｲﾔ_1
 10
840.9982525488
 20
-40.231960940199997
 30
0.0
 11
840.9982525488
 21
-115.2319609402
 31
0.0
  0
ENDBLK
  5
2A1
  8
0
  0
BLOCK
  8
0
  2
CLUMP1
 70
     0
 10
0.0
 20
0.0
 30
0.0
  3
CLUMP1
  1

  0
CIRCLE
  5
2A9
  8
0
 10
671.34887079880002
 20
-39.449932175900003
 30
6.5999999999999988
 40
11.0
  0
CIRCLE
  5
2AA
  8
0
 10
671.34887079880002
 20
-39.449932175900003
 30
5.5999999999999988
 40
13.5
  0
CIRCLE
  5
2AB
  8
0
 10
671.34887079880002
 20
-39.449932175900003
 30
5.5999999999999988
 40
13.5
  0
CIRCLE
  5
2AC
  8
0
 10
671.34887079880002
 20
-39.449932175900003
 30
6.5999999999999988
 40
13.5
  0
CIRCLE
  5
2AD
  8
0
 10
671.34887079880002
 20
-39.449932175900003
 30
6.5999999999999988
 40
13.5
  0
CIRCLE
  5
2AE
  8
0
 10
671.34887079880002
 20
-39.449932175900003
 30
4.2999999999999989
 40
11.0
  0
CIRCLE
  5
2AF
  8
0
 10
671.34887079880002
 20
-39.449932175900003
 30
4.2999999999999989
 40
11.0
  0
CIRCLE
  5
2B0
  8
0
 10
671.34887079880002
 20
-39.449932175900003
 30
3.2999999999999989
 40
11.0
  0
CIRCLE
  5
2B1
  8
0
 10
671.34887079880002
 20
-39.449932175900003
 30
4.2999999999999989
 40
11.0
  0
CIRCLE
  5
2B2
  8
0
 10
671.34887079880002
 20
-39.449932175900003
 30
3.2999999999999989
 40
11.0
  0
CIRCLE
  5
2B3
  8
0
 10
671.34887079880002
 20
-39.449932175900003
 30
4.2999999999999989
 40
11.0
  0
CIRCLE
  5
2B4
  8
0
 10
671.34887079880002
 20
-39.449932175900003
 30
6.5999999999999988
 40
11.0
  0
CIRCLE
  5
2B5
  8
0
 10
671.34887079910004
 20
-39.449932175599997
 30
0.0
 40
12.0
  0
CIRCLE
  5
2B6
  8
0
 10
671.34887079769987
 20
-39.449932177599997
 30
0.0
 40
14.5
  0
ENDBLK
  5
2B7
  8
0
  0
BLOCK
  8
0
  2
BALLON7
 70
     0
 10
0.0
 20
0.0
 30
0.0
  3
BALLON7
  1

  0
INSERT
  5
317
  8
0
  6
CONTINUOUS
  2
*U63
 10
0.0
 20
0.0
 30
0.0
  0
CIRCLE
  5
318
  8
ﾚｲﾔ_1
 10
958.36152525699981
 20
-410.5203363441999
 30
0.0
 40
8.75
  0
LINE
  5
319
  8
寸法線
 10
972.94485859029999
 20
-410.5203363441999
 30
0.0
 11
967.11152525699993
 21
-410.5203363441999
 31
0.0
  0
LINE
  5
31A
  8
寸法線
 10
1020.7178715885
 20
-385.4499321756
 30
0.0
 11
972.94485859029999
 21
-410.5203363441999
 31
0.0
  0
SOLID
  5
31B
  8
寸法線
 10
1020.7178715885
 20
-385.4499321756
 30
0.0
 11
1013.7831381838
 21
-391.06548847970009
 31
0.0
 12
1014.5195295381
 22
-388.70270880880003
 32
0.0
 13
1014.5195295381
 23
-388.70270880880003
 33
0.0
  0
SOLID
  5
31C
  8
寸法線
 10
1014.5195295381
 20
-388.70270880880003
 30
0.0
 11
1012.1567498672
 21
-387.96631745449997
 31
0.0
 12
1020.7178715885
 22
-385.4499321756
 32
0.0
 13
1020.7178715885
 23
-385.4499321756
 33
0.0
  0
ENDBLK
  5
31D
  8
0
  0
BLOCK
  8
0
  2
BALLON8
 70
     0
 10
0.0
 20
0.0
 30
0.0
  3
BALLON8
  1

  0
INSERT
  5
321
  8
0
  6
CONTINUOUS
  2
*U64
 10
0.0
 20
0.0
 30
0.0
  0
CIRCLE
  5
322
  8
ﾚｲﾔ_1
 10
958.36152525699981
 20
-457.74168038959988
 30
0.0
 40
8.75
  0
LINE
  5
323
  8
寸法線
 10
972.94485859029999
 20
-457.74168038959988
 30
0.0
 11
967.11152525699993
 21
-457.74168038959988
 31
0.0
  0
LINE
  5
324
  8
寸法線
 10
1020.1178715885
 20
-476.04993217559991
 30
0.0
 11
972.94485859029999
 21
-457.74168038959988
 31
0.0
  0
SOLID
  5
325
  8
寸法線
 10
1020.1178715885
 20
-476.04993217559991
 30
0.0
 11
1011.3275074365999
 21
-474.51549479459999
 31
0.0
 12
1013.5921202995
 22
-473.51723201300001
 32
0.0
 13
1013.5921202995
 23
-473.51723201300001
 33
0.0
  0
SOLID
  5
326
  8
寸法線
 10
1013.5921202995
 20
-473.51723201300001
 30
0.0
 11
1012.5938575179
 21
-471.25261914999999
 31
0.0
 12
1020.1178715885
 22
-476.04993217559991
 32
0.0
 13
1020.1178715885
 23
-476.04993217559991
 33
0.0
  0
ENDBLK
  5
327
  8
0
  0
BLOCK
  8
0
  2
BALLON9
 70
     0
 10
0.0
 20
0.0
 30
0.0
  3
BALLON9
  1

  0
INSERT
  5
392
  8
0
  6
CONTINUOUS
  2
*U75
 10
0.0
 20
0.0
 30
0.0
  0
CIRCLE
  5
393
  8
ﾚｲﾔ_1
 10
958.36152525699981
 20
-324.41343563499998
 30
0.0
 40
8.75
  0
LINE
  5
394
  8
寸法線
 10
972.94485859029999
 20
-324.41343563499998
 30
0.0
 11
967.11152525699993
 21
-324.41343563499998
 31
0.0
  0
LINE
  5
395
  8
寸法線
 10
1020.9178715885
 20
-284.01490885419997
 30
0.0
 11
972.94485859029999
 21
-324.41343563499998
 31
0.0
  0
SOLID
  5
396
  8
寸法線
 10
1020.9178715885
 20
-284.01490885419997
 30
0.0
 11
1015.3521531771
 21
-290.9897048057
 31
0.0
 12
1015.5635042026
 22
-288.52387213819998
 32
0.0
 13
1015.5635042026
 23
-288.52387213819998
 33
0.0
  0
SOLID
  5
397
  8
寸法線
 10
1015.5635042026
 20
-288.52387213819998
 30
0.0
 11
1013.0976715350999
 21
-288.31252111269998
 31
0.0
 12
1020.9178715885
 22
-284.01490885419997
 32
0.0
 13
1020.9178715885
 23
-284.01490885419997
 33
0.0
  0
ENDBLK
  5
398
  8
0
  0
BLOCK
  8
0
  2
CLUMP2
 70
     0
 10
0.0
 20
0.0
 30
0.0
  3
CLUMP2
  1

  0
CIRCLE
  5
44A
  8
0
 10
671.34887079880002
 20
-385.44993217590002
 30
6.5999999999999988
 40
11.0
  0
CIRCLE
  5
44B
  8
0
 10
671.34887079880002
 20
-385.44993217590002
 30
5.5999999999999988
 40
13.5
  0
CIRCLE
  5
44C
  8
0
 10
671.34887079880002
 20
-385.44993217590002
 30
5.5999999999999988
 40
13.5
  0
CIRCLE
  5
44D
  8
0
 10
671.34887079880002
 20
-385.44993217590002
 30
6.5999999999999988
 40
13.5
  0
CIRCLE
  5
44E
  8
0
 10
671.34887079880002
 20
-385.44993217590002
 30
6.5999999999999988
 40
13.5
  0
CIRCLE
  5
44F
  8
0
 10
671.34887079880002
 20
-385.44993217590002
 30
4.2999999999999989
 40
11.0
  0
CIRCLE
  5
450
  8
0
 10
671.34887079880002
 20
-385.44993217590002
 30
4.2999999999999989
 40
11.0
  0
CIRCLE
  5
451
  8
0
 10
671.34887079880002
 20
-385.44993217590002
 30
3.2999999999999989
 40
11.0
  0
CIRCLE
  5
452
  8
0
 10
671.34887079880002
 20
-385.44993217590002
 30
4.2999999999999989
 40
11.0
  0
CIRCLE
  5
453
  8
0
 10
671.34887079880002
 20
-385.44993217590002
 30
3.2999999999999989
 40
11.0
  0
CIRCLE
  5
454
  8
0
 10
671.34887079880002
 20
-385.44993217590002
 30
4.2999999999999989
 40
11.0
  0
CIRCLE
  5
455
  8
0
 10
671.34887079880002
 20
-385.44993217590002
 30
6.5999999999999988
 40
11.0
  0
CIRCLE
  5
456
  8
0
 10
671.34887079910004
 20
-385.4499321756
 30
0.0
 40
12.0
  0
CIRCLE
  5
457
  8
0
 10
671.34887079769987
 20
-385.44993217760009
 30
0.0
 40
14.5
  0
ENDBLK
  5
458
  8
0
  0
BLOCK
  8
0
  2
*D20
 70
     1
 10
0.0
 20
0.0
 30
0.0
  3
*D20
  1

  0
TEXT
  5
46B
  8
0
 62
     0
 10
560.04470562649988
 20
26.063045329099999
 30
0.0
 40
7.4965279578999988
  1
4
 50
90.0
  0
LINE
  5
46C
  8
0
 62
     0
 10
662.34887079910004
 20
14.4500678244
 30
0.0
 11
561.86762232499996
 21
14.4500678244
 31
0.0
  0
LINE
  5
46D
  8
0
 62
     0
 10
635.24887079910002
 20
10.550067824399999
 30
0.0
 11
561.86762232499996
 21
10.550067824399999
 31
0.0
  0
LINE
  5
46E
  8
0
 62
     0
 10
562.36762232499996
 20
14.4500678244
 30
0.0
 11
562.36762232499996
 21
34.882489985500001
 31
0.0
  0
LINE
  5
46F
  8
0
 62
     0
 10
562.36762232499996
 20
14.4500678244
 30
0.0
 11
562.36762232499996
 21
21.653323001
 31
0.0
  0
LINE
  5
470
  8
0
 62
     0
 10
562.36762232499996
 20
10.550067824399999
 30
0.0
 11
562.36762232499996
 21
34.882489985500001
 31
0.0
  0
LINE
  5
471
  8
0
 62
     0
 10
562.36762232499996
 20
10.550067824399999
 30
0.0
 11
562.36762232499996
 21
21.653323001
 31
0.0
  0
LINE
  5
472
  8
0
 62
     0
 10
562.36762232499996
 20
10.550067824399999
 30
0.0
 11
562.36762232499996
 21
7.550067824400001
 31
0.0
  0
SOLID
  5
473
  8
0
 62
     0
 10
562.36762232499996
 20
10.550067824399999
 30
0.0
 11
564.24262232499996
 21
3.0500678244000001
 31
0.0
 12
560.49262232499996
 22
3.0500678244000001
 32
0.0
 13
562.36762232499996
 23
4.9250678244000001
 33
0.0
  0
LINE
  5
474
  8
0
 62
     0
 10
562.36762232499996
 20
14.4500678244
 30
0.0
 11
562.36762232499996
 21
17.450067824400001
 31
0.0
  0
SOLID
  5
475
  8
0
 62
     0
 10
562.36762232499996
 20
14.4500678244
 30
0.0
 11
560.49262232499996
 21
21.950067824400001
 31
0.0
 12
564.24262232499996
 22
21.950067824400001
 32
0.0
 13
562.36762232499996
 23
20.075067824400001
 33
0.0
  0
ENDBLK
  5
476
  8
0
  0
BLOCK
  8
0
  2
*D21
 70
     1
 10
0.0
 20
0.0
 30
0.0
  3
*D21
  1

  0
TEXT
  5
47A
  8
0
 62
     0
 10
592.29292111109987
 20
-23.269376831999999
 30
0.0
 40
7.4965279578999988
  1
(50)
 50
90.0
  0
LINE
  5
47B
  8
0
 62
     0
 10
635.24887079910002
 20
10.550067824399999
 30
0.0
 11
594.11583780959995
 21
10.550067824399999
 31
0.0
  0
LINE
  5
47C
  8
0
 62
     0
 10
648.60824579910002
 20
-39.449932175599997
 30
0.0
 11
594.11583780959995
 21
-39.449932175599997
 31
0.0
  0
LINE
  5
47D
  8
0
 62
     0
 10
594.61583780959995
 20
10.550067824399999
 30
0.0
 11
594.61583780959995
 21
-1.220765190999999
 31
0.0
  0
LINE
  5
47E
  8
0
 62
     0
 10
594.61583780959995
 20
10.550067824399999
 30
0.0
 11
594.61583780959995
 21
-27.679099160100002
 31
0.0
  0
LINE
  5
47F
  8
0
 62
     0
 10
594.61583780959995
 20
-39.449932175599997
 30
0.0
 11
594.61583780959995
 21
-1.220765190999999
 31
0.0
  0
LINE
  5
480
  8
0
 62
     0
 10
594.61583780959995
 20
-39.449932175599997
 30
0.0
 11
594.61583780959995
 21
-27.679099160100002
 31
0.0
  0
LINE
  5
481
  8
0
 62
     0
 10
594.61583780959995
 20
-39.449932175599997
 30
0.0
 11
594.61583780959995
 21
-36.449932175599997
 31
0.0
  0
SOLID
  5
482
  8
0
 62
     0
 10
594.61583780959995
 20
-39.449932175599997
 30
0.0
 11
592.74083780959995
 21
-31.949932175600001
 31
0.0
 12
596.49083780959995
 22
-31.949932175600001
 32
0.0
 13
594.61583780959995
 23
-33.824932175599997
 33
0.0
  0
LINE
  5
483
  8
0
 62
     0
 10
594.61583780959995
 20
10.550067824399999
 30
0.0
 11
594.61583780959995
 21
7.550067824400001
 31
0.0
  0
SOLID
  5
484
  8
0
 62
     0
 10
594.61583780959995
 20
10.550067824399999
 30
0.0
 11
596.49083780959995
 21
3.0500678244000001
 31
0.0
 12
592.74083780959995
 22
3.0500678244000001
 32
0.0
 13
594.61583780959995
 23
4.9250678244000001
 33
0.0
  0
ENDBLK
  5
485
  8
0
  0
BLOCK
  8
0
  2
*D22
 70
     1
 10
0.0
 20
0.0
 30
0.0
  3
*D22
  1

  0
TEXT
  5
4A1
  8
0
 62
     0
 10
662.5294261427
 20
58.511526698199987
 30
0.0
 40
7.4965279578999988
  1
□70
  0
LINE
  5
4A2
  8
0
 62
     0
 10
706.34887079910004
 20
-6.4499321755999981
 30
0.0
 11
706.34887079910004
 21
56.688609999699999
 31
0.0
  0
LINE
  5
4A3
  8
0
 62
     0
 10
636.34887079910004
 20
-6.4499321755999981
 30
0.0
 11
636.34887079910004
 21
56.688609999699999
 31
0.0
  0
LINE
  5
4A4
  8
0
 62
     0
 10
706.34887079910004
 20
56.188609999699999
 30
0.0
 11
684.57803778369998
 21
56.188609999699999
 31
0.0
  0
LINE
  5
4A5
  8
0
 62
     0
 10
706.34887079910004
 20
56.188609999699999
 30
0.0
 11
658.11970381449987
 21
56.188609999699999
 31
0.0
  0
LINE
  5
4A6
  8
0
 62
     0
 10
636.34887079910004
 20
56.188609999699999
 30
0.0
 11
684.57803778369998
 21
56.188609999699999
 31
0.0
  0
LINE
  5
4A7
  8
0
 62
     0
 10
636.34887079910004
 20
56.188609999699999
 30
0.0
 11
658.11970381449987
 21
56.188609999699999
 31
0.0
  0
LINE
  5
4A8
  8
0
 62
     0
 10
636.34887079910004
 20
56.188609999699999
 30
0.0
 11
639.34887079910004
 21
56.188609999699999
 31
0.0
  0
SOLID
  5
4A9
  8
0
 62
     0
 10
636.34887079910004
 20
56.188609999699999
 30
0.0
 11
643.84887079910004
 21
58.063609999699999
 31
0.0
 12
643.84887079910004
 22
54.313609999699999
 32
0.0
 13
641.97387079910004
 23
56.188609999699999
 33
0.0
  0
LINE
  5
4AA
  8
0
 62
     0
 10
706.34887079910004
 20
56.188609999699999
 30
0.0
 11
703.34887079910004
 21
56.188609999699999
 31
0.0
  0
SOLID
  5
4AB
  8
0
 62
     0
 10
706.34887079910004
 20
56.188609999699999
 30
0.0
 11
698.84887079910004
 21
54.313609999699999
 31
0.0
 12
698.84887079910004
 22
58.063609999699999
 32
0.0
 13
700.72387079910004
 23
56.188609999699999
 33
0.0
  0
ENDBLK
  5
4AC
  8
0
  0
BLOCK
  8
0
  2
BALLON10
 70
     0
 10
0.0
 20
0.0
 30
0.0
  3
BALLON10
  1

  0
INSERT
  5
4B1
  8
0
  6
CONTINUOUS
  2
*U118
 10
0.0
 20
0.0
 30
0.0
  0
CIRCLE
  5
4B2
  8
ﾚｲﾔ_1
 10
958.36152525699981
 20
6.9723702934
 30
0.0
 40
8.75
  0
LINE
  5
4B3
  8
寸法線
 10
972.94485859029999
 20
6.9723702934
 30
0.0
 11
967.11152525699993
 21
6.9723702934
 31
0.0
  0
LINE
  5
4B4
  8
寸法線
 10
1033.8125
 20
92.865350860400014
 30
0.0
 11
972.94485859029999
 21
6.9723702934
 31
0.0
  0
SOLID
  5
4B5
  8
寸法線
 10
1033.8125
 20
92.865350860400014
 30
0.0
 11
1030.1811989995999
 21
84.714359936299999
 31
0.0
 12
1029.7651929343999
 22
87.154019534300005
 32
0.0
 13
1029.7651929343999
 23
87.154019534300005
 33
0.0
  0
SOLID
  5
4B6
  8
寸法線
 10
1029.7651929343999
 20
87.154019534300005
 30
0.0
 11
1027.3255333365
 21
86.738013469099997
 31
0.0
 12
1033.8125
 22
92.865350860400014
 32
0.0
 13
1033.8125
 23
92.865350860400014
 33
0.0
  0
ENDBLK
  5
4B7
  8
0
  0
BLOCK
  8
0
  2
*D24
 70
     1
 10
0.0
 20
0.0
 30
0.0
  3
*D24
  1

  0
TEXT
  5
4BA
  8
0
 62
     0
 10
839.01971902269997
 20
60.935156281799998
 30
0.0
 40
7.4965279578999988
  1
□75
  0
LINE
  5
4BB
  8
0
 62
     0
 10
885.43916367910003
 20
9.050067824400001
 30
0.0
 11
885.43916367910003
 21
59.112239583300003
 31
0.0
  0
LINE
  5
4BC
  8
0
 62
     0
 10
810.23916367909987
 20
9.050067824400001
 30
0.0
 11
810.23916367909987
 21
59.112239583300003
 31
0.0
  0
LINE
  5
4BD
  8
0
 62
     0
 10
885.43916367910003
 20
58.612239583300003
 30
0.0
 11
861.06833066369995
 21
58.612239583300003
 31
0.0
  0
LINE
  5
4BE
  8
0
 62
     0
 10
885.43916367910003
 20
58.612239583300003
 30
0.0
 11
834.60999669460011
 21
58.612239583300003
 31
0.0
  0
LINE
  5
4BF
  8
0
 62
     0
 10
810.23916367909987
 20
58.612239583300003
 30
0.0
 11
861.06833066369995
 21
58.612239583300003
 31
0.0
  0
LINE
  5
4C0
  8
0
 62
     0
 10
810.23916367909987
 20
58.612239583300003
 30
0.0
 11
834.60999669460011
 21
58.612239583300003
 31
0.0
  0
LINE
  5
4C1
  8
0
 62
     0
 10
810.23916367909987
 20
58.612239583300003
 30
0.0
 11
813.23916367909999
 21
58.612239583300003
 31
0.0
  0
SOLID
  5
4C2
  8
0
 62
     0
 10
810.23916367909987
 20
58.612239583300003
 30
0.0
 11
817.73916367909999
 21
60.487239583300003
 31
0.0
 12
817.73916367909999
 22
56.737239583300003
 32
0.0
 13
815.86416367909987
 23
58.612239583300003
 33
0.0
  0
LINE
  5
4C3
  8
0
 62
     0
 10
885.43916367910003
 20
58.612239583300003
 30
0.0
 11
882.43916367910003
 21
58.612239583300003
 31
0.0
  0
SOLID
  5
4C4
  8
0
 62
     0
 10
885.43916367910003
 20
58.612239583300003
 30
0.0
 11
877.93916367910003
 21
56.737239583300003
 31
0.0
 12
877.93916367910003
 22
60.487239583300003
 32
0.0
 13
879.81416367909992
 23
58.612239583300003
 33
0.0
  0
ENDBLK
  5
4C5
  8
0
  0
BLOCK
  8
0
  2
BALLON11
 70
     0
 10
0.0
 20
0.0
 30
0.0
  3
BALLON11
  1

  0
INSERT
  5
4CA
  8
0
  6
CONTINUOUS
  2
*U119
 10
0.0
 20
0.0
 30
0.0
  0
CIRCLE
  5
4CB
  8
ﾚｲﾔ_1
 10
958.35870752899984
 20
6.9678645438000002
 30
0.0
 40
8.75
  0
LINE
  5
4CC
  8
寸法線
 10
943.77537419570012
 20
6.9678645438000002
 30
0.0
 11
949.60870752899984
 21
6.9678645438000002
 31
0.0
  0
LINE
  5
4CD
  8
寸法線
 10
891.62499999999989
 20
152.86535086040001
 30
0.0
 11
943.77537419570012
 21
6.9678645438000002
 31
0.0
  0
SOLID
  5
4CE
  8
寸法線
 10
891.62499999999989
 20
152.86535086040001
 30
0.0
 11
896.21804401860015
 21
145.21492952279999
 31
0.0
 12
893.98112288539994
 22
146.27378921319999
 32
0.0
 13
893.98112288539994
 23
146.27378921319999
 33
0.0
  0
SOLID
  5
4CF
  8
寸法線
 10
893.98112288539994
 20
146.27378921319999
 30
0.0
 11
892.92226319500003
 21
144.03686808
 31
0.0
 12
891.62499999999989
 22
152.86535086040001
 32
0.0
 13
891.62499999999989
 23
152.86535086040001
 33
0.0
  0
ENDBLK
  5
4D0
  8
0
  0
BLOCK
  8
0
  2
*D26
 70
     1
 10
0.0
 20
0.0
 30
0.0
  3
*D26
  1

  0
TEXT
  5
4E6
  8
0
 62
     0
 10
559.8563328237999
 20
-251.1410146058
 30
0.0
 40
7.4965279578999988
  1
1200
 50
90.0
  0
LINE
  5
4E7
  8
0
 62
     0
 10
637.04887079909997
 20
10.550067824399999
 30
0.0
 11
561.67924952220005
 21
10.550067824399999
 31
0.0
  0
LINE
  5
4E8
  8
0
 62
     0
 10
637.04887079909997
 20
-485.4499321756
 30
0.0
 11
561.67924952220005
 21
-485.4499321756
 31
0.0
  0
LINE
  5
4E9
  8
0
 62
     0
 10
562.17924952220005
 20
10.550067824399999
 30
0.0
 11
562.17924952220005
 21
-229.09240296479999
 31
0.0
  0
LINE
  5
4EA
  8
0
 62
     0
 10
562.17924952220005
 20
10.550067824399999
 30
0.0
 11
562.17924952220005
 21
-255.5507369339
 31
0.0
  0
LINE
  5
4EB
  8
0
 62
     0
 10
562.17924952220005
 20
-485.4499321756
 30
0.0
 11
562.17924952220005
 21
-229.09240296479999
 31
0.0
  0
LINE
  5
4EC
  8
0
 62
     0
 10
562.17924952220005
 20
-485.4499321756
 30
0.0
 11
562.17924952220005
 21
-255.5507369339
 31
0.0
  0
LINE
  5
4ED
  8
0
 62
     0
 10
562.17924952220005
 20
-485.4499321756
 30
0.0
 11
562.17924952220005
 21
-482.44993217559988
 31
0.0
  0
SOLID
  5
4EE
  8
0
 62
     0
 10
562.17924952220005
 20
-485.4499321756
 30
0.0
 11
560.30424952220005
 21
-477.9499321756
 31
0.0
 12
564.05424952220005
 22
-477.9499321756
 32
0.0
 13
562.17924952220005
 23
-479.82493217559988
 33
0.0
  0
LINE
  5
4EF
  8
0
 62
     0
 10
562.17924952220005
 20
10.550067824399999
 30
0.0
 11
562.17924952220005
 21
7.550067824400001
 31
0.0
  0
SOLID
  5
4F0
  8
0
 62
     0
 10
562.17924952220005
 20
10.550067824399999
 30
0.0
 11
564.05424952220005
 21
3.0500678244000001
 31
0.0
 12
560.30424952220005
 22
3.0500678244000001
 32
0.0
 13
562.17924952220005
 23
4.9250678244000001
 33
0.0
  0
ENDBLK
  5
4F1
  8
0
  0
BLOCK
  8
0
  2
*D27
 70
     1
 10
0.0
 20
0.0
 30
0.0
  3
*D27
  1

  0
TEXT
  5
4F5
  8
0
 62
     0
 10
592.03949475010006
 20
-224.12420298430001
 30
0.0
 40
7.4965279578999988
  1
950
 50
90.0
  0
LINE
  5
4F6
  8
0
 62
     0
 10
648.60824579910002
 20
-39.449932175599997
 30
0.0
 11
593.86241144849998
 21
-39.449932175599997
 31
0.0
  0
LINE
  5
4F7
  8
0
 62
     0
 10
648.60824579910002
 20
-385.4499321756
 30
0.0
 11
593.86241144849998
 21
-385.4499321756
 31
0.0
  0
LINE
  5
4F8
  8
0
 62
     0
 10
594.36241144849987
 20
-39.449932175599997
 30
0.0
 11
594.36241144849987
 21
-206.48531367149999
 31
0.0
  0
LINE
  5
4F9
  8
0
 62
     0
 10
594.36241144849987
 20
-39.449932175599997
 30
0.0
 11
594.36241144849987
 21
-228.5339253125
 31
0.0
  0
LINE
  5
4FA
  8
0
 62
     0
 10
594.36241144849987
 20
-385.4499321756
 30
0.0
 11
594.36241144849987
 21
-206.48531367149999
 31
0.0
  0
LINE
  5
4FB
  8
0
 62
     0
 10
594.36241144849987
 20
-385.4499321756
 30
0.0
 11
594.36241144849987
 21
-228.5339253125
 31
0.0
  0
LINE
  5
4FC
  8
0
 62
     0
 10
594.36241144849987
 20
-385.4499321756
 30
0.0
 11
594.36241144849987
 21
-382.4499321756
 31
0.0
  0
SOLID
  5
4FD
  8
0
 62
     0
 10
594.36241144849987
 20
-385.4499321756
 30
0.0
 11
592.48741144849998
 21
-377.9499321756
 31
0.0
 12
596.23741144849987
 22
-377.9499321756
 32
0.0
 13
594.36241144849987
 23
-379.8249321756
 33
0.0
  0
LINE
  5
4FE
  8
0
 62
     0
 10
594.36241144849987
 20
-39.449932175599997
 30
0.0
 11
594.36241144849987
 21
-42.449932175599997
 31
0.0
  0
SOLID
  5
4FF
  8
0
 62
     0
 10
594.36241144849987
 20
-39.449932175599997
 30
0.0
 11
596.23741144849987
 21
-46.949932175599997
 31
0.0
 12
592.48741144849998
 22
-46.949932175599997
 32
0.0
 13
594.36241144849987
 23
-45.074932175599997
 33
0.0
  0
ENDBLK
  5
500
  8
0
  0
BLOCK
  8
0
  2
*D28
 70
     1
 10
0.0
 20
0.0
 30
0.0
  3
*D28
  1

  0
TEXT
  5
508
  8
0
 62
     0
 10
591.86245085550001
 20
-442.06451566789991
 30
0.0
 40
7.4965279578999988
  1
200
 50
90.0
  0
LINE
  5
509
  8
0
 62
     0
 10
648.60824579910002
 20
-385.4499321756
 30
0.0
 11
593.68536755399998
 21
-385.4499321756
 31
0.0
  0
LINE
  5
50A
  8
0
 62
     0
 10
637.04887079909997
 20
-485.4499321756
 30
0.0
 11
593.68536755399998
 21
-485.4499321756
 31
0.0
  0
LINE
  5
50B
  8
0
 62
     0
 10
594.18536755399987
 20
-385.4499321756
 30
0.0
 11
594.18536755399987
 21
-424.42562635509989
 31
0.0
  0
LINE
  5
50C
  8
0
 62
     0
 10
594.18536755399987
 20
-385.4499321756
 30
0.0
 11
594.18536755399987
 21
-446.47423799609987
 31
0.0
  0
LINE
  5
50D
  8
0
 62
     0
 10
594.18536755399987
 20
-485.4499321756
 30
0.0
 11
594.18536755399987
 21
-424.42562635509989
 31
0.0
  0
LINE
  5
50E
  8
0
 62
     0
 10
594.18536755399987
 20
-485.4499321756
 30
0.0
 11
594.18536755399987
 21
-446.47423799609987
 31
0.0
  0
LINE
  5
50F
  8
0
 62
     0
 10
594.18536755399987
 20
-485.4499321756
 30
0.0
 11
594.18536755399987
 21
-482.44993217559988
 31
0.0
  0
SOLID
  5
510
  8
0
 62
     0
 10
594.18536755399987
 20
-485.4499321756
 30
0.0
 11
592.31036755399998
 21
-477.9499321756
 31
0.0
 12
596.06036755399987
 22
-477.9499321756
 32
0.0
 13
594.18536755399987
 23
-479.82493217559988
 33
0.0
  0
LINE
  5
511
  8
0
 62
     0
 10
594.18536755399987
 20
-385.4499321756
 30
0.0
 11
594.18536755399987
 21
-388.4499321756
 31
0.0
  0
SOLID
  5
512
  8
0
 62
     0
 10
594.18536755399987
 20
-385.4499321756
 30
0.0
 11
596.06036755399987
 21
-392.9499321756
 31
0.0
 12
592.31036755399998
 22
-392.9499321756
 32
0.0
 13
594.18536755399987
 23
-391.0749321756
 33
0.0
  0
ENDBLK
  5
513
  8
0
  0
BLOCK
  8
0
  2
*X29
 70
     1
 10
0.0
 20
0.0
 30
0.0
  3
*X29
  1

  0
LINE
  5
51C
  8
ﾚｲﾔ_1
 10
1040.0
 20
-479.40494791669988
 30
0.0
 11
1040.0
 21
-415.90494791669988
 31
0.0
  0
LINE
  5
51D
  8
ﾚｲﾔ_1
 10
1060.0
 20
-479.40494791669988
 30
0.0
 11
1060.0
 21
-415.90494791669988
 31
0.0
  0
LINE
  5
51E
  8
ﾚｲﾔ_1
 10
1080.0
 20
-479.40494791669988
 30
0.0
 11
1080.0
 21
-415.90494791669988
 31
0.0
  0
LINE
  5
51F
  8
ﾚｲﾔ_1
 10
1030.0
 20
-479.40494791669988
 30
0.0
 11
1030.0
 21
-415.90494791669988
 31
0.0
  0
LINE
  5
520
  8
ﾚｲﾔ_1
 10
1050.0
 20
-479.40494791669988
 30
0.0
 11
1050.0
 21
-415.90494791669988
 31
0.0
  0
LINE
  5
521
  8
ﾚｲﾔ_1
 10
1070.0
 20
-479.40494791669988
 30
0.0
 11
1070.0
 21
-415.90494791669988
 31
0.0
  0
LINE
  5
522
  8
ﾚｲﾔ_1
 10
1026.6235231953001
 20
-433.40374847719988
 30
0.0
 11
1044.1223237557999
 21
-415.90494791669988
 31
0.0
  0
LINE
  5
523
  8
ﾚｲﾔ_1
 10
1026.6235231953001
 20
-453.40412206169992
 30
0.0
 11
1064.1226973404
 21
-415.90494791669988
 31
0.0
  0
LINE
  5
524
  8
ﾚｲﾔ_1
 10
1026.6235231953001
 20
-473.40449564629989
 30
0.0
 11
1084.1230709249
 21
-415.90494791669988
 31
0.0
  0
LINE
  5
525
  8
ﾚｲﾔ_1
 10
1040.6234445094999
 20
-479.40494791669988
 30
0.0
 11
1084.6235231953001
 21
-435.40486923079999
 31
0.0
  0
LINE
  5
526
  8
ﾚｲﾔ_1
 10
1060.6238180939999
 20
-479.40494791669988
 30
0.0
 11
1084.6235231953001
 21
-455.40524281540002
 31
0.0
  0
LINE
  5
527
  8
ﾚｲﾔ_1
 10
1080.6241916786
 20
-479.40494791669988
 30
0.0
 11
1084.6235231953001
 21
-475.40561639999987
 31
0.0
  0
LINE
  5
528
  8
ﾚｲﾔ_1
 10
1039.4154082842001
 20
-479.40494791669988
 30
0.0
 11
1026.6235231953001
 21
-466.61306282779998
 31
0.0
  0
LINE
  5
529
  8
ﾚｲﾔ_1
 10
1059.4157818686999
 20
-479.40494791669988
 30
0.0
 11
1026.6235231953001
 21
-446.61268924320001
 31
0.0
  0
LINE
  5
52A
  8
ﾚｲﾔ_1
 10
1079.4161554533
 20
-479.40494791669988
 30
0.0
 11
1026.6235231953001
 21
-426.61231565870003
 31
0.0
  0
LINE
  5
52B
  8
ﾚｲﾔ_1
 10
1084.6235231953001
 20
-464.6119420741
 30
0.0
 11
1035.916529037899
 21
-415.90494791669988
 31
0.0
  0
LINE
  5
52C
  8
ﾚｲﾔ_1
 10
1084.6235231953001
 20
-444.61156848960002
 30
0.0
 11
1055.9169026223999
 21
-415.90494791669988
 31
0.0
  0
LINE
  5
52D
  8
ﾚｲﾔ_1
 10
1084.6235231953001
 20
-424.61119490499999
 30
0.0
 11
1075.917276207
 21
-415.90494791669988
 31
0.0
  0
ENDBLK
  5
52E
  8
0
  0
BLOCK
  8
0
  2
CLUMP3
 70
     0
 10
0.0
 20
0.0
 30
0.0
  3
CLUMP3
  1

  0
LINE
  5
539
  8
図枠
 10
963.82083333330002
 20
-600.625
 30
0.0
 11
963.82083333330002
 21
-588.125
 31
0.0
  0
LINE
  5
53A
  8
図枠
 10
816.3208333332999
 20
-600.625
 30
0.0
 11
816.3208333332999
 21
-588.125
 31
0.0
  0
LINE
  5
53B
  8
図枠
 10
838.82083333330002
 20
-600.625
 30
0.0
 11
838.82083333330002
 21
-588.125
 31
0.0
  0
LINE
  5
53C
  8
図枠
 10
1101.3208333333
 20
-600.625
 30
0.0
 11
1101.3208333333
 21
-588.125
 31
0.0
  0
LINE
  5
53D
  8
図枠
 10
1078.8208333333
 20
-600.625
 30
0.0
 11
1078.8208333333
 21
-588.125
 31
0.0
  0
LINE
  5
53E
  8
図枠
 10
1178.8208333333
 20
-588.125
 30
0.0
 11
816.3208333332999
 21
-588.125
 31
0.0
  0
ENDBLK
  5
53F
  8
0
  0
BLOCK
  8
0
  2
CLUMP4
 70
     0
 10
0.0
 20
0.0
 30
0.0
  3
CLUMP4
  1

  0
LINE
  5
543
  8
図枠
 10
963.82083333330002
 20
-575.625
 30
0.0
 11
963.82083333330002
 21
-563.125
 31
0.0
  0
LINE
  5
544
  8
図枠
 10
816.3208333332999
 20
-575.625
 30
0.0
 11
816.3208333332999
 21
-563.125
 31
0.0
  0
LINE
  5
545
  8
図枠
 10
838.82083333330002
 20
-575.625
 30
0.0
 11
838.82083333330002
 21
-563.125
 31
0.0
  0
LINE
  5
546
  8
図枠
 10
1101.3208333333
 20
-575.625
 30
0.0
 11
1101.3208333333
 21
-563.125
 31
0.0
  0
LINE
  5
547
  8
図枠
 10
1078.8208333333
 20
-575.625
 30
0.0
 11
1078.8208333333
 21
-563.125
 31
0.0
  0
LINE
  5
548
  8
図枠
 10
1178.8208333333
 20
-563.125
 30
0.0
 11
816.3208333332999
 21
-563.125
 31
0.0
  0
ENDBLK
  5
549
  8
0
  0
BLOCK
  8
0
  2
CLUMP5
 70
     0
 10
0.0
 20
0.0
 30
0.0
  3
CLUMP5
  1

  0
LINE
  5
54D
  8
図枠
 10
963.82083333330002
 20
-588.125
 30
0.0
 11
963.82083333330002
 21
-575.625
 31
0.0
  0
LINE
  5
54E
  8
図枠
 10
816.3208333332999
 20
-588.125
 30
0.0
 11
816.3208333332999
 21
-575.625
 31
0.0
  0
LINE
  5
54F
  8
図枠
 10
838.82083333330002
 20
-588.125
 30
0.0
 11
838.82083333330002
 21
-575.625
 31
0.0
  0
LINE
  5
550
  8
図枠
 10
1101.3208333333
 20
-588.125
 30
0.0
 11
1101.3208333333
 21
-575.625
 31
0.0
  0
LINE
  5
551
  8
図枠
 10
1078.8208333333
 20
-588.125
 30
0.0
 11
1078.8208333333
 21
-575.625
 31
0.0
  0
LINE
  5
552
  8
図枠
 10
1178.8208333333
 20
-575.625
 30
0.0
 11
816.3208333332999
 21
-575.625
 31
0.0
  0
ENDBLK
  5
553
  8
0
  0
BLOCK
  8
0
  2
CLUMP6
 70
     0
 10
0.0
 20
0.0
 30
0.0
  3
CLUMP6
  1

  0
LINE
  5
557
  8
図枠
 10
963.82083333330002
 20
-563.125
 30
0.0
 11
963.82083333330002
 21
-550.625
 31
0.0
  0
LINE
  5
558
  8
図枠
 10
816.3208333332999
 20
-563.125
 30
0.0
 11
816.3208333332999
 21
-550.625
 31
0.0
  0
LINE
  5
559
  8
図枠
 10
838.82083333330002
 20
-563.125
 30
0.0
 11
838.82083333330002
 21
-550.625
 31
0.0
  0
LINE
  5
55A
  8
図枠
 10
1101.3208333333
 20
-563.125
 30
0.0
 11
1101.3208333333
 21
-550.625
 31
0.0
  0
LINE
  5
55B
  8
図枠
 10
1078.8208333333
 20
-563.125
 30
0.0
 11
1078.8208333333
 21
-550.625
 31
0.0
  0
LINE
  5
55C
  8
図枠
 10
1178.8208333333
 20
-550.625
 30
0.0
 11
816.3208333332999
 21
-550.625
 31
0.0
  0
ENDBLK
  5
55D
  8
0
  0
BLOCK
  8
0
  2
CLUMP7
 70
     0
 10
0.0
 20
0.0
 30
0.0
  3
CLUMP7
  1

  0
LINE
  5
561
  8
図枠
 10
963.82083333330002
 20
-613.125
 30
0.0
 11
963.82083333330002
 21
-600.625
 31
0.0
  0
LINE
  5
562
  8
図枠
 10
816.3208333332999
 20
-613.125
 30
0.0
 11
816.3208333332999
 21
-600.625
 31
0.0
  0
LINE
  5
563
  8
図枠
 10
838.82083333330002
 20
-613.125
 30
0.0
 11
838.82083333330002
 21
-600.625
 31
0.0
  0
LINE
  5
564
  8
図枠
 10
1101.3208333333
 20
-613.125
 30
0.0
 11
1101.3208333333
 21
-600.625
 31
0.0
  0
LINE
  5
565
  8
図枠
 10
1078.8208333333
 20
-613.125
 30
0.0
 11
1078.8208333333
 21
-600.625
 31
0.0
  0
LINE
  5
566
  8
図枠
 10
1178.8208333333
 20
-600.625
 30
0.0
 11
816.3208333332999
 21
-600.625
 31
0.0
  0
ENDBLK
  5
567
  8
0
  0
BLOCK
  8
0
  2
CLUMP8
 70
     0
 10
0.0
 20
0.0
 30
0.0
  3
CLUMP8
  1

  0
LINE
  5
56B
  8
図枠
 10
963.82083333330002
 20
-625.625
 30
0.0
 11
963.82083333330002
 21
-613.125
 31
0.0
  0
LINE
  5
56C
  8
図枠
 10
816.3208333332999
 20
-625.625
 30
0.0
 11
816.3208333332999
 21
-613.125
 31
0.0
  0
LINE
  5
56D
  8
図枠
 10
838.82083333330002
 20
-625.625
 30
0.0
 11
838.82083333330002
 21
-613.125
 31
0.0
  0
LINE
  5
56E
  8
図枠
 10
1101.3208333333
 20
-625.625
 30
0.0
 11
1101.3208333333
 21
-613.125
 31
0.0
  0
LINE
  5
56F
  8
図枠
 10
1078.8208333333
 20
-625.625
 30
0.0
 11
1078.8208333333
 21
-613.125
 31
0.0
  0
LINE
  5
570
  8
図枠
 10
1178.8208333333
 20
-613.125
 30
0.0
 11
816.3208333332999
 21
-613.125
 31
0.0
  0
ENDBLK
  5
571
  8
0
  0
BLOCK
  8
0
  2
CLUMP9
 70
     0
 10
0.0
 20
0.0
 30
0.0
  3
CLUMP9
  1

  0
LINE
  5
57A
  8
図枠
 10
963.82083333330002
 20
-550.625
 30
0.0
 11
963.82083333330002
 21
-538.125
 31
0.0
  0
LINE
  5
57B
  8
図枠
 10
816.3208333332999
 20
-550.625
 30
0.0
 11
816.3208333332999
 21
-538.125
 31
0.0
  0
LINE
  5
57C
  8
図枠
 10
838.82083333330002
 20
-550.625
 30
0.0
 11
838.82083333330002
 21
-538.125
 31
0.0
  0
LINE
  5
57D
  8
図枠
 10
1101.3208333333
 20
-550.625
 30
0.0
 11
1101.3208333333
 21
-538.125
 31
0.0
  0
LINE
  5
57E
  8
図枠
 10
1078.8208333333
 20
-550.625
 30
0.0
 11
1078.8208333333
 21
-538.125
 31
0.0
  0
LINE
  5
57F
  8
図枠
 10
1178.8208333333
 20
-538.125
 30
0.0
 11
816.3208333332999
 21
-538.125
 31
0.0
  0
ENDBLK
  5
580
  8
0
  0
BLOCK
  8
0
  2
*X37
 70
     1
 10
0.0
 20
0.0
 30
0.0
  3
*X37
  1

  0
LINE
  5
586
  8
ﾚｲﾔ_1
 10
1080.0
 20
-419.12161458330002
 30
0.0
 11
1080.0
 21
-182.6877604167
 31
0.0
  0
LINE
  5
587
  8
ﾚｲﾔ_1
 10
1070.0
 20
-419.12161458330002
 30
0.0
 11
1070.0
 21
-182.6877604167
 31
0.0
  0
LINE
  5
588
  8
ﾚｲﾔ_1
 10
1065.1318389656001
 20
-194.89169686130001
 30
0.0
 11
1077.3357754102999
 21
-182.6877604167
 31
0.0
  0
LINE
  5
589
  8
ﾚｲﾔ_1
 10
1065.1318389656001
 20
-214.8920704459
 30
0.0
 11
1085.6235231953001
 21
-194.40038621619999
 31
0.0
  0
LINE
  5
58A
  8
ﾚｲﾔ_1
 10
1065.1318389656001
 20
-234.89244403039999
 30
0.0
 11
1085.6235231953001
 21
-214.4007598007
 31
0.0
  0
LINE
  5
58B
  8
ﾚｲﾔ_1
 10
1065.1318389656001
 20
-254.89281761500001
 30
0.0
 11
1085.6235231953001
 21
-234.4011333853
 31
0.0
  0
LINE
  5
58C
  8
ﾚｲﾔ_1
 10
1065.1318389656001
 20
-274.89319119959998
 30
0.0
 11
1085.6235231953001
 21
-254.4015069699
 31
0.0
  0
LINE
  5
58D
  8
ﾚｲﾔ_1
 10
1065.1318389656001
 20
-294.89356478410002
 30
0.0
 11
1085.6235231953001
 21
-274.40188055440001
 31
0.0
  0
LINE
  5
58E
  8
ﾚｲﾔ_1
 10
1065.1318389656001
 20
-314.89393836869999
 30
0.0
 11
1085.6235231953001
 21
-294.40225413899998
 31
0.0
  0
LINE
  5
58F
  8
ﾚｲﾔ_1
 10
1065.1318389656001
 20
-334.89431195319997
 30
0.0
 11
1085.6235231953001
 21
-314.40262772350002
 31
0.0
  0
LINE
  5
590
  8
ﾚｲﾔ_1
 10
1065.1318389656001
 20
-354.8946855378
 30
0.0
 11
1085.6235231953001
 21
-334.40300130809999
 31
0.0
  0
LINE
  5
591
  8
ﾚｲﾔ_1
 10
1065.1318389656001
 20
-374.8950591223001
 30
0.0
 11
1085.6235231953001
 21
-354.40337489260003
 31
0.0
  0
LINE
  5
592
  8
ﾚｲﾔ_1
 10
1065.1318389656001
 20
-394.89543270690001
 30
0.0
 11
1085.6235231953001
 21
-374.4037484772
 31
0.0
  0
LINE
  5
593
  8
ﾚｲﾔ_1
 10
1065.1318389656001
 20
-414.89580629139988
 30
0.0
 11
1085.6235231953001
 21
-394.40412206169998
 31
0.0
  0
LINE
  5
594
  8
ﾚｲﾔ_1
 10
1080.9064042583
 20
-419.12161458330002
 30
0.0
 11
1085.6235231953001
 21
-414.40449564629989
 31
0.0
  0
LINE
  5
595
  8
ﾚｲﾔ_1
 10
1079.1339428736001
 20
-419.12161458330002
 30
0.0
 11
1065.1318389656001
 21
-405.11951067529998
 31
0.0
  0
LINE
  5
596
  8
ﾚｲﾔ_1
 10
1085.6235231953001
 20
-405.61082132040002
 30
0.0
 11
1065.1318389656001
 21
-385.11913709070001
 31
0.0
  0
LINE
  5
597
  8
ﾚｲﾔ_1
 10
1085.6235231953001
 20
-385.61044773589998
 30
0.0
 11
1065.1318389656001
 21
-365.11876350620003
 31
0.0
  0
LINE
  5
598
  8
ﾚｲﾔ_1
 10
1085.6235231953001
 20
-365.61007415130001
 30
0.0
 11
1065.1318389656001
 21
-345.11838992160011
 31
0.0
  0
LINE
  5
599
  8
ﾚｲﾔ_1
 10
1085.6235231953001
 20
-345.60970056679997
 30
0.0
 11
1065.1318389656001
 21
-325.11801633710002
 31
0.0
  0
LINE
  5
59A
  8
ﾚｲﾔ_1
 10
1085.6235231953001
 20
-325.6093269822
 30
0.0
 11
1065.1318389656001
 21
-305.11764275249999
 31
0.0
  0
LINE
  5
59B
  8
ﾚｲﾔ_1
 10
1085.6235231953001
 20
-305.60895339770002
 30
0.0
 11
1065.1318389656001
 21
-285.11726916800001
 31
0.0
  0
LINE
  5
59C
  8
ﾚｲﾔ_1
 10
1085.6235231953001
 20
-285.60857981309999
 30
0.0
 11
1065.1318389656001
 21
-265.11689558339998
 31
0.0
  0
LINE
  5
59D
  8
ﾚｲﾔ_1
 10
1085.6235231953001
 20
-265.60820622860001
 30
0.0
 11
1065.1318389656001
 21
-245.1165219989
 31
0.0
  0
LINE
  5
59E
  8
ﾚｲﾔ_1
 10
1085.6235231953001
 20
-245.60783264400001
 30
0.0
 11
1065.1318389656001
 21
-225.1161484143
 31
0.0
  0
LINE
  5
59F
  8
ﾚｲﾔ_1
 10
1085.6235231953001
 20
-225.6074590595
 30
0.0
 11
1065.1318389656001
 21
-205.11577482979999
 31
0.0
  0
LINE
  5
5A0
  8
ﾚｲﾔ_1
 10
1085.6235231953001
 20
-205.6070854749
 30
0.0
 11
1065.1318389656001
 21
-185.11540124519991
 31
0.0
  0
LINE
  5
5A1
  8
ﾚｲﾔ_1
 10
1085.6235231953001
 20
-185.60671189029989
 30
0.0
 11
1082.7045717215999
 21
-182.6877604167
 31
0.0
  0
ENDBLK
  5
5A2
  8
0
  0
BLOCK
  8
0
  2
BALLON12
 70
     0
 10
0.0
 20
0.0
 30
0.0
  3
BALLON12
  1

  0
INSERT
  5
5A6
  8
0
  6
CONTINUOUS
  2
*U128
 10
0.0
 20
0.0
 30
0.0
  0
CIRCLE
  5
5A7
  8
ﾚｲﾔ_1
 10
958.36152525699981
 20
-238.07120304969999
 30
0.0
 40
8.75
  0
LINE
  5
5A8
  8
寸法線
 10
972.94485859029999
 20
-238.07120304969999
 30
0.0
 11
967.11152525699993
 21
-238.07120304969999
 31
0.0
  0
LINE
  5
5A9
  8
寸法線
 10
1041.7178715885
 20
-194.94127604170001
 30
0.0
 11
972.94485859029999
 21
-238.07120304969999
 31
0.0
  0
SOLID
  5
5AA
  8
寸法線
 10
1041.7178715885
 20
-194.94127604170001
 30
0.0
 11
1035.2347790578001
 21
-201.07271235280001
 31
0.0
 12
1035.7875794401
 22
-198.6603666609
 32
0.0
 13
1035.7875794401
 23
-198.6603666609
 33
0.0
  0
SOLID
  5
5AB
  8
寸法線
 10
1035.7875794401
 20
-198.6603666609
 30
0.0
 11
1033.3752337481999
 21
-198.10756627859999
 31
0.0
 12
1041.7178715885
 22
-194.94127604170001
 32
0.0
 13
1041.7178715885
 23
-194.94127604170001
 33
0.0
  0
ENDBLK
  5
5AC
  8
0
  0
BLOCK
  8
0
  2
*X39
 70
     1
 10
0.0
 20
0.0
 30
0.0
  3
*X39
  1

  0
LINE
  5
5B2
  8
ﾚｲﾔ_1
 10
1030.0
 20
-365.54791666670002
 30
0.0
 11
1030.0
 21
-175.46132812499999
 31
0.0
  0
LINE
  5
5B3
  8
ﾚｲﾔ_1
 10
1022.16171875
 20
-177.8606963233
 30
0.0
 11
1024.5610869483
 21
-175.46132812499999
 31
0.0
  0
LINE
  5
5B4
  8
ﾚｲﾔ_1
 10
1022.16171875
 20
-197.86106990779999
 30
0.0
 11
1038.96171875
 21
-181.06106990779989
 31
0.0
  0
LINE
  5
5B5
  8
ﾚｲﾔ_1
 10
1022.16171875
 20
-217.86144349240001
 30
0.0
 11
1038.96171875
 21
-201.0614434924
 31
0.0
  0
LINE
  5
5B6
  8
ﾚｲﾔ_1
 10
1022.16171875
 20
-237.8618170769
 30
0.0
 11
1038.96171875
 21
-221.06181707690001
 31
0.0
  0
LINE
  5
5B7
  8
ﾚｲﾔ_1
 10
1022.16171875
 20
-257.86219066149999
 30
0.0
 11
1038.96171875
 21
-241.06219066150001
 31
0.0
  0
LINE
  5
5B8
  8
ﾚｲﾔ_1
 10
1022.16171875
 20
-277.86256424599998
 30
0.0
 11
1038.96171875
 21
-261.06256424600002
 31
0.0
  0
LINE
  5
5B9
  8
ﾚｲﾔ_1
 10
1022.16171875
 20
-297.8629378306
 30
0.0
 11
1038.96171875
 21
-281.06293783059999
 31
0.0
  0
LINE
  5
5BA
  8
ﾚｲﾔ_1
 10
1022.16171875
 20
-317.86331141519997
 30
0.0
 11
1038.96171875
 21
-301.06331141520002
 31
0.0
  0
LINE
  5
5BB
  8
ﾚｲﾔ_1
 10
1022.16171875
 20
-337.86368499970001
 30
0.0
 11
1038.96171875
 21
-321.0636849997
 31
0.0
  0
LINE
  5
5BC
  8
ﾚｲﾔ_1
 10
1022.16171875
 20
-357.86405858429998
 30
0.0
 11
1038.96171875
 21
-341.06405858430003
 31
0.0
  0
LINE
  5
5BD
  8
ﾚｲﾔ_1
 10
1034.4782342522001
 20
-365.54791666670002
 30
0.0
 11
1038.96171875
 21
-361.0644321687999
 31
0.0
  0
LINE
  5
5BE
  8
ﾚｲﾔ_1
 10
1025.5602449569999
 20
-365.54791666670002
 30
0.0
 11
1022.16171875
 21
-362.14939045969999
 31
0.0
  0
LINE
  5
5BF
  8
ﾚｲﾔ_1
 10
1038.96171875
 20
-358.94901687510003
 30
0.0
 11
1022.16171875
 21
-342.14901687510002
 31
0.0
  0
LINE
  5
5C0
  8
ﾚｲﾔ_1
 10
1038.96171875
 20
-338.94864329059999
 30
0.0
 11
1022.16171875
 21
-322.14864329059998
 31
0.0
  0
LINE
  5
5C1
  8
ﾚｲﾔ_1
 10
1038.96171875
 20
-318.94826970600002
 30
0.0
 11
1022.16171875
 21
-302.14826970600001
 31
0.0
  0
LINE
  5
5C2
  8
ﾚｲﾔ_1
 10
1038.96171875
 20
-298.94789612150009
 30
0.0
 11
1022.16171875
 21
-282.14789612150003
 31
0.0
  0
LINE
  5
5C3
  8
ﾚｲﾔ_1
 10
1038.96171875
 20
-278.94752253690001
 30
0.0
 11
1022.16171875
 21
-262.1475225369
 31
0.0
  0
LINE
  5
5C4
  8
ﾚｲﾔ_1
 10
1038.96171875
 20
-258.94714895240003
 30
0.0
 11
1022.16171875
 21
-242.14714895239999
 31
0.0
  0
LINE
  5
5C5
  8
ﾚｲﾔ_1
 10
1038.96171875
 20
-238.9467753678
 30
0.0
 11
1022.16171875
 21
-222.14677536779999
 31
0.0
  0
LINE
  5
5C6
  8
ﾚｲﾔ_1
 10
1038.96171875
 20
-218.94640178329999
 30
0.0
 11
1022.16171875
 21
-202.14640178330001
 31
0.0
  0
LINE
  5
5C7
  8
ﾚｲﾔ_1
 10
1038.96171875
 20
-198.94602819869999
 30
0.0
 11
1022.16171875
 21
-182.14602819870001
 31
0.0
  0
LINE
  5
5C8
  8
ﾚｲﾔ_1
 10
1038.96171875
 20
-178.94565461420001
 30
0.0
 11
1035.4773922607999
 21
-175.46132812499999
 31
0.0
  0
ENDBLK
  5
5C9
  8
0
  0
BLOCK
  8
0
  2
*U40
 70
     1
 10
0.0
 20
0.0
 30
0.0
  3
*U40
  1

  0
TEXT
  5
7BD
  8
図枠
  6
CONTINUOUS
 10
1153.717534030144
 20
269.96389604604258
 30
0.0
 40
6.7468748986999989
  1
検認者
  0
ENDBLK
  5
7BF
  8
0
  0
BLOCK
  8
0
  2
*U41
 70
     1
 10
0.0
 20
0.0
 30
0.0
  3
*U41
  1

  0
TEXT
  5
7C1
  8
図枠
  6
CONTINUOUS
 10
1116.972395645847
 20
-635.45622226419289
 30
0.0
 40
7.496527552599999
  1
備　　　考
  0
ENDBLK
  5
7C3
  8
0
  0
BLOCK
  8
0
  2
*U42
 70
     1
 10
0.0
 20
0.0
 30
0.0
  3
*U42
  1

  0
TEXT
  5
7C5
  8
図枠
  6
CONTINUOUS
 10
1137.485046588861
 20
244.8953998541777
 30
0.0
 40
6.7468748986999989
  1
湊
  0
ENDBLK
  5
7C7
  8
0
  0
BLOCK
  8
0
  2
*U43
 70
     1
 10
0.0
 20
0.0
 30
0.0
  3
*U43
  1

  0
TEXT
  5
7C9
  8
図枠
  6
CONTINUOUS
 10
1158.1012903095029
 20
245.16938462163759
 30
0.0
 40
6.7468748986999989
  1
園原
  0
ENDBLK
  5
7CB
  8
0
  0
BLOCK
  8
0
  2
*U44
 70
     1
 10
0.0
 20
0.0
 30
0.0
  3
*U44
  1

  0
TEXT
  5
7CD
  8
図枠
  6
CONTINUOUS
 10
1155.9094121698231
 20
257.66938462163762
 30
0.0
 40
6.7468748986999989
  1
園 原
  0
ENDBLK
  5
7CF
  8
0
  0
BLOCK
  8
0
  2
*U45
 70
     1
 10
0.0
 20
0.0
 30
0.0
  3
*U45
  1

  0
TEXT
  5
7D1
  8
図枠
  6
CONTINUOUS
 10
1137.485046588861
 20
257.39539985417758
 30
0.0
 40
6.7468748986999989
  1
湊
  0
ENDBLK
  5
7D3
  8
0
  0
BLOCK
  8
0
  2
*U46
 70
     1
 10
0.0
 20
0.0
 30
0.0
  3
*U46
  1

  0
TEXT
  5
7D5
  8
図枠
  6
CONTINUOUS
 10
1128.820278317942
 20
269.9981441419751
 30
0.0
 40
6.7468748986999989
  1
改訂者
  0
ENDBLK
  5
7D7
  8
0
  0
BLOCK
  8
0
  2
*U47
 70
     1
 10
0.0
 20
0.0
 30
0.0
  3
*U47
  1

  0
TEXT
  5
7D9
  8
図枠
  6
CONTINUOUS
 10
970.87408644133245
 20
229.04892761759189
 30
0.0
 40
7.1578947901999994
  1
Ａ・Ｂ部拡大図
  0
ENDBLK
  5
7DB
  8
0
  0
BLOCK
  8
0
  2
*U48
 70
     1
 10
0.0
 20
0.0
 30
0.0
  3
*U48
  1

  0
TEXT
  5
7DD
  8
図枠
  6
CONTINUOUS
 10
964.11105412415361
 20
257.84062510129991
 30
0.0
 40
6.7468748986999989
  1
H18.03.18
  0
ENDBLK
  5
7DF
  8
0
  0
BLOCK
  8
0
  2
*U49
 70
     1
 10
0.0
 20
0.0
 30
0.0
  3
*U49
  1

  0
TEXT
  5
7E1
  8
図枠
  6
CONTINUOUS
 10
970.96067331065092
 20
270.0666403338401
 30
0.0
 40
6.7468748986999989
  1
改訂日
  0
ENDBLK
  5
7E3
  8
0
  0
BLOCK
  8
0
  2
*U50
 70
     1
 10
0.0
 20
0.0
 30
0.0
  3
*U50
  1

  0
TEXT
  5
7E5
  8
図枠
  6
CONTINUOUS
 10
966.33718035976528
 20
245.34062510129999
 30
0.0
 40
6.7468748986999989
  1
H19.3.13
  0
ENDBLK
  5
7E7
  8
0
  0
BLOCK
  8
0
  2
*U51
 70
     1
 10
0.0
 20
0.0
 30
0.0
  3
*U51
  1

  0
TEXT
  5
7E9
  8
ﾚｲﾔ_1
  6
CONTINUOUS
 10
955.70002279597202
 20
-25.857044534500002
 30
0.0
 40
7.4965279578999988
  1
2
  0
ENDBLK
  5
7EB
  8
0
  0
BLOCK
  8
0
  2
*U52
 70
     1
 10
0.0
 20
0.0
 30
0.0
  3
*U52
  1

  0
TEXT
  5
7ED
  8
ﾚｲﾔ_1
  6
CONTINUOUS
 10
955.70002279597202
 20
-25.857044534500002
 30
0.0
 40
7.4965279578999988
  1
2
  0
ENDBLK
  5
7EF
  8
0
  0
BLOCK
  8
0
  2
*U53
 70
     1
 10
0.0
 20
0.0
 30
0.0
  3
*U53
  1

  0
TEXT
  5
7F1
  8
ﾚｲﾔ_1
  6
CONTINUOUS
 10
955.70002279597202
 20
-25.857044534500002
 30
0.0
 40
7.4965279578999988
  1
2
  0
ENDBLK
  5
7F3
  8
0
  0
BLOCK
  8
0
  2
*U54
 70
     1
 10
0.0
 20
0.0
 30
0.0
  3
*U54
  1

  0
TEXT
  5
7F5
  8
ﾚｲﾔ_1
  6
CONTINUOUS
 10
955.70002279597202
 20
-25.857044534500002
 30
0.0
 40
7.4965279578999988
  1
2
  0
ENDBLK
  5
7F7
  8
0
  0
BLOCK
  8
0
  2
*U55
 70
     1
 10
0.0
 20
0.0
 30
0.0
  3
*U55
  1

  0
TEXT
  5
7F9
  8
ﾚｲﾔ_1
  6
CONTINUOUS
 10
955.70002279597202
 20
-25.857044534500002
 30
0.0
 40
7.4965279578999988
  1
2
  0
ENDBLK
  5
7FB
  8
0
  0
BLOCK
  8
0
  2
*U56
 70
     1
 10
0.0
 20
0.0
 30
0.0
  3
*U56
  1

  0
TEXT
  5
7FD
  8
ﾚｲﾔ_1
  6
CONTINUOUS
 10
955.62391591315065
 20
-154.3919480166
 30
0.0
 40
7.4965279578999988
  1
6
  0
ENDBLK
  5
7FF
  8
0
  0
BLOCK
  8
0
  2
*U57
 70
     1
 10
0.0
 20
0.0
 30
0.0
  3
*U57
  1

  0
TEXT
  5
801
  8
ﾚｲﾔ_1
  6
CONTINUOUS
 10
955.85223656161475
 20
-76.124667259299997
 30
0.0
 40
7.4965279578999988
  1
4
  0
ENDBLK
  5
803
  8
0
  0
BLOCK
  8
0
  2
*U58
 70
     1
 10
0.0
 20
0.0
 30
0.0
  3
*U58
  1

  0
TEXT
  5
805
  8
図枠
  6
CONTINUOUS
 10
1000.996500139598
 20
-107.51673209800001
 30
0.0
 40
13.4937497973
  1
Ａ
  0
ENDBLK
  5
807
  8
0
  0
BLOCK
  8
0
  2
*U59
 70
     1
 10
0.0
 20
0.0
 30
0.0
  3
*U59
  1

  0
TEXT
  5
809
  8
ﾚｲﾔ_1
  6
CONTINUOUS
 10
860.8117955317
 20
-79.459674159800002
 30
0.0
 40
7.4965279578999988
  1
ＨＬ
 50
90.0
  0
ENDBLK
  5
80B
  8
0
  0
BLOCK
  8
0
  2
*U60
 70
     1
 10
0.0
 20
0.0
 30
0.0
  3
*U60
  1

  0
TEXT
  5
80D
  8
ﾚｲﾔ_1
  6
CONTINUOUS
 10
729.07628118387197
 20
-99.102163671949256
 30
0.0
 40
7.4965279578999988
  1
2-ＲＰ1/2ネジ
  0
ENDBLK
  5
80F
  8
0
  0
BLOCK
  8
0
  2
*U61
 70
     1
 10
0.0
 20
0.0
 30
0.0
  3
*U61
  1

  0
TEXT
  5
811
  8
ﾚｲﾔ_1
  6
CONTINUOUS
 10
729.07628118387197
 20
-99.102163671949256
 30
0.0
 40
7.4965279578999988
  1
2-ＲＰ1/2ネジ
  0
ENDBLK
  5
813
  8
0
  0
BLOCK
  8
0
  2
*U62
 70
     1
 10
0.0
 20
0.0
 30
0.0
  3
*U62
  1

  0
TEXT
  5
815
  8
ﾚｲﾔ_1
  6
CONTINUOUS
 10
744.94650806330003
 20
-113.9616522123
 30
0.0
 40
7.4965279578999988
  1
１３Ａ
  0
ENDBLK
  5
817
  8
0
  0
BLOCK
  8
0
  2
*U63
 70
     1
 10
0.0
 20
0.0
 30
0.0
  3
*U63
  1

  0
TEXT
  5
819
  8
ﾚｲﾔ_1
  6
CONTINUOUS
 10
955.85223656161475
 20
-413.60714197390001
 30
0.0
 40
7.4965279578999988
  1
4
  0
ENDBLK
  5
81B
  8
0
  0
BLOCK
  8
0
  2
*U64
 70
     1
 10
0.0
 20
0.0
 30
0.0
  3
*U64
  1

  0
TEXT
  5
81D
  8
ﾚｲﾔ_1
  6
CONTINUOUS
 10
955.73807623738276
 20
-460.82848601929987
 30
0.0
 40
7.4965279578999988
  1
3
  0
ENDBLK
  5
81F
  8
0
  0
BLOCK
  8
0
  2
*U65
 70
     1
 10
0.0
 20
0.0
 30
0.0
  3
*U65
  1

  0
TEXT
  5
821
  8
図枠
  6
CONTINUOUS
 10
1000.619771084343
 20
-423.50860738940003
 30
0.0
 40
13.4937497973
  1
Ｂ
  0
ENDBLK
  5
823
  8
0
  0
BLOCK
  8
0
  2
*U66
 70
     1
 10
0.0
 20
0.0
 30
0.0
  3
*U66
  1

  0
TEXT
  5
825
  8
図枠
  6
CONTINUOUS
 10
1001.713798411951
 20
-584.79409252955236
 30
0.0
 40
6.7468748986999989
  1
SUSエルボ
  0
ENDBLK
  5
827
  8
0
  0
BLOCK
  8
0
  2
*U67
 70
     1
 10
0.0
 20
0.0
 30
0.0
  3
*U67
  1

  0
TEXT
  5
829
  8
図枠
  6
CONTINUOUS
 10
986.33640333826406
 20
-621.71187489869988
 30
0.0
 40
6.7468748986999989
  1
SUS304  HL  0.8t
  0
ENDBLK
  5
82B
  8
0
  0
BLOCK
  8
0
  2
*U68
 70
     1
 10
0.0
 20
0.0
 30
0.0
  3
*U68
  1

  0
TEXT
  5
82D
  8
図枠
  6
CONTINUOUS
 10
997.32813982104472
 20
-635.22790162807314
 30
0.0
 40
7.496527552599999
  1
材　　　質
  0
ENDBLK
  5
82F
  8
0
  0
BLOCK
  8
0
  2
*U69
 70
     1
 10
0.0
 20
0.0
 30
0.0
  3
*U69
  1

  0
TEXT
  5
831
  8
図枠
  6
CONTINUOUS
 10
986.33640333826406
 20
-609.21187489869988
 30
0.0
 40
6.7468748986999989
  1
SUS304  HL  0.8t
  0
ENDBLK
  5
833
  8
0
  0
BLOCK
  8
0
  2
*U70
 70
     1
 10
0.0
 20
0.0
 30
0.0
  3
*U70
  1

  0
TEXT
  5
835
  8
図枠
  6
CONTINUOUS
 10
986.33640333826406
 20
-596.71187489869988
 30
0.0
 40
6.7468748986999989
  1
SUS304  HL  0.8t
  0
ENDBLK
  5
837
  8
0
  0
BLOCK
  8
0
  2
*U71
 70
     1
 10
0.0
 20
0.0
 30
0.0
  3
*U71
  1

  0
TEXT
  5
839
  8
図枠
  6
CONTINUOUS
 10
995.61763733596831
 20
-572.08860395395743
 30
0.0
 40
6.7468748986999989
  1
ステンレス管
  0
ENDBLK
  5
83B
  8
0
  0
BLOCK
  8
0
  2
*U72
 70
     1
 10
0.0
 20
0.0
 30
0.0
  3
*U72
  1

  0
TEXT
  5
83D
  8
図枠
  6
CONTINUOUS
 10
967.0033531843751
 20
-559.58860395395743
 30
0.0
 40
6.7468748986999989
  1
硬質膿R砲ウレタンフォ－ム
  0
ENDBLK
  5
83F
  8
0
  0
BLOCK
  8
0
  2
*U73
 70
     1
 10
0.0
 20
0.0
 30
0.0
  3
*U73
  1

  0
TEXT
  5
841
  8
図枠
  6
CONTINUOUS
 10
993.79745615778472
 20
-547.74058114265381
 30
0.0
 40
7.1578947901999994
  1
ポリエチレン
  0
ENDBLK
  5
843
  8
0
  0
BLOCK
  8
0
  2
*U74
 70
     1
 10
0.0
 20
0.0
 30
0.0
  3
*U74
  1

  0
TEXT
  5
845
  8
図枠
  6
CONTINUOUS
 10
1004.8361943709619
 20
-674.92595506742634
 30
0.0
 40
7.496527552599999
  1
図面名
  0
ENDBLK
  5
847
  8
0
  0
BLOCK
  8
0
  2
*U75
 70
     1
 10
0.0
 20
0.0
 30
0.0
  3
*U75
  1

  0
TEXT
  5
849
  8
ﾚｲﾔ_1
  6
CONTINUOUS
 10
955.20532805763344
 20
-327.50024126469998
 30
0.0
 40
7.4965279578999988
  1
1
  0
ENDBLK
  5
84B
  8
0
  0
BLOCK
  8
0
  2
*U76
 70
     1
 10
0.0
 20
0.0
 30
0.0
  3
*U76
  1

  0
TEXT
  5
84D
  8
図枠
  6
CONTINUOUS
 10
1007.23356105022
 20
-702.34984818871965
 30
0.0
 40
7.496527552599999
  1
図 番
  0
ENDBLK
  5
84F
  8
0
  0
BLOCK
  8
0
  2
*U77
 70
     1
 10
0.0
 20
0.0
 30
0.0
  3
*U77
  1

  0
TEXT
  5
851
  8
図枠
  6
CONTINUOUS
 10
1004.626900454519
 20
-647.50206194613304
 30
0.0
 40
7.496527552599999
  1
製品名
  0
ENDBLK
  5
853
  8
0
  0
BLOCK
  8
0
  2
*U78
 70
     1
 10
0.0
 20
0.0
 30
0.0
  3
*U78
  1

  0
TEXT
  5
855
  8
図枠
  6
CONTINUOUS
 10
1080.6906605327119
 20
-635.34206194613296
 30
0.0
 40
7.496527552599999
  1
数量
  0
ENDBLK
  5
857
  8
0
  0
BLOCK
  8
0
  2
*U79
 70
     1
 10
0.0
 20
0.0
 30
0.0
  3
*U79
  1

  0
TEXT
  5
859
  8
図枠
  6
CONTINUOUS
 10
1088.307056392777
 20
-571.71187489869988
 30
0.0
 40
6.7468748986999989
  1
1
  0
ENDBLK
  5
85B
  8
0
  0
BLOCK
  8
0
  2
*U80
 70
     1
 10
0.0
 20
0.0
 30
0.0
  3
*U80
  1

  0
TEXT
  5
85D
  8
図枠
  6
CONTINUOUS
 10
1088.307056392777
 20
-609.21187489869988
 30
0.0
 40
6.7468748986999989
  1
1
  0
ENDBLK
  5
85F
  8
0
  0
BLOCK
  8
0
  2
*U81
 70
     1
 10
0.0
 20
0.0
 30
0.0
  3
*U81
  1

  0
TEXT
  5
861
  8
図枠
  6
CONTINUOUS
 10
1088.307056392777
 20
-621.71187489869988
 30
0.0
 40
6.7468748986999989
  1
1
  0
ENDBLK
  5
863
  8
0
  0
BLOCK
  8
0
  2
*U82
 70
     1
 10
0.0
 20
0.0
 30
0.0
  3
*U82
  1

  0
TEXT
  5
865
  8
図枠
  6
CONTINUOUS
 10
1088.307056392777
 20
-596.71187489869988
 30
0.0
 40
6.7468748986999989
  1
1
  0
ENDBLK
  5
867
  8
0
  0
BLOCK
  8
0
  2
*U83
 70
     1
 10
0.0
 20
0.0
 30
0.0
  3
*U83
  1

  0
TEXT
  5
869
  8
図枠
  6
CONTINUOUS
 10
1088.307056392777
 20
-559.21187489869988
 30
0.0
 40
6.7468748986999989
  1
1
  0
ENDBLK
  5
86B
  8
0
  0
BLOCK
  8
0
  2
*U84
 70
     1
 10
0.0
 20
0.0
 30
0.0
  3
*U84
  1

  0
TEXT
  5
86D
  8
図枠
  6
CONTINUOUS
 10
1087.7817603800891
 20
-547.12289479020001
 30
0.0
 40
7.1578947901999994
  1
2
  0
ENDBLK
  5
86F
  8
0
  0
BLOCK
  8
0
  2
*U85
 70
     1
 10
0.0
 20
0.0
 30
0.0
  3
*U85
  1

  0
TEXT
  5
871
  8
図枠
  6
CONTINUOUS
 10
1088.199607030278
 20
-559.62289479020001
 30
0.0
 40
7.1578947901999994
  1
1
  0
ENDBLK
  5
873
  8
0
  0
BLOCK
  8
0
  2
*U86
 70
     1
 10
0.0
 20
0.0
 30
0.0
  3
*U86
  1

  0
TEXT
  5
875
  8
図枠
  6
CONTINUOUS
 10
825.37895519362075
 20
-559.21187489869988
 30
0.0
 40
6.7468748986999989
  1
6
  0
ENDBLK
  5
877
  8
0
  0
BLOCK
  8
0
  2
*U87
 70
     1
 10
0.0
 20
0.0
 30
0.0
  3
*U87
  1

  0
TEXT
  5
879
  8
図枠
  6
CONTINUOUS
 10
808.3954270445779
 20
-524.04963806490002
 30
0.0
 40
7.1578947901999994
  1
1
  0
ENDBLK
  5
87B
  8
0
  0
BLOCK
  8
0
  2
*U88
 70
     1
 10
0.0
 20
0.0
 30
0.0
  3
*U88
  1

  0
TEXT
  5
87D
  8
図枠
  6
CONTINUOUS
 10
825.26359313442845
 20
-547.12289479020001
 30
0.0
 40
7.1578947901999994
  1
7
  0
ENDBLK
  5
87F
  8
0
  0
BLOCK
  8
0
  2
*U89
 70
     1
 10
0.0
 20
0.0
 30
0.0
  3
*U89
  1

  0
TEXT
  5
881
  8
図枠
  6
CONTINUOUS
 10
825.24542588876795
 20
-559.62289479020001
 30
0.0
 40
7.1578947901999994
  1
6
  0
ENDBLK
  5
883
  8
0
  0
BLOCK
  8
0
  2
*U90
 70
     1
 10
0.0
 20
0.0
 30
0.0
  3
*U90
  1

  0
TEXT
  5
885
  8
図枠
  6
CONTINUOUS
 10
816.3208333332999
 20
-689.77615392033294
 30
0.0
 40
7.496527552599999
  1
 製図
  0
ENDBLK
  5
887
  8
0
  0
BLOCK
  8
0
  2
*U91
 70
     1
 10
0.0
 20
0.0
 30
0.0
  3
*U91
  1

  0
TEXT
  5
889
  8
図枠
  6
CONTINUOUS
 10
816.3208333332999
 20
-675.95004704162625
 30
0.0
 40
7.496527552599999
  1
 設計
  0
ENDBLK
  5
88B
  8
0
  0
BLOCK
  8
0
  2
*U92
 70
     1
 10
0.0
 20
0.0
 30
0.0
  3
*U92
  1

  0
TEXT
  5
88D
  8
図枠
  6
CONTINUOUS
 10
829.32420916339277
 20
-648.29783328421308
 30
0.0
 40
7.496527552599999
  1
日　　付
  0
ENDBLK
  5
88F
  8
0
  0
BLOCK
  8
0
  2
*U93
 70
     1
 10
0.0
 20
0.0
 30
0.0
  3
*U93
  1

  0
TEXT
  5
891
  8
図枠
  6
CONTINUOUS
 10
835.33665258121425
 20
-661.91353788610002
 30
0.0
 40
7.496527552599999
  1
H16.4
  0
ENDBLK
  5
893
  8
0
  0
BLOCK
  8
0
  2
*U94
 70
     1
 10
0.0
 20
0.0
 30
0.0
  3
*U94
  1

  0
TEXT
  5
895
  8
図枠
  6
CONTINUOUS
 10
829.92042567529984
 20
-713.18512457450913
 30
0.0
 40
13.4937497973
  1
株式会社
  0
ENDBLK
  5
897
  8
0
  0
BLOCK
  8
0
  2
*U95
 70
     1
 10
0.0
 20
0.0
 30
0.0
  3
*U95
  1

  0
TEXT
  5
899
  8
図枠
  6
CONTINUOUS
 10
861.84438140869895
 20
-676.06420735968618
 30
0.0
 40
7.496527552599999
  1
白須賀
  0
ENDBLK
  5
89B
  8
0
  0
BLOCK
  8
0
  2
*U96
 70
     1
 10
0.0
 20
0.0
 30
0.0
  3
*U96
  1

  0
TEXT
  5
89D
  8
図枠
  6
CONTINUOUS
 10
864.08953433054364
 20
-689.85226079903964
 30
0.0
 40
7.496527552599999
  1
岸 本
  0
ENDBLK
  5
89F
  8
0
  0
BLOCK
  8
0
  2
*U97
 70
     1
 10
0.0
 20
0.0
 30
0.0
  3
*U97
  1

  0
TEXT
  5
8A1
  8
図枠
  6
CONTINUOUS
 10
1087.9132032895529
 20
-584.21187489869988
 30
0.0
 40
6.7468748986999989
  1
2
  0
ENDBLK
  5
8A3
  8
0
  0
BLOCK
  8
0
  2
*U98
 70
     1
 10
0.0
 20
0.0
 30
0.0
  3
*U98
  1

  0
TEXT
  5
8A5
  8
図枠
  6
CONTINUOUS
 10
874.22253295597693
 20
-584.75753413919995
 30
0.0
 40
6.7468748986999989
  1
1
  0
ENDBLK
  5
8A7
  8
0
  0
BLOCK
  8
0
  2
*U99
 70
     1
 10
0.0
 20
0.0
 30
0.0
  3
*U99
  1

  0
TEXT
  5
8A9
  8
図枠
  6
CONTINUOUS
 10
863.6388447281779
 20
-547.92455196699996
 30
0.0
 40
7.1578947901999994
  1
1
  0
ENDBLK
  5
8AB
  8
0
  0
BLOCK
  8
0
  2
*U100
 70
     1
 10
0.0
 20
0.0
 30
0.0
  3
*U100
  1

  0
TEXT
  5
8AD
  8
図枠
  6
CONTINUOUS
 10
825.41320328955328
 20
-609.21187489869988
 30
0.0
 40
6.7468748986999989
  1
2
  0
ENDBLK
  5
8AF
  8
0
  0
BLOCK
  8
0
  2
*U101
 70
     1
 10
0.0
 20
0.0
 30
0.0
  3
*U101
  1

  0
TEXT
  5
8B1
  8
図枠
  6
CONTINUOUS
 10
825.44745138548569
 20
-571.71187489869988
 30
0.0
 40
6.7468748986999989
  1
5
  0
ENDBLK
  5
8B3
  8
0
  0
BLOCK
  8
0
  2
*U102
 70
     1
 10
0.0
 20
0.0
 30
0.0
  3
*U102
  1

  0
TEXT
  5
8B5
  8
図枠
  6
CONTINUOUS
 10
825.80705639277676
 20
-621.71187489869988
 30
0.0
 40
6.7468748986999989
  1
1
  0
ENDBLK
  5
8B7
  8
0
  0
BLOCK
  8
0
  2
*U103
 70
     1
 10
0.0
 20
0.0
 30
0.0
  3
*U103
  1

  0
TEXT
  5
8B9
  8
図枠
  6
CONTINUOUS
 10
818.43800788850797
 20
-635.18984818871968
 30
0.0
 40
7.496527552599999
  1
品番
  0
ENDBLK
  5
8BB
  8
0
  0
BLOCK
  8
0
  2
*U104
 70
     1
 10
0.0
 20
0.0
 30
0.0
  3
*U104
  1

  0
TEXT
  5
8BD
  8
図枠
  6
CONTINUOUS
 10
825.44745138548569
 20
-596.71187489869988
 30
0.0
 40
6.7468748986999989
  1
3
  0
ENDBLK
  5
8BF
  8
0
  0
BLOCK
  8
0
  2
*U105
 70
     1
 10
0.0
 20
0.0
 30
0.0
  3
*U105
  1

  0
TEXT
  5
8C1
  8
図枠
  6
CONTINUOUS
 10
825.39607924158702
 20
-584.21187489869988
 30
0.0
 40
6.7468748986999989
  1
4
  0
ENDBLK
  5
8C3
  8
0
  0
BLOCK
  8
0
  2
*U106
 70
     1
 10
0.0
 20
0.0
 30
0.0
  3
*U106
  1

  0
TEXT
  5
8C5
  8
図枠
  6
CONTINUOUS
 10
910.07083333330013
 20
-689.81420735968618
 30
0.0
 40
7.496527552599999
  1
 検図
  0
ENDBLK
  5
8C7
  8
0
  0
BLOCK
  8
0
  2
*U107
 70
     1
 10
0.0
 20
0.0
 30
0.0
  3
*U107
  1

  0
TEXT
  5
8C9
  8
図枠
  6
CONTINUOUS
 10
910.07083333330013
 20
-675.98810048097971
 30
0.0
 40
7.496527552599999
  1
 照査
  0
ENDBLK
  5
8CB
  8
0
  0
BLOCK
  8
0
  2
*U108
 70
     1
 10
0.0
 20
0.0
 30
0.0
  3
*U108
  1

  0
TEXT
  5
8CD
  8
図枠
  6
CONTINUOUS
 10
898.36940073216044
 20
-662.33212571898616
 30
0.0
 40
7.496527552599999
  1
略 尺
  0
ENDBLK
  5
8CF
  8
0
  0
BLOCK
  8
0
  2
*U109
 70
     1
 10
0.0
 20
0.0
 30
0.0
  3
*U109
  1

  0
TEXT
  5
8D1
  8
図枠
  6
CONTINUOUS
 10
891.02508693697359
 20
-648.52615392033294
 30
0.0
 40
7.496527552599999
  1
尺　　度
  0
ENDBLK
  5
8D3
  8
0
  0
BLOCK
  8
0
  2
*U110
 70
     1
 10
0.0
 20
0.0
 30
0.0
  3
*U110
  1

  0
TEXT
  5
8D5
  8
図枠
  6
CONTINUOUS
 10
872.43773914938879
 20
-623.87170756879993
 30
0.0
 40
7.1578947901999994
  1
2
  0
ENDBLK
  5
8D7
  8
0
  0
BLOCK
  8
0
  2
*U111
 70
     1
 10
0.0
 20
0.0
 30
0.0
  3
*U111
  1

  0
TEXT
  5
8D9
  8
図枠
  6
CONTINUOUS
 10
951.42495764747673
 20
257.30183475860002
 30
0.0
 40
6.7468748986999989
  1
1
  0
ENDBLK
  5
8DB
  8
0
  0
BLOCK
  8
0
  2
*U112
 70
     1
 10
0.0
 20
0.0
 30
0.0
  3
*U112
  1

  0
TEXT
  5
8DD
  8
図枠
  6
CONTINUOUS
 10
945.37867768594185
 20
270.13513652570498
 30
0.0
 40
6.7468748986999989
  1
副番
  0
ENDBLK
  5
8DF
  8
0
  0
BLOCK
  8
0
  2
*U113
 70
     1
 10
0.0
 20
0.0
 30
0.0
  3
*U113
  1

  0
TEXT
  5
8E1
  8
図枠
  6
CONTINUOUS
 10
877.61354061619443
 20
-635.26595506742626
 30
0.0
 40
7.496527552599999
  1
品　　　名
  0
ENDBLK
  5
8E3
  8
0
  0
BLOCK
  8
0
  2
*U114
 70
     1
 10
0.0
 20
0.0
 30
0.0
  3
*U114
  1

  0
TEXT
  5
8E5
  8
図枠
  6
CONTINUOUS
 10
869.21931025136246
 20
-547.88591910793696
 30
0.0
 40
7.1578947901999994
  1
継手アダプター
  0
ENDBLK
  5
8E7
  8
0
  0
BLOCK
  8
0
  2
*U115
 70
     1
 10
0.0
 20
0.0
 30
0.0
  3
*U115
  1

  0
TEXT
  5
8E9
  8
図枠
  6
CONTINUOUS
 10
957.87758776989688
 20
-689.58588672356655
 30
0.0
 40
7.496527552599999
  1
園 原
  0
ENDBLK
  5
8EB
  8
0
  0
BLOCK
  8
0
  2
*U116
 70
     1
 10
0.0
 20
0.0
 30
0.0
  3
*U116
  1

  0
TEXT
  5
8ED
  8
図枠
  6
CONTINUOUS
 10
957.87758776989688
 20
-675.83588672356655
 30
0.0
 40
7.496527552599999
  1
園 原
  0
ENDBLK
  5
8EF
  8
0
  0
BLOCK
  8
0
  2
*U117
 70
     1
 10
0.0
 20
0.0
 30
0.0
  3
*U117
  1

  0
TEXT
  5
8F1
  8
図枠
  6
CONTINUOUS
 10
951.03110454425325
 20
244.80183475859999
 30
0.0
 40
6.7468748986999989
  1
2
  0
ENDBLK
  5
8F3
  8
0
  0
BLOCK
  8
0
  2
*U118
 70
     1
 10
0.0
 20
0.0
 30
0.0
  3
*U118
  1

  0
TEXT
  5
8F5
  8
ﾚｲﾔ_1
  6
CONTINUOUS
 10
955.5478090303294
 20
3.8855646636999999
 30
0.0
 40
7.4965279578999988
  1
7
  0
ENDBLK
  5
8F7
  8
0
  0
BLOCK
  8
0
  2
*U119
 70
     1
 10
0.0
 20
0.0
 30
0.0
  3
*U119
  1

  0
TEXT
  5
8F9
  8
ﾚｲﾔ_1
  6
CONTINUOUS
 10
955.54499130232932
 20
3.8810589141
 30
0.0
 40
7.4965279578999988
  1
7
  0
ENDBLK
  5
8FB
  8
0
  0
BLOCK
  8
0
  2
*U120
 70
     1
 10
0.0
 20
0.0
 30
0.0
  3
*U120
  1

  0
TEXT
  5
8FD
  8
ﾚｲﾔ_1
  6
CONTINUOUS
 10
527.05851349739987
 20
-536.08983820558626
 30
0.0
 40
8.9958330630999992
  1
注意事項
  0
TEXT
  5
8FE
  8
ﾚｲﾔ_1
  6
CONTINUOUS
 10
527.05851349739987
 20
-566.76091032427746
 30
0.0
 40
8.9958330630999992
  1
＊この水栓柱は、お湯を通水することが
  0
TEXT
  5
8FF
  8
ﾚｲﾔ_1
  6
CONTINUOUS
 10
527.05851349739987
 20
-597.47764657019263
 30
0.0
 40
8.9958330630999992
  1
　可能ですが、安全にご使用していただく
  0
TEXT
  5
900
  8
ﾚｲﾔ_1
  6
CONTINUOUS
 10
527.05851349739987
 20
-627.92039805276454
 30
0.0
 40
8.9958330630999992
  1
　為に通水温度を８０℃以内にして下さい。
  0
TEXT
  5
901
  8
ﾚｲﾔ_1
  6
CONTINUOUS
 10
527.05851349739987
 20
-658.45447778978405
 30
0.0
 40
8.9958330630999992
  1
　又、人体に直接触れる可能性のある場所
  0
TEXT
  5
902
  8
ﾚｲﾔ_1
  6
CONTINUOUS
 10
527.05851349739987
 20
-689.17121403569922
 30
0.0
 40
8.9958330630999992
  1
　では通水温度を６０℃以内にてご使用
  0
TEXT
  5
903
  8
ﾚｲﾔ_1
  6
CONTINUOUS
 10
527.05851349739987
 20
-719.47697313659955
 30
0.0
 40
8.9958330630999992
  1
　下さい。
  0
ENDBLK
  5
905
  8
0
  0
BLOCK
  8
0
  2
*U121
 70
     1
 10
0.0
 20
0.0
 30
0.0
  3
*U121
  1

  0
TEXT
  5
907
  8
図枠
  6
CONTINUOUS
 10
892.99854602170547
 20
-622.08860395395743
 30
0.0
 40
6.7468748986999989
  1
本体
  0
ENDBLK
  5
909
  8
0
  0
BLOCK
  8
0
  2
*U122
 70
     1
 10
0.0
 20
0.0
 30
0.0
  3
*U122
  1

  0
TEXT
  5
90B
  8
図枠
  6
CONTINUOUS
 10
879.89864932752914
 20
-609.93108491328223
 30
0.0
 40
6.7468748986999989
  1
上キャップ
  0
ENDBLK
  5
90D
  8
0
  0
BLOCK
  8
0
  2
*U123
 70
     1
 10
0.0
 20
0.0
 30
0.0
  3
*U123
  1

  0
TEXT
  5
90F
  8
図枠
  6
CONTINUOUS
 10
879.93289742346167
 20
-597.43108491328223
 30
0.0
 40
6.7468748986999989
  1
下キャップ
  0
ENDBLK
  5
911
  8
0
  0
BLOCK
  8
0
  2
*U124
 70
     1
 10
0.0
 20
0.0
 30
0.0
  3
*U124
  1

  0
TEXT
  5
913
  8
図枠
  6
CONTINUOUS
 10
888.35792902285345
 20
-584.58860395395743
 30
0.0
 40
6.7468748986999989
  1
給水口
  0
ENDBLK
  5
915
  8
0
  0
BLOCK
  8
0
  2
*U125
 70
     1
 10
0.0
 20
0.0
 30
0.0
  3
*U125
  1

  0
TEXT
  5
917
  8
図枠
  6
CONTINUOUS
 10
889.65935666828807
 20
-559.52010776209238
 30
0.0
 40
6.7468748986999989
  1
断熱材
  0
ENDBLK
  5
919
  8
0
  0
BLOCK
  8
0
  2
*U126
 70
     1
 10
0.0
 20
0.0
 30
0.0
  3
*U126
  1

  0
TEXT
  5
91B
  8
図枠
  6
CONTINUOUS
 10
879.79590503973179
 20
-572.43108491328223
 30
0.0
 40
6.7468748986999989
  1
給水パイプ
  0
ENDBLK
  5
91D
  8
0
  0
BLOCK
  8
0
  2
*U127
 70
     1
 10
0.0
 20
0.0
 30
0.0
  3
*U127
  1

  0
TEXT
  5
91F
  8
ﾚｲﾔ_1
  6
CONTINUOUS
 10
820.88019103289992
 20
-524.59351271518119
 30
0.0
 40
7.4965279578999988
  1
変更内容：給水口を砲金エルからSUSエルボに変更。
  0
TEXT
  5
920
  8
ﾚｲﾔ_1
  6
CONTINUOUS
 10
820.88019103289992
 20
-537.88684824797178
 30
0.0
 40
7.4965279578999988
  1
          変更に伴い継手アダプタ ーを追加。
  0
ENDBLK
  5
922
  8
0
  0
BLOCK
  8
0
  2
*U128
 70
     1
 10
0.0
 20
0.0
 30
0.0
  3
*U128
  1

  0
TEXT
  5
924
  8
ﾚｲﾔ_1
  6
CONTINUOUS
 10
955.73807623738276
 20
-241.15800867940001
 30
0.0
 40
7.4965279578999988
  1
5
  0
ENDBLK
  5
926
  8
0
  0
BLOCK
  8
0
  2
*U129
 70
     1
 10
0.0
 20
0.0
 30
0.0
  3
*U129
  1

  0
TEXT
  5
928
  8
図枠
  6
CONTINUOUS
 10
1011.729368416915
 20
244.96389604604261
 30
0.0
 40
6.7468748986999989
  1
本体板厚変更 1.0ｔ⇒0.8ｔ
  0
ENDBLK
  5
92A
  8
0
  0
BLOCK
  8
0
  2
*U130
 70
     1
 10
0.0
 20
0.0
 30
0.0
  3
*U130
  1

  0
TEXT
  5
92C
  8
図枠
  6
CONTINUOUS
 10
1036.148260816778
 20
269.9981441419751
 30
0.0
 40
6.7468748986999989
  1
改　訂　内　容
  0
ENDBLK
  5
92E
  8
0
  0
BLOCK
  8
0
  2
*U131
 70
     1
 10
0.0
 20
0.0
 30
0.0
  3
*U131
  1

  0
TEXT
  5
930
  8
図枠
  6
CONTINUOUS
 10
1036.0283924810151
 20
257.36115175824523
 30
0.0
 40
6.7468748986999989
  1
部品変更・追加
  0
ENDBLK
  5
932
  8
0
  0
BLOCK
  8
0
  2
*U132
 70
     1
 10
0.0
 20
0.0
 30
0.0
  3
*U132
  1

  0
TEXT
  5
934
  8
図枠
  6
CONTINUOUS
 10
1089.0597936314271
 20
-656.08188824864965
 30
0.0
 40
8.9958328605000002
  1
水栓柱
  0
ENDBLK
  5
936
  8
0
  0
BLOCK
  8
0
  2
*U133
 70
     1
 10
0.0
 20
0.0
 30
0.0
  3
*U133
  1

  0
TEXT
  5
938
  8
図枠
  6
CONTINUOUS
 10
1060.862195705748
 20
-710.57958286049995
 30
0.0
 40
8.9958328605000002
  1
ＳＢＰ０００３０
  0
ENDBLK
  5
93A
  8
0
  0
BLOCK
  8
0
  2
*U134
 70
     1
 10
0.0
 20
0.0
 30
0.0
  3
*U134
  1

  0
TEXT
  5
93C
  8
図枠
  6
CONTINUOUS
 10
1043.4869956883861
 20
-683.26223936528174
 30
0.0
 40
8.9958328605000002
  1
ＷＰ７-１２０Ｓ 承認図
  0
ENDBLK
  5
93E
  8
0
  0
ENDSEC
  0
SECTION
  2
ENTITIES
  0
LINE
  5
2F
  8
ﾚｲﾔ_1
 62
     5
 10
1107.6414531898999
 20
166.10872200910001
 30
0.0
 11
1107.6414531898999
 21
167.4221065694
 31
0.0
  0
LINE
  5
30
  8
ﾚｲﾔ_1
 62
     5
 10
1106.0414531899
 20
166.10872200910001
 30
0.0
 11
1106.0414531899
 21
167.77681802960001
 31
0.0
  0
LINE
  5
31
  8
ﾚｲﾔ_1
 62
     5
 10
1111.7614531899001
 20
132.60872200910001
 30
0.0
 11
1109.2614531899001
 21
132.60872200910001
 31
0.0
  0
LINE
  5
32
  8
ﾚｲﾔ_1
 62
     5
 10
1109.2614531899001
 20
114.10872200910001
 30
0.0
 11
1109.2614531899001
 21
156.46754291569999
 31
0.0
  0
LINE
  5
33
  8
ﾚｲﾔ_1
 62
     5
 10
1103.7614531899001
 20
125.10872200910001
 30
0.0
 11
1103.7614531899001
 21
153.6319020059
 31
0.0
  0
LINE
  5
34
  8
ﾚｲﾔ_1
 62
     5
 10
1111.7614531899001
 20
103.60872200910001
 30
0.0
 11
1106.594068119
 21
103.60872200910001
 31
0.0
  0
LINE
  5
35
  8
ﾚｲﾔ_1
 62
     5
 10
1111.7614531899001
 20
103.60872200910001
 30
0.0
 11
1111.7614531899001
 21
132.60872200910001
 31
0.0
  0
LINE
  5
36
  8
ﾚｲﾔ_1
 62
     5
 10
1103.7614531899001
 20
153.6319020059
 30
0.0
 11
1105.9614531899001
 21
166.10872200910001
 31
0.0
  0
INSERT
  5
38
  8
0
  6
CONTINUOUS
  2
*U40
 10
0.0
 20
0.0
 30
0.0
  0
LINE
  5
39
  8
図枠
 62
     5
 10
1153.8208333333
 20
241.875
 30
0.0
 11
1153.8208333333
 21
279.375
 31
0.0
  0
LINE
  5
3A
  8
図枠
 62
     5
 10
1128.8208333333
 20
241.875
 30
0.0
 11
1128.8208333333
 21
279.375
 31
0.0
  0
LINE
  5
3B
  8
ﾚｲﾔ_1
 10
1128.6639913846
 20
224.58972982099999
 30
0.0
 11
1128.6639913846
 21
73.242829150800006
 31
0.0
  0
LINE
  5
3C
  8
ﾚｲﾔ_1
 62
     5
 10
1108.0614531899
 20
203.95516397040001
 30
0.0
 11
1107.7614531899001
 21
203.95516397040001
 31
0.0
  0
LINE
  5
3D
  8
ﾚｲﾔ_1
 62
     5
 10
1110.0314531899
 20
207.69330509580001
 30
0.0
 11
1107.7614531899001
 21
207.69330509580001
 31
0.0
  0
LINE
  5
3E
  8
ﾚｲﾔ_1
 62
     5
 10
1108.2614531899001
 20
212.48919911510001
 30
0.0
 11
1107.7614531899001
 21
212.48919911510001
 31
0.0
  0
LINE
  5
3F
  8
ﾚｲﾔ_1
 62
     5
 10
1108.2614531899001
 20
214.10872200910001
 30
0.0
 11
1107.7614531899001
 21
214.10872200910001
 31
0.0
  0
ARC
  5
40
  8
ﾚｲﾔ_1
 62
     5
 10
1110.6614531898999
 20
202.9046957832
 30
0.0
 40
1.0
 50
136.0
 51
180.0
  0
LINE
  5
41
  8
ﾚｲﾔ_1
 62
     5
 10
1109.9421133895
 20
203.59935415370001
 30
0.0
 11
1112.6265483114
 21
206.3791678906
 31
0.0
  0
ARC
  5
42
  8
ﾚｲﾔ_1
 62
     5
 10
1109.4614531899001
 20
209.43566472059999
 30
0.0
 40
4.4000000000000004
 50
316.0
 51
81.094600151600005
  0
ARC
  5
43
  8
ﾚｲﾔ_1
 62
     5
 10
1109.4614531899001
 20
209.43566472059999
 30
0.0
 40
2.7999999999999989
 50
316.0
 51
81.094600151600005
  0
ARC
  5
44
  8
ﾚｲﾔ_1
 62
     5
 10
1110.6614531898999
 20
202.9046957832
 30
0.0
 40
2.6000000000000001
 50
136.0
 51
180.0
  0
CIRCLE
  5
45
  8
ﾚｲﾔ_1
 62
     5
 10
1110.0314531899
 20
209.9233050958
 30
0.0
 40
2.2299999999999991
  0
LINE
  5
46
  8
ﾚｲﾔ_1
 62
     5
 10
1108.2614531899001
 20
212.4578606394
 30
0.0
 11
1109.8949029787
 21
212.2019115066
 31
0.0
  0
LINE
  5
47
  8
ﾚｲﾔ_1
 62
     5
 10
1108.2614531899001
 20
214.07738353330001
 30
0.0
 11
1110.1425885724
 21
213.7826239556
 31
0.0
  0
LINE
  5
48
  8
ﾚｲﾔ_1
 62
     5
 10
1108.7911697090001
 20
204.71080754639999
 30
0.0
 11
1111.4756046308
 21
207.4906212834
 31
0.0
  0
LINE
  5
49
  8
ﾚｲﾔ_1
 62
     5
 10
1109.6614531898999
 20
171.75401054880001
 30
0.0
 11
1109.6614531898999
 21
202.9046957832
 31
0.0
  0
LINE
  5
4A
  8
ﾚｲﾔ_1
 62
     5
 10
1108.0614531899
 20
172.10872200910001
 30
0.0
 11
1108.0614531899
 21
202.9046957832
 31
0.0
  0
LINE
  5
4B
  8
ﾚｲﾔ_1
 62
     5
 10
1108.2614531899001
 20
212.48919911510001
 30
0.0
 11
1108.2614531899001
 21
214.10872200910001
 31
0.0
  0
LINE
  5
4C
  8
ﾚｲﾔ_1
 62
     5
 10
1105.7614531899001
 20
172.10872200910001
 30
0.0
 11
1105.7614531899001
 21
224.58972982099999
 31
0.0
  0
LINE
  5
4D
  8
ﾚｲﾔ_1
 62
     5
 10
1107.7614531899001
 20
172.10872200910001
 30
0.0
 11
1107.7614531899001
 21
224.58972982099999
 31
0.0
  0
LINE
  5
4E
  8
ﾚｲﾔ_1
 62
     5
 10
1106.0414531899
 20
167.77681802960001
 30
0.0
 11
1108.0614531899
 21
172.10872200910001
 31
0.0
  0
LINE
  5
4F
  8
ﾚｲﾔ_1
 62
     5
 10
1107.6414531898999
 20
167.4221065694
 30
0.0
 11
1109.6614531898999
 21
171.75401054880001
 31
0.0
  0
LINE
  5
50
  8
ﾚｲﾔ_1
 62
     5
 10
1109.2614531899001
 20
156.46754291569999
 30
0.0
 11
1107.5614531899
 21
166.10872200910001
 31
0.0
  0
LINE
  5
51
  8
図枠
 62
     5
 10
1003.8208333333
 20
241.875
 30
0.0
 11
1003.8208333333
 21
279.375
 31
0.0
  0
LINE
  5
52
  8
ﾚｲﾔ_1
  6
BORDER
 62
     3
 10
949.17635139960009
 20
169.0191438814
 30
0.0
 11
949.17635139960009
 21
73.242829150800006
 31
0.0
  0
LINE
  5
53
  8
ﾚｲﾔ_1
 62
     5
 10
1040.8304531899
 20
136.73972200910001
 30
0.0
 11
1075.6650943623999
 21
136.73972200910001
 31
0.0
  0
LINE
  5
54
  8
ﾚｲﾔ_1
 62
     5
 10
1067.7614531899001
 20
97.153722009099994
 30
0.0
 11
1071.7867392666999
 21
99.477722009100006
 31
0.0
  0
LINE
  5
55
  8
ﾚｲﾔ_1
 62
     5
 10
1067.7614531899001
 20
139.06372200909999
 30
0.0
 11
1067.7614531899001
 21
118.10872200910001
 31
0.0
  0
LINE
  5
56
  8
ﾚｲﾔ_1
 62
     5
 10
1067.7614531899001
 20
139.06372200909999
 30
0.0
 11
1071.7867392666999
 21
136.73972200910001
 31
0.0
  0
LINE
  5
57
  8
ﾚｲﾔ_1
 62
     5
 10
1040.0836795242999
 20
148.13093600689999
 30
0.0
 11
1069.4392268555
 21
148.13093600689999
 31
0.0
  0
LINE
  5
58
  8
ﾚｲﾔ_1
 62
     5
 10
1038.5064531899
 20
139.06372200909999
 30
0.0
 11
1067.7614531899001
 21
139.06372200909999
 31
0.0
  0
LINE
  5
59
  8
ﾚｲﾔ_1
 62
     5
 10
1067.7614531899001
 20
97.153722009099994
 30
0.0
 11
1067.7614531899001
 21
118.10872200910001
 31
0.0
  0
LINE
  5
5A
  8
ﾚｲﾔ_1
 62
     5
 10
1040.8304531899
 20
99.477722009100006
 30
0.0
 11
1075.6650943623999
 21
99.477722009100006
 31
0.0
  0
LINE
  5
5B
  8
ﾚｲﾔ_1
 62
     5
 10
1038.5064531899
 20
97.153722009099994
 30
0.0
 11
1067.7614531899001
 21
97.153722009099994
 31
0.0
  0
LINE
  5
5C
  8
ﾚｲﾔ_1
 62
     5
 10
1040.0836795242999
 20
88.086508011199996
 30
0.0
 11
1069.4392268555
 21
88.086508011199996
 31
0.0
  0
LINE
  5
5D
  8
ﾚｲﾔ_1
  6
BORDER
 62
     3
 10
1027.7614531899001
 20
118.10872200910001
 30
0.0
 11
1081.7614531899001
 21
118.10872200910001
 31
0.0
  0
LINE
  5
5E
  8
ﾚｲﾔ_1
 62
     5
 10
1031.7614531899001
 20
147.100688378
 30
0.0
 11
1031.7614531899001
 21
148.10872200910001
 31
0.0
  0
LINE
  5
5F
  8
ﾚｲﾔ_1
 62
     5
 10
1031.7614531899001
 20
142.1087220098
 30
0.0
 11
1031.7614531899001
 21
145.10872200899999
 31
0.0
  0
LINE
  5
60
  8
ﾚｲﾔ_1
 62
     5
 10
1031.7614531899001
 20
88.108722009099992
 30
0.0
 11
1031.7614531899001
 21
94.108722008300006
 31
0.0
  0
LINE
  5
61
  8
ﾚｲﾔ_1
 62
     5
 10
1031.7614531899001
 20
96.108722009100006
 30
0.0
 11
1031.7614531899001
 21
140.10872200910001
 31
0.0
  0
LINE
  5
62
  8
ﾚｲﾔ_1
  6
BORDER
 62
     3
 10
1091.7614531899001
 20
224.58972982099999
 30
0.0
 11
1091.7614531899001
 21
128.10872200910001
 31
0.0
  0
LINE
  5
63
  8
図枠
 10
1101.3208333333
 20
-638.125
 30
0.0
 11
1101.3208333333
 21
-625.625
 31
0.0
  0
INSERT
  5
64
  8
0
  6
CONTINUOUS
  2
*U41
 10
0.0
 20
0.0
 30
0.0
  0
INSERT
  5
65
  8
0
  6
CONTINUOUS
  2
*U42
 10
0.0
 20
0.0
 30
0.0
  0
INSERT
  5
66
  8
0
  6
CONTINUOUS
  2
*U43
 10
0.0
 20
0.0
 30
0.0
  0
INSERT
  5
67
  8
0
  6
CONTINUOUS
  2
*U44
 10
0.0
 20
0.0
 30
0.0
  0
INSERT
  5
68
  8
0
  6
CONTINUOUS
  2
*U45
 10
0.0
 20
0.0
 30
0.0
  0
INSERT
  5
69
  8
0
  6
CONTINUOUS
  2
*U46
 10
0.0
 20
0.0
 30
0.0
  0
LINE
  5
6A
  8
ﾚｲﾔ_1
 62
     5
 10
1033.7614531899001
 20
85.108722008799987
 30
0.0
 11
1042.3614531899
 21
85.108722008799987
 31
0.0
  0
LINE
  5
6B
  8
ﾚｲﾔ_1
 62
     5
 10
1033.7614531899001
 20
86.108722009100006
 30
0.0
 11
1033.7614531899001
 21
88.108722009099992
 31
0.0
  0
LINE
  5
6C
  8
ﾚｲﾔ_1
 62
     5
 10
1033.7614531899001
 20
89.116755640099996
 30
0.0
 11
1033.7614531899001
 21
85.108722008799987
 31
0.0
  0
LINE
  5
6D
  8
ﾚｲﾔ_1
 62
     5
 10
1031.3614531899
 20
89.116755640099996
 30
-6.5999999999999988
 11
1033.7614531899001
 21
89.116755640099996
 31
-6.5999999999999988
  0
LINE
  5
6E
  8
ﾚｲﾔ_1
 62
     5
 10
1031.7614531899001
 20
88.608722009100006
 30
0.0
 11
1033.7614531899001
 21
88.608722009100006
 31
0.0
  0
LINE
  5
6F
  8
ﾚｲﾔ_1
 62
     5
 10
1033.3614531899
 20
91.108722009100006
 30
0.0
 11
1031.3614531899
 21
91.108722009100006
 31
0.0
  0
LINE
  5
70
  8
ﾚｲﾔ_1
 62
     5
 10
1037.7614531899001
 20
96.108722009100006
 30
0.0
 11
1031.3614531899
 21
96.108722009100006
 31
0.0
  0
LINE
  5
71
  8
ﾚｲﾔ_1
 62
     5
 10
1031.3614531899
 20
94.108722008300006
 30
-6.5999999999999988
 11
1033.3614531899
 21
94.108722008300006
 31
-6.5999999999999988
  0
LINE
  5
72
  8
ﾚｲﾔ_1
 62
     5
 10
1033.3614531899
 20
94.108722008300006
 30
0.0
 11
1033.3614531899
 21
91.108722009100006
 31
0.0
  0
INSERT
  5
74
  8
ﾚｲﾔ_1
 62
     5
  2
*X0
 10
0.0
 20
0.0
 30
0.0
  0
LINE
  5
77
  8
ﾚｲﾔ_1
 62
     5
 10
1037.7614531899001
 20
140.10872200910001
 30
0.0
 11
1031.3614531899
 21
140.10872200910001
 31
0.0
  0
LINE
  5
78
  8
ﾚｲﾔ_1
 62
     5
 10
1031.3614531899
 20
142.1087220098
 30
-6.5999999999999988
 11
1033.3614531899
 21
142.1087220098
 31
-6.5999999999999988
  0
LINE
  5
79
  8
ﾚｲﾔ_1
 62
     5
 10
1033.3614531899
 20
145.10872200910001
 30
0.0
 11
1031.3614531899
 21
145.10872200899999
 31
0.0
  0
LINE
  5
7A
  8
ﾚｲﾔ_1
 62
     5
 10
1037.7614531899001
 20
92.108722009099992
 30
0.0
 11
1037.7614531899001
 21
118.10872200910001
 31
0.0
  0
LINE
  5
7B
  8
ﾚｲﾔ_1
 62
     5
 10
1037.7614531899001
 20
139.80872200909999
 30
0.0
 11
1040.8304531899
 21
136.73972200910001
 31
0.0
  0
LINE
  5
7C
  8
ﾚｲﾔ_1
 62
     5
 10
1031.3614531899
 20
147.100688378
 30
-6.5999999999999988
 11
1033.7614531899001
 21
147.100688378
 31
-6.5999999999999988
  0
LINE
  5
7D
  8
ﾚｲﾔ_1
 62
     5
 10
1033.3614531899
 20
142.1087220098
 30
0.0
 11
1033.3614531899
 21
145.10872200910001
 31
0.0
  0
LINE
  5
7E
  8
ﾚｲﾔ_1
 62
     5
 10
1033.7614531899001
 20
148.10872200910001
 30
0.0
 11
1033.7614531899001
 21
150.10872200910001
 31
0.0
  0
LINE
  5
7F
  8
ﾚｲﾔ_1
 62
     5
 10
1033.7614531899001
 20
151.10872200930001
 30
0.0
 11
1042.3614531899
 21
151.10872200930001
 31
0.0
  0
LINE
  5
80
  8
ﾚｲﾔ_1
 62
     5
 10
1031.7614531899001
 20
147.60872200910001
 30
0.0
 11
1033.7614531899001
 21
147.60872200910001
 31
0.0
  0
LINE
  5
81
  8
ﾚｲﾔ_1
 62
     5
 10
1033.7614531899001
 20
88.108722009099992
 30
0.0
 11
1033.7614531899001
 21
73.242829150800006
 31
0.0
  0
LINE
  5
82
  8
ﾚｲﾔ_1
 62
     5
 10
1031.7614531899001
 20
88.108722009099992
 30
0.0
 11
1031.7614531899001
 21
73.242829150800006
 31
0.0
  0
INSERT
  5
83
  8
0
  6
CONTINUOUS
  2
*U47
 10
0.0
 20
0.0
 30
0.0
  0
LINE
  5
84
  8
ﾚｲﾔ_1
 10
973.10480192049988
 20
227.8873408341
 30
0.0
 11
1031.2118331705001
 21
227.8873408341
 31
0.0
  0
LINE
  5
85
  8
ﾚｲﾔ_1
 10
973.10480192049988
 20
226.383651598
 30
0.0
 11
1031.2118331705001
 21
226.383651598
 31
0.0
  0
LINE
  5
86
  8
ﾚｲﾔ_1
 62
     5
 10
1031.3614531899
 20
140.10872200910001
 30
0.0
 11
1031.3614531899
 21
142.1087220098
 31
0.0
  0
LINE
  5
87
  8
ﾚｲﾔ_1
 62
     5
 10
1031.3614531899
 20
145.10872200899999
 30
0.0
 11
1031.3614531899
 21
147.1087220057
 31
0.0
  0
LINE
  5
88
  8
ﾚｲﾔ_1
 62
     5
 10
1031.7614531899001
 20
142.1087220098
 30
0.0
 11
1031.7614531899001
 21
145.10872200899999
 31
0.0
  0
LINE
  5
8A
  8
0
 62
     5
 10
967.07635139959996
 20
125.3738543776
 30
0.0
 11
967.07635139959996
 21
94.223169143199996
 31
0.0
  0
LINE
  5
8B
  8
0
 62
     5
 10
965.47635139960005
 20
125.0191429174
 30
0.0
 11
965.47635139960005
 21
94.223169143199996
 31
0.0
  0
LINE
  5
8C
  8
0
 62
     5
 10
965.67635139960009
 20
84.638665811300001
 30
0.0
 11
965.67635139960009
 21
83.019142917400004
 31
0.0
  0
ARC
  5
8D
  8
0
 62
     5
 10
966.87635139959991
 20
87.692200205800006
 30
0.0
 40
4.4000000000000004
 50
278.90539984840001
 51
44.0
  0
ARC
  5
8E
  8
0
 62
     5
 10
966.87635139959991
 20
87.692200205800006
 30
0.0
 40
2.7999999999999989
 50
278.90539984840001
 51
44.0
  0
LINE
  5
8F
  8
0
 62
     5
 10
966.67635139959998
 20
140.6603220108
 30
0.0
 11
964.97635139960005
 21
131.01914291739999
 31
0.0
  0
LINE
  5
90
  8
ﾚｲﾔ_1
 62
     5
 10
1033.7614531899001
 20
147.100688378
 30
0.0
 11
1033.7614531899001
 21
151.10872200930001
 31
0.0
  0
LINE
  5
91
  8
ﾚｲﾔ_1
 62
     5
 10
965.17635139959998
 20
125.0191429174
 30
0.0
 11
965.17635139959998
 21
73.242829150800006
 31
0.0
  0
LINE
  5
92
  8
0
 62
     5
 10
965.05635139960009
 20
129.7057583571
 30
0.0
 11
967.07635139959996
 21
125.3738543776
 31
0.0
  0
LINE
  5
93
  8
0
 62
     5
 10
961.17635139960009
 20
172.01914291739999
 30
0.0
 11
961.17635139960009
 21
143.49596292059999
 31
0.0
  0
LINE
  5
94
  8
ﾚｲﾔ_1
 62
     5
 10
963.17635139959998
 20
125.0191429174
 30
0.0
 11
963.17635139959998
 21
73.242829150800006
 31
0.0
  0
LINE
  5
95
  8
ﾚｲﾔ_1
 62
     5
 10
1042.3614531899
 20
151.10872200930001
 30
0.0
 11
1042.3614531899
 21
148.13093600689999
 31
0.0
  0
LINE
  5
96
  8
ﾚｲﾔ_1
 62
     5
 10
1042.3614531899
 20
148.13093600689999
 30
0.0
 11
1037.7614531899001
 21
148.13093600689999
 31
0.0
  0
LINE
  5
97
  8
ﾚｲﾔ_1
 62
     5
 10
1037.7614531899001
 20
144.10872200910001
 30
0.0
 11
1040.0836795242999
 21
148.13093600689999
 31
0.0
  0
LINE
  5
98
  8
ﾚｲﾔ_1
 62
     5
 10
1037.7614531899001
 20
144.10872200910001
 30
0.0
 11
1037.7614531899001
 21
118.10872200910001
 31
0.0
  0
LINE
  5
99
  8
ﾚｲﾔ_1
 62
     5
 10
1037.7614531899001
 20
148.13093600689999
 30
0.0
 11
1037.7614531899001
 21
140.10872200910001
 31
0.0
  0
LINE
  5
9A
  8
ﾚｲﾔ_1
 62
     5
 10
1042.3614531899
 20
85.108722008799987
 30
0.0
 11
1042.3614531899
 21
88.086508011199996
 31
0.0
  0
LINE
  5
9B
  8
ﾚｲﾔ_1
 62
     5
 10
1037.7614531899001
 20
88.086508011199996
 30
0.0
 11
1037.7614531899001
 21
96.108722009100006
 31
0.0
  0
LINE
  5
9C
  8
ﾚｲﾔ_1
 62
     5
 10
1037.7614531899001
 20
92.108722009099992
 30
0.0
 11
1040.0836795242999
 21
88.086508011199996
 31
0.0
  0
LINE
  5
9D
  8
ﾚｲﾔ_1
 62
     5
 10
1042.3614531899
 20
88.086508011199996
 30
0.0
 11
1037.7614531899001
 21
88.086508011199996
 31
0.0
  0
LINE
  5
9E
  8
ﾚｲﾔ_1
 62
     5
 10
1040.8304531899
 20
99.477722009100006
 30
0.0
 11
1040.8304531899
 21
136.73972200910001
 31
0.0
  0
INSERT
  5
A0
  8
ﾚｲﾔ_1
 62
     5
  2
*X1
 10
0.0
 20
0.0
 30
0.0
  0
LINE
  5
A3
  8
ﾚｲﾔ_1
 62
     5
 10
1033.7614531899001
 20
224.58972982099999
 30
0.0
 11
1033.7614531899001
 21
148.10872200910001
 31
0.0
  0
LINE
  5
A4
  8
ﾚｲﾔ_1
 62
     5
 10
1031.7614531899001
 20
88.608722009100006
 30
0.0
 11
1031.7614531899001
 21
89.116755640099996
 31
0.0
  0
LINE
  5
A5
  8
ﾚｲﾔ_1
 62
     5
 10
1031.3614531899
 20
91.108722009100006
 30
0.0
 11
1031.3614531899
 21
89.108722012399994
 31
0.0
  0
LINE
  5
A6
  8
0
 62
     5
 10
965.67635139960009
 20
83.019142917400004
 30
0.0
 11
965.17635139959998
 21
83.019142917400004
 31
0.0
  0
LINE
  5
A7
  8
0
 62
     5
 10
965.67635139960009
 20
84.638665811300001
 30
0.0
 11
965.17635139959998
 21
84.638665811300001
 31
0.0
  0
LINE
  5
A8
  8
0
 62
     5
 10
967.44635139959996
 20
89.434559830699996
 30
0.0
 11
965.17635139959998
 21
89.434559830699996
 31
0.0
  0
LINE
  5
A9
  8
0
 62
     5
 10
965.47635139960005
 20
93.172700956100002
 30
0.0
 11
965.17635139959998
 21
93.172700956100002
 31
0.0
  0
LINE
  5
AA
  8
ﾚｲﾔ_1
 62
     5
 10
1031.7614531899001
 20
147.100688378
 30
0.0
 11
1031.7614531899001
 21
147.60872200910001
 31
0.0
  0
LINE
  5
AB
  8
ﾚｲﾔ_1
 62
     5
 10
1031.7614531899001
 20
96.108722009100006
 30
0.0
 11
1031.7614531899001
 21
140.10872200910001
 31
0.0
  0
LINE
  5
AC
  8
ﾚｲﾔ_1
 62
     5
 10
1031.7614531899001
 20
80.108722009099978
 30
0.0
 11
1031.7614531899001
 21
88.608722009100006
 31
0.0
  0
LINE
  5
AD
  8
0
 62
     5
 10
969.17635139960009
 20
164.51914291739999
 30
0.0
 11
966.67635139959998
 21
164.51914291739999
 31
0.0
  0
ARC
  5
AE
  8
0
 62
     5
 10
968.07635139959996
 20
94.223169143199996
 30
0.0
 40
1.0
 50
180.0
 51
224.0
  0
ARC
  5
AF
  8
0
 62
     5
 10
968.07635139959996
 20
94.223169143199996
 30
0.0
 40
2.6000000000000001
 50
180.0
 51
224.0
  0
LINE
  5
B0
  8
0
 62
     5
 10
966.2060679187
 20
92.417057380000003
 30
0.0
 11
968.89050284059988
 21
89.637243643099993
 31
0.0
  0
LINE
  5
B1
  8
0
 62
     5
 10
967.35701159929988
 20
93.528510772800004
 30
0.0
 11
970.04144652110006
 21
90.748697035799992
 31
0.0
  0
LINE
  5
B2
  8
0
 62
     5
 10
963.45635139960007
 20
129.3510468968
 30
0.0
 11
965.47635139960005
 21
125.0191429174
 31
0.0
  0
LINE
  5
B3
  8
0
 62
     5
 10
961.17635139960009
 20
143.49596292059999
 30
0.0
 11
963.37635139959991
 21
131.01914291739999
 31
0.0
  0
CIRCLE
  5
B4
  8
0
 62
     5
 10
967.44635139959996
 20
87.204559830699992
 30
0.0
 40
2.2299999999999991
  0
LINE
  5
B5
  8
0
 62
     5
 10
965.67635139960009
 20
84.670004287099985
 30
0.0
 11
967.30980118850005
 21
84.925953419899997
 31
0.0
  0
LINE
  5
B6
  8
0
 62
     5
 10
965.67635139960009
 20
83.050481393100014
 30
0.0
 11
967.55748678210011
 21
83.345240970800006
 31
0.0
  0
LINE
  5
B7
  8
0
 62
     5
 10
963.45635139960007
 20
131.01914291739999
 30
0.0
 11
963.45635139960007
 21
129.3510468968
 31
0.0
  0
LINE
  5
B8
  8
0
 62
     5
 10
965.05635139960009
 20
131.01914291739999
 30
0.0
 11
965.05635139960009
 21
129.7057583571
 31
0.0
  0
LINE
  5
B9
  8
ﾚｲﾔ_1
 62
     5
 10
1037.7614531899001
 20
96.408722009100003
 30
0.0
 11
1040.8304531899
 21
99.477722009100006
 31
0.0
  0
LINE
  5
BA
  8
ﾚｲﾔ_1
 62
     5
 10
1031.3614531899
 20
96.108722009100006
 30
0.0
 11
1031.3614531899
 21
94.108722008300006
 31
0.0
  0
LINE
  5
BB
  8
ﾚｲﾔ_1
 62
     5
 10
1031.7614531899001
 20
91.108722009100006
 30
0.0
 11
1031.7614531899001
 21
94.108722008300006
 31
0.0
  0
LINE
  5
BC
  8
ﾚｲﾔ_1
 62
     5
 10
1081.7614531899001
 20
103.10872200910001
 30
0.0
 11
1077.7614531899001
 21
103.10872200910001
 31
0.0
  0
LINE
  5
BD
  8
ﾚｲﾔ_1
 62
     5
 10
1071.2758125437999
 20
144.94987628219999
 30
0.0
 11
1069.4392268555
 21
148.13093600689999
 31
0.0
  0
LINE
  5
BE
  8
ﾚｲﾔ_1
 62
     5
 10
1077.7614531899001
 20
133.10872200910001
 30
0.0
 11
1075.6650943623999
 21
136.73972200910001
 31
0.0
  0
LINE
  5
BF
  8
ﾚｲﾔ_1
 62
     5
 10
1075.6650943623999
 20
99.477722009100006
 30
0.0
 11
1077.7614531899001
 21
103.10872200910001
 31
0.0
  0
LINE
  5
C0
  8
ﾚｲﾔ_1
 62
     5
 10
1075.6650943623999
 20
99.477722009100006
 30
0.0
 11
1075.6650943623999
 21
136.73972200910001
 31
0.0
  0
LINE
  5
C1
  8
ﾚｲﾔ_1
 62
     5
 10
1079.7614531899001
 20
133.10872200910001
 30
0.0
 11
1079.7614531899001
 21
153.6319020059
 31
0.0
  0
LINE
  5
C2
  8
ﾚｲﾔ_1
 62
     5
 10
1077.4814531899001
 20
167.77681802960001
 30
0.0
 11
1075.4614531899001
 21
172.10872200910001
 31
0.0
  0
LINE
  5
C3
  8
ﾚｲﾔ_1
 62
     5
 10
1074.2614531899001
 20
145.74987628220001
 30
0.0
 11
1074.2614531899001
 21
156.46754291569999
 31
0.0
  0
LINE
  5
C4
  8
ﾚｲﾔ_1
 62
     5
 10
1075.8814531899
 20
167.4221065694
 30
0.0
 11
1073.8614531899
 21
171.75401054880001
 31
0.0
  0
ARC
  5
C5
  8
ﾚｲﾔ_1
 62
     5
 10
1072.6614531898999
 20
145.74987628220001
 30
0.0
 40
1.6000000000000001
 50
210.0
 51
0.0
  0
LINE
  5
C6
  8
ﾚｲﾔ_1
 62
     5
 10
1075.8814531899
 20
166.10872200910001
 30
0.0
 11
1075.8814531899
 21
167.4221065694
 31
0.0
  0
LINE
  5
C7
  8
ﾚｲﾔ_1
 62
     5
 10
1079.7614531899001
 20
153.6319020059
 30
0.0
 11
1077.5614531899
 21
166.10872200910001
 31
0.0
  0
LINE
  5
C8
  8
ﾚｲﾔ_1
 62
     5
 10
1074.2614531899001
 20
156.46754291569999
 30
0.0
 11
1075.9614531899001
 21
166.10872200910001
 31
0.0
  0
LINE
  5
C9
  8
ﾚｲﾔ_1
 62
     5
 10
1077.4814531899001
 20
166.10872200910001
 30
0.0
 11
1077.4814531899001
 21
167.77681802960001
 31
0.0
  0
INSERT
  5
CA
  8
0
  6
CONTINUOUS
  2
*U48
 10
0.0
 20
0.0
 30
0.0
  0
INSERT
  5
CB
  8
0
  6
CONTINUOUS
  2
*U49
 10
0.0
 20
0.0
 30
0.0
  0
LINE
  5
CC
  8
図枠
 62
     5
 10
953.11011986819994
 20
253.79404374929999
 30
0.0
 11
959.29761986819994
 21
243.07697937750001
 31
0.0
  0
LINE
  5
CD
  8
図枠
 62
     5
 10
953.11011986819994
 20
266.16904374929999
 30
0.0
 11
959.29761986819994
 21
255.45197937750001
 31
0.0
  0
LINE
  5
CE
  8
図枠
 62
     5
 10
963.82083333330002
 20
241.875
 30
0.0
 11
963.82083333330002
 21
279.375
 31
0.0
  0
LINE
  5
CF
  8
ﾚｲﾔ_1
 10
1005.0941901408
 20
73.242829150800006
 30
0.0
 11
1005.0941901408
 21
224.58972982099999
 31
0.0
  0
LINE
  5
D0
  8
ﾚｲﾔ_1
 10
986.07888959440015
 20
224.58972982099999
 30
0.0
 11
986.07888959440015
 21
73.242829150800006
 31
0.0
  0
LINE
  5
D1
  8
ﾚｲﾔ_1
 62
     5
 10
1031.7614531899001
 20
224.58972982099999
 30
0.0
 11
1031.7614531899001
 21
148.10872200910001
 31
0.0
  0
LINE
  5
D2
  8
0
 62
     5
 10
966.67635139959998
 20
183.01914291739999
 30
0.0
 11
966.67635139959998
 21
140.6603220108
 31
0.0
  0
LINE
  5
D3
  8
0
 62
     5
 10
969.17635139960009
 20
193.51914291739999
 30
0.0
 11
964.00896632880006
 21
193.51914291739999
 31
0.0
  0
LINE
  5
D4
  8
0
 62
     5
 10
969.17635139960009
 20
193.51914291739999
 30
0.0
 11
969.17635139960009
 21
164.51914291739999
 31
0.0
  0
LINE
  5
D5
  8
ﾚｲﾔ_1
 62
     5
 10
1087.2614531899001
 20
92.108722009099992
 30
0.0
 11
1071.7614531899001
 21
92.108722009099992
 31
0.0
  0
ARC
  5
D6
  8
ﾚｲﾔ_1
  6
BORDER
 62
     3
 10
1081.7614531899001
 20
128.10872200910001
 30
0.0
 40
10.0
 50
270.0
 51
0.0
  0
LINE
  5
D7
  8
図枠
 62
     5
 10
953.11011986819994
 20
253.79404374929999
 30
0.0
 11
959.29761986819994
 21
243.07697937750001
 31
0.0
  0
INSERT
  5
D8
  8
0
  6
CONTINUOUS
  2
*U50
 10
0.0
 20
0.0
 30
0.0
  0
LINE
  5
D9
  8
ﾚｲﾔ_1
 62
     5
 10
1073.8614531899
 20
171.75401054880001
 30
0.0
 11
1073.8614531899
 21
202.9046957832
 31
0.0
  0
LINE
  5
DA
  8
ﾚｲﾔ_1
 62
     5
 10
1075.7614531899001
 20
203.95516397040001
 30
0.0
 11
1075.4614531899001
 21
203.95516397040001
 31
0.0
  0
LINE
  5
DB
  8
ﾚｲﾔ_1
 62
     5
 10
1075.7614531899001
 20
207.69330509580001
 30
0.0
 11
1073.4914531899001
 21
207.69330509580001
 31
0.0
  0
LINE
  5
DC
  8
ﾚｲﾔ_1
 62
     5
 10
1075.7614531899001
 20
212.48919911510001
 30
0.0
 11
1075.2614531899001
 21
212.48919911510001
 31
0.0
  0
LINE
  5
DD
  8
ﾚｲﾔ_1
 62
     5
 10
1075.7614531899001
 20
214.10872200910001
 30
0.0
 11
1075.2614531899001
 21
214.10872200910001
 31
0.0
  0
LINE
  5
DE
  8
ﾚｲﾔ_1
 62
     5
 10
1074.7317366707
 20
204.71080754639999
 30
0.0
 11
1072.0473017489001
 21
207.4906212834
 31
0.0
  0
LINE
  5
DF
  8
ﾚｲﾔ_1
 62
     5
 10
1073.5807929902001
 20
203.59935415370001
 30
0.0
 11
1070.8963580684001
 21
206.3791678906
 31
0.0
  0
CIRCLE
  5
E0
  8
ﾚｲﾔ_1
 62
     5
 10
1073.4914531899001
 20
209.9233050958
 30
0.0
 40
2.2299999999999991
  0
LINE
  5
E1
  8
ﾚｲﾔ_1
 62
     5
 10
1075.4614531899001
 20
172.10872200910001
 30
0.0
 11
1075.4614531899001
 21
202.9046957832
 31
0.0
  0
LINE
  5
E2
  8
ﾚｲﾔ_1
 62
     5
 10
1075.2614531899001
 20
212.48919911510001
 30
0.0
 11
1075.2614531899001
 21
214.10872200910001
 31
0.0
  0
LINE
  5
E3
  8
ﾚｲﾔ_1
 62
     5
 10
1075.2614531899001
 20
214.07738353330001
 30
0.0
 11
1073.3803178073999
 21
213.7826239556
 31
0.0
  0
LINE
  5
E4
  8
ﾚｲﾔ_1
 62
     5
 10
1077.7614531899001
 20
172.10872200910001
 30
0.0
 11
1077.7614531899001
 21
224.58972982099999
 31
0.0
  0
LINE
  5
E5
  8
ﾚｲﾔ_1
 62
     5
 10
1075.7614531899001
 20
172.10872200910001
 30
0.0
 11
1075.7614531899001
 21
224.58972982099999
 31
0.0
  0
LINE
  5
E6
  8
ﾚｲﾔ_1
 62
     5
 10
1075.2614531899001
 20
212.4578606394
 30
0.0
 11
1073.6280034009999
 21
212.2019115066
 31
0.0
  0
ARC
  5
E7
  8
ﾚｲﾔ_1
 62
     5
 10
1074.0614531899
 20
209.43566472059999
 30
0.0
 40
4.4000000000000004
 50
98.905399848399995
 51
224.0
  0
ARC
  5
E8
  8
ﾚｲﾔ_1
 62
     5
 10
1074.0614531899
 20
209.43566472059999
 30
0.0
 40
2.7999999999999989
 50
98.905399848399995
 51
224.0
  0
ARC
  5
E9
  8
ﾚｲﾔ_1
 62
     5
 10
1072.8614531899
 20
202.9046957832
 30
0.0
 40
1.0
 50
0.0
 51
44.0
  0
ARC
  5
EA
  8
ﾚｲﾔ_1
 62
     5
 10
1072.8614531899
 20
202.9046957832
 30
0.0
 40
2.6000000000000001
 50
0.0
 51
44.0
  0
LINE
  5
EB
  8
ﾚｲﾔ_1
 62
     5
 10
1077.7614531899001
 20
103.10872200910001
 30
0.0
 11
1077.7614531899001
 21
133.10872200910001
 31
0.0
  0
LINE
  5
EC
  8
ﾚｲﾔ_1
 62
     5
 10
1071.7614531899001
 20
92.108722009099992
 30
0.0
 11
1069.4392268555
 21
88.086508011199996
 31
0.0
  0
LINE
  5
ED
  8
ﾚｲﾔ_1
 62
     5
 10
1079.7614531899001
 20
133.10872200910001
 30
0.0
 11
1077.7614531899001
 21
133.10872200910001
 31
0.0
  0
LINE
  5
EE
  8
ﾚｲﾔ_1
 62
     5
 10
895.9213513996001
 20
199.9741429174
 30
0.0
 11
925.17635139960009
 21
199.9741429174
 31
0.0
  0
LINE
  5
EF
  8
0
 62
     5
 10
899.77635139960023
 20
212.01914291759999
 30
0.0
 11
899.77635139960023
 21
209.04135691530001
 31
0.0
  0
LINE
  5
F0
  8
0
 62
     5
 10
891.17635139960009
 20
212.01914291759999
 30
0.0
 11
899.77635139960023
 21
212.01914291759999
 31
0.0
  0
LINE
  5
F1
  8
0
 62
     5
 10
899.77635139960023
 20
209.04135691530001
 30
0.0
 11
895.17635139960009
 21
209.04135691530001
 31
0.0
  0
LINE
  5
F2
  8
0
 62
     5
 10
897.49857773399981
 20
209.04135691530001
 30
0.0
 11
926.85412506520015
 21
209.04135691530001
 31
0.0
  0
INSERT
  5
F4
  8
0
  2
*X2
 10
0.0
 20
0.0
 30
0.0
  0
LINE
  5
F7
  8
図枠
 62
     5
 10
943.8208333332999
 20
241.875
 30
0.0
 11
943.8208333332999
 21
279.375
 31
0.0
  0
LINE
  5
F8
  8
ﾚｲﾔ_1
 62
     5
 10
933.07999257220013
 20
197.65014291739999
 30
0.0
 11
933.07999257220013
 21
160.38814291739999
 31
0.0
  0
LINE
  5
F9
  8
ﾚｲﾔ_1
 62
     5
 10
933.07999257220013
 20
197.65014291739999
 30
0.0
 11
935.17635139960009
 21
194.01914291739999
 31
0.0
  0
LINE
  5
FA
  8
ﾚｲﾔ_1
 62
     5
 10
935.17635139960009
 20
194.01914291739999
 30
0.0
 11
935.17635139960009
 21
164.01914291739999
 31
0.0
  0
LINE
  5
FB
  8
0
 62
     5
 10
939.17635139959998
 20
194.01914291739999
 30
0.0
 11
935.17635139960009
 21
194.01914291739999
 31
0.0
  0
LINE
  5
FC
  8
0
 62
     5
 10
933.17635139960009
 20
83.019142917400004
 30
0.0
 11
932.67635139960009
 21
83.019142917400004
 31
0.0
  0
LINE
  5
FD
  8
0
 62
     5
 10
933.17635139960009
 20
84.638665811300001
 30
0.0
 11
932.67635139960009
 21
84.638665811300001
 31
0.0
  0
LINE
  5
FE
  8
0
 62
     5
 10
933.17635139960009
 20
93.172700956100002
 30
0.0
 11
932.87635139959991
 21
93.172700956100002
 31
0.0
  0
LINE
  5
FF
  8
0
 62
     5
 10
933.29635139959998
 20
131.01914291739999
 30
0.0
 11
933.29635139959998
 21
129.7057583571
 31
0.0
  0
LINE
  5
100
  8
0
 62
     5
 10
937.17635139959998
 20
164.01914291739999
 30
0.0
 11
935.17635139960009
 21
164.01914291739999
 31
0.0
  0
LINE
  5
101
  8
0
 62
     5
 10
932.87635139959991
 20
125.0191429174
 30
0.0
 11
932.87635139959991
 21
94.223169143199996
 31
0.0
  0
LINE
  5
102
  8
0
 62
     5
 10
934.89635139960001
 20
131.01914291739999
 30
0.0
 11
934.89635139960001
 21
129.3510468968
 31
0.0
  0
LINE
  5
103
  8
0
 62
     5
 10
932.67635139960009
 20
84.638665811300001
 30
0.0
 11
932.67635139960009
 21
83.019142917400004
 31
0.0
  0
LINE
  5
104
  8
0
 62
     5
 10
937.17635139959998
 20
143.49596292059999
 30
0.0
 11
934.97635139960005
 21
131.01914291739999
 31
0.0
  0
LINE
  5
105
  8
0
 62
     5
 10
937.17635139959998
 20
164.01914291739999
 30
0.0
 11
937.17635139959998
 21
143.49596292059999
 31
0.0
  0
LINE
  5
106
  8
0
 62
     5
 10
934.89635139960001
 20
129.3510468968
 30
0.0
 11
932.87635139959991
 21
125.0191429174
 31
0.0
  0
LINE
  5
107
  8
0
 62
     5
 10
935.17635139960009
 20
164.01914291739999
 30
0.0
 11
933.07999257220013
 21
160.38814291739999
 31
0.0
  0
LINE
  5
108
  8
ﾚｲﾔ_1
 62
     5
 10
933.17635139960009
 20
125.0191429174
 30
0.0
 11
933.17635139960009
 21
73.242829150800006
 31
0.0
  0
LINE
  5
109
  8
ﾚｲﾔ_1
 62
     5
 10
935.17635139960009
 20
125.0191429174
 30
0.0
 11
935.17635139960009
 21
73.242829150800006
 31
0.0
  0
LINE
  5
10A
  8
ﾚｲﾔ_1
 62
     5
 10
889.17635139959998
 20
208.51914291739999
 30
0.0
 11
891.17635139960009
 21
208.51914291739999
 31
0.0
  0
LINE
  5
10B
  8
0
 62
     5
 10
895.17635139960009
 20
209.04135691530001
 30
0.0
 11
895.17635139960009
 21
201.01914291739999
 31
0.0
  0
LINE
  5
10C
  8
0
 62
     5
 10
895.17635139960009
 20
205.01914291739999
 30
0.0
 11
897.49857773399981
 21
209.04135691530001
 31
0.0
  0
LINE
  5
10D
  8
0
 62
     5
 10
888.7763513996
 20
208.0111092864
 30
-6.5999999999999988
 11
891.17635139960009
 21
208.0111092864
 31
-6.5999999999999988
  0
LINE
  5
10E
  8
0
 62
     5
 10
888.7763513996
 20
203.01914291809999
 30
-6.5999999999999988
 11
890.7763513996
 21
203.01914291809999
 31
-6.5999999999999988
  0
LINE
  5
10F
  8
0
 62
     5
 10
888.7763513996
 20
201.01914291739999
 30
0.0
 11
888.7763513996
 21
203.01914291809999
 31
0.0
  0
LINE
  5
110
  8
0
 62
     5
 10
895.17635139960009
 20
201.01914291739999
 30
0.0
 11
888.7763513996
 21
201.01914291739999
 31
0.0
  0
LINE
  5
111
  8
0
 62
     5
 10
890.7763513996
 20
206.01914291739999
 30
0.0
 11
888.7763513996
 21
206.01914291739999
 31
0.0
  0
LINE
  5
112
  8
0
 62
     5
 10
890.7763513996
 20
203.01914291809999
 30
0.0
 11
890.7763513996
 21
206.01914291739999
 31
0.0
  0
LINE
  5
113
  8
ﾚｲﾔ_1
 62
     5
 10
889.17635139959998
 20
206.01914291739999
 30
0.0
 11
889.17635139959998
 21
203.01914291809999
 31
0.0
  0
LINE
  5
114
  8
ﾚｲﾔ_1
 62
     5
 10
889.17635139959998
 20
224.58972982099999
 30
0.0
 11
889.17635139959998
 21
217.01914291739999
 31
0.0
  0
LINE
  5
115
  8
ﾚｲﾔ_1
 62
     5
 10
891.17635139960009
 20
219.01914291739999
 30
0.0
 11
891.17635139960009
 21
217.01914291739999
 31
0.0
  0
LINE
  5
116
  8
ﾚｲﾔ_1
 62
     5
 10
889.17635139959998
 20
201.01914291739999
 30
0.0
 11
889.17635139959998
 21
157.01914291739999
 31
0.0
  0
LINE
  5
117
  8
0
 62
     5
 10
891.17635139960009
 20
208.0111092864
 30
0.0
 11
891.17635139960009
 21
212.01914291759999
 31
0.0
  0
LINE
  5
118
  8
0
 62
     5
 10
888.7763513996
 20
206.01914291739999
 30
0.0
 11
888.7763513996
 21
208.01914291400001
 31
0.0
  0
LINE
  5
119
  8
ﾚｲﾔ_1
 62
     5
 10
891.17635139960009
 20
148.99692891949999
 30
0.0
 11
891.17635139960009
 21
73.242829150800006
 31
0.0
  0
LINE
  5
11A
  8
ﾚｲﾔ_1
 62
     5
 10
889.17635139959998
 20
217.01914291739999
 30
0.0
 11
889.17635139959998
 21
208.51914291739999
 31
0.0
  0
LINE
  5
11B
  8
ﾚｲﾔ_1
 62
     5
 10
891.17635139960009
 20
224.58972982099999
 30
0.0
 11
891.17635139960009
 21
208.51914291739999
 31
0.0
  0
LINE
  5
11C
  8
ﾚｲﾔ_1
 62
     5
 10
889.17635139959998
 20
149.51914291739999
 30
0.0
 11
889.17635139959998
 21
73.242829150800006
 31
0.0
  0
LINE
  5
11D
  8
0
 62
     5
 10
895.17635139960009
 20
200.71914291740001
 30
0.0
 11
898.24535139960005
 21
197.65014291739999
 31
0.0
  0
LINE
  5
11E
  8
0
 62
     5
 10
899.77635139960023
 20
148.99692891949999
 30
0.0
 11
895.17635139960009
 21
148.99692891949999
 31
0.0
  0
LINE
  5
11F
  8
0
 62
     5
 10
897.49857773399981
 20
148.99692891949999
 30
0.0
 11
926.85412506520015
 21
148.99692891949999
 31
0.0
  0
LINE
  5
120
  8
0
 62
     5
 10
891.17635139960009
 20
146.01914291720001
 30
0.0
 11
899.77635139960023
 21
146.01914291720001
 31
0.0
  0
LINE
  5
121
  8
0
 62
     5
 10
899.77635139960023
 20
146.01914291720001
 30
0.0
 11
899.77635139960023
 21
148.99692891949999
 31
0.0
  0
LINE
  5
122
  8
ﾚｲﾔ_1
 62
     5
 10
895.9213513996001
 20
158.06414291740001
 30
0.0
 11
925.17635139960009
 21
158.06414291740001
 31
0.0
  0
LINE
  5
123
  8
ﾚｲﾔ_1
 62
     5
 10
898.24535139960005
 20
197.65014291739999
 30
0.0
 11
933.07999257220013
 21
197.65014291739999
 31
0.0
  0
LINE
  5
124
  8
ﾚｲﾔ_1
 62
     5
 10
898.24535139960005
 20
160.38814291739999
 30
0.0
 11
933.07999257220013
 21
160.38814291739999
 31
0.0
  0
LINE
  5
125
  8
ﾚｲﾔ_1
  6
BORDER
 62
     3
 10
885.17635139960009
 20
179.01914291739999
 30
0.0
 11
939.17635139959998
 21
179.01914291739999
 31
0.0
  0
LINE
  5
126
  8
ﾚｲﾔ_1
 62
     5
 10
925.17635139960009
 20
158.06414291740001
 30
0.0
 11
925.17635139960009
 21
179.01914291739999
 31
0.0
  0
LINE
  5
127
  8
ﾚｲﾔ_1
 62
     5
 10
925.17635139960009
 20
199.9741429174
 30
0.0
 11
925.17635139960009
 21
179.01914291739999
 31
0.0
  0
LINE
  5
128
  8
ﾚｲﾔ_1
 62
     5
 10
889.17635139959998
 20
208.51914291739999
 30
0.0
 11
889.17635139959998
 21
208.0111092864
 31
0.0
  0
LINE
  5
129
  8
ﾚｲﾔ_1
 10
862.5090883506
 20
73.242829150800006
 30
0.0
 11
862.5090883506
 21
224.58972982099999
 31
0.0
  0
LINE
  5
12A
  8
ﾚｲﾔ_1
 62
     5
 10
889.17635139959998
 20
149.51914291739999
 30
0.0
 11
891.17635139960009
 21
149.51914291739999
 31
0.0
  0
LINE
  5
12B
  8
0
 62
     5
 10
888.7763513996
 20
152.01914291739999
 30
0.0
 11
888.7763513996
 21
150.01914292079999
 31
0.0
  0
LINE
  5
12C
  8
0
 62
     5
 10
888.7763513996
 20
155.01914291669999
 30
-6.5999999999999988
 11
890.7763513996
 21
155.01914291669999
 31
-6.5999999999999988
  0
LINE
  5
12D
  8
0
 62
     5
 10
890.7763513996
 20
152.01914291739999
 30
0.0
 11
888.7763513996
 21
152.01914291739999
 31
0.0
  0
LINE
  5
12E
  8
0
 62
     5
 10
890.7763513996
 20
155.01914291669999
 30
0.0
 11
890.7763513996
 21
152.01914291739999
 31
0.0
  0
LINE
  5
12F
  8
0
 62
     5
 10
895.17635139960009
 20
157.01914291739999
 30
0.0
 11
888.7763513996
 21
157.01914291739999
 31
0.0
  0
LINE
  5
130
  8
0
 62
     5
 10
895.17635139960009
 20
148.99692891949999
 30
0.0
 11
895.17635139960009
 21
157.01914291739999
 31
0.0
  0
LINE
  5
131
  8
ﾚｲﾔ_1
 62
     5
 10
889.17635139959998
 20
155.01914291669999
 30
0.0
 11
889.17635139959998
 21
152.01914291739999
 31
0.0
  0
LINE
  5
132
  8
ﾚｲﾔ_1
 62
     5
 10
889.17635139959998
 20
150.02717654840001
 30
0.0
 11
889.17635139959998
 21
149.51914291739999
 31
0.0
  0
LINE
  5
133
  8
0
 62
     5
 10
888.7763513996
 20
150.02717654840001
 30
-6.5999999999999988
 11
891.17635139960009
 21
150.02717654840001
 31
-6.5999999999999988
  0
LINE
  5
134
  8
0
 62
     5
 10
888.7763513996
 20
157.01914291739999
 30
0.0
 11
888.7763513996
 21
155.01914291669999
 31
0.0
  0
LINE
  5
135
  8
0
 62
     5
 10
895.17635139960009
 20
153.01914291739999
 30
0.0
 11
897.49857773399981
 21
148.99692891949999
 31
0.0
  0
INSERT
  5
137
  8
0
  2
*X3
 10
0.0
 20
0.0
 30
0.0
  0
LINE
  5
13A
  8
0
 62
     5
 10
891.17635139960009
 20
150.02717654840001
 30
0.0
 11
891.17635139960009
 21
146.01914291720001
 31
0.0
  0
LINE
  5
13B
  8
ﾚｲﾔ_1
 62
     5
 10
898.24535139960005
 20
197.65014291739999
 30
0.0
 11
898.24535139960005
 21
160.38814291739999
 31
0.0
  0
LINE
  5
13C
  8
ﾚｲﾔ_1
 62
     5
 10
895.17635139960009
 20
153.01914291739999
 30
0.0
 11
895.17635139960009
 21
179.01914291739999
 31
0.0
  0
LINE
  5
13D
  8
ﾚｲﾔ_1
 62
     5
 10
895.17635139960009
 20
205.01914291739999
 30
0.0
 11
895.17635139960009
 21
179.01914291739999
 31
0.0
  0
LINE
  5
13E
  8
ﾚｲﾔ_1
 62
     5
 10
895.17635139960009
 20
157.3191429174
 30
0.0
 11
898.24535139960005
 21
160.38814291739999
 31
0.0
  0
ARC
  5
13F
  8
ﾚｲﾔ_1
 62
     5
 10
1091.26171875
 20
8.050067824400001
 30
0.0
 40
2.5
 50
0.0
 51
90.0
  0
LINE
  5
140
  8
ﾚｲﾔ_1
 62
     5
 10
1091.1617187500001
 20
-3.449932175599999
 30
0.0
 11
1091.26171875
 21
-3.449932175599999
 31
0.0
  0
LINE
  5
141
  8
ﾚｲﾔ_1
 62
     5
 10
1093.76171875
 20
-4.949932175599999
 30
0.0
 11
1093.76171875
 21
8.050067824400001
 31
0.0
  0
LINE
  5
142
  8
ﾚｲﾔ_1
 62
     5
 10
1092.76171875
 20
8.050067824400001
 30
0.0
 11
1092.76171875
 21
-4.949932175599999
 31
0.0
  0
LINE
  5
143
  8
ﾚｲﾔ_1
 62
     5
 10
1091.1617187500001
 20
-3.449932175599999
 30
0.0
 11
1091.1617187500001
 21
-162.53229415480001
 31
0.0
  0
LINE
  5
144
  8
ﾚｲﾔ_1
 62
     5
 10
1090.1617187500001
 20
8.550067824400001
 30
0.0
 11
1090.1617187500001
 21
-162.53229415480001
 31
0.0
  0
LINE
  5
145
  8
ﾚｲﾔ_1
 62
     5
 10
925.17635139960009
 20
199.9741429174
 30
0.0
 11
929.20163747640015
 21
197.65014291739999
 31
0.0
  0
LINE
  5
146
  8
0
 62
     5
 10
929.17635139959998
 20
205.01914291739999
 30
0.0
 11
926.85412506520015
 21
209.04135691530001
 31
0.0
  0
LINE
  5
147
  8
0
 62
     5
 10
933.17635139960009
 20
89.434559830699996
 30
0.0
 11
930.90635139960011
 21
89.434559830699996
 31
0.0
  0
LINE
  5
148
  8
0
 62
     5
 10
932.14663488050007
 20
92.417057380000003
 30
0.0
 11
929.4621999586999
 21
89.637243643099993
 31
0.0
  0
LINE
  5
149
  8
0
 62
     5
 10
930.99569120000001
 20
93.528510772800004
 30
0.0
 11
928.3112562780999
 21
90.748697035799992
 31
0.0
  0
ARC
  5
14A
  8
0
 62
     5
 10
930.27635139960012
 20
94.223169143199996
 30
0.0
 40
1.0
 50
316.0
 51
0.0
  0
ARC
  5
14B
  8
0
 62
     5
 10
930.27635139960012
 20
94.223169143199996
 30
0.0
 40
2.6000000000000001
 50
316.0
 51
0.0
  0
LINE
  5
14C
  8
0
 62
     5
 10
932.67635139960009
 20
83.050481393100014
 30
0.0
 11
930.79521601709996
 21
83.345240970800006
 31
0.0
  0
LINE
  5
14D
  8
0
 62
     5
 10
932.67635139960009
 20
84.670004287099985
 30
0.0
 11
931.04290161080007
 21
84.925953419899997
 31
0.0
  0
ARC
  5
14E
  8
0
 62
     5
 10
931.47635139960005
 20
87.692200205800006
 30
0.0
 40
2.7999999999999989
 50
136.0
 51
261.09460015159999
  0
LINE
  5
14F
  8
0
 62
     5
 10
928.6907107536
 20
152.17798864420001
 30
0.0
 11
926.85412506520015
 21
148.99692891949999
 31
0.0
  0
LINE
  5
150
  8
0
 62
     5
 10
931.67635139960009
 20
140.6603220108
 30
0.0
 11
933.37635139960003
 21
131.01914291739999
 31
0.0
  0
LINE
  5
151
  8
0
 62
     5
 10
931.27635139960012
 20
125.3738543776
 30
0.0
 11
931.27635139960012
 21
94.223169143199996
 31
0.0
  0
LINE
  5
152
  8
0
 62
     5
 10
925.17635139960009
 20
158.06414291740001
 30
0.0
 11
929.20163747640015
 21
160.38814291739999
 31
0.0
  0
CIRCLE
  5
153
  8
0
 62
     5
 10
930.90635139960011
 20
87.204559830699992
 30
0.0
 40
2.2299999999999991
  0
ARC
  5
154
  8
0
 62
     5
 10
930.07635139960007
 20
151.3779886442
 30
0.0
 40
1.6000000000000001
 50
0.0
 51
150.0
  0
ARC
  5
155
  8
0
 62
     5
 10
931.47635139960005
 20
87.692200205800006
 30
0.0
 40
4.4000000000000004
 50
136.0
 51
261.09460015159999
  0
LINE
  5
156
  8
0
 62
     5
 10
931.67635139960009
 20
151.3779886442
 30
0.0
 11
931.67635139960009
 21
140.6603220108
 31
0.0
  0
LINE
  5
157
  8
0
 62
     5
 10
933.29635139959998
 20
129.7057583571
 30
0.0
 11
931.27635139960012
 21
125.3738543776
 31
0.0
  0
LINE
  5
158
  8
0
 62
     5
 10
1024.1617187500001
 20
-28.599932175599999
 30
0.0
 11
1025.6962187500001
 21
-30.134432175600001
 31
0.0
  0
LINE
  5
159
  8
0
 62
     5
 10
1022.16171875
 20
-22.949932175499999
 30
0.0
 11
1026.46171875
 21
-22.949932175499999
 31
0.0
  0
LINE
  5
15A
  8
0
 62
     5
 10
1022.16171875
 20
-24.953948991099999
 30
0.0
 11
1022.16171875
 21
-22.949932175499999
 31
0.0
  0
LINE
  5
15B
  8
0
 62
     5
 10
1021.96171875
 20
-27.449932175200001
 30
0.0
 11
1021.96171875
 21
-25.949932175600001
 31
0.0
  0
LINE
  5
15C
  8
0
 62
     5
 10
1021.96171875
 20
-25.949932175600001
 30
0.0
 11
1020.96171875
 21
-25.949932175600001
 31
0.0
  0
LINE
  5
15D
  8
0
 62
     5
 10
1026.46171875
 20
-24.4388251767
 30
0.0
 11
1024.1617187500001
 21
-24.4388251767
 31
0.0
  0
LINE
  5
15E
  8
0
 62
     5
 10
1024.1617187500001
 20
-28.449932175600001
 30
0.0
 11
1020.96171875
 21
-28.449932175600001
 31
0.0
  0
LINE
  5
15F
  8
0
 62
     5
 10
1026.46171875
 20
-22.949932175499999
 30
0.0
 11
1026.46171875
 21
-24.4388251767
 31
0.0
  0
LINE
  5
160
  8
0
 62
     5
 10
1020.96171875
 20
-28.449932175600001
 30
0.0
 11
1020.96171875
 21
-27.449932175200001
 31
0.0
  0
LINE
  5
161
  8
0
 62
     5
 10
1020.96171875
 20
-27.449932175200001
 30
-3.2999999999999989
 11
1021.96171875
 21
-27.449932175200001
 31
-3.2999999999999989
  0
LINE
  5
162
  8
0
 62
     5
 10
1020.96171875
 20
-24.953948991099999
 30
-3.2999999999999989
 11
1022.16171875
 21
-24.953948991099999
 31
-3.2999999999999989
  0
ARC
  5
163
  8
0
 62
     5
 10
1048.9117187500001
 20
-37.449932175599997
 30
0.0
 40
11.0
 50
0.0
 51
90.0
  0
LINE
  5
164
  8
ﾚｲﾔ_1
 62
     5
 10
1021.16171875
 20
-24.699932175600001
 30
0.0
 11
1021.16171875
 21
-24.953948991099999
 31
0.0
  0
LINE
  5
165
  8
0
 62
     5
 10
1024.1617187500001
 20
-24.4388251767
 30
0.0
 11
1024.1617187500001
 21
-28.449932175600001
 31
0.0
  0
LINE
  5
166
  8
0
 62
     5
 10
1024.53421875
 20
-28.972432175600002
 30
0.0
 11
1039.1617187500001
 21
-28.972432175600002
 31
0.0
  0
LINE
  5
167
  8
ﾚｲﾔ_1
 10
1007.8280872255
 20
-92.338089058899996
 30
0.0
 11
1007.8280872255
 21
-16.6646387238
 31
0.0
  0
LINE
  5
168
  8
ﾚｲﾔ_1
 10
1069.6129878474001
 20
-16.6646387238
 30
0.0
 11
1069.6129878474001
 21
-92.338089058899996
 31
0.0
  0
LINE
  5
169
  8
ﾚｲﾔ_1
 62
     5
 10
1021.16171875
 20
-20.449932175600001
 30
0.0
 11
1021.16171875
 21
-24.699932175600001
 31
0.0
  0
LINE
  5
16A
  8
ﾚｲﾔ_1
 62
     5
 10
1021.16171875
 20
-51.449932175999997
 30
0.0
 11
1021.16171875
 21
-52.949932175599997
 31
0.0
  0
LINE
  5
16B
  8
ﾚｲﾔ_1
 62
     5
 10
1021.16171875
 20
-53.945915360100003
 30
0.0
 11
1021.16171875
 21
-162.53229415480001
 31
0.0
  0
LINE
  5
16C
  8
ﾚｲﾔ_1
 62
     5
 10
1091.1617187500001
 20
-3.449932175599999
 30
0.0
 11
1091.1617187500001
 21
8.550067824400001
 31
0.0
  0
ARC
  5
16D
  8
ﾚｲﾔ_1
 62
     5
 10
1091.26171875
 20
-4.949932175599999
 30
0.0
 40
1.5
 50
270.0
 51
0.0
  0
ARC
  5
16E
  8
ﾚｲﾔ_1
 62
     5
 10
1091.26171875
 20
-4.949932175599999
 30
0.0
 40
2.5
 50
270.0
 51
0.0
  0
LINE
  5
16F
  8
ﾚｲﾔ_1
 62
     5
 10
1091.1617187500001
 20
-2.449932175599999
 30
0.0
 11
1091.26171875
 21
-2.449932175599999
 31
0.0
  0
ARC
  5
170
  8
ﾚｲﾔ_1
 62
     5
 10
1091.26171875
 20
8.050067824400001
 30
0.0
 40
1.5
 50
0.0
 51
90.0
  0
ARC
  5
171
  8
0
 62
     5
 10
1060.6117187499999
 20
-81.847919062700001
 30
0.0
 40
0.5
 50
180.0
 51
224.0
  0
LINE
  5
172
  8
0
 62
     5
 10
1060.2967187500001
 20
-84.242223718900007
 30
0.0
 11
1059.1617187500001
 21
-84.242223718900007
 31
0.0
  0
LINE
  5
173
  8
0
 62
     5
 10
1059.6765770095999
 20
-82.750974944299983
 30
0.0
 11
1061.0187944705001
 21
-84.140881812700016
 31
0.0
  0
LINE
  5
174
  8
0
 62
     5
 10
1059.4117187500001
 20
-87.434262937699984
 30
0.0
 11
1060.3522864412
 21
-87.286883148899975
 31
0.0
  0
LINE
  5
175
  8
0
 62
     5
 10
1059.4117187500001
 20
-86.624501490799986
 30
0.0
 11
1060.2284436443999
 21
-86.496526924300014
 31
0.0
  0
LINE
  5
176
  8
ﾚｲﾔ_1
  6
BORDER
 62
     3
 10
1047.4354456958999
 20
-166.75748946729999
 30
0.0
 11
1064.8879918041
 21
-175.2078800923
 31
0.0
  0
LINE
  5
177
  8
ﾚｲﾔ_1
  6
BORDER
 62
     3
 10
1047.4354456958999
 20
-158.30709884230001
 30
0.0
 11
1064.8879918041
 21
-166.75748946729999
 31
0.0
  0
LINE
  5
178
  8
ﾚｲﾔ_1
 10
1069.6129878474001
 20
-92.338089058899996
 30
0.0
 11
1007.8280872255
 21
-92.338089058899996
 31
0.0
  0
LINE
  5
179
  8
ﾚｲﾔ_1
 62
     5
 10
1022.16171875
 20
8.550067824400001
 30
0.0
 11
1022.16171875
 21
-22.949932175499999
 31
0.0
  0
INSERT
  5
17C
  8
寸法線
  2
BALLON0
 10
0.0
 20
0.0
 30
0.0
  0
LINE
  5
185
  8
0
 62
     5
 10
1025.3228319171999
 20
-24.4388251767
 30
0.0
 11
1040.0006055828001
 21
-24.4388251767
 31
0.0
  0
LINE
  5
186
  8
0
 62
     5
 10
1041.1617187500001
 20
-26.449932175600001
 30
0.0
 11
1040.0006055828001
 21
-24.4388251767
 31
0.0
  0
LINE
  5
187
  8
0
 62
     5
 10
1048.9117187500001
 20
-26.449932175600001
 30
0.0
 11
1041.1617187500001
 21
-26.449932175600001
 31
0.0
  0
LINE
  5
188
  8
ﾚｲﾔ_1
 62
     5
 10
1021.16171875
 20
-24.699932175600001
 30
0.0
 11
1022.16171875
 21
-24.699932175600001
 31
0.0
  0
LINE
  5
189
  8
0
 62
     5
 10
1039.1617187500001
 20
-28.972432175600002
 30
0.0
 11
1039.1617187500001
 21
-39.449932175599997
 31
0.0
  0
LINE
  5
18A
  8
0
 62
     5
 10
1039.1617187500001
 20
-28.972432175600002
 30
0.0
 11
1041.1743617883999
 21
-30.134432175600001
 31
0.0
  0
INSERT
  5
18C
  8
寸法線
  2
BALLON1
 10
0.0
 20
0.0
 30
0.0
  0
INSERT
  5
196
  8
寸法線
  2
BALLON2
 10
0.0
 20
0.0
 30
0.0
  0
INSERT
  5
1A0
  8
寸法線
  2
BALLON3
 10
0.0
 20
0.0
 30
0.0
  0
INSERT
  5
1AA
  8
寸法線
  2
BALLON4
 10
0.0
 20
0.0
 30
0.0
  0
LINE
  5
1B3
  8
0
 62
     5
 10
1024.1617187500001
 20
-26.449932175600001
 30
0.0
 11
1024.1617187500001
 21
-39.449932175599997
 31
0.0
  0
LINE
  5
1B4
  8
0
 62
     5
 10
1020.96171875
 20
-25.949932175600001
 30
0.0
 11
1020.96171875
 21
-24.949932177299999
 31
0.0
  0
LINE
  5
1B5
  8
ﾚｲﾔ_1
 62
     5
 10
1021.16171875
 20
-25.949932175600001
 30
0.0
 11
1021.16171875
 21
-27.449932175200001
 31
0.0
  0
LINE
  5
1B6
  8
ﾚｲﾔ_1
 62
     5
 10
1021.16171875
 20
-28.449932175600001
 30
0.0
 11
1021.16171875
 21
-50.449932175599997
 31
0.0
  0
LINE
  5
1B7
  8
0
 62
     5
 10
1024.1617187500001
 20
-26.449932175600001
 30
0.0
 11
1025.3228319171999
 21
-24.4388251767
 31
0.0
  0
INSERT
  5
1B9
  8
寸法線
  2
BALLON5
 10
0.0
 20
0.0
 30
0.0
  0
LINE
  5
1C2
  8
ﾚｲﾔ_1
 62
     5
 10
1044.1617187500001
 20
-66.449932175599983
 30
0.0
 11
1044.1617187500001
 21
-162.53229415480001
 31
0.0
  0
INSERT
  5
1C4
  8
寸法線
  2
BALLON6
 10
0.0
 20
0.0
 30
0.0
  0
LINE
  5
1CD
  8
0
 62
     5
 10
1059.9117187500001
 20
-58.629342628899998
 30
0.0
 11
1059.06171875
 21
-63.449932175599997
 31
0.0
  0
LINE
  5
1CE
  8
0
 62
     5
 10
1057.1617187500001
 20
-57.211522174000002
 30
0.0
 11
1058.26171875
 21
-63.449932175599997
 31
0.0
  0
LINE
  5
1CF
  8
0
 62
     5
 10
1045.1617187500001
 20
-57.211522174000002
 30
0.0
 11
1044.06171875
 21
-63.449932175599997
 31
0.0
  0
LINE
  5
1D0
  8
0
 62
     5
 10
1042.4117187500001
 20
-58.629342628899998
 30
0.0
 11
1043.26171875
 21
-63.449932175599997
 31
0.0
  0
INSERT
  5
1D2
  8
ﾚｲﾔ_1
  2
*X11
 10
0.0
 20
0.0
 30
0.0
  0
LINE
  5
1E3
  8
ﾚｲﾔ_1
 62
     5
 10
1022.16171875
 20
-54.461039174500002
 30
0.0
 11
1022.16171875
 21
-162.53229415480001
 31
0.0
  0
LINE
  5
1E4
  8
ﾚｲﾔ_1
 62
     5
 10
1080.1617187500001
 20
10.550067824399999
 30
0.0
 11
1064.1617187500001
 21
14.4500678244
 31
0.0
  0
LINE
  5
1E5
  8
ﾚｲﾔ_1
 62
     5
 10
1048.2818353381001
 20
13.4500678244
 30
0.0
 11
1064.0416021619001
 21
13.4500678244
 31
0.0
  0
LINE
  5
1E6
  8
ﾚｲﾔ_1
 62
     5
 10
1048.1617187500001
 20
14.4500678244
 30
0.0
 11
1064.1617187500001
 21
14.4500678244
 31
0.0
  0
LINE
  5
1E7
  8
ﾚｲﾔ_1
 62
     5
 10
1080.0416021619001
 20
9.550067824400001
 30
0.0
 11
1064.0416021619001
 21
13.4500678244
 31
0.0
  0
LINE
  5
1E8
  8
ﾚｲﾔ_1
 10
1007.8280872255
 20
-16.6646387238
 30
0.0
 11
1069.6129878474001
 21
-16.6646387238
 31
0.0
  0
LINE
  5
1E9
  8
0
 62
     5
 10
1061.1617187500001
 20
-32.199932175599997
 30
0.0
 11
1061.1617187500001
 21
-46.699932175599997
 31
0.0
  0
LINE
  5
1EA
  8
0
 62
     5
 10
1061.1617187500001
 20
-32.199932175599997
 30
0.0
 11
1058.5780262146
 21
-32.199932175599997
 31
0.0
  0
LINE
  5
1EB
  8
0
 62
     5
 10
1061.1617187500001
 20
-46.699932175599997
 30
0.0
 11
1059.9117187500001
 21
-46.699932175599997
 31
0.0
  0
LINE
  5
1EC
  8
0
 62
     5
 10
1059.1017187499999
 20
-64.106624455800002
 30
0.0
 11
1060.1117187499999
 21
-66.272576445500007
 31
0.0
  0
LINE
  5
1ED
  8
ﾚｲﾔ_1
  6
BORDER
 62
     3
 10
1064.8879918041
 20
-175.2078800923
 30
0.0
 11
1064.8879918041
 21
-170.9826847798
 31
0.0
  0
LINE
  5
1EE
  8
ﾚｲﾔ_1
  6
BORDER
 62
     3
 10
1064.8879918041
 20
-166.75748946729999
 30
0.0
 11
1064.8879918041
 21
-162.53229415480001
 31
0.0
  0
LINE
  5
1EF
  8
0
 62
     5
 10
1060.2520488498001
 20
-82.195248247899997
 30
0.0
 11
1061.5942663107
 21
-83.585155116400003
 31
0.0
  0
CIRCLE
  5
1F0
  8
0
 62
     5
 10
1060.2967187500001
 20
-85.357223718900016
 30
0.0
 40
1.1149999999999991
  0
LINE
  5
1F1
  8
0
 62
     5
 10
1060.1117187499999
 20
-66.272576445500007
 30
0.0
 11
1060.1117187499999
 21
-81.847919062700001
 31
0.0
  0
ARC
  5
1F2
  8
0
 62
     5
 10
1060.01171875
 20
-85.11340353140001
 30
0.0
 40
1.399999999999999
 50
278.90539984840001
 51
44.0
  0
ARC
  5
1F3
  8
0
 62
     5
 10
1060.01171875
 20
-85.11340353140001
 30
0.0
 40
2.2000000000000002
 50
278.90539984840001
 51
44.0
  0
LINE
  5
1F4
  8
0
 62
     5
 10
1044.02171875
 20
-63.449932175599997
 30
0.0
 11
1044.02171875
 21
-64.283980185900006
 31
0.0
  0
LINE
  5
1F5
  8
0
 62
     5
 10
1043.22171875
 20
-64.106624455800002
 30
0.0
 11
1042.21171875
 21
-66.272576445500007
 31
0.0
  0
LINE
  5
1F6
  8
0
 62
     5
 10
1044.02171875
 20
-64.283980185900006
 30
0.0
 11
1043.01171875
 21
-66.449932175599983
 31
0.0
  0
LINE
  5
1F7
  8
ﾚｲﾔ_1
  6
BORDER
 62
     3
 10
1047.4354456958999
 20
-166.75748946729999
 30
0.0
 11
1047.4354456958999
 21
-170.9826847798
 31
0.0
  0
LINE
  5
1F8
  8
ﾚｲﾔ_1
  6
BORDER
 62
     3
 10
1047.4354456958999
 20
-158.30709884230001
 30
0.0
 11
1047.4354456958999
 21
-162.53229415480001
 31
0.0
  0
ARC
  5
1F9
  8
0
 62
     5
 10
1060.6117187499999
 20
-81.847919062700001
 30
0.0
 40
1.3
 50
180.0
 51
224.0
  0
ARC
  5
1FA
  8
0
 62
     5
 10
1041.71171875
 20
-81.847919062700001
 30
0.0
 40
1.3
 50
316.0
 51
0.0
  0
LINE
  5
1FB
  8
0
 62
     5
 10
1059.4117187500001
 20
-86.640170728600012
 30
0.0
 11
1059.4117187500001
 21
-87.449932175599983
 31
0.0
  0
LINE
  5
1FC
  8
0
 62
     5
 10
1042.9117187500001
 20
-86.640170728600012
 30
0.0
 11
1042.9117187500001
 21
-87.449932175599983
 31
0.0
  0
LINE
  5
1FD
  8
0
 62
     5
 10
1059.31171875
 20
-66.449932175599983
 30
0.0
 11
1059.31171875
 21
-81.847919062700001
 31
0.0
  0
LINE
  5
1FE
  8
0
 62
     5
 10
1042.21171875
 20
-66.272576445500007
 30
0.0
 11
1042.21171875
 21
-81.847919062700001
 31
0.0
  0
LINE
  5
1FF
  8
0
 62
     5
 10
1043.1617187500001
 20
-87.449932175599983
 30
0.0
 11
1042.9117187500001
 21
-87.449932175599983
 31
0.0
  0
LINE
  5
200
  8
0
 62
     5
 10
1059.4117187500001
 20
-87.449932175599983
 30
0.0
 11
1059.1617187500001
 21
-87.449932175599983
 31
0.0
  0
LINE
  5
201
  8
0
 62
     5
 10
1043.1617187500001
 20
-86.640170728600012
 30
0.0
 11
1042.9117187500001
 21
-86.640170728600012
 31
0.0
  0
LINE
  5
202
  8
0
 62
     5
 10
1059.4117187500001
 20
-86.640170728600012
 30
0.0
 11
1059.1617187500001
 21
-86.640170728600012
 31
0.0
  0
LINE
  5
203
  8
0
 62
     5
 10
1043.1617187500001
 20
-84.242223718900007
 30
0.0
 11
1042.0267187500001
 21
-84.242223718900007
 31
0.0
  0
LINE
  5
204
  8
0
 62
     5
 10
1043.1617187500001
 20
-82.373153156300006
 30
0.0
 11
1043.01171875
 21
-82.373153156300006
 31
0.0
  0
LINE
  5
205
  8
0
 62
     5
 10
1043.01171875
 20
-66.449932175599983
 30
0.0
 11
1043.01171875
 21
-81.847919062700001
 31
0.0
  0
LINE
  5
206
  8
0
 62
     5
 10
1042.9117187500001
 20
-87.434262937699984
 30
0.0
 11
1041.9711510587999
 21
-87.286883148899975
 31
0.0
  0
ARC
  5
207
  8
0
 62
     5
 10
1041.71171875
 20
-81.847919062700001
 30
0.0
 40
0.5
 50
316.0
 51
0.0
  0
LINE
  5
208
  8
ﾚｲﾔ_1
  6
BORDER
 62
     3
 10
1011.014160651
 20
-170.9826847798
 30
0.0
 11
1047.4354456958999
 21
-170.9826847798
 31
0.0
  0
LINE
  5
209
  8
ﾚｲﾔ_1
  6
BORDER
 62
     3
 10
1011.014160651
 20
-162.53229415480001
 30
0.0
 11
1047.4354456958999
 21
-162.53229415480001
 31
0.0
  0
LINE
  5
20A
  8
ﾚｲﾔ_1
 62
     5
 10
1043.1617187500001
 20
-66.449932175599983
 30
0.0
 11
1043.1617187500001
 21
-162.53229415480001
 31
0.0
  0
LINE
  5
20B
  8
ﾚｲﾔ_1
 62
     5
 10
1059.1617187500001
 20
-66.449932175599983
 30
0.0
 11
1059.1617187500001
 21
-163.9848714302
 31
0.0
  0
LINE
  5
20C
  8
ﾚｲﾔ_1
 62
     5
 10
1058.1617187500001
 20
-66.449932175599983
 30
0.0
 11
1058.1617187500001
 21
-163.50067900499999
 31
0.0
  0
LINE
  5
20D
  8
0
 62
     5
 10
1020.96171875
 20
-52.949932175599997
 30
0.0
 11
1020.96171875
 21
-53.949932173900002
 31
0.0
  0
LINE
  5
20E
  8
0
 62
     5
 10
1024.1617187500001
 20
-54.461039174500002
 30
0.0
 11
1024.1617187500001
 21
-50.449932175599997
 31
0.0
  0
LINE
  5
20F
  8
0
 62
     5
 10
1026.46171875
 20
-54.461039174500002
 30
0.0
 11
1024.1617187500001
 21
-54.461039174500002
 31
0.0
  0
LINE
  5
210
  8
0
 62
     5
 10
1024.1617187500001
 20
-50.449932175599997
 30
0.0
 11
1020.96171875
 21
-50.449932175599997
 31
0.0
  0
LINE
  5
211
  8
0
 62
     5
 10
1026.46171875
 20
-55.949932175699992
 30
0.0
 11
1026.46171875
 21
-54.461039174500002
 31
0.0
  0
LINE
  5
212
  8
0
 62
     5
 10
1020.96171875
 20
-50.449932175599997
 30
0.0
 11
1020.96171875
 21
-51.449932175999997
 31
0.0
  0
LINE
  5
213
  8
0
 62
     5
 10
1024.53421875
 20
-49.927432175600011
 30
0.0
 11
1039.1617187500001
 21
-49.927432175600011
 31
0.0
  0
LINE
  5
214
  8
ﾚｲﾔ_1
  6
CENTER
 62
     3
 10
1019.16171875
 20
-39.449932175599997
 30
0.0
 11
1046.1617187500001
 21
-39.449932175599997
 31
0.0
  0
LINE
  5
215
  8
0
 62
     5
 10
1025.6962187500001
 20
-30.134432175600001
 30
0.0
 11
1025.6962187500001
 21
-48.765432175599997
 31
0.0
  0
LINE
  5
216
  8
0
 62
     5
 10
1059.1017187499999
 20
-63.449932175599997
 30
0.0
 11
1043.22171875
 21
-63.449932175599997
 31
0.0
  0
LINE
  5
217
  8
ﾚｲﾔ_1
 62
     5
 10
1043.1617187500001
 20
-66.449932175599983
 30
0.0
 11
1059.1617187500001
 21
-66.449932175599983
 31
0.0
  0
LINE
  5
218
  8
0
 62
     5
 10
1058.30171875
 20
-64.283980185900006
 30
0.0
 11
1044.02171875
 21
-64.283980185900006
 31
0.0
  0
LINE
  5
219
  8
0
 62
     5
 10
1058.30171875
 20
-64.283980185900006
 30
0.0
 11
1059.31171875
 21
-66.449932175599983
 31
0.0
  0
ARC
  5
21A
  8
0
 62
     5
 10
1042.31171875
 20
-85.11340353140001
 30
0.0
 40
1.399999999999999
 50
136.0
 51
261.09460015159999
  0
ARC
  5
21B
  8
0
 62
     5
 10
1042.31171875
 20
-85.11340353140001
 30
0.0
 40
2.2000000000000002
 50
136.0
 51
261.09460015159999
  0
CIRCLE
  5
21C
  8
0
 62
     5
 10
1042.0267187500001
 20
-85.357223718900016
 30
0.0
 40
1.1149999999999991
  0
LINE
  5
21D
  8
0
 62
     5
 10
1042.0713886502001
 20
-82.195248247899997
 30
0.0
 11
1040.7291711892999
 21
-83.585155116400003
 31
0.0
  0
LINE
  5
21E
  8
0
 62
     5
 10
1042.6468604904001
 20
-82.750974944299983
 30
0.0
 11
1041.3046430295001
 21
-84.140881812700016
 31
0.0
  0
LINE
  5
21F
  8
0
 62
     5
 10
1042.9117187500001
 20
-86.624501490799986
 30
0.0
 11
1042.0949938556
 21
-86.496526924300014
 31
0.0
  0
LINE
  5
220
  8
0
 62
     5
 10
1059.31171875
 20
-82.373153156300006
 30
0.0
 11
1059.1617187500001
 21
-82.373153156300006
 31
0.0
  0
LINE
  5
221
  8
0
 62
     5
 10
1059.31171875
 20
-66.449932175599983
 30
0.0
 11
1043.01171875
 21
-66.449932175599983
 31
0.0
  0
LINE
  5
222
  8
0
 62
     5
 10
1059.1017187499999
 20
-63.449932175599997
 30
0.0
 11
1059.1017187499999
 21
-64.106624455800002
 31
0.0
  0
LINE
  5
223
  8
0
 62
     5
 10
1058.30171875
 20
-63.449932175599997
 30
0.0
 11
1058.30171875
 21
-64.283980185900006
 31
0.0
  0
LINE
  5
224
  8
0
 62
     5
 10
1043.22171875
 20
-63.449932175599997
 30
0.0
 11
1043.22171875
 21
-64.106624455800002
 31
0.0
  0
INSERT
  5
225
  8
0
  6
CONTINUOUS
  2
*U58
 10
0.0
 20
0.0
 30
0.0
  0
LINE
  5
226
  8
0
 62
     5
 10
1025.3228319171999
 20
-54.461039174500002
 30
0.0
 11
1040.0006055828001
 21
-54.461039174500002
 31
0.0
  0
LINE
  5
227
  8
0
 62
     5
 10
1045.1617187500001
 20
-46.949932175599997
 30
0.0
 11
1044.1617187500001
 21
-46.949932175599997
 31
0.0
  0
LINE
  5
228
  8
0
 62
     5
 10
1039.1617187500001
 20
-49.927432175600011
 30
0.0
 11
1039.1617187500001
 21
-39.449932175599997
 31
0.0
  0
LINE
  5
229
  8
0
 62
     5
 10
1024.1617187500001
 20
-52.449932175600011
 30
0.0
 11
1025.3228319171999
 21
-54.461039174500002
 31
0.0
  0
LINE
  5
22A
  8
0
 62
     5
 10
1046.1617187500001
 20
-31.949932175600001
 30
0.0
 11
1044.1617187500001
 21
-31.949932175600001
 31
0.0
  0
LINE
  5
22B
  8
0
 62
     5
 10
1044.1617187500001
 20
-31.949932175600001
 30
0.0
 11
1044.1617187500001
 21
-46.949932175599997
 31
0.0
  0
LINE
  5
22C
  8
0
 62
     5
 10
1044.1617187500001
 20
-46.949932175599997
 30
0.0
 11
1043.1135393362999
 21
-48.765432175599997
 31
0.0
  0
ARC
  5
22D
  8
ﾚｲﾔ_1
  6
CENTER
 62
     3
 10
1046.1617187500001
 20
-44.449932175599997
 30
0.0
 40
5.0
 50
0.0
 51
90.0
  0
LINE
  5
22E
  8
0
 62
     5
 10
1042.4117187500001
 20
-53.270509312199998
 30
0.0
 11
1042.4117187500001
 21
-58.629342628899998
 31
0.0
  0
LINE
  5
22F
  8
0
 62
     5
 10
1022.16171875
 20
-55.949932175699992
 30
0.0
 11
1026.46171875
 21
-55.949932175699992
 31
0.0
  0
LINE
  5
230
  8
0
 62
     5
 10
1022.16171875
 20
-53.945915360100003
 30
0.0
 11
1022.16171875
 21
-55.949932175699992
 31
0.0
  0
LINE
  5
231
  8
ﾚｲﾔ_1
 62
     5
 10
1021.16171875
 20
-51.449932175999997
 30
0.0
 11
1021.16171875
 21
-52.949932175599997
 31
0.0
  0
LINE
  5
232
  8
0
 62
     5
 10
1024.1617187500001
 20
-50.299932175600013
 30
0.0
 11
1025.6962187500001
 21
-48.765432175599997
 31
0.0
  0
LINE
  5
233
  8
0
 62
     5
 10
1024.1617187500001
 20
-52.449932175600011
 30
0.0
 11
1024.1617187500001
 21
-39.449932175599997
 31
0.0
  0
LINE
  5
234
  8
0
 62
     5
 10
1039.1617187500001
 20
-49.927432175600011
 30
0.0
 11
1041.1743617883999
 21
-48.765432175599997
 31
0.0
  0
ARC
  5
235
  8
0
 62
     5
 10
1046.1617187500001
 20
-42.949932175599997
 30
0.0
 40
11.0
 50
0.0
 51
90.0
  0
LINE
  5
236
  8
0
 62
     5
 10
1057.1617187500001
 20
-42.949932175599997
 30
0.0
 11
1057.1617187500001
 21
-57.211522174000002
 31
0.0
  0
LINE
  5
237
  8
ﾚｲﾔ_1
 62
     5
 10
1021.16171875
 20
-53.945915360100003
 30
0.0
 11
1021.16171875
 21
-54.199932175599997
 31
0.0
  0
LINE
  5
238
  8
0
 62
     5
 10
1020.96171875
 20
-53.945915360100003
 30
-3.2999999999999989
 11
1022.16171875
 21
-53.945915360100003
 31
-3.2999999999999989
  0
LINE
  5
239
  8
0
 62
     5
 10
1021.96171875
 20
-52.949932175599997
 30
0.0
 11
1020.96171875
 21
-52.949932175599997
 31
0.0
  0
LINE
  5
23A
  8
0
 62
     5
 10
1021.96171875
 20
-51.449932175999997
 30
0.0
 11
1021.96171875
 21
-52.949932175599997
 31
0.0
  0
LINE
  5
23B
  8
0
 62
     5
 10
1020.96171875
 20
-51.449932175999997
 30
-3.2999999999999989
 11
1021.96171875
 21
-51.449932175999997
 31
-3.2999999999999989
  0
LINE
  5
23C
  8
0
 62
     5
 10
1059.9117187500001
 20
-37.449932175599997
 30
0.0
 11
1059.9117187500001
 21
-58.629342628899998
 31
0.0
  0
LINE
  5
23D
  8
0
 62
     5
 10
1057.1617187500001
 20
-57.211522174000002
 30
0.0
 11
1045.1617187500001
 21
-57.211522174000002
 31
0.0
  0
LINE
  5
23E
  8
ﾚｲﾔ_1
 62
     5
 10
1021.16171875
 20
-54.199932175599997
 30
0.0
 11
1022.16171875
 21
-54.199932175599997
 31
0.0
  0
LINE
  5
23F
  8
ﾚｲﾔ_1
 62
     5
 10
1021.06171875
 20
9.550067824400001
 30
0.0
 11
1091.26171875
 21
9.550067824400001
 31
0.0
  0
LINE
  5
240
  8
ﾚｲﾔ_1
 62
     5
 10
1019.56171875
 20
8.550067824400001
 30
0.0
 11
1092.76171875
 21
8.550067824400001
 31
0.0
  0
INSERT
  5
242
  8
ﾚｲﾔ_1
  2
*X12
 10
0.0
 20
0.0
 30
0.0
  0
INSERT
  5
255
  8
ﾚｲﾔ_1
  2
*X13
 10
0.0
 20
0.0
 30
0.0
  0
LINE
  5
26A
  8
ﾚｲﾔ_1
 62
     5
 10
1032.1617187500001
 20
10.550067824399999
 30
0.0
 11
1048.1617187500001
 21
14.4500678244
 31
0.0
  0
LINE
  5
26B
  8
ﾚｲﾔ_1
 62
     5
 10
1032.2818353381001
 20
9.550067824400001
 30
0.0
 11
1048.2818353381001
 21
13.4500678244
 31
0.0
  0
LINE
  5
26C
  8
ﾚｲﾔ_1
 62
     5
 10
1021.16171875
 20
-3.449932175599999
 30
0.0
 11
1021.16171875
 21
8.550067824400001
 31
0.0
  0
LINE
  5
26D
  8
ﾚｲﾔ_1
 62
     5
 10
1018.56171875
 20
-4.949932175599999
 30
0.0
 11
1018.56171875
 21
8.050067824400001
 31
0.0
  0
ARC
  5
26E
  8
ﾚｲﾔ_1
 62
     5
 10
1021.06171875
 20
8.050067824400001
 30
0.0
 40
1.5
 50
90.0
 51
180.0
  0
ARC
  5
26F
  8
ﾚｲﾔ_1
 62
     5
 10
1021.06171875
 20
8.050067824400001
 30
0.0
 40
2.5
 50
90.0
 51
180.0
  0
LINE
  5
270
  8
ﾚｲﾔ_1
 62
     5
 10
1021.16171875
 20
-3.449932175599999
 30
0.0
 11
1021.16171875
 21
-20.449932175600001
 31
0.0
  0
ARC
  5
271
  8
ﾚｲﾔ_1
 62
     5
 10
1021.06171875
 20
-4.949932175599999
 30
0.0
 40
1.5
 50
180.0
 51
270.0
  0
ARC
  5
272
  8
ﾚｲﾔ_1
 62
     5
 10
1021.06171875
 20
-4.949932175599999
 30
0.0
 40
2.5
 50
180.0
 51
270.0
  0
LINE
  5
273
  8
ﾚｲﾔ_1
 62
     5
 10
1021.06171875
 20
-3.449932175599999
 30
0.0
 11
1021.16171875
 21
-3.449932175599999
 31
0.0
  0
LINE
  5
274
  8
ﾚｲﾔ_1
 62
     5
 10
1022.16171875
 20
-19.449932175600001
 30
0.0
 11
1022.16171875
 21
-20.449932175600001
 31
0.0
  0
LINE
  5
275
  8
ﾚｲﾔ_1
 62
     5
 10
1021.16171875
 20
-2.449932175599999
 30
0.0
 11
1021.06171875
 21
-2.449932175599999
 31
0.0
  0
LINE
  5
276
  8
ﾚｲﾔ_1
 62
     5
 10
1019.56171875
 20
-4.949932175599999
 30
0.0
 11
1019.56171875
 21
8.050067824400001
 31
0.0
  0
LINE
  5
277
  8
ﾚｲﾔ_1
 62
     5
 10
1021.06171875
 20
10.550067824399999
 30
0.0
 11
1032.1617187500001
 21
10.550067824399999
 31
0.0
  0
LINE
  5
278
  8
0
 62
     5
 10
1040.9188984269999
 20
-52.870509312199999
 30
0.0
 11
1040.0006055828001
 21
-54.461039174500002
 31
0.0
  0
LINE
  5
279
  8
0
 62
     5
 10
1043.1135393362999
 20
-30.134432175600001
 30
0.0
 11
1044.1617187500001
 21
-31.949932175600001
 31
0.0
  0
LINE
  5
27A
  8
0
 62
     5
 10
1043.1135393362999
 20
-30.134432175600001
 30
0.0
 11
1043.1135393362999
 21
-48.765432175599997
 31
0.0
  0
LINE
  5
27B
  8
0
 62
     5
 10
1045.1617187500001
 20
-46.949932175599997
 30
0.0
 11
1045.1617187500001
 21
-57.211522174000002
 31
0.0
  0
ARC
  5
27C
  8
0
 62
     5
 10
1041.6117187499999
 20
-53.270509312199998
 30
0.0
 40
0.8
 50
0.0
 51
150.0
  0
LINE
  5
27D
  8
0
 62
     5
 10
1025.6962187500001
 20
-30.134432175600001
 30
0.0
 11
1043.1135393362999
 21
-30.134432175600001
 31
0.0
  0
LINE
  5
27E
  8
0
 62
     5
 10
1025.6962187500001
 20
-48.765432175599997
 30
0.0
 11
1043.1135393362999
 21
-48.765432175599997
 31
0.0
  0
ARC
  5
27F
  8
ﾚｲﾔ_1
 62
     5
 10
882.93916367909992
 20
8.050067824400001
 30
0.0
 40
2.5
 50
0.0
 51
90.0
  0
ARC
  5
280
  8
ﾚｲﾔ_1
 62
     5
 10
882.93916367909992
 20
-4.949932175599999
 30
0.0
 40
2.5
 50
270.0
 51
0.0
  0
LINE
  5
281
  8
ﾚｲﾔ_1
 62
     5
 10
885.43916367910003
 20
-4.949932175599999
 30
0.0
 11
885.43916367910003
 21
8.050067824400001
 31
0.0
  0
LINE
  5
282
  8
ﾚｲﾔ_1
 62
     5
 10
871.83916367910001
 20
10.550067824399999
 30
0.0
 11
855.83916367910001
 21
14.4500678244
 31
0.0
  0
LINE
  5
283
  8
ﾚｲﾔ_1
  6
BORDER
 62
     3
 10
856.56543673319993
 20
-175.2078800923
 30
0.0
 11
856.56543673319993
 21
-170.9826847798
 31
0.0
  0
LINE
  5
284
  8
ﾚｲﾔ_1
  6
BORDER
 62
     3
 10
856.56543673319993
 20
-166.75748946729999
 30
0.0
 11
856.56543673319993
 21
-162.53229415480001
 31
0.0
  0
LINE
  5
285
  8
ﾚｲﾔ_1
  6
BORDER
 62
     3
 10
856.56543673319993
 20
-162.53229415480001
 30
0.0
 11
894.36973058009983
 21
-162.53229415480001
 31
0.0
  0
LINE
  5
286
  8
ﾚｲﾔ_1
  6
BORDER
 62
     3
 10
856.56543673319993
 20
-170.9826847798
 30
0.0
 11
894.36973058009983
 21
-170.9826847798
 31
0.0
  0
ARC
  5
287
  8
ﾚｲﾔ_1
 62
     5
 10
812.73916367909987
 20
-4.949932175599999
 30
0.0
 40
2.5
 50
180.0
 51
270.0
  0
LINE
  5
288
  8
ﾚｲﾔ_1
 62
     5
 10
810.23916367909987
 20
-4.949932175599999
 30
0.0
 11
810.23916367909987
 21
8.050067824400001
 31
0.0
  0
ARC
  5
289
  8
ﾚｲﾔ_1
 62
     5
 10
812.73916367909987
 20
8.050067824400001
 30
0.0
 40
2.5
 50
90.0
 51
180.0
  0
LINE
  5
28A
  8
ﾚｲﾔ_1
 62
     5
 10
823.83916367910001
 20
10.550067824399999
 30
0.0
 11
839.83916367910001
 21
14.4500678244
 31
0.0
  0
LINE
  5
28B
  8
ﾚｲﾔ_1
  6
BORDER
 62
     3
 10
839.11289062499986
 20
-166.75748946729999
 30
0.0
 11
839.11289062499986
 21
-170.9826847798
 31
0.0
  0
LINE
  5
28C
  8
ﾚｲﾔ_1
  6
BORDER
 62
     3
 10
839.11289062499986
 20
-158.30709884230001
 30
0.0
 11
839.11289062499986
 21
-162.53229415480001
 31
0.0
  0
LINE
  5
28D
  8
ﾚｲﾔ_1
  6
BORDER
 62
     3
 10
802.69160558009992
 20
-170.9826847798
 30
0.0
 11
839.11289062499986
 21
-170.9826847798
 31
0.0
  0
LINE
  5
28E
  8
ﾚｲﾔ_1
  6
BORDER
 62
     3
 10
802.69160558009992
 20
-162.53229415480001
 30
0.0
 11
839.11289062499986
 21
-162.53229415480001
 31
0.0
  0
LINE
  5
28F
  8
ﾚｲﾔ_1
 62
     5
 10
882.83916367910001
 20
-7.4499321755999981
 30
0.0
 11
882.83916367910001
 21
-162.53229415480001
 31
0.0
  0
LINE
  5
290
  8
ﾚｲﾔ_1
 62
     5
 10
812.83916367910001
 20
-7.4499321755999981
 30
0.0
 11
812.83916367910001
 21
-162.53229415480001
 31
0.0
  0
LINE
  5
291
  8
ﾚｲﾔ_1
 62
     5
 10
812.73916367909987
 20
-7.4499321755999981
 30
0.0
 11
882.93916367909992
 21
-7.4499321755999981
 31
0.0
  0
LINE
  5
292
  8
ﾚｲﾔ_1
 62
     5
 10
812.73916367909987
 20
10.550067824399999
 30
0.0
 11
882.93916367909992
 21
10.550067824399999
 31
0.0
  0
INSERT
  5
294
  8
ﾚｲﾔ_1
  2
CLUMP0
 10
0.0
 20
0.0
 30
0.0
  0
LINE
  5
2A2
  8
ﾚｲﾔ_1
  6
BORDER
 62
     3
 10
839.11289062499986
 20
-166.75748946729999
 30
0.0
 11
856.56543673319993
 21
-175.2078800923
 31
0.0
  0
LINE
  5
2A3
  8
ﾚｲﾔ_1
  6
BORDER
 62
     3
 10
839.11289062499986
 20
-158.30709884230001
 30
0.0
 11
856.56543673319993
 21
-166.75748946729999
 31
0.0
  0
LINE
  5
2A4
  8
ﾚｲﾔ_1
 62
     5
 10
839.83916367910001
 20
14.4500678244
 30
0.0
 11
855.83916367910001
 21
14.4500678244
 31
0.0
  0
LINE
  5
2A5
  8
ﾚｲﾔ_1
 62
     5
 10
1080.1617187500001
 20
10.550067824399999
 30
0.0
 11
1091.26171875
 21
10.550067824399999
 31
0.0
  0
INSERT
  5
2A7
  8
ﾚｲﾔ_1
  2
CLUMP1
 10
0.0
 20
0.0
 30
0.0
  0
LINE
  5
2B8
  8
ﾚｲﾔ_1
 62
     5
 10
636.2488707990999
 20
-7.4499321755999981
 30
0.0
 11
706.44887079909995
 21
-7.4499321755999981
 31
0.0
  0
LINE
  5
2B9
  8
ﾚｲﾔ_1
 62
     5
 10
636.2488707990999
 20
10.550067824399999
 30
0.0
 11
706.44887079909995
 21
10.550067824399999
 31
0.0
  0
LINE
  5
2BA
  8
ﾚｲﾔ_1
 62
     5
 10
695.34887079910004
 20
10.550067824399999
 30
0.0
 11
679.34887079910004
 21
14.4500678244
 31
0.0
  0
LINE
  5
2BB
  8
ﾚｲﾔ_1
  6
BORDER
 62
     3
 10
649.60824579910002
 20
-39.449932175599997
 30
0.0
 11
693.26449579910002
 21
-39.449932175599997
 31
0.0
  0
LINE
  5
2BC
  8
ﾚｲﾔ_1
  6
BORDER
 62
     3
 10
680.07514385319996
 20
-170.9826847798
 30
0.0
 11
717.87943770009997
 21
-170.9826847798
 31
0.0
  0
LINE
  5
2BD
  8
ﾚｲﾔ_1
  6
BORDER
 62
     3
 10
680.07514385319996
 20
-162.53229415480001
 30
0.0
 11
717.87943770009997
 21
-162.53229415480001
 31
0.0
  0
LINE
  5
2BE
  8
ﾚｲﾔ_1
 10
720.56878752660009
 20
-103.05208313519999
 30
0.0
 11
680.59458626829996
 21
-51.510346306300001
 31
0.0
  0
SOLID
  5
2BF
  8
ﾚｲﾔ_1
 10
680.59458626829996
 20
-51.510346306300001
 30
0.0
 11
688.84044098669995
 21
-57.770183120200002
 31
0.0
 12
685.0809801301998
 22
-57.294990513400002
 32
0.0
 13
685.0809801301998
 23
-57.294990513400002
 33
0.0
  0
SOLID
  5
2C0
  8
ﾚｲﾔ_1
 10
680.59458626829996
 20
-51.510346306300001
 30
0.0
 11
684.60578752339995
 21
-61.054451369799999
 31
0.0
 12
685.0809801301998
 22
-57.294990513400002
 32
0.0
 13
685.0809801301998
 23
-57.294990513400002
 33
0.0
  0
LINE
  5
2C2
  8
CONSTRUCTION
 62
     5
 10
695.34887079910004
 20
170.12682291670001
 30
0.0
 11
695.34887079910004
 21
122.12682291669999
 31
0.0
  0
ARC
  5
2C3
  8
CONSTRUCTION
 62
     5
 10
706.44887079909995
 20
111.0268229167
 30
0.0
 40
2.5
 50
270.0
 51
0.0
  0
LINE
  5
2C4
  8
CONSTRUCTION
 62
     5
 10
708.94887079910006
 20
181.22682291669989
 30
0.0
 11
708.94887079910006
 21
111.0268229167
 31
0.0
  0
ARC
  5
2C5
  8
CONSTRUCTION
 62
     5
 10
706.44887079909995
 20
181.22682291669989
 30
0.0
 40
2.5
 50
0.0
 51
90.0
  0
LINE
  5
2C6
  8
CONSTRUCTION
 62
     5
 10
647.34887079910004
 20
122.12682291669999
 30
0.0
 11
647.34887079910004
 21
170.12682291670001
 31
0.0
  0
LINE
  5
2C7
  8
CONSTRUCTION
 62
     5
 10
663.34887079910004
 20
138.12682291670001
 30
0.0
 11
663.34887079910004
 21
154.12682291670001
 31
0.0
  0
LINE
  5
2C8
  8
CONSTRUCTION
 62
     5
 10
663.34887079910004
 20
138.12682291670001
 30
0.0
 11
647.34887079910004
 21
122.12682291669999
 31
0.0
  0
LINE
  5
2C9
  8
CONSTRUCTION
 62
     5
 10
647.34887079910004
 20
170.12682291670001
 30
0.0
 11
663.34887079910004
 21
154.12682291670001
 31
0.0
  0
LINE
  5
2CA
  8
CONSTRUCTION
 62
     5
 10
679.34887079910004
 20
138.12682291670001
 30
0.0
 11
663.34887079910004
 21
138.12682291670001
 31
0.0
  0
LINE
  5
2CB
  8
CONSTRUCTION
 62
     5
 10
663.34887079910004
 20
154.12682291670001
 30
0.0
 11
679.34887079910004
 21
154.12682291670001
 31
0.0
  0
LINE
  5
2CC
  8
CONSTRUCTION
 62
     5
 10
679.34887079910004
 20
154.12682291670001
 30
0.0
 11
679.34887079910004
 21
138.12682291670001
 31
0.0
  0
LINE
  5
2CD
  8
CONSTRUCTION
 62
     5
 10
695.34887079910004
 20
122.12682291669999
 30
0.0
 11
647.34887079910004
 21
122.12682291669999
 31
0.0
  0
LINE
  5
2CE
  8
CONSTRUCTION
 62
     5
 10
647.34887079910004
 20
170.12682291670001
 30
0.0
 11
695.34887079910004
 21
170.12682291670001
 31
0.0
  0
LINE
  5
2CF
  8
CONSTRUCTION
 62
     5
 10
679.34887079910004
 20
154.12682291670001
 30
0.0
 11
695.34887079910004
 21
170.12682291670001
 31
0.0
  0
LINE
  5
2D0
  8
CONSTRUCTION
 62
     5
 10
679.34887079910004
 20
138.12682291670001
 30
0.0
 11
695.34887079910004
 21
122.12682291669999
 31
0.0
  0
LINE
  5
2D1
  8
CONSTRUCTION
 62
     5
 10
636.2488707990999
 20
183.72682291669989
 30
0.0
 11
706.44887079909995
 21
183.72682291669989
 31
0.0
  0
LINE
  5
2D2
  8
CONSTRUCTION
 62
     5
 10
706.44887079909995
 20
108.5268229167
 30
0.0
 11
636.2488707990999
 21
108.5268229167
 31
0.0
  0
LINE
  5
2D3
  8
ﾚｲﾔ_1
 62
     5
 10
1021.16171875
 20
-370.95394899109999
 30
0.0
 11
1021.16171875
 21
-370.4499321756
 31
0.0
  0
LINE
  5
2D4
  8
ﾚｲﾔ_1
 62
     5
 10
1021.16171875
 20
-370.95394899109999
 30
0.0
 11
1021.16171875
 21
-370.4499321756
 31
0.0
  0
LINE
  5
2D5
  8
ﾚｲﾔ_1
 62
     5
 10
1021.16171875
 20
-396.4499321756
 30
0.0
 11
1021.16171875
 21
-374.4499321756
 31
0.0
  0
LINE
  5
2D6
  8
ﾚｲﾔ_1
 62
     5
 10
1021.16171875
 20
-373.44993217519999
 30
0.0
 11
1021.16171875
 21
-371.9499321756
 31
0.0
  0
LINE
  5
2D7
  8
ﾚｲﾔ_1
 62
     5
 10
1021.16171875
 20
-396.4499321756
 30
0.0
 11
1021.16171875
 21
-374.4499321756
 31
0.0
  0
LINE
  5
2D8
  8
ﾚｲﾔ_1
 62
     5
 10
1021.16171875
 20
-373.44993217519999
 30
0.0
 11
1021.16171875
 21
-371.9499321756
 31
0.0
  0
LINE
  5
2D9
  8
ﾚｲﾔ_1
 62
     5
 10
1091.1617187500001
 20
-469.14993217559987
 30
0.0
 11
1091.96171875
 21
-469.14993217559987
 31
0.0
  0
INSERT
  5
2DA
  8
0
  6
CONTINUOUS
  2
*U60
 10
0.0
 20
0.0
 30
0.0
  0
INSERT
  5
2DB
  8
0
  6
CONTINUOUS
  2
*U61
 10
0.0
 20
0.0
 30
0.0
  0
ARC
  5
2DC
  8
ﾚｲﾔ_1
 62
     5
 10
706.44887079909995
 20
-4.949932175599999
 30
0.0
 40
2.5
 50
270.0
 51
0.0
  0
ARC
  5
2DD
  8
ﾚｲﾔ_1
 62
     5
 10
706.44887079909995
 20
8.050067824400001
 30
0.0
 40
2.5
 50
0.0
 51
90.0
  0
LINE
  5
2DE
  8
ﾚｲﾔ_1
 62
     5
 10
708.94887079910006
 20
-4.949932175599999
 30
0.0
 11
708.94887079910006
 21
8.050067824400001
 31
0.0
  0
INSERT
  5
2DF
  8
0
  6
CONTINUOUS
  2
*U62
 10
0.0
 20
0.0
 30
0.0
  0
LINE
  5
2E0
  8
ﾚｲﾔ_1
 62
     5
 10
706.34887079910004
 20
-7.4499321755999981
 30
0.0
 11
706.34887079910004
 21
-162.53229415480001
 31
0.0
  0
LINE
  5
2E1
  8
ﾚｲﾔ_1
 62
     5
 10
663.34887079910004
 20
14.4500678244
 30
0.0
 11
679.34887079910004
 21
14.4500678244
 31
0.0
  0
LINE
  5
2E2
  8
ﾚｲﾔ_1
 62
     5
 10
647.34887079910004
 20
10.550067824399999
 30
0.0
 11
663.34887079910004
 21
14.4500678244
 31
0.0
  0
LINE
  5
2E3
  8
ﾚｲﾔ_1
  6
BORDER
 62
     3
 10
680.07514385319996
 20
-166.75748946729999
 30
0.0
 11
680.07514385319996
 21
-162.53229415480001
 31
0.0
  0
LINE
  5
2E4
  8
ﾚｲﾔ_1
  6
BORDER
 62
     3
 10
680.07514385319996
 20
-175.2078800923
 30
0.0
 11
680.07514385319996
 21
-170.9826847798
 31
0.0
  0
LINE
  5
2E5
  8
ﾚｲﾔ_1
  6
BORDER
 62
     3
 10
662.62259774499989
 20
-158.30709884230001
 30
0.0
 11
680.07514385319996
 21
-166.75748946729999
 31
0.0
  0
LINE
  5
2E6
  8
ﾚｲﾔ_1
  6
BORDER
 62
     3
 10
662.62259774499989
 20
-166.75748946729999
 30
0.0
 11
680.07514385319996
 21
-175.2078800923
 31
0.0
  0
LINE
  5
2E7
  8
ﾚｲﾔ_1
  6
BORDER
 62
     3
 10
662.62259774499989
 20
-166.75748946729999
 30
0.0
 11
662.62259774499989
 21
-170.9826847798
 31
0.0
  0
LINE
  5
2E8
  8
ﾚｲﾔ_1
  6
BORDER
 62
     3
 10
662.62259774499989
 20
-158.30709884230001
 30
0.0
 11
662.62259774499989
 21
-162.53229415480001
 31
0.0
  0
CIRCLE
  5
2E9
  8
ﾚｲﾔ_1
 62
     5
 10
671.34887079910004
 20
-39.449932175599997
 30
0.0
 40
9.5
  0
CIRCLE
  5
2EA
  8
ﾚｲﾔ_1
 62
     5
 10
671.34887079910004
 20
-39.449932175599997
 30
0.0
 40
15.25
  0
LINE
  5
2EB
  8
ﾚｲﾔ_1
 62
     5
 10
636.34887079910004
 20
-7.4499321755999981
 30
0.0
 11
636.34887079910004
 21
-162.53229415480001
 31
0.0
  0
ARC
  5
2EC
  8
ﾚｲﾔ_1
 62
     5
 10
1060.6117187499999
 20
-343.05194528850001
 30
0.0
 40
0.5
 50
136.0
 51
180.0
  0
LINE
  5
2ED
  8
ﾚｲﾔ_1
 62
     5
 10
1059.4117187500001
 20
-338.27536286039998
 30
0.0
 11
1060.2284436443999
 21
-338.40333742680002
 31
0.0
  0
LINE
  5
2EE
  8
ﾚｲﾔ_1
 62
     5
 10
1059.4117187500001
 20
-337.4656014135
 30
0.0
 11
1060.3522864412
 21
-337.61298120229998
 31
0.0
  0
CIRCLE
  5
2EF
  8
ﾚｲﾔ_1
 62
     5
 10
1060.2967187500001
 20
-339.5426406322
 30
0.0
 40
1.1149999999999991
  0
LINE
  5
2F0
  8
ﾚｲﾔ_1
 62
     5
 10
1059.6765770095999
 20
-342.14888940690003
 30
0.0
 11
1061.0187944705001
 21
-340.75898253840001
 31
0.0
  0
LINE
  5
2F1
  8
ﾚｲﾔ_1
 62
     5
 10
1060.2520488498001
 20
-342.7046161033
 30
0.0
 11
1061.5942663107
 21
-341.31470923479998
 31
0.0
  0
ARC
  5
2F2
  8
ﾚｲﾔ_1
 62
     5
 10
1060.01171875
 20
-339.78646081980003
 30
0.0
 40
2.2000000000000002
 50
316.0
 51
81.094600151600005
  0
ARC
  5
2F3
  8
ﾚｲﾔ_1
 62
     5
 10
1060.01171875
 20
-339.78646081980003
 30
0.0
 40
1.399999999999999
 50
316.0
 51
81.094600151600005
  0
LINE
  5
2F4
  8
ﾚｲﾔ_1
 62
     5
 10
1060.2967187500001
 20
-340.65764063220001
 30
0.0
 11
1059.1617187500001
 21
-340.65764063220001
 31
0.0
  0
LINE
  5
2F5
  8
ﾚｲﾔ_1
 10
1007.8280872255
 20
-332.20942826959998
 30
0.0
 11
1069.6129878474001
 21
-332.20942826959998
 31
0.0
  0
LINE
  5
2F6
  8
ﾚｲﾔ_1
 62
     5
 10
1059.1017187499999
 20
-360.79323989540001
 30
0.0
 11
1060.1117187499999
 21
-358.62728790569997
 31
0.0
  0
LINE
  5
2F7
  8
ﾚｲﾔ_1
 62
     5
 10
1061.1617187500001
 20
-378.1999321756
 30
0.0
 11
1059.9117187500001
 21
-378.1999321756
 31
0.0
  0
LINE
  5
2F8
  8
ﾚｲﾔ_1
 62
     5
 10
1061.1617187500001
 20
-392.6999321756
 30
0.0
 11
1058.5780262146
 21
-392.6999321756
 31
0.0
  0
LINE
  5
2F9
  8
ﾚｲﾔ_1
 10
1069.6129878474001
 20
-407.88287860470001
 30
0.0
 11
1007.8280872255
 21
-407.88287860470001
 31
0.0
  0
LINE
  5
2FA
  8
ﾚｲﾔ_1
 62
     5
 10
1061.1617187500001
 20
-392.6999321756
 30
0.0
 11
1061.1617187500001
 21
-378.1999321756
 31
0.0
  0
LINE
  5
2FB
  8
ﾚｲﾔ_1
 62
     5
 10
1042.21171875
 20
-358.62728790569997
 30
0.0
 11
1042.21171875
 21
-343.05194528850001
 31
0.0
  0
LINE
  5
2FC
  8
ﾚｲﾔ_1
 62
     5
 10
1043.01171875
 20
-358.4499321756
 30
0.0
 11
1043.01171875
 21
-343.05194528850001
 31
0.0
  0
LINE
  5
2FD
  8
ﾚｲﾔ_1
 62
     5
 10
1060.1117187499999
 20
-358.62728790569997
 30
0.0
 11
1060.1117187499999
 21
-343.05194528850001
 31
0.0
  0
LINE
  5
2FE
  8
ﾚｲﾔ_1
 62
     5
 10
1059.31171875
 20
-358.4499321756
 30
0.0
 11
1059.31171875
 21
-343.05194528850001
 31
0.0
  0
LINE
  5
2FF
  8
ﾚｲﾔ_1
 10
1069.6129878474001
 20
-332.20942826959998
 30
0.0
 11
1069.6129878474001
 21
-407.88287860470001
 31
0.0
  0
LINE
  5
300
  8
ﾚｲﾔ_1
 10
1007.8280872255
 20
-407.88287860470001
 30
0.0
 11
1007.8280872255
 21
-332.20942826959998
 31
0.0
  0
LINE
  5
301
  8
ﾚｲﾔ_1
 62
     5
 10
1021.16171875
 20
-400.44993217559988
 30
0.0
 11
1021.16171875
 21
-399.9459153601
 31
0.0
  0
LINE
  5
302
  8
ﾚｲﾔ_1
 62
     5
 10
1021.16171875
 20
-398.9499321756
 30
0.0
 11
1021.16171875
 21
-397.449932176
 31
0.0
  0
LINE
  5
303
  8
ﾚｲﾔ_1
 62
     5
 10
1021.16171875
 20
-400.44993217559988
 30
0.0
 11
1021.16171875
 21
-399.9459153601
 31
0.0
  0
LINE
  5
304
  8
ﾚｲﾔ_1
 62
     5
 10
1021.16171875
 20
-398.9499321756
 30
0.0
 11
1021.16171875
 21
-397.449932176
 31
0.0
  0
ARC
  5
305
  8
ﾚｲﾔ_1
 62
     5
 10
1048.9117187500001
 20
-387.4499321756
 30
0.0
 40
11.0
 50
270.0
 51
0.0
  0
LINE
  5
306
  8
ﾚｲﾔ_1
 62
     5
 10
1022.16171875
 20
-401.4499321756
 30
0.0
 11
1022.16171875
 21
-400.44993217559988
 31
0.0
  0
LINE
  5
307
  8
ﾚｲﾔ_1
 62
     5
 10
1024.1617187500001
 20
-398.4499321756
 30
0.0
 11
1024.1617187500001
 21
-385.4499321756
 31
0.0
  0
LINE
  5
308
  8
ﾚｲﾔ_1
 62
     5
 10
1021.16171875
 20
-398.9499321756
 30
0.0
 11
1021.16171875
 21
-397.449932176
 31
0.0
  0
LINE
  5
309
  8
ﾚｲﾔ_1
 62
     5
 10
1021.16171875
 20
-400.1999321756
 30
0.0
 11
1021.16171875
 21
-399.9459153601
 31
0.0
  0
LINE
  5
30A
  8
ﾚｲﾔ_1
 62
     5
 10
1024.1617187500001
 20
-396.29993217559991
 30
0.0
 11
1025.6962187500001
 21
-394.76543217559998
 31
0.0
  0
LINE
  5
30B
  8
ﾚｲﾔ_1
 62
     5
 10
1024.1617187500001
 20
-398.4499321756
 30
0.0
 11
1025.3228319171999
 21
-400.46103917449989
 31
0.0
  0
LINE
  5
30C
  8
ﾚｲﾔ_1
 62
     5
 10
1022.16171875
 20
-399.9459153601
 30
0.0
 11
1022.16171875
 21
-401.94993217569998
 31
0.0
  0
LINE
  5
30D
  8
ﾚｲﾔ_1
 62
     5
 10
1021.96171875
 20
-397.449932176
 30
0.0
 11
1021.96171875
 21
-398.9499321756
 31
0.0
  0
LINE
  5
30E
  8
ﾚｲﾔ_1
 62
     5
 10
1021.96171875
 20
-398.9499321756
 30
0.0
 11
1020.96171875
 21
-398.9499321756
 31
0.0
  0
LINE
  5
30F
  8
ﾚｲﾔ_1
 62
     5
 10
1020.96171875
 20
-398.9499321756
 30
0.0
 11
1020.96171875
 21
-399.94993217389998
 31
0.0
  0
LINE
  5
310
  8
ﾚｲﾔ_1
 62
     5
 10
1024.1617187500001
 20
-396.4499321756
 30
0.0
 11
1020.96171875
 21
-396.4499321756
 31
0.0
  0
LINE
  5
311
  8
ﾚｲﾔ_1
 62
     5
 10
1026.46171875
 20
-401.94993217569998
 30
0.0
 11
1026.46171875
 21
-400.46103917449989
 31
0.0
  0
LINE
  5
312
  8
ﾚｲﾔ_1
 62
     5
 10
1021.16171875
 20
-404.44993217559988
 30
0.0
 11
1021.16171875
 21
-400.1999321756
 31
0.0
  0
LINE
  5
313
  8
ﾚｲﾔ_1
 62
     5
 10
1021.16171875
 20
-400.44993217559988
 30
0.0
 11
1021.16171875
 21
-469.14993217559987
 31
0.0
  0
INSERT
  5
315
  8
寸法線
  2
BALLON7
 10
0.0
 20
0.0
 30
0.0
  0
INSERT
  5
31F
  8
寸法線
  2
BALLON8
 10
0.0
 20
0.0
 30
0.0
  0
LINE
  5
328
  8
ﾚｲﾔ_1
 62
     5
 10
1059.9117187500001
 20
-387.4499321756
 30
0.0
 11
1059.9117187500001
 21
-366.27052172229997
 31
0.0
  0
LINE
  5
329
  8
ﾚｲﾔ_1
 62
     5
 10
1025.6962187500001
 20
-394.76543217559998
 30
0.0
 11
1025.6962187500001
 21
-376.1344321755999
 31
0.0
  0
LINE
  5
32A
  8
ﾚｲﾔ_1
 62
     5
 10
1024.1617187500001
 20
-372.4499321756
 30
0.0
 11
1024.1617187500001
 21
-385.4499321756
 31
0.0
  0
LINE
  5
32B
  8
ﾚｲﾔ_1
 62
     5
 10
1021.16171875
 20
-396.4499321756
 30
0.0
 11
1021.16171875
 21
-374.4499321756
 31
0.0
  0
ARC
  5
32C
  8
ﾚｲﾔ_1
  6
CENTER
 62
     3
 10
1046.1617187500001
 20
-380.4499321756
 30
0.0
 40
5.0
 50
270.0
 51
0.0
  0
LINE
  5
32D
  8
ﾚｲﾔ_1
 62
     5
 10
1039.1617187500001
 20
-374.97243217559998
 30
0.0
 11
1039.1617187500001
 21
-385.4499321756
 31
0.0
  0
LINE
  5
32E
  8
ﾚｲﾔ_1
 62
     5
 10
1044.1617187500001
 20
-392.9499321756
 30
0.0
 11
1044.1617187500001
 21
-377.9499321756
 31
0.0
  0
LINE
  5
32F
  8
ﾚｲﾔ_1
 62
     5
 10
1043.1135393362999
 20
-394.76543217559998
 30
0.0
 11
1043.1135393362999
 21
-376.1344321755999
 31
0.0
  0
LINE
  5
330
  8
ﾚｲﾔ_1
 62
     5
 10
1059.1017187499999
 20
-361.4499321756
 30
0.0
 11
1043.22171875
 21
-361.4499321756
 31
0.0
  0
LINE
  5
331
  8
ﾚｲﾔ_1
 62
     5
 10
1057.1617187500001
 20
-381.9499321756
 30
0.0
 11
1057.1617187500001
 21
-367.68834217720001
 31
0.0
  0
LINE
  5
332
  8
ﾚｲﾔ_1
 62
     5
 10
1058.30171875
 20
-360.61588416529997
 30
0.0
 11
1044.02171875
 21
-360.61588416529997
 31
0.0
  0
INSERT
  5
333
  8
0
  6
CONTINUOUS
  2
*U65
 10
0.0
 20
0.0
 30
0.0
  0
LINE
  5
334
  8
ﾚｲﾔ_1
 62
     5
 10
1022.16171875
 20
-401.94993217569998
 30
0.0
 11
1026.46171875
 21
-401.94993217569998
 31
0.0
  0
LINE
  5
335
  8
ﾚｲﾔ_1
 62
     5
 10
1020.96171875
 20
-396.4499321756
 30
0.0
 11
1020.96171875
 21
-397.449932176
 31
0.0
  0
LINE
  5
336
  8
ﾚｲﾔ_1
 62
     5
 10
1020.96171875
 20
-397.449932176
 30
-3.2999999999999989
 11
1021.96171875
 21
-397.449932176
 31
-3.2999999999999989
  0
LINE
  5
337
  8
ﾚｲﾔ_1
 62
     5
 10
1020.96171875
 20
-399.9459153601
 30
-3.2999999999999989
 11
1022.16171875
 21
-399.9459153601
 31
-3.2999999999999989
  0
LINE
  5
338
  8
ﾚｲﾔ_1
 62
     5
 10
1024.1617187500001
 20
-400.46103917449989
 30
0.0
 11
1024.1617187500001
 21
-396.4499321756
 31
0.0
  0
LINE
  5
339
  8
ﾚｲﾔ_1
 62
     5
 10
1026.46171875
 20
-400.46103917449989
 30
0.0
 11
1024.1617187500001
 21
-400.46103917449989
 31
0.0
  0
LINE
  5
33A
  8
ﾚｲﾔ_1
 62
     5
 10
1043.1135393362999
 20
-394.76543217559998
 30
0.0
 11
1044.1617187500001
 21
-392.9499321756
 31
0.0
  0
LINE
  5
33B
  8
ﾚｲﾔ_1
 62
     5
 10
1046.1617187500001
 20
-392.9499321756
 30
0.0
 11
1044.1617187500001
 21
-392.9499321756
 31
0.0
  0
LINE
  5
33C
  8
ﾚｲﾔ_1
 62
     5
 10
1039.1617187500001
 20
-395.92743217560002
 30
0.0
 11
1041.1743617883999
 21
-394.76543217559998
 31
0.0
  0
LINE
  5
33D
  8
ﾚｲﾔ_1
 62
     5
 10
1039.1617187500001
 20
-395.92743217560002
 30
0.0
 11
1039.1617187500001
 21
-385.4499321756
 31
0.0
  0
LINE
  5
33E
  8
ﾚｲﾔ_1
 62
     5
 10
1025.6962187500001
 20
-394.76543217559998
 30
0.0
 11
1043.1135393362999
 21
-394.76543217559998
 31
0.0
  0
LINE
  5
33F
  8
ﾚｲﾔ_1
 62
     5
 10
1025.3228319171999
 20
-400.46103917449989
 30
0.0
 11
1040.0006055828001
 21
-400.46103917449989
 31
0.0
  0
LINE
  5
340
  8
ﾚｲﾔ_1
 62
     5
 10
1048.9117187500001
 20
-398.4499321756
 30
0.0
 11
1041.1617187500001
 21
-398.4499321756
 31
0.0
  0
LINE
  5
341
  8
ﾚｲﾔ_1
 62
     5
 10
1041.1617187500001
 20
-398.4499321756
 30
0.0
 11
1040.0006055828001
 21
-400.46103917449989
 31
0.0
  0
LINE
  5
342
  8
ﾚｲﾔ_1
 62
     5
 10
1020.36171875
 20
-469.14993217559987
 30
0.0
 11
1021.16171875
 21
-469.14993217559987
 31
0.0
  0
ARC
  5
343
  8
ﾚｲﾔ_1
 62
     5
 10
1046.1617187500001
 20
-381.9499321756
 30
0.0
 40
11.0
 50
270.0
 51
0.0
  0
LINE
  5
344
  8
ﾚｲﾔ_1
  6
CENTER
 62
     3
 10
1016.16171875
 20
-385.4499321756
 30
0.0
 11
1039.6617187500001
 21
-385.4499321756
 31
0.0
  0
LINE
  5
345
  8
ﾚｲﾔ_1
 62
     5
 10
1024.53421875
 20
-395.92743217560002
 30
0.0
 11
1039.1617187500001
 21
-395.92743217560002
 31
0.0
  0
LINE
  5
346
  8
ﾚｲﾔ_1
  6
CENTER
 62
     3
 10
1019.16171875
 20
-385.4499321756
 30
0.0
 11
1046.1617187500001
 21
-385.4499321756
 31
0.0
  0
LINE
  5
347
  8
ﾚｲﾔ_1
 62
     5
 10
1021.16171875
 20
-400.1999321756
 30
0.0
 11
1022.16171875
 21
-400.1999321756
 31
0.0
  0
LINE
  5
348
  8
ﾚｲﾔ_1
 62
     5
 10
1022.16171875
 20
-401.4499321756
 30
0.0
 11
1022.16171875
 21
-400.44993217559988
 31
0.0
  0
LINE
  5
349
  8
ﾚｲﾔ_1
 62
     5
 10
1024.1617187500001
 20
-372.4499321756
 30
0.0
 11
1025.3228319171999
 21
-370.43882517669999
 31
0.0
  0
LINE
  5
34A
  8
ﾚｲﾔ_1
 62
     5
 10
1021.96171875
 20
-373.44993217519999
 30
0.0
 11
1021.96171875
 21
-371.9499321756
 31
0.0
  0
LINE
  5
34B
  8
ﾚｲﾔ_1
 62
     5
 10
1021.96171875
 20
-371.9499321756
 30
0.0
 11
1020.96171875
 21
-371.9499321756
 31
0.0
  0
LINE
  5
34C
  8
ﾚｲﾔ_1
 62
     5
 10
1020.96171875
 20
-371.9499321756
 30
0.0
 11
1020.96171875
 21
-370.94993217730001
 31
0.0
  0
LINE
  5
34D
  8
ﾚｲﾔ_1
 62
     5
 10
1025.3228319171999
 20
-370.43882517669999
 30
0.0
 11
1040.0006055828001
 21
-370.43882517669999
 31
0.0
  0
LINE
  5
34E
  8
ﾚｲﾔ_1
 62
     5
 10
1026.46171875
 20
-370.43882517669999
 30
0.0
 11
1024.1617187500001
 21
-370.43882517669999
 31
0.0
  0
LINE
  5
34F
  8
ﾚｲﾔ_1
 62
     5
 10
1024.1617187500001
 20
-374.4499321756
 30
0.0
 11
1020.96171875
 21
-374.4499321756
 31
0.0
  0
LINE
  5
350
  8
ﾚｲﾔ_1
 62
     5
 10
1024.1617187500001
 20
-374.59993217559997
 30
0.0
 11
1025.6962187500001
 21
-376.1344321755999
 31
0.0
  0
LINE
  5
351
  8
ﾚｲﾔ_1
 62
     5
 10
1020.96171875
 20
-373.44993217519999
 30
-3.2999999999999989
 11
1021.96171875
 21
-373.44993217519999
 31
-3.2999999999999989
  0
LINE
  5
352
  8
ﾚｲﾔ_1
 62
     5
 10
1026.46171875
 20
-368.94993217550001
 30
0.0
 11
1026.46171875
 21
-370.43882517669999
 31
0.0
  0
LINE
  5
353
  8
ﾚｲﾔ_1
 62
     5
 10
1020.96171875
 20
-374.4499321756
 30
0.0
 11
1020.96171875
 21
-373.44993217519999
 31
0.0
  0
LINE
  5
354
  8
ﾚｲﾔ_1
 62
     5
 10
1022.16171875
 20
-368.94993217550001
 30
0.0
 11
1026.46171875
 21
-368.94993217550001
 31
0.0
  0
LINE
  5
355
  8
ﾚｲﾔ_1
 62
     5
 10
1022.16171875
 20
-370.95394899109999
 30
0.0
 11
1022.16171875
 21
-368.94993217550001
 31
0.0
  0
LINE
  5
356
  8
ﾚｲﾔ_1
 62
     5
 10
1058.30171875
 20
-361.4499321756
 30
0.0
 11
1058.30171875
 21
-360.61588416529997
 31
0.0
  0
LINE
  5
357
  8
ﾚｲﾔ_1
 62
     5
 10
1059.1017187499999
 20
-361.4499321756
 30
0.0
 11
1059.1017187499999
 21
-360.79323989540001
 31
0.0
  0
LINE
  5
358
  8
ﾚｲﾔ_1
 62
     5
 10
1059.31171875
 20
-358.4499321756
 30
0.0
 11
1043.01171875
 21
-358.4499321756
 31
0.0
  0
LINE
  5
359
  8
ﾚｲﾔ_1
 62
     5
 10
1024.1617187500001
 20
-370.43882517669999
 30
0.0
 11
1024.1617187500001
 21
-374.4499321756
 31
0.0
  0
LINE
  5
35A
  8
ﾚｲﾔ_1
 62
     5
 10
1024.53421875
 20
-374.97243217559998
 30
0.0
 11
1039.1617187500001
 21
-374.97243217559998
 31
0.0
  0
LINE
  5
35B
  8
ﾚｲﾔ_1
 62
     5
 10
1021.16171875
 20
-370.6999321756
 30
0.0
 11
1022.16171875
 21
-370.6999321756
 31
0.0
  0
LINE
  5
35C
  8
ﾚｲﾔ_1
 62
     5
 10
1022.16171875
 20
-370.4499321756
 30
0.0
 11
1022.16171875
 21
-369.4499321756
 31
0.0
  0
LINE
  5
35D
  8
ﾚｲﾔ_1
 62
     5
 10
1058.30171875
 20
-360.61588416529997
 30
0.0
 11
1059.31171875
 21
-358.4499321756
 31
0.0
  0
LINE
  5
35E
  8
ﾚｲﾔ_1
 62
     5
 10
1057.1617187500001
 20
-367.68834217720001
 30
0.0
 11
1045.1617187500001
 21
-367.68834217720001
 31
0.0
  0
LINE
  5
35F
  8
ﾚｲﾔ_1
 62
     5
 10
1057.1617187500001
 20
-367.68834217720001
 30
0.0
 11
1058.26171875
 21
-361.4499321756
 31
0.0
  0
LINE
  5
360
  8
ﾚｲﾔ_1
 62
     5
 10
1043.1617187500001
 20
-358.4499321756
 30
0.0
 11
1059.1617187500001
 21
-358.4499321756
 31
0.0
  0
LINE
  5
361
  8
ﾚｲﾔ_1
 62
     5
 10
1059.9117187500001
 20
-366.27052172229997
 30
0.0
 11
1059.06171875
 21
-361.4499321756
 31
0.0
  0
LINE
  5
362
  8
ﾚｲﾔ_1
 62
     5
 10
1042.9117187500001
 20
-338.25969362249998
 30
0.0
 11
1042.9117187500001
 21
-337.4499321756
 31
0.0
  0
LINE
  5
363
  8
ﾚｲﾔ_1
 62
     5
 10
1059.4117187500001
 20
-338.25969362249998
 30
0.0
 11
1059.4117187500001
 21
-337.4499321756
 31
0.0
  0
ARC
  5
364
  8
ﾚｲﾔ_1
 62
     5
 10
1060.6117187499999
 20
-343.05194528850001
 30
0.0
 40
1.3
 50
136.0
 51
180.0
  0
LINE
  5
365
  8
ﾚｲﾔ_1
 62
     5
 10
1042.9117187500001
 20
-337.4656014135
 30
0.0
 11
1041.9711510587999
 21
-337.61298120229998
 31
0.0
  0
LINE
  5
366
  8
ﾚｲﾔ_1
 62
     5
 10
1059.31171875
 20
-342.52671119490009
 30
0.0
 11
1059.1617187500001
 21
-342.52671119490009
 31
0.0
  0
LINE
  5
367
  8
ﾚｲﾔ_1
 62
     5
 10
1059.4117187500001
 20
-338.25969362249998
 30
0.0
 11
1059.1617187500001
 21
-338.25969362249998
 31
0.0
  0
LINE
  5
368
  8
ﾚｲﾔ_1
 62
     5
 10
1059.4117187500001
 20
-337.4499321756
 30
0.0
 11
1059.1617187500001
 21
-337.4499321756
 31
0.0
  0
LINE
  5
369
  8
ﾚｲﾔ_1
 62
     5
 10
1045.1617187500001
 20
-377.9499321756
 30
0.0
 11
1044.1617187500001
 21
-377.9499321756
 31
0.0
  0
LINE
  5
36A
  8
ﾚｲﾔ_1
 62
     5
 10
1045.1617187500001
 20
-377.9499321756
 30
0.0
 11
1045.1617187500001
 21
-367.68834217720001
 31
0.0
  0
LINE
  5
36B
  8
ﾚｲﾔ_1
 62
     5
 10
1044.02171875
 20
-361.4499321756
 30
0.0
 11
1044.02171875
 21
-360.61588416529997
 31
0.0
  0
LINE
  5
36C
  8
ﾚｲﾔ_1
 62
     5
 10
1045.1617187500001
 20
-367.68834217720001
 30
0.0
 11
1044.06171875
 21
-361.4499321756
 31
0.0
  0
LINE
  5
36D
  8
ﾚｲﾔ_1
 62
     5
 10
1040.9188984269999
 20
-372.029355039
 30
0.0
 11
1040.0006055828001
 21
-370.43882517669999
 31
0.0
  0
LINE
  5
36E
  8
ﾚｲﾔ_1
 62
     5
 10
1042.4117187500001
 20
-371.62935503900002
 30
0.0
 11
1042.4117187500001
 21
-366.27052172229997
 31
0.0
  0
LINE
  5
36F
  8
ﾚｲﾔ_1
 62
     5
 10
1042.4117187500001
 20
-366.27052172229997
 30
0.0
 11
1043.26171875
 21
-361.4499321756
 31
0.0
  0
ARC
  5
370
  8
ﾚｲﾔ_1
 62
     5
 10
1041.6117187499999
 20
-371.62935503900002
 30
0.0
 40
0.8
 50
210.0
 51
0.0
  0
LINE
  5
371
  8
ﾚｲﾔ_1
 62
     5
 10
1039.1617187500001
 20
-374.97243217559998
 30
0.0
 11
1041.1743617883999
 21
-376.1344321755999
 31
0.0
  0
LINE
  5
372
  8
ﾚｲﾔ_1
 62
     5
 10
1043.22171875
 20
-361.4499321756
 30
0.0
 11
1043.22171875
 21
-360.79323989540001
 31
0.0
  0
LINE
  5
373
  8
ﾚｲﾔ_1
 62
     5
 10
1025.6962187500001
 20
-376.1344321755999
 30
0.0
 11
1043.1135393362999
 21
-376.1344321755999
 31
0.0
  0
LINE
  5
374
  8
ﾚｲﾔ_1
 62
     5
 10
1043.22171875
 20
-360.79323989540001
 30
0.0
 11
1042.21171875
 21
-358.62728790569997
 31
0.0
  0
LINE
  5
375
  8
ﾚｲﾔ_1
 62
     5
 10
1044.02171875
 20
-360.61588416529997
 30
0.0
 11
1043.01171875
 21
-358.4499321756
 31
0.0
  0
LINE
  5
376
  8
ﾚｲﾔ_1
 62
     5
 10
1044.1617187500001
 20
-377.9499321756
 30
0.0
 11
1043.1135393362999
 21
-376.1344321755999
 31
0.0
  0
LINE
  5
377
  8
ﾚｲﾔ_1
 62
     5
 10
1022.16171875
 20
-370.4499321756
 30
0.0
 11
1022.16171875
 21
-369.4499321756
 31
0.0
  0
LINE
  5
378
  8
ﾚｲﾔ_1
 62
     5
 10
1020.96171875
 20
-370.95394899109999
 30
-3.2999999999999989
 11
1022.16171875
 21
-370.95394899109999
 31
-3.2999999999999989
  0
LINE
  5
379
  8
ﾚｲﾔ_1
 62
     5
 10
1021.16171875
 20
-373.44993217519999
 30
0.0
 11
1021.16171875
 21
-371.9499321756
 31
0.0
  0
LINE
  5
37A
  8
ﾚｲﾔ_1
 62
     5
 10
1021.16171875
 20
-370.95394899109999
 30
0.0
 11
1021.16171875
 21
-370.6999321756
 31
0.0
  0
POLYLINE
  8
図枠
  5
93F
  66
     1
 10
0.000000
 20
0.000000
 30
0.000000
  70
     8
  0
VERTEX
  8
図枠
  5
940
 10
955.771
 20
-713.274
 30
0.000000
  70
    32
  0
VERTEX
  8
図枠
  5
941
 10
955.838
 20
-713.296
 30
0.000000
  70
    32
  0
VERTEX
  8
図枠
  5
942
 10
955.906
 20
-713.317
 30
0.000000
  70
    32
  0
VERTEX
  8
図枠
  5
943
 10
955.973
 20
-713.338
 30
0.000000
  70
    32
  0
VERTEX
  8
図枠
  5
944
 10
956.040
 20
-713.359
 30
0.000000
  70
    32
  0
VERTEX
  8
図枠
  5
945
 10
956.108
 20
-713.380
 30
0.000000
  70
    32
  0
VERTEX
  8
図枠
  5
946
 10
956.176
 20
-713.401
 30
0.000000
  70
    32
  0
VERTEX
  8
図枠
  5
947
 10
956.243
 20
-713.422
 30
0.000000
  70
    32
  0
VERTEX
  8
図枠
  5
948
 10
956.311
 20
-713.443
 30
0.000000
  70
    32
  0
VERTEX
  8
図枠
  5
949
 10
956.379
 20
-713.464
 30
0.000000
  70
    32
  0
VERTEX
  8
図枠
  5
94A
 10
956.446
 20
-713.484
 30
0.000000
  70
    32
  0
VERTEX
  8
図枠
  5
94B
 10
956.514
 20
-713.505
 30
0.000000
  70
    32
  0
VERTEX
  8
図枠
  5
94C
 10
956.582
 20
-713.525
 30
0.000000
  70
    32
  0
VERTEX
  8
図枠
  5
94D
 10
956.650
 20
-713.545
 30
0.000000
  70
    32
  0
VERTEX
  8
図枠
  5
94E
 10
956.718
 20
-713.565
 30
0.000000
  70
    32
  0
VERTEX
  8
図枠
  5
94F
 10
956.786
 20
-713.585
 30
0.000000
  70
    32
  0
VERTEX
  8
図枠
  5
950
 10
956.854
 20
-713.605
 30
0.000000
  70
    32
  0
VERTEX
  8
図枠
  5
951
 10
956.922
 20
-713.625
 30
0.000000
  70
    32
  0
VERTEX
  8
図枠
  5
952
 10
956.991
 20
-713.645
 30
0.000000
  70
    32
  0
VERTEX
  8
図枠
  5
953
 10
957.059
 20
-713.665
 30
0.000000
  70
    32
  0
VERTEX
  8
図枠
  5
954
 10
957.127
 20
-713.684
 30
0.000000
  70
    32
  0
VERTEX
  8
図枠
  5
955
 10
957.196
 20
-713.704
 30
0.000000
  70
    32
  0
VERTEX
  8
図枠
  5
956
 10
957.264
 20
-713.723
 30
0.000000
  70
    32
  0
VERTEX
  8
図枠
  5
957
 10
957.332
 20
-713.742
 30
0.000000
  70
    32
  0
VERTEX
  8
図枠
  5
958
 10
957.401
 20
-713.762
 30
0.000000
  70
    32
  0
VERTEX
  8
図枠
  5
959
 10
957.469
 20
-713.781
 30
0.000000
  70
    32
  0
VERTEX
  8
図枠
  5
95A
 10
957.538
 20
-713.800
 30
0.000000
  70
    32
  0
VERTEX
  8
図枠
  5
95B
 10
957.607
 20
-713.819
 30
0.000000
  70
    32
  0
VERTEX
  8
図枠
  5
95C
 10
957.675
 20
-713.838
 30
0.000000
  70
    32
  0
VERTEX
  8
図枠
  5
95D
 10
957.744
 20
-713.857
 30
0.000000
  70
    32
  0
VERTEX
  8
図枠
  5
95E
 10
957.813
 20
-713.875
 30
0.000000
  70
    32
  0
VERTEX
  8
図枠
  5
95F
 10
957.882
 20
-713.894
 30
0.000000
  70
    32
  0
VERTEX
  8
図枠
  5
960
 10
957.951
 20
-713.913
 30
0.000000
  70
    32
  0
VERTEX
  8
図枠
  5
961
 10
958.019
 20
-713.931
 30
0.000000
  70
    32
  0
VERTEX
  8
図枠
  5
962
 10
958.088
 20
-713.949
 30
0.000000
  70
    32
  0
VERTEX
  8
図枠
  5
963
 10
958.157
 20
-713.968
 30
0.000000
  70
    32
  0
VERTEX
  8
図枠
  5
964
 10
958.226
 20
-713.986
 30
0.000000
  70
    32
  0
VERTEX
  8
図枠
  5
965
 10
958.296
 20
-714.004
 30
0.000000
  70
    32
  0
VERTEX
  8
図枠
  5
966
 10
958.365
 20
-714.022
 30
0.000000
  70
    32
  0
VERTEX
  8
図枠
  5
967
 10
958.434
 20
-714.040
 30
0.000000
  70
    32
  0
VERTEX
  8
図枠
  5
968
 10
958.503
 20
-714.058
 30
0.000000
  70
    32
  0
VERTEX
  8
図枠
  5
969
 10
958.572
 20
-714.076
 30
0.000000
  70
    32
  0
VERTEX
  8
図枠
  5
96A
 10
958.641
 20
-714.094
 30
0.000000
  70
    32
  0
VERTEX
  8
図枠
  5
96B
 10
958.711
 20
-714.112
 30
0.000000
  70
    32
  0
VERTEX
  8
図枠
  5
96C
 10
958.780
 20
-714.129
 30
0.000000
  70
    32
  0
VERTEX
  8
図枠
  5
96D
 10
958.849
 20
-714.147
 30
0.000000
  70
    32
  0
VERTEX
  8
図枠
  5
96E
 10
958.919
 20
-714.165
 30
0.000000
  70
    32
  0
VERTEX
  8
図枠
  5
96F
 10
958.988
 20
-714.182
 30
0.000000
  70
    32
  0
VERTEX
  8
図枠
  5
970
 10
959.058
 20
-714.199
 30
0.000000
  70
    32
  0
VERTEX
  8
図枠
  5
971
 10
959.127
 20
-714.217
 30
0.000000
  70
    32
  0
VERTEX
  8
図枠
  5
972
 10
959.197
 20
-714.234
 30
0.000000
  70
    32
  0
VERTEX
  8
図枠
  5
973
 10
959.267
 20
-714.251
 30
0.000000
  70
    32
  0
VERTEX
  8
図枠
  5
974
 10
959.336
 20
-714.268
 30
0.000000
  70
    32
  0
VERTEX
  8
図枠
  5
975
 10
959.406
 20
-714.285
 30
0.000000
  70
    32
  0
VERTEX
  8
図枠
  5
976
 10
959.476
 20
-714.302
 30
0.000000
  70
    32
  0
VERTEX
  8
図枠
  5
977
 10
959.545
 20
-714.319
 30
0.000000
  70
    32
  0
VERTEX
  8
図枠
  5
978
 10
959.615
 20
-714.336
 30
0.000000
  70
    32
  0
VERTEX
  8
図枠
  5
979
 10
959.685
 20
-714.353
 30
0.000000
  70
    32
  0
VERTEX
  8
図枠
  5
97A
 10
959.755
 20
-714.370
 30
0.000000
  70
    32
  0
VERTEX
  8
図枠
  5
97B
 10
959.825
 20
-714.387
 30
0.000000
  70
    32
  0
VERTEX
  8
図枠
  5
97C
 10
959.894
 20
-714.403
 30
0.000000
  70
    32
  0
VERTEX
  8
図枠
  5
97D
 10
959.964
 20
-714.420
 30
0.000000
  70
    32
  0
VERTEX
  8
図枠
  5
97E
 10
960.034
 20
-714.436
 30
0.000000
  70
    32
  0
VERTEX
  8
図枠
  5
97F
 10
960.104
 20
-714.453
 30
0.000000
  70
    32
  0
VERTEX
  8
図枠
  5
980
 10
960.174
 20
-714.469
 30
0.000000
  70
    32
  0
VERTEX
  8
図枠
  5
981
 10
960.244
 20
-714.486
 30
0.000000
  70
    32
  0
VERTEX
  8
図枠
  5
982
 10
960.314
 20
-714.502
 30
0.000000
  70
    32
  0
VERTEX
  8
図枠
  5
983
 10
960.385
 20
-714.518
 30
0.000000
  70
    32
  0
VERTEX
  8
図枠
  5
984
 10
960.455
 20
-714.535
 30
0.000000
  70
    32
  0
VERTEX
  8
図枠
  5
985
 10
960.525
 20
-714.551
 30
0.000000
  70
    32
  0
VERTEX
  8
図枠
  5
986
 10
960.595
 20
-714.567
 30
0.000000
  70
    32
  0
VERTEX
  8
図枠
  5
987
 10
960.665
 20
-714.583
 30
0.000000
  70
    32
  0
VERTEX
  8
図枠
  5
988
 10
960.735
 20
-714.599
 30
0.000000
  70
    32
  0
VERTEX
  8
図枠
  5
989
 10
960.806
 20
-714.615
 30
0.000000
  70
    32
  0
VERTEX
  8
図枠
  5
98A
 10
960.876
 20
-714.631
 30
0.000000
  70
    32
  0
VERTEX
  8
図枠
  5
98B
 10
960.946
 20
-714.647
 30
0.000000
  70
    32
  0
VERTEX
  8
図枠
  5
98C
 10
961.017
 20
-714.663
 30
0.000000
  70
    32
  0
VERTEX
  8
図枠
  5
98D
 10
961.087
 20
-714.679
 30
0.000000
  70
    32
  0
VERTEX
  8
図枠
  5
98E
 10
961.157
 20
-714.694
 30
0.000000
  70
    32
  0
VERTEX
  8
図枠
  5
98F
 10
961.228
 20
-714.710
 30
0.000000
  70
    32
  0
VERTEX
  8
図枠
  5
990
 10
961.298
 20
-714.726
 30
0.000000
  70
    32
  0
VERTEX
  8
図枠
  5
991
 10
961.369
 20
-714.741
 30
0.000000
  70
    32
  0
VERTEX
  8
図枠
  5
992
 10
961.439
 20
-714.757
 30
0.000000
  70
    32
  0
VERTEX
  8
図枠
  5
993
 10
961.510
 20
-714.773
 30
0.000000
  70
    32
  0
VERTEX
  8
図枠
  5
994
 10
961.580
 20
-714.788
 30
0.000000
  70
    32
  0
VERTEX
  8
図枠
  5
995
 10
961.651
 20
-714.804
 30
0.000000
  70
    32
  0
VERTEX
  8
図枠
  5
996
 10
961.721
 20
-714.819
 30
0.000000
  70
    32
  0
VERTEX
  8
図枠
  5
997
 10
961.792
 20
-714.835
 30
0.000000
  70
    32
  0
VERTEX
  8
図枠
  5
998
 10
961.862
 20
-714.850
 30
0.000000
  70
    32
  0
VERTEX
  8
図枠
  5
999
 10
961.933
 20
-714.865
 30
0.000000
  70
    32
  0
VERTEX
  8
図枠
  5
99A
 10
962.003
 20
-714.881
 30
0.000000
  70
    32
  0
VERTEX
  8
図枠
  5
99B
 10
962.074
 20
-714.896
 30
0.000000
  70
    32
  0
VERTEX
  8
図枠
  5
99C
 10
962.145
 20
-714.911
 30
0.000000
  70
    32
  0
VERTEX
  8
図枠
  5
99D
 10
962.215
 20
-714.926
 30
0.000000
  70
    32
  0
VERTEX
  8
図枠
  5
99E
 10
962.286
 20
-714.942
 30
0.000000
  70
    32
  0
VERTEX
  8
図枠
  5
99F
 10
962.357
 20
-714.957
 30
0.000000
  70
    32
  0
VERTEX
  8
図枠
  5
9A0
 10
962.427
 20
-714.972
 30
0.000000
  70
    32
  0
VERTEX
  8
図枠
  5
9A1
 10
962.498
 20
-714.987
 30
0.000000
  70
    32
  0
VERTEX
  8
図枠
  5
9A2
 10
962.569
 20
-715.002
 30
0.000000
  70
    32
  0
VERTEX
  8
図枠
  5
9A3
 10
962.640
 20
-715.017
 30
0.000000
  70
    32
  0
VERTEX
  8
図枠
  5
9A4
 10
962.710
 20
-715.032
 30
0.000000
  70
    32
  0
VERTEX
  8
図枠
  5
9A5
 10
962.781
 20
-715.047
 30
0.000000
  70
    32
  0
VERTEX
  8
図枠
  5
9A6
 10
962.852
 20
-715.062
 30
0.000000
  70
    32
  0
VERTEX
  8
図枠
  5
9A7
 10
962.923
 20
-715.077
 30
0.000000
  70
    32
  0
VERTEX
  8
図枠
  5
9A8
 10
962.994
 20
-715.092
 30
0.000000
  70
    32
  0
VERTEX
  8
図枠
  5
9A9
 10
963.064
 20
-715.107
 30
0.000000
  70
    32
  0
VERTEX
  8
図枠
  5
9AA
 10
963.135
 20
-715.122
 30
0.000000
  70
    32
  0
VERTEX
  8
図枠
  5
9AB
 10
963.206
 20
-715.137
 30
0.000000
  70
    32
  0
VERTEX
  8
図枠
  5
9AC
 10
963.277
 20
-715.152
 30
0.000000
  70
    32
  0
VERTEX
  8
図枠
  5
9AD
 10
963.348
 20
-715.167
 30
0.000000
  70
    32
  0
VERTEX
  8
図枠
  5
9AE
 10
963.419
 20
-715.182
 30
0.000000
  70
    32
  0
VERTEX
  8
図枠
  5
9AF
 10
963.489
 20
-715.197
 30
0.000000
  70
    32
  0
VERTEX
  8
図枠
  5
9B0
 10
963.560
 20
-715.212
 30
0.000000
  70
    32
  0
VERTEX
  8
図枠
  5
9B1
 10
963.631
 20
-715.226
 30
0.000000
  70
    32
  0
VERTEX
  8
図枠
  5
9B2
 10
963.702
 20
-715.241
 30
0.000000
  70
    32
  0
VERTEX
  8
図枠
  5
9B3
 10
963.773
 20
-715.256
 30
0.000000
  70
    32
  0
VERTEX
  8
図枠
  5
9B4
 10
963.844
 20
-715.271
 30
0.000000
  70
    32
  0
VERTEX
  8
図枠
  5
9B5
 10
963.915
 20
-715.286
 30
0.000000
  70
    32
  0
VERTEX
  8
図枠
  5
9B6
 10
963.986
 20
-715.301
 30
0.000000
  70
    32
  0
VERTEX
  8
図枠
  5
9B7
 10
964.057
 20
-715.315
 30
0.000000
  70
    32
  0
VERTEX
  8
図枠
  5
9B8
 10
964.127
 20
-715.330
 30
0.000000
  70
    32
  0
VERTEX
  8
図枠
  5
9B9
 10
964.198
 20
-715.345
 30
0.000000
  70
    32
  0
VERTEX
  8
図枠
  5
9BA
 10
964.269
 20
-715.360
 30
0.000000
  70
    32
  0
VERTEX
  8
図枠
  5
9BB
 10
964.340
 20
-715.374
 30
0.000000
  70
    32
  0
VERTEX
  8
図枠
  5
9BC
 10
964.411
 20
-715.389
 30
0.000000
  70
    32
  0
VERTEX
  8
図枠
  5
9BD
 10
964.482
 20
-715.404
 30
0.000000
  70
    32
  0
VERTEX
  8
図枠
  5
9BE
 10
964.553
 20
-715.419
 30
0.000000
  70
    32
  0
VERTEX
  8
図枠
  5
9BF
 10
964.624
 20
-715.433
 30
0.000000
  70
    32
  0
SEQEND
  8
図枠
  5
9C0
  0
INSERT
  5
37C
  8
0
  6
CONTINUOUS
  2
*U66
 10
0.0
 20
0.0
 30
0.0
  0
INSERT
  5
37D
  8
0
  6
CONTINUOUS
  2
*U67
 10
0.0
 20
0.0
 30
0.0
  0
INSERT
  5
37E
  8
0
  6
CONTINUOUS
  2
*U68
 10
0.0
 20
0.0
 30
0.0
  0
INSERT
  5
37F
  8
0
  6
CONTINUOUS
  2
*U69
 10
0.0
 20
0.0
 30
0.0
  0
INSERT
  5
380
  8
0
  6
CONTINUOUS
  2
*U70
 10
0.0
 20
0.0
 30
0.0
  0
INSERT
  5
381
  8
0
  6
CONTINUOUS
  2
*U71
 10
0.0
 20
0.0
 30
0.0
  0
INSERT
  5
382
  8
0
  6
CONTINUOUS
  2
*U72
 10
0.0
 20
0.0
 30
0.0
  0
INSERT
  5
383
  8
0
  6
CONTINUOUS
  2
*U73
 10
0.0
 20
0.0
 30
0.0
  0
INSERT
  5
384
  8
0
  6
CONTINUOUS
  2
*U74
 10
0.0
 20
0.0
 30
0.0
  0
LINE
  5
385
  8
図枠
 10
1003.8208333333
 20
-638.125
 30
0.0
 11
1003.8208333333
 21
-720.62499999999989
 31
0.0
  0
LINE
  5
386
  8
ﾚｲﾔ_1
 62
     5
 10
812.03916367910006
 20
-469.14993217559987
 30
0.0
 11
883.63916367910008
 21
-469.14993217559987
 31
0.0
  0
ARC
  5
387
  8
ﾚｲﾔ_1
 62
     5
 10
1042.31171875
 20
-339.78646081980003
 30
0.0
 40
2.2000000000000002
 50
98.905399848399995
 51
224.0
  0
ARC
  5
388
  8
ﾚｲﾔ_1
 62
     5
 10
1042.31171875
 20
-339.78646081980003
 30
0.0
 40
1.399999999999999
 50
98.905399848399995
 51
224.0
  0
ARC
  5
389
  8
ﾚｲﾔ_1
 62
     5
 10
1041.71171875
 20
-343.05194528850001
 30
0.0
 40
0.5
 50
0.0
 51
44.0
  0
ARC
  5
38A
  8
ﾚｲﾔ_1
 62
     5
 10
1041.71171875
 20
-343.05194528850001
 30
0.0
 40
1.3
 50
0.0
 51
44.0
  0
LINE
  5
38B
  8
ﾚｲﾔ_1
 62
     5
 10
1042.9117187500001
 20
-338.27536286039998
 30
0.0
 11
1042.0949938556
 21
-338.40333742680002
 31
0.0
  0
LINE
  5
38C
  8
ﾚｲﾔ_1
 62
     5
 10
1042.6468604904001
 20
-342.14888940690003
 30
0.0
 11
1041.3046430295001
 21
-340.75898253840001
 31
0.0
  0
LINE
  5
38D
  8
ﾚｲﾔ_1
 62
     5
 10
1042.0713886502001
 20
-342.7046161033
 30
0.0
 11
1040.7291711892999
 21
-341.31470923479998
 31
0.0
  0
CIRCLE
  5
38E
  8
ﾚｲﾔ_1
 62
     5
 10
1042.0267187500001
 20
-339.5426406322
 30
0.0
 40
1.1149999999999991
  0
INSERT
  5
390
  8
寸法線
  2
BALLON9
 10
0.0
 20
0.0
 30
0.0
  0
LINE
  5
399
  8
ﾚｲﾔ_1
 62
     5
 10
1043.1617187500001
 20
-342.52671119490009
 30
0.0
 11
1043.01171875
 21
-342.52671119490009
 31
0.0
  0
LINE
  5
39A
  8
ﾚｲﾔ_1
 62
     5
 10
1043.1617187500001
 20
-340.65764063220001
 30
0.0
 11
1042.0267187500001
 21
-340.65764063220001
 31
0.0
  0
LINE
  5
39B
  8
ﾚｲﾔ_1
 62
     5
 10
1043.1617187500001
 20
-338.25969362249998
 30
0.0
 11
1042.9117187500001
 21
-338.25969362249998
 31
0.0
  0
LINE
  5
39C
  8
ﾚｲﾔ_1
 62
     5
 10
1043.1617187500001
 20
-337.4499321756
 30
0.0
 11
1042.9117187500001
 21
-337.4499321756
 31
0.0
  0
LINE
  5
39D
  8
図枠
 10
986.66049464460013
 20
-713.18331758279987
 30
0.0
 11
992.66767132630014
 21
-713.18331758279987
 31
0.0
  0
LINE
  5
39E
  8
図枠
 10
970.16767132629991
 20
-706.68331758279999
 30
0.0
 11
977.73433799289978
 21
-706.68331758279999
 31
0.0
  0
LINE
  5
39F
  8
図枠
 10
992.66767132630014
 20
-702.18331758279999
 30
0.0
 11
992.66767132630014
 21
-706.68331758279999
 31
0.0
  0
LINE
  5
3A0
  8
図枠
 10
970.16767132629991
 20
-708.68331758279987
 30
0.0
 11
970.16767132629991
 21
-713.18331758279987
 31
0.0
  0
LINE
  5
3A1
  8
図枠
 10
975.16767132630002
 20
-697.93331758279987
 30
0.0
 11
985.16767132630002
 21
-697.93331758279987
 31
0.0
  0
LINE
  5
3A2
  8
図枠
 10
962.12396470559986
 20
-701.68331758279999
 30
0.0
 11
964.62396470559986
 21
-697.93331758279987
 31
0.0
  0
ARC
  5
3A3
  8
図枠
 10
948.37396470559986
 20
-701.68331758279999
 30
0.0
 40
13.75
 50
322.48761197969998
 51
0.0
  0
LINE
  5
3A4
  8
図枠
 10
983.49508221639996
 20
-702.18331758279999
 30
0.0
 11
983.12909659079992
 21
-700.91149535659997
 31
0.0
  0
LINE
  5
3A5
  8
図枠
 10
983.49508221639996
 20
-702.18331758279999
 30
0.0
 11
992.66767132630014
 21
-702.18331758279999
 31
0.0
  0
LINE
  5
3A6
  8
図枠
 10
985.36555319670003
 20
-708.68331758279987
 30
0.0
 11
984.79002366429995
 21
-706.68331758279999
 31
0.0
  0
LINE
  5
3A7
  8
図枠
 10
992.66767132630014
 20
-708.68331758279987
 30
0.0
 11
992.66767132630014
 21
-713.18331758279987
 31
0.0
  0
LINE
  5
3A8
  8
図枠
 10
952.12396470559986
 20
-703.73859325149988
 30
0.0
 11
950.70975114320004
 21
-705.15280681390004
 31
0.0
  0
LINE
  5
3A9
  8
図枠
 10
970.16767132629991
 20
-702.18331758279999
 30
0.0
 11
970.16767132629991
 21
-706.68331758279999
 31
0.0
  0
LINE
  5
3AA
  8
図枠
 10
970.16767132629991
 20
-708.68331758279987
 30
0.0
 11
978.32100465960002
 21
-708.68331758279987
 31
0.0
  0
LINE
  5
3AB
  8
図枠
 10
970.16767132629991
 20
-713.18331758279987
 30
0.0
 11
979.64100465960007
 21
-713.18331758279987
 31
0.0
  0
LINE
  5
3AC
  8
図枠
 10
980.66767132630002
 20
-716.68331758279987
 30
0.0
 11
979.64100465960007
 21
-713.18331758279987
 31
0.0
  0
ARC
  5
3AD
  8
図枠
 10
948.37396470559986
 20
-701.68331758279999
 30
0.0
 40
13.75
 50
270.0
 51
302.54495885400001
  0
LINE
  5
3AE
  8
図枠
 10
964.62396470559986
 20
-711.68331758279987
 30
0.0
 11
964.62396470559986
 21
-715.43331758279999
 31
0.0
  0
LINE
  5
3AF
  8
図枠
 10
984.79002366429995
 20
-706.68331758279999
 30
0.0
 11
992.66767132630014
 21
-706.68331758279999
 31
0.0
  0
INSERT
  5
3B0
  8
0
  6
CONTINUOUS
  2
*U76
 10
0.0
 20
0.0
 30
0.0
  0
LINE
  5
3B1
  8
図枠
 10
978.32100465960002
 20
-708.68331758279987
 30
0.0
 11
977.73433799289978
 21
-706.68331758279999
 31
0.0
  0
LINE
  5
3B2
  8
図枠
 10
976.41433799289985
 20
-702.18331758279999
 30
0.0
 11
975.16767132630002
 21
-697.93331758279987
 31
0.0
  0
LINE
  5
3B3
  8
図枠
 10
959.28076308580012
 20
-710.05614560519996
 30
0.0
 11
958.8355079362999
 21
-710.49209096570007
 31
0.0
  0
POLYLINE
  8
図枠
  5
9C1
  66
     1
 10
0.000000
 20
0.000000
 30
0.000000
  70
     8
  0
VERTEX
  8
図枠
  5
9C2
 10
958.836
 20
-710.492
 30
0.000000
  70
    32
  0
VERTEX
  8
図枠
  5
9C3
 10
958.879
 20
-710.504
 30
0.000000
  70
    32
  0
VERTEX
  8
図枠
  5
9C4
 10
958.923
 20
-710.517
 30
0.000000
  70
    32
  0
VERTEX
  8
図枠
  5
9C5
 10
958.967
 20
-710.529
 30
0.000000
  70
    32
  0
VERTEX
  8
図枠
  5
9C6
 10
959.011
 20
-710.541
 30
0.000000
  70
    32
  0
VERTEX
  8
図枠
  5
9C7
 10
959.054
 20
-710.553
 30
0.000000
  70
    32
  0
VERTEX
  8
図枠
  5
9C8
 10
959.098
 20
-710.565
 30
0.000000
  70
    32
  0
VERTEX
  8
図枠
  5
9C9
 10
959.142
 20
-710.577
 30
0.000000
  70
    32
  0
VERTEX
  8
図枠
  5
9CA
 10
959.186
 20
-710.589
 30
0.000000
  70
    32
  0
VERTEX
  8
図枠
  5
9CB
 10
959.230
 20
-710.601
 30
0.000000
  70
    32
  0
VERTEX
  8
図枠
  5
9CC
 10
959.275
 20
-710.613
 30
0.000000
  70
    32
  0
VERTEX
  8
図枠
  5
9CD
 10
959.319
 20
-710.625
 30
0.000000
  70
    32
  0
VERTEX
  8
図枠
  5
9CE
 10
959.363
 20
-710.636
 30
0.000000
  70
    32
  0
VERTEX
  8
図枠
  5
9CF
 10
959.407
 20
-710.648
 30
0.000000
  70
    32
  0
VERTEX
  8
図枠
  5
9D0
 10
959.451
 20
-710.659
 30
0.000000
  70
    32
  0
VERTEX
  8
図枠
  5
9D1
 10
959.496
 20
-710.671
 30
0.000000
  70
    32
  0
VERTEX
  8
図枠
  5
9D2
 10
959.540
 20
-710.682
 30
0.000000
  70
    32
  0
VERTEX
  8
図枠
  5
9D3
 10
959.584
 20
-710.693
 30
0.000000
  70
    32
  0
VERTEX
  8
図枠
  5
9D4
 10
959.629
 20
-710.705
 30
0.000000
  70
    32
  0
VERTEX
  8
図枠
  5
9D5
 10
959.673
 20
-710.716
 30
0.000000
  70
    32
  0
VERTEX
  8
図枠
  5
9D6
 10
959.718
 20
-710.727
 30
0.000000
  70
    32
  0
VERTEX
  8
図枠
  5
9D7
 10
959.762
 20
-710.738
 30
0.000000
  70
    32
  0
VERTEX
  8
図枠
  5
9D8
 10
959.807
 20
-710.749
 30
0.000000
  70
    32
  0
VERTEX
  8
図枠
  5
9D9
 10
959.851
 20
-710.760
 30
0.000000
  70
    32
  0
VERTEX
  8
図枠
  5
9DA
 10
959.896
 20
-710.771
 30
0.000000
  70
    32
  0
VERTEX
  8
図枠
  5
9DB
 10
959.941
 20
-710.782
 30
0.000000
  70
    32
  0
VERTEX
  8
図枠
  5
9DC
 10
959.985
 20
-710.792
 30
0.000000
  70
    32
  0
VERTEX
  8
図枠
  5
9DD
 10
960.030
 20
-710.803
 30
0.000000
  70
    32
  0
VERTEX
  8
図枠
  5
9DE
 10
960.075
 20
-710.814
 30
0.000000
  70
    32
  0
VERTEX
  8
図枠
  5
9DF
 10
960.120
 20
-710.824
 30
0.000000
  70
    32
  0
VERTEX
  8
図枠
  5
9E0
 10
960.165
 20
-710.835
 30
0.000000
  70
    32
  0
VERTEX
  8
図枠
  5
9E1
 10
960.210
 20
-710.846
 30
0.000000
  70
    32
  0
VERTEX
  8
図枠
  5
9E2
 10
960.254
 20
-710.856
 30
0.000000
  70
    32
  0
VERTEX
  8
図枠
  5
9E3
 10
960.299
 20
-710.866
 30
0.000000
  70
    32
  0
VERTEX
  8
図枠
  5
9E4
 10
960.344
 20
-710.877
 30
0.000000
  70
    32
  0
VERTEX
  8
図枠
  5
9E5
 10
960.389
 20
-710.887
 30
0.000000
  70
    32
  0
VERTEX
  8
図枠
  5
9E6
 10
960.434
 20
-710.897
 30
0.000000
  70
    32
  0
VERTEX
  8
図枠
  5
9E7
 10
960.480
 20
-710.907
 30
0.000000
  70
    32
  0
VERTEX
  8
図枠
  5
9E8
 10
960.525
 20
-710.917
 30
0.000000
  70
    32
  0
VERTEX
  8
図枠
  5
9E9
 10
960.570
 20
-710.928
 30
0.000000
  70
    32
  0
VERTEX
  8
図枠
  5
9EA
 10
960.615
 20
-710.938
 30
0.000000
  70
    32
  0
VERTEX
  8
図枠
  5
9EB
 10
960.660
 20
-710.948
 30
0.000000
  70
    32
  0
VERTEX
  8
図枠
  5
9EC
 10
960.705
 20
-710.957
 30
0.000000
  70
    32
  0
VERTEX
  8
図枠
  5
9ED
 10
960.751
 20
-710.967
 30
0.000000
  70
    32
  0
VERTEX
  8
図枠
  5
9EE
 10
960.796
 20
-710.977
 30
0.000000
  70
    32
  0
VERTEX
  8
図枠
  5
9EF
 10
960.841
 20
-710.987
 30
0.000000
  70
    32
  0
VERTEX
  8
図枠
  5
9F0
 10
960.887
 20
-710.997
 30
0.000000
  70
    32
  0
VERTEX
  8
図枠
  5
9F1
 10
960.932
 20
-711.006
 30
0.000000
  70
    32
  0
VERTEX
  8
図枠
  5
9F2
 10
960.977
 20
-711.016
 30
0.000000
  70
    32
  0
VERTEX
  8
図枠
  5
9F3
 10
961.023
 20
-711.026
 30
0.000000
  70
    32
  0
VERTEX
  8
図枠
  5
9F4
 10
961.068
 20
-711.035
 30
0.000000
  70
    32
  0
VERTEX
  8
図枠
  5
9F5
 10
961.114
 20
-711.045
 30
0.000000
  70
    32
  0
VERTEX
  8
図枠
  5
9F6
 10
961.159
 20
-711.054
 30
0.000000
  70
    32
  0
VERTEX
  8
図枠
  5
9F7
 10
961.205
 20
-711.064
 30
0.000000
  70
    32
  0
VERTEX
  8
図枠
  5
9F8
 10
961.251
 20
-711.073
 30
0.000000
  70
    32
  0
VERTEX
  8
図枠
  5
9F9
 10
961.296
 20
-711.082
 30
0.000000
  70
    32
  0
VERTEX
  8
図枠
  5
9FA
 10
961.342
 20
-711.092
 30
0.000000
  70
    32
  0
VERTEX
  8
図枠
  5
9FB
 10
961.387
 20
-711.101
 30
0.000000
  70
    32
  0
VERTEX
  8
図枠
  5
9FC
 10
961.433
 20
-711.110
 30
0.000000
  70
    32
  0
VERTEX
  8
図枠
  5
9FD
 10
961.479
 20
-711.119
 30
0.000000
  70
    32
  0
VERTEX
  8
図枠
  5
9FE
 10
961.524
 20
-711.128
 30
0.000000
  70
    32
  0
VERTEX
  8
図枠
  5
9FF
 10
961.570
 20
-711.138
 30
0.000000
  70
    32
  0
VERTEX
  8
図枠
  5
A00
 10
961.616
 20
-711.147
 30
0.000000
  70
    32
  0
VERTEX
  8
図枠
  5
A01
 10
961.662
 20
-711.156
 30
0.000000
  70
    32
  0
VERTEX
  8
図枠
  5
A02
 10
961.708
 20
-711.165
 30
0.000000
  70
    32
  0
VERTEX
  8
図枠
  5
A03
 10
961.753
 20
-711.174
 30
0.000000
  70
    32
  0
VERTEX
  8
図枠
  5
A04
 10
961.799
 20
-711.183
 30
0.000000
  70
    32
  0
VERTEX
  8
図枠
  5
A05
 10
961.845
 20
-711.191
 30
0.000000
  70
    32
  0
VERTEX
  8
図枠
  5
A06
 10
961.891
 20
-711.200
 30
0.000000
  70
    32
  0
VERTEX
  8
図枠
  5
A07
 10
961.937
 20
-711.209
 30
0.000000
  70
    32
  0
VERTEX
  8
図枠
  5
A08
 10
961.983
 20
-711.218
 30
0.000000
  70
    32
  0
VERTEX
  8
図枠
  5
A09
 10
962.029
 20
-711.227
 30
0.000000
  70
    32
  0
VERTEX
  8
図枠
  5
A0A
 10
962.075
 20
-711.235
 30
0.000000
  70
    32
  0
VERTEX
  8
図枠
  5
A0B
 10
962.121
 20
-711.244
 30
0.000000
  70
    32
  0
VERTEX
  8
図枠
  5
A0C
 10
962.167
 20
-711.253
 30
0.000000
  70
    32
  0
VERTEX
  8
図枠
  5
A0D
 10
962.213
 20
-711.261
 30
0.000000
  70
    32
  0
VERTEX
  8
図枠
  5
A0E
 10
962.259
 20
-711.270
 30
0.000000
  70
    32
  0
VERTEX
  8
図枠
  5
A0F
 10
962.305
 20
-711.279
 30
0.000000
  70
    32
  0
VERTEX
  8
図枠
  5
A10
 10
962.351
 20
-711.287
 30
0.000000
  70
    32
  0
VERTEX
  8
図枠
  5
A11
 10
962.397
 20
-711.296
 30
0.000000
  70
    32
  0
VERTEX
  8
図枠
  5
A12
 10
962.443
 20
-711.304
 30
0.000000
  70
    32
  0
VERTEX
  8
図枠
  5
A13
 10
962.490
 20
-711.313
 30
0.000000
  70
    32
  0
VERTEX
  8
図枠
  5
A14
 10
962.536
 20
-711.321
 30
0.000000
  70
    32
  0
VERTEX
  8
図枠
  5
A15
 10
962.582
 20
-711.330
 30
0.000000
  70
    32
  0
VERTEX
  8
図枠
  5
A16
 10
962.628
 20
-711.338
 30
0.000000
  70
    32
  0
VERTEX
  8
図枠
  5
A17
 10
962.674
 20
-711.346
 30
0.000000
  70
    32
  0
VERTEX
  8
図枠
  5
A18
 10
962.721
 20
-711.355
 30
0.000000
  70
    32
  0
VERTEX
  8
図枠
  5
A19
 10
962.767
 20
-711.363
 30
0.000000
  70
    32
  0
VERTEX
  8
図枠
  5
A1A
 10
962.813
 20
-711.371
 30
0.000000
  70
    32
  0
VERTEX
  8
図枠
  5
A1B
 10
962.859
 20
-711.380
 30
0.000000
  70
    32
  0
VERTEX
  8
図枠
  5
A1C
 10
962.906
 20
-711.388
 30
0.000000
  70
    32
  0
VERTEX
  8
図枠
  5
A1D
 10
962.952
 20
-711.396
 30
0.000000
  70
    32
  0
VERTEX
  8
図枠
  5
A1E
 10
962.998
 20
-711.404
 30
0.000000
  70
    32
  0
VERTEX
  8
図枠
  5
A1F
 10
963.044
 20
-711.412
 30
0.000000
  70
    32
  0
VERTEX
  8
図枠
  5
A20
 10
963.091
 20
-711.421
 30
0.000000
  70
    32
  0
VERTEX
  8
図枠
  5
A21
 10
963.137
 20
-711.429
 30
0.000000
  70
    32
  0
VERTEX
  8
図枠
  5
A22
 10
963.183
 20
-711.437
 30
0.000000
  70
    32
  0
VERTEX
  8
図枠
  5
A23
 10
963.230
 20
-711.445
 30
0.000000
  70
    32
  0
VERTEX
  8
図枠
  5
A24
 10
963.276
 20
-711.453
 30
0.000000
  70
    32
  0
VERTEX
  8
図枠
  5
A25
 10
963.323
 20
-711.461
 30
0.000000
  70
    32
  0
VERTEX
  8
図枠
  5
A26
 10
963.369
 20
-711.469
 30
0.000000
  70
    32
  0
VERTEX
  8
図枠
  5
A27
 10
963.415
 20
-711.477
 30
0.000000
  70
    32
  0
VERTEX
  8
図枠
  5
A28
 10
963.462
 20
-711.485
 30
0.000000
  70
    32
  0
VERTEX
  8
図枠
  5
A29
 10
963.508
 20
-711.493
 30
0.000000
  70
    32
  0
VERTEX
  8
図枠
  5
A2A
 10
963.555
 20
-711.501
 30
0.000000
  70
    32
  0
VERTEX
  8
図枠
  5
A2B
 10
963.601
 20
-711.509
 30
0.000000
  70
    32
  0
VERTEX
  8
図枠
  5
A2C
 10
963.648
 20
-711.517
 30
0.000000
  70
    32
  0
VERTEX
  8
図枠
  5
A2D
 10
963.694
 20
-711.525
 30
0.000000
  70
    32
  0
VERTEX
  8
図枠
  5
A2E
 10
963.740
 20
-711.533
 30
0.000000
  70
    32
  0
VERTEX
  8
図枠
  5
A2F
 10
963.787
 20
-711.541
 30
0.000000
  70
    32
  0
VERTEX
  8
図枠
  5
A30
 10
963.833
 20
-711.549
 30
0.000000
  70
    32
  0
VERTEX
  8
図枠
  5
A31
 10
963.880
 20
-711.557
 30
0.000000
  70
    32
  0
VERTEX
  8
図枠
  5
A32
 10
963.926
 20
-711.565
 30
0.000000
  70
    32
  0
VERTEX
  8
図枠
  5
A33
 10
963.973
 20
-711.573
 30
0.000000
  70
    32
  0
VERTEX
  8
図枠
  5
A34
 10
964.019
 20
-711.581
 30
0.000000
  70
    32
  0
VERTEX
  8
図枠
  5
A35
 10
964.066
 20
-711.589
 30
0.000000
  70
    32
  0
VERTEX
  8
図枠
  5
A36
 10
964.112
 20
-711.597
 30
0.000000
  70
    32
  0
VERTEX
  8
図枠
  5
A37
 10
964.159
 20
-711.605
 30
0.000000
  70
    32
  0
VERTEX
  8
図枠
  5
A38
 10
964.205
 20
-711.613
 30
0.000000
  70
    32
  0
VERTEX
  8
図枠
  5
A39
 10
964.252
 20
-711.620
 30
0.000000
  70
    32
  0
VERTEX
  8
図枠
  5
A3A
 10
964.298
 20
-711.628
 30
0.000000
  70
    32
  0
VERTEX
  8
図枠
  5
A3B
 10
964.345
 20
-711.636
 30
0.000000
  70
    32
  0
VERTEX
  8
図枠
  5
A3C
 10
964.391
 20
-711.644
 30
0.000000
  70
    32
  0
VERTEX
  8
図枠
  5
A3D
 10
964.438
 20
-711.652
 30
0.000000
  70
    32
  0
VERTEX
  8
図枠
  5
A3E
 10
964.484
 20
-711.660
 30
0.000000
  70
    32
  0
VERTEX
  8
図枠
  5
A3F
 10
964.531
 20
-711.668
 30
0.000000
  70
    32
  0
VERTEX
  8
図枠
  5
A40
 10
964.577
 20
-711.675
 30
0.000000
  70
    32
  0
VERTEX
  8
図枠
  5
A41
 10
964.624
 20
-711.683
 30
0.000000
  70
    32
  0
SEQEND
  8
図枠
  5
A42
  0
POLYLINE
  8
図枠
  5
A43
  66
     1
 10
0.000000
 20
0.000000
 30
0.000000
  70
     8
  0
VERTEX
  8
図枠
  5
A44
 10
950.710
 20
-705.153
 30
0.000000
  70
    32
  0
VERTEX
  8
図枠
  5
A45
 10
950.726
 20
-705.171
 30
0.000000
  70
    32
  0
VERTEX
  8
図枠
  5
A46
 10
950.743
 20
-705.190
 30
0.000000
  70
    32
  0
VERTEX
  8
図枠
  5
A47
 10
950.759
 20
-705.208
 30
0.000000
  70
    32
  0
VERTEX
  8
図枠
  5
A48
 10
950.776
 20
-705.226
 30
0.000000
  70
    32
  0
VERTEX
  8
図枠
  5
A49
 10
950.792
 20
-705.245
 30
0.000000
  70
    32
  0
VERTEX
  8
図枠
  5
A4A
 10
950.809
 20
-705.263
 30
0.000000
  70
    32
  0
VERTEX
  8
図枠
  5
A4B
 10
950.825
 20
-705.282
 30
0.000000
  70
    32
  0
VERTEX
  8
図枠
  5
A4C
 10
950.842
 20
-705.300
 30
0.000000
  70
    32
  0
VERTEX
  8
図枠
  5
A4D
 10
950.858
 20
-705.318
 30
0.000000
  70
    32
  0
VERTEX
  8
図枠
  5
A4E
 10
950.875
 20
-705.337
 30
0.000000
  70
    32
  0
VERTEX
  8
図枠
  5
A4F
 10
950.891
 20
-705.355
 30
0.000000
  70
    32
  0
VERTEX
  8
図枠
  5
A50
 10
950.908
 20
-705.373
 30
0.000000
  70
    32
  0
VERTEX
  8
図枠
  5
A51
 10
950.924
 20
-705.392
 30
0.000000
  70
    32
  0
VERTEX
  8
図枠
  5
A52
 10
950.941
 20
-705.410
 30
0.000000
  70
    32
  0
VERTEX
  8
図枠
  5
A53
 10
950.957
 20
-705.429
 30
0.000000
  70
    32
  0
VERTEX
  8
図枠
  5
A54
 10
950.974
 20
-705.447
 30
0.000000
  70
    32
  0
VERTEX
  8
図枠
  5
A55
 10
950.990
 20
-705.465
 30
0.000000
  70
    32
  0
VERTEX
  8
図枠
  5
A56
 10
951.007
 20
-705.484
 30
0.000000
  70
    32
  0
VERTEX
  8
図枠
  5
A57
 10
951.023
 20
-705.502
 30
0.000000
  70
    32
  0
VERTEX
  8
図枠
  5
A58
 10
951.040
 20
-705.520
 30
0.000000
  70
    32
  0
VERTEX
  8
図枠
  5
A59
 10
951.056
 20
-705.539
 30
0.000000
  70
    32
  0
VERTEX
  8
図枠
  5
A5A
 10
951.073
 20
-705.557
 30
0.000000
  70
    32
  0
VERTEX
  8
図枠
  5
A5B
 10
951.090
 20
-705.575
 30
0.000000
  70
    32
  0
VERTEX
  8
図枠
  5
A5C
 10
951.106
 20
-705.594
 30
0.000000
  70
    32
  0
VERTEX
  8
図枠
  5
A5D
 10
951.123
 20
-705.612
 30
0.000000
  70
    32
  0
VERTEX
  8
図枠
  5
A5E
 10
951.139
 20
-705.630
 30
0.000000
  70
    32
  0
VERTEX
  8
図枠
  5
A5F
 10
951.156
 20
-705.649
 30
0.000000
  70
    32
  0
VERTEX
  8
図枠
  5
A60
 10
951.172
 20
-705.667
 30
0.000000
  70
    32
  0
VERTEX
  8
図枠
  5
A61
 10
951.189
 20
-705.685
 30
0.000000
  70
    32
  0
VERTEX
  8
図枠
  5
A62
 10
951.205
 20
-705.703
 30
0.000000
  70
    32
  0
VERTEX
  8
図枠
  5
A63
 10
951.222
 20
-705.722
 30
0.000000
  70
    32
  0
VERTEX
  8
図枠
  5
A64
 10
951.239
 20
-705.740
 30
0.000000
  70
    32
  0
VERTEX
  8
図枠
  5
A65
 10
951.255
 20
-705.758
 30
0.000000
  70
    32
  0
VERTEX
  8
図枠
  5
A66
 10
951.272
 20
-705.776
 30
0.000000
  70
    32
  0
VERTEX
  8
図枠
  5
A67
 10
951.288
 20
-705.795
 30
0.000000
  70
    32
  0
VERTEX
  8
図枠
  5
A68
 10
951.305
 20
-705.813
 30
0.000000
  70
    32
  0
VERTEX
  8
図枠
  5
A69
 10
951.322
 20
-705.831
 30
0.000000
  70
    32
  0
VERTEX
  8
図枠
  5
A6A
 10
951.338
 20
-705.849
 30
0.000000
  70
    32
  0
VERTEX
  8
図枠
  5
A6B
 10
951.355
 20
-705.868
 30
0.000000
  70
    32
  0
VERTEX
  8
図枠
  5
A6C
 10
951.372
 20
-705.886
 30
0.000000
  70
    32
  0
VERTEX
  8
図枠
  5
A6D
 10
951.388
 20
-705.904
 30
0.000000
  70
    32
  0
VERTEX
  8
図枠
  5
A6E
 10
951.405
 20
-705.922
 30
0.000000
  70
    32
  0
VERTEX
  8
図枠
  5
A6F
 10
951.421
 20
-705.940
 30
0.000000
  70
    32
  0
VERTEX
  8
図枠
  5
A70
 10
951.438
 20
-705.958
 30
0.000000
  70
    32
  0
VERTEX
  8
図枠
  5
A71
 10
951.455
 20
-705.976
 30
0.000000
  70
    32
  0
VERTEX
  8
図枠
  5
A72
 10
951.471
 20
-705.995
 30
0.000000
  70
    32
  0
VERTEX
  8
図枠
  5
A73
 10
951.488
 20
-706.013
 30
0.000000
  70
    32
  0
VERTEX
  8
図枠
  5
A74
 10
951.505
 20
-706.031
 30
0.000000
  70
    32
  0
VERTEX
  8
図枠
  5
A75
 10
951.522
 20
-706.049
 30
0.000000
  70
    32
  0
VERTEX
  8
図枠
  5
A76
 10
951.538
 20
-706.067
 30
0.000000
  70
    32
  0
VERTEX
  8
図枠
  5
A77
 10
951.555
 20
-706.085
 30
0.000000
  70
    32
  0
VERTEX
  8
図枠
  5
A78
 10
951.572
 20
-706.103
 30
0.000000
  70
    32
  0
VERTEX
  8
図枠
  5
A79
 10
951.588
 20
-706.121
 30
0.000000
  70
    32
  0
VERTEX
  8
図枠
  5
A7A
 10
951.605
 20
-706.139
 30
0.000000
  70
    32
  0
VERTEX
  8
図枠
  5
A7B
 10
951.622
 20
-706.157
 30
0.000000
  70
    32
  0
VERTEX
  8
図枠
  5
A7C
 10
951.639
 20
-706.175
 30
0.000000
  70
    32
  0
VERTEX
  8
図枠
  5
A7D
 10
951.655
 20
-706.193
 30
0.000000
  70
    32
  0
VERTEX
  8
図枠
  5
A7E
 10
951.672
 20
-706.211
 30
0.000000
  70
    32
  0
VERTEX
  8
図枠
  5
A7F
 10
951.689
 20
-706.229
 30
0.000000
  70
    32
  0
VERTEX
  8
図枠
  5
A80
 10
951.706
 20
-706.247
 30
0.000000
  70
    32
  0
VERTEX
  8
図枠
  5
A81
 10
951.723
 20
-706.265
 30
0.000000
  70
    32
  0
VERTEX
  8
図枠
  5
A82
 10
951.739
 20
-706.282
 30
0.000000
  70
    32
  0
VERTEX
  8
図枠
  5
A83
 10
951.756
 20
-706.300
 30
0.000000
  70
    32
  0
VERTEX
  8
図枠
  5
A84
 10
951.773
 20
-706.318
 30
0.000000
  70
    32
  0
VERTEX
  8
図枠
  5
A85
 10
951.790
 20
-706.336
 30
0.000000
  70
    32
  0
VERTEX
  8
図枠
  5
A86
 10
951.807
 20
-706.354
 30
0.000000
  70
    32
  0
VERTEX
  8
図枠
  5
A87
 10
951.824
 20
-706.372
 30
0.000000
  70
    32
  0
VERTEX
  8
図枠
  5
A88
 10
951.841
 20
-706.389
 30
0.000000
  70
    32
  0
VERTEX
  8
図枠
  5
A89
 10
951.857
 20
-706.407
 30
0.000000
  70
    32
  0
VERTEX
  8
図枠
  5
A8A
 10
951.874
 20
-706.425
 30
0.000000
  70
    32
  0
VERTEX
  8
図枠
  5
A8B
 10
951.891
 20
-706.443
 30
0.000000
  70
    32
  0
VERTEX
  8
図枠
  5
A8C
 10
951.908
 20
-706.460
 30
0.000000
  70
    32
  0
VERTEX
  8
図枠
  5
A8D
 10
951.925
 20
-706.478
 30
0.000000
  70
    32
  0
VERTEX
  8
図枠
  5
A8E
 10
951.942
 20
-706.496
 30
0.000000
  70
    32
  0
VERTEX
  8
図枠
  5
A8F
 10
951.959
 20
-706.513
 30
0.000000
  70
    32
  0
VERTEX
  8
図枠
  5
A90
 10
951.976
 20
-706.531
 30
0.000000
  70
    32
  0
VERTEX
  8
図枠
  5
A91
 10
951.993
 20
-706.548
 30
0.000000
  70
    32
  0
VERTEX
  8
図枠
  5
A92
 10
952.010
 20
-706.566
 30
0.000000
  70
    32
  0
VERTEX
  8
図枠
  5
A93
 10
952.027
 20
-706.584
 30
0.000000
  70
    32
  0
VERTEX
  8
図枠
  5
A94
 10
952.044
 20
-706.601
 30
0.000000
  70
    32
  0
VERTEX
  8
図枠
  5
A95
 10
952.061
 20
-706.619
 30
0.000000
  70
    32
  0
VERTEX
  8
図枠
  5
A96
 10
952.078
 20
-706.636
 30
0.000000
  70
    32
  0
VERTEX
  8
図枠
  5
A97
 10
952.095
 20
-706.653
 30
0.000000
  70
    32
  0
VERTEX
  8
図枠
  5
A98
 10
952.112
 20
-706.671
 30
0.000000
  70
    32
  0
VERTEX
  8
図枠
  5
A99
 10
952.130
 20
-706.688
 30
0.000000
  70
    32
  0
VERTEX
  8
図枠
  5
A9A
 10
952.147
 20
-706.706
 30
0.000000
  70
    32
  0
VERTEX
  8
図枠
  5
A9B
 10
952.164
 20
-706.723
 30
0.000000
  70
    32
  0
VERTEX
  8
図枠
  5
A9C
 10
952.181
 20
-706.740
 30
0.000000
  70
    32
  0
VERTEX
  8
図枠
  5
A9D
 10
952.198
 20
-706.758
 30
0.000000
  70
    32
  0
VERTEX
  8
図枠
  5
A9E
 10
952.215
 20
-706.775
 30
0.000000
  70
    32
  0
VERTEX
  8
図枠
  5
A9F
 10
952.233
 20
-706.792
 30
0.000000
  70
    32
  0
VERTEX
  8
図枠
  5
AA0
 10
952.250
 20
-706.810
 30
0.000000
  70
    32
  0
VERTEX
  8
図枠
  5
AA1
 10
952.267
 20
-706.827
 30
0.000000
  70
    32
  0
VERTEX
  8
図枠
  5
AA2
 10
952.284
 20
-706.844
 30
0.000000
  70
    32
  0
VERTEX
  8
図枠
  5
AA3
 10
952.301
 20
-706.861
 30
0.000000
  70
    32
  0
VERTEX
  8
図枠
  5
AA4
 10
952.319
 20
-706.878
 30
0.000000
  70
    32
  0
VERTEX
  8
図枠
  5
AA5
 10
952.336
 20
-706.895
 30
0.000000
  70
    32
  0
VERTEX
  8
図枠
  5
AA6
 10
952.353
 20
-706.913
 30
0.000000
  70
    32
  0
VERTEX
  8
図枠
  5
AA7
 10
952.371
 20
-706.930
 30
0.000000
  70
    32
  0
VERTEX
  8
図枠
  5
AA8
 10
952.388
 20
-706.947
 30
0.000000
  70
    32
  0
VERTEX
  8
図枠
  5
AA9
 10
952.405
 20
-706.964
 30
0.000000
  70
    32
  0
VERTEX
  8
図枠
  5
AAA
 10
952.423
 20
-706.981
 30
0.000000
  70
    32
  0
VERTEX
  8
図枠
  5
AAB
 10
952.440
 20
-706.998
 30
0.000000
  70
    32
  0
VERTEX
  8
図枠
  5
AAC
 10
952.458
 20
-707.014
 30
0.000000
  70
    32
  0
VERTEX
  8
図枠
  5
AAD
 10
952.475
 20
-707.031
 30
0.000000
  70
    32
  0
VERTEX
  8
図枠
  5
AAE
 10
952.492
 20
-707.048
 30
0.000000
  70
    32
  0
VERTEX
  8
図枠
  5
AAF
 10
952.510
 20
-707.065
 30
0.000000
  70
    32
  0
VERTEX
  8
図枠
  5
AB0
 10
952.527
 20
-707.082
 30
0.000000
  70
    32
  0
VERTEX
  8
図枠
  5
AB1
 10
952.545
 20
-707.099
 30
0.000000
  70
    32
  0
VERTEX
  8
図枠
  5
AB2
 10
952.562
 20
-707.115
 30
0.000000
  70
    32
  0
VERTEX
  8
図枠
  5
AB3
 10
952.580
 20
-707.132
 30
0.000000
  70
    32
  0
VERTEX
  8
図枠
  5
AB4
 10
952.597
 20
-707.149
 30
0.000000
  70
    32
  0
VERTEX
  8
図枠
  5
AB5
 10
952.615
 20
-707.166
 30
0.000000
  70
    32
  0
VERTEX
  8
図枠
  5
AB6
 10
952.633
 20
-707.182
 30
0.000000
  70
    32
  0
VERTEX
  8
図枠
  5
AB7
 10
952.650
 20
-707.199
 30
0.000000
  70
    32
  0
VERTEX
  8
図枠
  5
AB8
 10
952.668
 20
-707.215
 30
0.000000
  70
    32
  0
VERTEX
  8
図枠
  5
AB9
 10
952.686
 20
-707.232
 30
0.000000
  70
    32
  0
VERTEX
  8
図枠
  5
ABA
 10
952.703
 20
-707.248
 30
0.000000
  70
    32
  0
VERTEX
  8
図枠
  5
ABB
 10
952.721
 20
-707.265
 30
0.000000
  70
    32
  0
VERTEX
  8
図枠
  5
ABC
 10
952.739
 20
-707.281
 30
0.000000
  70
    32
  0
VERTEX
  8
図枠
  5
ABD
 10
952.756
 20
-707.298
 30
0.000000
  70
    32
  0
VERTEX
  8
図枠
  5
ABE
 10
952.774
 20
-707.314
 30
0.000000
  70
    32
  0
VERTEX
  8
図枠
  5
ABF
 10
952.792
 20
-707.330
 30
0.000000
  70
    32
  0
VERTEX
  8
図枠
  5
AC0
 10
952.810
 20
-707.347
 30
0.000000
  70
    32
  0
VERTEX
  8
図枠
  5
AC1
 10
952.828
 20
-707.363
 30
0.000000
  70
    32
  0
VERTEX
  8
図枠
  5
AC2
 10
952.845
 20
-707.379
 30
0.000000
  70
    32
  0
VERTEX
  8
図枠
  5
AC3
 10
952.863
 20
-707.395
 30
0.000000
  70
    32
  0
SEQEND
  8
図枠
  5
AC4
  0
CIRCLE
  5
3B6
  8
図枠
 10
962.32083333330002
 20
-651.87499999999989
 30
0.0
 40
6.0
  0
LINE
  5
3B7
  8
図枠
 10
988.03562711259997
 20
-645.875
 30
0.0
 11
988.03562711259997
 21
-657.875
 31
0.0
  0
LINE
  5
3B8
  8
図枠
 10
976.03562711259985
 20
-654.875
 30
0.0
 11
988.03562711259997
 21
-657.875
 31
0.0
  0
LINE
  5
3B9
  8
図枠
 10
976.03562711259985
 20
-648.875
 30
0.0
 11
976.03562711259985
 21
-654.875
 31
0.0
  0
CIRCLE
  5
3BA
  8
図枠
 10
962.32083333330002
 20
-651.87499999999989
 30
0.0
 40
3.0
  0
LINE
  5
3BB
  8
図枠
 10
976.03562711259985
 20
-648.875
 30
0.0
 11
976.03562711259985
 21
-654.875
 31
0.0
  0
LINE
  5
3BC
  8
図枠
 10
988.03562711259997
 20
-645.875
 30
0.0
 11
988.03562711259997
 21
-657.875
 31
0.0
  0
LINE
  5
3BD
  8
図枠
 10
976.03562711259985
 20
-654.875
 30
0.0
 11
988.03562711259997
 21
-657.875
 31
0.0
  0
LINE
  5
3BE
  8
図枠
 10
963.82083333330002
 20
-638.125
 30
0.0
 11
963.82083333330002
 21
-625.625
 31
0.0
  0
CIRCLE
  5
3BF
  8
図枠
 10
962.32083333330002
 20
-651.87499999999989
 30
0.0
 40
3.0
  0
LINE
  5
3C0
  8
図枠
  6
BORDER
 10
962.32083333330002
 20
-642.87499999999989
 30
0.0
 11
962.32083333330002
 21
-660.875
 31
0.0
  0
CIRCLE
  5
3C1
  8
図枠
 10
962.32083333330002
 20
-651.87499999999989
 30
0.0
 40
3.0
  0
INSERT
  5
3C2
  8
0
  6
CONTINUOUS
  2
*U77
 10
0.0
 20
0.0
 30
0.0
  0
LINE
  5
3C3
  8
図枠
 10
976.03562711259985
 20
-654.875
 30
0.0
 11
988.03562711259997
 21
-657.875
 31
0.0
  0
LINE
  5
3C4
  8
図枠
 10
976.03562711259985
 20
-648.875
 30
0.0
 11
988.03562711259997
 21
-645.875
 31
0.0
  0
CIRCLE
  5
3C5
  8
図枠
 10
962.32083333330002
 20
-651.87499999999989
 30
0.0
 40
3.0
  0
LINE
  5
3C6
  8
図枠
  6
BORDER
 10
962.32083333330002
 20
-642.87499999999989
 30
0.0
 11
962.32083333330002
 21
-660.875
 31
0.0
  0
LINE
  5
3C7
  8
図枠
 10
983.12909659079992
 20
-700.91149535659997
 30
0.0
 11
985.16767132630002
 21
-697.93331758279987
 31
0.0
  0
LINE
  5
3C8
  8
図枠
 10
987.66767132630002
 20
-716.68331758279987
 30
0.0
 11
986.66049464460013
 21
-713.18331758279987
 31
0.0
  0
ARC
  5
3C9
  8
図枠
 10
945.12396470559986
 20
-702.18331758279999
 30
0.0
 40
9.5
 50
331.39928138329998
 51
358.49204224580001
  0
LINE
  5
3CA
  8
図枠
 10
985.36555319670003
 20
-708.68331758279987
 30
0.0
 11
992.66767132630014
 21
-708.68331758279987
 31
0.0
  0
LINE
  5
3CB
  8
図枠
 10
953.46474593479991
 20
-706.73099484559987
 30
0.0
 11
952.86325641899987
 21
-707.39534074690005
 31
0.0
  0
LINE
  5
3CC
  8
図枠
 10
970.16767132629991
 20
-702.18331758279999
 30
0.0
 11
976.41433799289985
 21
-702.18331758279999
 31
0.0
  0
LINE
  5
3CD
  8
図枠
 10
962.12396470559986
 20
-701.68331758279999
 30
0.0
 11
964.62396470559986
 21
-697.93331758279987
 31
0.0
  0
LINE
  5
3CE
  8
図枠
 10
987.66767132630002
 20
-716.68331758279987
 30
0.0
 11
980.66767132630002
 21
-716.68331758279987
 31
0.0
  0
INSERT
  5
3CF
  8
0
  6
CONTINUOUS
  2
*U78
 10
0.0
 20
0.0
 30
0.0
  0
INSERT
  5
3D0
  8
0
  6
CONTINUOUS
  2
*U79
 10
0.0
 20
0.0
 30
0.0
  0
INSERT
  5
3D1
  8
0
  6
CONTINUOUS
  2
*U80
 10
0.0
 20
0.0
 30
0.0
  0
INSERT
  5
3D2
  8
0
  6
CONTINUOUS
  2
*U81
 10
0.0
 20
0.0
 30
0.0
  0
INSERT
  5
3D3
  8
0
  6
CONTINUOUS
  2
*U82
 10
0.0
 20
0.0
 30
0.0
  0
INSERT
  5
3D4
  8
0
  6
CONTINUOUS
  2
*U83
 10
0.0
 20
0.0
 30
0.0
  0
INSERT
  5
3D5
  8
0
  6
CONTINUOUS
  2
*U84
 10
0.0
 20
0.0
 30
0.0
  0
INSERT
  5
3D6
  8
0
  6
CONTINUOUS
  2
*U85
 10
0.0
 20
0.0
 30
0.0
  0
LINE
  5
3D7
  8
ﾚｲﾔ_1
 62
     5
 10
1022.66171875
 20
-484.4499321756
 30
0.0
 11
1089.6617187500001
 21
-484.4499321756
 31
0.0
  0
LINE
  5
3D8
  8
ﾚｲﾔ_1
 62
     5
 10
1022.86171875
 20
-485.4499321756
 30
0.0
 11
1089.46171875
 21
-485.4499321756
 31
0.0
  0
LINE
  5
3D9
  8
図枠
 10
1078.8208333333
 20
-638.125
 30
0.0
 11
1078.8208333333
 21
-625.625
 31
0.0
  0
CIRCLE
  5
3DA
  8
図枠
 10
962.32083333330002
 20
-651.87499999999989
 30
0.0
 40
6.0
  0
LINE
  5
3DB
  8
図枠
  6
BORDER
 10
962.32083333330002
 20
-642.87499999999989
 30
0.0
 11
962.32083333330002
 21
-660.875
 31
0.0
  0
LINE
  5
3DC
  8
図枠
 10
976.03562711259985
 20
-648.875
 30
0.0
 11
976.03562711259985
 21
-654.875
 31
0.0
  0
LINE
  5
3DD
  8
図枠
 10
976.03562711259985
 20
-648.875
 30
0.0
 11
988.03562711259997
 21
-645.875
 31
0.0
  0
CIRCLE
  5
3DE
  8
図枠
 10
962.32083333330002
 20
-651.87499999999989
 30
0.0
 40
6.0
  0
LINE
  5
3DF
  8
図枠
  6
BORDER
 10
953.32083333330002
 20
-651.87499999999989
 30
0.0
 11
991.82083333330002
 21
-651.87499999999989
 31
0.0
  0
CIRCLE
  5
3E0
  8
図枠
 10
962.32083333330002
 20
-651.87499999999989
 30
0.0
 40
6.0
  0
LINE
  5
3E1
  8
図枠
 10
976.03562711259985
 20
-648.875
 30
0.0
 11
988.03562711259997
 21
-645.875
 31
0.0
  0
LINE
  5
3E2
  8
図枠
 10
976.03562711259985
 20
-654.875
 30
0.0
 11
988.03562711259997
 21
-657.875
 31
0.0
  0
LINE
  5
3E3
  8
図枠
  6
BORDER
 10
962.32083333330002
 20
-642.87499999999989
 30
0.0
 11
962.32083333330002
 21
-660.875
 31
0.0
  0
LINE
  5
3E4
  8
図枠
 10
988.03562711259997
 20
-645.875
 30
0.0
 11
988.03562711259997
 21
-657.875
 31
0.0
  0
LINE
  5
3E5
  8
図枠
 10
976.03562711259985
 20
-648.875
 30
0.0
 11
976.03562711259985
 21
-654.875
 31
0.0
  0
LINE
  5
3E6
  8
図枠
 10
976.03562711259985
 20
-648.875
 30
0.0
 11
988.03562711259997
 21
-645.875
 31
0.0
  0
LINE
  5
3E7
  8
図枠
 10
988.03562711259997
 20
-645.875
 30
0.0
 11
988.03562711259997
 21
-657.875
 31
0.0
  0
INSERT
  5
3E8
  8
0
  6
CONTINUOUS
  2
*U86
 10
0.0
 20
0.0
 30
0.0
  0
INSERT
  5
3E9
  8
0
  6
CONTINUOUS
  2
*U87
 10
0.0
 20
0.0
 30
0.0
  0
LINE
  5
3EA
  8
図枠
 62
     5
 10
810.24982095690007
 20
-514.52715201519993
 30
0.0
 11
804.06232095689995
 21
-525.24421638699994
 31
0.0
  0
LINE
  5
3EB
  8
図枠
 62
     5
 10
810.24982095690007
 20
-514.52715201519993
 30
0.0
 11
816.43732095690007
 21
-525.24421638699994
 31
0.0
  0
LINE
  5
3EC
  8
図枠
 62
     5
 10
804.06232095689995
 20
-525.24421638699994
 30
0.0
 11
816.43732095690007
 21
-525.24421638699994
 31
0.0
  0
INSERT
  5
3ED
  8
0
  6
CONTINUOUS
  2
*U88
 10
0.0
 20
0.0
 30
0.0
  0
INSERT
  5
3EE
  8
0
  6
CONTINUOUS
  2
*U89
 10
0.0
 20
0.0
 30
0.0
  0
INSERT
  5
3EF
  8
0
  6
CONTINUOUS
  2
*U90
 10
0.0
 20
0.0
 30
0.0
  0
LINE
  5
3F0
  8
図枠
 10
816.3208333332999
 20
-638.125
 30
0.0
 11
816.3208333332999
 21
-720.62499999999989
 31
0.0
  0
INSERT
  5
3F1
  8
0
  6
CONTINUOUS
  2
*U91
 10
0.0
 20
0.0
 30
0.0
  0
LINE
  5
3F2
  8
図枠
 10
822.5708333332999
 20
-651.87499999999989
 30
0.0
 11
872.57083333330013
 21
-651.87499999999989
 31
0.0
  0
INSERT
  5
3F3
  8
0
  6
CONTINUOUS
  2
*U92
 10
0.0
 20
0.0
 30
0.0
  0
INSERT
  5
3F4
  8
0
  6
CONTINUOUS
  2
*U93
 10
0.0
 20
0.0
 30
0.0
  0
INSERT
  5
3F5
  8
0
  6
CONTINUOUS
  2
*U94
 10
0.0
 20
0.0
 30
0.0
  0
LINE
  5
3F6
  8
図枠
 10
822.5708333332999
 20
-679.375
 30
0.0
 11
903.82083333330013
 21
-679.375
 31
0.0
  0
INSERT
  5
3F7
  8
0
  6
CONTINUOUS
  2
*U95
 10
0.0
 20
0.0
 30
0.0
  0
INSERT
  5
3F8
  8
0
  6
CONTINUOUS
  2
*U96
 10
0.0
 20
0.0
 30
0.0
  0
LINE
  5
3F9
  8
図枠
 10
941.32083333330013
 20
-638.125
 30
0.0
 11
941.32083333330013
 21
-665.625
 31
0.0
  0
LINE
  5
3FA
  8
図枠
 10
935.47244955410008
 20
-702.93331758279999
 30
0.0
 11
935.47244955410008
 21
-706.68331758279999
 31
0.0
  0
LINE
  5
3FB
  8
図枠
 10
942.12396470559986
 20
-711.68331758279987
 30
0.0
 11
942.12396470559986
 21
-715.43331758279999
 31
0.0
  0
LINE
  5
3FC
  8
図枠
 10
942.12396470559986
 20
-715.43331758279999
 30
0.0
 11
942.12396470559986
 21
-711.68331758279987
 31
0.0
  0
LINE
  5
3FD
  8
図枠
 10
942.12396470559986
 20
-697.93331758279987
 30
0.0
 11
942.12396470559986
 21
-702.43331758279987
 31
0.0
  0
LINE
  5
3FE
  8
図枠
 10
942.12396470559986
 20
-704.5438689202
 30
0.0
 11
942.12396470559986
 21
-703.73859325149988
 31
0.0
  0
LINE
  5
3FF
  8
ﾚｲﾔ_1
 62
     5
 10
814.53916367910006
 20
-485.4499321756
 30
0.0
 11
881.13916367909997
 21
-485.4499321756
 31
0.0
  0
INSERT
  5
400
  8
0
  6
CONTINUOUS
  2
*U97
 10
0.0
 20
0.0
 30
0.0
  0
LINE
  5
401
  8
図枠
 10
920.47244955409997
 20
-701.68331758279999
 30
0.0
 11
924.22244955409997
 21
-697.93331758279987
 31
0.0
  0
LINE
  5
402
  8
図枠
 10
925.47244955410008
 20
-702.93331758279999
 30
0.0
 11
920.47244955409997
 21
-702.93331758279999
 31
0.0
  0
LINE
  5
403
  8
図枠
 10
914.22244955409997
 20
-706.68331758279999
 30
0.0
 11
913.84469002520007
 21
-706.68331758279999
 31
0.0
  0
ARC
  5
404
  8
図枠
 10
921.72244955410008
 20
-707.93331758279999
 30
0.0
 40
3.75
 50
270.0
 51
0.0
  0
LINE
  5
405
  8
図枠
 10
925.47244955410008
 20
-706.68331758279999
 30
0.0
 11
925.47244955410008
 21
-707.93331758279999
 31
0.0
  0
LINE
  5
406
  8
図枠
 10
920.47244955409997
 20
-710.43331758279987
 30
0.0
 11
920.47244955409997
 21
-706.68331758279999
 31
0.0
  0
LINE
  5
407
  8
図枠
 10
914.22244955409997
 20
-711.68331758279987
 30
0.0
 11
914.22244955409997
 21
-715.43331758279999
 31
0.0
  0
LINE
  5
408
  8
図枠
 10
910.07083333330013
 20
-665.625
 30
0.0
 11
910.07083333330013
 21
-693.125
 31
0.0
  0
LINE
  5
409
  8
図枠
 62
     5
 10
869.72019517670003
 20
-586.60738952029988
 30
0.0
 11
882.09519517670003
 21
-586.60738952029988
 31
0.0
  0
LINE
  5
40A
  8
図枠
 62
     5
 10
875.90769517669992
 20
-575.89032514839994
 30
0.0
 11
869.72019517670003
 21
-586.60738952029988
 31
0.0
  0
INSERT
  5
40B
  8
0
  6
CONTINUOUS
  2
*U98
 10
0.0
 20
0.0
 30
0.0
  0
LINE
  5
40C
  8
図枠
 62
     5
 10
875.90769517669992
 20
-575.89032514839994
 30
0.0
 11
882.09519517670003
 21
-586.60738952029988
 31
0.0
  0
LINE
  5
40D
  8
図枠
 10
878.82083333330013
 20
-638.125
 30
0.0
 11
878.82083333330013
 21
-665.625
 31
0.0
  0
LINE
  5
40E
  8
図枠
 62
     5
 10
865.49323864060011
 20
-538.40206591729998
 30
0.0
 11
859.3057386406
 21
-549.11913028909987
 31
0.0
  0
LINE
  5
40F
  8
図枠
 62
     5
 10
865.49323864060011
 20
-538.40206591729998
 30
0.0
 11
871.68073864059988
 21
-549.11913028909987
 31
0.0
  0
LINE
  5
410
  8
図枠
 62
     5
 10
859.3057386406
 20
-549.11913028909987
 30
0.0
 11
871.68073864059988
 21
-549.11913028909987
 31
0.0
  0
INSERT
  5
411
  8
0
  6
CONTINUOUS
  2
*U99
 10
0.0
 20
0.0
 30
0.0
  0
INSERT
  5
412
  8
0
  6
CONTINUOUS
  2
*U100
 10
0.0
 20
0.0
 30
0.0
  0
INSERT
  5
413
  8
0
  6
CONTINUOUS
  2
*U101
 10
0.0
 20
0.0
 30
0.0
  0
INSERT
  5
414
  8
0
  6
CONTINUOUS
  2
*U102
 10
0.0
 20
0.0
 30
0.0
  0
INSERT
  5
415
  8
0
  6
CONTINUOUS
  2
*U103
 10
0.0
 20
0.0
 30
0.0
  0
INSERT
  5
416
  8
0
  6
CONTINUOUS
  2
*U104
 10
0.0
 20
0.0
 30
0.0
  0
INSERT
  5
417
  8
0
  6
CONTINUOUS
  2
*U105
 10
0.0
 20
0.0
 30
0.0
  0
LINE
  5
418
  8
図枠
 10
816.3208333332999
 20
-638.125
 30
0.0
 11
816.3208333332999
 21
-625.625
 31
0.0
  0
LINE
  5
419
  8
図枠
 10
838.82083333330002
 20
-638.125
 30
0.0
 11
838.82083333330002
 21
-625.625
 31
0.0
  0
INSERT
  5
41A
  8
0
  6
CONTINUOUS
  2
*U106
 10
0.0
 20
0.0
 30
0.0
  0
LINE
  5
41B
  8
図枠
 10
931.72244955410008
 20
-701.68331758279999
 30
0.0
 11
935.47244955410008
 21
-697.93331758279987
 31
0.0
  0
LINE
  5
41C
  8
図枠
 10
935.47244955410008
 20
-702.93331758279999
 30
0.0
 11
931.72244955410008
 21
-702.93331758279999
 31
0.0
  0
LINE
  5
41D
  8
図枠
 10
931.72244955410008
 20
-706.68331758279999
 30
0.0
 11
935.47244955410008
 21
-706.68331758279999
 31
0.0
  0
LINE
  5
41E
  8
図枠
 10
931.72244955410008
 20
-702.93331758279999
 30
0.0
 11
931.72244955410008
 21
-701.68331758279999
 31
0.0
  0
INSERT
  5
41F
  8
0
  6
CONTINUOUS
  2
*U107
 10
0.0
 20
0.0
 30
0.0
  0
INSERT
  5
420
  8
0
  6
CONTINUOUS
  2
*U108
 10
0.0
 20
0.0
 30
0.0
  0
LINE
  5
421
  8
図枠
 10
885.07083333330013
 20
-651.87499999999989
 30
0.0
 11
935.07083333330013
 21
-651.87499999999989
 31
0.0
  0
INSERT
  5
422
  8
0
  6
CONTINUOUS
  2
*U109
 10
0.0
 20
0.0
 30
0.0
  0
INSERT
  5
423
  8
0
  6
CONTINUOUS
  2
*U110
 10
0.0
 20
0.0
 30
0.0
  0
LINE
  5
424
  8
図枠
 62
     5
 10
868.52247971199995
 20
-625.06628589100001
 30
0.0
 11
880.89747971199995
 21
-625.06628589100001
 31
0.0
  0
LINE
  5
425
  8
図枠
 62
     5
 10
874.70997971199984
 20
-614.34922151910007
 30
0.0
 11
880.89747971199995
 21
-625.06628589100001
 31
0.0
  0
LINE
  5
426
  8
図枠
 62
     5
 10
874.70997971199984
 20
-614.34922151910007
 30
0.0
 11
868.52247971199995
 21
-625.06628589100001
 31
0.0
  0
LINE
  5
427
  8
図枠
 10
911.34469002519995
 20
-702.93331758279999
 30
0.0
 11
911.34469002519995
 21
-706.68331758279999
 31
0.0
  0
LINE
  5
428
  8
図枠
 10
914.22244955409997
 20
-710.43331758279987
 30
0.0
 11
920.47244955409997
 21
-710.43331758279987
 31
0.0
  0
LINE
  5
429
  8
図枠
 10
921.72244955410008
 20
-711.68331758279987
 30
0.0
 11
914.22244955409997
 21
-711.68331758279987
 31
0.0
  0
LINE
  5
42A
  8
図枠
 10
924.22244955409997
 20
-697.93331758279987
 30
0.0
 11
914.22244955409997
 21
-697.93331758279987
 31
0.0
  0
LINE
  5
42B
  8
図枠
 10
914.22244955409997
 20
-715.43331758279999
 30
0.0
 11
924.22244955409997
 21
-715.43331758279999
 31
0.0
  0
LINE
  5
42C
  8
図枠
 10
914.22244955409997
 20
-706.68331758279999
 30
0.0
 11
914.22244955409997
 21
-710.43331758279987
 31
0.0
  0
LINE
  5
42D
  8
図枠
 10
914.22244955409997
 20
-702.93331758279999
 30
0.0
 11
911.34469002519995
 21
-702.93331758279999
 31
0.0
  0
LINE
  5
42E
  8
図枠
 10
925.47244955410008
 20
-697.93331758279987
 30
0.0
 11
925.47244955410008
 21
-702.93331758279999
 31
0.0
  0
LINE
  5
42F
  8
図枠
 10
911.34469002519995
 20
-706.68331758279999
 30
0.0
 11
913.84469002520007
 21
-706.68331758279999
 31
0.0
  0
LINE
  5
430
  8
図枠
 10
920.47244955409997
 20
-706.68331758279999
 30
0.0
 11
925.47244955410008
 21
-706.68331758279999
 31
0.0
  0
LINE
  5
431
  8
図枠
 10
914.22244955409997
 20
-697.93331758279987
 30
0.0
 11
914.22244955409997
 21
-702.93331758279999
 31
0.0
  0
LINE
  5
432
  8
図枠
 10
920.47244955409997
 20
-702.93331758279999
 30
0.0
 11
920.47244955409997
 21
-701.68331758279999
 31
0.0
  0
LINE
  5
433
  8
図枠
 62
     5
 10
953.11011986819994
 20
253.79404374929999
 30
0.0
 11
946.92261986820006
 21
243.07697937750001
 31
0.0
  0
LINE
  5
434
  8
図枠
 62
     5
 10
946.92261986820006
 20
243.07697937750001
 30
0.0
 11
959.29761986819994
 21
243.07697937750001
 31
0.0
  0
INSERT
  5
435
  8
0
  6
CONTINUOUS
  2
*U111
 10
0.0
 20
0.0
 30
0.0
  0
INSERT
  5
436
  8
0
  6
CONTINUOUS
  2
*U112
 10
0.0
 20
0.0
 30
0.0
  0
LINE
  5
437
  8
図枠
 62
     5
 10
946.92261986820006
 20
243.07697937750001
 30
0.0
 11
959.29761986819994
 21
243.07697937750001
 31
0.0
  0
LINE
  5
438
  8
図枠
 62
     5
 10
953.11011986819994
 20
253.79404374929999
 30
0.0
 11
946.92261986820006
 21
243.07697937750001
 31
0.0
  0
LINE
  5
439
  8
図枠
 62
     5
 10
953.11011986819994
 20
266.16904374929999
 30
0.0
 11
946.92261986820006
 21
255.45197937750001
 31
0.0
  0
LINE
  5
43A
  8
図枠
 62
     5
 10
946.92261986820006
 20
255.45197937750001
 30
0.0
 11
959.29761986819994
 21
255.45197937750001
 31
0.0
  0
ARC
  5
43B
  8
0
 62
     5
 10
944.67635139960021
 20
183.01914291739999
 30
0.0
 40
22.0
 50
0.0
 51
90.0
  0
ARC
  5
43C
  8
0
 62
     5
 10
939.17635139959998
 20
172.01914291739999
 30
0.0
 40
22.0
 50
0.0
 51
90.0
  0
LINE
  5
43D
  8
0
 62
     5
 10
961.17635139960009
 20
143.49596292059999
 30
0.0
 11
937.17635139959998
 21
143.49596292059999
 31
0.0
  0
LINE
  5
43E
  8
0
 62
     5
 10
965.05635139960009
 20
131.01914291739999
 30
0.0
 11
933.29635139959998
 21
131.01914291739999
 31
0.0
  0
LINE
  5
43F
  8
ﾚｲﾔ_1
 62
     5
 10
933.17635139960009
 20
125.0191429174
 30
0.0
 11
965.17635139959998
 21
125.0191429174
 31
0.0
  0
LINE
  5
440
  8
0
 10
965.47635139960005
 20
125.0191429174
 30
0.0
 11
932.87635139959991
 21
125.0191429174
 31
0.0
  0
LINE
  5
441
  8
0
 62
     5
 10
963.45635139960007
 20
129.3510468968
 30
0.0
 11
934.89635139960001
 21
129.3510468968
 31
0.0
  0
ARC
  5
442
  8
ﾚｲﾔ_1
  6
BORDER
 62
     3
 10
939.17635139959998
 20
169.01914291739999
 30
0.0
 40
10.0
 50
0.0
 51
90.0
  0
LINE
  5
443
  8
ﾚｲﾔ_1
 62
     5
 10
638.04887079909997
 20
-485.4499321756
 30
0.0
 11
704.6488707991
 21
-485.4499321756
 31
0.0
  0
CIRCLE
  5
444
  8
ﾚｲﾔ_1
 62
     5
 10
671.34887079910004
 20
-385.4499321756
 30
0.0
 40
9.5
  0
CIRCLE
  5
445
  8
ﾚｲﾔ_1
 62
     5
 10
671.34887079910004
 20
-385.4499321756
 30
0.0
 40
9.5
  0
CIRCLE
  5
446
  8
ﾚｲﾔ_1
 62
     5
 10
671.34887079910004
 20
-385.4499321756
 30
0.0
 40
15.25
  0
INSERT
  5
448
  8
ﾚｲﾔ_1
  2
CLUMP2
 10
0.0
 20
0.0
 30
0.0
  0
LINE
  5
459
  8
ﾚｲﾔ_1
  6
BORDER
 62
     3
 10
649.60824579910002
 20
-385.4499321756
 30
0.0
 11
692.07387079909995
 21
-385.4499321756
 31
0.0
  0
LINE
  5
45A
  8
図枠
 10
935.47244955410008
 20
-697.93331758279987
 30
0.0
 11
925.47244955410008
 21
-697.93331758279987
 31
0.0
  0
ARC
  5
45B
  8
図枠
 10
924.22244955409997
 20
-707.93331758279999
 30
0.0
 40
7.5
 50
270.0
 51
0.0
  0
LINE
  5
45C
  8
図枠
 10
931.72244955410008
 20
-707.93331758279999
 30
0.0
 11
931.72244955410008
 21
-706.68331758279999
 31
0.0
  0
INSERT
  5
45D
  8
0
  6
CONTINUOUS
  2
*U113
 10
0.0
 20
0.0
 30
0.0
  0
INSERT
  5
45E
  8
0
  6
CONTINUOUS
  2
*U114
 10
0.0
 20
0.0
 30
0.0
  0
LINE
  5
45F
  8
図枠
 10
942.12396470559986
 20
-702.43331758279987
 30
0.0
 11
954.62396470559986
 21
-702.43331758279987
 31
0.0
  0
INSERT
  5
460
  8
0
  6
CONTINUOUS
  2
*U115
 10
0.0
 20
0.0
 30
0.0
  0
LINE
  5
461
  8
図枠
 10
942.12396470559986
 20
-715.43331758279999
 30
0.0
 11
948.37396470559986
 21
-715.43331758279999
 31
0.0
  0
LINE
  5
462
  8
図枠
 10
964.62396470559986
 20
-697.93331758279987
 30
0.0
 11
942.12396470559986
 21
-697.93331758279987
 31
0.0
  0
LINE
  5
463
  8
図枠
 10
942.12396470559986
 20
-711.68331758279987
 30
0.0
 11
945.12396470559986
 21
-711.68331758279987
 31
0.0
  0
ARC
  5
464
  8
図枠
 10
945.12396470559986
 20
-702.18331758279999
 30
0.0
 40
9.5
 50
270.0
 51
298.08590481520002
  0
LINE
  5
465
  8
図枠
 10
942.12396470559986
 20
-703.73859325149988
 30
0.0
 11
952.12396470559986
 21
-703.73859325149988
 31
0.0
  0
POLYLINE
  8
図枠
  5
AC5
  66
     1
 10
0.000000
 20
0.000000
 30
0.000000
  70
     8
  0
VERTEX
  8
図枠
  5
AC6
 10
942.124
 20
-704.544
 30
0.000000
  70
    32
  0
VERTEX
  8
図枠
  5
AC7
 10
942.169
 20
-704.585
 30
0.000000
  70
    32
  0
VERTEX
  8
図枠
  5
AC8
 10
942.214
 20
-704.627
 30
0.000000
  70
    32
  0
VERTEX
  8
図枠
  5
AC9
 10
942.259
 20
-704.668
 30
0.000000
  70
    32
  0
VERTEX
  8
図枠
  5
ACA
 10
942.304
 20
-704.710
 30
0.000000
  70
    32
  0
VERTEX
  8
図枠
  5
ACB
 10
942.349
 20
-704.751
 30
0.000000
  70
    32
  0
VERTEX
  8
図枠
  5
ACC
 10
942.394
 20
-704.793
 30
0.000000
  70
    32
  0
VERTEX
  8
図枠
  5
ACD
 10
942.439
 20
-704.834
 30
0.000000
  70
    32
  0
VERTEX
  8
図枠
  5
ACE
 10
942.484
 20
-704.876
 30
0.000000
  70
    32
  0
VERTEX
  8
図枠
  5
ACF
 10
942.529
 20
-704.917
 30
0.000000
  70
    32
  0
VERTEX
  8
図枠
  5
AD0
 10
942.574
 20
-704.959
 30
0.000000
  70
    32
  0
VERTEX
  8
図枠
  5
AD1
 10
942.619
 20
-705.000
 30
0.000000
  70
    32
  0
VERTEX
  8
図枠
  5
AD2
 10
942.664
 20
-705.042
 30
0.000000
  70
    32
  0
VERTEX
  8
図枠
  5
AD3
 10
942.710
 20
-705.083
 30
0.000000
  70
    32
  0
VERTEX
  8
図枠
  5
AD4
 10
942.755
 20
-705.125
 30
0.000000
  70
    32
  0
VERTEX
  8
図枠
  5
AD5
 10
942.800
 20
-705.166
 30
0.000000
  70
    32
  0
VERTEX
  8
図枠
  5
AD6
 10
942.845
 20
-705.207
 30
0.000000
  70
    32
  0
VERTEX
  8
図枠
  5
AD7
 10
942.890
 20
-705.249
 30
0.000000
  70
    32
  0
VERTEX
  8
図枠
  5
AD8
 10
942.935
 20
-705.290
 30
0.000000
  70
    32
  0
VERTEX
  8
図枠
  5
AD9
 10
942.980
 20
-705.332
 30
0.000000
  70
    32
  0
VERTEX
  8
図枠
  5
ADA
 10
943.025
 20
-705.373
 30
0.000000
  70
    32
  0
VERTEX
  8
図枠
  5
ADB
 10
943.070
 20
-705.414
 30
0.000000
  70
    32
  0
VERTEX
  8
図枠
  5
ADC
 10
943.115
 20
-705.455
 30
0.000000
  70
    32
  0
VERTEX
  8
図枠
  5
ADD
 10
943.161
 20
-705.497
 30
0.000000
  70
    32
  0
VERTEX
  8
図枠
  5
ADE
 10
943.206
 20
-705.538
 30
0.000000
  70
    32
  0
VERTEX
  8
図枠
  5
ADF
 10
943.251
 20
-705.579
 30
0.000000
  70
    32
  0
VERTEX
  8
図枠
  5
AE0
 10
943.296
 20
-705.621
 30
0.000000
  70
    32
  0
VERTEX
  8
図枠
  5
AE1
 10
943.341
 20
-705.662
 30
0.000000
  70
    32
  0
VERTEX
  8
図枠
  5
AE2
 10
943.386
 20
-705.703
 30
0.000000
  70
    32
  0
VERTEX
  8
図枠
  5
AE3
 10
943.432
 20
-705.744
 30
0.000000
  70
    32
  0
VERTEX
  8
図枠
  5
AE4
 10
943.477
 20
-705.785
 30
0.000000
  70
    32
  0
VERTEX
  8
図枠
  5
AE5
 10
943.522
 20
-705.826
 30
0.000000
  70
    32
  0
VERTEX
  8
図枠
  5
AE6
 10
943.567
 20
-705.867
 30
0.000000
  70
    32
  0
VERTEX
  8
図枠
  5
AE7
 10
943.613
 20
-705.908
 30
0.000000
  70
    32
  0
VERTEX
  8
図枠
  5
AE8
 10
943.658
 20
-705.949
 30
0.000000
  70
    32
  0
VERTEX
  8
図枠
  5
AE9
 10
943.703
 20
-705.990
 30
0.000000
  70
    32
  0
VERTEX
  8
図枠
  5
AEA
 10
943.749
 20
-706.031
 30
0.000000
  70
    32
  0
VERTEX
  8
図枠
  5
AEB
 10
943.794
 20
-706.072
 30
0.000000
  70
    32
  0
VERTEX
  8
図枠
  5
AEC
 10
943.839
 20
-706.113
 30
0.000000
  70
    32
  0
VERTEX
  8
図枠
  5
AED
 10
943.885
 20
-706.154
 30
0.000000
  70
    32
  0
VERTEX
  8
図枠
  5
AEE
 10
943.930
 20
-706.195
 30
0.000000
  70
    32
  0
VERTEX
  8
図枠
  5
AEF
 10
943.976
 20
-706.236
 30
0.000000
  70
    32
  0
VERTEX
  8
図枠
  5
AF0
 10
944.021
 20
-706.276
 30
0.000000
  70
    32
  0
VERTEX
  8
図枠
  5
AF1
 10
944.066
 20
-706.317
 30
0.000000
  70
    32
  0
VERTEX
  8
図枠
  5
AF2
 10
944.112
 20
-706.358
 30
0.000000
  70
    32
  0
VERTEX
  8
図枠
  5
AF3
 10
944.157
 20
-706.399
 30
0.000000
  70
    32
  0
VERTEX
  8
図枠
  5
AF4
 10
944.203
 20
-706.439
 30
0.000000
  70
    32
  0
VERTEX
  8
図枠
  5
AF5
 10
944.248
 20
-706.480
 30
0.000000
  70
    32
  0
VERTEX
  8
図枠
  5
AF6
 10
944.294
 20
-706.520
 30
0.000000
  70
    32
  0
VERTEX
  8
図枠
  5
AF7
 10
944.340
 20
-706.561
 30
0.000000
  70
    32
  0
VERTEX
  8
図枠
  5
AF8
 10
944.385
 20
-706.601
 30
0.000000
  70
    32
  0
VERTEX
  8
図枠
  5
AF9
 10
944.431
 20
-706.642
 30
0.000000
  70
    32
  0
VERTEX
  8
図枠
  5
AFA
 10
944.476
 20
-706.682
 30
0.000000
  70
    32
  0
VERTEX
  8
図枠
  5
AFB
 10
944.522
 20
-706.722
 30
0.000000
  70
    32
  0
VERTEX
  8
図枠
  5
AFC
 10
944.568
 20
-706.763
 30
0.000000
  70
    32
  0
VERTEX
  8
図枠
  5
AFD
 10
944.613
 20
-706.803
 30
0.000000
  70
    32
  0
VERTEX
  8
図枠
  5
AFE
 10
944.659
 20
-706.843
 30
0.000000
  70
    32
  0
VERTEX
  8
図枠
  5
AFF
 10
944.705
 20
-706.883
 30
0.000000
  70
    32
  0
VERTEX
  8
図枠
  5
B00
 10
944.751
 20
-706.923
 30
0.000000
  70
    32
  0
VERTEX
  8
図枠
  5
B01
 10
944.797
 20
-706.963
 30
0.000000
  70
    32
  0
VERTEX
  8
図枠
  5
B02
 10
944.842
 20
-707.003
 30
0.000000
  70
    32
  0
VERTEX
  8
図枠
  5
B03
 10
944.888
 20
-707.043
 30
0.000000
  70
    32
  0
VERTEX
  8
図枠
  5
B04
 10
944.934
 20
-707.083
 30
0.000000
  70
    32
  0
VERTEX
  8
図枠
  5
B05
 10
944.980
 20
-707.123
 30
0.000000
  70
    32
  0
VERTEX
  8
図枠
  5
B06
 10
945.026
 20
-707.163
 30
0.000000
  70
    32
  0
VERTEX
  8
図枠
  5
B07
 10
945.072
 20
-707.202
 30
0.000000
  70
    32
  0
VERTEX
  8
図枠
  5
B08
 10
945.118
 20
-707.242
 30
0.000000
  70
    32
  0
VERTEX
  8
図枠
  5
B09
 10
945.164
 20
-707.282
 30
0.000000
  70
    32
  0
VERTEX
  8
図枠
  5
B0A
 10
945.210
 20
-707.321
 30
0.000000
  70
    32
  0
VERTEX
  8
図枠
  5
B0B
 10
945.257
 20
-707.361
 30
0.000000
  70
    32
  0
VERTEX
  8
図枠
  5
B0C
 10
945.303
 20
-707.400
 30
0.000000
  70
    32
  0
VERTEX
  8
図枠
  5
B0D
 10
945.349
 20
-707.439
 30
0.000000
  70
    32
  0
VERTEX
  8
図枠
  5
B0E
 10
945.395
 20
-707.479
 30
0.000000
  70
    32
  0
VERTEX
  8
図枠
  5
B0F
 10
945.441
 20
-707.518
 30
0.000000
  70
    32
  0
VERTEX
  8
図枠
  5
B10
 10
945.488
 20
-707.557
 30
0.000000
  70
    32
  0
VERTEX
  8
図枠
  5
B11
 10
945.534
 20
-707.596
 30
0.000000
  70
    32
  0
VERTEX
  8
図枠
  5
B12
 10
945.580
 20
-707.635
 30
0.000000
  70
    32
  0
VERTEX
  8
図枠
  5
B13
 10
945.627
 20
-707.674
 30
0.000000
  70
    32
  0
VERTEX
  8
図枠
  5
B14
 10
945.673
 20
-707.713
 30
0.000000
  70
    32
  0
VERTEX
  8
図枠
  5
B15
 10
945.720
 20
-707.752
 30
0.000000
  70
    32
  0
VERTEX
  8
図枠
  5
B16
 10
945.766
 20
-707.791
 30
0.000000
  70
    32
  0
VERTEX
  8
図枠
  5
B17
 10
945.813
 20
-707.829
 30
0.000000
  70
    32
  0
VERTEX
  8
図枠
  5
B18
 10
945.859
 20
-707.868
 30
0.000000
  70
    32
  0
VERTEX
  8
図枠
  5
B19
 10
945.906
 20
-707.907
 30
0.000000
  70
    32
  0
VERTEX
  8
図枠
  5
B1A
 10
945.953
 20
-707.945
 30
0.000000
  70
    32
  0
VERTEX
  8
図枠
  5
B1B
 10
945.999
 20
-707.983
 30
0.000000
  70
    32
  0
VERTEX
  8
図枠
  5
B1C
 10
946.046
 20
-708.022
 30
0.000000
  70
    32
  0
VERTEX
  8
図枠
  5
B1D
 10
946.093
 20
-708.060
 30
0.000000
  70
    32
  0
VERTEX
  8
図枠
  5
B1E
 10
946.140
 20
-708.098
 30
0.000000
  70
    32
  0
VERTEX
  8
図枠
  5
B1F
 10
946.186
 20
-708.136
 30
0.000000
  70
    32
  0
VERTEX
  8
図枠
  5
B20
 10
946.233
 20
-708.174
 30
0.000000
  70
    32
  0
VERTEX
  8
図枠
  5
B21
 10
946.280
 20
-708.212
 30
0.000000
  70
    32
  0
VERTEX
  8
図枠
  5
B22
 10
946.327
 20
-708.250
 30
0.000000
  70
    32
  0
VERTEX
  8
図枠
  5
B23
 10
946.374
 20
-708.288
 30
0.000000
  70
    32
  0
VERTEX
  8
図枠
  5
B24
 10
946.421
 20
-708.326
 30
0.000000
  70
    32
  0
VERTEX
  8
図枠
  5
B25
 10
946.468
 20
-708.364
 30
0.000000
  70
    32
  0
VERTEX
  8
図枠
  5
B26
 10
946.516
 20
-708.401
 30
0.000000
  70
    32
  0
VERTEX
  8
図枠
  5
B27
 10
946.563
 20
-708.439
 30
0.000000
  70
    32
  0
VERTEX
  8
図枠
  5
B28
 10
946.610
 20
-708.476
 30
0.000000
  70
    32
  0
VERTEX
  8
図枠
  5
B29
 10
946.657
 20
-708.513
 30
0.000000
  70
    32
  0
VERTEX
  8
図枠
  5
B2A
 10
946.705
 20
-708.551
 30
0.000000
  70
    32
  0
VERTEX
  8
図枠
  5
B2B
 10
946.752
 20
-708.588
 30
0.000000
  70
    32
  0
VERTEX
  8
図枠
  5
B2C
 10
946.800
 20
-708.625
 30
0.000000
  70
    32
  0
VERTEX
  8
図枠
  5
B2D
 10
946.847
 20
-708.662
 30
0.000000
  70
    32
  0
VERTEX
  8
図枠
  5
B2E
 10
946.895
 20
-708.699
 30
0.000000
  70
    32
  0
VERTEX
  8
図枠
  5
B2F
 10
946.942
 20
-708.735
 30
0.000000
  70
    32
  0
VERTEX
  8
図枠
  5
B30
 10
946.990
 20
-708.772
 30
0.000000
  70
    32
  0
VERTEX
  8
図枠
  5
B31
 10
947.037
 20
-708.809
 30
0.000000
  70
    32
  0
VERTEX
  8
図枠
  5
B32
 10
947.085
 20
-708.845
 30
0.000000
  70
    32
  0
VERTEX
  8
図枠
  5
B33
 10
947.133
 20
-708.882
 30
0.000000
  70
    32
  0
VERTEX
  8
図枠
  5
B34
 10
947.181
 20
-708.918
 30
0.000000
  70
    32
  0
VERTEX
  8
図枠
  5
B35
 10
947.229
 20
-708.954
 30
0.000000
  70
    32
  0
VERTEX
  8
図枠
  5
B36
 10
947.277
 20
-708.990
 30
0.000000
  70
    32
  0
VERTEX
  8
図枠
  5
B37
 10
947.325
 20
-709.026
 30
0.000000
  70
    32
  0
VERTEX
  8
図枠
  5
B38
 10
947.373
 20
-709.062
 30
0.000000
  70
    32
  0
VERTEX
  8
図枠
  5
B39
 10
947.421
 20
-709.098
 30
0.000000
  70
    32
  0
VERTEX
  8
図枠
  5
B3A
 10
947.469
 20
-709.134
 30
0.000000
  70
    32
  0
VERTEX
  8
図枠
  5
B3B
 10
947.517
 20
-709.170
 30
0.000000
  70
    32
  0
VERTEX
  8
図枠
  5
B3C
 10
947.565
 20
-709.205
 30
0.000000
  70
    32
  0
VERTEX
  8
図枠
  5
B3D
 10
947.614
 20
-709.241
 30
0.000000
  70
    32
  0
VERTEX
  8
図枠
  5
B3E
 10
947.662
 20
-709.276
 30
0.000000
  70
    32
  0
VERTEX
  8
図枠
  5
B3F
 10
947.710
 20
-709.311
 30
0.000000
  70
    32
  0
VERTEX
  8
図枠
  5
B40
 10
947.759
 20
-709.346
 30
0.000000
  70
    32
  0
VERTEX
  8
図枠
  5
B41
 10
947.807
 20
-709.381
 30
0.000000
  70
    32
  0
VERTEX
  8
図枠
  5
B42
 10
947.856
 20
-709.416
 30
0.000000
  70
    32
  0
VERTEX
  8
図枠
  5
B43
 10
947.905
 20
-709.451
 30
0.000000
  70
    32
  0
VERTEX
  8
図枠
  5
B44
 10
947.953
 20
-709.486
 30
0.000000
  70
    32
  0
VERTEX
  8
図枠
  5
B45
 10
948.002
 20
-709.520
 30
0.000000
  70
    32
  0
VERTEX
  8
図枠
  5
B46
 10
948.051
 20
-709.555
 30
0.000000
  70
    32
  0
VERTEX
  8
図枠
  5
B47
 10
948.100
 20
-709.589
 30
0.000000
  70
    32
  0
VERTEX
  8
図枠
  5
B48
 10
948.149
 20
-709.623
 30
0.000000
  70
    32
  0
VERTEX
  8
図枠
  5
B49
 10
948.198
 20
-709.658
 30
0.000000
  70
    32
  0
VERTEX
  8
図枠
  5
B4A
 10
948.247
 20
-709.692
 30
0.000000
  70
    32
  0
VERTEX
  8
図枠
  5
B4B
 10
948.296
 20
-709.725
 30
0.000000
  70
    32
  0
VERTEX
  8
図枠
  5
B4C
 10
948.345
 20
-709.759
 30
0.000000
  70
    32
  0
VERTEX
  8
図枠
  5
B4D
 10
948.394
 20
-709.793
 30
0.000000
  70
    32
  0
VERTEX
  8
図枠
  5
B4E
 10
948.444
 20
-709.827
 30
0.000000
  70
    32
  0
VERTEX
  8
図枠
  5
B4F
 10
948.493
 20
-709.860
 30
0.000000
  70
    32
  0
VERTEX
  8
図枠
  5
B50
 10
948.543
 20
-709.893
 30
0.000000
  70
    32
  0
VERTEX
  8
図枠
  5
B51
 10
948.592
 20
-709.927
 30
0.000000
  70
    32
  0
VERTEX
  8
図枠
  5
B52
 10
948.642
 20
-709.960
 30
0.000000
  70
    32
  0
VERTEX
  8
図枠
  5
B53
 10
948.691
 20
-709.993
 30
0.000000
  70
    32
  0
VERTEX
  8
図枠
  5
B54
 10
948.741
 20
-710.026
 30
0.000000
  70
    32
  0
VERTEX
  8
図枠
  5
B55
 10
948.791
 20
-710.058
 30
0.000000
  70
    32
  0
VERTEX
  8
図枠
  5
B56
 10
948.841
 20
-710.091
 30
0.000000
  70
    32
  0
VERTEX
  8
図枠
  5
B57
 10
948.890
 20
-710.123
 30
0.000000
  70
    32
  0
VERTEX
  8
図枠
  5
B58
 10
948.940
 20
-710.156
 30
0.000000
  70
    32
  0
VERTEX
  8
図枠
  5
B59
 10
948.991
 20
-710.188
 30
0.000000
  70
    32
  0
VERTEX
  8
図枠
  5
B5A
 10
949.041
 20
-710.220
 30
0.000000
  70
    32
  0
VERTEX
  8
図枠
  5
B5B
 10
949.091
 20
-710.252
 30
0.000000
  70
    32
  0
VERTEX
  8
図枠
  5
B5C
 10
949.141
 20
-710.284
 30
0.000000
  70
    32
  0
VERTEX
  8
図枠
  5
B5D
 10
949.191
 20
-710.316
 30
0.000000
  70
    32
  0
VERTEX
  8
図枠
  5
B5E
 10
949.242
 20
-710.347
 30
0.000000
  70
    32
  0
VERTEX
  8
図枠
  5
B5F
 10
949.292
 20
-710.379
 30
0.000000
  70
    32
  0
VERTEX
  8
図枠
  5
B60
 10
949.343
 20
-710.410
 30
0.000000
  70
    32
  0
VERTEX
  8
図枠
  5
B61
 10
949.393
 20
-710.441
 30
0.000000
  70
    32
  0
VERTEX
  8
図枠
  5
B62
 10
949.444
 20
-710.472
 30
0.000000
  70
    32
  0
VERTEX
  8
図枠
  5
B63
 10
949.495
 20
-710.503
 30
0.000000
  70
    32
  0
VERTEX
  8
図枠
  5
B64
 10
949.546
 20
-710.534
 30
0.000000
  70
    32
  0
VERTEX
  8
図枠
  5
B65
 10
949.597
 20
-710.565
 30
0.000000
  70
    32
  0
SEQEND
  8
図枠
  5
B66
  0
INSERT
  5
467
  8
0
  6
CONTINUOUS
  2
*U116
 10
0.0
 20
0.0
 30
0.0
  0
DIMENSION
  5
477
  8
寸法線
  2
*D20
 10
562.36762232499996
 20
14.4500678244
 30
0.0
 11
562.36762232499996
 21
28.267906493200002
 31
0.0
 70
   128
  1
4
 13
663.34887079910004
 23
14.4500678244
 33
0.0
 14
636.2488707990999
 24
10.550067824399999
 34
0.0
 50
90.0
  0
DIMENSION
  5
486
  8
寸法線
  2
*D21
 10
594.61583780959995
 20
10.550067824399999
 30
0.0
 11
594.61583780959995
 21
-14.449932175600001
 31
0.0
 70
   128
  1
(50)
 13
636.2488707990999
 23
10.550067824399999
 33
0.0
 14
649.60824579910002
 24
-39.449932175599997
 34
0.0
 50
90.0
  0
ARC
  5
487
  8
ﾚｲﾔ_1
 62
     5
 10
636.2488707990999
 20
-4.949932175599999
 30
0.0
 40
2.5
 50
180.0
 51
270.0
  0
ARC
  5
488
  8
ﾚｲﾔ_1
 62
     5
 10
636.2488707990999
 20
8.050067824400001
 30
0.0
 40
2.5
 50
90.0
 51
180.0
  0
LINE
  5
489
  8
ﾚｲﾔ_1
 62
     5
 10
633.74887079910002
 20
-4.949932175599999
 30
0.0
 11
633.74887079910002
 21
8.050067824400001
 31
0.0
  0
LINE
  5
48A
  8
ﾚｲﾔ_1
  6
BORDER
 62
     3
 10
626.20131270009995
 20
-162.53229415480001
 30
0.0
 11
662.62259774499989
 21
-162.53229415480001
 31
0.0
  0
LINE
  5
48B
  8
ﾚｲﾔ_1
  6
BORDER
 62
     3
 10
626.20131270009995
 20
-170.9826847798
 30
0.0
 11
662.62259774499989
 21
-170.9826847798
 31
0.0
  0
ARC
  5
48C
  8
CONSTRUCTION
 62
     5
 10
636.2488707990999
 20
111.0268229167
 30
0.0
 40
2.5
 50
180.0
 51
270.0
  0
ARC
  5
48D
  8
CONSTRUCTION
 62
     5
 10
636.2488707990999
 20
181.22682291669989
 30
0.0
 40
2.5
 50
90.0
 51
180.0
  0
LINE
  5
48E
  8
CONSTRUCTION
 62
     5
 10
633.74887079910002
 20
111.0268229167
 30
0.0
 11
633.74887079910002
 21
181.22682291669989
 31
0.0
  0
LINE
  5
48F
  8
0
 62
     5
 10
944.67635139960021
 20
205.01914291739999
 30
0.0
 11
929.17635139959998
 21
205.01914291739999
 31
0.0
  0
LINE
  5
490
  8
ﾚｲﾔ_1
 10
986.07888959440015
 20
73.242829150800006
 30
0.0
 11
862.5090883506
 21
73.242829150800006
 31
0.0
  0
LINE
  5
491
  8
ﾚｲﾔ_1
 10
862.5090883506
 20
224.58972982099999
 30
0.0
 11
986.07888959440015
 21
224.58972982099999
 31
0.0
  0
INSERT
  5
492
  8
0
  6
CONTINUOUS
  2
*U117
 10
0.0
 20
0.0
 30
0.0
  0
LINE
  5
493
  8
ﾚｲﾔ_1
 62
     5
 10
812.03916367910006
 20
-469.14993217559987
 30
0.0
 11
812.03916367910006
 21
-482.94993217559988
 31
0.0
  0
LINE
  5
494
  8
ﾚｲﾔ_1
 62
     5
 10
1021.16171875
 20
-469.14993217559987
 30
0.0
 11
1021.16171875
 21
-482.94993217559988
 31
0.0
  0
LINE
  5
495
  8
ﾚｲﾔ_1
 62
     5
 10
1020.36171875
 20
-469.14993217559987
 30
0.0
 11
1020.36171875
 21
-482.94993217559988
 31
0.0
  0
LINE
  5
496
  8
ﾚｲﾔ_1
 62
     5
 10
1022.16171875
 20
-400.44993217559988
 30
0.0
 11
1022.16171875
 21
-482.94993217559988
 31
0.0
  0
ARC
  5
497
  8
ﾚｲﾔ_1
 62
     5
 10
1022.66171875
 20
-482.94993217559988
 30
0.0
 40
1.5
 50
180.0
 51
270.0
  0
LINE
  5
498
  8
ﾚｲﾔ_1
 62
     5
 10
1021.16171875
 20
-482.94993217559988
 30
0.0
 11
1022.16171875
 21
-482.94993217559988
 31
0.0
  0
ARC
  5
499
  8
ﾚｲﾔ_1
 62
     5
 10
1022.86171875
 20
-482.94993217559988
 30
0.0
 40
2.5
 50
180.0
 51
270.0
  0
ARC
  5
49A
  8
ﾚｲﾔ_1
 62
     5
 10
1089.46171875
 20
-482.94993217559988
 30
0.0
 40
2.5
 50
270.0
 51
0.0
  0
LINE
  5
49B
  8
ﾚｲﾔ_1
 62
     5
 10
1090.1617187500001
 20
-482.94993217559988
 30
0.0
 11
1091.1617187500001
 21
-482.94993217559988
 31
0.0
  0
ARC
  5
49C
  8
ﾚｲﾔ_1
 62
     5
 10
1089.6617187500001
 20
-482.94993217559988
 30
0.0
 40
1.5
 50
270.0
 51
0.0
  0
LINE
  5
49D
  8
ﾚｲﾔ_1
 62
     5
 10
1091.96171875
 20
-469.14993217559987
 30
0.0
 11
1091.96171875
 21
-482.94993217559988
 31
0.0
  0
LINE
  5
49E
  8
ﾚｲﾔ_1
 62
     5
 10
1091.1617187500001
 20
-469.14993217559987
 30
0.0
 11
1091.1617187500001
 21
-482.94993217559988
 31
0.0
  0
DIMENSION
  5
4AD
  8
寸法線
  2
*D22
 10
706.34887079910004
 20
56.188609999699999
 30
0.0
 11
671.34887079910004
 21
56.188609999699999
 31
0.0
 70
   128
  1
□70
 13
706.34887079910004
 23
-7.4499321755999981
 33
0.0
 14
636.34887079910004
 24
-7.4499321755999981
 34
0.0
  0
INSERT
  5
4AF
  8
寸法線
  2
BALLON10
 10
0.0
 20
0.0
 30
0.0
  0
DIMENSION
  5
4C6
  8
寸法線
  2
*D24
 10
885.43916367910003
 20
58.612239583300003
 30
0.0
 11
847.83916367910001
 21
58.612239583300003
 31
0.0
 70
   128
  1
□75
 13
885.43916367910003
 23
8.050067824400001
 33
0.0
 14
810.23916367909987
 24
8.050067824400001
 34
0.0
  0
INSERT
  5
4C8
  8
寸法線
  2
BALLON11
 10
0.0
 20
0.0
 30
0.0
  0
INSERT
  5
4D1
  8
0
  6
CONTINUOUS
  2
*U120
 10
0.0
 20
0.0
 30
0.0
  0
LINE
  5
4D2
  8
ﾚｲﾔ_1
 62
     5
 10
635.54887079910009
 20
-469.14993217559987
 30
0.0
 11
707.1488707991
 21
-469.14993217559987
 31
0.0
  0
LINE
  5
4D3
  8
図枠
 10
916.32083333330013
 20
-679.375
 30
0.0
 11
997.57083333330013
 21
-679.375
 31
0.0
  0
INSERT
  5
4D4
  8
0
  6
CONTINUOUS
  2
*U121
 10
0.0
 20
0.0
 30
0.0
  0
INSERT
  5
4D5
  8
0
  6
CONTINUOUS
  2
*U122
 10
0.0
 20
0.0
 30
0.0
  0
INSERT
  5
4D6
  8
0
  6
CONTINUOUS
  2
*U123
 10
0.0
 20
0.0
 30
0.0
  0
INSERT
  5
4D7
  8
0
  6
CONTINUOUS
  2
*U124
 10
0.0
 20
0.0
 30
0.0
  0
INSERT
  5
4D8
  8
0
  6
CONTINUOUS
  2
*U125
 10
0.0
 20
0.0
 30
0.0
  0
INSERT
  5
4D9
  8
0
  6
CONTINUOUS
  2
*U126
 10
0.0
 20
0.0
 30
0.0
  0
LINE
  5
4DA
  8
ﾚｲﾔ_1
 62
     5
 10
1044.1617187500001
 20
-358.4499321756
 30
0.0
 11
1044.1617187500001
 21
-170.9826847798
 31
0.0
  0
LINE
  5
4DB
  8
ﾚｲﾔ_1
 62
     5
 10
1043.1617187500001
 20
-358.4499321756
 30
0.0
 11
1043.1617187500001
 21
-170.9826847798
 31
0.0
  0
LINE
  5
4DC
  8
ﾚｲﾔ_1
 62
     5
 10
1058.1617187500001
 20
-358.4499321756
 30
0.0
 11
1058.1617187500001
 21
-171.95106963000001
 31
0.0
  0
LINE
  5
4DD
  8
ﾚｲﾔ_1
 62
     5
 10
1059.1617187500001
 20
-358.4499321756
 30
0.0
 11
1059.1617187500001
 21
-172.43526205520001
 31
0.0
  0
LINE
  5
4DE
  8
ﾚｲﾔ_1
 62
     5
 10
636.34887079910004
 20
-170.9826847798
 30
0.0
 11
636.34887079910004
 21
-469.14993217559987
 31
0.0
  0
LINE
  5
4DF
  8
ﾚｲﾔ_1
  6
CENTER
 62
     3
 10
1051.1617187500001
 20
-44.449931693599993
 30
0.0
 11
1051.1617187500001
 21
-380.4499321756
 31
0.0
  0
LINE
  5
4E0
  8
ﾚｲﾔ_1
 62
     5
 10
882.83916367910001
 20
-170.9826847798
 30
0.0
 11
882.83916367910001
 21
-469.14993217559987
 31
0.0
  0
LINE
  5
4E1
  8
ﾚｲﾔ_1
 62
     5
 10
812.83916367910001
 20
-170.9826847798
 30
0.0
 11
812.83916367910001
 21
-469.14993217559987
 31
0.0
  0
LINE
  5
4E2
  8
ﾚｲﾔ_1
  6
BORDER
 62
     3
 10
671.34887079910004
 20
19.450067824400001
 30
0.0
 11
671.34887079910004
 21
-490.4499321756
 31
0.0
  0
LINE
  5
4E3
  8
ﾚｲﾔ_1
 62
     5
 10
706.34887079910004
 20
-170.9826847798
 30
0.0
 11
706.34887079910004
 21
-469.14993217559987
 31
0.0
  0
DIMENSION
  5
4F2
  8
寸法線
  2
*D26
 10
562.17924952220005
 20
10.550067824399999
 30
0.0
 11
562.17924952220005
 21
-242.32156994939999
 31
0.0
 70
   128
  1
1200
 13
638.04887079909997
 23
10.550067824399999
 33
0.0
 14
638.04887079909997
 24
-485.4499321756
 34
0.0
 50
90.0
  0
DIMENSION
  5
501
  8
寸法線
  2
*D27
 10
594.36241144849987
 20
-39.449932175599997
 30
0.0
 11
594.36241144849987
 21
-217.50961949200001
 31
0.0
 70
   128
  1
950
 13
649.60824579910002
 23
-39.449932175599997
 33
0.0
 14
649.60824579910002
 24
-385.4499321756
 34
0.0
 50
90.0
  0
LINE
  5
502
  8
ﾚｲﾔ_1
 62
     5
 10
1091.1617187500001
 20
-170.9826847798
 30
0.0
 11
1091.1617187500001
 21
-469.14993217559987
 31
0.0
  0
LINE
  5
503
  8
ﾚｲﾔ_1
 62
     5
 10
1090.1617187500001
 20
-170.9826847798
 30
0.0
 11
1090.1617187500001
 21
-482.94993217559988
 31
0.0
  0
LINE
  5
504
  8
図枠
 62
     5
 10
1178.8208333333
 20
279.375
 30
0.0
 11
1178.8208333333
 21
-720.62499999999989
 31
0.0
  0
LINE
  5
505
  8
ﾚｲﾔ_1
 10
720.56878752660009
 20
-103.05208313519999
 30
0.0
 11
792.18315419600003
 21
-103.05208313519999
 31
0.0
  0
DIMENSION
  5
514
  8
寸法線
  2
*D28
 10
594.18536755399987
 20
-385.4499321756
 30
0.0
 11
594.18536755399987
 21
-435.4499321756
 31
0.0
 70
   128
  1
200
 13
649.60824579910002
 23
-385.4499321756
 33
0.0
 14
638.04887079909997
 24
-485.4499321756
 34
0.0
 50
90.0
  0
LINE
  5
515
  8
ﾚｲﾔ_1
 62
     5
 10
707.1488707991
 20
-469.14993217559987
 30
0.0
 11
707.1488707991
 21
-482.94993217559988
 31
0.0
  0
ARC
  5
516
  8
ﾚｲﾔ_1
 62
     5
 10
704.6488707991
 20
-482.94993217559988
 30
0.0
 40
2.5
 50
270.0
 51
0.0
  0
LINE
  5
517
  8
ﾚｲﾔ_1
 62
     5
 10
635.54887079910009
 20
-469.14993217559987
 30
0.0
 11
635.54887079910009
 21
-482.94993217559988
 31
0.0
  0
ARC
  5
518
  8
ﾚｲﾔ_1
 62
     5
 10
638.04887079909997
 20
-482.94993217559988
 30
0.0
 40
2.5
 50
180.0
 51
270.0
  0
INSERT
  5
51A
  8
ﾚｲﾔ_1
  2
*X29
 10
0.0
 20
0.0
 30
0.0
  0
ARC
  5
52F
  8
ﾚｲﾔ_1
 62
     5
 10
881.13916367909997
 20
-482.94993217559988
 30
0.0
 40
2.5
 50
270.0
 51
0.0
  0
LINE
  5
530
  8
ﾚｲﾔ_1
 62
     5
 10
883.63916367910008
 20
-469.14993217559987
 30
0.0
 11
883.63916367910008
 21
-482.94993217559988
 31
0.0
  0
ARC
  5
531
  8
ﾚｲﾔ_1
 62
     5
 10
814.53916367910006
 20
-482.94993217559988
 30
0.0
 40
2.5
 50
180.0
 51
270.0
  0
LINE
  5
532
  8
図枠
 62
     5
 10
1178.8208333333
 20
279.375
 30
0.0
 11
495.0708333332999
 21
279.375
 31
0.0
  0
LINE
  5
533
  8
図枠
  6
DOT
 10
1193.0208333333001
 20
293.72500000000002
 30
0.0
 11
480.87083333330003
 21
293.72500000000002
 31
0.0
  0
LINE
  5
534
  8
図枠
 10
1178.8208333333
 20
-638.125
 30
0.0
 11
816.3208333332999
 21
-638.125
 31
0.0
  0
LINE
  5
535
  8
図枠
 10
816.3208333332999
 20
-638.125
 30
0.0
 11
1178.8208333333
 21
-638.125
 31
0.0
  0
INSERT
  5
537
  8
図枠
  2
CLUMP3
 10
0.0
 20
0.0
 30
0.0
  0
INSERT
  5
541
  8
図枠
  2
CLUMP4
 10
0.0
 20
0.0
 30
0.0
  0
INSERT
  5
54B
  8
図枠
  2
CLUMP5
 10
0.0
 20
0.0
 30
0.0
  0
INSERT
  5
555
  8
図枠
  2
CLUMP6
 10
0.0
 20
0.0
 30
0.0
  0
INSERT
  5
55F
  8
図枠
  2
CLUMP7
 10
0.0
 20
0.0
 30
0.0
  0
INSERT
  5
569
  8
図枠
  2
CLUMP8
 10
0.0
 20
0.0
 30
0.0
  0
LINE
  5
572
  8
図枠
 10
1178.8208333333
 20
-625.625
 30
0.0
 11
816.3208333332999
 21
-625.625
 31
0.0
  0
LINE
  5
573
  8
図枠
 10
816.3208333332999
 20
-665.625
 30
0.0
 11
1178.8208333333
 21
-665.625
 31
0.0
  0
LINE
  5
574
  8
図枠
 10
816.3208333332999
 20
-693.125
 30
0.0
 11
1178.8208333333
 21
-693.125
 31
0.0
  0
LINE
  5
575
  8
図枠
 10
1178.8208333333
 20
-638.125
 30
0.0
 11
816.3208333332999
 21
-638.125
 31
0.0
  0
LINE
  5
576
  8
図枠
 62
     5
 10
1178.8208333333
 20
-720.62499999999989
 30
0.0
 11
495.0708333332999
 21
-720.62499999999989
 31
0.0
  0
INSERT
  5
578
  8
図枠
  2
CLUMP9
 10
0.0
 20
0.0
 30
0.0
  0
INSERT
  5
581
  8
0
  6
CONTINUOUS
  2
*U127
 10
0.0
 20
0.0
 30
0.0
  0
ARC
  5
582
  8
ﾚｲﾔ_1
 62
     5
 10
1087.2614531899001
 20
114.10872200910001
 30
0.0
 40
22.0
 50
270.0
 51
0.0
  0
INSERT
  5
584
  8
ﾚｲﾔ_1
  2
*X37
 10
0.0
 20
0.0
 30
0.0
  0
INSERT
  5
5A4
  8
寸法線
  2
BALLON12
 10
0.0
 20
0.0
 30
0.0
  0
LINE
  5
5AD
  8
図枠
 62
     5
 10
495.0708333332999
 20
279.375
 30
0.0
 11
495.0708333332999
 21
-720.62499999999989
 31
0.0
  0
LINE
  5
5AE
  8
図枠
  6
DOT
 10
480.87083333330003
 20
293.72500000000002
 30
0.0
 11
480.87083333330003
 21
-734.97500000000002
 31
0.0
  0
INSERT
  5
5B0
  8
ﾚｲﾔ_1
  2
*X39
 10
0.0
 20
0.0
 30
0.0
  0
LINE
  5
5CA
  8
ﾚｲﾔ_1
 62
     5
 10
1022.16171875
 20
-170.9826847798
 30
0.0
 11
1022.16171875
 21
-370.4499321756
 31
0.0
  0
LINE
  5
5CB
  8
ﾚｲﾔ_1
 62
     5
 10
1021.16171875
 20
-170.9826847798
 30
0.0
 11
1021.16171875
 21
-370.4499321756
 31
0.0
  0
INSERT
  5
5D3
  8
0
  6
CONTINUOUS
  2
*U129
 10
0.0
 20
0.0
 30
0.0
  0
LINE
  5
5D4
  8
ﾚｲﾔ_1
 62
     5
 10
1075.7614531899001
 20
172.10872200910001
 30
0.0
 11
1107.7614531899001
 21
172.10872200910001
 31
0.0
  0
LINE
  5
5D5
  8
ﾚｲﾔ_1
 62
     5
 10
1103.7614531899001
 20
153.6319020059
 30
0.0
 11
1079.7614531899001
 21
153.6319020059
 31
0.0
  0
ARC
  5
5D6
  8
ﾚｲﾔ_1
 62
     5
 10
1081.7614531899001
 20
125.10872200910001
 30
0.0
 40
22.0
 50
270.0
 51
0.0
  0
LINE
  5
5D7
  8
ﾚｲﾔ_1
 62
     5
 10
1106.0414531899
 20
167.77681802960001
 30
0.0
 11
1077.4814531899001
 21
167.77681802960001
 31
0.0
  0
LINE
  5
5D8
  8
ﾚｲﾔ_1
 62
     5
 10
1107.6414531898999
 20
166.10872200910001
 30
0.0
 11
1075.8814531899
 21
166.10872200910001
 31
0.0
  0
LINE
  5
5D9
  8
ﾚｲﾔ_1
 62
     5
 10
1108.0614531899
 20
172.10872200910001
 30
0.0
 11
1075.4614531899001
 21
172.10872200910001
 31
0.0
  0
LINE
  5
5DA
  8
ﾚｲﾔ_1
  6
BORDER
 62
     3
 10
1064.8879918041
 20
-162.53229415480001
 30
0.0
 11
1102.692285651
 21
-162.53229415480001
 31
0.0
  0
LINE
  5
5DB
  8
ﾚｲﾔ_1
  6
BORDER
 62
     3
 10
1064.8879918041
 20
-170.9826847798
 30
0.0
 11
1102.692285651
 21
-170.9826847798
 31
0.0
  0
LINE
  5
5DC
  8
図枠
 62
     5
 10
943.8208333332999
 20
254.375
 30
0.0
 11
1178.8208333333
 21
254.375
 31
0.0
  0
LINE
  5
5DD
  8
図枠
 62
     5
 10
943.8208333332999
 20
266.875
 30
0.0
 11
1178.8208333333
 21
266.875
 31
0.0
  0
INSERT
  5
5DE
  8
0
  6
CONTINUOUS
  2
*U130
 10
0.0
 20
0.0
 30
0.0
  0
LINE
  5
5DF
  8
図枠
 62
     5
 10
943.8208333332999
 20
241.875
 30
0.0
 11
1178.8208333333
 21
241.875
 31
0.0
  0
LINE
  5
5E0
  8
ﾚｲﾔ_1
 10
1005.0941901408
 20
224.58972982099999
 30
0.0
 11
1128.6639913846
 21
224.58972982099999
 31
0.0
  0
LINE
  5
5E1
  8
ﾚｲﾔ_1
 10
1128.6639913846
 20
73.242829150800006
 30
0.0
 11
1005.0941901408
 21
73.242829150800006
 31
0.0
  0
INSERT
  5
5E2
  8
0
  6
CONTINUOUS
  2
*U131
 10
0.0
 20
0.0
 30
0.0
  0
INSERT
  5
5E3
  8
0
  6
CONTINUOUS
  2
*U132
 10
0.0
 20
0.0
 30
0.0
  0
INSERT
  5
5E4
  8
0
  6
CONTINUOUS
  2
*U133
 10
0.0
 20
0.0
 30
0.0
  0
INSERT
  5
5E5
  8
0
  6
CONTINUOUS
  2
*U134
 10
0.0
 20
0.0
 30
0.0
  0
ENDSEC
  0
EOF
