  0
SECTION
  2
HEADER
  9
$ACADVER
  1
AC1009
  9
$INSBASE
 10
0.0
 20
0.0
 30
0.0
  9
$EXTMIN
 10
480.82364734247028
 20
-735.08365842893545
 30
-6.6004028012980731
  9
$EXTMAX
 10
1193.0572087293631
 20
294.0807013312151
 30
6.600402862765363
  9
$LIMMIN
 10
0.0
 20
0.0
  9
$LIMMAX
 10
0.0
 20
0.0
  9
$ORTHOMODE
 70
     0
  9
$REGENMODE
 70
     1
  9
$FILLMODE
 70
     1
  9
$QTEXTMODE
 70
     0
  9
$MIRRTEXT
 70
     1
  9
$DRAGMODE
 70
     2
  9
$LTSCALE
 40
1.0
  9
$OSMODE
 70
    31
  9
$ATTMODE
 70
     1
  9
$TEXTSIZE
 40
0.0
  9
$TRACEWID
 40
0.05
  9
$TEXTSTYLE
  7
STANDARD
  9
$CLAYER
  8
0
  9
$CELTYPE
  6
CONTINUOUS
  9
$CECOLOR
 62
   256
  9
$DIMSCALE
 40
1.0
  9
$DIMASZ
 40
0.18
  9
$DIMEXO
 40
0.0625
  9
$DIMDLI
 40
0.38
  9
$DIMRND
 40
0.0
  9
$DIMDLE
 40
0.0
  9
$DIMEXE
 40
0.18
  9
$DIMTP
 40
0.0
  9
$DIMTM
 40
0.0
  9
$DIMTXT
 40
0.18
  9
$DIMCEN
 40
0.09
  9
$DIMTSZ
 40
0.0
  9
$DIMTOL
 70
     0
  9
$DIMLIM
 70
     0
  9
$DIMTIH
 70
     1
  9
$DIMTOH
 70
     1
  9
$DIMSE1
 70
     0
  9
$DIMSE2
 70
     0
  9
$DIMTAD
 70
     0
  9
$DIMZIN
 70
     0
  9
$DIMBLK
  1

  9
$DIMASO
 70
     1
  9
$DIMSHO
 70
     1
  9
$DIMPOST
  1

  9
$DIMAPOST
  1

  9
$DIMALT
 70
     0
  9
$DIMALTD
 70
     2
  9
$DIMALTF
 40
25.399999999999999
  9
$DIMLFAC
 40
1.0
  9
$DIMTOFL
 70
     0
  9
$DIMTVP
 40
0.0
  9
$DIMTIX
 70
     0
  9
$DIMSOXD
 70
     0
  9
$DIMSAH
 70
     0
  9
$DIMBLK1
  1

  9
$DIMBLK2
  1

  9
$DIMSTYLE
  2
STANDARD
  9
$DIMCLRD
 70
     0
  9
$DIMCLRE
 70
     0
  9
$DIMCLRT
 70
     0
  9
$DIMTFAC
 40
1.0
  9
$DIMGAP
 40
0.09
  9
$LUNITS
 70
     2
  9
$LUPREC
 70
     4
  9
$SKETCHINC
 40
0.1
  9
$FILLETRAD
 40
0.0
  9
$AUNITS
 70
     0
  9
$AUPREC
 70
     0
  9
$MENU
  1
acad
  9
$ELEVATION
 40
0.0
  9
$PELEVATION
 40
0.0
  9
$THICKNESS
 40
0.0
  9
$LIMCHECK
 70
     0
  9
$BLIPMODE
 70
     0
  9
$CHAMFERA
 40
0.0
  9
$CHAMFERB
 40
0.0
  9
$SKPOLY
 70
     0
  9
$TDCREATE
 40
2454860.7204443291
  9
$TDUPDATE
 40
2454860.7207165048
  9
$TDINDWG
 40
0.0003045486
  9
$TDUSRTIMER
 40
0.0003041898
  9
$USRTIMER
 70
     1
  9
$ANGBASE
 50
0.0
  9
$ANGDIR
 70
     0
  9
$PDMODE
 70
     3
  9
$PDSIZE
 40
-1.0
  9
$PLINEWID
 40
0.0
  9
$COORDS
 70
     2
  9
$SPLFRAME
 70
     0
  9
$SPLINETYPE
 70
     6
  9
$SPLINESEGS
 70
     8
  9
$ATTDIA
 70
     0
  9
$ATTREQ
 70
     1
  9
$HANDLING
 70
     1
  9
$HANDSEED
  5
9EF
  9
$SURFTAB1
 70
     6
  9
$SURFTAB2
 70
     6
  9
$SURFTYPE
 70
     6
  9
$SURFU
 70
     6
  9
$SURFV
 70
     6
  9
$UCSNAME
  2

  9
$UCSORG
 10
0.0
 20
0.0
 30
0.0
  9
$UCSXDIR
 10
1.0
 20
0.0
 30
0.0
  9
$UCSYDIR
 10
0.0
 20
1.0
 30
0.0
  9
$PUCSNAME
  2

  9
$PUCSORG
 10
0.0
 20
0.0
 30
0.0
  9
$PUCSXDIR
 10
1.0
 20
0.0
 30
0.0
  9
$PUCSYDIR
 10
0.0
 20
1.0
 30
0.0
  9
$USERI1
 70
     0
  9
$USERI2
 70
     0
  9
$USERI3
 70
     0
  9
$USERI4
 70
     0
  9
$USERI5
 70
     0
  9
$USERR1
 40
0.0
  9
$USERR2
 40
0.0
  9
$USERR3
 40
0.0
  9
$USERR4
 40
0.0
  9
$USERR5
 40
0.0
  9
$WORLDVIEW
 70
     1
  9
$SHADEDGE
 70
     3
  9
$SHADEDIF
 70
    70
  9
$TILEMODE
 70
     1
  9
$MAXACTVP
 70
    16
  9
$PLIMCHECK
 70
     0
  9
$PEXTMIN
 10
1.0000000000000000E+020
 20
1.0000000000000000E+020
 30
1.0000000000000000E+020
  9
$PEXTMAX
 10
-1.0000000000000000E+020
 20
-1.0000000000000000E+020
 30
-1.0000000000000000E+020
  9
$PLIMMIN
 10
0.0
 20
0.0
  9
$PLIMMAX
 10
12.0
 20
9.0
  9
$UNITMODE
 70
     0
  9
$VISRETAIN
 70
     0
  9
$PLINEGEN
 70
     1
  9
$PSLTSCALE
 70
     0
  0
ENDSEC
  0
SECTION
  2
TABLES
  0
TABLE
  2
VPORT
 70
     2
  0
VPORT
  2
*ACTIVE
 70
     0
 10
0.0
 20
0.0
 11
1.0
 21
1.0
 12
836.94042803591685
 22
-220.50147854886021
 13
0.0
 23
0.0
 14
1.0
 24
1.0
 15
0.0
 25
0.0
 16
0.0
 26
0.0
 36
1.0
 17
0.0
 27
0.0
 37
0.0
 40
1037.7051428286991
 41
1.6343490304709141
 42
50.0
 43
0.0
 44
0.0
 50
0.0
 51
0.0
 71
     0
 72
   100
 73
     1
 74
     1
 75
     0
 76
     0
 77
     0
 78
     0
  0
ENDTAB
  0
TABLE
  2
LTYPE
 70
    11
  0
LTYPE
  2
CONTINUOUS
 70
     0
  3
Solid line
 72
    65
 73
     0
 40
0.0
  0
LTYPE
  2
DOT
 70
     0
  3
. . . . . . . . 
 72
    65
 73
     2
 40
1.0
 49
0.0
 49
-1.0
  0
LTYPE
  2
DASHED
 70
     0
  3
___  ___  ___  ___  
 72
    65
 73
     2
 40
4.0
 49
3.0
 49
-1.0
  0
LTYPE
  2
HIDDEN
 70
     0
  3
__ __ __ __ 
 72
    65
 73
     2
 40
3.0
 49
2.0
 49
-1.0
  0
LTYPE
  2
STITCH
 70
     0
  3
_ _ _ _ 
 72
    65
 73
     2
 40
2.0
 49
1.0
 49
-1.0
  0
LTYPE
  2
CENTER
 70
     0
  3
______  __  ______  __  
 72
    65
 73
     4
 40
43.0
 49
40.0
 49
-1.0
 49
1.0
 49
-1.0
  0
LTYPE
  2
DASHDOT
 70
     0
  3
____ . ____ . 
 72
    65
 73
     4
 40
32.0
 49
30.0
 49
-1.0
 49
0.0
 49
-1.0
  0
LTYPE
  2
BORDER
 70
     0
  3
__ . __ . 
 72
    65
 73
     4
 40
22.0
 49
20.0
 49
-1.0
 49
0.0
 49
-1.0
  0
LTYPE
  2
CUTTING
 70
     0
  3
________   ___   ___   
 72
    65
 73
     6
 40
45.0
 49
40.0
 49
-1.0
 49
1.0
 49
-1.0
 49
1.0
 49
-1.0
  0
LTYPE
  2
PHANTOM
 70
     0
  3
______  __  __  
 72
    65
 73
     6
 40
35.0
 49
30.0
 49
-1.0
 49
1.0
 49
-1.0
 49
1.0
 49
-1.0
  0
LTYPE
  2
DIVIDE
 70
     0
  3
____ . . ____ . . 
 72
    65
 73
     6
 40
23.0
 49
20.0
 49
-1.0
 49
0.0
 49
-1.0
 49
0.0
 49
-1.0
  0
ENDTAB
  0
TABLE
  2
LAYER
 70
     6
  0
LAYER
  2
0
 70
     0
 62
     7
  6
CONTINUOUS
  0
LAYER
  2
図枠
 70
     0
 62
     7
  6
CONTINUOUS
  0
LAYER
  2
ﾚｲﾔ_1
 70
     0
 62
     7
  6
CONTINUOUS
  0
LAYER
  2
CONSTRUCTION
 70
     0
 62
     7
  6
CONTINUOUS
  0
LAYER
  2
寸法線
 70
     0
 62
     7
  6
CONTINUOUS
  0
LAYER
  2
改訂
 70
     0
 62
     7
  6
CONTINUOUS
  0
ENDTAB
  0
TABLE
  2
STYLE
 70
     1
  0
STYLE
  2
STANDARD
 70
     0
 40
0.0
 41
1.0
 50
0.0
 71
     0
 42
0.0
  3
txt
  4
extfont
  0
ENDTAB
  0
TABLE
  2
VIEW
 70
     0
  0
ENDTAB
  0
TABLE
  2
UCS
 70
     0
  0
ENDTAB
  0
TABLE
  2
APPID
 70
     2
  0
APPID
  2
ACAD
 70
     0
  0
APPID
  2
DCO15
 70
     0
  0
ENDTAB
  0
TABLE
  2
DIMSTYLE
 70
     2
  0
DIMSTYLE
  2
STANDARD
 70
     0
  3

  4

  5

  6

  7

 40
1.0
 41
0.18
 42
0.0625
 43
0.38
 44
0.18
 45
0.0
 46
0.0
 47
0.0
 48
0.0
140
0.18
141
0.09
142
0.0
143
25.399999999999999
144
1.0
145
0.0
146
1.0
147
0.09
 71
     0
 72
     0
 73
     1
 74
     1
 75
     0
 76
     0
 77
     0
 78
     0
170
     0
171
     2
172
     0
173
     0
174
     0
175
     0
176
     0
177
     0
178
     0
  0
DIMSTYLE
  2
VELDIM0
 70
     0
  3

  4

  5

  6

  7

 40
1.0
 41
7.5
 42
0.0625
 43
0.38
 44
0.5
 45
0.0
 46
3.0
 47
0.0
 48
0.0
140
7.4965279578999988
141
0.09
142
0.0
143
25.399999999999999
144
1.0
145
0.0
146
1.0
147
0.09
 71
     0
 72
     0
 73
     0
 74
     0
 75
     0
 76
     0
 77
     0
 78
     8
170
     0
171
     2
172
     0
173
     0
174
     0
175
     0
176
     0
177
     0
178
     0
  0
ENDTAB
  0
ENDSEC
  0
SECTION
  2
BLOCKS
  0
BLOCK
  8
0
  2
$MODEL_SPACE
 70
     0
 10
0.0
 20
0.0
 30
0.0
  3
$MODEL_SPACE
  1

  0
ENDBLK
  5
E
  8
0
  0
BLOCK
 67
     1
  8
0
  2
$PAPER_SPACE
 70
     0
 10
0.0
 20
0.0
 30
0.0
  3
$PAPER_SPACE
  1

  0
ENDBLK
  5
10
 67
     1
  8
0
  0
BLOCK
  8
0
  2
*X0
 70
     1
 10
0.0
 20
0.0
 30
0.0
  3
*X0
  1

  0
ENDBLK
  5
80
  8
0
  0
BLOCK
  8
0
  2
*X1
 70
     1
 10
0.0
 20
0.0
 30
0.0
  3
*X1
  1

  0
ENDBLK
  5
96
  8
0
  0
BLOCK
  8
0
  2
*X2
 70
     1
 10
0.0
 20
0.0
 30
0.0
  3
*X2
  1

  0
ENDBLK
  5
119
  8
0
  0
BLOCK
  8
0
  2
*X3
 70
     1
 10
0.0
 20
0.0
 30
0.0
  3
*X3
  1

  0
ENDBLK
  5
13A
  8
0
  0
BLOCK
  8
0
  2
*X4
 70
     1
 10
0.0
 20
0.0
 30
0.0
  3
*X4
  1

  0
LINE
  5
1AE
  8
ﾚｲﾔ_1
 10
1040.0
 20
-167.14564074110001
 30
0.0
 11
1040.0
 21
-65.34720324109999
 31
0.0
  0
LINE
  5
1AF
  8
ﾚｲﾔ_1
 10
1030.0
 20
-167.14564074110001
 30
0.0
 11
1030.0
 21
-65.34720324109999
 31
0.0
  0
LINE
  5
1B0
  8
ﾚｲﾔ_1
 10
1023.66171875
 20
-76.358828400500002
 30
0.0
 11
1034.6733439094
 21
-65.34720324109999
 31
0.0
  0
LINE
  5
1B1
  8
ﾚｲﾔ_1
 10
1023.66171875
 20
-96.3592019851
 30
0.0
 11
1041.96171875
 21
-78.059201985100003
 31
0.0
  0
LINE
  5
1B2
  8
ﾚｲﾔ_1
 10
1023.66171875
 20
-116.3595755696
 30
0.0
 11
1041.96171875
 21
-98.059575569599986
 31
0.0
  0
LINE
  5
1B3
  8
ﾚｲﾔ_1
 10
1023.66171875
 20
-136.3599491542
 30
0.0
 11
1041.96171875
 21
-118.0599491542
 31
0.0
  0
LINE
  5
1B4
  8
ﾚｲﾔ_1
 10
1023.66171875
 20
-156.36032273870001
 30
0.0
 11
1041.96171875
 21
-138.06032273869999
 31
0.0
  0
LINE
  5
1B5
  8
ﾚｲﾔ_1
 10
1032.8767743322001
 20
-167.14564074110001
 30
0.0
 11
1041.96171875
 21
-158.06069632329999
 31
0.0
  0
LINE
  5
1B6
  8
ﾚｲﾔ_1
 10
1027.1617048769001
 20
-167.14564074110001
 30
0.0
 11
1023.66171875
 21
-163.6456546142
 31
0.0
  0
LINE
  5
1B7
  8
ﾚｲﾔ_1
 10
1041.96171875
 20
-161.94528102960001
 30
0.0
 11
1023.66171875
 21
-143.6452810296
 31
0.0
  0
LINE
  5
1B8
  8
ﾚｲﾔ_1
 10
1041.96171875
 20
-141.94490744500001
 30
0.0
 11
1023.66171875
 21
-123.644907445
 31
0.0
  0
LINE
  5
1B9
  8
ﾚｲﾔ_1
 10
1041.96171875
 20
-121.9445338605
 30
0.0
 11
1023.66171875
 21
-103.6445338605
 31
0.0
  0
LINE
  5
1BA
  8
ﾚｲﾔ_1
 10
1041.96171875
 20
-101.9441602759
 30
0.0
 11
1023.66171875
 21
-83.644160275900006
 31
0.0
  0
LINE
  5
1BB
  8
ﾚｲﾔ_1
 10
1041.96171875
 20
-81.943786691400007
 30
0.0
 11
1025.3651352996999
 21
-65.34720324109999
 31
0.0
  0
ENDBLK
  5
1BC
  8
0
  0
BLOCK
  8
0
  2
CLUMP0
 70
     0
 10
0.0
 20
0.0
 30
0.0
  3
CLUMP0
  1

  0
INSERT
  5
20D
  8
0
  6
CONTINUOUS
  2
*U50
 10
0.0
 20
0.0
 30
0.0
  0
LINE
  5
20E
  8
ﾚｲﾔ_1
 10
850.9982525488
 20
-38.254294389599998
 30
0.0
 11
850.9982525488
 21
-113.25429438960001
 31
0.0
  0
LINE
  5
20F
  8
ﾚｲﾔ_1
 10
848.99825254879988
 20
-40.254294389599991
 30
0.0
 11
848.99825254879988
 21
-115.25429438960001
 31
0.0
  0
LINE
  5
210
  8
ﾚｲﾔ_1
 10
846.99825254879988
 20
-42.254294389599998
 30
0.0
 11
846.99825254879988
 21
-117.25429438960001
 31
0.0
  0
LINE
  5
211
  8
ﾚｲﾔ_1
 10
844.9982525488
 20
-44.254294389599998
 30
0.0
 11
844.9982525488
 21
-119.25429438960001
 31
0.0
  0
LINE
  5
212
  8
ﾚｲﾔ_1
 10
842.9982525488
 20
-46.254294389599998
 30
0.0
 11
842.9982525488
 21
-121.25429438960001
 31
0.0
  0
LINE
  5
213
  8
ﾚｲﾔ_1
 10
838.99825254879988
 20
-50.254294389599991
 30
0.0
 11
838.99825254879988
 21
-125.25429438960001
 31
0.0
  0
LINE
  5
214
  8
ﾚｲﾔ_1
 10
836.9982525488
 20
-52.254294389599998
 30
0.0
 11
836.9982525488
 21
-127.25429438960001
 31
0.0
  0
LINE
  5
215
  8
ﾚｲﾔ_1
 10
834.9982525488
 20
-54.254294389599998
 30
0.0
 11
834.9982525488
 21
-129.25429438960001
 31
0.0
  0
LINE
  5
216
  8
ﾚｲﾔ_1
 10
832.9982525488
 20
-56.254294389599998
 30
0.0
 11
832.9982525488
 21
-131.25429438960001
 31
0.0
  0
LINE
  5
217
  8
ﾚｲﾔ_1
 10
840.9982525488
 20
-48.254294389599998
 30
0.0
 11
840.9982525488
 21
-123.25429438960001
 31
0.0
  0
ENDBLK
  5
218
  8
0
  0
BLOCK
  8
0
  2
*X6
 70
     1
 10
0.0
 20
0.0
 30
0.0
  3
*X6
  1

  0
LINE
  5
22E
  8
ﾚｲﾔ_1
 10
1080.0
 20
-165.26048449109999
 30
0.0
 11
1080.0
 21
-32.143948032700003
 31
0.0
  0
LINE
  5
22F
  8
ﾚｲﾔ_1
 10
1070.0
 20
-165.26048449109999
 30
0.0
 11
1070.0
 21
-32.143948032700003
 31
0.0
  0
LINE
  5
230
  8
ﾚｲﾔ_1
 10
1067.4691802932
 20
-32.55136685730001
 30
0.0
 11
1067.8765991178
 21
-32.143948032700003
 31
0.0
  0
LINE
  5
231
  8
ﾚｲﾔ_1
 10
1067.4691802932
 20
-52.5517404418
 30
0.0
 11
1087.8769727023
 21
-32.143948032700003
 31
0.0
  0
LINE
  5
232
  8
ﾚｲﾔ_1
 10
1067.4691802932
 20
-72.552114026400005
 30
0.0
 11
1088.3796429869999
 21
-51.641651332599999
 31
0.0
  0
LINE
  5
233
  8
ﾚｲﾔ_1
 10
1067.4691802932
 20
-92.552487610899988
 30
0.0
 11
1088.3796429869999
 21
-71.642024917200004
 31
0.0
  0
LINE
  5
234
  8
ﾚｲﾔ_1
 10
1067.4691802932
 20
-112.5528611955
 30
0.0
 11
1088.3796429869999
 21
-91.642398501700001
 31
0.0
  0
LINE
  5
235
  8
ﾚｲﾔ_1
 10
1067.4691802932
 20
-132.55323478
 30
0.0
 11
1088.3796429869999
 21
-111.6427720863
 31
0.0
  0
LINE
  5
236
  8
ﾚｲﾔ_1
 10
1067.4691802932
 20
-152.5536083646
 30
0.0
 11
1088.3796429869999
 21
-131.6431456709
 31
0.0
  0
LINE
  5
237
  8
ﾚｲﾔ_1
 10
1074.7626777513001
 20
-165.26048449109999
 30
0.0
 11
1088.3796429869999
 21
-151.64351925540001
 31
0.0
  0
LINE
  5
238
  8
ﾚｲﾔ_1
 10
1085.2776693805999
 20
-165.26048449109999
 30
0.0
 11
1067.4691802932
 21
-147.45199540370001
 31
0.0
  0
LINE
  5
239
  8
ﾚｲﾔ_1
 10
1088.3796429869999
 20
-148.3620845129
 30
0.0
 11
1067.4691802932
 21
-127.4516218192
 31
0.0
  0
LINE
  5
23A
  8
ﾚｲﾔ_1
 10
1088.3796429869999
 20
-128.36171092839999
 30
0.0
 11
1067.4691802932
 21
-107.4512482346
 31
0.0
  0
LINE
  5
23B
  8
ﾚｲﾔ_1
 10
1088.3796429869999
 20
-108.3613373438
 30
0.0
 11
1067.4691802932
 21
-87.450874650100005
 31
0.0
  0
LINE
  5
23C
  8
ﾚｲﾔ_1
 10
1088.3796429869999
 20
-88.360963759200004
 30
0.0
 11
1067.4691802932
 21
-67.450501065500006
 31
0.0
  0
LINE
  5
23D
  8
ﾚｲﾔ_1
 10
1088.3796429869999
 20
-68.360590174700008
 30
0.0
 11
1067.4691802932
 21
-47.450127480900001
 31
0.0
  0
LINE
  5
23E
  8
ﾚｲﾔ_1
 10
1088.3796429869999
 20
-48.360216590100002
 30
0.0
 11
1072.1633744296
 21
-32.143948032700003
 31
0.0
  0
ENDBLK
  5
23F
  8
0
  0
BLOCK
  8
0
  2
*X7
 70
     1
 10
0.0
 20
0.0
 30
0.0
  3
*X7
  1

  0
LINE
  5
243
  8
ﾚｲﾔ_1
 10
1040.0
 20
-26.893948032699999
 30
0.0
 11
1040.0
 21
-2.3939480327
 31
0.0
  0
LINE
  5
244
  8
ﾚｲﾔ_1
 10
1060.0
 20
-26.893948032699999
 30
0.0
 11
1060.0
 21
-2.3939480327
 31
0.0
  0
LINE
  5
245
  8
ﾚｲﾔ_1
 10
1080.0
 20
-26.893948032699999
 30
0.0
 11
1080.0
 21
-2.3939480327
 31
0.0
  0
LINE
  5
246
  8
ﾚｲﾔ_1
 10
1030.0
 20
-26.893948032699999
 30
0.0
 11
1030.0
 21
-2.3939480327
 31
0.0
  0
LINE
  5
247
  8
ﾚｲﾔ_1
 10
1050.0
 20
-26.893948032699999
 30
0.0
 11
1050.0
 21
-2.3939480327
 31
0.0
  0
LINE
  5
248
  8
ﾚｲﾔ_1
 10
1070.0
 20
-26.893948032699999
 30
0.0
 11
1070.0
 21
-2.3939480327
 31
0.0
  0
LINE
  5
249
  8
ﾚｲﾔ_1
 10
1025.1235231953001
 20
-14.895903201499999
 30
0.0
 11
1037.6254783641
 21
-2.3939480327
 31
0.0
  0
LINE
  5
24A
  8
ﾚｲﾔ_1
 10
1033.1258519486
 20
-26.893948032699999
 30
0.0
 11
1057.6258519486
 21
-2.3939480327
 31
0.0
  0
LINE
  5
24B
  8
ﾚｲﾔ_1
 10
1053.1262255332001
 20
-26.893948032699999
 30
0.0
 11
1077.6262255332001
 21
-2.3939480327
 31
0.0
  0
LINE
  5
24C
  8
ﾚｲﾔ_1
 10
1073.1265991178
 20
-26.893948032699999
 30
0.0
 11
1088.1235231953001
 21
-11.8970239552
 31
0.0
  0
LINE
  5
24D
  8
ﾚｲﾔ_1
 10
1026.9126272604999
 20
-26.893948032699999
 30
0.0
 11
1025.1235231953001
 21
-25.104843967600001
 31
0.0
  0
LINE
  5
24E
  8
ﾚｲﾔ_1
 10
1046.9130008449999
 20
-26.893948032699999
 30
0.0
 11
1025.1235231953001
 21
-5.1044703829999989
 31
0.0
  0
LINE
  5
24F
  8
ﾚｲﾔ_1
 10
1066.9133744296
 20
-26.893948032699999
 30
0.0
 11
1042.4133744296
 21
-2.3939480327
 31
0.0
  0
LINE
  5
250
  8
ﾚｲﾔ_1
 10
1086.9137480141001
 20
-26.893948032699999
 30
0.0
 11
1062.4137480141001
 21
-2.3939480327
 31
0.0
  0
LINE
  5
251
  8
ﾚｲﾔ_1
 10
1088.1235231953001
 20
-8.1033496294000003
 30
0.0
 11
1082.4141215986999
 21
-2.3939480327
 31
0.0
  0
ENDBLK
  5
252
  8
0
  0
BLOCK
  8
0
  2
CLUMP1
 70
     0
 10
0.0
 20
0.0
 30
0.0
  3
CLUMP1
  1

  0
CIRCLE
  5
288
  8
0
 10
671.34887079880002
 20
-47.47226562529999
 30
6.5999999999999988
 40
11.0
  0
CIRCLE
  5
289
  8
0
 10
671.34887079880002
 20
-47.47226562529999
 30
5.5999999999999988
 40
13.5
  0
CIRCLE
  5
28A
  8
0
 10
671.34887079880002
 20
-47.47226562529999
 30
5.5999999999999988
 40
13.5
  0
CIRCLE
  5
28B
  8
0
 10
671.34887079880002
 20
-47.47226562529999
 30
6.5999999999999988
 40
13.5
  0
CIRCLE
  5
28C
  8
0
 10
671.34887079880002
 20
-47.47226562529999
 30
6.5999999999999988
 40
13.5
  0
CIRCLE
  5
28D
  8
0
 10
671.34887079880002
 20
-47.47226562529999
 30
4.2999999999999989
 40
11.0
  0
CIRCLE
  5
28E
  8
0
 10
671.34887079880002
 20
-47.47226562529999
 30
4.2999999999999989
 40
11.0
  0
CIRCLE
  5
28F
  8
0
 10
671.34887079880002
 20
-47.47226562529999
 30
3.2999999999999989
 40
11.0
  0
CIRCLE
  5
290
  8
0
 10
671.34887079880002
 20
-47.47226562529999
 30
4.2999999999999989
 40
11.0
  0
CIRCLE
  5
291
  8
0
 10
671.34887079880002
 20
-47.47226562529999
 30
3.2999999999999989
 40
11.0
  0
CIRCLE
  5
292
  8
0
 10
671.34887079880002
 20
-47.47226562529999
 30
4.2999999999999989
 40
11.0
  0
CIRCLE
  5
293
  8
0
 10
671.34887079880002
 20
-47.47226562529999
 30
6.5999999999999988
 40
11.0
  0
CIRCLE
  5
294
  8
0
 10
671.34887079910004
 20
-47.472265624999991
 30
0.0
 40
12.0
  0
CIRCLE
  5
295
  8
0
 10
671.34887079769987
 20
-47.472265627099993
 30
0.0
 40
14.5
  0
ENDBLK
  5
296
  8
0
  0
BLOCK
  8
0
  2
CLUMP2
 70
     0
 10
0.0
 20
0.0
 30
0.0
  3
CLUMP2
  1

  0
CIRCLE
  5
3D7
  8
0
 10
671.34887080019996
 20
-393.47226562319997
 30
6.5999999999999988
 40
11.0
  0
CIRCLE
  5
3D8
  8
0
 10
671.34887080019996
 20
-393.47226562319997
 30
5.5999999999999988
 40
13.5
  0
CIRCLE
  5
3D9
  8
0
 10
671.34887080019996
 20
-393.47226562319997
 30
5.5999999999999988
 40
13.5
  0
CIRCLE
  5
3DA
  8
0
 10
671.34887080019996
 20
-393.47226562319997
 30
6.5999999999999988
 40
13.5
  0
CIRCLE
  5
3DB
  8
0
 10
671.34887080019996
 20
-393.47226562319997
 30
6.5999999999999988
 40
13.5
  0
CIRCLE
  5
3DC
  8
0
 10
671.34887080019996
 20
-393.47226562319997
 30
4.2999999999999989
 40
11.0
  0
CIRCLE
  5
3DD
  8
0
 10
671.34887080019996
 20
-393.47226562319997
 30
4.2999999999999989
 40
11.0
  0
CIRCLE
  5
3DE
  8
0
 10
671.34887080019996
 20
-393.47226562319997
 30
3.2999999999999989
 40
11.0
  0
CIRCLE
  5
3DF
  8
0
 10
671.34887080019996
 20
-393.47226562319997
 30
4.2999999999999989
 40
11.0
  0
CIRCLE
  5
3E0
  8
0
 10
671.34887080019996
 20
-393.47226562319997
 30
3.2999999999999989
 40
11.0
  0
CIRCLE
  5
3E1
  8
0
 10
671.34887080019996
 20
-393.47226562319997
 30
4.2999999999999989
 40
11.0
  0
CIRCLE
  5
3E2
  8
0
 10
671.34887080019996
 20
-393.47226562319997
 30
6.5999999999999988
 40
11.0
  0
CIRCLE
  5
3E3
  8
0
 10
671.34887080049998
 20
-393.47226562290001
 30
0.0
 40
12.0
  0
CIRCLE
  5
3E4
  8
0
 10
671.34887079910004
 20
-393.47226562499998
 30
0.0
 40
14.5
  0
ENDBLK
  5
3E5
  8
0
  0
BLOCK
  8
0
  2
BALLON0
 70
     0
 10
0.0
 20
0.0
 30
0.0
  3
BALLON0
  1

  0
INSERT
  5
3F8
  8
0
  6
CONTINUOUS
  2
*U101
 10
0.0
 20
0.0
 30
0.0
  0
CIRCLE
  5
3F9
  8
ﾚｲﾔ_1
 10
958.36152525699981
 20
-159.32747583630001
 30
0.0
 40
8.75
  0
LINE
  5
3FA
  8
寸法線
 10
972.94485859029999
 20
-159.32747583630001
 30
0.0
 11
967.11152525699993
 21
-159.32747583630001
 31
0.0
  0
LINE
  5
3FB
  8
寸法線
 10
1033.3334965885001
 20
-113.4272813661
 30
0.0
 11
972.94485859029999
 21
-159.32747583630001
 31
0.0
  0
SOLID
  5
3FC
  8
寸法線
 10
1033.3334965885001
 20
-113.4272813661
 30
0.0
 11
1027.4263121334
 21
-120.11534325380001
 31
0.0
 12
1027.760575948
 22
-117.6631467481
 32
0.0
 13
1027.760575948
 23
-117.6631467481
 33
0.0
  0
SOLID
  5
3FD
  8
寸法線
 10
1027.760575948
 20
-117.6631467481
 30
0.0
 11
1025.3083794424001
 21
-117.3288829335
 31
0.0
 12
1033.3334965885001
 22
-113.4272813661
 32
0.0
 13
1033.3334965885001
 23
-113.4272813661
 33
0.0
  0
ENDBLK
  5
3FE
  8
0
  0
BLOCK
  8
0
  2
BALLON1
 70
     0
 10
0.0
 20
0.0
 30
0.0
  3
BALLON1
  1

  0
INSERT
  5
402
  8
0
  6
CONTINUOUS
  2
*U102
 10
0.0
 20
0.0
 30
0.0
  0
CIRCLE
  5
403
  8
ﾚｲﾔ_1
 10
958.36152525699981
 20
-81.060195078999996
 30
0.0
 40
8.75
  0
LINE
  5
404
  8
寸法線
 10
972.94485859029999
 20
-81.060195078999996
 30
0.0
 11
967.11152525699993
 21
-81.060195078999996
 31
0.0
  0
LINE
  5
405
  8
寸法線
 10
1020.7178715885
 20
-43.472265624999999
 30
0.0
 11
972.94485859029999
 21
-81.060195078999996
 31
0.0
  0
SOLID
  5
406
  8
寸法線
 10
1020.7178715885
 20
-43.472265624999999
 30
0.0
 11
1014.9233362286
 21
-50.258159815399999
 31
0.0
 12
1015.2165529747
 22
-47.8007172545
 32
0.0
 13
1015.2165529747
 23
-47.8007172545
 33
0.0
  0
SOLID
  5
407
  8
寸法線
 10
1015.2165529747
 20
-47.8007172545
 30
0.0
 11
1012.7591104139
 21
-47.507500508500002
 31
0.0
 12
1020.7178715885
 22
-43.472265624999999
 32
0.0
 13
1020.7178715885
 23
-43.472265624999999
 33
0.0
  0
ENDBLK
  5
408
  8
0
  0
BLOCK
  8
0
  2
BALLON2
 70
     0
 10
0.0
 20
0.0
 30
0.0
  3
BALLON2
  1

  0
INSERT
  5
40C
  8
0
  6
CONTINUOUS
  2
*U103
 10
0.0
 20
0.0
 30
0.0
  0
CIRCLE
  5
40D
  8
ﾚｲﾔ_1
 10
958.36152525699981
 20
-30.792572354200001
 30
0.0
 40
8.75
  0
LINE
  5
40E
  8
寸法線
 10
972.94485859029999
 20
-30.792572354200001
 30
0.0
 11
967.11152525699993
 21
-30.792572354200001
 31
0.0
  0
LINE
  5
40F
  8
寸法線
 10
1018.3178715885
 20
-6.4722656250000004
 30
0.0
 11
972.94485859029999
 21
-30.792572354200001
 31
0.0
  0
SOLID
  5
410
  8
寸法線
 10
1018.3178715885
 20
-6.4722656250000004
 30
0.0
 11
1011.4326052261
 21
-12.148365264600001
 31
0.0
 12
1012.1482667498
 22
-9.7792243689999996
 32
0.0
 13
1012.1482667498
 23
-9.7792243689999996
 33
0.0
  0
SOLID
  5
411
  8
寸法線
 10
1012.1482667498
 20
-9.7792243689999996
 30
0.0
 11
1009.7791258541999
 21
-9.0635628452999981
 31
0.0
 12
1018.3178715885
 22
-6.4722656250000004
 32
0.0
 13
1018.3178715885
 23
-6.4722656250000004
 33
0.0
  0
ENDBLK
  5
412
  8
0
  0
BLOCK
  8
0
  2
BALLON3
 70
     0
 10
0.0
 20
0.0
 30
0.0
  3
BALLON3
  1

  0
INSERT
  5
416
  8
0
  6
CONTINUOUS
  2
*U104
 10
0.0
 20
0.0
 30
0.0
  0
CIRCLE
  5
417
  8
ﾚｲﾔ_1
 10
958.36152525699981
 20
-30.792572354200001
 30
0.0
 40
8.75
  0
LINE
  5
418
  8
寸法線
 10
972.94485859029999
 20
-30.792572354200001
 30
0.0
 11
967.11152525699993
 21
-30.792572354200001
 31
0.0
  0
LINE
  5
419
  8
寸法線
 10
1018.3178715885
 20
-6.4722656250000004
 30
0.0
 11
972.94485859029999
 21
-30.792572354200001
 31
0.0
  0
SOLID
  5
41A
  8
寸法線
 10
1018.3178715885
 20
-6.4722656250000004
 30
0.0
 11
1011.4326052261
 21
-12.148365264600001
 31
0.0
 12
1012.1482667498
 22
-9.7792243689999996
 32
0.0
 13
1012.1482667498
 23
-9.7792243689999996
 33
0.0
  0
SOLID
  5
41B
  8
寸法線
 10
1012.1482667498
 20
-9.7792243689999996
 30
0.0
 11
1009.7791258541999
 21
-9.0635628452999981
 31
0.0
 12
1018.3178715885
 22
-6.4722656250000004
 32
0.0
 13
1018.3178715885
 23
-6.4722656250000004
 33
0.0
  0
ENDBLK
  5
41C
  8
0
  0
BLOCK
  8
0
  2
BALLON4
 70
     0
 10
0.0
 20
0.0
 30
0.0
  3
BALLON4
  1

  0
INSERT
  5
420
  8
0
  6
CONTINUOUS
  2
*U105
 10
0.0
 20
0.0
 30
0.0
  0
CIRCLE
  5
421
  8
ﾚｲﾔ_1
 10
958.36152525699981
 20
-30.792572354200001
 30
0.0
 40
8.75
  0
LINE
  5
422
  8
寸法線
 10
972.94485859029999
 20
-30.792572354200001
 30
0.0
 11
967.11152525699993
 21
-30.792572354200001
 31
0.0
  0
LINE
  5
423
  8
寸法線
 10
1018.3178715885
 20
-6.4722656250000004
 30
0.0
 11
972.94485859029999
 21
-30.792572354200001
 31
0.0
  0
SOLID
  5
424
  8
寸法線
 10
1018.3178715885
 20
-6.4722656250000004
 30
0.0
 11
1011.4326052261
 21
-12.148365264600001
 31
0.0
 12
1012.1482667498
 22
-9.7792243689999996
 32
0.0
 13
1012.1482667498
 23
-9.7792243689999996
 33
0.0
  0
SOLID
  5
425
  8
寸法線
 10
1012.1482667498
 20
-9.7792243689999996
 30
0.0
 11
1009.7791258541999
 21
-9.0635628452999981
 31
0.0
 12
1018.3178715885
 22
-6.4722656250000004
 32
0.0
 13
1018.3178715885
 23
-6.4722656250000004
 33
0.0
  0
ENDBLK
  5
426
  8
0
  0
BLOCK
  8
0
  2
BALLON5
 70
     0
 10
0.0
 20
0.0
 30
0.0
  3
BALLON5
  1

  0
INSERT
  5
42A
  8
0
  6
CONTINUOUS
  2
*U106
 10
0.0
 20
0.0
 30
0.0
  0
CIRCLE
  5
42B
  8
ﾚｲﾔ_1
 10
958.36152525699981
 20
-30.792572354200001
 30
0.0
 40
8.75
  0
LINE
  5
42C
  8
寸法線
 10
972.94485859029999
 20
-30.792572354200001
 30
0.0
 11
967.11152525699993
 21
-30.792572354200001
 31
0.0
  0
LINE
  5
42D
  8
寸法線
 10
1018.3178715885
 20
-6.4722656250000004
 30
0.0
 11
972.94485859029999
 21
-30.792572354200001
 31
0.0
  0
SOLID
  5
42E
  8
寸法線
 10
1018.3178715885
 20
-6.4722656250000004
 30
0.0
 11
1011.4326052261
 21
-12.148365264600001
 31
0.0
 12
1012.1482667498
 22
-9.7792243689999996
 32
0.0
 13
1012.1482667498
 23
-9.7792243689999996
 33
0.0
  0
SOLID
  5
42F
  8
寸法線
 10
1012.1482667498
 20
-9.7792243689999996
 30
0.0
 11
1009.7791258541999
 21
-9.0635628452999981
 31
0.0
 12
1018.3178715885
 22
-6.4722656250000004
 32
0.0
 13
1018.3178715885
 23
-6.4722656250000004
 33
0.0
  0
ENDBLK
  5
430
  8
0
  0
BLOCK
  8
0
  2
BALLON6
 70
     0
 10
0.0
 20
0.0
 30
0.0
  3
BALLON6
  1

  0
INSERT
  5
434
  8
0
  6
CONTINUOUS
  2
*U107
 10
0.0
 20
0.0
 30
0.0
  0
CIRCLE
  5
435
  8
ﾚｲﾔ_1
 10
958.36152525699981
 20
-30.792572354200001
 30
0.0
 40
8.75
  0
LINE
  5
436
  8
寸法線
 10
972.94485859029999
 20
-30.792572354200001
 30
0.0
 11
967.11152525699993
 21
-30.792572354200001
 31
0.0
  0
LINE
  5
437
  8
寸法線
 10
1018.3178715885
 20
-6.4722656250000004
 30
0.0
 11
972.94485859029999
 21
-30.792572354200001
 31
0.0
  0
SOLID
  5
438
  8
寸法線
 10
1018.3178715885
 20
-6.4722656250000004
 30
0.0
 11
1011.4326052261
 21
-12.148365264600001
 31
0.0
 12
1012.1482667498
 22
-9.7792243689999996
 32
0.0
 13
1012.1482667498
 23
-9.7792243689999996
 33
0.0
  0
SOLID
  5
439
  8
寸法線
 10
1012.1482667498
 20
-9.7792243689999996
 30
0.0
 11
1009.7791258541999
 21
-9.0635628452999981
 31
0.0
 12
1018.3178715885
 22
-6.4722656250000004
 32
0.0
 13
1018.3178715885
 23
-6.4722656250000004
 33
0.0
  0
ENDBLK
  5
43A
  8
0
  0
BLOCK
  8
0
  2
BALLON7
 70
     0
 10
0.0
 20
0.0
 30
0.0
  3
BALLON7
  1

  0
INSERT
  5
458
  8
0
  6
CONTINUOUS
  2
*U114
 10
0.0
 20
0.0
 30
0.0
  0
CIRCLE
  5
459
  8
ﾚｲﾔ_1
 10
958.36152525699981
 20
-332.43576908440002
 30
0.0
 40
8.75
  0
LINE
  5
45A
  8
寸法線
 10
972.94485859029999
 20
-332.43576908440002
 30
0.0
 11
967.11152525699993
 21
-332.43576908440002
 31
0.0
  0
LINE
  5
45B
  8
寸法線
 10
1020.9178715885
 20
-292.03724230360001
 30
0.0
 11
972.94485859029999
 21
-332.43576908440002
 31
0.0
  0
SOLID
  5
45C
  8
寸法線
 10
1020.9178715885
 20
-292.03724230360001
 30
0.0
 11
1015.3521531771
 21
-299.01203825509998
 31
0.0
 12
1015.5635042026
 22
-296.5462055875999
 32
0.0
 13
1015.5635042026
 23
-296.5462055875999
 33
0.0
  0
SOLID
  5
45D
  8
寸法線
 10
1015.5635042026
 20
-296.5462055875999
 30
0.0
 11
1013.0976715350999
 21
-296.33485456210002
 31
0.0
 12
1020.9178715885
 22
-292.03724230360001
 32
0.0
 13
1020.9178715885
 23
-292.03724230360001
 33
0.0
  0
ENDBLK
  5
45E
  8
0
  0
BLOCK
  8
0
  2
BALLON8
 70
     0
 10
0.0
 20
0.0
 30
0.0
  3
BALLON8
  1

  0
INSERT
  5
462
  8
0
  6
CONTINUOUS
  2
*U115
 10
0.0
 20
0.0
 30
0.0
  0
CIRCLE
  5
463
  8
ﾚｲﾔ_1
 10
958.36152525699981
 20
-418.5426697936
 30
0.0
 40
8.75
  0
LINE
  5
464
  8
寸法線
 10
972.94485859029999
 20
-418.5426697936
 30
0.0
 11
967.11152525699993
 21
-418.5426697936
 31
0.0
  0
LINE
  5
465
  8
寸法線
 10
1020.7178715885
 20
-393.47226562499998
 30
0.0
 11
972.94485859029999
 21
-418.5426697936
 31
0.0
  0
SOLID
  5
466
  8
寸法線
 10
1020.7178715885
 20
-393.47226562499998
 30
0.0
 11
1013.7831381838
 21
-399.0878219292
 31
0.0
 12
1014.5195295381
 22
-396.72504225820001
 32
0.0
 13
1014.5195295381
 23
-396.72504225820001
 33
0.0
  0
SOLID
  5
467
  8
寸法線
 10
1014.5195295381
 20
-396.72504225820001
 30
0.0
 11
1012.1567498672
 21
-395.98865090390001
 31
0.0
 12
1020.7178715885
 22
-393.47226562499998
 32
0.0
 13
1020.7178715885
 23
-393.47226562499998
 33
0.0
  0
ENDBLK
  5
468
  8
0
  0
BLOCK
  8
0
  2
*D19
 70
     1
 10
0.0
 20
0.0
 30
0.0
  3
*D19
  1

  0
TEXT
  5
46C
  8
0
 62
     0
 10
592.29292111109987
 20
-31.2917102814
 30
0.0
 40
7.4965279578999988
  1
(50)
 50
90.0
  0
LINE
  5
46D
  8
0
 62
     0
 10
635.24887079910002
 20
2.5277343750000001
 30
0.0
 11
594.11583780959995
 21
2.5277343750000001
 31
0.0
  0
LINE
  5
46E
  8
0
 62
     0
 10
648.60824579910002
 20
-47.472265624999991
 30
0.0
 11
594.11583780959995
 21
-47.472265624999991
 31
0.0
  0
LINE
  5
46F
  8
0
 62
     0
 10
594.61583780959995
 20
2.5277343750000001
 30
0.0
 11
594.61583780959995
 21
-9.2430986403999995
 31
0.0
  0
LINE
  5
470
  8
0
 62
     0
 10
594.61583780959995
 20
2.5277343750000001
 30
0.0
 11
594.61583780959995
 21
-35.701432609599998
 31
0.0
  0
LINE
  5
471
  8
0
 62
     0
 10
594.61583780959995
 20
-47.472265624999991
 30
0.0
 11
594.61583780959995
 21
-9.2430986403999995
 31
0.0
  0
LINE
  5
472
  8
0
 62
     0
 10
594.61583780959995
 20
-47.472265624999991
 30
0.0
 11
594.61583780959995
 21
-35.701432609599998
 31
0.0
  0
LINE
  5
473
  8
0
 62
     0
 10
594.61583780959995
 20
-47.472265624999991
 30
0.0
 11
594.61583780959995
 21
-44.472265624999999
 31
0.0
  0
SOLID
  5
474
  8
0
 62
     0
 10
594.61583780959995
 20
-47.472265624999991
 30
0.0
 11
592.74083780959995
 21
-39.972265624999999
 31
0.0
 12
596.49083780959995
 22
-39.972265624999999
 32
0.0
 13
594.61583780959995
 23
-41.847265624999991
 33
0.0
  0
LINE
  5
475
  8
0
 62
     0
 10
594.61583780959995
 20
2.5277343750000001
 30
0.0
 11
594.61583780959995
 21
-0.472265625
 31
0.0
  0
SOLID
  5
476
  8
0
 62
     0
 10
594.61583780959995
 20
2.5277343750000001
 30
0.0
 11
596.49083780959995
 21
-4.9722656250000004
 31
0.0
 12
592.74083780959995
 22
-4.9722656250000004
 32
0.0
 13
594.61583780959995
 23
-3.097265624999999
 33
0.0
  0
ENDBLK
  5
477
  8
0
  0
BLOCK
  8
0
  2
*D20
 70
     1
 10
0.0
 20
0.0
 30
0.0
  3
*D20
  1

  0
TEXT
  5
47B
  8
0
 62
     0
 10
560.04470562649988
 20
18.040711879700002
 30
0.0
 40
7.4965279578999988
  1
4
 50
90.0
  0
LINE
  5
47C
  8
0
 62
     0
 10
662.34887079910004
 20
6.427734375
 30
0.0
 11
561.86762232499996
 21
6.427734375
 31
0.0
  0
LINE
  5
47D
  8
0
 62
     0
 10
635.24887079910002
 20
2.5277343750000001
 30
0.0
 11
561.86762232499996
 21
2.5277343750000001
 31
0.0
  0
LINE
  5
47E
  8
0
 62
     0
 10
562.36762232499996
 20
6.427734375
 30
0.0
 11
562.36762232499996
 21
26.8601565361
 31
0.0
  0
LINE
  5
47F
  8
0
 62
     0
 10
562.36762232499996
 20
6.427734375
 30
0.0
 11
562.36762232499996
 21
13.630989551500001
 31
0.0
  0
LINE
  5
480
  8
0
 62
     0
 10
562.36762232499996
 20
2.5277343750000001
 30
0.0
 11
562.36762232499996
 21
26.8601565361
 31
0.0
  0
LINE
  5
481
  8
0
 62
     0
 10
562.36762232499996
 20
2.5277343750000001
 30
0.0
 11
562.36762232499996
 21
13.630989551500001
 31
0.0
  0
LINE
  5
482
  8
0
 62
     0
 10
562.36762232499996
 20
2.5277343750000001
 30
0.0
 11
562.36762232499996
 21
-0.472265625
 31
0.0
  0
SOLID
  5
483
  8
0
 62
     0
 10
562.36762232499996
 20
2.5277343750000001
 30
0.0
 11
564.24262232499996
 21
-4.9722656250000004
 31
0.0
 12
560.49262232499996
 22
-4.9722656250000004
 32
0.0
 13
562.36762232499996
 23
-3.097265624999999
 33
0.0
  0
LINE
  5
484
  8
0
 62
     0
 10
562.36762232499996
 20
6.427734375
 30
0.0
 11
562.36762232499996
 21
9.427734375
 31
0.0
  0
SOLID
  5
485
  8
0
 62
     0
 10
562.36762232499996
 20
6.427734375
 30
0.0
 11
560.49262232499996
 21
13.927734375
 31
0.0
 12
564.24262232499996
 22
13.927734375
 32
0.0
 13
562.36762232499996
 23
12.052734375
 33
0.0
  0
ENDBLK
  5
486
  8
0
  0
BLOCK
  8
0
  2
*D21
 70
     1
 10
0.0
 20
0.0
 30
0.0
  3
*D21
  1

  0
TEXT
  5
499
  8
0
 62
     0
 10
662.5294261427
 20
50.489193248699991
 30
0.0
 40
7.4965279578999988
  1
□70
  0
LINE
  5
49A
  8
0
 62
     0
 10
706.34887079910004
 20
-14.472265625
 30
0.0
 11
706.34887079910004
 21
48.666276550299997
 31
0.0
  0
LINE
  5
49B
  8
0
 62
     0
 10
636.34887079910004
 20
-14.472265625
 30
0.0
 11
636.34887079910004
 21
48.666276550299997
 31
0.0
  0
LINE
  5
49C
  8
0
 62
     0
 10
706.34887079910004
 20
48.166276550299997
 30
0.0
 11
684.57803778369998
 21
48.166276550299997
 31
0.0
  0
LINE
  5
49D
  8
0
 62
     0
 10
706.34887079910004
 20
48.166276550299997
 30
0.0
 11
658.11970381449987
 21
48.166276550299997
 31
0.0
  0
LINE
  5
49E
  8
0
 62
     0
 10
636.34887079910004
 20
48.166276550299997
 30
0.0
 11
684.57803778369998
 21
48.166276550299997
 31
0.0
  0
LINE
  5
49F
  8
0
 62
     0
 10
636.34887079910004
 20
48.166276550299997
 30
0.0
 11
658.11970381449987
 21
48.166276550299997
 31
0.0
  0
LINE
  5
4A0
  8
0
 62
     0
 10
636.34887079910004
 20
48.166276550299997
 30
0.0
 11
639.34887079910004
 21
48.166276550299997
 31
0.0
  0
SOLID
  5
4A1
  8
0
 62
     0
 10
636.34887079910004
 20
48.166276550299997
 30
0.0
 11
643.84887079910004
 21
50.041276550299997
 31
0.0
 12
643.84887079910004
 22
46.29127655029999
 32
0.0
 13
641.97387079910004
 23
48.166276550299997
 33
0.0
  0
LINE
  5
4A2
  8
0
 62
     0
 10
706.34887079910004
 20
48.166276550299997
 30
0.0
 11
703.34887079910004
 21
48.166276550299997
 31
0.0
  0
SOLID
  5
4A3
  8
0
 62
     0
 10
706.34887079910004
 20
48.166276550299997
 30
0.0
 11
698.84887079910004
 21
46.29127655029999
 31
0.0
 12
698.84887079910004
 22
50.041276550299997
 32
0.0
 13
700.72387079910004
 23
48.166276550299997
 33
0.0
  0
ENDBLK
  5
4A4
  8
0
  0
BLOCK
  8
0
  2
BALLON9
 70
     0
 10
0.0
 20
0.0
 30
0.0
  3
BALLON9
  1

  0
INSERT
  5
4A9
  8
0
  6
CONTINUOUS
  2
*U116
 10
0.0
 20
0.0
 30
0.0
  0
CIRCLE
  5
4AA
  8
ﾚｲﾔ_1
 10
958.36152525699981
 20
-1.049963156
 30
0.0
 40
8.75
  0
LINE
  5
4AB
  8
寸法線
 10
972.94485859029999
 20
-1.049963156
 30
0.0
 11
967.11152525699993
 21
-1.049963156
 31
0.0
  0
LINE
  5
4AC
  8
寸法線
 10
1033.8125
 20
84.843017411000005
 30
0.0
 11
972.94485859029999
 21
-1.049963156
 31
0.0
  0
SOLID
  5
4AD
  8
寸法線
 10
1033.8125
 20
84.843017411000005
 30
0.0
 11
1030.1811989995999
 21
76.692026486899991
 31
0.0
 12
1029.7651929343999
 22
79.131686084799995
 32
0.0
 13
1029.7651929343999
 23
79.131686084799995
 33
0.0
  0
SOLID
  5
4AE
  8
寸法線
 10
1029.7651929343999
 20
79.131686084799995
 30
0.0
 11
1027.3255333365
 21
78.715680019700002
 31
0.0
 12
1033.8125
 22
84.843017411000005
 32
0.0
 13
1033.8125
 23
84.843017411000005
 33
0.0
  0
ENDBLK
  5
4AF
  8
0
  0
BLOCK
  8
0
  2
*D23
 70
     1
 10
0.0
 20
0.0
 30
0.0
  3
*D23
  1

  0
TEXT
  5
4B2
  8
0
 62
     0
 10
839.01971902269997
 20
52.912822832400003
 30
0.0
 40
7.4965279578999988
  1
□75
  0
LINE
  5
4B3
  8
0
 62
     0
 10
885.43916367910003
 20
1.0277343750000001
 30
0.0
 11
885.43916367910003
 21
51.089906133900001
 31
0.0
  0
LINE
  5
4B4
  8
0
 62
     0
 10
810.23916367909987
 20
1.0277343750000001
 30
0.0
 11
810.23916367909987
 21
51.089906133900001
 31
0.0
  0
LINE
  5
4B5
  8
0
 62
     0
 10
885.43916367910003
 20
50.589906133900001
 30
0.0
 11
861.06833066369995
 21
50.589906133900001
 31
0.0
  0
LINE
  5
4B6
  8
0
 62
     0
 10
885.43916367910003
 20
50.589906133900001
 30
0.0
 11
834.60999669460011
 21
50.589906133900001
 31
0.0
  0
LINE
  5
4B7
  8
0
 62
     0
 10
810.23916367909987
 20
50.589906133900001
 30
0.0
 11
861.06833066369995
 21
50.589906133900001
 31
0.0
  0
LINE
  5
4B8
  8
0
 62
     0
 10
810.23916367909987
 20
50.589906133900001
 30
0.0
 11
834.60999669460011
 21
50.589906133900001
 31
0.0
  0
LINE
  5
4B9
  8
0
 62
     0
 10
810.23916367909987
 20
50.589906133900001
 30
0.0
 11
813.23916367909999
 21
50.589906133900001
 31
0.0
  0
SOLID
  5
4BA
  8
0
 62
     0
 10
810.23916367909987
 20
50.589906133900001
 30
0.0
 11
817.73916367909999
 21
52.464906133900001
 31
0.0
 12
817.73916367909999
 22
48.714906133900001
 32
0.0
 13
815.86416367909987
 23
50.589906133900001
 33
0.0
  0
LINE
  5
4BB
  8
0
 62
     0
 10
885.43916367910003
 20
50.589906133900001
 30
0.0
 11
882.43916367910003
 21
50.589906133900001
 31
0.0
  0
SOLID
  5
4BC
  8
0
 62
     0
 10
885.43916367910003
 20
50.589906133900001
 30
0.0
 11
877.93916367910003
 21
48.714906133900001
 31
0.0
 12
877.93916367910003
 22
52.464906133900001
 32
0.0
 13
879.81416367909992
 23
50.589906133900001
 33
0.0
  0
ENDBLK
  5
4BD
  8
0
  0
BLOCK
  8
0
  2
BALLON10
 70
     0
 10
0.0
 20
0.0
 30
0.0
  3
BALLON10
  1

  0
INSERT
  5
4C2
  8
0
  6
CONTINUOUS
  2
*U117
 10
0.0
 20
0.0
 30
0.0
  0
CIRCLE
  5
4C3
  8
ﾚｲﾔ_1
 10
958.35870752899984
 20
-1.0544689056000001
 30
0.0
 40
8.75
  0
LINE
  5
4C4
  8
寸法線
 10
943.77537419570012
 20
-1.0544689056000001
 30
0.0
 11
949.60870752899984
 21
-1.0544689056000001
 31
0.0
  0
LINE
  5
4C5
  8
寸法線
 10
891.62499999999989
 20
144.84301741100001
 30
0.0
 11
943.77537419570012
 21
-1.0544689056000001
 31
0.0
  0
SOLID
  5
4C6
  8
寸法線
 10
891.62499999999989
 20
144.84301741100001
 30
0.0
 11
896.21804401860015
 21
137.1925960733
 31
0.0
 12
893.98112288539994
 22
138.25145576380001
 32
0.0
 13
893.98112288539994
 23
138.25145576380001
 33
0.0
  0
SOLID
  5
4C7
  8
寸法線
 10
893.98112288539994
 20
138.25145576380001
 30
0.0
 11
892.92226319500003
 21
136.0145346306
 31
0.0
 12
891.62499999999989
 22
144.84301741100001
 32
0.0
 13
891.62499999999989
 23
144.84301741100001
 33
0.0
  0
ENDBLK
  5
4C8
  8
0
  0
BLOCK
  8
0
  2
*X25
 70
     1
 10
0.0
 20
0.0
 30
0.0
  3
*X25
  1

  0
LINE
  5
4DF
  8
ﾚｲﾔ_1
 10
1030.0
 20
-373.5702501161
 30
0.0
 11
1030.0
 21
-183.48366157439989
 31
0.0
  0
LINE
  5
4E0
  8
ﾚｲﾔ_1
 10
1022.16171875
 20
-197.86106990779999
 30
0.0
 11
1036.5391270834
 21
-183.48366157439989
 31
0.0
  0
LINE
  5
4E1
  8
ﾚｲﾔ_1
 10
1022.16171875
 20
-217.86144349240001
 30
0.0
 11
1038.96171875
 21
-201.0614434924
 31
0.0
  0
LINE
  5
4E2
  8
ﾚｲﾔ_1
 10
1022.16171875
 20
-237.8618170769
 30
0.0
 11
1038.96171875
 21
-221.06181707690001
 31
0.0
  0
LINE
  5
4E3
  8
ﾚｲﾔ_1
 10
1022.16171875
 20
-257.86219066149999
 30
0.0
 11
1038.96171875
 21
-241.06219066150001
 31
0.0
  0
LINE
  5
4E4
  8
ﾚｲﾔ_1
 10
1022.16171875
 20
-277.86256424599998
 30
0.0
 11
1038.96171875
 21
-261.06256424600002
 31
0.0
  0
LINE
  5
4E5
  8
ﾚｲﾔ_1
 10
1022.16171875
 20
-297.8629378306
 30
0.0
 11
1038.96171875
 21
-281.06293783059999
 31
0.0
  0
LINE
  5
4E6
  8
ﾚｲﾔ_1
 10
1022.16171875
 20
-317.86331141519997
 30
0.0
 11
1038.96171875
 21
-301.06331141520002
 31
0.0
  0
LINE
  5
4E7
  8
ﾚｲﾔ_1
 10
1022.16171875
 20
-337.86368499970001
 30
0.0
 11
1038.96171875
 21
-321.0636849997
 31
0.0
  0
LINE
  5
4E8
  8
ﾚｲﾔ_1
 10
1022.16171875
 20
-357.86405858429998
 30
0.0
 11
1038.96171875
 21
-341.06405858430003
 31
0.0
  0
LINE
  5
4E9
  8
ﾚｲﾔ_1
 10
1026.4559008026999
 20
-373.5702501161
 30
0.0
 11
1038.96171875
 21
-361.0644321687999
 31
0.0
  0
LINE
  5
4EA
  8
ﾚｲﾔ_1
 10
1033.5825784064
 20
-373.5702501161
 30
0.0
 11
1022.16171875
 21
-362.14939045969999
 31
0.0
  0
LINE
  5
4EB
  8
ﾚｲﾔ_1
 10
1038.96171875
 20
-358.94901687510003
 30
0.0
 11
1022.16171875
 21
-342.14901687510002
 31
0.0
  0
LINE
  5
4EC
  8
ﾚｲﾔ_1
 10
1038.96171875
 20
-338.94864329059999
 30
0.0
 11
1022.16171875
 21
-322.14864329059998
 31
0.0
  0
LINE
  5
4ED
  8
ﾚｲﾔ_1
 10
1038.96171875
 20
-318.94826970600002
 30
0.0
 11
1022.16171875
 21
-302.14826970600001
 31
0.0
  0
LINE
  5
4EE
  8
ﾚｲﾔ_1
 10
1038.96171875
 20
-298.94789612150009
 30
0.0
 11
1022.16171875
 21
-282.14789612150003
 31
0.0
  0
LINE
  5
4EF
  8
ﾚｲﾔ_1
 10
1038.96171875
 20
-278.94752253690001
 30
0.0
 11
1022.16171875
 21
-262.1475225369
 31
0.0
  0
LINE
  5
4F0
  8
ﾚｲﾔ_1
 10
1038.96171875
 20
-258.94714895240003
 30
0.0
 11
1022.16171875
 21
-242.14714895239999
 31
0.0
  0
LINE
  5
4F1
  8
ﾚｲﾔ_1
 10
1038.96171875
 20
-238.9467753678
 30
0.0
 11
1022.16171875
 21
-222.14677536779999
 31
0.0
  0
LINE
  5
4F2
  8
ﾚｲﾔ_1
 10
1038.96171875
 20
-218.94640178329999
 30
0.0
 11
1022.16171875
 21
-202.14640178330001
 31
0.0
  0
LINE
  5
4F3
  8
ﾚｲﾔ_1
 10
1038.96171875
 20
-198.94602819869999
 30
0.0
 11
1023.4993521257001
 21
-183.48366157439989
 31
0.0
  0
ENDBLK
  5
4F4
  8
0
  0
BLOCK
  8
0
  2
*D26
 70
     1
 10
0.0
 20
0.0
 30
0.0
  3
*D26
  1

  0
TEXT
  5
500
  8
0
 62
     0
 10
592.03949475010006
 20
-234.3513975978
 30
0.0
 40
7.4965279578999988
  1
1250
 50
90.0
  0
LINE
  5
501
  8
0
 62
     0
 10
648.60824579910002
 20
-47.472265624999991
 30
0.0
 11
593.86241144849998
 21
-47.472265624999991
 31
0.0
  0
LINE
  5
502
  8
0
 62
     0
 10
648.60824579910002
 20
-393.47226562499998
 30
0.0
 11
593.86241144849998
 21
-393.47226562499998
 31
0.0
  0
LINE
  5
503
  8
0
 62
     0
 10
594.36241144849987
 20
-47.472265624999991
 30
0.0
 11
594.36241144849987
 21
-212.30278595690001
 31
0.0
  0
LINE
  5
504
  8
0
 62
     0
 10
594.36241144849987
 20
-47.472265624999991
 30
0.0
 11
594.36241144849987
 21
-238.76111992599999
 31
0.0
  0
LINE
  5
505
  8
0
 62
     0
 10
594.36241144849987
 20
-393.47226562499998
 30
0.0
 11
594.36241144849987
 21
-212.30278595690001
 31
0.0
  0
LINE
  5
506
  8
0
 62
     0
 10
594.36241144849987
 20
-393.47226562499998
 30
0.0
 11
594.36241144849987
 21
-238.76111992599999
 31
0.0
  0
LINE
  5
507
  8
0
 62
     0
 10
594.36241144849987
 20
-393.47226562499998
 30
0.0
 11
594.36241144849987
 21
-390.47226562499998
 31
0.0
  0
SOLID
  5
508
  8
0
 62
     0
 10
594.36241144849987
 20
-393.47226562499998
 30
0.0
 11
592.48741144849998
 21
-385.97226562499998
 31
0.0
 12
596.23741144849987
 22
-385.97226562499998
 32
0.0
 13
594.36241144849987
 23
-387.84726562499998
 33
0.0
  0
LINE
  5
509
  8
0
 62
     0
 10
594.36241144849987
 20
-47.472265624999991
 30
0.0
 11
594.36241144849987
 21
-50.472265624999999
 31
0.0
  0
SOLID
  5
50A
  8
0
 62
     0
 10
594.36241144849987
 20
-47.472265624999991
 30
0.0
 11
596.23741144849987
 21
-54.972265624999991
 31
0.0
 12
592.48741144849998
 22
-54.972265624999991
 32
0.0
 13
594.36241144849987
 23
-53.097265624999991
 33
0.0
  0
ENDBLK
  5
50B
  8
0
  0
BLOCK
  8
0
  2
*D27
 70
     1
 10
0.0
 20
0.0
 30
0.0
  3
*D27
  1

  0
TEXT
  5
50F
  8
0
 62
     0
 10
559.8563328237999
 20
-258.9845369775
 30
0.0
 40
7.4965279578999988
  1
1500
 50
90.0
  0
LINE
  5
510
  8
0
 62
     0
 10
637.04887079909997
 20
2.5277343750000001
 30
0.0
 11
561.67924952220005
 21
2.5277343750000001
 31
0.0
  0
LINE
  5
511
  8
0
 62
     0
 10
637.04887079909997
 20
-493.47226562499992
 30
0.0
 11
561.67924952220005
 21
-493.47226562499992
 31
0.0
  0
LINE
  5
512
  8
0
 62
     0
 10
562.17924952220005
 20
2.5277343750000001
 30
0.0
 11
562.17924952220005
 21
-236.93592533649999
 31
0.0
  0
LINE
  5
513
  8
0
 62
     0
 10
562.17924952220005
 20
2.5277343750000001
 30
0.0
 11
562.17924952220005
 21
-263.39425930570002
 31
0.0
  0
LINE
  5
514
  8
0
 62
     0
 10
562.17924952220005
 20
-493.47226562499992
 30
0.0
 11
562.17924952220005
 21
-236.93592533649999
 31
0.0
  0
LINE
  5
515
  8
0
 62
     0
 10
562.17924952220005
 20
-493.47226562499992
 30
0.0
 11
562.17924952220005
 21
-263.39425930570002
 31
0.0
  0
LINE
  5
516
  8
0
 62
     0
 10
562.17924952220005
 20
-493.47226562499992
 30
0.0
 11
562.17924952220005
 21
-490.47226562499992
 31
0.0
  0
SOLID
  5
517
  8
0
 62
     0
 10
562.17924952220005
 20
-493.47226562499992
 30
0.0
 11
560.30424952220005
 21
-485.97226562499992
 31
0.0
 12
564.05424952220005
 22
-485.97226562499992
 32
0.0
 13
562.17924952220005
 23
-487.84726562499992
 33
0.0
  0
LINE
  5
518
  8
0
 62
     0
 10
562.17924952220005
 20
2.5277343750000001
 30
0.0
 11
562.17924952220005
 21
-0.472265625
 31
0.0
  0
SOLID
  5
519
  8
0
 62
     0
 10
562.17924952220005
 20
2.5277343750000001
 30
0.0
 11
564.05424952220005
 21
-4.9722656250000004
 31
0.0
 12
560.30424952220005
 22
-4.9722656250000004
 32
0.0
 13
562.17924952220005
 23
-3.097265624999999
 33
0.0
  0
ENDBLK
  5
51A
  8
0
  0
BLOCK
  8
0
  2
*D28
 70
     1
 10
0.0
 20
0.0
 30
0.0
  3
*D28
  1

  0
TEXT
  5
521
  8
0
 62
     0
 10
591.86245085550001
 20
-450.08684911730001
 30
0.0
 40
7.4965279578999988
  1
200
 50
90.0
  0
LINE
  5
522
  8
0
 62
     0
 10
648.60824579910002
 20
-393.47226562499998
 30
0.0
 11
593.68536755399998
 21
-393.47226562499998
 31
0.0
  0
LINE
  5
523
  8
0
 62
     0
 10
637.04887079909997
 20
-493.47226562499992
 30
0.0
 11
593.68536755399998
 21
-493.47226562499992
 31
0.0
  0
LINE
  5
524
  8
0
 62
     0
 10
594.18536755399987
 20
-393.47226562499998
 30
0.0
 11
594.18536755399987
 21
-432.44795980449999
 31
0.0
  0
LINE
  5
525
  8
0
 62
     0
 10
594.18536755399987
 20
-393.47226562499998
 30
0.0
 11
594.18536755399987
 21
-454.49657144550002
 31
0.0
  0
LINE
  5
526
  8
0
 62
     0
 10
594.18536755399987
 20
-493.47226562499992
 30
0.0
 11
594.18536755399987
 21
-432.44795980449999
 31
0.0
  0
LINE
  5
527
  8
0
 62
     0
 10
594.18536755399987
 20
-493.47226562499992
 30
0.0
 11
594.18536755399987
 21
-454.49657144550002
 31
0.0
  0
LINE
  5
528
  8
0
 62
     0
 10
594.18536755399987
 20
-493.47226562499992
 30
0.0
 11
594.18536755399987
 21
-490.47226562499992
 31
0.0
  0
SOLID
  5
529
  8
0
 62
     0
 10
594.18536755399987
 20
-493.47226562499992
 30
0.0
 11
592.31036755399998
 21
-485.97226562499992
 31
0.0
 12
596.06036755399987
 22
-485.97226562499992
 32
0.0
 13
594.18536755399987
 23
-487.84726562499992
 33
0.0
  0
LINE
  5
52A
  8
0
 62
     0
 10
594.18536755399987
 20
-393.47226562499998
 30
0.0
 11
594.18536755399987
 21
-396.47226562499998
 31
0.0
  0
SOLID
  5
52B
  8
0
 62
     0
 10
594.18536755399987
 20
-393.47226562499998
 30
0.0
 11
596.06036755399987
 21
-400.97226562499998
 31
0.0
 12
592.31036755399998
 22
-400.97226562499998
 32
0.0
 13
594.18536755399987
 23
-399.09726562499998
 33
0.0
  0
ENDBLK
  5
52C
  8
0
  0
BLOCK
  8
0
  2
*X29
 70
     1
 10
0.0
 20
0.0
 30
0.0
  3
*X29
  1

  0
LINE
  5
533
  8
ﾚｲﾔ_1
 10
1040.0
 20
-487.42728136609998
 30
0.0
 11
1040.0
 21
-423.92728136609998
 31
0.0
  0
LINE
  5
534
  8
ﾚｲﾔ_1
 10
1060.0
 20
-487.42728136609998
 30
0.0
 11
1060.0
 21
-423.92728136609998
 31
0.0
  0
LINE
  5
535
  8
ﾚｲﾔ_1
 10
1080.0
 20
-487.42728136609998
 30
0.0
 11
1080.0
 21
-423.92728136609998
 31
0.0
  0
LINE
  5
536
  8
ﾚｲﾔ_1
 10
1030.0
 20
-487.42728136609998
 30
0.0
 11
1030.0
 21
-423.92728136609998
 31
0.0
  0
LINE
  5
537
  8
ﾚｲﾔ_1
 10
1050.0
 20
-487.42728136609998
 30
0.0
 11
1050.0
 21
-423.92728136609998
 31
0.0
  0
LINE
  5
538
  8
ﾚｲﾔ_1
 10
1070.0
 20
-487.42728136609998
 30
0.0
 11
1070.0
 21
-423.92728136609998
 31
0.0
  0
LINE
  5
539
  8
ﾚｲﾔ_1
 10
1026.6235231953001
 20
-433.40374847719988
 30
0.0
 11
1036.0999903064001
 21
-423.92728136609998
 31
0.0
  0
LINE
  5
53A
  8
ﾚｲﾔ_1
 10
1026.6235231953001
 20
-453.40412206169992
 30
0.0
 11
1056.1003638909999
 21
-423.92728136609998
 31
0.0
  0
LINE
  5
53B
  8
ﾚｲﾔ_1
 10
1026.6235231953001
 20
-473.40449564629989
 30
0.0
 11
1076.1007374755
 21
-423.92728136609998
 31
0.0
  0
LINE
  5
53C
  8
ﾚｲﾔ_1
 10
1032.6011110601
 20
-487.42728136609998
 30
0.0
 11
1084.6235231953001
 21
-435.40486923079999
 31
0.0
  0
LINE
  5
53D
  8
ﾚｲﾔ_1
 10
1052.6014846446001
 20
-487.42728136609998
 30
0.0
 11
1084.6235231953001
 21
-455.40524281540002
 31
0.0
  0
LINE
  5
53E
  8
ﾚｲﾔ_1
 10
1072.6018582291999
 20
-487.42728136609998
 30
0.0
 11
1084.6235231953001
 21
-475.40561639999987
 31
0.0
  0
LINE
  5
53F
  8
ﾚｲﾔ_1
 10
1027.4373681490999
 20
-487.42728136609998
 30
0.0
 11
1026.6235231953001
 21
-486.6134364122999
 31
0.0
  0
LINE
  5
540
  8
ﾚｲﾔ_1
 10
1047.4377417336
 20
-487.42728136609998
 30
0.0
 11
1026.6235231953001
 21
-466.61306282779998
 31
0.0
  0
LINE
  5
541
  8
ﾚｲﾔ_1
 10
1067.4381153182001
 20
-487.42728136609998
 30
0.0
 11
1026.6235231953001
 21
-446.61268924320001
 31
0.0
  0
LINE
  5
542
  8
ﾚｲﾔ_1
 10
1084.6235231953001
 20
-484.61231565870003
 30
0.0
 11
1026.6235231953001
 21
-426.61231565870003
 31
0.0
  0
LINE
  5
543
  8
ﾚｲﾔ_1
 10
1084.6235231953001
 20
-464.6119420741
 30
0.0
 11
1043.9388624873
 21
-423.92728136609998
 31
0.0
  0
LINE
  5
544
  8
ﾚｲﾔ_1
 10
1084.6235231953001
 20
-444.61156848960002
 30
0.0
 11
1063.9392360718
 21
-423.92728136609998
 31
0.0
  0
LINE
  5
545
  8
ﾚｲﾔ_1
 10
1084.6235231953001
 20
-424.61119490499999
 30
0.0
 11
1083.9396096564001
 21
-423.92728136609998
 31
0.0
  0
ENDBLK
  5
546
  8
0
  0
BLOCK
  8
0
  2
BALLON11
 70
     0
 10
0.0
 20
0.0
 30
0.0
  3
BALLON11
  1

  0
INSERT
  5
54C
  8
0
  6
CONTINUOUS
  2
*U128
 10
0.0
 20
0.0
 30
0.0
  0
CIRCLE
  5
54D
  8
ﾚｲﾔ_1
 10
958.36152525699981
 20
-465.76401383899997
 30
0.0
 40
8.75
  0
LINE
  5
54E
  8
寸法線
 10
972.94485859029999
 20
-465.76401383899997
 30
0.0
 11
967.11152525699993
 21
-465.76401383899997
 31
0.0
  0
LINE
  5
54F
  8
寸法線
 10
1020.1178715885
 20
-484.072265625
 30
0.0
 11
972.94485859029999
 21
-465.76401383899997
 31
0.0
  0
SOLID
  5
550
  8
寸法線
 10
1020.1178715885
 20
-484.072265625
 30
0.0
 11
1011.3275074365999
 21
-482.53782824399991
 31
0.0
 12
1013.5921202995
 22
-481.53956546239988
 32
0.0
 13
1013.5921202995
 23
-481.53956546239988
 33
0.0
  0
SOLID
  5
551
  8
寸法線
 10
1013.5921202995
 20
-481.53956546239988
 30
0.0
 11
1012.5938575179
 21
-479.2749525994999
 31
0.0
 12
1020.1178715885
 22
-484.072265625
 32
0.0
 13
1020.1178715885
 23
-484.072265625
 33
0.0
  0
ENDBLK
  5
552
  8
0
  0
BLOCK
  8
0
  2
CLUMP3
 70
     0
 10
0.0
 20
0.0
 30
0.0
  3
CLUMP3
  1

  0
LINE
  5
55E
  8
図枠
 10
963.82079784619998
 20
-575.62543807789984
 30
0.0
 11
963.82079784619998
 21
-563.12543807789984
 31
0.0
  0
LINE
  5
55F
  8
図枠
 10
816.32079784619987
 20
-575.62543807789984
 30
0.0
 11
816.32079784619987
 21
-563.12543807789984
 31
0.0
  0
LINE
  5
560
  8
図枠
 10
838.82079784619998
 20
-575.62543807789984
 30
0.0
 11
838.82079784619998
 21
-563.12543807789984
 31
0.0
  0
LINE
  5
561
  8
図枠
 10
1101.3207978462001
 20
-575.62543807789984
 30
0.0
 11
1101.3207978462001
 21
-563.12543807789984
 31
0.0
  0
LINE
  5
562
  8
図枠
 10
1078.8207978462001
 20
-575.62543807789984
 30
0.0
 11
1078.8207978462001
 21
-563.12543807789984
 31
0.0
  0
LINE
  5
563
  8
図枠
 10
1178.8207978462001
 20
-563.12543807789984
 30
0.0
 11
816.32079784619987
 21
-563.12543807789984
 31
0.0
  0
ENDBLK
  5
564
  8
0
  0
BLOCK
  8
0
  2
CLUMP4
 70
     0
 10
0.0
 20
0.0
 30
0.0
  3
CLUMP4
  1

  0
LINE
  5
568
  8
図枠
 10
963.82079784619998
 20
-600.62543807789984
 30
0.0
 11
963.82079784619998
 21
-588.12543807789984
 31
0.0
  0
LINE
  5
569
  8
図枠
 10
816.32079784619987
 20
-600.62543807789984
 30
0.0
 11
816.32079784619987
 21
-588.12543807789984
 31
0.0
  0
LINE
  5
56A
  8
図枠
 10
838.82079784619998
 20
-600.62543807789984
 30
0.0
 11
838.82079784619998
 21
-588.12543807789984
 31
0.0
  0
LINE
  5
56B
  8
図枠
 10
1101.3207978462001
 20
-600.62543807789984
 30
0.0
 11
1101.3207978462001
 21
-588.12543807789984
 31
0.0
  0
LINE
  5
56C
  8
図枠
 10
1078.8207978462001
 20
-600.62543807789984
 30
0.0
 11
1078.8207978462001
 21
-588.12543807789984
 31
0.0
  0
LINE
  5
56D
  8
図枠
 10
1178.8207978462001
 20
-588.12543807789984
 30
0.0
 11
816.32079784619987
 21
-588.12543807789984
 31
0.0
  0
ENDBLK
  5
56E
  8
0
  0
BLOCK
  8
0
  2
CLUMP5
 70
     0
 10
0.0
 20
0.0
 30
0.0
  3
CLUMP5
  1

  0
LINE
  5
574
  8
図枠
 10
963.82079784619998
 20
-625.62543807789984
 30
0.0
 11
963.82079784619998
 21
-613.12543807789984
 31
0.0
  0
LINE
  5
575
  8
図枠
 10
816.32079784619987
 20
-625.62543807789984
 30
0.0
 11
816.32079784619987
 21
-613.12543807789984
 31
0.0
  0
LINE
  5
576
  8
図枠
 10
838.82079784619998
 20
-625.62543807789984
 30
0.0
 11
838.82079784619998
 21
-613.12543807789984
 31
0.0
  0
LINE
  5
577
  8
図枠
 10
1101.3207978462001
 20
-625.62543807789984
 30
0.0
 11
1101.3207978462001
 21
-613.12543807789984
 31
0.0
  0
LINE
  5
578
  8
図枠
 10
1078.8207978462001
 20
-625.62543807789984
 30
0.0
 11
1078.8207978462001
 21
-613.12543807789984
 31
0.0
  0
LINE
  5
579
  8
図枠
 10
1178.8207978462001
 20
-613.12543807789984
 30
0.0
 11
816.32079784619987
 21
-613.12543807789984
 31
0.0
  0
ENDBLK
  5
57A
  8
0
  0
BLOCK
  8
0
  2
CLUMP6
 70
     0
 10
0.0
 20
0.0
 30
0.0
  3
CLUMP6
  1

  0
LINE
  5
57E
  8
図枠
 10
963.82079784619998
 20
-563.12543807789984
 30
0.0
 11
963.82079784619998
 21
-550.62543807789984
 31
0.0
  0
LINE
  5
57F
  8
図枠
 10
816.32079784619987
 20
-563.12543807789984
 30
0.0
 11
816.32079784619987
 21
-550.62543807789984
 31
0.0
  0
LINE
  5
580
  8
図枠
 10
838.82079784619998
 20
-563.12543807789984
 30
0.0
 11
838.82079784619998
 21
-550.62543807789984
 31
0.0
  0
LINE
  5
581
  8
図枠
 10
1101.3207978462001
 20
-563.12543807789984
 30
0.0
 11
1101.3207978462001
 21
-550.62543807789984
 31
0.0
  0
LINE
  5
582
  8
図枠
 10
1078.8207978462001
 20
-563.12543807789984
 30
0.0
 11
1078.8207978462001
 21
-550.62543807789984
 31
0.0
  0
LINE
  5
583
  8
図枠
 10
1178.8207978462001
 20
-550.62543807789984
 30
0.0
 11
816.32079784619987
 21
-550.62543807789984
 31
0.0
  0
ENDBLK
  5
584
  8
0
  0
BLOCK
  8
0
  2
CLUMP7
 70
     0
 10
0.0
 20
0.0
 30
0.0
  3
CLUMP7
  1

  0
LINE
  5
588
  8
図枠
 10
963.82079784619998
 20
-588.12543807789984
 30
0.0
 11
963.82079784619998
 21
-575.62543807789984
 31
0.0
  0
LINE
  5
589
  8
図枠
 10
816.32079784619987
 20
-588.12543807789984
 30
0.0
 11
816.32079784619987
 21
-575.62543807789984
 31
0.0
  0
LINE
  5
58A
  8
図枠
 10
838.82079784619998
 20
-588.12543807789984
 30
0.0
 11
838.82079784619998
 21
-575.62543807789984
 31
0.0
  0
LINE
  5
58B
  8
図枠
 10
1101.3207978462001
 20
-588.12543807789984
 30
0.0
 11
1101.3207978462001
 21
-575.62543807789984
 31
0.0
  0
LINE
  5
58C
  8
図枠
 10
1078.8207978462001
 20
-588.12543807789984
 30
0.0
 11
1078.8207978462001
 21
-575.62543807789984
 31
0.0
  0
LINE
  5
58D
  8
図枠
 10
1178.8207978462001
 20
-575.62543807789984
 30
0.0
 11
816.32079784619987
 21
-575.62543807789984
 31
0.0
  0
ENDBLK
  5
58E
  8
0
  0
BLOCK
  8
0
  2
CLUMP8
 70
     0
 10
0.0
 20
0.0
 30
0.0
  3
CLUMP8
  1

  0
LINE
  5
592
  8
図枠
 10
963.82079784619998
 20
-613.12543807789984
 30
0.0
 11
963.82079784619998
 21
-600.62543807789984
 31
0.0
  0
LINE
  5
593
  8
図枠
 10
816.32079784619987
 20
-613.12543807789984
 30
0.0
 11
816.32079784619987
 21
-600.62543807789984
 31
0.0
  0
LINE
  5
594
  8
図枠
 10
838.82079784619998
 20
-613.12543807789984
 30
0.0
 11
838.82079784619998
 21
-600.62543807789984
 31
0.0
  0
LINE
  5
595
  8
図枠
 10
1101.3207978462001
 20
-613.12543807789984
 30
0.0
 11
1101.3207978462001
 21
-600.62543807789984
 31
0.0
  0
LINE
  5
596
  8
図枠
 10
1078.8207978462001
 20
-613.12543807789984
 30
0.0
 11
1078.8207978462001
 21
-600.62543807789984
 31
0.0
  0
LINE
  5
597
  8
図枠
 10
1178.8207978462001
 20
-600.62543807789984
 30
0.0
 11
816.32079784619987
 21
-600.62543807789984
 31
0.0
  0
ENDBLK
  5
598
  8
0
  0
BLOCK
  8
0
  2
CLUMP9
 70
     0
 10
0.0
 20
0.0
 30
0.0
  3
CLUMP9
  1

  0
LINE
  5
59D
  8
図枠
 10
963.82079784619998
 20
-550.62543807789984
 30
0.0
 11
963.82079784619998
 21
-538.12543807789984
 31
0.0
  0
LINE
  5
59E
  8
図枠
 10
816.32079784619987
 20
-550.62543807789984
 30
0.0
 11
816.32079784619987
 21
-538.12543807789984
 31
0.0
  0
LINE
  5
59F
  8
図枠
 10
838.82079784619998
 20
-550.62543807789984
 30
0.0
 11
838.82079784619998
 21
-538.12543807789984
 31
0.0
  0
LINE
  5
5A0
  8
図枠
 10
1101.3207978462001
 20
-550.62543807789984
 30
0.0
 11
1101.3207978462001
 21
-538.12543807789984
 31
0.0
  0
LINE
  5
5A1
  8
図枠
 10
1078.8207978462001
 20
-550.62543807789984
 30
0.0
 11
1078.8207978462001
 21
-538.12543807789984
 31
0.0
  0
LINE
  5
5A2
  8
図枠
 10
1178.8207978462001
 20
-538.12543807789984
 30
0.0
 11
816.32079784619987
 21
-538.12543807789984
 31
0.0
  0
ENDBLK
  5
5A3
  8
0
  0
BLOCK
  8
0
  2
*X38
 70
     1
 10
0.0
 20
0.0
 30
0.0
  3
*X38
  1

  0
LINE
  5
5AA
  8
ﾚｲﾔ_1
 10
1080.0
 20
-427.14394803269988
 30
0.0
 11
1080.0
 21
-190.71009386610001
 31
0.0
  0
LINE
  5
5AB
  8
ﾚｲﾔ_1
 10
1070.0
 20
-427.14394803269988
 30
0.0
 11
1070.0
 21
-190.71009386610001
 31
0.0
  0
LINE
  5
5AC
  8
ﾚｲﾔ_1
 10
1065.1318389656001
 20
-194.89169686130001
 30
0.0
 11
1069.3134419609
 21
-190.71009386610001
 31
0.0
  0
LINE
  5
5AD
  8
ﾚｲﾔ_1
 10
1065.1318389656001
 20
-214.8920704459
 30
0.0
 11
1085.6235231953001
 21
-194.40038621619999
 31
0.0
  0
LINE
  5
5AE
  8
ﾚｲﾔ_1
 10
1065.1318389656001
 20
-234.89244403039999
 30
0.0
 11
1085.6235231953001
 21
-214.4007598007
 31
0.0
  0
LINE
  5
5AF
  8
ﾚｲﾔ_1
 10
1065.1318389656001
 20
-254.89281761500001
 30
0.0
 11
1085.6235231953001
 21
-234.4011333853
 31
0.0
  0
LINE
  5
5B0
  8
ﾚｲﾔ_1
 10
1065.1318389656001
 20
-274.89319119959998
 30
0.0
 11
1085.6235231953001
 21
-254.4015069699
 31
0.0
  0
LINE
  5
5B1
  8
ﾚｲﾔ_1
 10
1065.1318389656001
 20
-294.89356478410002
 30
0.0
 11
1085.6235231953001
 21
-274.40188055440001
 31
0.0
  0
LINE
  5
5B2
  8
ﾚｲﾔ_1
 10
1065.1318389656001
 20
-314.89393836869999
 30
0.0
 11
1085.6235231953001
 21
-294.40225413899998
 31
0.0
  0
LINE
  5
5B3
  8
ﾚｲﾔ_1
 10
1065.1318389656001
 20
-334.89431195319997
 30
0.0
 11
1085.6235231953001
 21
-314.40262772350002
 31
0.0
  0
LINE
  5
5B4
  8
ﾚｲﾔ_1
 10
1065.1318389656001
 20
-354.8946855378
 30
0.0
 11
1085.6235231953001
 21
-334.40300130809999
 31
0.0
  0
LINE
  5
5B5
  8
ﾚｲﾔ_1
 10
1065.1318389656001
 20
-374.8950591223001
 30
0.0
 11
1085.6235231953001
 21
-354.40337489260003
 31
0.0
  0
LINE
  5
5B6
  8
ﾚｲﾔ_1
 10
1065.1318389656001
 20
-394.89543270690001
 30
0.0
 11
1085.6235231953001
 21
-374.4037484772
 31
0.0
  0
LINE
  5
5B7
  8
ﾚｲﾔ_1
 10
1065.1318389656001
 20
-414.89580629139988
 30
0.0
 11
1085.6235231953001
 21
-394.40412206169998
 31
0.0
  0
LINE
  5
5B8
  8
ﾚｲﾔ_1
 10
1072.8840708088001
 20
-427.14394803269988
 30
0.0
 11
1085.6235231953001
 21
-414.40449564629989
 31
0.0
  0
LINE
  5
5B9
  8
ﾚｲﾔ_1
 10
1067.1559027384999
 20
-427.14394803269988
 30
0.0
 11
1065.1318389656001
 21
-425.11988425989989
 31
0.0
  0
LINE
  5
5BA
  8
ﾚｲﾔ_1
 10
1085.6235231953001
 20
-425.61119490499999
 30
0.0
 11
1065.1318389656001
 21
-405.11951067529998
 31
0.0
  0
LINE
  5
5BB
  8
ﾚｲﾔ_1
 10
1085.6235231953001
 20
-405.61082132040002
 30
0.0
 11
1065.1318389656001
 21
-385.11913709070001
 31
0.0
  0
LINE
  5
5BC
  8
ﾚｲﾔ_1
 10
1085.6235231953001
 20
-385.61044773589998
 30
0.0
 11
1065.1318389656001
 21
-365.11876350620003
 31
0.0
  0
LINE
  5
5BD
  8
ﾚｲﾔ_1
 10
1085.6235231953001
 20
-365.61007415130001
 30
0.0
 11
1065.1318389656001
 21
-345.11838992160011
 31
0.0
  0
LINE
  5
5BE
  8
ﾚｲﾔ_1
 10
1085.6235231953001
 20
-345.60970056679997
 30
0.0
 11
1065.1318389656001
 21
-325.11801633710002
 31
0.0
  0
LINE
  5
5BF
  8
ﾚｲﾔ_1
 10
1085.6235231953001
 20
-325.6093269822
 30
0.0
 11
1065.1318389656001
 21
-305.11764275249999
 31
0.0
  0
LINE
  5
5C0
  8
ﾚｲﾔ_1
 10
1085.6235231953001
 20
-305.60895339770002
 30
0.0
 11
1065.1318389656001
 21
-285.11726916800001
 31
0.0
  0
LINE
  5
5C1
  8
ﾚｲﾔ_1
 10
1085.6235231953001
 20
-285.60857981309999
 30
0.0
 11
1065.1318389656001
 21
-265.11689558339998
 31
0.0
  0
LINE
  5
5C2
  8
ﾚｲﾔ_1
 10
1085.6235231953001
 20
-265.60820622860001
 30
0.0
 11
1065.1318389656001
 21
-245.1165219989
 31
0.0
  0
LINE
  5
5C3
  8
ﾚｲﾔ_1
 10
1085.6235231953001
 20
-245.60783264400001
 30
0.0
 11
1065.1318389656001
 21
-225.1161484143
 31
0.0
  0
LINE
  5
5C4
  8
ﾚｲﾔ_1
 10
1085.6235231953001
 20
-225.6074590595
 30
0.0
 11
1065.1318389656001
 21
-205.11577482979999
 31
0.0
  0
LINE
  5
5C5
  8
ﾚｲﾔ_1
 10
1085.6235231953001
 20
-205.6070854749
 30
0.0
 11
1070.7265315865
 21
-190.71009386610001
 31
0.0
  0
ENDBLK
  5
5C6
  8
0
  0
BLOCK
  8
0
  2
BALLON12
 70
     0
 10
0.0
 20
0.0
 30
0.0
  3
BALLON12
  1

  0
INSERT
  5
5CC
  8
0
  6
CONTINUOUS
  2
*U131
 10
0.0
 20
0.0
 30
0.0
  0
CIRCLE
  5
5CD
  8
ﾚｲﾔ_1
 10
958.36152525699981
 20
-246.0935364991
 30
0.0
 40
8.75
  0
LINE
  5
5CE
  8
寸法線
 10
972.94485859029999
 20
-246.0935364991
 30
0.0
 11
967.11152525699993
 21
-246.0935364991
 31
0.0
  0
LINE
  5
5CF
  8
寸法線
 10
1041.7178715885
 20
-202.96360949109999
 30
0.0
 11
972.94485859029999
 21
-246.0935364991
 31
0.0
  0
SOLID
  5
5D0
  8
寸法線
 10
1041.7178715885
 20
-202.96360949109999
 30
0.0
 11
1035.2347790578001
 21
-209.09504580219999
 31
0.0
 12
1035.7875794401
 22
-206.6827001103
 32
0.0
 13
1035.7875794401
 23
-206.6827001103
 33
0.0
  0
SOLID
  5
5D1
  8
寸法線
 10
1035.7875794401
 20
-206.6827001103
 30
0.0
 11
1033.3752337481999
 21
-206.129899728
 31
0.0
 12
1041.7178715885
 22
-202.96360949109999
 32
0.0
 13
1041.7178715885
 23
-202.96360949109999
 33
0.0
  0
ENDBLK
  5
5D2
  8
0
  0
BLOCK
  8
0
  2
*U40
 70
     1
 10
0.0
 20
0.0
 30
0.0
  3
*U40
  1

  0
TEXT
  5
639
  8
図枠
  6
CONTINUOUS
 10
1128.8202428308421
 20
269.99770606407509
 30
0.0
 40
6.7468748986999989
  1
改訂者
  0
ENDBLK
  5
63B
  8
0
  0
BLOCK
  8
0
  2
*U41
 70
     1
 10
0.0
 20
0.0
 30
0.0
  3
*U41
  1

  0
TEXT
  5
63D
  8
図枠
  6
CONTINUOUS
 10
1137.4850111017611
 20
244.89496177627771
 30
0.0
 40
6.7468748986999989
  1
湊
  0
ENDBLK
  5
63F
  8
0
  0
BLOCK
  8
0
  2
*U42
 70
     1
 10
0.0
 20
0.0
 30
0.0
  3
*U42
  1

  0
TEXT
  5
641
  8
図枠
  6
CONTINUOUS
 10
1158.101254822403
 20
245.16894654373749
 30
0.0
 40
6.7468748986999989
  1
園原
  0
ENDBLK
  5
643
  8
0
  0
BLOCK
  8
0
  2
*U43
 70
     1
 10
0.0
 20
0.0
 30
0.0
  3
*U43
  1

  0
TEXT
  5
645
  8
図枠
  6
CONTINUOUS
 10
1155.909376682723
 20
257.66894654373749
 30
0.0
 40
6.7468748986999989
  1
園 原
  0
ENDBLK
  5
647
  8
0
  0
BLOCK
  8
0
  2
*U44
 70
     1
 10
0.0
 20
0.0
 30
0.0
  3
*U44
  1

  0
TEXT
  5
649
  8
図枠
  6
CONTINUOUS
 10
1137.4850111017611
 20
257.39496177627763
 30
0.0
 40
6.7468748986999989
  1
湊
  0
ENDBLK
  5
64B
  8
0
  0
BLOCK
  8
0
  2
*U45
 70
     1
 10
0.0
 20
0.0
 30
0.0
  3
*U45
  1

  0
TEXT
  5
64D
  8
図枠
  6
CONTINUOUS
 10
1153.717498543044
 20
269.96345796814262
 30
0.0
 40
6.7468748986999989
  1
検認者
  0
ENDBLK
  5
64F
  8
0
  0
BLOCK
  8
0
  2
*U46
 70
     1
 10
0.0
 20
0.0
 30
0.0
  3
*U46
  1

  0
TEXT
  5
651
  8
図枠
  6
CONTINUOUS
 10
966.30289677673284
 20
257.84018702339989
 30
0.0
 40
6.7468748986999989
  1
H18.3.18
  0
ENDBLK
  5
653
  8
0
  0
BLOCK
  8
0
  2
*U47
 70
     1
 10
0.0
 20
0.0
 30
0.0
  3
*U47
  1

  0
TEXT
  5
655
  8
図枠
  6
CONTINUOUS
 10
966.33714487266514
 20
245.34018702340001
 30
0.0
 40
6.7468748986999989
  1
H19.3.13
  0
ENDBLK
  5
657
  8
0
  0
BLOCK
  8
0
  2
*U48
 70
     1
 10
0.0
 20
0.0
 30
0.0
  3
*U48
  1

  0
TEXT
  5
659
  8
図枠
  6
CONTINUOUS
 10
970.96063782355088
 20
270.06620225594008
 30
0.0
 40
6.7468748986999989
  1
改訂日
  0
ENDBLK
  5
65B
  8
0
  0
BLOCK
  8
0
  2
*U49
 70
     1
 10
0.0
 20
0.0
 30
0.0
  3
*U49
  1

  0
TEXT
  5
65D
  8
図枠
  6
CONTINUOUS
 10
1000.996500139598
 20
-115.5390655475
 30
0.0
 40
13.4937497973
  1
Ａ
  0
ENDBLK
  5
65F
  8
0
  0
BLOCK
  8
0
  2
*U50
 70
     1
 10
0.0
 20
0.0
 30
0.0
  3
*U50
  1

  0
TEXT
  5
661
  8
ﾚｲﾔ_1
  6
CONTINUOUS
 10
860.8117955317
 20
-87.482007609199997
 30
0.0
 40
7.4965279578999988
  1
ＨＬ
 50
90.0
  0
ENDBLK
  5
663
  8
0
  0
BLOCK
  8
0
  2
*U51
 70
     1
 10
0.0
 20
0.0
 30
0.0
  3
*U51
  1

  0
TEXT
  5
665
  8
ﾚｲﾔ_1
  6
CONTINUOUS
 10
729.07628118387197
 20
-107.12449712134919
 30
0.0
 40
7.4965279578999988
  1
2-ＲＰ1/2ネジ
  0
ENDBLK
  5
667
  8
0
  0
BLOCK
  8
0
  2
*U52
 70
     1
 10
0.0
 20
0.0
 30
0.0
  3
*U52
  1

  0
TEXT
  5
669
  8
ﾚｲﾔ_1
  6
CONTINUOUS
 10
744.94650806330003
 20
-121.9839856617
 30
0.0
 40
7.4965279578999988
  1
１３Ａ
  0
ENDBLK
  5
66B
  8
0
  0
BLOCK
  8
0
  2
*U53
 70
     1
 10
0.0
 20
0.0
 30
0.0
  3
*U53
  1

  0
TEXT
  5
66D
  8
図枠
  6
CONTINUOUS
 10
1000.619771084343
 20
-431.53094083889999
 30
0.0
 40
13.4937497973
  1
Ｂ
  0
ENDBLK
  5
66F
  8
0
  0
BLOCK
  8
0
  2
*U54
 70
     1
 10
0.0
 20
0.0
 30
0.0
  3
*U54
  1

  0
TEXT
  5
671
  8
図枠
  6
CONTINUOUS
 10
1088.3070209056759
 20
-571.71231297659995
 30
0.0
 40
6.7468748986999989
  1
1
  0
ENDBLK
  5
673
  8
0
  0
BLOCK
  8
0
  2
*U55
 70
     1
 10
0.0
 20
0.0
 30
0.0
  3
*U55
  1

  0
TEXT
  5
675
  8
図枠
  6
CONTINUOUS
 10
1080.6906250456109
 20
-635.34250002403303
 30
0.0
 40
7.496527552599999
  1
数量
  0
ENDBLK
  5
677
  8
0
  0
BLOCK
  8
0
  2
*U56
 70
     1
 10
0.0
 20
0.0
 30
0.0
  3
*U56
  1

  0
TEXT
  5
679
  8
図枠
  6
CONTINUOUS
 10
1087.913167802453
 20
-584.21231297659995
 30
0.0
 40
6.7468748986999989
  1
2
  0
ENDBLK
  5
67B
  8
0
  0
BLOCK
  8
0
  2
*U57
 70
     1
 10
0.0
 20
0.0
 30
0.0
  3
*U57
  1

  0
TEXT
  5
67D
  8
図枠
  6
CONTINUOUS
 10
1088.1995715431781
 20
-559.62333286809985
 30
0.0
 40
7.1578947901999994
  1
1
  0
ENDBLK
  5
67F
  8
0
  0
BLOCK
  8
0
  2
*U58
 70
     1
 10
0.0
 20
0.0
 30
0.0
  3
*U58
  1

  0
TEXT
  5
681
  8
図枠
  6
CONTINUOUS
 10
1087.781724892988
 20
-547.12333286809985
 30
0.0
 40
7.1578947901999994
  1
2
  0
ENDBLK
  5
683
  8
0
  0
BLOCK
  8
0
  2
*U59
 70
     1
 10
0.0
 20
0.0
 30
0.0
  3
*U59
  1

  0
TEXT
  5
685
  8
図枠
  6
CONTINUOUS
 10
1088.3070209056759
 20
-559.21231297659995
 30
0.0
 40
6.7468748986999989
  1
1
  0
ENDBLK
  5
687
  8
0
  0
BLOCK
  8
0
  2
*U60
 70
     1
 10
0.0
 20
0.0
 30
0.0
  3
*U60
  1

  0
TEXT
  5
689
  8
図枠
  6
CONTINUOUS
 10
967.00331769727507
 20
-559.58904203185739
 30
0.0
 40
6.7468748986999989
  1
硬質膿R砲ウレタンフォ－ム
  0
ENDBLK
  5
68B
  8
0
  0
BLOCK
  8
0
  2
*U61
 70
     1
 10
0.0
 20
0.0
 30
0.0
  3
*U61
  1

  0
TEXT
  5
68D
  8
図枠
  6
CONTINUOUS
 10
995.61760184886828
 20
-572.08904203185739
 30
0.0
 40
6.7468748986999989
  1
ステンレス管
  0
ENDBLK
  5
68F
  8
0
  0
BLOCK
  8
0
  2
*U62
 70
     1
 10
0.0
 20
0.0
 30
0.0
  3
*U62
  1

  0
TEXT
  5
691
  8
図枠
  6
CONTINUOUS
 10
986.33636785116414
 20
-596.71231297659995
 30
0.0
 40
6.7468748986999989
  1
SUS304  HL  0.8t
  0
ENDBLK
  5
693
  8
0
  0
BLOCK
  8
0
  2
*U63
 70
     1
 10
0.0
 20
0.0
 30
0.0
  3
*U63
  1

  0
TEXT
  5
695
  8
図枠
  6
CONTINUOUS
 10
986.33636785116414
 20
-609.21231297659995
 30
0.0
 40
6.7468748986999989
  1
SUS304  HL  0.8t
  0
ENDBLK
  5
697
  8
0
  0
BLOCK
  8
0
  2
*U64
 70
     1
 10
0.0
 20
0.0
 30
0.0
  3
*U64
  1

  0
TEXT
  5
699
  8
図枠
  6
CONTINUOUS
 10
997.32810433394468
 20
-635.22833970597299
 30
0.0
 40
7.496527552599999
  1
材　　　質
  0
ENDBLK
  5
69B
  8
0
  0
BLOCK
  8
0
  2
*U65
 70
     1
 10
0.0
 20
0.0
 30
0.0
  3
*U65
  1

  0
TEXT
  5
69D
  8
図枠
  6
CONTINUOUS
 10
986.33636785116414
 20
-621.71231297659995
 30
0.0
 40
6.7468748986999989
  1
SUS304  HL  0.8t
  0
ENDBLK
  5
69F
  8
0
  0
BLOCK
  8
0
  2
*U66
 70
     1
 10
0.0
 20
0.0
 30
0.0
  3
*U66
  1

  0
TEXT
  5
6A1
  8
図枠
  6
CONTINUOUS
 10
993.79742067068469
 20
-547.74101922055365
 30
0.0
 40
7.1578947901999994
  1
ポリエチレン
  0
ENDBLK
  5
6A3
  8
0
  0
BLOCK
  8
0
  2
*U67
 70
     1
 10
0.0
 20
0.0
 30
0.0
  3
*U67
  1

  0
TEXT
  5
6A5
  8
図枠
  6
CONTINUOUS
 10
967.00331769727507
 20
-559.58904203185739
 30
0.0
 40
6.7468748986999989
  1
硬質膿R砲ウレタンフォ－ム
  0
ENDBLK
  5
6A7
  8
0
  0
BLOCK
  8
0
  2
*U68
 70
     1
 10
0.0
 20
0.0
 30
0.0
  3
*U68
  1

  0
TEXT
  5
6A9
  8
図枠
  6
CONTINUOUS
 10
1088.3070209056759
 20
-559.21231297659995
 30
0.0
 40
6.7468748986999989
  1
1
  0
ENDBLK
  5
6AB
  8
0
  0
BLOCK
  8
0
  2
*U69
 70
     1
 10
0.0
 20
0.0
 30
0.0
  3
*U69
  1

  0
TEXT
  5
6AD
  8
図枠
  6
CONTINUOUS
 10
1088.3070209056759
 20
-596.71231297659995
 30
0.0
 40
6.7468748986999989
  1
1
  0
ENDBLK
  5
6AF
  8
0
  0
BLOCK
  8
0
  2
*U70
 70
     1
 10
0.0
 20
0.0
 30
0.0
  3
*U70
  1

  0
TEXT
  5
6B1
  8
図枠
  6
CONTINUOUS
 10
1088.3070209056759
 20
-621.71231297659995
 30
0.0
 40
6.7468748986999989
  1
1
  0
ENDBLK
  5
6B3
  8
0
  0
BLOCK
  8
0
  2
*U71
 70
     1
 10
0.0
 20
0.0
 30
0.0
  3
*U71
  1

  0
TEXT
  5
6B5
  8
図枠
  6
CONTINUOUS
 10
1088.3070209056759
 20
-609.21231297659995
 30
0.0
 40
6.7468748986999989
  1
1
  0
ENDBLK
  5
6B7
  8
0
  0
BLOCK
  8
0
  2
*U72
 70
     1
 10
0.0
 20
0.0
 30
0.0
  3
*U72
  1

  0
TEXT
  5
6B9
  8
図枠
  6
CONTINUOUS
 10
1004.626864967419
 20
-647.502500024033
 30
0.0
 40
7.496527552599999
  1
製品名
  0
ENDBLK
  5
6BB
  8
0
  0
BLOCK
  8
0
  2
*U73
 70
     1
 10
0.0
 20
0.0
 30
0.0
  3
*U73
  1

  0
TEXT
  5
6BD
  8
図枠
  6
CONTINUOUS
 10
1004.836158883862
 20
-674.92639314532619
 30
0.0
 40
7.496527552599999
  1
図面名
  0
ENDBLK
  5
6BF
  8
0
  0
BLOCK
  8
0
  2
*U74
 70
     1
 10
0.0
 20
0.0
 30
0.0
  3
*U74
  1

  0
TEXT
  5
6C1
  8
図枠
  6
CONTINUOUS
 10
1007.23352556312
 20
-702.35028626661972
 30
0.0
 40
7.496527552599999
  1
図 番
  0
ENDBLK
  5
6C3
  8
0
  0
BLOCK
  8
0
  2
*U75
 70
     1
 10
0.0
 20
0.0
 30
0.0
  3
*U75
  1

  0
TEXT
  5
6C5
  8
図枠
  6
CONTINUOUS
 10
1001.713762924851
 20
-584.79453060745232
 30
0.0
 40
6.7468748986999989
  1
SUSエルボ
  0
ENDBLK
  5
6C7
  8
0
  0
BLOCK
  8
0
  2
*U76
 70
     1
 10
0.0
 20
0.0
 30
0.0
  3
*U76
  1

  0
TEXT
  5
6C9
  8
図枠
  6
CONTINUOUS
 10
808.39539155737805
 20
-524.05007614279987
 30
0.0
 40
7.1578947901999994
  1
1
  0
ENDBLK
  5
6CB
  8
0
  0
BLOCK
  8
0
  2
*U77
 70
     1
 10
0.0
 20
0.0
 30
0.0
  3
*U77
  1

  0
TEXT
  5
6CD
  8
図枠
  6
CONTINUOUS
 10
825.37891970652072
 20
-559.21231297659995
 30
0.0
 40
6.7468748986999989
  1
6
  0
ENDBLK
  5
6CF
  8
0
  0
BLOCK
  8
0
  2
*U78
 70
     1
 10
0.0
 20
0.0
 30
0.0
  3
*U78
  1

  0
TEXT
  5
6D1
  8
図枠
  6
CONTINUOUS
 10
825.24539040166792
 20
-559.62333286809985
 30
0.0
 40
7.1578947901999994
  1
6
  0
ENDBLK
  5
6D3
  8
0
  0
BLOCK
  8
0
  2
*U79
 70
     1
 10
0.0
 20
0.0
 30
0.0
  3
*U79
  1

  0
TEXT
  5
6D5
  8
図枠
  6
CONTINUOUS
 10
825.26355764732841
 20
-547.12333286809985
 30
0.0
 40
7.1578947901999994
  1
7
  0
ENDBLK
  5
6D7
  8
0
  0
BLOCK
  8
0
  2
*U80
 70
     1
 10
0.0
 20
0.0
 30
0.0
  3
*U80
  1

  0
TEXT
  5
6D9
  8
図枠
  6
CONTINUOUS
 10
863.63880924107809
 20
-547.92499004490003
 30
0.0
 40
7.1578947901999994
  1
1
  0
ENDBLK
  5
6DB
  8
0
  0
BLOCK
  8
0
  2
*U81
 70
     1
 10
0.0
 20
0.0
 30
0.0
  3
*U81
  1

  0
TEXT
  5
6DD
  8
図枠
  6
CONTINUOUS
 10
878.12287045117682
 20
-585.66064866569991
 30
0.0
 40
6.7468748986999989
  1
1
  0
ENDBLK
  5
6DF
  8
0
  0
BLOCK
  8
0
  2
*U82
 70
     1
 10
0.0
 20
0.0
 30
0.0
  3
*U82
  1

  0
TEXT
  5
6E1
  8
図枠
  6
CONTINUOUS
 10
864.08949884344349
 20
-689.8526988769396
 30
0.0
 40
7.496527552599999
  1
岸 本
  0
ENDBLK
  5
6E3
  8
0
  0
BLOCK
  8
0
  2
*U83
 70
     1
 10
0.0
 20
0.0
 30
0.0
  3
*U83
  1

  0
TEXT
  5
6E5
  8
図枠
  6
CONTINUOUS
 10
861.8443459215988
 20
-676.06464543758625
 30
0.0
 40
7.496527552599999
  1
白須賀
  0
ENDBLK
  5
6E7
  8
0
  0
BLOCK
  8
0
  2
*U84
 70
     1
 10
0.0
 20
0.0
 30
0.0
  3
*U84
  1

  0
TEXT
  5
6E9
  8
図枠
  6
CONTINUOUS
 10
829.92039018809999
 20
-713.18556265240909
 30
0.0
 40
13.4937497973
  1
株式会社
  0
ENDBLK
  5
6EB
  8
0
  0
BLOCK
  8
0
  2
*U85
 70
     1
 10
0.0
 20
0.0
 30
0.0
  3
*U85
  1

  0
TEXT
  5
6ED
  8
図枠
  6
CONTINUOUS
 10
825.37891970652072
 20
-559.21231297659995
 30
0.0
 40
6.7468748986999989
  1
6
  0
ENDBLK
  5
6EF
  8
0
  0
BLOCK
  8
0
  2
*U86
 70
     1
 10
0.0
 20
0.0
 30
0.0
  3
*U86
  1

  0
TEXT
  5
6F1
  8
図枠
  6
CONTINUOUS
 10
816.32079784619987
 20
-675.95048511952632
 30
0.0
 40
7.496527552599999
  1
 設計
  0
ENDBLK
  5
6F3
  8
0
  0
BLOCK
  8
0
  2
*U87
 70
     1
 10
0.0
 20
0.0
 30
0.0
  3
*U87
  1

  0
TEXT
  5
6F5
  8
図枠
  6
CONTINUOUS
 10
835.3366170941141
 20
-661.91397596399986
 30
0.0
 40
7.496527552599999
  1
H16.4
  0
ENDBLK
  5
6F7
  8
0
  0
BLOCK
  8
0
  2
*U88
 70
     1
 10
0.0
 20
0.0
 30
0.0
  3
*U88
  1

  0
TEXT
  5
6F9
  8
図枠
  6
CONTINUOUS
 10
816.32079784619987
 20
-689.77659199823302
 30
0.0
 40
7.496527552599999
  1
 製図
  0
ENDBLK
  5
6FB
  8
0
  0
BLOCK
  8
0
  2
*U89
 70
     1
 10
0.0
 20
0.0
 30
0.0
  3
*U89
  1

  0
TEXT
  5
6FD
  8
図枠
  6
CONTINUOUS
 10
825.39604375448698
 20
-584.21231297659995
 30
0.0
 40
6.7468748986999989
  1
4
  0
ENDBLK
  5
6FF
  8
0
  0
BLOCK
  8
0
  2
*U90
 70
     1
 10
0.0
 20
0.0
 30
0.0
  3
*U90
  1

  0
TEXT
  5
701
  8
図枠
  6
CONTINUOUS
 10
825.44741589838566
 20
-596.71231297659995
 30
0.0
 40
6.7468748986999989
  1
3
  0
ENDBLK
  5
703
  8
0
  0
BLOCK
  8
0
  2
*U91
 70
     1
 10
0.0
 20
0.0
 30
0.0
  3
*U91
  1

  0
TEXT
  5
705
  8
図枠
  6
CONTINUOUS
 10
825.41316780245313
 20
-609.21231297659995
 30
0.0
 40
6.7468748986999989
  1
2
  0
ENDBLK
  5
707
  8
0
  0
BLOCK
  8
0
  2
*U92
 70
     1
 10
0.0
 20
0.0
 30
0.0
  3
*U92
  1

  0
TEXT
  5
709
  8
図枠
  6
CONTINUOUS
 10
818.43797240140816
 20
-635.19028626661975
 30
0.0
 40
7.496527552599999
  1
品番
  0
ENDBLK
  5
70B
  8
0
  0
BLOCK
  8
0
  2
*U93
 70
     1
 10
0.0
 20
0.0
 30
0.0
  3
*U93
  1

  0
TEXT
  5
70D
  8
図枠
  6
CONTINUOUS
 10
829.32417367629284
 20
-648.29827136211316
 30
0.0
 40
7.496527552599999
  1
日　　付
  0
ENDBLK
  5
70F
  8
0
  0
BLOCK
  8
0
  2
*U94
 70
     1
 10
0.0
 20
0.0
 30
0.0
  3
*U94
  1

  0
TEXT
  5
711
  8
図枠
  6
CONTINUOUS
 10
825.80702090567684
 20
-621.71231297659995
 30
0.0
 40
6.7468748986999989
  1
1
  0
ENDBLK
  5
713
  8
0
  0
BLOCK
  8
0
  2
*U95
 70
     1
 10
0.0
 20
0.0
 30
0.0
  3
*U95
  1

  0
TEXT
  5
715
  8
図枠
  6
CONTINUOUS
 10
825.44741589838566
 20
-571.71231297659995
 30
0.0
 40
6.7468748986999989
  1
5
  0
ENDBLK
  5
717
  8
0
  0
BLOCK
  8
0
  2
*U96
 70
     1
 10
0.0
 20
0.0
 30
0.0
  3
*U96
  1

  0
TEXT
  5
719
  8
図枠
  6
CONTINUOUS
 10
910.07079784619987
 20
-675.98853855887967
 30
0.0
 40
7.496527552599999
  1
 照査
  0
ENDBLK
  5
71B
  8
0
  0
BLOCK
  8
0
  2
*U97
 70
     1
 10
0.0
 20
0.0
 30
0.0
  3
*U97
  1

  0
TEXT
  5
71D
  8
図枠
  6
CONTINUOUS
 10
910.07079784619987
 20
-689.81464543758625
 30
0.0
 40
7.496527552599999
  1
 検図
  0
ENDBLK
  5
71F
  8
0
  0
BLOCK
  8
0
  2
*U98
 70
     1
 10
0.0
 20
0.0
 30
0.0
  3
*U98
  1

  0
TEXT
  5
721
  8
図枠
  6
CONTINUOUS
 10
891.02505144987356
 20
-648.52659199823302
 30
0.0
 40
7.496527552599999
  1
尺　　度
  0
ENDBLK
  5
723
  8
0
  0
BLOCK
  8
0
  2
*U99
 70
     1
 10
0.0
 20
0.0
 30
0.0
  3
*U99
  1

  0
TEXT
  5
725
  8
図枠
  6
CONTINUOUS
 10
898.36936524506041
 20
-662.33256379688623
 30
0.0
 40
7.496527552599999
  1
略 尺
  0
ENDBLK
  5
727
  8
0
  0
BLOCK
  8
0
  2
*U100
 70
     1
 10
0.0
 20
0.0
 30
0.0
  3
*U100
  1

  0
TEXT
  5
729
  8
図枠
  6
CONTINUOUS
 10
872.43770366228875
 20
-623.87214564670001
 30
0.0
 40
7.1578947901999994
  1
2
  0
ENDBLK
  5
72B
  8
0
  0
BLOCK
  8
0
  2
*U101
 70
     1
 10
0.0
 20
0.0
 30
0.0
  3
*U101
  1

  0
TEXT
  5
72D
  8
ﾚｲﾔ_1
  6
CONTINUOUS
 10
955.62391591315065
 20
-162.41428146600001
 30
0.0
 40
7.4965279578999988
  1
6
  0
ENDBLK
  5
72F
  8
0
  0
BLOCK
  8
0
  2
*U102
 70
     1
 10
0.0
 20
0.0
 30
0.0
  3
*U102
  1

  0
TEXT
  5
731
  8
ﾚｲﾔ_1
  6
CONTINUOUS
 10
955.85223656161475
 20
-84.147000708700006
 30
0.0
 40
7.4965279578999988
  1
4
  0
ENDBLK
  5
733
  8
0
  0
BLOCK
  8
0
  2
*U103
 70
     1
 10
0.0
 20
0.0
 30
0.0
  3
*U103
  1

  0
TEXT
  5
735
  8
ﾚｲﾔ_1
  6
CONTINUOUS
 10
955.70002279597202
 20
-33.8793779839
 30
0.0
 40
7.4965279578999988
  1
2
  0
ENDBLK
  5
737
  8
0
  0
BLOCK
  8
0
  2
*U104
 70
     1
 10
0.0
 20
0.0
 30
0.0
  3
*U104
  1

  0
TEXT
  5
739
  8
ﾚｲﾔ_1
  6
CONTINUOUS
 10
955.70002279597202
 20
-33.8793779839
 30
0.0
 40
7.4965279578999988
  1
2
  0
ENDBLK
  5
73B
  8
0
  0
BLOCK
  8
0
  2
*U105
 70
     1
 10
0.0
 20
0.0
 30
0.0
  3
*U105
  1

  0
TEXT
  5
73D
  8
ﾚｲﾔ_1
  6
CONTINUOUS
 10
955.70002279597202
 20
-33.8793779839
 30
0.0
 40
7.4965279578999988
  1
2
  0
ENDBLK
  5
73F
  8
0
  0
BLOCK
  8
0
  2
*U106
 70
     1
 10
0.0
 20
0.0
 30
0.0
  3
*U106
  1

  0
TEXT
  5
741
  8
ﾚｲﾔ_1
  6
CONTINUOUS
 10
955.70002279597202
 20
-33.8793779839
 30
0.0
 40
7.4965279578999988
  1
2
  0
ENDBLK
  5
743
  8
0
  0
BLOCK
  8
0
  2
*U107
 70
     1
 10
0.0
 20
0.0
 30
0.0
  3
*U107
  1

  0
TEXT
  5
745
  8
ﾚｲﾔ_1
  6
CONTINUOUS
 10
955.70002279597202
 20
-33.8793779839
 30
0.0
 40
7.4965279578999988
  1
2
  0
ENDBLK
  5
747
  8
0
  0
BLOCK
  8
0
  2
*U108
 70
     1
 10
0.0
 20
0.0
 30
0.0
  3
*U108
  1

  0
TEXT
  5
749
  8
図枠
  6
CONTINUOUS
 10
950.9692867279532
 20
244.55713951320001
 30
0.0
 40
6.7468748986999989
  1
2
  0
ENDBLK
  5
74B
  8
0
  0
BLOCK
  8
0
  2
*U109
 70
     1
 10
0.0
 20
0.0
 30
0.0
  3
*U109
  1

  0
TEXT
  5
74D
  8
図枠
  6
CONTINUOUS
 10
951.18300760247678
 20
256.96087971190002
 30
0.0
 40
6.7468748986999989
  1
1
  0
ENDBLK
  5
74F
  8
0
  0
BLOCK
  8
0
  2
*U110
 70
     1
 10
0.0
 20
0.0
 30
0.0
  3
*U110
  1

  0
TEXT
  5
751
  8
図枠
  6
CONTINUOUS
 10
945.37864219884182
 20
270.13469844780502
 30
0.0
 40
6.7468748986999989
  1
副番
  0
ENDBLK
  5
753
  8
0
  0
BLOCK
  8
0
  2
*U111
 70
     1
 10
0.0
 20
0.0
 30
0.0
  3
*U111
  1

  0
TEXT
  5
755
  8
図枠
  6
CONTINUOUS
 10
966.4730196101325
 20
229.6712407652918
 30
0.0
 40
7.1578947901999994
  1
Ａ・Ｂ部拡大図
  0
ENDBLK
  5
757
  8
0
  0
BLOCK
  8
0
  2
*U112
 70
     1
 10
0.0
 20
0.0
 30
0.0
  3
*U112
  1

  0
TEXT
  5
759
  8
図枠
  6
CONTINUOUS
 10
957.87755228279696
 20
-675.83632480146639
 30
0.0
 40
7.496527552599999
  1
園 原
  0
ENDBLK
  5
75B
  8
0
  0
BLOCK
  8
0
  2
*U113
 70
     1
 10
0.0
 20
0.0
 30
0.0
  3
*U113
  1

  0
TEXT
  5
75D
  8
図枠
  6
CONTINUOUS
 10
957.87755228279696
 20
-689.5863248014665
 30
0.0
 40
7.496527552599999
  1
園 原
  0
ENDBLK
  5
75F
  8
0
  0
BLOCK
  8
0
  2
*U114
 70
     1
 10
0.0
 20
0.0
 30
0.0
  3
*U114
  1

  0
TEXT
  5
761
  8
ﾚｲﾔ_1
  6
CONTINUOUS
 10
955.20532805763344
 20
-335.52257471410002
 30
0.0
 40
7.4965279578999988
  1
1
  0
ENDBLK
  5
763
  8
0
  0
BLOCK
  8
0
  2
*U115
 70
     1
 10
0.0
 20
0.0
 30
0.0
  3
*U115
  1

  0
TEXT
  5
765
  8
ﾚｲﾔ_1
  6
CONTINUOUS
 10
955.85223656161475
 20
-421.62947542329999
 30
0.0
 40
7.4965279578999988
  1
4
  0
ENDBLK
  5
767
  8
0
  0
BLOCK
  8
0
  2
*U116
 70
     1
 10
0.0
 20
0.0
 30
0.0
  3
*U116
  1

  0
TEXT
  5
769
  8
ﾚｲﾔ_1
  6
CONTINUOUS
 10
955.5478090303294
 20
-4.1367687856999993
 30
0.0
 40
7.4965279578999988
  1
7
  0
ENDBLK
  5
76B
  8
0
  0
BLOCK
  8
0
  2
*U117
 70
     1
 10
0.0
 20
0.0
 30
0.0
  3
*U117
  1

  0
TEXT
  5
76D
  8
ﾚｲﾔ_1
  6
CONTINUOUS
 10
955.54499130232932
 20
-4.1412745353999991
 30
0.0
 40
7.4965279578999988
  1
7
  0
ENDBLK
  5
76F
  8
0
  0
BLOCK
  8
0
  2
*U118
 70
     1
 10
0.0
 20
0.0
 30
0.0
  3
*U118
  1

  0
TEXT
  5
771
  8
ﾚｲﾔ_1
  6
CONTINUOUS
 10
527.05851349739987
 20
-536.08983820558626
 30
0.0
 40
8.9958330630999992
  1
注意事項
  0
TEXT
  5
772
  8
ﾚｲﾔ_1
  6
CONTINUOUS
 10
527.05851349739987
 20
-566.76091032427746
 30
0.0
 40
8.9958330630999992
  1
＊この水栓柱は、お湯を通水することが
  0
TEXT
  5
773
  8
ﾚｲﾔ_1
  6
CONTINUOUS
 10
527.05851349739987
 20
-597.47764657019263
 30
0.0
 40
8.9958330630999992
  1
　可能ですが、安全にご使用していただく
  0
TEXT
  5
774
  8
ﾚｲﾔ_1
  6
CONTINUOUS
 10
527.05851349739987
 20
-627.92039805276454
 30
0.0
 40
8.9958330630999992
  1
　為に通水温度を８０℃以内にして下さい。
  0
TEXT
  5
775
  8
ﾚｲﾔ_1
  6
CONTINUOUS
 10
527.05851349739987
 20
-658.45447778978405
 30
0.0
 40
8.9958330630999992
  1
　又、人体に直接触れる可能性のある場所
  0
TEXT
  5
776
  8
ﾚｲﾔ_1
  6
CONTINUOUS
 10
527.05851349739987
 20
-689.17121403569922
 30
0.0
 40
8.9958330630999992
  1
　では通水温度を６０℃以内にてご使用
  0
TEXT
  5
777
  8
ﾚｲﾔ_1
  6
CONTINUOUS
 10
527.05851349739987
 20
-719.47697313659955
 30
0.0
 40
8.9958330630999992
  1
　下さい。
  0
ENDBLK
  5
779
  8
0
  0
BLOCK
  8
0
  2
*U119
 70
     1
 10
0.0
 20
0.0
 30
0.0
  3
*U119
  1

  0
TEXT
  5
77B
  8
図枠
  6
CONTINUOUS
 10
877.61350512909439
 20
-635.26639314532633
 30
0.0
 40
7.496527552599999
  1
品　　　名
  0
ENDBLK
  5
77D
  8
0
  0
BLOCK
  8
0
  2
*U120
 70
     1
 10
0.0
 20
0.0
 30
0.0
  3
*U120
  1

  0
TEXT
  5
77F
  8
図枠
  6
CONTINUOUS
 10
879.79586955263164
 20
-572.43152299118208
 30
0.0
 40
6.7468748986999989
  1
給水パイプ
  0
ENDBLK
  5
781
  8
0
  0
BLOCK
  8
0
  2
*U121
 70
     1
 10
0.0
 20
0.0
 30
0.0
  3
*U121
  1

  0
TEXT
  5
783
  8
図枠
  6
CONTINUOUS
 10
889.65932118118815
 20
-559.52054583999234
 30
0.0
 40
6.7468748986999989
  1
断熱材
  0
ENDBLK
  5
785
  8
0
  0
BLOCK
  8
0
  2
*U122
 70
     1
 10
0.0
 20
0.0
 30
0.0
  3
*U122
  1

  0
TEXT
  5
787
  8
図枠
  6
CONTINUOUS
 10
888.35789353575353
 20
-584.58904203185739
 30
0.0
 40
6.7468748986999989
  1
給水口
  0
ENDBLK
  5
789
  8
0
  0
BLOCK
  8
0
  2
*U123
 70
     1
 10
0.0
 20
0.0
 30
0.0
  3
*U123
  1

  0
TEXT
  5
78B
  8
図枠
  6
CONTINUOUS
 10
879.93286193636175
 20
-597.43152299118208
 30
0.0
 40
6.7468748986999989
  1
下キャップ
  0
ENDBLK
  5
78D
  8
0
  0
BLOCK
  8
0
  2
*U124
 70
     1
 10
0.0
 20
0.0
 30
0.0
  3
*U124
  1

  0
TEXT
  5
78F
  8
図枠
  6
CONTINUOUS
 10
892.99851053460554
 20
-622.08904203185739
 30
0.0
 40
6.7468748986999989
  1
本体
  0
ENDBLK
  5
791
  8
0
  0
BLOCK
  8
0
  2
*U125
 70
     1
 10
0.0
 20
0.0
 30
0.0
  3
*U125
  1

  0
TEXT
  5
793
  8
図枠
  6
CONTINUOUS
 10
879.89861384042911
 20
-609.93152299118208
 30
0.0
 40
6.7468748986999989
  1
上キャップ
  0
ENDBLK
  5
795
  8
0
  0
BLOCK
  8
0
  2
*U126
 70
     1
 10
0.0
 20
0.0
 30
0.0
  3
*U126
  1

  0
TEXT
  5
797
  8
図枠
  6
CONTINUOUS
 10
889.65932118118815
 20
-559.52054583999234
 30
0.0
 40
6.7468748986999989
  1
断熱材
  0
ENDBLK
  5
799
  8
0
  0
BLOCK
  8
0
  2
*U127
 70
     1
 10
0.0
 20
0.0
 30
0.0
  3
*U127
  1

  0
TEXT
  5
79B
  8
図枠
  6
CONTINUOUS
 10
869.21927476426231
 20
-547.88635718583703
 30
0.0
 40
7.1578947901999994
  1
継手アダプター
  0
ENDBLK
  5
79D
  8
0
  0
BLOCK
  8
0
  2
*U128
 70
     1
 10
0.0
 20
0.0
 30
0.0
  3
*U128
  1

  0
TEXT
  5
79F
  8
ﾚｲﾔ_1
  6
CONTINUOUS
 10
955.73807623738276
 20
-468.85081946870002
 30
0.0
 40
7.4965279578999988
  1
3
  0
ENDBLK
  5
7A1
  8
0
  0
BLOCK
  8
0
  2
*U129
 70
     1
 10
0.0
 20
0.0
 30
0.0
  3
*U129
  1

  0
TEXT
  5
7A3
  8
ﾚｲﾔ_1
  6
CONTINUOUS
 10
820.88015554569995
 20
-524.59395079308115
 30
0.0
 40
7.4965279578999988
  1
変更内容：給水口を砲金エルボからSUSエルボに変更。
  0
TEXT
  5
7A4
  8
ﾚｲﾔ_1
  6
CONTINUOUS
 10
820.88015554569995
 20
-537.88728632587174
 30
0.0
 40
7.4965279578999988
  1
          変更に伴い継手アダプタ ーを追加。
  0
ENDBLK
  5
7A6
  8
0
  0
BLOCK
  8
0
  2
*U130
 70
     1
 10
0.0
 20
0.0
 30
0.0
  3
*U130
  1

  0
TEXT
  5
7A8
  8
図枠
  6
CONTINUOUS
 10
1116.9723601587471
 20
-635.45666034209285
 30
0.0
 40
7.496527552599999
  1
備　　　考
  0
ENDBLK
  5
7AA
  8
0
  0
BLOCK
  8
0
  2
*U131
 70
     1
 10
0.0
 20
0.0
 30
0.0
  3
*U131
  1

  0
TEXT
  5
7AC
  8
ﾚｲﾔ_1
  6
CONTINUOUS
 10
955.73807623738276
 20
-249.18034212879999
 30
0.0
 40
7.4965279578999988
  1
5
  0
ENDBLK
  5
7AE
  8
0
  0
BLOCK
  8
0
  2
*U132
 70
     1
 10
0.0
 20
0.0
 30
0.0
  3
*U132
  1

  0
TEXT
  5
7B0
  8
図枠
  6
CONTINUOUS
 10
1011.729332929815
 20
244.96345796814259
 30
0.0
 40
6.7468748986999989
  1
本体板厚変更 1.0ｔ⇒0.8ｔ
  0
ENDBLK
  5
7B2
  8
0
  0
BLOCK
  8
0
  2
*U133
 70
     1
 10
0.0
 20
0.0
 30
0.0
  3
*U133
  1

  0
TEXT
  5
7B4
  8
図枠
  6
CONTINUOUS
 10
1036.0283569939149
 20
257.36071368034521
 30
0.0
 40
6.7468748986999989
  1
部品変更・追加
  0
ENDBLK
  5
7B6
  8
0
  0
BLOCK
  8
0
  2
*U134
 70
     1
 10
0.0
 20
0.0
 30
0.0
  3
*U134
  1

  0
TEXT
  5
7B8
  8
図枠
  6
CONTINUOUS
 10
1036.1482253296781
 20
269.99770606407509
 30
0.0
 40
6.7468748986999989
  1
改　訂　内　容
  0
ENDBLK
  5
7BA
  8
0
  0
BLOCK
  8
0
  2
*U135
 70
     1
 10
0.0
 20
0.0
 30
0.0
  3
*U135
  1

  0
TEXT
  5
7BC
  8
図枠
  6
CONTINUOUS
 10
1043.4869602012859
 20
-683.26267744318159
 30
0.0
 40
8.9958328605000002
  1
ＷＰ７-１５０Ｓ 承認図
  0
ENDBLK
  5
7BE
  8
0
  0
BLOCK
  8
0
  2
*U136
 70
     1
 10
0.0
 20
0.0
 30
0.0
  3
*U136
  1

  0
TEXT
  5
7C0
  8
図枠
  6
CONTINUOUS
 10
1060.8621602186479
 20
-710.58002093839991
 30
0.0
 40
8.9958328605000002
  1
ＳＢＰ０００３１
  0
ENDBLK
  5
7C2
  8
0
  0
BLOCK
  8
0
  2
*U137
 70
     1
 10
0.0
 20
0.0
 30
0.0
  3
*U137
  1

  0
TEXT
  5
7C4
  8
図枠
  6
CONTINUOUS
 10
1089.059758144326
 20
-656.08232632654972
 30
0.0
 40
8.9958328605000002
  1
水栓柱
  0
ENDBLK
  5
7C6
  8
0
  0
ENDSEC
  0
SECTION
  2
ENTITIES
  0
INSERT
  5
2F
  8
0
  6
CONTINUOUS
  2
*U40
 10
0.0
 20
0.0
 30
0.0
  0
LINE
  5
31
  8
ﾚｲﾔ_1
 10
1128.8361527221
 20
221.9634772631
 30
0.0
 11
1128.8361527221
 21
70.616576592900003
 31
0.0
  0
LINE
  5
32
  8
ﾚｲﾔ_1
 62
     5
 10
1107.8136145272999
 20
164.79585401150001
 30
0.0
 11
1109.8336145272999
 21
169.12775799089999
 31
0.0
  0
LINE
  5
33
  8
ﾚｲﾔ_1
 62
     5
 10
1109.4336145273001
 20
153.84129035780001
 30
0.0
 11
1107.7336145273
 21
163.4824694511
 31
0.0
  0
LINE
  5
34
  8
ﾚｲﾔ_1
 62
     5
 10
1111.9336145273001
 20
129.9824694511
 30
0.0
 11
1109.4336145273001
 21
129.9824694511
 31
0.0
  0
LINE
  5
35
  8
ﾚｲﾔ_1
 62
     5
 10
1109.4336145273001
 20
111.4824694511
 30
0.0
 11
1109.4336145273001
 21
153.84129035780001
 31
0.0
  0
LINE
  5
36
  8
ﾚｲﾔ_1
 62
     5
 10
1111.9336145273001
 20
100.9824694511
 30
0.0
 11
1111.9336145273001
 21
129.9824694511
 31
0.0
  0
ARC
  5
37
  8
ﾚｲﾔ_1
 62
     5
 10
1110.8336145272999
 20
200.27844322530001
 30
0.0
 40
1.0
 50
136.0
 51
180.0
  0
CIRCLE
  5
38
  8
ﾚｲﾔ_1
 62
     5
 10
1110.2036145273
 20
207.2970525378
 30
0.0
 40
2.2299999999999991
  0
LINE
  5
39
  8
ﾚｲﾔ_1
 62
     5
 10
1108.4336145273001
 20
209.83160808150001
 30
0.0
 11
1110.0670643162
 21
209.57565894859999
 31
0.0
  0
LINE
  5
3A
  8
ﾚｲﾔ_1
 62
     5
 10
1108.4336145273001
 20
211.45113097539999
 30
0.0
 11
1110.3147499098
 21
211.15637139770001
 31
0.0
  0
LINE
  5
3B
  8
ﾚｲﾔ_1
 62
     5
 10
1108.9633310464999
 20
202.0845549885
 30
0.0
 11
1111.6477659683001
 21
204.8643687254
 31
0.0
  0
LINE
  5
3C
  8
ﾚｲﾔ_1
 62
     5
 10
1109.8336145272999
 20
169.12775799089999
 30
0.0
 11
1109.8336145272999
 21
200.27844322530001
 31
0.0
  0
LINE
  5
3D
  8
ﾚｲﾔ_1
 62
     5
 10
1110.1142747270001
 20
200.9731015957
 30
0.0
 11
1112.7987096488
 21
203.75291533270001
 31
0.0
  0
ARC
  5
3E
  8
ﾚｲﾔ_1
 62
     5
 10
1109.6336145273001
 20
206.8094121627
 30
0.0
 40
4.4000000000000004
 50
316.0
 51
81.094600151600005
  0
ARC
  5
3F
  8
ﾚｲﾔ_1
 62
     5
 10
1109.6336145273001
 20
206.8094121627
 30
0.0
 40
2.7999999999999989
 50
316.0
 51
81.094600151600005
  0
ARC
  5
40
  8
ﾚｲﾔ_1
 62
     5
 10
1110.8336145272999
 20
200.27844322530001
 30
0.0
 40
2.6000000000000001
 50
136.0
 51
180.0
  0
LINE
  5
41
  8
ﾚｲﾔ_1
 62
     5
 10
1110.2036145273
 20
205.06705253780001
 30
0.0
 11
1107.9336145273001
 21
205.06705253780001
 31
0.0
  0
LINE
  5
42
  8
ﾚｲﾔ_1
 62
     5
 10
1077.6536145273001
 20
163.4824694511
 30
0.0
 11
1077.6536145273001
 21
165.15056547169999
 31
0.0
  0
ARC
  5
43
  8
ﾚｲﾔ_1
  6
BORDER
 62
     3
 10
1081.9336145273001
 20
125.4824694511
 30
0.0
 40
10.0
 50
270.0
 51
0.0
  0
LINE
  5
44
  8
ﾚｲﾔ_1
  6
BORDER
 62
     3
 10
1091.9336145273001
 20
221.9634772631
 30
0.0
 11
1091.9336145273001
 21
125.4824694511
 31
0.0
  0
LINE
  5
45
  8
ﾚｲﾔ_1
 62
     5
 10
1079.9336145273001
 20
130.4824694511
 30
0.0
 11
1079.9336145273001
 21
151.00564944800001
 31
0.0
  0
LINE
  5
46
  8
ﾚｲﾔ_1
 62
     5
 10
1077.9336145273001
 20
100.4824694511
 30
0.0
 11
1077.9336145273001
 21
130.4824694511
 31
0.0
  0
LINE
  5
47
  8
ﾚｲﾔ_1
 62
     5
 10
1079.9336145273001
 20
130.4824694511
 30
0.0
 11
1077.9336145273001
 21
130.4824694511
 31
0.0
  0
LINE
  5
48
  8
ﾚｲﾔ_1
 62
     5
 10
1081.9336145273001
 20
100.4824694511
 30
0.0
 11
1077.9336145273001
 21
100.4824694511
 31
0.0
  0
LINE
  5
49
  8
ﾚｲﾔ_1
 62
     5
 10
1077.9336145273001
 20
169.4824694511
 30
0.0
 11
1077.9336145273001
 21
221.9634772631
 31
0.0
  0
LINE
  5
4A
  8
ﾚｲﾔ_1
 62
     5
 10
1106.2136145273
 20
165.15056547169999
 30
0.0
 11
1108.2336145273
 21
169.4824694511
 31
0.0
  0
LINE
  5
4B
  8
ﾚｲﾔ_1
 62
     5
 10
1107.8136145272999
 20
163.4824694511
 30
0.0
 11
1107.8136145272999
 21
164.79585401150001
 31
0.0
  0
LINE
  5
4C
  8
ﾚｲﾔ_1
 62
     5
 10
1106.2136145273
 20
163.4824694511
 30
0.0
 11
1106.2136145273
 21
165.15056547169999
 31
0.0
  0
LINE
  5
4D
  8
ﾚｲﾔ_1
 62
     5
 10
1108.2336145273
 20
169.4824694511
 30
0.0
 11
1108.2336145273
 21
200.27844322530001
 31
0.0
  0
LINE
  5
4E
  8
ﾚｲﾔ_1
 62
     5
 10
1108.4336145273001
 20
209.86294655719999
 30
0.0
 11
1108.4336145273001
 21
211.4824694511
 31
0.0
  0
LINE
  5
4F
  8
ﾚｲﾔ_1
 62
     5
 10
1105.9336145273001
 20
169.4824694511
 30
0.0
 11
1105.9336145273001
 21
221.9634772631
 31
0.0
  0
LINE
  5
50
  8
ﾚｲﾔ_1
 62
     5
 10
1107.9336145273001
 20
169.4824694511
 30
0.0
 11
1107.9336145273001
 21
221.9634772631
 31
0.0
  0
LINE
  5
51
  8
ﾚｲﾔ_1
 62
     5
 10
1108.2336145273
 20
201.32891141249999
 30
0.0
 11
1107.9336145273001
 21
201.32891141249999
 31
0.0
  0
LINE
  5
52
  8
ﾚｲﾔ_1
 62
     5
 10
1108.4336145273001
 20
209.86294655719999
 30
0.0
 11
1107.9336145273001
 21
209.86294655719999
 31
0.0
  0
LINE
  5
53
  8
ﾚｲﾔ_1
 62
     5
 10
1108.4336145273001
 20
211.4824694511
 30
0.0
 11
1107.9336145273001
 21
211.4824694511
 31
0.0
  0
INSERT
  5
54
  8
0
  6
CONTINUOUS
  2
*U41
 10
0.0
 20
0.0
 30
0.0
  0
INSERT
  5
55
  8
0
  6
CONTINUOUS
  2
*U42
 10
0.0
 20
0.0
 30
0.0
  0
INSERT
  5
56
  8
0
  6
CONTINUOUS
  2
*U43
 10
0.0
 20
0.0
 30
0.0
  0
INSERT
  5
57
  8
0
  6
CONTINUOUS
  2
*U44
 10
0.0
 20
0.0
 30
0.0
  0
LINE
  5
58
  8
図枠
 62
     5
 10
1128.8207978462001
 20
241.87456192210001
 30
0.0
 11
1128.8207978462001
 21
279.37456192209999
 31
0.0
  0
LINE
  5
59
  8
図枠
 62
     5
 10
1153.8207978462001
 20
241.87456192210001
 30
0.0
 11
1153.8207978462001
 21
279.37456192209999
 31
0.0
  0
INSERT
  5
5A
  8
0
  6
CONTINUOUS
  2
*U45
 10
0.0
 20
0.0
 30
0.0
  0
LINE
  5
5B
  8
ﾚｲﾔ_1
 10
986.25105093190007
 20
221.9634772631
 30
0.0
 11
986.25105093190007
 21
70.616576592900003
 31
0.0
  0
LINE
  5
5C
  8
ﾚｲﾔ_1
 62
     5
 10
1031.9336145273001
 20
221.9634772631
 30
0.0
 11
1031.9336145273001
 21
145.4824694511
 31
0.0
  0
LINE
  5
5E
  8
0
 62
     5
 10
966.84851273710012
 20
180.3928903595
 30
0.0
 11
966.84851273710012
 21
138.0340694528
 31
0.0
  0
LINE
  5
5F
  8
0
 62
     5
 10
961.34851273710012
 20
140.86971036259999
 30
0.0
 11
963.54851273710005
 21
128.3928903595
 31
0.0
  0
CIRCLE
  5
60
  8
0
 62
     5
 10
967.6185127371001
 20
84.578307272800004
 30
0.0
 40
2.2299999999999991
  0
LINE
  5
61
  8
ﾚｲﾔ_1
 10
1005.2663514783
 20
70.616576592900003
 30
0.0
 11
1005.2663514783
 21
221.9634772631
 31
0.0
  0
LINE
  5
62
  8
ﾚｲﾔ_1
 62
     5
 10
1037.9336145273001
 20
93.782469451100013
 30
0.0
 11
1041.0026145273
 21
96.851469451100002
 31
0.0
  0
LINE
  5
63
  8
ﾚｲﾔ_1
 62
     5
 10
1031.5336145273
 20
93.482469451100002
 30
0.0
 11
1031.5336145273
 21
91.482469450400004
 31
0.0
  0
LINE
  5
64
  8
0
 62
     5
 10
969.34851273710012
 20
190.8928903595
 30
0.0
 11
969.34851273710012
 21
161.8928903595
 31
0.0
  0
LINE
  5
65
  8
ﾚｲﾔ_1
 62
     5
 10
1033.9336145273001
 20
221.9634772631
 30
0.0
 11
1033.9336145273001
 21
145.4824694511
 31
0.0
  0
LINE
  5
66
  8
ﾚｲﾔ_1
 62
     5
 10
1031.9336145273001
 20
85.982469451100002
 30
0.0
 11
1031.9336145273001
 21
86.490503082099977
 31
0.0
  0
LINE
  5
67
  8
ﾚｲﾔ_1
 62
     5
 10
1031.5336145273
 20
88.482469451100002
 30
0.0
 11
1031.5336145273
 21
86.482469454500006
 31
0.0
  0
LINE
  5
68
  8
0
 62
     5
 10
969.34851273710012
 20
190.8928903595
 30
0.0
 11
964.18112766629997
 21
190.8928903595
 31
0.0
  0
LINE
  5
69
  8
0
 62
     5
 10
965.64851273709996
 20
90.546448398099997
 30
0.0
 11
965.34851273710001
 21
90.546448398099997
 31
0.0
  0
LINE
  5
6A
  8
ﾚｲﾔ_1
 62
     5
 10
1031.9336145273001
 20
144.47443582010001
 30
0.0
 11
1031.9336145273001
 21
145.4824694511
 31
0.0
  0
LINE
  5
6B
  8
ﾚｲﾔ_1
 62
     5
 10
1031.9336145273001
 20
139.4824694518
 30
0.0
 11
1031.9336145273001
 21
142.4824694511
 31
0.0
  0
LINE
  5
6C
  8
ﾚｲﾔ_1
 62
     5
 10
1031.9336145273001
 20
93.482469451100002
 30
0.0
 11
1031.9336145273001
 21
137.4824694511
 31
0.0
  0
LINE
  5
6D
  8
ﾚｲﾔ_1
 62
     5
 10
1031.9336145273001
 20
85.482469451099988
 30
0.0
 11
1031.9336145273001
 21
86.490503082099977
 31
0.0
  0
LINE
  5
6E
  8
ﾚｲﾔ_1
 62
     5
 10
1031.9336145273001
 20
88.482469451100002
 30
0.0
 11
1031.9336145273001
 21
91.482469450400004
 31
0.0
  0
LINE
  5
6F
  8
ﾚｲﾔ_1
 62
     5
 10
1103.9336145273001
 20
151.00564944800001
 30
0.0
 11
1079.9336145273001
 21
151.00564944800001
 31
0.0
  0
LINE
  5
70
  8
ﾚｲﾔ_1
 62
     5
 10
1103.9336145273001
 20
122.4824694511
 30
0.0
 11
1103.9336145273001
 21
151.00564944800001
 31
0.0
  0
ARC
  5
71
  8
ﾚｲﾔ_1
 62
     5
 10
1081.9336145273001
 20
122.4824694511
 30
0.0
 40
22.0
 50
270.0
 51
0.0
  0
LINE
  5
72
  8
ﾚｲﾔ_1
 62
     5
 10
1106.2136145273
 20
165.15056547169999
 30
0.0
 11
1077.6536145273001
 21
165.15056547169999
 31
0.0
  0
LINE
  5
73
  8
ﾚｲﾔ_1
 62
     5
 10
1103.9336145273001
 20
151.00564944800001
 30
0.0
 11
1106.1336145273001
 21
163.4824694511
 31
0.0
  0
LINE
  5
74
  8
ﾚｲﾔ_1
 62
     5
 10
1079.9336145273001
 20
151.00564944800001
 30
0.0
 11
1077.7336145273
 21
163.4824694511
 31
0.0
  0
LINE
  5
75
  8
ﾚｲﾔ_1
 62
     5
 10
1037.9336145273001
 20
145.504683449
 30
0.0
 11
1037.9336145273001
 21
137.4824694511
 31
0.0
  0
LINE
  5
76
  8
ﾚｲﾔ_1
 62
     5
 10
1042.5336145273
 20
82.482469450899998
 30
0.0
 11
1042.5336145273
 21
85.460255453299993
 31
0.0
  0
LINE
  5
77
  8
0
 62
     5
 10
965.84851273710012
 20
82.043751729099995
 30
0.0
 11
967.48196252600007
 21
82.299700861999995
 31
0.0
  0
LINE
  5
78
  8
0
 62
     5
 10
965.84851273710012
 20
80.424228835200026
 30
0.0
 11
967.72964811960003
 21
80.718988412900003
 31
0.0
  0
LINE
  5
79
  8
0
 62
     5
 10
963.6285127371001
 20
128.3928903595
 30
0.0
 11
963.6285127371001
 21
126.7247943389
 31
0.0
  0
LINE
  5
7A
  8
0
 62
     5
 10
965.22851273710012
 20
128.3928903595
 30
0.0
 11
965.22851273710012
 21
127.0795057991
 31
0.0
  0
LINE
  5
7B
  8
ﾚｲﾔ_1
 62
     5
 10
1042.5336145273
 20
85.460255453299993
 30
0.0
 11
1037.9336145273001
 21
85.460255453299993
 31
0.0
  0
LINE
  5
7C
  8
ﾚｲﾔ_1
 62
     5
 10
1041.0026145273
 20
96.851469451100002
 30
0.0
 11
1041.0026145273
 21
134.1134694511
 31
0.0
  0
INSERT
  5
7E
  8
ﾚｲﾔ_1
 62
     5
  2
*X0
 10
0.0
 20
0.0
 30
0.0
  0
LINE
  5
81
  8
ﾚｲﾔ_1
 62
     5
 10
1033.9336145273001
 20
82.482469450899998
 30
0.0
 11
1042.5336145273
 21
82.482469450899998
 31
0.0
  0
LINE
  5
82
  8
ﾚｲﾔ_1
 62
     5
 10
1031.9336145273001
 20
88.482469451100002
 30
0.0
 11
1031.9336145273001
 21
91.482469450400004
 31
0.0
  0
LINE
  5
83
  8
ﾚｲﾔ_1
 62
     5
 10
1031.5336145273
 20
137.4824694511
 30
0.0
 11
1031.5336145273
 21
139.4824694518
 31
0.0
  0
LINE
  5
84
  8
ﾚｲﾔ_1
 62
     5
 10
1031.5336145273
 20
142.4824694511
 30
0.0
 11
1031.5336145273
 21
144.4824694477
 31
0.0
  0
LINE
  5
85
  8
ﾚｲﾔ_1
 62
     5
 10
1031.9336145273001
 20
139.4824694518
 30
0.0
 11
1031.9336145273001
 21
142.4824694511
 31
0.0
  0
LINE
  5
86
  8
0
 62
     5
 10
967.24851273709999
 20
122.74760181969999
 30
0.0
 11
967.24851273709999
 21
91.596916585299994
 31
0.0
  0
LINE
  5
87
  8
0
 62
     5
 10
965.84851273710012
 20
80.392890359500001
 30
0.0
 11
965.34851273710001
 21
80.392890359500001
 31
0.0
  0
LINE
  5
88
  8
0
 62
     5
 10
965.84851273710012
 20
82.012413253399984
 30
0.0
 11
965.34851273710001
 21
82.012413253399984
 31
0.0
  0
LINE
  5
89
  8
0
 62
     5
 10
967.6185127371001
 20
86.808307272800008
 30
0.0
 11
965.34851273710001
 21
86.808307272800008
 31
0.0
  0
LINE
  5
8A
  8
ﾚｲﾔ_1
 62
     5
 10
1033.9336145273001
 20
144.47443582010001
 30
0.0
 11
1033.9336145273001
 21
148.48246945130001
 31
0.0
  0
LINE
  5
8B
  8
ﾚｲﾔ_1
 62
     5
 10
1031.9336145273001
 20
144.47443582010001
 30
0.0
 11
1031.9336145273001
 21
144.9824694511
 31
0.0
  0
LINE
  5
8C
  8
ﾚｲﾔ_1
 62
     5
 10
1031.9336145273001
 20
93.482469451100002
 30
0.0
 11
1031.9336145273001
 21
137.4824694511
 31
0.0
  0
LINE
  5
8D
  8
ﾚｲﾔ_1
 62
     5
 10
1031.9336145273001
 20
77.482469451100002
 30
0.0
 11
1031.9336145273001
 21
85.982469451100002
 31
0.0
  0
LINE
  5
8E
  8
0
 62
     5
 10
969.34851273710012
 20
161.8928903595
 30
0.0
 11
966.84851273710012
 21
161.8928903595
 31
0.0
  0
ARC
  5
8F
  8
0
 62
     5
 10
968.24851273709999
 20
91.596916585299994
 30
0.0
 40
1.0
 50
180.0
 51
224.0
  0
ARC
  5
90
  8
0
 62
     5
 10
968.24851273709999
 20
91.596916585299994
 30
0.0
 40
2.6000000000000001
 50
180.0
 51
224.0
  0
LINE
  5
91
  8
ﾚｲﾔ_1
 62
     5
 10
1031.5336145273
 20
91.482469450400004
 30
-6.5999999999999988
 11
1033.5336145273
 21
91.482469450400004
 31
-6.5999999999999988
  0
LINE
  5
92
  8
ﾚｲﾔ_1
 62
     5
 10
1033.5336145273
 20
91.482469450400004
 30
0.0
 11
1033.5336145273
 21
88.482469451100002
 31
0.0
  0
INSERT
  5
94
  8
ﾚｲﾔ_1
 62
     5
  2
*X1
 10
0.0
 20
0.0
 30
0.0
  0
LINE
  5
97
  8
ﾚｲﾔ_1
 62
     5
 10
1037.9336145273001
 20
137.4824694511
 30
0.0
 11
1031.5336145273
 21
137.4824694511
 31
0.0
  0
LINE
  5
98
  8
ﾚｲﾔ_1
 62
     5
 10
1031.5336145273
 20
139.4824694518
 30
-6.5999999999999988
 11
1033.5336145273
 21
139.4824694518
 31
-6.5999999999999988
  0
LINE
  5
99
  8
ﾚｲﾔ_1
 62
     5
 10
1033.5336145273
 20
142.4824694511
 30
0.0
 11
1031.5336145273
 21
142.4824694511
 31
0.0
  0
LINE
  5
9A
  8
ﾚｲﾔ_1
 62
     5
 10
1037.9336145273001
 20
89.482469451100002
 30
0.0
 11
1037.9336145273001
 21
115.4824694511
 31
0.0
  0
LINE
  5
9B
  8
ﾚｲﾔ_1
 62
     5
 10
1037.9336145273001
 20
137.18246945109999
 30
0.0
 11
1041.0026145273
 21
134.1134694511
 31
0.0
  0
LINE
  5
9C
  8
ﾚｲﾔ_1
 62
     5
 10
1031.5336145273
 20
144.47443582010001
 30
-6.5999999999999988
 11
1033.9336145273001
 21
144.47443582010001
 31
-6.5999999999999988
  0
LINE
  5
9D
  8
ﾚｲﾔ_1
 62
     5
 10
1033.5336145273
 20
139.4824694518
 30
0.0
 11
1033.5336145273
 21
142.4824694511
 31
0.0
  0
LINE
  5
9E
  8
ﾚｲﾔ_1
 62
     5
 10
1033.9336145273001
 20
145.4824694511
 30
0.0
 11
1033.9336145273001
 21
147.4824694511
 31
0.0
  0
LINE
  5
9F
  8
ﾚｲﾔ_1
 62
     5
 10
1075.4336145273001
 20
211.45113097539999
 30
0.0
 11
1073.5524791447999
 21
211.15637139770001
 31
0.0
  0
LINE
  5
A0
  8
0
 62
     5
 10
965.64851273709996
 20
122.3928903595
 30
0.0
 11
965.64851273709996
 21
91.596916585299994
 31
0.0
  0
LINE
  5
A1
  8
0
 62
     5
 10
965.84851273710012
 20
82.012413253399984
 30
0.0
 11
965.84851273710012
 21
80.392890359500001
 31
0.0
  0
ARC
  5
A2
  8
0
 62
     5
 10
967.04851273710005
 20
85.065947647899989
 30
0.0
 40
4.4000000000000004
 50
278.90539984840001
 51
44.0
  0
ARC
  5
A3
  8
0
 62
     5
 10
967.04851273710005
 20
85.065947647899989
 30
0.0
 40
2.7999999999999989
 50
278.90539984840001
 51
44.0
  0
LINE
  5
A4
  8
0
 62
     5
 10
966.84851273710012
 20
138.0340694528
 30
0.0
 11
965.14851273710008
 21
128.3928903595
 31
0.0
  0
LINE
  5
A5
  8
ﾚｲﾔ_1
 62
     5
 10
965.34851273710001
 20
122.3928903595
 30
0.0
 11
965.34851273710001
 21
70.616576592900003
 31
0.0
  0
LINE
  5
A6
  8
0
 62
     5
 10
965.22851273710012
 20
127.0795057991
 30
0.0
 11
967.24851273709999
 21
122.74760181969999
 31
0.0
  0
LINE
  5
A7
  8
0
 62
     5
 10
961.34851273710012
 20
169.3928903595
 30
0.0
 11
961.34851273710012
 21
140.86971036259999
 31
0.0
  0
LINE
  5
A8
  8
ﾚｲﾔ_1
 62
     5
 10
963.34851273710012
 20
122.3928903595
 30
0.0
 11
963.34851273710012
 21
70.616576592900003
 31
0.0
  0
LINE
  5
A9
  8
0
 62
     5
 10
966.3782292561998
 20
89.790804822099986
 30
0.0
 11
969.06266417799986
 21
87.010991085200004
 31
0.0
  0
LINE
  5
AA
  8
0
 62
     5
 10
967.5291729367998
 20
90.902258214899987
 30
0.0
 11
970.21360785859986
 21
88.122444477900004
 31
0.0
  0
LINE
  5
AB
  8
0
 62
     5
 10
963.6285127371001
 20
126.7247943389
 30
0.0
 11
965.64851273709996
 21
122.3928903595
 31
0.0
  0
LINE
  5
AC
  8
ﾚｲﾔ_1
 62
     5
 10
1037.9336145273001
 20
141.4824694511
 30
0.0
 11
1037.9336145273001
 21
115.4824694511
 31
0.0
  0
ARC
  5
AD
  8
ﾚｲﾔ_1
 62
     5
 10
1072.8336145272999
 20
143.12362372429999
 30
0.0
 40
1.6000000000000001
 50
210.0
 51
0.0
  0
LINE
  5
AE
  8
ﾚｲﾔ_1
 62
     5
 10
1075.633614527299
 20
169.4824694511
 30
0.0
 11
1075.633614527299
 21
200.27844322530001
 31
0.0
  0
LINE
  5
AF
  8
ﾚｲﾔ_1
 62
     5
 10
1075.4336145273001
 20
209.86294655719999
 30
0.0
 11
1075.4336145273001
 21
211.4824694511
 31
0.0
  0
LINE
  5
B0
  8
ﾚｲﾔ_1
 62
     5
 10
1075.4336145273001
 20
209.83160808150001
 30
0.0
 11
1073.8001647384999
 21
209.57565894859999
 31
0.0
  0
ARC
  5
B1
  8
ﾚｲﾔ_1
 62
     5
 10
1074.2336145273
 20
206.8094121627
 30
0.0
 40
4.4000000000000004
 50
98.905399848399995
 51
224.0
  0
ARC
  5
B2
  8
ﾚｲﾔ_1
 62
     5
 10
1074.2336145273
 20
206.8094121627
 30
0.0
 40
2.7999999999999989
 50
98.905399848399995
 51
224.0
  0
LINE
  5
B3
  8
ﾚｲﾔ_1
 62
     5
 10
1033.9336145273001
 20
148.48246945130001
 30
0.0
 11
1042.5336145273
 21
148.48246945130001
 31
0.0
  0
LINE
  5
B4
  8
ﾚｲﾔ_1
 62
     5
 10
1031.9336145273001
 20
144.9824694511
 30
0.0
 11
1033.9336145273001
 21
144.9824694511
 31
0.0
  0
LINE
  5
B5
  8
ﾚｲﾔ_1
 62
     5
 10
1033.9336145273001
 20
85.482469451099988
 30
0.0
 11
1033.9336145273001
 21
70.616576592900003
 31
0.0
  0
LINE
  5
B6
  8
ﾚｲﾔ_1
 62
     5
 10
1031.9336145273001
 20
85.482469451099988
 30
0.0
 11
1031.9336145273001
 21
70.616576592900003
 31
0.0
  0
LINE
  5
B7
  8
ﾚｲﾔ_1
 62
     5
 10
1071.9336145273001
 20
89.482469451100002
 30
0.0
 11
1069.6113881929
 21
85.460255453299993
 31
0.0
  0
LINE
  5
B8
  8
ﾚｲﾔ_1
 62
     5
 10
1074.0336145273
 20
169.12775799089999
 30
0.0
 11
1074.0336145273
 21
200.27844322530001
 31
0.0
  0
LINE
  5
B9
  8
ﾚｲﾔ_1
 62
     5
 10
1074.9038980082
 20
202.0845549885
 30
0.0
 11
1072.2194630864001
 21
204.8643687254
 31
0.0
  0
LINE
  5
BA
  8
ﾚｲﾔ_1
 62
     5
 10
1042.5336145273
 20
148.48246945130001
 30
0.0
 11
1042.5336145273
 21
145.504683449
 31
0.0
  0
LINE
  5
BB
  8
ﾚｲﾔ_1
 62
     5
 10
1042.5336145273
 20
145.504683449
 30
0.0
 11
1037.9336145273001
 21
145.504683449
 31
0.0
  0
LINE
  5
BC
  8
ﾚｲﾔ_1
 62
     5
 10
1037.9336145273001
 20
141.4824694511
 30
0.0
 11
1040.2558408617001
 21
145.504683449
 31
0.0
  0
LINE
  5
BD
  8
ﾚｲﾔ_1
 62
     5
 10
1067.9336145273001
 20
94.527469451100004
 30
0.0
 11
1067.9336145273001
 21
115.4824694511
 31
0.0
  0
LINE
  5
BE
  8
ﾚｲﾔ_1
 62
     5
 10
1037.9336145273001
 20
85.460255453299993
 30
0.0
 11
1037.9336145273001
 21
93.482469451100002
 31
0.0
  0
LINE
  5
BF
  8
ﾚｲﾔ_1
 62
     5
 10
1037.9336145273001
 20
89.482469451100002
 30
0.0
 11
1040.2558408617001
 21
85.460255453299993
 31
0.0
  0
LINE
  5
C0
  8
ﾚｲﾔ_1
 62
     5
 10
1033.9336145273001
 20
83.482469451100002
 30
0.0
 11
1033.9336145273001
 21
85.482469451099988
 31
0.0
  0
LINE
  5
C1
  8
ﾚｲﾔ_1
 62
     5
 10
1033.9336145273001
 20
86.490503082099977
 30
0.0
 11
1033.9336145273001
 21
82.482469450899998
 31
0.0
  0
LINE
  5
C2
  8
ﾚｲﾔ_1
 62
     5
 10
1031.5336145273
 20
86.490503082099977
 30
-6.5999999999999988
 11
1033.9336145273001
 21
86.490503082099977
 31
-6.5999999999999988
  0
LINE
  5
C3
  8
ﾚｲﾔ_1
 62
     5
 10
1031.9336145273001
 20
85.982469451100002
 30
0.0
 11
1033.9336145273001
 21
85.982469451100002
 31
0.0
  0
LINE
  5
C4
  8
ﾚｲﾔ_1
 62
     5
 10
1033.5336145273
 20
88.482469451100002
 30
0.0
 11
1031.5336145273
 21
88.482469451100002
 31
0.0
  0
LINE
  5
C5
  8
ﾚｲﾔ_1
 62
     5
 10
1037.9336145273001
 20
93.482469451100002
 30
0.0
 11
1031.5336145273
 21
93.482469451100002
 31
0.0
  0
LINE
  5
C6
  8
ﾚｲﾔ_1
 62
     5
 10
1075.9336145273001
 20
201.32891141249999
 30
0.0
 11
1075.633614527299
 21
201.32891141249999
 31
0.0
  0
LINE
  5
C7
  8
ﾚｲﾔ_1
 62
     5
 10
1075.9336145273001
 20
205.06705253780001
 30
0.0
 11
1073.6636145273001
 21
205.06705253780001
 31
0.0
  0
LINE
  5
C8
  8
ﾚｲﾔ_1
 62
     5
 10
1075.9336145273001
 20
209.86294655719999
 30
0.0
 11
1075.4336145273001
 21
209.86294655719999
 31
0.0
  0
LINE
  5
C9
  8
ﾚｲﾔ_1
 62
     5
 10
1075.9336145273001
 20
211.4824694511
 30
0.0
 11
1075.4336145273001
 21
211.4824694511
 31
0.0
  0
LINE
  5
CA
  8
ﾚｲﾔ_1
  6
BORDER
 62
     3
 10
1027.9336145273001
 20
115.4824694511
 30
0.0
 11
1081.9336145273001
 21
115.4824694511
 31
0.0
  0
LINE
  5
CB
  8
ﾚｲﾔ_1
 62
     5
 10
1075.9336145273001
 20
169.4824694511
 30
0.0
 11
1075.9336145273001
 21
221.9634772631
 31
0.0
  0
INSERT
  5
CC
  8
0
  6
CONTINUOUS
  2
*U46
 10
0.0
 20
0.0
 30
0.0
  0
INSERT
  5
CD
  8
0
  6
CONTINUOUS
  2
*U47
 10
0.0
 20
0.0
 30
0.0
  0
LINE
  5
CE
  8
図枠
 62
     5
 10
1003.8207978462
 20
241.87456192210001
 30
0.0
 11
1003.8207978462
 21
279.37456192209999
 31
0.0
  0
LINE
  5
CF
  8
図枠
 62
     5
 10
963.82079784619998
 20
241.87456192210001
 30
0.0
 11
963.82079784619998
 21
279.37456192209999
 31
0.0
  0
INSERT
  5
D0
  8
0
  6
CONTINUOUS
  2
*U48
 10
0.0
 20
0.0
 30
0.0
  0
LINE
  5
D1
  8
ﾚｲﾔ_1
 10
968.70373508930004
 20
227.0059647457
 30
0.0
 11
1026.8107663393
 21
227.0059647457
 31
0.0
  0
LINE
  5
D2
  8
ﾚｲﾔ_1
 10
968.70373508930004
 20
228.5096539818
 30
0.0
 11
1026.8107663393
 21
228.5096539818
 31
0.0
  0
LINE
  5
D3
  8
ﾚｲﾔ_1
 62
     5
 10
1038.6786145272999
 20
94.527469451100004
 30
0.0
 11
1067.9336145273001
 21
94.527469451100004
 31
0.0
  0
LINE
  5
D4
  8
ﾚｲﾔ_1
 62
     5
 10
1040.2558408617001
 20
85.460255453299993
 30
0.0
 11
1069.6113881929
 21
85.460255453299993
 31
0.0
  0
LINE
  5
D5
  8
ﾚｲﾔ_1
 62
     5
 10
1067.9336145273001
 20
94.527469451100004
 30
0.0
 11
1071.9589006041001
 21
96.851469451100002
 31
0.0
  0
LINE
  5
D6
  8
ﾚｲﾔ_1
 62
     5
 10
1067.9336145273001
 20
136.43746945109999
 30
0.0
 11
1067.9336145273001
 21
115.4824694511
 31
0.0
  0
LINE
  5
D7
  8
ﾚｲﾔ_1
 62
     5
 10
1067.9336145273001
 20
136.43746945109999
 30
0.0
 11
1071.9589006041001
 21
134.1134694511
 31
0.0
  0
LINE
  5
D8
  8
ﾚｲﾔ_1
 62
     5
 10
1040.2558408617001
 20
145.504683449
 30
0.0
 11
1069.6113881929
 21
145.504683449
 31
0.0
  0
LINE
  5
D9
  8
ﾚｲﾔ_1
 62
     5
 10
1038.6786145272999
 20
136.43746945109999
 30
0.0
 11
1067.9336145273001
 21
136.43746945109999
 31
0.0
  0
ARC
  5
DA
  8
ﾚｲﾔ_1
 62
     5
 10
1073.0336145273
 20
200.27844322530001
 30
0.0
 40
1.0
 50
0.0
 51
44.0
  0
ARC
  5
DB
  8
ﾚｲﾔ_1
 62
     5
 10
1073.0336145273
 20
200.27844322530001
 30
0.0
 40
2.6000000000000001
 50
0.0
 51
44.0
  0
LINE
  5
DC
  8
ﾚｲﾔ_1
 62
     5
 10
1071.4479738813
 20
142.32362372430001
 30
0.0
 11
1069.6113881929
 21
145.504683449
 31
0.0
  0
LINE
  5
DD
  8
ﾚｲﾔ_1
 62
     5
 10
1074.4336145273001
 20
143.12362372429999
 30
0.0
 11
1074.4336145273001
 21
153.84129035780001
 31
0.0
  0
LINE
  5
DE
  8
ﾚｲﾔ_1
 62
     5
 10
1073.7529543277001
 20
200.9731015957
 30
0.0
 11
1071.0685194058001
 21
203.75291533270001
 31
0.0
  0
ARC
  5
DF
  8
0
 62
     5
 10
930.44851273710003
 20
91.596916585299994
 30
0.0
 40
2.6000000000000001
 50
316.0
 51
0.0
  0
LINE
  5
E0
  8
0
 62
     5
 10
932.31879621799999
 20
89.790804822099986
 30
0.0
 11
929.63436129609988
 21
87.010991085200004
 31
0.0
  0
LINE
  5
E1
  8
0
 62
     5
 10
932.84851273710012
 20
82.043751729099995
 30
0.0
 11
931.21506294820006
 21
82.299700861999995
 31
0.0
  0
ARC
  5
E2
  8
0
 62
     5
 10
931.64851273709996
 20
85.065947647899989
 30
0.0
 40
2.7999999999999989
 50
136.0
 51
261.09460015159999
  0
LINE
  5
E3
  8
ﾚｲﾔ_1
 62
     5
 10
925.34851273710024
 20
155.43789035949999
 30
0.0
 11
925.34851273710024
 21
176.3928903595
 31
0.0
  0
LINE
  5
E4
  8
ﾚｲﾔ_1
 62
     5
 10
933.25215390969993
 20
195.0238903595
 30
0.0
 11
933.25215390969993
 21
157.7618903595
 31
0.0
  0
LINE
  5
E5
  8
ﾚｲﾔ_1
 62
     5
 10
933.25215390969993
 20
195.0238903595
 30
0.0
 11
935.34851273710012
 21
191.3928903595
 31
0.0
  0
LINE
  5
E6
  8
ﾚｲﾔ_1
 62
     5
 10
935.34851273710012
 20
191.3928903595
 30
0.0
 11
935.34851273710012
 21
161.3928903595
 31
0.0
  0
LINE
  5
E7
  8
ﾚｲﾔ_1
 62
     5
 10
925.34851273710024
 20
197.34789035950001
 30
0.0
 11
929.37379881389995
 21
195.0238903595
 31
0.0
  0
LINE
  5
E8
  8
ﾚｲﾔ_1
 62
     5
 10
925.34851273710024
 20
197.34789035950001
 30
0.0
 11
925.34851273710024
 21
176.3928903595
 31
0.0
  0
LINE
  5
E9
  8
0
 62
     5
 10
933.34851273710024
 20
90.546448398099997
 30
0.0
 11
933.04851273710005
 21
90.546448398099997
 31
0.0
  0
LINE
  5
EA
  8
ﾚｲﾔ_1
 62
     5
 10
1075.9336145273001
 20
169.4824694511
 30
0.0
 11
1107.9336145273001
 21
169.4824694511
 31
0.0
  0
LINE
  5
EB
  8
ﾚｲﾔ_1
 62
     5
 10
1107.8136145272999
 20
163.4824694511
 30
0.0
 11
1076.0536145272999
 21
163.4824694511
 31
0.0
  0
LINE
  5
EC
  8
ﾚｲﾔ_1
 62
     5
 10
1108.2336145273
 20
169.4824694511
 30
0.0
 11
1075.633614527299
 21
169.4824694511
 31
0.0
  0
LINE
  5
ED
  8
ﾚｲﾔ_1
 62
     5
 10
1074.4336145273001
 20
153.84129035780001
 30
0.0
 11
1076.1336145273001
 21
163.4824694511
 31
0.0
  0
LINE
  5
EE
  8
ﾚｲﾔ_1
 62
     5
 10
1041.0026145273
 20
96.851469451100002
 30
0.0
 11
1075.8372556999
 21
96.851469451100002
 31
0.0
  0
LINE
  5
EF
  8
ﾚｲﾔ_1
 62
     5
 10
1041.0026145273
 20
134.1134694511
 30
0.0
 11
1075.8372556999
 21
134.1134694511
 31
0.0
  0
LINE
  5
F0
  8
ﾚｲﾔ_1
 62
     5
 10
1077.9336145273001
 20
130.4824694511
 30
0.0
 11
1075.8372556999
 21
134.1134694511
 31
0.0
  0
LINE
  5
F1
  8
ﾚｲﾔ_1
 62
     5
 10
1075.8372556999
 20
96.851469451100002
 30
0.0
 11
1077.9336145273001
 21
100.4824694511
 31
0.0
  0
LINE
  5
F2
  8
ﾚｲﾔ_1
 62
     5
 10
1075.8372556999
 20
96.851469451100002
 30
0.0
 11
1075.8372556999
 21
134.1134694511
 31
0.0
  0
LINE
  5
F3
  8
ﾚｲﾔ_1
 62
     5
 10
1077.6536145273001
 20
165.15056547169999
 30
0.0
 11
1075.633614527299
 21
169.4824694511
 31
0.0
  0
LINE
  5
F4
  8
ﾚｲﾔ_1
 62
     5
 10
1076.0536145272999
 20
164.79585401150001
 30
0.0
 11
1074.0336145273
 21
169.12775799089999
 31
0.0
  0
LINE
  5
F5
  8
ﾚｲﾔ_1
 62
     5
 10
1076.0536145272999
 20
163.4824694511
 30
0.0
 11
1076.0536145272999
 21
164.79585401150001
 31
0.0
  0
CIRCLE
  5
F6
  8
ﾚｲﾔ_1
 62
     5
 10
1073.6636145273001
 20
207.2970525378
 30
0.0
 40
2.2299999999999991
  0
LINE
  5
F7
  8
ﾚｲﾔ_1
 62
     5
 10
1087.4336145273001
 20
89.482469451100002
 30
0.0
 11
1071.9336145273001
 21
89.482469451100002
 31
0.0
  0
LINE
  5
F8
  8
0
 62
     5
 10
931.84851273710012
 20
148.75173608630001
 30
0.0
 11
931.84851273710012
 21
138.0340694528
 31
0.0
  0
LINE
  5
F9
  8
0
 62
     5
 10
937.34851273710012
 20
161.3928903595
 30
0.0
 11
937.34851273710012
 21
140.86971036259999
 31
0.0
  0
LINE
  5
FA
  8
0
 62
     5
 10
933.46851273710013
 20
127.0795057991
 30
0.0
 11
931.44851273710003
 21
122.74760181969999
 31
0.0
  0
LINE
  5
FB
  8
0
 62
     5
 10
935.06851273710015
 20
126.7247943389
 30
0.0
 11
933.04851273710005
 21
122.3928903595
 31
0.0
  0
LINE
  5
FC
  8
0
 62
     5
 10
935.34851273710012
 20
161.3928903595
 30
0.0
 11
933.25215390969993
 21
157.7618903595
 31
0.0
  0
LINE
  5
FD
  8
ﾚｲﾔ_1
 62
     5
 10
933.34851273710024
 20
122.3928903595
 30
0.0
 11
933.34851273710024
 21
70.616576592900003
 31
0.0
  0
LINE
  5
FE
  8
ﾚｲﾔ_1
 62
     5
 10
935.34851273710012
 20
122.3928903595
 30
0.0
 11
935.34851273710012
 21
70.616576592900003
 31
0.0
  0
LINE
  5
FF
  8
0
 62
     5
 10
932.84851273710012
 20
80.424228835200026
 30
0.0
 11
930.96737735459999
 21
80.718988412900003
 31
0.0
  0
LINE
  5
100
  8
0
 62
     5
 10
933.46851273710013
 20
128.3928903595
 30
0.0
 11
933.46851273710013
 21
127.0795057991
 31
0.0
  0
LINE
  5
101
  8
0
 62
     5
 10
928.8628720910001
 20
149.5517360863
 30
0.0
 11
927.02628640270007
 21
146.3706763616
 31
0.0
  0
LINE
  5
102
  8
0
 62
     5
 10
937.34851273710012
 20
161.3928903595
 30
0.0
 11
935.34851273710012
 21
161.3928903595
 31
0.0
  0
LINE
  5
103
  8
0
 62
     5
 10
931.84851273710012
 20
138.0340694528
 30
0.0
 11
933.54851273710005
 21
128.3928903595
 31
0.0
  0
LINE
  5
104
  8
0
 62
     5
 10
933.04851273710005
 20
122.3928903595
 30
0.0
 11
933.04851273710005
 21
91.596916585299994
 31
0.0
  0
LINE
  5
105
  8
0
 62
     5
 10
935.06851273710015
 20
128.3928903595
 30
0.0
 11
935.06851273710015
 21
126.7247943389
 31
0.0
  0
LINE
  5
106
  8
0
 62
     5
 10
944.84851273710001
 20
202.3928903595
 30
0.0
 11
929.34851273710012
 21
202.3928903595
 31
0.0
  0
LINE
  5
107
  8
0
 62
     5
 10
929.34851273710012
 20
202.3928903595
 30
0.0
 11
927.02628640270007
 21
206.41510435730001
 31
0.0
  0
LINE
  5
108
  8
0
 62
     5
 10
939.34851273710001
 20
191.3928903595
 30
0.0
 11
935.34851273710012
 21
191.3928903595
 31
0.0
  0
ARC
  5
109
  8
0
 62
     5
 10
930.2485127371001
 20
148.75173608630001
 30
0.0
 40
1.6000000000000001
 50
0.0
 51
150.0
  0
ARC
  5
10A
  8
0
 62
     5
 10
931.64851273709996
 20
85.065947647899989
 30
0.0
 40
4.4000000000000004
 50
136.0
 51
261.09460015159999
  0
LINE
  5
10B
  8
0
 62
     5
 10
933.34851273710024
 20
80.392890359500001
 30
0.0
 11
932.84851273710012
 21
80.392890359500001
 31
0.0
  0
LINE
  5
10C
  8
0
 62
     5
 10
933.34851273710024
 20
82.012413253399984
 30
0.0
 11
932.84851273710012
 21
82.012413253399984
 31
0.0
  0
LINE
  5
10D
  8
0
 62
     5
 10
933.34851273710024
 20
86.808307272800008
 30
0.0
 11
931.07851273710003
 21
86.808307272800008
 31
0.0
  0
LINE
  5
10E
  8
0
 62
     5
 10
937.34851273710012
 20
140.86971036259999
 30
0.0
 11
935.14851273710008
 21
128.3928903595
 31
0.0
  0
LINE
  5
10F
  8
0
 62
     5
 10
931.16785253739999
 20
90.902258214899987
 30
0.0
 11
928.48341761560005
 21
88.122444477900004
 31
0.0
  0
ARC
  5
110
  8
0
 62
     5
 10
930.44851273710003
 20
91.596916585299994
 30
0.0
 40
1.0
 50
316.0
 51
0.0
  0
LINE
  5
111
  8
0
 62
     5
 10
895.34851273710012
 20
154.3928903595
 30
0.0
 11
888.94851273710015
 21
154.3928903595
 31
0.0
  0
LINE
  5
112
  8
0
 62
     5
 10
895.34851273710012
 20
146.3706763616
 30
0.0
 11
895.34851273710012
 21
154.3928903595
 31
0.0
  0
LINE
  5
113
  8
ﾚｲﾔ_1
 62
     5
 10
889.34851273710001
 20
152.39289035869999
 30
0.0
 11
889.34851273710001
 21
149.3928903595
 31
0.0
  0
LINE
  5
114
  8
ﾚｲﾔ_1
 62
     5
 10
889.34851273710001
 20
147.40092399049999
 30
0.0
 11
889.34851273710001
 21
146.8928903595
 31
0.0
  0
LINE
  5
115
  8
0
 62
     5
 10
888.94851273710015
 20
147.40092399049999
 30
-6.5999999999999988
 11
891.34851273710024
 21
147.40092399049999
 31
-6.5999999999999988
  0
INSERT
  5
117
  8
0
  2
*X2
 10
0.0
 20
0.0
 30
0.0
  0
LINE
  5
11A
  8
0
 62
     5
 10
891.34851273710024
 20
147.40092399049999
 30
0.0
 11
891.34851273710024
 21
143.3928903593
 31
0.0
  0
LINE
  5
11B
  8
0
 62
     5
 10
891.34851273710024
 20
143.3928903593
 30
0.0
 11
899.94851273710003
 21
143.3928903593
 31
0.0
  0
LINE
  5
11C
  8
0
 62
     5
 10
899.94851273710003
 20
143.3928903593
 30
0.0
 11
899.94851273710003
 21
146.3706763616
 31
0.0
  0
LINE
  5
11D
  8
ﾚｲﾔ_1
 62
     5
 10
898.41751273710008
 20
195.0238903595
 30
0.0
 11
898.41751273710008
 21
157.7618903595
 31
0.0
  0
LINE
  5
11E
  8
0
 62
     5
 10
899.94851273710003
 20
206.41510435730001
 30
0.0
 11
895.34851273710012
 21
206.41510435730001
 31
0.0
  0
LINE
  5
11F
  8
0
 62
     5
 10
888.94851273710015
 20
149.3928903595
 30
0.0
 11
888.94851273710015
 21
147.3928903629
 31
0.0
  0
LINE
  5
120
  8
0
 62
     5
 10
888.94851273710015
 20
152.39289035869999
 30
-6.5999999999999988
 11
890.94851273710003
 21
152.39289035869999
 31
-6.5999999999999988
  0
LINE
  5
121
  8
0
 62
     5
 10
890.94851273710003
 20
149.3928903595
 30
0.0
 11
888.94851273710015
 21
149.3928903595
 31
0.0
  0
LINE
  5
122
  8
0
 62
     5
 10
895.34851273710012
 20
206.41510435730001
 30
0.0
 11
895.34851273710012
 21
198.3928903595
 31
0.0
  0
LINE
  5
123
  8
0
 62
     5
 10
895.34851273710012
 20
202.3928903595
 30
0.0
 11
897.67073907149995
 21
206.41510435730001
 31
0.0
  0
LINE
  5
124
  8
0
 62
     5
 10
888.94851273710015
 20
154.3928903595
 30
0.0
 11
888.94851273710015
 21
152.39289035869999
 31
0.0
  0
LINE
  5
125
  8
0
 62
     5
 10
895.34851273710012
 20
150.3928903595
 30
0.0
 11
897.67073907149995
 21
146.3706763616
 31
0.0
  0
LINE
  5
126
  8
ﾚｲﾔ_1
 62
     5
 10
889.34851273710001
 20
146.8928903595
 30
0.0
 11
891.34851273710024
 21
146.8928903595
 31
0.0
  0
LINE
  5
127
  8
0
 62
     5
 10
895.34851273710012
 20
198.09289035949999
 30
0.0
 11
898.41751273710008
 21
195.0238903595
 31
0.0
  0
LINE
  5
128
  8
図枠
 62
     5
 10
943.82079784619987
 20
241.87456192210001
 30
0.0
 11
943.82079784619987
 21
279.37456192209999
 31
0.0
  0
LINE
  5
129
  8
0
 62
     5
 10
931.44851273710003
 20
122.74760181969999
 30
0.0
 11
931.44851273710003
 21
91.596916585299994
 31
0.0
  0
LINE
  5
12A
  8
0
 62
     5
 10
925.34851273710024
 20
155.43789035949999
 30
0.0
 11
929.37379881389995
 21
157.7618903595
 31
0.0
  0
CIRCLE
  5
12B
  8
0
 62
     5
 10
931.07851273710003
 20
84.578307272800004
 30
0.0
 40
2.2299999999999991
  0
LINE
  5
12C
  8
0
 62
     5
 10
932.84851273710012
 20
82.012413253399984
 30
0.0
 11
932.84851273710012
 21
80.392890359500001
 31
0.0
  0
LINE
  5
12D
  8
ﾚｲﾔ_1
 62
     5
 10
895.34851273710012
 20
202.3928903595
 30
0.0
 11
895.34851273710012
 21
176.3928903595
 31
0.0
  0
LINE
  5
12E
  8
ﾚｲﾔ_1
 62
     5
 10
895.34851273710012
 20
154.69289035950001
 30
0.0
 11
898.41751273710008
 21
157.7618903595
 31
0.0
  0
LINE
  5
12F
  8
ﾚｲﾔ_1
 62
     5
 10
889.34851273710001
 20
205.8928903595
 30
0.0
 11
891.34851273710024
 21
205.8928903595
 31
0.0
  0
LINE
  5
130
  8
0
 62
     5
 10
888.94851273710015
 20
198.3928903595
 30
0.0
 11
888.94851273710015
 21
200.3928903602
 31
0.0
  0
LINE
  5
131
  8
0
 62
     5
 10
899.94851273710003
 20
209.3928903597
 30
0.0
 11
899.94851273710003
 21
206.41510435730001
 31
0.0
  0
LINE
  5
132
  8
0
 62
     5
 10
895.34851273710012
 20
198.3928903595
 30
0.0
 11
888.94851273710015
 21
198.3928903595
 31
0.0
  0
LINE
  5
133
  8
0
 62
     5
 10
890.94851273710003
 20
203.3928903595
 30
0.0
 11
888.94851273710015
 21
203.3928903595
 31
0.0
  0
LINE
  5
134
  8
0
 62
     5
 10
890.94851273710003
 20
200.3928903602
 30
0.0
 11
890.94851273710003
 21
203.3928903595
 31
0.0
  0
LINE
  5
135
  8
0
 62
     5
 10
891.34851273710024
 20
209.3928903597
 30
0.0
 11
899.94851273710003
 21
209.3928903597
 31
0.0
  0
LINE
  5
136
  8
ﾚｲﾔ_1
 62
     5
 10
889.34851273710001
 20
203.3928903595
 30
0.0
 11
889.34851273710001
 21
200.3928903602
 31
0.0
  0
INSERT
  5
138
  8
0
  2
*X3
 10
0.0
 20
0.0
 30
0.0
  0
LINE
  5
13B
  8
ﾚｲﾔ_1
 62
     5
 10
889.34851273710001
 20
221.9634772631
 30
0.0
 11
889.34851273710001
 21
214.3928903595
 31
0.0
  0
LINE
  5
13C
  8
ﾚｲﾔ_1
 62
     5
 10
891.34851273710024
 20
216.3928903595
 30
0.0
 11
891.34851273710024
 21
214.3928903595
 31
0.0
  0
LINE
  5
13D
  8
ﾚｲﾔ_1
 62
     5
 10
889.34851273710001
 20
198.3928903595
 30
0.0
 11
889.34851273710001
 21
154.3928903595
 31
0.0
  0
LINE
  5
13E
  8
0
 62
     5
 10
891.34851273710024
 20
205.38485672850001
 30
0.0
 11
891.34851273710024
 21
209.3928903597
 31
0.0
  0
LINE
  5
13F
  8
0
 62
     5
 10
888.94851273710015
 20
203.3928903595
 30
0.0
 11
888.94851273710015
 21
205.3928903561
 31
0.0
  0
LINE
  5
140
  8
ﾚｲﾔ_1
 62
     5
 10
891.34851273710024
 20
146.3706763616
 30
0.0
 11
891.34851273710024
 21
70.616576592900003
 31
0.0
  0
LINE
  5
141
  8
ﾚｲﾔ_1
 62
     5
 10
889.34851273710001
 20
214.3928903595
 30
0.0
 11
889.34851273710001
 21
205.8928903595
 31
0.0
  0
LINE
  5
142
  8
ﾚｲﾔ_1
 62
     5
 10
891.34851273710024
 20
221.9634772631
 30
0.0
 11
891.34851273710024
 21
205.8928903595
 31
0.0
  0
LINE
  5
143
  8
ﾚｲﾔ_1
 62
     5
 10
889.34851273710001
 20
146.8928903595
 30
0.0
 11
889.34851273710001
 21
70.616576592900003
 31
0.0
  0
LINE
  5
144
  8
0
 62
     5
 10
888.94851273710015
 20
205.38485672850001
 30
-6.5999999999999988
 11
891.34851273710024
 21
205.38485672850001
 31
-6.5999999999999988
  0
LINE
  5
145
  8
0
 62
     5
 10
888.94851273710015
 20
200.3928903602
 30
-6.5999999999999988
 11
890.94851273710003
 21
200.3928903602
 31
-6.5999999999999988
  0
LINE
  5
146
  8
ﾚｲﾔ_1
 62
     5
 10
889.34851273710001
 20
205.8928903595
 30
0.0
 11
889.34851273710001
 21
205.38485672850001
 31
0.0
  0
LINE
  5
147
  8
0
 62
     5
 10
899.94851273710003
 20
146.3706763616
 30
0.0
 11
895.34851273710012
 21
146.3706763616
 31
0.0
  0
LINE
  5
148
  8
0
 62
     5
 10
890.94851273710003
 20
152.39289035869999
 30
0.0
 11
890.94851273710003
 21
149.3928903595
 31
0.0
  0
LINE
  5
149
  8
ﾚｲﾔ_1
 62
     5
 10
1022.16171875
 20
0.527734375
 30
0.0
 11
1022.16171875
 21
-30.9722656249
 31
0.0
  0
LINE
  5
14A
  8
ﾚｲﾔ_1
 62
     5
 10
1018.56171875
 20
-12.972265625
 30
0.0
 11
1018.56171875
 21
0.027734375
 31
0.0
  0
LINE
  5
14B
  8
ﾚｲﾔ_1
 62
     5
 10
1021.16171875
 20
-11.472265625
 30
0.0
 11
1021.16171875
 21
-28.472265624999999
 31
0.0
  0
LINE
  5
14C
  8
ﾚｲﾔ_1
 62
     5
 10
1021.16171875
 20
-28.472265624999999
 30
0.0
 11
1021.16171875
 21
-32.722265624999999
 31
0.0
  0
LINE
  5
14D
  8
ﾚｲﾔ_1
 62
     5
 10
1080.1617187500001
 20
2.5277343750000001
 30
0.0
 11
1091.26171875
 21
2.5277343750000001
 31
0.0
  0
LINE
  5
14E
  8
ﾚｲﾔ_1
 62
     5
 10
1091.1617187500001
 20
-11.472265625
 30
0.0
 11
1091.1617187500001
 21
0.527734375
 31
0.0
  0
LINE
  5
14F
  8
ﾚｲﾔ_1
 62
     5
 10
1091.1617187500001
 20
-10.472265625
 30
0.0
 11
1091.26171875
 21
-10.472265625
 31
0.0
  0
ARC
  5
150
  8
ﾚｲﾔ_1
 62
     5
 10
1091.26171875
 20
0.027734375
 30
0.0
 40
1.5
 50
0.0
 51
90.0
  0
ARC
  5
151
  8
ﾚｲﾔ_1
 62
     5
 10
1091.26171875
 20
0.027734375
 30
0.0
 40
2.5
 50
0.0
 51
90.0
  0
LINE
  5
152
  8
ﾚｲﾔ_1
 62
     5
 10
1091.1617187500001
 20
-11.472265625
 30
0.0
 11
1091.26171875
 21
-11.472265625
 31
0.0
  0
ARC
  5
153
  8
ﾚｲﾔ_1
 62
     5
 10
1091.26171875
 20
-12.972265625
 30
0.0
 40
1.5
 50
270.0
 51
0.0
  0
ARC
  5
154
  8
ﾚｲﾔ_1
 62
     5
 10
1091.26171875
 20
-12.972265625
 30
0.0
 40
2.5
 50
270.0
 51
0.0
  0
LINE
  5
155
  8
ﾚｲﾔ_1
 62
     5
 10
1091.1617187500001
 20
-11.472265625
 30
0.0
 11
1091.1617187500001
 21
-170.55462760419999
 31
0.0
  0
LINE
  5
156
  8
ﾚｲﾔ_1
 62
     5
 10
1090.1617187500001
 20
0.527734375
 30
0.0
 11
1090.1617187500001
 21
-170.55462760419999
 31
0.0
  0
LINE
  5
157
  8
ﾚｲﾔ_1
 62
     5
 10
1093.76171875
 20
-12.972265625
 30
0.0
 11
1093.76171875
 21
0.027734375
 31
0.0
  0
LINE
  5
158
  8
ﾚｲﾔ_1
 62
     5
 10
1092.76171875
 20
0.027734375
 30
0.0
 11
1092.76171875
 21
-12.972265625
 31
0.0
  0
LINE
  5
159
  8
ﾚｲﾔ_1
  6
BORDER
 62
     3
 10
885.34851273710012
 20
176.3928903595
 30
0.0
 11
939.34851273710001
 21
176.3928903595
 31
0.0
  0
LINE
  5
15A
  8
ﾚｲﾔ_1
 62
     5
 10
898.41751273710008
 20
195.0238903595
 30
0.0
 11
933.25215390969993
 21
195.0238903595
 31
0.0
  0
LINE
  5
15B
  8
ﾚｲﾔ_1
 62
     5
 10
898.41751273710008
 20
157.7618903595
 30
0.0
 11
933.25215390969993
 21
157.7618903595
 31
0.0
  0
LINE
  5
15C
  8
ﾚｲﾔ_1
 62
     5
 10
896.09351273710001
 20
155.43789035949999
 30
0.0
 11
925.34851273710024
 21
155.43789035949999
 31
0.0
  0
LINE
  5
15D
  8
ﾚｲﾔ_1
 62
     5
 10
896.09351273710001
 20
197.34789035950001
 30
0.0
 11
925.34851273710024
 21
197.34789035950001
 31
0.0
  0
LINE
  5
15E
  8
0
 62
     5
 10
897.67073907149995
 20
206.41510435730001
 30
0.0
 11
927.02628640270007
 21
206.41510435730001
 31
0.0
  0
LINE
  5
15F
  8
0
 62
     5
 10
897.67073907149995
 20
146.3706763616
 30
0.0
 11
927.02628640270007
 21
146.3706763616
 31
0.0
  0
LINE
  5
160
  8
ﾚｲﾔ_1
 10
862.68124968809991
 20
70.616576592900003
 30
0.0
 11
862.68124968809991
 21
221.9634772631
 31
0.0
  0
LINE
  5
161
  8
ﾚｲﾔ_1
 62
     5
 10
895.34851273710012
 20
150.3928903595
 30
0.0
 11
895.34851273710012
 21
176.3928903595
 31
0.0
  0
LINE
  5
162
  8
0
 62
     5
 10
1048.9117187500001
 20
-34.472265624999999
 30
0.0
 11
1041.1617187500001
 21
-34.472265624999999
 31
0.0
  0
LINE
  5
163
  8
ﾚｲﾔ_1
 62
     5
 10
1021.16171875
 20
-32.722265624999999
 30
0.0
 11
1022.16171875
 21
-32.722265624999999
 31
0.0
  0
LINE
  5
164
  8
0
 62
     5
 10
1039.1617187500001
 20
-36.994765624999999
 30
0.0
 11
1039.1617187500001
 21
-47.472265624999991
 31
0.0
  0
LINE
  5
165
  8
0
 62
     5
 10
1039.1617187500001
 20
-36.994765624999999
 30
0.0
 11
1041.1743617883999
 21
-38.156765624999998
 31
0.0
  0
LINE
  5
166
  8
0
 62
     5
 10
1024.1617187500001
 20
-34.472265624999999
 30
0.0
 11
1024.1617187500001
 21
-47.472265624999991
 31
0.0
  0
LINE
  5
167
  8
0
 62
     5
 10
1020.96171875
 20
-33.972265624999999
 30
0.0
 11
1020.96171875
 21
-32.9722656267
 31
0.0
  0
LINE
  5
168
  8
ﾚｲﾔ_1
 62
     5
 10
1021.16171875
 20
-33.972265624999999
 30
0.0
 11
1021.16171875
 21
-35.472265624599999
 31
0.0
  0
LINE
  5
169
  8
ﾚｲﾔ_1
 62
     5
 10
1021.16171875
 20
-36.472265624999999
 30
0.0
 11
1021.16171875
 21
-58.472265624999999
 31
0.0
  0
LINE
  5
16A
  8
0
 62
     5
 10
1024.1617187500001
 20
-34.472265624999999
 30
0.0
 11
1025.3228319171999
 21
-32.461158626100001
 31
0.0
  0
LINE
  5
16B
  8
0
 62
     5
 10
1024.1617187500001
 20
-36.622265624999997
 30
0.0
 11
1025.6962187500001
 21
-38.156765624999998
 31
0.0
  0
LINE
  5
16C
  8
0
 62
     5
 10
1022.16171875
 20
-30.9722656249
 30
0.0
 11
1026.46171875
 21
-30.9722656249
 31
0.0
  0
LINE
  5
16D
  8
0
 62
     5
 10
1022.16171875
 20
-32.9762824405
 30
0.0
 11
1022.16171875
 21
-30.9722656249
 31
0.0
  0
LINE
  5
16E
  8
0
 62
     5
 10
1021.96171875
 20
-35.472265624599999
 30
0.0
 11
1021.96171875
 21
-33.972265624999999
 31
0.0
  0
LINE
  5
16F
  8
ﾚｲﾔ_1
 10
1069.6129878474001
 20
-100.3604225083
 30
0.0
 11
1007.8280872255
 21
-100.3604225083
 31
0.0
  0
LINE
  5
170
  8
ﾚｲﾔ_1
 10
1069.6129878474001
 20
-24.686972173200001
 30
0.0
 11
1069.6129878474001
 21
-100.3604225083
 31
0.0
  0
ARC
  5
171
  8
ﾚｲﾔ_1
 62
     5
 10
1021.06171875
 20
-12.972265625
 30
0.0
 40
1.5
 50
180.0
 51
270.0
  0
ARC
  5
172
  8
ﾚｲﾔ_1
 62
     5
 10
1021.06171875
 20
-12.972265625
 30
0.0
 40
2.5
 50
180.0
 51
270.0
  0
LINE
  5
173
  8
ﾚｲﾔ_1
 10
1007.8280872255
 20
-24.686972173200001
 30
0.0
 11
1069.6129878474001
 21
-24.686972173200001
 31
0.0
  0
LINE
  5
174
  8
ﾚｲﾔ_1
  6
BORDER
 62
     3
 10
1064.8879918041
 20
-183.23021354170001
 30
0.0
 11
1064.8879918041
 21
-179.0050182292
 31
0.0
  0
LINE
  5
175
  8
ﾚｲﾔ_1
  6
BORDER
 62
     3
 10
1064.8879918041
 20
-174.7798229167
 30
0.0
 11
1064.8879918041
 21
-170.55462760419999
 31
0.0
  0
LINE
  5
176
  8
ﾚｲﾔ_1
  6
BORDER
 62
     3
 10
1047.4354456958999
 20
-174.7798229167
 30
0.0
 11
1064.8879918041
 21
-183.23021354170001
 31
0.0
  0
LINE
  5
177
  8
ﾚｲﾔ_1
  6
BORDER
 62
     3
 10
1047.4354456958999
 20
-166.32943229169999
 30
0.0
 11
1064.8879918041
 21
-174.7798229167
 31
0.0
  0
LINE
  5
178
  8
0
 62
     5
 10
1026.46171875
 20
-32.461158626100001
 30
0.0
 11
1024.1617187500001
 21
-32.461158626100001
 31
0.0
  0
LINE
  5
179
  8
0
 62
     5
 10
1024.1617187500001
 20
-36.472265624999999
 30
0.0
 11
1020.96171875
 21
-36.472265624999999
 31
0.0
  0
LINE
  5
17A
  8
ﾚｲﾔ_1
 62
     5
 10
1019.56171875
 20
-12.972265625
 30
0.0
 11
1019.56171875
 21
0.027734375
 31
0.0
  0
LINE
  5
17B
  8
0
 62
     5
 10
1061.1617187500001
 20
-40.222265624999999
 30
0.0
 11
1061.1617187500001
 21
-54.722265624999999
 31
0.0
  0
LINE
  5
17C
  8
0
 62
     5
 10
1061.1617187500001
 20
-40.222265624999999
 30
0.0
 11
1058.5780262146
 21
-40.222265624999999
 31
0.0
  0
LINE
  5
17D
  8
0
 62
     5
 10
1061.1617187500001
 20
-54.722265624999999
 30
0.0
 11
1059.9117187500001
 21
-54.722265624999999
 31
0.0
  0
LINE
  5
17E
  8
0
 62
     5
 10
1059.1017187499999
 20
-72.128957905200011
 30
0.0
 11
1060.1117187499999
 21
-74.294909894900002
 31
0.0
  0
LINE
  5
17F
  8
0
 62
     5
 10
1060.2520488498001
 20
-90.217581697299991
 30
0.0
 11
1061.5942663107
 21
-91.607488565799997
 31
0.0
  0
CIRCLE
  5
180
  8
0
 62
     5
 10
1060.2967187500001
 20
-93.379557168399984
 30
0.0
 40
1.1149999999999991
  0
LINE
  5
181
  8
0
 62
     5
 10
1060.1117187499999
 20
-74.294909894900002
 30
0.0
 11
1060.1117187499999
 21
-89.870252512099995
 31
0.0
  0
ARC
  5
182
  8
0
 62
     5
 10
1060.01171875
 20
-93.135736980800004
 30
0.0
 40
1.399999999999999
 50
278.90539984840001
 51
44.0
  0
ARC
  5
183
  8
0
 62
     5
 10
1060.01171875
 20
-93.135736980800004
 30
0.0
 40
2.2000000000000002
 50
278.90539984840001
 51
44.0
  0
ARC
  5
184
  8
0
 62
     5
 10
1060.6117187499999
 20
-89.870252512099995
 30
0.0
 40
0.5
 50
180.0
 51
224.0
  0
LINE
  5
185
  8
0
 62
     5
 10
1060.2967187500001
 20
-92.264557168400003
 30
0.0
 11
1059.1617187500001
 21
-92.264557168400003
 31
0.0
  0
LINE
  5
186
  8
0
 62
     5
 10
1059.6765770095999
 20
-90.773308393700006
 30
0.0
 11
1061.0187944705001
 21
-92.163215262199984
 31
0.0
  0
LINE
  5
187
  8
0
 62
     5
 10
1059.4117187500001
 20
-95.456596387099992
 30
0.0
 11
1060.3522864412
 21
-95.309216598299983
 31
0.0
  0
LINE
  5
188
  8
0
 62
     5
 10
1059.4117187500001
 20
-94.646834940199994
 30
0.0
 11
1060.2284436443999
 21
-94.518860373799996
 31
0.0
  0
ARC
  5
189
  8
0
 62
     5
 10
1048.9117187500001
 20
-45.472265624999991
 30
0.0
 40
11.0
 50
0.0
 51
90.0
  0
LINE
  5
18A
  8
ﾚｲﾔ_1
 62
     5
 10
1021.16171875
 20
-32.722265624999999
 30
0.0
 11
1021.16171875
 21
-32.9762824405
 31
0.0
  0
LINE
  5
18B
  8
0
 62
     5
 10
1024.1617187500001
 20
-32.461158626100001
 30
0.0
 11
1024.1617187500001
 21
-36.472265624999999
 31
0.0
  0
LINE
  5
18C
  8
0
 62
     5
 10
1024.53421875
 20
-36.994765624999999
 30
0.0
 11
1039.1617187500001
 21
-36.994765624999999
 31
0.0
  0
LINE
  5
18D
  8
ﾚｲﾔ_1
 10
1007.8280872255
 20
-100.3604225083
 30
0.0
 11
1007.8280872255
 21
-24.686972173200001
 31
0.0
  0
LINE
  5
18E
  8
0
 62
     5
 10
1025.3228319171999
 20
-32.461158626100001
 30
0.0
 11
1040.0006055828001
 21
-32.461158626100001
 31
0.0
  0
LINE
  5
18F
  8
0
 62
     5
 10
1041.1617187500001
 20
-34.472265624999999
 30
0.0
 11
1040.0006055828001
 21
-32.461158626100001
 31
0.0
  0
LINE
  5
190
  8
0
 62
     5
 10
1026.46171875
 20
-30.9722656249
 30
0.0
 11
1026.46171875
 21
-32.461158626100001
 31
0.0
  0
LINE
  5
191
  8
0
 62
     5
 10
1020.96171875
 20
-36.472265624999999
 30
0.0
 11
1020.96171875
 21
-35.472265624599999
 31
0.0
  0
LINE
  5
192
  8
0
 62
     5
 10
1020.96171875
 20
-35.472265624599999
 30
-3.2999999999999989
 11
1021.96171875
 21
-35.472265624599999
 31
-3.2999999999999989
  0
LINE
  5
193
  8
0
 62
     5
 10
1020.96171875
 20
-32.9762824405
 30
-3.2999999999999989
 11
1022.16171875
 21
-32.9762824405
 31
-3.2999999999999989
  0
LINE
  5
194
  8
0
 62
     5
 10
1044.02171875
 20
-72.3063136353
 30
0.0
 11
1043.01171875
 21
-74.472265625000006
 31
0.0
  0
LINE
  5
195
  8
ﾚｲﾔ_1
  6
BORDER
 62
     3
 10
1047.4354456958999
 20
-174.7798229167
 30
0.0
 11
1047.4354456958999
 21
-179.0050182292
 31
0.0
  0
LINE
  5
196
  8
ﾚｲﾔ_1
  6
BORDER
 62
     3
 10
1047.4354456958999
 20
-166.32943229169999
 30
0.0
 11
1047.4354456958999
 21
-170.55462760419999
 31
0.0
  0
ARC
  5
197
  8
0
 62
     5
 10
1060.6117187499999
 20
-89.870252512099995
 30
0.0
 40
1.3
 50
180.0
 51
224.0
  0
ARC
  5
198
  8
0
 62
     5
 10
1041.71171875
 20
-89.870252512099995
 30
0.0
 40
1.3
 50
316.0
 51
0.0
  0
LINE
  5
199
  8
0
 62
     5
 10
1059.4117187500001
 20
-94.662504177999992
 30
0.0
 11
1059.4117187500001
 21
-95.472265625000006
 31
0.0
  0
LINE
  5
19A
  8
0
 62
     5
 10
1042.9117187500001
 20
-94.662504177999992
 30
0.0
 11
1042.9117187500001
 21
-95.472265625000006
 31
0.0
  0
LINE
  5
19B
  8
0
 62
     5
 10
1059.31171875
 20
-74.472265625000006
 30
0.0
 11
1059.31171875
 21
-89.870252512099995
 31
0.0
  0
LINE
  5
19C
  8
0
 62
     5
 10
1042.21171875
 20
-74.294909894900002
 30
0.0
 11
1042.21171875
 21
-89.870252512099995
 31
0.0
  0
LINE
  5
19D
  8
0
 62
     5
 10
1043.1617187500001
 20
-92.264557168400003
 30
0.0
 11
1042.0267187500001
 21
-92.264557168400003
 31
0.0
  0
LINE
  5
19E
  8
0
 62
     5
 10
1043.1617187500001
 20
-90.3954866057
 30
0.0
 11
1043.01171875
 21
-90.3954866057
 31
0.0
  0
LINE
  5
19F
  8
0
 62
     5
 10
1043.01171875
 20
-74.472265625000006
 30
0.0
 11
1043.01171875
 21
-89.870252512099995
 31
0.0
  0
LINE
  5
1A0
  8
0
 62
     5
 10
1042.9117187500001
 20
-95.456596387099992
 30
0.0
 11
1041.9711510587999
 21
-95.309216598299983
 31
0.0
  0
ARC
  5
1A1
  8
0
 62
     5
 10
1041.71171875
 20
-89.870252512099995
 30
0.0
 40
0.5
 50
316.0
 51
0.0
  0
LINE
  5
1A2
  8
ﾚｲﾔ_1
 62
     5
 10
1043.1617187500001
 20
-74.472265625000006
 30
0.0
 11
1043.1617187500001
 21
-170.55462760419999
 31
0.0
  0
LINE
  5
1A3
  8
ﾚｲﾔ_1
 62
     5
 10
1059.1617187500001
 20
-74.472265625000006
 30
0.0
 11
1059.1617187500001
 21
-172.00720487960001
 31
0.0
  0
LINE
  5
1A4
  8
ﾚｲﾔ_1
 62
     5
 10
1058.1617187500001
 20
-74.472265625000006
 30
0.0
 11
1058.1617187500001
 21
-171.5230124544
 31
0.0
  0
LINE
  5
1A5
  8
0
 62
     5
 10
1021.96171875
 20
-33.972265624999999
 30
0.0
 11
1020.96171875
 21
-33.972265624999999
 31
0.0
  0
LINE
  5
1A6
  8
ﾚｲﾔ_1
 62
     5
 10
1044.1617187500001
 20
-74.472265625000006
 30
0.0
 11
1044.1617187500001
 21
-170.55462760419999
 31
0.0
  0
LINE
  5
1A7
  8
0
 62
     5
 10
1059.9117187500001
 20
-66.651676078299985
 30
0.0
 11
1059.06171875
 21
-71.472265625000006
 31
0.0
  0
LINE
  5
1A8
  8
0
 62
     5
 10
1057.1617187500001
 20
-65.233855623400004
 30
0.0
 11
1058.26171875
 21
-71.472265625000006
 31
0.0
  0
LINE
  5
1A9
  8
0
 62
     5
 10
1045.1617187500001
 20
-65.233855623400004
 30
0.0
 11
1044.06171875
 21
-71.472265625000006
 31
0.0
  0
LINE
  5
1AA
  8
0
 62
     5
 10
1042.4117187500001
 20
-66.651676078299985
 30
0.0
 11
1043.26171875
 21
-71.472265625000006
 31
0.0
  0
INSERT
  5
1AC
  8
ﾚｲﾔ_1
  2
*X4
 10
0.0
 20
0.0
 30
0.0
  0
LINE
  5
1BD
  8
ﾚｲﾔ_1
 62
     5
 10
1022.16171875
 20
-62.483372623900003
 30
0.0
 11
1022.16171875
 21
-170.55462760419999
 31
0.0
  0
LINE
  5
1BE
  8
0
 62
     5
 10
1020.96171875
 20
-60.972265624999999
 30
0.0
 11
1020.96171875
 21
-61.972265623299997
 31
0.0
  0
LINE
  5
1BF
  8
0
 62
     5
 10
1024.1617187500001
 20
-62.483372623900003
 30
0.0
 11
1024.1617187500001
 21
-58.472265624999999
 31
0.0
  0
LINE
  5
1C0
  8
0
 62
     5
 10
1026.46171875
 20
-62.483372623900003
 30
0.0
 11
1024.1617187500001
 21
-62.483372623900003
 31
0.0
  0
LINE
  5
1C1
  8
0
 62
     5
 10
1024.1617187500001
 20
-58.472265624999999
 30
0.0
 11
1020.96171875
 21
-58.472265624999999
 31
0.0
  0
LINE
  5
1C2
  8
0
 62
     5
 10
1026.46171875
 20
-63.9722656251
 30
0.0
 11
1026.46171875
 21
-62.483372623900003
 31
0.0
  0
LINE
  5
1C3
  8
0
 62
     5
 10
1020.96171875
 20
-58.472265624999999
 30
0.0
 11
1020.96171875
 21
-59.472265625399999
 31
0.0
  0
LINE
  5
1C4
  8
0
 62
     5
 10
1024.53421875
 20
-57.949765624999998
 30
0.0
 11
1039.1617187500001
 21
-57.949765624999998
 31
0.0
  0
LINE
  5
1C5
  8
ﾚｲﾔ_1
  6
CENTER
 62
     3
 10
1019.16171875
 20
-47.472265624999991
 30
0.0
 11
1046.1617187500001
 21
-47.472265624999991
 31
0.0
  0
LINE
  5
1C6
  8
0
 62
     5
 10
1025.6962187500001
 20
-38.156765624999998
 30
0.0
 11
1025.6962187500001
 21
-56.787765624999999
 31
0.0
  0
LINE
  5
1C7
  8
0
 62
     5
 10
1059.1017187499999
 20
-71.472265625000006
 30
0.0
 11
1043.22171875
 21
-71.472265625000006
 31
0.0
  0
LINE
  5
1C8
  8
ﾚｲﾔ_1
 62
     5
 10
1043.1617187500001
 20
-74.472265625000006
 30
0.0
 11
1059.1617187500001
 21
-74.472265625000006
 31
0.0
  0
LINE
  5
1C9
  8
ﾚｲﾔ_1
  6
BORDER
 62
     3
 10
1011.014160651
 20
-179.0050182292
 30
0.0
 11
1047.4354456958999
 21
-179.0050182292
 31
0.0
  0
LINE
  5
1CA
  8
ﾚｲﾔ_1
  6
BORDER
 62
     3
 10
1011.014160651
 20
-170.55462760419999
 30
0.0
 11
1047.4354456958999
 21
-170.55462760419999
 31
0.0
  0
CIRCLE
  5
1CB
  8
0
 62
     5
 10
1042.0267187500001
 20
-93.379557168399984
 30
0.0
 40
1.1149999999999991
  0
LINE
  5
1CC
  8
0
 62
     5
 10
1042.0713886502001
 20
-90.217581697299991
 30
0.0
 11
1040.7291711892999
 21
-91.607488565799997
 31
0.0
  0
LINE
  5
1CD
  8
0
 62
     5
 10
1042.6468604904001
 20
-90.773308393700006
 30
0.0
 11
1041.3046430295001
 21
-92.163215262199984
 31
0.0
  0
LINE
  5
1CE
  8
0
 62
     5
 10
1042.9117187500001
 20
-94.646834940199994
 30
0.0
 11
1042.0949938556
 21
-94.518860373799996
 31
0.0
  0
LINE
  5
1CF
  8
0
 62
     5
 10
1059.31171875
 20
-90.3954866057
 30
0.0
 11
1059.1617187500001
 21
-90.3954866057
 31
0.0
  0
LINE
  5
1D0
  8
0
 62
     5
 10
1059.31171875
 20
-74.472265625000006
 30
0.0
 11
1043.01171875
 21
-74.472265625000006
 31
0.0
  0
LINE
  5
1D1
  8
0
 62
     5
 10
1059.1017187499999
 20
-71.472265625000006
 30
0.0
 11
1059.1017187499999
 21
-72.128957905200011
 31
0.0
  0
LINE
  5
1D2
  8
0
 62
     5
 10
1058.30171875
 20
-71.472265625000006
 30
0.0
 11
1058.30171875
 21
-72.3063136353
 31
0.0
  0
LINE
  5
1D3
  8
0
 62
     5
 10
1043.22171875
 20
-71.472265625000006
 30
0.0
 11
1043.22171875
 21
-72.128957905200011
 31
0.0
  0
INSERT
  5
1D4
  8
0
  6
CONTINUOUS
  2
*U49
 10
0.0
 20
0.0
 30
0.0
  0
LINE
  5
1D5
  8
0
 62
     5
 10
1044.02171875
 20
-71.472265625000006
 30
0.0
 11
1044.02171875
 21
-72.3063136353
 31
0.0
  0
LINE
  5
1D6
  8
0
 62
     5
 10
1043.22171875
 20
-72.128957905200011
 30
0.0
 11
1042.21171875
 21
-74.294909894900002
 31
0.0
  0
LINE
  5
1D7
  8
0
 62
     5
 10
1025.3228319171999
 20
-62.483372623900003
 30
0.0
 11
1040.0006055828001
 21
-62.483372623900003
 31
0.0
  0
LINE
  5
1D8
  8
0
 62
     5
 10
1045.1617187500001
 20
-54.972265624999991
 30
0.0
 11
1044.1617187500001
 21
-54.972265624999991
 31
0.0
  0
LINE
  5
1D9
  8
0
 62
     5
 10
1039.1617187500001
 20
-57.949765624999998
 30
0.0
 11
1039.1617187500001
 21
-47.472265624999991
 31
0.0
  0
LINE
  5
1DA
  8
0
 62
     5
 10
1024.1617187500001
 20
-60.472265624999999
 30
0.0
 11
1025.3228319171999
 21
-62.483372623900003
 31
0.0
  0
LINE
  5
1DB
  8
0
 62
     5
 10
1046.1617187500001
 20
-39.972265624999999
 30
0.0
 11
1044.1617187500001
 21
-39.972265624999999
 31
0.0
  0
LINE
  5
1DC
  8
0
 62
     5
 10
1044.1617187500001
 20
-39.972265624999999
 30
0.0
 11
1044.1617187500001
 21
-54.972265624999991
 31
0.0
  0
LINE
  5
1DD
  8
0
 62
     5
 10
1044.1617187500001
 20
-54.972265624999991
 30
0.0
 11
1043.1135393362999
 21
-56.787765624999999
 31
0.0
  0
ARC
  5
1DE
  8
ﾚｲﾔ_1
  6
CENTER
 62
     3
 10
1046.1617187500001
 20
-52.472265624999991
 30
0.0
 40
5.0
 50
0.0
 51
90.0
  0
LINE
  5
1DF
  8
0
 62
     5
 10
1042.4117187500001
 20
-61.292842761599992
 30
0.0
 11
1042.4117187500001
 21
-66.651676078299985
 31
0.0
  0
LINE
  5
1E0
  8
0
 62
     5
 10
1022.16171875
 20
-63.9722656251
 30
0.0
 11
1026.46171875
 21
-63.9722656251
 31
0.0
  0
LINE
  5
1E1
  8
0
 62
     5
 10
1022.16171875
 20
-61.968248809499997
 30
0.0
 11
1022.16171875
 21
-63.9722656251
 31
0.0
  0
LINE
  5
1E2
  8
0
 62
     5
 10
1043.1617187500001
 20
-95.472265625000006
 30
0.0
 11
1042.9117187500001
 21
-95.472265625000006
 31
0.0
  0
LINE
  5
1E3
  8
0
 62
     5
 10
1059.4117187500001
 20
-95.472265625000006
 30
0.0
 11
1059.1617187500001
 21
-95.472265625000006
 31
0.0
  0
LINE
  5
1E4
  8
0
 62
     5
 10
1043.1617187500001
 20
-94.662504177999992
 30
0.0
 11
1042.9117187500001
 21
-94.662504177999992
 31
0.0
  0
LINE
  5
1E5
  8
0
 62
     5
 10
1059.4117187500001
 20
-94.662504177999992
 30
0.0
 11
1059.1617187500001
 21
-94.662504177999992
 31
0.0
  0
ARC
  5
1E6
  8
0
 62
     5
 10
1046.1617187500001
 20
-50.972265624999999
 30
0.0
 40
11.0
 50
0.0
 51
90.0
  0
LINE
  5
1E7
  8
0
 62
     5
 10
1057.1617187500001
 20
-50.972265624999999
 30
0.0
 11
1057.1617187500001
 21
-65.233855623400004
 31
0.0
  0
LINE
  5
1E8
  8
ﾚｲﾔ_1
 62
     5
 10
1021.16171875
 20
-61.968248809499997
 30
0.0
 11
1021.16171875
 21
-62.222265624999999
 31
0.0
  0
LINE
  5
1E9
  8
0
 62
     5
 10
1020.96171875
 20
-61.968248809499997
 30
-3.2999999999999989
 11
1022.16171875
 21
-61.968248809499997
 31
-3.2999999999999989
  0
LINE
  5
1EA
  8
0
 62
     5
 10
1021.96171875
 20
-60.972265624999999
 30
0.0
 11
1020.96171875
 21
-60.972265624999999
 31
0.0
  0
LINE
  5
1EB
  8
0
 62
     5
 10
1021.96171875
 20
-59.472265625399999
 30
0.0
 11
1021.96171875
 21
-60.972265624999999
 31
0.0
  0
LINE
  5
1EC
  8
0
 62
     5
 10
1020.96171875
 20
-59.472265625399999
 30
-3.2999999999999989
 11
1021.96171875
 21
-59.472265625399999
 31
-3.2999999999999989
  0
LINE
  5
1ED
  8
0
 62
     5
 10
1059.9117187500001
 20
-45.472265624999991
 30
0.0
 11
1059.9117187500001
 21
-66.651676078299985
 31
0.0
  0
LINE
  5
1EE
  8
0
 62
     5
 10
1057.1617187500001
 20
-65.233855623400004
 30
0.0
 11
1045.1617187500001
 21
-65.233855623400004
 31
0.0
  0
LINE
  5
1EF
  8
ﾚｲﾔ_1
 62
     5
 10
1021.16171875
 20
-62.222265624999999
 30
0.0
 11
1022.16171875
 21
-62.222265624999999
 31
0.0
  0
LINE
  5
1F0
  8
ﾚｲﾔ_1
 62
     5
 10
1021.16171875
 20
-11.472265625
 30
0.0
 11
1021.16171875
 21
0.527734375
 31
0.0
  0
ARC
  5
1F1
  8
ﾚｲﾔ_1
 62
     5
 10
1021.06171875
 20
0.027734375
 30
0.0
 40
1.5
 50
90.0
 51
180.0
  0
LINE
  5
1F2
  8
ﾚｲﾔ_1
 62
     5
 10
1032.1617187500001
 20
2.5277343750000001
 30
0.0
 11
1048.1617187500001
 21
6.427734375
 31
0.0
  0
ARC
  5
1F3
  8
ﾚｲﾔ_1
 62
     5
 10
1021.06171875
 20
0.027734375
 30
0.0
 40
2.5
 50
90.0
 51
180.0
  0
LINE
  5
1F4
  8
ﾚｲﾔ_1
 62
     5
 10
1022.16171875
 20
-27.472265624999999
 30
0.0
 11
1022.16171875
 21
-28.472265624999999
 31
0.0
  0
LINE
  5
1F5
  8
ﾚｲﾔ_1
 62
     5
 10
1021.16171875
 20
-59.472265625399999
 30
0.0
 11
1021.16171875
 21
-60.972265624999999
 31
0.0
  0
LINE
  5
1F6
  8
0
 62
     5
 10
1024.1617187500001
 20
-58.322265625
 30
0.0
 11
1025.6962187500001
 21
-56.787765624999999
 31
0.0
  0
LINE
  5
1F7
  8
0
 62
     5
 10
1024.1617187500001
 20
-60.472265624999999
 30
0.0
 11
1024.1617187500001
 21
-47.472265624999991
 31
0.0
  0
LINE
  5
1F8
  8
0
 62
     5
 10
1039.1617187500001
 20
-57.949765624999998
 30
0.0
 11
1041.1743617883999
 21
-56.787765624999999
 31
0.0
  0
LINE
  5
1F9
  8
0
 62
     5
 10
1058.30171875
 20
-72.3063136353
 30
0.0
 11
1044.02171875
 21
-72.3063136353
 31
0.0
  0
LINE
  5
1FA
  8
0
 62
     5
 10
1058.30171875
 20
-72.3063136353
 30
0.0
 11
1059.31171875
 21
-74.472265625000006
 31
0.0
  0
ARC
  5
1FB
  8
0
 62
     5
 10
1042.31171875
 20
-93.135736980800004
 30
0.0
 40
1.399999999999999
 50
136.0
 51
261.09460015159999
  0
LINE
  5
1FC
  8
ﾚｲﾔ_1
 62
     5
 10
1021.06171875
 20
-11.472265625
 30
0.0
 11
1021.16171875
 21
-11.472265625
 31
0.0
  0
LINE
  5
1FD
  8
ﾚｲﾔ_1
 62
     5
 10
1021.16171875
 20
-10.472265625
 30
0.0
 11
1021.06171875
 21
-10.472265625
 31
0.0
  0
LINE
  5
1FE
  8
ﾚｲﾔ_1
 62
     5
 10
1021.06171875
 20
2.5277343750000001
 30
0.0
 11
1032.1617187500001
 21
2.5277343750000001
 31
0.0
  0
LINE
  5
1FF
  8
ﾚｲﾔ_1
 62
     5
 10
1048.2818353381001
 20
5.427734375
 30
0.0
 11
1064.0416021619001
 21
5.427734375
 31
0.0
  0
LINE
  5
200
  8
ﾚｲﾔ_1
 62
     5
 10
1048.1617187500001
 20
6.427734375
 30
0.0
 11
1064.1617187500001
 21
6.427734375
 31
0.0
  0
ARC
  5
201
  8
0
 62
     5
 10
1042.31171875
 20
-93.135736980800004
 30
0.0
 40
2.2000000000000002
 50
136.0
 51
261.09460015159999
  0
LINE
  5
202
  8
0
 62
     5
 10
1040.9188984269999
 20
-60.892842761600001
 30
0.0
 11
1040.0006055828001
 21
-62.483372623900003
 31
0.0
  0
LINE
  5
203
  8
0
 62
     5
 10
1043.1135393362999
 20
-38.156765624999998
 30
0.0
 11
1044.1617187500001
 21
-39.972265624999999
 31
0.0
  0
LINE
  5
204
  8
0
 62
     5
 10
1043.1135393362999
 20
-38.156765624999998
 30
0.0
 11
1043.1135393362999
 21
-56.787765624999999
 31
0.0
  0
LINE
  5
205
  8
0
 62
     5
 10
1045.1617187500001
 20
-54.972265624999991
 30
0.0
 11
1045.1617187500001
 21
-65.233855623400004
 31
0.0
  0
ARC
  5
206
  8
0
 62
     5
 10
1041.6117187499999
 20
-61.292842761599992
 30
0.0
 40
0.8
 50
0.0
 51
150.0
  0
LINE
  5
207
  8
0
 62
     5
 10
1025.6962187500001
 20
-38.156765624999998
 30
0.0
 11
1043.1135393362999
 21
-38.156765624999998
 31
0.0
  0
LINE
  5
208
  8
0
 62
     5
 10
1025.6962187500001
 20
-56.787765624999999
 30
0.0
 11
1043.1135393362999
 21
-56.787765624999999
 31
0.0
  0
LINE
  5
209
  8
ﾚｲﾔ_1
 62
     5
 10
823.83916367910001
 20
2.5277343750000001
 30
0.0
 11
839.83916367910001
 21
6.427734375
 31
0.0
  0
INSERT
  5
20B
  8
ﾚｲﾔ_1
  2
CLUMP0
 10
0.0
 20
0.0
 30
0.0
  0
LINE
  5
219
  8
ﾚｲﾔ_1
  6
BORDER
 62
     3
 10
839.11289062499986
 20
-174.7798229167
 30
0.0
 11
856.56543673319993
 21
-183.23021354170001
 31
0.0
  0
LINE
  5
21A
  8
ﾚｲﾔ_1
  6
BORDER
 62
     3
 10
839.11289062499986
 20
-166.32943229169999
 30
0.0
 11
856.56543673319993
 21
-174.7798229167
 31
0.0
  0
LINE
  5
21B
  8
ﾚｲﾔ_1
  6
BORDER
 62
     3
 10
856.56543673319993
 20
-183.23021354170001
 30
0.0
 11
856.56543673319993
 21
-179.0050182292
 31
0.0
  0
LINE
  5
21C
  8
ﾚｲﾔ_1
  6
BORDER
 62
     3
 10
856.56543673319993
 20
-174.7798229167
 30
0.0
 11
856.56543673319993
 21
-170.55462760419999
 31
0.0
  0
ARC
  5
21D
  8
ﾚｲﾔ_1
 62
     5
 10
812.73916367909987
 20
-12.972265625
 30
0.0
 40
2.5
 50
180.0
 51
270.0
  0
LINE
  5
21E
  8
ﾚｲﾔ_1
 62
     5
 10
812.83916367910001
 20
-15.472265625
 30
0.0
 11
812.83916367910001
 21
-170.55462760419999
 31
0.0
  0
LINE
  5
21F
  8
ﾚｲﾔ_1
 62
     5
 10
810.23916367909987
 20
-12.972265625
 30
0.0
 11
810.23916367909987
 21
0.027734375
 31
0.0
  0
ARC
  5
220
  8
ﾚｲﾔ_1
 62
     5
 10
882.93916367909992
 20
0.027734375
 30
0.0
 40
2.5
 50
0.0
 51
90.0
  0
ARC
  5
221
  8
ﾚｲﾔ_1
 62
     5
 10
882.93916367909992
 20
-12.972265625
 30
0.0
 40
2.5
 50
270.0
 51
0.0
  0
LINE
  5
222
  8
ﾚｲﾔ_1
 62
     5
 10
812.73916367909987
 20
2.5277343750000001
 30
0.0
 11
882.93916367909992
 21
2.5277343750000001
 31
0.0
  0
LINE
  5
223
  8
ﾚｲﾔ_1
 62
     5
 10
812.73916367909987
 20
-15.472265625
 30
0.0
 11
882.93916367909992
 21
-15.472265625
 31
0.0
  0
LINE
  5
224
  8
ﾚｲﾔ_1
 62
     5
 10
882.83916367910001
 20
-15.472265625
 30
0.0
 11
882.83916367910001
 21
-170.55462760419999
 31
0.0
  0
LINE
  5
225
  8
ﾚｲﾔ_1
  6
BORDER
 62
     3
 10
856.56543673319993
 20
-170.55462760419999
 30
0.0
 11
894.36973058009983
 21
-170.55462760419999
 31
0.0
  0
LINE
  5
226
  8
ﾚｲﾔ_1
  6
BORDER
 62
     3
 10
856.56543673319993
 20
-179.0050182292
 30
0.0
 11
894.36973058009983
 21
-179.0050182292
 31
0.0
  0
LINE
  5
227
  8
ﾚｲﾔ_1
 62
     5
 10
1080.1617187500001
 20
2.5277343750000001
 30
0.0
 11
1064.1617187500001
 21
6.427734375
 31
0.0
  0
LINE
  5
228
  8
ﾚｲﾔ_1
 62
     5
 10
1021.06171875
 20
1.5277343750000001
 30
0.0
 11
1091.26171875
 21
1.5277343750000001
 31
0.0
  0
LINE
  5
229
  8
ﾚｲﾔ_1
 62
     5
 10
1019.56171875
 20
0.527734375
 30
0.0
 11
1092.76171875
 21
0.527734375
 31
0.0
  0
LINE
  5
22A
  8
ﾚｲﾔ_1
 62
     5
 10
1080.0416021619001
 20
1.5277343750000001
 30
0.0
 11
1064.0416021619001
 21
5.427734375
 31
0.0
  0
INSERT
  5
22C
  8
ﾚｲﾔ_1
  2
*X6
 10
0.0
 20
0.0
 30
0.0
  0
INSERT
  5
241
  8
ﾚｲﾔ_1
  2
*X7
 10
0.0
 20
0.0
 30
0.0
  0
LINE
  5
253
  8
ﾚｲﾔ_1
  6
BORDER
 62
     3
 10
1064.8879918041
 20
-170.55462760419999
 30
0.0
 11
1102.692285651
 21
-170.55462760419999
 31
0.0
  0
LINE
  5
254
  8
ﾚｲﾔ_1
  6
BORDER
 62
     3
 10
1064.8879918041
 20
-179.0050182292
 30
0.0
 11
1102.692285651
 21
-179.0050182292
 31
0.0
  0
LINE
  5
255
  8
ﾚｲﾔ_1
 62
     5
 10
1032.2818353381001
 20
1.5277343750000001
 30
0.0
 11
1048.2818353381001
 21
5.427734375
 31
0.0
  0
LINE
  5
256
  8
ﾚｲﾔ_1
 62
     5
 10
695.34887079910004
 20
2.5277343750000001
 30
0.0
 11
679.34887079910004
 21
6.427734375
 31
0.0
  0
LINE
  5
257
  8
ﾚｲﾔ_1
  6
BORDER
 62
     3
 10
649.60824579910002
 20
-47.472265624999991
 30
0.0
 11
693.26449579910002
 21
-47.472265624999991
 31
0.0
  0
ARC
  5
259
  8
CONSTRUCTION
 62
     5
 10
706.44887079909995
 20
103.0044894673
 30
0.0
 40
2.5
 50
270.0
 51
0.0
  0
LINE
  5
25A
  8
CONSTRUCTION
 62
     5
 10
708.94887079910006
 20
173.20448946729999
 30
0.0
 11
708.94887079910006
 21
103.0044894673
 31
0.0
  0
ARC
  5
25B
  8
CONSTRUCTION
 62
     5
 10
706.44887079909995
 20
173.20448946729999
 30
0.0
 40
2.5
 50
0.0
 51
90.0
  0
LINE
  5
25C
  8
CONSTRUCTION
 62
     5
 10
679.34887079910004
 20
146.1044894673
 30
0.0
 11
679.34887079910004
 21
130.1044894673
 31
0.0
  0
LINE
  5
25D
  8
CONSTRUCTION
 62
     5
 10
663.34887079910004
 20
146.1044894673
 30
0.0
 11
679.34887079910004
 21
146.1044894673
 31
0.0
  0
LINE
  5
25E
  8
CONSTRUCTION
 62
     5
 10
663.34887079910004
 20
130.1044894673
 30
0.0
 11
663.34887079910004
 21
146.1044894673
 31
0.0
  0
LINE
  5
25F
  8
CONSTRUCTION
 62
     5
 10
679.34887079910004
 20
130.1044894673
 30
0.0
 11
663.34887079910004
 21
130.1044894673
 31
0.0
  0
LINE
  5
260
  8
CONSTRUCTION
 62
     5
 10
647.34887079910004
 20
114.1044894673
 30
0.0
 11
647.34887079910004
 21
162.1044894673
 31
0.0
  0
LINE
  5
261
  8
CONSTRUCTION
 62
     5
 10
663.34887079910004
 20
130.1044894673
 30
0.0
 11
647.34887079910004
 21
114.1044894673
 31
0.0
  0
LINE
  5
262
  8
CONSTRUCTION
 62
     5
 10
647.34887079910004
 20
162.1044894673
 30
0.0
 11
663.34887079910004
 21
146.1044894673
 31
0.0
  0
LINE
  5
263
  8
CONSTRUCTION
 62
     5
 10
679.34887079910004
 20
130.1044894673
 30
0.0
 11
695.34887079910004
 21
114.1044894673
 31
0.0
  0
LINE
  5
264
  8
CONSTRUCTION
 62
     5
 10
695.34887079910004
 20
162.1044894673
 30
0.0
 11
695.34887079910004
 21
114.1044894673
 31
0.0
  0
LINE
  5
265
  8
CONSTRUCTION
 62
     5
 10
679.34887079910004
 20
146.1044894673
 30
0.0
 11
695.34887079910004
 21
162.1044894673
 31
0.0
  0
LINE
  5
266
  8
CONSTRUCTION
 62
     5
 10
695.34887079910004
 20
114.1044894673
 30
0.0
 11
647.34887079910004
 21
114.1044894673
 31
0.0
  0
LINE
  5
267
  8
CONSTRUCTION
 62
     5
 10
647.34887079910004
 20
162.1044894673
 30
0.0
 11
695.34887079910004
 21
162.1044894673
 31
0.0
  0
LINE
  5
268
  8
ﾚｲﾔ_1
 62
     5
 10
885.43916367910003
 20
-12.972265625
 30
0.0
 11
885.43916367910003
 21
0.027734375
 31
0.0
  0
LINE
  5
269
  8
ﾚｲﾔ_1
  6
BORDER
 62
     3
 10
839.11289062499986
 20
-174.7798229167
 30
0.0
 11
839.11289062499986
 21
-179.0050182292
 31
0.0
  0
LINE
  5
26A
  8
ﾚｲﾔ_1
  6
BORDER
 62
     3
 10
839.11289062499986
 20
-166.32943229169999
 30
0.0
 11
839.11289062499986
 21
-170.55462760419999
 31
0.0
  0
LINE
  5
26B
  8
ﾚｲﾔ_1
  6
BORDER
 62
     3
 10
802.69160558009992
 20
-179.0050182292
 30
0.0
 11
839.11289062499986
 21
-179.0050182292
 31
0.0
  0
LINE
  5
26C
  8
ﾚｲﾔ_1
  6
BORDER
 62
     3
 10
802.69160558009992
 20
-170.55462760419999
 30
0.0
 11
839.11289062499986
 21
-170.55462760419999
 31
0.0
  0
LINE
  5
26D
  8
ﾚｲﾔ_1
 62
     5
 10
839.83916367910001
 20
6.427734375
 30
0.0
 11
855.83916367910001
 21
6.427734375
 31
0.0
  0
LINE
  5
26E
  8
ﾚｲﾔ_1
 62
     5
 10
871.83916367910001
 20
2.5277343750000001
 30
0.0
 11
855.83916367910001
 21
6.427734375
 31
0.0
  0
ARC
  5
26F
  8
ﾚｲﾔ_1
 62
     5
 10
812.73916367909987
 20
0.027734375
 30
0.0
 40
2.5
 50
90.0
 51
180.0
  0
LINE
  5
270
  8
ﾚｲﾔ_1
 62
     5
 10
1021.16171875
 20
-406.97226562499992
 30
0.0
 11
1021.16171875
 21
-405.47226562539993
 31
0.0
  0
LINE
  5
271
  8
ﾚｲﾔ_1
 62
     5
 10
1020.36171875
 20
-477.17226562500002
 30
0.0
 11
1021.16171875
 21
-477.17226562500002
 31
0.0
  0
LINE
  5
272
  8
ﾚｲﾔ_1
 62
     5
 10
1021.16171875
 20
-408.47226562499992
 30
0.0
 11
1021.16171875
 21
-477.17226562500002
 31
0.0
  0
LINE
  5
273
  8
ﾚｲﾔ_1
 62
     5
 10
1091.1617187500001
 20
-477.17226562500002
 30
0.0
 11
1091.96171875
 21
-477.17226562500002
 31
0.0
  0
LINE
  5
274
  8
ﾚｲﾔ_1
 10
720.56878752660009
 20
-111.0744165846
 30
0.0
 11
792.18315419600003
 21
-111.0744165846
 31
0.0
  0
INSERT
  5
275
  8
0
  6
CONTINUOUS
  2
*U51
 10
0.0
 20
0.0
 30
0.0
  0
INSERT
  5
276
  8
0
  6
CONTINUOUS
  2
*U52
 10
0.0
 20
0.0
 30
0.0
  0
ARC
  5
277
  8
ﾚｲﾔ_1
 62
     5
 10
706.44887079909995
 20
0.027734375
 30
0.0
 40
2.5
 50
0.0
 51
90.0
  0
LINE
  5
278
  8
ﾚｲﾔ_1
 62
     5
 10
706.34887079910004
 20
-15.472265625
 30
0.0
 11
706.34887079910004
 21
-170.55462760419999
 31
0.0
  0
ARC
  5
279
  8
ﾚｲﾔ_1
 62
     5
 10
706.44887079909995
 20
-12.972265625
 30
0.0
 40
2.5
 50
270.0
 51
0.0
  0
LINE
  5
27A
  8
ﾚｲﾔ_1
 62
     5
 10
708.94887079910006
 20
-12.972265625
 30
0.0
 11
708.94887079910006
 21
0.027734375
 31
0.0
  0
LINE
  5
27B
  8
ﾚｲﾔ_1
  6
BORDER
 62
     3
 10
680.07514385319996
 20
-183.23021354170001
 30
0.0
 11
680.07514385319996
 21
-179.0050182292
 31
0.0
  0
LINE
  5
27C
  8
ﾚｲﾔ_1
  6
BORDER
 62
     3
 10
680.07514385319996
 20
-174.7798229167
 30
0.0
 11
680.07514385319996
 21
-170.55462760419999
 31
0.0
  0
LINE
  5
27D
  8
ﾚｲﾔ_1
 62
     5
 10
663.34887079910004
 20
6.427734375
 30
0.0
 11
679.34887079910004
 21
6.427734375
 31
0.0
  0
CIRCLE
  5
27E
  8
ﾚｲﾔ_1
 62
     5
 10
671.34887079910004
 20
-47.472265624999991
 30
0.0
 40
9.5
  0
CIRCLE
  5
27F
  8
ﾚｲﾔ_1
 62
     5
 10
671.34887079910004
 20
-47.472265624999991
 30
0.0
 40
15.25
  0
LINE
  5
280
  8
ﾚｲﾔ_1
  6
BORDER
 62
     3
 10
662.62259774499989
 20
-166.32943229169999
 30
0.0
 11
680.07514385319996
 21
-174.7798229167
 31
0.0
  0
LINE
  5
281
  8
ﾚｲﾔ_1
  6
BORDER
 62
     3
 10
662.62259774499989
 20
-174.7798229167
 30
0.0
 11
662.62259774499989
 21
-179.0050182292
 31
0.0
  0
LINE
  5
282
  8
ﾚｲﾔ_1
  6
BORDER
 62
     3
 10
662.62259774499989
 20
-174.7798229167
 30
0.0
 11
680.07514385319996
 21
-183.23021354170001
 31
0.0
  0
LINE
  5
283
  8
ﾚｲﾔ_1
  6
BORDER
 62
     3
 10
662.62259774499989
 20
-166.32943229169999
 30
0.0
 11
662.62259774499989
 21
-170.55462760419999
 31
0.0
  0
LINE
  5
284
  8
ﾚｲﾔ_1
 62
     5
 10
647.34887079910004
 20
2.5277343750000001
 30
0.0
 11
663.34887079910004
 21
6.427734375
 31
0.0
  0
INSERT
  5
286
  8
ﾚｲﾔ_1
  2
CLUMP1
 10
0.0
 20
0.0
 30
0.0
  0
LINE
  5
297
  8
ﾚｲﾔ_1
 10
720.56878752660009
 20
-111.0744165846
 30
0.0
 11
680.59458626829996
 21
-59.532679755700002
 31
0.0
  0
SOLID
  5
298
  8
ﾚｲﾔ_1
 10
680.59458626829996
 20
-59.532679755700002
 30
0.0
 11
688.84044098669995
 21
-65.792516569599997
 31
0.0
 12
685.0809801301998
 22
-65.317323962800003
 32
0.0
 13
685.0809801301998
 23
-65.317323962800003
 33
0.0
  0
SOLID
  5
299
  8
ﾚｲﾔ_1
 10
680.59458626829996
 20
-59.532679755700002
 30
0.0
 11
684.60578752339995
 21
-69.076784819300002
 31
0.0
 12
685.0809801301998
 22
-65.317323962800003
 32
0.0
 13
685.0809801301998
 23
-65.317323962800003
 33
0.0
  0
LINE
  5
29A
  8
ﾚｲﾔ_1
  6
BORDER
 62
     3
 10
680.07514385319996
 20
-179.0050182292
 30
0.0
 11
717.87943770009997
 21
-179.0050182292
 31
0.0
  0
LINE
  5
29B
  8
ﾚｲﾔ_1
  6
BORDER
 62
     3
 10
680.07514385319996
 20
-170.55462760419999
 30
0.0
 11
717.87943770009997
 21
-170.55462760419999
 31
0.0
  0
LINE
  5
29C
  8
ﾚｲﾔ_1
 62
     5
 10
1059.4117187500001
 20
-345.48793486289998
 30
0.0
 11
1060.3522864412
 21
-345.6353146516999
 31
0.0
  0
CIRCLE
  5
29D
  8
ﾚｲﾔ_1
 62
     5
 10
1060.2967187500001
 20
-347.56497408159998
 30
0.0
 40
1.1149999999999991
  0
LINE
  5
29E
  8
ﾚｲﾔ_1
 62
     5
 10
1059.6765770095999
 20
-350.17122285630001
 30
0.0
 11
1061.0187944705001
 21
-348.78131598779999
 31
0.0
  0
LINE
  5
29F
  8
ﾚｲﾔ_1
 62
     5
 10
1060.2520488498001
 20
-350.72694955269998
 30
0.0
 11
1061.5942663107
 21
-349.33704268420001
 31
0.0
  0
ARC
  5
2A0
  8
ﾚｲﾔ_1
 62
     5
 10
1060.6117187499999
 20
-351.07427873789999
 30
0.0
 40
0.5
 50
136.0
 51
180.0
  0
LINE
  5
2A1
  8
ﾚｲﾔ_1
 62
     5
 10
1059.4117187500001
 20
-346.29769630980002
 30
0.0
 11
1060.2284436443999
 21
-346.42567087629999
 31
0.0
  0
ARC
  5
2A2
  8
ﾚｲﾔ_1
 62
     5
 10
1060.01171875
 20
-347.80879426920001
 30
0.0
 40
2.2000000000000002
 50
316.0
 51
81.094600151600005
  0
ARC
  5
2A3
  8
ﾚｲﾔ_1
 62
     5
 10
1060.01171875
 20
-347.80879426920001
 30
0.0
 40
1.399999999999999
 50
316.0
 51
81.094600151600005
  0
LINE
  5
2A4
  8
ﾚｲﾔ_1
 62
     5
 10
1060.2967187500001
 20
-348.67997408159999
 30
0.0
 11
1059.1617187500001
 21
-348.67997408159999
 31
0.0
  0
LINE
  5
2A5
  8
ﾚｲﾔ_1
 62
     5
 10
1059.1017187499999
 20
-368.8155733448001
 30
0.0
 11
1060.1117187499999
 21
-366.64962135510001
 31
0.0
  0
LINE
  5
2A6
  8
ﾚｲﾔ_1
 62
     5
 10
1061.1617187500001
 20
-386.22226562499998
 30
0.0
 11
1059.9117187500001
 21
-386.22226562499998
 31
0.0
  0
LINE
  5
2A7
  8
ﾚｲﾔ_1
 62
     5
 10
1061.1617187500001
 20
-400.72226562499992
 30
0.0
 11
1058.5780262146
 21
-400.72226562499992
 31
0.0
  0
LINE
  5
2A8
  8
ﾚｲﾔ_1
 62
     5
 10
1061.1617187500001
 20
-400.72226562499992
 30
0.0
 11
1061.1617187500001
 21
-386.22226562499998
 31
0.0
  0
LINE
  5
2A9
  8
ﾚｲﾔ_1
 62
     5
 10
1042.21171875
 20
-366.64962135510001
 30
0.0
 11
1042.21171875
 21
-351.07427873789999
 31
0.0
  0
LINE
  5
2AA
  8
ﾚｲﾔ_1
 62
     5
 10
1043.01171875
 20
-366.47226562499998
 30
0.0
 11
1043.01171875
 21
-351.07427873789999
 31
0.0
  0
LINE
  5
2AB
  8
ﾚｲﾔ_1
 62
     5
 10
1060.1117187499999
 20
-366.64962135510001
 30
0.0
 11
1060.1117187499999
 21
-351.07427873789999
 31
0.0
  0
LINE
  5
2AC
  8
ﾚｲﾔ_1
 62
     5
 10
1021.16171875
 20
-378.97628244049997
 30
0.0
 11
1021.16171875
 21
-378.47226562499998
 31
0.0
  0
LINE
  5
2AD
  8
ﾚｲﾔ_1
 62
     5
 10
1021.16171875
 20
-378.97628244049997
 30
0.0
 11
1021.16171875
 21
-378.47226562499998
 31
0.0
  0
LINE
  5
2AE
  8
ﾚｲﾔ_1
 62
     5
 10
1021.16171875
 20
-381.47226562460003
 30
0.0
 11
1021.16171875
 21
-379.97226562499998
 31
0.0
  0
LINE
  5
2AF
  8
ﾚｲﾔ_1
 62
     5
 10
1021.16171875
 20
-381.47226562460003
 30
0.0
 11
1021.16171875
 21
-379.97226562499998
 31
0.0
  0
LINE
  5
2B0
  8
ﾚｲﾔ_1
 62
     5
 10
1021.16171875
 20
-404.47226562499998
 30
0.0
 11
1021.16171875
 21
-382.47226562499992
 31
0.0
  0
LINE
  5
2B1
  8
ﾚｲﾔ_1
 62
     5
 10
1021.16171875
 20
-404.47226562499998
 30
0.0
 11
1021.16171875
 21
-382.47226562499992
 31
0.0
  0
LINE
  5
2B2
  8
ﾚｲﾔ_1
 62
     5
 10
1021.16171875
 20
-408.47226562499992
 30
0.0
 11
1021.16171875
 21
-407.96824880949998
 31
0.0
  0
LINE
  5
2B3
  8
ﾚｲﾔ_1
 62
     5
 10
1021.16171875
 20
-406.97226562499992
 30
0.0
 11
1021.16171875
 21
-405.47226562539993
 31
0.0
  0
LINE
  5
2B4
  8
ﾚｲﾔ_1
 62
     5
 10
1021.16171875
 20
-408.47226562499992
 30
0.0
 11
1021.16171875
 21
-407.96824880949998
 31
0.0
  0
ARC
  5
2B5
  8
ﾚｲﾔ_1
 62
     5
 10
1046.1617187500001
 20
-389.97226562499998
 30
0.0
 40
11.0
 50
270.0
 51
0.0
  0
LINE
  5
2B6
  8
ﾚｲﾔ_1
 62
     5
 10
1059.31171875
 20
-366.47226562499998
 30
0.0
 11
1059.31171875
 21
-351.07427873789999
 31
0.0
  0
LINE
  5
2B7
  8
ﾚｲﾔ_1
 10
1007.8280872255
 20
-415.90521205409999
 30
0.0
 11
1007.8280872255
 21
-340.23176171900002
 31
0.0
  0
LINE
  5
2B8
  8
ﾚｲﾔ_1
 62
     5
 10
1022.16171875
 20
-409.47226562499998
 30
0.0
 11
1022.16171875
 21
-408.47226562499992
 31
0.0
  0
LINE
  5
2B9
  8
ﾚｲﾔ_1
 62
     5
 10
1024.1617187500001
 20
-406.47226562499992
 30
0.0
 11
1024.1617187500001
 21
-393.47226562499998
 31
0.0
  0
LINE
  5
2BA
  8
ﾚｲﾔ_1
 62
     5
 10
1021.16171875
 20
-406.97226562499992
 30
0.0
 11
1021.16171875
 21
-405.47226562539993
 31
0.0
  0
LINE
  5
2BB
  8
ﾚｲﾔ_1
 62
     5
 10
1021.16171875
 20
-408.22226562499992
 30
0.0
 11
1021.16171875
 21
-407.96824880949998
 31
0.0
  0
LINE
  5
2BC
  8
ﾚｲﾔ_1
 62
     5
 10
1024.1617187500001
 20
-404.322265625
 30
0.0
 11
1025.6962187500001
 21
-402.78776562500002
 31
0.0
  0
LINE
  5
2BD
  8
ﾚｲﾔ_1
 62
     5
 10
1024.1617187500001
 20
-406.47226562499992
 30
0.0
 11
1025.3228319171999
 21
-408.48337262389998
 31
0.0
  0
LINE
  5
2BE
  8
ﾚｲﾔ_1
 62
     5
 10
1022.16171875
 20
-407.96824880949998
 30
0.0
 11
1022.16171875
 21
-409.97226562510002
 31
0.0
  0
LINE
  5
2BF
  8
ﾚｲﾔ_1
 62
     5
 10
1021.96171875
 20
-405.47226562539993
 30
0.0
 11
1021.96171875
 21
-406.97226562499992
 31
0.0
  0
LINE
  5
2C0
  8
ﾚｲﾔ_1
 62
     5
 10
1021.96171875
 20
-406.97226562499992
 30
0.0
 11
1020.96171875
 21
-406.97226562499992
 31
0.0
  0
LINE
  5
2C1
  8
ﾚｲﾔ_1
 62
     5
 10
1020.96171875
 20
-406.97226562499992
 30
0.0
 11
1020.96171875
 21
-407.97226562330002
 31
0.0
  0
LINE
  5
2C2
  8
ﾚｲﾔ_1
 62
     5
 10
1024.1617187500001
 20
-404.47226562499998
 30
0.0
 11
1020.96171875
 21
-404.47226562499998
 31
0.0
  0
LINE
  5
2C3
  8
ﾚｲﾔ_1
 62
     5
 10
1026.46171875
 20
-409.97226562510002
 30
0.0
 11
1026.46171875
 21
-408.48337262389998
 31
0.0
  0
LINE
  5
2C4
  8
ﾚｲﾔ_1
 62
     5
 10
1021.16171875
 20
-412.47226562499992
 30
0.0
 11
1021.16171875
 21
-408.22226562499992
 31
0.0
  0
LINE
  5
2C5
  8
ﾚｲﾔ_1
 62
     5
 10
1059.9117187500001
 20
-395.47226562499998
 30
0.0
 11
1059.9117187500001
 21
-374.29285517170001
 31
0.0
  0
LINE
  5
2C6
  8
ﾚｲﾔ_1
 62
     5
 10
1025.6962187500001
 20
-402.78776562500002
 30
0.0
 11
1025.6962187500001
 21
-384.15676562499999
 31
0.0
  0
LINE
  5
2C7
  8
ﾚｲﾔ_1
 62
     5
 10
1024.1617187500001
 20
-380.47226562499998
 30
0.0
 11
1024.1617187500001
 21
-393.47226562499998
 31
0.0
  0
LINE
  5
2C8
  8
ﾚｲﾔ_1
 62
     5
 10
1021.16171875
 20
-404.47226562499998
 30
0.0
 11
1021.16171875
 21
-382.47226562499992
 31
0.0
  0
ARC
  5
2C9
  8
ﾚｲﾔ_1
  6
CENTER
 62
     3
 10
1046.1617187500001
 20
-388.47226562499998
 30
0.0
 40
5.0
 50
270.0
 51
0.0
  0
LINE
  5
2CA
  8
ﾚｲﾔ_1
 62
     5
 10
1039.1617187500001
 20
-382.99476562500001
 30
0.0
 11
1039.1617187500001
 21
-393.47226562499998
 31
0.0
  0
LINE
  5
2CB
  8
ﾚｲﾔ_1
 10
1007.8280872255
 20
-340.23176171900002
 30
0.0
 11
1069.6129878474001
 21
-340.23176171900002
 31
0.0
  0
LINE
  5
2CC
  8
ﾚｲﾔ_1
 10
1069.6129878474001
 20
-415.90521205409999
 30
0.0
 11
1007.8280872255
 21
-415.90521205409999
 31
0.0
  0
LINE
  5
2CD
  8
ﾚｲﾔ_1
 10
1069.6129878474001
 20
-340.23176171900002
 30
0.0
 11
1069.6129878474001
 21
-415.90521205409999
 31
0.0
  0
LINE
  5
2CE
  8
ﾚｲﾔ_1
 62
     5
 10
1059.1017187499999
 20
-369.47226562499998
 30
0.0
 11
1059.1017187499999
 21
-368.8155733448001
 31
0.0
  0
LINE
  5
2CF
  8
ﾚｲﾔ_1
 62
     5
 10
1044.1617187500001
 20
-400.97226562499998
 30
0.0
 11
1044.1617187500001
 21
-385.97226562499998
 31
0.0
  0
LINE
  5
2D0
  8
ﾚｲﾔ_1
 62
     5
 10
1043.1135393362999
 20
-402.78776562500002
 30
0.0
 11
1043.1135393362999
 21
-384.15676562499999
 31
0.0
  0
LINE
  5
2D1
  8
ﾚｲﾔ_1
 62
     5
 10
1024.53421875
 20
-382.99476562500001
 30
0.0
 11
1039.1617187500001
 21
-382.99476562500001
 31
0.0
  0
LINE
  5
2D2
  8
ﾚｲﾔ_1
 62
     5
 10
1021.16171875
 20
-378.72226562499998
 30
0.0
 11
1022.16171875
 21
-378.72226562499998
 31
0.0
  0
LINE
  5
2D3
  8
ﾚｲﾔ_1
 62
     5
 10
1022.16171875
 20
-378.47226562499998
 30
0.0
 11
1022.16171875
 21
-377.47226562499998
 31
0.0
  0
LINE
  5
2D4
  8
ﾚｲﾔ_1
 62
     5
 10
1058.30171875
 20
-368.63821761470001
 30
0.0
 11
1059.31171875
 21
-366.47226562499998
 31
0.0
  0
LINE
  5
2D5
  8
ﾚｲﾔ_1
 62
     5
 10
1057.1617187500001
 20
-375.71067562660011
 30
0.0
 11
1045.1617187500001
 21
-375.71067562660011
 31
0.0
  0
LINE
  5
2D6
  8
ﾚｲﾔ_1
 62
     5
 10
1057.1617187500001
 20
-389.97226562499998
 30
0.0
 11
1057.1617187500001
 21
-375.71067562660011
 31
0.0
  0
LINE
  5
2D7
  8
ﾚｲﾔ_1
 62
     5
 10
1058.30171875
 20
-368.63821761470001
 30
0.0
 11
1044.02171875
 21
-368.63821761470001
 31
0.0
  0
INSERT
  5
2D8
  8
0
  6
CONTINUOUS
  2
*U53
 10
0.0
 20
0.0
 30
0.0
  0
LINE
  5
2D9
  8
ﾚｲﾔ_1
 62
     5
 10
1022.16171875
 20
-409.97226562510002
 30
0.0
 11
1026.46171875
 21
-409.97226562510002
 31
0.0
  0
LINE
  5
2DA
  8
ﾚｲﾔ_1
 62
     5
 10
1020.96171875
 20
-404.47226562499998
 30
0.0
 11
1020.96171875
 21
-405.47226562539993
 31
0.0
  0
LINE
  5
2DB
  8
ﾚｲﾔ_1
 62
     5
 10
1020.96171875
 20
-405.47226562539993
 30
-3.2999999999999989
 11
1021.96171875
 21
-405.47226562539993
 31
-3.2999999999999989
  0
LINE
  5
2DC
  8
ﾚｲﾔ_1
 62
     5
 10
1020.96171875
 20
-407.96824880949998
 30
-3.2999999999999989
 11
1022.16171875
 21
-407.96824880949998
 31
-3.2999999999999989
  0
LINE
  5
2DD
  8
ﾚｲﾔ_1
 62
     5
 10
1024.1617187500001
 20
-408.48337262389998
 30
0.0
 11
1024.1617187500001
 21
-404.47226562499998
 31
0.0
  0
LINE
  5
2DE
  8
ﾚｲﾔ_1
 62
     5
 10
1026.46171875
 20
-408.48337262389998
 30
0.0
 11
1024.1617187500001
 21
-408.48337262389998
 31
0.0
  0
LINE
  5
2DF
  8
ﾚｲﾔ_1
 62
     5
 10
1043.1135393362999
 20
-402.78776562500002
 30
0.0
 11
1044.1617187500001
 21
-400.97226562499998
 31
0.0
  0
LINE
  5
2E0
  8
ﾚｲﾔ_1
 62
     5
 10
1046.1617187500001
 20
-400.97226562499998
 30
0.0
 11
1044.1617187500001
 21
-400.97226562499998
 31
0.0
  0
LINE
  5
2E1
  8
ﾚｲﾔ_1
 62
     5
 10
1039.1617187500001
 20
-403.949765625
 30
0.0
 11
1041.1743617883999
 21
-402.78776562500002
 31
0.0
  0
LINE
  5
2E2
  8
ﾚｲﾔ_1
 62
     5
 10
1039.1617187500001
 20
-403.949765625
 30
0.0
 11
1039.1617187500001
 21
-393.47226562499998
 31
0.0
  0
LINE
  5
2E3
  8
ﾚｲﾔ_1
 62
     5
 10
1025.6962187500001
 20
-402.78776562500002
 30
0.0
 11
1043.1135393362999
 21
-402.78776562500002
 31
0.0
  0
LINE
  5
2E4
  8
ﾚｲﾔ_1
 62
     5
 10
1025.3228319171999
 20
-408.48337262389998
 30
0.0
 11
1040.0006055828001
 21
-408.48337262389998
 31
0.0
  0
LINE
  5
2E5
  8
ﾚｲﾔ_1
 62
     5
 10
1048.9117187500001
 20
-406.47226562499992
 30
0.0
 11
1041.1617187500001
 21
-406.47226562499992
 31
0.0
  0
LINE
  5
2E6
  8
ﾚｲﾔ_1
 62
     5
 10
1041.1617187500001
 20
-406.47226562499992
 30
0.0
 11
1040.0006055828001
 21
-408.48337262389998
 31
0.0
  0
ARC
  5
2E7
  8
ﾚｲﾔ_1
 62
     5
 10
1041.6117187499999
 20
-379.65168848839988
 30
0.0
 40
0.8
 50
210.0
 51
0.0
  0
LINE
  5
2E8
  8
ﾚｲﾔ_1
 62
     5
 10
1039.1617187500001
 20
-382.99476562500001
 30
0.0
 11
1041.1743617883999
 21
-384.15676562499999
 31
0.0
  0
LINE
  5
2E9
  8
ﾚｲﾔ_1
 62
     5
 10
1022.16171875
 20
-409.47226562499998
 30
0.0
 11
1022.16171875
 21
-408.47226562499992
 31
0.0
  0
ARC
  5
2EA
  8
ﾚｲﾔ_1
 62
     5
 10
1048.9117187500001
 20
-395.47226562499998
 30
0.0
 40
11.0
 50
270.0
 51
0.0
  0
LINE
  5
2EB
  8
ﾚｲﾔ_1
 62
     5
 10
1043.22171875
 20
-368.8155733448001
 30
0.0
 11
1042.21171875
 21
-366.64962135510001
 31
0.0
  0
LINE
  5
2EC
  8
ﾚｲﾔ_1
 62
     5
 10
1044.02171875
 20
-368.63821761470001
 30
0.0
 11
1043.01171875
 21
-366.47226562499998
 31
0.0
  0
LINE
  5
2ED
  8
ﾚｲﾔ_1
 62
     5
 10
1044.1617187500001
 20
-385.97226562499998
 30
0.0
 11
1043.1135393362999
 21
-384.15676562499999
 31
0.0
  0
LINE
  5
2EE
  8
ﾚｲﾔ_1
 62
     5
 10
1022.16171875
 20
-378.47226562499998
 30
0.0
 11
1022.16171875
 21
-377.47226562499998
 31
0.0
  0
LINE
  5
2EF
  8
ﾚｲﾔ_1
  6
CENTER
 62
     3
 10
1016.16171875
 20
-393.47226562499998
 30
0.0
 11
1039.6617187500001
 21
-393.47226562499998
 31
0.0
  0
LINE
  5
2F0
  8
ﾚｲﾔ_1
 62
     5
 10
1024.53421875
 20
-403.949765625
 30
0.0
 11
1039.1617187500001
 21
-403.949765625
 31
0.0
  0
LINE
  5
2F1
  8
ﾚｲﾔ_1
  6
CENTER
 62
     3
 10
1019.16171875
 20
-393.47226562499998
 30
0.0
 11
1046.1617187500001
 21
-393.47226562499998
 31
0.0
  0
LINE
  5
2F2
  8
ﾚｲﾔ_1
 62
     5
 10
1021.16171875
 20
-408.22226562499992
 30
0.0
 11
1022.16171875
 21
-408.22226562499992
 31
0.0
  0
LINE
  5
2F3
  8
ﾚｲﾔ_1
 62
     5
 10
1021.96171875
 20
-381.47226562460003
 30
0.0
 11
1021.96171875
 21
-379.97226562499998
 31
0.0
  0
LINE
  5
2F4
  8
ﾚｲﾔ_1
 62
     5
 10
1021.96171875
 20
-379.97226562499998
 30
0.0
 11
1020.96171875
 21
-379.97226562499998
 31
0.0
  0
LINE
  5
2F5
  8
ﾚｲﾔ_1
 62
     5
 10
1020.96171875
 20
-379.97226562499998
 30
0.0
 11
1020.96171875
 21
-378.97226562669999
 31
0.0
  0
LINE
  5
2F6
  8
ﾚｲﾔ_1
 62
     5
 10
1025.3228319171999
 20
-378.46115862610009
 30
0.0
 11
1040.0006055828001
 21
-378.46115862610009
 31
0.0
  0
LINE
  5
2F7
  8
ﾚｲﾔ_1
 62
     5
 10
1026.46171875
 20
-378.46115862610009
 30
0.0
 11
1024.1617187500001
 21
-378.46115862610009
 31
0.0
  0
LINE
  5
2F8
  8
ﾚｲﾔ_1
 62
     5
 10
1024.1617187500001
 20
-382.47226562499992
 30
0.0
 11
1020.96171875
 21
-382.47226562499992
 31
0.0
  0
LINE
  5
2F9
  8
ﾚｲﾔ_1
 62
     5
 10
1024.1617187500001
 20
-382.62226562500001
 30
0.0
 11
1025.6962187500001
 21
-384.15676562499999
 31
0.0
  0
LINE
  5
2FA
  8
ﾚｲﾔ_1
 62
     5
 10
1020.96171875
 20
-381.47226562460003
 30
-3.2999999999999989
 11
1021.96171875
 21
-381.47226562460003
 31
-3.2999999999999989
  0
LINE
  5
2FB
  8
ﾚｲﾔ_1
 62
     5
 10
1026.46171875
 20
-376.97226562489999
 30
0.0
 11
1026.46171875
 21
-378.46115862610009
 31
0.0
  0
LINE
  5
2FC
  8
ﾚｲﾔ_1
 62
     5
 10
1020.96171875
 20
-382.47226562499992
 30
0.0
 11
1020.96171875
 21
-381.47226562460003
 31
0.0
  0
LINE
  5
2FD
  8
ﾚｲﾔ_1
 62
     5
 10
1022.16171875
 20
-376.97226562489999
 30
0.0
 11
1026.46171875
 21
-376.97226562489999
 31
0.0
  0
LINE
  5
2FE
  8
ﾚｲﾔ_1
 62
     5
 10
1022.16171875
 20
-378.97628244049997
 30
0.0
 11
1022.16171875
 21
-376.97226562489999
 31
0.0
  0
LINE
  5
2FF
  8
ﾚｲﾔ_1
 62
     5
 10
1058.30171875
 20
-369.47226562499998
 30
0.0
 11
1058.30171875
 21
-368.63821761470001
 31
0.0
  0
LINE
  5
300
  8
ﾚｲﾔ_1
 62
     5
 10
1043.1617187500001
 20
-346.28202707199989
 30
0.0
 11
1042.9117187500001
 21
-346.28202707199989
 31
0.0
  0
LINE
  5
301
  8
ﾚｲﾔ_1
 62
     5
 10
1043.1617187500001
 20
-345.47226562499998
 30
0.0
 11
1042.9117187500001
 21
-345.47226562499998
 31
0.0
  0
LINE
  5
302
  8
ﾚｲﾔ_1
 62
     5
 10
1059.31171875
 20
-366.47226562499998
 30
0.0
 11
1043.01171875
 21
-366.47226562499998
 31
0.0
  0
LINE
  5
303
  8
ﾚｲﾔ_1
 62
     5
 10
1024.1617187500001
 20
-378.46115862610009
 30
0.0
 11
1024.1617187500001
 21
-382.47226562499992
 31
0.0
  0
LINE
  5
304
  8
ﾚｲﾔ_1
 62
     5
 10
1042.9117187500001
 20
-346.28202707199989
 30
0.0
 11
1042.9117187500001
 21
-345.47226562499998
 31
0.0
  0
LINE
  5
305
  8
ﾚｲﾔ_1
 62
     5
 10
1059.4117187500001
 20
-346.28202707199989
 30
0.0
 11
1059.4117187500001
 21
-345.47226562499998
 31
0.0
  0
ARC
  5
306
  8
ﾚｲﾔ_1
 62
     5
 10
1060.6117187499999
 20
-351.07427873789999
 30
0.0
 40
1.3
 50
136.0
 51
180.0
  0
LINE
  5
307
  8
ﾚｲﾔ_1
 62
     5
 10
1059.31171875
 20
-350.54904464430001
 30
0.0
 11
1059.1617187500001
 21
-350.54904464430001
 31
0.0
  0
LINE
  5
308
  8
ﾚｲﾔ_1
 62
     5
 10
1059.4117187500001
 20
-346.28202707199989
 30
0.0
 11
1059.1617187500001
 21
-346.28202707199989
 31
0.0
  0
LINE
  5
309
  8
ﾚｲﾔ_1
 62
     5
 10
1059.4117187500001
 20
-345.47226562499998
 30
0.0
 11
1059.1617187500001
 21
-345.47226562499998
 31
0.0
  0
LINE
  5
30A
  8
ﾚｲﾔ_1
 62
     5
 10
1020.96171875
 20
-378.97628244049997
 30
-3.2999999999999989
 11
1022.16171875
 21
-378.97628244049997
 31
-3.2999999999999989
  0
LINE
  5
30B
  8
ﾚｲﾔ_1
 62
     5
 10
1021.16171875
 20
-381.47226562460003
 30
0.0
 11
1021.16171875
 21
-379.97226562499998
 31
0.0
  0
LINE
  5
30C
  8
ﾚｲﾔ_1
 62
     5
 10
1021.16171875
 20
-378.97628244049997
 30
0.0
 11
1021.16171875
 21
-378.72226562499998
 31
0.0
  0
LINE
  5
30D
  8
ﾚｲﾔ_1
 62
     5
 10
1024.1617187500001
 20
-380.47226562499998
 30
0.0
 11
1025.3228319171999
 21
-378.46115862610009
 31
0.0
  0
LINE
  5
30E
  8
ﾚｲﾔ_1
 62
     5
 10
1057.1617187500001
 20
-375.71067562660011
 30
0.0
 11
1058.26171875
 21
-369.47226562499998
 31
0.0
  0
LINE
  5
30F
  8
ﾚｲﾔ_1
 62
     5
 10
1043.1617187500001
 20
-366.47226562499998
 30
0.0
 11
1059.1617187500001
 21
-366.47226562499998
 31
0.0
  0
LINE
  5
310
  8
ﾚｲﾔ_1
 62
     5
 10
1059.9117187500001
 20
-374.29285517170001
 30
0.0
 11
1059.06171875
 21
-369.47226562499998
 31
0.0
  0
LINE
  5
311
  8
ﾚｲﾔ_1
 62
     5
 10
1059.1017187499999
 20
-369.47226562499998
 30
0.0
 11
1043.22171875
 21
-369.47226562499998
 31
0.0
  0
LINE
  5
312
  8
ﾚｲﾔ_1
 62
     5
 10
1045.1617187500001
 20
-385.97226562499998
 30
0.0
 11
1044.1617187500001
 21
-385.97226562499998
 31
0.0
  0
LINE
  5
313
  8
ﾚｲﾔ_1
 62
     5
 10
1045.1617187500001
 20
-385.97226562499998
 30
0.0
 11
1045.1617187500001
 21
-375.71067562660011
 31
0.0
  0
LINE
  5
314
  8
ﾚｲﾔ_1
 62
     5
 10
1044.02171875
 20
-369.47226562499998
 30
0.0
 11
1044.02171875
 21
-368.63821761470001
 31
0.0
  0
LINE
  5
315
  8
ﾚｲﾔ_1
 62
     5
 10
1045.1617187500001
 20
-375.71067562660011
 30
0.0
 11
1044.06171875
 21
-369.47226562499998
 31
0.0
  0
LINE
  5
316
  8
ﾚｲﾔ_1
 62
     5
 10
1040.9188984269999
 20
-380.05168848839998
 30
0.0
 11
1040.0006055828001
 21
-378.46115862610009
 31
0.0
  0
LINE
  5
317
  8
ﾚｲﾔ_1
 62
     5
 10
1042.4117187500001
 20
-379.65168848839988
 30
0.0
 11
1042.4117187500001
 21
-374.29285517170001
 31
0.0
  0
LINE
  5
318
  8
ﾚｲﾔ_1
 62
     5
 10
1042.4117187500001
 20
-374.29285517170001
 30
0.0
 11
1043.26171875
 21
-369.47226562499998
 31
0.0
  0
INSERT
  5
319
  8
0
  6
CONTINUOUS
  2
*U54
 10
0.0
 20
0.0
 30
0.0
  0
INSERT
  5
31A
  8
0
  6
CONTINUOUS
  2
*U55
 10
0.0
 20
0.0
 30
0.0
  0
INSERT
  5
31B
  8
0
  6
CONTINUOUS
  2
*U56
 10
0.0
 20
0.0
 30
0.0
  0
LINE
  5
31C
  8
図枠
 10
1078.8207978462001
 20
-638.12543807789984
 30
0.0
 11
1078.8207978462001
 21
-625.62543807789984
 31
0.0
  0
INSERT
  5
31D
  8
0
  6
CONTINUOUS
  2
*U57
 10
0.0
 20
0.0
 30
0.0
  0
INSERT
  5
31E
  8
0
  6
CONTINUOUS
  2
*U58
 10
0.0
 20
0.0
 30
0.0
  0
INSERT
  5
31F
  8
0
  6
CONTINUOUS
  2
*U59
 10
0.0
 20
0.0
 30
0.0
  0
LINE
  5
320
  8
図枠
 10
1101.3207978462001
 20
-638.12543807789984
 30
0.0
 11
1101.3207978462001
 21
-625.62543807789984
 31
0.0
  0
ARC
  5
321
  8
ﾚｲﾔ_1
 62
     5
 10
1089.46171875
 20
-490.97226562499992
 30
0.0
 40
2.5
 50
270.0
 51
0.0
  0
LINE
  5
322
  8
ﾚｲﾔ_1
 62
     5
 10
1090.1617187500001
 20
-490.97226562499992
 30
0.0
 11
1091.1617187500001
 21
-490.97226562499992
 31
0.0
  0
ARC
  5
323
  8
ﾚｲﾔ_1
 62
     5
 10
1089.6617187500001
 20
-490.97226562499992
 30
0.0
 40
1.5
 50
270.0
 51
0.0
  0
LINE
  5
324
  8
ﾚｲﾔ_1
 62
     5
 10
812.03916367910006
 20
-477.17226562500002
 30
0.0
 11
883.63916367910008
 21
-477.17226562500002
 31
0.0
  0
LINE
  5
325
  8
ﾚｲﾔ_1
 62
     5
 10
1043.22171875
 20
-369.47226562499998
 30
0.0
 11
1043.22171875
 21
-368.8155733448001
 31
0.0
  0
LINE
  5
326
  8
ﾚｲﾔ_1
 62
     5
 10
1025.6962187500001
 20
-384.15676562499999
 30
0.0
 11
1043.1135393362999
 21
-384.15676562499999
 31
0.0
  0
LINE
  5
327
  8
ﾚｲﾔ_1
 62
     5
 10
1042.9117187500001
 20
-345.48793486289998
 30
0.0
 11
1041.9711510587999
 21
-345.6353146516999
 31
0.0
  0
ARC
  5
328
  8
ﾚｲﾔ_1
 62
     5
 10
1042.31171875
 20
-347.80879426920001
 30
0.0
 40
2.2000000000000002
 50
98.905399848399995
 51
224.0
  0
ARC
  5
329
  8
ﾚｲﾔ_1
 62
     5
 10
1042.31171875
 20
-347.80879426920001
 30
0.0
 40
1.399999999999999
 50
98.905399848399995
 51
224.0
  0
ARC
  5
32A
  8
ﾚｲﾔ_1
 62
     5
 10
1041.71171875
 20
-351.07427873789999
 30
0.0
 40
0.5
 50
0.0
 51
44.0
  0
ARC
  5
32B
  8
ﾚｲﾔ_1
 62
     5
 10
1041.71171875
 20
-351.07427873789999
 30
0.0
 40
1.3
 50
0.0
 51
44.0
  0
LINE
  5
32C
  8
ﾚｲﾔ_1
 62
     5
 10
1042.9117187500001
 20
-346.29769630980002
 30
0.0
 11
1042.0949938556
 21
-346.42567087629999
 31
0.0
  0
LINE
  5
32D
  8
ﾚｲﾔ_1
 62
     5
 10
1042.6468604904001
 20
-350.17122285630001
 30
0.0
 11
1041.3046430295001
 21
-348.78131598779999
 31
0.0
  0
LINE
  5
32E
  8
ﾚｲﾔ_1
 62
     5
 10
1042.0713886502001
 20
-350.72694955269998
 30
0.0
 11
1040.7291711892999
 21
-349.33704268420001
 31
0.0
  0
CIRCLE
  5
32F
  8
ﾚｲﾔ_1
 62
     5
 10
1042.0267187500001
 20
-347.56497408159998
 30
0.0
 40
1.1149999999999991
  0
LINE
  5
330
  8
ﾚｲﾔ_1
 62
     5
 10
1043.1617187500001
 20
-350.54904464430001
 30
0.0
 11
1043.01171875
 21
-350.54904464430001
 31
0.0
  0
LINE
  5
331
  8
ﾚｲﾔ_1
 62
     5
 10
1043.1617187500001
 20
-348.67997408159999
 30
0.0
 11
1042.0267187500001
 21
-348.67997408159999
 31
0.0
  0
LINE
  5
332
  8
図枠
 10
970.16763583910006
 20
-702.18375566070006
 30
0.0
 11
976.41430250580004
 21
-702.18375566070006
 31
0.0
  0
LINE
  5
333
  8
図枠
 10
985.36551770949995
 20
-708.68375566069994
 30
0.0
 11
992.66763583909994
 21
-708.68375566069994
 31
0.0
  0
LINE
  5
334
  8
図枠
 10
987.66763583909994
 20
-716.68375566069994
 30
0.0
 11
986.66045915740006
 21
-713.18375566069994
 31
0.0
  0
LINE
  5
335
  8
図枠
 10
992.66763583909994
 20
-702.18375566070006
 30
0.0
 11
992.66763583909994
 21
-706.68375566069994
 31
0.0
  0
CIRCLE
  5
336
  8
図枠
 10
962.32079784619998
 20
-651.87543807789984
 30
0.0
 40
6.0
  0
LINE
  5
337
  8
図枠
 10
970.16763583910006
 20
-706.68375566069994
 30
0.0
 11
977.73430250579997
 21
-706.68375566069994
 31
0.0
  0
LINE
  5
338
  8
図枠
 10
962.12392921840001
 20
-701.68375566070006
 30
0.0
 11
964.62392921840012
 21
-697.93375566069994
 31
0.0
  0
CIRCLE
  5
339
  8
図枠
 10
962.32079784619998
 20
-651.87543807789984
 30
0.0
 40
6.0
  0
LINE
  5
33A
  8
図枠
 10
983.12906110369988
 20
-700.91193343449993
 30
0.0
 11
985.16763583910006
 21
-697.93375566069994
 31
0.0
  0
LINE
  5
33B
  8
図枠
 10
976.03559162539989
 20
-654.87543807789996
 30
0.0
 11
988.03559162539977
 21
-657.87543807789984
 31
0.0
  0
INSERT
  5
33C
  8
0
  6
CONTINUOUS
  2
*U60
 10
0.0
 20
0.0
 30
0.0
  0
INSERT
  5
33D
  8
0
  6
CONTINUOUS
  2
*U61
 10
0.0
 20
0.0
 30
0.0
  0
INSERT
  5
33E
  8
0
  6
CONTINUOUS
  2
*U62
 10
0.0
 20
0.0
 30
0.0
  0
INSERT
  5
33F
  8
0
  6
CONTINUOUS
  2
*U63
 10
0.0
 20
0.0
 30
0.0
  0
INSERT
  5
340
  8
0
  6
CONTINUOUS
  2
*U64
 10
0.0
 20
0.0
 30
0.0
  0
INSERT
  5
341
  8
0
  6
CONTINUOUS
  2
*U65
 10
0.0
 20
0.0
 30
0.0
  0
INSERT
  5
342
  8
0
  6
CONTINUOUS
  2
*U66
 10
0.0
 20
0.0
 30
0.0
  0
INSERT
  5
343
  8
0
  6
CONTINUOUS
  2
*U67
 10
0.0
 20
0.0
 30
0.0
  0
ARC
  5
344
  8
ﾚｲﾔ_1
 62
     5
 10
1022.66171875
 20
-490.97226562499992
 30
0.0
 40
1.5
 50
180.0
 51
270.0
  0
LINE
  5
345
  8
ﾚｲﾔ_1
 62
     5
 10
1021.16171875
 20
-490.97226562499992
 30
0.0
 11
1022.16171875
 21
-490.97226562499992
 31
0.0
  0
ARC
  5
346
  8
ﾚｲﾔ_1
 62
     5
 10
1022.86171875
 20
-490.97226562499992
 30
0.0
 40
2.5
 50
180.0
 51
270.0
  0
INSERT
  5
347
  8
0
  6
CONTINUOUS
  2
*U68
 10
0.0
 20
0.0
 30
0.0
  0
INSERT
  5
348
  8
0
  6
CONTINUOUS
  2
*U69
 10
0.0
 20
0.0
 30
0.0
  0
INSERT
  5
349
  8
0
  6
CONTINUOUS
  2
*U70
 10
0.0
 20
0.0
 30
0.0
  0
INSERT
  5
34A
  8
0
  6
CONTINUOUS
  2
*U71
 10
0.0
 20
0.0
 30
0.0
  0
LINE
  5
34B
  8
図枠
 10
976.03559162539989
 20
-648.87543807789984
 30
0.0
 11
976.03559162539989
 21
-654.87543807789996
 31
0.0
  0
ARC
  5
34C
  8
図枠
 10
948.37392921839989
 20
-701.68375566070006
 30
0.0
 40
13.75
 50
322.48761197969998
 51
0.0
  0
LINE
  5
34D
  8
図枠
 10
962.12392921840001
 20
-701.68375566070006
 30
0.0
 11
964.62392921840012
 21
-697.93375566069994
 31
0.0
  0
LINE
  5
34E
  8
図枠
 10
975.16763583909994
 20
-697.93375566069994
 30
0.0
 11
985.16763583910006
 21
-697.93375566069994
 31
0.0
  0
LINE
  5
34F
  8
図枠
 10
976.03559162539989
 20
-654.87543807789996
 30
0.0
 11
988.03559162539977
 21
-657.87543807789984
 31
0.0
  0
LINE
  5
350
  8
図枠
 10
988.03559162539977
 20
-645.87543807789984
 30
0.0
 11
988.03559162539977
 21
-657.87543807789984
 31
0.0
  0
LINE
  5
351
  8
図枠
 10
976.03559162539989
 20
-654.87543807789996
 30
0.0
 11
988.03559162539977
 21
-657.87543807789984
 31
0.0
  0
LINE
  5
352
  8
図枠
 10
988.03559162539977
 20
-645.87543807789984
 30
0.0
 11
988.03559162539977
 21
-657.87543807789984
 31
0.0
  0
LINE
  5
353
  8
図枠
 10
976.03559162539989
 20
-648.87543807789984
 30
0.0
 11
988.03559162539977
 21
-645.87543807789984
 31
0.0
  0
LINE
  5
354
  8
図枠
 10
976.03559162539989
 20
-648.87543807789984
 30
0.0
 11
976.03559162539989
 21
-654.87543807789996
 31
0.0
  0
LINE
  5
355
  8
図枠
 10
970.16763583910006
 20
-708.68375566069994
 30
0.0
 11
970.16763583910006
 21
-713.18375566069994
 31
0.0
  0
LINE
  5
356
  8
図枠
 10
988.03559162539977
 20
-645.87543807789984
 30
0.0
 11
988.03559162539977
 21
-657.87543807789984
 31
0.0
  0
LINE
  5
357
  8
図枠
  6
BORDER
 10
962.32079784619998
 20
-642.87543807789984
 30
0.0
 11
962.32079784619998
 21
-660.87543807789984
 31
0.0
  0
LINE
  5
358
  8
図枠
 10
986.66045915740006
 20
-713.18375566069994
 30
0.0
 11
992.66763583909994
 21
-713.18375566069994
 31
0.0
  0
LINE
  5
359
  8
図枠
 10
987.66763583909994
 20
-716.68375566069994
 30
0.0
 11
980.66763583909994
 21
-716.68375566069994
 31
0.0
  0
LINE
  5
35A
  8
図枠
 10
976.03559162539989
 20
-648.87543807789984
 30
0.0
 11
988.03559162539977
 21
-645.87543807789984
 31
0.0
  0
CIRCLE
  5
35B
  8
図枠
 10
962.32079784619998
 20
-651.87543807789984
 30
0.0
 40
6.0
  0
LINE
  5
35C
  8
図枠
 10
985.36551770949995
 20
-708.68375566069994
 30
0.0
 11
984.7899881771001
 21
-706.68375566069994
 31
0.0
  0
LINE
  5
35D
  8
図枠
 10
983.49504672919988
 20
-702.18375566070006
 30
0.0
 11
992.66763583909994
 21
-702.18375566070006
 31
0.0
  0
LINE
  5
35E
  8
図枠
 10
983.49504672919988
 20
-702.18375566070006
 30
0.0
 11
983.12906110369988
 21
-700.91193343449993
 31
0.0
  0
LINE
  5
35F
  8
図枠
 10
976.03559162539989
 20
-654.87543807789996
 30
0.0
 11
988.03559162539977
 21
-657.87543807789984
 31
0.0
  0
LINE
  5
360
  8
図枠
 10
976.03559162539989
 20
-648.87543807789984
 30
0.0
 11
988.03559162539977
 21
-645.87543807789984
 31
0.0
  0
LINE
  5
361
  8
図枠
 10
976.03559162539989
 20
-648.87543807789984
 30
0.0
 11
976.03559162539989
 21
-654.87543807789996
 31
0.0
  0
LINE
  5
362
  8
図枠
  6
BORDER
 10
962.32079784619998
 20
-642.87543807789984
 30
0.0
 11
962.32079784619998
 21
-660.87543807789984
 31
0.0
  0
CIRCLE
  5
363
  8
図枠
 10
962.32079784619998
 20
-651.87543807789984
 30
0.0
 40
6.0
  0
LINE
  5
364
  8
図枠
 10
976.41430250580004
 20
-702.18375566070006
 30
0.0
 11
975.16763583909994
 21
-697.93375566069994
 31
0.0
  0
LINE
  5
365
  8
図枠
  6
BORDER
 10
962.32079784619998
 20
-642.87543807789984
 30
0.0
 11
962.32079784619998
 21
-660.87543807789984
 31
0.0
  0
CIRCLE
  5
366
  8
図枠
 10
962.32079784619998
 20
-651.87543807789984
 30
0.0
 40
3.0
  0
LINE
  5
367
  8
図枠
 10
976.03559162539989
 20
-648.87543807789984
 30
0.0
 11
988.03559162539977
 21
-645.87543807789984
 31
0.0
  0
LINE
  5
368
  8
図枠
 10
978.32096917249999
 20
-708.68375566069994
 30
0.0
 11
977.73430250579997
 21
-706.68375566069994
 31
0.0
  0
LINE
  5
369
  8
図枠
 10
1003.8207978462
 20
-638.12543807789984
 30
0.0
 11
1003.8207978462
 21
-720.62543807789984
 31
0.0
  0
INSERT
  5
36A
  8
0
  6
CONTINUOUS
  2
*U72
 10
0.0
 20
0.0
 30
0.0
  0
INSERT
  5
36B
  8
0
  6
CONTINUOUS
  2
*U73
 10
0.0
 20
0.0
 30
0.0
  0
INSERT
  5
36C
  8
0
  6
CONTINUOUS
  2
*U74
 10
0.0
 20
0.0
 30
0.0
  0
LINE
  5
36D
  8
図枠
 10
984.7899881771001
 20
-706.68375566069994
 30
0.0
 11
992.66763583909994
 21
-706.68375566069994
 31
0.0
  0
LINE
  5
36E
  8
図枠
 10
964.62392921840012
 20
-711.68375566069994
 30
0.0
 11
964.62392921840012
 21
-715.43375566069994
 31
0.0
  0
LINE
  5
36F
  8
図枠
 10
980.66763583909994
 20
-716.68375566069994
 30
0.0
 11
979.64096917250015
 21
-713.18375566069994
 31
0.0
  0
LINE
  5
370
  8
図枠
 10
970.16763583910006
 20
-713.18375566069994
 30
0.0
 11
979.64096917250015
 21
-713.18375566069994
 31
0.0
  0
LINE
  5
371
  8
図枠
 10
970.16763583910006
 20
-708.68375566069994
 30
0.0
 11
978.32096917249999
 21
-708.68375566069994
 31
0.0
  0
LINE
  5
372
  8
図枠
 10
970.16763583910006
 20
-702.18375566070006
 30
0.0
 11
970.16763583910006
 21
-706.68375566069994
 31
0.0
  0
CIRCLE
  5
373
  8
図枠
 10
962.32079784619998
 20
-651.87543807789984
 30
0.0
 40
3.0
  0
LINE
  5
374
  8
図枠
 10
992.66763583909994
 20
-708.68375566069994
 30
0.0
 11
992.66763583909994
 21
-713.18375566069994
 31
0.0
  0
LINE
  5
375
  8
図枠
  6
BORDER
 10
962.32079784619998
 20
-642.87543807789984
 30
0.0
 11
962.32079784619998
 21
-660.87543807789984
 31
0.0
  0
CIRCLE
  5
376
  8
図枠
 10
962.32079784619998
 20
-651.87543807789984
 30
0.0
 40
3.0
  0
LINE
  5
377
  8
図枠
 10
963.82079784619998
 20
-638.12543807789984
 30
0.0
 11
963.82079784619998
 21
-625.62543807789984
 31
0.0
  0
POLYLINE
  8
図枠
  5
7C7
  66
     1
 10
0.000000
 20
0.000000
 30
0.000000
  70
     8
  0
VERTEX
  8
図枠
  5
7C8
 10
958.835
 20
-710.493
 30
0.000000
  70
    32
  0
VERTEX
  8
図枠
  5
7C9
 10
958.879
 20
-710.505
 30
0.000000
  70
    32
  0
VERTEX
  8
図枠
  5
7CA
 10
958.923
 20
-710.517
 30
0.000000
  70
    32
  0
VERTEX
  8
図枠
  5
7CB
 10
958.967
 20
-710.529
 30
0.000000
  70
    32
  0
VERTEX
  8
図枠
  5
7CC
 10
959.011
 20
-710.542
 30
0.000000
  70
    32
  0
VERTEX
  8
図枠
  5
7CD
 10
959.054
 20
-710.554
 30
0.000000
  70
    32
  0
VERTEX
  8
図枠
  5
7CE
 10
959.098
 20
-710.566
 30
0.000000
  70
    32
  0
VERTEX
  8
図枠
  5
7CF
 10
959.142
 20
-710.578
 30
0.000000
  70
    32
  0
VERTEX
  8
図枠
  5
7D0
 10
959.186
 20
-710.590
 30
0.000000
  70
    32
  0
VERTEX
  8
図枠
  5
7D1
 10
959.230
 20
-710.602
 30
0.000000
  70
    32
  0
VERTEX
  8
図枠
  5
7D2
 10
959.275
 20
-710.613
 30
0.000000
  70
    32
  0
VERTEX
  8
図枠
  5
7D3
 10
959.319
 20
-710.625
 30
0.000000
  70
    32
  0
VERTEX
  8
図枠
  5
7D4
 10
959.363
 20
-710.637
 30
0.000000
  70
    32
  0
VERTEX
  8
図枠
  5
7D5
 10
959.407
 20
-710.648
 30
0.000000
  70
    32
  0
VERTEX
  8
図枠
  5
7D6
 10
959.451
 20
-710.660
 30
0.000000
  70
    32
  0
VERTEX
  8
図枠
  5
7D7
 10
959.496
 20
-710.671
 30
0.000000
  70
    32
  0
VERTEX
  8
図枠
  5
7D8
 10
959.540
 20
-710.683
 30
0.000000
  70
    32
  0
VERTEX
  8
図枠
  5
7D9
 10
959.584
 20
-710.694
 30
0.000000
  70
    32
  0
VERTEX
  8
図枠
  5
7DA
 10
959.629
 20
-710.705
 30
0.000000
  70
    32
  0
VERTEX
  8
図枠
  5
7DB
 10
959.673
 20
-710.716
 30
0.000000
  70
    32
  0
VERTEX
  8
図枠
  5
7DC
 10
959.718
 20
-710.727
 30
0.000000
  70
    32
  0
VERTEX
  8
図枠
  5
7DD
 10
959.762
 20
-710.738
 30
0.000000
  70
    32
  0
VERTEX
  8
図枠
  5
7DE
 10
959.807
 20
-710.749
 30
0.000000
  70
    32
  0
VERTEX
  8
図枠
  5
7DF
 10
959.851
 20
-710.760
 30
0.000000
  70
    32
  0
VERTEX
  8
図枠
  5
7E0
 10
959.896
 20
-710.771
 30
0.000000
  70
    32
  0
VERTEX
  8
図枠
  5
7E1
 10
959.941
 20
-710.782
 30
0.000000
  70
    32
  0
VERTEX
  8
図枠
  5
7E2
 10
959.985
 20
-710.793
 30
0.000000
  70
    32
  0
VERTEX
  8
図枠
  5
7E3
 10
960.030
 20
-710.804
 30
0.000000
  70
    32
  0
VERTEX
  8
図枠
  5
7E4
 10
960.075
 20
-710.814
 30
0.000000
  70
    32
  0
VERTEX
  8
図枠
  5
7E5
 10
960.120
 20
-710.825
 30
0.000000
  70
    32
  0
VERTEX
  8
図枠
  5
7E6
 10
960.165
 20
-710.835
 30
0.000000
  70
    32
  0
VERTEX
  8
図枠
  5
7E7
 10
960.209
 20
-710.846
 30
0.000000
  70
    32
  0
VERTEX
  8
図枠
  5
7E8
 10
960.254
 20
-710.856
 30
0.000000
  70
    32
  0
VERTEX
  8
図枠
  5
7E9
 10
960.299
 20
-710.867
 30
0.000000
  70
    32
  0
VERTEX
  8
図枠
  5
7EA
 10
960.344
 20
-710.877
 30
0.000000
  70
    32
  0
VERTEX
  8
図枠
  5
7EB
 10
960.389
 20
-710.887
 30
0.000000
  70
    32
  0
VERTEX
  8
図枠
  5
7EC
 10
960.434
 20
-710.898
 30
0.000000
  70
    32
  0
VERTEX
  8
図枠
  5
7ED
 10
960.480
 20
-710.908
 30
0.000000
  70
    32
  0
VERTEX
  8
図枠
  5
7EE
 10
960.525
 20
-710.918
 30
0.000000
  70
    32
  0
VERTEX
  8
図枠
  5
7EF
 10
960.570
 20
-710.928
 30
0.000000
  70
    32
  0
VERTEX
  8
図枠
  5
7F0
 10
960.615
 20
-710.938
 30
0.000000
  70
    32
  0
VERTEX
  8
図枠
  5
7F1
 10
960.660
 20
-710.948
 30
0.000000
  70
    32
  0
VERTEX
  8
図枠
  5
7F2
 10
960.705
 20
-710.958
 30
0.000000
  70
    32
  0
VERTEX
  8
図枠
  5
7F3
 10
960.751
 20
-710.968
 30
0.000000
  70
    32
  0
VERTEX
  8
図枠
  5
7F4
 10
960.796
 20
-710.978
 30
0.000000
  70
    32
  0
VERTEX
  8
図枠
  5
7F5
 10
960.841
 20
-710.987
 30
0.000000
  70
    32
  0
VERTEX
  8
図枠
  5
7F6
 10
960.887
 20
-710.997
 30
0.000000
  70
    32
  0
VERTEX
  8
図枠
  5
7F7
 10
960.932
 20
-711.007
 30
0.000000
  70
    32
  0
VERTEX
  8
図枠
  5
7F8
 10
960.977
 20
-711.016
 30
0.000000
  70
    32
  0
VERTEX
  8
図枠
  5
7F9
 10
961.023
 20
-711.026
 30
0.000000
  70
    32
  0
VERTEX
  8
図枠
  5
7FA
 10
961.068
 20
-711.036
 30
0.000000
  70
    32
  0
VERTEX
  8
図枠
  5
7FB
 10
961.114
 20
-711.045
 30
0.000000
  70
    32
  0
VERTEX
  8
図枠
  5
7FC
 10
961.159
 20
-711.055
 30
0.000000
  70
    32
  0
VERTEX
  8
図枠
  5
7FD
 10
961.205
 20
-711.064
 30
0.000000
  70
    32
  0
VERTEX
  8
図枠
  5
7FE
 10
961.250
 20
-711.073
 30
0.000000
  70
    32
  0
VERTEX
  8
図枠
  5
7FF
 10
961.296
 20
-711.083
 30
0.000000
  70
    32
  0
VERTEX
  8
図枠
  5
800
 10
961.342
 20
-711.092
 30
0.000000
  70
    32
  0
VERTEX
  8
図枠
  5
801
 10
961.387
 20
-711.101
 30
0.000000
  70
    32
  0
VERTEX
  8
図枠
  5
802
 10
961.433
 20
-711.111
 30
0.000000
  70
    32
  0
VERTEX
  8
図枠
  5
803
 10
961.479
 20
-711.120
 30
0.000000
  70
    32
  0
VERTEX
  8
図枠
  5
804
 10
961.524
 20
-711.129
 30
0.000000
  70
    32
  0
VERTEX
  8
図枠
  5
805
 10
961.570
 20
-711.138
 30
0.000000
  70
    32
  0
VERTEX
  8
図枠
  5
806
 10
961.616
 20
-711.147
 30
0.000000
  70
    32
  0
VERTEX
  8
図枠
  5
807
 10
961.662
 20
-711.156
 30
0.000000
  70
    32
  0
VERTEX
  8
図枠
  5
808
 10
961.708
 20
-711.165
 30
0.000000
  70
    32
  0
VERTEX
  8
図枠
  5
809
 10
961.753
 20
-711.174
 30
0.000000
  70
    32
  0
VERTEX
  8
図枠
  5
80A
 10
961.799
 20
-711.183
 30
0.000000
  70
    32
  0
VERTEX
  8
図枠
  5
80B
 10
961.845
 20
-711.192
 30
0.000000
  70
    32
  0
VERTEX
  8
図枠
  5
80C
 10
961.891
 20
-711.201
 30
0.000000
  70
    32
  0
VERTEX
  8
図枠
  5
80D
 10
961.937
 20
-711.210
 30
0.000000
  70
    32
  0
VERTEX
  8
図枠
  5
80E
 10
961.983
 20
-711.218
 30
0.000000
  70
    32
  0
VERTEX
  8
図枠
  5
80F
 10
962.029
 20
-711.227
 30
0.000000
  70
    32
  0
VERTEX
  8
図枠
  5
810
 10
962.075
 20
-711.236
 30
0.000000
  70
    32
  0
VERTEX
  8
図枠
  5
811
 10
962.121
 20
-711.245
 30
0.000000
  70
    32
  0
VERTEX
  8
図枠
  5
812
 10
962.167
 20
-711.253
 30
0.000000
  70
    32
  0
VERTEX
  8
図枠
  5
813
 10
962.213
 20
-711.262
 30
0.000000
  70
    32
  0
VERTEX
  8
図枠
  5
814
 10
962.259
 20
-711.271
 30
0.000000
  70
    32
  0
VERTEX
  8
図枠
  5
815
 10
962.305
 20
-711.279
 30
0.000000
  70
    32
  0
VERTEX
  8
図枠
  5
816
 10
962.351
 20
-711.288
 30
0.000000
  70
    32
  0
VERTEX
  8
図枠
  5
817
 10
962.397
 20
-711.296
 30
0.000000
  70
    32
  0
VERTEX
  8
図枠
  5
818
 10
962.443
 20
-711.305
 30
0.000000
  70
    32
  0
VERTEX
  8
図枠
  5
819
 10
962.490
 20
-711.313
 30
0.000000
  70
    32
  0
VERTEX
  8
図枠
  5
81A
 10
962.536
 20
-711.322
 30
0.000000
  70
    32
  0
VERTEX
  8
図枠
  5
81B
 10
962.582
 20
-711.330
 30
0.000000
  70
    32
  0
VERTEX
  8
図枠
  5
81C
 10
962.628
 20
-711.338
 30
0.000000
  70
    32
  0
VERTEX
  8
図枠
  5
81D
 10
962.674
 20
-711.347
 30
0.000000
  70
    32
  0
VERTEX
  8
図枠
  5
81E
 10
962.720
 20
-711.355
 30
0.000000
  70
    32
  0
VERTEX
  8
図枠
  5
81F
 10
962.767
 20
-711.363
 30
0.000000
  70
    32
  0
VERTEX
  8
図枠
  5
820
 10
962.813
 20
-711.372
 30
0.000000
  70
    32
  0
VERTEX
  8
図枠
  5
821
 10
962.859
 20
-711.380
 30
0.000000
  70
    32
  0
VERTEX
  8
図枠
  5
822
 10
962.906
 20
-711.388
 30
0.000000
  70
    32
  0
VERTEX
  8
図枠
  5
823
 10
962.952
 20
-711.396
 30
0.000000
  70
    32
  0
VERTEX
  8
図枠
  5
824
 10
962.998
 20
-711.405
 30
0.000000
  70
    32
  0
VERTEX
  8
図枠
  5
825
 10
963.044
 20
-711.413
 30
0.000000
  70
    32
  0
VERTEX
  8
図枠
  5
826
 10
963.091
 20
-711.421
 30
0.000000
  70
    32
  0
VERTEX
  8
図枠
  5
827
 10
963.137
 20
-711.429
 30
0.000000
  70
    32
  0
VERTEX
  8
図枠
  5
828
 10
963.183
 20
-711.437
 30
0.000000
  70
    32
  0
VERTEX
  8
図枠
  5
829
 10
963.230
 20
-711.445
 30
0.000000
  70
    32
  0
VERTEX
  8
図枠
  5
82A
 10
963.276
 20
-711.454
 30
0.000000
  70
    32
  0
VERTEX
  8
図枠
  5
82B
 10
963.323
 20
-711.462
 30
0.000000
  70
    32
  0
VERTEX
  8
図枠
  5
82C
 10
963.369
 20
-711.470
 30
0.000000
  70
    32
  0
VERTEX
  8
図枠
  5
82D
 10
963.415
 20
-711.478
 30
0.000000
  70
    32
  0
VERTEX
  8
図枠
  5
82E
 10
963.462
 20
-711.486
 30
0.000000
  70
    32
  0
VERTEX
  8
図枠
  5
82F
 10
963.508
 20
-711.494
 30
0.000000
  70
    32
  0
VERTEX
  8
図枠
  5
830
 10
963.555
 20
-711.502
 30
0.000000
  70
    32
  0
VERTEX
  8
図枠
  5
831
 10
963.601
 20
-711.510
 30
0.000000
  70
    32
  0
VERTEX
  8
図枠
  5
832
 10
963.647
 20
-711.518
 30
0.000000
  70
    32
  0
VERTEX
  8
図枠
  5
833
 10
963.694
 20
-711.526
 30
0.000000
  70
    32
  0
VERTEX
  8
図枠
  5
834
 10
963.740
 20
-711.534
 30
0.000000
  70
    32
  0
VERTEX
  8
図枠
  5
835
 10
963.787
 20
-711.542
 30
0.000000
  70
    32
  0
VERTEX
  8
図枠
  5
836
 10
963.833
 20
-711.550
 30
0.000000
  70
    32
  0
VERTEX
  8
図枠
  5
837
 10
963.880
 20
-711.558
 30
0.000000
  70
    32
  0
VERTEX
  8
図枠
  5
838
 10
963.926
 20
-711.566
 30
0.000000
  70
    32
  0
VERTEX
  8
図枠
  5
839
 10
963.973
 20
-711.573
 30
0.000000
  70
    32
  0
VERTEX
  8
図枠
  5
83A
 10
964.019
 20
-711.581
 30
0.000000
  70
    32
  0
VERTEX
  8
図枠
  5
83B
 10
964.066
 20
-711.589
 30
0.000000
  70
    32
  0
VERTEX
  8
図枠
  5
83C
 10
964.112
 20
-711.597
 30
0.000000
  70
    32
  0
VERTEX
  8
図枠
  5
83D
 10
964.159
 20
-711.605
 30
0.000000
  70
    32
  0
VERTEX
  8
図枠
  5
83E
 10
964.205
 20
-711.613
 30
0.000000
  70
    32
  0
VERTEX
  8
図枠
  5
83F
 10
964.252
 20
-711.621
 30
0.000000
  70
    32
  0
VERTEX
  8
図枠
  5
840
 10
964.298
 20
-711.629
 30
0.000000
  70
    32
  0
VERTEX
  8
図枠
  5
841
 10
964.345
 20
-711.637
 30
0.000000
  70
    32
  0
VERTEX
  8
図枠
  5
842
 10
964.391
 20
-711.644
 30
0.000000
  70
    32
  0
VERTEX
  8
図枠
  5
843
 10
964.438
 20
-711.652
 30
0.000000
  70
    32
  0
VERTEX
  8
図枠
  5
844
 10
964.484
 20
-711.660
 30
0.000000
  70
    32
  0
VERTEX
  8
図枠
  5
845
 10
964.531
 20
-711.668
 30
0.000000
  70
    32
  0
VERTEX
  8
図枠
  5
846
 10
964.577
 20
-711.676
 30
0.000000
  70
    32
  0
VERTEX
  8
図枠
  5
847
 10
964.624
 20
-711.684
 30
0.000000
  70
    32
  0
SEQEND
  8
図枠
  5
848
  0
LINE
  5
379
  8
図枠
 10
959.28072759860004
 20
-710.05658368310003
 30
0.0
 11
958.83547244919987
 21
-710.49252904360003
 31
0.0
  0
LINE
  5
37A
  8
図枠
 10
988.03559162539977
 20
-645.87543807789984
 30
0.0
 11
988.03559162539977
 21
-657.87543807789984
 31
0.0
  0
LINE
  5
37B
  8
図枠
 10
976.03559162539989
 20
-648.87543807789984
 30
0.0
 11
976.03559162539989
 21
-654.87543807789996
 31
0.0
  0
CIRCLE
  5
37C
  8
図枠
 10
962.32079784619998
 20
-651.87543807789984
 30
0.0
 40
3.0
  0
LINE
  5
37D
  8
図枠
 10
920.4724140669
 20
-702.93375566069994
 30
0.0
 11
920.4724140669
 21
-701.68375566070006
 31
0.0
  0
LINE
  5
37E
  8
図枠
 10
942.12392921839989
 20
-697.93375566069994
 30
0.0
 11
942.12392921839989
 21
-702.43375566069994
 31
0.0
  0
LINE
  5
37F
  8
図枠
 10
920.4724140669
 20
-706.68375566069994
 30
0.0
 11
925.47241406689989
 21
-706.68375566069994
 31
0.0
  0
LINE
  5
380
  8
図枠
 10
925.47241406689989
 20
-697.93375566069994
 30
0.0
 11
925.47241406689989
 21
-702.93375566069994
 31
0.0
  0
LINE
  5
381
  8
図枠
 10
931.72241406689989
 20
-702.93375566069994
 30
0.0
 11
931.72241406689989
 21
-701.68375566070006
 31
0.0
  0
LINE
  5
382
  8
図枠
 10
925.47241406689989
 20
-706.68375566069994
 30
0.0
 11
925.47241406689989
 21
-707.93375566070006
 31
0.0
  0
LINE
  5
383
  8
図枠
 10
931.72241406689989
 20
-701.68375566070006
 30
0.0
 11
935.4724140669
 21
-697.93375566069994
 31
0.0
  0
LINE
  5
384
  8
図枠
 10
942.12392921839989
 20
-715.43375566069994
 30
0.0
 11
942.12392921839989
 21
-711.68375566069994
 31
0.0
  0
LINE
  5
385
  8
図枠
 10
942.12392921839989
 20
-711.68375566069994
 30
0.0
 11
942.12392921839989
 21
-715.43375566069994
 31
0.0
  0
LINE
  5
386
  8
図枠
 10
942.12392921839989
 20
-715.43375566069994
 30
0.0
 11
948.37392921839989
 21
-715.43375566069994
 31
0.0
  0
LINE
  5
387
  8
図枠
 10
941.32079784619987
 20
-638.12543807789984
 30
0.0
 11
941.32079784619987
 21
-665.62543807789996
 31
0.0
  0
LINE
  5
388
  8
図枠
 10
931.72241406689989
 20
-707.93375566070006
 30
0.0
 11
931.72241406689989
 21
-706.68375566069994
 31
0.0
  0
LINE
  5
389
  8
図枠
 10
920.4724140669
 20
-701.68375566070006
 30
0.0
 11
924.2224140669
 21
-697.93375566069994
 31
0.0
  0
ARC
  5
38A
  8
図枠
 10
924.2224140669
 20
-707.93375566070006
 30
0.0
 40
7.5
 50
270.0
 51
0.0
  0
LINE
  5
38B
  8
図枠
 10
935.4724140669
 20
-702.93375566069994
 30
0.0
 11
935.4724140669
 21
-706.68375566069994
 31
0.0
  0
LINE
  5
38C
  8
図枠
 10
935.4724140669
 20
-697.93375566069994
 30
0.0
 11
925.47241406689989
 21
-697.93375566069994
 31
0.0
  0
LINE
  5
38D
  8
図枠
 10
931.72241406689989
 20
-706.68375566069994
 30
0.0
 11
935.4724140669
 21
-706.68375566069994
 31
0.0
  0
LINE
  5
38E
  8
図枠
 10
935.4724140669
 20
-702.93375566069994
 30
0.0
 11
931.72241406689989
 21
-702.93375566069994
 31
0.0
  0
ARC
  5
38F
  8
ﾚｲﾔ_1
 62
     5
 10
814.53916367910006
 20
-490.97226562499992
 30
0.0
 40
2.5
 50
180.0
 51
270.0
  0
LINE
  5
390
  8
ﾚｲﾔ_1
 62
     5
 10
814.53916367910006
 20
-493.47226562499992
 30
0.0
 11
881.13916367909997
 21
-493.47226562499992
 31
0.0
  0
ARC
  5
391
  8
ﾚｲﾔ_1
 62
     5
 10
881.13916367909997
 20
-490.97226562499992
 30
0.0
 40
2.5
 50
270.0
 51
0.0
  0
LINE
  5
392
  8
ﾚｲﾔ_1
 62
     5
 10
1022.86171875
 20
-493.47226562499992
 30
0.0
 11
1089.46171875
 21
-493.47226562499992
 31
0.0
  0
LINE
  5
393
  8
ﾚｲﾔ_1
 62
     5
 10
1022.66171875
 20
-492.47226562499998
 30
0.0
 11
1089.6617187500001
 21
-492.47226562499998
 31
0.0
  0
INSERT
  5
394
  8
0
  6
CONTINUOUS
  2
*U75
 10
0.0
 20
0.0
 30
0.0
  0
POLYLINE
  8
図枠
  5
849
  66
     1
 10
0.000000
 20
0.000000
 30
0.000000
  70
     8
  0
VERTEX
  8
図枠
  5
84A
 10
955.771
 20
-713.275
 30
0.000000
  70
    32
  0
VERTEX
  8
図枠
  5
84B
 10
955.838
 20
-713.296
 30
0.000000
  70
    32
  0
VERTEX
  8
図枠
  5
84C
 10
955.906
 20
-713.317
 30
0.000000
  70
    32
  0
VERTEX
  8
図枠
  5
84D
 10
955.973
 20
-713.339
 30
0.000000
  70
    32
  0
VERTEX
  8
図枠
  5
84E
 10
956.040
 20
-713.360
 30
0.000000
  70
    32
  0
VERTEX
  8
図枠
  5
84F
 10
956.108
 20
-713.381
 30
0.000000
  70
    32
  0
VERTEX
  8
図枠
  5
850
 10
956.176
 20
-713.402
 30
0.000000
  70
    32
  0
VERTEX
  8
図枠
  5
851
 10
956.243
 20
-713.423
 30
0.000000
  70
    32
  0
VERTEX
  8
図枠
  5
852
 10
956.311
 20
-713.443
 30
0.000000
  70
    32
  0
VERTEX
  8
図枠
  5
853
 10
956.379
 20
-713.464
 30
0.000000
  70
    32
  0
VERTEX
  8
図枠
  5
854
 10
956.446
 20
-713.485
 30
0.000000
  70
    32
  0
VERTEX
  8
図枠
  5
855
 10
956.514
 20
-713.505
 30
0.000000
  70
    32
  0
VERTEX
  8
図枠
  5
856
 10
956.582
 20
-713.525
 30
0.000000
  70
    32
  0
VERTEX
  8
図枠
  5
857
 10
956.650
 20
-713.546
 30
0.000000
  70
    32
  0
VERTEX
  8
図枠
  5
858
 10
956.718
 20
-713.566
 30
0.000000
  70
    32
  0
VERTEX
  8
図枠
  5
859
 10
956.786
 20
-713.586
 30
0.000000
  70
    32
  0
VERTEX
  8
図枠
  5
85A
 10
956.854
 20
-713.606
 30
0.000000
  70
    32
  0
VERTEX
  8
図枠
  5
85B
 10
956.922
 20
-713.626
 30
0.000000
  70
    32
  0
VERTEX
  8
図枠
  5
85C
 10
956.991
 20
-713.645
 30
0.000000
  70
    32
  0
VERTEX
  8
図枠
  5
85D
 10
957.059
 20
-713.665
 30
0.000000
  70
    32
  0
VERTEX
  8
図枠
  5
85E
 10
957.127
 20
-713.685
 30
0.000000
  70
    32
  0
VERTEX
  8
図枠
  5
85F
 10
957.196
 20
-713.704
 30
0.000000
  70
    32
  0
VERTEX
  8
図枠
  5
860
 10
957.264
 20
-713.724
 30
0.000000
  70
    32
  0
VERTEX
  8
図枠
  5
861
 10
957.332
 20
-713.743
 30
0.000000
  70
    32
  0
VERTEX
  8
図枠
  5
862
 10
957.401
 20
-713.762
 30
0.000000
  70
    32
  0
VERTEX
  8
図枠
  5
863
 10
957.469
 20
-713.781
 30
0.000000
  70
    32
  0
VERTEX
  8
図枠
  5
864
 10
957.538
 20
-713.800
 30
0.000000
  70
    32
  0
VERTEX
  8
図枠
  5
865
 10
957.607
 20
-713.819
 30
0.000000
  70
    32
  0
VERTEX
  8
図枠
  5
866
 10
957.675
 20
-713.838
 30
0.000000
  70
    32
  0
VERTEX
  8
図枠
  5
867
 10
957.744
 20
-713.857
 30
0.000000
  70
    32
  0
VERTEX
  8
図枠
  5
868
 10
957.813
 20
-713.876
 30
0.000000
  70
    32
  0
VERTEX
  8
図枠
  5
869
 10
957.882
 20
-713.894
 30
0.000000
  70
    32
  0
VERTEX
  8
図枠
  5
86A
 10
957.951
 20
-713.913
 30
0.000000
  70
    32
  0
VERTEX
  8
図枠
  5
86B
 10
958.019
 20
-713.932
 30
0.000000
  70
    32
  0
VERTEX
  8
図枠
  5
86C
 10
958.088
 20
-713.950
 30
0.000000
  70
    32
  0
VERTEX
  8
図枠
  5
86D
 10
958.157
 20
-713.968
 30
0.000000
  70
    32
  0
VERTEX
  8
図枠
  5
86E
 10
958.226
 20
-713.987
 30
0.000000
  70
    32
  0
VERTEX
  8
図枠
  5
86F
 10
958.295
 20
-714.005
 30
0.000000
  70
    32
  0
VERTEX
  8
図枠
  5
870
 10
958.365
 20
-714.023
 30
0.000000
  70
    32
  0
VERTEX
  8
図枠
  5
871
 10
958.434
 20
-714.041
 30
0.000000
  70
    32
  0
VERTEX
  8
図枠
  5
872
 10
958.503
 20
-714.059
 30
0.000000
  70
    32
  0
VERTEX
  8
図枠
  5
873
 10
958.572
 20
-714.077
 30
0.000000
  70
    32
  0
VERTEX
  8
図枠
  5
874
 10
958.641
 20
-714.094
 30
0.000000
  70
    32
  0
VERTEX
  8
図枠
  5
875
 10
958.711
 20
-714.112
 30
0.000000
  70
    32
  0
VERTEX
  8
図枠
  5
876
 10
958.780
 20
-714.130
 30
0.000000
  70
    32
  0
VERTEX
  8
図枠
  5
877
 10
958.849
 20
-714.148
 30
0.000000
  70
    32
  0
VERTEX
  8
図枠
  5
878
 10
958.919
 20
-714.165
 30
0.000000
  70
    32
  0
VERTEX
  8
図枠
  5
879
 10
958.988
 20
-714.183
 30
0.000000
  70
    32
  0
VERTEX
  8
図枠
  5
87A
 10
959.058
 20
-714.200
 30
0.000000
  70
    32
  0
VERTEX
  8
図枠
  5
87B
 10
959.127
 20
-714.217
 30
0.000000
  70
    32
  0
VERTEX
  8
図枠
  5
87C
 10
959.197
 20
-714.235
 30
0.000000
  70
    32
  0
VERTEX
  8
図枠
  5
87D
 10
959.267
 20
-714.252
 30
0.000000
  70
    32
  0
VERTEX
  8
図枠
  5
87E
 10
959.336
 20
-714.269
 30
0.000000
  70
    32
  0
VERTEX
  8
図枠
  5
87F
 10
959.406
 20
-714.286
 30
0.000000
  70
    32
  0
VERTEX
  8
図枠
  5
880
 10
959.476
 20
-714.303
 30
0.000000
  70
    32
  0
VERTEX
  8
図枠
  5
881
 10
959.545
 20
-714.320
 30
0.000000
  70
    32
  0
VERTEX
  8
図枠
  5
882
 10
959.615
 20
-714.337
 30
0.000000
  70
    32
  0
VERTEX
  8
図枠
  5
883
 10
959.685
 20
-714.354
 30
0.000000
  70
    32
  0
VERTEX
  8
図枠
  5
884
 10
959.755
 20
-714.370
 30
0.000000
  70
    32
  0
VERTEX
  8
図枠
  5
885
 10
959.825
 20
-714.387
 30
0.000000
  70
    32
  0
VERTEX
  8
図枠
  5
886
 10
959.894
 20
-714.404
 30
0.000000
  70
    32
  0
VERTEX
  8
図枠
  5
887
 10
959.964
 20
-714.420
 30
0.000000
  70
    32
  0
VERTEX
  8
図枠
  5
888
 10
960.034
 20
-714.437
 30
0.000000
  70
    32
  0
VERTEX
  8
図枠
  5
889
 10
960.104
 20
-714.453
 30
0.000000
  70
    32
  0
VERTEX
  8
図枠
  5
88A
 10
960.174
 20
-714.470
 30
0.000000
  70
    32
  0
VERTEX
  8
図枠
  5
88B
 10
960.244
 20
-714.486
 30
0.000000
  70
    32
  0
VERTEX
  8
図枠
  5
88C
 10
960.314
 20
-714.503
 30
0.000000
  70
    32
  0
VERTEX
  8
図枠
  5
88D
 10
960.385
 20
-714.519
 30
0.000000
  70
    32
  0
VERTEX
  8
図枠
  5
88E
 10
960.455
 20
-714.535
 30
0.000000
  70
    32
  0
VERTEX
  8
図枠
  5
88F
 10
960.525
 20
-714.551
 30
0.000000
  70
    32
  0
VERTEX
  8
図枠
  5
890
 10
960.595
 20
-714.567
 30
0.000000
  70
    32
  0
VERTEX
  8
図枠
  5
891
 10
960.665
 20
-714.583
 30
0.000000
  70
    32
  0
VERTEX
  8
図枠
  5
892
 10
960.735
 20
-714.599
 30
0.000000
  70
    32
  0
VERTEX
  8
図枠
  5
893
 10
960.806
 20
-714.615
 30
0.000000
  70
    32
  0
VERTEX
  8
図枠
  5
894
 10
960.876
 20
-714.631
 30
0.000000
  70
    32
  0
VERTEX
  8
図枠
  5
895
 10
960.946
 20
-714.647
 30
0.000000
  70
    32
  0
VERTEX
  8
図枠
  5
896
 10
961.017
 20
-714.663
 30
0.000000
  70
    32
  0
VERTEX
  8
図枠
  5
897
 10
961.087
 20
-714.679
 30
0.000000
  70
    32
  0
VERTEX
  8
図枠
  5
898
 10
961.157
 20
-714.695
 30
0.000000
  70
    32
  0
VERTEX
  8
図枠
  5
899
 10
961.228
 20
-714.711
 30
0.000000
  70
    32
  0
VERTEX
  8
図枠
  5
89A
 10
961.298
 20
-714.726
 30
0.000000
  70
    32
  0
VERTEX
  8
図枠
  5
89B
 10
961.369
 20
-714.742
 30
0.000000
  70
    32
  0
VERTEX
  8
図枠
  5
89C
 10
961.439
 20
-714.757
 30
0.000000
  70
    32
  0
VERTEX
  8
図枠
  5
89D
 10
961.509
 20
-714.773
 30
0.000000
  70
    32
  0
VERTEX
  8
図枠
  5
89E
 10
961.580
 20
-714.789
 30
0.000000
  70
    32
  0
VERTEX
  8
図枠
  5
89F
 10
961.651
 20
-714.804
 30
0.000000
  70
    32
  0
VERTEX
  8
図枠
  5
8A0
 10
961.721
 20
-714.820
 30
0.000000
  70
    32
  0
VERTEX
  8
図枠
  5
8A1
 10
961.792
 20
-714.835
 30
0.000000
  70
    32
  0
VERTEX
  8
図枠
  5
8A2
 10
961.862
 20
-714.850
 30
0.000000
  70
    32
  0
VERTEX
  8
図枠
  5
8A3
 10
961.933
 20
-714.866
 30
0.000000
  70
    32
  0
VERTEX
  8
図枠
  5
8A4
 10
962.003
 20
-714.881
 30
0.000000
  70
    32
  0
VERTEX
  8
図枠
  5
8A5
 10
962.074
 20
-714.896
 30
0.000000
  70
    32
  0
VERTEX
  8
図枠
  5
8A6
 10
962.145
 20
-714.912
 30
0.000000
  70
    32
  0
VERTEX
  8
図枠
  5
8A7
 10
962.215
 20
-714.927
 30
0.000000
  70
    32
  0
VERTEX
  8
図枠
  5
8A8
 10
962.286
 20
-714.942
 30
0.000000
  70
    32
  0
VERTEX
  8
図枠
  5
8A9
 10
962.357
 20
-714.957
 30
0.000000
  70
    32
  0
VERTEX
  8
図枠
  5
8AA
 10
962.427
 20
-714.972
 30
0.000000
  70
    32
  0
VERTEX
  8
図枠
  5
8AB
 10
962.498
 20
-714.988
 30
0.000000
  70
    32
  0
VERTEX
  8
図枠
  5
8AC
 10
962.569
 20
-715.003
 30
0.000000
  70
    32
  0
VERTEX
  8
図枠
  5
8AD
 10
962.640
 20
-715.018
 30
0.000000
  70
    32
  0
VERTEX
  8
図枠
  5
8AE
 10
962.710
 20
-715.033
 30
0.000000
  70
    32
  0
VERTEX
  8
図枠
  5
8AF
 10
962.781
 20
-715.048
 30
0.000000
  70
    32
  0
VERTEX
  8
図枠
  5
8B0
 10
962.852
 20
-715.063
 30
0.000000
  70
    32
  0
VERTEX
  8
図枠
  5
8B1
 10
962.923
 20
-715.078
 30
0.000000
  70
    32
  0
VERTEX
  8
図枠
  5
8B2
 10
962.993
 20
-715.093
 30
0.000000
  70
    32
  0
VERTEX
  8
図枠
  5
8B3
 10
963.064
 20
-715.108
 30
0.000000
  70
    32
  0
VERTEX
  8
図枠
  5
8B4
 10
963.135
 20
-715.123
 30
0.000000
  70
    32
  0
VERTEX
  8
図枠
  5
8B5
 10
963.206
 20
-715.138
 30
0.000000
  70
    32
  0
VERTEX
  8
図枠
  5
8B6
 10
963.277
 20
-715.153
 30
0.000000
  70
    32
  0
VERTEX
  8
図枠
  5
8B7
 10
963.348
 20
-715.168
 30
0.000000
  70
    32
  0
VERTEX
  8
図枠
  5
8B8
 10
963.419
 20
-715.182
 30
0.000000
  70
    32
  0
VERTEX
  8
図枠
  5
8B9
 10
963.489
 20
-715.197
 30
0.000000
  70
    32
  0
VERTEX
  8
図枠
  5
8BA
 10
963.560
 20
-715.212
 30
0.000000
  70
    32
  0
VERTEX
  8
図枠
  5
8BB
 10
963.631
 20
-715.227
 30
0.000000
  70
    32
  0
VERTEX
  8
図枠
  5
8BC
 10
963.702
 20
-715.242
 30
0.000000
  70
    32
  0
VERTEX
  8
図枠
  5
8BD
 10
963.773
 20
-715.257
 30
0.000000
  70
    32
  0
VERTEX
  8
図枠
  5
8BE
 10
963.844
 20
-715.271
 30
0.000000
  70
    32
  0
VERTEX
  8
図枠
  5
8BF
 10
963.915
 20
-715.286
 30
0.000000
  70
    32
  0
VERTEX
  8
図枠
  5
8C0
 10
963.986
 20
-715.301
 30
0.000000
  70
    32
  0
VERTEX
  8
図枠
  5
8C1
 10
964.057
 20
-715.316
 30
0.000000
  70
    32
  0
VERTEX
  8
図枠
  5
8C2
 10
964.127
 20
-715.330
 30
0.000000
  70
    32
  0
VERTEX
  8
図枠
  5
8C3
 10
964.198
 20
-715.345
 30
0.000000
  70
    32
  0
VERTEX
  8
図枠
  5
8C4
 10
964.269
 20
-715.360
 30
0.000000
  70
    32
  0
VERTEX
  8
図枠
  5
8C5
 10
964.340
 20
-715.375
 30
0.000000
  70
    32
  0
VERTEX
  8
図枠
  5
8C6
 10
964.411
 20
-715.390
 30
0.000000
  70
    32
  0
VERTEX
  8
図枠
  5
8C7
 10
964.482
 20
-715.404
 30
0.000000
  70
    32
  0
VERTEX
  8
図枠
  5
8C8
 10
964.553
 20
-715.419
 30
0.000000
  70
    32
  0
VERTEX
  8
図枠
  5
8C9
 10
964.624
 20
-715.434
 30
0.000000
  70
    32
  0
SEQEND
  8
図枠
  5
8CA
  0
LINE
  5
396
  8
図枠
 62
     5
 10
865.49320315339992
 20
-538.40250399510001
 30
0.0
 11
859.30570315340003
 21
-549.11956836699994
 31
0.0
  0
LINE
  5
397
  8
図枠
 62
     5
 10
810.24978546979992
 20
-514.52759009309989
 30
0.0
 11
804.0622854697998
 21
-525.24465446490001
 31
0.0
  0
LINE
  5
398
  8
図枠
 62
     5
 10
804.0622854697998
 20
-525.24465446490001
 30
0.0
 11
816.43728546979992
 21
-525.24465446490001
 31
0.0
  0
LINE
  5
399
  8
図枠
 62
     5
 10
810.24978546979992
 20
-514.52759009309989
 30
0.0
 11
816.43728546979992
 21
-525.24465446490001
 31
0.0
  0
INSERT
  5
39A
  8
0
  6
CONTINUOUS
  2
*U76
 10
0.0
 20
0.0
 30
0.0
  0
INSERT
  5
39B
  8
0
  6
CONTINUOUS
  2
*U77
 10
0.0
 20
0.0
 30
0.0
  0
INSERT
  5
39C
  8
0
  6
CONTINUOUS
  2
*U78
 10
0.0
 20
0.0
 30
0.0
  0
INSERT
  5
39D
  8
0
  6
CONTINUOUS
  2
*U79
 10
0.0
 20
0.0
 30
0.0
  0
INSERT
  5
39E
  8
0
  6
CONTINUOUS
  2
*U80
 10
0.0
 20
0.0
 30
0.0
  0
INSERT
  5
39F
  8
0
  6
CONTINUOUS
  2
*U81
 10
0.0
 20
0.0
 30
0.0
  0
LINE
  5
3A0
  8
図枠
 62
     5
 10
873.86244722979995
 20
-587.16998707790003
 30
0.0
 11
886.23744722979984
 21
-587.16998707790003
 31
0.0
  0
LINE
  5
3A1
  8
図枠
 62
     5
 10
880.04994722979995
 20
-576.45292270610003
 30
0.0
 11
886.23744722979984
 21
-587.16998707790003
 31
0.0
  0
INSERT
  5
3A2
  8
0
  6
CONTINUOUS
  2
*U82
 10
0.0
 20
0.0
 30
0.0
  0
INSERT
  5
3A3
  8
0
  6
CONTINUOUS
  2
*U83
 10
0.0
 20
0.0
 30
0.0
  0
INSERT
  5
3A4
  8
0
  6
CONTINUOUS
  2
*U84
 10
0.0
 20
0.0
 30
0.0
  0
LINE
  5
3A5
  8
図枠
 10
822.57079784619987
 20
-679.37543807789984
 30
0.0
 11
903.82079784619987
 21
-679.37543807789984
 31
0.0
  0
LINE
  5
3A6
  8
図枠
 10
910.07079784619987
 20
-665.62543807789996
 30
0.0
 11
910.07079784619987
 21
-693.12543807789984
 31
0.0
  0
LINE
  5
3A7
  8
図枠
 10
911.34465453799999
 20
-706.68375566069994
 30
0.0
 11
913.84465453799999
 21
-706.68375566069994
 31
0.0
  0
LINE
  5
3A8
  8
図枠
 10
914.2224140669
 20
-702.93375566069994
 30
0.0
 11
911.34465453799999
 21
-702.93375566069994
 31
0.0
  0
LINE
  5
3A9
  8
図枠
 10
911.34465453799999
 20
-702.93375566069994
 30
0.0
 11
911.34465453799999
 21
-706.68375566069994
 31
0.0
  0
LINE
  5
3AA
  8
図枠
 10
920.4724140669
 20
-710.43375566069994
 30
0.0
 11
920.4724140669
 21
-706.68375566069994
 31
0.0
  0
ARC
  5
3AB
  8
図枠
 10
921.72241406689989
 20
-707.93375566070006
 30
0.0
 40
3.75
 50
270.0
 51
0.0
  0
LINE
  5
3AC
  8
図枠
 10
942.12392921839989
 20
-711.68375566069994
 30
0.0
 11
945.12392921840001
 21
-711.68375566069994
 31
0.0
  0
LINE
  5
3AD
  8
図枠
 10
942.12392921839989
 20
-704.54430699809996
 30
0.0
 11
942.12392921839989
 21
-703.73903132939995
 31
0.0
  0
LINE
  5
3AE
  8
図枠
 10
925.47241406689989
 20
-702.93375566069994
 30
0.0
 11
920.4724140669
 21
-702.93375566069994
 31
0.0
  0
LINE
  5
3AF
  8
図枠
 62
     5
 10
874.70994422479998
 20
-614.34965959699991
 30
0.0
 11
880.89744422490014
 21
-625.06672396879992
 31
0.0
  0
LINE
  5
3B0
  8
図枠
 62
     5
 10
874.70994422479998
 20
-614.34965959699991
 30
0.0
 11
868.52244422479987
 21
-625.06672396879992
 31
0.0
  0
LINE
  5
3B1
  8
図枠
 10
914.2224140669
 20
-711.68375566069994
 30
0.0
 11
914.2224140669
 21
-715.43375566069994
 31
0.0
  0
LINE
  5
3B2
  8
図枠
 10
914.2224140669
 20
-706.68375566069994
 30
0.0
 11
913.84465453799999
 21
-706.68375566069994
 31
0.0
  0
LINE
  5
3B3
  8
図枠
 10
914.2224140669
 20
-697.93375566069994
 30
0.0
 11
914.2224140669
 21
-702.93375566069994
 31
0.0
  0
LINE
  5
3B4
  8
図枠
 10
914.2224140669
 20
-706.68375566069994
 30
0.0
 11
914.2224140669
 21
-710.43375566069994
 31
0.0
  0
LINE
  5
3B5
  8
図枠
 62
     5
 10
880.04994722979995
 20
-576.45292270610003
 30
0.0
 11
873.86244722979995
 21
-587.16998707790003
 31
0.0
  0
INSERT
  5
3B6
  8
0
  6
CONTINUOUS
  2
*U85
 10
0.0
 20
0.0
 30
0.0
  0
INSERT
  5
3B7
  8
0
  6
CONTINUOUS
  2
*U86
 10
0.0
 20
0.0
 30
0.0
  0
LINE
  5
3B8
  8
図枠
 10
878.82079784619987
 20
-638.12543807789984
 30
0.0
 11
878.82079784619987
 21
-665.62543807789996
 31
0.0
  0
LINE
  5
3B9
  8
図枠
 10
838.82079784619998
 20
-638.12543807789984
 30
0.0
 11
838.82079784619998
 21
-625.62543807789984
 31
0.0
  0
LINE
  5
3BA
  8
図枠
 10
816.32079784619987
 20
-638.12543807789984
 30
0.0
 11
816.32079784619987
 21
-720.62543807789984
 31
0.0
  0
LINE
  5
3BB
  8
図枠
 10
816.32079784619987
 20
-638.12543807789984
 30
0.0
 11
816.32079784619987
 21
-625.62543807789984
 31
0.0
  0
INSERT
  5
3BC
  8
0
  6
CONTINUOUS
  2
*U87
 10
0.0
 20
0.0
 30
0.0
  0
INSERT
  5
3BD
  8
0
  6
CONTINUOUS
  2
*U88
 10
0.0
 20
0.0
 30
0.0
  0
INSERT
  5
3BE
  8
0
  6
CONTINUOUS
  2
*U89
 10
0.0
 20
0.0
 30
0.0
  0
INSERT
  5
3BF
  8
0
  6
CONTINUOUS
  2
*U90
 10
0.0
 20
0.0
 30
0.0
  0
INSERT
  5
3C0
  8
0
  6
CONTINUOUS
  2
*U91
 10
0.0
 20
0.0
 30
0.0
  0
LINE
  5
3C1
  8
図枠
 10
822.57079784619987
 20
-651.87543807789984
 30
0.0
 11
872.57079784619987
 21
-651.87543807789984
 31
0.0
  0
INSERT
  5
3C2
  8
0
  6
CONTINUOUS
  2
*U92
 10
0.0
 20
0.0
 30
0.0
  0
INSERT
  5
3C3
  8
0
  6
CONTINUOUS
  2
*U93
 10
0.0
 20
0.0
 30
0.0
  0
INSERT
  5
3C4
  8
0
  6
CONTINUOUS
  2
*U94
 10
0.0
 20
0.0
 30
0.0
  0
INSERT
  5
3C5
  8
0
  6
CONTINUOUS
  2
*U95
 10
0.0
 20
0.0
 30
0.0
  0
LINE
  5
3C6
  8
図枠
 62
     5
 10
859.30570315340003
 20
-549.11956836699994
 30
0.0
 11
871.68070315339992
 21
-549.11956836699994
 31
0.0
  0
LINE
  5
3C7
  8
図枠
 62
     5
 10
865.49320315339992
 20
-538.40250399510001
 30
0.0
 11
871.68070315339992
 21
-549.11956836699994
 31
0.0
  0
LINE
  5
3C8
  8
ﾚｲﾔ_1
  6
BORDER
 62
     3
 10
949.34851273710001
 20
166.39289132350001
 30
0.0
 11
949.34851273710001
 21
70.616576592900003
 31
0.0
  0
LINE
  5
3C9
  8
0
 10
965.64851273709996
 20
122.3928903595
 30
0.0
 11
933.04851273710005
 21
122.3928903595
 31
0.0
  0
LINE
  5
3CA
  8
0
 62
     5
 10
963.6285127371001
 20
126.7247943389
 30
0.0
 11
935.06851273710015
 21
126.7247943389
 31
0.0
  0
LINE
  5
3CB
  8
0
 62
     5
 10
965.22851273710012
 20
128.3928903595
 30
0.0
 11
933.46851273710013
 21
128.3928903595
 31
0.0
  0
LINE
  5
3CC
  8
ﾚｲﾔ_1
 62
     5
 10
933.34851273710024
 20
122.3928903595
 30
0.0
 11
965.34851273710001
 21
122.3928903595
 31
0.0
  0
LINE
  5
3CD
  8
0
 62
     5
 10
961.34851273710012
 20
140.86971036259999
 30
0.0
 11
937.34851273710012
 21
140.86971036259999
 31
0.0
  0
ARC
  5
3CE
  8
0
 62
     5
 10
944.84851273710001
 20
180.3928903595
 30
0.0
 40
22.0
 50
0.0
 51
90.0
  0
ARC
  5
3CF
  8
0
 62
     5
 10
939.34851273710001
 20
169.3928903595
 30
0.0
 40
22.0
 50
0.0
 51
90.0
  0
ARC
  5
3D0
  8
ﾚｲﾔ_1
 62
     5
 10
704.6488707991
 20
-490.97226562499992
 30
0.0
 40
2.5
 50
270.0
 51
0.0
  0
CIRCLE
  5
3D1
  8
ﾚｲﾔ_1
 62
     5
 10
671.34887079910004
 20
-393.47226562499998
 30
0.0
 40
9.5
  0
CIRCLE
  5
3D2
  8
ﾚｲﾔ_1
 62
     5
 10
671.34887079910004
 20
-393.47226562499998
 30
0.0
 40
9.5
  0
CIRCLE
  5
3D3
  8
ﾚｲﾔ_1
 62
     5
 10
671.34887079910004
 20
-393.47226562499998
 30
0.0
 40
15.25
  0
INSERT
  5
3D5
  8
ﾚｲﾔ_1
  2
CLUMP2
 10
0.0
 20
0.0
 30
0.0
  0
LINE
  5
3E6
  8
ﾚｲﾔ_1
  6
BORDER
 62
     3
 10
649.60824579910002
 20
-393.47226562499998
 30
0.0
 11
692.07387079909995
 21
-393.47226562499998
 31
0.0
  0
INSERT
  5
3E7
  8
0
  6
CONTINUOUS
  2
*U96
 10
0.0
 20
0.0
 30
0.0
  0
LINE
  5
3E8
  8
図枠
 10
914.2224140669
 20
-715.43375566069994
 30
0.0
 11
924.2224140669
 21
-715.43375566069994
 31
0.0
  0
INSERT
  5
3E9
  8
0
  6
CONTINUOUS
  2
*U97
 10
0.0
 20
0.0
 30
0.0
  0
LINE
  5
3EA
  8
図枠
 10
924.2224140669
 20
-697.93375566069994
 30
0.0
 11
914.2224140669
 21
-697.93375566069994
 31
0.0
  0
LINE
  5
3EB
  8
図枠
 10
921.72241406689989
 20
-711.68375566069994
 30
0.0
 11
914.2224140669
 21
-711.68375566069994
 31
0.0
  0
LINE
  5
3EC
  8
図枠
 10
914.2224140669
 20
-710.43375566069994
 30
0.0
 11
920.4724140669
 21
-710.43375566069994
 31
0.0
  0
LINE
  5
3ED
  8
図枠
 10
885.07079784619987
 20
-651.87543807789984
 30
0.0
 11
935.07079784619987
 21
-651.87543807789984
 31
0.0
  0
INSERT
  5
3EE
  8
0
  6
CONTINUOUS
  2
*U98
 10
0.0
 20
0.0
 30
0.0
  0
INSERT
  5
3EF
  8
0
  6
CONTINUOUS
  2
*U99
 10
0.0
 20
0.0
 30
0.0
  0
INSERT
  5
3F0
  8
0
  6
CONTINUOUS
  2
*U100
 10
0.0
 20
0.0
 30
0.0
  0
LINE
  5
3F1
  8
図枠
 62
     5
 10
868.52244422479987
 20
-625.06672396879992
 30
0.0
 11
880.89744422490014
 21
-625.06672396879992
 31
0.0
  0
LINE
  5
3F2
  8
CONSTRUCTION
 62
     5
 10
636.2488707990999
 20
175.70448946729999
 30
0.0
 11
706.44887079909995
 21
175.70448946729999
 31
0.0
  0
LINE
  5
3F3
  8
CONSTRUCTION
 62
     5
 10
706.44887079909995
 20
100.5044894673
 30
0.0
 11
636.2488707990999
 21
100.5044894673
 31
0.0
  0
INSERT
  5
3F6
  8
寸法線
  2
BALLON0
 10
0.0
 20
0.0
 30
0.0
  0
INSERT
  5
400
  8
寸法線
  2
BALLON1
 10
0.0
 20
0.0
 30
0.0
  0
INSERT
  5
40A
  8
寸法線
  2
BALLON2
 10
0.0
 20
0.0
 30
0.0
  0
INSERT
  5
414
  8
寸法線
  2
BALLON3
 10
0.0
 20
0.0
 30
0.0
  0
INSERT
  5
41E
  8
寸法線
  2
BALLON4
 10
0.0
 20
0.0
 30
0.0
  0
INSERT
  5
428
  8
寸法線
  2
BALLON5
 10
0.0
 20
0.0
 30
0.0
  0
INSERT
  5
432
  8
寸法線
  2
BALLON6
 10
0.0
 20
0.0
 30
0.0
  0
LINE
  5
43B
  8
ﾚｲﾔ_1
 10
986.25105093190007
 20
70.616576592900003
 30
0.0
 11
862.68124968809991
 21
70.616576592900003
 31
0.0
  0
LINE
  5
43C
  8
ﾚｲﾔ_1
 10
862.68124968809991
 20
221.9634772631
 30
0.0
 11
986.25105093190007
 21
221.9634772631
 31
0.0
  0
LINE
  5
43D
  8
図枠
 62
     5
 10
953.11008438110002
 20
253.79360567149999
 30
0.0
 11
946.92258438110014
 21
243.0765412996
 31
0.0
  0
LINE
  5
43E
  8
図枠
 62
     5
 10
953.11008438110002
 20
253.79360567149999
 30
0.0
 11
959.29758438110002
 21
243.0765412996
 31
0.0
  0
LINE
  5
43F
  8
図枠
 62
     5
 10
946.92258438110014
 20
243.0765412996
 30
0.0
 11
959.29758438110002
 21
243.0765412996
 31
0.0
  0
INSERT
  5
440
  8
0
  6
CONTINUOUS
  2
*U108
 10
0.0
 20
0.0
 30
0.0
  0
INSERT
  5
441
  8
0
  6
CONTINUOUS
  2
*U109
 10
0.0
 20
0.0
 30
0.0
  0
LINE
  5
442
  8
図枠
 62
     5
 10
946.92258438110014
 20
255.4515412996
 30
0.0
 11
959.29758438110002
 21
255.4515412996
 31
0.0
  0
LINE
  5
443
  8
図枠
 62
     5
 10
953.11008438110002
 20
266.16860567150002
 30
0.0
 11
959.29758438110002
 21
255.4515412996
 31
0.0
  0
LINE
  5
444
  8
図枠
 62
     5
 10
953.11008438110002
 20
266.16860567150002
 30
0.0
 11
946.92258438110014
 21
255.4515412996
 31
0.0
  0
LINE
  5
445
  8
図枠
 62
     5
 10
953.11008438110002
 20
253.79360567149999
 30
0.0
 11
946.92258438110014
 21
243.0765412996
 31
0.0
  0
LINE
  5
446
  8
図枠
 62
     5
 10
953.11008438110002
 20
253.79360567149999
 30
0.0
 11
959.29758438110002
 21
243.0765412996
 31
0.0
  0
LINE
  5
447
  8
図枠
 62
     5
 10
946.92258438110014
 20
243.0765412996
 30
0.0
 11
959.29758438110002
 21
243.0765412996
 31
0.0
  0
INSERT
  5
448
  8
0
  6
CONTINUOUS
  2
*U110
 10
0.0
 20
0.0
 30
0.0
  0
INSERT
  5
449
  8
0
  6
CONTINUOUS
  2
*U111
 10
0.0
 20
0.0
 30
0.0
  0
ARC
  5
44A
  8
ﾚｲﾔ_1
  6
BORDER
 62
     3
 10
939.34851273710001
 20
166.3928903595
 30
0.0
 40
10.0
 50
0.0
 51
90.0
  0
ARC
  5
44B
  8
図枠
 10
948.37392921839989
 20
-701.68375566070006
 30
0.0
 40
13.75
 50
270.0
 51
302.54495885400001
  0
LINE
  5
44C
  8
図枠
 10
952.12392921840012
 20
-703.73903132939995
 30
0.0
 11
950.70971565599996
 21
-705.15324489169996
 31
0.0
  0
POLYLINE
  8
図枠
  5
8CB
  66
     1
 10
0.000000
 20
0.000000
 30
0.000000
  70
     8
  0
VERTEX
  8
図枠
  5
8CC
 10
950.710
 20
-705.153
 30
0.000000
  70
    32
  0
VERTEX
  8
図枠
  5
8CD
 10
950.726
 20
-705.172
 30
0.000000
  70
    32
  0
VERTEX
  8
図枠
  5
8CE
 10
950.743
 20
-705.190
 30
0.000000
  70
    32
  0
VERTEX
  8
図枠
  5
8CF
 10
950.759
 20
-705.208
 30
0.000000
  70
    32
  0
VERTEX
  8
図枠
  5
8D0
 10
950.776
 20
-705.227
 30
0.000000
  70
    32
  0
VERTEX
  8
図枠
  5
8D1
 10
950.792
 20
-705.245
 30
0.000000
  70
    32
  0
VERTEX
  8
図枠
  5
8D2
 10
950.809
 20
-705.264
 30
0.000000
  70
    32
  0
VERTEX
  8
図枠
  5
8D3
 10
950.825
 20
-705.282
 30
0.000000
  70
    32
  0
VERTEX
  8
図枠
  5
8D4
 10
950.842
 20
-705.300
 30
0.000000
  70
    32
  0
VERTEX
  8
図枠
  5
8D5
 10
950.858
 20
-705.319
 30
0.000000
  70
    32
  0
VERTEX
  8
図枠
  5
8D6
 10
950.875
 20
-705.337
 30
0.000000
  70
    32
  0
VERTEX
  8
図枠
  5
8D7
 10
950.891
 20
-705.356
 30
0.000000
  70
    32
  0
VERTEX
  8
図枠
  5
8D8
 10
950.908
 20
-705.374
 30
0.000000
  70
    32
  0
VERTEX
  8
図枠
  5
8D9
 10
950.924
 20
-705.392
 30
0.000000
  70
    32
  0
VERTEX
  8
図枠
  5
8DA
 10
950.941
 20
-705.411
 30
0.000000
  70
    32
  0
VERTEX
  8
図枠
  5
8DB
 10
950.957
 20
-705.429
 30
0.000000
  70
    32
  0
VERTEX
  8
図枠
  5
8DC
 10
950.974
 20
-705.447
 30
0.000000
  70
    32
  0
VERTEX
  8
図枠
  5
8DD
 10
950.990
 20
-705.466
 30
0.000000
  70
    32
  0
VERTEX
  8
図枠
  5
8DE
 10
951.007
 20
-705.484
 30
0.000000
  70
    32
  0
VERTEX
  8
図枠
  5
8DF
 10
951.023
 20
-705.502
 30
0.000000
  70
    32
  0
VERTEX
  8
図枠
  5
8E0
 10
951.040
 20
-705.521
 30
0.000000
  70
    32
  0
VERTEX
  8
図枠
  5
8E1
 10
951.056
 20
-705.539
 30
0.000000
  70
    32
  0
VERTEX
  8
図枠
  5
8E2
 10
951.073
 20
-705.557
 30
0.000000
  70
    32
  0
VERTEX
  8
図枠
  5
8E3
 10
951.090
 20
-705.576
 30
0.000000
  70
    32
  0
VERTEX
  8
図枠
  5
8E4
 10
951.106
 20
-705.594
 30
0.000000
  70
    32
  0
VERTEX
  8
図枠
  5
8E5
 10
951.123
 20
-705.612
 30
0.000000
  70
    32
  0
VERTEX
  8
図枠
  5
8E6
 10
951.139
 20
-705.631
 30
0.000000
  70
    32
  0
VERTEX
  8
図枠
  5
8E7
 10
951.156
 20
-705.649
 30
0.000000
  70
    32
  0
VERTEX
  8
図枠
  5
8E8
 10
951.172
 20
-705.667
 30
0.000000
  70
    32
  0
VERTEX
  8
図枠
  5
8E9
 10
951.189
 20
-705.686
 30
0.000000
  70
    32
  0
VERTEX
  8
図枠
  5
8EA
 10
951.205
 20
-705.704
 30
0.000000
  70
    32
  0
VERTEX
  8
図枠
  5
8EB
 10
951.222
 20
-705.722
 30
0.000000
  70
    32
  0
VERTEX
  8
図枠
  5
8EC
 10
951.239
 20
-705.740
 30
0.000000
  70
    32
  0
VERTEX
  8
図枠
  5
8ED
 10
951.255
 20
-705.759
 30
0.000000
  70
    32
  0
VERTEX
  8
図枠
  5
8EE
 10
951.272
 20
-705.777
 30
0.000000
  70
    32
  0
VERTEX
  8
図枠
  5
8EF
 10
951.288
 20
-705.795
 30
0.000000
  70
    32
  0
VERTEX
  8
図枠
  5
8F0
 10
951.305
 20
-705.813
 30
0.000000
  70
    32
  0
VERTEX
  8
図枠
  5
8F1
 10
951.322
 20
-705.832
 30
0.000000
  70
    32
  0
VERTEX
  8
図枠
  5
8F2
 10
951.338
 20
-705.850
 30
0.000000
  70
    32
  0
VERTEX
  8
図枠
  5
8F3
 10
951.355
 20
-705.868
 30
0.000000
  70
    32
  0
VERTEX
  8
図枠
  5
8F4
 10
951.371
 20
-705.886
 30
0.000000
  70
    32
  0
VERTEX
  8
図枠
  5
8F5
 10
951.388
 20
-705.904
 30
0.000000
  70
    32
  0
VERTEX
  8
図枠
  5
8F6
 10
951.405
 20
-705.922
 30
0.000000
  70
    32
  0
VERTEX
  8
図枠
  5
8F7
 10
951.421
 20
-705.941
 30
0.000000
  70
    32
  0
VERTEX
  8
図枠
  5
8F8
 10
951.438
 20
-705.959
 30
0.000000
  70
    32
  0
VERTEX
  8
図枠
  5
8F9
 10
951.455
 20
-705.977
 30
0.000000
  70
    32
  0
VERTEX
  8
図枠
  5
8FA
 10
951.471
 20
-705.995
 30
0.000000
  70
    32
  0
VERTEX
  8
図枠
  5
8FB
 10
951.488
 20
-706.013
 30
0.000000
  70
    32
  0
VERTEX
  8
図枠
  5
8FC
 10
951.505
 20
-706.031
 30
0.000000
  70
    32
  0
VERTEX
  8
図枠
  5
8FD
 10
951.521
 20
-706.049
 30
0.000000
  70
    32
  0
VERTEX
  8
図枠
  5
8FE
 10
951.538
 20
-706.067
 30
0.000000
  70
    32
  0
VERTEX
  8
図枠
  5
8FF
 10
951.555
 20
-706.085
 30
0.000000
  70
    32
  0
VERTEX
  8
図枠
  5
900
 10
951.572
 20
-706.103
 30
0.000000
  70
    32
  0
VERTEX
  8
図枠
  5
901
 10
951.588
 20
-706.121
 30
0.000000
  70
    32
  0
VERTEX
  8
図枠
  5
902
 10
951.605
 20
-706.139
 30
0.000000
  70
    32
  0
VERTEX
  8
図枠
  5
903
 10
951.622
 20
-706.157
 30
0.000000
  70
    32
  0
VERTEX
  8
図枠
  5
904
 10
951.639
 20
-706.175
 30
0.000000
  70
    32
  0
VERTEX
  8
図枠
  5
905
 10
951.655
 20
-706.193
 30
0.000000
  70
    32
  0
VERTEX
  8
図枠
  5
906
 10
951.672
 20
-706.211
 30
0.000000
  70
    32
  0
VERTEX
  8
図枠
  5
907
 10
951.689
 20
-706.229
 30
0.000000
  70
    32
  0
VERTEX
  8
図枠
  5
908
 10
951.706
 20
-706.247
 30
0.000000
  70
    32
  0
VERTEX
  8
図枠
  5
909
 10
951.723
 20
-706.265
 30
0.000000
  70
    32
  0
VERTEX
  8
図枠
  5
90A
 10
951.739
 20
-706.283
 30
0.000000
  70
    32
  0
VERTEX
  8
図枠
  5
90B
 10
951.756
 20
-706.301
 30
0.000000
  70
    32
  0
VERTEX
  8
図枠
  5
90C
 10
951.773
 20
-706.319
 30
0.000000
  70
    32
  0
VERTEX
  8
図枠
  5
90D
 10
951.790
 20
-706.336
 30
0.000000
  70
    32
  0
VERTEX
  8
図枠
  5
90E
 10
951.807
 20
-706.354
 30
0.000000
  70
    32
  0
VERTEX
  8
図枠
  5
90F
 10
951.824
 20
-706.372
 30
0.000000
  70
    32
  0
VERTEX
  8
図枠
  5
910
 10
951.841
 20
-706.390
 30
0.000000
  70
    32
  0
VERTEX
  8
図枠
  5
911
 10
951.857
 20
-706.408
 30
0.000000
  70
    32
  0
VERTEX
  8
図枠
  5
912
 10
951.874
 20
-706.425
 30
0.000000
  70
    32
  0
VERTEX
  8
図枠
  5
913
 10
951.891
 20
-706.443
 30
0.000000
  70
    32
  0
VERTEX
  8
図枠
  5
914
 10
951.908
 20
-706.461
 30
0.000000
  70
    32
  0
VERTEX
  8
図枠
  5
915
 10
951.925
 20
-706.478
 30
0.000000
  70
    32
  0
VERTEX
  8
図枠
  5
916
 10
951.942
 20
-706.496
 30
0.000000
  70
    32
  0
VERTEX
  8
図枠
  5
917
 10
951.959
 20
-706.514
 30
0.000000
  70
    32
  0
VERTEX
  8
図枠
  5
918
 10
951.976
 20
-706.531
 30
0.000000
  70
    32
  0
VERTEX
  8
図枠
  5
919
 10
951.993
 20
-706.549
 30
0.000000
  70
    32
  0
VERTEX
  8
図枠
  5
91A
 10
952.010
 20
-706.566
 30
0.000000
  70
    32
  0
VERTEX
  8
図枠
  5
91B
 10
952.027
 20
-706.584
 30
0.000000
  70
    32
  0
VERTEX
  8
図枠
  5
91C
 10
952.044
 20
-706.601
 30
0.000000
  70
    32
  0
VERTEX
  8
図枠
  5
91D
 10
952.061
 20
-706.619
 30
0.000000
  70
    32
  0
VERTEX
  8
図枠
  5
91E
 10
952.078
 20
-706.636
 30
0.000000
  70
    32
  0
VERTEX
  8
図枠
  5
91F
 10
952.095
 20
-706.654
 30
0.000000
  70
    32
  0
VERTEX
  8
図枠
  5
920
 10
952.112
 20
-706.671
 30
0.000000
  70
    32
  0
VERTEX
  8
図枠
  5
921
 10
952.130
 20
-706.689
 30
0.000000
  70
    32
  0
VERTEX
  8
図枠
  5
922
 10
952.147
 20
-706.706
 30
0.000000
  70
    32
  0
VERTEX
  8
図枠
  5
923
 10
952.164
 20
-706.724
 30
0.000000
  70
    32
  0
VERTEX
  8
図枠
  5
924
 10
952.181
 20
-706.741
 30
0.000000
  70
    32
  0
VERTEX
  8
図枠
  5
925
 10
952.198
 20
-706.758
 30
0.000000
  70
    32
  0
VERTEX
  8
図枠
  5
926
 10
952.215
 20
-706.776
 30
0.000000
  70
    32
  0
VERTEX
  8
図枠
  5
927
 10
952.232
 20
-706.793
 30
0.000000
  70
    32
  0
VERTEX
  8
図枠
  5
928
 10
952.250
 20
-706.810
 30
0.000000
  70
    32
  0
VERTEX
  8
図枠
  5
929
 10
952.267
 20
-706.827
 30
0.000000
  70
    32
  0
VERTEX
  8
図枠
  5
92A
 10
952.284
 20
-706.844
 30
0.000000
  70
    32
  0
VERTEX
  8
図枠
  5
92B
 10
952.301
 20
-706.862
 30
0.000000
  70
    32
  0
VERTEX
  8
図枠
  5
92C
 10
952.319
 20
-706.879
 30
0.000000
  70
    32
  0
VERTEX
  8
図枠
  5
92D
 10
952.336
 20
-706.896
 30
0.000000
  70
    32
  0
VERTEX
  8
図枠
  5
92E
 10
952.353
 20
-706.913
 30
0.000000
  70
    32
  0
VERTEX
  8
図枠
  5
92F
 10
952.371
 20
-706.930
 30
0.000000
  70
    32
  0
VERTEX
  8
図枠
  5
930
 10
952.388
 20
-706.947
 30
0.000000
  70
    32
  0
VERTEX
  8
図枠
  5
931
 10
952.405
 20
-706.964
 30
0.000000
  70
    32
  0
VERTEX
  8
図枠
  5
932
 10
952.423
 20
-706.981
 30
0.000000
  70
    32
  0
VERTEX
  8
図枠
  5
933
 10
952.440
 20
-706.998
 30
0.000000
  70
    32
  0
VERTEX
  8
図枠
  5
934
 10
952.458
 20
-707.015
 30
0.000000
  70
    32
  0
VERTEX
  8
図枠
  5
935
 10
952.475
 20
-707.032
 30
0.000000
  70
    32
  0
VERTEX
  8
図枠
  5
936
 10
952.492
 20
-707.049
 30
0.000000
  70
    32
  0
VERTEX
  8
図枠
  5
937
 10
952.510
 20
-707.066
 30
0.000000
  70
    32
  0
VERTEX
  8
図枠
  5
938
 10
952.527
 20
-707.082
 30
0.000000
  70
    32
  0
VERTEX
  8
図枠
  5
939
 10
952.545
 20
-707.099
 30
0.000000
  70
    32
  0
VERTEX
  8
図枠
  5
93A
 10
952.562
 20
-707.116
 30
0.000000
  70
    32
  0
VERTEX
  8
図枠
  5
93B
 10
952.580
 20
-707.133
 30
0.000000
  70
    32
  0
VERTEX
  8
図枠
  5
93C
 10
952.597
 20
-707.149
 30
0.000000
  70
    32
  0
VERTEX
  8
図枠
  5
93D
 10
952.615
 20
-707.166
 30
0.000000
  70
    32
  0
VERTEX
  8
図枠
  5
93E
 10
952.633
 20
-707.183
 30
0.000000
  70
    32
  0
VERTEX
  8
図枠
  5
93F
 10
952.650
 20
-707.199
 30
0.000000
  70
    32
  0
VERTEX
  8
図枠
  5
940
 10
952.668
 20
-707.216
 30
0.000000
  70
    32
  0
VERTEX
  8
図枠
  5
941
 10
952.686
 20
-707.232
 30
0.000000
  70
    32
  0
VERTEX
  8
図枠
  5
942
 10
952.703
 20
-707.249
 30
0.000000
  70
    32
  0
VERTEX
  8
図枠
  5
943
 10
952.721
 20
-707.265
 30
0.000000
  70
    32
  0
VERTEX
  8
図枠
  5
944
 10
952.739
 20
-707.282
 30
0.000000
  70
    32
  0
VERTEX
  8
図枠
  5
945
 10
952.756
 20
-707.298
 30
0.000000
  70
    32
  0
VERTEX
  8
図枠
  5
946
 10
952.774
 20
-707.314
 30
0.000000
  70
    32
  0
VERTEX
  8
図枠
  5
947
 10
952.792
 20
-707.331
 30
0.000000
  70
    32
  0
VERTEX
  8
図枠
  5
948
 10
952.810
 20
-707.347
 30
0.000000
  70
    32
  0
VERTEX
  8
図枠
  5
949
 10
952.828
 20
-707.363
 30
0.000000
  70
    32
  0
VERTEX
  8
図枠
  5
94A
 10
952.845
 20
-707.380
 30
0.000000
  70
    32
  0
VERTEX
  8
図枠
  5
94B
 10
952.863
 20
-707.396
 30
0.000000
  70
    32
  0
SEQEND
  8
図枠
  5
94C
  0
LINE
  5
44E
  8
図枠
 10
964.62392921840012
 20
-697.93375566069994
 30
0.0
 11
942.12392921839989
 21
-697.93375566069994
 31
0.0
  0
LINE
  5
44F
  8
図枠
  6
BORDER
 10
953.32079784619998
 20
-651.87543807789984
 30
0.0
 11
991.82079784619998
 21
-651.87543807789984
 31
0.0
  0
LINE
  5
450
  8
図枠
 10
942.12392921839989
 20
-702.43375566069994
 30
0.0
 11
954.62392921839989
 21
-702.43375566069994
 31
0.0
  0
LINE
  5
451
  8
図枠
 10
953.46471044759994
 20
-706.73143292340001
 30
0.0
 11
952.8632209317999
 21
-707.3957788248
 31
0.0
  0
ARC
  5
452
  8
図枠
 10
945.12392921840001
 20
-702.18375566070006
 30
0.0
 40
9.5
 50
331.39928138329998
 51
358.49204224580001
  0
INSERT
  5
453
  8
0
  6
CONTINUOUS
  2
*U112
 10
0.0
 20
0.0
 30
0.0
  0
INSERT
  5
454
  8
0
  6
CONTINUOUS
  2
*U113
 10
0.0
 20
0.0
 30
0.0
  0
INSERT
  5
456
  8
寸法線
  2
BALLON7
 10
0.0
 20
0.0
 30
0.0
  0
INSERT
  5
460
  8
寸法線
  2
BALLON8
 10
0.0
 20
0.0
 30
0.0
  0
DIMENSION
  5
478
  8
寸法線
  2
*D19
 10
594.61583780959995
 20
2.5277343750000001
 30
0.0
 11
594.61583780959995
 21
-22.472265624999999
 31
0.0
 70
   128
  1
(50)
 13
636.2488707990999
 23
2.5277343750000001
 33
0.0
 14
649.60824579910002
 24
-47.472265624999991
 34
0.0
 50
90.0
  0
DIMENSION
  5
487
  8
寸法線
  2
*D20
 10
562.36762232499996
 20
6.427734375
 30
0.0
 11
562.36762232499996
 21
20.2455730438
 31
0.0
 70
   128
  1
4
 13
663.34887079910004
 23
6.427734375
 33
0.0
 14
636.2488707990999
 24
2.5277343750000001
 34
0.0
 50
90.0
  0
ARC
  5
488
  8
ﾚｲﾔ_1
 62
     5
 10
636.2488707990999
 20
0.027734375
 30
0.0
 40
2.5
 50
90.0
 51
180.0
  0
ARC
  5
489
  8
ﾚｲﾔ_1
 62
     5
 10
636.2488707990999
 20
-12.972265625
 30
0.0
 40
2.5
 50
180.0
 51
270.0
  0
LINE
  5
48A
  8
ﾚｲﾔ_1
 62
     5
 10
633.74887079910002
 20
-12.972265625
 30
0.0
 11
633.74887079910002
 21
0.027734375
 31
0.0
  0
LINE
  5
48B
  8
ﾚｲﾔ_1
 62
     5
 10
636.34887079910004
 20
-15.472265625
 30
0.0
 11
636.34887079910004
 21
-170.55462760419999
 31
0.0
  0
LINE
  5
48C
  8
ﾚｲﾔ_1
  6
BORDER
 62
     3
 10
626.20131270009995
 20
-170.55462760419999
 30
0.0
 11
662.62259774499989
 21
-170.55462760419999
 31
0.0
  0
LINE
  5
48D
  8
ﾚｲﾔ_1
  6
BORDER
 62
     3
 10
626.20131270009995
 20
-179.0050182292
 30
0.0
 11
662.62259774499989
 21
-179.0050182292
 31
0.0
  0
LINE
  5
48E
  8
ﾚｲﾔ_1
 62
     5
 10
636.2488707990999
 20
2.5277343750000001
 30
0.0
 11
706.44887079909995
 21
2.5277343750000001
 31
0.0
  0
LINE
  5
48F
  8
ﾚｲﾔ_1
 62
     5
 10
636.2488707990999
 20
-15.472265625
 30
0.0
 11
706.44887079909995
 21
-15.472265625
 31
0.0
  0
LINE
  5
490
  8
CONSTRUCTION
 62
     5
 10
633.74887079910002
 20
103.0044894673
 30
0.0
 11
633.74887079910002
 21
173.20448946729999
 31
0.0
  0
ARC
  5
491
  8
CONSTRUCTION
 62
     5
 10
636.2488707990999
 20
103.0044894673
 30
0.0
 40
2.5
 50
180.0
 51
270.0
  0
ARC
  5
492
  8
CONSTRUCTION
 62
     5
 10
636.2488707990999
 20
173.20448946729999
 30
0.0
 40
2.5
 50
90.0
 51
180.0
  0
LINE
  5
493
  8
ﾚｲﾔ_1
 62
     5
 10
1020.36171875
 20
-477.17226562500002
 30
0.0
 11
1020.36171875
 21
-490.97226562499992
 31
0.0
  0
LINE
  5
494
  8
ﾚｲﾔ_1
 62
     5
 10
1022.16171875
 20
-408.47226562499992
 30
0.0
 11
1022.16171875
 21
-490.97226562499992
 31
0.0
  0
LINE
  5
495
  8
ﾚｲﾔ_1
 62
     5
 10
1091.96171875
 20
-477.17226562500002
 30
0.0
 11
1091.96171875
 21
-490.97226562499992
 31
0.0
  0
LINE
  5
496
  8
ﾚｲﾔ_1
 62
     5
 10
1091.1617187500001
 20
-477.17226562500002
 30
0.0
 11
1091.1617187500001
 21
-490.97226562499992
 31
0.0
  0
DIMENSION
  5
4A5
  8
寸法線
  2
*D21
 10
706.34887079910004
 20
48.166276550299997
 30
0.0
 11
671.34887079910004
 21
48.166276550299997
 31
0.0
 70
   128
  1
□70
 13
706.34887079910004
 23
-15.472265625
 33
0.0
 14
636.34887079910004
 24
-15.472265625
 34
0.0
  0
INSERT
  5
4A7
  8
寸法線
  2
BALLON9
 10
0.0
 20
0.0
 30
0.0
  0
DIMENSION
  5
4BE
  8
寸法線
  2
*D23
 10
885.43916367910003
 20
50.589906133900001
 30
0.0
 11
847.83916367910001
 21
50.589906133900001
 31
0.0
 70
   128
  1
□75
 13
885.43916367910003
 23
0.027734375
 33
0.0
 14
810.23916367909987
 24
0.027734375
 34
0.0
  0
INSERT
  5
4C0
  8
寸法線
  2
BALLON10
 10
0.0
 20
0.0
 30
0.0
  0
INSERT
  5
4C9
  8
0
  6
CONTINUOUS
  2
*U118
 10
0.0
 20
0.0
 30
0.0
  0
ARC
  5
4CA
  8
ﾚｲﾔ_1
 62
     5
 10
638.04887079909997
 20
-490.97226562499992
 30
0.0
 40
2.5
 50
180.0
 51
270.0
  0
LINE
  5
4CB
  8
ﾚｲﾔ_1
 62
     5
 10
638.04887079909997
 20
-493.47226562499992
 30
0.0
 11
704.6488707991
 21
-493.47226562499992
 31
0.0
  0
LINE
  5
4CC
  8
ﾚｲﾔ_1
 62
     5
 10
635.54887079910009
 20
-477.17226562500002
 30
0.0
 11
707.1488707991
 21
-477.17226562500002
 31
0.0
  0
LINE
  5
4CD
  8
図枠
 10
916.32079784619987
 20
-679.37543807789984
 30
0.0
 11
997.57079784619987
 21
-679.37543807789984
 31
0.0
  0
INSERT
  5
4CE
  8
0
  6
CONTINUOUS
  2
*U119
 10
0.0
 20
0.0
 30
0.0
  0
INSERT
  5
4CF
  8
0
  6
CONTINUOUS
  2
*U120
 10
0.0
 20
0.0
 30
0.0
  0
INSERT
  5
4D0
  8
0
  6
CONTINUOUS
  2
*U121
 10
0.0
 20
0.0
 30
0.0
  0
INSERT
  5
4D1
  8
0
  6
CONTINUOUS
  2
*U122
 10
0.0
 20
0.0
 30
0.0
  0
INSERT
  5
4D2
  8
0
  6
CONTINUOUS
  2
*U123
 10
0.0
 20
0.0
 30
0.0
  0
INSERT
  5
4D3
  8
0
  6
CONTINUOUS
  2
*U124
 10
0.0
 20
0.0
 30
0.0
  0
INSERT
  5
4D4
  8
0
  6
CONTINUOUS
  2
*U125
 10
0.0
 20
0.0
 30
0.0
  0
INSERT
  5
4D5
  8
0
  6
CONTINUOUS
  2
*U126
 10
0.0
 20
0.0
 30
0.0
  0
INSERT
  5
4D6
  8
0
  6
CONTINUOUS
  2
*U127
 10
0.0
 20
0.0
 30
0.0
  0
POLYLINE
  8
図枠
  5
94D
  66
     1
 10
0.000000
 20
0.000000
 30
0.000000
  70
     8
  0
VERTEX
  8
図枠
  5
94E
 10
942.124
 20
-704.544
 30
0.000000
  70
    32
  0
VERTEX
  8
図枠
  5
94F
 10
942.169
 20
-704.586
 30
0.000000
  70
    32
  0
VERTEX
  8
図枠
  5
950
 10
942.214
 20
-704.627
 30
0.000000
  70
    32
  0
VERTEX
  8
図枠
  5
951
 10
942.259
 20
-704.669
 30
0.000000
  70
    32
  0
VERTEX
  8
図枠
  5
952
 10
942.304
 20
-704.710
 30
0.000000
  70
    32
  0
VERTEX
  8
図枠
  5
953
 10
942.349
 20
-704.752
 30
0.000000
  70
    32
  0
VERTEX
  8
図枠
  5
954
 10
942.394
 20
-704.793
 30
0.000000
  70
    32
  0
VERTEX
  8
図枠
  5
955
 10
942.439
 20
-704.835
 30
0.000000
  70
    32
  0
VERTEX
  8
図枠
  5
956
 10
942.484
 20
-704.876
 30
0.000000
  70
    32
  0
VERTEX
  8
図枠
  5
957
 10
942.529
 20
-704.918
 30
0.000000
  70
    32
  0
VERTEX
  8
図枠
  5
958
 10
942.574
 20
-704.959
 30
0.000000
  70
    32
  0
VERTEX
  8
図枠
  5
959
 10
942.619
 20
-705.001
 30
0.000000
  70
    32
  0
VERTEX
  8
図枠
  5
95A
 10
942.664
 20
-705.042
 30
0.000000
  70
    32
  0
VERTEX
  8
図枠
  5
95B
 10
942.709
 20
-705.084
 30
0.000000
  70
    32
  0
VERTEX
  8
図枠
  5
95C
 10
942.755
 20
-705.125
 30
0.000000
  70
    32
  0
VERTEX
  8
図枠
  5
95D
 10
942.800
 20
-705.166
 30
0.000000
  70
    32
  0
VERTEX
  8
図枠
  5
95E
 10
942.845
 20
-705.208
 30
0.000000
  70
    32
  0
VERTEX
  8
図枠
  5
95F
 10
942.890
 20
-705.249
 30
0.000000
  70
    32
  0
VERTEX
  8
図枠
  5
960
 10
942.935
 20
-705.291
 30
0.000000
  70
    32
  0
VERTEX
  8
図枠
  5
961
 10
942.980
 20
-705.332
 30
0.000000
  70
    32
  0
VERTEX
  8
図枠
  5
962
 10
943.025
 20
-705.373
 30
0.000000
  70
    32
  0
VERTEX
  8
図枠
  5
963
 10
943.070
 20
-705.415
 30
0.000000
  70
    32
  0
VERTEX
  8
図枠
  5
964
 10
943.115
 20
-705.456
 30
0.000000
  70
    32
  0
VERTEX
  8
図枠
  5
965
 10
943.161
 20
-705.497
 30
0.000000
  70
    32
  0
VERTEX
  8
図枠
  5
966
 10
943.206
 20
-705.538
 30
0.000000
  70
    32
  0
VERTEX
  8
図枠
  5
967
 10
943.251
 20
-705.580
 30
0.000000
  70
    32
  0
VERTEX
  8
図枠
  5
968
 10
943.296
 20
-705.621
 30
0.000000
  70
    32
  0
VERTEX
  8
図枠
  5
969
 10
943.341
 20
-705.662
 30
0.000000
  70
    32
  0
VERTEX
  8
図枠
  5
96A
 10
943.386
 20
-705.703
 30
0.000000
  70
    32
  0
VERTEX
  8
図枠
  5
96B
 10
943.432
 20
-705.744
 30
0.000000
  70
    32
  0
VERTEX
  8
図枠
  5
96C
 10
943.477
 20
-705.786
 30
0.000000
  70
    32
  0
VERTEX
  8
図枠
  5
96D
 10
943.522
 20
-705.827
 30
0.000000
  70
    32
  0
VERTEX
  8
図枠
  5
96E
 10
943.567
 20
-705.868
 30
0.000000
  70
    32
  0
VERTEX
  8
図枠
  5
96F
 10
943.613
 20
-705.909
 30
0.000000
  70
    32
  0
VERTEX
  8
図枠
  5
970
 10
943.658
 20
-705.950
 30
0.000000
  70
    32
  0
VERTEX
  8
図枠
  5
971
 10
943.703
 20
-705.991
 30
0.000000
  70
    32
  0
VERTEX
  8
図枠
  5
972
 10
943.749
 20
-706.032
 30
0.000000
  70
    32
  0
VERTEX
  8
図枠
  5
973
 10
943.794
 20
-706.073
 30
0.000000
  70
    32
  0
VERTEX
  8
図枠
  5
974
 10
943.839
 20
-706.114
 30
0.000000
  70
    32
  0
VERTEX
  8
図枠
  5
975
 10
943.885
 20
-706.155
 30
0.000000
  70
    32
  0
VERTEX
  8
図枠
  5
976
 10
943.930
 20
-706.195
 30
0.000000
  70
    32
  0
VERTEX
  8
図枠
  5
977
 10
943.975
 20
-706.236
 30
0.000000
  70
    32
  0
VERTEX
  8
図枠
  5
978
 10
944.021
 20
-706.277
 30
0.000000
  70
    32
  0
VERTEX
  8
図枠
  5
979
 10
944.066
 20
-706.318
 30
0.000000
  70
    32
  0
VERTEX
  8
図枠
  5
97A
 10
944.112
 20
-706.358
 30
0.000000
  70
    32
  0
VERTEX
  8
図枠
  5
97B
 10
944.157
 20
-706.399
 30
0.000000
  70
    32
  0
VERTEX
  8
図枠
  5
97C
 10
944.203
 20
-706.440
 30
0.000000
  70
    32
  0
VERTEX
  8
図枠
  5
97D
 10
944.248
 20
-706.480
 30
0.000000
  70
    32
  0
VERTEX
  8
図枠
  5
97E
 10
944.294
 20
-706.521
 30
0.000000
  70
    32
  0
VERTEX
  8
図枠
  5
97F
 10
944.339
 20
-706.561
 30
0.000000
  70
    32
  0
VERTEX
  8
図枠
  5
980
 10
944.385
 20
-706.602
 30
0.000000
  70
    32
  0
VERTEX
  8
図枠
  5
981
 10
944.431
 20
-706.642
 30
0.000000
  70
    32
  0
VERTEX
  8
図枠
  5
982
 10
944.476
 20
-706.682
 30
0.000000
  70
    32
  0
VERTEX
  8
図枠
  5
983
 10
944.522
 20
-706.723
 30
0.000000
  70
    32
  0
VERTEX
  8
図枠
  5
984
 10
944.568
 20
-706.763
 30
0.000000
  70
    32
  0
VERTEX
  8
図枠
  5
985
 10
944.613
 20
-706.803
 30
0.000000
  70
    32
  0
VERTEX
  8
図枠
  5
986
 10
944.659
 20
-706.843
 30
0.000000
  70
    32
  0
VERTEX
  8
図枠
  5
987
 10
944.705
 20
-706.884
 30
0.000000
  70
    32
  0
VERTEX
  8
図枠
  5
988
 10
944.751
 20
-706.924
 30
0.000000
  70
    32
  0
VERTEX
  8
図枠
  5
989
 10
944.797
 20
-706.964
 30
0.000000
  70
    32
  0
VERTEX
  8
図枠
  5
98A
 10
944.842
 20
-707.004
 30
0.000000
  70
    32
  0
VERTEX
  8
図枠
  5
98B
 10
944.888
 20
-707.044
 30
0.000000
  70
    32
  0
VERTEX
  8
図枠
  5
98C
 10
944.934
 20
-707.083
 30
0.000000
  70
    32
  0
VERTEX
  8
図枠
  5
98D
 10
944.980
 20
-707.123
 30
0.000000
  70
    32
  0
VERTEX
  8
図枠
  5
98E
 10
945.026
 20
-707.163
 30
0.000000
  70
    32
  0
VERTEX
  8
図枠
  5
98F
 10
945.072
 20
-707.203
 30
0.000000
  70
    32
  0
VERTEX
  8
図枠
  5
990
 10
945.118
 20
-707.242
 30
0.000000
  70
    32
  0
VERTEX
  8
図枠
  5
991
 10
945.164
 20
-707.282
 30
0.000000
  70
    32
  0
VERTEX
  8
図枠
  5
992
 10
945.210
 20
-707.321
 30
0.000000
  70
    32
  0
VERTEX
  8
図枠
  5
993
 10
945.256
 20
-707.361
 30
0.000000
  70
    32
  0
VERTEX
  8
図枠
  5
994
 10
945.303
 20
-707.400
 30
0.000000
  70
    32
  0
VERTEX
  8
図枠
  5
995
 10
945.349
 20
-707.440
 30
0.000000
  70
    32
  0
VERTEX
  8
図枠
  5
996
 10
945.395
 20
-707.479
 30
0.000000
  70
    32
  0
VERTEX
  8
図枠
  5
997
 10
945.441
 20
-707.518
 30
0.000000
  70
    32
  0
VERTEX
  8
図枠
  5
998
 10
945.488
 20
-707.557
 30
0.000000
  70
    32
  0
VERTEX
  8
図枠
  5
999
 10
945.534
 20
-707.597
 30
0.000000
  70
    32
  0
VERTEX
  8
図枠
  5
99A
 10
945.580
 20
-707.636
 30
0.000000
  70
    32
  0
VERTEX
  8
図枠
  5
99B
 10
945.627
 20
-707.675
 30
0.000000
  70
    32
  0
VERTEX
  8
図枠
  5
99C
 10
945.673
 20
-707.713
 30
0.000000
  70
    32
  0
VERTEX
  8
図枠
  5
99D
 10
945.720
 20
-707.752
 30
0.000000
  70
    32
  0
VERTEX
  8
図枠
  5
99E
 10
945.766
 20
-707.791
 30
0.000000
  70
    32
  0
VERTEX
  8
図枠
  5
99F
 10
945.813
 20
-707.830
 30
0.000000
  70
    32
  0
VERTEX
  8
図枠
  5
9A0
 10
945.859
 20
-707.868
 30
0.000000
  70
    32
  0
VERTEX
  8
図枠
  5
9A1
 10
945.906
 20
-707.907
 30
0.000000
  70
    32
  0
VERTEX
  8
図枠
  5
9A2
 10
945.952
 20
-707.946
 30
0.000000
  70
    32
  0
VERTEX
  8
図枠
  5
9A3
 10
945.999
 20
-707.984
 30
0.000000
  70
    32
  0
VERTEX
  8
図枠
  5
9A4
 10
946.046
 20
-708.022
 30
0.000000
  70
    32
  0
VERTEX
  8
図枠
  5
9A5
 10
946.093
 20
-708.061
 30
0.000000
  70
    32
  0
VERTEX
  8
図枠
  5
9A6
 10
946.140
 20
-708.099
 30
0.000000
  70
    32
  0
VERTEX
  8
図枠
  5
9A7
 10
946.186
 20
-708.137
 30
0.000000
  70
    32
  0
VERTEX
  8
図枠
  5
9A8
 10
946.233
 20
-708.175
 30
0.000000
  70
    32
  0
VERTEX
  8
図枠
  5
9A9
 10
946.280
 20
-708.213
 30
0.000000
  70
    32
  0
VERTEX
  8
図枠
  5
9AA
 10
946.327
 20
-708.251
 30
0.000000
  70
    32
  0
VERTEX
  8
図枠
  5
9AB
 10
946.374
 20
-708.289
 30
0.000000
  70
    32
  0
VERTEX
  8
図枠
  5
9AC
 10
946.421
 20
-708.326
 30
0.000000
  70
    32
  0
VERTEX
  8
図枠
  5
9AD
 10
946.468
 20
-708.364
 30
0.000000
  70
    32
  0
VERTEX
  8
図枠
  5
9AE
 10
946.516
 20
-708.402
 30
0.000000
  70
    32
  0
VERTEX
  8
図枠
  5
9AF
 10
946.563
 20
-708.439
 30
0.000000
  70
    32
  0
VERTEX
  8
図枠
  5
9B0
 10
946.610
 20
-708.476
 30
0.000000
  70
    32
  0
VERTEX
  8
図枠
  5
9B1
 10
946.657
 20
-708.514
 30
0.000000
  70
    32
  0
VERTEX
  8
図枠
  5
9B2
 10
946.705
 20
-708.551
 30
0.000000
  70
    32
  0
VERTEX
  8
図枠
  5
9B3
 10
946.752
 20
-708.588
 30
0.000000
  70
    32
  0
VERTEX
  8
図枠
  5
9B4
 10
946.799
 20
-708.625
 30
0.000000
  70
    32
  0
VERTEX
  8
図枠
  5
9B5
 10
946.847
 20
-708.662
 30
0.000000
  70
    32
  0
VERTEX
  8
図枠
  5
9B6
 10
946.894
 20
-708.699
 30
0.000000
  70
    32
  0
VERTEX
  8
図枠
  5
9B7
 10
946.942
 20
-708.736
 30
0.000000
  70
    32
  0
VERTEX
  8
図枠
  5
9B8
 10
946.990
 20
-708.773
 30
0.000000
  70
    32
  0
VERTEX
  8
図枠
  5
9B9
 10
947.037
 20
-708.809
 30
0.000000
  70
    32
  0
VERTEX
  8
図枠
  5
9BA
 10
947.085
 20
-708.846
 30
0.000000
  70
    32
  0
VERTEX
  8
図枠
  5
9BB
 10
947.133
 20
-708.882
 30
0.000000
  70
    32
  0
VERTEX
  8
図枠
  5
9BC
 10
947.181
 20
-708.918
 30
0.000000
  70
    32
  0
VERTEX
  8
図枠
  5
9BD
 10
947.229
 20
-708.955
 30
0.000000
  70
    32
  0
VERTEX
  8
図枠
  5
9BE
 10
947.277
 20
-708.991
 30
0.000000
  70
    32
  0
VERTEX
  8
図枠
  5
9BF
 10
947.325
 20
-709.027
 30
0.000000
  70
    32
  0
VERTEX
  8
図枠
  5
9C0
 10
947.373
 20
-709.063
 30
0.000000
  70
    32
  0
VERTEX
  8
図枠
  5
9C1
 10
947.421
 20
-709.099
 30
0.000000
  70
    32
  0
VERTEX
  8
図枠
  5
9C2
 10
947.469
 20
-709.134
 30
0.000000
  70
    32
  0
VERTEX
  8
図枠
  5
9C3
 10
947.517
 20
-709.170
 30
0.000000
  70
    32
  0
VERTEX
  8
図枠
  5
9C4
 10
947.565
 20
-709.206
 30
0.000000
  70
    32
  0
VERTEX
  8
図枠
  5
9C5
 10
947.614
 20
-709.241
 30
0.000000
  70
    32
  0
VERTEX
  8
図枠
  5
9C6
 10
947.662
 20
-709.276
 30
0.000000
  70
    32
  0
VERTEX
  8
図枠
  5
9C7
 10
947.710
 20
-709.312
 30
0.000000
  70
    32
  0
VERTEX
  8
図枠
  5
9C8
 10
947.759
 20
-709.347
 30
0.000000
  70
    32
  0
VERTEX
  8
図枠
  5
9C9
 10
947.807
 20
-709.382
 30
0.000000
  70
    32
  0
VERTEX
  8
図枠
  5
9CA
 10
947.856
 20
-709.417
 30
0.000000
  70
    32
  0
VERTEX
  8
図枠
  5
9CB
 10
947.905
 20
-709.451
 30
0.000000
  70
    32
  0
VERTEX
  8
図枠
  5
9CC
 10
947.953
 20
-709.486
 30
0.000000
  70
    32
  0
VERTEX
  8
図枠
  5
9CD
 10
948.002
 20
-709.521
 30
0.000000
  70
    32
  0
VERTEX
  8
図枠
  5
9CE
 10
948.051
 20
-709.555
 30
0.000000
  70
    32
  0
VERTEX
  8
図枠
  5
9CF
 10
948.100
 20
-709.590
 30
0.000000
  70
    32
  0
VERTEX
  8
図枠
  5
9D0
 10
948.149
 20
-709.624
 30
0.000000
  70
    32
  0
VERTEX
  8
図枠
  5
9D1
 10
948.198
 20
-709.658
 30
0.000000
  70
    32
  0
VERTEX
  8
図枠
  5
9D2
 10
948.247
 20
-709.692
 30
0.000000
  70
    32
  0
VERTEX
  8
図枠
  5
9D3
 10
948.296
 20
-709.726
 30
0.000000
  70
    32
  0
VERTEX
  8
図枠
  5
9D4
 10
948.345
 20
-709.760
 30
0.000000
  70
    32
  0
VERTEX
  8
図枠
  5
9D5
 10
948.394
 20
-709.793
 30
0.000000
  70
    32
  0
VERTEX
  8
図枠
  5
9D6
 10
948.444
 20
-709.827
 30
0.000000
  70
    32
  0
VERTEX
  8
図枠
  5
9D7
 10
948.493
 20
-709.860
 30
0.000000
  70
    32
  0
VERTEX
  8
図枠
  5
9D8
 10
948.543
 20
-709.894
 30
0.000000
  70
    32
  0
VERTEX
  8
図枠
  5
9D9
 10
948.592
 20
-709.927
 30
0.000000
  70
    32
  0
VERTEX
  8
図枠
  5
9DA
 10
948.642
 20
-709.960
 30
0.000000
  70
    32
  0
VERTEX
  8
図枠
  5
9DB
 10
948.691
 20
-709.993
 30
0.000000
  70
    32
  0
VERTEX
  8
図枠
  5
9DC
 10
948.741
 20
-710.026
 30
0.000000
  70
    32
  0
VERTEX
  8
図枠
  5
9DD
 10
948.791
 20
-710.059
 30
0.000000
  70
    32
  0
VERTEX
  8
図枠
  5
9DE
 10
948.841
 20
-710.091
 30
0.000000
  70
    32
  0
VERTEX
  8
図枠
  5
9DF
 10
948.890
 20
-710.124
 30
0.000000
  70
    32
  0
VERTEX
  8
図枠
  5
9E0
 10
948.940
 20
-710.156
 30
0.000000
  70
    32
  0
VERTEX
  8
図枠
  5
9E1
 10
948.990
 20
-710.188
 30
0.000000
  70
    32
  0
VERTEX
  8
図枠
  5
9E2
 10
949.041
 20
-710.220
 30
0.000000
  70
    32
  0
VERTEX
  8
図枠
  5
9E3
 10
949.091
 20
-710.252
 30
0.000000
  70
    32
  0
VERTEX
  8
図枠
  5
9E4
 10
949.141
 20
-710.284
 30
0.000000
  70
    32
  0
VERTEX
  8
図枠
  5
9E5
 10
949.191
 20
-710.316
 30
0.000000
  70
    32
  0
VERTEX
  8
図枠
  5
9E6
 10
949.242
 20
-710.348
 30
0.000000
  70
    32
  0
VERTEX
  8
図枠
  5
9E7
 10
949.292
 20
-710.379
 30
0.000000
  70
    32
  0
VERTEX
  8
図枠
  5
9E8
 10
949.343
 20
-710.410
 30
0.000000
  70
    32
  0
VERTEX
  8
図枠
  5
9E9
 10
949.393
 20
-710.442
 30
0.000000
  70
    32
  0
VERTEX
  8
図枠
  5
9EA
 10
949.444
 20
-710.473
 30
0.000000
  70
    32
  0
VERTEX
  8
図枠
  5
9EB
 10
949.495
 20
-710.504
 30
0.000000
  70
    32
  0
VERTEX
  8
図枠
  5
9EC
 10
949.546
 20
-710.534
 30
0.000000
  70
    32
  0
VERTEX
  8
図枠
  5
9ED
 10
949.596
 20
-710.565
 30
0.000000
  70
    32
  0
SEQEND
  8
図枠
  5
9EE
  0
LINE
  5
4D8
  8
図枠
 10
942.12392921839989
 20
-703.73903132939995
 30
0.0
 11
952.12392921840012
 21
-703.73903132939995
 31
0.0
  0
ARC
  5
4D9
  8
図枠
 10
945.12392921840001
 20
-702.18375566070006
 30
0.0
 40
9.5
 50
270.0
 51
298.08590481520002
  0
LINE
  5
4DA
  8
ﾚｲﾔ_1
 62
     5
 10
882.83916367910001
 20
-179.0050182292
 30
0.0
 11
882.83916367910001
 21
-477.17226562500002
 31
0.0
  0
LINE
  5
4DB
  8
ﾚｲﾔ_1
 62
     5
 10
812.83916367910001
 20
-179.0050182292
 30
0.0
 11
812.83916367910001
 21
-477.17226562500002
 31
0.0
  0
INSERT
  5
4DD
  8
ﾚｲﾔ_1
  2
*X25
 10
0.0
 20
0.0
 30
0.0
  0
LINE
  5
4F5
  8
ﾚｲﾔ_1
 62
     5
 10
1022.16171875
 20
-179.0050182292
 30
0.0
 11
1022.16171875
 21
-378.47226562499998
 31
0.0
  0
LINE
  5
4F6
  8
ﾚｲﾔ_1
 62
     5
 10
1021.16171875
 20
-179.0050182292
 30
0.0
 11
1021.16171875
 21
-378.47226562499998
 31
0.0
  0
LINE
  5
4F7
  8
ﾚｲﾔ_1
 62
     5
 10
1044.1617187500001
 20
-366.47226562499998
 30
0.0
 11
1044.1617187500001
 21
-179.0050182292
 31
0.0
  0
LINE
  5
4F8
  8
ﾚｲﾔ_1
 62
     5
 10
1043.1617187500001
 20
-366.47226562499998
 30
0.0
 11
1043.1617187500001
 21
-179.0050182292
 31
0.0
  0
LINE
  5
4F9
  8
ﾚｲﾔ_1
 62
     5
 10
1058.1617187500001
 20
-366.47226562499998
 30
0.0
 11
1058.1617187500001
 21
-179.97340307939999
 31
0.0
  0
LINE
  5
4FA
  8
ﾚｲﾔ_1
 62
     5
 10
1059.1617187500001
 20
-366.47226562499998
 30
0.0
 11
1059.1617187500001
 21
-180.45759550459999
 31
0.0
  0
LINE
  5
4FB
  8
ﾚｲﾔ_1
  6
BORDER
 62
     3
 10
671.34887079910004
 20
11.427734375
 30
0.0
 11
671.34887079910004
 21
-498.47226562499992
 31
0.0
  0
LINE
  5
4FC
  8
ﾚｲﾔ_1
 62
     5
 10
706.34887079910004
 20
-179.0050182292
 30
0.0
 11
706.34887079910004
 21
-477.17226562500002
 31
0.0
  0
LINE
  5
4FD
  8
ﾚｲﾔ_1
 62
     5
 10
636.34887079910004
 20
-179.0050182292
 30
0.0
 11
636.34887079910004
 21
-477.17226562500002
 31
0.0
  0
DIMENSION
  5
50C
  8
寸法線
  2
*D26
 10
594.36241144849987
 20
-47.472265624999991
 30
0.0
 11
594.36241144849987
 21
-225.53195294139999
 31
0.0
 70
   128
  1
1250
 13
649.60824579910002
 23
-47.472265624999991
 33
0.0
 14
649.60824579910002
 24
-393.47226562499998
 34
0.0
 50
90.0
  0
DIMENSION
  5
51B
  8
寸法線
  2
*D27
 10
562.17924952220005
 20
2.5277343750000001
 30
0.0
 11
562.17924952220005
 21
-250.16509232109999
 31
0.0
 70
   128
  1
1500
 13
638.04887079909997
 23
2.5277343750000001
 33
0.0
 14
638.04887079909997
 24
-493.47226562499992
 34
0.0
 50
90.0
  0
LINE
  5
51C
  8
ﾚｲﾔ_1
 62
     5
 10
1091.1617187500001
 20
-179.0050182292
 30
0.0
 11
1091.1617187500001
 21
-477.17226562500002
 31
0.0
  0
LINE
  5
51D
  8
ﾚｲﾔ_1
 62
     5
 10
1090.1617187500001
 20
-179.0050182292
 30
0.0
 11
1090.1617187500001
 21
-490.97226562499992
 31
0.0
  0
LINE
  5
51E
  8
図枠
 62
     5
 10
1178.8207978462001
 20
279.37456192209999
 30
0.0
 11
1178.8207978462001
 21
-720.62543807789984
 31
0.0
  0
DIMENSION
  5
52D
  8
寸法線
  2
*D28
 10
594.18536755399987
 20
-393.47226562499998
 30
0.0
 11
594.18536755399987
 21
-443.47226562499992
 31
0.0
 70
   128
  1
200
 13
649.60824579910002
 23
-393.47226562499998
 33
0.0
 14
638.04887079909997
 24
-493.47226562499992
 34
0.0
 50
90.0
  0
LINE
  5
52E
  8
ﾚｲﾔ_1
 62
     5
 10
707.1488707991
 20
-477.17226562500002
 30
0.0
 11
707.1488707991
 21
-490.97226562499992
 31
0.0
  0
LINE
  5
52F
  8
ﾚｲﾔ_1
 62
     5
 10
635.54887079910009
 20
-477.17226562500002
 30
0.0
 11
635.54887079910009
 21
-490.97226562499992
 31
0.0
  0
INSERT
  5
531
  8
ﾚｲﾔ_1
  2
*X29
 10
0.0
 20
0.0
 30
0.0
  0
LINE
  5
547
  8
ﾚｲﾔ_1
 62
     5
 10
883.63916367910008
 20
-477.17226562500002
 30
0.0
 11
883.63916367910008
 21
-490.97226562499992
 31
0.0
  0
LINE
  5
548
  8
ﾚｲﾔ_1
 62
     5
 10
812.03916367910006
 20
-477.17226562500002
 30
0.0
 11
812.03916367910006
 21
-490.97226562499992
 31
0.0
  0
INSERT
  5
54A
  8
寸法線
  2
BALLON11
 10
0.0
 20
0.0
 30
0.0
  0
LINE
  5
553
  8
ﾚｲﾔ_1
 62
     5
 10
1021.16171875
 20
-477.17226562500002
 30
0.0
 11
1021.16171875
 21
-490.97226562499992
 31
0.0
  0
LINE
  5
554
  8
図枠
  6
DOT
 10
1193.0207978461999
 20
293.72456192210001
 30
0.0
 11
480.87079784619999
 21
293.72456192210001
 31
0.0
  0
LINE
  5
555
  8
図枠
 62
     5
 10
1178.8207978462001
 20
279.37456192209999
 30
0.0
 11
495.07079784619998
 21
279.37456192209999
 31
0.0
  0
LINE
  5
556
  8
図枠
 62
     5
 10
1178.8207978462001
 20
-720.62543807789984
 30
0.0
 11
495.07079784619998
 21
-720.62543807789984
 31
0.0
  0
LINE
  5
557
  8
図枠
 10
1178.8207978462001
 20
-638.12543807789984
 30
0.0
 11
816.32079784619987
 21
-638.12543807789984
 31
0.0
  0
LINE
  5
558
  8
図枠
 10
816.32079784619987
 20
-693.12543807789984
 30
0.0
 11
1178.8207978462001
 21
-693.12543807789984
 31
0.0
  0
LINE
  5
559
  8
図枠
 10
816.32079784619987
 20
-665.62543807789996
 30
0.0
 11
1178.8207978462001
 21
-665.62543807789996
 31
0.0
  0
LINE
  5
55A
  8
図枠
 10
1178.8207978462001
 20
-625.62543807789984
 30
0.0
 11
816.32079784619987
 21
-625.62543807789984
 31
0.0
  0
INSERT
  5
55C
  8
図枠
  2
CLUMP3
 10
0.0
 20
0.0
 30
0.0
  0
INSERT
  5
566
  8
図枠
  2
CLUMP4
 10
0.0
 20
0.0
 30
0.0
  0
LINE
  5
56F
  8
図枠
 10
816.32079784619987
 20
-638.12543807789984
 30
0.0
 11
1178.8207978462001
 21
-638.12543807789984
 31
0.0
  0
LINE
  5
570
  8
図枠
 10
1178.8207978462001
 20
-638.12543807789984
 30
0.0
 11
816.32079784619987
 21
-638.12543807789984
 31
0.0
  0
INSERT
  5
572
  8
図枠
  2
CLUMP5
 10
0.0
 20
0.0
 30
0.0
  0
INSERT
  5
57C
  8
図枠
  2
CLUMP6
 10
0.0
 20
0.0
 30
0.0
  0
INSERT
  5
586
  8
図枠
  2
CLUMP7
 10
0.0
 20
0.0
 30
0.0
  0
INSERT
  5
590
  8
図枠
  2
CLUMP8
 10
0.0
 20
0.0
 30
0.0
  0
INSERT
  5
599
  8
0
  6
CONTINUOUS
  2
*U129
 10
0.0
 20
0.0
 30
0.0
  0
INSERT
  5
59B
  8
図枠
  2
CLUMP9
 10
0.0
 20
0.0
 30
0.0
  0
INSERT
  5
5A4
  8
0
  6
CONTINUOUS
  2
*U130
 10
0.0
 20
0.0
 30
0.0
  0
ARC
  5
5A5
  8
ﾚｲﾔ_1
 62
     5
 10
1087.4336145273001
 20
111.4824694511
 30
0.0
 40
22.0
 50
270.0
 51
0.0
  0
LINE
  5
5A6
  8
ﾚｲﾔ_1
 62
     5
 10
1111.9336145273001
 20
100.9824694511
 30
0.0
 11
1106.7662294565
 21
100.9824694511
 31
0.0
  0
INSERT
  5
5A8
  8
ﾚｲﾔ_1
  2
*X38
 10
0.0
 20
0.0
 30
0.0
  0
LINE
  5
5C7
  8
図枠
  6
DOT
 10
480.87079784619999
 20
293.72456192210001
 30
0.0
 11
480.87079784619999
 21
-734.97543807789998
 31
0.0
  0
LINE
  5
5C8
  8
図枠
 62
     5
 10
495.07079784619998
 20
279.37456192209999
 30
0.0
 11
495.07079784619998
 21
-720.62543807789984
 31
0.0
  0
INSERT
  5
5CA
  8
寸法線
  2
BALLON12
 10
0.0
 20
0.0
 30
0.0
  0
LINE
  5
5D3
  8
ﾚｲﾔ_1
  6
CENTER
 62
     3
 10
1051.1617187500001
 20
-52.472265143000001
 30
0.0
 11
1051.1617187500001
 21
-388.47226562499998
 31
0.0
  0
INSERT
  5
5E3
  8
0
  6
CONTINUOUS
  2
*U132
 10
0.0
 20
0.0
 30
0.0
  0
INSERT
  5
5E4
  8
0
  6
CONTINUOUS
  2
*U133
 10
0.0
 20
0.0
 30
0.0
  0
LINE
  5
5E5
  8
図枠
 62
     5
 10
943.82079784619987
 20
266.87456192209999
 30
0.0
 11
1178.8207978462001
 21
266.87456192209999
 31
0.0
  0
LINE
  5
5E6
  8
図枠
 62
     5
 10
943.82079784619987
 20
241.87456192210001
 30
0.0
 11
1178.8207978462001
 21
241.87456192210001
 31
0.0
  0
INSERT
  5
5E7
  8
0
  6
CONTINUOUS
  2
*U134
 10
0.0
 20
0.0
 30
0.0
  0
LINE
  5
5E8
  8
図枠
 62
     5
 10
943.82079784619987
 20
254.37456192210001
 30
0.0
 11
1178.8207978462001
 21
254.37456192210001
 31
0.0
  0
LINE
  5
5E9
  8
ﾚｲﾔ_1
 10
1005.2663514783
 20
221.9634772631
 30
0.0
 11
1128.8361527221
 21
221.9634772631
 31
0.0
  0
LINE
  5
5EA
  8
ﾚｲﾔ_1
 10
1128.8361527221
 20
70.616576592900003
 30
0.0
 11
1005.2663514783
 21
70.616576592900003
 31
0.0
  0
INSERT
  5
5EB
  8
0
  6
CONTINUOUS
  2
*U135
 10
0.0
 20
0.0
 30
0.0
  0
INSERT
  5
5EC
  8
0
  6
CONTINUOUS
  2
*U136
 10
0.0
 20
0.0
 30
0.0
  0
INSERT
  5
5ED
  8
0
  6
CONTINUOUS
  2
*U137
 10
0.0
 20
0.0
 30
0.0
  0
ENDSEC
  0
EOF
