  0
SECTION
  2
HEADER
  9
$ACADVER
  1
AC1009
  9
$INSBASE
 10
0.0
 20
0.0
 30
0.0
  9
$EXTMIN
 10
-57.443237434300272
 20
-379.5156334434775
 30
-0.0000000349181948
  9
$EXTMAX
 10
842.04318070645331
 20
260.73015763488462
 30
0.0000000814935747
  9
$LIMMIN
 10
0.0
 20
0.0
  9
$LIMMAX
 10
0.0
 20
0.0
  9
$ORTHOMODE
 70
     0
  9
$REGENMODE
 70
     1
  9
$FILLMODE
 70
     1
  9
$QTEXTMODE
 70
     0
  9
$MIRRTEXT
 70
     1
  9
$DRAGMODE
 70
     2
  9
$LTSCALE
 40
1.0
  9
$OSMODE
 70
    31
  9
$ATTMODE
 70
     1
  9
$TEXTSIZE
 40
0.0
  9
$TRACEWID
 40
0.05
  9
$TEXTSTYLE
  7
STANDARD
  9
$CLAYER
  8
0
  9
$CELTYPE
  6
CONTINUOUS
  9
$CECOLOR
 62
   256
  9
$DIMSCALE
 40
1.0
  9
$DIMASZ
 40
0.18
  9
$DIMEXO
 40
0.0625
  9
$DIMDLI
 40
0.38
  9
$DIMRND
 40
0.0
  9
$DIMDLE
 40
0.0
  9
$DIMEXE
 40
0.18
  9
$DIMTP
 40
0.0
  9
$DIMTM
 40
0.0
  9
$DIMTXT
 40
0.18
  9
$DIMCEN
 40
0.09
  9
$DIMTSZ
 40
0.0
  9
$DIMTOL
 70
     0
  9
$DIMLIM
 70
     0
  9
$DIMTIH
 70
     1
  9
$DIMTOH
 70
     1
  9
$DIMSE1
 70
     0
  9
$DIMSE2
 70
     0
  9
$DIMTAD
 70
     0
  9
$DIMZIN
 70
     0
  9
$DIMBLK
  1

  9
$DIMASO
 70
     1
  9
$DIMSHO
 70
     1
  9
$DIMPOST
  1

  9
$DIMAPOST
  1

  9
$DIMALT
 70
     0
  9
$DIMALTD
 70
     2
  9
$DIMALTF
 40
25.399999999999999
  9
$DIMLFAC
 40
1.0
  9
$DIMTOFL
 70
     0
  9
$DIMTVP
 40
0.0
  9
$DIMTIX
 70
     0
  9
$DIMSOXD
 70
     0
  9
$DIMSAH
 70
     0
  9
$DIMBLK1
  1

  9
$DIMBLK2
  1

  9
$DIMSTYLE
  2
STANDARD
  9
$DIMCLRD
 70
     0
  9
$DIMCLRE
 70
     0
  9
$DIMCLRT
 70
     0
  9
$DIMTFAC
 40
1.0
  9
$DIMGAP
 40
0.09
  9
$LUNITS
 70
     2
  9
$LUPREC
 70
     4
  9
$SKETCHINC
 40
0.1
  9
$FILLETRAD
 40
0.0
  9
$AUNITS
 70
     0
  9
$AUPREC
 70
     0
  9
$MENU
  1
acad
  9
$ELEVATION
 40
0.0
  9
$PELEVATION
 40
0.0
  9
$THICKNESS
 40
0.0
  9
$LIMCHECK
 70
     0
  9
$BLIPMODE
 70
     0
  9
$CHAMFERA
 40
0.0
  9
$CHAMFERB
 40
0.0
  9
$SKPOLY
 70
     0
  9
$TDCREATE
 40
2454861.6505951509
  9
$TDUPDATE
 40
2454861.6546619912
  9
$TDINDWG
 40
0.0026535417
  9
$TDUSRTIMER
 40
0.0026522801
  9
$USRTIMER
 70
     1
  9
$ANGBASE
 50
0.0
  9
$ANGDIR
 70
     0
  9
$PDMODE
 70
     3
  9
$PDSIZE
 40
-1.0
  9
$PLINEWID
 40
0.0
  9
$COORDS
 70
     2
  9
$SPLFRAME
 70
     0
  9
$SPLINETYPE
 70
     6
  9
$SPLINESEGS
 70
     8
  9
$ATTDIA
 70
     0
  9
$ATTREQ
 70
     1
  9
$HANDLING
 70
     1
  9
$HANDSEED
  5
669
  9
$SURFTAB1
 70
     6
  9
$SURFTAB2
 70
     6
  9
$SURFTYPE
 70
     6
  9
$SURFU
 70
     6
  9
$SURFV
 70
     6
  9
$UCSNAME
  2

  9
$UCSORG
 10
0.0
 20
0.0
 30
0.0
  9
$UCSXDIR
 10
1.0
 20
0.0
 30
0.0
  9
$UCSYDIR
 10
0.0
 20
1.0
 30
0.0
  9
$PUCSNAME
  2

  9
$PUCSORG
 10
0.0
 20
0.0
 30
0.0
  9
$PUCSXDIR
 10
1.0
 20
0.0
 30
0.0
  9
$PUCSYDIR
 10
0.0
 20
1.0
 30
0.0
  9
$USERI1
 70
     0
  9
$USERI2
 70
     0
  9
$USERI3
 70
     0
  9
$USERI4
 70
     0
  9
$USERI5
 70
     0
  9
$USERR1
 40
0.0
  9
$USERR2
 40
0.0
  9
$USERR3
 40
0.0
  9
$USERR4
 40
0.0
  9
$USERR5
 40
0.0
  9
$WORLDVIEW
 70
     1
  9
$SHADEDGE
 70
     3
  9
$SHADEDIF
 70
    70
  9
$TILEMODE
 70
     1
  9
$MAXACTVP
 70
    16
  9
$PLIMCHECK
 70
     0
  9
$PEXTMIN
 10
1.0000000000000000E+020
 20
1.0000000000000000E+020
 30
1.0000000000000000E+020
  9
$PEXTMAX
 10
-1.0000000000000000E+020
 20
-1.0000000000000000E+020
 30
-1.0000000000000000E+020
  9
$PLIMMIN
 10
0.0
 20
0.0
  9
$PLIMMAX
 10
12.0
 20
9.0
  9
$UNITMODE
 70
     0
  9
$VISRETAIN
 70
     0
  9
$PLINEGEN
 70
     1
  9
$PSLTSCALE
 70
     0
  0
ENDSEC
  0
SECTION
  2
TABLES
  0
TABLE
  2
VPORT
 70
     2
  0
VPORT
  2
*ACTIVE
 70
     0
 10
0.0
 20
0.0
 11
1.0
 21
1.0
 12
476.55498263745272
 22
-137.62768457653991
 13
0.0
 23
0.0
 14
1.0
 24
1.0
 15
0.0
 25
0.0
 16
0.0
 26
0.0
 36
1.0
 17
0.0
 27
0.0
 37
0.0
 40
501.23662941374499
 41
1.6343490304709141
 42
50.0
 43
0.0
 44
0.0
 50
0.0
 51
0.0
 71
     0
 72
   100
 73
     1
 74
     1
 75
     0
 76
     0
 77
     0
 78
     0
  0
ENDTAB
  0
TABLE
  2
LTYPE
 70
    11
  0
LTYPE
  2
CONTINUOUS
 70
     0
  3
Solid line
 72
    65
 73
     0
 40
0.0
  0
LTYPE
  2
DOT
 70
     0
  3
. . . . . . . . 
 72
    65
 73
     2
 40
1.0
 49
0.0
 49
-1.0
  0
LTYPE
  2
DASHED
 70
     0
  3
___  ___  ___  ___  
 72
    65
 73
     2
 40
4.0
 49
3.0
 49
-1.0
  0
LTYPE
  2
HIDDEN
 70
     0
  3
__ __ __ __ 
 72
    65
 73
     2
 40
3.0
 49
2.0
 49
-1.0
  0
LTYPE
  2
STITCH
 70
     0
  3
_ _ _ _ 
 72
    65
 73
     2
 40
2.0
 49
1.0
 49
-1.0
  0
LTYPE
  2
CENTER
 70
     0
  3
______  __  ______  __  
 72
    65
 73
     4
 40
43.0
 49
40.0
 49
-1.0
 49
1.0
 49
-1.0
  0
LTYPE
  2
DASHDOT
 70
     0
  3
____ . ____ . 
 72
    65
 73
     4
 40
32.0
 49
30.0
 49
-1.0
 49
0.0
 49
-1.0
  0
LTYPE
  2
BORDER
 70
     0
  3
__ . __ . 
 72
    65
 73
     4
 40
22.0
 49
20.0
 49
-1.0
 49
0.0
 49
-1.0
  0
LTYPE
  2
CUTTING
 70
     0
  3
________   ___   ___   
 72
    65
 73
     6
 40
45.0
 49
40.0
 49
-1.0
 49
1.0
 49
-1.0
 49
1.0
 49
-1.0
  0
LTYPE
  2
PHANTOM
 70
     0
  3
______  __  __  
 72
    65
 73
     6
 40
35.0
 49
30.0
 49
-1.0
 49
1.0
 49
-1.0
 49
1.0
 49
-1.0
  0
LTYPE
  2
DIVIDE
 70
     0
  3
____ . . ____ . . 
 72
    65
 73
     6
 40
23.0
 49
20.0
 49
-1.0
 49
0.0
 49
-1.0
 49
0.0
 49
-1.0
  0
ENDTAB
  0
TABLE
  2
LAYER
 70
     3
  0
LAYER
  2
0
 70
     0
 62
     7
  6
CONTINUOUS
  0
LAYER
  2
┌▓È_1
 70
     0
 62
     7
  6
CONTINUOUS
  0
LAYER
  2
Éíû@É³
 70
     0
 62
     7
  6
CONTINUOUS
  0
ENDTAB
  0
TABLE
  2
STYLE
 70
     1
  0
STYLE
  2
STANDARD
 70
     0
 40
0.0
 41
1.0
 50
0.0
 71
     0
 42
0.0
  3
txt
  4
extfont
  0
ENDTAB
  0
TABLE
  2
VIEW
 70
     0
  0
ENDTAB
  0
TABLE
  2
UCS
 70
     0
  0
ENDTAB
  0
TABLE
  2
APPID
 70
     2
  0
APPID
  2
ACAD
 70
     0
  0
APPID
  2
DCO15
 70
     0
  0
ENDTAB
  0
TABLE
  2
DIMSTYLE
 70
     2
  0
DIMSTYLE
  2
STANDARD
 70
     0
  3

  4

  5

  6

  7

 40
1.0
 41
0.18
 42
0.0625
 43
0.38
 44
0.18
 45
0.0
 46
0.0
 47
0.0
 48
0.0
140
0.18
141
0.09
142
0.0
143
25.399999999999999
144
1.0
145
0.0
146
1.0
147
0.09
 71
     0
 72
     0
 73
     1
 74
     1
 75
     0
 76
     0
 77
     0
 78
     0
170
     0
171
     2
172
     0
173
     0
174
     0
175
     0
176
     0
177
     0
178
     0
  0
DIMSTYLE
  2
VELDIM0
 70
     0
  3

  4

  5

  6

  7

 40
1.0
 41
4.4798226356999979
 42
0.0625
 43
0.38
 44
1.0
 45
0.0
 46
5.0
 47
0.0
 48
0.0
140
8.3442719935999978
141
0.09
142
0.0
143
25.399999999999999
144
1.0
145
0.0
146
1.0
147
0.09
 71
     0
 72
     0
 73
     0
 74
     0
 75
     0
 76
     0
 77
     0
 78
     8
170
     0
171
     2
172
     0
173
     0
174
     0
175
     0
176
     0
177
     0
178
     0
  0
ENDTAB
  0
ENDSEC
  0
SECTION
  2
BLOCKS
  0
BLOCK
  8
0
  2
$MODEL_SPACE
 70
     0
 10
0.0
 20
0.0
 30
0.0
  3
$MODEL_SPACE
  1

  0
ENDBLK
  5
5BE
  8
0
  0
BLOCK
 67
     1
  8
0
  2
$PAPER_SPACE
 70
     0
 10
0.0
 20
0.0
 30
0.0
  3
$PAPER_SPACE
  1

  0
ENDBLK
  5
5BA
 67
     1
  8
0
  0
BLOCK
  8
0
  2
BALLON0
 70
     0
 10
0.0
 20
0.0
 30
0.0
  3
BALLON0
  1

  0
INSERT
  5
48
  8
0
  6
CONTINUOUS
  2
*U3
 10
0.0
 20
0.0
 30
0.0
  0
CIRCLE
  5
49
  8
┌▓È_1
 10
447.15873141669999
 20
-116.7749576569
 30
0.0
 40
9.2757076000000005
  0
LINE
  5
4A
  8
Éíû@É³
 10
431.69921875
 20
-116.7749576569
 30
0.0
 11
437.88302381669979
 21
-116.7749576569
 31
0.0
  0
LINE
  5
4B
  8
Éíû@É³
 10
322.75
 20
-16.5
 30
0.0
 11
431.69921875
 21
-116.7749576569
 31
0.0
  0
SOLID
  5
4C
  8
Éíû@É³
 10
322.75
 20
-16.5
 30
0.0
 11
330.83129832520001
 21
-21.4165962738
 31
0.0
 12
328.20998390030002
 22
-21.525273799099999
 32
0.0
 13
328.20998390030002
 23
-21.525273799099999
 33
0.0
  0
SOLID
  5
4D
  8
Éíû@É³
 10
328.20998390030002
 20
-21.525273799099999
 30
0.0
 11
328.31866142569999
 21
-24.1465882239
 31
0.0
 12
322.75
 22
-16.5
 32
0.0
 13
322.75
 23
-16.5
 33
0.0
  0
ENDBLK
  5
4E
  8
0
  0
BLOCK
  8
0
  2
*U3
 70
     1
 10
0.0
 20
0.0
 30
0.0
  3
*U3
  1

  0
TEXT
  5
2DA
  8
Éíû@É³
  6
CONTINUOUS
 10
444.9773608193882
 20
-120.21083436009999
 30
0.0
 40
8.3442719935999978
  1
1
  0
ENDBLK
  5
2DC
  8
0
  0
BLOCK
  8
0
  2
BALLON1
 70
     0
 10
0.0
 20
0.0
 30
0.0
  3
BALLON1
  1

  0
INSERT
  5
52
  8
0
  6
CONTINUOUS
  2
*U5
 10
0.0
 20
0.0
 30
0.0
  0
CIRCLE
  5
53
  8
┌▓È_1
 10
510.57792222919988
 20
-116.7749576569
 30
0.0
 40
9.2757076000000005
  0
LINE
  5
54
  8
Éíû@É³
 10
526.03743489579995
 20
-116.7749576569
 30
0.0
 11
519.85362982920003
 21
-116.7749576569
 31
0.0
  0
LINE
  5
55
  8
Éíû@É³
 10
554.89531250000005
 20
-12.080729166699999
 30
0.0
 11
526.03743489579995
 21
-116.7749576569
 31
0.0
  0
SOLID
  5
56
  8
Éíû@É³
 10
554.89531250000005
 20
-12.080729166699999
 30
0.0
 11
554.21892609940005
 21
-21.515918776700001
 31
0.0
 12
552.92344763649987
 22
-19.234507881999999
 32
0.0
 13
552.92344763649987
 23
-19.234507881999999
 33
0.0
  0
SOLID
  5
57
  8
Éíû@É³
 10
552.92344763649987
 20
-19.234507881999999
 30
0.0
 11
550.64203674179998
 21
-20.529986344899999
 31
0.0
 12
554.89531250000005
 22
-12.080729166699999
 32
0.0
 13
554.89531250000005
 23
-12.080729166699999
 33
0.0
  0
ENDBLK
  5
58
  8
0
  0
BLOCK
  8
0
  2
*U5
 70
     1
 10
0.0
 20
0.0
 30
0.0
  3
*U5
  1

  0
TEXT
  5
2DE
  8
Éíû@É³
  6
CONTINUOUS
 10
507.90944945967323
 20
-120.21083436009999
 30
0.0
 40
8.3442719935999978
  1
2
  0
ENDBLK
  5
2E0
  8
0
  0
BLOCK
  8
0
  2
BALLON2
 70
     0
 10
0.0
 20
0.0
 30
0.0
  3
BALLON2
  1

  0
INSERT
  5
5C
  8
0
  6
CONTINUOUS
  2
*U7
 10
0.0
 20
0.0
 30
0.0
  0
CIRCLE
  5
5D
  8
┌▓È_1
 10
28.577351208300001
 20
-116.7749576569
 30
0.0
 40
9.2757076000000005
  0
LINE
  5
5E
  8
Éíû@É³
 10
13.117838541699999
 20
-116.7749576569
 30
0.0
 11
19.301643608300001
 21
-116.7749576569
 31
0.0
  0
LINE
  5
5F
  8
Éíû@É³
 10
-30.531393077800001
 20
-12.080729166699999
 30
0.0
 11
13.117838541699999
 21
-116.7749576569
 31
0.0
  0
SOLID
  5
60
  8
Éíû@É³
 10
-30.531393077800001
 20
-12.080729166699999
 30
0.0
 11
-25.249673709700001
 21
-19.928260119600001
 31
0.0
 12
-27.6758444797
 22
-18.929863648600001
 32
0.0
 13
-27.6758444797
 23
-18.929863648600001
 33
0.0
  0
SOLID
  5
61
  8
Éíû@É³
 10
-27.6758444797
 20
-18.929863648600001
 30
0.0
 11
-28.674240950600002
 21
-21.3560344186
 31
0.0
 12
-30.531393077800001
 22
-12.080729166699999
 32
0.0
 13
-30.531393077800001
 23
-12.080729166699999
 33
0.0
  0
ENDBLK
  5
62
  8
0
  0
BLOCK
  8
0
  2
*U7
 70
     1
 10
0.0
 20
0.0
 30
0.0
  3
*U7
  1

  0
TEXT
  5
2E2
  8
Éíû@É³
  6
CONTINUOUS
 10
25.908878438773101
 20
-120.21083436009999
 30
0.0
 40
8.3442719935999978
  1
2
  0
ENDBLK
  5
2E4
  8
0
  0
BLOCK
  8
0
  2
BALLON3
 70
     0
 10
0.0
 20
0.0
 30
0.0
  3
BALLON3
  1

  0
INSERT
  5
66
  8
0
  6
CONTINUOUS
  2
*U9
 10
0.0
 20
0.0
 30
0.0
  0
CIRCLE
  5
67
  8
┌▓È_1
 10
766.20951266669999
 20
9.5
 30
0.0
 40
9.2757076000000005
  0
LINE
  5
68
  8
Éíû@É³
 10
750.75
 20
9.5
 30
0.0
 11
756.93380506669985
 21
9.5
 31
0.0
  0
LINE
  5
69
  8
Éíû@É³
 10
681.59062500000016
 20
51.2049479167
 30
0.0
 11
750.75
 21
9.5
 31
0.0
  0
SOLID
  5
6A
  8
Éíû@É³
 10
681.59062500000016
 20
51.2049479167
 30
0.0
 11
690.49184803569995
 21
48.003615380299991
 31
0.0
 12
687.94520694489995
 22
47.372965498599989
 32
0.0
 13
687.94520694489995
 23
47.372965498599989
 33
0.0
  0
SOLID
  5
6B
  8
Éíû@É³
 10
687.94520694489995
 20
47.372965498599989
 30
0.0
 11
688.57585682670003
 21
44.82632440779998
 31
0.0
 12
681.59062500000016
 22
51.2049479167
 32
0.0
 13
681.59062500000016
 23
51.2049479167
 33
0.0
  0
ENDBLK
  5
6C
  8
0
  0
BLOCK
  8
0
  2
*U9
 70
     1
 10
0.0
 20
0.0
 30
0.0
  3
*U9
  1

  0
TEXT
  5
2E6
  8
Éíû@É³
  6
CONTINUOUS
 10
763.54103989717305
 20
6.0641232968000001
 30
0.0
 40
8.3442719935999978
  1
2
  0
ENDBLK
  5
2E8
  8
0
  0
BLOCK
  8
0
  2
BALLON4
 70
     0
 10
0.0
 20
0.0
 30
0.0
  3
BALLON4
  1

  0
INSERT
  5
70
  8
0
  6
CONTINUOUS
  2
*U11
 10
0.0
 20
0.0
 30
0.0
  0
CIRCLE
  5
71
  8
┌▓È_1
 10
597.29048733330001
 20
-2.5
 30
0.0
 40
9.2757076000000005
  0
LINE
  5
72
  8
Éíû@É³
 10
612.75
 20
-2.5
 30
0.0
 11
606.56619493330004
 21
-2.5
 31
0.0
  0
LINE
  5
73
  8
Éíû@É³
 10
656.59062500000016
 20
68.823893229199996
 30
0.0
 11
612.75
 21
-2.5
 31
0.0
  0
SOLID
  5
74
  8
Éíû@É³
 10
656.59062500000016
 20
68.823893229199996
 30
0.0
 11
653.31380066199995
 21
59.950183531499988
 31
0.0
 12
652.70480478659977
 22
62.5020895137
 32
0.0
 13
652.70480478659977
 23
62.5020895137
 33
0.0
  0
SOLID
  5
75
  8
Éíû@É³
 10
652.70480478659977
 20
62.5020895137
 30
0.0
 11
650.15289880429975
 21
61.8930936382
 31
0.0
 12
656.59062500000016
 22
68.823893229199996
 32
0.0
 13
656.59062500000016
 23
68.823893229199996
 33
0.0
  0
ENDBLK
  5
76
  8
0
  0
BLOCK
  8
0
  2
*U11
 70
     1
 10
0.0
 20
0.0
 30
0.0
  3
*U11
  1

  0
TEXT
  5
2EA
  8
Éíû@É³
  6
CONTINUOUS
 10
595.10911673598844
 20
-5.935876703199999
 30
0.0
 40
8.3442719935999978
  1
1
  0
ENDBLK
  5
2EC
  8
0
  0
BLOCK
  8
0
  2
*D12
 70
     1
 10
0.0
 20
0.0
 30
0.0
  3
*D12
  1

  0
TEXT
  5
84
  8
0
 62
     0
 10
-32.794233369799997
 20
196.81673461599999
 30
0.0
 40
8.3442719935999978
  1
1.5
  0
LINE
  5
85
  8
0
 62
     0
 10
-8.8546875000000007
 20
173.1549479167
 30
0.0
 11
-8.8546875000000007
 21
195.34421602879999
 31
0.0
  0
LINE
  5
86
  8
0
 62
     0
 10
-10.354687500000001
 20
171.75494791669999
 30
0.0
 11
-10.354687500000001
 21
195.34421602879999
 31
0.0
  0
LINE
  5
87
  8
0
 62
     0
 10
-8.8546875000000007
 20
194.34421602879999
 30
0.0
 11
-13.1606522083
 21
194.34421602879999
 31
0.0
  0
LINE
  5
88
  8
0
 62
     0
 10
-8.8546875000000007
 20
194.34421602879999
 30
0.0
 11
-37.702628660199998
 21
194.34421602879999
 31
0.0
  0
LINE
  5
89
  8
0
 62
     0
 10
-10.354687500000001
 20
194.34421602879999
 30
0.0
 11
-13.1606522083
 21
194.34421602879999
 31
0.0
  0
LINE
  5
8A
  8
0
 62
     0
 10
-10.354687500000001
 20
194.34421602879999
 30
0.0
 11
-37.702628660199998
 21
194.34421602879999
 31
0.0
  0
LINE
  5
8B
  8
0
 62
     0
 10
-10.354687500000001
 20
194.34421602879999
 30
0.0
 11
-15.354687500000001
 21
194.34421602879999
 31
0.0
  0
SOLID
  5
8C
  8
0
 62
     0
 10
-10.354687500000001
 20
194.34421602879999
 30
0.0
 11
-14.8345101356
 21
193.1438510815
 31
0.0
 12
-14.8345101356
 22
195.5445809762
 32
0.0
 13
-13.7145544767
 23
194.34421602879999
 33
0.0
  0
LINE
  5
8D
  8
0
 62
     0
 10
-8.8546875000000007
 20
194.34421602879999
 30
0.0
 11
-3.8546874999999989
 21
194.34421602879999
 31
0.0
  0
SOLID
  5
8E
  8
0
 62
     0
 10
-8.8546875000000007
 20
194.34421602879999
 30
0.0
 11
-4.3748648643000001
 21
195.5445809762
 31
0.0
 12
-4.3748648643000001
 22
193.1438510815
 32
0.0
 13
-5.4948205232999987
 23
194.34421602879999
 33
0.0
  0
ENDBLK
  5
8F
  8
0
  0
BLOCK
  8
0
  2
*D13
 70
     1
 10
0.0
 20
0.0
 30
0.0
  3
*D13
  1

  0
TEXT
  5
93
  8
0
 62
     0
 10
162.94111485479999
 20
-216.44753387770001
 30
0.0
 40
8.3442719935999978
  1
L
  0
LINE
  5
94
  8
0
 62
     0
 10
39.645312500000003
 20
-200.26292317709999
 30
0.0
 11
39.645312500000003
 21
-219.92005246479999
 31
0.0
  0
LINE
  5
95
  8
0
 62
     0
 10
39.645312500000003
 20
-218.92005246479999
 30
0.0
 11
172.75790543560001
 21
-218.92005246479999
 31
0.0
  0
LINE
  5
96
  8
0
 62
     0
 10
39.645312500000003
 20
-218.92005246479999
 30
0.0
 11
158.0327195644
 21
-218.92005246479999
 31
0.0
  0
LINE
  5
97
  8
0
 62
     0
 10
291.14531249999999
 20
-218.92005246479999
 30
0.0
 11
172.75790543560001
 21
-218.92005246479999
 31
0.0
  0
LINE
  5
98
  8
0
 62
     0
 10
291.14531249999999
 20
-218.92005246479999
 30
0.0
 11
158.0327195644
 21
-218.92005246479999
 31
0.0
  0
LINE
  5
99
  8
0
 62
     0
 10
291.14531249999999
 20
-218.92005246479999
 30
0.0
 11
286.14531249999999
 21
-218.92005246479999
 31
0.0
  0
SOLID
  5
9A
  8
0
 62
     0
 10
291.14531249999999
 20
-218.92005246479999
 30
0.0
 11
286.66548986430001
 21
-220.12041741210001
 31
0.0
 12
286.66548986430001
 22
-217.71968751750001
 32
0.0
 13
287.78544552329998
 23
-218.92005246479999
 33
0.0
  0
LINE
  5
9B
  8
0
 62
     0
 10
39.645312500000003
 20
-218.92005246479999
 30
0.0
 11
44.645312500000003
 21
-218.92005246479999
 31
0.0
  0
SOLID
  5
9C
  8
0
 62
     0
 10
39.645312500000003
 20
-218.92005246479999
 30
0.0
 11
44.125135135699999
 21
-217.71968751750001
 31
0.0
 12
44.125135135699999
 22
-220.12041741210001
 32
0.0
 13
43.0051794767
 23
-218.92005246479999
 33
0.0
  0
ENDBLK
  5
9D
  8
0
  0
BLOCK
  8
0
  2
*D14
 70
     1
 10
0.0
 20
0.0
 30
0.0
  3
*D14
  1

  0
TEXT
  5
A9
  8
0
 62
     0
 10
414.44111485479999
 20
-216.44753387770001
 30
0.0
 40
8.3442719935999978
  1
L
  0
LINE
  5
AA
  8
0
 62
     0
 10
291.14531249999999
 20
-200.26292317709999
 30
0.0
 11
291.14531249999999
 21
-219.92005246479999
 31
0.0
  0
LINE
  5
AB
  8
0
 62
     0
 10
291.14531249999999
 20
-218.92005246479999
 30
0.0
 11
424.25790543559992
 21
-218.92005246479999
 31
0.0
  0
LINE
  5
AC
  8
0
 62
     0
 10
291.14531249999999
 20
-218.92005246479999
 30
0.0
 11
409.53271956439988
 21
-218.92005246479999
 31
0.0
  0
LINE
  5
AD
  8
0
 62
     0
 10
542.64531250000005
 20
-218.92005246479999
 30
0.0
 11
424.25790543559992
 21
-218.92005246479999
 31
0.0
  0
LINE
  5
AE
  8
0
 62
     0
 10
542.64531250000005
 20
-218.92005246479999
 30
0.0
 11
409.53271956439988
 21
-218.92005246479999
 31
0.0
  0
LINE
  5
AF
  8
0
 62
     0
 10
542.64531250000005
 20
-218.92005246479999
 30
0.0
 11
537.64531250000005
 21
-218.92005246479999
 31
0.0
  0
SOLID
  5
B0
  8
0
 62
     0
 10
542.64531250000005
 20
-218.92005246479999
 30
0.0
 11
538.16548986429984
 21
-220.12041741210001
 31
0.0
 12
538.16548986429984
 22
-217.71968751750001
 32
0.0
 13
539.28544552330004
 23
-218.92005246479999
 33
0.0
  0
LINE
  5
B1
  8
0
 62
     0
 10
291.14531249999999
 20
-218.92005246479999
 30
0.0
 11
296.14531249999999
 21
-218.92005246479999
 31
0.0
  0
SOLID
  5
B2
  8
0
 62
     0
 10
291.14531249999999
 20
-218.92005246479999
 30
0.0
 11
295.62513513570002
 21
-217.71968751750001
 31
0.0
 12
295.62513513570002
 22
-220.12041741210001
 32
0.0
 13
294.50517947669999
 23
-218.92005246479999
 33
0.0
  0
ENDBLK
  5
B3
  8
0
  0
BLOCK
  8
0
  2
*D15
 70
     1
 10
0.0
 20
0.0
 30
0.0
  3
*D15
  1

  0
TEXT
  5
B7
  8
0
 62
     0
 10
562.41247124669997
 20
-216.44753387770001
 30
0.0
 40
8.3442719935999978
  1
50
  0
LINE
  5
B8
  8
0
 62
     0
 10
542.64531250000005
 20
-200.26292317709999
 30
0.0
 11
542.64531250000005
 21
-219.92005246479999
 31
0.0
  0
LINE
  5
B9
  8
0
 62
     0
 10
592.64531250000005
 20
-189.486328125
 30
0.0
 11
592.64531250000005
 21
-219.92005246479999
 31
0.0
  0
LINE
  5
BA
  8
0
 62
     0
 10
542.64531250000005
 20
-218.92005246479999
 30
0.0
 11
577.13765711780002
 21
-218.92005246479999
 31
0.0
  0
LINE
  5
BB
  8
0
 62
     0
 10
542.64531250000005
 20
-218.92005246479999
 30
0.0
 11
557.50407595629986
 21
-218.92005246479999
 31
0.0
  0
LINE
  5
BC
  8
0
 62
     0
 10
592.64531250000005
 20
-218.92005246479999
 30
0.0
 11
577.13765711780002
 21
-218.92005246479999
 31
0.0
  0
LINE
  5
BD
  8
0
 62
     0
 10
592.64531250000005
 20
-218.92005246479999
 30
0.0
 11
557.50407595629986
 21
-218.92005246479999
 31
0.0
  0
LINE
  5
BE
  8
0
 62
     0
 10
592.64531250000005
 20
-218.92005246479999
 30
0.0
 11
587.64531250000016
 21
-218.92005246479999
 31
0.0
  0
SOLID
  5
BF
  8
0
 62
     0
 10
592.64531250000005
 20
-218.92005246479999
 30
0.0
 11
588.16548986429984
 21
-220.12041741210001
 31
0.0
 12
588.16548986429984
 22
-217.71968751750001
 32
0.0
 13
589.28544552330004
 23
-218.92005246479999
 33
0.0
  0
LINE
  5
C0
  8
0
 62
     0
 10
542.64531250000005
 20
-218.92005246479999
 30
0.0
 11
547.64531250000005
 21
-218.92005246479999
 31
0.0
  0
SOLID
  5
C1
  8
0
 62
     0
 10
542.64531250000005
 20
-218.92005246479999
 30
0.0
 11
547.12513513570002
 21
-217.71968751750001
 31
0.0
 12
547.12513513570002
 22
-220.12041741210001
 32
0.0
 13
546.00517947669994
 23
-218.92005246479999
 33
0.0
  0
ENDBLK
  5
C2
  8
0
  0
BLOCK
  8
0
  2
*D16
 70
     1
 10
0.0
 20
0.0
 30
0.0
  3
*D16
  1

  0
TEXT
  5
C6
  8
0
 62
     0
 10
9.7369172095999996
 20
-216.44753387770001
 30
0.0
 40
8.3442719935999978
  1
50
  0
LINE
  5
C7
  8
0
 62
     0
 10
-10.354687500000001
 20
-189.486328125
 30
0.0
 11
-10.354687500000001
 21
-219.92005246479999
 31
0.0
  0
LINE
  5
C8
  8
0
 62
     0
 10
39.645312500000003
 20
-200.26292317709999
 30
0.0
 11
39.645312500000003
 21
-219.92005246479999
 31
0.0
  0
LINE
  5
C9
  8
0
 62
     0
 10
-10.354687500000001
 20
-218.92005246479999
 30
0.0
 11
24.4621030807
 21
-218.92005246479999
 31
0.0
  0
LINE
  5
CA
  8
0
 62
     0
 10
-10.354687500000001
 20
-218.92005246479999
 30
0.0
 11
4.8285219192999991
 21
-218.92005246479999
 31
0.0
  0
LINE
  5
CB
  8
0
 62
     0
 10
39.645312500000003
 20
-218.92005246479999
 30
0.0
 11
24.4621030807
 21
-218.92005246479999
 31
0.0
  0
LINE
  5
CC
  8
0
 62
     0
 10
39.645312500000003
 20
-218.92005246479999
 30
0.0
 11
4.8285219192999991
 21
-218.92005246479999
 31
0.0
  0
LINE
  5
CD
  8
0
 62
     0
 10
39.645312500000003
 20
-218.92005246479999
 30
0.0
 11
34.645312500000003
 21
-218.92005246479999
 31
0.0
  0
SOLID
  5
CE
  8
0
 62
     0
 10
39.645312500000003
 20
-218.92005246479999
 30
0.0
 11
35.1654898643
 21
-220.12041741210001
 31
0.0
 12
35.1654898643
 22
-217.71968751750001
 32
0.0
 13
36.285445523299998
 23
-218.92005246479999
 33
0.0
  0
LINE
  5
CF
  8
0
 62
     0
 10
-10.354687500000001
 20
-218.92005246479999
 30
0.0
 11
-5.354687499999998
 21
-218.92005246479999
 31
0.0
  0
SOLID
  5
D0
  8
0
 62
     0
 10
-10.354687500000001
 20
-218.92005246479999
 30
0.0
 11
-5.8748648642999992
 21
-217.71968751750001
 31
0.0
 12
-5.8748648642999992
 22
-220.12041741210001
 32
0.0
 13
-6.9948205232999987
 23
-218.92005246479999
 33
0.0
  0
ENDBLK
  5
D1
  8
0
  0
BLOCK
  8
0
  2
*D17
 70
     1
 10
0.0
 20
0.0
 30
0.0
  3
*D17
  1

  0
TEXT
  5
D5
  8
0
 62
     0
 10
281.32852191929999
 20
228.6692633788
 30
0.0
 40
8.3442719935999978
  1
èÈî¹
  0
LINE
  5
D6
  8
0
 62
     0
 10
592.64531250000005
 20
171.75494791669999
 30
0.0
 11
592.64531250000005
 21
227.19674479170001
 31
0.0
  0
LINE
  5
D7
  8
0
 62
     0
 10
-10.354687500000001
 20
171.75494791669999
 30
0.0
 11
-10.354687500000001
 21
227.19674479170001
 31
0.0
  0
LINE
  5
D8
  8
0
 62
     0
 10
592.64531250000005
 20
226.19674479170001
 30
0.0
 11
305.87049837109998
 21
226.19674479170001
 31
0.0
  0
LINE
  5
D9
  8
0
 62
     0
 10
592.64531250000005
 20
226.19674479170001
 30
0.0
 11
276.42012662889999
 21
226.19674479170001
 31
0.0
  0
LINE
  5
DA
  8
0
 62
     0
 10
-10.354687500000001
 20
226.19674479170001
 30
0.0
 11
305.87049837109998
 21
226.19674479170001
 31
0.0
  0
LINE
  5
DB
  8
0
 62
     0
 10
-10.354687500000001
 20
226.19674479170001
 30
0.0
 11
276.42012662889999
 21
226.19674479170001
 31
0.0
  0
LINE
  5
DC
  8
0
 62
     0
 10
-10.354687500000001
 20
226.19674479170001
 30
0.0
 11
-5.354687499999998
 21
226.19674479170001
 31
0.0
  0
SOLID
  5
DD
  8
0
 62
     0
 10
-10.354687500000001
 20
226.19674479170001
 30
0.0
 11
-5.8748648642999992
 21
227.397109739
 31
0.0
 12
-5.8748648642999992
 22
224.99637984430001
 32
0.0
 13
-6.9948205232999987
 23
226.19674479170001
 33
0.0
  0
LINE
  5
DE
  8
0
 62
     0
 10
592.64531250000005
 20
226.19674479170001
 30
0.0
 11
587.64531250000016
 21
226.19674479170001
 31
0.0
  0
SOLID
  5
DF
  8
0
 62
     0
 10
592.64531250000005
 20
226.19674479170001
 30
0.0
 11
588.16548986429984
 21
224.99637984430001
 31
0.0
 12
588.16548986429984
 22
227.397109739
 32
0.0
 13
589.28544552330004
 23
226.19674479170001
 33
0.0
  0
ENDBLK
  5
E0
  8
0
  0
BLOCK
  8
0
  2
*D18
 70
     1
 10
0.0
 20
0.0
 30
0.0
  3
*D18
  1

  0
TEXT
  5
E4
  8
0
 62
     0
 10
740.13464287119984
 20
165.2007502715
 30
0.0
 40
8.3442719935999978
  1
7
 50
90.0
  0
LINE
  5
E5
  8
0
 62
     0
 10
712.34062500000016
 20
164.1549479167
 30
0.0
 11
743.60716145829986
 21
164.1549479167
 31
0.0
  0
LINE
  5
E6
  8
0
 62
     0
 10
712.34062500000016
 20
171.1549479167
 30
0.0
 11
743.60716145829986
 21
171.1549479167
 31
0.0
  0
LINE
  5
E7
  8
0
 62
     0
 10
742.60716145829986
 20
164.1549479167
 30
0.0
 11
742.60716145829986
 21
164.1549479167
 31
0.0
  0
LINE
  5
E8
  8
0
 62
     0
 10
742.60716145829986
 20
164.1549479167
 30
0.0
 11
742.60716145829986
 21
171.1549479167
 31
0.0
  0
LINE
  5
E9
  8
0
 62
     0
 10
742.60716145829986
 20
171.1549479167
 30
0.0
 11
742.60716145829986
 21
164.1549479167
 31
0.0
  0
LINE
  5
EA
  8
0
 62
     0
 10
742.60716145829986
 20
171.1549479167
 30
0.0
 11
742.60716145829986
 21
171.1549479167
 31
0.0
  0
LINE
  5
EB
  8
0
 62
     0
 10
742.60716145829986
 20
171.1549479167
 30
0.0
 11
742.60716145829986
 21
176.1549479167
 31
0.0
  0
SOLID
  5
EC
  8
0
 62
     0
 10
742.60716145829986
 20
171.1549479167
 30
0.0
 11
741.40679651100004
 21
175.63477055230001
 31
0.0
 12
743.80752640569995
 22
175.63477055230001
 32
0.0
 13
742.60716145829986
 23
174.5148148934
 33
0.0
  0
LINE
  5
ED
  8
0
 62
     0
 10
742.60716145829986
 20
164.1549479167
 30
0.0
 11
742.60716145829986
 21
159.1549479167
 31
0.0
  0
SOLID
  5
EE
  8
0
 62
     0
 10
742.60716145829986
 20
164.1549479167
 30
0.0
 11
743.80752640569995
 21
159.67512528099999
 31
0.0
 12
741.40679651100004
 22
159.67512528099999
 32
0.0
 13
742.60716145829986
 23
160.7950809399
 33
0.0
  0
ENDBLK
  5
EF
  8
0
  0
BLOCK
  8
0
  2
*D19
 70
     1
 10
0.0
 20
0.0
 30
0.0
  3
*D19
  1

  0
TEXT
  5
F3
  8
0
 62
     0
 10
693.43222970960005
 20
233.0098899047
 30
0.0
 40
8.3442719935999978
  1
25
  0
LINE
  5
F4
  8
0
 62
     0
 10
710.84062500000005
 20
173.1549479167
 30
0.0
 11
710.84062500000005
 21
231.5373713175
 31
0.0
  0
LINE
  5
F5
  8
0
 62
     0
 10
685.84062500000005
 20
161.1549479167
 30
0.0
 11
685.84062500000005
 21
231.5373713175
 31
0.0
  0
LINE
  5
F6
  8
0
 62
     0
 10
710.84062500000005
 20
230.5373713175
 30
0.0
 11
708.15741558069999
 21
230.5373713175
 31
0.0
  0
LINE
  5
F7
  8
0
 62
     0
 10
710.84062500000005
 20
230.5373713175
 30
0.0
 11
688.52383441929965
 21
230.5373713175
 31
0.0
  0
LINE
  5
F8
  8
0
 62
     0
 10
685.84062500000005
 20
230.5373713175
 30
0.0
 11
708.15741558069999
 21
230.5373713175
 31
0.0
  0
LINE
  5
F9
  8
0
 62
     0
 10
685.84062500000005
 20
230.5373713175
 30
0.0
 11
688.52383441929965
 21
230.5373713175
 31
0.0
  0
LINE
  5
FA
  8
0
 62
     0
 10
685.84062500000005
 20
230.5373713175
 30
0.0
 11
680.84062500000005
 21
230.5373713175
 31
0.0
  0
SOLID
  5
FB
  8
0
 62
     0
 10
685.84062500000005
 20
230.5373713175
 30
0.0
 11
681.36080236429984
 21
229.33700637019999
 31
0.0
 12
681.36080236429984
 22
231.73773626490001
 32
0.0
 13
682.48075802330004
 23
230.5373713175
 33
0.0
  0
LINE
  5
FC
  8
0
 62
     0
 10
710.84062500000005
 20
230.5373713175
 30
0.0
 11
715.84062500000005
 21
230.5373713175
 31
0.0
  0
SOLID
  5
FD
  8
0
 62
     0
 10
710.84062500000005
 20
230.5373713175
 30
0.0
 11
715.32044763570002
 21
231.73773626490001
 31
0.0
 12
715.32044763570002
 22
229.33700637019999
 32
0.0
 13
714.20049197669994
 23
230.5373713175
 33
0.0
  0
ENDBLK
  5
FE
  8
0
  0
BLOCK
  8
0
  2
*D20
 70
     1
 10
0.0
 20
0.0
 30
0.0
  3
*D20
  1

  0
TEXT
  5
102
  8
0
 62
     0
 10
651.71328883169986
 20
33.473830858900001
 30
0.0
 40
8.3442719935999978
  1
ég
 50
90.0
  0
LINE
  5
103
  8
0
 62
     0
 10
683.84062500000016
 20
-82.845052083300004
 30
0.0
 11
653.18580741879998
 21
-82.845052083300004
 31
0.0
  0
LINE
  5
104
  8
0
 62
     0
 10
695.84062500000016
 20
171.1549479167
 30
0.0
 11
653.18580741879998
 21
171.1549479167
 31
0.0
  0
LINE
  5
105
  8
0
 62
     0
 10
654.18580741879998
 20
-82.845052083300004
 30
0.0
 11
654.18580741879998
 21
48.199016729999997
 31
0.0
  0
LINE
  5
106
  8
0
 62
     0
 10
654.18580741879998
 20
-82.845052083300004
 30
0.0
 11
654.18580741879998
 21
28.5654355685
 31
0.0
  0
LINE
  5
107
  8
0
 62
     0
 10
654.18580741879998
 20
171.1549479167
 30
0.0
 11
654.18580741879998
 21
48.199016729999997
 31
0.0
  0
LINE
  5
108
  8
0
 62
     0
 10
654.18580741879998
 20
171.1549479167
 30
0.0
 11
654.18580741879998
 21
28.5654355685
 31
0.0
  0
LINE
  5
109
  8
0
 62
     0
 10
654.18580741879998
 20
171.1549479167
 30
0.0
 11
654.18580741879998
 21
166.1549479167
 31
0.0
  0
SOLID
  5
10A
  8
0
 62
     0
 10
654.18580741879998
 20
171.1549479167
 30
0.0
 11
655.38617236610003
 21
166.67512528099999
 31
0.0
 12
652.98544247150005
 22
166.67512528099999
 32
0.0
 13
654.18580741879998
 23
167.7950809399
 33
0.0
  0
LINE
  5
10B
  8
0
 62
     0
 10
654.18580741879998
 20
-82.845052083300004
 30
0.0
 11
654.18580741879998
 21
-77.845052083300004
 31
0.0
  0
SOLID
  5
10C
  8
0
 62
     0
 10
654.18580741879998
 20
-82.845052083300004
 30
0.0
 11
652.98544247150005
 21
-78.365229447700003
 31
0.0
 12
655.38617236610003
 22
-78.365229447700003
 32
0.0
 13
654.18580741879998
 23
-79.485185106599999
 33
0.0
  0
ENDBLK
  5
10D
  8
0
  0
BLOCK
  8
0
  2
*D21
 70
     1
 10
0.0
 20
0.0
 30
0.0
  3
*D21
  1

  0
TEXT
  5
111
  8
0
 62
     0
 10
625.66836504939977
 20
-214.7087179184
 30
0.0
 40
8.3442719935999978
  1
12.5
 50
90.0
  0
LINE
  5
112
  8
0
 62
     0
 10
593.14531250000005
 20
-188.08632812499999
 30
0.0
 11
629.14088363650001
 21
-188.08632812499999
 31
0.0
  0
LINE
  5
113
  8
0
 62
     0
 10
628.14088363650001
 20
-188.08632812499999
 30
0.0
 11
628.14088363650001
 21
-190.16674146650001
 31
0.0
  0
LINE
  5
114
  8
0
 62
     0
 10
628.14088363650001
 20
-188.08632812499999
 30
0.0
 11
628.14088363650001
 21
-219.61711320879999
 31
0.0
  0
LINE
  5
115
  8
0
 62
     0
 10
628.14088363650001
 20
-175.58632812499999
 30
0.0
 11
628.14088363650001
 21
-190.16674146650001
 31
0.0
  0
LINE
  5
116
  8
0
 62
     0
 10
628.14088363650001
 20
-175.58632812499999
 30
0.0
 11
628.14088363650001
 21
-219.61711320879999
 31
0.0
  0
LINE
  5
117
  8
0
 62
     0
 10
628.14088363650001
 20
-175.58632812499999
 30
0.0
 11
628.14088363650001
 21
-180.58632812499999
 31
0.0
  0
SOLID
  5
118
  8
0
 62
     0
 10
628.14088363650001
 20
-175.58632812499999
 30
0.0
 11
629.34124858379994
 21
-180.0661507607
 31
0.0
 12
626.94051868919985
 22
-180.0661507607
 32
0.0
 13
628.14088363650001
 23
-178.9461951017
 33
0.0
  0
LINE
  5
119
  8
0
 62
     0
 10
628.14088363650001
 20
-188.08632812499999
 30
0.0
 11
628.14088363650001
 21
-183.08632812499999
 31
0.0
  0
SOLID
  5
11A
  8
0
 62
     0
 10
628.14088363650001
 20
-188.08632812499999
 30
0.0
 11
626.94051868919985
 21
-183.60650548929999
 31
0.0
 12
629.34124858379994
 22
-183.60650548929999
 32
0.0
 13
628.14088363650001
 23
-184.72646114829999
 33
0.0
  0
ENDBLK
  5
11B
  8
0
  0
BLOCK
  8
0
  2
*D22
 70
     1
 10
0.0
 20
0.0
 30
0.0
  3
*D22
  1

  0
TEXT
  5
11F
  8
0
 62
     0
 10
625.66836504939977
 20
-154.2844987869
 30
0.0
 40
8.3442719935999978
  1
12.5
 50
90.0
  0
LINE
  5
120
  8
0
 62
     0
 10
564.7914062499998
 20
-175.58632812499999
 30
0.0
 11
629.14088363650001
 21
-175.58632812499999
 31
0.0
  0
LINE
  5
121
  8
0
 62
     0
 10
628.14088363650001
 20
-175.58632812499999
 30
0.0
 11
628.14088363650001
 21
-129.74252233510001
 31
0.0
  0
LINE
  5
122
  8
0
 62
     0
 10
628.14088363650001
 20
-175.58632812499999
 30
0.0
 11
628.14088363650001
 21
-159.1928940773
 31
0.0
  0
LINE
  5
123
  8
0
 62
     0
 10
628.14088363650001
 20
-163.08632812499999
 30
0.0
 11
628.14088363650001
 21
-129.74252233510001
 31
0.0
  0
LINE
  5
124
  8
0
 62
     0
 10
628.14088363650001
 20
-163.08632812499999
 30
0.0
 11
628.14088363650001
 21
-159.1928940773
 31
0.0
  0
LINE
  5
125
  8
0
 62
     0
 10
628.14088363650001
 20
-163.08632812499999
 30
0.0
 11
628.14088363650001
 21
-168.08632812499999
 31
0.0
  0
SOLID
  5
126
  8
0
 62
     0
 10
628.14088363650001
 20
-163.08632812499999
 30
0.0
 11
629.34124858379994
 21
-167.5661507607
 31
0.0
 12
626.94051868919985
 22
-167.5661507607
 32
0.0
 13
628.14088363650001
 23
-166.4461951017
 33
0.0
  0
LINE
  5
127
  8
0
 62
     0
 10
628.14088363650001
 20
-175.58632812499999
 30
0.0
 11
628.14088363650001
 21
-170.58632812499999
 31
0.0
  0
SOLID
  5
128
  8
0
 62
     0
 10
628.14088363650001
 20
-175.58632812499999
 30
0.0
 11
626.94051868919985
 21
-171.10650548929999
 31
0.0
 12
629.34124858379994
 22
-171.10650548929999
 32
0.0
 13
628.14088363650001
 23
-172.22646114829999
 33
0.0
  0
ENDBLK
  5
129
  8
0
  0
BLOCK
  8
0
  2
*D23
 70
     1
 10
0.0
 20
0.0
 30
0.0
  3
*D23
  1

  0
TEXT
  5
12D
  8
0
 62
     0
 10
651.71328883169986
 20
-101.16184266410001
 30
0.0
 40
8.3442719935999978
  1
16.6
 50
90.0
  0
LINE
  5
12E
  8
0
 62
     0
 10
708.34062500000016
 20
-99.845052083300004
 30
0.0
 11
653.18580741879998
 21
-99.845052083300004
 31
0.0
  0
LINE
  5
12F
  8
0
 62
     0
 10
654.18580741879998
 20
-99.845052083300004
 30
0.0
 11
654.18580741879998
 21
-99.845052083300004
 31
0.0
  0
LINE
  5
130
  8
0
 62
     0
 10
654.18580741879998
 20
-99.845052083300004
 30
0.0
 11
654.18580741879998
 21
-82.845052083300004
 31
0.0
  0
LINE
  5
131
  8
0
 62
     0
 10
654.18580741879998
 20
-82.845052083300004
 30
0.0
 11
654.18580741879998
 21
-99.845052083300004
 31
0.0
  0
LINE
  5
132
  8
0
 62
     0
 10
654.18580741879998
 20
-82.845052083300004
 30
0.0
 11
654.18580741879998
 21
-82.845052083300004
 31
0.0
  0
LINE
  5
133
  8
0
 62
     0
 10
654.18580741879998
 20
-82.845052083300004
 30
0.0
 11
654.18580741879998
 21
-87.845052083300004
 31
0.0
  0
SOLID
  5
134
  8
0
 62
     0
 10
654.18580741879998
 20
-82.845052083300004
 30
0.0
 11
655.38617236610003
 21
-87.324874718999979
 31
0.0
 12
652.98544247150005
 22
-87.324874718999979
 32
0.0
 13
654.18580741879998
 23
-86.204919060099982
 33
0.0
  0
LINE
  5
135
  8
0
 62
     0
 10
654.18580741879998
 20
-99.845052083300004
 30
0.0
 11
654.18580741879998
 21
-94.845052083300004
 31
0.0
  0
SOLID
  5
136
  8
0
 62
     0
 10
654.18580741879998
 20
-99.845052083300004
 30
0.0
 11
652.98544247150005
 21
-95.365229447700003
 31
0.0
 12
655.38617236610003
 22
-95.365229447700003
 32
0.0
 13
654.18580741879998
 23
-96.485185106600014
 33
0.0
  0
ENDBLK
  5
137
  8
0
  0
BLOCK
  8
0
  2
*D24
 70
     1
 10
0.0
 20
0.0
 30
0.0
  3
*D24
  1

  0
TEXT
  5
13B
  8
0
 62
     0
 10
602.53649560609995
 20
196.81673461599999
 30
0.0
 40
8.3442719935999978
  1
1.5
  0
LINE
  5
13C
  8
0
 62
     0
 10
592.64531250000005
 20
171.75494791669999
 30
0.0
 11
592.64531250000005
 21
195.34421602879999
 31
0.0
  0
LINE
  5
13D
  8
0
 62
     0
 10
591.14531250000005
 20
173.1549479167
 30
0.0
 11
591.14531250000005
 21
195.34421602879999
 31
0.0
  0
LINE
  5
13E
  8
0
 62
     0
 10
592.64531250000005
 20
194.34421602879999
 30
0.0
 11
622.17007676759999
 21
194.34421602879999
 31
0.0
  0
LINE
  5
13F
  8
0
 62
     0
 10
592.64531250000005
 20
194.34421602879999
 30
0.0
 11
597.62810031569995
 21
194.34421602879999
 31
0.0
  0
LINE
  5
140
  8
0
 62
     0
 10
591.14531250000005
 20
194.34421602879999
 30
0.0
 11
622.17007676759999
 21
194.34421602879999
 31
0.0
  0
LINE
  5
141
  8
0
 62
     0
 10
591.14531250000005
 20
194.34421602879999
 30
0.0
 11
597.62810031569995
 21
194.34421602879999
 31
0.0
  0
LINE
  5
142
  8
0
 62
     0
 10
591.14531250000005
 20
194.34421602879999
 30
0.0
 11
586.14531250000005
 21
194.34421602879999
 31
0.0
  0
SOLID
  5
143
  8
0
 62
     0
 10
591.14531250000005
 20
194.34421602879999
 30
0.0
 11
586.66548986429984
 21
193.1438510815
 31
0.0
 12
586.66548986429984
 22
195.5445809762
 32
0.0
 13
587.78544552330004
 23
194.34421602879999
 33
0.0
  0
LINE
  5
144
  8
0
 62
     0
 10
592.64531250000005
 20
194.34421602879999
 30
0.0
 11
597.64531250000005
 21
194.34421602879999
 31
0.0
  0
SOLID
  5
145
  8
0
 62
     0
 10
592.64531250000005
 20
194.34421602879999
 30
0.0
 11
597.12513513570002
 21
195.5445809762
 31
0.0
 12
597.12513513570002
 22
193.1438510815
 32
0.0
 13
596.00517947669994
 23
194.34421602879999
 33
0.0
  0
ENDBLK
  5
146
  8
0
  0
BLOCK
  8
0
  2
*X25
 70
     1
 10
0.0
 20
0.0
 30
0.0
  3
*X25
  1

  0
LINE
  5
157
  8
┌▓È_1
 62
     6
 10
578.14531250000005
 20
149.09302414850001
 30
0.0
 11
580.75723626820002
 21
151.70494791670001
 31
0.0
  0
LINE
  5
158
  8
┌▓È_1
 62
     6
 10
578.14531250000005
 20
145.8135664019
 30
0.0
 11
584.03669401479976
 21
151.70494791670001
 31
0.0
  0
LINE
  5
159
  8
┌▓È_1
 62
     6
 10
578.14531250000005
 20
129.41627766900001
 30
0.0
 11
590.14531250000005
 21
141.41627766900001
 31
0.0
  0
LINE
  5
15A
  8
┌▓È_1
 62
     6
 10
578.14531250000005
 20
126.13681992239999
 30
0.0
 11
590.14531250000005
 21
138.13681992240001
 31
0.0
  0
LINE
  5
15B
  8
┌▓È_1
 62
     6
 10
578.14531250000005
 20
122.85736217589999
 30
0.0
 11
590.14531250000005
 21
134.85736217589999
 31
0.0
  0
LINE
  5
15C
  8
┌▓È_1
 62
     6
 10
578.14531250000005
 20
119.57790442930001
 30
0.0
 11
590.14531250000005
 21
131.57790442929999
 31
0.0
  0
LINE
  5
15D
  8
┌▓È_1
 62
     6
 10
578.14531250000005
 20
103.1806156964
 30
0.0
 11
590.14531250000005
 21
115.1806156964
 31
0.0
  0
LINE
  5
15E
  8
┌▓È_1
 62
     6
 10
578.14531250000005
 20
99.901157949799995
 30
0.0
 11
590.14531250000005
 21
111.90115794979999
 31
0.0
  0
LINE
  5
15F
  8
┌▓È_1
 62
     6
 10
578.14531250000005
 20
96.621700203299994
 30
0.0
 11
590.14531250000005
 21
108.62170020329999
 31
0.0
  0
LINE
  5
160
  8
┌▓È_1
 62
     6
 10
578.14531250000005
 20
93.342242456700006
 30
0.0
 11
590.14531250000005
 21
105.34224245670001
 31
0.0
  0
LINE
  5
161
  8
┌▓È_1
 62
     6
 10
578.14531250000005
 20
76.944953723799998
 30
0.0
 11
590.14531250000005
 21
88.944953723799983
 31
0.0
  0
LINE
  5
162
  8
┌▓È_1
 62
     6
 10
578.14531250000005
 20
73.66549597720001
 30
0.0
 11
590.14531250000005
 21
85.66549597720001
 31
0.0
  0
LINE
  5
163
  8
┌▓È_1
 62
     6
 10
578.14531250000005
 20
70.386038230599979
 30
0.0
 11
590.14531250000005
 21
82.386038230600008
 31
0.0
  0
LINE
  5
164
  8
┌▓È_1
 62
     6
 10
578.14531250000005
 20
67.106580484099993
 30
0.0
 11
590.14531250000005
 21
79.106580484099993
 31
0.0
  0
LINE
  5
165
  8
┌▓È_1
 62
     6
 10
578.14531250000005
 20
50.709291751199991
 30
0.0
 11
590.14531250000005
 21
62.709291751199999
 31
0.0
  0
LINE
  5
166
  8
┌▓È_1
 62
     6
 10
578.14531250000005
 20
47.429834004600004
 30
0.0
 11
590.14531250000005
 21
59.429834004600011
 31
0.0
  0
LINE
  5
167
  8
┌▓È_1
 62
     6
 10
578.14531250000005
 20
44.150376258000001
 30
0.0
 11
590.14531250000005
 21
56.150376258000001
 31
0.0
  0
LINE
  5
168
  8
┌▓È_1
 62
     6
 10
578.14531250000005
 20
40.870918511500001
 30
0.0
 11
590.14531250000005
 21
52.870918511499987
 31
0.0
  0
LINE
  5
169
  8
┌▓È_1
 62
     6
 10
578.14531250000005
 20
24.47362977860001
 30
0.0
 11
590.14531250000005
 21
36.473629778599999
 31
0.0
  0
LINE
  5
16A
  8
┌▓È_1
 62
     6
 10
578.14531250000005
 20
21.194172032000001
 30
0.0
 11
590.14531250000005
 21
33.194172031999997
 31
0.0
  0
LINE
  5
16B
  8
┌▓È_1
 62
     6
 10
578.14531250000005
 20
17.914714285399999
 30
0.0
 11
590.14531250000005
 21
29.914714285399999
 31
0.0
  0
LINE
  5
16C
  8
┌▓È_1
 62
     6
 10
578.14531250000005
 20
14.6352565389
 30
0.0
 11
590.14531250000005
 21
26.635256538899998
 31
0.0
  0
LINE
  5
16D
  8
┌▓È_1
 62
     6
 10
578.14531250000005
 20
-1.7620321940000001
 30
0.0
 11
590.14531250000005
 21
10.237967806
 31
0.0
  0
LINE
  5
16E
  8
┌▓È_1
 62
     6
 10
578.14531250000005
 20
-5.0414899405999991
 30
0.0
 11
590.14531250000005
 21
6.9585100594
 31
0.0
  0
LINE
  5
16F
  8
┌▓È_1
 62
     6
 10
578.14531250000005
 20
-8.3209476872000003
 30
0.0
 11
590.14531250000005
 21
3.6790523127999988
 31
0.0
  0
LINE
  5
170
  8
┌▓È_1
 62
     6
 10
578.14531250000005
 20
-11.600405433700001
 30
0.0
 11
590.14531250000005
 21
0.3995945663
 31
0.0
  0
LINE
  5
171
  8
┌▓È_1
 62
     6
 10
578.14531250000005
 20
-27.997694166599999
 30
0.0
 11
590.14531250000005
 21
-15.997694166600001
 31
0.0
  0
LINE
  5
172
  8
┌▓È_1
 62
     6
 10
578.14531250000005
 20
-31.277151913200001
 30
0.0
 11
590.14531250000005
 21
-19.277151913200001
 31
0.0
  0
LINE
  5
173
  8
┌▓È_1
 62
     6
 10
578.14531250000005
 20
-34.556609659800003
 30
0.0
 11
590.14531250000005
 21
-22.556609659799999
 31
0.0
  0
LINE
  5
174
  8
┌▓È_1
 62
     6
 10
578.14531250000005
 20
-37.83606740630001
 30
0.0
 11
590.14531250000005
 21
-25.8360674063
 31
0.0
  0
LINE
  5
175
  8
┌▓È_1
 62
     6
 10
578.14531250000005
 20
-54.233356139199991
 30
0.0
 11
590.14531250000005
 21
-42.233356139199977
 31
0.0
  0
LINE
  5
176
  8
┌▓È_1
 62
     6
 10
578.14531250000005
 20
-57.5128138858
 30
0.0
 11
590.14531250000005
 21
-45.5128138858
 31
0.0
  0
LINE
  5
177
  8
┌▓È_1
 62
     6
 10
578.14531250000005
 20
-60.792271632399981
 30
0.0
 11
590.14531250000005
 21
-48.792271632399988
 31
0.0
  0
LINE
  5
178
  8
┌▓È_1
 62
     6
 10
578.14531250000005
 20
-64.071729378900002
 30
0.0
 11
590.14531250000005
 21
-52.071729378900002
 31
0.0
  0
LINE
  5
179
  8
┌▓È_1
 62
     6
 10
580.31927852850004
 20
-78.295052083299964
 30
0.0
 11
590.14531250000005
 21
-68.469018111799997
 31
0.0
  0
LINE
  5
17A
  8
┌▓È_1
 62
     6
 10
583.59873627510001
 20
-78.295052083299964
 30
0.0
 11
590.14531250000005
 21
-71.748475858399999
 31
0.0
  0
LINE
  5
17B
  8
┌▓È_1
 62
     6
 10
586.87819402160017
 20
-78.295052083299964
 30
0.0
 11
590.14531250000005
 21
-75.027933605000001
 31
0.0
  0
ENDBLK
  5
17C
  8
0
  0
BLOCK
  8
0
  2
CLUMP0
 70
     0
 10
0.0
 20
0.0
 30
0.0
  3
CLUMP0
  1

  0
LINE
  5
1AA
  8
┌▓È_1
  6
STITCH
 10
577.64531250000005
 20
154.70494795339999
 30
0.0
 11
577.64531250000005
 21
-82.445052083299998
 31
0.0
  0
LINE
  5
1AB
  8
┌▓È_1
  6
STITCH
 10
585.24531249999995
 20
155.70494791670001
 30
0.0
 11
585.24531249999995
 21
168.45494791670001
 31
0.0
  0
ARC
  5
1AC
  8
┌▓È_1
  6
STITCH
 10
587.24531249999995
 20
168.45494791670001
 30
0.0
 40
2.0
 50
108.1948723388
 51
180.0
  0
LINE
  5
1AD
  8
┌▓È_1
  6
STITCH
 10
587.64531250000016
 20
170.35494791670001
 30
0.0
 11
585.24531249999995
 21
170.35494791670001
 31
0.0
  0
LINE
  5
1AE
  8
┌▓È_1
  6
STITCH
 10
585.24531249999995
 20
170.75494791669999
 30
0.0
 11
585.24531249999995
 21
170.35494791670001
 31
0.0
  0
LINE
  5
1AF
  8
┌▓È_1
  6
STITCH
 10
587.64531250000016
 20
156.70494791670001
 30
0.0
 11
587.64531250000016
 21
170.75494791669999
 31
0.0
  0
ARC
  5
1B0
  8
┌▓È_1
  6
STITCH
 10
586.64531250000005
 20
156.70494791670001
 30
0.0
 40
1.0
 50
270.0
 51
0.0
  0
LINE
  5
1B1
  8
┌▓È_1
  6
STITCH
 10
586.64531250000005
 20
155.70494791670001
 30
0.0
 11
578.64531250000005
 21
155.70494791670001
 31
0.0
  0
ARC
  5
1B2
  8
┌▓È_1
  6
STITCH
 10
578.64531250000005
 20
154.70494791670001
 30
0.0
 40
1.0
 50
90.0
 51
180.0
  0
LINE
  5
1B3
  8
┌▓È_1
  6
STITCH
 10
591.14531250000005
 20
170.75494791669999
 30
0.0
 11
585.24531249999995
 21
170.75494791669999
 31
0.0
  0
LINE
  5
1B4
  8
┌▓È_1
  6
STITCH
 10
577.64531250000005
 20
-82.445052083299998
 30
0.0
 11
591.14531250000005
 21
-82.445052083299998
 31
0.0
  0
LINE
  5
1B5
  8
┌▓È_1
 62
     5
 10
591.14531250000005
 20
-82.445052083299998
 30
0.0
 11
592.04531250000002
 21
-82.445052083299998
 31
0.0
  0
LINE
  5
1B6
  8
┌▓È_1
 62
     5
 10
591.64531250000016
 20
170.75494791669999
 30
0.0
 11
591.14531250000005
 21
170.75494791669999
 31
0.0
  0
ARC
  5
1B7
  8
┌▓È_1
 62
     5
 10
591.64531250000016
 20
169.75494791669999
 30
0.0
 40
1.0
 50
0.0
 51
90.0
  0
ARC
  5
1B8
  8
┌▓È_1
 62
     5
 10
592.04531250000002
 20
-81.845052083300004
 30
0.0
 40
0.6
 50
270.0
 51
0.0
  0
LINE
  5
1B9
  8
┌▓È_1
 62
     5
 10
592.64531250000005
 20
-81.845052083300004
 30
0.0
 11
592.64531250000005
 21
169.75494820899999
 31
0.0
  0
ENDBLK
  5
1BA
  8
0
  0
BLOCK
  8
0
  2
CLUMP1
 70
     0
 10
0.0
 20
0.0
 30
0.0
  3
CLUMP1
  1

  0
LINE
  5
1BE
  8
┌▓È_1
  6
STITCH
 10
582.64531250000005
 20
-163.486328125
 30
0.0
 11
582.64531250000005
 21
-188.08632812499999
 31
0.0
  0
LINE
  5
1BF
  8
┌▓È_1
  6
STITCH
 10
582.64531250000005
 20
-163.88632812500001
 30
0.0
 11
577.64531250000005
 21
-163.88632812500001
 31
0.0
  0
LINE
  5
1C0
  8
┌▓È_1
  6
STITCH
 10
577.64531250000005
 20
-163.486328125
 30
0.0
 11
577.64531250000005
 21
-163.88632812500001
 31
0.0
  0
LINE
  5
1C1
  8
┌▓È_1
  6
STITCH
 10
591.14531250000005
 20
-163.486328125
 30
0.0
 11
577.64531250000005
 21
-163.486328125
 31
0.0
  0
LINE
  5
1C2
  8
┌▓È_1
 62
     5
 10
591.64531250000016
 20
-163.486328125
 30
0.0
 11
591.14531250000005
 21
-163.486328125
 31
0.0
  0
ARC
  5
1C3
  8
┌▓È_1
 62
     5
 10
591.64531250000016
 20
-164.486328125
 30
0.0
 40
1.0
 50
0.0
 51
90.0
  0
LINE
  5
1C4
  8
┌▓È_1
 62
     5
 10
582.64531250000005
 20
-188.08632812499999
 30
0.0
 11
592.04531250000002
 21
-188.08632812499999
 31
0.0
  0
ARC
  5
1C5
  8
┌▓È_1
 62
     5
 10
592.04531250000002
 20
-187.486328125
 30
0.0
 40
0.6
 50
270.0
 51
0.0
  0
LINE
  5
1C6
  8
┌▓È_1
 62
     5
 10
592.64531250000005
 20
-187.486328125
 30
0.0
 11
592.64531250000005
 21
-164.486328125
 31
0.0
  0
ENDBLK
  5
1C7
  8
0
  0
BLOCK
  8
0
  2
CLUMP2
 70
     0
 10
0.0
 20
0.0
 30
0.0
  3
CLUMP2
  1

  0
LINE
  5
1D0
  8
┌▓È_1
  6
STITCH
 10
4.6453125000000002
 20
154.70494795339999
 30
0.0
 11
4.6453125000000002
 21
-82.445052083299998
 31
0.0
  0
LINE
  5
1D1
  8
┌▓È_1
  6
STITCH
 10
-2.9546874999999999
 20
155.70494791670001
 30
0.0
 11
-2.9546874999999999
 21
168.45494791670001
 31
0.0
  0
ARC
  5
1D2
  8
┌▓È_1
  6
STITCH
 10
-4.9546875000000004
 20
168.45494791670001
 30
0.0
 40
2.0
 50
0.0
 51
71.805127661200004
  0
LINE
  5
1D3
  8
┌▓È_1
  6
STITCH
 10
-5.354687499999998
 20
170.35494791670001
 30
0.0
 11
-2.9546874999999999
 21
170.35494791670001
 31
0.0
  0
LINE
  5
1D4
  8
┌▓È_1
  6
STITCH
 10
-2.9546874999999999
 20
170.75494791669999
 30
0.0
 11
-2.9546874999999999
 21
170.35494791670001
 31
0.0
  0
LINE
  5
1D5
  8
┌▓È_1
  6
STITCH
 10
-5.354687499999998
 20
156.70494791670001
 30
0.0
 11
-5.354687499999998
 21
170.75494791669999
 31
0.0
  0
ARC
  5
1D6
  8
┌▓È_1
  6
STITCH
 10
-4.354687499999998
 20
156.70494791670001
 30
0.0
 40
1.0
 50
180.0
 51
270.0
  0
LINE
  5
1D7
  8
┌▓È_1
  6
STITCH
 10
-4.354687499999998
 20
155.70494791670001
 30
0.0
 11
3.6453125000000002
 21
155.70494791670001
 31
0.0
  0
ARC
  5
1D8
  8
┌▓È_1
  6
STITCH
 10
3.6453125000000002
 20
154.70494791670001
 30
0.0
 40
1.0
 50
0.0
 51
90.0
  0
LINE
  5
1D9
  8
┌▓È_1
  6
STITCH
 10
-8.8546875000000007
 20
170.75494791669999
 30
0.0
 11
-2.9546874999999999
 21
170.75494791669999
 31
0.0
  0
LINE
  5
1DA
  8
┌▓È_1
  6
STITCH
 10
4.6453125000000002
 20
-82.445052083299998
 30
0.0
 11
-8.8546875000000007
 21
-82.445052083299998
 31
0.0
  0
LINE
  5
1DB
  8
┌▓È_1
 62
     5
 10
-8.8546875000000007
 20
-82.445052083299998
 30
0.0
 11
-9.7546874999999993
 21
-82.445052083299998
 31
0.0
  0
LINE
  5
1DC
  8
┌▓È_1
 62
     5
 10
-9.3546875000000007
 20
170.75494791669999
 30
0.0
 11
-8.8546875000000007
 21
170.75494791669999
 31
0.0
  0
ARC
  5
1DD
  8
┌▓È_1
 62
     5
 10
-9.3546875000000007
 20
169.75494791669999
 30
0.0
 40
1.0
 50
90.0
 51
180.0
  0
ARC
  5
1DE
  8
┌▓È_1
 62
     5
 10
-9.7546874999999993
 20
-81.845052083300004
 30
0.0
 40
0.6
 50
180.0
 51
270.0
  0
LINE
  5
1DF
  8
┌▓È_1
 62
     5
 10
-10.354687500000001
 20
-81.845052083300004
 30
0.0
 11
-10.354687500000001
 21
169.75494820899999
 31
0.0
  0
ENDBLK
  5
1E0
  8
0
  0
BLOCK
  8
0
  2
*X29
 70
     1
 10
0.0
 20
0.0
 30
0.0
  3
*X29
  1

  0
LINE
  5
1E4
  8
┌▓È_1
 62
     6
 10
-7.8546874999999989
 20
149.09950554150001
 30
0.0
 11
-5.2492451247999981
 21
151.70494791670001
 31
0.0
  0
LINE
  5
1E5
  8
┌▓È_1
 62
     6
 10
-7.8546874999999989
 20
145.82004779490001
 30
0.0
 11
-1.9697873782999991
 21
151.70494791670001
 31
0.0
  0
LINE
  5
1E6
  8
┌▓È_1
 62
     6
 10
-7.8546874999999989
 20
129.4227590621
 30
0.0
 11
4.1453125000000002
 21
141.4227590621
 31
0.0
  0
LINE
  5
1E7
  8
┌▓È_1
 62
     6
 10
-7.8546874999999989
 20
126.1433013155
 30
0.0
 11
4.1453125000000002
 21
138.1433013155
 31
0.0
  0
LINE
  5
1E8
  8
┌▓È_1
 62
     6
 10
-7.8546874999999989
 20
122.86384356889999
 30
0.0
 11
4.1453125000000002
 21
134.86384356889999
 31
0.0
  0
LINE
  5
1E9
  8
┌▓È_1
 62
     6
 10
-7.8546874999999989
 20
119.58438582230001
 30
0.0
 11
4.1453125000000002
 21
131.58438582229999
 31
0.0
  0
LINE
  5
1EA
  8
┌▓È_1
 62
     6
 10
-7.8546874999999989
 20
103.1870970895
 30
0.0
 11
4.1453125000000002
 21
115.1870970895
 31
0.0
  0
LINE
  5
1EB
  8
┌▓È_1
 62
     6
 10
-7.8546874999999989
 20
99.907639342900012
 30
0.0
 11
4.1453125000000002
 21
111.9076393429
 31
0.0
  0
LINE
  5
1EC
  8
┌▓È_1
 62
     6
 10
-7.8546874999999989
 20
96.628181596299996
 30
0.0
 11
4.1453125000000002
 21
108.6281815963
 31
0.0
  0
LINE
  5
1ED
  8
┌▓È_1
 62
     6
 10
-7.8546874999999989
 20
93.348723849699994
 30
0.0
 11
4.1453125000000002
 21
105.34872384969999
 31
0.0
  0
LINE
  5
1EE
  8
┌▓È_1
 62
     6
 10
-7.8546874999999989
 20
76.951435116900001
 30
0.0
 11
4.1453125000000002
 21
88.951435116899987
 31
0.0
  0
LINE
  5
1EF
  8
┌▓È_1
 62
     6
 10
-7.8546874999999989
 20
73.671977370299999
 30
0.0
 11
4.1453125000000002
 21
85.671977370299984
 31
0.0
  0
LINE
  5
1F0
  8
┌▓È_1
 62
     6
 10
-7.8546874999999989
 20
70.392519623699997
 30
0.0
 11
4.1453125000000002
 21
82.392519623699982
 31
0.0
  0
LINE
  5
1F1
  8
┌▓È_1
 62
     6
 10
-7.8546874999999989
 20
67.113061877099994
 30
0.0
 11
4.1453125000000002
 21
79.11306187709998
 31
0.0
  0
LINE
  5
1F2
  8
┌▓È_1
 62
     6
 10
-7.8546874999999989
 20
50.715773144300002
 30
0.0
 11
4.1453125000000002
 21
62.715773144300002
 31
0.0
  0
LINE
  5
1F3
  8
┌▓È_1
 62
     6
 10
-7.8546874999999989
 20
47.4363153977
 30
0.0
 11
4.1453125000000002
 21
59.436315397700007
 31
0.0
  0
LINE
  5
1F4
  8
┌▓È_1
 62
     6
 10
-7.8546874999999989
 20
44.156857651099997
 30
0.0
 11
4.1453125000000002
 21
56.156857651099997
 31
0.0
  0
LINE
  5
1F5
  8
┌▓È_1
 62
     6
 10
-7.8546874999999989
 20
40.877399904499988
 30
0.0
 11
4.1453125000000002
 21
52.877399904499988
 31
0.0
  0
LINE
  5
1F6
  8
┌▓È_1
 62
     6
 10
-7.8546874999999989
 20
24.480111171699999
 30
0.0
 11
4.1453125000000002
 21
36.480111171700003
 31
0.0
  0
LINE
  5
1F7
  8
┌▓È_1
 62
     6
 10
-7.8546874999999989
 20
21.200653425100001
 30
0.0
 11
4.1453125000000002
 21
33.200653425100001
 31
0.0
  0
LINE
  5
1F8
  8
┌▓È_1
 62
     6
 10
-7.8546874999999989
 20
17.921195678499998
 30
0.0
 11
4.1453125000000002
 21
29.921195678499998
 31
0.0
  0
LINE
  5
1F9
  8
┌▓È_1
 62
     6
 10
-7.8546874999999989
 20
14.6417379319
 30
0.0
 11
4.1453125000000002
 21
26.6417379319
 31
0.0
  0
LINE
  5
1FA
  8
┌▓È_1
 62
     6
 10
-7.8546874999999989
 20
-1.755550801
 30
0.0
 11
4.1453125000000002
 21
10.244449199
 31
0.0
  0
LINE
  5
1FB
  8
┌▓È_1
 62
     6
 10
-7.8546874999999989
 20
-5.0350085475000004
 30
0.0
 11
4.1453125000000002
 21
6.9649914524999987
 31
0.0
  0
LINE
  5
1FC
  8
┌▓È_1
 62
     6
 10
-7.8546874999999989
 20
-8.3144662940999972
 30
0.0
 11
4.1453125000000002
 21
3.6855337058999988
 31
0.0
  0
LINE
  5
1FD
  8
┌▓È_1
 62
     6
 10
-7.8546874999999989
 20
-11.593924040699999
 30
0.0
 11
4.1453125000000002
 21
0.4060759593000001
 31
0.0
  0
LINE
  5
1FE
  8
┌▓È_1
 62
     6
 10
-7.8546874999999989
 20
-27.991212773600001
 30
0.0
 11
4.1453125000000002
 21
-15.991212773599999
 31
0.0
  0
LINE
  5
1FF
  8
┌▓È_1
 62
     6
 10
-7.8546874999999989
 20
-31.270670520100001
 30
0.0
 11
4.1453125000000002
 21
-19.270670520100001
 31
0.0
  0
LINE
  5
200
  8
┌▓È_1
 62
     6
 10
-7.8546874999999989
 20
-34.5501282667
 30
0.0
 11
4.1453125000000002
 21
-22.5501282667
 31
0.0
  0
LINE
  5
201
  8
┌▓È_1
 62
     6
 10
-7.8546874999999989
 20
-37.829586013300002
 30
0.0
 11
4.1453125000000002
 21
-25.829586013299998
 31
0.0
  0
LINE
  5
202
  8
┌▓È_1
 62
     6
 10
-7.8546874999999989
 20
-54.226874746199996
 30
0.0
 11
4.1453125000000002
 21
-42.226874746199989
 31
0.0
  0
LINE
  5
203
  8
┌▓È_1
 62
     6
 10
-7.8546874999999989
 20
-57.506332492699997
 30
0.0
 11
4.1453125000000002
 21
-45.506332492699997
 31
0.0
  0
LINE
  5
204
  8
┌▓È_1
 62
     6
 10
-7.8546874999999989
 20
-60.785790239299999
 30
0.0
 11
4.1453125000000002
 21
-48.785790239300013
 31
0.0
  0
LINE
  5
205
  8
┌▓È_1
 62
     6
 10
-7.8546874999999989
 20
-64.065247985900001
 30
0.0
 11
4.1453125000000002
 21
-52.065247985900001
 31
0.0
  0
LINE
  5
206
  8
┌▓È_1
 62
     6
 10
-5.6872028645999988
 20
-78.295052083299964
 30
0.0
 11
4.1453125000000002
 21
-68.462536718799996
 31
0.0
  0
LINE
  5
207
  8
┌▓È_1
 62
     6
 10
-2.4077451179999989
 20
-78.295052083299964
 30
0.0
 11
4.1453125000000002
 21
-71.741994465299996
 31
0.0
  0
LINE
  5
208
  8
┌▓È_1
 62
     6
 10
0.8717126285999999
 20
-78.295052083299964
 30
0.0
 11
4.1453125000000002
 21
-75.021452211899998
 31
0.0
  0
ENDBLK
  5
209
  8
0
  0
BLOCK
  8
0
  2
CLUMP3
 70
     0
 10
0.0
 20
0.0
 30
0.0
  3
CLUMP3
  1

  0
LINE
  5
21C
  8
┌▓È_1
  6
STITCH
 10
-0.3546875
 20
-163.486328125
 30
0.0
 11
-0.3546875
 21
-188.08632812499999
 31
0.0
  0
LINE
  5
21D
  8
┌▓È_1
  6
STITCH
 10
-0.3546875
 20
-163.88632812500001
 30
0.0
 11
4.6453125000000002
 21
-163.88632812500001
 31
0.0
  0
LINE
  5
21E
  8
┌▓È_1
  6
STITCH
 10
4.6453125000000002
 20
-163.486328125
 30
0.0
 11
4.6453125000000002
 21
-163.88632812500001
 31
0.0
  0
LINE
  5
21F
  8
┌▓È_1
  6
STITCH
 10
-8.8546875000000007
 20
-163.486328125
 30
0.0
 11
4.6453125000000002
 21
-163.486328125
 31
0.0
  0
LINE
  5
220
  8
┌▓È_1
 62
     5
 10
-9.3546875000000007
 20
-163.486328125
 30
0.0
 11
-8.8546875000000007
 21
-163.486328125
 31
0.0
  0
ARC
  5
221
  8
┌▓È_1
 62
     5
 10
-9.3546875000000007
 20
-164.486328125
 30
0.0
 40
1.0
 50
90.0
 51
180.0
  0
LINE
  5
222
  8
┌▓È_1
 62
     5
 10
-0.3546875
 20
-188.08632812499999
 30
0.0
 11
-9.7546874999999993
 21
-188.08632812499999
 31
0.0
  0
ARC
  5
223
  8
┌▓È_1
 62
     5
 10
-9.7546874999999993
 20
-187.486328125
 30
0.0
 40
0.6
 50
180.0
 51
270.0
  0
LINE
  5
224
  8
┌▓È_1
 62
     5
 10
-10.354687500000001
 20
-187.486328125
 30
0.0
 11
-10.354687500000001
 21
-164.486328125
 31
0.0
  0
ENDBLK
  5
225
  8
0
  0
BLOCK
  8
0
  2
*U31
 70
     1
 10
0.0
 20
0.0
 30
0.0
  3
*U31
  1

  0
TEXT
  5
2CA
  8
┌▓È_1
  6
CONTINUOUS
 10
103.04375
 20
-123.5269129362817
 30
0.0
 40
6.9535595894000002
  1
âÇâ_É▄éÞ
  0
ENDBLK
  5
2CC
  8
0
  0
BLOCK
  8
0
  2
*U32
 70
     1
 10
0.0
 20
0.0
 30
0.0
  3
*U32
  1

  0
TEXT
  5
2CE
  8
┌▓È_1
  6
CONTINUOUS
 62
     5
 10
27.712971117399999
 20
5.6406964589213171
 30
0.0
 40
6.9535595894000002
  1
ù╝û╩âeü[âvüFâ\âjü[âPâ~âJâï T4000
  0
ENDBLK
  5
2D0
  8
0
  0
BLOCK
  8
0
  2
*U33
 70
     1
 10
0.0
 20
0.0
 30
0.0
  3
*U33
  1

  0
TEXT
  5
2D2
  8
┌▓È_1
  6
CONTINUOUS
 10
269.05256816790001
 20
194.38217619700001
 30
0.0
 40
8.344271183
  1
é`
  0
ENDBLK
  5
2D4
  8
0
  0
BLOCK
  8
0
  2
*U34
 70
     1
 10
0.0
 20
0.0
 30
0.0
  3
*U34
  1

  0
TEXT
  5
2D6
  8
┌▓È_1
  6
CONTINUOUS
 62
     5
 10
27.472591145799999
 20
18.385856485421321
 30
0.0
 40
6.9535595894000002
  1
æñö┬é­ù╝û╩âeü[âvé┼î┼ÆÞ
  0
ENDBLK
  5
2D8
  8
0
  0
BLOCK
  8
0
  2
*U35
 70
     1
 10
0.0
 20
0.0
 30
0.0
  3
*U35
  1

  0
TEXT
  5
2EE
  8
┌▓È_1
  6
CONTINUOUS
 62
     5
 10
710.62284235759978
 20
-349.07557205269092
 30
0.0
 40
9.7349835873000004
  1
âoâbâNâKü[âh
  0
ENDBLK
  5
2F0
  8
0
  0
BLOCK
  8
0
  2
*U36
 70
     1
 10
0.0
 20
0.0
 30
0.0
  3
*U36
  1

  0
TEXT
  5
2F2
  8
┌▓È_1
  6
CONTINUOUS
 10
723.83016086439989
 20
140.13121913997159
 30
0.0
 40
3.9421755791000002
  1
âXâ|âbâgùnÉ┌òté»
  0
ENDBLK
  5
2F4
  8
0
  0
BLOCK
  8
0
  2
*U37
 70
     1
 10
0.0
 20
0.0
 30
0.0
  3
*U37
  1

  0
TEXT
  5
2F6
  8
┌▓È_1
  6
CONTINUOUS
 10
722.05520833330002
 20
-42.847081184428419
 30
0.0
 40
3.9421755791000002
  1
âXâ|âbâgùnÉ┌òté»
  0
ENDBLK
  5
2F8
  8
0
  0
BLOCK
  8
0
  2
*U38
 70
     1
 10
0.0
 20
0.0
 30
0.0
  3
*U38
  1

  0
TEXT
  5
2FA
  8
┌▓È_1
  6
CONTINUOUS
 10
265.26747012869998
 20
-123.291568185
 30
0.0
 40
8.344271183
  1
é`üf
  0
ENDBLK
  5
2FC
  8
0
  0
BLOCK
  8
0
  2
*U39
 70
     1
 10
0.0
 20
0.0
 30
0.0
  3
*U39
  1

  0
TEXT
  5
2FE
  8
┌▓È_1
  6
CONTINUOUS
 62
     5
 10
447.44791666669983
 20
-45.925429329639599
 30
0.0
 40
8.344271183
  1
ö┬î· éOüDéSéö
  0
ENDBLK
  5
300
  8
0
  0
BLOCK
  8
0
  2
*U40
 70
     1
 10
0.0
 20
0.0
 30
0.0
  3
*U40
  1

  0
TEXT
  5
302
  8
┌▓È_1
  6
CONTINUOUS
 10
661.34895833329995
 20
-123.316653802538
 30
0.0
 40
8.344271183
  1
é`ü|é`üfÆfû╩
  0
ENDBLK
  5
304
  8
0
  0
BLOCK
  8
0
  2
*U41
 70
     1
 10
0.0
 20
0.0
 30
0.0
  3
*U41
  1

  0
TEXT
  5
306
  8
┌▓È_1
  6
CONTINUOUS
 62
     5
 10
327.06588541669998
 20
-129.06698277761419
 30
0.0
 40
8.344271183
  1
éRü|âËéRîè
  0
ENDBLK
  5
308
  8
0
  0
BLOCK
  8
0
  2
*U42
 70
     1
 10
0.0
 20
0.0
 30
0.0
  3
*U42
  1

  0
TEXT
  5
30A
  8
┌▓È_1
  6
CONTINUOUS
 62
     5
 10
502.53808414672318
 20
-282.22475804648178
 30
0.0
 40
6.9535595894000002
  1
ç@
  0
ENDBLK
  5
30C
  8
0
  0
BLOCK
  8
0
  2
*U43
 70
     1
 10
0.0
 20
0.0
 30
0.0
  3
*U43
  1

  0
TEXT
  5
30E
  8
┌▓È_1
  6
CONTINUOUS
 62
     5
 10
502.4851382615247
 20
-267.42497069928169
 30
0.0
 40
6.9535595894000002
  1
çA
  0
ENDBLK
  5
310
  8
0
  0
BLOCK
  8
0
  2
*U44
 70
     1
 10
0.0
 20
0.0
 30
0.0
  3
*U44
  1

  0
TEXT
  5
312
  8
┌▓È_1
  6
CONTINUOUS
 62
     5
 10
539.0800938174558
 20
-282.26005519198083
 30
0.0
 40
6.9535595894000002
  1
âoâbâNâKü[âhü@û{æ╠
  0
ENDBLK
  5
314
  8
0
  0
BLOCK
  8
0
  2
*U45
 70
     1
 10
0.0
 20
0.0
 30
0.0
  3
*U45
  1

  0
TEXT
  5
316
  8
┌▓È_1
  6
CONTINUOUS
 62
     5
 10
538.93890479025993
 20
-267.46026784488072
 30
0.0
 40
6.9535595894000002
  1
âoâbâNâKü[âhü@æñö┬
  0
ENDBLK
  5
318
  8
0
  0
BLOCK
  8
0
  2
*U46
 70
     1
 10
0.0
 20
0.0
 30
0.0
  3
*U46
  1

  0
TEXT
  5
31A
  8
┌▓È_1
  6
CONTINUOUS
 62
     5
 10
660.28044399040755
 20
-281.58940731280001
 30
0.0
 40
6.9535595894000002
  1
SUS430ü@0.4éöü@BA
  0
ENDBLK
  5
31C
  8
0
  0
BLOCK
  8
0
  2
*U47
 70
     1
 10
0.0
 20
0.0
 30
0.0
  3
*U47
  1

  0
TEXT
  5
31E
  8
┌▓È_1
  6
CONTINUOUS
 62
     5
 10
660.28044399040755
 20
-266.78961996570001
 30
0.0
 40
6.9535595894000002
  1
SUS430ü@0.4éöü@BA
  0
ENDBLK
  5
320
  8
0
  0
BLOCK
  8
0
  2
*U48
 70
     1
 10
0.0
 20
0.0
 30
0.0
  3
*U48
  1

  0
TEXT
  5
322
  8
┌▓È_1
  6
CONTINUOUS
 62
     5
 10
769.22011492235231
 20
-280.74253717289997
 30
0.0
 40
6.9535595894000002
  1
1
  0
ENDBLK
  5
324
  8
0
  0
BLOCK
  8
0
  2
*U49
 70
     1
 10
0.0
 20
0.0
 30
0.0
  3
*U49
  1

  0
TEXT
  5
326
  8
┌▓È_1
  6
CONTINUOUS
 62
     5
 10
768.81419646916379
 20
-265.50951134619999
 30
0.0
 40
6.9535595894000002
  1
2
  0
ENDBLK
  5
328
  8
0
  0
BLOCK
  8
0
  2
*U50
 70
     1
 10
0.0
 20
0.0
 30
0.0
  3
*U50
  1

  0
TEXT
  5
32A
  8
┌▓È_1
  6
CONTINUOUS
 62
     5
 10
798.93581158971983
 20
-266.00367294138579
 30
0.0
 40
6.9535595894000002
  1
ìÂëEèe1
  0
ENDBLK
  5
32C
  8
0
  0
BLOCK
  8
0
  2
*U51
 70
     1
 10
0.0
 20
0.0
 30
0.0
  3
*U51
  1

  0
TEXT
  5
32E
  8
┌▓È_1
  6
CONTINUOUS
 10
644.83947197100815
 20
-324.3587544733
 30
0.0
 40
6.9535595894000002
  1
0.4t
  0
ENDBLK
  5
330
  8
0
  0
BLOCK
  8
0
  2
*U52
 70
     1
 10
0.0
 20
0.0
 30
0.0
  3
*U52
  1

  0
TEXT
  5
332
  8
┌▓È_1
  6
CONTINUOUS
 10
499.05764152169991
 20
-296.02684485431422
 30
0.0
 40
6.9535597592999991
  1
É}öÈ          òi     û╝                 ü@ü@ ìÌ     Ä┐          Éöù╩
  0
ENDBLK
  5
334
  8
0
  0
BLOCK
  8
0
  2
*U53
 70
     1
 10
0.0
 20
0.0
 30
0.0
  3
*U53
  1

  0
TEXT
  5
336
  8
┌▓È_1
  6
CONTINUOUS
 62
     5
 10
499.05764152169991
 20
-350.82725832431419
 30
0.0
 40
6.9535597592999991
  1
É╗É}
  0
ENDBLK
  5
338
  8
0
  0
BLOCK
  8
0
  2
*U54
 70
     1
 10
0.0
 20
0.0
 30
0.0
  3
*U54
  1

  0
TEXT
  5
33A
  8
┌▓È_1
  6
CONTINUOUS
 62
     5
 10
547.75765315930005
 20
-312.63353699811421
 30
0.0
 40
6.9535597592999991
  1
ê§   Éö
  0
ENDBLK
  5
33C
  8
0
  0
BLOCK
  8
0
  2
*U55
 70
     1
 10
0.0
 20
0.0
 30
0.0
  3
*U55
  1

  0
TEXT
  5
33E
  8
┌▓È_1
  6
CONTINUOUS
 62
     5
 10
682.17413048169999
 20
-362.86582878376839
 30
0.0
 40
6.9535597592999991
  1
É}öÈ
  0
ENDBLK
  5
340
  8
0
  0
BLOCK
  8
0
  2
*U56
 70
     1
 10
0.0
 20
0.0
 30
0.0
  3
*U56
  1

  0
TEXT
  5
342
  8
┌▓È_1
  6
CONTINUOUS
 62
     5
 10
638.19325552169994
 20
-339.00214446271423
 30
0.0
 40
6.9535597592999991
  1
Ä┌   ôx
  0
ENDBLK
  5
344
  8
0
  0
BLOCK
  8
0
  2
*U57
 70
     1
 10
0.0
 20
0.0
 30
0.0
  3
*U57
  1

  0
TEXT
  5
346
  8
┌▓È_1
  6
CONTINUOUS
 62
     5
 10
595.73721693979996
 20
-312.16166282223008
 30
0.0
 40
6.9535597592999991
  1
ìÌ   Ä┐
  0
ENDBLK
  5
348
  8
0
  0
BLOCK
  8
0
  2
*U58
 70
     1
 10
0.0
 20
0.0
 30
0.0
  3
*U58
  1

  0
TEXT
  5
34A
  8
┌▓È_1
  6
CONTINUOUS
 62
     5
 10
639.91277438479995
 20
-313.00759822697557
 30
0.0
 40
6.9535597592999991
  1
ö┬   î·
  0
ENDBLK
  5
34C
  8
0
  0
BLOCK
  8
0
  2
*U59
 70
     1
 10
0.0
 20
0.0
 30
0.0
  3
*U59
  1

  0
TEXT
  5
34E
  8
┌▓È_1
  6
CONTINUOUS
 62
     5
 10
682.17413048169999
 20
-337.41965686229139
 30
0.0
 40
6.9535597592999991
  1
òiû╝
  0
ENDBLK
  5
350
  8
0
  0
BLOCK
  8
0
  2
*U60
 70
     1
 10
0.0
 20
0.0
 30
0.0
  3
*U60
  1

  0
TEXT
  5
352
  8
┌▓È_1
  6
CONTINUOUS
 62
     5
 10
683.06655466450002
 20
-312.12636556456857
 30
0.0
 40
6.9535597592999991
  1
òiöÈ
  0
ENDBLK
  5
354
  8
0
  0
BLOCK
  8
0
  2
*U61
 70
     1
 10
0.0
 20
0.0
 30
0.0
  3
*U61
  1

  0
TEXT
  5
356
  8
┌▓È_1
  6
CONTINUOUS
 62
     5
 10
501.12789807839988
 20
-312.1291804023457
 30
0.0
 40
6.9535597592999991
  1
ô·   òt
  0
ENDBLK
  5
358
  8
0
  0
BLOCK
  8
0
  2
*U62
 70
     1
 10
0.0
 20
0.0
 30
0.0
  3
*U62
  1

  0
TEXT
  5
35A
  8
┌▓È_1
  6
CONTINUOUS
 62
     5
 10
506.76383045429998
 20
-372.09205533869692
 30
0.0
 40
12.516407754799999
  1
èöÄ«ë´Äð
  0
ENDBLK
  5
35C
  8
0
  0
BLOCK
  8
0
  2
*U63
 70
     1
 10
0.0
 20
0.0
 30
0.0
  3
*U63
  1

  0
TEXT
  5
35E
  8
┌▓È_1
  6
CONTINUOUS
 10
597.42232797820998
 20
-325.61725447819998
 30
0.0
 40
6.9535595894000002
  1
SUS430
  0
ENDBLK
  5
360
  8
0
  0
BLOCK
  8
0
  2
*U64
 70
     1
 10
0.0
 20
0.0
 30
0.0
  3
*U64
  1

  0
TEXT
  5
362
  8
┌▓È_1
  6
CONTINUOUS
 62
     5
 10
499.05764152169991
 20
-338.06638894079123
 30
0.0
 40
6.9535597592999991
  1
É¦îv
  0
ENDBLK
  5
364
  8
0
  0
BLOCK
  8
0
  2
*U65
 70
     1
 10
0.0
 20
0.0
 30
0.0
  3
*U65
  1

  0
TEXT
  5
366
  8
┌▓È_1
  6
CONTINUOUS
 10
503.95002065881221
 20
-325.61725447819998
 30
0.0
 40
6.9535595894000002
  1
H12.5
  0
ENDBLK
  5
368
  8
0
  0
BLOCK
  8
0
  2
*U66
 70
     1
 10
0.0
 20
0.0
 30
0.0
  3
*U66
  1

  0
TEXT
  5
36A
  8
┌▓È_1
  6
CONTINUOUS
 62
     5
 10
169.41152343749999
 20
-334.02266064849999
 30
0.0
 40
6.9535595894000002
  1
 2ü@ü@   700ü@ü@ ü@ü@ü@ü@254ü@ü@ü@ü@ü@ü@300ü@
  0
ENDBLK
  5
36C
  8
0
  0
BLOCK
  8
0
  2
*U67
 70
     1
 10
0.0
 20
0.0
 30
0.0
  3
*U67
  1

  0
TEXT
  5
36E
  8
┌▓È_1
  6
CONTINUOUS
 62
     5
 10
169.41152343749999
 20
-320.21885205479998
 30
0.0
 40
6.9535595894000002
  1
 1ü@ü@ ü@600ü@ü@ü@ü@ü@   254ü@ü@ü@ü@ü@ü@250ü@
  0
ENDBLK
  5
370
  8
0
  0
BLOCK
  8
0
  2
*U68
 70
     1
 10
0.0
 20
0.0
 30
0.0
  3
*U68
  1

  0
TEXT
  5
372
  8
┌▓È_1
  6
CONTINUOUS
 62
     5
 10
168.94559966586041
 20
-306.70564532731271
 30
0.0
 40
8.344271183
  1
NO     èÈî¹       ü@ ég     ü@    ék
  0
ENDBLK
  5
374
  8
0
  0
ENDSEC
  0
SECTION
  2
ENTITIES
  0
INSERT
  5
2F
  8
0
  6
CONTINUOUS
  2
*U31
 10
0.0
 20
0.0
 30
0.0
  0
LINE
  5
30
  8
┌▓È_1
  6
DASHDOT
 10
39.645312500000003
 20
-150.74127604169999
 30
0.0
 11
39.645312500000003
 21
-198.26292317709999
 31
0.0
  0
CIRCLE
  5
31
  8
┌▓È_1
 62
     5
 10
39.645312500000003
 20
-175.58632812499999
 30
0.0
 40
2.5
  0
CIRCLE
  5
32
  8
┌▓È_1
 62
     5
 10
291.14531249999999
 20
-175.58632812499999
 30
0.0
 40
2.5
  0
LINE
  5
34
  8
Éíû@É³
 10
174.3564453125
 20
-99.845052083300004
 30
0.0
 11
140.4567057292
 21
-128.45146923070001
 31
0.0
  0
SOLID
  5
35
  8
Éíû@É³
 10
174.3564453125
 20
-99.845052083300004
 30
0.0
 11
171.39920820930001
 21
-104.0935421632
 31
0.0
 12
171.55908715999999
 22
-102.2056128193
 32
0.0
 13
171.55908715999999
 23
-102.2056128193
 33
0.0
  0
SOLID
  5
36
  8
Éíû@É³
 10
174.3564453125
 20
-99.845052083300004
 30
0.0
 11
169.67115781620001
 21
-102.0457338686
 31
0.0
 12
171.55908715999999
 22
-102.2056128193
 32
0.0
 13
171.55908715999999
 23
-102.2056128193
 33
0.0
  0
LINE
  5
37
  8
┌▓È_1
 62
     5
 10
8.1453124999999975
 20
-99.845052083300004
 30
0.0
 11
14.145312499999999
 21
-93.845052083300004
 31
0.0
  0
INSERT
  5
38
  8
0
  6
CONTINUOUS
  2
*U32
 10
0.0
 20
0.0
 30
0.0
  0
LINE
  5
39
  8
┌▓È_1
 10
25.355924479199999
 20
15.7833333333
 30
0.0
 11
159.2156983902
 21
15.7833333333
 31
0.0
  0
INSERT
  5
3A
  8
0
  6
CONTINUOUS
  2
*U33
 10
0.0
 20
0.0
 30
0.0
  0
LINE
  5
3B
  8
┌▓È_1
 10
291.14531249999999
 20
189.13671875
 30
0.0
 11
291.14531249999999
 21
201.7375651042
 31
0.0
  0
LINE
  5
3C
  8
┌▓È_1
 10
25.355924479199999
 20
15.7833333333
 30
0.0
 11
4.1453125000000002
 21
43.796093749999997
 31
0.0
  0
SOLID
  5
3D
  8
┌▓È_1
 10
4.1453125000000002
 20
43.796093749999997
 30
0.0
 11
8.2316964530999979
 21
40.618612761599998
 31
0.0
 12
6.3548452638999979
 22
40.877973706699997
 32
0.0
 13
6.3548452638999979
 23
40.877973706699997
 33
0.0
  0
SOLID
  5
3E
  8
┌▓È_1
 10
4.1453125000000002
 20
43.796093749999997
 30
0.0
 11
6.0954843187999987
 21
39.001122517500001
 31
0.0
 12
6.3548452638999979
 22
40.877973706699997
 32
0.0
 13
6.3548452638999979
 23
40.877973706699997
 33
0.0
  0
INSERT
  5
3F
  8
0
  6
CONTINUOUS
  2
*U34
 10
0.0
 20
0.0
 30
0.0
  0
LINE
  5
40
  8
┌▓È_1
  6
DOT
 62
     6
 10
578.14531250000005
 20
-78.295052083299964
 30
0.0
 11
578.14531250000005
 21
151.70494791670001
 31
0.0
  0
LINE
  5
41
  8
┌▓È_1
  6
DOT
 62
     6
 10
590.14531250000005
 20
151.70494791670001
 30
0.0
 11
590.14531250000005
 21
-78.295052083299964
 31
0.0
  0
LINE
  5
42
  8
┌▓È_1
  6
DOT
 62
     6
 10
590.14531250000005
 20
-78.295052083299964
 30
0.0
 11
578.14531250000005
 21
-78.295052083299964
 31
0.0
  0
LINE
  5
43
  8
┌▓È_1
  6
DOT
 62
     6
 10
578.14531250000005
 20
151.70494791670001
 30
0.0
 11
590.14531250000005
 21
151.70494791670001
 31
0.0
  0
LINE
  5
44
  8
┌▓È_1
 62
     5
 10
514.87052641369996
 20
-34.998567708300001
 30
0.0
 11
445.33125000000001
 21
-34.998567708300001
 31
0.0
  0
INSERT
  5
46
  8
Éíû@É³
  2
BALLON0
 10
29.174758034921751
 20
-1.4510257255232599
 30
0.0
  0
INSERT
  5
50
  8
Éíû@É³
  2
BALLON1
 10
29.174758034921751
 20
-1.4510257255232599
 30
0.0
  0
INSERT
  5
5A
  8
Éíû@É³
  2
BALLON2
 10
0.0
 20
0.0
 30
0.0
  0
INSERT
  5
64
  8
Éíû@É³
  2
BALLON3
 10
29.174758034921751
 20
-1.4510257255232599
 30
0.0
  0
INSERT
  5
6E
  8
Éíû@É³
  2
BALLON4
 10
29.174758034921751
 20
-1.4510257255232599
 30
0.0
  0
INSERT
  5
77
  8
0
  6
CONTINUOUS
  2
*U35
 10
0.0
 20
0.0
 30
0.0
  0
LINE
  5
78
  8
┌▓È_1
 62
     5
 10
-8.8546875000000007
 20
-82.845052083300004
 30
0.0
 11
-8.8546875000000007
 21
171.1549479167
 31
0.0
  0
LINE
  5
79
  8
┌▓È_1
  6
DOT
 62
     6
 10
-7.8546874999999989
 20
151.70494791670001
 30
0.0
 11
-7.8546874999999989
 21
-78.295052083299964
 31
0.0
  0
LINE
  5
7A
  8
┌▓È_1
  6
DASHDOT
 10
291.14531249999999
 20
189.13671875
 30
0.0
 11
291.14531249999999
 21
-114.8447265625
 31
0.0
  0
LINE
  5
7B
  8
┌▓È_1
  6
DOT
 62
     6
 10
4.1453125000000002
 20
-78.295052083299964
 30
0.0
 11
4.1453125000000002
 21
151.70494791670001
 31
0.0
  0
LINE
  5
7C
  8
┌▓È_1
 10
-3.5037647617999981
 20
-179.26165768460001
 30
0.0
 11
-6.3321918864999986
 21
-182.09008480930001
 31
0.0
  0
LINE
  5
7D
  8
┌▓È_1
 10
-6.3321918864999986
 20
-179.26165768460001
 30
0.0
 11
-3.5037647617999981
 21
-182.09008480930001
 31
0.0
  0
LINE
  5
7E
  8
┌▓È_1
 10
-2.917978324099999
 20
-180.67587124689999
 30
0.0
 11
-6.9179783240999981
 21
-180.67587124689999
 31
0.0
  0
LINE
  5
7F
  8
┌▓È_1
 10
-4.917978324099999
 20
-178.67587124689999
 30
0.0
 11
-4.917978324099999
 21
-182.67587124689999
 31
0.0
  0
LINE
  5
80
  8
┌▓È_1
 62
     5
 10
-8.8546875000000007
 20
-188.08632812499999
 30
0.0
 11
-8.8546875000000007
 21
-163.08632812499999
 31
0.0
  0
DIMENSION
  5
90
  8
Éíû@É³
  2
*D12
 10
-8.8546875000000007
 20
194.34421602879999
 30
0.0
 11
-25.4316404343
 21
194.34421602879999
 31
0.0
 70
   128
  1
<>
 13
-8.8546875000000007
 23
171.1549479167
 33
0.0
 14
-10.354687500000001
 24
169.75494791669999
 34
0.0
  0
DIMENSION
  5
9E
  8
Éíû@É³
  2
*D13
 10
39.645312500000003
 20
-218.92005246479999
 30
0.0
 11
165.39531249999999
 21
-218.92005246479999
 31
0.0
 70
   128
  1
L
 13
39.645312500000003
 23
-198.26292317709999
 33
0.0
 14
291.14531249999999
 24
-198.26292317709999
 34
0.0
 50
180.0
  0
LINE
  5
9F
  8
┌▓È_1
  6
DASHDOT
 10
291.14531249999999
 20
-150.74127604169999
 30
0.0
 11
291.14531249999999
 21
-198.26292317709999
 31
0.0
  0
LINE
  5
A0
  8
┌▓È_1
 10
291.14531249999999
 20
-114.8447265625
 30
0.0
 11
291.14531249999999
 21
-128.70634765619999
 31
0.0
  0
LINE
  5
A1
  8
Éíû@É³
 10
140.4567057292
 20
-128.45146923070001
 30
0.0
 11
100.9270833333
 21
-128.45146923070001
 31
0.0
  0
LINE
  5
A2
  8
┌▓È_1
 62
     5
 10
686.64062499999977
 20
157.75494805919999
 30
0.0
 11
686.64062499999977
 21
-82.445052083299998
 31
0.0
  0
LINE
  5
A3
  8
┌▓È_1
 62
     5
 10
686.64062499999977
 20
-82.045052083299964
 30
0.0
 11
710.44062499999995
 21
-82.045052083299964
 31
0.0
  0
LINE
  5
A4
  8
┌▓È_1
 10
587.20860332409995
 20
-178.67587124689999
 30
0.0
 11
587.20860332409995
 21
-182.67587124689999
 31
0.0
  0
LINE
  5
A5
  8
┌▓È_1
 62
     5
 10
591.14531250000005
 20
-82.845052083300004
 30
0.0
 11
-8.8546875000000007
 21
-82.845052083300004
 31
0.0
  0
LINE
  5
A6
  8
┌▓È_1
 10
595.15722031960001
 20
-163.08632812499999
 30
0.0
 11
630.41566780819994
 21
-163.08632812499999
 31
0.0
  0
DIMENSION
  5
B4
  8
Éíû@É³
  2
*D14
 10
291.14531249999999
 20
-218.92005246479999
 30
0.0
 11
416.89531249999987
 21
-218.92005246479999
 31
0.0
 70
   128
  1
L
 13
291.14531249999999
 23
-198.26292317709999
 33
0.0
 14
542.64531250000005
 24
-198.26292317709999
 34
0.0
 50
180.0
  0
DIMENSION
  5
C3
  8
Éíû@É³
  2
*D15
 10
542.64531250000005
 20
-218.92005246479999
 30
0.0
 11
567.32086653709985
 21
-218.92005246479999
 31
0.0
 70
   128
  1
<>
 13
542.64531250000005
 23
-198.26292317709999
 33
0.0
 14
592.64531250000005
 24
-187.486328125
 34
0.0
 50
180.0
  0
DIMENSION
  5
D2
  8
Éíû@É³
  2
*D16
 10
-10.354687500000001
 20
-218.92005246479999
 30
0.0
 11
14.645312499999999
 21
-218.92005246479999
 31
0.0
 70
   128
  1
<>
 13
-10.354687500000001
 23
-187.486328125
 33
0.0
 14
39.645312500000003
 24
-198.26292317709999
 34
0.0
 50
180.0
  0
DIMENSION
  5
E1
  8
Éíû@É³
  2
*D17
 10
592.64531250000005
 20
226.19674479170001
 30
0.0
 11
291.14531249999999
 21
226.19674479170001
 31
0.0
 70
   128
  1
èÈî¹
 13
592.64531250000005
 23
169.75494791669999
 33
0.0
 14
-10.354687500000001
 24
169.75494791669999
 34
0.0
  0
DIMENSION
  5
F0
  8
Éíû@É³
  2
*D18
 10
742.60716145829986
 20
164.1549479167
 30
0.0
 11
742.60716145829986
 21
167.6549479167
 31
0.0
 70
   128
  1
<>
 13
710.34062500000005
 23
164.1549479167
 33
0.0
 14
710.34062500000005
 24
171.1549479167
 34
0.0
 50
90.0
  0
DIMENSION
  5
FF
  8
Éíû@É³
  2
*D19
 10
710.84062500000005
 20
230.5373713175
 30
0.0
 11
698.34062500000005
 21
230.5373713175
 31
0.0
 70
   128
  1
<>
 13
710.84062500000005
 23
171.1549479167
 33
0.0
 14
685.84062500000005
 24
159.1549479167
 34
0.0
  0
DIMENSION
  5
10E
  8
Éíû@É³
  2
*D20
 10
654.18580741879998
 20
-82.845052083300004
 30
0.0
 11
654.18580741879998
 21
38.382226149200001
 31
0.0
 70
   128
  1
ég
 13
685.84062500000005
 23
-82.845052083300004
 33
0.0
 14
697.84062500000005
 24
171.1549479167
 34
0.0
 50
90.0
  0
DIMENSION
  5
11C
  8
Éíû@É³
  2
*D21
 10
628.14088363650001
 20
-188.08632812499999
 30
0.0
 11
628.14088363650001
 21
-204.89192733760001
 31
0.0
 70
   128
  1
<>
 13
591.14531250000005
 23
-188.08632812499999
 33
0.0
 14
562.79140625000002
 24
-175.58632812499999
 34
0.0
 50
90.0
  0
DIMENSION
  5
12A
  8
Éíû@É³
  2
*D22
 10
628.14088363650001
 20
-175.58632812499999
 30
0.0
 11
628.14088363650001
 21
-144.4677082062
 31
0.0
 70
   128
  1
<>
 13
562.79140625000002
 23
-175.58632812499999
 33
0.0
 14
591.14531250000005
 24
-163.08632812499999
 34
0.0
 50
90.0
  0
DIMENSION
  5
138
  8
Éíû@É³
  2
*D23
 10
654.18580741879998
 20
-99.845052083300004
 30
0.0
 11
654.18580741879998
 21
-91.345052083300004
 31
0.0
 70
   128
  1
16.6
 13
710.34062500000005
 23
-99.845052083300004
 33
0.0
 14
685.84062500000005
 24
-82.845052083300004
 34
0.0
 50
90.0
  0
DIMENSION
  5
147
  8
Éíû@É³
  2
*D24
 10
592.64531250000005
 20
194.34421602879999
 30
0.0
 11
609.89908854169994
 21
194.34421602879999
 31
0.0
 70
   128
  1
<>
 13
592.64531250000005
 23
169.75494791669999
 33
0.0
 14
591.14531250000005
 24
171.1549479167
 34
0.0
  0
LINE
  5
148
  8
Éíû@É³
 10
710.44062499999995
 20
166.8340390669
 30
0.0
 11
720.72997076019999
 21
137.65906204309999
 31
0.0
  0
SOLID
  5
149
  8
Éíû@É³
 10
710.44062499999995
 20
166.8340390669
 30
0.0
 11
713.36709036669981
 21
162.5642943789
 31
0.0
 12
711.65802050539992
 22
163.38216887740001
 32
0.0
 13
711.65802050539992
 23
163.38216887740001
 33
0.0
  0
SOLID
  5
14A
  8
Éíû@É³
 10
710.44062499999995
 20
166.8340390669
 30
0.0
 11
710.8401460069
 21
161.6730990161
 31
0.0
 12
711.65802050539992
 22
163.38216887740001
 32
0.0
 13
711.65802050539992
 23
163.38216887740001
 33
0.0
  0
INSERT
  5
14B
  8
0
  6
CONTINUOUS
  2
*U36
 10
0.0
 20
0.0
 30
0.0
  0
LINE
  5
14C
  8
Éíû@É³
 10
705.18515624999975
 20
-77.04284327649998
 30
0.0
 11
718.95501822919994
 21
-45.319238281200001
 31
0.0
  0
SOLID
  5
14D
  8
Éíû@É³
 10
705.18515624999975
 20
-77.04284327649998
 30
0.0
 11
705.94702197740003
 21
-71.922835477999996
 31
0.0
 12
706.64254667989997
 22
-73.685244021599999
 32
0.0
 13
706.64254667989997
 23
-73.685244021599999
 33
0.0
  0
SOLID
  5
14E
  8
Éíû@É³
 10
705.18515624999975
 20
-77.04284327649998
 30
0.0
 11
708.40495522350011
 21
-72.989719319200006
 31
0.0
 12
706.64254667989997
 22
-73.685244021599999
 32
0.0
 13
706.64254667989997
 23
-73.685244021599999
 33
0.0
  0
INSERT
  5
14F
  8
0
  6
CONTINUOUS
  2
*U37
 10
0.0
 20
0.0
 30
0.0
  0
LINE
  5
150
  8
┌▓È_1
 10
585.20860332409995
 20
-180.67587124689999
 30
0.0
 11
589.20860332409995
 21
-180.67587124689999
 31
0.0
  0
LINE
  5
151
  8
┌▓È_1
 10
588.6228168865
 20
-179.26165768460001
 30
0.0
 11
585.79438976179995
 21
-182.09008480930001
 31
0.0
  0
LINE
  5
152
  8
┌▓È_1
 10
585.79438976179995
 20
-179.26165768460001
 30
0.0
 11
588.6228168865
 21
-182.09008480930001
 31
0.0
  0
LINE
  5
153
  8
┌▓È_1
 62
     5
 10
-8.8546875000000007
 20
-163.08632812499999
 30
0.0
 11
591.14531250000005
 21
-163.08632812499999
 31
0.0
  0
INSERT
  5
155
  8
┌▓È_1
 62
     6
  2
*X25
 10
0.0
 20
0.0
 30
0.0
  0
LINE
  5
17D
  8
┌▓È_1
 10
659.23229166670001
 20
-130.50237897240001
 30
0.0
 11
732.32057291670003
 21
-130.50237897240001
 31
0.0
  0
LINE
  5
17E
  8
┌▓È_1
 10
291.14531249999999
 20
195.43714192709999
 30
0.0
 11
306.33637341489998
 21
195.43714192709999
 31
0.0
  0
SOLID
  5
17F
  8
┌▓È_1
 10
291.14531249999999
 20
195.43714192709999
 30
0.0
 11
296.14531249999999
 21
196.7768878892
 31
0.0
 12
294.8055665377999
 22
195.43714192709999
 32
0.0
 13
294.8055665377999
 23
195.43714192709999
 33
0.0
  0
SOLID
  5
180
  8
┌▓È_1
 10
291.14531249999999
 20
195.43714192709999
 30
0.0
 11
296.14531249999999
 21
194.09739596489999
 31
0.0
 12
294.8055665377999
 22
195.43714192709999
 32
0.0
 13
294.8055665377999
 23
195.43714192709999
 33
0.0
  0
INSERT
  5
181
  8
0
  6
CONTINUOUS
  2
*U38
 10
0.0
 20
0.0
 30
0.0
  0
LINE
  5
182
  8
┌▓È_1
 10
291.14531249999999
 20
-120.9250422275
 30
0.0
 11
306.33637341489998
 21
-120.9250422275
 31
0.0
  0
SOLID
  5
183
  8
┌▓È_1
 10
291.14531249999999
 20
-120.9250422275
 30
0.0
 11
296.14531249999999
 21
-119.5852962653
 31
0.0
 12
294.8055665377999
 22
-120.9250422275
 32
0.0
 13
294.8055665377999
 23
-120.9250422275
 33
0.0
  0
SOLID
  5
184
  8
┌▓È_1
 10
291.14531249999999
 20
-120.9250422275
 30
0.0
 11
296.14531249999999
 21
-122.2647881897
 31
0.0
 12
294.8055665377999
 22
-120.9250422275
 32
0.0
 13
294.8055665377999
 23
-120.9250422275
 33
0.0
  0
LINE
  5
185
  8
┌▓È_1
  6
DOT
 62
     6
 10
4.1453125000000002
 20
151.70494791670001
 30
0.0
 11
-7.8546874999999989
 21
151.70494791670001
 31
0.0
  0
LINE
  5
186
  8
┌▓È_1
 62
     5
 10
445.33125000000001
 20
-50.028564785299999
 30
0.0
 11
514.87052641369996
 21
-50.028564785299999
 31
0.0
  0
LINE
  5
187
  8
┌▓È_1
 62
     5
 10
514.87052641369996
 20
-50.028564785299999
 30
0.0
 11
514.87052641369996
 21
-34.998567708300001
 31
0.0
  0
LINE
  5
188
  8
┌▓È_1
 62
     5
 10
445.33125000000001
 20
-34.998567708300001
 30
0.0
 11
445.33125000000001
 21
-50.028564785299999
 31
0.0
  0
LINE
  5
189
  8
Éíû@É³
 10
324.94921875
 20
-135.99856770829999
 30
0.0
 11
381.15659926469999
 21
-135.99856770829999
 31
0.0
  0
LINE
  5
18A
  8
┌▓È_1
  6
DASHDOT
 10
542.64531250000005
 20
-150.74127604169999
 30
0.0
 11
542.64531250000005
 21
-198.26292317709999
 31
0.0
  0
LINE
  5
18B
  8
┌▓È_1
 62
     5
 10
686.24062500000002
 20
-82.445052083299998
 30
0.0
 11
710.44062502820009
 21
-82.445052083299998
 31
0.0
  0
LINE
  5
18C
  8
┌▓È_1
 62
     5
 10
710.04062499999975
 20
164.1549479167
 30
0.0
 11
710.44062499999995
 21
164.1549479167
 31
0.0
  0
ARC
  5
18D
  8
┌▓È_1
 62
     5
 10
699.24062500000002
 20
157.75494791669999
 30
0.0
 40
12.6
 50
90.0
 51
180.0
  0
ARC
  5
18E
  8
┌▓È_1
 62
     5
 10
699.24062500000002
 20
157.75494791669999
 30
0.0
 40
13.0
 50
90.0
 51
180.0
  0
LINE
  5
18F
  8
┌▓È_1
 62
     5
 10
710.84062500000005
 20
-82.445052083299998
 30
0.0
 11
710.84062500000005
 21
170.75494791669999
 31
0.0
  0
LINE
  5
190
  8
┌▓È_1
 62
     5
 10
686.24062500000002
 20
157.75494813840001
 30
0.0
 11
686.24062500000002
 21
-82.445052083299998
 31
0.0
  0
LINE
  5
191
  8
┌▓È_1
 62
     5
 10
686.24062500000002
 20
-82.445052083299998
 30
0.0
 11
710.84062500000005
 21
-82.445052083299998
 31
0.0
  0
LINE
  5
192
  8
┌▓È_1
 62
     5
 10
710.04062499999975
 20
164.1549479167
 30
0.0
 11
710.04062499999975
 21
170.75494791669999
 31
0.0
  0
LINE
  5
193
  8
┌▓È_1
 62
     5
 10
710.84062500000005
 20
170.75494791669999
 30
0.0
 11
710.44062499999995
 21
170.75494791669999
 31
0.0
  0
LINE
  5
194
  8
┌▓È_1
 62
     5
 10
710.04062499999975
 20
170.75494791669999
 30
0.0
 11
699.24062500000002
 21
170.75494791669999
 31
0.0
  0
LINE
  5
195
  8
┌▓È_1
 62
     5
 10
699.34062500000005
 20
171.1549479167
 30
0.0
 11
710.04062499999975
 21
171.1549479167
 31
0.0
  0
LINE
  5
196
  8
┌▓È_1
 62
     5
 10
710.44062499999995
 20
-82.445052083299998
 30
0.0
 11
710.44062499999995
 21
170.75494791669999
 31
0.0
  0
ARC
  5
197
  8
┌▓È_1
 62
     5
 10
710.04062499999975
 20
170.75494791669999
 30
0.0
 40
0.4
 50
0.0
 51
90.0
  0
LINE
  5
198
  8
┌▓È_1
 62
     5
 10
709.54062499999986
 20
170.35494791670001
 30
0.0
 11
709.54062499999986
 21
170.75494791669999
 31
0.0
  0
LINE
  5
199
  8
┌▓È_1
 62
     5
 10
709.54062499999986
 20
170.35494791670001
 30
0.0
 11
699.24062500000002
 21
170.35494791670001
 31
0.0
  0
LINE
  5
19A
  8
┌▓È_1
 62
     5
 10
574.14531250000005
 20
-99.845052083300004
 30
0.0
 11
568.14531250000005
 21
-93.845052083300004
 31
0.0
  0
LINE
  5
19B
  8
┌▓È_1
 62
     5
 10
591.14531250000005
 20
-82.845052083300004
 30
0.0
 11
574.14531250000005
 21
-99.845052083300004
 31
0.0
  0
LINE
  5
19C
  8
┌▓È_1
 62
     5
 10
-8.8546875000000007
 20
-82.845052083300004
 30
0.0
 11
8.1453124999999975
 21
-99.845052083300004
 31
0.0
  0
LINE
  5
19D
  8
┌▓È_1
 62
     5
 10
568.14531250000005
 20
-93.845052083300004
 30
0.0
 11
14.145312499999999
 21
-93.845052083300004
 31
0.0
  0
LINE
  5
19E
  8
┌▓È_1
 62
     5
 10
574.14531250000005
 20
-99.845052083300004
 30
0.0
 11
8.1453124999999975
 21
-99.845052083300004
 31
0.0
  0
LINE
  5
19F
  8
┌▓È_1
 62
     5
 10
686.34062500000005
 20
-82.845052083300004
 30
0.0
 11
710.34062500000005
 21
-82.845052083300004
 31
0.0
  0
ARC
  5
1A0
  8
┌▓È_1
 62
     5
 10
686.34062500000005
 20
-82.345052083300004
 30
0.0
 40
0.5
 50
180.0
 51
270.0
  0
INSERT
  5
1A1
  8
0
  6
CONTINUOUS
  2
*U39
 10
0.0
 20
0.0
 30
0.0
  0
INSERT
  5
1A2
  8
0
  6
CONTINUOUS
  2
*U40
 10
0.0
 20
0.0
 30
0.0
  0
INSERT
  5
1A3
  8
0
  6
CONTINUOUS
  2
*U41
 10
0.0
 20
0.0
 30
0.0
  0
LINE
  5
1A4
  8
┌▓È_1
 62
     5
 10
591.14531250000005
 20
171.1549479167
 30
0.0
 11
-8.8546875000000007
 21
171.1549479167
 31
0.0
  0
LINE
  5
1A5
  8
┌▓È_1
 62
     5
 10
591.14531250000005
 20
171.1549479167
 30
0.0
 11
591.14531250000005
 21
-82.845052083300004
 31
0.0
  0
LINE
  5
1A6
  8
┌▓È_1
  6
HIDDEN
 10
-8.8546875000000007
 20
164.1549479167
 30
0.0
 11
591.14531250000005
 21
164.1549479167
 31
0.0
  0
INSERT
  5
1A8
  8
┌▓È_1
  6
STITCH
  2
CLUMP0
 10
0.0
 20
0.0
 30
0.0
  0
INSERT
  5
1BC
  8
┌▓È_1
  6
STITCH
  2
CLUMP1
 10
0.0
 20
0.0
 30
0.0
  0
LINE
  5
1C8
  8
┌▓È_1
 62
     5
 10
685.84062500000005
 20
157.6549479167
 30
0.0
 11
685.84062500000005
 21
-82.345052083300004
 31
0.0
  0
ARC
  5
1C9
  8
┌▓È_1
 62
     5
 10
699.34062500000005
 20
157.6549479167
 30
0.0
 40
13.5
 50
90.0
 51
180.0
  0
LINE
  5
1CA
  8
┌▓È_1
 62
     5
 10
686.24062500000002
 20
157.6549479167
 30
0.0
 11
686.24062500000002
 21
-82.445052083299998
 31
0.0
  0
ARC
  5
1CB
  8
┌▓È_1
 62
     5
 10
710.44062499999995
 20
-82.845052083300004
 30
0.0
 40
0.4
 50
0.0
 51
90.0
  0
LINE
  5
1CC
  8
┌▓È_1
  6
DOT
 62
     6
 10
-7.8546874999999989
 20
-78.295052083299964
 30
0.0
 11
4.1453125000000002
 21
-78.295052083299964
 31
0.0
  0
INSERT
  5
1CE
  8
┌▓È_1
  6
STITCH
  2
CLUMP2
 10
0.0
 20
0.0
 30
0.0
  0
INSERT
  5
1E2
  8
┌▓È_1
 62
     6
  2
*X29
 10
0.0
 20
0.0
 30
0.0
  0
LINE
  5
20A
  8
┌▓È_1
 62
     5
 10
591.14531250000005
 20
-163.08632812499999
 30
0.0
 11
591.14531250000005
 21
-188.08632812499999
 31
0.0
  0
LINE
  5
20B
  8
┌▓È_1
 62
     5
 10
591.14531250000005
 20
-188.08632812499999
 30
0.0
 11
-8.8546875000000007
 21
-188.08632812499999
 31
0.0
  0
LINE
  5
20C
  8
┌▓È_1
 62
     5
 10
-8.8546875000000007
 20
-187.08632812499999
 30
0.0
 11
591.14531250000005
 21
-187.08632812499999
 31
0.0
  0
LINE
  5
20D
  8
┌▓È_1
 10
785.07417330210012
 20
-302.95197480000002
 30
0.0
 11
785.07417330210012
 21
-256.43928509019997
 31
0.0
  0
LINE
  5
20E
  8
┌▓È_1
 10
494.14924624999998
 20
-302.95197480000002
 30
0.0
 11
494.14924624999998
 21
-256.43928509019997
 31
0.0
  0
LINE
  5
20F
  8
┌▓È_1
 10
494.14924624999998
 20
-256.43928509019997
 30
0.0
 11
841.98828125
 21
-256.43928509019997
 31
0.0
  0
INSERT
  5
210
  8
0
  6
CONTINUOUS
  2
*U42
 10
0.0
 20
0.0
 30
0.0
  0
INSERT
  5
211
  8
0
  6
CONTINUOUS
  2
*U43
 10
0.0
 20
0.0
 30
0.0
  0
INSERT
  5
212
  8
0
  6
CONTINUOUS
  2
*U44
 10
0.0
 20
0.0
 30
0.0
  0
INSERT
  5
213
  8
0
  6
CONTINUOUS
  2
*U45
 10
0.0
 20
0.0
 30
0.0
  0
INSERT
  5
214
  8
0
  6
CONTINUOUS
  2
*U46
 10
0.0
 20
0.0
 30
0.0
  0
INSERT
  5
215
  8
0
  6
CONTINUOUS
  2
*U47
 10
0.0
 20
0.0
 30
0.0
  0
INSERT
  5
216
  8
0
  6
CONTINUOUS
  2
*U48
 10
0.0
 20
0.0
 30
0.0
  0
INSERT
  5
217
  8
0
  6
CONTINUOUS
  2
*U49
 10
0.0
 20
0.0
 30
0.0
  0
INSERT
  5
218
  8
0
  6
CONTINUOUS
  2
*U50
 10
0.0
 20
0.0
 30
0.0
  0
INSERT
  5
21A
  8
┌▓È_1
  6
STITCH
  2
CLUMP3
 10
0.0
 20
0.0
 30
0.0
  0
LINE
  5
226
  8
┌▓È_1
  6
DASHDOT
 10
23.405208333299999
 20
-175.58632812499999
 30
0.0
 11
562.79140625000002
 21
-175.58632812499999
 31
0.0
  0
LINE
  5
227
  8
Éíû@É³
 10
293.64531249999999
 20
-173.00209960940001
 30
0.0
 11
324.94921875
 21
-135.99856770829999
 31
0.0
  0
SOLID
  5
228
  8
Éíû@É³
 10
293.64531249999999
 20
-173.00209960940001
 30
0.0
 11
295.85178039300001
 21
-168.31953421419999
 31
0.0
 12
296.009327042
 22
-170.20765961769999
 32
0.0
 13
296.009327042
 23
-170.20765961769999
 33
0.0
  0
SOLID
  5
229
  8
Éíû@É³
 10
293.64531249999999
 20
-173.00209960940001
 30
0.0
 11
297.89745244559998
 21
-170.05011296870001
 31
0.0
 12
296.009327042
 22
-170.20765961769999
 32
0.0
 13
296.009327042
 23
-170.20765961769999
 33
0.0
  0
CIRCLE
  5
22A
  8
┌▓È_1
 62
     5
 10
542.64531250000005
 20
-175.58632812499999
 30
0.0
 40
2.5
  0
LINE
  5
22B
  8
Éíû@É³
 10
718.95501822919994
 20
-45.319238281200001
 30
0.0
 11
763.17199171109985
 21
-45.319238281200001
 31
0.0
  0
LINE
  5
22C
  8
┌▓È_1
 10
705.94501439140004
 20
167.45494791670001
 30
0.0
 11
714.69018983000001
 21
167.45494791670001
 31
0.0
  0
LINE
  5
22D
  8
┌▓È_1
 10
703.28581284929965
 20
-77.04284327649998
 30
0.0
 11
703.28581284929965
 21
-91.205267518899987
 31
0.0
  0
LINE
  5
22E
  8
Éíû@É³
 10
720.72997076019999
 20
137.65906204309999
 30
0.0
 11
766.04873046880004
 21
137.65906204309999
 31
0.0
  0
LINE
  5
22F
  8
┌▓È_1
 62
     5
 10
709.84062500000005
 20
-99.345052083300004
 30
0.0
 11
709.84062500000005
 21
-93.845052083300004
 31
0.0
  0
LINE
  5
230
  8
┌▓È_1
 62
     5
 10
710.34062500000005
 20
-82.845052083300004
 30
0.0
 11
710.34062500000005
 21
-99.345052083300004
 31
0.0
  0
LINE
  5
231
  8
┌▓È_1
 62
     5
 10
709.84062500000005
 20
-93.845052083300004
 30
0.0
 11
710.34062500000005
 21
-93.845052083300004
 31
0.0
  0
ARC
  5
232
  8
┌▓È_1
 62
     5
 10
710.34062500000005
 20
-99.345052083300004
 30
0.0
 40
0.5
 50
180.0
 51
0.0
  0
LINE
  5
233
  8
┌▓È_1
 62
     5
 10
710.84062500000005
 20
170.75494791669999
 30
0.0
 11
710.84062500000005
 21
-99.345052083300004
 31
0.0
  0
INSERT
  5
234
  8
0
  6
CONTINUOUS
  2
*U51
 10
0.0
 20
0.0
 30
0.0
  0
LINE
  5
235
  8
┌▓È_1
 10
636.85307469069994
 20
-367.91631080590003
 30
0.0
 11
644.41586828720006
 21
-367.91631080590003
 31
0.0
  0
LINE
  5
236
  8
┌▓È_1
 10
650.41634116190005
 20
-366.06116928590001
 30
0.0
 11
657.72341679069996
 21
-366.06116928590001
 31
0.0
  0
LINE
  5
237
  8
┌▓È_1
 10
636.85307469069994
 20
-366.06116928590001
 30
0.0
 11
643.87169344139977
 21
-366.06116928590001
 31
0.0
  0
LINE
  5
238
  8
┌▓È_1
 10
595.39509386309999
 20
-357.94492513590001
 30
0.0
 11
595.39509386309999
 21
-362.58277893590002
 31
0.0
  0
LINE
  5
239
  8
┌▓È_1
 10
604.67080146310002
 20
-357.94492513590001
 30
0.0
 11
595.39509386309999
 21
-357.94492513590001
 31
0.0
  0
LINE
  5
23A
  8
┌▓È_1
 10
604.67080146310002
 20
-362.58277893590002
 30
0.0
 11
604.67080146310002
 21
-366.06116928590001
 31
0.0
  0
LINE
  5
23B
  8
┌▓È_1
 10
601.19241111309998
 20
-366.06116928590001
 30
0.0
 11
604.67080146310002
 21
-366.06116928590001
 31
0.0
  0
LINE
  5
23C
  8
┌▓È_1
 10
584.95992281309975
 20
-370.69902308590002
 30
0.0
 11
584.95992281309975
 21
-374.17741343589989
 31
0.0
  0
LINE
  5
23D
  8
┌▓È_1
 10
610.84055242730005
 20
-370.69902308590002
 30
0.0
 11
613.6232647073
 21
-370.69902308590002
 31
0.0
  0
LINE
  5
23E
  8
┌▓È_1
 10
629.39196762730001
 20
-361.42331548589999
 30
0.0
 11
631.71089452729996
 21
-357.94492513590001
 31
0.0
  0
LINE
  5
23F
  8
┌▓È_1
 10
610.84055242730005
 20
-374.17741343589989
 30
0.0
 11
610.84055242730005
 21
-370.69902308590002
 31
0.0
  0
LINE
  5
240
  8
┌▓È_1
 10
610.84055242730005
 20
-357.94492513590001
 30
0.0
 11
610.84055242730005
 21
-362.11899355589998
 31
0.0
  0
LINE
  5
241
  8
┌▓È_1
 10
631.71089452729996
 20
-357.94492513590001
 30
0.0
 11
610.84055242730005
 21
-357.94492513590001
 31
0.0
  0
LINE
  5
242
  8
┌▓È_1
 10
594.23563041310001
 20
-357.94492513590001
 30
0.0
 11
584.95992281309975
 21
-357.94492513590001
 31
0.0
  0
LINE
  5
243
  8
┌▓È_1
 10
841.98828125
 20
-302.95197480000002
 30
0.0
 11
841.98828125
 21
260.6910807292
 31
0.0
  0
LINE
  5
244
  8
┌▓È_1
 10
-57.388346354200003
 20
-379.4765625
 30
0.0
 11
-57.388346354200003
 21
260.6910807292
 31
0.0
  0
LINE
  5
245
  8
┌▓È_1
 10
841.98828125
 20
260.6910807292
 30
0.0
 11
-57.388346354200003
 21
260.6910807292
 31
0.0
  0
LINE
  5
246
  8
┌▓È_1
 10
494.14924624999998
 20
-379.4765625
 30
0.0
 11
-57.388346354200003
 21
-379.4765625
 31
0.0
  0
INSERT
  5
247
  8
0
  6
CONTINUOUS
  2
*U52
 10
0.0
 20
0.0
 30
0.0
  0
LINE
  5
248
  8
┌▓È_1
 10
494.14924624999998
 20
-285.77231719679997
 30
0.0
 11
841.98828125
 21
-285.77231719679997
 31
0.0
  0
LINE
  5
249
  8
┌▓È_1
 10
757.00167399279985
 20
-302.95197480000002
 30
0.0
 11
757.00167399279985
 21
-256.43928509019997
 31
0.0
  0
LINE
  5
24A
  8
┌▓È_1
 10
639.02788592059994
 20
-302.95197480000002
 30
0.0
 11
639.02788592059994
 21
-256.43928509019997
 31
0.0
  0
LINE
  5
24B
  8
┌▓È_1
 10
519.50415544559996
 20
-302.95197480000002
 30
0.0
 11
519.50415544559996
 21
-256.43928509019997
 31
0.0
  0
LINE
  5
24C
  8
┌▓È_1
 10
494.14924624999998
 20
-271.67231091679997
 30
0.0
 11
841.98828125
 21
-271.67231091679997
 31
0.0
  0
INSERT
  5
24D
  8
0
  6
CONTINUOUS
  2
*U53
 10
0.0
 20
0.0
 30
0.0
  0
INSERT
  5
24E
  8
0
  6
CONTINUOUS
  2
*U54
 10
0.0
 20
0.0
 30
0.0
  0
INSERT
  5
24F
  8
0
  6
CONTINUOUS
  2
*U55
 10
0.0
 20
0.0
 30
0.0
  0
LINE
  5
250
  8
┌▓È_1
 10
601.19241111309998
 20
-361.42331548589999
 30
0.0
 11
604.67080146310002
 21
-357.94492513590001
 31
0.0
  0
LINE
  5
251
  8
┌▓È_1
 10
601.19241111309998
 20
-362.58277893590002
 30
0.0
 11
601.19241111309998
 21
-361.42331548589999
 31
0.0
  0
LINE
  5
252
  8
┌▓È_1
 10
604.67080146310002
 20
-362.58277893590002
 30
0.0
 11
601.19241111309998
 21
-362.58277893590002
 31
0.0
  0
LINE
  5
253
  8
┌▓È_1
 10
590.75724006309974
 20
-366.06116928590001
 30
0.0
 11
595.39509386309999
 21
-366.06116928590001
 31
0.0
  0
LINE
  5
254
  8
┌▓È_1
 10
590.75724006309974
 20
-369.53955963589999
 30
0.0
 11
590.75724006309974
 21
-366.06116928590001
 31
0.0
  0
LINE
  5
255
  8
┌▓È_1
 10
636.85307469069994
 20
-367.91631080590003
 30
0.0
 11
636.85307469069994
 21
-372.09037922589999
 31
0.0
  0
LINE
  5
256
  8
┌▓È_1
 10
657.72341679069996
 20
-361.88710086589998
 30
0.0
 11
657.72341679069996
 21
-366.06116928590001
 31
0.0
  0
LINE
  5
257
  8
┌▓È_1
 10
641.49092849069984
 20
-357.94492513590001
 30
0.0
 11
650.76663609069976
 21
-357.94492513590001
 31
0.0
  0
ARC
  5
258
  8
┌▓È_1
 10
613.6232647073
 20
-361.88710086589998
 30
0.0
 40
8.8119222199999978
 50
270.0
 51
298.08590481520002
  0
LINE
  5
259
  8
┌▓È_1
 10
610.84055242730005
 20
-374.17741343589989
 30
0.0
 11
616.63786967730005
 21
-374.17741343589989
 31
0.0
  0
LINE
  5
25A
  8
┌▓È_1
 10
648.87571377400002
 20
-360.70739575699997
 30
0.0
 11
650.76663609069976
 21
-357.94492513590001
 31
0.0
  0
LINE
  5
25B
  8
┌▓È_1
 10
653.08556299069994
 20
-375.33687688589998
 30
0.0
 11
646.59256767069996
 21
-375.33687688589998
 31
0.0
  0
LINE
  5
25C
  8
┌▓È_1
 10
584.95992281309975
 20
-366.06116928590001
 30
0.0
 11
584.60952411980008
 21
-366.06116928590001
 31
0.0
  0
LINE
  5
25D
  8
┌▓È_1
 10
631.71089452729996
 20
-370.69902308590002
 30
0.0
 11
631.71089452729996
 21
-374.17741343589989
 31
0.0
  0
INSERT
  5
25E
  8
0
  6
CONTINUOUS
  2
*U56
 10
0.0
 20
0.0
 30
0.0
  0
INSERT
  5
25F
  8
0
  6
CONTINUOUS
  2
*U57
 10
0.0
 20
0.0
 30
0.0
  0
INSERT
  5
260
  8
0
  6
CONTINUOUS
  2
*U58
 10
0.0
 20
0.0
 30
0.0
  0
INSERT
  5
261
  8
0
  6
CONTINUOUS
  2
*U59
 10
0.0
 20
0.0
 30
0.0
  0
INSERT
  5
262
  8
0
  6
CONTINUOUS
  2
*U60
 10
0.0
 20
0.0
 30
0.0
  0
INSERT
  5
263
  8
0
  6
CONTINUOUS
  2
*U61
 10
0.0
 20
0.0
 30
0.0
  0
INSERT
  5
264
  8
0
  6
CONTINUOUS
  2
*U62
 10
0.0
 20
0.0
 30
0.0
  0
INSERT
  5
265
  8
0
  6
CONTINUOUS
  2
*U63
 10
0.0
 20
0.0
 30
0.0
  0
LINE
  5
266
  8
┌▓È_1
 10
652.15133535059999
 20
-372.09037922589999
 30
0.0
 11
657.72341679069996
 21
-372.09037922589999
 31
0.0
  0
LINE
  5
267
  8
┌▓È_1
 10
636.85307469069994
 20
-372.09037922589999
 30
0.0
 11
645.64026169040005
 21
-372.09037922589999
 31
0.0
  0
LINE
  5
268
  8
┌▓È_1
 10
650.95018552759996
 20
-367.91631080590003
 30
0.0
 11
657.72341679069996
 21
-367.91631080590003
 31
0.0
  0
LINE
  5
269
  8
┌▓È_1
 62
     5
 10
501.4505594899
 20
-341.21426865000001
 30
0.0
 11
626.19976001429995
 21
-341.21426865000001
 31
0.0
  0
LINE
  5
26A
  8
┌▓È_1
 10
591.91670351309995
 20
-370.69902308590002
 30
0.0
 11
584.95992281309975
 21
-370.69902308590002
 31
0.0
  0
LINE
  5
26B
  8
┌▓È_1
 10
626.75469694000003
 20
-369.18970593799997
 30
0.0
 11
626.34169128259987
 21
-369.59407610739999
 31
0.0
  0
LINE
  5
26C
  8
┌▓È_1
 10
621.35992949110005
 20
-366.10539332079998
 30
0.0
 11
620.80200540379997
 21
-366.72162115339989
 31
0.0
  0
ARC
  5
26D
  8
┌▓È_1
 10
616.63786967730005
 20
-361.42331548589999
 30
0.0
 40
12.75409795
 50
322.48761197969998
 51
0.0
  0
LINE
  5
26E
  8
┌▓È_1
 10
644.41586828720006
 20
-367.91631080590003
 30
0.0
 11
643.87169344139977
 21
-366.06116928590001
 31
0.0
  0
LINE
  5
26F
  8
┌▓È_1
 10
646.59256767069996
 20
-375.33687688589998
 30
0.0
 11
645.64026169040005
 21
-372.09037922589999
 31
0.0
  0
LINE
  5
270
  8
┌▓È_1
 10
650.95018552759996
 20
-367.91631080590003
 30
0.0
 11
650.41634116190005
 21
-366.06116928590001
 31
0.0
  0
ARC
  5
271
  8
┌▓È_1
 10
613.6232647073
 20
-361.88710086589998
 30
0.0
 40
8.8119222199999978
 50
331.39928138329998
 51
358.49204224580001
  0
ARC
  5
272
  8
┌▓È_1
 10
594.23563041310001
 20
-367.22063273589998
 30
0.0
 40
6.9567807000000004
 50
270.0
 51
0.0
  0
LINE
  5
273
  8
┌▓È_1
 10
584.95992281309975
 20
-374.17741343589989
 30
0.0
 11
594.23563041310001
 21
-374.17741343589989
 31
0.0
  0
LINE
  5
274
  8
┌▓È_1
 62
     5
 10
547.66543566769985
 20
-316.54702822209998
 30
0.0
 11
580.38807081209995
 21
-316.54702822209998
 31
0.0
  0
LINE
  5
275
  8
┌▓È_1
 10
540.52778424999985
 20
-302.95197480000002
 30
0.0
 11
540.52778424999985
 21
-328.46017069999999
 31
0.0
  0
LINE
  5
276
  8
┌▓È_1
 10
494.14924624999998
 20
-302.95197480000002
 30
0.0
 11
494.14924624999998
 21
-379.4765625
 31
0.0
  0
LINE
  5
277
  8
┌▓È_1
 10
610.84055242730005
 20
-370.69902308590002
 30
0.0
 11
610.84055242730005
 21
-374.17741343589989
 31
0.0
  0
LINE
  5
278
  8
┌▓È_1
 10
629.39196762730001
 20
-361.42331548589999
 30
0.0
 11
631.71089452729996
 21
-357.94492513590001
 31
0.0
  0
LINE
  5
279
  8
┌▓È_1
 10
610.84055242730005
 20
-362.11899355589998
 30
0.0
 11
622.43518692730004
 21
-362.11899355589998
 31
0.0
  0
LINE
  5
27A
  8
┌▓È_1
 10
610.84055242730005
 20
-363.32972910000001
 30
0.0
 11
620.11626002730009
 21
-363.32972910000001
 31
0.0
  0
LINE
  5
27B
  8
┌▓È_1
 10
610.84055242730005
 20
-364.07667926400001
 30
0.0
 11
610.84055242730005
 21
-363.32972910000001
 31
0.0
  0
LINE
  5
27C
  8
┌▓È_1
 10
620.11626002730009
 20
-363.32972910000001
 30
0.0
 11
618.80447687849994
 21
-364.64151224879998
 31
0.0
  0
LINE
  5
27D
  8
┌▓È_1
 10
601.19241111309998
 20
-367.22063273589998
 30
0.0
 11
601.19241111309998
 21
-366.06116928590001
 31
0.0
  0
INSERT
  5
27E
  8
0
  6
CONTINUOUS
  2
*U64
 10
0.0
 20
0.0
 30
0.0
  0
LINE
  5
27F
  8
┌▓È_1
 10
633.28486024999995
 20
-302.95197480000002
 30
0.0
 11
633.28486024999995
 21
-353.96836660000002
 31
0.0
  0
LINE
  5
280
  8
┌▓È_1
 10
679.66339825
 20
-302.95197480000002
 30
0.0
 11
679.66339825
 21
-379.4765625
 31
0.0
  0
LINE
  5
281
  8
┌▓È_1
 10
649.21519133890001
 20
-361.88710086589998
 30
0.0
 11
657.72341679069996
 21
-361.88710086589998
 31
0.0
  0
LINE
  5
282
  8
┌▓È_1
 10
636.85307469069994
 20
-361.88710086589998
 30
0.0
 11
642.64730003819977
 21
-361.88710086589998
 31
0.0
  0
LINE
  5
283
  8
┌▓È_1
 10
657.72341679069996
 20
-367.91631080590003
 30
0.0
 11
657.72341679069996
 21
-372.09037922589999
 31
0.0
  0
LINE
  5
284
  8
┌▓È_1
 10
582.29059721979979
 20
-362.58277893590002
 30
0.0
 11
582.29059721979979
 21
-366.06116928590001
 31
0.0
  0
LINE
  5
285
  8
┌▓È_1
 10
595.39509386309999
 20
-366.06116928590001
 30
0.0
 11
595.39509386309999
 21
-367.22063273589998
 31
0.0
  0
LINE
  5
286
  8
┌▓È_1
 10
584.95992281309975
 20
-362.58277893590002
 30
0.0
 11
582.29059721979979
 21
-362.58277893590002
 31
0.0
  0
LINE
  5
287
  8
┌▓È_1
 10
584.95992281309975
 20
-357.94492513590001
 30
0.0
 11
584.95992281309975
 21
-362.58277893590002
 31
0.0
  0
LINE
  5
288
  8
┌▓È_1
 10
590.75724006309974
 20
-361.42331548589999
 30
0.0
 11
594.23563041310001
 21
-357.94492513590001
 31
0.0
  0
LINE
  5
289
  8
┌▓È_1
 10
590.75724006309974
 20
-362.58277893590002
 30
0.0
 11
590.75724006309974
 21
-361.42331548589999
 31
0.0
  0
LINE
  5
28A
  8
┌▓È_1
 10
595.39509386309999
 20
-362.58277893590002
 30
0.0
 11
590.75724006309974
 21
-362.58277893590002
 31
0.0
  0
LINE
  5
28B
  8
┌▓È_1
 10
636.85307469069994
 20
-361.88710086589998
 30
0.0
 11
636.85307469069994
 21
-366.06116928590001
 31
0.0
  0
LINE
  5
28C
  8
┌▓È_1
 62
     5
 10
595.65863387949969
 20
-316.54702822209998
 30
0.0
 11
626.19976001429995
 21
-316.54702822209998
 31
0.0
  0
LINE
  5
28D
  8
┌▓È_1
 62
     5
 10
639.65239890709995
 20
-316.54702822209998
 30
0.0
 11
672.73861888639999
 21
-316.54702822209998
 31
0.0
  0
LINE
  5
28E
  8
┌▓È_1
 62
     5
 10
638.26724658989986
 20
-343.21468757209999
 30
0.0
 11
670.19352504189987
 21
-343.21468757209999
 31
0.0
  0
LINE
  5
28F
  8
┌▓È_1
 62
     5
 10
501.4505594899
 20
-316.54702822209998
 30
0.0
 11
533.48562710509987
 21
-316.54702822209998
 31
0.0
  0
LINE
  5
290
  8
┌▓È_1
 10
584.95992281309975
 20
-369.53955963589999
 30
0.0
 11
590.75724006309974
 21
-369.53955963589999
 31
0.0
  0
LINE
  5
291
  8
┌▓È_1
 10
584.95992281309975
 20
-366.06116928590001
 30
0.0
 11
584.95992281309975
 21
-369.53955963589999
 31
0.0
  0
LINE
  5
292
  8
┌▓È_1
 10
582.29059721979979
 20
-366.06116928590001
 30
0.0
 11
584.60952411980008
 21
-366.06116928590001
 31
0.0
  0
ARC
  5
293
  8
┌▓È_1
 10
616.63786967730005
 20
-361.42331548589999
 30
0.0
 40
12.75409795
 50
270.0
 51
302.54495885400001
  0
ARC
  5
294
  8
┌▓È_1
 10
591.91670351309995
 20
-367.22063273589998
 30
0.0
 40
3.4783903500000002
 50
270.0
 51
0.0
  0
LINE
  5
295
  8
┌▓È_1
 10
653.08556299069994
 20
-375.33687688589998
 30
0.0
 11
652.15133535059999
 21
-372.09037922589999
 31
0.0
  0
LINE
  5
296
  8
┌▓È_1
 10
649.21519133890001
 20
-361.88710086589998
 30
0.0
 11
648.87571377400002
 21
-360.70739575699997
 31
0.0
  0
LINE
  5
297
  8
┌▓È_1
 10
642.64730003819977
 20
-361.88710086589998
 30
0.0
 11
641.49092849069984
 21
-357.94492513590001
 31
0.0
  0
INSERT
  5
298
  8
0
  6
CONTINUOUS
  2
*U65
 10
0.0
 20
0.0
 30
0.0
  0
INSERT
  5
299
  8
0
  6
CONTINUOUS
  2
*U66
 10
0.0
 20
0.0
 30
0.0
  0
INSERT
  5
29A
  8
0
  6
CONTINUOUS
  2
*U67
 10
0.0
 20
0.0
 30
0.0
  0
INSERT
  5
29B
  8
0
  6
CONTINUOUS
  2
*U68
 10
0.0
 20
0.0
 30
0.0
  0
LINE
  5
29C
  8
┌▓È_1
 62
     5
 10
167.29485677080001
 20
-368.13768402300002
 30
0.0
 11
369.23333333329998
 21
-368.13768402300002
 31
0.0
  0
LINE
  5
29D
  8
┌▓È_1
 62
     5
 10
167.29485677080001
 20
-296.20235077109999
 30
0.0
 11
369.23333333329998
 21
-296.20235077109999
 31
0.0
  0
LINE
  5
29E
  8
┌▓È_1
 62
     5
 10
167.29485677080001
 20
-296.20235077109999
 30
0.0
 11
167.29485677080001
 21
-368.13768402300002
 31
0.0
  0
LINE
  5
29F
  8
┌▓È_1
 62
     5
 10
183.5330403646
 20
-296.20235077109999
 30
0.0
 11
183.5330403646
 21
-368.13768402300002
 31
0.0
  0
LINE
  5
2A0
  8
┌▓È_1
 62
     5
 10
248.6453450521
 20
-296.20235077109999
 30
0.0
 11
248.6453450521
 21
-368.13768402300002
 31
0.0
  0
LINE
  5
2A1
  8
┌▓È_1
 62
     5
 10
311.67405598959999
 20
-296.20235077109999
 30
0.0
 11
311.67405598959999
 21
-368.13768402300002
 31
0.0
  0
LINE
  5
2A2
  8
┌▓È_1
 62
     5
 10
167.29485677080001
 20
-351.56797577110001
 30
0.0
 11
369.23333333329998
 21
-351.56797577110001
 31
0.0
  0
LINE
  5
2A3
  8
┌▓È_1
 62
     5
 10
167.29485677080001
 20
-337.24326873979999
 30
0.0
 11
369.23333333329998
 21
-337.24326873979999
 31
0.0
  0
LINE
  5
2A4
  8
┌▓È_1
 62
     5
 10
167.29485677080001
 20
-323.43946014609998
 30
0.0
 11
369.23333333329998
 21
-323.43946014609998
 31
0.0
  0
LINE
  5
2A5
  8
┌▓È_1
 62
     5
 10
167.29485677080001
 20
-309.63565155229998
 30
0.0
 11
369.23333333329998
 21
-309.63565155229998
 31
0.0
  0
LINE
  5
2A6
  8
┌▓È_1
 62
     5
 10
369.23333333329998
 20
-368.13768402300002
 30
0.0
 11
369.23333333329998
 21
-296.20235077109999
 31
0.0
  0
POLYLINE
  5
375
  8
┌▓È_1
 66
     1
 10
0.0
 20
0.0
 30
0.0
 70
     8
  0
VERTEX
  5
376
  8
┌▓È_1
 10
623.49900000000002
 20
-372.17500000000001
 30
0.0
 70
    32
  0
VERTEX
  5
377
  8
┌▓È_1
 10
623.5619999999999
 20
-372.19499999999999
 30
0.0
 70
    32
  0
VERTEX
  5
378
  8
┌▓È_1
 10
623.62400000000002
 20
-372.214
 30
0.0
 70
    32
  0
VERTEX
  5
379
  8
┌▓È_1
 10
623.68700000000001
 20
-372.23399999999998
 30
0.0
 70
    32
  0
VERTEX
  5
37A
  8
┌▓È_1
 10
623.74900000000002
 20
-372.25400000000002
 30
0.0
 70
    32
  0
VERTEX
  5
37B
  8
┌▓È_1
 10
623.81200000000001
 20
-372.27300000000002
 30
0.0
 70
    32
  0
VERTEX
  5
37C
  8
┌▓È_1
 10
623.87399999999991
 20
-372.29300000000001
 30
0.0
 70
    32
  0
VERTEX
  5
37D
  8
┌▓È_1
 10
623.93700000000001
 20
-372.31200000000001
 30
0.0
 70
    32
  0
VERTEX
  5
37E
  8
┌▓È_1
 10
624.0
 20
-372.33100000000002
 30
0.0
 70
    32
  0
VERTEX
  5
37F
  8
┌▓È_1
 10
624.06299999999999
 20
-372.35000000000002
 30
0.0
 70
    32
  0
VERTEX
  5
380
  8
┌▓È_1
 10
624.12599999999986
 20
-372.36900000000003
 30
0.0
 70
    32
  0
VERTEX
  5
381
  8
┌▓È_1
 10
624.18899999999985
 20
-372.38799999999998
 30
0.0
 70
    32
  0
VERTEX
  5
382
  8
┌▓È_1
 10
624.25199999999995
 20
-372.40699999999998
 30
0.0
 70
    32
  0
VERTEX
  5
383
  8
┌▓È_1
 10
624.31500000000005
 20
-372.42599999999999
 30
0.0
 70
    32
  0
VERTEX
  5
384
  8
┌▓È_1
 10
624.37800000000004
 20
-372.44499999999999
 30
0.0
 70
    32
  0
VERTEX
  5
385
  8
┌▓È_1
 10
624.44100000000003
 20
-372.46300000000002
 30
0.0
 70
    32
  0
VERTEX
  5
386
  8
┌▓È_1
 10
624.50400000000002
 20
-372.48200000000003
 30
0.0
 70
    32
  0
VERTEX
  5
387
  8
┌▓È_1
 10
624.56700000000001
 20
-372.5
 30
0.0
 70
    32
  0
VERTEX
  5
388
  8
┌▓È_1
 10
624.62999999999988
 20
-372.51900000000001
 30
0.0
 70
    32
  0
VERTEX
  5
389
  8
┌▓È_1
 10
624.69399999999985
 20
-372.53699999999998
 30
0.0
 70
    32
  0
VERTEX
  5
38A
  8
┌▓È_1
 10
624.75699999999995
 20
-372.55500000000001
 30
0.0
 70
    32
  0
VERTEX
  5
38B
  8
┌▓È_1
 10
624.82100000000003
 20
-372.57299999999998
 30
0.0
 70
    32
  0
VERTEX
  5
38C
  8
┌▓È_1
 10
624.88400000000001
 20
-372.59100000000001
 30
0.0
 70
    32
  0
VERTEX
  5
38D
  8
┌▓È_1
 10
624.947
 20
-372.60900000000009
 30
0.0
 70
    32
  0
VERTEX
  5
38E
  8
┌▓È_1
 10
625.01099999999985
 20
-372.6269999999999
 30
0.0
 70
    32
  0
VERTEX
  5
38F
  8
┌▓È_1
 10
625.07500000000005
 20
-372.64499999999998
 30
0.0
 70
    32
  0
VERTEX
  5
390
  8
┌▓È_1
 10
625.13800000000003
 20
-372.66199999999998
 30
0.0
 70
    32
  0
VERTEX
  5
391
  8
┌▓È_1
 10
625.20199999999988
 20
-372.68000000000001
 30
0.0
 70
    32
  0
VERTEX
  5
392
  8
┌▓È_1
 10
625.26599999999985
 20
-372.697
 30
0.0
 70
    32
  0
VERTEX
  5
393
  8
┌▓È_1
 10
625.32899999999995
 20
-372.71499999999997
 30
0.0
 70
    32
  0
VERTEX
  5
394
  8
┌▓È_1
 10
625.39300000000003
 20
-372.73200000000003
 30
0.0
 70
    32
  0
VERTEX
  5
395
  8
┌▓È_1
 10
625.45699999999999
 20
-372.75
 30
0.0
 70
    32
  0
VERTEX
  5
396
  8
┌▓È_1
 10
625.52099999999984
 20
-372.767
 30
0.0
 70
    32
  0
VERTEX
  5
397
  8
┌▓È_1
 10
625.58500000000004
 20
-372.78399999999999
 30
0.0
 70
    32
  0
VERTEX
  5
398
  8
┌▓È_1
 10
625.649
 20
-372.80099999999999
 30
0.0
 70
    32
  0
VERTEX
  5
399
  8
┌▓È_1
 10
625.71299999999997
 20
-372.81799999999998
 30
0.0
 70
    32
  0
VERTEX
  5
39A
  8
┌▓È_1
 10
625.77699999999993
 20
-372.83499999999998
 30
0.0
 70
    32
  0
VERTEX
  5
39B
  8
┌▓È_1
 10
625.84100000000001
 20
-372.85199999999998
 30
0.0
 70
    32
  0
VERTEX
  5
39C
  8
┌▓È_1
 10
625.90499999999997
 20
-372.86900000000003
 30
0.0
 70
    32
  0
VERTEX
  5
39D
  8
┌▓È_1
 10
625.96900000000005
 20
-372.88499999999999
 30
0.0
 70
    32
  0
VERTEX
  5
39E
  8
┌▓È_1
 10
626.03300000000002
 20
-372.90199999999999
 30
0.0
 70
    32
  0
VERTEX
  5
39F
  8
┌▓È_1
 10
626.09699999999998
 20
-372.91899999999998
 30
0.0
 70
    32
  0
VERTEX
  5
3A0
  8
┌▓È_1
 10
626.16199999999992
 20
-372.935
 30
0.0
 70
    32
  0
VERTEX
  5
3A1
  8
┌▓È_1
 10
626.226
 20
-372.952
 30
0.0
 70
    32
  0
VERTEX
  5
3A2
  8
┌▓È_1
 10
626.28999999999996
 20
-372.96800000000002
 30
0.0
 70
    32
  0
VERTEX
  5
3A3
  8
┌▓È_1
 10
626.35500000000002
 20
-372.98399999999998
 30
0.0
 70
    32
  0
VERTEX
  5
3A4
  8
┌▓È_1
 10
626.41899999999998
 20
-373.00099999999998
 30
0.0
 70
    32
  0
VERTEX
  5
3A5
  8
┌▓È_1
 10
626.48299999999995
 20
-373.017
 30
0.0
 70
    32
  0
VERTEX
  5
3A6
  8
┌▓È_1
 10
626.548
 20
-373.03300000000002
 30
0.0
 70
    32
  0
VERTEX
  5
3A7
  8
┌▓È_1
 10
626.61199999999985
 20
-373.04899999999998
 30
0.0
 70
    32
  0
VERTEX
  5
3A8
  8
┌▓È_1
 10
626.67700000000002
 20
-373.065
 30
0.0
 70
    32
  0
VERTEX
  5
3A9
  8
┌▓È_1
 10
626.74199999999985
 20
-373.0809999999999
 30
0.0
 70
    32
  0
VERTEX
  5
3AA
  8
┌▓È_1
 10
626.80600000000004
 20
-373.09699999999998
 30
0.0
 70
    32
  0
VERTEX
  5
3AB
  8
┌▓È_1
 10
626.87099999999987
 20
-373.11300000000011
 30
0.0
 70
    32
  0
VERTEX
  5
3AC
  8
┌▓È_1
 10
626.93499999999995
 20
-373.12799999999999
 30
0.0
 70
    32
  0
VERTEX
  5
3AD
  8
┌▓È_1
 10
627.0
 20
-373.14400000000001
 30
0.0
 70
    32
  0
VERTEX
  5
3AE
  8
┌▓È_1
 10
627.06500000000005
 20
-373.16000000000003
 30
0.0
 70
    32
  0
VERTEX
  5
3AF
  8
┌▓È_1
 10
627.13
 20
-373.17500000000001
 30
0.0
 70
    32
  0
VERTEX
  5
3B0
  8
┌▓È_1
 10
627.19399999999985
 20
-373.19099999999997
 30
0.0
 70
    32
  0
VERTEX
  5
3B1
  8
┌▓È_1
 10
627.25900000000001
 20
-373.20699999999999
 30
0.0
 70
    32
  0
VERTEX
  5
3B2
  8
┌▓È_1
 10
627.32400000000007
 20
-373.22199999999998
 30
0.0
 70
    32
  0
VERTEX
  5
3B3
  8
┌▓È_1
 10
627.38900000000001
 20
-373.23699999999991
 30
0.0
 70
    32
  0
VERTEX
  5
3B4
  8
┌▓È_1
 10
627.45399999999995
 20
-373.2530000000001
 30
0.0
 70
    32
  0
VERTEX
  5
3B5
  8
┌▓È_1
 10
627.51900000000001
 20
-373.26799999999997
 30
0.0
 70
    32
  0
VERTEX
  5
3B6
  8
┌▓È_1
 10
627.58399999999995
 20
-373.28300000000002
 30
0.0
 70
    32
  0
VERTEX
  5
3B7
  8
┌▓È_1
 10
627.64899999999989
 20
-373.298
 30
0.0
 70
    32
  0
VERTEX
  5
3B8
  8
┌▓È_1
 10
627.71400000000006
 20
-373.31400000000002
 30
0.0
 70
    32
  0
VERTEX
  5
3B9
  8
┌▓È_1
 10
627.779
 20
-373.32900000000001
 30
0.0
 70
    32
  0
VERTEX
  5
3BA
  8
┌▓È_1
 10
627.84400000000005
 20
-373.34399999999999
 30
0.0
 70
    32
  0
VERTEX
  5
3BB
  8
┌▓È_1
 10
627.90899999999999
 20
-373.35899999999998
 30
0.0
 70
    32
  0
VERTEX
  5
3BC
  8
┌▓È_1
 10
627.97400000000005
 20
-373.37400000000002
 30
0.0
 70
    32
  0
VERTEX
  5
3BD
  8
┌▓È_1
 10
628.03899999999987
 20
-373.38900000000001
 30
0.0
 70
    32
  0
VERTEX
  5
3BE
  8
┌▓È_1
 10
628.10400000000004
 20
-373.404
 30
0.0
 70
    32
  0
VERTEX
  5
3BF
  8
┌▓È_1
 10
628.16899999999998
 20
-373.41800000000001
 30
0.0
 70
    32
  0
VERTEX
  5
3C0
  8
┌▓È_1
 10
628.23400000000004
 20
-373.43299999999999
 30
0.0
 70
    32
  0
VERTEX
  5
3C1
  8
┌▓È_1
 10
628.29999999999995
 20
-373.44799999999998
 30
0.0
 70
    32
  0
VERTEX
  5
3C2
  8
┌▓È_1
 10
628.36500000000001
 20
-373.46300000000002
 30
0.0
 70
    32
  0
VERTEX
  5
3C3
  8
┌▓È_1
 10
628.42999999999995
 20
-373.47699999999998
 30
0.0
 70
    32
  0
VERTEX
  5
3C4
  8
┌▓È_1
 10
628.495
 20
-373.49200000000002
 30
0.0
 70
    32
  0
VERTEX
  5
3C5
  8
┌▓È_1
 10
628.56100000000004
 20
-373.50699999999989
 30
0.0
 70
    32
  0
VERTEX
  5
3C6
  8
┌▓È_1
 10
628.62599999999986
 20
-373.5209999999999
 30
0.0
 70
    32
  0
VERTEX
  5
3C7
  8
┌▓È_1
 10
628.69100000000003
 20
-373.536
 30
0.0
 70
    32
  0
VERTEX
  5
3C8
  8
┌▓È_1
 10
628.75699999999995
 20
-373.55000000000001
 30
0.0
 70
    32
  0
VERTEX
  5
3C9
  8
┌▓È_1
 10
628.82199999999989
 20
-373.565
 30
0.0
 70
    32
  0
VERTEX
  5
3CA
  8
┌▓È_1
 10
628.88699999999994
 20
-373.57900000000001
 30
0.0
 70
    32
  0
VERTEX
  5
3CB
  8
┌▓È_1
 10
628.95299999999997
 20
-373.59300000000002
 30
0.0
 70
    32
  0
VERTEX
  5
3CC
  8
┌▓È_1
 10
629.01800000000003
 20
-373.608
 30
0.0
 70
    32
  0
VERTEX
  5
3CD
  8
┌▓È_1
 10
629.08400000000006
 20
-373.6219999999999
 30
0.0
 70
    32
  0
VERTEX
  5
3CE
  8
┌▓È_1
 10
629.149
 20
-373.63600000000002
 30
0.0
 70
    32
  0
VERTEX
  5
3CF
  8
┌▓È_1
 10
629.21500000000003
 20
-373.65100000000001
 30
0.0
 70
    32
  0
VERTEX
  5
3D0
  8
┌▓È_1
 10
629.27999999999986
 20
-373.66500000000002
 30
0.0
 70
    32
  0
VERTEX
  5
3D1
  8
┌▓È_1
 10
629.346
 20
-373.67899999999997
 30
0.0
 70
    32
  0
VERTEX
  5
3D2
  8
┌▓È_1
 10
629.41099999999994
 20
-373.69299999999998
 30
0.0
 70
    32
  0
VERTEX
  5
3D3
  8
┌▓È_1
 10
629.47699999999986
 20
-373.70699999999999
 30
0.0
 70
    32
  0
VERTEX
  5
3D4
  8
┌▓È_1
 10
629.54199999999992
 20
-373.721
 30
0.0
 70
    32
  0
VERTEX
  5
3D5
  8
┌▓È_1
 10
629.60799999999995
 20
-373.73500000000001
 30
0.0
 70
    32
  0
VERTEX
  5
3D6
  8
┌▓È_1
 10
629.673
 20
-373.75
 30
0.0
 70
    32
  0
VERTEX
  5
3D7
  8
┌▓È_1
 10
629.73900000000003
 20
-373.76400000000001
 30
0.0
 70
    32
  0
VERTEX
  5
3D8
  8
┌▓È_1
 10
629.80499999999995
 20
-373.77800000000002
 30
0.0
 70
    32
  0
VERTEX
  5
3D9
  8
┌▓È_1
 10
629.87
 20
-373.79199999999997
 30
0.0
 70
    32
  0
VERTEX
  5
3DA
  8
┌▓È_1
 10
629.93600000000004
 20
-373.80599999999998
 30
0.0
 70
    32
  0
VERTEX
  5
3DB
  8
┌▓È_1
 10
630.00199999999995
 20
-373.81999999999999
 30
0.0
 70
    32
  0
VERTEX
  5
3DC
  8
┌▓È_1
 10
630.06700000000001
 20
-373.83300000000003
 30
0.0
 70
    32
  0
VERTEX
  5
3DD
  8
┌▓È_1
 10
630.13300000000004
 20
-373.84699999999998
 30
0.0
 70
    32
  0
VERTEX
  5
3DE
  8
┌▓È_1
 10
630.19899999999996
 20
-373.86099999999999
 30
0.0
 70
    32
  0
VERTEX
  5
3DF
  8
┌▓È_1
 10
630.26400000000001
 20
-373.875
 30
0.0
 70
    32
  0
VERTEX
  5
3E0
  8
┌▓È_1
 10
630.33000000000004
 20
-373.88900000000001
 30
0.0
 70
    32
  0
VERTEX
  5
3E1
  8
┌▓È_1
 10
630.39599999999996
 20
-373.90300000000002
 30
0.0
 70
    32
  0
VERTEX
  5
3E2
  8
┌▓È_1
 10
630.46100000000001
 20
-373.91699999999997
 30
0.0
 70
    32
  0
VERTEX
  5
3E3
  8
┌▓È_1
 10
630.52699999999993
 20
-373.93000000000001
 30
0.0
 70
    32
  0
VERTEX
  5
3E4
  8
┌▓È_1
 10
630.59299999999996
 20
-373.94400000000002
 30
0.0
 70
    32
  0
VERTEX
  5
3E5
  8
┌▓È_1
 10
630.65899999999988
 20
-373.95800000000003
 30
0.0
 70
    32
  0
VERTEX
  5
3E6
  8
┌▓È_1
 10
630.72400000000005
 20
-373.97199999999998
 30
0.0
 70
    32
  0
VERTEX
  5
3E7
  8
┌▓È_1
 10
630.78999999999996
 20
-373.98599999999999
 30
0.0
 70
    32
  0
VERTEX
  5
3E8
  8
┌▓È_1
 10
630.85599999999988
 20
-373.99900000000002
 30
0.0
 70
    32
  0
VERTEX
  5
3E9
  8
┌▓È_1
 10
630.92200000000003
 20
-374.01300000000009
 30
0.0
 70
    32
  0
VERTEX
  5
3EA
  8
┌▓È_1
 10
630.98699999999997
 20
-374.02699999999999
 30
0.0
 70
    32
  0
VERTEX
  5
3EB
  8
┌▓È_1
 10
631.05299999999988
 20
-374.041
 30
0.0
 70
    32
  0
VERTEX
  5
3EC
  8
┌▓È_1
 10
631.11900000000003
 20
-374.05399999999997
 30
0.0
 70
    32
  0
VERTEX
  5
3ED
  8
┌▓È_1
 10
631.18499999999995
 20
-374.0680000000001
 30
0.0
 70
    32
  0
VERTEX
  5
3EE
  8
┌▓È_1
 10
631.25
 20
-374.08199999999999
 30
0.0
 70
    32
  0
VERTEX
  5
3EF
  8
┌▓È_1
 10
631.31600000000003
 20
-374.09500000000003
 30
0.0
 70
    32
  0
VERTEX
  5
3F0
  8
┌▓È_1
 10
631.38199999999995
 20
-374.10899999999998
 30
0.0
 70
    32
  0
VERTEX
  5
3F1
  8
┌▓È_1
 10
631.44799999999987
 20
-374.1230000000001
 30
0.0
 70
    32
  0
VERTEX
  5
3F2
  8
┌▓È_1
 10
631.51400000000001
 20
-374.13600000000002
 30
0.0
 70
    32
  0
VERTEX
  5
3F3
  8
┌▓È_1
 10
631.57899999999995
 20
-374.14999999999998
 30
0.0
 70
    32
  0
VERTEX
  5
3F4
  8
┌▓È_1
 10
631.64499999999987
 20
-374.16399999999999
 30
0.0
 70
    32
  0
VERTEX
  5
3F5
  8
┌▓È_1
 10
631.71100000000001
 20
-374.17700000000002
 30
0.0
 70
    32
  0
SEQEND
  5
3F6
  8
┌▓È_1
  0
POLYLINE
  5
3F7
  8
┌▓È_1
 66
     1
 10
0.0
 20
0.0
 30
0.0
 70
     8
  0
VERTEX
  5
3F8
  8
┌▓È_1
 10
610.84100000000001
 20
-364.077
 30
0.0
 70
    32
  0
VERTEX
  5
3F9
  8
┌▓È_1
 10
610.88199999999995
 20
-364.11500000000001
 30
0.0
 70
    32
  0
VERTEX
  5
3FA
  8
┌▓È_1
 10
610.92399999999986
 20
-364.154
 30
0.0
 70
    32
  0
VERTEX
  5
3FB
  8
┌▓È_1
 10
610.96599999999989
 20
-364.19199999999989
 30
0.0
 70
    32
  0
VERTEX
  5
3FC
  8
┌▓È_1
 10
611.00800000000004
 20
-364.23099999999999
 30
0.0
 70
    32
  0
VERTEX
  5
3FD
  8
┌▓È_1
 10
611.04899999999986
 20
-364.26900000000001
 30
0.0
 70
    32
  0
VERTEX
  5
3FE
  8
┌▓È_1
 10
611.09100000000001
 20
-364.30800000000011
 30
0.0
 70
    32
  0
VERTEX
  5
3FF
  8
┌▓È_1
 10
611.13300000000004
 20
-364.346
 30
0.0
 70
    32
  0
VERTEX
  5
400
  8
┌▓È_1
 10
611.17499999999995
 20
-364.38499999999999
 30
0.0
 70
    32
  0
VERTEX
  5
401
  8
┌▓È_1
 10
611.21699999999987
 20
-364.423
 30
0.0
 70
    32
  0
VERTEX
  5
402
  8
┌▓È_1
 10
611.25800000000004
 20
-364.46199999999999
 30
0.0
 70
    32
  0
VERTEX
  5
403
  8
┌▓È_1
 10
611.29999999999995
 20
-364.5
 30
0.0
 70
    32
  0
VERTEX
  5
404
  8
┌▓È_1
 10
611.34199999999987
 20
-364.53800000000001
 30
0.0
 70
    32
  0
VERTEX
  5
405
  8
┌▓È_1
 10
611.38400000000001
 20
-364.577
 30
0.0
 70
    32
  0
VERTEX
  5
406
  8
┌▓È_1
 10
611.42499999999995
 20
-364.61500000000001
 30
0.0
 70
    32
  0
VERTEX
  5
407
  8
┌▓È_1
 10
611.46699999999998
 20
-364.654
 30
0.0
 70
    32
  0
VERTEX
  5
408
  8
┌▓È_1
 10
611.50900000000001
 20
-364.69200000000001
 30
0.0
 70
    32
  0
VERTEX
  5
409
  8
┌▓È_1
 10
611.55099999999993
 20
-364.73099999999999
 30
0.0
 70
    32
  0
VERTEX
  5
40A
  8
┌▓È_1
 10
611.59299999999996
 20
-364.76900000000001
 30
0.0
 70
    32
  0
VERTEX
  5
40B
  8
┌▓È_1
 10
611.63499999999988
 20
-364.80700000000002
 30
0.0
 70
    32
  0
VERTEX
  5
40C
  8
┌▓È_1
 10
611.67599999999993
 20
-364.846
 30
0.0
 70
    32
  0
VERTEX
  5
40D
  8
┌▓È_1
 10
611.71800000000007
 20
-364.88400000000001
 30
0.0
 70
    32
  0
VERTEX
  5
40E
  8
┌▓È_1
 10
611.75999999999999
 20
-364.92200000000003
 30
0.0
 70
    32
  0
VERTEX
  5
40F
  8
┌▓È_1
 10
611.80200000000002
 20
-364.96100000000001
 30
0.0
 70
    32
  0
VERTEX
  5
410
  8
┌▓È_1
 10
611.84400000000005
 20
-364.99900000000002
 30
0.0
 70
    32
  0
VERTEX
  5
411
  8
┌▓È_1
 10
611.88599999999985
 20
-365.03699999999998
 30
0.0
 70
    32
  0
VERTEX
  5
412
  8
┌▓È_1
 10
611.92799999999988
 20
-365.07499999999999
 30
0.0
 70
    32
  0
VERTEX
  5
413
  8
┌▓È_1
 10
611.97000000000003
 20
-365.11399999999998
 30
0.0
 70
    32
  0
VERTEX
  5
414
  8
┌▓È_1
 10
612.01199999999994
 20
-365.15199999999999
 30
0.0
 70
    32
  0
VERTEX
  5
415
  8
┌▓È_1
 10
612.05399999999997
 20
-365.19
 30
0.0
 70
    32
  0
VERTEX
  5
416
  8
┌▓È_1
 10
612.096
 20
-365.22800000000001
 30
0.0
 70
    32
  0
VERTEX
  5
417
  8
┌▓È_1
 10
612.13699999999994
 20
-365.26600000000002
 30
0.0
 70
    32
  0
VERTEX
  5
418
  8
┌▓È_1
 10
612.17899999999986
 20
-365.30399999999997
 30
0.0
 70
    32
  0
VERTEX
  5
419
  8
┌▓È_1
 10
612.22099999999989
 20
-365.34199999999998
 30
0.0
 70
    32
  0
VERTEX
  5
41A
  8
┌▓È_1
 10
612.26300000000003
 20
-365.38
 30
0.0
 70
    32
  0
VERTEX
  5
41B
  8
┌▓È_1
 10
612.30499999999995
 20
-365.41800000000001
 30
0.0
 70
    32
  0
VERTEX
  5
41C
  8
┌▓È_1
 10
612.34799999999996
 20
-365.45600000000002
 30
0.0
 70
    32
  0
VERTEX
  5
41D
  8
┌▓È_1
 10
612.38999999999987
 20
-365.49400000000003
 30
0.0
 70
    32
  0
VERTEX
  5
41E
  8
┌▓È_1
 10
612.4319999999999
 20
-365.53199999999998
 30
0.0
 70
    32
  0
VERTEX
  5
41F
  8
┌▓È_1
 10
612.47400000000005
 20
-365.56999999999999
 30
0.0
 70
    32
  0
VERTEX
  5
420
  8
┌▓È_1
 10
612.51599999999996
 20
-365.608
 30
0.0
 70
    32
  0
VERTEX
  5
421
  8
┌▓È_1
 10
612.55799999999999
 20
-365.64600000000002
 30
0.0
 70
    32
  0
VERTEX
  5
422
  8
┌▓È_1
 10
612.60000000000002
 20
-365.68400000000003
 30
0.0
 70
    32
  0
VERTEX
  5
423
  8
┌▓È_1
 10
612.64199999999994
 20
-365.72199999999998
 30
0.0
 70
    32
  0
VERTEX
  5
424
  8
┌▓È_1
 10
612.68399999999986
 20
-365.75900000000001
 30
0.0
 70
    32
  0
VERTEX
  5
425
  8
┌▓È_1
 10
612.72699999999998
 20
-365.79700000000003
 30
0.0
 70
    32
  0
VERTEX
  5
426
  8
┌▓È_1
 10
612.76900000000001
 20
-365.83499999999998
 30
0.0
 70
    32
  0
VERTEX
  5
427
  8
┌▓È_1
 10
612.81100000000004
 20
-365.87200000000001
 30
0.0
 70
    32
  0
VERTEX
  5
428
  8
┌▓È_1
 10
612.85299999999995
 20
-365.91000000000003
 30
0.0
 70
    32
  0
VERTEX
  5
429
  8
┌▓È_1
 10
612.89599999999984
 20
-365.94699999999989
 30
0.0
 70
    32
  0
VERTEX
  5
42A
  8
┌▓È_1
 10
612.93799999999999
 20
-365.98500000000001
 30
0.0
 70
    32
  0
VERTEX
  5
42B
  8
┌▓È_1
 10
612.98000000000002
 20
-366.02199999999999
 30
0.0
 70
    32
  0
VERTEX
  5
42C
  8
┌▓È_1
 10
613.02300000000002
 20
-366.06
 30
0.0
 70
    32
  0
VERTEX
  5
42D
  8
┌▓È_1
 10
613.06500000000005
 20
-366.09699999999998
 30
0.0
 70
    32
  0
VERTEX
  5
42E
  8
┌▓È_1
 10
613.10699999999997
 20
-366.13499999999999
 30
0.0
 70
    32
  0
VERTEX
  5
42F
  8
┌▓È_1
 10
613.14999999999986
 20
-366.17200000000003
 30
0.0
 70
    32
  0
VERTEX
  5
430
  8
┌▓È_1
 10
613.19200000000001
 20
-366.209
 30
0.0
 70
    32
  0
VERTEX
  5
431
  8
┌▓È_1
 10
613.23500000000001
 20
-366.24599999999998
 30
0.0
 70
    32
  0
VERTEX
  5
432
  8
┌▓È_1
 10
613.27699999999993
 20
-366.28399999999999
 30
0.0
 70
    32
  0
VERTEX
  5
433
  8
┌▓È_1
 10
613.32000000000005
 20
-366.32100000000003
 30
0.0
 70
    32
  0
VERTEX
  5
434
  8
┌▓È_1
 10
613.36199999999985
 20
-366.358
 30
0.0
 70
    32
  0
VERTEX
  5
435
  8
┌▓È_1
 10
613.40499999999997
 20
-366.39499999999998
 30
0.0
 70
    32
  0
VERTEX
  5
436
  8
┌▓È_1
 10
613.447
 20
-366.43200000000002
 30
0.0
 70
    32
  0
VERTEX
  5
437
  8
┌▓È_1
 10
613.49000000000001
 20
-366.46899999999999
 30
0.0
 70
    32
  0
VERTEX
  5
438
  8
┌▓È_1
 10
613.53300000000002
 20
-366.50599999999997
 30
0.0
 70
    32
  0
VERTEX
  5
439
  8
┌▓È_1
 10
613.57500000000005
 20
-366.54300000000001
 30
0.0
 70
    32
  0
VERTEX
  5
43A
  8
┌▓È_1
 10
613.61800000000005
 20
-366.57900000000001
 30
0.0
 70
    32
  0
VERTEX
  5
43B
  8
┌▓È_1
 10
613.66099999999994
 20
-366.61599999999999
 30
0.0
 70
    32
  0
VERTEX
  5
43C
  8
┌▓È_1
 10
613.70299999999997
 20
-366.65300000000002
 30
0.0
 70
    32
  0
VERTEX
  5
43D
  8
┌▓È_1
 10
613.74599999999987
 20
-366.68900000000002
 30
0.0
 70
    32
  0
VERTEX
  5
43E
  8
┌▓È_1
 10
613.78899999999987
 20
-366.726
 30
0.0
 70
    32
  0
VERTEX
  5
43F
  8
┌▓È_1
 10
613.83199999999999
 20
-366.76199999999989
 30
0.0
 70
    32
  0
VERTEX
  5
440
  8
┌▓È_1
 10
613.87499999999989
 20
-366.79899999999998
 30
0.0
 70
    32
  0
VERTEX
  5
441
  8
┌▓È_1
 10
613.91800000000001
 20
-366.83499999999998
 30
0.0
 70
    32
  0
VERTEX
  5
442
  8
┌▓È_1
 10
613.96100000000001
 20
-366.8719999999999
 30
0.0
 70
    32
  0
VERTEX
  5
443
  8
┌▓È_1
 10
614.00399999999991
 20
-366.90800000000002
 30
0.0
 70
    32
  0
VERTEX
  5
444
  8
┌▓È_1
 10
614.04700000000003
 20
-366.94400000000002
 30
0.0
 70
    32
  0
VERTEX
  5
445
  8
┌▓È_1
 10
614.09000000000003
 20
-366.98000000000002
 30
0.0
 70
    32
  0
VERTEX
  5
446
  8
┌▓È_1
 10
614.13300000000004
 20
-367.01600000000002
 30
0.0
 70
    32
  0
VERTEX
  5
447
  8
┌▓È_1
 10
614.17599999999993
 20
-367.05200000000002
 30
0.0
 70
    32
  0
VERTEX
  5
448
  8
┌▓È_1
 10
614.21900000000005
 20
-367.08800000000002
 30
0.0
 70
    32
  0
VERTEX
  5
449
  8
┌▓È_1
 10
614.26199999999994
 20
-367.12400000000002
 30
0.0
 70
    32
  0
VERTEX
  5
44A
  8
┌▓È_1
 10
614.30499999999995
 20
-367.16000000000003
 30
0.0
 70
    32
  0
VERTEX
  5
44B
  8
┌▓È_1
 10
614.34900000000005
 20
-367.19600000000003
 30
0.0
 70
    32
  0
VERTEX
  5
44C
  8
┌▓È_1
 10
614.39199999999994
 20
-367.23200000000003
 30
0.0
 70
    32
  0
VERTEX
  5
44D
  8
┌▓È_1
 10
614.43499999999995
 20
-367.267
 30
0.0
 70
    32
  0
VERTEX
  5
44E
  8
┌▓È_1
 10
614.47799999999995
 20
-367.30300000000011
 30
0.0
 70
    32
  0
VERTEX
  5
44F
  8
┌▓È_1
 10
614.52199999999993
 20
-367.33800000000002
 30
0.0
 70
    32
  0
VERTEX
  5
450
  8
┌▓È_1
 10
614.56500000000005
 20
-367.37400000000002
 30
0.0
 70
    32
  0
VERTEX
  5
451
  8
┌▓È_1
 10
614.60900000000004
 20
-367.40899999999999
 30
0.0
 70
    32
  0
VERTEX
  5
452
  8
┌▓È_1
 10
614.65199999999993
 20
-367.44400000000002
 30
0.0
 70
    32
  0
VERTEX
  5
453
  8
┌▓È_1
 10
614.69599999999991
 20
-367.48000000000002
 30
0.0
 70
    32
  0
VERTEX
  5
454
  8
┌▓È_1
 10
614.73900000000003
 20
-367.51499999999999
 30
0.0
 70
    32
  0
VERTEX
  5
455
  8
┌▓È_1
 10
614.7829999999999
 20
-367.55000000000001
 30
0.0
 70
    32
  0
VERTEX
  5
456
  8
┌▓È_1
 10
614.827
 20
-367.58499999999998
 30
0.0
 70
    32
  0
VERTEX
  5
457
  8
┌▓È_1
 10
614.86999999999989
 20
-367.62
 30
0.0
 70
    32
  0
VERTEX
  5
458
  8
┌▓È_1
 10
614.91399999999999
 20
-367.65499999999997
 30
0.0
 70
    32
  0
VERTEX
  5
459
  8
┌▓È_1
 10
614.95800000000008
 20
-367.68900000000002
 30
0.0
 70
    32
  0
VERTEX
  5
45A
  8
┌▓È_1
 10
615.00199999999995
 20
-367.72399999999999
 30
0.0
 70
    32
  0
VERTEX
  5
45B
  8
┌▓È_1
 10
615.04599999999994
 20
-367.75900000000001
 30
0.0
 70
    32
  0
VERTEX
  5
45C
  8
┌▓È_1
 10
615.08900000000006
 20
-367.79300000000001
 30
0.0
 70
    32
  0
VERTEX
  5
45D
  8
┌▓È_1
 10
615.13300000000004
 20
-367.82799999999997
 30
0.0
 70
    32
  0
VERTEX
  5
45E
  8
┌▓È_1
 10
615.17699999999991
 20
-367.86200000000002
 30
0.0
 70
    32
  0
VERTEX
  5
45F
  8
┌▓È_1
 10
615.221
 20
-367.89600000000002
 30
0.0
 70
    32
  0
VERTEX
  5
460
  8
┌▓È_1
 10
615.26599999999996
 20
-367.93000000000001
 30
0.0
 70
    32
  0
VERTEX
  5
461
  8
┌▓È_1
 10
615.30999999999995
 20
-367.96499999999997
 30
0.0
 70
    32
  0
VERTEX
  5
462
  8
┌▓È_1
 10
615.35400000000004
 20
-367.99900000000002
 30
0.0
 70
    32
  0
VERTEX
  5
463
  8
┌▓È_1
 10
615.39800000000002
 20
-368.03300000000002
 30
0.0
 70
    32
  0
VERTEX
  5
464
  8
┌▓È_1
 10
615.44200000000001
 20
-368.06599999999997
 30
0.0
 70
    32
  0
VERTEX
  5
465
  8
┌▓È_1
 10
615.48699999999985
 20
-368.10000000000002
 30
0.0
 70
    32
  0
VERTEX
  5
466
  8
┌▓È_1
 10
615.53099999999995
 20
-368.13400000000001
 30
0.0
 70
    32
  0
VERTEX
  5
467
  8
┌▓È_1
 10
615.57500000000005
 20
-368.16800000000001
 30
0.0
 70
    32
  0
VERTEX
  5
468
  8
┌▓È_1
 10
615.62
 20
-368.20100000000002
 30
0.0
 70
    32
  0
VERTEX
  5
469
  8
┌▓È_1
 10
615.66399999999999
 20
-368.23399999999998
 30
0.0
 70
    32
  0
VERTEX
  5
46A
  8
┌▓È_1
 10
615.70900000000006
 20
-368.26799999999997
 30
0.0
 70
    32
  0
VERTEX
  5
46B
  8
┌▓È_1
 10
615.75400000000002
 20
-368.30099999999999
 30
0.0
 70
    32
  0
VERTEX
  5
46C
  8
┌▓È_1
 10
615.798
 20
-368.334
 30
0.0
 70
    32
  0
VERTEX
  5
46D
  8
┌▓È_1
 10
615.84299999999996
 20
-368.36700000000002
 30
0.0
 70
    32
  0
VERTEX
  5
46E
  8
┌▓È_1
 10
615.88800000000003
 20
-368.39999999999998
 30
0.0
 70
    32
  0
VERTEX
  5
46F
  8
┌▓È_1
 10
615.93299999999988
 20
-368.43299999999999
 30
0.0
 70
    32
  0
VERTEX
  5
470
  8
┌▓È_1
 10
615.97699999999986
 20
-368.46600000000001
 30
0.0
 70
    32
  0
VERTEX
  5
471
  8
┌▓È_1
 10
616.02199999999993
 20
-368.49900000000002
 30
0.0
 70
    32
  0
VERTEX
  5
472
  8
┌▓È_1
 10
616.06700000000001
 20
-368.53100000000001
 30
0.0
 70
    32
  0
VERTEX
  5
473
  8
┌▓È_1
 10
616.11199999999985
 20
-368.56400000000002
 30
0.0
 70
    32
  0
VERTEX
  5
474
  8
┌▓È_1
 10
616.15699999999993
 20
-368.596
 30
0.0
 70
    32
  0
VERTEX
  5
475
  8
┌▓È_1
 10
616.20299999999986
 20
-368.62799999999999
 30
0.0
 70
    32
  0
VERTEX
  5
476
  8
┌▓È_1
 10
616.24800000000005
 20
-368.661
 30
0.0
 70
    32
  0
VERTEX
  5
477
  8
┌▓È_1
 10
616.29300000000001
 20
-368.69299999999998
 30
0.0
 70
    32
  0
VERTEX
  5
478
  8
┌▓È_1
 10
616.33799999999997
 20
-368.72500000000002
 30
0.0
 70
    32
  0
VERTEX
  5
479
  8
┌▓È_1
 10
616.38400000000001
 20
-368.75700000000001
 30
0.0
 70
    32
  0
VERTEX
  5
47A
  8
┌▓È_1
 10
616.42899999999997
 20
-368.78800000000001
 30
0.0
 70
    32
  0
VERTEX
  5
47B
  8
┌▓È_1
 10
616.47400000000005
 20
-368.81999999999999
 30
0.0
 70
    32
  0
VERTEX
  5
47C
  8
┌▓È_1
 10
616.51999999999987
 20
-368.85199999999998
 30
0.0
 70
    32
  0
VERTEX
  5
47D
  8
┌▓È_1
 10
616.56600000000003
 20
-368.88299999999998
 30
0.0
 70
    32
  0
VERTEX
  5
47E
  8
┌▓È_1
 10
616.61099999999988
 20
-368.91399999999999
 30
0.0
 70
    32
  0
VERTEX
  5
47F
  8
┌▓È_1
 10
616.65699999999993
 20
-368.94600000000003
 30
0.0
 70
    32
  0
VERTEX
  5
480
  8
┌▓È_1
 10
616.70299999999986
 20
-368.97699999999998
 30
0.0
 70
    32
  0
VERTEX
  5
481
  8
┌▓È_1
 10
616.74800000000005
 20
-369.00799999999998
 30
0.0
 70
    32
  0
VERTEX
  5
482
  8
┌▓È_1
 10
616.79399999999987
 20
-369.03899999999999
 30
0.0
 70
    32
  0
VERTEX
  5
483
  8
┌▓È_1
 10
616.84000000000003
 20
-369.06999999999999
 30
0.0
 70
    32
  0
VERTEX
  5
484
  8
┌▓È_1
 10
616.88599999999985
 20
-369.10000000000002
 30
0.0
 70
    32
  0
VERTEX
  5
485
  8
┌▓È_1
 10
616.9319999999999
 20
-369.13099999999997
 30
0.0
 70
    32
  0
VERTEX
  5
486
  8
┌▓È_1
 10
616.97800000000007
 20
-369.161
 30
0.0
 70
    32
  0
VERTEX
  5
487
  8
┌▓È_1
 10
617.02399999999989
 20
-369.19200000000001
 30
0.0
 70
    32
  0
VERTEX
  5
488
  8
┌▓È_1
 10
617.07100000000003
 20
-369.22199999999998
 30
0.0
 70
    32
  0
VERTEX
  5
489
  8
┌▓È_1
 10
617.11699999999996
 20
-369.25200000000001
 30
0.0
 70
    32
  0
VERTEX
  5
48A
  8
┌▓È_1
 10
617.16300000000001
 20
-369.28199999999998
 30
0.0
 70
    32
  0
VERTEX
  5
48B
  8
┌▓È_1
 10
617.21000000000004
 20
-369.3119999999999
 30
0.0
 70
    32
  0
VERTEX
  5
48C
  8
┌▓È_1
 10
617.25599999999986
 20
-369.34199999999998
 30
0.0
 70
    32
  0
VERTEX
  5
48D
  8
┌▓È_1
 10
617.30299999999988
 20
-369.37099999999998
 30
0.0
 70
    32
  0
VERTEX
  5
48E
  8
┌▓È_1
 10
617.34900000000005
 20
-369.40100000000001
 30
0.0
 70
    32
  0
VERTEX
  5
48F
  8
┌▓È_1
 10
617.39599999999996
 20
-369.43000000000001
 30
0.0
 70
    32
  0
VERTEX
  5
490
  8
┌▓È_1
 10
617.44299999999998
 20
-369.45999999999998
 30
0.0
 70
    32
  0
VERTEX
  5
491
  8
┌▓È_1
 10
617.49000000000001
 20
-369.48899999999998
 30
0.0
 70
    32
  0
VERTEX
  5
492
  8
┌▓È_1
 10
617.53599999999994
 20
-369.51800000000009
 30
0.0
 70
    32
  0
VERTEX
  5
493
  8
┌▓È_1
 10
617.58300000000008
 20
-369.54700000000003
 30
0.0
 70
    32
  0
VERTEX
  5
494
  8
┌▓È_1
 10
617.63
 20
-369.57600000000002
 30
0.0
 70
    32
  0
VERTEX
  5
495
  8
┌▓È_1
 10
617.67799999999988
 20
-369.60399999999998
 30
0.0
 70
    32
  0
VERTEX
  5
496
  8
┌▓È_1
 10
617.72500000000002
 20
-369.6330000000001
 30
0.0
 70
    32
  0
VERTEX
  5
497
  8
┌▓È_1
 10
617.77199999999993
 20
-369.661
 30
0.0
 70
    32
  0
SEQEND
  5
498
  8
┌▓È_1
  0
POLYLINE
  5
499
  8
┌▓È_1
 66
     1
 10
0.0
 20
0.0
 30
0.0
 70
     8
  0
VERTEX
  5
49A
  8
┌▓È_1
 10
626.34199999999987
 20
-369.59399999999999
 30
0.0
 70
    32
  0
VERTEX
  5
49B
  8
┌▓È_1
 10
626.38199999999995
 20
-369.60599999999999
 30
0.0
 70
    32
  0
VERTEX
  5
49C
  8
┌▓È_1
 10
626.423
 20
-369.6169999999999
 30
0.0
 70
    32
  0
VERTEX
  5
49D
  8
┌▓È_1
 10
626.46300000000008
 20
-369.6280000000001
 30
0.0
 70
    32
  0
VERTEX
  5
49E
  8
┌▓È_1
 10
626.50399999999991
 20
-369.63999999999999
 30
0.0
 70
    32
  0
VERTEX
  5
49F
  8
┌▓È_1
 10
626.54499999999985
 20
-369.65100000000001
 30
0.0
 70
    32
  0
VERTEX
  5
4A0
  8
┌▓È_1
 10
626.5859999999999
 20
-369.66199999999998
 30
0.0
 70
    32
  0
VERTEX
  5
4A1
  8
┌▓È_1
 10
626.62599999999986
 20
-369.673
 30
0.0
 70
    32
  0
VERTEX
  5
4A2
  8
┌▓È_1
 10
626.66699999999992
 20
-369.68400000000003
 30
0.0
 70
    32
  0
VERTEX
  5
4A3
  8
┌▓È_1
 10
626.70799999999997
 20
-369.69499999999999
 30
0.0
 70
    32
  0
VERTEX
  5
4A4
  8
┌▓È_1
 10
626.74900000000002
 20
-369.70600000000002
 30
0.0
 70
    32
  0
VERTEX
  5
4A5
  8
┌▓È_1
 10
626.78999999999996
 20
-369.71699999999998
 30
0.0
 70
    32
  0
VERTEX
  5
4A6
  8
┌▓È_1
 10
626.83100000000002
 20
-369.72800000000001
 30
0.0
 70
    32
  0
VERTEX
  5
4A7
  8
┌▓È_1
 10
626.87199999999996
 20
-369.73800000000011
 30
0.0
 70
    32
  0
VERTEX
  5
4A8
  8
┌▓È_1
 10
626.91300000000001
 20
-369.74900000000002
 30
0.0
 70
    32
  0
VERTEX
  5
4A9
  8
┌▓È_1
 10
626.95400000000006
 20
-369.75999999999999
 30
0.0
 70
    32
  0
VERTEX
  5
4AA
  8
┌▓È_1
 10
626.995
 20
-369.76999999999998
 30
0.0
 70
    32
  0
VERTEX
  5
4AB
  8
┌▓È_1
 10
627.03599999999994
 20
-369.78100000000001
 30
0.0
 70
    32
  0
VERTEX
  5
4AC
  8
┌▓È_1
 10
627.07799999999997
 20
-369.791
 30
0.0
 70
    32
  0
VERTEX
  5
4AD
  8
┌▓È_1
 10
627.11900000000003
 20
-369.80200000000002
 30
0.0
 70
    32
  0
VERTEX
  5
4AE
  8
┌▓È_1
 10
627.15999999999985
 20
-369.8119999999999
 30
0.0
 70
    32
  0
VERTEX
  5
4AF
  8
┌▓È_1
 10
627.20100000000002
 20
-369.822
 30
0.0
 70
    32
  0
VERTEX
  5
4B0
  8
┌▓È_1
 10
627.24300000000005
 20
-369.83199999999999
 30
0.0
 70
    32
  0
VERTEX
  5
4B1
  8
┌▓È_1
 10
627.28399999999999
 20
-369.84300000000002
 30
0.0
 70
    32
  0
VERTEX
  5
4B2
  8
┌▓È_1
 10
627.32500000000005
 20
-369.85300000000001
 30
0.0
 70
    32
  0
VERTEX
  5
4B3
  8
┌▓È_1
 10
627.36699999999996
 20
-369.863
 30
0.0
 70
    32
  0
VERTEX
  5
4B4
  8
┌▓È_1
 10
627.40800000000002
 20
-369.8730000000001
 30
0.0
 70
    32
  0
VERTEX
  5
4B5
  8
┌▓È_1
 10
627.45000000000005
 20
-369.88299999999998
 30
0.0
 70
    32
  0
VERTEX
  5
4B6
  8
┌▓È_1
 10
627.49099999999999
 20
-369.89299999999997
 30
0.0
 70
    32
  0
VERTEX
  5
4B7
  8
┌▓È_1
 10
627.53300000000002
 20
-369.90199999999999
 30
0.0
 70
    32
  0
VERTEX
  5
4B8
  8
┌▓È_1
 10
627.57500000000005
 20
-369.91199999999998
 30
0.0
 70
    32
  0
VERTEX
  5
4B9
  8
┌▓È_1
 10
627.61599999999987
 20
-369.92200000000003
 30
0.0
 70
    32
  0
VERTEX
  5
4BA
  8
┌▓È_1
 10
627.65800000000002
 20
-369.93200000000002
 30
0.0
 70
    32
  0
VERTEX
  5
4BB
  8
┌▓È_1
 10
627.70000000000005
 20
-369.94099999999997
 30
0.0
 70
    32
  0
VERTEX
  5
4BC
  8
┌▓È_1
 10
627.74099999999987
 20
-369.95100000000002
 30
0.0
 70
    32
  0
VERTEX
  5
4BD
  8
┌▓È_1
 10
627.78300000000002
 20
-369.95999999999998
 30
0.0
 70
    32
  0
VERTEX
  5
4BE
  8
┌▓È_1
 10
627.82500000000005
 20
-369.97000000000003
 30
0.0
 70
    32
  0
VERTEX
  5
4BF
  8
┌▓È_1
 10
627.86699999999985
 20
-369.9790000000001
 30
0.0
 70
    32
  0
VERTEX
  5
4C0
  8
┌▓È_1
 10
627.90800000000002
 20
-369.98899999999998
 30
0.0
 70
    32
  0
VERTEX
  5
4C1
  8
┌▓È_1
 10
627.95000000000005
 20
-369.99799999999999
 30
0.0
 70
    32
  0
VERTEX
  5
4C2
  8
┌▓È_1
 10
627.99199999999985
 20
-370.00700000000001
 30
0.0
 70
    32
  0
VERTEX
  5
4C3
  8
┌▓È_1
 10
628.03399999999988
 20
-370.017
 30
0.0
 70
    32
  0
VERTEX
  5
4C4
  8
┌▓È_1
 10
628.07600000000002
 20
-370.02600000000001
 30
0.0
 70
    32
  0
VERTEX
  5
4C5
  8
┌▓È_1
 10
628.11800000000005
 20
-370.03500000000003
 30
0.0
 70
    32
  0
VERTEX
  5
4C6
  8
┌▓È_1
 10
628.15999999999997
 20
-370.04399999999998
 30
0.0
 70
    32
  0
VERTEX
  5
4C7
  8
┌▓È_1
 10
628.202
 20
-370.053
 30
0.0
 70
    32
  0
VERTEX
  5
4C8
  8
┌▓È_1
 10
628.24400000000003
 20
-370.06200000000001
 30
0.0
 70
    32
  0
VERTEX
  5
4C9
  8
┌▓È_1
 10
628.28599999999994
 20
-370.07100000000003
 30
0.0
 70
    32
  0
VERTEX
  5
4CA
  8
┌▓È_1
 10
628.32899999999995
 20
-370.07999999999998
 30
0.0
 70
    32
  0
VERTEX
  5
4CB
  8
┌▓È_1
 10
628.37099999999998
 20
-370.089
 30
0.0
 70
    32
  0
VERTEX
  5
4CC
  8
┌▓È_1
 10
628.41300000000001
 20
-370.09800000000001
 30
0.0
 70
    32
  0
VERTEX
  5
4CD
  8
┌▓È_1
 10
628.45500000000004
 20
-370.10700000000003
 30
0.0
 70
    32
  0
VERTEX
  5
4CE
  8
┌▓È_1
 10
628.49699999999984
 20
-370.11500000000001
 30
0.0
 70
    32
  0
VERTEX
  5
4CF
  8
┌▓È_1
 10
628.53999999999996
 20
-370.12400000000002
 30
0.0
 70
    32
  0
VERTEX
  5
4D0
  8
┌▓È_1
 10
628.58199999999999
 20
-370.13299999999998
 30
0.0
 70
    32
  0
VERTEX
  5
4D1
  8
┌▓È_1
 10
628.62400000000002
 20
-370.142
 30
0.0
 70
    32
  0
VERTEX
  5
4D2
  8
┌▓È_1
 10
628.66599999999994
 20
-370.14999999999998
 30
0.0
 70
    32
  0
VERTEX
  5
4D3
  8
┌▓È_1
 10
628.70899999999995
 20
-370.15899999999999
 30
0.0
 70
    32
  0
VERTEX
  5
4D4
  8
┌▓È_1
 10
628.75099999999998
 20
-370.16699999999997
 30
0.0
 70
    32
  0
VERTEX
  5
4D5
  8
┌▓È_1
 10
628.79399999999987
 20
-370.17599999999999
 30
0.0
 70
    32
  0
VERTEX
  5
4D6
  8
┌▓È_1
 10
628.8359999999999
 20
-370.18400000000003
 30
0.0
 70
    32
  0
VERTEX
  5
4D7
  8
┌▓È_1
 10
628.87800000000004
 20
-370.19299999999998
 30
0.0
 70
    32
  0
VERTEX
  5
4D8
  8
┌▓È_1
 10
628.92099999999994
 20
-370.20100000000002
 30
0.0
 70
    32
  0
VERTEX
  5
4D9
  8
┌▓È_1
 10
628.96299999999997
 20
-370.20999999999998
 30
0.0
 70
    32
  0
VERTEX
  5
4DA
  8
┌▓È_1
 10
629.00599999999986
 20
-370.21800000000002
 30
0.0
 70
    32
  0
VERTEX
  5
4DB
  8
┌▓È_1
 10
629.048
 20
-370.226
 30
0.0
 70
    32
  0
VERTEX
  5
4DC
  8
┌▓È_1
 10
629.09100000000001
 20
-370.23500000000001
 30
0.0
 70
    32
  0
VERTEX
  5
4DD
  8
┌▓È_1
 10
629.13300000000004
 20
-370.24299999999999
 30
0.0
 70
    32
  0
VERTEX
  5
4DE
  8
┌▓È_1
 10
629.17599999999993
 20
-370.25099999999998
 30
0.0
 70
    32
  0
VERTEX
  5
4DF
  8
┌▓È_1
 10
629.21900000000005
 20
-370.25900000000001
 30
0.0
 70
    32
  0
VERTEX
  5
4E0
  8
┌▓È_1
 10
629.26099999999985
 20
-370.267
 30
0.0
 70
    32
  0
VERTEX
  5
4E1
  8
┌▓È_1
 10
629.30399999999986
 20
-370.27600000000001
 30
0.0
 70
    32
  0
VERTEX
  5
4E2
  8
┌▓È_1
 10
629.346
 20
-370.28399999999999
 30
0.0
 70
    32
  0
VERTEX
  5
4E3
  8
┌▓È_1
 10
629.38900000000001
 20
-370.29199999999997
 30
0.0
 70
    32
  0
VERTEX
  5
4E4
  8
┌▓È_1
 10
629.4319999999999
 20
-370.30000000000001
 30
0.0
 70
    32
  0
VERTEX
  5
4E5
  8
┌▓È_1
 10
629.47500000000002
 20
-370.30799999999999
 30
0.0
 70
    32
  0
VERTEX
  5
4E6
  8
┌▓È_1
 10
629.51699999999994
 20
-370.31599999999997
 30
0.0
 70
    32
  0
VERTEX
  5
4E7
  8
┌▓È_1
 10
629.55999999999995
 20
-370.32400000000001
 30
0.0
 70
    32
  0
VERTEX
  5
4E8
  8
┌▓È_1
 10
629.60299999999995
 20
-370.33199999999999
 30
0.0
 70
    32
  0
VERTEX
  5
4E9
  8
┌▓È_1
 10
629.64599999999984
 20
-370.33999999999997
 30
0.0
 70
    32
  0
VERTEX
  5
4EA
  8
┌▓È_1
 10
629.68799999999987
 20
-370.34699999999998
 30
0.0
 70
    32
  0
VERTEX
  5
4EB
  8
┌▓È_1
 10
629.73099999999999
 20
-370.35500000000002
 30
0.0
 70
    32
  0
VERTEX
  5
4EC
  8
┌▓È_1
 10
629.774
 20
-370.363
 30
0.0
 70
    32
  0
VERTEX
  5
4ED
  8
┌▓È_1
 10
629.81699999999989
 20
-370.37099999999998
 30
0.0
 70
    32
  0
VERTEX
  5
4EE
  8
┌▓È_1
 10
629.86000000000001
 20
-370.37900000000002
 30
0.0
 70
    32
  0
VERTEX
  5
4EF
  8
┌▓È_1
 10
629.90199999999993
 20
-370.38600000000002
 30
0.0
 70
    32
  0
VERTEX
  5
4F0
  8
┌▓È_1
 10
629.94500000000005
 20
-370.39400000000001
 30
0.0
 70
    32
  0
VERTEX
  5
4F1
  8
┌▓È_1
 10
629.98800000000006
 20
-370.40199999999999
 30
0.0
 70
    32
  0
VERTEX
  5
4F2
  8
┌▓È_1
 10
630.03099999999995
 20
-370.41000000000003
 30
0.0
 70
    32
  0
VERTEX
  5
4F3
  8
┌▓È_1
 10
630.07400000000007
 20
-370.41699999999997
 30
0.0
 70
    32
  0
VERTEX
  5
4F4
  8
┌▓È_1
 10
630.11699999999985
 20
-370.42500000000001
 30
0.0
 70
    32
  0
VERTEX
  5
4F5
  8
┌▓È_1
 10
630.15999999999985
 20
-370.43300000000011
 30
0.0
 70
    32
  0
VERTEX
  5
4F6
  8
┌▓È_1
 10
630.20299999999997
 20
-370.44
 30
0.0
 70
    32
  0
VERTEX
  5
4F7
  8
┌▓È_1
 10
630.24599999999987
 20
-370.44799999999998
 30
0.0
 70
    32
  0
VERTEX
  5
4F8
  8
┌▓È_1
 10
630.28899999999987
 20
-370.45499999999998
 30
0.0
 70
    32
  0
VERTEX
  5
4F9
  8
┌▓È_1
 10
630.33199999999999
 20
-370.46300000000002
 30
0.0
 70
    32
  0
VERTEX
  5
4FA
  8
┌▓È_1
 10
630.37499999999989
 20
-370.47000000000003
 30
0.0
 70
    32
  0
VERTEX
  5
4FB
  8
┌▓È_1
 10
630.41800000000001
 20
-370.47800000000001
 30
0.0
 70
    32
  0
VERTEX
  5
4FC
  8
┌▓È_1
 10
630.46100000000001
 20
-370.48599999999999
 30
0.0
 70
    32
  0
VERTEX
  5
4FD
  8
┌▓È_1
 10
630.50399999999991
 20
-370.49299999999999
 30
0.0
 70
    32
  0
VERTEX
  5
4FE
  8
┌▓È_1
 10
630.54700000000003
 20
-370.50099999999998
 30
0.0
 70
    32
  0
VERTEX
  5
4FF
  8
┌▓È_1
 10
630.59000000000003
 20
-370.5080000000001
 30
0.0
 70
    32
  0
VERTEX
  5
500
  8
┌▓È_1
 10
630.63300000000004
 20
-370.51499999999999
 30
0.0
 70
    32
  0
VERTEX
  5
501
  8
┌▓È_1
 10
630.67599999999993
 20
-370.52300000000002
 30
0.0
 70
    32
  0
VERTEX
  5
502
  8
┌▓È_1
 10
630.71900000000005
 20
-370.52999999999997
 30
0.0
 70
    32
  0
VERTEX
  5
503
  8
┌▓È_1
 10
630.76199999999994
 20
-370.53800000000001
 30
0.0
 70
    32
  0
VERTEX
  5
504
  8
┌▓È_1
 10
630.80499999999995
 20
-370.54500000000002
 30
0.0
 70
    32
  0
VERTEX
  5
505
  8
┌▓È_1
 10
630.84800000000007
 20
-370.553
 30
0.0
 70
    32
  0
VERTEX
  5
506
  8
┌▓È_1
 10
630.89099999999996
 20
-370.56
 30
0.0
 70
    32
  0
VERTEX
  5
507
  8
┌▓È_1
 10
630.93399999999986
 20
-370.56700000000001
 30
0.0
 70
    32
  0
VERTEX
  5
508
  8
┌▓È_1
 10
630.97799999999995
 20
-370.57499999999999
 30
0.0
 70
    32
  0
VERTEX
  5
509
  8
┌▓È_1
 10
631.02099999999984
 20
-370.58199999999999
 30
0.0
 70
    32
  0
VERTEX
  5
50A
  8
┌▓È_1
 10
631.06399999999985
 20
-370.589
 30
0.0
 70
    32
  0
VERTEX
  5
50B
  8
┌▓È_1
 10
631.10699999999986
 20
-370.59699999999998
 30
0.0
 70
    32
  0
VERTEX
  5
50C
  8
┌▓È_1
 10
631.14999999999986
 20
-370.6040000000001
 30
0.0
 70
    32
  0
VERTEX
  5
50D
  8
┌▓È_1
 10
631.19299999999998
 20
-370.61099999999999
 30
0.0
 70
    32
  0
VERTEX
  5
50E
  8
┌▓È_1
 10
631.23599999999988
 20
-370.61900000000003
 30
0.0
 70
    32
  0
VERTEX
  5
50F
  8
┌▓È_1
 10
631.27899999999988
 20
-370.62599999999998
 30
0.0
 70
    32
  0
VERTEX
  5
510
  8
┌▓È_1
 10
631.32299999999987
 20
-370.63299999999998
 30
0.0
 70
    32
  0
VERTEX
  5
511
  8
┌▓È_1
 10
631.36599999999987
 20
-370.64099999999991
 30
0.0
 70
    32
  0
VERTEX
  5
512
  8
┌▓È_1
 10
631.40899999999999
 20
-370.64800000000002
 30
0.0
 70
    32
  0
VERTEX
  5
513
  8
┌▓È_1
 10
631.45199999999988
 20
-370.65499999999997
 30
0.0
 70
    32
  0
VERTEX
  5
514
  8
┌▓È_1
 10
631.495
 20
-370.66300000000001
 30
0.0
 70
    32
  0
VERTEX
  5
515
  8
┌▓È_1
 10
631.53800000000001
 20
-370.67000000000002
 30
0.0
 70
    32
  0
VERTEX
  5
516
  8
┌▓È_1
 10
631.5809999999999
 20
-370.67700000000002
 30
0.0
 70
    32
  0
VERTEX
  5
517
  8
┌▓È_1
 10
631.625
 20
-370.68400000000003
 30
0.0
 70
    32
  0
VERTEX
  5
518
  8
┌▓È_1
 10
631.66799999999989
 20
-370.69200000000001
 30
0.0
 70
    32
  0
VERTEX
  5
519
  8
┌▓È_1
 10
631.71100000000001
 20
-370.69900000000001
 30
0.0
 70
    32
  0
SEQEND
  5
51A
  8
┌▓È_1
  0
POLYLINE
  5
51B
  8
┌▓È_1
 66
     1
 10
0.0
 20
0.0
 30
0.0
 70
     8
  0
VERTEX
  5
51C
  8
┌▓È_1
 10
618.80399999999986
 20
-364.642
 30
0.0
 70
    32
  0
VERTEX
  5
51D
  8
┌▓È_1
 10
618.82000000000005
 20
-364.65899999999999
 30
0.0
 70
    32
  0
VERTEX
  5
51E
  8
┌▓È_1
 10
618.83500000000004
 20
-364.67599999999999
 30
0.0
 70
    32
  0
VERTEX
  5
51F
  8
┌▓È_1
 10
618.85000000000002
 20
-364.6930000000001
 30
0.0
 70
    32
  0
VERTEX
  5
520
  8
┌▓È_1
 10
618.86599999999987
 20
-364.70999999999998
 30
0.0
 70
    32
  0
VERTEX
  5
521
  8
┌▓È_1
 10
618.88099999999997
 20
-364.72699999999998
 30
0.0
 70
    32
  0
VERTEX
  5
522
  8
┌▓È_1
 10
618.89599999999984
 20
-364.74400000000003
 30
0.0
 70
    32
  0
VERTEX
  5
523
  8
┌▓È_1
 10
618.91199999999992
 20
-364.76100000000002
 30
0.0
 70
    32
  0
VERTEX
  5
524
  8
┌▓È_1
 10
618.92700000000002
 20
-364.77800000000002
 30
0.0
 70
    32
  0
VERTEX
  5
525
  8
┌▓È_1
 10
618.94200000000001
 20
-364.79500000000002
 30
0.0
 70
    32
  0
VERTEX
  5
526
  8
┌▓È_1
 10
618.95800000000008
 20
-364.81200000000001
 30
0.0
 70
    32
  0
VERTEX
  5
527
  8
┌▓È_1
 10
618.97299999999996
 20
-364.82900000000001
 30
0.0
 70
    32
  0
VERTEX
  5
528
  8
┌▓È_1
 10
618.98800000000006
 20
-364.846
 30
0.0
 70
    32
  0
VERTEX
  5
529
  8
┌▓È_1
 10
619.00300000000004
 20
-364.86300000000011
 30
0.0
 70
    32
  0
VERTEX
  5
52A
  8
┌▓È_1
 10
619.01900000000001
 20
-364.88
 30
0.0
 70
    32
  0
VERTEX
  5
52B
  8
┌▓È_1
 10
619.03399999999988
 20
-364.89699999999999
 30
0.0
 70
    32
  0
VERTEX
  5
52C
  8
┌▓È_1
 10
619.04899999999986
 20
-364.91399999999999
 30
0.0
 70
    32
  0
VERTEX
  5
52D
  8
┌▓È_1
 10
619.06500000000005
 20
-364.93099999999998
 30
0.0
 70
    32
  0
VERTEX
  5
52E
  8
┌▓È_1
 10
619.08000000000004
 20
-364.94799999999998
 30
0.0
 70
    32
  0
VERTEX
  5
52F
  8
┌▓È_1
 10
619.09500000000003
 20
-364.96499999999997
 30
0.0
 70
    32
  0
VERTEX
  5
530
  8
┌▓È_1
 10
619.11099999999999
 20
-364.98200000000003
 30
0.0
 70
    32
  0
VERTEX
  5
531
  8
┌▓È_1
 10
619.12599999999986
 20
-364.99900000000002
 30
0.0
 70
    32
  0
VERTEX
  5
532
  8
┌▓È_1
 10
619.14099999999985
 20
-365.01600000000002
 30
0.0
 70
    32
  0
VERTEX
  5
533
  8
┌▓È_1
 10
619.15699999999993
 20
-365.03300000000002
 30
0.0
 70
    32
  0
VERTEX
  5
534
  8
┌▓È_1
 10
619.17200000000003
 20
-365.05000000000001
 30
0.0
 70
    32
  0
VERTEX
  5
535
  8
┌▓È_1
 10
619.18700000000001
 20
-365.06699999999989
 30
0.0
 70
    32
  0
VERTEX
  5
536
  8
┌▓È_1
 10
619.20299999999986
 20
-365.084
 30
0.0
 70
    32
  0
VERTEX
  5
537
  8
┌▓È_1
 10
619.21799999999996
 20
-365.101
 30
0.0
 70
    32
  0
VERTEX
  5
538
  8
┌▓È_1
 10
619.23400000000004
 20
-365.11799999999999
 30
0.0
 70
    32
  0
VERTEX
  5
539
  8
┌▓È_1
 10
619.24900000000002
 20
-365.13499999999999
 30
0.0
 70
    32
  0
VERTEX
  5
53A
  8
┌▓È_1
 10
619.2639999999999
 20
-365.15199999999999
 30
0.0
 70
    32
  0
VERTEX
  5
53B
  8
┌▓È_1
 10
619.27999999999997
 20
-365.16899999999998
 30
0.0
 70
    32
  0
VERTEX
  5
53C
  8
┌▓È_1
 10
619.29499999999985
 20
-365.18599999999998
 30
0.0
 70
    32
  0
VERTEX
  5
53D
  8
┌▓È_1
 10
619.30999999999995
 20
-365.20299999999997
 30
0.0
 70
    32
  0
VERTEX
  5
53E
  8
┌▓È_1
 10
619.32600000000002
 20
-365.22000000000008
 30
0.0
 70
    32
  0
VERTEX
  5
53F
  8
┌▓È_1
 10
619.34100000000001
 20
-365.23700000000002
 30
0.0
 70
    32
  0
VERTEX
  5
540
  8
┌▓È_1
 10
619.35699999999997
 20
-365.25400000000002
 30
0.0
 70
    32
  0
VERTEX
  5
541
  8
┌▓È_1
 10
619.37199999999984
 20
-365.2709999999999
 30
0.0
 70
    32
  0
VERTEX
  5
542
  8
┌▓È_1
 10
619.38699999999994
 20
-365.28800000000001
 30
0.0
 70
    32
  0
VERTEX
  5
543
  8
┌▓È_1
 10
619.40300000000002
 20
-365.30399999999997
 30
0.0
 70
    32
  0
VERTEX
  5
544
  8
┌▓È_1
 10
619.41800000000001
 20
-365.32100000000003
 30
0.0
 70
    32
  0
VERTEX
  5
545
  8
┌▓È_1
 10
619.43399999999986
 20
-365.33800000000002
 30
0.0
 70
    32
  0
VERTEX
  5
546
  8
┌▓È_1
 10
619.44899999999996
 20
-365.35500000000002
 30
0.0
 70
    32
  0
VERTEX
  5
547
  8
┌▓È_1
 10
619.46500000000003
 20
-365.37200000000001
 30
0.0
 70
    32
  0
VERTEX
  5
548
  8
┌▓È_1
 10
619.48000000000002
 20
-365.38900000000001
 30
0.0
 70
    32
  0
VERTEX
  5
549
  8
┌▓È_1
 10
619.49599999999998
 20
-365.40499999999997
 30
0.0
 70
    32
  0
VERTEX
  5
54A
  8
┌▓È_1
 10
619.51099999999985
 20
-365.42200000000003
 30
0.0
 70
    32
  0
VERTEX
  5
54B
  8
┌▓È_1
 10
619.52599999999995
 20
-365.43900000000002
 30
0.0
 70
    32
  0
VERTEX
  5
54C
  8
┌▓È_1
 10
619.54199999999992
 20
-365.45600000000002
 30
0.0
 70
    32
  0
VERTEX
  5
54D
  8
┌▓È_1
 10
619.55700000000002
 20
-365.47300000000001
 30
0.0
 70
    32
  0
VERTEX
  5
54E
  8
┌▓È_1
 10
619.57299999999998
 20
-365.48899999999998
 30
0.0
 70
    32
  0
VERTEX
  5
54F
  8
┌▓È_1
 10
619.58799999999997
 20
-365.50599999999997
 30
0.0
 70
    32
  0
VERTEX
  5
550
  8
┌▓È_1
 10
619.60400000000004
 20
-365.52300000000002
 30
0.0
 70
    32
  0
VERTEX
  5
551
  8
┌▓È_1
 10
619.61900000000003
 20
-365.54000000000002
 30
0.0
 70
    32
  0
VERTEX
  5
552
  8
┌▓È_1
 10
619.63499999999988
 20
-365.55599999999998
 30
0.0
 70
    32
  0
VERTEX
  5
553
  8
┌▓È_1
 10
619.65099999999995
 20
-365.57300000000009
 30
0.0
 70
    32
  0
VERTEX
  5
554
  8
┌▓È_1
 10
619.66599999999994
 20
-365.58999999999997
 30
0.0
 70
    32
  0
VERTEX
  5
555
  8
┌▓È_1
 10
619.68200000000002
 20
-365.60599999999999
 30
0.0
 70
    32
  0
VERTEX
  5
556
  8
┌▓È_1
 10
619.697
 20
-365.6230000000001
 30
0.0
 70
    32
  0
VERTEX
  5
557
  8
┌▓È_1
 10
619.71300000000008
 20
-365.63999999999999
 30
0.0
 70
    32
  0
VERTEX
  5
558
  8
┌▓È_1
 10
619.72800000000007
 20
-365.65600000000001
 30
0.0
 70
    32
  0
VERTEX
  5
559
  8
┌▓È_1
 10
619.74400000000003
 20
-365.673
 30
0.0
 70
    32
  0
VERTEX
  5
55A
  8
┌▓È_1
 10
619.75999999999999
 20
-365.68900000000002
 30
0.0
 70
    32
  0
VERTEX
  5
55B
  8
┌▓È_1
 10
619.77499999999998
 20
-365.7059999999999
 30
0.0
 70
    32
  0
VERTEX
  5
55C
  8
┌▓È_1
 10
619.79099999999994
 20
-365.72199999999998
 30
0.0
 70
    32
  0
VERTEX
  5
55D
  8
┌▓È_1
 10
619.80600000000004
 20
-365.73899999999998
 30
0.0
 70
    32
  0
VERTEX
  5
55E
  8
┌▓È_1
 10
619.822
 20
-365.755
 30
0.0
 70
    32
  0
VERTEX
  5
55F
  8
┌▓È_1
 10
619.83800000000008
 20
-365.77199999999999
 30
0.0
 70
    32
  0
VERTEX
  5
560
  8
┌▓È_1
 10
619.85299999999995
 20
-365.78800000000001
 30
0.0
 70
    32
  0
VERTEX
  5
561
  8
┌▓È_1
 10
619.86900000000003
 20
-365.80500000000001
 30
0.0
 70
    32
  0
VERTEX
  5
562
  8
┌▓È_1
 10
619.88499999999999
 20
-365.82100000000003
 30
0.0
 70
    32
  0
VERTEX
  5
563
  8
┌▓È_1
 10
619.89999999999986
 20
-365.83800000000002
 30
0.0
 70
    32
  0
VERTEX
  5
564
  8
┌▓È_1
 10
619.91599999999994
 20
-365.85399999999998
 30
0.0
 70
    32
  0
VERTEX
  5
565
  8
┌▓È_1
 10
619.93200000000002
 20
-365.87099999999998
 30
0.0
 70
    32
  0
VERTEX
  5
566
  8
┌▓È_1
 10
619.94799999999998
 20
-365.88699999999989
 30
0.0
 70
    32
  0
VERTEX
  5
567
  8
┌▓È_1
 10
619.96299999999997
 20
-365.90300000000002
 30
0.0
 70
    32
  0
VERTEX
  5
568
  8
┌▓È_1
 10
619.97900000000004
 20
-365.92000000000002
 30
0.0
 70
    32
  0
VERTEX
  5
569
  8
┌▓È_1
 10
619.995
 20
-365.93599999999998
 30
0.0
 70
    32
  0
VERTEX
  5
56A
  8
┌▓È_1
 10
620.01099999999985
 20
-365.952
 30
0.0
 70
    32
  0
VERTEX
  5
56B
  8
┌▓È_1
 10
620.02599999999995
 20
-365.96899999999999
 30
0.0
 70
    32
  0
VERTEX
  5
56C
  8
┌▓È_1
 10
620.04199999999992
 20
-365.98500000000001
 30
0.0
 70
    32
  0
VERTEX
  5
56D
  8
┌▓È_1
 10
620.05799999999999
 20
-366.00099999999998
 30
0.0
 70
    32
  0
VERTEX
  5
56E
  8
┌▓È_1
 10
620.07399999999996
 20
-366.017
 30
0.0
 70
    32
  0
VERTEX
  5
56F
  8
┌▓È_1
 10
620.09000000000003
 20
-366.03399999999999
 30
0.0
 70
    32
  0
VERTEX
  5
570
  8
┌▓È_1
 10
620.10599999999999
 20
-366.05000000000001
 30
0.0
 70
    32
  0
VERTEX
  5
571
  8
┌▓È_1
 10
620.12099999999987
 20
-366.06599999999997
 30
0.0
 70
    32
  0
VERTEX
  5
572
  8
┌▓È_1
 10
620.13699999999994
 20
-366.08199999999999
 30
0.0
 70
    32
  0
VERTEX
  5
573
  8
┌▓È_1
 10
620.15299999999991
 20
-366.09800000000001
 30
0.0
 70
    32
  0
VERTEX
  5
574
  8
┌▓È_1
 10
620.16899999999998
 20
-366.11399999999998
 30
0.0
 70
    32
  0
VERTEX
  5
575
  8
┌▓È_1
 10
620.18499999999995
 20
-366.13
 30
0.0
 70
    32
  0
VERTEX
  5
576
  8
┌▓È_1
 10
620.20100000000002
 20
-366.1459999999999
 30
0.0
 70
    32
  0
VERTEX
  5
577
  8
┌▓È_1
 10
620.21699999999987
 20
-366.16199999999998
 30
0.0
 70
    32
  0
VERTEX
  5
578
  8
┌▓È_1
 10
620.23299999999995
 20
-366.17800000000011
 30
0.0
 70
    32
  0
VERTEX
  5
579
  8
┌▓È_1
 10
620.24900000000002
 20
-366.19400000000002
 30
0.0
 70
    32
  0
VERTEX
  5
57A
  8
┌▓È_1
 10
620.26499999999999
 20
-366.20999999999998
 30
0.0
 70
    32
  0
VERTEX
  5
57B
  8
┌▓È_1
 10
620.28099999999995
 20
-366.226
 30
0.0
 70
    32
  0
VERTEX
  5
57C
  8
┌▓È_1
 10
620.29700000000003
 20
-366.24200000000002
 30
0.0
 70
    32
  0
VERTEX
  5
57D
  8
┌▓È_1
 10
620.31299999999987
 20
-366.2580000000001
 30
0.0
 70
    32
  0
VERTEX
  5
57E
  8
┌▓È_1
 10
620.32899999999995
 20
-366.274
 30
0.0
 70
    32
  0
VERTEX
  5
57F
  8
┌▓È_1
 10
620.34500000000003
 20
-366.29000000000002
 30
0.0
 70
    32
  0
VERTEX
  5
580
  8
┌▓È_1
 10
620.36099999999999
 20
-366.30500000000001
 30
0.0
 70
    32
  0
VERTEX
  5
581
  8
┌▓È_1
 10
620.37699999999995
 20
-366.32100000000003
 30
0.0
 70
    32
  0
VERTEX
  5
582
  8
┌▓È_1
 10
620.39300000000003
 20
-366.33699999999999
 30
0.0
 70
    32
  0
VERTEX
  5
583
  8
┌▓È_1
 10
620.40999999999985
 20
-366.35300000000001
 30
0.0
 70
    32
  0
VERTEX
  5
584
  8
┌▓È_1
 10
620.42599999999993
 20
-366.36800000000011
 30
0.0
 70
    32
  0
VERTEX
  5
585
  8
┌▓È_1
 10
620.44199999999989
 20
-366.38400000000001
 30
0.0
 70
    32
  0
VERTEX
  5
586
  8
┌▓È_1
 10
620.45799999999997
 20
-366.39999999999998
 30
0.0
 70
    32
  0
VERTEX
  5
587
  8
┌▓È_1
 10
620.47400000000005
 20
-366.41500000000002
 30
0.0
 70
    32
  0
VERTEX
  5
588
  8
┌▓È_1
 10
620.49000000000001
 20
-366.43099999999998
 30
0.0
 70
    32
  0
VERTEX
  5
589
  8
┌▓È_1
 10
620.50699999999995
 20
-366.44600000000003
 30
0.0
 70
    32
  0
VERTEX
  5
58A
  8
┌▓È_1
 10
620.52300000000002
 20
-366.46199999999999
 30
0.0
 70
    32
  0
VERTEX
  5
58B
  8
┌▓È_1
 10
620.53899999999999
 20
-366.47699999999998
 30
0.0
 70
    32
  0
VERTEX
  5
58C
  8
┌▓È_1
 10
620.55499999999995
 20
-366.49299999999999
 30
0.0
 70
    32
  0
VERTEX
  5
58D
  8
┌▓È_1
 10
620.572
 20
-366.5080000000001
 30
0.0
 70
    32
  0
VERTEX
  5
58E
  8
┌▓È_1
 10
620.58799999999997
 20
-366.524
 30
0.0
 70
    32
  0
VERTEX
  5
58F
  8
┌▓È_1
 10
620.60400000000004
 20
-366.53899999999999
 30
0.0
 70
    32
  0
VERTEX
  5
590
  8
┌▓È_1
 10
620.62099999999987
 20
-366.55500000000001
 30
0.0
 70
    32
  0
VERTEX
  5
591
  8
┌▓È_1
 10
620.63699999999994
 20
-366.56999999999999
 30
0.0
 70
    32
  0
VERTEX
  5
592
  8
┌▓È_1
 10
620.654
 20
-366.58499999999998
 30
0.0
 70
    32
  0
VERTEX
  5
593
  8
┌▓È_1
 10
620.66999999999985
 20
-366.601
 30
0.0
 70
    32
  0
VERTEX
  5
594
  8
┌▓È_1
 10
620.68600000000004
 20
-366.61599999999999
 30
0.0
 70
    32
  0
VERTEX
  5
595
  8
┌▓È_1
 10
620.70299999999986
 20
-366.63099999999997
 30
0.0
 70
    32
  0
VERTEX
  5
596
  8
┌▓È_1
 10
620.71900000000005
 20
-366.64600000000002
 30
0.0
 70
    32
  0
VERTEX
  5
597
  8
┌▓È_1
 10
620.73599999999999
 20
-366.661
 30
0.0
 70
    32
  0
VERTEX
  5
598
  8
┌▓È_1
 10
620.75199999999995
 20
-366.67599999999999
 30
0.0
 70
    32
  0
VERTEX
  5
599
  8
┌▓È_1
 10
620.76900000000001
 20
-366.69200000000001
 30
0.0
 70
    32
  0
VERTEX
  5
59A
  8
┌▓È_1
 10
620.78499999999985
 20
-366.70699999999999
 30
0.0
 70
    32
  0
VERTEX
  5
59B
  8
┌▓È_1
 10
620.80200000000002
 20
-366.72199999999998
 30
0.0
 70
    32
  0
SEQEND
  5
59C
  8
┌▓È_1
  0
LINE
  5
2AB
  8
┌▓È_1
 10
494.14924624999998
 20
-379.4765625
 30
0.0
 11
841.98828125
 21
-379.4765625
 31
0.0
  0
LINE
  5
2AC
  8
┌▓È_1
 10
841.98828125
 20
-302.95197480000002
 30
0.0
 11
494.14924624999998
 21
-302.95197480000002
 31
0.0
  0
LINE
  5
2AD
  8
┌▓È_1
 10
494.14924624999998
 20
-353.96836660000002
 30
0.0
 11
841.98828125
 21
-353.96836660000002
 31
0.0
  0
LINE
  5
2AE
  8
┌▓È_1
 10
494.14924624999998
 20
-328.46017069999999
 30
0.0
 11
841.98828125
 21
-328.46017069999999
 31
0.0
  0
LINE
  5
2AF
  8
┌▓È_1
 10
841.98828125
 20
-379.4765625
 30
0.0
 11
841.98828125
 21
-302.95197480000002
 31
0.0
  0
LINE
  5
2B0
  8
┌▓È_1
 10
586.90632225000002
 20
-302.95197480000002
 30
0.0
 11
586.90632225000002
 21
-328.46017069999999
 31
0.0
  0
ENDSEC
  0
EOF
