  0
SECTION
  2
HEADER
  9
$ACADVER
  1
AC1009
  9
$INSBASE
 10
0.0
 20
0.0
 30
0.0
  9
$EXTMIN
 10
-198.65625744050001
 20
-258.98123444819998
 30
0.0
  9
$EXTMAX
 10
878.79960937500005
 20
518.69140625
 30
0.0
  9
$LIMMIN
 10
0.0
 20
0.0
  9
$LIMMAX
 10
0.0
 20
0.0
  9
$ORTHOMODE
 70
     0
  9
$REGENMODE
 70
     1
  9
$FILLMODE
 70
     1
  9
$QTEXTMODE
 70
     0
  9
$MIRRTEXT
 70
     1
  9
$DRAGMODE
 70
     2
  9
$LTSCALE
 40
1.0
  9
$OSMODE
 70
    31
  9
$ATTMODE
 70
     1
  9
$TEXTSIZE
 40
0.0
  9
$TRACEWID
 40
0.05
  9
$TEXTSTYLE
  7
STANDARD
  9
$CLAYER
  8
0
  9
$CELTYPE
  6
CONTINUOUS
  9
$CECOLOR
 62
   256
  9
$DIMSCALE
 40
1.0
  9
$DIMASZ
 40
0.18
  9
$DIMEXO
 40
0.0625
  9
$DIMDLI
 40
0.38
  9
$DIMRND
 40
0.0
  9
$DIMDLE
 40
0.0
  9
$DIMEXE
 40
0.18
  9
$DIMTP
 40
0.0
  9
$DIMTM
 40
0.0
  9
$DIMTXT
 40
0.18
  9
$DIMCEN
 40
0.09
  9
$DIMTSZ
 40
0.0
  9
$DIMTOL
 70
     0
  9
$DIMLIM
 70
     0
  9
$DIMTIH
 70
     1
  9
$DIMTOH
 70
     1
  9
$DIMSE1
 70
     0
  9
$DIMSE2
 70
     0
  9
$DIMTAD
 70
     0
  9
$DIMZIN
 70
     0
  9
$DIMBLK
  1

  9
$DIMASO
 70
     1
  9
$DIMSHO
 70
     1
  9
$DIMPOST
  1

  9
$DIMAPOST
  1

  9
$DIMALT
 70
     0
  9
$DIMALTD
 70
     2
  9
$DIMALTF
 40
25.399999999999999
  9
$DIMLFAC
 40
1.0
  9
$DIMTOFL
 70
     0
  9
$DIMTVP
 40
0.0
  9
$DIMTIX
 70
     0
  9
$DIMSOXD
 70
     0
  9
$DIMSAH
 70
     0
  9
$DIMBLK1
  1

  9
$DIMBLK2
  1

  9
$DIMSTYLE
  2
STANDARD
  9
$DIMCLRD
 70
     0
  9
$DIMCLRE
 70
     0
  9
$DIMCLRT
 70
     0
  9
$DIMTFAC
 40
1.0
  9
$DIMGAP
 40
0.09
  9
$LUNITS
 70
     2
  9
$LUPREC
 70
     4
  9
$SKETCHINC
 40
0.1
  9
$FILLETRAD
 40
0.0
  9
$AUNITS
 70
     0
  9
$AUPREC
 70
     0
  9
$MENU
  1
acad
  9
$ELEVATION
 40
0.0
  9
$PELEVATION
 40
0.0
  9
$THICKNESS
 40
0.0
  9
$LIMCHECK
 70
     0
  9
$BLIPMODE
 70
     0
  9
$CHAMFERA
 40
0.0
  9
$CHAMFERB
 40
0.0
  9
$SKPOLY
 70
     0
  9
$TDCREATE
 40
2454861.6142851161
  9
$TDUPDATE
 40
2454861.6146518639
  9
$TDINDWG
 40
0.0003776042
  9
$TDUSRTIMER
 40
0.0003772454
  9
$USRTIMER
 70
     1
  9
$ANGBASE
 50
0.0
  9
$ANGDIR
 70
     0
  9
$PDMODE
 70
     3
  9
$PDSIZE
 40
-1.0
  9
$PLINEWID
 40
0.0
  9
$COORDS
 70
     2
  9
$SPLFRAME
 70
     0
  9
$SPLINETYPE
 70
     6
  9
$SPLINESEGS
 70
     8
  9
$ATTDIA
 70
     0
  9
$ATTREQ
 70
     1
  9
$HANDLING
 70
     1
  9
$HANDSEED
  5
990
  9
$SURFTAB1
 70
     6
  9
$SURFTAB2
 70
     6
  9
$SURFTYPE
 70
     6
  9
$SURFU
 70
     6
  9
$SURFV
 70
     6
  9
$UCSNAME
  2

  9
$UCSORG
 10
0.0
 20
0.0
 30
0.0
  9
$UCSXDIR
 10
1.0
 20
0.0
 30
0.0
  9
$UCSYDIR
 10
0.0
 20
1.0
 30
0.0
  9
$PUCSNAME
  2

  9
$PUCSORG
 10
0.0
 20
0.0
 30
0.0
  9
$PUCSXDIR
 10
1.0
 20
0.0
 30
0.0
  9
$PUCSYDIR
 10
0.0
 20
1.0
 30
0.0
  9
$USERI1
 70
     0
  9
$USERI2
 70
     0
  9
$USERI3
 70
     0
  9
$USERI4
 70
     0
  9
$USERI5
 70
     0
  9
$USERR1
 40
0.0
  9
$USERR2
 40
0.0
  9
$USERR3
 40
0.0
  9
$USERR4
 40
0.0
  9
$USERR5
 40
0.0
  9
$WORLDVIEW
 70
     1
  9
$SHADEDGE
 70
     3
  9
$SHADEDIF
 70
    70
  9
$TILEMODE
 70
     1
  9
$MAXACTVP
 70
    16
  9
$PLIMCHECK
 70
     0
  9
$PEXTMIN
 10
1.0000000000000000E+020
 20
1.0000000000000000E+020
 30
1.0000000000000000E+020
  9
$PEXTMAX
 10
-1.0000000000000000E+020
 20
-1.0000000000000000E+020
 30
-1.0000000000000000E+020
  9
$PLIMMIN
 10
0.0
 20
0.0
  9
$PLIMMAX
 10
12.0
 20
9.0
  9
$UNITMODE
 70
     0
  9
$VISRETAIN
 70
     0
  9
$PLINEGEN
 70
     1
  9
$PSLTSCALE
 70
     0
  0
ENDSEC
  0
SECTION
  2
TABLES
  0
TABLE
  2
VPORT
 70
     2
  0
VPORT
  2
*ACTIVE
 70
     0
 10
0.0
 20
0.0
 11
1.0
 21
1.0
 12
340.07167596725009
 22
129.85508590090001
 13
0.0
 23
0.0
 14
1.0
 24
1.0
 15
0.0
 25
0.0
 16
0.0
 26
0.0
 36
1.0
 17
0.0
 27
0.0
 37
0.0
 40
784.12635555876591
 41
1.6343490304709141
 42
50.0
 43
0.0
 44
0.0
 50
0.0
 51
0.0
 71
     0
 72
   100
 73
     1
 74
     1
 75
     0
 76
     0
 77
     0
 78
     0
  0
ENDTAB
  0
TABLE
  2
LTYPE
 70
    11
  0
LTYPE
  2
CONTINUOUS
 70
     0
  3
Solid line
 72
    65
 73
     0
 40
0.0
  0
LTYPE
  2
DOT
 70
     0
  3
. . . . . . . . 
 72
    65
 73
     2
 40
1.0
 49
0.0
 49
-1.0
  0
LTYPE
  2
DASHED
 70
     0
  3
___  ___  ___  ___  
 72
    65
 73
     2
 40
4.0
 49
3.0
 49
-1.0
  0
LTYPE
  2
HIDDEN
 70
     0
  3
__ __ __ __ 
 72
    65
 73
     2
 40
3.0
 49
2.0
 49
-1.0
  0
LTYPE
  2
STITCH
 70
     0
  3
_ _ _ _ 
 72
    65
 73
     2
 40
2.0
 49
1.0
 49
-1.0
  0
LTYPE
  2
CENTER
 70
     0
  3
______  __  ______  __  
 72
    65
 73
     4
 40
43.0
 49
40.0
 49
-1.0
 49
1.0
 49
-1.0
  0
LTYPE
  2
DASHDOT
 70
     0
  3
____ . ____ . 
 72
    65
 73
     4
 40
32.0
 49
30.0
 49
-1.0
 49
0.0
 49
-1.0
  0
LTYPE
  2
BORDER
 70
     0
  3
__ . __ . 
 72
    65
 73
     4
 40
22.0
 49
20.0
 49
-1.0
 49
0.0
 49
-1.0
  0
LTYPE
  2
CUTTING
 70
     0
  3
________   ___   ___   
 72
    65
 73
     6
 40
45.0
 49
40.0
 49
-1.0
 49
1.0
 49
-1.0
 49
1.0
 49
-1.0
  0
LTYPE
  2
PHANTOM
 70
     0
  3
______  __  __  
 72
    65
 73
     6
 40
35.0
 49
30.0
 49
-1.0
 49
1.0
 49
-1.0
 49
1.0
 49
-1.0
  0
LTYPE
  2
DIVIDE
 70
     0
  3
____ . . ____ . . 
 72
    65
 73
     6
 40
23.0
 49
20.0
 49
-1.0
 49
0.0
 49
-1.0
 49
0.0
 49
-1.0
  0
ENDTAB
  0
TABLE
  2
LAYER
 70
     3
  0
LAYER
  2
0
 70
     0
 62
     7
  6
CONTINUOUS
  0
LAYER
  2
┌▓È_1
 70
     0
 62
     7
  6
CONTINUOUS
  0
LAYER
  2
Éíû@É³
 70
     0
 62
     7
  6
CONTINUOUS
  0
ENDTAB
  0
TABLE
  2
STYLE
 70
     1
  0
STYLE
  2
STANDARD
 70
     0
 40
0.0
 41
1.0
 50
0.0
 71
     0
 42
0.0
  3
txt
  4
extfont
  0
ENDTAB
  0
TABLE
  2
VIEW
 70
     0
  0
ENDTAB
  0
TABLE
  2
UCS
 70
     0
  0
ENDTAB
  0
TABLE
  2
APPID
 70
     2
  0
APPID
  2
ACAD
 70
     0
  0
APPID
  2
DCO15
 70
     0
  0
ENDTAB
  0
TABLE
  2
DIMSTYLE
 70
     2
  0
DIMSTYLE
  2
STANDARD
 70
     0
  3

  4

  5

  6

  7

 40
1.0
 41
0.18
 42
0.0625
 43
0.38
 44
0.18
 45
0.0
 46
0.0
 47
0.0
 48
0.0
140
0.18
141
0.09
142
0.0
143
25.399999999999999
144
1.0
145
0.0
146
1.0
147
0.09
 71
     0
 72
     0
 73
     1
 74
     1
 75
     0
 76
     0
 77
     0
 78
     0
170
     0
171
     2
172
     0
173
     0
174
     0
175
     0
176
     0
177
     0
178
     0
  0
DIMSTYLE
  2
VELDIM0
 70
     0
  3

  4

  5

  6

  7

 40
1.0
 41
9.0004968642999987
 42
0.0625
 43
0.38
 44
2.0
 45
0.0
 46
10.0
 47
0.0
 48
0.0
140
10.794999837900001
141
0.09
142
0.0
143
25.399999999999999
144
1.0
145
0.0
146
1.0
147
0.09
 71
     0
 72
     0
 73
     0
 74
     0
 75
     0
 76
     0
 77
     0
 78
     8
170
     0
171
     2
172
     0
173
     0
174
     0
175
     0
176
     0
177
     0
178
     0
  0
ENDTAB
  0
ENDSEC
  0
SECTION
  2
BLOCKS
  0
BLOCK
  8
0
  2
$MODEL_SPACE
 70
     0
 10
0.0
 20
0.0
 30
0.0
  3
$MODEL_SPACE
  1

  0
ENDBLK
  5
E
  8
0
  0
BLOCK
 67
     1
  8
0
  2
$PAPER_SPACE
 70
     0
 10
0.0
 20
0.0
 30
0.0
  3
$PAPER_SPACE
  1

  0
ENDBLK
  5
10
 67
     1
  8
0
  0
BLOCK
  8
0
  2
*D0
 70
     1
 10
0.0
 20
0.0
 30
0.0
  3
*D0
  1

  0
TEXT
  5
39
  8
0
 62
     0
 10
676.85468759540004
 20
376.6417669672
 30
0.0
 40
10.794999837900001
  1
21
  0
LINE
  5
3A
  8
0
 62
     0
 10
672.20468749999998
 20
315.0660974402
 30
0.0
 11
672.20468749999998
 21
374.7367669958
 31
0.0
  0
LINE
  5
3B
  8
0
 62
     0
 10
672.20468749999998
 20
372.7367669958
 30
0.0
 11
672.20468749999998
 21
372.7367669958
 31
0.0
  0
LINE
  5
3C
  8
0
 62
     0
 10
672.20468749999998
 20
372.7367669958
 30
0.0
 11
694.20468749999986
 21
372.7367669958
 31
0.0
  0
LINE
  5
3D
  8
0
 62
     0
 10
694.20468749999986
 20
372.7367669958
 30
0.0
 11
672.20468749999998
 21
372.7367669958
 31
0.0
  0
LINE
  5
3E
  8
0
 62
     0
 10
694.20468749999986
 20
372.7367669958
 30
0.0
 11
694.20468749999986
 21
372.7367669958
 31
0.0
  0
LINE
  5
3F
  8
0
 62
     0
 10
694.20468749999986
 20
372.7367669958
 30
0.0
 11
684.20468749999998
 21
372.7367669958
 31
0.0
  0
SOLID
  5
40
  8
0
 62
     0
 10
694.20468749999986
 20
372.7367669958
 30
0.0
 11
685.20419063569989
 21
370.3250910658
 31
0.0
 12
685.20419063569989
 22
375.14844292589999
 32
0.0
 13
687.45431485179995
 23
372.7367669958
 33
0.0
  0
LINE
  5
41
  8
0
 62
     0
 10
672.20468749999998
 20
372.7367669958
 30
0.0
 11
682.20468749999986
 21
372.7367669958
 31
0.0
  0
SOLID
  5
42
  8
0
 62
     0
 10
672.20468749999998
 20
372.7367669958
 30
0.0
 11
681.20518436429995
 21
375.14844292589999
 31
0.0
 12
681.20518436429995
 22
370.3250910658
 32
0.0
 13
678.9550601482
 23
372.7367669958
 33
0.0
  0
ENDBLK
  5
43
  8
0
  0
BLOCK
  8
0
  2
*D1
 70
     1
 10
0.0
 20
0.0
 30
0.0
  3
*D1
  1

  0
TEXT
  5
48
  8
0
 62
     0
 10
697.77851619720002
 20
360.5964229324
 30
0.0
 40
10.794999837900001
  1
10.5
  0
LINE
  5
49
  8
0
 62
     0
 10
694.20468749999986
 20
315.0660974402
 30
0.0
 11
694.20468749999986
 21
358.691422961
 31
0.0
  0
LINE
  5
4A
  8
0
 62
     0
 10
694.20468749999986
 20
356.691422961
 30
0.0
 11
729.52851572039981
 21
356.691422961
 31
0.0
  0
LINE
  5
4B
  8
0
 62
     0
 10
694.20468749999986
 20
356.691422961
 30
0.0
 11
691.42851629259985
 21
356.691422961
 31
0.0
  0
LINE
  5
4C
  8
0
 62
     0
 10
683.20468749999986
 20
356.691422961
 30
0.0
 11
729.52851572039981
 21
356.691422961
 31
0.0
  0
LINE
  5
4D
  8
0
 62
     0
 10
683.20468749999986
 20
356.691422961
 30
0.0
 11
691.42851629259985
 21
356.691422961
 31
0.0
  0
LINE
  5
4E
  8
0
 62
     0
 10
683.20468749999986
 20
356.691422961
 30
0.0
 11
673.20468749999986
 21
356.691422961
 31
0.0
  0
SOLID
  5
4F
  8
0
 62
     0
 10
683.20468749999986
 20
356.691422961
 30
0.0
 11
674.2041906357
 21
354.279747031
 31
0.0
 12
674.2041906357
 22
359.103098891
 32
0.0
 13
676.45431485179995
 23
356.691422961
 33
0.0
  0
LINE
  5
50
  8
0
 62
     0
 10
694.20468749999986
 20
356.691422961
 30
0.0
 11
704.20468749999986
 21
356.691422961
 31
0.0
  0
SOLID
  5
51
  8
0
 62
     0
 10
694.20468749999986
 20
356.691422961
 30
0.0
 11
703.20518436429995
 21
359.103098891
 31
0.0
 12
703.20518436429995
 22
354.279747031
 32
0.0
 13
700.95506014820012
 23
356.691422961
 33
0.0
  0
ENDBLK
  5
52
  8
0
  0
BLOCK
  8
0
  2
BALLON0
 70
     0
 10
0.0
 20
0.0
 30
0.0
  3
BALLON0
  1

  0
INSERT
  5
114
  8
0
  6
CONTINUOUS
  2
*U27
 10
0.0
 20
0.0
 30
0.0
  0
CIRCLE
  5
115
  8
┌▓È_1
 10
313.77109374999998
 20
39.938802083299997
 30
0.0
 40
12.0
  0
LINE
  5
116
  8
Éíû@É³
 10
293.77109374999998
 20
39.938802083299997
 30
0.0
 11
301.77109374999998
 21
39.938802083299997
 31
0.0
  0
LINE
  5
117
  8
Éíû@É³
 10
209.55937499999999
 20
203.10025987340001
 30
0.0
 11
293.77109374999998
 21
39.938802083299997
 31
0.0
  0
SOLID
  5
118
  8
Éíû@É³
 10
209.55937499999999
 20
203.10025987340001
 30
0.0
 11
217.19574969109999
 21
193.53753110080001
 31
0.0
 12
213.9623203358
 22
194.56948778809999
 32
0.0
 13
213.9623203358
 23
194.56948778809999
 33
0.0
  0
SOLID
  5
119
  8
Éíû@É³
 10
213.9623203358
 20
194.56948778809999
 30
0.0
 11
212.93036364849999
 21
191.33605843289999
 31
0.0
 12
209.55937499999999
 22
203.10025987340001
 32
0.0
 13
209.55937499999999
 23
203.10025987340001
 33
0.0
  0
ENDBLK
  5
11A
  8
0
  0
BLOCK
  8
0
  2
BALLON1
 70
     0
 10
0.0
 20
0.0
 30
0.0
  3
BALLON1
  1

  0
INSERT
  5
13C
  8
0
  6
CONTINUOUS
  2
*U31
 10
0.0
 20
0.0
 30
0.0
  0
CIRCLE
  5
13D
  8
┌▓È_1
 10
159.73398437500001
 20
39.938802083299997
 30
0.0
 40
12.0
  0
LINE
  5
13E
  8
Éíû@É³
 10
139.73398437500001
 20
39.938802083299997
 30
0.0
 11
147.73398437500001
 21
39.938802083299997
 31
0.0
  0
LINE
  5
13F
  8
Éíû@É³
 10
81.647674034699989
 20
146.0505208333
 30
0.0
 11
139.73398437500001
 21
39.938802083299997
 31
0.0
  0
SOLID
  5
140
  8
Éíû@É³
 10
81.647674034699989
 20
146.0505208333
 30
0.0
 11
89.514952276000002
 21
136.67683782859999
 31
0.0
 12
86.257321450400013
 22
137.62964494639999
 32
0.0
 13
86.257321450400013
 23
137.62964494639999
 33
0.0
  0
SOLID
  5
141
  8
Éíû@É³
 10
86.257321450400013
 20
137.62964494639999
 30
0.0
 11
85.304514332600007
 21
134.37201412069999
 31
0.0
 12
81.647674034699989
 22
146.0505208333
 32
0.0
 13
81.647674034699989
 23
146.0505208333
 33
0.0
  0
ENDBLK
  5
142
  8
0
  0
BLOCK
  8
0
  2
BALLON2
 70
     0
 10
0.0
 20
0.0
 30
0.0
  3
BALLON2
  1

  0
INSERT
  5
18D
  8
0
  6
CONTINUOUS
  2
*U32
 10
0.0
 20
0.0
 30
0.0
  0
CIRCLE
  5
18E
  8
┌▓È_1
 10
9.5658203124999996
 20
39.938802083299997
 30
0.0
 40
12.0
  0
LINE
  5
18F
  8
Éíû@É³
 10
-10.4341796875
 20
39.938802083299997
 30
0.0
 11
-2.434179687499999
 21
39.938802083299997
 31
0.0
  0
LINE
  5
190
  8
Éíû@É³
 10
-92.190624999999983
 20
164.38330913679999
 30
0.0
 11
-10.4341796875
 21
39.938802083299997
 31
0.0
  0
SOLID
  5
191
  8
Éíû@É³
 10
-92.190624999999983
 20
164.38330913679999
 30
0.0
 11
-83.595842190300004
 21
155.67183920030001
 31
0.0
 12
-86.919479751999987
 22
156.35990413799999
 32
0.0
 13
-86.919479751999987
 23
156.35990413799999
 33
0.0
  0
SOLID
  5
192
  8
Éíû@É³
 10
-86.919479751999987
 20
156.35990413799999
 30
0.0
 11
-87.607544689600005
 21
153.03626657629999
 31
0.0
 12
-92.190624999999983
 22
164.38330913679999
 32
0.0
 13
-92.190624999999983
 23
164.38330913679999
 33
0.0
  0
ENDBLK
  5
193
  8
0
  0
BLOCK
  8
0
  2
*D5
 70
     1
 10
0.0
 20
0.0
 30
0.0
  3
*D5
  1

  0
TEXT
  5
1C8
  8
0
 62
     0
 10
-131.65145477429999
 20
204.71609753550001
 30
0.0
 40
10.794999837900001
  1
40
 50
90.0
  0
LINE
  5
1C9
  8
0
 62
     0
 10
-100.6446275019
 20
231.0660974402
 30
0.0
 11
-129.74645480289999
 21
231.0660974402
 31
0.0
  0
LINE
  5
1CA
  8
0
 62
     0
 10
-127.7464548029
 20
231.0660974402
 30
0.0
 11
-127.7464548029
 21
223.76609724939999
 31
0.0
  0
LINE
  5
1CB
  8
0
 62
     0
 10
-127.7464548029
 20
231.0660974402
 30
0.0
 11
-127.7464548029
 21
198.36609763089999
 31
0.0
  0
LINE
  5
1CC
  8
0
 62
     0
 10
-127.7464548029
 20
191.0660974402
 30
0.0
 11
-127.7464548029
 21
223.76609724939999
 31
0.0
  0
LINE
  5
1CD
  8
0
 62
     0
 10
-127.7464548029
 20
191.0660974402
 30
0.0
 11
-127.7464548029
 21
198.36609763089999
 31
0.0
  0
LINE
  5
1CE
  8
0
 62
     0
 10
-127.7464548029
 20
191.0660974402
 30
0.0
 11
-127.7464548029
 21
181.0660974402
 31
0.0
  0
SOLID
  5
1CF
  8
0
 62
     0
 10
-127.7464548029
 20
191.0660974402
 30
0.0
 11
-125.3347788729
 21
182.06560057589999
 31
0.0
 12
-130.15813073289999
 22
182.06560057589999
 32
0.0
 13
-127.7464548029
 23
184.31572479190001
 33
0.0
  0
LINE
  5
1D0
  8
0
 62
     0
 10
-127.7464548029
 20
231.0660974402
 30
0.0
 11
-127.7464548029
 21
241.0660974402
 31
0.0
  0
SOLID
  5
1D1
  8
0
 62
     0
 10
-127.7464548029
 20
231.0660974402
 30
0.0
 11
-130.15813073289999
 21
240.0665943045
 31
0.0
 12
-125.3347788729
 22
240.0665943045
 32
0.0
 13
-127.7464548029
 23
237.8164700884
 33
0.0
  0
ENDBLK
  5
1D2
  8
0
  0
BLOCK
  8
0
  2
*D6
 70
     1
 10
0.0
 20
0.0
 30
0.0
  3
*D6
  1

  0
TEXT
  5
1D6
  8
0
 62
     0
 10
-131.65145395729999
 20
164.71609753550001
 30
0.0
 40
10.794999837900001
  1
40
 50
90.0
  0
LINE
  5
1D7
  8
0
 62
     0
 10
-100.7606092371
 20
191.0660974402
 30
0.0
 11
-129.74645398600001
 21
191.0660974402
 31
0.0
  0
LINE
  5
1D8
  8
0
 62
     0
 10
-127.74645398600001
 20
191.0660974402
 30
0.0
 11
-127.74645398600001
 21
183.76609724939991
 31
0.0
  0
LINE
  5
1D9
  8
0
 62
     0
 10
-127.74645398600001
 20
191.0660974402
 30
0.0
 11
-127.74645398600001
 21
158.36609763089999
 31
0.0
  0
LINE
  5
1DA
  8
0
 62
     0
 10
-127.74645398600001
 20
151.0660974402
 30
0.0
 11
-127.74645398600001
 21
183.76609724939991
 31
0.0
  0
LINE
  5
1DB
  8
0
 62
     0
 10
-127.74645398600001
 20
151.0660974402
 30
0.0
 11
-127.74645398600001
 21
158.36609763089999
 31
0.0
  0
LINE
  5
1DC
  8
0
 62
     0
 10
-127.74645398600001
 20
151.0660974402
 30
0.0
 11
-127.74645398600001
 21
141.0660974402
 31
0.0
  0
SOLID
  5
1DD
  8
0
 62
     0
 10
-127.74645398600001
 20
151.0660974402
 30
0.0
 11
-125.3347780559
 21
142.06560057589999
 31
0.0
 12
-130.15812991600001
 22
142.06560057589999
 32
0.0
 13
-127.74645398600001
 23
144.31572479190001
 33
0.0
  0
LINE
  5
1DE
  8
0
 62
     0
 10
-127.74645398600001
 20
191.0660974402
 30
0.0
 11
-127.74645398600001
 21
201.0660974402
 31
0.0
  0
SOLID
  5
1DF
  8
0
 62
     0
 10
-127.74645398600001
 20
191.0660974402
 30
0.0
 11
-130.15812991600001
 21
200.0665943045
 31
0.0
 12
-125.3347780559
 22
200.0665943045
 32
0.0
 13
-127.74645398600001
 23
197.8164700884
 33
0.0
  0
ENDBLK
  5
1E0
  8
0
  0
BLOCK
  8
0
  2
*D7
 70
     1
 10
0.0
 20
0.0
 30
0.0
  3
*D7
  1

  0
TEXT
  5
1E4
  8
0
 62
     0
 10
-131.65145318739999
 20
244.71609753550001
 30
0.0
 40
10.794999837900001
  1
40
 50
90.0
  0
LINE
  5
1E5
  8
0
 62
     0
 10
-100.6446275019
 20
271.0660974402
 30
0.0
 11
-129.74645321599999
 21
271.0660974402
 31
0.0
  0
LINE
  5
1E6
  8
0
 62
     0
 10
-127.74645321600001
 20
271.0660974402
 30
0.0
 11
-127.74645321600001
 21
263.76609724939999
 31
0.0
  0
LINE
  5
1E7
  8
0
 62
     0
 10
-127.74645321600001
 20
271.0660974402
 30
0.0
 11
-127.74645321600001
 21
238.36609763089999
 31
0.0
  0
LINE
  5
1E8
  8
0
 62
     0
 10
-127.74645321600001
 20
231.0660974402
 30
0.0
 11
-127.74645321600001
 21
263.76609724939999
 31
0.0
  0
LINE
  5
1E9
  8
0
 62
     0
 10
-127.74645321600001
 20
231.0660974402
 30
0.0
 11
-127.74645321600001
 21
238.36609763089999
 31
0.0
  0
LINE
  5
1EA
  8
0
 62
     0
 10
-127.74645321600001
 20
231.0660974402
 30
0.0
 11
-127.74645321600001
 21
221.0660974402
 31
0.0
  0
SOLID
  5
1EB
  8
0
 62
     0
 10
-127.74645321600001
 20
231.0660974402
 30
0.0
 11
-125.334777286
 21
222.06560057589999
 31
0.0
 12
-130.15812914610001
 22
222.06560057589999
 32
0.0
 13
-127.74645321600001
 23
224.31572479190001
 33
0.0
  0
LINE
  5
1EC
  8
0
 62
     0
 10
-127.74645321600001
 20
271.0660974402
 30
0.0
 11
-127.74645321600001
 21
281.0660974402
 31
0.0
  0
SOLID
  5
1ED
  8
0
 62
     0
 10
-127.74645321600001
 20
271.0660974402
 30
0.0
 11
-130.15812914610001
 21
280.06659430449997
 31
0.0
 12
-125.334777286
 22
280.06659430449997
 32
0.0
 13
-127.74645321600001
 23
277.81647008840002
 33
0.0
  0
ENDBLK
  5
1EE
  8
0
  0
BLOCK
  8
0
  2
*D8
 70
     1
 10
0.0
 20
0.0
 30
0.0
  3
*D8
  1

  0
TEXT
  5
221
  8
0
 62
     0
 10
642.15177086189988
 20
221.54109758320001
 30
0.0
 40
10.794999837900001
  1
120
 50
90.0
  0
LINE
  5
222
  8
0
 62
     0
 10
673.23552350429998
 20
291.0660974402
 30
0.0
 11
644.05677083329988
 21
291.0660974402
 31
0.0
  0
LINE
  5
223
  8
0
 62
     0
 10
646.05677083329999
 20
291.0660974402
 30
0.0
 11
646.05677083329999
 21
246.94109720180001
 31
0.0
  0
LINE
  5
224
  8
0
 62
     0
 10
646.05677083329999
 20
291.0660974402
 30
0.0
 11
646.05677083329999
 21
215.19109767859999
 31
0.0
  0
LINE
  5
225
  8
0
 62
     0
 10
646.05677083329999
 20
171.0660974402
 30
0.0
 11
646.05677083329999
 21
246.94109720180001
 31
0.0
  0
LINE
  5
226
  8
0
 62
     0
 10
646.05677083329999
 20
171.0660974402
 30
0.0
 11
646.05677083329999
 21
215.19109767859999
 31
0.0
  0
LINE
  5
227
  8
0
 62
     0
 10
646.05677083329999
 20
171.0660974402
 30
0.0
 11
646.05677083329999
 21
181.0660974402
 31
0.0
  0
SOLID
  5
228
  8
0
 62
     0
 10
646.05677083329999
 20
171.0660974402
 30
0.0
 11
643.64509490329999
 21
180.0665943045
 31
0.0
 12
648.46844676339992
 22
180.0665943045
 32
0.0
 13
646.05677083329999
 23
177.8164700884
 33
0.0
  0
LINE
  5
229
  8
0
 62
     0
 10
646.05677083329999
 20
291.0660974402
 30
0.0
 11
646.05677083329999
 21
281.0660974402
 31
0.0
  0
SOLID
  5
22A
  8
0
 62
     0
 10
646.05677083329999
 20
291.0660974402
 30
0.0
 11
648.46844676339992
 21
282.06560057590002
 31
0.0
 12
643.64509490329999
 22
282.06560057590002
 32
0.0
 13
646.05677083329999
 23
284.31572479189998
 33
0.0
  0
ENDBLK
  5
22B
  8
0
  0
BLOCK
  8
0
  2
*D9
 70
     1
 10
0.0
 20
0.0
 30
0.0
  3
*D9
  1

  0
TEXT
  5
22F
  8
0
 62
     0
 10
642.15177086189988
 20
149.21609753550001
 30
0.0
 40
10.794999837900001
  1
31
 50
90.0
  0
LINE
  5
230
  8
0
 62
     0
 10
672.05677083329999
 20
171.0660974402
 30
0.0
 11
644.05677083329988
 21
171.0660974402
 31
0.0
  0
LINE
  5
231
  8
0
 62
     0
 10
646.05677083329999
 20
171.0660974402
 30
0.0
 11
646.05677083329999
 21
168.26609724939999
 31
0.0
  0
LINE
  5
232
  8
0
 62
     0
 10
646.05677083329999
 20
171.0660974402
 30
0.0
 11
646.05677083329999
 21
142.86609763089999
 31
0.0
  0
LINE
  5
233
  8
0
 62
     0
 10
646.05677083329999
 20
140.0660974402
 30
0.0
 11
646.05677083329999
 21
168.26609724939999
 31
0.0
  0
LINE
  5
234
  8
0
 62
     0
 10
646.05677083329999
 20
140.0660974402
 30
0.0
 11
646.05677083329999
 21
142.86609763089999
 31
0.0
  0
LINE
  5
235
  8
0
 62
     0
 10
646.05677083329999
 20
140.0660974402
 30
0.0
 11
646.05677083329999
 21
130.0660974402
 31
0.0
  0
SOLID
  5
236
  8
0
 62
     0
 10
646.05677083329999
 20
140.0660974402
 30
0.0
 11
648.46844676339992
 21
131.06560057589999
 31
0.0
 12
643.64509490329999
 22
131.06560057589999
 32
0.0
 13
646.05677083329999
 23
133.31572479190001
 33
0.0
  0
LINE
  5
237
  8
0
 62
     0
 10
646.05677083329999
 20
171.0660974402
 30
0.0
 11
646.05677083329999
 21
181.0660974402
 31
0.0
  0
SOLID
  5
238
  8
0
 62
     0
 10
646.05677083329999
 20
171.0660974402
 30
0.0
 11
643.64509490329999
 21
180.0665943045
 31
0.0
 12
648.46844676339992
 22
180.0665943045
 32
0.0
 13
646.05677083329999
 23
177.8164700884
 33
0.0
  0
ENDBLK
  5
239
  8
0
  0
BLOCK
  8
0
  2
*D10
 70
     1
 10
0.0
 20
0.0
 30
0.0
  3
*D10
  1

  0
TEXT
  5
23E
  8
0
 62
     0
 10
639.04101505279993
 20
360.5964229324
 30
0.0
 40
10.794999837900001
  1
10.5
  0
LINE
  5
23F
  8
0
 62
     0
 10
683.20468749999986
 20
330.691422961
 30
0.0
 11
683.20468749999986
 21
358.691422961
 31
0.0
  0
LINE
  5
240
  8
0
 62
     0
 10
683.20468749999986
 20
356.691422961
 30
0.0
 11
670.79101457599995
 21
356.691422961
 31
0.0
  0
LINE
  5
241
  8
0
 62
     0
 10
683.20468749999986
 20
356.691422961
 30
0.0
 11
632.69101514819999
 21
356.691422961
 31
0.0
  0
LINE
  5
242
  8
0
 62
     0
 10
672.20468749999998
 20
356.691422961
 30
0.0
 11
670.79101457599995
 21
356.691422961
 31
0.0
  0
LINE
  5
243
  8
0
 62
     0
 10
672.20468749999998
 20
356.691422961
 30
0.0
 11
632.69101514819999
 21
356.691422961
 31
0.0
  0
LINE
  5
244
  8
0
 62
     0
 10
672.20468749999998
 20
356.691422961
 30
0.0
 11
662.20468749999986
 21
356.691422961
 31
0.0
  0
SOLID
  5
245
  8
0
 62
     0
 10
672.20468749999998
 20
356.691422961
 30
0.0
 11
663.2041906357
 21
354.279747031
 31
0.0
 12
663.2041906357
 22
359.103098891
 32
0.0
 13
665.45431485179995
 23
356.691422961
 33
0.0
  0
LINE
  5
246
  8
0
 62
     0
 10
683.20468749999986
 20
356.691422961
 30
0.0
 11
693.20468749999998
 21
356.691422961
 31
0.0
  0
SOLID
  5
247
  8
0
 62
     0
 10
683.20468749999986
 20
356.691422961
 30
0.0
 11
692.20518436429995
 21
359.103098891
 31
0.0
 12
692.20518436429995
 22
354.279747031
 32
0.0
 13
689.95506014820012
 23
356.691422961
 33
0.0
  0
ENDBLK
  5
248
  8
0
  0
BLOCK
  8
0
  2
*D11
 70
     1
 10
0.0
 20
0.0
 30
0.0
  3
*D11
  1

  0
TEXT
  5
258
  8
0
 62
     0
 10
150.83437581059999
 20
386.58017867989997
 30
0.0
 40
10.794999837900001
  1
300   1000/é╗é╠æ╝
  0
LINE
  5
259
  8
0
 62
     0
 10
504.80937499999987
 20
326.0660974402
 30
0.0
 11
504.80937499999987
 21
384.67517870850003
 31
0.0
  0
LINE
  5
25A
  8
0
 62
     0
 10
-95.190624999999997
 20
326.0660974402
 30
0.0
 11
-95.190624999999997
 21
384.67517870850003
 31
0.0
  0
LINE
  5
25B
  8
0
 62
     0
 10
504.80937499999987
 20
382.67517870849991
 30
0.0
 11
265.13437409400001
 21
382.67517870849991
 31
0.0
  0
LINE
  5
25C
  8
0
 62
     0
 10
504.80937499999987
 20
382.67517870849991
 30
0.0
 11
144.484375906
 21
382.67517870849991
 31
0.0
  0
LINE
  5
25D
  8
0
 62
     0
 10
-95.190624999999997
 20
382.67517870849991
 30
0.0
 11
265.13437409400001
 21
382.67517870849991
 31
0.0
  0
LINE
  5
25E
  8
0
 62
     0
 10
-95.190624999999997
 20
382.67517870849991
 30
0.0
 11
144.484375906
 21
382.67517870849991
 31
0.0
  0
LINE
  5
25F
  8
0
 62
     0
 10
-95.190624999999997
 20
382.67517870849991
 30
0.0
 11
-85.190624999999997
 21
382.67517870849991
 31
0.0
  0
SOLID
  5
260
  8
0
 62
     0
 10
-95.190624999999997
 20
382.67517870849991
 30
0.0
 11
-86.190128135699993
 21
385.08685463849997
 31
0.0
 12
-86.190128135699993
 22
380.26350277849991
 32
0.0
 13
-88.440252351799998
 23
382.67517870849991
 33
0.0
  0
LINE
  5
261
  8
0
 62
     0
 10
504.80937499999987
 20
382.67517870849991
 30
0.0
 11
494.80937499999987
 21
382.67517870849991
 31
0.0
  0
SOLID
  5
262
  8
0
 62
     0
 10
504.80937499999987
 20
382.67517870849991
 30
0.0
 11
495.80887813570001
 21
380.26350277849991
 31
0.0
 12
495.80887813570001
 22
385.08685463849997
 32
0.0
 13
498.05900235180002
 23
382.67517870849991
 33
0.0
  0
ENDBLK
  5
263
  8
0
  0
BLOCK
  8
0
  2
*D12
 70
     1
 10
0.0
 20
0.0
 30
0.0
  3
*D12
  1

  0
TEXT
  5
292
  8
0
 62
     0
 10
-131.65145349229999
 20
284.71609753550001
 30
0.0
 40
10.794999837900001
  1
40
 50
90.0
  0
LINE
  5
293
  8
0
 62
     0
 10
-101.2245361777
 20
311.0660974402
 30
0.0
 11
-129.74645352089999
 21
311.0660974402
 31
0.0
  0
LINE
  5
294
  8
0
 62
     0
 10
-127.7464535209
 20
311.0660974402
 30
0.0
 11
-127.7464535209
 21
303.76609724939999
 31
0.0
  0
LINE
  5
295
  8
0
 62
     0
 10
-127.7464535209
 20
311.0660974402
 30
0.0
 11
-127.7464535209
 21
278.36609763090001
 31
0.0
  0
LINE
  5
296
  8
0
 62
     0
 10
-127.7464535209
 20
271.0660974402
 30
0.0
 11
-127.7464535209
 21
303.76609724939999
 31
0.0
  0
LINE
  5
297
  8
0
 62
     0
 10
-127.7464535209
 20
271.0660974402
 30
0.0
 11
-127.7464535209
 21
278.36609763090001
 31
0.0
  0
LINE
  5
298
  8
0
 62
     0
 10
-127.7464535209
 20
271.0660974402
 30
0.0
 11
-127.7464535209
 21
261.0660974402
 31
0.0
  0
SOLID
  5
299
  8
0
 62
     0
 10
-127.7464535209
 20
271.0660974402
 30
0.0
 11
-125.3347775909
 21
262.06560057590002
 31
0.0
 12
-130.15812945089999
 22
262.06560057590002
 32
0.0
 13
-127.7464535209
 23
264.31572479189998
 33
0.0
  0
LINE
  5
29A
  8
0
 62
     0
 10
-127.7464535209
 20
311.0660974402
 30
0.0
 11
-127.7464535209
 21
321.0660974402
 31
0.0
  0
SOLID
  5
29B
  8
0
 62
     0
 10
-127.7464535209
 20
311.0660974402
 30
0.0
 11
-130.15812945089999
 21
320.06659430449997
 31
0.0
 12
-125.3347775909
 22
320.06659430449997
 32
0.0
 13
-127.7464535209
 23
317.81647008840002
 33
0.0
  0
ENDBLK
  5
29C
  8
0
  0
BLOCK
  8
0
  2
*D13
 70
     1
 10
0.0
 20
0.0
 30
0.0
  3
*D13
  1

  0
TEXT
  5
2A0
  8
0
 62
     0
 10
-150.6736011982
 20
221.53330927979999
 30
0.0
 40
10.794999837900001
  1
182
 50
90.0
  0
LINE
  5
2A1
  8
0
 62
     0
 10
-99.190624999999997
 20
322.0660974402
 30
0.0
 11
-148.7686012268
 21
322.0660974402
 31
0.0
  0
LINE
  5
2A2
  8
0
 62
     0
 10
-99.190624999999997
 20
140.0505208333
 30
0.0
 11
-148.7686012268
 21
140.0505208333
 31
0.0
  0
LINE
  5
2A3
  8
0
 62
     0
 10
-146.7686012268
 20
322.0660974402
 30
0.0
 11
-146.7686012268
 21
246.9333088983
 31
0.0
  0
LINE
  5
2A4
  8
0
 62
     0
 10
-146.7686012268
 20
322.0660974402
 30
0.0
 11
-146.7686012268
 21
215.1833093752
 31
0.0
  0
LINE
  5
2A5
  8
0
 62
     0
 10
-146.7686012268
 20
140.0505208333
 30
0.0
 11
-146.7686012268
 21
246.9333088983
 31
0.0
  0
LINE
  5
2A6
  8
0
 62
     0
 10
-146.7686012268
 20
140.0505208333
 30
0.0
 11
-146.7686012268
 21
215.1833093752
 31
0.0
  0
LINE
  5
2A7
  8
0
 62
     0
 10
-146.7686012268
 20
140.0505208333
 30
0.0
 11
-146.7686012268
 21
150.0505208333
 31
0.0
  0
SOLID
  5
2A8
  8
0
 62
     0
 10
-146.7686012268
 20
140.0505208333
 30
0.0
 11
-149.1802771568
 21
149.05101769769999
 31
0.0
 12
-144.3569252968
 22
149.05101769769999
 32
0.0
 13
-146.7686012268
 23
146.80089348160001
 33
0.0
  0
LINE
  5
2A9
  8
0
 62
     0
 10
-146.7686012268
 20
322.0660974402
 30
0.0
 11
-146.7686012268
 21
312.0660974402
 31
0.0
  0
SOLID
  5
2AA
  8
0
 62
     0
 10
-146.7686012268
 20
322.0660974402
 30
0.0
 11
-144.3569252968
 21
313.06560057590002
 31
0.0
 12
-149.1802771568
 22
313.06560057590002
 32
0.0
 13
-146.7686012268
 23
315.31572479189998
 33
0.0
  0
ENDBLK
  5
2AB
  8
0
  0
BLOCK
  8
0
  2
*D14
 70
     1
 10
0.0
 20
0.0
 30
0.0
  3
*D14
  1

  0
TEXT
  5
2AF
  8
0
 62
     0
 10
642.15177063370004
 20
300.21609753550001
 30
0.0
 40
10.794999837900001
  1
31
 50
90.0
  0
LINE
  5
2B0
  8
0
 62
     0
 10
679.20468749999986
 20
322.0660974402
 30
0.0
 11
644.05677060510004
 21
322.0660974402
 31
0.0
  0
LINE
  5
2B1
  8
0
 62
     0
 10
646.05677060510004
 20
322.0660974402
 30
0.0
 11
646.05677060510004
 21
319.26609724939999
 31
0.0
  0
LINE
  5
2B2
  8
0
 62
     0
 10
646.05677060510004
 20
322.0660974402
 30
0.0
 11
646.05677060510004
 21
293.86609763090001
 31
0.0
  0
LINE
  5
2B3
  8
0
 62
     0
 10
646.05677060510004
 20
291.0660974402
 30
0.0
 11
646.05677060510004
 21
319.26609724939999
 31
0.0
  0
LINE
  5
2B4
  8
0
 62
     0
 10
646.05677060510004
 20
291.0660974402
 30
0.0
 11
646.05677060510004
 21
293.86609763090001
 31
0.0
  0
LINE
  5
2B5
  8
0
 62
     0
 10
646.05677060510004
 20
291.0660974402
 30
0.0
 11
646.05677060510004
 21
281.0660974402
 31
0.0
  0
SOLID
  5
2B6
  8
0
 62
     0
 10
646.05677060510004
 20
291.0660974402
 30
0.0
 11
648.46844653510004
 21
282.06560057590002
 31
0.0
 12
643.64509467510004
 22
282.06560057590002
 32
0.0
 13
646.05677060510004
 23
284.31572479189998
 33
0.0
  0
LINE
  5
2B7
  8
0
 62
     0
 10
646.05677060510004
 20
322.0660974402
 30
0.0
 11
646.05677060510004
 21
332.0660974402
 31
0.0
  0
SOLID
  5
2B8
  8
0
 62
     0
 10
646.05677060510004
 20
322.0660974402
 30
0.0
 11
643.64509467510004
 21
331.06659430449997
 31
0.0
 12
648.46844653510004
 22
331.06659430449997
 32
0.0
 13
646.05677060510004
 23
328.81647008840002
 33
0.0
  0
ENDBLK
  5
2B9
  8
0
  0
BLOCK
  8
0
  2
*U15
 70
     1
 10
0.0
 20
0.0
 30
0.0
  3
*U15
  1

  0
TEXT
  5
2EC
  8
┌▓È_1
  6
CONTINUOUS
 62
     5
 10
738.02460189547708
 20
336.39964246830613
 30
0.0
 40
8.0962496758000011
  1
4-âË3.2éÿâË7ÄMëƒéÁ
  0
ENDBLK
  5
2EE
  8
0
  0
BLOCK
  8
0
  2
*U16
 70
     1
 10
0.0
 20
0.0
 30
0.0
  3
*U16
  1

  0
TEXT
  5
2F0
  8
┌▓È_1
  6
CONTINUOUS
 62
     5
 10
704.51597252110003
 20
-201.65388680911019
 30
0.0
 40
5.9972220420999998
  1
ö┬   î·
  0
ENDBLK
  5
2F2
  8
0
  0
BLOCK
  8
0
  2
*U17
 70
     1
 10
0.0
 20
0.0
 30
0.0
  3
*U17
  1

  0
TEXT
  5
2F4
  8
┌▓È_1
  6
CONTINUOUS
 62
     5
 10
740.96503531550002
 20
-222.70850361076191
 30
0.0
 40
5.9972220420999998
  1
òiû╝
  0
ENDBLK
  5
2F6
  8
0
  0
BLOCK
  8
0
  2
*U18
 70
     1
 10
0.0
 20
0.0
 30
0.0
  3
*U18
  1

  0
TEXT
  5
2F8
  8
┌▓È_1
  6
CONTINUOUS
 62
     5
 10
741.73472252110003
 20
-200.8938519304964
 30
0.0
 40
5.9972220420999998
  1
òiöÈ
  0
ENDBLK
  5
2FA
  8
0
  0
BLOCK
  8
0
  2
*U19
 70
     1
 10
0.0
 20
0.0
 30
0.0
  3
*U19
  1

  0
TEXT
  5
2FC
  8
┌▓È_1
  6
CONTINUOUS
 62
     5
 10
740.96503531550002
 20
-244.6550099205964
 30
0.0
 40
5.9972220420999998
  1
É}öÈ
  0
ENDBLK
  5
2FE
  8
0
  0
BLOCK
  8
0
  2
*U20
 70
     1
 10
0.0
 20
0.0
 30
0.0
  3
*U20
  1

  0
TEXT
  5
300
  8
┌▓È_1
  6
CONTINUOUS
 62
     5
 10
668.19975002490003
 20
-212.1118381117447
 30
0.0
 40
5.9972220420999998
  1
ò\ïL
  0
ENDBLK
  5
302
  8
0
  0
BLOCK
  8
0
  2
*U21
 70
     1
 10
0.0
 20
0.0
 30
0.0
  3
*U21
  1

  0
TEXT
  5
304
  8
┌▓È_1
  6
CONTINUOUS
 62
     5
 10
706.93463622859986
 20
-212.1118381117447
 30
0.0
 40
5.9972220420999998
  1
ò\ïL
  0
ENDBLK
  5
306
  8
0
  0
BLOCK
  8
0
  2
*U22
 70
     1
 10
0.0
 20
0.0
 30
0.0
  3
*U22
  1

  0
TEXT
  5
308
  8
┌▓È_1
  6
CONTINUOUS
 62
     5
 10
776.23502604169994
 20
-249.85142431259999
 30
0.0
 40
5.9972220420999998
  1
éoéXéTü|éTü|é`
  0
ENDBLK
  5
30A
  8
0
  0
BLOCK
  8
0
  2
*U23
 70
     1
 10
0.0
 20
0.0
 30
0.0
  3
*U23
  1

  0
TEXT
  5
30C
  8
┌▓È_1
  6
CONTINUOUS
 62
     5
 10
703.03294270829997
 20
-224.0733483589274
 30
0.0
 40
5.9972220420999998
  1
Ä┌   ôx
  0
ENDBLK
  5
30E
  8
0
  0
BLOCK
  8
0
  2
*U24
 70
     1
 10
0.0
 20
0.0
 30
0.0
  3
*U24
  1

  0
TEXT
  5
310
  8
┌▓È_1
  6
CONTINUOUS
 62
     5
 10
666.4159725211
 20
-200.92429468197921
 30
0.0
 40
5.9972220420999998
  1
ìÌ   Ä┐
  0
ENDBLK
  5
312
  8
0
  0
BLOCK
  8
0
  2
*U25
 70
     1
 10
0.0
 20
0.0
 30
0.0
  3
*U25
  1

  0
TEXT
  5
314
  8
┌▓È_1
  6
CONTINUOUS
 62
     5
 10
763.82942468750002
 20
-228.6337694172376
 30
0.0
 40
5.9972220420999998
  1
âpâCâvÆI  ëíòté»  üiéTû{üj
  0
ENDBLK
  5
316
  8
0
  0
BLOCK
  8
0
  2
*U26
 70
     1
 10
0.0
 20
0.0
 30
0.0
  3
*U26
  1

  0
TEXT
  5
318
  8
┌▓È_1
  6
CONTINUOUS
 62
     5
 10
764.32942468750002
 20
-207.25384663610001
 30
0.0
 40
5.9972220420999998
  1
éoéXéTü|éT
  0
ENDBLK
  5
31A
  8
0
  0
BLOCK
  8
0
  2
*U27
 70
     1
 10
0.0
 20
0.0
 30
0.0
  3
*U27
  1

  0
TEXT
  5
31C
  8
┌▓È_1
  6
CONTINUOUS
 10
311.80040417380002
 20
36.605052216799997
 30
0.0
 40
8.0962496758000011
  1
3
 41
0.8
  0
ENDBLK
  5
31E
  8
0
  0
BLOCK
  8
0
  2
*U28
 70
     1
 10
0.0
 20
0.0
 30
0.0
  3
*U28
  1

  0
TEXT
  5
320
  8
┌▓È_1
  6
CONTINUOUS
 62
     5
 10
583.03294270829986
 20
-223.266289264562
 30
0.0
 40
5.9972220420999998
  1
É¦îv
  0
ENDBLK
  5
322
  8
0
  0
BLOCK
  8
0
  2
*U29
 70
     1
 10
0.0
 20
0.0
 30
0.0
  3
*U29
  1

  0
TEXT
  5
324
  8
┌▓È_1
  6
CONTINUOUS
 62
     5
 10
583.03294270829986
 20
-234.27212940852741
 30
0.0
 40
5.9972220420999998
  1
É╗É}
  0
ENDBLK
  5
326
  8
0
  0
BLOCK
  8
0
  2
*U30
 70
     1
 10
0.0
 20
0.0
 30
0.0
  3
*U30
  1

  0
TEXT
  5
328
  8
┌▓È_1
  6
CONTINUOUS
 62
     5
 10
586.84811127800697
 20
-212.82042025199999
 30
0.0
 40
5.9972220420999998
  1
H8.5.30
  0
ENDBLK
  5
32A
  8
0
  0
BLOCK
  8
0
  2
*U31
 70
     1
 10
0.0
 20
0.0
 30
0.0
  3
*U31
  1

  0
TEXT
  5
32C
  8
┌▓È_1
  6
CONTINUOUS
 10
157.76329479879999
 20
36.605052216799997
 30
0.0
 40
8.0962496758000011
  1
2
 41
0.8
  0
ENDBLK
  5
32E
  8
0
  0
BLOCK
  8
0
  2
*U32
 70
     1
 10
0.0
 20
0.0
 30
0.0
  3
*U32
  1

  0
TEXT
  5
330
  8
┌▓È_1
  6
CONTINUOUS
 10
8.2520272617000003
 20
36.605052216799997
 30
0.0
 40
8.0962496758000011
  1
1
 41
0.8
  0
ENDBLK
  5
332
  8
0
  0
BLOCK
  8
0
  2
*U33
 70
     1
 10
0.0
 20
0.0
 30
0.0
  3
*U33
  1

  0
TEXT
  5
334
  8
┌▓È_1
  6
CONTINUOUS
 62
     5
 10
589.67928324849993
 20
-252.61233410781071
 30
0.0
 40
10.794999837900001
  1
èöÄ«ë´Äð
  0
ENDBLK
  5
336
  8
0
  0
BLOCK
  8
0
  2
*U34
 70
     1
 10
0.0
 20
0.0
 30
0.0
  3
*U34
  1

  0
TEXT
  5
338
  8
┌▓È_1
  6
CONTINUOUS
 62
     5
 10
615.32741066260007
 20
-57.23053368137613
 30
0.0
 40
7.1966662884000003
  1
òÔï^Râxâïâgé═üAæSÆÀéUéOéPê╚ÅÒé╔Äµòté»éÚ
  0
TEXT
  5
339
  8
┌▓È_1
  6
CONTINUOUS
 62
     5
 10
615.32741066260007
 20
-69.590290504939588
 30
0.0
 40
7.1966662884000003
  1
                       üiò╩Æìòié═Å£é^Rüj
  0
ENDBLK
  5
33B
  8
0
  0
BLOCK
  8
0
  2
*U35
 70
     1
 10
0.0
 20
0.0
 30
0.0
  3
*U35
  1

  0
TEXT
  5
33D
  8
┌▓È_1
  6
CONTINUOUS
 62
     5
 10
576.85077039930002
 20
-141.24599567765841
 30
0.0
 40
5.9972220420999998
  1
   3     òÔï^Râxâïâg    üiéTû{ùpüj        SUS430   0.7t             1/0   
  0
ENDBLK
  5
33F
  8
0
  0
BLOCK
  8
0
  2
*U36
 70
     1
 10
0.0
 20
0.0
 30
0.0
  3
*U36
  1

  0
TEXT
  5
341
  8
┌▓È_1
  6
CONTINUOUS
 62
     5
 10
580.91627604170003
 20
-175.72640092982741
 30
0.0
 40
5.9972220420999998
  1
  1       Ä¾é»  üiëíòté»ùpüj            SUS304   0.7t              2
  0
ENDBLK
  5
343
  8
0
  0
BLOCK
  8
0
  2
*U37
 70
     1
 10
0.0
 20
0.0
 30
0.0
  3
*U37
  1

  0
TEXT
  5
345
  8
┌▓È_1
  6
CONTINUOUS
 62
     5
 10
580.91627604170003
 20
-162.10697737293751
 30
0.0
 40
5.9972220420999998
  1
  2             âpâCâv                  SUS304   âË10x0.4t         5
  0
ENDBLK
  5
347
  8
0
  0
BLOCK
  8
0
  2
*U38
 70
     1
 10
0.0
 20
0.0
 30
0.0
  3
*U38
  1

  0
TEXT
  5
349
  8
┌▓È_1
  6
CONTINUOUS
 62
     5
 10
583.03294270829986
 20
-187.0085322077274
 30
0.0
 40
5.9972220420999998
  1
É}öÈ          òi     û╝                     ìÌ     Ä┐            Éöù╩ 
  0
ENDBLK
  5
34B
  8
0
  0
BLOCK
  8
0
  2
*U39
 70
     1
 10
0.0
 20
0.0
 30
0.0
  3
*U39
  1

  0
TEXT
  5
34D
  8
┌▓È_1
  6
CONTINUOUS
 62
     5
 10
629.19975002490003
 20
-212.1118381117447
 30
0.0
 40
5.9972220420999998
  1
ò\ïL
  0
ENDBLK
  5
34F
  8
0
  0
BLOCK
  8
0
  2
*U40
 70
     1
 10
0.0
 20
0.0
 30
0.0
  3
*U40
  1

  0
TEXT
  5
351
  8
┌▓È_1
  6
CONTINUOUS
 62
     5
 10
584.81847252110003
 20
-200.8962796378309
 30
0.0
 40
5.9972220420999998
  1
ô·   òt
  0
ENDBLK
  5
353
  8
0
  0
BLOCK
  8
0
  2
*U41
 70
     1
 10
0.0
 20
0.0
 30
0.0
  3
*U41
  1

  0
TEXT
  5
355
  8
┌▓È_1
  6
CONTINUOUS
 62
     5
 10
625.03513918780004
 20
-201.33127100872741
 30
0.0
 40
5.9972220420999998
  1
ê§   Éö
  0
ENDBLK
  5
357
  8
0
  0
ENDSEC
  0
SECTION
  2
ENTITIES
  0
LINE
  5
2F
  8
┌▓È_1
 62
     5
 10
201.05937499999999
 20
316.44644992809998
 30
0.0
 11
208.55937499999999
 21
316.44644992809998
 31
0.0
  0
ARC
  5
30
  8
┌▓È_1
 62
     5
 10
208.55937499999999
 20
315.44644992809998
 30
0.0
 40
1.0
 50
0.0
 51
90.0
  0
LINE
  5
31
  8
┌▓È_1
 62
     5
 10
499.30937499999987
 20
316.91609744020002
 30
0.0
 11
501.00937499999998
 21
316.91609744020002
 31
0.0
  0
ARC
  5
32
  8
┌▓È_1
 62
     5
 10
501.00937499999998
 20
317.71609744019997
 30
0.0
 40
0.8
 50
270.0
 51
0.0
  0
LINE
  5
33
  8
┌▓È_1
 62
     5
 10
503.30937499999987
 20
322.0660974402
 30
0.0
 11
504.80937499999987
 21
322.0660974402
 31
0.0
  0
ARC
  5
34
  8
┌▓È_1
 62
     5
 10
503.30937499999987
 20
320.5660974402
 30
0.0
 40
1.5
 50
90.0
 51
180.0
  0
LINE
  5
35
  8
┌▓È_1
 62
     5
 10
501.80937499999999
 20
317.71609744019997
 30
0.0
 11
501.80937499999999
 21
320.5660974402
 31
0.0
  0
DIMENSION
  5
45
  8
Éíû@É³
  2
*D0
 10
672.20468749999998
 20
372.7367669958
 30
0.0
 11
683.20468749999986
 21
372.7367669958
 31
0.0
 70
   128
  1
21
 13
672.20468749999998
 23
311.0660974402
 33
0.0
 14
694.20468749999986
 24
311.0660974402
 34
0.0
 50
180.0
  0
DIMENSION
  5
53
  8
Éíû@É³
  2
*D1
 10
694.20468749999986
 20
356.691422961
 30
0.0
 11
710.47851600649994
 21
356.691422961
 31
0.0
 70
   128
  1
10.5
 13
694.20468749999986
 23
311.0660974402
 33
0.0
 14
683.20468749999986
 24
326.691422961
 34
0.0
  0
INSERT
  5
54
  8
0
  6
CONTINUOUS
  2
*U15
 10
0.0
 20
0.0
 30
0.0
  0
LINE
  5
55
  8
┌▓È_1
 62
     5
 10
694.20468749999986
 20
358.77490720380001
 30
0.0
 11
694.20468749999986
 21
374.40567643460003
 31
0.0
  0
LINE
  5
56
  8
Éíû@É³
 62
     5
 10
736.23671694160009
 20
331.1531404877
 30
0.0
 11
837.35755208329999
 21
331.1531404877
 31
0.0
  0
CIRCLE
  5
57
  8
┌▓È_1
 62
     5
 10
683.20468749999986
 20
151.0660974402
 30
0.0
 40
6.0
  0
CIRCLE
  5
58
  8
┌▓È_1
 62
     5
 10
683.20468749999986
 20
151.0660974402
 30
0.0
 40
5.1500000000000004
  0
ARC
  5
59
  8
┌▓È_1
 62
     5
 10
683.20468749999986
 20
151.0660974402
 30
0.0
 40
11.0
 50
180.0
 51
0.0
  0
LINE
  5
5A
  8
┌▓È_1
 62
     5
 10
675.42725151910008
 20
191.0660974402
 30
0.0
 11
691.30225151909997
 21
191.0660974402
 31
0.0
  0
LINE
  5
5B
  8
┌▓È_1
 62
     5
 10
683.20468749999986
 20
134.7882654089
 30
0.0
 11
683.20468749999986
 21
211.0660974402
 31
0.0
  0
LINE
  5
5C
  8
┌▓È_1
 62
     5
 10
693.51742909049995
 20
211.0660974402
 30
0.0
 11
693.50468726780002
 21
151.06391017370001
 31
0.0
  0
LINE
  5
5D
  8
┌▓È_1
 62
     5
 10
694.20468749999986
 20
211.0660974402
 30
0.0
 11
694.20468749999986
 21
151.0660974402
 31
0.0
  0
CIRCLE
  5
5E
  8
┌▓È_1
 62
     5
 10
683.20468749999986
 20
271.0660974402
 30
0.0
 40
6.0
  0
CIRCLE
  5
5F
  8
┌▓È_1
 62
     5
 10
683.20468749999986
 20
231.0660974402
 30
0.0
 40
5.1500000000000004
  0
LINE
  5
60
  8
┌▓È_1
 62
     5
 10
691.77262188949987
 20
231.0660974402
 30
0.0
 11
674.83928855609986
 21
231.0660974402
 31
0.0
  0
CIRCLE
  5
61
  8
┌▓È_1
 62
     5
 10
683.20468749999986
 20
191.0660974402
 30
0.0
 40
5.1500000000000004
  0
CIRCLE
  5
62
  8
┌▓È_1
 62
     5
 10
683.20468749999986
 20
191.0660974402
 30
0.0
 40
6.0
  0
LINE
  5
63
  8
┌▓È_1
 62
     5
 10
690.11276041669987
 20
171.0660974402
 30
0.0
 11
676.05677083329999
 21
171.0660974402
 31
0.0
  0
CIRCLE
  5
64
  8
┌▓È_1
 62
     5
 10
683.20468749999986
 20
171.0660974402
 30
0.0
 40
3.5
  0
CIRCLE
  5
65
  8
┌▓È_1
 62
     5
 10
683.20468749999986
 20
171.0660974402
 30
0.0
 40
1.6000000000000001
  0
CIRCLE
  5
66
  8
┌▓È_1
 62
     5
 10
683.20468749999986
 20
231.0660974402
 30
0.0
 40
6.0
  0
ARC
  5
67
  8
┌▓È_1
 62
     5
 10
683.20468749999986
 20
151.0660974402
 30
0.0
 40
10.300000000000001
 50
180.0
 51
0.0
  0
LINE
  5
68
  8
┌▓È_1
 62
     5
 10
-89.690624999999983
 20
316.0660974402
 30
0.0
 11
49.809375000000003
 21
316.0660974402
 31
0.0
  0
LINE
  5
69
  8
┌▓È_1
 62
     5
 10
-89.690624999999983
 20
316.91609744020002
 30
0.0
 11
-91.390624999999986
 21
316.91609744020002
 31
0.0
  0
ARC
  5
6A
  8
┌▓È_1
 62
     5
 10
-91.390624999999986
 20
317.71609744019997
 30
0.0
 40
0.8
 50
180.0
 51
270.0
  0
LINE
  5
6B
  8
┌▓È_1
 62
     5
 10
-92.190624999999983
 20
317.71609744019997
 30
0.0
 11
-92.190624999999983
 21
320.5660974402
 31
0.0
  0
ARC
  5
6C
  8
┌▓È_1
 62
     5
 10
-93.690624999999997
 20
320.5660974402
 30
0.0
 40
1.5
 50
0.0
 51
90.0
  0
LINE
  5
6D
  8
┌▓È_1
 62
     5
 10
-93.690624999999997
 20
322.0660974402
 30
0.0
 11
-95.190624999999997
 21
322.0660974402
 31
0.0
  0
LINE
  5
6E
  8
┌▓È_1
 62
     5
 10
209.34425522070001
 20
316.0660974402
 30
0.0
 11
339.80937499999999
 21
316.0660974402
 31
0.0
  0
ARC
  5
6F
  8
┌▓È_1
 62
     5
 10
201.05937499999999
 20
315.44644992809998
 30
0.0
 40
1.0
 50
90.0
 51
180.0
  0
LINE
  5
70
  8
┌▓È_1
 62
     5
 10
503.30937499999987
 20
140.0505208333
 30
0.0
 11
504.80937499999987
 21
140.0505208333
 31
0.0
  0
ARC
  5
71
  8
┌▓È_1
 62
     5
 10
503.30937499999987
 20
141.5505208333
 30
0.0
 40
1.5
 50
180.0
 51
270.0
  0
LINE
  5
72
  8
┌▓È_1
 62
     5
 10
496.5209117485
 20
151.0505208333
 30
0.0
 11
506.90127704529988
 21
151.0505208333
 31
0.0
  0
LINE
  5
73
  8
┌▓È_1
 62
     5
 10
499.30937499999987
 20
156.90052083329999
 30
0.0
 11
501.00937499999998
 21
156.90052083329999
 31
0.0
  0
ARC
  5
74
  8
┌▓È_1
 62
     5
 10
501.00937499999998
 20
157.7005208333
 30
0.0
 40
0.8
 50
270.0
 51
0.0
  0
LINE
  5
75
  8
┌▓È_1
 62
     5
 10
501.80937499999999
 20
184.4472506539
 30
0.0
 11
501.80937499999999
 21
171.0660974402
 31
0.0
  0
LINE
  5
76
  8
┌▓È_1
 62
     5
 10
501.80937499999999
 20
184.4472506539
 30
0.0
 11
501.80937499999999
 21
197.7160974402
 31
0.0
  0
LINE
  5
77
  8
┌▓È_1
 62
     5
 10
499.30937499999987
 20
185.2472506538999
 30
0.0
 11
499.30937499999987
 21
196.91609744019999
 31
0.0
  0
ARC
  5
78
  8
┌▓È_1
 62
     5
 10
501.00937499999998
 20
184.4472506539
 30
0.0
 40
0.8
 50
0.0
 51
90.0
  0
LINE
  5
79
  8
┌▓È_1
 62
     5
 10
499.30937499999987
 20
196.91609744019999
 30
0.0
 11
501.00937499999998
 21
196.91609744019999
 31
0.0
  0
LINE
  5
7A
  8
┌▓È_1
 62
     5
 10
497.27479302709992
 20
231.0660974402
 30
0.0
 11
506.26337750189998
 21
231.0660974402
 31
0.0
  0
LINE
  5
7B
  8
┌▓È_1
 62
     5
 10
501.80937499999999
 20
144.431674047
 30
0.0
 11
501.80937499999999
 21
157.7005208333
 31
0.0
  0
LINE
  5
7C
  8
┌▓È_1
 62
     5
 10
499.30937499999987
 20
145.23167404700001
 30
0.0
 11
499.30937499999987
 21
156.90052083329999
 31
0.0
  0
LINE
  5
7D
  8
┌▓È_1
 62
     5
 10
501.80937499999999
 20
264.44725065390003
 30
0.0
 11
501.80937499999999
 21
237.7160974402
 31
0.0
  0
LINE
  5
7E
  8
┌▓È_1
 62
     5
 10
501.80937499999999
 20
264.44725065390003
 30
0.0
 11
501.80937499999999
 21
277.71609744019997
 31
0.0
  0
ARC
  5
7F
  8
┌▓È_1
 62
     5
 10
501.00937499999998
 20
264.44725065390003
 30
0.0
 40
0.8
 50
0.0
 51
90.0
  0
LINE
  5
80
  8
┌▓È_1
 62
     5
 10
667.47666015620007
 20
151.0660974402
 30
0.0
 11
699.18531901039989
 21
151.0660974402
 31
0.0
  0
CIRCLE
  5
81
  8
┌▓È_1
 62
     5
 10
683.20468749999986
 20
271.0660974402
 30
0.0
 40
5.1500000000000004
  0
CIRCLE
  5
82
  8
┌▓È_1
 62
     5
 10
683.20468749999986
 20
291.0660974402
 30
0.0
 40
1.6000000000000001
  0
CIRCLE
  5
83
  8
┌▓È_1
 62
     5
 10
683.20468749999986
 20
291.0660974402
 30
0.0
 40
3.5
  0
LINE
  5
84
  8
┌▓È_1
 62
     5
 10
677.23552350429998
 20
291.0660974402
 30
0.0
 11
690.36971153850004
 21
291.0660974402
 31
0.0
  0
LINE
  5
85
  8
┌▓È_1
 62
     5
 10
691.67135416669987
 20
271.0660974402
 30
0.0
 11
674.73802083329986
 21
271.0660974402
 31
0.0
  0
LINE
  5
86
  8
┌▓È_1
 62
     5
 10
677.20400280900003
 20
140.0660974402
 30
0.0
 11
644.478909176
 21
140.0660974402
 31
0.0
  0
LINE
  5
87
  8
┌▓È_1
 62
     5
 10
672.20468749999998
 20
151.0660974402
 30
0.0
 11
672.20468749999998
 21
211.0660974402
 31
0.0
  0
LINE
  5
88
  8
┌▓È_1
 62
     5
 10
672.90468750000002
 20
151.0660974402
 30
0.0
 11
672.90468750000002
 21
211.0660974402
 31
0.0
  0
LINE
  5
89
  8
┌▓È_1
 10
878.79960937500005
 20
-258.98123444819998
 30
0.0
 11
878.79960937500005
 21
-192.98123444820001
 31
0.0
  0
ARC
  5
8A
  8
┌▓È_1
 10
681.84211447279995
 20
-243.81088851440001
 30
0.0
 40
7.5999999999999988
 50
270.0
 51
298.08590481520002
  0
LINE
  5
8B
  8
┌▓È_1
 62
     5
 10
805.50138918779987
 20
-152.8655329055
 30
0.0
 11
805.50138918779987
 21
-136.26893065350001
 31
0.0
  0
LINE
  5
8C
  8
┌▓È_1
 62
     5
 10
829.71301854899991
 20
-152.8655329055
 30
0.0
 11
829.71301854899991
 21
-136.26893065350001
 31
0.0
  0
LINE
  5
8D
  8
┌▓È_1
 62
     5
 10
499.30937499999987
 20
276.91609744020002
 30
0.0
 11
501.00937499999998
 21
276.91609744020002
 31
0.0
  0
ARC
  5
8E
  8
┌▓È_1
 62
     5
 10
501.00937499999998
 20
277.71609744019997
 30
0.0
 40
0.8
 50
270.0
 51
0.0
  0
LINE
  5
8F
  8
┌▓È_1
 62
     5
 10
499.30937499999987
 20
265.24725065389998
 30
0.0
 11
499.30937499999987
 21
276.91609744020002
 31
0.0
  0
LINE
  5
90
  8
┌▓È_1
 62
     5
 10
499.30937499999987
 20
265.24725065389998
 30
0.0
 11
501.00937499999998
 21
265.24725065389998
 31
0.0
  0
LINE
  5
91
  8
┌▓È_1
 62
     5
 10
497.27479302709992
 20
271.0660974402
 30
0.0
 11
506.26337750189998
 21
271.0660974402
 31
0.0
  0
LINE
  5
92
  8
┌▓È_1
 62
     5
 10
496.63689348369991
 20
191.0660974402
 30
0.0
 11
506.37935923709989
 21
191.0660974402
 31
0.0
  0
LINE
  5
93
  8
┌▓È_1
 62
     5
 10
501.80937499999999
 20
144.431674047
 30
0.0
 11
501.80937499999999
 21
141.5505208333
 31
0.0
  0
ARC
  5
94
  8
┌▓È_1
 62
     5
 10
501.00937499999998
 20
197.7160974402
 30
0.0
 40
0.8
 50
270.0
 51
0.0
  0
LINE
  5
95
  8
┌▓È_1
 62
     5
 10
501.80937499999999
 20
224.4472506539
 30
0.0
 11
501.80937499999999
 21
197.7160974402
 31
0.0
  0
LINE
  5
96
  8
┌▓È_1
 62
     5
 10
501.80937499999999
 20
171.0660974402
 30
0.0
 11
501.80937499999999
 21
157.7005208333
 31
0.0
  0
LINE
  5
97
  8
┌▓È_1
 62
     5
 10
499.30937499999987
 20
225.24725065390001
 30
0.0
 11
499.30937499999987
 21
236.91609744019999
 31
0.0
  0
LINE
  5
98
  8
┌▓È_1
 62
     5
 10
499.30937499999987
 20
225.24725065390001
 30
0.0
 11
501.00937499999998
 21
225.24725065390001
 31
0.0
  0
ARC
  5
99
  8
┌▓È_1
 62
     5
 10
501.00937499999998
 20
224.4472506539
 30
0.0
 40
0.8
 50
0.0
 51
90.0
  0
LINE
  5
9A
  8
┌▓È_1
 62
     5
 10
499.30937499999987
 20
236.91609744019999
 30
0.0
 11
501.00937499999998
 21
236.91609744019999
 31
0.0
  0
ARC
  5
9B
  8
┌▓È_1
 62
     5
 10
501.00937499999998
 20
237.7160974402
 30
0.0
 40
0.8
 50
270.0
 51
0.0
  0
LINE
  5
9C
  8
┌▓È_1
 62
     5
 10
501.80937499999999
 20
224.4472506539
 30
0.0
 11
501.80937499999999
 21
237.7160974402
 31
0.0
  0
LINE
  5
9D
  8
┌▓È_1
 62
     5
 10
499.30937499999987
 20
185.2472506538999
 30
0.0
 11
501.00937499999998
 21
185.2472506538999
 31
0.0
  0
LINE
  5
9E
  8
┌▓È_1
 62
     5
 10
504.80937499999987
 20
140.0505208333
 30
0.0
 11
504.80937499999987
 21
171.0660974402
 31
0.0
  0
LINE
  5
9F
  8
┌▓È_1
 62
     5
 10
499.30937499999987
 20
145.23167404700001
 30
0.0
 11
501.00937499999998
 21
145.23167404700001
 31
0.0
  0
ARC
  5
A0
  8
┌▓È_1
 62
     5
 10
501.00937499999998
 20
144.431674047
 30
0.0
 40
0.8
 50
0.0
 51
90.0
  0
LINE
  5
A1
  8
┌▓È_1
 62
     5
 10
495.09755617050001
 20
151.0505208333
 30
0.0
 11
503.638491843
 21
151.0505208333
 31
0.0
  0
LINE
  5
A2
  8
┌▓È_1
 10
679.44211447279997
 20
-240.4108885144
 30
0.0
 11
679.44211447279997
 21
-244.01088851439999
 31
0.0
  0
LINE
  5
A3
  8
┌▓È_1
 62
     5
 10
794.72180989579999
 20
-47.478825114799989
 30
0.0
 11
794.72180989579999
 21
-75.044840739799994
 31
0.0
  0
LINE
  5
A4
  8
┌▓È_1
 62
     5
 10
703.75278463079985
 20
-152.8655329055
 30
0.0
 11
703.75278463079985
 21
-136.26893065350001
 31
0.0
  0
LINE
  5
A5
  8
┌▓È_1
 10
679.44211447279997
 20
-251.4108885144
 30
0.0
 11
679.44211447279997
 21
-254.4108885144
 31
0.0
  0
LINE
  5
A6
  8
┌▓È_1
 10
695.44211447279997
 20
-243.4108885144
 30
0.0
 11
697.44211447279986
 21
-240.4108885144
 31
0.0
  0
LINE
  5
A7
  8
┌▓È_1
 10
657.12090235160008
 20
-247.4108885144
 30
0.0
 11
657.12090235160008
 21
-250.4108885144
 31
0.0
  0
LINE
  5
A8
  8
┌▓È_1
 10
654.81869472849996
 20
-247.4108885144
 30
0.0
 11
656.81869472849985
 21
-247.4108885144
 31
0.0
  0
ARC
  5
A9
  8
┌▓È_1
 10
684.44211447279986
 20
-243.4108885144
 30
0.0
 40
11.0
 50
270.0
 51
302.54495885400001
  0
LINE
  5
AA
  8
┌▓È_1
 10
679.44211447279997
 20
-245.05510904939999
 30
0.0
 11
687.44211447279997
 21
-245.05510904939999
 31
0.0
  0
LINE
  5
AB
  8
┌▓È_1
 10
679.44211447279997
 20
-245.69932958429999
 30
0.0
 11
679.44211447279997
 21
-245.05510904939999
 31
0.0
  0
LINE
  5
AC
  8
┌▓È_1
 10
687.44211447279997
 20
-245.05510904939999
 30
0.0
 11
686.31074362289985
 21
-246.1864798993
 31
0.0
  0
LINE
  5
AD
  8
┌▓È_1
 10
671.12090235159997
 20
-248.4108885144
 30
0.0
 11
671.12090235159997
 21
-247.4108885144
 31
0.0
  0
ARC
  5
AE
  8
┌▓È_1
 10
663.12090235159997
 20
-248.4108885144
 30
0.0
 40
3.0
 50
270.0
 51
0.0
  0
LINE
  5
AF
  8
┌▓È_1
 10
663.12090235159997
 20
-251.4108885144
 30
0.0
 11
657.12090235160008
 21
-251.4108885144
 31
0.0
  0
ARC
  5
B0
  8
┌▓È_1
 10
684.44211447279986
 20
-243.4108885144
 30
0.0
 40
11.0
 50
322.48761197969998
 51
0.0
  0
LINE
  5
B1
  8
┌▓È_1
 10
701.87707976939987
 20
-249.01088851439999
 30
0.0
 11
708.3997464360001
 21
-249.01088851439999
 31
0.0
  0
LINE
  5
B2
  8
┌▓È_1
 10
713.57496163979988
 20
-247.4108885144
 30
0.0
 11
719.87707976939998
 21
-247.4108885144
 31
0.0
  0
LINE
  5
B3
  8
┌▓È_1
 10
701.87707976939987
 20
-247.4108885144
 30
0.0
 11
707.93041310270007
 21
-247.4108885144
 31
0.0
  0
LINE
  5
B4
  8
┌▓È_1
 10
666.12090235160008
 20
-240.4108885144
 30
0.0
 11
666.12090235160008
 21
-244.4108885144
 31
0.0
  0
LINE
  5
B5
  8
┌▓È_1
 10
671.12090235159997
 20
-243.4108885144
 30
0.0
 11
674.12090235160008
 21
-240.4108885144
 31
0.0
  0
LINE
  5
B6
  8
┌▓È_1
 10
671.12090235159997
 20
-244.4108885144
 30
0.0
 11
671.12090235159997
 21
-243.4108885144
 31
0.0
  0
LINE
  5
B7
  8
┌▓È_1
 10
674.12090235160008
 20
-244.4108885144
 30
0.0
 11
671.12090235159997
 21
-244.4108885144
 31
0.0
  0
LINE
  5
B8
  8
┌▓È_1
 10
662.12090235160008
 20
-247.4108885144
 30
0.0
 11
666.12090235160008
 21
-247.4108885144
 31
0.0
  0
LINE
  5
B9
  8
┌▓È_1
 10
662.12090235160008
 20
-250.4108885144
 30
0.0
 11
662.12090235160008
 21
-247.4108885144
 31
0.0
  0
LINE
  5
BA
  8
┌▓È_1
 10
701.87707976939987
 20
-249.01088851439999
 30
0.0
 11
701.87707976939987
 21
-252.61088851439999
 31
0.0
  0
LINE
  5
BB
  8
┌▓È_1
 10
714.03538526570003
 20
-249.01088851439999
 30
0.0
 11
713.57496163979988
 21
-247.4108885144
 31
0.0
  0
ARC
  5
BC
  8
┌▓È_1
 10
681.84211447279995
 20
-243.81088851440001
 30
0.0
 40
7.5999999999999988
 50
331.39928138329998
 51
358.49204224580001
  0
ARC
  5
BD
  8
┌▓È_1
 10
665.12090235160008
 20
-248.4108885144
 30
0.0
 40
6.0
 50
270.0
 51
0.0
  0
LINE
  5
BE
  8
┌▓È_1
 10
657.12090235160008
 20
-254.4108885144
 30
0.0
 11
665.12090235160008
 21
-254.4108885144
 31
0.0
  0
LINE
  5
BF
  8
┌▓È_1
 10
706.87441310270003
 20
-243.81088851440001
 30
0.0
 11
705.87707976939987
 21
-240.4108885144
 31
0.0
  0
LINE
  5
C0
  8
┌▓È_1
 10
715.07133842399992
 20
-252.61088851439999
 30
0.0
 11
719.87707976939998
 21
-252.61088851439999
 31
0.0
  0
LINE
  5
C1
  8
┌▓È_1
 10
714.03538526570003
 20
-249.01088851439999
 30
0.0
 11
719.87707976939998
 21
-249.01088851439999
 31
0.0
  0
LINE
  5
C2
  8
┌▓È_1
 62
     5
 10
704.29140703109999
 20
-204.7065315433
 30
0.0
 11
732.8272095003
 21
-204.7065315433
 31
0.0
  0
LINE
  5
C3
  8
┌▓È_1
 62
     5
 10
703.09675762910001
 20
-227.7065315433
 30
0.0
 11
730.63214777189989
 21
-227.7065315433
 31
0.0
  0
LINE
  5
C4
  8
┌▓È_1
 10
658.79960937500005
 20
-192.98123444820001
 30
0.0
 11
658.79960937500005
 21
-214.98123444820001
 31
0.0
  0
LINE
  5
C5
  8
┌▓È_1
 10
698.79960937500005
 20
-192.98123444820001
 30
0.0
 11
698.79960937500005
 21
-236.98123444820001
 31
0.0
  0
LINE
  5
C6
  8
┌▓È_1
 10
738.79960937500005
 20
-192.98123444820001
 30
0.0
 11
738.79960937500005
 21
-258.98123444819998
 31
0.0
  0
LINE
  5
C7
  8
┌▓È_1
 10
674.12090235160008
 20
-240.4108885144
 30
0.0
 11
666.12090235160008
 21
-240.4108885144
 31
0.0
  0
LINE
  5
C8
  8
┌▓È_1
 10
674.12090235160008
 20
-244.4108885144
 30
0.0
 11
674.12090235160008
 21
-247.4108885144
 31
0.0
  0
LINE
  5
C9
  8
┌▓È_1
 10
671.12090235159997
 20
-247.4108885144
 30
0.0
 11
674.12090235160008
 21
-247.4108885144
 31
0.0
  0
LINE
  5
CA
  8
┌▓È_1
 10
657.12090235160008
 20
-251.4108885144
 30
0.0
 11
657.12090235160008
 21
-254.4108885144
 31
0.0
  0
LINE
  5
CB
  8
┌▓È_1
 10
712.53900848139995
 20
-243.81088851440001
 30
0.0
 11
719.87707976939998
 21
-243.81088851440001
 31
0.0
  0
LINE
  5
CC
  8
┌▓È_1
 10
701.87707976939987
 20
-243.81088851440001
 30
0.0
 11
706.87441310270003
 21
-243.81088851440001
 31
0.0
  0
LINE
  5
CD
  8
┌▓È_1
 10
719.87707976939998
 20
-243.81088851440001
 30
0.0
 11
719.87707976939998
 21
-247.4108885144
 31
0.0
  0
LINE
  5
CE
  8
┌▓È_1
 10
705.87707976939987
 20
-240.4108885144
 30
0.0
 11
713.87707976939987
 21
-240.4108885144
 31
0.0
  0
LINE
  5
CF
  8
┌▓È_1
 10
666.12090235160008
 20
-247.4108885144
 30
0.0
 11
666.12090235160008
 21
-248.4108885144
 31
0.0
  0
LINE
  5
D0
  8
┌▓È_1
 10
679.44211447279997
 20
-254.4108885144
 30
0.0
 11
684.44211447279986
 21
-254.4108885144
 31
0.0
  0
LINE
  5
D1
  8
┌▓È_1
 10
679.44211447279997
 20
-251.4108885144
 30
0.0
 11
681.84211447279995
 21
-251.4108885144
 31
0.0
  0
LINE
  5
D2
  8
┌▓È_1
 10
695.44211447279997
 20
-243.4108885144
 30
0.0
 11
697.44211447279986
 21
-240.4108885144
 31
0.0
  0
LINE
  5
D3
  8
┌▓È_1
 10
679.44211447279997
 20
-254.4108885144
 30
0.0
 11
679.44211447279997
 21
-251.4108885144
 31
0.0
  0
LINE
  5
D4
  8
┌▓È_1
 10
701.87707976939987
 20
-252.61088851439999
 30
0.0
 11
709.45574643600003
 21
-252.61088851439999
 31
0.0
  0
LINE
  5
D5
  8
┌▓È_1
 10
719.87707976939998
 20
-249.01088851439999
 30
0.0
 11
719.87707976939998
 21
-252.61088851439999
 31
0.0
  0
LINE
  5
D6
  8
┌▓È_1
 10
654.81869472849996
 20
-244.4108885144
 30
0.0
 11
654.81869472849996
 21
-247.4108885144
 31
0.0
  0
LINE
  5
D7
  8
┌▓È_1
 10
657.12090235160008
 20
-244.4108885144
 30
0.0
 11
654.81869472849996
 21
-244.4108885144
 31
0.0
  0
LINE
  5
D8
  8
┌▓È_1
 10
657.12090235160008
 20
-240.4108885144
 30
0.0
 11
657.12090235160008
 21
-244.4108885144
 31
0.0
  0
LINE
  5
D9
  8
┌▓È_1
 10
662.12090235160008
 20
-243.4108885144
 30
0.0
 11
665.12090235160008
 21
-240.4108885144
 31
0.0
  0
LINE
  5
DA
  8
┌▓È_1
 10
662.12090235160008
 20
-244.4108885144
 30
0.0
 11
662.12090235160008
 21
-243.4108885144
 31
0.0
  0
LINE
  5
DB
  8
┌▓È_1
 10
666.12090235160008
 20
-244.4108885144
 30
0.0
 11
662.12090235160008
 21
-244.4108885144
 31
0.0
  0
LINE
  5
DC
  8
┌▓È_1
 10
701.87707976939987
 20
-243.81088851440001
 30
0.0
 11
701.87707976939987
 21
-247.4108885144
 31
0.0
  0
LINE
  5
DD
  8
┌▓È_1
 10
697.44211447279986
 20
-240.4108885144
 30
0.0
 11
679.44211447279997
 21
-240.4108885144
 31
0.0
  0
LINE
  5
DE
  8
┌▓È_1
 10
665.12090235160008
 20
-240.4108885144
 30
0.0
 11
657.12090235160008
 21
-240.4108885144
 31
0.0
  0
LINE
  5
DF
  8
┌▓È_1
 10
679.44211447279997
 20
-244.01088851439999
 30
0.0
 11
689.44211447279986
 21
-244.01088851439999
 31
0.0
  0
POLYLINE
  8
┌▓È_1
  5
358
  66
     1
 10
0.000000
 20
0.000000
 30
0.000000
  70
     8
  0
VERTEX
  8
┌▓È_1
  5
359
 10
686.311
 20
-246.186
 30
0.000000
  70
    32
  0
VERTEX
  8
┌▓È_1
  5
35A
 10
686.324
 20
-246.201
 30
0.000000
  70
    32
  0
VERTEX
  8
┌▓È_1
  5
35B
 10
686.337
 20
-246.216
 30
0.000000
  70
    32
  0
VERTEX
  8
┌▓È_1
  5
35C
 10
686.350
 20
-246.231
 30
0.000000
  70
    32
  0
VERTEX
  8
┌▓È_1
  5
35D
 10
686.364
 20
-246.245
 30
0.000000
  70
    32
  0
VERTEX
  8
┌▓È_1
  5
35E
 10
686.377
 20
-246.260
 30
0.000000
  70
    32
  0
VERTEX
  8
┌▓È_1
  5
35F
 10
686.390
 20
-246.275
 30
0.000000
  70
    32
  0
VERTEX
  8
┌▓È_1
  5
360
 10
686.403
 20
-246.289
 30
0.000000
  70
    32
  0
VERTEX
  8
┌▓È_1
  5
361
 10
686.416
 20
-246.304
 30
0.000000
  70
    32
  0
VERTEX
  8
┌▓È_1
  5
362
 10
686.430
 20
-246.319
 30
0.000000
  70
    32
  0
VERTEX
  8
┌▓È_1
  5
363
 10
686.443
 20
-246.334
 30
0.000000
  70
    32
  0
VERTEX
  8
┌▓È_1
  5
364
 10
686.456
 20
-246.348
 30
0.000000
  70
    32
  0
VERTEX
  8
┌▓È_1
  5
365
 10
686.469
 20
-246.363
 30
0.000000
  70
    32
  0
VERTEX
  8
┌▓È_1
  5
366
 10
686.482
 20
-246.378
 30
0.000000
  70
    32
  0
VERTEX
  8
┌▓È_1
  5
367
 10
686.496
 20
-246.392
 30
0.000000
  70
    32
  0
VERTEX
  8
┌▓È_1
  5
368
 10
686.509
 20
-246.407
 30
0.000000
  70
    32
  0
VERTEX
  8
┌▓È_1
  5
369
 10
686.522
 20
-246.422
 30
0.000000
  70
    32
  0
VERTEX
  8
┌▓È_1
  5
36A
 10
686.535
 20
-246.436
 30
0.000000
  70
    32
  0
VERTEX
  8
┌▓È_1
  5
36B
 10
686.548
 20
-246.451
 30
0.000000
  70
    32
  0
VERTEX
  8
┌▓È_1
  5
36C
 10
686.562
 20
-246.466
 30
0.000000
  70
    32
  0
VERTEX
  8
┌▓È_1
  5
36D
 10
686.575
 20
-246.481
 30
0.000000
  70
    32
  0
VERTEX
  8
┌▓È_1
  5
36E
 10
686.588
 20
-246.495
 30
0.000000
  70
    32
  0
VERTEX
  8
┌▓È_1
  5
36F
 10
686.601
 20
-246.510
 30
0.000000
  70
    32
  0
VERTEX
  8
┌▓È_1
  5
370
 10
686.615
 20
-246.525
 30
0.000000
  70
    32
  0
VERTEX
  8
┌▓È_1
  5
371
 10
686.628
 20
-246.539
 30
0.000000
  70
    32
  0
VERTEX
  8
┌▓È_1
  5
372
 10
686.641
 20
-246.554
 30
0.000000
  70
    32
  0
VERTEX
  8
┌▓È_1
  5
373
 10
686.654
 20
-246.568
 30
0.000000
  70
    32
  0
VERTEX
  8
┌▓È_1
  5
374
 10
686.668
 20
-246.583
 30
0.000000
  70
    32
  0
VERTEX
  8
┌▓È_1
  5
375
 10
686.681
 20
-246.598
 30
0.000000
  70
    32
  0
VERTEX
  8
┌▓È_1
  5
376
 10
686.694
 20
-246.612
 30
0.000000
  70
    32
  0
VERTEX
  8
┌▓È_1
  5
377
 10
686.707
 20
-246.627
 30
0.000000
  70
    32
  0
VERTEX
  8
┌▓È_1
  5
378
 10
686.721
 20
-246.642
 30
0.000000
  70
    32
  0
VERTEX
  8
┌▓È_1
  5
379
 10
686.734
 20
-246.656
 30
0.000000
  70
    32
  0
VERTEX
  8
┌▓È_1
  5
37A
 10
686.747
 20
-246.671
 30
0.000000
  70
    32
  0
VERTEX
  8
┌▓È_1
  5
37B
 10
686.760
 20
-246.685
 30
0.000000
  70
    32
  0
VERTEX
  8
┌▓È_1
  5
37C
 10
686.774
 20
-246.700
 30
0.000000
  70
    32
  0
VERTEX
  8
┌▓È_1
  5
37D
 10
686.787
 20
-246.715
 30
0.000000
  70
    32
  0
VERTEX
  8
┌▓È_1
  5
37E
 10
686.800
 20
-246.729
 30
0.000000
  70
    32
  0
VERTEX
  8
┌▓È_1
  5
37F
 10
686.814
 20
-246.744
 30
0.000000
  70
    32
  0
VERTEX
  8
┌▓È_1
  5
380
 10
686.827
 20
-246.758
 30
0.000000
  70
    32
  0
VERTEX
  8
┌▓È_1
  5
381
 10
686.840
 20
-246.773
 30
0.000000
  70
    32
  0
VERTEX
  8
┌▓È_1
  5
382
 10
686.853
 20
-246.787
 30
0.000000
  70
    32
  0
VERTEX
  8
┌▓È_1
  5
383
 10
686.867
 20
-246.802
 30
0.000000
  70
    32
  0
VERTEX
  8
┌▓È_1
  5
384
 10
686.880
 20
-246.816
 30
0.000000
  70
    32
  0
VERTEX
  8
┌▓È_1
  5
385
 10
686.893
 20
-246.831
 30
0.000000
  70
    32
  0
VERTEX
  8
┌▓È_1
  5
386
 10
686.907
 20
-246.845
 30
0.000000
  70
    32
  0
VERTEX
  8
┌▓È_1
  5
387
 10
686.920
 20
-246.860
 30
0.000000
  70
    32
  0
VERTEX
  8
┌▓È_1
  5
388
 10
686.933
 20
-246.874
 30
0.000000
  70
    32
  0
VERTEX
  8
┌▓È_1
  5
389
 10
686.947
 20
-246.889
 30
0.000000
  70
    32
  0
VERTEX
  8
┌▓È_1
  5
38A
 10
686.960
 20
-246.903
 30
0.000000
  70
    32
  0
VERTEX
  8
┌▓È_1
  5
38B
 10
686.974
 20
-246.918
 30
0.000000
  70
    32
  0
VERTEX
  8
┌▓È_1
  5
38C
 10
686.987
 20
-246.932
 30
0.000000
  70
    32
  0
VERTEX
  8
┌▓È_1
  5
38D
 10
687.000
 20
-246.947
 30
0.000000
  70
    32
  0
VERTEX
  8
┌▓È_1
  5
38E
 10
687.014
 20
-246.961
 30
0.000000
  70
    32
  0
VERTEX
  8
┌▓È_1
  5
38F
 10
687.027
 20
-246.975
 30
0.000000
  70
    32
  0
VERTEX
  8
┌▓È_1
  5
390
 10
687.040
 20
-246.990
 30
0.000000
  70
    32
  0
VERTEX
  8
┌▓È_1
  5
391
 10
687.054
 20
-247.004
 30
0.000000
  70
    32
  0
VERTEX
  8
┌▓È_1
  5
392
 10
687.067
 20
-247.019
 30
0.000000
  70
    32
  0
VERTEX
  8
┌▓È_1
  5
393
 10
687.081
 20
-247.033
 30
0.000000
  70
    32
  0
VERTEX
  8
┌▓È_1
  5
394
 10
687.094
 20
-247.047
 30
0.000000
  70
    32
  0
VERTEX
  8
┌▓È_1
  5
395
 10
687.108
 20
-247.062
 30
0.000000
  70
    32
  0
VERTEX
  8
┌▓È_1
  5
396
 10
687.121
 20
-247.076
 30
0.000000
  70
    32
  0
VERTEX
  8
┌▓È_1
  5
397
 10
687.134
 20
-247.090
 30
0.000000
  70
    32
  0
VERTEX
  8
┌▓È_1
  5
398
 10
687.148
 20
-247.104
 30
0.000000
  70
    32
  0
VERTEX
  8
┌▓È_1
  5
399
 10
687.161
 20
-247.119
 30
0.000000
  70
    32
  0
VERTEX
  8
┌▓È_1
  5
39A
 10
687.175
 20
-247.133
 30
0.000000
  70
    32
  0
VERTEX
  8
┌▓È_1
  5
39B
 10
687.188
 20
-247.147
 30
0.000000
  70
    32
  0
VERTEX
  8
┌▓È_1
  5
39C
 10
687.202
 20
-247.161
 30
0.000000
  70
    32
  0
VERTEX
  8
┌▓È_1
  5
39D
 10
687.215
 20
-247.176
 30
0.000000
  70
    32
  0
VERTEX
  8
┌▓È_1
  5
39E
 10
687.229
 20
-247.190
 30
0.000000
  70
    32
  0
VERTEX
  8
┌▓È_1
  5
39F
 10
687.242
 20
-247.204
 30
0.000000
  70
    32
  0
VERTEX
  8
┌▓È_1
  5
3A0
 10
687.256
 20
-247.218
 30
0.000000
  70
    32
  0
VERTEX
  8
┌▓È_1
  5
3A1
 10
687.270
 20
-247.232
 30
0.000000
  70
    32
  0
VERTEX
  8
┌▓È_1
  5
3A2
 10
687.283
 20
-247.247
 30
0.000000
  70
    32
  0
VERTEX
  8
┌▓È_1
  5
3A3
 10
687.297
 20
-247.261
 30
0.000000
  70
    32
  0
VERTEX
  8
┌▓È_1
  5
3A4
 10
687.310
 20
-247.275
 30
0.000000
  70
    32
  0
VERTEX
  8
┌▓È_1
  5
3A5
 10
687.324
 20
-247.289
 30
0.000000
  70
    32
  0
VERTEX
  8
┌▓È_1
  5
3A6
 10
687.337
 20
-247.303
 30
0.000000
  70
    32
  0
VERTEX
  8
┌▓È_1
  5
3A7
 10
687.351
 20
-247.317
 30
0.000000
  70
    32
  0
VERTEX
  8
┌▓È_1
  5
3A8
 10
687.365
 20
-247.331
 30
0.000000
  70
    32
  0
VERTEX
  8
┌▓È_1
  5
3A9
 10
687.378
 20
-247.345
 30
0.000000
  70
    32
  0
VERTEX
  8
┌▓È_1
  5
3AA
 10
687.392
 20
-247.359
 30
0.000000
  70
    32
  0
VERTEX
  8
┌▓È_1
  5
3AB
 10
687.406
 20
-247.373
 30
0.000000
  70
    32
  0
VERTEX
  8
┌▓È_1
  5
3AC
 10
687.419
 20
-247.387
 30
0.000000
  70
    32
  0
VERTEX
  8
┌▓È_1
  5
3AD
 10
687.433
 20
-247.401
 30
0.000000
  70
    32
  0
VERTEX
  8
┌▓È_1
  5
3AE
 10
687.447
 20
-247.415
 30
0.000000
  70
    32
  0
VERTEX
  8
┌▓È_1
  5
3AF
 10
687.460
 20
-247.429
 30
0.000000
  70
    32
  0
VERTEX
  8
┌▓È_1
  5
3B0
 10
687.474
 20
-247.443
 30
0.000000
  70
    32
  0
VERTEX
  8
┌▓È_1
  5
3B1
 10
687.488
 20
-247.457
 30
0.000000
  70
    32
  0
VERTEX
  8
┌▓È_1
  5
3B2
 10
687.501
 20
-247.470
 30
0.000000
  70
    32
  0
VERTEX
  8
┌▓È_1
  5
3B3
 10
687.515
 20
-247.484
 30
0.000000
  70
    32
  0
VERTEX
  8
┌▓È_1
  5
3B4
 10
687.529
 20
-247.498
 30
0.000000
  70
    32
  0
VERTEX
  8
┌▓È_1
  5
3B5
 10
687.543
 20
-247.512
 30
0.000000
  70
    32
  0
VERTEX
  8
┌▓È_1
  5
3B6
 10
687.557
 20
-247.526
 30
0.000000
  70
    32
  0
VERTEX
  8
┌▓È_1
  5
3B7
 10
687.570
 20
-247.539
 30
0.000000
  70
    32
  0
VERTEX
  8
┌▓È_1
  5
3B8
 10
687.584
 20
-247.553
 30
0.000000
  70
    32
  0
VERTEX
  8
┌▓È_1
  5
3B9
 10
687.598
 20
-247.567
 30
0.000000
  70
    32
  0
VERTEX
  8
┌▓È_1
  5
3BA
 10
687.612
 20
-247.581
 30
0.000000
  70
    32
  0
VERTEX
  8
┌▓È_1
  5
3BB
 10
687.626
 20
-247.594
 30
0.000000
  70
    32
  0
VERTEX
  8
┌▓È_1
  5
3BC
 10
687.639
 20
-247.608
 30
0.000000
  70
    32
  0
VERTEX
  8
┌▓È_1
  5
3BD
 10
687.653
 20
-247.622
 30
0.000000
  70
    32
  0
VERTEX
  8
┌▓È_1
  5
3BE
 10
687.667
 20
-247.635
 30
0.000000
  70
    32
  0
VERTEX
  8
┌▓È_1
  5
3BF
 10
687.681
 20
-247.649
 30
0.000000
  70
    32
  0
VERTEX
  8
┌▓È_1
  5
3C0
 10
687.695
 20
-247.662
 30
0.000000
  70
    32
  0
VERTEX
  8
┌▓È_1
  5
3C1
 10
687.709
 20
-247.676
 30
0.000000
  70
    32
  0
VERTEX
  8
┌▓È_1
  5
3C2
 10
687.723
 20
-247.689
 30
0.000000
  70
    32
  0
VERTEX
  8
┌▓È_1
  5
3C3
 10
687.737
 20
-247.703
 30
0.000000
  70
    32
  0
VERTEX
  8
┌▓È_1
  5
3C4
 10
687.751
 20
-247.716
 30
0.000000
  70
    32
  0
VERTEX
  8
┌▓È_1
  5
3C5
 10
687.765
 20
-247.730
 30
0.000000
  70
    32
  0
VERTEX
  8
┌▓È_1
  5
3C6
 10
687.779
 20
-247.743
 30
0.000000
  70
    32
  0
VERTEX
  8
┌▓È_1
  5
3C7
 10
687.793
 20
-247.757
 30
0.000000
  70
    32
  0
VERTEX
  8
┌▓È_1
  5
3C8
 10
687.807
 20
-247.770
 30
0.000000
  70
    32
  0
VERTEX
  8
┌▓È_1
  5
3C9
 10
687.821
 20
-247.783
 30
0.000000
  70
    32
  0
VERTEX
  8
┌▓È_1
  5
3CA
 10
687.835
 20
-247.797
 30
0.000000
  70
    32
  0
VERTEX
  8
┌▓È_1
  5
3CB
 10
687.849
 20
-247.810
 30
0.000000
  70
    32
  0
VERTEX
  8
┌▓È_1
  5
3CC
 10
687.863
 20
-247.823
 30
0.000000
  70
    32
  0
VERTEX
  8
┌▓È_1
  5
3CD
 10
687.877
 20
-247.836
 30
0.000000
  70
    32
  0
VERTEX
  8
┌▓È_1
  5
3CE
 10
687.891
 20
-247.850
 30
0.000000
  70
    32
  0
VERTEX
  8
┌▓È_1
  5
3CF
 10
687.906
 20
-247.863
 30
0.000000
  70
    32
  0
VERTEX
  8
┌▓È_1
  5
3D0
 10
687.920
 20
-247.876
 30
0.000000
  70
    32
  0
VERTEX
  8
┌▓È_1
  5
3D1
 10
687.934
 20
-247.889
 30
0.000000
  70
    32
  0
VERTEX
  8
┌▓È_1
  5
3D2
 10
687.948
 20
-247.902
 30
0.000000
  70
    32
  0
VERTEX
  8
┌▓È_1
  5
3D3
 10
687.962
 20
-247.915
 30
0.000000
  70
    32
  0
VERTEX
  8
┌▓È_1
  5
3D4
 10
687.976
 20
-247.929
 30
0.000000
  70
    32
  0
VERTEX
  8
┌▓È_1
  5
3D5
 10
687.991
 20
-247.942
 30
0.000000
  70
    32
  0
VERTEX
  8
┌▓È_1
  5
3D6
 10
688.005
 20
-247.955
 30
0.000000
  70
    32
  0
VERTEX
  8
┌▓È_1
  5
3D7
 10
688.019
 20
-247.968
 30
0.000000
  70
    32
  0
VERTEX
  8
┌▓È_1
  5
3D8
 10
688.034
 20
-247.981
 30
0.000000
  70
    32
  0
SEQEND
  8
┌▓È_1
  5
3D9
  0
POLYLINE
  8
┌▓È_1
  5
3DA
  66
     1
 10
0.000000
 20
0.000000
 30
0.000000
  70
     8
  0
VERTEX
  8
┌▓È_1
  5
3DB
 10
692.811
 20
-250.458
 30
0.000000
  70
    32
  0
VERTEX
  8
┌▓È_1
  5
3DC
 10
692.846
 20
-250.468
 30
0.000000
  70
    32
  0
VERTEX
  8
┌▓È_1
  5
3DD
 10
692.881
 20
-250.478
 30
0.000000
  70
    32
  0
VERTEX
  8
┌▓È_1
  5
3DE
 10
692.916
 20
-250.487
 30
0.000000
  70
    32
  0
VERTEX
  8
┌▓È_1
  5
3DF
 10
692.951
 20
-250.497
 30
0.000000
  70
    32
  0
VERTEX
  8
┌▓È_1
  5
3E0
 10
692.987
 20
-250.507
 30
0.000000
  70
    32
  0
VERTEX
  8
┌▓È_1
  5
3E1
 10
693.022
 20
-250.517
 30
0.000000
  70
    32
  0
VERTEX
  8
┌▓È_1
  5
3E2
 10
693.057
 20
-250.526
 30
0.000000
  70
    32
  0
VERTEX
  8
┌▓È_1
  5
3E3
 10
693.092
 20
-250.536
 30
0.000000
  70
    32
  0
VERTEX
  8
┌▓È_1
  5
3E4
 10
693.127
 20
-250.545
 30
0.000000
  70
    32
  0
VERTEX
  8
┌▓È_1
  5
3E5
 10
693.163
 20
-250.555
 30
0.000000
  70
    32
  0
VERTEX
  8
┌▓È_1
  5
3E6
 10
693.198
 20
-250.564
 30
0.000000
  70
    32
  0
VERTEX
  8
┌▓È_1
  5
3E7
 10
693.233
 20
-250.573
 30
0.000000
  70
    32
  0
VERTEX
  8
┌▓È_1
  5
3E8
 10
693.269
 20
-250.582
 30
0.000000
  70
    32
  0
VERTEX
  8
┌▓È_1
  5
3E9
 10
693.304
 20
-250.592
 30
0.000000
  70
    32
  0
VERTEX
  8
┌▓È_1
  5
3EA
 10
693.339
 20
-250.601
 30
0.000000
  70
    32
  0
VERTEX
  8
┌▓È_1
  5
3EB
 10
693.375
 20
-250.610
 30
0.000000
  70
    32
  0
VERTEX
  8
┌▓È_1
  5
3EC
 10
693.410
 20
-250.619
 30
0.000000
  70
    32
  0
VERTEX
  8
┌▓È_1
  5
3ED
 10
693.446
 20
-250.628
 30
0.000000
  70
    32
  0
VERTEX
  8
┌▓È_1
  5
3EE
 10
693.482
 20
-250.637
 30
0.000000
  70
    32
  0
VERTEX
  8
┌▓È_1
  5
3EF
 10
693.517
 20
-250.646
 30
0.000000
  70
    32
  0
VERTEX
  8
┌▓È_1
  5
3F0
 10
693.553
 20
-250.655
 30
0.000000
  70
    32
  0
VERTEX
  8
┌▓È_1
  5
3F1
 10
693.588
 20
-250.663
 30
0.000000
  70
    32
  0
VERTEX
  8
┌▓È_1
  5
3F2
 10
693.624
 20
-250.672
 30
0.000000
  70
    32
  0
VERTEX
  8
┌▓È_1
  5
3F3
 10
693.660
 20
-250.681
 30
0.000000
  70
    32
  0
VERTEX
  8
┌▓È_1
  5
3F4
 10
693.696
 20
-250.690
 30
0.000000
  70
    32
  0
VERTEX
  8
┌▓È_1
  5
3F5
 10
693.731
 20
-250.698
 30
0.000000
  70
    32
  0
VERTEX
  8
┌▓È_1
  5
3F6
 10
693.767
 20
-250.707
 30
0.000000
  70
    32
  0
VERTEX
  8
┌▓È_1
  5
3F7
 10
693.803
 20
-250.715
 30
0.000000
  70
    32
  0
VERTEX
  8
┌▓È_1
  5
3F8
 10
693.839
 20
-250.724
 30
0.000000
  70
    32
  0
VERTEX
  8
┌▓È_1
  5
3F9
 10
693.875
 20
-250.732
 30
0.000000
  70
    32
  0
VERTEX
  8
┌▓È_1
  5
3FA
 10
693.911
 20
-250.741
 30
0.000000
  70
    32
  0
VERTEX
  8
┌▓È_1
  5
3FB
 10
693.947
 20
-250.749
 30
0.000000
  70
    32
  0
VERTEX
  8
┌▓È_1
  5
3FC
 10
693.982
 20
-250.757
 30
0.000000
  70
    32
  0
VERTEX
  8
┌▓È_1
  5
3FD
 10
694.018
 20
-250.766
 30
0.000000
  70
    32
  0
VERTEX
  8
┌▓È_1
  5
3FE
 10
694.054
 20
-250.774
 30
0.000000
  70
    32
  0
VERTEX
  8
┌▓È_1
  5
3FF
 10
694.091
 20
-250.782
 30
0.000000
  70
    32
  0
VERTEX
  8
┌▓È_1
  5
400
 10
694.127
 20
-250.790
 30
0.000000
  70
    32
  0
VERTEX
  8
┌▓È_1
  5
401
 10
694.163
 20
-250.798
 30
0.000000
  70
    32
  0
VERTEX
  8
┌▓È_1
  5
402
 10
694.199
 20
-250.806
 30
0.000000
  70
    32
  0
VERTEX
  8
┌▓È_1
  5
403
 10
694.235
 20
-250.814
 30
0.000000
  70
    32
  0
VERTEX
  8
┌▓È_1
  5
404
 10
694.271
 20
-250.822
 30
0.000000
  70
    32
  0
VERTEX
  8
┌▓È_1
  5
405
 10
694.307
 20
-250.830
 30
0.000000
  70
    32
  0
VERTEX
  8
┌▓È_1
  5
406
 10
694.343
 20
-250.838
 30
0.000000
  70
    32
  0
VERTEX
  8
┌▓È_1
  5
407
 10
694.380
 20
-250.846
 30
0.000000
  70
    32
  0
VERTEX
  8
┌▓È_1
  5
408
 10
694.416
 20
-250.854
 30
0.000000
  70
    32
  0
VERTEX
  8
┌▓È_1
  5
409
 10
694.452
 20
-250.862
 30
0.000000
  70
    32
  0
VERTEX
  8
┌▓È_1
  5
40A
 10
694.489
 20
-250.869
 30
0.000000
  70
    32
  0
VERTEX
  8
┌▓È_1
  5
40B
 10
694.525
 20
-250.877
 30
0.000000
  70
    32
  0
VERTEX
  8
┌▓È_1
  5
40C
 10
694.561
 20
-250.885
 30
0.000000
  70
    32
  0
VERTEX
  8
┌▓È_1
  5
40D
 10
694.598
 20
-250.892
 30
0.000000
  70
    32
  0
VERTEX
  8
┌▓È_1
  5
40E
 10
694.634
 20
-250.900
 30
0.000000
  70
    32
  0
VERTEX
  8
┌▓È_1
  5
40F
 10
694.670
 20
-250.908
 30
0.000000
  70
    32
  0
VERTEX
  8
┌▓È_1
  5
410
 10
694.707
 20
-250.915
 30
0.000000
  70
    32
  0
VERTEX
  8
┌▓È_1
  5
411
 10
694.743
 20
-250.923
 30
0.000000
  70
    32
  0
VERTEX
  8
┌▓È_1
  5
412
 10
694.780
 20
-250.930
 30
0.000000
  70
    32
  0
VERTEX
  8
┌▓È_1
  5
413
 10
694.816
 20
-250.938
 30
0.000000
  70
    32
  0
VERTEX
  8
┌▓È_1
  5
414
 10
694.853
 20
-250.945
 30
0.000000
  70
    32
  0
VERTEX
  8
┌▓È_1
  5
415
 10
694.889
 20
-250.952
 30
0.000000
  70
    32
  0
VERTEX
  8
┌▓È_1
  5
416
 10
694.926
 20
-250.960
 30
0.000000
  70
    32
  0
VERTEX
  8
┌▓È_1
  5
417
 10
694.963
 20
-250.967
 30
0.000000
  70
    32
  0
VERTEX
  8
┌▓È_1
  5
418
 10
694.999
 20
-250.974
 30
0.000000
  70
    32
  0
VERTEX
  8
┌▓È_1
  5
419
 10
695.036
 20
-250.982
 30
0.000000
  70
    32
  0
VERTEX
  8
┌▓È_1
  5
41A
 10
695.072
 20
-250.989
 30
0.000000
  70
    32
  0
VERTEX
  8
┌▓È_1
  5
41B
 10
695.109
 20
-250.996
 30
0.000000
  70
    32
  0
VERTEX
  8
┌▓È_1
  5
41C
 10
695.146
 20
-251.003
 30
0.000000
  70
    32
  0
VERTEX
  8
┌▓È_1
  5
41D
 10
695.182
 20
-251.010
 30
0.000000
  70
    32
  0
VERTEX
  8
┌▓È_1
  5
41E
 10
695.219
 20
-251.017
 30
0.000000
  70
    32
  0
VERTEX
  8
┌▓È_1
  5
41F
 10
695.256
 20
-251.025
 30
0.000000
  70
    32
  0
VERTEX
  8
┌▓È_1
  5
420
 10
695.293
 20
-251.032
 30
0.000000
  70
    32
  0
VERTEX
  8
┌▓È_1
  5
421
 10
695.329
 20
-251.039
 30
0.000000
  70
    32
  0
VERTEX
  8
┌▓È_1
  5
422
 10
695.366
 20
-251.046
 30
0.000000
  70
    32
  0
VERTEX
  8
┌▓È_1
  5
423
 10
695.403
 20
-251.053
 30
0.000000
  70
    32
  0
VERTEX
  8
┌▓È_1
  5
424
 10
695.440
 20
-251.060
 30
0.000000
  70
    32
  0
VERTEX
  8
┌▓È_1
  5
425
 10
695.476
 20
-251.066
 30
0.000000
  70
    32
  0
VERTEX
  8
┌▓È_1
  5
426
 10
695.513
 20
-251.073
 30
0.000000
  70
    32
  0
VERTEX
  8
┌▓È_1
  5
427
 10
695.550
 20
-251.080
 30
0.000000
  70
    32
  0
VERTEX
  8
┌▓È_1
  5
428
 10
695.587
 20
-251.087
 30
0.000000
  70
    32
  0
VERTEX
  8
┌▓È_1
  5
429
 10
695.624
 20
-251.094
 30
0.000000
  70
    32
  0
VERTEX
  8
┌▓È_1
  5
42A
 10
695.661
 20
-251.101
 30
0.000000
  70
    32
  0
VERTEX
  8
┌▓È_1
  5
42B
 10
695.698
 20
-251.108
 30
0.000000
  70
    32
  0
VERTEX
  8
┌▓È_1
  5
42C
 10
695.735
 20
-251.114
 30
0.000000
  70
    32
  0
VERTEX
  8
┌▓È_1
  5
42D
 10
695.772
 20
-251.121
 30
0.000000
  70
    32
  0
VERTEX
  8
┌▓È_1
  5
42E
 10
695.808
 20
-251.128
 30
0.000000
  70
    32
  0
VERTEX
  8
┌▓È_1
  5
42F
 10
695.845
 20
-251.135
 30
0.000000
  70
    32
  0
VERTEX
  8
┌▓È_1
  5
430
 10
695.882
 20
-251.141
 30
0.000000
  70
    32
  0
VERTEX
  8
┌▓È_1
  5
431
 10
695.919
 20
-251.148
 30
0.000000
  70
    32
  0
VERTEX
  8
┌▓È_1
  5
432
 10
695.956
 20
-251.155
 30
0.000000
  70
    32
  0
VERTEX
  8
┌▓È_1
  5
433
 10
695.993
 20
-251.161
 30
0.000000
  70
    32
  0
VERTEX
  8
┌▓È_1
  5
434
 10
696.030
 20
-251.168
 30
0.000000
  70
    32
  0
VERTEX
  8
┌▓È_1
  5
435
 10
696.067
 20
-251.174
 30
0.000000
  70
    32
  0
VERTEX
  8
┌▓È_1
  5
436
 10
696.104
 20
-251.181
 30
0.000000
  70
    32
  0
VERTEX
  8
┌▓È_1
  5
437
 10
696.141
 20
-251.188
 30
0.000000
  70
    32
  0
VERTEX
  8
┌▓È_1
  5
438
 10
696.179
 20
-251.194
 30
0.000000
  70
    32
  0
VERTEX
  8
┌▓È_1
  5
439
 10
696.216
 20
-251.201
 30
0.000000
  70
    32
  0
VERTEX
  8
┌▓È_1
  5
43A
 10
696.253
 20
-251.207
 30
0.000000
  70
    32
  0
VERTEX
  8
┌▓È_1
  5
43B
 10
696.290
 20
-251.214
 30
0.000000
  70
    32
  0
VERTEX
  8
┌▓È_1
  5
43C
 10
696.327
 20
-251.220
 30
0.000000
  70
    32
  0
VERTEX
  8
┌▓È_1
  5
43D
 10
696.364
 20
-251.227
 30
0.000000
  70
    32
  0
VERTEX
  8
┌▓È_1
  5
43E
 10
696.401
 20
-251.233
 30
0.000000
  70
    32
  0
VERTEX
  8
┌▓È_1
  5
43F
 10
696.438
 20
-251.240
 30
0.000000
  70
    32
  0
VERTEX
  8
┌▓È_1
  5
440
 10
696.475
 20
-251.246
 30
0.000000
  70
    32
  0
VERTEX
  8
┌▓È_1
  5
441
 10
696.512
 20
-251.253
 30
0.000000
  70
    32
  0
VERTEX
  8
┌▓È_1
  5
442
 10
696.550
 20
-251.259
 30
0.000000
  70
    32
  0
VERTEX
  8
┌▓È_1
  5
443
 10
696.587
 20
-251.265
 30
0.000000
  70
    32
  0
VERTEX
  8
┌▓È_1
  5
444
 10
696.624
 20
-251.272
 30
0.000000
  70
    32
  0
VERTEX
  8
┌▓È_1
  5
445
 10
696.661
 20
-251.278
 30
0.000000
  70
    32
  0
VERTEX
  8
┌▓È_1
  5
446
 10
696.698
 20
-251.285
 30
0.000000
  70
    32
  0
VERTEX
  8
┌▓È_1
  5
447
 10
696.735
 20
-251.291
 30
0.000000
  70
    32
  0
VERTEX
  8
┌▓È_1
  5
448
 10
696.772
 20
-251.297
 30
0.000000
  70
    32
  0
VERTEX
  8
┌▓È_1
  5
449
 10
696.810
 20
-251.304
 30
0.000000
  70
    32
  0
VERTEX
  8
┌▓È_1
  5
44A
 10
696.847
 20
-251.310
 30
0.000000
  70
    32
  0
VERTEX
  8
┌▓È_1
  5
44B
 10
696.884
 20
-251.316
 30
0.000000
  70
    32
  0
VERTEX
  8
┌▓È_1
  5
44C
 10
696.921
 20
-251.323
 30
0.000000
  70
    32
  0
VERTEX
  8
┌▓È_1
  5
44D
 10
696.958
 20
-251.329
 30
0.000000
  70
    32
  0
VERTEX
  8
┌▓È_1
  5
44E
 10
696.996
 20
-251.335
 30
0.000000
  70
    32
  0
VERTEX
  8
┌▓È_1
  5
44F
 10
697.033
 20
-251.342
 30
0.000000
  70
    32
  0
VERTEX
  8
┌▓È_1
  5
450
 10
697.070
 20
-251.348
 30
0.000000
  70
    32
  0
VERTEX
  8
┌▓È_1
  5
451
 10
697.107
 20
-251.354
 30
0.000000
  70
    32
  0
VERTEX
  8
┌▓È_1
  5
452
 10
697.144
 20
-251.361
 30
0.000000
  70
    32
  0
VERTEX
  8
┌▓È_1
  5
453
 10
697.182
 20
-251.367
 30
0.000000
  70
    32
  0
VERTEX
  8
┌▓È_1
  5
454
 10
697.219
 20
-251.373
 30
0.000000
  70
    32
  0
VERTEX
  8
┌▓È_1
  5
455
 10
697.256
 20
-251.379
 30
0.000000
  70
    32
  0
VERTEX
  8
┌▓È_1
  5
456
 10
697.293
 20
-251.386
 30
0.000000
  70
    32
  0
VERTEX
  8
┌▓È_1
  5
457
 10
697.330
 20
-251.392
 30
0.000000
  70
    32
  0
VERTEX
  8
┌▓È_1
  5
458
 10
697.368
 20
-251.398
 30
0.000000
  70
    32
  0
VERTEX
  8
┌▓È_1
  5
459
 10
697.405
 20
-251.405
 30
0.000000
  70
    32
  0
VERTEX
  8
┌▓È_1
  5
45A
 10
697.442
 20
-251.411
 30
0.000000
  70
    32
  0
SEQEND
  8
┌▓È_1
  5
45B
  0
POLYLINE
  8
┌▓È_1
  5
45C
  66
     1
 10
0.000000
 20
0.000000
 30
0.000000
  70
     8
  0
VERTEX
  8
┌▓È_1
  5
45D
 10
679.442
 20
-245.699
 30
0.000000
  70
    32
  0
VERTEX
  8
┌▓È_1
  5
45E
 10
679.478
 20
-245.733
 30
0.000000
  70
    32
  0
VERTEX
  8
┌▓È_1
  5
45F
 10
679.514
 20
-245.766
 30
0.000000
  70
    32
  0
VERTEX
  8
┌▓È_1
  5
460
 10
679.550
 20
-245.799
 30
0.000000
  70
    32
  0
VERTEX
  8
┌▓È_1
  5
461
 10
679.586
 20
-245.832
 30
0.000000
  70
    32
  0
VERTEX
  8
┌▓È_1
  5
462
 10
679.622
 20
-245.865
 30
0.000000
  70
    32
  0
VERTEX
  8
┌▓È_1
  5
463
 10
679.658
 20
-245.899
 30
0.000000
  70
    32
  0
VERTEX
  8
┌▓È_1
  5
464
 10
679.694
 20
-245.932
 30
0.000000
  70
    32
  0
VERTEX
  8
┌▓È_1
  5
465
 10
679.730
 20
-245.965
 30
0.000000
  70
    32
  0
VERTEX
  8
┌▓È_1
  5
466
 10
679.766
 20
-245.998
 30
0.000000
  70
    32
  0
VERTEX
  8
┌▓È_1
  5
467
 10
679.802
 20
-246.031
 30
0.000000
  70
    32
  0
VERTEX
  8
┌▓È_1
  5
468
 10
679.838
 20
-246.064
 30
0.000000
  70
    32
  0
VERTEX
  8
┌▓È_1
  5
469
 10
679.874
 20
-246.098
 30
0.000000
  70
    32
  0
VERTEX
  8
┌▓È_1
  5
46A
 10
679.911
 20
-246.131
 30
0.000000
  70
    32
  0
VERTEX
  8
┌▓È_1
  5
46B
 10
679.947
 20
-246.164
 30
0.000000
  70
    32
  0
VERTEX
  8
┌▓È_1
  5
46C
 10
679.983
 20
-246.197
 30
0.000000
  70
    32
  0
VERTEX
  8
┌▓È_1
  5
46D
 10
680.019
 20
-246.230
 30
0.000000
  70
    32
  0
VERTEX
  8
┌▓È_1
  5
46E
 10
680.055
 20
-246.263
 30
0.000000
  70
    32
  0
VERTEX
  8
┌▓È_1
  5
46F
 10
680.091
 20
-246.296
 30
0.000000
  70
    32
  0
VERTEX
  8
┌▓È_1
  5
470
 10
680.127
 20
-246.329
 30
0.000000
  70
    32
  0
VERTEX
  8
┌▓È_1
  5
471
 10
680.163
 20
-246.363
 30
0.000000
  70
    32
  0
VERTEX
  8
┌▓È_1
  5
472
 10
680.199
 20
-246.396
 30
0.000000
  70
    32
  0
VERTEX
  8
┌▓È_1
  5
473
 10
680.235
 20
-246.429
 30
0.000000
  70
    32
  0
VERTEX
  8
┌▓È_1
  5
474
 10
680.271
 20
-246.462
 30
0.000000
  70
    32
  0
VERTEX
  8
┌▓È_1
  5
475
 10
680.308
 20
-246.495
 30
0.000000
  70
    32
  0
VERTEX
  8
┌▓È_1
  5
476
 10
680.344
 20
-246.528
 30
0.000000
  70
    32
  0
VERTEX
  8
┌▓È_1
  5
477
 10
680.380
 20
-246.561
 30
0.000000
  70
    32
  0
VERTEX
  8
┌▓È_1
  5
478
 10
680.416
 20
-246.594
 30
0.000000
  70
    32
  0
VERTEX
  8
┌▓È_1
  5
479
 10
680.452
 20
-246.627
 30
0.000000
  70
    32
  0
VERTEX
  8
┌▓È_1
  5
47A
 10
680.488
 20
-246.659
 30
0.000000
  70
    32
  0
VERTEX
  8
┌▓È_1
  5
47B
 10
680.524
 20
-246.692
 30
0.000000
  70
    32
  0
VERTEX
  8
┌▓È_1
  5
47C
 10
680.561
 20
-246.725
 30
0.000000
  70
    32
  0
VERTEX
  8
┌▓È_1
  5
47D
 10
680.597
 20
-246.758
 30
0.000000
  70
    32
  0
VERTEX
  8
┌▓È_1
  5
47E
 10
680.633
 20
-246.791
 30
0.000000
  70
    32
  0
VERTEX
  8
┌▓È_1
  5
47F
 10
680.669
 20
-246.824
 30
0.000000
  70
    32
  0
VERTEX
  8
┌▓È_1
  5
480
 10
680.706
 20
-246.857
 30
0.000000
  70
    32
  0
VERTEX
  8
┌▓È_1
  5
481
 10
680.742
 20
-246.889
 30
0.000000
  70
    32
  0
VERTEX
  8
┌▓È_1
  5
482
 10
680.778
 20
-246.922
 30
0.000000
  70
    32
  0
VERTEX
  8
┌▓È_1
  5
483
 10
680.814
 20
-246.955
 30
0.000000
  70
    32
  0
VERTEX
  8
┌▓È_1
  5
484
 10
680.851
 20
-246.988
 30
0.000000
  70
    32
  0
VERTEX
  8
┌▓È_1
  5
485
 10
680.887
 20
-247.020
 30
0.000000
  70
    32
  0
VERTEX
  8
┌▓È_1
  5
486
 10
680.923
 20
-247.053
 30
0.000000
  70
    32
  0
VERTEX
  8
┌▓È_1
  5
487
 10
680.960
 20
-247.085
 30
0.000000
  70
    32
  0
VERTEX
  8
┌▓È_1
  5
488
 10
680.996
 20
-247.118
 30
0.000000
  70
    32
  0
VERTEX
  8
┌▓È_1
  5
489
 10
681.032
 20
-247.151
 30
0.000000
  70
    32
  0
VERTEX
  8
┌▓È_1
  5
48A
 10
681.069
 20
-247.183
 30
0.000000
  70
    32
  0
VERTEX
  8
┌▓È_1
  5
48B
 10
681.105
 20
-247.216
 30
0.000000
  70
    32
  0
VERTEX
  8
┌▓È_1
  5
48C
 10
681.142
 20
-247.248
 30
0.000000
  70
    32
  0
VERTEX
  8
┌▓È_1
  5
48D
 10
681.178
 20
-247.280
 30
0.000000
  70
    32
  0
VERTEX
  8
┌▓È_1
  5
48E
 10
681.215
 20
-247.313
 30
0.000000
  70
    32
  0
VERTEX
  8
┌▓È_1
  5
48F
 10
681.251
 20
-247.345
 30
0.000000
  70
    32
  0
VERTEX
  8
┌▓È_1
  5
490
 10
681.288
 20
-247.378
 30
0.000000
  70
    32
  0
VERTEX
  8
┌▓È_1
  5
491
 10
681.324
 20
-247.410
 30
0.000000
  70
    32
  0
VERTEX
  8
┌▓È_1
  5
492
 10
681.361
 20
-247.442
 30
0.000000
  70
    32
  0
VERTEX
  8
┌▓È_1
  5
493
 10
681.397
 20
-247.474
 30
0.000000
  70
    32
  0
VERTEX
  8
┌▓È_1
  5
494
 10
681.434
 20
-247.506
 30
0.000000
  70
    32
  0
VERTEX
  8
┌▓È_1
  5
495
 10
681.470
 20
-247.539
 30
0.000000
  70
    32
  0
VERTEX
  8
┌▓È_1
  5
496
 10
681.507
 20
-247.571
 30
0.000000
  70
    32
  0
VERTEX
  8
┌▓È_1
  5
497
 10
681.544
 20
-247.603
 30
0.000000
  70
    32
  0
VERTEX
  8
┌▓È_1
  5
498
 10
681.580
 20
-247.635
 30
0.000000
  70
    32
  0
VERTEX
  8
┌▓È_1
  5
499
 10
681.617
 20
-247.667
 30
0.000000
  70
    32
  0
VERTEX
  8
┌▓È_1
  5
49A
 10
681.654
 20
-247.699
 30
0.000000
  70
    32
  0
VERTEX
  8
┌▓È_1
  5
49B
 10
681.690
 20
-247.731
 30
0.000000
  70
    32
  0
VERTEX
  8
┌▓È_1
  5
49C
 10
681.727
 20
-247.762
 30
0.000000
  70
    32
  0
VERTEX
  8
┌▓È_1
  5
49D
 10
681.764
 20
-247.794
 30
0.000000
  70
    32
  0
VERTEX
  8
┌▓È_1
  5
49E
 10
681.801
 20
-247.826
 30
0.000000
  70
    32
  0
VERTEX
  8
┌▓È_1
  5
49F
 10
681.838
 20
-247.858
 30
0.000000
  70
    32
  0
VERTEX
  8
┌▓È_1
  5
4A0
 10
681.874
 20
-247.889
 30
0.000000
  70
    32
  0
VERTEX
  8
┌▓È_1
  5
4A1
 10
681.911
 20
-247.921
 30
0.000000
  70
    32
  0
VERTEX
  8
┌▓È_1
  5
4A2
 10
681.948
 20
-247.953
 30
0.000000
  70
    32
  0
VERTEX
  8
┌▓È_1
  5
4A3
 10
681.985
 20
-247.984
 30
0.000000
  70
    32
  0
VERTEX
  8
┌▓È_1
  5
4A4
 10
682.022
 20
-248.016
 30
0.000000
  70
    32
  0
VERTEX
  8
┌▓È_1
  5
4A5
 10
682.059
 20
-248.047
 30
0.000000
  70
    32
  0
VERTEX
  8
┌▓È_1
  5
4A6
 10
682.096
 20
-248.079
 30
0.000000
  70
    32
  0
VERTEX
  8
┌▓È_1
  5
4A7
 10
682.133
 20
-248.110
 30
0.000000
  70
    32
  0
VERTEX
  8
┌▓È_1
  5
4A8
 10
682.170
 20
-248.141
 30
0.000000
  70
    32
  0
VERTEX
  8
┌▓È_1
  5
4A9
 10
682.207
 20
-248.172
 30
0.000000
  70
    32
  0
VERTEX
  8
┌▓È_1
  5
4AA
 10
682.244
 20
-248.204
 30
0.000000
  70
    32
  0
VERTEX
  8
┌▓È_1
  5
4AB
 10
682.281
 20
-248.235
 30
0.000000
  70
    32
  0
VERTEX
  8
┌▓È_1
  5
4AC
 10
682.319
 20
-248.266
 30
0.000000
  70
    32
  0
VERTEX
  8
┌▓È_1
  5
4AD
 10
682.356
 20
-248.297
 30
0.000000
  70
    32
  0
VERTEX
  8
┌▓È_1
  5
4AE
 10
682.393
 20
-248.328
 30
0.000000
  70
    32
  0
VERTEX
  8
┌▓È_1
  5
4AF
 10
682.430
 20
-248.359
 30
0.000000
  70
    32
  0
VERTEX
  8
┌▓È_1
  5
4B0
 10
682.468
 20
-248.389
 30
0.000000
  70
    32
  0
VERTEX
  8
┌▓È_1
  5
4B1
 10
682.505
 20
-248.420
 30
0.000000
  70
    32
  0
VERTEX
  8
┌▓È_1
  5
4B2
 10
682.542
 20
-248.451
 30
0.000000
  70
    32
  0
VERTEX
  8
┌▓È_1
  5
4B3
 10
682.580
 20
-248.482
 30
0.000000
  70
    32
  0
VERTEX
  8
┌▓È_1
  5
4B4
 10
682.617
 20
-248.512
 30
0.000000
  70
    32
  0
VERTEX
  8
┌▓È_1
  5
4B5
 10
682.655
 20
-248.543
 30
0.000000
  70
    32
  0
VERTEX
  8
┌▓È_1
  5
4B6
 10
682.692
 20
-248.573
 30
0.000000
  70
    32
  0
VERTEX
  8
┌▓È_1
  5
4B7
 10
682.730
 20
-248.604
 30
0.000000
  70
    32
  0
VERTEX
  8
┌▓È_1
  5
4B8
 10
682.767
 20
-248.634
 30
0.000000
  70
    32
  0
VERTEX
  8
┌▓È_1
  5
4B9
 10
682.805
 20
-248.665
 30
0.000000
  70
    32
  0
VERTEX
  8
┌▓È_1
  5
4BA
 10
682.842
 20
-248.695
 30
0.000000
  70
    32
  0
VERTEX
  8
┌▓È_1
  5
4BB
 10
682.880
 20
-248.725
 30
0.000000
  70
    32
  0
VERTEX
  8
┌▓È_1
  5
4BC
 10
682.918
 20
-248.755
 30
0.000000
  70
    32
  0
VERTEX
  8
┌▓È_1
  5
4BD
 10
682.955
 20
-248.785
 30
0.000000
  70
    32
  0
VERTEX
  8
┌▓È_1
  5
4BE
 10
682.993
 20
-248.815
 30
0.000000
  70
    32
  0
VERTEX
  8
┌▓È_1
  5
4BF
 10
683.031
 20
-248.845
 30
0.000000
  70
    32
  0
VERTEX
  8
┌▓È_1
  5
4C0
 10
683.069
 20
-248.875
 30
0.000000
  70
    32
  0
VERTEX
  8
┌▓È_1
  5
4C1
 10
683.107
 20
-248.905
 30
0.000000
  70
    32
  0
VERTEX
  8
┌▓È_1
  5
4C2
 10
683.145
 20
-248.934
 30
0.000000
  70
    32
  0
VERTEX
  8
┌▓È_1
  5
4C3
 10
683.183
 20
-248.964
 30
0.000000
  70
    32
  0
VERTEX
  8
┌▓È_1
  5
4C4
 10
683.221
 20
-248.994
 30
0.000000
  70
    32
  0
VERTEX
  8
┌▓È_1
  5
4C5
 10
683.259
 20
-249.023
 30
0.000000
  70
    32
  0
VERTEX
  8
┌▓È_1
  5
4C6
 10
683.297
 20
-249.053
 30
0.000000
  70
    32
  0
VERTEX
  8
┌▓È_1
  5
4C7
 10
683.335
 20
-249.082
 30
0.000000
  70
    32
  0
VERTEX
  8
┌▓È_1
  5
4C8
 10
683.373
 20
-249.111
 30
0.000000
  70
    32
  0
VERTEX
  8
┌▓È_1
  5
4C9
 10
683.411
 20
-249.140
 30
0.000000
  70
    32
  0
VERTEX
  8
┌▓È_1
  5
4CA
 10
683.449
 20
-249.170
 30
0.000000
  70
    32
  0
VERTEX
  8
┌▓È_1
  5
4CB
 10
683.488
 20
-249.199
 30
0.000000
  70
    32
  0
VERTEX
  8
┌▓È_1
  5
4CC
 10
683.526
 20
-249.228
 30
0.000000
  70
    32
  0
VERTEX
  8
┌▓È_1
  5
4CD
 10
683.564
 20
-249.256
 30
0.000000
  70
    32
  0
VERTEX
  8
┌▓È_1
  5
4CE
 10
683.603
 20
-249.285
 30
0.000000
  70
    32
  0
VERTEX
  8
┌▓È_1
  5
4CF
 10
683.641
 20
-249.314
 30
0.000000
  70
    32
  0
VERTEX
  8
┌▓È_1
  5
4D0
 10
683.679
 20
-249.343
 30
0.000000
  70
    32
  0
VERTEX
  8
┌▓È_1
  5
4D1
 10
683.718
 20
-249.371
 30
0.000000
  70
    32
  0
VERTEX
  8
┌▓È_1
  5
4D2
 10
683.757
 20
-249.400
 30
0.000000
  70
    32
  0
VERTEX
  8
┌▓È_1
  5
4D3
 10
683.795
 20
-249.428
 30
0.000000
  70
    32
  0
VERTEX
  8
┌▓È_1
  5
4D4
 10
683.834
 20
-249.457
 30
0.000000
  70
    32
  0
VERTEX
  8
┌▓È_1
  5
4D5
 10
683.873
 20
-249.485
 30
0.000000
  70
    32
  0
VERTEX
  8
┌▓È_1
  5
4D6
 10
683.911
 20
-249.513
 30
0.000000
  70
    32
  0
VERTEX
  8
┌▓È_1
  5
4D7
 10
683.950
 20
-249.541
 30
0.000000
  70
    32
  0
VERTEX
  8
┌▓È_1
  5
4D8
 10
683.989
 20
-249.569
 30
0.000000
  70
    32
  0
VERTEX
  8
┌▓È_1
  5
4D9
 10
684.028
 20
-249.597
 30
0.000000
  70
    32
  0
VERTEX
  8
┌▓È_1
  5
4DA
 10
684.067
 20
-249.625
 30
0.000000
  70
    32
  0
VERTEX
  8
┌▓È_1
  5
4DB
 10
684.106
 20
-249.653
 30
0.000000
  70
    32
  0
VERTEX
  8
┌▓È_1
  5
4DC
 10
684.145
 20
-249.680
 30
0.000000
  70
    32
  0
VERTEX
  8
┌▓È_1
  5
4DD
 10
684.184
 20
-249.708
 30
0.000000
  70
    32
  0
VERTEX
  8
┌▓È_1
  5
4DE
 10
684.223
 20
-249.736
 30
0.000000
  70
    32
  0
VERTEX
  8
┌▓È_1
  5
4DF
 10
684.262
 20
-249.763
 30
0.000000
  70
    32
  0
VERTEX
  8
┌▓È_1
  5
4E0
 10
684.301
 20
-249.790
 30
0.000000
  70
    32
  0
VERTEX
  8
┌▓È_1
  5
4E1
 10
684.340
 20
-249.817
 30
0.000000
  70
    32
  0
VERTEX
  8
┌▓È_1
  5
4E2
 10
684.380
 20
-249.845
 30
0.000000
  70
    32
  0
VERTEX
  8
┌▓È_1
  5
4E3
 10
684.419
 20
-249.872
 30
0.000000
  70
    32
  0
VERTEX
  8
┌▓È_1
  5
4E4
 10
684.458
 20
-249.899
 30
0.000000
  70
    32
  0
VERTEX
  8
┌▓È_1
  5
4E5
 10
684.498
 20
-249.925
 30
0.000000
  70
    32
  0
VERTEX
  8
┌▓È_1
  5
4E6
 10
684.537
 20
-249.952
 30
0.000000
  70
    32
  0
VERTEX
  8
┌▓È_1
  5
4E7
 10
684.577
 20
-249.979
 30
0.000000
  70
    32
  0
VERTEX
  8
┌▓È_1
  5
4E8
 10
684.617
 20
-250.005
 30
0.000000
  70
    32
  0
VERTEX
  8
┌▓È_1
  5
4E9
 10
684.656
 20
-250.032
 30
0.000000
  70
    32
  0
VERTEX
  8
┌▓È_1
  5
4EA
 10
684.696
 20
-250.058
 30
0.000000
  70
    32
  0
VERTEX
  8
┌▓È_1
  5
4EB
 10
684.736
 20
-250.085
 30
0.000000
  70
    32
  0
VERTEX
  8
┌▓È_1
  5
4EC
 10
684.776
 20
-250.111
 30
0.000000
  70
    32
  0
VERTEX
  8
┌▓È_1
  5
4ED
 10
684.815
 20
-250.137
 30
0.000000
  70
    32
  0
VERTEX
  8
┌▓È_1
  5
4EE
 10
684.855
 20
-250.163
 30
0.000000
  70
    32
  0
VERTEX
  8
┌▓È_1
  5
4EF
 10
684.895
 20
-250.189
 30
0.000000
  70
    32
  0
VERTEX
  8
┌▓È_1
  5
4F0
 10
684.935
 20
-250.215
 30
0.000000
  70
    32
  0
VERTEX
  8
┌▓È_1
  5
4F1
 10
684.975
 20
-250.240
 30
0.000000
  70
    32
  0
VERTEX
  8
┌▓È_1
  5
4F2
 10
685.016
 20
-250.266
 30
0.000000
  70
    32
  0
VERTEX
  8
┌▓È_1
  5
4F3
 10
685.056
 20
-250.291
 30
0.000000
  70
    32
  0
VERTEX
  8
┌▓È_1
  5
4F4
 10
685.096
 20
-250.317
 30
0.000000
  70
    32
  0
VERTEX
  8
┌▓È_1
  5
4F5
 10
685.136
 20
-250.342
 30
0.000000
  70
    32
  0
VERTEX
  8
┌▓È_1
  5
4F6
 10
685.177
 20
-250.367
 30
0.000000
  70
    32
  0
VERTEX
  8
┌▓È_1
  5
4F7
 10
685.217
 20
-250.392
 30
0.000000
  70
    32
  0
VERTEX
  8
┌▓È_1
  5
4F8
 10
685.258
 20
-250.417
 30
0.000000
  70
    32
  0
VERTEX
  8
┌▓È_1
  5
4F9
 10
685.298
 20
-250.442
 30
0.000000
  70
    32
  0
VERTEX
  8
┌▓È_1
  5
4FA
 10
685.339
 20
-250.467
 30
0.000000
  70
    32
  0
VERTEX
  8
┌▓È_1
  5
4FB
 10
685.379
 20
-250.491
 30
0.000000
  70
    32
  0
VERTEX
  8
┌▓È_1
  5
4FC
 10
685.420
 20
-250.516
 30
0.000000
  70
    32
  0
SEQEND
  8
┌▓È_1
  5
4FD
  0
POLYLINE
  8
┌▓È_1
  5
4FE
  66
     1
 10
0.000000
 20
0.000000
 30
0.000000
  70
     8
  0
VERTEX
  8
┌▓È_1
  5
4FF
 10
690.360
 20
-252.684
 30
0.000000
  70
    32
  0
VERTEX
  8
┌▓È_1
  5
500
 10
690.414
 20
-252.701
 30
0.000000
  70
    32
  0
VERTEX
  8
┌▓È_1
  5
501
 10
690.467
 20
-252.718
 30
0.000000
  70
    32
  0
VERTEX
  8
┌▓È_1
  5
502
 10
690.521
 20
-252.735
 30
0.000000
  70
    32
  0
VERTEX
  8
┌▓È_1
  5
503
 10
690.575
 20
-252.752
 30
0.000000
  70
    32
  0
VERTEX
  8
┌▓È_1
  5
504
 10
690.629
 20
-252.769
 30
0.000000
  70
    32
  0
VERTEX
  8
┌▓È_1
  5
505
 10
690.683
 20
-252.785
 30
0.000000
  70
    32
  0
VERTEX
  8
┌▓È_1
  5
506
 10
690.738
 20
-252.802
 30
0.000000
  70
    32
  0
VERTEX
  8
┌▓È_1
  5
507
 10
690.792
 20
-252.819
 30
0.000000
  70
    32
  0
VERTEX
  8
┌▓È_1
  5
508
 10
690.846
 20
-252.835
 30
0.000000
  70
    32
  0
VERTEX
  8
┌▓È_1
  5
509
 10
690.900
 20
-252.852
 30
0.000000
  70
    32
  0
VERTEX
  8
┌▓È_1
  5
50A
 10
690.954
 20
-252.868
 30
0.000000
  70
    32
  0
VERTEX
  8
┌▓È_1
  5
50B
 10
691.009
 20
-252.884
 30
0.000000
  70
    32
  0
VERTEX
  8
┌▓È_1
  5
50C
 10
691.063
 20
-252.900
 30
0.000000
  70
    32
  0
VERTEX
  8
┌▓È_1
  5
50D
 10
691.117
 20
-252.916
 30
0.000000
  70
    32
  0
VERTEX
  8
┌▓È_1
  5
50E
 10
691.172
 20
-252.932
 30
0.000000
  70
    32
  0
VERTEX
  8
┌▓È_1
  5
50F
 10
691.226
 20
-252.948
 30
0.000000
  70
    32
  0
VERTEX
  8
┌▓È_1
  5
510
 10
691.281
 20
-252.964
 30
0.000000
  70
    32
  0
VERTEX
  8
┌▓È_1
  5
511
 10
691.335
 20
-252.980
 30
0.000000
  70
    32
  0
VERTEX
  8
┌▓È_1
  5
512
 10
691.390
 20
-252.996
 30
0.000000
  70
    32
  0
VERTEX
  8
┌▓È_1
  5
513
 10
691.445
 20
-253.012
 30
0.000000
  70
    32
  0
VERTEX
  8
┌▓È_1
  5
514
 10
691.499
 20
-253.027
 30
0.000000
  70
    32
  0
VERTEX
  8
┌▓È_1
  5
515
 10
691.554
 20
-253.043
 30
0.000000
  70
    32
  0
VERTEX
  8
┌▓È_1
  5
516
 10
691.609
 20
-253.058
 30
0.000000
  70
    32
  0
VERTEX
  8
┌▓È_1
  5
517
 10
691.664
 20
-253.074
 30
0.000000
  70
    32
  0
VERTEX
  8
┌▓È_1
  5
518
 10
691.719
 20
-253.089
 30
0.000000
  70
    32
  0
VERTEX
  8
┌▓È_1
  5
519
 10
691.773
 20
-253.104
 30
0.000000
  70
    32
  0
VERTEX
  8
┌▓È_1
  5
51A
 10
691.828
 20
-253.119
 30
0.000000
  70
    32
  0
VERTEX
  8
┌▓È_1
  5
51B
 10
691.883
 20
-253.134
 30
0.000000
  70
    32
  0
VERTEX
  8
┌▓È_1
  5
51C
 10
691.938
 20
-253.150
 30
0.000000
  70
    32
  0
VERTEX
  8
┌▓È_1
  5
51D
 10
691.993
 20
-253.165
 30
0.000000
  70
    32
  0
VERTEX
  8
┌▓È_1
  5
51E
 10
692.048
 20
-253.179
 30
0.000000
  70
    32
  0
VERTEX
  8
┌▓È_1
  5
51F
 10
692.103
 20
-253.194
 30
0.000000
  70
    32
  0
VERTEX
  8
┌▓È_1
  5
520
 10
692.159
 20
-253.209
 30
0.000000
  70
    32
  0
VERTEX
  8
┌▓È_1
  5
521
 10
692.214
 20
-253.224
 30
0.000000
  70
    32
  0
VERTEX
  8
┌▓È_1
  5
522
 10
692.269
 20
-253.238
 30
0.000000
  70
    32
  0
VERTEX
  8
┌▓È_1
  5
523
 10
692.324
 20
-253.253
 30
0.000000
  70
    32
  0
VERTEX
  8
┌▓È_1
  5
524
 10
692.379
 20
-253.268
 30
0.000000
  70
    32
  0
VERTEX
  8
┌▓È_1
  5
525
 10
692.435
 20
-253.282
 30
0.000000
  70
    32
  0
VERTEX
  8
┌▓È_1
  5
526
 10
692.490
 20
-253.297
 30
0.000000
  70
    32
  0
VERTEX
  8
┌▓È_1
  5
527
 10
692.545
 20
-253.311
 30
0.000000
  70
    32
  0
VERTEX
  8
┌▓È_1
  5
528
 10
692.601
 20
-253.325
 30
0.000000
  70
    32
  0
VERTEX
  8
┌▓È_1
  5
529
 10
692.656
 20
-253.339
 30
0.000000
  70
    32
  0
VERTEX
  8
┌▓È_1
  5
52A
 10
692.712
 20
-253.354
 30
0.000000
  70
    32
  0
VERTEX
  8
┌▓È_1
  5
52B
 10
692.767
 20
-253.368
 30
0.000000
  70
    32
  0
VERTEX
  8
┌▓È_1
  5
52C
 10
692.823
 20
-253.382
 30
0.000000
  70
    32
  0
VERTEX
  8
┌▓È_1
  5
52D
 10
692.878
 20
-253.396
 30
0.000000
  70
    32
  0
VERTEX
  8
┌▓È_1
  5
52E
 10
692.934
 20
-253.410
 30
0.000000
  70
    32
  0
VERTEX
  8
┌▓È_1
  5
52F
 10
692.989
 20
-253.424
 30
0.000000
  70
    32
  0
VERTEX
  8
┌▓È_1
  5
530
 10
693.045
 20
-253.438
 30
0.000000
  70
    32
  0
VERTEX
  8
┌▓È_1
  5
531
 10
693.101
 20
-253.451
 30
0.000000
  70
    32
  0
VERTEX
  8
┌▓È_1
  5
532
 10
693.156
 20
-253.465
 30
0.000000
  70
    32
  0
VERTEX
  8
┌▓È_1
  5
533
 10
693.212
 20
-253.479
 30
0.000000
  70
    32
  0
VERTEX
  8
┌▓È_1
  5
534
 10
693.268
 20
-253.493
 30
0.000000
  70
    32
  0
VERTEX
  8
┌▓È_1
  5
535
 10
693.323
 20
-253.506
 30
0.000000
  70
    32
  0
VERTEX
  8
┌▓È_1
  5
536
 10
693.379
 20
-253.520
 30
0.000000
  70
    32
  0
VERTEX
  8
┌▓È_1
  5
537
 10
693.435
 20
-253.533
 30
0.000000
  70
    32
  0
VERTEX
  8
┌▓È_1
  5
538
 10
693.491
 20
-253.547
 30
0.000000
  70
    32
  0
VERTEX
  8
┌▓È_1
  5
539
 10
693.547
 20
-253.560
 30
0.000000
  70
    32
  0
VERTEX
  8
┌▓È_1
  5
53A
 10
693.603
 20
-253.574
 30
0.000000
  70
    32
  0
VERTEX
  8
┌▓È_1
  5
53B
 10
693.659
 20
-253.587
 30
0.000000
  70
    32
  0
VERTEX
  8
┌▓È_1
  5
53C
 10
693.714
 20
-253.600
 30
0.000000
  70
    32
  0
VERTEX
  8
┌▓È_1
  5
53D
 10
693.770
 20
-253.613
 30
0.000000
  70
    32
  0
VERTEX
  8
┌▓È_1
  5
53E
 10
693.826
 20
-253.627
 30
0.000000
  70
    32
  0
VERTEX
  8
┌▓È_1
  5
53F
 10
693.882
 20
-253.640
 30
0.000000
  70
    32
  0
VERTEX
  8
┌▓È_1
  5
540
 10
693.938
 20
-253.653
 30
0.000000
  70
    32
  0
VERTEX
  8
┌▓È_1
  5
541
 10
693.995
 20
-253.666
 30
0.000000
  70
    32
  0
VERTEX
  8
┌▓È_1
  5
542
 10
694.051
 20
-253.679
 30
0.000000
  70
    32
  0
VERTEX
  8
┌▓È_1
  5
543
 10
694.107
 20
-253.692
 30
0.000000
  70
    32
  0
VERTEX
  8
┌▓È_1
  5
544
 10
694.163
 20
-253.705
 30
0.000000
  70
    32
  0
VERTEX
  8
┌▓È_1
  5
545
 10
694.219
 20
-253.718
 30
0.000000
  70
    32
  0
VERTEX
  8
┌▓È_1
  5
546
 10
694.275
 20
-253.731
 30
0.000000
  70
    32
  0
VERTEX
  8
┌▓È_1
  5
547
 10
694.331
 20
-253.743
 30
0.000000
  70
    32
  0
VERTEX
  8
┌▓È_1
  5
548
 10
694.388
 20
-253.756
 30
0.000000
  70
    32
  0
VERTEX
  8
┌▓È_1
  5
549
 10
694.444
 20
-253.769
 30
0.000000
  70
    32
  0
VERTEX
  8
┌▓È_1
  5
54A
 10
694.500
 20
-253.782
 30
0.000000
  70
    32
  0
VERTEX
  8
┌▓È_1
  5
54B
 10
694.556
 20
-253.794
 30
0.000000
  70
    32
  0
VERTEX
  8
┌▓È_1
  5
54C
 10
694.613
 20
-253.807
 30
0.000000
  70
    32
  0
VERTEX
  8
┌▓È_1
  5
54D
 10
694.669
 20
-253.820
 30
0.000000
  70
    32
  0
VERTEX
  8
┌▓È_1
  5
54E
 10
694.725
 20
-253.832
 30
0.000000
  70
    32
  0
VERTEX
  8
┌▓È_1
  5
54F
 10
694.781
 20
-253.845
 30
0.000000
  70
    32
  0
VERTEX
  8
┌▓È_1
  5
550
 10
694.838
 20
-253.857
 30
0.000000
  70
    32
  0
VERTEX
  8
┌▓È_1
  5
551
 10
694.894
 20
-253.870
 30
0.000000
  70
    32
  0
VERTEX
  8
┌▓È_1
  5
552
 10
694.951
 20
-253.882
 30
0.000000
  70
    32
  0
VERTEX
  8
┌▓È_1
  5
553
 10
695.007
 20
-253.895
 30
0.000000
  70
    32
  0
VERTEX
  8
┌▓È_1
  5
554
 10
695.063
 20
-253.907
 30
0.000000
  70
    32
  0
VERTEX
  8
┌▓È_1
  5
555
 10
695.120
 20
-253.920
 30
0.000000
  70
    32
  0
VERTEX
  8
┌▓È_1
  5
556
 10
695.176
 20
-253.932
 30
0.000000
  70
    32
  0
VERTEX
  8
┌▓È_1
  5
557
 10
695.233
 20
-253.944
 30
0.000000
  70
    32
  0
VERTEX
  8
┌▓È_1
  5
558
 10
695.289
 20
-253.956
 30
0.000000
  70
    32
  0
VERTEX
  8
┌▓È_1
  5
559
 10
695.346
 20
-253.969
 30
0.000000
  70
    32
  0
VERTEX
  8
┌▓È_1
  5
55A
 10
695.402
 20
-253.981
 30
0.000000
  70
    32
  0
VERTEX
  8
┌▓È_1
  5
55B
 10
695.459
 20
-253.993
 30
0.000000
  70
    32
  0
VERTEX
  8
┌▓È_1
  5
55C
 10
695.515
 20
-254.005
 30
0.000000
  70
    32
  0
VERTEX
  8
┌▓È_1
  5
55D
 10
695.572
 20
-254.018
 30
0.000000
  70
    32
  0
VERTEX
  8
┌▓È_1
  5
55E
 10
695.628
 20
-254.030
 30
0.000000
  70
    32
  0
VERTEX
  8
┌▓È_1
  5
55F
 10
695.685
 20
-254.042
 30
0.000000
  70
    32
  0
VERTEX
  8
┌▓È_1
  5
560
 10
695.741
 20
-254.054
 30
0.000000
  70
    32
  0
VERTEX
  8
┌▓È_1
  5
561
 10
695.798
 20
-254.066
 30
0.000000
  70
    32
  0
VERTEX
  8
┌▓È_1
  5
562
 10
695.855
 20
-254.078
 30
0.000000
  70
    32
  0
VERTEX
  8
┌▓È_1
  5
563
 10
695.911
 20
-254.090
 30
0.000000
  70
    32
  0
VERTEX
  8
┌▓È_1
  5
564
 10
695.968
 20
-254.102
 30
0.000000
  70
    32
  0
VERTEX
  8
┌▓È_1
  5
565
 10
696.024
 20
-254.114
 30
0.000000
  70
    32
  0
VERTEX
  8
┌▓È_1
  5
566
 10
696.081
 20
-254.126
 30
0.000000
  70
    32
  0
VERTEX
  8
┌▓È_1
  5
567
 10
696.138
 20
-254.138
 30
0.000000
  70
    32
  0
VERTEX
  8
┌▓È_1
  5
568
 10
696.194
 20
-254.150
 30
0.000000
  70
    32
  0
VERTEX
  8
┌▓È_1
  5
569
 10
696.251
 20
-254.162
 30
0.000000
  70
    32
  0
VERTEX
  8
┌▓È_1
  5
56A
 10
696.308
 20
-254.174
 30
0.000000
  70
    32
  0
VERTEX
  8
┌▓È_1
  5
56B
 10
696.364
 20
-254.186
 30
0.000000
  70
    32
  0
VERTEX
  8
┌▓È_1
  5
56C
 10
696.421
 20
-254.198
 30
0.000000
  70
    32
  0
VERTEX
  8
┌▓È_1
  5
56D
 10
696.478
 20
-254.210
 30
0.000000
  70
    32
  0
VERTEX
  8
┌▓È_1
  5
56E
 10
696.534
 20
-254.222
 30
0.000000
  70
    32
  0
VERTEX
  8
┌▓È_1
  5
56F
 10
696.591
 20
-254.234
 30
0.000000
  70
    32
  0
VERTEX
  8
┌▓È_1
  5
570
 10
696.648
 20
-254.245
 30
0.000000
  70
    32
  0
VERTEX
  8
┌▓È_1
  5
571
 10
696.705
 20
-254.257
 30
0.000000
  70
    32
  0
VERTEX
  8
┌▓È_1
  5
572
 10
696.761
 20
-254.269
 30
0.000000
  70
    32
  0
VERTEX
  8
┌▓È_1
  5
573
 10
696.818
 20
-254.281
 30
0.000000
  70
    32
  0
VERTEX
  8
┌▓È_1
  5
574
 10
696.875
 20
-254.293
 30
0.000000
  70
    32
  0
VERTEX
  8
┌▓È_1
  5
575
 10
696.931
 20
-254.305
 30
0.000000
  70
    32
  0
VERTEX
  8
┌▓È_1
  5
576
 10
696.988
 20
-254.316
 30
0.000000
  70
    32
  0
VERTEX
  8
┌▓È_1
  5
577
 10
697.045
 20
-254.328
 30
0.000000
  70
    32
  0
VERTEX
  8
┌▓È_1
  5
578
 10
697.102
 20
-254.340
 30
0.000000
  70
    32
  0
VERTEX
  8
┌▓È_1
  5
579
 10
697.158
 20
-254.352
 30
0.000000
  70
    32
  0
VERTEX
  8
┌▓È_1
  5
57A
 10
697.215
 20
-254.364
 30
0.000000
  70
    32
  0
VERTEX
  8
┌▓È_1
  5
57B
 10
697.272
 20
-254.375
 30
0.000000
  70
    32
  0
VERTEX
  8
┌▓È_1
  5
57C
 10
697.329
 20
-254.387
 30
0.000000
  70
    32
  0
VERTEX
  8
┌▓È_1
  5
57D
 10
697.385
 20
-254.399
 30
0.000000
  70
    32
  0
VERTEX
  8
┌▓È_1
  5
57E
 10
697.442
 20
-254.411
 30
0.000000
  70
    32
  0
SEQEND
  8
┌▓È_1
  5
57F
  0
LINE
  5
E4
  8
┌▓È_1
 10
712.24621998100008
 20
-242.7934307335
 30
0.0
 11
713.87707976939987
 21
-240.4108885144
 31
0.0
  0
LINE
  5
E5
  8
┌▓È_1
 10
715.87707976939998
 20
-255.4108885144
 30
0.0
 11
710.27707976940007
 21
-255.4108885144
 31
0.0
  0
LINE
  5
E6
  8
┌▓È_1
 10
657.12090235160008
 20
-247.4108885144
 30
0.0
 11
656.81869472849985
 21
-247.4108885144
 31
0.0
  0
LINE
  5
E7
  8
┌▓È_1
 10
697.44211447279986
 20
-251.4108885144
 30
0.0
 11
697.44211447279986
 21
-254.4108885144
 31
0.0
  0
LINE
  5
E8
  8
┌▓È_1
 10
693.16755317699995
 20
-250.10915093240001
 30
0.0
 11
692.81134905739998
 21
-250.45790722070001
 31
0.0
  0
LINE
  5
E9
  8
┌▓È_1
 10
688.51473945619989
 20
-247.44903032459999
 30
0.0
 11
688.03354784349995
 21
-247.98050704569999
 31
0.0
  0
LINE
  5
EA
  8
┌▓È_1
 62
     5
 10
805.50138918779987
 20
-192.98123444820001
 30
0.0
 11
805.50138918779987
 21
-152.8655329055
 31
0.0
  0
LINE
  5
EB
  8
┌▓È_1
 10
708.3997464360001
 20
-249.01088851439999
 30
0.0
 11
707.93041310270007
 21
-247.4108885144
 31
0.0
  0
LINE
  5
EC
  8
┌▓È_1
 10
710.27707976940007
 20
-255.4108885144
 30
0.0
 11
709.45574643600003
 21
-252.61088851439999
 31
0.0
  0
LINE
  5
ED
  8
┌▓È_1
 10
618.79960937500005
 20
-192.98123444820001
 30
0.0
 11
618.79960937500005
 21
-214.98123444820001
 31
0.0
  0
LINE
  5
EE
  8
┌▓È_1
 10
578.79960937500005
 20
-192.98123444820001
 30
0.0
 11
578.79960937500005
 21
-258.98123444819998
 31
0.0
  0
LINE
  5
EF
  8
┌▓È_1
 62
     5
 10
578.79960937500005
 20
-192.98123444820001
 30
0.0
 11
578.79960937500005
 21
-152.8655329055
 31
0.0
  0
LINE
  5
F0
  8
┌▓È_1
 62
     5
 10
499.30937499999987
 20
-35.330208876599997
 30
0.0
 11
499.30937499999987
 21
-47.33020887659999
 31
0.0
  0
LINE
  5
F1
  8
┌▓È_1
 62
     5
 10
504.80937499999987
 20
-30.3302088766
 30
0.0
 11
504.80937499999987
 21
-52.330208876599997
 31
0.0
  0
LINE
  5
F2
  8
┌▓È_1
 62
     5
 10
504.80937499999987
 20
-52.330208876599997
 30
0.0
 11
503.30937499999987
 21
-52.330208876599997
 31
0.0
  0
ARC
  5
F3
  8
┌▓È_1
 62
     5
 10
503.30937499999987
 20
-50.830208876599997
 30
0.0
 40
1.5
 50
180.0
 51
270.0
  0
ARC
  5
F4
  8
┌▓È_1
 62
     5
 10
503.30937499999987
 20
-31.8302088766
 30
0.0
 40
1.5
 50
90.0
 51
180.0
  0
INSERT
  5
F5
  8
0
  6
CONTINUOUS
  2
*U16
 10
0.0
 20
0.0
 30
0.0
  0
INSERT
  5
F6
  8
0
  6
CONTINUOUS
  2
*U17
 10
0.0
 20
0.0
 30
0.0
  0
INSERT
  5
F7
  8
0
  6
CONTINUOUS
  2
*U18
 10
0.0
 20
0.0
 30
0.0
  0
INSERT
  5
F8
  8
0
  6
CONTINUOUS
  2
*U19
 10
0.0
 20
0.0
 30
0.0
  0
INSERT
  5
F9
  8
0
  6
CONTINUOUS
  2
*U20
 10
0.0
 20
0.0
 30
0.0
  0
INSERT
  5
FA
  8
0
  6
CONTINUOUS
  2
*U21
 10
0.0
 20
0.0
 30
0.0
  0
INSERT
  5
FB
  8
0
  6
CONTINUOUS
  2
*U22
 10
0.0
 20
0.0
 30
0.0
  0
INSERT
  5
FC
  8
0
  6
CONTINUOUS
  2
*U23
 10
0.0
 20
0.0
 30
0.0
  0
INSERT
  5
FD
  8
0
  6
CONTINUOUS
  2
*U24
 10
0.0
 20
0.0
 30
0.0
  0
INSERT
  5
FE
  8
0
  6
CONTINUOUS
  2
*U25
 10
0.0
 20
0.0
 30
0.0
  0
INSERT
  5
FF
  8
0
  6
CONTINUOUS
  2
*U26
 10
0.0
 20
0.0
 30
0.0
  0
LINE
  5
100
  8
┌▓È_1
 10
657.12090235160008
 20
-250.4108885144
 30
0.0
 11
662.12090235160008
 21
-250.4108885144
 31
0.0
  0
LINE
  5
101
  8
┌▓È_1
 62
     5
 10
703.75278463079985
 20
-192.98123444820001
 30
0.0
 11
703.75278463079985
 21
-152.8655329055
 31
0.0
  0
LINE
  5
102
  8
┌▓È_1
 62
     5
 10
829.71301854899991
 20
-192.98123444820001
 30
0.0
 11
829.71301854899991
 21
-152.8655329055
 31
0.0
  0
LINE
  5
103
  8
┌▓È_1
 62
     5
 10
666.34819715460003
 20
-204.7065315433
 30
0.0
 11
692.68893789529989
 21
-204.7065315433
 31
0.0
  0
LINE
  5
104
  8
┌▓È_1
 10
715.87707976939998
 20
-255.4108885144
 30
0.0
 11
715.07133842399992
 21
-252.61088851439999
 31
0.0
  0
LINE
  5
105
  8
┌▓È_1
 10
712.53900848139995
 20
-243.81088851440001
 30
0.0
 11
712.24621998100008
 21
-242.7934307335
 31
0.0
  0
LINE
  5
106
  8
┌▓È_1
 62
     5
 10
209.55937499999999
 20
236.0660974402
 30
0.0
 11
339.80937499999999
 21
236.0660974402
 31
0.0
  0
LINE
  5
107
  8
┌▓È_1
 62
     5
 10
209.55937499999999
 20
196.0660974402
 30
0.0
 11
339.80937499999999
 21
196.0660974402
 31
0.0
  0
LINE
  5
108
  8
┌▓È_1
 62
     5
 10
339.80937499999999
 20
226.0660974402
 30
0.0
 11
209.55937499999999
 21
226.0660974402
 31
0.0
  0
LINE
  5
109
  8
┌▓È_1
 62
     5
 10
209.55937499999999
 20
156.0505208333
 30
0.0
 11
339.80937499999999
 21
156.0505208333
 31
0.0
  0
LINE
  5
10A
  8
┌▓È_1
 62
     5
 10
349.80937499999999
 20
211.9058343211
 30
0.0
 11
344.78308743029999
 21
206.8795467514
 31
0.0
  0
LINE
  5
10B
  8
┌▓È_1
 62
     5
 10
349.80937499999999
 20
206.8795467514
 30
0.0
 11
344.78308743029999
 21
206.8795467514
 31
0.0
  0
LINE
  5
10C
  8
┌▓È_1
 62
     5
 10
339.80937499999999
 20
211.9058343211
 30
0.0
 11
344.78308743029999
 21
216.8795467514
 31
0.0
  0
LINE
  5
10D
  8
┌▓È_1
 62
     5
 10
339.80937499999999
 20
216.8795467514
 30
0.0
 11
344.78308743029999
 21
216.8795467514
 31
0.0
  0
LINE
  5
10E
  8
┌▓È_1
 62
     5
 10
339.80937499999999
 20
206.8795467514
 30
0.0
 11
339.80937499999999
 21
171.0660974402
 31
0.0
  0
LINE
  5
10F
  8
┌▓È_1
 62
     5
 10
349.80937499999999
 20
206.8795467514
 30
0.0
 11
349.80937499999999
 21
171.0660974402
 31
0.0
  0
LINE
  5
110
  8
┌▓È_1
 62
     5
 10
339.80937499999999
 20
171.0660974402
 30
0.0
 11
339.80937499999999
 21
130.0000233392
 31
0.0
  0
INSERT
  5
112
  8
Éíû@É³
  2
BALLON0
 10
0.0
 20
0.0
 30
0.0
  0
INSERT
  5
11B
  8
0
  6
CONTINUOUS
  2
*U28
 10
0.0
 20
0.0
 30
0.0
  0
INSERT
  5
11C
  8
0
  6
CONTINUOUS
  2
*U29
 10
0.0
 20
0.0
 30
0.0
  0
INSERT
  5
11D
  8
0
  6
CONTINUOUS
  2
*U30
 10
0.0
 20
0.0
 30
0.0
  0
LINE
  5
11E
  8
┌▓È_1
 62
     5
 10
600.66740451390001
 20
-192.98123444820001
 30
0.0
 11
600.66740451390001
 21
-152.8655329055
 31
0.0
  0
LINE
  5
11F
  8
┌▓È_1
 62
     5
 10
501.80937499999999
 20
-50.830208876599997
 30
0.0
 11
501.80937499999999
 21
-31.8302088766
 31
0.0
  0
LINE
  5
120
  8
┌▓È_1
 62
     5
 10
503.30937499999987
 20
-30.3302088766
 30
0.0
 11
504.80937499999987
 21
-30.3302088766
 31
0.0
  0
LINE
  5
121
  8
┌▓È_1
 62
     5
 10
501.80937499999999
 20
-35.330208876599997
 30
0.0
 11
499.30937499999987
 21
-35.330208876599997
 31
0.0
  0
LINE
  5
122
  8
┌▓È_1
 62
     5
 10
495.90358920459988
 20
-41.33020887659999
 30
0.0
 11
507.40309169210002
 21
-41.33020887659999
 31
0.0
  0
LINE
  5
123
  8
┌▓È_1
 62
     5
 10
501.80937499999999
 20
-47.33020887659999
 30
0.0
 11
499.30937499999987
 21
-47.33020887659999
 31
0.0
  0
LINE
  5
124
  8
┌▓È_1
 62
     5
 10
613.21074399589997
 20
-75.044840739799994
 30
0.0
 11
613.21074399589997
 21
-47.478825114799989
 31
0.0
  0
LINE
  5
125
  8
┌▓È_1
 62
     5
 10
578.79960937500005
 20
-136.26893065350001
 30
0.0
 11
578.79960937500005
 21
-152.8655329055
 31
0.0
  0
LINE
  5
126
  8
┌▓È_1
 62
     5
 10
600.66740451390001
 20
-152.8655329055
 30
0.0
 11
600.66740451390001
 21
-136.26893065350001
 31
0.0
  0
LINE
  5
127
  8
┌▓È_1
 62
     5
 10
585.09675762910001
 20
-204.7065315433
 30
0.0
 11
612.72597493230001
 21
-204.7065315433
 31
0.0
  0
LINE
  5
128
  8
┌▓È_1
 62
     5
 10
204.40937500000001
 20
172.58602494499999
 30
0.0
 11
204.40937500000001
 21
171.486024945
 31
0.0
  0
LINE
  5
129
  8
┌▓È_1
 62
     5
 10
203.30937499999999
 20
171.486024945
 30
0.0
 11
204.40937500000001
 21
171.486024945
 31
0.0
  0
LINE
  5
12A
  8
┌▓È_1
 62
     5
 10
205.20937499999999
 20
171.486024945
 30
0.0
 11
206.30937499999999
 21
171.486024945
 31
0.0
  0
LINE
  5
12B
  8
┌▓È_1
 62
     5
 10
205.20937499999999
 20
209.58602494499999
 30
0.0
 11
205.20937499999999
 21
210.68602494500001
 31
0.0
  0
LINE
  5
12C
  8
┌▓È_1
 62
     5
 10
205.20937499999999
 20
211.486024945
 30
0.0
 11
205.20937499999999
 21
212.58602494499999
 31
0.0
  0
LINE
  5
12D
  8
┌▓È_1
 62
     5
 10
206.30937499999999
 20
211.486024945
 30
0.0
 11
206.30937499999999
 21
210.68602494500001
 31
0.0
  0
LINE
  5
12E
  8
┌▓È_1
 62
     5
 10
206.30937499999999
 20
251.486024945
 30
0.0
 11
206.30937499999999
 21
250.68602494500001
 31
0.0
  0
LINE
  5
12F
  8
┌▓È_1
 62
     5
 10
203.30937499999999
 20
210.68602494500001
 30
0.0
 11
203.30937499999999
 21
211.486024945
 31
0.0
  0
LINE
  5
130
  8
┌▓È_1
 62
     5
 10
209.55937499999999
 20
171.0660974402
 30
0.0
 11
209.55937499999999
 21
146.67016834539999
 31
0.0
  0
LINE
  5
131
  8
┌▓È_1
 62
     5
 10
200.05937499999999
 20
146.67016834539999
 30
0.0
 11
200.05937499999999
 21
171.0660974402
 31
0.0
  0
LINE
  5
132
  8
┌▓È_1
  6
BORDER
 62
     5
 10
204.80937499999999
 20
140.26783731840001
 30
0.0
 11
204.80937499999999
 21
171.0660974402
 31
0.0
  0
ARC
  5
133
  8
┌▓È_1
 62
     5
 10
208.55937499999999
 20
146.67016834539999
 30
0.0
 40
1.0
 50
270.0
 51
0.0
  0
ARC
  5
134
  8
┌▓È_1
 62
     5
 10
201.05937499999999
 20
146.67016834539999
 30
0.0
 40
1.0
 50
180.0
 51
270.0
  0
LINE
  5
135
  8
┌▓È_1
  6
BORDER
 62
     5
 10
213.42890625000001
 20
151.07044833809999
 30
0.0
 11
195.69355468750001
 21
151.07044833809999
 31
0.0
  0
ARC
  5
136
  8
┌▓È_1
 62
     5
 10
204.80937499999999
 20
171.07044833809999
 30
0.0
 40
3.3500000000000001
 50
180.07441437599999
 51
359.92558562400001
  0
LINE
  5
137
  8
┌▓È_1
 62
     5
 10
203.30937499999999
 20
170.67044833809999
 30
0.0
 11
203.30937499999999
 21
171.0660974402
 31
0.0
  0
LINE
  5
138
  8
┌▓È_1
 62
     5
 10
206.30937499999999
 20
171.0660974402
 30
0.0
 11
206.30937499999999
 21
170.67044833809999
 31
0.0
  0
INSERT
  5
13A
  8
Éíû@É³
  2
BALLON1
 10
0.0
 20
0.0
 30
0.0
  0
LINE
  5
143
  8
┌▓È_1
 62
     5
 10
339.80937499999999
 20
266.0660974402
 30
0.0
 11
209.55937499999999
 21
266.0660974402
 31
0.0
  0
LINE
  5
144
  8
┌▓È_1
 62
     5
 10
209.55937499999999
 20
276.0660974402
 30
0.0
 11
339.80937499999999
 21
276.0660974402
 31
0.0
  0
LINE
  5
145
  8
┌▓È_1
 62
     5
 10
339.80937499999999
 20
186.0660974402
 30
0.0
 11
209.55937499999999
 21
186.0660974402
 31
0.0
  0
LINE
  5
146
  8
┌▓È_1
 62
     5
 10
339.80937499999999
 20
211.9058343211
 30
0.0
 11
334.78308743029999
 21
206.8795467514
 31
0.0
  0
LINE
  5
147
  8
┌▓È_1
 62
     5
 10
334.78308743029999
 20
206.8795467514
 30
0.0
 11
339.80937499999999
 21
206.8795467514
 31
0.0
  0
LINE
  5
148
  8
┌▓È_1
 62
     5
 10
349.80937499999999
 20
171.0660974402
 30
0.0
 11
349.80937499999999
 21
130.0000233392
 31
0.0
  0
LINE
  5
149
  8
┌▓È_1
 62
     5
 10
339.80937499999999
 20
146.0505208333
 30
0.0
 11
209.34425522070001
 21
146.0505208333
 31
0.0
  0
LINE
  5
14A
  8
┌▓È_1
 62
     5
 10
205.20937499999999
 20
291.486024945
 30
0.0
 11
205.20937499999999
 21
292.58602494500002
 31
0.0
  0
LINE
  5
14B
  8
┌▓È_1
 62
     5
 10
205.20937499999999
 20
289.58602494500002
 30
0.0
 11
205.20937499999999
 21
290.68602494499999
 31
0.0
  0
LINE
  5
14C
  8
┌▓È_1
 62
     5
 10
204.40937500000001
 20
290.68602494499999
 30
0.0
 11
204.40937500000001
 21
289.58602494500002
 31
0.0
  0
LINE
  5
14D
  8
┌▓È_1
 62
     5
 10
205.20937499999999
 20
291.486024945
 30
0.0
 11
206.30937499999999
 21
291.486024945
 31
0.0
  0
LINE
  5
14E
  8
┌▓È_1
 62
     5
 10
204.40937500000001
 20
292.58602494500002
 30
0.0
 11
204.40937500000001
 21
291.486024945
 31
0.0
  0
LINE
  5
14F
  8
┌▓È_1
 62
     5
 10
204.40937500000001
 20
209.58602494499999
 30
0.0
 11
205.20937499999999
 21
209.58602494499999
 31
0.0
  0
LINE
  5
150
  8
┌▓È_1
 62
     5
 10
205.20937499999999
 20
252.58602494499999
 30
0.0
 11
204.40937500000001
 21
252.58602494499999
 31
0.0
  0
LINE
  5
151
  8
┌▓È_1
 62
     5
 10
204.40937500000001
 20
252.58602494499999
 30
0.0
 11
204.40937500000001
 21
251.486024945
 31
0.0
  0
LINE
  5
152
  8
┌▓È_1
 62
     5
 10
208.55937499999999
 20
145.67016834539999
 30
0.0
 11
201.05937499999999
 21
145.67016834539999
 31
0.0
  0
LINE
  5
153
  8
┌▓È_1
 62
     5
 10
209.55937499999999
 20
236.84015389730001
 30
0.0
 11
200.05937499999999
 21
236.84015389730001
 31
0.0
  0
LINE
  5
154
  8
┌▓È_1
  6
BORDER
 62
     5
 10
213.42890625000001
 20
231.08602494499999
 30
0.0
 11
195.69355468750001
 21
231.08602494499999
 31
0.0
  0
LINE
  5
155
  8
┌▓È_1
  6
BORDER
 62
     5
 10
200.96797907140001
 20
171.07044833809999
 30
0.0
 11
208.29887338029999
 21
171.07044833809999
 31
0.0
  0
LINE
  5
156
  8
┌▓È_1
 62
     5
 10
209.55937499999999
 20
156.55685130309999
 30
0.0
 11
200.05937499999999
 21
156.55685130309999
 31
0.0
  0
LINE
  5
157
  8
┌▓È_1
 62
     5
 10
206.30937499999999
 20
210.68602494500001
 30
0.0
 11
205.20937499999999
 21
210.68602494500001
 31
0.0
  0
LINE
  5
158
  8
┌▓È_1
 62
     5
 10
203.30937499999999
 20
211.486024945
 30
0.0
 11
204.40937500000001
 21
211.486024945
 31
0.0
  0
LINE
  5
159
  8
┌▓È_1
 62
     5
 10
205.20937499999999
 20
211.486024945
 30
0.0
 11
206.30937499999999
 21
211.486024945
 31
0.0
  0
CIRCLE
  5
15A
  8
┌▓È_1
 62
     5
 10
204.80937499999999
 20
211.08602494499999
 30
0.0
 40
3.3500000000000001
  0
LINE
  5
15B
  8
┌▓È_1
 62
     5
 10
204.40937500000001
 20
250.68602494500001
 30
0.0
 11
204.40937500000001
 21
249.58602494499999
 31
0.0
  0
LINE
  5
15C
  8
┌▓È_1
 62
     5
 10
206.30937499999999
 20
250.68602494500001
 30
0.0
 11
205.20937499999999
 21
250.68602494500001
 31
0.0
  0
LINE
  5
15D
  8
┌▓È_1
 62
     5
 10
203.30937499999999
 20
250.68602494500001
 30
0.0
 11
203.30937499999999
 21
251.486024945
 31
0.0
  0
LINE
  5
15E
  8
┌▓È_1
 62
     5
 10
204.40937500000001
 20
170.67044833809999
 30
0.0
 11
204.40937500000001
 21
169.57044833809999
 31
0.0
  0
LINE
  5
15F
  8
┌▓È_1
 62
     5
 10
205.20937499999999
 20
169.57044833809999
 30
0.0
 11
205.20937499999999
 21
170.67044833809999
 31
0.0
  0
LINE
  5
160
  8
┌▓È_1
 62
     5
 10
206.30937499999999
 20
170.67044833809999
 30
0.0
 11
205.20937499999999
 21
170.67044833809999
 31
0.0
  0
LINE
  5
161
  8
┌▓È_1
 62
     5
 10
204.40937500000001
 20
170.67044833809999
 30
0.0
 11
203.30937499999999
 21
170.67044833809999
 31
0.0
  0
LINE
  5
162
  8
┌▓È_1
 62
     5
 10
204.40937500000001
 20
169.57044833809999
 30
0.0
 11
205.20937499999999
 21
169.57044833809999
 31
0.0
  0
LINE
  5
163
  8
┌▓È_1
 62
     5
 10
204.40937500000001
 20
250.68602494500001
 30
0.0
 11
203.30937499999999
 21
250.68602494500001
 31
0.0
  0
LINE
  5
164
  8
┌▓È_1
 62
     5
 10
203.30937499999999
 20
251.486024945
 30
0.0
 11
204.40937500000001
 21
251.486024945
 31
0.0
  0
CIRCLE
  5
165
  8
┌▓È_1
 62
     5
 10
204.80937499999999
 20
251.08602494499999
 30
0.0
 40
3.3500000000000001
  0
LINE
  5
166
  8
┌▓È_1
 62
     5
 10
209.55937499999999
 20
196.57242792310001
 30
0.0
 11
200.05937499999999
 21
196.57242792310001
 31
0.0
  0
ARC
  5
167
  8
┌▓È_1
 62
     5
 10
204.80937499999999
 20
171.08602494499999
 30
0.0
 40
3.3500000000000001
 50
359.65917353600003
 51
180.340826464
  0
LINE
  5
168
  8
┌▓È_1
 62
     5
 10
203.30937499999999
 20
171.0660974402
 30
0.0
 11
203.30937499999999
 21
171.486024945
 31
0.0
  0
LINE
  5
169
  8
┌▓È_1
 62
     5
 10
206.30937499999999
 20
171.486024945
 30
0.0
 11
206.30937499999999
 21
171.0660974402
 31
0.0
  0
LINE
  5
16A
  8
┌▓È_1
 62
     5
 10
204.40937500000001
 20
249.58602494499999
 30
0.0
 11
205.20937499999999
 21
249.58602494499999
 31
0.0
  0
LINE
  5
16B
  8
┌▓È_1
 62
     5
 10
204.40937500000001
 20
210.68602494500001
 30
0.0
 11
203.30937499999999
 21
210.68602494500001
 31
0.0
  0
LINE
  5
16C
  8
┌▓È_1
  6
BORDER
 62
     5
 10
213.42890625000001
 20
191.08602494499999
 30
0.0
 11
195.69355468750001
 21
191.08602494499999
 31
0.0
  0
LINE
  5
16D
  8
┌▓È_1
  6
BORDER
 62
     5
 10
200.96797907140001
 20
171.08602494499999
 30
0.0
 11
208.29887338029999
 21
171.08602494499999
 31
0.0
  0
LINE
  5
16E
  8
┌▓È_1
 62
     5
 10
209.55937499999999
 20
185.53911914849999
 30
0.0
 11
200.05937499999999
 21
185.53911914849999
 31
0.0
  0
LINE
  5
16F
  8
┌▓È_1
 62
     5
 10
205.20937499999999
 20
171.486024945
 30
0.0
 11
205.20937499999999
 21
172.58602494499999
 31
0.0
  0
LINE
  5
170
  8
┌▓È_1
 62
     5
 10
205.20937499999999
 20
172.58602494499999
 30
0.0
 11
204.40937500000001
 21
172.58602494499999
 31
0.0
  0
LINE
  5
171
  8
┌▓È_1
 62
     5
 10
205.20937499999999
 20
251.486024945
 30
0.0
 11
206.30937499999999
 21
251.486024945
 31
0.0
  0
LINE
  5
172
  8
┌▓È_1
 62
     5
 10
209.55937499999999
 20
225.33189599260001
 30
0.0
 11
200.05937499999999
 21
225.33189599260001
 31
0.0
  0
LINE
  5
173
  8
┌▓È_1
 62
     5
 10
205.20937499999999
 20
249.58602494499999
 30
0.0
 11
205.20937499999999
 21
250.68602494500001
 31
0.0
  0
LINE
  5
174
  8
┌▓È_1
 62
     5
 10
205.20937499999999
 20
212.58602494499999
 30
0.0
 11
204.40937500000001
 21
212.58602494499999
 31
0.0
  0
LINE
  5
175
  8
┌▓È_1
 62
     5
 10
204.40937500000001
 20
212.58602494499999
 30
0.0
 11
204.40937500000001
 21
211.486024945
 31
0.0
  0
LINE
  5
176
  8
┌▓È_1
 62
     5
 10
209.55937499999999
 20
265.33189599259998
 30
0.0
 11
200.05937499999999
 21
265.33189599259998
 31
0.0
  0
LINE
  5
177
  8
┌▓È_1
  6
BORDER
 62
     5
 10
200.96797907140001
 20
211.08602494499999
 30
0.0
 11
208.29887338029999
 21
211.08602494499999
 31
0.0
  0
LINE
  5
178
  8
┌▓È_1
 62
     5
 10
204.40937500000001
 20
210.68602494500001
 30
0.0
 11
204.40937500000001
 21
209.58602494499999
 31
0.0
  0
LINE
  5
179
  8
┌▓È_1
 62
     5
 10
203.30937499999999
 20
291.486024945
 30
0.0
 11
204.40937500000001
 21
291.486024945
 31
0.0
  0
LINE
  5
17A
  8
┌▓È_1
 62
     5
 10
204.40937500000001
 20
290.68602494499999
 30
0.0
 11
203.30937499999999
 21
290.68602494499999
 31
0.0
  0
LINE
  5
17B
  8
┌▓È_1
 62
     5
 10
206.30937499999999
 20
290.68602494499999
 30
0.0
 11
205.20937499999999
 21
290.68602494499999
 31
0.0
  0
ARC
  5
17C
  8
┌▓È_1
 62
     5
 10
-91.390624999999986
 20
197.7160974402
 30
0.0
 40
0.8
 50
180.0
 51
270.0
  0
LINE
  5
17D
  8
┌▓È_1
 62
     5
 10
-89.690624999999983
 20
196.91609744019999
 30
0.0
 11
-91.390624999999986
 21
196.91609744019999
 31
0.0
  0
LINE
  5
17E
  8
┌▓È_1
 62
     5
 10
-92.190624999999983
 20
224.4472506539
 30
0.0
 11
-92.190624999999983
 21
237.7160974402
 31
0.0
  0
LINE
  5
17F
  8
┌▓È_1
 62
     5
 10
-87.018143483700015
 20
191.0660974402
 30
0.0
 11
-96.760609237099985
 21
191.0660974402
 31
0.0
  0
LINE
  5
180
  8
┌▓È_1
 62
     5
 10
-92.190624999999983
 20
144.431674047
 30
0.0
 11
-92.190624999999983
 21
157.7005208333
 31
0.0
  0
LINE
  5
181
  8
┌▓È_1
 62
     5
 10
-89.690624999999983
 20
225.24725065390001
 30
0.0
 11
-89.690624999999983
 21
236.91609744019999
 31
0.0
  0
LINE
  5
182
  8
┌▓È_1
 62
     5
 10
49.809375000000003
 20
266.0660974402
 30
0.0
 11
-89.690624999999983
 21
266.0660974402
 31
0.0
  0
LINE
  5
183
  8
┌▓È_1
 62
     5
 10
-89.690624999999983
 20
276.0660974402
 30
0.0
 11
49.809375000000003
 21
276.0660974402
 31
0.0
  0
LINE
  5
184
  8
┌▓È_1
 62
     5
 10
49.809375000000003
 20
146.0505208333
 30
0.0
 11
-89.690624999999983
 21
146.0505208333
 31
0.0
  0
LINE
  5
185
  8
┌▓È_1
 62
     5
 10
49.809375000000003
 20
186.0660974402
 30
0.0
 11
-89.690624999999983
 21
186.0660974402
 31
0.0
  0
LINE
  5
186
  8
┌▓È_1
 62
     5
 10
-89.690624999999983
 20
156.0505208333
 30
0.0
 11
49.809375000000003
 21
156.0505208333
 31
0.0
  0
LINE
  5
187
  8
┌▓È_1
 62
     5
 10
-89.690624999999983
 20
196.0660974402
 30
0.0
 11
49.809375000000003
 21
196.0660974402
 31
0.0
  0
LINE
  5
188
  8
┌▓È_1
 62
     5
 10
49.809375000000003
 20
226.0660974402
 30
0.0
 11
-89.690624999999983
 21
226.0660974402
 31
0.0
  0
LINE
  5
189
  8
┌▓È_1
 62
     5
 10
-89.690624999999983
 20
236.0660974402
 30
0.0
 11
49.809375000000003
 21
236.0660974402
 31
0.0
  0
INSERT
  5
18B
  8
Éíû@É³
  2
BALLON2
 10
0.0
 20
0.0
 30
0.0
  0
LINE
  5
194
  8
┌▓È_1
 62
     5
 10
205.20937499999999
 20
292.58602494500002
 30
0.0
 11
204.40937500000001
 21
292.58602494500002
 31
0.0
  0
LINE
  5
195
  8
┌▓È_1
 62
     5
 10
209.55937499999999
 20
276.7649332908
 30
0.0
 11
200.05937499999999
 21
276.7649332908
 31
0.0
  0
LINE
  5
196
  8
┌▓È_1
  6
BORDER
 62
     5
 10
213.42890625000001
 20
271.08602494500002
 30
0.0
 11
195.69355468750001
 21
271.08602494500002
 31
0.0
  0
LINE
  5
197
  8
┌▓È_1
 62
     5
 10
204.40937500000001
 20
289.58602494500002
 30
0.0
 11
205.20937499999999
 21
289.58602494500002
 31
0.0
  0
LINE
  5
198
  8
┌▓È_1
 62
     5
 10
203.30937499999999
 20
290.68602494499999
 30
0.0
 11
203.30937499999999
 21
291.486024945
 31
0.0
  0
LINE
  5
199
  8
┌▓È_1
 62
     5
 10
206.30937499999999
 20
291.486024945
 30
0.0
 11
206.30937499999999
 21
290.68602494499999
 31
0.0
  0
CIRCLE
  5
19A
  8
┌▓È_1
 62
     5
 10
204.80937499999999
 20
291.08602494500002
 30
0.0
 40
3.3500000000000001
  0
LINE
  5
19B
  8
┌▓È_1
  6
BORDER
 62
     5
 10
200.96797907140001
 20
291.08602494500002
 30
0.0
 11
208.29887338029999
 21
291.08602494500002
 31
0.0
  0
LINE
  5
19C
  8
┌▓È_1
 62
     5
 10
205.20937499999999
 20
251.486024945
 30
0.0
 11
205.20937499999999
 21
252.58602494499999
 31
0.0
  0
LINE
  5
19D
  8
┌▓È_1
  6
BORDER
 62
     5
 10
200.96797907140001
 20
251.08602494499999
 30
0.0
 11
208.29887338029999
 21
251.08602494499999
 31
0.0
  0
LINE
  5
19E
  8
┌▓È_1
 62
     5
 10
-92.190624999999983
 20
171.0660974402
 30
0.0
 11
-92.190624999999983
 21
157.7005208333
 31
0.0
  0
ARC
  5
19F
  8
┌▓È_1
 62
     5
 10
-91.390624999999986
 20
184.4472506539
 30
0.0
 40
0.8
 50
90.0
 51
180.0
  0
LINE
  5
1A0
  8
┌▓È_1
 62
     5
 10
-89.690624999999983
 20
185.2472506538999
 30
0.0
 11
-91.390624999999986
 21
185.2472506538999
 31
0.0
  0
LINE
  5
1A1
  8
┌▓È_1
 62
     5
 10
-92.190624999999983
 20
264.44725065390003
 30
0.0
 11
-92.190624999999983
 21
237.7160974402
 31
0.0
  0
ARC
  5
1A2
  8
┌▓È_1
 62
     5
 10
-91.390624999999986
 20
264.44725065390003
 30
0.0
 40
0.8
 50
90.0
 51
180.0
  0
LINE
  5
1A3
  8
┌▓È_1
 62
     5
 10
-92.190624999999983
 20
264.44725065390003
 30
0.0
 11
-92.190624999999983
 21
277.71609744019997
 31
0.0
  0
LINE
  5
1A4
  8
┌▓È_1
 62
     5
 10
-89.690624999999983
 20
265.24725065389998
 30
0.0
 11
-89.690624999999983
 21
276.91609744020002
 31
0.0
  0
LINE
  5
1A5
  8
┌▓È_1
 62
     5
 10
-87.656043027099997
 20
271.0660974402
 30
0.0
 11
-96.644627501900004
 21
271.0660974402
 31
0.0
  0
ARC
  5
1A6
  8
┌▓È_1
 62
     5
 10
-91.390624999999986
 20
277.71609744019997
 30
0.0
 40
0.8
 50
180.0
 51
270.0
  0
LINE
  5
1A7
  8
┌▓È_1
 62
     5
 10
-89.690624999999983
 20
276.91609744020002
 30
0.0
 11
-91.390624999999986
 21
276.91609744020002
 31
0.0
  0
LINE
  5
1A8
  8
┌▓È_1
 62
     5
 10
-89.690624999999983
 20
265.24725065389998
 30
0.0
 11
-91.390624999999986
 21
265.24725065389998
 31
0.0
  0
ARC
  5
1A9
  8
┌▓È_1
 62
     5
 10
-91.390624999999986
 20
157.7005208333
 30
0.0
 40
0.8
 50
180.0
 51
270.0
  0
LINE
  5
1AA
  8
┌▓È_1
 62
     5
 10
-89.690624999999983
 20
156.90052083329999
 30
0.0
 11
-91.390624999999986
 21
156.90052083329999
 31
0.0
  0
LINE
  5
1AB
  8
┌▓È_1
 62
     5
 10
-92.190624999999983
 20
184.4472506539
 30
0.0
 11
-92.190624999999983
 21
171.0660974402
 31
0.0
  0
LINE
  5
1AC
  8
┌▓È_1
 62
     5
 10
-87.656043027099997
 20
231.0660974402
 30
0.0
 11
-96.644627501900004
 21
231.0660974402
 31
0.0
  0
LINE
  5
1AD
  8
┌▓È_1
 62
     5
 10
-95.190624999999997
 20
140.0505208333
 30
0.0
 11
-95.190624999999997
 21
171.0660974402
 31
0.0
  0
LINE
  5
1AE
  8
┌▓È_1
 62
     5
 10
-89.690624999999983
 20
145.23167404700001
 30
0.0
 11
-89.690624999999983
 21
156.90052083329999
 31
0.0
  0
ARC
  5
1AF
  8
┌▓È_1
 62
     5
 10
-93.690624999999997
 20
141.5505208333
 30
0.0
 40
1.5
 50
270.0
 51
0.0
  0
LINE
  5
1B0
  8
┌▓È_1
 62
     5
 10
-92.190624999999983
 20
184.4472506539
 30
0.0
 11
-92.190624999999983
 21
197.7160974402
 31
0.0
  0
LINE
  5
1B1
  8
┌▓È_1
 62
     5
 10
-89.690624999999983
 20
185.2472506538999
 30
0.0
 11
-89.690624999999983
 21
196.91609744019999
 31
0.0
  0
LINE
  5
1B2
  8
┌▓È_1
 62
     5
 10
-92.190624999999983
 20
224.4472506539
 30
0.0
 11
-92.190624999999983
 21
197.7160974402
 31
0.0
  0
ARC
  5
1B3
  8
┌▓È_1
 62
     5
 10
-91.390624999999986
 20
237.7160974402
 30
0.0
 40
0.8
 50
180.0
 51
270.0
  0
LINE
  5
1B4
  8
┌▓È_1
 62
     5
 10
-89.690624999999983
 20
236.91609744019999
 30
0.0
 11
-91.390624999999986
 21
236.91609744019999
 31
0.0
  0
ARC
  5
1B5
  8
┌▓È_1
 62
     5
 10
-91.390624999999986
 20
224.4472506539
 30
0.0
 40
0.8
 50
90.0
 51
180.0
  0
LINE
  5
1B6
  8
┌▓È_1
 62
     5
 10
-89.690624999999983
 20
225.24725065390001
 30
0.0
 11
-91.390624999999986
 21
225.24725065390001
 31
0.0
  0
POLYLINE
  5
1B7
  8
┌▓È_1
 62
     5
 10
349.80937499999999
 20
-46.33020887659999
 30
0.0
 66
     1
 70
     8
  0
VERTEX
  8
┌▓È_1
  5
580
 10
349.809
 20
-46.3302
 30
0.000000
  70
    32
  0
VERTEX
  8
┌▓È_1
  5
581
 10
349.760
 20
-46.3295
 30
0.000000
  70
    32
  0
VERTEX
  8
┌▓È_1
  5
582
 10
349.711
 20
-46.3272
 30
0.000000
  70
    32
  0
VERTEX
  8
┌▓È_1
  5
583
 10
349.662
 20
-46.3234
 30
0.000000
  70
    32
  0
VERTEX
  8
┌▓È_1
  5
584
 10
349.613
 20
-46.3182
 30
0.000000
  70
    32
  0
VERTEX
  8
┌▓È_1
  5
585
 10
349.565
 20
-46.3114
 30
0.000000
  70
    32
  0
VERTEX
  8
┌▓È_1
  5
586
 10
349.516
 20
-46.3032
 30
0.000000
  70
    32
  0
VERTEX
  8
┌▓È_1
  5
587
 10
349.467
 20
-46.2934
 30
0.000000
  70
    32
  0
VERTEX
  8
┌▓È_1
  5
588
 10
349.419
 20
-46.2822
 30
0.000000
  70
    32
  0
VERTEX
  8
┌▓È_1
  5
589
 10
349.371
 20
-46.2695
 30
0.000000
  70
    32
  0
VERTEX
  8
┌▓È_1
  5
58A
 10
349.323
 20
-46.2553
 30
0.000000
  70
    32
  0
VERTEX
  8
┌▓È_1
  5
58B
 10
349.276
 20
-46.2396
 30
0.000000
  70
    32
  0
VERTEX
  8
┌▓È_1
  5
58C
 10
349.229
 20
-46.2226
 30
0.000000
  70
    32
  0
VERTEX
  8
┌▓È_1
  5
58D
 10
349.182
 20
-46.2040
 30
0.000000
  70
    32
  0
VERTEX
  8
┌▓È_1
  5
58E
 10
349.136
 20
-46.1841
 30
0.000000
  70
    32
  0
VERTEX
  8
┌▓È_1
  5
58F
 10
349.090
 20
-46.1627
 30
0.000000
  70
    32
  0
VERTEX
  8
┌▓È_1
  5
590
 10
349.044
 20
-46.1399
 30
0.000000
  70
    32
  0
VERTEX
  8
┌▓È_1
  5
591
 10
348.999
 20
-46.1157
 30
0.000000
  70
    32
  0
VERTEX
  8
┌▓È_1
  5
592
 10
348.954
 20
-46.0902
 30
0.000000
  70
    32
  0
VERTEX
  8
┌▓È_1
  5
593
 10
348.910
 20
-46.0633
 30
0.000000
  70
    32
  0
VERTEX
  8
┌▓È_1
  5
594
 10
348.867
 20
-46.0350
 30
0.000000
  70
    32
  0
VERTEX
  8
┌▓È_1
  5
595
 10
348.824
 20
-46.0054
 30
0.000000
  70
    32
  0
VERTEX
  8
┌▓È_1
  5
596
 10
348.781
 20
-45.9745
 30
0.000000
  70
    32
  0
VERTEX
  8
┌▓È_1
  5
597
 10
348.739
 20
-45.9423
 30
0.000000
  70
    32
  0
VERTEX
  8
┌▓È_1
  5
598
 10
348.698
 20
-45.9089
 30
0.000000
  70
    32
  0
VERTEX
  8
┌▓È_1
  5
599
 10
348.658
 20
-45.8742
 30
0.000000
  70
    32
  0
VERTEX
  8
┌▓È_1
  5
59A
 10
348.618
 20
-45.8382
 30
0.000000
  70
    32
  0
VERTEX
  8
┌▓È_1
  5
59B
 10
348.579
 20
-45.8011
 30
0.000000
  70
    32
  0
VERTEX
  8
┌▓È_1
  5
59C
 10
348.541
 20
-45.7627
 30
0.000000
  70
    32
  0
VERTEX
  8
┌▓È_1
  5
59D
 10
348.503
 20
-45.7232
 30
0.000000
  70
    32
  0
VERTEX
  8
┌▓È_1
  5
59E
 10
348.466
 20
-45.6826
 30
0.000000
  70
    32
  0
VERTEX
  8
┌▓È_1
  5
59F
 10
348.430
 20
-45.6408
 30
0.000000
  70
    32
  0
VERTEX
  8
┌▓È_1
  5
5A0
 10
348.395
 20
-45.5980
 30
0.000000
  70
    32
  0
VERTEX
  8
┌▓È_1
  5
5A1
 10
348.361
 20
-45.5541
 30
0.000000
  70
    32
  0
VERTEX
  8
┌▓È_1
  5
5A2
 10
348.327
 20
-45.5091
 30
0.000000
  70
    32
  0
VERTEX
  8
┌▓È_1
  5
5A3
 10
348.295
 20
-45.4631
 30
0.000000
  70
    32
  0
VERTEX
  8
┌▓È_1
  5
5A4
 10
348.263
 20
-45.4162
 30
0.000000
  70
    32
  0
VERTEX
  8
┌▓È_1
  5
5A5
 10
348.233
 20
-45.3683
 30
0.000000
  70
    32
  0
VERTEX
  8
┌▓È_1
  5
5A6
 10
348.203
 20
-45.3195
 30
0.000000
  70
    32
  0
VERTEX
  8
┌▓È_1
  5
5A7
 10
348.174
 20
-45.2697
 30
0.000000
  70
    32
  0
VERTEX
  8
┌▓È_1
  5
5A8
 10
348.146
 20
-45.2191
 30
0.000000
  70
    32
  0
VERTEX
  8
┌▓È_1
  5
5A9
 10
348.120
 20
-45.1677
 30
0.000000
  70
    32
  0
VERTEX
  8
┌▓È_1
  5
5AA
 10
348.094
 20
-45.1155
 30
0.000000
  70
    32
  0
VERTEX
  8
┌▓È_1
  5
5AB
 10
348.069
 20
-45.0625
 30
0.000000
  70
    32
  0
VERTEX
  8
┌▓È_1
  5
5AC
 10
348.046
 20
-45.0087
 30
0.000000
  70
    32
  0
VERTEX
  8
┌▓È_1
  5
5AD
 10
348.023
 20
-44.9542
 30
0.000000
  70
    32
  0
VERTEX
  8
┌▓È_1
  5
5AE
 10
348.001
 20
-44.8991
 30
0.000000
  70
    32
  0
VERTEX
  8
┌▓È_1
  5
5AF
 10
347.981
 20
-44.8433
 30
0.000000
  70
    32
  0
VERTEX
  8
┌▓È_1
  5
5B0
 10
347.962
 20
-44.7869
 30
0.000000
  70
    32
  0
VERTEX
  8
┌▓È_1
  5
5B1
 10
347.943
 20
-44.7299
 30
0.000000
  70
    32
  0
VERTEX
  8
┌▓È_1
  5
5B2
 10
347.926
 20
-44.6724
 30
0.000000
  70
    32
  0
VERTEX
  8
┌▓È_1
  5
5B3
 10
347.910
 20
-44.6144
 30
0.000000
  70
    32
  0
VERTEX
  8
┌▓È_1
  5
5B4
 10
347.895
 20
-44.5559
 30
0.000000
  70
    32
  0
VERTEX
  8
┌▓È_1
  5
5B5
 10
347.882
 20
-44.4970
 30
0.000000
  70
    32
  0
VERTEX
  8
┌▓È_1
  5
5B6
 10
347.869
 20
-44.4377
 30
0.000000
  70
    32
  0
VERTEX
  8
┌▓È_1
  5
5B7
 10
347.858
 20
-44.3780
 30
0.000000
  70
    32
  0
VERTEX
  8
┌▓È_1
  5
5B8
 10
347.848
 20
-44.3179
 30
0.000000
  70
    32
  0
VERTEX
  8
┌▓È_1
  5
5B9
 10
347.839
 20
-44.2576
 30
0.000000
  70
    32
  0
VERTEX
  8
┌▓È_1
  5
5BA
 10
347.831
 20
-44.1970
 30
0.000000
  70
    32
  0
VERTEX
  8
┌▓È_1
  5
5BB
 10
347.824
 20
-44.1362
 30
0.000000
  70
    32
  0
VERTEX
  8
┌▓È_1
  5
5BC
 10
347.819
 20
-44.0753
 30
0.000000
  70
    32
  0
VERTEX
  8
┌▓È_1
  5
5BD
 10
347.815
 20
-44.0141
 30
0.000000
  70
    32
  0
VERTEX
  8
┌▓È_1
  5
5BE
 10
347.812
 20
-43.9529
 30
0.000000
  70
    32
  0
VERTEX
  8
┌▓È_1
  5
5BF
 10
347.810
 20
-43.8916
 30
0.000000
  70
    32
  0
VERTEX
  8
┌▓È_1
  5
5C0
 10
347.809
 20
-43.8302
 30
0.000000
  70
    32
  0
VERTEX
  8
┌▓È_1
  5
5C1
 10
347.810
 20
-43.7689
 30
0.000000
  70
    32
  0
VERTEX
  8
┌▓È_1
  5
5C2
 10
347.812
 20
-43.7075
 30
0.000000
  70
    32
  0
VERTEX
  8
┌▓È_1
  5
5C3
 10
347.815
 20
-43.6463
 30
0.000000
  70
    32
  0
VERTEX
  8
┌▓È_1
  5
5C4
 10
347.819
 20
-43.5852
 30
0.000000
  70
    32
  0
VERTEX
  8
┌▓È_1
  5
5C5
 10
347.824
 20
-43.5242
 30
0.000000
  70
    32
  0
VERTEX
  8
┌▓È_1
  5
5C6
 10
347.831
 20
-43.4634
 30
0.000000
  70
    32
  0
VERTEX
  8
┌▓È_1
  5
5C7
 10
347.839
 20
-43.4028
 30
0.000000
  70
    32
  0
VERTEX
  8
┌▓È_1
  5
5C8
 10
347.848
 20
-43.3425
 30
0.000000
  70
    32
  0
VERTEX
  8
┌▓È_1
  5
5C9
 10
347.858
 20
-43.2825
 30
0.000000
  70
    32
  0
VERTEX
  8
┌▓È_1
  5
5CA
 10
347.869
 20
-43.2228
 30
0.000000
  70
    32
  0
VERTEX
  8
┌▓È_1
  5
5CB
 10
347.882
 20
-43.1634
 30
0.000000
  70
    32
  0
VERTEX
  8
┌▓È_1
  5
5CC
 10
347.895
 20
-43.1045
 30
0.000000
  70
    32
  0
VERTEX
  8
┌▓È_1
  5
5CD
 10
347.910
 20
-43.0460
 30
0.000000
  70
    32
  0
VERTEX
  8
┌▓È_1
  5
5CE
 10
347.926
 20
-42.9880
 30
0.000000
  70
    32
  0
VERTEX
  8
┌▓È_1
  5
5CF
 10
347.943
 20
-42.9305
 30
0.000000
  70
    32
  0
VERTEX
  8
┌▓È_1
  5
5D0
 10
347.962
 20
-42.8735
 30
0.000000
  70
    32
  0
VERTEX
  8
┌▓È_1
  5
5D1
 10
347.981
 20
-42.8171
 30
0.000000
  70
    32
  0
VERTEX
  8
┌▓È_1
  5
5D2
 10
348.001
 20
-42.7613
 30
0.000000
  70
    32
  0
VERTEX
  8
┌▓È_1
  5
5D3
 10
348.023
 20
-42.7062
 30
0.000000
  70
    32
  0
VERTEX
  8
┌▓È_1
  5
5D4
 10
348.046
 20
-42.6517
 30
0.000000
  70
    32
  0
VERTEX
  8
┌▓È_1
  5
5D5
 10
348.069
 20
-42.5980
 30
0.000000
  70
    32
  0
VERTEX
  8
┌▓È_1
  5
5D6
 10
348.094
 20
-42.5450
 30
0.000000
  70
    32
  0
VERTEX
  8
┌▓È_1
  5
5D7
 10
348.120
 20
-42.4927
 30
0.000000
  70
    32
  0
VERTEX
  8
┌▓È_1
  5
5D8
 10
348.146
 20
-42.4413
 30
0.000000
  70
    32
  0
VERTEX
  8
┌▓È_1
  5
5D9
 10
348.174
 20
-42.3907
 30
0.000000
  70
    32
  0
VERTEX
  8
┌▓È_1
  5
5DA
 10
348.203
 20
-42.3410
 30
0.000000
  70
    32
  0
VERTEX
  8
┌▓È_1
  5
5DB
 10
348.233
 20
-42.2921
 30
0.000000
  70
    32
  0
VERTEX
  8
┌▓È_1
  5
5DC
 10
348.263
 20
-42.2442
 30
0.000000
  70
    32
  0
VERTEX
  8
┌▓È_1
  5
5DD
 10
348.295
 20
-42.1973
 30
0.000000
  70
    32
  0
VERTEX
  8
┌▓È_1
  5
5DE
 10
348.327
 20
-42.1513
 30
0.000000
  70
    32
  0
VERTEX
  8
┌▓È_1
  5
5DF
 10
348.361
 20
-42.1064
 30
0.000000
  70
    32
  0
VERTEX
  8
┌▓È_1
  5
5E0
 10
348.395
 20
-42.0624
 30
0.000000
  70
    32
  0
VERTEX
  8
┌▓È_1
  5
5E1
 10
348.430
 20
-42.0196
 30
0.000000
  70
    32
  0
VERTEX
  8
┌▓È_1
  5
5E2
 10
348.466
 20
-41.9778
 30
0.000000
  70
    32
  0
VERTEX
  8
┌▓È_1
  5
5E3
 10
348.503
 20
-41.9372
 30
0.000000
  70
    32
  0
VERTEX
  8
┌▓È_1
  5
5E4
 10
348.541
 20
-41.8977
 30
0.000000
  70
    32
  0
VERTEX
  8
┌▓È_1
  5
5E5
 10
348.579
 20
-41.8593
 30
0.000000
  70
    32
  0
VERTEX
  8
┌▓È_1
  5
5E6
 10
348.618
 20
-41.8222
 30
0.000000
  70
    32
  0
VERTEX
  8
┌▓È_1
  5
5E7
 10
348.658
 20
-41.7862
 30
0.000000
  70
    32
  0
VERTEX
  8
┌▓È_1
  5
5E8
 10
348.698
 20
-41.7515
 30
0.000000
  70
    32
  0
VERTEX
  8
┌▓È_1
  5
5E9
 10
348.739
 20
-41.7181
 30
0.000000
  70
    32
  0
VERTEX
  8
┌▓È_1
  5
5EA
 10
348.781
 20
-41.6859
 30
0.000000
  70
    32
  0
VERTEX
  8
┌▓È_1
  5
5EB
 10
348.824
 20
-41.6550
 30
0.000000
  70
    32
  0
VERTEX
  8
┌▓È_1
  5
5EC
 10
348.867
 20
-41.6254
 30
0.000000
  70
    32
  0
VERTEX
  8
┌▓È_1
  5
5ED
 10
348.910
 20
-41.5971
 30
0.000000
  70
    32
  0
VERTEX
  8
┌▓È_1
  5
5EE
 10
348.954
 20
-41.5702
 30
0.000000
  70
    32
  0
VERTEX
  8
┌▓È_1
  5
5EF
 10
348.999
 20
-41.5447
 30
0.000000
  70
    32
  0
VERTEX
  8
┌▓È_1
  5
5F0
 10
349.044
 20
-41.5205
 30
0.000000
  70
    32
  0
VERTEX
  8
┌▓È_1
  5
5F1
 10
349.090
 20
-41.4977
 30
0.000000
  70
    32
  0
VERTEX
  8
┌▓È_1
  5
5F2
 10
349.136
 20
-41.4763
 30
0.000000
  70
    32
  0
VERTEX
  8
┌▓È_1
  5
5F3
 10
349.182
 20
-41.4564
 30
0.000000
  70
    32
  0
VERTEX
  8
┌▓È_1
  5
5F4
 10
349.229
 20
-41.4379
 30
0.000000
  70
    32
  0
VERTEX
  8
┌▓È_1
  5
5F5
 10
349.276
 20
-41.4208
 30
0.000000
  70
    32
  0
VERTEX
  8
┌▓È_1
  5
5F6
 10
349.323
 20
-41.4051
 30
0.000000
  70
    32
  0
VERTEX
  8
┌▓È_1
  5
5F7
 10
349.371
 20
-41.3910
 30
0.000000
  70
    32
  0
VERTEX
  8
┌▓È_1
  5
5F8
 10
349.419
 20
-41.3782
 30
0.000000
  70
    32
  0
VERTEX
  8
┌▓È_1
  5
5F9
 10
349.467
 20
-41.3670
 30
0.000000
  70
    32
  0
VERTEX
  8
┌▓È_1
  5
5FA
 10
349.516
 20
-41.3573
 30
0.000000
  70
    32
  0
VERTEX
  8
┌▓È_1
  5
5FB
 10
349.565
 20
-41.3490
 30
0.000000
  70
    32
  0
VERTEX
  8
┌▓È_1
  5
5FC
 10
349.613
 20
-41.3422
 30
0.000000
  70
    32
  0
VERTEX
  8
┌▓È_1
  5
5FD
 10
349.662
 20
-41.3370
 30
0.000000
  70
    32
  0
VERTEX
  8
┌▓È_1
  5
5FE
 10
349.711
 20
-41.3332
 30
0.000000
  70
    32
  0
VERTEX
  8
┌▓È_1
  5
5FF
 10
349.760
 20
-41.3310
 30
0.000000
  70
    32
  0
VERTEX
  8
┌▓È_1
  5
600
 10
349.809
 20
-41.3302
 30
0.000000
  70
    32
  0
SEQEND
  8
┌▓È_1
  5
601
  0
POLYLINE
  5
1B8
  8
┌▓È_1
 62
     5
 10
339.80937499999999
 20
-41.330208876599997
 30
0.0
 66
     1
 70
     8
  0
VERTEX
  8
┌▓È_1
  5
602
 10
339.809
 20
-41.3302
 30
0.000000
  70
    32
  0
VERTEX
  8
┌▓È_1
  5
603
 10
339.858
 20
-41.3295
 30
0.000000
  70
    32
  0
VERTEX
  8
┌▓È_1
  5
604
 10
339.908
 20
-41.3272
 30
0.000000
  70
    32
  0
VERTEX
  8
┌▓È_1
  5
605
 10
339.957
 20
-41.3234
 30
0.000000
  70
    32
  0
VERTEX
  8
┌▓È_1
  5
606
 10
340.005
 20
-41.3182
 30
0.000000
  70
    32
  0
VERTEX
  8
┌▓È_1
  5
607
 10
340.054
 20
-41.3114
 30
0.000000
  70
    32
  0
VERTEX
  8
┌▓È_1
  5
608
 10
340.103
 20
-41.3032
 30
0.000000
  70
    32
  0
VERTEX
  8
┌▓È_1
  5
609
 10
340.151
 20
-41.2934
 30
0.000000
  70
    32
  0
VERTEX
  8
┌▓È_1
  5
60A
 10
340.200
 20
-41.2822
 30
0.000000
  70
    32
  0
VERTEX
  8
┌▓È_1
  5
60B
 10
340.248
 20
-41.2695
 30
0.000000
  70
    32
  0
VERTEX
  8
┌▓È_1
  5
60C
 10
340.295
 20
-41.2553
 30
0.000000
  70
    32
  0
VERTEX
  8
┌▓È_1
  5
60D
 10
340.343
 20
-41.2396
 30
0.000000
  70
    32
  0
VERTEX
  8
┌▓È_1
  5
60E
 10
340.390
 20
-41.2226
 30
0.000000
  70
    32
  0
VERTEX
  8
┌▓È_1
  5
60F
 10
340.437
 20
-41.2040
 30
0.000000
  70
    32
  0
VERTEX
  8
┌▓È_1
  5
610
 10
340.483
 20
-41.1841
 30
0.000000
  70
    32
  0
VERTEX
  8
┌▓È_1
  5
611
 10
340.529
 20
-41.1627
 30
0.000000
  70
    32
  0
VERTEX
  8
┌▓È_1
  5
612
 10
340.575
 20
-41.1399
 30
0.000000
  70
    32
  0
VERTEX
  8
┌▓È_1
  5
613
 10
340.620
 20
-41.1157
 30
0.000000
  70
    32
  0
VERTEX
  8
┌▓È_1
  5
614
 10
340.664
 20
-41.0902
 30
0.000000
  70
    32
  0
VERTEX
  8
┌▓È_1
  5
615
 10
340.709
 20
-41.0633
 30
0.000000
  70
    32
  0
VERTEX
  8
┌▓È_1
  5
616
 10
340.752
 20
-41.0350
 30
0.000000
  70
    32
  0
VERTEX
  8
┌▓È_1
  5
617
 10
340.795
 20
-41.0054
 30
0.000000
  70
    32
  0
VERTEX
  8
┌▓È_1
  5
618
 10
340.838
 20
-40.9745
 30
0.000000
  70
    32
  0
VERTEX
  8
┌▓È_1
  5
619
 10
340.879
 20
-40.9423
 30
0.000000
  70
    32
  0
VERTEX
  8
┌▓È_1
  5
61A
 10
340.921
 20
-40.9089
 30
0.000000
  70
    32
  0
VERTEX
  8
┌▓È_1
  5
61B
 10
340.961
 20
-40.8742
 30
0.000000
  70
    32
  0
VERTEX
  8
┌▓È_1
  5
61C
 10
341.001
 20
-40.8382
 30
0.000000
  70
    32
  0
VERTEX
  8
┌▓È_1
  5
61D
 10
341.040
 20
-40.8011
 30
0.000000
  70
    32
  0
VERTEX
  8
┌▓È_1
  5
61E
 10
341.078
 20
-40.7627
 30
0.000000
  70
    32
  0
VERTEX
  8
┌▓È_1
  5
61F
 10
341.116
 20
-40.7232
 30
0.000000
  70
    32
  0
VERTEX
  8
┌▓È_1
  5
620
 10
341.152
 20
-40.6826
 30
0.000000
  70
    32
  0
VERTEX
  8
┌▓È_1
  5
621
 10
341.188
 20
-40.6408
 30
0.000000
  70
    32
  0
VERTEX
  8
┌▓È_1
  5
622
 10
341.224
 20
-40.5980
 30
0.000000
  70
    32
  0
VERTEX
  8
┌▓È_1
  5
623
 10
341.258
 20
-40.5541
 30
0.000000
  70
    32
  0
VERTEX
  8
┌▓È_1
  5
624
 10
341.291
 20
-40.5091
 30
0.000000
  70
    32
  0
VERTEX
  8
┌▓È_1
  5
625
 10
341.324
 20
-40.4631
 30
0.000000
  70
    32
  0
VERTEX
  8
┌▓È_1
  5
626
 10
341.355
 20
-40.4162
 30
0.000000
  70
    32
  0
VERTEX
  8
┌▓È_1
  5
627
 10
341.386
 20
-40.3683
 30
0.000000
  70
    32
  0
VERTEX
  8
┌▓È_1
  5
628
 10
341.416
 20
-40.3195
 30
0.000000
  70
    32
  0
VERTEX
  8
┌▓È_1
  5
629
 10
341.445
 20
-40.2697
 30
0.000000
  70
    32
  0
VERTEX
  8
┌▓È_1
  5
62A
 10
341.472
 20
-40.2191
 30
0.000000
  70
    32
  0
VERTEX
  8
┌▓È_1
  5
62B
 10
341.499
 20
-40.1677
 30
0.000000
  70
    32
  0
VERTEX
  8
┌▓È_1
  5
62C
 10
341.525
 20
-40.1155
 30
0.000000
  70
    32
  0
VERTEX
  8
┌▓È_1
  5
62D
 10
341.550
 20
-40.0625
 30
0.000000
  70
    32
  0
VERTEX
  8
┌▓È_1
  5
62E
 10
341.573
 20
-40.0087
 30
0.000000
  70
    32
  0
VERTEX
  8
┌▓È_1
  5
62F
 10
341.596
 20
-39.9542
 30
0.000000
  70
    32
  0
VERTEX
  8
┌▓È_1
  5
630
 10
341.617
 20
-39.8991
 30
0.000000
  70
    32
  0
VERTEX
  8
┌▓È_1
  5
631
 10
341.638
 20
-39.8433
 30
0.000000
  70
    32
  0
VERTEX
  8
┌▓È_1
  5
632
 10
341.657
 20
-39.7869
 30
0.000000
  70
    32
  0
VERTEX
  8
┌▓È_1
  5
633
 10
341.675
 20
-39.7299
 30
0.000000
  70
    32
  0
VERTEX
  8
┌▓È_1
  5
634
 10
341.692
 20
-39.6724
 30
0.000000
  70
    32
  0
VERTEX
  8
┌▓È_1
  5
635
 10
341.708
 20
-39.6144
 30
0.000000
  70
    32
  0
VERTEX
  8
┌▓È_1
  5
636
 10
341.723
 20
-39.5559
 30
0.000000
  70
    32
  0
VERTEX
  8
┌▓È_1
  5
637
 10
341.737
 20
-39.4970
 30
0.000000
  70
    32
  0
VERTEX
  8
┌▓È_1
  5
638
 10
341.749
 20
-39.4377
 30
0.000000
  70
    32
  0
VERTEX
  8
┌▓È_1
  5
639
 10
341.761
 20
-39.3780
 30
0.000000
  70
    32
  0
VERTEX
  8
┌▓È_1
  5
63A
 10
341.771
 20
-39.3179
 30
0.000000
  70
    32
  0
VERTEX
  8
┌▓È_1
  5
63B
 10
341.780
 20
-39.2576
 30
0.000000
  70
    32
  0
VERTEX
  8
┌▓È_1
  5
63C
 10
341.788
 20
-39.1970
 30
0.000000
  70
    32
  0
VERTEX
  8
┌▓È_1
  5
63D
 10
341.794
 20
-39.1362
 30
0.000000
  70
    32
  0
VERTEX
  8
┌▓È_1
  5
63E
 10
341.800
 20
-39.0753
 30
0.000000
  70
    32
  0
VERTEX
  8
┌▓È_1
  5
63F
 10
341.804
 20
-39.0141
 30
0.000000
  70
    32
  0
VERTEX
  8
┌▓È_1
  5
640
 10
341.807
 20
-38.9529
 30
0.000000
  70
    32
  0
VERTEX
  8
┌▓È_1
  5
641
 10
341.809
 20
-38.8916
 30
0.000000
  70
    32
  0
VERTEX
  8
┌▓È_1
  5
642
 10
341.809
 20
-38.8302
 30
0.000000
  70
    32
  0
VERTEX
  8
┌▓È_1
  5
643
 10
341.809
 20
-38.7689
 30
0.000000
  70
    32
  0
VERTEX
  8
┌▓È_1
  5
644
 10
341.807
 20
-38.7075
 30
0.000000
  70
    32
  0
VERTEX
  8
┌▓È_1
  5
645
 10
341.804
 20
-38.6463
 30
0.000000
  70
    32
  0
VERTEX
  8
┌▓È_1
  5
646
 10
341.800
 20
-38.5852
 30
0.000000
  70
    32
  0
VERTEX
  8
┌▓È_1
  5
647
 10
341.794
 20
-38.5242
 30
0.000000
  70
    32
  0
VERTEX
  8
┌▓È_1
  5
648
 10
341.788
 20
-38.4634
 30
0.000000
  70
    32
  0
VERTEX
  8
┌▓È_1
  5
649
 10
341.780
 20
-38.4028
 30
0.000000
  70
    32
  0
VERTEX
  8
┌▓È_1
  5
64A
 10
341.771
 20
-38.3425
 30
0.000000
  70
    32
  0
VERTEX
  8
┌▓È_1
  5
64B
 10
341.761
 20
-38.2825
 30
0.000000
  70
    32
  0
VERTEX
  8
┌▓È_1
  5
64C
 10
341.749
 20
-38.2228
 30
0.000000
  70
    32
  0
VERTEX
  8
┌▓È_1
  5
64D
 10
341.737
 20
-38.1634
 30
0.000000
  70
    32
  0
VERTEX
  8
┌▓È_1
  5
64E
 10
341.723
 20
-38.1045
 30
0.000000
  70
    32
  0
VERTEX
  8
┌▓È_1
  5
64F
 10
341.708
 20
-38.0460
 30
0.000000
  70
    32
  0
VERTEX
  8
┌▓È_1
  5
650
 10
341.692
 20
-37.9880
 30
0.000000
  70
    32
  0
VERTEX
  8
┌▓È_1
  5
651
 10
341.675
 20
-37.9305
 30
0.000000
  70
    32
  0
VERTEX
  8
┌▓È_1
  5
652
 10
341.657
 20
-37.8735
 30
0.000000
  70
    32
  0
VERTEX
  8
┌▓È_1
  5
653
 10
341.638
 20
-37.8171
 30
0.000000
  70
    32
  0
VERTEX
  8
┌▓È_1
  5
654
 10
341.617
 20
-37.7613
 30
0.000000
  70
    32
  0
VERTEX
  8
┌▓È_1
  5
655
 10
341.596
 20
-37.7062
 30
0.000000
  70
    32
  0
VERTEX
  8
┌▓È_1
  5
656
 10
341.573
 20
-37.6517
 30
0.000000
  70
    32
  0
VERTEX
  8
┌▓È_1
  5
657
 10
341.550
 20
-37.5980
 30
0.000000
  70
    32
  0
VERTEX
  8
┌▓È_1
  5
658
 10
341.525
 20
-37.5450
 30
0.000000
  70
    32
  0
VERTEX
  8
┌▓È_1
  5
659
 10
341.499
 20
-37.4927
 30
0.000000
  70
    32
  0
VERTEX
  8
┌▓È_1
  5
65A
 10
341.472
 20
-37.4413
 30
0.000000
  70
    32
  0
VERTEX
  8
┌▓È_1
  5
65B
 10
341.445
 20
-37.3907
 30
0.000000
  70
    32
  0
VERTEX
  8
┌▓È_1
  5
65C
 10
341.416
 20
-37.3410
 30
0.000000
  70
    32
  0
VERTEX
  8
┌▓È_1
  5
65D
 10
341.386
 20
-37.2921
 30
0.000000
  70
    32
  0
VERTEX
  8
┌▓È_1
  5
65E
 10
341.355
 20
-37.2442
 30
0.000000
  70
    32
  0
VERTEX
  8
┌▓È_1
  5
65F
 10
341.324
 20
-37.1973
 30
0.000000
  70
    32
  0
VERTEX
  8
┌▓È_1
  5
660
 10
341.291
 20
-37.1513
 30
0.000000
  70
    32
  0
VERTEX
  8
┌▓È_1
  5
661
 10
341.258
 20
-37.1064
 30
0.000000
  70
    32
  0
VERTEX
  8
┌▓È_1
  5
662
 10
341.224
 20
-37.0624
 30
0.000000
  70
    32
  0
VERTEX
  8
┌▓È_1
  5
663
 10
341.188
 20
-37.0196
 30
0.000000
  70
    32
  0
VERTEX
  8
┌▓È_1
  5
664
 10
341.152
 20
-36.9778
 30
0.000000
  70
    32
  0
VERTEX
  8
┌▓È_1
  5
665
 10
341.116
 20
-36.9372
 30
0.000000
  70
    32
  0
VERTEX
  8
┌▓È_1
  5
666
 10
341.078
 20
-36.8977
 30
0.000000
  70
    32
  0
VERTEX
  8
┌▓È_1
  5
667
 10
341.040
 20
-36.8593
 30
0.000000
  70
    32
  0
VERTEX
  8
┌▓È_1
  5
668
 10
341.001
 20
-36.8222
 30
0.000000
  70
    32
  0
VERTEX
  8
┌▓È_1
  5
669
 10
340.961
 20
-36.7862
 30
0.000000
  70
    32
  0
VERTEX
  8
┌▓È_1
  5
66A
 10
340.921
 20
-36.7515
 30
0.000000
  70
    32
  0
VERTEX
  8
┌▓È_1
  5
66B
 10
340.879
 20
-36.7181
 30
0.000000
  70
    32
  0
VERTEX
  8
┌▓È_1
  5
66C
 10
340.838
 20
-36.6859
 30
0.000000
  70
    32
  0
VERTEX
  8
┌▓È_1
  5
66D
 10
340.795
 20
-36.6550
 30
0.000000
  70
    32
  0
VERTEX
  8
┌▓È_1
  5
66E
 10
340.752
 20
-36.6254
 30
0.000000
  70
    32
  0
VERTEX
  8
┌▓È_1
  5
66F
 10
340.709
 20
-36.5971
 30
0.000000
  70
    32
  0
VERTEX
  8
┌▓È_1
  5
670
 10
340.664
 20
-36.5702
 30
0.000000
  70
    32
  0
VERTEX
  8
┌▓È_1
  5
671
 10
340.620
 20
-36.5447
 30
0.000000
  70
    32
  0
VERTEX
  8
┌▓È_1
  5
672
 10
340.575
 20
-36.5205
 30
0.000000
  70
    32
  0
VERTEX
  8
┌▓È_1
  5
673
 10
340.529
 20
-36.4977
 30
0.000000
  70
    32
  0
VERTEX
  8
┌▓È_1
  5
674
 10
340.483
 20
-36.4763
 30
0.000000
  70
    32
  0
VERTEX
  8
┌▓È_1
  5
675
 10
340.437
 20
-36.4564
 30
0.000000
  70
    32
  0
VERTEX
  8
┌▓È_1
  5
676
 10
340.390
 20
-36.4379
 30
0.000000
  70
    32
  0
VERTEX
  8
┌▓È_1
  5
677
 10
340.343
 20
-36.4208
 30
0.000000
  70
    32
  0
VERTEX
  8
┌▓È_1
  5
678
 10
340.295
 20
-36.4051
 30
0.000000
  70
    32
  0
VERTEX
  8
┌▓È_1
  5
679
 10
340.248
 20
-36.3910
 30
0.000000
  70
    32
  0
VERTEX
  8
┌▓È_1
  5
67A
 10
340.200
 20
-36.3782
 30
0.000000
  70
    32
  0
VERTEX
  8
┌▓È_1
  5
67B
 10
340.151
 20
-36.3670
 30
0.000000
  70
    32
  0
VERTEX
  8
┌▓È_1
  5
67C
 10
340.103
 20
-36.3573
 30
0.000000
  70
    32
  0
VERTEX
  8
┌▓È_1
  5
67D
 10
340.054
 20
-36.3490
 30
0.000000
  70
    32
  0
VERTEX
  8
┌▓È_1
  5
67E
 10
340.005
 20
-36.3422
 30
0.000000
  70
    32
  0
VERTEX
  8
┌▓È_1
  5
67F
 10
339.957
 20
-36.3370
 30
0.000000
  70
    32
  0
VERTEX
  8
┌▓È_1
  5
680
 10
339.908
 20
-36.3332
 30
0.000000
  70
    32
  0
VERTEX
  8
┌▓È_1
  5
681
 10
339.858
 20
-36.3310
 30
0.000000
  70
    32
  0
VERTEX
  8
┌▓È_1
  5
682
 10
339.809
 20
-36.3302
 30
0.000000
  70
    32
  0
SEQEND
  8
┌▓È_1
  5
683
  0
POLYLINE
  5
1B9
  8
┌▓È_1
 62
     5
 10
341.80937499999999
 20
-43.83020887659999
 30
0.0
 66
     1
 70
     8
  0
VERTEX
  8
┌▓È_1
  5
684
 10
341.809
 20
-43.8302
 30
0.000000
  70
    32
  0
VERTEX
  8
┌▓È_1
  5
685
 10
341.807
 20
-43.9529
 30
0.000000
  70
    32
  0
VERTEX
  8
┌▓È_1
  5
686
 10
341.800
 20
-44.0753
 30
0.000000
  70
    32
  0
VERTEX
  8
┌▓È_1
  5
687
 10
341.788
 20
-44.1970
 30
0.000000
  70
    32
  0
VERTEX
  8
┌▓È_1
  5
688
 10
341.771
 20
-44.3179
 30
0.000000
  70
    32
  0
VERTEX
  8
┌▓È_1
  5
689
 10
341.749
 20
-44.4377
 30
0.000000
  70
    32
  0
VERTEX
  8
┌▓È_1
  5
68A
 10
341.723
 20
-44.5559
 30
0.000000
  70
    32
  0
VERTEX
  8
┌▓È_1
  5
68B
 10
341.692
 20
-44.6724
 30
0.000000
  70
    32
  0
VERTEX
  8
┌▓È_1
  5
68C
 10
341.657
 20
-44.7869
 30
0.000000
  70
    32
  0
VERTEX
  8
┌▓È_1
  5
68D
 10
341.617
 20
-44.8991
 30
0.000000
  70
    32
  0
VERTEX
  8
┌▓È_1
  5
68E
 10
341.573
 20
-45.0087
 30
0.000000
  70
    32
  0
VERTEX
  8
┌▓È_1
  5
68F
 10
341.525
 20
-45.1155
 30
0.000000
  70
    32
  0
VERTEX
  8
┌▓È_1
  5
690
 10
341.472
 20
-45.2191
 30
0.000000
  70
    32
  0
VERTEX
  8
┌▓È_1
  5
691
 10
341.416
 20
-45.3195
 30
0.000000
  70
    32
  0
VERTEX
  8
┌▓È_1
  5
692
 10
341.355
 20
-45.4162
 30
0.000000
  70
    32
  0
VERTEX
  8
┌▓È_1
  5
693
 10
341.291
 20
-45.5091
 30
0.000000
  70
    32
  0
VERTEX
  8
┌▓È_1
  5
694
 10
341.224
 20
-45.5980
 30
0.000000
  70
    32
  0
VERTEX
  8
┌▓È_1
  5
695
 10
341.152
 20
-45.6826
 30
0.000000
  70
    32
  0
VERTEX
  8
┌▓È_1
  5
696
 10
341.078
 20
-45.7627
 30
0.000000
  70
    32
  0
VERTEX
  8
┌▓È_1
  5
697
 10
341.001
 20
-45.8382
 30
0.000000
  70
    32
  0
VERTEX
  8
┌▓È_1
  5
698
 10
340.921
 20
-45.9089
 30
0.000000
  70
    32
  0
VERTEX
  8
┌▓È_1
  5
699
 10
340.838
 20
-45.9745
 30
0.000000
  70
    32
  0
VERTEX
  8
┌▓È_1
  5
69A
 10
340.752
 20
-46.0350
 30
0.000000
  70
    32
  0
VERTEX
  8
┌▓È_1
  5
69B
 10
340.664
 20
-46.0902
 30
0.000000
  70
    32
  0
VERTEX
  8
┌▓È_1
  5
69C
 10
340.575
 20
-46.1399
 30
0.000000
  70
    32
  0
VERTEX
  8
┌▓È_1
  5
69D
 10
340.483
 20
-46.1841
 30
0.000000
  70
    32
  0
VERTEX
  8
┌▓È_1
  5
69E
 10
340.390
 20
-46.2226
 30
0.000000
  70
    32
  0
VERTEX
  8
┌▓È_1
  5
69F
 10
340.295
 20
-46.2553
 30
0.000000
  70
    32
  0
VERTEX
  8
┌▓È_1
  5
6A0
 10
340.200
 20
-46.2822
 30
0.000000
  70
    32
  0
VERTEX
  8
┌▓È_1
  5
6A1
 10
340.103
 20
-46.3032
 30
0.000000
  70
    32
  0
VERTEX
  8
┌▓È_1
  5
6A2
 10
340.005
 20
-46.3182
 30
0.000000
  70
    32
  0
VERTEX
  8
┌▓È_1
  5
6A3
 10
339.908
 20
-46.3272
 30
0.000000
  70
    32
  0
VERTEX
  8
┌▓È_1
  5
6A4
 10
339.809
 20
-46.3302
 30
0.000000
  70
    32
  0
VERTEX
  8
┌▓È_1
  5
6A5
 10
339.711
 20
-46.3272
 30
0.000000
  70
    32
  0
VERTEX
  8
┌▓È_1
  5
6A6
 10
339.613
 20
-46.3182
 30
0.000000
  70
    32
  0
VERTEX
  8
┌▓È_1
  5
6A7
 10
339.516
 20
-46.3032
 30
0.000000
  70
    32
  0
VERTEX
  8
┌▓È_1
  5
6A8
 10
339.419
 20
-46.2822
 30
0.000000
  70
    32
  0
VERTEX
  8
┌▓È_1
  5
6A9
 10
339.323
 20
-46.2553
 30
0.000000
  70
    32
  0
VERTEX
  8
┌▓È_1
  5
6AA
 10
339.229
 20
-46.2226
 30
0.000000
  70
    32
  0
VERTEX
  8
┌▓È_1
  5
6AB
 10
339.136
 20
-46.1841
 30
0.000000
  70
    32
  0
VERTEX
  8
┌▓È_1
  5
6AC
 10
339.044
 20
-46.1399
 30
0.000000
  70
    32
  0
VERTEX
  8
┌▓È_1
  5
6AD
 10
338.954
 20
-46.0902
 30
0.000000
  70
    32
  0
VERTEX
  8
┌▓È_1
  5
6AE
 10
338.867
 20
-46.0350
 30
0.000000
  70
    32
  0
VERTEX
  8
┌▓È_1
  5
6AF
 10
338.781
 20
-45.9745
 30
0.000000
  70
    32
  0
VERTEX
  8
┌▓È_1
  5
6B0
 10
338.698
 20
-45.9089
 30
0.000000
  70
    32
  0
VERTEX
  8
┌▓È_1
  5
6B1
 10
338.618
 20
-45.8382
 30
0.000000
  70
    32
  0
VERTEX
  8
┌▓È_1
  5
6B2
 10
338.541
 20
-45.7627
 30
0.000000
  70
    32
  0
VERTEX
  8
┌▓È_1
  5
6B3
 10
338.466
 20
-45.6826
 30
0.000000
  70
    32
  0
VERTEX
  8
┌▓È_1
  5
6B4
 10
338.395
 20
-45.5980
 30
0.000000
  70
    32
  0
VERTEX
  8
┌▓È_1
  5
6B5
 10
338.327
 20
-45.5091
 30
0.000000
  70
    32
  0
VERTEX
  8
┌▓È_1
  5
6B6
 10
338.263
 20
-45.4162
 30
0.000000
  70
    32
  0
VERTEX
  8
┌▓È_1
  5
6B7
 10
338.203
 20
-45.3195
 30
0.000000
  70
    32
  0
VERTEX
  8
┌▓È_1
  5
6B8
 10
338.146
 20
-45.2191
 30
0.000000
  70
    32
  0
VERTEX
  8
┌▓È_1
  5
6B9
 10
338.094
 20
-45.1155
 30
0.000000
  70
    32
  0
VERTEX
  8
┌▓È_1
  5
6BA
 10
338.046
 20
-45.0087
 30
0.000000
  70
    32
  0
VERTEX
  8
┌▓È_1
  5
6BB
 10
338.001
 20
-44.8991
 30
0.000000
  70
    32
  0
VERTEX
  8
┌▓È_1
  5
6BC
 10
337.962
 20
-44.7869
 30
0.000000
  70
    32
  0
VERTEX
  8
┌▓È_1
  5
6BD
 10
337.926
 20
-44.6724
 30
0.000000
  70
    32
  0
VERTEX
  8
┌▓È_1
  5
6BE
 10
337.895
 20
-44.5559
 30
0.000000
  70
    32
  0
VERTEX
  8
┌▓È_1
  5
6BF
 10
337.869
 20
-44.4377
 30
0.000000
  70
    32
  0
VERTEX
  8
┌▓È_1
  5
6C0
 10
337.848
 20
-44.3179
 30
0.000000
  70
    32
  0
VERTEX
  8
┌▓È_1
  5
6C1
 10
337.831
 20
-44.1970
 30
0.000000
  70
    32
  0
VERTEX
  8
┌▓È_1
  5
6C2
 10
337.819
 20
-44.0753
 30
0.000000
  70
    32
  0
VERTEX
  8
┌▓È_1
  5
6C3
 10
337.812
 20
-43.9529
 30
0.000000
  70
    32
  0
VERTEX
  8
┌▓È_1
  5
6C4
 10
337.809
 20
-43.8302
 30
0.000000
  70
    32
  0
VERTEX
  8
┌▓È_1
  5
6C5
 10
337.812
 20
-43.7075
 30
0.000000
  70
    32
  0
VERTEX
  8
┌▓È_1
  5
6C6
 10
337.819
 20
-43.5852
 30
0.000000
  70
    32
  0
VERTEX
  8
┌▓È_1
  5
6C7
 10
337.831
 20
-43.4634
 30
0.000000
  70
    32
  0
VERTEX
  8
┌▓È_1
  5
6C8
 10
337.848
 20
-43.3425
 30
0.000000
  70
    32
  0
VERTEX
  8
┌▓È_1
  5
6C9
 10
337.869
 20
-43.2228
 30
0.000000
  70
    32
  0
VERTEX
  8
┌▓È_1
  5
6CA
 10
337.895
 20
-43.1045
 30
0.000000
  70
    32
  0
VERTEX
  8
┌▓È_1
  5
6CB
 10
337.926
 20
-42.9880
 30
0.000000
  70
    32
  0
VERTEX
  8
┌▓È_1
  5
6CC
 10
337.962
 20
-42.8735
 30
0.000000
  70
    32
  0
VERTEX
  8
┌▓È_1
  5
6CD
 10
338.001
 20
-42.7613
 30
0.000000
  70
    32
  0
VERTEX
  8
┌▓È_1
  5
6CE
 10
338.046
 20
-42.6517
 30
0.000000
  70
    32
  0
VERTEX
  8
┌▓È_1
  5
6CF
 10
338.094
 20
-42.5450
 30
0.000000
  70
    32
  0
VERTEX
  8
┌▓È_1
  5
6D0
 10
338.146
 20
-42.4413
 30
0.000000
  70
    32
  0
VERTEX
  8
┌▓È_1
  5
6D1
 10
338.203
 20
-42.3410
 30
0.000000
  70
    32
  0
VERTEX
  8
┌▓È_1
  5
6D2
 10
338.263
 20
-42.2442
 30
0.000000
  70
    32
  0
VERTEX
  8
┌▓È_1
  5
6D3
 10
338.327
 20
-42.1513
 30
0.000000
  70
    32
  0
VERTEX
  8
┌▓È_1
  5
6D4
 10
338.395
 20
-42.0624
 30
0.000000
  70
    32
  0
VERTEX
  8
┌▓È_1
  5
6D5
 10
338.466
 20
-41.9778
 30
0.000000
  70
    32
  0
VERTEX
  8
┌▓È_1
  5
6D6
 10
338.541
 20
-41.8977
 30
0.000000
  70
    32
  0
VERTEX
  8
┌▓È_1
  5
6D7
 10
338.618
 20
-41.8222
 30
0.000000
  70
    32
  0
VERTEX
  8
┌▓È_1
  5
6D8
 10
338.698
 20
-41.7515
 30
0.000000
  70
    32
  0
VERTEX
  8
┌▓È_1
  5
6D9
 10
338.781
 20
-41.6859
 30
0.000000
  70
    32
  0
VERTEX
  8
┌▓È_1
  5
6DA
 10
338.867
 20
-41.6254
 30
0.000000
  70
    32
  0
VERTEX
  8
┌▓È_1
  5
6DB
 10
338.954
 20
-41.5702
 30
0.000000
  70
    32
  0
VERTEX
  8
┌▓È_1
  5
6DC
 10
339.044
 20
-41.5205
 30
0.000000
  70
    32
  0
VERTEX
  8
┌▓È_1
  5
6DD
 10
339.136
 20
-41.4763
 30
0.000000
  70
    32
  0
VERTEX
  8
┌▓È_1
  5
6DE
 10
339.229
 20
-41.4379
 30
0.000000
  70
    32
  0
VERTEX
  8
┌▓È_1
  5
6DF
 10
339.323
 20
-41.4051
 30
0.000000
  70
    32
  0
VERTEX
  8
┌▓È_1
  5
6E0
 10
339.419
 20
-41.3782
 30
0.000000
  70
    32
  0
VERTEX
  8
┌▓È_1
  5
6E1
 10
339.516
 20
-41.3573
 30
0.000000
  70
    32
  0
VERTEX
  8
┌▓È_1
  5
6E2
 10
339.613
 20
-41.3422
 30
0.000000
  70
    32
  0
VERTEX
  8
┌▓È_1
  5
6E3
 10
339.711
 20
-41.3332
 30
0.000000
  70
    32
  0
VERTEX
  8
┌▓È_1
  5
6E4
 10
339.809
 20
-41.3302
 30
0.000000
  70
    32
  0
VERTEX
  8
┌▓È_1
  5
6E5
 10
339.908
 20
-41.3332
 30
0.000000
  70
    32
  0
VERTEX
  8
┌▓È_1
  5
6E6
 10
340.005
 20
-41.3422
 30
0.000000
  70
    32
  0
VERTEX
  8
┌▓È_1
  5
6E7
 10
340.103
 20
-41.3573
 30
0.000000
  70
    32
  0
VERTEX
  8
┌▓È_1
  5
6E8
 10
340.200
 20
-41.3782
 30
0.000000
  70
    32
  0
VERTEX
  8
┌▓È_1
  5
6E9
 10
340.295
 20
-41.4051
 30
0.000000
  70
    32
  0
VERTEX
  8
┌▓È_1
  5
6EA
 10
340.390
 20
-41.4379
 30
0.000000
  70
    32
  0
VERTEX
  8
┌▓È_1
  5
6EB
 10
340.483
 20
-41.4763
 30
0.000000
  70
    32
  0
VERTEX
  8
┌▓È_1
  5
6EC
 10
340.575
 20
-41.5205
 30
0.000000
  70
    32
  0
VERTEX
  8
┌▓È_1
  5
6ED
 10
340.664
 20
-41.5702
 30
0.000000
  70
    32
  0
VERTEX
  8
┌▓È_1
  5
6EE
 10
340.752
 20
-41.6254
 30
0.000000
  70
    32
  0
VERTEX
  8
┌▓È_1
  5
6EF
 10
340.838
 20
-41.6859
 30
0.000000
  70
    32
  0
VERTEX
  8
┌▓È_1
  5
6F0
 10
340.921
 20
-41.7515
 30
0.000000
  70
    32
  0
VERTEX
  8
┌▓È_1
  5
6F1
 10
341.001
 20
-41.8222
 30
0.000000
  70
    32
  0
VERTEX
  8
┌▓È_1
  5
6F2
 10
341.078
 20
-41.8977
 30
0.000000
  70
    32
  0
VERTEX
  8
┌▓È_1
  5
6F3
 10
341.152
 20
-41.9778
 30
0.000000
  70
    32
  0
VERTEX
  8
┌▓È_1
  5
6F4
 10
341.224
 20
-42.0624
 30
0.000000
  70
    32
  0
VERTEX
  8
┌▓È_1
  5
6F5
 10
341.291
 20
-42.1513
 30
0.000000
  70
    32
  0
VERTEX
  8
┌▓È_1
  5
6F6
 10
341.355
 20
-42.2442
 30
0.000000
  70
    32
  0
VERTEX
  8
┌▓È_1
  5
6F7
 10
341.416
 20
-42.3410
 30
0.000000
  70
    32
  0
VERTEX
  8
┌▓È_1
  5
6F8
 10
341.472
 20
-42.4413
 30
0.000000
  70
    32
  0
VERTEX
  8
┌▓È_1
  5
6F9
 10
341.525
 20
-42.5450
 30
0.000000
  70
    32
  0
VERTEX
  8
┌▓È_1
  5
6FA
 10
341.573
 20
-42.6517
 30
0.000000
  70
    32
  0
VERTEX
  8
┌▓È_1
  5
6FB
 10
341.617
 20
-42.7613
 30
0.000000
  70
    32
  0
VERTEX
  8
┌▓È_1
  5
6FC
 10
341.657
 20
-42.8735
 30
0.000000
  70
    32
  0
VERTEX
  8
┌▓È_1
  5
6FD
 10
341.692
 20
-42.9880
 30
0.000000
  70
    32
  0
VERTEX
  8
┌▓È_1
  5
6FE
 10
341.723
 20
-43.1045
 30
0.000000
  70
    32
  0
VERTEX
  8
┌▓È_1
  5
6FF
 10
341.749
 20
-43.2228
 30
0.000000
  70
    32
  0
VERTEX
  8
┌▓È_1
  5
700
 10
341.771
 20
-43.3425
 30
0.000000
  70
    32
  0
VERTEX
  8
┌▓È_1
  5
701
 10
341.788
 20
-43.4634
 30
0.000000
  70
    32
  0
VERTEX
  8
┌▓È_1
  5
702
 10
341.800
 20
-43.5852
 30
0.000000
  70
    32
  0
VERTEX
  8
┌▓È_1
  5
703
 10
341.807
 20
-43.7075
 30
0.000000
  70
    32
  0
VERTEX
  8
┌▓È_1
  5
704
 10
341.809
 20
-43.8302
 30
0.000000
  70
    32
  0
SEQEND
  8
┌▓È_1
  5
705
  0
LINE
  5
1BA
  8
┌▓È_1
 62
     5
 10
49.809375000000003
 20
216.8795467514
 30
0.0
 11
54.7830874303
 21
216.8795467514
 31
0.0
  0
LINE
  5
1BB
  8
┌▓È_1
 62
     5
 10
49.809375000000003
 20
171.0660974402
 30
0.0
 11
49.809375000000003
 21
130.0000233392
 31
0.0
  0
LINE
  5
1BC
  8
┌▓È_1
 62
     5
 10
59.809375000000003
 20
171.0660974402
 30
0.0
 11
59.809375000000003
 21
130.0000233392
 31
0.0
  0
LINE
  5
1BD
  8
┌▓È_1
 62
     5
 10
49.809375000000003
 20
206.8795467514
 30
0.0
 11
49.809375000000003
 21
171.0660974402
 31
0.0
  0
LINE
  5
1BE
  8
┌▓È_1
 62
     5
 10
59.809375000000003
 20
206.8795467514
 30
0.0
 11
59.809375000000003
 21
171.0660974402
 31
0.0
  0
LINE
  5
1BF
  8
┌▓È_1
 62
     5
 10
49.809375000000003
 20
211.9058343211
 30
0.0
 11
54.7830874303
 21
216.8795467514
 31
0.0
  0
LINE
  5
1C0
  8
┌▓È_1
 62
     5
 10
44.7830874303
 20
206.8795467514
 30
0.0
 11
49.809375000000003
 21
206.8795467514
 31
0.0
  0
LINE
  5
1C1
  8
┌▓È_1
 62
     5
 10
49.809375000000003
 20
211.9058343211
 30
0.0
 11
44.7830874303
 21
206.8795467514
 31
0.0
  0
LINE
  5
1C2
  8
┌▓È_1
 62
     5
 10
59.809375000000003
 20
206.8795467514
 30
0.0
 11
54.7830874303
 21
206.8795467514
 31
0.0
  0
LINE
  5
1C3
  8
┌▓È_1
 62
     5
 10
59.809375000000003
 20
211.9058343211
 30
0.0
 11
54.7830874303
 21
206.8795467514
 31
0.0
  0
LINE
  5
1C4
  8
┌▓È_1
 62
     5
 10
64.7830874303
 20
216.8795467514
 30
0.0
 11
59.809375000000003
 21
216.8795467514
 31
0.0
  0
LINE
  5
1C5
  8
┌▓È_1
 62
     5
 10
59.809375000000003
 20
211.9058343211
 30
0.0
 11
64.7830874303
 21
216.8795467514
 31
0.0
  0
DIMENSION
  5
1D3
  8
Éíû@É³
  2
*D5
 10
-127.7464548029
 20
231.0660974402
 30
0.0
 11
-127.7464548029
 21
211.0660974402
 31
0.0
 70
   128
  1
<>
 13
-96.644627501900004
 23
231.0660974402
 33
0.0
 14
-96.760609237099985
 24
191.0660974402
 34
0.0
 50
90.0
  0
DIMENSION
  5
1E1
  8
Éíû@É³
  2
*D6
 10
-127.74645398600001
 20
191.0660974402
 30
0.0
 11
-127.74645398600001
 21
171.0660974402
 31
0.0
 70
   128
  1
<>
 13
-96.760609237099985
 23
191.0660974402
 33
0.0
 14
-97.746453986000006
 24
151.0660974402
 34
0.0
 50
90.0
  0
DIMENSION
  5
1EF
  8
Éíû@É³
  2
*D7
 10
-127.74645321600001
 20
271.0660974402
 30
0.0
 11
-127.74645321600001
 21
251.0660974402
 31
0.0
 70
   128
  1
<>
 13
-96.644627501900004
 23
271.0660974402
 33
0.0
 14
-96.644627501900004
 24
231.0660974402
 34
0.0
 50
90.0
  0
LINE
  5
1F0
  8
┌▓È_1
 62
     5
 10
-93.690624999999997
 20
140.0505208333
 30
0.0
 11
-95.190624999999997
 21
140.0505208333
 31
0.0
  0
LINE
  5
1F1
  8
┌▓È_1
 62
     5
 10
-85.478806170500008
 20
151.0505208333
 30
0.0
 11
-94.019741843000006
 21
151.0505208333
 31
0.0
  0
LINE
  5
1F2
  8
┌▓È_1
 62
     5
 10
-92.190624999999983
 20
144.431674047
 30
0.0
 11
-92.190624999999983
 21
141.5505208333
 31
0.0
  0
LINE
  5
1F3
  8
┌▓È_1
 62
     5
 10
-101.0067084248
 20
151.0505208333
 30
0.0
 11
-129.6330900799
 21
151.0505208333
 31
0.0
  0
ARC
  5
1F4
  8
┌▓È_1
 62
     5
 10
-91.390624999999986
 20
144.431674047
 30
0.0
 40
0.8
 50
90.0
 51
180.0
  0
LINE
  5
1F5
  8
┌▓È_1
 62
     5
 10
-89.690624999999983
 20
145.23167404700001
 30
0.0
 11
-91.390624999999986
 21
145.23167404700001
 31
0.0
  0
LINE
  5
1F6
  8
┌▓È_1
 62
     5
 10
-86.902161748500006
 20
151.0505208333
 30
0.0
 11
-97.2825270453
 21
151.0505208333
 31
0.0
  0
LINE
  5
1F7
  8
┌▓È_1
 62
     5
 10
-93.690624999999997
 20
-30.3302088766
 30
0.0
 11
-95.190624999999997
 21
-30.3302088766
 31
0.0
  0
LINE
  5
1F8
  8
┌▓È_1
 62
     5
 10
-92.190624999999983
 20
-35.330208876599997
 30
0.0
 11
-89.690624999999983
 21
-35.330208876599997
 31
0.0
  0
ARC
  5
1F9
  8
┌▓È_1
 62
     5
 10
-93.690624999999997
 20
-50.830208876599997
 30
0.0
 40
1.5
 50
270.0
 51
0.0
  0
LINE
  5
1FA
  8
┌▓È_1
 62
     5
 10
-95.190624999999997
 20
-52.330208876599997
 30
0.0
 11
-93.690624999999997
 21
-52.330208876599997
 31
0.0
  0
LINE
  5
1FB
  8
┌▓È_1
 62
     5
 10
-92.190624999999983
 20
-47.33020887659999
 30
0.0
 11
-89.690624999999983
 21
-47.33020887659999
 31
0.0
  0
LINE
  5
1FC
  8
┌▓È_1
 62
     5
 10
-95.190624999999997
 20
-30.3302088766
 30
0.0
 11
-95.190624999999997
 21
-52.330208876599997
 31
0.0
  0
LINE
  5
1FD
  8
┌▓È_1
 62
     5
 10
-89.690624999999983
 20
-35.330208876599997
 30
0.0
 11
-89.690624999999983
 21
-47.33020887659999
 31
0.0
  0
LINE
  5
1FE
  8
┌▓È_1
 62
     5
 10
-92.190624999999983
 20
-50.830208876599997
 30
0.0
 11
-92.190624999999983
 21
-31.8302088766
 31
0.0
  0
LINE
  5
1FF
  8
┌▓È_1
 62
     5
 10
49.809375158199991
 20
-46.33020887659999
 30
0.0
 11
-89.690624999999983
 21
-46.33020887659999
 31
0.0
  0
LINE
  5
200
  8
┌▓È_1
 62
     5
 10
-89.690624999999983
 20
-36.330208876599997
 30
0.0
 11
49.80937503909999
 21
-36.330208876599997
 31
0.0
  0
ARC
  5
201
  8
┌▓È_1
 62
     5
 10
201.05937499999999
 20
-38.630208876600001
 30
0.0
 40
1.0
 50
180.0
 51
270.0
  0
LINE
  5
202
  8
┌▓È_1
 62
     5
 10
200.05937499999999
 20
-47.0302088766
 30
0.0
 11
209.55937499999999
 21
-47.0302088766
 31
0.0
  0
ARC
  5
203
  8
┌▓È_1
 62
     5
 10
208.55937499999999
 20
-44.0302088766
 30
0.0
 40
1.0
 50
0.0
 51
90.0
  0
LINE
  5
204
  8
┌▓È_1
 62
     5
 10
208.55937499999999
 20
-43.030208876599993
 30
0.0
 11
201.05937499999999
 21
-43.030208876599993
 31
0.0
  0
ARC
  5
205
  8
┌▓È_1
 62
     5
 10
201.05937499999999
 20
-44.0302088766
 30
0.0
 40
1.0
 50
90.0
 51
180.0
  0
LINE
  5
206
  8
┌▓È_1
 62
     5
 10
201.05937499999999
 20
-39.630208876600001
 30
0.0
 11
208.55937499999999
 21
-39.630208876600001
 31
0.0
  0
LINE
  5
207
  8
┌▓È_1
 62
     5
 10
209.55937499999999
 20
-38.630208876600001
 30
0.0
 11
209.55937499999999
 21
-35.630208876600001
 31
0.0
  0
LINE
  5
208
  8
┌▓È_1
 62
     5
 10
200.05937499999999
 20
-35.630208876600001
 30
0.0
 11
200.05937499999999
 21
-38.630208876600001
 31
0.0
  0
ARC
  5
209
  8
┌▓È_1
 62
     5
 10
208.55937499999999
 20
-38.630208876600001
 30
0.0
 40
1.0
 50
270.0
 51
0.0
  0
LINE
  5
20A
  8
┌▓È_1
 62
     5
 10
209.55937499999999
 20
-35.630208876600001
 30
0.0
 11
200.05937499999999
 21
-35.630208876600001
 31
0.0
  0
LINE
  5
20B
  8
┌▓È_1
 62
     5
 10
209.55937499999999
 20
-47.0302088766
 30
0.0
 11
209.55937499999999
 21
-44.0302088766
 31
0.0
  0
LINE
  5
20C
  8
┌▓È_1
 62
     5
 10
200.05937499999999
 20
-44.0302088766
 30
0.0
 11
200.05937499999999
 21
-47.0302088766
 31
0.0
  0
LINE
  5
20D
  8
┌▓È_1
 62
     5
 10
339.80937480929998
 20
-46.33020887659999
 30
0.0
 11
209.55937499999999
 21
-46.33020887659999
 31
0.0
  0
LINE
  5
20E
  8
┌▓È_1
 62
     5
 10
209.55937499999999
 20
-36.330208876599997
 30
0.0
 11
339.80937513740002
 21
-36.330208876599997
 31
0.0
  0
POLYLINE
  5
20F
  8
┌▓È_1
 62
     5
 10
347.80937499999999
 20
-38.830208876599997
 30
0.0
 66
     1
 70
     8
  0
VERTEX
  8
┌▓È_1
  5
706
 10
347.809
 20
-38.8302
 30
0.000000
  70
    32
  0
VERTEX
  8
┌▓È_1
  5
707
 10
347.812
 20
-38.9529
 30
0.000000
  70
    32
  0
VERTEX
  8
┌▓È_1
  5
708
 10
347.819
 20
-39.0753
 30
0.000000
  70
    32
  0
VERTEX
  8
┌▓È_1
  5
709
 10
347.831
 20
-39.1970
 30
0.000000
  70
    32
  0
VERTEX
  8
┌▓È_1
  5
70A
 10
347.848
 20
-39.3179
 30
0.000000
  70
    32
  0
VERTEX
  8
┌▓È_1
  5
70B
 10
347.869
 20
-39.4377
 30
0.000000
  70
    32
  0
VERTEX
  8
┌▓È_1
  5
70C
 10
347.895
 20
-39.5559
 30
0.000000
  70
    32
  0
VERTEX
  8
┌▓È_1
  5
70D
 10
347.926
 20
-39.6724
 30
0.000000
  70
    32
  0
VERTEX
  8
┌▓È_1
  5
70E
 10
347.962
 20
-39.7869
 30
0.000000
  70
    32
  0
VERTEX
  8
┌▓È_1
  5
70F
 10
348.001
 20
-39.8991
 30
0.000000
  70
    32
  0
VERTEX
  8
┌▓È_1
  5
710
 10
348.046
 20
-40.0087
 30
0.000000
  70
    32
  0
VERTEX
  8
┌▓È_1
  5
711
 10
348.094
 20
-40.1155
 30
0.000000
  70
    32
  0
VERTEX
  8
┌▓È_1
  5
712
 10
348.146
 20
-40.2191
 30
0.000000
  70
    32
  0
VERTEX
  8
┌▓È_1
  5
713
 10
348.203
 20
-40.3195
 30
0.000000
  70
    32
  0
VERTEX
  8
┌▓È_1
  5
714
 10
348.263
 20
-40.4162
 30
0.000000
  70
    32
  0
VERTEX
  8
┌▓È_1
  5
715
 10
348.327
 20
-40.5091
 30
0.000000
  70
    32
  0
VERTEX
  8
┌▓È_1
  5
716
 10
348.395
 20
-40.5980
 30
0.000000
  70
    32
  0
VERTEX
  8
┌▓È_1
  5
717
 10
348.466
 20
-40.6826
 30
0.000000
  70
    32
  0
VERTEX
  8
┌▓È_1
  5
718
 10
348.541
 20
-40.7627
 30
0.000000
  70
    32
  0
VERTEX
  8
┌▓È_1
  5
719
 10
348.618
 20
-40.8382
 30
0.000000
  70
    32
  0
VERTEX
  8
┌▓È_1
  5
71A
 10
348.698
 20
-40.9089
 30
0.000000
  70
    32
  0
VERTEX
  8
┌▓È_1
  5
71B
 10
348.781
 20
-40.9745
 30
0.000000
  70
    32
  0
VERTEX
  8
┌▓È_1
  5
71C
 10
348.867
 20
-41.0350
 30
0.000000
  70
    32
  0
VERTEX
  8
┌▓È_1
  5
71D
 10
348.954
 20
-41.0902
 30
0.000000
  70
    32
  0
VERTEX
  8
┌▓È_1
  5
71E
 10
349.044
 20
-41.1399
 30
0.000000
  70
    32
  0
VERTEX
  8
┌▓È_1
  5
71F
 10
349.136
 20
-41.1841
 30
0.000000
  70
    32
  0
VERTEX
  8
┌▓È_1
  5
720
 10
349.229
 20
-41.2226
 30
0.000000
  70
    32
  0
VERTEX
  8
┌▓È_1
  5
721
 10
349.323
 20
-41.2553
 30
0.000000
  70
    32
  0
VERTEX
  8
┌▓È_1
  5
722
 10
349.419
 20
-41.2822
 30
0.000000
  70
    32
  0
VERTEX
  8
┌▓È_1
  5
723
 10
349.516
 20
-41.3032
 30
0.000000
  70
    32
  0
VERTEX
  8
┌▓È_1
  5
724
 10
349.613
 20
-41.3182
 30
0.000000
  70
    32
  0
VERTEX
  8
┌▓È_1
  5
725
 10
349.711
 20
-41.3272
 30
0.000000
  70
    32
  0
VERTEX
  8
┌▓È_1
  5
726
 10
349.809
 20
-41.3302
 30
0.000000
  70
    32
  0
VERTEX
  8
┌▓È_1
  5
727
 10
349.908
 20
-41.3272
 30
0.000000
  70
    32
  0
VERTEX
  8
┌▓È_1
  5
728
 10
350.005
 20
-41.3182
 30
0.000000
  70
    32
  0
VERTEX
  8
┌▓È_1
  5
729
 10
350.103
 20
-41.3032
 30
0.000000
  70
    32
  0
VERTEX
  8
┌▓È_1
  5
72A
 10
350.200
 20
-41.2822
 30
0.000000
  70
    32
  0
VERTEX
  8
┌▓È_1
  5
72B
 10
350.295
 20
-41.2553
 30
0.000000
  70
    32
  0
VERTEX
  8
┌▓È_1
  5
72C
 10
350.390
 20
-41.2226
 30
0.000000
  70
    32
  0
VERTEX
  8
┌▓È_1
  5
72D
 10
350.483
 20
-41.1841
 30
0.000000
  70
    32
  0
VERTEX
  8
┌▓È_1
  5
72E
 10
350.575
 20
-41.1399
 30
0.000000
  70
    32
  0
VERTEX
  8
┌▓È_1
  5
72F
 10
350.664
 20
-41.0902
 30
0.000000
  70
    32
  0
VERTEX
  8
┌▓È_1
  5
730
 10
350.752
 20
-41.0350
 30
0.000000
  70
    32
  0
VERTEX
  8
┌▓È_1
  5
731
 10
350.838
 20
-40.9745
 30
0.000000
  70
    32
  0
VERTEX
  8
┌▓È_1
  5
732
 10
350.921
 20
-40.9089
 30
0.000000
  70
    32
  0
VERTEX
  8
┌▓È_1
  5
733
 10
351.001
 20
-40.8382
 30
0.000000
  70
    32
  0
VERTEX
  8
┌▓È_1
  5
734
 10
351.078
 20
-40.7627
 30
0.000000
  70
    32
  0
VERTEX
  8
┌▓È_1
  5
735
 10
351.152
 20
-40.6826
 30
0.000000
  70
    32
  0
VERTEX
  8
┌▓È_1
  5
736
 10
351.224
 20
-40.5980
 30
0.000000
  70
    32
  0
VERTEX
  8
┌▓È_1
  5
737
 10
351.291
 20
-40.5091
 30
0.000000
  70
    32
  0
VERTEX
  8
┌▓È_1
  5
738
 10
351.355
 20
-40.4162
 30
0.000000
  70
    32
  0
VERTEX
  8
┌▓È_1
  5
739
 10
351.416
 20
-40.3195
 30
0.000000
  70
    32
  0
VERTEX
  8
┌▓È_1
  5
73A
 10
351.472
 20
-40.2191
 30
0.000000
  70
    32
  0
VERTEX
  8
┌▓È_1
  5
73B
 10
351.525
 20
-40.1155
 30
0.000000
  70
    32
  0
VERTEX
  8
┌▓È_1
  5
73C
 10
351.573
 20
-40.0087
 30
0.000000
  70
    32
  0
VERTEX
  8
┌▓È_1
  5
73D
 10
351.617
 20
-39.8991
 30
0.000000
  70
    32
  0
VERTEX
  8
┌▓È_1
  5
73E
 10
351.657
 20
-39.7869
 30
0.000000
  70
    32
  0
VERTEX
  8
┌▓È_1
  5
73F
 10
351.692
 20
-39.6724
 30
0.000000
  70
    32
  0
VERTEX
  8
┌▓È_1
  5
740
 10
351.723
 20
-39.5559
 30
0.000000
  70
    32
  0
VERTEX
  8
┌▓È_1
  5
741
 10
351.749
 20
-39.4377
 30
0.000000
  70
    32
  0
VERTEX
  8
┌▓È_1
  5
742
 10
351.771
 20
-39.3179
 30
0.000000
  70
    32
  0
VERTEX
  8
┌▓È_1
  5
743
 10
351.788
 20
-39.1970
 30
0.000000
  70
    32
  0
VERTEX
  8
┌▓È_1
  5
744
 10
351.800
 20
-39.0753
 30
0.000000
  70
    32
  0
VERTEX
  8
┌▓È_1
  5
745
 10
351.807
 20
-38.9529
 30
0.000000
  70
    32
  0
VERTEX
  8
┌▓È_1
  5
746
 10
351.809
 20
-38.8302
 30
0.000000
  70
    32
  0
VERTEX
  8
┌▓È_1
  5
747
 10
351.807
 20
-38.7075
 30
0.000000
  70
    32
  0
VERTEX
  8
┌▓È_1
  5
748
 10
351.800
 20
-38.5852
 30
0.000000
  70
    32
  0
VERTEX
  8
┌▓È_1
  5
749
 10
351.788
 20
-38.4634
 30
0.000000
  70
    32
  0
VERTEX
  8
┌▓È_1
  5
74A
 10
351.771
 20
-38.3425
 30
0.000000
  70
    32
  0
VERTEX
  8
┌▓È_1
  5
74B
 10
351.749
 20
-38.2228
 30
0.000000
  70
    32
  0
VERTEX
  8
┌▓È_1
  5
74C
 10
351.723
 20
-38.1045
 30
0.000000
  70
    32
  0
VERTEX
  8
┌▓È_1
  5
74D
 10
351.692
 20
-37.9880
 30
0.000000
  70
    32
  0
VERTEX
  8
┌▓È_1
  5
74E
 10
351.657
 20
-37.8735
 30
0.000000
  70
    32
  0
VERTEX
  8
┌▓È_1
  5
74F
 10
351.617
 20
-37.7613
 30
0.000000
  70
    32
  0
VERTEX
  8
┌▓È_1
  5
750
 10
351.573
 20
-37.6517
 30
0.000000
  70
    32
  0
VERTEX
  8
┌▓È_1
  5
751
 10
351.525
 20
-37.5450
 30
0.000000
  70
    32
  0
VERTEX
  8
┌▓È_1
  5
752
 10
351.472
 20
-37.4413
 30
0.000000
  70
    32
  0
VERTEX
  8
┌▓È_1
  5
753
 10
351.416
 20
-37.3410
 30
0.000000
  70
    32
  0
VERTEX
  8
┌▓È_1
  5
754
 10
351.355
 20
-37.2442
 30
0.000000
  70
    32
  0
VERTEX
  8
┌▓È_1
  5
755
 10
351.291
 20
-37.1513
 30
0.000000
  70
    32
  0
VERTEX
  8
┌▓È_1
  5
756
 10
351.224
 20
-37.0624
 30
0.000000
  70
    32
  0
VERTEX
  8
┌▓È_1
  5
757
 10
351.152
 20
-36.9778
 30
0.000000
  70
    32
  0
VERTEX
  8
┌▓È_1
  5
758
 10
351.078
 20
-36.8977
 30
0.000000
  70
    32
  0
VERTEX
  8
┌▓È_1
  5
759
 10
351.001
 20
-36.8222
 30
0.000000
  70
    32
  0
VERTEX
  8
┌▓È_1
  5
75A
 10
350.921
 20
-36.7515
 30
0.000000
  70
    32
  0
VERTEX
  8
┌▓È_1
  5
75B
 10
350.838
 20
-36.6859
 30
0.000000
  70
    32
  0
VERTEX
  8
┌▓È_1
  5
75C
 10
350.752
 20
-36.6254
 30
0.000000
  70
    32
  0
VERTEX
  8
┌▓È_1
  5
75D
 10
350.664
 20
-36.5702
 30
0.000000
  70
    32
  0
VERTEX
  8
┌▓È_1
  5
75E
 10
350.575
 20
-36.5205
 30
0.000000
  70
    32
  0
VERTEX
  8
┌▓È_1
  5
75F
 10
350.483
 20
-36.4763
 30
0.000000
  70
    32
  0
VERTEX
  8
┌▓È_1
  5
760
 10
350.390
 20
-36.4379
 30
0.000000
  70
    32
  0
VERTEX
  8
┌▓È_1
  5
761
 10
350.295
 20
-36.4051
 30
0.000000
  70
    32
  0
VERTEX
  8
┌▓È_1
  5
762
 10
350.200
 20
-36.3782
 30
0.000000
  70
    32
  0
VERTEX
  8
┌▓È_1
  5
763
 10
350.103
 20
-36.3573
 30
0.000000
  70
    32
  0
VERTEX
  8
┌▓È_1
  5
764
 10
350.005
 20
-36.3422
 30
0.000000
  70
    32
  0
VERTEX
  8
┌▓È_1
  5
765
 10
349.908
 20
-36.3332
 30
0.000000
  70
    32
  0
VERTEX
  8
┌▓È_1
  5
766
 10
349.809
 20
-36.3302
 30
0.000000
  70
    32
  0
VERTEX
  8
┌▓È_1
  5
767
 10
349.711
 20
-36.3332
 30
0.000000
  70
    32
  0
VERTEX
  8
┌▓È_1
  5
768
 10
349.613
 20
-36.3422
 30
0.000000
  70
    32
  0
VERTEX
  8
┌▓È_1
  5
769
 10
349.516
 20
-36.3573
 30
0.000000
  70
    32
  0
VERTEX
  8
┌▓È_1
  5
76A
 10
349.419
 20
-36.3782
 30
0.000000
  70
    32
  0
VERTEX
  8
┌▓È_1
  5
76B
 10
349.323
 20
-36.4051
 30
0.000000
  70
    32
  0
VERTEX
  8
┌▓È_1
  5
76C
 10
349.229
 20
-36.4379
 30
0.000000
  70
    32
  0
VERTEX
  8
┌▓È_1
  5
76D
 10
349.136
 20
-36.4763
 30
0.000000
  70
    32
  0
VERTEX
  8
┌▓È_1
  5
76E
 10
349.044
 20
-36.5205
 30
0.000000
  70
    32
  0
VERTEX
  8
┌▓È_1
  5
76F
 10
348.954
 20
-36.5702
 30
0.000000
  70
    32
  0
VERTEX
  8
┌▓È_1
  5
770
 10
348.867
 20
-36.6254
 30
0.000000
  70
    32
  0
VERTEX
  8
┌▓È_1
  5
771
 10
348.781
 20
-36.6859
 30
0.000000
  70
    32
  0
VERTEX
  8
┌▓È_1
  5
772
 10
348.698
 20
-36.7515
 30
0.000000
  70
    32
  0
VERTEX
  8
┌▓È_1
  5
773
 10
348.618
 20
-36.8222
 30
0.000000
  70
    32
  0
VERTEX
  8
┌▓È_1
  5
774
 10
348.541
 20
-36.8977
 30
0.000000
  70
    32
  0
VERTEX
  8
┌▓È_1
  5
775
 10
348.466
 20
-36.9778
 30
0.000000
  70
    32
  0
VERTEX
  8
┌▓È_1
  5
776
 10
348.395
 20
-37.0624
 30
0.000000
  70
    32
  0
VERTEX
  8
┌▓È_1
  5
777
 10
348.327
 20
-37.1513
 30
0.000000
  70
    32
  0
VERTEX
  8
┌▓È_1
  5
778
 10
348.263
 20
-37.2442
 30
0.000000
  70
    32
  0
VERTEX
  8
┌▓È_1
  5
779
 10
348.203
 20
-37.3410
 30
0.000000
  70
    32
  0
VERTEX
  8
┌▓È_1
  5
77A
 10
348.146
 20
-37.4413
 30
0.000000
  70
    32
  0
VERTEX
  8
┌▓È_1
  5
77B
 10
348.094
 20
-37.5450
 30
0.000000
  70
    32
  0
VERTEX
  8
┌▓È_1
  5
77C
 10
348.046
 20
-37.6517
 30
0.000000
  70
    32
  0
VERTEX
  8
┌▓È_1
  5
77D
 10
348.001
 20
-37.7613
 30
0.000000
  70
    32
  0
VERTEX
  8
┌▓È_1
  5
77E
 10
347.962
 20
-37.8735
 30
0.000000
  70
    32
  0
VERTEX
  8
┌▓È_1
  5
77F
 10
347.926
 20
-37.9880
 30
0.000000
  70
    32
  0
VERTEX
  8
┌▓È_1
  5
780
 10
347.895
 20
-38.1045
 30
0.000000
  70
    32
  0
VERTEX
  8
┌▓È_1
  5
781
 10
347.869
 20
-38.2228
 30
0.000000
  70
    32
  0
VERTEX
  8
┌▓È_1
  5
782
 10
347.848
 20
-38.3425
 30
0.000000
  70
    32
  0
VERTEX
  8
┌▓È_1
  5
783
 10
347.831
 20
-38.4634
 30
0.000000
  70
    32
  0
VERTEX
  8
┌▓È_1
  5
784
 10
347.819
 20
-38.5852
 30
0.000000
  70
    32
  0
VERTEX
  8
┌▓È_1
  5
785
 10
347.812
 20
-38.7075
 30
0.000000
  70
    32
  0
VERTEX
  8
┌▓È_1
  5
786
 10
347.809
 20
-38.8302
 30
0.000000
  70
    32
  0
SEQEND
  8
┌▓È_1
  5
787
  0
INSERT
  5
210
  8
0
  6
CONTINUOUS
  2
*U33
 10
0.0
 20
0.0
 30
0.0
  0
INSERT
  5
211
  8
0
  6
CONTINUOUS
  2
*U34
 10
0.0
 20
0.0
 30
0.0
  0
LINE
  5
212
  8
┌▓È_1
 62
     5
 10
578.79960937500005
 20
-136.26893065350001
 30
0.0
 11
878.79960937500005
 21
-136.26893065350001
 31
0.0
  0
LINE
  5
213
  8
┌▓È_1
 10
578.79960937500005
 20
-214.98123444820001
 30
0.0
 11
878.79960937500005
 21
-214.98123444820001
 31
0.0
  0
LINE
  5
214
  8
┌▓È_1
 62
     5
 10
578.79960937500005
 20
-164.19919798750001
 30
0.0
 11
878.79960937500005
 21
-164.19919798750001
 31
0.0
  0
LINE
  5
215
  8
┌▓È_1
 62
     5
 10
578.79960937500005
 20
-150.23406432050001
 30
0.0
 11
878.79960937500005
 21
-150.23406432050001
 31
0.0
  0
INSERT
  5
216
  8
0
  6
CONTINUOUS
  2
*U35
 10
0.0
 20
0.0
 30
0.0
  0
LINE
  5
217
  8
┌▓È_1
 62
     5
 10
613.21074399589997
 20
-47.478825114799989
 30
0.0
 11
794.72180989579999
 21
-47.478825114799989
 31
0.0
  0
LINE
  5
218
  8
┌▓È_1
 62
     5
 10
585.09675762910001
 20
-225.98123444820001
 30
0.0
 11
692.68893789529989
 21
-225.98123444820001
 31
0.0
  0
LINE
  5
219
  8
┌▓È_1
 62
     5
 10
624.95560456199985
 20
-204.7065315433
 30
0.0
 11
653.17782678419997
 21
-204.7065315433
 31
0.0
  0
LINE
  5
21A
  8
┌▓È_1
 62
     5
 10
578.79960937500005
 20
-178.16433133390001
 30
0.0
 11
878.79960937500005
 21
-178.16433133390001
 31
0.0
  0
LINE
  5
21B
  8
┌▓È_1
 10
578.79960937500005
 20
-258.98123444819998
 30
0.0
 11
878.79960937500005
 21
-258.98123444819998
 31
0.0
  0
LINE
  5
21C
  8
┌▓È_1
 10
878.79960937500005
 20
-192.98123444820001
 30
0.0
 11
578.79960937500005
 21
-192.98123444820001
 31
0.0
  0
LINE
  5
21D
  8
┌▓È_1
 10
578.79960937500005
 20
-236.98123444820001
 30
0.0
 11
878.79960937500005
 21
-236.98123444820001
 31
0.0
  0
LINE
  5
21E
  8
┌▓È_1
 62
     5
 10
794.72180989579999
 20
-75.044840739799994
 30
0.0
 11
613.21074399589997
 21
-75.044840739799994
 31
0.0
  0
DIMENSION
  5
22C
  8
Éíû@É³
  2
*D8
 10
646.05677083329999
 20
291.0660974402
 30
0.0
 11
646.05677083329999
 21
231.0660974402
 31
0.0
 70
   128
  1
<>
 13
677.23552350429998
 23
291.0660974402
 33
0.0
 14
676.05677083329999
 24
171.0660974402
 34
0.0
 50
90.0
  0
DIMENSION
  5
23A
  8
Éíû@É³
  2
*D9
 10
646.05677083329999
 20
171.0660974402
 30
0.0
 11
646.05677083329999
 21
155.5660974402
 31
0.0
 70
   128
  1
<>
 13
676.05677083329999
 23
171.0660974402
 33
0.0
 14
683.20468749999986
 24
140.0660974402
 34
0.0
 50
90.0
  0
LINE
  5
23B
  8
┌▓È_1
 62
     5
 10
59.809375000000003
 20
316.0660974402
 30
0.0
 11
200.2744947793
 21
316.0660974402
 31
0.0
  0
DIMENSION
  5
249
  8
Éíû@É³
  2
*D10
 10
683.20468749999986
 20
356.691422961
 30
0.0
 11
651.74101486209986
 21
356.691422961
 31
0.0
 70
   128
  1
10.5
 13
683.20468749999986
 23
326.691422961
 33
0.0
 14
672.20468749999998
 24
311.0660974402
 34
0.0
  0
POLYLINE
  5
24A
  8
┌▓È_1
 62
     5
 10
60.259374999999999
 20
-43.83020887659999
 30
0.0
 66
     1
 70
     8
  0
VERTEX
  8
┌▓È_1
  5
788
 10
60.2594
 20
-43.8302
 30
0.000000
  70
    32
  0
VERTEX
  8
┌▓È_1
  5
789
 10
60.2570
 20
-43.9529
 30
0.000000
  70
    32
  0
VERTEX
  8
┌▓È_1
  5
78A
 10
60.2497
 20
-44.0753
 30
0.000000
  70
    32
  0
VERTEX
  8
┌▓È_1
  5
78B
 10
60.2377
 20
-44.1970
 30
0.000000
  70
    32
  0
VERTEX
  8
┌▓È_1
  5
78C
 10
60.2209
 20
-44.3179
 30
0.000000
  70
    32
  0
VERTEX
  8
┌▓È_1
  5
78D
 10
60.1994
 20
-44.4377
 30
0.000000
  70
    32
  0
VERTEX
  8
┌▓È_1
  5
78E
 10
60.1733
 20
-44.5559
 30
0.000000
  70
    32
  0
VERTEX
  8
┌▓È_1
  5
78F
 10
60.1425
 20
-44.6724
 30
0.000000
  70
    32
  0
VERTEX
  8
┌▓È_1
  5
790
 10
60.1071
 20
-44.7869
 30
0.000000
  70
    32
  0
VERTEX
  8
┌▓È_1
  5
791
 10
60.0674
 20
-44.8991
 30
0.000000
  70
    32
  0
VERTEX
  8
┌▓È_1
  5
792
 10
60.0232
 20
-45.0087
 30
0.000000
  70
    32
  0
VERTEX
  8
┌▓È_1
  5
793
 10
59.9748
 20
-45.1155
 30
0.000000
  70
    32
  0
VERTEX
  8
┌▓È_1
  5
794
 10
59.9223
 20
-45.2191
 30
0.000000
  70
    32
  0
VERTEX
  8
┌▓È_1
  5
795
 10
59.8658
 20
-45.3195
 30
0.000000
  70
    32
  0
VERTEX
  8
┌▓È_1
  5
796
 10
59.8054
 20
-45.4162
 30
0.000000
  70
    32
  0
VERTEX
  8
┌▓È_1
  5
797
 10
59.7413
 20
-45.5091
 30
0.000000
  70
    32
  0
VERTEX
  8
┌▓È_1
  5
798
 10
59.6736
 20
-45.5980
 30
0.000000
  70
    32
  0
VERTEX
  8
┌▓È_1
  5
799
 10
59.6025
 20
-45.6826
 30
0.000000
  70
    32
  0
VERTEX
  8
┌▓È_1
  5
79A
 10
59.5282
 20
-45.7627
 30
0.000000
  70
    32
  0
VERTEX
  8
┌▓È_1
  5
79B
 10
59.4508
 20
-45.8382
 30
0.000000
  70
    32
  0
VERTEX
  8
┌▓È_1
  5
79C
 10
59.3705
 20
-45.9089
 30
0.000000
  70
    32
  0
VERTEX
  8
┌▓È_1
  5
79D
 10
59.2876
 20
-45.9745
 30
0.000000
  70
    32
  0
VERTEX
  8
┌▓È_1
  5
79E
 10
59.2022
 20
-46.0350
 30
0.000000
  70
    32
  0
VERTEX
  8
┌▓È_1
  5
79F
 10
59.1145
 20
-46.0902
 30
0.000000
  70
    32
  0
VERTEX
  8
┌▓È_1
  5
7A0
 10
59.0247
 20
-46.1399
 30
0.000000
  70
    32
  0
VERTEX
  8
┌▓È_1
  5
7A1
 10
58.9332
 20
-46.1841
 30
0.000000
  70
    32
  0
VERTEX
  8
┌▓È_1
  5
7A2
 10
58.8399
 20
-46.2226
 30
0.000000
  70
    32
  0
VERTEX
  8
┌▓È_1
  5
7A3
 10
58.7453
 20
-46.2553
 30
0.000000
  70
    32
  0
VERTEX
  8
┌▓È_1
  5
7A4
 10
58.6496
 20
-46.2822
 30
0.000000
  70
    32
  0
VERTEX
  8
┌▓È_1
  5
7A5
 10
58.5528
 20
-46.3032
 30
0.000000
  70
    32
  0
VERTEX
  8
┌▓È_1
  5
7A6
 10
58.4554
 20
-46.3182
 30
0.000000
  70
    32
  0
VERTEX
  8
┌▓È_1
  5
7A7
 10
58.3575
 20
-46.3272
 30
0.000000
  70
    32
  0
VERTEX
  8
┌▓È_1
  5
7A8
 10
58.2594
 20
-46.3302
 30
0.000000
  70
    32
  0
VERTEX
  8
┌▓È_1
  5
7A9
 10
58.1612
 20
-46.3272
 30
0.000000
  70
    32
  0
VERTEX
  8
┌▓È_1
  5
7AA
 10
58.0633
 20
-46.3182
 30
0.000000
  70
    32
  0
VERTEX
  8
┌▓È_1
  5
7AB
 10
57.9659
 20
-46.3032
 30
0.000000
  70
    32
  0
VERTEX
  8
┌▓È_1
  5
7AC
 10
57.8692
 20
-46.2822
 30
0.000000
  70
    32
  0
VERTEX
  8
┌▓È_1
  5
7AD
 10
57.7734
 20
-46.2553
 30
0.000000
  70
    32
  0
VERTEX
  8
┌▓È_1
  5
7AE
 10
57.6788
 20
-46.2226
 30
0.000000
  70
    32
  0
VERTEX
  8
┌▓È_1
  5
7AF
 10
57.5856
 20
-46.1841
 30
0.000000
  70
    32
  0
VERTEX
  8
┌▓È_1
  5
7B0
 10
57.4940
 20
-46.1399
 30
0.000000
  70
    32
  0
VERTEX
  8
┌▓È_1
  5
7B1
 10
57.4043
 20
-46.0902
 30
0.000000
  70
    32
  0
VERTEX
  8
┌▓È_1
  5
7B2
 10
57.3166
 20
-46.0350
 30
0.000000
  70
    32
  0
VERTEX
  8
┌▓È_1
  5
7B3
 10
57.2312
 20
-45.9745
 30
0.000000
  70
    32
  0
VERTEX
  8
┌▓È_1
  5
7B4
 10
57.1482
 20
-45.9089
 30
0.000000
  70
    32
  0
VERTEX
  8
┌▓È_1
  5
7B5
 10
57.0680
 20
-45.8382
 30
0.000000
  70
    32
  0
VERTEX
  8
┌▓È_1
  5
7B6
 10
56.9906
 20
-45.7627
 30
0.000000
  70
    32
  0
VERTEX
  8
┌▓È_1
  5
7B7
 10
56.9163
 20
-45.6826
 30
0.000000
  70
    32
  0
VERTEX
  8
┌▓È_1
  5
7B8
 10
56.8452
 20
-45.5980
 30
0.000000
  70
    32
  0
VERTEX
  8
┌▓È_1
  5
7B9
 10
56.7775
 20
-45.5091
 30
0.000000
  70
    32
  0
VERTEX
  8
┌▓È_1
  5
7BA
 10
56.7134
 20
-45.4162
 30
0.000000
  70
    32
  0
VERTEX
  8
┌▓È_1
  5
7BB
 10
56.6530
 20
-45.3195
 30
0.000000
  70
    32
  0
VERTEX
  8
┌▓È_1
  5
7BC
 10
56.5964
 20
-45.2191
 30
0.000000
  70
    32
  0
VERTEX
  8
┌▓È_1
  5
7BD
 10
56.5439
 20
-45.1155
 30
0.000000
  70
    32
  0
VERTEX
  8
┌▓È_1
  5
7BE
 10
56.4955
 20
-45.0087
 30
0.000000
  70
    32
  0
VERTEX
  8
┌▓È_1
  5
7BF
 10
56.4514
 20
-44.8991
 30
0.000000
  70
    32
  0
VERTEX
  8
┌▓È_1
  5
7C0
 10
56.4116
 20
-44.7869
 30
0.000000
  70
    32
  0
VERTEX
  8
┌▓È_1
  5
7C1
 10
56.3763
 20
-44.6724
 30
0.000000
  70
    32
  0
VERTEX
  8
┌▓È_1
  5
7C2
 10
56.3455
 20
-44.5559
 30
0.000000
  70
    32
  0
VERTEX
  8
┌▓È_1
  5
7C3
 10
56.3193
 20
-44.4377
 30
0.000000
  70
    32
  0
VERTEX
  8
┌▓È_1
  5
7C4
 10
56.2978
 20
-44.3179
 30
0.000000
  70
    32
  0
VERTEX
  8
┌▓È_1
  5
7C5
 10
56.2810
 20
-44.1970
 30
0.000000
  70
    32
  0
VERTEX
  8
┌▓È_1
  5
7C6
 10
56.2690
 20
-44.0753
 30
0.000000
  70
    32
  0
VERTEX
  8
┌▓È_1
  5
7C7
 10
56.2618
 20
-43.9529
 30
0.000000
  70
    32
  0
VERTEX
  8
┌▓È_1
  5
7C8
 10
56.2594
 20
-43.8302
 30
0.000000
  70
    32
  0
VERTEX
  8
┌▓È_1
  5
7C9
 10
56.2618
 20
-43.7075
 30
0.000000
  70
    32
  0
VERTEX
  8
┌▓È_1
  5
7CA
 10
56.2690
 20
-43.5852
 30
0.000000
  70
    32
  0
VERTEX
  8
┌▓È_1
  5
7CB
 10
56.2810
 20
-43.4634
 30
0.000000
  70
    32
  0
VERTEX
  8
┌▓È_1
  5
7CC
 10
56.2978
 20
-43.3425
 30
0.000000
  70
    32
  0
VERTEX
  8
┌▓È_1
  5
7CD
 10
56.3193
 20
-43.2228
 30
0.000000
  70
    32
  0
VERTEX
  8
┌▓È_1
  5
7CE
 10
56.3455
 20
-43.1045
 30
0.000000
  70
    32
  0
VERTEX
  8
┌▓È_1
  5
7CF
 10
56.3763
 20
-42.9880
 30
0.000000
  70
    32
  0
VERTEX
  8
┌▓È_1
  5
7D0
 10
56.4116
 20
-42.8735
 30
0.000000
  70
    32
  0
VERTEX
  8
┌▓È_1
  5
7D1
 10
56.4514
 20
-42.7613
 30
0.000000
  70
    32
  0
VERTEX
  8
┌▓È_1
  5
7D2
 10
56.4955
 20
-42.6517
 30
0.000000
  70
    32
  0
VERTEX
  8
┌▓È_1
  5
7D3
 10
56.5439
 20
-42.5450
 30
0.000000
  70
    32
  0
VERTEX
  8
┌▓È_1
  5
7D4
 10
56.5964
 20
-42.4413
 30
0.000000
  70
    32
  0
VERTEX
  8
┌▓È_1
  5
7D5
 10
56.6530
 20
-42.3410
 30
0.000000
  70
    32
  0
VERTEX
  8
┌▓È_1
  5
7D6
 10
56.7134
 20
-42.2442
 30
0.000000
  70
    32
  0
VERTEX
  8
┌▓È_1
  5
7D7
 10
56.7775
 20
-42.1513
 30
0.000000
  70
    32
  0
VERTEX
  8
┌▓È_1
  5
7D8
 10
56.8452
 20
-42.0624
 30
0.000000
  70
    32
  0
VERTEX
  8
┌▓È_1
  5
7D9
 10
56.9163
 20
-41.9778
 30
0.000000
  70
    32
  0
VERTEX
  8
┌▓È_1
  5
7DA
 10
56.9906
 20
-41.8977
 30
0.000000
  70
    32
  0
VERTEX
  8
┌▓È_1
  5
7DB
 10
57.0680
 20
-41.8222
 30
0.000000
  70
    32
  0
VERTEX
  8
┌▓È_1
  5
7DC
 10
57.1482
 20
-41.7515
 30
0.000000
  70
    32
  0
VERTEX
  8
┌▓È_1
  5
7DD
 10
57.2312
 20
-41.6859
 30
0.000000
  70
    32
  0
VERTEX
  8
┌▓È_1
  5
7DE
 10
57.3166
 20
-41.6254
 30
0.000000
  70
    32
  0
VERTEX
  8
┌▓È_1
  5
7DF
 10
57.4043
 20
-41.5702
 30
0.000000
  70
    32
  0
VERTEX
  8
┌▓È_1
  5
7E0
 10
57.4940
 20
-41.5205
 30
0.000000
  70
    32
  0
VERTEX
  8
┌▓È_1
  5
7E1
 10
57.5856
 20
-41.4763
 30
0.000000
  70
    32
  0
VERTEX
  8
┌▓È_1
  5
7E2
 10
57.6788
 20
-41.4379
 30
0.000000
  70
    32
  0
VERTEX
  8
┌▓È_1
  5
7E3
 10
57.7734
 20
-41.4051
 30
0.000000
  70
    32
  0
VERTEX
  8
┌▓È_1
  5
7E4
 10
57.8692
 20
-41.3782
 30
0.000000
  70
    32
  0
VERTEX
  8
┌▓È_1
  5
7E5
 10
57.9659
 20
-41.3573
 30
0.000000
  70
    32
  0
VERTEX
  8
┌▓È_1
  5
7E6
 10
58.0633
 20
-41.3422
 30
0.000000
  70
    32
  0
VERTEX
  8
┌▓È_1
  5
7E7
 10
58.1612
 20
-41.3332
 30
0.000000
  70
    32
  0
VERTEX
  8
┌▓È_1
  5
7E8
 10
58.2594
 20
-41.3302
 30
0.000000
  70
    32
  0
VERTEX
  8
┌▓È_1
  5
7E9
 10
58.3575
 20
-41.3332
 30
0.000000
  70
    32
  0
VERTEX
  8
┌▓È_1
  5
7EA
 10
58.4554
 20
-41.3422
 30
0.000000
  70
    32
  0
VERTEX
  8
┌▓È_1
  5
7EB
 10
58.5528
 20
-41.3573
 30
0.000000
  70
    32
  0
VERTEX
  8
┌▓È_1
  5
7EC
 10
58.6496
 20
-41.3782
 30
0.000000
  70
    32
  0
VERTEX
  8
┌▓È_1
  5
7ED
 10
58.7453
 20
-41.4051
 30
0.000000
  70
    32
  0
VERTEX
  8
┌▓È_1
  5
7EE
 10
58.8399
 20
-41.4379
 30
0.000000
  70
    32
  0
VERTEX
  8
┌▓È_1
  5
7EF
 10
58.9332
 20
-41.4763
 30
0.000000
  70
    32
  0
VERTEX
  8
┌▓È_1
  5
7F0
 10
59.0247
 20
-41.5205
 30
0.000000
  70
    32
  0
VERTEX
  8
┌▓È_1
  5
7F1
 10
59.1145
 20
-41.5702
 30
0.000000
  70
    32
  0
VERTEX
  8
┌▓È_1
  5
7F2
 10
59.2022
 20
-41.6254
 30
0.000000
  70
    32
  0
VERTEX
  8
┌▓È_1
  5
7F3
 10
59.2876
 20
-41.6859
 30
0.000000
  70
    32
  0
VERTEX
  8
┌▓È_1
  5
7F4
 10
59.3705
 20
-41.7515
 30
0.000000
  70
    32
  0
VERTEX
  8
┌▓È_1
  5
7F5
 10
59.4508
 20
-41.8222
 30
0.000000
  70
    32
  0
VERTEX
  8
┌▓È_1
  5
7F6
 10
59.5282
 20
-41.8977
 30
0.000000
  70
    32
  0
VERTEX
  8
┌▓È_1
  5
7F7
 10
59.6025
 20
-41.9778
 30
0.000000
  70
    32
  0
VERTEX
  8
┌▓È_1
  5
7F8
 10
59.6736
 20
-42.0624
 30
0.000000
  70
    32
  0
VERTEX
  8
┌▓È_1
  5
7F9
 10
59.7413
 20
-42.1513
 30
0.000000
  70
    32
  0
VERTEX
  8
┌▓È_1
  5
7FA
 10
59.8054
 20
-42.2442
 30
0.000000
  70
    32
  0
VERTEX
  8
┌▓È_1
  5
7FB
 10
59.8658
 20
-42.3410
 30
0.000000
  70
    32
  0
VERTEX
  8
┌▓È_1
  5
7FC
 10
59.9223
 20
-42.4413
 30
0.000000
  70
    32
  0
VERTEX
  8
┌▓È_1
  5
7FD
 10
59.9748
 20
-42.5450
 30
0.000000
  70
    32
  0
VERTEX
  8
┌▓È_1
  5
7FE
 10
60.0232
 20
-42.6517
 30
0.000000
  70
    32
  0
VERTEX
  8
┌▓È_1
  5
7FF
 10
60.0674
 20
-42.7613
 30
0.000000
  70
    32
  0
VERTEX
  8
┌▓È_1
  5
800
 10
60.1071
 20
-42.8735
 30
0.000000
  70
    32
  0
VERTEX
  8
┌▓È_1
  5
801
 10
60.1425
 20
-42.9880
 30
0.000000
  70
    32
  0
VERTEX
  8
┌▓È_1
  5
802
 10
60.1733
 20
-43.1045
 30
0.000000
  70
    32
  0
VERTEX
  8
┌▓È_1
  5
803
 10
60.1994
 20
-43.2228
 30
0.000000
  70
    32
  0
VERTEX
  8
┌▓È_1
  5
804
 10
60.2209
 20
-43.3425
 30
0.000000
  70
    32
  0
VERTEX
  8
┌▓È_1
  5
805
 10
60.2377
 20
-43.4634
 30
0.000000
  70
    32
  0
VERTEX
  8
┌▓È_1
  5
806
 10
60.2497
 20
-43.5852
 30
0.000000
  70
    32
  0
VERTEX
  8
┌▓È_1
  5
807
 10
60.2570
 20
-43.7075
 30
0.000000
  70
    32
  0
VERTEX
  8
┌▓È_1
  5
808
 10
60.2594
 20
-43.8302
 30
0.000000
  70
    32
  0
SEQEND
  8
┌▓È_1
  5
809
  0
POLYLINE
  5
24B
  8
┌▓È_1
 62
     5
 10
58.259375000000006
 20
-36.330208876599997
 30
0.0
 66
     1
 70
     8
  0
VERTEX
  8
┌▓È_1
  5
80A
 10
58.2594
 20
-36.3302
 30
0.000000
  70
    32
  0
VERTEX
  8
┌▓È_1
  5
80B
 10
58.2103
 20
-36.3310
 30
0.000000
  70
    32
  0
VERTEX
  8
┌▓È_1
  5
80C
 10
58.1612
 20
-36.3332
 30
0.000000
  70
    32
  0
VERTEX
  8
┌▓È_1
  5
80D
 10
58.1122
 20
-36.3370
 30
0.000000
  70
    32
  0
VERTEX
  8
┌▓È_1
  5
80E
 10
58.0633
 20
-36.3422
 30
0.000000
  70
    32
  0
VERTEX
  8
┌▓È_1
  5
80F
 10
58.0146
 20
-36.3490
 30
0.000000
  70
    32
  0
VERTEX
  8
┌▓È_1
  5
810
 10
57.9659
 20
-36.3573
 30
0.000000
  70
    32
  0
VERTEX
  8
┌▓È_1
  5
811
 10
57.9175
 20
-36.3670
 30
0.000000
  70
    32
  0
VERTEX
  8
┌▓È_1
  5
812
 10
57.8692
 20
-36.3782
 30
0.000000
  70
    32
  0
VERTEX
  8
┌▓È_1
  5
813
 10
57.8212
 20
-36.3910
 30
0.000000
  70
    32
  0
VERTEX
  8
┌▓È_1
  5
814
 10
57.7734
 20
-36.4051
 30
0.000000
  70
    32
  0
VERTEX
  8
┌▓È_1
  5
815
 10
57.7259
 20
-36.4208
 30
0.000000
  70
    32
  0
VERTEX
  8
┌▓È_1
  5
816
 10
57.6788
 20
-36.4379
 30
0.000000
  70
    32
  0
VERTEX
  8
┌▓È_1
  5
817
 10
57.6320
 20
-36.4564
 30
0.000000
  70
    32
  0
VERTEX
  8
┌▓È_1
  5
818
 10
57.5856
 20
-36.4763
 30
0.000000
  70
    32
  0
VERTEX
  8
┌▓È_1
  5
819
 10
57.5396
 20
-36.4977
 30
0.000000
  70
    32
  0
VERTEX
  8
┌▓È_1
  5
81A
 10
57.4940
 20
-36.5205
 30
0.000000
  70
    32
  0
VERTEX
  8
┌▓È_1
  5
81B
 10
57.4489
 20
-36.5447
 30
0.000000
  70
    32
  0
VERTEX
  8
┌▓È_1
  5
81C
 10
57.4043
 20
-36.5702
 30
0.000000
  70
    32
  0
VERTEX
  8
┌▓È_1
  5
81D
 10
57.3602
 20
-36.5971
 30
0.000000
  70
    32
  0
VERTEX
  8
┌▓È_1
  5
81E
 10
57.3166
 20
-36.6254
 30
0.000000
  70
    32
  0
VERTEX
  8
┌▓È_1
  5
81F
 10
57.2736
 20
-36.6550
 30
0.000000
  70
    32
  0
VERTEX
  8
┌▓È_1
  5
820
 10
57.2312
 20
-36.6859
 30
0.000000
  70
    32
  0
VERTEX
  8
┌▓È_1
  5
821
 10
57.1894
 20
-36.7181
 30
0.000000
  70
    32
  0
VERTEX
  8
┌▓È_1
  5
822
 10
57.1482
 20
-36.7515
 30
0.000000
  70
    32
  0
VERTEX
  8
┌▓È_1
  5
823
 10
57.1078
 20
-36.7862
 30
0.000000
  70
    32
  0
VERTEX
  8
┌▓È_1
  5
824
 10
57.0680
 20
-36.8222
 30
0.000000
  70
    32
  0
VERTEX
  8
┌▓È_1
  5
825
 10
57.0289
 20
-36.8593
 30
0.000000
  70
    32
  0
VERTEX
  8
┌▓È_1
  5
826
 10
56.9906
 20
-36.8977
 30
0.000000
  70
    32
  0
VERTEX
  8
┌▓È_1
  5
827
 10
56.9530
 20
-36.9372
 30
0.000000
  70
    32
  0
VERTEX
  8
┌▓È_1
  5
828
 10
56.9163
 20
-36.9778
 30
0.000000
  70
    32
  0
VERTEX
  8
┌▓È_1
  5
829
 10
56.8803
 20
-37.0196
 30
0.000000
  70
    32
  0
VERTEX
  8
┌▓È_1
  5
82A
 10
56.8452
 20
-37.0624
 30
0.000000
  70
    32
  0
VERTEX
  8
┌▓È_1
  5
82B
 10
56.8109
 20
-37.1064
 30
0.000000
  70
    32
  0
VERTEX
  8
┌▓È_1
  5
82C
 10
56.7775
 20
-37.1513
 30
0.000000
  70
    32
  0
VERTEX
  8
┌▓È_1
  5
82D
 10
56.7450
 20
-37.1973
 30
0.000000
  70
    32
  0
VERTEX
  8
┌▓È_1
  5
82E
 10
56.7134
 20
-37.2442
 30
0.000000
  70
    32
  0
VERTEX
  8
┌▓È_1
  5
82F
 10
56.6827
 20
-37.2921
 30
0.000000
  70
    32
  0
VERTEX
  8
┌▓È_1
  5
830
 10
56.6530
 20
-37.3410
 30
0.000000
  70
    32
  0
VERTEX
  8
┌▓È_1
  5
831
 10
56.6242
 20
-37.3907
 30
0.000000
  70
    32
  0
VERTEX
  8
┌▓È_1
  5
832
 10
56.5964
 20
-37.4413
 30
0.000000
  70
    32
  0
VERTEX
  8
┌▓È_1
  5
833
 10
56.5697
 20
-37.4927
 30
0.000000
  70
    32
  0
VERTEX
  8
┌▓È_1
  5
834
 10
56.5439
 20
-37.5450
 30
0.000000
  70
    32
  0
VERTEX
  8
┌▓È_1
  5
835
 10
56.5192
 20
-37.5980
 30
0.000000
  70
    32
  0
VERTEX
  8
┌▓È_1
  5
836
 10
56.4955
 20
-37.6517
 30
0.000000
  70
    32
  0
VERTEX
  8
┌▓È_1
  5
837
 10
56.4729
 20
-37.7062
 30
0.000000
  70
    32
  0
VERTEX
  8
┌▓È_1
  5
838
 10
56.4514
 20
-37.7613
 30
0.000000
  70
    32
  0
VERTEX
  8
┌▓È_1
  5
839
 10
56.4310
 20
-37.8171
 30
0.000000
  70
    32
  0
VERTEX
  8
┌▓È_1
  5
83A
 10
56.4116
 20
-37.8735
 30
0.000000
  70
    32
  0
VERTEX
  8
┌▓È_1
  5
83B
 10
56.3934
 20
-37.9305
 30
0.000000
  70
    32
  0
VERTEX
  8
┌▓È_1
  5
83C
 10
56.3763
 20
-37.9880
 30
0.000000
  70
    32
  0
VERTEX
  8
┌▓È_1
  5
83D
 10
56.3603
 20
-38.0460
 30
0.000000
  70
    32
  0
VERTEX
  8
┌▓È_1
  5
83E
 10
56.3455
 20
-38.1045
 30
0.000000
  70
    32
  0
VERTEX
  8
┌▓È_1
  5
83F
 10
56.3318
 20
-38.1634
 30
0.000000
  70
    32
  0
VERTEX
  8
┌▓È_1
  5
840
 10
56.3193
 20
-38.2228
 30
0.000000
  70
    32
  0
VERTEX
  8
┌▓È_1
  5
841
 10
56.3080
 20
-38.2825
 30
0.000000
  70
    32
  0
VERTEX
  8
┌▓È_1
  5
842
 10
56.2978
 20
-38.3425
 30
0.000000
  70
    32
  0
VERTEX
  8
┌▓È_1
  5
843
 10
56.2888
 20
-38.4028
 30
0.000000
  70
    32
  0
VERTEX
  8
┌▓È_1
  5
844
 10
56.2810
 20
-38.4634
 30
0.000000
  70
    32
  0
VERTEX
  8
┌▓È_1
  5
845
 10
56.2744
 20
-38.5242
 30
0.000000
  70
    32
  0
VERTEX
  8
┌▓È_1
  5
846
 10
56.2690
 20
-38.5852
 30
0.000000
  70
    32
  0
VERTEX
  8
┌▓È_1
  5
847
 10
56.2648
 20
-38.6463
 30
0.000000
  70
    32
  0
VERTEX
  8
┌▓È_1
  5
848
 10
56.2618
 20
-38.7075
 30
0.000000
  70
    32
  0
VERTEX
  8
┌▓È_1
  5
849
 10
56.2600
 20
-38.7689
 30
0.000000
  70
    32
  0
VERTEX
  8
┌▓È_1
  5
84A
 10
56.2594
 20
-38.8302
 30
0.000000
  70
    32
  0
VERTEX
  8
┌▓È_1
  5
84B
 10
56.2600
 20
-38.8916
 30
0.000000
  70
    32
  0
VERTEX
  8
┌▓È_1
  5
84C
 10
56.2618
 20
-38.9529
 30
0.000000
  70
    32
  0
VERTEX
  8
┌▓È_1
  5
84D
 10
56.2648
 20
-39.0141
 30
0.000000
  70
    32
  0
VERTEX
  8
┌▓È_1
  5
84E
 10
56.2690
 20
-39.0753
 30
0.000000
  70
    32
  0
VERTEX
  8
┌▓È_1
  5
84F
 10
56.2744
 20
-39.1362
 30
0.000000
  70
    32
  0
VERTEX
  8
┌▓È_1
  5
850
 10
56.2810
 20
-39.1970
 30
0.000000
  70
    32
  0
VERTEX
  8
┌▓È_1
  5
851
 10
56.2888
 20
-39.2576
 30
0.000000
  70
    32
  0
VERTEX
  8
┌▓È_1
  5
852
 10
56.2978
 20
-39.3179
 30
0.000000
  70
    32
  0
VERTEX
  8
┌▓È_1
  5
853
 10
56.3080
 20
-39.3780
 30
0.000000
  70
    32
  0
VERTEX
  8
┌▓È_1
  5
854
 10
56.3193
 20
-39.4377
 30
0.000000
  70
    32
  0
VERTEX
  8
┌▓È_1
  5
855
 10
56.3318
 20
-39.4970
 30
0.000000
  70
    32
  0
VERTEX
  8
┌▓È_1
  5
856
 10
56.3455
 20
-39.5559
 30
0.000000
  70
    32
  0
VERTEX
  8
┌▓È_1
  5
857
 10
56.3603
 20
-39.6144
 30
0.000000
  70
    32
  0
VERTEX
  8
┌▓È_1
  5
858
 10
56.3763
 20
-39.6724
 30
0.000000
  70
    32
  0
VERTEX
  8
┌▓È_1
  5
859
 10
56.3934
 20
-39.7299
 30
0.000000
  70
    32
  0
VERTEX
  8
┌▓È_1
  5
85A
 10
56.4116
 20
-39.7869
 30
0.000000
  70
    32
  0
VERTEX
  8
┌▓È_1
  5
85B
 10
56.4310
 20
-39.8433
 30
0.000000
  70
    32
  0
VERTEX
  8
┌▓È_1
  5
85C
 10
56.4514
 20
-39.8991
 30
0.000000
  70
    32
  0
VERTEX
  8
┌▓È_1
  5
85D
 10
56.4729
 20
-39.9542
 30
0.000000
  70
    32
  0
VERTEX
  8
┌▓È_1
  5
85E
 10
56.4955
 20
-40.0087
 30
0.000000
  70
    32
  0
VERTEX
  8
┌▓È_1
  5
85F
 10
56.5192
 20
-40.0625
 30
0.000000
  70
    32
  0
VERTEX
  8
┌▓È_1
  5
860
 10
56.5439
 20
-40.1155
 30
0.000000
  70
    32
  0
VERTEX
  8
┌▓È_1
  5
861
 10
56.5697
 20
-40.1677
 30
0.000000
  70
    32
  0
VERTEX
  8
┌▓È_1
  5
862
 10
56.5964
 20
-40.2191
 30
0.000000
  70
    32
  0
VERTEX
  8
┌▓È_1
  5
863
 10
56.6242
 20
-40.2697
 30
0.000000
  70
    32
  0
VERTEX
  8
┌▓È_1
  5
864
 10
56.6530
 20
-40.3195
 30
0.000000
  70
    32
  0
VERTEX
  8
┌▓È_1
  5
865
 10
56.6827
 20
-40.3683
 30
0.000000
  70
    32
  0
VERTEX
  8
┌▓È_1
  5
866
 10
56.7134
 20
-40.4162
 30
0.000000
  70
    32
  0
VERTEX
  8
┌▓È_1
  5
867
 10
56.7450
 20
-40.4631
 30
0.000000
  70
    32
  0
VERTEX
  8
┌▓È_1
  5
868
 10
56.7775
 20
-40.5091
 30
0.000000
  70
    32
  0
VERTEX
  8
┌▓È_1
  5
869
 10
56.8109
 20
-40.5541
 30
0.000000
  70
    32
  0
VERTEX
  8
┌▓È_1
  5
86A
 10
56.8452
 20
-40.5980
 30
0.000000
  70
    32
  0
VERTEX
  8
┌▓È_1
  5
86B
 10
56.8803
 20
-40.6408
 30
0.000000
  70
    32
  0
VERTEX
  8
┌▓È_1
  5
86C
 10
56.9163
 20
-40.6826
 30
0.000000
  70
    32
  0
VERTEX
  8
┌▓È_1
  5
86D
 10
56.9530
 20
-40.7232
 30
0.000000
  70
    32
  0
VERTEX
  8
┌▓È_1
  5
86E
 10
56.9906
 20
-40.7627
 30
0.000000
  70
    32
  0
VERTEX
  8
┌▓È_1
  5
86F
 10
57.0289
 20
-40.8011
 30
0.000000
  70
    32
  0
VERTEX
  8
┌▓È_1
  5
870
 10
57.0680
 20
-40.8382
 30
0.000000
  70
    32
  0
VERTEX
  8
┌▓È_1
  5
871
 10
57.1078
 20
-40.8742
 30
0.000000
  70
    32
  0
VERTEX
  8
┌▓È_1
  5
872
 10
57.1482
 20
-40.9089
 30
0.000000
  70
    32
  0
VERTEX
  8
┌▓È_1
  5
873
 10
57.1894
 20
-40.9423
 30
0.000000
  70
    32
  0
VERTEX
  8
┌▓È_1
  5
874
 10
57.2312
 20
-40.9745
 30
0.000000
  70
    32
  0
VERTEX
  8
┌▓È_1
  5
875
 10
57.2736
 20
-41.0054
 30
0.000000
  70
    32
  0
VERTEX
  8
┌▓È_1
  5
876
 10
57.3166
 20
-41.0350
 30
0.000000
  70
    32
  0
VERTEX
  8
┌▓È_1
  5
877
 10
57.3602
 20
-41.0633
 30
0.000000
  70
    32
  0
VERTEX
  8
┌▓È_1
  5
878
 10
57.4043
 20
-41.0902
 30
0.000000
  70
    32
  0
VERTEX
  8
┌▓È_1
  5
879
 10
57.4489
 20
-41.1157
 30
0.000000
  70
    32
  0
VERTEX
  8
┌▓È_1
  5
87A
 10
57.4940
 20
-41.1399
 30
0.000000
  70
    32
  0
VERTEX
  8
┌▓È_1
  5
87B
 10
57.5396
 20
-41.1627
 30
0.000000
  70
    32
  0
VERTEX
  8
┌▓È_1
  5
87C
 10
57.5856
 20
-41.1841
 30
0.000000
  70
    32
  0
VERTEX
  8
┌▓È_1
  5
87D
 10
57.6320
 20
-41.2040
 30
0.000000
  70
    32
  0
VERTEX
  8
┌▓È_1
  5
87E
 10
57.6788
 20
-41.2226
 30
0.000000
  70
    32
  0
VERTEX
  8
┌▓È_1
  5
87F
 10
57.7259
 20
-41.2396
 30
0.000000
  70
    32
  0
VERTEX
  8
┌▓È_1
  5
880
 10
57.7734
 20
-41.2553
 30
0.000000
  70
    32
  0
VERTEX
  8
┌▓È_1
  5
881
 10
57.8212
 20
-41.2695
 30
0.000000
  70
    32
  0
VERTEX
  8
┌▓È_1
  5
882
 10
57.8692
 20
-41.2822
 30
0.000000
  70
    32
  0
VERTEX
  8
┌▓È_1
  5
883
 10
57.9175
 20
-41.2934
 30
0.000000
  70
    32
  0
VERTEX
  8
┌▓È_1
  5
884
 10
57.9659
 20
-41.3032
 30
0.000000
  70
    32
  0
VERTEX
  8
┌▓È_1
  5
885
 10
58.0146
 20
-41.3114
 30
0.000000
  70
    32
  0
VERTEX
  8
┌▓È_1
  5
886
 10
58.0633
 20
-41.3182
 30
0.000000
  70
    32
  0
VERTEX
  8
┌▓È_1
  5
887
 10
58.1122
 20
-41.3234
 30
0.000000
  70
    32
  0
VERTEX
  8
┌▓È_1
  5
888
 10
58.1612
 20
-41.3272
 30
0.000000
  70
    32
  0
VERTEX
  8
┌▓È_1
  5
889
 10
58.2103
 20
-41.3295
 30
0.000000
  70
    32
  0
VERTEX
  8
┌▓È_1
  5
88A
 10
58.2594
 20
-41.3302
 30
0.000000
  70
    32
  0
SEQEND
  8
┌▓È_1
  5
88B
  0
POLYLINE
  5
24C
  8
┌▓È_1
 62
     5
 10
49.809374999999996
 20
-41.33020887659999
 30
0.0
 66
     1
 70
     8
  0
VERTEX
  8
┌▓È_1
  5
88C
 10
49.8094
 20
-41.3302
 30
0.000000
  70
    32
  0
VERTEX
  8
┌▓È_1
  5
88D
 10
49.8585
 20
-41.3310
 30
0.000000
  70
    32
  0
VERTEX
  8
┌▓È_1
  5
88E
 10
49.9075
 20
-41.3332
 30
0.000000
  70
    32
  0
VERTEX
  8
┌▓È_1
  5
88F
 10
49.9565
 20
-41.3370
 30
0.000000
  70
    32
  0
VERTEX
  8
┌▓È_1
  5
890
 10
50.0054
 20
-41.3422
 30
0.000000
  70
    32
  0
VERTEX
  8
┌▓È_1
  5
891
 10
50.0542
 20
-41.3490
 30
0.000000
  70
    32
  0
VERTEX
  8
┌▓È_1
  5
892
 10
50.1028
 20
-41.3573
 30
0.000000
  70
    32
  0
VERTEX
  8
┌▓È_1
  5
893
 10
50.1513
 20
-41.3670
 30
0.000000
  70
    32
  0
VERTEX
  8
┌▓È_1
  5
894
 10
50.1996
 20
-41.3782
 30
0.000000
  70
    32
  0
VERTEX
  8
┌▓È_1
  5
895
 10
50.2476
 20
-41.3910
 30
0.000000
  70
    32
  0
VERTEX
  8
┌▓È_1
  5
896
 10
50.2953
 20
-41.4051
 30
0.000000
  70
    32
  0
VERTEX
  8
┌▓È_1
  5
897
 10
50.3428
 20
-41.4208
 30
0.000000
  70
    32
  0
VERTEX
  8
┌▓È_1
  5
898
 10
50.3899
 20
-41.4379
 30
0.000000
  70
    32
  0
VERTEX
  8
┌▓È_1
  5
899
 10
50.4367
 20
-41.4564
 30
0.000000
  70
    32
  0
VERTEX
  8
┌▓È_1
  5
89A
 10
50.4832
 20
-41.4763
 30
0.000000
  70
    32
  0
VERTEX
  8
┌▓È_1
  5
89B
 10
50.5292
 20
-41.4977
 30
0.000000
  70
    32
  0
VERTEX
  8
┌▓È_1
  5
89C
 10
50.5747
 20
-41.5205
 30
0.000000
  70
    32
  0
VERTEX
  8
┌▓È_1
  5
89D
 10
50.6199
 20
-41.5447
 30
0.000000
  70
    32
  0
VERTEX
  8
┌▓È_1
  5
89E
 10
50.6645
 20
-41.5702
 30
0.000000
  70
    32
  0
VERTEX
  8
┌▓È_1
  5
89F
 10
50.7086
 20
-41.5971
 30
0.000000
  70
    32
  0
VERTEX
  8
┌▓È_1
  5
8A0
 10
50.7522
 20
-41.6254
 30
0.000000
  70
    32
  0
VERTEX
  8
┌▓È_1
  5
8A1
 10
50.7952
 20
-41.6550
 30
0.000000
  70
    32
  0
VERTEX
  8
┌▓È_1
  5
8A2
 10
50.8376
 20
-41.6859
 30
0.000000
  70
    32
  0
VERTEX
  8
┌▓È_1
  5
8A3
 10
50.8794
 20
-41.7181
 30
0.000000
  70
    32
  0
VERTEX
  8
┌▓È_1
  5
8A4
 10
50.9205
 20
-41.7515
 30
0.000000
  70
    32
  0
VERTEX
  8
┌▓È_1
  5
8A5
 10
50.9610
 20
-41.7862
 30
0.000000
  70
    32
  0
VERTEX
  8
┌▓È_1
  5
8A6
 10
51.0008
 20
-41.8222
 30
0.000000
  70
    32
  0
VERTEX
  8
┌▓È_1
  5
8A7
 10
51.0398
 20
-41.8593
 30
0.000000
  70
    32
  0
VERTEX
  8
┌▓È_1
  5
8A8
 10
51.0782
 20
-41.8977
 30
0.000000
  70
    32
  0
VERTEX
  8
┌▓È_1
  5
8A9
 10
51.1157
 20
-41.9372
 30
0.000000
  70
    32
  0
VERTEX
  8
┌▓È_1
  5
8AA
 10
51.1525
 20
-41.9778
 30
0.000000
  70
    32
  0
VERTEX
  8
┌▓È_1
  5
8AB
 10
51.1885
 20
-42.0196
 30
0.000000
  70
    32
  0
VERTEX
  8
┌▓È_1
  5
8AC
 10
51.2236
 20
-42.0624
 30
0.000000
  70
    32
  0
VERTEX
  8
┌▓È_1
  5
8AD
 10
51.2579
 20
-42.1064
 30
0.000000
  70
    32
  0
VERTEX
  8
┌▓È_1
  5
8AE
 10
51.2913
 20
-42.1513
 30
0.000000
  70
    32
  0
VERTEX
  8
┌▓È_1
  5
8AF
 10
51.3238
 20
-42.1973
 30
0.000000
  70
    32
  0
VERTEX
  8
┌▓È_1
  5
8B0
 10
51.3554
 20
-42.2442
 30
0.000000
  70
    32
  0
VERTEX
  8
┌▓È_1
  5
8B1
 10
51.3861
 20
-42.2921
 30
0.000000
  70
    32
  0
VERTEX
  8
┌▓È_1
  5
8B2
 10
51.4158
 20
-42.3410
 30
0.000000
  70
    32
  0
VERTEX
  8
┌▓È_1
  5
8B3
 10
51.4445
 20
-42.3907
 30
0.000000
  70
    32
  0
VERTEX
  8
┌▓È_1
  5
8B4
 10
51.4723
 20
-42.4413
 30
0.000000
  70
    32
  0
VERTEX
  8
┌▓È_1
  5
8B5
 10
51.4991
 20
-42.4927
 30
0.000000
  70
    32
  0
VERTEX
  8
┌▓È_1
  5
8B6
 10
51.5248
 20
-42.5450
 30
0.000000
  70
    32
  0
VERTEX
  8
┌▓È_1
  5
8B7
 10
51.5495
 20
-42.5980
 30
0.000000
  70
    32
  0
VERTEX
  8
┌▓È_1
  5
8B8
 10
51.5732
 20
-42.6517
 30
0.000000
  70
    32
  0
VERTEX
  8
┌▓È_1
  5
8B9
 10
51.5958
 20
-42.7062
 30
0.000000
  70
    32
  0
VERTEX
  8
┌▓È_1
  5
8BA
 10
51.6174
 20
-42.7613
 30
0.000000
  70
    32
  0
VERTEX
  8
┌▓È_1
  5
8BB
 10
51.6378
 20
-42.8171
 30
0.000000
  70
    32
  0
VERTEX
  8
┌▓È_1
  5
8BC
 10
51.6571
 20
-42.8735
 30
0.000000
  70
    32
  0
VERTEX
  8
┌▓È_1
  5
8BD
 10
51.6754
 20
-42.9305
 30
0.000000
  70
    32
  0
VERTEX
  8
┌▓È_1
  5
8BE
 10
51.6925
 20
-42.9880
 30
0.000000
  70
    32
  0
VERTEX
  8
┌▓È_1
  5
8BF
 10
51.7084
 20
-43.0460
 30
0.000000
  70
    32
  0
VERTEX
  8
┌▓È_1
  5
8C0
 10
51.7233
 20
-43.1045
 30
0.000000
  70
    32
  0
VERTEX
  8
┌▓È_1
  5
8C1
 10
51.7369
 20
-43.1634
 30
0.000000
  70
    32
  0
VERTEX
  8
┌▓È_1
  5
8C2
 10
51.7494
 20
-43.2228
 30
0.000000
  70
    32
  0
VERTEX
  8
┌▓È_1
  5
8C3
 10
51.7608
 20
-43.2825
 30
0.000000
  70
    32
  0
VERTEX
  8
┌▓È_1
  5
8C4
 10
51.7709
 20
-43.3425
 30
0.000000
  70
    32
  0
VERTEX
  8
┌▓È_1
  5
8C5
 10
51.7799
 20
-43.4028
 30
0.000000
  70
    32
  0
VERTEX
  8
┌▓È_1
  5
8C6
 10
51.7877
 20
-43.4634
 30
0.000000
  70
    32
  0
VERTEX
  8
┌▓È_1
  5
8C7
 10
51.7943
 20
-43.5242
 30
0.000000
  70
    32
  0
VERTEX
  8
┌▓È_1
  5
8C8
 10
51.7997
 20
-43.5852
 30
0.000000
  70
    32
  0
VERTEX
  8
┌▓È_1
  5
8C9
 10
51.8040
 20
-43.6463
 30
0.000000
  70
    32
  0
VERTEX
  8
┌▓È_1
  5
8CA
 10
51.8070
 20
-43.7075
 30
0.000000
  70
    32
  0
VERTEX
  8
┌▓È_1
  5
8CB
 10
51.8088
 20
-43.7689
 30
0.000000
  70
    32
  0
VERTEX
  8
┌▓È_1
  5
8CC
 10
51.8094
 20
-43.8302
 30
0.000000
  70
    32
  0
VERTEX
  8
┌▓È_1
  5
8CD
 10
51.8088
 20
-43.8916
 30
0.000000
  70
    32
  0
VERTEX
  8
┌▓È_1
  5
8CE
 10
51.8070
 20
-43.9529
 30
0.000000
  70
    32
  0
VERTEX
  8
┌▓È_1
  5
8CF
 10
51.8040
 20
-44.0141
 30
0.000000
  70
    32
  0
VERTEX
  8
┌▓È_1
  5
8D0
 10
51.7997
 20
-44.0753
 30
0.000000
  70
    32
  0
VERTEX
  8
┌▓È_1
  5
8D1
 10
51.7943
 20
-44.1362
 30
0.000000
  70
    32
  0
VERTEX
  8
┌▓È_1
  5
8D2
 10
51.7877
 20
-44.1970
 30
0.000000
  70
    32
  0
VERTEX
  8
┌▓È_1
  5
8D3
 10
51.7799
 20
-44.2576
 30
0.000000
  70
    32
  0
VERTEX
  8
┌▓È_1
  5
8D4
 10
51.7709
 20
-44.3179
 30
0.000000
  70
    32
  0
VERTEX
  8
┌▓È_1
  5
8D5
 10
51.7608
 20
-44.3780
 30
0.000000
  70
    32
  0
VERTEX
  8
┌▓È_1
  5
8D6
 10
51.7494
 20
-44.4377
 30
0.000000
  70
    32
  0
VERTEX
  8
┌▓È_1
  5
8D7
 10
51.7369
 20
-44.4970
 30
0.000000
  70
    32
  0
VERTEX
  8
┌▓È_1
  5
8D8
 10
51.7233
 20
-44.5559
 30
0.000000
  70
    32
  0
VERTEX
  8
┌▓È_1
  5
8D9
 10
51.7084
 20
-44.6144
 30
0.000000
  70
    32
  0
VERTEX
  8
┌▓È_1
  5
8DA
 10
51.6925
 20
-44.6724
 30
0.000000
  70
    32
  0
VERTEX
  8
┌▓È_1
  5
8DB
 10
51.6754
 20
-44.7299
 30
0.000000
  70
    32
  0
VERTEX
  8
┌▓È_1
  5
8DC
 10
51.6571
 20
-44.7869
 30
0.000000
  70
    32
  0
VERTEX
  8
┌▓È_1
  5
8DD
 10
51.6378
 20
-44.8433
 30
0.000000
  70
    32
  0
VERTEX
  8
┌▓È_1
  5
8DE
 10
51.6174
 20
-44.8991
 30
0.000000
  70
    32
  0
VERTEX
  8
┌▓È_1
  5
8DF
 10
51.5958
 20
-44.9542
 30
0.000000
  70
    32
  0
VERTEX
  8
┌▓È_1
  5
8E0
 10
51.5732
 20
-45.0087
 30
0.000000
  70
    32
  0
VERTEX
  8
┌▓È_1
  5
8E1
 10
51.5495
 20
-45.0625
 30
0.000000
  70
    32
  0
VERTEX
  8
┌▓È_1
  5
8E2
 10
51.5248
 20
-45.1155
 30
0.000000
  70
    32
  0
VERTEX
  8
┌▓È_1
  5
8E3
 10
51.4991
 20
-45.1677
 30
0.000000
  70
    32
  0
VERTEX
  8
┌▓È_1
  5
8E4
 10
51.4723
 20
-45.2191
 30
0.000000
  70
    32
  0
VERTEX
  8
┌▓È_1
  5
8E5
 10
51.4445
 20
-45.2697
 30
0.000000
  70
    32
  0
VERTEX
  8
┌▓È_1
  5
8E6
 10
51.4158
 20
-45.3195
 30
0.000000
  70
    32
  0
VERTEX
  8
┌▓È_1
  5
8E7
 10
51.3861
 20
-45.3683
 30
0.000000
  70
    32
  0
VERTEX
  8
┌▓È_1
  5
8E8
 10
51.3554
 20
-45.4162
 30
0.000000
  70
    32
  0
VERTEX
  8
┌▓È_1
  5
8E9
 10
51.3238
 20
-45.4631
 30
0.000000
  70
    32
  0
VERTEX
  8
┌▓È_1
  5
8EA
 10
51.2913
 20
-45.5091
 30
0.000000
  70
    32
  0
VERTEX
  8
┌▓È_1
  5
8EB
 10
51.2579
 20
-45.5541
 30
0.000000
  70
    32
  0
VERTEX
  8
┌▓È_1
  5
8EC
 10
51.2236
 20
-45.5980
 30
0.000000
  70
    32
  0
VERTEX
  8
┌▓È_1
  5
8ED
 10
51.1885
 20
-45.6408
 30
0.000000
  70
    32
  0
VERTEX
  8
┌▓È_1
  5
8EE
 10
51.1525
 20
-45.6826
 30
0.000000
  70
    32
  0
VERTEX
  8
┌▓È_1
  5
8EF
 10
51.1157
 20
-45.7232
 30
0.000000
  70
    32
  0
VERTEX
  8
┌▓È_1
  5
8F0
 10
51.0782
 20
-45.7627
 30
0.000000
  70
    32
  0
VERTEX
  8
┌▓È_1
  5
8F1
 10
51.0398
 20
-45.8011
 30
0.000000
  70
    32
  0
VERTEX
  8
┌▓È_1
  5
8F2
 10
51.0008
 20
-45.8382
 30
0.000000
  70
    32
  0
VERTEX
  8
┌▓È_1
  5
8F3
 10
50.9610
 20
-45.8742
 30
0.000000
  70
    32
  0
VERTEX
  8
┌▓È_1
  5
8F4
 10
50.9205
 20
-45.9089
 30
0.000000
  70
    32
  0
VERTEX
  8
┌▓È_1
  5
8F5
 10
50.8794
 20
-45.9423
 30
0.000000
  70
    32
  0
VERTEX
  8
┌▓È_1
  5
8F6
 10
50.8376
 20
-45.9745
 30
0.000000
  70
    32
  0
VERTEX
  8
┌▓È_1
  5
8F7
 10
50.7952
 20
-46.0054
 30
0.000000
  70
    32
  0
VERTEX
  8
┌▓È_1
  5
8F8
 10
50.7522
 20
-46.0350
 30
0.000000
  70
    32
  0
VERTEX
  8
┌▓È_1
  5
8F9
 10
50.7086
 20
-46.0633
 30
0.000000
  70
    32
  0
VERTEX
  8
┌▓È_1
  5
8FA
 10
50.6645
 20
-46.0902
 30
0.000000
  70
    32
  0
VERTEX
  8
┌▓È_1
  5
8FB
 10
50.6199
 20
-46.1157
 30
0.000000
  70
    32
  0
VERTEX
  8
┌▓È_1
  5
8FC
 10
50.5747
 20
-46.1399
 30
0.000000
  70
    32
  0
VERTEX
  8
┌▓È_1
  5
8FD
 10
50.5292
 20
-46.1627
 30
0.000000
  70
    32
  0
VERTEX
  8
┌▓È_1
  5
8FE
 10
50.4832
 20
-46.1841
 30
0.000000
  70
    32
  0
VERTEX
  8
┌▓È_1
  5
8FF
 10
50.4367
 20
-46.2040
 30
0.000000
  70
    32
  0
VERTEX
  8
┌▓È_1
  5
900
 10
50.3899
 20
-46.2226
 30
0.000000
  70
    32
  0
VERTEX
  8
┌▓È_1
  5
901
 10
50.3428
 20
-46.2396
 30
0.000000
  70
    32
  0
VERTEX
  8
┌▓È_1
  5
902
 10
50.2953
 20
-46.2553
 30
0.000000
  70
    32
  0
VERTEX
  8
┌▓È_1
  5
903
 10
50.2476
 20
-46.2695
 30
0.000000
  70
    32
  0
VERTEX
  8
┌▓È_1
  5
904
 10
50.1996
 20
-46.2822
 30
0.000000
  70
    32
  0
VERTEX
  8
┌▓È_1
  5
905
 10
50.1513
 20
-46.2934
 30
0.000000
  70
    32
  0
VERTEX
  8
┌▓È_1
  5
906
 10
50.1028
 20
-46.3032
 30
0.000000
  70
    32
  0
VERTEX
  8
┌▓È_1
  5
907
 10
50.0542
 20
-46.3114
 30
0.000000
  70
    32
  0
VERTEX
  8
┌▓È_1
  5
908
 10
50.0054
 20
-46.3182
 30
0.000000
  70
    32
  0
VERTEX
  8
┌▓È_1
  5
909
 10
49.9565
 20
-46.3234
 30
0.000000
  70
    32
  0
VERTEX
  8
┌▓È_1
  5
90A
 10
49.9075
 20
-46.3272
 30
0.000000
  70
    32
  0
VERTEX
  8
┌▓È_1
  5
90B
 10
49.8585
 20
-46.3295
 30
0.000000
  70
    32
  0
VERTEX
  8
┌▓È_1
  5
90C
 10
49.8094
 20
-46.3302
 30
0.000000
  70
    32
  0
SEQEND
  8
┌▓È_1
  5
90D
  0
POLYLINE
  5
24D
  8
┌▓È_1
 62
     5
 10
47.809375000000003
 20
-38.830208876599997
 30
0.0
 66
     1
 70
     8
  0
VERTEX
  8
┌▓È_1
  5
90E
 10
47.8094
 20
-38.8302
 30
0.000000
  70
    32
  0
VERTEX
  8
┌▓È_1
  5
90F
 10
47.8118
 20
-38.9529
 30
0.000000
  70
    32
  0
VERTEX
  8
┌▓È_1
  5
910
 10
47.8190
 20
-39.0753
 30
0.000000
  70
    32
  0
VERTEX
  8
┌▓È_1
  5
911
 10
47.8310
 20
-39.1970
 30
0.000000
  70
    32
  0
VERTEX
  8
┌▓È_1
  5
912
 10
47.8478
 20
-39.3179
 30
0.000000
  70
    32
  0
VERTEX
  8
┌▓È_1
  5
913
 10
47.8693
 20
-39.4377
 30
0.000000
  70
    32
  0
VERTEX
  8
┌▓È_1
  5
914
 10
47.8955
 20
-39.5559
 30
0.000000
  70
    32
  0
VERTEX
  8
┌▓È_1
  5
915
 10
47.9263
 20
-39.6724
 30
0.000000
  70
    32
  0
VERTEX
  8
┌▓È_1
  5
916
 10
47.9616
 20
-39.7869
 30
0.000000
  70
    32
  0
VERTEX
  8
┌▓È_1
  5
917
 10
48.0014
 20
-39.8991
 30
0.000000
  70
    32
  0
VERTEX
  8
┌▓È_1
  5
918
 10
48.0455
 20
-40.0087
 30
0.000000
  70
    32
  0
VERTEX
  8
┌▓È_1
  5
919
 10
48.0939
 20
-40.1155
 30
0.000000
  70
    32
  0
VERTEX
  8
┌▓È_1
  5
91A
 10
48.1464
 20
-40.2191
 30
0.000000
  70
    32
  0
VERTEX
  8
┌▓È_1
  5
91B
 10
48.2030
 20
-40.3195
 30
0.000000
  70
    32
  0
VERTEX
  8
┌▓È_1
  5
91C
 10
48.2634
 20
-40.4162
 30
0.000000
  70
    32
  0
VERTEX
  8
┌▓È_1
  5
91D
 10
48.3275
 20
-40.5091
 30
0.000000
  70
    32
  0
VERTEX
  8
┌▓È_1
  5
91E
 10
48.3952
 20
-40.5980
 30
0.000000
  70
    32
  0
VERTEX
  8
┌▓È_1
  5
91F
 10
48.4663
 20
-40.6826
 30
0.000000
  70
    32
  0
VERTEX
  8
┌▓È_1
  5
920
 10
48.5406
 20
-40.7627
 30
0.000000
  70
    32
  0
VERTEX
  8
┌▓È_1
  5
921
 10
48.6180
 20
-40.8382
 30
0.000000
  70
    32
  0
VERTEX
  8
┌▓È_1
  5
922
 10
48.6982
 20
-40.9089
 30
0.000000
  70
    32
  0
VERTEX
  8
┌▓È_1
  5
923
 10
48.7812
 20
-40.9745
 30
0.000000
  70
    32
  0
VERTEX
  8
┌▓È_1
  5
924
 10
48.8666
 20
-41.0350
 30
0.000000
  70
    32
  0
VERTEX
  8
┌▓È_1
  5
925
 10
48.9543
 20
-41.0902
 30
0.000000
  70
    32
  0
VERTEX
  8
┌▓È_1
  5
926
 10
49.0440
 20
-41.1399
 30
0.000000
  70
    32
  0
VERTEX
  8
┌▓È_1
  5
927
 10
49.1356
 20
-41.1841
 30
0.000000
  70
    32
  0
VERTEX
  8
┌▓È_1
  5
928
 10
49.2288
 20
-41.2226
 30
0.000000
  70
    32
  0
VERTEX
  8
┌▓È_1
  5
929
 10
49.3234
 20
-41.2553
 30
0.000000
  70
    32
  0
VERTEX
  8
┌▓È_1
  5
92A
 10
49.4192
 20
-41.2822
 30
0.000000
  70
    32
  0
VERTEX
  8
┌▓È_1
  5
92B
 10
49.5159
 20
-41.3032
 30
0.000000
  70
    32
  0
VERTEX
  8
┌▓È_1
  5
92C
 10
49.6133
 20
-41.3182
 30
0.000000
  70
    32
  0
VERTEX
  8
┌▓È_1
  5
92D
 10
49.7112
 20
-41.3272
 30
0.000000
  70
    32
  0
VERTEX
  8
┌▓È_1
  5
92E
 10
49.8094
 20
-41.3302
 30
0.000000
  70
    32
  0
VERTEX
  8
┌▓È_1
  5
92F
 10
49.9075
 20
-41.3272
 30
0.000000
  70
    32
  0
VERTEX
  8
┌▓È_1
  5
930
 10
50.0054
 20
-41.3182
 30
0.000000
  70
    32
  0
VERTEX
  8
┌▓È_1
  5
931
 10
50.1028
 20
-41.3032
 30
0.000000
  70
    32
  0
VERTEX
  8
┌▓È_1
  5
932
 10
50.1996
 20
-41.2822
 30
0.000000
  70
    32
  0
VERTEX
  8
┌▓È_1
  5
933
 10
50.2953
 20
-41.2553
 30
0.000000
  70
    32
  0
VERTEX
  8
┌▓È_1
  5
934
 10
50.3899
 20
-41.2226
 30
0.000000
  70
    32
  0
VERTEX
  8
┌▓È_1
  5
935
 10
50.4832
 20
-41.1841
 30
0.000000
  70
    32
  0
VERTEX
  8
┌▓È_1
  5
936
 10
50.5747
 20
-41.1399
 30
0.000000
  70
    32
  0
VERTEX
  8
┌▓È_1
  5
937
 10
50.6645
 20
-41.0902
 30
0.000000
  70
    32
  0
VERTEX
  8
┌▓È_1
  5
938
 10
50.7522
 20
-41.0350
 30
0.000000
  70
    32
  0
VERTEX
  8
┌▓È_1
  5
939
 10
50.8376
 20
-40.9745
 30
0.000000
  70
    32
  0
VERTEX
  8
┌▓È_1
  5
93A
 10
50.9205
 20
-40.9089
 30
0.000000
  70
    32
  0
VERTEX
  8
┌▓È_1
  5
93B
 10
51.0008
 20
-40.8382
 30
0.000000
  70
    32
  0
VERTEX
  8
┌▓È_1
  5
93C
 10
51.0782
 20
-40.7627
 30
0.000000
  70
    32
  0
VERTEX
  8
┌▓È_1
  5
93D
 10
51.1525
 20
-40.6826
 30
0.000000
  70
    32
  0
VERTEX
  8
┌▓È_1
  5
93E
 10
51.2236
 20
-40.5980
 30
0.000000
  70
    32
  0
VERTEX
  8
┌▓È_1
  5
93F
 10
51.2913
 20
-40.5091
 30
0.000000
  70
    32
  0
VERTEX
  8
┌▓È_1
  5
940
 10
51.3554
 20
-40.4162
 30
0.000000
  70
    32
  0
VERTEX
  8
┌▓È_1
  5
941
 10
51.4158
 20
-40.3195
 30
0.000000
  70
    32
  0
VERTEX
  8
┌▓È_1
  5
942
 10
51.4723
 20
-40.2191
 30
0.000000
  70
    32
  0
VERTEX
  8
┌▓È_1
  5
943
 10
51.5248
 20
-40.1155
 30
0.000000
  70
    32
  0
VERTEX
  8
┌▓È_1
  5
944
 10
51.5732
 20
-40.0087
 30
0.000000
  70
    32
  0
VERTEX
  8
┌▓È_1
  5
945
 10
51.6174
 20
-39.8991
 30
0.000000
  70
    32
  0
VERTEX
  8
┌▓È_1
  5
946
 10
51.6571
 20
-39.7869
 30
0.000000
  70
    32
  0
VERTEX
  8
┌▓È_1
  5
947
 10
51.6925
 20
-39.6724
 30
0.000000
  70
    32
  0
VERTEX
  8
┌▓È_1
  5
948
 10
51.7233
 20
-39.5559
 30
0.000000
  70
    32
  0
VERTEX
  8
┌▓È_1
  5
949
 10
51.7494
 20
-39.4377
 30
0.000000
  70
    32
  0
VERTEX
  8
┌▓È_1
  5
94A
 10
51.7709
 20
-39.3179
 30
0.000000
  70
    32
  0
VERTEX
  8
┌▓È_1
  5
94B
 10
51.7877
 20
-39.1970
 30
0.000000
  70
    32
  0
VERTEX
  8
┌▓È_1
  5
94C
 10
51.7997
 20
-39.0753
 30
0.000000
  70
    32
  0
VERTEX
  8
┌▓È_1
  5
94D
 10
51.8070
 20
-38.9529
 30
0.000000
  70
    32
  0
VERTEX
  8
┌▓È_1
  5
94E
 10
51.8094
 20
-38.8302
 30
0.000000
  70
    32
  0
VERTEX
  8
┌▓È_1
  5
94F
 10
51.8070
 20
-38.7075
 30
0.000000
  70
    32
  0
VERTEX
  8
┌▓È_1
  5
950
 10
51.7997
 20
-38.5852
 30
0.000000
  70
    32
  0
VERTEX
  8
┌▓È_1
  5
951
 10
51.7877
 20
-38.4634
 30
0.000000
  70
    32
  0
VERTEX
  8
┌▓È_1
  5
952
 10
51.7709
 20
-38.3425
 30
0.000000
  70
    32
  0
VERTEX
  8
┌▓È_1
  5
953
 10
51.7494
 20
-38.2228
 30
0.000000
  70
    32
  0
VERTEX
  8
┌▓È_1
  5
954
 10
51.7233
 20
-38.1045
 30
0.000000
  70
    32
  0
VERTEX
  8
┌▓È_1
  5
955
 10
51.6925
 20
-37.9880
 30
0.000000
  70
    32
  0
VERTEX
  8
┌▓È_1
  5
956
 10
51.6571
 20
-37.8735
 30
0.000000
  70
    32
  0
VERTEX
  8
┌▓È_1
  5
957
 10
51.6174
 20
-37.7613
 30
0.000000
  70
    32
  0
VERTEX
  8
┌▓È_1
  5
958
 10
51.5732
 20
-37.6517
 30
0.000000
  70
    32
  0
VERTEX
  8
┌▓È_1
  5
959
 10
51.5248
 20
-37.5450
 30
0.000000
  70
    32
  0
VERTEX
  8
┌▓È_1
  5
95A
 10
51.4723
 20
-37.4413
 30
0.000000
  70
    32
  0
VERTEX
  8
┌▓È_1
  5
95B
 10
51.4158
 20
-37.3410
 30
0.000000
  70
    32
  0
VERTEX
  8
┌▓È_1
  5
95C
 10
51.3554
 20
-37.2442
 30
0.000000
  70
    32
  0
VERTEX
  8
┌▓È_1
  5
95D
 10
51.2913
 20
-37.1513
 30
0.000000
  70
    32
  0
VERTEX
  8
┌▓È_1
  5
95E
 10
51.2236
 20
-37.0624
 30
0.000000
  70
    32
  0
VERTEX
  8
┌▓È_1
  5
95F
 10
51.1525
 20
-36.9778
 30
0.000000
  70
    32
  0
VERTEX
  8
┌▓È_1
  5
960
 10
51.0782
 20
-36.8977
 30
0.000000
  70
    32
  0
VERTEX
  8
┌▓È_1
  5
961
 10
51.0008
 20
-36.8222
 30
0.000000
  70
    32
  0
VERTEX
  8
┌▓È_1
  5
962
 10
50.9205
 20
-36.7515
 30
0.000000
  70
    32
  0
VERTEX
  8
┌▓È_1
  5
963
 10
50.8376
 20
-36.6859
 30
0.000000
  70
    32
  0
VERTEX
  8
┌▓È_1
  5
964
 10
50.7522
 20
-36.6254
 30
0.000000
  70
    32
  0
VERTEX
  8
┌▓È_1
  5
965
 10
50.6645
 20
-36.5702
 30
0.000000
  70
    32
  0
VERTEX
  8
┌▓È_1
  5
966
 10
50.5747
 20
-36.5205
 30
0.000000
  70
    32
  0
VERTEX
  8
┌▓È_1
  5
967
 10
50.4832
 20
-36.4763
 30
0.000000
  70
    32
  0
VERTEX
  8
┌▓È_1
  5
968
 10
50.3899
 20
-36.4379
 30
0.000000
  70
    32
  0
VERTEX
  8
┌▓È_1
  5
969
 10
50.2953
 20
-36.4051
 30
0.000000
  70
    32
  0
VERTEX
  8
┌▓È_1
  5
96A
 10
50.1996
 20
-36.3782
 30
0.000000
  70
    32
  0
VERTEX
  8
┌▓È_1
  5
96B
 10
50.1028
 20
-36.3573
 30
0.000000
  70
    32
  0
VERTEX
  8
┌▓È_1
  5
96C
 10
50.0054
 20
-36.3422
 30
0.000000
  70
    32
  0
VERTEX
  8
┌▓È_1
  5
96D
 10
49.9075
 20
-36.3332
 30
0.000000
  70
    32
  0
VERTEX
  8
┌▓È_1
  5
96E
 10
49.8094
 20
-36.3302
 30
0.000000
  70
    32
  0
VERTEX
  8
┌▓È_1
  5
96F
 10
49.7112
 20
-36.3332
 30
0.000000
  70
    32
  0
VERTEX
  8
┌▓È_1
  5
970
 10
49.6133
 20
-36.3422
 30
0.000000
  70
    32
  0
VERTEX
  8
┌▓È_1
  5
971
 10
49.5159
 20
-36.3573
 30
0.000000
  70
    32
  0
VERTEX
  8
┌▓È_1
  5
972
 10
49.4192
 20
-36.3782
 30
0.000000
  70
    32
  0
VERTEX
  8
┌▓È_1
  5
973
 10
49.3234
 20
-36.4051
 30
0.000000
  70
    32
  0
VERTEX
  8
┌▓È_1
  5
974
 10
49.2288
 20
-36.4379
 30
0.000000
  70
    32
  0
VERTEX
  8
┌▓È_1
  5
975
 10
49.1356
 20
-36.4763
 30
0.000000
  70
    32
  0
VERTEX
  8
┌▓È_1
  5
976
 10
49.0440
 20
-36.5205
 30
0.000000
  70
    32
  0
VERTEX
  8
┌▓È_1
  5
977
 10
48.9543
 20
-36.5702
 30
0.000000
  70
    32
  0
VERTEX
  8
┌▓È_1
  5
978
 10
48.8666
 20
-36.6254
 30
0.000000
  70
    32
  0
VERTEX
  8
┌▓È_1
  5
979
 10
48.7812
 20
-36.6859
 30
0.000000
  70
    32
  0
VERTEX
  8
┌▓È_1
  5
97A
 10
48.6982
 20
-36.7515
 30
0.000000
  70
    32
  0
VERTEX
  8
┌▓È_1
  5
97B
 10
48.6180
 20
-36.8222
 30
0.000000
  70
    32
  0
VERTEX
  8
┌▓È_1
  5
97C
 10
48.5406
 20
-36.8977
 30
0.000000
  70
    32
  0
VERTEX
  8
┌▓È_1
  5
97D
 10
48.4663
 20
-36.9778
 30
0.000000
  70
    32
  0
VERTEX
  8
┌▓È_1
  5
97E
 10
48.3952
 20
-37.0624
 30
0.000000
  70
    32
  0
VERTEX
  8
┌▓È_1
  5
97F
 10
48.3275
 20
-37.1513
 30
0.000000
  70
    32
  0
VERTEX
  8
┌▓È_1
  5
980
 10
48.2634
 20
-37.2442
 30
0.000000
  70
    32
  0
VERTEX
  8
┌▓È_1
  5
981
 10
48.2030
 20
-37.3410
 30
0.000000
  70
    32
  0
VERTEX
  8
┌▓È_1
  5
982
 10
48.1464
 20
-37.4413
 30
0.000000
  70
    32
  0
VERTEX
  8
┌▓È_1
  5
983
 10
48.0939
 20
-37.5450
 30
0.000000
  70
    32
  0
VERTEX
  8
┌▓È_1
  5
984
 10
48.0455
 20
-37.6517
 30
0.000000
  70
    32
  0
VERTEX
  8
┌▓È_1
  5
985
 10
48.0014
 20
-37.7613
 30
0.000000
  70
    32
  0
VERTEX
  8
┌▓È_1
  5
986
 10
47.9616
 20
-37.8735
 30
0.000000
  70
    32
  0
VERTEX
  8
┌▓È_1
  5
987
 10
47.9263
 20
-37.9880
 30
0.000000
  70
    32
  0
VERTEX
  8
┌▓È_1
  5
988
 10
47.8955
 20
-38.1045
 30
0.000000
  70
    32
  0
VERTEX
  8
┌▓È_1
  5
989
 10
47.8693
 20
-38.2228
 30
0.000000
  70
    32
  0
VERTEX
  8
┌▓È_1
  5
98A
 10
47.8478
 20
-38.3425
 30
0.000000
  70
    32
  0
VERTEX
  8
┌▓È_1
  5
98B
 10
47.8310
 20
-38.4634
 30
0.000000
  70
    32
  0
VERTEX
  8
┌▓È_1
  5
98C
 10
47.8190
 20
-38.5852
 30
0.000000
  70
    32
  0
VERTEX
  8
┌▓È_1
  5
98D
 10
47.8118
 20
-38.7075
 30
0.000000
  70
    32
  0
VERTEX
  8
┌▓È_1
  5
98E
 10
47.8094
 20
-38.8302
 30
0.000000
  70
    32
  0
SEQEND
  8
┌▓È_1
  5
98F
  0
LINE
  5
24E
  8
┌▓È_1
 62
     5
 10
-86.28483920459999
 20
-41.33020887659999
 30
0.0
 11
-97.784341692099986
 21
-41.33020887659999
 31
0.0
  0
ARC
  5
24F
  8
┌▓È_1
 62
     5
 10
-93.690624999999997
 20
-31.8302088766
 30
0.0
 40
1.5
 50
0.0
 51
90.0
  0
LINE
  5
250
  8
┌▓È_1
 62
     5
 10
349.80937499999999
 20
236.0660974402
 30
0.0
 11
499.30937499999987
 21
236.0660974402
 31
0.0
  0
LINE
  5
251
  8
┌▓È_1
 62
     5
 10
499.30937499999987
 20
266.0660974402
 30
0.0
 11
349.80937499999999
 21
266.0660974402
 31
0.0
  0
LINE
  5
252
  8
┌▓È_1
 62
     5
 10
349.80937499999999
 20
276.0660974402
 30
0.0
 11
499.30937499999987
 21
276.0660974402
 31
0.0
  0
LINE
  5
253
  8
┌▓È_1
 62
     5
 10
499.30937499999987
 20
-46.33020887659999
 30
0.0
 11
349.80937484190002
 21
-46.33020887659999
 31
0.0
  0
LINE
  5
254
  8
┌▓È_1
 62
     5
 10
349.80937499999999
 20
211.9058343211
 30
0.0
 11
354.78308743029999
 21
216.8795467514
 31
0.0
  0
LINE
  5
255
  8
┌▓È_1
 62
     5
 10
354.78308743029999
 20
216.8795467514
 30
0.0
 11
349.80937499999999
 21
216.8795467514
 31
0.0
  0
DIMENSION
  5
264
  8
Éíû@É³
  2
*D11
 10
504.80937499999987
 20
382.67517870849991
 30
0.0
 11
204.80937499999999
 21
382.67517870849991
 31
0.0
 70
   128
  1
300   1000/é╗é╠æ╝
 13
504.80937499999987
 23
322.0660974402
 33
0.0
 14
-95.190624999999997
 24
322.0660974402
 34
0.0
  0
LINE
  5
265
  8
┌▓È_1
 10
878.79960937500005
 20
518.69140625
 30
0.0
 11
-198.65625744050001
 21
518.69140625
 31
0.0
  0
LINE
  5
266
  8
┌▓È_1
 62
     5
 10
349.80937499999999
 20
316.0660974402
 30
0.0
 11
499.30937499999987
 21
316.0660974402
 31
0.0
  0
LINE
  5
267
  8
┌▓È_1
 62
     5
 10
200.05937499999999
 20
-46.33020887659999
 30
0.0
 11
58.259374809300013
 21
-46.33020887659999
 31
0.0
  0
LINE
  5
268
  8
┌▓È_1
 62
     5
 10
58.259374862599998
 20
-36.330208876599997
 30
0.0
 11
200.05937499999999
 21
-36.330208876599997
 31
0.0
  0
LINE
  5
269
  8
┌▓È_1
 62
     5
 10
200.2744947793
 20
146.0505208333
 30
0.0
 11
59.809375000000003
 21
146.0505208333
 31
0.0
  0
LINE
  5
26A
  8
┌▓È_1
 62
     5
 10
59.809375000000003
 20
156.0505208333
 30
0.0
 11
200.05937499999999
 21
156.0505208333
 31
0.0
  0
LINE
  5
26B
  8
┌▓È_1
 62
     5
 10
200.05937499999999
 20
186.0660974402
 30
0.0
 11
59.809375000000003
 21
186.0660974402
 31
0.0
  0
LINE
  5
26C
  8
┌▓È_1
 62
     5
 10
59.809375000000003
 20
196.0660974402
 30
0.0
 11
200.05937499999999
 21
196.0660974402
 31
0.0
  0
LINE
  5
26D
  8
┌▓È_1
 62
     5
 10
200.05937499999999
 20
226.0660974402
 30
0.0
 11
59.809375000000003
 21
226.0660974402
 31
0.0
  0
LINE
  5
26E
  8
┌▓È_1
 62
     5
 10
59.809375000000003
 20
236.0660974402
 30
0.0
 11
200.05937499999999
 21
236.0660974402
 31
0.0
  0
LINE
  5
26F
  8
┌▓È_1
 62
     5
 10
200.05937499999999
 20
266.0660974402
 30
0.0
 11
59.809375000000003
 21
266.0660974402
 31
0.0
  0
LINE
  5
270
  8
┌▓È_1
 62
     5
 10
59.809375000000003
 20
276.0660974402
 30
0.0
 11
200.05937499999999
 21
276.0660974402
 31
0.0
  0
INSERT
  5
271
  8
0
  6
CONTINUOUS
  2
*U36
 10
0.0
 20
0.0
 30
0.0
  0
INSERT
  5
272
  8
0
  6
CONTINUOUS
  2
*U37
 10
0.0
 20
0.0
 30
0.0
  0
INSERT
  5
273
  8
0
  6
CONTINUOUS
  2
*U38
 10
0.0
 20
0.0
 30
0.0
  0
INSERT
  5
274
  8
0
  6
CONTINUOUS
  2
*U39
 10
0.0
 20
0.0
 30
0.0
  0
INSERT
  5
275
  8
0
  6
CONTINUOUS
  2
*U40
 10
0.0
 20
0.0
 30
0.0
  0
INSERT
  5
276
  8
0
  6
CONTINUOUS
  2
*U41
 10
0.0
 20
0.0
 30
0.0
  0
LINE
  5
277
  8
┌▓È_1
 62
     5
 10
683.20468749999986
 20
211.0660974402
 30
0.0
 11
683.20468749999986
 21
326.691422961
 31
0.0
  0
LINE
  5
278
  8
┌▓È_1
 62
     5
 10
672.90468750000002
 20
211.0660974402
 30
0.0
 11
672.90468750000002
 21
311.0660974402
 31
0.0
  0
LINE
  5
279
  8
┌▓È_1
 62
     5
 10
672.20468749999998
 20
211.0660974402
 30
0.0
 11
672.20468749999998
 21
311.0660974402
 31
0.0
  0
ARC
  5
27A
  8
┌▓È_1
 62
     5
 10
683.24715892649999
 20
311.0660974402
 30
0.0
 40
10.300000000000001
 50
0.0
 51
180.0
  0
ARC
  5
27B
  8
┌▓È_1
 62
     5
 10
683.20468749999986
 20
311.0660974402
 30
0.0
 40
11.0
 50
0.0
 51
180.0
  0
LINE
  5
27C
  8
┌▓È_1
 62
     5
 10
691.30225151909997
 20
311.0660974402
 30
0.0
 11
675.1920663338999
 21
311.0660974402
 31
0.0
  0
LINE
  5
27D
  8
┌▓È_1
 62
     5
 10
497.44876562979999
 20
311.0660974402
 30
0.0
 11
506.84328617769989
 21
311.0660974402
 31
0.0
  0
LINE
  5
27E
  8
┌▓È_1
  6
BORDER
 62
     5
 10
213.42890625000001
 20
311.08602494500002
 30
0.0
 11
195.69355468750001
 21
311.08602494500002
 31
0.0
  0
LINE
  5
27F
  8
┌▓È_1
 62
     5
 10
-87.830015629800002
 20
311.0660974402
 30
0.0
 11
-97.224536177700003
 21
311.0660974402
 31
0.0
  0
LINE
  5
280
  8
┌▓È_1
 10
878.79960937500005
 20
-192.98123444820001
 30
0.0
 11
878.79960937500005
 21
518.69140625
 31
0.0
  0
LINE
  5
281
  8
┌▓È_1
 10
-198.65625744050001
 20
-258.98123444819998
 30
0.0
 11
-198.65625744050001
 21
518.69140625
 31
0.0
  0
LINE
  5
282
  8
┌▓È_1
 62
     5
 10
501.80937499999999
 20
304.44725065390003
 30
0.0
 11
501.80937499999999
 21
317.71609744019997
 31
0.0
  0
ARC
  5
283
  8
┌▓È_1
 62
     5
 10
501.00937499999998
 20
304.44725065390003
 30
0.0
 40
0.8
 50
0.0
 51
90.0
  0
LINE
  5
284
  8
┌▓È_1
 62
     5
 10
339.80937499999999
 20
306.0660974402
 30
0.0
 11
209.55937499999999
 21
306.0660974402
 31
0.0
  0
LINE
  5
285
  8
┌▓È_1
 62
     5
 10
499.30937499999987
 20
306.0660974402
 30
0.0
 11
349.80937499999999
 21
306.0660974402
 31
0.0
  0
LINE
  5
286
  8
┌▓È_1
 62
     5
 10
200.05937499999999
 20
306.0660974402
 30
0.0
 11
59.809375000000003
 21
306.0660974402
 31
0.0
  0
LINE
  5
287
  8
┌▓È_1
 62
     5
 10
-92.190624999999983
 20
304.44725065390003
 30
0.0
 11
-92.190624999999983
 21
277.71609744019997
 31
0.0
  0
LINE
  5
288
  8
┌▓È_1
 62
     5
 10
501.80937499999999
 20
304.44725065390003
 30
0.0
 11
501.80937499999999
 21
277.71609744019997
 31
0.0
  0
LINE
  5
289
  8
┌▓È_1
 10
578.79960937500005
 20
-258.98123444819998
 30
0.0
 11
-198.65625744050001
 21
-258.98123444819998
 31
0.0
  0
LINE
  5
28A
  8
┌▓È_1
 62
     5
 10
349.80937503910002
 20
-36.330208876599997
 30
0.0
 11
499.30937499999987
 21
-36.330208876599997
 31
0.0
  0
LINE
  5
28B
  8
┌▓È_1
 62
     5
 10
499.30937499999987
 20
226.0660974402
 30
0.0
 11
349.80937499999999
 21
226.0660974402
 31
0.0
  0
LINE
  5
28C
  8
┌▓È_1
 62
     5
 10
499.30937499999987
 20
146.0505208333
 30
0.0
 11
349.80937499999999
 21
146.0505208333
 31
0.0
  0
LINE
  5
28D
  8
┌▓È_1
 62
     5
 10
349.80937499999999
 20
156.0505208333
 30
0.0
 11
499.30937499999987
 21
156.0505208333
 31
0.0
  0
LINE
  5
28E
  8
┌▓È_1
 62
     5
 10
499.30937499999987
 20
186.0660974402
 30
0.0
 11
349.80937499999999
 21
186.0660974402
 31
0.0
  0
LINE
  5
28F
  8
┌▓È_1
 62
     5
 10
349.80937499999999
 20
196.0660974402
 30
0.0
 11
499.30937499999987
 21
196.0660974402
 31
0.0
  0
DIMENSION
  5
29D
  8
Éíû@É³
  2
*D12
 10
-127.7464535209
 20
311.0660974402
 30
0.0
 11
-127.7464535209
 21
291.0660974402
 31
0.0
 70
   128
  1
<>
 13
-97.224536177700003
 23
311.0660974402
 33
0.0
 14
-96.644627501900004
 24
271.0660974402
 34
0.0
 50
90.0
  0
DIMENSION
  5
2AC
  8
Éíû@É³
  2
*D13
 10
-146.7686012268
 20
322.0660974402
 30
0.0
 11
-146.7686012268
 21
231.05830913680001
 31
0.0
 70
   128
  1
<>
 13
-95.190624999999997
 23
322.0660974402
 33
0.0
 14
-95.190624999999997
 24
140.0505208333
 34
0.0
 50
90.0
  0
DIMENSION
  5
2BA
  8
Éíû@É³
  2
*D14
 10
646.05677060510004
 20
322.0660974402
 30
0.0
 11
646.05677060510004
 21
306.5660974402
 31
0.0
 70
   128
  1
<>
 13
683.20468749999986
 23
322.0660974402
 33
0.0
 14
677.23552350429998
 24
291.0660974402
 34
0.0
 50
90.0
  0
LINE
  5
2BB
  8
┌▓È_1
 62
     5
 10
49.809375000000003
 20
306.0660974402
 30
0.0
 11
-89.690624999999983
 21
306.0660974402
 31
0.0
  0
LINE
  5
2BC
  8
┌▓È_1
 62
     5
 10
-89.690624999999983
 20
305.24725065389998
 30
0.0
 11
-91.390624999999986
 21
305.24725065389998
 31
0.0
  0
LINE
  5
2BD
  8
┌▓È_1
 62
     5
 10
-89.690624999999983
 20
305.24725065389998
 30
0.0
 11
-89.690624999999983
 21
316.91609744020002
 31
0.0
  0
LINE
  5
2BE
  8
┌▓È_1
 62
     5
 10
-92.190624999999983
 20
304.44725065390003
 30
0.0
 11
-92.190624999999983
 21
317.71609744019997
 31
0.0
  0
LINE
  5
2BF
  8
Éíû@É³
 62
     5
 10
685.67956123420004
 20
293.54097117430001
 30
0.0
 11
736.23671694160009
 21
331.1531404877
 31
0.0
  0
LINE
  5
2C0
  8
Éíû@É³
 62
     5
 10
685.67956123420004
 20
293.54097117430001
 30
0.0
 11
687.71913749099997
 21
296.11866581869998
 31
0.0
  0
LINE
  5
2C1
  8
Éíû@É³
 62
     5
 10
685.67956123420004
 20
293.54097117430001
 30
0.0
 11
688.73473340780004
 21
294.7535320911
 31
0.0
  0
CIRCLE
  5
2C2
  8
┌▓È_1
 62
     5
 10
683.20468749999986
 20
311.0660974402
 30
0.0
 40
5.1500000000000004
  0
CIRCLE
  5
2C3
  8
┌▓È_1
 62
     5
 10
683.20468749999986
 20
311.0660974402
 30
0.0
 40
6.0
  0
ARC
  5
2C4
  8
┌▓È_1
 62
     5
 10
-91.390624999999986
 20
304.44725065390003
 30
0.0
 40
0.8
 50
90.0
 51
180.0
  0
LINE
  5
2C5
  8
┌▓È_1
 62
     5
 10
499.30937499999987
 20
305.24725065389998
 30
0.0
 11
499.30937499999987
 21
316.91609744020002
 31
0.0
  0
LINE
  5
2C6
  8
┌▓È_1
 62
     5
 10
499.30937499999987
 20
305.24725065389998
 30
0.0
 11
501.00937499999998
 21
305.24725065389998
 31
0.0
  0
LINE
  5
2C7
  8
┌▓È_1
 62
     5
 10
209.55937499999999
 20
305.33189599259998
 30
0.0
 11
200.05937499999999
 21
305.33189599259998
 31
0.0
  0
LINE
  5
2C8
  8
┌▓È_1
 62
     5
 10
-95.190624999999997
 20
171.0660974402
 30
0.0
 11
-95.190624999999997
 21
322.0660974402
 31
0.0
  0
LINE
  5
2C9
  8
┌▓È_1
 62
     5
 10
200.05937499999999
 20
171.0660974402
 30
0.0
 11
200.05937499999999
 21
315.44644992809998
 31
0.0
  0
LINE
  5
2CA
  8
┌▓È_1
  6
BORDER
 62
     5
 10
204.80937499999999
 20
171.0660974402
 30
0.0
 11
204.80937499999999
 21
321.16915611270002
 31
0.0
  0
LINE
  5
2CB
  8
┌▓È_1
 62
     5
 10
209.55937499999999
 20
315.44644992809998
 30
0.0
 11
209.55937499999999
 21
171.0660974402
 31
0.0
  0
LINE
  5
2CC
  8
┌▓È_1
 62
     5
 10
49.809375000000003
 20
333.79606869610001
 30
0.0
 11
49.809375000000003
 21
216.8795467514
 31
0.0
  0
LINE
  5
2CD
  8
┌▓È_1
 62
     5
 10
59.809375000000003
 20
333.79606869610001
 30
0.0
 11
59.809375000000003
 21
216.8795467514
 31
0.0
  0
LINE
  5
2CE
  8
┌▓È_1
 62
     5
 10
504.80937499999987
 20
171.0660974402
 30
0.0
 11
504.80937499999987
 21
322.0660974402
 31
0.0
  0
LINE
  5
2CF
  8
┌▓È_1
 62
     5
 10
349.80937499999999
 20
333.79606869610001
 30
0.0
 11
349.80937499999999
 21
216.8795467514
 31
0.0
  0
LINE
  5
2D0
  8
┌▓È_1
 62
     5
 10
339.80937499999999
 20
333.79606869610001
 30
0.0
 11
339.80937499999999
 21
216.8795467514
 31
0.0
  0
LINE
  5
2D1
  8
┌▓È_1
 62
     5
 10
694.20468749999986
 20
311.06609784279999
 30
0.0
 11
694.20468749999986
 21
211.0660974402
 31
0.0
  0
LINE
  5
2D2
  8
┌▓È_1
 62
     5
 10
693.54715892649995
 20
311.0660974402
 30
0.0
 11
693.52592332940003
 21
211.0660974402
 31
0.0
  0
ENDSEC
  0
EOF
