  0
SECTION
  2
HEADER
  9
$ACADVER
  1
AC1009
  9
$INSBASE
 10
0.0
 20
0.0
 30
0.0
  9
$EXTMIN
 10
-602.44219254459995
 20
-654.92786506259995
 30
0.0
  9
$EXTMAX
 10
475.01367427089991
 20
122.74477563560001
 30
0.0
  9
$LIMMIN
 10
0.0
 20
0.0
  9
$LIMMAX
 10
0.0
 20
0.0
  9
$ORTHOMODE
 70
     0
  9
$REGENMODE
 70
     1
  9
$FILLMODE
 70
     1
  9
$QTEXTMODE
 70
     0
  9
$MIRRTEXT
 70
     1
  9
$DRAGMODE
 70
     2
  9
$LTSCALE
 40
1.0
  9
$OSMODE
 70
    31
  9
$ATTMODE
 70
     1
  9
$TEXTSIZE
 40
0.0
  9
$TRACEWID
 40
0.05
  9
$TEXTSTYLE
  7
STANDARD
  9
$CLAYER
  8
0
  9
$CELTYPE
  6
CONTINUOUS
  9
$CECOLOR
 62
   256
  9
$DIMSCALE
 40
1.0
  9
$DIMASZ
 40
0.18
  9
$DIMEXO
 40
0.0625
  9
$DIMDLI
 40
0.38
  9
$DIMRND
 40
0.0
  9
$DIMDLE
 40
0.0
  9
$DIMEXE
 40
0.18
  9
$DIMTP
 40
0.0
  9
$DIMTM
 40
0.0
  9
$DIMTXT
 40
0.18
  9
$DIMCEN
 40
0.09
  9
$DIMTSZ
 40
0.0
  9
$DIMTOL
 70
     0
  9
$DIMLIM
 70
     0
  9
$DIMTIH
 70
     1
  9
$DIMTOH
 70
     1
  9
$DIMSE1
 70
     0
  9
$DIMSE2
 70
     0
  9
$DIMTAD
 70
     0
  9
$DIMZIN
 70
     0
  9
$DIMBLK
  1

  9
$DIMASO
 70
     1
  9
$DIMSHO
 70
     1
  9
$DIMPOST
  1

  9
$DIMAPOST
  1

  9
$DIMALT
 70
     0
  9
$DIMALTD
 70
     2
  9
$DIMALTF
 40
25.399999999999999
  9
$DIMLFAC
 40
1.0
  9
$DIMTOFL
 70
     0
  9
$DIMTVP
 40
0.0
  9
$DIMTIX
 70
     0
  9
$DIMSOXD
 70
     0
  9
$DIMSAH
 70
     0
  9
$DIMBLK1
  1

  9
$DIMBLK2
  1

  9
$DIMSTYLE
  2
STANDARD
  9
$DIMCLRD
 70
     0
  9
$DIMCLRE
 70
     0
  9
$DIMCLRT
 70
     0
  9
$DIMTFAC
 40
1.0
  9
$DIMGAP
 40
0.09
  9
$LUNITS
 70
     2
  9
$LUPREC
 70
     4
  9
$SKETCHINC
 40
0.1
  9
$FILLETRAD
 40
0.0
  9
$AUNITS
 70
     0
  9
$AUPREC
 70
     0
  9
$MENU
  1
acad
  9
$ELEVATION
 40
0.0
  9
$PELEVATION
 40
0.0
  9
$THICKNESS
 40
0.0
  9
$LIMCHECK
 70
     0
  9
$BLIPMODE
 70
     0
  9
$CHAMFERA
 40
0.0
  9
$CHAMFERB
 40
0.0
  9
$SKPOLY
 70
     0
  9
$TDCREATE
 40
2454861.6150204279
  9
$TDUPDATE
 40
2454861.6152365399
  9
$TDINDWG
 40
0.0002282292
  9
$TDUSRTIMER
 40
0.0002278588
  9
$USRTIMER
 70
     1
  9
$ANGBASE
 50
0.0
  9
$ANGDIR
 70
     0
  9
$PDMODE
 70
     3
  9
$PDSIZE
 40
-1.0
  9
$PLINEWID
 40
0.0
  9
$COORDS
 70
     2
  9
$SPLFRAME
 70
     0
  9
$SPLINETYPE
 70
     6
  9
$SPLINESEGS
 70
     8
  9
$ATTDIA
 70
     0
  9
$ATTREQ
 70
     1
  9
$HANDLING
 70
     1
  9
$HANDSEED
  5
9B6
  9
$SURFTAB1
 70
     6
  9
$SURFTAB2
 70
     6
  9
$SURFTYPE
 70
     6
  9
$SURFU
 70
     6
  9
$SURFV
 70
     6
  9
$UCSNAME
  2

  9
$UCSORG
 10
0.0
 20
0.0
 30
0.0
  9
$UCSXDIR
 10
1.0
 20
0.0
 30
0.0
  9
$UCSYDIR
 10
0.0
 20
1.0
 30
0.0
  9
$PUCSNAME
  2

  9
$PUCSORG
 10
0.0
 20
0.0
 30
0.0
  9
$PUCSXDIR
 10
1.0
 20
0.0
 30
0.0
  9
$PUCSYDIR
 10
0.0
 20
1.0
 30
0.0
  9
$USERI1
 70
     0
  9
$USERI2
 70
     0
  9
$USERI3
 70
     0
  9
$USERI4
 70
     0
  9
$USERI5
 70
     0
  9
$USERR1
 40
0.0
  9
$USERR2
 40
0.0
  9
$USERR3
 40
0.0
  9
$USERR4
 40
0.0
  9
$USERR5
 40
0.0
  9
$WORLDVIEW
 70
     1
  9
$SHADEDGE
 70
     3
  9
$SHADEDIF
 70
    70
  9
$TILEMODE
 70
     1
  9
$MAXACTVP
 70
    16
  9
$PLIMCHECK
 70
     0
  9
$PEXTMIN
 10
1.0000000000000000E+020
 20
1.0000000000000000E+020
 30
1.0000000000000000E+020
  9
$PEXTMAX
 10
-1.0000000000000000E+020
 20
-1.0000000000000000E+020
 30
-1.0000000000000000E+020
  9
$PLIMMIN
 10
0.0
 20
0.0
  9
$PLIMMAX
 10
12.0
 20
9.0
  9
$UNITMODE
 70
     0
  9
$VISRETAIN
 70
     0
  9
$PLINEGEN
 70
     1
  9
$PSLTSCALE
 70
     0
  0
ENDSEC
  0
SECTION
  2
TABLES
  0
TABLE
  2
VPORT
 70
     2
  0
VPORT
  2
*ACTIVE
 70
     0
 10
0.0
 20
0.0
 11
1.0
 21
1.0
 12
-63.71425913684984
 22
-266.09154471350001
 13
0.0
 23
0.0
 14
1.0
 24
1.0
 15
0.0
 25
0.0
 16
0.0
 26
0.0
 36
1.0
 17
0.0
 27
0.0
 37
0.0
 40
784.12635555876591
 41
1.6343490304709141
 42
50.0
 43
0.0
 44
0.0
 50
0.0
 51
0.0
 71
     0
 72
   100
 73
     1
 74
     1
 75
     0
 76
     0
 77
     0
 78
     0
  0
ENDTAB
  0
TABLE
  2
LTYPE
 70
    11
  0
LTYPE
  2
CONTINUOUS
 70
     0
  3
Solid line
 72
    65
 73
     0
 40
0.0
  0
LTYPE
  2
DOT
 70
     0
  3
. . . . . . . . 
 72
    65
 73
     2
 40
1.0
 49
0.0
 49
-1.0
  0
LTYPE
  2
DASHED
 70
     0
  3
___  ___  ___  ___  
 72
    65
 73
     2
 40
4.0
 49
3.0
 49
-1.0
  0
LTYPE
  2
HIDDEN
 70
     0
  3
__ __ __ __ 
 72
    65
 73
     2
 40
3.0
 49
2.0
 49
-1.0
  0
LTYPE
  2
STITCH
 70
     0
  3
_ _ _ _ 
 72
    65
 73
     2
 40
2.0
 49
1.0
 49
-1.0
  0
LTYPE
  2
CENTER
 70
     0
  3
______  __  ______  __  
 72
    65
 73
     4
 40
43.0
 49
40.0
 49
-1.0
 49
1.0
 49
-1.0
  0
LTYPE
  2
DASHDOT
 70
     0
  3
____ . ____ . 
 72
    65
 73
     4
 40
32.0
 49
30.0
 49
-1.0
 49
0.0
 49
-1.0
  0
LTYPE
  2
BORDER
 70
     0
  3
__ . __ . 
 72
    65
 73
     4
 40
22.0
 49
20.0
 49
-1.0
 49
0.0
 49
-1.0
  0
LTYPE
  2
CUTTING
 70
     0
  3
________   ___   ___   
 72
    65
 73
     6
 40
45.0
 49
40.0
 49
-1.0
 49
1.0
 49
-1.0
 49
1.0
 49
-1.0
  0
LTYPE
  2
PHANTOM
 70
     0
  3
______  __  __  
 72
    65
 73
     6
 40
35.0
 49
30.0
 49
-1.0
 49
1.0
 49
-1.0
 49
1.0
 49
-1.0
  0
LTYPE
  2
DIVIDE
 70
     0
  3
____ . . ____ . . 
 72
    65
 73
     6
 40
23.0
 49
20.0
 49
-1.0
 49
0.0
 49
-1.0
 49
0.0
 49
-1.0
  0
ENDTAB
  0
TABLE
  2
LAYER
 70
     3
  0
LAYER
  2
0
 70
     0
 62
     7
  6
CONTINUOUS
  0
LAYER
  2
┌▓È_1
 70
     0
 62
     7
  6
CONTINUOUS
  0
LAYER
  2
Éíû@É³
 70
     0
 62
     7
  6
CONTINUOUS
  0
ENDTAB
  0
TABLE
  2
STYLE
 70
     1
  0
STYLE
  2
STANDARD
 70
     0
 40
0.0
 41
1.0
 50
0.0
 71
     0
 42
0.0
  3
txt
  4
extfont
  0
ENDTAB
  0
TABLE
  2
VIEW
 70
     0
  0
ENDTAB
  0
TABLE
  2
UCS
 70
     0
  0
ENDTAB
  0
TABLE
  2
APPID
 70
     2
  0
APPID
  2
ACAD
 70
     0
  0
APPID
  2
DCO15
 70
     0
  0
ENDTAB
  0
TABLE
  2
DIMSTYLE
 70
     2
  0
DIMSTYLE
  2
STANDARD
 70
     0
  3

  4

  5

  6

  7

 40
1.0
 41
0.18
 42
0.0625
 43
0.38
 44
0.18
 45
0.0
 46
0.0
 47
0.0
 48
0.0
140
0.18
141
0.09
142
0.0
143
25.399999999999999
144
1.0
145
0.0
146
1.0
147
0.09
 71
     0
 72
     0
 73
     1
 74
     1
 75
     0
 76
     0
 77
     0
 78
     0
170
     0
171
     2
172
     0
173
     0
174
     0
175
     0
176
     0
177
     0
178
     0
  0
DIMSTYLE
  2
VELDIM0
 70
     0
  3

  4

  5

  6

  7

 40
1.0
 41
5.974875450099999
 42
0.0625
 43
0.38
 44
2.0
 45
0.0
 46
10.0
 47
0.0
 48
0.0
140
11.129008197799999
141
0.09
142
0.0
143
25.399999999999999
144
1.0
145
0.0
146
1.0
147
0.09
 71
     0
 72
     0
 73
     0
 74
     0
 75
     0
 76
     0
 77
     0
 78
     8
170
     0
171
     2
172
     0
173
     0
174
     0
175
     0
176
     0
177
     0
178
     0
  0
ENDTAB
  0
ENDSEC
  0
SECTION
  2
BLOCKS
  0
BLOCK
  8
0
  2
$MODEL_SPACE
 70
     0
 10
0.0
 20
0.0
 30
0.0
  3
$MODEL_SPACE
  1

  0
ENDBLK
  5
E
  8
0
  0
BLOCK
 67
     1
  8
0
  2
$PAPER_SPACE
 70
     0
 10
0.0
 20
0.0
 30
0.0
  3
$PAPER_SPACE
  1

  0
ENDBLK
  5
10
 67
     1
  8
0
  0
BLOCK
  8
0
  2
*D0
 70
     1
 10
0.0
 20
0.0
 30
0.0
  3
*D0
  1

  0
TEXT
  5
9C
  8
0
 62
     0
 10
247.19766445159999
 20
-18.111773522699998
 30
0.0
 40
11.129008197799999
  1
11
  0
LINE
  5
9D
  8
0
 62
     0
 10
285.20781249999999
 20
-48.075716145800001
 30
0.0
 11
285.20781249999999
 21
-20.075716145800001
 31
0.0
  0
LINE
  5
9E
  8
0
 62
     0
 10
285.20781249999999
 20
-22.075716145800001
 30
0.0
 11
266.83709068299999
 21
-22.075716145800001
 31
0.0
  0
LINE
  5
9F
  8
0
 62
     0
 10
285.20781249999999
 20
-22.075716145800001
 30
0.0
 11
240.6511890411
 21
-22.075716145800001
 31
0.0
  0
LINE
  5
A0
  8
0
 62
     0
 10
274.20781249999999
 20
-22.075716145800001
 30
0.0
 11
266.83709068299999
 21
-22.075716145800001
 31
0.0
  0
LINE
  5
A1
  8
0
 62
     0
 10
274.20781249999999
 20
-22.075716145800001
 30
0.0
 11
240.6511890411
 21
-22.075716145800001
 31
0.0
  0
LINE
  5
A2
  8
0
 62
     0
 10
274.20781249999999
 20
-22.075716145800001
 30
0.0
 11
264.20781249999999
 21
-22.075716145800001
 31
0.0
  0
SOLID
  5
A3
  8
0
 62
     0
 10
274.20781249999999
 20
-22.075716145800001
 30
0.0
 11
268.23293704989999
 21
-23.676679142299999
 31
0.0
 12
268.23293704989999
 22
-20.474753149400001
 32
0.0
 13
269.72665591240002
 23
-22.075716145800001
 33
0.0
  0
LINE
  5
A4
  8
0
 62
     0
 10
285.20781249999999
 20
-22.075716145800001
 30
0.0
 11
295.20781249999999
 21
-22.075716145800001
 31
0.0
  0
SOLID
  5
A5
  8
0
 62
     0
 10
285.20781249999999
 20
-22.075716145800001
 30
0.0
 11
291.18268795009999
 21
-20.474753149400001
 31
0.0
 12
291.18268795009999
 22
-23.676679142299999
 32
0.0
 13
289.68896908760001
 23
-22.075716145800001
 33
0.0
  0
ENDBLK
  5
A6
  8
0
  0
BLOCK
  8
0
  2
*D1
 70
     1
 10
0.0
 20
0.0
 30
0.0
  3
*D1
  1

  0
TEXT
  5
AB
  8
0
 62
     0
 10
244.095952982
 20
-78.747517077099999
 30
0.0
 40
11.129008197799999
  1
31
 50
90.0
  0
LINE
  5
AC
  8
0
 62
     0
 10
281.20781249999999
 20
-56.7010416667
 30
0.0
 11
246.0598956051
 21
-56.7010416667
 31
0.0
  0
LINE
  5
AD
  8
0
 62
     0
 10
248.0598956051
 20
-56.7010416667
 30
0.0
 11
248.0598956051
 21
-59.108090845699998
 31
0.0
  0
LINE
  5
AE
  8
0
 62
     0
 10
248.0598956051
 20
-56.7010416667
 30
0.0
 11
248.0598956051
 21
-85.293992487599994
 31
0.0
  0
LINE
  5
AF
  8
0
 62
     0
 10
248.0598956051
 20
-87.701041666699993
 30
0.0
 11
248.0598956051
 21
-59.108090845699998
 31
0.0
  0
LINE
  5
B0
  8
0
 62
     0
 10
248.0598956051
 20
-87.701041666699993
 30
0.0
 11
248.0598956051
 21
-85.293992487599994
 31
0.0
  0
LINE
  5
B1
  8
0
 62
     0
 10
248.0598956051
 20
-87.701041666699993
 30
0.0
 11
248.0598956051
 21
-97.701041666700021
 31
0.0
  0
SOLID
  5
B2
  8
0
 62
     0
 10
248.0598956051
 20
-87.701041666699993
 30
0.0
 11
249.66085860160001
 21
-93.675917116800008
 31
0.0
 12
246.45893260860001
 22
-93.675917116800008
 32
0.0
 13
248.0598956051
 23
-92.182198254300005
 33
0.0
  0
LINE
  5
B3
  8
0
 62
     0
 10
248.0598956051
 20
-56.7010416667
 30
0.0
 11
248.0598956051
 21
-46.701041666699993
 31
0.0
  0
SOLID
  5
B4
  8
0
 62
     0
 10
248.0598956051
 20
-56.7010416667
 30
0.0
 11
246.45893260860001
 21
-50.72616621649999
 31
0.0
 12
249.66085860160001
 22
-50.72616621649999
 32
0.0
 13
248.0598956051
 23
-52.219885079099988
 33
0.0
  0
ENDBLK
  5
B5
  8
0
  0
BLOCK
  8
0
  2
*D2
 70
     1
 10
0.0
 20
0.0
 30
0.0
  3
*D2
  1

  0
TEXT
  5
B9
  8
0
 62
     0
 10
244.09595321020001
 20
-269.74751707709999
 30
0.0
 40
11.129008197799999
  1
31
 50
90.0
  0
LINE
  5
BA
  8
0
 62
     0
 10
274.0598958333
 20
-247.70104166670001
 30
0.0
 11
246.0598958333
 21
-247.70104166670001
 31
0.0
  0
LINE
  5
BB
  8
0
 62
     0
 10
248.0598958333
 20
-247.70104166670001
 30
0.0
 11
248.0598958333
 21
-250.10809084569999
 31
0.0
  0
LINE
  5
BC
  8
0
 62
     0
 10
248.0598958333
 20
-247.70104166670001
 30
0.0
 11
248.0598958333
 21
-276.29399248760001
 31
0.0
  0
LINE
  5
BD
  8
0
 62
     0
 10
248.0598958333
 20
-278.70104166670001
 30
0.0
 11
248.0598958333
 21
-250.10809084569999
 31
0.0
  0
LINE
  5
BE
  8
0
 62
     0
 10
248.0598958333
 20
-278.70104166670001
 30
0.0
 11
248.0598958333
 21
-276.29399248760001
 31
0.0
  0
LINE
  5
BF
  8
0
 62
     0
 10
248.0598958333
 20
-278.70104166670001
 30
0.0
 11
248.0598958333
 21
-288.70104166670001
 31
0.0
  0
SOLID
  5
C0
  8
0
 62
     0
 10
248.0598958333
 20
-278.70104166670001
 30
0.0
 11
249.66085882979999
 21
-284.67591711680001
 31
0.0
 12
246.4589328369
 22
-284.67591711680001
 32
0.0
 13
248.0598958333
 23
-283.18219825429998
 33
0.0
  0
LINE
  5
C1
  8
0
 62
     0
 10
248.0598958333
 20
-247.70104166670001
 30
0.0
 11
248.0598958333
 21
-237.70104166670001
 31
0.0
  0
SOLID
  5
C2
  8
0
 62
     0
 10
248.0598958333
 20
-247.70104166670001
 30
0.0
 11
246.4589328369
 21
-241.72616621649999
 31
0.0
 12
249.66085882979999
 22
-241.72616621649999
 32
0.0
 13
248.0598958333
 23
-243.21988507910001
 33
0.0
  0
ENDBLK
  5
C3
  8
0
  0
BLOCK
  8
0
  2
*D3
 70
     1
 10
0.0
 20
0.0
 30
0.0
  3
*D3
  1

  0
TEXT
  5
C7
  8
0
 62
     0
 10
244.09595321020001
 20
-177.52075478239999
 30
0.0
 40
11.129008197799999
  1
160
 50
90.0
  0
LINE
  5
C8
  8
0
 62
     0
 10
275.23864850429999
 20
-87.701041666699993
 30
0.0
 11
246.0598958333
 21
-87.701041666699993
 31
0.0
  0
LINE
  5
C9
  8
0
 62
     0
 10
248.0598958333
 20
-87.701041666699993
 30
0.0
 11
248.0598958333
 21
-151.3348531405
 31
0.0
  0
LINE
  5
CA
  8
0
 62
     0
 10
248.0598958333
 20
-87.701041666699993
 30
0.0
 11
248.0598958333
 21
-184.0672301928
 31
0.0
  0
LINE
  5
CB
  8
0
 62
     0
 10
248.0598958333
 20
-247.70104166670001
 30
0.0
 11
248.0598958333
 21
-151.3348531405
 31
0.0
  0
LINE
  5
CC
  8
0
 62
     0
 10
248.0598958333
 20
-247.70104166670001
 30
0.0
 11
248.0598958333
 21
-184.0672301928
 31
0.0
  0
LINE
  5
CD
  8
0
 62
     0
 10
248.0598958333
 20
-247.70104166670001
 30
0.0
 11
248.0598958333
 21
-237.70104166670001
 31
0.0
  0
SOLID
  5
CE
  8
0
 62
     0
 10
248.0598958333
 20
-247.70104166670001
 30
0.0
 11
246.4589328369
 21
-241.72616621649999
 31
0.0
 12
249.66085882979999
 22
-241.72616621649999
 32
0.0
 13
248.0598958333
 23
-243.21988507910001
 33
0.0
  0
LINE
  5
CF
  8
0
 62
     0
 10
248.0598958333
 20
-87.701041666699993
 30
0.0
 11
248.0598958333
 21
-97.701041666700021
 31
0.0
  0
SOLID
  5
D0
  8
0
 62
     0
 10
248.0598958333
 20
-87.701041666699993
 30
0.0
 11
249.66085882979999
 21
-93.675917116800008
 31
0.0
 12
246.4589328369
 22
-93.675917116800008
 32
0.0
 13
248.0598958333
 23
-92.182198254300005
 33
0.0
  0
ENDBLK
  5
D1
  8
0
  0
BLOCK
  8
0
  2
BALLON0
 70
     0
 10
0.0
 20
0.0
 30
0.0
  3
BALLON0
  1

  0
INSERT
  5
14E
  8
0
  6
CONTINUOUS
  2
*U17
 10
0.0
 20
0.0
 30
0.0
  0
CIRCLE
  5
14F
  8
┌▓È_1
 62
     5
 10
-141.4306640625
 20
-369.5
 30
0.0
 40
12.0
  0
LINE
  5
150
  8
Éíû@É³
 62
     5
 10
-161.4306640625
 20
-369.5
 30
0.0
 11
-153.4306640625
 21
-369.5
 31
0.0
  0
LINE
  5
151
  8
Éíû@É³
 62
     5
 10
-224.7981770833
 20
-194.54992187880001
 30
0.0
 11
-161.4306640625
 21
-369.5
 31
0.0
  0
SOLID
  5
152
  8
Éíû@É³
 62
     5
 10
-224.7981770833
 20
-194.54992187880001
 30
0.0
 11
-218.45500220759999
 21
-205.01529967880001
 31
0.0
 12
-221.52886991739999
 22
-203.576085552
 32
0.0
 13
-221.52886991739999
 23
-203.576085552
 33
0.0
  0
SOLID
  5
153
  8
Éíû@É³
 62
     5
 10
-221.52886991739999
 20
-203.576085552
 30
0.0
 11
-222.9680840442
 21
-206.64995326179999
 31
0.0
 12
-224.7981770833
 22
-194.54992187880001
 32
0.0
 13
-224.7981770833
 23
-194.54992187880001
 33
0.0
  0
ENDBLK
  5
154
  8
0
  0
BLOCK
  8
0
  2
BALLON1
 70
     0
 10
0.0
 20
0.0
 30
0.0
  3
BALLON1
  1

  0
INSERT
  5
158
  8
0
  6
CONTINUOUS
  2
*U18
 10
0.0
 20
0.0
 30
0.0
  0
CIRCLE
  5
159
  8
┌▓È_1
 62
     5
 10
-284.47929687499999
 20
-369.5
 30
0.0
 40
12.0
  0
LINE
  5
15A
  8
Éíû@É³
 62
     5
 10
-304.47929687499999
 20
-369.5
 30
0.0
 11
-296.47929687499999
 21
-369.5
 31
0.0
  0
LINE
  5
15B
  8
Éíû@É³
 62
     5
 10
-337.13880208329999
 20
-257.20104166670001
 30
0.0
 11
-304.47929687499999
 21
-369.5
 31
0.0
  0
SOLID
  5
15C
  8
Éíû@É³
 62
     5
 10
-337.13880208329999
 20
-257.20104166670001
 30
0.0
 11
-331.48320595199999
 21
-268.05342538630009
 31
0.0
 12
-334.45794101609999
 22
-266.41912085579997
 32
0.0
 13
-334.45794101609999
 23
-266.41912085579997
 33
0.0
  0
SOLID
  5
15D
  8
Éíû@É³
 62
     5
 10
-334.45794101609999
 20
-266.41912085579997
 30
0.0
 11
-336.0922455466
 21
-269.39385592000002
 31
0.0
 12
-337.13880208329999
 22
-257.20104166670001
 32
0.0
 13
-337.13880208329999
 23
-257.20104166670001
 33
0.0
  0
ENDBLK
  5
15E
  8
0
  0
BLOCK
  8
0
  2
BALLON2
 70
     0
 10
0.0
 20
0.0
 30
0.0
  3
BALLON2
  1

  0
INSERT
  5
162
  8
0
  6
CONTINUOUS
  2
*U19
 10
0.0
 20
0.0
 30
0.0
  0
CIRCLE
  5
163
  8
┌▓È_1
 62
     5
 10
-417.25
 20
-369.5
 30
0.0
 40
12.0
  0
LINE
  5
164
  8
Éíû@É³
 62
     5
 10
-437.25
 20
-369.5
 30
0.0
 11
-429.25
 21
-369.5
 31
0.0
  0
LINE
  5
165
  8
Éíû@É³
 62
     5
 10
-526.54817708329995
 20
-232.18546505980001
 30
0.0
 11
-437.25
 21
-369.5
 31
0.0
  0
SOLID
  5
166
  8
Éíû@É³
 62
     5
 10
-526.54817708329995
 20
-232.18546505980001
 30
0.0
 11
-517.99409304510004
 21
-240.93690187140001
 31
0.0
 12
-521.31448733260004
 22
-240.23335245920001
 32
0.0
 13
-521.31448733260004
 23
-240.23335245920001
 33
0.0
  0
SOLID
  5
167
  8
Éíû@É³
 62
     5
 10
-521.31448733260004
 20
-240.23335245920001
 30
0.0
 11
-522.01803674480004
 21
-243.5537467467
 31
0.0
 12
-526.54817708329995
 22
-232.18546505980001
 32
0.0
 13
-526.54817708329995
 23
-232.18546505980001
 33
0.0
  0
ENDBLK
  5
168
  8
0
  0
BLOCK
  8
0
  2
*D7
 70
     1
 10
0.0
 20
0.0
 30
0.0
  3
*D7
  1

  0
TEXT
  5
16E
  8
0
 62
     0
 10
278.66133708950002
 20
-2.0664294878999989
 30
0.0
 40
11.129008197799999
  1
22
  0
LINE
  5
16F
  8
0
 62
     0
 10
274.20781249999999
 20
-63.7010416667
 30
0.0
 11
274.20781249999999
 21
-4.0303721110000001
 31
0.0
  0
LINE
  5
170
  8
0
 62
     0
 10
274.20781249999999
 20
-6.0303721110000001
 30
0.0
 11
274.20781249999999
 21
-6.0303721110000001
 31
0.0
  0
LINE
  5
171
  8
0
 62
     0
 10
274.20781249999999
 20
-6.0303721110000001
 30
0.0
 11
296.20781249999999
 21
-6.0303721110000001
 31
0.0
  0
LINE
  5
172
  8
0
 62
     0
 10
296.20781249999999
 20
-6.0303721110000001
 30
0.0
 11
274.20781249999999
 21
-6.0303721110000001
 31
0.0
  0
LINE
  5
173
  8
0
 62
     0
 10
296.20781249999999
 20
-6.0303721110000001
 30
0.0
 11
296.20781249999999
 21
-6.0303721110000001
 31
0.0
  0
LINE
  5
174
  8
0
 62
     0
 10
296.20781249999999
 20
-6.0303721110000001
 30
0.0
 11
286.20781249999999
 21
-6.0303721110000001
 31
0.0
  0
SOLID
  5
175
  8
0
 62
     0
 10
296.20781249999999
 20
-6.0303721110000001
 30
0.0
 11
290.23293704989999
 21
-7.6313351074999991
 31
0.0
 12
290.23293704989999
 22
-4.4294091145000003
 32
0.0
 13
291.72665591240002
 23
-6.0303721110000001
 33
0.0
  0
LINE
  5
176
  8
0
 62
     0
 10
274.20781249999999
 20
-6.0303721110000001
 30
0.0
 11
284.20781249999999
 21
-6.0303721110000001
 31
0.0
  0
SOLID
  5
177
  8
0
 62
     0
 10
274.20781249999999
 20
-6.0303721110000001
 30
0.0
 11
280.18268795009999
 21
-4.4294091145000003
 31
0.0
 12
280.18268795009999
 22
-7.6313351074999991
 32
0.0
 13
278.6889690875999
 23
-6.0303721110000001
 33
0.0
  0
ENDBLK
  5
178
  8
0
  0
BLOCK
  8
0
  2
*D8
 70
     1
 10
0.0
 20
0.0
 30
0.0
  3
*D8
  1

  0
TEXT
  5
27A
  8
0
 62
     0
 10
305.93516559599999
 20
-18.111773522699998
 30
0.0
 40
11.129008197799999
  1
11
  0
LINE
  5
27B
  8
0
 62
     0
 10
296.20781249999999
 20
-63.7010416667
 30
0.0
 11
296.20781249999999
 21
-20.075716145800001
 31
0.0
  0
LINE
  5
27C
  8
0
 62
     0
 10
296.20781249999999
 20
-22.075716145800001
 30
0.0
 11
325.57459182740001
 21
-22.075716145800001
 31
0.0
  0
LINE
  5
27D
  8
0
 62
     0
 10
296.20781249999999
 20
-22.075716145800001
 30
0.0
 11
299.38869018550002
 21
-22.075716145800001
 31
0.0
  0
LINE
  5
27E
  8
0
 62
     0
 10
285.20781249999999
 20
-22.075716145800001
 30
0.0
 11
325.57459182740001
 21
-22.075716145800001
 31
0.0
  0
LINE
  5
27F
  8
0
 62
     0
 10
285.20781249999999
 20
-22.075716145800001
 30
0.0
 11
299.38869018550002
 21
-22.075716145800001
 31
0.0
  0
LINE
  5
280
  8
0
 62
     0
 10
285.20781249999999
 20
-22.075716145800001
 30
0.0
 11
275.20781249999999
 21
-22.075716145800001
 31
0.0
  0
SOLID
  5
281
  8
0
 62
     0
 10
285.20781249999999
 20
-22.075716145800001
 30
0.0
 11
279.23293704989999
 21
-23.676679142299999
 31
0.0
 12
279.23293704989999
 22
-20.474753149400001
 32
0.0
 13
280.72665591240002
 23
-22.075716145800001
 33
0.0
  0
LINE
  5
282
  8
0
 62
     0
 10
296.20781249999999
 20
-22.075716145800001
 30
0.0
 11
306.20781249999999
 21
-22.075716145800001
 31
0.0
  0
SOLID
  5
283
  8
0
 62
     0
 10
296.20781249999999
 20
-22.075716145800001
 30
0.0
 11
302.18268795009999
 21
-20.474753149400001
 31
0.0
 12
302.18268795009999
 22
-23.676679142299999
 32
0.0
 13
300.68896908760001
 23
-22.075716145800001
 33
0.0
  0
ENDBLK
  5
284
  8
0
  0
BLOCK
  8
0
  2
*D9
 70
     1
 10
0.0
 20
0.0
 30
0.0
  3
*D9
  1

  0
TEXT
  5
288
  8
0
 62
     0
 10
-536.81794950940002
 20
-174.2475170770999
 30
0.0
 40
11.129008197799999
  1
40
 50
90.0
  0
LINE
  5
289
  8
0
 62
     0
 10
-505.75217958529993
 20
-147.70104166670001
 30
0.0
 11
-534.85400688619995
 21
-147.70104166670001
 31
0.0
  0
LINE
  5
28A
  8
0
 62
     0
 10
-532.85400688619995
 20
-147.70104166670001
 30
0.0
 11
-532.85400688619995
 21
-154.60809084569999
 31
0.0
  0
LINE
  5
28B
  8
0
 62
     0
 10
-532.85400688619995
 20
-147.70104166670001
 30
0.0
 11
-532.85400688619995
 21
-180.79399248759989
 31
0.0
  0
LINE
  5
28C
  8
0
 62
     0
 10
-532.85400688619995
 20
-187.70104166670001
 30
0.0
 11
-532.85400688619995
 21
-154.60809084569999
 31
0.0
  0
LINE
  5
28D
  8
0
 62
     0
 10
-532.85400688619995
 20
-187.70104166670001
 30
0.0
 11
-532.85400688619995
 21
-180.79399248759989
 31
0.0
  0
LINE
  5
28E
  8
0
 62
     0
 10
-532.85400688619995
 20
-187.70104166670001
 30
0.0
 11
-532.85400688619995
 21
-177.70104166670001
 31
0.0
  0
SOLID
  5
28F
  8
0
 62
     0
 10
-532.85400688619995
 20
-187.70104166670001
 30
0.0
 11
-534.45496988269986
 21
-181.72616621649999
 31
0.0
 12
-531.25304388970005
 22
-181.72616621649999
 32
0.0
 13
-532.85400688619995
 23
-183.21988507910001
 33
0.0
  0
LINE
  5
290
  8
0
 62
     0
 10
-532.85400688619995
 20
-147.70104166670001
 30
0.0
 11
-532.85400688619995
 21
-157.70104166670001
 31
0.0
  0
SOLID
  5
291
  8
0
 62
     0
 10
-532.85400688619995
 20
-147.70104166670001
 30
0.0
 11
-531.25304388970005
 21
-153.67591711680001
 31
0.0
 12
-534.45496988269986
 22
-153.67591711680001
 32
0.0
 13
-532.85400688619995
 23
-152.1821982543
 33
0.0
  0
ENDBLK
  5
292
  8
0
  0
BLOCK
  8
0
  2
*D10
 70
     1
 10
0.0
 20
0.0
 30
0.0
  3
*D10
  1

  0
TEXT
  5
296
  8
0
 62
     0
 10
-536.81794869240002
 20
-214.24751707710001
 30
0.0
 40
11.129008197799999
  1
40
 50
90.0
  0
LINE
  5
297
  8
0
 62
     0
 10
-505.86816132040002
 20
-187.70104166670001
 30
0.0
 11
-534.85400606929988
 21
-187.70104166670001
 31
0.0
  0
LINE
  5
298
  8
0
 62
     0
 10
-532.8540060693
 20
-187.70104166670001
 30
0.0
 11
-532.8540060693
 21
-194.60809084569999
 31
0.0
  0
LINE
  5
299
  8
0
 62
     0
 10
-532.8540060693
 20
-187.70104166670001
 30
0.0
 11
-532.8540060693
 21
-220.79399248760001
 31
0.0
  0
LINE
  5
29A
  8
0
 62
     0
 10
-532.8540060693
 20
-227.70104166670001
 30
0.0
 11
-532.8540060693
 21
-194.60809084569999
 31
0.0
  0
LINE
  5
29B
  8
0
 62
     0
 10
-532.8540060693
 20
-227.70104166670001
 30
0.0
 11
-532.8540060693
 21
-220.79399248760001
 31
0.0
  0
LINE
  5
29C
  8
0
 62
     0
 10
-532.8540060693
 20
-227.70104166670001
 30
0.0
 11
-532.8540060693
 21
-217.70104166670001
 31
0.0
  0
SOLID
  5
29D
  8
0
 62
     0
 10
-532.8540060693
 20
-227.70104166670001
 30
0.0
 11
-534.4549690657999
 21
-221.72616621649999
 31
0.0
 12
-531.25304307279987
 22
-221.72616621649999
 32
0.0
 13
-532.8540060693
 23
-223.21988507910001
 33
0.0
  0
LINE
  5
29E
  8
0
 62
     0
 10
-532.8540060693
 20
-187.70104166670001
 30
0.0
 11
-532.8540060693
 21
-197.70104166669989
 31
0.0
  0
SOLID
  5
29F
  8
0
 62
     0
 10
-532.8540060693
 20
-187.70104166670001
 30
0.0
 11
-531.25304307279987
 21
-193.67591711680001
 31
0.0
 12
-534.4549690657999
 22
-193.67591711680001
 32
0.0
 13
-532.8540060693
 23
-192.1821982543
 33
0.0
  0
ENDBLK
  5
2A0
  8
0
  0
BLOCK
  8
0
  2
*D11
 70
     1
 10
0.0
 20
0.0
 30
0.0
  3
*D11
  1

  0
TEXT
  5
2A4
  8
0
 62
     0
 10
-536.81794869240002
 20
-254.24751707710001
 30
0.0
 40
11.129008197799999
  1
40
 50
90.0
  0
LINE
  5
2A5
  8
0
 62
     0
 10
-506.8540060693
 20
-227.70104166670001
 30
0.0
 11
-534.85400606929988
 21
-227.70104166670001
 31
0.0
  0
LINE
  5
2A6
  8
0
 62
     0
 10
-532.8540060693
 20
-227.70104166670001
 30
0.0
 11
-532.8540060693
 21
-234.60809084569999
 31
0.0
  0
LINE
  5
2A7
  8
0
 62
     0
 10
-532.8540060693
 20
-227.70104166670001
 30
0.0
 11
-532.8540060693
 21
-260.79399248760001
 31
0.0
  0
LINE
  5
2A8
  8
0
 62
     0
 10
-532.8540060693
 20
-267.70104166670001
 30
0.0
 11
-532.8540060693
 21
-234.60809084569999
 31
0.0
  0
LINE
  5
2A9
  8
0
 62
     0
 10
-532.8540060693
 20
-267.70104166670001
 30
0.0
 11
-532.8540060693
 21
-260.79399248760001
 31
0.0
  0
LINE
  5
2AA
  8
0
 62
     0
 10
-532.8540060693
 20
-267.70104166670001
 30
0.0
 11
-532.8540060693
 21
-257.70104166670001
 31
0.0
  0
SOLID
  5
2AB
  8
0
 62
     0
 10
-532.8540060693
 20
-267.70104166670001
 30
0.0
 11
-534.4549690657999
 21
-261.72616621650002
 31
0.0
 12
-531.25304307279987
 22
-261.72616621650002
 32
0.0
 13
-532.8540060693
 23
-263.21988507909998
 33
0.0
  0
LINE
  5
2AC
  8
0
 62
     0
 10
-532.8540060693
 20
-227.70104166670001
 30
0.0
 11
-532.8540060693
 21
-237.70104166670001
 31
0.0
  0
SOLID
  5
2AD
  8
0
 62
     0
 10
-532.8540060693
 20
-227.70104166670001
 30
0.0
 11
-531.25304307279987
 21
-233.67591711680001
 31
0.0
 12
-534.4549690657999
 22
-233.67591711680001
 32
0.0
 13
-532.8540060693
 23
-232.1821982543
 33
0.0
  0
ENDBLK
  5
2AE
  8
0
  0
BLOCK
  8
0
  2
*D12
 70
     1
 10
0.0
 20
0.0
 30
0.0
  3
*D12
  1

  0
TEXT
  5
2B2
  8
0
 62
     0
 10
-536.81794792250003
 20
-134.24751707710001
 30
0.0
 40
11.129008197799999
  1
40
 50
90.0
  0
LINE
  5
2B3
  8
0
 62
     0
 10
-505.75217958529993
 20
-107.70104166669999
 30
0.0
 11
-534.8540052994
 21
-107.70104166669999
 31
0.0
  0
LINE
  5
2B4
  8
0
 62
     0
 10
-532.85400529939989
 20
-107.70104166669999
 30
0.0
 11
-532.85400529939989
 21
-114.6080908457
 31
0.0
  0
LINE
  5
2B5
  8
0
 62
     0
 10
-532.85400529939989
 20
-107.70104166669999
 30
0.0
 11
-532.85400529939989
 21
-140.79399248760001
 31
0.0
  0
LINE
  5
2B6
  8
0
 62
     0
 10
-532.85400529939989
 20
-147.70104166670001
 30
0.0
 11
-532.85400529939989
 21
-114.6080908457
 31
0.0
  0
LINE
  5
2B7
  8
0
 62
     0
 10
-532.85400529939989
 20
-147.70104166670001
 30
0.0
 11
-532.85400529939989
 21
-140.79399248760001
 31
0.0
  0
LINE
  5
2B8
  8
0
 62
     0
 10
-532.85400529939989
 20
-147.70104166670001
 30
0.0
 11
-532.85400529939989
 21
-137.70104166670001
 31
0.0
  0
SOLID
  5
2B9
  8
0
 62
     0
 10
-532.85400529939989
 20
-147.70104166670001
 30
0.0
 11
-534.45496829590002
 21
-141.72616621649999
 31
0.0
 12
-531.25304230289998
 22
-141.72616621649999
 32
0.0
 13
-532.85400529939989
 23
-143.21988507910001
 33
0.0
  0
LINE
  5
2BA
  8
0
 62
     0
 10
-532.85400529939989
 20
-107.70104166669999
 30
0.0
 11
-532.85400529939989
 21
-117.70104166669999
 31
0.0
  0
SOLID
  5
2BB
  8
0
 62
     0
 10
-532.85400529939989
 20
-107.70104166669999
 30
0.0
 11
-531.25304230289998
 21
-113.67591711679999
 31
0.0
 12
-534.45496829590002
 22
-113.67591711679999
 32
0.0
 13
-532.85400529939989
 23
-112.1821982543
 33
0.0
  0
ENDBLK
  5
2BC
  8
0
  0
BLOCK
  8
0
  2
*D13
 70
     1
 10
0.0
 20
0.0
 30
0.0
  3
*D13
  1

  0
TEXT
  5
2C0
  8
0
 62
     0
 10
-255.9432180723
 20
7.8719822247999991
 30
0.0
 40
11.129008197799999
  1
300   1000/é╗é╠æ╝
  0
LINE
  5
2C1
  8
0
 62
     0
 10
99.701822916699996
 20
-52.7010416667
 30
0.0
 11
99.701822916699996
 21
5.9080396015999987
 31
0.0
  0
LINE
  5
2C2
  8
0
 62
     0
 10
-500.2981770833
 20
-52.7010416667
 30
0.0
 11
-500.2981770833
 21
5.9080396015999987
 31
0.0
  0
LINE
  5
2C3
  8
0
 62
     0
 10
99.701822916699996
 20
3.9080396016000001
 30
0.0
 11
-138.1066606839
 21
3.9080396016000001
 31
0.0
  0
LINE
  5
2C4
  8
0
 62
     0
 10
99.701822916699996
 20
3.9080396016000001
 30
0.0
 11
-262.48969348269998
 21
3.9080396016000001
 31
0.0
  0
LINE
  5
2C5
  8
0
 62
     0
 10
-500.2981770833
 20
3.9080396016000001
 30
0.0
 11
-138.1066606839
 21
3.9080396016000001
 31
0.0
  0
LINE
  5
2C6
  8
0
 62
     0
 10
-500.2981770833
 20
3.9080396016000001
 30
0.0
 11
-262.48969348269998
 21
3.9080396016000001
 31
0.0
  0
LINE
  5
2C7
  8
0
 62
     0
 10
-500.2981770833
 20
3.9080396016000001
 30
0.0
 11
-490.2981770833
 21
3.9080396016000001
 31
0.0
  0
SOLID
  5
2C8
  8
0
 62
     0
 10
-500.2981770833
 20
3.9080396016000001
 30
0.0
 11
-494.32330163319989
 21
5.5090025980999986
 31
0.0
 12
-494.32330163319989
 22
2.3070766051999998
 32
0.0
 13
-495.81702049569992
 23
3.9080396016000001
 33
0.0
  0
LINE
  5
2C9
  8
0
 62
     0
 10
99.701822916699996
 20
3.9080396016000001
 30
0.0
 11
89.701822916699996
 21
3.9080396016000001
 31
0.0
  0
SOLID
  5
2CA
  8
0
 62
     0
 10
99.701822916699996
 20
3.9080396016000001
 30
0.0
 11
93.726947466499993
 21
2.3070766051999998
 31
0.0
 12
93.726947466499993
 22
5.5090025980999986
 32
0.0
 13
95.220666329099998
 23
3.9080396016000001
 33
0.0
  0
ENDBLK
  5
2CB
  8
0
  0
BLOCK
  8
0
  2
*D14
 70
     1
 10
0.0
 20
0.0
 30
0.0
  3
*D14
  1

  0
TEXT
  5
2CF
  8
0
 62
     0
 10
-536.81794822729989
 20
-94.247517077099985
 30
0.0
 40
11.129008197799999
  1
40
 50
90.0
  0
LINE
  5
2D0
  8
0
 62
     0
 10
-506.33208826110001
 20
-67.701041666700007
 30
0.0
 11
-534.85400560419998
 21
-67.701041666700007
 31
0.0
  0
LINE
  5
2D1
  8
0
 62
     0
 10
-532.85400560419987
 20
-67.701041666700007
 30
0.0
 11
-532.85400560419987
 21
-74.608090845699991
 31
0.0
  0
LINE
  5
2D2
  8
0
 62
     0
 10
-532.85400560419987
 20
-67.701041666700007
 30
0.0
 11
-532.85400560419987
 21
-100.79399248759999
 31
0.0
  0
LINE
  5
2D3
  8
0
 62
     0
 10
-532.85400560419987
 20
-107.70104166669999
 30
0.0
 11
-532.85400560419987
 21
-74.608090845699991
 31
0.0
  0
LINE
  5
2D4
  8
0
 62
     0
 10
-532.85400560419987
 20
-107.70104166669999
 30
0.0
 11
-532.85400560419987
 21
-100.79399248759999
 31
0.0
  0
LINE
  5
2D5
  8
0
 62
     0
 10
-532.85400560419987
 20
-107.70104166669999
 30
0.0
 11
-532.85400560419987
 21
-97.701041666700021
 31
0.0
  0
SOLID
  5
2D6
  8
0
 62
     0
 10
-532.85400560419987
 20
-107.70104166669999
 30
0.0
 11
-534.4549686007
 21
-101.7261662165
 31
0.0
 12
-531.25304260769997
 22
-101.7261662165
 32
0.0
 13
-532.85400560419987
 23
-103.2198850791
 33
0.0
  0
LINE
  5
2D7
  8
0
 62
     0
 10
-532.85400560419987
 20
-67.701041666700007
 30
0.0
 11
-532.85400560419987
 21
-77.701041666700007
 31
0.0
  0
SOLID
  5
2D8
  8
0
 62
     0
 10
-532.85400560419987
 20
-67.701041666700007
 30
0.0
 11
-531.25304260769997
 21
-73.675917116800008
 31
0.0
 12
-534.4549686007
 22
-73.675917116800008
 32
0.0
 13
-532.85400560419987
 23
-72.182198254300005
 33
0.0
  0
ENDBLK
  5
2D9
  8
0
  0
BLOCK
  8
0
  2
*D15
 70
     1
 10
0.0
 20
0.0
 30
0.0
  3
*D15
  1

  0
TEXT
  5
2DD
  8
0
 62
     0
 10
-571.82240616479987
 20
-177.52075478239999
 30
0.0
 40
11.129008197799999
  1
222
 50
90.0
  0
LINE
  5
2DE
  8
0
 62
     0
 10
-504.2981770833
 20
-56.7010416667
 30
0.0
 11
-569.85846354169985
 21
-56.7010416667
 31
0.0
  0
LINE
  5
2DF
  8
0
 62
     0
 10
-504.2981770833
 20
-278.70104166670001
 30
0.0
 11
-569.85846354169985
 21
-278.70104166670001
 31
0.0
  0
LINE
  5
2E0
  8
0
 62
     0
 10
-567.85846354169985
 20
-56.7010416667
 30
0.0
 11
-567.85846354169985
 21
-151.3348531405
 31
0.0
  0
LINE
  5
2E1
  8
0
 62
     0
 10
-567.85846354169985
 20
-56.7010416667
 30
0.0
 11
-567.85846354169985
 21
-184.0672301928
 31
0.0
  0
LINE
  5
2E2
  8
0
 62
     0
 10
-567.85846354169985
 20
-278.70104166670001
 30
0.0
 11
-567.85846354169985
 21
-151.3348531405
 31
0.0
  0
LINE
  5
2E3
  8
0
 62
     0
 10
-567.85846354169985
 20
-278.70104166670001
 30
0.0
 11
-567.85846354169985
 21
-184.0672301928
 31
0.0
  0
LINE
  5
2E4
  8
0
 62
     0
 10
-567.85846354169985
 20
-278.70104166670001
 30
0.0
 11
-567.85846354169985
 21
-268.70104166670001
 31
0.0
  0
SOLID
  5
2E5
  8
0
 62
     0
 10
-567.85846354169985
 20
-278.70104166670001
 30
0.0
 11
-569.45942653809993
 21
-272.72616621650002
 31
0.0
 12
-566.25750054519995
 22
-272.72616621650002
 32
0.0
 13
-567.85846354169985
 23
-274.21988507909998
 33
0.0
  0
LINE
  5
2E6
  8
0
 62
     0
 10
-567.85846354169985
 20
-56.7010416667
 30
0.0
 11
-567.85846354169985
 21
-66.701041666699993
 31
0.0
  0
SOLID
  5
2E7
  8
0
 62
     0
 10
-567.85846354169985
 20
-56.7010416667
 30
0.0
 11
-566.25750054519995
 21
-62.675917116800001
 31
0.0
 12
-569.45942653809993
 22
-62.675917116800001
 32
0.0
 13
-567.85846354169985
 23
-61.182198254299998
 33
0.0
  0
ENDBLK
  5
2E8
  8
0
  0
BLOCK
  8
0
  2
*U16
 70
     1
 10
0.0
 20
0.0
 30
0.0
  3
*U16
  1

  0
TEXT
  5
312
  8
┌▓È_1
  6
CONTINUOUS
 62
     5
 10
177.13034093749999
 20
-537.54812199925834
 30
0.0
 40
5.9972220420999998
  1
  3    òÔï^Râxâïâg     üiéUû{ùpüj       SUS430   0.7t             1/0   
  0
ENDBLK
  5
314
  8
0
  0
BLOCK
  8
0
  2
*U17
 70
     1
 10
0.0
 20
0.0
 30
0.0
  3
*U17
  1

  0
TEXT
  5
316
  8
┌▓È_1
  6
CONTINUOUS
 62
     5
 10
-144.05825022990001
 20
-373.94499993329998
 30
0.0
 40
10.794999837900001
  1
3
 41
0.8
  0
ENDBLK
  5
318
  8
0
  0
BLOCK
  8
0
  2
*U18
 70
     1
 10
0.0
 20
0.0
 30
0.0
  3
*U18
  1

  0
TEXT
  5
31A
  8
┌▓È_1
  6
CONTINUOUS
 62
     5
 10
-287.1068830424
 20
-373.94499993329998
 30
0.0
 40
10.794999837900001
  1
2
 41
0.8
  0
ENDBLK
  5
31C
  8
0
  0
BLOCK
  8
0
  2
*U19
 70
     1
 10
0.0
 20
0.0
 30
0.0
  3
*U19
  1

  0
TEXT
  5
31E
  8
┌▓È_1
  6
CONTINUOUS
 62
     5
 10
-419.00172411160003
 20
-373.94499993329998
 30
0.0
 40
10.794999837900001
  1
1
 41
0.8
  0
ENDBLK
  5
320
  8
0
  0
BLOCK
  8
0
  2
*U20
 70
     1
 10
0.0
 20
0.0
 30
0.0
  3
*U20
  1

  0
TEXT
  5
322
  8
┌▓È_1
  6
CONTINUOUS
 62
     5
 10
225.2018898293
 20
-433.80502926047598
 30
0.0
 40
7.1966662884000003
  1
òÔï^Râxâïâgé═üAæSÆÀéUéOéPê╚ÅÒé╔Äµòté»éÚ
  0
TEXT
  5
323
  8
┌▓È_1
  6
CONTINUOUS
 62
     5
 10
225.2018898293
 20
-446.16478608403952
 30
0.0
 40
7.1966662884000003
  1
                       üiò╩Æìòié═Å£é^Rüj
  0
ENDBLK
  5
325
  8
0
  0
BLOCK
  8
0
  2
*U21
 70
     1
 10
0.0
 20
0.0
 30
0.0
  3
*U21
  1

  0
TEXT
  5
327
  8
┌▓È_1
  6
CONTINUOUS
 62
     5
 10
360.04348958330002
 20
-624.58040003153747
 30
0.0
 40
5.9972220420999998
  1
âpâCâvÆI  ëíòté»  üiéUû{üj
  0
ENDBLK
  5
329
  8
0
  0
BLOCK
  8
0
  2
*U22
 70
     1
 10
0.0
 20
0.0
 30
0.0
  3
*U22
  1

  0
TEXT
  5
32B
  8
┌▓È_1
  6
CONTINUOUS
 62
     5
 10
299.24700760420001
 20
-620.01997897332728
 30
0.0
 40
5.9972220420999998
  1
Ä┌   ôx
  0
ENDBLK
  5
32D
  8
0
  0
BLOCK
  8
0
  2
*U23
 70
     1
 10
0.0
 20
0.0
 30
0.0
  3
*U23
  1

  0
TEXT
  5
32F
  8
┌▓È_1
  6
CONTINUOUS
 62
     5
 10
262.6300374169
 20
-596.87092529637914
 30
0.0
 40
5.9972220420999998
  1
ìÌ   Ä┐
  0
ENDBLK
  5
331
  8
0
  0
BLOCK
  8
0
  2
*U24
 70
     1
 10
0.0
 20
0.0
 30
0.0
  3
*U24
  1

  0
TEXT
  5
333
  8
┌▓È_1
  6
CONTINUOUS
 62
     5
 10
264.41381492080001
 20
-608.05846872604457
 30
0.0
 40
5.9972220420999998
  1
ò\ïL
  0
ENDBLK
  5
335
  8
0
  0
BLOCK
  8
0
  2
*U25
 70
     1
 10
0.0
 20
0.0
 30
0.0
  3
*U25
  1

  0
TEXT
  5
337
  8
┌▓È_1
  6
CONTINUOUS
 62
     5
 10
303.14870112450001
 20
-608.05846872604457
 30
0.0
 40
5.9972220420999998
  1
ò\ïL
  0
ENDBLK
  5
339
  8
0
  0
BLOCK
  8
0
  2
*U26
 70
     1
 10
0.0
 20
0.0
 30
0.0
  3
*U26
  1

  0
TEXT
  5
33B
  8
┌▓È_1
  6
CONTINUOUS
 62
     5
 10
177.13034093749999
 20
-570.65711357552743
 30
0.0
 40
5.9972220420999998
  1
  1      Ä¾é»  üiëíòté»ùpüj            SUS304   0.7t              2
  0
ENDBLK
  5
33D
  8
0
  0
BLOCK
  8
0
  2
*U27
 70
     1
 10
0.0
 20
0.0
 30
0.0
  3
*U27
  1

  0
TEXT
  5
33F
  8
┌▓È_1
  6
CONTINUOUS
 62
     5
 10
177.13034093749999
 20
-557.25438923733748
 30
0.0
 40
5.9972220420999998
  1
  2             âpâCâv                 SUS304   âË10x0.4t         6
  0
ENDBLK
  5
341
  8
0
  0
BLOCK
  8
0
  2
*U28
 70
     1
 10
0.0
 20
0.0
 30
0.0
  3
*U28
  1

  0
TEXT
  5
343
  8
┌▓È_1
  6
CONTINUOUS
 62
     5
 10
300.73003741690002
 20
-597.60051742351015
 30
0.0
 40
5.9972220420999998
  1
ö┬   î·
  0
ENDBLK
  5
345
  8
0
  0
BLOCK
  8
0
  2
*U29
 70
     1
 10
0.0
 20
0.0
 30
0.0
  3
*U29
  1

  0
TEXT
  5
347
  8
┌▓È_1
  6
CONTINUOUS
 62
     5
 10
337.1791002114
 20
-618.65513422516187
 30
0.0
 40
5.9972220420999998
  1
òiû╝
  0
ENDBLK
  5
349
  8
0
  0
BLOCK
  8
0
  2
*U30
 70
     1
 10
0.0
 20
0.0
 30
0.0
  3
*U30
  1

  0
TEXT
  5
34B
  8
┌▓È_1
  6
CONTINUOUS
 62
     5
 10
340.01554977184259
 20
-42.684101852991368
 30
0.0
 40
8.3961113452999996
  1
4-âË3.2éÿâË7ÄMëƒéÁ
  0
ENDBLK
  5
34D
  8
0
  0
BLOCK
  8
0
  2
*U31
 70
     1
 10
0.0
 20
0.0
 30
0.0
  3
*U31
  1

  0
TEXT
  5
34F
  8
┌▓È_1
  6
CONTINUOUS
 62
     5
 10
221.24920408360001
 20
-597.27790162312738
 30
0.0
 40
5.9972220420999998
  1
ê§   Éö
  0
ENDBLK
  5
351
  8
0
  0
BLOCK
  8
0
  2
*U32
 70
     1
 10
0.0
 20
0.0
 30
0.0
  3
*U32
  1

  0
TEXT
  5
353
  8
┌▓È_1
  6
CONTINUOUS
 62
     5
 10
225.41381492080001
 20
-608.05846872604457
 30
0.0
 40
5.9972220420999998
  1
ò\ïL
  0
ENDBLK
  5
355
  8
0
  0
BLOCK
  8
0
  2
*U33
 70
     1
 10
0.0
 20
0.0
 30
0.0
  3
*U33
  1

  0
TEXT
  5
357
  8
┌▓È_1
  6
CONTINUOUS
 62
     5
 10
181.0325374169
 20
-596.84291025213099
 30
0.0
 40
5.9972220420999998
  1
ô·   òt
  0
ENDBLK
  5
359
  8
0
  0
BLOCK
  8
0
  2
*U34
 70
     1
 10
0.0
 20
0.0
 30
0.0
  3
*U34
  1

  0
TEXT
  5
35B
  8
┌▓È_1
  6
CONTINUOUS
 62
     5
 10
185.89334814439999
 20
-648.55896472221059
 30
0.0
 40
10.794999837900001
  1
èöÄ«ë´Äð
  0
ENDBLK
  5
35D
  8
0
  0
BLOCK
  8
0
  2
*U35
 70
     1
 10
0.0
 20
0.0
 30
0.0
  3
*U35
  1

  0
TEXT
  5
35F
  8
┌▓È_1
  6
CONTINUOUS
 62
     5
 10
179.24700760420001
 20
-582.95516282202743
 30
0.0
 40
5.9972220420999998
  1
É}öÈ          òi     û╝                    ìÌ     Ä┐             Éöù╩
  0
ENDBLK
  5
361
  8
0
  0
BLOCK
  8
0
  2
*U36
 70
     1
 10
0.0
 20
0.0
 30
0.0
  3
*U36
  1

  0
TEXT
  5
363
  8
┌▓È_1
  6
CONTINUOUS
 62
     5
 10
179.24700760420001
 20
-619.21291987896177
 30
0.0
 40
5.9972220420999998
  1
É¦îv
  0
ENDBLK
  5
365
  8
0
  0
BLOCK
  8
0
  2
*U37
 70
     1
 10
0.0
 20
0.0
 30
0.0
  3
*U37
  1

  0
TEXT
  5
367
  8
┌▓È_1
  6
CONTINUOUS
 62
     5
 10
179.24700760420001
 20
-630.21876002292731
 30
0.0
 40
5.9972220420999998
  1
É╗É}
  0
ENDBLK
  5
369
  8
0
  0
BLOCK
  8
0
  2
*U38
 70
     1
 10
0.0
 20
0.0
 30
0.0
  3
*U38
  1

  0
TEXT
  5
36B
  8
┌▓È_1
  6
CONTINUOUS
 62
     5
 10
183.0621761738071
 20
-608.76705086640004
 30
0.0
 40
5.9972220420999998
  1
H8.5.30
  0
ENDBLK
  5
36D
  8
0
  0
BLOCK
  8
0
  2
*U39
 70
     1
 10
0.0
 20
0.0
 30
0.0
  3
*U39
  1

  0
TEXT
  5
36F
  8
┌▓È_1
  6
CONTINUOUS
 62
     5
 10
337.9487874168999
 20
-596.8404825448963
 30
0.0
 40
5.9972220420999998
  1
òiöÈ
  0
ENDBLK
  5
371
  8
0
  0
BLOCK
  8
0
  2
*U40
 70
     1
 10
0.0
 20
0.0
 30
0.0
  3
*U40
  1

  0
TEXT
  5
373
  8
┌▓È_1
  6
CONTINUOUS
 62
     5
 10
337.1791002114
 20
-640.60164053499648
 30
0.0
 40
5.9972220420999998
  1
É}öÈ
  0
ENDBLK
  5
375
  8
0
  0
BLOCK
  8
0
  2
*U41
 70
     1
 10
0.0
 20
0.0
 30
0.0
  3
*U41
  1

  0
TEXT
  5
377
  8
┌▓È_1
  6
CONTINUOUS
 62
     5
 10
367.7412760416999
 20
-647.07064894300004
 30
0.0
 40
5.9972220420999998
  1
éoéXéTü|éUü|é`
  0
ENDBLK
  5
379
  8
0
  0
BLOCK
  8
0
  2
*U42
 70
     1
 10
0.0
 20
0.0
 30
0.0
  3
*U42
  1

  0
TEXT
  5
37B
  8
┌▓È_1
  6
CONTINUOUS
 62
     5
 10
360.54348958330002
 20
-603.20047725040001
 30
0.0
 40
5.9972220420999998
  1
éoéXéTü|éU
  0
ENDBLK
  5
37D
  8
0
  0
ENDSEC
  0
SECTION
  2
ENTITIES
  0
LINE
  5
2F
  8
┌▓È_1
 62
     5
 10
96.701822916699996
 20
-114.319888453
 30
0.0
 11
96.701822916699996
 21
-101.0510416667
 31
0.0
  0
ARC
  5
30
  8
┌▓È_1
 62
     5
 10
95.901822916699999
 20
-221.0510416667
 30
0.0
 40
0.8
 50
270.0
 51
0.0
  0
LINE
  5
31
  8
┌▓È_1
 62
     5
 10
96.701822916699996
 20
-274.31988845299998
 30
0.0
 11
96.701822916699996
 21
-261.05104166669997
 31
0.0
  0
LINE
  5
32
  8
┌▓È_1
 62
     5
 10
94.201822916699996
 20
-273.51988845299991
 30
0.0
 11
94.201822916699996
 21
-261.85104166669998
 31
0.0
  0
LINE
  5
33
  8
┌▓È_1
 62
     5
 10
94.201822916699996
 20
-261.85104166669998
 30
0.0
 11
95.901822916699999
 21
-261.85104166669998
 31
0.0
  0
LINE
  5
34
  8
┌▓È_1
 62
     5
 10
94.201822916699996
 20
-193.51988845299999
 30
0.0
 11
95.901822916699999
 21
-193.51988845299999
 31
0.0
  0
ARC
  5
35
  8
┌▓È_1
 62
     5
 10
95.901822916699999
 20
-234.319888453
 30
0.0
 40
0.8
 50
0.0
 51
90.0
  0
LINE
  5
36
  8
┌▓È_1
 62
     5
 10
96.701822916699996
 20
-74.319888453000004
 30
0.0
 11
96.701822916699996
 21
-61.051041666700002
 31
0.0
  0
LINE
  5
37
  8
┌▓È_1
 62
     5
 10
98.20182291670001
 20
-56.7010416667
 30
0.0
 11
99.701822916699996
 21
-56.7010416667
 31
0.0
  0
ARC
  5
38
  8
┌▓È_1
 62
     5
 10
98.20182291670001
 20
-58.2010416667
 30
0.0
 40
1.5
 50
90.0
 51
180.0
  0
LINE
  5
39
  8
┌▓È_1
 62
     5
 10
96.701822916699996
 20
-61.051041666700002
 30
0.0
 11
96.701822916699996
 21
-58.2010416667
 31
0.0
  0
LINE
  5
3A
  8
┌▓È_1
 62
     5
 10
92.341213546500001
 20
-67.701041666700007
 30
0.0
 11
101.7357340944
 21
-67.701041666700007
 31
0.0
  0
ARC
  5
3B
  8
┌▓È_1
 62
     5
 10
285.20781249999999
 20
-267.70104166670001
 30
0.0
 40
11.0
 50
180.0
 51
0.0
  0
CIRCLE
  5
3C
  8
┌▓È_1
 62
     5
 10
285.20781249999999
 20
-267.70104166670001
 30
0.0
 40
5.1500000000000004
  0
LINE
  5
3D
  8
┌▓È_1
 62
     5
 10
96.701822916699996
 20
-74.319888453000004
 30
0.0
 11
96.701822916699996
 21
-101.0510416667
 31
0.0
  0
ARC
  5
3E
  8
┌▓È_1
 62
     5
 10
95.901822916699999
 20
-74.319888453000004
 30
0.0
 40
0.8
 50
0.0
 51
90.0
  0
LINE
  5
3F
  8
┌▓È_1
 62
     5
 10
94.201822916699996
 20
-61.851041666699999
 30
0.0
 11
95.901822916699999
 21
-61.851041666699999
 31
0.0
  0
ARC
  5
40
  8
┌▓È_1
 62
     5
 10
95.901822916699999
 20
-61.051041666700002
 30
0.0
 40
0.8
 50
270.0
 51
0.0
  0
LINE
  5
41
  8
┌▓È_1
 62
     5
 10
274.90781249999998
 20
-267.70104166670001
 30
0.0
 11
274.90781249999998
 21
-67.701041666700007
 31
0.0
  0
LINE
  5
42
  8
┌▓È_1
 62
     5
 10
274.20781249999999
 20
-267.70104166670001
 30
0.0
 11
274.20781249999999
 21
-67.701041666700007
 31
0.0
  0
LINE
  5
43
  8
┌▓È_1
 62
     5
 10
296.20781249999999
 20
-67.701041264099999
 30
0.0
 11
296.20781249999999
 21
-267.70104166670001
 31
0.0
  0
LINE
  5
44
  8
┌▓È_1
 62
     5
 10
285.20781249999999
 20
-283.97887369789999
 30
0.0
 11
285.20781249999999
 21
-52.075716145800001
 31
0.0
  0
LINE
  5
45
  8
┌▓È_1
 62
     5
 10
94.201822916699996
 20
-73.519888453000007
 30
0.0
 11
94.201822916699996
 21
-61.851041666699999
 31
0.0
  0
LINE
  5
46
  8
┌▓È_1
 62
     5
 10
94.201822916699996
 20
-73.519888453000007
 30
0.0
 11
95.901822916699999
 21
-73.519888453000007
 31
0.0
  0
ARC
  5
47
  8
┌▓È_1
 62
     5
 10
95.901822916699999
 20
-114.319888453
 30
0.0
 40
0.8
 50
0.0
 51
90.0
  0
LINE
  5
48
  8
┌▓È_1
 62
     5
 10
94.201822916699996
 20
-101.8510416667
 30
0.0
 11
95.901822916699999
 21
-101.8510416667
 31
0.0
  0
ARC
  5
49
  8
┌▓È_1
 62
     5
 10
95.901822916699999
 20
-101.0510416667
 30
0.0
 40
0.8
 50
270.0
 51
0.0
  0
LINE
  5
4A
  8
┌▓È_1
 62
     5
 10
94.201822916699996
 20
-153.51988845299999
 30
0.0
 11
94.201822916699996
 21
-141.85104166670001
 31
0.0
  0
LINE
  5
4B
  8
┌▓È_1
 62
     5
 10
94.201822916699996
 20
-153.51988845299999
 30
0.0
 11
95.901822916699999
 21
-153.51988845299999
 31
0.0
  0
ARC
  5
4C
  8
┌▓È_1
 62
     5
 10
95.901822916699999
 20
-154.319888453
 30
0.0
 40
0.8
 50
0.0
 51
90.0
  0
LINE
  5
4D
  8
┌▓È_1
 62
     5
 10
94.201822916699996
 20
-141.85104166670001
 30
0.0
 11
95.901822916699999
 21
-141.85104166670001
 31
0.0
  0
LINE
  5
4E
  8
┌▓È_1
 62
     5
 10
92.167240943699994
 20
-147.70104166670001
 30
0.0
 11
101.1558254186
 21
-147.70104166670001
 31
0.0
  0
LINE
  5
4F
  8
┌▓È_1
 62
     5
 10
96.701822916699996
 20
-274.31988845299998
 30
0.0
 11
96.701822916699996
 21
-277.20104166670001
 31
0.0
  0
LINE
  5
50
  8
┌▓È_1
 62
     5
 10
96.701822916699996
 20
-194.319888453
 30
0.0
 11
96.701822916699996
 21
-221.0510416667
 31
0.0
  0
LINE
  5
51
  8
┌▓È_1
 62
     5
 10
91.123405327300006
 20
-227.70104166670001
 30
0.0
 11
102.2576519026
 21
-227.70104166670001
 31
0.0
  0
LINE
  5
52
  8
┌▓È_1
 62
     5
 10
92.167240943699994
 20
-107.70104166669999
 30
0.0
 11
101.1558254186
 21
-107.70104166669999
 31
0.0
  0
LINE
  5
53
  8
┌▓È_1
 62
     5
 10
96.701822916699996
 20
-154.319888453
 30
0.0
 11
96.701822916699996
 21
-141.0510416667
 31
0.0
  0
LINE
  5
54
  8
┌▓È_1
 62
     5
 10
94.201822916699996
 20
-113.51988845299999
 30
0.0
 11
95.901822916699999
 21
-113.51988845299999
 31
0.0
  0
LINE
  5
55
  8
┌▓È_1
 62
     5
 10
96.701822916699996
 20
-114.319888453
 30
0.0
 11
96.701822916699996
 21
-141.0510416667
 31
0.0
  0
CIRCLE
  5
56
  8
┌▓È_1
 62
     5
 10
285.20781249999999
 20
-247.70104166670001
 30
0.0
 40
1.6000000000000001
  0
LINE
  5
57
  8
┌▓È_1
 62
     5
 10
292.1158854167
 20
-247.70104166670001
 30
0.0
 11
278.0598958333
 21
-247.70104166670001
 31
0.0
  0
CIRCLE
  5
58
  8
┌▓È_1
 62
     5
 10
285.20781249999999
 20
-227.70104166670001
 30
0.0
 40
6.0
  0
CIRCLE
  5
59
  8
┌▓È_1
 62
     5
 10
285.20781249999999
 20
-227.70104166670001
 30
0.0
 40
5.1500000000000004
  0
LINE
  5
5A
  8
┌▓È_1
 62
     5
 10
91.529341400300012
 20
-187.70104166670001
 30
0.0
 11
101.2718071538
 21
-187.70104166670001
 31
0.0
  0
LINE
  5
5B
  8
┌▓È_1
 62
     5
 10
96.701822916699996
 20
-234.319888453
 30
0.0
 11
96.701822916699996
 21
-261.05104166669997
 31
0.0
  0
LINE
  5
5C
  8
┌▓È_1
 62
     5
 10
94.201822916699996
 20
-193.51988845299999
 30
0.0
 11
94.201822916699996
 21
-181.85104166670001
 31
0.0
  0
LINE
  5
5D
  8
┌▓È_1
 62
     5
 10
94.201822916699996
 20
-221.85104166670001
 30
0.0
 11
95.901822916699999
 21
-221.85104166670001
 31
0.0
  0
CIRCLE
  5
5E
  8
┌▓È_1
 62
     5
 10
285.20781249999999
 20
-187.70104166670001
 30
0.0
 40
6.0
  0
CIRCLE
  5
5F
  8
┌▓È_1
 62
     5
 10
285.20781249999999
 20
-187.70104166670001
 30
0.0
 40
5.1500000000000004
  0
LINE
  5
60
  8
┌▓È_1
 62
     5
 10
277.43037651909998
 20
-227.70104166670001
 30
0.0
 11
293.30537651909998
 21
-227.70104166670001
 31
0.0
  0
LINE
  5
61
  8
┌▓È_1
 62
     5
 10
277.606765408
 20
-187.70104166670001
 30
0.0
 11
294.77528392649998
 21
-187.70104166670001
 31
0.0
  0
ARC
  5
62
  8
┌▓È_1
 62
     5
 10
95.901822916699999
 20
-261.05104166669997
 30
0.0
 40
0.8
 50
270.0
 51
0.0
  0
LINE
  5
63
  8
┌▓È_1
 62
     5
 10
94.201822916699996
 20
-273.51988845299991
 30
0.0
 11
95.901822916699999
 21
-273.51988845299991
 31
0.0
  0
ARC
  5
64
  8
┌▓È_1
 62
     5
 10
95.901822916699999
 20
-274.31988845299998
 30
0.0
 40
0.8
 50
0.0
 51
90.0
  0
LINE
  5
65
  8
┌▓È_1
 62
     5
 10
89.990004087199978
 20
-267.70104166670001
 30
0.0
 11
98.53093975969999
 21
-267.70104166670001
 31
0.0
  0
LINE
  5
66
  8
┌▓È_1
 62
     5
 10
96.701822916699996
 20
-234.319888453
 30
0.0
 11
96.701822916699996
 21
-221.0510416667
 31
0.0
  0
ARC
  5
67
  8
┌▓È_1
 62
     5
 10
95.901822916699999
 20
-194.319888453
 30
0.0
 40
0.8
 50
0.0
 51
90.0
  0
LINE
  5
68
  8
┌▓È_1
 62
     5
 10
96.701822916699996
 20
-194.319888453
 30
0.0
 11
96.701822916699996
 21
-181.0510416667
 31
0.0
  0
LINE
  5
69
  8
┌▓È_1
 62
     5
 10
94.201822916699996
 20
-181.85104166670001
 30
0.0
 11
95.901822916699999
 21
-181.85104166670001
 31
0.0
  0
ARC
  5
6A
  8
┌▓È_1
 62
     5
 10
95.901822916699999
 20
-181.0510416667
 30
0.0
 40
0.8
 50
270.0
 51
0.0
  0
LINE
  5
6B
  8
┌▓È_1
 62
     5
 10
94.201822916699996
 20
-233.51988845299999
 30
0.0
 11
95.901822916699999
 21
-233.51988845299999
 31
0.0
  0
ARC
  5
6C
  8
┌▓È_1
 62
     5
 10
285.20781249999999
 20
-267.70104166670001
 30
0.0
 40
10.300000000000001
 50
180.0
 51
0.0
  0
LINE
  5
6D
  8
┌▓È_1
 62
     5
 10
91.413359665200005
 20
-267.70104166670001
 30
0.0
 11
101.793724962
 21
-267.70104166670001
 31
0.0
  0
LINE
  5
6E
  8
┌▓È_1
 62
     5
 10
94.201822916699996
 20
-233.51988845299999
 30
0.0
 11
94.201822916699996
 21
-221.85104166670001
 31
0.0
  0
CIRCLE
  5
6F
  8
┌▓È_1
 62
     5
 10
285.20781249999999
 20
-267.70104166670001
 30
0.0
 40
6.0
  0
CIRCLE
  5
70
  8
┌▓È_1
 62
     5
 10
285.20781249999999
 20
-247.70104166670001
 30
0.0
 40
3.5
  0
LINE
  5
71
  8
┌▓È_1
 62
     5
 10
279.20712780899999
 20
-278.70104166670001
 30
0.0
 11
246.48203417600001
 21
-278.70104166670001
 31
0.0
  0
LINE
  5
72
  8
┌▓È_1
 62
     5
 10
295.55028392650001
 20
-67.701041666700007
 30
0.0
 11
295.50781226779992
 21
-267.70322893310009
 31
0.0
  0
LINE
  5
73
  8
┌▓È_1
 62
     5
 10
296.20781249999999
 20
-19.992231903
 30
0.0
 11
296.20781249999999
 21
-4.3614626723000001
 31
0.0
  0
CIRCLE
  5
74
  8
┌▓È_1
 62
     5
 10
285.20781249999999
 20
-87.701041666699993
 30
0.0
 40
3.5
  0
CIRCLE
  5
75
  8
┌▓È_1
 62
     5
 10
285.20781249999999
 20
-87.701041666699993
 30
0.0
 40
1.6000000000000001
  0
LINE
  5
76
  8
┌▓È_1
 62
     5
 10
279.23864850429999
 20
-87.701041666699993
 30
0.0
 11
292.3728365385
 21
-87.701041666699993
 31
0.0
  0
CIRCLE
  5
77
  8
┌▓È_1
 62
     5
 10
285.20781249999999
 20
-147.70104166670001
 30
0.0
 40
5.1500000000000004
  0
LINE
  5
78
  8
┌▓È_1
 62
     5
 10
293.6744791667
 20
-107.70104166669999
 30
0.0
 11
276.74114583329998
 21
-107.70104166669999
 31
0.0
  0
CIRCLE
  5
79
  8
┌▓È_1
 62
     5
 10
285.20781249999999
 20
-107.70104166669999
 30
0.0
 40
6.0
  0
CIRCLE
  5
7A
  8
┌▓È_1
 62
     5
 10
285.20781249999999
 20
-107.70104166669999
 30
0.0
 40
5.1500000000000004
  0
LINE
  5
7B
  8
┌▓È_1
 62
     5
 10
293.7757468895
 20
-147.70104166670001
 30
0.0
 11
276.84241355609998
 21
-147.70104166670001
 31
0.0
  0
CIRCLE
  5
7C
  8
┌▓È_1
 62
     5
 10
285.20781249999999
 20
-147.70104166670001
 30
0.0
 40
6.0
  0
CIRCLE
  5
7D
  8
┌▓È_1
 62
     5
 10
285.20781249999999
 20
-67.701041666700007
 30
0.0
 40
5.1500000000000004
  0
CIRCLE
  5
7E
  8
┌▓È_1
 62
     5
 10
285.20781249999999
 20
-67.701041666700007
 30
0.0
 40
6.0
  0
LINE
  5
7F
  8
┌▓È_1
 62
     5
 10
96.701822916699996
 20
-154.319888453
 30
0.0
 11
96.701822916699996
 21
-181.0510416667
 31
0.0
  0
LINE
  5
80
  8
┌▓È_1
 62
     5
 10
99.701822916699996
 20
-278.70104166670001
 30
0.0
 11
99.701822916699996
 21
-56.7010416667
 31
0.0
  0
ARC
  5
81
  8
┌▓È_1
 62
     5
 10
285.20781249999999
 20
-67.701041666700007
 30
0.0
 40
11.0
 50
360.0
 51
180.0
  0
LINE
  5
82
  8
┌▓È_1
 62
     5
 10
293.30537651909998
 20
-67.701041666700007
 30
0.0
 11
277.19519133390003
 21
-67.701041666700007
 31
0.0
  0
ARC
  5
83
  8
┌▓È_1
 62
     5
 10
285.2502839265
 20
-67.701041666700007
 30
0.0
 40
10.300000000000001
 50
0.0
 51
180.0
  0
ARC
  5
84
  8
┌▓È_1
 62
     5
 10
95.901822916699999
 20
-141.0510416667
 30
0.0
 40
0.8
 50
270.0
 51
0.0
  0
LINE
  5
85
  8
┌▓È_1
 62
     5
 10
94.201822916699996
 20
-113.51988845299999
 30
0.0
 11
94.201822916699996
 21
-101.8510416667
 31
0.0
  0
LINE
  5
86
  8
┌▓È_1
 62
     5
 10
-50.324464653
 20
-161.88759235539999
 30
0.0
 11
-55.298177083299997
 21
-161.88759235539999
 31
0.0
  0
LINE
  5
87
  8
┌▓È_1
 62
     5
 10
-65.298177083300004
 20
-166.8613047858
 30
0.0
 11
-60.324464653
 21
-161.88759235539999
 31
0.0
  0
LINE
  5
88
  8
┌▓È_1
 62
     5
 10
-65.298177083300004
 20
-161.88759235539999
 30
0.0
 11
-60.324464653
 21
-161.88759235539999
 31
0.0
  0
LINE
  5
89
  8
┌▓È_1
 62
     5
 10
-65.298177083300004
 20
-166.8613047858
 30
0.0
 11
-70.324464653000007
 21
-171.88759235539999
 31
0.0
  0
LINE
  5
8A
  8
┌▓È_1
 62
     5
 10
-70.324464653000007
 20
-171.88759235539999
 30
0.0
 11
-65.298177083300004
 21
-171.88759235539999
 31
0.0
  0
LINE
  5
8B
  8
┌▓È_1
 62
     5
 10
-200.69817708330001
 20
-128.08111416189999
 30
0.0
 11
-200.69817708330001
 21
-129.18111416190001
 31
0.0
  0
LINE
  5
8C
  8
┌▓È_1
 62
     5
 10
-198.7981770833
 20
-128.08111416189999
 30
0.0
 11
-199.8981770833
 21
-128.08111416189999
 31
0.0
  0
CIRCLE
  5
8D
  8
┌▓È_1
 62
     5
 10
-200.2981770833
 20
-87.681114161899998
 30
0.0
 40
3.3500000000000001
  0
LINE
  5
8E
  8
┌▓È_1
 62
     5
 10
-199.8981770833
 20
-87.281114161900007
 30
0.0
 11
-199.8981770833
 21
-86.181114161899998
 31
0.0
  0
LINE
  5
8F
  8
┌▓È_1
 62
     5
 10
-200.69817708330001
 20
-86.181114161899998
 30
0.0
 11
-200.69817708330001
 21
-87.281114161900007
 31
0.0
  0
LINE
  5
90
  8
┌▓È_1
 62
     5
 10
-199.8981770833
 20
-86.181114161899998
 30
0.0
 11
-200.69817708330001
 21
-86.181114161899998
 31
0.0
  0
CIRCLE
  5
91
  8
┌▓È_1
 62
     5
 10
-200.2981770833
 20
-127.6811141619
 30
0.0
 40
3.3500000000000001
  0
LINE
  5
92
  8
┌▓È_1
 62
     5
 10
-199.8981770833
 20
-127.28111416190001
 30
0.0
 11
-198.7981770833
 21
-127.28111416190001
 31
0.0
  0
LINE
  5
93
  8
┌▓È_1
 62
     5
 10
-200.69817708330001
 20
-89.181114161899984
 30
0.0
 11
-199.8981770833
 21
-89.181114161899984
 31
0.0
  0
LINE
  5
94
  8
┌▓È_1
 62
     5
 10
-201.7981770833
 20
-88.081114161900004
 30
0.0
 11
-201.7981770833
 21
-87.281114161900007
 31
0.0
  0
LINE
  5
95
  8
┌▓È_1
 62
     5
 10
-198.7981770833
 20
-88.081114161900004
 30
0.0
 11
-199.8981770833
 21
-88.081114161900004
 31
0.0
  0
LINE
  5
96
  8
┌▓È_1
 62
     5
 10
-199.8981770833
 20
-89.181114161899984
 30
0.0
 11
-199.8981770833
 21
-88.081114161900004
 31
0.0
  0
LINE
  5
97
  8
┌▓È_1
 62
     5
 10
-200.69817708330001
 20
-88.081114161900004
 30
0.0
 11
-200.69817708330001
 21
-89.181114161899984
 31
0.0
  0
LINE
  5
98
  8
┌▓È_1
 62
     5
 10
-55.298177083299997
 20
-166.8613047858
 30
0.0
 11
-60.324464653
 21
-171.88759235539999
 31
0.0
  0
DIMENSION
  5
A8
  8
Éíû@É³
 62
     5
  2
*D0
 10
285.20781249999999
 20
-22.075716145800001
 30
0.0
 11
253.74413986210001
 21
-22.075716145800001
 31
0.0
 70
   128
  1
<>
 13
285.20781249999999
 23
-52.075716145800001
 33
0.0
 14
274.20781249999999
 24
-67.701041666700007
 34
0.0
  0
DIMENSION
  5
B6
  8
Éíû@É³
 62
     5
  2
*D1
 10
248.0598956051
 20
-56.7010416667
 30
0.0
 11
248.0598956051
 21
-72.201041666700007
 31
0.0
 70
   128
  1
<>
 13
285.20781249999999
 23
-56.7010416667
 33
0.0
 14
279.23864850429999
 24
-87.701041666699993
 34
0.0
 50
90.0
  0
DIMENSION
  5
C4
  8
Éíû@É³
 62
     5
  2
*D2
 10
248.0598958333
 20
-247.70104166670001
 30
0.0
 11
248.0598958333
 21
-263.20104166670001
 31
0.0
 70
   128
  1
<>
 13
278.0598958333
 23
-247.70104166670001
 33
0.0
 14
285.20781249999999
 24
-278.70104166670001
 34
0.0
 50
90.0
  0
DIMENSION
  5
D2
  8
Éíû@É³
 62
     5
  2
*D3
 10
248.0598958333
 20
-87.701041666699993
 30
0.0
 11
248.0598958333
 21
-167.70104166670001
 31
0.0
 70
   128
  1
<>
 13
279.23864850429999
 23
-87.701041666699993
 33
0.0
 14
278.0598958333
 24
-247.70104166670001
 34
0.0
 50
90.0
  0
LINE
  5
D3
  8
┌▓È_1
 62
     5
 10
98.20182291670001
 20
-278.70104166670001
 30
0.0
 11
99.701822916699996
 21
-278.70104166670001
 31
0.0
  0
ARC
  5
D4
  8
┌▓È_1
 62
     5
 10
98.20182291670001
 20
-277.20104166670001
 30
0.0
 40
1.5
 50
180.0
 51
270.0
  0
LINE
  5
D5
  8
┌▓È_1
  6
BORDER
 62
     5
 10
-204.13957301190001
 20
-247.68111416190001
 30
0.0
 11
-196.808678703
 21
-247.68111416190001
 31
0.0
  0
ARC
  5
D6
  8
┌▓È_1
 62
     5
 10
-196.5481770833
 20
-272.08139415459999
 30
0.0
 40
1.0
 50
270.0
 51
0.0
  0
LINE
  5
D7
  8
┌▓È_1
 62
     5
 10
-195.5481770833
 20
-113.43524311420001
 30
0.0
 11
-205.0481770833
 21
-113.43524311420001
 31
0.0
  0
LINE
  5
D8
  8
┌▓È_1
  6
BORDER
 62
     5
 10
-191.67864583330001
 20
-147.68111416190001
 30
0.0
 11
-209.41399739580001
 21
-147.68111416190001
 31
0.0
  0
LINE
  5
D9
  8
┌▓È_1
 62
     5
 10
-195.5481770833
 20
-153.43524311420001
 30
0.0
 11
-205.0481770833
 21
-153.43524311420001
 31
0.0
  0
LINE
  5
DA
  8
┌▓È_1
 62
     5
 10
-199.8981770833
 20
-129.18111416190001
 30
0.0
 11
-199.8981770833
 21
-128.08111416189999
 31
0.0
  0
LINE
  5
DB
  8
┌▓È_1
 62
     5
 10
-199.8981770833
 20
-166.18111416190001
 30
0.0
 11
-200.69817708330001
 21
-166.18111416190001
 31
0.0
  0
LINE
  5
DC
  8
┌▓È_1
 62
     5
 10
-200.69817708330001
 20
-166.18111416190001
 30
0.0
 11
-200.69817708330001
 21
-167.28111416190001
 31
0.0
  0
LINE
  5
DD
  8
┌▓È_1
 62
     5
 10
-195.5481770833
 20
-102.0022058161
 30
0.0
 11
-205.0481770833
 21
-102.0022058161
 31
0.0
  0
LINE
  5
DE
  8
┌▓È_1
  6
BORDER
 62
     5
 10
-204.13957301190001
 20
-167.68111416190001
 30
0.0
 11
-196.808678703
 21
-167.68111416190001
 31
0.0
  0
LINE
  5
DF
  8
┌▓È_1
 62
     5
 10
-200.69817708330001
 20
-168.08111416189999
 30
0.0
 11
-200.69817708330001
 21
-169.18111416190001
 31
0.0
  0
LINE
  5
E0
  8
┌▓È_1
 62
     5
 10
-201.7981770833
 20
-167.28111416190001
 30
0.0
 11
-200.69817708330001
 21
-167.28111416190001
 31
0.0
  0
LINE
  5
E1
  8
┌▓È_1
 62
     5
 10
-199.8981770833
 20
-167.28111416190001
 30
0.0
 11
-198.7981770833
 21
-167.28111416190001
 31
0.0
  0
CIRCLE
  5
E2
  8
┌▓È_1
 62
     5
 10
-200.2981770833
 20
-167.68111416190001
 30
0.0
 40
3.3500000000000001
  0
LINE
  5
E3
  8
┌▓È_1
 62
     5
 10
-198.7981770833
 20
-167.28111416190001
 30
0.0
 11
-198.7981770833
 21
-168.08111416189999
 31
0.0
  0
LINE
  5
E4
  8
┌▓È_1
 62
     5
 10
-198.7981770833
 20
-127.28111416190001
 30
0.0
 11
-198.7981770833
 21
-128.08111416189999
 31
0.0
  0
LINE
  5
E5
  8
┌▓È_1
 62
     5
 10
-65.298177083300004
 20
-112.70104166669999
 30
0.0
 11
-195.5481770833
 21
-112.70104166669999
 31
0.0
  0
LINE
  5
E6
  8
┌▓È_1
 62
     5
 10
-195.5481770833
 20
-102.70104166669999
 30
0.0
 11
-65.298177083300004
 21
-102.70104166669999
 31
0.0
  0
LINE
  5
E7
  8
┌▓È_1
 62
     5
 10
-200.69817708330001
 20
-88.081114161900004
 30
0.0
 11
-201.7981770833
 21
-88.081114161900004
 31
0.0
  0
LINE
  5
E8
  8
┌▓È_1
  6
BORDER
 62
     5
 10
-191.67864583330001
 20
-187.68111416190001
 30
0.0
 11
-209.41399739580001
 21
-187.68111416190001
 31
0.0
  0
LINE
  5
E9
  8
┌▓È_1
  6
BORDER
 62
     5
 10
-204.13957301190001
 20
-207.68111416190001
 30
0.0
 11
-196.808678703
 21
-207.68111416190001
 31
0.0
  0
LINE
  5
EA
  8
┌▓È_1
 62
     5
 10
-195.7632968627
 20
-62.7010416667
 30
0.0
 11
-65.298177083300004
 21
-62.7010416667
 31
0.0
  0
LINE
  5
EB
  8
┌▓È_1
 62
     5
 10
-200.69817708330001
 20
-169.18111416190001
 30
0.0
 11
-199.8981770833
 21
-169.18111416190001
 31
0.0
  0
LINE
  5
EC
  8
┌▓È_1
 62
     5
 10
-55.298177083299997
 20
-171.88759235539999
 30
0.0
 11
-60.324464653
 21
-171.88759235539999
 31
0.0
  0
LINE
  5
ED
  8
┌▓È_1
 62
     5
 10
-55.298177083299997
 20
-166.8613047858
 30
0.0
 11
-50.324464653
 21
-161.88759235539999
 31
0.0
  0
LINE
  5
EE
  8
┌▓È_1
 62
     5
 10
-195.5481770833
 20
-63.3206891787
 30
0.0
 11
-195.5481770833
 21
-272.08139415459999
 31
0.0
  0
LINE
  5
EF
  8
┌▓È_1
 62
     5
 10
-205.0481770833
 20
-272.08139415459999
 30
0.0
 11
-205.0481770833
 21
-63.3206891787
 31
0.0
  0
LINE
  5
F0
  8
┌▓È_1
 62
     5
 10
-199.8981770833
 20
-126.1811141619
 30
0.0
 11
-200.69817708330001
 21
-126.1811141619
 31
0.0
  0
LINE
  5
F1
  8
┌▓È_1
 62
     5
 10
-200.69817708330001
 20
-126.1811141619
 30
0.0
 11
-200.69817708330001
 21
-127.28111416190001
 31
0.0
  0
LINE
  5
F2
  8
┌▓È_1
  6
BORDER
 62
     5
 10
-191.67864583330001
 20
-107.6811141619
 30
0.0
 11
-209.41399739580001
 21
-107.6811141619
 31
0.0
  0
LINE
  5
F3
  8
┌▓È_1
  6
BORDER
 62
     5
 10
-204.13957301190001
 20
-127.6811141619
 30
0.0
 11
-196.808678703
 21
-127.6811141619
 31
0.0
  0
LINE
  5
F4
  8
┌▓È_1
 62
     5
 10
-195.5481770833
 20
-141.9269852095
 30
0.0
 11
-205.0481770833
 21
-141.9269852095
 31
0.0
  0
LINE
  5
F5
  8
┌▓È_1
 62
     5
 10
-201.7981770833
 20
-168.08111416189999
 30
0.0
 11
-201.7981770833
 21
-167.28111416190001
 31
0.0
  0
LINE
  5
F6
  8
┌▓È_1
 62
     5
 10
-198.7981770833
 20
-87.281114161900007
 30
0.0
 11
-198.7981770833
 21
-88.081114161900004
 31
0.0
  0
LINE
  5
F7
  8
┌▓È_1
 62
     5
 10
-201.7981770833
 20
-87.281114161900007
 30
0.0
 11
-200.69817708330001
 21
-87.281114161900007
 31
0.0
  0
LINE
  5
F8
  8
┌▓È_1
 62
     5
 10
-199.8981770833
 20
-87.281114161900007
 30
0.0
 11
-198.7981770833
 21
-87.281114161900007
 31
0.0
  0
LINE
  5
F9
  8
┌▓È_1
 62
     5
 10
-201.7981770833
 20
-128.08111416189999
 30
0.0
 11
-201.7981770833
 21
-127.28111416190001
 31
0.0
  0
LINE
  5
FA
  8
┌▓È_1
 62
     5
 10
-200.69817708330001
 20
-129.18111416190001
 30
0.0
 11
-199.8981770833
 21
-129.18111416190001
 31
0.0
  0
LINE
  5
FB
  8
┌▓È_1
 62
     5
 10
-55.298177083299997
 20
-44.971070410799989
 30
0.0
 11
-55.298177083299997
 21
-161.88759235539999
 31
0.0
  0
LINE
  5
FC
  8
┌▓È_1
 62
     5
 10
-65.298177083300004
 20
-44.971070410799989
 30
0.0
 11
-65.298177083300004
 21
-161.88759235539999
 31
0.0
  0
ARC
  5
FD
  8
┌▓È_1
 62
     5
 10
-196.5481770833
 20
-63.3206891787
 30
0.0
 40
1.0
 50
0.0
 51
90.0
  0
LINE
  5
FE
  8
┌▓È_1
 62
     5
 10
-195.5481770833
 20
-73.435243114200006
 30
0.0
 11
-205.0481770833
 21
-73.435243114200006
 31
0.0
  0
LINE
  5
FF
  8
┌▓È_1
  6
BORDER
 62
     5
 10
-191.67864583330001
 20
-67.681114161899998
 30
0.0
 11
-209.41399739580001
 21
-67.681114161899998
 31
0.0
  0
ARC
  5
100
  8
┌▓È_1
 62
     5
 10
-204.0481770833
 20
-63.3206891787
 30
0.0
 40
1.0
 50
90.0
 51
180.0
  0
LINE
  5
101
  8
┌▓È_1
 62
     5
 10
-65.298177083300004
 20
-72.701041666700007
 30
0.0
 11
-195.5481770833
 21
-72.701041666700007
 31
0.0
  0
LINE
  5
102
  8
┌▓È_1
 62
     5
 10
-199.8981770833
 20
-127.28111416190001
 30
0.0
 11
-199.8981770833
 21
-126.1811141619
 31
0.0
  0
LINE
  5
103
  8
┌▓È_1
 62
     5
 10
-200.69817708330001
 20
-128.08111416189999
 30
0.0
 11
-201.7981770833
 21
-128.08111416189999
 31
0.0
  0
LINE
  5
104
  8
┌▓È_1
 62
     5
 10
-201.7981770833
 20
-127.28111416190001
 30
0.0
 11
-200.69817708330001
 21
-127.28111416190001
 31
0.0
  0
LINE
  5
105
  8
┌▓È_1
 62
     5
 10
-195.5481770833
 20
-222.19471118370001
 30
0.0
 11
-205.0481770833
 21
-222.19471118370001
 31
0.0
  0
LINE
  5
106
  8
┌▓È_1
  6
BORDER
 62
     5
 10
-191.67864583330001
 20
-227.68111416190001
 30
0.0
 11
-209.41399739580001
 21
-227.68111416190001
 31
0.0
  0
LINE
  5
107
  8
┌▓È_1
 62
     5
 10
-195.5481770833
 20
-262.70104166670001
 30
0.0
 11
-65.298177083300004
 21
-262.70104166670001
 31
0.0
  0
LINE
  5
108
  8
┌▓È_1
 62
     5
 10
-65.298177083300004
 20
-232.70104166670001
 30
0.0
 11
-195.5481770833
 21
-232.70104166670001
 31
0.0
  0
LINE
  5
109
  8
┌▓È_1
 62
     5
 10
-195.5481770833
 20
-222.70104166670001
 30
0.0
 11
-65.298177083300004
 21
-222.70104166670001
 31
0.0
  0
LINE
  5
10A
  8
┌▓È_1
 62
     5
 10
-65.298177083300004
 20
-192.70104166670001
 30
0.0
 11
-195.5481770833
 21
-192.70104166670001
 31
0.0
  0
LINE
  5
10B
  8
┌▓È_1
 62
     5
 10
-195.5481770833
 20
-182.70104166670001
 30
0.0
 11
-65.298177083300004
 21
-182.70104166670001
 31
0.0
  0
LINE
  5
10C
  8
┌▓È_1
 62
     5
 10
-195.5481770833
 20
-193.2280199583
 30
0.0
 11
-205.0481770833
 21
-193.2280199583
 31
0.0
  0
LINE
  5
10D
  8
┌▓È_1
 62
     5
 10
-199.8981770833
 20
-246.18111416190001
 30
0.0
 11
-200.69817708330001
 21
-246.18111416190001
 31
0.0
  0
LINE
  5
10E
  8
┌▓È_1
 62
     5
 10
-199.8981770833
 20
-207.28111416190001
 30
0.0
 11
-199.8981770833
 21
-206.18111416190001
 31
0.0
  0
LINE
  5
10F
  8
┌▓È_1
 62
     5
 10
-198.7981770833
 20
-207.28111416190001
 30
0.0
 11
-198.7981770833
 21
-208.08111416189999
 31
0.0
  0
LINE
  5
110
  8
┌▓È_1
 62
     5
 10
-201.7981770833
 20
-208.08111416189999
 30
0.0
 11
-201.7981770833
 21
-207.28111416190001
 31
0.0
  0
LINE
  5
111
  8
┌▓È_1
 62
     5
 10
-200.69817708330001
 20
-246.18111416190001
 30
0.0
 11
-200.69817708330001
 21
-247.28111416190001
 31
0.0
  0
LINE
  5
112
  8
┌▓È_1
 62
     5
 10
-199.8981770833
 20
-169.18111416190001
 30
0.0
 11
-199.8981770833
 21
-168.08111416189999
 31
0.0
  0
LINE
  5
113
  8
┌▓È_1
 62
     5
 10
-199.8981770833
 20
-167.28111416190001
 30
0.0
 11
-199.8981770833
 21
-166.18111416190001
 31
0.0
  0
LINE
  5
114
  8
┌▓È_1
 62
     5
 10
-198.7981770833
 20
-168.08111416189999
 30
0.0
 11
-199.8981770833
 21
-168.08111416189999
 31
0.0
  0
LINE
  5
115
  8
┌▓È_1
 62
     5
 10
-200.69817708330001
 20
-168.08111416189999
 30
0.0
 11
-201.7981770833
 21
-168.08111416189999
 31
0.0
  0
LINE
  5
116
  8
┌▓È_1
 62
     5
 10
-200.69817708330001
 20
-248.08111416189999
 30
0.0
 11
-201.7981770833
 21
-248.08111416189999
 31
0.0
  0
LINE
  5
117
  8
┌▓È_1
 62
     5
 10
-201.7981770833
 20
-247.28111416190001
 30
0.0
 11
-200.69817708330001
 21
-247.28111416190001
 31
0.0
  0
LINE
  5
118
  8
┌▓È_1
 62
     5
 10
-200.69817708330001
 20
-249.18111416190001
 30
0.0
 11
-199.8981770833
 21
-249.18111416190001
 31
0.0
  0
LINE
  5
119
  8
┌▓È_1
 62
     5
 10
-199.8981770833
 20
-206.18111416190001
 30
0.0
 11
-200.69817708330001
 21
-206.18111416190001
 31
0.0
  0
LINE
  5
11A
  8
┌▓È_1
 62
     5
 10
-200.69817708330001
 20
-208.08111416189999
 30
0.0
 11
-201.7981770833
 21
-208.08111416189999
 31
0.0
  0
LINE
  5
11B
  8
┌▓È_1
 62
     5
 10
-200.69817708330001
 20
-209.18111416190001
 30
0.0
 11
-199.8981770833
 21
-209.18111416190001
 31
0.0
  0
LINE
  5
11C
  8
┌▓È_1
 62
     5
 10
-195.5481770833
 20
-182.19471118370001
 30
0.0
 11
-205.0481770833
 21
-182.19471118370001
 31
0.0
  0
LINE
  5
11D
  8
┌▓È_1
 62
     5
 10
-198.7981770833
 20
-208.08111416189999
 30
0.0
 11
-199.8981770833
 21
-208.08111416189999
 31
0.0
  0
LINE
  5
11E
  8
┌▓È_1
 62
     5
 10
-55.298177083299997
 20
-171.88759235539999
 30
0.0
 11
-55.298177083299997
 21
-288.75153916080001
 31
0.0
  0
LINE
  5
11F
  8
┌▓È_1
  6
BORDER
 62
     5
 10
-200.2981770833
 20
-278.48372518159999
 30
0.0
 11
-200.2981770833
 21
-57.597982994100001
 31
0.0
  0
LINE
  5
120
  8
┌▓È_1
 62
     5
 10
-196.5481770833
 20
-273.08139415459999
 30
0.0
 11
-204.0481770833
 21
-273.08139415459999
 31
0.0
  0
LINE
  5
121
  8
┌▓È_1
 62
     5
 10
-199.8981770833
 20
-247.28111416190001
 30
0.0
 11
-198.7981770833
 21
-247.28111416190001
 31
0.0
  0
CIRCLE
  5
122
  8
┌▓È_1
 62
     5
 10
-200.2981770833
 20
-247.68111416190001
 30
0.0
 40
3.3500000000000001
  0
LINE
  5
123
  8
┌▓È_1
 62
     5
 10
-198.7981770833
 20
-247.28111416190001
 30
0.0
 11
-198.7981770833
 21
-248.08111416189999
 31
0.0
  0
LINE
  5
124
  8
┌▓È_1
 62
     5
 10
-200.69817708330001
 20
-248.08111416189999
 30
0.0
 11
-200.69817708330001
 21
-249.18111416190001
 31
0.0
  0
LINE
  5
125
  8
┌▓È_1
 62
     5
 10
-199.8981770833
 20
-249.18111416190001
 30
0.0
 11
-199.8981770833
 21
-248.08111416189999
 31
0.0
  0
LINE
  5
126
  8
┌▓È_1
 62
     5
 10
-199.8981770833
 20
-247.28111416190001
 30
0.0
 11
-199.8981770833
 21
-246.18111416190001
 31
0.0
  0
LINE
  5
127
  8
┌▓È_1
 62
     5
 10
-198.7981770833
 20
-248.08111416189999
 30
0.0
 11
-199.8981770833
 21
-248.08111416189999
 31
0.0
  0
LINE
  5
128
  8
┌▓È_1
 62
     5
 10
-65.298177083300004
 20
-171.88759235539999
 30
0.0
 11
-65.298177083300004
 21
-288.75153916080001
 31
0.0
  0
LINE
  5
129
  8
┌▓È_1
 62
     5
 10
-200.69817708330001
 20
-206.18111416190001
 30
0.0
 11
-200.69817708330001
 21
-207.28111416190001
 31
0.0
  0
LINE
  5
12A
  8
┌▓È_1
 62
     5
 10
-200.69817708330001
 20
-208.08111416189999
 30
0.0
 11
-200.69817708330001
 21
-209.18111416190001
 31
0.0
  0
LINE
  5
12B
  8
┌▓È_1
 62
     5
 10
-199.8981770833
 20
-209.18111416190001
 30
0.0
 11
-199.8981770833
 21
-208.08111416189999
 31
0.0
  0
LINE
  5
12C
  8
┌▓È_1
 62
     5
 10
-201.7981770833
 20
-207.28111416190001
 30
0.0
 11
-200.69817708330001
 21
-207.28111416190001
 31
0.0
  0
LINE
  5
12D
  8
┌▓È_1
 62
     5
 10
-199.8981770833
 20
-207.28111416190001
 30
0.0
 11
-198.7981770833
 21
-207.28111416190001
 31
0.0
  0
LINE
  5
12E
  8
┌▓È_1
 62
     5
 10
-195.5481770833
 20
-233.43524311420001
 30
0.0
 11
-205.0481770833
 21
-233.43524311420001
 31
0.0
  0
ARC
  5
12F
  8
┌▓È_1
 62
     5
 10
-204.0481770833
 20
-272.08139415459999
 30
0.0
 40
1.0
 50
180.0
 51
270.0
  0
LINE
  5
130
  8
┌▓È_1
  6
BORDER
 62
     5
 10
-191.67864583330001
 20
-267.68111416189998
 30
0.0
 11
-209.41399739580001
 21
-267.68111416189998
 31
0.0
  0
LINE
  5
131
  8
┌▓È_1
 62
     5
 10
-195.5481770833
 20
-262.1947111968999
 30
0.0
 11
-205.0481770833
 21
-262.1947111968999
 31
0.0
  0
LINE
  5
132
  8
┌▓È_1
  6
BORDER
 62
     5
 10
-204.13957301190001
 20
-87.681114161899998
 30
0.0
 11
-196.808678703
 21
-87.681114161899998
 31
0.0
  0
LINE
  5
133
  8
┌▓È_1
 62
     5
 10
-65.298177083300004
 20
-152.70104166670001
 30
0.0
 11
-195.5481770833
 21
-152.70104166670001
 31
0.0
  0
LINE
  5
134
  8
┌▓È_1
 62
     5
 10
-195.5481770833
 20
-142.70104166670001
 30
0.0
 11
-65.298177083300004
 21
-142.70104166670001
 31
0.0
  0
LINE
  5
135
  8
┌▓È_1
 62
     5
 10
-204.0481770833
 20
-62.3206891787
 30
0.0
 11
-196.5481770833
 21
-62.3206891787
 31
0.0
  0
LINE
  5
136
  8
┌▓È_1
 62
     5
 10
-201.7981770833
 20
-248.08111416189999
 30
0.0
 11
-201.7981770833
 21
-247.28111416190001
 31
0.0
  0
CIRCLE
  5
137
  8
┌▓È_1
 62
     5
 10
-200.2981770833
 20
-207.68111416190001
 30
0.0
 40
3.3500000000000001
  0
LINE
  5
138
  8
┌▓È_1
 62
     5
 10
-65.298177083300004
 20
-272.70104166670001
 30
0.0
 11
-195.7632968627
 21
-272.70104166670001
 31
0.0
  0
LINE
  5
139
  8
┌▓È_1
 10
308.46028487680002
 20
-638.7400613479
 30
0.0
 11
310.09114466519998
 21
-636.35751912879994
 31
0.0
  0
LINE
  5
13A
  8
┌▓È_1
 10
312.09114466519998
 20
-651.35751912879994
 30
0.0
 11
306.49114466520001
 21
-651.35751912879994
 31
0.0
  0
ARC
  5
13B
  8
┌▓È_1
 10
280.65617936860002
 20
-639.35751912879994
 30
0.0
 40
11.0
 50
270.0
 51
302.54495885400001
  0
LINE
  5
13C
  8
┌▓È_1
 10
253.33496724739999
 20
-643.35751912879994
 30
0.0
 11
253.03275962430001
 21
-643.35751912879994
 31
0.0
  0
LINE
  5
13D
  8
┌▓È_1
 10
293.65617936860002
 20
-647.35751912879994
 30
0.0
 11
293.65617936860002
 21
-650.35751912879994
 31
0.0
  0
LINE
  5
13E
  8
┌▓È_1
 10
253.33496724739999
 20
-646.35751912879994
 30
0.0
 11
258.33496724740002
 21
-646.35751912879994
 31
0.0
  0
LINE
  5
13F
  8
┌▓È_1
 10
253.33496724739999
 20
-643.35751912879994
 30
0.0
 11
253.33496724739999
 21
-646.35751912879994
 31
0.0
  0
LINE
  5
140
  8
┌▓È_1
 62
     5
 10
425.92708344480002
 20
-588.92786506260006
 30
0.0
 11
425.92708344480002
 21
-548.81216351989985
 31
0.0
  0
LINE
  5
141
  8
┌▓È_1
 62
     5
 10
262.56226205040002
 20
-600.65316215760004
 30
0.0
 11
288.90300279119998
 21
-600.65316215760004
 31
0.0
  0
LINE
  5
142
  8
┌▓È_1
 62
     5
 10
300.50547192699997
 20
-600.65316215760004
 30
0.0
 11
329.04127439609999
 21
-600.65316215760004
 31
0.0
  0
LINE
  5
143
  8
┌▓È_1
 62
     5
 10
299.31082252499999
 20
-623.65316215760004
 30
0.0
 11
326.8462126677
 21
-623.65316215760004
 31
0.0
  0
LINE
  5
144
  8
┌▓È_1
 10
255.0136742709
 20
-588.92786506260006
 30
0.0
 11
255.0136742709
 21
-610.92786506259995
 31
0.0
  0
LINE
  5
145
  8
┌▓È_1
 10
267.33496724740002
 20
-644.35751912879994
 30
0.0
 11
267.33496724740002
 21
-643.35751912879994
 31
0.0
  0
POLYLINE
  8
┌▓È_1
  5
37E
  66
     1
 10
0.000000
 20
0.000000
 30
0.000000
  70
     8
  0
VERTEX
  8
┌▓È_1
  5
37F
 10
286.574
 20
-648.630
 30
0.000000
  70
    32
  0
VERTEX
  8
┌▓È_1
  5
380
 10
286.628
 20
-648.647
 30
0.000000
  70
    32
  0
VERTEX
  8
┌▓È_1
  5
381
 10
286.681
 20
-648.664
 30
0.000000
  70
    32
  0
VERTEX
  8
┌▓È_1
  5
382
 10
286.735
 20
-648.681
 30
0.000000
  70
    32
  0
VERTEX
  8
┌▓È_1
  5
383
 10
286.789
 20
-648.698
 30
0.000000
  70
    32
  0
VERTEX
  8
┌▓È_1
  5
384
 10
286.843
 20
-648.715
 30
0.000000
  70
    32
  0
VERTEX
  8
┌▓È_1
  5
385
 10
286.897
 20
-648.732
 30
0.000000
  70
    32
  0
VERTEX
  8
┌▓È_1
  5
386
 10
286.952
 20
-648.749
 30
0.000000
  70
    32
  0
VERTEX
  8
┌▓È_1
  5
387
 10
287.006
 20
-648.765
 30
0.000000
  70
    32
  0
VERTEX
  8
┌▓È_1
  5
388
 10
287.060
 20
-648.782
 30
0.000000
  70
    32
  0
VERTEX
  8
┌▓È_1
  5
389
 10
287.114
 20
-648.798
 30
0.000000
  70
    32
  0
VERTEX
  8
┌▓È_1
  5
38A
 10
287.168
 20
-648.814
 30
0.000000
  70
    32
  0
VERTEX
  8
┌▓È_1
  5
38B
 10
287.223
 20
-648.831
 30
0.000000
  70
    32
  0
VERTEX
  8
┌▓È_1
  5
38C
 10
287.277
 20
-648.847
 30
0.000000
  70
    32
  0
VERTEX
  8
┌▓È_1
  5
38D
 10
287.332
 20
-648.863
 30
0.000000
  70
    32
  0
VERTEX
  8
┌▓È_1
  5
38E
 10
287.386
 20
-648.879
 30
0.000000
  70
    32
  0
VERTEX
  8
┌▓È_1
  5
38F
 10
287.440
 20
-648.895
 30
0.000000
  70
    32
  0
VERTEX
  8
┌▓È_1
  5
390
 10
287.495
 20
-648.911
 30
0.000000
  70
    32
  0
VERTEX
  8
┌▓È_1
  5
391
 10
287.550
 20
-648.927
 30
0.000000
  70
    32
  0
VERTEX
  8
┌▓È_1
  5
392
 10
287.604
 20
-648.943
 30
0.000000
  70
    32
  0
VERTEX
  8
┌▓È_1
  5
393
 10
287.659
 20
-648.958
 30
0.000000
  70
    32
  0
VERTEX
  8
┌▓È_1
  5
394
 10
287.713
 20
-648.974
 30
0.000000
  70
    32
  0
VERTEX
  8
┌▓È_1
  5
395
 10
287.768
 20
-648.989
 30
0.000000
  70
    32
  0
VERTEX
  8
┌▓È_1
  5
396
 10
287.823
 20
-649.005
 30
0.000000
  70
    32
  0
VERTEX
  8
┌▓È_1
  5
397
 10
287.878
 20
-649.020
 30
0.000000
  70
    32
  0
VERTEX
  8
┌▓È_1
  5
398
 10
287.933
 20
-649.036
 30
0.000000
  70
    32
  0
VERTEX
  8
┌▓È_1
  5
399
 10
287.987
 20
-649.051
 30
0.000000
  70
    32
  0
VERTEX
  8
┌▓È_1
  5
39A
 10
288.042
 20
-649.066
 30
0.000000
  70
    32
  0
VERTEX
  8
┌▓È_1
  5
39B
 10
288.097
 20
-649.081
 30
0.000000
  70
    32
  0
VERTEX
  8
┌▓È_1
  5
39C
 10
288.152
 20
-649.096
 30
0.000000
  70
    32
  0
VERTEX
  8
┌▓È_1
  5
39D
 10
288.207
 20
-649.111
 30
0.000000
  70
    32
  0
VERTEX
  8
┌▓È_1
  5
39E
 10
288.262
 20
-649.126
 30
0.000000
  70
    32
  0
VERTEX
  8
┌▓È_1
  5
39F
 10
288.317
 20
-649.141
 30
0.000000
  70
    32
  0
VERTEX
  8
┌▓È_1
  5
3A0
 10
288.373
 20
-649.156
 30
0.000000
  70
    32
  0
VERTEX
  8
┌▓È_1
  5
3A1
 10
288.428
 20
-649.170
 30
0.000000
  70
    32
  0
VERTEX
  8
┌▓È_1
  5
3A2
 10
288.483
 20
-649.185
 30
0.000000
  70
    32
  0
VERTEX
  8
┌▓È_1
  5
3A3
 10
288.538
 20
-649.200
 30
0.000000
  70
    32
  0
VERTEX
  8
┌▓È_1
  5
3A4
 10
288.593
 20
-649.214
 30
0.000000
  70
    32
  0
VERTEX
  8
┌▓È_1
  5
3A5
 10
288.649
 20
-649.229
 30
0.000000
  70
    32
  0
VERTEX
  8
┌▓È_1
  5
3A6
 10
288.704
 20
-649.243
 30
0.000000
  70
    32
  0
VERTEX
  8
┌▓È_1
  5
3A7
 10
288.759
 20
-649.258
 30
0.000000
  70
    32
  0
VERTEX
  8
┌▓È_1
  5
3A8
 10
288.815
 20
-649.272
 30
0.000000
  70
    32
  0
VERTEX
  8
┌▓È_1
  5
3A9
 10
288.870
 20
-649.286
 30
0.000000
  70
    32
  0
VERTEX
  8
┌▓È_1
  5
3AA
 10
288.926
 20
-649.300
 30
0.000000
  70
    32
  0
VERTEX
  8
┌▓È_1
  5
3AB
 10
288.981
 20
-649.314
 30
0.000000
  70
    32
  0
VERTEX
  8
┌▓È_1
  5
3AC
 10
289.037
 20
-649.329
 30
0.000000
  70
    32
  0
VERTEX
  8
┌▓È_1
  5
3AD
 10
289.092
 20
-649.343
 30
0.000000
  70
    32
  0
VERTEX
  8
┌▓È_1
  5
3AE
 10
289.148
 20
-649.357
 30
0.000000
  70
    32
  0
VERTEX
  8
┌▓È_1
  5
3AF
 10
289.203
 20
-649.370
 30
0.000000
  70
    32
  0
VERTEX
  8
┌▓È_1
  5
3B0
 10
289.259
 20
-649.384
 30
0.000000
  70
    32
  0
VERTEX
  8
┌▓È_1
  5
3B1
 10
289.315
 20
-649.398
 30
0.000000
  70
    32
  0
VERTEX
  8
┌▓È_1
  5
3B2
 10
289.370
 20
-649.412
 30
0.000000
  70
    32
  0
VERTEX
  8
┌▓È_1
  5
3B3
 10
289.426
 20
-649.426
 30
0.000000
  70
    32
  0
VERTEX
  8
┌▓È_1
  5
3B4
 10
289.482
 20
-649.439
 30
0.000000
  70
    32
  0
VERTEX
  8
┌▓È_1
  5
3B5
 10
289.537
 20
-649.453
 30
0.000000
  70
    32
  0
VERTEX
  8
┌▓È_1
  5
3B6
 10
289.593
 20
-649.466
 30
0.000000
  70
    32
  0
VERTEX
  8
┌▓È_1
  5
3B7
 10
289.649
 20
-649.480
 30
0.000000
  70
    32
  0
VERTEX
  8
┌▓È_1
  5
3B8
 10
289.705
 20
-649.493
 30
0.000000
  70
    32
  0
VERTEX
  8
┌▓È_1
  5
3B9
 10
289.761
 20
-649.507
 30
0.000000
  70
    32
  0
VERTEX
  8
┌▓È_1
  5
3BA
 10
289.817
 20
-649.520
 30
0.000000
  70
    32
  0
VERTEX
  8
┌▓È_1
  5
3BB
 10
289.873
 20
-649.534
 30
0.000000
  70
    32
  0
VERTEX
  8
┌▓È_1
  5
3BC
 10
289.929
 20
-649.547
 30
0.000000
  70
    32
  0
VERTEX
  8
┌▓È_1
  5
3BD
 10
289.984
 20
-649.560
 30
0.000000
  70
    32
  0
VERTEX
  8
┌▓È_1
  5
3BE
 10
290.040
 20
-649.573
 30
0.000000
  70
    32
  0
VERTEX
  8
┌▓È_1
  5
3BF
 10
290.096
 20
-649.586
 30
0.000000
  70
    32
  0
VERTEX
  8
┌▓È_1
  5
3C0
 10
290.153
 20
-649.599
 30
0.000000
  70
    32
  0
VERTEX
  8
┌▓È_1
  5
3C1
 10
290.209
 20
-649.613
 30
0.000000
  70
    32
  0
VERTEX
  8
┌▓È_1
  5
3C2
 10
290.265
 20
-649.626
 30
0.000000
  70
    32
  0
VERTEX
  8
┌▓È_1
  5
3C3
 10
290.321
 20
-649.639
 30
0.000000
  70
    32
  0
VERTEX
  8
┌▓È_1
  5
3C4
 10
290.377
 20
-649.651
 30
0.000000
  70
    32
  0
VERTEX
  8
┌▓È_1
  5
3C5
 10
290.433
 20
-649.664
 30
0.000000
  70
    32
  0
VERTEX
  8
┌▓È_1
  5
3C6
 10
290.489
 20
-649.677
 30
0.000000
  70
    32
  0
VERTEX
  8
┌▓È_1
  5
3C7
 10
290.545
 20
-649.690
 30
0.000000
  70
    32
  0
VERTEX
  8
┌▓È_1
  5
3C8
 10
290.602
 20
-649.703
 30
0.000000
  70
    32
  0
VERTEX
  8
┌▓È_1
  5
3C9
 10
290.658
 20
-649.716
 30
0.000000
  70
    32
  0
VERTEX
  8
┌▓È_1
  5
3CA
 10
290.714
 20
-649.728
 30
0.000000
  70
    32
  0
VERTEX
  8
┌▓È_1
  5
3CB
 10
290.770
 20
-649.741
 30
0.000000
  70
    32
  0
VERTEX
  8
┌▓È_1
  5
3CC
 10
290.827
 20
-649.754
 30
0.000000
  70
    32
  0
VERTEX
  8
┌▓È_1
  5
3CD
 10
290.883
 20
-649.766
 30
0.000000
  70
    32
  0
VERTEX
  8
┌▓È_1
  5
3CE
 10
290.939
 20
-649.779
 30
0.000000
  70
    32
  0
VERTEX
  8
┌▓È_1
  5
3CF
 10
290.996
 20
-649.791
 30
0.000000
  70
    32
  0
VERTEX
  8
┌▓È_1
  5
3D0
 10
291.052
 20
-649.804
 30
0.000000
  70
    32
  0
VERTEX
  8
┌▓È_1
  5
3D1
 10
291.108
 20
-649.816
 30
0.000000
  70
    32
  0
VERTEX
  8
┌▓È_1
  5
3D2
 10
291.165
 20
-649.829
 30
0.000000
  70
    32
  0
VERTEX
  8
┌▓È_1
  5
3D3
 10
291.221
 20
-649.841
 30
0.000000
  70
    32
  0
VERTEX
  8
┌▓È_1
  5
3D4
 10
291.277
 20
-649.854
 30
0.000000
  70
    32
  0
VERTEX
  8
┌▓È_1
  5
3D5
 10
291.334
 20
-649.866
 30
0.000000
  70
    32
  0
VERTEX
  8
┌▓È_1
  5
3D6
 10
291.390
 20
-649.879
 30
0.000000
  70
    32
  0
VERTEX
  8
┌▓È_1
  5
3D7
 10
291.447
 20
-649.891
 30
0.000000
  70
    32
  0
VERTEX
  8
┌▓È_1
  5
3D8
 10
291.503
 20
-649.903
 30
0.000000
  70
    32
  0
VERTEX
  8
┌▓È_1
  5
3D9
 10
291.560
 20
-649.915
 30
0.000000
  70
    32
  0
VERTEX
  8
┌▓È_1
  5
3DA
 10
291.616
 20
-649.928
 30
0.000000
  70
    32
  0
VERTEX
  8
┌▓È_1
  5
3DB
 10
291.673
 20
-649.940
 30
0.000000
  70
    32
  0
VERTEX
  8
┌▓È_1
  5
3DC
 10
291.729
 20
-649.952
 30
0.000000
  70
    32
  0
VERTEX
  8
┌▓È_1
  5
3DD
 10
291.786
 20
-649.964
 30
0.000000
  70
    32
  0
VERTEX
  8
┌▓È_1
  5
3DE
 10
291.842
 20
-649.976
 30
0.000000
  70
    32
  0
VERTEX
  8
┌▓È_1
  5
3DF
 10
291.899
 20
-649.988
 30
0.000000
  70
    32
  0
VERTEX
  8
┌▓È_1
  5
3E0
 10
291.956
 20
-650.001
 30
0.000000
  70
    32
  0
VERTEX
  8
┌▓È_1
  5
3E1
 10
292.012
 20
-650.013
 30
0.000000
  70
    32
  0
VERTEX
  8
┌▓È_1
  5
3E2
 10
292.069
 20
-650.025
 30
0.000000
  70
    32
  0
VERTEX
  8
┌▓È_1
  5
3E3
 10
292.125
 20
-650.037
 30
0.000000
  70
    32
  0
VERTEX
  8
┌▓È_1
  5
3E4
 10
292.182
 20
-650.049
 30
0.000000
  70
    32
  0
VERTEX
  8
┌▓È_1
  5
3E5
 10
292.239
 20
-650.061
 30
0.000000
  70
    32
  0
VERTEX
  8
┌▓È_1
  5
3E6
 10
292.295
 20
-650.073
 30
0.000000
  70
    32
  0
VERTEX
  8
┌▓È_1
  5
3E7
 10
292.352
 20
-650.085
 30
0.000000
  70
    32
  0
VERTEX
  8
┌▓È_1
  5
3E8
 10
292.408
 20
-650.097
 30
0.000000
  70
    32
  0
VERTEX
  8
┌▓È_1
  5
3E9
 10
292.465
 20
-650.109
 30
0.000000
  70
    32
  0
VERTEX
  8
┌▓È_1
  5
3EA
 10
292.522
 20
-650.121
 30
0.000000
  70
    32
  0
VERTEX
  8
┌▓È_1
  5
3EB
 10
292.578
 20
-650.133
 30
0.000000
  70
    32
  0
VERTEX
  8
┌▓È_1
  5
3EC
 10
292.635
 20
-650.145
 30
0.000000
  70
    32
  0
VERTEX
  8
┌▓È_1
  5
3ED
 10
292.692
 20
-650.156
 30
0.000000
  70
    32
  0
VERTEX
  8
┌▓È_1
  5
3EE
 10
292.749
 20
-650.168
 30
0.000000
  70
    32
  0
VERTEX
  8
┌▓È_1
  5
3EF
 10
292.805
 20
-650.180
 30
0.000000
  70
    32
  0
VERTEX
  8
┌▓È_1
  5
3F0
 10
292.862
 20
-650.192
 30
0.000000
  70
    32
  0
VERTEX
  8
┌▓È_1
  5
3F1
 10
292.919
 20
-650.204
 30
0.000000
  70
    32
  0
VERTEX
  8
┌▓È_1
  5
3F2
 10
292.975
 20
-650.216
 30
0.000000
  70
    32
  0
VERTEX
  8
┌▓È_1
  5
3F3
 10
293.032
 20
-650.228
 30
0.000000
  70
    32
  0
VERTEX
  8
┌▓È_1
  5
3F4
 10
293.089
 20
-650.239
 30
0.000000
  70
    32
  0
VERTEX
  8
┌▓È_1
  5
3F5
 10
293.146
 20
-650.251
 30
0.000000
  70
    32
  0
VERTEX
  8
┌▓È_1
  5
3F6
 10
293.202
 20
-650.263
 30
0.000000
  70
    32
  0
VERTEX
  8
┌▓È_1
  5
3F7
 10
293.259
 20
-650.275
 30
0.000000
  70
    32
  0
VERTEX
  8
┌▓È_1
  5
3F8
 10
293.316
 20
-650.287
 30
0.000000
  70
    32
  0
VERTEX
  8
┌▓È_1
  5
3F9
 10
293.372
 20
-650.299
 30
0.000000
  70
    32
  0
VERTEX
  8
┌▓È_1
  5
3FA
 10
293.429
 20
-650.310
 30
0.000000
  70
    32
  0
VERTEX
  8
┌▓È_1
  5
3FB
 10
293.486
 20
-650.322
 30
0.000000
  70
    32
  0
VERTEX
  8
┌▓È_1
  5
3FC
 10
293.543
 20
-650.334
 30
0.000000
  70
    32
  0
VERTEX
  8
┌▓È_1
  5
3FD
 10
293.599
 20
-650.346
 30
0.000000
  70
    32
  0
VERTEX
  8
┌▓È_1
  5
3FE
 10
293.656
 20
-650.358
 30
0.000000
  70
    32
  0
SEQEND
  8
┌▓È_1
  5
3FF
  0
POLYLINE
  8
┌▓È_1
  5
400
  66
     1
 10
0.000000
 20
0.000000
 30
0.000000
  70
     8
  0
VERTEX
  8
┌▓È_1
  5
401
 10
282.525
 20
-642.133
 30
0.000000
  70
    32
  0
VERTEX
  8
┌▓È_1
  5
402
 10
282.538
 20
-642.148
 30
0.000000
  70
    32
  0
VERTEX
  8
┌▓È_1
  5
403
 10
282.551
 20
-642.163
 30
0.000000
  70
    32
  0
VERTEX
  8
┌▓È_1
  5
404
 10
282.564
 20
-642.177
 30
0.000000
  70
    32
  0
VERTEX
  8
┌▓È_1
  5
405
 10
282.578
 20
-642.192
 30
0.000000
  70
    32
  0
VERTEX
  8
┌▓È_1
  5
406
 10
282.591
 20
-642.207
 30
0.000000
  70
    32
  0
VERTEX
  8
┌▓È_1
  5
407
 10
282.604
 20
-642.221
 30
0.000000
  70
    32
  0
VERTEX
  8
┌▓È_1
  5
408
 10
282.617
 20
-642.236
 30
0.000000
  70
    32
  0
VERTEX
  8
┌▓È_1
  5
409
 10
282.630
 20
-642.251
 30
0.000000
  70
    32
  0
VERTEX
  8
┌▓È_1
  5
40A
 10
282.644
 20
-642.266
 30
0.000000
  70
    32
  0
VERTEX
  8
┌▓È_1
  5
40B
 10
282.657
 20
-642.280
 30
0.000000
  70
    32
  0
VERTEX
  8
┌▓È_1
  5
40C
 10
282.670
 20
-642.295
 30
0.000000
  70
    32
  0
VERTEX
  8
┌▓È_1
  5
40D
 10
282.683
 20
-642.310
 30
0.000000
  70
    32
  0
VERTEX
  8
┌▓È_1
  5
40E
 10
282.696
 20
-642.324
 30
0.000000
  70
    32
  0
VERTEX
  8
┌▓È_1
  5
40F
 10
282.710
 20
-642.339
 30
0.000000
  70
    32
  0
VERTEX
  8
┌▓È_1
  5
410
 10
282.723
 20
-642.354
 30
0.000000
  70
    32
  0
VERTEX
  8
┌▓È_1
  5
411
 10
282.736
 20
-642.368
 30
0.000000
  70
    32
  0
VERTEX
  8
┌▓È_1
  5
412
 10
282.749
 20
-642.383
 30
0.000000
  70
    32
  0
VERTEX
  8
┌▓È_1
  5
413
 10
282.763
 20
-642.398
 30
0.000000
  70
    32
  0
VERTEX
  8
┌▓È_1
  5
414
 10
282.776
 20
-642.412
 30
0.000000
  70
    32
  0
VERTEX
  8
┌▓È_1
  5
415
 10
282.789
 20
-642.427
 30
0.000000
  70
    32
  0
VERTEX
  8
┌▓È_1
  5
416
 10
282.802
 20
-642.442
 30
0.000000
  70
    32
  0
VERTEX
  8
┌▓È_1
  5
417
 10
282.815
 20
-642.456
 30
0.000000
  70
    32
  0
VERTEX
  8
┌▓È_1
  5
418
 10
282.829
 20
-642.471
 30
0.000000
  70
    32
  0
VERTEX
  8
┌▓È_1
  5
419
 10
282.842
 20
-642.486
 30
0.000000
  70
    32
  0
VERTEX
  8
┌▓È_1
  5
41A
 10
282.855
 20
-642.500
 30
0.000000
  70
    32
  0
VERTEX
  8
┌▓È_1
  5
41B
 10
282.868
 20
-642.515
 30
0.000000
  70
    32
  0
VERTEX
  8
┌▓È_1
  5
41C
 10
282.882
 20
-642.530
 30
0.000000
  70
    32
  0
VERTEX
  8
┌▓È_1
  5
41D
 10
282.895
 20
-642.544
 30
0.000000
  70
    32
  0
VERTEX
  8
┌▓È_1
  5
41E
 10
282.908
 20
-642.559
 30
0.000000
  70
    32
  0
VERTEX
  8
┌▓È_1
  5
41F
 10
282.921
 20
-642.574
 30
0.000000
  70
    32
  0
VERTEX
  8
┌▓È_1
  5
420
 10
282.935
 20
-642.588
 30
0.000000
  70
    32
  0
VERTEX
  8
┌▓È_1
  5
421
 10
282.948
 20
-642.603
 30
0.000000
  70
    32
  0
VERTEX
  8
┌▓È_1
  5
422
 10
282.961
 20
-642.617
 30
0.000000
  70
    32
  0
VERTEX
  8
┌▓È_1
  5
423
 10
282.974
 20
-642.632
 30
0.000000
  70
    32
  0
VERTEX
  8
┌▓È_1
  5
424
 10
282.988
 20
-642.647
 30
0.000000
  70
    32
  0
VERTEX
  8
┌▓È_1
  5
425
 10
283.001
 20
-642.661
 30
0.000000
  70
    32
  0
VERTEX
  8
┌▓È_1
  5
426
 10
283.014
 20
-642.676
 30
0.000000
  70
    32
  0
VERTEX
  8
┌▓È_1
  5
427
 10
283.028
 20
-642.690
 30
0.000000
  70
    32
  0
VERTEX
  8
┌▓È_1
  5
428
 10
283.041
 20
-642.705
 30
0.000000
  70
    32
  0
VERTEX
  8
┌▓È_1
  5
429
 10
283.054
 20
-642.719
 30
0.000000
  70
    32
  0
VERTEX
  8
┌▓È_1
  5
42A
 10
283.068
 20
-642.734
 30
0.000000
  70
    32
  0
VERTEX
  8
┌▓È_1
  5
42B
 10
283.081
 20
-642.748
 30
0.000000
  70
    32
  0
VERTEX
  8
┌▓È_1
  5
42C
 10
283.094
 20
-642.763
 30
0.000000
  70
    32
  0
VERTEX
  8
┌▓È_1
  5
42D
 10
283.107
 20
-642.778
 30
0.000000
  70
    32
  0
VERTEX
  8
┌▓È_1
  5
42E
 10
283.121
 20
-642.792
 30
0.000000
  70
    32
  0
VERTEX
  8
┌▓È_1
  5
42F
 10
283.134
 20
-642.807
 30
0.000000
  70
    32
  0
VERTEX
  8
┌▓È_1
  5
430
 10
283.148
 20
-642.821
 30
0.000000
  70
    32
  0
VERTEX
  8
┌▓È_1
  5
431
 10
283.161
 20
-642.835
 30
0.000000
  70
    32
  0
VERTEX
  8
┌▓È_1
  5
432
 10
283.174
 20
-642.850
 30
0.000000
  70
    32
  0
VERTEX
  8
┌▓È_1
  5
433
 10
283.188
 20
-642.864
 30
0.000000
  70
    32
  0
VERTEX
  8
┌▓È_1
  5
434
 10
283.201
 20
-642.879
 30
0.000000
  70
    32
  0
VERTEX
  8
┌▓È_1
  5
435
 10
283.214
 20
-642.893
 30
0.000000
  70
    32
  0
VERTEX
  8
┌▓È_1
  5
436
 10
283.228
 20
-642.908
 30
0.000000
  70
    32
  0
VERTEX
  8
┌▓È_1
  5
437
 10
283.241
 20
-642.922
 30
0.000000
  70
    32
  0
VERTEX
  8
┌▓È_1
  5
438
 10
283.255
 20
-642.936
 30
0.000000
  70
    32
  0
VERTEX
  8
┌▓È_1
  5
439
 10
283.268
 20
-642.951
 30
0.000000
  70
    32
  0
VERTEX
  8
┌▓È_1
  5
43A
 10
283.281
 20
-642.965
 30
0.000000
  70
    32
  0
VERTEX
  8
┌▓È_1
  5
43B
 10
283.295
 20
-642.980
 30
0.000000
  70
    32
  0
VERTEX
  8
┌▓È_1
  5
43C
 10
283.308
 20
-642.994
 30
0.000000
  70
    32
  0
VERTEX
  8
┌▓È_1
  5
43D
 10
283.322
 20
-643.008
 30
0.000000
  70
    32
  0
VERTEX
  8
┌▓È_1
  5
43E
 10
283.335
 20
-643.023
 30
0.000000
  70
    32
  0
VERTEX
  8
┌▓È_1
  5
43F
 10
283.349
 20
-643.037
 30
0.000000
  70
    32
  0
VERTEX
  8
┌▓È_1
  5
440
 10
283.362
 20
-643.051
 30
0.000000
  70
    32
  0
VERTEX
  8
┌▓È_1
  5
441
 10
283.375
 20
-643.065
 30
0.000000
  70
    32
  0
VERTEX
  8
┌▓È_1
  5
442
 10
283.389
 20
-643.080
 30
0.000000
  70
    32
  0
VERTEX
  8
┌▓È_1
  5
443
 10
283.402
 20
-643.094
 30
0.000000
  70
    32
  0
VERTEX
  8
┌▓È_1
  5
444
 10
283.416
 20
-643.108
 30
0.000000
  70
    32
  0
VERTEX
  8
┌▓È_1
  5
445
 10
283.429
 20
-643.122
 30
0.000000
  70
    32
  0
VERTEX
  8
┌▓È_1
  5
446
 10
283.443
 20
-643.137
 30
0.000000
  70
    32
  0
VERTEX
  8
┌▓È_1
  5
447
 10
283.457
 20
-643.151
 30
0.000000
  70
    32
  0
VERTEX
  8
┌▓È_1
  5
448
 10
283.470
 20
-643.165
 30
0.000000
  70
    32
  0
VERTEX
  8
┌▓È_1
  5
449
 10
283.484
 20
-643.179
 30
0.000000
  70
    32
  0
VERTEX
  8
┌▓È_1
  5
44A
 10
283.497
 20
-643.193
 30
0.000000
  70
    32
  0
VERTEX
  8
┌▓È_1
  5
44B
 10
283.511
 20
-643.207
 30
0.000000
  70
    32
  0
VERTEX
  8
┌▓È_1
  5
44C
 10
283.524
 20
-643.221
 30
0.000000
  70
    32
  0
VERTEX
  8
┌▓È_1
  5
44D
 10
283.538
 20
-643.236
 30
0.000000
  70
    32
  0
VERTEX
  8
┌▓È_1
  5
44E
 10
283.551
 20
-643.250
 30
0.000000
  70
    32
  0
VERTEX
  8
┌▓È_1
  5
44F
 10
283.565
 20
-643.264
 30
0.000000
  70
    32
  0
VERTEX
  8
┌▓È_1
  5
450
 10
283.579
 20
-643.278
 30
0.000000
  70
    32
  0
VERTEX
  8
┌▓È_1
  5
451
 10
283.592
 20
-643.292
 30
0.000000
  70
    32
  0
VERTEX
  8
┌▓È_1
  5
452
 10
283.606
 20
-643.306
 30
0.000000
  70
    32
  0
VERTEX
  8
┌▓È_1
  5
453
 10
283.620
 20
-643.320
 30
0.000000
  70
    32
  0
VERTEX
  8
┌▓È_1
  5
454
 10
283.633
 20
-643.334
 30
0.000000
  70
    32
  0
VERTEX
  8
┌▓È_1
  5
455
 10
283.647
 20
-643.348
 30
0.000000
  70
    32
  0
VERTEX
  8
┌▓È_1
  5
456
 10
283.661
 20
-643.362
 30
0.000000
  70
    32
  0
VERTEX
  8
┌▓È_1
  5
457
 10
283.674
 20
-643.375
 30
0.000000
  70
    32
  0
VERTEX
  8
┌▓È_1
  5
458
 10
283.688
 20
-643.389
 30
0.000000
  70
    32
  0
VERTEX
  8
┌▓È_1
  5
459
 10
283.702
 20
-643.403
 30
0.000000
  70
    32
  0
VERTEX
  8
┌▓È_1
  5
45A
 10
283.716
 20
-643.417
 30
0.000000
  70
    32
  0
VERTEX
  8
┌▓È_1
  5
45B
 10
283.729
 20
-643.431
 30
0.000000
  70
    32
  0
VERTEX
  8
┌▓È_1
  5
45C
 10
283.743
 20
-643.445
 30
0.000000
  70
    32
  0
VERTEX
  8
┌▓È_1
  5
45D
 10
283.757
 20
-643.459
 30
0.000000
  70
    32
  0
VERTEX
  8
┌▓È_1
  5
45E
 10
283.771
 20
-643.472
 30
0.000000
  70
    32
  0
VERTEX
  8
┌▓È_1
  5
45F
 10
283.784
 20
-643.486
 30
0.000000
  70
    32
  0
VERTEX
  8
┌▓È_1
  5
460
 10
283.798
 20
-643.500
 30
0.000000
  70
    32
  0
VERTEX
  8
┌▓È_1
  5
461
 10
283.812
 20
-643.514
 30
0.000000
  70
    32
  0
VERTEX
  8
┌▓È_1
  5
462
 10
283.826
 20
-643.527
 30
0.000000
  70
    32
  0
VERTEX
  8
┌▓È_1
  5
463
 10
283.840
 20
-643.541
 30
0.000000
  70
    32
  0
VERTEX
  8
┌▓È_1
  5
464
 10
283.854
 20
-643.555
 30
0.000000
  70
    32
  0
VERTEX
  8
┌▓È_1
  5
465
 10
283.867
 20
-643.568
 30
0.000000
  70
    32
  0
VERTEX
  8
┌▓È_1
  5
466
 10
283.881
 20
-643.582
 30
0.000000
  70
    32
  0
VERTEX
  8
┌▓È_1
  5
467
 10
283.895
 20
-643.595
 30
0.000000
  70
    32
  0
VERTEX
  8
┌▓È_1
  5
468
 10
283.909
 20
-643.609
 30
0.000000
  70
    32
  0
VERTEX
  8
┌▓È_1
  5
469
 10
283.923
 20
-643.622
 30
0.000000
  70
    32
  0
VERTEX
  8
┌▓È_1
  5
46A
 10
283.937
 20
-643.636
 30
0.000000
  70
    32
  0
VERTEX
  8
┌▓È_1
  5
46B
 10
283.951
 20
-643.649
 30
0.000000
  70
    32
  0
VERTEX
  8
┌▓È_1
  5
46C
 10
283.965
 20
-643.663
 30
0.000000
  70
    32
  0
VERTEX
  8
┌▓È_1
  5
46D
 10
283.979
 20
-643.676
 30
0.000000
  70
    32
  0
VERTEX
  8
┌▓È_1
  5
46E
 10
283.993
 20
-643.690
 30
0.000000
  70
    32
  0
VERTEX
  8
┌▓È_1
  5
46F
 10
284.007
 20
-643.703
 30
0.000000
  70
    32
  0
VERTEX
  8
┌▓È_1
  5
470
 10
284.021
 20
-643.717
 30
0.000000
  70
    32
  0
VERTEX
  8
┌▓È_1
  5
471
 10
284.035
 20
-643.730
 30
0.000000
  70
    32
  0
VERTEX
  8
┌▓È_1
  5
472
 10
284.049
 20
-643.743
 30
0.000000
  70
    32
  0
VERTEX
  8
┌▓È_1
  5
473
 10
284.063
 20
-643.757
 30
0.000000
  70
    32
  0
VERTEX
  8
┌▓È_1
  5
474
 10
284.077
 20
-643.770
 30
0.000000
  70
    32
  0
VERTEX
  8
┌▓È_1
  5
475
 10
284.091
 20
-643.783
 30
0.000000
  70
    32
  0
VERTEX
  8
┌▓È_1
  5
476
 10
284.105
 20
-643.796
 30
0.000000
  70
    32
  0
VERTEX
  8
┌▓È_1
  5
477
 10
284.120
 20
-643.810
 30
0.000000
  70
    32
  0
VERTEX
  8
┌▓È_1
  5
478
 10
284.134
 20
-643.823
 30
0.000000
  70
    32
  0
VERTEX
  8
┌▓È_1
  5
479
 10
284.148
 20
-643.836
 30
0.000000
  70
    32
  0
VERTEX
  8
┌▓È_1
  5
47A
 10
284.162
 20
-643.849
 30
0.000000
  70
    32
  0
VERTEX
  8
┌▓È_1
  5
47B
 10
284.176
 20
-643.862
 30
0.000000
  70
    32
  0
VERTEX
  8
┌▓È_1
  5
47C
 10
284.191
 20
-643.875
 30
0.000000
  70
    32
  0
VERTEX
  8
┌▓È_1
  5
47D
 10
284.205
 20
-643.888
 30
0.000000
  70
    32
  0
VERTEX
  8
┌▓È_1
  5
47E
 10
284.219
 20
-643.901
 30
0.000000
  70
    32
  0
VERTEX
  8
┌▓È_1
  5
47F
 10
284.233
 20
-643.914
 30
0.000000
  70
    32
  0
VERTEX
  8
┌▓È_1
  5
480
 10
284.248
 20
-643.927
 30
0.000000
  70
    32
  0
SEQEND
  8
┌▓È_1
  5
481
  0
INSERT
  5
148
  8
0
  6
CONTINUOUS
  2
*U16
 10
0.0
 20
0.0
 30
0.0
  0
ARC
  5
149
  8
┌▓È_1
 10
261.33496724740002
 20
-644.35751912879994
 30
0.0
 40
6.0
 50
270.0
 51
0.0
  0
LINE
  5
14A
  8
┌▓È_1
 10
311.28540331980003
 20
-648.55751912879987
 30
0.0
 11
316.09114466519998
 21
-648.55751912879987
 31
0.0
  0
INSERT
  5
14C
  8
Éíû@É³
 62
     5
  2
BALLON0
 10
0.0
 20
0.0
 30
0.0
  0
INSERT
  5
156
  8
Éíû@É³
 62
     5
  2
BALLON1
 10
0.0
 20
0.0
 30
0.0
  0
INSERT
  5
160
  8
Éíû@É³
 62
     5
  2
BALLON2
 10
0.0
 20
0.0
 30
0.0
  0
LINE
  5
169
  8
┌▓È_1
 62
     5
 10
223.08522316259999
 20
-448.41966145830003
 30
0.0
 11
223.08522316259999
 21
-420.85364583329988
 31
0.0
  0
LINE
  5
16A
  8
┌▓È_1
 62
     5
 10
404.59628906249992
 20
-448.41966145830003
 30
0.0
 11
223.08522316259999
 21
-448.41966145830003
 31
0.0
  0
INSERT
  5
16B
  8
0
  6
CONTINUOUS
  2
*U20
 10
0.0
 20
0.0
 30
0.0
  0
DIMENSION
  5
179
  8
Éíû@É³
 62
     5
  2
*D7
 10
274.20781249999999
 20
-6.0303721110000001
 30
0.0
 11
285.20781249999999
 21
-6.0303721110000001
 31
0.0
 70
   128
  1
<>
 13
274.20781249999999
 23
-67.701041666700007
 33
0.0
 14
296.20781249999999
 24
-67.701041666700007
 34
0.0
 50
180.0
  0
LINE
  5
17A
  8
┌▓È_1
 10
262.33496724740002
 20
-636.35751912879994
 30
0.0
 11
262.33496724740002
 21
-640.35751912879994
 31
0.0
  0
LINE
  5
17B
  8
┌▓È_1
 10
253.33496724739999
 20
-650.35751912879994
 30
0.0
 11
261.33496724740002
 21
-650.35751912879994
 31
0.0
  0
LINE
  5
17C
  8
┌▓È_1
 10
312.09114466519998
 20
-651.35751912879994
 30
0.0
 11
311.28540331980003
 21
-648.55751912879987
 31
0.0
  0
LINE
  5
17D
  8
┌▓È_1
 10
308.75307337729998
 20
-639.75751912880003
 30
0.0
 11
308.46028487680002
 21
-638.7400613479
 31
0.0
  0
LINE
  5
17E
  8
┌▓È_1
 10
303.08847799850003
 20
-639.75751912880003
 30
0.0
 11
302.09114466519998
 21
-636.35751912879994
 31
0.0
  0
LINE
  5
17F
  8
┌▓È_1
 10
475.01367427089991
 20
122.74477563560001
 30
0.0
 11
-602.44219254459995
 21
122.74477563560001
 31
0.0
  0
LINE
  5
180
  8
┌▓È_1
 10
298.09114466519998
 20
-648.55751912879987
 30
0.0
 11
305.66981133190001
 21
-648.55751912879987
 31
0.0
  0
LINE
  5
181
  8
┌▓È_1
 10
310.24945016150002
 20
-644.95751912879985
 30
0.0
 11
316.09114466519998
 21
-644.95751912879985
 31
0.0
  0
LINE
  5
182
  8
┌▓È_1
 10
270.33496724740002
 20
-636.35751912879994
 30
0.0
 11
262.33496724740002
 21
-636.35751912879994
 31
0.0
  0
LINE
  5
183
  8
┌▓È_1
 10
270.33496724740002
 20
-640.35751912879994
 30
0.0
 11
270.33496724740002
 21
-643.35751912879994
 31
0.0
  0
LINE
  5
184
  8
┌▓È_1
 10
267.33496724740002
 20
-643.35751912879994
 30
0.0
 11
270.33496724740002
 21
-643.35751912879994
 31
0.0
  0
LINE
  5
185
  8
┌▓È_1
 10
267.33496724740002
 20
-640.35751912879994
 30
0.0
 11
267.33496724740002
 21
-639.35751912879994
 31
0.0
  0
LINE
  5
186
  8
┌▓È_1
 10
270.33496724740002
 20
-640.35751912879994
 30
0.0
 11
267.33496724740002
 21
-640.35751912879994
 31
0.0
  0
LINE
  5
187
  8
┌▓È_1
 10
258.33496724740002
 20
-643.35751912879994
 30
0.0
 11
262.33496724740002
 21
-643.35751912879994
 31
0.0
  0
LINE
  5
188
  8
┌▓È_1
 10
258.33496724740002
 20
-646.35751912879994
 30
0.0
 11
258.33496724740002
 21
-643.35751912879994
 31
0.0
  0
LINE
  5
189
  8
┌▓È_1
 10
298.09114466519998
 20
-644.95751912879985
 30
0.0
 11
298.09114466519998
 21
-648.55751912879987
 31
0.0
  0
LINE
  5
18A
  8
┌▓È_1
 10
253.33496724739999
 20
-647.35751912879994
 30
0.0
 11
253.33496724739999
 21
-650.35751912879994
 31
0.0
  0
LINE
  5
18B
  8
┌▓È_1
 10
308.75307337729998
 20
-639.75751912880003
 30
0.0
 11
316.09114466519998
 21
-639.75751912880003
 31
0.0
  0
LINE
  5
18C
  8
┌▓È_1
 10
258.33496724740002
 20
-640.35751912879994
 30
0.0
 11
258.33496724740002
 21
-639.35751912879994
 31
0.0
  0
LINE
  5
18D
  8
┌▓È_1
 10
253.33496724739999
 20
-640.35751912879994
 30
0.0
 11
251.03275962430001
 21
-640.35751912879994
 31
0.0
  0
LINE
  5
18E
  8
┌▓È_1
 10
253.33496724739999
 20
-636.35751912879994
 30
0.0
 11
253.33496724739999
 21
-640.35751912879994
 31
0.0
  0
LINE
  5
18F
  8
┌▓È_1
 10
258.33496724740002
 20
-639.35751912879994
 30
0.0
 11
261.33496724740002
 21
-636.35751912879994
 31
0.0
  0
LINE
  5
190
  8
┌▓È_1
 10
293.65617936860002
 20
-636.35751912879994
 30
0.0
 11
275.65617936860002
 21
-636.35751912879994
 31
0.0
  0
LINE
  5
191
  8
┌▓È_1
 10
262.33496724740002
 20
-640.35751912879994
 30
0.0
 11
258.33496724740002
 21
-640.35751912879994
 31
0.0
  0
LINE
  5
192
  8
┌▓È_1
 10
298.09114466519998
 20
-639.75751912880003
 30
0.0
 11
298.09114466519998
 21
-643.35751912879994
 31
0.0
  0
LINE
  5
193
  8
┌▓È_1
 10
275.65617936860002
 20
-650.35751912879994
 30
0.0
 11
275.65617936860002
 21
-647.35751912879994
 31
0.0
  0
LINE
  5
194
  8
┌▓È_1
 10
275.65617936860002
 20
-636.35751912879994
 30
0.0
 11
275.65617936860002
 21
-639.95751912879996
 31
0.0
  0
LINE
  5
195
  8
┌▓È_1
 62
     5
 10
-494.7981770833
 20
-153.51988845299999
 30
0.0
 11
-496.49817708329988
 21
-153.51988845299999
 31
0.0
  0
LINE
  5
196
  8
┌▓È_1
 10
261.33496724740002
 20
-636.35751912879994
 30
0.0
 11
253.33496724739999
 21
-636.35751912879994
 31
0.0
  0
LINE
  5
197
  8
┌▓È_1
 10
275.65617936860002
 20
-647.35751912879994
 30
0.0
 11
275.65617936860002
 21
-650.35751912879994
 31
0.0
  0
LINE
  5
198
  8
┌▓È_1
 10
291.65617936860002
 20
-639.35751912879994
 30
0.0
 11
293.65617936860002
 21
-636.35751912879994
 31
0.0
  0
LINE
  5
199
  8
┌▓È_1
 10
251.03275962430001
 20
-643.35751912879994
 30
0.0
 11
253.03275962430001
 21
-643.35751912879994
 31
0.0
  0
LINE
  5
19A
  8
┌▓È_1
 62
     5
 10
-360.32446465300001
 20
-171.88759235539999
 30
0.0
 11
-355.2981770833
 21
-171.88759235539999
 31
0.0
  0
LINE
  5
19B
  8
┌▓È_1
 62
     5
 10
299.9668495267
 20
-588.92786506260006
 30
0.0
 11
299.9668495267
 21
-548.81216351989985
 31
0.0
  0
LINE
  5
19C
  8
┌▓È_1
 62
     5
 10
401.71545408359992
 20
-588.92786506260006
 30
0.0
 11
401.71545408359992
 21
-548.81216351989985
 31
0.0
  0
LINE
  5
19D
  8
┌▓È_1
 10
275.65617936860002
 20
-641.00173966379987
 30
0.0
 11
283.65617936860002
 21
-641.00173966379987
 31
0.0
  0
LINE
  5
19E
  8
┌▓È_1
 10
275.65617936860002
 20
-641.64596019869998
 30
0.0
 11
275.65617936860002
 21
-641.00173966379987
 31
0.0
  0
LINE
  5
19F
  8
┌▓È_1
 10
283.65617936860002
 20
-641.00173966379987
 30
0.0
 11
282.52480851870001
 21
-642.13311051359995
 31
0.0
  0
LINE
  5
1A0
  8
┌▓È_1
 10
215.0136742709
 20
-588.92786506260006
 30
0.0
 11
215.0136742709
 21
-610.92786506259995
 31
0.0
  0
LINE
  5
1A1
  8
┌▓È_1
 62
     5
 10
196.8814694097
 20
-588.92786506260006
 30
0.0
 11
196.8814694097
 21
-548.81216351989985
 31
0.0
  0
LINE
  5
1A2
  8
┌▓È_1
 10
175.0136742709
 20
-588.92786506260006
 30
0.0
 11
175.0136742709
 21
-654.92786506259995
 31
0.0
  0
LINE
  5
1A3
  8
┌▓È_1
 62
     5
 10
175.0136742709
 20
-588.92786506260006
 30
0.0
 11
175.0136742709
 21
-548.81216351989985
 31
0.0
  0
LINE
  5
1A4
  8
┌▓È_1
 62
     5
 10
181.31082252499999
 20
-600.65316215760004
 30
0.0
 11
208.94003982820001
 21
-600.65316215760004
 31
0.0
  0
ARC
  5
1A5
  8
┌▓È_1
 10
259.33496724740002
 20
-644.35751912879994
 30
0.0
 40
3.0
 50
270.0
 51
0.0
  0
LINE
  5
1A6
  8
┌▓È_1
 10
259.33496724740002
 20
-647.35751912879994
 30
0.0
 11
253.33496724739999
 21
-647.35751912879994
 31
0.0
  0
POLYLINE
  8
┌▓È_1
  5
482
  66
     1
 10
0.000000
 20
0.000000
 30
0.000000
  70
     8
  0
VERTEX
  8
┌▓È_1
  5
483
 10
289.025
 20
-646.405
 30
0.000000
  70
    32
  0
VERTEX
  8
┌▓È_1
  5
484
 10
289.060
 20
-646.414
 30
0.000000
  70
    32
  0
VERTEX
  8
┌▓È_1
  5
485
 10
289.095
 20
-646.424
 30
0.000000
  70
    32
  0
VERTEX
  8
┌▓È_1
  5
486
 10
289.130
 20
-646.434
 30
0.000000
  70
    32
  0
VERTEX
  8
┌▓È_1
  5
487
 10
289.165
 20
-646.444
 30
0.000000
  70
    32
  0
VERTEX
  8
┌▓È_1
  5
488
 10
289.201
 20
-646.454
 30
0.000000
  70
    32
  0
VERTEX
  8
┌▓È_1
  5
489
 10
289.236
 20
-646.463
 30
0.000000
  70
    32
  0
VERTEX
  8
┌▓È_1
  5
48A
 10
289.271
 20
-646.473
 30
0.000000
  70
    32
  0
VERTEX
  8
┌▓È_1
  5
48B
 10
289.306
 20
-646.482
 30
0.000000
  70
    32
  0
VERTEX
  8
┌▓È_1
  5
48C
 10
289.341
 20
-646.492
 30
0.000000
  70
    32
  0
VERTEX
  8
┌▓È_1
  5
48D
 10
289.377
 20
-646.501
 30
0.000000
  70
    32
  0
VERTEX
  8
┌▓È_1
  5
48E
 10
289.412
 20
-646.510
 30
0.000000
  70
    32
  0
VERTEX
  8
┌▓È_1
  5
48F
 10
289.447
 20
-646.520
 30
0.000000
  70
    32
  0
VERTEX
  8
┌▓È_1
  5
490
 10
289.483
 20
-646.529
 30
0.000000
  70
    32
  0
VERTEX
  8
┌▓È_1
  5
491
 10
289.518
 20
-646.538
 30
0.000000
  70
    32
  0
VERTEX
  8
┌▓È_1
  5
492
 10
289.554
 20
-646.547
 30
0.000000
  70
    32
  0
VERTEX
  8
┌▓È_1
  5
493
 10
289.589
 20
-646.557
 30
0.000000
  70
    32
  0
VERTEX
  8
┌▓È_1
  5
494
 10
289.624
 20
-646.566
 30
0.000000
  70
    32
  0
VERTEX
  8
┌▓È_1
  5
495
 10
289.660
 20
-646.575
 30
0.000000
  70
    32
  0
VERTEX
  8
┌▓È_1
  5
496
 10
289.696
 20
-646.584
 30
0.000000
  70
    32
  0
VERTEX
  8
┌▓È_1
  5
497
 10
289.731
 20
-646.592
 30
0.000000
  70
    32
  0
VERTEX
  8
┌▓È_1
  5
498
 10
289.767
 20
-646.601
 30
0.000000
  70
    32
  0
VERTEX
  8
┌▓È_1
  5
499
 10
289.802
 20
-646.610
 30
0.000000
  70
    32
  0
VERTEX
  8
┌▓È_1
  5
49A
 10
289.838
 20
-646.619
 30
0.000000
  70
    32
  0
VERTEX
  8
┌▓È_1
  5
49B
 10
289.874
 20
-646.628
 30
0.000000
  70
    32
  0
VERTEX
  8
┌▓È_1
  5
49C
 10
289.910
 20
-646.636
 30
0.000000
  70
    32
  0
VERTEX
  8
┌▓È_1
  5
49D
 10
289.945
 20
-646.645
 30
0.000000
  70
    32
  0
VERTEX
  8
┌▓È_1
  5
49E
 10
289.981
 20
-646.653
 30
0.000000
  70
    32
  0
VERTEX
  8
┌▓È_1
  5
49F
 10
290.017
 20
-646.662
 30
0.000000
  70
    32
  0
VERTEX
  8
┌▓È_1
  5
4A0
 10
290.053
 20
-646.670
 30
0.000000
  70
    32
  0
VERTEX
  8
┌▓È_1
  5
4A1
 10
290.089
 20
-646.679
 30
0.000000
  70
    32
  0
VERTEX
  8
┌▓È_1
  5
4A2
 10
290.125
 20
-646.687
 30
0.000000
  70
    32
  0
VERTEX
  8
┌▓È_1
  5
4A3
 10
290.161
 20
-646.696
 30
0.000000
  70
    32
  0
VERTEX
  8
┌▓È_1
  5
4A4
 10
290.197
 20
-646.704
 30
0.000000
  70
    32
  0
VERTEX
  8
┌▓È_1
  5
4A5
 10
290.233
 20
-646.712
 30
0.000000
  70
    32
  0
VERTEX
  8
┌▓È_1
  5
4A6
 10
290.269
 20
-646.720
 30
0.000000
  70
    32
  0
VERTEX
  8
┌▓È_1
  5
4A7
 10
290.305
 20
-646.729
 30
0.000000
  70
    32
  0
VERTEX
  8
┌▓È_1
  5
4A8
 10
290.341
 20
-646.737
 30
0.000000
  70
    32
  0
VERTEX
  8
┌▓È_1
  5
4A9
 10
290.377
 20
-646.745
 30
0.000000
  70
    32
  0
VERTEX
  8
┌▓È_1
  5
4AA
 10
290.413
 20
-646.753
 30
0.000000
  70
    32
  0
VERTEX
  8
┌▓È_1
  5
4AB
 10
290.449
 20
-646.761
 30
0.000000
  70
    32
  0
VERTEX
  8
┌▓È_1
  5
4AC
 10
290.485
 20
-646.769
 30
0.000000
  70
    32
  0
VERTEX
  8
┌▓È_1
  5
4AD
 10
290.521
 20
-646.777
 30
0.000000
  70
    32
  0
VERTEX
  8
┌▓È_1
  5
4AE
 10
290.558
 20
-646.785
 30
0.000000
  70
    32
  0
VERTEX
  8
┌▓È_1
  5
4AF
 10
290.594
 20
-646.793
 30
0.000000
  70
    32
  0
VERTEX
  8
┌▓È_1
  5
4B0
 10
290.630
 20
-646.800
 30
0.000000
  70
    32
  0
VERTEX
  8
┌▓È_1
  5
4B1
 10
290.666
 20
-646.808
 30
0.000000
  70
    32
  0
VERTEX
  8
┌▓È_1
  5
4B2
 10
290.703
 20
-646.816
 30
0.000000
  70
    32
  0
VERTEX
  8
┌▓È_1
  5
4B3
 10
290.739
 20
-646.824
 30
0.000000
  70
    32
  0
VERTEX
  8
┌▓È_1
  5
4B4
 10
290.775
 20
-646.831
 30
0.000000
  70
    32
  0
VERTEX
  8
┌▓È_1
  5
4B5
 10
290.812
 20
-646.839
 30
0.000000
  70
    32
  0
VERTEX
  8
┌▓È_1
  5
4B6
 10
290.848
 20
-646.847
 30
0.000000
  70
    32
  0
VERTEX
  8
┌▓È_1
  5
4B7
 10
290.885
 20
-646.854
 30
0.000000
  70
    32
  0
VERTEX
  8
┌▓È_1
  5
4B8
 10
290.921
 20
-646.862
 30
0.000000
  70
    32
  0
VERTEX
  8
┌▓È_1
  5
4B9
 10
290.957
 20
-646.869
 30
0.000000
  70
    32
  0
VERTEX
  8
┌▓È_1
  5
4BA
 10
290.994
 20
-646.877
 30
0.000000
  70
    32
  0
VERTEX
  8
┌▓È_1
  5
4BB
 10
291.030
 20
-646.884
 30
0.000000
  70
    32
  0
VERTEX
  8
┌▓È_1
  5
4BC
 10
291.067
 20
-646.892
 30
0.000000
  70
    32
  0
VERTEX
  8
┌▓È_1
  5
4BD
 10
291.103
 20
-646.899
 30
0.000000
  70
    32
  0
VERTEX
  8
┌▓È_1
  5
4BE
 10
291.140
 20
-646.906
 30
0.000000
  70
    32
  0
VERTEX
  8
┌▓È_1
  5
4BF
 10
291.177
 20
-646.914
 30
0.000000
  70
    32
  0
VERTEX
  8
┌▓È_1
  5
4C0
 10
291.213
 20
-646.921
 30
0.000000
  70
    32
  0
VERTEX
  8
┌▓È_1
  5
4C1
 10
291.250
 20
-646.928
 30
0.000000
  70
    32
  0
VERTEX
  8
┌▓È_1
  5
4C2
 10
291.286
 20
-646.935
 30
0.000000
  70
    32
  0
VERTEX
  8
┌▓È_1
  5
4C3
 10
291.323
 20
-646.943
 30
0.000000
  70
    32
  0
VERTEX
  8
┌▓È_1
  5
4C4
 10
291.360
 20
-646.950
 30
0.000000
  70
    32
  0
VERTEX
  8
┌▓È_1
  5
4C5
 10
291.396
 20
-646.957
 30
0.000000
  70
    32
  0
VERTEX
  8
┌▓È_1
  5
4C6
 10
291.433
 20
-646.964
 30
0.000000
  70
    32
  0
VERTEX
  8
┌▓È_1
  5
4C7
 10
291.470
 20
-646.971
 30
0.000000
  70
    32
  0
VERTEX
  8
┌▓È_1
  5
4C8
 10
291.507
 20
-646.978
 30
0.000000
  70
    32
  0
VERTEX
  8
┌▓È_1
  5
4C9
 10
291.543
 20
-646.985
 30
0.000000
  70
    32
  0
VERTEX
  8
┌▓È_1
  5
4CA
 10
291.580
 20
-646.992
 30
0.000000
  70
    32
  0
VERTEX
  8
┌▓È_1
  5
4CB
 10
291.617
 20
-646.999
 30
0.000000
  70
    32
  0
VERTEX
  8
┌▓È_1
  5
4CC
 10
291.654
 20
-647.006
 30
0.000000
  70
    32
  0
VERTEX
  8
┌▓È_1
  5
4CD
 10
291.691
 20
-647.013
 30
0.000000
  70
    32
  0
VERTEX
  8
┌▓È_1
  5
4CE
 10
291.727
 20
-647.020
 30
0.000000
  70
    32
  0
VERTEX
  8
┌▓È_1
  5
4CF
 10
291.764
 20
-647.027
 30
0.000000
  70
    32
  0
VERTEX
  8
┌▓È_1
  5
4D0
 10
291.801
 20
-647.034
 30
0.000000
  70
    32
  0
VERTEX
  8
┌▓È_1
  5
4D1
 10
291.838
 20
-647.041
 30
0.000000
  70
    32
  0
VERTEX
  8
┌▓È_1
  5
4D2
 10
291.875
 20
-647.047
 30
0.000000
  70
    32
  0
VERTEX
  8
┌▓È_1
  5
4D3
 10
291.912
 20
-647.054
 30
0.000000
  70
    32
  0
VERTEX
  8
┌▓È_1
  5
4D4
 10
291.949
 20
-647.061
 30
0.000000
  70
    32
  0
VERTEX
  8
┌▓È_1
  5
4D5
 10
291.986
 20
-647.068
 30
0.000000
  70
    32
  0
VERTEX
  8
┌▓È_1
  5
4D6
 10
292.023
 20
-647.075
 30
0.000000
  70
    32
  0
VERTEX
  8
┌▓È_1
  5
4D7
 10
292.059
 20
-647.081
 30
0.000000
  70
    32
  0
VERTEX
  8
┌▓È_1
  5
4D8
 10
292.096
 20
-647.088
 30
0.000000
  70
    32
  0
VERTEX
  8
┌▓È_1
  5
4D9
 10
292.133
 20
-647.095
 30
0.000000
  70
    32
  0
VERTEX
  8
┌▓È_1
  5
4DA
 10
292.170
 20
-647.101
 30
0.000000
  70
    32
  0
VERTEX
  8
┌▓È_1
  5
4DB
 10
292.207
 20
-647.108
 30
0.000000
  70
    32
  0
VERTEX
  8
┌▓È_1
  5
4DC
 10
292.244
 20
-647.115
 30
0.000000
  70
    32
  0
VERTEX
  8
┌▓È_1
  5
4DD
 10
292.281
 20
-647.121
 30
0.000000
  70
    32
  0
VERTEX
  8
┌▓È_1
  5
4DE
 10
292.318
 20
-647.128
 30
0.000000
  70
    32
  0
VERTEX
  8
┌▓È_1
  5
4DF
 10
292.356
 20
-647.134
 30
0.000000
  70
    32
  0
VERTEX
  8
┌▓È_1
  5
4E0
 10
292.393
 20
-647.141
 30
0.000000
  70
    32
  0
VERTEX
  8
┌▓È_1
  5
4E1
 10
292.430
 20
-647.147
 30
0.000000
  70
    32
  0
VERTEX
  8
┌▓È_1
  5
4E2
 10
292.467
 20
-647.154
 30
0.000000
  70
    32
  0
VERTEX
  8
┌▓È_1
  5
4E3
 10
292.504
 20
-647.160
 30
0.000000
  70
    32
  0
VERTEX
  8
┌▓È_1
  5
4E4
 10
292.541
 20
-647.167
 30
0.000000
  70
    32
  0
VERTEX
  8
┌▓È_1
  5
4E5
 10
292.578
 20
-647.173
 30
0.000000
  70
    32
  0
VERTEX
  8
┌▓È_1
  5
4E6
 10
292.615
 20
-647.180
 30
0.000000
  70
    32
  0
VERTEX
  8
┌▓È_1
  5
4E7
 10
292.652
 20
-647.186
 30
0.000000
  70
    32
  0
VERTEX
  8
┌▓È_1
  5
4E8
 10
292.689
 20
-647.193
 30
0.000000
  70
    32
  0
VERTEX
  8
┌▓È_1
  5
4E9
 10
292.726
 20
-647.199
 30
0.000000
  70
    32
  0
VERTEX
  8
┌▓È_1
  5
4EA
 10
292.764
 20
-647.206
 30
0.000000
  70
    32
  0
VERTEX
  8
┌▓È_1
  5
4EB
 10
292.801
 20
-647.212
 30
0.000000
  70
    32
  0
VERTEX
  8
┌▓È_1
  5
4EC
 10
292.838
 20
-647.218
 30
0.000000
  70
    32
  0
VERTEX
  8
┌▓È_1
  5
4ED
 10
292.875
 20
-647.225
 30
0.000000
  70
    32
  0
VERTEX
  8
┌▓È_1
  5
4EE
 10
292.912
 20
-647.231
 30
0.000000
  70
    32
  0
VERTEX
  8
┌▓È_1
  5
4EF
 10
292.949
 20
-647.238
 30
0.000000
  70
    32
  0
VERTEX
  8
┌▓È_1
  5
4F0
 10
292.987
 20
-647.244
 30
0.000000
  70
    32
  0
VERTEX
  8
┌▓È_1
  5
4F1
 10
293.024
 20
-647.250
 30
0.000000
  70
    32
  0
VERTEX
  8
┌▓È_1
  5
4F2
 10
293.061
 20
-647.257
 30
0.000000
  70
    32
  0
VERTEX
  8
┌▓È_1
  5
4F3
 10
293.098
 20
-647.263
 30
0.000000
  70
    32
  0
VERTEX
  8
┌▓È_1
  5
4F4
 10
293.135
 20
-647.269
 30
0.000000
  70
    32
  0
VERTEX
  8
┌▓È_1
  5
4F5
 10
293.172
 20
-647.276
 30
0.000000
  70
    32
  0
VERTEX
  8
┌▓È_1
  5
4F6
 10
293.210
 20
-647.282
 30
0.000000
  70
    32
  0
VERTEX
  8
┌▓È_1
  5
4F7
 10
293.247
 20
-647.288
 30
0.000000
  70
    32
  0
VERTEX
  8
┌▓È_1
  5
4F8
 10
293.284
 20
-647.295
 30
0.000000
  70
    32
  0
VERTEX
  8
┌▓È_1
  5
4F9
 10
293.321
 20
-647.301
 30
0.000000
  70
    32
  0
VERTEX
  8
┌▓È_1
  5
4FA
 10
293.358
 20
-647.307
 30
0.000000
  70
    32
  0
VERTEX
  8
┌▓È_1
  5
4FB
 10
293.396
 20
-647.313
 30
0.000000
  70
    32
  0
VERTEX
  8
┌▓È_1
  5
4FC
 10
293.433
 20
-647.320
 30
0.000000
  70
    32
  0
VERTEX
  8
┌▓È_1
  5
4FD
 10
293.470
 20
-647.326
 30
0.000000
  70
    32
  0
VERTEX
  8
┌▓È_1
  5
4FE
 10
293.507
 20
-647.332
 30
0.000000
  70
    32
  0
VERTEX
  8
┌▓È_1
  5
4FF
 10
293.545
 20
-647.339
 30
0.000000
  70
    32
  0
VERTEX
  8
┌▓È_1
  5
500
 10
293.582
 20
-647.345
 30
0.000000
  70
    32
  0
VERTEX
  8
┌▓È_1
  5
501
 10
293.619
 20
-647.351
 30
0.000000
  70
    32
  0
VERTEX
  8
┌▓È_1
  5
502
 10
293.656
 20
-647.358
 30
0.000000
  70
    32
  0
SEQEND
  8
┌▓È_1
  5
503
  0
POLYLINE
  8
┌▓È_1
  5
504
  66
     1
 10
0.000000
 20
0.000000
 30
0.000000
  70
     8
  0
VERTEX
  8
┌▓È_1
  5
505
 10
275.656
 20
-641.646
 30
0.000000
  70
    32
  0
VERTEX
  8
┌▓È_1
  5
506
 10
275.692
 20
-641.679
 30
0.000000
  70
    32
  0
VERTEX
  8
┌▓È_1
  5
507
 10
275.728
 20
-641.712
 30
0.000000
  70
    32
  0
VERTEX
  8
┌▓È_1
  5
508
 10
275.764
 20
-641.746
 30
0.000000
  70
    32
  0
VERTEX
  8
┌▓È_1
  5
509
 10
275.800
 20
-641.779
 30
0.000000
  70
    32
  0
VERTEX
  8
┌▓È_1
  5
50A
 10
275.836
 20
-641.812
 30
0.000000
  70
    32
  0
VERTEX
  8
┌▓È_1
  5
50B
 10
275.872
 20
-641.845
 30
0.000000
  70
    32
  0
VERTEX
  8
┌▓È_1
  5
50C
 10
275.908
 20
-641.878
 30
0.000000
  70
    32
  0
VERTEX
  8
┌▓È_1
  5
50D
 10
275.944
 20
-641.912
 30
0.000000
  70
    32
  0
VERTEX
  8
┌▓È_1
  5
50E
 10
275.980
 20
-641.945
 30
0.000000
  70
    32
  0
VERTEX
  8
┌▓È_1
  5
50F
 10
276.016
 20
-641.978
 30
0.000000
  70
    32
  0
VERTEX
  8
┌▓È_1
  5
510
 10
276.053
 20
-642.011
 30
0.000000
  70
    32
  0
VERTEX
  8
┌▓È_1
  5
511
 10
276.089
 20
-642.044
 30
0.000000
  70
    32
  0
VERTEX
  8
┌▓È_1
  5
512
 10
276.125
 20
-642.077
 30
0.000000
  70
    32
  0
VERTEX
  8
┌▓È_1
  5
513
 10
276.161
 20
-642.111
 30
0.000000
  70
    32
  0
VERTEX
  8
┌▓È_1
  5
514
 10
276.197
 20
-642.144
 30
0.000000
  70
    32
  0
VERTEX
  8
┌▓È_1
  5
515
 10
276.233
 20
-642.177
 30
0.000000
  70
    32
  0
VERTEX
  8
┌▓È_1
  5
516
 10
276.269
 20
-642.210
 30
0.000000
  70
    32
  0
VERTEX
  8
┌▓È_1
  5
517
 10
276.305
 20
-642.243
 30
0.000000
  70
    32
  0
VERTEX
  8
┌▓È_1
  5
518
 10
276.341
 20
-642.276
 30
0.000000
  70
    32
  0
VERTEX
  8
┌▓È_1
  5
519
 10
276.377
 20
-642.309
 30
0.000000
  70
    32
  0
VERTEX
  8
┌▓È_1
  5
51A
 10
276.413
 20
-642.342
 30
0.000000
  70
    32
  0
VERTEX
  8
┌▓È_1
  5
51B
 10
276.449
 20
-642.375
 30
0.000000
  70
    32
  0
VERTEX
  8
┌▓È_1
  5
51C
 10
276.485
 20
-642.408
 30
0.000000
  70
    32
  0
VERTEX
  8
┌▓È_1
  5
51D
 10
276.522
 20
-642.441
 30
0.000000
  70
    32
  0
VERTEX
  8
┌▓È_1
  5
51E
 10
276.558
 20
-642.474
 30
0.000000
  70
    32
  0
VERTEX
  8
┌▓È_1
  5
51F
 10
276.594
 20
-642.507
 30
0.000000
  70
    32
  0
VERTEX
  8
┌▓È_1
  5
520
 10
276.630
 20
-642.540
 30
0.000000
  70
    32
  0
VERTEX
  8
┌▓È_1
  5
521
 10
276.666
 20
-642.573
 30
0.000000
  70
    32
  0
VERTEX
  8
┌▓È_1
  5
522
 10
276.702
 20
-642.606
 30
0.000000
  70
    32
  0
VERTEX
  8
┌▓È_1
  5
523
 10
276.739
 20
-642.639
 30
0.000000
  70
    32
  0
VERTEX
  8
┌▓È_1
  5
524
 10
276.775
 20
-642.672
 30
0.000000
  70
    32
  0
VERTEX
  8
┌▓È_1
  5
525
 10
276.811
 20
-642.705
 30
0.000000
  70
    32
  0
VERTEX
  8
┌▓È_1
  5
526
 10
276.847
 20
-642.738
 30
0.000000
  70
    32
  0
VERTEX
  8
┌▓È_1
  5
527
 10
276.883
 20
-642.770
 30
0.000000
  70
    32
  0
VERTEX
  8
┌▓È_1
  5
528
 10
276.920
 20
-642.803
 30
0.000000
  70
    32
  0
VERTEX
  8
┌▓È_1
  5
529
 10
276.956
 20
-642.836
 30
0.000000
  70
    32
  0
VERTEX
  8
┌▓È_1
  5
52A
 10
276.992
 20
-642.869
 30
0.000000
  70
    32
  0
VERTEX
  8
┌▓È_1
  5
52B
 10
277.028
 20
-642.901
 30
0.000000
  70
    32
  0
VERTEX
  8
┌▓È_1
  5
52C
 10
277.065
 20
-642.934
 30
0.000000
  70
    32
  0
VERTEX
  8
┌▓È_1
  5
52D
 10
277.101
 20
-642.967
 30
0.000000
  70
    32
  0
VERTEX
  8
┌▓È_1
  5
52E
 10
277.137
 20
-642.999
 30
0.000000
  70
    32
  0
VERTEX
  8
┌▓È_1
  5
52F
 10
277.174
 20
-643.032
 30
0.000000
  70
    32
  0
VERTEX
  8
┌▓È_1
  5
530
 10
277.210
 20
-643.065
 30
0.000000
  70
    32
  0
VERTEX
  8
┌▓È_1
  5
531
 10
277.246
 20
-643.097
 30
0.000000
  70
    32
  0
VERTEX
  8
┌▓È_1
  5
532
 10
277.283
 20
-643.130
 30
0.000000
  70
    32
  0
VERTEX
  8
┌▓È_1
  5
533
 10
277.319
 20
-643.162
 30
0.000000
  70
    32
  0
VERTEX
  8
┌▓È_1
  5
534
 10
277.356
 20
-643.195
 30
0.000000
  70
    32
  0
VERTEX
  8
┌▓È_1
  5
535
 10
277.392
 20
-643.227
 30
0.000000
  70
    32
  0
VERTEX
  8
┌▓È_1
  5
536
 10
277.429
 20
-643.259
 30
0.000000
  70
    32
  0
VERTEX
  8
┌▓È_1
  5
537
 10
277.465
 20
-643.292
 30
0.000000
  70
    32
  0
VERTEX
  8
┌▓È_1
  5
538
 10
277.502
 20
-643.324
 30
0.000000
  70
    32
  0
VERTEX
  8
┌▓È_1
  5
539
 10
277.538
 20
-643.356
 30
0.000000
  70
    32
  0
VERTEX
  8
┌▓È_1
  5
53A
 10
277.575
 20
-643.389
 30
0.000000
  70
    32
  0
VERTEX
  8
┌▓È_1
  5
53B
 10
277.611
 20
-643.421
 30
0.000000
  70
    32
  0
VERTEX
  8
┌▓È_1
  5
53C
 10
277.648
 20
-643.453
 30
0.000000
  70
    32
  0
VERTEX
  8
┌▓È_1
  5
53D
 10
277.684
 20
-643.485
 30
0.000000
  70
    32
  0
VERTEX
  8
┌▓È_1
  5
53E
 10
277.721
 20
-643.517
 30
0.000000
  70
    32
  0
VERTEX
  8
┌▓È_1
  5
53F
 10
277.758
 20
-643.549
 30
0.000000
  70
    32
  0
VERTEX
  8
┌▓È_1
  5
540
 10
277.794
 20
-643.581
 30
0.000000
  70
    32
  0
VERTEX
  8
┌▓È_1
  5
541
 10
277.831
 20
-643.613
 30
0.000000
  70
    32
  0
VERTEX
  8
┌▓È_1
  5
542
 10
277.868
 20
-643.645
 30
0.000000
  70
    32
  0
VERTEX
  8
┌▓È_1
  5
543
 10
277.904
 20
-643.677
 30
0.000000
  70
    32
  0
VERTEX
  8
┌▓È_1
  5
544
 10
277.941
 20
-643.709
 30
0.000000
  70
    32
  0
VERTEX
  8
┌▓È_1
  5
545
 10
277.978
 20
-643.741
 30
0.000000
  70
    32
  0
VERTEX
  8
┌▓È_1
  5
546
 10
278.015
 20
-643.773
 30
0.000000
  70
    32
  0
VERTEX
  8
┌▓È_1
  5
547
 10
278.052
 20
-643.804
 30
0.000000
  70
    32
  0
VERTEX
  8
┌▓È_1
  5
548
 10
278.088
 20
-643.836
 30
0.000000
  70
    32
  0
VERTEX
  8
┌▓È_1
  5
549
 10
278.125
 20
-643.868
 30
0.000000
  70
    32
  0
VERTEX
  8
┌▓È_1
  5
54A
 10
278.162
 20
-643.899
 30
0.000000
  70
    32
  0
VERTEX
  8
┌▓È_1
  5
54B
 10
278.199
 20
-643.931
 30
0.000000
  70
    32
  0
VERTEX
  8
┌▓È_1
  5
54C
 10
278.236
 20
-643.962
 30
0.000000
  70
    32
  0
VERTEX
  8
┌▓È_1
  5
54D
 10
278.273
 20
-643.994
 30
0.000000
  70
    32
  0
VERTEX
  8
┌▓È_1
  5
54E
 10
278.310
 20
-644.025
 30
0.000000
  70
    32
  0
VERTEX
  8
┌▓È_1
  5
54F
 10
278.347
 20
-644.056
 30
0.000000
  70
    32
  0
VERTEX
  8
┌▓È_1
  5
550
 10
278.384
 20
-644.088
 30
0.000000
  70
    32
  0
VERTEX
  8
┌▓È_1
  5
551
 10
278.421
 20
-644.119
 30
0.000000
  70
    32
  0
VERTEX
  8
┌▓È_1
  5
552
 10
278.458
 20
-644.150
 30
0.000000
  70
    32
  0
VERTEX
  8
┌▓È_1
  5
553
 10
278.496
 20
-644.181
 30
0.000000
  70
    32
  0
VERTEX
  8
┌▓È_1
  5
554
 10
278.533
 20
-644.212
 30
0.000000
  70
    32
  0
VERTEX
  8
┌▓È_1
  5
555
 10
278.570
 20
-644.243
 30
0.000000
  70
    32
  0
VERTEX
  8
┌▓È_1
  5
556
 10
278.607
 20
-644.274
 30
0.000000
  70
    32
  0
VERTEX
  8
┌▓È_1
  5
557
 10
278.644
 20
-644.305
 30
0.000000
  70
    32
  0
VERTEX
  8
┌▓È_1
  5
558
 10
278.682
 20
-644.336
 30
0.000000
  70
    32
  0
VERTEX
  8
┌▓È_1
  5
559
 10
278.719
 20
-644.367
 30
0.000000
  70
    32
  0
VERTEX
  8
┌▓È_1
  5
55A
 10
278.756
 20
-644.398
 30
0.000000
  70
    32
  0
VERTEX
  8
┌▓È_1
  5
55B
 10
278.794
 20
-644.428
 30
0.000000
  70
    32
  0
VERTEX
  8
┌▓È_1
  5
55C
 10
278.831
 20
-644.459
 30
0.000000
  70
    32
  0
VERTEX
  8
┌▓È_1
  5
55D
 10
278.869
 20
-644.490
 30
0.000000
  70
    32
  0
VERTEX
  8
┌▓È_1
  5
55E
 10
278.906
 20
-644.520
 30
0.000000
  70
    32
  0
VERTEX
  8
┌▓È_1
  5
55F
 10
278.944
 20
-644.550
 30
0.000000
  70
    32
  0
VERTEX
  8
┌▓È_1
  5
560
 10
278.981
 20
-644.581
 30
0.000000
  70
    32
  0
VERTEX
  8
┌▓È_1
  5
561
 10
279.019
 20
-644.611
 30
0.000000
  70
    32
  0
VERTEX
  8
┌▓È_1
  5
562
 10
279.056
 20
-644.641
 30
0.000000
  70
    32
  0
VERTEX
  8
┌▓È_1
  5
563
 10
279.094
 20
-644.672
 30
0.000000
  70
    32
  0
VERTEX
  8
┌▓È_1
  5
564
 10
279.132
 20
-644.702
 30
0.000000
  70
    32
  0
VERTEX
  8
┌▓È_1
  5
565
 10
279.169
 20
-644.732
 30
0.000000
  70
    32
  0
VERTEX
  8
┌▓È_1
  5
566
 10
279.207
 20
-644.762
 30
0.000000
  70
    32
  0
VERTEX
  8
┌▓È_1
  5
567
 10
279.245
 20
-644.792
 30
0.000000
  70
    32
  0
VERTEX
  8
┌▓È_1
  5
568
 10
279.283
 20
-644.822
 30
0.000000
  70
    32
  0
VERTEX
  8
┌▓È_1
  5
569
 10
279.321
 20
-644.851
 30
0.000000
  70
    32
  0
VERTEX
  8
┌▓È_1
  5
56A
 10
279.359
 20
-644.881
 30
0.000000
  70
    32
  0
VERTEX
  8
┌▓È_1
  5
56B
 10
279.397
 20
-644.911
 30
0.000000
  70
    32
  0
VERTEX
  8
┌▓È_1
  5
56C
 10
279.435
 20
-644.940
 30
0.000000
  70
    32
  0
VERTEX
  8
┌▓È_1
  5
56D
 10
279.473
 20
-644.970
 30
0.000000
  70
    32
  0
VERTEX
  8
┌▓È_1
  5
56E
 10
279.511
 20
-644.999
 30
0.000000
  70
    32
  0
VERTEX
  8
┌▓È_1
  5
56F
 10
279.549
 20
-645.029
 30
0.000000
  70
    32
  0
VERTEX
  8
┌▓È_1
  5
570
 10
279.587
 20
-645.058
 30
0.000000
  70
    32
  0
VERTEX
  8
┌▓È_1
  5
571
 10
279.625
 20
-645.087
 30
0.000000
  70
    32
  0
VERTEX
  8
┌▓È_1
  5
572
 10
279.663
 20
-645.116
 30
0.000000
  70
    32
  0
VERTEX
  8
┌▓È_1
  5
573
 10
279.702
 20
-645.145
 30
0.000000
  70
    32
  0
VERTEX
  8
┌▓È_1
  5
574
 10
279.740
 20
-645.174
 30
0.000000
  70
    32
  0
VERTEX
  8
┌▓È_1
  5
575
 10
279.778
 20
-645.203
 30
0.000000
  70
    32
  0
VERTEX
  8
┌▓È_1
  5
576
 10
279.817
 20
-645.232
 30
0.000000
  70
    32
  0
VERTEX
  8
┌▓È_1
  5
577
 10
279.855
 20
-645.261
 30
0.000000
  70
    32
  0
VERTEX
  8
┌▓È_1
  5
578
 10
279.894
 20
-645.289
 30
0.000000
  70
    32
  0
VERTEX
  8
┌▓È_1
  5
579
 10
279.932
 20
-645.318
 30
0.000000
  70
    32
  0
VERTEX
  8
┌▓È_1
  5
57A
 10
279.971
 20
-645.346
 30
0.000000
  70
    32
  0
VERTEX
  8
┌▓È_1
  5
57B
 10
280.009
 20
-645.375
 30
0.000000
  70
    32
  0
VERTEX
  8
┌▓È_1
  5
57C
 10
280.048
 20
-645.403
 30
0.000000
  70
    32
  0
VERTEX
  8
┌▓È_1
  5
57D
 10
280.087
 20
-645.432
 30
0.000000
  70
    32
  0
VERTEX
  8
┌▓È_1
  5
57E
 10
280.125
 20
-645.460
 30
0.000000
  70
    32
  0
VERTEX
  8
┌▓È_1
  5
57F
 10
280.164
 20
-645.488
 30
0.000000
  70
    32
  0
VERTEX
  8
┌▓È_1
  5
580
 10
280.203
 20
-645.516
 30
0.000000
  70
    32
  0
VERTEX
  8
┌▓È_1
  5
581
 10
280.242
 20
-645.544
 30
0.000000
  70
    32
  0
VERTEX
  8
┌▓È_1
  5
582
 10
280.281
 20
-645.572
 30
0.000000
  70
    32
  0
VERTEX
  8
┌▓È_1
  5
583
 10
280.320
 20
-645.599
 30
0.000000
  70
    32
  0
VERTEX
  8
┌▓È_1
  5
584
 10
280.359
 20
-645.627
 30
0.000000
  70
    32
  0
VERTEX
  8
┌▓È_1
  5
585
 10
280.398
 20
-645.655
 30
0.000000
  70
    32
  0
VERTEX
  8
┌▓È_1
  5
586
 10
280.437
 20
-645.682
 30
0.000000
  70
    32
  0
VERTEX
  8
┌▓È_1
  5
587
 10
280.476
 20
-645.710
 30
0.000000
  70
    32
  0
VERTEX
  8
┌▓È_1
  5
588
 10
280.515
 20
-645.737
 30
0.000000
  70
    32
  0
VERTEX
  8
┌▓È_1
  5
589
 10
280.554
 20
-645.764
 30
0.000000
  70
    32
  0
VERTEX
  8
┌▓È_1
  5
58A
 10
280.594
 20
-645.791
 30
0.000000
  70
    32
  0
VERTEX
  8
┌▓È_1
  5
58B
 10
280.633
 20
-645.818
 30
0.000000
  70
    32
  0
VERTEX
  8
┌▓È_1
  5
58C
 10
280.673
 20
-645.845
 30
0.000000
  70
    32
  0
VERTEX
  8
┌▓È_1
  5
58D
 10
280.712
 20
-645.872
 30
0.000000
  70
    32
  0
VERTEX
  8
┌▓È_1
  5
58E
 10
280.751
 20
-645.899
 30
0.000000
  70
    32
  0
VERTEX
  8
┌▓È_1
  5
58F
 10
280.791
 20
-645.926
 30
0.000000
  70
    32
  0
VERTEX
  8
┌▓È_1
  5
590
 10
280.831
 20
-645.952
 30
0.000000
  70
    32
  0
VERTEX
  8
┌▓È_1
  5
591
 10
280.870
 20
-645.979
 30
0.000000
  70
    32
  0
VERTEX
  8
┌▓È_1
  5
592
 10
280.910
 20
-646.005
 30
0.000000
  70
    32
  0
VERTEX
  8
┌▓È_1
  5
593
 10
280.950
 20
-646.031
 30
0.000000
  70
    32
  0
VERTEX
  8
┌▓È_1
  5
594
 10
280.990
 20
-646.057
 30
0.000000
  70
    32
  0
VERTEX
  8
┌▓È_1
  5
595
 10
281.029
 20
-646.084
 30
0.000000
  70
    32
  0
VERTEX
  8
┌▓È_1
  5
596
 10
281.069
 20
-646.110
 30
0.000000
  70
    32
  0
VERTEX
  8
┌▓È_1
  5
597
 10
281.109
 20
-646.135
 30
0.000000
  70
    32
  0
VERTEX
  8
┌▓È_1
  5
598
 10
281.149
 20
-646.161
 30
0.000000
  70
    32
  0
VERTEX
  8
┌▓È_1
  5
599
 10
281.190
 20
-646.187
 30
0.000000
  70
    32
  0
VERTEX
  8
┌▓È_1
  5
59A
 10
281.230
 20
-646.212
 30
0.000000
  70
    32
  0
VERTEX
  8
┌▓È_1
  5
59B
 10
281.270
 20
-646.238
 30
0.000000
  70
    32
  0
VERTEX
  8
┌▓È_1
  5
59C
 10
281.310
 20
-646.263
 30
0.000000
  70
    32
  0
VERTEX
  8
┌▓È_1
  5
59D
 10
281.350
 20
-646.289
 30
0.000000
  70
    32
  0
VERTEX
  8
┌▓È_1
  5
59E
 10
281.391
 20
-646.314
 30
0.000000
  70
    32
  0
VERTEX
  8
┌▓È_1
  5
59F
 10
281.431
 20
-646.339
 30
0.000000
  70
    32
  0
VERTEX
  8
┌▓È_1
  5
5A0
 10
281.472
 20
-646.364
 30
0.000000
  70
    32
  0
VERTEX
  8
┌▓È_1
  5
5A1
 10
281.512
 20
-646.389
 30
0.000000
  70
    32
  0
VERTEX
  8
┌▓È_1
  5
5A2
 10
281.553
 20
-646.413
 30
0.000000
  70
    32
  0
VERTEX
  8
┌▓È_1
  5
5A3
 10
281.594
 20
-646.438
 30
0.000000
  70
    32
  0
VERTEX
  8
┌▓È_1
  5
5A4
 10
281.634
 20
-646.463
 30
0.000000
  70
    32
  0
SEQEND
  8
┌▓È_1
  5
5A5
  0
LINE
  5
1A9
  8
┌▓È_1
 10
306.49114466520001
 20
-651.35751912879994
 30
0.0
 11
305.66981133190001
 21
-648.55751912879987
 31
0.0
  0
LINE
  5
1AA
  8
┌▓È_1
 10
310.24945016150002
 20
-644.95751912879985
 30
0.0
 11
309.78902653559999
 21
-643.35751912879994
 31
0.0
  0
ARC
  5
1AB
  8
┌▓È_1
 10
278.0561793686
 20
-639.75751912880003
 30
0.0
 40
7.5999999999999988
 50
331.39928138329998
 51
358.49204224580001
  0
LINE
  5
1AC
  8
┌▓È_1
 10
335.01367427090003
 20
-588.92786506260006
 30
0.0
 11
335.01367427090003
 21
-654.92786506259995
 31
0.0
  0
LINE
  5
1AD
  8
┌▓È_1
 10
298.09114466519998
 20
-643.35751912879994
 30
0.0
 11
304.14447799850001
 21
-643.35751912879994
 31
0.0
  0
LINE
  5
1AE
  8
┌▓È_1
 62
     5
 10
-355.2981770833
 20
-272.70104166670001
 30
0.0
 11
-494.7981770833
 21
-272.70104166670001
 31
0.0
  0
LINE
  5
1AF
  8
┌▓È_1
 10
267.33496724740002
 20
-639.35751912879994
 30
0.0
 11
270.33496724740002
 21
-636.35751912879994
 31
0.0
  0
LINE
  5
1B0
  8
┌▓È_1
 10
475.01367427089991
 20
-588.92786506260006
 30
0.0
 11
475.01367427089991
 21
122.74477563560001
 31
0.0
  0
LINE
  5
1B1
  8
┌▓È_1
 10
-602.44219254459995
 20
-654.92786506259995
 30
0.0
 11
-602.44219254459995
 21
122.74477563560001
 31
0.0
  0
LINE
  5
1B2
  8
┌▓È_1
 10
175.0136742709
 20
-654.92786506259995
 30
0.0
 11
-602.44219254459995
 21
-654.92786506259995
 31
0.0
  0
LINE
  5
1B3
  8
┌▓È_1
 62
     5
 10
-494.7981770833
 20
-113.51988845299999
 30
0.0
 11
-496.49817708329988
 21
-113.51988845299999
 31
0.0
  0
LINE
  5
1B4
  8
┌▓È_1
 62
     5
 10
221.16966945780001
 20
-600.65316215760004
 30
0.0
 11
249.3918916801
 21
-600.65316215760004
 31
0.0
  0
LINE
  5
1B5
  8
┌▓È_1
 62
     5
 10
181.31082252499999
 20
-621.92786506260006
 30
0.0
 11
288.90300279119998
 21
-621.92786506260006
 31
0.0
  0
LINE
  5
1B6
  8
┌▓È_1
 62
     5
 10
175.0136742709
 20
-574.11096194820004
 30
0.0
 11
475.01367427089991
 21
-574.11096194820004
 31
0.0
  0
LINE
  5
1B7
  8
┌▓È_1
 10
175.0136742709
 20
-654.92786506259995
 30
0.0
 11
475.01367427089991
 21
-654.92786506259995
 31
0.0
  0
LINE
  5
1B8
  8
┌▓È_1
 10
475.01367427089991
 20
-588.92786506260006
 30
0.0
 11
175.0136742709
 21
-588.92786506260006
 31
0.0
  0
LINE
  5
1B9
  8
┌▓È_1
 10
175.0136742709
 20
-632.92786506259995
 30
0.0
 11
475.01367427089991
 21
-632.92786506259995
 31
0.0
  0
LINE
  5
1BA
  8
┌▓È_1
 10
175.0136742709
 20
-610.92786506259995
 30
0.0
 11
475.01367427089991
 21
-610.92786506259995
 31
0.0
  0
LINE
  5
1BB
  8
┌▓È_1
 62
     5
 10
175.0136742709
 20
-560.14582860190001
 30
0.0
 11
475.01367427089991
 21
-560.14582860190001
 31
0.0
  0
LINE
  5
1BC
  8
┌▓È_1
 62
     5
 10
175.0136742709
 20
-546.18069493489986
 30
0.0
 11
475.01367427089991
 21
-546.18069493489986
 31
0.0
  0
LINE
  5
1BD
  8
┌▓È_1
 62
     5
 10
175.0136742709
 20
-532.21556126789994
 30
0.0
 11
475.01367427089991
 21
-532.21556126789994
 31
0.0
  0
LINE
  5
1BE
  8
┌▓È_1
 10
475.01367427089991
 20
-654.92786506259995
 30
0.0
 11
475.01367427089991
 21
-588.92786506260006
 31
0.0
  0
LINE
  5
1BF
  8
┌▓È_1
 10
316.09114466519998
 20
-639.75751912880003
 30
0.0
 11
316.09114466519998
 21
-643.35751912879994
 31
0.0
  0
LINE
  5
1C0
  8
┌▓È_1
 10
298.09114466519998
 20
-639.75751912880003
 30
0.0
 11
303.08847799850003
 21
-639.75751912880003
 31
0.0
  0
LINE
  5
1C1
  8
┌▓È_1
 10
316.09114466519998
 20
-644.95751912879985
 30
0.0
 11
316.09114466519998
 21
-648.55751912879987
 31
0.0
  0
LINE
  5
1C2
  8
┌▓È_1
 10
251.03275962430001
 20
-640.35751912879994
 30
0.0
 11
251.03275962430001
 21
-643.35751912879994
 31
0.0
  0
LINE
  5
1C3
  8
┌▓È_1
 10
262.33496724740002
 20
-643.35751912879994
 30
0.0
 11
262.33496724740002
 21
-644.35751912879994
 31
0.0
  0
LINE
  5
1C4
  8
┌▓È_1
 10
291.65617936860002
 20
-639.35751912879994
 30
0.0
 11
293.65617936860002
 21
-636.35751912879994
 31
0.0
  0
LINE
  5
1C5
  8
┌▓È_1
 62
     5
 10
-494.7981770833
 20
-141.85104166670001
 30
0.0
 11
-496.49817708329988
 21
-141.85104166670001
 31
0.0
  0
ARC
  5
1C6
  8
┌▓È_1
 62
     5
 10
-496.49817708329988
 20
-154.319888453
 30
0.0
 40
0.8
 50
90.0
 51
180.0
  0
LINE
  5
1C7
  8
┌▓È_1
 62
     5
 10
-494.7981770833
 20
-261.85104166669998
 30
0.0
 11
-496.49817708329988
 21
-261.85104166669998
 31
0.0
  0
LINE
  5
1C8
  8
┌▓È_1
 62
     5
 10
-494.7981770833
 20
-73.519888453000007
 30
0.0
 11
-496.49817708329988
 21
-73.519888453000007
 31
0.0
  0
LINE
  5
1C9
  8
┌▓È_1
 62
     5
 10
-494.7981770833
 20
-73.519888453000007
 30
0.0
 11
-494.7981770833
 21
-61.851041666699999
 31
0.0
  0
LINE
  5
1CA
  8
┌▓È_1
 62
     5
 10
-355.2981770833
 20
-72.701041666700007
 30
0.0
 11
-494.7981770833
 21
-72.701041666700007
 31
0.0
  0
LINE
  5
1CB
  8
┌▓È_1
 62
     5
 10
-494.7981770833
 20
-62.7010416667
 30
0.0
 11
-355.2981770833
 21
-62.7010416667
 31
0.0
  0
LINE
  5
1CC
  8
┌▓È_1
 62
     5
 10
-494.7981770833
 20
-262.70104166670001
 30
0.0
 11
-355.2981770833
 21
-262.70104166670001
 31
0.0
  0
LINE
  5
1CD
  8
┌▓È_1
 62
     5
 10
-494.7981770833
 20
-61.851041666699999
 30
0.0
 11
-496.49817708329988
 21
-61.851041666699999
 31
0.0
  0
LINE
  5
1CE
  8
┌▓È_1
 62
     5
 10
-345.2981770833
 20
-44.971070410799989
 30
0.0
 11
-345.2981770833
 21
-161.88759235539999
 31
0.0
  0
LINE
  5
1CF
  8
┌▓È_1
 62
     5
 10
-345.2981770833
 20
-171.88759235539999
 30
0.0
 11
-350.32446465300001
 21
-171.88759235539999
 31
0.0
  0
LINE
  5
1D0
  8
┌▓È_1
 62
     5
 10
-345.2981770833
 20
-166.8613047858
 30
0.0
 11
-350.32446465300001
 21
-171.88759235539999
 31
0.0
  0
LINE
  5
1D1
  8
┌▓È_1
 62
     5
 10
-355.2981770833
 20
-166.8613047858
 30
0.0
 11
-360.32446465300001
 21
-171.88759235539999
 31
0.0
  0
LINE
  5
1D2
  8
┌▓È_1
 62
     5
 10
-355.2981770833
 20
-112.70104166669999
 30
0.0
 11
-494.7981770833
 21
-112.70104166669999
 31
0.0
  0
LINE
  5
1D3
  8
┌▓È_1
 62
     5
 10
-494.7981770833
 20
-102.70104166669999
 30
0.0
 11
-355.2981770833
 21
-102.70104166669999
 31
0.0
  0
LINE
  5
1D4
  8
┌▓È_1
 62
     5
 10
-355.2981770833
 20
-152.70104166670001
 30
0.0
 11
-494.7981770833
 21
-152.70104166670001
 31
0.0
  0
LINE
  5
1D5
  8
┌▓È_1
 62
     5
 10
-494.7981770833
 20
-142.70104166670001
 30
0.0
 11
-355.2981770833
 21
-142.70104166670001
 31
0.0
  0
LINE
  5
1D6
  8
┌▓È_1
 62
     5
 10
-492.9375677130999
 20
-67.701041666700007
 30
0.0
 11
-502.33208826110001
 21
-67.701041666700007
 31
0.0
  0
LINE
  5
1D7
  8
┌▓È_1
 62
     5
 10
-492.76359511039999
 20
-147.70104166670001
 30
0.0
 11
-501.75217958529993
 21
-147.70104166670001
 31
0.0
  0
LINE
  5
1D8
  8
┌▓È_1
 62
     5
 10
-494.7981770833
 20
-153.51988845299999
 30
0.0
 11
-494.7981770833
 21
-141.85104166670001
 31
0.0
  0
LINE
  5
1D9
  8
┌▓È_1
 10
289.38161807279999
 20
-646.05578154670002
 30
0.0
 11
289.02541395319997
 21
-646.40453783509986
 31
0.0
  0
LINE
  5
1DA
  8
┌▓È_1
 10
284.728804352
 20
-643.39566093899998
 30
0.0
 11
284.24761273939998
 21
-643.9271376600999
 31
0.0
  0
ARC
  5
1DB
  8
┌▓È_1
 10
280.65617936860002
 20
-639.35751912879994
 30
0.0
 40
11.0
 50
322.48761197969998
 51
0.0
  0
LINE
  5
1DC
  8
┌▓È_1
 10
304.61381133189991
 20
-644.95751912879985
 30
0.0
 11
304.14447799850001
 21
-643.35751912879994
 31
0.0
  0
LINE
  5
1DD
  8
┌▓È_1
 10
295.01367427090003
 20
-588.92786506260006
 30
0.0
 11
295.01367427090003
 21
-632.92786506259995
 31
0.0
  0
LINE
  5
1DE
  8
┌▓È_1
 62
     5
 10
-494.7981770833
 20
-182.70104166670001
 30
0.0
 11
-355.2981770833
 21
-182.70104166670001
 31
0.0
  0
LINE
  5
1DF
  8
┌▓È_1
 62
     5
 10
-497.29817708329989
 20
-274.31988845299998
 30
0.0
 11
-497.29817708329989
 21
-277.20104166670001
 31
0.0
  0
LINE
  5
1E0
  8
┌▓È_1
 62
     5
 10
94.201822916699996
 20
-192.70104166670001
 30
0.0
 11
-55.298177083299997
 21
-192.70104166670001
 31
0.0
  0
LINE
  5
1E1
  8
┌▓È_1
 62
     5
 10
-506.1142605080999
 20
-267.70104166670001
 30
0.0
 11
-534.68926050809989
 21
-267.70104166670001
 31
0.0
  0
LINE
  5
1E2
  8
┌▓È_1
 62
     5
 10
-494.7981770833
 20
-101.8510416667
 30
0.0
 11
-496.49817708329988
 21
-101.8510416667
 31
0.0
  0
ARC
  5
1E3
  8
┌▓È_1
 62
     5
 10
-496.49817708329988
 20
-114.319888453
 30
0.0
 40
0.8
 50
90.0
 51
180.0
  0
LINE
  5
1E4
  8
┌▓È_1
 62
     5
 10
-355.2981770833
 20
-166.8613047858
 30
0.0
 11
-350.32446465300001
 21
-161.88759235539999
 31
0.0
  0
LINE
  5
1E5
  8
┌▓È_1
 62
     5
 10
-494.7981770833
 20
-273.51988845299991
 30
0.0
 11
-496.49817708329988
 21
-273.51988845299991
 31
0.0
  0
ARC
  5
1E6
  8
┌▓È_1
 62
     5
 10
-496.49817708329988
 20
-74.319888453000004
 30
0.0
 40
0.8
 50
90.0
 51
180.0
  0
LINE
  5
1E7
  8
┌▓È_1
 62
     5
 10
-494.7981770833
 20
-113.51988845299999
 30
0.0
 11
-494.7981770833
 21
-101.8510416667
 31
0.0
  0
ARC
  5
1E8
  8
┌▓È_1
 62
     5
 10
-496.49817708329988
 20
-61.051041666700002
 30
0.0
 40
0.8
 50
180.0
 51
270.0
  0
LINE
  5
1E9
  8
┌▓È_1
 62
     5
 10
-492.76359511039999
 20
-107.70104166669999
 30
0.0
 11
-501.75217958529993
 21
-107.70104166669999
 31
0.0
  0
LINE
  5
1EA
  8
┌▓È_1
 62
     5
 10
-355.2981770833
 20
-161.88759235539999
 30
0.0
 11
-350.32446465300001
 21
-161.88759235539999
 31
0.0
  0
LINE
  5
1EB
  8
┌▓È_1
 62
     5
 10
-340.32446465300001
 20
-161.88759235539999
 30
0.0
 11
-345.2981770833
 21
-161.88759235539999
 31
0.0
  0
LINE
  5
1EC
  8
┌▓È_1
 62
     5
 10
-345.2981770833
 20
-166.8613047858
 30
0.0
 11
-340.32446465300001
 21
-161.88759235539999
 31
0.0
  0
LINE
  5
1ED
  8
┌▓È_1
 62
     5
 10
-497.29817708329989
 20
-154.319888453
 30
0.0
 11
-497.29817708329989
 21
-141.0510416667
 31
0.0
  0
LINE
  5
1EE
  8
┌▓È_1
 62
     5
 10
-497.29817708329989
 20
-114.319888453
 30
0.0
 11
-497.29817708329989
 21
-101.0510416667
 31
0.0
  0
LINE
  5
1EF
  8
┌▓È_1
 62
     5
 10
-497.29817708329989
 20
-74.319888453000004
 30
0.0
 11
-497.29817708329989
 21
-61.051041666700002
 31
0.0
  0
LINE
  5
1F0
  8
┌▓È_1
 62
     5
 10
-497.29817708329989
 20
-114.319888453
 30
0.0
 11
-497.29817708329989
 21
-141.0510416667
 31
0.0
  0
LINE
  5
1F1
  8
┌▓È_1
 62
     5
 10
-497.29817708329989
 20
-74.319888453000004
 30
0.0
 11
-497.29817708329989
 21
-101.0510416667
 31
0.0
  0
LINE
  5
1F2
  8
┌▓È_1
 10
302.09114466519998
 20
-636.35751912879994
 30
0.0
 11
310.09114466519998
 21
-636.35751912879994
 31
0.0
  0
ARC
  5
1F3
  8
┌▓È_1
 10
278.0561793686
 20
-639.75751912880003
 30
0.0
 40
7.5999999999999988
 50
270.0
 51
298.08590481520002
  0
LINE
  5
1F4
  8
┌▓È_1
 10
275.65617936860002
 20
-650.35751912879994
 30
0.0
 11
280.65617936860002
 21
-650.35751912879994
 31
0.0
  0
LINE
  5
1F5
  8
┌▓È_1
 10
275.65617936860002
 20
-647.35751912879994
 30
0.0
 11
278.0561793686
 21
-647.35751912879994
 31
0.0
  0
ARC
  5
1F6
  8
┌▓È_1
 62
     5
 10
-496.49817708329988
 20
-141.0510416667
 30
0.0
 40
0.8
 50
180.0
 51
270.0
  0
LINE
  5
1F7
  8
┌▓È_1
 62
     5
 10
-497.29817708329989
 20
-234.319888453
 30
0.0
 11
-497.29817708329989
 21
-261.05104166669997
 31
0.0
  0
ARC
  5
1F8
  8
┌▓È_1
 62
     5
 10
-496.49817708329988
 20
-261.05104166669997
 30
0.0
 40
0.8
 50
180.0
 51
270.0
  0
LINE
  5
1F9
  8
┌▓È_1
 62
     5
 10
94.201822916699996
 20
-440.48837951789989
 30
0.0
 11
94.201822916699996
 21
-452.48837951789989
 31
0.0
  0
ARC
  5
1FA
  8
┌▓È_1
 62
     5
 10
-496.49817708329988
 20
-194.319888453
 30
0.0
 40
0.8
 50
90.0
 51
180.0
  0
LINE
  5
1FB
  8
┌▓È_1
 62
     5
 10
-355.2981770833
 20
-192.70104166670001
 30
0.0
 11
-494.7981770833
 21
-192.70104166670001
 31
0.0
  0
LINE
  5
1FC
  8
┌▓È_1
 62
     5
 10
-494.7981770833
 20
-222.70104166670001
 30
0.0
 11
-355.2981770833
 21
-222.70104166670001
 31
0.0
  0
LINE
  5
1FD
  8
┌▓È_1
 62
     5
 10
-355.2981770833
 20
-232.70104166670001
 30
0.0
 11
-494.7981770833
 21
-232.70104166670001
 31
0.0
  0
LINE
  5
1FE
  8
┌▓È_1
 62
     5
 10
-195.5481770833
 20
-452.18837951789988
 30
0.0
 11
-195.5481770833
 21
-449.18837951789988
 31
0.0
  0
ARC
  5
1FF
  8
┌▓È_1
 62
     5
 10
-498.7981770833
 20
-277.20104166670001
 30
0.0
 40
1.5
 50
270.0
 51
0.0
  0
LINE
  5
200
  8
┌▓È_1
 62
     5
 10
-498.7981770833
 20
-278.70104166670001
 30
0.0
 11
-500.2981770833
 21
-278.70104166670001
 31
0.0
  0
LINE
  5
201
  8
┌▓È_1
 62
     5
 10
-490.58635825379997
 20
-267.70104166670001
 30
0.0
 11
-499.1272939262999
 21
-267.70104166670001
 31
0.0
  0
LINE
  5
202
  8
┌▓È_1
 62
     5
 10
-497.29817708329989
 20
-194.319888453
 30
0.0
 11
-497.29817708329989
 21
-181.0510416667
 31
0.0
  0
LINE
  5
203
  8
┌▓È_1
 62
     5
 10
-494.7981770833
 20
-193.51988845299999
 30
0.0
 11
-494.7981770833
 21
-181.85104166670001
 31
0.0
  0
LINE
  5
204
  8
┌▓È_1
 62
     5
 10
-497.29817708329989
 20
-274.31988845299998
 30
0.0
 11
-497.29817708329989
 21
-261.05104166669997
 31
0.0
  0
ARC
  5
205
  8
┌▓È_1
 62
     5
 10
-496.49817708329988
 20
-181.0510416667
 30
0.0
 40
0.8
 50
180.0
 51
270.0
  0
LINE
  5
206
  8
┌▓È_1
 62
     5
 10
-494.7981770833
 20
-181.85104166670001
 30
0.0
 11
-496.49817708329988
 21
-181.85104166670001
 31
0.0
  0
LINE
  5
207
  8
┌▓È_1
 62
     5
 10
-494.7981770833
 20
-221.85104166670001
 30
0.0
 11
-496.49817708329988
 21
-221.85104166670001
 31
0.0
  0
ARC
  5
208
  8
┌▓È_1
 62
     5
 10
-496.49817708329988
 20
-234.319888453
 30
0.0
 40
0.8
 50
90.0
 51
180.0
  0
LINE
  5
209
  8
┌▓È_1
 62
     5
 10
-494.7981770833
 20
-233.51988845299999
 30
0.0
 11
-496.49817708329988
 21
-233.51988845299999
 31
0.0
  0
LINE
  5
20A
  8
┌▓È_1
 62
     5
 10
-494.7981770833
 20
-233.51988845299999
 30
0.0
 11
-494.7981770833
 21
-221.85104166670001
 31
0.0
  0
ARC
  5
20B
  8
┌▓È_1
 62
     5
 10
-496.49817708329988
 20
-101.0510416667
 30
0.0
 40
0.8
 50
180.0
 51
270.0
  0
LINE
  5
20C
  8
┌▓È_1
 10
275.65617936860002
 20
-639.95751912879996
 30
0.0
 11
285.65617936860002
 21
-639.95751912879996
 31
0.0
  0
LINE
  5
20D
  8
┌▓È_1
 10
298.09114466519998
 20
-644.95751912879985
 30
0.0
 11
304.61381133189991
 21
-644.95751912879985
 31
0.0
  0
LINE
  5
20E
  8
┌▓È_1
 10
309.78902653559999
 20
-643.35751912879994
 30
0.0
 11
316.09114466519998
 21
-643.35751912879994
 31
0.0
  0
ARC
  5
20F
  8
┌▓È_1
 62
     5
 10
-496.49817708329988
 20
-221.0510416667
 30
0.0
 40
0.8
 50
180.0
 51
270.0
  0
LINE
  5
210
  8
┌▓È_1
 62
     5
 10
94.201822916699996
 20
-232.70104166670001
 30
0.0
 11
-55.298177083299997
 21
-232.70104166670001
 31
0.0
  0
LINE
  5
211
  8
┌▓È_1
 62
     5
 10
-55.298177083299997
 20
-222.70104166670001
 30
0.0
 11
94.201822916699996
 21
-222.70104166670001
 31
0.0
  0
POLYLINE
  5
212
  8
┌▓È_1
 62
     5
 10
-346.84817708330002
 20
-441.4883795179
 30
0.0
 66
     1
 70
     8
  0
VERTEX
  8
┌▓È_1
  5
5A6
 10
-346.848
 20
-441.488
 30
0.000000
  70
    32
  0
VERTEX
  8
┌▓È_1
  5
5A7
 10
-346.897
 20
-441.489
 30
0.000000
  70
    32
  0
VERTEX
  8
┌▓È_1
  5
5A8
 10
-346.946
 20
-441.491
 30
0.000000
  70
    32
  0
VERTEX
  8
┌▓È_1
  5
5A9
 10
-346.995
 20
-441.495
 30
0.000000
  70
    32
  0
VERTEX
  8
┌▓È_1
  5
5AA
 10
-347.044
 20
-441.500
 30
0.000000
  70
    32
  0
VERTEX
  8
┌▓È_1
  5
5AB
 10
-347.093
 20
-441.507
 30
0.000000
  70
    32
  0
VERTEX
  8
┌▓È_1
  5
5AC
 10
-347.142
 20
-441.515
 30
0.000000
  70
    32
  0
VERTEX
  8
┌▓È_1
  5
5AD
 10
-347.190
 20
-441.525
 30
0.000000
  70
    32
  0
VERTEX
  8
┌▓È_1
  5
5AE
 10
-347.238
 20
-441.536
 30
0.000000
  70
    32
  0
VERTEX
  8
┌▓È_1
  5
5AF
 10
-347.286
 20
-441.549
 30
0.000000
  70
    32
  0
VERTEX
  8
┌▓È_1
  5
5B0
 10
-347.334
 20
-441.563
 30
0.000000
  70
    32
  0
VERTEX
  8
┌▓È_1
  5
5B1
 10
-347.382
 20
-441.579
 30
0.000000
  70
    32
  0
VERTEX
  8
┌▓È_1
  5
5B2
 10
-347.429
 20
-441.596
 30
0.000000
  70
    32
  0
VERTEX
  8
┌▓È_1
  5
5B3
 10
-347.476
 20
-441.615
 30
0.000000
  70
    32
  0
VERTEX
  8
┌▓È_1
  5
5B4
 10
-347.522
 20
-441.635
 30
0.000000
  70
    32
  0
VERTEX
  8
┌▓È_1
  5
5B5
 10
-347.568
 20
-441.656
 30
0.000000
  70
    32
  0
VERTEX
  8
┌▓È_1
  5
5B6
 10
-347.614
 20
-441.679
 30
0.000000
  70
    32
  0
VERTEX
  8
┌▓È_1
  5
5B7
 10
-347.659
 20
-441.703
 30
0.000000
  70
    32
  0
VERTEX
  8
┌▓È_1
  5
5B8
 10
-347.703
 20
-441.728
 30
0.000000
  70
    32
  0
VERTEX
  8
┌▓È_1
  5
5B9
 10
-347.747
 20
-441.755
 30
0.000000
  70
    32
  0
VERTEX
  8
┌▓È_1
  5
5BA
 10
-347.791
 20
-441.784
 30
0.000000
  70
    32
  0
VERTEX
  8
┌▓È_1
  5
5BB
 10
-347.834
 20
-441.813
 30
0.000000
  70
    32
  0
VERTEX
  8
┌▓È_1
  5
5BC
 10
-347.876
 20
-441.844
 30
0.000000
  70
    32
  0
VERTEX
  8
┌▓È_1
  5
5BD
 10
-347.918
 20
-441.876
 30
0.000000
  70
    32
  0
VERTEX
  8
┌▓È_1
  5
5BE
 10
-347.959
 20
-441.910
 30
0.000000
  70
    32
  0
VERTEX
  8
┌▓È_1
  5
5BF
 10
-348.000
 20
-441.944
 30
0.000000
  70
    32
  0
VERTEX
  8
┌▓È_1
  5
5C0
 10
-348.040
 20
-441.980
 30
0.000000
  70
    32
  0
VERTEX
  8
┌▓È_1
  5
5C1
 10
-348.079
 20
-442.018
 30
0.000000
  70
    32
  0
VERTEX
  8
┌▓È_1
  5
5C2
 10
-348.117
 20
-442.056
 30
0.000000
  70
    32
  0
VERTEX
  8
┌▓È_1
  5
5C3
 10
-348.155
 20
-442.095
 30
0.000000
  70
    32
  0
VERTEX
  8
┌▓È_1
  5
5C4
 10
-348.191
 20
-442.136
 30
0.000000
  70
    32
  0
VERTEX
  8
┌▓È_1
  5
5C5
 10
-348.227
 20
-442.178
 30
0.000000
  70
    32
  0
VERTEX
  8
┌▓È_1
  5
5C6
 10
-348.262
 20
-442.221
 30
0.000000
  70
    32
  0
VERTEX
  8
┌▓È_1
  5
5C7
 10
-348.297
 20
-442.265
 30
0.000000
  70
    32
  0
VERTEX
  8
┌▓È_1
  5
5C8
 10
-348.330
 20
-442.309
 30
0.000000
  70
    32
  0
VERTEX
  8
┌▓È_1
  5
5C9
 10
-348.363
 20
-442.355
 30
0.000000
  70
    32
  0
VERTEX
  8
┌▓È_1
  5
5CA
 10
-348.394
 20
-442.402
 30
0.000000
  70
    32
  0
VERTEX
  8
┌▓È_1
  5
5CB
 10
-348.425
 20
-442.450
 30
0.000000
  70
    32
  0
VERTEX
  8
┌▓È_1
  5
5CC
 10
-348.455
 20
-442.499
 30
0.000000
  70
    32
  0
VERTEX
  8
┌▓È_1
  5
5CD
 10
-348.483
 20
-442.549
 30
0.000000
  70
    32
  0
VERTEX
  8
┌▓È_1
  5
5CE
 10
-348.511
 20
-442.599
 30
0.000000
  70
    32
  0
VERTEX
  8
┌▓È_1
  5
5CF
 10
-348.538
 20
-442.651
 30
0.000000
  70
    32
  0
VERTEX
  8
┌▓È_1
  5
5D0
 10
-348.564
 20
-442.703
 30
0.000000
  70
    32
  0
VERTEX
  8
┌▓È_1
  5
5D1
 10
-348.588
 20
-442.756
 30
0.000000
  70
    32
  0
VERTEX
  8
┌▓È_1
  5
5D2
 10
-348.612
 20
-442.810
 30
0.000000
  70
    32
  0
VERTEX
  8
┌▓È_1
  5
5D3
 10
-348.635
 20
-442.864
 30
0.000000
  70
    32
  0
VERTEX
  8
┌▓È_1
  5
5D4
 10
-348.656
 20
-442.919
 30
0.000000
  70
    32
  0
VERTEX
  8
┌▓È_1
  5
5D5
 10
-348.677
 20
-442.975
 30
0.000000
  70
    32
  0
VERTEX
  8
┌▓È_1
  5
5D6
 10
-348.696
 20
-443.032
 30
0.000000
  70
    32
  0
VERTEX
  8
┌▓È_1
  5
5D7
 10
-348.714
 20
-443.089
 30
0.000000
  70
    32
  0
VERTEX
  8
┌▓È_1
  5
5D8
 10
-348.731
 20
-443.146
 30
0.000000
  70
    32
  0
VERTEX
  8
┌▓È_1
  5
5D9
 10
-348.747
 20
-443.204
 30
0.000000
  70
    32
  0
VERTEX
  8
┌▓È_1
  5
5DA
 10
-348.762
 20
-443.263
 30
0.000000
  70
    32
  0
VERTEX
  8
┌▓È_1
  5
5DB
 10
-348.776
 20
-443.322
 30
0.000000
  70
    32
  0
VERTEX
  8
┌▓È_1
  5
5DC
 10
-348.788
 20
-443.381
 30
0.000000
  70
    32
  0
VERTEX
  8
┌▓È_1
  5
5DD
 10
-348.800
 20
-443.441
 30
0.000000
  70
    32
  0
VERTEX
  8
┌▓È_1
  5
5DE
 10
-348.810
 20
-443.501
 30
0.000000
  70
    32
  0
VERTEX
  8
┌▓È_1
  5
5DF
 10
-348.819
 20
-443.561
 30
0.000000
  70
    32
  0
VERTEX
  8
┌▓È_1
  5
5E0
 10
-348.827
 20
-443.622
 30
0.000000
  70
    32
  0
VERTEX
  8
┌▓È_1
  5
5E1
 10
-348.833
 20
-443.682
 30
0.000000
  70
    32
  0
VERTEX
  8
┌▓È_1
  5
5E2
 10
-348.839
 20
-443.743
 30
0.000000
  70
    32
  0
VERTEX
  8
┌▓È_1
  5
5E3
 10
-348.843
 20
-443.804
 30
0.000000
  70
    32
  0
VERTEX
  8
┌▓È_1
  5
5E4
 10
-348.846
 20
-443.866
 30
0.000000
  70
    32
  0
VERTEX
  8
┌▓È_1
  5
5E5
 10
-348.848
 20
-443.927
 30
0.000000
  70
    32
  0
VERTEX
  8
┌▓È_1
  5
5E6
 10
-348.848
 20
-443.988
 30
0.000000
  70
    32
  0
VERTEX
  8
┌▓È_1
  5
5E7
 10
-348.848
 20
-444.050
 30
0.000000
  70
    32
  0
VERTEX
  8
┌▓È_1
  5
5E8
 10
-348.846
 20
-444.111
 30
0.000000
  70
    32
  0
VERTEX
  8
┌▓È_1
  5
5E9
 10
-348.843
 20
-444.172
 30
0.000000
  70
    32
  0
VERTEX
  8
┌▓È_1
  5
5EA
 10
-348.839
 20
-444.233
 30
0.000000
  70
    32
  0
VERTEX
  8
┌▓È_1
  5
5EB
 10
-348.833
 20
-444.294
 30
0.000000
  70
    32
  0
VERTEX
  8
┌▓È_1
  5
5EC
 10
-348.827
 20
-444.355
 30
0.000000
  70
    32
  0
VERTEX
  8
┌▓È_1
  5
5ED
 10
-348.819
 20
-444.416
 30
0.000000
  70
    32
  0
VERTEX
  8
┌▓È_1
  5
5EE
 10
-348.810
 20
-444.476
 30
0.000000
  70
    32
  0
VERTEX
  8
┌▓È_1
  5
5EF
 10
-348.800
 20
-444.536
 30
0.000000
  70
    32
  0
VERTEX
  8
┌▓È_1
  5
5F0
 10
-348.788
 20
-444.596
 30
0.000000
  70
    32
  0
VERTEX
  8
┌▓È_1
  5
5F1
 10
-348.776
 20
-444.655
 30
0.000000
  70
    32
  0
VERTEX
  8
┌▓È_1
  5
5F2
 10
-348.762
 20
-444.714
 30
0.000000
  70
    32
  0
VERTEX
  8
┌▓È_1
  5
5F3
 10
-348.747
 20
-444.773
 30
0.000000
  70
    32
  0
VERTEX
  8
┌▓È_1
  5
5F4
 10
-348.731
 20
-444.831
 30
0.000000
  70
    32
  0
VERTEX
  8
┌▓È_1
  5
5F5
 10
-348.714
 20
-444.888
 30
0.000000
  70
    32
  0
VERTEX
  8
┌▓È_1
  5
5F6
 10
-348.696
 20
-444.945
 30
0.000000
  70
    32
  0
VERTEX
  8
┌▓È_1
  5
5F7
 10
-348.677
 20
-445.001
 30
0.000000
  70
    32
  0
VERTEX
  8
┌▓È_1
  5
5F8
 10
-348.656
 20
-445.057
 30
0.000000
  70
    32
  0
VERTEX
  8
┌▓È_1
  5
5F9
 10
-348.635
 20
-445.112
 30
0.000000
  70
    32
  0
VERTEX
  8
┌▓È_1
  5
5FA
 10
-348.612
 20
-445.167
 30
0.000000
  70
    32
  0
VERTEX
  8
┌▓È_1
  5
5FB
 10
-348.588
 20
-445.221
 30
0.000000
  70
    32
  0
VERTEX
  8
┌▓È_1
  5
5FC
 10
-348.564
 20
-445.274
 30
0.000000
  70
    32
  0
VERTEX
  8
┌▓È_1
  5
5FD
 10
-348.538
 20
-445.326
 30
0.000000
  70
    32
  0
VERTEX
  8
┌▓È_1
  5
5FE
 10
-348.511
 20
-445.377
 30
0.000000
  70
    32
  0
VERTEX
  8
┌▓È_1
  5
5FF
 10
-348.483
 20
-445.428
 30
0.000000
  70
    32
  0
VERTEX
  8
┌▓È_1
  5
600
 10
-348.455
 20
-445.478
 30
0.000000
  70
    32
  0
VERTEX
  8
┌▓È_1
  5
601
 10
-348.425
 20
-445.526
 30
0.000000
  70
    32
  0
VERTEX
  8
┌▓È_1
  5
602
 10
-348.394
 20
-445.574
 30
0.000000
  70
    32
  0
VERTEX
  8
┌▓È_1
  5
603
 10
-348.363
 20
-445.621
 30
0.000000
  70
    32
  0
VERTEX
  8
┌▓È_1
  5
604
 10
-348.330
 20
-445.667
 30
0.000000
  70
    32
  0
VERTEX
  8
┌▓È_1
  5
605
 10
-348.297
 20
-445.712
 30
0.000000
  70
    32
  0
VERTEX
  8
┌▓È_1
  5
606
 10
-348.262
 20
-445.756
 30
0.000000
  70
    32
  0
VERTEX
  8
┌▓È_1
  5
607
 10
-348.227
 20
-445.799
 30
0.000000
  70
    32
  0
VERTEX
  8
┌▓È_1
  5
608
 10
-348.191
 20
-445.841
 30
0.000000
  70
    32
  0
VERTEX
  8
┌▓È_1
  5
609
 10
-348.155
 20
-445.881
 30
0.000000
  70
    32
  0
VERTEX
  8
┌▓È_1
  5
60A
 10
-348.117
 20
-445.921
 30
0.000000
  70
    32
  0
VERTEX
  8
┌▓È_1
  5
60B
 10
-348.079
 20
-445.959
 30
0.000000
  70
    32
  0
VERTEX
  8
┌▓È_1
  5
60C
 10
-348.040
 20
-445.996
 30
0.000000
  70
    32
  0
VERTEX
  8
┌▓È_1
  5
60D
 10
-348.000
 20
-446.032
 30
0.000000
  70
    32
  0
VERTEX
  8
┌▓È_1
  5
60E
 10
-347.959
 20
-446.067
 30
0.000000
  70
    32
  0
VERTEX
  8
┌▓È_1
  5
60F
 10
-347.918
 20
-446.101
 30
0.000000
  70
    32
  0
VERTEX
  8
┌▓È_1
  5
610
 10
-347.876
 20
-446.133
 30
0.000000
  70
    32
  0
VERTEX
  8
┌▓È_1
  5
611
 10
-347.834
 20
-446.164
 30
0.000000
  70
    32
  0
VERTEX
  8
┌▓È_1
  5
612
 10
-347.791
 20
-446.193
 30
0.000000
  70
    32
  0
VERTEX
  8
┌▓È_1
  5
613
 10
-347.747
 20
-446.221
 30
0.000000
  70
    32
  0
VERTEX
  8
┌▓È_1
  5
614
 10
-347.703
 20
-446.248
 30
0.000000
  70
    32
  0
VERTEX
  8
┌▓È_1
  5
615
 10
-347.659
 20
-446.274
 30
0.000000
  70
    32
  0
VERTEX
  8
┌▓È_1
  5
616
 10
-347.614
 20
-446.298
 30
0.000000
  70
    32
  0
VERTEX
  8
┌▓È_1
  5
617
 10
-347.568
 20
-446.321
 30
0.000000
  70
    32
  0
VERTEX
  8
┌▓È_1
  5
618
 10
-347.522
 20
-446.342
 30
0.000000
  70
    32
  0
VERTEX
  8
┌▓È_1
  5
619
 10
-347.476
 20
-446.362
 30
0.000000
  70
    32
  0
VERTEX
  8
┌▓È_1
  5
61A
 10
-347.429
 20
-446.381
 30
0.000000
  70
    32
  0
VERTEX
  8
┌▓È_1
  5
61B
 10
-347.382
 20
-446.398
 30
0.000000
  70
    32
  0
VERTEX
  8
┌▓È_1
  5
61C
 10
-347.334
 20
-446.413
 30
0.000000
  70
    32
  0
VERTEX
  8
┌▓È_1
  5
61D
 10
-347.286
 20
-446.428
 30
0.000000
  70
    32
  0
VERTEX
  8
┌▓È_1
  5
61E
 10
-347.238
 20
-446.440
 30
0.000000
  70
    32
  0
VERTEX
  8
┌▓È_1
  5
61F
 10
-347.190
 20
-446.452
 30
0.000000
  70
    32
  0
VERTEX
  8
┌▓È_1
  5
620
 10
-347.142
 20
-446.461
 30
0.000000
  70
    32
  0
VERTEX
  8
┌▓È_1
  5
621
 10
-347.093
 20
-446.470
 30
0.000000
  70
    32
  0
VERTEX
  8
┌▓È_1
  5
622
 10
-347.044
 20
-446.476
 30
0.000000
  70
    32
  0
VERTEX
  8
┌▓È_1
  5
623
 10
-346.995
 20
-446.482
 30
0.000000
  70
    32
  0
VERTEX
  8
┌▓È_1
  5
624
 10
-346.946
 20
-446.485
 30
0.000000
  70
    32
  0
VERTEX
  8
┌▓È_1
  5
625
 10
-346.897
 20
-446.488
 30
0.000000
  70
    32
  0
VERTEX
  8
┌▓È_1
  5
626
 10
-346.848
 20
-446.488
 30
0.000000
  70
    32
  0
SEQEND
  8
┌▓È_1
  5
627
  0
LINE
  5
213
  8
┌▓È_1
 62
     5
 10
94.201822916699996
 20
-72.701041666700007
 30
0.0
 11
-55.298177083299997
 21
-72.701041666700007
 31
0.0
  0
LINE
  5
214
  8
┌▓È_1
 62
     5
 10
-55.298177083299997
 20
-62.7010416667
 30
0.0
 11
94.201822916699996
 21
-62.7010416667
 31
0.0
  0
LINE
  5
215
  8
┌▓È_1
 62
     5
 10
-494.7981770833
 20
-273.51988845299991
 30
0.0
 11
-494.7981770833
 21
-261.85104166669998
 31
0.0
  0
ARC
  5
216
  8
┌▓È_1
 62
     5
 10
-496.49817708329988
 20
-274.31988845299998
 30
0.0
 40
0.8
 50
90.0
 51
180.0
  0
LINE
  5
217
  8
┌▓È_1
 62
     5
 10
-497.29817708329989
 20
-440.48837951789989
 30
0.0
 11
-494.7981770833
 21
-440.48837951789989
 31
0.0
  0
LINE
  5
218
  8
┌▓È_1
 62
     5
 10
94.201822916699996
 20
-152.70104166670001
 30
0.0
 11
-55.298177083299997
 21
-152.70104166670001
 31
0.0
  0
LINE
  5
219
  8
┌▓È_1
 62
     5
 10
-55.298177083299997
 20
-142.70104166670001
 30
0.0
 11
94.201822916699996
 21
-142.70104166670001
 31
0.0
  0
LINE
  5
21A
  8
┌▓È_1
 62
     5
 10
94.201822916699996
 20
-112.70104166669999
 30
0.0
 11
-55.298177083299997
 21
-112.70104166669999
 31
0.0
  0
LINE
  5
21B
  8
┌▓È_1
 62
     5
 10
-55.298177083299997
 20
-102.70104166669999
 30
0.0
 11
94.201822916699996
 21
-102.70104166669999
 31
0.0
  0
LINE
  5
21C
  8
┌▓È_1
 62
     5
 10
-345.2981770833
 20
-182.70104166670001
 30
0.0
 11
-205.0481770833
 21
-182.70104166670001
 31
0.0
  0
LINE
  5
21D
  8
┌▓È_1
 62
     5
 10
-345.2981770833
 20
-262.70104166670001
 30
0.0
 11
-205.0481770833
 21
-262.70104166670001
 31
0.0
  0
LINE
  5
21E
  8
┌▓È_1
 62
     5
 10
-204.83305730399999
 20
-272.70104166670001
 30
0.0
 11
-345.2981770833
 21
-272.70104166670001
 31
0.0
  0
LINE
  5
21F
  8
┌▓È_1
 62
     5
 10
-205.0481770833
 20
-192.70104166670001
 30
0.0
 11
-345.2981770833
 21
-192.70104166670001
 31
0.0
  0
LINE
  5
220
  8
┌▓È_1
 62
     5
 10
-345.2981770833
 20
-222.70104166670001
 30
0.0
 11
-205.0481770833
 21
-222.70104166670001
 31
0.0
  0
LINE
  5
221
  8
┌▓È_1
 62
     5
 10
-205.0481770833
 20
-232.70104166670001
 30
0.0
 11
-345.2981770833
 21
-232.70104166670001
 31
0.0
  0
LINE
  5
222
  8
┌▓È_1
 62
     5
 10
-345.2981770833
 20
-142.70104166670001
 30
0.0
 11
-205.0481770833
 21
-142.70104166670001
 31
0.0
  0
LINE
  5
223
  8
┌▓È_1
 62
     5
 10
-205.0481770833
 20
-72.701041666700007
 30
0.0
 11
-345.2981770833
 21
-72.701041666700007
 31
0.0
  0
LINE
  5
224
  8
┌▓È_1
 62
     5
 10
-497.29817708329989
 20
-61.051041666700002
 30
0.0
 11
-497.29817708329989
 21
-58.2010416667
 31
0.0
  0
ARC
  5
225
  8
┌▓È_1
 62
     5
 10
-498.7981770833
 20
-58.2010416667
 30
0.0
 40
1.5
 50
0.0
 51
90.0
  0
LINE
  5
226
  8
┌▓È_1
 62
     5
 10
-498.7981770833
 20
-56.7010416667
 30
0.0
 11
-500.2981770833
 21
-56.7010416667
 31
0.0
  0
LINE
  5
227
  8
┌▓È_1
 62
     5
 10
-355.2981770833
 20
-44.971070410799989
 30
0.0
 11
-355.2981770833
 21
-161.88759235539999
 31
0.0
  0
LINE
  5
228
  8
┌▓È_1
 62
     5
 10
-497.29817708329989
 20
-194.319888453
 30
0.0
 11
-497.29817708329989
 21
-221.0510416667
 31
0.0
  0
LINE
  5
229
  8
┌▓È_1
 62
     5
 10
99.701822916699996
 20
-457.48837951789989
 30
0.0
 11
98.20182291670001
 21
-457.48837951789989
 31
0.0
  0
LINE
  5
22A
  8
┌▓È_1
 62
     5
 10
90.796037121299989
 20
-446.4883795179
 30
0.0
 11
102.2955396088
 21
-446.4883795179
 31
0.0
  0
LINE
  5
22B
  8
┌▓È_1
 62
     5
 10
96.701822916699996
 20
-440.48837951789989
 30
0.0
 11
94.201822916699996
 21
-440.48837951789989
 31
0.0
  0
LINE
  5
22C
  8
┌▓È_1
 62
     5
 10
96.701822916699996
 20
-452.48837951789989
 30
0.0
 11
94.201822916699996
 21
-452.48837951789989
 31
0.0
  0
POLYLINE
  5
22D
  8
┌▓È_1
 62
     5
 10
-57.298177083299997
 20
-443.9883795179
 30
0.0
 66
     1
 70
     8
  0
VERTEX
  8
┌▓È_1
  5
628
 10
-57.2982
 20
-443.988
 30
0.000000
  70
    32
  0
VERTEX
  8
┌▓È_1
  5
629
 10
-57.2958
 20
-444.111
 30
0.000000
  70
    32
  0
VERTEX
  8
┌▓È_1
  5
62A
 10
-57.2885
 20
-444.233
 30
0.000000
  70
    32
  0
VERTEX
  8
┌▓È_1
  5
62B
 10
-57.2765
 20
-444.355
 30
0.000000
  70
    32
  0
VERTEX
  8
┌▓È_1
  5
62C
 10
-57.2597
 20
-444.476
 30
0.000000
  70
    32
  0
VERTEX
  8
┌▓È_1
  5
62D
 10
-57.2382
 20
-444.596
 30
0.000000
  70
    32
  0
VERTEX
  8
┌▓È_1
  5
62E
 10
-57.2121
 20
-444.714
 30
0.000000
  70
    32
  0
VERTEX
  8
┌▓È_1
  5
62F
 10
-57.1813
 20
-444.831
 30
0.000000
  70
    32
  0
VERTEX
  8
┌▓È_1
  5
630
 10
-57.1459
 20
-444.945
 30
0.000000
  70
    32
  0
VERTEX
  8
┌▓È_1
  5
631
 10
-57.1062
 20
-445.057
 30
0.000000
  70
    32
  0
VERTEX
  8
┌▓È_1
  5
632
 10
-57.0620
 20
-445.167
 30
0.000000
  70
    32
  0
VERTEX
  8
┌▓È_1
  5
633
 10
-57.0136
 20
-445.274
 30
0.000000
  70
    32
  0
VERTEX
  8
┌▓È_1
  5
634
 10
-56.9611
 20
-445.377
 30
0.000000
  70
    32
  0
VERTEX
  8
┌▓È_1
  5
635
 10
-56.9046
 20
-445.478
 30
0.000000
  70
    32
  0
VERTEX
  8
┌▓È_1
  5
636
 10
-56.8442
 20
-445.574
 30
0.000000
  70
    32
  0
VERTEX
  8
┌▓È_1
  5
637
 10
-56.7801
 20
-445.667
 30
0.000000
  70
    32
  0
VERTEX
  8
┌▓È_1
  5
638
 10
-56.7124
 20
-445.756
 30
0.000000
  70
    32
  0
VERTEX
  8
┌▓È_1
  5
639
 10
-56.6413
 20
-445.841
 30
0.000000
  70
    32
  0
VERTEX
  8
┌▓È_1
  5
63A
 10
-56.5670
 20
-445.921
 30
0.000000
  70
    32
  0
VERTEX
  8
┌▓È_1
  5
63B
 10
-56.4896
 20
-445.996
 30
0.000000
  70
    32
  0
VERTEX
  8
┌▓È_1
  5
63C
 10
-56.4093
 20
-446.067
 30
0.000000
  70
    32
  0
VERTEX
  8
┌▓È_1
  5
63D
 10
-56.3264
 20
-446.133
 30
0.000000
  70
    32
  0
VERTEX
  8
┌▓È_1
  5
63E
 10
-56.2410
 20
-446.193
 30
0.000000
  70
    32
  0
VERTEX
  8
┌▓È_1
  5
63F
 10
-56.1533
 20
-446.248
 30
0.000000
  70
    32
  0
VERTEX
  8
┌▓È_1
  5
640
 10
-56.0635
 20
-446.298
 30
0.000000
  70
    32
  0
VERTEX
  8
┌▓È_1
  5
641
 10
-55.9720
 20
-446.342
 30
0.000000
  70
    32
  0
VERTEX
  8
┌▓È_1
  5
642
 10
-55.8787
 20
-446.381
 30
0.000000
  70
    32
  0
VERTEX
  8
┌▓È_1
  5
643
 10
-55.7841
 20
-446.413
 30
0.000000
  70
    32
  0
VERTEX
  8
┌▓È_1
  5
644
 10
-55.6884
 20
-446.440
 30
0.000000
  70
    32
  0
VERTEX
  8
┌▓È_1
  5
645
 10
-55.5916
 20
-446.461
 30
0.000000
  70
    32
  0
VERTEX
  8
┌▓È_1
  5
646
 10
-55.4942
 20
-446.476
 30
0.000000
  70
    32
  0
VERTEX
  8
┌▓È_1
  5
647
 10
-55.3963
 20
-446.485
 30
0.000000
  70
    32
  0
VERTEX
  8
┌▓È_1
  5
648
 10
-55.2982
 20
-446.488
 30
0.000000
  70
    32
  0
VERTEX
  8
┌▓È_1
  5
649
 10
-55.2000
 20
-446.485
 30
0.000000
  70
    32
  0
VERTEX
  8
┌▓È_1
  5
64A
 10
-55.1021
 20
-446.476
 30
0.000000
  70
    32
  0
VERTEX
  8
┌▓È_1
  5
64B
 10
-55.0047
 20
-446.461
 30
0.000000
  70
    32
  0
VERTEX
  8
┌▓È_1
  5
64C
 10
-54.9080
 20
-446.440
 30
0.000000
  70
    32
  0
VERTEX
  8
┌▓È_1
  5
64D
 10
-54.8122
 20
-446.413
 30
0.000000
  70
    32
  0
VERTEX
  8
┌▓È_1
  5
64E
 10
-54.7176
 20
-446.381
 30
0.000000
  70
    32
  0
VERTEX
  8
┌▓È_1
  5
64F
 10
-54.6244
 20
-446.342
 30
0.000000
  70
    32
  0
VERTEX
  8
┌▓È_1
  5
650
 10
-54.5328
 20
-446.298
 30
0.000000
  70
    32
  0
VERTEX
  8
┌▓È_1
  5
651
 10
-54.4431
 20
-446.248
 30
0.000000
  70
    32
  0
VERTEX
  8
┌▓È_1
  5
652
 10
-54.3554
 20
-446.193
 30
0.000000
  70
    32
  0
VERTEX
  8
┌▓È_1
  5
653
 10
-54.2700
 20
-446.133
 30
0.000000
  70
    32
  0
VERTEX
  8
┌▓È_1
  5
654
 10
-54.1870
 20
-446.067
 30
0.000000
  70
    32
  0
VERTEX
  8
┌▓È_1
  5
655
 10
-54.1068
 20
-445.996
 30
0.000000
  70
    32
  0
VERTEX
  8
┌▓È_1
  5
656
 10
-54.0294
 20
-445.921
 30
0.000000
  70
    32
  0
VERTEX
  8
┌▓È_1
  5
657
 10
-53.9551
 20
-445.841
 30
0.000000
  70
    32
  0
VERTEX
  8
┌▓È_1
  5
658
 10
-53.8840
 20
-445.756
 30
0.000000
  70
    32
  0
VERTEX
  8
┌▓È_1
  5
659
 10
-53.8163
 20
-445.667
 30
0.000000
  70
    32
  0
VERTEX
  8
┌▓È_1
  5
65A
 10
-53.7522
 20
-445.574
 30
0.000000
  70
    32
  0
VERTEX
  8
┌▓È_1
  5
65B
 10
-53.6918
 20
-445.478
 30
0.000000
  70
    32
  0
VERTEX
  8
┌▓È_1
  5
65C
 10
-53.6352
 20
-445.377
 30
0.000000
  70
    32
  0
VERTEX
  8
┌▓È_1
  5
65D
 10
-53.5827
 20
-445.274
 30
0.000000
  70
    32
  0
VERTEX
  8
┌▓È_1
  5
65E
 10
-53.5343
 20
-445.167
 30
0.000000
  70
    32
  0
VERTEX
  8
┌▓È_1
  5
65F
 10
-53.4902
 20
-445.057
 30
0.000000
  70
    32
  0
VERTEX
  8
┌▓È_1
  5
660
 10
-53.4504
 20
-444.945
 30
0.000000
  70
    32
  0
VERTEX
  8
┌▓È_1
  5
661
 10
-53.4151
 20
-444.831
 30
0.000000
  70
    32
  0
VERTEX
  8
┌▓È_1
  5
662
 10
-53.3843
 20
-444.714
 30
0.000000
  70
    32
  0
VERTEX
  8
┌▓È_1
  5
663
 10
-53.3581
 20
-444.596
 30
0.000000
  70
    32
  0
VERTEX
  8
┌▓È_1
  5
664
 10
-53.3366
 20
-444.476
 30
0.000000
  70
    32
  0
VERTEX
  8
┌▓È_1
  5
665
 10
-53.3198
 20
-444.355
 30
0.000000
  70
    32
  0
VERTEX
  8
┌▓È_1
  5
666
 10
-53.3078
 20
-444.233
 30
0.000000
  70
    32
  0
VERTEX
  8
┌▓È_1
  5
667
 10
-53.3006
 20
-444.111
 30
0.000000
  70
    32
  0
VERTEX
  8
┌▓È_1
  5
668
 10
-53.2982
 20
-443.988
 30
0.000000
  70
    32
  0
VERTEX
  8
┌▓È_1
  5
669
 10
-53.3006
 20
-443.866
 30
0.000000
  70
    32
  0
VERTEX
  8
┌▓È_1
  5
66A
 10
-53.3078
 20
-443.743
 30
0.000000
  70
    32
  0
VERTEX
  8
┌▓È_1
  5
66B
 10
-53.3198
 20
-443.622
 30
0.000000
  70
    32
  0
VERTEX
  8
┌▓È_1
  5
66C
 10
-53.3366
 20
-443.501
 30
0.000000
  70
    32
  0
VERTEX
  8
┌▓È_1
  5
66D
 10
-53.3581
 20
-443.381
 30
0.000000
  70
    32
  0
VERTEX
  8
┌▓È_1
  5
66E
 10
-53.3843
 20
-443.263
 30
0.000000
  70
    32
  0
VERTEX
  8
┌▓È_1
  5
66F
 10
-53.4151
 20
-443.146
 30
0.000000
  70
    32
  0
VERTEX
  8
┌▓È_1
  5
670
 10
-53.4504
 20
-443.032
 30
0.000000
  70
    32
  0
VERTEX
  8
┌▓È_1
  5
671
 10
-53.4902
 20
-442.919
 30
0.000000
  70
    32
  0
VERTEX
  8
┌▓È_1
  5
672
 10
-53.5343
 20
-442.810
 30
0.000000
  70
    32
  0
VERTEX
  8
┌▓È_1
  5
673
 10
-53.5827
 20
-442.703
 30
0.000000
  70
    32
  0
VERTEX
  8
┌▓È_1
  5
674
 10
-53.6352
 20
-442.599
 30
0.000000
  70
    32
  0
VERTEX
  8
┌▓È_1
  5
675
 10
-53.6918
 20
-442.499
 30
0.000000
  70
    32
  0
VERTEX
  8
┌▓È_1
  5
676
 10
-53.7522
 20
-442.402
 30
0.000000
  70
    32
  0
VERTEX
  8
┌▓È_1
  5
677
 10
-53.8163
 20
-442.309
 30
0.000000
  70
    32
  0
VERTEX
  8
┌▓È_1
  5
678
 10
-53.8840
 20
-442.221
 30
0.000000
  70
    32
  0
VERTEX
  8
┌▓È_1
  5
679
 10
-53.9551
 20
-442.136
 30
0.000000
  70
    32
  0
VERTEX
  8
┌▓È_1
  5
67A
 10
-54.0294
 20
-442.056
 30
0.000000
  70
    32
  0
VERTEX
  8
┌▓È_1
  5
67B
 10
-54.1068
 20
-441.980
 30
0.000000
  70
    32
  0
VERTEX
  8
┌▓È_1
  5
67C
 10
-54.1870
 20
-441.910
 30
0.000000
  70
    32
  0
VERTEX
  8
┌▓È_1
  5
67D
 10
-54.2700
 20
-441.844
 30
0.000000
  70
    32
  0
VERTEX
  8
┌▓È_1
  5
67E
 10
-54.3554
 20
-441.784
 30
0.000000
  70
    32
  0
VERTEX
  8
┌▓È_1
  5
67F
 10
-54.4431
 20
-441.728
 30
0.000000
  70
    32
  0
VERTEX
  8
┌▓È_1
  5
680
 10
-54.5328
 20
-441.679
 30
0.000000
  70
    32
  0
VERTEX
  8
┌▓È_1
  5
681
 10
-54.6244
 20
-441.635
 30
0.000000
  70
    32
  0
VERTEX
  8
┌▓È_1
  5
682
 10
-54.7176
 20
-441.596
 30
0.000000
  70
    32
  0
VERTEX
  8
┌▓È_1
  5
683
 10
-54.8122
 20
-441.563
 30
0.000000
  70
    32
  0
VERTEX
  8
┌▓È_1
  5
684
 10
-54.9080
 20
-441.536
 30
0.000000
  70
    32
  0
VERTEX
  8
┌▓È_1
  5
685
 10
-55.0047
 20
-441.515
 30
0.000000
  70
    32
  0
VERTEX
  8
┌▓È_1
  5
686
 10
-55.1021
 20
-441.500
 30
0.000000
  70
    32
  0
VERTEX
  8
┌▓È_1
  5
687
 10
-55.2000
 20
-441.491
 30
0.000000
  70
    32
  0
VERTEX
  8
┌▓È_1
  5
688
 10
-55.2982
 20
-441.488
 30
0.000000
  70
    32
  0
VERTEX
  8
┌▓È_1
  5
689
 10
-55.3963
 20
-441.491
 30
0.000000
  70
    32
  0
VERTEX
  8
┌▓È_1
  5
68A
 10
-55.4942
 20
-441.500
 30
0.000000
  70
    32
  0
VERTEX
  8
┌▓È_1
  5
68B
 10
-55.5916
 20
-441.515
 30
0.000000
  70
    32
  0
VERTEX
  8
┌▓È_1
  5
68C
 10
-55.6884
 20
-441.536
 30
0.000000
  70
    32
  0
VERTEX
  8
┌▓È_1
  5
68D
 10
-55.7841
 20
-441.563
 30
0.000000
  70
    32
  0
VERTEX
  8
┌▓È_1
  5
68E
 10
-55.8787
 20
-441.596
 30
0.000000
  70
    32
  0
VERTEX
  8
┌▓È_1
  5
68F
 10
-55.9720
 20
-441.635
 30
0.000000
  70
    32
  0
VERTEX
  8
┌▓È_1
  5
690
 10
-56.0635
 20
-441.679
 30
0.000000
  70
    32
  0
VERTEX
  8
┌▓È_1
  5
691
 10
-56.1533
 20
-441.728
 30
0.000000
  70
    32
  0
VERTEX
  8
┌▓È_1
  5
692
 10
-56.2410
 20
-441.784
 30
0.000000
  70
    32
  0
VERTEX
  8
┌▓È_1
  5
693
 10
-56.3264
 20
-441.844
 30
0.000000
  70
    32
  0
VERTEX
  8
┌▓È_1
  5
694
 10
-56.4093
 20
-441.910
 30
0.000000
  70
    32
  0
VERTEX
  8
┌▓È_1
  5
695
 10
-56.4896
 20
-441.980
 30
0.000000
  70
    32
  0
VERTEX
  8
┌▓È_1
  5
696
 10
-56.5670
 20
-442.056
 30
0.000000
  70
    32
  0
VERTEX
  8
┌▓È_1
  5
697
 10
-56.6413
 20
-442.136
 30
0.000000
  70
    32
  0
VERTEX
  8
┌▓È_1
  5
698
 10
-56.7124
 20
-442.221
 30
0.000000
  70
    32
  0
VERTEX
  8
┌▓È_1
  5
699
 10
-56.7801
 20
-442.309
 30
0.000000
  70
    32
  0
VERTEX
  8
┌▓È_1
  5
69A
 10
-56.8442
 20
-442.402
 30
0.000000
  70
    32
  0
VERTEX
  8
┌▓È_1
  5
69B
 10
-56.9046
 20
-442.499
 30
0.000000
  70
    32
  0
VERTEX
  8
┌▓È_1
  5
69C
 10
-56.9611
 20
-442.599
 30
0.000000
  70
    32
  0
VERTEX
  8
┌▓È_1
  5
69D
 10
-57.0136
 20
-442.703
 30
0.000000
  70
    32
  0
VERTEX
  8
┌▓È_1
  5
69E
 10
-57.0620
 20
-442.810
 30
0.000000
  70
    32
  0
VERTEX
  8
┌▓È_1
  5
69F
 10
-57.1062
 20
-442.919
 30
0.000000
  70
    32
  0
VERTEX
  8
┌▓È_1
  5
6A0
 10
-57.1459
 20
-443.032
 30
0.000000
  70
    32
  0
VERTEX
  8
┌▓È_1
  5
6A1
 10
-57.1813
 20
-443.146
 30
0.000000
  70
    32
  0
VERTEX
  8
┌▓È_1
  5
6A2
 10
-57.2121
 20
-443.263
 30
0.000000
  70
    32
  0
VERTEX
  8
┌▓È_1
  5
6A3
 10
-57.2382
 20
-443.381
 30
0.000000
  70
    32
  0
VERTEX
  8
┌▓È_1
  5
6A4
 10
-57.2597
 20
-443.501
 30
0.000000
  70
    32
  0
VERTEX
  8
┌▓È_1
  5
6A5
 10
-57.2765
 20
-443.622
 30
0.000000
  70
    32
  0
VERTEX
  8
┌▓È_1
  5
6A6
 10
-57.2885
 20
-443.743
 30
0.000000
  70
    32
  0
VERTEX
  8
┌▓È_1
  5
6A7
 10
-57.2958
 20
-443.866
 30
0.000000
  70
    32
  0
VERTEX
  8
┌▓È_1
  5
6A8
 10
-57.2982
 20
-443.988
 30
0.000000
  70
    32
  0
SEQEND
  8
┌▓È_1
  5
6A9
  0
LINE
  5
22E
  8
┌▓È_1
 62
     5
 10
-205.0481770833
 20
-452.18837951789988
 30
0.0
 11
-195.5481770833
 21
-452.18837951789988
 31
0.0
  0
LINE
  5
22F
  8
┌▓È_1
 62
     5
 10
-205.0481770833
 20
-449.18837951789988
 30
0.0
 11
-205.0481770833
 21
-452.18837951789988
 31
0.0
  0
LINE
  5
230
  8
┌▓È_1
 62
     5
 10
299.9668495267
 20
-548.81216351989985
 30
0.0
 11
299.9668495267
 21
-532.21556126789994
 31
0.0
  0
ARC
  5
231
  8
┌▓È_1
 62
     5
 10
-196.5481770833
 20
-449.18837951789988
 30
0.0
 40
1.0
 50
0.0
 51
90.0
  0
ARC
  5
232
  8
┌▓È_1
 62
     5
 10
-204.0481770833
 20
-443.78837951790001
 30
0.0
 40
1.0
 50
180.0
 51
270.0
  0
LINE
  5
233
  8
┌▓È_1
 62
     5
 10
-205.0481770833
 20
-440.7883795178999
 30
0.0
 11
-205.0481770833
 21
-443.78837951790001
 31
0.0
  0
LINE
  5
234
  8
┌▓È_1
 62
     5
 10
-195.5481770833
 20
-443.78837951790001
 30
0.0
 11
-195.5481770833
 21
-440.7883795178999
 31
0.0
  0
LINE
  5
235
  8
┌▓È_1
 62
     5
 10
-204.0481770833
 20
-444.78837951790001
 30
0.0
 11
-196.5481770833
 21
-444.78837951790001
 31
0.0
  0
ARC
  5
236
  8
┌▓È_1
 62
     5
 10
-204.0481770833
 20
-449.18837951789988
 30
0.0
 40
1.0
 50
90.0
 51
180.0
  0
LINE
  5
237
  8
┌▓È_1
 62
     5
 10
-196.5481770833
 20
-448.18837951789988
 30
0.0
 11
-204.0481770833
 21
-448.18837951789988
 31
0.0
  0
LINE
  5
238
  8
┌▓È_1
 62
     5
 10
-195.5481770833
 20
-440.7883795178999
 30
0.0
 11
-205.0481770833
 21
-440.7883795178999
 31
0.0
  0
ARC
  5
239
  8
┌▓È_1
 62
     5
 10
-196.5481770833
 20
-443.78837951790001
 30
0.0
 40
1.0
 50
270.0
 51
0.0
  0
LINE
  5
23A
  8
┌▓È_1
 62
     5
 10
-494.7981770833
 20
-193.51988845299999
 30
0.0
 11
-496.49817708329988
 21
-193.51988845299999
 31
0.0
  0
LINE
  5
23B
  8
┌▓È_1
 62
     5
 10
-497.29817708329989
 20
-154.319888453
 30
0.0
 11
-497.29817708329989
 21
-181.0510416667
 31
0.0
  0
LINE
  5
23C
  8
┌▓È_1
 62
     5
 10
-500.2981770833
 20
-278.70104166670001
 30
0.0
 11
-500.2981770833
 21
-56.7010416667
 31
0.0
  0
LINE
  5
23D
  8
┌▓È_1
 62
     5
 10
-497.29817708329989
 20
-234.319888453
 30
0.0
 11
-497.29817708329989
 21
-221.0510416667
 31
0.0
  0
LINE
  5
23E
  8
┌▓È_1
 62
     5
 10
-492.0097138317999
 20
-267.70104166670001
 30
0.0
 11
-502.39007912869999
 21
-267.70104166670001
 31
0.0
  0
LINE
  5
23F
  8
┌▓È_1
 62
     5
 10
-492.12569556699992
 20
-187.70104166670001
 30
0.0
 11
-501.86816132040002
 21
-187.70104166670001
 31
0.0
  0
LINE
  5
240
  8
┌▓È_1
 62
     5
 10
-491.71975949390003
 20
-227.70104166670001
 30
0.0
 11
-502.8540060693
 21
-227.70104166670001
 31
0.0
  0
LINE
  5
241
  8
┌▓È_1
 62
     5
 10
-55.298177083299997
 20
-262.70104166670001
 30
0.0
 11
94.201822916699996
 21
-262.70104166670001
 31
0.0
  0
LINE
  5
242
  8
┌▓È_1
 62
     5
 10
-345.2981770833
 20
-171.88759235539999
 30
0.0
 11
-345.2981770833
 21
-288.75153916080001
 31
0.0
  0
LINE
  5
243
  8
┌▓È_1
 62
     5
 10
-55.298177083299997
 20
-182.70104166670001
 30
0.0
 11
94.201822916699996
 21
-182.70104166670001
 31
0.0
  0
LINE
  5
244
  8
┌▓È_1
 62
     5
 10
94.201822916699996
 20
-272.70104166670001
 30
0.0
 11
-55.298177083299997
 21
-272.70104166670001
 31
0.0
  0
LINE
  5
245
  8
┌▓È_1
 62
     5
 10
-65.298177273999997
 20
-451.4883795179
 30
0.0
 11
-195.5481770833
 21
-451.4883795179
 31
0.0
  0
ARC
  5
246
  8
┌▓È_1
 62
     5
 10
-498.7981770833
 20
-455.9883795179
 30
0.0
 40
1.5
 50
270.0
 51
0.0
  0
LINE
  5
247
  8
┌▓È_1
 62
     5
 10
-494.7981770833
 20
-441.4883795179
 30
0.0
 11
-355.29817704419997
 21
-441.4883795179
 31
0.0
  0
LINE
  5
248
  8
┌▓È_1
 62
     5
 10
-355.29817692519998
 20
-451.4883795179
 30
0.0
 11
-494.7981770833
 21
-451.4883795179
 31
0.0
  0
POLYLINE
  5
249
  8
┌▓È_1
 62
     5
 10
-344.84817708330002
 20
-448.98837951789989
 30
0.0
 66
     1
 70
     8
  0
VERTEX
  8
┌▓È_1
  5
6AA
 10
-344.848
 20
-448.988
 30
0.000000
  70
    32
  0
VERTEX
  8
┌▓È_1
  5
6AB
 10
-344.851
 20
-449.111
 30
0.000000
  70
    32
  0
VERTEX
  8
┌▓È_1
  5
6AC
 10
-344.858
 20
-449.233
 30
0.000000
  70
    32
  0
VERTEX
  8
┌▓È_1
  5
6AD
 10
-344.870
 20
-449.355
 30
0.000000
  70
    32
  0
VERTEX
  8
┌▓È_1
  5
6AE
 10
-344.887
 20
-449.476
 30
0.000000
  70
    32
  0
VERTEX
  8
┌▓È_1
  5
6AF
 10
-344.908
 20
-449.596
 30
0.000000
  70
    32
  0
VERTEX
  8
┌▓È_1
  5
6B0
 10
-344.934
 20
-449.714
 30
0.000000
  70
    32
  0
VERTEX
  8
┌▓È_1
  5
6B1
 10
-344.965
 20
-449.831
 30
0.000000
  70
    32
  0
VERTEX
  8
┌▓È_1
  5
6B2
 10
-345.000
 20
-449.945
 30
0.000000
  70
    32
  0
VERTEX
  8
┌▓È_1
  5
6B3
 10
-345.040
 20
-450.057
 30
0.000000
  70
    32
  0
VERTEX
  8
┌▓È_1
  5
6B4
 10
-345.084
 20
-450.167
 30
0.000000
  70
    32
  0
VERTEX
  8
┌▓È_1
  5
6B5
 10
-345.133
 20
-450.274
 30
0.000000
  70
    32
  0
VERTEX
  8
┌▓È_1
  5
6B6
 10
-345.185
 20
-450.377
 30
0.000000
  70
    32
  0
VERTEX
  8
┌▓È_1
  5
6B7
 10
-345.242
 20
-450.478
 30
0.000000
  70
    32
  0
VERTEX
  8
┌▓È_1
  5
6B8
 10
-345.302
 20
-450.574
 30
0.000000
  70
    32
  0
VERTEX
  8
┌▓È_1
  5
6B9
 10
-345.366
 20
-450.667
 30
0.000000
  70
    32
  0
VERTEX
  8
┌▓È_1
  5
6BA
 10
-345.434
 20
-450.756
 30
0.000000
  70
    32
  0
VERTEX
  8
┌▓È_1
  5
6BB
 10
-345.505
 20
-450.841
 30
0.000000
  70
    32
  0
VERTEX
  8
┌▓È_1
  5
6BC
 10
-345.579
 20
-450.921
 30
0.000000
  70
    32
  0
VERTEX
  8
┌▓È_1
  5
6BD
 10
-345.657
 20
-450.996
 30
0.000000
  70
    32
  0
VERTEX
  8
┌▓È_1
  5
6BE
 10
-345.737
 20
-451.067
 30
0.000000
  70
    32
  0
VERTEX
  8
┌▓È_1
  5
6BF
 10
-345.820
 20
-451.133
 30
0.000000
  70
    32
  0
VERTEX
  8
┌▓È_1
  5
6C0
 10
-345.905
 20
-451.193
 30
0.000000
  70
    32
  0
VERTEX
  8
┌▓È_1
  5
6C1
 10
-345.993
 20
-451.248
 30
0.000000
  70
    32
  0
VERTEX
  8
┌▓È_1
  5
6C2
 10
-346.083
 20
-451.298
 30
0.000000
  70
    32
  0
VERTEX
  8
┌▓È_1
  5
6C3
 10
-346.174
 20
-451.342
 30
0.000000
  70
    32
  0
VERTEX
  8
┌▓È_1
  5
6C4
 10
-346.268
 20
-451.381
 30
0.000000
  70
    32
  0
VERTEX
  8
┌▓È_1
  5
6C5
 10
-346.362
 20
-451.413
 30
0.000000
  70
    32
  0
VERTEX
  8
┌▓È_1
  5
6C6
 10
-346.458
 20
-451.440
 30
0.000000
  70
    32
  0
VERTEX
  8
┌▓È_1
  5
6C7
 10
-346.555
 20
-451.461
 30
0.000000
  70
    32
  0
VERTEX
  8
┌▓È_1
  5
6C8
 10
-346.652
 20
-451.476
 30
0.000000
  70
    32
  0
VERTEX
  8
┌▓È_1
  5
6C9
 10
-346.750
 20
-451.485
 30
0.000000
  70
    32
  0
VERTEX
  8
┌▓È_1
  5
6CA
 10
-346.848
 20
-451.488
 30
0.000000
  70
    32
  0
VERTEX
  8
┌▓È_1
  5
6CB
 10
-346.946
 20
-451.485
 30
0.000000
  70
    32
  0
VERTEX
  8
┌▓È_1
  5
6CC
 10
-347.044
 20
-451.476
 30
0.000000
  70
    32
  0
VERTEX
  8
┌▓È_1
  5
6CD
 10
-347.142
 20
-451.461
 30
0.000000
  70
    32
  0
VERTEX
  8
┌▓È_1
  5
6CE
 10
-347.238
 20
-451.440
 30
0.000000
  70
    32
  0
VERTEX
  8
┌▓È_1
  5
6CF
 10
-347.334
 20
-451.413
 30
0.000000
  70
    32
  0
VERTEX
  8
┌▓È_1
  5
6D0
 10
-347.429
 20
-451.381
 30
0.000000
  70
    32
  0
VERTEX
  8
┌▓È_1
  5
6D1
 10
-347.522
 20
-451.342
 30
0.000000
  70
    32
  0
VERTEX
  8
┌▓È_1
  5
6D2
 10
-347.614
 20
-451.298
 30
0.000000
  70
    32
  0
VERTEX
  8
┌▓È_1
  5
6D3
 10
-347.703
 20
-451.248
 30
0.000000
  70
    32
  0
VERTEX
  8
┌▓È_1
  5
6D4
 10
-347.791
 20
-451.193
 30
0.000000
  70
    32
  0
VERTEX
  8
┌▓È_1
  5
6D5
 10
-347.876
 20
-451.133
 30
0.000000
  70
    32
  0
VERTEX
  8
┌▓È_1
  5
6D6
 10
-347.959
 20
-451.067
 30
0.000000
  70
    32
  0
VERTEX
  8
┌▓È_1
  5
6D7
 10
-348.040
 20
-450.996
 30
0.000000
  70
    32
  0
VERTEX
  8
┌▓È_1
  5
6D8
 10
-348.117
 20
-450.921
 30
0.000000
  70
    32
  0
VERTEX
  8
┌▓È_1
  5
6D9
 10
-348.191
 20
-450.841
 30
0.000000
  70
    32
  0
VERTEX
  8
┌▓È_1
  5
6DA
 10
-348.262
 20
-450.756
 30
0.000000
  70
    32
  0
VERTEX
  8
┌▓È_1
  5
6DB
 10
-348.330
 20
-450.667
 30
0.000000
  70
    32
  0
VERTEX
  8
┌▓È_1
  5
6DC
 10
-348.394
 20
-450.574
 30
0.000000
  70
    32
  0
VERTEX
  8
┌▓È_1
  5
6DD
 10
-348.455
 20
-450.478
 30
0.000000
  70
    32
  0
VERTEX
  8
┌▓È_1
  5
6DE
 10
-348.511
 20
-450.377
 30
0.000000
  70
    32
  0
VERTEX
  8
┌▓È_1
  5
6DF
 10
-348.564
 20
-450.274
 30
0.000000
  70
    32
  0
VERTEX
  8
┌▓È_1
  5
6E0
 10
-348.612
 20
-450.167
 30
0.000000
  70
    32
  0
VERTEX
  8
┌▓È_1
  5
6E1
 10
-348.656
 20
-450.057
 30
0.000000
  70
    32
  0
VERTEX
  8
┌▓È_1
  5
6E2
 10
-348.696
 20
-449.945
 30
0.000000
  70
    32
  0
VERTEX
  8
┌▓È_1
  5
6E3
 10
-348.731
 20
-449.831
 30
0.000000
  70
    32
  0
VERTEX
  8
┌▓È_1
  5
6E4
 10
-348.762
 20
-449.714
 30
0.000000
  70
    32
  0
VERTEX
  8
┌▓È_1
  5
6E5
 10
-348.788
 20
-449.596
 30
0.000000
  70
    32
  0
VERTEX
  8
┌▓È_1
  5
6E6
 10
-348.810
 20
-449.476
 30
0.000000
  70
    32
  0
VERTEX
  8
┌▓È_1
  5
6E7
 10
-348.827
 20
-449.355
 30
0.000000
  70
    32
  0
VERTEX
  8
┌▓È_1
  5
6E8
 10
-348.839
 20
-449.233
 30
0.000000
  70
    32
  0
VERTEX
  8
┌▓È_1
  5
6E9
 10
-348.846
 20
-449.111
 30
0.000000
  70
    32
  0
VERTEX
  8
┌▓È_1
  5
6EA
 10
-348.848
 20
-448.988
 30
0.000000
  70
    32
  0
VERTEX
  8
┌▓È_1
  5
6EB
 10
-348.846
 20
-448.866
 30
0.000000
  70
    32
  0
VERTEX
  8
┌▓È_1
  5
6EC
 10
-348.839
 20
-448.743
 30
0.000000
  70
    32
  0
VERTEX
  8
┌▓È_1
  5
6ED
 10
-348.827
 20
-448.622
 30
0.000000
  70
    32
  0
VERTEX
  8
┌▓È_1
  5
6EE
 10
-348.810
 20
-448.501
 30
0.000000
  70
    32
  0
VERTEX
  8
┌▓È_1
  5
6EF
 10
-348.788
 20
-448.381
 30
0.000000
  70
    32
  0
VERTEX
  8
┌▓È_1
  5
6F0
 10
-348.762
 20
-448.263
 30
0.000000
  70
    32
  0
VERTEX
  8
┌▓È_1
  5
6F1
 10
-348.731
 20
-448.146
 30
0.000000
  70
    32
  0
VERTEX
  8
┌▓È_1
  5
6F2
 10
-348.696
 20
-448.032
 30
0.000000
  70
    32
  0
VERTEX
  8
┌▓È_1
  5
6F3
 10
-348.656
 20
-447.919
 30
0.000000
  70
    32
  0
VERTEX
  8
┌▓È_1
  5
6F4
 10
-348.612
 20
-447.810
 30
0.000000
  70
    32
  0
VERTEX
  8
┌▓È_1
  5
6F5
 10
-348.564
 20
-447.703
 30
0.000000
  70
    32
  0
VERTEX
  8
┌▓È_1
  5
6F6
 10
-348.511
 20
-447.599
 30
0.000000
  70
    32
  0
VERTEX
  8
┌▓È_1
  5
6F7
 10
-348.455
 20
-447.499
 30
0.000000
  70
    32
  0
VERTEX
  8
┌▓È_1
  5
6F8
 10
-348.394
 20
-447.402
 30
0.000000
  70
    32
  0
VERTEX
  8
┌▓È_1
  5
6F9
 10
-348.330
 20
-447.309
 30
0.000000
  70
    32
  0
VERTEX
  8
┌▓È_1
  5
6FA
 10
-348.262
 20
-447.221
 30
0.000000
  70
    32
  0
VERTEX
  8
┌▓È_1
  5
6FB
 10
-348.191
 20
-447.136
 30
0.000000
  70
    32
  0
VERTEX
  8
┌▓È_1
  5
6FC
 10
-348.117
 20
-447.056
 30
0.000000
  70
    32
  0
VERTEX
  8
┌▓È_1
  5
6FD
 10
-348.040
 20
-446.980
 30
0.000000
  70
    32
  0
VERTEX
  8
┌▓È_1
  5
6FE
 10
-347.959
 20
-446.910
 30
0.000000
  70
    32
  0
VERTEX
  8
┌▓È_1
  5
6FF
 10
-347.876
 20
-446.844
 30
0.000000
  70
    32
  0
VERTEX
  8
┌▓È_1
  5
700
 10
-347.791
 20
-446.784
 30
0.000000
  70
    32
  0
VERTEX
  8
┌▓È_1
  5
701
 10
-347.703
 20
-446.728
 30
0.000000
  70
    32
  0
VERTEX
  8
┌▓È_1
  5
702
 10
-347.614
 20
-446.679
 30
0.000000
  70
    32
  0
VERTEX
  8
┌▓È_1
  5
703
 10
-347.522
 20
-446.635
 30
0.000000
  70
    32
  0
VERTEX
  8
┌▓È_1
  5
704
 10
-347.429
 20
-446.596
 30
0.000000
  70
    32
  0
VERTEX
  8
┌▓È_1
  5
705
 10
-347.334
 20
-446.563
 30
0.000000
  70
    32
  0
VERTEX
  8
┌▓È_1
  5
706
 10
-347.238
 20
-446.536
 30
0.000000
  70
    32
  0
VERTEX
  8
┌▓È_1
  5
707
 10
-347.142
 20
-446.515
 30
0.000000
  70
    32
  0
VERTEX
  8
┌▓È_1
  5
708
 10
-347.044
 20
-446.500
 30
0.000000
  70
    32
  0
VERTEX
  8
┌▓È_1
  5
709
 10
-346.946
 20
-446.491
 30
0.000000
  70
    32
  0
VERTEX
  8
┌▓È_1
  5
70A
 10
-346.848
 20
-446.488
 30
0.000000
  70
    32
  0
VERTEX
  8
┌▓È_1
  5
70B
 10
-346.750
 20
-446.491
 30
0.000000
  70
    32
  0
VERTEX
  8
┌▓È_1
  5
70C
 10
-346.652
 20
-446.500
 30
0.000000
  70
    32
  0
VERTEX
  8
┌▓È_1
  5
70D
 10
-346.555
 20
-446.515
 30
0.000000
  70
    32
  0
VERTEX
  8
┌▓È_1
  5
70E
 10
-346.458
 20
-446.536
 30
0.000000
  70
    32
  0
VERTEX
  8
┌▓È_1
  5
70F
 10
-346.362
 20
-446.563
 30
0.000000
  70
    32
  0
VERTEX
  8
┌▓È_1
  5
710
 10
-346.268
 20
-446.596
 30
0.000000
  70
    32
  0
VERTEX
  8
┌▓È_1
  5
711
 10
-346.174
 20
-446.635
 30
0.000000
  70
    32
  0
VERTEX
  8
┌▓È_1
  5
712
 10
-346.083
 20
-446.679
 30
0.000000
  70
    32
  0
VERTEX
  8
┌▓È_1
  5
713
 10
-345.993
 20
-446.728
 30
0.000000
  70
    32
  0
VERTEX
  8
┌▓È_1
  5
714
 10
-345.905
 20
-446.784
 30
0.000000
  70
    32
  0
VERTEX
  8
┌▓È_1
  5
715
 10
-345.820
 20
-446.844
 30
0.000000
  70
    32
  0
VERTEX
  8
┌▓È_1
  5
716
 10
-345.737
 20
-446.910
 30
0.000000
  70
    32
  0
VERTEX
  8
┌▓È_1
  5
717
 10
-345.657
 20
-446.980
 30
0.000000
  70
    32
  0
VERTEX
  8
┌▓È_1
  5
718
 10
-345.579
 20
-447.056
 30
0.000000
  70
    32
  0
VERTEX
  8
┌▓È_1
  5
719
 10
-345.505
 20
-447.136
 30
0.000000
  70
    32
  0
VERTEX
  8
┌▓È_1
  5
71A
 10
-345.434
 20
-447.221
 30
0.000000
  70
    32
  0
VERTEX
  8
┌▓È_1
  5
71B
 10
-345.366
 20
-447.309
 30
0.000000
  70
    32
  0
VERTEX
  8
┌▓È_1
  5
71C
 10
-345.302
 20
-447.402
 30
0.000000
  70
    32
  0
VERTEX
  8
┌▓È_1
  5
71D
 10
-345.242
 20
-447.499
 30
0.000000
  70
    32
  0
VERTEX
  8
┌▓È_1
  5
71E
 10
-345.185
 20
-447.599
 30
0.000000
  70
    32
  0
VERTEX
  8
┌▓È_1
  5
71F
 10
-345.133
 20
-447.703
 30
0.000000
  70
    32
  0
VERTEX
  8
┌▓È_1
  5
720
 10
-345.084
 20
-447.810
 30
0.000000
  70
    32
  0
VERTEX
  8
┌▓È_1
  5
721
 10
-345.040
 20
-447.919
 30
0.000000
  70
    32
  0
VERTEX
  8
┌▓È_1
  5
722
 10
-345.000
 20
-448.032
 30
0.000000
  70
    32
  0
VERTEX
  8
┌▓È_1
  5
723
 10
-344.965
 20
-448.146
 30
0.000000
  70
    32
  0
VERTEX
  8
┌▓È_1
  5
724
 10
-344.934
 20
-448.263
 30
0.000000
  70
    32
  0
VERTEX
  8
┌▓È_1
  5
725
 10
-344.908
 20
-448.381
 30
0.000000
  70
    32
  0
VERTEX
  8
┌▓È_1
  5
726
 10
-344.887
 20
-448.501
 30
0.000000
  70
    32
  0
VERTEX
  8
┌▓È_1
  5
727
 10
-344.870
 20
-448.622
 30
0.000000
  70
    32
  0
VERTEX
  8
┌▓È_1
  5
728
 10
-344.858
 20
-448.743
 30
0.000000
  70
    32
  0
VERTEX
  8
┌▓È_1
  5
729
 10
-344.851
 20
-448.866
 30
0.000000
  70
    32
  0
VERTEX
  8
┌▓È_1
  5
72A
 10
-344.848
 20
-448.988
 30
0.000000
  70
    32
  0
SEQEND
  8
┌▓È_1
  5
72B
  0
LINE
  5
24A
  8
┌▓È_1
 62
     5
 10
-491.39239128790001
 20
-446.4883795179
 30
0.0
 11
-502.89189377550002
 21
-446.4883795179
 31
0.0
  0
LINE
  5
24B
  8
┌▓È_1
 62
     5
 10
-497.29817708329989
 20
-455.9883795179
 30
0.0
 11
-497.29817708329989
 21
-436.98837951789989
 31
0.0
  0
LINE
  5
24C
  8
┌▓È_1
 62
     5
 10
-497.29817708329989
 20
-452.48837951789989
 30
0.0
 11
-494.7981770833
 21
-452.48837951789989
 31
0.0
  0
LINE
  5
24D
  8
┌▓È_1
 62
     5
 10
-494.7981770833
 20
-440.48837951789989
 30
0.0
 11
-494.7981770833
 21
-452.48837951789989
 31
0.0
  0
LINE
  5
24E
  8
┌▓È_1
 62
     5
 10
-500.2981770833
 20
-435.4883795179
 30
0.0
 11
-500.2981770833
 21
-457.48837951789989
 31
0.0
  0
LINE
  5
24F
  8
┌▓È_1
 62
     5
 10
-498.7981770833
 20
-435.4883795179
 30
0.0
 11
-500.2981770833
 21
-435.4883795179
 31
0.0
  0
POLYLINE
  5
250
  8
┌▓È_1
 62
     5
 10
-357.2981770833
 20
-443.9883795179
 30
0.0
 66
     1
 70
     8
  0
VERTEX
  8
┌▓È_1
  5
72C
 10
-357.298
 20
-443.988
 30
0.000000
  70
    32
  0
VERTEX
  8
┌▓È_1
  5
72D
 10
-357.296
 20
-444.111
 30
0.000000
  70
    32
  0
VERTEX
  8
┌▓È_1
  5
72E
 10
-357.289
 20
-444.233
 30
0.000000
  70
    32
  0
VERTEX
  8
┌▓È_1
  5
72F
 10
-357.277
 20
-444.355
 30
0.000000
  70
    32
  0
VERTEX
  8
┌▓È_1
  5
730
 10
-357.260
 20
-444.476
 30
0.000000
  70
    32
  0
VERTEX
  8
┌▓È_1
  5
731
 10
-357.238
 20
-444.596
 30
0.000000
  70
    32
  0
VERTEX
  8
┌▓È_1
  5
732
 10
-357.212
 20
-444.714
 30
0.000000
  70
    32
  0
VERTEX
  8
┌▓È_1
  5
733
 10
-357.181
 20
-444.831
 30
0.000000
  70
    32
  0
VERTEX
  8
┌▓È_1
  5
734
 10
-357.146
 20
-444.945
 30
0.000000
  70
    32
  0
VERTEX
  8
┌▓È_1
  5
735
 10
-357.106
 20
-445.057
 30
0.000000
  70
    32
  0
VERTEX
  8
┌▓È_1
  5
736
 10
-357.062
 20
-445.167
 30
0.000000
  70
    32
  0
VERTEX
  8
┌▓È_1
  5
737
 10
-357.014
 20
-445.274
 30
0.000000
  70
    32
  0
VERTEX
  8
┌▓È_1
  5
738
 10
-356.961
 20
-445.377
 30
0.000000
  70
    32
  0
VERTEX
  8
┌▓È_1
  5
739
 10
-356.905
 20
-445.478
 30
0.000000
  70
    32
  0
VERTEX
  8
┌▓È_1
  5
73A
 10
-356.844
 20
-445.574
 30
0.000000
  70
    32
  0
VERTEX
  8
┌▓È_1
  5
73B
 10
-356.780
 20
-445.667
 30
0.000000
  70
    32
  0
VERTEX
  8
┌▓È_1
  5
73C
 10
-356.712
 20
-445.756
 30
0.000000
  70
    32
  0
VERTEX
  8
┌▓È_1
  5
73D
 10
-356.641
 20
-445.841
 30
0.000000
  70
    32
  0
VERTEX
  8
┌▓È_1
  5
73E
 10
-356.567
 20
-445.921
 30
0.000000
  70
    32
  0
VERTEX
  8
┌▓È_1
  5
73F
 10
-356.490
 20
-445.996
 30
0.000000
  70
    32
  0
VERTEX
  8
┌▓È_1
  5
740
 10
-356.409
 20
-446.067
 30
0.000000
  70
    32
  0
VERTEX
  8
┌▓È_1
  5
741
 10
-356.326
 20
-446.133
 30
0.000000
  70
    32
  0
VERTEX
  8
┌▓È_1
  5
742
 10
-356.241
 20
-446.193
 30
0.000000
  70
    32
  0
VERTEX
  8
┌▓È_1
  5
743
 10
-356.153
 20
-446.248
 30
0.000000
  70
    32
  0
VERTEX
  8
┌▓È_1
  5
744
 10
-356.064
 20
-446.298
 30
0.000000
  70
    32
  0
VERTEX
  8
┌▓È_1
  5
745
 10
-355.972
 20
-446.342
 30
0.000000
  70
    32
  0
VERTEX
  8
┌▓È_1
  5
746
 10
-355.879
 20
-446.381
 30
0.000000
  70
    32
  0
VERTEX
  8
┌▓È_1
  5
747
 10
-355.784
 20
-446.413
 30
0.000000
  70
    32
  0
VERTEX
  8
┌▓È_1
  5
748
 10
-355.688
 20
-446.440
 30
0.000000
  70
    32
  0
VERTEX
  8
┌▓È_1
  5
749
 10
-355.592
 20
-446.461
 30
0.000000
  70
    32
  0
VERTEX
  8
┌▓È_1
  5
74A
 10
-355.494
 20
-446.476
 30
0.000000
  70
    32
  0
VERTEX
  8
┌▓È_1
  5
74B
 10
-355.396
 20
-446.485
 30
0.000000
  70
    32
  0
VERTEX
  8
┌▓È_1
  5
74C
 10
-355.298
 20
-446.488
 30
0.000000
  70
    32
  0
VERTEX
  8
┌▓È_1
  5
74D
 10
-355.200
 20
-446.485
 30
0.000000
  70
    32
  0
VERTEX
  8
┌▓È_1
  5
74E
 10
-355.102
 20
-446.476
 30
0.000000
  70
    32
  0
VERTEX
  8
┌▓È_1
  5
74F
 10
-355.005
 20
-446.461
 30
0.000000
  70
    32
  0
VERTEX
  8
┌▓È_1
  5
750
 10
-354.908
 20
-446.440
 30
0.000000
  70
    32
  0
VERTEX
  8
┌▓È_1
  5
751
 10
-354.812
 20
-446.413
 30
0.000000
  70
    32
  0
VERTEX
  8
┌▓È_1
  5
752
 10
-354.718
 20
-446.381
 30
0.000000
  70
    32
  0
VERTEX
  8
┌▓È_1
  5
753
 10
-354.624
 20
-446.342
 30
0.000000
  70
    32
  0
VERTEX
  8
┌▓È_1
  5
754
 10
-354.533
 20
-446.298
 30
0.000000
  70
    32
  0
VERTEX
  8
┌▓È_1
  5
755
 10
-354.443
 20
-446.248
 30
0.000000
  70
    32
  0
VERTEX
  8
┌▓È_1
  5
756
 10
-354.355
 20
-446.193
 30
0.000000
  70
    32
  0
VERTEX
  8
┌▓È_1
  5
757
 10
-354.270
 20
-446.133
 30
0.000000
  70
    32
  0
VERTEX
  8
┌▓È_1
  5
758
 10
-354.187
 20
-446.067
 30
0.000000
  70
    32
  0
VERTEX
  8
┌▓È_1
  5
759
 10
-354.107
 20
-445.996
 30
0.000000
  70
    32
  0
VERTEX
  8
┌▓È_1
  5
75A
 10
-354.029
 20
-445.921
 30
0.000000
  70
    32
  0
VERTEX
  8
┌▓È_1
  5
75B
 10
-353.955
 20
-445.841
 30
0.000000
  70
    32
  0
VERTEX
  8
┌▓È_1
  5
75C
 10
-353.884
 20
-445.756
 30
0.000000
  70
    32
  0
VERTEX
  8
┌▓È_1
  5
75D
 10
-353.816
 20
-445.667
 30
0.000000
  70
    32
  0
VERTEX
  8
┌▓È_1
  5
75E
 10
-353.752
 20
-445.574
 30
0.000000
  70
    32
  0
VERTEX
  8
┌▓È_1
  5
75F
 10
-353.692
 20
-445.478
 30
0.000000
  70
    32
  0
VERTEX
  8
┌▓È_1
  5
760
 10
-353.635
 20
-445.377
 30
0.000000
  70
    32
  0
VERTEX
  8
┌▓È_1
  5
761
 10
-353.583
 20
-445.274
 30
0.000000
  70
    32
  0
VERTEX
  8
┌▓È_1
  5
762
 10
-353.534
 20
-445.167
 30
0.000000
  70
    32
  0
VERTEX
  8
┌▓È_1
  5
763
 10
-353.490
 20
-445.057
 30
0.000000
  70
    32
  0
VERTEX
  8
┌▓È_1
  5
764
 10
-353.450
 20
-444.945
 30
0.000000
  70
    32
  0
VERTEX
  8
┌▓È_1
  5
765
 10
-353.415
 20
-444.831
 30
0.000000
  70
    32
  0
VERTEX
  8
┌▓È_1
  5
766
 10
-353.384
 20
-444.714
 30
0.000000
  70
    32
  0
VERTEX
  8
┌▓È_1
  5
767
 10
-353.358
 20
-444.596
 30
0.000000
  70
    32
  0
VERTEX
  8
┌▓È_1
  5
768
 10
-353.337
 20
-444.476
 30
0.000000
  70
    32
  0
VERTEX
  8
┌▓È_1
  5
769
 10
-353.320
 20
-444.355
 30
0.000000
  70
    32
  0
VERTEX
  8
┌▓È_1
  5
76A
 10
-353.308
 20
-444.233
 30
0.000000
  70
    32
  0
VERTEX
  8
┌▓È_1
  5
76B
 10
-353.301
 20
-444.111
 30
0.000000
  70
    32
  0
VERTEX
  8
┌▓È_1
  5
76C
 10
-353.298
 20
-443.988
 30
0.000000
  70
    32
  0
VERTEX
  8
┌▓È_1
  5
76D
 10
-353.301
 20
-443.866
 30
0.000000
  70
    32
  0
VERTEX
  8
┌▓È_1
  5
76E
 10
-353.308
 20
-443.743
 30
0.000000
  70
    32
  0
VERTEX
  8
┌▓È_1
  5
76F
 10
-353.320
 20
-443.622
 30
0.000000
  70
    32
  0
VERTEX
  8
┌▓È_1
  5
770
 10
-353.337
 20
-443.501
 30
0.000000
  70
    32
  0
VERTEX
  8
┌▓È_1
  5
771
 10
-353.358
 20
-443.381
 30
0.000000
  70
    32
  0
VERTEX
  8
┌▓È_1
  5
772
 10
-353.384
 20
-443.263
 30
0.000000
  70
    32
  0
VERTEX
  8
┌▓È_1
  5
773
 10
-353.415
 20
-443.146
 30
0.000000
  70
    32
  0
VERTEX
  8
┌▓È_1
  5
774
 10
-353.450
 20
-443.032
 30
0.000000
  70
    32
  0
VERTEX
  8
┌▓È_1
  5
775
 10
-353.490
 20
-442.919
 30
0.000000
  70
    32
  0
VERTEX
  8
┌▓È_1
  5
776
 10
-353.534
 20
-442.810
 30
0.000000
  70
    32
  0
VERTEX
  8
┌▓È_1
  5
777
 10
-353.583
 20
-442.703
 30
0.000000
  70
    32
  0
VERTEX
  8
┌▓È_1
  5
778
 10
-353.635
 20
-442.599
 30
0.000000
  70
    32
  0
VERTEX
  8
┌▓È_1
  5
779
 10
-353.692
 20
-442.499
 30
0.000000
  70
    32
  0
VERTEX
  8
┌▓È_1
  5
77A
 10
-353.752
 20
-442.402
 30
0.000000
  70
    32
  0
VERTEX
  8
┌▓È_1
  5
77B
 10
-353.816
 20
-442.309
 30
0.000000
  70
    32
  0
VERTEX
  8
┌▓È_1
  5
77C
 10
-353.884
 20
-442.221
 30
0.000000
  70
    32
  0
VERTEX
  8
┌▓È_1
  5
77D
 10
-353.955
 20
-442.136
 30
0.000000
  70
    32
  0
VERTEX
  8
┌▓È_1
  5
77E
 10
-354.029
 20
-442.056
 30
0.000000
  70
    32
  0
VERTEX
  8
┌▓È_1
  5
77F
 10
-354.107
 20
-441.980
 30
0.000000
  70
    32
  0
VERTEX
  8
┌▓È_1
  5
780
 10
-354.187
 20
-441.910
 30
0.000000
  70
    32
  0
VERTEX
  8
┌▓È_1
  5
781
 10
-354.270
 20
-441.844
 30
0.000000
  70
    32
  0
VERTEX
  8
┌▓È_1
  5
782
 10
-354.355
 20
-441.784
 30
0.000000
  70
    32
  0
VERTEX
  8
┌▓È_1
  5
783
 10
-354.443
 20
-441.728
 30
0.000000
  70
    32
  0
VERTEX
  8
┌▓È_1
  5
784
 10
-354.533
 20
-441.679
 30
0.000000
  70
    32
  0
VERTEX
  8
┌▓È_1
  5
785
 10
-354.624
 20
-441.635
 30
0.000000
  70
    32
  0
VERTEX
  8
┌▓È_1
  5
786
 10
-354.718
 20
-441.596
 30
0.000000
  70
    32
  0
VERTEX
  8
┌▓È_1
  5
787
 10
-354.812
 20
-441.563
 30
0.000000
  70
    32
  0
VERTEX
  8
┌▓È_1
  5
788
 10
-354.908
 20
-441.536
 30
0.000000
  70
    32
  0
VERTEX
  8
┌▓È_1
  5
789
 10
-355.005
 20
-441.515
 30
0.000000
  70
    32
  0
VERTEX
  8
┌▓È_1
  5
78A
 10
-355.102
 20
-441.500
 30
0.000000
  70
    32
  0
VERTEX
  8
┌▓È_1
  5
78B
 10
-355.200
 20
-441.491
 30
0.000000
  70
    32
  0
VERTEX
  8
┌▓È_1
  5
78C
 10
-355.298
 20
-441.488
 30
0.000000
  70
    32
  0
VERTEX
  8
┌▓È_1
  5
78D
 10
-355.396
 20
-441.491
 30
0.000000
  70
    32
  0
VERTEX
  8
┌▓È_1
  5
78E
 10
-355.494
 20
-441.500
 30
0.000000
  70
    32
  0
VERTEX
  8
┌▓È_1
  5
78F
 10
-355.592
 20
-441.515
 30
0.000000
  70
    32
  0
VERTEX
  8
┌▓È_1
  5
790
 10
-355.688
 20
-441.536
 30
0.000000
  70
    32
  0
VERTEX
  8
┌▓È_1
  5
791
 10
-355.784
 20
-441.563
 30
0.000000
  70
    32
  0
VERTEX
  8
┌▓È_1
  5
792
 10
-355.879
 20
-441.596
 30
0.000000
  70
    32
  0
VERTEX
  8
┌▓È_1
  5
793
 10
-355.972
 20
-441.635
 30
0.000000
  70
    32
  0
VERTEX
  8
┌▓È_1
  5
794
 10
-356.064
 20
-441.679
 30
0.000000
  70
    32
  0
VERTEX
  8
┌▓È_1
  5
795
 10
-356.153
 20
-441.728
 30
0.000000
  70
    32
  0
VERTEX
  8
┌▓È_1
  5
796
 10
-356.241
 20
-441.784
 30
0.000000
  70
    32
  0
VERTEX
  8
┌▓È_1
  5
797
 10
-356.326
 20
-441.844
 30
0.000000
  70
    32
  0
VERTEX
  8
┌▓È_1
  5
798
 10
-356.409
 20
-441.910
 30
0.000000
  70
    32
  0
VERTEX
  8
┌▓È_1
  5
799
 10
-356.490
 20
-441.980
 30
0.000000
  70
    32
  0
VERTEX
  8
┌▓È_1
  5
79A
 10
-356.567
 20
-442.056
 30
0.000000
  70
    32
  0
VERTEX
  8
┌▓È_1
  5
79B
 10
-356.641
 20
-442.136
 30
0.000000
  70
    32
  0
VERTEX
  8
┌▓È_1
  5
79C
 10
-356.712
 20
-442.221
 30
0.000000
  70
    32
  0
VERTEX
  8
┌▓È_1
  5
79D
 10
-356.780
 20
-442.309
 30
0.000000
  70
    32
  0
VERTEX
  8
┌▓È_1
  5
79E
 10
-356.844
 20
-442.402
 30
0.000000
  70
    32
  0
VERTEX
  8
┌▓È_1
  5
79F
 10
-356.905
 20
-442.499
 30
0.000000
  70
    32
  0
VERTEX
  8
┌▓È_1
  5
7A0
 10
-356.961
 20
-442.599
 30
0.000000
  70
    32
  0
VERTEX
  8
┌▓È_1
  5
7A1
 10
-357.014
 20
-442.703
 30
0.000000
  70
    32
  0
VERTEX
  8
┌▓È_1
  5
7A2
 10
-357.062
 20
-442.810
 30
0.000000
  70
    32
  0
VERTEX
  8
┌▓È_1
  5
7A3
 10
-357.106
 20
-442.919
 30
0.000000
  70
    32
  0
VERTEX
  8
┌▓È_1
  5
7A4
 10
-357.146
 20
-443.032
 30
0.000000
  70
    32
  0
VERTEX
  8
┌▓È_1
  5
7A5
 10
-357.181
 20
-443.146
 30
0.000000
  70
    32
  0
VERTEX
  8
┌▓È_1
  5
7A6
 10
-357.212
 20
-443.263
 30
0.000000
  70
    32
  0
VERTEX
  8
┌▓È_1
  5
7A7
 10
-357.238
 20
-443.381
 30
0.000000
  70
    32
  0
VERTEX
  8
┌▓È_1
  5
7A8
 10
-357.260
 20
-443.501
 30
0.000000
  70
    32
  0
VERTEX
  8
┌▓È_1
  5
7A9
 10
-357.277
 20
-443.622
 30
0.000000
  70
    32
  0
VERTEX
  8
┌▓È_1
  5
7AA
 10
-357.289
 20
-443.743
 30
0.000000
  70
    32
  0
VERTEX
  8
┌▓È_1
  5
7AB
 10
-357.296
 20
-443.866
 30
0.000000
  70
    32
  0
VERTEX
  8
┌▓È_1
  5
7AC
 10
-357.298
 20
-443.988
 30
0.000000
  70
    32
  0
SEQEND
  8
┌▓È_1
  5
7AD
  0
POLYLINE
  5
251
  8
┌▓È_1
 62
     5
 10
-355.2981770833
 20
-446.48837951789989
 30
0.0
 66
     1
 70
     8
  0
VERTEX
  8
┌▓È_1
  5
7AE
 10
-355.298
 20
-446.488
 30
0.000000
  70
    32
  0
VERTEX
  8
┌▓È_1
  5
7AF
 10
-355.249
 20
-446.489
 30
0.000000
  70
    32
  0
VERTEX
  8
┌▓È_1
  5
7B0
 10
-355.200
 20
-446.491
 30
0.000000
  70
    32
  0
VERTEX
  8
┌▓È_1
  5
7B1
 10
-355.151
 20
-446.495
 30
0.000000
  70
    32
  0
VERTEX
  8
┌▓È_1
  5
7B2
 10
-355.102
 20
-446.500
 30
0.000000
  70
    32
  0
VERTEX
  8
┌▓È_1
  5
7B3
 10
-355.053
 20
-446.507
 30
0.000000
  70
    32
  0
VERTEX
  8
┌▓È_1
  5
7B4
 10
-355.005
 20
-446.515
 30
0.000000
  70
    32
  0
VERTEX
  8
┌▓È_1
  5
7B5
 10
-354.956
 20
-446.525
 30
0.000000
  70
    32
  0
VERTEX
  8
┌▓È_1
  5
7B6
 10
-354.908
 20
-446.536
 30
0.000000
  70
    32
  0
VERTEX
  8
┌▓È_1
  5
7B7
 10
-354.860
 20
-446.549
 30
0.000000
  70
    32
  0
VERTEX
  8
┌▓È_1
  5
7B8
 10
-354.812
 20
-446.563
 30
0.000000
  70
    32
  0
VERTEX
  8
┌▓È_1
  5
7B9
 10
-354.765
 20
-446.579
 30
0.000000
  70
    32
  0
VERTEX
  8
┌▓È_1
  5
7BA
 10
-354.718
 20
-446.596
 30
0.000000
  70
    32
  0
VERTEX
  8
┌▓È_1
  5
7BB
 10
-354.671
 20
-446.615
 30
0.000000
  70
    32
  0
VERTEX
  8
┌▓È_1
  5
7BC
 10
-354.624
 20
-446.635
 30
0.000000
  70
    32
  0
VERTEX
  8
┌▓È_1
  5
7BD
 10
-354.578
 20
-446.656
 30
0.000000
  70
    32
  0
VERTEX
  8
┌▓È_1
  5
7BE
 10
-354.533
 20
-446.679
 30
0.000000
  70
    32
  0
VERTEX
  8
┌▓È_1
  5
7BF
 10
-354.488
 20
-446.703
 30
0.000000
  70
    32
  0
VERTEX
  8
┌▓È_1
  5
7C0
 10
-354.443
 20
-446.728
 30
0.000000
  70
    32
  0
VERTEX
  8
┌▓È_1
  5
7C1
 10
-354.399
 20
-446.755
 30
0.000000
  70
    32
  0
VERTEX
  8
┌▓È_1
  5
7C2
 10
-354.355
 20
-446.784
 30
0.000000
  70
    32
  0
VERTEX
  8
┌▓È_1
  5
7C3
 10
-354.312
 20
-446.813
 30
0.000000
  70
    32
  0
VERTEX
  8
┌▓È_1
  5
7C4
 10
-354.270
 20
-446.844
 30
0.000000
  70
    32
  0
VERTEX
  8
┌▓È_1
  5
7C5
 10
-354.228
 20
-446.876
 30
0.000000
  70
    32
  0
VERTEX
  8
┌▓È_1
  5
7C6
 10
-354.187
 20
-446.910
 30
0.000000
  70
    32
  0
VERTEX
  8
┌▓È_1
  5
7C7
 10
-354.147
 20
-446.944
 30
0.000000
  70
    32
  0
VERTEX
  8
┌▓È_1
  5
7C8
 10
-354.107
 20
-446.980
 30
0.000000
  70
    32
  0
VERTEX
  8
┌▓È_1
  5
7C9
 10
-354.068
 20
-447.018
 30
0.000000
  70
    32
  0
VERTEX
  8
┌▓È_1
  5
7CA
 10
-354.029
 20
-447.056
 30
0.000000
  70
    32
  0
VERTEX
  8
┌▓È_1
  5
7CB
 10
-353.992
 20
-447.095
 30
0.000000
  70
    32
  0
VERTEX
  8
┌▓È_1
  5
7CC
 10
-353.955
 20
-447.136
 30
0.000000
  70
    32
  0
VERTEX
  8
┌▓È_1
  5
7CD
 10
-353.919
 20
-447.178
 30
0.000000
  70
    32
  0
VERTEX
  8
┌▓È_1
  5
7CE
 10
-353.884
 20
-447.221
 30
0.000000
  70
    32
  0
VERTEX
  8
┌▓È_1
  5
7CF
 10
-353.850
 20
-447.265
 30
0.000000
  70
    32
  0
VERTEX
  8
┌▓È_1
  5
7D0
 10
-353.816
 20
-447.309
 30
0.000000
  70
    32
  0
VERTEX
  8
┌▓È_1
  5
7D1
 10
-353.784
 20
-447.355
 30
0.000000
  70
    32
  0
VERTEX
  8
┌▓È_1
  5
7D2
 10
-353.752
 20
-447.402
 30
0.000000
  70
    32
  0
VERTEX
  8
┌▓È_1
  5
7D3
 10
-353.721
 20
-447.450
 30
0.000000
  70
    32
  0
VERTEX
  8
┌▓È_1
  5
7D4
 10
-353.692
 20
-447.499
 30
0.000000
  70
    32
  0
VERTEX
  8
┌▓È_1
  5
7D5
 10
-353.663
 20
-447.549
 30
0.000000
  70
    32
  0
VERTEX
  8
┌▓È_1
  5
7D6
 10
-353.635
 20
-447.599
 30
0.000000
  70
    32
  0
VERTEX
  8
┌▓È_1
  5
7D7
 10
-353.608
 20
-447.651
 30
0.000000
  70
    32
  0
VERTEX
  8
┌▓È_1
  5
7D8
 10
-353.583
 20
-447.703
 30
0.000000
  70
    32
  0
VERTEX
  8
┌▓È_1
  5
7D9
 10
-353.558
 20
-447.756
 30
0.000000
  70
    32
  0
VERTEX
  8
┌▓È_1
  5
7DA
 10
-353.534
 20
-447.810
 30
0.000000
  70
    32
  0
VERTEX
  8
┌▓È_1
  5
7DB
 10
-353.512
 20
-447.864
 30
0.000000
  70
    32
  0
VERTEX
  8
┌▓È_1
  5
7DC
 10
-353.490
 20
-447.919
 30
0.000000
  70
    32
  0
VERTEX
  8
┌▓È_1
  5
7DD
 10
-353.470
 20
-447.975
 30
0.000000
  70
    32
  0
VERTEX
  8
┌▓È_1
  5
7DE
 10
-353.450
 20
-448.032
 30
0.000000
  70
    32
  0
VERTEX
  8
┌▓È_1
  5
7DF
 10
-353.432
 20
-448.089
 30
0.000000
  70
    32
  0
VERTEX
  8
┌▓È_1
  5
7E0
 10
-353.415
 20
-448.146
 30
0.000000
  70
    32
  0
VERTEX
  8
┌▓È_1
  5
7E1
 10
-353.399
 20
-448.204
 30
0.000000
  70
    32
  0
VERTEX
  8
┌▓È_1
  5
7E2
 10
-353.384
 20
-448.263
 30
0.000000
  70
    32
  0
VERTEX
  8
┌▓È_1
  5
7E3
 10
-353.371
 20
-448.322
 30
0.000000
  70
    32
  0
VERTEX
  8
┌▓È_1
  5
7E4
 10
-353.358
 20
-448.381
 30
0.000000
  70
    32
  0
VERTEX
  8
┌▓È_1
  5
7E5
 10
-353.347
 20
-448.441
 30
0.000000
  70
    32
  0
VERTEX
  8
┌▓È_1
  5
7E6
 10
-353.337
 20
-448.501
 30
0.000000
  70
    32
  0
VERTEX
  8
┌▓È_1
  5
7E7
 10
-353.328
 20
-448.561
 30
0.000000
  70
    32
  0
VERTEX
  8
┌▓È_1
  5
7E8
 10
-353.320
 20
-448.622
 30
0.000000
  70
    32
  0
VERTEX
  8
┌▓È_1
  5
7E9
 10
-353.313
 20
-448.682
 30
0.000000
  70
    32
  0
VERTEX
  8
┌▓È_1
  5
7EA
 10
-353.308
 20
-448.743
 30
0.000000
  70
    32
  0
VERTEX
  8
┌▓È_1
  5
7EB
 10
-353.304
 20
-448.804
 30
0.000000
  70
    32
  0
VERTEX
  8
┌▓È_1
  5
7EC
 10
-353.301
 20
-448.866
 30
0.000000
  70
    32
  0
VERTEX
  8
┌▓È_1
  5
7ED
 10
-353.299
 20
-448.927
 30
0.000000
  70
    32
  0
VERTEX
  8
┌▓È_1
  5
7EE
 10
-353.298
 20
-448.988
 30
0.000000
  70
    32
  0
VERTEX
  8
┌▓È_1
  5
7EF
 10
-353.299
 20
-449.050
 30
0.000000
  70
    32
  0
VERTEX
  8
┌▓È_1
  5
7F0
 10
-353.301
 20
-449.111
 30
0.000000
  70
    32
  0
VERTEX
  8
┌▓È_1
  5
7F1
 10
-353.304
 20
-449.172
 30
0.000000
  70
    32
  0
VERTEX
  8
┌▓È_1
  5
7F2
 10
-353.308
 20
-449.233
 30
0.000000
  70
    32
  0
VERTEX
  8
┌▓È_1
  5
7F3
 10
-353.313
 20
-449.294
 30
0.000000
  70
    32
  0
VERTEX
  8
┌▓È_1
  5
7F4
 10
-353.320
 20
-449.355
 30
0.000000
  70
    32
  0
VERTEX
  8
┌▓È_1
  5
7F5
 10
-353.328
 20
-449.416
 30
0.000000
  70
    32
  0
VERTEX
  8
┌▓È_1
  5
7F6
 10
-353.337
 20
-449.476
 30
0.000000
  70
    32
  0
VERTEX
  8
┌▓È_1
  5
7F7
 10
-353.347
 20
-449.536
 30
0.000000
  70
    32
  0
VERTEX
  8
┌▓È_1
  5
7F8
 10
-353.358
 20
-449.596
 30
0.000000
  70
    32
  0
VERTEX
  8
┌▓È_1
  5
7F9
 10
-353.371
 20
-449.655
 30
0.000000
  70
    32
  0
VERTEX
  8
┌▓È_1
  5
7FA
 10
-353.384
 20
-449.714
 30
0.000000
  70
    32
  0
VERTEX
  8
┌▓È_1
  5
7FB
 10
-353.399
 20
-449.773
 30
0.000000
  70
    32
  0
VERTEX
  8
┌▓È_1
  5
7FC
 10
-353.415
 20
-449.831
 30
0.000000
  70
    32
  0
VERTEX
  8
┌▓È_1
  5
7FD
 10
-353.432
 20
-449.888
 30
0.000000
  70
    32
  0
VERTEX
  8
┌▓È_1
  5
7FE
 10
-353.450
 20
-449.945
 30
0.000000
  70
    32
  0
VERTEX
  8
┌▓È_1
  5
7FF
 10
-353.470
 20
-450.001
 30
0.000000
  70
    32
  0
VERTEX
  8
┌▓È_1
  5
800
 10
-353.490
 20
-450.057
 30
0.000000
  70
    32
  0
VERTEX
  8
┌▓È_1
  5
801
 10
-353.512
 20
-450.112
 30
0.000000
  70
    32
  0
VERTEX
  8
┌▓È_1
  5
802
 10
-353.534
 20
-450.167
 30
0.000000
  70
    32
  0
VERTEX
  8
┌▓È_1
  5
803
 10
-353.558
 20
-450.221
 30
0.000000
  70
    32
  0
VERTEX
  8
┌▓È_1
  5
804
 10
-353.583
 20
-450.274
 30
0.000000
  70
    32
  0
VERTEX
  8
┌▓È_1
  5
805
 10
-353.608
 20
-450.326
 30
0.000000
  70
    32
  0
VERTEX
  8
┌▓È_1
  5
806
 10
-353.635
 20
-450.377
 30
0.000000
  70
    32
  0
VERTEX
  8
┌▓È_1
  5
807
 10
-353.663
 20
-450.428
 30
0.000000
  70
    32
  0
VERTEX
  8
┌▓È_1
  5
808
 10
-353.692
 20
-450.478
 30
0.000000
  70
    32
  0
VERTEX
  8
┌▓È_1
  5
809
 10
-353.721
 20
-450.526
 30
0.000000
  70
    32
  0
VERTEX
  8
┌▓È_1
  5
80A
 10
-353.752
 20
-450.574
 30
0.000000
  70
    32
  0
VERTEX
  8
┌▓È_1
  5
80B
 10
-353.784
 20
-450.621
 30
0.000000
  70
    32
  0
VERTEX
  8
┌▓È_1
  5
80C
 10
-353.816
 20
-450.667
 30
0.000000
  70
    32
  0
VERTEX
  8
┌▓È_1
  5
80D
 10
-353.850
 20
-450.712
 30
0.000000
  70
    32
  0
VERTEX
  8
┌▓È_1
  5
80E
 10
-353.884
 20
-450.756
 30
0.000000
  70
    32
  0
VERTEX
  8
┌▓È_1
  5
80F
 10
-353.919
 20
-450.799
 30
0.000000
  70
    32
  0
VERTEX
  8
┌▓È_1
  5
810
 10
-353.955
 20
-450.841
 30
0.000000
  70
    32
  0
VERTEX
  8
┌▓È_1
  5
811
 10
-353.992
 20
-450.881
 30
0.000000
  70
    32
  0
VERTEX
  8
┌▓È_1
  5
812
 10
-354.029
 20
-450.921
 30
0.000000
  70
    32
  0
VERTEX
  8
┌▓È_1
  5
813
 10
-354.068
 20
-450.959
 30
0.000000
  70
    32
  0
VERTEX
  8
┌▓È_1
  5
814
 10
-354.107
 20
-450.996
 30
0.000000
  70
    32
  0
VERTEX
  8
┌▓È_1
  5
815
 10
-354.147
 20
-451.032
 30
0.000000
  70
    32
  0
VERTEX
  8
┌▓È_1
  5
816
 10
-354.187
 20
-451.067
 30
0.000000
  70
    32
  0
VERTEX
  8
┌▓È_1
  5
817
 10
-354.228
 20
-451.101
 30
0.000000
  70
    32
  0
VERTEX
  8
┌▓È_1
  5
818
 10
-354.270
 20
-451.133
 30
0.000000
  70
    32
  0
VERTEX
  8
┌▓È_1
  5
819
 10
-354.312
 20
-451.164
 30
0.000000
  70
    32
  0
VERTEX
  8
┌▓È_1
  5
81A
 10
-354.355
 20
-451.193
 30
0.000000
  70
    32
  0
VERTEX
  8
┌▓È_1
  5
81B
 10
-354.399
 20
-451.221
 30
0.000000
  70
    32
  0
VERTEX
  8
┌▓È_1
  5
81C
 10
-354.443
 20
-451.248
 30
0.000000
  70
    32
  0
VERTEX
  8
┌▓È_1
  5
81D
 10
-354.488
 20
-451.274
 30
0.000000
  70
    32
  0
VERTEX
  8
┌▓È_1
  5
81E
 10
-354.533
 20
-451.298
 30
0.000000
  70
    32
  0
VERTEX
  8
┌▓È_1
  5
81F
 10
-354.578
 20
-451.321
 30
0.000000
  70
    32
  0
VERTEX
  8
┌▓È_1
  5
820
 10
-354.624
 20
-451.342
 30
0.000000
  70
    32
  0
VERTEX
  8
┌▓È_1
  5
821
 10
-354.671
 20
-451.362
 30
0.000000
  70
    32
  0
VERTEX
  8
┌▓È_1
  5
822
 10
-354.718
 20
-451.381
 30
0.000000
  70
    32
  0
VERTEX
  8
┌▓È_1
  5
823
 10
-354.765
 20
-451.398
 30
0.000000
  70
    32
  0
VERTEX
  8
┌▓È_1
  5
824
 10
-354.812
 20
-451.413
 30
0.000000
  70
    32
  0
VERTEX
  8
┌▓È_1
  5
825
 10
-354.860
 20
-451.428
 30
0.000000
  70
    32
  0
VERTEX
  8
┌▓È_1
  5
826
 10
-354.908
 20
-451.440
 30
0.000000
  70
    32
  0
VERTEX
  8
┌▓È_1
  5
827
 10
-354.956
 20
-451.452
 30
0.000000
  70
    32
  0
VERTEX
  8
┌▓È_1
  5
828
 10
-355.005
 20
-451.461
 30
0.000000
  70
    32
  0
VERTEX
  8
┌▓È_1
  5
829
 10
-355.053
 20
-451.470
 30
0.000000
  70
    32
  0
VERTEX
  8
┌▓È_1
  5
82A
 10
-355.102
 20
-451.476
 30
0.000000
  70
    32
  0
VERTEX
  8
┌▓È_1
  5
82B
 10
-355.151
 20
-451.482
 30
0.000000
  70
    32
  0
VERTEX
  8
┌▓È_1
  5
82C
 10
-355.200
 20
-451.485
 30
0.000000
  70
    32
  0
VERTEX
  8
┌▓È_1
  5
82D
 10
-355.249
 20
-451.488
 30
0.000000
  70
    32
  0
VERTEX
  8
┌▓È_1
  5
82E
 10
-355.298
 20
-451.488
 30
0.000000
  70
    32
  0
SEQEND
  8
┌▓È_1
  5
82F
  0
ARC
  5
252
  8
┌▓È_1
 62
     5
 10
-498.7981770833
 20
-436.98837951789989
 30
0.0
 40
1.5
 50
0.0
 51
90.0
  0
LINE
  5
253
  8
┌▓È_1
 62
     5
 10
-500.2981770833
 20
-457.48837951789989
 30
0.0
 11
-498.7981770833
 21
-457.48837951789989
 31
0.0
  0
LINE
  5
254
  8
┌▓È_1
 62
     5
 10
-346.84817722069999
 20
-441.4883795179
 30
0.0
 11
-205.0481770833
 21
-441.4883795179
 31
0.0
  0
LINE
  5
255
  8
┌▓È_1
 62
     5
 10
-205.0481770833
 20
-451.4883795179
 30
0.0
 11
-346.84817727400002
 21
-451.4883795179
 31
0.0
  0
LINE
  5
256
  8
┌▓È_1
 62
     5
 10
-345.2981770833
 20
-62.7010416667
 30
0.0
 11
-204.83305730399999
 21
-62.7010416667
 31
0.0
  0
LINE
  5
257
  8
┌▓È_1
 62
     5
 10
-205.0481770833
 20
-112.70104166669999
 30
0.0
 11
-345.2981770833
 21
-112.70104166669999
 31
0.0
  0
LINE
  5
258
  8
┌▓È_1
 62
     5
 10
-345.2981770833
 20
-102.70104166669999
 30
0.0
 11
-205.0481770833
 21
-102.70104166669999
 31
0.0
  0
LINE
  5
259
  8
┌▓È_1
 62
     5
 10
-205.0481770833
 20
-152.70104166670001
 30
0.0
 11
-345.2981770833
 21
-152.70104166670001
 31
0.0
  0
ARC
  5
25A
  8
┌▓È_1
 62
     5
 10
98.20182291670001
 20
-455.9883795179
 30
0.0
 40
1.5
 50
180.0
 51
270.0
  0
INSERT
  5
25B
  8
0
  6
CONTINUOUS
  2
*U21
 10
0.0
 20
0.0
 30
0.0
  0
INSERT
  5
25C
  8
0
  6
CONTINUOUS
  2
*U22
 10
0.0
 20
0.0
 30
0.0
  0
INSERT
  5
25D
  8
0
  6
CONTINUOUS
  2
*U23
 10
0.0
 20
0.0
 30
0.0
  0
INSERT
  5
25E
  8
0
  6
CONTINUOUS
  2
*U24
 10
0.0
 20
0.0
 30
0.0
  0
INSERT
  5
25F
  8
0
  6
CONTINUOUS
  2
*U25
 10
0.0
 20
0.0
 30
0.0
  0
POLYLINE
  5
260
  8
┌▓È_1
 62
     5
 10
-63.298177083300004
 20
-448.98837951789989
 30
0.0
 66
     1
 70
     8
  0
VERTEX
  8
┌▓È_1
  5
830
 10
-63.2982
 20
-448.988
 30
0.000000
  70
    32
  0
VERTEX
  8
┌▓È_1
  5
831
 10
-63.3006
 20
-449.111
 30
0.000000
  70
    32
  0
VERTEX
  8
┌▓È_1
  5
832
 10
-63.3078
 20
-449.233
 30
0.000000
  70
    32
  0
VERTEX
  8
┌▓È_1
  5
833
 10
-63.3198
 20
-449.355
 30
0.000000
  70
    32
  0
VERTEX
  8
┌▓È_1
  5
834
 10
-63.3366
 20
-449.476
 30
0.000000
  70
    32
  0
VERTEX
  8
┌▓È_1
  5
835
 10
-63.3581
 20
-449.596
 30
0.000000
  70
    32
  0
VERTEX
  8
┌▓È_1
  5
836
 10
-63.3843
 20
-449.714
 30
0.000000
  70
    32
  0
VERTEX
  8
┌▓È_1
  5
837
 10
-63.4151
 20
-449.831
 30
0.000000
  70
    32
  0
VERTEX
  8
┌▓È_1
  5
838
 10
-63.4504
 20
-449.945
 30
0.000000
  70
    32
  0
VERTEX
  8
┌▓È_1
  5
839
 10
-63.4902
 20
-450.057
 30
0.000000
  70
    32
  0
VERTEX
  8
┌▓È_1
  5
83A
 10
-63.5343
 20
-450.167
 30
0.000000
  70
    32
  0
VERTEX
  8
┌▓È_1
  5
83B
 10
-63.5827
 20
-450.274
 30
0.000000
  70
    32
  0
VERTEX
  8
┌▓È_1
  5
83C
 10
-63.6352
 20
-450.377
 30
0.000000
  70
    32
  0
VERTEX
  8
┌▓È_1
  5
83D
 10
-63.6918
 20
-450.478
 30
0.000000
  70
    32
  0
VERTEX
  8
┌▓È_1
  5
83E
 10
-63.7522
 20
-450.574
 30
0.000000
  70
    32
  0
VERTEX
  8
┌▓È_1
  5
83F
 10
-63.8163
 20
-450.667
 30
0.000000
  70
    32
  0
VERTEX
  8
┌▓È_1
  5
840
 10
-63.8840
 20
-450.756
 30
0.000000
  70
    32
  0
VERTEX
  8
┌▓È_1
  5
841
 10
-63.9551
 20
-450.841
 30
0.000000
  70
    32
  0
VERTEX
  8
┌▓È_1
  5
842
 10
-64.0294
 20
-450.921
 30
0.000000
  70
    32
  0
VERTEX
  8
┌▓È_1
  5
843
 10
-64.1068
 20
-450.996
 30
0.000000
  70
    32
  0
VERTEX
  8
┌▓È_1
  5
844
 10
-64.1870
 20
-451.067
 30
0.000000
  70
    32
  0
VERTEX
  8
┌▓È_1
  5
845
 10
-64.2700
 20
-451.133
 30
0.000000
  70
    32
  0
VERTEX
  8
┌▓È_1
  5
846
 10
-64.3554
 20
-451.193
 30
0.000000
  70
    32
  0
VERTEX
  8
┌▓È_1
  5
847
 10
-64.4431
 20
-451.248
 30
0.000000
  70
    32
  0
VERTEX
  8
┌▓È_1
  5
848
 10
-64.5328
 20
-451.298
 30
0.000000
  70
    32
  0
VERTEX
  8
┌▓È_1
  5
849
 10
-64.6244
 20
-451.342
 30
0.000000
  70
    32
  0
VERTEX
  8
┌▓È_1
  5
84A
 10
-64.7176
 20
-451.381
 30
0.000000
  70
    32
  0
VERTEX
  8
┌▓È_1
  5
84B
 10
-64.8122
 20
-451.413
 30
0.000000
  70
    32
  0
VERTEX
  8
┌▓È_1
  5
84C
 10
-64.9080
 20
-451.440
 30
0.000000
  70
    32
  0
VERTEX
  8
┌▓È_1
  5
84D
 10
-65.0047
 20
-451.461
 30
0.000000
  70
    32
  0
VERTEX
  8
┌▓È_1
  5
84E
 10
-65.1021
 20
-451.476
 30
0.000000
  70
    32
  0
VERTEX
  8
┌▓È_1
  5
84F
 10
-65.2000
 20
-451.485
 30
0.000000
  70
    32
  0
VERTEX
  8
┌▓È_1
  5
850
 10
-65.2982
 20
-451.488
 30
0.000000
  70
    32
  0
VERTEX
  8
┌▓È_1
  5
851
 10
-65.3963
 20
-451.485
 30
0.000000
  70
    32
  0
VERTEX
  8
┌▓È_1
  5
852
 10
-65.4942
 20
-451.476
 30
0.000000
  70
    32
  0
VERTEX
  8
┌▓È_1
  5
853
 10
-65.5916
 20
-451.461
 30
0.000000
  70
    32
  0
VERTEX
  8
┌▓È_1
  5
854
 10
-65.6884
 20
-451.440
 30
0.000000
  70
    32
  0
VERTEX
  8
┌▓È_1
  5
855
 10
-65.7841
 20
-451.413
 30
0.000000
  70
    32
  0
VERTEX
  8
┌▓È_1
  5
856
 10
-65.8787
 20
-451.381
 30
0.000000
  70
    32
  0
VERTEX
  8
┌▓È_1
  5
857
 10
-65.9720
 20
-451.342
 30
0.000000
  70
    32
  0
VERTEX
  8
┌▓È_1
  5
858
 10
-66.0635
 20
-451.298
 30
0.000000
  70
    32
  0
VERTEX
  8
┌▓È_1
  5
859
 10
-66.1533
 20
-451.248
 30
0.000000
  70
    32
  0
VERTEX
  8
┌▓È_1
  5
85A
 10
-66.2410
 20
-451.193
 30
0.000000
  70
    32
  0
VERTEX
  8
┌▓È_1
  5
85B
 10
-66.3264
 20
-451.133
 30
0.000000
  70
    32
  0
VERTEX
  8
┌▓È_1
  5
85C
 10
-66.4093
 20
-451.067
 30
0.000000
  70
    32
  0
VERTEX
  8
┌▓È_1
  5
85D
 10
-66.4896
 20
-450.996
 30
0.000000
  70
    32
  0
VERTEX
  8
┌▓È_1
  5
85E
 10
-66.5670
 20
-450.921
 30
0.000000
  70
    32
  0
VERTEX
  8
┌▓È_1
  5
85F
 10
-66.6413
 20
-450.841
 30
0.000000
  70
    32
  0
VERTEX
  8
┌▓È_1
  5
860
 10
-66.7124
 20
-450.756
 30
0.000000
  70
    32
  0
VERTEX
  8
┌▓È_1
  5
861
 10
-66.7801
 20
-450.667
 30
0.000000
  70
    32
  0
VERTEX
  8
┌▓È_1
  5
862
 10
-66.8442
 20
-450.574
 30
0.000000
  70
    32
  0
VERTEX
  8
┌▓È_1
  5
863
 10
-66.9046
 20
-450.478
 30
0.000000
  70
    32
  0
VERTEX
  8
┌▓È_1
  5
864
 10
-66.9611
 20
-450.377
 30
0.000000
  70
    32
  0
VERTEX
  8
┌▓È_1
  5
865
 10
-67.0136
 20
-450.274
 30
0.000000
  70
    32
  0
VERTEX
  8
┌▓È_1
  5
866
 10
-67.0620
 20
-450.167
 30
0.000000
  70
    32
  0
VERTEX
  8
┌▓È_1
  5
867
 10
-67.1062
 20
-450.057
 30
0.000000
  70
    32
  0
VERTEX
  8
┌▓È_1
  5
868
 10
-67.1459
 20
-449.945
 30
0.000000
  70
    32
  0
VERTEX
  8
┌▓È_1
  5
869
 10
-67.1813
 20
-449.831
 30
0.000000
  70
    32
  0
VERTEX
  8
┌▓È_1
  5
86A
 10
-67.2121
 20
-449.714
 30
0.000000
  70
    32
  0
VERTEX
  8
┌▓È_1
  5
86B
 10
-67.2382
 20
-449.596
 30
0.000000
  70
    32
  0
VERTEX
  8
┌▓È_1
  5
86C
 10
-67.2597
 20
-449.476
 30
0.000000
  70
    32
  0
VERTEX
  8
┌▓È_1
  5
86D
 10
-67.2765
 20
-449.355
 30
0.000000
  70
    32
  0
VERTEX
  8
┌▓È_1
  5
86E
 10
-67.2885
 20
-449.233
 30
0.000000
  70
    32
  0
VERTEX
  8
┌▓È_1
  5
86F
 10
-67.2958
 20
-449.111
 30
0.000000
  70
    32
  0
VERTEX
  8
┌▓È_1
  5
870
 10
-67.2982
 20
-448.988
 30
0.000000
  70
    32
  0
VERTEX
  8
┌▓È_1
  5
871
 10
-67.2958
 20
-448.866
 30
0.000000
  70
    32
  0
VERTEX
  8
┌▓È_1
  5
872
 10
-67.2885
 20
-448.743
 30
0.000000
  70
    32
  0
VERTEX
  8
┌▓È_1
  5
873
 10
-67.2765
 20
-448.622
 30
0.000000
  70
    32
  0
VERTEX
  8
┌▓È_1
  5
874
 10
-67.2597
 20
-448.501
 30
0.000000
  70
    32
  0
VERTEX
  8
┌▓È_1
  5
875
 10
-67.2382
 20
-448.381
 30
0.000000
  70
    32
  0
VERTEX
  8
┌▓È_1
  5
876
 10
-67.2121
 20
-448.263
 30
0.000000
  70
    32
  0
VERTEX
  8
┌▓È_1
  5
877
 10
-67.1813
 20
-448.146
 30
0.000000
  70
    32
  0
VERTEX
  8
┌▓È_1
  5
878
 10
-67.1459
 20
-448.032
 30
0.000000
  70
    32
  0
VERTEX
  8
┌▓È_1
  5
879
 10
-67.1062
 20
-447.919
 30
0.000000
  70
    32
  0
VERTEX
  8
┌▓È_1
  5
87A
 10
-67.0620
 20
-447.810
 30
0.000000
  70
    32
  0
VERTEX
  8
┌▓È_1
  5
87B
 10
-67.0136
 20
-447.703
 30
0.000000
  70
    32
  0
VERTEX
  8
┌▓È_1
  5
87C
 10
-66.9611
 20
-447.599
 30
0.000000
  70
    32
  0
VERTEX
  8
┌▓È_1
  5
87D
 10
-66.9046
 20
-447.499
 30
0.000000
  70
    32
  0
VERTEX
  8
┌▓È_1
  5
87E
 10
-66.8442
 20
-447.402
 30
0.000000
  70
    32
  0
VERTEX
  8
┌▓È_1
  5
87F
 10
-66.7801
 20
-447.309
 30
0.000000
  70
    32
  0
VERTEX
  8
┌▓È_1
  5
880
 10
-66.7124
 20
-447.221
 30
0.000000
  70
    32
  0
VERTEX
  8
┌▓È_1
  5
881
 10
-66.6413
 20
-447.136
 30
0.000000
  70
    32
  0
VERTEX
  8
┌▓È_1
  5
882
 10
-66.5670
 20
-447.056
 30
0.000000
  70
    32
  0
VERTEX
  8
┌▓È_1
  5
883
 10
-66.4896
 20
-446.980
 30
0.000000
  70
    32
  0
VERTEX
  8
┌▓È_1
  5
884
 10
-66.4093
 20
-446.910
 30
0.000000
  70
    32
  0
VERTEX
  8
┌▓È_1
  5
885
 10
-66.3264
 20
-446.844
 30
0.000000
  70
    32
  0
VERTEX
  8
┌▓È_1
  5
886
 10
-66.2410
 20
-446.784
 30
0.000000
  70
    32
  0
VERTEX
  8
┌▓È_1
  5
887
 10
-66.1533
 20
-446.728
 30
0.000000
  70
    32
  0
VERTEX
  8
┌▓È_1
  5
888
 10
-66.0635
 20
-446.679
 30
0.000000
  70
    32
  0
VERTEX
  8
┌▓È_1
  5
889
 10
-65.9720
 20
-446.635
 30
0.000000
  70
    32
  0
VERTEX
  8
┌▓È_1
  5
88A
 10
-65.8787
 20
-446.596
 30
0.000000
  70
    32
  0
VERTEX
  8
┌▓È_1
  5
88B
 10
-65.7841
 20
-446.563
 30
0.000000
  70
    32
  0
VERTEX
  8
┌▓È_1
  5
88C
 10
-65.6884
 20
-446.536
 30
0.000000
  70
    32
  0
VERTEX
  8
┌▓È_1
  5
88D
 10
-65.5916
 20
-446.515
 30
0.000000
  70
    32
  0
VERTEX
  8
┌▓È_1
  5
88E
 10
-65.4942
 20
-446.500
 30
0.000000
  70
    32
  0
VERTEX
  8
┌▓È_1
  5
88F
 10
-65.3963
 20
-446.491
 30
0.000000
  70
    32
  0
VERTEX
  8
┌▓È_1
  5
890
 10
-65.2982
 20
-446.488
 30
0.000000
  70
    32
  0
VERTEX
  8
┌▓È_1
  5
891
 10
-65.2000
 20
-446.491
 30
0.000000
  70
    32
  0
VERTEX
  8
┌▓È_1
  5
892
 10
-65.1021
 20
-446.500
 30
0.000000
  70
    32
  0
VERTEX
  8
┌▓È_1
  5
893
 10
-65.0047
 20
-446.515
 30
0.000000
  70
    32
  0
VERTEX
  8
┌▓È_1
  5
894
 10
-64.9080
 20
-446.536
 30
0.000000
  70
    32
  0
VERTEX
  8
┌▓È_1
  5
895
 10
-64.8122
 20
-446.563
 30
0.000000
  70
    32
  0
VERTEX
  8
┌▓È_1
  5
896
 10
-64.7176
 20
-446.596
 30
0.000000
  70
    32
  0
VERTEX
  8
┌▓È_1
  5
897
 10
-64.6244
 20
-446.635
 30
0.000000
  70
    32
  0
VERTEX
  8
┌▓È_1
  5
898
 10
-64.5328
 20
-446.679
 30
0.000000
  70
    32
  0
VERTEX
  8
┌▓È_1
  5
899
 10
-64.4431
 20
-446.728
 30
0.000000
  70
    32
  0
VERTEX
  8
┌▓È_1
  5
89A
 10
-64.3554
 20
-446.784
 30
0.000000
  70
    32
  0
VERTEX
  8
┌▓È_1
  5
89B
 10
-64.2700
 20
-446.844
 30
0.000000
  70
    32
  0
VERTEX
  8
┌▓È_1
  5
89C
 10
-64.1870
 20
-446.910
 30
0.000000
  70
    32
  0
VERTEX
  8
┌▓È_1
  5
89D
 10
-64.1068
 20
-446.980
 30
0.000000
  70
    32
  0
VERTEX
  8
┌▓È_1
  5
89E
 10
-64.0294
 20
-447.056
 30
0.000000
  70
    32
  0
VERTEX
  8
┌▓È_1
  5
89F
 10
-63.9551
 20
-447.136
 30
0.000000
  70
    32
  0
VERTEX
  8
┌▓È_1
  5
8A0
 10
-63.8840
 20
-447.221
 30
0.000000
  70
    32
  0
VERTEX
  8
┌▓È_1
  5
8A1
 10
-63.8163
 20
-447.309
 30
0.000000
  70
    32
  0
VERTEX
  8
┌▓È_1
  5
8A2
 10
-63.7522
 20
-447.402
 30
0.000000
  70
    32
  0
VERTEX
  8
┌▓È_1
  5
8A3
 10
-63.6918
 20
-447.499
 30
0.000000
  70
    32
  0
VERTEX
  8
┌▓È_1
  5
8A4
 10
-63.6352
 20
-447.599
 30
0.000000
  70
    32
  0
VERTEX
  8
┌▓È_1
  5
8A5
 10
-63.5827
 20
-447.703
 30
0.000000
  70
    32
  0
VERTEX
  8
┌▓È_1
  5
8A6
 10
-63.5343
 20
-447.810
 30
0.000000
  70
    32
  0
VERTEX
  8
┌▓È_1
  5
8A7
 10
-63.4902
 20
-447.919
 30
0.000000
  70
    32
  0
VERTEX
  8
┌▓È_1
  5
8A8
 10
-63.4504
 20
-448.032
 30
0.000000
  70
    32
  0
VERTEX
  8
┌▓È_1
  5
8A9
 10
-63.4151
 20
-448.146
 30
0.000000
  70
    32
  0
VERTEX
  8
┌▓È_1
  5
8AA
 10
-63.3843
 20
-448.263
 30
0.000000
  70
    32
  0
VERTEX
  8
┌▓È_1
  5
8AB
 10
-63.3581
 20
-448.381
 30
0.000000
  70
    32
  0
VERTEX
  8
┌▓È_1
  5
8AC
 10
-63.3366
 20
-448.501
 30
0.000000
  70
    32
  0
VERTEX
  8
┌▓È_1
  5
8AD
 10
-63.3198
 20
-448.622
 30
0.000000
  70
    32
  0
VERTEX
  8
┌▓È_1
  5
8AE
 10
-63.3078
 20
-448.743
 30
0.000000
  70
    32
  0
VERTEX
  8
┌▓È_1
  5
8AF
 10
-63.3006
 20
-448.866
 30
0.000000
  70
    32
  0
VERTEX
  8
┌▓È_1
  5
8B0
 10
-63.2982
 20
-448.988
 30
0.000000
  70
    32
  0
SEQEND
  8
┌▓È_1
  5
8B1
  0
POLYLINE
  5
261
  8
┌▓È_1
 62
     5
 10
-65.29817708329999
 20
-446.4883795179
 30
0.0
 66
     1
 70
     8
  0
VERTEX
  8
┌▓È_1
  5
8B2
 10
-65.2982
 20
-446.488
 30
0.000000
  70
    32
  0
VERTEX
  8
┌▓È_1
  5
8B3
 10
-65.2491
 20
-446.488
 30
0.000000
  70
    32
  0
VERTEX
  8
┌▓È_1
  5
8B4
 10
-65.2000
 20
-446.485
 30
0.000000
  70
    32
  0
VERTEX
  8
┌▓È_1
  5
8B5
 10
-65.1510
 20
-446.482
 30
0.000000
  70
    32
  0
VERTEX
  8
┌▓È_1
  5
8B6
 10
-65.1021
 20
-446.476
 30
0.000000
  70
    32
  0
VERTEX
  8
┌▓È_1
  5
8B7
 10
-65.0534
 20
-446.470
 30
0.000000
  70
    32
  0
VERTEX
  8
┌▓È_1
  5
8B8
 10
-65.0047
 20
-446.461
 30
0.000000
  70
    32
  0
VERTEX
  8
┌▓È_1
  5
8B9
 10
-64.9563
 20
-446.452
 30
0.000000
  70
    32
  0
VERTEX
  8
┌▓È_1
  5
8BA
 10
-64.9080
 20
-446.440
 30
0.000000
  70
    32
  0
VERTEX
  8
┌▓È_1
  5
8BB
 10
-64.8600
 20
-446.428
 30
0.000000
  70
    32
  0
VERTEX
  8
┌▓È_1
  5
8BC
 10
-64.8122
 20
-446.413
 30
0.000000
  70
    32
  0
VERTEX
  8
┌▓È_1
  5
8BD
 10
-64.7648
 20
-446.398
 30
0.000000
  70
    32
  0
VERTEX
  8
┌▓È_1
  5
8BE
 10
-64.7176
 20
-446.381
 30
0.000000
  70
    32
  0
VERTEX
  8
┌▓È_1
  5
8BF
 10
-64.6708
 20
-446.362
 30
0.000000
  70
    32
  0
VERTEX
  8
┌▓È_1
  5
8C0
 10
-64.6244
 20
-446.342
 30
0.000000
  70
    32
  0
VERTEX
  8
┌▓È_1
  5
8C1
 10
-64.5784
 20
-446.321
 30
0.000000
  70
    32
  0
VERTEX
  8
┌▓È_1
  5
8C2
 10
-64.5328
 20
-446.298
 30
0.000000
  70
    32
  0
VERTEX
  8
┌▓È_1
  5
8C3
 10
-64.4877
 20
-446.274
 30
0.000000
  70
    32
  0
VERTEX
  8
┌▓È_1
  5
8C4
 10
-64.4431
 20
-446.248
 30
0.000000
  70
    32
  0
VERTEX
  8
┌▓È_1
  5
8C5
 10
-64.3990
 20
-446.221
 30
0.000000
  70
    32
  0
VERTEX
  8
┌▓È_1
  5
8C6
 10
-64.3554
 20
-446.193
 30
0.000000
  70
    32
  0
VERTEX
  8
┌▓È_1
  5
8C7
 10
-64.3124
 20
-446.164
 30
0.000000
  70
    32
  0
VERTEX
  8
┌▓È_1
  5
8C8
 10
-64.2700
 20
-446.133
 30
0.000000
  70
    32
  0
VERTEX
  8
┌▓È_1
  5
8C9
 10
-64.2282
 20
-446.101
 30
0.000000
  70
    32
  0
VERTEX
  8
┌▓È_1
  5
8CA
 10
-64.1870
 20
-446.067
 30
0.000000
  70
    32
  0
VERTEX
  8
┌▓È_1
  5
8CB
 10
-64.1466
 20
-446.032
 30
0.000000
  70
    32
  0
VERTEX
  8
┌▓È_1
  5
8CC
 10
-64.1068
 20
-445.996
 30
0.000000
  70
    32
  0
VERTEX
  8
┌▓È_1
  5
8CD
 10
-64.0677
 20
-445.959
 30
0.000000
  70
    32
  0
VERTEX
  8
┌▓È_1
  5
8CE
 10
-64.0294
 20
-445.921
 30
0.000000
  70
    32
  0
VERTEX
  8
┌▓È_1
  5
8CF
 10
-63.9918
 20
-445.881
 30
0.000000
  70
    32
  0
VERTEX
  8
┌▓È_1
  5
8D0
 10
-63.9551
 20
-445.841
 30
0.000000
  70
    32
  0
VERTEX
  8
┌▓È_1
  5
8D1
 10
-63.9191
 20
-445.799
 30
0.000000
  70
    32
  0
VERTEX
  8
┌▓È_1
  5
8D2
 10
-63.8840
 20
-445.756
 30
0.000000
  70
    32
  0
VERTEX
  8
┌▓È_1
  5
8D3
 10
-63.8497
 20
-445.712
 30
0.000000
  70
    32
  0
VERTEX
  8
┌▓È_1
  5
8D4
 10
-63.8163
 20
-445.667
 30
0.000000
  70
    32
  0
VERTEX
  8
┌▓È_1
  5
8D5
 10
-63.7838
 20
-445.621
 30
0.000000
  70
    32
  0
VERTEX
  8
┌▓È_1
  5
8D6
 10
-63.7522
 20
-445.574
 30
0.000000
  70
    32
  0
VERTEX
  8
┌▓È_1
  5
8D7
 10
-63.7215
 20
-445.526
 30
0.000000
  70
    32
  0
VERTEX
  8
┌▓È_1
  5
8D8
 10
-63.6918
 20
-445.478
 30
0.000000
  70
    32
  0
VERTEX
  8
┌▓È_1
  5
8D9
 10
-63.6630
 20
-445.428
 30
0.000000
  70
    32
  0
VERTEX
  8
┌▓È_1
  5
8DA
 10
-63.6352
 20
-445.377
 30
0.000000
  70
    32
  0
VERTEX
  8
┌▓È_1
  5
8DB
 10
-63.6085
 20
-445.326
 30
0.000000
  70
    32
  0
VERTEX
  8
┌▓È_1
  5
8DC
 10
-63.5827
 20
-445.274
 30
0.000000
  70
    32
  0
VERTEX
  8
┌▓È_1
  5
8DD
 10
-63.5580
 20
-445.221
 30
0.000000
  70
    32
  0
VERTEX
  8
┌▓È_1
  5
8DE
 10
-63.5343
 20
-445.167
 30
0.000000
  70
    32
  0
VERTEX
  8
┌▓È_1
  5
8DF
 10
-63.5117
 20
-445.112
 30
0.000000
  70
    32
  0
VERTEX
  8
┌▓È_1
  5
8E0
 10
-63.4902
 20
-445.057
 30
0.000000
  70
    32
  0
VERTEX
  8
┌▓È_1
  5
8E1
 10
-63.4698
 20
-445.001
 30
0.000000
  70
    32
  0
VERTEX
  8
┌▓È_1
  5
8E2
 10
-63.4504
 20
-444.945
 30
0.000000
  70
    32
  0
VERTEX
  8
┌▓È_1
  5
8E3
 10
-63.4322
 20
-444.888
 30
0.000000
  70
    32
  0
VERTEX
  8
┌▓È_1
  5
8E4
 10
-63.4151
 20
-444.831
 30
0.000000
  70
    32
  0
VERTEX
  8
┌▓È_1
  5
8E5
 10
-63.3991
 20
-444.773
 30
0.000000
  70
    32
  0
VERTEX
  8
┌▓È_1
  5
8E6
 10
-63.3843
 20
-444.714
 30
0.000000
  70
    32
  0
VERTEX
  8
┌▓È_1
  5
8E7
 10
-63.3706
 20
-444.655
 30
0.000000
  70
    32
  0
VERTEX
  8
┌▓È_1
  5
8E8
 10
-63.3581
 20
-444.596
 30
0.000000
  70
    32
  0
VERTEX
  8
┌▓È_1
  5
8E9
 10
-63.3468
 20
-444.536
 30
0.000000
  70
    32
  0
VERTEX
  8
┌▓È_1
  5
8EA
 10
-63.3366
 20
-444.476
 30
0.000000
  70
    32
  0
VERTEX
  8
┌▓È_1
  5
8EB
 10
-63.3276
 20
-444.416
 30
0.000000
  70
    32
  0
VERTEX
  8
┌▓È_1
  5
8EC
 10
-63.3198
 20
-444.355
 30
0.000000
  70
    32
  0
VERTEX
  8
┌▓È_1
  5
8ED
 10
-63.3132
 20
-444.294
 30
0.000000
  70
    32
  0
VERTEX
  8
┌▓È_1
  5
8EE
 10
-63.3078
 20
-444.233
 30
0.000000
  70
    32
  0
VERTEX
  8
┌▓È_1
  5
8EF
 10
-63.3036
 20
-444.172
 30
0.000000
  70
    32
  0
VERTEX
  8
┌▓È_1
  5
8F0
 10
-63.3006
 20
-444.111
 30
0.000000
  70
    32
  0
VERTEX
  8
┌▓È_1
  5
8F1
 10
-63.2988
 20
-444.050
 30
0.000000
  70
    32
  0
VERTEX
  8
┌▓È_1
  5
8F2
 10
-63.2982
 20
-443.988
 30
0.000000
  70
    32
  0
VERTEX
  8
┌▓È_1
  5
8F3
 10
-63.2988
 20
-443.927
 30
0.000000
  70
    32
  0
VERTEX
  8
┌▓È_1
  5
8F4
 10
-63.3006
 20
-443.866
 30
0.000000
  70
    32
  0
VERTEX
  8
┌▓È_1
  5
8F5
 10
-63.3036
 20
-443.804
 30
0.000000
  70
    32
  0
VERTEX
  8
┌▓È_1
  5
8F6
 10
-63.3078
 20
-443.743
 30
0.000000
  70
    32
  0
VERTEX
  8
┌▓È_1
  5
8F7
 10
-63.3132
 20
-443.682
 30
0.000000
  70
    32
  0
VERTEX
  8
┌▓È_1
  5
8F8
 10
-63.3198
 20
-443.622
 30
0.000000
  70
    32
  0
VERTEX
  8
┌▓È_1
  5
8F9
 10
-63.3276
 20
-443.561
 30
0.000000
  70
    32
  0
VERTEX
  8
┌▓È_1
  5
8FA
 10
-63.3366
 20
-443.501
 30
0.000000
  70
    32
  0
VERTEX
  8
┌▓È_1
  5
8FB
 10
-63.3468
 20
-443.441
 30
0.000000
  70
    32
  0
VERTEX
  8
┌▓È_1
  5
8FC
 10
-63.3581
 20
-443.381
 30
0.000000
  70
    32
  0
VERTEX
  8
┌▓È_1
  5
8FD
 10
-63.3706
 20
-443.322
 30
0.000000
  70
    32
  0
VERTEX
  8
┌▓È_1
  5
8FE
 10
-63.3843
 20
-443.263
 30
0.000000
  70
    32
  0
VERTEX
  8
┌▓È_1
  5
8FF
 10
-63.3991
 20
-443.204
 30
0.000000
  70
    32
  0
VERTEX
  8
┌▓È_1
  5
900
 10
-63.4151
 20
-443.146
 30
0.000000
  70
    32
  0
VERTEX
  8
┌▓È_1
  5
901
 10
-63.4322
 20
-443.089
 30
0.000000
  70
    32
  0
VERTEX
  8
┌▓È_1
  5
902
 10
-63.4504
 20
-443.032
 30
0.000000
  70
    32
  0
VERTEX
  8
┌▓È_1
  5
903
 10
-63.4698
 20
-442.975
 30
0.000000
  70
    32
  0
VERTEX
  8
┌▓È_1
  5
904
 10
-63.4902
 20
-442.919
 30
0.000000
  70
    32
  0
VERTEX
  8
┌▓È_1
  5
905
 10
-63.5117
 20
-442.864
 30
0.000000
  70
    32
  0
VERTEX
  8
┌▓È_1
  5
906
 10
-63.5343
 20
-442.810
 30
0.000000
  70
    32
  0
VERTEX
  8
┌▓È_1
  5
907
 10
-63.5580
 20
-442.756
 30
0.000000
  70
    32
  0
VERTEX
  8
┌▓È_1
  5
908
 10
-63.5827
 20
-442.703
 30
0.000000
  70
    32
  0
VERTEX
  8
┌▓È_1
  5
909
 10
-63.6085
 20
-442.651
 30
0.000000
  70
    32
  0
VERTEX
  8
┌▓È_1
  5
90A
 10
-63.6352
 20
-442.599
 30
0.000000
  70
    32
  0
VERTEX
  8
┌▓È_1
  5
90B
 10
-63.6630
 20
-442.549
 30
0.000000
  70
    32
  0
VERTEX
  8
┌▓È_1
  5
90C
 10
-63.6918
 20
-442.499
 30
0.000000
  70
    32
  0
VERTEX
  8
┌▓È_1
  5
90D
 10
-63.7215
 20
-442.450
 30
0.000000
  70
    32
  0
VERTEX
  8
┌▓È_1
  5
90E
 10
-63.7522
 20
-442.402
 30
0.000000
  70
    32
  0
VERTEX
  8
┌▓È_1
  5
90F
 10
-63.7838
 20
-442.355
 30
0.000000
  70
    32
  0
VERTEX
  8
┌▓È_1
  5
910
 10
-63.8163
 20
-442.309
 30
0.000000
  70
    32
  0
VERTEX
  8
┌▓È_1
  5
911
 10
-63.8497
 20
-442.265
 30
0.000000
  70
    32
  0
VERTEX
  8
┌▓È_1
  5
912
 10
-63.8840
 20
-442.221
 30
0.000000
  70
    32
  0
VERTEX
  8
┌▓È_1
  5
913
 10
-63.9191
 20
-442.178
 30
0.000000
  70
    32
  0
VERTEX
  8
┌▓È_1
  5
914
 10
-63.9551
 20
-442.136
 30
0.000000
  70
    32
  0
VERTEX
  8
┌▓È_1
  5
915
 10
-63.9918
 20
-442.095
 30
0.000000
  70
    32
  0
VERTEX
  8
┌▓È_1
  5
916
 10
-64.0294
 20
-442.056
 30
0.000000
  70
    32
  0
VERTEX
  8
┌▓È_1
  5
917
 10
-64.0677
 20
-442.018
 30
0.000000
  70
    32
  0
VERTEX
  8
┌▓È_1
  5
918
 10
-64.1068
 20
-441.980
 30
0.000000
  70
    32
  0
VERTEX
  8
┌▓È_1
  5
919
 10
-64.1466
 20
-441.944
 30
0.000000
  70
    32
  0
VERTEX
  8
┌▓È_1
  5
91A
 10
-64.1870
 20
-441.910
 30
0.000000
  70
    32
  0
VERTEX
  8
┌▓È_1
  5
91B
 10
-64.2282
 20
-441.876
 30
0.000000
  70
    32
  0
VERTEX
  8
┌▓È_1
  5
91C
 10
-64.2700
 20
-441.844
 30
0.000000
  70
    32
  0
VERTEX
  8
┌▓È_1
  5
91D
 10
-64.3124
 20
-441.813
 30
0.000000
  70
    32
  0
VERTEX
  8
┌▓È_1
  5
91E
 10
-64.3554
 20
-441.784
 30
0.000000
  70
    32
  0
VERTEX
  8
┌▓È_1
  5
91F
 10
-64.3990
 20
-441.755
 30
0.000000
  70
    32
  0
VERTEX
  8
┌▓È_1
  5
920
 10
-64.4431
 20
-441.728
 30
0.000000
  70
    32
  0
VERTEX
  8
┌▓È_1
  5
921
 10
-64.4877
 20
-441.703
 30
0.000000
  70
    32
  0
VERTEX
  8
┌▓È_1
  5
922
 10
-64.5328
 20
-441.679
 30
0.000000
  70
    32
  0
VERTEX
  8
┌▓È_1
  5
923
 10
-64.5784
 20
-441.656
 30
0.000000
  70
    32
  0
VERTEX
  8
┌▓È_1
  5
924
 10
-64.6244
 20
-441.635
 30
0.000000
  70
    32
  0
VERTEX
  8
┌▓È_1
  5
925
 10
-64.6708
 20
-441.615
 30
0.000000
  70
    32
  0
VERTEX
  8
┌▓È_1
  5
926
 10
-64.7176
 20
-441.596
 30
0.000000
  70
    32
  0
VERTEX
  8
┌▓È_1
  5
927
 10
-64.7648
 20
-441.579
 30
0.000000
  70
    32
  0
VERTEX
  8
┌▓È_1
  5
928
 10
-64.8122
 20
-441.563
 30
0.000000
  70
    32
  0
VERTEX
  8
┌▓È_1
  5
929
 10
-64.8600
 20
-441.549
 30
0.000000
  70
    32
  0
VERTEX
  8
┌▓È_1
  5
92A
 10
-64.9080
 20
-441.536
 30
0.000000
  70
    32
  0
VERTEX
  8
┌▓È_1
  5
92B
 10
-64.9563
 20
-441.525
 30
0.000000
  70
    32
  0
VERTEX
  8
┌▓È_1
  5
92C
 10
-65.0047
 20
-441.515
 30
0.000000
  70
    32
  0
VERTEX
  8
┌▓È_1
  5
92D
 10
-65.0534
 20
-441.507
 30
0.000000
  70
    32
  0
VERTEX
  8
┌▓È_1
  5
92E
 10
-65.1021
 20
-441.500
 30
0.000000
  70
    32
  0
VERTEX
  8
┌▓È_1
  5
92F
 10
-65.1510
 20
-441.495
 30
0.000000
  70
    32
  0
VERTEX
  8
┌▓È_1
  5
930
 10
-65.2000
 20
-441.491
 30
0.000000
  70
    32
  0
VERTEX
  8
┌▓È_1
  5
931
 10
-65.2491
 20
-441.489
 30
0.000000
  70
    32
  0
VERTEX
  8
┌▓È_1
  5
932
 10
-65.2982
 20
-441.488
 30
0.000000
  70
    32
  0
SEQEND
  8
┌▓È_1
  5
933
  0
POLYLINE
  5
262
  8
┌▓È_1
 62
     5
 10
-55.298177083299983
 20
-451.48837951789989
 30
0.0
 66
     1
 70
     8
  0
VERTEX
  8
┌▓È_1
  5
934
 10
-55.2982
 20
-451.488
 30
0.000000
  70
    32
  0
VERTEX
  8
┌▓È_1
  5
935
 10
-55.3473
 20
-451.488
 30
0.000000
  70
    32
  0
VERTEX
  8
┌▓È_1
  5
936
 10
-55.3963
 20
-451.485
 30
0.000000
  70
    32
  0
VERTEX
  8
┌▓È_1
  5
937
 10
-55.4453
 20
-451.482
 30
0.000000
  70
    32
  0
VERTEX
  8
┌▓È_1
  5
938
 10
-55.4942
 20
-451.476
 30
0.000000
  70
    32
  0
VERTEX
  8
┌▓È_1
  5
939
 10
-55.5430
 20
-451.470
 30
0.000000
  70
    32
  0
VERTEX
  8
┌▓È_1
  5
93A
 10
-55.5916
 20
-451.461
 30
0.000000
  70
    32
  0
VERTEX
  8
┌▓È_1
  5
93B
 10
-55.6401
 20
-451.452
 30
0.000000
  70
    32
  0
VERTEX
  8
┌▓È_1
  5
93C
 10
-55.6884
 20
-451.440
 30
0.000000
  70
    32
  0
VERTEX
  8
┌▓È_1
  5
93D
 10
-55.7364
 20
-451.428
 30
0.000000
  70
    32
  0
VERTEX
  8
┌▓È_1
  5
93E
 10
-55.7841
 20
-451.413
 30
0.000000
  70
    32
  0
VERTEX
  8
┌▓È_1
  5
93F
 10
-55.8316
 20
-451.398
 30
0.000000
  70
    32
  0
VERTEX
  8
┌▓È_1
  5
940
 10
-55.8787
 20
-451.381
 30
0.000000
  70
    32
  0
VERTEX
  8
┌▓È_1
  5
941
 10
-55.9255
 20
-451.362
 30
0.000000
  70
    32
  0
VERTEX
  8
┌▓È_1
  5
942
 10
-55.9720
 20
-451.342
 30
0.000000
  70
    32
  0
VERTEX
  8
┌▓È_1
  5
943
 10
-56.0180
 20
-451.321
 30
0.000000
  70
    32
  0
VERTEX
  8
┌▓È_1
  5
944
 10
-56.0635
 20
-451.298
 30
0.000000
  70
    32
  0
VERTEX
  8
┌▓È_1
  5
945
 10
-56.1087
 20
-451.274
 30
0.000000
  70
    32
  0
VERTEX
  8
┌▓È_1
  5
946
 10
-56.1533
 20
-451.248
 30
0.000000
  70
    32
  0
VERTEX
  8
┌▓È_1
  5
947
 10
-56.1974
 20
-451.221
 30
0.000000
  70
    32
  0
VERTEX
  8
┌▓È_1
  5
948
 10
-56.2410
 20
-451.193
 30
0.000000
  70
    32
  0
VERTEX
  8
┌▓È_1
  5
949
 10
-56.2840
 20
-451.164
 30
0.000000
  70
    32
  0
VERTEX
  8
┌▓È_1
  5
94A
 10
-56.3264
 20
-451.133
 30
0.000000
  70
    32
  0
VERTEX
  8
┌▓È_1
  5
94B
 10
-56.3682
 20
-451.101
 30
0.000000
  70
    32
  0
VERTEX
  8
┌▓È_1
  5
94C
 10
-56.4093
 20
-451.067
 30
0.000000
  70
    32
  0
VERTEX
  8
┌▓È_1
  5
94D
 10
-56.4498
 20
-451.032
 30
0.000000
  70
    32
  0
VERTEX
  8
┌▓È_1
  5
94E
 10
-56.4896
 20
-450.996
 30
0.000000
  70
    32
  0
VERTEX
  8
┌▓È_1
  5
94F
 10
-56.5286
 20
-450.959
 30
0.000000
  70
    32
  0
VERTEX
  8
┌▓È_1
  5
950
 10
-56.5670
 20
-450.921
 30
0.000000
  70
    32
  0
VERTEX
  8
┌▓È_1
  5
951
 10
-56.6045
 20
-450.881
 30
0.000000
  70
    32
  0
VERTEX
  8
┌▓È_1
  5
952
 10
-56.6413
 20
-450.841
 30
0.000000
  70
    32
  0
VERTEX
  8
┌▓È_1
  5
953
 10
-56.6773
 20
-450.799
 30
0.000000
  70
    32
  0
VERTEX
  8
┌▓È_1
  5
954
 10
-56.7124
 20
-450.756
 30
0.000000
  70
    32
  0
VERTEX
  8
┌▓È_1
  5
955
 10
-56.7467
 20
-450.712
 30
0.000000
  70
    32
  0
VERTEX
  8
┌▓È_1
  5
956
 10
-56.7801
 20
-450.667
 30
0.000000
  70
    32
  0
VERTEX
  8
┌▓È_1
  5
957
 10
-56.8126
 20
-450.621
 30
0.000000
  70
    32
  0
VERTEX
  8
┌▓È_1
  5
958
 10
-56.8442
 20
-450.574
 30
0.000000
  70
    32
  0
VERTEX
  8
┌▓È_1
  5
959
 10
-56.8749
 20
-450.526
 30
0.000000
  70
    32
  0
VERTEX
  8
┌▓È_1
  5
95A
 10
-56.9046
 20
-450.478
 30
0.000000
  70
    32
  0
VERTEX
  8
┌▓È_1
  5
95B
 10
-56.9333
 20
-450.428
 30
0.000000
  70
    32
  0
VERTEX
  8
┌▓È_1
  5
95C
 10
-56.9611
 20
-450.377
 30
0.000000
  70
    32
  0
VERTEX
  8
┌▓È_1
  5
95D
 10
-56.9879
 20
-450.326
 30
0.000000
  70
    32
  0
VERTEX
  8
┌▓È_1
  5
95E
 10
-57.0136
 20
-450.274
 30
0.000000
  70
    32
  0
VERTEX
  8
┌▓È_1
  5
95F
 10
-57.0384
 20
-450.221
 30
0.000000
  70
    32
  0
VERTEX
  8
┌▓È_1
  5
960
 10
-57.0620
 20
-450.167
 30
0.000000
  70
    32
  0
VERTEX
  8
┌▓È_1
  5
961
 10
-57.0846
 20
-450.112
 30
0.000000
  70
    32
  0
VERTEX
  8
┌▓È_1
  5
962
 10
-57.1062
 20
-450.057
 30
0.000000
  70
    32
  0
VERTEX
  8
┌▓È_1
  5
963
 10
-57.1266
 20
-450.001
 30
0.000000
  70
    32
  0
VERTEX
  8
┌▓È_1
  5
964
 10
-57.1459
 20
-449.945
 30
0.000000
  70
    32
  0
VERTEX
  8
┌▓È_1
  5
965
 10
-57.1642
 20
-449.888
 30
0.000000
  70
    32
  0
VERTEX
  8
┌▓È_1
  5
966
 10
-57.1813
 20
-449.831
 30
0.000000
  70
    32
  0
VERTEX
  8
┌▓È_1
  5
967
 10
-57.1972
 20
-449.773
 30
0.000000
  70
    32
  0
VERTEX
  8
┌▓È_1
  5
968
 10
-57.2121
 20
-449.714
 30
0.000000
  70
    32
  0
VERTEX
  8
┌▓È_1
  5
969
 10
-57.2257
 20
-449.655
 30
0.000000
  70
    32
  0
VERTEX
  8
┌▓È_1
  5
96A
 10
-57.2382
 20
-449.596
 30
0.000000
  70
    32
  0
VERTEX
  8
┌▓È_1
  5
96B
 10
-57.2496
 20
-449.536
 30
0.000000
  70
    32
  0
VERTEX
  8
┌▓È_1
  5
96C
 10
-57.2597
 20
-449.476
 30
0.000000
  70
    32
  0
VERTEX
  8
┌▓È_1
  5
96D
 10
-57.2687
 20
-449.416
 30
0.000000
  70
    32
  0
VERTEX
  8
┌▓È_1
  5
96E
 10
-57.2765
 20
-449.355
 30
0.000000
  70
    32
  0
VERTEX
  8
┌▓È_1
  5
96F
 10
-57.2831
 20
-449.294
 30
0.000000
  70
    32
  0
VERTEX
  8
┌▓È_1
  5
970
 10
-57.2885
 20
-449.233
 30
0.000000
  70
    32
  0
VERTEX
  8
┌▓È_1
  5
971
 10
-57.2928
 20
-449.172
 30
0.000000
  70
    32
  0
VERTEX
  8
┌▓È_1
  5
972
 10
-57.2958
 20
-449.111
 30
0.000000
  70
    32
  0
VERTEX
  8
┌▓È_1
  5
973
 10
-57.2976
 20
-449.050
 30
0.000000
  70
    32
  0
VERTEX
  8
┌▓È_1
  5
974
 10
-57.2982
 20
-448.988
 30
0.000000
  70
    32
  0
VERTEX
  8
┌▓È_1
  5
975
 10
-57.2976
 20
-448.927
 30
0.000000
  70
    32
  0
VERTEX
  8
┌▓È_1
  5
976
 10
-57.2958
 20
-448.866
 30
0.000000
  70
    32
  0
VERTEX
  8
┌▓È_1
  5
977
 10
-57.2928
 20
-448.804
 30
0.000000
  70
    32
  0
VERTEX
  8
┌▓È_1
  5
978
 10
-57.2885
 20
-448.743
 30
0.000000
  70
    32
  0
VERTEX
  8
┌▓È_1
  5
979
 10
-57.2831
 20
-448.682
 30
0.000000
  70
    32
  0
VERTEX
  8
┌▓È_1
  5
97A
 10
-57.2765
 20
-448.622
 30
0.000000
  70
    32
  0
VERTEX
  8
┌▓È_1
  5
97B
 10
-57.2687
 20
-448.561
 30
0.000000
  70
    32
  0
VERTEX
  8
┌▓È_1
  5
97C
 10
-57.2597
 20
-448.501
 30
0.000000
  70
    32
  0
VERTEX
  8
┌▓È_1
  5
97D
 10
-57.2496
 20
-448.441
 30
0.000000
  70
    32
  0
VERTEX
  8
┌▓È_1
  5
97E
 10
-57.2382
 20
-448.381
 30
0.000000
  70
    32
  0
VERTEX
  8
┌▓È_1
  5
97F
 10
-57.2257
 20
-448.322
 30
0.000000
  70
    32
  0
VERTEX
  8
┌▓È_1
  5
980
 10
-57.2121
 20
-448.263
 30
0.000000
  70
    32
  0
VERTEX
  8
┌▓È_1
  5
981
 10
-57.1972
 20
-448.204
 30
0.000000
  70
    32
  0
VERTEX
  8
┌▓È_1
  5
982
 10
-57.1813
 20
-448.146
 30
0.000000
  70
    32
  0
VERTEX
  8
┌▓È_1
  5
983
 10
-57.1642
 20
-448.089
 30
0.000000
  70
    32
  0
VERTEX
  8
┌▓È_1
  5
984
 10
-57.1459
 20
-448.032
 30
0.000000
  70
    32
  0
VERTEX
  8
┌▓È_1
  5
985
 10
-57.1266
 20
-447.975
 30
0.000000
  70
    32
  0
VERTEX
  8
┌▓È_1
  5
986
 10
-57.1062
 20
-447.919
 30
0.000000
  70
    32
  0
VERTEX
  8
┌▓È_1
  5
987
 10
-57.0846
 20
-447.864
 30
0.000000
  70
    32
  0
VERTEX
  8
┌▓È_1
  5
988
 10
-57.0620
 20
-447.810
 30
0.000000
  70
    32
  0
VERTEX
  8
┌▓È_1
  5
989
 10
-57.0384
 20
-447.756
 30
0.000000
  70
    32
  0
VERTEX
  8
┌▓È_1
  5
98A
 10
-57.0136
 20
-447.703
 30
0.000000
  70
    32
  0
VERTEX
  8
┌▓È_1
  5
98B
 10
-56.9879
 20
-447.651
 30
0.000000
  70
    32
  0
VERTEX
  8
┌▓È_1
  5
98C
 10
-56.9611
 20
-447.599
 30
0.000000
  70
    32
  0
VERTEX
  8
┌▓È_1
  5
98D
 10
-56.9333
 20
-447.549
 30
0.000000
  70
    32
  0
VERTEX
  8
┌▓È_1
  5
98E
 10
-56.9046
 20
-447.499
 30
0.000000
  70
    32
  0
VERTEX
  8
┌▓È_1
  5
98F
 10
-56.8749
 20
-447.450
 30
0.000000
  70
    32
  0
VERTEX
  8
┌▓È_1
  5
990
 10
-56.8442
 20
-447.402
 30
0.000000
  70
    32
  0
VERTEX
  8
┌▓È_1
  5
991
 10
-56.8126
 20
-447.355
 30
0.000000
  70
    32
  0
VERTEX
  8
┌▓È_1
  5
992
 10
-56.7801
 20
-447.309
 30
0.000000
  70
    32
  0
VERTEX
  8
┌▓È_1
  5
993
 10
-56.7467
 20
-447.265
 30
0.000000
  70
    32
  0
VERTEX
  8
┌▓È_1
  5
994
 10
-56.7124
 20
-447.221
 30
0.000000
  70
    32
  0
VERTEX
  8
┌▓È_1
  5
995
 10
-56.6773
 20
-447.178
 30
0.000000
  70
    32
  0
VERTEX
  8
┌▓È_1
  5
996
 10
-56.6413
 20
-447.136
 30
0.000000
  70
    32
  0
VERTEX
  8
┌▓È_1
  5
997
 10
-56.6045
 20
-447.095
 30
0.000000
  70
    32
  0
VERTEX
  8
┌▓È_1
  5
998
 10
-56.5670
 20
-447.056
 30
0.000000
  70
    32
  0
VERTEX
  8
┌▓È_1
  5
999
 10
-56.5286
 20
-447.018
 30
0.000000
  70
    32
  0
VERTEX
  8
┌▓È_1
  5
99A
 10
-56.4896
 20
-446.980
 30
0.000000
  70
    32
  0
VERTEX
  8
┌▓È_1
  5
99B
 10
-56.4498
 20
-446.944
 30
0.000000
  70
    32
  0
VERTEX
  8
┌▓È_1
  5
99C
 10
-56.4093
 20
-446.910
 30
0.000000
  70
    32
  0
VERTEX
  8
┌▓È_1
  5
99D
 10
-56.3682
 20
-446.876
 30
0.000000
  70
    32
  0
VERTEX
  8
┌▓È_1
  5
99E
 10
-56.3264
 20
-446.844
 30
0.000000
  70
    32
  0
VERTEX
  8
┌▓È_1
  5
99F
 10
-56.2840
 20
-446.813
 30
0.000000
  70
    32
  0
VERTEX
  8
┌▓È_1
  5
9A0
 10
-56.2410
 20
-446.784
 30
0.000000
  70
    32
  0
VERTEX
  8
┌▓È_1
  5
9A1
 10
-56.1974
 20
-446.755
 30
0.000000
  70
    32
  0
VERTEX
  8
┌▓È_1
  5
9A2
 10
-56.1533
 20
-446.728
 30
0.000000
  70
    32
  0
VERTEX
  8
┌▓È_1
  5
9A3
 10
-56.1087
 20
-446.703
 30
0.000000
  70
    32
  0
VERTEX
  8
┌▓È_1
  5
9A4
 10
-56.0635
 20
-446.679
 30
0.000000
  70
    32
  0
VERTEX
  8
┌▓È_1
  5
9A5
 10
-56.0180
 20
-446.656
 30
0.000000
  70
    32
  0
VERTEX
  8
┌▓È_1
  5
9A6
 10
-55.9720
 20
-446.635
 30
0.000000
  70
    32
  0
VERTEX
  8
┌▓È_1
  5
9A7
 10
-55.9255
 20
-446.615
 30
0.000000
  70
    32
  0
VERTEX
  8
┌▓È_1
  5
9A8
 10
-55.8787
 20
-446.596
 30
0.000000
  70
    32
  0
VERTEX
  8
┌▓È_1
  5
9A9
 10
-55.8316
 20
-446.579
 30
0.000000
  70
    32
  0
VERTEX
  8
┌▓È_1
  5
9AA
 10
-55.7841
 20
-446.563
 30
0.000000
  70
    32
  0
VERTEX
  8
┌▓È_1
  5
9AB
 10
-55.7364
 20
-446.549
 30
0.000000
  70
    32
  0
VERTEX
  8
┌▓È_1
  5
9AC
 10
-55.6884
 20
-446.536
 30
0.000000
  70
    32
  0
VERTEX
  8
┌▓È_1
  5
9AD
 10
-55.6401
 20
-446.525
 30
0.000000
  70
    32
  0
VERTEX
  8
┌▓È_1
  5
9AE
 10
-55.5916
 20
-446.515
 30
0.000000
  70
    32
  0
VERTEX
  8
┌▓È_1
  5
9AF
 10
-55.5430
 20
-446.507
 30
0.000000
  70
    32
  0
VERTEX
  8
┌▓È_1
  5
9B0
 10
-55.4942
 20
-446.500
 30
0.000000
  70
    32
  0
VERTEX
  8
┌▓È_1
  5
9B1
 10
-55.4453
 20
-446.495
 30
0.000000
  70
    32
  0
VERTEX
  8
┌▓È_1
  5
9B2
 10
-55.3963
 20
-446.491
 30
0.000000
  70
    32
  0
VERTEX
  8
┌▓È_1
  5
9B3
 10
-55.3473
 20
-446.489
 30
0.000000
  70
    32
  0
VERTEX
  8
┌▓È_1
  5
9B4
 10
-55.2982
 20
-446.488
 30
0.000000
  70
    32
  0
SEQEND
  8
┌▓È_1
  5
9B5
  0
LINE
  5
263
  8
┌▓È_1
 62
     5
 10
-195.5481770833
 20
-441.4883795179
 30
0.0
 11
-65.298176945999998
 21
-441.4883795179
 31
0.0
  0
LINE
  5
264
  8
┌▓È_1
 62
     5
 10
94.201822916699996
 20
-451.4883795179
 30
0.0
 11
-55.298177241499992
 21
-451.4883795179
 31
0.0
  0
LINE
  5
265
  8
┌▓È_1
 62
     5
 10
-55.298177044200003
 20
-441.4883795179
 30
0.0
 11
94.201822916699996
 21
-441.4883795179
 31
0.0
  0
LINE
  5
266
  8
┌▓È_1
 62
     5
 10
99.701822916699996
 20
-435.4883795179
 30
0.0
 11
99.701822916699996
 21
-457.48837951789989
 31
0.0
  0
LINE
  5
267
  8
┌▓È_1
 62
     5
 10
96.701822916699996
 20
-455.9883795179
 30
0.0
 11
96.701822916699996
 21
-436.98837951789989
 31
0.0
  0
ARC
  5
268
  8
┌▓È_1
 62
     5
 10
98.20182291670001
 20
-436.98837951789989
 30
0.0
 40
1.5
 50
90.0
 51
180.0
  0
LINE
  5
269
  8
┌▓È_1
 62
     5
 10
98.20182291670001
 20
-435.4883795179
 30
0.0
 11
99.701822916699996
 21
-435.4883795179
 31
0.0
  0
LINE
  5
26A
  8
┌▓È_1
 62
     5
 10
425.92708344480002
 20
-548.81216351989985
 30
0.0
 11
425.92708344480002
 21
-532.21556126789994
 31
0.0
  0
LINE
  5
26B
  8
┌▓È_1
 62
     5
 10
401.71545408359992
 20
-548.81216351989985
 30
0.0
 11
401.71545408359992
 21
-532.21556126789994
 31
0.0
  0
LINE
  5
26C
  8
┌▓È_1
 62
     5
 10
196.8814694097
 20
-548.81216351989985
 30
0.0
 11
196.8814694097
 21
-532.21556126789994
 31
0.0
  0
LINE
  5
26D
  8
┌▓È_1
 62
     5
 10
175.0136742709
 20
-532.21556126789994
 30
0.0
 11
175.0136742709
 21
-548.81216351989985
 31
0.0
  0
LINE
  5
26E
  8
┌▓È_1
 62
     5
 10
404.59628906249992
 20
-420.85364583329988
 30
0.0
 11
404.59628906249992
 21
-448.41966145830003
 31
0.0
  0
LINE
  5
26F
  8
┌▓È_1
 62
     5
 10
223.08522316259999
 20
-420.85364583329988
 30
0.0
 11
404.59628906249992
 21
-420.85364583329988
 31
0.0
  0
LINE
  5
270
  8
Éíû@É³
 62
     5
 10
338.23984194159999
 20
-47.613998619100002
 30
0.0
 11
443.36250000000001
 21
-47.613998619100002
 31
0.0
  0
LINE
  5
271
  8
┌▓È_1
 62
     5
 10
269.47978515620002
 20
-267.70104166670001
 30
0.0
 11
301.18844401040002
 21
-267.70104166670001
 31
0.0
  0
LINE
  5
272
  8
Éíû@É³
 62
     5
 10
287.68268623419999
 20
-85.226167932500005
 30
0.0
 11
338.23984194159999
 21
-47.613998619100002
 31
0.0
  0
LINE
  5
273
  8
Éíû@É³
 62
     5
 10
287.68268623419999
 20
-85.226167932500005
 30
0.0
 11
289.72226249099998
 21
-82.648473288100007
 31
0.0
  0
LINE
  5
274
  8
Éíû@É³
 62
     5
 10
287.68268623419999
 20
-85.226167932500005
 30
0.0
 11
290.73785840779999
 21
-84.013607015700003
 31
0.0
  0
LINE
  5
275
  8
┌▓È_1
 62
     5
 10
-355.2981770833
 20
-171.88759235539999
 30
0.0
 11
-355.2981770833
 21
-288.75153916080001
 31
0.0
  0
INSERT
  5
276
  8
0
  6
CONTINUOUS
  2
*U26
 10
0.0
 20
0.0
 30
0.0
  0
INSERT
  5
277
  8
0
  6
CONTINUOUS
  2
*U27
 10
0.0
 20
0.0
 30
0.0
  0
DIMENSION
  5
285
  8
Éíû@É³
 62
     5
  2
*D8
 10
296.20781249999999
 20
-22.075716145800001
 30
0.0
 11
312.48164100650001
 21
-22.075716145800001
 31
0.0
 70
   128
  1
<>
 13
296.20781249999999
 23
-67.701041666700007
 33
0.0
 14
285.20781249999999
 24
-52.075716145800001
 34
0.0
  0
DIMENSION
  5
293
  8
Éíû@É³
 62
     5
  2
*D9
 10
-532.85400688619995
 20
-147.70104166670001
 30
0.0
 11
-532.85400688619995
 21
-167.70104166670001
 31
0.0
 70
   128
  1
<>
 13
-501.75217958529993
 23
-147.70104166670001
 33
0.0
 14
-501.86816132040002
 24
-187.70104166670001
 34
0.0
 50
90.0
  0
DIMENSION
  5
2A1
  8
Éíû@É³
 62
     5
  2
*D10
 10
-532.8540060693
 20
-187.70104166670001
 30
0.0
 11
-532.8540060693
 21
-207.70104166670001
 31
0.0
 70
   128
  1
<>
 13
-501.86816132040002
 23
-187.70104166670001
 33
0.0
 14
-502.8540060693
 24
-227.70104166670001
 34
0.0
 50
90.0
  0
DIMENSION
  5
2AF
  8
Éíû@É³
 62
     5
  2
*D11
 10
-532.8540060693
 20
-227.70104166670001
 30
0.0
 11
-532.8540060693
 21
-247.70104166670001
 31
0.0
 70
   128
  1
<>
 13
-502.8540060693
 23
-227.70104166670001
 33
0.0
 14
-502.39007912869999
 24
-267.70104166670001
 34
0.0
 50
90.0
  0
DIMENSION
  5
2BD
  8
Éíû@É³
 62
     5
  2
*D12
 10
-532.85400529939989
 20
-107.70104166669999
 30
0.0
 11
-532.85400529939989
 21
-127.70104166669999
 31
0.0
 70
   128
  1
<>
 13
-501.75217958529993
 23
-107.70104166669999
 33
0.0
 14
-501.75217958529993
 24
-147.70104166670001
 34
0.0
 50
90.0
  0
DIMENSION
  5
2CC
  8
Éíû@É³
 62
     5
  2
*D13
 10
99.701822916699996
 20
3.9080396016000001
 30
0.0
 11
-200.2981770833
 21
3.9080396016000001
 31
0.0
 70
   128
  1
300   1000/é╗é╠æ╝
 13
99.701822916699996
 23
-56.7010416667
 33
0.0
 14
-500.2981770833
 24
-56.7010416667
 34
0.0
  0
DIMENSION
  5
2DA
  8
Éíû@É³
 62
     5
  2
*D14
 10
-532.85400560419987
 20
-67.701041666700007
 30
0.0
 11
-532.85400560419987
 21
-87.701041666699993
 31
0.0
 70
   128
  1
<>
 13
-502.33208826110001
 23
-67.701041666700007
 33
0.0
 14
-501.75217958529993
 24
-107.70104166669999
 34
0.0
 50
90.0
  0
DIMENSION
  5
2E9
  8
Éíû@É³
 62
     5
  2
*D15
 10
-567.85846354169985
 20
-56.7010416667
 30
0.0
 11
-567.85846354169985
 21
-167.70104166670001
 31
0.0
 70
   128
  1
<>
 13
-500.2981770833
 23
-56.7010416667
 33
0.0
 14
-500.2981770833
 24
-278.70104166670001
 34
0.0
 50
90.0
  0
INSERT
  5
2EA
  8
0
  6
CONTINUOUS
  2
*U28
 10
0.0
 20
0.0
 30
0.0
  0
INSERT
  5
2EB
  8
0
  6
CONTINUOUS
  2
*U29
 10
0.0
 20
0.0
 30
0.0
  0
INSERT
  5
2EC
  8
0
  6
CONTINUOUS
  2
*U30
 10
0.0
 20
0.0
 30
0.0
  0
INSERT
  5
2ED
  8
0
  6
CONTINUOUS
  2
*U31
 10
0.0
 20
0.0
 30
0.0
  0
INSERT
  5
2EE
  8
0
  6
CONTINUOUS
  2
*U32
 10
0.0
 20
0.0
 30
0.0
  0
INSERT
  5
2EF
  8
0
  6
CONTINUOUS
  2
*U33
 10
0.0
 20
0.0
 30
0.0
  0
INSERT
  5
2F0
  8
0
  6
CONTINUOUS
  2
*U34
 10
0.0
 20
0.0
 30
0.0
  0
INSERT
  5
2F1
  8
0
  6
CONTINUOUS
  2
*U35
 10
0.0
 20
0.0
 30
0.0
  0
INSERT
  5
2F2
  8
0
  6
CONTINUOUS
  2
*U36
 10
0.0
 20
0.0
 30
0.0
  0
INSERT
  5
2F3
  8
0
  6
CONTINUOUS
  2
*U37
 10
0.0
 20
0.0
 30
0.0
  0
INSERT
  5
2F4
  8
0
  6
CONTINUOUS
  2
*U38
 10
0.0
 20
0.0
 30
0.0
  0
INSERT
  5
2F5
  8
0
  6
CONTINUOUS
  2
*U39
 10
0.0
 20
0.0
 30
0.0
  0
INSERT
  5
2F6
  8
0
  6
CONTINUOUS
  2
*U40
 10
0.0
 20
0.0
 30
0.0
  0
INSERT
  5
2F7
  8
0
  6
CONTINUOUS
  2
*U41
 10
0.0
 20
0.0
 30
0.0
  0
INSERT
  5
2F8
  8
0
  6
CONTINUOUS
  2
*U42
 10
0.0
 20
0.0
 30
0.0
  0
ENDSEC
  0
EOF
