  0
SECTION
  2
HEADER
  9
$ACADVER
  1
AC1009
  9
$INSBASE
 10
0.0
 20
0.0
 30
0.0
  9
$EXTMIN
 10
561.45889193269988
 20
-410.28796831789998
 30
0.0
  9
$EXTMAX
 10
1111.4588919327
 20
-30.287968317899999
 30
0.0
  9
$LIMMIN
 10
0.0
 20
0.0
  9
$LIMMAX
 10
0.0
 20
0.0
  9
$ORTHOMODE
 70
     0
  9
$REGENMODE
 70
     1
  9
$FILLMODE
 70
     1
  9
$QTEXTMODE
 70
     0
  9
$MIRRTEXT
 70
     1
  9
$DRAGMODE
 70
     2
  9
$LTSCALE
 40
1.0
  9
$OSMODE
 70
    31
  9
$ATTMODE
 70
     1
  9
$TEXTSIZE
 40
0.0
  9
$TRACEWID
 40
0.05
  9
$TEXTSTYLE
  7
STANDARD
  9
$CLAYER
  8
0
  9
$CELTYPE
  6
CONTINUOUS
  9
$CECOLOR
 62
   256
  9
$DIMSCALE
 40
1.0
  9
$DIMASZ
 40
0.18
  9
$DIMEXO
 40
0.0625
  9
$DIMDLI
 40
0.38
  9
$DIMRND
 40
0.0
  9
$DIMDLE
 40
0.0
  9
$DIMEXE
 40
0.18
  9
$DIMTP
 40
0.0
  9
$DIMTM
 40
0.0
  9
$DIMTXT
 40
0.18
  9
$DIMCEN
 40
0.09
  9
$DIMTSZ
 40
0.0
  9
$DIMTOL
 70
     0
  9
$DIMLIM
 70
     0
  9
$DIMTIH
 70
     1
  9
$DIMTOH
 70
     1
  9
$DIMSE1
 70
     0
  9
$DIMSE2
 70
     0
  9
$DIMTAD
 70
     0
  9
$DIMZIN
 70
     0
  9
$DIMBLK
  1

  9
$DIMASO
 70
     1
  9
$DIMSHO
 70
     1
  9
$DIMPOST
  1

  9
$DIMAPOST
  1

  9
$DIMALT
 70
     0
  9
$DIMALTD
 70
     2
  9
$DIMALTF
 40
25.399999999999999
  9
$DIMLFAC
 40
1.0
  9
$DIMTOFL
 70
     0
  9
$DIMTVP
 40
0.0
  9
$DIMTIX
 70
     0
  9
$DIMSOXD
 70
     0
  9
$DIMSAH
 70
     0
  9
$DIMBLK1
  1

  9
$DIMBLK2
  1

  9
$DIMSTYLE
  2
STANDARD
  9
$DIMCLRD
 70
     0
  9
$DIMCLRE
 70
     0
  9
$DIMCLRT
 70
     0
  9
$DIMTFAC
 40
1.0
  9
$DIMGAP
 40
0.09
  9
$LUNITS
 70
     2
  9
$LUPREC
 70
     4
  9
$SKETCHINC
 40
0.1
  9
$FILLETRAD
 40
0.0
  9
$AUNITS
 70
     0
  9
$AUPREC
 70
     0
  9
$MENU
  1
acad
  9
$ELEVATION
 40
0.0
  9
$PELEVATION
 40
0.0
  9
$THICKNESS
 40
0.0
  9
$LIMCHECK
 70
     0
  9
$BLIPMODE
 70
     0
  9
$CHAMFERA
 40
0.0
  9
$CHAMFERB
 40
0.0
  9
$SKPOLY
 70
     0
  9
$TDCREATE
 40
2454862.7416493059
  9
$TDUPDATE
 40
2454862.7418413539
  9
$TDINDWG
 40
0.000199838
  9
$TDUSRTIMER
 40
0.000199294
  9
$USRTIMER
 70
     1
  9
$ANGBASE
 50
0.0
  9
$ANGDIR
 70
     0
  9
$PDMODE
 70
     3
  9
$PDSIZE
 40
-1.0
  9
$PLINEWID
 40
0.0
  9
$COORDS
 70
     2
  9
$SPLFRAME
 70
     0
  9
$SPLINETYPE
 70
     6
  9
$SPLINESEGS
 70
     8
  9
$ATTDIA
 70
     0
  9
$ATTREQ
 70
     1
  9
$HANDLING
 70
     1
  9
$HANDSEED
  5
516
  9
$SURFTAB1
 70
     6
  9
$SURFTAB2
 70
     6
  9
$SURFTYPE
 70
     6
  9
$SURFU
 70
     6
  9
$SURFV
 70
     6
  9
$UCSNAME
  2

  9
$UCSORG
 10
0.0
 20
0.0
 30
0.0
  9
$UCSXDIR
 10
1.0
 20
0.0
 30
0.0
  9
$UCSYDIR
 10
0.0
 20
1.0
 30
0.0
  9
$PUCSNAME
  2

  9
$PUCSORG
 10
0.0
 20
0.0
 30
0.0
  9
$PUCSXDIR
 10
1.0
 20
0.0
 30
0.0
  9
$PUCSYDIR
 10
0.0
 20
1.0
 30
0.0
  9
$USERI1
 70
     0
  9
$USERI2
 70
     0
  9
$USERI3
 70
     0
  9
$USERI4
 70
     0
  9
$USERI5
 70
     0
  9
$USERR1
 40
0.0
  9
$USERR2
 40
0.0
  9
$USERR3
 40
0.0
  9
$USERR4
 40
0.0
  9
$USERR5
 40
0.0
  9
$WORLDVIEW
 70
     1
  9
$SHADEDGE
 70
     3
  9
$SHADEDIF
 70
    70
  9
$TILEMODE
 70
     1
  9
$MAXACTVP
 70
    16
  9
$PLIMCHECK
 70
     0
  9
$PEXTMIN
 10
1.0000000000000000E+020
 20
1.0000000000000000E+020
 30
1.0000000000000000E+020
  9
$PEXTMAX
 10
-1.0000000000000000E+020
 20
-1.0000000000000000E+020
 30
-1.0000000000000000E+020
  9
$PLIMMIN
 10
0.0
 20
0.0
  9
$PLIMMAX
 10
12.0
 20
9.0
  9
$UNITMODE
 70
     0
  9
$VISRETAIN
 70
     0
  9
$PLINEGEN
 70
     1
  9
$PSLTSCALE
 70
     0
  0
ENDSEC
  0
SECTION
  2
TABLES
  0
TABLE
  2
VPORT
 70
     2
  0
VPORT
  2
*ACTIVE
 70
     0
 10
0.0
 20
0.0
 11
1.0
 21
1.0
 12
836.45889193269988
 22
-220.28796831790001
 13
0.0
 23
0.0
 14
1.0
 24
1.0
 15
0.0
 25
0.0
 16
0.0
 26
0.0
 36
1.0
 17
0.0
 27
0.0
 37
0.0
 40
397.98585584749179
 41
1.3903818953323901
 42
50.0
 43
0.0
 44
0.0
 50
0.0
 51
0.0
 71
     0
 72
   100
 73
     1
 74
     1
 75
     0
 76
     0
 77
     0
 78
     0
  0
ENDTAB
  0
TABLE
  2
LTYPE
 70
    11
  0
LTYPE
  2
CONTINUOUS
 70
     0
  3
Solid line
 72
    65
 73
     0
 40
0.0
  0
LTYPE
  2
DOT
 70
     0
  3
. . . . . . . . 
 72
    65
 73
     2
 40
1.0
 49
0.0
 49
-1.0
  0
LTYPE
  2
DASHED
 70
     0
  3
___  ___  ___  ___  
 72
    65
 73
     2
 40
4.0
 49
3.0
 49
-1.0
  0
LTYPE
  2
HIDDEN
 70
     0
  3
__ __ __ __ 
 72
    65
 73
     2
 40
3.0
 49
2.0
 49
-1.0
  0
LTYPE
  2
STITCH
 70
     0
  3
_ _ _ _ 
 72
    65
 73
     2
 40
2.0
 49
1.0
 49
-1.0
  0
LTYPE
  2
CENTER
 70
     0
  3
______  __  ______  __  
 72
    65
 73
     4
 40
43.0
 49
40.0
 49
-1.0
 49
1.0
 49
-1.0
  0
LTYPE
  2
DASHDOT
 70
     0
  3
____ . ____ . 
 72
    65
 73
     4
 40
32.0
 49
30.0
 49
-1.0
 49
0.0
 49
-1.0
  0
LTYPE
  2
BORDER
 70
     0
  3
__ . __ . 
 72
    65
 73
     4
 40
22.0
 49
20.0
 49
-1.0
 49
0.0
 49
-1.0
  0
LTYPE
  2
CUTTING
 70
     0
  3
________   ___   ___   
 72
    65
 73
     6
 40
45.0
 49
40.0
 49
-1.0
 49
1.0
 49
-1.0
 49
1.0
 49
-1.0
  0
LTYPE
  2
PHANTOM
 70
     0
  3
______  __  __  
 72
    65
 73
     6
 40
35.0
 49
30.0
 49
-1.0
 49
1.0
 49
-1.0
 49
1.0
 49
-1.0
  0
LTYPE
  2
DIVIDE
 70
     0
  3
____ . . ____ . . 
 72
    65
 73
     6
 40
23.0
 49
20.0
 49
-1.0
 49
0.0
 49
-1.0
 49
0.0
 49
-1.0
  0
ENDTAB
  0
TABLE
  2
LAYER
 70
     4
  0
LAYER
  2
0
 70
     0
 62
     7
  6
CONTINUOUS
  0
LAYER
  2
Éíû@É³
 70
     0
 62
     7
  6
CONTINUOUS
  0
LAYER
  2
┌▓È_1
 70
     0
 62
     7
  6
CONTINUOUS
  0
LAYER
  2
Defpoints
 70
     0
 62
     7
  6
CONTINUOUS
  0
ENDTAB
  0
TABLE
  2
STYLE
 70
     1
  0
STYLE
  2
STANDARD
 70
     0
 40
0.0
 41
1.0
 50
0.0
 71
     0
 42
0.0
  3
txt
  4
extfont
  0
ENDTAB
  0
TABLE
  2
VIEW
 70
     0
  0
ENDTAB
  0
TABLE
  2
UCS
 70
     0
  0
ENDTAB
  0
TABLE
  2
APPID
 70
     2
  0
APPID
  2
ACAD
 70
     0
  0
APPID
  2
DCO15
 70
     0
  0
ENDTAB
  0
TABLE
  2
DIMSTYLE
 70
     4
  0
DIMSTYLE
  2
STANDARD
 70
     0
  3

  4

  5

  6

  7

 40
1.0
 41
0.18
 42
0.0625
 43
0.38
 44
0.18
 45
0.0
 46
0.0
 47
0.0
 48
0.0
140
0.18
141
0.09
142
0.0
143
25.399999999999999
144
1.0
145
0.0
146
1.0
147
0.09
 71
     0
 72
     0
 73
     1
 74
     1
 75
     0
 76
     0
 77
     0
 78
     0
170
     0
171
     2
172
     0
173
     0
174
     0
175
     0
176
     0
177
     0
178
     0
  0
DIMSTYLE
  2
VELDIM0
 70
     0
  3

  4

  5

  6

  7

 40
1.0
 41
6.0
 42
0.0625
 43
0.38
 44
1.0
 45
0.0
 46
6.0
 47
0.0
 48
0.0
140
5.9972220420999998
141
0.09
142
0.0
143
25.399999999999999
144
1.0
145
0.0
146
1.0
147
0.09
 71
     0
 72
     0
 73
     0
 74
     0
 75
     0
 76
     0
 77
     0
 78
     8
170
     0
171
     2
172
     0
173
     0
174
     0
175
     0
176
     0
177
     0
178
     0
  0
DIMSTYLE
  2
VELDIM1
 70
     0
  3

  4

  5

  6

  7

 40
1.0
 41
6.0
 42
0.0625
 43
0.38
 44
1.25
 45
0.0
 46
5.0
 47
0.0
 48
0.0
140
5.9972220420999998
141
0.09
142
0.0
143
25.399999999999999
144
1.0
145
0.0
146
1.0
147
0.09
 71
     0
 72
     0
 73
     0
 74
     0
 75
     0
 76
     0
 77
     0
 78
     8
170
     0
171
     2
172
     0
173
     0
174
     0
175
     0
176
     0
177
     0
178
     0
  0
DIMSTYLE
  2
VELDIM2
 70
     0
  3

  4

  5

  6

  7

 40
1.0
 41
6.0
 42
0.0625
 43
0.38
 44
0.5
 45
0.0
 46
3.0
 47
0.0
 48
0.0
140
5.9972220420999998
141
0.09
142
0.0
143
25.399999999999999
144
1.0
145
0.0
146
1.0
147
0.09
 71
     0
 72
     0
 73
     0
 74
     0
 75
     0
 76
     0
 77
     0
 78
     8
170
     0
171
     2
172
     0
173
     0
174
     0
175
     0
176
     0
177
     0
178
     0
  0
ENDTAB
  0
ENDSEC
  0
SECTION
  2
BLOCKS
  0
BLOCK
  8
0
  2
$MODEL_SPACE
 70
     0
 10
0.0
 20
0.0
 30
0.0
  3
$MODEL_SPACE
  1

  0
ENDBLK
  5
E
  8
0
  0
BLOCK
 67
     1
  8
0
  2
$PAPER_SPACE
 70
     0
 10
0.0
 20
0.0
 30
0.0
  3
$PAPER_SPACE
  1

  0
ENDBLK
  5
10
 67
     1
  8
0
  0
BLOCK
  8
0
  2
*D0
 70
     1
 10
0.0
 20
0.0
 30
0.0
  3
*D0
  1

  0
TEXT
  5
31
  8
0
 62
     0
 10
852.57829134420001
 20
-77.195580264
 30
0.0
 40
5.9972220420999998
  1
32
  0
LINE
  5
32
  8
0
 62
     0
 10
872.10606901609992
 20
-112.480611547
 30
0.0
 11
872.10606901609992
 21
-79.253913565600001
 31
0.0
  0
LINE
  5
33
  8
0
 62
     0
 10
840.10606901609992
 20
-112.480611547
 30
0.0
 11
840.10606901609992
 21
-79.253913565600001
 31
0.0
  0
LINE
  5
34
  8
0
 62
     0
 10
872.10606901609992
 20
-80.253913565600001
 30
0.0
 11
863.16162435969989
 21
-80.253913565600001
 31
0.0
  0
LINE
  5
35
  8
0
 62
     0
 10
872.10606901609992
 20
-80.253913565600001
 30
0.0
 11
849.05051367239992
 21
-80.253913565600001
 31
0.0
  0
LINE
  5
36
  8
0
 62
     0
 10
840.10606901609992
 20
-80.253913565600001
 30
0.0
 11
863.16162435969989
 21
-80.253913565600001
 31
0.0
  0
LINE
  5
37
  8
0
 62
     0
 10
840.10606901609992
 20
-80.253913565600001
 30
0.0
 11
849.05051367239992
 21
-80.253913565600001
 31
0.0
  0
LINE
  5
38
  8
0
 62
     0
 10
840.10606901609992
 20
-80.253913565600001
 30
0.0
 11
846.10606901610004
 21
-80.253913565600001
 31
0.0
  0
SOLID
  5
39
  8
0
 62
     0
 10
840.10606901609992
 20
-80.253913565600001
 30
0.0
 11
846.10606901610004
 21
-78.753913565600001
 31
0.0
 12
846.10606901610004
 22
-81.753913565600001
 32
0.0
 13
844.60606901610015
 23
-80.253913565600001
 33
0.0
  0
LINE
  5
3A
  8
0
 62
     0
 10
872.10606901609992
 20
-80.253913565600001
 30
0.0
 11
866.10606901610015
 21
-80.253913565600001
 31
0.0
  0
SOLID
  5
3B
  8
0
 62
     0
 10
872.10606901609992
 20
-80.253913565600001
 30
0.0
 11
866.10606901610015
 21
-81.753913565600001
 31
0.0
 12
866.10606901610015
 22
-78.753913565600001
 32
0.0
 13
867.60606901610004
 23
-80.253913565600001
 33
0.0
  0
ENDBLK
  5
3C
  8
0
  0
BLOCK
  8
0
  2
*D1
 70
     1
 10
0.0
 20
0.0
 30
0.0
  3
*D1
  1

  0
TEXT
  5
41
  8
0
 62
     0
 10
817.04773571449994
 20
-223.0083892188
 30
0.0
 40
5.9972220420999998
  1
30
 50
90.0
  0
LINE
  5
42
  8
0
 62
     0
 10
853.10606901610004
 20
-204.480611547
 30
0.0
 11
819.10606901610004
 21
-204.480611547
 31
0.0
  0
LINE
  5
43
  8
0
 62
     0
 10
838.10606901610004
 20
-234.480611547
 30
0.0
 11
819.10606901610004
 21
-234.480611547
 31
0.0
  0
LINE
  5
44
  8
0
 62
     0
 10
820.10606901610004
 20
-204.480611547
 30
0.0
 11
820.10606901610004
 21
-212.4250562034
 31
0.0
  0
LINE
  5
45
  8
0
 62
     0
 10
820.10606901610004
 20
-204.480611547
 30
0.0
 11
820.10606901610004
 21
-226.53616689059999
 31
0.0
  0
LINE
  5
46
  8
0
 62
     0
 10
820.10606901610004
 20
-234.480611547
 30
0.0
 11
820.10606901610004
 21
-212.4250562034
 31
0.0
  0
LINE
  5
47
  8
0
 62
     0
 10
820.10606901610004
 20
-234.480611547
 30
0.0
 11
820.10606901610004
 21
-226.53616689059999
 31
0.0
  0
LINE
  5
48
  8
0
 62
     0
 10
820.10606901610004
 20
-234.480611547
 30
0.0
 11
820.10606901610004
 21
-228.480611547
 31
0.0
  0
SOLID
  5
49
  8
0
 62
     0
 10
820.10606901610004
 20
-234.480611547
 30
0.0
 11
818.60606901609992
 21
-228.480611547
 31
0.0
 12
821.60606901610004
 22
-228.480611547
 32
0.0
 13
820.10606901610004
 23
-229.980611547
 33
0.0
  0
LINE
  5
4A
  8
0
 62
     0
 10
820.10606901610004
 20
-204.480611547
 30
0.0
 11
820.10606901610004
 21
-210.480611547
 31
0.0
  0
SOLID
  5
4B
  8
0
 62
     0
 10
820.10606901610004
 20
-204.480611547
 30
0.0
 11
821.60606901610004
 21
-210.480611547
 31
0.0
 12
818.60606901609992
 22
-210.480611547
 32
0.0
 13
820.10606901610004
 23
-208.980611547
 33
0.0
  0
ENDBLK
  5
4C
  8
0
  0
BLOCK
  8
0
  2
*D2
 70
     1
 10
0.0
 20
0.0
 30
0.0
  3
*D2
  1

  0
TEXT
  5
50
  8
0
 62
     0
 10
817.04773571449994
 20
-169.0083892188
 30
0.0
 40
5.9972220420999998
  1
78
 50
90.0
  0
LINE
  5
51
  8
0
 62
     0
 10
843.10606901610004
 20
-126.480611547
 30
0.0
 11
819.10606901610004
 21
-126.480611547
 31
0.0
  0
LINE
  5
52
  8
0
 62
     0
 10
853.10606901610004
 20
-204.480611547
 30
0.0
 11
819.10606901610004
 21
-204.480611547
 31
0.0
  0
LINE
  5
53
  8
0
 62
     0
 10
820.10606901610004
 20
-126.480611547
 30
0.0
 11
820.10606901610004
 21
-158.4250562034
 31
0.0
  0
LINE
  5
54
  8
0
 62
     0
 10
820.10606901610004
 20
-126.480611547
 30
0.0
 11
820.10606901610004
 21
-172.53616689059999
 31
0.0
  0
LINE
  5
55
  8
0
 62
     0
 10
820.10606901610004
 20
-204.480611547
 30
0.0
 11
820.10606901610004
 21
-158.4250562034
 31
0.0
  0
LINE
  5
56
  8
0
 62
     0
 10
820.10606901610004
 20
-204.480611547
 30
0.0
 11
820.10606901610004
 21
-172.53616689059999
 31
0.0
  0
LINE
  5
57
  8
0
 62
     0
 10
820.10606901610004
 20
-204.480611547
 30
0.0
 11
820.10606901610004
 21
-198.480611547
 31
0.0
  0
SOLID
  5
58
  8
0
 62
     0
 10
820.10606901610004
 20
-204.480611547
 30
0.0
 11
818.60606901609992
 21
-198.480611547
 31
0.0
 12
821.60606901610004
 22
-198.480611547
 32
0.0
 13
820.10606901610004
 23
-199.980611547
 33
0.0
  0
LINE
  5
59
  8
0
 62
     0
 10
820.10606901610004
 20
-126.480611547
 30
0.0
 11
820.10606901610004
 21
-132.480611547
 31
0.0
  0
SOLID
  5
5A
  8
0
 62
     0
 10
820.10606901610004
 20
-126.480611547
 30
0.0
 11
821.60606901610004
 21
-132.480611547
 31
0.0
 12
818.60606901609992
 22
-132.480611547
 32
0.0
 13
820.10606901610004
 23
-130.980611547
 33
0.0
  0
ENDBLK
  5
5B
  8
0
  0
BLOCK
  8
0
  2
*D3
 70
     1
 10
0.0
 20
0.0
 30
0.0
  3
*D3
  1

  0
TEXT
  5
5F
  8
0
 62
     0
 10
817.04773571449994
 20
-124.0083892188
 30
0.0
 40
5.9972220420999998
  1
12
 50
90.0
  0
LINE
  5
60
  8
0
 62
     0
 10
838.10606901610004
 20
-114.480611547
 30
0.0
 11
819.10606901610004
 21
-114.480611547
 31
0.0
  0
LINE
  5
61
  8
0
 62
     0
 10
843.10606901610004
 20
-126.480611547
 30
0.0
 11
819.10606901610004
 21
-126.480611547
 31
0.0
  0
LINE
  5
62
  8
0
 62
     0
 10
820.10606901610004
 20
-114.480611547
 30
0.0
 11
820.10606901610004
 21
-114.480611547
 31
0.0
  0
LINE
  5
63
  8
0
 62
     0
 10
820.10606901610004
 20
-114.480611547
 30
0.0
 11
820.10606901610004
 21
-126.480611547
 31
0.0
  0
LINE
  5
64
  8
0
 62
     0
 10
820.10606901610004
 20
-126.480611547
 30
0.0
 11
820.10606901610004
 21
-114.480611547
 31
0.0
  0
LINE
  5
65
  8
0
 62
     0
 10
820.10606901610004
 20
-126.480611547
 30
0.0
 11
820.10606901610004
 21
-126.480611547
 31
0.0
  0
LINE
  5
66
  8
0
 62
     0
 10
820.10606901610004
 20
-126.480611547
 30
0.0
 11
820.10606901610004
 21
-120.480611547
 31
0.0
  0
SOLID
  5
67
  8
0
 62
     0
 10
820.10606901610004
 20
-126.480611547
 30
0.0
 11
818.60606901609992
 21
-120.480611547
 31
0.0
 12
821.60606901610004
 22
-120.480611547
 32
0.0
 13
820.10606901610004
 23
-121.980611547
 33
0.0
  0
LINE
  5
68
  8
0
 62
     0
 10
820.10606901610004
 20
-114.480611547
 30
0.0
 11
820.10606901610004
 21
-120.480611547
 31
0.0
  0
SOLID
  5
69
  8
0
 62
     0
 10
820.10606901610004
 20
-114.480611547
 30
0.0
 11
821.60606901610004
 21
-120.480611547
 31
0.0
 12
818.60606901609992
 22
-120.480611547
 32
0.0
 13
820.10606901610004
 23
-118.980611547
 33
0.0
  0
ENDBLK
  5
6A
  8
0
  0
BLOCK
  8
0
  2
*D4
 70
     1
 10
0.0
 20
0.0
 30
0.0
  3
*D4
  1

  0
TEXT
  5
6E
  8
0
 62
     0
 10
795.31240758950003
 20
-327.15611057299998
 30
0.0
 40
5.9972220420999998
  1
11
 50
90.0
  0
LINE
  5
6F
  8
0
 62
     0
 10
696.37074089110001
 20
-329.1283329012
 30
0.0
 11
799.37074089110001
 21
-329.1283329012
 31
0.0
  0
LINE
  5
70
  8
0
 62
     0
 10
780.37074089110001
 20
-318.1283329012
 30
0.0
 11
799.37074089110001
 21
-318.1283329012
 31
0.0
  0
LINE
  5
71
  8
0
 62
     0
 10
798.37074089110001
 20
-329.1283329012
 30
0.0
 11
798.37074089110001
 21
-329.1283329012
 31
0.0
  0
LINE
  5
72
  8
0
 62
     0
 10
798.37074089110001
 20
-329.1283329012
 30
0.0
 11
798.37074089110001
 21
-318.1283329012
 31
0.0
  0
LINE
  5
73
  8
0
 62
     0
 10
798.37074089110001
 20
-318.1283329012
 30
0.0
 11
798.37074089110001
 21
-329.1283329012
 31
0.0
  0
LINE
  5
74
  8
0
 62
     0
 10
798.37074089110001
 20
-318.1283329012
 30
0.0
 11
798.37074089110001
 21
-318.1283329012
 31
0.0
  0
LINE
  5
75
  8
0
 62
     0
 10
798.37074089110001
 20
-318.1283329012
 30
0.0
 11
798.37074089110001
 21
-312.1283329012
 31
0.0
  0
SOLID
  5
76
  8
0
 62
     0
 10
798.37074089110001
 20
-318.1283329012
 30
0.0
 11
796.87074089110001
 21
-312.1283329012
 31
0.0
 12
799.87074089110001
 22
-312.1283329012
 32
0.0
 13
798.37074089110001
 23
-313.6283329012
 33
0.0
  0
LINE
  5
77
  8
0
 62
     0
 10
798.37074089110001
 20
-329.1283329012
 30
0.0
 11
798.37074089110001
 21
-335.1283329012
 31
0.0
  0
SOLID
  5
78
  8
0
 62
     0
 10
798.37074089110001
 20
-329.1283329012
 30
0.0
 11
799.87074089110001
 21
-335.1283329012
 31
0.0
 12
796.87074089110001
 22
-335.1283329012
 32
0.0
 13
798.37074089110001
 23
-333.6283329012
 33
0.0
  0
ENDBLK
  5
79
  8
0
  0
BLOCK
  8
0
  2
*D5
 70
     1
 10
0.0
 20
0.0
 30
0.0
  3
*D5
  1

  0
TEXT
  5
7D
  8
0
 62
     0
 10
795.31240758950003
 20
-337.65611057299998
 30
0.0
 40
5.9972220420999998
  1
10
 50
90.0
  0
LINE
  5
7E
  8
0
 62
     0
 10
774.37074089110001
 20
-339.1283329012
 30
0.0
 11
799.37074089110001
 21
-339.1283329012
 31
0.0
  0
LINE
  5
7F
  8
0
 62
     0
 10
696.37074089110001
 20
-329.1283329012
 30
0.0
 11
799.37074089110001
 21
-329.1283329012
 31
0.0
  0
LINE
  5
80
  8
0
 62
     0
 10
798.37074089110001
 20
-339.1283329012
 30
0.0
 11
798.37074089110001
 21
-339.1283329012
 31
0.0
  0
LINE
  5
81
  8
0
 62
     0
 10
798.37074089110001
 20
-339.1283329012
 30
0.0
 11
798.37074089110001
 21
-329.1283329012
 31
0.0
  0
LINE
  5
82
  8
0
 62
     0
 10
798.37074089110001
 20
-329.1283329012
 30
0.0
 11
798.37074089110001
 21
-339.1283329012
 31
0.0
  0
LINE
  5
83
  8
0
 62
     0
 10
798.37074089110001
 20
-329.1283329012
 30
0.0
 11
798.37074089110001
 21
-329.1283329012
 31
0.0
  0
LINE
  5
84
  8
0
 62
     0
 10
798.37074089110001
 20
-329.1283329012
 30
0.0
 11
798.37074089110001
 21
-323.1283329012
 31
0.0
  0
SOLID
  5
85
  8
0
 62
     0
 10
798.37074089110001
 20
-329.1283329012
 30
0.0
 11
796.87074089110001
 21
-323.1283329012
 31
0.0
 12
799.87074089110001
 22
-323.1283329012
 32
0.0
 13
798.37074089110001
 23
-324.6283329012
 33
0.0
  0
LINE
  5
86
  8
0
 62
     0
 10
798.37074089110001
 20
-339.1283329012
 30
0.0
 11
798.37074089110001
 21
-345.1283329012
 31
0.0
  0
SOLID
  5
87
  8
0
 62
     0
 10
798.37074089110001
 20
-339.1283329012
 30
0.0
 11
799.87074089110001
 21
-345.1283329012
 31
0.0
 12
796.87074089110001
 22
-345.1283329012
 32
0.0
 13
798.37074089110001
 23
-343.62833290120011
 33
0.0
  0
ENDBLK
  5
88
  8
0
  0
BLOCK
  8
0
  2
*D6
 70
     1
 10
0.0
 20
0.0
 30
0.0
  3
*D6
  1

  0
TEXT
  5
8C
  8
0
 62
     0
 10
795.31240758950003
 20
-348.15611057299998
 30
0.0
 40
5.9972220420999998
  1
11
 50
90.0
  0
LINE
  5
8D
  8
0
 62
     0
 10
780.37074089110001
 20
-350.12833290120011
 30
0.0
 11
799.37074089110001
 21
-350.12833290120011
 31
0.0
  0
LINE
  5
8E
  8
0
 62
     0
 10
774.37074089110001
 20
-339.1283329012
 30
0.0
 11
799.37074089110001
 21
-339.1283329012
 31
0.0
  0
LINE
  5
8F
  8
0
 62
     0
 10
798.37074089110001
 20
-350.12833290120011
 30
0.0
 11
798.37074089110001
 21
-350.12833290120011
 31
0.0
  0
LINE
  5
90
  8
0
 62
     0
 10
798.37074089110001
 20
-350.12833290120011
 30
0.0
 11
798.37074089110001
 21
-339.1283329012
 31
0.0
  0
LINE
  5
91
  8
0
 62
     0
 10
798.37074089110001
 20
-339.1283329012
 30
0.0
 11
798.37074089110001
 21
-350.12833290120011
 31
0.0
  0
LINE
  5
92
  8
0
 62
     0
 10
798.37074089110001
 20
-339.1283329012
 30
0.0
 11
798.37074089110001
 21
-339.1283329012
 31
0.0
  0
LINE
  5
93
  8
0
 62
     0
 10
798.37074089110001
 20
-339.1283329012
 30
0.0
 11
798.37074089110001
 21
-333.1283329012
 31
0.0
  0
SOLID
  5
94
  8
0
 62
     0
 10
798.37074089110001
 20
-339.1283329012
 30
0.0
 11
796.87074089110001
 21
-333.1283329012
 31
0.0
 12
799.87074089110001
 22
-333.1283329012
 32
0.0
 13
798.37074089110001
 23
-334.6283329012
 33
0.0
  0
LINE
  5
95
  8
0
 62
     0
 10
798.37074089110001
 20
-350.12833290120011
 30
0.0
 11
798.37074089110001
 21
-356.12833290120011
 31
0.0
  0
SOLID
  5
96
  8
0
 62
     0
 10
798.37074089110001
 20
-350.12833290120011
 30
0.0
 11
799.87074089110001
 21
-356.12833290120011
 31
0.0
 12
796.87074089110001
 22
-356.12833290120011
 32
0.0
 13
798.37074089110001
 23
-354.62833290120011
 33
0.0
  0
ENDBLK
  5
97
  8
0
  0
BLOCK
  8
0
  2
*D7
 70
     1
 10
0.0
 20
0.0
 30
0.0
  3
*D7
  1

  0
TEXT
  5
9B
  8
0
 62
     0
 10
669.84296321919999
 20
-295.06999959960001
 30
0.0
 40
5.9972220420999998
  1
30
  0
LINE
  5
9C
  8
0
 62
     0
 10
688.37074089110001
 20
-321.1283329012
 30
0.0
 11
688.37074089110001
 21
-297.1283329012
 31
0.0
  0
LINE
  5
9D
  8
0
 62
     0
 10
658.37074089110001
 20
-316.1283329012
 30
0.0
 11
658.37074089110001
 21
-297.1283329012
 31
0.0
  0
LINE
  5
9E
  8
0
 62
     0
 10
688.37074089110001
 20
-298.1283329012
 30
0.0
 11
680.42629623469986
 21
-298.1283329012
 31
0.0
  0
LINE
  5
9F
  8
0
 62
     0
 10
688.37074089110001
 20
-298.1283329012
 30
0.0
 11
666.31518554740001
 21
-298.1283329012
 31
0.0
  0
LINE
  5
A0
  8
0
 62
     0
 10
658.37074089110001
 20
-298.1283329012
 30
0.0
 11
680.42629623469986
 21
-298.1283329012
 31
0.0
  0
LINE
  5
A1
  8
0
 62
     0
 10
658.37074089110001
 20
-298.1283329012
 30
0.0
 11
666.31518554740001
 21
-298.1283329012
 31
0.0
  0
LINE
  5
A2
  8
0
 62
     0
 10
658.37074089110001
 20
-298.1283329012
 30
0.0
 11
664.37074089110001
 21
-298.1283329012
 31
0.0
  0
SOLID
  5
A3
  8
0
 62
     0
 10
658.37074089110001
 20
-298.1283329012
 30
0.0
 11
664.37074089110001
 21
-296.6283329012
 31
0.0
 12
664.37074089110001
 22
-299.6283329012
 32
0.0
 13
662.87074089110001
 23
-298.1283329012
 33
0.0
  0
LINE
  5
A4
  8
0
 62
     0
 10
688.37074089110001
 20
-298.1283329012
 30
0.0
 11
682.3707408910999
 21
-298.1283329012
 31
0.0
  0
SOLID
  5
A5
  8
0
 62
     0
 10
688.37074089110001
 20
-298.1283329012
 30
0.0
 11
682.3707408910999
 21
-299.6283329012
 31
0.0
 12
682.3707408910999
 22
-296.6283329012
 32
0.0
 13
683.87074089110001
 23
-298.1283329012
 33
0.0
  0
ENDBLK
  5
A6
  8
0
  0
BLOCK
  8
0
  2
*D8
 70
     1
 10
0.0
 20
0.0
 30
0.0
  3
*D8
  1

  0
TEXT
  5
AA
  8
0
 62
     0
 10
723.84296321919999
 20
-295.06999959960001
 30
0.0
 40
5.9972220420999998
  1
78
  0
LINE
  5
AB
  8
0
 62
     0
 10
766.37074089110001
 20
-331.1283329012
 30
0.0
 11
766.37074089110001
 21
-297.1283329012
 31
0.0
  0
LINE
  5
AC
  8
0
 62
     0
 10
688.37074089110001
 20
-321.1283329012
 30
0.0
 11
688.37074089110001
 21
-297.1283329012
 31
0.0
  0
LINE
  5
AD
  8
0
 62
     0
 10
766.37074089110001
 20
-298.1283329012
 30
0.0
 11
734.42629623469986
 21
-298.1283329012
 31
0.0
  0
LINE
  5
AE
  8
0
 62
     0
 10
766.37074089110001
 20
-298.1283329012
 30
0.0
 11
720.31518554740001
 21
-298.1283329012
 31
0.0
  0
LINE
  5
AF
  8
0
 62
     0
 10
688.37074089110001
 20
-298.1283329012
 30
0.0
 11
734.42629623469986
 21
-298.1283329012
 31
0.0
  0
LINE
  5
B0
  8
0
 62
     0
 10
688.37074089110001
 20
-298.1283329012
 30
0.0
 11
720.31518554740001
 21
-298.1283329012
 31
0.0
  0
LINE
  5
B1
  8
0
 62
     0
 10
688.37074089110001
 20
-298.1283329012
 30
0.0
 11
694.37074089110001
 21
-298.1283329012
 31
0.0
  0
SOLID
  5
B2
  8
0
 62
     0
 10
688.37074089110001
 20
-298.1283329012
 30
0.0
 11
694.37074089110001
 21
-296.6283329012
 31
0.0
 12
694.37074089110001
 22
-299.6283329012
 32
0.0
 13
692.87074089110001
 23
-298.1283329012
 33
0.0
  0
LINE
  5
B3
  8
0
 62
     0
 10
766.37074089110001
 20
-298.1283329012
 30
0.0
 11
760.37074089110001
 21
-298.1283329012
 31
0.0
  0
SOLID
  5
B4
  8
0
 62
     0
 10
766.37074089110001
 20
-298.1283329012
 30
0.0
 11
760.37074089110001
 21
-299.6283329012
 31
0.0
 12
760.37074089110001
 22
-296.6283329012
 32
0.0
 13
761.8707408910999
 23
-298.1283329012
 33
0.0
  0
ENDBLK
  5
B5
  8
0
  0
BLOCK
  8
0
  2
*D9
 70
     1
 10
0.0
 20
0.0
 30
0.0
  3
*D9
  1

  0
TEXT
  5
B9
  8
0
 62
     0
 10
768.84296321919999
 20
-295.06999959960001
 30
0.0
 40
5.9972220420999998
  1
12
  0
LINE
  5
BA
  8
0
 62
     0
 10
778.3707408910999
 20
-316.1283329012
 30
0.0
 11
778.3707408910999
 21
-297.1283329012
 31
0.0
  0
LINE
  5
BB
  8
0
 62
     0
 10
766.37074089110001
 20
-331.1283329012
 30
0.0
 11
766.37074089110001
 21
-297.1283329012
 31
0.0
  0
LINE
  5
BC
  8
0
 62
     0
 10
778.3707408910999
 20
-298.1283329012
 30
0.0
 11
778.3707408910999
 21
-298.1283329012
 31
0.0
  0
LINE
  5
BD
  8
0
 62
     0
 10
778.3707408910999
 20
-298.1283329012
 30
0.0
 11
766.37074089110001
 21
-298.1283329012
 31
0.0
  0
LINE
  5
BE
  8
0
 62
     0
 10
766.37074089110001
 20
-298.1283329012
 30
0.0
 11
778.3707408910999
 21
-298.1283329012
 31
0.0
  0
LINE
  5
BF
  8
0
 62
     0
 10
766.37074089110001
 20
-298.1283329012
 30
0.0
 11
766.37074089110001
 21
-298.1283329012
 31
0.0
  0
LINE
  5
C0
  8
0
 62
     0
 10
766.37074089110001
 20
-298.1283329012
 30
0.0
 11
772.37074089110001
 21
-298.1283329012
 31
0.0
  0
SOLID
  5
C1
  8
0
 62
     0
 10
766.37074089110001
 20
-298.1283329012
 30
0.0
 11
772.37074089110001
 21
-296.6283329012
 31
0.0
 12
772.37074089110001
 22
-299.6283329012
 32
0.0
 13
770.87074089110001
 23
-298.1283329012
 33
0.0
  0
LINE
  5
C2
  8
0
 62
     0
 10
778.3707408910999
 20
-298.1283329012
 30
0.0
 11
772.37074089110001
 21
-298.1283329012
 31
0.0
  0
SOLID
  5
C3
  8
0
 62
     0
 10
778.3707408910999
 20
-298.1283329012
 30
0.0
 11
772.37074089110001
 21
-299.6283329012
 31
0.0
 12
772.37074089110001
 22
-296.6283329012
 32
0.0
 13
773.8707408910999
 23
-298.1283329012
 33
0.0
  0
ENDBLK
  5
C4
  8
0
  0
BLOCK
  8
0
  2
*D10
 70
     1
 10
0.0
 20
0.0
 30
0.0
  3
*D10
  1

  0
TEXT
  5
D4
  8
0
 62
     0
 10
701.96349799810002
 20
-180.4550422099
 30
0.0
 40
5.9972220420999998
  1
90%%d
 50
316.90346257329998
  0
ARC
  5
D5
  8
0
 62
     0
 10
662.87074089110001
 20
-229.980611547
 30
0.0
 40
59.698078133300001
 50
82.6622082791
 51
90.0
  0
ARC
  5
D6
  8
0
 62
     0
 10
662.87074089110001
 20
-229.980611547
 30
0.0
 40
59.698078133300001
 50
0.0
 51
7.3377917209000003
  0
SOLID
  5
D7
  8
0
 62
     0
 10
722.56881902439989
 20
-229.980611547
 30
0.0
 11
724.0688190244
 21
-235.980611547
 31
0.0
 12
721.0688190244
 22
-235.980611547
 32
0.0
 13
722.56881902439989
 23
-234.480611547
 33
0.0
  0
SOLID
  5
D8
  8
0
 62
     0
 10
662.87074089110001
 20
-170.28253341370001
 30
0.0
 11
656.87074089110001
 21
-171.78253341370001
 31
0.0
 12
656.87074089110001
 22
-168.78253341370001
 32
0.0
 13
658.37074089110001
 23
-170.28253341370001
 33
0.0
  0
ARC
  5
D9
  8
0
 62
     0
 10
662.87074089110001
 20
-229.980611547
 30
0.0
 40
59.698078133300001
 50
0.0
 51
38.299263759699997
  0
ARC
  5
DA
  8
0
 62
     0
 10
662.87074089110001
 20
-229.980611547
 30
0.0
 40
59.698078133300001
 50
55.507661386900011
 51
90.0
  0
LINE
  5
DB
  8
0
 62
     0
 10
774.80729770719995
 20
-229.980611547
 30
0.0
 11
719.00537584050005
 21
-229.980611547
 31
0.0
  0
LINE
  5
DC
  8
0
 62
     0
 10
662.87074089110001
 20
-118.0440547309
 30
0.0
 11
662.87074089110001
 21
-173.84597659760001
 31
0.0
  0
ENDBLK
  5
DD
  8
0
  0
BLOCK
  8
0
  2
*D11
 70
     1
 10
0.0
 20
0.0
 30
0.0
  3
*D11
  1

  0
TEXT
  5
E1
  8
0
 62
     0
 10
962.27011084169999
 20
-109.6183270648
 30
0.0
 40
5.9972220420999998
  1
90%%d
 50
360.0
  0
ARC
  5
E2
  8
0
 62
     0
 10
967.56177734940002
 20
-179.70735894289999
 30
0.0
 40
66.9140319734
 50
128.56172399979999
 51
135.0
  0
ARC
  5
E3
  8
0
 62
     0
 10
967.56177734940002
 20
-179.70735894289999
 30
0.0
 40
66.9140319734
 50
45.0
 51
51.438276000199998
  0
SOLID
  5
E4
  8
0
 62
     0
 10
1014.8771431143
 20
-132.39199317789999
 30
0.0
 11
1020.1804439732
 21
-135.57397369329999
 31
0.0
 12
1018.0591236296
 22
-137.69529403679999
 32
0.0
 13
1018.0591236296
 23
-135.57397369329999
 33
0.0
  0
SOLID
  5
E5
  8
0
 62
     0
 10
920.24641158450004
 20
-132.39199317789999
 30
0.0
 11
917.06443106910012
 21
-137.69529403679999
 31
0.0
 12
914.94311072559992
 22
-135.57397369329999
 32
0.0
 13
917.06443106910012
 23
-135.57397369329999
 33
0.0
  0
ARC
  5
E6
  8
0
 62
     0
 10
967.56177734940002
 20
-179.70735894289999
 30
0.0
 40
66.9140319734
 50
45.0
 51
82.331698019699985
  0
ARC
  5
E7
  8
0
 62
     0
 10
967.56177734940002
 20
-179.70735894289999
 30
0.0
 40
66.9140319734
 50
97.668301980300001
 51
135.0
  0
LINE
  5
E8
  8
0
 62
     0
 10
991.33151218910007
 20
-155.93762410310001
 30
0.0
 11
1017.396877954
 21
-129.8722583382
 31
0.0
  0
LINE
  5
E9
  8
0
 62
     0
 10
943.79204250969985
 20
-155.93762410310001
 30
0.0
 11
917.72667674479987
 21
-129.8722583382
 31
0.0
  0
ENDBLK
  5
EA
  8
0
  0
BLOCK
  8
0
  2
*D12
 70
     1
 10
0.0
 20
0.0
 30
0.0
  3
*D12
  1

  0
TEXT
  5
EE
  8
0
 62
     0
 10
962.27011084169999
 20
-211.93315070489999
 30
0.0
 40
5.9972220420999998
  1
90%%d
  0
ARC
  5
EF
  8
0
 62
     0
 10
967.56177734940002
 20
-159.70735894289999
 30
0.0
 40
55.400791666700002
 50
306.9874194432
 51
315.0
  0
ARC
  5
F0
  8
0
 62
     0
 10
967.56177734940002
 20
-159.70735894289999
 30
0.0
 40
55.400791666700002
 50
225.0
 51
233.0125805568
  0
SOLID
  5
F1
  8
0
 62
     0
 10
928.38750187879998
 20
-198.8816344135
 30
0.0
 11
923.08420101990009
 21
-195.6996538981
 31
0.0
 12
925.20552136339995
 22
-193.57833355459999
 32
0.0
 13
925.20552136339995
 23
-195.6996538981
 33
0.0
  0
SOLID
  5
F2
  8
0
 62
     0
 10
1006.7360528200001
 20
-198.8816344135
 30
0.0
 11
1009.9180333353
 21
-193.57833355459999
 31
0.0
 12
1012.0393536789001
 22
-195.6996538981
 32
0.0
 13
1009.9180333353
 23
-195.6996538981
 33
0.0
  0
ARC
  5
F3
  8
0
 62
     0
 10
967.56177734940002
 20
-159.70735894289999
 30
0.0
 40
55.400791666700002
 50
225.0
 51
258.33019346089998
  0
ARC
  5
F4
  8
0
 62
     0
 10
967.56177734940002
 20
-159.70735894289999
 30
0.0
 40
55.400791666700002
 50
281.66980653910002
 51
315.0
  0
LINE
  5
F5
  8
0
 62
     0
 10
943.79204250969985
 20
-183.47709378259989
 30
0.0
 11
925.86776703910004
 21
-201.40136925319999
 31
0.0
  0
LINE
  5
F6
  8
0
 62
     0
 10
991.33151218910007
 20
-183.47709378259989
 30
0.0
 11
1009.2557876597
 21
-201.40136925319999
 31
0.0
  0
ENDBLK
  5
F7
  8
0
  0
BLOCK
  8
0
  2
*D13
 70
     1
 10
0.0
 20
0.0
 30
0.0
  3
*D13
  1

  0
TEXT
  5
FC
  8
0
 62
     0
 10
637.9419974333
 20
-337.65611057299998
 30
0.0
 40
5.9972220420999998
  1
32
 50
90.0
  0
LINE
  5
FD
  8
0
 62
     0
 10
657.3707408910999
 20
-318.1283329012
 30
0.0
 11
639.50033073479995
 21
-318.1283329012
 31
0.0
  0
LINE
  5
FE
  8
0
 62
     0
 10
657.3707408910999
 20
-350.12833290120011
 30
0.0
 11
639.50033073479995
 21
-350.12833290120011
 31
0.0
  0
LINE
  5
FF
  8
0
 62
     0
 10
640.00033073480006
 20
-318.1283329012
 30
0.0
 11
640.00033073480006
 21
-327.07277755759998
 31
0.0
  0
LINE
  5
100
  8
0
 62
     0
 10
640.00033073480006
 20
-318.1283329012
 30
0.0
 11
640.00033073480006
 21
-341.18388824480002
 31
0.0
  0
LINE
  5
101
  8
0
 62
     0
 10
640.00033073480006
 20
-350.12833290120011
 30
0.0
 11
640.00033073480006
 21
-327.07277755759998
 31
0.0
  0
LINE
  5
102
  8
0
 62
     0
 10
640.00033073480006
 20
-350.12833290120011
 30
0.0
 11
640.00033073480006
 21
-341.18388824480002
 31
0.0
  0
LINE
  5
103
  8
0
 62
     0
 10
640.00033073480006
 20
-350.12833290120011
 30
0.0
 11
640.00033073480006
 21
-347.1283329012
 31
0.0
  0
SOLID
  5
104
  8
0
 62
     0
 10
640.00033073480006
 20
-350.12833290120011
 30
0.0
 11
638.50033073479995
 21
-344.12833290120011
 31
0.0
 12
641.50033073479995
 22
-344.12833290120011
 32
0.0
 13
640.00033073480006
 23
-345.62833290120011
 33
0.0
  0
LINE
  5
105
  8
0
 62
     0
 10
640.00033073480006
 20
-318.1283329012
 30
0.0
 11
640.00033073480006
 21
-321.1283329012
 31
0.0
  0
SOLID
  5
106
  8
0
 62
     0
 10
640.00033073480006
 20
-318.1283329012
 30
0.0
 11
641.50033073479995
 21
-324.1283329012
 31
0.0
 12
638.50033073479995
 22
-324.1283329012
 32
0.0
 13
640.00033073480006
 23
-322.6283329012
 33
0.0
  0
ENDBLK
  5
107
  8
0
  0
BLOCK
  8
0
  2
*D14
 70
     1
 10
0.0
 20
0.0
 30
0.0
  3
*D14
  1

  0
TEXT
  5
10B
  8
0
 62
     0
 10
713.07907438330005
 20
-250.23949511859999
 30
0.0
 40
5.9972220420999998
  1
120
  0
LINE
  5
10C
  8
0
 62
     0
 10
658.37074089110001
 20
-230.980611547
 30
0.0
 11
658.37074089110001
 21
-252.79782842020001
 31
0.0
  0
LINE
  5
10D
  8
0
 62
     0
 10
778.3707408910999
 20
-235.480611547
 30
0.0
 11
778.3707408910999
 21
-252.79782842020001
 31
0.0
  0
LINE
  5
10E
  8
0
 62
     0
 10
658.37074089110001
 20
-252.29782842020001
 30
0.0
 11
727.19018507060002
 21
-252.29782842020001
 31
0.0
  0
LINE
  5
10F
  8
0
 62
     0
 10
658.37074089110001
 20
-252.29782842020001
 30
0.0
 11
709.55129671149984
 21
-252.29782842020001
 31
0.0
  0
LINE
  5
110
  8
0
 62
     0
 10
778.3707408910999
 20
-252.29782842020001
 30
0.0
 11
727.19018507060002
 21
-252.29782842020001
 31
0.0
  0
LINE
  5
111
  8
0
 62
     0
 10
778.3707408910999
 20
-252.29782842020001
 30
0.0
 11
709.55129671149984
 21
-252.29782842020001
 31
0.0
  0
LINE
  5
112
  8
0
 62
     0
 10
778.3707408910999
 20
-252.29782842020001
 30
0.0
 11
775.37074089110001
 21
-252.29782842020001
 31
0.0
  0
SOLID
  5
113
  8
0
 62
     0
 10
778.3707408910999
 20
-252.29782842020001
 30
0.0
 11
772.37074089110001
 21
-253.79782842020001
 31
0.0
 12
772.37074089110001
 22
-250.79782842020001
 32
0.0
 13
773.8707408910999
 23
-252.29782842020001
 33
0.0
  0
LINE
  5
114
  8
0
 62
     0
 10
658.37074089110001
 20
-252.29782842020001
 30
0.0
 11
661.3707408910999
 21
-252.29782842020001
 31
0.0
  0
SOLID
  5
115
  8
0
 62
     0
 10
658.37074089110001
 20
-252.29782842020001
 30
0.0
 11
664.37074089110001
 21
-250.79782842020001
 31
0.0
 12
664.37074089110001
 22
-253.79782842020001
 32
0.0
 13
662.87074089110001
 23
-252.29782842020001
 33
0.0
  0
ENDBLK
  5
116
  8
0
  0
BLOCK
  8
0
  2
*D15
 70
     1
 10
0.0
 20
0.0
 30
0.0
  3
*D15
  1

  0
TEXT
  5
11A
  8
0
 62
     0
 10
638.49519071629993
 20
-179.7722780547
 30
0.0
 40
5.9972220420999998
  1
120
 50
90.0
  0
LINE
  5
11B
  8
0
 62
     0
 10
657.3707408910999
 20
-114.480611547
 30
0.0
 11
640.05352401790003
 21
-114.480611547
 31
0.0
  0
LINE
  5
11C
  8
0
 62
     0
 10
661.8707408910999
 20
-234.480611547
 30
0.0
 11
640.05352401790003
 21
-234.480611547
 31
0.0
  0
LINE
  5
11D
  8
0
 62
     0
 10
640.55352401790003
 20
-114.480611547
 30
0.0
 11
640.55352401790003
 21
-165.66116736750001
 31
0.0
  0
LINE
  5
11E
  8
0
 62
     0
 10
640.55352401790003
 20
-114.480611547
 30
0.0
 11
640.55352401790003
 21
-183.30005572659999
 31
0.0
  0
LINE
  5
11F
  8
0
 62
     0
 10
640.55352401790003
 20
-234.480611547
 30
0.0
 11
640.55352401790003
 21
-165.66116736750001
 31
0.0
  0
LINE
  5
120
  8
0
 62
     0
 10
640.55352401790003
 20
-234.480611547
 30
0.0
 11
640.55352401790003
 21
-183.30005572659999
 31
0.0
  0
LINE
  5
121
  8
0
 62
     0
 10
640.55352401790003
 20
-234.480611547
 30
0.0
 11
640.55352401790003
 21
-231.480611547
 31
0.0
  0
SOLID
  5
122
  8
0
 62
     0
 10
640.55352401790003
 20
-234.480611547
 30
0.0
 11
639.05352401790003
 21
-228.480611547
 31
0.0
 12
642.05352401790003
 22
-228.480611547
 32
0.0
 13
640.55352401790003
 23
-229.980611547
 33
0.0
  0
LINE
  5
123
  8
0
 62
     0
 10
640.55352401790003
 20
-114.480611547
 30
0.0
 11
640.55352401790003
 21
-117.480611547
 31
0.0
  0
SOLID
  5
124
  8
0
 62
     0
 10
640.55352401790003
 20
-114.480611547
 30
0.0
 11
642.05352401790003
 21
-120.480611547
 31
0.0
 12
639.05352401790003
 22
-120.480611547
 32
0.0
 13
640.55352401790003
 23
-118.980611547
 33
0.0
  0
ENDBLK
  5
125
  8
0
  0
BLOCK
  8
0
  2
*D16
 70
     1
 10
0.0
 20
0.0
 30
0.0
  3
*D16
  1

  0
TEXT
  5
129
  8
0
 62
     0
 10
962.27011084169999
 20
-138.711979345
 30
0.0
 40
5.9972220420999998
  1
%%c5
  0
LINE
  5
12A
  8
0
 62
     0
 10
980.06177734940002
 20
-166.20735894289999
 30
0.0
 11
980.06177734940002
 21
-140.27031264659999
 31
0.0
  0
LINE
  5
12B
  8
0
 62
     0
 10
955.06177734940002
 20
-166.20735894289999
 30
0.0
 11
955.06177734940002
 21
-140.27031264659999
 31
0.0
  0
LINE
  5
12C
  8
0
 62
     0
 10
980.06177734940002
 20
-140.77031264659999
 30
0.0
 11
976.38122152890003
 21
-140.77031264659999
 31
0.0
  0
LINE
  5
12D
  8
0
 62
     0
 10
980.06177734940002
 20
-140.77031264659999
 30
0.0
 11
958.74233316990001
 21
-140.77031264659999
 31
0.0
  0
LINE
  5
12E
  8
0
 62
     0
 10
955.06177734940002
 20
-140.77031264659999
 30
0.0
 11
976.38122152890003
 21
-140.77031264659999
 31
0.0
  0
LINE
  5
12F
  8
0
 62
     0
 10
955.06177734940002
 20
-140.77031264659999
 30
0.0
 11
958.74233316990001
 21
-140.77031264659999
 31
0.0
  0
LINE
  5
130
  8
0
 62
     0
 10
955.06177734940002
 20
-140.77031264659999
 30
0.0
 11
952.06177734940002
 21
-140.77031264659999
 31
0.0
  0
SOLID
  5
131
  8
0
 62
     0
 10
955.06177734940002
 20
-140.77031264659999
 30
0.0
 11
949.0617773493999
 21
-142.27031264659999
 31
0.0
 12
949.0617773493999
 22
-139.27031264659999
 32
0.0
 13
950.56177734940002
 23
-140.77031264659999
 33
0.0
  0
LINE
  5
132
  8
0
 62
     0
 10
980.06177734940002
 20
-140.77031264659999
 30
0.0
 11
983.0617773493999
 21
-140.77031264659999
 31
0.0
  0
SOLID
  5
133
  8
0
 62
     0
 10
980.06177734940002
 20
-140.77031264659999
 30
0.0
 11
986.06177734940002
 21
-139.27031264659999
 31
0.0
 12
986.06177734940002
 22
-142.27031264659999
 32
0.0
 13
984.56177734940002
 23
-140.77031264659999
 33
0.0
  0
ENDBLK
  5
134
  8
0
  0
BLOCK
  8
0
  2
*D17
 70
     1
 10
0.0
 20
0.0
 30
0.0
  3
*D17
  1

  0
TEXT
  5
138
  8
0
 62
     0
 10
958.74233316990001
 20
-197.305729345
 30
0.0
 40
5.9972220420999998
  1
%%c8.5
  0
LINE
  5
139
  8
0
 62
     0
 10
946.3117773493999
 20
-181.95735894289999
 30
0.0
 11
946.3117773493999
 21
-199.86406264659999
 31
0.0
  0
LINE
  5
13A
  8
0
 62
     0
 10
988.81177734940002
 20
-181.95735894289999
 30
0.0
 11
988.81177734940002
 21
-199.86406264659999
 31
0.0
  0
LINE
  5
13B
  8
0
 62
     0
 10
946.3117773493999
 20
-199.36406264659999
 30
0.0
 11
979.90899920070012
 21
-199.36406264659999
 31
0.0
  0
LINE
  5
13C
  8
0
 62
     0
 10
946.3117773493999
 20
-199.36406264659999
 30
0.0
 11
955.21455549799987
 21
-199.36406264659999
 31
0.0
  0
LINE
  5
13D
  8
0
 62
     0
 10
988.81177734940002
 20
-199.36406264659999
 30
0.0
 11
979.90899920070012
 21
-199.36406264659999
 31
0.0
  0
LINE
  5
13E
  8
0
 62
     0
 10
988.81177734940002
 20
-199.36406264659999
 30
0.0
 11
955.21455549799987
 21
-199.36406264659999
 31
0.0
  0
LINE
  5
13F
  8
0
 62
     0
 10
988.81177734940002
 20
-199.36406264659999
 30
0.0
 11
985.8117773493999
 21
-199.36406264659999
 31
0.0
  0
SOLID
  5
140
  8
0
 62
     0
 10
988.81177734940002
 20
-199.36406264659999
 30
0.0
 11
982.81177734940002
 21
-200.86406264659999
 31
0.0
 12
982.81177734940002
 22
-197.86406264659999
 32
0.0
 13
984.31177734940002
 23
-199.36406264659999
 33
0.0
  0
LINE
  5
141
  8
0
 62
     0
 10
946.3117773493999
 20
-199.36406264659999
 30
0.0
 11
949.31177734940013
 21
-199.36406264659999
 31
0.0
  0
SOLID
  5
142
  8
0
 62
     0
 10
946.3117773493999
 20
-199.36406264659999
 30
0.0
 11
952.31177734940002
 21
-197.86406264659999
 31
0.0
 12
952.31177734940002
 22
-200.86406264659999
 32
0.0
 13
950.8117773493999
 23
-199.36406264659999
 33
0.0
  0
ENDBLK
  5
143
  8
0
  0
BLOCK
  8
0
  2
*D18
 70
     1
 10
0.0
 20
0.0
 30
0.0
  3
*D18
  1

  0
TEXT
  5
147
  8
0
 62
     0
 10
958.74233316990001
 20
-123.8190881413
 30
0.0
 40
5.9972220420999998
  1
%%c8.5
  0
LINE
  5
148
  8
0
 62
     0
 10
988.81177734940002
 20
-157.45735894289999
 30
0.0
 11
988.81177734940002
 21
-125.3774214429
 31
0.0
  0
LINE
  5
149
  8
0
 62
     0
 10
946.3117773493999
 20
-157.45735894289999
 30
0.0
 11
946.3117773493999
 21
-125.3774214429
 31
0.0
  0
LINE
  5
14A
  8
0
 62
     0
 10
988.81177734940002
 20
-125.8774214429
 30
0.0
 11
979.90899920070012
 21
-125.8774214429
 31
0.0
  0
LINE
  5
14B
  8
0
 62
     0
 10
988.81177734940002
 20
-125.8774214429
 30
0.0
 11
955.21455549799987
 21
-125.8774214429
 31
0.0
  0
LINE
  5
14C
  8
0
 62
     0
 10
946.3117773493999
 20
-125.8774214429
 30
0.0
 11
979.90899920070012
 21
-125.8774214429
 31
0.0
  0
LINE
  5
14D
  8
0
 62
     0
 10
946.3117773493999
 20
-125.8774214429
 30
0.0
 11
955.21455549799987
 21
-125.8774214429
 31
0.0
  0
LINE
  5
14E
  8
0
 62
     0
 10
946.3117773493999
 20
-125.8774214429
 30
0.0
 11
949.31177734940013
 21
-125.8774214429
 31
0.0
  0
SOLID
  5
14F
  8
0
 62
     0
 10
946.3117773493999
 20
-125.8774214429
 30
0.0
 11
952.31177734940002
 21
-124.3774214429
 31
0.0
 12
952.31177734940002
 22
-127.3774214429
 32
0.0
 13
950.8117773493999
 23
-125.8774214429
 33
0.0
  0
LINE
  5
150
  8
0
 62
     0
 10
988.81177734940002
 20
-125.8774214429
 30
0.0
 11
985.8117773493999
 21
-125.8774214429
 31
0.0
  0
SOLID
  5
151
  8
0
 62
     0
 10
988.81177734940002
 20
-125.8774214429
 30
0.0
 11
982.81177734940002
 21
-127.3774214429
 31
0.0
 12
982.81177734940002
 22
-124.3774214429
 32
0.0
 13
984.31177734940002
 23
-125.8774214429
 33
0.0
  0
ENDBLK
  5
152
  8
0
  0
BLOCK
  8
0
  2
*D19
 70
     1
 10
0.0
 20
0.0
 30
0.0
  3
*D19
  1

  0
TEXT
  5
158
  8
0
 62
     0
 10
666.27471245710001
 20
-88.274798714699998
 30
0.0
 40
5.9972220420999998
  1
4.5t
  0
LINE
  5
159
  8
0
 62
     0
 10
662.87074089110001
 20
-113.480611547
 30
0.0
 11
662.87074089110001
 21
-89.833132016200011
 31
0.0
  0
LINE
  5
15A
  8
0
 62
     0
 10
658.37074089110001
 20
-113.480611547
 30
0.0
 11
658.37074089110001
 21
-89.833132016200011
 31
0.0
  0
LINE
  5
15B
  8
0
 62
     0
 10
662.87074089110001
 20
-90.333132016200025
 30
0.0
 11
683.91360081619996
 21
-90.333132016200025
 31
0.0
  0
LINE
  5
15C
  8
0
 62
     0
 10
662.87074089110001
 20
-90.333132016200025
 30
0.0
 11
662.74693478530003
 21
-90.333132016200025
 31
0.0
  0
LINE
  5
15D
  8
0
 62
     0
 10
658.37074089110001
 20
-90.333132016200025
 30
0.0
 11
683.91360081619996
 21
-90.333132016200025
 31
0.0
  0
LINE
  5
15E
  8
0
 62
     0
 10
658.37074089110001
 20
-90.333132016200025
 30
0.0
 11
662.74693478530003
 21
-90.333132016200025
 31
0.0
  0
LINE
  5
15F
  8
0
 62
     0
 10
658.37074089110001
 20
-90.333132016200025
 30
0.0
 11
655.37074089110001
 21
-90.333132016200025
 31
0.0
  0
SOLID
  5
160
  8
0
 62
     0
 10
658.37074089110001
 20
-90.333132016200025
 30
0.0
 11
652.37074089110001
 21
-91.833132016199997
 31
0.0
 12
652.37074089110001
 22
-88.833132016200011
 32
0.0
 13
653.87074089110001
 23
-90.333132016200025
 33
0.0
  0
LINE
  5
161
  8
0
 62
     0
 10
662.87074089110001
 20
-90.333132016200025
 30
0.0
 11
665.8707408910999
 21
-90.333132016200025
 31
0.0
  0
SOLID
  5
162
  8
0
 62
     0
 10
662.87074089110001
 20
-90.333132016200025
 30
0.0
 11
668.87074089110001
 21
-88.833132016200011
 31
0.0
 12
668.87074089110001
 22
-91.833132016199997
 32
0.0
 13
667.37074089110001
 23
-90.333132016200025
 33
0.0
  0
ENDBLK
  5
163
  8
0
  0
BLOCK
  8
0
  2
*D20
 70
     1
 10
0.0
 20
0.0
 30
0.0
  3
*D20
  1

  0
TEXT
  5
167
  8
0
 62
     0
 10
842.07829134420001
 20
-91.422278245499996
 30
0.0
 40
5.9972220420999998
  1
11
  0
LINE
  5
168
  8
0
 62
     0
 10
851.10606901610004
 20
-118.480611547
 30
0.0
 11
851.10606901610004
 21
-93.480611547000009
 31
0.0
  0
LINE
  5
169
  8
0
 62
     0
 10
840.10606901609992
 20
-112.480611547
 30
0.0
 11
840.10606901609992
 21
-93.480611547000009
 31
0.0
  0
LINE
  5
16A
  8
0
 62
     0
 10
851.10606901610004
 20
-94.480611547000009
 30
0.0
 11
851.10606901610004
 21
-94.480611547000009
 31
0.0
  0
LINE
  5
16B
  8
0
 62
     0
 10
851.10606901610004
 20
-94.480611547000009
 30
0.0
 11
840.10606901609992
 21
-94.480611547000009
 31
0.0
  0
LINE
  5
16C
  8
0
 62
     0
 10
840.10606901609992
 20
-94.480611547000009
 30
0.0
 11
851.10606901610004
 21
-94.480611547000009
 31
0.0
  0
LINE
  5
16D
  8
0
 62
     0
 10
840.10606901609992
 20
-94.480611547000009
 30
0.0
 11
840.10606901609992
 21
-94.480611547000009
 31
0.0
  0
LINE
  5
16E
  8
0
 62
     0
 10
840.10606901609992
 20
-94.480611547000009
 30
0.0
 11
834.10606901610004
 21
-94.480611547000009
 31
0.0
  0
SOLID
  5
16F
  8
0
 62
     0
 10
840.10606901609992
 20
-94.480611547000009
 30
0.0
 11
834.10606901610004
 21
-95.980611547000009
 31
0.0
 12
834.10606901610004
 22
-92.980611546999995
 32
0.0
 13
835.60606901609992
 23
-94.480611547000009
 33
0.0
  0
LINE
  5
170
  8
0
 62
     0
 10
851.10606901610004
 20
-94.480611547000009
 30
0.0
 11
857.10606901610015
 21
-94.480611547000009
 31
0.0
  0
SOLID
  5
171
  8
0
 62
     0
 10
851.10606901610004
 20
-94.480611547000009
 30
0.0
 11
857.10606901610015
 21
-92.980611546999995
 31
0.0
 12
857.10606901610015
 22
-95.980611547000009
 32
0.0
 13
855.60606901610004
 23
-94.480611547000009
 33
0.0
  0
ENDBLK
  5
172
  8
0
  0
BLOCK
  8
0
  2
*D21
 70
     1
 10
0.0
 20
0.0
 30
0.0
  3
*D21
  1

  0
TEXT
  5
176
  8
0
 62
     0
 10
852.57829134420001
 20
-91.422278245499996
 30
0.0
 40
5.9972220420999998
  1
10
  0
LINE
  5
177
  8
0
 62
     0
 10
861.10606901610004
 20
-196.480611547
 30
0.0
 11
861.10606901610004
 21
-93.480611547000009
 31
0.0
  0
LINE
  5
178
  8
0
 62
     0
 10
851.10606901610004
 20
-118.480611547
 30
0.0
 11
851.10606901610004
 21
-93.480611547000009
 31
0.0
  0
LINE
  5
179
  8
0
 62
     0
 10
861.10606901610004
 20
-94.480611547000009
 30
0.0
 11
861.10606901610004
 21
-94.480611547000009
 31
0.0
  0
LINE
  5
17A
  8
0
 62
     0
 10
861.10606901610004
 20
-94.480611547000009
 30
0.0
 11
851.10606901610004
 21
-94.480611547000009
 31
0.0
  0
LINE
  5
17B
  8
0
 62
     0
 10
851.10606901610004
 20
-94.480611547000009
 30
0.0
 11
861.10606901610004
 21
-94.480611547000009
 31
0.0
  0
LINE
  5
17C
  8
0
 62
     0
 10
851.10606901610004
 20
-94.480611547000009
 30
0.0
 11
851.10606901610004
 21
-94.480611547000009
 31
0.0
  0
LINE
  5
17D
  8
0
 62
     0
 10
851.10606901610004
 20
-94.480611547000009
 30
0.0
 11
845.10606901610004
 21
-94.480611547000009
 31
0.0
  0
SOLID
  5
17E
  8
0
 62
     0
 10
851.10606901610004
 20
-94.480611547000009
 30
0.0
 11
845.10606901610004
 21
-95.980611547000009
 31
0.0
 12
845.10606901610004
 22
-92.980611546999995
 32
0.0
 13
846.60606901610004
 23
-94.480611547000009
 33
0.0
  0
LINE
  5
17F
  8
0
 62
     0
 10
861.10606901610004
 20
-94.480611547000009
 30
0.0
 11
867.10606901610015
 21
-94.480611547000009
 31
0.0
  0
SOLID
  5
180
  8
0
 62
     0
 10
861.10606901610004
 20
-94.480611547000009
 30
0.0
 11
867.10606901610015
 21
-92.980611546999995
 31
0.0
 12
867.10606901610015
 22
-95.980611547000009
 32
0.0
 13
865.60606901610004
 23
-94.480611547000009
 33
0.0
  0
ENDBLK
  5
181
  8
0
  0
BLOCK
  8
0
  2
*D22
 70
     1
 10
0.0
 20
0.0
 30
0.0
  3
*D22
  1

  0
TEXT
  5
185
  8
0
 62
     0
 10
863.07829134420012
 20
-91.422278245499996
 30
0.0
 40
5.9972220420999998
  1
11
  0
LINE
  5
186
  8
0
 62
     0
 10
872.10606901609992
 20
-112.480611547
 30
0.0
 11
872.10606901609992
 21
-93.480611547000009
 31
0.0
  0
LINE
  5
187
  8
0
 62
     0
 10
861.10606901610004
 20
-196.480611547
 30
0.0
 11
861.10606901610004
 21
-93.480611547000009
 31
0.0
  0
LINE
  5
188
  8
0
 62
     0
 10
872.10606901609992
 20
-94.480611547000009
 30
0.0
 11
872.10606901609992
 21
-94.480611547000009
 31
0.0
  0
LINE
  5
189
  8
0
 62
     0
 10
872.10606901609992
 20
-94.480611547000009
 30
0.0
 11
861.10606901610004
 21
-94.480611547000009
 31
0.0
  0
LINE
  5
18A
  8
0
 62
     0
 10
861.10606901610004
 20
-94.480611547000009
 30
0.0
 11
872.10606901609992
 21
-94.480611547000009
 31
0.0
  0
LINE
  5
18B
  8
0
 62
     0
 10
861.10606901610004
 20
-94.480611547000009
 30
0.0
 11
861.10606901610004
 21
-94.480611547000009
 31
0.0
  0
LINE
  5
18C
  8
0
 62
     0
 10
861.10606901610004
 20
-94.480611547000009
 30
0.0
 11
855.10606901610004
 21
-94.480611547000009
 31
0.0
  0
SOLID
  5
18D
  8
0
 62
     0
 10
861.10606901610004
 20
-94.480611547000009
 30
0.0
 11
855.10606901610004
 21
-95.980611547000009
 31
0.0
 12
855.10606901610004
 22
-92.980611546999995
 32
0.0
 13
856.60606901610004
 23
-94.480611547000009
 33
0.0
  0
LINE
  5
18E
  8
0
 62
     0
 10
872.10606901609992
 20
-94.480611547000009
 30
0.0
 11
878.10606901610004
 21
-94.480611547000009
 31
0.0
  0
SOLID
  5
18F
  8
0
 62
     0
 10
872.10606901609992
 20
-94.480611547000009
 30
0.0
 11
878.10606901610004
 21
-92.980611546999995
 31
0.0
 12
878.10606901610004
 22
-95.980611547000009
 32
0.0
 13
876.60606901609992
 23
-94.480611547000009
 33
0.0
  0
ENDBLK
  5
190
  8
0
  0
BLOCK
  8
0
  2
CLUMP0
 70
     0
 10
0.0
 20
0.0
 30
0.0
  3
CLUMP0
  1

  0
CIRCLE
  5
20E
  8
┌▓È_1
 62
     5
 10
766.37074089110001
 20
-339.1283329012
 30
0.0
 40
4.25
  0
CIRCLE
  5
20F
  8
┌▓È_1
 62
     5
 10
766.37074089110001
 20
-339.1283329012
 30
0.0
 40
2.5
  0
LINE
  5
210
  8
┌▓È_1
  6
BORDER
 62
     3
 10
766.37074089110001
 20
-345.1283329012
 30
0.0
 11
766.37074089110001
 21
-333.1283329012
 31
0.0
  0
LINE
  5
211
  8
┌▓È_1
  6
BORDER
 62
     3
 10
760.37074089110001
 20
-339.1283329012
 30
0.0
 11
772.37074089110001
 21
-339.1283329012
 31
0.0
  0
ENDBLK
  5
212
  8
0
  0
BLOCK
  8
0
  2
CLUMP1
 70
     0
 10
0.0
 20
0.0
 30
0.0
  3
CLUMP1
  1

  0
CIRCLE
  5
216
  8
┌▓È_1
 62
     5
 10
851.10606901610004
 20
-126.480611547
 30
0.0
 40
2.5
  0
CIRCLE
  5
217
  8
┌▓È_1
 62
     5
 10
851.10606901610004
 20
-126.480611547
 30
0.0
 40
4.25
  0
LINE
  5
218
  8
┌▓È_1
  6
BORDER
 62
     3
 10
857.10606901610015
 20
-126.480611547
 30
0.0
 11
845.10606901610004
 21
-126.480611547
 31
0.0
  0
LINE
  5
219
  8
┌▓È_1
  6
BORDER
 62
     3
 10
851.10606901610004
 20
-120.480611547
 30
0.0
 11
851.10606901610004
 21
-132.480611547
 31
0.0
  0
ENDBLK
  5
21A
  8
0
  0
BLOCK
  8
0
  2
CLUMP2
 70
     0
 10
0.0
 20
0.0
 30
0.0
  3
CLUMP2
  1

  0
CIRCLE
  5
21E
  8
┌▓È_1
 62
     5
 10
861.10606901610004
 20
-204.480611547
 30
0.0
 40
4.25
  0
CIRCLE
  5
21F
  8
┌▓È_1
 62
     5
 10
861.10606901610004
 20
-204.480611547
 30
0.0
 40
2.5
  0
LINE
  5
220
  8
┌▓È_1
  6
BORDER
 62
     3
 10
861.10606901610004
 20
-198.480611547
 30
0.0
 11
861.10606901610004
 21
-210.480611547
 31
0.0
  0
LINE
  5
221
  8
┌▓È_1
  6
BORDER
 62
     3
 10
867.10606901610015
 20
-204.480611547
 30
0.0
 11
855.10606901610004
 21
-204.480611547
 31
0.0
  0
ENDBLK
  5
222
  8
0
  0
BLOCK
  8
0
  2
CLUMP3
 70
     0
 10
0.0
 20
0.0
 30
0.0
  3
CLUMP3
  1

  0
CIRCLE
  5
227
  8
┌▓È_1
 62
     5
 10
688.37074089110001
 20
-329.1283329012
 30
0.0
 40
2.5
  0
CIRCLE
  5
228
  8
┌▓È_1
 62
     5
 10
688.37074089110001
 20
-329.1283329012
 30
0.0
 40
4.25
  0
LINE
  5
229
  8
┌▓È_1
  6
BORDER
 62
     3
 10
688.37074089110001
 20
-335.1283329012
 30
0.0
 11
688.37074089110001
 21
-323.1283329012
 31
0.0
  0
LINE
  5
22A
  8
┌▓È_1
  6
BORDER
 62
     3
 10
682.3707408910999
 20
-329.1283329012
 30
0.0
 11
694.37074089110001
 21
-329.1283329012
 31
0.0
  0
ENDBLK
  5
22B
  8
0
  0
BLOCK
  8
0
  2
CLUMP4
 70
     0
 10
0.0
 20
0.0
 30
0.0
  3
CLUMP4
  1

  0
LINE
  5
22F
  8
┌▓È_1
  6
STITCH
 10
660.12074089110001
 20
-206.980611547
 30
0.0
 11
660.12074089110001
 21
-201.980611547
 31
0.0
  0
LINE
  5
230
  8
┌▓È_1
  6
STITCH
 10
661.12074089110001
 20
-201.980611547
 30
0.0
 11
661.12074089110001
 21
-206.980611547
 31
0.0
  0
LINE
  5
231
  8
┌▓È_1
  6
STITCH
 10
660.12074089110001
 20
-201.980611547
 30
0.0
 11
661.12074089110001
 21
-201.980611547
 31
0.0
  0
LINE
  5
232
  8
┌▓È_1
  6
STITCH
 10
661.12074089110001
 20
-206.980611547
 30
0.0
 11
660.12074089110001
 21
-206.980611547
 31
0.0
  0
LINE
  5
233
  8
┌▓È_1
  6
STITCH
 10
661.12074089110001
 20
-206.980611547
 30
0.0
 11
662.87074089110001
 21
-208.730611547
 31
0.0
  0
LINE
  5
234
  8
┌▓È_1
  6
STITCH
 10
660.12074089110001
 20
-206.980611547
 30
0.0
 11
658.37074089110001
 21
-208.730611547
 31
0.0
  0
LINE
  5
235
  8
┌▓È_1
  6
STITCH
 10
660.12074089110001
 20
-201.980611547
 30
0.0
 11
658.37074089110001
 21
-200.230611547
 31
0.0
  0
LINE
  5
236
  8
┌▓È_1
  6
STITCH
 10
661.12074089110001
 20
-201.980611547
 30
0.0
 11
662.87074089110001
 21
-200.230611547
 31
0.0
  0
LINE
  5
237
  8
┌▓È_1
  6
BORDER
 62
     3
 10
668.69851866879992
 20
-204.480611547
 30
0.0
 11
651.32907422439996
 21
-204.480611547
 31
0.0
  0
ENDBLK
  5
238
  8
0
  0
BLOCK
  8
0
  2
CLUMP5
 70
     0
 10
0.0
 20
0.0
 30
0.0
  3
CLUMP5
  1

  0
LINE
  5
23C
  8
┌▓È_1
  6
STITCH
 10
690.8707408910999
 20
-231.730611547
 30
0.0
 11
685.87074089110001
 21
-231.730611547
 31
0.0
  0
LINE
  5
23D
  8
┌▓È_1
  6
STITCH
 10
685.87074089110001
 20
-232.730611547
 30
0.0
 11
684.1207408910999
 21
-234.480611547
 31
0.0
  0
LINE
  5
23E
  8
┌▓È_1
  6
STITCH
 10
685.87074089110001
 20
-231.730611547
 30
0.0
 11
684.1207408910999
 21
-229.980611547
 31
0.0
  0
LINE
  5
23F
  8
┌▓È_1
  6
STITCH
 10
685.87074089110001
 20
-231.730611547
 30
0.0
 11
685.87074089110001
 21
-232.730611547
 31
0.0
  0
LINE
  5
240
  8
┌▓È_1
  6
STITCH
 10
685.87074089110001
 20
-232.730611547
 30
0.0
 11
690.8707408910999
 21
-232.730611547
 31
0.0
  0
LINE
  5
241
  8
┌▓È_1
  6
STITCH
 10
690.8707408910999
 20
-232.730611547
 30
0.0
 11
690.8707408910999
 21
-231.730611547
 31
0.0
  0
LINE
  5
242
  8
┌▓È_1
  6
STITCH
 10
690.8707408910999
 20
-232.730611547
 30
0.0
 11
692.6207408910999
 21
-234.480611547
 31
0.0
  0
LINE
  5
243
  8
┌▓È_1
  6
STITCH
 10
690.8707408910999
 20
-231.730611547
 30
0.0
 11
692.6207408910999
 21
-229.980611547
 31
0.0
  0
LINE
  5
244
  8
┌▓È_1
  6
BORDER
 62
     3
 10
688.37074089110001
 20
-224.15283376919999
 30
0.0
 11
688.37074089110001
 21
-241.52227821369999
 31
0.0
  0
ENDBLK
  5
245
  8
0
  0
BLOCK
  8
0
  2
*U29
 70
     1
 10
0.0
 20
0.0
 30
0.0
  3
*U29
  1

  0
TEXT
  5
275
  8
┌▓È_1
  6
CONTINUOUS
 10
1030.2691884685
 20
-388.90595313912701
 30
0.0
 40
7.1966662884000003
  1
ékî^âAâôâOâï
  0
ENDBLK
  5
277
  8
0
  0
BLOCK
  8
0
  2
*U30
 70
     1
 10
0.0
 20
0.0
 30
0.0
  3
*U30
  1

  0
TEXT
  5
279
  8
┌▓È_1
  6
CONTINUOUS
 10
1022.7685243328669
 20
-371.38219008760001
 30
0.0
 40
7.1966662884000003
  1
LY-201  120x120
  0
ENDBLK
  5
27B
  8
0
  0
BLOCK
  8
0
  2
*D31
 70
     1
 10
0.0
 20
0.0
 30
0.0
  3
*D31
  1

  0
LINE
  5
27E
  8
Éíû@É³
 62
     0
 10
778.30824089110001
 20
-229.98061154699991
 30
0.0
 11
721.31881902436953
 21
-229.980611547
 31
0.0
  0
LINE
  5
27F
  8
Éíû@É³
 62
     0
 10
662.87074089110013
 20
-114.543111547
 30
0.0
 11
662.87074089110001
 21
-171.53253341373039
 31
0.0
  0
ARC
  5
280
  8
Éíû@É³
 62
     0
 10
662.87074089110001
 20
-229.980611547
 30
0.0
 40
59.698078133269583
 50
5.7609816678097321
 51
38.052154491734179
  0
ARC
  5
281
  8
Éíû@É³
 62
     0
 10
662.87074089110001
 20
-229.980611547
 30
0.0
 40
59.698078133269583
 50
55.75477065488149
 51
84.239018332190298
  0
SOLID
  5
282
  8
Éíû@É³
 62
     0
 10
723.26603830635906
 20
-223.9379395161165
 30
0.0
 11
721.26856525407322
 21
-224.03844526416771
 31
0.0
 12
722.56881902436953
 22
-229.980611547
 32
0.0
 13
722.56881902436953
 23
-229.980611547
 33
0.0
  0
SOLID
  5
283
  8
Éíû@É³
 62
     0
 10
668.81290717393244
 20
-171.58278718402681
 30
0.0
 11
668.91341292198354
 21
-169.5853141317408
 31
0.0
 12
662.87074089110001
 22
-170.28253341373039
 32
0.0
 13
662.87074089110001
 23
-170.28253341373039
 33
0.0
  0
TEXT
  8
Éíû@É³
  40
5.99722
  5
2EB
  62
0
  72
0
  71
0
 10
691.664
 20
-197.004
 30
0.000000
  1
90üï
  0
POINT
  5
285
  8
Defpoints
 62
     0
 10
662.87074089110001
 20
-229.980611547
 30
0.0
  0
POINT
  5
286
  8
Defpoints
 62
     0
 10
778.3707408910999
 20
-229.980611547
 30
0.0
  0
POINT
  5
287
  8
Defpoints
 62
     0
 10
662.87074089110001
 20
-114.480611547
 30
0.0
  0
POINT
  5
288
  8
Defpoints
 62
     0
 10
714.57079311161988
 20
-200.13157248036521
 30
0.0
  0
ENDBLK
  5
28A
  8
0
  0
BLOCK
  8
0
  2
*D32
 70
     1
 10
0.0
 20
0.0
 30
0.0
  3
*D32
  1

  0
LINE
  5
28C
  8
Éíû@É³
 62
     0
 10
989.38630160912408
 20
-157.88283468317579
 30
0.0
 11
1015.761026590808
 21
-131.5081097014922
 31
0.0
  0
LINE
  5
28D
  8
Éíû@É³
 62
     0
 10
945.73725308967585
 20
-157.88283468317579
 30
0.0
 11
919.36252810799215
 21
-131.5081097014922
 31
0.0
  0
ARC
  5
28E
  8
Éíû@É³
 62
     0
 10
967.56177734940002
 20
-179.70735894289999
 30
0.0
 40
66.914031973400014
 50
50.139280042564451
 51
82.109666307319898
  0
ARC
  5
28F
  8
Éíû@É³
 62
     0
 10
967.56177734940002
 20
-179.70735894289999
 30
0.0
 40
66.914031973400014
 50
97.890333692680116
 51
129.86071995743549
  0
SOLID
  5
290
  8
Éíû@É³
 62
     0
 10
1011.123249081804
 20
-127.6057337206738
 30
0.0
 11
1009.773861908221
 21
-129.0819295937778
 31
0.0
 12
1014.877143114325
 22
-132.39199317797539
 32
0.0
 13
1014.877143114325
 23
-132.39199317797539
 33
0.0
  0
SOLID
  5
291
  8
Éíû@É³
 62
     0
 10
925.34969279057873
 20
-129.0819295937778
 30
0.0
 11
924.00030561699566
 21
-127.6057337206738
 31
0.0
 12
920.24641158447525
 22
-132.39199317797539
 32
0.0
 13
920.24641158447525
 23
-132.39199317797539
 33
0.0
  0
TEXT
  8
Éíû@É³
  40
5.99722
  5
2EC
  62
0
  72
0
  71
0
 10
955.567
 20
-123.408
 30
0.000000
  1
90üï
  0
POINT
  5
293
  8
Defpoints
 62
     0
 10
967.56177734940002
 20
-179.70735894289999
 30
0.0
  0
POINT
  5
294
  8
Defpoints
 62
     0
 10
989.34210743530002
 20
-157.92702885700001
 30
0.0
  0
POINT
  5
295
  8
Defpoints
 62
     0
 10
945.78144726350001
 20
-157.92702885700001
 30
0.0
  0
POINT
  5
296
  8
Defpoints
 62
     0
 10
984.88040320871505
 20
-115.0733673186604
 30
0.0
  0
ENDBLK
  5
298
  8
0
  0
BLOCK
  8
0
  2
*D33
 70
     1
 10
0.0
 20
0.0
 30
0.0
  3
*D33
  1

  0
LINE
  5
29A
  8
Éíû@É³
 62
     0
 10
945.73725308967573
 20
-181.531883202524
 30
0.0
 11
927.50361840226878
 21
-199.76551788984719
 31
0.0
  0
LINE
  5
29B
  8
Éíû@É³
 62
     0
 10
989.3863016091243
 20
-181.531883202524
 30
0.0
 11
1007.619936296531
 21
-199.76551788984719
 31
0.0
  0
ARC
  5
29C
  8
Éíû@É³
 62
     0
 10
967.56177734940002
 20
-159.70735894289999
 30
0.0
 40
55.400791666599993
 50
231.20826703121421
 51
260.4559369102675
  0
ARC
  5
29D
  8
Éíû@É³
 62
     0
 10
967.56177734940002
 20
-159.70735894289999
 30
0.0
 40
55.400791666599993
 50
279.5440630897325
 51
308.79173296878582
  0
SOLID
  5
29E
  8
Éíû@É³
 62
     0
 10
932.18588136648395
 20
-203.6326672765646
 30
0.0
 11
933.52143907953587
 21
-202.14394782847921
 31
0.0
 12
928.38750187875382
 22
-198.88163441336599
 32
0.0
 13
928.38750187875382
 23
-198.88163441336599
 33
0.0
  0
SOLID
  5
29F
  8
Éíû@É³
 62
     0
 10
1001.6021156192641
 20
-202.1439478284793
 30
0.0
 11
1002.937673332316
 21
-203.6326672765646
 31
0.0
 12
1006.736052820046
 22
-198.8816344133661
 32
0.0
 13
1006.736052820046
 23
-198.8816344133661
 33
0.0
  0
TEXT
  8
Éíû@É³
  40
5.99722
  5
2ED
  62
0
  72
0
  71
0
 10
955.567
 20
-225.723
 30
0.000000
  1
90üï
  0
POINT
  5
2A1
  8
Defpoints
 62
     0
 10
967.56177734940002
 20
-159.70735894289999
 30
0.0
  0
POINT
  5
2A2
  8
Defpoints
 62
     0
 10
945.78144726350001
 20
-181.48768902869989
 30
0.0
  0
POINT
  5
2A3
  8
Defpoints
 62
     0
 10
989.34210743530002
 20
-181.48768902869989
 30
0.0
  0
POINT
  5
2A4
  8
Defpoints
 62
     0
 10
953.22299735228592
 20
-213.22041441051809
 30
0.0
  0
ENDBLK
  5
2A6
  8
0
  0
BLOCK
  8
0
  2
*U34
 70
     1
 10
0.0
 20
0.0
 30
0.0
  3
*U34
  1

  0
TEXT
  5
2A8
  8
┌▓È_1
  6
CONTINUOUS
 10
945.74897163022536
 20
-236.15560947422739
 30
0.0
 40
5.9972220420999998
  1
ÄMâéâ~òöègæÕÉ}
  0
ENDBLK
  5
2AA
  8
0
  0
BLOCK
  8
0
  2
*U35
 70
     1
 10
0.0
 20
0.0
 30
0.0
  3
*U35
  1

  0
TEXT
  5
2AC
  8
┌▓È_1
  6
CONTINUOUS
 10
871.45889193269988
 20
-356.44557971225788
 30
0.0
 40
7.1966662884000003
  1
ò\û╩ÅêùØüFâåâjâNâìâüâbâLÄdÅÒé░
  0
ENDBLK
  5
2AE
  8
0
  0
BLOCK
  8
0
  2
*U36
 70
     1
 10
0.0
 20
0.0
 30
0.0
  3
*U36
  1

  0
TEXT
  5
2B0
  8
┌▓È_1
  6
CONTINUOUS
 10
885.89999938229994
 20
-405.79284804552731
 30
0.0
 40
8.6359998702999992
  1
èöÄ«ë´Äð
  0
ENDBLK
  5
2B2
  8
0
  0
BLOCK
  8
0
  2
*U37
 70
     1
 10
0.0
 20
0.0
 30
0.0
  3
*U37
  1

  0
TEXT
  5
2B4
  8
┌▓È_1
  6
CONTINUOUS
 10
1001.2398908401
 20
-382.52981658323608
 30
0.0
 40
4.6749999999999989
  1
òiû╝
  0
ENDBLK
  5
2B6
  8
0
  0
BLOCK
  8
0
  2
*U38
 70
     1
 10
0.0
 20
0.0
 30
0.0
  3
*U38
  1

  0
TEXT
  5
2B8
  8
┌▓È_1
  6
CONTINUOUS
 10
1001.2398908401
 20
-399.48235465430213
 30
0.0
 40
4.6749999999999989
  1
É}öÈ
  0
ENDBLK
  5
2BA
  8
0
  0
BLOCK
  8
0
  2
*U39
 70
     1
 10
0.0
 20
0.0
 30
0.0
  3
*U39
  1

  0
TEXT
  5
2BC
  8
┌▓È_1
  6
CONTINUOUS
 62
     5
 10
879.8293868565579
 20
-373.87403513260011
 30
0.0
 40
4.6749999999999989
  1
H16.4
  0
ENDBLK
  5
2BE
  8
0
  0
BLOCK
  8
0
  2
*U40
 70
     1
 10
0.0
 20
0.0
 30
0.0
  3
*U40
  1

  0
TEXT
  5
2C0
  8
┌▓È_1
  6
CONTINUOUS
 62
     5
 10
916.65863812559337
 20
-374.15880670620407
 30
0.0
 40
4.6749999999999989
  1
ôS
  0
ENDBLK
  5
2C2
  8
0
  0
BLOCK
  8
0
  2
*U41
 70
     1
 10
0.0
 20
0.0
 30
0.0
  3
*U41
  1

  0
TEXT
  5
2C4
  8
┌▓È_1
  6
CONTINUOUS
 62
     5
 10
945.46682340478117
 20
-373.87403513260011
 30
0.0
 40
4.6749999999999989
  1
4.5t
  0
ENDBLK
  5
2C6
  8
0
  0
BLOCK
  8
0
  2
*U42
 70
     1
 10
0.0
 20
0.0
 30
0.0
  3
*U42
  1

  0
TEXT
  5
2C8
  8
┌▓È_1
  6
CONTINUOUS
 62
     5
 10
945.25324472457805
 20
-390.87403513260011
 30
0.0
 40
4.6749999999999989
  1
1üF2
  0
ENDBLK
  5
2CA
  8
0
  0
BLOCK
  8
0
  2
*U43
 70
     1
 10
0.0
 20
0.0
 30
0.0
  3
*U43
  1

  0
TEXT
  5
2CC
  8
┌▓È_1
  6
CONTINUOUS
 10
904.38966355529999
 20
-365.5401518838691
 30
0.0
 40
4.6749999999999989
  1
ü@ìÌ ü@Ä┐
  0
ENDBLK
  5
2CE
  8
0
  0
BLOCK
  8
0
  2
*U44
 70
     1
 10
0.0
 20
0.0
 30
0.0
  3
*U44
  1

  0
TEXT
  5
2D0
  8
┌▓È_1
  6
CONTINUOUS
 10
936.38966355529999
 20
-365.63507574173713
 30
0.0
 40
4.6749999999999989
  1
ü@ö┬ ü@î·
  0
ENDBLK
  5
2D2
  8
0
  0
BLOCK
  8
0
  2
*U45
 70
     1
 10
0.0
 20
0.0
 30
0.0
  3
*U45
  1

  0
TEXT
  5
2D4
  8
┌▓È_1
  6
CONTINUOUS
 10
936.38966355529999
 20
-382.61134477727012
 30
0.0
 40
4.6749999999999989
  1
ü@Ä┌ ü@ôx
  0
ENDBLK
  5
2D6
  8
0
  0
BLOCK
  8
0
  2
*U46
 70
     1
 10
0.0
 20
0.0
 30
0.0
  3
*U46
  1

  0
TEXT
  5
2D8
  8
┌▓È_1
  6
CONTINUOUS
 10
968.38966355529988
 20
-365.63507574173713
 30
0.0
 40
4.6749999999999989
  1
ü@îƒ ü@ê¾
  0
ENDBLK
  5
2DA
  8
0
  0
BLOCK
  8
0
  2
*U47
 70
     1
 10
0.0
 20
0.0
 30
0.0
  3
*U47
  1

  0
TEXT
  5
2DC
  8
┌▓È_1
  6
CONTINUOUS
 10
871.45889193269988
 20
-382.63507574173713
 30
0.0
 40
4.6749999999999989
  1
 É¦îvü@ü@öÆÉ{ëÛ
  0
ENDBLK
  5
2DE
  8
0
  0
BLOCK
  8
0
  2
*U48
 70
     1
 10
0.0
 20
0.0
 30
0.0
  3
*U48
  1

  0
TEXT
  5
2E0
  8
┌▓È_1
  6
CONTINUOUS
 10
871.45889193269988
 20
-391.15880670620407
 30
0.0
 40
4.6749999999999989
  1
 É╗É}ü@ü@ è¦û{
  0
ENDBLK
  5
2E2
  8
0
  0
BLOCK
  8
0
  2
*U49
 70
     1
 10
0.0
 20
0.0
 30
0.0
  3
*U49
  1

  0
TEXT
  5
2E4
  8
┌▓È_1
  6
CONTINUOUS
 10
872.38966355529999
 20
-365.46895899046808
 30
0.0
 40
4.6749999999999989
  1
ü@ô· ü@òt
  0
ENDBLK
  5
2E6
  8
0
  0
BLOCK
  8
0
  2
*U50
 70
     1
 10
0.0
 20
0.0
 30
0.0
  3
*U50
  1

  0
TEXT
  5
2E8
  8
┌▓È_1
  6
CONTINUOUS
 10
1001.2398908401
 20
-365.48235465430213
 30
0.0
 40
4.6749999999999989
  1
î^öÈ
  0
ENDBLK
  5
2EA
  8
0
  0
ENDSEC
  0
SECTION
  2
ENTITIES
  0
DIMENSION
  5
3E
  8
Éíû@É³
  2
*D0
 10
872.10606901609992
 20
-80.253913565600001
 30
0.0
 11
856.10606901609992
 21
-80.253913565600001
 31
0.0
 70
   128
  1
<>
 13
872.10606901609992
 23
-114.480611547
 33
0.0
 14
840.10606901609992
 24
-114.480611547
 34
0.0
  0
DIMENSION
  5
4D
  8
Éíû@É³
  2
*D1
 10
820.10606901610004
 20
-204.480611547
 30
0.0
 11
820.10606901610004
 21
-219.480611547
 31
0.0
 70
   128
  1
<>
 13
855.10606901610004
 23
-204.480611547
 33
0.0
 14
840.10606901609992
 24
-234.480611547
 34
0.0
 50
90.0
  0
DIMENSION
  5
5C
  8
Éíû@É³
  2
*D2
 10
820.10606901610004
 20
-126.480611547
 30
0.0
 11
820.10606901610004
 21
-165.480611547
 31
0.0
 70
   128
  1
<>
 13
845.10606901610004
 23
-126.480611547
 33
0.0
 14
855.10606901610004
 24
-204.480611547
 34
0.0
 50
90.0
  0
DIMENSION
  5
6B
  8
Éíû@É³
  2
*D3
 10
820.10606901610004
 20
-114.480611547
 30
0.0
 11
820.10606901610004
 21
-120.480611547
 31
0.0
 70
   128
  1
<>
 13
840.10606901609992
 23
-114.480611547
 33
0.0
 14
845.10606901610004
 24
-126.480611547
 34
0.0
 50
90.0
  0
DIMENSION
  5
7A
  8
Éíû@É³
  2
*D4
 10
798.37074089110001
 20
-329.1283329012
 30
0.0
 11
798.37074089110001
 21
-323.6283329012
 31
0.0
 70
   128
  1
<>
 13
694.37074089110001
 23
-329.1283329012
 33
0.0
 14
778.3707408910999
 24
-318.1283329012
 34
0.0
 50
90.0
  0
DIMENSION
  5
89
  8
Éíû@É³
  2
*D5
 10
798.37074089110001
 20
-339.1283329012
 30
0.0
 11
798.37074089110001
 21
-334.1283329012
 31
0.0
 70
   128
  1
<>
 13
772.37074089110001
 23
-339.1283329012
 33
0.0
 14
694.37074089110001
 24
-329.1283329012
 34
0.0
 50
90.0
  0
DIMENSION
  5
98
  8
Éíû@É³
  2
*D6
 10
798.37074089110001
 20
-350.12833290120011
 30
0.0
 11
798.37074089110001
 21
-344.6283329012
 31
0.0
 70
   128
  1
<>
 13
778.3707408910999
 23
-350.12833290120011
 33
0.0
 14
772.37074089110001
 24
-339.1283329012
 34
0.0
 50
90.0
  0
DIMENSION
  5
A7
  8
Éíû@É³
  2
*D7
 10
688.37074089110001
 20
-298.1283329012
 30
0.0
 11
673.37074089110001
 21
-298.1283329012
 31
0.0
 70
   128
  1
<>
 13
688.37074089110001
 23
-323.1283329012
 33
0.0
 14
658.37074089110001
 24
-318.1283329012
 34
0.0
  0
DIMENSION
  5
B6
  8
Éíû@É³
  2
*D8
 10
766.37074089110001
 20
-298.1283329012
 30
0.0
 11
727.37074089110001
 21
-298.1283329012
 31
0.0
 70
   128
  1
<>
 13
766.37074089110001
 23
-333.1283329012
 33
0.0
 14
688.37074089110001
 24
-323.1283329012
 34
0.0
  0
DIMENSION
  5
C5
  8
Éíû@É³
  2
*D9
 10
778.3707408910999
 20
-298.1283329012
 30
0.0
 11
772.37074089110001
 21
-298.1283329012
 31
0.0
 70
   128
  1
<>
 13
778.3707408910999
 23
-318.1283329012
 33
0.0
 14
766.37074089110001
 24
-333.1283329012
 34
0.0
  0
LINE
  5
C7
  8
┌▓È_1
 62
     5
 10
561.45889193269988
 20
-410.28796831789998
 30
0.0
 11
1111.4588919327
 21
-410.28796831789998
 31
0.0
  0
LINE
  5
C8
  8
┌▓È_1
 62
     5
 10
1111.4588919327
 20
-410.28796831789998
 30
0.0
 11
1111.4588919327
 21
-30.287968317899999
 31
0.0
  0
INSERT
  5
C9
  8
0
  6
CONTINUOUS
  2
*U29
 10
0.0
 20
0.0
 30
0.0
  0
LINE
  5
CA
  8
┌▓È_1
 10
871.45889193269988
 20
-359.28796831789998
 30
0.0
 11
1111.4588919327
 21
-359.28796831789998
 31
0.0
  0
LINE
  5
CB
  8
┌▓È_1
 10
871.45889193269988
 20
-393.28796831789998
 30
0.0
 11
1111.4588919327
 21
-393.28796831789998
 31
0.0
  0
LINE
  5
CC
  8
┌▓È_1
 62
     5
 10
951.05329466470005
 20
-398.43169157080001
 30
0.0
 11
953.45329466470014
 21
-396.03169157079998
 31
0.0
  0
LINE
  5
CD
  8
┌▓È_1
 62
     5
 10
939.8532946647
 20
-404.03169157079998
 30
0.0
 11
943.85329466469989
 21
-404.03169157079998
 31
0.0
  0
LINE
  5
CE
  8
┌▓È_1
 62
     5
 10
972.11026436169993
 20
-396.03169157079998
 30
0.0
 11
957.71026436169996
 21
-396.03169157079998
 31
0.0
  0
LINE
  5
CF
  8
┌▓È_1
 62
     5
 10
984.18777956860004
 20
-398.75169157080001
 30
0.0
 11
983.95354876820011
 21
-397.93772534610002
 31
0.0
  0
INSERT
  5
D0
  8
0
  6
CONTINUOUS
  2
*U30
 10
0.0
 20
0.0
 30
0.0
  0
DIMENSION
  5
DE
  8
Éíû@É³
  2
*D31
 10
714.57079311161988
 20
-200.13157248036521
 30
0.0
 11
703.65823769970007
 21
-186.3888619045
 31
0.0
 70
   133
  1
<>
 13
662.87074089110001
 23
-114.480611547
 33
0.0
 14
778.3707408910999
 24
-229.980611547
 34
0.0
 15
662.87074089110001
 25
-229.980611547
 35
0.0
1001
ACAD
1000
DSTYLE
1002
{
1070
   271
1070
     0
1002
}
  0
DIMENSION
  5
EB
  8
Éíû@É³
  2
*D32
 10
984.88040320871505
 20
-115.0733673186604
 30
0.0
 11
967.56177734940002
 21
-112.7933269695
 31
0.0
 70
   133
  1
<>
 13
945.78144726350001
 23
-157.92702885700001
 33
0.0
 14
989.34210743530002
 24
-157.92702885700001
 34
0.0
 15
967.56177734940002
 25
-179.70735894289999
 35
0.0
1001
ACAD
1000
DSTYLE
1002
{
1070
   271
1070
     0
1002
}
  0
DIMENSION
  5
F8
  8
Éíû@É³
  2
*D33
 10
953.22299735228592
 20
-213.22041441051809
 30
0.0
 11
967.56177734940002
 21
-215.1081506095
 31
0.0
 70
   133
  1
<>
 13
989.34210743530002
 23
-181.48768902869989
 33
0.0
 14
945.78144726350001
 24
-181.48768902869989
 34
0.0
 15
967.56177734940002
 25
-159.70735894289999
 35
0.0
1001
ACAD
1000
DSTYLE
1002
{
1070
   271
1070
     0
1002
}
  0
DIMENSION
  5
108
  8
Éíû@É³
  2
*D13
 10
640.00033073480006
 20
-318.1283329012
 30
0.0
 11
640.00033073480006
 21
-334.1283329012
 31
0.0
 70
   128
  1
<>
 13
658.37074089110001
 23
-318.1283329012
 33
0.0
 14
658.37074089110001
 24
-350.12833290120011
 34
0.0
 50
90.0
  0
DIMENSION
  5
117
  8
Éíû@É³
  2
*D14
 10
658.37074089110001
 20
-252.29782842020001
 30
0.0
 11
718.37074089110001
 21
-252.29782842020001
 31
0.0
 70
   128
  1
<>
 13
658.37074089110001
 23
-229.980611547
 33
0.0
 14
778.3707408910999
 24
-234.480611547
 34
0.0
 50
180.0
  0
DIMENSION
  5
126
  8
Éíû@É³
  2
*D15
 10
640.55352401790003
 20
-114.480611547
 30
0.0
 11
640.55352401790003
 21
-174.480611547
 31
0.0
 70
   128
  1
<>
 13
658.37074089110001
 23
-114.480611547
 33
0.0
 14
662.87074089110001
 24
-234.480611547
 34
0.0
 50
90.0
  0
DIMENSION
  5
135
  8
Éíû@É³
  2
*D16
 10
980.06177734940002
 20
-140.77031264659999
 30
0.0
 11
967.56177734940002
 21
-140.77031264659999
 31
0.0
 70
   128
  1
%%c5
 13
980.06177734940002
 23
-167.20735894289999
 33
0.0
 14
955.06177734940002
 24
-167.20735894289999
 34
0.0
  0
DIMENSION
  5
144
  8
Éíû@É³
  2
*D17
 10
946.3117773493999
 20
-199.36406264659999
 30
0.0
 11
967.56177734940002
 21
-199.36406264659999
 31
0.0
 70
   128
  1
%%c8.5
 13
946.3117773493999
 23
-180.95735894289999
 33
0.0
 14
988.81177734940002
 24
-180.95735894289999
 34
0.0
 50
180.0
  0
DIMENSION
  5
153
  8
Éíû@É³
  2
*D18
 10
988.81177734940002
 20
-125.8774214429
 30
0.0
 11
967.56177734940002
 21
-125.8774214429
 31
0.0
 70
   128
  1
%%c8.5
 13
988.81177734940002
 23
-158.45735894289999
 33
0.0
 14
946.3117773493999
 24
-158.45735894289999
 34
0.0
  0
INSERT
  5
154
  8
0
  6
CONTINUOUS
  2
*U34
 10
0.0
 20
0.0
 30
0.0
  0
LINE
  5
155
  8
┌▓È_1
 10
941.19474219309996
 20
-238.7955855054
 30
0.0
 11
1002.6038481147
 21
-238.7955855054
 31
0.0
  0
DIMENSION
  5
164
  8
Éíû@É³
  2
*D19
 10
662.87074089110001
 20
-90.333132016200025
 30
0.0
 11
673.33026780080002
 21
-90.333132016200025
 31
0.0
 70
   128
  1
<>t
 13
662.87074089110001
 23
-114.480611547
 33
0.0
 14
658.37074089110001
 24
-114.480611547
 34
0.0
  0
DIMENSION
  5
173
  8
Éíû@É³
  2
*D20
 10
851.10606901610004
 20
-94.480611547000009
 30
0.0
 11
845.60606901610015
 21
-94.480611547000009
 31
0.0
 70
   128
  1
<>
 13
851.10606901610004
 23
-120.480611547
 33
0.0
 14
840.10606901609992
 24
-114.480611547
 34
0.0
  0
DIMENSION
  5
182
  8
Éíû@É³
  2
*D21
 10
861.10606901610004
 20
-94.480611547000009
 30
0.0
 11
856.10606901609992
 21
-94.480611547000009
 31
0.0
 70
   128
  1
<>
 13
861.10606901610004
 23
-198.480611547
 33
0.0
 14
851.10606901610004
 24
-120.480611547
 34
0.0
  0
DIMENSION
  5
191
  8
Éíû@É³
  2
*D22
 10
872.10606901609992
 20
-94.480611547000009
 30
0.0
 11
866.60606901610004
 21
-94.480611547000009
 31
0.0
 70
   128
  1
<>
 13
872.10606901609992
 23
-114.480611547
 33
0.0
 14
861.10606901610004
 24
-198.480611547
 34
0.0
  0
LINE
  5
192
  8
┌▓È_1
 62
     5
 10
939.8532946647
 20
-407.23169157079991
 30
0.0
 11
946.25329466469998
 21
-407.23169157079991
 31
0.0
  0
LINE
  5
193
  8
┌▓È_1
 62
     5
 10
970.51026436169991
 20
-398.43169157080001
 30
0.0
 11
972.11026436169993
 21
-396.03169157079998
 31
0.0
  0
LINE
  5
194
  8
┌▓È_1
 62
     5
 10
978.85823659890002
 20
-396.03169157079998
 30
0.0
 11
985.2582365989
 21
-396.03169157079998
 31
0.0
  0
LINE
  5
195
  8
┌▓È_1
 62
     5
 10
957.71026436169996
 20
-404.83169157079999
 30
0.0
 11
959.63026436170014
 21
-404.83169157079999
 31
0.0
  0
LINE
  5
196
  8
┌▓È_1
 62
     5
 10
957.71026436169996
 20
-404.83169157079999
 30
0.0
 11
957.71026436169996
 21
-407.23169157079991
 31
0.0
  0
INSERT
  5
197
  8
0
  6
CONTINUOUS
  2
*U35
 10
0.0
 20
0.0
 30
0.0
  0
LINE
  5
198
  8
┌▓È_1
 62
     5
 10
968.69061532499995
 20
-403.79030150519992
 30
0.0
 11
968.4056520293999
 21
-404.0693065358999
 31
0.0
  0
LINE
  5
199
  8
┌▓È_1
 62
     5
 10
939.8532946647
 20
-401.63169157079989
 30
0.0
 11
939.8532946647
 21
-404.03169157079998
 31
0.0
  0
INSERT
  5
19A
  8
0
  6
CONTINUOUS
  2
*U36
 10
0.0
 20
0.0
 30
0.0
  0
LINE
  5
19B
  8
┌▓È_1
 62
     5
 10
984.18777956860004
 20
-398.75169157080001
 30
0.0
 11
990.05823659889995
 21
-398.75169157080001
 31
0.0
  0
LINE
  5
19C
  8
┌▓È_1
 10
871.45889193269988
 20
-359.28796831789998
 30
0.0
 11
871.45889193269988
 21
-410.28796831789998
 31
0.0
  0
LINE
  5
19D
  8
┌▓È_1
 10
999.4588919327
 20
-359.28796831789998
 30
0.0
 11
999.4588919327
 21
-410.28796831789998
 31
0.0
  0
LINE
  5
19E
  8
┌▓È_1
 10
903.45889193269988
 20
-359.28796831789998
 30
0.0
 11
903.45889193269988
 21
-376.28796831789998
 31
0.0
  0
LINE
  5
19F
  8
┌▓È_1
 10
967.4588919327
 20
-359.28796831789998
 30
0.0
 11
967.4588919327
 21
-393.28796831789998
 31
0.0
  0
LINE
  5
1A0
  8
┌▓È_1
 62
     5
 10
975.65823659889998
 20
-398.75169157080001
 30
0.0
 11
975.65823659889998
 21
-401.63169157079989
 31
0.0
  0
LINE
  5
1A1
  8
┌▓È_1
 62
     5
 10
951.05329466470005
 20
-402.4316915707999
 30
0.0
 11
951.05329466470005
 21
-401.63169157079989
 31
0.0
  0
LINE
  5
1A2
  8
┌▓È_1
 62
     5
 10
957.71026436169996
 20
-399.74706799879999
 30
0.0
 11
964.11026436169993
 21
-399.74706799879999
 31
0.0
  0
LINE
  5
1A3
  8
┌▓È_1
 62
     5
 10
964.96836434839986
 20
-401.66220501899988
 30
0.0
 11
964.58341105830004
 21
-402.0873863958999
 31
0.0
  0
ARC
  5
1A4
  8
┌▓È_1
 62
     5
 10
944.65329466469996
 20
-402.4316915707999
 30
0.0
 40
2.399999999999999
 50
270.0
 51
0.0
  0
LINE
  5
1A5
  8
┌▓È_1
 62
     5
 10
947.05329466470005
 20
-396.03169157079998
 30
0.0
 11
947.05329466470005
 21
-399.23169157080002
 31
0.0
  0
LINE
  5
1A6
  8
┌▓È_1
 62
     5
 10
985.0165420953
 20
-401.63169157079989
 30
0.0
 11
990.05823659889995
 21
-401.63169157079989
 31
0.0
  0
LINE
  5
1A7
  8
┌▓È_1
 62
     5
 10
970.51026436169991
 20
-398.43169157080001
 30
0.0
 11
972.11026436169993
 21
-396.03169157079998
 31
0.0
  0
LINE
  5
1A8
  8
┌▓È_1
 62
     5
 10
561.45889193269988
 20
-410.28796831789998
 30
0.0
 11
561.45889193269988
 21
-30.287968317899999
 31
0.0
  0
LINE
  5
1A9
  8
┌▓È_1
 10
999.4588919327
 20
-376.28796831789998
 30
0.0
 11
1111.4588919327
 21
-376.28796831789998
 31
0.0
  0
LINE
  5
1AA
  8
┌▓È_1
 62
     5
 10
561.45889193269988
 20
-30.287968317899999
 30
0.0
 11
1111.4588919327
 21
-30.287968317899999
 31
0.0
  0
LINE
  5
1AB
  8
┌▓È_1
 62
     5
 10
944.65329466469996
 20
-404.83169157079999
 30
0.0
 11
939.8532946647
 21
-404.83169157079999
 31
0.0
  0
LINE
  5
1AC
  8
┌▓È_1
 62
     5
 10
982.3782365989
 20
-408.03169157079998
 30
0.0
 11
981.72116993229986
 21
-405.79169157080003
 31
0.0
  0
LINE
  5
1AD
  8
┌▓È_1
 62
     5
 10
985.38488099599999
 20
-402.91169157079997
 30
0.0
 11
985.0165420953
 21
-401.63169157079989
 31
0.0
  0
LINE
  5
1AE
  8
┌▓È_1
 62
     5
 10
939.8532946647
 20
-404.83169157079999
 30
0.0
 11
939.8532946647
 21
-407.23169157079991
 31
0.0
  0
LINE
  5
1AF
  8
┌▓È_1
 62
     5
 10
939.8532946647
 20
-401.63169157079989
 30
0.0
 11
939.61152856619981
 21
-401.63169157079989
 31
0.0
  0
LINE
  5
1B0
  8
┌▓È_1
 62
     5
 10
980.87636993230001
 20
-402.91169157079997
 30
0.0
 11
980.50090326559996
 21
-401.63169157079989
 31
0.0
  0
LINE
  5
1B1
  8
┌▓È_1
 62
     5
 10
990.05823659889995
 20
-402.91169157079997
 30
0.0
 11
990.05823659889995
 21
-405.79169157080003
 31
0.0
  0
LINE
  5
1B2
  8
┌▓È_1
 62
     5
 10
939.8532946647
 20
-399.23169157080002
 30
0.0
 11
938.01152856619979
 21
-399.23169157080002
 31
0.0
  0
LINE
  5
1B3
  8
┌▓È_1
 62
     5
 10
957.71026436169996
 20
-407.23169157079991
 30
0.0
 11
957.71026436169996
 21
-404.83169157079999
 31
0.0
  0
LINE
  5
1B4
  8
┌▓È_1
 62
     5
 10
943.85329466469989
 20
-399.23169157080002
 30
0.0
 11
943.85329466469989
 21
-398.43169157080001
 31
0.0
  0
LINE
  5
1B5
  8
┌▓È_1
 62
     5
 10
975.65823659889998
 20
-405.79169157080003
 30
0.0
 11
981.72116993229986
 21
-405.79169157080003
 31
0.0
  0
ARC
  5
1B6
  8
┌▓È_1
 62
     5
 10
961.71026436169996
 20
-398.43169157080001
 30
0.0
 40
8.8000000000000007
 50
322.48761197969998
 51
0.0
  0
LINE
  5
1B7
  8
┌▓È_1
 62
     5
 10
985.38488099599999
 20
-402.91169157079997
 30
0.0
 11
990.05823659889995
 21
-402.91169157079997
 31
0.0
  0
LINE
  5
1B8
  8
┌▓È_1
 62
     5
 10
986.85823659890002
 20
-408.03169157079998
 30
0.0
 11
986.2136435225998
 21
-405.79169157080003
 31
0.0
  0
LINE
  5
1B9
  8
┌▓È_1
 62
     5
 10
943.85329466469989
 20
-401.63169157079989
 30
0.0
 11
947.05329466470005
 21
-401.63169157079989
 31
0.0
  0
LINE
  5
1BA
  8
┌▓È_1
 62
     5
 10
947.05329466470005
 20
-401.63169157079989
 30
0.0
 11
947.05329466470005
 21
-402.4316915707999
 31
0.0
  0
LINE
  5
1BB
  8
┌▓È_1
 62
     5
 10
975.65823659889998
 20
-398.75169157080001
 30
0.0
 11
979.65610326559988
 21
-398.75169157080001
 31
0.0
  0
LINE
  5
1BC
  8
┌▓È_1
 62
     5
 10
951.05329466470005
 20
-399.23169157080002
 30
0.0
 11
951.05329466470005
 21
-398.43169157080001
 31
0.0
  0
LINE
  5
1BD
  8
┌▓È_1
 62
     5
 10
953.45329466470014
 20
-399.23169157080002
 30
0.0
 11
951.05329466470005
 21
-399.23169157080002
 31
0.0
  0
LINE
  5
1BE
  8
┌▓È_1
 62
     5
 10
975.65823659889998
 20
-402.91169157079997
 30
0.0
 11
980.87636993230001
 21
-402.91169157079997
 31
0.0
  0
LINE
  5
1BF
  8
┌▓È_1
 62
     5
 10
938.01152856619979
 20
-401.63169157079989
 30
0.0
 11
939.61152856619981
 21
-401.63169157079989
 31
0.0
  0
ARC
  5
1C0
  8
┌▓È_1
 62
     5
 10
961.71026436169996
 20
-398.43169157080001
 30
0.0
 40
8.8000000000000007
 50
270.0
 51
302.54495885400001
  0
LINE
  5
1C1
  8
┌▓È_1
 62
     5
 10
951.05329466470005
 20
-401.63169157079989
 30
0.0
 11
953.45329466470014
 21
-401.63169157079989
 31
0.0
  0
ARC
  5
1C2
  8
┌▓È_1
 62
     5
 10
959.63026436170014
 20
-398.75169157080001
 30
0.0
 40
6.0800000000000001
 50
331.39928138329998
 51
358.49204224580001
  0
LINE
  5
1C3
  8
┌▓È_1
 62
     5
 10
957.71026436169996
 20
-407.23169157079991
 30
0.0
 11
961.71026436169996
 21
-407.23169157079991
 31
0.0
  0
INSERT
  5
1C4
  8
0
  6
CONTINUOUS
  2
*U37
 10
0.0
 20
0.0
 30
0.0
  0
INSERT
  5
1C5
  8
0
  6
CONTINUOUS
  2
*U38
 10
0.0
 20
0.0
 30
0.0
  0
INSERT
  5
1C6
  8
0
  6
CONTINUOUS
  2
*U39
 10
0.0
 20
0.0
 30
0.0
  0
INSERT
  5
1C7
  8
0
  6
CONTINUOUS
  2
*U40
 10
0.0
 20
0.0
 30
0.0
  0
INSERT
  5
1C8
  8
0
  6
CONTINUOUS
  2
*U41
 10
0.0
 20
0.0
 30
0.0
  0
ARC
  5
1C9
  8
┌▓È_1
 62
     5
 10
959.63026436170014
 20
-398.75169157080001
 30
0.0
 40
6.0800000000000001
 50
270.0
 51
298.08590481520002
  0
INSERT
  5
1CA
  8
0
  6
CONTINUOUS
  2
*U42
 10
0.0
 20
0.0
 30
0.0
  0
INSERT
  5
1CB
  8
0
  6
CONTINUOUS
  2
*U43
 10
0.0
 20
0.0
 30
0.0
  0
INSERT
  5
1CC
  8
0
  6
CONTINUOUS
  2
*U44
 10
0.0
 20
0.0
 30
0.0
  0
INSERT
  5
1CD
  8
0
  6
CONTINUOUS
  2
*U45
 10
0.0
 20
0.0
 30
0.0
  0
LINE
  5
1CE
  8
┌▓È_1
 62
     5
 10
979.65610326559988
 20
-398.75169157080001
 30
0.0
 11
978.85823659890002
 21
-396.03169157079998
 31
0.0
  0
LINE
  5
1CF
  8
┌▓È_1
 62
     5
 10
939.8532946647
 20
-396.03169157079998
 30
0.0
 11
939.8532946647
 21
-399.23169157080002
 31
0.0
  0
LINE
  5
1D0
  8
┌▓È_1
 62
     5
 10
943.85329466469989
 20
-398.43169157080001
 30
0.0
 11
946.25329466469998
 21
-396.03169157079998
 31
0.0
  0
LINE
  5
1D1
  8
┌▓È_1
 62
     5
 10
946.25329466469998
 20
-396.03169157079998
 30
0.0
 11
939.8532946647
 21
-396.03169157079998
 31
0.0
  0
LINE
  5
1D2
  8
┌▓È_1
 62
     5
 10
947.05329466470005
 20
-399.23169157080002
 30
0.0
 11
943.85329466469989
 21
-399.23169157080002
 31
0.0
  0
LINE
  5
1D3
  8
┌▓È_1
 62
     5
 10
983.95354876820011
 20
-397.93772534610002
 30
0.0
 11
985.2582365989
 21
-396.03169157079998
 31
0.0
  0
ARC
  5
1D4
  8
┌▓È_1
 62
     5
 10
946.25329466469998
 20
-402.4316915707999
 30
0.0
 40
4.7999999999999989
 50
270.0
 51
0.0
  0
LINE
  5
1D5
  8
┌▓È_1
 62
     5
 10
957.71026436169996
 20
-396.03169157079998
 30
0.0
 11
957.71026436169996
 21
-398.91169157079997
 31
0.0
  0
LINE
  5
1D6
  8
┌▓È_1
 62
     5
 10
953.45329466470014
 20
-396.03169157079998
 30
0.0
 11
947.05329466470005
 21
-396.03169157079998
 31
0.0
  0
LINE
  5
1D7
  8
┌▓È_1
 62
     5
 10
986.2136435225998
 20
-405.79169157080003
 30
0.0
 11
990.05823659889995
 21
-405.79169157080003
 31
0.0
  0
LINE
  5
1D8
  8
┌▓È_1
 62
     5
 10
943.85329466469989
 20
-404.03169157079998
 30
0.0
 11
943.85329466469989
 21
-401.63169157079989
 31
0.0
  0
LINE
  5
1D9
  8
┌▓È_1
 62
     5
 10
975.65823659889998
 20
-402.91169157079997
 30
0.0
 11
975.65823659889998
 21
-405.79169157080003
 31
0.0
  0
LINE
  5
1DA
  8
┌▓È_1
 62
     5
 10
975.65823659889998
 20
-401.63169157079989
 30
0.0
 11
980.50090326559996
 21
-401.63169157079989
 31
0.0
  0
LINE
  5
1DB
  8
┌▓È_1
 62
     5
 10
990.05823659889995
 20
-398.75169157080001
 30
0.0
 11
990.05823659889995
 21
-401.63169157079989
 31
0.0
  0
LINE
  5
1DC
  8
┌▓È_1
 62
     5
 10
957.71026436169996
 20
-398.91169157079997
 30
0.0
 11
965.71026436169996
 21
-398.91169157079997
 31
0.0
  0
LINE
  5
1DD
  8
┌▓È_1
 62
     5
 10
658.37074089110001
 20
-318.1283329012
 30
0.0
 11
778.3707408910999
 21
-318.1283329012
 31
0.0
  0
LINE
  5
1DE
  8
┌▓È_1
 62
     5
 10
662.87074089110001
 20
-234.480611547
 30
0.0
 11
778.3707408910999
 21
-234.480611547
 31
0.0
  0
POLYLINE
  8
┌▓È_1
  5
2EE
  62
5
  66
     1
 10
0.000000
 20
0.000000
 30
0.000000
  70
     8
  0
VERTEX
  8
┌▓È_1
  5
2EF
 10
963.205
 20
-400.652
 30
0.000000
  70
    32
  0
VERTEX
  8
┌▓È_1
  5
2F0
 10
963.216
 20
-400.664
 30
0.000000
  70
    32
  0
VERTEX
  8
┌▓È_1
  5
2F1
 10
963.226
 20
-400.676
 30
0.000000
  70
    32
  0
VERTEX
  8
┌▓È_1
  5
2F2
 10
963.237
 20
-400.687
 30
0.000000
  70
    32
  0
VERTEX
  8
┌▓È_1
  5
2F3
 10
963.247
 20
-400.699
 30
0.000000
  70
    32
  0
VERTEX
  8
┌▓È_1
  5
2F4
 10
963.258
 20
-400.711
 30
0.000000
  70
    32
  0
VERTEX
  8
┌▓È_1
  5
2F5
 10
963.269
 20
-400.723
 30
0.000000
  70
    32
  0
VERTEX
  8
┌▓È_1
  5
2F6
 10
963.279
 20
-400.735
 30
0.000000
  70
    32
  0
VERTEX
  8
┌▓È_1
  5
2F7
 10
963.290
 20
-400.746
 30
0.000000
  70
    32
  0
VERTEX
  8
┌▓È_1
  5
2F8
 10
963.300
 20
-400.758
 30
0.000000
  70
    32
  0
VERTEX
  8
┌▓È_1
  5
2F9
 10
963.311
 20
-400.770
 30
0.000000
  70
    32
  0
VERTEX
  8
┌▓È_1
  5
2FA
 10
963.321
 20
-400.782
 30
0.000000
  70
    32
  0
VERTEX
  8
┌▓È_1
  5
2FB
 10
963.332
 20
-400.793
 30
0.000000
  70
    32
  0
VERTEX
  8
┌▓È_1
  5
2FC
 10
963.342
 20
-400.805
 30
0.000000
  70
    32
  0
VERTEX
  8
┌▓È_1
  5
2FD
 10
963.353
 20
-400.817
 30
0.000000
  70
    32
  0
VERTEX
  8
┌▓È_1
  5
2FE
 10
963.364
 20
-400.829
 30
0.000000
  70
    32
  0
VERTEX
  8
┌▓È_1
  5
2FF
 10
963.374
 20
-400.840
 30
0.000000
  70
    32
  0
VERTEX
  8
┌▓È_1
  5
300
 10
963.385
 20
-400.852
 30
0.000000
  70
    32
  0
VERTEX
  8
┌▓È_1
  5
301
 10
963.395
 20
-400.864
 30
0.000000
  70
    32
  0
VERTEX
  8
┌▓È_1
  5
302
 10
963.406
 20
-400.876
 30
0.000000
  70
    32
  0
VERTEX
  8
┌▓È_1
  5
303
 10
963.416
 20
-400.887
 30
0.000000
  70
    32
  0
VERTEX
  8
┌▓È_1
  5
304
 10
963.427
 20
-400.899
 30
0.000000
  70
    32
  0
VERTEX
  8
┌▓È_1
  5
305
 10
963.438
 20
-400.911
 30
0.000000
  70
    32
  0
VERTEX
  8
┌▓È_1
  5
306
 10
963.448
 20
-400.923
 30
0.000000
  70
    32
  0
VERTEX
  8
┌▓È_1
  5
307
 10
963.459
 20
-400.934
 30
0.000000
  70
    32
  0
VERTEX
  8
┌▓È_1
  5
308
 10
963.469
 20
-400.946
 30
0.000000
  70
    32
  0
VERTEX
  8
┌▓È_1
  5
309
 10
963.480
 20
-400.958
 30
0.000000
  70
    32
  0
VERTEX
  8
┌▓È_1
  5
30A
 10
963.491
 20
-400.969
 30
0.000000
  70
    32
  0
VERTEX
  8
┌▓È_1
  5
30B
 10
963.501
 20
-400.981
 30
0.000000
  70
    32
  0
VERTEX
  8
┌▓È_1
  5
30C
 10
963.512
 20
-400.993
 30
0.000000
  70
    32
  0
VERTEX
  8
┌▓È_1
  5
30D
 10
963.522
 20
-401.005
 30
0.000000
  70
    32
  0
VERTEX
  8
┌▓È_1
  5
30E
 10
963.533
 20
-401.016
 30
0.000000
  70
    32
  0
VERTEX
  8
┌▓È_1
  5
30F
 10
963.544
 20
-401.028
 30
0.000000
  70
    32
  0
VERTEX
  8
┌▓È_1
  5
310
 10
963.554
 20
-401.040
 30
0.000000
  70
    32
  0
VERTEX
  8
┌▓È_1
  5
311
 10
963.565
 20
-401.051
 30
0.000000
  70
    32
  0
VERTEX
  8
┌▓È_1
  5
312
 10
963.576
 20
-401.063
 30
0.000000
  70
    32
  0
VERTEX
  8
┌▓È_1
  5
313
 10
963.586
 20
-401.075
 30
0.000000
  70
    32
  0
VERTEX
  8
┌▓È_1
  5
314
 10
963.597
 20
-401.086
 30
0.000000
  70
    32
  0
VERTEX
  8
┌▓È_1
  5
315
 10
963.607
 20
-401.098
 30
0.000000
  70
    32
  0
VERTEX
  8
┌▓È_1
  5
316
 10
963.618
 20
-401.110
 30
0.000000
  70
    32
  0
VERTEX
  8
┌▓È_1
  5
317
 10
963.629
 20
-401.121
 30
0.000000
  70
    32
  0
VERTEX
  8
┌▓È_1
  5
318
 10
963.639
 20
-401.133
 30
0.000000
  70
    32
  0
VERTEX
  8
┌▓È_1
  5
319
 10
963.650
 20
-401.144
 30
0.000000
  70
    32
  0
VERTEX
  8
┌▓È_1
  5
31A
 10
963.661
 20
-401.156
 30
0.000000
  70
    32
  0
VERTEX
  8
┌▓È_1
  5
31B
 10
963.671
 20
-401.168
 30
0.000000
  70
    32
  0
VERTEX
  8
┌▓È_1
  5
31C
 10
963.682
 20
-401.179
 30
0.000000
  70
    32
  0
VERTEX
  8
┌▓È_1
  5
31D
 10
963.693
 20
-401.191
 30
0.000000
  70
    32
  0
VERTEX
  8
┌▓È_1
  5
31E
 10
963.703
 20
-401.202
 30
0.000000
  70
    32
  0
VERTEX
  8
┌▓È_1
  5
31F
 10
963.714
 20
-401.214
 30
0.000000
  70
    32
  0
VERTEX
  8
┌▓È_1
  5
320
 10
963.725
 20
-401.226
 30
0.000000
  70
    32
  0
VERTEX
  8
┌▓È_1
  5
321
 10
963.735
 20
-401.237
 30
0.000000
  70
    32
  0
VERTEX
  8
┌▓È_1
  5
322
 10
963.746
 20
-401.249
 30
0.000000
  70
    32
  0
VERTEX
  8
┌▓È_1
  5
323
 10
963.757
 20
-401.260
 30
0.000000
  70
    32
  0
VERTEX
  8
┌▓È_1
  5
324
 10
963.768
 20
-401.272
 30
0.000000
  70
    32
  0
VERTEX
  8
┌▓È_1
  5
325
 10
963.778
 20
-401.283
 30
0.000000
  70
    32
  0
VERTEX
  8
┌▓È_1
  5
326
 10
963.789
 20
-401.295
 30
0.000000
  70
    32
  0
VERTEX
  8
┌▓È_1
  5
327
 10
963.800
 20
-401.306
 30
0.000000
  70
    32
  0
VERTEX
  8
┌▓È_1
  5
328
 10
963.810
 20
-401.318
 30
0.000000
  70
    32
  0
VERTEX
  8
┌▓È_1
  5
329
 10
963.821
 20
-401.329
 30
0.000000
  70
    32
  0
VERTEX
  8
┌▓È_1
  5
32A
 10
963.832
 20
-401.341
 30
0.000000
  70
    32
  0
VERTEX
  8
┌▓È_1
  5
32B
 10
963.843
 20
-401.352
 30
0.000000
  70
    32
  0
VERTEX
  8
┌▓È_1
  5
32C
 10
963.853
 20
-401.364
 30
0.000000
  70
    32
  0
VERTEX
  8
┌▓È_1
  5
32D
 10
963.864
 20
-401.375
 30
0.000000
  70
    32
  0
VERTEX
  8
┌▓È_1
  5
32E
 10
963.875
 20
-401.387
 30
0.000000
  70
    32
  0
VERTEX
  8
┌▓È_1
  5
32F
 10
963.886
 20
-401.398
 30
0.000000
  70
    32
  0
VERTEX
  8
┌▓È_1
  5
330
 10
963.896
 20
-401.409
 30
0.000000
  70
    32
  0
VERTEX
  8
┌▓È_1
  5
331
 10
963.907
 20
-401.421
 30
0.000000
  70
    32
  0
VERTEX
  8
┌▓È_1
  5
332
 10
963.918
 20
-401.432
 30
0.000000
  70
    32
  0
VERTEX
  8
┌▓È_1
  5
333
 10
963.929
 20
-401.444
 30
0.000000
  70
    32
  0
VERTEX
  8
┌▓È_1
  5
334
 10
963.940
 20
-401.455
 30
0.000000
  70
    32
  0
VERTEX
  8
┌▓È_1
  5
335
 10
963.951
 20
-401.466
 30
0.000000
  70
    32
  0
VERTEX
  8
┌▓È_1
  5
336
 10
963.961
 20
-401.478
 30
0.000000
  70
    32
  0
VERTEX
  8
┌▓È_1
  5
337
 10
963.972
 20
-401.489
 30
0.000000
  70
    32
  0
VERTEX
  8
┌▓È_1
  5
338
 10
963.983
 20
-401.500
 30
0.000000
  70
    32
  0
VERTEX
  8
┌▓È_1
  5
339
 10
963.994
 20
-401.512
 30
0.000000
  70
    32
  0
VERTEX
  8
┌▓È_1
  5
33A
 10
964.005
 20
-401.523
 30
0.000000
  70
    32
  0
VERTEX
  8
┌▓È_1
  5
33B
 10
964.016
 20
-401.534
 30
0.000000
  70
    32
  0
VERTEX
  8
┌▓È_1
  5
33C
 10
964.027
 20
-401.545
 30
0.000000
  70
    32
  0
VERTEX
  8
┌▓È_1
  5
33D
 10
964.037
 20
-401.557
 30
0.000000
  70
    32
  0
VERTEX
  8
┌▓È_1
  5
33E
 10
964.048
 20
-401.568
 30
0.000000
  70
    32
  0
VERTEX
  8
┌▓È_1
  5
33F
 10
964.059
 20
-401.579
 30
0.000000
  70
    32
  0
VERTEX
  8
┌▓È_1
  5
340
 10
964.070
 20
-401.590
 30
0.000000
  70
    32
  0
VERTEX
  8
┌▓È_1
  5
341
 10
964.081
 20
-401.601
 30
0.000000
  70
    32
  0
VERTEX
  8
┌▓È_1
  5
342
 10
964.092
 20
-401.613
 30
0.000000
  70
    32
  0
VERTEX
  8
┌▓È_1
  5
343
 10
964.103
 20
-401.624
 30
0.000000
  70
    32
  0
VERTEX
  8
┌▓È_1
  5
344
 10
964.114
 20
-401.635
 30
0.000000
  70
    32
  0
VERTEX
  8
┌▓È_1
  5
345
 10
964.125
 20
-401.646
 30
0.000000
  70
    32
  0
VERTEX
  8
┌▓È_1
  5
346
 10
964.136
 20
-401.657
 30
0.000000
  70
    32
  0
VERTEX
  8
┌▓È_1
  5
347
 10
964.147
 20
-401.668
 30
0.000000
  70
    32
  0
VERTEX
  8
┌▓È_1
  5
348
 10
964.158
 20
-401.679
 30
0.000000
  70
    32
  0
VERTEX
  8
┌▓È_1
  5
349
 10
964.169
 20
-401.690
 30
0.000000
  70
    32
  0
VERTEX
  8
┌▓È_1
  5
34A
 10
964.180
 20
-401.701
 30
0.000000
  70
    32
  0
VERTEX
  8
┌▓È_1
  5
34B
 10
964.191
 20
-401.713
 30
0.000000
  70
    32
  0
VERTEX
  8
┌▓È_1
  5
34C
 10
964.202
 20
-401.724
 30
0.000000
  70
    32
  0
VERTEX
  8
┌▓È_1
  5
34D
 10
964.213
 20
-401.735
 30
0.000000
  70
    32
  0
VERTEX
  8
┌▓È_1
  5
34E
 10
964.224
 20
-401.746
 30
0.000000
  70
    32
  0
VERTEX
  8
┌▓È_1
  5
34F
 10
964.235
 20
-401.756
 30
0.000000
  70
    32
  0
VERTEX
  8
┌▓È_1
  5
350
 10
964.246
 20
-401.767
 30
0.000000
  70
    32
  0
VERTEX
  8
┌▓È_1
  5
351
 10
964.257
 20
-401.778
 30
0.000000
  70
    32
  0
VERTEX
  8
┌▓È_1
  5
352
 10
964.268
 20
-401.789
 30
0.000000
  70
    32
  0
VERTEX
  8
┌▓È_1
  5
353
 10
964.279
 20
-401.800
 30
0.000000
  70
    32
  0
VERTEX
  8
┌▓È_1
  5
354
 10
964.290
 20
-401.811
 30
0.000000
  70
    32
  0
VERTEX
  8
┌▓È_1
  5
355
 10
964.301
 20
-401.822
 30
0.000000
  70
    32
  0
VERTEX
  8
┌▓È_1
  5
356
 10
964.313
 20
-401.833
 30
0.000000
  70
    32
  0
VERTEX
  8
┌▓È_1
  5
357
 10
964.324
 20
-401.844
 30
0.000000
  70
    32
  0
VERTEX
  8
┌▓È_1
  5
358
 10
964.335
 20
-401.854
 30
0.000000
  70
    32
  0
VERTEX
  8
┌▓È_1
  5
359
 10
964.346
 20
-401.865
 30
0.000000
  70
    32
  0
VERTEX
  8
┌▓È_1
  5
35A
 10
964.357
 20
-401.876
 30
0.000000
  70
    32
  0
VERTEX
  8
┌▓È_1
  5
35B
 10
964.368
 20
-401.887
 30
0.000000
  70
    32
  0
VERTEX
  8
┌▓È_1
  5
35C
 10
964.380
 20
-401.898
 30
0.000000
  70
    32
  0
VERTEX
  8
┌▓È_1
  5
35D
 10
964.391
 20
-401.908
 30
0.000000
  70
    32
  0
VERTEX
  8
┌▓È_1
  5
35E
 10
964.402
 20
-401.919
 30
0.000000
  70
    32
  0
VERTEX
  8
┌▓È_1
  5
35F
 10
964.413
 20
-401.930
 30
0.000000
  70
    32
  0
VERTEX
  8
┌▓È_1
  5
360
 10
964.425
 20
-401.940
 30
0.000000
  70
    32
  0
VERTEX
  8
┌▓È_1
  5
361
 10
964.436
 20
-401.951
 30
0.000000
  70
    32
  0
VERTEX
  8
┌▓È_1
  5
362
 10
964.447
 20
-401.962
 30
0.000000
  70
    32
  0
VERTEX
  8
┌▓È_1
  5
363
 10
964.458
 20
-401.972
 30
0.000000
  70
    32
  0
VERTEX
  8
┌▓È_1
  5
364
 10
964.470
 20
-401.983
 30
0.000000
  70
    32
  0
VERTEX
  8
┌▓È_1
  5
365
 10
964.481
 20
-401.993
 30
0.000000
  70
    32
  0
VERTEX
  8
┌▓È_1
  5
366
 10
964.492
 20
-402.004
 30
0.000000
  70
    32
  0
VERTEX
  8
┌▓È_1
  5
367
 10
964.504
 20
-402.014
 30
0.000000
  70
    32
  0
VERTEX
  8
┌▓È_1
  5
368
 10
964.515
 20
-402.025
 30
0.000000
  70
    32
  0
VERTEX
  8
┌▓È_1
  5
369
 10
964.526
 20
-402.035
 30
0.000000
  70
    32
  0
VERTEX
  8
┌▓È_1
  5
36A
 10
964.538
 20
-402.046
 30
0.000000
  70
    32
  0
VERTEX
  8
┌▓È_1
  5
36B
 10
964.549
 20
-402.056
 30
0.000000
  70
    32
  0
VERTEX
  8
┌▓È_1
  5
36C
 10
964.561
 20
-402.067
 30
0.000000
  70
    32
  0
VERTEX
  8
┌▓È_1
  5
36D
 10
964.572
 20
-402.077
 30
0.000000
  70
    32
  0
VERTEX
  8
┌▓È_1
  5
36E
 10
964.583
 20
-402.087
 30
0.000000
  70
    32
  0
SEQEND
  8
┌▓È_1
  5
36F
  0
POLYLINE
  8
┌▓È_1
  5
370
  62
5
  66
     1
 10
0.000000
 20
0.000000
 30
0.000000
  70
     8
  0
VERTEX
  8
┌▓È_1
  5
371
 10
966.444
 20
-405.850
 30
0.000000
  70
    32
  0
VERTEX
  8
┌▓È_1
  5
372
 10
966.487
 20
-405.864
 30
0.000000
  70
    32
  0
VERTEX
  8
┌▓È_1
  5
373
 10
966.531
 20
-405.877
 30
0.000000
  70
    32
  0
VERTEX
  8
┌▓È_1
  5
374
 10
966.574
 20
-405.891
 30
0.000000
  70
    32
  0
VERTEX
  8
┌▓È_1
  5
375
 10
966.617
 20
-405.904
 30
0.000000
  70
    32
  0
VERTEX
  8
┌▓È_1
  5
376
 10
966.660
 20
-405.918
 30
0.000000
  70
    32
  0
VERTEX
  8
┌▓È_1
  5
377
 10
966.703
 20
-405.931
 30
0.000000
  70
    32
  0
VERTEX
  8
┌▓È_1
  5
378
 10
966.747
 20
-405.945
 30
0.000000
  70
    32
  0
VERTEX
  8
┌▓È_1
  5
379
 10
966.790
 20
-405.958
 30
0.000000
  70
    32
  0
VERTEX
  8
┌▓È_1
  5
37A
 10
966.833
 20
-405.971
 30
0.000000
  70
    32
  0
VERTEX
  8
┌▓È_1
  5
37B
 10
966.877
 20
-405.984
 30
0.000000
  70
    32
  0
VERTEX
  8
┌▓È_1
  5
37C
 10
966.920
 20
-405.997
 30
0.000000
  70
    32
  0
VERTEX
  8
┌▓È_1
  5
37D
 10
966.964
 20
-406.010
 30
0.000000
  70
    32
  0
VERTEX
  8
┌▓È_1
  5
37E
 10
967.007
 20
-406.023
 30
0.000000
  70
    32
  0
VERTEX
  8
┌▓È_1
  5
37F
 10
967.051
 20
-406.036
 30
0.000000
  70
    32
  0
VERTEX
  8
┌▓È_1
  5
380
 10
967.094
 20
-406.049
 30
0.000000
  70
    32
  0
VERTEX
  8
┌▓È_1
  5
381
 10
967.138
 20
-406.062
 30
0.000000
  70
    32
  0
VERTEX
  8
┌▓È_1
  5
382
 10
967.181
 20
-406.074
 30
0.000000
  70
    32
  0
VERTEX
  8
┌▓È_1
  5
383
 10
967.225
 20
-406.087
 30
0.000000
  70
    32
  0
VERTEX
  8
┌▓È_1
  5
384
 10
967.269
 20
-406.100
 30
0.000000
  70
    32
  0
VERTEX
  8
┌▓È_1
  5
385
 10
967.312
 20
-406.112
 30
0.000000
  70
    32
  0
VERTEX
  8
┌▓È_1
  5
386
 10
967.356
 20
-406.125
 30
0.000000
  70
    32
  0
VERTEX
  8
┌▓È_1
  5
387
 10
967.400
 20
-406.137
 30
0.000000
  70
    32
  0
VERTEX
  8
┌▓È_1
  5
388
 10
967.444
 20
-406.150
 30
0.000000
  70
    32
  0
VERTEX
  8
┌▓È_1
  5
389
 10
967.488
 20
-406.162
 30
0.000000
  70
    32
  0
VERTEX
  8
┌▓È_1
  5
38A
 10
967.531
 20
-406.174
 30
0.000000
  70
    32
  0
VERTEX
  8
┌▓È_1
  5
38B
 10
967.575
 20
-406.186
 30
0.000000
  70
    32
  0
VERTEX
  8
┌▓È_1
  5
38C
 10
967.619
 20
-406.198
 30
0.000000
  70
    32
  0
VERTEX
  8
┌▓È_1
  5
38D
 10
967.663
 20
-406.211
 30
0.000000
  70
    32
  0
VERTEX
  8
┌▓È_1
  5
38E
 10
967.707
 20
-406.223
 30
0.000000
  70
    32
  0
VERTEX
  8
┌▓È_1
  5
38F
 10
967.751
 20
-406.235
 30
0.000000
  70
    32
  0
VERTEX
  8
┌▓È_1
  5
390
 10
967.795
 20
-406.247
 30
0.000000
  70
    32
  0
VERTEX
  8
┌▓È_1
  5
391
 10
967.839
 20
-406.258
 30
0.000000
  70
    32
  0
VERTEX
  8
┌▓È_1
  5
392
 10
967.883
 20
-406.270
 30
0.000000
  70
    32
  0
VERTEX
  8
┌▓È_1
  5
393
 10
967.928
 20
-406.282
 30
0.000000
  70
    32
  0
VERTEX
  8
┌▓È_1
  5
394
 10
967.972
 20
-406.294
 30
0.000000
  70
    32
  0
VERTEX
  8
┌▓È_1
  5
395
 10
968.016
 20
-406.305
 30
0.000000
  70
    32
  0
VERTEX
  8
┌▓È_1
  5
396
 10
968.060
 20
-406.317
 30
0.000000
  70
    32
  0
VERTEX
  8
┌▓È_1
  5
397
 10
968.104
 20
-406.329
 30
0.000000
  70
    32
  0
VERTEX
  8
┌▓È_1
  5
398
 10
968.149
 20
-406.340
 30
0.000000
  70
    32
  0
VERTEX
  8
┌▓È_1
  5
399
 10
968.193
 20
-406.352
 30
0.000000
  70
    32
  0
VERTEX
  8
┌▓È_1
  5
39A
 10
968.237
 20
-406.363
 30
0.000000
  70
    32
  0
VERTEX
  8
┌▓È_1
  5
39B
 10
968.281
 20
-406.375
 30
0.000000
  70
    32
  0
VERTEX
  8
┌▓È_1
  5
39C
 10
968.326
 20
-406.386
 30
0.000000
  70
    32
  0
VERTEX
  8
┌▓È_1
  5
39D
 10
968.370
 20
-406.397
 30
0.000000
  70
    32
  0
VERTEX
  8
┌▓È_1
  5
39E
 10
968.415
 20
-406.408
 30
0.000000
  70
    32
  0
VERTEX
  8
┌▓È_1
  5
39F
 10
968.459
 20
-406.420
 30
0.000000
  70
    32
  0
VERTEX
  8
┌▓È_1
  5
3A0
 10
968.503
 20
-406.431
 30
0.000000
  70
    32
  0
VERTEX
  8
┌▓È_1
  5
3A1
 10
968.548
 20
-406.442
 30
0.000000
  70
    32
  0
VERTEX
  8
┌▓È_1
  5
3A2
 10
968.592
 20
-406.453
 30
0.000000
  70
    32
  0
VERTEX
  8
┌▓È_1
  5
3A3
 10
968.637
 20
-406.464
 30
0.000000
  70
    32
  0
VERTEX
  8
┌▓È_1
  5
3A4
 10
968.682
 20
-406.475
 30
0.000000
  70
    32
  0
VERTEX
  8
┌▓È_1
  5
3A5
 10
968.726
 20
-406.486
 30
0.000000
  70
    32
  0
VERTEX
  8
┌▓È_1
  5
3A6
 10
968.771
 20
-406.497
 30
0.000000
  70
    32
  0
VERTEX
  8
┌▓È_1
  5
3A7
 10
968.815
 20
-406.508
 30
0.000000
  70
    32
  0
VERTEX
  8
┌▓È_1
  5
3A8
 10
968.860
 20
-406.519
 30
0.000000
  70
    32
  0
VERTEX
  8
┌▓È_1
  5
3A9
 10
968.905
 20
-406.530
 30
0.000000
  70
    32
  0
VERTEX
  8
┌▓È_1
  5
3AA
 10
968.949
 20
-406.540
 30
0.000000
  70
    32
  0
VERTEX
  8
┌▓È_1
  5
3AB
 10
968.994
 20
-406.551
 30
0.000000
  70
    32
  0
VERTEX
  8
┌▓È_1
  5
3AC
 10
969.039
 20
-406.562
 30
0.000000
  70
    32
  0
VERTEX
  8
┌▓È_1
  5
3AD
 10
969.083
 20
-406.572
 30
0.000000
  70
    32
  0
VERTEX
  8
┌▓È_1
  5
3AE
 10
969.128
 20
-406.583
 30
0.000000
  70
    32
  0
VERTEX
  8
┌▓È_1
  5
3AF
 10
969.173
 20
-406.594
 30
0.000000
  70
    32
  0
VERTEX
  8
┌▓È_1
  5
3B0
 10
969.218
 20
-406.604
 30
0.000000
  70
    32
  0
VERTEX
  8
┌▓È_1
  5
3B1
 10
969.263
 20
-406.615
 30
0.000000
  70
    32
  0
VERTEX
  8
┌▓È_1
  5
3B2
 10
969.307
 20
-406.625
 30
0.000000
  70
    32
  0
VERTEX
  8
┌▓È_1
  5
3B3
 10
969.352
 20
-406.636
 30
0.000000
  70
    32
  0
VERTEX
  8
┌▓È_1
  5
3B4
 10
969.397
 20
-406.646
 30
0.000000
  70
    32
  0
VERTEX
  8
┌▓È_1
  5
3B5
 10
969.442
 20
-406.657
 30
0.000000
  70
    32
  0
VERTEX
  8
┌▓È_1
  5
3B6
 10
969.487
 20
-406.667
 30
0.000000
  70
    32
  0
VERTEX
  8
┌▓È_1
  5
3B7
 10
969.532
 20
-406.677
 30
0.000000
  70
    32
  0
VERTEX
  8
┌▓È_1
  5
3B8
 10
969.577
 20
-406.687
 30
0.000000
  70
    32
  0
VERTEX
  8
┌▓È_1
  5
3B9
 10
969.622
 20
-406.698
 30
0.000000
  70
    32
  0
VERTEX
  8
┌▓È_1
  5
3BA
 10
969.667
 20
-406.708
 30
0.000000
  70
    32
  0
VERTEX
  8
┌▓È_1
  5
3BB
 10
969.712
 20
-406.718
 30
0.000000
  70
    32
  0
VERTEX
  8
┌▓È_1
  5
3BC
 10
969.757
 20
-406.728
 30
0.000000
  70
    32
  0
VERTEX
  8
┌▓È_1
  5
3BD
 10
969.802
 20
-406.739
 30
0.000000
  70
    32
  0
VERTEX
  8
┌▓È_1
  5
3BE
 10
969.847
 20
-406.749
 30
0.000000
  70
    32
  0
VERTEX
  8
┌▓È_1
  5
3BF
 10
969.892
 20
-406.759
 30
0.000000
  70
    32
  0
VERTEX
  8
┌▓È_1
  5
3C0
 10
969.937
 20
-406.769
 30
0.000000
  70
    32
  0
VERTEX
  8
┌▓È_1
  5
3C1
 10
969.982
 20
-406.779
 30
0.000000
  70
    32
  0
VERTEX
  8
┌▓È_1
  5
3C2
 10
970.027
 20
-406.789
 30
0.000000
  70
    32
  0
VERTEX
  8
┌▓È_1
  5
3C3
 10
970.072
 20
-406.799
 30
0.000000
  70
    32
  0
VERTEX
  8
┌▓È_1
  5
3C4
 10
970.117
 20
-406.809
 30
0.000000
  70
    32
  0
VERTEX
  8
┌▓È_1
  5
3C5
 10
970.162
 20
-406.819
 30
0.000000
  70
    32
  0
VERTEX
  8
┌▓È_1
  5
3C6
 10
970.207
 20
-406.829
 30
0.000000
  70
    32
  0
VERTEX
  8
┌▓È_1
  5
3C7
 10
970.252
 20
-406.839
 30
0.000000
  70
    32
  0
VERTEX
  8
┌▓È_1
  5
3C8
 10
970.298
 20
-406.848
 30
0.000000
  70
    32
  0
VERTEX
  8
┌▓È_1
  5
3C9
 10
970.343
 20
-406.858
 30
0.000000
  70
    32
  0
VERTEX
  8
┌▓È_1
  5
3CA
 10
970.388
 20
-406.868
 30
0.000000
  70
    32
  0
VERTEX
  8
┌▓È_1
  5
3CB
 10
970.433
 20
-406.878
 30
0.000000
  70
    32
  0
VERTEX
  8
┌▓È_1
  5
3CC
 10
970.478
 20
-406.888
 30
0.000000
  70
    32
  0
VERTEX
  8
┌▓È_1
  5
3CD
 10
970.524
 20
-406.898
 30
0.000000
  70
    32
  0
VERTEX
  8
┌▓È_1
  5
3CE
 10
970.569
 20
-406.907
 30
0.000000
  70
    32
  0
VERTEX
  8
┌▓È_1
  5
3CF
 10
970.614
 20
-406.917
 30
0.000000
  70
    32
  0
VERTEX
  8
┌▓È_1
  5
3D0
 10
970.659
 20
-406.927
 30
0.000000
  70
    32
  0
VERTEX
  8
┌▓È_1
  5
3D1
 10
970.704
 20
-406.936
 30
0.000000
  70
    32
  0
VERTEX
  8
┌▓È_1
  5
3D2
 10
970.750
 20
-406.946
 30
0.000000
  70
    32
  0
VERTEX
  8
┌▓È_1
  5
3D3
 10
970.795
 20
-406.956
 30
0.000000
  70
    32
  0
VERTEX
  8
┌▓È_1
  5
3D4
 10
970.840
 20
-406.965
 30
0.000000
  70
    32
  0
VERTEX
  8
┌▓È_1
  5
3D5
 10
970.886
 20
-406.975
 30
0.000000
  70
    32
  0
VERTEX
  8
┌▓È_1
  5
3D6
 10
970.931
 20
-406.985
 30
0.000000
  70
    32
  0
VERTEX
  8
┌▓È_1
  5
3D7
 10
970.976
 20
-406.994
 30
0.000000
  70
    32
  0
VERTEX
  8
┌▓È_1
  5
3D8
 10
971.021
 20
-407.004
 30
0.000000
  70
    32
  0
VERTEX
  8
┌▓È_1
  5
3D9
 10
971.067
 20
-407.014
 30
0.000000
  70
    32
  0
VERTEX
  8
┌▓È_1
  5
3DA
 10
971.112
 20
-407.023
 30
0.000000
  70
    32
  0
VERTEX
  8
┌▓È_1
  5
3DB
 10
971.157
 20
-407.033
 30
0.000000
  70
    32
  0
VERTEX
  8
┌▓È_1
  5
3DC
 10
971.203
 20
-407.042
 30
0.000000
  70
    32
  0
VERTEX
  8
┌▓È_1
  5
3DD
 10
971.248
 20
-407.052
 30
0.000000
  70
    32
  0
VERTEX
  8
┌▓È_1
  5
3DE
 10
971.293
 20
-407.061
 30
0.000000
  70
    32
  0
VERTEX
  8
┌▓È_1
  5
3DF
 10
971.339
 20
-407.071
 30
0.000000
  70
    32
  0
VERTEX
  8
┌▓È_1
  5
3E0
 10
971.384
 20
-407.080
 30
0.000000
  70
    32
  0
VERTEX
  8
┌▓È_1
  5
3E1
 10
971.430
 20
-407.090
 30
0.000000
  70
    32
  0
VERTEX
  8
┌▓È_1
  5
3E2
 10
971.475
 20
-407.099
 30
0.000000
  70
    32
  0
VERTEX
  8
┌▓È_1
  5
3E3
 10
971.520
 20
-407.109
 30
0.000000
  70
    32
  0
VERTEX
  8
┌▓È_1
  5
3E4
 10
971.566
 20
-407.118
 30
0.000000
  70
    32
  0
VERTEX
  8
┌▓È_1
  5
3E5
 10
971.611
 20
-407.128
 30
0.000000
  70
    32
  0
VERTEX
  8
┌▓È_1
  5
3E6
 10
971.656
 20
-407.137
 30
0.000000
  70
    32
  0
VERTEX
  8
┌▓È_1
  5
3E7
 10
971.702
 20
-407.147
 30
0.000000
  70
    32
  0
VERTEX
  8
┌▓È_1
  5
3E8
 10
971.747
 20
-407.156
 30
0.000000
  70
    32
  0
VERTEX
  8
┌▓È_1
  5
3E9
 10
971.793
 20
-407.166
 30
0.000000
  70
    32
  0
VERTEX
  8
┌▓È_1
  5
3EA
 10
971.838
 20
-407.175
 30
0.000000
  70
    32
  0
VERTEX
  8
┌▓È_1
  5
3EB
 10
971.883
 20
-407.184
 30
0.000000
  70
    32
  0
VERTEX
  8
┌▓È_1
  5
3EC
 10
971.929
 20
-407.194
 30
0.000000
  70
    32
  0
VERTEX
  8
┌▓È_1
  5
3ED
 10
971.974
 20
-407.203
 30
0.000000
  70
    32
  0
VERTEX
  8
┌▓È_1
  5
3EE
 10
972.019
 20
-407.213
 30
0.000000
  70
    32
  0
VERTEX
  8
┌▓È_1
  5
3EF
 10
972.065
 20
-407.222
 30
0.000000
  70
    32
  0
VERTEX
  8
┌▓È_1
  5
3F0
 10
972.110
 20
-407.232
 30
0.000000
  70
    32
  0
SEQEND
  8
┌▓È_1
  5
3F1
  0
POLYLINE
  8
┌▓È_1
  5
3F2
  62
5
  66
     1
 10
0.000000
 20
0.000000
 30
0.000000
  70
     8
  0
VERTEX
  8
┌▓È_1
  5
3F3
 10
957.710
 20
-400.262
 30
0.000000
  70
    32
  0
VERTEX
  8
┌▓È_1
  5
3F4
 10
957.739
 20
-400.289
 30
0.000000
  70
    32
  0
VERTEX
  8
┌▓È_1
  5
3F5
 10
957.768
 20
-400.316
 30
0.000000
  70
    32
  0
VERTEX
  8
┌▓È_1
  5
3F6
 10
957.797
 20
-400.342
 30
0.000000
  70
    32
  0
VERTEX
  8
┌▓È_1
  5
3F7
 10
957.826
 20
-400.369
 30
0.000000
  70
    32
  0
VERTEX
  8
┌▓È_1
  5
3F8
 10
957.854
 20
-400.395
 30
0.000000
  70
    32
  0
VERTEX
  8
┌▓È_1
  5
3F9
 10
957.883
 20
-400.422
 30
0.000000
  70
    32
  0
VERTEX
  8
┌▓È_1
  5
3FA
 10
957.912
 20
-400.448
 30
0.000000
  70
    32
  0
VERTEX
  8
┌▓È_1
  5
3FB
 10
957.941
 20
-400.475
 30
0.000000
  70
    32
  0
VERTEX
  8
┌▓È_1
  5
3FC
 10
957.970
 20
-400.501
 30
0.000000
  70
    32
  0
VERTEX
  8
┌▓È_1
  5
3FD
 10
957.998
 20
-400.528
 30
0.000000
  70
    32
  0
VERTEX
  8
┌▓È_1
  5
3FE
 10
958.027
 20
-400.555
 30
0.000000
  70
    32
  0
VERTEX
  8
┌▓È_1
  5
3FF
 10
958.056
 20
-400.581
 30
0.000000
  70
    32
  0
VERTEX
  8
┌▓È_1
  5
400
 10
958.085
 20
-400.608
 30
0.000000
  70
    32
  0
VERTEX
  8
┌▓È_1
  5
401
 10
958.114
 20
-400.634
 30
0.000000
  70
    32
  0
VERTEX
  8
┌▓È_1
  5
402
 10
958.143
 20
-400.661
 30
0.000000
  70
    32
  0
VERTEX
  8
┌▓È_1
  5
403
 10
958.172
 20
-400.687
 30
0.000000
  70
    32
  0
VERTEX
  8
┌▓È_1
  5
404
 10
958.200
 20
-400.714
 30
0.000000
  70
    32
  0
VERTEX
  8
┌▓È_1
  5
405
 10
958.229
 20
-400.740
 30
0.000000
  70
    32
  0
VERTEX
  8
┌▓È_1
  5
406
 10
958.258
 20
-400.767
 30
0.000000
  70
    32
  0
VERTEX
  8
┌▓È_1
  5
407
 10
958.287
 20
-400.793
 30
0.000000
  70
    32
  0
VERTEX
  8
┌▓È_1
  5
408
 10
958.316
 20
-400.819
 30
0.000000
  70
    32
  0
VERTEX
  8
┌▓È_1
  5
409
 10
958.345
 20
-400.846
 30
0.000000
  70
    32
  0
VERTEX
  8
┌▓È_1
  5
40A
 10
958.374
 20
-400.872
 30
0.000000
  70
    32
  0
VERTEX
  8
┌▓È_1
  5
40B
 10
958.403
 20
-400.899
 30
0.000000
  70
    32
  0
VERTEX
  8
┌▓È_1
  5
40C
 10
958.431
 20
-400.925
 30
0.000000
  70
    32
  0
VERTEX
  8
┌▓È_1
  5
40D
 10
958.460
 20
-400.951
 30
0.000000
  70
    32
  0
VERTEX
  8
┌▓È_1
  5
40E
 10
958.489
 20
-400.978
 30
0.000000
  70
    32
  0
VERTEX
  8
┌▓È_1
  5
40F
 10
958.518
 20
-401.004
 30
0.000000
  70
    32
  0
VERTEX
  8
┌▓È_1
  5
410
 10
958.547
 20
-401.031
 30
0.000000
  70
    32
  0
VERTEX
  8
┌▓È_1
  5
411
 10
958.576
 20
-401.057
 30
0.000000
  70
    32
  0
VERTEX
  8
┌▓È_1
  5
412
 10
958.605
 20
-401.083
 30
0.000000
  70
    32
  0
VERTEX
  8
┌▓È_1
  5
413
 10
958.634
 20
-401.109
 30
0.000000
  70
    32
  0
VERTEX
  8
┌▓È_1
  5
414
 10
958.663
 20
-401.136
 30
0.000000
  70
    32
  0
VERTEX
  8
┌▓È_1
  5
415
 10
958.692
 20
-401.162
 30
0.000000
  70
    32
  0
VERTEX
  8
┌▓È_1
  5
416
 10
958.721
 20
-401.188
 30
0.000000
  70
    32
  0
VERTEX
  8
┌▓È_1
  5
417
 10
958.750
 20
-401.214
 30
0.000000
  70
    32
  0
VERTEX
  8
┌▓È_1
  5
418
 10
958.779
 20
-401.241
 30
0.000000
  70
    32
  0
VERTEX
  8
┌▓È_1
  5
419
 10
958.808
 20
-401.267
 30
0.000000
  70
    32
  0
VERTEX
  8
┌▓È_1
  5
41A
 10
958.837
 20
-401.293
 30
0.000000
  70
    32
  0
VERTEX
  8
┌▓È_1
  5
41B
 10
958.866
 20
-401.319
 30
0.000000
  70
    32
  0
VERTEX
  8
┌▓È_1
  5
41C
 10
958.895
 20
-401.345
 30
0.000000
  70
    32
  0
VERTEX
  8
┌▓È_1
  5
41D
 10
958.924
 20
-401.371
 30
0.000000
  70
    32
  0
VERTEX
  8
┌▓È_1
  5
41E
 10
958.953
 20
-401.397
 30
0.000000
  70
    32
  0
VERTEX
  8
┌▓È_1
  5
41F
 10
958.983
 20
-401.423
 30
0.000000
  70
    32
  0
VERTEX
  8
┌▓È_1
  5
420
 10
959.012
 20
-401.449
 30
0.000000
  70
    32
  0
VERTEX
  8
┌▓È_1
  5
421
 10
959.041
 20
-401.475
 30
0.000000
  70
    32
  0
VERTEX
  8
┌▓È_1
  5
422
 10
959.070
 20
-401.501
 30
0.000000
  70
    32
  0
VERTEX
  8
┌▓È_1
  5
423
 10
959.099
 20
-401.527
 30
0.000000
  70
    32
  0
VERTEX
  8
┌▓È_1
  5
424
 10
959.128
 20
-401.553
 30
0.000000
  70
    32
  0
VERTEX
  8
┌▓È_1
  5
425
 10
959.157
 20
-401.579
 30
0.000000
  70
    32
  0
VERTEX
  8
┌▓È_1
  5
426
 10
959.187
 20
-401.605
 30
0.000000
  70
    32
  0
VERTEX
  8
┌▓È_1
  5
427
 10
959.216
 20
-401.631
 30
0.000000
  70
    32
  0
VERTEX
  8
┌▓È_1
  5
428
 10
959.245
 20
-401.657
 30
0.000000
  70
    32
  0
VERTEX
  8
┌▓È_1
  5
429
 10
959.274
 20
-401.682
 30
0.000000
  70
    32
  0
VERTEX
  8
┌▓È_1
  5
42A
 10
959.304
 20
-401.708
 30
0.000000
  70
    32
  0
VERTEX
  8
┌▓È_1
  5
42B
 10
959.333
 20
-401.734
 30
0.000000
  70
    32
  0
VERTEX
  8
┌▓È_1
  5
42C
 10
959.362
 20
-401.760
 30
0.000000
  70
    32
  0
VERTEX
  8
┌▓È_1
  5
42D
 10
959.391
 20
-401.785
 30
0.000000
  70
    32
  0
VERTEX
  8
┌▓È_1
  5
42E
 10
959.421
 20
-401.811
 30
0.000000
  70
    32
  0
VERTEX
  8
┌▓È_1
  5
42F
 10
959.450
 20
-401.836
 30
0.000000
  70
    32
  0
VERTEX
  8
┌▓È_1
  5
430
 10
959.479
 20
-401.862
 30
0.000000
  70
    32
  0
VERTEX
  8
┌▓È_1
  5
431
 10
959.509
 20
-401.887
 30
0.000000
  70
    32
  0
VERTEX
  8
┌▓È_1
  5
432
 10
959.538
 20
-401.913
 30
0.000000
  70
    32
  0
VERTEX
  8
┌▓È_1
  5
433
 10
959.568
 20
-401.938
 30
0.000000
  70
    32
  0
VERTEX
  8
┌▓È_1
  5
434
 10
959.597
 20
-401.964
 30
0.000000
  70
    32
  0
VERTEX
  8
┌▓È_1
  5
435
 10
959.627
 20
-401.989
 30
0.000000
  70
    32
  0
VERTEX
  8
┌▓È_1
  5
436
 10
959.656
 20
-402.015
 30
0.000000
  70
    32
  0
VERTEX
  8
┌▓È_1
  5
437
 10
959.686
 20
-402.040
 30
0.000000
  70
    32
  0
VERTEX
  8
┌▓È_1
  5
438
 10
959.715
 20
-402.065
 30
0.000000
  70
    32
  0
VERTEX
  8
┌▓È_1
  5
439
 10
959.745
 20
-402.090
 30
0.000000
  70
    32
  0
VERTEX
  8
┌▓È_1
  5
43A
 10
959.774
 20
-402.116
 30
0.000000
  70
    32
  0
VERTEX
  8
┌▓È_1
  5
43B
 10
959.804
 20
-402.141
 30
0.000000
  70
    32
  0
VERTEX
  8
┌▓È_1
  5
43C
 10
959.833
 20
-402.166
 30
0.000000
  70
    32
  0
VERTEX
  8
┌▓È_1
  5
43D
 10
959.863
 20
-402.191
 30
0.000000
  70
    32
  0
VERTEX
  8
┌▓È_1
  5
43E
 10
959.893
 20
-402.216
 30
0.000000
  70
    32
  0
VERTEX
  8
┌▓È_1
  5
43F
 10
959.922
 20
-402.241
 30
0.000000
  70
    32
  0
VERTEX
  8
┌▓È_1
  5
440
 10
959.952
 20
-402.266
 30
0.000000
  70
    32
  0
VERTEX
  8
┌▓È_1
  5
441
 10
959.982
 20
-402.291
 30
0.000000
  70
    32
  0
VERTEX
  8
┌▓È_1
  5
442
 10
960.011
 20
-402.316
 30
0.000000
  70
    32
  0
VERTEX
  8
┌▓È_1
  5
443
 10
960.041
 20
-402.340
 30
0.000000
  70
    32
  0
VERTEX
  8
┌▓È_1
  5
444
 10
960.071
 20
-402.365
 30
0.000000
  70
    32
  0
VERTEX
  8
┌▓È_1
  5
445
 10
960.101
 20
-402.390
 30
0.000000
  70
    32
  0
VERTEX
  8
┌▓È_1
  5
446
 10
960.131
 20
-402.415
 30
0.000000
  70
    32
  0
VERTEX
  8
┌▓È_1
  5
447
 10
960.161
 20
-402.439
 30
0.000000
  70
    32
  0
VERTEX
  8
┌▓È_1
  5
448
 10
960.190
 20
-402.464
 30
0.000000
  70
    32
  0
VERTEX
  8
┌▓È_1
  5
449
 10
960.220
 20
-402.488
 30
0.000000
  70
    32
  0
VERTEX
  8
┌▓È_1
  5
44A
 10
960.250
 20
-402.513
 30
0.000000
  70
    32
  0
VERTEX
  8
┌▓È_1
  5
44B
 10
960.280
 20
-402.537
 30
0.000000
  70
    32
  0
VERTEX
  8
┌▓È_1
  5
44C
 10
960.310
 20
-402.562
 30
0.000000
  70
    32
  0
VERTEX
  8
┌▓È_1
  5
44D
 10
960.340
 20
-402.586
 30
0.000000
  70
    32
  0
VERTEX
  8
┌▓È_1
  5
44E
 10
960.370
 20
-402.610
 30
0.000000
  70
    32
  0
VERTEX
  8
┌▓È_1
  5
44F
 10
960.400
 20
-402.635
 30
0.000000
  70
    32
  0
VERTEX
  8
┌▓È_1
  5
450
 10
960.430
 20
-402.659
 30
0.000000
  70
    32
  0
VERTEX
  8
┌▓È_1
  5
451
 10
960.461
 20
-402.683
 30
0.000000
  70
    32
  0
VERTEX
  8
┌▓È_1
  5
452
 10
960.491
 20
-402.707
 30
0.000000
  70
    32
  0
VERTEX
  8
┌▓È_1
  5
453
 10
960.521
 20
-402.731
 30
0.000000
  70
    32
  0
VERTEX
  8
┌▓È_1
  5
454
 10
960.551
 20
-402.755
 30
0.000000
  70
    32
  0
VERTEX
  8
┌▓È_1
  5
455
 10
960.581
 20
-402.779
 30
0.000000
  70
    32
  0
VERTEX
  8
┌▓È_1
  5
456
 10
960.612
 20
-402.803
 30
0.000000
  70
    32
  0
VERTEX
  8
┌▓È_1
  5
457
 10
960.642
 20
-402.827
 30
0.000000
  70
    32
  0
VERTEX
  8
┌▓È_1
  5
458
 10
960.672
 20
-402.850
 30
0.000000
  70
    32
  0
VERTEX
  8
┌▓È_1
  5
459
 10
960.703
 20
-402.874
 30
0.000000
  70
    32
  0
VERTEX
  8
┌▓È_1
  5
45A
 10
960.733
 20
-402.898
 30
0.000000
  70
    32
  0
VERTEX
  8
┌▓È_1
  5
45B
 10
960.763
 20
-402.921
 30
0.000000
  70
    32
  0
VERTEX
  8
┌▓È_1
  5
45C
 10
960.794
 20
-402.945
 30
0.000000
  70
    32
  0
VERTEX
  8
┌▓È_1
  5
45D
 10
960.824
 20
-402.968
 30
0.000000
  70
    32
  0
VERTEX
  8
┌▓È_1
  5
45E
 10
960.855
 20
-402.992
 30
0.000000
  70
    32
  0
VERTEX
  8
┌▓È_1
  5
45F
 10
960.885
 20
-403.015
 30
0.000000
  70
    32
  0
VERTEX
  8
┌▓È_1
  5
460
 10
960.916
 20
-403.039
 30
0.000000
  70
    32
  0
VERTEX
  8
┌▓È_1
  5
461
 10
960.947
 20
-403.062
 30
0.000000
  70
    32
  0
VERTEX
  8
┌▓È_1
  5
462
 10
960.977
 20
-403.085
 30
0.000000
  70
    32
  0
VERTEX
  8
┌▓È_1
  5
463
 10
961.008
 20
-403.108
 30
0.000000
  70
    32
  0
VERTEX
  8
┌▓È_1
  5
464
 10
961.039
 20
-403.131
 30
0.000000
  70
    32
  0
VERTEX
  8
┌▓È_1
  5
465
 10
961.069
 20
-403.154
 30
0.000000
  70
    32
  0
VERTEX
  8
┌▓È_1
  5
466
 10
961.100
 20
-403.177
 30
0.000000
  70
    32
  0
VERTEX
  8
┌▓È_1
  5
467
 10
961.131
 20
-403.200
 30
0.000000
  70
    32
  0
VERTEX
  8
┌▓È_1
  5
468
 10
961.162
 20
-403.223
 30
0.000000
  70
    32
  0
VERTEX
  8
┌▓È_1
  5
469
 10
961.193
 20
-403.246
 30
0.000000
  70
    32
  0
VERTEX
  8
┌▓È_1
  5
46A
 10
961.224
 20
-403.268
 30
0.000000
  70
    32
  0
VERTEX
  8
┌▓È_1
  5
46B
 10
961.255
 20
-403.291
 30
0.000000
  70
    32
  0
VERTEX
  8
┌▓È_1
  5
46C
 10
961.286
 20
-403.313
 30
0.000000
  70
    32
  0
VERTEX
  8
┌▓È_1
  5
46D
 10
961.317
 20
-403.336
 30
0.000000
  70
    32
  0
VERTEX
  8
┌▓È_1
  5
46E
 10
961.348
 20
-403.358
 30
0.000000
  70
    32
  0
VERTEX
  8
┌▓È_1
  5
46F
 10
961.379
 20
-403.381
 30
0.000000
  70
    32
  0
VERTEX
  8
┌▓È_1
  5
470
 10
961.410
 20
-403.403
 30
0.000000
  70
    32
  0
VERTEX
  8
┌▓È_1
  5
471
 10
961.441
 20
-403.425
 30
0.000000
  70
    32
  0
VERTEX
  8
┌▓È_1
  5
472
 10
961.472
 20
-403.447
 30
0.000000
  70
    32
  0
VERTEX
  8
┌▓È_1
  5
473
 10
961.504
 20
-403.469
 30
0.000000
  70
    32
  0
VERTEX
  8
┌▓È_1
  5
474
 10
961.535
 20
-403.491
 30
0.000000
  70
    32
  0
VERTEX
  8
┌▓È_1
  5
475
 10
961.566
 20
-403.513
 30
0.000000
  70
    32
  0
VERTEX
  8
┌▓È_1
  5
476
 10
961.597
 20
-403.535
 30
0.000000
  70
    32
  0
VERTEX
  8
┌▓È_1
  5
477
 10
961.629
 20
-403.557
 30
0.000000
  70
    32
  0
VERTEX
  8
┌▓È_1
  5
478
 10
961.660
 20
-403.579
 30
0.000000
  70
    32
  0
VERTEX
  8
┌▓È_1
  5
479
 10
961.692
 20
-403.600
 30
0.000000
  70
    32
  0
VERTEX
  8
┌▓È_1
  5
47A
 10
961.723
 20
-403.622
 30
0.000000
  70
    32
  0
VERTEX
  8
┌▓È_1
  5
47B
 10
961.755
 20
-403.643
 30
0.000000
  70
    32
  0
VERTEX
  8
┌▓È_1
  5
47C
 10
961.787
 20
-403.665
 30
0.000000
  70
    32
  0
VERTEX
  8
┌▓È_1
  5
47D
 10
961.818
 20
-403.686
 30
0.000000
  70
    32
  0
VERTEX
  8
┌▓È_1
  5
47E
 10
961.850
 20
-403.707
 30
0.000000
  70
    32
  0
VERTEX
  8
┌▓È_1
  5
47F
 10
961.882
 20
-403.729
 30
0.000000
  70
    32
  0
VERTEX
  8
┌▓È_1
  5
480
 10
961.913
 20
-403.750
 30
0.000000
  70
    32
  0
VERTEX
  8
┌▓È_1
  5
481
 10
961.945
 20
-403.771
 30
0.000000
  70
    32
  0
VERTEX
  8
┌▓È_1
  5
482
 10
961.977
 20
-403.792
 30
0.000000
  70
    32
  0
VERTEX
  8
┌▓È_1
  5
483
 10
962.009
 20
-403.813
 30
0.000000
  70
    32
  0
VERTEX
  8
┌▓È_1
  5
484
 10
962.041
 20
-403.833
 30
0.000000
  70
    32
  0
VERTEX
  8
┌▓È_1
  5
485
 10
962.073
 20
-403.854
 30
0.000000
  70
    32
  0
VERTEX
  8
┌▓È_1
  5
486
 10
962.105
 20
-403.875
 30
0.000000
  70
    32
  0
VERTEX
  8
┌▓È_1
  5
487
 10
962.137
 20
-403.895
 30
0.000000
  70
    32
  0
VERTEX
  8
┌▓È_1
  5
488
 10
962.169
 20
-403.916
 30
0.000000
  70
    32
  0
VERTEX
  8
┌▓È_1
  5
489
 10
962.201
 20
-403.936
 30
0.000000
  70
    32
  0
VERTEX
  8
┌▓È_1
  5
48A
 10
962.233
 20
-403.956
 30
0.000000
  70
    32
  0
VERTEX
  8
┌▓È_1
  5
48B
 10
962.266
 20
-403.977
 30
0.000000
  70
    32
  0
VERTEX
  8
┌▓È_1
  5
48C
 10
962.298
 20
-403.997
 30
0.000000
  70
    32
  0
VERTEX
  8
┌▓È_1
  5
48D
 10
962.330
 20
-404.017
 30
0.000000
  70
    32
  0
VERTEX
  8
┌▓È_1
  5
48E
 10
962.363
 20
-404.037
 30
0.000000
  70
    32
  0
VERTEX
  8
┌▓È_1
  5
48F
 10
962.395
 20
-404.057
 30
0.000000
  70
    32
  0
VERTEX
  8
┌▓È_1
  5
490
 10
962.428
 20
-404.076
 30
0.000000
  70
    32
  0
VERTEX
  8
┌▓È_1
  5
491
 10
962.460
 20
-404.096
 30
0.000000
  70
    32
  0
VERTEX
  8
┌▓È_1
  5
492
 10
962.493
 20
-404.116
 30
0.000000
  70
    32
  0
SEQEND
  8
┌▓È_1
  5
493
  0
POLYLINE
  8
┌▓È_1
  5
494
  62
5
  66
     1
 10
0.000000
 20
0.000000
 30
0.000000
  70
     8
  0
VERTEX
  8
┌▓È_1
  5
495
 10
968.406
 20
-404.069
 30
0.000000
  70
    32
  0
VERTEX
  8
┌▓È_1
  5
496
 10
968.434
 20
-404.077
 30
0.000000
  70
    32
  0
VERTEX
  8
┌▓È_1
  5
497
 10
968.462
 20
-404.085
 30
0.000000
  70
    32
  0
VERTEX
  8
┌▓È_1
  5
498
 10
968.490
 20
-404.093
 30
0.000000
  70
    32
  0
VERTEX
  8
┌▓È_1
  5
499
 10
968.518
 20
-404.101
 30
0.000000
  70
    32
  0
VERTEX
  8
┌▓È_1
  5
49A
 10
968.546
 20
-404.108
 30
0.000000
  70
    32
  0
VERTEX
  8
┌▓È_1
  5
49B
 10
968.574
 20
-404.116
 30
0.000000
  70
    32
  0
VERTEX
  8
┌▓È_1
  5
49C
 10
968.602
 20
-404.124
 30
0.000000
  70
    32
  0
VERTEX
  8
┌▓È_1
  5
49D
 10
968.630
 20
-404.131
 30
0.000000
  70
    32
  0
VERTEX
  8
┌▓È_1
  5
49E
 10
968.658
 20
-404.139
 30
0.000000
  70
    32
  0
VERTEX
  8
┌▓È_1
  5
49F
 10
968.687
 20
-404.147
 30
0.000000
  70
    32
  0
VERTEX
  8
┌▓È_1
  5
4A0
 10
968.715
 20
-404.154
 30
0.000000
  70
    32
  0
VERTEX
  8
┌▓È_1
  5
4A1
 10
968.743
 20
-404.162
 30
0.000000
  70
    32
  0
VERTEX
  8
┌▓È_1
  5
4A2
 10
968.771
 20
-404.169
 30
0.000000
  70
    32
  0
VERTEX
  8
┌▓È_1
  5
4A3
 10
968.800
 20
-404.176
 30
0.000000
  70
    32
  0
VERTEX
  8
┌▓È_1
  5
4A4
 10
968.828
 20
-404.184
 30
0.000000
  70
    32
  0
VERTEX
  8
┌▓È_1
  5
4A5
 10
968.857
 20
-404.191
 30
0.000000
  70
    32
  0
VERTEX
  8
┌▓È_1
  5
4A6
 10
968.885
 20
-404.198
 30
0.000000
  70
    32
  0
VERTEX
  8
┌▓È_1
  5
4A7
 10
968.913
 20
-404.205
 30
0.000000
  70
    32
  0
VERTEX
  8
┌▓È_1
  5
4A8
 10
968.942
 20
-404.212
 30
0.000000
  70
    32
  0
VERTEX
  8
┌▓È_1
  5
4A9
 10
968.970
 20
-404.220
 30
0.000000
  70
    32
  0
VERTEX
  8
┌▓È_1
  5
4AA
 10
968.999
 20
-404.227
 30
0.000000
  70
    32
  0
VERTEX
  8
┌▓È_1
  5
4AB
 10
969.027
 20
-404.234
 30
0.000000
  70
    32
  0
VERTEX
  8
┌▓È_1
  5
4AC
 10
969.056
 20
-404.241
 30
0.000000
  70
    32
  0
VERTEX
  8
┌▓È_1
  5
4AD
 10
969.084
 20
-404.248
 30
0.000000
  70
    32
  0
VERTEX
  8
┌▓È_1
  5
4AE
 10
969.113
 20
-404.255
 30
0.000000
  70
    32
  0
VERTEX
  8
┌▓È_1
  5
4AF
 10
969.142
 20
-404.262
 30
0.000000
  70
    32
  0
VERTEX
  8
┌▓È_1
  5
4B0
 10
969.170
 20
-404.268
 30
0.000000
  70
    32
  0
VERTEX
  8
┌▓È_1
  5
4B1
 10
969.199
 20
-404.275
 30
0.000000
  70
    32
  0
VERTEX
  8
┌▓È_1
  5
4B2
 10
969.228
 20
-404.282
 30
0.000000
  70
    32
  0
VERTEX
  8
┌▓È_1
  5
4B3
 10
969.256
 20
-404.289
 30
0.000000
  70
    32
  0
VERTEX
  8
┌▓È_1
  5
4B4
 10
969.285
 20
-404.295
 30
0.000000
  70
    32
  0
VERTEX
  8
┌▓È_1
  5
4B5
 10
969.314
 20
-404.302
 30
0.000000
  70
    32
  0
VERTEX
  8
┌▓È_1
  5
4B6
 10
969.343
 20
-404.309
 30
0.000000
  70
    32
  0
VERTEX
  8
┌▓È_1
  5
4B7
 10
969.371
 20
-404.315
 30
0.000000
  70
    32
  0
VERTEX
  8
┌▓È_1
  5
4B8
 10
969.400
 20
-404.322
 30
0.000000
  70
    32
  0
VERTEX
  8
┌▓È_1
  5
4B9
 10
969.429
 20
-404.329
 30
0.000000
  70
    32
  0
VERTEX
  8
┌▓È_1
  5
4BA
 10
969.458
 20
-404.335
 30
0.000000
  70
    32
  0
VERTEX
  8
┌▓È_1
  5
4BB
 10
969.487
 20
-404.342
 30
0.000000
  70
    32
  0
VERTEX
  8
┌▓È_1
  5
4BC
 10
969.516
 20
-404.348
 30
0.000000
  70
    32
  0
VERTEX
  8
┌▓È_1
  5
4BD
 10
969.545
 20
-404.354
 30
0.000000
  70
    32
  0
VERTEX
  8
┌▓È_1
  5
4BE
 10
969.573
 20
-404.361
 30
0.000000
  70
    32
  0
VERTEX
  8
┌▓È_1
  5
4BF
 10
969.602
 20
-404.367
 30
0.000000
  70
    32
  0
VERTEX
  8
┌▓È_1
  5
4C0
 10
969.631
 20
-404.373
 30
0.000000
  70
    32
  0
VERTEX
  8
┌▓È_1
  5
4C1
 10
969.660
 20
-404.380
 30
0.000000
  70
    32
  0
VERTEX
  8
┌▓È_1
  5
4C2
 10
969.689
 20
-404.386
 30
0.000000
  70
    32
  0
VERTEX
  8
┌▓È_1
  5
4C3
 10
969.718
 20
-404.392
 30
0.000000
  70
    32
  0
VERTEX
  8
┌▓È_1
  5
4C4
 10
969.747
 20
-404.398
 30
0.000000
  70
    32
  0
VERTEX
  8
┌▓È_1
  5
4C5
 10
969.777
 20
-404.405
 30
0.000000
  70
    32
  0
VERTEX
  8
┌▓È_1
  5
4C6
 10
969.806
 20
-404.411
 30
0.000000
  70
    32
  0
VERTEX
  8
┌▓È_1
  5
4C7
 10
969.835
 20
-404.417
 30
0.000000
  70
    32
  0
VERTEX
  8
┌▓È_1
  5
4C8
 10
969.864
 20
-404.423
 30
0.000000
  70
    32
  0
VERTEX
  8
┌▓È_1
  5
4C9
 10
969.893
 20
-404.429
 30
0.000000
  70
    32
  0
VERTEX
  8
┌▓È_1
  5
4CA
 10
969.922
 20
-404.435
 30
0.000000
  70
    32
  0
VERTEX
  8
┌▓È_1
  5
4CB
 10
969.951
 20
-404.441
 30
0.000000
  70
    32
  0
VERTEX
  8
┌▓È_1
  5
4CC
 10
969.980
 20
-404.447
 30
0.000000
  70
    32
  0
VERTEX
  8
┌▓È_1
  5
4CD
 10
970.010
 20
-404.453
 30
0.000000
  70
    32
  0
VERTEX
  8
┌▓È_1
  5
4CE
 10
970.039
 20
-404.459
 30
0.000000
  70
    32
  0
VERTEX
  8
┌▓È_1
  5
4CF
 10
970.068
 20
-404.465
 30
0.000000
  70
    32
  0
VERTEX
  8
┌▓È_1
  5
4D0
 10
970.097
 20
-404.471
 30
0.000000
  70
    32
  0
VERTEX
  8
┌▓È_1
  5
4D1
 10
970.127
 20
-404.477
 30
0.000000
  70
    32
  0
VERTEX
  8
┌▓È_1
  5
4D2
 10
970.156
 20
-404.482
 30
0.000000
  70
    32
  0
VERTEX
  8
┌▓È_1
  5
4D3
 10
970.185
 20
-404.488
 30
0.000000
  70
    32
  0
VERTEX
  8
┌▓È_1
  5
4D4
 10
970.214
 20
-404.494
 30
0.000000
  70
    32
  0
VERTEX
  8
┌▓È_1
  5
4D5
 10
970.244
 20
-404.500
 30
0.000000
  70
    32
  0
VERTEX
  8
┌▓È_1
  5
4D6
 10
970.273
 20
-404.506
 30
0.000000
  70
    32
  0
VERTEX
  8
┌▓È_1
  5
4D7
 10
970.302
 20
-404.511
 30
0.000000
  70
    32
  0
VERTEX
  8
┌▓È_1
  5
4D8
 10
970.332
 20
-404.517
 30
0.000000
  70
    32
  0
VERTEX
  8
┌▓È_1
  5
4D9
 10
970.361
 20
-404.523
 30
0.000000
  70
    32
  0
VERTEX
  8
┌▓È_1
  5
4DA
 10
970.391
 20
-404.528
 30
0.000000
  70
    32
  0
VERTEX
  8
┌▓È_1
  5
4DB
 10
970.420
 20
-404.534
 30
0.000000
  70
    32
  0
VERTEX
  8
┌▓È_1
  5
4DC
 10
970.449
 20
-404.539
 30
0.000000
  70
    32
  0
VERTEX
  8
┌▓È_1
  5
4DD
 10
970.479
 20
-404.545
 30
0.000000
  70
    32
  0
VERTEX
  8
┌▓È_1
  5
4DE
 10
970.508
 20
-404.551
 30
0.000000
  70
    32
  0
VERTEX
  8
┌▓È_1
  5
4DF
 10
970.538
 20
-404.556
 30
0.000000
  70
    32
  0
VERTEX
  8
┌▓È_1
  5
4E0
 10
970.567
 20
-404.562
 30
0.000000
  70
    32
  0
VERTEX
  8
┌▓È_1
  5
4E1
 10
970.597
 20
-404.567
 30
0.000000
  70
    32
  0
VERTEX
  8
┌▓È_1
  5
4E2
 10
970.626
 20
-404.573
 30
0.000000
  70
    32
  0
VERTEX
  8
┌▓È_1
  5
4E3
 10
970.656
 20
-404.578
 30
0.000000
  70
    32
  0
VERTEX
  8
┌▓È_1
  5
4E4
 10
970.685
 20
-404.584
 30
0.000000
  70
    32
  0
VERTEX
  8
┌▓È_1
  5
4E5
 10
970.715
 20
-404.589
 30
0.000000
  70
    32
  0
VERTEX
  8
┌▓È_1
  5
4E6
 10
970.744
 20
-404.594
 30
0.000000
  70
    32
  0
VERTEX
  8
┌▓È_1
  5
4E7
 10
970.774
 20
-404.600
 30
0.000000
  70
    32
  0
VERTEX
  8
┌▓È_1
  5
4E8
 10
970.803
 20
-404.605
 30
0.000000
  70
    32
  0
VERTEX
  8
┌▓È_1
  5
4E9
 10
970.833
 20
-404.611
 30
0.000000
  70
    32
  0
VERTEX
  8
┌▓È_1
  5
4EA
 10
970.862
 20
-404.616
 30
0.000000
  70
    32
  0
VERTEX
  8
┌▓È_1
  5
4EB
 10
970.892
 20
-404.621
 30
0.000000
  70
    32
  0
VERTEX
  8
┌▓È_1
  5
4EC
 10
970.922
 20
-404.627
 30
0.000000
  70
    32
  0
VERTEX
  8
┌▓È_1
  5
4ED
 10
970.951
 20
-404.632
 30
0.000000
  70
    32
  0
VERTEX
  8
┌▓È_1
  5
4EE
 10
970.981
 20
-404.637
 30
0.000000
  70
    32
  0
VERTEX
  8
┌▓È_1
  5
4EF
 10
971.010
 20
-404.643
 30
0.000000
  70
    32
  0
VERTEX
  8
┌▓È_1
  5
4F0
 10
971.040
 20
-404.648
 30
0.000000
  70
    32
  0
VERTEX
  8
┌▓È_1
  5
4F1
 10
971.070
 20
-404.653
 30
0.000000
  70
    32
  0
VERTEX
  8
┌▓È_1
  5
4F2
 10
971.099
 20
-404.658
 30
0.000000
  70
    32
  0
VERTEX
  8
┌▓È_1
  5
4F3
 10
971.129
 20
-404.664
 30
0.000000
  70
    32
  0
VERTEX
  8
┌▓È_1
  5
4F4
 10
971.159
 20
-404.669
 30
0.000000
  70
    32
  0
VERTEX
  8
┌▓È_1
  5
4F5
 10
971.188
 20
-404.674
 30
0.000000
  70
    32
  0
VERTEX
  8
┌▓È_1
  5
4F6
 10
971.218
 20
-404.679
 30
0.000000
  70
    32
  0
VERTEX
  8
┌▓È_1
  5
4F7
 10
971.248
 20
-404.684
 30
0.000000
  70
    32
  0
VERTEX
  8
┌▓È_1
  5
4F8
 10
971.277
 20
-404.690
 30
0.000000
  70
    32
  0
VERTEX
  8
┌▓È_1
  5
4F9
 10
971.307
 20
-404.695
 30
0.000000
  70
    32
  0
VERTEX
  8
┌▓È_1
  5
4FA
 10
971.337
 20
-404.700
 30
0.000000
  70
    32
  0
VERTEX
  8
┌▓È_1
  5
4FB
 10
971.366
 20
-404.705
 30
0.000000
  70
    32
  0
VERTEX
  8
┌▓È_1
  5
4FC
 10
971.396
 20
-404.710
 30
0.000000
  70
    32
  0
VERTEX
  8
┌▓È_1
  5
4FD
 10
971.426
 20
-404.715
 30
0.000000
  70
    32
  0
VERTEX
  8
┌▓È_1
  5
4FE
 10
971.456
 20
-404.720
 30
0.000000
  70
    32
  0
VERTEX
  8
┌▓È_1
  5
4FF
 10
971.485
 20
-404.726
 30
0.000000
  70
    32
  0
VERTEX
  8
┌▓È_1
  5
500
 10
971.515
 20
-404.731
 30
0.000000
  70
    32
  0
VERTEX
  8
┌▓È_1
  5
501
 10
971.545
 20
-404.736
 30
0.000000
  70
    32
  0
VERTEX
  8
┌▓È_1
  5
502
 10
971.575
 20
-404.741
 30
0.000000
  70
    32
  0
VERTEX
  8
┌▓È_1
  5
503
 10
971.604
 20
-404.746
 30
0.000000
  70
    32
  0
VERTEX
  8
┌▓È_1
  5
504
 10
971.634
 20
-404.751
 30
0.000000
  70
    32
  0
VERTEX
  8
┌▓È_1
  5
505
 10
971.664
 20
-404.756
 30
0.000000
  70
    32
  0
VERTEX
  8
┌▓È_1
  5
506
 10
971.694
 20
-404.761
 30
0.000000
  70
    32
  0
VERTEX
  8
┌▓È_1
  5
507
 10
971.723
 20
-404.766
 30
0.000000
  70
    32
  0
VERTEX
  8
┌▓È_1
  5
508
 10
971.753
 20
-404.771
 30
0.000000
  70
    32
  0
VERTEX
  8
┌▓È_1
  5
509
 10
971.783
 20
-404.776
 30
0.000000
  70
    32
  0
VERTEX
  8
┌▓È_1
  5
50A
 10
971.813
 20
-404.781
 30
0.000000
  70
    32
  0
VERTEX
  8
┌▓È_1
  5
50B
 10
971.842
 20
-404.786
 30
0.000000
  70
    32
  0
VERTEX
  8
┌▓È_1
  5
50C
 10
971.872
 20
-404.791
 30
0.000000
  70
    32
  0
VERTEX
  8
┌▓È_1
  5
50D
 10
971.902
 20
-404.796
 30
0.000000
  70
    32
  0
VERTEX
  8
┌▓È_1
  5
50E
 10
971.932
 20
-404.802
 30
0.000000
  70
    32
  0
VERTEX
  8
┌▓È_1
  5
50F
 10
971.961
 20
-404.807
 30
0.000000
  70
    32
  0
VERTEX
  8
┌▓È_1
  5
510
 10
971.991
 20
-404.812
 30
0.000000
  70
    32
  0
VERTEX
  8
┌▓È_1
  5
511
 10
972.021
 20
-404.817
 30
0.000000
  70
    32
  0
VERTEX
  8
┌▓È_1
  5
512
 10
972.051
 20
-404.822
 30
0.000000
  70
    32
  0
VERTEX
  8
┌▓È_1
  5
513
 10
972.080
 20
-404.827
 30
0.000000
  70
    32
  0
VERTEX
  8
┌▓È_1
  5
514
 10
972.110
 20
-404.832
 30
0.000000
  70
    32
  0
SEQEND
  8
┌▓È_1
  5
515
  0
INSERT
  5
1E3
  8
0
  6
CONTINUOUS
  2
*U46
 10
0.0
 20
0.0
 30
0.0
  0
LINE
  5
1E4
  8
┌▓È_1
 10
871.45889193269988
 20
-376.28796831789998
 30
0.0
 11
967.4588919327
 21
-376.28796831789998
 31
0.0
  0
LINE
  5
1E5
  8
┌▓È_1
 10
967.4588919327
 20
-367.78796831789998
 30
0.0
 11
999.4588919327
 21
-367.78796831789998
 31
0.0
  0
LINE
  5
1E6
  8
┌▓È_1
 62
     5
 10
972.11026436169993
 20
-404.83169157079999
 30
0.0
 11
972.11026436169993
 21
-407.23169157079991
 31
0.0
  0
LINE
  5
1E7
  8
┌▓È_1
 62
     5
 10
982.3782365989
 20
-408.03169157079998
 30
0.0
 11
986.85823659890002
 21
-408.03169157079998
 31
0.0
  0
LINE
  5
1E8
  8
┌▓È_1
 62
     5
 10
953.45329466470014
 20
-399.23169157080002
 30
0.0
 11
953.45329466470014
 21
-401.63169157079989
 31
0.0
  0
LINE
  5
1E9
  8
┌▓È_1
 62
     5
 10
938.01152856619979
 20
-399.23169157080002
 30
0.0
 11
938.01152856619979
 21
-401.63169157079989
 31
0.0
  0
LINE
  5
1EA
  8
┌▓È_1
 62
     5
 10
957.71026436169996
 20
-400.26244442680002
 30
0.0
 11
957.71026436169996
 21
-399.74706799879999
 31
0.0
  0
LINE
  5
1EB
  8
┌▓È_1
 62
     5
 10
964.11026436169993
 20
-399.74706799879999
 30
0.0
 11
963.20516768179994
 21
-400.65216467869999
 31
0.0
  0
LINE
  5
1EC
  8
┌▓È_1
 10
935.45889193269988
 20
-359.28796831789998
 30
0.0
 11
935.45889193269988
 21
-393.28796831789998
 31
0.0
  0
LINE
  5
1ED
  8
┌▓È_1
 10
875.4588919327
 20
-367.78796831789998
 30
0.0
 11
899.4588919327
 21
-367.78796831789998
 31
0.0
  0
LINE
  5
1EE
  8
┌▓È_1
 10
907.4588919327
 20
-367.78796831789998
 30
0.0
 11
931.4588919327
 21
-367.78796831789998
 31
0.0
  0
LINE
  5
1EF
  8
┌▓È_1
 10
875.4588919327
 20
-384.78796831789998
 30
0.0
 11
931.4588919327
 21
-384.78796831789998
 31
0.0
  0
LINE
  5
1F0
  8
┌▓È_1
 10
939.4588919327
 20
-367.78796831789998
 30
0.0
 11
963.45889193269988
 21
-367.78796831789998
 31
0.0
  0
LINE
  5
1F1
  8
┌▓È_1
 10
939.4588919327
 20
-384.78796831789998
 30
0.0
 11
963.45889193269988
 21
-384.78796831789998
 31
0.0
  0
INSERT
  5
1F2
  8
0
  6
CONTINUOUS
  2
*U47
 10
0.0
 20
0.0
 30
0.0
  0
INSERT
  5
1F3
  8
0
  6
CONTINUOUS
  2
*U48
 10
0.0
 20
0.0
 30
0.0
  0
INSERT
  5
1F4
  8
0
  6
CONTINUOUS
  2
*U49
 10
0.0
 20
0.0
 30
0.0
  0
INSERT
  5
1F5
  8
0
  6
CONTINUOUS
  2
*U50
 10
0.0
 20
0.0
 30
0.0
  0
LINE
  5
1F6
  8
┌▓È_1
 62
     5
 10
662.87074089110001
 20
-114.480611547
 30
0.0
 11
658.37074089110001
 21
-114.480611547
 31
0.0
  0
LINE
  5
1F7
  8
┌▓È_1
 62
     5
 10
778.3707408910999
 20
-234.480611547
 30
0.0
 11
778.3707408910999
 21
-229.980611547
 31
0.0
  0
LINE
  5
1F8
  8
┌▓È_1
 62
     5
 10
662.87074089110001
 20
-229.980611547
 30
0.0
 11
778.3707408910999
 21
-229.980611547
 31
0.0
  0
LINE
  5
1F9
  8
┌▓È_1
 62
     5
 10
662.87074089110001
 20
-114.480611547
 30
0.0
 11
662.87074089110001
 21
-229.980611547
 31
0.0
  0
LINE
  5
1FA
  8
┌▓È_1
 62
     5
 10
658.37074089110001
 20
-229.980611547
 30
0.0
 11
658.37074089110001
 21
-114.480611547
 31
0.0
  0
LINE
  5
1FB
  8
┌▓È_1
  6
STITCH
 10
768.87074089110001
 20
-232.730611547
 30
0.0
 11
770.62074089110001
 21
-234.480611547
 31
0.0
  0
LINE
  5
1FC
  8
┌▓È_1
  6
STITCH
 10
768.87074089110001
 20
-231.730611547
 30
0.0
 11
770.62074089110001
 21
-229.980611547
 31
0.0
  0
LINE
  5
1FD
  8
┌▓È_1
  6
STITCH
 10
763.87074089110001
 20
-232.730611547
 30
0.0
 11
762.12074089110001
 21
-234.480611547
 31
0.0
  0
LINE
  5
1FE
  8
┌▓È_1
  6
STITCH
 10
763.87074089110001
 20
-231.730611547
 30
0.0
 11
762.12074089110001
 21
-229.980611547
 31
0.0
  0
LINE
  5
1FF
  8
┌▓È_1
  6
STITCH
 10
763.87074089110001
 20
-231.730611547
 30
0.0
 11
763.87074089110001
 21
-232.730611547
 31
0.0
  0
LINE
  5
200
  8
┌▓È_1
  6
STITCH
 10
768.87074089110001
 20
-232.730611547
 30
0.0
 11
768.87074089110001
 21
-231.730611547
 31
0.0
  0
LINE
  5
201
  8
┌▓È_1
  6
STITCH
 10
768.87074089110001
 20
-231.730611547
 30
0.0
 11
763.87074089110001
 21
-231.730611547
 31
0.0
  0
LINE
  5
202
  8
┌▓È_1
  6
STITCH
 10
763.87074089110001
 20
-232.730611547
 30
0.0
 11
768.87074089110001
 21
-232.730611547
 31
0.0
  0
LINE
  5
203
  8
┌▓È_1
  6
STITCH
 10
661.12074089110001
 20
-128.980611547
 30
0.0
 11
660.12074089110001
 21
-128.980611547
 31
0.0
  0
LINE
  5
204
  8
┌▓È_1
  6
STITCH
 10
660.12074089110001
 20
-123.980611547
 30
0.0
 11
661.12074089110001
 21
-123.980611547
 31
0.0
  0
LINE
  5
205
  8
┌▓È_1
  6
STITCH
 10
661.12074089110001
 20
-123.980611547
 30
0.0
 11
661.12074089110001
 21
-128.980611547
 31
0.0
  0
LINE
  5
206
  8
┌▓È_1
  6
STITCH
 10
660.12074089110001
 20
-128.980611547
 30
0.0
 11
660.12074089110001
 21
-123.980611547
 31
0.0
  0
LINE
  5
207
  8
┌▓È_1
  6
STITCH
 10
661.12074089110001
 20
-123.980611547
 30
0.0
 11
662.87074089110001
 21
-122.230611547
 31
0.0
  0
LINE
  5
208
  8
┌▓È_1
  6
STITCH
 10
660.12074089110001
 20
-123.980611547
 30
0.0
 11
658.37074089110001
 21
-122.230611547
 31
0.0
  0
LINE
  5
209
  8
┌▓È_1
  6
STITCH
 10
660.12074089110001
 20
-128.980611547
 30
0.0
 11
658.37074089110001
 21
-130.730611547
 31
0.0
  0
LINE
  5
20A
  8
┌▓È_1
  6
STITCH
 10
661.12074089110001
 20
-128.980611547
 30
0.0
 11
662.87074089110001
 21
-130.730611547
 31
0.0
  0
INSERT
  5
20C
  8
┌▓È_1
  2
CLUMP0
 10
0.0
 20
0.0
 30
0.0
  0
INSERT
  5
214
  8
┌▓È_1
  2
CLUMP1
 10
0.0
 20
0.0
 30
0.0
  0
INSERT
  5
21C
  8
┌▓È_1
  2
CLUMP2
 10
0.0
 20
0.0
 30
0.0
  0
LINE
  5
223
  8
┌▓È_1
 62
     5
 10
778.3707408910999
 20
-350.12833290120011
 30
0.0
 11
778.3707408910999
 21
-318.1283329012
 31
0.0
  0
INSERT
  5
225
  8
┌▓È_1
  2
CLUMP3
 10
0.0
 20
0.0
 30
0.0
  0
INSERT
  5
22D
  8
┌▓È_1
  2
CLUMP4
 10
0.0
 20
0.0
 30
0.0
  0
INSERT
  5
23A
  8
┌▓È_1
  2
CLUMP5
 10
0.0
 20
0.0
 30
0.0
  0
LINE
  5
246
  8
┌▓È_1
  6
STITCH
 10
662.87074089110001
 20
-318.1283329012
 30
0.0
 11
662.87074089110001
 21
-350.12833290120011
 31
0.0
  0
LINE
  5
247
  8
┌▓È_1
 62
     5
 10
658.37074089110001
 20
-318.1283329012
 30
0.0
 11
658.37074089110001
 21
-350.12833290120011
 31
0.0
  0
ARC
  5
248
  8
┌▓È_1
 62
     5
 10
662.87074089110001
 20
-229.980611547
 30
0.0
 40
4.5
 50
180.0
 51
270.0
  0
LINE
  5
249
  8
┌▓È_1
 62
     5
 10
658.37074089110001
 20
-350.12833290120011
 30
0.0
 11
778.3707408910999
 21
-350.12833290120011
 31
0.0
  0
LINE
  5
24A
  8
┌▓È_1
  6
BORDER
 62
     3
 10
967.56177734940002
 20
-152.44063758870001
 30
0.0
 11
967.56177734940002
 21
-187.94063758870001
 31
0.0
  0
LINE
  5
24B
  8
┌▓È_1
 62
     5
 10
946.3117773493999
 20
-158.45735894289999
 30
0.0
 11
955.06177734940002
 21
-167.20735894289999
 31
0.0
  0
LINE
  5
24C
  8
┌▓È_1
 62
     5
 10
980.06177734940002
 20
-167.20735894289999
 30
0.0
 11
988.81177734940002
 21
-158.45735894289999
 31
0.0
  0
LINE
  5
24D
  8
┌▓È_1
 62
     5
 10
980.06177734940002
 20
-167.20735894289999
 30
0.0
 11
980.06177734940002
 21
-172.20735894289999
 31
0.0
  0
LINE
  5
24E
  8
┌▓È_1
 62
     5
 10
955.06177734940002
 20
-167.20735894289999
 30
0.0
 11
955.06177734940002
 21
-172.20735894289999
 31
0.0
  0
LINE
  5
24F
  8
┌▓È_1
 62
     5
 10
955.06177734940002
 20
-172.20735894289999
 30
0.0
 11
946.3117773493999
 21
-180.95735894289999
 31
0.0
  0
LINE
  5
250
  8
┌▓È_1
 62
     5
 10
980.06177734940002
 20
-172.20735894289999
 30
0.0
 11
988.81177734940002
 21
-180.95735894289999
 31
0.0
  0
LINE
  5
251
  8
┌▓È_1
 62
     5
 10
955.06177734940002
 20
-167.20735894289999
 30
0.0
 11
980.06177734940002
 21
-167.20735894289999
 31
0.0
  0
LINE
  5
252
  8
┌▓È_1
 62
     5
 10
955.06177734940002
 20
-172.20735894289999
 30
0.0
 11
980.06177734940002
 21
-172.20735894289999
 31
0.0
  0
LINE
  5
253
  8
┌▓È_1
 62
     5
 10
931.63164771979984
 20
-180.95735894289999
 30
0.0
 11
1004.6302588308999
 21
-180.95735894289999
 31
0.0
  0
LINE
  5
254
  8
┌▓È_1
 62
     5
 10
931.63164771979984
 20
-158.45735894289999
 30
0.0
 11
1004.6302588308999
 21
-158.45735894289999
 31
0.0
  0
LINE
  5
255
  8
┌▓È_1
 62
     5
 10
840.10606901609992
 20
-234.480611547
 30
0.0
 11
872.10606901609992
 21
-234.480611547
 31
0.0
  0
LINE
  5
256
  8
┌▓È_1
 62
     5
 10
840.10606901609992
 20
-229.980611547
 30
0.0
 11
872.10606901609992
 21
-229.980611547
 31
0.0
  0
LINE
  5
257
  8
┌▓È_1
 62
     5
 10
872.10606901609992
 20
-114.480611547
 30
0.0
 11
840.10606901609992
 21
-114.480611547
 31
0.0
  0
LINE
  5
258
  8
┌▓È_1
 62
     5
 10
840.10606901609992
 20
-234.480611547
 30
0.0
 11
840.10606901609992
 21
-114.480611547
 31
0.0
  0
LINE
  5
259
  8
┌▓È_1
 62
     5
 10
872.10606901609992
 20
-234.480611547
 30
0.0
 11
872.10606901609992
 21
-114.480611547
 31
0.0
  0
LINE
  5
25A
  8
┌▓È_1
  6
BORDER
 62
     3
 10
668.69851866879992
 20
-126.480611547
 30
0.0
 11
651.32907422439996
 21
-126.480611547
 31
0.0
  0
LINE
  5
25B
  8
┌▓È_1
  6
BORDER
 62
     3
 10
766.37074089110001
 20
-224.15283376919999
 30
0.0
 11
766.37074089110001
 21
-241.52227821369999
 31
0.0
  0
ENDSEC
  0
EOF
