  0
SECTION
  2
HEADER
  9
$ACADVER
  1
AC1009
  9
$INSBASE
 10
0.0
 20
0.0
 30
0.0
  9
$EXTMIN
 10
563.29234752449986
 20
-411.35614521759999
 30
0.0
  9
$EXTMAX
 10
1113.2923475245
 20
-31.356145217600002
 30
0.0
  9
$LIMMIN
 10
0.0
 20
0.0
  9
$LIMMAX
 10
0.0
 20
0.0
  9
$ORTHOMODE
 70
     0
  9
$REGENMODE
 70
     1
  9
$FILLMODE
 70
     1
  9
$QTEXTMODE
 70
     0
  9
$MIRRTEXT
 70
     1
  9
$DRAGMODE
 70
     2
  9
$LTSCALE
 40
1.0
  9
$OSMODE
 70
    31
  9
$ATTMODE
 70
     1
  9
$TEXTSIZE
 40
0.0
  9
$TRACEWID
 40
0.05
  9
$TEXTSTYLE
  7
STANDARD
  9
$CLAYER
  8
0
  9
$CELTYPE
  6
CONTINUOUS
  9
$CECOLOR
 62
   256
  9
$DIMSCALE
 40
1.0
  9
$DIMASZ
 40
0.18
  9
$DIMEXO
 40
0.0625
  9
$DIMDLI
 40
0.38
  9
$DIMRND
 40
0.0
  9
$DIMDLE
 40
0.0
  9
$DIMEXE
 40
0.18
  9
$DIMTP
 40
0.0
  9
$DIMTM
 40
0.0
  9
$DIMTXT
 40
0.18
  9
$DIMCEN
 40
0.09
  9
$DIMTSZ
 40
0.0
  9
$DIMTOL
 70
     0
  9
$DIMLIM
 70
     0
  9
$DIMTIH
 70
     1
  9
$DIMTOH
 70
     1
  9
$DIMSE1
 70
     0
  9
$DIMSE2
 70
     0
  9
$DIMTAD
 70
     0
  9
$DIMZIN
 70
     0
  9
$DIMBLK
  1

  9
$DIMASO
 70
     1
  9
$DIMSHO
 70
     1
  9
$DIMPOST
  1

  9
$DIMAPOST
  1

  9
$DIMALT
 70
     0
  9
$DIMALTD
 70
     2
  9
$DIMALTF
 40
25.399999999999999
  9
$DIMLFAC
 40
1.0
  9
$DIMTOFL
 70
     0
  9
$DIMTVP
 40
0.0
  9
$DIMTIX
 70
     0
  9
$DIMSOXD
 70
     0
  9
$DIMSAH
 70
     0
  9
$DIMBLK1
  1

  9
$DIMBLK2
  1

  9
$DIMSTYLE
  2
STANDARD
  9
$DIMCLRD
 70
     0
  9
$DIMCLRE
 70
     0
  9
$DIMCLRT
 70
     0
  9
$DIMTFAC
 40
1.0
  9
$DIMGAP
 40
0.09
  9
$LUNITS
 70
     2
  9
$LUPREC
 70
     4
  9
$SKETCHINC
 40
0.1
  9
$FILLETRAD
 40
0.0
  9
$AUNITS
 70
     0
  9
$AUPREC
 70
     0
  9
$MENU
  1
acad
  9
$ELEVATION
 40
0.0
  9
$PELEVATION
 40
0.0
  9
$THICKNESS
 40
0.0
  9
$LIMCHECK
 70
     0
  9
$BLIPMODE
 70
     0
  9
$CHAMFERA
 40
0.0
  9
$CHAMFERB
 40
0.0
  9
$SKPOLY
 70
     0
  9
$TDCREATE
 40
2454862.742002489
  9
$TDUPDATE
 40
2454862.7421858679
  9
$TDINDWG
 40
0.0001916898
  9
$TDUSRTIMER
 40
0.000191331
  9
$USRTIMER
 70
     1
  9
$ANGBASE
 50
0.0
  9
$ANGDIR
 70
     0
  9
$PDMODE
 70
     3
  9
$PDSIZE
 40
-1.0
  9
$PLINEWID
 40
0.0
  9
$COORDS
 70
     2
  9
$SPLFRAME
 70
     0
  9
$SPLINETYPE
 70
     6
  9
$SPLINESEGS
 70
     8
  9
$ATTDIA
 70
     0
  9
$ATTREQ
 70
     1
  9
$HANDLING
 70
     1
  9
$HANDSEED
  5
5AA
  9
$SURFTAB1
 70
     6
  9
$SURFTAB2
 70
     6
  9
$SURFTYPE
 70
     6
  9
$SURFU
 70
     6
  9
$SURFV
 70
     6
  9
$UCSNAME
  2

  9
$UCSORG
 10
0.0
 20
0.0
 30
0.0
  9
$UCSXDIR
 10
1.0
 20
0.0
 30
0.0
  9
$UCSYDIR
 10
0.0
 20
1.0
 30
0.0
  9
$PUCSNAME
  2

  9
$PUCSORG
 10
0.0
 20
0.0
 30
0.0
  9
$PUCSXDIR
 10
1.0
 20
0.0
 30
0.0
  9
$PUCSYDIR
 10
0.0
 20
1.0
 30
0.0
  9
$USERI1
 70
     0
  9
$USERI2
 70
     0
  9
$USERI3
 70
     0
  9
$USERI4
 70
     0
  9
$USERI5
 70
     0
  9
$USERR1
 40
0.0
  9
$USERR2
 40
0.0
  9
$USERR3
 40
0.0
  9
$USERR4
 40
0.0
  9
$USERR5
 40
0.0
  9
$WORLDVIEW
 70
     1
  9
$SHADEDGE
 70
     3
  9
$SHADEDIF
 70
    70
  9
$TILEMODE
 70
     1
  9
$MAXACTVP
 70
    16
  9
$PLIMCHECK
 70
     0
  9
$PEXTMIN
 10
1.0000000000000000E+020
 20
1.0000000000000000E+020
 30
1.0000000000000000E+020
  9
$PEXTMAX
 10
-1.0000000000000000E+020
 20
-1.0000000000000000E+020
 30
-1.0000000000000000E+020
  9
$PLIMMIN
 10
0.0
 20
0.0
  9
$PLIMMAX
 10
12.0
 20
9.0
  9
$UNITMODE
 70
     0
  9
$VISRETAIN
 70
     0
  9
$PLINEGEN
 70
     1
  9
$PSLTSCALE
 70
     0
  0
ENDSEC
  0
SECTION
  2
TABLES
  0
TABLE
  2
VPORT
 70
     2
  0
VPORT
  2
*ACTIVE
 70
     0
 10
0.0
 20
0.0
 11
1.0
 21
1.0
 12
838.29234752449997
 22
-221.35614521759999
 13
0.0
 23
0.0
 14
1.0
 24
1.0
 15
0.0
 25
0.0
 16
0.0
 26
0.0
 36
1.0
 17
0.0
 27
0.0
 37
0.0
 40
397.98585584749179
 41
1.3903818953323901
 42
50.0
 43
0.0
 44
0.0
 50
0.0
 51
0.0
 71
     0
 72
   100
 73
     1
 74
     1
 75
     0
 76
     0
 77
     0
 78
     0
  0
ENDTAB
  0
TABLE
  2
LTYPE
 70
    11
  0
LTYPE
  2
CONTINUOUS
 70
     0
  3
Solid line
 72
    65
 73
     0
 40
0.0
  0
LTYPE
  2
DOT
 70
     0
  3
. . . . . . . . 
 72
    65
 73
     2
 40
1.0
 49
0.0
 49
-1.0
  0
LTYPE
  2
DASHED
 70
     0
  3
___  ___  ___  ___  
 72
    65
 73
     2
 40
4.0
 49
3.0
 49
-1.0
  0
LTYPE
  2
HIDDEN
 70
     0
  3
__ __ __ __ 
 72
    65
 73
     2
 40
3.0
 49
2.0
 49
-1.0
  0
LTYPE
  2
STITCH
 70
     0
  3
_ _ _ _ 
 72
    65
 73
     2
 40
2.0
 49
1.0
 49
-1.0
  0
LTYPE
  2
CENTER
 70
     0
  3
______  __  ______  __  
 72
    65
 73
     4
 40
43.0
 49
40.0
 49
-1.0
 49
1.0
 49
-1.0
  0
LTYPE
  2
DASHDOT
 70
     0
  3
____ . ____ . 
 72
    65
 73
     4
 40
32.0
 49
30.0
 49
-1.0
 49
0.0
 49
-1.0
  0
LTYPE
  2
BORDER
 70
     0
  3
__ . __ . 
 72
    65
 73
     4
 40
22.0
 49
20.0
 49
-1.0
 49
0.0
 49
-1.0
  0
LTYPE
  2
CUTTING
 70
     0
  3
________   ___   ___   
 72
    65
 73
     6
 40
45.0
 49
40.0
 49
-1.0
 49
1.0
 49
-1.0
 49
1.0
 49
-1.0
  0
LTYPE
  2
PHANTOM
 70
     0
  3
______  __  __  
 72
    65
 73
     6
 40
35.0
 49
30.0
 49
-1.0
 49
1.0
 49
-1.0
 49
1.0
 49
-1.0
  0
LTYPE
  2
DIVIDE
 70
     0
  3
____ . . ____ . . 
 72
    65
 73
     6
 40
23.0
 49
20.0
 49
-1.0
 49
0.0
 49
-1.0
 49
0.0
 49
-1.0
  0
ENDTAB
  0
TABLE
  2
LAYER
 70
     4
  0
LAYER
  2
0
 70
     0
 62
     7
  6
CONTINUOUS
  0
LAYER
  2
┌▓È_1
 70
     0
 62
     7
  6
CONTINUOUS
  0
LAYER
  2
Éíû@É³
 70
     0
 62
     7
  6
CONTINUOUS
  0
LAYER
  2
Defpoints
 70
     0
 62
     7
  6
CONTINUOUS
  0
ENDTAB
  0
TABLE
  2
STYLE
 70
     1
  0
STYLE
  2
STANDARD
 70
     0
 40
0.0
 41
1.0
 50
0.0
 71
     0
 42
0.0
  3
txt
  4
extfont
  0
ENDTAB
  0
TABLE
  2
VIEW
 70
     0
  0
ENDTAB
  0
TABLE
  2
UCS
 70
     0
  0
ENDTAB
  0
TABLE
  2
APPID
 70
     2
  0
APPID
  2
ACAD
 70
     0
  0
APPID
  2
DCO15
 70
     0
  0
ENDTAB
  0
TABLE
  2
DIMSTYLE
 70
     4
  0
DIMSTYLE
  2
STANDARD
 70
     0
  3

  4

  5

  6

  7

 40
1.0
 41
0.18
 42
0.0625
 43
0.38
 44
0.18
 45
0.0
 46
0.0
 47
0.0
 48
0.0
140
0.18
141
0.09
142
0.0
143
25.399999999999999
144
1.0
145
0.0
146
1.0
147
0.09
 71
     0
 72
     0
 73
     1
 74
     1
 75
     0
 76
     0
 77
     0
 78
     0
170
     0
171
     2
172
     0
173
     0
174
     0
175
     0
176
     0
177
     0
178
     0
  0
DIMSTYLE
  2
VELDIM0
 70
     0
  3

  4

  5

  6

  7

 40
1.0
 41
6.0
 42
0.0625
 43
0.38
 44
1.0
 45
0.0
 46
6.0
 47
0.0
 48
0.0
140
5.9972220420999998
141
0.09
142
0.0
143
25.399999999999999
144
1.0
145
0.0
146
1.0
147
0.09
 71
     0
 72
     0
 73
     0
 74
     0
 75
     0
 76
     0
 77
     0
 78
     8
170
     0
171
     2
172
     0
173
     0
174
     0
175
     0
176
     0
177
     0
178
     0
  0
DIMSTYLE
  2
VELDIM1
 70
     0
  3

  4

  5

  6

  7

 40
1.0
 41
6.0
 42
0.0625
 43
0.38
 44
0.5
 45
0.0
 46
3.0
 47
0.0
 48
0.0
140
5.9972220420999998
141
0.09
142
0.0
143
25.399999999999999
144
1.0
145
0.0
146
1.0
147
0.09
 71
     0
 72
     0
 73
     0
 74
     0
 75
     0
 76
     0
 77
     0
 78
     8
170
     0
171
     2
172
     0
173
     0
174
     0
175
     0
176
     0
177
     0
178
     0
  0
DIMSTYLE
  2
VELDIM2
 70
     0
  3

  4

  5

  6

  7

 40
1.0
 41
6.0
 42
0.0625
 43
0.38
 44
1.25
 45
0.0
 46
5.0
 47
0.0
 48
0.0
140
5.9972220420999998
141
0.09
142
0.0
143
25.399999999999999
144
1.0
145
0.0
146
1.0
147
0.09
 71
     0
 72
     0
 73
     0
 74
     0
 75
     0
 76
     0
 77
     0
 78
     8
170
     0
171
     2
172
     0
173
     0
174
     0
175
     0
176
     0
177
     0
178
     0
  0
ENDTAB
  0
ENDSEC
  0
SECTION
  2
BLOCKS
  0
BLOCK
  8
0
  2
$MODEL_SPACE
 70
     0
 10
0.0
 20
0.0
 30
0.0
  3
$MODEL_SPACE
  1

  0
ENDBLK
  5
E
  8
0
  0
BLOCK
 67
     1
  8
0
  2
$PAPER_SPACE
 70
     0
 10
0.0
 20
0.0
 30
0.0
  3
$PAPER_SPACE
  1

  0
ENDBLK
  5
10
 67
     1
  8
0
  0
BLOCK
  8
0
  2
CLUMP0
 70
     0
 10
0.0
 20
0.0
 30
0.0
  3
CLUMP0
  1

  0
LINE
  5
35
  8
┌▓È_1
  6
BORDER
 62
     3
 10
896.45246805749991
 20
-216.76703176859999
 30
0.0
 11
896.45246805749991
 21
-228.76703176859999
 31
0.0
  0
LINE
  5
36
  8
┌▓È_1
  6
BORDER
 62
     3
 10
902.45246805750003
 20
-222.76703176859999
 30
0.0
 11
890.45246805750014
 21
-222.76703176859999
 31
0.0
  0
CIRCLE
  5
37
  8
┌▓È_1
 62
     5
 10
896.45246805749991
 20
-222.76703176859999
 30
0.0
 40
4.25
  0
CIRCLE
  5
38
  8
┌▓È_1
 62
     5
 10
896.45246805749991
 20
-222.76703176859999
 30
0.0
 40
2.5
  0
ENDBLK
  5
39
  8
0
  0
BLOCK
  8
0
  2
CLUMP1
 70
     0
 10
0.0
 20
0.0
 30
0.0
  3
CLUMP1
  1

  0
LINE
  5
3D
  8
┌▓È_1
  6
BORDER
 62
     3
 10
886.45246805750003
 20
-162.76703176859999
 30
0.0
 11
886.45246805750003
 21
-174.76703176859999
 31
0.0
  0
LINE
  5
3E
  8
┌▓È_1
  6
BORDER
 62
     3
 10
880.45246805749991
 20
-168.76703176859999
 30
0.0
 11
892.45246805750003
 21
-168.76703176859999
 31
0.0
  0
CIRCLE
  5
3F
  8
┌▓È_1
 62
     5
 10
886.45246805750003
 20
-168.76703176859999
 30
0.0
 40
4.25
  0
CIRCLE
  5
40
  8
┌▓È_1
 62
     5
 10
886.45246805750003
 20
-168.76703176859999
 30
0.0
 40
2.5
  0
ENDBLK
  5
41
  8
0
  0
BLOCK
  8
0
  2
CLUMP2
 70
     0
 10
0.0
 20
0.0
 30
0.0
  3
CLUMP2
  1

  0
LINE
  5
48
  8
┌▓È_1
  6
BORDER
 62
     3
 10
688.92068222049988
 20
-354.3125395811
 30
0.0
 11
688.92068222049988
 21
-342.3125395811
 31
0.0
  0
LINE
  5
49
  8
┌▓È_1
  6
BORDER
 62
     3
 10
682.9206822205
 20
-348.3125395811
 30
0.0
 11
694.9206822205
 21
-348.3125395811
 31
0.0
  0
CIRCLE
  5
4A
  8
┌▓È_1
 62
     5
 10
688.92068222049988
 20
-348.3125395811
 30
0.0
 40
4.25
  0
CIRCLE
  5
4B
  8
┌▓È_1
 62
     5
 10
688.92068222049988
 20
-348.3125395811
 30
0.0
 40
2.5
  0
ENDBLK
  5
4C
  8
0
  0
BLOCK
  8
0
  2
CLUMP3
 70
     0
 10
0.0
 20
0.0
 30
0.0
  3
CLUMP3
  1

  0
LINE
  5
50
  8
┌▓È_1
  6
BORDER
 62
     3
 10
669.24845999829995
 20
-222.76703176859999
 30
0.0
 11
651.87901555379995
 21
-222.76703176859999
 31
0.0
  0
LINE
  5
51
  8
┌▓È_1
  6
STITCH
 10
661.67068222049988
 20
-220.26703176859999
 30
0.0
 11
663.42068222049988
 21
-218.51703176859999
 31
0.0
  0
LINE
  5
52
  8
┌▓È_1
  6
STITCH
 10
660.6706822205
 20
-220.26703176859999
 30
0.0
 11
658.92068222049988
 21
-218.51703176859999
 31
0.0
  0
LINE
  5
53
  8
┌▓È_1
  6
STITCH
 10
660.6706822205
 20
-225.26703176859999
 30
0.0
 11
658.92068222049988
 21
-227.01703176859999
 31
0.0
  0
LINE
  5
54
  8
┌▓È_1
  6
STITCH
 10
661.67068222049988
 20
-225.26703176859999
 30
0.0
 11
663.42068222049988
 21
-227.01703176859999
 31
0.0
  0
LINE
  5
55
  8
┌▓È_1
  6
STITCH
 10
661.67068222049988
 20
-225.26703176859999
 30
0.0
 11
660.6706822205
 21
-225.26703176859999
 31
0.0
  0
LINE
  5
56
  8
┌▓È_1
  6
STITCH
 10
660.6706822205
 20
-220.26703176859999
 30
0.0
 11
661.67068222049988
 21
-220.26703176859999
 31
0.0
  0
LINE
  5
57
  8
┌▓È_1
  6
STITCH
 10
661.67068222049988
 20
-220.26703176859999
 30
0.0
 11
661.67068222049988
 21
-225.26703176859999
 31
0.0
  0
LINE
  5
58
  8
┌▓È_1
  6
STITCH
 10
660.6706822205
 20
-225.26703176859999
 30
0.0
 11
660.6706822205
 21
-220.26703176859999
 31
0.0
  0
ENDBLK
  5
59
  8
0
  0
BLOCK
  8
0
  2
CLUMP4
 70
     0
 10
0.0
 20
0.0
 30
0.0
  3
CLUMP4
  1

  0
INSERT
  5
5E
  8
┌▓È_1
  6
BORDER
  2
CLUMP5
 10
0.0
 20
0.0
 30
0.0
  0
ENDBLK
  5
6A
  8
0
  0
BLOCK
  8
0
  2
CLUMP5
 70
     0
 10
0.0
 20
0.0
 30
0.0
  3
CLUMP5
  1

  0
LINE
  5
60
  8
┌▓È_1
  6
BORDER
 62
     3
 10
688.92068222049988
 20
-242.43925399080001
 30
0.0
 11
688.92068222049988
 21
-259.80869843519997
 31
0.0
  0
LINE
  5
61
  8
┌▓È_1
  6
STITCH
 10
691.4206822205
 20
-250.01703176859999
 30
0.0
 11
686.4206822205
 21
-250.01703176859999
 31
0.0
  0
LINE
  5
62
  8
┌▓È_1
  6
STITCH
 10
691.4206822205
 20
-250.01703176859999
 30
0.0
 11
693.1706822205
 21
-248.26703176859999
 31
0.0
  0
LINE
  5
63
  8
┌▓È_1
  6
STITCH
 10
691.4206822205
 20
-251.01703176859999
 30
0.0
 11
693.1706822205
 21
-252.76703176859999
 31
0.0
  0
LINE
  5
64
  8
┌▓È_1
  6
STITCH
 10
691.4206822205
 20
-251.01703176859999
 30
0.0
 11
691.4206822205
 21
-250.01703176859999
 31
0.0
  0
LINE
  5
65
  8
┌▓È_1
  6
STITCH
 10
686.4206822205
 20
-251.01703176859999
 30
0.0
 11
691.4206822205
 21
-251.01703176859999
 31
0.0
  0
LINE
  5
66
  8
┌▓È_1
  6
STITCH
 10
686.4206822205
 20
-250.01703176859999
 30
0.0
 11
686.4206822205
 21
-251.01703176859999
 31
0.0
  0
LINE
  5
67
  8
┌▓È_1
  6
STITCH
 10
686.4206822205
 20
-250.01703176859999
 30
0.0
 11
684.6706822205
 21
-248.26703176859999
 31
0.0
  0
LINE
  5
68
  8
┌▓È_1
  6
STITCH
 10
686.4206822205
 20
-251.01703176859999
 30
0.0
 11
684.6706822205
 21
-252.76703176859999
 31
0.0
  0
ENDBLK
  5
69
  8
0
  0
BLOCK
  8
0
  2
*D6
 70
     1
 10
0.0
 20
0.0
 30
0.0
  3
*D6
  1

  0
TEXT
  5
6E
  8
0
 62
     0
 10
887.92469038570005
 20
-63.960311896599997
 30
0.0
 40
5.9972220420999998
  1
32
  0
LINE
  5
6F
  8
0
 62
     0
 10
907.45246805750014
 20
-100.76703176860001
 30
0.0
 11
907.45246805750014
 21
-66.018645198199991
 31
0.0
  0
LINE
  5
70
  8
0
 62
     0
 10
875.45246805750003
 20
-100.76703176860001
 30
0.0
 11
875.45246805750003
 21
-66.018645198199991
 31
0.0
  0
LINE
  5
71
  8
0
 62
     0
 10
907.45246805750014
 20
-67.018645198199991
 30
0.0
 11
898.50802340109999
 21
-67.018645198199991
 31
0.0
  0
LINE
  5
72
  8
0
 62
     0
 10
907.45246805750014
 20
-67.018645198199991
 30
0.0
 11
884.39691271380002
 21
-67.018645198199991
 31
0.0
  0
LINE
  5
73
  8
0
 62
     0
 10
875.45246805750003
 20
-67.018645198199991
 30
0.0
 11
898.50802340109999
 21
-67.018645198199991
 31
0.0
  0
LINE
  5
74
  8
0
 62
     0
 10
875.45246805750003
 20
-67.018645198199991
 30
0.0
 11
884.39691271380002
 21
-67.018645198199991
 31
0.0
  0
LINE
  5
75
  8
0
 62
     0
 10
875.45246805750003
 20
-67.018645198199991
 30
0.0
 11
881.45246805750014
 21
-67.018645198199991
 31
0.0
  0
SOLID
  5
76
  8
0
 62
     0
 10
875.45246805750003
 20
-67.018645198199991
 30
0.0
 11
881.45246805750014
 21
-65.518645198199991
 31
0.0
 12
881.45246805750014
 22
-68.518645198199991
 32
0.0
 13
879.95246805750003
 23
-67.018645198199991
 33
0.0
  0
LINE
  5
77
  8
0
 62
     0
 10
907.45246805750014
 20
-67.018645198199991
 30
0.0
 11
901.45246805750003
 21
-67.018645198199991
 31
0.0
  0
SOLID
  5
78
  8
0
 62
     0
 10
907.45246805750014
 20
-67.018645198199991
 30
0.0
 11
901.45246805750003
 21
-68.518645198199991
 31
0.0
 12
901.45246805750003
 22
-65.518645198199991
 32
0.0
 13
902.95246805750014
 23
-67.018645198199991
 33
0.0
  0
ENDBLK
  5
79
  8
0
  0
BLOCK
  8
0
  2
CLUMP6
 70
     0
 10
0.0
 20
0.0
 30
0.0
  3
CLUMP6
  1

  0
LINE
  5
88
  8
┌▓È_1
  6
BORDER
 62
     3
 10
891.45246805750003
 20
-108.76703176860001
 30
0.0
 11
891.45246805750003
 21
-120.76703176860001
 31
0.0
  0
LINE
  5
89
  8
┌▓È_1
  6
BORDER
 62
     3
 10
885.45246805750003
 20
-114.76703176860001
 30
0.0
 11
897.45246805749991
 21
-114.76703176860001
 31
0.0
  0
CIRCLE
  5
8A
  8
┌▓È_1
 62
     5
 10
891.45246805750003
 20
-114.76703176860001
 30
0.0
 40
4.25
  0
CIRCLE
  5
8B
  8
┌▓È_1
 62
     5
 10
891.45246805750003
 20
-114.76703176860001
 30
0.0
 40
2.5
  0
ENDBLK
  5
8C
  8
0
  0
BLOCK
  8
0
  2
CLUMP7
 70
     0
 10
0.0
 20
0.0
 30
0.0
  3
CLUMP7
  1

  0
LINE
  5
95
  8
┌▓È_1
  6
BORDER
 62
     3
 10
742.92068222049988
 20
-352.3125395811
 30
0.0
 11
742.92068222049988
 21
-364.3125395811
 31
0.0
  0
LINE
  5
96
  8
┌▓È_1
  6
BORDER
 62
     3
 10
736.9206822205
 20
-358.3125395811
 30
0.0
 11
748.9206822205
 21
-358.3125395811
 31
0.0
  0
CIRCLE
  5
97
  8
┌▓È_1
 62
     5
 10
742.92068222049988
 20
-358.3125395811
 30
0.0
 40
4.25
  0
CIRCLE
  5
98
  8
┌▓È_1
 62
     5
 10
742.92068222049988
 20
-358.3125395811
 30
0.0
 40
2.5
  0
ENDBLK
  5
99
  8
0
  0
BLOCK
  8
0
  2
CLUMP8
 70
     0
 10
0.0
 20
0.0
 30
0.0
  3
CLUMP8
  1

  0
LINE
  5
9D
  8
┌▓È_1
  6
BORDER
 62
     3
 10
790.9206822205
 20
-353.3125395811
 30
0.0
 11
802.92068222049988
 21
-353.3125395811
 31
0.0
  0
LINE
  5
9E
  8
┌▓È_1
  6
BORDER
 62
     3
 10
796.92068222049988
 20
-347.3125395811
 30
0.0
 11
796.92068222049988
 21
-359.3125395811
 31
0.0
  0
CIRCLE
  5
9F
  8
┌▓È_1
 62
     5
 10
796.92068222049988
 20
-353.3125395811
 30
0.0
 40
2.5
  0
CIRCLE
  5
A0
  8
┌▓È_1
 62
     5
 10
796.92068222049988
 20
-353.3125395811
 30
0.0
 40
4.25
  0
ENDBLK
  5
A1
  8
0
  0
BLOCK
  8
0
  2
CLUMP9
 70
     0
 10
0.0
 20
0.0
 30
0.0
  3
CLUMP9
  1

  0
LINE
  5
A5
  8
┌▓È_1
  6
BORDER
 62
     3
 10
669.24845999829995
 20
-168.76703176859999
 30
0.0
 11
651.87901555379995
 21
-168.76703176859999
 31
0.0
  0
LINE
  5
A6
  8
┌▓È_1
  6
STITCH
 10
661.67068222049988
 20
-166.26703176859999
 30
0.0
 11
663.42068222049988
 21
-164.51703176859999
 31
0.0
  0
LINE
  5
A7
  8
┌▓È_1
  6
STITCH
 10
660.6706822205
 20
-166.26703176859999
 30
0.0
 11
658.92068222049988
 21
-164.51703176859999
 31
0.0
  0
LINE
  5
A8
  8
┌▓È_1
  6
STITCH
 10
660.6706822205
 20
-171.26703176859999
 30
0.0
 11
658.92068222049988
 21
-173.01703176859999
 31
0.0
  0
LINE
  5
A9
  8
┌▓È_1
  6
STITCH
 10
661.67068222049988
 20
-171.26703176859999
 30
0.0
 11
663.42068222049988
 21
-173.01703176859999
 31
0.0
  0
LINE
  5
AA
  8
┌▓È_1
  6
STITCH
 10
661.67068222049988
 20
-171.26703176859999
 30
0.0
 11
660.6706822205
 21
-171.26703176859999
 31
0.0
  0
LINE
  5
AB
  8
┌▓È_1
  6
STITCH
 10
660.6706822205
 20
-166.26703176859999
 30
0.0
 11
661.67068222049988
 21
-166.26703176859999
 31
0.0
  0
LINE
  5
AC
  8
┌▓È_1
  6
STITCH
 10
661.67068222049988
 20
-166.26703176859999
 30
0.0
 11
661.67068222049988
 21
-171.26703176859999
 31
0.0
  0
LINE
  5
AD
  8
┌▓È_1
  6
STITCH
 10
660.6706822205
 20
-171.26703176859999
 30
0.0
 11
660.6706822205
 21
-166.26703176859999
 31
0.0
  0
ENDBLK
  5
AE
  8
0
  0
BLOCK
  8
0
  2
CLUMP10
 70
     0
 10
0.0
 20
0.0
 30
0.0
  3
CLUMP10
  1

  0
INSERT
  5
B3
  8
┌▓È_1
  6
BORDER
  2
CLUMP11
 10
0.0
 20
0.0
 30
0.0
  0
ENDBLK
  5
BF
  8
0
  0
BLOCK
  8
0
  2
CLUMP11
 70
     0
 10
0.0
 20
0.0
 30
0.0
  3
CLUMP11
  1

  0
LINE
  5
B5
  8
┌▓È_1
  6
BORDER
 62
     3
 10
742.92068222049988
 20
-242.43925399080001
 30
0.0
 11
742.92068222049988
 21
-259.80869843519997
 31
0.0
  0
LINE
  5
B6
  8
┌▓È_1
  6
STITCH
 10
745.4206822205
 20
-250.01703176859999
 30
0.0
 11
740.4206822205
 21
-250.01703176859999
 31
0.0
  0
LINE
  5
B7
  8
┌▓È_1
  6
STITCH
 10
745.4206822205
 20
-250.01703176859999
 30
0.0
 11
747.1706822205
 21
-248.26703176859999
 31
0.0
  0
LINE
  5
B8
  8
┌▓È_1
  6
STITCH
 10
745.4206822205
 20
-251.01703176859999
 30
0.0
 11
747.1706822205
 21
-252.76703176859999
 31
0.0
  0
LINE
  5
B9
  8
┌▓È_1
  6
STITCH
 10
745.4206822205
 20
-251.01703176859999
 30
0.0
 11
745.4206822205
 21
-250.01703176859999
 31
0.0
  0
LINE
  5
BA
  8
┌▓È_1
  6
STITCH
 10
740.4206822205
 20
-251.01703176859999
 30
0.0
 11
745.4206822205
 21
-251.01703176859999
 31
0.0
  0
LINE
  5
BB
  8
┌▓È_1
  6
STITCH
 10
740.4206822205
 20
-250.01703176859999
 30
0.0
 11
740.4206822205
 21
-251.01703176859999
 31
0.0
  0
LINE
  5
BC
  8
┌▓È_1
  6
STITCH
 10
740.4206822205
 20
-250.01703176859999
 30
0.0
 11
738.6706822205
 21
-248.26703176859999
 31
0.0
  0
LINE
  5
BD
  8
┌▓È_1
  6
STITCH
 10
740.4206822205
 20
-251.01703176859999
 30
0.0
 11
738.6706822205
 21
-252.76703176859999
 31
0.0
  0
ENDBLK
  5
BE
  8
0
  0
BLOCK
  8
0
  2
CLUMP12
 70
     0
 10
0.0
 20
0.0
 30
0.0
  3
CLUMP12
  1

  0
INSERT
  5
C7
  8
┌▓È_1
  6
BORDER
  2
CLUMP13
 10
0.0
 20
0.0
 30
0.0
  0
ENDBLK
  5
D3
  8
0
  0
BLOCK
  8
0
  2
CLUMP13
 70
     0
 10
0.0
 20
0.0
 30
0.0
  3
CLUMP13
  1

  0
LINE
  5
C9
  8
┌▓È_1
  6
BORDER
 62
     3
 10
796.92068222049988
 20
-242.43925399080001
 30
0.0
 11
796.92068222049988
 21
-259.80869843519997
 31
0.0
  0
LINE
  5
CA
  8
┌▓È_1
  6
STITCH
 10
799.4206822205
 20
-250.01703176859999
 30
0.0
 11
794.4206822205
 21
-250.01703176859999
 31
0.0
  0
LINE
  5
CB
  8
┌▓È_1
  6
STITCH
 10
799.4206822205
 20
-250.01703176859999
 30
0.0
 11
801.17068222049988
 21
-248.26703176859999
 31
0.0
  0
LINE
  5
CC
  8
┌▓È_1
  6
STITCH
 10
799.4206822205
 20
-251.01703176859999
 30
0.0
 11
801.17068222049988
 21
-252.76703176859999
 31
0.0
  0
LINE
  5
CD
  8
┌▓È_1
  6
STITCH
 10
799.4206822205
 20
-251.01703176859999
 30
0.0
 11
799.4206822205
 21
-250.01703176859999
 31
0.0
  0
LINE
  5
CE
  8
┌▓È_1
  6
STITCH
 10
794.4206822205
 20
-251.01703176859999
 30
0.0
 11
799.4206822205
 21
-251.01703176859999
 31
0.0
  0
LINE
  5
CF
  8
┌▓È_1
  6
STITCH
 10
794.4206822205
 20
-250.01703176859999
 30
0.0
 11
794.4206822205
 21
-251.01703176859999
 31
0.0
  0
LINE
  5
D0
  8
┌▓È_1
  6
STITCH
 10
794.4206822205
 20
-250.01703176859999
 30
0.0
 11
792.6706822205
 21
-248.26703176859999
 31
0.0
  0
LINE
  5
D1
  8
┌▓È_1
  6
STITCH
 10
794.4206822205
 20
-251.01703176859999
 30
0.0
 11
792.6706822205
 21
-252.76703176859999
 31
0.0
  0
ENDBLK
  5
D2
  8
0
  0
BLOCK
  8
0
  2
*D15
 70
     1
 10
0.0
 20
0.0
 30
0.0
  3
*D15
  1

  0
TEXT
  5
13D
  8
0
 62
     0
 10
855.57691788279988
 20
-241.2948094404
 30
0.0
 40
5.9972220420999998
  1
30
 50
90.0
  0
LINE
  5
13E
  8
0
 62
     0
 10
889.45246805750014
 20
-222.76703176859999
 30
0.0
 11
857.13525118429993
 21
-222.76703176859999
 31
0.0
  0
LINE
  5
13F
  8
0
 62
     0
 10
874.45246805750003
 20
-252.76703176859999
 30
0.0
 11
857.13525118429993
 21
-252.76703176859999
 31
0.0
  0
LINE
  5
140
  8
0
 62
     0
 10
857.63525118429993
 20
-222.76703176859999
 30
0.0
 11
857.63525118429993
 21
-230.71147642490001
 31
0.0
  0
LINE
  5
141
  8
0
 62
     0
 10
857.63525118429993
 20
-222.76703176859999
 30
0.0
 11
857.63525118429993
 21
-244.82258711220001
 31
0.0
  0
LINE
  5
142
  8
0
 62
     0
 10
857.63525118429993
 20
-252.76703176859999
 30
0.0
 11
857.63525118429993
 21
-230.71147642490001
 31
0.0
  0
LINE
  5
143
  8
0
 62
     0
 10
857.63525118429993
 20
-252.76703176859999
 30
0.0
 11
857.63525118429993
 21
-244.82258711220001
 31
0.0
  0
LINE
  5
144
  8
0
 62
     0
 10
857.63525118429993
 20
-252.76703176859999
 30
0.0
 11
857.63525118429993
 21
-249.76703176859999
 31
0.0
  0
SOLID
  5
145
  8
0
 62
     0
 10
857.63525118429993
 20
-252.76703176859999
 30
0.0
 11
856.13525118429993
 21
-246.76703176859999
 31
0.0
 12
859.13525118429982
 22
-246.76703176859999
 32
0.0
 13
857.63525118429993
 23
-248.26703176859999
 33
0.0
  0
LINE
  5
146
  8
0
 62
     0
 10
857.63525118429993
 20
-222.76703176859999
 30
0.0
 11
857.63525118429993
 21
-225.76703176859999
 31
0.0
  0
SOLID
  5
147
  8
0
 62
     0
 10
857.63525118429993
 20
-222.76703176859999
 30
0.0
 11
859.13525118429982
 21
-228.76703176859999
 31
0.0
 12
856.13525118429993
 22
-228.76703176859999
 32
0.0
 13
857.63525118429993
 23
-227.26703176859999
 33
0.0
  0
ENDBLK
  5
148
  8
0
  0
BLOCK
  8
0
  2
*D16
 70
     1
 10
0.0
 20
0.0
 30
0.0
  3
*D16
  1

  0
TEXT
  5
14C
  8
0
 62
     0
 10
709.59298449839991
 20
-346.34031725289998
 30
0.0
 40
5.9972220420999998
  1
11
 50
90.0
  0
LINE
  5
14D
  8
0
 62
     0
 10
695.9206822205
 20
-348.3125395811
 30
0.0
 11
712.15131779989997
 21
-348.3125395811
 31
0.0
  0
LINE
  5
14E
  8
0
 62
     0
 10
700.61691024779998
 20
-337.3125395811
 30
0.0
 11
712.15131779989997
 21
-337.3125395811
 31
0.0
  0
LINE
  5
14F
  8
0
 62
     0
 10
711.65131779989997
 20
-348.3125395811
 30
0.0
 11
711.65131779989997
 21
-348.3125395811
 31
0.0
  0
LINE
  5
150
  8
0
 62
     0
 10
711.65131779989997
 20
-348.3125395811
 30
0.0
 11
711.65131779989997
 21
-337.3125395811
 31
0.0
  0
LINE
  5
151
  8
0
 62
     0
 10
711.65131779989997
 20
-337.3125395811
 30
0.0
 11
711.65131779989997
 21
-348.3125395811
 31
0.0
  0
LINE
  5
152
  8
0
 62
     0
 10
711.65131779989997
 20
-337.3125395811
 30
0.0
 11
711.65131779989997
 21
-337.3125395811
 31
0.0
  0
LINE
  5
153
  8
0
 62
     0
 10
711.65131779989997
 20
-337.3125395811
 30
0.0
 11
711.65131779989997
 21
-334.3125395811
 31
0.0
  0
SOLID
  5
154
  8
0
 62
     0
 10
711.65131779989997
 20
-337.3125395811
 30
0.0
 11
710.15131779990008
 21
-331.3125395811
 31
0.0
 12
713.15131779990008
 22
-331.3125395811
 32
0.0
 13
711.65131779989997
 23
-332.8125395811
 33
0.0
  0
LINE
  5
155
  8
0
 62
     0
 10
711.65131779989997
 20
-348.3125395811
 30
0.0
 11
711.65131779989997
 21
-351.3125395811
 31
0.0
  0
SOLID
  5
156
  8
0
 62
     0
 10
711.65131779989997
 20
-348.3125395811
 30
0.0
 11
713.15131779990008
 21
-354.3125395811
 31
0.0
 12
710.15131779990008
 22
-354.3125395811
 32
0.0
 13
711.65131779989997
 23
-352.8125395811
 33
0.0
  0
ENDBLK
  5
157
  8
0
  0
BLOCK
  8
0
  2
*D17
 70
     1
 10
0.0
 20
0.0
 30
0.0
  3
*D17
  1

  0
TEXT
  5
15B
  8
0
 62
     0
 10
764.67956579210011
 20
-367.34031725289998
 30
0.0
 40
5.9972220420999998
  1
11
 50
90.0
  0
LINE
  5
15C
  8
0
 62
     0
 10
749.9206822205
 20
-369.3125395811
 30
0.0
 11
767.23789909360005
 21
-369.3125395811
 31
0.0
  0
LINE
  5
15D
  8
0
 62
     0
 10
749.9206822205
 20
-358.3125395811
 30
0.0
 11
767.23789909360005
 21
-358.3125395811
 31
0.0
  0
LINE
  5
15E
  8
0
 62
     0
 10
766.73789909360005
 20
-369.3125395811
 30
0.0
 11
766.73789909360005
 21
-369.3125395811
 31
0.0
  0
LINE
  5
15F
  8
0
 62
     0
 10
766.73789909360005
 20
-369.3125395811
 30
0.0
 11
766.73789909360005
 21
-358.3125395811
 31
0.0
  0
LINE
  5
160
  8
0
 62
     0
 10
766.73789909360005
 20
-358.3125395811
 30
0.0
 11
766.73789909360005
 21
-369.3125395811
 31
0.0
  0
LINE
  5
161
  8
0
 62
     0
 10
766.73789909360005
 20
-358.3125395811
 30
0.0
 11
766.73789909360005
 21
-358.3125395811
 31
0.0
  0
LINE
  5
162
  8
0
 62
     0
 10
766.73789909360005
 20
-358.3125395811
 30
0.0
 11
766.73789909360005
 21
-355.3125395811
 31
0.0
  0
SOLID
  5
163
  8
0
 62
     0
 10
766.73789909360005
 20
-358.3125395811
 30
0.0
 11
765.23789909360005
 21
-352.3125395811
 31
0.0
 12
768.23789909360005
 22
-352.3125395811
 32
0.0
 13
766.73789909360005
 23
-353.8125395811
 33
0.0
  0
LINE
  5
164
  8
0
 62
     0
 10
766.73789909360005
 20
-369.3125395811
 30
0.0
 11
766.73789909360005
 21
-372.3125395811
 31
0.0
  0
SOLID
  5
165
  8
0
 62
     0
 10
766.73789909360005
 20
-369.3125395811
 30
0.0
 11
768.23789909360005
 21
-375.3125395811
 31
0.0
 12
765.23789909360005
 22
-375.3125395811
 32
0.0
 13
766.73789909360005
 23
-373.8125395811
 33
0.0
  0
ENDBLK
  5
166
  8
0
  0
BLOCK
  8
0
  2
*D18
 70
     1
 10
0.0
 20
0.0
 30
0.0
  3
*D18
  1

  0
TEXT
  5
16A
  8
0
 62
     0
 10
638.08712105439986
 20
-356.84031725289998
 30
0.0
 40
5.9972220420999998
  1
32
 50
90.0
  0
LINE
  5
16B
  8
0
 62
     0
 10
657.9206822205
 20
-337.3125395811
 30
0.0
 11
639.64545435589991
 21
-337.3125395811
 31
0.0
  0
LINE
  5
16C
  8
0
 62
     0
 10
657.9206822205
 20
-369.3125395811
 30
0.0
 11
639.64545435589991
 21
-369.3125395811
 31
0.0
  0
LINE
  5
16D
  8
0
 62
     0
 10
640.1454543558998
 20
-337.3125395811
 30
0.0
 11
640.1454543558998
 21
-346.25698423739999
 31
0.0
  0
LINE
  5
16E
  8
0
 62
     0
 10
640.1454543558998
 20
-337.3125395811
 30
0.0
 11
640.1454543558998
 21
-360.36809492470002
 31
0.0
  0
LINE
  5
16F
  8
0
 62
     0
 10
640.1454543558998
 20
-369.3125395811
 30
0.0
 11
640.1454543558998
 21
-346.25698423739999
 31
0.0
  0
LINE
  5
170
  8
0
 62
     0
 10
640.1454543558998
 20
-369.3125395811
 30
0.0
 11
640.1454543558998
 21
-360.36809492470002
 31
0.0
  0
LINE
  5
171
  8
0
 62
     0
 10
640.1454543558998
 20
-369.3125395811
 30
0.0
 11
640.1454543558998
 21
-366.3125395811
 31
0.0
  0
SOLID
  5
172
  8
0
 62
     0
 10
640.1454543558998
 20
-369.3125395811
 30
0.0
 11
638.64545435589991
 21
-363.3125395811
 31
0.0
 12
641.64545435589991
 22
-363.3125395811
 32
0.0
 13
640.1454543558998
 23
-364.8125395811
 33
0.0
  0
LINE
  5
173
  8
0
 62
     0
 10
640.1454543558998
 20
-337.3125395811
 30
0.0
 11
640.1454543558998
 21
-340.3125395811
 31
0.0
  0
SOLID
  5
174
  8
0
 62
     0
 10
640.1454543558998
 20
-337.3125395811
 30
0.0
 11
641.64545435589991
 21
-343.3125395811
 31
0.0
 12
638.64545435589991
 22
-343.3125395811
 32
0.0
 13
640.1454543558998
 23
-341.8125395811
 33
0.0
  0
ENDBLK
  5
175
  8
0
  0
BLOCK
  8
0
  2
*D19
 70
     1
 10
0.0
 20
0.0
 30
0.0
  3
*D19
  1

  0
TEXT
  5
179
  8
0
 62
     0
 10
670.39290454870002
 20
-317.43698940629997
 30
0.0
 40
5.9972220420999998
  1
30
  0
LINE
  5
17A
  8
0
 62
     0
 10
688.92068222049988
 20
-341.3125395811
 30
0.0
 11
688.92068222049988
 21
-318.99532270790002
 31
0.0
  0
LINE
  5
17B
  8
0
 62
     0
 10
658.92068222049988
 20
-336.3125395811
 30
0.0
 11
658.92068222049988
 21
-318.99532270790002
 31
0.0
  0
LINE
  5
17C
  8
0
 62
     0
 10
688.92068222049988
 20
-319.49532270790002
 30
0.0
 11
680.97623756410007
 21
-319.49532270790002
 31
0.0
  0
LINE
  5
17D
  8
0
 62
     0
 10
688.92068222049988
 20
-319.49532270790002
 30
0.0
 11
666.86512687690004
 21
-319.49532270790002
 31
0.0
  0
LINE
  5
17E
  8
0
 62
     0
 10
658.92068222049988
 20
-319.49532270790002
 30
0.0
 11
680.97623756410007
 21
-319.49532270790002
 31
0.0
  0
LINE
  5
17F
  8
0
 62
     0
 10
658.92068222049988
 20
-319.49532270790002
 30
0.0
 11
666.86512687690004
 21
-319.49532270790002
 31
0.0
  0
LINE
  5
180
  8
0
 62
     0
 10
658.92068222049988
 20
-319.49532270790002
 30
0.0
 11
661.9206822205
 21
-319.49532270790002
 31
0.0
  0
SOLID
  5
181
  8
0
 62
     0
 10
658.92068222049988
 20
-319.49532270790002
 30
0.0
 11
664.9206822205
 21
-317.99532270790002
 31
0.0
 12
664.9206822205
 22
-320.99532270790002
 32
0.0
 13
663.42068222049988
 23
-319.49532270790002
 33
0.0
  0
LINE
  5
182
  8
0
 62
     0
 10
688.92068222049988
 20
-319.49532270790002
 30
0.0
 11
685.9206822205
 21
-319.49532270790002
 31
0.0
  0
SOLID
  5
183
  8
0
 62
     0
 10
688.92068222049988
 20
-319.49532270790002
 30
0.0
 11
682.9206822205
 21
-320.99532270790002
 31
0.0
 12
682.9206822205
 22
-317.99532270790002
 32
0.0
 13
684.42068222049988
 23
-319.49532270790002
 33
0.0
  0
ENDBLK
  5
184
  8
0
  0
BLOCK
  8
0
  2
*D20
 70
     1
 10
0.0
 20
0.0
 30
0.0
  3
*D20
  1

  0
TEXT
  5
19C
  8
0
 62
     0
 10
724.89013369940005
 20
-356.84031725289998
 30
0.0
 40
5.9972220420999998
  1
10
 50
90.0
  0
LINE
  5
19D
  8
0
 62
     0
 10
695.9206822205
 20
-348.3125395811
 30
0.0
 11
727.4484670009
 21
-348.3125395811
 31
0.0
  0
LINE
  5
19E
  8
0
 62
     0
 10
737.6706822205
 20
-358.3125395811
 30
0.0
 11
726.44846700089988
 21
-358.3125395811
 31
0.0
  0
LINE
  5
19F
  8
0
 62
     0
 10
726.94846700089988
 20
-348.3125395811
 30
0.0
 11
726.94846700089988
 21
-348.3125395811
 31
0.0
  0
LINE
  5
1A0
  8
0
 62
     0
 10
726.94846700089988
 20
-348.3125395811
 30
0.0
 11
726.94846700089988
 21
-358.3125395811
 31
0.0
  0
LINE
  5
1A1
  8
0
 62
     0
 10
726.94846700089988
 20
-358.3125395811
 30
0.0
 11
726.94846700089988
 21
-348.3125395811
 31
0.0
  0
LINE
  5
1A2
  8
0
 62
     0
 10
726.94846700089988
 20
-358.3125395811
 30
0.0
 11
726.94846700089988
 21
-358.3125395811
 31
0.0
  0
LINE
  5
1A3
  8
0
 62
     0
 10
726.94846700089988
 20
-358.3125395811
 30
0.0
 11
726.94846700089988
 21
-361.3125395811
 31
0.0
  0
SOLID
  5
1A4
  8
0
 62
     0
 10
726.94846700089988
 20
-358.3125395811
 30
0.0
 11
728.4484670009
 21
-364.3125395811
 31
0.0
 12
725.44846700089988
 22
-364.3125395811
 32
0.0
 13
726.94846700089988
 23
-362.8125395811
 33
0.0
  0
LINE
  5
1A5
  8
0
 62
     0
 10
726.94846700089988
 20
-348.3125395811
 30
0.0
 11
726.94846700089988
 21
-345.3125395811
 31
0.0
  0
SOLID
  5
1A6
  8
0
 62
     0
 10
726.94846700089988
 20
-348.3125395811
 30
0.0
 11
725.44846700089988
 21
-342.3125395811
 31
0.0
 12
728.4484670009
 22
-342.3125395811
 32
0.0
 13
726.94846700089988
 23
-343.8125395811
 33
0.0
  0
ENDBLK
  5
1A7
  8
0
  0
BLOCK
  8
0
  2
*D21
 70
     1
 10
0.0
 20
0.0
 30
0.0
  3
*D21
  1

  0
TEXT
  5
1AB
  8
0
 62
     0
 10
830.00874841799998
 20
-383.98735475900003
 30
0.0
 40
5.9972220420999998
  1
16
 50
90.0
  0
LINE
  5
1AC
  8
0
 62
     0
 10
809.92068222049988
 20
-369.3125395811
 30
0.0
 11
832.56708171959997
 21
-369.3125395811
 31
0.0
  0
LINE
  5
1AD
  8
0
 62
     0
 10
803.92068222049988
 20
-353.3125395811
 30
0.0
 11
832.56708171959997
 21
-353.3125395811
 31
0.0
  0
LINE
  5
1AE
  8
0
 62
     0
 10
832.06708171960008
 20
-369.3125395811
 30
0.0
 11
832.06708171960008
 21
-373.40402174349998
 31
0.0
  0
LINE
  5
1AF
  8
0
 62
     0
 10
832.06708171960008
 20
-369.3125395811
 30
0.0
 11
832.06708171960008
 21
-387.51513243080001
 31
0.0
  0
LINE
  5
1B0
  8
0
 62
     0
 10
832.06708171960008
 20
-353.3125395811
 30
0.0
 11
832.06708171960008
 21
-373.40402174349998
 31
0.0
  0
LINE
  5
1B1
  8
0
 62
     0
 10
832.06708171960008
 20
-353.3125395811
 30
0.0
 11
832.06708171960008
 21
-387.51513243080001
 31
0.0
  0
LINE
  5
1B2
  8
0
 62
     0
 10
832.06708171960008
 20
-353.3125395811
 30
0.0
 11
832.06708171960008
 21
-356.3125395811
 31
0.0
  0
SOLID
  5
1B3
  8
0
 62
     0
 10
832.06708171960008
 20
-353.3125395811
 30
0.0
 11
833.56708171959997
 21
-359.3125395811
 31
0.0
 12
830.56708171959997
 22
-359.3125395811
 32
0.0
 13
832.06708171960008
 23
-357.8125395811
 33
0.0
  0
LINE
  5
1B4
  8
0
 62
     0
 10
832.06708171960008
 20
-369.3125395811
 30
0.0
 11
832.06708171960008
 21
-366.3125395811
 31
0.0
  0
SOLID
  5
1B5
  8
0
 62
     0
 10
832.06708171960008
 20
-369.3125395811
 30
0.0
 11
830.56708171959997
 21
-363.3125395811
 31
0.0
 12
833.56708171959997
 22
-363.3125395811
 32
0.0
 13
832.06708171960008
 23
-364.8125395811
 33
0.0
  0
ENDBLK
  5
1B6
  8
0
  0
BLOCK
  8
0
  2
*D22
 70
     1
 10
0.0
 20
0.0
 30
0.0
  3
*D22
  1

  0
TEXT
  5
1BA
  8
0
 62
     0
 10
830.00874841799998
 20
-327.79360533120001
 30
0.0
 40
5.9972220420999998
  1
16
 50
90.0
  0
LINE
  5
1BB
  8
0
 62
     0
 10
803.92068222049988
 20
-353.3125395811
 30
0.0
 11
832.56708171959997
 21
-353.3125395811
 31
0.0
  0
LINE
  5
1BC
  8
0
 62
     0
 10
809.92068222049988
 20
-337.3125395811
 30
0.0
 11
832.56708171959997
 21
-337.3125395811
 31
0.0
  0
LINE
  5
1BD
  8
0
 62
     0
 10
832.06708171960008
 20
-353.3125395811
 30
0.0
 11
832.06708171960008
 21
-317.21027231570002
 31
0.0
  0
LINE
  5
1BE
  8
0
 62
     0
 10
832.06708171960008
 20
-353.3125395811
 30
0.0
 11
832.06708171960008
 21
-331.32138300299999
 31
0.0
  0
LINE
  5
1BF
  8
0
 62
     0
 10
832.06708171960008
 20
-337.3125395811
 30
0.0
 11
832.06708171960008
 21
-317.21027231570002
 31
0.0
  0
LINE
  5
1C0
  8
0
 62
     0
 10
832.06708171960008
 20
-337.3125395811
 30
0.0
 11
832.06708171960008
 21
-331.32138300299999
 31
0.0
  0
LINE
  5
1C1
  8
0
 62
     0
 10
832.06708171960008
 20
-337.3125395811
 30
0.0
 11
832.06708171960008
 21
-340.3125395811
 31
0.0
  0
SOLID
  5
1C2
  8
0
 62
     0
 10
832.06708171960008
 20
-337.3125395811
 30
0.0
 11
833.56708171959997
 21
-343.3125395811
 31
0.0
 12
830.56708171959997
 22
-343.3125395811
 32
0.0
 13
832.06708171960008
 23
-341.8125395811
 33
0.0
  0
LINE
  5
1C3
  8
0
 62
     0
 10
832.06708171960008
 20
-353.3125395811
 30
0.0
 11
832.06708171960008
 21
-350.3125395811
 31
0.0
  0
SOLID
  5
1C4
  8
0
 62
     0
 10
832.06708171960008
 20
-353.3125395811
 30
0.0
 11
830.56708171959997
 21
-347.3125395811
 31
0.0
 12
833.56708171959997
 22
-347.3125395811
 32
0.0
 13
832.06708171960008
 23
-348.8125395811
 33
0.0
  0
ENDBLK
  5
1C5
  8
0
  0
BLOCK
  8
0
  2
*D23
 70
     1
 10
0.0
 20
0.0
 30
0.0
  3
*D23
  1

  0
TEXT
  5
1C9
  8
0
 62
     0
 10
669.29623581780004
 20
-76.275104717000005
 30
0.0
 40
5.9972220420999998
  1
4.5t
  0
LINE
  5
1CA
  8
0
 62
     0
 10
663.42068222049988
 20
-101.76703176860001
 30
0.0
 11
663.42068222049988
 21
-77.833438018599992
 31
0.0
  0
LINE
  5
1CB
  8
0
 62
     0
 10
658.92068222049988
 20
-101.76703176860001
 30
0.0
 11
658.92068222049988
 21
-77.833438018599992
 31
0.0
  0
LINE
  5
1CC
  8
0
 62
     0
 10
663.42068222049988
 20
-78.333438018599992
 30
0.0
 11
686.93512417689999
 21
-78.333438018599992
 31
0.0
  0
LINE
  5
1CD
  8
0
 62
     0
 10
663.42068222049988
 20
-78.333438018599992
 30
0.0
 11
665.76845814599994
 21
-78.333438018599992
 31
0.0
  0
LINE
  5
1CE
  8
0
 62
     0
 10
658.92068222049988
 20
-78.333438018599992
 30
0.0
 11
686.93512417689999
 21
-78.333438018599992
 31
0.0
  0
LINE
  5
1CF
  8
0
 62
     0
 10
658.92068222049988
 20
-78.333438018599992
 30
0.0
 11
665.76845814599994
 21
-78.333438018599992
 31
0.0
  0
LINE
  5
1D0
  8
0
 62
     0
 10
658.92068222049988
 20
-78.333438018599992
 30
0.0
 11
655.92068222049988
 21
-78.333438018599992
 31
0.0
  0
SOLID
  5
1D1
  8
0
 62
     0
 10
658.92068222049988
 20
-78.333438018599992
 30
0.0
 11
652.9206822205
 21
-79.833438018599992
 31
0.0
 12
652.9206822205
 22
-76.833438018599992
 32
0.0
 13
654.4206822205
 23
-78.333438018599992
 33
0.0
  0
LINE
  5
1D2
  8
0
 62
     0
 10
663.42068222049988
 20
-78.333438018599992
 30
0.0
 11
666.4206822205
 21
-78.333438018599992
 31
0.0
  0
SOLID
  5
1D3
  8
0
 62
     0
 10
663.42068222049988
 20
-78.333438018599992
 30
0.0
 11
669.4206822205
 21
-76.833438018599992
 31
0.0
 12
669.4206822205
 22
-79.833438018599992
 32
0.0
 13
667.92068222049988
 23
-78.333438018599992
 33
0.0
  0
ENDBLK
  5
1D4
  8
0
  0
BLOCK
  8
0
  2
*D24
 70
     1
 10
0.0
 20
0.0
 30
0.0
  3
*D24
  1

  0
TEXT
  5
1DA
  8
0
 62
     0
 10
984.53518623909997
 20
-141.15933706659999
 30
0.0
 40
5.9972220420999998
  1
%%c5
  0
LINE
  5
1DB
  8
0
 62
     0
 10
1002.3268527468
 20
-168.65471666440001
 30
0.0
 11
1002.3268527468
 21
-142.71767036809999
 31
0.0
  0
LINE
  5
1DC
  8
0
 62
     0
 10
977.32685274679989
 20
-168.65471666440001
 30
0.0
 11
977.32685274679989
 21
-142.71767036809999
 31
0.0
  0
LINE
  5
1DD
  8
0
 62
     0
 10
1002.3268527468
 20
-143.2176703680999
 30
0.0
 11
998.64629692630001
 21
-143.2176703680999
 31
0.0
  0
LINE
  5
1DE
  8
0
 62
     0
 10
1002.3268527468
 20
-143.2176703680999
 30
0.0
 11
981.00740856729988
 21
-143.2176703680999
 31
0.0
  0
LINE
  5
1DF
  8
0
 62
     0
 10
977.32685274679989
 20
-143.2176703680999
 30
0.0
 11
998.64629692630001
 21
-143.2176703680999
 31
0.0
  0
LINE
  5
1E0
  8
0
 62
     0
 10
977.32685274679989
 20
-143.2176703680999
 30
0.0
 11
981.00740856729988
 21
-143.2176703680999
 31
0.0
  0
LINE
  5
1E1
  8
0
 62
     0
 10
977.32685274679989
 20
-143.2176703680999
 30
0.0
 11
974.32685274679977
 21
-143.2176703680999
 31
0.0
  0
SOLID
  5
1E2
  8
0
 62
     0
 10
977.32685274679989
 20
-143.2176703680999
 30
0.0
 11
971.32685274679989
 21
-144.71767036809999
 31
0.0
 12
971.32685274679989
 22
-141.71767036809999
 32
0.0
 13
972.82685274679989
 23
-143.2176703680999
 33
0.0
  0
LINE
  5
1E3
  8
0
 62
     0
 10
1002.3268527468
 20
-143.2176703680999
 30
0.0
 11
1005.3268527468
 21
-143.2176703680999
 31
0.0
  0
SOLID
  5
1E4
  8
0
 62
     0
 10
1002.3268527468
 20
-143.2176703680999
 30
0.0
 11
1008.3268527468
 21
-141.71767036809999
 31
0.0
 12
1008.3268527468
 22
-144.71767036809999
 32
0.0
 13
1006.8268527468
 23
-143.2176703680999
 33
0.0
  0
ENDBLK
  5
1E5
  8
0
  0
BLOCK
  8
0
  2
*D25
 70
     1
 10
0.0
 20
0.0
 30
0.0
  3
*D25
  1

  0
TEXT
  5
1E9
  8
0
 62
     0
 10
981.00740856729988
 20
-199.75308706659999
 30
0.0
 40
5.9972220420999998
  1
%%c8.5
  0
LINE
  5
1EA
  8
0
 62
     0
 10
968.57685274679989
 20
-184.40471666440001
 30
0.0
 11
968.57685274679989
 21
-202.31142036809999
 31
0.0
  0
LINE
  5
1EB
  8
0
 62
     0
 10
1011.0768527468
 20
-184.40471666440001
 30
0.0
 11
1011.0768527468
 21
-202.31142036809999
 31
0.0
  0
LINE
  5
1EC
  8
0
 62
     0
 10
968.57685274679989
 20
-201.81142036809999
 30
0.0
 11
1002.1740745982
 21
-201.81142036809999
 31
0.0
  0
LINE
  5
1ED
  8
0
 62
     0
 10
968.57685274679989
 20
-201.81142036809999
 30
0.0
 11
977.47963089550001
 21
-201.81142036809999
 31
0.0
  0
LINE
  5
1EE
  8
0
 62
     0
 10
1011.0768527468
 20
-201.81142036809999
 30
0.0
 11
1002.1740745982
 21
-201.81142036809999
 31
0.0
  0
LINE
  5
1EF
  8
0
 62
     0
 10
1011.0768527468
 20
-201.81142036809999
 30
0.0
 11
977.47963089550001
 21
-201.81142036809999
 31
0.0
  0
LINE
  5
1F0
  8
0
 62
     0
 10
1011.0768527468
 20
-201.81142036809999
 30
0.0
 11
1008.0768527468
 21
-201.81142036809999
 31
0.0
  0
SOLID
  5
1F1
  8
0
 62
     0
 10
1011.0768527468
 20
-201.81142036809999
 30
0.0
 11
1005.0768527468
 21
-203.31142036809999
 31
0.0
 12
1005.0768527468
 22
-200.31142036809999
 32
0.0
 13
1006.5768527468
 23
-201.81142036809999
 33
0.0
  0
LINE
  5
1F2
  8
0
 62
     0
 10
968.57685274679989
 20
-201.81142036809999
 30
0.0
 11
971.57685274679977
 21
-201.81142036809999
 31
0.0
  0
SOLID
  5
1F3
  8
0
 62
     0
 10
968.57685274679989
 20
-201.81142036809999
 30
0.0
 11
974.57685274679989
 21
-200.31142036809999
 31
0.0
 12
974.57685274679989
 22
-203.31142036809999
 32
0.0
 13
973.07685274679989
 23
-201.81142036809999
 33
0.0
  0
ENDBLK
  5
1F4
  8
0
  0
BLOCK
  8
0
  2
*D26
 70
     1
 10
0.0
 20
0.0
 30
0.0
  3
*D26
  1

  0
TEXT
  5
1F8
  8
0
 62
     0
 10
981.00740856729988
 20
-125.679401592
 30
0.0
 40
5.9972220420999998
  1
%%c8.5
  0
LINE
  5
1F9
  8
0
 62
     0
 10
1011.0768527468
 20
-159.90471666440001
 30
0.0
 11
1011.0768527468
 21
-127.23773489360001
 31
0.0
  0
LINE
  5
1FA
  8
0
 62
     0
 10
968.57685274679989
 20
-159.90471666440001
 30
0.0
 11
968.57685274679989
 21
-127.23773489360001
 31
0.0
  0
LINE
  5
1FB
  8
0
 62
     0
 10
1011.0768527468
 20
-127.73773489360001
 30
0.0
 11
1002.1740745982
 21
-127.73773489360001
 31
0.0
  0
LINE
  5
1FC
  8
0
 62
     0
 10
1011.0768527468
 20
-127.73773489360001
 30
0.0
 11
977.47963089550001
 21
-127.73773489360001
 31
0.0
  0
LINE
  5
1FD
  8
0
 62
     0
 10
968.57685274679989
 20
-127.73773489360001
 30
0.0
 11
1002.1740745982
 21
-127.73773489360001
 31
0.0
  0
LINE
  5
1FE
  8
0
 62
     0
 10
968.57685274679989
 20
-127.73773489360001
 30
0.0
 11
977.47963089550001
 21
-127.73773489360001
 31
0.0
  0
LINE
  5
1FF
  8
0
 62
     0
 10
968.57685274679989
 20
-127.73773489360001
 30
0.0
 11
971.57685274679977
 21
-127.73773489360001
 31
0.0
  0
SOLID
  5
200
  8
0
 62
     0
 10
968.57685274679989
 20
-127.73773489360001
 30
0.0
 11
974.57685274679989
 21
-126.23773489360001
 31
0.0
 12
974.57685274679989
 22
-129.23773489359999
 32
0.0
 13
973.07685274679989
 23
-127.73773489360001
 33
0.0
  0
LINE
  5
201
  8
0
 62
     0
 10
1011.0768527468
 20
-127.73773489360001
 30
0.0
 11
1008.0768527468
 21
-127.73773489360001
 31
0.0
  0
SOLID
  5
202
  8
0
 62
     0
 10
1011.0768527468
 20
-127.73773489360001
 30
0.0
 11
1005.0768527468
 21
-129.23773489359999
 31
0.0
 12
1005.0768527468
 22
-126.23773489360001
 32
0.0
 13
1006.5768527468
 23
-127.73773489360001
 33
0.0
  0
ENDBLK
  5
203
  8
0
  0
BLOCK
  8
0
  2
*D27
 70
     1
 10
0.0
 20
0.0
 30
0.0
  3
*D27
  1

  0
TEXT
  5
207
  8
0
 62
     0
 10
639.04513204580007
 20
-183.05869827629999
 30
0.0
 40
5.9972220420999998
  1
150
 50
90.0
  0
LINE
  5
208
  8
0
 62
     0
 10
657.9206822205
 20
-102.76703176860001
 30
0.0
 11
640.60346534730002
 21
-102.76703176860001
 31
0.0
  0
LINE
  5
209
  8
0
 62
     0
 10
662.4206822205
 20
-252.76703176859999
 30
0.0
 11
640.60346534730002
 21
-252.76703176859999
 31
0.0
  0
LINE
  5
20A
  8
0
 62
     0
 10
641.10346534730002
 20
-102.76703176860001
 30
0.0
 11
641.10346534730002
 21
-168.94758758899999
 31
0.0
  0
LINE
  5
20B
  8
0
 62
     0
 10
641.10346534730002
 20
-102.76703176860001
 30
0.0
 11
641.10346534730002
 21
-186.5864759481
 31
0.0
  0
LINE
  5
20C
  8
0
 62
     0
 10
641.10346534730002
 20
-252.76703176859999
 30
0.0
 11
641.10346534730002
 21
-168.94758758899999
 31
0.0
  0
LINE
  5
20D
  8
0
 62
     0
 10
641.10346534730002
 20
-252.76703176859999
 30
0.0
 11
641.10346534730002
 21
-186.5864759481
 31
0.0
  0
LINE
  5
20E
  8
0
 62
     0
 10
641.10346534730002
 20
-252.76703176859999
 30
0.0
 11
641.10346534730002
 21
-249.76703176859999
 31
0.0
  0
SOLID
  5
20F
  8
0
 62
     0
 10
641.10346534730002
 20
-252.76703176859999
 30
0.0
 11
639.60346534730002
 21
-246.76703176859999
 31
0.0
 12
642.60346534730002
 22
-246.76703176859999
 32
0.0
 13
641.10346534730002
 23
-248.26703176859999
 33
0.0
  0
LINE
  5
210
  8
0
 62
     0
 10
641.10346534730002
 20
-102.76703176860001
 30
0.0
 11
641.10346534730002
 21
-105.76703176860001
 31
0.0
  0
SOLID
  5
211
  8
0
 62
     0
 10
641.10346534730002
 20
-102.76703176860001
 30
0.0
 11
642.60346534730002
 21
-108.76703176860001
 31
0.0
 12
639.60346534730002
 22
-108.76703176860001
 32
0.0
 13
641.10346534730002
 23
-107.26703176860001
 33
0.0
  0
ENDBLK
  5
212
  8
0
  0
BLOCK
  8
0
  2
*D28
 70
     1
 10
0.0
 20
0.0
 30
0.0
  3
*D28
  1

  0
TEXT
  5
216
  8
0
 62
     0
 10
728.62901571279986
 20
-268.52591534020002
 30
0.0
 40
5.9972220420999998
  1
150
  0
LINE
  5
217
  8
0
 62
     0
 10
658.92068222049988
 20
-249.26703176859999
 30
0.0
 11
658.92068222049988
 21
-271.0842486416999
 31
0.0
  0
LINE
  5
218
  8
0
 62
     0
 10
808.92068222049988
 20
-253.76703176859999
 30
0.0
 11
808.92068222049988
 21
-271.0842486416999
 31
0.0
  0
LINE
  5
219
  8
0
 62
     0
 10
658.92068222049988
 20
-270.58424864170001
 30
0.0
 11
742.74012639999989
 21
-270.58424864170001
 31
0.0
  0
LINE
  5
21A
  8
0
 62
     0
 10
658.92068222049988
 20
-270.58424864170001
 30
0.0
 11
725.10123804089994
 21
-270.58424864170001
 31
0.0
  0
LINE
  5
21B
  8
0
 62
     0
 10
808.92068222049988
 20
-270.58424864170001
 30
0.0
 11
742.74012639999989
 21
-270.58424864170001
 31
0.0
  0
LINE
  5
21C
  8
0
 62
     0
 10
808.92068222049988
 20
-270.58424864170001
 30
0.0
 11
725.10123804089994
 21
-270.58424864170001
 31
0.0
  0
LINE
  5
21D
  8
0
 62
     0
 10
808.92068222049988
 20
-270.58424864170001
 30
0.0
 11
805.9206822205
 21
-270.58424864170001
 31
0.0
  0
SOLID
  5
21E
  8
0
 62
     0
 10
808.92068222049988
 20
-270.58424864170001
 30
0.0
 11
802.92068222049988
 21
-272.08424864170001
 31
0.0
 12
802.92068222049988
 22
-269.0842486416999
 32
0.0
 13
804.4206822205
 23
-270.58424864170001
 33
0.0
  0
LINE
  5
21F
  8
0
 62
     0
 10
658.92068222049988
 20
-270.58424864170001
 30
0.0
 11
661.9206822205
 21
-270.58424864170001
 31
0.0
  0
SOLID
  5
220
  8
0
 62
     0
 10
658.92068222049988
 20
-270.58424864170001
 30
0.0
 11
664.9206822205
 21
-269.0842486416999
 31
0.0
 12
664.9206822205
 22
-272.08424864170001
 32
0.0
 13
663.42068222049988
 23
-270.58424864170001
 33
0.0
  0
ENDBLK
  5
221
  8
0
  0
BLOCK
  8
0
  2
*D29
 70
     1
 10
0.0
 20
0.0
 30
0.0
  3
*D29
  1

  0
TEXT
  5
225
  8
0
 62
     0
 10
912.33963179190005
 20
-82.891481593799995
 30
0.0
 40
5.9972220420999998
  1
16
  0
LINE
  5
226
  8
0
 62
     0
 10
907.45246805750014
 20
-101.76703176860001
 30
0.0
 11
907.45246805750014
 21
-84.449814895399996
 31
0.0
  0
LINE
  5
227
  8
0
 62
     0
 10
891.45246805750003
 20
-107.76703176860001
 30
0.0
 11
891.45246805750003
 21
-84.449814895399996
 31
0.0
  0
LINE
  5
228
  8
0
 62
     0
 10
907.45246805750014
 20
-84.949814895399996
 30
0.0
 11
922.92296480739992
 21
-84.949814895399996
 31
0.0
  0
LINE
  5
229
  8
0
 62
     0
 10
907.45246805750014
 20
-84.949814895399996
 30
0.0
 11
908.81185412009995
 21
-84.949814895399996
 31
0.0
  0
LINE
  5
22A
  8
0
 62
     0
 10
891.45246805750003
 20
-84.949814895399996
 30
0.0
 11
922.92296480739992
 21
-84.949814895399996
 31
0.0
  0
LINE
  5
22B
  8
0
 62
     0
 10
891.45246805750003
 20
-84.949814895399996
 30
0.0
 11
908.81185412009995
 21
-84.949814895399996
 31
0.0
  0
LINE
  5
22C
  8
0
 62
     0
 10
891.45246805750003
 20
-84.949814895399996
 30
0.0
 11
894.45246805750003
 21
-84.949814895399996
 31
0.0
  0
SOLID
  5
22D
  8
0
 62
     0
 10
891.45246805750003
 20
-84.949814895399996
 30
0.0
 11
897.45246805749991
 21
-83.449814895399996
 31
0.0
 12
897.45246805749991
 22
-86.44981489540001
 32
0.0
 13
895.95246805750003
 23
-84.949814895399996
 33
0.0
  0
LINE
  5
22E
  8
0
 62
     0
 10
907.45246805750014
 20
-84.949814895399996
 30
0.0
 11
904.45246805749991
 21
-84.949814895399996
 31
0.0
  0
SOLID
  5
22F
  8
0
 62
     0
 10
907.45246805750014
 20
-84.949814895399996
 30
0.0
 11
901.45246805750003
 21
-86.44981489540001
 31
0.0
 12
901.45246805750003
 22
-83.449814895399996
 32
0.0
 13
902.95246805750014
 23
-84.949814895399996
 33
0.0
  0
ENDBLK
  5
230
  8
0
  0
BLOCK
  8
0
  2
*D30
 70
     1
 10
0.0
 20
0.0
 30
0.0
  3
*D30
  1

  0
TEXT
  5
234
  8
0
 62
     0
 10
860.77690392730005
 20
-82.891481593799995
 30
0.0
 40
5.9972220420999998
  1
16
  0
LINE
  5
235
  8
0
 62
     0
 10
891.45246805750003
 20
-107.76703176860001
 30
0.0
 11
891.45246805750003
 21
-84.449814895399996
 31
0.0
  0
LINE
  5
236
  8
0
 62
     0
 10
875.45246805750003
 20
-101.76703176860001
 30
0.0
 11
875.45246805750003
 21
-84.449814895399996
 31
0.0
  0
LINE
  5
237
  8
0
 62
     0
 10
891.45246805750003
 20
-84.949814895399996
 30
0.0
 11
871.36023694280004
 21
-84.949814895399996
 31
0.0
  0
LINE
  5
238
  8
0
 62
     0
 10
891.45246805750003
 20
-84.949814895399996
 30
0.0
 11
857.24912625550007
 21
-84.949814895399996
 31
0.0
  0
LINE
  5
239
  8
0
 62
     0
 10
875.45246805750003
 20
-84.949814895399996
 30
0.0
 11
871.36023694280004
 21
-84.949814895399996
 31
0.0
  0
LINE
  5
23A
  8
0
 62
     0
 10
875.45246805750003
 20
-84.949814895399996
 30
0.0
 11
857.24912625550007
 21
-84.949814895399996
 31
0.0
  0
LINE
  5
23B
  8
0
 62
     0
 10
875.45246805750003
 20
-84.949814895399996
 30
0.0
 11
878.45246805750003
 21
-84.949814895399996
 31
0.0
  0
SOLID
  5
23C
  8
0
 62
     0
 10
875.45246805750003
 20
-84.949814895399996
 30
0.0
 11
881.45246805750014
 21
-83.449814895399996
 31
0.0
 12
881.45246805750014
 22
-86.44981489540001
 32
0.0
 13
879.95246805750003
 23
-84.949814895399996
 33
0.0
  0
LINE
  5
23D
  8
0
 62
     0
 10
891.45246805750003
 20
-84.949814895399996
 30
0.0
 11
888.45246805749991
 21
-84.949814895399996
 31
0.0
  0
SOLID
  5
23E
  8
0
 62
     0
 10
891.45246805750003
 20
-84.949814895399996
 30
0.0
 11
885.45246805750003
 21
-86.44981489540001
 31
0.0
 12
885.45246805750003
 22
-83.449814895399996
 32
0.0
 13
886.95246805750003
 23
-84.949814895399996
 33
0.0
  0
ENDBLK
  5
23F
  8
0
  0
BLOCK
  8
0
  2
*D31
 70
     1
 10
0.0
 20
0.0
 30
0.0
  3
*D31
  1

  0
TEXT
  5
243
  8
0
 62
     0
 10
855.6984022577999
 20
-145.2948094404
 30
0.0
 40
5.9972220420999998
  1
54
 50
90.0
  0
LINE
  5
244
  8
0
 62
     0
 10
884.45246805750003
 20
-114.76703176860001
 30
0.0
 11
857.25673555929995
 21
-114.76703176860001
 31
0.0
  0
LINE
  5
245
  8
0
 62
     0
 10
879.45246805749991
 20
-168.76703176859999
 30
0.0
 11
857.25673555929995
 21
-168.76703176859999
 31
0.0
  0
LINE
  5
246
  8
0
 62
     0
 10
857.75673555929995
 20
-114.76703176860001
 30
0.0
 11
857.75673555929995
 21
-134.71147642490001
 31
0.0
  0
LINE
  5
247
  8
0
 62
     0
 10
857.75673555929995
 20
-114.76703176860001
 30
0.0
 11
857.75673555929995
 21
-148.82258711220001
 31
0.0
  0
LINE
  5
248
  8
0
 62
     0
 10
857.75673555929995
 20
-168.76703176859999
 30
0.0
 11
857.75673555929995
 21
-134.71147642490001
 31
0.0
  0
LINE
  5
249
  8
0
 62
     0
 10
857.75673555929995
 20
-168.76703176859999
 30
0.0
 11
857.75673555929995
 21
-148.82258711220001
 31
0.0
  0
LINE
  5
24A
  8
0
 62
     0
 10
857.75673555929995
 20
-168.76703176859999
 30
0.0
 11
857.75673555929995
 21
-165.76703176859999
 31
0.0
  0
SOLID
  5
24B
  8
0
 62
     0
 10
857.75673555929995
 20
-168.76703176859999
 30
0.0
 11
856.25673555929995
 21
-162.76703176859999
 31
0.0
 12
859.25673555929995
 22
-162.76703176859999
 32
0.0
 13
857.75673555929995
 23
-164.26703176859999
 33
0.0
  0
LINE
  5
24C
  8
0
 62
     0
 10
857.75673555929995
 20
-114.76703176860001
 30
0.0
 11
857.75673555929995
 21
-117.76703176860001
 31
0.0
  0
SOLID
  5
24D
  8
0
 62
     0
 10
857.75673555929995
 20
-114.76703176860001
 30
0.0
 11
859.25673555929995
 21
-120.76703176860001
 31
0.0
 12
856.25673555929995
 22
-120.76703176860001
 32
0.0
 13
857.75673555929995
 23
-119.26703176860001
 33
0.0
  0
ENDBLK
  5
24E
  8
0
  0
BLOCK
  8
0
  2
*D32
 70
     1
 10
0.0
 20
0.0
 30
0.0
  3
*D32
  1

  0
TEXT
  5
252
  8
0
 62
     0
 10
855.6984022577999
 20
-199.2948094404
 30
0.0
 40
5.9972220420999998
  1
54
 50
90.0
  0
LINE
  5
253
  8
0
 62
     0
 10
879.45246805749991
 20
-168.76703176859999
 30
0.0
 11
857.25673555929995
 21
-168.76703176859999
 31
0.0
  0
LINE
  5
254
  8
0
 62
     0
 10
889.45246805750014
 20
-222.76703176859999
 30
0.0
 11
857.25673555929995
 21
-222.76703176859999
 31
0.0
  0
LINE
  5
255
  8
0
 62
     0
 10
857.75673555929995
 20
-168.76703176859999
 30
0.0
 11
857.75673555929995
 21
-188.71147642490001
 31
0.0
  0
LINE
  5
256
  8
0
 62
     0
 10
857.75673555929995
 20
-168.76703176859999
 30
0.0
 11
857.75673555929995
 21
-202.82258711220001
 31
0.0
  0
LINE
  5
257
  8
0
 62
     0
 10
857.75673555929995
 20
-222.76703176859999
 30
0.0
 11
857.75673555929995
 21
-188.71147642490001
 31
0.0
  0
LINE
  5
258
  8
0
 62
     0
 10
857.75673555929995
 20
-222.76703176859999
 30
0.0
 11
857.75673555929995
 21
-202.82258711220001
 31
0.0
  0
LINE
  5
259
  8
0
 62
     0
 10
857.75673555929995
 20
-222.76703176859999
 30
0.0
 11
857.75673555929995
 21
-219.76703176859999
 31
0.0
  0
SOLID
  5
25A
  8
0
 62
     0
 10
857.75673555929995
 20
-222.76703176859999
 30
0.0
 11
856.25673555929995
 21
-216.76703176859999
 31
0.0
 12
859.25673555929995
 22
-216.76703176859999
 32
0.0
 13
857.75673555929995
 23
-218.26703176859999
 33
0.0
  0
LINE
  5
25B
  8
0
 62
     0
 10
857.75673555929995
 20
-168.76703176859999
 30
0.0
 11
857.75673555929995
 21
-171.76703176859999
 31
0.0
  0
SOLID
  5
25C
  8
0
 62
     0
 10
857.75673555929995
 20
-168.76703176859999
 30
0.0
 11
859.25673555929995
 21
-174.76703176859999
 31
0.0
 12
856.25673555929995
 22
-174.76703176859999
 32
0.0
 13
857.75673555929995
 23
-173.26703176859999
 33
0.0
  0
ENDBLK
  5
25D
  8
0
  0
BLOCK
  8
0
  2
*D33
 70
     1
 10
0.0
 20
0.0
 30
0.0
  3
*D33
  1

  0
TEXT
  5
261
  8
0
 62
     0
 10
855.57691788279988
 20
-112.2948094404
 30
0.0
 40
5.9972220420999998
  1
12
 50
90.0
  0
LINE
  5
262
  8
0
 62
     0
 10
874.45246805750003
 20
-102.76703176860001
 30
0.0
 11
857.13525118429993
 21
-102.76703176860001
 31
0.0
  0
LINE
  5
263
  8
0
 62
     0
 10
884.45246805750003
 20
-114.76703176860001
 30
0.0
 11
857.13525118429993
 21
-114.76703176860001
 31
0.0
  0
LINE
  5
264
  8
0
 62
     0
 10
857.63525118429993
 20
-102.76703176860001
 30
0.0
 11
857.63525118429993
 21
-102.76703176860001
 31
0.0
  0
LINE
  5
265
  8
0
 62
     0
 10
857.63525118429993
 20
-102.76703176860001
 30
0.0
 11
857.63525118429993
 21
-114.76703176860001
 31
0.0
  0
LINE
  5
266
  8
0
 62
     0
 10
857.63525118429993
 20
-114.76703176860001
 30
0.0
 11
857.63525118429993
 21
-102.76703176860001
 31
0.0
  0
LINE
  5
267
  8
0
 62
     0
 10
857.63525118429993
 20
-114.76703176860001
 30
0.0
 11
857.63525118429993
 21
-114.76703176860001
 31
0.0
  0
LINE
  5
268
  8
0
 62
     0
 10
857.63525118429993
 20
-114.76703176860001
 30
0.0
 11
857.63525118429993
 21
-111.76703176860001
 31
0.0
  0
SOLID
  5
269
  8
0
 62
     0
 10
857.63525118429993
 20
-114.76703176860001
 30
0.0
 11
856.13525118429993
 21
-108.76703176860001
 31
0.0
 12
859.13525118429982
 22
-108.76703176860001
 32
0.0
 13
857.63525118429993
 23
-110.26703176860001
 33
0.0
  0
LINE
  5
26A
  8
0
 62
     0
 10
857.63525118429993
 20
-102.76703176860001
 30
0.0
 11
857.63525118429993
 21
-105.76703176860001
 31
0.0
  0
SOLID
  5
26B
  8
0
 62
     0
 10
857.63525118429993
 20
-102.76703176860001
 30
0.0
 11
859.13525118429982
 21
-108.76703176860001
 31
0.0
 12
856.13525118429993
 22
-108.76703176860001
 32
0.0
 13
857.63525118429993
 23
-107.26703176860001
 33
0.0
  0
ENDBLK
  5
26C
  8
0
  0
BLOCK
  8
0
  2
*D34
 70
     1
 10
0.0
 20
0.0
 30
0.0
  3
*D34
  1

  0
TEXT
  5
270
  8
0
 62
     0
 10
877.42469038570005
 20
-147.132952948
 30
0.0
 40
5.9972220420999998
  1
11
  0
LINE
  5
271
  8
0
 62
     0
 10
886.45246805750003
 20
-161.76703176859999
 30
0.0
 11
886.45246805750003
 21
-148.69128624960001
 31
0.0
  0
LINE
  5
272
  8
0
 62
     0
 10
875.45246805750003
 20
-159.0251697894
 30
0.0
 11
875.45246805750003
 21
-148.69128624960001
 31
0.0
  0
LINE
  5
273
  8
0
 62
     0
 10
886.45246805750003
 20
-149.19128624960001
 30
0.0
 11
886.45246805750003
 21
-149.19128624960001
 31
0.0
  0
LINE
  5
274
  8
0
 62
     0
 10
886.45246805750003
 20
-149.19128624960001
 30
0.0
 11
875.45246805750003
 21
-149.19128624960001
 31
0.0
  0
LINE
  5
275
  8
0
 62
     0
 10
875.45246805750003
 20
-149.19128624960001
 30
0.0
 11
886.45246805750003
 21
-149.19128624960001
 31
0.0
  0
LINE
  5
276
  8
0
 62
     0
 10
875.45246805750003
 20
-149.19128624960001
 30
0.0
 11
875.45246805750003
 21
-149.19128624960001
 31
0.0
  0
LINE
  5
277
  8
0
 62
     0
 10
875.45246805750003
 20
-149.19128624960001
 30
0.0
 11
872.45246805749991
 21
-149.19128624960001
 31
0.0
  0
SOLID
  5
278
  8
0
 62
     0
 10
875.45246805750003
 20
-149.19128624960001
 30
0.0
 11
869.45246805750003
 21
-150.6912862495999
 31
0.0
 12
869.45246805750003
 22
-147.69128624960001
 32
0.0
 13
870.95246805750003
 23
-149.19128624960001
 33
0.0
  0
LINE
  5
279
  8
0
 62
     0
 10
886.45246805750003
 20
-149.19128624960001
 30
0.0
 11
889.45246805750014
 21
-149.19128624960001
 31
0.0
  0
SOLID
  5
27A
  8
0
 62
     0
 10
886.45246805750003
 20
-149.19128624960001
 30
0.0
 11
892.45246805750003
 21
-147.69128624960001
 31
0.0
 12
892.45246805750003
 22
-150.6912862495999
 32
0.0
 13
890.95246805750003
 23
-149.19128624960001
 33
0.0
  0
ENDBLK
  5
27B
  8
0
  0
BLOCK
  8
0
  2
*D35
 70
     1
 10
0.0
 20
0.0
 30
0.0
  3
*D35
  1

  0
TEXT
  5
27F
  8
0
 62
     0
 10
888.92469038569993
 20
-186.50277398790001
 30
0.0
 40
5.9972220420999998
  1
10
  0
LINE
  5
280
  8
0
 62
     0
 10
896.45246805749991
 20
-217.51703176859999
 30
0.0
 11
896.45246805749991
 21
-188.06110728940001
 31
0.0
  0
LINE
  5
281
  8
0
 62
     0
 10
886.45246805750003
 20
-175.76703176859999
 30
0.0
 11
886.45246805750003
 21
-189.06110728940001
 31
0.0
  0
LINE
  5
282
  8
0
 62
     0
 10
896.45246805749991
 20
-188.56110728940001
 30
0.0
 11
896.45246805749991
 21
-188.56110728940001
 31
0.0
  0
LINE
  5
283
  8
0
 62
     0
 10
896.45246805749991
 20
-188.56110728940001
 30
0.0
 11
886.45246805750003
 21
-188.56110728940001
 31
0.0
  0
LINE
  5
284
  8
0
 62
     0
 10
886.45246805750003
 20
-188.56110728940001
 30
0.0
 11
896.45246805749991
 21
-188.56110728940001
 31
0.0
  0
LINE
  5
285
  8
0
 62
     0
 10
886.45246805750003
 20
-188.56110728940001
 30
0.0
 11
886.45246805750003
 21
-188.56110728940001
 31
0.0
  0
LINE
  5
286
  8
0
 62
     0
 10
886.45246805750003
 20
-188.56110728940001
 30
0.0
 11
883.45246805750003
 21
-188.56110728940001
 31
0.0
  0
SOLID
  5
287
  8
0
 62
     0
 10
886.45246805750003
 20
-188.56110728940001
 30
0.0
 11
880.45246805749991
 21
-190.0611072893999
 31
0.0
 12
880.45246805749991
 22
-187.06110728940001
 32
0.0
 13
881.95246805750003
 23
-188.56110728940001
 33
0.0
  0
LINE
  5
288
  8
0
 62
     0
 10
896.45246805749991
 20
-188.56110728940001
 30
0.0
 11
899.45246805750003
 21
-188.56110728940001
 31
0.0
  0
SOLID
  5
289
  8
0
 62
     0
 10
896.45246805749991
 20
-188.56110728940001
 30
0.0
 11
902.45246805750003
 21
-187.06110728940001
 31
0.0
 12
902.45246805750003
 22
-190.0611072893999
 32
0.0
 13
900.95246805749991
 23
-188.56110728940001
 33
0.0
  0
ENDBLK
  5
28A
  8
0
  0
BLOCK
  8
0
  2
*D36
 70
     1
 10
0.0
 20
0.0
 30
0.0
  3
*D36
  1

  0
TEXT
  5
28E
  8
0
 62
     0
 10
898.42469038570005
 20
-200.5275461233
 30
0.0
 40
5.9972220420999998
  1
11
  0
LINE
  5
28F
  8
0
 62
     0
 10
907.45246805750014
 20
-215.76703176859999
 30
0.0
 11
907.45246805750014
 21
-202.0858794248
 31
0.0
  0
LINE
  5
290
  8
0
 62
     0
 10
896.45246805749991
 20
-215.76703176859999
 30
0.0
 11
896.45246805749991
 21
-202.0858794248
 31
0.0
  0
LINE
  5
291
  8
0
 62
     0
 10
907.45246805750014
 20
-202.5858794248
 30
0.0
 11
907.45246805750014
 21
-202.5858794248
 31
0.0
  0
LINE
  5
292
  8
0
 62
     0
 10
907.45246805750014
 20
-202.5858794248
 30
0.0
 11
896.45246805749991
 21
-202.5858794248
 31
0.0
  0
LINE
  5
293
  8
0
 62
     0
 10
896.45246805749991
 20
-202.5858794248
 30
0.0
 11
907.45246805750014
 21
-202.5858794248
 31
0.0
  0
LINE
  5
294
  8
0
 62
     0
 10
896.45246805749991
 20
-202.5858794248
 30
0.0
 11
896.45246805749991
 21
-202.5858794248
 31
0.0
  0
LINE
  5
295
  8
0
 62
     0
 10
896.45246805749991
 20
-202.5858794248
 30
0.0
 11
893.45246805750003
 21
-202.5858794248
 31
0.0
  0
SOLID
  5
296
  8
0
 62
     0
 10
896.45246805749991
 20
-202.5858794248
 30
0.0
 11
890.45246805750014
 21
-204.0858794248
 31
0.0
 12
890.45246805750014
 22
-201.0858794248
 32
0.0
 13
891.95246805749991
 23
-202.5858794248
 33
0.0
  0
LINE
  5
297
  8
0
 62
     0
 10
907.45246805750014
 20
-202.5858794248
 30
0.0
 11
910.45246805750003
 21
-202.5858794248
 31
0.0
  0
SOLID
  5
298
  8
0
 62
     0
 10
907.45246805750014
 20
-202.5858794248
 30
0.0
 11
913.45246805749991
 21
-201.0858794248
 31
0.0
 12
913.45246805749991
 22
-204.0858794248
 32
0.0
 13
911.95246805750003
 23
-202.5858794248
 33
0.0
  0
ENDBLK
  5
299
  8
0
  0
BLOCK
  8
0
  2
*D37
 70
     1
 10
0.0
 20
0.0
 30
0.0
  3
*D37
  1

  0
TEXT
  5
29D
  8
0
 62
     0
 10
766.3929045486999
 20
-317.62859096879998
 30
0.0
 40
5.9972220420999998
  1
54
  0
LINE
  5
29E
  8
0
 62
     0
 10
796.92068222049988
 20
-346.3125395811
 30
0.0
 11
796.92068222049988
 21
-319.18692427040003
 31
0.0
  0
LINE
  5
29F
  8
0
 62
     0
 10
742.92068222049988
 20
-351.3125395811
 30
0.0
 11
742.92068222049988
 21
-319.18692427040003
 31
0.0
  0
LINE
  5
2A0
  8
0
 62
     0
 10
796.92068222049988
 20
-319.68692427040003
 30
0.0
 11
776.97623756410007
 21
-319.68692427040003
 31
0.0
  0
LINE
  5
2A1
  8
0
 62
     0
 10
796.92068222049988
 20
-319.68692427040003
 30
0.0
 11
762.86512687690004
 21
-319.68692427040003
 31
0.0
  0
LINE
  5
2A2
  8
0
 62
     0
 10
742.92068222049988
 20
-319.68692427040003
 30
0.0
 11
776.97623756410007
 21
-319.68692427040003
 31
0.0
  0
LINE
  5
2A3
  8
0
 62
     0
 10
742.92068222049988
 20
-319.68692427040003
 30
0.0
 11
762.86512687690004
 21
-319.68692427040003
 31
0.0
  0
LINE
  5
2A4
  8
0
 62
     0
 10
742.92068222049988
 20
-319.68692427040003
 30
0.0
 11
745.9206822205
 21
-319.68692427040003
 31
0.0
  0
SOLID
  5
2A5
  8
0
 62
     0
 10
742.92068222049988
 20
-319.68692427040003
 30
0.0
 11
748.9206822205
 21
-318.18692427040003
 31
0.0
 12
748.9206822205
 22
-321.18692427040003
 32
0.0
 13
747.42068222049988
 23
-319.68692427040003
 33
0.0
  0
LINE
  5
2A6
  8
0
 62
     0
 10
796.92068222049988
 20
-319.68692427040003
 30
0.0
 11
793.9206822205
 21
-319.68692427040003
 31
0.0
  0
SOLID
  5
2A7
  8
0
 62
     0
 10
796.92068222049988
 20
-319.68692427040003
 30
0.0
 11
790.9206822205
 21
-321.18692427040003
 31
0.0
 12
790.9206822205
 22
-318.18692427040003
 32
0.0
 13
792.42068222049988
 23
-319.68692427040003
 33
0.0
  0
ENDBLK
  5
2A8
  8
0
  0
BLOCK
  8
0
  2
*D38
 70
     1
 10
0.0
 20
0.0
 30
0.0
  3
*D38
  1

  0
TEXT
  5
2AC
  8
0
 62
     0
 10
712.3929045486999
 20
-317.5570414897
 30
0.0
 40
5.9972220420999998
  1
54
  0
LINE
  5
2AD
  8
0
 62
     0
 10
742.92068222049988
 20
-351.3125395811
 30
0.0
 11
742.92068222049988
 21
-319.1153747912
 31
0.0
  0
LINE
  5
2AE
  8
0
 62
     0
 10
688.92068222049988
 20
-341.3125395811
 30
0.0
 11
688.92068222049988
 21
-319.1153747912
 31
0.0
  0
LINE
  5
2AF
  8
0
 62
     0
 10
742.92068222049988
 20
-319.6153747912
 30
0.0
 11
722.97623756409996
 21
-319.6153747912
 31
0.0
  0
LINE
  5
2B0
  8
0
 62
     0
 10
742.92068222049988
 20
-319.6153747912
 30
0.0
 11
708.86512687690004
 21
-319.6153747912
 31
0.0
  0
LINE
  5
2B1
  8
0
 62
     0
 10
688.92068222049988
 20
-319.6153747912
 30
0.0
 11
722.97623756409996
 21
-319.6153747912
 31
0.0
  0
LINE
  5
2B2
  8
0
 62
     0
 10
688.92068222049988
 20
-319.6153747912
 30
0.0
 11
708.86512687690004
 21
-319.6153747912
 31
0.0
  0
LINE
  5
2B3
  8
0
 62
     0
 10
688.92068222049988
 20
-319.6153747912
 30
0.0
 11
691.9206822205
 21
-319.6153747912
 31
0.0
  0
SOLID
  5
2B4
  8
0
 62
     0
 10
688.92068222049988
 20
-319.6153747912
 30
0.0
 11
694.9206822205
 21
-318.1153747912
 31
0.0
 12
694.9206822205
 22
-321.1153747912
 32
0.0
 13
693.42068222049988
 23
-319.6153747912
 33
0.0
  0
LINE
  5
2B5
  8
0
 62
     0
 10
742.92068222049988
 20
-319.6153747912
 30
0.0
 11
739.9206822205
 21
-319.6153747912
 31
0.0
  0
SOLID
  5
2B6
  8
0
 62
     0
 10
742.92068222049988
 20
-319.6153747912
 30
0.0
 11
736.9206822205
 21
-321.1153747912
 31
0.0
 12
736.9206822205
 22
-318.1153747912
 32
0.0
 13
738.42068222049988
 23
-319.6153747912
 33
0.0
  0
ENDBLK
  5
2B7
  8
0
  0
BLOCK
  8
0
  2
*D39
 70
     1
 10
0.0
 20
0.0
 30
0.0
  3
*D39
  1

  0
TEXT
  5
2BB
  8
0
 62
     0
 10
799.3929045486999
 20
-317.43698940629997
 30
0.0
 40
5.9972220420999998
  1
12
  0
LINE
  5
2BC
  8
0
 62
     0
 10
808.92068222049988
 20
-336.3125395811
 30
0.0
 11
808.92068222049988
 21
-318.99532270790002
 31
0.0
  0
LINE
  5
2BD
  8
0
 62
     0
 10
796.92068222049988
 20
-346.3125395811
 30
0.0
 11
796.92068222049988
 21
-318.99532270790002
 31
0.0
  0
LINE
  5
2BE
  8
0
 62
     0
 10
808.92068222049988
 20
-319.49532270790002
 30
0.0
 11
808.92068222049988
 21
-319.49532270790002
 31
0.0
  0
LINE
  5
2BF
  8
0
 62
     0
 10
808.92068222049988
 20
-319.49532270790002
 30
0.0
 11
796.92068222049988
 21
-319.49532270790002
 31
0.0
  0
LINE
  5
2C0
  8
0
 62
     0
 10
796.92068222049988
 20
-319.49532270790002
 30
0.0
 11
808.92068222049988
 21
-319.49532270790002
 31
0.0
  0
LINE
  5
2C1
  8
0
 62
     0
 10
796.92068222049988
 20
-319.49532270790002
 30
0.0
 11
796.92068222049988
 21
-319.49532270790002
 31
0.0
  0
LINE
  5
2C2
  8
0
 62
     0
 10
796.92068222049988
 20
-319.49532270790002
 30
0.0
 11
799.9206822205
 21
-319.49532270790002
 31
0.0
  0
SOLID
  5
2C3
  8
0
 62
     0
 10
796.92068222049988
 20
-319.49532270790002
 30
0.0
 11
802.92068222049988
 21
-317.99532270790002
 31
0.0
 12
802.92068222049988
 22
-320.99532270790002
 32
0.0
 13
801.4206822205
 23
-319.49532270790002
 33
0.0
  0
LINE
  5
2C4
  8
0
 62
     0
 10
808.92068222049988
 20
-319.49532270790002
 30
0.0
 11
805.9206822205
 21
-319.49532270790002
 31
0.0
  0
SOLID
  5
2C5
  8
0
 62
     0
 10
808.92068222049988
 20
-319.49532270790002
 30
0.0
 11
802.92068222049988
 21
-320.99532270790002
 31
0.0
 12
802.92068222049988
 22
-317.99532270790002
 32
0.0
 13
804.4206822205
 23
-319.49532270790002
 33
0.0
  0
ENDBLK
  5
2C6
  8
0
  0
BLOCK
  8
0
  2
*D40
 70
     1
 10
0.0
 20
0.0
 30
0.0
  3
*D40
  1

  0
TEXT
  5
2CB
  8
0
 62
     0
 10
704.99806546429988
 20
-201.2644425556
 30
0.0
 40
5.9972220420999998
  1
90%%d
 50
313.6675439677
  0
ARC
  5
2CC
  8
0
 62
     0
 10
663.42068222049988
 20
-248.26703176859999
 30
0.0
 40
59.354356846400002
 50
82.6126761055
 51
90.0
  0
ARC
  5
2CD
  8
0
 62
     0
 10
663.42068222049988
 20
-248.26703176859999
 30
0.0
 40
59.354356846400002
 50
0.0
 51
7.3873238944999988
  0
SOLID
  5
2CE
  8
0
 62
     0
 10
722.77503906690004
 20
-248.26703176859999
 30
0.0
 11
724.27503906690004
 21
-254.26703176859999
 31
0.0
 12
721.27503906690004
 22
-254.26703176859999
 32
0.0
 13
722.77503906690004
 23
-252.76703176859999
 33
0.0
  0
SOLID
  5
2CF
  8
0
 62
     0
 10
663.42068222049988
 20
-188.91267492220001
 30
0.0
 11
657.4206822205
 21
-190.41267492220001
 31
0.0
 12
657.4206822205
 22
-187.41267492220001
 32
0.0
 13
658.92068222049988
 23
-188.91267492220001
 33
0.0
  0
ARC
  5
2D0
  8
0
 62
     0
 10
663.42068222049988
 20
-248.26703176859999
 30
0.0
 40
59.354356846400002
 50
0.0
 51
35.013075349200001
  0
ARC
  5
2D1
  8
0
 62
     0
 10
663.42068222049988
 20
-248.26703176859999
 30
0.0
 40
59.354356846400002
 50
52.322012586199989
 51
90.0
  0
LINE
  5
2D2
  8
0
 62
     0
 10
805.35723903659994
 20
-248.26703176859999
 30
0.0
 11
719.21159588300009
 21
-248.26703176859999
 31
0.0
  0
LINE
  5
2D3
  8
0
 62
     0
 10
663.42068222049988
 20
-106.3304749525
 30
0.0
 11
663.42068222049988
 21
-192.47611810609999
 31
0.0
  0
ENDBLK
  5
2D4
  8
0
  0
BLOCK
  8
0
  2
*D41
 70
     1
 10
0.0
 20
0.0
 30
0.0
  3
*D41
  1

  0
TEXT
  5
2D8
  8
0
 62
     0
 10
984.53518623909997
 20
-214.67403056180001
 30
0.0
 40
5.9972220420999998
  1
90%%d
  0
ARC
  5
2D9
  8
0
 62
     0
 10
989.82685274679989
 20
-162.15471666440001
 30
0.0
 40
55.694313802099998
 50
307.0376805203
 51
315.0
  0
ARC
  5
2DA
  8
0
 62
     0
 10
989.82685274679989
 20
-162.15471666440001
 30
0.0
 40
55.694313802099998
 50
225.0
 51
232.9623194797
  0
SOLID
  5
2DB
  8
0
 62
     0
 10
950.44502578380002
 20
-201.53654362739999
 30
0.0
 11
945.14172492490013
 21
-198.35456311199999
 31
0.0
 12
947.26304526850015
 22
-196.23324276849999
 32
0.0
 13
947.26304526850015
 23
-198.35456311199999
 33
0.0
  0
SOLID
  5
2DC
  8
0
 62
     0
 10
1029.2086797098
 20
-201.53654362739999
 30
0.0
 11
1032.3906602251
 21
-196.23324276849999
 31
0.0
 12
1034.5119805687
 22
-198.35456311199999
 32
0.0
 13
1032.3906602251
 23
-198.35456311199999
 33
0.0
  0
ARC
  5
2DD
  8
0
 62
     0
 10
989.82685274679989
 20
-162.15471666440001
 30
0.0
 40
55.694313802099998
 50
225.0
 51
258.40769967360001
  0
ARC
  5
2DE
  8
0
 62
     0
 10
989.82685274679989
 20
-162.15471666440001
 30
0.0
 40
55.694313802099998
 50
281.59230032639999
 51
315.0
  0
LINE
  5
2DF
  8
0
 62
     0
 10
966.05711790709995
 20
-185.92445150410001
 30
0.0
 11
947.92529094410008
 21
-204.05627846709999
 31
0.0
  0
LINE
  5
2E0
  8
0
 62
     0
 10
1013.5965875865
 20
-185.92445150410001
 30
0.0
 11
1031.7284145495
 21
-204.05627846709999
 31
0.0
  0
ENDBLK
  5
2E1
  8
0
  0
BLOCK
  8
0
  2
*D42
 70
     1
 10
0.0
 20
0.0
 30
0.0
  3
*D42
  1

  0
TEXT
  5
2E5
  8
0
 62
     0
 10
984.53518623909997
 20
-110.68511838009999
 30
0.0
 40
5.9972220420999998
  1
90%%d
 50
360.0
  0
ARC
  5
2E6
  8
0
 62
     0
 10
989.82685274679989
 20
-182.15471666440001
 30
0.0
 40
68.294598379600004
 50
128.70818245140001
 51
135.0
  0
ARC
  5
2E7
  8
0
 62
     0
 10
989.82685274679989
 20
-182.15471666440001
 30
0.0
 40
68.294598379600004
 50
45.0
 51
51.291817548599987
  0
SOLID
  5
2E8
  8
0
 62
     0
 10
1038.1184263795001
 20
-133.86314303169999
 30
0.0
 11
1043.4217272384001
 21
-137.04512354709999
 31
0.0
 12
1041.3004068948001
 22
-139.16644389059999
 32
0.0
 13
1041.3004068948001
 23
-137.04512354709999
 33
0.0
  0
SOLID
  5
2E9
  8
0
 62
     0
 10
941.53527911419997
 20
-133.86314303169999
 30
0.0
 11
938.35329859880005
 21
-139.16644389059999
 31
0.0
 12
936.23197825529985
 22
-137.04512354709999
 32
0.0
 13
938.35329859880005
 23
-137.04512354709999
 33
0.0
  0
ARC
  5
2EA
  8
0
 62
     0
 10
989.82685274679989
 20
-182.15471666440001
 30
0.0
 40
68.294598379600004
 50
45.0
 51
82.488155942700004
  0
ARC
  5
2EB
  8
0
 62
     0
 10
989.82685274679989
 20
-182.15471666440001
 30
0.0
 40
68.294598379600004
 50
97.51184405730001
 51
135.0
  0
LINE
  5
2EC
  8
0
 62
     0
 10
1013.5965875865
 20
-158.38498182469999
 30
0.0
 11
1040.6381612191999
 21
-131.343408192
 31
0.0
  0
LINE
  5
2ED
  8
0
 62
     0
 10
966.05711790709995
 20
-158.38498182469999
 30
0.0
 11
939.01554427439987
 21
-131.343408192
 31
0.0
  0
ENDBLK
  5
2EE
  8
0
  0
BLOCK
  8
0
  2
*U43
 70
     1
 10
0.0
 20
0.0
 30
0.0
  3
*U43
  1

  0
TEXT
  5
309
  8
┌▓È_1
  6
CONTINUOUS
 62
     5
 10
947.08670031637826
 20
-391.94221203239999
 30
0.0
 40
4.6749999999999989
  1
1üF2
  0
ENDBLK
  5
30B
  8
0
  0
BLOCK
  8
0
  2
*U44
 70
     1
 10
0.0
 20
0.0
 30
0.0
  3
*U44
  1

  0
TEXT
  5
30D
  8
┌▓È_1
  6
CONTINUOUS
 10
906.22311914710008
 20
-366.60832878366898
 30
0.0
 40
4.6749999999999989
  1
ü@ìÌ ü@Ä┐
  0
ENDBLK
  5
30F
  8
0
  0
BLOCK
  8
0
  2
*U45
 70
     1
 10
0.0
 20
0.0
 30
0.0
  3
*U45
  1

  0
TEXT
  5
311
  8
┌▓È_1
  6
CONTINUOUS
 10
938.22311914710008
 20
-366.70325264153712
 30
0.0
 40
4.6749999999999989
  1
ü@ö┬ ü@î·
  0
ENDBLK
  5
313
  8
0
  0
BLOCK
  8
0
  2
*U46
 70
     1
 10
0.0
 20
0.0
 30
0.0
  3
*U46
  1

  0
TEXT
  5
315
  8
┌▓È_1
  6
CONTINUOUS
 10
938.22311914710008
 20
-383.67952167707
 30
0.0
 40
4.6749999999999989
  1
ü@Ä┌ ü@ôx
  0
ENDBLK
  5
317
  8
0
  0
BLOCK
  8
0
  2
*U47
 70
     1
 10
0.0
 20
0.0
 30
0.0
  3
*U47
  1

  0
TEXT
  5
319
  8
┌▓È_1
  6
CONTINUOUS
 10
970.22311914709996
 20
-366.70325264153712
 30
0.0
 40
4.6749999999999989
  1
ü@îƒ ü@ê¾
  0
ENDBLK
  5
31B
  8
0
  0
BLOCK
  8
0
  2
*U48
 70
     1
 10
0.0
 20
0.0
 30
0.0
  3
*U48
  1

  0
TEXT
  5
31D
  8
┌▓È_1
  6
CONTINUOUS
 10
873.29234752449997
 20
-383.70325264153701
 30
0.0
 40
4.6749999999999989
  1
 É¦îvü@ü@öÆÉ{ëÛ
  0
ENDBLK
  5
31F
  8
0
  0
BLOCK
  8
0
  2
*U49
 70
     1
 10
0.0
 20
0.0
 30
0.0
  3
*U49
  1

  0
TEXT
  5
321
  8
┌▓È_1
  6
CONTINUOUS
 10
873.29234752449997
 20
-392.22698360600413
 30
0.0
 40
4.6749999999999989
  1
 É╗É}ü@ü@ è¦û{
  0
ENDBLK
  5
323
  8
0
  0
BLOCK
  8
0
  2
*U50
 70
     1
 10
0.0
 20
0.0
 30
0.0
  3
*U50
  1

  0
TEXT
  5
325
  8
┌▓È_1
  6
CONTINUOUS
 10
874.22311914710008
 20
-366.53713589026802
 30
0.0
 40
4.6749999999999989
  1
ü@ô· ü@òt
  0
ENDBLK
  5
327
  8
0
  0
BLOCK
  8
0
  2
*U51
 70
     1
 10
0.0
 20
0.0
 30
0.0
  3
*U51
  1

  0
TEXT
  5
329
  8
┌▓È_1
  6
CONTINUOUS
 10
1003.073346432
 20
-366.55053155410212
 30
0.0
 40
4.6749999999999989
  1
î^öÈ
  0
ENDBLK
  5
32B
  8
0
  0
BLOCK
  8
0
  2
*U52
 70
     1
 10
0.0
 20
0.0
 30
0.0
  3
*U52
  1

  0
TEXT
  5
32D
  8
┌▓È_1
  6
CONTINUOUS
 10
1003.073346432
 20
-383.59799348303608
 30
0.0
 40
4.6749999999999989
  1
òiû╝
  0
ENDBLK
  5
32F
  8
0
  0
BLOCK
  8
0
  2
*U53
 70
     1
 10
0.0
 20
0.0
 30
0.0
  3
*U53
  1

  0
TEXT
  5
331
  8
┌▓È_1
  6
CONTINUOUS
 10
1003.073346432
 20
-400.55053155410201
 30
0.0
 40
4.6749999999999989
  1
É}öÈ
  0
ENDBLK
  5
333
  8
0
  0
BLOCK
  8
0
  2
*U54
 70
     1
 10
0.0
 20
0.0
 30
0.0
  3
*U54
  1

  0
TEXT
  5
335
  8
┌▓È_1
  6
CONTINUOUS
 62
     5
 10
881.66284244835776
 20
-374.94221203239999
 30
0.0
 40
4.6749999999999989
  1
H16.4
  0
ENDBLK
  5
337
  8
0
  0
BLOCK
  8
0
  2
*U55
 70
     1
 10
0.0
 20
0.0
 30
0.0
  3
*U55
  1

  0
TEXT
  5
339
  8
┌▓È_1
  6
CONTINUOUS
 62
     5
 10
918.49209371739335
 20
-375.22698360600413
 30
0.0
 40
4.6749999999999989
  1
ôS
  0
ENDBLK
  5
33B
  8
0
  0
BLOCK
  8
0
  2
*U56
 70
     1
 10
0.0
 20
0.0
 30
0.0
  3
*U56
  1

  0
TEXT
  5
33D
  8
┌▓È_1
  6
CONTINUOUS
 62
     5
 10
947.30027899658114
 20
-374.94221203239999
 30
0.0
 40
4.6749999999999989
  1
4.5t
  0
ENDBLK
  5
33F
  8
0
  0
BLOCK
  8
0
  2
*U57
 70
     1
 10
0.0
 20
0.0
 30
0.0
  3
*U57
  1

  0
TEXT
  5
341
  8
┌▓È_1
  6
CONTINUOUS
 10
873.29234752449997
 20
-357.51375661205782
 30
0.0
 40
7.1966662884000003
  1
ò\û╩ÅêùØüFâåâjâNâìâüâbâLÄdÅÒé░
  0
ENDBLK
  5
343
  8
0
  0
BLOCK
  8
0
  2
*U58
 70
     1
 10
0.0
 20
0.0
 30
0.0
  3
*U58
  1

  0
TEXT
  5
345
  8
┌▓È_1
  6
CONTINUOUS
 10
887.73345497410003
 20
-406.86102494532742
 30
0.0
 40
8.6359998702999992
  1
èöÄ«ë´Äð
  0
ENDBLK
  5
347
  8
0
  0
BLOCK
  8
0
  2
*U59
 70
     1
 10
0.0
 20
0.0
 30
0.0
  3
*U59
  1

  0
TEXT
  5
349
  8
┌▓È_1
  6
CONTINUOUS
 10
1025.936118564367
 20
-371.7206871258
 30
0.0
 40
7.1966662884000003
  1
LY-201  150x150
  0
ENDBLK
  5
34B
  8
0
  0
BLOCK
  8
0
  2
*U60
 70
     1
 10
0.0
 20
0.0
 30
0.0
  3
*U60
  1

  0
TEXT
  5
34D
  8
┌▓È_1
  6
CONTINUOUS
 10
1032.1026440603
 20
-389.97413003892689
 30
0.0
 40
7.1966662884000003
  1
ékî^âAâôâOâï
  0
ENDBLK
  5
34F
  8
0
  0
BLOCK
  8
0
  2
*U61
 70
     1
 10
0.0
 20
0.0
 30
0.0
  3
*U61
  1

  0
TEXT
  5
351
  8
┌▓È_1
  6
CONTINUOUS
 10
969.09998763382544
 20
-238.39257447522741
 30
0.0
 40
5.9972220420999998
  1
ÄMâéâ~òöègæÕÉ}
  0
ENDBLK
  5
353
  8
0
  0
BLOCK
  8
0
  2
*D62
 70
     1
 10
0.0
 20
0.0
 30
0.0
  3
*D62
  1

  0
LINE
  5
356
  8
Éíû@É³
 62
     0
 10
808.85818222049977
 20
-248.26703176859991
 30
0.0
 11
721.52503906684308
 21
-248.26703176859991
 31
0.0
  0
LINE
  5
357
  8
Éíû@É³
 62
     0
 10
663.42068222049988
 20
-102.82953176860001
 30
0.0
 11
663.42068222049988
 21
-190.1626749222566
 31
0.0
  0
ARC
  5
358
  8
Éíû@É³
 62
     0
 10
663.42068222049988
 20
-248.26703176859991
 30
0.0
 40
59.354356846343393
 50
5.7943719135254961
 51
34.764562599359969
  0
ARC
  5
359
  8
Éíû@É³
 62
     0
 10
663.42068222049988
 20
-248.26703176859991
 30
0.0
 40
59.354356846343393
 50
52.570525336103799
 51
84.205628086474462
  0
SOLID
  5
35A
  8
Éíû@É³
 62
     0
 10
723.47049757609761
 20
-242.2241568351013
 30
0.0
 11
721.47305389446285
 21
-242.325244612289
 31
0.0
 12
722.77503906684319
 22
-248.26703176859991
 32
0.0
 13
722.77503906684319
 23
-248.26703176859991
 33
0.0
  0
SOLID
  5
35B
  8
Éíû@É³
 62
     0
 10
669.36246937681085
 20
-190.214660094637
 30
0.0
 11
669.46355715399841
 21
-188.21721641300201
 31
0.0
 12
663.42068222049988
 22
-188.91267492225651
 32
0.0
 13
663.42068222049988
 23
-188.91267492225651
 33
0.0
  0
TEXT
  8
Éíû@É³
  40
5.99722
  5
37F
  62
0
  72
0
  71
0
 10
694.361
 20
-217.900
 30
0.000000
  1
90üï
  0
POINT
  5
35D
  8
Defpoints
 62
     0
 10
663.42068222049988
 20
-248.26703176859991
 30
0.0
  0
POINT
  5
35E
  8
Defpoints
 62
     0
 10
808.92068222049977
 20
-248.26703176859999
 30
0.0
  0
POINT
  5
35F
  8
Defpoints
 62
     0
 10
663.42068222049988
 20
-102.76703176860001
 30
0.0
  0
POINT
  5
360
  8
Defpoints
 62
     0
 10
693.09786064367154
 20
-196.86465091437969
 30
0.0
  0
ENDBLK
  5
362
  8
0
  0
BLOCK
  8
0
  2
*D63
 70
     1
 10
0.0
 20
0.0
 30
0.0
  3
*D63
  1

  0
LINE
  5
364
  8
Éíû@É³
 62
     0
 10
968.00232848707583
 20
-183.9792409241241
 30
0.0
 11
949.56114230732032
 21
-202.42042710387969
 31
0.0
  0
LINE
  5
365
  8
Éíû@É³
 62
     0
 10
1011.6513770065239
 20
-183.9792409241241
 30
0.0
 11
1030.092563186279
 21
-202.42042710387949
 31
0.0
  0
ARC
  5
366
  8
Éíû@É³
 62
     0
 10
989.82685274679989
 20
-162.15471666440001
 30
0.0
 40
55.694313802099998
 50
231.17551620722841
 51
260.50670304073122
  0
ARC
  5
367
  8
Éíû@É³
 62
     0
 10
989.82685274679989
 20
-162.15471666440001
 30
0.0
 40
55.694313802099998
 50
279.49329695926878
 51
308.82448379277201
  0
SOLID
  5
368
  8
Éíû@É³
 62
     0
 10
954.24204724816161
 20
-206.28866189183441
 30
0.0
 11
955.57803038990585
 21
-204.80032421342429
 31
0.0
 12
950.44502578380354
 22
-201.5365436273965
 32
0.0
 13
950.44502578380354
 23
-201.5365436273965
 33
0.0
  0
SOLID
  5
369
  8
Éíû@É³
 62
     0
 10
1024.075675103694
 20
-204.8003242134242
 30
0.0
 11
1025.411658245438
 21
-206.28866189183421
 31
0.0
 12
1029.2086797097959
 22
-201.5365436273963
 32
0.0
 13
1029.2086797097959
 23
-201.5365436273963
 33
0.0
  0
TEXT
  8
Éíû@É³
  40
5.99722
  5
380
  62
0
  72
0
  71
0
 10
977.832
 20
-228.464
 30
0.000000
  1
90üï
  0
POINT
  5
36B
  8
Defpoints
 62
     0
 10
989.82685274679989
 20
-162.15471666440001
 30
0.0
  0
POINT
  5
36C
  8
Defpoints
 62
     0
 10
968.04652266089988
 20
-183.93504675029999
 30
0.0
  0
POINT
  5
36D
  8
Defpoints
 62
     0
 10
1011.6071828327
 20
-183.93504675029999
 30
0.0
  0
POINT
  5
36E
  8
Defpoints
 62
     0
 10
975.41210363090033
 20
-215.95129274329619
 30
0.0
  0
ENDBLK
  5
370
  8
0
  0
BLOCK
  8
0
  2
*D64
 70
     1
 10
0.0
 20
0.0
 30
0.0
  3
*D64
  1

  0
LINE
  5
372
  8
Éíû@É³
 62
     0
 10
1011.6513770065239
 20
-160.33019240467581
 30
0.0
 11
1039.00230985591
 21
-132.97925955529001
 31
0.0
  0
LINE
  5
373
  8
Éíû@É³
 62
     0
 10
968.00232848707583
 20
-160.33019240467581
 30
0.0
 11
940.6513956376898
 21
-132.9792595552897
 31
0.0
  0
ARC
  5
374
  8
Éíû@É³
 62
     0
 10
989.82685274679989
 20
-182.15471666440001
 30
0.0
 40
68.294598379599989
 50
50.035322557325941
 51
82.270153444333957
  0
ARC
  5
375
  8
Éíû@É³
 62
     0
 10
989.82685274679989
 20
-182.15471666440001
 30
0.0
 40
68.294598379599989
 50
97.729846555666015
 51
129.96467744267369
  0
SOLID
  5
376
  8
Éíû@É³
 62
     0
 10
1034.368875986597
 20
-129.07348001109739
 30
0.0
 11
1033.0181501632881
 21
-130.54845111259229
 31
0.0
 12
1038.1184263794271
 22
-133.86314303177321
 32
0.0
 13
1038.1184263794271
 23
-133.86314303177321
 33
0.0
  0
SOLID
  5
377
  8
Éíû@É³
 62
     0
 10
946.6355553303124
 20
-130.54845111259209
 30
0.0
 11
945.284829507003
 21
-129.07348001109719
 31
0.0
 12
941.53527911417302
 22
-133.86314303177289
 32
0.0
 13
941.53527911417302
 23
-133.86314303177289
 33
0.0
  0
TEXT
  8
Éíû@É³
  40
5.99722
  5
381
  62
0
  72
0
  71
0
 10
977.832
 20
-124.475
 30
0.000000
  1
90üï
  0
POINT
  5
379
  8
Defpoints
 62
     0
 10
989.82685274679989
 20
-182.15471666440001
 30
0.0
  0
POINT
  5
37A
  8
Defpoints
 62
     0
 10
1011.6071828327
 20
-160.37438657850001
 30
0.0
  0
POINT
  5
37B
  8
Defpoints
 62
     0
 10
968.04652266089988
 20
-160.37438657850001
 30
0.0
  0
POINT
  5
37C
  8
Defpoints
 62
     0
 10
1007.502795485068
 20
-116.1872002935048
 30
0.0
  0
ENDBLK
  5
37E
  8
0
  0
ENDSEC
  0
SECTION
  2
ENTITIES
  0
LINE
  5
2F
  8
┌▓È_1
  6
STITCH
 10
661.67068222049988
 20
-112.26703176860001
 30
0.0
 11
661.67068222049988
 21
-117.26703176860001
 31
0.0
  0
LINE
  5
30
  8
┌▓È_1
 62
     5
 10
875.45246805750003
 20
-252.76703176859999
 30
0.0
 11
907.45246805750014
 21
-252.76703176859999
 31
0.0
  0
LINE
  5
31
  8
┌▓È_1
 62
     5
 10
907.45246805750014
 20
-102.76703176860001
 30
0.0
 11
875.45246805750003
 21
-102.76703176860001
 31
0.0
  0
INSERT
  5
33
  8
┌▓È_1
  6
BORDER
  2
CLUMP0
 10
0.0
 20
0.0
 30
0.0
  0
INSERT
  5
3B
  8
┌▓È_1
  6
BORDER
  2
CLUMP1
 10
0.0
 20
0.0
 30
0.0
  0
ARC
  5
42
  8
┌▓È_1
 62
     5
 10
663.42068222049988
 20
-248.26703176859999
 30
0.0
 40
4.5
 50
180.0
 51
270.0
  0
LINE
  5
43
  8
┌▓È_1
 62
     5
 10
658.92068222049988
 20
-337.3125395811
 30
0.0
 11
658.92068222049988
 21
-369.3125395811
 31
0.0
  0
LINE
  5
44
  8
┌▓È_1
  6
STITCH
 10
663.42068222049988
 20
-337.3125395811
 30
0.0
 11
663.42068222049988
 21
-369.3125395811
 31
0.0
  0
INSERT
  5
46
  8
┌▓È_1
  6
BORDER
  2
CLUMP2
 10
0.0
 20
0.0
 30
0.0
  0
INSERT
  5
4E
  8
┌▓È_1
  6
BORDER
  2
CLUMP3
 10
0.0
 20
0.0
 30
0.0
  0
INSERT
  5
5B
  8
┌▓È_1
  6
BORDER
  2
CLUMP4
 10
0.0
 20
0.0
 30
0.0
  0
DIMENSION
  5
7B
  8
Éíû@É³
  2
*D6
 10
907.45246805750014
 20
-67.018645198199991
 30
0.0
 11
891.45246805750003
 21
-67.018645198199991
 31
0.0
 70
   128
  1
<>
 13
907.45246805750014
 23
-102.76703176860001
 33
0.0
 14
875.45246805750003
 24
-102.76703176860001
 34
0.0
  0
LINE
  5
7C
  8
┌▓È_1
 62
     5
 10
977.32685274679989
 20
-174.65471666440001
 30
0.0
 11
968.57685274679989
 21
-183.40471666440001
 31
0.0
  0
LINE
  5
7D
  8
┌▓È_1
 62
     5
 10
1002.3268527468
 20
-174.65471666440001
 30
0.0
 11
1011.0768527468
 21
-183.40471666440001
 31
0.0
  0
LINE
  5
7E
  8
┌▓È_1
 62
     5
 10
977.32685274679989
 20
-169.65471666440001
 30
0.0
 11
1002.3268527468
 21
-169.65471666440001
 31
0.0
  0
LINE
  5
7F
  8
┌▓È_1
 62
     5
 10
977.32685274679989
 20
-174.65471666440001
 30
0.0
 11
1002.3268527468
 21
-174.65471666440001
 31
0.0
  0
LINE
  5
80
  8
┌▓È_1
 62
     5
 10
953.89672311720005
 20
-183.40471666440001
 30
0.0
 11
1026.8953342283
 21
-183.40471666440001
 31
0.0
  0
LINE
  5
81
  8
┌▓È_1
 62
     5
 10
953.89672311720005
 20
-160.90471666440001
 30
0.0
 11
1026.8953342283
 21
-160.90471666440001
 31
0.0
  0
LINE
  5
82
  8
┌▓È_1
 62
     5
 10
907.45246805750014
 20
-252.76703176859999
 30
0.0
 11
907.45246805750014
 21
-102.76703176860001
 31
0.0
  0
LINE
  5
83
  8
┌▓È_1
 62
     5
 10
875.45246805750003
 20
-252.76703176859999
 30
0.0
 11
875.45246805750003
 21
-102.76703176860001
 31
0.0
  0
LINE
  5
84
  8
┌▓È_1
 62
     5
 10
875.45246805750003
 20
-248.26703176859999
 30
0.0
 11
907.45246805750014
 21
-248.26703176859999
 31
0.0
  0
INSERT
  5
86
  8
┌▓È_1
  6
BORDER
  2
CLUMP6
 10
0.0
 20
0.0
 30
0.0
  0
LINE
  5
8D
  8
┌▓È_1
  6
BORDER
 62
     3
 10
669.24845999829995
 20
-114.76703176860001
 30
0.0
 11
651.87901555379995
 21
-114.76703176860001
 31
0.0
  0
LINE
  5
8E
  8
┌▓È_1
 62
     5
 10
808.92068222049988
 20
-252.76703176859999
 30
0.0
 11
808.92068222049988
 21
-248.26703176859999
 31
0.0
  0
LINE
  5
8F
  8
┌▓È_1
 62
     5
 10
658.92068222049988
 20
-369.3125395811
 30
0.0
 11
808.92068222049988
 21
-369.3125395811
 31
0.0
  0
LINE
  5
90
  8
┌▓È_1
 62
     5
 10
658.92068222049988
 20
-337.3125395811
 30
0.0
 11
808.92068222049988
 21
-337.3125395811
 31
0.0
  0
LINE
  5
91
  8
┌▓È_1
 62
     5
 10
808.92068222049988
 20
-369.3125395811
 30
0.0
 11
808.92068222049988
 21
-337.3125395811
 31
0.0
  0
INSERT
  5
93
  8
┌▓È_1
  6
BORDER
  2
CLUMP7
 10
0.0
 20
0.0
 30
0.0
  0
INSERT
  5
9B
  8
┌▓È_1
  6
BORDER
  2
CLUMP8
 10
0.0
 20
0.0
 30
0.0
  0
INSERT
  5
A3
  8
┌▓È_1
  6
BORDER
  2
CLUMP9
 10
0.0
 20
0.0
 30
0.0
  0
INSERT
  5
B0
  8
┌▓È_1
  6
BORDER
  2
CLUMP10
 10
0.0
 20
0.0
 30
0.0
  0
LINE
  5
C0
  8
┌▓È_1
  6
STITCH
 10
661.67068222049988
 20
-117.26703176860001
 30
0.0
 11
663.42068222049988
 21
-119.01703176860001
 31
0.0
  0
LINE
  5
C1
  8
┌▓È_1
  6
STITCH
 10
660.6706822205
 20
-117.26703176860001
 30
0.0
 11
658.92068222049988
 21
-119.01703176860001
 31
0.0
  0
LINE
  5
C2
  8
┌▓È_1
  6
STITCH
 10
660.6706822205
 20
-112.26703176860001
 30
0.0
 11
658.92068222049988
 21
-110.51703176860001
 31
0.0
  0
INSERT
  5
C4
  8
┌▓È_1
  6
BORDER
  2
CLUMP12
 10
0.0
 20
0.0
 30
0.0
  0
LINE
  5
D4
  8
┌▓È_1
  6
STITCH
 10
661.67068222049988
 20
-112.26703176860001
 30
0.0
 11
663.42068222049988
 21
-110.51703176860001
 31
0.0
  0
LINE
  5
D5
  8
┌▓È_1
  6
STITCH
 10
660.6706822205
 20
-117.26703176860001
 30
0.0
 11
660.6706822205
 21
-112.26703176860001
 31
0.0
  0
ARC
  5
D6
  8
┌▓È_1
 62
     5
 10
961.46371995350012
 20
-399.8198684706
 30
0.0
 40
6.0800000000000001
 50
270.0
 51
298.08590481520002
  0
INSERT
  5
D7
  8
0
  6
CONTINUOUS
  2
*U43
 10
0.0
 20
0.0
 30
0.0
  0
INSERT
  5
D8
  8
0
  6
CONTINUOUS
  2
*U44
 10
0.0
 20
0.0
 30
0.0
  0
INSERT
  5
D9
  8
0
  6
CONTINUOUS
  2
*U45
 10
0.0
 20
0.0
 30
0.0
  0
INSERT
  5
DA
  8
0
  6
CONTINUOUS
  2
*U46
 10
0.0
 20
0.0
 30
0.0
  0
INSERT
  5
DB
  8
0
  6
CONTINUOUS
  2
*U47
 10
0.0
 20
0.0
 30
0.0
  0
LINE
  5
DC
  8
┌▓È_1
 10
873.29234752449997
 20
-377.3561452176001
 30
0.0
 11
969.29234752449986
 21
-377.3561452176001
 31
0.0
  0
LINE
  5
DD
  8
┌▓È_1
 10
969.29234752449986
 20
-368.8561452176001
 30
0.0
 11
1001.2923475245
 21
-368.8561452176001
 31
0.0
  0
LINE
  5
DE
  8
┌▓È_1
 62
     5
 10
973.94371995350002
 20
-405.89986847059998
 30
0.0
 11
973.94371995350002
 21
-408.2998684705999
 31
0.0
  0
POLYLINE
  8
┌▓È_1
  5
382
  62
5
  66
     1
 10
0.000000
 20
0.000000
 30
0.000000
  70
     8
  0
VERTEX
  8
┌▓È_1
  5
383
 10
965.039
 20
-401.720
 30
0.000000
  70
    32
  0
VERTEX
  8
┌▓È_1
  5
384
 10
965.049
 20
-401.732
 30
0.000000
  70
    32
  0
VERTEX
  8
┌▓È_1
  5
385
 10
965.060
 20
-401.744
 30
0.000000
  70
    32
  0
VERTEX
  8
┌▓È_1
  5
386
 10
965.070
 20
-401.756
 30
0.000000
  70
    32
  0
VERTEX
  8
┌▓È_1
  5
387
 10
965.081
 20
-401.767
 30
0.000000
  70
    32
  0
VERTEX
  8
┌▓È_1
  5
388
 10
965.091
 20
-401.779
 30
0.000000
  70
    32
  0
VERTEX
  8
┌▓È_1
  5
389
 10
965.102
 20
-401.791
 30
0.000000
  70
    32
  0
VERTEX
  8
┌▓È_1
  5
38A
 10
965.113
 20
-401.803
 30
0.000000
  70
    32
  0
VERTEX
  8
┌▓È_1
  5
38B
 10
965.123
 20
-401.815
 30
0.000000
  70
    32
  0
VERTEX
  8
┌▓È_1
  5
38C
 10
965.134
 20
-401.826
 30
0.000000
  70
    32
  0
VERTEX
  8
┌▓È_1
  5
38D
 10
965.144
 20
-401.838
 30
0.000000
  70
    32
  0
VERTEX
  8
┌▓È_1
  5
38E
 10
965.155
 20
-401.850
 30
0.000000
  70
    32
  0
VERTEX
  8
┌▓È_1
  5
38F
 10
965.165
 20
-401.862
 30
0.000000
  70
    32
  0
VERTEX
  8
┌▓È_1
  5
390
 10
965.176
 20
-401.873
 30
0.000000
  70
    32
  0
VERTEX
  8
┌▓È_1
  5
391
 10
965.186
 20
-401.885
 30
0.000000
  70
    32
  0
VERTEX
  8
┌▓È_1
  5
392
 10
965.197
 20
-401.897
 30
0.000000
  70
    32
  0
VERTEX
  8
┌▓È_1
  5
393
 10
965.208
 20
-401.909
 30
0.000000
  70
    32
  0
VERTEX
  8
┌▓È_1
  5
394
 10
965.218
 20
-401.920
 30
0.000000
  70
    32
  0
VERTEX
  8
┌▓È_1
  5
395
 10
965.229
 20
-401.932
 30
0.000000
  70
    32
  0
VERTEX
  8
┌▓È_1
  5
396
 10
965.239
 20
-401.944
 30
0.000000
  70
    32
  0
VERTEX
  8
┌▓È_1
  5
397
 10
965.250
 20
-401.956
 30
0.000000
  70
    32
  0
VERTEX
  8
┌▓È_1
  5
398
 10
965.261
 20
-401.967
 30
0.000000
  70
    32
  0
VERTEX
  8
┌▓È_1
  5
399
 10
965.271
 20
-401.979
 30
0.000000
  70
    32
  0
VERTEX
  8
┌▓È_1
  5
39A
 10
965.282
 20
-401.991
 30
0.000000
  70
    32
  0
VERTEX
  8
┌▓È_1
  5
39B
 10
965.292
 20
-402.002
 30
0.000000
  70
    32
  0
VERTEX
  8
┌▓È_1
  5
39C
 10
965.303
 20
-402.014
 30
0.000000
  70
    32
  0
VERTEX
  8
┌▓È_1
  5
39D
 10
965.313
 20
-402.026
 30
0.000000
  70
    32
  0
VERTEX
  8
┌▓È_1
  5
39E
 10
965.324
 20
-402.038
 30
0.000000
  70
    32
  0
VERTEX
  8
┌▓È_1
  5
39F
 10
965.335
 20
-402.049
 30
0.000000
  70
    32
  0
VERTEX
  8
┌▓È_1
  5
3A0
 10
965.345
 20
-402.061
 30
0.000000
  70
    32
  0
VERTEX
  8
┌▓È_1
  5
3A1
 10
965.356
 20
-402.073
 30
0.000000
  70
    32
  0
VERTEX
  8
┌▓È_1
  5
3A2
 10
965.366
 20
-402.084
 30
0.000000
  70
    32
  0
VERTEX
  8
┌▓È_1
  5
3A3
 10
965.377
 20
-402.096
 30
0.000000
  70
    32
  0
VERTEX
  8
┌▓È_1
  5
3A4
 10
965.388
 20
-402.108
 30
0.000000
  70
    32
  0
VERTEX
  8
┌▓È_1
  5
3A5
 10
965.398
 20
-402.119
 30
0.000000
  70
    32
  0
VERTEX
  8
┌▓È_1
  5
3A6
 10
965.409
 20
-402.131
 30
0.000000
  70
    32
  0
VERTEX
  8
┌▓È_1
  5
3A7
 10
965.420
 20
-402.143
 30
0.000000
  70
    32
  0
VERTEX
  8
┌▓È_1
  5
3A8
 10
965.430
 20
-402.154
 30
0.000000
  70
    32
  0
VERTEX
  8
┌▓È_1
  5
3A9
 10
965.441
 20
-402.166
 30
0.000000
  70
    32
  0
VERTEX
  8
┌▓È_1
  5
3AA
 10
965.452
 20
-402.178
 30
0.000000
  70
    32
  0
VERTEX
  8
┌▓È_1
  5
3AB
 10
965.462
 20
-402.189
 30
0.000000
  70
    32
  0
VERTEX
  8
┌▓È_1
  5
3AC
 10
965.473
 20
-402.201
 30
0.000000
  70
    32
  0
VERTEX
  8
┌▓È_1
  5
3AD
 10
965.483
 20
-402.213
 30
0.000000
  70
    32
  0
VERTEX
  8
┌▓È_1
  5
3AE
 10
965.494
 20
-402.224
 30
0.000000
  70
    32
  0
VERTEX
  8
┌▓È_1
  5
3AF
 10
965.505
 20
-402.236
 30
0.000000
  70
    32
  0
VERTEX
  8
┌▓È_1
  5
3B0
 10
965.515
 20
-402.247
 30
0.000000
  70
    32
  0
VERTEX
  8
┌▓È_1
  5
3B1
 10
965.526
 20
-402.259
 30
0.000000
  70
    32
  0
VERTEX
  8
┌▓È_1
  5
3B2
 10
965.537
 20
-402.271
 30
0.000000
  70
    32
  0
VERTEX
  8
┌▓È_1
  5
3B3
 10
965.547
 20
-402.282
 30
0.000000
  70
    32
  0
VERTEX
  8
┌▓È_1
  5
3B4
 10
965.558
 20
-402.294
 30
0.000000
  70
    32
  0
VERTEX
  8
┌▓È_1
  5
3B5
 10
965.569
 20
-402.305
 30
0.000000
  70
    32
  0
VERTEX
  8
┌▓È_1
  5
3B6
 10
965.580
 20
-402.317
 30
0.000000
  70
    32
  0
VERTEX
  8
┌▓È_1
  5
3B7
 10
965.590
 20
-402.328
 30
0.000000
  70
    32
  0
VERTEX
  8
┌▓È_1
  5
3B8
 10
965.601
 20
-402.340
 30
0.000000
  70
    32
  0
VERTEX
  8
┌▓È_1
  5
3B9
 10
965.612
 20
-402.351
 30
0.000000
  70
    32
  0
VERTEX
  8
┌▓È_1
  5
3BA
 10
965.622
 20
-402.363
 30
0.000000
  70
    32
  0
VERTEX
  8
┌▓È_1
  5
3BB
 10
965.633
 20
-402.375
 30
0.000000
  70
    32
  0
VERTEX
  8
┌▓È_1
  5
3BC
 10
965.644
 20
-402.386
 30
0.000000
  70
    32
  0
VERTEX
  8
┌▓È_1
  5
3BD
 10
965.655
 20
-402.397
 30
0.000000
  70
    32
  0
VERTEX
  8
┌▓È_1
  5
3BE
 10
965.665
 20
-402.409
 30
0.000000
  70
    32
  0
VERTEX
  8
┌▓È_1
  5
3BF
 10
965.676
 20
-402.420
 30
0.000000
  70
    32
  0
VERTEX
  8
┌▓È_1
  5
3C0
 10
965.687
 20
-402.432
 30
0.000000
  70
    32
  0
VERTEX
  8
┌▓È_1
  5
3C1
 10
965.698
 20
-402.443
 30
0.000000
  70
    32
  0
VERTEX
  8
┌▓È_1
  5
3C2
 10
965.708
 20
-402.455
 30
0.000000
  70
    32
  0
VERTEX
  8
┌▓È_1
  5
3C3
 10
965.719
 20
-402.466
 30
0.000000
  70
    32
  0
VERTEX
  8
┌▓È_1
  5
3C4
 10
965.730
 20
-402.478
 30
0.000000
  70
    32
  0
VERTEX
  8
┌▓È_1
  5
3C5
 10
965.741
 20
-402.489
 30
0.000000
  70
    32
  0
VERTEX
  8
┌▓È_1
  5
3C6
 10
965.752
 20
-402.500
 30
0.000000
  70
    32
  0
VERTEX
  8
┌▓È_1
  5
3C7
 10
965.762
 20
-402.512
 30
0.000000
  70
    32
  0
VERTEX
  8
┌▓È_1
  5
3C8
 10
965.773
 20
-402.523
 30
0.000000
  70
    32
  0
VERTEX
  8
┌▓È_1
  5
3C9
 10
965.784
 20
-402.534
 30
0.000000
  70
    32
  0
VERTEX
  8
┌▓È_1
  5
3CA
 10
965.795
 20
-402.546
 30
0.000000
  70
    32
  0
VERTEX
  8
┌▓È_1
  5
3CB
 10
965.806
 20
-402.557
 30
0.000000
  70
    32
  0
VERTEX
  8
┌▓È_1
  5
3CC
 10
965.817
 20
-402.568
 30
0.000000
  70
    32
  0
VERTEX
  8
┌▓È_1
  5
3CD
 10
965.827
 20
-402.580
 30
0.000000
  70
    32
  0
VERTEX
  8
┌▓È_1
  5
3CE
 10
965.838
 20
-402.591
 30
0.000000
  70
    32
  0
VERTEX
  8
┌▓È_1
  5
3CF
 10
965.849
 20
-402.602
 30
0.000000
  70
    32
  0
VERTEX
  8
┌▓È_1
  5
3D0
 10
965.860
 20
-402.614
 30
0.000000
  70
    32
  0
VERTEX
  8
┌▓È_1
  5
3D1
 10
965.871
 20
-402.625
 30
0.000000
  70
    32
  0
VERTEX
  8
┌▓È_1
  5
3D2
 10
965.882
 20
-402.636
 30
0.000000
  70
    32
  0
VERTEX
  8
┌▓È_1
  5
3D3
 10
965.893
 20
-402.647
 30
0.000000
  70
    32
  0
VERTEX
  8
┌▓È_1
  5
3D4
 10
965.904
 20
-402.658
 30
0.000000
  70
    32
  0
VERTEX
  8
┌▓È_1
  5
3D5
 10
965.914
 20
-402.670
 30
0.000000
  70
    32
  0
VERTEX
  8
┌▓È_1
  5
3D6
 10
965.925
 20
-402.681
 30
0.000000
  70
    32
  0
VERTEX
  8
┌▓È_1
  5
3D7
 10
965.936
 20
-402.692
 30
0.000000
  70
    32
  0
VERTEX
  8
┌▓È_1
  5
3D8
 10
965.947
 20
-402.703
 30
0.000000
  70
    32
  0
VERTEX
  8
┌▓È_1
  5
3D9
 10
965.958
 20
-402.714
 30
0.000000
  70
    32
  0
VERTEX
  8
┌▓È_1
  5
3DA
 10
965.969
 20
-402.725
 30
0.000000
  70
    32
  0
VERTEX
  8
┌▓È_1
  5
3DB
 10
965.980
 20
-402.736
 30
0.000000
  70
    32
  0
VERTEX
  8
┌▓È_1
  5
3DC
 10
965.991
 20
-402.748
 30
0.000000
  70
    32
  0
VERTEX
  8
┌▓È_1
  5
3DD
 10
966.002
 20
-402.759
 30
0.000000
  70
    32
  0
VERTEX
  8
┌▓È_1
  5
3DE
 10
966.013
 20
-402.770
 30
0.000000
  70
    32
  0
VERTEX
  8
┌▓È_1
  5
3DF
 10
966.024
 20
-402.781
 30
0.000000
  70
    32
  0
VERTEX
  8
┌▓È_1
  5
3E0
 10
966.035
 20
-402.792
 30
0.000000
  70
    32
  0
VERTEX
  8
┌▓È_1
  5
3E1
 10
966.046
 20
-402.803
 30
0.000000
  70
    32
  0
VERTEX
  8
┌▓È_1
  5
3E2
 10
966.057
 20
-402.814
 30
0.000000
  70
    32
  0
VERTEX
  8
┌▓È_1
  5
3E3
 10
966.068
 20
-402.825
 30
0.000000
  70
    32
  0
VERTEX
  8
┌▓È_1
  5
3E4
 10
966.079
 20
-402.836
 30
0.000000
  70
    32
  0
VERTEX
  8
┌▓È_1
  5
3E5
 10
966.091
 20
-402.847
 30
0.000000
  70
    32
  0
VERTEX
  8
┌▓È_1
  5
3E6
 10
966.102
 20
-402.857
 30
0.000000
  70
    32
  0
VERTEX
  8
┌▓È_1
  5
3E7
 10
966.113
 20
-402.868
 30
0.000000
  70
    32
  0
VERTEX
  8
┌▓È_1
  5
3E8
 10
966.124
 20
-402.879
 30
0.000000
  70
    32
  0
VERTEX
  8
┌▓È_1
  5
3E9
 10
966.135
 20
-402.890
 30
0.000000
  70
    32
  0
VERTEX
  8
┌▓È_1
  5
3EA
 10
966.146
 20
-402.901
 30
0.000000
  70
    32
  0
VERTEX
  8
┌▓È_1
  5
3EB
 10
966.157
 20
-402.912
 30
0.000000
  70
    32
  0
VERTEX
  8
┌▓È_1
  5
3EC
 10
966.168
 20
-402.923
 30
0.000000
  70
    32
  0
VERTEX
  8
┌▓È_1
  5
3ED
 10
966.180
 20
-402.933
 30
0.000000
  70
    32
  0
VERTEX
  8
┌▓È_1
  5
3EE
 10
966.191
 20
-402.944
 30
0.000000
  70
    32
  0
VERTEX
  8
┌▓È_1
  5
3EF
 10
966.202
 20
-402.955
 30
0.000000
  70
    32
  0
VERTEX
  8
┌▓È_1
  5
3F0
 10
966.213
 20
-402.966
 30
0.000000
  70
    32
  0
VERTEX
  8
┌▓È_1
  5
3F1
 10
966.224
 20
-402.976
 30
0.000000
  70
    32
  0
VERTEX
  8
┌▓È_1
  5
3F2
 10
966.236
 20
-402.987
 30
0.000000
  70
    32
  0
VERTEX
  8
┌▓È_1
  5
3F3
 10
966.247
 20
-402.998
 30
0.000000
  70
    32
  0
VERTEX
  8
┌▓È_1
  5
3F4
 10
966.258
 20
-403.008
 30
0.000000
  70
    32
  0
VERTEX
  8
┌▓È_1
  5
3F5
 10
966.269
 20
-403.019
 30
0.000000
  70
    32
  0
VERTEX
  8
┌▓È_1
  5
3F6
 10
966.281
 20
-403.030
 30
0.000000
  70
    32
  0
VERTEX
  8
┌▓È_1
  5
3F7
 10
966.292
 20
-403.040
 30
0.000000
  70
    32
  0
VERTEX
  8
┌▓È_1
  5
3F8
 10
966.303
 20
-403.051
 30
0.000000
  70
    32
  0
VERTEX
  8
┌▓È_1
  5
3F9
 10
966.314
 20
-403.061
 30
0.000000
  70
    32
  0
VERTEX
  8
┌▓È_1
  5
3FA
 10
966.326
 20
-403.072
 30
0.000000
  70
    32
  0
VERTEX
  8
┌▓È_1
  5
3FB
 10
966.337
 20
-403.083
 30
0.000000
  70
    32
  0
VERTEX
  8
┌▓È_1
  5
3FC
 10
966.348
 20
-403.093
 30
0.000000
  70
    32
  0
VERTEX
  8
┌▓È_1
  5
3FD
 10
966.360
 20
-403.104
 30
0.000000
  70
    32
  0
VERTEX
  8
┌▓È_1
  5
3FE
 10
966.371
 20
-403.114
 30
0.000000
  70
    32
  0
VERTEX
  8
┌▓È_1
  5
3FF
 10
966.383
 20
-403.124
 30
0.000000
  70
    32
  0
VERTEX
  8
┌▓È_1
  5
400
 10
966.394
 20
-403.135
 30
0.000000
  70
    32
  0
VERTEX
  8
┌▓È_1
  5
401
 10
966.405
 20
-403.145
 30
0.000000
  70
    32
  0
VERTEX
  8
┌▓È_1
  5
402
 10
966.417
 20
-403.156
 30
0.000000
  70
    32
  0
SEQEND
  8
┌▓È_1
  5
403
  0
POLYLINE
  8
┌▓È_1
  5
404
  62
5
  66
     1
 10
0.000000
 20
0.000000
 30
0.000000
  70
     8
  0
VERTEX
  8
┌▓È_1
  5
405
 10
968.278
 20
-406.918
 30
0.000000
  70
    32
  0
VERTEX
  8
┌▓È_1
  5
406
 10
968.321
 20
-406.932
 30
0.000000
  70
    32
  0
VERTEX
  8
┌▓È_1
  5
407
 10
968.364
 20
-406.945
 30
0.000000
  70
    32
  0
VERTEX
  8
┌▓È_1
  5
408
 10
968.407
 20
-406.959
 30
0.000000
  70
    32
  0
VERTEX
  8
┌▓È_1
  5
409
 10
968.450
 20
-406.973
 30
0.000000
  70
    32
  0
VERTEX
  8
┌▓È_1
  5
40A
 10
968.493
 20
-406.986
 30
0.000000
  70
    32
  0
VERTEX
  8
┌▓È_1
  5
40B
 10
968.537
 20
-406.999
 30
0.000000
  70
    32
  0
VERTEX
  8
┌▓È_1
  5
40C
 10
968.580
 20
-407.013
 30
0.000000
  70
    32
  0
VERTEX
  8
┌▓È_1
  5
40D
 10
968.623
 20
-407.026
 30
0.000000
  70
    32
  0
VERTEX
  8
┌▓È_1
  5
40E
 10
968.667
 20
-407.039
 30
0.000000
  70
    32
  0
VERTEX
  8
┌▓È_1
  5
40F
 10
968.710
 20
-407.052
 30
0.000000
  70
    32
  0
VERTEX
  8
┌▓È_1
  5
410
 10
968.754
 20
-407.065
 30
0.000000
  70
    32
  0
VERTEX
  8
┌▓È_1
  5
411
 10
968.797
 20
-407.078
 30
0.000000
  70
    32
  0
VERTEX
  8
┌▓È_1
  5
412
 10
968.840
 20
-407.091
 30
0.000000
  70
    32
  0
VERTEX
  8
┌▓È_1
  5
413
 10
968.884
 20
-407.104
 30
0.000000
  70
    32
  0
VERTEX
  8
┌▓È_1
  5
414
 10
968.928
 20
-407.117
 30
0.000000
  70
    32
  0
VERTEX
  8
┌▓È_1
  5
415
 10
968.971
 20
-407.130
 30
0.000000
  70
    32
  0
VERTEX
  8
┌▓È_1
  5
416
 10
969.015
 20
-407.143
 30
0.000000
  70
    32
  0
VERTEX
  8
┌▓È_1
  5
417
 10
969.058
 20
-407.155
 30
0.000000
  70
    32
  0
VERTEX
  8
┌▓È_1
  5
418
 10
969.102
 20
-407.168
 30
0.000000
  70
    32
  0
VERTEX
  8
┌▓È_1
  5
419
 10
969.146
 20
-407.180
 30
0.000000
  70
    32
  0
VERTEX
  8
┌▓È_1
  5
41A
 10
969.190
 20
-407.193
 30
0.000000
  70
    32
  0
VERTEX
  8
┌▓È_1
  5
41B
 10
969.233
 20
-407.205
 30
0.000000
  70
    32
  0
VERTEX
  8
┌▓È_1
  5
41C
 10
969.277
 20
-407.218
 30
0.000000
  70
    32
  0
VERTEX
  8
┌▓È_1
  5
41D
 10
969.321
 20
-407.230
 30
0.000000
  70
    32
  0
VERTEX
  8
┌▓È_1
  5
41E
 10
969.365
 20
-407.242
 30
0.000000
  70
    32
  0
VERTEX
  8
┌▓È_1
  5
41F
 10
969.409
 20
-407.254
 30
0.000000
  70
    32
  0
VERTEX
  8
┌▓È_1
  5
420
 10
969.453
 20
-407.267
 30
0.000000
  70
    32
  0
VERTEX
  8
┌▓È_1
  5
421
 10
969.497
 20
-407.279
 30
0.000000
  70
    32
  0
VERTEX
  8
┌▓È_1
  5
422
 10
969.541
 20
-407.291
 30
0.000000
  70
    32
  0
VERTEX
  8
┌▓È_1
  5
423
 10
969.585
 20
-407.303
 30
0.000000
  70
    32
  0
VERTEX
  8
┌▓È_1
  5
424
 10
969.629
 20
-407.315
 30
0.000000
  70
    32
  0
VERTEX
  8
┌▓È_1
  5
425
 10
969.673
 20
-407.327
 30
0.000000
  70
    32
  0
VERTEX
  8
┌▓È_1
  5
426
 10
969.717
 20
-407.338
 30
0.000000
  70
    32
  0
VERTEX
  8
┌▓È_1
  5
427
 10
969.761
 20
-407.350
 30
0.000000
  70
    32
  0
VERTEX
  8
┌▓È_1
  5
428
 10
969.805
 20
-407.362
 30
0.000000
  70
    32
  0
VERTEX
  8
┌▓È_1
  5
429
 10
969.849
 20
-407.374
 30
0.000000
  70
    32
  0
VERTEX
  8
┌▓È_1
  5
42A
 10
969.894
 20
-407.385
 30
0.000000
  70
    32
  0
VERTEX
  8
┌▓È_1
  5
42B
 10
969.938
 20
-407.397
 30
0.000000
  70
    32
  0
VERTEX
  8
┌▓È_1
  5
42C
 10
969.982
 20
-407.408
 30
0.000000
  70
    32
  0
VERTEX
  8
┌▓È_1
  5
42D
 10
970.026
 20
-407.420
 30
0.000000
  70
    32
  0
VERTEX
  8
┌▓È_1
  5
42E
 10
970.071
 20
-407.431
 30
0.000000
  70
    32
  0
VERTEX
  8
┌▓È_1
  5
42F
 10
970.115
 20
-407.443
 30
0.000000
  70
    32
  0
VERTEX
  8
┌▓È_1
  5
430
 10
970.159
 20
-407.454
 30
0.000000
  70
    32
  0
VERTEX
  8
┌▓È_1
  5
431
 10
970.204
 20
-407.465
 30
0.000000
  70
    32
  0
VERTEX
  8
┌▓È_1
  5
432
 10
970.248
 20
-407.477
 30
0.000000
  70
    32
  0
VERTEX
  8
┌▓È_1
  5
433
 10
970.292
 20
-407.488
 30
0.000000
  70
    32
  0
VERTEX
  8
┌▓È_1
  5
434
 10
970.337
 20
-407.499
 30
0.000000
  70
    32
  0
VERTEX
  8
┌▓È_1
  5
435
 10
970.381
 20
-407.510
 30
0.000000
  70
    32
  0
VERTEX
  8
┌▓È_1
  5
436
 10
970.426
 20
-407.521
 30
0.000000
  70
    32
  0
VERTEX
  8
┌▓È_1
  5
437
 10
970.470
 20
-407.532
 30
0.000000
  70
    32
  0
VERTEX
  8
┌▓È_1
  5
438
 10
970.515
 20
-407.543
 30
0.000000
  70
    32
  0
VERTEX
  8
┌▓È_1
  5
439
 10
970.560
 20
-407.554
 30
0.000000
  70
    32
  0
VERTEX
  8
┌▓È_1
  5
43A
 10
970.604
 20
-407.565
 30
0.000000
  70
    32
  0
VERTEX
  8
┌▓È_1
  5
43B
 10
970.649
 20
-407.576
 30
0.000000
  70
    32
  0
VERTEX
  8
┌▓È_1
  5
43C
 10
970.693
 20
-407.587
 30
0.000000
  70
    32
  0
VERTEX
  8
┌▓È_1
  5
43D
 10
970.738
 20
-407.598
 30
0.000000
  70
    32
  0
VERTEX
  8
┌▓È_1
  5
43E
 10
970.783
 20
-407.609
 30
0.000000
  70
    32
  0
VERTEX
  8
┌▓È_1
  5
43F
 10
970.827
 20
-407.619
 30
0.000000
  70
    32
  0
VERTEX
  8
┌▓È_1
  5
440
 10
970.872
 20
-407.630
 30
0.000000
  70
    32
  0
VERTEX
  8
┌▓È_1
  5
441
 10
970.917
 20
-407.641
 30
0.000000
  70
    32
  0
VERTEX
  8
┌▓È_1
  5
442
 10
970.962
 20
-407.651
 30
0.000000
  70
    32
  0
VERTEX
  8
┌▓È_1
  5
443
 10
971.006
 20
-407.662
 30
0.000000
  70
    32
  0
VERTEX
  8
┌▓È_1
  5
444
 10
971.051
 20
-407.672
 30
0.000000
  70
    32
  0
VERTEX
  8
┌▓È_1
  5
445
 10
971.096
 20
-407.683
 30
0.000000
  70
    32
  0
VERTEX
  8
┌▓È_1
  5
446
 10
971.141
 20
-407.693
 30
0.000000
  70
    32
  0
VERTEX
  8
┌▓È_1
  5
447
 10
971.186
 20
-407.704
 30
0.000000
  70
    32
  0
VERTEX
  8
┌▓È_1
  5
448
 10
971.231
 20
-407.714
 30
0.000000
  70
    32
  0
VERTEX
  8
┌▓È_1
  5
449
 10
971.275
 20
-407.725
 30
0.000000
  70
    32
  0
VERTEX
  8
┌▓È_1
  5
44A
 10
971.320
 20
-407.735
 30
0.000000
  70
    32
  0
VERTEX
  8
┌▓È_1
  5
44B
 10
971.365
 20
-407.745
 30
0.000000
  70
    32
  0
VERTEX
  8
┌▓È_1
  5
44C
 10
971.410
 20
-407.756
 30
0.000000
  70
    32
  0
VERTEX
  8
┌▓È_1
  5
44D
 10
971.455
 20
-407.766
 30
0.000000
  70
    32
  0
VERTEX
  8
┌▓È_1
  5
44E
 10
971.500
 20
-407.776
 30
0.000000
  70
    32
  0
VERTEX
  8
┌▓È_1
  5
44F
 10
971.545
 20
-407.786
 30
0.000000
  70
    32
  0
VERTEX
  8
┌▓È_1
  5
450
 10
971.590
 20
-407.797
 30
0.000000
  70
    32
  0
VERTEX
  8
┌▓È_1
  5
451
 10
971.635
 20
-407.807
 30
0.000000
  70
    32
  0
VERTEX
  8
┌▓È_1
  5
452
 10
971.680
 20
-407.817
 30
0.000000
  70
    32
  0
VERTEX
  8
┌▓È_1
  5
453
 10
971.725
 20
-407.827
 30
0.000000
  70
    32
  0
VERTEX
  8
┌▓È_1
  5
454
 10
971.770
 20
-407.837
 30
0.000000
  70
    32
  0
VERTEX
  8
┌▓È_1
  5
455
 10
971.815
 20
-407.847
 30
0.000000
  70
    32
  0
VERTEX
  8
┌▓È_1
  5
456
 10
971.860
 20
-407.857
 30
0.000000
  70
    32
  0
VERTEX
  8
┌▓È_1
  5
457
 10
971.905
 20
-407.867
 30
0.000000
  70
    32
  0
VERTEX
  8
┌▓È_1
  5
458
 10
971.950
 20
-407.877
 30
0.000000
  70
    32
  0
VERTEX
  8
┌▓È_1
  5
459
 10
971.996
 20
-407.887
 30
0.000000
  70
    32
  0
VERTEX
  8
┌▓È_1
  5
45A
 10
972.041
 20
-407.897
 30
0.000000
  70
    32
  0
VERTEX
  8
┌▓È_1
  5
45B
 10
972.086
 20
-407.907
 30
0.000000
  70
    32
  0
VERTEX
  8
┌▓È_1
  5
45C
 10
972.131
 20
-407.917
 30
0.000000
  70
    32
  0
VERTEX
  8
┌▓È_1
  5
45D
 10
972.176
 20
-407.927
 30
0.000000
  70
    32
  0
VERTEX
  8
┌▓È_1
  5
45E
 10
972.221
 20
-407.936
 30
0.000000
  70
    32
  0
VERTEX
  8
┌▓È_1
  5
45F
 10
972.267
 20
-407.946
 30
0.000000
  70
    32
  0
VERTEX
  8
┌▓È_1
  5
460
 10
972.312
 20
-407.956
 30
0.000000
  70
    32
  0
VERTEX
  8
┌▓È_1
  5
461
 10
972.357
 20
-407.966
 30
0.000000
  70
    32
  0
VERTEX
  8
┌▓È_1
  5
462
 10
972.402
 20
-407.975
 30
0.000000
  70
    32
  0
VERTEX
  8
┌▓È_1
  5
463
 10
972.447
 20
-407.985
 30
0.000000
  70
    32
  0
VERTEX
  8
┌▓È_1
  5
464
 10
972.493
 20
-407.995
 30
0.000000
  70
    32
  0
VERTEX
  8
┌▓È_1
  5
465
 10
972.538
 20
-408.005
 30
0.000000
  70
    32
  0
VERTEX
  8
┌▓È_1
  5
466
 10
972.583
 20
-408.014
 30
0.000000
  70
    32
  0
VERTEX
  8
┌▓È_1
  5
467
 10
972.628
 20
-408.024
 30
0.000000
  70
    32
  0
VERTEX
  8
┌▓È_1
  5
468
 10
972.674
 20
-408.034
 30
0.000000
  70
    32
  0
VERTEX
  8
┌▓È_1
  5
469
 10
972.719
 20
-408.043
 30
0.000000
  70
    32
  0
VERTEX
  8
┌▓È_1
  5
46A
 10
972.764
 20
-408.053
 30
0.000000
  70
    32
  0
VERTEX
  8
┌▓È_1
  5
46B
 10
972.810
 20
-408.063
 30
0.000000
  70
    32
  0
VERTEX
  8
┌▓È_1
  5
46C
 10
972.855
 20
-408.072
 30
0.000000
  70
    32
  0
VERTEX
  8
┌▓È_1
  5
46D
 10
972.900
 20
-408.082
 30
0.000000
  70
    32
  0
VERTEX
  8
┌▓È_1
  5
46E
 10
972.946
 20
-408.091
 30
0.000000
  70
    32
  0
VERTEX
  8
┌▓È_1
  5
46F
 10
972.991
 20
-408.101
 30
0.000000
  70
    32
  0
VERTEX
  8
┌▓È_1
  5
470
 10
973.036
 20
-408.110
 30
0.000000
  70
    32
  0
VERTEX
  8
┌▓È_1
  5
471
 10
973.082
 20
-408.120
 30
0.000000
  70
    32
  0
VERTEX
  8
┌▓È_1
  5
472
 10
973.127
 20
-408.129
 30
0.000000
  70
    32
  0
VERTEX
  8
┌▓È_1
  5
473
 10
973.172
 20
-408.139
 30
0.000000
  70
    32
  0
VERTEX
  8
┌▓È_1
  5
474
 10
973.218
 20
-408.149
 30
0.000000
  70
    32
  0
VERTEX
  8
┌▓È_1
  5
475
 10
973.263
 20
-408.158
 30
0.000000
  70
    32
  0
VERTEX
  8
┌▓È_1
  5
476
 10
973.308
 20
-408.168
 30
0.000000
  70
    32
  0
VERTEX
  8
┌▓È_1
  5
477
 10
973.354
 20
-408.177
 30
0.000000
  70
    32
  0
VERTEX
  8
┌▓È_1
  5
478
 10
973.399
 20
-408.186
 30
0.000000
  70
    32
  0
VERTEX
  8
┌▓È_1
  5
479
 10
973.444
 20
-408.196
 30
0.000000
  70
    32
  0
VERTEX
  8
┌▓È_1
  5
47A
 10
973.490
 20
-408.205
 30
0.000000
  70
    32
  0
VERTEX
  8
┌▓È_1
  5
47B
 10
973.535
 20
-408.215
 30
0.000000
  70
    32
  0
VERTEX
  8
┌▓È_1
  5
47C
 10
973.581
 20
-408.224
 30
0.000000
  70
    32
  0
VERTEX
  8
┌▓È_1
  5
47D
 10
973.626
 20
-408.234
 30
0.000000
  70
    32
  0
VERTEX
  8
┌▓È_1
  5
47E
 10
973.671
 20
-408.243
 30
0.000000
  70
    32
  0
VERTEX
  8
┌▓È_1
  5
47F
 10
973.717
 20
-408.253
 30
0.000000
  70
    32
  0
VERTEX
  8
┌▓È_1
  5
480
 10
973.762
 20
-408.262
 30
0.000000
  70
    32
  0
VERTEX
  8
┌▓È_1
  5
481
 10
973.808
 20
-408.272
 30
0.000000
  70
    32
  0
VERTEX
  8
┌▓È_1
  5
482
 10
973.853
 20
-408.281
 30
0.000000
  70
    32
  0
VERTEX
  8
┌▓È_1
  5
483
 10
973.898
 20
-408.290
 30
0.000000
  70
    32
  0
VERTEX
  8
┌▓È_1
  5
484
 10
973.944
 20
-408.300
 30
0.000000
  70
    32
  0
SEQEND
  8
┌▓È_1
  5
485
  0
POLYLINE
  8
┌▓È_1
  5
486
  62
5
  66
     1
 10
0.000000
 20
0.000000
 30
0.000000
  70
     8
  0
VERTEX
  8
┌▓È_1
  5
487
 10
959.544
 20
-401.331
 30
0.000000
  70
    32
  0
VERTEX
  8
┌▓È_1
  5
488
 10
959.573
 20
-401.357
 30
0.000000
  70
    32
  0
VERTEX
  8
┌▓È_1
  5
489
 10
959.601
 20
-401.384
 30
0.000000
  70
    32
  0
VERTEX
  8
┌▓È_1
  5
48A
 10
959.630
 20
-401.410
 30
0.000000
  70
    32
  0
VERTEX
  8
┌▓È_1
  5
48B
 10
959.659
 20
-401.437
 30
0.000000
  70
    32
  0
VERTEX
  8
┌▓È_1
  5
48C
 10
959.688
 20
-401.463
 30
0.000000
  70
    32
  0
VERTEX
  8
┌▓È_1
  5
48D
 10
959.717
 20
-401.490
 30
0.000000
  70
    32
  0
VERTEX
  8
┌▓È_1
  5
48E
 10
959.745
 20
-401.517
 30
0.000000
  70
    32
  0
VERTEX
  8
┌▓È_1
  5
48F
 10
959.774
 20
-401.543
 30
0.000000
  70
    32
  0
VERTEX
  8
┌▓È_1
  5
490
 10
959.803
 20
-401.570
 30
0.000000
  70
    32
  0
VERTEX
  8
┌▓È_1
  5
491
 10
959.832
 20
-401.596
 30
0.000000
  70
    32
  0
VERTEX
  8
┌▓È_1
  5
492
 10
959.861
 20
-401.623
 30
0.000000
  70
    32
  0
VERTEX
  8
┌▓È_1
  5
493
 10
959.890
 20
-401.649
 30
0.000000
  70
    32
  0
VERTEX
  8
┌▓È_1
  5
494
 10
959.918
 20
-401.676
 30
0.000000
  70
    32
  0
VERTEX
  8
┌▓È_1
  5
495
 10
959.947
 20
-401.702
 30
0.000000
  70
    32
  0
VERTEX
  8
┌▓È_1
  5
496
 10
959.976
 20
-401.729
 30
0.000000
  70
    32
  0
VERTEX
  8
┌▓È_1
  5
497
 10
960.005
 20
-401.755
 30
0.000000
  70
    32
  0
VERTEX
  8
┌▓È_1
  5
498
 10
960.034
 20
-401.782
 30
0.000000
  70
    32
  0
VERTEX
  8
┌▓È_1
  5
499
 10
960.063
 20
-401.808
 30
0.000000
  70
    32
  0
VERTEX
  8
┌▓È_1
  5
49A
 10
960.092
 20
-401.835
 30
0.000000
  70
    32
  0
VERTEX
  8
┌▓È_1
  5
49B
 10
960.120
 20
-401.861
 30
0.000000
  70
    32
  0
VERTEX
  8
┌▓È_1
  5
49C
 10
960.149
 20
-401.888
 30
0.000000
  70
    32
  0
VERTEX
  8
┌▓È_1
  5
49D
 10
960.178
 20
-401.914
 30
0.000000
  70
    32
  0
VERTEX
  8
┌▓È_1
  5
49E
 10
960.207
 20
-401.940
 30
0.000000
  70
    32
  0
VERTEX
  8
┌▓È_1
  5
49F
 10
960.236
 20
-401.967
 30
0.000000
  70
    32
  0
VERTEX
  8
┌▓È_1
  5
4A0
 10
960.265
 20
-401.993
 30
0.000000
  70
    32
  0
VERTEX
  8
┌▓È_1
  5
4A1
 10
960.294
 20
-402.020
 30
0.000000
  70
    32
  0
VERTEX
  8
┌▓È_1
  5
4A2
 10
960.323
 20
-402.046
 30
0.000000
  70
    32
  0
VERTEX
  8
┌▓È_1
  5
4A3
 10
960.352
 20
-402.072
 30
0.000000
  70
    32
  0
VERTEX
  8
┌▓È_1
  5
4A4
 10
960.381
 20
-402.099
 30
0.000000
  70
    32
  0
VERTEX
  8
┌▓È_1
  5
4A5
 10
960.410
 20
-402.125
 30
0.000000
  70
    32
  0
VERTEX
  8
┌▓È_1
  5
4A6
 10
960.439
 20
-402.151
 30
0.000000
  70
    32
  0
VERTEX
  8
┌▓È_1
  5
4A7
 10
960.468
 20
-402.178
 30
0.000000
  70
    32
  0
VERTEX
  8
┌▓È_1
  5
4A8
 10
960.497
 20
-402.204
 30
0.000000
  70
    32
  0
VERTEX
  8
┌▓È_1
  5
4A9
 10
960.525
 20
-402.230
 30
0.000000
  70
    32
  0
VERTEX
  8
┌▓È_1
  5
4AA
 10
960.554
 20
-402.256
 30
0.000000
  70
    32
  0
VERTEX
  8
┌▓È_1
  5
4AB
 10
960.584
 20
-402.283
 30
0.000000
  70
    32
  0
VERTEX
  8
┌▓È_1
  5
4AC
 10
960.613
 20
-402.309
 30
0.000000
  70
    32
  0
VERTEX
  8
┌▓È_1
  5
4AD
 10
960.642
 20
-402.335
 30
0.000000
  70
    32
  0
VERTEX
  8
┌▓È_1
  5
4AE
 10
960.671
 20
-402.361
 30
0.000000
  70
    32
  0
VERTEX
  8
┌▓È_1
  5
4AF
 10
960.700
 20
-402.387
 30
0.000000
  70
    32
  0
VERTEX
  8
┌▓È_1
  5
4B0
 10
960.729
 20
-402.413
 30
0.000000
  70
    32
  0
VERTEX
  8
┌▓È_1
  5
4B1
 10
960.758
 20
-402.439
 30
0.000000
  70
    32
  0
VERTEX
  8
┌▓È_1
  5
4B2
 10
960.787
 20
-402.466
 30
0.000000
  70
    32
  0
VERTEX
  8
┌▓È_1
  5
4B3
 10
960.816
 20
-402.492
 30
0.000000
  70
    32
  0
VERTEX
  8
┌▓È_1
  5
4B4
 10
960.845
 20
-402.518
 30
0.000000
  70
    32
  0
VERTEX
  8
┌▓È_1
  5
4B5
 10
960.874
 20
-402.544
 30
0.000000
  70
    32
  0
VERTEX
  8
┌▓È_1
  5
4B6
 10
960.903
 20
-402.570
 30
0.000000
  70
    32
  0
VERTEX
  8
┌▓È_1
  5
4B7
 10
960.933
 20
-402.596
 30
0.000000
  70
    32
  0
VERTEX
  8
┌▓È_1
  5
4B8
 10
960.962
 20
-402.621
 30
0.000000
  70
    32
  0
VERTEX
  8
┌▓È_1
  5
4B9
 10
960.991
 20
-402.647
 30
0.000000
  70
    32
  0
VERTEX
  8
┌▓È_1
  5
4BA
 10
961.020
 20
-402.673
 30
0.000000
  70
    32
  0
VERTEX
  8
┌▓È_1
  5
4BB
 10
961.049
 20
-402.699
 30
0.000000
  70
    32
  0
VERTEX
  8
┌▓È_1
  5
4BC
 10
961.079
 20
-402.725
 30
0.000000
  70
    32
  0
VERTEX
  8
┌▓È_1
  5
4BD
 10
961.108
 20
-402.751
 30
0.000000
  70
    32
  0
VERTEX
  8
┌▓È_1
  5
4BE
 10
961.137
 20
-402.776
 30
0.000000
  70
    32
  0
VERTEX
  8
┌▓È_1
  5
4BF
 10
961.166
 20
-402.802
 30
0.000000
  70
    32
  0
VERTEX
  8
┌▓È_1
  5
4C0
 10
961.196
 20
-402.828
 30
0.000000
  70
    32
  0
VERTEX
  8
┌▓È_1
  5
4C1
 10
961.225
 20
-402.853
 30
0.000000
  70
    32
  0
VERTEX
  8
┌▓È_1
  5
4C2
 10
961.254
 20
-402.879
 30
0.000000
  70
    32
  0
VERTEX
  8
┌▓È_1
  5
4C3
 10
961.284
 20
-402.905
 30
0.000000
  70
    32
  0
VERTEX
  8
┌▓È_1
  5
4C4
 10
961.313
 20
-402.930
 30
0.000000
  70
    32
  0
VERTEX
  8
┌▓È_1
  5
4C5
 10
961.342
 20
-402.956
 30
0.000000
  70
    32
  0
VERTEX
  8
┌▓È_1
  5
4C6
 10
961.372
 20
-402.981
 30
0.000000
  70
    32
  0
VERTEX
  8
┌▓È_1
  5
4C7
 10
961.401
 20
-403.007
 30
0.000000
  70
    32
  0
VERTEX
  8
┌▓È_1
  5
4C8
 10
961.431
 20
-403.032
 30
0.000000
  70
    32
  0
VERTEX
  8
┌▓È_1
  5
4C9
 10
961.460
 20
-403.057
 30
0.000000
  70
    32
  0
VERTEX
  8
┌▓È_1
  5
4CA
 10
961.490
 20
-403.083
 30
0.000000
  70
    32
  0
VERTEX
  8
┌▓È_1
  5
4CB
 10
961.519
 20
-403.108
 30
0.000000
  70
    32
  0
VERTEX
  8
┌▓È_1
  5
4CC
 10
961.549
 20
-403.133
 30
0.000000
  70
    32
  0
VERTEX
  8
┌▓È_1
  5
4CD
 10
961.578
 20
-403.159
 30
0.000000
  70
    32
  0
VERTEX
  8
┌▓È_1
  5
4CE
 10
961.608
 20
-403.184
 30
0.000000
  70
    32
  0
VERTEX
  8
┌▓È_1
  5
4CF
 10
961.637
 20
-403.209
 30
0.000000
  70
    32
  0
VERTEX
  8
┌▓È_1
  5
4D0
 10
961.667
 20
-403.234
 30
0.000000
  70
    32
  0
VERTEX
  8
┌▓È_1
  5
4D1
 10
961.696
 20
-403.259
 30
0.000000
  70
    32
  0
VERTEX
  8
┌▓È_1
  5
4D2
 10
961.726
 20
-403.284
 30
0.000000
  70
    32
  0
VERTEX
  8
┌▓È_1
  5
4D3
 10
961.756
 20
-403.309
 30
0.000000
  70
    32
  0
VERTEX
  8
┌▓È_1
  5
4D4
 10
961.785
 20
-403.334
 30
0.000000
  70
    32
  0
VERTEX
  8
┌▓È_1
  5
4D5
 10
961.815
 20
-403.359
 30
0.000000
  70
    32
  0
VERTEX
  8
┌▓È_1
  5
4D6
 10
961.845
 20
-403.384
 30
0.000000
  70
    32
  0
VERTEX
  8
┌▓È_1
  5
4D7
 10
961.875
 20
-403.409
 30
0.000000
  70
    32
  0
VERTEX
  8
┌▓È_1
  5
4D8
 10
961.904
 20
-403.433
 30
0.000000
  70
    32
  0
VERTEX
  8
┌▓È_1
  5
4D9
 10
961.934
 20
-403.458
 30
0.000000
  70
    32
  0
VERTEX
  8
┌▓È_1
  5
4DA
 10
961.964
 20
-403.483
 30
0.000000
  70
    32
  0
VERTEX
  8
┌▓È_1
  5
4DB
 10
961.994
 20
-403.507
 30
0.000000
  70
    32
  0
VERTEX
  8
┌▓È_1
  5
4DC
 10
962.024
 20
-403.532
 30
0.000000
  70
    32
  0
VERTEX
  8
┌▓È_1
  5
4DD
 10
962.054
 20
-403.557
 30
0.000000
  70
    32
  0
VERTEX
  8
┌▓È_1
  5
4DE
 10
962.084
 20
-403.581
 30
0.000000
  70
    32
  0
VERTEX
  8
┌▓È_1
  5
4DF
 10
962.114
 20
-403.605
 30
0.000000
  70
    32
  0
VERTEX
  8
┌▓È_1
  5
4E0
 10
962.144
 20
-403.630
 30
0.000000
  70
    32
  0
VERTEX
  8
┌▓È_1
  5
4E1
 10
962.174
 20
-403.654
 30
0.000000
  70
    32
  0
VERTEX
  8
┌▓È_1
  5
4E2
 10
962.204
 20
-403.679
 30
0.000000
  70
    32
  0
VERTEX
  8
┌▓È_1
  5
4E3
 10
962.234
 20
-403.703
 30
0.000000
  70
    32
  0
VERTEX
  8
┌▓È_1
  5
4E4
 10
962.264
 20
-403.727
 30
0.000000
  70
    32
  0
VERTEX
  8
┌▓È_1
  5
4E5
 10
962.294
 20
-403.751
 30
0.000000
  70
    32
  0
VERTEX
  8
┌▓È_1
  5
4E6
 10
962.324
 20
-403.775
 30
0.000000
  70
    32
  0
VERTEX
  8
┌▓È_1
  5
4E7
 10
962.354
 20
-403.799
 30
0.000000
  70
    32
  0
VERTEX
  8
┌▓È_1
  5
4E8
 10
962.385
 20
-403.823
 30
0.000000
  70
    32
  0
VERTEX
  8
┌▓È_1
  5
4E9
 10
962.415
 20
-403.847
 30
0.000000
  70
    32
  0
VERTEX
  8
┌▓È_1
  5
4EA
 10
962.445
 20
-403.871
 30
0.000000
  70
    32
  0
VERTEX
  8
┌▓È_1
  5
4EB
 10
962.475
 20
-403.895
 30
0.000000
  70
    32
  0
VERTEX
  8
┌▓È_1
  5
4EC
 10
962.506
 20
-403.919
 30
0.000000
  70
    32
  0
VERTEX
  8
┌▓È_1
  5
4ED
 10
962.536
 20
-403.942
 30
0.000000
  70
    32
  0
VERTEX
  8
┌▓È_1
  5
4EE
 10
962.566
 20
-403.966
 30
0.000000
  70
    32
  0
VERTEX
  8
┌▓È_1
  5
4EF
 10
962.597
 20
-403.990
 30
0.000000
  70
    32
  0
VERTEX
  8
┌▓È_1
  5
4F0
 10
962.627
 20
-404.013
 30
0.000000
  70
    32
  0
VERTEX
  8
┌▓È_1
  5
4F1
 10
962.658
 20
-404.037
 30
0.000000
  70
    32
  0
VERTEX
  8
┌▓È_1
  5
4F2
 10
962.688
 20
-404.060
 30
0.000000
  70
    32
  0
VERTEX
  8
┌▓È_1
  5
4F3
 10
962.719
 20
-404.083
 30
0.000000
  70
    32
  0
VERTEX
  8
┌▓È_1
  5
4F4
 10
962.749
 20
-404.107
 30
0.000000
  70
    32
  0
VERTEX
  8
┌▓È_1
  5
4F5
 10
962.780
 20
-404.130
 30
0.000000
  70
    32
  0
VERTEX
  8
┌▓È_1
  5
4F6
 10
962.811
 20
-404.153
 30
0.000000
  70
    32
  0
VERTEX
  8
┌▓È_1
  5
4F7
 10
962.841
 20
-404.176
 30
0.000000
  70
    32
  0
VERTEX
  8
┌▓È_1
  5
4F8
 10
962.872
 20
-404.199
 30
0.000000
  70
    32
  0
VERTEX
  8
┌▓È_1
  5
4F9
 10
962.903
 20
-404.222
 30
0.000000
  70
    32
  0
VERTEX
  8
┌▓È_1
  5
4FA
 10
962.934
 20
-404.245
 30
0.000000
  70
    32
  0
VERTEX
  8
┌▓È_1
  5
4FB
 10
962.964
 20
-404.268
 30
0.000000
  70
    32
  0
VERTEX
  8
┌▓È_1
  5
4FC
 10
962.995
 20
-404.291
 30
0.000000
  70
    32
  0
VERTEX
  8
┌▓È_1
  5
4FD
 10
963.026
 20
-404.314
 30
0.000000
  70
    32
  0
VERTEX
  8
┌▓È_1
  5
4FE
 10
963.057
 20
-404.336
 30
0.000000
  70
    32
  0
VERTEX
  8
┌▓È_1
  5
4FF
 10
963.088
 20
-404.359
 30
0.000000
  70
    32
  0
VERTEX
  8
┌▓È_1
  5
500
 10
963.119
 20
-404.382
 30
0.000000
  70
    32
  0
VERTEX
  8
┌▓È_1
  5
501
 10
963.150
 20
-404.404
 30
0.000000
  70
    32
  0
VERTEX
  8
┌▓È_1
  5
502
 10
963.181
 20
-404.427
 30
0.000000
  70
    32
  0
VERTEX
  8
┌▓È_1
  5
503
 10
963.212
 20
-404.449
 30
0.000000
  70
    32
  0
VERTEX
  8
┌▓È_1
  5
504
 10
963.243
 20
-404.471
 30
0.000000
  70
    32
  0
VERTEX
  8
┌▓È_1
  5
505
 10
963.275
 20
-404.493
 30
0.000000
  70
    32
  0
VERTEX
  8
┌▓È_1
  5
506
 10
963.306
 20
-404.516
 30
0.000000
  70
    32
  0
VERTEX
  8
┌▓È_1
  5
507
 10
963.337
 20
-404.538
 30
0.000000
  70
    32
  0
VERTEX
  8
┌▓È_1
  5
508
 10
963.368
 20
-404.560
 30
0.000000
  70
    32
  0
VERTEX
  8
┌▓È_1
  5
509
 10
963.400
 20
-404.582
 30
0.000000
  70
    32
  0
VERTEX
  8
┌▓È_1
  5
50A
 10
963.431
 20
-404.603
 30
0.000000
  70
    32
  0
VERTEX
  8
┌▓È_1
  5
50B
 10
963.462
 20
-404.625
 30
0.000000
  70
    32
  0
VERTEX
  8
┌▓È_1
  5
50C
 10
963.494
 20
-404.647
 30
0.000000
  70
    32
  0
VERTEX
  8
┌▓È_1
  5
50D
 10
963.525
 20
-404.668
 30
0.000000
  70
    32
  0
VERTEX
  8
┌▓È_1
  5
50E
 10
963.557
 20
-404.690
 30
0.000000
  70
    32
  0
VERTEX
  8
┌▓È_1
  5
50F
 10
963.588
 20
-404.712
 30
0.000000
  70
    32
  0
VERTEX
  8
┌▓È_1
  5
510
 10
963.620
 20
-404.733
 30
0.000000
  70
    32
  0
VERTEX
  8
┌▓È_1
  5
511
 10
963.652
 20
-404.754
 30
0.000000
  70
    32
  0
VERTEX
  8
┌▓È_1
  5
512
 10
963.683
 20
-404.776
 30
0.000000
  70
    32
  0
VERTEX
  8
┌▓È_1
  5
513
 10
963.715
 20
-404.797
 30
0.000000
  70
    32
  0
VERTEX
  8
┌▓È_1
  5
514
 10
963.747
 20
-404.818
 30
0.000000
  70
    32
  0
VERTEX
  8
┌▓È_1
  5
515
 10
963.779
 20
-404.839
 30
0.000000
  70
    32
  0
VERTEX
  8
┌▓È_1
  5
516
 10
963.810
 20
-404.860
 30
0.000000
  70
    32
  0
VERTEX
  8
┌▓È_1
  5
517
 10
963.842
 20
-404.881
 30
0.000000
  70
    32
  0
VERTEX
  8
┌▓È_1
  5
518
 10
963.874
 20
-404.901
 30
0.000000
  70
    32
  0
VERTEX
  8
┌▓È_1
  5
519
 10
963.906
 20
-404.922
 30
0.000000
  70
    32
  0
VERTEX
  8
┌▓È_1
  5
51A
 10
963.938
 20
-404.943
 30
0.000000
  70
    32
  0
VERTEX
  8
┌▓È_1
  5
51B
 10
963.970
 20
-404.963
 30
0.000000
  70
    32
  0
VERTEX
  8
┌▓È_1
  5
51C
 10
964.002
 20
-404.984
 30
0.000000
  70
    32
  0
VERTEX
  8
┌▓È_1
  5
51D
 10
964.035
 20
-405.004
 30
0.000000
  70
    32
  0
VERTEX
  8
┌▓È_1
  5
51E
 10
964.067
 20
-405.025
 30
0.000000
  70
    32
  0
VERTEX
  8
┌▓È_1
  5
51F
 10
964.099
 20
-405.045
 30
0.000000
  70
    32
  0
VERTEX
  8
┌▓È_1
  5
520
 10
964.131
 20
-405.065
 30
0.000000
  70
    32
  0
VERTEX
  8
┌▓È_1
  5
521
 10
964.164
 20
-405.085
 30
0.000000
  70
    32
  0
VERTEX
  8
┌▓È_1
  5
522
 10
964.196
 20
-405.105
 30
0.000000
  70
    32
  0
VERTEX
  8
┌▓È_1
  5
523
 10
964.229
 20
-405.125
 30
0.000000
  70
    32
  0
VERTEX
  8
┌▓È_1
  5
524
 10
964.261
 20
-405.145
 30
0.000000
  70
    32
  0
VERTEX
  8
┌▓È_1
  5
525
 10
964.294
 20
-405.164
 30
0.000000
  70
    32
  0
VERTEX
  8
┌▓È_1
  5
526
 10
964.326
 20
-405.184
 30
0.000000
  70
    32
  0
SEQEND
  8
┌▓È_1
  5
527
  0
POLYLINE
  8
┌▓È_1
  5
528
  62
5
  66
     1
 10
0.000000
 20
0.000000
 30
0.000000
  70
     8
  0
VERTEX
  8
┌▓È_1
  5
529
 10
970.239
 20
-405.137
 30
0.000000
  70
    32
  0
VERTEX
  8
┌▓È_1
  5
52A
 10
970.267
 20
-405.145
 30
0.000000
  70
    32
  0
VERTEX
  8
┌▓È_1
  5
52B
 10
970.295
 20
-405.153
 30
0.000000
  70
    32
  0
VERTEX
  8
┌▓È_1
  5
52C
 10
970.323
 20
-405.161
 30
0.000000
  70
    32
  0
VERTEX
  8
┌▓È_1
  5
52D
 10
970.351
 20
-405.169
 30
0.000000
  70
    32
  0
VERTEX
  8
┌▓È_1
  5
52E
 10
970.379
 20
-405.177
 30
0.000000
  70
    32
  0
VERTEX
  8
┌▓È_1
  5
52F
 10
970.407
 20
-405.184
 30
0.000000
  70
    32
  0
VERTEX
  8
┌▓È_1
  5
530
 10
970.436
 20
-405.192
 30
0.000000
  70
    32
  0
VERTEX
  8
┌▓È_1
  5
531
 10
970.464
 20
-405.200
 30
0.000000
  70
    32
  0
VERTEX
  8
┌▓È_1
  5
532
 10
970.492
 20
-405.207
 30
0.000000
  70
    32
  0
VERTEX
  8
┌▓È_1
  5
533
 10
970.520
 20
-405.215
 30
0.000000
  70
    32
  0
VERTEX
  8
┌▓È_1
  5
534
 10
970.548
 20
-405.222
 30
0.000000
  70
    32
  0
VERTEX
  8
┌▓È_1
  5
535
 10
970.577
 20
-405.230
 30
0.000000
  70
    32
  0
VERTEX
  8
┌▓È_1
  5
536
 10
970.605
 20
-405.237
 30
0.000000
  70
    32
  0
VERTEX
  8
┌▓È_1
  5
537
 10
970.633
 20
-405.244
 30
0.000000
  70
    32
  0
VERTEX
  8
┌▓È_1
  5
538
 10
970.662
 20
-405.252
 30
0.000000
  70
    32
  0
VERTEX
  8
┌▓È_1
  5
539
 10
970.690
 20
-405.259
 30
0.000000
  70
    32
  0
VERTEX
  8
┌▓È_1
  5
53A
 10
970.718
 20
-405.266
 30
0.000000
  70
    32
  0
VERTEX
  8
┌▓È_1
  5
53B
 10
970.747
 20
-405.274
 30
0.000000
  70
    32
  0
VERTEX
  8
┌▓È_1
  5
53C
 10
970.775
 20
-405.281
 30
0.000000
  70
    32
  0
VERTEX
  8
┌▓È_1
  5
53D
 10
970.804
 20
-405.288
 30
0.000000
  70
    32
  0
VERTEX
  8
┌▓È_1
  5
53E
 10
970.832
 20
-405.295
 30
0.000000
  70
    32
  0
VERTEX
  8
┌▓È_1
  5
53F
 10
970.861
 20
-405.302
 30
0.000000
  70
    32
  0
VERTEX
  8
┌▓È_1
  5
540
 10
970.889
 20
-405.309
 30
0.000000
  70
    32
  0
VERTEX
  8
┌▓È_1
  5
541
 10
970.918
 20
-405.316
 30
0.000000
  70
    32
  0
VERTEX
  8
┌▓È_1
  5
542
 10
970.946
 20
-405.323
 30
0.000000
  70
    32
  0
VERTEX
  8
┌▓È_1
  5
543
 10
970.975
 20
-405.330
 30
0.000000
  70
    32
  0
VERTEX
  8
┌▓È_1
  5
544
 10
971.004
 20
-405.337
 30
0.000000
  70
    32
  0
VERTEX
  8
┌▓È_1
  5
545
 10
971.032
 20
-405.343
 30
0.000000
  70
    32
  0
VERTEX
  8
┌▓È_1
  5
546
 10
971.061
 20
-405.350
 30
0.000000
  70
    32
  0
VERTEX
  8
┌▓È_1
  5
547
 10
971.090
 20
-405.357
 30
0.000000
  70
    32
  0
VERTEX
  8
┌▓È_1
  5
548
 10
971.118
 20
-405.364
 30
0.000000
  70
    32
  0
VERTEX
  8
┌▓È_1
  5
549
 10
971.147
 20
-405.370
 30
0.000000
  70
    32
  0
VERTEX
  8
┌▓È_1
  5
54A
 10
971.176
 20
-405.377
 30
0.000000
  70
    32
  0
VERTEX
  8
┌▓È_1
  5
54B
 10
971.205
 20
-405.384
 30
0.000000
  70
    32
  0
VERTEX
  8
┌▓È_1
  5
54C
 10
971.234
 20
-405.390
 30
0.000000
  70
    32
  0
VERTEX
  8
┌▓È_1
  5
54D
 10
971.262
 20
-405.397
 30
0.000000
  70
    32
  0
VERTEX
  8
┌▓È_1
  5
54E
 10
971.291
 20
-405.403
 30
0.000000
  70
    32
  0
VERTEX
  8
┌▓È_1
  5
54F
 10
971.320
 20
-405.410
 30
0.000000
  70
    32
  0
VERTEX
  8
┌▓È_1
  5
550
 10
971.349
 20
-405.416
 30
0.000000
  70
    32
  0
VERTEX
  8
┌▓È_1
  5
551
 10
971.378
 20
-405.423
 30
0.000000
  70
    32
  0
VERTEX
  8
┌▓È_1
  5
552
 10
971.407
 20
-405.429
 30
0.000000
  70
    32
  0
VERTEX
  8
┌▓È_1
  5
553
 10
971.436
 20
-405.435
 30
0.000000
  70
    32
  0
VERTEX
  8
┌▓È_1
  5
554
 10
971.465
 20
-405.442
 30
0.000000
  70
    32
  0
VERTEX
  8
┌▓È_1
  5
555
 10
971.494
 20
-405.448
 30
0.000000
  70
    32
  0
VERTEX
  8
┌▓È_1
  5
556
 10
971.523
 20
-405.454
 30
0.000000
  70
    32
  0
VERTEX
  8
┌▓È_1
  5
557
 10
971.552
 20
-405.460
 30
0.000000
  70
    32
  0
VERTEX
  8
┌▓È_1
  5
558
 10
971.581
 20
-405.467
 30
0.000000
  70
    32
  0
VERTEX
  8
┌▓È_1
  5
559
 10
971.610
 20
-405.473
 30
0.000000
  70
    32
  0
VERTEX
  8
┌▓È_1
  5
55A
 10
971.639
 20
-405.479
 30
0.000000
  70
    32
  0
VERTEX
  8
┌▓È_1
  5
55B
 10
971.668
 20
-405.485
 30
0.000000
  70
    32
  0
VERTEX
  8
┌▓È_1
  5
55C
 10
971.697
 20
-405.491
 30
0.000000
  70
    32
  0
VERTEX
  8
┌▓È_1
  5
55D
 10
971.726
 20
-405.497
 30
0.000000
  70
    32
  0
VERTEX
  8
┌▓È_1
  5
55E
 10
971.756
 20
-405.503
 30
0.000000
  70
    32
  0
VERTEX
  8
┌▓È_1
  5
55F
 10
971.785
 20
-405.509
 30
0.000000
  70
    32
  0
VERTEX
  8
┌▓È_1
  5
560
 10
971.814
 20
-405.515
 30
0.000000
  70
    32
  0
VERTEX
  8
┌▓È_1
  5
561
 10
971.843
 20
-405.521
 30
0.000000
  70
    32
  0
VERTEX
  8
┌▓È_1
  5
562
 10
971.872
 20
-405.527
 30
0.000000
  70
    32
  0
VERTEX
  8
┌▓È_1
  5
563
 10
971.902
 20
-405.533
 30
0.000000
  70
    32
  0
VERTEX
  8
┌▓È_1
  5
564
 10
971.931
 20
-405.539
 30
0.000000
  70
    32
  0
VERTEX
  8
┌▓È_1
  5
565
 10
971.960
 20
-405.545
 30
0.000000
  70
    32
  0
VERTEX
  8
┌▓È_1
  5
566
 10
971.989
 20
-405.551
 30
0.000000
  70
    32
  0
VERTEX
  8
┌▓È_1
  5
567
 10
972.019
 20
-405.556
 30
0.000000
  70
    32
  0
VERTEX
  8
┌▓È_1
  5
568
 10
972.048
 20
-405.562
 30
0.000000
  70
    32
  0
VERTEX
  8
┌▓È_1
  5
569
 10
972.077
 20
-405.568
 30
0.000000
  70
    32
  0
VERTEX
  8
┌▓È_1
  5
56A
 10
972.107
 20
-405.574
 30
0.000000
  70
    32
  0
VERTEX
  8
┌▓È_1
  5
56B
 10
972.136
 20
-405.579
 30
0.000000
  70
    32
  0
VERTEX
  8
┌▓È_1
  5
56C
 10
972.165
 20
-405.585
 30
0.000000
  70
    32
  0
VERTEX
  8
┌▓È_1
  5
56D
 10
972.195
 20
-405.591
 30
0.000000
  70
    32
  0
VERTEX
  8
┌▓È_1
  5
56E
 10
972.224
 20
-405.596
 30
0.000000
  70
    32
  0
VERTEX
  8
┌▓È_1
  5
56F
 10
972.253
 20
-405.602
 30
0.000000
  70
    32
  0
VERTEX
  8
┌▓È_1
  5
570
 10
972.283
 20
-405.608
 30
0.000000
  70
    32
  0
VERTEX
  8
┌▓È_1
  5
571
 10
972.312
 20
-405.613
 30
0.000000
  70
    32
  0
VERTEX
  8
┌▓È_1
  5
572
 10
972.342
 20
-405.619
 30
0.000000
  70
    32
  0
VERTEX
  8
┌▓È_1
  5
573
 10
972.371
 20
-405.624
 30
0.000000
  70
    32
  0
VERTEX
  8
┌▓È_1
  5
574
 10
972.401
 20
-405.630
 30
0.000000
  70
    32
  0
VERTEX
  8
┌▓È_1
  5
575
 10
972.430
 20
-405.635
 30
0.000000
  70
    32
  0
VERTEX
  8
┌▓È_1
  5
576
 10
972.460
 20
-405.641
 30
0.000000
  70
    32
  0
VERTEX
  8
┌▓È_1
  5
577
 10
972.489
 20
-405.646
 30
0.000000
  70
    32
  0
VERTEX
  8
┌▓È_1
  5
578
 10
972.519
 20
-405.652
 30
0.000000
  70
    32
  0
VERTEX
  8
┌▓È_1
  5
579
 10
972.548
 20
-405.657
 30
0.000000
  70
    32
  0
VERTEX
  8
┌▓È_1
  5
57A
 10
972.578
 20
-405.663
 30
0.000000
  70
    32
  0
VERTEX
  8
┌▓È_1
  5
57B
 10
972.607
 20
-405.668
 30
0.000000
  70
    32
  0
VERTEX
  8
┌▓È_1
  5
57C
 10
972.637
 20
-405.673
 30
0.000000
  70
    32
  0
VERTEX
  8
┌▓È_1
  5
57D
 10
972.666
 20
-405.679
 30
0.000000
  70
    32
  0
VERTEX
  8
┌▓È_1
  5
57E
 10
972.696
 20
-405.684
 30
0.000000
  70
    32
  0
VERTEX
  8
┌▓È_1
  5
57F
 10
972.726
 20
-405.690
 30
0.000000
  70
    32
  0
VERTEX
  8
┌▓È_1
  5
580
 10
972.755
 20
-405.695
 30
0.000000
  70
    32
  0
VERTEX
  8
┌▓È_1
  5
581
 10
972.785
 20
-405.700
 30
0.000000
  70
    32
  0
VERTEX
  8
┌▓È_1
  5
582
 10
972.814
 20
-405.705
 30
0.000000
  70
    32
  0
VERTEX
  8
┌▓È_1
  5
583
 10
972.844
 20
-405.711
 30
0.000000
  70
    32
  0
VERTEX
  8
┌▓È_1
  5
584
 10
972.874
 20
-405.716
 30
0.000000
  70
    32
  0
VERTEX
  8
┌▓È_1
  5
585
 10
972.903
 20
-405.721
 30
0.000000
  70
    32
  0
VERTEX
  8
┌▓È_1
  5
586
 10
972.933
 20
-405.727
 30
0.000000
  70
    32
  0
VERTEX
  8
┌▓È_1
  5
587
 10
972.962
 20
-405.732
 30
0.000000
  70
    32
  0
VERTEX
  8
┌▓È_1
  5
588
 10
972.992
 20
-405.737
 30
0.000000
  70
    32
  0
VERTEX
  8
┌▓È_1
  5
589
 10
973.022
 20
-405.742
 30
0.000000
  70
    32
  0
VERTEX
  8
┌▓È_1
  5
58A
 10
973.051
 20
-405.747
 30
0.000000
  70
    32
  0
VERTEX
  8
┌▓È_1
  5
58B
 10
973.081
 20
-405.753
 30
0.000000
  70
    32
  0
VERTEX
  8
┌▓È_1
  5
58C
 10
973.111
 20
-405.758
 30
0.000000
  70
    32
  0
VERTEX
  8
┌▓È_1
  5
58D
 10
973.141
 20
-405.763
 30
0.000000
  70
    32
  0
VERTEX
  8
┌▓È_1
  5
58E
 10
973.170
 20
-405.768
 30
0.000000
  70
    32
  0
VERTEX
  8
┌▓È_1
  5
58F
 10
973.200
 20
-405.773
 30
0.000000
  70
    32
  0
VERTEX
  8
┌▓È_1
  5
590
 10
973.230
 20
-405.778
 30
0.000000
  70
    32
  0
VERTEX
  8
┌▓È_1
  5
591
 10
973.259
 20
-405.783
 30
0.000000
  70
    32
  0
VERTEX
  8
┌▓È_1
  5
592
 10
973.289
 20
-405.789
 30
0.000000
  70
    32
  0
VERTEX
  8
┌▓È_1
  5
593
 10
973.319
 20
-405.794
 30
0.000000
  70
    32
  0
VERTEX
  8
┌▓È_1
  5
594
 10
973.349
 20
-405.799
 30
0.000000
  70
    32
  0
VERTEX
  8
┌▓È_1
  5
595
 10
973.378
 20
-405.804
 30
0.000000
  70
    32
  0
VERTEX
  8
┌▓È_1
  5
596
 10
973.408
 20
-405.809
 30
0.000000
  70
    32
  0
VERTEX
  8
┌▓È_1
  5
597
 10
973.438
 20
-405.814
 30
0.000000
  70
    32
  0
VERTEX
  8
┌▓È_1
  5
598
 10
973.467
 20
-405.819
 30
0.000000
  70
    32
  0
VERTEX
  8
┌▓È_1
  5
599
 10
973.497
 20
-405.824
 30
0.000000
  70
    32
  0
VERTEX
  8
┌▓È_1
  5
59A
 10
973.527
 20
-405.829
 30
0.000000
  70
    32
  0
VERTEX
  8
┌▓È_1
  5
59B
 10
973.557
 20
-405.834
 30
0.000000
  70
    32
  0
VERTEX
  8
┌▓È_1
  5
59C
 10
973.586
 20
-405.839
 30
0.000000
  70
    32
  0
VERTEX
  8
┌▓È_1
  5
59D
 10
973.616
 20
-405.844
 30
0.000000
  70
    32
  0
VERTEX
  8
┌▓È_1
  5
59E
 10
973.646
 20
-405.850
 30
0.000000
  70
    32
  0
VERTEX
  8
┌▓È_1
  5
59F
 10
973.676
 20
-405.855
 30
0.000000
  70
    32
  0
VERTEX
  8
┌▓È_1
  5
5A0
 10
973.706
 20
-405.860
 30
0.000000
  70
    32
  0
VERTEX
  8
┌▓È_1
  5
5A1
 10
973.735
 20
-405.865
 30
0.000000
  70
    32
  0
VERTEX
  8
┌▓È_1
  5
5A2
 10
973.765
 20
-405.870
 30
0.000000
  70
    32
  0
VERTEX
  8
┌▓È_1
  5
5A3
 10
973.795
 20
-405.875
 30
0.000000
  70
    32
  0
VERTEX
  8
┌▓È_1
  5
5A4
 10
973.825
 20
-405.880
 30
0.000000
  70
    32
  0
VERTEX
  8
┌▓È_1
  5
5A5
 10
973.854
 20
-405.885
 30
0.000000
  70
    32
  0
VERTEX
  8
┌▓È_1
  5
5A6
 10
973.884
 20
-405.890
 30
0.000000
  70
    32
  0
VERTEX
  8
┌▓È_1
  5
5A7
 10
973.914
 20
-405.895
 30
0.000000
  70
    32
  0
VERTEX
  8
┌▓È_1
  5
5A8
 10
973.944
 20
-405.900
 30
0.000000
  70
    32
  0
SEQEND
  8
┌▓È_1
  5
5A9
  0
LINE
  5
E3
  8
┌▓È_1
  6
STITCH
 10
660.6706822205
 20
-112.26703176860001
 30
0.0
 11
661.67068222049988
 21
-112.26703176860001
 31
0.0
  0
LINE
  5
E4
  8
┌▓È_1
  6
STITCH
 10
661.67068222049988
 20
-117.26703176860001
 30
0.0
 11
660.6706822205
 21
-117.26703176860001
 31
0.0
  0
LINE
  5
E5
  8
┌▓È_1
 62
     5
 10
663.42068222049988
 20
-252.76703176859999
 30
0.0
 11
808.92068222049988
 21
-252.76703176859999
 31
0.0
  0
LINE
  5
E6
  8
┌▓È_1
 62
     5
 10
663.42068222049988
 20
-248.26703176859999
 30
0.0
 11
808.92068222049988
 21
-248.26703176859999
 31
0.0
  0
LINE
  5
E7
  8
┌▓È_1
 62
     5
 10
663.42068222049988
 20
-248.26703176859999
 30
0.0
 11
663.42068222049988
 21
-102.76703176860001
 31
0.0
  0
LINE
  5
E8
  8
┌▓È_1
 62
     5
 10
658.92068222049988
 20
-248.26703176859999
 30
0.0
 11
658.92068222049988
 21
-102.76703176860001
 31
0.0
  0
LINE
  5
E9
  8
┌▓È_1
 62
     5
 10
663.42068222049988
 20
-102.76703176860001
 30
0.0
 11
658.92068222049988
 21
-102.76703176860001
 31
0.0
  0
LINE
  5
EA
  8
┌▓È_1
  6
BORDER
 62
     3
 10
989.82685274679989
 20
-155.38799531020001
 30
0.0
 11
989.82685274679989
 21
-190.88799531020001
 31
0.0
  0
LINE
  5
EB
  8
┌▓È_1
 62
     5
 10
968.57685274679989
 20
-160.90471666440001
 30
0.0
 11
977.32685274679989
 21
-169.65471666440001
 31
0.0
  0
LINE
  5
EC
  8
┌▓È_1
 62
     5
 10
1002.3268527468
 20
-169.65471666440001
 30
0.0
 11
1011.0768527468
 21
-160.90471666440001
 31
0.0
  0
LINE
  5
ED
  8
┌▓È_1
 62
     5
 10
1002.3268527468
 20
-169.65471666440001
 30
0.0
 11
1002.3268527468
 21
-174.65471666440001
 31
0.0
  0
LINE
  5
EE
  8
┌▓È_1
 62
     5
 10
977.32685274679989
 20
-169.65471666440001
 30
0.0
 11
977.32685274679989
 21
-174.65471666440001
 31
0.0
  0
LINE
  5
EF
  8
┌▓È_1
 62
     5
 10
982.70982552409987
 20
-403.97986847059991
 30
0.0
 11
982.33435885740005
 21
-402.69986847059999
 31
0.0
  0
LINE
  5
F0
  8
┌▓È_1
 62
     5
 10
991.89169219079997
 20
-403.97986847059991
 30
0.0
 11
991.89169219079997
 21
-406.85986847060002
 31
0.0
  0
LINE
  5
F1
  8
┌▓È_1
 62
     5
 10
941.68675025649986
 20
-400.2998684705999
 30
0.0
 11
939.84498415799987
 21
-400.2998684705999
 31
0.0
  0
LINE
  5
F2
  8
┌▓È_1
 62
     5
 10
959.54371995350004
 20
-408.2998684705999
 30
0.0
 11
959.54371995350004
 21
-405.89986847059998
 31
0.0
  0
LINE
  5
F3
  8
┌▓È_1
 62
     5
 10
945.68675025649998
 20
-400.2998684705999
 30
0.0
 11
945.68675025649998
 21
-399.49986847060001
 31
0.0
  0
LINE
  5
F4
  8
┌▓È_1
 62
     5
 10
984.21169219079991
 20
-409.09986847059992
 30
0.0
 11
988.69169219079993
 21
-409.09986847059992
 31
0.0
  0
LINE
  5
F5
  8
┌▓È_1
 62
     5
 10
955.28675025649977
 20
-400.2998684705999
 30
0.0
 11
955.28675025649977
 21
-402.69986847059999
 31
0.0
  0
LINE
  5
F6
  8
┌▓È_1
 62
     5
 10
939.84498415799987
 20
-400.2998684705999
 30
0.0
 11
939.84498415799987
 21
-402.69986847059999
 31
0.0
  0
LINE
  5
F7
  8
┌▓È_1
 62
     5
 10
959.54371995350004
 20
-401.33062132660001
 30
0.0
 11
959.54371995350004
 21
-400.81524489859999
 31
0.0
  0
LINE
  5
F8
  8
┌▓È_1
 62
     5
 10
965.94371995350002
 20
-400.81524489859999
 30
0.0
 11
965.03862327360002
 21
-401.72034157849993
 31
0.0
  0
LINE
  5
F9
  8
┌▓È_1
 10
937.29234752449997
 20
-360.3561452176001
 30
0.0
 11
937.29234752449997
 21
-394.35614521759999
 31
0.0
  0
LINE
  5
FA
  8
┌▓È_1
 10
877.29234752449986
 20
-368.8561452176001
 30
0.0
 11
901.29234752449986
 21
-368.8561452176001
 31
0.0
  0
LINE
  5
FB
  8
┌▓È_1
 10
909.29234752449986
 20
-368.8561452176001
 30
0.0
 11
933.29234752449986
 21
-368.8561452176001
 31
0.0
  0
LINE
  5
FC
  8
┌▓È_1
 10
877.29234752449986
 20
-385.8561452176001
 30
0.0
 11
933.29234752449986
 21
-385.8561452176001
 31
0.0
  0
LINE
  5
FD
  8
┌▓È_1
 10
941.29234752449986
 20
-368.8561452176001
 30
0.0
 11
965.29234752449997
 21
-368.8561452176001
 31
0.0
  0
LINE
  5
FE
  8
┌▓È_1
 10
941.29234752449986
 20
-385.8561452176001
 30
0.0
 11
965.29234752449997
 21
-385.8561452176001
 31
0.0
  0
INSERT
  5
FF
  8
0
  6
CONTINUOUS
  2
*U48
 10
0.0
 20
0.0
 30
0.0
  0
INSERT
  5
100
  8
0
  6
CONTINUOUS
  2
*U49
 10
0.0
 20
0.0
 30
0.0
  0
INSERT
  5
101
  8
0
  6
CONTINUOUS
  2
*U50
 10
0.0
 20
0.0
 30
0.0
  0
INSERT
  5
102
  8
0
  6
CONTINUOUS
  2
*U51
 10
0.0
 20
0.0
 30
0.0
  0
INSERT
  5
103
  8
0
  6
CONTINUOUS
  2
*U52
 10
0.0
 20
0.0
 30
0.0
  0
INSERT
  5
104
  8
0
  6
CONTINUOUS
  2
*U53
 10
0.0
 20
0.0
 30
0.0
  0
INSERT
  5
105
  8
0
  6
CONTINUOUS
  2
*U54
 10
0.0
 20
0.0
 30
0.0
  0
INSERT
  5
106
  8
0
  6
CONTINUOUS
  2
*U55
 10
0.0
 20
0.0
 30
0.0
  0
INSERT
  5
107
  8
0
  6
CONTINUOUS
  2
*U56
 10
0.0
 20
0.0
 30
0.0
  0
INSERT
  5
108
  8
0
  6
CONTINUOUS
  2
*U57
 10
0.0
 20
0.0
 30
0.0
  0
LINE
  5
109
  8
┌▓È_1
 62
     5
 10
970.52407091679981
 20
-404.85847840499991
 30
0.0
 11
970.23910762119999
 21
-405.13748343570001
 31
0.0
  0
LINE
  5
10A
  8
┌▓È_1
 62
     5
 10
941.68675025649986
 20
-402.69986847059999
 30
0.0
 11
941.68675025649986
 21
-405.09986847059997
 31
0.0
  0
INSERT
  5
10B
  8
0
  6
CONTINUOUS
  2
*U58
 10
0.0
 20
0.0
 30
0.0
  0
LINE
  5
10C
  8
┌▓È_1
 62
     5
 10
986.0212351603999
 20
-399.8198684706
 30
0.0
 11
991.89169219079997
 21
-399.8198684706
 31
0.0
  0
LINE
  5
10D
  8
┌▓È_1
 62
     5
 10
981.48955885740008
 20
-399.8198684706
 30
0.0
 11
980.69169219079993
 21
-397.09986847059997
 31
0.0
  0
LINE
  5
10E
  8
┌▓È_1
 62
     5
 10
941.68675025649986
 20
-397.09986847059997
 30
0.0
 11
941.68675025649986
 21
-400.2998684705999
 31
0.0
  0
LINE
  5
10F
  8
┌▓È_1
 62
     5
 10
945.68675025649998
 20
-399.49986847060001
 30
0.0
 11
948.08675025649995
 21
-397.09986847059997
 31
0.0
  0
LINE
  5
110
  8
┌▓È_1
 62
     5
 10
948.08675025649995
 20
-397.09986847059997
 30
0.0
 11
941.68675025649986
 21
-397.09986847059997
 31
0.0
  0
LINE
  5
111
  8
┌▓È_1
 62
     5
 10
948.88675025649979
 20
-400.2998684705999
 30
0.0
 11
945.68675025649998
 21
-400.2998684705999
 31
0.0
  0
LINE
  5
112
  8
┌▓È_1
 62
     5
 10
985.78700436009979
 20
-399.00590224590002
 30
0.0
 11
987.0916921907999
 21
-397.09986847059997
 31
0.0
  0
ARC
  5
113
  8
┌▓È_1
 62
     5
 10
948.08675025649995
 20
-403.49986847059989
 30
0.0
 40
4.7999999999999989
 50
270.0
 51
0.0
  0
LINE
  5
114
  8
┌▓È_1
 62
     5
 10
959.54371995350004
 20
-397.09986847059997
 30
0.0
 11
959.54371995350004
 21
-399.97986847060002
 31
0.0
  0
LINE
  5
115
  8
┌▓È_1
 62
     5
 10
955.28675025649977
 20
-397.09986847059997
 30
0.0
 11
948.88675025649979
 21
-397.09986847059997
 31
0.0
  0
LINE
  5
116
  8
┌▓È_1
 62
     5
 10
988.04709911449993
 20
-406.85986847060002
 30
0.0
 11
991.89169219079997
 21
-406.85986847060002
 31
0.0
  0
LINE
  5
117
  8
┌▓È_1
 62
     5
 10
945.68675025649998
 20
-405.09986847059997
 30
0.0
 11
945.68675025649998
 21
-402.69986847059999
 31
0.0
  0
LINE
  5
118
  8
┌▓È_1
 62
     5
 10
977.49169219079988
 20
-403.97986847059991
 30
0.0
 11
977.49169219079988
 21
-406.85986847060002
 31
0.0
  0
LINE
  5
119
  8
┌▓È_1
 62
     5
 10
977.49169219079988
 20
-402.69986847059999
 30
0.0
 11
982.33435885740005
 21
-402.69986847059999
 31
0.0
  0
LINE
  5
11A
  8
┌▓È_1
 62
     5
 10
991.89169219079997
 20
-399.8198684706
 30
0.0
 11
991.89169219079997
 21
-402.69986847059999
 31
0.0
  0
LINE
  5
11B
  8
┌▓È_1
 62
     5
 10
959.54371995350004
 20
-399.97986847060002
 30
0.0
 11
967.54371995350004
 21
-399.97986847060002
 31
0.0
  0
LINE
  5
11C
  8
┌▓È_1
 62
     5
 10
946.48675025649993
 20
-405.89986847059998
 30
0.0
 11
941.68675025649986
 21
-405.89986847059998
 31
0.0
  0
LINE
  5
11D
  8
┌▓È_1
 62
     5
 10
984.21169219079991
 20
-409.09986847059992
 30
0.0
 11
983.55462552409995
 21
-406.85986847060002
 31
0.0
  0
LINE
  5
11E
  8
┌▓È_1
 62
     5
 10
987.21833658779985
 20
-403.97986847059991
 30
0.0
 11
986.84999768710009
 21
-402.69986847059999
 31
0.0
  0
LINE
  5
11F
  8
┌▓È_1
 62
     5
 10
941.68675025649986
 20
-405.89986847059998
 30
0.0
 11
941.68675025649986
 21
-408.2998684705999
 31
0.0
  0
LINE
  5
120
  8
┌▓È_1
 62
     5
 10
941.68675025649986
 20
-402.69986847059999
 30
0.0
 11
941.4449841579999
 21
-402.69986847059999
 31
0.0
  0
LINE
  5
121
  8
┌▓È_1
 10
873.29234752449997
 20
-394.35614521759999
 30
0.0
 11
1113.2923475245
 21
-394.35614521759999
 31
0.0
  0
LINE
  5
122
  8
┌▓È_1
 62
     5
 10
952.88675025649991
 20
-399.49986847060001
 30
0.0
 11
955.28675025649977
 21
-397.09986847059997
 31
0.0
  0
LINE
  5
123
  8
┌▓È_1
 62
     5
 10
941.68675025649986
 20
-405.09986847059997
 30
0.0
 11
945.68675025649998
 21
-405.09986847059997
 31
0.0
  0
LINE
  5
124
  8
┌▓È_1
 62
     5
 10
973.94371995350002
 20
-397.09986847059997
 30
0.0
 11
959.54371995350004
 21
-397.09986847059997
 31
0.0
  0
LINE
  5
125
  8
┌▓È_1
 62
     5
 10
986.0212351603999
 20
-399.8198684706
 30
0.0
 11
985.78700436009979
 21
-399.00590224590002
 31
0.0
  0
LINE
  5
126
  8
┌▓È_1
 62
     5
 10
977.49169219079988
 20
-406.85986847060002
 30
0.0
 11
983.55462552409995
 21
-406.85986847060002
 31
0.0
  0
ARC
  5
127
  8
┌▓È_1
 62
     5
 10
963.54371995350004
 20
-399.49986847060001
 30
0.0
 40
8.8000000000000007
 50
322.48761197969998
 51
0.0
  0
LINE
  5
128
  8
┌▓È_1
 62
     5
 10
987.21833658779985
 20
-403.97986847059991
 30
0.0
 11
991.89169219079997
 21
-403.97986847059991
 31
0.0
  0
LINE
  5
129
  8
┌▓È_1
 62
     5
 10
988.69169219079993
 20
-409.09986847059992
 30
0.0
 11
988.04709911449993
 21
-406.85986847060002
 31
0.0
  0
LINE
  5
12A
  8
┌▓È_1
 62
     5
 10
945.68675025649998
 20
-402.69986847059999
 30
0.0
 11
948.88675025649979
 21
-402.69986847059999
 31
0.0
  0
LINE
  5
12B
  8
┌▓È_1
 62
     5
 10
948.88675025649979
 20
-402.69986847059999
 30
0.0
 11
948.88675025649979
 21
-403.49986847059989
 31
0.0
  0
LINE
  5
12C
  8
┌▓È_1
 62
     5
 10
977.49169219079988
 20
-399.8198684706
 30
0.0
 11
981.48955885740008
 21
-399.8198684706
 31
0.0
  0
LINE
  5
12D
  8
┌▓È_1
 62
     5
 10
952.88675025649991
 20
-400.2998684705999
 30
0.0
 11
952.88675025649991
 21
-399.49986847060001
 31
0.0
  0
LINE
  5
12E
  8
┌▓È_1
 62
     5
 10
955.28675025649977
 20
-400.2998684705999
 30
0.0
 11
952.88675025649991
 21
-400.2998684705999
 31
0.0
  0
LINE
  5
12F
  8
┌▓È_1
 62
     5
 10
977.49169219079988
 20
-403.97986847059991
 30
0.0
 11
982.70982552409987
 21
-403.97986847059991
 31
0.0
  0
LINE
  5
130
  8
┌▓È_1
 62
     5
 10
939.84498415799987
 20
-402.69986847059999
 30
0.0
 11
941.4449841579999
 21
-402.69986847059999
 31
0.0
  0
ARC
  5
131
  8
┌▓È_1
 62
     5
 10
963.54371995350004
 20
-399.49986847060001
 30
0.0
 40
8.8000000000000007
 50
270.0
 51
302.54495885400001
  0
LINE
  5
132
  8
┌▓È_1
 62
     5
 10
952.88675025649991
 20
-402.69986847059999
 30
0.0
 11
955.28675025649977
 21
-402.69986847059999
 31
0.0
  0
ARC
  5
133
  8
┌▓È_1
 62
     5
 10
961.46371995350012
 20
-399.8198684706
 30
0.0
 40
6.0800000000000001
 50
331.39928138329998
 51
358.49204224580001
  0
LINE
  5
134
  8
┌▓È_1
 62
     5
 10
959.54371995350004
 20
-408.2998684705999
 30
0.0
 11
963.54371995350004
 21
-408.2998684705999
 31
0.0
  0
LINE
  5
135
  8
┌▓È_1
 62
     5
 10
941.68675025649986
 20
-408.2998684705999
 30
0.0
 11
948.08675025649995
 21
-408.2998684705999
 31
0.0
  0
LINE
  5
136
  8
┌▓È_1
 62
     5
 10
972.3437199535
 20
-399.49986847060001
 30
0.0
 11
973.94371995350002
 21
-397.09986847059997
 31
0.0
  0
LINE
  5
137
  8
┌▓È_1
 62
     5
 10
980.69169219079993
 20
-397.09986847059997
 30
0.0
 11
987.0916921907999
 21
-397.09986847059997
 31
0.0
  0
LINE
  5
138
  8
┌▓È_1
 62
     5
 10
959.54371995350004
 20
-405.89986847059998
 30
0.0
 11
961.46371995350012
 21
-405.89986847059998
 31
0.0
  0
LINE
  5
139
  8
┌▓È_1
 62
     5
 10
959.54371995350004
 20
-405.89986847059998
 30
0.0
 11
959.54371995350004
 21
-408.2998684705999
 31
0.0
  0
DIMENSION
  5
149
  8
Éíû@É³
  2
*D15
 10
857.63525118429993
 20
-222.76703176859999
 30
0.0
 11
857.63525118429993
 21
-237.76703176859999
 31
0.0
 70
   128
  1
<>
 13
890.45246805750014
 23
-222.76703176859999
 33
0.0
 14
875.45246805750003
 24
-252.76703176859999
 34
0.0
 50
90.0
  0
DIMENSION
  5
158
  8
Éíû@É³
  2
*D16
 10
711.65131779989997
 20
-348.3125395811
 30
0.0
 11
711.65131779989997
 21
-342.8125395811
 31
0.0
 70
   128
  1
<>
 13
694.9206822205
 23
-348.3125395811
 33
0.0
 14
699.61691024779986
 24
-337.3125395811
 34
0.0
 50
90.0
  0
DIMENSION
  5
167
  8
Éíû@É³
  2
*D17
 10
766.73789909360005
 20
-369.3125395811
 30
0.0
 11
766.73789909360005
 21
-363.8125395811
 31
0.0
 70
   128
  1
<>
 13
748.9206822205
 23
-369.3125395811
 33
0.0
 14
748.9206822205
 24
-358.3125395811
 34
0.0
 50
90.0
  0
DIMENSION
  5
176
  8
Éíû@É³
  2
*D18
 10
640.1454543558998
 20
-337.3125395811
 30
0.0
 11
640.1454543558998
 21
-353.3125395811
 31
0.0
 70
   128
  1
<>
 13
658.92068222049988
 23
-337.3125395811
 33
0.0
 14
658.92068222049988
 24
-369.3125395811
 34
0.0
 50
90.0
  0
DIMENSION
  5
185
  8
Éíû@É³
  2
*D19
 10
688.92068222049988
 20
-319.49532270790002
 30
0.0
 11
673.9206822205
 21
-319.49532270790002
 31
0.0
 70
   128
  1
<>
 13
688.92068222049988
 23
-342.3125395811
 33
0.0
 14
658.92068222049988
 24
-337.3125395811
 34
0.0
  0
INSERT
  5
186
  8
0
  6
CONTINUOUS
  2
*U59
 10
0.0
 20
0.0
 30
0.0
  0
LINE
  5
187
  8
┌▓È_1
 10
873.29234752449997
 20
-360.3561452176001
 30
0.0
 11
873.29234752449997
 21
-411.35614521759999
 31
0.0
  0
LINE
  5
188
  8
┌▓È_1
 10
1001.2923475245
 20
-360.3561452176001
 30
0.0
 11
1001.2923475245
 21
-411.35614521759999
 31
0.0
  0
LINE
  5
189
  8
┌▓È_1
 10
905.29234752449997
 20
-360.3561452176001
 30
0.0
 11
905.29234752449997
 21
-377.3561452176001
 31
0.0
  0
LINE
  5
18A
  8
┌▓È_1
 10
969.29234752449986
 20
-360.3561452176001
 30
0.0
 11
969.29234752449986
 21
-394.35614521759999
 31
0.0
  0
LINE
  5
18B
  8
┌▓È_1
 62
     5
 10
977.49169219079988
 20
-399.8198684706
 30
0.0
 11
977.49169219079988
 21
-402.69986847059999
 31
0.0
  0
LINE
  5
18C
  8
┌▓È_1
 62
     5
 10
952.88675025649991
 20
-403.49986847059989
 30
0.0
 11
952.88675025649991
 21
-402.69986847059999
 31
0.0
  0
LINE
  5
18D
  8
┌▓È_1
 62
     5
 10
959.54371995350004
 20
-400.81524489859999
 30
0.0
 11
965.94371995350002
 21
-400.81524489859999
 31
0.0
  0
LINE
  5
18E
  8
┌▓È_1
 62
     5
 10
966.80181994019995
 20
-402.73038191879988
 30
0.0
 11
966.41686665009979
 21
-403.15556329569989
 31
0.0
  0
ARC
  5
18F
  8
┌▓È_1
 62
     5
 10
946.48675025649993
 20
-403.49986847059989
 30
0.0
 40
2.399999999999999
 50
270.0
 51
0.0
  0
LINE
  5
190
  8
┌▓È_1
 62
     5
 10
948.88675025649979
 20
-397.09986847059997
 30
0.0
 11
948.88675025649979
 21
-400.2998684705999
 31
0.0
  0
LINE
  5
191
  8
┌▓È_1
 62
     5
 10
986.84999768710009
 20
-402.69986847059999
 30
0.0
 11
991.89169219079997
 21
-402.69986847059999
 31
0.0
  0
LINE
  5
192
  8
┌▓È_1
 62
     5
 10
972.3437199535
 20
-399.49986847060001
 30
0.0
 11
973.94371995350002
 21
-397.09986847059997
 31
0.0
  0
LINE
  5
193
  8
┌▓È_1
 62
     5
 10
563.29234752449986
 20
-411.35614521759999
 30
0.0
 11
563.29234752449986
 21
-31.356145217600002
 31
0.0
  0
LINE
  5
194
  8
┌▓È_1
 10
1001.2923475245
 20
-377.3561452176001
 30
0.0
 11
1113.2923475245
 21
-377.3561452176001
 31
0.0
  0
LINE
  5
195
  8
┌▓È_1
 62
     5
 10
563.29234752449986
 20
-31.356145217600002
 30
0.0
 11
1113.2923475245
 21
-31.356145217600002
 31
0.0
  0
LINE
  5
196
  8
┌▓È_1
 62
     5
 10
563.29234752449986
 20
-411.35614521759999
 30
0.0
 11
1113.2923475245
 21
-411.35614521759999
 31
0.0
  0
LINE
  5
197
  8
┌▓È_1
 62
     5
 10
1113.2923475245
 20
-411.35614521759999
 30
0.0
 11
1113.2923475245
 21
-31.356145217600002
 31
0.0
  0
INSERT
  5
198
  8
0
  6
CONTINUOUS
  2
*U60
 10
0.0
 20
0.0
 30
0.0
  0
LINE
  5
199
  8
┌▓È_1
 10
873.29234752449997
 20
-360.3561452176001
 30
0.0
 11
1113.2923475245
 21
-360.3561452176001
 31
0.0
  0
DIMENSION
  5
1A8
  8
Éíû@É³
  2
*D20
 10
726.94846700089988
 20
-348.3125395811
 30
0.0
 11
726.94846700089988
 21
-353.3125395811
 31
0.0
 70
   128
  1
<>
 13
694.9206822205
 23
-348.3125395811
 33
0.0
 14
738.6706822205
 24
-358.3125395811
 34
0.0
 50
90.0
  0
DIMENSION
  5
1B7
  8
Éíû@É³
  2
*D21
 10
832.06708171960008
 20
-369.3125395811
 30
0.0
 11
832.06708171960008
 21
-380.45957708719999
 31
0.0
 70
   128
  1
<>
 13
808.92068222049988
 23
-369.3125395811
 33
0.0
 14
802.92068222049988
 24
-353.3125395811
 34
0.0
 50
90.0
  0
DIMENSION
  5
1C6
  8
Éíû@É³
  2
*D22
 10
832.06708171960008
 20
-353.3125395811
 30
0.0
 11
832.06708171960008
 21
-324.26582765939997
 31
0.0
 70
   128
  1
<>
 13
802.92068222049988
 23
-353.3125395811
 33
0.0
 14
808.92068222049988
 24
-337.3125395811
 34
0.0
 50
90.0
  0
DIMENSION
  5
1D5
  8
Éíû@É³
  2
*D23
 10
663.42068222049988
 20
-78.333438018599992
 30
0.0
 11
676.35179116150005
 21
-78.333438018599992
 31
0.0
 70
   128
  1
<>t
 13
663.42068222049988
 23
-102.76703176860001
 33
0.0
 14
658.92068222049988
 24
-102.76703176860001
 34
0.0
  0
INSERT
  5
1D6
  8
0
  6
CONTINUOUS
  2
*U61
 10
0.0
 20
0.0
 30
0.0
  0
LINE
  5
1D7
  8
┌▓È_1
 10
964.90940483009979
 20
-239.86455781020001
 30
0.0
 11
1024.0201888388999
 21
-239.86455781020001
 31
0.0
  0
DIMENSION
  5
1E6
  8
Éíû@É³
  2
*D24
 10
1002.3268527468
 20
-143.2176703680999
 30
0.0
 11
989.82685274679989
 21
-143.2176703680999
 31
0.0
 70
   128
  1
%%c5
 13
1002.3268527468
 23
-169.65471666440001
 33
0.0
 14
977.32685274679989
 24
-169.65471666440001
 34
0.0
  0
DIMENSION
  5
1F5
  8
Éíû@É³
  2
*D25
 10
968.57685274679989
 20
-201.81142036809999
 30
0.0
 11
989.82685274679989
 21
-201.81142036809999
 31
0.0
 70
   128
  1
%%c8.5
 13
968.57685274679989
 23
-183.40471666440001
 33
0.0
 14
1011.0768527468
 24
-183.40471666440001
 34
0.0
 50
180.0
  0
DIMENSION
  5
204
  8
Éíû@É³
  2
*D26
 10
1011.0768527468
 20
-127.73773489360001
 30
0.0
 11
989.82685274679989
 21
-127.73773489360001
 31
0.0
 70
   128
  1
%%c8.5
 13
1011.0768527468
 23
-160.90471666440001
 33
0.0
 14
968.57685274679989
 24
-160.90471666440001
 34
0.0
  0
DIMENSION
  5
213
  8
Éíû@É³
  2
*D27
 10
641.10346534730002
 20
-102.76703176860001
 30
0.0
 11
641.10346534730002
 21
-177.76703176859999
 31
0.0
 70
   128
  1
<>
 13
658.92068222049988
 23
-102.76703176860001
 33
0.0
 14
663.42068222049988
 24
-252.76703176859999
 34
0.0
 50
90.0
  0
DIMENSION
  5
222
  8
Éíû@É³
  2
*D28
 10
658.92068222049988
 20
-270.58424864170001
 30
0.0
 11
733.92068222049988
 21
-270.58424864170001
 31
0.0
 70
   128
  1
<>
 13
658.92068222049988
 23
-248.26703176859999
 33
0.0
 14
808.92068222049988
 24
-252.76703176859999
 34
0.0
 50
180.0
  0
DIMENSION
  5
231
  8
Éíû@É³
  2
*D29
 10
907.45246805750014
 20
-84.949814895399996
 30
0.0
 11
915.86740946369991
 21
-84.949814895399996
 31
0.0
 70
   128
  1
<>
 13
907.45246805750014
 23
-102.76703176860001
 33
0.0
 14
891.45246805750003
 24
-108.76703176860001
 34
0.0
  0
DIMENSION
  5
240
  8
Éíû@É³
  2
*D30
 10
891.45246805750003
 20
-84.949814895399996
 30
0.0
 11
864.30468159910004
 21
-84.949814895399996
 31
0.0
 70
   128
  1
<>
 13
891.45246805750003
 23
-108.76703176860001
 33
0.0
 14
875.45246805750003
 24
-102.76703176860001
 34
0.0
  0
DIMENSION
  5
24F
  8
Éíû@É³
  2
*D31
 10
857.75673555929995
 20
-114.76703176860001
 30
0.0
 11
857.75673555929995
 21
-141.76703176859999
 31
0.0
 70
   128
  1
<>
 13
885.45246805750003
 23
-114.76703176860001
 33
0.0
 14
880.45246805749991
 24
-168.76703176859999
 34
0.0
 50
90.0
  0
DIMENSION
  5
25E
  8
Éíû@É³
  2
*D32
 10
857.75673555929995
 20
-168.76703176859999
 30
0.0
 11
857.75673555929995
 21
-195.76703176859999
 31
0.0
 70
   128
  1
<>
 13
880.45246805749991
 23
-168.76703176859999
 33
0.0
 14
890.45246805750014
 24
-222.76703176859999
 34
0.0
 50
90.0
  0
DIMENSION
  5
26D
  8
Éíû@É³
  2
*D33
 10
857.63525118429993
 20
-102.76703176860001
 30
0.0
 11
857.63525118429993
 21
-108.76703176860001
 31
0.0
 70
   128
  1
<>
 13
875.45246805750003
 23
-102.76703176860001
 33
0.0
 14
885.45246805750003
 24
-114.76703176860001
 34
0.0
 50
90.0
  0
DIMENSION
  5
27C
  8
Éíû@É³
  2
*D34
 10
886.45246805750003
 20
-149.19128624960001
 30
0.0
 11
880.95246805750003
 21
-149.19128624960001
 31
0.0
 70
   128
  1
<>
 13
886.45246805750003
 23
-162.76703176859999
 33
0.0
 14
875.45246805750003
 24
-160.0251697894
 34
0.0
  0
DIMENSION
  5
28B
  8
Éíû@É³
  2
*D35
 10
896.45246805749991
 20
-188.56110728940001
 30
0.0
 11
892.45246805750003
 21
-188.56110728940001
 31
0.0
 70
   128
  1
<>
 13
896.45246805749991
 23
-218.51703176859999
 33
0.0
 14
886.45246805750003
 24
-174.76703176859999
 34
0.0
  0
DIMENSION
  5
29A
  8
Éíû@É³
  2
*D36
 10
907.45246805750014
 20
-202.5858794248
 30
0.0
 11
901.95246805750014
 21
-202.5858794248
 31
0.0
 70
   128
  1
<>
 13
907.45246805750014
 23
-216.76703176859999
 33
0.0
 14
896.45246805749991
 24
-216.76703176859999
 34
0.0
  0
DIMENSION
  5
2A9
  8
Éíû@É³
  2
*D37
 10
796.92068222049988
 20
-319.68692427040003
 30
0.0
 11
769.9206822205
 21
-319.68692427040003
 31
0.0
 70
   128
  1
<>
 13
796.92068222049988
 23
-347.3125395811
 33
0.0
 14
742.92068222049988
 24
-352.3125395811
 34
0.0
  0
DIMENSION
  5
2B8
  8
Éíû@É³
  2
*D38
 10
742.92068222049988
 20
-319.6153747912
 30
0.0
 11
715.9206822205
 21
-319.6153747912
 31
0.0
 70
   128
  1
<>
 13
742.92068222049988
 23
-352.3125395811
 33
0.0
 14
688.92068222049988
 24
-342.3125395811
 34
0.0
  0
DIMENSION
  5
2C7
  8
Éíû@É³
  2
*D39
 10
808.92068222049988
 20
-319.49532270790002
 30
0.0
 11
802.92068222049988
 21
-319.49532270790002
 31
0.0
 70
   128
  1
<>
 13
808.92068222049988
 23
-337.3125395811
 33
0.0
 14
796.92068222049988
 24
-347.3125395811
 34
0.0
  0
DIMENSION
  5
2D5
  8
Éíû@É³
  2
*D62
 10
693.09786064367154
 20
-196.86465091437969
 30
0.0
 11
706.3551542486
 21
-207.2844648857
 31
0.0
 70
   133
  1
<>
 13
663.42068222049988
 23
-102.76703176860001
 33
0.0
 14
808.92068222049988
 24
-248.26703176859999
 34
0.0
 15
663.42068222049988
 25
-248.26703176859999
 35
0.0
1001
ACAD
1000
DSTYLE
1002
{
1070
   271
1070
     0
1002
}
  0
DIMENSION
  5
2E2
  8
Éíû@É³
  2
*D63
 10
975.41210363090033
 20
-215.95129274329619
 30
0.0
 11
989.82685274679989
 21
-217.84903046650001
 31
0.0
 70
   133
  1
<>
 13
1011.6071828327
 23
-183.93504675029999
 33
0.0
 14
968.04652266089988
 24
-183.93504675029999
 34
0.0
 15
989.82685274679989
 25
-162.15471666440001
 35
0.0
1001
ACAD
1000
DSTYLE
1002
{
1070
   271
1070
     0
1002
}
  0
DIMENSION
  5
2EF
  8
Éíû@É³
  2
*D64
 10
1007.502795485068
 20
-116.1872002935048
 30
0.0
 11
989.82685274679989
 21
-113.8601182848
 31
0.0
 70
   133
  1
<>
 13
968.04652266089988
 23
-160.37438657850001
 33
0.0
 14
1011.6071828327
 24
-160.37438657850001
 34
0.0
 15
989.82685274679989
 25
-182.15471666440001
 35
0.0
1001
ACAD
1000
DSTYLE
1002
{
1070
   271
1070
     0
1002
}
  0
ENDSEC
  0
EOF
