  0
SECTION
  2
HEADER
  9
$ACADVER
  1
AC1009
  9
$INSBASE
 10
0.0
 20
0.0
 30
0.0
  9
$EXTMIN
 10
493.20574072199992
 20
-461.08034436629998
 30
0.0
  9
$EXTMAX
 10
1180.705740722
 20
13.9196556337
 30
0.0
  9
$LIMMIN
 10
0.0
 20
0.0
  9
$LIMMAX
 10
0.0
 20
0.0
  9
$ORTHOMODE
 70
     0
  9
$REGENMODE
 70
     1
  9
$FILLMODE
 70
     1
  9
$QTEXTMODE
 70
     0
  9
$MIRRTEXT
 70
     1
  9
$DRAGMODE
 70
     2
  9
$LTSCALE
 40
1.0
  9
$OSMODE
 70
    31
  9
$ATTMODE
 70
     1
  9
$TEXTSIZE
 40
0.0
  9
$TRACEWID
 40
0.05
  9
$TEXTSTYLE
  7
STANDARD
  9
$CLAYER
  8
0
  9
$CELTYPE
  6
CONTINUOUS
  9
$CECOLOR
 62
   256
  9
$DIMSCALE
 40
1.0
  9
$DIMASZ
 40
0.18
  9
$DIMEXO
 40
0.0625
  9
$DIMDLI
 40
0.38
  9
$DIMRND
 40
0.0
  9
$DIMDLE
 40
0.0
  9
$DIMEXE
 40
0.18
  9
$DIMTP
 40
0.0
  9
$DIMTM
 40
0.0
  9
$DIMTXT
 40
0.18
  9
$DIMCEN
 40
0.09
  9
$DIMTSZ
 40
0.0
  9
$DIMTOL
 70
     0
  9
$DIMLIM
 70
     0
  9
$DIMTIH
 70
     1
  9
$DIMTOH
 70
     1
  9
$DIMSE1
 70
     0
  9
$DIMSE2
 70
     0
  9
$DIMTAD
 70
     0
  9
$DIMZIN
 70
     0
  9
$DIMBLK
  1

  9
$DIMASO
 70
     1
  9
$DIMSHO
 70
     1
  9
$DIMPOST
  1

  9
$DIMAPOST
  1

  9
$DIMALT
 70
     0
  9
$DIMALTD
 70
     2
  9
$DIMALTF
 40
25.399999999999999
  9
$DIMLFAC
 40
1.0
  9
$DIMTOFL
 70
     0
  9
$DIMTVP
 40
0.0
  9
$DIMTIX
 70
     0
  9
$DIMSOXD
 70
     0
  9
$DIMSAH
 70
     0
  9
$DIMBLK1
  1

  9
$DIMBLK2
  1

  9
$DIMSTYLE
  2
STANDARD
  9
$DIMCLRD
 70
     0
  9
$DIMCLRE
 70
     0
  9
$DIMCLRT
 70
     0
  9
$DIMTFAC
 40
1.0
  9
$DIMGAP
 40
0.09
  9
$LUNITS
 70
     2
  9
$LUPREC
 70
     4
  9
$SKETCHINC
 40
0.1
  9
$FILLETRAD
 40
0.0
  9
$AUNITS
 70
     0
  9
$AUPREC
 70
     0
  9
$MENU
  1
acad
  9
$ELEVATION
 40
0.0
  9
$PELEVATION
 40
0.0
  9
$THICKNESS
 40
0.0
  9
$LIMCHECK
 70
     0
  9
$BLIPMODE
 70
     0
  9
$CHAMFERA
 40
0.0
  9
$CHAMFERB
 40
0.0
  9
$SKPOLY
 70
     0
  9
$TDCREATE
 40
2454862.7426508218
  9
$TDUPDATE
 40
2454862.7428218978
  9
$TDINDWG
 40
0.0001797569
  9
$TDUSRTIMER
 40
0.0001793981
  9
$USRTIMER
 70
     1
  9
$ANGBASE
 50
0.0
  9
$ANGDIR
 70
     0
  9
$PDMODE
 70
     3
  9
$PDSIZE
 40
-1.0
  9
$PLINEWID
 40
0.0
  9
$COORDS
 70
     2
  9
$SPLFRAME
 70
     0
  9
$SPLINETYPE
 70
     6
  9
$SPLINESEGS
 70
     8
  9
$ATTDIA
 70
     0
  9
$ATTREQ
 70
     1
  9
$HANDLING
 70
     1
  9
$HANDSEED
  5
59E
  9
$SURFTAB1
 70
     6
  9
$SURFTAB2
 70
     6
  9
$SURFTYPE
 70
     6
  9
$SURFU
 70
     6
  9
$SURFV
 70
     6
  9
$UCSNAME
  2

  9
$UCSORG
 10
0.0
 20
0.0
 30
0.0
  9
$UCSXDIR
 10
1.0
 20
0.0
 30
0.0
  9
$UCSYDIR
 10
0.0
 20
1.0
 30
0.0
  9
$PUCSNAME
  2

  9
$PUCSORG
 10
0.0
 20
0.0
 30
0.0
  9
$PUCSXDIR
 10
1.0
 20
0.0
 30
0.0
  9
$PUCSYDIR
 10
0.0
 20
1.0
 30
0.0
  9
$USERI1
 70
     0
  9
$USERI2
 70
     0
  9
$USERI3
 70
     0
  9
$USERI4
 70
     0
  9
$USERI5
 70
     0
  9
$USERR1
 40
0.0
  9
$USERR2
 40
0.0
  9
$USERR3
 40
0.0
  9
$USERR4
 40
0.0
  9
$USERR5
 40
0.0
  9
$WORLDVIEW
 70
     1
  9
$SHADEDGE
 70
     3
  9
$SHADEDIF
 70
    70
  9
$TILEMODE
 70
     1
  9
$MAXACTVP
 70
    16
  9
$PLIMCHECK
 70
     0
  9
$PEXTMIN
 10
1.0000000000000000E+020
 20
1.0000000000000000E+020
 30
1.0000000000000000E+020
  9
$PEXTMAX
 10
-1.0000000000000000E+020
 20
-1.0000000000000000E+020
 30
-1.0000000000000000E+020
  9
$PLIMMIN
 10
0.0
 20
0.0
  9
$PLIMMAX
 10
12.0
 20
9.0
  9
$UNITMODE
 70
     0
  9
$VISRETAIN
 70
     0
  9
$PLINEGEN
 70
     1
  9
$PSLTSCALE
 70
     0
  0
ENDSEC
  0
SECTION
  2
TABLES
  0
TABLE
  2
VPORT
 70
     2
  0
VPORT
  2
*ACTIVE
 70
     0
 10
0.0
 20
0.0
 11
1.0
 21
1.0
 12
836.95574072199997
 22
-223.58034436630001
 13
0.0
 23
0.0
 14
1.0
 24
1.0
 15
0.0
 25
0.0
 16
0.0
 26
0.0
 36
1.0
 17
0.0
 27
0.0
 37
0.0
 40
497.4823198093647
 41
1.3903818953323901
 42
50.0
 43
0.0
 44
0.0
 50
0.0
 51
0.0
 71
     0
 72
   100
 73
     1
 74
     1
 75
     0
 76
     0
 77
     0
 78
     0
  0
ENDTAB
  0
TABLE
  2
LTYPE
 70
    11
  0
LTYPE
  2
CONTINUOUS
 70
     0
  3
Solid line
 72
    65
 73
     0
 40
0.0
  0
LTYPE
  2
DOT
 70
     0
  3
. . . . . . . . 
 72
    65
 73
     2
 40
1.0
 49
0.0
 49
-1.0
  0
LTYPE
  2
DASHED
 70
     0
  3
___  ___  ___  ___  
 72
    65
 73
     2
 40
4.0
 49
3.0
 49
-1.0
  0
LTYPE
  2
HIDDEN
 70
     0
  3
__ __ __ __ 
 72
    65
 73
     2
 40
3.0
 49
2.0
 49
-1.0
  0
LTYPE
  2
STITCH
 70
     0
  3
_ _ _ _ 
 72
    65
 73
     2
 40
2.0
 49
1.0
 49
-1.0
  0
LTYPE
  2
CENTER
 70
     0
  3
______  __  ______  __  
 72
    65
 73
     4
 40
43.0
 49
40.0
 49
-1.0
 49
1.0
 49
-1.0
  0
LTYPE
  2
DASHDOT
 70
     0
  3
____ . ____ . 
 72
    65
 73
     4
 40
32.0
 49
30.0
 49
-1.0
 49
0.0
 49
-1.0
  0
LTYPE
  2
BORDER
 70
     0
  3
__ . __ . 
 72
    65
 73
     4
 40
22.0
 49
20.0
 49
-1.0
 49
0.0
 49
-1.0
  0
LTYPE
  2
CUTTING
 70
     0
  3
________   ___   ___   
 72
    65
 73
     6
 40
45.0
 49
40.0
 49
-1.0
 49
1.0
 49
-1.0
 49
1.0
 49
-1.0
  0
LTYPE
  2
PHANTOM
 70
     0
  3
______  __  __  
 72
    65
 73
     6
 40
35.0
 49
30.0
 49
-1.0
 49
1.0
 49
-1.0
 49
1.0
 49
-1.0
  0
LTYPE
  2
DIVIDE
 70
     0
  3
____ . . ____ . . 
 72
    65
 73
     6
 40
23.0
 49
20.0
 49
-1.0
 49
0.0
 49
-1.0
 49
0.0
 49
-1.0
  0
ENDTAB
  0
TABLE
  2
LAYER
 70
     4
  0
LAYER
  2
0
 70
     0
 62
     7
  6
CONTINUOUS
  0
LAYER
  2
┌▓È_1
 70
     0
 62
     7
  6
CONTINUOUS
  0
LAYER
  2
Éíû@É³
 70
     0
 62
     7
  6
CONTINUOUS
  0
LAYER
  2
Defpoints
 70
     0
 62
     7
  6
CONTINUOUS
  0
ENDTAB
  0
TABLE
  2
STYLE
 70
     1
  0
STYLE
  2
STANDARD
 70
     0
 40
0.0
 41
1.0
 50
0.0
 71
     0
 42
0.0
  3
txt
  4
extfont
  0
ENDTAB
  0
TABLE
  2
VIEW
 70
     0
  0
ENDTAB
  0
TABLE
  2
UCS
 70
     0
  0
ENDTAB
  0
TABLE
  2
APPID
 70
     2
  0
APPID
  2
ACAD
 70
     0
  0
APPID
  2
DCO15
 70
     0
  0
ENDTAB
  0
TABLE
  2
DIMSTYLE
 70
     4
  0
DIMSTYLE
  2
STANDARD
 70
     0
  3

  4

  5

  6

  7

 40
1.0
 41
0.18
 42
0.0625
 43
0.38
 44
0.18
 45
0.0
 46
0.0
 47
0.0
 48
0.0
140
0.18
141
0.09
142
0.0
143
25.399999999999999
144
1.0
145
0.0
146
1.0
147
0.09
 71
     0
 72
     0
 73
     1
 74
     1
 75
     0
 76
     0
 77
     0
 78
     0
170
     0
171
     2
172
     0
173
     0
174
     0
175
     0
176
     0
177
     0
178
     0
  0
DIMSTYLE
  2
VELDIM0
 70
     0
  3

  4

  5

  6

  7

 40
1.0
 41
7.5
 42
0.0625
 43
0.38
 44
0.5
 45
0.0
 46
3.0
 47
0.0
 48
0.0
140
7.4965279578999988
141
0.09
142
0.0
143
25.399999999999999
144
1.0
145
0.0
146
1.0
147
0.09
 71
     0
 72
     0
 73
     0
 74
     0
 75
     0
 76
     0
 77
     0
 78
     8
170
     0
171
     2
172
     0
173
     0
174
     0
175
     0
176
     0
177
     0
178
     0
  0
DIMSTYLE
  2
VELDIM1
 70
     0
  3

  4

  5

  6

  7

 40
1.0
 41
7.5
 42
0.0625
 43
0.38
 44
1.25
 45
0.0
 46
7.5
 47
0.0
 48
0.0
140
7.4965279578999988
141
0.09
142
0.0
143
25.399999999999999
144
1.0
145
0.0
146
1.0
147
0.09
 71
     0
 72
     0
 73
     0
 74
     0
 75
     0
 76
     0
 77
     0
 78
     8
170
     0
171
     2
172
     0
173
     0
174
     0
175
     0
176
     0
177
     0
178
     0
  0
DIMSTYLE
  2
VELDIM2
 70
     0
  3

  4

  5

  6

  7

 40
1.0
 41
7.5
 42
0.0625
 43
0.38
 44
1.25
 45
0.0
 46
5.0
 47
0.0
 48
0.0
140
7.4965279578999988
141
0.09
142
0.0
143
25.399999999999999
144
1.0
145
0.0
146
1.0
147
0.09
 71
     0
 72
     0
 73
     0
 74
     0
 75
     0
 76
     0
 77
     0
 78
     8
170
     0
171
     2
172
     0
173
     0
174
     0
175
     0
176
     0
177
     0
178
     0
  0
ENDTAB
  0
ENDSEC
  0
SECTION
  2
BLOCKS
  0
BLOCK
  8
0
  2
$MODEL_SPACE
 70
     0
 10
0.0
 20
0.0
 30
0.0
  3
$MODEL_SPACE
  1

  0
ENDBLK
  5
E
  8
0
  0
BLOCK
 67
     1
  8
0
  2
$PAPER_SPACE
 70
     0
 10
0.0
 20
0.0
 30
0.0
  3
$PAPER_SPACE
  1

  0
ENDBLK
  5
10
 67
     1
  8
0
  0
BLOCK
  8
0
  2
CLUMP0
 70
     0
 10
0.0
 20
0.0
 30
0.0
  3
CLUMP0
  1

  0
CIRCLE
  5
3B
  8
┌▓È_1
 62
     5
 10
804.39571106339997
 20
-370.07486795699998
 30
0.0
 40
4.25
  0
CIRCLE
  5
3C
  8
┌▓È_1
 62
     5
 10
804.39571106339997
 20
-370.07486795699998
 30
0.0
 40
2.5
  0
LINE
  5
3D
  8
┌▓È_1
  6
BORDER
 62
     3
 10
804.39571106339997
 20
-364.07486795699998
 30
0.0
 11
804.39571106339997
 21
-376.07486795699998
 31
0.0
  0
LINE
  5
3E
  8
┌▓È_1
  6
BORDER
 62
     3
 10
798.39571106339986
 20
-370.07486795699998
 30
0.0
 11
810.39571106339986
 21
-370.07486795699998
 31
0.0
  0
ENDBLK
  5
3F
  8
0
  0
BLOCK
  8
0
  2
CLUMP1
 70
     0
 10
0.0
 20
0.0
 30
0.0
  3
CLUMP1
  1

  0
INSERT
  5
44
  8
┌▓È_1
  2
CLUMP2
 10
0.0
 20
0.0
 30
0.0
  0
ENDBLK
  5
4B
  8
0
  0
BLOCK
  8
0
  2
CLUMP2
 70
     0
 10
0.0
 20
0.0
 30
0.0
  3
CLUMP2
  1

  0
CIRCLE
  5
46
  8
┌▓È_1
 62
     5
 10
725.39571106339986
 20
-375.07486795699998
 30
0.0
 40
4.25
  0
CIRCLE
  5
47
  8
┌▓È_1
 62
     5
 10
725.39571106339986
 20
-375.07486795699998
 30
0.0
 40
2.5
  0
LINE
  5
48
  8
┌▓È_1
  6
BORDER
 62
     3
 10
725.39571106339986
 20
-381.07486795699998
 30
0.0
 11
725.39571106339986
 21
-369.07486795699998
 31
0.0
  0
LINE
  5
49
  8
┌▓È_1
  6
BORDER
 62
     3
 10
719.39571106339986
 20
-375.07486795699998
 30
0.0
 11
731.39571106339997
 21
-375.07486795699998
 31
0.0
  0
ENDBLK
  5
4A
  8
0
  0
BLOCK
  8
0
  2
CLUMP3
 70
     0
 10
0.0
 20
0.0
 30
0.0
  3
CLUMP3
  1

  0
CIRCLE
  5
53
  8
┌▓È_1
 62
     5
 10
646.39571106339986
 20
-365.07486795699998
 30
0.0
 40
4.25
  0
CIRCLE
  5
54
  8
┌▓È_1
 62
     5
 10
646.39571106339986
 20
-365.07486795699998
 30
0.0
 40
2.5
  0
LINE
  5
55
  8
┌▓È_1
  6
BORDER
 62
     3
 10
640.39571106339986
 20
-365.07486795699998
 30
0.0
 11
652.39571106339986
 21
-365.07486795699998
 31
0.0
  0
LINE
  5
56
  8
┌▓È_1
  6
BORDER
 62
     3
 10
646.39571106339986
 20
-371.07486795699998
 30
0.0
 11
646.39571106339986
 21
-359.07486795699998
 31
0.0
  0
ENDBLK
  5
57
  8
0
  0
BLOCK
  8
0
  2
*D4
 70
     1
 10
0.0
 20
0.0
 30
0.0
  3
*D4
  1

  0
TEXT
  5
5C
  8
0
 62
     0
 10
930.8515129000001
 20
-29.056935848999998
 30
0.0
 40
7.4965279578999988
  1
16
  0
LINE
  5
5D
  8
0
 62
     0
 10
927.86930814489995
 20
-54.838399481000003
 30
0.0
 11
927.86930814489995
 21
-30.879852547399999
 31
0.0
  0
LINE
  5
5E
  8
0
 62
     0
 10
911.86930814489995
 20
-60.838399481000003
 30
0.0
 11
911.86930814489995
 21
-30.879852547399999
 31
0.0
  0
LINE
  5
5F
  8
0
 62
     0
 10
927.86930814489995
 20
-31.379852547399999
 30
0.0
 11
944.08067988460004
 21
-31.379852547399999
 31
0.0
  0
LINE
  5
60
  8
0
 62
     0
 10
927.86930814489995
 20
-31.379852547399999
 30
0.0
 11
926.44179057190001
 21
-31.379852547399999
 31
0.0
  0
LINE
  5
61
  8
0
 62
     0
 10
911.86930814489995
 20
-31.379852547399999
 30
0.0
 11
944.08067988460004
 21
-31.379852547399999
 31
0.0
  0
LINE
  5
62
  8
0
 62
     0
 10
911.86930814489995
 20
-31.379852547399999
 30
0.0
 11
926.44179057190001
 21
-31.379852547399999
 31
0.0
  0
LINE
  5
63
  8
0
 62
     0
 10
911.86930814489995
 20
-31.379852547399999
 30
0.0
 11
914.86930814489995
 21
-31.379852547399999
 31
0.0
  0
SOLID
  5
64
  8
0
 62
     0
 10
911.86930814489995
 20
-31.379852547399999
 30
0.0
 11
919.36930814489995
 21
-29.504852547399999
 31
0.0
 12
919.36930814489995
 22
-33.254852547399999
 32
0.0
 13
917.49430814490006
 23
-31.379852547399999
 33
0.0
  0
LINE
  5
65
  8
0
 62
     0
 10
927.86930814489995
 20
-31.379852547399999
 30
0.0
 11
924.86930814490006
 21
-31.379852547399999
 31
0.0
  0
SOLID
  5
66
  8
0
 62
     0
 10
927.86930814489995
 20
-31.379852547399999
 30
0.0
 11
920.36930814490006
 21
-33.254852547399999
 31
0.0
 12
920.36930814490006
 22
-29.504852547399999
 32
0.0
 13
922.24430814489995
 23
-31.379852547399999
 33
0.0
  0
ENDBLK
  5
67
  8
0
  0
BLOCK
  8
0
  2
*D5
 70
     1
 10
0.0
 20
0.0
 30
0.0
  3
*D5
  1

  0
TEXT
  5
6C
  8
0
 62
     0
 10
881.0873527437999
 20
-29.056935848999998
 30
0.0
 40
7.4965279578999988
  1
16
  0
LINE
  5
6D
  8
0
 62
     0
 10
911.86930814489995
 20
-60.838399481000003
 30
0.0
 11
911.86930814489995
 21
-30.879852547399999
 31
0.0
  0
LINE
  5
6E
  8
0
 62
     0
 10
895.86930814489995
 20
-54.838399481000003
 30
0.0
 11
895.86930814489995
 21
-30.879852547399999
 31
0.0
  0
LINE
  5
6F
  8
0
 62
     0
 10
911.86930814489995
 20
-31.379852547399999
 30
0.0
 11
894.31651972830014
 21
-31.379852547399999
 31
0.0
  0
LINE
  5
70
  8
0
 62
     0
 10
911.86930814489995
 20
-31.379852547399999
 30
0.0
 11
876.67763041559999
 21
-31.379852547399999
 31
0.0
  0
LINE
  5
71
  8
0
 62
     0
 10
895.86930814489995
 20
-31.379852547399999
 30
0.0
 11
894.31651972830014
 21
-31.379852547399999
 31
0.0
  0
LINE
  5
72
  8
0
 62
     0
 10
895.86930814489995
 20
-31.379852547399999
 30
0.0
 11
876.67763041559999
 21
-31.379852547399999
 31
0.0
  0
LINE
  5
73
  8
0
 62
     0
 10
895.86930814489995
 20
-31.379852547399999
 30
0.0
 11
898.86930814489995
 21
-31.379852547399999
 31
0.0
  0
SOLID
  5
74
  8
0
 62
     0
 10
895.86930814489995
 20
-31.379852547399999
 30
0.0
 11
903.36930814489995
 21
-29.504852547399999
 31
0.0
 12
903.36930814489995
 22
-33.254852547399999
 32
0.0
 13
901.49430814490006
 23
-31.379852547399999
 33
0.0
  0
LINE
  5
75
  8
0
 62
     0
 10
911.86930814489995
 20
-31.379852547399999
 30
0.0
 11
908.86930814490006
 21
-31.379852547399999
 31
0.0
  0
SOLID
  5
76
  8
0
 62
     0
 10
911.86930814489995
 20
-31.379852547399999
 30
0.0
 11
904.36930814490006
 21
-33.254852547399999
 31
0.0
 12
904.36930814490006
 22
-29.504852547399999
 32
0.0
 13
906.24430814489995
 23
-31.379852547399999
 33
0.0
  0
ENDBLK
  5
77
  8
0
  0
BLOCK
  8
0
  2
*D6
 70
     1
 10
0.0
 20
0.0
 30
0.0
  3
*D6
  1

  0
TEXT
  5
7C
  8
0
 62
     0
 10
907.45958581669993
 20
-9.0894812726000005
 30
0.0
 40
7.4965279578999988
  1
32
  0
LINE
  5
7D
  8
0
 62
     0
 10
927.86930814489995
 20
-53.338399481000003
 30
0.0
 11
927.86930814489995
 21
-11.662397971100001
 31
0.0
  0
LINE
  5
7E
  8
0
 62
     0
 10
895.86930814489995
 20
-53.338399481000003
 30
0.0
 11
895.86930814489995
 21
-11.662397971100001
 31
0.0
  0
LINE
  5
7F
  8
0
 62
     0
 10
927.86930814489995
 20
-12.912397971100001
 30
0.0
 11
920.68875280129998
 21
-12.912397971100001
 31
0.0
  0
LINE
  5
80
  8
0
 62
     0
 10
927.86930814489995
 20
-12.912397971100001
 30
0.0
 11
903.04986348850014
 21
-12.912397971100001
 31
0.0
  0
LINE
  5
81
  8
0
 62
     0
 10
895.86930814489995
 20
-12.912397971100001
 30
0.0
 11
920.68875280129998
 21
-12.912397971100001
 31
0.0
  0
LINE
  5
82
  8
0
 62
     0
 10
895.86930814489995
 20
-12.912397971100001
 30
0.0
 11
903.04986348850014
 21
-12.912397971100001
 31
0.0
  0
LINE
  5
83
  8
0
 62
     0
 10
895.86930814489995
 20
-12.912397971100001
 30
0.0
 11
888.36930814490006
 21
-12.912397971100001
 31
0.0
  0
SOLID
  5
84
  8
0
 62
     0
 10
895.86930814489995
 20
-12.912397971100001
 30
0.0
 11
888.36930814490006
 21
-14.787397971100001
 31
0.0
 12
888.36930814490006
 22
-11.037397971100001
 32
0.0
 13
890.24430814489995
 23
-12.912397971100001
 33
0.0
  0
LINE
  5
85
  8
0
 62
     0
 10
927.86930814489995
 20
-12.912397971100001
 30
0.0
 11
935.36930814489995
 21
-12.912397971100001
 31
0.0
  0
SOLID
  5
86
  8
0
 62
     0
 10
927.86930814489995
 20
-12.912397971100001
 30
0.0
 11
935.36930814489995
 21
-11.037397971100001
 31
0.0
 12
935.36930814489995
 22
-14.787397971100001
 32
0.0
 13
933.49430814490006
 23
-12.912397971100001
 33
0.0
  0
ENDBLK
  5
87
  8
0
  0
BLOCK
  8
0
  2
*D7
 70
     1
 10
0.0
 20
0.0
 30
0.0
  3
*D7
  1

  0
TEXT
  5
D6
  8
0
 62
     0
 10
842.63596320850002
 20
-350.9027868997
 30
0.0
 40
7.4965279578999988
  1
16
 50
90.0
  0
LINE
  5
D7
  8
0
 62
     0
 10
811.39571106339997
 20
-370.07486795699998
 30
0.0
 11
845.45887990699998
 21
-370.07486795699998
 31
0.0
  0
LINE
  5
D8
  8
0
 62
     0
 10
817.39571106339986
 20
-354.07486795699998
 30
0.0
 11
845.45887990699998
 21
-354.07486795699998
 31
0.0
  0
LINE
  5
D9
  8
0
 62
     0
 10
844.95887990699987
 20
-370.07486795699998
 30
0.0
 11
844.95887990699987
 21
-337.67361991519999
 31
0.0
  0
LINE
  5
DA
  8
0
 62
     0
 10
844.95887990699987
 20
-370.07486795699998
 30
0.0
 11
844.95887990699987
 21
-355.31250922790002
 31
0.0
  0
LINE
  5
DB
  8
0
 62
     0
 10
844.95887990699987
 20
-354.07486795699998
 30
0.0
 11
844.95887990699987
 21
-337.67361991519999
 31
0.0
  0
LINE
  5
DC
  8
0
 62
     0
 10
844.95887990699987
 20
-354.07486795699998
 30
0.0
 11
844.95887990699987
 21
-355.31250922790002
 31
0.0
  0
LINE
  5
DD
  8
0
 62
     0
 10
844.95887990699987
 20
-354.07486795699998
 30
0.0
 11
844.95887990699987
 21
-357.07486795699998
 31
0.0
  0
SOLID
  5
DE
  8
0
 62
     0
 10
844.95887990699987
 20
-354.07486795699998
 30
0.0
 11
846.83387990699998
 21
-361.57486795699998
 31
0.0
 12
843.08387990699987
 22
-361.57486795699998
 32
0.0
 13
844.95887990699987
 23
-359.69986795699998
 33
0.0
  0
LINE
  5
DF
  8
0
 62
     0
 10
844.95887990699987
 20
-370.07486795699998
 30
0.0
 11
844.95887990699987
 21
-367.07486795699998
 31
0.0
  0
SOLID
  5
E0
  8
0
 62
     0
 10
844.95887990699987
 20
-370.07486795699998
 30
0.0
 11
843.08387990699987
 21
-362.57486795699998
 31
0.0
 12
846.83387990699998
 22
-362.57486795699998
 32
0.0
 13
844.95887990699987
 23
-364.44986795699998
 33
0.0
  0
ENDBLK
  5
E1
  8
0
  0
BLOCK
  8
0
  2
*D8
 70
     1
 10
0.0
 20
0.0
 30
0.0
  3
*D8
  1

  0
TEXT
  5
10A
  8
0
 62
     0
 10
1051.7682187557
 20
-103.35724320600001
 30
0.0
 40
7.4965279578999988
  1
%%c8.5
  0
LINE
  5
10B
  8
0
 62
     0
 10
1084.0425245761
 20
-147.5031963628
 30
0.0
 11
1084.0425245761
 21
-105.1801599045
 31
0.0
  0
LINE
  5
10C
  8
0
 62
     0
 10
1041.5425245761
 20
-147.5031963628
 30
0.0
 11
1041.5425245761
 21
-105.1801599045
 31
0.0
  0
LINE
  5
10D
  8
0
 62
     0
 10
1084.0425245761
 20
-105.6801599045
 30
0.0
 11
1078.2265527248001
 21
-105.6801599045
 31
0.0
  0
LINE
  5
10E
  8
0
 62
     0
 10
1084.0425245761
 20
-105.6801599045
 30
0.0
 11
1047.3584964275001
 21
-105.6801599045
 31
0.0
  0
LINE
  5
10F
  8
0
 62
     0
 10
1041.5425245761
 20
-105.6801599045
 30
0.0
 11
1078.2265527248001
 21
-105.6801599045
 31
0.0
  0
LINE
  5
110
  8
0
 62
     0
 10
1041.5425245761
 20
-105.6801599045
 30
0.0
 11
1047.3584964275001
 21
-105.6801599045
 31
0.0
  0
LINE
  5
111
  8
0
 62
     0
 10
1041.5425245761
 20
-105.6801599045
 30
0.0
 11
1038.5425245761
 21
-105.6801599045
 31
0.0
  0
SOLID
  5
112
  8
0
 62
     0
 10
1041.5425245761
 20
-105.6801599045
 30
0.0
 11
1034.0425245761
 21
-107.5551599045
 31
0.0
 12
1034.0425245761
 22
-103.8051599045
 32
0.0
 13
1035.9175245761
 23
-105.6801599045
 33
0.0
  0
LINE
  5
113
  8
0
 62
     0
 10
1084.0425245761
 20
-105.6801599045
 30
0.0
 11
1087.0425245761
 21
-105.6801599045
 31
0.0
  0
SOLID
  5
114
  8
0
 62
     0
 10
1084.0425245761
 20
-105.6801599045
 30
0.0
 11
1091.5425245761
 21
-103.8051599045
 31
0.0
 12
1091.5425245761
 22
-107.5551599045
 32
0.0
 13
1089.6675245761
 23
-105.6801599045
 33
0.0
  0
ENDBLK
  5
115
  8
0
  0
BLOCK
  8
0
  2
*D9
 70
     1
 10
0.0
 20
0.0
 30
0.0
  3
*D9
  1

  0
TEXT
  5
119
  8
0
 62
     0
 10
1056.1779410838001
 20
-123.7384281019
 30
0.0
 40
7.4965279578999988
  1
%%c5
  0
LINE
  5
11A
  8
0
 62
     0
 10
1075.2925245761
 20
-156.2531963628
 30
0.0
 11
1075.2925245761
 21
-125.56134480030001
 31
0.0
  0
LINE
  5
11B
  8
0
 62
     0
 10
1050.2925245761
 20
-156.2531963628
 30
0.0
 11
1050.2925245761
 21
-125.56134480030001
 31
0.0
  0
LINE
  5
11C
  8
0
 62
     0
 10
1075.2925245761
 20
-126.06134480030001
 30
0.0
 11
1073.8168303965999
 21
-126.06134480030001
 31
0.0
  0
LINE
  5
11D
  8
0
 62
     0
 10
1075.2925245761
 20
-126.06134480030001
 30
0.0
 11
1051.7682187557
 21
-126.06134480030001
 31
0.0
  0
LINE
  5
11E
  8
0
 62
     0
 10
1050.2925245761
 20
-126.06134480030001
 30
0.0
 11
1073.8168303965999
 21
-126.06134480030001
 31
0.0
  0
LINE
  5
11F
  8
0
 62
     0
 10
1050.2925245761
 20
-126.06134480030001
 30
0.0
 11
1051.7682187557
 21
-126.06134480030001
 31
0.0
  0
LINE
  5
120
  8
0
 62
     0
 10
1050.2925245761
 20
-126.06134480030001
 30
0.0
 11
1047.2925245761
 21
-126.06134480030001
 31
0.0
  0
SOLID
  5
121
  8
0
 62
     0
 10
1050.2925245761
 20
-126.06134480030001
 30
0.0
 11
1042.7925245761
 21
-127.93634480030001
 31
0.0
 12
1042.7925245761
 22
-124.18634480030001
 32
0.0
 13
1044.6675245761
 23
-126.06134480030001
 33
0.0
  0
LINE
  5
122
  8
0
 62
     0
 10
1075.2925245761
 20
-126.06134480030001
 30
0.0
 11
1078.2925245761
 21
-126.06134480030001
 31
0.0
  0
SOLID
  5
123
  8
0
 62
     0
 10
1075.2925245761
 20
-126.06134480030001
 30
0.0
 11
1082.7925245761
 21
-124.18634480030001
 31
0.0
 12
1082.7925245761
 22
-127.93634480030001
 32
0.0
 13
1080.9175245761
 23
-126.06134480030001
 33
0.0
  0
ENDBLK
  5
124
  8
0
  0
BLOCK
  8
0
  2
*D10
 70
     1
 10
0.0
 20
0.0
 30
0.0
  3
*D10
  1

  0
TEXT
  5
128
  8
0
 62
     0
 10
1051.7682187557
 20
-187.08698336809999
 30
0.0
 40
7.4965279578999988
  1
%%c8.5
  0
LINE
  5
129
  8
0
 62
     0
 10
1041.5425245761
 20
-172.0031963628
 30
0.0
 11
1041.5425245761
 21
-189.9099000665
 31
0.0
  0
LINE
  5
12A
  8
0
 62
     0
 10
1084.0425245761
 20
-172.0031963628
 30
0.0
 11
1084.0425245761
 21
-189.9099000665
 31
0.0
  0
LINE
  5
12B
  8
0
 62
     0
 10
1041.5425245761
 20
-189.4099000665
 30
0.0
 11
1078.2265527248001
 21
-189.4099000665
 31
0.0
  0
LINE
  5
12C
  8
0
 62
     0
 10
1041.5425245761
 20
-189.4099000665
 30
0.0
 11
1047.3584964275001
 21
-189.4099000665
 31
0.0
  0
LINE
  5
12D
  8
0
 62
     0
 10
1084.0425245761
 20
-189.4099000665
 30
0.0
 11
1078.2265527248001
 21
-189.4099000665
 31
0.0
  0
LINE
  5
12E
  8
0
 62
     0
 10
1084.0425245761
 20
-189.4099000665
 30
0.0
 11
1047.3584964275001
 21
-189.4099000665
 31
0.0
  0
LINE
  5
12F
  8
0
 62
     0
 10
1084.0425245761
 20
-189.4099000665
 30
0.0
 11
1087.0425245761
 21
-189.4099000665
 31
0.0
  0
SOLID
  5
130
  8
0
 62
     0
 10
1084.0425245761
 20
-189.4099000665
 30
0.0
 11
1091.5425245761
 21
-187.5349000665
 31
0.0
 12
1091.5425245761
 22
-191.2849000665
 32
0.0
 13
1089.6675245761
 23
-189.4099000665
 33
0.0
  0
LINE
  5
131
  8
0
 62
     0
 10
1041.5425245761
 20
-189.4099000665
 30
0.0
 11
1038.5425245761
 21
-189.4099000665
 31
0.0
  0
SOLID
  5
132
  8
0
 62
     0
 10
1041.5425245761
 20
-189.4099000665
 30
0.0
 11
1034.0425245761
 21
-191.2849000665
 31
0.0
 12
1034.0425245761
 22
-187.5349000665
 32
0.0
 13
1035.9175245761
 23
-189.4099000665
 33
0.0
  0
ENDBLK
  5
133
  8
0
  0
BLOCK
  8
0
  2
*D11
 70
     1
 10
0.0
 20
0.0
 30
0.0
  3
*D11
  1

  0
TEXT
  5
137
  8
0
 62
     0
 10
842.63596320850002
 20
-398.41183637889998
 30
0.0
 40
7.4965279578999988
  1
16
 50
90.0
  0
LINE
  5
138
  8
0
 62
     0
 10
817.39571106339986
 20
-386.07486795699998
 30
0.0
 11
845.45887990699998
 21
-386.07486795699998
 31
0.0
  0
LINE
  5
139
  8
0
 62
     0
 10
811.39571106339997
 20
-370.07486795699998
 30
0.0
 11
845.45887990699998
 21
-370.07486795699998
 31
0.0
  0
LINE
  5
13A
  8
0
 62
     0
 10
844.95887990699987
 20
-386.07486795699998
 30
0.0
 11
844.95887990699987
 21
-385.18266939429998
 31
0.0
  0
LINE
  5
13B
  8
0
 62
     0
 10
844.95887990699987
 20
-386.07486795699998
 30
0.0
 11
844.95887990699987
 21
-402.8215587071
 31
0.0
  0
LINE
  5
13C
  8
0
 62
     0
 10
844.95887990699987
 20
-370.07486795699998
 30
0.0
 11
844.95887990699987
 21
-385.18266939429998
 31
0.0
  0
LINE
  5
13D
  8
0
 62
     0
 10
844.95887990699987
 20
-370.07486795699998
 30
0.0
 11
844.95887990699987
 21
-402.8215587071
 31
0.0
  0
LINE
  5
13E
  8
0
 62
     0
 10
844.95887990699987
 20
-370.07486795699998
 30
0.0
 11
844.95887990699987
 21
-373.07486795699998
 31
0.0
  0
SOLID
  5
13F
  8
0
 62
     0
 10
844.95887990699987
 20
-370.07486795699998
 30
0.0
 11
846.83387990699998
 21
-377.57486795699998
 31
0.0
 12
843.08387990699987
 22
-377.57486795699998
 32
0.0
 13
844.95887990699987
 23
-375.69986795699998
 33
0.0
  0
LINE
  5
140
  8
0
 62
     0
 10
844.95887990699987
 20
-386.07486795699998
 30
0.0
 11
844.95887990699987
 21
-383.07486795699998
 31
0.0
  0
SOLID
  5
141
  8
0
 62
     0
 10
844.95887990699987
 20
-386.07486795699998
 30
0.0
 11
843.08387990699987
 21
-378.57486795699998
 31
0.0
 12
846.83387990699998
 22
-378.57486795699998
 32
0.0
 13
844.95887990699987
 23
-380.44986795699998
 33
0.0
  0
ENDBLK
  5
142
  8
0
  0
BLOCK
  8
0
  2
*D12
 70
     1
 10
0.0
 20
0.0
 30
0.0
  3
*D12
  1

  0
TEXT
  5
146
  8
0
 62
     0
 10
757.05376919809999
 20
-384.98459028519989
 30
0.0
 40
7.4965279578999988
  1
11
 50
90.0
  0
LINE
  5
147
  8
0
 62
     0
 10
739.0863035113
 20
-386.07486795699998
 30
0.0
 11
759.87668589659995
 21
-386.07486795699998
 31
0.0
  0
LINE
  5
148
  8
0
 62
     0
 10
732.39571106339986
 20
-375.07486795699998
 30
0.0
 11
759.87668589659995
 21
-375.07486795699998
 31
0.0
  0
LINE
  5
149
  8
0
 62
     0
 10
759.37668589660007
 20
-386.07486795699998
 30
0.0
 11
759.37668589660007
 21
-386.07486795699998
 31
0.0
  0
LINE
  5
14A
  8
0
 62
     0
 10
759.37668589660007
 20
-386.07486795699998
 30
0.0
 11
759.37668589660007
 21
-375.07486795699998
 31
0.0
  0
LINE
  5
14B
  8
0
 62
     0
 10
759.37668589660007
 20
-375.07486795699998
 30
0.0
 11
759.37668589660007
 21
-386.07486795699998
 31
0.0
  0
LINE
  5
14C
  8
0
 62
     0
 10
759.37668589660007
 20
-375.07486795699998
 30
0.0
 11
759.37668589660007
 21
-375.07486795699998
 31
0.0
  0
LINE
  5
14D
  8
0
 62
     0
 10
759.37668589660007
 20
-375.07486795699998
 30
0.0
 11
759.37668589660007
 21
-372.07486795699998
 31
0.0
  0
SOLID
  5
14E
  8
0
 62
     0
 10
759.37668589660007
 20
-375.07486795699998
 30
0.0
 11
757.50168589660007
 21
-367.57486795699998
 31
0.0
 12
761.25168589659995
 22
-367.57486795699998
 32
0.0
 13
759.37668589660007
 23
-369.44986795699998
 33
0.0
  0
LINE
  5
14F
  8
0
 62
     0
 10
759.37668589660007
 20
-386.07486795699998
 30
0.0
 11
759.37668589660007
 21
-389.07486795699998
 31
0.0
  0
SOLID
  5
150
  8
0
 62
     0
 10
759.37668589660007
 20
-386.07486795699998
 30
0.0
 11
761.25168589659995
 21
-393.57486795699998
 31
0.0
 12
757.50168589660007
 22
-393.57486795699998
 32
0.0
 13
759.37668589660007
 23
-391.69986795699998
 33
0.0
  0
ENDBLK
  5
151
  8
0
  0
BLOCK
  8
0
  2
*D13
 70
     1
 10
0.0
 20
0.0
 30
0.0
  3
*D13
  1

  0
TEXT
  5
155
  8
0
 62
     0
 10
693.94681780240001
 20
-375.48459028519989
 30
0.0
 40
7.4965279578999988
  1
10
 50
90.0
  0
LINE
  5
156
  8
0
 62
     0
 10
653.39571106339986
 20
-365.07486795699998
 30
0.0
 11
696.76973450089997
 21
-365.07486795699998
 31
0.0
  0
LINE
  5
157
  8
0
 62
     0
 10
718.39571106339997
 20
-375.07486795699998
 30
0.0
 11
695.76973450089986
 21
-375.07486795699998
 31
0.0
  0
LINE
  5
158
  8
0
 62
     0
 10
696.26973450089986
 20
-365.07486795699998
 30
0.0
 11
696.26973450089986
 21
-365.07486795699998
 31
0.0
  0
LINE
  5
159
  8
0
 62
     0
 10
696.26973450089986
 20
-365.07486795699998
 30
0.0
 11
696.26973450089986
 21
-375.07486795699998
 31
0.0
  0
LINE
  5
15A
  8
0
 62
     0
 10
696.26973450089986
 20
-375.07486795699998
 30
0.0
 11
696.26973450089986
 21
-365.07486795699998
 31
0.0
  0
LINE
  5
15B
  8
0
 62
     0
 10
696.26973450089986
 20
-375.07486795699998
 30
0.0
 11
696.26973450089986
 21
-375.07486795699998
 31
0.0
  0
LINE
  5
15C
  8
0
 62
     0
 10
696.26973450089986
 20
-375.07486795699998
 30
0.0
 11
696.26973450089986
 21
-378.07486795699998
 31
0.0
  0
SOLID
  5
15D
  8
0
 62
     0
 10
696.26973450089986
 20
-375.07486795699998
 30
0.0
 11
698.14473450089997
 21
-382.57486795699998
 31
0.0
 12
694.39473450089986
 22
-382.57486795699998
 32
0.0
 13
696.26973450089986
 23
-380.69986795699998
 33
0.0
  0
LINE
  5
15E
  8
0
 62
     0
 10
696.26973450089986
 20
-365.07486795699998
 30
0.0
 11
696.26973450089986
 21
-362.07486795699998
 31
0.0
  0
SOLID
  5
15F
  8
0
 62
     0
 10
696.26973450089986
 20
-365.07486795699998
 30
0.0
 11
694.39473450089986
 21
-357.57486795699998
 31
0.0
 12
698.14473450089997
 22
-357.57486795699998
 32
0.0
 13
696.26973450089986
 23
-359.44986795699998
 33
0.0
  0
ENDBLK
  5
160
  8
0
  0
BLOCK
  8
0
  2
*D14
 70
     1
 10
0.0
 20
0.0
 30
0.0
  3
*D14
  1

  0
TEXT
  5
164
  8
0
 62
     0
 10
681.48598873519995
 20
-333.95611792520009
 30
0.0
 40
7.4965279578999988
  1
79
  0
LINE
  5
165
  8
0
 62
     0
 10
725.39571106339986
 20
-368.07486795699998
 30
0.0
 11
725.39571106339986
 21
-335.77903462360001
 31
0.0
  0
LINE
  5
166
  8
0
 62
     0
 10
646.39571106339986
 20
-358.07486795699998
 30
0.0
 11
646.39571106339986
 21
-335.77903462360001
 31
0.0
  0
LINE
  5
167
  8
0
 62
     0
 10
725.39571106339986
 20
-336.27903462360001
 30
0.0
 11
694.71515571980001
 21
-336.27903462360001
 31
0.0
  0
LINE
  5
168
  8
0
 62
     0
 10
725.39571106339986
 20
-336.27903462360001
 30
0.0
 11
677.07626640699993
 21
-336.27903462360001
 31
0.0
  0
LINE
  5
169
  8
0
 62
     0
 10
646.39571106339986
 20
-336.27903462360001
 30
0.0
 11
694.71515571980001
 21
-336.27903462360001
 31
0.0
  0
LINE
  5
16A
  8
0
 62
     0
 10
646.39571106339986
 20
-336.27903462360001
 30
0.0
 11
677.07626640699993
 21
-336.27903462360001
 31
0.0
  0
LINE
  5
16B
  8
0
 62
     0
 10
646.39571106339986
 20
-336.27903462360001
 30
0.0
 11
649.39571106339986
 21
-336.27903462360001
 31
0.0
  0
SOLID
  5
16C
  8
0
 62
     0
 10
646.39571106339986
 20
-336.27903462360001
 30
0.0
 11
653.89571106339986
 21
-334.40403462360001
 31
0.0
 12
653.89571106339986
 22
-338.15403462360001
 32
0.0
 13
652.02071106339986
 23
-336.27903462360001
 33
0.0
  0
LINE
  5
16D
  8
0
 62
     0
 10
725.39571106339986
 20
-336.27903462360001
 30
0.0
 11
722.39571106339997
 21
-336.27903462360001
 31
0.0
  0
SOLID
  5
16E
  8
0
 62
     0
 10
725.39571106339986
 20
-336.27903462360001
 30
0.0
 11
717.89571106339997
 21
-338.15403462360001
 31
0.0
 12
717.89571106339997
 22
-334.40403462360001
 32
0.0
 13
719.77071106339997
 23
-336.27903462360001
 33
0.0
  0
ENDBLK
  5
16F
  8
0
  0
BLOCK
  8
0
  2
*D15
 70
     1
 10
0.0
 20
0.0
 30
0.0
  3
*D15
  1

  0
TEXT
  5
173
  8
0
 62
     0
 10
760.48598873520007
 20
-334.24070298779998
 30
0.0
 40
7.4965279578999988
  1
79
  0
LINE
  5
174
  8
0
 62
     0
 10
804.39571106339997
 20
-363.07486795699998
 30
0.0
 11
804.39571106339997
 21
-336.0636196863
 31
0.0
  0
LINE
  5
175
  8
0
 62
     0
 10
725.39571106339986
 20
-368.07486795699998
 30
0.0
 11
725.39571106339986
 21
-336.0636196863
 31
0.0
  0
LINE
  5
176
  8
0
 62
     0
 10
804.39571106339997
 20
-336.5636196863
 30
0.0
 11
773.71515571980001
 21
-336.5636196863
 31
0.0
  0
LINE
  5
177
  8
0
 62
     0
 10
804.39571106339997
 20
-336.5636196863
 30
0.0
 11
756.07626640699993
 21
-336.5636196863
 31
0.0
  0
LINE
  5
178
  8
0
 62
     0
 10
725.39571106339986
 20
-336.5636196863
 30
0.0
 11
773.71515571980001
 21
-336.5636196863
 31
0.0
  0
LINE
  5
179
  8
0
 62
     0
 10
725.39571106339986
 20
-336.5636196863
 30
0.0
 11
756.07626640699993
 21
-336.5636196863
 31
0.0
  0
LINE
  5
17A
  8
0
 62
     0
 10
725.39571106339986
 20
-336.5636196863
 30
0.0
 11
728.39571106339986
 21
-336.5636196863
 31
0.0
  0
SOLID
  5
17B
  8
0
 62
     0
 10
725.39571106339986
 20
-336.5636196863
 30
0.0
 11
732.89571106339986
 21
-334.6886196863
 31
0.0
 12
732.89571106339986
 22
-338.4386196863
 32
0.0
 13
731.02071106339986
 23
-336.5636196863
 33
0.0
  0
LINE
  5
17C
  8
0
 62
     0
 10
804.39571106339997
 20
-336.5636196863
 30
0.0
 11
801.39571106339986
 21
-336.5636196863
 31
0.0
  0
SOLID
  5
17D
  8
0
 62
     0
 10
804.39571106339997
 20
-336.5636196863
 30
0.0
 11
796.89571106339997
 21
-338.4386196863
 31
0.0
 12
796.89571106339997
 22
-334.6886196863
 32
0.0
 13
798.77071106339997
 23
-336.5636196863
 33
0.0
  0
ENDBLK
  5
17E
  8
0
  0
BLOCK
  8
0
  2
*D16
 70
     1
 10
0.0
 20
0.0
 30
0.0
  3
*D16
  1

  0
TEXT
  5
182
  8
0
 62
     0
 10
674.12343065640005
 20
-363.9845902852
 30
0.0
 40
7.4965279578999988
  1
11
 50
90.0
  0
LINE
  5
183
  8
0
 62
     0
 10
653.39571106339986
 20
-365.07486795699998
 30
0.0
 11
676.94634735490001
 21
-365.07486795699998
 31
0.0
  0
LINE
  5
184
  8
0
 62
     0
 10
656.15596496959995
 20
-354.07486795699998
 30
0.0
 11
676.94634735490001
 21
-354.07486795699998
 31
0.0
  0
LINE
  5
185
  8
0
 62
     0
 10
676.44634735490001
 20
-365.07486795699998
 30
0.0
 11
676.44634735490001
 21
-365.07486795699998
 31
0.0
  0
LINE
  5
186
  8
0
 62
     0
 10
676.44634735490001
 20
-365.07486795699998
 30
0.0
 11
676.44634735490001
 21
-354.07486795699998
 31
0.0
  0
LINE
  5
187
  8
0
 62
     0
 10
676.44634735490001
 20
-354.07486795699998
 30
0.0
 11
676.44634735490001
 21
-365.07486795699998
 31
0.0
  0
LINE
  5
188
  8
0
 62
     0
 10
676.44634735490001
 20
-354.07486795699998
 30
0.0
 11
676.44634735490001
 21
-354.07486795699998
 31
0.0
  0
LINE
  5
189
  8
0
 62
     0
 10
676.44634735490001
 20
-354.07486795699998
 30
0.0
 11
676.44634735490001
 21
-351.07486795699998
 31
0.0
  0
SOLID
  5
18A
  8
0
 62
     0
 10
676.44634735490001
 20
-354.07486795699998
 30
0.0
 11
674.57134735490001
 21
-346.57486795699998
 31
0.0
 12
678.3213473548999
 22
-346.57486795699998
 32
0.0
 13
676.44634735490001
 23
-348.44986795699998
 33
0.0
  0
LINE
  5
18B
  8
0
 62
     0
 10
676.44634735490001
 20
-365.07486795699998
 30
0.0
 11
676.44634735490001
 21
-368.07486795699998
 31
0.0
  0
SOLID
  5
18C
  8
0
 62
     0
 10
676.44634735490001
 20
-365.07486795699998
 30
0.0
 11
678.3213473548999
 21
-372.57486795699998
 31
0.0
 12
674.57134735490001
 22
-372.57486795699998
 32
0.0
 13
676.44634735490001
 23
-370.69986795699998
 33
0.0
  0
ENDBLK
  5
18D
  8
0
  0
BLOCK
  8
0
  2
*D17
 70
     1
 10
0.0
 20
0.0
 30
0.0
  3
*D17
  1

  0
TEXT
  5
191
  8
0
 62
     0
 10
626.98598873519995
 20
-333.85268215449997
 30
0.0
 40
7.4965279578999988
  1
30
  0
LINE
  5
192
  8
0
 62
     0
 10
646.39571106339986
 20
-358.07486795699998
 30
0.0
 11
646.39571106339986
 21
-335.675598853
 31
0.0
  0
LINE
  5
193
  8
0
 62
     0
 10
616.39571106339986
 20
-353.07486795699998
 30
0.0
 11
616.39571106339986
 21
-335.675598853
 31
0.0
  0
LINE
  5
194
  8
0
 62
     0
 10
646.39571106339986
 20
-336.175598853
 30
0.0
 11
640.21515571980001
 21
-336.175598853
 31
0.0
  0
LINE
  5
195
  8
0
 62
     0
 10
646.39571106339986
 20
-336.175598853
 30
0.0
 11
622.57626640699993
 21
-336.175598853
 31
0.0
  0
LINE
  5
196
  8
0
 62
     0
 10
616.39571106339986
 20
-336.175598853
 30
0.0
 11
640.21515571980001
 21
-336.175598853
 31
0.0
  0
LINE
  5
197
  8
0
 62
     0
 10
616.39571106339986
 20
-336.175598853
 30
0.0
 11
622.57626640699993
 21
-336.175598853
 31
0.0
  0
LINE
  5
198
  8
0
 62
     0
 10
616.39571106339986
 20
-336.175598853
 30
0.0
 11
613.39571106339997
 21
-336.175598853
 31
0.0
  0
SOLID
  5
199
  8
0
 62
     0
 10
616.39571106339986
 20
-336.175598853
 30
0.0
 11
608.89571106339986
 21
-338.050598853
 31
0.0
 12
608.89571106339986
 22
-334.300598853
 32
0.0
 13
610.77071106339997
 23
-336.175598853
 33
0.0
  0
LINE
  5
19A
  8
0
 62
     0
 10
646.39571106339986
 20
-336.175598853
 30
0.0
 11
649.39571106339986
 21
-336.175598853
 31
0.0
  0
SOLID
  5
19B
  8
0
 62
     0
 10
646.39571106339986
 20
-336.175598853
 30
0.0
 11
653.89571106339986
 21
-334.300598853
 31
0.0
 12
653.89571106339986
 22
-338.050598853
 32
0.0
 13
652.02071106339986
 23
-336.175598853
 33
0.0
  0
ENDBLK
  5
19C
  8
0
  0
BLOCK
  8
0
  2
*D18
 70
     1
 10
0.0
 20
0.0
 30
0.0
  3
*D18
  1

  0
TEXT
  5
1A0
  8
0
 62
     0
 10
592.74369280240001
 20
-374.4845902852
 30
0.0
 40
7.4965279578999988
  1
32
 50
90.0
  0
LINE
  5
1A1
  8
0
 62
     0
 10
615.39571106339986
 20
-354.07486795699998
 30
0.0
 11
594.56660950089986
 21
-354.07486795699998
 31
0.0
  0
LINE
  5
1A2
  8
0
 62
     0
 10
615.39571106339986
 20
-386.07486795699998
 30
0.0
 11
594.56660950089986
 21
-386.07486795699998
 31
0.0
  0
LINE
  5
1A3
  8
0
 62
     0
 10
595.06660950089986
 20
-354.07486795699998
 30
0.0
 11
595.06660950089986
 21
-361.2554233006
 31
0.0
  0
LINE
  5
1A4
  8
0
 62
     0
 10
595.06660950089986
 20
-354.07486795699998
 30
0.0
 11
595.06660950089986
 21
-378.89431261329997
 31
0.0
  0
LINE
  5
1A5
  8
0
 62
     0
 10
595.06660950089986
 20
-386.07486795699998
 30
0.0
 11
595.06660950089986
 21
-361.2554233006
 31
0.0
  0
LINE
  5
1A6
  8
0
 62
     0
 10
595.06660950089986
 20
-386.07486795699998
 30
0.0
 11
595.06660950089986
 21
-378.89431261329997
 31
0.0
  0
LINE
  5
1A7
  8
0
 62
     0
 10
595.06660950089986
 20
-386.07486795699998
 30
0.0
 11
595.06660950089986
 21
-389.07486795699998
 31
0.0
  0
SOLID
  5
1A8
  8
0
 62
     0
 10
595.06660950089986
 20
-386.07486795699998
 30
0.0
 11
596.94160950089986
 21
-393.57486795699998
 31
0.0
 12
593.19160950089986
 22
-393.57486795699998
 32
0.0
 13
595.06660950089986
 23
-391.69986795699998
 33
0.0
  0
LINE
  5
1A9
  8
0
 62
     0
 10
595.06660950089986
 20
-354.07486795699998
 30
0.0
 11
595.06660950089986
 21
-351.07486795699998
 31
0.0
  0
SOLID
  5
1AA
  8
0
 62
     0
 10
595.06660950089986
 20
-354.07486795699998
 30
0.0
 11
593.19160950089986
 21
-346.57486795699998
 31
0.0
 12
596.94160950089986
 22
-346.57486795699998
 32
0.0
 13
595.06660950089986
 23
-348.44986795699998
 33
0.0
  0
ENDBLK
  5
1AB
  8
0
  0
BLOCK
  8
0
  2
*D19
 70
     1
 10
0.0
 20
0.0
 30
0.0
  3
*D19
  1

  0
TEXT
  5
1AF
  8
0
 62
     0
 10
805.98598873520007
 20
-333.93473438529998
 30
0.0
 40
7.4965279578999988
  1
12
  0
LINE
  5
1B0
  8
0
 62
     0
 10
816.39571106339986
 20
-353.07486795699998
 30
0.0
 11
816.39571106339986
 21
-335.7576510838
 31
0.0
  0
LINE
  5
1B1
  8
0
 62
     0
 10
804.39571106339997
 20
-358.07486795699998
 30
0.0
 11
804.39571106339997
 21
-335.7576510838
 31
0.0
  0
LINE
  5
1B2
  8
0
 62
     0
 10
816.39571106339986
 20
-336.2576510838
 30
0.0
 11
816.39571106339986
 21
-336.2576510838
 31
0.0
  0
LINE
  5
1B3
  8
0
 62
     0
 10
816.39571106339986
 20
-336.2576510838
 30
0.0
 11
804.39571106339997
 21
-336.2576510838
 31
0.0
  0
LINE
  5
1B4
  8
0
 62
     0
 10
804.39571106339997
 20
-336.2576510838
 30
0.0
 11
816.39571106339986
 21
-336.2576510838
 31
0.0
  0
LINE
  5
1B5
  8
0
 62
     0
 10
804.39571106339997
 20
-336.2576510838
 30
0.0
 11
804.39571106339997
 21
-336.2576510838
 31
0.0
  0
LINE
  5
1B6
  8
0
 62
     0
 10
804.39571106339997
 20
-336.2576510838
 30
0.0
 11
801.39571106339986
 21
-336.2576510838
 31
0.0
  0
SOLID
  5
1B7
  8
0
 62
     0
 10
804.39571106339997
 20
-336.2576510838
 30
0.0
 11
796.89571106339997
 21
-338.1326510838
 31
0.0
 12
796.89571106339997
 22
-334.3826510838
 32
0.0
 13
798.77071106339997
 23
-336.2576510838
 33
0.0
  0
LINE
  5
1B8
  8
0
 62
     0
 10
816.39571106339986
 20
-336.2576510838
 30
0.0
 11
819.39571106339986
 21
-336.2576510838
 31
0.0
  0
SOLID
  5
1B9
  8
0
 62
     0
 10
816.39571106339986
 20
-336.2576510838
 30
0.0
 11
823.89571106339997
 21
-334.3826510838
 31
0.0
 12
823.89571106339997
 22
-338.1326510838
 32
0.0
 13
822.02071106339997
 23
-336.2576510838
 33
0.0
  0
ENDBLK
  5
1BA
  8
0
  0
BLOCK
  8
0
  2
CLUMP4
 70
     0
 10
0.0
 20
0.0
 30
0.0
  3
CLUMP4
  1

  0
LINE
  5
1CB
  8
┌▓È_1
  6
STITCH
 10
619.14571106339986
 20
-154.33839948100001
 30
0.0
 11
620.89571106339986
 21
-156.08839948100001
 31
0.0
  0
LINE
  5
1CC
  8
┌▓È_1
  6
STITCH
 10
618.14571106339986
 20
-154.33839948100001
 30
0.0
 11
616.39571106339986
 21
-156.08839948100001
 31
0.0
  0
LINE
  5
1CD
  8
┌▓È_1
  6
STITCH
 10
618.14571106339986
 20
-149.33839948100001
 30
0.0
 11
616.39571106339986
 21
-147.58839948100001
 31
0.0
  0
LINE
  5
1CE
  8
┌▓È_1
  6
STITCH
 10
619.14571106339986
 20
-149.33839948100001
 30
0.0
 11
620.89571106339986
 21
-147.58839948100001
 31
0.0
  0
LINE
  5
1CF
  8
┌▓È_1
  6
STITCH
 10
618.14571106339986
 20
-154.33839948100001
 30
0.0
 11
618.14571106339986
 21
-149.33839948100001
 31
0.0
  0
LINE
  5
1D0
  8
┌▓È_1
  6
STITCH
 10
619.14571106339986
 20
-149.33839948100001
 30
0.0
 11
619.14571106339986
 21
-154.33839948100001
 31
0.0
  0
LINE
  5
1D1
  8
┌▓È_1
  6
STITCH
 10
618.14571106339986
 20
-149.33839948100001
 30
0.0
 11
619.14571106339986
 21
-149.33839948100001
 31
0.0
  0
LINE
  5
1D2
  8
┌▓È_1
  6
STITCH
 10
619.14571106339986
 20
-154.33839948100001
 30
0.0
 11
618.14571106339986
 21
-154.33839948100001
 31
0.0
  0
LINE
  5
1D3
  8
┌▓È_1
  6
BORDER
 62
     3
 10
626.72348884120004
 20
-151.83839948100001
 30
0.0
 11
609.35404439670003
 21
-151.83839948100001
 31
0.0
  0
ENDBLK
  5
1D4
  8
0
  0
BLOCK
  8
0
  2
CLUMP5
 70
     0
 10
0.0
 20
0.0
 30
0.0
  3
CLUMP5
  1

  0
CIRCLE
  5
1E0
  8
┌▓È_1
 62
     5
 10
906.86930814489995
 20
-146.83839948100001
 30
0.0
 40
2.5
  0
CIRCLE
  5
1E1
  8
┌▓È_1
 62
     5
 10
906.86930814489995
 20
-146.83839948100001
 30
0.0
 40
4.25
  0
LINE
  5
1E2
  8
┌▓È_1
  6
BORDER
 62
     3
 10
906.86930814489995
 20
-140.83839948100001
 30
0.0
 11
906.86930814489995
 21
-152.83839948100001
 31
0.0
  0
LINE
  5
1E3
  8
┌▓È_1
  6
BORDER
 62
     3
 10
900.86930814490006
 20
-146.83839948100001
 30
0.0
 11
912.86930814489995
 21
-146.83839948100001
 31
0.0
  0
ENDBLK
  5
1E4
  8
0
  0
BLOCK
  8
0
  2
CLUMP6
 70
     0
 10
0.0
 20
0.0
 30
0.0
  3
CLUMP6
  1

  0
CIRCLE
  5
1E8
  8
┌▓È_1
 62
     5
 10
916.86930814490006
 20
-225.83839948100001
 30
0.0
 40
4.25
  0
CIRCLE
  5
1E9
  8
┌▓È_1
 62
     5
 10
916.86930814490006
 20
-225.83839948100001
 30
0.0
 40
2.5
  0
LINE
  5
1EA
  8
┌▓È_1
  6
BORDER
 62
     3
 10
922.86930814489995
 20
-225.83839948100001
 30
0.0
 11
910.86930814490006
 21
-225.83839948100001
 31
0.0
  0
LINE
  5
1EB
  8
┌▓È_1
  6
BORDER
 62
     3
 10
916.86930814490006
 20
-219.83839948100001
 30
0.0
 11
916.86930814490006
 21
-231.83839948100001
 31
0.0
  0
ENDBLK
  5
1EC
  8
0
  0
BLOCK
  8
0
  2
*D23
 70
     1
 10
0.0
 20
0.0
 30
0.0
  3
*D23
  1

  0
TEXT
  5
1F2
  8
0
 62
     0
 10
1056.1779410838001
 20
-211.959895738
 30
0.0
 40
7.4965279578999988
  1
90%%d
  0
ARC
  5
1F3
  8
0
 62
     0
 10
1062.7925245761
 20
-149.7531963628
 30
0.0
 40
66.175449470499984
 50
306.53797876459998
 51
315.0
  0
ARC
  5
1F4
  8
0
 62
     0
 10
1062.7925245761
 20
-149.7531963628
 30
0.0
 40
66.175449470499984
 50
225.0
 51
233.46202123539999
  0
SOLID
  5
1F5
  8
0
 62
     0
 10
1015.9994155074
 20
-196.5463054315
 30
0.0
 11
1009.3702894338001
 21
-192.56882978729999
 31
0.0
 12
1012.0219398633
 22
-189.91717935790001
 32
0.0
 13
1012.0219398633
 23
-192.56882978729999
 33
0.0
  0
SOLID
  5
1F6
  8
0
 62
     0
 10
1109.5856336448001
 20
-196.5463054315
 30
0.0
 11
1113.5631092890001
 21
-189.91717935790001
 31
0.0
 12
1116.2147597184
 22
-192.56882978729999
 32
0.0
 13
1113.5631092890001
 23
-192.56882978729999
 33
0.0
  0
ARC
  5
1F7
  8
0
 62
     0
 10
1062.7925245761
 20
-149.7531963628
 30
0.0
 40
66.175449470499984
 50
225.0
 51
257.63799682870001
  0
ARC
  5
1F8
  8
0
 62
     0
 10
1062.7925245761
 20
-149.7531963628
 30
0.0
 40
66.175449470499984
 50
282.36200317129999
 51
315.0
  0
LINE
  5
1F9
  8
0
 62
     0
 10
1038.5316100267
 20
-174.01411091220001
 30
0.0
 11
1012.988500958
 21
-199.55721998089999
 31
0.0
  0
LINE
  5
1FA
  8
0
 62
     0
 10
1087.0534391255001
 20
-174.01411091220001
 30
0.0
 11
1112.5965481942001
 21
-199.55721998089999
 31
0.0
  0
ENDBLK
  5
1FB
  8
0
  0
BLOCK
  8
0
  2
*D24
 70
     1
 10
0.0
 20
0.0
 30
0.0
  3
*D24
  1

  0
TEXT
  5
1FF
  8
0
 62
     0
 10
1056.1779410838001
 20
-78.874479071300001
 30
0.0
 40
7.4965279578999988
  1
90%%d
 50
360.0
  0
ARC
  5
200
  8
0
 62
     0
 10
1062.7925245761
 20
-169.7531963628
 30
0.0
 40
86.909967196100013
 50
128.83325750559999
 51
135.0
  0
ARC
  5
201
  8
0
 62
     0
 10
1062.7925245761
 20
-169.7531963628
 30
0.0
 40
86.909967196100013
 50
45.0
 51
51.16674249439999
  0
SOLID
  5
202
  8
0
 62
     0
 10
1124.2471517332001
 20
-108.29856920570001
 30
0.0
 11
1130.8762778068001
 21
-112.2760448499
 31
0.0
 12
1128.2246273774001
 22
-114.9276952793
 32
0.0
 13
1128.2246273774001
 23
-112.2760448499
 33
0.0
  0
SOLID
  5
203
  8
0
 62
     0
 10
1001.337897419
 20
-108.29856920570001
 30
0.0
 11
997.36042177490003
 21
-114.9276952793
 31
0.0
 12
994.7087713453999
 22
-112.2760448499
 32
0.0
 13
997.36042177490003
 23
-112.2760448499
 33
0.0
  0
ARC
  5
204
  8
0
 62
     0
 10
1062.7925245761
 20
-169.7531963628
 30
0.0
 40
86.909967196100013
 50
45.0
 51
82.622658756199996
  0
ARC
  5
205
  8
0
 62
     0
 10
1062.7925245761
 20
-169.7531963628
 30
0.0
 40
86.909967196100013
 50
97.377341243799989
 51
135.0
  0
LINE
  5
206
  8
0
 62
     0
 10
1087.0534391255001
 20
-145.49228181340001
 30
0.0
 11
1127.2580662826001
 21
-105.28765465630001
 31
0.0
  0
LINE
  5
207
  8
0
 62
     0
 10
1038.5316100267
 20
-145.49228181340001
 30
0.0
 11
998.32698286959999
 21
-105.28765465630001
 31
0.0
  0
ENDBLK
  5
208
  8
0
  0
BLOCK
  8
0
  2
*D25
 70
     1
 10
0.0
 20
0.0
 30
0.0
  3
*D25
  1

  0
TEXT
  5
20C
  8
0
 62
     0
 10
629.69787886430004
 20
-18.986854751199999
 30
0.0
 40
7.4965279578999988
  1
4.5t
  0
LINE
  5
20D
  8
0
 62
     0
 10
620.89571106339986
 20
-54.838399481000003
 30
0.0
 11
620.89571106339986
 21
-20.809771449599999
 31
0.0
  0
LINE
  5
20E
  8
0
 62
     0
 10
616.39571106339986
 20
-54.838399481000003
 30
0.0
 11
616.39571106339986
 21
-20.809771449599999
 31
0.0
  0
LINE
  5
20F
  8
0
 62
     0
 10
620.89571106339986
 20
-21.309771449599999
 30
0.0
 11
651.74649050530002
 21
-21.309771449599999
 31
0.0
  0
LINE
  5
210
  8
0
 62
     0
 10
620.89571106339986
 20
-21.309771449599999
 30
0.0
 11
625.28815653610002
 21
-21.309771449599999
 31
0.0
  0
LINE
  5
211
  8
0
 62
     0
 10
616.39571106339986
 20
-21.309771449599999
 30
0.0
 11
651.74649050530002
 21
-21.309771449599999
 31
0.0
  0
LINE
  5
212
  8
0
 62
     0
 10
616.39571106339986
 20
-21.309771449599999
 30
0.0
 11
625.28815653610002
 21
-21.309771449599999
 31
0.0
  0
LINE
  5
213
  8
0
 62
     0
 10
616.39571106339986
 20
-21.309771449599999
 30
0.0
 11
613.39571106339997
 21
-21.309771449599999
 31
0.0
  0
SOLID
  5
214
  8
0
 62
     0
 10
616.39571106339986
 20
-21.309771449599999
 30
0.0
 11
608.89571106339986
 21
-23.184771449599999
 31
0.0
 12
608.89571106339986
 22
-19.434771449599999
 32
0.0
 13
610.77071106339997
 23
-21.309771449599999
 33
0.0
  0
LINE
  5
215
  8
0
 62
     0
 10
620.89571106339986
 20
-21.309771449599999
 30
0.0
 11
623.89571106339986
 21
-21.309771449599999
 31
0.0
  0
SOLID
  5
216
  8
0
 62
     0
 10
620.89571106339986
 20
-21.309771449599999
 30
0.0
 11
628.39571106339986
 21
-19.434771449599999
 31
0.0
 12
628.39571106339986
 22
-23.184771449599999
 32
0.0
 13
626.52071106339986
 23
-21.309771449599999
 33
0.0
  0
ENDBLK
  5
217
  8
0
  0
BLOCK
  8
0
  2
*D26
 70
     1
 10
0.0
 20
0.0
 30
0.0
  3
*D26
  1

  0
TEXT
  5
21B
  8
0
 62
     0
 10
709.78112757109989
 20
-284.47969329279999
 30
0.0
 40
7.4965279578999988
  1
200
  0
LINE
  5
21C
  8
0
 62
     0
 10
616.39571106339986
 20
-252.33839948100001
 30
0.0
 11
616.39571106339986
 21
-287.30260999130002
 31
0.0
  0
LINE
  5
21D
  8
0
 62
     0
 10
816.39571106339986
 20
-256.83839948100001
 30
0.0
 11
816.39571106339986
 21
-287.30260999130002
 31
0.0
  0
LINE
  5
21E
  8
0
 62
     0
 10
616.39571106339986
 20
-286.80260999130002
 30
0.0
 11
727.42001688389996
 21
-286.80260999130002
 31
0.0
  0
LINE
  5
21F
  8
0
 62
     0
 10
616.39571106339986
 20
-286.80260999130002
 30
0.0
 11
705.37140524289998
 21
-286.80260999130002
 31
0.0
  0
LINE
  5
220
  8
0
 62
     0
 10
816.39571106339986
 20
-286.80260999130002
 30
0.0
 11
727.42001688389996
 21
-286.80260999130002
 31
0.0
  0
LINE
  5
221
  8
0
 62
     0
 10
816.39571106339986
 20
-286.80260999130002
 30
0.0
 11
705.37140524289998
 21
-286.80260999130002
 31
0.0
  0
LINE
  5
222
  8
0
 62
     0
 10
816.39571106339986
 20
-286.80260999130002
 30
0.0
 11
813.39571106339997
 21
-286.80260999130002
 31
0.0
  0
SOLID
  5
223
  8
0
 62
     0
 10
816.39571106339986
 20
-286.80260999130002
 30
0.0
 11
808.89571106339997
 21
-288.67760999130002
 31
0.0
 12
808.89571106339997
 22
-284.92760999130002
 32
0.0
 13
810.77071106339986
 23
-286.80260999130002
 33
0.0
  0
LINE
  5
224
  8
0
 62
     0
 10
616.39571106339986
 20
-286.80260999130002
 30
0.0
 11
619.39571106339986
 21
-286.80260999130002
 31
0.0
  0
SOLID
  5
225
  8
0
 62
     0
 10
616.39571106339986
 20
-286.80260999130002
 30
0.0
 11
623.89571106339986
 21
-284.92760999130002
 31
0.0
 12
623.89571106339986
 22
-288.67760999130002
 32
0.0
 13
622.02071106339997
 23
-286.80260999130002
 33
0.0
  0
ENDBLK
  5
226
  8
0
  0
BLOCK
  8
0
  2
CLUMP7
 70
     0
 10
0.0
 20
0.0
 30
0.0
  3
CLUMP7
  1

  0
LINE
  5
22B
  8
┌▓È_1
  6
STITCH
 10
619.14571106339986
 20
-70.33839948100001
 30
0.0
 11
620.89571106339986
 21
-72.08839948100001
 31
0.0
  0
LINE
  5
22C
  8
┌▓È_1
  6
STITCH
 10
618.14571106339986
 20
-70.33839948100001
 30
0.0
 11
616.39571106339986
 21
-72.08839948100001
 31
0.0
  0
LINE
  5
22D
  8
┌▓È_1
  6
STITCH
 10
618.14571106339986
 20
-65.33839948100001
 30
0.0
 11
616.39571106339986
 21
-63.588399481000003
 31
0.0
  0
LINE
  5
22E
  8
┌▓È_1
  6
STITCH
 10
619.14571106339986
 20
-65.33839948100001
 30
0.0
 11
620.89571106339986
 21
-63.588399481000003
 31
0.0
  0
LINE
  5
22F
  8
┌▓È_1
  6
STITCH
 10
618.14571106339986
 20
-70.33839948100001
 30
0.0
 11
618.14571106339986
 21
-65.33839948100001
 31
0.0
  0
LINE
  5
230
  8
┌▓È_1
  6
STITCH
 10
619.14571106339986
 20
-65.33839948100001
 30
0.0
 11
619.14571106339986
 21
-70.33839948100001
 31
0.0
  0
LINE
  5
231
  8
┌▓È_1
  6
STITCH
 10
618.14571106339986
 20
-65.33839948100001
 30
0.0
 11
619.14571106339986
 21
-65.33839948100001
 31
0.0
  0
LINE
  5
232
  8
┌▓È_1
  6
STITCH
 10
619.14571106339986
 20
-70.33839948100001
 30
0.0
 11
618.14571106339986
 21
-70.33839948100001
 31
0.0
  0
LINE
  5
233
  8
┌▓È_1
  6
BORDER
 62
     3
 10
626.72348884120004
 20
-67.83839948100001
 30
0.0
 11
609.35404439670003
 21
-67.83839948100001
 31
0.0
  0
ENDBLK
  5
234
  8
0
  0
BLOCK
  8
0
  2
CLUMP8
 70
     0
 10
0.0
 20
0.0
 30
0.0
  3
CLUMP8
  1

  0
CIRCLE
  5
238
  8
┌▓È_1
 62
     5
 10
911.86930814489995
 20
-67.83839948100001
 30
0.0
 40
2.5
  0
CIRCLE
  5
239
  8
┌▓È_1
 62
     5
 10
911.86930814489995
 20
-67.83839948100001
 30
0.0
 40
4.25
  0
LINE
  5
23A
  8
┌▓È_1
  6
BORDER
 62
     3
 10
911.86930814489995
 20
-61.83839948100001
 30
0.0
 11
911.86930814489995
 21
-73.83839948100001
 31
0.0
  0
LINE
  5
23B
  8
┌▓È_1
  6
BORDER
 62
     3
 10
905.86930814489995
 20
-67.83839948100001
 30
0.0
 11
917.86930814490006
 21
-67.83839948100001
 31
0.0
  0
ENDBLK
  5
23C
  8
0
  0
BLOCK
  8
0
  2
CLUMP9
 70
     0
 10
0.0
 20
0.0
 30
0.0
  3
CLUMP9
  1

  0
LINE
  5
240
  8
┌▓È_1
  6
STITCH
 10
717.89571106339997
 20
-254.08839948100001
 30
0.0
 11
722.89571106339997
 21
-254.08839948100001
 31
0.0
  0
LINE
  5
241
  8
┌▓È_1
  6
STITCH
 10
722.89571106339997
 20
-253.08839948100001
 30
0.0
 11
717.89571106339997
 21
-253.08839948100001
 31
0.0
  0
LINE
  5
242
  8
┌▓È_1
  6
STITCH
 10
722.89571106339997
 20
-254.08839948100001
 30
0.0
 11
722.89571106339997
 21
-253.08839948100001
 31
0.0
  0
LINE
  5
243
  8
┌▓È_1
  6
STITCH
 10
717.89571106339997
 20
-253.08839948100001
 30
0.0
 11
717.89571106339997
 21
-254.08839948100001
 31
0.0
  0
LINE
  5
244
  8
┌▓È_1
  6
STITCH
 10
717.89571106339997
 20
-253.08839948100001
 30
0.0
 11
716.14571106339997
 21
-251.33839948100001
 31
0.0
  0
LINE
  5
245
  8
┌▓È_1
  6
STITCH
 10
717.89571106339997
 20
-254.08839948100001
 30
0.0
 11
716.14571106339997
 21
-255.83839948100001
 31
0.0
  0
LINE
  5
246
  8
┌▓È_1
  6
STITCH
 10
722.89571106339997
 20
-253.08839948100001
 30
0.0
 11
724.64571106339997
 21
-251.33839948100001
 31
0.0
  0
LINE
  5
247
  8
┌▓È_1
  6
STITCH
 10
722.89571106339997
 20
-254.08839948100001
 30
0.0
 11
724.64571106339997
 21
-255.83839948100001
 31
0.0
  0
LINE
  5
248
  8
┌▓È_1
  6
BORDER
 62
     3
 10
720.39571106339986
 20
-245.5106217032
 30
0.0
 11
720.39571106339986
 21
-262.88006614770001
 31
0.0
  0
ENDBLK
  5
249
  8
0
  0
BLOCK
  8
0
  2
CLUMP10
 70
     0
 10
0.0
 20
0.0
 30
0.0
  3
CLUMP10
  1

  0
LINE
  5
24D
  8
┌▓È_1
  6
STITCH
 10
801.89571106339997
 20
-254.08839948100001
 30
0.0
 11
806.89571106339986
 21
-254.08839948100001
 31
0.0
  0
LINE
  5
24E
  8
┌▓È_1
  6
STITCH
 10
806.89571106339986
 20
-253.08839948100001
 30
0.0
 11
801.89571106339997
 21
-253.08839948100001
 31
0.0
  0
LINE
  5
24F
  8
┌▓È_1
  6
STITCH
 10
806.89571106339986
 20
-254.08839948100001
 30
0.0
 11
806.89571106339986
 21
-253.08839948100001
 31
0.0
  0
LINE
  5
250
  8
┌▓È_1
  6
STITCH
 10
801.89571106339997
 20
-253.08839948100001
 30
0.0
 11
801.89571106339997
 21
-254.08839948100001
 31
0.0
  0
LINE
  5
251
  8
┌▓È_1
  6
STITCH
 10
801.89571106339997
 20
-253.08839948100001
 30
0.0
 11
800.14571106339997
 21
-251.33839948100001
 31
0.0
  0
LINE
  5
252
  8
┌▓È_1
  6
STITCH
 10
801.89571106339997
 20
-254.08839948100001
 30
0.0
 11
800.14571106339997
 21
-255.83839948100001
 31
0.0
  0
LINE
  5
253
  8
┌▓È_1
  6
STITCH
 10
806.89571106339986
 20
-253.08839948100001
 30
0.0
 11
808.64571106339986
 21
-251.33839948100001
 31
0.0
  0
LINE
  5
254
  8
┌▓È_1
  6
STITCH
 10
806.89571106339986
 20
-254.08839948100001
 30
0.0
 11
808.64571106339986
 21
-255.83839948100001
 31
0.0
  0
LINE
  5
255
  8
┌▓È_1
  6
BORDER
 62
     3
 10
804.39571106339997
 20
-245.5106217032
 30
0.0
 11
804.39571106339997
 21
-262.88006614770001
 31
0.0
  0
ENDBLK
  5
256
  8
0
  0
BLOCK
  8
0
  2
*D31
 70
     1
 10
0.0
 20
0.0
 30
0.0
  3
*D31
  1

  0
TEXT
  5
261
  8
0
 62
     0
 10
592.78241197969999
 20
-162.45298297330001
 30
0.0
 40
7.4965279578999988
  1
200
 50
90.0
  0
LINE
  5
262
  8
0
 62
     0
 10
615.39571106339986
 20
-55.838399481000003
 30
0.0
 11
594.60532867810002
 21
-55.838399481000003
 31
0.0
  0
LINE
  5
263
  8
0
 62
     0
 10
619.89571106339986
 20
-255.83839948100001
 30
0.0
 11
594.60532867810002
 21
-255.83839948100001
 31
0.0
  0
LINE
  5
264
  8
0
 62
     0
 10
595.10532867810002
 20
-55.838399481000003
 30
0.0
 11
595.10532867810002
 21
-144.81409366060001
 31
0.0
  0
LINE
  5
265
  8
0
 62
     0
 10
595.10532867810002
 20
-55.838399481000003
 30
0.0
 11
595.10532867810002
 21
-166.8627053015
 31
0.0
  0
LINE
  5
266
  8
0
 62
     0
 10
595.10532867810002
 20
-255.83839948100001
 30
0.0
 11
595.10532867810002
 21
-144.81409366060001
 31
0.0
  0
LINE
  5
267
  8
0
 62
     0
 10
595.10532867810002
 20
-255.83839948100001
 30
0.0
 11
595.10532867810002
 21
-166.8627053015
 31
0.0
  0
LINE
  5
268
  8
0
 62
     0
 10
595.10532867810002
 20
-255.83839948100001
 30
0.0
 11
595.10532867810002
 21
-252.83839948100001
 31
0.0
  0
SOLID
  5
269
  8
0
 62
     0
 10
595.10532867810002
 20
-255.83839948100001
 30
0.0
 11
593.23032867809991
 21
-248.33839948100001
 31
0.0
 12
596.98032867810002
 22
-248.33839948100001
 32
0.0
 13
595.10532867810002
 23
-250.21339948100001
 33
0.0
  0
LINE
  5
26A
  8
0
 62
     0
 10
595.10532867810002
 20
-55.838399481000003
 30
0.0
 11
595.10532867810002
 21
-58.838399481000003
 31
0.0
  0
SOLID
  5
26B
  8
0
 62
     0
 10
595.10532867810002
 20
-55.838399481000003
 30
0.0
 11
596.98032867810002
 21
-63.338399481000003
 31
0.0
 12
593.23032867809991
 22
-63.338399481000003
 32
0.0
 13
595.10532867810002
 23
-61.463399481000003
 33
0.0
  0
ENDBLK
  5
26C
  8
0
  0
BLOCK
  8
0
  2
*D32
 70
     1
 10
0.0
 20
0.0
 30
0.0
  3
*D32
  1

  0
TEXT
  5
270
  8
0
 62
     0
 10
674.57749887220007
 20
-188.52211951749999
 30
0.0
 40
7.4965279578999988
  1
90%%d
 50
314.89182085179999
  0
ARC
  5
271
  8
0
 62
     0
 10
620.89571106339986
 20
-251.33839948100001
 30
0.0
 40
78.395481559099991
 50
83.068867095800002
 51
90.0
  0
ARC
  5
272
  8
0
 62
     0
 10
620.89571106339986
 20
-251.33839948100001
 30
0.0
 40
78.395481559099991
 50
0.0
 51
6.9311329041999992
  0
SOLID
  5
273
  8
0
 62
     0
 10
699.29119262250003
 20
-251.33839948100001
 30
0.0
 11
701.16619262250003
 21
-258.83839948100001
 31
0.0
 12
697.41619262250003
 22
-258.83839948100001
 32
0.0
 13
699.29119262250003
 23
-256.96339948100001
 33
0.0
  0
SOLID
  5
274
  8
0
 62
     0
 10
620.89571106339986
 20
-172.94291792199999
 30
0.0
 11
613.39571106339997
 21
-174.81791792199999
 31
0.0
 12
613.39571106339997
 22
-171.06791792199999
 32
0.0
 13
615.27071106339997
 23
-172.94291792199999
 33
0.0
  0
ARC
  5
275
  8
0
 62
     0
 10
620.89571106339986
 20
-251.33839948100001
 30
0.0
 40
78.395481559099991
 50
0.0
 51
36.705353934100003
  0
ARC
  5
276
  8
0
 62
     0
 10
620.89571106339986
 20
-251.33839948100001
 30
0.0
 40
78.395481559099991
 50
53.078287769600003
 51
90.0
  0
LINE
  5
277
  8
0
 62
     0
 10
811.39571106339997
 20
-251.33839948100001
 30
0.0
 11
694.29119262250003
 21
-251.33839948100001
 31
0.0
  0
LINE
  5
278
  8
0
 62
     0
 10
620.89571106339986
 20
-60.838399481000003
 30
0.0
 11
620.89571106339986
 21
-177.94291792199999
 31
0.0
  0
ENDBLK
  5
279
  8
0
  0
BLOCK
  8
0
  2
*D33
 70
     1
 10
0.0
 20
0.0
 30
0.0
  3
*D33
  1

  0
TEXT
  5
27D
  8
0
 62
     0
 10
872.10648577119991
 20
-66.471429100899996
 30
0.0
 40
7.4965279578999988
  1
12
 50
90.0
  0
LINE
  5
27E
  8
0
 62
     0
 10
894.86930814489995
 20
-55.838399481000003
 30
0.0
 11
873.92940246959995
 21
-55.838399481000003
 31
0.0
  0
LINE
  5
27F
  8
0
 62
     0
 10
909.86930814490006
 20
-67.83839948100001
 30
0.0
 11
873.92940246959995
 21
-67.83839948100001
 31
0.0
  0
LINE
  5
280
  8
0
 62
     0
 10
874.42940246960006
 20
-55.838399481000003
 30
0.0
 11
874.42940246960006
 21
-55.838399481000003
 31
0.0
  0
LINE
  5
281
  8
0
 62
     0
 10
874.42940246960006
 20
-55.838399481000003
 30
0.0
 11
874.42940246960006
 21
-67.83839948100001
 31
0.0
  0
LINE
  5
282
  8
0
 62
     0
 10
874.42940246960006
 20
-67.83839948100001
 30
0.0
 11
874.42940246960006
 21
-55.838399481000003
 31
0.0
  0
LINE
  5
283
  8
0
 62
     0
 10
874.42940246960006
 20
-67.83839948100001
 30
0.0
 11
874.42940246960006
 21
-67.83839948100001
 31
0.0
  0
LINE
  5
284
  8
0
 62
     0
 10
874.42940246960006
 20
-67.83839948100001
 30
0.0
 11
874.42940246960006
 21
-70.83839948100001
 31
0.0
  0
SOLID
  5
285
  8
0
 62
     0
 10
874.42940246960006
 20
-67.83839948100001
 30
0.0
 11
876.30440246959995
 21
-75.33839948100001
 31
0.0
 12
872.55440246959995
 22
-75.33839948100001
 32
0.0
 13
874.42940246960006
 23
-73.46339948100001
 33
0.0
  0
LINE
  5
286
  8
0
 62
     0
 10
874.42940246960006
 20
-55.838399481000003
 30
0.0
 11
874.42940246960006
 21
-52.838399481000003
 31
0.0
  0
SOLID
  5
287
  8
0
 62
     0
 10
874.42940246960006
 20
-55.838399481000003
 30
0.0
 11
872.55440246959995
 21
-48.338399481000003
 31
0.0
 12
876.30440246959995
 22
-48.338399481000003
 32
0.0
 13
874.42940246960006
 23
-50.213399481000003
 33
0.0
  0
ENDBLK
  5
288
  8
0
  0
BLOCK
  8
0
  2
*D34
 70
     1
 10
0.0
 20
0.0
 30
0.0
  3
*D34
  1

  0
TEXT
  5
28C
  8
0
 62
     0
 10
872.10648577119991
 20
-111.7481218092
 30
0.0
 40
7.4965279578999988
  1
79
 50
90.0
  0
LINE
  5
28D
  8
0
 62
     0
 10
904.86930814489995
 20
-67.83839948100001
 30
0.0
 11
873.92940246959995
 21
-67.83839948100001
 31
0.0
  0
LINE
  5
28E
  8
0
 62
     0
 10
901.61930814490006
 20
-146.83839948100001
 30
0.0
 11
873.92940246959995
 21
-146.83839948100001
 31
0.0
  0
LINE
  5
28F
  8
0
 62
     0
 10
874.42940246960006
 20
-67.83839948100001
 30
0.0
 11
874.42940246960006
 21
-98.518954824699975
 31
0.0
  0
LINE
  5
290
  8
0
 62
     0
 10
874.42940246960006
 20
-67.83839948100001
 30
0.0
 11
874.42940246960006
 21
-116.15784413740001
 31
0.0
  0
LINE
  5
291
  8
0
 62
     0
 10
874.42940246960006
 20
-146.83839948100001
 30
0.0
 11
874.42940246960006
 21
-98.518954824699975
 31
0.0
  0
LINE
  5
292
  8
0
 62
     0
 10
874.42940246960006
 20
-146.83839948100001
 30
0.0
 11
874.42940246960006
 21
-116.15784413740001
 31
0.0
  0
LINE
  5
293
  8
0
 62
     0
 10
874.42940246960006
 20
-146.83839948100001
 30
0.0
 11
874.42940246960006
 21
-143.83839948100001
 31
0.0
  0
SOLID
  5
294
  8
0
 62
     0
 10
874.42940246960006
 20
-146.83839948100001
 30
0.0
 11
872.55440246959995
 21
-139.33839948100001
 31
0.0
 12
876.30440246959995
 22
-139.33839948100001
 32
0.0
 13
874.42940246960006
 23
-141.21339948100001
 33
0.0
  0
LINE
  5
295
  8
0
 62
     0
 10
874.42940246960006
 20
-67.83839948100001
 30
0.0
 11
874.42940246960006
 21
-70.83839948100001
 31
0.0
  0
SOLID
  5
296
  8
0
 62
     0
 10
874.42940246960006
 20
-67.83839948100001
 30
0.0
 11
876.30440246959995
 21
-75.33839948100001
 31
0.0
 12
872.55440246959995
 22
-75.33839948100001
 32
0.0
 13
874.42940246960006
 23
-73.46339948100001
 33
0.0
  0
ENDBLK
  5
297
  8
0
  0
BLOCK
  8
0
  2
*D35
 70
     1
 10
0.0
 20
0.0
 30
0.0
  3
*D35
  1

  0
TEXT
  5
29B
  8
0
 62
     0
 10
906.45958581669993
 20
-171.84574146989999
 30
0.0
 40
7.4965279578999988
  1
10
  0
LINE
  5
29C
  8
0
 62
     0
 10
906.86930814489995
 20
-153.83839948100001
 30
0.0
 11
906.86930814489995
 21
-174.66865816839999
 31
0.0
  0
LINE
  5
29D
  8
0
 62
     0
 10
916.86930814490006
 20
-218.83839948100001
 30
0.0
 11
916.86930814490006
 21
-173.66865816839999
 31
0.0
  0
LINE
  5
29E
  8
0
 62
     0
 10
906.86930814489995
 20
-174.16865816839999
 30
0.0
 11
906.86930814489995
 21
-174.16865816839999
 31
0.0
  0
LINE
  5
29F
  8
0
 62
     0
 10
906.86930814489995
 20
-174.16865816839999
 30
0.0
 11
916.86930814490006
 21
-174.16865816839999
 31
0.0
  0
LINE
  5
2A0
  8
0
 62
     0
 10
916.86930814490006
 20
-174.16865816839999
 30
0.0
 11
906.86930814489995
 21
-174.16865816839999
 31
0.0
  0
LINE
  5
2A1
  8
0
 62
     0
 10
916.86930814490006
 20
-174.16865816839999
 30
0.0
 11
916.86930814490006
 21
-174.16865816839999
 31
0.0
  0
LINE
  5
2A2
  8
0
 62
     0
 10
916.86930814490006
 20
-174.16865816839999
 30
0.0
 11
919.86930814489995
 21
-174.16865816839999
 31
0.0
  0
SOLID
  5
2A3
  8
0
 62
     0
 10
916.86930814490006
 20
-174.16865816839999
 30
0.0
 11
924.36930814489995
 21
-172.29365816839999
 31
0.0
 12
924.36930814489995
 22
-176.04365816839999
 32
0.0
 13
922.49430814489995
 23
-174.16865816839999
 33
0.0
  0
LINE
  5
2A4
  8
0
 62
     0
 10
906.86930814489995
 20
-174.16865816839999
 30
0.0
 11
903.86930814489995
 21
-174.16865816839999
 31
0.0
  0
SOLID
  5
2A5
  8
0
 62
     0
 10
906.86930814489995
 20
-174.16865816839999
 30
0.0
 11
899.36930814489995
 21
-176.04365816839999
 31
0.0
 12
899.36930814489995
 22
-172.29365816839999
 32
0.0
 13
901.24430814490006
 23
-174.16865816839999
 33
0.0
  0
ENDBLK
  5
2A6
  8
0
  0
BLOCK
  8
0
  2
*D36
 70
     1
 10
0.0
 20
0.0
 30
0.0
  3
*D36
  1

  0
TEXT
  5
2AA
  8
0
 62
     0
 10
896.95958581669981
 20
-114.91898365740001
 30
0.0
 40
7.4965279578999988
  1
11
  0
LINE
  5
2AB
  8
0
 62
     0
 10
906.86930814489995
 20
-139.83839948100001
 30
0.0
 11
906.86930814489995
 21
-116.7419003559
 31
0.0
  0
LINE
  5
2AC
  8
0
 62
     0
 10
895.86930814489995
 20
-127.83809176210001
 30
0.0
 11
895.86930814489995
 21
-116.7419003559
 31
0.0
  0
LINE
  5
2AD
  8
0
 62
     0
 10
906.86930814489995
 20
-117.2419003559
 30
0.0
 11
906.86930814489995
 21
-117.2419003559
 31
0.0
  0
LINE
  5
2AE
  8
0
 62
     0
 10
906.86930814489995
 20
-117.2419003559
 30
0.0
 11
895.86930814489995
 21
-117.2419003559
 31
0.0
  0
LINE
  5
2AF
  8
0
 62
     0
 10
895.86930814489995
 20
-117.2419003559
 30
0.0
 11
906.86930814489995
 21
-117.2419003559
 31
0.0
  0
LINE
  5
2B0
  8
0
 62
     0
 10
895.86930814489995
 20
-117.2419003559
 30
0.0
 11
895.86930814489995
 21
-117.2419003559
 31
0.0
  0
LINE
  5
2B1
  8
0
 62
     0
 10
895.86930814489995
 20
-117.2419003559
 30
0.0
 11
892.86930814490006
 21
-117.2419003559
 31
0.0
  0
SOLID
  5
2B2
  8
0
 62
     0
 10
895.86930814489995
 20
-117.2419003559
 30
0.0
 11
888.36930814490006
 21
-119.1169003559
 31
0.0
 12
888.36930814490006
 22
-115.3669003559
 32
0.0
 13
890.24430814489995
 23
-117.2419003559
 33
0.0
  0
LINE
  5
2B3
  8
0
 62
     0
 10
906.86930814489995
 20
-117.2419003559
 30
0.0
 11
909.86930814490006
 21
-117.2419003559
 31
0.0
  0
SOLID
  5
2B4
  8
0
 62
     0
 10
906.86930814489995
 20
-117.2419003559
 30
0.0
 11
914.36930814490006
 21
-115.3669003559
 31
0.0
 12
914.36930814490006
 22
-119.1169003559
 32
0.0
 13
912.49430814489995
 23
-117.2419003559
 33
0.0
  0
ENDBLK
  5
2B5
  8
0
  0
BLOCK
  8
0
  2
*D37
 70
     1
 10
0.0
 20
0.0
 30
0.0
  3
*D37
  1

  0
TEXT
  5
2B9
  8
0
 62
     0
 10
917.95958581669993
 20
-196.2251003973
 30
0.0
 40
7.4965279578999988
  1
11
  0
LINE
  5
2BA
  8
0
 62
     0
 10
927.86930814489995
 20
-218.83839948100001
 30
0.0
 11
927.86930814489995
 21
-198.04801709579999
 31
0.0
  0
LINE
  5
2BB
  8
0
 62
     0
 10
916.86930814490006
 20
-218.83839948100001
 30
0.0
 11
916.86930814490006
 21
-198.04801709579999
 31
0.0
  0
LINE
  5
2BC
  8
0
 62
     0
 10
927.86930814489995
 20
-198.54801709579999
 30
0.0
 11
927.86930814489995
 21
-198.54801709579999
 31
0.0
  0
LINE
  5
2BD
  8
0
 62
     0
 10
927.86930814489995
 20
-198.54801709579999
 30
0.0
 11
916.86930814490006
 21
-198.54801709579999
 31
0.0
  0
LINE
  5
2BE
  8
0
 62
     0
 10
916.86930814490006
 20
-198.54801709579999
 30
0.0
 11
927.86930814489995
 21
-198.54801709579999
 31
0.0
  0
LINE
  5
2BF
  8
0
 62
     0
 10
916.86930814490006
 20
-198.54801709579999
 30
0.0
 11
916.86930814490006
 21
-198.54801709579999
 31
0.0
  0
LINE
  5
2C0
  8
0
 62
     0
 10
916.86930814490006
 20
-198.54801709579999
 30
0.0
 11
913.86930814489995
 21
-198.54801709579999
 31
0.0
  0
SOLID
  5
2C1
  8
0
 62
     0
 10
916.86930814490006
 20
-198.54801709579999
 30
0.0
 11
909.36930814489995
 21
-200.42301709579999
 31
0.0
 12
909.36930814489995
 22
-196.67301709579999
 32
0.0
 13
911.24430814490006
 23
-198.54801709579999
 33
0.0
  0
LINE
  5
2C2
  8
0
 62
     0
 10
927.86930814489995
 20
-198.54801709579999
 30
0.0
 11
930.86930814489995
 21
-198.54801709579999
 31
0.0
  0
SOLID
  5
2C3
  8
0
 62
     0
 10
927.86930814489995
 20
-198.54801709579999
 30
0.0
 11
935.36930814489995
 21
-196.67301709579999
 31
0.0
 12
935.36930814489995
 22
-200.42301709579999
 32
0.0
 13
933.49430814490006
 23
-198.54801709579999
 33
0.0
  0
ENDBLK
  5
2C4
  8
0
  0
BLOCK
  8
0
  2
*D38
 70
     1
 10
0.0
 20
0.0
 30
0.0
  3
*D38
  1

  0
TEXT
  5
2C8
  8
0
 62
     0
 10
872.20625790660006
 20
-190.7481218092
 30
0.0
 40
7.4965279578999988
  1
79
 50
90.0
  0
LINE
  5
2C9
  8
0
 62
     0
 10
901.61930814490006
 20
-146.83839948100001
 30
0.0
 11
874.02917460509991
 21
-146.83839948100001
 31
0.0
  0
LINE
  5
2CA
  8
0
 62
     0
 10
909.86930814490006
 20
-225.83839948100001
 30
0.0
 11
874.02917460509991
 21
-225.83839948100001
 31
0.0
  0
LINE
  5
2CB
  8
0
 62
     0
 10
874.5291746050998
 20
-146.83839948100001
 30
0.0
 11
874.5291746050998
 21
-177.51895482469999
 31
0.0
  0
LINE
  5
2CC
  8
0
 62
     0
 10
874.5291746050998
 20
-146.83839948100001
 30
0.0
 11
874.5291746050998
 21
-195.15784413739999
 31
0.0
  0
LINE
  5
2CD
  8
0
 62
     0
 10
874.5291746050998
 20
-225.83839948100001
 30
0.0
 11
874.5291746050998
 21
-177.51895482469999
 31
0.0
  0
LINE
  5
2CE
  8
0
 62
     0
 10
874.5291746050998
 20
-225.83839948100001
 30
0.0
 11
874.5291746050998
 21
-195.15784413739999
 31
0.0
  0
LINE
  5
2CF
  8
0
 62
     0
 10
874.5291746050998
 20
-225.83839948100001
 30
0.0
 11
874.5291746050998
 21
-222.83839948100001
 31
0.0
  0
SOLID
  5
2D0
  8
0
 62
     0
 10
874.5291746050998
 20
-225.83839948100001
 30
0.0
 11
872.65417460509991
 21
-218.33839948100001
 31
0.0
 12
876.40417460509991
 22
-218.33839948100001
 32
0.0
 13
874.5291746050998
 23
-220.21339948100001
 33
0.0
  0
LINE
  5
2D1
  8
0
 62
     0
 10
874.5291746050998
 20
-146.83839948100001
 30
0.0
 11
874.5291746050998
 21
-149.83839948100001
 31
0.0
  0
SOLID
  5
2D2
  8
0
 62
     0
 10
874.5291746050998
 20
-146.83839948100001
 30
0.0
 11
876.40417460509991
 21
-154.33839948100001
 31
0.0
 12
872.65417460509991
 22
-154.33839948100001
 32
0.0
 13
874.5291746050998
 23
-152.46339948100001
 33
0.0
  0
ENDBLK
  5
2D3
  8
0
  0
BLOCK
  8
0
  2
*D39
 70
     1
 10
0.0
 20
0.0
 30
0.0
  3
*D39
  1

  0
TEXT
  5
2D7
  8
0
 62
     0
 10
872.25600906119985
 20
-245.2481218092
 30
0.0
 40
7.4965279578999988
  1
30
 50
90.0
  0
LINE
  5
2D8
  8
0
 62
     0
 10
909.86930814490006
 20
-225.83839948100001
 30
0.0
 11
874.0789257596
 21
-225.83839948100001
 31
0.0
  0
LINE
  5
2D9
  8
0
 62
     0
 10
894.86930814489995
 20
-255.83839948100001
 30
0.0
 11
874.0789257596
 21
-255.83839948100001
 31
0.0
  0
LINE
  5
2DA
  8
0
 62
     0
 10
874.57892575960011
 20
-225.83839948100001
 30
0.0
 11
874.57892575960011
 21
-232.01895482469999
 31
0.0
  0
LINE
  5
2DB
  8
0
 62
     0
 10
874.57892575960011
 20
-225.83839948100001
 30
0.0
 11
874.57892575960011
 21
-249.65784413739999
 31
0.0
  0
LINE
  5
2DC
  8
0
 62
     0
 10
874.57892575960011
 20
-255.83839948100001
 30
0.0
 11
874.57892575960011
 21
-232.01895482469999
 31
0.0
  0
LINE
  5
2DD
  8
0
 62
     0
 10
874.57892575960011
 20
-255.83839948100001
 30
0.0
 11
874.57892575960011
 21
-249.65784413739999
 31
0.0
  0
LINE
  5
2DE
  8
0
 62
     0
 10
874.57892575960011
 20
-255.83839948100001
 30
0.0
 11
874.57892575960011
 21
-258.83839948100001
 31
0.0
  0
SOLID
  5
2DF
  8
0
 62
     0
 10
874.57892575960011
 20
-255.83839948100001
 30
0.0
 11
876.4539257596
 21
-263.33839948100001
 31
0.0
 12
872.7039257596
 22
-263.33839948100001
 32
0.0
 13
874.57892575960011
 23
-261.46339948100001
 33
0.0
  0
LINE
  5
2E0
  8
0
 62
     0
 10
874.57892575960011
 20
-225.83839948100001
 30
0.0
 11
874.57892575960011
 21
-222.83839948100001
 31
0.0
  0
SOLID
  5
2E1
  8
0
 62
     0
 10
874.57892575960011
 20
-225.83839948100001
 30
0.0
 11
872.7039257596
 21
-218.33839948100001
 31
0.0
 12
876.4539257596
 22
-218.33839948100001
 32
0.0
 13
874.57892575960011
 23
-220.21339948100001
 33
0.0
  0
ENDBLK
  5
2E2
  8
0
  0
BLOCK
  8
0
  2
*U40
 70
     1
 10
0.0
 20
0.0
 30
0.0
  3
*U40
  1

  0
TEXT
  5
2FD
  8
┌▓È_1
  6
CONTINUOUS
 10
961.86920525009998
 20
-426.4845649405375
 30
0.0
 40
5.84375
  1
ü@Ä┌ ü@ôx
  0
ENDBLK
  5
2FF
  8
0
  0
BLOCK
  8
0
  2
*U41
 70
     1
 10
0.0
 20
0.0
 30
0.0
  3
*U41
  1

  0
TEXT
  5
301
  8
┌▓È_1
  6
CONTINUOUS
 10
1001.8692052501
 20
-405.26422864612118
 30
0.0
 40
5.84375
  1
ü@îƒ ü@ê¾
  0
ENDBLK
  5
303
  8
0
  0
BLOCK
  8
0
  2
*U42
 70
     1
 10
0.0
 20
0.0
 30
0.0
  3
*U42
  1

  0
TEXT
  5
305
  8
┌▓È_1
  6
CONTINUOUS
 10
880.70574072199997
 20
-426.51422864612118
 30
0.0
 40
5.84375
  1
 É¦îvü@ü@öÆÉ{ëÛ
  0
ENDBLK
  5
307
  8
0
  0
BLOCK
  8
0
  2
*U43
 70
     1
 10
0.0
 20
0.0
 30
0.0
  3
*U43
  1

  0
TEXT
  5
309
  8
┌▓È_1
  6
CONTINUOUS
 10
880.70574072199997
 20
-437.1688923517051
 30
0.0
 40
5.84375
  1
 É╗É}ü@ü@ è¦û{
  0
ENDBLK
  5
30B
  8
0
  0
BLOCK
  8
0
  2
*U44
 70
     1
 10
0.0
 20
0.0
 30
0.0
  3
*U44
  1

  0
TEXT
  5
30D
  8
┌▓È_1
  6
CONTINUOUS
 10
881.86920525009987
 20
-405.05658270703498
 30
0.0
 40
5.84375
  1
ü@ô· ü@òt
  0
ENDBLK
  5
30F
  8
0
  0
BLOCK
  8
0
  2
*U45
 70
     1
 10
0.0
 20
0.0
 30
0.0
  3
*U45
  1

  0
TEXT
  5
311
  8
┌▓È_1
  6
CONTINUOUS
 10
1042.9319893561999
 20
-405.0733272869025
 30
0.0
 40
5.84375
  1
î^öÈ
  0
ENDBLK
  5
313
  8
0
  0
BLOCK
  8
0
  2
*U46
 70
     1
 10
0.0
 20
0.0
 30
0.0
  3
*U46
  1

  0
TEXT
  5
315
  8
┌▓È_1
  6
CONTINUOUS
 10
1042.9319893561999
 20
-426.38265469806998
 30
0.0
 40
5.84375
  1
òiû╝
  0
ENDBLK
  5
317
  8
0
  0
BLOCK
  8
0
  2
*U47
 70
     1
 10
0.0
 20
0.0
 30
0.0
  3
*U47
  1

  0
TEXT
  5
319
  8
┌▓È_1
  6
CONTINUOUS
 10
1042.9319893561999
 20
-447.5733272869025
 30
0.0
 40
5.84375
  1
É}öÈ
  0
ENDBLK
  5
31B
  8
0
  0
BLOCK
  8
0
  2
*U48
 70
     1
 10
0.0
 20
0.0
 30
0.0
  3
*U48
  1

  0
TEXT
  5
31D
  8
┌▓È_1
  6
CONTINUOUS
 62
     5
 10
891.1688593768223
 20
-415.56292788469989
 30
0.0
 40
5.84375
  1
H16.4
  0
ENDBLK
  5
31F
  8
0
  0
BLOCK
  8
0
  2
*U49
 70
     1
 10
0.0
 20
0.0
 30
0.0
  3
*U49
  1

  0
TEXT
  5
321
  8
┌▓È_1
  6
CONTINUOUS
 62
     5
 10
937.20542346311674
 20
-415.91889235170498
 30
0.0
 40
5.84375
  1
ôS
  0
ENDBLK
  5
323
  8
0
  0
BLOCK
  8
0
  2
*U50
 70
     1
 10
0.0
 20
0.0
 30
0.0
  3
*U50
  1

  0
TEXT
  5
325
  8
┌▓È_1
  6
CONTINUOUS
 62
     5
 10
973.21565506210152
 20
-415.56292788469989
 30
0.0
 40
5.84375
  1
4.5t
  0
ENDBLK
  5
327
  8
0
  0
BLOCK
  8
0
  2
*U51
 70
     1
 10
0.0
 20
0.0
 30
0.0
  3
*U51
  1

  0
TEXT
  5
329
  8
┌▓È_1
  6
CONTINUOUS
 62
     5
 10
969.16655924991869
 20
-436.8129278847
 30
0.0
 40
5.84375
  1
1üF2.5
  0
ENDBLK
  5
32B
  8
0
  0
BLOCK
  8
0
  2
*U52
 70
     1
 10
0.0
 20
0.0
 30
0.0
  3
*U52
  1

  0
TEXT
  5
32D
  8
┌▓È_1
  6
CONTINUOUS
 10
921.86920525009987
 20
-405.14557382378632
 30
0.0
 40
5.84375
  1
ü@ìÌ ü@Ä┐
  0
ENDBLK
  5
32F
  8
0
  0
BLOCK
  8
0
  2
*U53
 70
     1
 10
0.0
 20
0.0
 30
0.0
  3
*U53
  1

  0
TEXT
  5
331
  8
┌▓È_1
  6
CONTINUOUS
 10
961.86920525009998
 20
-405.26422864612118
 30
0.0
 40
5.84375
  1
ü@ö┬ ü@î·
  0
ENDBLK
  5
333
  8
0
  0
BLOCK
  8
0
  2
*U54
 70
     1
 10
0.0
 20
0.0
 30
0.0
  3
*U54
  1

  0
TEXT
  5
335
  8
┌▓È_1
  6
CONTINUOUS
 10
880.70574072199997
 20
-393.77735860932228
 30
0.0
 40
8.9958328605000002
  1
ò\û╩ÅêùØüFâåâjâNâìâüâbâLÄdÅÒé░
  0
ENDBLK
  5
337
  8
0
  0
BLOCK
  8
0
  2
*U55
 70
     1
 10
0.0
 20
0.0
 30
0.0
  3
*U55
  1

  0
TEXT
  5
339
  8
┌▓È_1
  6
CONTINUOUS
 10
898.75712503390002
 20
-455.46144402591062
 30
0.0
 40
10.794999837900001
  1
èöÄ«ë´Äð
  0
ENDBLK
  5
33B
  8
0
  0
BLOCK
  8
0
  2
*U56
 70
     1
 10
0.0
 20
0.0
 30
0.0
  3
*U56
  1

  0
TEXT
  5
33D
  8
┌▓È_1
  6
CONTINUOUS
 10
1071.2455500488591
 20
-412.17824468329991
 30
0.0
 40
8.9958328605000002
  1
LY-201  200x200
  0
ENDBLK
  5
33F
  8
0
  0
BLOCK
  8
0
  2
*U57
 70
     1
 10
0.0
 20
0.0
 30
0.0
  3
*U57
  1

  0
TEXT
  5
341
  8
┌▓È_1
  6
CONTINUOUS
 10
1079.2186113917001
 20
-434.35282539280848
 30
0.0
 40
8.9958328605000002
  1
ékî^âAâôâOâï
  0
ENDBLK
  5
343
  8
0
  0
BLOCK
  8
0
  2
*U58
 70
     1
 10
0.0
 20
0.0
 30
0.0
  3
*U58
  1

  0
TEXT
  5
345
  8
┌▓È_1
  6
CONTINUOUS
 10
1028.6791240105431
 20
-237.78874320480659
 30
0.0
 40
7.4965279578999988
  1
ÄMâéâ~òöègæÕÉ}
  0
ENDBLK
  5
347
  8
0
  0
BLOCK
  8
0
  2
*D59
 70
     1
 10
0.0
 20
0.0
 30
0.0
  3
*D59
  1

  0
LINE
  5
34A
  8
Éíû@É³
 62
     0
 10
1040.968000316376
 20
-171.57772062252411
 30
0.0
 11
1015.115532030958
 21
-197.4301889079415
 31
0.0
  0
LINE
  5
34B
  8
Éíû@É³
 62
     0
 10
1084.6170488358241
 20
-171.57772062252411
 30
0.0
 11
1110.4695171212411
 21
-197.4301889079415
 31
0.0
  0
ARC
  5
34C
  8
Éíû@É³
 62
     0
 10
1062.7925245761
 20
-149.7531963628
 30
0.0
 40
66.175449470500013
 50
231.49710230538921
 51
260.02770343609711
  0
ARC
  5
34D
  8
Éíû@É³
 62
     0
 10
1062.7925245761
 20
-149.7531963628
 30
0.0
 40
66.175449470500013
 50
279.972296563903
 51
308.50289769461091
  0
SOLID
  5
34E
  8
Éíû@É³
 62
     0
 10
1020.762343867393
 20
-202.47311008809831
 30
0.0
 11
1022.427095196036
 21
-200.6080087466739
 31
0.0
 12
1015.999415507442
 22
-196.54630543145819
 32
0.0
 13
1015.999415507442
 23
-196.54630543145819
 33
0.0
  0
SOLID
  5
34F
  8
Éíû@É³
 62
     0
 10
1103.157953956164
 20
-200.6080087466739
 30
0.0
 11
1104.822705284806
 21
-202.47311008809831
 31
0.0
 12
1109.585633644758
 22
-196.54630543145819
 32
0.0
 13
1109.585633644758
 23
-196.54630543145819
 33
0.0
  0
TEXT
  8
Éíû@É³
  40
7.49653
  5
373
  62
0
  72
0
  71
0
 10
1047.80
 20
-229.198
 30
0.000000
  1
90üï
  0
POINT
  5
351
  8
Defpoints
 62
     0
 10
1062.7925245761
 20
-149.7531963628
 30
0.0
  0
POINT
  5
352
  8
Defpoints
 62
     0
 10
1041.0121944902
 20
-171.5335264487
 30
0.0
  0
POINT
  5
353
  8
Defpoints
 62
     0
 10
1084.5728546620001
 20
-171.5335264487
 30
0.0
  0
POINT
  5
354
  8
Defpoints
 62
     0
 10
1045.665057934915
 20
-213.6737720726432
 30
0.0
  0
ENDBLK
  5
356
  8
0
  0
BLOCK
  8
0
  2
*D60
 70
     1
 10
0.0
 20
0.0
 30
0.0
  3
*D60
  1

  0
LINE
  5
358
  8
Éíû@É³
 62
     0
 10
1084.6170488358241
 20
-147.9286721030758
 30
0.0
 11
1125.1310352096459
 21
-107.4146857292541
 31
0.0
  0
LINE
  5
359
  8
Éíû@É³
 62
     0
 10
1040.968000316376
 20
-147.9286721030758
 30
0.0
 11
1000.454013942554
 21
-107.4146857292541
 31
0.0
  0
ARC
  5
35A
  8
Éíû@É³
 62
     0
 10
1062.7925245761
 20
-169.7531963628
 30
0.0
 40
86.909967196099998
 50
49.945943609072451
 51
82.423054613855797
  0
ARC
  5
35B
  8
Éíû@É³
 62
     0
 10
1062.7925245761
 20
-169.7531963628
 30
0.0
 40
86.909967196099998
 50
97.576945386144203
 51
130.05405639092751
  0
SOLID
  5
35C
  8
Éíû@É³
 62
     0
 10
1119.5648849598499
 20
-102.3078365407345
 30
0.0
 11
1117.875040137325
 21
-104.1502329355929
 31
0.0
 12
1124.247151733163
 22
-108.29856920573729
 32
0.0
 13
1124.247151733163
 23
-108.29856920573729
 33
0.0
  0
SOLID
  5
35D
  8
Éíû@É³
 62
     0
 10
1007.710009014874
 20
-104.1502329355929
 30
0.0
 11
1006.02016419235
 21
-102.3078365407345
 31
0.0
 12
1001.3378974190369
 22
-108.29856920573729
 32
0.0
 13
1001.3378974190369
 23
-108.29856920573729
 33
0.0
  0
TEXT
  8
Éíû@É³
  40
7.49653
  5
374
  62
0
  72
0
  71
0
 10
1047.80
 20
-96.1121
 30
0.000000
  1
90üï
  0
POINT
  5
35F
  8
Defpoints
 62
     0
 10
1062.7925245761
 20
-169.7531963628
 30
0.0
  0
POINT
  5
360
  8
Defpoints
 62
     0
 10
1084.5728546620001
 20
-147.97286627689999
 30
0.0
  0
POINT
  5
361
  8
Defpoints
 62
     0
 10
1041.0121944902
 20
-147.97286627689999
 30
0.0
  0
POINT
  5
362
  8
Defpoints
 62
     0
 10
1085.2864792956859
 20
-85.804614486151294
 30
0.0
  0
ENDBLK
  5
364
  8
0
  0
BLOCK
  8
0
  2
*D61
 70
     1
 10
0.0
 20
0.0
 30
0.0
  3
*D61
  1

  0
LINE
  5
366
  8
Éíû@É³
 62
     0
 10
816.33321106339974
 20
-251.33839948100001
 30
0.0
 11
698.04119262248014
 21
-251.3383994809999
 31
0.0
  0
LINE
  5
367
  8
Éíû@É³
 62
     0
 10
620.89571106339974
 20
-55.90089948100001
 30
0.0
 11
620.89571106339974
 21
-174.19291792191959
 31
0.0
  0
ARC
  5
368
  8
Éíû@É³
 62
     0
 10
620.89571106339974
 20
-251.3383994809999
 30
0.0
 40
78.395481559080267
 50
5.4835097880617418
 51
36.486291259678502
  0
ARC
  5
369
  8
Éíû@É³
 62
     0
 10
620.89571106339974
 20
-251.3383994809999
 30
0.0
 40
78.395481559080267
 50
53.297350443924707
 51
84.516490211938191
  0
SOLID
  5
36A
  8
Éíû@É³
 62
     0
 10
700.18100380172291
 20
-243.78719189113099
 30
0.0
 11
697.6838656007252
 21
-243.906777864883
 31
0.0
 12
699.29119262248014
 22
-251.33839948100001
 32
0.0
 13
699.29119262248014
 23
-251.33839948100001
 33
0.0
  0
SOLID
  5
36B
  8
Éíû@É³
 62
     0
 10
628.32733267951676
 20
-174.5502449436745
 30
0.0
 11
628.44691865326865
 21
-172.05310674267679
 31
0.0
 12
620.89571106339974
 22
-172.94291792191959
 32
0.0
 13
620.89571106339974
 23
-172.94291792191959
 33
0.0
  0
TEXT
  8
Éíû@É³
  40
7.49653
  5
375
  62
0
  72
0
  71
0
 10
661.441
 20
-209.278
 30
0.000000
  1
90üï
  0
POINT
  5
36D
  8
Defpoints
 62
     0
 10
620.89571106339974
 20
-251.3383994809999
 30
0.0
  0
POINT
  5
36E
  8
Defpoints
 62
     0
 10
816.39571106339974
 20
-251.3383994810001
 30
0.0
  0
POINT
  5
36F
  8
Defpoints
 62
     0
 10
620.89571106339974
 20
-55.83839948100001
 30
0.0
  0
POINT
  5
370
  8
Defpoints
 62
     0
 10
660.09345184294
 20
-183.44592090892201
 30
0.0
  0
ENDBLK
  5
372
  8
0
  0
ENDSEC
  0
SECTION
  2
ENTITIES
  0
INSERT
  5
2F
  8
0
  6
CONTINUOUS
  2
*U40
 10
0.0
 20
0.0
 30
0.0
  0
INSERT
  5
30
  8
0
  6
CONTINUOUS
  2
*U41
 10
0.0
 20
0.0
 30
0.0
  0
LINE
  5
31
  8
┌▓È_1
 10
880.70574072199997
 20
-418.58034436629993
 30
0.0
 11
1000.705740722
 21
-418.58034436629993
 31
0.0
  0
LINE
  5
32
  8
┌▓È_1
 10
1000.705740722
 20
-407.95534436629998
 30
0.0
 11
1040.705740722
 21
-407.95534436629998
 31
0.0
  0
LINE
  5
33
  8
┌▓È_1
 62
     5
 10
1006.5199562581
 20
-454.25999843250003
 30
0.0
 11
1006.5199562581
 21
-457.25999843250003
 31
0.0
  0
POLYLINE
  8
┌▓È_1
  5
376
  62
5
  66
     1
 10
0.000000
 20
0.000000
 30
0.000000
  70
     8
  0
VERTEX
  8
┌▓È_1
  5
377
 10
995.389
 20
-449.036
 30
0.000000
  70
    32
  0
VERTEX
  8
┌▓È_1
  5
378
 10
995.402
 20
-449.050
 30
0.000000
  70
    32
  0
VERTEX
  8
┌▓È_1
  5
379
 10
995.415
 20
-449.065
 30
0.000000
  70
    32
  0
VERTEX
  8
┌▓È_1
  5
37A
 10
995.428
 20
-449.080
 30
0.000000
  70
    32
  0
VERTEX
  8
┌▓È_1
  5
37B
 10
995.441
 20
-449.094
 30
0.000000
  70
    32
  0
VERTEX
  8
┌▓È_1
  5
37C
 10
995.455
 20
-449.109
 30
0.000000
  70
    32
  0
VERTEX
  8
┌▓È_1
  5
37D
 10
995.468
 20
-449.124
 30
0.000000
  70
    32
  0
VERTEX
  8
┌▓È_1
  5
37E
 10
995.481
 20
-449.139
 30
0.000000
  70
    32
  0
VERTEX
  8
┌▓È_1
  5
37F
 10
995.494
 20
-449.153
 30
0.000000
  70
    32
  0
VERTEX
  8
┌▓È_1
  5
380
 10
995.507
 20
-449.168
 30
0.000000
  70
    32
  0
VERTEX
  8
┌▓È_1
  5
381
 10
995.521
 20
-449.183
 30
0.000000
  70
    32
  0
VERTEX
  8
┌▓È_1
  5
382
 10
995.534
 20
-449.197
 30
0.000000
  70
    32
  0
VERTEX
  8
┌▓È_1
  5
383
 10
995.547
 20
-449.212
 30
0.000000
  70
    32
  0
VERTEX
  8
┌▓È_1
  5
384
 10
995.560
 20
-449.227
 30
0.000000
  70
    32
  0
VERTEX
  8
┌▓È_1
  5
385
 10
995.573
 20
-449.242
 30
0.000000
  70
    32
  0
VERTEX
  8
┌▓È_1
  5
386
 10
995.587
 20
-449.256
 30
0.000000
  70
    32
  0
VERTEX
  8
┌▓È_1
  5
387
 10
995.600
 20
-449.271
 30
0.000000
  70
    32
  0
VERTEX
  8
┌▓È_1
  5
388
 10
995.613
 20
-449.286
 30
0.000000
  70
    32
  0
VERTEX
  8
┌▓È_1
  5
389
 10
995.626
 20
-449.300
 30
0.000000
  70
    32
  0
VERTEX
  8
┌▓È_1
  5
38A
 10
995.640
 20
-449.315
 30
0.000000
  70
    32
  0
VERTEX
  8
┌▓È_1
  5
38B
 10
995.653
 20
-449.330
 30
0.000000
  70
    32
  0
VERTEX
  8
┌▓È_1
  5
38C
 10
995.666
 20
-449.344
 30
0.000000
  70
    32
  0
VERTEX
  8
┌▓È_1
  5
38D
 10
995.679
 20
-449.359
 30
0.000000
  70
    32
  0
VERTEX
  8
┌▓È_1
  5
38E
 10
995.692
 20
-449.374
 30
0.000000
  70
    32
  0
VERTEX
  8
┌▓È_1
  5
38F
 10
995.706
 20
-449.388
 30
0.000000
  70
    32
  0
VERTEX
  8
┌▓È_1
  5
390
 10
995.719
 20
-449.403
 30
0.000000
  70
    32
  0
VERTEX
  8
┌▓È_1
  5
391
 10
995.732
 20
-449.418
 30
0.000000
  70
    32
  0
VERTEX
  8
┌▓È_1
  5
392
 10
995.745
 20
-449.432
 30
0.000000
  70
    32
  0
VERTEX
  8
┌▓È_1
  5
393
 10
995.759
 20
-449.447
 30
0.000000
  70
    32
  0
VERTEX
  8
┌▓È_1
  5
394
 10
995.772
 20
-449.461
 30
0.000000
  70
    32
  0
VERTEX
  8
┌▓È_1
  5
395
 10
995.785
 20
-449.476
 30
0.000000
  70
    32
  0
VERTEX
  8
┌▓È_1
  5
396
 10
995.798
 20
-449.491
 30
0.000000
  70
    32
  0
VERTEX
  8
┌▓È_1
  5
397
 10
995.812
 20
-449.505
 30
0.000000
  70
    32
  0
VERTEX
  8
┌▓È_1
  5
398
 10
995.825
 20
-449.520
 30
0.000000
  70
    32
  0
VERTEX
  8
┌▓È_1
  5
399
 10
995.838
 20
-449.535
 30
0.000000
  70
    32
  0
VERTEX
  8
┌▓È_1
  5
39A
 10
995.852
 20
-449.549
 30
0.000000
  70
    32
  0
VERTEX
  8
┌▓È_1
  5
39B
 10
995.865
 20
-449.564
 30
0.000000
  70
    32
  0
VERTEX
  8
┌▓È_1
  5
39C
 10
995.878
 20
-449.578
 30
0.000000
  70
    32
  0
VERTEX
  8
┌▓È_1
  5
39D
 10
995.891
 20
-449.593
 30
0.000000
  70
    32
  0
VERTEX
  8
┌▓È_1
  5
39E
 10
995.905
 20
-449.607
 30
0.000000
  70
    32
  0
VERTEX
  8
┌▓È_1
  5
39F
 10
995.918
 20
-449.622
 30
0.000000
  70
    32
  0
VERTEX
  8
┌▓È_1
  5
3A0
 10
995.931
 20
-449.636
 30
0.000000
  70
    32
  0
VERTEX
  8
┌▓È_1
  5
3A1
 10
995.945
 20
-449.651
 30
0.000000
  70
    32
  0
VERTEX
  8
┌▓È_1
  5
3A2
 10
995.958
 20
-449.665
 30
0.000000
  70
    32
  0
VERTEX
  8
┌▓È_1
  5
3A3
 10
995.971
 20
-449.680
 30
0.000000
  70
    32
  0
VERTEX
  8
┌▓È_1
  5
3A4
 10
995.985
 20
-449.694
 30
0.000000
  70
    32
  0
VERTEX
  8
┌▓È_1
  5
3A5
 10
995.998
 20
-449.709
 30
0.000000
  70
    32
  0
VERTEX
  8
┌▓È_1
  5
3A6
 10
996.011
 20
-449.723
 30
0.000000
  70
    32
  0
VERTEX
  8
┌▓È_1
  5
3A7
 10
996.025
 20
-449.738
 30
0.000000
  70
    32
  0
VERTEX
  8
┌▓È_1
  5
3A8
 10
996.038
 20
-449.752
 30
0.000000
  70
    32
  0
VERTEX
  8
┌▓È_1
  5
3A9
 10
996.051
 20
-449.767
 30
0.000000
  70
    32
  0
VERTEX
  8
┌▓È_1
  5
3AA
 10
996.065
 20
-449.781
 30
0.000000
  70
    32
  0
VERTEX
  8
┌▓È_1
  5
3AB
 10
996.078
 20
-449.796
 30
0.000000
  70
    32
  0
VERTEX
  8
┌▓È_1
  5
3AC
 10
996.092
 20
-449.810
 30
0.000000
  70
    32
  0
VERTEX
  8
┌▓È_1
  5
3AD
 10
996.105
 20
-449.825
 30
0.000000
  70
    32
  0
VERTEX
  8
┌▓È_1
  5
3AE
 10
996.118
 20
-449.839
 30
0.000000
  70
    32
  0
VERTEX
  8
┌▓È_1
  5
3AF
 10
996.132
 20
-449.853
 30
0.000000
  70
    32
  0
VERTEX
  8
┌▓È_1
  5
3B0
 10
996.145
 20
-449.868
 30
0.000000
  70
    32
  0
VERTEX
  8
┌▓È_1
  5
3B1
 10
996.159
 20
-449.882
 30
0.000000
  70
    32
  0
VERTEX
  8
┌▓È_1
  5
3B2
 10
996.172
 20
-449.896
 30
0.000000
  70
    32
  0
VERTEX
  8
┌▓È_1
  5
3B3
 10
996.185
 20
-449.911
 30
0.000000
  70
    32
  0
VERTEX
  8
┌▓È_1
  5
3B4
 10
996.199
 20
-449.925
 30
0.000000
  70
    32
  0
VERTEX
  8
┌▓È_1
  5
3B5
 10
996.212
 20
-449.939
 30
0.000000
  70
    32
  0
VERTEX
  8
┌▓È_1
  5
3B6
 10
996.226
 20
-449.954
 30
0.000000
  70
    32
  0
VERTEX
  8
┌▓È_1
  5
3B7
 10
996.239
 20
-449.968
 30
0.000000
  70
    32
  0
VERTEX
  8
┌▓È_1
  5
3B8
 10
996.253
 20
-449.982
 30
0.000000
  70
    32
  0
VERTEX
  8
┌▓È_1
  5
3B9
 10
996.266
 20
-449.996
 30
0.000000
  70
    32
  0
VERTEX
  8
┌▓È_1
  5
3BA
 10
996.280
 20
-450.011
 30
0.000000
  70
    32
  0
VERTEX
  8
┌▓È_1
  5
3BB
 10
996.293
 20
-450.025
 30
0.000000
  70
    32
  0
VERTEX
  8
┌▓È_1
  5
3BC
 10
996.307
 20
-450.039
 30
0.000000
  70
    32
  0
VERTEX
  8
┌▓È_1
  5
3BD
 10
996.320
 20
-450.053
 30
0.000000
  70
    32
  0
VERTEX
  8
┌▓È_1
  5
3BE
 10
996.334
 20
-450.067
 30
0.000000
  70
    32
  0
VERTEX
  8
┌▓È_1
  5
3BF
 10
996.347
 20
-450.082
 30
0.000000
  70
    32
  0
VERTEX
  8
┌▓È_1
  5
3C0
 10
996.361
 20
-450.096
 30
0.000000
  70
    32
  0
VERTEX
  8
┌▓È_1
  5
3C1
 10
996.375
 20
-450.110
 30
0.000000
  70
    32
  0
VERTEX
  8
┌▓È_1
  5
3C2
 10
996.388
 20
-450.124
 30
0.000000
  70
    32
  0
VERTEX
  8
┌▓È_1
  5
3C3
 10
996.402
 20
-450.138
 30
0.000000
  70
    32
  0
VERTEX
  8
┌▓È_1
  5
3C4
 10
996.415
 20
-450.152
 30
0.000000
  70
    32
  0
VERTEX
  8
┌▓È_1
  5
3C5
 10
996.429
 20
-450.166
 30
0.000000
  70
    32
  0
VERTEX
  8
┌▓È_1
  5
3C6
 10
996.442
 20
-450.180
 30
0.000000
  70
    32
  0
VERTEX
  8
┌▓È_1
  5
3C7
 10
996.456
 20
-450.194
 30
0.000000
  70
    32
  0
VERTEX
  8
┌▓È_1
  5
3C8
 10
996.470
 20
-450.208
 30
0.000000
  70
    32
  0
VERTEX
  8
┌▓È_1
  5
3C9
 10
996.483
 20
-450.222
 30
0.000000
  70
    32
  0
VERTEX
  8
┌▓È_1
  5
3CA
 10
996.497
 20
-450.236
 30
0.000000
  70
    32
  0
VERTEX
  8
┌▓È_1
  5
3CB
 10
996.511
 20
-450.250
 30
0.000000
  70
    32
  0
VERTEX
  8
┌▓È_1
  5
3CC
 10
996.524
 20
-450.264
 30
0.000000
  70
    32
  0
VERTEX
  8
┌▓È_1
  5
3CD
 10
996.538
 20
-450.278
 30
0.000000
  70
    32
  0
VERTEX
  8
┌▓È_1
  5
3CE
 10
996.552
 20
-450.292
 30
0.000000
  70
    32
  0
VERTEX
  8
┌▓È_1
  5
3CF
 10
996.566
 20
-450.306
 30
0.000000
  70
    32
  0
VERTEX
  8
┌▓È_1
  5
3D0
 10
996.579
 20
-450.320
 30
0.000000
  70
    32
  0
VERTEX
  8
┌▓È_1
  5
3D1
 10
996.593
 20
-450.333
 30
0.000000
  70
    32
  0
VERTEX
  8
┌▓È_1
  5
3D2
 10
996.607
 20
-450.347
 30
0.000000
  70
    32
  0
VERTEX
  8
┌▓È_1
  5
3D3
 10
996.621
 20
-450.361
 30
0.000000
  70
    32
  0
VERTEX
  8
┌▓È_1
  5
3D4
 10
996.634
 20
-450.375
 30
0.000000
  70
    32
  0
VERTEX
  8
┌▓È_1
  5
3D5
 10
996.648
 20
-450.389
 30
0.000000
  70
    32
  0
VERTEX
  8
┌▓È_1
  5
3D6
 10
996.662
 20
-450.402
 30
0.000000
  70
    32
  0
VERTEX
  8
┌▓È_1
  5
3D7
 10
996.676
 20
-450.416
 30
0.000000
  70
    32
  0
VERTEX
  8
┌▓È_1
  5
3D8
 10
996.690
 20
-450.430
 30
0.000000
  70
    32
  0
VERTEX
  8
┌▓È_1
  5
3D9
 10
996.703
 20
-450.443
 30
0.000000
  70
    32
  0
VERTEX
  8
┌▓È_1
  5
3DA
 10
996.717
 20
-450.457
 30
0.000000
  70
    32
  0
VERTEX
  8
┌▓È_1
  5
3DB
 10
996.731
 20
-450.471
 30
0.000000
  70
    32
  0
VERTEX
  8
┌▓È_1
  5
3DC
 10
996.745
 20
-450.484
 30
0.000000
  70
    32
  0
VERTEX
  8
┌▓È_1
  5
3DD
 10
996.759
 20
-450.498
 30
0.000000
  70
    32
  0
VERTEX
  8
┌▓È_1
  5
3DE
 10
996.773
 20
-450.511
 30
0.000000
  70
    32
  0
VERTEX
  8
┌▓È_1
  5
3DF
 10
996.787
 20
-450.525
 30
0.000000
  70
    32
  0
VERTEX
  8
┌▓È_1
  5
3E0
 10
996.801
 20
-450.538
 30
0.000000
  70
    32
  0
VERTEX
  8
┌▓È_1
  5
3E1
 10
996.815
 20
-450.552
 30
0.000000
  70
    32
  0
VERTEX
  8
┌▓È_1
  5
3E2
 10
996.829
 20
-450.565
 30
0.000000
  70
    32
  0
VERTEX
  8
┌▓È_1
  5
3E3
 10
996.843
 20
-450.579
 30
0.000000
  70
    32
  0
VERTEX
  8
┌▓È_1
  5
3E4
 10
996.857
 20
-450.592
 30
0.000000
  70
    32
  0
VERTEX
  8
┌▓È_1
  5
3E5
 10
996.871
 20
-450.606
 30
0.000000
  70
    32
  0
VERTEX
  8
┌▓È_1
  5
3E6
 10
996.885
 20
-450.619
 30
0.000000
  70
    32
  0
VERTEX
  8
┌▓È_1
  5
3E7
 10
996.899
 20
-450.632
 30
0.000000
  70
    32
  0
VERTEX
  8
┌▓È_1
  5
3E8
 10
996.913
 20
-450.646
 30
0.000000
  70
    32
  0
VERTEX
  8
┌▓È_1
  5
3E9
 10
996.927
 20
-450.659
 30
0.000000
  70
    32
  0
VERTEX
  8
┌▓È_1
  5
3EA
 10
996.941
 20
-450.672
 30
0.000000
  70
    32
  0
VERTEX
  8
┌▓È_1
  5
3EB
 10
996.955
 20
-450.686
 30
0.000000
  70
    32
  0
VERTEX
  8
┌▓È_1
  5
3EC
 10
996.969
 20
-450.699
 30
0.000000
  70
    32
  0
VERTEX
  8
┌▓È_1
  5
3ED
 10
996.983
 20
-450.712
 30
0.000000
  70
    32
  0
VERTEX
  8
┌▓È_1
  5
3EE
 10
996.998
 20
-450.725
 30
0.000000
  70
    32
  0
VERTEX
  8
┌▓È_1
  5
3EF
 10
997.012
 20
-450.738
 30
0.000000
  70
    32
  0
VERTEX
  8
┌▓È_1
  5
3F0
 10
997.026
 20
-450.751
 30
0.000000
  70
    32
  0
VERTEX
  8
┌▓È_1
  5
3F1
 10
997.040
 20
-450.765
 30
0.000000
  70
    32
  0
VERTEX
  8
┌▓È_1
  5
3F2
 10
997.054
 20
-450.778
 30
0.000000
  70
    32
  0
VERTEX
  8
┌▓È_1
  5
3F3
 10
997.069
 20
-450.791
 30
0.000000
  70
    32
  0
VERTEX
  8
┌▓È_1
  5
3F4
 10
997.083
 20
-450.804
 30
0.000000
  70
    32
  0
VERTEX
  8
┌▓È_1
  5
3F5
 10
997.097
 20
-450.817
 30
0.000000
  70
    32
  0
VERTEX
  8
┌▓È_1
  5
3F6
 10
997.111
 20
-450.830
 30
0.000000
  70
    32
  0
SEQEND
  8
┌▓È_1
  5
3F7
  0
POLYLINE
  8
┌▓È_1
  5
3F8
  62
5
  66
     1
 10
0.000000
 20
0.000000
 30
0.000000
  70
     8
  0
VERTEX
  8
┌▓È_1
  5
3F9
 10
999.438
 20
-455.533
 30
0.000000
  70
    32
  0
VERTEX
  8
┌▓È_1
  5
3FA
 10
999.491
 20
-455.550
 30
0.000000
  70
    32
  0
VERTEX
  8
┌▓È_1
  5
3FB
 10
999.545
 20
-455.567
 30
0.000000
  70
    32
  0
VERTEX
  8
┌▓È_1
  5
3FC
 10
999.599
 20
-455.584
 30
0.000000
  70
    32
  0
VERTEX
  8
┌▓È_1
  5
3FD
 10
999.653
 20
-455.601
 30
0.000000
  70
    32
  0
VERTEX
  8
┌▓È_1
  5
3FE
 10
999.707
 20
-455.618
 30
0.000000
  70
    32
  0
VERTEX
  8
┌▓È_1
  5
3FF
 10
999.761
 20
-455.634
 30
0.000000
  70
    32
  0
VERTEX
  8
┌▓È_1
  5
400
 10
999.815
 20
-455.651
 30
0.000000
  70
    32
  0
VERTEX
  8
┌▓È_1
  5
401
 10
999.869
 20
-455.668
 30
0.000000
  70
    32
  0
VERTEX
  8
┌▓È_1
  5
402
 10
999.924
 20
-455.684
 30
0.000000
  70
    32
  0
VERTEX
  8
┌▓È_1
  5
403
 10
999.978
 20
-455.701
 30
0.000000
  70
    32
  0
VERTEX
  8
┌▓È_1
  5
404
 10
1000.03
 20
-455.717
 30
0.000000
  70
    32
  0
VERTEX
  8
┌▓È_1
  5
405
 10
1000.09
 20
-455.733
 30
0.000000
  70
    32
  0
VERTEX
  8
┌▓È_1
  5
406
 10
1000.14
 20
-455.749
 30
0.000000
  70
    32
  0
VERTEX
  8
┌▓È_1
  5
407
 10
1000.20
 20
-455.766
 30
0.000000
  70
    32
  0
VERTEX
  8
┌▓È_1
  5
408
 10
1000.25
 20
-455.782
 30
0.000000
  70
    32
  0
VERTEX
  8
┌▓È_1
  5
409
 10
1000.30
 20
-455.798
 30
0.000000
  70
    32
  0
VERTEX
  8
┌▓È_1
  5
40A
 10
1000.36
 20
-455.813
 30
0.000000
  70
    32
  0
VERTEX
  8
┌▓È_1
  5
40B
 10
1000.41
 20
-455.829
 30
0.000000
  70
    32
  0
VERTEX
  8
┌▓È_1
  5
40C
 10
1000.47
 20
-455.845
 30
0.000000
  70
    32
  0
VERTEX
  8
┌▓È_1
  5
40D
 10
1000.52
 20
-455.861
 30
0.000000
  70
    32
  0
VERTEX
  8
┌▓È_1
  5
40E
 10
1000.58
 20
-455.876
 30
0.000000
  70
    32
  0
VERTEX
  8
┌▓È_1
  5
40F
 10
1000.63
 20
-455.892
 30
0.000000
  70
    32
  0
VERTEX
  8
┌▓È_1
  5
410
 10
1000.69
 20
-455.907
 30
0.000000
  70
    32
  0
VERTEX
  8
┌▓È_1
  5
411
 10
1000.74
 20
-455.923
 30
0.000000
  70
    32
  0
VERTEX
  8
┌▓È_1
  5
412
 10
1000.80
 20
-455.938
 30
0.000000
  70
    32
  0
VERTEX
  8
┌▓È_1
  5
413
 10
1000.85
 20
-455.953
 30
0.000000
  70
    32
  0
VERTEX
  8
┌▓È_1
  5
414
 10
1000.91
 20
-455.968
 30
0.000000
  70
    32
  0
VERTEX
  8
┌▓È_1
  5
415
 10
1000.96
 20
-455.984
 30
0.000000
  70
    32
  0
VERTEX
  8
┌▓È_1
  5
416
 10
1001.02
 20
-455.999
 30
0.000000
  70
    32
  0
VERTEX
  8
┌▓È_1
  5
417
 10
1001.07
 20
-456.014
 30
0.000000
  70
    32
  0
VERTEX
  8
┌▓È_1
  5
418
 10
1001.13
 20
-456.029
 30
0.000000
  70
    32
  0
VERTEX
  8
┌▓È_1
  5
419
 10
1001.18
 20
-456.043
 30
0.000000
  70
    32
  0
VERTEX
  8
┌▓È_1
  5
41A
 10
1001.24
 20
-456.058
 30
0.000000
  70
    32
  0
VERTEX
  8
┌▓È_1
  5
41B
 10
1001.29
 20
-456.073
 30
0.000000
  70
    32
  0
VERTEX
  8
┌▓È_1
  5
41C
 10
1001.35
 20
-456.088
 30
0.000000
  70
    32
  0
VERTEX
  8
┌▓È_1
  5
41D
 10
1001.40
 20
-456.102
 30
0.000000
  70
    32
  0
VERTEX
  8
┌▓È_1
  5
41E
 10
1001.46
 20
-456.117
 30
0.000000
  70
    32
  0
VERTEX
  8
┌▓È_1
  5
41F
 10
1001.51
 20
-456.131
 30
0.000000
  70
    32
  0
VERTEX
  8
┌▓È_1
  5
420
 10
1001.57
 20
-456.146
 30
0.000000
  70
    32
  0
VERTEX
  8
┌▓È_1
  5
421
 10
1001.62
 20
-456.160
 30
0.000000
  70
    32
  0
VERTEX
  8
┌▓È_1
  5
422
 10
1001.68
 20
-456.174
 30
0.000000
  70
    32
  0
VERTEX
  8
┌▓È_1
  5
423
 10
1001.73
 20
-456.189
 30
0.000000
  70
    32
  0
VERTEX
  8
┌▓È_1
  5
424
 10
1001.79
 20
-456.203
 30
0.000000
  70
    32
  0
VERTEX
  8
┌▓È_1
  5
425
 10
1001.84
 20
-456.217
 30
0.000000
  70
    32
  0
VERTEX
  8
┌▓È_1
  5
426
 10
1001.90
 20
-456.231
 30
0.000000
  70
    32
  0
VERTEX
  8
┌▓È_1
  5
427
 10
1001.96
 20
-456.245
 30
0.000000
  70
    32
  0
VERTEX
  8
┌▓È_1
  5
428
 10
1002.01
 20
-456.259
 30
0.000000
  70
    32
  0
VERTEX
  8
┌▓È_1
  5
429
 10
1002.07
 20
-456.273
 30
0.000000
  70
    32
  0
VERTEX
  8
┌▓È_1
  5
42A
 10
1002.12
 20
-456.287
 30
0.000000
  70
    32
  0
VERTEX
  8
┌▓È_1
  5
42B
 10
1002.18
 20
-456.301
 30
0.000000
  70
    32
  0
VERTEX
  8
┌▓È_1
  5
42C
 10
1002.23
 20
-456.314
 30
0.000000
  70
    32
  0
VERTEX
  8
┌▓È_1
  5
42D
 10
1002.29
 20
-456.328
 30
0.000000
  70
    32
  0
VERTEX
  8
┌▓È_1
  5
42E
 10
1002.35
 20
-456.342
 30
0.000000
  70
    32
  0
VERTEX
  8
┌▓È_1
  5
42F
 10
1002.40
 20
-456.355
 30
0.000000
  70
    32
  0
VERTEX
  8
┌▓È_1
  5
430
 10
1002.46
 20
-456.369
 30
0.000000
  70
    32
  0
VERTEX
  8
┌▓È_1
  5
431
 10
1002.51
 20
-456.382
 30
0.000000
  70
    32
  0
VERTEX
  8
┌▓È_1
  5
432
 10
1002.57
 20
-456.396
 30
0.000000
  70
    32
  0
VERTEX
  8
┌▓È_1
  5
433
 10
1002.62
 20
-456.409
 30
0.000000
  70
    32
  0
VERTEX
  8
┌▓È_1
  5
434
 10
1002.68
 20
-456.423
 30
0.000000
  70
    32
  0
VERTEX
  8
┌▓È_1
  5
435
 10
1002.74
 20
-456.436
 30
0.000000
  70
    32
  0
VERTEX
  8
┌▓È_1
  5
436
 10
1002.79
 20
-456.449
 30
0.000000
  70
    32
  0
VERTEX
  8
┌▓È_1
  5
437
 10
1002.85
 20
-456.463
 30
0.000000
  70
    32
  0
VERTEX
  8
┌▓È_1
  5
438
 10
1002.90
 20
-456.476
 30
0.000000
  70
    32
  0
VERTEX
  8
┌▓È_1
  5
439
 10
1002.96
 20
-456.489
 30
0.000000
  70
    32
  0
VERTEX
  8
┌▓È_1
  5
43A
 10
1003.02
 20
-456.502
 30
0.000000
  70
    32
  0
VERTEX
  8
┌▓È_1
  5
43B
 10
1003.07
 20
-456.515
 30
0.000000
  70
    32
  0
VERTEX
  8
┌▓È_1
  5
43C
 10
1003.13
 20
-456.528
 30
0.000000
  70
    32
  0
VERTEX
  8
┌▓È_1
  5
43D
 10
1003.18
 20
-456.541
 30
0.000000
  70
    32
  0
VERTEX
  8
┌▓È_1
  5
43E
 10
1003.24
 20
-456.554
 30
0.000000
  70
    32
  0
VERTEX
  8
┌▓È_1
  5
43F
 10
1003.30
 20
-456.567
 30
0.000000
  70
    32
  0
VERTEX
  8
┌▓È_1
  5
440
 10
1003.35
 20
-456.580
 30
0.000000
  70
    32
  0
VERTEX
  8
┌▓È_1
  5
441
 10
1003.41
 20
-456.593
 30
0.000000
  70
    32
  0
VERTEX
  8
┌▓È_1
  5
442
 10
1003.47
 20
-456.605
 30
0.000000
  70
    32
  0
VERTEX
  8
┌▓È_1
  5
443
 10
1003.52
 20
-456.618
 30
0.000000
  70
    32
  0
VERTEX
  8
┌▓È_1
  5
444
 10
1003.58
 20
-456.631
 30
0.000000
  70
    32
  0
VERTEX
  8
┌▓È_1
  5
445
 10
1003.63
 20
-456.644
 30
0.000000
  70
    32
  0
VERTEX
  8
┌▓È_1
  5
446
 10
1003.69
 20
-456.656
 30
0.000000
  70
    32
  0
VERTEX
  8
┌▓È_1
  5
447
 10
1003.75
 20
-456.669
 30
0.000000
  70
    32
  0
VERTEX
  8
┌▓È_1
  5
448
 10
1003.80
 20
-456.681
 30
0.000000
  70
    32
  0
VERTEX
  8
┌▓È_1
  5
449
 10
1003.86
 20
-456.694
 30
0.000000
  70
    32
  0
VERTEX
  8
┌▓È_1
  5
44A
 10
1003.92
 20
-456.706
 30
0.000000
  70
    32
  0
VERTEX
  8
┌▓È_1
  5
44B
 10
1003.97
 20
-456.719
 30
0.000000
  70
    32
  0
VERTEX
  8
┌▓È_1
  5
44C
 10
1004.03
 20
-456.731
 30
0.000000
  70
    32
  0
VERTEX
  8
┌▓È_1
  5
44D
 10
1004.08
 20
-456.744
 30
0.000000
  70
    32
  0
VERTEX
  8
┌▓È_1
  5
44E
 10
1004.14
 20
-456.756
 30
0.000000
  70
    32
  0
VERTEX
  8
┌▓È_1
  5
44F
 10
1004.20
 20
-456.769
 30
0.000000
  70
    32
  0
VERTEX
  8
┌▓È_1
  5
450
 10
1004.25
 20
-456.781
 30
0.000000
  70
    32
  0
VERTEX
  8
┌▓È_1
  5
451
 10
1004.31
 20
-456.793
 30
0.000000
  70
    32
  0
VERTEX
  8
┌▓È_1
  5
452
 10
1004.37
 20
-456.806
 30
0.000000
  70
    32
  0
VERTEX
  8
┌▓È_1
  5
453
 10
1004.42
 20
-456.818
 30
0.000000
  70
    32
  0
VERTEX
  8
┌▓È_1
  5
454
 10
1004.48
 20
-456.830
 30
0.000000
  70
    32
  0
VERTEX
  8
┌▓È_1
  5
455
 10
1004.54
 20
-456.842
 30
0.000000
  70
    32
  0
VERTEX
  8
┌▓È_1
  5
456
 10
1004.59
 20
-456.855
 30
0.000000
  70
    32
  0
VERTEX
  8
┌▓È_1
  5
457
 10
1004.65
 20
-456.867
 30
0.000000
  70
    32
  0
VERTEX
  8
┌▓È_1
  5
458
 10
1004.71
 20
-456.879
 30
0.000000
  70
    32
  0
VERTEX
  8
┌▓È_1
  5
459
 10
1004.76
 20
-456.891
 30
0.000000
  70
    32
  0
VERTEX
  8
┌▓È_1
  5
45A
 10
1004.82
 20
-456.903
 30
0.000000
  70
    32
  0
VERTEX
  8
┌▓È_1
  5
45B
 10
1004.88
 20
-456.915
 30
0.000000
  70
    32
  0
VERTEX
  8
┌▓È_1
  5
45C
 10
1004.93
 20
-456.927
 30
0.000000
  70
    32
  0
VERTEX
  8
┌▓È_1
  5
45D
 10
1004.99
 20
-456.939
 30
0.000000
  70
    32
  0
VERTEX
  8
┌▓È_1
  5
45E
 10
1005.05
 20
-456.951
 30
0.000000
  70
    32
  0
VERTEX
  8
┌▓È_1
  5
45F
 10
1005.10
 20
-456.963
 30
0.000000
  70
    32
  0
VERTEX
  8
┌▓È_1
  5
460
 10
1005.16
 20
-456.975
 30
0.000000
  70
    32
  0
VERTEX
  8
┌▓È_1
  5
461
 10
1005.22
 20
-456.987
 30
0.000000
  70
    32
  0
VERTEX
  8
┌▓È_1
  5
462
 10
1005.27
 20
-456.999
 30
0.000000
  70
    32
  0
VERTEX
  8
┌▓È_1
  5
463
 10
1005.33
 20
-457.011
 30
0.000000
  70
    32
  0
VERTEX
  8
┌▓È_1
  5
464
 10
1005.39
 20
-457.023
 30
0.000000
  70
    32
  0
VERTEX
  8
┌▓È_1
  5
465
 10
1005.44
 20
-457.035
 30
0.000000
  70
    32
  0
VERTEX
  8
┌▓È_1
  5
466
 10
1005.50
 20
-457.047
 30
0.000000
  70
    32
  0
VERTEX
  8
┌▓È_1
  5
467
 10
1005.56
 20
-457.059
 30
0.000000
  70
    32
  0
VERTEX
  8
┌▓È_1
  5
468
 10
1005.61
 20
-457.071
 30
0.000000
  70
    32
  0
VERTEX
  8
┌▓È_1
  5
469
 10
1005.67
 20
-457.083
 30
0.000000
  70
    32
  0
VERTEX
  8
┌▓È_1
  5
46A
 10
1005.73
 20
-457.095
 30
0.000000
  70
    32
  0
VERTEX
  8
┌▓È_1
  5
46B
 10
1005.78
 20
-457.106
 30
0.000000
  70
    32
  0
VERTEX
  8
┌▓È_1
  5
46C
 10
1005.84
 20
-457.118
 30
0.000000
  70
    32
  0
VERTEX
  8
┌▓È_1
  5
46D
 10
1005.90
 20
-457.130
 30
0.000000
  70
    32
  0
VERTEX
  8
┌▓È_1
  5
46E
 10
1005.95
 20
-457.142
 30
0.000000
  70
    32
  0
VERTEX
  8
┌▓È_1
  5
46F
 10
1006.01
 20
-457.154
 30
0.000000
  70
    32
  0
VERTEX
  8
┌▓È_1
  5
470
 10
1006.07
 20
-457.166
 30
0.000000
  70
    32
  0
VERTEX
  8
┌▓È_1
  5
471
 10
1006.12
 20
-457.177
 30
0.000000
  70
    32
  0
VERTEX
  8
┌▓È_1
  5
472
 10
1006.18
 20
-457.189
 30
0.000000
  70
    32
  0
VERTEX
  8
┌▓È_1
  5
473
 10
1006.24
 20
-457.201
 30
0.000000
  70
    32
  0
VERTEX
  8
┌▓È_1
  5
474
 10
1006.29
 20
-457.213
 30
0.000000
  70
    32
  0
VERTEX
  8
┌▓È_1
  5
475
 10
1006.35
 20
-457.225
 30
0.000000
  70
    32
  0
VERTEX
  8
┌▓È_1
  5
476
 10
1006.41
 20
-457.236
 30
0.000000
  70
    32
  0
VERTEX
  8
┌▓È_1
  5
477
 10
1006.46
 20
-457.248
 30
0.000000
  70
    32
  0
VERTEX
  8
┌▓È_1
  5
478
 10
1006.52
 20
-457.260
 30
0.000000
  70
    32
  0
SEQEND
  8
┌▓È_1
  5
479
  0
POLYLINE
  8
┌▓È_1
  5
47A
  62
5
  66
     1
 10
0.000000
 20
0.000000
 30
0.000000
  70
     8
  0
VERTEX
  8
┌▓È_1
  5
47B
 10
988.520
 20
-448.548
 30
0.000000
  70
    32
  0
VERTEX
  8
┌▓È_1
  5
47C
 10
988.556
 20
-448.582
 30
0.000000
  70
    32
  0
VERTEX
  8
┌▓È_1
  5
47D
 10
988.592
 20
-448.615
 30
0.000000
  70
    32
  0
VERTEX
  8
┌▓È_1
  5
47E
 10
988.628
 20
-448.648
 30
0.000000
  70
    32
  0
VERTEX
  8
┌▓È_1
  5
47F
 10
988.664
 20
-448.681
 30
0.000000
  70
    32
  0
VERTEX
  8
┌▓È_1
  5
480
 10
988.700
 20
-448.714
 30
0.000000
  70
    32
  0
VERTEX
  8
┌▓È_1
  5
481
 10
988.736
 20
-448.748
 30
0.000000
  70
    32
  0
VERTEX
  8
┌▓È_1
  5
482
 10
988.772
 20
-448.781
 30
0.000000
  70
    32
  0
VERTEX
  8
┌▓È_1
  5
483
 10
988.808
 20
-448.814
 30
0.000000
  70
    32
  0
VERTEX
  8
┌▓È_1
  5
484
 10
988.844
 20
-448.847
 30
0.000000
  70
    32
  0
VERTEX
  8
┌▓È_1
  5
485
 10
988.880
 20
-448.880
 30
0.000000
  70
    32
  0
VERTEX
  8
┌▓È_1
  5
486
 10
988.916
 20
-448.914
 30
0.000000
  70
    32
  0
VERTEX
  8
┌▓È_1
  5
487
 10
988.952
 20
-448.947
 30
0.000000
  70
    32
  0
VERTEX
  8
┌▓È_1
  5
488
 10
988.988
 20
-448.980
 30
0.000000
  70
    32
  0
VERTEX
  8
┌▓È_1
  5
489
 10
989.024
 20
-449.013
 30
0.000000
  70
    32
  0
VERTEX
  8
┌▓È_1
  5
48A
 10
989.061
 20
-449.046
 30
0.000000
  70
    32
  0
VERTEX
  8
┌▓È_1
  5
48B
 10
989.097
 20
-449.079
 30
0.000000
  70
    32
  0
VERTEX
  8
┌▓È_1
  5
48C
 10
989.133
 20
-449.112
 30
0.000000
  70
    32
  0
VERTEX
  8
┌▓È_1
  5
48D
 10
989.169
 20
-449.145
 30
0.000000
  70
    32
  0
VERTEX
  8
┌▓È_1
  5
48E
 10
989.205
 20
-449.179
 30
0.000000
  70
    32
  0
VERTEX
  8
┌▓È_1
  5
48F
 10
989.241
 20
-449.212
 30
0.000000
  70
    32
  0
VERTEX
  8
┌▓È_1
  5
490
 10
989.277
 20
-449.245
 30
0.000000
  70
    32
  0
VERTEX
  8
┌▓È_1
  5
491
 10
989.313
 20
-449.278
 30
0.000000
  70
    32
  0
VERTEX
  8
┌▓È_1
  5
492
 10
989.349
 20
-449.311
 30
0.000000
  70
    32
  0
VERTEX
  8
┌▓È_1
  5
493
 10
989.385
 20
-449.344
 30
0.000000
  70
    32
  0
VERTEX
  8
┌▓È_1
  5
494
 10
989.422
 20
-449.377
 30
0.000000
  70
    32
  0
VERTEX
  8
┌▓È_1
  5
495
 10
989.458
 20
-449.410
 30
0.000000
  70
    32
  0
VERTEX
  8
┌▓È_1
  5
496
 10
989.494
 20
-449.443
 30
0.000000
  70
    32
  0
VERTEX
  8
┌▓È_1
  5
497
 10
989.530
 20
-449.476
 30
0.000000
  70
    32
  0
VERTEX
  8
┌▓È_1
  5
498
 10
989.566
 20
-449.509
 30
0.000000
  70
    32
  0
VERTEX
  8
┌▓È_1
  5
499
 10
989.602
 20
-449.541
 30
0.000000
  70
    32
  0
VERTEX
  8
┌▓È_1
  5
49A
 10
989.639
 20
-449.574
 30
0.000000
  70
    32
  0
VERTEX
  8
┌▓È_1
  5
49B
 10
989.675
 20
-449.607
 30
0.000000
  70
    32
  0
VERTEX
  8
┌▓È_1
  5
49C
 10
989.711
 20
-449.640
 30
0.000000
  70
    32
  0
VERTEX
  8
┌▓È_1
  5
49D
 10
989.747
 20
-449.673
 30
0.000000
  70
    32
  0
VERTEX
  8
┌▓È_1
  5
49E
 10
989.783
 20
-449.706
 30
0.000000
  70
    32
  0
VERTEX
  8
┌▓È_1
  5
49F
 10
989.820
 20
-449.738
 30
0.000000
  70
    32
  0
VERTEX
  8
┌▓È_1
  5
4A0
 10
989.856
 20
-449.771
 30
0.000000
  70
    32
  0
VERTEX
  8
┌▓È_1
  5
4A1
 10
989.892
 20
-449.804
 30
0.000000
  70
    32
  0
VERTEX
  8
┌▓È_1
  5
4A2
 10
989.929
 20
-449.837
 30
0.000000
  70
    32
  0
VERTEX
  8
┌▓È_1
  5
4A3
 10
989.965
 20
-449.869
 30
0.000000
  70
    32
  0
VERTEX
  8
┌▓È_1
  5
4A4
 10
990.001
 20
-449.902
 30
0.000000
  70
    32
  0
VERTEX
  8
┌▓È_1
  5
4A5
 10
990.038
 20
-449.935
 30
0.000000
  70
    32
  0
VERTEX
  8
┌▓È_1
  5
4A6
 10
990.074
 20
-449.967
 30
0.000000
  70
    32
  0
VERTEX
  8
┌▓È_1
  5
4A7
 10
990.110
 20
-450.000
 30
0.000000
  70
    32
  0
VERTEX
  8
┌▓È_1
  5
4A8
 10
990.147
 20
-450.032
 30
0.000000
  70
    32
  0
VERTEX
  8
┌▓È_1
  5
4A9
 10
990.183
 20
-450.065
 30
0.000000
  70
    32
  0
VERTEX
  8
┌▓È_1
  5
4AA
 10
990.219
 20
-450.097
 30
0.000000
  70
    32
  0
VERTEX
  8
┌▓È_1
  5
4AB
 10
990.256
 20
-450.130
 30
0.000000
  70
    32
  0
VERTEX
  8
┌▓È_1
  5
4AC
 10
990.292
 20
-450.162
 30
0.000000
  70
    32
  0
VERTEX
  8
┌▓È_1
  5
4AD
 10
990.329
 20
-450.194
 30
0.000000
  70
    32
  0
VERTEX
  8
┌▓È_1
  5
4AE
 10
990.365
 20
-450.227
 30
0.000000
  70
    32
  0
VERTEX
  8
┌▓È_1
  5
4AF
 10
990.402
 20
-450.259
 30
0.000000
  70
    32
  0
VERTEX
  8
┌▓È_1
  5
4B0
 10
990.438
 20
-450.291
 30
0.000000
  70
    32
  0
VERTEX
  8
┌▓È_1
  5
4B1
 10
990.475
 20
-450.323
 30
0.000000
  70
    32
  0
VERTEX
  8
┌▓È_1
  5
4B2
 10
990.512
 20
-450.356
 30
0.000000
  70
    32
  0
VERTEX
  8
┌▓È_1
  5
4B3
 10
990.548
 20
-450.388
 30
0.000000
  70
    32
  0
VERTEX
  8
┌▓È_1
  5
4B4
 10
990.585
 20
-450.420
 30
0.000000
  70
    32
  0
VERTEX
  8
┌▓È_1
  5
4B5
 10
990.621
 20
-450.452
 30
0.000000
  70
    32
  0
VERTEX
  8
┌▓È_1
  5
4B6
 10
990.658
 20
-450.484
 30
0.000000
  70
    32
  0
VERTEX
  8
┌▓È_1
  5
4B7
 10
990.695
 20
-450.516
 30
0.000000
  70
    32
  0
VERTEX
  8
┌▓È_1
  5
4B8
 10
990.731
 20
-450.548
 30
0.000000
  70
    32
  0
VERTEX
  8
┌▓È_1
  5
4B9
 10
990.768
 20
-450.580
 30
0.000000
  70
    32
  0
VERTEX
  8
┌▓È_1
  5
4BA
 10
990.805
 20
-450.612
 30
0.000000
  70
    32
  0
VERTEX
  8
┌▓È_1
  5
4BB
 10
990.842
 20
-450.643
 30
0.000000
  70
    32
  0
VERTEX
  8
┌▓È_1
  5
4BC
 10
990.879
 20
-450.675
 30
0.000000
  70
    32
  0
VERTEX
  8
┌▓È_1
  5
4BD
 10
990.915
 20
-450.707
 30
0.000000
  70
    32
  0
VERTEX
  8
┌▓È_1
  5
4BE
 10
990.952
 20
-450.739
 30
0.000000
  70
    32
  0
VERTEX
  8
┌▓È_1
  5
4BF
 10
990.989
 20
-450.770
 30
0.000000
  70
    32
  0
VERTEX
  8
┌▓È_1
  5
4C0
 10
991.026
 20
-450.802
 30
0.000000
  70
    32
  0
VERTEX
  8
┌▓È_1
  5
4C1
 10
991.063
 20
-450.833
 30
0.000000
  70
    32
  0
VERTEX
  8
┌▓È_1
  5
4C2
 10
991.100
 20
-450.865
 30
0.000000
  70
    32
  0
VERTEX
  8
┌▓È_1
  5
4C3
 10
991.137
 20
-450.896
 30
0.000000
  70
    32
  0
VERTEX
  8
┌▓È_1
  5
4C4
 10
991.174
 20
-450.928
 30
0.000000
  70
    32
  0
VERTEX
  8
┌▓È_1
  5
4C5
 10
991.211
 20
-450.959
 30
0.000000
  70
    32
  0
VERTEX
  8
┌▓È_1
  5
4C6
 10
991.248
 20
-450.990
 30
0.000000
  70
    32
  0
VERTEX
  8
┌▓È_1
  5
4C7
 10
991.285
 20
-451.021
 30
0.000000
  70
    32
  0
VERTEX
  8
┌▓È_1
  5
4C8
 10
991.322
 20
-451.053
 30
0.000000
  70
    32
  0
VERTEX
  8
┌▓È_1
  5
4C9
 10
991.359
 20
-451.084
 30
0.000000
  70
    32
  0
VERTEX
  8
┌▓È_1
  5
4CA
 10
991.396
 20
-451.115
 30
0.000000
  70
    32
  0
VERTEX
  8
┌▓È_1
  5
4CB
 10
991.434
 20
-451.146
 30
0.000000
  70
    32
  0
VERTEX
  8
┌▓È_1
  5
4CC
 10
991.471
 20
-451.177
 30
0.000000
  70
    32
  0
VERTEX
  8
┌▓È_1
  5
4CD
 10
991.508
 20
-451.208
 30
0.000000
  70
    32
  0
VERTEX
  8
┌▓È_1
  5
4CE
 10
991.545
 20
-451.239
 30
0.000000
  70
    32
  0
VERTEX
  8
┌▓È_1
  5
4CF
 10
991.583
 20
-451.269
 30
0.000000
  70
    32
  0
VERTEX
  8
┌▓È_1
  5
4D0
 10
991.620
 20
-451.300
 30
0.000000
  70
    32
  0
VERTEX
  8
┌▓È_1
  5
4D1
 10
991.658
 20
-451.331
 30
0.000000
  70
    32
  0
VERTEX
  8
┌▓È_1
  5
4D2
 10
991.695
 20
-451.361
 30
0.000000
  70
    32
  0
VERTEX
  8
┌▓È_1
  5
4D3
 10
991.732
 20
-451.392
 30
0.000000
  70
    32
  0
VERTEX
  8
┌▓È_1
  5
4D4
 10
991.770
 20
-451.422
 30
0.000000
  70
    32
  0
VERTEX
  8
┌▓È_1
  5
4D5
 10
991.807
 20
-451.453
 30
0.000000
  70
    32
  0
VERTEX
  8
┌▓È_1
  5
4D6
 10
991.845
 20
-451.483
 30
0.000000
  70
    32
  0
VERTEX
  8
┌▓È_1
  5
4D7
 10
991.883
 20
-451.514
 30
0.000000
  70
    32
  0
VERTEX
  8
┌▓È_1
  5
4D8
 10
991.920
 20
-451.544
 30
0.000000
  70
    32
  0
VERTEX
  8
┌▓È_1
  5
4D9
 10
991.958
 20
-451.574
 30
0.000000
  70
    32
  0
VERTEX
  8
┌▓È_1
  5
4DA
 10
991.996
 20
-451.604
 30
0.000000
  70
    32
  0
VERTEX
  8
┌▓È_1
  5
4DB
 10
992.033
 20
-451.634
 30
0.000000
  70
    32
  0
VERTEX
  8
┌▓È_1
  5
4DC
 10
992.071
 20
-451.664
 30
0.000000
  70
    32
  0
VERTEX
  8
┌▓È_1
  5
4DD
 10
992.109
 20
-451.694
 30
0.000000
  70
    32
  0
VERTEX
  8
┌▓È_1
  5
4DE
 10
992.147
 20
-451.724
 30
0.000000
  70
    32
  0
VERTEX
  8
┌▓È_1
  5
4DF
 10
992.185
 20
-451.754
 30
0.000000
  70
    32
  0
VERTEX
  8
┌▓È_1
  5
4E0
 10
992.222
 20
-451.783
 30
0.000000
  70
    32
  0
VERTEX
  8
┌▓È_1
  5
4E1
 10
992.260
 20
-451.813
 30
0.000000
  70
    32
  0
VERTEX
  8
┌▓È_1
  5
4E2
 10
992.298
 20
-451.843
 30
0.000000
  70
    32
  0
VERTEX
  8
┌▓È_1
  5
4E3
 10
992.336
 20
-451.872
 30
0.000000
  70
    32
  0
VERTEX
  8
┌▓È_1
  5
4E4
 10
992.374
 20
-451.902
 30
0.000000
  70
    32
  0
VERTEX
  8
┌▓È_1
  5
4E5
 10
992.413
 20
-451.931
 30
0.000000
  70
    32
  0
VERTEX
  8
┌▓È_1
  5
4E6
 10
992.451
 20
-451.960
 30
0.000000
  70
    32
  0
VERTEX
  8
┌▓È_1
  5
4E7
 10
992.489
 20
-451.989
 30
0.000000
  70
    32
  0
VERTEX
  8
┌▓È_1
  5
4E8
 10
992.527
 20
-452.019
 30
0.000000
  70
    32
  0
VERTEX
  8
┌▓È_1
  5
4E9
 10
992.565
 20
-452.048
 30
0.000000
  70
    32
  0
VERTEX
  8
┌▓È_1
  5
4EA
 10
992.604
 20
-452.077
 30
0.000000
  70
    32
  0
VERTEX
  8
┌▓È_1
  5
4EB
 10
992.642
 20
-452.106
 30
0.000000
  70
    32
  0
VERTEX
  8
┌▓È_1
  5
4EC
 10
992.680
 20
-452.134
 30
0.000000
  70
    32
  0
VERTEX
  8
┌▓È_1
  5
4ED
 10
992.719
 20
-452.163
 30
0.000000
  70
    32
  0
VERTEX
  8
┌▓È_1
  5
4EE
 10
992.757
 20
-452.192
 30
0.000000
  70
    32
  0
VERTEX
  8
┌▓È_1
  5
4EF
 10
992.796
 20
-452.220
 30
0.000000
  70
    32
  0
VERTEX
  8
┌▓È_1
  5
4F0
 10
992.834
 20
-452.249
 30
0.000000
  70
    32
  0
VERTEX
  8
┌▓È_1
  5
4F1
 10
992.873
 20
-452.277
 30
0.000000
  70
    32
  0
VERTEX
  8
┌▓È_1
  5
4F2
 10
992.912
 20
-452.306
 30
0.000000
  70
    32
  0
VERTEX
  8
┌▓È_1
  5
4F3
 10
992.950
 20
-452.334
 30
0.000000
  70
    32
  0
VERTEX
  8
┌▓È_1
  5
4F4
 10
992.989
 20
-452.362
 30
0.000000
  70
    32
  0
VERTEX
  8
┌▓È_1
  5
4F5
 10
993.028
 20
-452.390
 30
0.000000
  70
    32
  0
VERTEX
  8
┌▓È_1
  5
4F6
 10
993.067
 20
-452.418
 30
0.000000
  70
    32
  0
VERTEX
  8
┌▓È_1
  5
4F7
 10
993.106
 20
-452.446
 30
0.000000
  70
    32
  0
VERTEX
  8
┌▓È_1
  5
4F8
 10
993.144
 20
-452.474
 30
0.000000
  70
    32
  0
VERTEX
  8
┌▓È_1
  5
4F9
 10
993.183
 20
-452.502
 30
0.000000
  70
    32
  0
VERTEX
  8
┌▓È_1
  5
4FA
 10
993.222
 20
-452.530
 30
0.000000
  70
    32
  0
VERTEX
  8
┌▓È_1
  5
4FB
 10
993.262
 20
-452.557
 30
0.000000
  70
    32
  0
VERTEX
  8
┌▓È_1
  5
4FC
 10
993.301
 20
-452.585
 30
0.000000
  70
    32
  0
VERTEX
  8
┌▓È_1
  5
4FD
 10
993.340
 20
-452.612
 30
0.000000
  70
    32
  0
VERTEX
  8
┌▓È_1
  5
4FE
 10
993.379
 20
-452.639
 30
0.000000
  70
    32
  0
VERTEX
  8
┌▓È_1
  5
4FF
 10
993.418
 20
-452.667
 30
0.000000
  70
    32
  0
VERTEX
  8
┌▓È_1
  5
500
 10
993.458
 20
-452.694
 30
0.000000
  70
    32
  0
VERTEX
  8
┌▓È_1
  5
501
 10
993.497
 20
-452.721
 30
0.000000
  70
    32
  0
VERTEX
  8
┌▓È_1
  5
502
 10
993.536
 20
-452.748
 30
0.000000
  70
    32
  0
VERTEX
  8
┌▓È_1
  5
503
 10
993.576
 20
-452.775
 30
0.000000
  70
    32
  0
VERTEX
  8
┌▓È_1
  5
504
 10
993.615
 20
-452.801
 30
0.000000
  70
    32
  0
VERTEX
  8
┌▓È_1
  5
505
 10
993.655
 20
-452.828
 30
0.000000
  70
    32
  0
VERTEX
  8
┌▓È_1
  5
506
 10
993.694
 20
-452.855
 30
0.000000
  70
    32
  0
VERTEX
  8
┌▓È_1
  5
507
 10
993.734
 20
-452.881
 30
0.000000
  70
    32
  0
VERTEX
  8
┌▓È_1
  5
508
 10
993.774
 20
-452.907
 30
0.000000
  70
    32
  0
VERTEX
  8
┌▓È_1
  5
509
 10
993.814
 20
-452.934
 30
0.000000
  70
    32
  0
VERTEX
  8
┌▓È_1
  5
50A
 10
993.853
 20
-452.960
 30
0.000000
  70
    32
  0
VERTEX
  8
┌▓È_1
  5
50B
 10
993.893
 20
-452.986
 30
0.000000
  70
    32
  0
VERTEX
  8
┌▓È_1
  5
50C
 10
993.933
 20
-453.012
 30
0.000000
  70
    32
  0
VERTEX
  8
┌▓È_1
  5
50D
 10
993.973
 20
-453.038
 30
0.000000
  70
    32
  0
VERTEX
  8
┌▓È_1
  5
50E
 10
994.013
 20
-453.064
 30
0.000000
  70
    32
  0
VERTEX
  8
┌▓È_1
  5
50F
 10
994.053
 20
-453.089
 30
0.000000
  70
    32
  0
VERTEX
  8
┌▓È_1
  5
510
 10
994.093
 20
-453.115
 30
0.000000
  70
    32
  0
VERTEX
  8
┌▓È_1
  5
511
 10
994.134
 20
-453.140
 30
0.000000
  70
    32
  0
VERTEX
  8
┌▓È_1
  5
512
 10
994.174
 20
-453.166
 30
0.000000
  70
    32
  0
VERTEX
  8
┌▓È_1
  5
513
 10
994.214
 20
-453.191
 30
0.000000
  70
    32
  0
VERTEX
  8
┌▓È_1
  5
514
 10
994.255
 20
-453.216
 30
0.000000
  70
    32
  0
VERTEX
  8
┌▓È_1
  5
515
 10
994.295
 20
-453.241
 30
0.000000
  70
    32
  0
VERTEX
  8
┌▓È_1
  5
516
 10
994.335
 20
-453.266
 30
0.000000
  70
    32
  0
VERTEX
  8
┌▓È_1
  5
517
 10
994.376
 20
-453.291
 30
0.000000
  70
    32
  0
VERTEX
  8
┌▓È_1
  5
518
 10
994.417
 20
-453.316
 30
0.000000
  70
    32
  0
VERTEX
  8
┌▓È_1
  5
519
 10
994.457
 20
-453.341
 30
0.000000
  70
    32
  0
VERTEX
  8
┌▓È_1
  5
51A
 10
994.498
 20
-453.365
 30
0.000000
  70
    32
  0
SEQEND
  8
┌▓È_1
  5
51B
  0
POLYLINE
  8
┌▓È_1
  5
51C
  62
5
  66
     1
 10
0.000000
 20
0.000000
 30
0.000000
  70
     8
  0
VERTEX
  8
┌▓È_1
  5
51D
 10
1001.89
 20
-453.307
 30
0.000000
  70
    32
  0
VERTEX
  8
┌▓È_1
  5
51E
 10
1001.92
 20
-453.317
 30
0.000000
  70
    32
  0
VERTEX
  8
┌▓È_1
  5
51F
 10
1001.96
 20
-453.327
 30
0.000000
  70
    32
  0
VERTEX
  8
┌▓È_1
  5
520
 10
1001.99
 20
-453.337
 30
0.000000
  70
    32
  0
VERTEX
  8
┌▓È_1
  5
521
 10
1002.03
 20
-453.346
 30
0.000000
  70
    32
  0
VERTEX
  8
┌▓È_1
  5
522
 10
1002.06
 20
-453.356
 30
0.000000
  70
    32
  0
VERTEX
  8
┌▓È_1
  5
523
 10
1002.10
 20
-453.366
 30
0.000000
  70
    32
  0
VERTEX
  8
┌▓È_1
  5
524
 10
1002.13
 20
-453.375
 30
0.000000
  70
    32
  0
VERTEX
  8
┌▓È_1
  5
525
 10
1002.17
 20
-453.385
 30
0.000000
  70
    32
  0
VERTEX
  8
┌▓È_1
  5
526
 10
1002.21
 20
-453.394
 30
0.000000
  70
    32
  0
VERTEX
  8
┌▓È_1
  5
527
 10
1002.24
 20
-453.404
 30
0.000000
  70
    32
  0
VERTEX
  8
┌▓È_1
  5
528
 10
1002.28
 20
-453.413
 30
0.000000
  70
    32
  0
VERTEX
  8
┌▓È_1
  5
529
 10
1002.31
 20
-453.422
 30
0.000000
  70
    32
  0
VERTEX
  8
┌▓È_1
  5
52A
 10
1002.35
 20
-453.432
 30
0.000000
  70
    32
  0
VERTEX
  8
┌▓È_1
  5
52B
 10
1002.38
 20
-453.441
 30
0.000000
  70
    32
  0
VERTEX
  8
┌▓È_1
  5
52C
 10
1002.42
 20
-453.450
 30
0.000000
  70
    32
  0
VERTEX
  8
┌▓È_1
  5
52D
 10
1002.45
 20
-453.459
 30
0.000000
  70
    32
  0
VERTEX
  8
┌▓È_1
  5
52E
 10
1002.49
 20
-453.468
 30
0.000000
  70
    32
  0
VERTEX
  8
┌▓È_1
  5
52F
 10
1002.52
 20
-453.477
 30
0.000000
  70
    32
  0
VERTEX
  8
┌▓È_1
  5
530
 10
1002.56
 20
-453.486
 30
0.000000
  70
    32
  0
VERTEX
  8
┌▓È_1
  5
531
 10
1002.59
 20
-453.495
 30
0.000000
  70
    32
  0
VERTEX
  8
┌▓È_1
  5
532
 10
1002.63
 20
-453.504
 30
0.000000
  70
    32
  0
VERTEX
  8
┌▓È_1
  5
533
 10
1002.67
 20
-453.513
 30
0.000000
  70
    32
  0
VERTEX
  8
┌▓È_1
  5
534
 10
1002.70
 20
-453.521
 30
0.000000
  70
    32
  0
VERTEX
  8
┌▓È_1
  5
535
 10
1002.74
 20
-453.530
 30
0.000000
  70
    32
  0
VERTEX
  8
┌▓È_1
  5
536
 10
1002.77
 20
-453.539
 30
0.000000
  70
    32
  0
VERTEX
  8
┌▓È_1
  5
537
 10
1002.81
 20
-453.547
 30
0.000000
  70
    32
  0
VERTEX
  8
┌▓È_1
  5
538
 10
1002.84
 20
-453.556
 30
0.000000
  70
    32
  0
VERTEX
  8
┌▓È_1
  5
539
 10
1002.88
 20
-453.564
 30
0.000000
  70
    32
  0
VERTEX
  8
┌▓È_1
  5
53A
 10
1002.92
 20
-453.573
 30
0.000000
  70
    32
  0
VERTEX
  8
┌▓È_1
  5
53B
 10
1002.95
 20
-453.581
 30
0.000000
  70
    32
  0
VERTEX
  8
┌▓È_1
  5
53C
 10
1002.99
 20
-453.590
 30
0.000000
  70
    32
  0
VERTEX
  8
┌▓È_1
  5
53D
 10
1003.02
 20
-453.598
 30
0.000000
  70
    32
  0
VERTEX
  8
┌▓È_1
  5
53E
 10
1003.06
 20
-453.606
 30
0.000000
  70
    32
  0
VERTEX
  8
┌▓È_1
  5
53F
 10
1003.10
 20
-453.615
 30
0.000000
  70
    32
  0
VERTEX
  8
┌▓È_1
  5
540
 10
1003.13
 20
-453.623
 30
0.000000
  70
    32
  0
VERTEX
  8
┌▓È_1
  5
541
 10
1003.17
 20
-453.631
 30
0.000000
  70
    32
  0
VERTEX
  8
┌▓È_1
  5
542
 10
1003.20
 20
-453.639
 30
0.000000
  70
    32
  0
VERTEX
  8
┌▓È_1
  5
543
 10
1003.24
 20
-453.647
 30
0.000000
  70
    32
  0
VERTEX
  8
┌▓È_1
  5
544
 10
1003.28
 20
-453.655
 30
0.000000
  70
    32
  0
VERTEX
  8
┌▓È_1
  5
545
 10
1003.31
 20
-453.663
 30
0.000000
  70
    32
  0
VERTEX
  8
┌▓È_1
  5
546
 10
1003.35
 20
-453.671
 30
0.000000
  70
    32
  0
VERTEX
  8
┌▓È_1
  5
547
 10
1003.39
 20
-453.679
 30
0.000000
  70
    32
  0
VERTEX
  8
┌▓È_1
  5
548
 10
1003.42
 20
-453.687
 30
0.000000
  70
    32
  0
VERTEX
  8
┌▓È_1
  5
549
 10
1003.46
 20
-453.695
 30
0.000000
  70
    32
  0
VERTEX
  8
┌▓È_1
  5
54A
 10
1003.49
 20
-453.703
 30
0.000000
  70
    32
  0
VERTEX
  8
┌▓È_1
  5
54B
 10
1003.53
 20
-453.711
 30
0.000000
  70
    32
  0
VERTEX
  8
┌▓È_1
  5
54C
 10
1003.57
 20
-453.718
 30
0.000000
  70
    32
  0
VERTEX
  8
┌▓È_1
  5
54D
 10
1003.60
 20
-453.726
 30
0.000000
  70
    32
  0
VERTEX
  8
┌▓È_1
  5
54E
 10
1003.64
 20
-453.734
 30
0.000000
  70
    32
  0
VERTEX
  8
┌▓È_1
  5
54F
 10
1003.68
 20
-453.742
 30
0.000000
  70
    32
  0
VERTEX
  8
┌▓È_1
  5
550
 10
1003.71
 20
-453.749
 30
0.000000
  70
    32
  0
VERTEX
  8
┌▓È_1
  5
551
 10
1003.75
 20
-453.757
 30
0.000000
  70
    32
  0
VERTEX
  8
┌▓È_1
  5
552
 10
1003.78
 20
-453.764
 30
0.000000
  70
    32
  0
VERTEX
  8
┌▓È_1
  5
553
 10
1003.82
 20
-453.772
 30
0.000000
  70
    32
  0
VERTEX
  8
┌▓È_1
  5
554
 10
1003.86
 20
-453.779
 30
0.000000
  70
    32
  0
VERTEX
  8
┌▓È_1
  5
555
 10
1003.89
 20
-453.787
 30
0.000000
  70
    32
  0
VERTEX
  8
┌▓È_1
  5
556
 10
1003.93
 20
-453.794
 30
0.000000
  70
    32
  0
VERTEX
  8
┌▓È_1
  5
557
 10
1003.97
 20
-453.801
 30
0.000000
  70
    32
  0
VERTEX
  8
┌▓È_1
  5
558
 10
1004.00
 20
-453.809
 30
0.000000
  70
    32
  0
VERTEX
  8
┌▓È_1
  5
559
 10
1004.04
 20
-453.816
 30
0.000000
  70
    32
  0
VERTEX
  8
┌▓È_1
  5
55A
 10
1004.08
 20
-453.823
 30
0.000000
  70
    32
  0
VERTEX
  8
┌▓È_1
  5
55B
 10
1004.11
 20
-453.831
 30
0.000000
  70
    32
  0
VERTEX
  8
┌▓È_1
  5
55C
 10
1004.15
 20
-453.838
 30
0.000000
  70
    32
  0
VERTEX
  8
┌▓È_1
  5
55D
 10
1004.19
 20
-453.845
 30
0.000000
  70
    32
  0
VERTEX
  8
┌▓È_1
  5
55E
 10
1004.22
 20
-453.852
 30
0.000000
  70
    32
  0
VERTEX
  8
┌▓È_1
  5
55F
 10
1004.26
 20
-453.859
 30
0.000000
  70
    32
  0
VERTEX
  8
┌▓È_1
  5
560
 10
1004.30
 20
-453.867
 30
0.000000
  70
    32
  0
VERTEX
  8
┌▓È_1
  5
561
 10
1004.33
 20
-453.874
 30
0.000000
  70
    32
  0
VERTEX
  8
┌▓È_1
  5
562
 10
1004.37
 20
-453.881
 30
0.000000
  70
    32
  0
VERTEX
  8
┌▓È_1
  5
563
 10
1004.41
 20
-453.888
 30
0.000000
  70
    32
  0
VERTEX
  8
┌▓È_1
  5
564
 10
1004.44
 20
-453.895
 30
0.000000
  70
    32
  0
VERTEX
  8
┌▓È_1
  5
565
 10
1004.48
 20
-453.902
 30
0.000000
  70
    32
  0
VERTEX
  8
┌▓È_1
  5
566
 10
1004.52
 20
-453.909
 30
0.000000
  70
    32
  0
VERTEX
  8
┌▓È_1
  5
567
 10
1004.55
 20
-453.916
 30
0.000000
  70
    32
  0
VERTEX
  8
┌▓È_1
  5
568
 10
1004.59
 20
-453.923
 30
0.000000
  70
    32
  0
VERTEX
  8
┌▓È_1
  5
569
 10
1004.63
 20
-453.929
 30
0.000000
  70
    32
  0
VERTEX
  8
┌▓È_1
  5
56A
 10
1004.66
 20
-453.936
 30
0.000000
  70
    32
  0
VERTEX
  8
┌▓È_1
  5
56B
 10
1004.70
 20
-453.943
 30
0.000000
  70
    32
  0
VERTEX
  8
┌▓È_1
  5
56C
 10
1004.74
 20
-453.950
 30
0.000000
  70
    32
  0
VERTEX
  8
┌▓È_1
  5
56D
 10
1004.78
 20
-453.957
 30
0.000000
  70
    32
  0
VERTEX
  8
┌▓È_1
  5
56E
 10
1004.81
 20
-453.963
 30
0.000000
  70
    32
  0
VERTEX
  8
┌▓È_1
  5
56F
 10
1004.85
 20
-453.970
 30
0.000000
  70
    32
  0
VERTEX
  8
┌▓È_1
  5
570
 10
1004.89
 20
-453.977
 30
0.000000
  70
    32
  0
VERTEX
  8
┌▓È_1
  5
571
 10
1004.92
 20
-453.984
 30
0.000000
  70
    32
  0
VERTEX
  8
┌▓È_1
  5
572
 10
1004.96
 20
-453.990
 30
0.000000
  70
    32
  0
VERTEX
  8
┌▓È_1
  5
573
 10
1005.00
 20
-453.997
 30
0.000000
  70
    32
  0
VERTEX
  8
┌▓È_1
  5
574
 10
1005.03
 20
-454.004
 30
0.000000
  70
    32
  0
VERTEX
  8
┌▓È_1
  5
575
 10
1005.07
 20
-454.010
 30
0.000000
  70
    32
  0
VERTEX
  8
┌▓È_1
  5
576
 10
1005.11
 20
-454.017
 30
0.000000
  70
    32
  0
VERTEX
  8
┌▓È_1
  5
577
 10
1005.15
 20
-454.024
 30
0.000000
  70
    32
  0
VERTEX
  8
┌▓È_1
  5
578
 10
1005.18
 20
-454.030
 30
0.000000
  70
    32
  0
VERTEX
  8
┌▓È_1
  5
579
 10
1005.22
 20
-454.037
 30
0.000000
  70
    32
  0
VERTEX
  8
┌▓È_1
  5
57A
 10
1005.26
 20
-454.043
 30
0.000000
  70
    32
  0
VERTEX
  8
┌▓È_1
  5
57B
 10
1005.29
 20
-454.050
 30
0.000000
  70
    32
  0
VERTEX
  8
┌▓È_1
  5
57C
 10
1005.33
 20
-454.056
 30
0.000000
  70
    32
  0
VERTEX
  8
┌▓È_1
  5
57D
 10
1005.37
 20
-454.063
 30
0.000000
  70
    32
  0
VERTEX
  8
┌▓È_1
  5
57E
 10
1005.40
 20
-454.069
 30
0.000000
  70
    32
  0
VERTEX
  8
┌▓È_1
  5
57F
 10
1005.44
 20
-454.076
 30
0.000000
  70
    32
  0
VERTEX
  8
┌▓È_1
  5
580
 10
1005.48
 20
-454.082
 30
0.000000
  70
    32
  0
VERTEX
  8
┌▓È_1
  5
581
 10
1005.52
 20
-454.089
 30
0.000000
  70
    32
  0
VERTEX
  8
┌▓È_1
  5
582
 10
1005.55
 20
-454.095
 30
0.000000
  70
    32
  0
VERTEX
  8
┌▓È_1
  5
583
 10
1005.59
 20
-454.102
 30
0.000000
  70
    32
  0
VERTEX
  8
┌▓È_1
  5
584
 10
1005.63
 20
-454.108
 30
0.000000
  70
    32
  0
VERTEX
  8
┌▓È_1
  5
585
 10
1005.66
 20
-454.115
 30
0.000000
  70
    32
  0
VERTEX
  8
┌▓È_1
  5
586
 10
1005.70
 20
-454.121
 30
0.000000
  70
    32
  0
VERTEX
  8
┌▓È_1
  5
587
 10
1005.74
 20
-454.127
 30
0.000000
  70
    32
  0
VERTEX
  8
┌▓È_1
  5
588
 10
1005.78
 20
-454.134
 30
0.000000
  70
    32
  0
VERTEX
  8
┌▓È_1
  5
589
 10
1005.81
 20
-454.140
 30
0.000000
  70
    32
  0
VERTEX
  8
┌▓È_1
  5
58A
 10
1005.85
 20
-454.146
 30
0.000000
  70
    32
  0
VERTEX
  8
┌▓È_1
  5
58B
 10
1005.89
 20
-454.153
 30
0.000000
  70
    32
  0
VERTEX
  8
┌▓È_1
  5
58C
 10
1005.92
 20
-454.159
 30
0.000000
  70
    32
  0
VERTEX
  8
┌▓È_1
  5
58D
 10
1005.96
 20
-454.165
 30
0.000000
  70
    32
  0
VERTEX
  8
┌▓È_1
  5
58E
 10
1006.00
 20
-454.172
 30
0.000000
  70
    32
  0
VERTEX
  8
┌▓È_1
  5
58F
 10
1006.04
 20
-454.178
 30
0.000000
  70
    32
  0
VERTEX
  8
┌▓È_1
  5
590
 10
1006.07
 20
-454.184
 30
0.000000
  70
    32
  0
VERTEX
  8
┌▓È_1
  5
591
 10
1006.11
 20
-454.191
 30
0.000000
  70
    32
  0
VERTEX
  8
┌▓È_1
  5
592
 10
1006.15
 20
-454.197
 30
0.000000
  70
    32
  0
VERTEX
  8
┌▓È_1
  5
593
 10
1006.19
 20
-454.203
 30
0.000000
  70
    32
  0
VERTEX
  8
┌▓È_1
  5
594
 10
1006.22
 20
-454.210
 30
0.000000
  70
    32
  0
VERTEX
  8
┌▓È_1
  5
595
 10
1006.26
 20
-454.216
 30
0.000000
  70
    32
  0
VERTEX
  8
┌▓È_1
  5
596
 10
1006.30
 20
-454.222
 30
0.000000
  70
    32
  0
VERTEX
  8
┌▓È_1
  5
597
 10
1006.33
 20
-454.229
 30
0.000000
  70
    32
  0
VERTEX
  8
┌▓È_1
  5
598
 10
1006.37
 20
-454.235
 30
0.000000
  70
    32
  0
VERTEX
  8
┌▓È_1
  5
599
 10
1006.41
 20
-454.241
 30
0.000000
  70
    32
  0
VERTEX
  8
┌▓È_1
  5
59A
 10
1006.45
 20
-454.247
 30
0.000000
  70
    32
  0
VERTEX
  8
┌▓È_1
  5
59B
 10
1006.48
 20
-454.254
 30
0.000000
  70
    32
  0
VERTEX
  8
┌▓È_1
  5
59C
 10
1006.52
 20
-454.260
 30
0.000000
  70
    32
  0
SEQEND
  8
┌▓È_1
  5
59D
  0
INSERT
  5
39
  8
┌▓È_1
  2
CLUMP0
 10
0.0
 20
0.0
 30
0.0
  0
INSERT
  5
41
  8
┌▓È_1
  2
CLUMP1
 10
0.0
 20
0.0
 30
0.0
  0
LINE
  5
4C
  8
┌▓È_1
 62
     5
 10
616.39571106339986
 20
-386.07486795699998
 30
0.0
 11
816.39571106339986
 21
-386.07486795699998
 31
0.0
  0
LINE
  5
4D
  8
┌▓È_1
 62
     5
 10
616.39571106339986
 20
-354.07486795699998
 30
0.0
 11
816.39571106339986
 21
-354.07486795699998
 31
0.0
  0
LINE
  5
4E
  8
┌▓È_1
 62
     5
 10
616.39571106339986
 20
-354.07486795699998
 30
0.0
 11
616.39571106339986
 21
-386.07486795699998
 31
0.0
  0
LINE
  5
4F
  8
┌▓È_1
 62
     5
 10
816.39571106339986
 20
-386.07486795699998
 30
0.0
 11
816.39571106339986
 21
-354.07486795699998
 31
0.0
  0
INSERT
  5
51
  8
┌▓È_1
  2
CLUMP3
 10
0.0
 20
0.0
 30
0.0
  0
LINE
  5
58
  8
┌▓È_1
  6
STITCH
 10
620.89571106339986
 20
-354.07486795699998
 30
0.0
 11
620.89571106339986
 21
-386.07486795699998
 31
0.0
  0
DIMENSION
  5
69
  8
Éíû@É³
  2
*D4
 10
927.86930814489995
 20
-31.379852547399999
 30
0.0
 11
935.26123522820012
 21
-31.379852547399999
 31
0.0
 70
   128
  1
<>
 13
927.86930814489995
 23
-55.838399481000003
 33
0.0
 14
911.86930814489995
 24
-61.83839948100001
 34
0.0
  0
DIMENSION
  5
78
  8
Éíû@É³
  2
*D5
 10
911.86930814489995
 20
-31.379852547399999
 30
0.0
 11
885.49707507199992
 21
-31.379852547399999
 31
0.0
 70
   128
  1
<>
 13
911.86930814489995
 23
-61.83839948100001
 33
0.0
 14
895.86930814489995
 24
-55.838399481000003
 34
0.0
  0
DIMENSION
  5
88
  8
Éíû@É³
  2
*D6
 10
927.86930814489995
 20
-12.912397971100001
 30
0.0
 11
911.86930814489995
 21
-12.912397971100001
 31
0.0
 70
   128
  1
<>
 13
927.86930814489995
 23
-55.838399481000003
 33
0.0
 14
895.86930814489995
 24
-55.838399481000003
 34
0.0
  0
LINE
  5
89
  8
┌▓È_1
 62
     5
 10
971.19874413690002
 20
-447.25999843249991
 30
0.0
 11
971.19874413690002
 21
-446.25999843250003
 31
0.0
  0
LINE
  5
8A
  8
┌▓È_1
 62
     5
 10
1019.3549215547
 20
-458.25999843250003
 30
0.0
 11
1024.9549215546999
 21
-458.25999843250003
 31
0.0
  0
LINE
  5
8B
  8
┌▓È_1
 62
     5
 10
983.1987441368999
 20
-447.25999843249991
 30
0.0
 11
983.1987441368999
 21
-450.25999843250003
 31
0.0
  0
LINE
  5
8C
  8
┌▓È_1
 62
     5
 10
963.89653651380002
 20
-447.25999843249991
 30
0.0
 11
963.89653651380002
 21
-450.25999843250003
 31
0.0
  0
LINE
  5
8D
  8
┌▓È_1
 62
     5
 10
988.51995625810002
 20
-448.5484395023999
 30
0.0
 11
988.51995625810002
 21
-447.9042189674999
 31
0.0
  0
LINE
  5
8E
  8
┌▓È_1
 62
     5
 10
996.51995625810002
 20
-447.9042189674999
 30
0.0
 11
995.38858540830006
 21
-449.03558981740002
 31
0.0
  0
LINE
  5
8F
  8
┌▓È_1
 10
960.70574072199986
 20
-397.33034436629998
 30
0.0
 11
960.70574072199986
 21
-439.83034436629993
 31
0.0
  0
LINE
  5
90
  8
┌▓È_1
 10
885.70574072199986
 20
-407.95534436629998
 30
0.0
 11
915.70574072199986
 21
-407.95534436629998
 31
0.0
  0
LINE
  5
91
  8
┌▓È_1
 10
925.70574072199986
 20
-407.95534436629998
 30
0.0
 11
955.70574072199997
 21
-407.95534436629998
 31
0.0
  0
LINE
  5
92
  8
┌▓È_1
 10
885.70574072199986
 20
-429.20534436629993
 30
0.0
 11
955.70574072199997
 21
-429.20534436629993
 31
0.0
  0
LINE
  5
93
  8
┌▓È_1
 10
965.70574072199986
 20
-407.95534436629998
 30
0.0
 11
995.70574072199997
 21
-407.95534436629998
 31
0.0
  0
LINE
  5
94
  8
┌▓È_1
 10
965.70574072199986
 20
-429.20534436629993
 30
0.0
 11
995.70574072199997
 21
-429.20534436629993
 31
0.0
  0
INSERT
  5
95
  8
0
  6
CONTINUOUS
  2
*U42
 10
0.0
 20
0.0
 30
0.0
  0
INSERT
  5
96
  8
0
  6
CONTINUOUS
  2
*U43
 10
0.0
 20
0.0
 30
0.0
  0
INSERT
  5
97
  8
0
  6
CONTINUOUS
  2
*U44
 10
0.0
 20
0.0
 30
0.0
  0
INSERT
  5
98
  8
0
  6
CONTINUOUS
  2
*U45
 10
0.0
 20
0.0
 30
0.0
  0
INSERT
  5
99
  8
0
  6
CONTINUOUS
  2
*U46
 10
0.0
 20
0.0
 30
0.0
  0
INSERT
  5
9A
  8
0
  6
CONTINUOUS
  2
*U47
 10
0.0
 20
0.0
 30
0.0
  0
INSERT
  5
9B
  8
0
  6
CONTINUOUS
  2
*U48
 10
0.0
 20
0.0
 30
0.0
  0
INSERT
  5
9C
  8
0
  6
CONTINUOUS
  2
*U49
 10
0.0
 20
0.0
 30
0.0
  0
INSERT
  5
9D
  8
0
  6
CONTINUOUS
  2
*U50
 10
0.0
 20
0.0
 30
0.0
  0
ARC
  5
9E
  8
┌▓È_1
 62
     5
 10
990.91995625809989
 20
-446.65999843249989
 30
0.0
 40
7.5999999999999988
 50
270.0
 51
298.08590481520002
  0
INSERT
  5
9F
  8
0
  6
CONTINUOUS
  2
*U51
 10
0.0
 20
0.0
 30
0.0
  0
INSERT
  5
A0
  8
0
  6
CONTINUOUS
  2
*U52
 10
0.0
 20
0.0
 30
0.0
  0
INSERT
  5
A1
  8
0
  6
CONTINUOUS
  2
*U53
 10
0.0
 20
0.0
 30
0.0
  0
LINE
  5
A2
  8
┌▓È_1
 62
     5
 10
1021.6168502668
 20
-446.65999843249989
 30
0.0
 11
1028.9549215546999
 21
-446.65999843249989
 31
0.0
  0
LINE
  5
A3
  8
┌▓È_1
 62
     5
 10
1015.952254888
 20
-446.65999843249989
 30
0.0
 11
1014.9549215547
 21
-443.25999843250003
 31
0.0
  0
LINE
  5
A4
  8
┌▓È_1
 62
     5
 10
966.1987441368999
 20
-443.25999843250003
 30
0.0
 11
966.1987441368999
 21
-447.25999843249991
 31
0.0
  0
LINE
  5
A5
  8
┌▓È_1
 62
     5
 10
971.19874413690002
 20
-446.25999843250003
 30
0.0
 11
974.1987441368999
 21
-443.25999843250003
 31
0.0
  0
LINE
  5
A6
  8
┌▓È_1
 62
     5
 10
974.1987441368999
 20
-443.25999843250003
 30
0.0
 11
966.1987441368999
 21
-443.25999843250003
 31
0.0
  0
LINE
  5
A7
  8
┌▓È_1
 62
     5
 10
975.1987441368999
 20
-447.25999843249991
 30
0.0
 11
971.19874413690002
 21
-447.25999843249991
 31
0.0
  0
LINE
  5
A8
  8
┌▓È_1
 62
     5
 10
1021.3240617664
 20
-445.64254065159997
 30
0.0
 11
1022.9549215547
 21
-443.25999843250003
 31
0.0
  0
ARC
  5
A9
  8
┌▓È_1
 62
     5
 10
974.1987441368999
 20
-451.25999843249991
 30
0.0
 40
6.0
 50
270.0
 51
0.0
  0
LINE
  5
AA
  8
┌▓È_1
 62
     5
 10
988.51995625810002
 20
-443.25999843250003
 30
0.0
 11
988.51995625810002
 21
-446.85999843249999
 31
0.0
  0
LINE
  5
AB
  8
┌▓È_1
 62
     5
 10
983.1987441368999
 20
-443.25999843250003
 30
0.0
 11
975.1987441368999
 21
-443.25999843250003
 31
0.0
  0
LINE
  5
AC
  8
┌▓È_1
 62
     5
 10
1024.1491802093999
 20
-455.45999843250002
 30
0.0
 11
1028.9549215546999
 21
-455.45999843250002
 31
0.0
  0
LINE
  5
AD
  8
┌▓È_1
 62
     5
 10
971.19874413690002
 20
-453.25999843250003
 30
0.0
 11
971.19874413690002
 21
-450.25999843250003
 31
0.0
  0
LINE
  5
AE
  8
┌▓È_1
 62
     5
 10
1010.9549215547
 20
-451.85999843249999
 30
0.0
 11
1010.9549215547
 21
-455.45999843250002
 31
0.0
  0
LINE
  5
AF
  8
┌▓È_1
 62
     5
 10
1010.9549215547
 20
-450.25999843250003
 30
0.0
 11
1017.008254888
 21
-450.25999843250003
 31
0.0
  0
LINE
  5
B0
  8
┌▓È_1
 62
     5
 10
1028.9549215546999
 20
-446.65999843249989
 30
0.0
 11
1028.9549215546999
 21
-450.25999843250003
 31
0.0
  0
LINE
  5
B1
  8
┌▓È_1
 62
     5
 10
988.51995625810002
 20
-446.85999843249999
 30
0.0
 11
998.51995625810002
 21
-446.85999843249999
 31
0.0
  0
LINE
  5
B2
  8
┌▓È_1
 62
     5
 10
972.19874413690002
 20
-454.25999843250003
 30
0.0
 11
966.1987441368999
 21
-454.25999843250003
 31
0.0
  0
LINE
  5
B3
  8
┌▓È_1
 62
     5
 10
1019.3549215547
 20
-458.25999843250003
 30
0.0
 11
1018.5335882214
 21
-455.45999843250002
 31
0.0
  0
LINE
  5
B4
  8
┌▓È_1
 62
     5
 10
1023.113227051
 20
-451.85999843249999
 30
0.0
 11
1022.6528034251
 21
-450.25999843250003
 31
0.0
  0
LINE
  5
B5
  8
┌▓È_1
 62
     5
 10
966.1987441368999
 20
-454.25999843250003
 30
0.0
 11
966.1987441368999
 21
-457.25999843250003
 31
0.0
  0
LINE
  5
B6
  8
┌▓È_1
 62
     5
 10
966.1987441368999
 20
-450.25999843250003
 30
0.0
 11
965.89653651380002
 21
-450.25999843250003
 31
0.0
  0
LINE
  5
B7
  8
┌▓È_1
 62
     5
 10
1017.4775882214
 20
-451.85999843249999
 30
0.0
 11
1017.008254888
 21
-450.25999843250003
 31
0.0
  0
LINE
  5
B8
  8
┌▓È_1
 62
     5
 10
1028.9549215546999
 20
-451.85999843249999
 30
0.0
 11
1028.9549215546999
 21
-455.45999843250002
 31
0.0
  0
LINE
  5
B9
  8
┌▓È_1
 62
     5
 10
966.1987441368999
 20
-447.25999843249991
 30
0.0
 11
963.89653651380002
 21
-447.25999843249991
 31
0.0
  0
LINE
  5
BA
  8
┌▓È_1
 62
     5
 10
988.51995625810002
 20
-457.25999843250003
 30
0.0
 11
988.51995625810002
 21
-454.25999843250003
 31
0.0
  0
LINE
  5
BB
  8
┌▓È_1
 62
     5
 10
1021.6168502668
 20
-446.65999843249989
 30
0.0
 11
1021.3240617664
 21
-445.64254065159997
 31
0.0
  0
LINE
  5
BC
  8
┌▓È_1
 62
     5
 10
1010.9549215547
 20
-455.45999843250002
 30
0.0
 11
1018.5335882214
 21
-455.45999843250002
 31
0.0
  0
ARC
  5
BD
  8
┌▓È_1
 62
     5
 10
993.51995625810014
 20
-446.25999843250003
 30
0.0
 40
11.0
 50
322.48761197969998
 51
0.0
  0
LINE
  5
BE
  8
┌▓È_1
 62
     5
 10
1023.113227051
 20
-451.85999843249999
 30
0.0
 11
1028.9549215546999
 21
-451.85999843249999
 31
0.0
  0
LINE
  5
BF
  8
┌▓È_1
 62
     5
 10
1024.9549215546999
 20
-458.25999843250003
 30
0.0
 11
1024.1491802093999
 21
-455.45999843250002
 31
0.0
  0
LINE
  5
C0
  8
┌▓È_1
 62
     5
 10
971.19874413690002
 20
-450.25999843250003
 30
0.0
 11
975.1987441368999
 21
-450.25999843250003
 31
0.0
  0
LINE
  5
C1
  8
┌▓È_1
 62
     5
 10
975.1987441368999
 20
-450.25999843250003
 30
0.0
 11
975.1987441368999
 21
-451.25999843249991
 31
0.0
  0
LINE
  5
C2
  8
┌▓È_1
 62
     5
 10
1010.9549215547
 20
-446.65999843249989
 30
0.0
 11
1015.952254888
 21
-446.65999843249989
 31
0.0
  0
LINE
  5
C3
  8
┌▓È_1
 62
     5
 10
980.19874413690002
 20
-447.25999843249991
 30
0.0
 11
980.19874413690002
 21
-446.25999843250003
 31
0.0
  0
LINE
  5
C4
  8
┌▓È_1
 62
     5
 10
983.1987441368999
 20
-447.25999843249991
 30
0.0
 11
980.19874413690002
 21
-447.25999843249991
 31
0.0
  0
LINE
  5
C5
  8
┌▓È_1
 62
     5
 10
1010.9549215547
 20
-451.85999843249999
 30
0.0
 11
1017.4775882214
 21
-451.85999843249999
 31
0.0
  0
LINE
  5
C6
  8
┌▓È_1
 62
     5
 10
963.89653651380002
 20
-450.25999843250003
 30
0.0
 11
965.89653651380002
 21
-450.25999843250003
 31
0.0
  0
ARC
  5
C7
  8
┌▓È_1
 62
     5
 10
993.51995625810014
 20
-446.25999843250003
 30
0.0
 40
11.0
 50
270.0
 51
302.54495885400001
  0
LINE
  5
C8
  8
┌▓È_1
 62
     5
 10
980.19874413690002
 20
-450.25999843250003
 30
0.0
 11
983.1987441368999
 21
-450.25999843250003
 31
0.0
  0
ARC
  5
C9
  8
┌▓È_1
 62
     5
 10
990.91995625809989
 20
-446.65999843249989
 30
0.0
 40
7.5999999999999988
 50
331.39928138329998
 51
358.49204224580001
  0
LINE
  5
CA
  8
┌▓È_1
 62
     5
 10
988.51995625810002
 20
-457.25999843250003
 30
0.0
 11
993.51995625810014
 21
-457.25999843250003
 31
0.0
  0
LINE
  5
CB
  8
┌▓È_1
 62
     5
 10
966.1987441368999
 20
-457.25999843250003
 30
0.0
 11
974.1987441368999
 21
-457.25999843250003
 31
0.0
  0
LINE
  5
CC
  8
┌▓È_1
 62
     5
 10
1004.5199562581
 20
-446.25999843250003
 30
0.0
 11
1006.5199562581
 21
-443.25999843250003
 31
0.0
  0
LINE
  5
CD
  8
┌▓È_1
 62
     5
 10
1014.9549215547
 20
-443.25999843250003
 30
0.0
 11
1022.9549215547
 21
-443.25999843250003
 31
0.0
  0
LINE
  5
CE
  8
┌▓È_1
 62
     5
 10
988.51995625810002
 20
-454.25999843250003
 30
0.0
 11
990.91995625809989
 21
-454.25999843250003
 31
0.0
  0
LINE
  5
CF
  8
┌▓È_1
 62
     5
 10
988.51995625810002
 20
-454.25999843250003
 30
0.0
 11
988.51995625810002
 21
-457.25999843250003
 31
0.0
  0
INSERT
  5
D0
  8
0
  6
CONTINUOUS
  2
*U54
 10
0.0
 20
0.0
 30
0.0
  0
LINE
  5
D1
  8
┌▓È_1
 62
     5
 10
1002.2453949623
 20
-452.95826085049998
 30
0.0
 11
1001.8891908427
 21
-453.30701713879989
 31
0.0
  0
LINE
  5
D2
  8
┌▓È_1
 62
     5
 10
966.1987441368999
 20
-450.25999843250003
 30
0.0
 11
966.1987441368999
 21
-453.25999843250003
 31
0.0
  0
INSERT
  5
D3
  8
0
  6
CONTINUOUS
  2
*U55
 10
0.0
 20
0.0
 30
0.0
  0
DIMENSION
  5
E2
  8
Éíû@É³
  2
*D7
 10
844.95887990699987
 20
-370.07486795699998
 30
0.0
 11
844.95887990699987
 21
-346.49306457159997
 31
0.0
 70
   128
  1
<>
 13
810.39571106339986
 23
-370.07486795699998
 33
0.0
 14
816.39571106339986
 24
-354.07486795699998
 34
0.0
 50
90.0
  0
INSERT
  5
E3
  8
0
  6
CONTINUOUS
  2
*U56
 10
0.0
 20
0.0
 30
0.0
  0
LINE
  5
E4
  8
┌▓È_1
 10
880.70574072199997
 20
-397.33034436629998
 30
0.0
 11
880.70574072199997
 21
-461.08034436629998
 31
0.0
  0
LINE
  5
E5
  8
┌▓È_1
 10
1040.705740722
 20
-397.33034436629998
 30
0.0
 11
1040.705740722
 21
-461.08034436629998
 31
0.0
  0
LINE
  5
E6
  8
┌▓È_1
 10
920.70574072199997
 20
-397.33034436629998
 30
0.0
 11
920.70574072199997
 21
-418.58034436629993
 31
0.0
  0
LINE
  5
E7
  8
┌▓È_1
 10
1000.705740722
 20
-397.33034436629998
 30
0.0
 11
1000.705740722
 21
-439.83034436629993
 31
0.0
  0
LINE
  5
E8
  8
┌▓È_1
 62
     5
 10
1010.9549215547
 20
-446.65999843249989
 30
0.0
 11
1010.9549215547
 21
-450.25999843250003
 31
0.0
  0
LINE
  5
E9
  8
┌▓È_1
 62
     5
 10
980.19874413690002
 20
-451.25999843249991
 30
0.0
 11
980.19874413690002
 21
-450.25999843250003
 31
0.0
  0
LINE
  5
EA
  8
┌▓È_1
 62
     5
 10
988.51995625810002
 20
-447.9042189674999
 30
0.0
 11
996.51995625810002
 21
-447.9042189674999
 31
0.0
  0
LINE
  5
EB
  8
┌▓È_1
 62
     5
 10
997.59258124149994
 20
-450.2981402426999
 30
0.0
 11
997.11138962890016
 21
-450.82961696379999
 31
0.0
  0
ARC
  5
EC
  8
┌▓È_1
 62
     5
 10
972.19874413690002
 20
-451.25999843249991
 30
0.0
 40
3.0
 50
270.0
 51
0.0
  0
LINE
  5
ED
  8
┌▓È_1
 62
     5
 10
975.1987441368999
 20
-443.25999843250003
 30
0.0
 11
975.1987441368999
 21
-447.25999843249991
 31
0.0
  0
LINE
  5
EE
  8
┌▓È_1
 62
     5
 10
1022.6528034251
 20
-450.25999843250003
 30
0.0
 11
1028.9549215546999
 21
-450.25999843250003
 31
0.0
  0
LINE
  5
EF
  8
┌▓È_1
 62
     5
 10
1004.5199562581
 20
-446.25999843250003
 30
0.0
 11
1006.5199562581
 21
-443.25999843250003
 31
0.0
  0
LINE
  5
F0
  8
┌▓È_1
 62
     5
 10
493.20574072199992
 20
-461.08034436629998
 30
0.0
 11
493.20574072199992
 21
13.9196556337
 31
0.0
  0
LINE
  5
F1
  8
┌▓È_1
 10
1040.705740722
 20
-418.58034436629993
 30
0.0
 11
1180.705740722
 21
-418.58034436629993
 31
0.0
  0
LINE
  5
F2
  8
┌▓È_1
 62
     5
 10
493.20574072199992
 20
13.9196556337
 30
0.0
 11
1180.705740722
 21
13.9196556337
 31
0.0
  0
LINE
  5
F3
  8
┌▓È_1
 62
     5
 10
493.20574072199992
 20
-461.08034436629998
 30
0.0
 11
1180.705740722
 21
-461.08034436629998
 31
0.0
  0
LINE
  5
F4
  8
┌▓È_1
 62
     5
 10
1180.705740722
 20
-461.08034436629998
 30
0.0
 11
1180.705740722
 21
13.9196556337
 31
0.0
  0
INSERT
  5
F5
  8
0
  6
CONTINUOUS
  2
*U57
 10
0.0
 20
0.0
 30
0.0
  0
LINE
  5
F6
  8
┌▓È_1
 10
880.70574072199997
 20
-397.33034436629998
 30
0.0
 11
1180.705740722
 21
-397.33034436629998
 31
0.0
  0
LINE
  5
F7
  8
┌▓È_1
 10
880.70574072199997
 20
-439.83034436629993
 30
0.0
 11
1180.705740722
 21
-439.83034436629993
 31
0.0
  0
LINE
  5
F8
  8
┌▓È_1
 62
     5
 10
980.19874413690002
 20
-446.25999843250003
 30
0.0
 11
983.1987441368999
 21
-443.25999843250003
 31
0.0
  0
LINE
  5
F9
  8
┌▓È_1
 62
     5
 10
966.1987441368999
 20
-453.25999843250003
 30
0.0
 11
971.19874413690002
 21
-453.25999843250003
 31
0.0
  0
LINE
  5
FA
  8
┌▓È_1
 62
     5
 10
1006.5199562581
 20
-443.25999843250003
 30
0.0
 11
988.51995625810002
 21
-443.25999843250003
 31
0.0
  0
INSERT
  5
FB
  8
0
  6
CONTINUOUS
  2
*U58
 10
0.0
 20
0.0
 30
0.0
  0
LINE
  5
FC
  8
┌▓È_1
 10
1027.7142517172999
 20
-240.26350286819999
 30
0.0
 11
1095.0198086472999
 21
-240.26350286819999
 31
0.0
  0
LINE
  5
FD
  8
┌▓È_1
 62
     5
 10
1075.2925245761
 20
-157.2531963628
 30
0.0
 11
1075.2925245761
 21
-162.2531963628
 31
0.0
  0
LINE
  5
FE
  8
┌▓È_1
 62
     5
 10
1075.2925245761
 20
-157.2531963628
 30
0.0
 11
1084.0425245761
 21
-148.5031963628
 31
0.0
  0
LINE
  5
FF
  8
┌▓È_1
 62
     5
 10
1041.5425245761
 20
-148.5031963628
 30
0.0
 11
1050.2925245761
 21
-157.2531963628
 31
0.0
  0
LINE
  5
100
  8
┌▓È_1
 62
     5
 10
1026.8623949465
 20
-148.5031963628
 30
0.0
 11
1099.8610060576
 21
-148.5031963628
 31
0.0
  0
LINE
  5
101
  8
┌▓È_1
 62
     5
 10
1026.8623949465
 20
-171.0031963628
 30
0.0
 11
1099.8610060576
 21
-171.0031963628
 31
0.0
  0
LINE
  5
102
  8
┌▓È_1
 62
     5
 10
1050.2925245761
 20
-162.2531963628
 30
0.0
 11
1075.2925245761
 21
-162.2531963628
 31
0.0
  0
LINE
  5
103
  8
┌▓È_1
 62
     5
 10
1050.2925245761
 20
-162.2531963628
 30
0.0
 11
1041.5425245761
 21
-171.0031963628
 31
0.0
  0
LINE
  5
104
  8
┌▓È_1
 62
     5
 10
1050.2925245761
 20
-157.2531963628
 30
0.0
 11
1050.2925245761
 21
-162.2531963628
 31
0.0
  0
LINE
  5
105
  8
┌▓È_1
  6
BORDER
 62
     3
 10
1062.7925245761
 20
-141.9864750086
 30
0.0
 11
1062.7925245761
 21
-175.4864750086
 31
0.0
  0
LINE
  5
106
  8
┌▓È_1
 62
     5
 10
1050.2925245761
 20
-157.2531963628
 30
0.0
 11
1075.2925245761
 21
-157.2531963628
 31
0.0
  0
LINE
  5
107
  8
┌▓È_1
 62
     5
 10
1075.2925245761
 20
-162.2531963628
 30
0.0
 11
1084.0425245761
 21
-171.0031963628
 31
0.0
  0
DIMENSION
  5
116
  8
Éíû@É³
  2
*D8
 10
1084.0425245761
 20
-105.6801599045
 30
0.0
 11
1062.7925245761
 21
-105.6801599045
 31
0.0
 70
   128
  1
%%c8.5
 13
1084.0425245761
 23
-148.5031963628
 33
0.0
 14
1041.5425245761
 24
-148.5031963628
 34
0.0
  0
DIMENSION
  5
125
  8
Éíû@É³
  2
*D9
 10
1075.2925245761
 20
-126.06134480030001
 30
0.0
 11
1062.7925245761
 21
-126.06134480030001
 31
0.0
 70
   128
  1
%%c5
 13
1075.2925245761
 23
-157.2531963628
 33
0.0
 14
1050.2925245761
 24
-157.2531963628
 34
0.0
  0
DIMENSION
  5
134
  8
Éíû@É³
  2
*D10
 10
1041.5425245761
 20
-189.4099000665
 30
0.0
 11
1062.7925245761
 21
-189.4099000665
 31
0.0
 70
   128
  1
%%c8.5
 13
1041.5425245761
 23
-171.0031963628
 33
0.0
 14
1084.0425245761
 24
-171.0031963628
 34
0.0
 50
180.0
  0
DIMENSION
  5
143
  8
Éíû@É³
  2
*D11
 10
844.95887990699987
 20
-386.07486795699998
 30
0.0
 11
844.95887990699987
 21
-394.00211405070002
 31
0.0
 70
   128
  1
<>
 13
816.39571106339986
 23
-386.07486795699998
 33
0.0
 14
810.39571106339986
 24
-370.07486795699998
 34
0.0
 50
90.0
  0
DIMENSION
  5
152
  8
Éíû@É³
  2
*D12
 10
759.37668589660007
 20
-386.07486795699998
 30
0.0
 11
759.37668589660007
 21
-380.57486795699998
 31
0.0
 70
   128
  1
<>
 13
738.0863035113
 23
-386.07486795699998
 33
0.0
 14
731.39571106339997
 24
-375.07486795699998
 34
0.0
 50
90.0
  0
DIMENSION
  5
161
  8
Éíû@É³
  2
*D13
 10
696.26973450089986
 20
-365.07486795699998
 30
0.0
 11
696.26973450089986
 21
-371.07486795699998
 31
0.0
 70
   128
  1
<>
 13
652.39571106339986
 23
-365.07486795699998
 33
0.0
 14
719.39571106339986
 24
-375.07486795699998
 34
0.0
 50
90.0
  0
DIMENSION
  5
170
  8
Éíû@É³
  2
*D14
 10
725.39571106339986
 20
-336.27903462360001
 30
0.0
 11
685.89571106339986
 21
-336.27903462360001
 31
0.0
 70
   128
  1
<>
 13
725.39571106339986
 23
-369.07486795699998
 33
0.0
 14
646.39571106339986
 24
-359.07486795699998
 34
0.0
  0
DIMENSION
  5
17F
  8
Éíû@É³
  2
*D15
 10
804.39571106339997
 20
-336.5636196863
 30
0.0
 11
764.89571106339986
 21
-336.5636196863
 31
0.0
 70
   128
  1
<>
 13
804.39571106339997
 23
-364.07486795699998
 33
0.0
 14
725.39571106339986
 24
-369.07486795699998
 34
0.0
  0
DIMENSION
  5
18E
  8
Éíû@É³
  2
*D16
 10
676.44634735490001
 20
-365.07486795699998
 30
0.0
 11
676.44634735490001
 21
-359.57486795699998
 31
0.0
 70
   128
  1
<>
 13
652.39571106339986
 23
-365.07486795699998
 33
0.0
 14
655.15596496959995
 24
-354.07486795699998
 34
0.0
 50
90.0
  0
DIMENSION
  5
19D
  8
Éíû@É³
  2
*D17
 10
646.39571106339986
 20
-336.175598853
 30
0.0
 11
631.39571106339997
 21
-336.175598853
 31
0.0
 70
   128
  1
<>
 13
646.39571106339986
 23
-359.07486795699998
 33
0.0
 14
616.39571106339986
 24
-354.07486795699998
 34
0.0
  0
DIMENSION
  5
1AC
  8
Éíû@É³
  2
*D18
 10
595.06660950089986
 20
-354.07486795699998
 30
0.0
 11
595.06660950089986
 21
-370.07486795699998
 31
0.0
 70
   128
  1
<>
 13
616.39571106339986
 23
-354.07486795699998
 33
0.0
 14
616.39571106339986
 24
-386.07486795699998
 34
0.0
 50
90.0
  0
DIMENSION
  5
1BB
  8
Éíû@É³
  2
*D19
 10
816.39571106339986
 20
-336.2576510838
 30
0.0
 11
810.39571106339986
 21
-336.2576510838
 31
0.0
 70
   128
  1
<>
 13
816.39571106339986
 23
-354.07486795699998
 33
0.0
 14
804.39571106339997
 24
-359.07486795699998
 34
0.0
  0
LINE
  5
1BC
  8
┌▓È_1
  6
STITCH
 10
638.89571106339997
 20
-253.08839948100001
 30
0.0
 11
633.89571106339986
 21
-253.08839948100001
 31
0.0
  0
LINE
  5
1BD
  8
┌▓È_1
  6
STITCH
 10
638.89571106339997
 20
-254.08839948100001
 30
0.0
 11
640.64571106339997
 21
-255.83839948100001
 31
0.0
  0
LINE
  5
1BE
  8
┌▓È_1
  6
STITCH
 10
638.89571106339997
 20
-253.08839948100001
 30
0.0
 11
640.64571106339997
 21
-251.33839948100001
 31
0.0
  0
LINE
  5
1BF
  8
┌▓È_1
  6
STITCH
 10
633.89571106339986
 20
-254.08839948100001
 30
0.0
 11
632.14571106339997
 21
-255.83839948100001
 31
0.0
  0
LINE
  5
1C0
  8
┌▓È_1
  6
STITCH
 10
633.89571106339986
 20
-253.08839948100001
 30
0.0
 11
632.14571106339997
 21
-251.33839948100001
 31
0.0
  0
LINE
  5
1C1
  8
┌▓È_1
  6
STITCH
 10
633.89571106339986
 20
-253.08839948100001
 30
0.0
 11
633.89571106339986
 21
-254.08839948100001
 31
0.0
  0
LINE
  5
1C2
  8
┌▓È_1
  6
STITCH
 10
618.14571106339986
 20
-238.33839948100001
 30
0.0
 11
618.14571106339986
 21
-233.33839948100001
 31
0.0
  0
LINE
  5
1C3
  8
┌▓È_1
  6
STITCH
 10
619.14571106339986
 20
-233.33839948100001
 30
0.0
 11
619.14571106339986
 21
-238.33839948100001
 31
0.0
  0
LINE
  5
1C4
  8
┌▓È_1
  6
STITCH
 10
618.14571106339986
 20
-233.33839948100001
 30
0.0
 11
619.14571106339986
 21
-233.33839948100001
 31
0.0
  0
ARC
  5
1C5
  8
┌▓È_1
 62
     5
 10
620.89571106339986
 20
-251.33839948100001
 30
0.0
 40
4.5
 50
180.0
 51
270.0
  0
LINE
  5
1C6
  8
┌▓È_1
  6
BORDER
 62
     3
 10
636.39571106339986
 20
-245.5106217032
 30
0.0
 11
636.39571106339986
 21
-262.88006614770001
 31
0.0
  0
LINE
  5
1C7
  8
┌▓È_1
  6
BORDER
 62
     3
 10
626.72348884120004
 20
-235.83839948100001
 30
0.0
 11
609.35404439670003
 21
-235.83839948100001
 31
0.0
  0
INSERT
  5
1C9
  8
┌▓È_1
  2
CLUMP4
 10
0.0
 20
0.0
 30
0.0
  0
LINE
  5
1D5
  8
┌▓È_1
  6
STITCH
 10
619.14571106339986
 20
-238.33839948100001
 30
0.0
 11
618.14571106339986
 21
-238.33839948100001
 31
0.0
  0
LINE
  5
1D6
  8
┌▓È_1
  6
STITCH
 10
619.14571106339986
 20
-238.33839948100001
 30
0.0
 11
620.89571106339986
 21
-240.08839948100001
 31
0.0
  0
LINE
  5
1D7
  8
┌▓È_1
  6
STITCH
 10
618.14571106339986
 20
-238.33839948100001
 30
0.0
 11
616.39571106339986
 21
-240.08839948100001
 31
0.0
  0
LINE
  5
1D8
  8
┌▓È_1
  6
STITCH
 10
618.14571106339986
 20
-233.33839948100001
 30
0.0
 11
616.39571106339986
 21
-231.58839948100001
 31
0.0
  0
LINE
  5
1D9
  8
┌▓È_1
  6
STITCH
 10
619.14571106339986
 20
-233.33839948100001
 30
0.0
 11
620.89571106339986
 21
-231.58839948100001
 31
0.0
  0
LINE
  5
1DA
  8
┌▓È_1
  6
STITCH
 10
633.89571106339986
 20
-254.08839948100001
 30
0.0
 11
638.89571106339997
 21
-254.08839948100001
 31
0.0
  0
LINE
  5
1DB
  8
┌▓È_1
  6
STITCH
 10
638.89571106339997
 20
-254.08839948100001
 30
0.0
 11
638.89571106339997
 21
-253.08839948100001
 31
0.0
  0
LINE
  5
1DC
  8
┌▓È_1
 62
     5
 10
895.86930814489995
 20
-251.33839948100001
 30
0.0
 11
927.86930814489995
 21
-251.33839948100001
 31
0.0
  0
INSERT
  5
1DE
  8
┌▓È_1
  2
CLUMP5
 10
0.0
 20
0.0
 30
0.0
  0
INSERT
  5
1E6
  8
┌▓È_1
  2
CLUMP6
 10
0.0
 20
0.0
 30
0.0
  0
LINE
  5
1ED
  8
┌▓È_1
 62
     5
 10
616.39571106339986
 20
-251.33839948100001
 30
0.0
 11
616.39571106339986
 21
-55.838399481000003
 31
0.0
  0
LINE
  5
1EE
  8
┌▓È_1
 62
     5
 10
927.86930814489995
 20
-55.838399481000003
 30
0.0
 11
927.86930814489995
 21
-255.83839948100001
 31
0.0
  0
DIMENSION
  5
1FC
  8
Éíû@É³
  2
*D59
 10
1045.665057934915
 20
-213.6737720726432
 30
0.0
 11
1062.7925245761
 21
-215.92864583330001
 31
0.0
 70
   133
  1
<>
 13
1084.5728546620001
 23
-171.5335264487
 33
0.0
 14
1041.0121944902
 24
-171.5335264487
 34
0.0
 15
1062.7925245761
 25
-149.7531963628
 35
0.0
1001
ACAD
1000
DSTYLE
1002
{
1070
   271
1070
     0
1002
}
  0
DIMENSION
  5
209
  8
Éíû@É³
  2
*D60
 10
1085.2864792956859
 20
-85.804614486151294
 30
0.0
 11
1062.7925245761
 21
-82.843229166699984
 31
0.0
 70
   133
  1
<>
 13
1041.0121944902
 23
-147.97286627689999
 33
0.0
 14
1084.5728546620001
 24
-147.97286627689999
 34
0.0
 15
1062.7925245761
 25
-169.7531963628
 35
0.0
1001
ACAD
1000
DSTYLE
1002
{
1070
   271
1070
     0
1002
}
  0
DIMENSION
  5
218
  8
Éíû@É³
  2
*D25
 10
620.89571106339986
 20
-21.309771449599999
 30
0.0
 11
638.51732352069985
 21
-21.309771449599999
 31
0.0
 70
   128
  1
<>t
 13
620.89571106339986
 23
-55.838399481000003
 33
0.0
 14
616.39571106339986
 24
-55.838399481000003
 34
0.0
  0
DIMENSION
  5
227
  8
Éíû@É³
  2
*D26
 10
616.39571106339986
 20
-286.80260999130002
 30
0.0
 11
716.39571106339986
 21
-286.80260999130002
 31
0.0
 70
   128
  1
<>
 13
616.39571106339986
 23
-251.33839948100001
 33
0.0
 14
816.39571106339986
 24
-255.83839948100001
 34
0.0
 50
180.0
  0
INSERT
  5
229
  8
┌▓È_1
  2
CLUMP7
 10
0.0
 20
0.0
 30
0.0
  0
INSERT
  5
236
  8
┌▓È_1
  2
CLUMP8
 10
0.0
 20
0.0
 30
0.0
  0
INSERT
  5
23E
  8
┌▓È_1
  2
CLUMP9
 10
0.0
 20
0.0
 30
0.0
  0
INSERT
  5
24B
  8
┌▓È_1
  2
CLUMP10
 10
0.0
 20
0.0
 30
0.0
  0
LINE
  5
257
  8
┌▓È_1
 62
     5
 10
620.89571106339986
 20
-251.33839948100001
 30
0.0
 11
620.89571106339986
 21
-55.838399481000003
 31
0.0
  0
LINE
  5
258
  8
┌▓È_1
 62
     5
 10
895.86930814489995
 20
-55.838399481000003
 30
0.0
 11
895.86930814489995
 21
-255.83839948100001
 31
0.0
  0
LINE
  5
259
  8
┌▓È_1
 62
     5
 10
927.86930814489995
 20
-55.838399481000003
 30
0.0
 11
895.86930814489995
 21
-55.838399481000003
 31
0.0
  0
LINE
  5
25A
  8
┌▓È_1
 62
     5
 10
895.86930814489995
 20
-255.83839948100001
 30
0.0
 11
927.86930814489995
 21
-255.83839948100001
 31
0.0
  0
LINE
  5
25B
  8
┌▓È_1
 62
     5
 10
816.39571106339986
 20
-255.83839948100001
 30
0.0
 11
816.39571106339986
 21
-251.33839948100001
 31
0.0
  0
LINE
  5
25C
  8
┌▓È_1
 62
     5
 10
620.89571106339986
 20
-55.838399481000003
 30
0.0
 11
616.39571106339986
 21
-55.838399481000003
 31
0.0
  0
LINE
  5
25D
  8
┌▓È_1
 62
     5
 10
620.89571106339986
 20
-255.83839948100001
 30
0.0
 11
816.39571106339986
 21
-255.83839948100001
 31
0.0
  0
LINE
  5
25E
  8
┌▓È_1
 62
     5
 10
620.89571106339986
 20
-251.33839948100001
 30
0.0
 11
816.39571106339986
 21
-251.33839948100001
 31
0.0
  0
DIMENSION
  5
26D
  8
Éíû@É³
  2
*D31
 10
595.10532867810002
 20
-55.838399481000003
 30
0.0
 11
595.10532867810002
 21
-155.83839948100001
 31
0.0
 70
   128
  1
<>
 13
616.39571106339986
 23
-55.838399481000003
 33
0.0
 14
620.89571106339986
 24
-255.83839948100001
 34
0.0
 50
90.0
  0
DIMENSION
  5
27A
  8
Éíû@É³
  2
*D61
 10
660.09345184294
 20
-183.44592090892201
 30
0.0
 11
676.43425273009996
 21
-196.0091855121
 31
0.0
 70
   133
  1
<>
 13
620.89571106339986
 23
-55.838399481000003
 33
0.0
 14
816.39571106339986
 24
-251.33839948100001
 34
0.0
 15
620.89571106339986
 25
-251.33839948100001
 35
0.0
1001
ACAD
1000
DSTYLE
1002
{
1070
   271
1070
     0
1002
}
  0
DIMENSION
  5
289
  8
Éíû@É³
  2
*D33
 10
874.42940246960006
 20
-55.838399481000003
 30
0.0
 11
874.42940246960006
 21
-62.061706772700013
 31
0.0
 70
   128
  1
<>
 13
895.86930814489995
 23
-55.838399481000003
 33
0.0
 14
910.86930814490006
 24
-67.83839948100001
 34
0.0
 50
90.0
  0
DIMENSION
  5
298
  8
Éíû@É³
  2
*D34
 10
874.42940246960006
 20
-67.83839948100001
 30
0.0
 11
874.42940246960006
 21
-107.338399481
 31
0.0
 70
   128
  1
<>
 13
905.86930814489995
 23
-67.83839948100001
 33
0.0
 14
902.61930814490006
 24
-146.83839948100001
 34
0.0
 50
90.0
  0
DIMENSION
  5
2A7
  8
Éíû@É³
  2
*D35
 10
906.86930814489995
 20
-174.16865816839999
 30
0.0
 11
910.86930814490006
 21
-174.16865816839999
 31
0.0
 70
   128
  1
<>
 13
906.86930814489995
 23
-152.83839948100001
 33
0.0
 14
916.86930814490006
 24
-219.83839948100001
 34
0.0
 50
180.0
  0
DIMENSION
  5
2B6
  8
Éíû@É³
  2
*D36
 10
906.86930814489995
 20
-117.2419003559
 30
0.0
 11
901.36930814489995
 21
-117.2419003559
 31
0.0
 70
   128
  1
<>
 13
906.86930814489995
 23
-140.83839948100001
 33
0.0
 14
895.86930814489995
 24
-128.83809176209999
 34
0.0
  0
DIMENSION
  5
2C5
  8
Éíû@É³
  2
*D37
 10
927.86930814489995
 20
-198.54801709579999
 30
0.0
 11
922.36930814490006
 21
-198.54801709579999
 31
0.0
 70
   128
  1
<>
 13
927.86930814489995
 23
-219.83839948100001
 33
0.0
 14
916.86930814490006
 24
-219.83839948100001
 34
0.0
  0
DIMENSION
  5
2D4
  8
Éíû@É³
  2
*D38
 10
874.5291746050998
 20
-146.83839948100001
 30
0.0
 11
874.5291746050998
 21
-186.33839948100001
 31
0.0
 70
   128
  1
<>
 13
902.61930814490006
 23
-146.83839948100001
 33
0.0
 14
910.86930814490006
 24
-225.83839948100001
 34
0.0
 50
90.0
  0
DIMENSION
  5
2E3
  8
Éíû@É³
  2
*D39
 10
874.57892575960011
 20
-225.83839948100001
 30
0.0
 11
874.57892575960011
 21
-240.83839948100001
 31
0.0
 70
   128
  1
<>
 13
910.86930814490006
 23
-225.83839948100001
 33
0.0
 14
895.86930814489995
 24
-255.83839948100001
 34
0.0
 50
90.0
  0
ENDSEC
  0
EOF
