  0
SECTION
  2
HEADER
  9
$ACADVER
  1
AC1009
  9
$INSBASE
 10
0.0
 20
0.0
 30
0.0
  9
$EXTMIN
 10
561.17358433669995
 20
-408.81804897939998
 30
0.0
  9
$EXTMAX
 10
1111.1735843367001
 20
-28.8180489794
 30
0.0
  9
$LIMMIN
 10
0.0
 20
0.0
  9
$LIMMAX
 10
0.0
 20
0.0
  9
$ORTHOMODE
 70
     0
  9
$REGENMODE
 70
     1
  9
$FILLMODE
 70
     1
  9
$QTEXTMODE
 70
     0
  9
$MIRRTEXT
 70
     1
  9
$DRAGMODE
 70
     2
  9
$LTSCALE
 40
1.0
  9
$OSMODE
 70
    31
  9
$ATTMODE
 70
     1
  9
$TEXTSIZE
 40
0.0
  9
$TRACEWID
 40
0.05
  9
$TEXTSTYLE
  7
STANDARD
  9
$CLAYER
  8
0
  9
$CELTYPE
  6
CONTINUOUS
  9
$CECOLOR
 62
   256
  9
$DIMSCALE
 40
1.0
  9
$DIMASZ
 40
0.18
  9
$DIMEXO
 40
0.0625
  9
$DIMDLI
 40
0.38
  9
$DIMRND
 40
0.0
  9
$DIMDLE
 40
0.0
  9
$DIMEXE
 40
0.18
  9
$DIMTP
 40
0.0
  9
$DIMTM
 40
0.0
  9
$DIMTXT
 40
0.18
  9
$DIMCEN
 40
0.09
  9
$DIMTSZ
 40
0.0
  9
$DIMTOL
 70
     0
  9
$DIMLIM
 70
     0
  9
$DIMTIH
 70
     1
  9
$DIMTOH
 70
     1
  9
$DIMSE1
 70
     0
  9
$DIMSE2
 70
     0
  9
$DIMTAD
 70
     0
  9
$DIMZIN
 70
     0
  9
$DIMBLK
  1

  9
$DIMASO
 70
     1
  9
$DIMSHO
 70
     1
  9
$DIMPOST
  1

  9
$DIMAPOST
  1

  9
$DIMALT
 70
     0
  9
$DIMALTD
 70
     2
  9
$DIMALTF
 40
25.399999999999999
  9
$DIMLFAC
 40
1.0
  9
$DIMTOFL
 70
     0
  9
$DIMTVP
 40
0.0
  9
$DIMTIX
 70
     0
  9
$DIMSOXD
 70
     0
  9
$DIMSAH
 70
     0
  9
$DIMBLK1
  1

  9
$DIMBLK2
  1

  9
$DIMSTYLE
  2
STANDARD
  9
$DIMCLRD
 70
     0
  9
$DIMCLRE
 70
     0
  9
$DIMCLRT
 70
     0
  9
$DIMTFAC
 40
1.0
  9
$DIMGAP
 40
0.09
  9
$LUNITS
 70
     2
  9
$LUPREC
 70
     4
  9
$SKETCHINC
 40
0.1
  9
$FILLETRAD
 40
0.0
  9
$AUNITS
 70
     0
  9
$AUPREC
 70
     0
  9
$MENU
  1
acad
  9
$ELEVATION
 40
0.0
  9
$PELEVATION
 40
0.0
  9
$THICKNESS
 40
0.0
  9
$LIMCHECK
 70
     0
  9
$BLIPMODE
 70
     0
  9
$CHAMFERA
 40
0.0
  9
$CHAMFERB
 40
0.0
  9
$SKPOLY
 70
     0
  9
$TDCREATE
 40
2454862.7406819561
  9
$TDUPDATE
 40
2454862.7409501509
  9
$TDINDWG
 40
0.000299838
  9
$TDUSRTIMER
 40
0.0002915162
  9
$USRTIMER
 70
     1
  9
$ANGBASE
 50
0.0
  9
$ANGDIR
 70
     0
  9
$PDMODE
 70
     3
  9
$PDSIZE
 40
-1.0
  9
$PLINEWID
 40
0.0
  9
$COORDS
 70
     2
  9
$SPLFRAME
 70
     0
  9
$SPLINETYPE
 70
     6
  9
$SPLINESEGS
 70
     8
  9
$ATTDIA
 70
     0
  9
$ATTREQ
 70
     1
  9
$HANDLING
 70
     1
  9
$HANDSEED
  5
563
  9
$SURFTAB1
 70
     6
  9
$SURFTAB2
 70
     6
  9
$SURFTYPE
 70
     6
  9
$SURFU
 70
     6
  9
$SURFV
 70
     6
  9
$UCSNAME
  2

  9
$UCSORG
 10
0.0
 20
0.0
 30
0.0
  9
$UCSXDIR
 10
1.0
 20
0.0
 30
0.0
  9
$UCSYDIR
 10
0.0
 20
1.0
 30
0.0
  9
$PUCSNAME
  2

  9
$PUCSORG
 10
0.0
 20
0.0
 30
0.0
  9
$PUCSXDIR
 10
1.0
 20
0.0
 30
0.0
  9
$PUCSYDIR
 10
0.0
 20
1.0
 30
0.0
  9
$USERI1
 70
     0
  9
$USERI2
 70
     0
  9
$USERI3
 70
     0
  9
$USERI4
 70
     0
  9
$USERI5
 70
     0
  9
$USERR1
 40
0.0
  9
$USERR2
 40
0.0
  9
$USERR3
 40
0.0
  9
$USERR4
 40
0.0
  9
$USERR5
 40
0.0
  9
$WORLDVIEW
 70
     1
  9
$SHADEDGE
 70
     3
  9
$SHADEDIF
 70
    70
  9
$TILEMODE
 70
     1
  9
$MAXACTVP
 70
    16
  9
$PLIMCHECK
 70
     0
  9
$PEXTMIN
 10
1.0000000000000000E+020
 20
1.0000000000000000E+020
 30
1.0000000000000000E+020
  9
$PEXTMAX
 10
-1.0000000000000000E+020
 20
-1.0000000000000000E+020
 30
-1.0000000000000000E+020
  9
$PLIMMIN
 10
0.0
 20
0.0
  9
$PLIMMAX
 10
12.0
 20
9.0
  9
$UNITMODE
 70
     0
  9
$VISRETAIN
 70
     0
  9
$PLINEGEN
 70
     1
  9
$PSLTSCALE
 70
     0
  0
ENDSEC
  0
SECTION
  2
TABLES
  0
TABLE
  2
VPORT
 70
     2
  0
VPORT
  2
*ACTIVE
 70
     0
 10
0.0
 20
0.0
 11
1.0
 21
1.0
 12
836.17358433669995
 22
-218.8180489794
 13
0.0
 23
0.0
 14
1.0
 24
1.0
 15
0.0
 25
0.0
 16
0.0
 26
0.0
 36
1.0
 17
0.0
 27
0.0
 37
0.0
 40
397.98585584749179
 41
1.3903818953323901
 42
50.0
 43
0.0
 44
0.0
 50
0.0
 51
0.0
 71
     0
 72
   100
 73
     1
 74
     1
 75
     0
 76
     0
 77
     0
 78
     0
  0
ENDTAB
  0
TABLE
  2
LTYPE
 70
    11
  0
LTYPE
  2
CONTINUOUS
 70
     0
  3
Solid line
 72
    65
 73
     0
 40
0.0
  0
LTYPE
  2
DOT
 70
     0
  3
. . . . . . . . 
 72
    65
 73
     2
 40
1.0
 49
0.0
 49
-1.0
  0
LTYPE
  2
DASHED
 70
     0
  3
___  ___  ___  ___  
 72
    65
 73
     2
 40
4.0
 49
3.0
 49
-1.0
  0
LTYPE
  2
HIDDEN
 70
     0
  3
__ __ __ __ 
 72
    65
 73
     2
 40
3.0
 49
2.0
 49
-1.0
  0
LTYPE
  2
STITCH
 70
     0
  3
_ _ _ _ 
 72
    65
 73
     2
 40
2.0
 49
1.0
 49
-1.0
  0
LTYPE
  2
CENTER
 70
     0
  3
______  __  ______  __  
 72
    65
 73
     4
 40
43.0
 49
40.0
 49
-1.0
 49
1.0
 49
-1.0
  0
LTYPE
  2
DASHDOT
 70
     0
  3
____ . ____ . 
 72
    65
 73
     4
 40
32.0
 49
30.0
 49
-1.0
 49
0.0
 49
-1.0
  0
LTYPE
  2
BORDER
 70
     0
  3
__ . __ . 
 72
    65
 73
     4
 40
22.0
 49
20.0
 49
-1.0
 49
0.0
 49
-1.0
  0
LTYPE
  2
CUTTING
 70
     0
  3
________   ___   ___   
 72
    65
 73
     6
 40
45.0
 49
40.0
 49
-1.0
 49
1.0
 49
-1.0
 49
1.0
 49
-1.0
  0
LTYPE
  2
PHANTOM
 70
     0
  3
______  __  __  
 72
    65
 73
     6
 40
35.0
 49
30.0
 49
-1.0
 49
1.0
 49
-1.0
 49
1.0
 49
-1.0
  0
LTYPE
  2
DIVIDE
 70
     0
  3
____ . . ____ . . 
 72
    65
 73
     6
 40
23.0
 49
20.0
 49
-1.0
 49
0.0
 49
-1.0
 49
0.0
 49
-1.0
  0
ENDTAB
  0
TABLE
  2
LAYER
 70
     4
  0
LAYER
  2
0
 70
     0
 62
     7
  6
CONTINUOUS
  0
LAYER
  2
┌▓È_1
 70
     0
 62
     7
  6
CONTINUOUS
  0
LAYER
  2
Éíû@É³
 70
     0
 62
     7
  6
CONTINUOUS
  0
LAYER
  2
Defpoints
 70
     0
 62
     7
  6
CONTINUOUS
  0
ENDTAB
  0
TABLE
  2
STYLE
 70
     1
  0
STYLE
  2
STANDARD
 70
     0
 40
0.0
 41
1.0
 50
0.0
 71
     0
 42
0.0
  3
txt
  4
extfont
  0
ENDTAB
  0
TABLE
  2
VIEW
 70
     0
  0
ENDTAB
  0
TABLE
  2
UCS
 70
     0
  0
ENDTAB
  0
TABLE
  2
APPID
 70
     2
  0
APPID
  2
ACAD
 70
     0
  0
APPID
  2
DCO15
 70
     0
  0
ENDTAB
  0
TABLE
  2
DIMSTYLE
 70
     3
  0
DIMSTYLE
  2
STANDARD
 70
     0
  3

  4

  5

  6

  7

 40
1.0
 41
0.18
 42
0.0625
 43
0.38
 44
0.18
 45
0.0
 46
0.0
 47
0.0
 48
0.0
140
0.18
141
0.09
142
0.0
143
25.399999999999999
144
1.0
145
0.0
146
1.0
147
0.09
 71
     0
 72
     0
 73
     1
 74
     1
 75
     0
 76
     0
 77
     0
 78
     0
170
     0
171
     2
172
     0
173
     0
174
     0
175
     0
176
     0
177
     0
178
     0
  0
DIMSTYLE
  2
VELDIM0
 70
     0
  3

  4

  5

  6

  7

 40
1.0
 41
6.0
 42
0.0625
 43
0.38
 44
0.5
 45
0.0
 46
3.0
 47
0.0
 48
0.0
140
5.9972220420999998
141
0.09
142
0.0
143
25.399999999999999
144
1.0
145
0.0
146
1.0
147
0.09
 71
     0
 72
     0
 73
     0
 74
     0
 75
     0
 76
     0
 77
     0
 78
     8
170
     0
171
     2
172
     0
173
     0
174
     0
175
     0
176
     0
177
     0
178
     0
  0
DIMSTYLE
  2
VELDIM1
 70
     0
  3

  4

  5

  6

  7

 40
1.0
 41
6.0
 42
0.0625
 43
0.38
 44
1.25
 45
0.0
 46
5.0
 47
0.0
 48
0.0
140
5.9972220420999998
141
0.09
142
0.0
143
25.399999999999999
144
1.0
145
0.0
146
1.0
147
0.09
 71
     0
 72
     0
 73
     0
 74
     0
 75
     0
 76
     0
 77
     0
 78
     8
170
     0
171
     2
172
     0
173
     0
174
     0
175
     0
176
     0
177
     0
178
     0
  0
ENDTAB
  0
ENDSEC
  0
SECTION
  2
BLOCKS
  0
BLOCK
  8
0
  2
$MODEL_SPACE
 70
     0
 10
0.0
 20
0.0
 30
0.0
  3
$MODEL_SPACE
  1

  0
ENDBLK
  5
E
  8
0
  0
BLOCK
 67
     1
  8
0
  2
$PAPER_SPACE
 70
     0
 10
0.0
 20
0.0
 30
0.0
  3
$PAPER_SPACE
  1

  0
ENDBLK
  5
10
 67
     1
  8
0
  0
BLOCK
  8
0
  2
CLUMP0
 70
     0
 10
0.0
 20
0.0
 30
0.0
  3
CLUMP0
  1

  0
LINE
  5
32
  8
┌▓È_1
  6
BORDER
 62
     3
 10
688.55450881579986
 20
-336.52117397939998
 30
0.0
 11
688.55450881579986
 21
-324.52117397939998
 31
0.0
  0
LINE
  5
33
  8
┌▓È_1
  6
BORDER
 62
     3
 10
682.55450881579986
 20
-330.52117397939998
 30
0.0
 11
694.55450881579998
 21
-330.52117397939998
 31
0.0
  0
CIRCLE
  5
34
  8
┌▓È_1
 62
     5
 10
688.55450881579986
 20
-330.52117397939998
 30
0.0
 40
4.25
  0
CIRCLE
  5
35
  8
┌▓È_1
 62
     5
 10
688.55450881579986
 20
-330.52117397939998
 30
0.0
 40
2.5
  0
ENDBLK
  5
36
  8
0
  0
BLOCK
  8
0
  2
CLUMP1
 70
     0
 10
0.0
 20
0.0
 30
0.0
  3
CLUMP1
  1

  0
INSERT
  5
3D
  8
┌▓È_1
  6
BORDER
  2
CLUMP2
 10
0.0
 20
0.0
 30
0.0
  0
ENDBLK
  5
49
  8
0
  0
BLOCK
  8
0
  2
CLUMP2
 70
     0
 10
0.0
 20
0.0
 30
0.0
  3
CLUMP2
  1

  0
LINE
  5
3F
  8
┌▓È_1
  6
BORDER
 62
     3
 10
688.55450881579986
 20
-233.45355245159999
 30
0.0
 11
688.55450881579986
 21
-250.82299689600001
 31
0.0
  0
LINE
  5
40
  8
┌▓È_1
  6
STITCH
 10
691.05450881579986
 20
-241.0313302294
 30
0.0
 11
686.05450881579998
 21
-241.0313302294
 31
0.0
  0
LINE
  5
41
  8
┌▓È_1
  6
STITCH
 10
691.05450881579986
 20
-241.0313302294
 30
0.0
 11
692.80450881579998
 21
-239.2813302294
 31
0.0
  0
LINE
  5
42
  8
┌▓È_1
  6
STITCH
 10
691.05450881579986
 20
-242.0313302294
 30
0.0
 11
692.80450881579998
 21
-243.7813302294
 31
0.0
  0
LINE
  5
43
  8
┌▓È_1
  6
STITCH
 10
691.05450881579986
 20
-242.0313302294
 30
0.0
 11
691.05450881579986
 21
-241.0313302294
 31
0.0
  0
LINE
  5
44
  8
┌▓È_1
  6
STITCH
 10
686.05450881579998
 20
-242.0313302294
 30
0.0
 11
691.05450881579986
 21
-242.0313302294
 31
0.0
  0
LINE
  5
45
  8
┌▓È_1
  6
STITCH
 10
686.05450881579998
 20
-241.0313302294
 30
0.0
 11
686.05450881579998
 21
-242.0313302294
 31
0.0
  0
LINE
  5
46
  8
┌▓È_1
  6
STITCH
 10
686.05450881579998
 20
-241.0313302294
 30
0.0
 11
684.30450881579998
 21
-239.2813302294
 31
0.0
  0
LINE
  5
47
  8
┌▓È_1
  6
STITCH
 10
686.05450881579998
 20
-242.0313302294
 30
0.0
 11
684.30450881579998
 21
-243.7813302294
 31
0.0
  0
ENDBLK
  5
48
  8
0
  0
BLOCK
  8
0
  2
CLUMP3
 70
     0
 10
0.0
 20
0.0
 30
0.0
  3
CLUMP3
  1

  0
LINE
  5
4D
  8
┌▓È_1
  6
BORDER
 62
     3
 10
678.88228659360004
 20
-213.7813302294
 30
0.0
 11
661.51284214919986
 21
-213.7813302294
 31
0.0
  0
LINE
  5
4E
  8
┌▓È_1
  6
STITCH
 10
671.30450881579998
 20
-211.2813302294
 30
0.0
 11
673.05450881579998
 21
-209.5313302294
 31
0.0
  0
LINE
  5
4F
  8
┌▓È_1
  6
STITCH
 10
670.30450881579986
 20
-211.2813302294
 30
0.0
 11
668.55450881579998
 21
-209.5313302294
 31
0.0
  0
LINE
  5
50
  8
┌▓È_1
  6
STITCH
 10
670.30450881579986
 20
-216.2813302294
 30
0.0
 11
668.55450881579998
 21
-218.0313302294
 31
0.0
  0
LINE
  5
51
  8
┌▓È_1
  6
STITCH
 10
671.30450881579998
 20
-216.2813302294
 30
0.0
 11
673.05450881579998
 21
-218.0313302294
 31
0.0
  0
LINE
  5
52
  8
┌▓È_1
  6
STITCH
 10
671.30450881579998
 20
-216.2813302294
 30
0.0
 11
670.30450881579986
 21
-216.2813302294
 31
0.0
  0
LINE
  5
53
  8
┌▓È_1
  6
STITCH
 10
670.30450881579986
 20
-211.2813302294
 30
0.0
 11
671.30450881579998
 21
-211.2813302294
 31
0.0
  0
LINE
  5
54
  8
┌▓È_1
  6
STITCH
 10
671.30450881579998
 20
-211.2813302294
 30
0.0
 11
671.30450881579998
 21
-216.2813302294
 31
0.0
  0
LINE
  5
55
  8
┌▓È_1
  6
STITCH
 10
670.30450881579986
 20
-216.2813302294
 30
0.0
 11
670.30450881579986
 21
-211.2813302294
 31
0.0
  0
ENDBLK
  5
56
  8
0
  0
BLOCK
  8
0
  2
*D4
 70
     1
 10
0.0
 20
0.0
 30
0.0
  3
*D4
  1

  0
TEXT
  5
5A
  8
0
 62
     0
 10
761.55017800119992
 20
-311.76134678779999
 30
0.0
 40
5.9972220420999998
  1
16
 50
90.0
  0
LINE
  5
5B
  8
0
 62
     0
 10
738.55450881579986
 20
-335.52117397939998
 30
0.0
 11
764.10851130270009
 21
-335.52117397939998
 31
0.0
  0
LINE
  5
5C
  8
0
 62
     0
 10
744.55450881579998
 20
-319.52117397939998
 30
0.0
 11
764.10851130270009
 21
-319.52117397939998
 31
0.0
  0
LINE
  5
5D
  8
0
 62
     0
 10
763.60851130269998
 20
-335.52117397939998
 30
0.0
 11
763.60851130269998
 21
-301.17801377239999
 31
0.0
  0
LINE
  5
5E
  8
0
 62
     0
 10
763.60851130269998
 20
-335.52117397939998
 30
0.0
 11
763.60851130269998
 21
-315.28912445959998
 31
0.0
  0
LINE
  5
5F
  8
0
 62
     0
 10
763.60851130269998
 20
-319.52117397939998
 30
0.0
 11
763.60851130269998
 21
-301.17801377239999
 31
0.0
  0
LINE
  5
60
  8
0
 62
     0
 10
763.60851130269998
 20
-319.52117397939998
 30
0.0
 11
763.60851130269998
 21
-315.28912445959998
 31
0.0
  0
LINE
  5
61
  8
0
 62
     0
 10
763.60851130269998
 20
-319.52117397939998
 30
0.0
 11
763.60851130269998
 21
-322.52117397939998
 31
0.0
  0
SOLID
  5
62
  8
0
 62
     0
 10
763.60851130269998
 20
-319.52117397939998
 30
0.0
 11
765.10851130270009
 21
-325.52117397939998
 31
0.0
 12
762.10851130269998
 22
-325.52117397939998
 32
0.0
 13
763.60851130269998
 23
-324.02117397939998
 33
0.0
  0
LINE
  5
63
  8
0
 62
     0
 10
763.60851130269998
 20
-335.52117397939998
 30
0.0
 11
763.60851130269998
 21
-332.52117397939998
 31
0.0
  0
SOLID
  5
64
  8
0
 62
     0
 10
763.60851130269998
 20
-335.52117397939998
 30
0.0
 11
762.10851130269998
 21
-329.52117397939998
 31
0.0
 12
765.10851130270009
 22
-329.52117397939998
 32
0.0
 13
763.60851130269998
 23
-331.02117397939998
 33
0.0
  0
ENDBLK
  5
65
  8
0
  0
BLOCK
  8
0
  2
*D5
 70
     1
 10
0.0
 20
0.0
 30
0.0
  3
*D5
  1

  0
TEXT
  5
6A
  8
0
 62
     0
 10
761.55017800119992
 20
-362.75979149490001
 30
0.0
 40
5.9972220420999998
  1
16
 50
90.0
  0
LINE
  5
6B
  8
0
 62
     0
 10
744.55450881579998
 20
-351.52117397940009
 30
0.0
 11
764.10851130270009
 21
-351.52117397940009
 31
0.0
  0
LINE
  5
6C
  8
0
 62
     0
 10
738.55450881579986
 20
-335.52117397939998
 30
0.0
 11
764.10851130270009
 21
-335.52117397939998
 31
0.0
  0
LINE
  5
6D
  8
0
 62
     0
 10
763.60851130269998
 20
-351.52117397940009
 30
0.0
 11
763.60851130269998
 21
-352.17645847950001
 31
0.0
  0
LINE
  5
6E
  8
0
 62
     0
 10
763.60851130269998
 20
-351.52117397940009
 30
0.0
 11
763.60851130269998
 21
-366.28756916679998
 31
0.0
  0
LINE
  5
6F
  8
0
 62
     0
 10
763.60851130269998
 20
-335.52117397939998
 30
0.0
 11
763.60851130269998
 21
-352.17645847950001
 31
0.0
  0
LINE
  5
70
  8
0
 62
     0
 10
763.60851130269998
 20
-335.52117397939998
 30
0.0
 11
763.60851130269998
 21
-366.28756916679998
 31
0.0
  0
LINE
  5
71
  8
0
 62
     0
 10
763.60851130269998
 20
-335.52117397939998
 30
0.0
 11
763.60851130269998
 21
-338.52117397939998
 31
0.0
  0
SOLID
  5
72
  8
0
 62
     0
 10
763.60851130269998
 20
-335.52117397939998
 30
0.0
 11
765.10851130270009
 21
-341.52117397939998
 31
0.0
 12
762.10851130269998
 22
-341.52117397939998
 32
0.0
 13
763.60851130269998
 23
-340.02117397939998
 33
0.0
  0
LINE
  5
73
  8
0
 62
     0
 10
763.60851130269998
 20
-351.52117397940009
 30
0.0
 11
763.60851130269998
 21
-348.52117397939998
 31
0.0
  0
SOLID
  5
74
  8
0
 62
     0
 10
763.60851130269998
 20
-351.52117397940009
 30
0.0
 11
762.10851130269998
 21
-345.52117397939998
 31
0.0
 12
765.10851130270009
 22
-345.52117397939998
 32
0.0
 13
763.60851130269998
 23
-347.02117397939998
 33
0.0
  0
ENDBLK
  5
75
  8
0
  0
BLOCK
  8
0
  2
CLUMP4
 70
     0
 10
0.0
 20
0.0
 30
0.0
  3
CLUMP4
  1

  0
INSERT
  5
88
  8
┌▓È_1
  6
BORDER
  2
CLUMP5
 10
0.0
 20
0.0
 30
0.0
  0
ENDBLK
  5
94
  8
0
  0
BLOCK
  8
0
  2
CLUMP5
 70
     0
 10
0.0
 20
0.0
 30
0.0
  3
CLUMP5
  1

  0
LINE
  5
8A
  8
┌▓È_1
  6
BORDER
 62
     3
 10
731.55450881579998
 20
-233.45355245159999
 30
0.0
 11
731.55450881579998
 21
-250.82299689600001
 31
0.0
  0
LINE
  5
8B
  8
┌▓È_1
  6
STITCH
 10
734.05450881579986
 20
-241.0313302294
 30
0.0
 11
729.05450881579986
 21
-241.0313302294
 31
0.0
  0
LINE
  5
8C
  8
┌▓È_1
  6
STITCH
 10
734.05450881579986
 20
-241.0313302294
 30
0.0
 11
735.80450881579986
 21
-239.2813302294
 31
0.0
  0
LINE
  5
8D
  8
┌▓È_1
  6
STITCH
 10
734.05450881579986
 20
-242.0313302294
 30
0.0
 11
735.80450881579986
 21
-243.7813302294
 31
0.0
  0
LINE
  5
8E
  8
┌▓È_1
  6
STITCH
 10
734.05450881579986
 20
-242.0313302294
 30
0.0
 11
734.05450881579986
 21
-241.0313302294
 31
0.0
  0
LINE
  5
8F
  8
┌▓È_1
  6
STITCH
 10
729.05450881579986
 20
-242.0313302294
 30
0.0
 11
734.05450881579986
 21
-242.0313302294
 31
0.0
  0
LINE
  5
90
  8
┌▓È_1
  6
STITCH
 10
729.05450881579986
 20
-241.0313302294
 30
0.0
 11
729.05450881579986
 21
-242.0313302294
 31
0.0
  0
LINE
  5
91
  8
┌▓È_1
  6
STITCH
 10
729.05450881579986
 20
-241.0313302294
 30
0.0
 11
727.30450881579986
 21
-239.2813302294
 31
0.0
  0
LINE
  5
92
  8
┌▓È_1
  6
STITCH
 10
729.05450881579986
 20
-242.0313302294
 30
0.0
 11
727.30450881579986
 21
-243.7813302294
 31
0.0
  0
ENDBLK
  5
93
  8
0
  0
BLOCK
  8
0
  2
CLUMP6
 70
     0
 10
0.0
 20
0.0
 30
0.0
  3
CLUMP6
  1

  0
LINE
  5
9B
  8
┌▓È_1
  6
BORDER
 62
     3
 10
678.88228659360004
 20
-159.7813302294
 30
0.0
 11
661.51284214919986
 21
-159.7813302294
 31
0.0
  0
LINE
  5
9C
  8
┌▓È_1
  6
STITCH
 10
671.30450881579998
 20
-157.2813302294
 30
0.0
 11
673.05450881579998
 21
-155.5313302294
 31
0.0
  0
LINE
  5
9D
  8
┌▓È_1
  6
STITCH
 10
670.30450881579986
 20
-157.2813302294
 30
0.0
 11
668.55450881579998
 21
-155.5313302294
 31
0.0
  0
LINE
  5
9E
  8
┌▓È_1
  6
STITCH
 10
670.30450881579986
 20
-162.2813302294
 30
0.0
 11
668.55450881579998
 21
-164.0313302294
 31
0.0
  0
LINE
  5
9F
  8
┌▓È_1
  6
STITCH
 10
671.30450881579998
 20
-162.2813302294
 30
0.0
 11
673.05450881579998
 21
-164.0313302294
 31
0.0
  0
LINE
  5
A0
  8
┌▓È_1
  6
STITCH
 10
671.30450881579998
 20
-162.2813302294
 30
0.0
 11
670.30450881579986
 21
-162.2813302294
 31
0.0
  0
LINE
  5
A1
  8
┌▓È_1
  6
STITCH
 10
670.30450881579986
 20
-157.2813302294
 30
0.0
 11
671.30450881579998
 21
-157.2813302294
 31
0.0
  0
LINE
  5
A2
  8
┌▓È_1
  6
STITCH
 10
671.30450881579998
 20
-157.2813302294
 30
0.0
 11
671.30450881579998
 21
-162.2813302294
 31
0.0
  0
LINE
  5
A3
  8
┌▓È_1
  6
STITCH
 10
670.30450881579986
 20
-162.2813302294
 30
0.0
 11
670.30450881579986
 21
-157.2813302294
 31
0.0
  0
ENDBLK
  5
A4
  8
0
  0
BLOCK
  8
0
  2
CLUMP7
 70
     0
 10
0.0
 20
0.0
 30
0.0
  3
CLUMP7
  1

  0
LINE
  5
C3
  8
┌▓È_1
  6
BORDER
 62
     3
 10
731.55450881579998
 20
-329.52117397939998
 30
0.0
 11
731.55450881579998
 21
-341.52117397939998
 31
0.0
  0
LINE
  5
C4
  8
┌▓È_1
  6
BORDER
 62
     3
 10
725.55450881579986
 20
-335.52117397939998
 30
0.0
 11
737.55450881579986
 21
-335.52117397939998
 31
0.0
  0
CIRCLE
  5
C5
  8
┌▓È_1
 62
     5
 10
731.55450881579998
 20
-335.52117397939998
 30
0.0
 40
4.25
  0
CIRCLE
  5
C6
  8
┌▓È_1
 62
     5
 10
731.55450881579998
 20
-335.52117397939998
 30
0.0
 40
2.5
  0
ENDBLK
  5
C7
  8
0
  0
BLOCK
  8
0
  2
CLUMP8
 70
     0
 10
0.0
 20
0.0
 30
0.0
  3
CLUMP8
  1

  0
LINE
  5
CB
  8
┌▓È_1
  6
BORDER
 62
     3
 10
859.47257204319999
 20
-207.7813302294
 30
0.0
 11
859.47257204319999
 21
-219.7813302294
 31
0.0
  0
LINE
  5
CC
  8
┌▓È_1
  6
BORDER
 62
     3
 10
865.4725720432001
 20
-213.7813302294
 30
0.0
 11
853.4725720432001
 21
-213.7813302294
 31
0.0
  0
CIRCLE
  5
CD
  8
┌▓È_1
 62
     5
 10
859.47257204319999
 20
-213.7813302294
 30
0.0
 40
4.25
  0
CIRCLE
  5
CE
  8
┌▓È_1
 62
     5
 10
859.47257204319999
 20
-213.7813302294
 30
0.0
 40
2.5
  0
ENDBLK
  5
CF
  8
0
  0
BLOCK
  8
0
  2
CLUMP9
 70
     0
 10
0.0
 20
0.0
 30
0.0
  3
CLUMP9
  1

  0
LINE
  5
D3
  8
┌▓È_1
  6
BORDER
 62
     3
 10
849.4725720432001
 20
-153.7813302294
 30
0.0
 11
849.4725720432001
 21
-165.7813302294
 31
0.0
  0
LINE
  5
D4
  8
┌▓È_1
  6
BORDER
 62
     3
 10
843.47257204319999
 20
-159.7813302294
 30
0.0
 11
855.4725720432001
 21
-159.7813302294
 31
0.0
  0
CIRCLE
  5
D5
  8
┌▓È_1
 62
     5
 10
849.4725720432001
 20
-159.7813302294
 30
0.0
 40
4.25
  0
CIRCLE
  5
D6
  8
┌▓È_1
 62
     5
 10
849.4725720432001
 20
-159.7813302294
 30
0.0
 40
2.5
  0
ENDBLK
  5
D7
  8
0
  0
BLOCK
  8
0
  2
CLUMP10
 70
     0
 10
0.0
 20
0.0
 30
0.0
  3
CLUMP10
  1

  0
LINE
  5
DB
  8
┌▓È_1
  6
BORDER
 62
     3
 10
854.4725720432001
 20
-99.781330229400012
 30
0.0
 11
854.4725720432001
 21
-111.7813302294
 31
0.0
  0
LINE
  5
DC
  8
┌▓È_1
  6
BORDER
 62
     3
 10
848.4725720432001
 20
-105.7813302294
 30
0.0
 11
860.47257204319999
 21
-105.7813302294
 31
0.0
  0
CIRCLE
  5
DD
  8
┌▓È_1
 62
     5
 10
854.4725720432001
 20
-105.7813302294
 30
0.0
 40
4.25
  0
CIRCLE
  5
DE
  8
┌▓È_1
 62
     5
 10
854.4725720432001
 20
-105.7813302294
 30
0.0
 40
2.5
  0
ENDBLK
  5
DF
  8
0
  0
BLOCK
  8
0
  2
*D13
 70
     1
 10
0.0
 20
0.0
 30
0.0
  3
*D13
  1

  0
TEXT
  5
12E
  8
0
 62
     0
 10
702.526731144
 20
-259.54021380099999
 30
0.0
 40
5.9972220420999998
  1
75
  0
LINE
  5
12F
  8
0
 62
     0
 10
668.55450881579998
 20
-240.2813302294
 30
0.0
 11
668.55450881579998
 21
-262.09854710249999
 31
0.0
  0
LINE
  5
130
  8
0
 62
     0
 10
743.55450881579998
 20
-244.7813302294
 30
0.0
 11
743.55450881579998
 21
-262.09854710249999
 31
0.0
  0
LINE
  5
131
  8
0
 62
     0
 10
668.55450881579998
 20
-261.59854710249999
 30
0.0
 11
713.11006415949998
 21
-261.59854710249999
 31
0.0
  0
LINE
  5
132
  8
0
 62
     0
 10
668.55450881579998
 20
-261.59854710249999
 30
0.0
 11
698.99895347220001
 21
-261.59854710249999
 31
0.0
  0
LINE
  5
133
  8
0
 62
     0
 10
743.55450881579998
 20
-261.59854710249999
 30
0.0
 11
713.11006415949998
 21
-261.59854710249999
 31
0.0
  0
LINE
  5
134
  8
0
 62
     0
 10
743.55450881579998
 20
-261.59854710249999
 30
0.0
 11
698.99895347220001
 21
-261.59854710249999
 31
0.0
  0
LINE
  5
135
  8
0
 62
     0
 10
743.55450881579998
 20
-261.59854710249999
 30
0.0
 11
740.55450881579998
 21
-261.59854710249999
 31
0.0
  0
SOLID
  5
136
  8
0
 62
     0
 10
743.55450881579998
 20
-261.59854710249999
 30
0.0
 11
737.55450881579986
 21
-263.09854710249999
 31
0.0
 12
737.55450881579986
 22
-260.09854710249999
 32
0.0
 13
739.05450881579986
 23
-261.59854710249999
 33
0.0
  0
LINE
  5
137
  8
0
 62
     0
 10
668.55450881579998
 20
-261.59854710249999
 30
0.0
 11
671.55450881579986
 21
-261.59854710249999
 31
0.0
  0
SOLID
  5
138
  8
0
 62
     0
 10
668.55450881579998
 20
-261.59854710249999
 30
0.0
 11
674.55450881579986
 21
-260.09854710249999
 31
0.0
 12
674.55450881579986
 22
-263.09854710249999
 32
0.0
 13
673.05450881579998
 23
-261.59854710249999
 33
0.0
  0
ENDBLK
  5
139
  8
0
  0
BLOCK
  8
0
  2
*D14
 70
     1
 10
0.0
 20
0.0
 30
0.0
  3
*D14
  1

  0
TEXT
  5
155
  8
0
 62
     0
 10
985.56765270469998
 20
-128.50849106210001
 30
0.0
 40
5.9972220420999998
  1
%%c5
  0
LINE
  5
156
  8
0
 62
     0
 10
1003.3593192124
 20
-159.66901512519999
 30
0.0
 11
1003.3593192124
 21
-130.06682436360001
 31
0.0
  0
LINE
  5
157
  8
0
 62
     0
 10
978.35931921240001
 20
-159.66901512519999
 30
0.0
 11
978.35931921240001
 21
-130.06682436360001
 31
0.0
  0
LINE
  5
158
  8
0
 62
     0
 10
1003.3593192124
 20
-130.56682436360001
 30
0.0
 11
999.67876339199995
 21
-130.56682436360001
 31
0.0
  0
LINE
  5
159
  8
0
 62
     0
 10
1003.3593192124
 20
-130.56682436360001
 30
0.0
 11
982.03987503289989
 21
-130.56682436360001
 31
0.0
  0
LINE
  5
15A
  8
0
 62
     0
 10
978.35931921240001
 20
-130.56682436360001
 30
0.0
 11
999.67876339199995
 21
-130.56682436360001
 31
0.0
  0
LINE
  5
15B
  8
0
 62
     0
 10
978.35931921240001
 20
-130.56682436360001
 30
0.0
 11
982.03987503289989
 21
-130.56682436360001
 31
0.0
  0
LINE
  5
15C
  8
0
 62
     0
 10
978.35931921240001
 20
-130.56682436360001
 30
0.0
 11
975.35931921240001
 21
-130.56682436360001
 31
0.0
  0
SOLID
  5
15D
  8
0
 62
     0
 10
978.35931921240001
 20
-130.56682436360001
 30
0.0
 11
972.3593192123999
 21
-132.06682436360001
 31
0.0
 12
972.3593192123999
 22
-129.06682436360001
 32
0.0
 13
973.85931921240001
 23
-130.56682436360001
 33
0.0
  0
LINE
  5
15E
  8
0
 62
     0
 10
1003.3593192124
 20
-130.56682436360001
 30
0.0
 11
1006.3593192124
 21
-130.56682436360001
 31
0.0
  0
SOLID
  5
15F
  8
0
 62
     0
 10
1003.3593192124
 20
-130.56682436360001
 30
0.0
 11
1009.3593192124
 21
-129.06682436360001
 31
0.0
 12
1009.3593192124
 22
-132.06682436360001
 32
0.0
 13
1007.8593192124
 23
-130.56682436360001
 33
0.0
  0
ENDBLK
  5
160
  8
0
  0
BLOCK
  8
0
  2
*D15
 70
     1
 10
0.0
 20
0.0
 30
0.0
  3
*D15
  1

  0
TEXT
  5
164
  8
0
 62
     0
 10
982.03987503289989
 20
-116.3107509491
 30
0.0
 40
5.9972220420999998
  1
%%c8.5
  0
LINE
  5
165
  8
0
 62
     0
 10
1012.1093192124
 20
-150.91901512519999
 30
0.0
 11
1012.1093192124
 21
-117.8690842506
 31
0.0
  0
LINE
  5
166
  8
0
 62
     0
 10
969.6093192123999
 20
-150.91901512519999
 30
0.0
 11
969.6093192123999
 21
-117.8690842506
 31
0.0
  0
LINE
  5
167
  8
0
 62
     0
 10
1012.1093192124
 20
-118.3690842506
 30
0.0
 11
1003.2065410638
 21
-118.3690842506
 31
0.0
  0
LINE
  5
168
  8
0
 62
     0
 10
1012.1093192124
 20
-118.3690842506
 30
0.0
 11
978.51209736110002
 21
-118.3690842506
 31
0.0
  0
LINE
  5
169
  8
0
 62
     0
 10
969.6093192123999
 20
-118.3690842506
 30
0.0
 11
1003.2065410638
 21
-118.3690842506
 31
0.0
  0
LINE
  5
16A
  8
0
 62
     0
 10
969.6093192123999
 20
-118.3690842506
 30
0.0
 11
978.51209736110002
 21
-118.3690842506
 31
0.0
  0
LINE
  5
16B
  8
0
 62
     0
 10
969.6093192123999
 20
-118.3690842506
 30
0.0
 11
972.60931921240001
 21
-118.3690842506
 31
0.0
  0
SOLID
  5
16C
  8
0
 62
     0
 10
969.6093192123999
 20
-118.3690842506
 30
0.0
 11
975.60931921240001
 21
-116.8690842506
 31
0.0
 12
975.60931921240001
 22
-119.8690842506
 32
0.0
 13
974.1093192123999
 23
-118.3690842506
 33
0.0
  0
LINE
  5
16D
  8
0
 62
     0
 10
1012.1093192124
 20
-118.3690842506
 30
0.0
 11
1009.1093192124
 21
-118.3690842506
 31
0.0
  0
SOLID
  5
16E
  8
0
 62
     0
 10
1012.1093192124
 20
-118.3690842506
 30
0.0
 11
1006.1093192124
 21
-119.8690842506
 31
0.0
 12
1006.1093192124
 22
-116.8690842506
 32
0.0
 13
1007.6093192124
 23
-118.3690842506
 33
0.0
  0
ENDBLK
  5
16F
  8
0
  0
BLOCK
  8
0
  2
*D16
 70
     1
 10
0.0
 20
0.0
 30
0.0
  3
*D16
  1

  0
TEXT
  5
174
  8
0
 62
     0
 10
985.56765270469998
 20
-102.85284140820001
 30
0.0
 40
5.9972220420999998
  1
90%%d
  0
ARC
  5
175
  8
0
 62
     0
 10
990.85931921240001
 20
-173.16901512519999
 30
0.0
 40
67.141173812399998
 50
128.58630959320001
 51
135.0
  0
ARC
  5
176
  8
0
 62
     0
 10
990.85931921240001
 20
-173.16901512519999
 30
0.0
 40
67.141173812399998
 50
45.0
 51
51.413690406800001
  0
SOLID
  5
177
  8
0
 62
     0
 10
1038.335298512
 20
-125.69303582560001
 30
0.0
 11
1043.6385993709
 21
-128.87501634099999
 31
0.0
 12
1041.5172790274
 22
-130.99633668449999
 32
0.0
 13
1041.5172790274
 23
-128.87501634099999
 33
0.0
  0
SOLID
  5
178
  8
0
 62
     0
 10
943.38333991289994
 20
-125.69303582560001
 30
0.0
 11
940.20135939750003
 21
-130.99633668449999
 31
0.0
 12
938.08003905399994
 22
-128.87501634099999
 32
0.0
 13
940.20135939750003
 23
-128.87501634099999
 33
0.0
  0
ARC
  5
179
  8
0
 62
     0
 10
990.85931921240001
 20
-173.16901512519999
 30
0.0
 40
67.141173812399998
 50
45.0
 51
82.357883490399985
  0
ARC
  5
17A
  8
0
 62
     0
 10
990.85931921240001
 20
-173.16901512519999
 30
0.0
 40
67.141173812399998
 50
97.642116509600001
 51
135.0
  0
LINE
  5
17B
  8
0
 62
     0
 10
1014.6290540522
 20
-149.3992802855
 30
0.0
 11
1040.8550333517001
 21
-123.1733009859
 31
0.0
  0
LINE
  5
17C
  8
0
 62
     0
 10
967.08958437269996
 20
-149.3992802855
 30
0.0
 11
940.86360507320012
 21
-123.1733009859
 31
0.0
  0
ENDBLK
  5
17D
  8
0
  0
BLOCK
  8
0
  2
*D17
 70
     1
 10
0.0
 20
0.0
 30
0.0
  3
*D17
  1

  0
TEXT
  5
181
  8
0
 62
     0
 10
982.03987503289989
 20
-194.0892820226
 30
0.0
 40
5.9972220420999998
  1
%%c8.5
  0
LINE
  5
182
  8
0
 62
     0
 10
969.6093192123999
 20
-175.41901512519999
 30
0.0
 11
969.6093192123999
 21
-196.6476153241
 31
0.0
  0
LINE
  5
183
  8
0
 62
     0
 10
1012.1093192124
 20
-175.41901512519999
 30
0.0
 11
1012.1093192124
 21
-196.6476153241
 31
0.0
  0
LINE
  5
184
  8
0
 62
     0
 10
969.6093192123999
 20
-196.1476153241
 30
0.0
 11
1003.2065410638
 21
-196.1476153241
 31
0.0
  0
LINE
  5
185
  8
0
 62
     0
 10
969.6093192123999
 20
-196.1476153241
 30
0.0
 11
978.51209736110002
 21
-196.1476153241
 31
0.0
  0
LINE
  5
186
  8
0
 62
     0
 10
1012.1093192124
 20
-196.1476153241
 30
0.0
 11
1003.2065410638
 21
-196.1476153241
 31
0.0
  0
LINE
  5
187
  8
0
 62
     0
 10
1012.1093192124
 20
-196.1476153241
 30
0.0
 11
978.51209736110002
 21
-196.1476153241
 31
0.0
  0
LINE
  5
188
  8
0
 62
     0
 10
1012.1093192124
 20
-196.1476153241
 30
0.0
 11
1009.1093192124
 21
-196.1476153241
 31
0.0
  0
SOLID
  5
189
  8
0
 62
     0
 10
1012.1093192124
 20
-196.1476153241
 30
0.0
 11
1006.1093192124
 21
-197.6476153241
 31
0.0
 12
1006.1093192124
 22
-194.6476153241
 32
0.0
 13
1007.6093192124
 23
-196.1476153241
 33
0.0
  0
LINE
  5
18A
  8
0
 62
     0
 10
969.6093192123999
 20
-196.1476153241
 30
0.0
 11
972.60931921240001
 21
-196.1476153241
 31
0.0
  0
SOLID
  5
18B
  8
0
 62
     0
 10
969.6093192123999
 20
-196.1476153241
 30
0.0
 11
975.60931921240001
 21
-194.6476153241
 31
0.0
 12
975.60931921240001
 22
-197.6476153241
 32
0.0
 13
974.1093192123999
 23
-196.1476153241
 33
0.0
  0
ENDBLK
  5
18C
  8
0
  0
BLOCK
  8
0
  2
*D18
 70
     1
 10
0.0
 20
0.0
 30
0.0
  3
*D18
  1

  0
TEXT
  5
190
  8
0
 62
     0
 10
985.56765270469998
 20
-207.91030280179999
 30
0.0
 40
5.9972220420999998
  1
90%%d
  0
ARC
  5
191
  8
0
 62
     0
 10
990.85931921240001
 20
-153.16901512519999
 30
0.0
 40
57.916287581199988
 50
307.39753674309998
 51
315.0
  0
ARC
  5
192
  8
0
 62
     0
 10
990.85931921240001
 20
-153.16901512519999
 30
0.0
 40
57.916287581199988
 50
225.0
 51
232.60246325689999
  0
SOLID
  5
193
  8
0
 62
     0
 10
949.9063195225998
 20
-194.122014815
 30
0.0
 11
944.60301866369991
 21
-190.94003429969999
 31
0.0
 12
946.72433900729993
 22
-188.8187139561
 32
0.0
 13
946.72433900729993
 23
-190.94003429969999
 33
0.0
  0
SOLID
  5
194
  8
0
 62
     0
 10
1031.8123189022999
 20
-194.122014815
 30
0.0
 11
1034.9942994175999
 21
-188.8187139561
 31
0.0
 12
1037.1156197611999
 22
-190.94003429969999
 32
0.0
 13
1034.9942994175999
 23
-190.94003429969999
 33
0.0
  0
ARC
  5
195
  8
0
 62
     0
 10
990.85931921240001
 20
-153.16901512519999
 30
0.0
 40
57.916287581199988
 50
225.0
 51
258.96302237259999
  0
ARC
  5
196
  8
0
 62
     0
 10
990.85931921240001
 20
-153.16901512519999
 30
0.0
 40
57.916287581199988
 50
281.03697762740001
 51
315.0
  0
LINE
  5
197
  8
0
 62
     0
 10
967.08958437269996
 20
-176.93874996490001
 30
0.0
 11
947.38658468289987
 21
-196.64174965469999
 31
0.0
  0
LINE
  5
198
  8
0
 62
     0
 10
1014.6290540522
 20
-176.93874996490001
 30
0.0
 11
1034.332053742
 21
-196.64174965469999
 31
0.0
  0
ENDBLK
  5
199
  8
0
  0
BLOCK
  8
0
  2
*D19
 70
     1
 10
0.0
 20
0.0
 30
0.0
  3
*D19
  1

  0
TEXT
  5
19F
  8
0
 62
     0
 10
706.526731144
 20
-295.37671325280002
 30
0.0
 40
5.9972220420999998
  1
43
  0
LINE
  5
1A0
  8
0
 62
     0
 10
731.55450881579998
 20
-333.52117397939998
 30
0.0
 11
731.55450881579998
 21
-296.93504655430002
 31
0.0
  0
LINE
  5
1A1
  8
0
 62
     0
 10
688.55450881579986
 20
-323.52117397939998
 30
0.0
 11
688.55450881579986
 21
-296.93504655430002
 31
0.0
  0
LINE
  5
1A2
  8
0
 62
     0
 10
731.55450881579998
 20
-297.43504655430002
 30
0.0
 11
717.11006415949998
 21
-297.43504655430002
 31
0.0
  0
LINE
  5
1A3
  8
0
 62
     0
 10
731.55450881579998
 20
-297.43504655430002
 30
0.0
 11
702.99895347220001
 21
-297.43504655430002
 31
0.0
  0
LINE
  5
1A4
  8
0
 62
     0
 10
688.55450881579986
 20
-297.43504655430002
 30
0.0
 11
717.11006415949998
 21
-297.43504655430002
 31
0.0
  0
LINE
  5
1A5
  8
0
 62
     0
 10
688.55450881579986
 20
-297.43504655430002
 30
0.0
 11
702.99895347220001
 21
-297.43504655430002
 31
0.0
  0
LINE
  5
1A6
  8
0
 62
     0
 10
688.55450881579986
 20
-297.43504655430002
 30
0.0
 11
691.55450881579986
 21
-297.43504655430002
 31
0.0
  0
SOLID
  5
1A7
  8
0
 62
     0
 10
688.55450881579986
 20
-297.43504655430002
 30
0.0
 11
694.55450881579998
 21
-295.93504655430002
 31
0.0
 12
694.55450881579998
 22
-298.93504655430002
 32
0.0
 13
693.05450881579986
 23
-297.43504655430002
 33
0.0
  0
LINE
  5
1A8
  8
0
 62
     0
 10
731.55450881579998
 20
-297.43504655430002
 30
0.0
 11
728.55450881579986
 21
-297.43504655430002
 31
0.0
  0
SOLID
  5
1A9
  8
0
 62
     0
 10
731.55450881579998
 20
-297.43504655430002
 30
0.0
 11
725.55450881579986
 21
-298.93504655430002
 31
0.0
 12
725.55450881579986
 22
-295.93504655430002
 32
0.0
 13
727.05450881579998
 23
-297.43504655430002
 33
0.0
  0
ENDBLK
  5
1AA
  8
0
  0
BLOCK
  8
0
  2
*D20
 70
     1
 10
0.0
 20
0.0
 30
0.0
  3
*D20
  1

  0
TEXT
  5
1AE
  8
0
 62
     0
 10
734.02673114399988
 20
-295.46434663999997
 30
0.0
 40
5.9972220420999998
  1
12
  0
LINE
  5
1AF
  8
0
 62
     0
 10
743.55450881579998
 20
-318.52117397939998
 30
0.0
 11
743.55450881579998
 21
-297.02267994149997
 31
0.0
  0
LINE
  5
1B0
  8
0
 62
     0
 10
731.55450881579998
 20
-333.52117397939998
 30
0.0
 11
731.55450881579998
 21
-297.02267994149997
 31
0.0
  0
LINE
  5
1B1
  8
0
 62
     0
 10
743.55450881579998
 20
-297.52267994150009
 30
0.0
 11
743.55450881579998
 21
-297.52267994150009
 31
0.0
  0
LINE
  5
1B2
  8
0
 62
     0
 10
743.55450881579998
 20
-297.52267994150009
 30
0.0
 11
731.55450881579998
 21
-297.52267994150009
 31
0.0
  0
LINE
  5
1B3
  8
0
 62
     0
 10
731.55450881579998
 20
-297.52267994150009
 30
0.0
 11
743.55450881579998
 21
-297.52267994150009
 31
0.0
  0
LINE
  5
1B4
  8
0
 62
     0
 10
731.55450881579998
 20
-297.52267994150009
 30
0.0
 11
731.55450881579998
 21
-297.52267994150009
 31
0.0
  0
LINE
  5
1B5
  8
0
 62
     0
 10
731.55450881579998
 20
-297.52267994150009
 30
0.0
 11
728.55450881579986
 21
-297.52267994150009
 31
0.0
  0
SOLID
  5
1B6
  8
0
 62
     0
 10
731.55450881579998
 20
-297.52267994150009
 30
0.0
 11
725.55450881579986
 21
-299.02267994149997
 31
0.0
 12
725.55450881579986
 22
-296.02267994149997
 32
0.0
 13
727.05450881579998
 23
-297.52267994150009
 33
0.0
  0
LINE
  5
1B7
  8
0
 62
     0
 10
743.55450881579998
 20
-297.52267994150009
 30
0.0
 11
746.55450881579986
 21
-297.52267994150009
 31
0.0
  0
SOLID
  5
1B8
  8
0
 62
     0
 10
743.55450881579998
 20
-297.52267994150009
 30
0.0
 11
749.55450881579986
 21
-296.02267994149997
 31
0.0
 12
749.55450881579986
 22
-299.02267994149997
 32
0.0
 13
748.05450881579998
 23
-297.52267994150009
 33
0.0
  0
ENDBLK
  5
1B9
  8
0
  0
BLOCK
  8
0
  2
*D21
 70
     1
 10
0.0
 20
0.0
 30
0.0
  3
*D21
  1

  0
TEXT
  5
1BD
  8
0
 62
     0
 10
675.026731144
 20
-295.46434663999997
 30
0.0
 40
5.9972220420999998
  1
20
  0
LINE
  5
1BE
  8
0
 62
     0
 10
688.55450881579986
 20
-323.52117397939998
 30
0.0
 11
688.55450881579986
 21
-297.02267994149997
 31
0.0
  0
LINE
  5
1BF
  8
0
 62
     0
 10
668.55450881579998
 20
-318.52117397939998
 30
0.0
 11
668.55450881579998
 21
-297.02267994149997
 31
0.0
  0
LINE
  5
1C0
  8
0
 62
     0
 10
688.55450881579986
 20
-297.52267994150009
 30
0.0
 11
685.61006415949987
 21
-297.52267994150009
 31
0.0
  0
LINE
  5
1C1
  8
0
 62
     0
 10
688.55450881579986
 20
-297.52267994150009
 30
0.0
 11
671.49895347220001
 21
-297.52267994150009
 31
0.0
  0
LINE
  5
1C2
  8
0
 62
     0
 10
668.55450881579998
 20
-297.52267994150009
 30
0.0
 11
685.61006415949987
 21
-297.52267994150009
 31
0.0
  0
LINE
  5
1C3
  8
0
 62
     0
 10
668.55450881579998
 20
-297.52267994150009
 30
0.0
 11
671.49895347220001
 21
-297.52267994150009
 31
0.0
  0
LINE
  5
1C4
  8
0
 62
     0
 10
668.55450881579998
 20
-297.52267994150009
 30
0.0
 11
665.55450881579998
 21
-297.52267994150009
 31
0.0
  0
SOLID
  5
1C5
  8
0
 62
     0
 10
668.55450881579998
 20
-297.52267994150009
 30
0.0
 11
662.55450881579986
 21
-299.02267994149997
 31
0.0
 12
662.55450881579986
 22
-296.02267994149997
 32
0.0
 13
664.05450881579986
 23
-297.52267994150009
 33
0.0
  0
LINE
  5
1C6
  8
0
 62
     0
 10
688.55450881579986
 20
-297.52267994150009
 30
0.0
 11
691.55450881579986
 21
-297.52267994150009
 31
0.0
  0
SOLID
  5
1C7
  8
0
 62
     0
 10
688.55450881579986
 20
-297.52267994150009
 30
0.0
 11
694.55450881579998
 21
-296.02267994149997
 31
0.0
 12
694.55450881579998
 22
-299.02267994149997
 32
0.0
 13
693.05450881579986
 23
-297.52267994150009
 33
0.0
  0
ENDBLK
  5
1C8
  8
0
  0
BLOCK
  8
0
  2
*D22
 70
     1
 10
0.0
 20
0.0
 30
0.0
  3
*D22
  1

  0
TEXT
  5
1CC
  8
0
 62
     0
 10
678.93006241319995
 20
-59.750405782000001
 30
0.0
 40
5.9972220420999998
  1
4.5t
  0
LINE
  5
1CD
  8
0
 62
     0
 10
673.05450881579998
 20
-92.781330229400027
 30
0.0
 11
673.05450881579998
 21
-61.308739083500001
 31
0.0
  0
LINE
  5
1CE
  8
0
 62
     0
 10
668.55450881579998
 20
-92.781330229400027
 30
0.0
 11
668.55450881579998
 21
-61.308739083500001
 31
0.0
  0
LINE
  5
1CF
  8
0
 62
     0
 10
673.05450881579998
 20
-61.808739083500001
 30
0.0
 11
696.5689507722999
 21
-61.808739083500001
 31
0.0
  0
LINE
  5
1D0
  8
0
 62
     0
 10
673.05450881579998
 20
-61.808739083500001
 30
0.0
 11
675.40228474139985
 21
-61.808739083500001
 31
0.0
  0
LINE
  5
1D1
  8
0
 62
     0
 10
668.55450881579998
 20
-61.808739083500001
 30
0.0
 11
696.5689507722999
 21
-61.808739083500001
 31
0.0
  0
LINE
  5
1D2
  8
0
 62
     0
 10
668.55450881579998
 20
-61.808739083500001
 30
0.0
 11
675.40228474139985
 21
-61.808739083500001
 31
0.0
  0
LINE
  5
1D3
  8
0
 62
     0
 10
668.55450881579998
 20
-61.808739083500001
 30
0.0
 11
665.55450881579998
 21
-61.808739083500001
 31
0.0
  0
SOLID
  5
1D4
  8
0
 62
     0
 10
668.55450881579998
 20
-61.808739083500001
 30
0.0
 11
662.55450881579986
 21
-63.308739083500001
 31
0.0
 12
662.55450881579986
 22
-60.308739083500001
 32
0.0
 13
664.05450881579986
 23
-61.808739083500001
 33
0.0
  0
LINE
  5
1D5
  8
0
 62
     0
 10
673.05450881579998
 20
-61.808739083500001
 30
0.0
 11
676.05450881579986
 21
-61.808739083500001
 31
0.0
  0
SOLID
  5
1D6
  8
0
 62
     0
 10
673.05450881579998
 20
-61.808739083500001
 30
0.0
 11
679.05450881579986
 21
-60.308739083500001
 31
0.0
 12
679.05450881579986
 22
-63.308739083500001
 32
0.0
 13
677.55450881579998
 23
-61.808739083500001
 33
0.0
  0
ENDBLK
  5
1D7
  8
0
  0
BLOCK
  8
0
  2
*D23
 70
     1
 10
0.0
 20
0.0
 30
0.0
  3
*D23
  1

  0
TEXT
  5
1DB
  8
0
 62
     0
 10
648.67895864110005
 20
-174.0729967371
 30
0.0
 40
5.9972220420999998
  1
150
 50
90.0
  0
LINE
  5
1DC
  8
0
 62
     0
 10
667.55450881579986
 20
-93.781330229400012
 30
0.0
 11
650.23729194269993
 21
-93.781330229400012
 31
0.0
  0
LINE
  5
1DD
  8
0
 62
     0
 10
672.05450881579986
 20
-243.7813302294
 30
0.0
 11
650.23729194269993
 21
-243.7813302294
 31
0.0
  0
LINE
  5
1DE
  8
0
 62
     0
 10
650.73729194269993
 20
-93.781330229400012
 30
0.0
 11
650.73729194269993
 21
-159.9618860498
 31
0.0
  0
LINE
  5
1DF
  8
0
 62
     0
 10
650.73729194269993
 20
-93.781330229400012
 30
0.0
 11
650.73729194269993
 21
-177.60077440890001
 31
0.0
  0
LINE
  5
1E0
  8
0
 62
     0
 10
650.73729194269993
 20
-243.7813302294
 30
0.0
 11
650.73729194269993
 21
-159.9618860498
 31
0.0
  0
LINE
  5
1E1
  8
0
 62
     0
 10
650.73729194269993
 20
-243.7813302294
 30
0.0
 11
650.73729194269993
 21
-177.60077440890001
 31
0.0
  0
LINE
  5
1E2
  8
0
 62
     0
 10
650.73729194269993
 20
-243.7813302294
 30
0.0
 11
650.73729194269993
 21
-240.7813302294
 31
0.0
  0
SOLID
  5
1E3
  8
0
 62
     0
 10
650.73729194269993
 20
-243.7813302294
 30
0.0
 11
649.23729194269993
 21
-237.7813302294
 31
0.0
 12
652.23729194269993
 22
-237.7813302294
 32
0.0
 13
650.73729194269993
 23
-239.2813302294
 33
0.0
  0
LINE
  5
1E4
  8
0
 62
     0
 10
650.73729194269993
 20
-93.781330229400012
 30
0.0
 11
650.73729194269993
 21
-96.781330229400027
 31
0.0
  0
SOLID
  5
1E5
  8
0
 62
     0
 10
650.73729194269993
 20
-93.781330229400012
 30
0.0
 11
652.23729194269993
 21
-99.781330229400012
 31
0.0
 12
649.23729194269993
 22
-99.781330229400012
 32
0.0
 13
650.73729194269993
 23
-98.281330229400012
 33
0.0
  0
ENDBLK
  5
1E6
  8
0
  0
BLOCK
  8
0
  2
*D24
 70
     1
 10
0.0
 20
0.0
 30
0.0
  3
*D24
  1

  0
TEXT
  5
1EA
  8
0
 62
     0
 10
823.79700791300013
 20
-73.905780054700003
 30
0.0
 40
5.9972220420999998
  1
16
  0
LINE
  5
1EB
  8
0
 62
     0
 10
854.4725720432001
 20
-98.781330229400012
 30
0.0
 11
854.4725720432001
 21
-75.464113356200002
 31
0.0
  0
LINE
  5
1EC
  8
0
 62
     0
 10
838.4725720432001
 20
-92.781330229400027
 30
0.0
 11
838.4725720432001
 21
-75.464113356200002
 31
0.0
  0
LINE
  5
1ED
  8
0
 62
     0
 10
854.4725720432001
 20
-75.964113356200002
 30
0.0
 11
834.38034092849989
 21
-75.964113356200002
 31
0.0
  0
LINE
  5
1EE
  8
0
 62
     0
 10
854.4725720432001
 20
-75.964113356200002
 30
0.0
 11
820.26923024120003
 21
-75.964113356200002
 31
0.0
  0
LINE
  5
1EF
  8
0
 62
     0
 10
838.4725720432001
 20
-75.964113356200002
 30
0.0
 11
834.38034092849989
 21
-75.964113356200002
 31
0.0
  0
LINE
  5
1F0
  8
0
 62
     0
 10
838.4725720432001
 20
-75.964113356200002
 30
0.0
 11
820.26923024120003
 21
-75.964113356200002
 31
0.0
  0
LINE
  5
1F1
  8
0
 62
     0
 10
838.4725720432001
 20
-75.964113356200002
 30
0.0
 11
841.47257204319999
 21
-75.964113356200002
 31
0.0
  0
SOLID
  5
1F2
  8
0
 62
     0
 10
838.4725720432001
 20
-75.964113356200002
 30
0.0
 11
844.47257204319999
 21
-74.464113356200002
 31
0.0
 12
844.47257204319999
 22
-77.464113356200002
 32
0.0
 13
842.9725720432001
 23
-75.964113356200002
 33
0.0
  0
LINE
  5
1F3
  8
0
 62
     0
 10
854.4725720432001
 20
-75.964113356200002
 30
0.0
 11
851.47257204319999
 21
-75.964113356200002
 31
0.0
  0
SOLID
  5
1F4
  8
0
 62
     0
 10
854.4725720432001
 20
-75.964113356200002
 30
0.0
 11
848.4725720432001
 21
-77.464113356200002
 31
0.0
 12
848.4725720432001
 22
-74.464113356200002
 32
0.0
 13
849.9725720432001
 23
-75.964113356200002
 33
0.0
  0
ENDBLK
  5
1F5
  8
0
  0
BLOCK
  8
0
  2
*D25
 70
     1
 10
0.0
 20
0.0
 30
0.0
  3
*D25
  1

  0
TEXT
  5
1F9
  8
0
 62
     0
 10
875.35973577760001
 20
-73.905780054700003
 30
0.0
 40
5.9972220420999998
  1
16
  0
LINE
  5
1FA
  8
0
 62
     0
 10
870.4725720432001
 20
-92.781330229400027
 30
0.0
 11
870.4725720432001
 21
-75.464113356200002
 31
0.0
  0
LINE
  5
1FB
  8
0
 62
     0
 10
854.4725720432001
 20
-98.781330229400012
 30
0.0
 11
854.4725720432001
 21
-75.464113356200002
 31
0.0
  0
LINE
  5
1FC
  8
0
 62
     0
 10
870.4725720432001
 20
-75.964113356200002
 30
0.0
 11
885.9430687931
 21
-75.964113356200002
 31
0.0
  0
LINE
  5
1FD
  8
0
 62
     0
 10
870.4725720432001
 20
-75.964113356200002
 30
0.0
 11
871.83195810580003
 21
-75.964113356200002
 31
0.0
  0
LINE
  5
1FE
  8
0
 62
     0
 10
854.4725720432001
 20
-75.964113356200002
 30
0.0
 11
885.9430687931
 21
-75.964113356200002
 31
0.0
  0
LINE
  5
1FF
  8
0
 62
     0
 10
854.4725720432001
 20
-75.964113356200002
 30
0.0
 11
871.83195810580003
 21
-75.964113356200002
 31
0.0
  0
LINE
  5
200
  8
0
 62
     0
 10
854.4725720432001
 20
-75.964113356200002
 30
0.0
 11
857.4725720432001
 21
-75.964113356200002
 31
0.0
  0
SOLID
  5
201
  8
0
 62
     0
 10
854.4725720432001
 20
-75.964113356200002
 30
0.0
 11
860.47257204319999
 21
-74.464113356200002
 31
0.0
 12
860.47257204319999
 22
-77.464113356200002
 32
0.0
 13
858.9725720432001
 23
-75.964113356200002
 33
0.0
  0
LINE
  5
202
  8
0
 62
     0
 10
870.4725720432001
 20
-75.964113356200002
 30
0.0
 11
867.47257204319999
 21
-75.964113356200002
 31
0.0
  0
SOLID
  5
203
  8
0
 62
     0
 10
870.4725720432001
 20
-75.964113356200002
 30
0.0
 11
864.4725720432001
 21
-77.464113356200002
 31
0.0
 12
864.4725720432001
 22
-74.464113356200002
 32
0.0
 13
865.9725720432001
 23
-75.964113356200002
 33
0.0
  0
ENDBLK
  5
204
  8
0
  0
BLOCK
  8
0
  2
*D26
 70
     1
 10
0.0
 20
0.0
 30
0.0
  3
*D26
  1

  0
TEXT
  5
208
  8
0
 62
     0
 10
861.44479437139989
 20
-191.54184458410001
 30
0.0
 40
5.9972220420999998
  1
11
  0
LINE
  5
209
  8
0
 62
     0
 10
870.4725720432001
 20
-206.7813302294
 30
0.0
 11
870.4725720432001
 21
-193.1001778856
 31
0.0
  0
LINE
  5
20A
  8
0
 62
     0
 10
859.47257204319999
 20
-206.7813302294
 30
0.0
 11
859.47257204319999
 21
-193.1001778856
 31
0.0
  0
LINE
  5
20B
  8
0
 62
     0
 10
870.4725720432001
 20
-193.6001778856
 30
0.0
 11
870.4725720432001
 21
-193.6001778856
 31
0.0
  0
LINE
  5
20C
  8
0
 62
     0
 10
870.4725720432001
 20
-193.6001778856
 30
0.0
 11
859.47257204319999
 21
-193.6001778856
 31
0.0
  0
LINE
  5
20D
  8
0
 62
     0
 10
859.47257204319999
 20
-193.6001778856
 30
0.0
 11
870.4725720432001
 21
-193.6001778856
 31
0.0
  0
LINE
  5
20E
  8
0
 62
     0
 10
859.47257204319999
 20
-193.6001778856
 30
0.0
 11
859.47257204319999
 21
-193.6001778856
 31
0.0
  0
LINE
  5
20F
  8
0
 62
     0
 10
859.47257204319999
 20
-193.6001778856
 30
0.0
 11
856.4725720432001
 21
-193.6001778856
 31
0.0
  0
SOLID
  5
210
  8
0
 62
     0
 10
859.47257204319999
 20
-193.6001778856
 30
0.0
 11
853.4725720432001
 21
-195.1001778856
 31
0.0
 12
853.4725720432001
 22
-192.1001778856
 32
0.0
 13
854.97257204319999
 23
-193.6001778856
 33
0.0
  0
LINE
  5
211
  8
0
 62
     0
 10
870.4725720432001
 20
-193.6001778856
 30
0.0
 11
873.4725720432001
 21
-193.6001778856
 31
0.0
  0
SOLID
  5
212
  8
0
 62
     0
 10
870.4725720432001
 20
-193.6001778856
 30
0.0
 11
876.47257204319999
 21
-192.1001778856
 31
0.0
 12
876.47257204319999
 22
-195.1001778856
 32
0.0
 13
874.9725720432001
 23
-193.6001778856
 33
0.0
  0
ENDBLK
  5
213
  8
0
  0
BLOCK
  8
0
  2
*D27
 70
     1
 10
0.0
 20
0.0
 30
0.0
  3
*D27
  1

  0
TEXT
  5
217
  8
0
 62
     0
 10
851.94479437140001
 20
-177.51707244869999
 30
0.0
 40
5.9972220420999998
  1
10
  0
LINE
  5
218
  8
0
 62
     0
 10
859.47257204319999
 20
-208.5313302294
 30
0.0
 11
859.47257204319999
 21
-179.07540575019999
 31
0.0
  0
LINE
  5
219
  8
0
 62
     0
 10
849.4725720432001
 20
-166.7813302294
 30
0.0
 11
849.4725720432001
 21
-180.07540575019999
 31
0.0
  0
LINE
  5
21A
  8
0
 62
     0
 10
859.47257204319999
 20
-179.57540575019999
 30
0.0
 11
859.47257204319999
 21
-179.57540575019999
 31
0.0
  0
LINE
  5
21B
  8
0
 62
     0
 10
859.47257204319999
 20
-179.57540575019999
 30
0.0
 11
849.4725720432001
 21
-179.57540575019999
 31
0.0
  0
LINE
  5
21C
  8
0
 62
     0
 10
849.4725720432001
 20
-179.57540575019999
 30
0.0
 11
859.47257204319999
 21
-179.57540575019999
 31
0.0
  0
LINE
  5
21D
  8
0
 62
     0
 10
849.4725720432001
 20
-179.57540575019999
 30
0.0
 11
849.4725720432001
 21
-179.57540575019999
 31
0.0
  0
LINE
  5
21E
  8
0
 62
     0
 10
849.4725720432001
 20
-179.57540575019999
 30
0.0
 11
846.4725720432001
 21
-179.57540575019999
 31
0.0
  0
SOLID
  5
21F
  8
0
 62
     0
 10
849.4725720432001
 20
-179.57540575019999
 30
0.0
 11
843.47257204319999
 21
-181.07540575019999
 31
0.0
 12
843.47257204319999
 22
-178.07540575019999
 32
0.0
 13
844.9725720432001
 23
-179.57540575019999
 33
0.0
  0
LINE
  5
220
  8
0
 62
     0
 10
859.47257204319999
 20
-179.57540575019999
 30
0.0
 11
862.4725720432001
 21
-179.57540575019999
 31
0.0
  0
SOLID
  5
221
  8
0
 62
     0
 10
859.47257204319999
 20
-179.57540575019999
 30
0.0
 11
865.4725720432001
 21
-178.07540575019999
 31
0.0
 12
865.4725720432001
 22
-181.07540575019999
 32
0.0
 13
863.97257204319999
 23
-179.57540575019999
 33
0.0
  0
ENDBLK
  5
222
  8
0
  0
BLOCK
  8
0
  2
*D28
 70
     1
 10
0.0
 20
0.0
 30
0.0
  3
*D28
  1

  0
TEXT
  5
226
  8
0
 62
     0
 10
840.44479437140001
 20
-138.1472514088
 30
0.0
 40
5.9972220420999998
  1
11
  0
LINE
  5
227
  8
0
 62
     0
 10
849.4725720432001
 20
-152.7813302294
 30
0.0
 11
849.4725720432001
 21
-139.70558471039999
 31
0.0
  0
LINE
  5
228
  8
0
 62
     0
 10
838.4725720432001
 20
-150.0394682502
 30
0.0
 11
838.4725720432001
 21
-139.70558471039999
 31
0.0
  0
LINE
  5
229
  8
0
 62
     0
 10
849.4725720432001
 20
-140.20558471039999
 30
0.0
 11
849.4725720432001
 21
-140.20558471039999
 31
0.0
  0
LINE
  5
22A
  8
0
 62
     0
 10
849.4725720432001
 20
-140.20558471039999
 30
0.0
 11
838.4725720432001
 21
-140.20558471039999
 31
0.0
  0
LINE
  5
22B
  8
0
 62
     0
 10
838.4725720432001
 20
-140.20558471039999
 30
0.0
 11
849.4725720432001
 21
-140.20558471039999
 31
0.0
  0
LINE
  5
22C
  8
0
 62
     0
 10
838.4725720432001
 20
-140.20558471039999
 30
0.0
 11
838.4725720432001
 21
-140.20558471039999
 31
0.0
  0
LINE
  5
22D
  8
0
 62
     0
 10
838.4725720432001
 20
-140.20558471039999
 30
0.0
 11
835.47257204319999
 21
-140.20558471039999
 31
0.0
  0
SOLID
  5
22E
  8
0
 62
     0
 10
838.4725720432001
 20
-140.20558471039999
 30
0.0
 11
832.4725720432001
 21
-141.70558471039999
 31
0.0
 12
832.4725720432001
 22
-138.70558471039999
 32
0.0
 13
833.9725720432001
 23
-140.20558471039999
 33
0.0
  0
LINE
  5
22F
  8
0
 62
     0
 10
849.4725720432001
 20
-140.20558471039999
 30
0.0
 11
852.47257204319999
 21
-140.20558471039999
 31
0.0
  0
SOLID
  5
230
  8
0
 62
     0
 10
849.4725720432001
 20
-140.20558471039999
 30
0.0
 11
855.4725720432001
 21
-138.70558471039999
 31
0.0
 12
855.4725720432001
 22
-141.70558471039999
 32
0.0
 13
853.97257204319999
 23
-140.20558471039999
 33
0.0
  0
ENDBLK
  5
231
  8
0
  0
BLOCK
  8
0
  2
*D29
 70
     1
 10
0.0
 20
0.0
 30
0.0
  3
*D29
  1

  0
TEXT
  5
235
  8
0
 62
     0
 10
850.94479437140001
 20
-61.202915471300003
 30
0.0
 40
5.9972220420999998
  1
32
  0
LINE
  5
236
  8
0
 62
     0
 10
870.4725720432001
 20
-92.781330229400027
 30
0.0
 11
870.4725720432001
 21
-62.761248772899997
 31
0.0
  0
LINE
  5
237
  8
0
 62
     0
 10
838.4725720432001
 20
-92.781330229400027
 30
0.0
 11
838.4725720432001
 21
-62.761248772899997
 31
0.0
  0
LINE
  5
238
  8
0
 62
     0
 10
870.4725720432001
 20
-63.261248772899989
 30
0.0
 11
861.52812738679995
 21
-63.261248772899989
 31
0.0
  0
LINE
  5
239
  8
0
 62
     0
 10
870.4725720432001
 20
-63.261248772899989
 30
0.0
 11
847.41701669949998
 21
-63.261248772899989
 31
0.0
  0
LINE
  5
23A
  8
0
 62
     0
 10
838.4725720432001
 20
-63.261248772899989
 30
0.0
 11
861.52812738679995
 21
-63.261248772899989
 31
0.0
  0
LINE
  5
23B
  8
0
 62
     0
 10
838.4725720432001
 20
-63.261248772899989
 30
0.0
 11
847.41701669949998
 21
-63.261248772899989
 31
0.0
  0
LINE
  5
23C
  8
0
 62
     0
 10
838.4725720432001
 20
-63.261248772899989
 30
0.0
 11
841.47257204319999
 21
-63.261248772899989
 31
0.0
  0
SOLID
  5
23D
  8
0
 62
     0
 10
838.4725720432001
 20
-63.261248772899989
 30
0.0
 11
844.47257204319999
 21
-61.761248772899997
 31
0.0
 12
844.47257204319999
 22
-64.761248772900004
 32
0.0
 13
842.9725720432001
 23
-63.261248772899989
 33
0.0
  0
LINE
  5
23E
  8
0
 62
     0
 10
870.4725720432001
 20
-63.261248772899989
 30
0.0
 11
867.47257204319999
 21
-63.261248772899989
 31
0.0
  0
SOLID
  5
23F
  8
0
 62
     0
 10
870.4725720432001
 20
-63.261248772899989
 30
0.0
 11
864.4725720432001
 21
-64.761248772900004
 31
0.0
 12
864.4725720432001
 22
-61.761248772899997
 32
0.0
 13
865.9725720432001
 23
-63.261248772899989
 33
0.0
  0
ENDBLK
  5
240
  8
0
  0
BLOCK
  8
0
  2
*D30
 70
     1
 10
0.0
 20
0.0
 30
0.0
  3
*D30
  1

  0
TEXT
  5
244
  8
0
 62
     0
 10
703.81905962890005
 20
-313.65624331790002
 30
0.0
 40
5.9972220420999998
  1
11
 50
90.0
  0
LINE
  5
245
  8
0
 62
     0
 10
695.55450881579986
 20
-330.52117397939998
 30
0.0
 11
706.37739293039976
 21
-330.52117397939998
 31
0.0
  0
LINE
  5
246
  8
0
 62
     0
 10
742.55450881579986
 20
-319.52117397939998
 30
0.0
 11
705.37739293039976
 21
-319.52117397939998
 31
0.0
  0
LINE
  5
247
  8
0
 62
     0
 10
705.87739293039976
 20
-330.52117397939998
 30
0.0
 11
705.87739293039976
 21
-303.07291030239998
 31
0.0
  0
LINE
  5
248
  8
0
 62
     0
 10
705.87739293039976
 20
-330.52117397939998
 30
0.0
 11
705.87739293039976
 21
-317.1840209897
 31
0.0
  0
LINE
  5
249
  8
0
 62
     0
 10
705.87739293039976
 20
-319.52117397939998
 30
0.0
 11
705.87739293039976
 21
-303.07291030239998
 31
0.0
  0
LINE
  5
24A
  8
0
 62
     0
 10
705.87739293039976
 20
-319.52117397939998
 30
0.0
 11
705.87739293039976
 21
-317.1840209897
 31
0.0
  0
LINE
  5
24B
  8
0
 62
     0
 10
705.87739293039976
 20
-319.52117397939998
 30
0.0
 11
705.87739293039976
 21
-316.52117397939998
 31
0.0
  0
SOLID
  5
24C
  8
0
 62
     0
 10
705.87739293039976
 20
-319.52117397939998
 30
0.0
 11
704.37739293039976
 21
-313.52117397939998
 31
0.0
 12
707.37739293039988
 22
-313.52117397939998
 32
0.0
 13
705.87739293039976
 23
-315.02117397939998
 33
0.0
  0
LINE
  5
24D
  8
0
 62
     0
 10
705.87739293039976
 20
-330.52117397939998
 30
0.0
 11
705.87739293039976
 21
-333.52117397939998
 31
0.0
  0
SOLID
  5
24E
  8
0
 62
     0
 10
705.87739293039976
 20
-330.52117397939998
 30
0.0
 11
707.37739293039988
 21
-336.52117397939998
 31
0.0
 12
704.37739293039976
 22
-336.52117397939998
 32
0.0
 13
705.87739293039976
 23
-335.02117397939998
 33
0.0
  0
ENDBLK
  5
24F
  8
0
  0
BLOCK
  8
0
  2
*D31
 70
     1
 10
0.0
 20
0.0
 30
0.0
  3
*D31
  1

  0
TEXT
  5
253
  8
0
 62
     0
 10
818.59702186849995
 20
-232.30910790120001
 30
0.0
 40
5.9972220420999998
  1
30
 50
90.0
  0
LINE
  5
254
  8
0
 62
     0
 10
852.47257204319999
 20
-213.7813302294
 30
0.0
 11
820.15535516999989
 21
-213.7813302294
 31
0.0
  0
LINE
  5
255
  8
0
 62
     0
 10
837.4725720432001
 20
-243.7813302294
 30
0.0
 11
820.15535516999989
 21
-243.7813302294
 31
0.0
  0
LINE
  5
256
  8
0
 62
     0
 10
820.65535517000001
 20
-213.7813302294
 30
0.0
 11
820.65535517000001
 21
-221.72577488569999
 31
0.0
  0
LINE
  5
257
  8
0
 62
     0
 10
820.65535517000001
 20
-213.7813302294
 30
0.0
 11
820.65535517000001
 21
-235.83688557299999
 31
0.0
  0
LINE
  5
258
  8
0
 62
     0
 10
820.65535517000001
 20
-243.7813302294
 30
0.0
 11
820.65535517000001
 21
-221.72577488569999
 31
0.0
  0
LINE
  5
259
  8
0
 62
     0
 10
820.65535517000001
 20
-243.7813302294
 30
0.0
 11
820.65535517000001
 21
-235.83688557299999
 31
0.0
  0
LINE
  5
25A
  8
0
 62
     0
 10
820.65535517000001
 20
-243.7813302294
 30
0.0
 11
820.65535517000001
 21
-240.7813302294
 31
0.0
  0
SOLID
  5
25B
  8
0
 62
     0
 10
820.65535517000001
 20
-243.7813302294
 30
0.0
 11
819.15535517000001
 21
-237.7813302294
 31
0.0
 12
822.15535516999989
 22
-237.7813302294
 32
0.0
 13
820.65535517000001
 23
-239.2813302294
 33
0.0
  0
LINE
  5
25C
  8
0
 62
     0
 10
820.65535517000001
 20
-213.7813302294
 30
0.0
 11
820.65535517000001
 21
-216.7813302294
 31
0.0
  0
SOLID
  5
25D
  8
0
 62
     0
 10
820.65535517000001
 20
-213.7813302294
 30
0.0
 11
822.15535516999989
 21
-219.7813302294
 31
0.0
 12
819.15535517000001
 22
-219.7813302294
 32
0.0
 13
820.65535517000001
 23
-218.2813302294
 33
0.0
  0
ENDBLK
  5
25E
  8
0
  0
BLOCK
  8
0
  2
*D32
 70
     1
 10
0.0
 20
0.0
 30
0.0
  3
*D32
  1

  0
TEXT
  5
262
  8
0
 62
     0
 10
818.59702186849995
 20
-103.30910790119999
 30
0.0
 40
5.9972220420999998
  1
12
 50
90.0
  0
LINE
  5
263
  8
0
 62
     0
 10
837.4725720432001
 20
-93.781330229400012
 30
0.0
 11
820.15535516999989
 21
-93.781330229400012
 31
0.0
  0
LINE
  5
264
  8
0
 62
     0
 10
847.4725720432001
 20
-105.7813302294
 30
0.0
 11
820.15535516999989
 21
-105.7813302294
 31
0.0
  0
LINE
  5
265
  8
0
 62
     0
 10
820.65535517000001
 20
-93.781330229400012
 30
0.0
 11
820.65535517000001
 21
-93.781330229400012
 31
0.0
  0
LINE
  5
266
  8
0
 62
     0
 10
820.65535517000001
 20
-93.781330229400012
 30
0.0
 11
820.65535517000001
 21
-105.7813302294
 31
0.0
  0
LINE
  5
267
  8
0
 62
     0
 10
820.65535517000001
 20
-105.7813302294
 30
0.0
 11
820.65535517000001
 21
-93.781330229400012
 31
0.0
  0
LINE
  5
268
  8
0
 62
     0
 10
820.65535517000001
 20
-105.7813302294
 30
0.0
 11
820.65535517000001
 21
-105.7813302294
 31
0.0
  0
LINE
  5
269
  8
0
 62
     0
 10
820.65535517000001
 20
-105.7813302294
 30
0.0
 11
820.65535517000001
 21
-102.7813302294
 31
0.0
  0
SOLID
  5
26A
  8
0
 62
     0
 10
820.65535517000001
 20
-105.7813302294
 30
0.0
 11
819.15535517000001
 21
-99.781330229400012
 31
0.0
 12
822.15535516999989
 22
-99.781330229400012
 32
0.0
 13
820.65535517000001
 23
-101.2813302294
 33
0.0
  0
LINE
  5
26B
  8
0
 62
     0
 10
820.65535517000001
 20
-93.781330229400012
 30
0.0
 11
820.65535517000001
 21
-96.781330229400027
 31
0.0
  0
SOLID
  5
26C
  8
0
 62
     0
 10
820.65535517000001
 20
-93.781330229400012
 30
0.0
 11
822.15535516999989
 21
-99.781330229400012
 31
0.0
 12
819.15535517000001
 22
-99.781330229400012
 32
0.0
 13
820.65535517000001
 23
-98.281330229400012
 33
0.0
  0
ENDBLK
  5
26D
  8
0
  0
BLOCK
  8
0
  2
*D33
 70
     1
 10
0.0
 20
0.0
 30
0.0
  3
*D33
  1

  0
TEXT
  5
271
  8
0
 62
     0
 10
705.91171108089986
 20
-200.4852776219
 30
0.0
 40
5.9972220420999998
  1
90%%d
 50
313.76361975920003
  0
ARC
  5
272
  8
0
 62
     0
 10
673.05450881579998
 20
-239.2813302294
 30
0.0
 40
47.389095105400003
 50
80.294182850100015
 51
90.0
  0
ARC
  5
273
  8
0
 62
     0
 10
673.05450881579998
 20
-239.2813302294
 30
0.0
 40
47.389095105400003
 50
0.0
 51
9.7058171498999997
  0
SOLID
  5
274
  8
0
 62
     0
 10
720.44360392119995
 20
-239.2813302294
 30
0.0
 11
721.94360392119995
 21
-245.2813302294
 31
0.0
 12
718.94360392119995
 22
-245.2813302294
 32
0.0
 13
720.44360392119995
 23
-243.7813302294
 33
0.0
  0
SOLID
  5
275
  8
0
 62
     0
 10
673.05450881579998
 20
-191.892235124
 30
0.0
 11
667.05450881579986
 21
-193.392235124
 31
0.0
 12
667.05450881579986
 22
-190.392235124
 32
0.0
 13
668.55450881579998
 23
-191.892235124
 33
0.0
  0
ARC
  5
276
  8
0
 62
     0
 10
673.05450881579998
 20
-239.2813302294
 30
0.0
 40
47.389095105400003
 50
0.0
 51
32.905104684299999
  0
ARC
  5
277
  8
0
 62
     0
 10
673.05450881579998
 20
-239.2813302294
 30
0.0
 40
47.389095105400003
 50
54.622134834100002
 51
90.0
  0
LINE
  5
278
  8
0
 62
     0
 10
739.55450881579998
 20
-239.2813302294
 30
0.0
 11
716.44360392119995
 21
-239.2813302294
 31
0.0
  0
LINE
  5
279
  8
0
 62
     0
 10
673.05450881579998
 20
-97.781330229400027
 30
0.0
 11
673.05450881579998
 21
-195.892235124
 31
0.0
  0
ENDBLK
  5
27A
  8
0
  0
BLOCK
  8
0
  2
*D34
 70
     1
 10
0.0
 20
0.0
 30
0.0
  3
*D34
  1

  0
TEXT
  5
27E
  8
0
 62
     0
 10
647.72094764970007
 20
-339.04895165120001
 30
0.0
 40
5.9972220420999998
  1
32
 50
90.0
  0
LINE
  5
27F
  8
0
 62
     0
 10
667.55450881579986
 20
-319.52117397939998
 30
0.0
 11
649.27928095129994
 21
-319.52117397939998
 31
0.0
  0
LINE
  5
280
  8
0
 62
     0
 10
667.55450881579986
 20
-351.52117397940009
 30
0.0
 11
649.27928095129994
 21
-351.52117397940009
 31
0.0
  0
LINE
  5
281
  8
0
 62
     0
 10
649.77928095129994
 20
-319.52117397939998
 30
0.0
 11
649.77928095129994
 21
-328.46561863570003
 31
0.0
  0
LINE
  5
282
  8
0
 62
     0
 10
649.77928095129994
 20
-319.52117397939998
 30
0.0
 11
649.77928095129994
 21
-342.576729323
 31
0.0
  0
LINE
  5
283
  8
0
 62
     0
 10
649.77928095129994
 20
-351.52117397940009
 30
0.0
 11
649.77928095129994
 21
-328.46561863570003
 31
0.0
  0
LINE
  5
284
  8
0
 62
     0
 10
649.77928095129994
 20
-351.52117397940009
 30
0.0
 11
649.77928095129994
 21
-342.576729323
 31
0.0
  0
LINE
  5
285
  8
0
 62
     0
 10
649.77928095129994
 20
-351.52117397940009
 30
0.0
 11
649.77928095129994
 21
-348.52117397939998
 31
0.0
  0
SOLID
  5
286
  8
0
 62
     0
 10
649.77928095129994
 20
-351.52117397940009
 30
0.0
 11
648.27928095129994
 21
-345.52117397939998
 31
0.0
 12
651.27928095129994
 22
-345.52117397939998
 32
0.0
 13
649.77928095129994
 23
-347.02117397939998
 33
0.0
  0
LINE
  5
287
  8
0
 62
     0
 10
649.77928095129994
 20
-319.52117397939998
 30
0.0
 11
649.77928095129994
 21
-322.52117397939998
 31
0.0
  0
SOLID
  5
288
  8
0
 62
     0
 10
649.77928095129994
 20
-319.52117397939998
 30
0.0
 11
651.27928095129994
 21
-325.52117397939998
 31
0.0
 12
648.27928095129994
 22
-325.52117397939998
 32
0.0
 13
649.77928095129994
 23
-324.02117397939998
 33
0.0
  0
ENDBLK
  5
289
  8
0
  0
BLOCK
  8
0
  2
*D35
 70
     1
 10
0.0
 20
0.0
 30
0.0
  3
*D35
  1

  0
TEXT
  5
28D
  8
0
 62
     0
 10
818.71850624349997
 20
-190.30910790120001
 30
0.0
 40
5.9972220420999998
  1
54
 50
90.0
  0
LINE
  5
28E
  8
0
 62
     0
 10
842.47257204319999
 20
-159.7813302294
 30
0.0
 11
820.27683954500003
 21
-159.7813302294
 31
0.0
  0
LINE
  5
28F
  8
0
 62
     0
 10
852.47257204319999
 20
-213.7813302294
 30
0.0
 11
820.27683954500003
 21
-213.7813302294
 31
0.0
  0
LINE
  5
290
  8
0
 62
     0
 10
820.77683954499992
 20
-159.7813302294
 30
0.0
 11
820.77683954499992
 21
-179.72577488569999
 31
0.0
  0
LINE
  5
291
  8
0
 62
     0
 10
820.77683954499992
 20
-159.7813302294
 30
0.0
 11
820.77683954499992
 21
-193.83688557299999
 31
0.0
  0
LINE
  5
292
  8
0
 62
     0
 10
820.77683954499992
 20
-213.7813302294
 30
0.0
 11
820.77683954499992
 21
-179.72577488569999
 31
0.0
  0
LINE
  5
293
  8
0
 62
     0
 10
820.77683954499992
 20
-213.7813302294
 30
0.0
 11
820.77683954499992
 21
-193.83688557299999
 31
0.0
  0
LINE
  5
294
  8
0
 62
     0
 10
820.77683954499992
 20
-213.7813302294
 30
0.0
 11
820.77683954499992
 21
-210.7813302294
 31
0.0
  0
SOLID
  5
295
  8
0
 62
     0
 10
820.77683954499992
 20
-213.7813302294
 30
0.0
 11
819.27683954500003
 21
-207.7813302294
 31
0.0
 12
822.27683954500003
 22
-207.7813302294
 32
0.0
 13
820.77683954499992
 23
-209.2813302294
 33
0.0
  0
LINE
  5
296
  8
0
 62
     0
 10
820.77683954499992
 20
-159.7813302294
 30
0.0
 11
820.77683954499992
 21
-162.7813302294
 31
0.0
  0
SOLID
  5
297
  8
0
 62
     0
 10
820.77683954499992
 20
-159.7813302294
 30
0.0
 11
822.27683954500003
 21
-165.7813302294
 31
0.0
 12
819.27683954500003
 22
-165.7813302294
 32
0.0
 13
820.77683954499992
 23
-164.2813302294
 33
0.0
  0
ENDBLK
  5
298
  8
0
  0
BLOCK
  8
0
  2
*D36
 70
     1
 10
0.0
 20
0.0
 30
0.0
  3
*D36
  1

  0
TEXT
  5
29C
  8
0
 62
     0
 10
818.71850624349997
 20
-136.30910790120001
 30
0.0
 40
5.9972220420999998
  1
54
 50
90.0
  0
LINE
  5
29D
  8
0
 62
     0
 10
847.4725720432001
 20
-105.7813302294
 30
0.0
 11
820.27683954500003
 21
-105.7813302294
 31
0.0
  0
LINE
  5
29E
  8
0
 62
     0
 10
842.47257204319999
 20
-159.7813302294
 30
0.0
 11
820.27683954500003
 21
-159.7813302294
 31
0.0
  0
LINE
  5
29F
  8
0
 62
     0
 10
820.77683954499992
 20
-105.7813302294
 30
0.0
 11
820.77683954499992
 21
-125.72577488570001
 31
0.0
  0
LINE
  5
2A0
  8
0
 62
     0
 10
820.77683954499992
 20
-105.7813302294
 30
0.0
 11
820.77683954499992
 21
-139.83688557299999
 31
0.0
  0
LINE
  5
2A1
  8
0
 62
     0
 10
820.77683954499992
 20
-159.7813302294
 30
0.0
 11
820.77683954499992
 21
-125.72577488570001
 31
0.0
  0
LINE
  5
2A2
  8
0
 62
     0
 10
820.77683954499992
 20
-159.7813302294
 30
0.0
 11
820.77683954499992
 21
-139.83688557299999
 31
0.0
  0
LINE
  5
2A3
  8
0
 62
     0
 10
820.77683954499992
 20
-159.7813302294
 30
0.0
 11
820.77683954499992
 21
-156.7813302294
 31
0.0
  0
SOLID
  5
2A4
  8
0
 62
     0
 10
820.77683954499992
 20
-159.7813302294
 30
0.0
 11
819.27683954500003
 21
-153.7813302294
 31
0.0
 12
822.27683954500003
 22
-153.7813302294
 32
0.0
 13
820.77683954499992
 23
-155.2813302294
 33
0.0
  0
LINE
  5
2A5
  8
0
 62
     0
 10
820.77683954499992
 20
-105.7813302294
 30
0.0
 11
820.77683954499992
 21
-108.7813302294
 31
0.0
  0
SOLID
  5
2A6
  8
0
 62
     0
 10
820.77683954499992
 20
-105.7813302294
 30
0.0
 11
822.27683954500003
 21
-111.7813302294
 31
0.0
 12
819.27683954500003
 22
-111.7813302294
 32
0.0
 13
820.77683954499992
 23
-110.2813302294
 33
0.0
  0
ENDBLK
  5
2A7
  8
0
  0
BLOCK
  8
0
  2
*U37
 70
     1
 10
0.0
 20
0.0
 30
0.0
  3
*U37
  1

  0
TEXT
  5
2C2
  8
┌▓È_1
  6
CONTINUOUS
 10
871.17358433669995
 20
-381.16515640323712
 30
0.0
 40
4.6749999999999989
  1
 É¦îvü@ü@öÆÉ{ëÛ
  0
ENDBLK
  5
2C4
  8
0
  0
BLOCK
  8
0
  2
*U38
 70
     1
 10
0.0
 20
0.0
 30
0.0
  3
*U38
  1

  0
TEXT
  5
2C6
  8
┌▓È_1
  6
CONTINUOUS
 10
968.10435595920001
 20
-364.16515640323712
 30
0.0
 40
4.6749999999999989
  1
ü@îƒ ü@ê¾
  0
ENDBLK
  5
2C8
  8
0
  0
BLOCK
  8
0
  2
*U39
 70
     1
 10
0.0
 20
0.0
 30
0.0
  3
*U39
  1

  0
TEXT
  5
2CA
  8
┌▓È_1
  6
CONTINUOUS
 10
936.10435595919989
 20
-381.14142543877011
 30
0.0
 40
4.6749999999999989
  1
ü@Ä┌ ü@ôx
  0
ENDBLK
  5
2CC
  8
0
  0
BLOCK
  8
0
  2
*U40
 70
     1
 10
0.0
 20
0.0
 30
0.0
  3
*U40
  1

  0
TEXT
  5
2CE
  8
┌▓È_1
  6
CONTINUOUS
 10
936.10435595919989
 20
-364.16515640323712
 30
0.0
 40
4.6749999999999989
  1
ü@ö┬ ü@î·
  0
ENDBLK
  5
2D0
  8
0
  0
BLOCK
  8
0
  2
*U41
 70
     1
 10
0.0
 20
0.0
 30
0.0
  3
*U41
  1

  0
TEXT
  5
2D2
  8
┌▓È_1
  6
CONTINUOUS
 10
904.10435595919989
 20
-364.07023254536909
 30
0.0
 40
4.6749999999999989
  1
ü@ìÌ ü@Ä┐
  0
ENDBLK
  5
2D4
  8
0
  0
BLOCK
  8
0
  2
*U42
 70
     1
 10
0.0
 20
0.0
 30
0.0
  3
*U42
  1

  0
TEXT
  5
2D6
  8
┌▓È_1
  6
CONTINUOUS
 62
     5
 10
944.967937128578
 20
-389.40411579410011
 30
0.0
 40
4.6749999999999989
  1
1üF2
  0
ENDBLK
  5
2D8
  8
0
  0
BLOCK
  8
0
  2
*U43
 70
     1
 10
0.0
 20
0.0
 30
0.0
  3
*U43
  1

  0
TEXT
  5
2DA
  8
┌▓È_1
  6
CONTINUOUS
 62
     5
 10
945.18151580878111
 20
-372.40411579409999
 30
0.0
 40
4.6749999999999989
  1
4.5t
  0
ENDBLK
  5
2DC
  8
0
  0
BLOCK
  8
0
  2
*U44
 70
     1
 10
0.0
 20
0.0
 30
0.0
  3
*U44
  1

  0
TEXT
  5
2DE
  8
┌▓È_1
  6
CONTINUOUS
 62
     5
 10
916.37333052959332
 20
-372.68888736770413
 30
0.0
 40
4.6749999999999989
  1
ôS
  0
ENDBLK
  5
2E0
  8
0
  0
BLOCK
  8
0
  2
*U45
 70
     1
 10
0.0
 20
0.0
 30
0.0
  3
*U45
  1

  0
TEXT
  5
2E2
  8
┌▓È_1
  6
CONTINUOUS
 62
     5
 10
879.54407926055785
 20
-372.40411579409999
 30
0.0
 40
4.6749999999999989
  1
H16.4
  0
ENDBLK
  5
2E4
  8
0
  0
BLOCK
  8
0
  2
*U46
 70
     1
 10
0.0
 20
0.0
 30
0.0
  3
*U46
  1

  0
TEXT
  5
2E6
  8
┌▓È_1
  6
CONTINUOUS
 10
1000.9545832441
 20
-398.01243531590211
 30
0.0
 40
4.6749999999999989
  1
É}öÈ
  0
ENDBLK
  5
2E8
  8
0
  0
BLOCK
  8
0
  2
*U47
 70
     1
 10
0.0
 20
0.0
 30
0.0
  3
*U47
  1

  0
TEXT
  5
2EA
  8
┌▓È_1
  6
CONTINUOUS
 10
1000.9545832441
 20
-381.05989724483612
 30
0.0
 40
4.6749999999999989
  1
òiû╝
  0
ENDBLK
  5
2EC
  8
0
  0
BLOCK
  8
0
  2
*U48
 70
     1
 10
0.0
 20
0.0
 30
0.0
  3
*U48
  1

  0
TEXT
  5
2EE
  8
┌▓È_1
  6
CONTINUOUS
 10
1000.9545832441
 20
-364.01243531590211
 30
0.0
 40
4.6749999999999989
  1
î^öÈ
  0
ENDBLK
  5
2F0
  8
0
  0
BLOCK
  8
0
  2
*U49
 70
     1
 10
0.0
 20
0.0
 30
0.0
  3
*U49
  1

  0
TEXT
  5
2F2
  8
┌▓È_1
  6
CONTINUOUS
 10
872.10435595920012
 20
-363.99903965196808
 30
0.0
 40
4.6749999999999989
  1
ü@ô· ü@òt
  0
ENDBLK
  5
2F4
  8
0
  0
BLOCK
  8
0
  2
*U50
 70
     1
 10
0.0
 20
0.0
 30
0.0
  3
*U50
  1

  0
TEXT
  5
2F6
  8
┌▓È_1
  6
CONTINUOUS
 10
871.17358433669995
 20
-389.68888736770418
 30
0.0
 40
4.6749999999999989
  1
 É╗É}ü@ü@ è¦û{
  0
ENDBLK
  5
2F8
  8
0
  0
BLOCK
  8
0
  2
*U51
 70
     1
 10
0.0
 20
0.0
 30
0.0
  3
*U51
  1

  0
TEXT
  5
2FA
  8
┌▓È_1
  6
CONTINUOUS
 10
885.61469178619996
 20
-404.32292870702742
 30
0.0
 40
8.6359998702999992
  1
èöÄ«ë´Äð
  0
ENDBLK
  5
2FC
  8
0
  0
BLOCK
  8
0
  2
*U52
 70
     1
 10
0.0
 20
0.0
 30
0.0
  3
*U52
  1

  0
TEXT
  5
2FE
  8
┌▓È_1
  6
CONTINUOUS
 10
871.17358433669995
 20
-354.97566037375788
 30
0.0
 40
7.1966662884000003
  1
ò\û╩ÅêùØüFâåâjâNâìâüâbâLÄdÅÒé░
  0
ENDBLK
  5
300
  8
0
  0
BLOCK
  8
0
  2
*U53
 70
     1
 10
0.0
 20
0.0
 30
0.0
  3
*U53
  1

  0
TEXT
  5
302
  8
┌▓È_1
  6
CONTINUOUS
 10
1019.632060548367
 20
-369.33599255990009
 30
0.0
 40
7.1966662884000003
  1
LY-202  75x150
  0
ENDBLK
  5
304
  8
0
  0
BLOCK
  8
0
  2
*U54
 70
     1
 10
0.0
 20
0.0
 30
0.0
  3
*U54
  1

  0
TEXT
  5
306
  8
┌▓È_1
  6
CONTINUOUS
 10
1029.9838808725001
 20
-387.43603380062689
 30
0.0
 40
7.1966662884000003
  1
ékî^âAâôâOâï
  0
ENDBLK
  5
308
  8
0
  0
BLOCK
  8
0
  2
*D55
 70
     1
 10
0.0
 20
0.0
 30
0.0
  3
*D55
  1

  0
LINE
  5
30B
  8
Éíû@É³
 62
     0
 10
1012.683843472124
 20
-151.34449086547579
 30
0.0
 11
1039.2191819884561
 21
-124.8091523491442
 31
0.0
  0
LINE
  5
30C
  8
Éíû@É³
 62
     0
 10
969.034794952776
 20
-151.34449086547571
 30
0.0
 11
942.49945643645515
 21
-124.8091523490331
 31
0.0
  0
ARC
  5
30D
  8
Éíû@É³
 62
     0
 10
990.85931921240001
 20
-173.16901512519999
 30
0.0
 40
67.141173812399984
 50
50.12188200233782
 51
82.136528849932773
  0
ARC
  5
30E
  8
Éíû@É³
 62
     0
 10
990.85931921240001
 20
-173.16901512519999
 30
0.0
 40
67.141173812399984
 50
97.863471150067255
 51
129.8781179975305
  0
SOLID
  5
30F
  8
Éíû@É³
 62
     0
 10
1034.5821312039409
 20
-120.9062064827402
 30
0.0
 11
1033.232519920196
 21
-122.3821974660415
 31
0.0
 12
1038.335298511972
 22
-125.69303582562731
 32
0.0
 13
1038.335298511972
 23
-125.69303582562731
 33
0.0
  0
SOLID
  5
310
  8
Éíû@É³
 62
     0
 10
948.48611850472059
 20
-122.3821974659442
 30
0.0
 11
947.13650722097873
 21
-120.9062064826398
 31
0.0
 12
943.38333991293644
 22
-125.69303582551829
 32
0.0
 13
943.38333991293644
 23
-125.69303582551829
 33
0.0
  0
TEXT
  8
Éíû@É³
  40
5.99722
  5
338
  62
0
  72
0
  71
0
 10
978.865
 20
-116.643
 30
0.000000
  1
90üï
  0
POINT
  5
312
  8
Defpoints
 62
     0
 10
990.85931921240001
 20
-173.16901512519999
 30
0.0
  0
POINT
  5
313
  8
Defpoints
 62
     0
 10
1012.6396492983
 20
-151.38868503929999
 30
0.0
  0
POINT
  5
314
  8
Defpoints
 62
     0
 10
969.07898912660005
 20
-151.38868503929999
 30
0.0
  0
POINT
  5
315
  8
Defpoints
 62
     0
 10
1008.236733705637
 20
-108.31562133245291
 30
0.0
  0
ENDBLK
  5
317
  8
0
  0
BLOCK
  8
0
  2
*D56
 70
     1
 10
0.0
 20
0.0
 30
0.0
  3
*D56
  1

  0
LINE
  5
319
  8
Éíû@É³
 62
     0
 10
969.034794952776
 20
-174.99353938492419
 30
0.0
 11
949.02243604619616
 21
-195.005898291596
 31
0.0
  0
LINE
  5
31A
  8
Éíû@É³
 62
     0
 10
1012.683843472124
 20
-174.99353938492411
 30
0.0
 11
1032.6962023787
 21
-195.0058982914999
 31
0.0
  0
ARC
  5
31B
  8
Éíû@É³
 62
     0
 10
990.85931921240001
 20
-153.16901512519999
 30
0.0
 40
57.91628758120001
 50
230.93837431857031
 51
260.87409137071103
  0
ARC
  5
31C
  8
Éíû@É³
 62
     0
 10
990.85931921240001
 20
-153.16901512519999
 30
0.0
 40
57.91628758120001
 50
279.12590862928897
 51
309.0616256815614
  0
SOLID
  5
31D
  8
Éíû@É³
 62
     0
 10
953.69349857624616
 20
-198.88198065702699
 30
0.0
 11
955.03255890045841
 21
-197.39641091846869
 31
0.0
 12
949.90631952267734
 22
-194.12201481511079
 32
0.0
 13
949.90631952267734
 23
-194.12201481511079
 33
0.0
  0
SOLID
  5
31E
  8
Éíû@É³
 62
     0
 10
1026.6860795244429
 20
-197.39641091838641
 30
0.0
 11
1028.0251398486589
 21
-198.88198065694169
 31
0.0
 12
1031.8123189022169
 22
-194.12201481501671
 32
0.0
 13
1031.8123189022169
 23
-194.12201481501671
 33
0.0
  0
TEXT
  8
Éíû@É³
  40
5.99722
  5
339
  62
0
  72
0
  71
0
 10
978.865
 20
-221.700
 30
0.000000
  1
90üï
  0
POINT
  5
320
  8
Defpoints
 62
     0
 10
990.85931921240001
 20
-153.16901512519999
 30
0.0
  0
POINT
  5
321
  8
Defpoints
 62
     0
 10
969.07898912660005
 20
-174.9493452111
 30
0.0
  0
POINT
  5
322
  8
Defpoints
 62
     0
 10
1012.6396492983
 20
-174.9493452111
 30
0.0
  0
POINT
  5
323
  8
Defpoints
 62
     0
 10
975.86948096483638
 20
-209.11185306268879
 30
0.0
  0
ENDBLK
  5
325
  8
0
  0
BLOCK
  8
0
  2
*U57
 70
     1
 10
0.0
 20
0.0
 30
0.0
  3
*U57
  1

  0
TEXT
  5
327
  8
┌▓È_1
  6
CONTINUOUS
 10
964.35639362552536
 20
-231.4617224058274
 30
0.0
 40
5.9972220420999998
  1
ÄMâéâ~òöègæÕÉ}
  0
ENDBLK
  5
329
  8
0
  0
BLOCK
  8
0
  2
*D58
 70
     1
 10
0.0
 20
0.0
 30
0.0
  3
*D58
  1

  0
LINE
  5
32B
  8
Éíû@É³
 62
     0
 10
743.49200881579986
 20
-239.28133022939991
 30
0.0
 11
719.19360392119233
 21
-239.2813302294
 31
0.0
  0
LINE
  5
32C
  8
Éíû@É³
 62
     0
 10
673.05450881579998
 20
-93.843830229399984
 30
0.0
 11
673.05450881579975
 21
-193.14223512400741
 31
0.0
  0
ARC
  5
32D
  8
Éíû@É³
 62
     0
 10
673.05450881579975
 20
-239.28133022939991
 30
0.0
 40
47.38909510539245
 50
7.2591534120580183
 51
32.5867944303751
  0
ARC
  5
32E
  8
Éíû@É³
 62
     0
 10
673.05450881579975
 20
-239.28133022939991
 30
0.0
 40
47.38909510539245
 50
54.94044508809327
 51
82.740846587941945
  0
SOLID
  5
32F
  8
Éíû@É³
 62
     0
 10
721.06176388298798
 20
-233.23005943215151
 30
0.0
 11
719.0657755183779
 21
-233.3566708389879
 31
0.0
 12
720.44360392119233
 22
-239.2813302294
 32
0.0
 13
720.44360392119233
 23
-239.2813302294
 33
0.0
  0
SOLID
  5
330
  8
Éíû@É³
 62
     0
 10
678.97916820621197
 20
-193.2700635268219
 30
0.0
 11
679.10577961304853
 21
-191.2740751622118
 31
0.0
 12
673.05450881579998
 22
-191.8922351240075
 32
0.0
 13
673.05450881579998
 23
-191.8922351240075
 33
0.0
  0
TEXT
  8
Éíû@É³
  40
5.99722
  5
33A
  62
0
  72
0
  71
0
 10
695.284
 20
-217.118
 30
0.000000
  1
90üï
  0
POINT
  5
332
  8
Defpoints
 62
     0
 10
673.05450881579975
 20
-239.28133022939991
 30
0.0
  0
POINT
  5
333
  8
Defpoints
 62
     0
 10
743.55450881579975
 20
-239.28133022939991
 30
0.0
  0
POINT
  5
334
  8
Defpoints
 62
     0
 10
673.05450881579998
 20
-93.781330229399998
 30
0.0
  0
POINT
  5
335
  8
Defpoints
 62
     0
 10
696.7490563684961
 20
-198.2411700057732
 30
0.0
  0
ENDBLK
  5
337
  8
0
  0
ENDSEC
  0
SECTION
  2
ENTITIES
  0
INSERT
  5
30
  8
┌▓È_1
  6
BORDER
  2
CLUMP0
 10
0.0
 20
0.0
 30
0.0
  0
LINE
  5
37
  8
┌▓È_1
 62
     5
 10
668.55450881579998
 20
-319.52117397939998
 30
0.0
 11
668.55450881579998
 21
-351.52117397940009
 31
0.0
  0
LINE
  5
38
  8
┌▓È_1
  6
STITCH
 10
673.05450881579998
 20
-319.52117397939998
 30
0.0
 11
673.05450881579998
 21
-351.52117397940009
 31
0.0
  0
INSERT
  5
3A
  8
┌▓È_1
  6
BORDER
  2
CLUMP1
 10
0.0
 20
0.0
 30
0.0
  0
INSERT
  5
4B
  8
┌▓È_1
  6
BORDER
  2
CLUMP3
 10
0.0
 20
0.0
 30
0.0
  0
DIMENSION
  5
67
  8
Éíû@É³
  2
*D4
 10
763.60851130269998
 20
-335.52117397939998
 30
0.0
 11
763.60851130269998
 21
-308.23356911600001
 31
0.0
 70
   128
  1
<>
 13
737.55450881579986
 23
-335.52117397939998
 33
0.0
 14
743.55450881579998
 24
-319.52117397939998
 34
0.0
 50
90.0
  0
DIMENSION
  5
76
  8
Éíû@É³
  2
*D5
 10
763.60851130269998
 20
-351.52117397940009
 30
0.0
 11
763.60851130269998
 21
-359.23201382309998
 31
0.0
 70
   128
  1
<>
 13
743.55450881579998
 23
-351.52117397940009
 33
0.0
 14
737.55450881579986
 24
-335.52117397939998
 34
0.0
 50
90.0
  0
LINE
  5
77
  8
┌▓È_1
 62
     5
 10
838.4725720432001
 20
-243.7813302294
 30
0.0
 11
838.4725720432001
 21
-93.781330229400012
 31
0.0
  0
LINE
  5
78
  8
┌▓È_1
 62
     5
 10
838.4725720432001
 20
-239.2813302294
 30
0.0
 11
870.4725720432001
 21
-239.2813302294
 31
0.0
  0
LINE
  5
79
  8
┌▓È_1
 62
     5
 10
838.4725720432001
 20
-243.7813302294
 30
0.0
 11
870.4725720432001
 21
-243.7813302294
 31
0.0
  0
LINE
  5
7A
  8
┌▓È_1
 62
     5
 10
870.4725720432001
 20
-93.781330229400012
 30
0.0
 11
838.4725720432001
 21
-93.781330229400012
 31
0.0
  0
LINE
  5
7B
  8
┌▓È_1
 62
     5
 10
673.05450881579998
 20
-93.781330229400012
 30
0.0
 11
668.55450881579998
 21
-93.781330229400012
 31
0.0
  0
LINE
  5
7C
  8
┌▓È_1
 62
     5
 10
668.55450881579998
 20
-239.2813302294
 30
0.0
 11
668.55450881579998
 21
-93.781330229400012
 31
0.0
  0
LINE
  5
7D
  8
┌▓È_1
 62
     5
 10
673.05450881579998
 20
-239.2813302294
 30
0.0
 11
673.05450881579998
 21
-93.781330229400012
 31
0.0
  0
LINE
  5
7E
  8
┌▓È_1
  6
STITCH
 10
671.30450881579998
 20
-108.2813302294
 30
0.0
 11
670.30450881579986
 21
-108.2813302294
 31
0.0
  0
LINE
  5
7F
  8
┌▓È_1
  6
STITCH
 10
670.30450881579986
 20
-108.2813302294
 30
0.0
 11
668.55450881579998
 21
-110.0313302294
 31
0.0
  0
LINE
  5
80
  8
┌▓È_1
  6
STITCH
 10
671.30450881579998
 20
-108.2813302294
 30
0.0
 11
673.05450881579998
 21
-110.0313302294
 31
0.0
  0
LINE
  5
81
  8
┌▓È_1
 62
     5
 10
743.55450881579998
 20
-319.52117397939998
 30
0.0
 11
743.55450881579998
 21
-351.52117397940009
 31
0.0
  0
LINE
  5
82
  8
┌▓È_1
 62
     5
 10
668.55450881579998
 20
-319.52117397939998
 30
0.0
 11
743.55450881579998
 21
-319.52117397939998
 31
0.0
  0
LINE
  5
83
  8
┌▓È_1
 62
     5
 10
668.55450881579998
 20
-351.52117397940009
 30
0.0
 11
743.55450881579998
 21
-351.52117397940009
 31
0.0
  0
INSERT
  5
85
  8
┌▓È_1
  6
BORDER
  2
CLUMP4
 10
0.0
 20
0.0
 30
0.0
  0
LINE
  5
95
  8
┌▓È_1
 62
     5
 10
673.05450881579998
 20
-243.7813302294
 30
0.0
 11
743.55450881579998
 21
-243.7813302294
 31
0.0
  0
LINE
  5
96
  8
┌▓È_1
 62
     5
 10
673.05450881579998
 20
-239.2813302294
 30
0.0
 11
743.55450881579998
 21
-239.2813302294
 31
0.0
  0
LINE
  5
97
  8
┌▓È_1
 62
     5
 10
743.55450881579998
 20
-243.7813302294
 30
0.0
 11
743.55450881579998
 21
-239.2813302294
 31
0.0
  0
INSERT
  5
99
  8
┌▓È_1
  6
BORDER
  2
CLUMP6
 10
0.0
 20
0.0
 30
0.0
  0
LINE
  5
A5
  8
┌▓È_1
  6
BORDER
 62
     3
 10
678.88228659360004
 20
-105.7813302294
 30
0.0
 11
661.51284214919986
 21
-105.7813302294
 31
0.0
  0
LINE
  5
A6
  8
┌▓È_1
  6
STITCH
 10
670.30450881579986
 20
-103.2813302294
 30
0.0
 11
671.30450881579998
 21
-103.2813302294
 31
0.0
  0
LINE
  5
A7
  8
┌▓È_1
  6
STITCH
 10
671.30450881579998
 20
-103.2813302294
 30
0.0
 11
671.30450881579998
 21
-108.2813302294
 31
0.0
  0
LINE
  5
A8
  8
┌▓È_1
  6
STITCH
 10
670.30450881579986
 20
-108.2813302294
 30
0.0
 11
670.30450881579986
 21
-103.2813302294
 31
0.0
  0
LINE
  5
A9
  8
┌▓È_1
  6
STITCH
 10
671.30450881579998
 20
-103.2813302294
 30
0.0
 11
673.05450881579998
 21
-101.5313302294
 31
0.0
  0
LINE
  5
AA
  8
┌▓È_1
  6
STITCH
 10
670.30450881579986
 20
-103.2813302294
 30
0.0
 11
668.55450881579998
 21
-101.5313302294
 31
0.0
  0
ARC
  5
AB
  8
┌▓È_1
 62
     5
 10
673.05450881579998
 20
-239.2813302294
 30
0.0
 40
4.5
 50
180.0
 51
270.0
  0
INSERT
  5
AC
  8
0
  6
CONTINUOUS
  2
*U37
 10
0.0
 20
0.0
 30
0.0
  0
LINE
  5
AD
  8
┌▓È_1
 10
939.17358433669995
 20
-383.31804897940009
 30
0.0
 11
963.17358433669995
 21
-383.31804897940009
 31
0.0
  0
LINE
  5
AE
  8
┌▓È_1
 10
939.17358433669995
 20
-366.31804897940009
 30
0.0
 11
963.17358433669995
 21
-366.31804897940009
 31
0.0
  0
LINE
  5
AF
  8
┌▓È_1
 10
875.17358433669995
 20
-383.31804897940009
 30
0.0
 11
931.17358433669995
 21
-383.31804897940009
 31
0.0
  0
LINE
  5
B0
  8
┌▓È_1
 10
907.17358433669995
 20
-366.31804897940009
 30
0.0
 11
931.17358433669995
 21
-366.31804897940009
 31
0.0
  0
LINE
  5
B1
  8
┌▓È_1
 10
875.17358433669995
 20
-366.31804897940009
 30
0.0
 11
899.17358433669995
 21
-366.31804897940009
 31
0.0
  0
LINE
  5
B2
  8
┌▓È_1
 10
935.17358433669995
 20
-357.81804897940009
 30
0.0
 11
935.17358433669995
 21
-391.81804897939998
 31
0.0
  0
LINE
  5
B3
  8
┌▓È_1
 62
     5
 10
963.82495676559995
 20
-398.27714866029999
 30
0.0
 11
962.91986008569995
 21
-399.18224534019998
 31
0.0
  0
LINE
  5
B4
  8
┌▓È_1
 62
     5
 10
957.42495676559997
 20
-398.79252508830001
 30
0.0
 11
957.42495676559997
 21
-398.27714866029999
 31
0.0
  0
LINE
  5
B5
  8
┌▓È_1
 62
     5
 10
937.72622097020007
 20
-397.76177223240001
 30
0.0
 11
937.72622097020007
 21
-400.16177223239998
 31
0.0
  0
LINE
  5
B6
  8
┌▓È_1
 62
     5
 10
953.16798706869997
 20
-397.76177223240001
 30
0.0
 11
953.16798706869997
 21
-400.16177223239998
 31
0.0
  0
LINE
  5
B7
  8
┌▓È_1
 62
     5
 10
982.09292900289995
 20
-406.5617722323999
 30
0.0
 11
986.57292900289985
 21
-406.5617722323999
 31
0.0
  0
LINE
  5
B8
  8
┌▓È_1
 62
     5
 10
971.82495676559995
 20
-403.36177223240003
 30
0.0
 11
971.82495676559995
 21
-405.76177223240001
 31
0.0
  0
LINE
  5
B9
  8
┌▓È_1
 10
967.17358433669995
 20
-366.31804897940009
 30
0.0
 11
999.17358433669995
 21
-366.31804897940009
 31
0.0
  0
LINE
  5
BA
  8
┌▓È_1
 10
871.17358433669995
 20
-374.81804897939998
 30
0.0
 11
967.17358433669995
 21
-374.81804897939998
 31
0.0
  0
INSERT
  5
BB
  8
0
  6
CONTINUOUS
  2
*U38
 10
0.0
 20
0.0
 30
0.0
  0
POLYLINE
  8
┌▓È_1
  5
33B
  62
5
  66
     1
 10
0.000000
 20
0.000000
 30
0.000000
  70
     8
  0
VERTEX
  8
┌▓È_1
  5
33C
 10
968.120
 20
-402.599
 30
0.000000
  70
    32
  0
VERTEX
  8
┌▓È_1
  5
33D
 10
968.148
 20
-402.607
 30
0.000000
  70
    32
  0
VERTEX
  8
┌▓È_1
  5
33E
 10
968.176
 20
-402.615
 30
0.000000
  70
    32
  0
VERTEX
  8
┌▓È_1
  5
33F
 10
968.204
 20
-402.623
 30
0.000000
  70
    32
  0
VERTEX
  8
┌▓È_1
  5
340
 10
968.232
 20
-402.631
 30
0.000000
  70
    32
  0
VERTEX
  8
┌▓È_1
  5
341
 10
968.260
 20
-402.639
 30
0.000000
  70
    32
  0
VERTEX
  8
┌▓È_1
  5
342
 10
968.289
 20
-402.646
 30
0.000000
  70
    32
  0
VERTEX
  8
┌▓È_1
  5
343
 10
968.317
 20
-402.654
 30
0.000000
  70
    32
  0
VERTEX
  8
┌▓È_1
  5
344
 10
968.345
 20
-402.662
 30
0.000000
  70
    32
  0
VERTEX
  8
┌▓È_1
  5
345
 10
968.373
 20
-402.669
 30
0.000000
  70
    32
  0
VERTEX
  8
┌▓È_1
  5
346
 10
968.401
 20
-402.677
 30
0.000000
  70
    32
  0
VERTEX
  8
┌▓È_1
  5
347
 10
968.430
 20
-402.684
 30
0.000000
  70
    32
  0
VERTEX
  8
┌▓È_1
  5
348
 10
968.458
 20
-402.692
 30
0.000000
  70
    32
  0
VERTEX
  8
┌▓È_1
  5
349
 10
968.486
 20
-402.699
 30
0.000000
  70
    32
  0
VERTEX
  8
┌▓È_1
  5
34A
 10
968.514
 20
-402.706
 30
0.000000
  70
    32
  0
VERTEX
  8
┌▓È_1
  5
34B
 10
968.543
 20
-402.714
 30
0.000000
  70
    32
  0
VERTEX
  8
┌▓È_1
  5
34C
 10
968.571
 20
-402.721
 30
0.000000
  70
    32
  0
VERTEX
  8
┌▓È_1
  5
34D
 10
968.600
 20
-402.728
 30
0.000000
  70
    32
  0
VERTEX
  8
┌▓È_1
  5
34E
 10
968.628
 20
-402.735
 30
0.000000
  70
    32
  0
VERTEX
  8
┌▓È_1
  5
34F
 10
968.656
 20
-402.743
 30
0.000000
  70
    32
  0
VERTEX
  8
┌▓È_1
  5
350
 10
968.685
 20
-402.750
 30
0.000000
  70
    32
  0
VERTEX
  8
┌▓È_1
  5
351
 10
968.713
 20
-402.757
 30
0.000000
  70
    32
  0
VERTEX
  8
┌▓È_1
  5
352
 10
968.742
 20
-402.764
 30
0.000000
  70
    32
  0
VERTEX
  8
┌▓È_1
  5
353
 10
968.771
 20
-402.771
 30
0.000000
  70
    32
  0
VERTEX
  8
┌▓È_1
  5
354
 10
968.799
 20
-402.778
 30
0.000000
  70
    32
  0
VERTEX
  8
┌▓È_1
  5
355
 10
968.828
 20
-402.785
 30
0.000000
  70
    32
  0
VERTEX
  8
┌▓È_1
  5
356
 10
968.856
 20
-402.792
 30
0.000000
  70
    32
  0
VERTEX
  8
┌▓È_1
  5
357
 10
968.885
 20
-402.798
 30
0.000000
  70
    32
  0
VERTEX
  8
┌▓È_1
  5
358
 10
968.914
 20
-402.805
 30
0.000000
  70
    32
  0
VERTEX
  8
┌▓È_1
  5
359
 10
968.942
 20
-402.812
 30
0.000000
  70
    32
  0
VERTEX
  8
┌▓È_1
  5
35A
 10
968.971
 20
-402.819
 30
0.000000
  70
    32
  0
VERTEX
  8
┌▓È_1
  5
35B
 10
969.000
 20
-402.826
 30
0.000000
  70
    32
  0
VERTEX
  8
┌▓È_1
  5
35C
 10
969.028
 20
-402.832
 30
0.000000
  70
    32
  0
VERTEX
  8
┌▓È_1
  5
35D
 10
969.057
 20
-402.839
 30
0.000000
  70
    32
  0
VERTEX
  8
┌▓È_1
  5
35E
 10
969.086
 20
-402.846
 30
0.000000
  70
    32
  0
VERTEX
  8
┌▓È_1
  5
35F
 10
969.115
 20
-402.852
 30
0.000000
  70
    32
  0
VERTEX
  8
┌▓È_1
  5
360
 10
969.144
 20
-402.859
 30
0.000000
  70
    32
  0
VERTEX
  8
┌▓È_1
  5
361
 10
969.173
 20
-402.865
 30
0.000000
  70
    32
  0
VERTEX
  8
┌▓È_1
  5
362
 10
969.201
 20
-402.872
 30
0.000000
  70
    32
  0
VERTEX
  8
┌▓È_1
  5
363
 10
969.230
 20
-402.878
 30
0.000000
  70
    32
  0
VERTEX
  8
┌▓È_1
  5
364
 10
969.259
 20
-402.884
 30
0.000000
  70
    32
  0
VERTEX
  8
┌▓È_1
  5
365
 10
969.288
 20
-402.891
 30
0.000000
  70
    32
  0
VERTEX
  8
┌▓È_1
  5
366
 10
969.317
 20
-402.897
 30
0.000000
  70
    32
  0
VERTEX
  8
┌▓È_1
  5
367
 10
969.346
 20
-402.904
 30
0.000000
  70
    32
  0
VERTEX
  8
┌▓È_1
  5
368
 10
969.375
 20
-402.910
 30
0.000000
  70
    32
  0
VERTEX
  8
┌▓È_1
  5
369
 10
969.404
 20
-402.916
 30
0.000000
  70
    32
  0
VERTEX
  8
┌▓È_1
  5
36A
 10
969.433
 20
-402.922
 30
0.000000
  70
    32
  0
VERTEX
  8
┌▓È_1
  5
36B
 10
969.462
 20
-402.929
 30
0.000000
  70
    32
  0
VERTEX
  8
┌▓È_1
  5
36C
 10
969.491
 20
-402.935
 30
0.000000
  70
    32
  0
VERTEX
  8
┌▓È_1
  5
36D
 10
969.520
 20
-402.941
 30
0.000000
  70
    32
  0
VERTEX
  8
┌▓È_1
  5
36E
 10
969.549
 20
-402.947
 30
0.000000
  70
    32
  0
VERTEX
  8
┌▓È_1
  5
36F
 10
969.578
 20
-402.953
 30
0.000000
  70
    32
  0
VERTEX
  8
┌▓È_1
  5
370
 10
969.608
 20
-402.959
 30
0.000000
  70
    32
  0
VERTEX
  8
┌▓È_1
  5
371
 10
969.637
 20
-402.965
 30
0.000000
  70
    32
  0
VERTEX
  8
┌▓È_1
  5
372
 10
969.666
 20
-402.971
 30
0.000000
  70
    32
  0
VERTEX
  8
┌▓È_1
  5
373
 10
969.695
 20
-402.977
 30
0.000000
  70
    32
  0
VERTEX
  8
┌▓È_1
  5
374
 10
969.724
 20
-402.983
 30
0.000000
  70
    32
  0
VERTEX
  8
┌▓È_1
  5
375
 10
969.754
 20
-402.989
 30
0.000000
  70
    32
  0
VERTEX
  8
┌▓È_1
  5
376
 10
969.783
 20
-402.995
 30
0.000000
  70
    32
  0
VERTEX
  8
┌▓È_1
  5
377
 10
969.812
 20
-403.001
 30
0.000000
  70
    32
  0
VERTEX
  8
┌▓È_1
  5
378
 10
969.841
 20
-403.007
 30
0.000000
  70
    32
  0
VERTEX
  8
┌▓È_1
  5
379
 10
969.871
 20
-403.013
 30
0.000000
  70
    32
  0
VERTEX
  8
┌▓È_1
  5
37A
 10
969.900
 20
-403.018
 30
0.000000
  70
    32
  0
VERTEX
  8
┌▓È_1
  5
37B
 10
969.929
 20
-403.024
 30
0.000000
  70
    32
  0
VERTEX
  8
┌▓È_1
  5
37C
 10
969.958
 20
-403.030
 30
0.000000
  70
    32
  0
VERTEX
  8
┌▓È_1
  5
37D
 10
969.988
 20
-403.036
 30
0.000000
  70
    32
  0
VERTEX
  8
┌▓È_1
  5
37E
 10
970.017
 20
-403.041
 30
0.000000
  70
    32
  0
VERTEX
  8
┌▓È_1
  5
37F
 10
970.047
 20
-403.047
 30
0.000000
  70
    32
  0
VERTEX
  8
┌▓È_1
  5
380
 10
970.076
 20
-403.053
 30
0.000000
  70
    32
  0
VERTEX
  8
┌▓È_1
  5
381
 10
970.105
 20
-403.058
 30
0.000000
  70
    32
  0
VERTEX
  8
┌▓È_1
  5
382
 10
970.135
 20
-403.064
 30
0.000000
  70
    32
  0
VERTEX
  8
┌▓È_1
  5
383
 10
970.164
 20
-403.070
 30
0.000000
  70
    32
  0
VERTEX
  8
┌▓È_1
  5
384
 10
970.194
 20
-403.075
 30
0.000000
  70
    32
  0
VERTEX
  8
┌▓È_1
  5
385
 10
970.223
 20
-403.081
 30
0.000000
  70
    32
  0
VERTEX
  8
┌▓È_1
  5
386
 10
970.252
 20
-403.086
 30
0.000000
  70
    32
  0
VERTEX
  8
┌▓È_1
  5
387
 10
970.282
 20
-403.092
 30
0.000000
  70
    32
  0
VERTEX
  8
┌▓È_1
  5
388
 10
970.311
 20
-403.097
 30
0.000000
  70
    32
  0
VERTEX
  8
┌▓È_1
  5
389
 10
970.341
 20
-403.103
 30
0.000000
  70
    32
  0
VERTEX
  8
┌▓È_1
  5
38A
 10
970.370
 20
-403.108
 30
0.000000
  70
    32
  0
VERTEX
  8
┌▓È_1
  5
38B
 10
970.400
 20
-403.114
 30
0.000000
  70
    32
  0
VERTEX
  8
┌▓È_1
  5
38C
 10
970.429
 20
-403.119
 30
0.000000
  70
    32
  0
VERTEX
  8
┌▓È_1
  5
38D
 10
970.459
 20
-403.125
 30
0.000000
  70
    32
  0
VERTEX
  8
┌▓È_1
  5
38E
 10
970.488
 20
-403.130
 30
0.000000
  70
    32
  0
VERTEX
  8
┌▓È_1
  5
38F
 10
970.518
 20
-403.135
 30
0.000000
  70
    32
  0
VERTEX
  8
┌▓È_1
  5
390
 10
970.548
 20
-403.141
 30
0.000000
  70
    32
  0
VERTEX
  8
┌▓È_1
  5
391
 10
970.577
 20
-403.146
 30
0.000000
  70
    32
  0
VERTEX
  8
┌▓È_1
  5
392
 10
970.607
 20
-403.151
 30
0.000000
  70
    32
  0
VERTEX
  8
┌▓È_1
  5
393
 10
970.636
 20
-403.157
 30
0.000000
  70
    32
  0
VERTEX
  8
┌▓È_1
  5
394
 10
970.666
 20
-403.162
 30
0.000000
  70
    32
  0
VERTEX
  8
┌▓È_1
  5
395
 10
970.696
 20
-403.167
 30
0.000000
  70
    32
  0
VERTEX
  8
┌▓È_1
  5
396
 10
970.725
 20
-403.173
 30
0.000000
  70
    32
  0
VERTEX
  8
┌▓È_1
  5
397
 10
970.755
 20
-403.178
 30
0.000000
  70
    32
  0
VERTEX
  8
┌▓È_1
  5
398
 10
970.784
 20
-403.183
 30
0.000000
  70
    32
  0
VERTEX
  8
┌▓È_1
  5
399
 10
970.814
 20
-403.188
 30
0.000000
  70
    32
  0
VERTEX
  8
┌▓È_1
  5
39A
 10
970.844
 20
-403.194
 30
0.000000
  70
    32
  0
VERTEX
  8
┌▓È_1
  5
39B
 10
970.873
 20
-403.199
 30
0.000000
  70
    32
  0
VERTEX
  8
┌▓È_1
  5
39C
 10
970.903
 20
-403.204
 30
0.000000
  70
    32
  0
VERTEX
  8
┌▓È_1
  5
39D
 10
970.933
 20
-403.209
 30
0.000000
  70
    32
  0
VERTEX
  8
┌▓È_1
  5
39E
 10
970.962
 20
-403.214
 30
0.000000
  70
    32
  0
VERTEX
  8
┌▓È_1
  5
39F
 10
970.992
 20
-403.220
 30
0.000000
  70
    32
  0
VERTEX
  8
┌▓È_1
  5
3A0
 10
971.022
 20
-403.225
 30
0.000000
  70
    32
  0
VERTEX
  8
┌▓È_1
  5
3A1
 10
971.051
 20
-403.230
 30
0.000000
  70
    32
  0
VERTEX
  8
┌▓È_1
  5
3A2
 10
971.081
 20
-403.235
 30
0.000000
  70
    32
  0
VERTEX
  8
┌▓È_1
  5
3A3
 10
971.111
 20
-403.240
 30
0.000000
  70
    32
  0
VERTEX
  8
┌▓È_1
  5
3A4
 10
971.141
 20
-403.245
 30
0.000000
  70
    32
  0
VERTEX
  8
┌▓È_1
  5
3A5
 10
971.170
 20
-403.250
 30
0.000000
  70
    32
  0
VERTEX
  8
┌▓È_1
  5
3A6
 10
971.200
 20
-403.256
 30
0.000000
  70
    32
  0
VERTEX
  8
┌▓È_1
  5
3A7
 10
971.230
 20
-403.261
 30
0.000000
  70
    32
  0
VERTEX
  8
┌▓È_1
  5
3A8
 10
971.259
 20
-403.266
 30
0.000000
  70
    32
  0
VERTEX
  8
┌▓È_1
  5
3A9
 10
971.289
 20
-403.271
 30
0.000000
  70
    32
  0
VERTEX
  8
┌▓È_1
  5
3AA
 10
971.319
 20
-403.276
 30
0.000000
  70
    32
  0
VERTEX
  8
┌▓È_1
  5
3AB
 10
971.349
 20
-403.281
 30
0.000000
  70
    32
  0
VERTEX
  8
┌▓È_1
  5
3AC
 10
971.378
 20
-403.286
 30
0.000000
  70
    32
  0
VERTEX
  8
┌▓È_1
  5
3AD
 10
971.408
 20
-403.291
 30
0.000000
  70
    32
  0
VERTEX
  8
┌▓È_1
  5
3AE
 10
971.438
 20
-403.296
 30
0.000000
  70
    32
  0
VERTEX
  8
┌▓È_1
  5
3AF
 10
971.468
 20
-403.301
 30
0.000000
  70
    32
  0
VERTEX
  8
┌▓È_1
  5
3B0
 10
971.497
 20
-403.306
 30
0.000000
  70
    32
  0
VERTEX
  8
┌▓È_1
  5
3B1
 10
971.527
 20
-403.311
 30
0.000000
  70
    32
  0
VERTEX
  8
┌▓È_1
  5
3B2
 10
971.557
 20
-403.316
 30
0.000000
  70
    32
  0
VERTEX
  8
┌▓È_1
  5
3B3
 10
971.587
 20
-403.322
 30
0.000000
  70
    32
  0
VERTEX
  8
┌▓È_1
  5
3B4
 10
971.617
 20
-403.327
 30
0.000000
  70
    32
  0
VERTEX
  8
┌▓È_1
  5
3B5
 10
971.646
 20
-403.332
 30
0.000000
  70
    32
  0
VERTEX
  8
┌▓È_1
  5
3B6
 10
971.676
 20
-403.337
 30
0.000000
  70
    32
  0
VERTEX
  8
┌▓È_1
  5
3B7
 10
971.706
 20
-403.342
 30
0.000000
  70
    32
  0
VERTEX
  8
┌▓È_1
  5
3B8
 10
971.736
 20
-403.347
 30
0.000000
  70
    32
  0
VERTEX
  8
┌▓È_1
  5
3B9
 10
971.765
 20
-403.352
 30
0.000000
  70
    32
  0
VERTEX
  8
┌▓È_1
  5
3BA
 10
971.795
 20
-403.357
 30
0.000000
  70
    32
  0
VERTEX
  8
┌▓È_1
  5
3BB
 10
971.825
 20
-403.362
 30
0.000000
  70
    32
  0
SEQEND
  8
┌▓È_1
  5
3BC
  0
POLYLINE
  8
┌▓È_1
  5
3BD
  62
5
  66
     1
 10
0.000000
 20
0.000000
 30
0.000000
  70
     8
  0
VERTEX
  8
┌▓È_1
  5
3BE
 10
957.425
 20
-398.793
 30
0.000000
  70
    32
  0
VERTEX
  8
┌▓È_1
  5
3BF
 10
957.454
 20
-398.819
 30
0.000000
  70
    32
  0
VERTEX
  8
┌▓È_1
  5
3C0
 10
957.483
 20
-398.846
 30
0.000000
  70
    32
  0
VERTEX
  8
┌▓È_1
  5
3C1
 10
957.511
 20
-398.872
 30
0.000000
  70
    32
  0
VERTEX
  8
┌▓È_1
  5
3C2
 10
957.540
 20
-398.899
 30
0.000000
  70
    32
  0
VERTEX
  8
┌▓È_1
  5
3C3
 10
957.569
 20
-398.925
 30
0.000000
  70
    32
  0
VERTEX
  8
┌▓È_1
  5
3C4
 10
957.598
 20
-398.952
 30
0.000000
  70
    32
  0
VERTEX
  8
┌▓È_1
  5
3C5
 10
957.627
 20
-398.978
 30
0.000000
  70
    32
  0
VERTEX
  8
┌▓È_1
  5
3C6
 10
957.656
 20
-399.005
 30
0.000000
  70
    32
  0
VERTEX
  8
┌▓È_1
  5
3C7
 10
957.684
 20
-399.032
 30
0.000000
  70
    32
  0
VERTEX
  8
┌▓È_1
  5
3C8
 10
957.713
 20
-399.058
 30
0.000000
  70
    32
  0
VERTEX
  8
┌▓È_1
  5
3C9
 10
957.742
 20
-399.085
 30
0.000000
  70
    32
  0
VERTEX
  8
┌▓È_1
  5
3CA
 10
957.771
 20
-399.111
 30
0.000000
  70
    32
  0
VERTEX
  8
┌▓È_1
  5
3CB
 10
957.800
 20
-399.138
 30
0.000000
  70
    32
  0
VERTEX
  8
┌▓È_1
  5
3CC
 10
957.829
 20
-399.164
 30
0.000000
  70
    32
  0
VERTEX
  8
┌▓È_1
  5
3CD
 10
957.857
 20
-399.191
 30
0.000000
  70
    32
  0
VERTEX
  8
┌▓È_1
  5
3CE
 10
957.886
 20
-399.217
 30
0.000000
  70
    32
  0
VERTEX
  8
┌▓È_1
  5
3CF
 10
957.915
 20
-399.244
 30
0.000000
  70
    32
  0
VERTEX
  8
┌▓È_1
  5
3D0
 10
957.944
 20
-399.270
 30
0.000000
  70
    32
  0
VERTEX
  8
┌▓È_1
  5
3D1
 10
957.973
 20
-399.297
 30
0.000000
  70
    32
  0
VERTEX
  8
┌▓È_1
  5
3D2
 10
958.002
 20
-399.323
 30
0.000000
  70
    32
  0
VERTEX
  8
┌▓È_1
  5
3D3
 10
958.031
 20
-399.350
 30
0.000000
  70
    32
  0
VERTEX
  8
┌▓È_1
  5
3D4
 10
958.059
 20
-399.376
 30
0.000000
  70
    32
  0
VERTEX
  8
┌▓È_1
  5
3D5
 10
958.088
 20
-399.402
 30
0.000000
  70
    32
  0
VERTEX
  8
┌▓È_1
  5
3D6
 10
958.117
 20
-399.429
 30
0.000000
  70
    32
  0
VERTEX
  8
┌▓È_1
  5
3D7
 10
958.146
 20
-399.455
 30
0.000000
  70
    32
  0
VERTEX
  8
┌▓È_1
  5
3D8
 10
958.175
 20
-399.482
 30
0.000000
  70
    32
  0
VERTEX
  8
┌▓È_1
  5
3D9
 10
958.204
 20
-399.508
 30
0.000000
  70
    32
  0
VERTEX
  8
┌▓È_1
  5
3DA
 10
958.233
 20
-399.534
 30
0.000000
  70
    32
  0
VERTEX
  8
┌▓È_1
  5
3DB
 10
958.262
 20
-399.561
 30
0.000000
  70
    32
  0
VERTEX
  8
┌▓È_1
  5
3DC
 10
958.291
 20
-399.587
 30
0.000000
  70
    32
  0
VERTEX
  8
┌▓È_1
  5
3DD
 10
958.320
 20
-399.613
 30
0.000000
  70
    32
  0
VERTEX
  8
┌▓È_1
  5
3DE
 10
958.349
 20
-399.640
 30
0.000000
  70
    32
  0
VERTEX
  8
┌▓È_1
  5
3DF
 10
958.378
 20
-399.666
 30
0.000000
  70
    32
  0
VERTEX
  8
┌▓È_1
  5
3E0
 10
958.407
 20
-399.692
 30
0.000000
  70
    32
  0
VERTEX
  8
┌▓È_1
  5
3E1
 10
958.436
 20
-399.718
 30
0.000000
  70
    32
  0
VERTEX
  8
┌▓È_1
  5
3E2
 10
958.465
 20
-399.745
 30
0.000000
  70
    32
  0
VERTEX
  8
┌▓È_1
  5
3E3
 10
958.494
 20
-399.771
 30
0.000000
  70
    32
  0
VERTEX
  8
┌▓È_1
  5
3E4
 10
958.523
 20
-399.797
 30
0.000000
  70
    32
  0
VERTEX
  8
┌▓È_1
  5
3E5
 10
958.552
 20
-399.823
 30
0.000000
  70
    32
  0
VERTEX
  8
┌▓È_1
  5
3E6
 10
958.581
 20
-399.849
 30
0.000000
  70
    32
  0
VERTEX
  8
┌▓È_1
  5
3E7
 10
958.610
 20
-399.875
 30
0.000000
  70
    32
  0
VERTEX
  8
┌▓È_1
  5
3E8
 10
958.639
 20
-399.901
 30
0.000000
  70
    32
  0
VERTEX
  8
┌▓È_1
  5
3E9
 10
958.668
 20
-399.927
 30
0.000000
  70
    32
  0
VERTEX
  8
┌▓È_1
  5
3EA
 10
958.697
 20
-399.953
 30
0.000000
  70
    32
  0
VERTEX
  8
┌▓È_1
  5
3EB
 10
958.726
 20
-399.980
 30
0.000000
  70
    32
  0
VERTEX
  8
┌▓È_1
  5
3EC
 10
958.755
 20
-400.006
 30
0.000000
  70
    32
  0
VERTEX
  8
┌▓È_1
  5
3ED
 10
958.785
 20
-400.031
 30
0.000000
  70
    32
  0
VERTEX
  8
┌▓È_1
  5
3EE
 10
958.814
 20
-400.057
 30
0.000000
  70
    32
  0
VERTEX
  8
┌▓È_1
  5
3EF
 10
958.843
 20
-400.083
 30
0.000000
  70
    32
  0
VERTEX
  8
┌▓È_1
  5
3F0
 10
958.872
 20
-400.109
 30
0.000000
  70
    32
  0
VERTEX
  8
┌▓È_1
  5
3F1
 10
958.901
 20
-400.135
 30
0.000000
  70
    32
  0
VERTEX
  8
┌▓È_1
  5
3F2
 10
958.931
 20
-400.161
 30
0.000000
  70
    32
  0
VERTEX
  8
┌▓È_1
  5
3F3
 10
958.960
 20
-400.187
 30
0.000000
  70
    32
  0
VERTEX
  8
┌▓È_1
  5
3F4
 10
958.989
 20
-400.212
 30
0.000000
  70
    32
  0
VERTEX
  8
┌▓È_1
  5
3F5
 10
959.018
 20
-400.238
 30
0.000000
  70
    32
  0
VERTEX
  8
┌▓È_1
  5
3F6
 10
959.048
 20
-400.264
 30
0.000000
  70
    32
  0
VERTEX
  8
┌▓È_1
  5
3F7
 10
959.077
 20
-400.290
 30
0.000000
  70
    32
  0
VERTEX
  8
┌▓È_1
  5
3F8
 10
959.106
 20
-400.315
 30
0.000000
  70
    32
  0
VERTEX
  8
┌▓È_1
  5
3F9
 10
959.135
 20
-400.341
 30
0.000000
  70
    32
  0
VERTEX
  8
┌▓È_1
  5
3FA
 10
959.165
 20
-400.366
 30
0.000000
  70
    32
  0
VERTEX
  8
┌▓È_1
  5
3FB
 10
959.194
 20
-400.392
 30
0.000000
  70
    32
  0
VERTEX
  8
┌▓È_1
  5
3FC
 10
959.224
 20
-400.418
 30
0.000000
  70
    32
  0
VERTEX
  8
┌▓È_1
  5
3FD
 10
959.253
 20
-400.443
 30
0.000000
  70
    32
  0
VERTEX
  8
┌▓È_1
  5
3FE
 10
959.282
 20
-400.468
 30
0.000000
  70
    32
  0
VERTEX
  8
┌▓È_1
  5
3FF
 10
959.312
 20
-400.494
 30
0.000000
  70
    32
  0
VERTEX
  8
┌▓È_1
  5
400
 10
959.341
 20
-400.519
 30
0.000000
  70
    32
  0
VERTEX
  8
┌▓È_1
  5
401
 10
959.371
 20
-400.545
 30
0.000000
  70
    32
  0
VERTEX
  8
┌▓È_1
  5
402
 10
959.400
 20
-400.570
 30
0.000000
  70
    32
  0
VERTEX
  8
┌▓È_1
  5
403
 10
959.430
 20
-400.595
 30
0.000000
  70
    32
  0
VERTEX
  8
┌▓È_1
  5
404
 10
959.459
 20
-400.620
 30
0.000000
  70
    32
  0
VERTEX
  8
┌▓È_1
  5
405
 10
959.489
 20
-400.646
 30
0.000000
  70
    32
  0
VERTEX
  8
┌▓È_1
  5
406
 10
959.518
 20
-400.671
 30
0.000000
  70
    32
  0
VERTEX
  8
┌▓È_1
  5
407
 10
959.548
 20
-400.696
 30
0.000000
  70
    32
  0
VERTEX
  8
┌▓È_1
  5
408
 10
959.578
 20
-400.721
 30
0.000000
  70
    32
  0
VERTEX
  8
┌▓È_1
  5
409
 10
959.607
 20
-400.746
 30
0.000000
  70
    32
  0
VERTEX
  8
┌▓È_1
  5
40A
 10
959.637
 20
-400.771
 30
0.000000
  70
    32
  0
VERTEX
  8
┌▓È_1
  5
40B
 10
959.667
 20
-400.796
 30
0.000000
  70
    32
  0
VERTEX
  8
┌▓È_1
  5
40C
 10
959.696
 20
-400.821
 30
0.000000
  70
    32
  0
VERTEX
  8
┌▓È_1
  5
40D
 10
959.726
 20
-400.846
 30
0.000000
  70
    32
  0
VERTEX
  8
┌▓È_1
  5
40E
 10
959.756
 20
-400.870
 30
0.000000
  70
    32
  0
VERTEX
  8
┌▓È_1
  5
40F
 10
959.786
 20
-400.895
 30
0.000000
  70
    32
  0
VERTEX
  8
┌▓È_1
  5
410
 10
959.816
 20
-400.920
 30
0.000000
  70
    32
  0
VERTEX
  8
┌▓È_1
  5
411
 10
959.845
 20
-400.945
 30
0.000000
  70
    32
  0
VERTEX
  8
┌▓È_1
  5
412
 10
959.875
 20
-400.969
 30
0.000000
  70
    32
  0
VERTEX
  8
┌▓È_1
  5
413
 10
959.905
 20
-400.994
 30
0.000000
  70
    32
  0
VERTEX
  8
┌▓È_1
  5
414
 10
959.935
 20
-401.018
 30
0.000000
  70
    32
  0
VERTEX
  8
┌▓È_1
  5
415
 10
959.965
 20
-401.043
 30
0.000000
  70
    32
  0
VERTEX
  8
┌▓È_1
  5
416
 10
959.995
 20
-401.067
 30
0.000000
  70
    32
  0
VERTEX
  8
┌▓È_1
  5
417
 10
960.025
 20
-401.092
 30
0.000000
  70
    32
  0
VERTEX
  8
┌▓È_1
  5
418
 10
960.055
 20
-401.116
 30
0.000000
  70
    32
  0
VERTEX
  8
┌▓È_1
  5
419
 10
960.085
 20
-401.140
 30
0.000000
  70
    32
  0
VERTEX
  8
┌▓È_1
  5
41A
 10
960.115
 20
-401.165
 30
0.000000
  70
    32
  0
VERTEX
  8
┌▓È_1
  5
41B
 10
960.145
 20
-401.189
 30
0.000000
  70
    32
  0
VERTEX
  8
┌▓È_1
  5
41C
 10
960.175
 20
-401.213
 30
0.000000
  70
    32
  0
VERTEX
  8
┌▓È_1
  5
41D
 10
960.205
 20
-401.237
 30
0.000000
  70
    32
  0
VERTEX
  8
┌▓È_1
  5
41E
 10
960.236
 20
-401.261
 30
0.000000
  70
    32
  0
VERTEX
  8
┌▓È_1
  5
41F
 10
960.266
 20
-401.285
 30
0.000000
  70
    32
  0
VERTEX
  8
┌▓È_1
  5
420
 10
960.296
 20
-401.309
 30
0.000000
  70
    32
  0
VERTEX
  8
┌▓È_1
  5
421
 10
960.326
 20
-401.333
 30
0.000000
  70
    32
  0
VERTEX
  8
┌▓È_1
  5
422
 10
960.357
 20
-401.357
 30
0.000000
  70
    32
  0
VERTEX
  8
┌▓È_1
  5
423
 10
960.387
 20
-401.381
 30
0.000000
  70
    32
  0
VERTEX
  8
┌▓È_1
  5
424
 10
960.417
 20
-401.404
 30
0.000000
  70
    32
  0
VERTEX
  8
┌▓È_1
  5
425
 10
960.448
 20
-401.428
 30
0.000000
  70
    32
  0
VERTEX
  8
┌▓È_1
  5
426
 10
960.478
 20
-401.452
 30
0.000000
  70
    32
  0
VERTEX
  8
┌▓È_1
  5
427
 10
960.509
 20
-401.475
 30
0.000000
  70
    32
  0
VERTEX
  8
┌▓È_1
  5
428
 10
960.539
 20
-401.499
 30
0.000000
  70
    32
  0
VERTEX
  8
┌▓È_1
  5
429
 10
960.570
 20
-401.522
 30
0.000000
  70
    32
  0
VERTEX
  8
┌▓È_1
  5
42A
 10
960.600
 20
-401.545
 30
0.000000
  70
    32
  0
VERTEX
  8
┌▓È_1
  5
42B
 10
960.631
 20
-401.569
 30
0.000000
  70
    32
  0
VERTEX
  8
┌▓È_1
  5
42C
 10
960.661
 20
-401.592
 30
0.000000
  70
    32
  0
VERTEX
  8
┌▓È_1
  5
42D
 10
960.692
 20
-401.615
 30
0.000000
  70
    32
  0
VERTEX
  8
┌▓È_1
  5
42E
 10
960.723
 20
-401.638
 30
0.000000
  70
    32
  0
VERTEX
  8
┌▓È_1
  5
42F
 10
960.753
 20
-401.661
 30
0.000000
  70
    32
  0
VERTEX
  8
┌▓È_1
  5
430
 10
960.784
 20
-401.684
 30
0.000000
  70
    32
  0
VERTEX
  8
┌▓È_1
  5
431
 10
960.815
 20
-401.707
 30
0.000000
  70
    32
  0
VERTEX
  8
┌▓È_1
  5
432
 10
960.846
 20
-401.730
 30
0.000000
  70
    32
  0
VERTEX
  8
┌▓È_1
  5
433
 10
960.877
 20
-401.753
 30
0.000000
  70
    32
  0
VERTEX
  8
┌▓È_1
  5
434
 10
960.907
 20
-401.776
 30
0.000000
  70
    32
  0
VERTEX
  8
┌▓È_1
  5
435
 10
960.938
 20
-401.798
 30
0.000000
  70
    32
  0
VERTEX
  8
┌▓È_1
  5
436
 10
960.969
 20
-401.821
 30
0.000000
  70
    32
  0
VERTEX
  8
┌▓È_1
  5
437
 10
961.000
 20
-401.844
 30
0.000000
  70
    32
  0
VERTEX
  8
┌▓È_1
  5
438
 10
961.031
 20
-401.866
 30
0.000000
  70
    32
  0
VERTEX
  8
┌▓È_1
  5
439
 10
961.062
 20
-401.888
 30
0.000000
  70
    32
  0
VERTEX
  8
┌▓È_1
  5
43A
 10
961.093
 20
-401.911
 30
0.000000
  70
    32
  0
VERTEX
  8
┌▓È_1
  5
43B
 10
961.125
 20
-401.933
 30
0.000000
  70
    32
  0
VERTEX
  8
┌▓È_1
  5
43C
 10
961.156
 20
-401.955
 30
0.000000
  70
    32
  0
VERTEX
  8
┌▓È_1
  5
43D
 10
961.187
 20
-401.977
 30
0.000000
  70
    32
  0
VERTEX
  8
┌▓È_1
  5
43E
 10
961.218
 20
-401.999
 30
0.000000
  70
    32
  0
VERTEX
  8
┌▓È_1
  5
43F
 10
961.249
 20
-402.021
 30
0.000000
  70
    32
  0
VERTEX
  8
┌▓È_1
  5
440
 10
961.281
 20
-402.043
 30
0.000000
  70
    32
  0
VERTEX
  8
┌▓È_1
  5
441
 10
961.312
 20
-402.065
 30
0.000000
  70
    32
  0
VERTEX
  8
┌▓È_1
  5
442
 10
961.344
 20
-402.087
 30
0.000000
  70
    32
  0
VERTEX
  8
┌▓È_1
  5
443
 10
961.375
 20
-402.109
 30
0.000000
  70
    32
  0
VERTEX
  8
┌▓È_1
  5
444
 10
961.407
 20
-402.130
 30
0.000000
  70
    32
  0
VERTEX
  8
┌▓È_1
  5
445
 10
961.438
 20
-402.152
 30
0.000000
  70
    32
  0
VERTEX
  8
┌▓È_1
  5
446
 10
961.470
 20
-402.173
 30
0.000000
  70
    32
  0
VERTEX
  8
┌▓È_1
  5
447
 10
961.501
 20
-402.195
 30
0.000000
  70
    32
  0
VERTEX
  8
┌▓È_1
  5
448
 10
961.533
 20
-402.216
 30
0.000000
  70
    32
  0
VERTEX
  8
┌▓È_1
  5
449
 10
961.565
 20
-402.237
 30
0.000000
  70
    32
  0
VERTEX
  8
┌▓È_1
  5
44A
 10
961.596
 20
-402.259
 30
0.000000
  70
    32
  0
VERTEX
  8
┌▓È_1
  5
44B
 10
961.628
 20
-402.280
 30
0.000000
  70
    32
  0
VERTEX
  8
┌▓È_1
  5
44C
 10
961.660
 20
-402.301
 30
0.000000
  70
    32
  0
VERTEX
  8
┌▓È_1
  5
44D
 10
961.692
 20
-402.322
 30
0.000000
  70
    32
  0
VERTEX
  8
┌▓È_1
  5
44E
 10
961.724
 20
-402.343
 30
0.000000
  70
    32
  0
VERTEX
  8
┌▓È_1
  5
44F
 10
961.756
 20
-402.363
 30
0.000000
  70
    32
  0
VERTEX
  8
┌▓È_1
  5
450
 10
961.788
 20
-402.384
 30
0.000000
  70
    32
  0
VERTEX
  8
┌▓È_1
  5
451
 10
961.820
 20
-402.405
 30
0.000000
  70
    32
  0
VERTEX
  8
┌▓È_1
  5
452
 10
961.852
 20
-402.425
 30
0.000000
  70
    32
  0
VERTEX
  8
┌▓È_1
  5
453
 10
961.884
 20
-402.446
 30
0.000000
  70
    32
  0
VERTEX
  8
┌▓È_1
  5
454
 10
961.916
 20
-402.466
 30
0.000000
  70
    32
  0
VERTEX
  8
┌▓È_1
  5
455
 10
961.948
 20
-402.486
 30
0.000000
  70
    32
  0
VERTEX
  8
┌▓È_1
  5
456
 10
961.980
 20
-402.507
 30
0.000000
  70
    32
  0
VERTEX
  8
┌▓È_1
  5
457
 10
962.013
 20
-402.527
 30
0.000000
  70
    32
  0
VERTEX
  8
┌▓È_1
  5
458
 10
962.045
 20
-402.547
 30
0.000000
  70
    32
  0
VERTEX
  8
┌▓È_1
  5
459
 10
962.077
 20
-402.567
 30
0.000000
  70
    32
  0
VERTEX
  8
┌▓È_1
  5
45A
 10
962.110
 20
-402.587
 30
0.000000
  70
    32
  0
VERTEX
  8
┌▓È_1
  5
45B
 10
962.142
 20
-402.606
 30
0.000000
  70
    32
  0
VERTEX
  8
┌▓È_1
  5
45C
 10
962.175
 20
-402.626
 30
0.000000
  70
    32
  0
VERTEX
  8
┌▓È_1
  5
45D
 10
962.207
 20
-402.646
 30
0.000000
  70
    32
  0
SEQEND
  8
┌▓È_1
  5
45E
  0
POLYLINE
  8
┌▓È_1
  5
45F
  62
5
  66
     1
 10
0.000000
 20
0.000000
 30
0.000000
  70
     8
  0
VERTEX
  8
┌▓È_1
  5
460
 10
966.159
 20
-404.380
 30
0.000000
  70
    32
  0
VERTEX
  8
┌▓È_1
  5
461
 10
966.202
 20
-404.394
 30
0.000000
  70
    32
  0
VERTEX
  8
┌▓È_1
  5
462
 10
966.245
 20
-404.407
 30
0.000000
  70
    32
  0
VERTEX
  8
┌▓È_1
  5
463
 10
966.288
 20
-404.421
 30
0.000000
  70
    32
  0
VERTEX
  8
┌▓È_1
  5
464
 10
966.332
 20
-404.434
 30
0.000000
  70
    32
  0
VERTEX
  8
┌▓È_1
  5
465
 10
966.375
 20
-404.448
 30
0.000000
  70
    32
  0
VERTEX
  8
┌▓È_1
  5
466
 10
966.418
 20
-404.461
 30
0.000000
  70
    32
  0
VERTEX
  8
┌▓È_1
  5
467
 10
966.461
 20
-404.475
 30
0.000000
  70
    32
  0
VERTEX
  8
┌▓È_1
  5
468
 10
966.505
 20
-404.488
 30
0.000000
  70
    32
  0
VERTEX
  8
┌▓È_1
  5
469
 10
966.548
 20
-404.501
 30
0.000000
  70
    32
  0
VERTEX
  8
┌▓È_1
  5
46A
 10
966.591
 20
-404.514
 30
0.000000
  70
    32
  0
VERTEX
  8
┌▓È_1
  5
46B
 10
966.635
 20
-404.527
 30
0.000000
  70
    32
  0
VERTEX
  8
┌▓È_1
  5
46C
 10
966.678
 20
-404.540
 30
0.000000
  70
    32
  0
VERTEX
  8
┌▓È_1
  5
46D
 10
966.722
 20
-404.553
 30
0.000000
  70
    32
  0
VERTEX
  8
┌▓È_1
  5
46E
 10
966.765
 20
-404.566
 30
0.000000
  70
    32
  0
VERTEX
  8
┌▓È_1
  5
46F
 10
966.809
 20
-404.579
 30
0.000000
  70
    32
  0
VERTEX
  8
┌▓È_1
  5
470
 10
966.852
 20
-404.592
 30
0.000000
  70
    32
  0
VERTEX
  8
┌▓È_1
  5
471
 10
966.896
 20
-404.605
 30
0.000000
  70
    32
  0
VERTEX
  8
┌▓È_1
  5
472
 10
966.940
 20
-404.617
 30
0.000000
  70
    32
  0
VERTEX
  8
┌▓È_1
  5
473
 10
966.983
 20
-404.630
 30
0.000000
  70
    32
  0
VERTEX
  8
┌▓È_1
  5
474
 10
967.027
 20
-404.642
 30
0.000000
  70
    32
  0
VERTEX
  8
┌▓È_1
  5
475
 10
967.071
 20
-404.655
 30
0.000000
  70
    32
  0
VERTEX
  8
┌▓È_1
  5
476
 10
967.115
 20
-404.667
 30
0.000000
  70
    32
  0
VERTEX
  8
┌▓È_1
  5
477
 10
967.158
 20
-404.680
 30
0.000000
  70
    32
  0
VERTEX
  8
┌▓È_1
  5
478
 10
967.202
 20
-404.692
 30
0.000000
  70
    32
  0
VERTEX
  8
┌▓È_1
  5
479
 10
967.246
 20
-404.704
 30
0.000000
  70
    32
  0
VERTEX
  8
┌▓È_1
  5
47A
 10
967.290
 20
-404.716
 30
0.000000
  70
    32
  0
VERTEX
  8
┌▓È_1
  5
47B
 10
967.334
 20
-404.729
 30
0.000000
  70
    32
  0
VERTEX
  8
┌▓È_1
  5
47C
 10
967.378
 20
-404.741
 30
0.000000
  70
    32
  0
VERTEX
  8
┌▓È_1
  5
47D
 10
967.422
 20
-404.753
 30
0.000000
  70
    32
  0
VERTEX
  8
┌▓È_1
  5
47E
 10
967.466
 20
-404.765
 30
0.000000
  70
    32
  0
VERTEX
  8
┌▓È_1
  5
47F
 10
967.510
 20
-404.777
 30
0.000000
  70
    32
  0
VERTEX
  8
┌▓È_1
  5
480
 10
967.554
 20
-404.789
 30
0.000000
  70
    32
  0
VERTEX
  8
┌▓È_1
  5
481
 10
967.598
 20
-404.800
 30
0.000000
  70
    32
  0
VERTEX
  8
┌▓È_1
  5
482
 10
967.642
 20
-404.812
 30
0.000000
  70
    32
  0
VERTEX
  8
┌▓È_1
  5
483
 10
967.686
 20
-404.824
 30
0.000000
  70
    32
  0
VERTEX
  8
┌▓È_1
  5
484
 10
967.731
 20
-404.836
 30
0.000000
  70
    32
  0
VERTEX
  8
┌▓È_1
  5
485
 10
967.775
 20
-404.847
 30
0.000000
  70
    32
  0
VERTEX
  8
┌▓È_1
  5
486
 10
967.819
 20
-404.859
 30
0.000000
  70
    32
  0
VERTEX
  8
┌▓È_1
  5
487
 10
967.863
 20
-404.870
 30
0.000000
  70
    32
  0
VERTEX
  8
┌▓È_1
  5
488
 10
967.908
 20
-404.882
 30
0.000000
  70
    32
  0
VERTEX
  8
┌▓È_1
  5
489
 10
967.952
 20
-404.893
 30
0.000000
  70
    32
  0
VERTEX
  8
┌▓È_1
  5
48A
 10
967.996
 20
-404.905
 30
0.000000
  70
    32
  0
VERTEX
  8
┌▓È_1
  5
48B
 10
968.041
 20
-404.916
 30
0.000000
  70
    32
  0
VERTEX
  8
┌▓È_1
  5
48C
 10
968.085
 20
-404.927
 30
0.000000
  70
    32
  0
VERTEX
  8
┌▓È_1
  5
48D
 10
968.129
 20
-404.939
 30
0.000000
  70
    32
  0
VERTEX
  8
┌▓È_1
  5
48E
 10
968.174
 20
-404.950
 30
0.000000
  70
    32
  0
VERTEX
  8
┌▓È_1
  5
48F
 10
968.218
 20
-404.961
 30
0.000000
  70
    32
  0
VERTEX
  8
┌▓È_1
  5
490
 10
968.263
 20
-404.972
 30
0.000000
  70
    32
  0
VERTEX
  8
┌▓È_1
  5
491
 10
968.307
 20
-404.983
 30
0.000000
  70
    32
  0
VERTEX
  8
┌▓È_1
  5
492
 10
968.352
 20
-404.994
 30
0.000000
  70
    32
  0
VERTEX
  8
┌▓È_1
  5
493
 10
968.396
 20
-405.005
 30
0.000000
  70
    32
  0
VERTEX
  8
┌▓È_1
  5
494
 10
968.441
 20
-405.016
 30
0.000000
  70
    32
  0
VERTEX
  8
┌▓È_1
  5
495
 10
968.485
 20
-405.027
 30
0.000000
  70
    32
  0
VERTEX
  8
┌▓È_1
  5
496
 10
968.530
 20
-405.038
 30
0.000000
  70
    32
  0
VERTEX
  8
┌▓È_1
  5
497
 10
968.575
 20
-405.049
 30
0.000000
  70
    32
  0
VERTEX
  8
┌▓È_1
  5
498
 10
968.619
 20
-405.060
 30
0.000000
  70
    32
  0
VERTEX
  8
┌▓È_1
  5
499
 10
968.664
 20
-405.070
 30
0.000000
  70
    32
  0
VERTEX
  8
┌▓È_1
  5
49A
 10
968.709
 20
-405.081
 30
0.000000
  70
    32
  0
VERTEX
  8
┌▓È_1
  5
49B
 10
968.753
 20
-405.092
 30
0.000000
  70
    32
  0
VERTEX
  8
┌▓È_1
  5
49C
 10
968.798
 20
-405.103
 30
0.000000
  70
    32
  0
VERTEX
  8
┌▓È_1
  5
49D
 10
968.843
 20
-405.113
 30
0.000000
  70
    32
  0
VERTEX
  8
┌▓È_1
  5
49E
 10
968.888
 20
-405.124
 30
0.000000
  70
    32
  0
VERTEX
  8
┌▓È_1
  5
49F
 10
968.932
 20
-405.134
 30
0.000000
  70
    32
  0
VERTEX
  8
┌▓È_1
  5
4A0
 10
968.977
 20
-405.145
 30
0.000000
  70
    32
  0
VERTEX
  8
┌▓È_1
  5
4A1
 10
969.022
 20
-405.155
 30
0.000000
  70
    32
  0
VERTEX
  8
┌▓È_1
  5
4A2
 10
969.067
 20
-405.166
 30
0.000000
  70
    32
  0
VERTEX
  8
┌▓È_1
  5
4A3
 10
969.112
 20
-405.176
 30
0.000000
  70
    32
  0
VERTEX
  8
┌▓È_1
  5
4A4
 10
969.157
 20
-405.187
 30
0.000000
  70
    32
  0
VERTEX
  8
┌▓È_1
  5
4A5
 10
969.202
 20
-405.197
 30
0.000000
  70
    32
  0
VERTEX
  8
┌▓È_1
  5
4A6
 10
969.246
 20
-405.207
 30
0.000000
  70
    32
  0
VERTEX
  8
┌▓È_1
  5
4A7
 10
969.291
 20
-405.218
 30
0.000000
  70
    32
  0
VERTEX
  8
┌▓È_1
  5
4A8
 10
969.336
 20
-405.228
 30
0.000000
  70
    32
  0
VERTEX
  8
┌▓È_1
  5
4A9
 10
969.381
 20
-405.238
 30
0.000000
  70
    32
  0
VERTEX
  8
┌▓È_1
  5
4AA
 10
969.426
 20
-405.248
 30
0.000000
  70
    32
  0
VERTEX
  8
┌▓È_1
  5
4AB
 10
969.471
 20
-405.258
 30
0.000000
  70
    32
  0
VERTEX
  8
┌▓È_1
  5
4AC
 10
969.516
 20
-405.269
 30
0.000000
  70
    32
  0
VERTEX
  8
┌▓È_1
  5
4AD
 10
969.561
 20
-405.279
 30
0.000000
  70
    32
  0
VERTEX
  8
┌▓È_1
  5
4AE
 10
969.606
 20
-405.289
 30
0.000000
  70
    32
  0
VERTEX
  8
┌▓È_1
  5
4AF
 10
969.651
 20
-405.299
 30
0.000000
  70
    32
  0
VERTEX
  8
┌▓È_1
  5
4B0
 10
969.696
 20
-405.309
 30
0.000000
  70
    32
  0
VERTEX
  8
┌▓È_1
  5
4B1
 10
969.742
 20
-405.319
 30
0.000000
  70
    32
  0
VERTEX
  8
┌▓È_1
  5
4B2
 10
969.787
 20
-405.329
 30
0.000000
  70
    32
  0
VERTEX
  8
┌▓È_1
  5
4B3
 10
969.832
 20
-405.339
 30
0.000000
  70
    32
  0
VERTEX
  8
┌▓È_1
  5
4B4
 10
969.877
 20
-405.349
 30
0.000000
  70
    32
  0
VERTEX
  8
┌▓È_1
  5
4B5
 10
969.922
 20
-405.359
 30
0.000000
  70
    32
  0
VERTEX
  8
┌▓È_1
  5
4B6
 10
969.967
 20
-405.369
 30
0.000000
  70
    32
  0
VERTEX
  8
┌▓È_1
  5
4B7
 10
970.012
 20
-405.379
 30
0.000000
  70
    32
  0
VERTEX
  8
┌▓È_1
  5
4B8
 10
970.057
 20
-405.388
 30
0.000000
  70
    32
  0
VERTEX
  8
┌▓È_1
  5
4B9
 10
970.103
 20
-405.398
 30
0.000000
  70
    32
  0
VERTEX
  8
┌▓È_1
  5
4BA
 10
970.148
 20
-405.408
 30
0.000000
  70
    32
  0
VERTEX
  8
┌▓È_1
  5
4BB
 10
970.193
 20
-405.418
 30
0.000000
  70
    32
  0
VERTEX
  8
┌▓È_1
  5
4BC
 10
970.238
 20
-405.428
 30
0.000000
  70
    32
  0
VERTEX
  8
┌▓È_1
  5
4BD
 10
970.283
 20
-405.437
 30
0.000000
  70
    32
  0
VERTEX
  8
┌▓È_1
  5
4BE
 10
970.329
 20
-405.447
 30
0.000000
  70
    32
  0
VERTEX
  8
┌▓È_1
  5
4BF
 10
970.374
 20
-405.457
 30
0.000000
  70
    32
  0
VERTEX
  8
┌▓È_1
  5
4C0
 10
970.419
 20
-405.467
 30
0.000000
  70
    32
  0
VERTEX
  8
┌▓È_1
  5
4C1
 10
970.464
 20
-405.476
 30
0.000000
  70
    32
  0
VERTEX
  8
┌▓È_1
  5
4C2
 10
970.510
 20
-405.486
 30
0.000000
  70
    32
  0
VERTEX
  8
┌▓È_1
  5
4C3
 10
970.555
 20
-405.496
 30
0.000000
  70
    32
  0
VERTEX
  8
┌▓È_1
  5
4C4
 10
970.600
 20
-405.505
 30
0.000000
  70
    32
  0
VERTEX
  8
┌▓È_1
  5
4C5
 10
970.646
 20
-405.515
 30
0.000000
  70
    32
  0
VERTEX
  8
┌▓È_1
  5
4C6
 10
970.691
 20
-405.524
 30
0.000000
  70
    32
  0
VERTEX
  8
┌▓È_1
  5
4C7
 10
970.736
 20
-405.534
 30
0.000000
  70
    32
  0
VERTEX
  8
┌▓È_1
  5
4C8
 10
970.781
 20
-405.544
 30
0.000000
  70
    32
  0
VERTEX
  8
┌▓È_1
  5
4C9
 10
970.827
 20
-405.553
 30
0.000000
  70
    32
  0
VERTEX
  8
┌▓È_1
  5
4CA
 10
970.872
 20
-405.563
 30
0.000000
  70
    32
  0
VERTEX
  8
┌▓È_1
  5
4CB
 10
970.917
 20
-405.572
 30
0.000000
  70
    32
  0
VERTEX
  8
┌▓È_1
  5
4CC
 10
970.963
 20
-405.582
 30
0.000000
  70
    32
  0
VERTEX
  8
┌▓È_1
  5
4CD
 10
971.008
 20
-405.591
 30
0.000000
  70
    32
  0
VERTEX
  8
┌▓È_1
  5
4CE
 10
971.053
 20
-405.601
 30
0.000000
  70
    32
  0
VERTEX
  8
┌▓È_1
  5
4CF
 10
971.099
 20
-405.610
 30
0.000000
  70
    32
  0
VERTEX
  8
┌▓È_1
  5
4D0
 10
971.144
 20
-405.620
 30
0.000000
  70
    32
  0
VERTEX
  8
┌▓È_1
  5
4D1
 10
971.190
 20
-405.629
 30
0.000000
  70
    32
  0
VERTEX
  8
┌▓È_1
  5
4D2
 10
971.235
 20
-405.639
 30
0.000000
  70
    32
  0
VERTEX
  8
┌▓È_1
  5
4D3
 10
971.280
 20
-405.648
 30
0.000000
  70
    32
  0
VERTEX
  8
┌▓È_1
  5
4D4
 10
971.326
 20
-405.658
 30
0.000000
  70
    32
  0
VERTEX
  8
┌▓È_1
  5
4D5
 10
971.371
 20
-405.667
 30
0.000000
  70
    32
  0
VERTEX
  8
┌▓È_1
  5
4D6
 10
971.416
 20
-405.677
 30
0.000000
  70
    32
  0
VERTEX
  8
┌▓È_1
  5
4D7
 10
971.462
 20
-405.686
 30
0.000000
  70
    32
  0
VERTEX
  8
┌▓È_1
  5
4D8
 10
971.507
 20
-405.696
 30
0.000000
  70
    32
  0
VERTEX
  8
┌▓È_1
  5
4D9
 10
971.553
 20
-405.705
 30
0.000000
  70
    32
  0
VERTEX
  8
┌▓È_1
  5
4DA
 10
971.598
 20
-405.715
 30
0.000000
  70
    32
  0
VERTEX
  8
┌▓È_1
  5
4DB
 10
971.643
 20
-405.724
 30
0.000000
  70
    32
  0
VERTEX
  8
┌▓È_1
  5
4DC
 10
971.689
 20
-405.733
 30
0.000000
  70
    32
  0
VERTEX
  8
┌▓È_1
  5
4DD
 10
971.734
 20
-405.743
 30
0.000000
  70
    32
  0
VERTEX
  8
┌▓È_1
  5
4DE
 10
971.780
 20
-405.752
 30
0.000000
  70
    32
  0
VERTEX
  8
┌▓È_1
  5
4DF
 10
971.825
 20
-405.762
 30
0.000000
  70
    32
  0
SEQEND
  8
┌▓È_1
  5
4E0
  0
POLYLINE
  8
┌▓È_1
  5
4E1
  62
5
  66
     1
 10
0.000000
 20
0.000000
 30
0.000000
  70
     8
  0
VERTEX
  8
┌▓È_1
  5
4E2
 10
962.920
 20
-399.182
 30
0.000000
  70
    32
  0
VERTEX
  8
┌▓È_1
  5
4E3
 10
962.930
 20
-399.194
 30
0.000000
  70
    32
  0
VERTEX
  8
┌▓È_1
  5
4E4
 10
962.941
 20
-399.206
 30
0.000000
  70
    32
  0
VERTEX
  8
┌▓È_1
  5
4E5
 10
962.952
 20
-399.218
 30
0.000000
  70
    32
  0
VERTEX
  8
┌▓È_1
  5
4E6
 10
962.962
 20
-399.229
 30
0.000000
  70
    32
  0
VERTEX
  8
┌▓È_1
  5
4E7
 10
962.973
 20
-399.241
 30
0.000000
  70
    32
  0
VERTEX
  8
┌▓È_1
  5
4E8
 10
962.983
 20
-399.253
 30
0.000000
  70
    32
  0
VERTEX
  8
┌▓È_1
  5
4E9
 10
962.994
 20
-399.265
 30
0.000000
  70
    32
  0
VERTEX
  8
┌▓È_1
  5
4EA
 10
963.004
 20
-399.276
 30
0.000000
  70
    32
  0
VERTEX
  8
┌▓È_1
  5
4EB
 10
963.015
 20
-399.288
 30
0.000000
  70
    32
  0
VERTEX
  8
┌▓È_1
  5
4EC
 10
963.025
 20
-399.300
 30
0.000000
  70
    32
  0
VERTEX
  8
┌▓È_1
  5
4ED
 10
963.036
 20
-399.312
 30
0.000000
  70
    32
  0
VERTEX
  8
┌▓È_1
  5
4EE
 10
963.047
 20
-399.323
 30
0.000000
  70
    32
  0
VERTEX
  8
┌▓È_1
  5
4EF
 10
963.057
 20
-399.335
 30
0.000000
  70
    32
  0
VERTEX
  8
┌▓È_1
  5
4F0
 10
963.068
 20
-399.347
 30
0.000000
  70
    32
  0
VERTEX
  8
┌▓È_1
  5
4F1
 10
963.078
 20
-399.359
 30
0.000000
  70
    32
  0
VERTEX
  8
┌▓È_1
  5
4F2
 10
963.089
 20
-399.370
 30
0.000000
  70
    32
  0
VERTEX
  8
┌▓È_1
  5
4F3
 10
963.099
 20
-399.382
 30
0.000000
  70
    32
  0
VERTEX
  8
┌▓È_1
  5
4F4
 10
963.110
 20
-399.394
 30
0.000000
  70
    32
  0
VERTEX
  8
┌▓È_1
  5
4F5
 10
963.121
 20
-399.406
 30
0.000000
  70
    32
  0
VERTEX
  8
┌▓È_1
  5
4F6
 10
963.131
 20
-399.417
 30
0.000000
  70
    32
  0
VERTEX
  8
┌▓È_1
  5
4F7
 10
963.142
 20
-399.429
 30
0.000000
  70
    32
  0
VERTEX
  8
┌▓È_1
  5
4F8
 10
963.152
 20
-399.441
 30
0.000000
  70
    32
  0
VERTEX
  8
┌▓È_1
  5
4F9
 10
963.163
 20
-399.453
 30
0.000000
  70
    32
  0
VERTEX
  8
┌▓È_1
  5
4FA
 10
963.174
 20
-399.464
 30
0.000000
  70
    32
  0
VERTEX
  8
┌▓È_1
  5
4FB
 10
963.184
 20
-399.476
 30
0.000000
  70
    32
  0
VERTEX
  8
┌▓È_1
  5
4FC
 10
963.195
 20
-399.488
 30
0.000000
  70
    32
  0
VERTEX
  8
┌▓È_1
  5
4FD
 10
963.205
 20
-399.500
 30
0.000000
  70
    32
  0
VERTEX
  8
┌▓È_1
  5
4FE
 10
963.216
 20
-399.511
 30
0.000000
  70
    32
  0
VERTEX
  8
┌▓È_1
  5
4FF
 10
963.227
 20
-399.523
 30
0.000000
  70
    32
  0
VERTEX
  8
┌▓È_1
  5
500
 10
963.237
 20
-399.535
 30
0.000000
  70
    32
  0
VERTEX
  8
┌▓È_1
  5
501
 10
963.248
 20
-399.546
 30
0.000000
  70
    32
  0
VERTEX
  8
┌▓È_1
  5
502
 10
963.258
 20
-399.558
 30
0.000000
  70
    32
  0
VERTEX
  8
┌▓È_1
  5
503
 10
963.269
 20
-399.570
 30
0.000000
  70
    32
  0
VERTEX
  8
┌▓È_1
  5
504
 10
963.280
 20
-399.581
 30
0.000000
  70
    32
  0
VERTEX
  8
┌▓È_1
  5
505
 10
963.290
 20
-399.593
 30
0.000000
  70
    32
  0
VERTEX
  8
┌▓È_1
  5
506
 10
963.301
 20
-399.605
 30
0.000000
  70
    32
  0
VERTEX
  8
┌▓È_1
  5
507
 10
963.311
 20
-399.616
 30
0.000000
  70
    32
  0
VERTEX
  8
┌▓È_1
  5
508
 10
963.322
 20
-399.628
 30
0.000000
  70
    32
  0
VERTEX
  8
┌▓È_1
  5
509
 10
963.333
 20
-399.640
 30
0.000000
  70
    32
  0
VERTEX
  8
┌▓È_1
  5
50A
 10
963.343
 20
-399.651
 30
0.000000
  70
    32
  0
VERTEX
  8
┌▓È_1
  5
50B
 10
963.354
 20
-399.663
 30
0.000000
  70
    32
  0
VERTEX
  8
┌▓È_1
  5
50C
 10
963.365
 20
-399.675
 30
0.000000
  70
    32
  0
VERTEX
  8
┌▓È_1
  5
50D
 10
963.375
 20
-399.686
 30
0.000000
  70
    32
  0
VERTEX
  8
┌▓È_1
  5
50E
 10
963.386
 20
-399.698
 30
0.000000
  70
    32
  0
VERTEX
  8
┌▓È_1
  5
50F
 10
963.397
 20
-399.709
 30
0.000000
  70
    32
  0
VERTEX
  8
┌▓È_1
  5
510
 10
963.407
 20
-399.721
 30
0.000000
  70
    32
  0
VERTEX
  8
┌▓È_1
  5
511
 10
963.418
 20
-399.733
 30
0.000000
  70
    32
  0
VERTEX
  8
┌▓È_1
  5
512
 10
963.429
 20
-399.744
 30
0.000000
  70
    32
  0
VERTEX
  8
┌▓È_1
  5
513
 10
963.439
 20
-399.756
 30
0.000000
  70
    32
  0
VERTEX
  8
┌▓È_1
  5
514
 10
963.450
 20
-399.767
 30
0.000000
  70
    32
  0
VERTEX
  8
┌▓È_1
  5
515
 10
963.461
 20
-399.779
 30
0.000000
  70
    32
  0
VERTEX
  8
┌▓È_1
  5
516
 10
963.471
 20
-399.790
 30
0.000000
  70
    32
  0
VERTEX
  8
┌▓È_1
  5
517
 10
963.482
 20
-399.802
 30
0.000000
  70
    32
  0
VERTEX
  8
┌▓È_1
  5
518
 10
963.493
 20
-399.813
 30
0.000000
  70
    32
  0
VERTEX
  8
┌▓È_1
  5
519
 10
963.504
 20
-399.825
 30
0.000000
  70
    32
  0
VERTEX
  8
┌▓È_1
  5
51A
 10
963.514
 20
-399.836
 30
0.000000
  70
    32
  0
VERTEX
  8
┌▓È_1
  5
51B
 10
963.525
 20
-399.848
 30
0.000000
  70
    32
  0
VERTEX
  8
┌▓È_1
  5
51C
 10
963.536
 20
-399.859
 30
0.000000
  70
    32
  0
VERTEX
  8
┌▓È_1
  5
51D
 10
963.547
 20
-399.871
 30
0.000000
  70
    32
  0
VERTEX
  8
┌▓È_1
  5
51E
 10
963.557
 20
-399.882
 30
0.000000
  70
    32
  0
VERTEX
  8
┌▓È_1
  5
51F
 10
963.568
 20
-399.894
 30
0.000000
  70
    32
  0
VERTEX
  8
┌▓È_1
  5
520
 10
963.579
 20
-399.905
 30
0.000000
  70
    32
  0
VERTEX
  8
┌▓È_1
  5
521
 10
963.590
 20
-399.917
 30
0.000000
  70
    32
  0
VERTEX
  8
┌▓È_1
  5
522
 10
963.600
 20
-399.928
 30
0.000000
  70
    32
  0
VERTEX
  8
┌▓È_1
  5
523
 10
963.611
 20
-399.939
 30
0.000000
  70
    32
  0
VERTEX
  8
┌▓È_1
  5
524
 10
963.622
 20
-399.951
 30
0.000000
  70
    32
  0
VERTEX
  8
┌▓È_1
  5
525
 10
963.633
 20
-399.962
 30
0.000000
  70
    32
  0
VERTEX
  8
┌▓È_1
  5
526
 10
963.644
 20
-399.974
 30
0.000000
  70
    32
  0
VERTEX
  8
┌▓È_1
  5
527
 10
963.654
 20
-399.985
 30
0.000000
  70
    32
  0
VERTEX
  8
┌▓È_1
  5
528
 10
963.665
 20
-399.996
 30
0.000000
  70
    32
  0
VERTEX
  8
┌▓È_1
  5
529
 10
963.676
 20
-400.008
 30
0.000000
  70
    32
  0
VERTEX
  8
┌▓È_1
  5
52A
 10
963.687
 20
-400.019
 30
0.000000
  70
    32
  0
VERTEX
  8
┌▓È_1
  5
52B
 10
963.698
 20
-400.030
 30
0.000000
  70
    32
  0
VERTEX
  8
┌▓È_1
  5
52C
 10
963.709
 20
-400.042
 30
0.000000
  70
    32
  0
VERTEX
  8
┌▓È_1
  5
52D
 10
963.719
 20
-400.053
 30
0.000000
  70
    32
  0
VERTEX
  8
┌▓È_1
  5
52E
 10
963.730
 20
-400.064
 30
0.000000
  70
    32
  0
VERTEX
  8
┌▓È_1
  5
52F
 10
963.741
 20
-400.075
 30
0.000000
  70
    32
  0
VERTEX
  8
┌▓È_1
  5
530
 10
963.752
 20
-400.087
 30
0.000000
  70
    32
  0
VERTEX
  8
┌▓È_1
  5
531
 10
963.763
 20
-400.098
 30
0.000000
  70
    32
  0
VERTEX
  8
┌▓È_1
  5
532
 10
963.774
 20
-400.109
 30
0.000000
  70
    32
  0
VERTEX
  8
┌▓È_1
  5
533
 10
963.785
 20
-400.120
 30
0.000000
  70
    32
  0
VERTEX
  8
┌▓È_1
  5
534
 10
963.796
 20
-400.132
 30
0.000000
  70
    32
  0
VERTEX
  8
┌▓È_1
  5
535
 10
963.807
 20
-400.143
 30
0.000000
  70
    32
  0
VERTEX
  8
┌▓È_1
  5
536
 10
963.818
 20
-400.154
 30
0.000000
  70
    32
  0
VERTEX
  8
┌▓È_1
  5
537
 10
963.829
 20
-400.165
 30
0.000000
  70
    32
  0
VERTEX
  8
┌▓È_1
  5
538
 10
963.839
 20
-400.176
 30
0.000000
  70
    32
  0
VERTEX
  8
┌▓È_1
  5
539
 10
963.850
 20
-400.187
 30
0.000000
  70
    32
  0
VERTEX
  8
┌▓È_1
  5
53A
 10
963.861
 20
-400.198
 30
0.000000
  70
    32
  0
VERTEX
  8
┌▓È_1
  5
53B
 10
963.872
 20
-400.209
 30
0.000000
  70
    32
  0
VERTEX
  8
┌▓È_1
  5
53C
 10
963.883
 20
-400.220
 30
0.000000
  70
    32
  0
VERTEX
  8
┌▓È_1
  5
53D
 10
963.894
 20
-400.232
 30
0.000000
  70
    32
  0
VERTEX
  8
┌▓È_1
  5
53E
 10
963.905
 20
-400.243
 30
0.000000
  70
    32
  0
VERTEX
  8
┌▓È_1
  5
53F
 10
963.916
 20
-400.254
 30
0.000000
  70
    32
  0
VERTEX
  8
┌▓È_1
  5
540
 10
963.928
 20
-400.265
 30
0.000000
  70
    32
  0
VERTEX
  8
┌▓È_1
  5
541
 10
963.939
 20
-400.276
 30
0.000000
  70
    32
  0
VERTEX
  8
┌▓È_1
  5
542
 10
963.950
 20
-400.287
 30
0.000000
  70
    32
  0
VERTEX
  8
┌▓È_1
  5
543
 10
963.961
 20
-400.298
 30
0.000000
  70
    32
  0
VERTEX
  8
┌▓È_1
  5
544
 10
963.972
 20
-400.308
 30
0.000000
  70
    32
  0
VERTEX
  8
┌▓È_1
  5
545
 10
963.983
 20
-400.319
 30
0.000000
  70
    32
  0
VERTEX
  8
┌▓È_1
  5
546
 10
963.994
 20
-400.330
 30
0.000000
  70
    32
  0
VERTEX
  8
┌▓È_1
  5
547
 10
964.005
 20
-400.341
 30
0.000000
  70
    32
  0
VERTEX
  8
┌▓È_1
  5
548
 10
964.016
 20
-400.352
 30
0.000000
  70
    32
  0
VERTEX
  8
┌▓È_1
  5
549
 10
964.027
 20
-400.363
 30
0.000000
  70
    32
  0
VERTEX
  8
┌▓È_1
  5
54A
 10
964.038
 20
-400.374
 30
0.000000
  70
    32
  0
VERTEX
  8
┌▓È_1
  5
54B
 10
964.050
 20
-400.385
 30
0.000000
  70
    32
  0
VERTEX
  8
┌▓È_1
  5
54C
 10
964.061
 20
-400.395
 30
0.000000
  70
    32
  0
VERTEX
  8
┌▓È_1
  5
54D
 10
964.072
 20
-400.406
 30
0.000000
  70
    32
  0
VERTEX
  8
┌▓È_1
  5
54E
 10
964.083
 20
-400.417
 30
0.000000
  70
    32
  0
VERTEX
  8
┌▓È_1
  5
54F
 10
964.094
 20
-400.428
 30
0.000000
  70
    32
  0
VERTEX
  8
┌▓È_1
  5
550
 10
964.106
 20
-400.438
 30
0.000000
  70
    32
  0
VERTEX
  8
┌▓È_1
  5
551
 10
964.117
 20
-400.449
 30
0.000000
  70
    32
  0
VERTEX
  8
┌▓È_1
  5
552
 10
964.128
 20
-400.460
 30
0.000000
  70
    32
  0
VERTEX
  8
┌▓È_1
  5
553
 10
964.139
 20
-400.470
 30
0.000000
  70
    32
  0
VERTEX
  8
┌▓È_1
  5
554
 10
964.151
 20
-400.481
 30
0.000000
  70
    32
  0
VERTEX
  8
┌▓È_1
  5
555
 10
964.162
 20
-400.492
 30
0.000000
  70
    32
  0
VERTEX
  8
┌▓È_1
  5
556
 10
964.173
 20
-400.502
 30
0.000000
  70
    32
  0
VERTEX
  8
┌▓È_1
  5
557
 10
964.184
 20
-400.513
 30
0.000000
  70
    32
  0
VERTEX
  8
┌▓È_1
  5
558
 10
964.196
 20
-400.523
 30
0.000000
  70
    32
  0
VERTEX
  8
┌▓È_1
  5
559
 10
964.207
 20
-400.534
 30
0.000000
  70
    32
  0
VERTEX
  8
┌▓È_1
  5
55A
 10
964.218
 20
-400.544
 30
0.000000
  70
    32
  0
VERTEX
  8
┌▓È_1
  5
55B
 10
964.230
 20
-400.555
 30
0.000000
  70
    32
  0
VERTEX
  8
┌▓È_1
  5
55C
 10
964.241
 20
-400.565
 30
0.000000
  70
    32
  0
VERTEX
  8
┌▓È_1
  5
55D
 10
964.252
 20
-400.576
 30
0.000000
  70
    32
  0
VERTEX
  8
┌▓È_1
  5
55E
 10
964.264
 20
-400.586
 30
0.000000
  70
    32
  0
VERTEX
  8
┌▓È_1
  5
55F
 10
964.275
 20
-400.597
 30
0.000000
  70
    32
  0
VERTEX
  8
┌▓È_1
  5
560
 10
964.287
 20
-400.607
 30
0.000000
  70
    32
  0
VERTEX
  8
┌▓È_1
  5
561
 10
964.298
 20
-400.617
 30
0.000000
  70
    32
  0
SEQEND
  8
┌▓È_1
  5
562
  0
INSERT
  5
C1
  8
┌▓È_1
  6
BORDER
  2
CLUMP7
 10
0.0
 20
0.0
 30
0.0
  0
INSERT
  5
C9
  8
┌▓È_1
  6
BORDER
  2
CLUMP8
 10
0.0
 20
0.0
 30
0.0
  0
INSERT
  5
D1
  8
┌▓È_1
  6
BORDER
  2
CLUMP9
 10
0.0
 20
0.0
 30
0.0
  0
INSERT
  5
D9
  8
┌▓È_1
  6
BORDER
  2
CLUMP10
 10
0.0
 20
0.0
 30
0.0
  0
LINE
  5
E0
  8
┌▓È_1
 62
     5
 10
870.4725720432001
 20
-243.7813302294
 30
0.0
 11
870.4725720432001
 21
-93.781330229400012
 31
0.0
  0
LINE
  5
E1
  8
┌▓È_1
 62
     5
 10
975.37292900289992
 20
-401.4417722323999
 30
0.0
 11
975.37292900289992
 21
-404.32177223240001
 31
0.0
  0
LINE
  5
E2
  8
┌▓È_1
 62
     5
 10
943.56798706869995
 20
-402.5617722323999
 30
0.0
 11
943.56798706869995
 21
-400.16177223239998
 31
0.0
  0
LINE
  5
E3
  8
┌▓È_1
 62
     5
 10
985.92833592660008
 20
-404.32177223240001
 30
0.0
 11
989.7729290028999
 21
-404.32177223240001
 31
0.0
  0
LINE
  5
E4
  8
┌▓È_1
 62
     5
 10
953.16798706869997
 20
-394.56177223240002
 30
0.0
 11
946.76798706869999
 21
-394.56177223240002
 31
0.0
  0
LINE
  5
E5
  8
┌▓È_1
 62
     5
 10
957.42495676559997
 20
-394.56177223240002
 30
0.0
 11
957.42495676559997
 21
-397.44177223240001
 31
0.0
  0
ARC
  5
E6
  8
┌▓È_1
 62
     5
 10
945.96798706869993
 20
-400.96177223239999
 30
0.0
 40
4.7999999999999989
 50
270.0
 51
0.0
  0
LINE
  5
E7
  8
┌▓È_1
 62
     5
 10
983.66824117220006
 20
-396.46780600760002
 30
0.0
 11
984.97292900289995
 21
-394.56177223240002
 31
0.0
  0
LINE
  5
E8
  8
┌▓È_1
 62
     5
 10
946.76798706869999
 20
-397.76177223240001
 30
0.0
 11
943.56798706869995
 21
-397.76177223240001
 31
0.0
  0
LINE
  5
E9
  8
┌▓È_1
 62
     5
 10
945.96798706869993
 20
-394.56177223240002
 30
0.0
 11
939.56798706869995
 21
-394.56177223240002
 31
0.0
  0
LINE
  5
EA
  8
┌▓È_1
 62
     5
 10
943.56798706869995
 20
-396.96177223239999
 30
0.0
 11
945.96798706869993
 21
-394.56177223240002
 31
0.0
  0
LINE
  5
EB
  8
┌▓È_1
 62
     5
 10
939.56798706869995
 20
-394.56177223240002
 30
0.0
 11
939.56798706869995
 21
-397.76177223240001
 31
0.0
  0
LINE
  5
EC
  8
┌▓È_1
 62
     5
 10
979.37079566950001
 20
-397.28177223239999
 30
0.0
 11
978.57292900289985
 21
-394.56177223240002
 31
0.0
  0
INSERT
  5
ED
  8
0
  6
CONTINUOUS
  2
*U39
 10
0.0
 20
0.0
 30
0.0
  0
INSERT
  5
EE
  8
0
  6
CONTINUOUS
  2
*U40
 10
0.0
 20
0.0
 30
0.0
  0
INSERT
  5
EF
  8
0
  6
CONTINUOUS
  2
*U41
 10
0.0
 20
0.0
 30
0.0
  0
INSERT
  5
F0
  8
0
  6
CONTINUOUS
  2
*U42
 10
0.0
 20
0.0
 30
0.0
  0
ARC
  5
F1
  8
┌▓È_1
 62
     5
 10
959.34495676560005
 20
-397.28177223239999
 30
0.0
 40
6.0800000000000001
 50
270.0
 51
298.08590481520002
  0
INSERT
  5
F2
  8
0
  6
CONTINUOUS
  2
*U43
 10
0.0
 20
0.0
 30
0.0
  0
INSERT
  5
F3
  8
0
  6
CONTINUOUS
  2
*U44
 10
0.0
 20
0.0
 30
0.0
  0
INSERT
  5
F4
  8
0
  6
CONTINUOUS
  2
*U45
 10
0.0
 20
0.0
 30
0.0
  0
INSERT
  5
F5
  8
0
  6
CONTINUOUS
  2
*U46
 10
0.0
 20
0.0
 30
0.0
  0
INSERT
  5
F6
  8
0
  6
CONTINUOUS
  2
*U47
 10
0.0
 20
0.0
 30
0.0
  0
INSERT
  5
F7
  8
0
  6
CONTINUOUS
  2
*U48
 10
0.0
 20
0.0
 30
0.0
  0
INSERT
  5
F8
  8
0
  6
CONTINUOUS
  2
*U49
 10
0.0
 20
0.0
 30
0.0
  0
INSERT
  5
F9
  8
0
  6
CONTINUOUS
  2
*U50
 10
0.0
 20
0.0
 30
0.0
  0
ARC
  5
FA
  8
┌▓È_1
 62
     5
 10
961.42495676559986
 20
-396.96177223239999
 30
0.0
 40
8.8000000000000007
 50
270.0
 51
302.54495885400001
  0
LINE
  5
FB
  8
┌▓È_1
 62
     5
 10
937.72622097020007
 20
-400.16177223239998
 30
0.0
 11
939.3262209702001
 21
-400.16177223239998
 31
0.0
  0
LINE
  5
FC
  8
┌▓È_1
 62
     5
 10
975.37292900289992
 20
-401.4417722323999
 30
0.0
 11
980.59106233619991
 21
-401.4417722323999
 31
0.0
  0
LINE
  5
FD
  8
┌▓È_1
 62
     5
 10
953.16798706869997
 20
-397.76177223240001
 30
0.0
 11
950.76798706869988
 21
-397.76177223240001
 31
0.0
  0
LINE
  5
FE
  8
┌▓È_1
 62
     5
 10
950.76798706869988
 20
-397.76177223240001
 30
0.0
 11
950.76798706869988
 21
-396.96177223239999
 31
0.0
  0
LINE
  5
FF
  8
┌▓È_1
 62
     5
 10
975.37292900289992
 20
-397.28177223239999
 30
0.0
 11
979.37079566950001
 21
-397.28177223239999
 31
0.0
  0
LINE
  5
100
  8
┌▓È_1
 62
     5
 10
946.76798706869999
 20
-400.16177223239998
 30
0.0
 11
946.76798706869999
 21
-400.96177223239999
 31
0.0
  0
LINE
  5
101
  8
┌▓È_1
 62
     5
 10
943.56798706869995
 20
-400.16177223239998
 30
0.0
 11
946.76798706869999
 21
-400.16177223239998
 31
0.0
  0
LINE
  5
102
  8
┌▓È_1
 62
     5
 10
986.57292900289985
 20
-406.5617722323999
 30
0.0
 11
985.92833592660008
 21
-404.32177223240001
 31
0.0
  0
LINE
  5
103
  8
┌▓È_1
 62
     5
 10
985.0995733998999
 20
-401.4417722323999
 30
0.0
 11
989.7729290028999
 21
-401.4417722323999
 31
0.0
  0
ARC
  5
104
  8
┌▓È_1
 62
     5
 10
961.42495676559986
 20
-396.96177223239999
 30
0.0
 40
8.8000000000000007
 50
322.48761197969998
 51
0.0
  0
LINE
  5
105
  8
┌▓È_1
 62
     5
 10
975.37292900289992
 20
-404.32177223240001
 30
0.0
 11
981.43586233619999
 21
-404.32177223240001
 31
0.0
  0
LINE
  5
106
  8
┌▓È_1
 62
     5
 10
943.56798706869995
 20
-397.76177223240001
 30
0.0
 11
943.56798706869995
 21
-396.96177223239999
 31
0.0
  0
LINE
  5
107
  8
┌▓È_1
 62
     5
 10
957.42495676559997
 20
-405.76177223240001
 30
0.0
 11
957.42495676559997
 21
-403.36177223240003
 31
0.0
  0
LINE
  5
108
  8
┌▓È_1
 62
     5
 10
939.56798706869995
 20
-397.76177223240001
 30
0.0
 11
937.72622097020007
 21
-397.76177223240001
 31
0.0
  0
LINE
  5
109
  8
┌▓È_1
 62
     5
 10
989.7729290028999
 20
-401.4417722323999
 30
0.0
 11
989.7729290028999
 21
-404.32177223240001
 31
0.0
  0
LINE
  5
10A
  8
┌▓È_1
 62
     5
 10
980.59106233619991
 20
-401.4417722323999
 30
0.0
 11
980.21559566949986
 21
-400.16177223239998
 31
0.0
  0
LINE
  5
10B
  8
┌▓È_1
 62
     5
 10
939.56798706869995
 20
-400.16177223239998
 30
0.0
 11
939.3262209702001
 21
-400.16177223239998
 31
0.0
  0
LINE
  5
10C
  8
┌▓È_1
 62
     5
 10
939.56798706869995
 20
-403.36177223240003
 30
0.0
 11
939.56798706869995
 21
-405.76177223240001
 31
0.0
  0
LINE
  5
10D
  8
┌▓È_1
 62
     5
 10
985.0995733998999
 20
-401.4417722323999
 30
0.0
 11
984.7312344991999
 21
-400.16177223239998
 31
0.0
  0
LINE
  5
10E
  8
┌▓È_1
 62
     5
 10
982.09292900289995
 20
-406.5617722323999
 30
0.0
 11
981.43586233619999
 21
-404.32177223240001
 31
0.0
  0
LINE
  5
10F
  8
┌▓È_1
 62
     5
 10
944.3679870686999
 20
-403.36177223240003
 30
0.0
 11
939.56798706869995
 21
-403.36177223240003
 31
0.0
  0
LINE
  5
110
  8
┌▓È_1
 62
     5
 10
957.42495676559997
 20
-397.44177223240001
 30
0.0
 11
965.42495676559997
 21
-397.44177223240001
 31
0.0
  0
LINE
  5
111
  8
┌▓È_1
 62
     5
 10
989.7729290028999
 20
-397.28177223239999
 30
0.0
 11
989.7729290028999
 21
-400.16177223239998
 31
0.0
  0
LINE
  5
112
  8
┌▓È_1
 62
     5
 10
975.37292900289992
 20
-400.16177223239998
 30
0.0
 11
980.21559566949986
 21
-400.16177223239998
 31
0.0
  0
LINE
  5
113
  8
┌▓È_1
 62
     5
 10
970.22495676559981
 20
-396.96177223239999
 30
0.0
 11
971.82495676559995
 21
-394.56177223240002
 31
0.0
  0
LINE
  5
114
  8
┌▓È_1
 62
     5
 10
984.7312344991999
 20
-400.16177223239998
 30
0.0
 11
989.7729290028999
 21
-400.16177223239998
 31
0.0
  0
LINE
  5
115
  8
┌▓È_1
 62
     5
 10
946.76798706869999
 20
-394.56177223240002
 30
0.0
 11
946.76798706869999
 21
-397.76177223240001
 31
0.0
  0
ARC
  5
116
  8
┌▓È_1
 62
     5
 10
944.3679870686999
 20
-400.96177223239999
 30
0.0
 40
2.399999999999999
 50
270.0
 51
0.0
  0
LINE
  5
117
  8
┌▓È_1
 62
     5
 10
964.68305675229999
 20
-400.19228568049999
 30
0.0
 11
964.29810346219995
 21
-400.61746705740001
 31
0.0
  0
LINE
  5
118
  8
┌▓È_1
 62
     5
 10
957.42495676559997
 20
-398.27714866029999
 30
0.0
 11
963.82495676559995
 21
-398.27714866029999
 31
0.0
  0
LINE
  5
119
  8
┌▓È_1
 62
     5
 10
950.76798706869988
 20
-400.96177223239999
 30
0.0
 11
950.76798706869988
 21
-400.16177223239998
 31
0.0
  0
LINE
  5
11A
  8
┌▓È_1
 62
     5
 10
975.37292900289992
 20
-397.28177223239999
 30
0.0
 11
975.37292900289992
 21
-400.16177223239998
 31
0.0
  0
LINE
  5
11B
  8
┌▓È_1
 10
967.17358433669995
 20
-357.81804897940009
 30
0.0
 11
967.17358433669995
 21
-391.81804897939998
 31
0.0
  0
LINE
  5
11C
  8
┌▓È_1
 10
903.17358433669995
 20
-357.81804897940009
 30
0.0
 11
903.17358433669995
 21
-374.81804897939998
 31
0.0
  0
LINE
  5
11D
  8
┌▓È_1
 10
999.17358433669995
 20
-357.81804897940009
 30
0.0
 11
999.17358433669995
 21
-408.81804897939998
 31
0.0
  0
LINE
  5
11E
  8
┌▓È_1
 10
871.17358433669995
 20
-357.81804897940009
 30
0.0
 11
871.17358433669995
 21
-408.81804897939998
 31
0.0
  0
LINE
  5
11F
  8
┌▓È_1
 62
     5
 10
983.90247197259987
 20
-397.28177223239999
 30
0.0
 11
989.7729290028999
 21
-397.28177223239999
 31
0.0
  0
INSERT
  5
120
  8
0
  6
CONTINUOUS
  2
*U51
 10
0.0
 20
0.0
 30
0.0
  0
LINE
  5
121
  8
┌▓È_1
 62
     5
 10
939.56798706869995
 20
-400.16177223239998
 30
0.0
 11
939.56798706869995
 21
-402.5617722323999
 31
0.0
  0
LINE
  5
122
  8
┌▓È_1
 62
     5
 10
968.40530772899979
 20
-402.32038216669991
 30
0.0
 11
968.12034443330003
 21
-402.59938719740001
 31
0.0
  0
INSERT
  5
123
  8
0
  6
CONTINUOUS
  2
*U52
 10
0.0
 20
0.0
 30
0.0
  0
LINE
  5
124
  8
┌▓È_1
 62
     5
 10
957.42495676559997
 20
-403.36177223240003
 30
0.0
 11
957.42495676559997
 21
-405.76177223240001
 31
0.0
  0
LINE
  5
125
  8
┌▓È_1
 62
     5
 10
957.42495676559997
 20
-403.36177223240003
 30
0.0
 11
959.34495676560005
 21
-403.36177223240003
 31
0.0
  0
LINE
  5
126
  8
┌▓È_1
 62
     5
 10
978.57292900289985
 20
-394.56177223240002
 30
0.0
 11
984.97292900289995
 21
-394.56177223240002
 31
0.0
  0
LINE
  5
127
  8
┌▓È_1
 62
     5
 10
970.22495676559981
 20
-396.96177223239999
 30
0.0
 11
971.82495676559995
 21
-394.56177223240002
 31
0.0
  0
LINE
  5
128
  8
┌▓È_1
 62
     5
 10
939.56798706869995
 20
-405.76177223240001
 30
0.0
 11
945.96798706869993
 21
-405.76177223240001
 31
0.0
  0
LINE
  5
129
  8
┌▓È_1
 62
     5
 10
957.42495676559997
 20
-405.76177223240001
 30
0.0
 11
961.42495676559986
 21
-405.76177223240001
 31
0.0
  0
ARC
  5
12A
  8
┌▓È_1
 62
     5
 10
959.34495676560005
 20
-397.28177223239999
 30
0.0
 40
6.0800000000000001
 50
331.39928138329998
 51
358.49204224580001
  0
LINE
  5
12B
  8
┌▓È_1
 62
     5
 10
950.76798706869988
 20
-400.16177223239998
 30
0.0
 11
953.16798706869997
 21
-400.16177223239998
 31
0.0
  0
DIMENSION
  5
13A
  8
Éíû@É³
  2
*D13
 10
668.55450881579998
 20
-261.59854710249999
 30
0.0
 11
706.05450881579998
 21
-261.59854710249999
 31
0.0
 70
   128
  1
<>
 13
668.55450881579998
 23
-239.2813302294
 33
0.0
 14
743.55450881579998
 24
-243.7813302294
 34
0.0
 50
180.0
  0
INSERT
  5
13B
  8
0
  6
CONTINUOUS
  2
*U53
 10
0.0
 20
0.0
 30
0.0
  0
LINE
  5
13C
  8
┌▓È_1
 62
     5
 10
978.35931921240001
 20
-160.66901512519999
 30
0.0
 11
978.35931921240001
 21
-165.66901512519999
 31
0.0
  0
LINE
  5
13D
  8
┌▓È_1
 62
     5
 10
1003.3593192124
 20
-160.66901512519999
 30
0.0
 11
1003.3593192124
 21
-165.66901512519999
 31
0.0
  0
LINE
  5
13E
  8
┌▓È_1
 62
     5
 10
1003.3593192124
 20
-160.66901512519999
 30
0.0
 11
1012.1093192124
 21
-151.91901512519999
 31
0.0
  0
LINE
  5
13F
  8
┌▓È_1
 62
     5
 10
969.6093192123999
 20
-151.91901512519999
 30
0.0
 11
978.35931921240001
 21
-160.66901512519999
 31
0.0
  0
LINE
  5
140
  8
┌▓È_1
  6
BORDER
 62
     3
 10
990.85931921240001
 20
-146.40229377099999
 30
0.0
 11
990.85931921240001
 21
-181.90229377099999
 31
0.0
  0
LINE
  5
141
  8
┌▓È_1
 62
     5
 10
954.92918958279995
 20
-151.91901512519999
 30
0.0
 11
1027.9278006939001
 21
-151.91901512519999
 31
0.0
  0
LINE
  5
142
  8
┌▓È_1
 62
     5
 10
954.92918958279995
 20
-174.41901512519999
 30
0.0
 11
1027.9278006939001
 21
-174.41901512519999
 31
0.0
  0
LINE
  5
143
  8
┌▓È_1
 62
     5
 10
978.35931921240001
 20
-165.66901512519999
 30
0.0
 11
1003.3593192124
 21
-165.66901512519999
 31
0.0
  0
LINE
  5
144
  8
┌▓È_1
 62
     5
 10
978.35931921240001
 20
-160.66901512519999
 30
0.0
 11
1003.3593192124
 21
-160.66901512519999
 31
0.0
  0
LINE
  5
145
  8
┌▓È_1
 62
     5
 10
1003.3593192124
 20
-165.66901512519999
 30
0.0
 11
1012.1093192124
 21
-174.41901512519999
 31
0.0
  0
LINE
  5
146
  8
┌▓È_1
 62
     5
 10
978.35931921240001
 20
-165.66901512519999
 30
0.0
 11
969.6093192123999
 21
-174.41901512519999
 31
0.0
  0
LINE
  5
147
  8
┌▓È_1
 62
     5
 10
983.90247197259987
 20
-397.28177223239999
 30
0.0
 11
983.66824117220006
 21
-396.46780600760002
 31
0.0
  0
LINE
  5
148
  8
┌▓È_1
 62
     5
 10
971.82495676559995
 20
-394.56177223240002
 30
0.0
 11
957.42495676559997
 21
-394.56177223240002
 31
0.0
  0
LINE
  5
149
  8
┌▓È_1
 62
     5
 10
939.56798706869995
 20
-402.5617722323999
 30
0.0
 11
943.56798706869995
 21
-402.5617722323999
 31
0.0
  0
LINE
  5
14A
  8
┌▓È_1
 62
     5
 10
950.76798706869988
 20
-396.96177223239999
 30
0.0
 11
953.16798706869997
 21
-394.56177223240002
 31
0.0
  0
LINE
  5
14B
  8
┌▓È_1
 10
871.17358433669995
 20
-391.81804897939998
 30
0.0
 11
1111.1735843367001
 21
-391.81804897939998
 31
0.0
  0
LINE
  5
14C
  8
┌▓È_1
 10
871.17358433669995
 20
-357.81804897940009
 30
0.0
 11
1111.1735843367001
 21
-357.81804897940009
 31
0.0
  0
INSERT
  5
14D
  8
0
  6
CONTINUOUS
  2
*U54
 10
0.0
 20
0.0
 30
0.0
  0
LINE
  5
14E
  8
┌▓È_1
 62
     5
 10
1111.1735843367001
 20
-408.81804897939998
 30
0.0
 11
1111.1735843367001
 21
-28.8180489794
 31
0.0
  0
LINE
  5
14F
  8
┌▓È_1
 62
     5
 10
561.17358433669995
 20
-408.81804897939998
 30
0.0
 11
1111.1735843367001
 21
-408.81804897939998
 31
0.0
  0
LINE
  5
150
  8
┌▓È_1
 62
     5
 10
561.17358433669995
 20
-28.8180489794
 30
0.0
 11
1111.1735843367001
 21
-28.8180489794
 31
0.0
  0
LINE
  5
151
  8
┌▓È_1
 10
999.17358433669995
 20
-374.81804897939998
 30
0.0
 11
1111.1735843367001
 21
-374.81804897939998
 31
0.0
  0
LINE
  5
152
  8
┌▓È_1
 62
     5
 10
561.17358433669995
 20
-408.81804897939998
 30
0.0
 11
561.17358433669995
 21
-28.8180489794
 31
0.0
  0
DIMENSION
  5
161
  8
Éíû@É³
  2
*D14
 10
1003.3593192124
 20
-130.56682436360001
 30
0.0
 11
990.85931921240001
 21
-130.56682436360001
 31
0.0
 70
   128
  1
%%c5
 13
1003.3593192124
 23
-160.66901512519999
 33
0.0
 14
978.35931921240001
 24
-160.66901512519999
 34
0.0
  0
DIMENSION
  5
170
  8
Éíû@É³
  2
*D15
 10
1012.1093192124
 20
-118.3690842506
 30
0.0
 11
990.85931921240001
 21
-118.3690842506
 31
0.0
 70
   128
  1
%%c8.5
 13
1012.1093192124
 23
-151.91901512519999
 33
0.0
 14
969.6093192123999
 24
-151.91901512519999
 34
0.0
  0
DIMENSION
  5
17E
  8
Éíû@É³
  2
*D55
 10
1008.236733705637
 20
-108.31562133245291
 30
0.0
 11
990.85931921240001
 21
-106.02784131280001
 31
0.0
 70
   133
  1
<>
 13
969.07898912660005
 23
-151.38868503929999
 33
0.0
 14
1012.6396492983
 24
-151.38868503929999
 34
0.0
 15
990.85931921240001
 25
-173.16901512519999
 35
0.0
1001
ACAD
1000
DSTYLE
1002
{
1070
   271
1070
     0
1002
}
  0
DIMENSION
  5
18D
  8
Éíû@É³
  2
*D17
 10
969.6093192123999
 20
-196.1476153241
 30
0.0
 11
990.85931921240001
 21
-196.1476153241
 31
0.0
 70
   128
  1
%%c8.5
 13
969.6093192123999
 23
-174.41901512519999
 33
0.0
 14
1012.1093192124
 24
-174.41901512519999
 34
0.0
 50
180.0
  0
DIMENSION
  5
19A
  8
Éíû@É³
  2
*D56
 10
975.86948096483638
 20
-209.11185306268879
 30
0.0
 11
990.85931921240001
 21
-211.0853027064
 31
0.0
 70
   133
  1
<>
 13
1012.6396492983
 23
-174.9493452111
 33
0.0
 14
969.07898912660005
 24
-174.9493452111
 34
0.0
 15
990.85931921240001
 25
-153.16901512519999
 35
0.0
1001
ACAD
1000
DSTYLE
1002
{
1070
   271
1070
     0
1002
}
  0
LINE
  5
19B
  8
┌▓È_1
 10
960.71559337729991
 20
-233.4373027064
 30
0.0
 11
1020.4539869069999
 21
-233.4373027064
 31
0.0
  0
INSERT
  5
19C
  8
0
  6
CONTINUOUS
  2
*U57
 10
0.0
 20
0.0
 30
0.0
  0
DIMENSION
  5
1AB
  8
Éíû@É³
  2
*D19
 10
731.55450881579998
 20
-297.43504655430002
 30
0.0
 11
710.05450881579998
 21
-297.43504655430002
 31
0.0
 70
   128
  1
<>
 13
731.55450881579998
 23
-334.52117397939998
 33
0.0
 14
688.55450881579986
 24
-324.52117397939998
 34
0.0
  0
DIMENSION
  5
1BA
  8
Éíû@É³
  2
*D20
 10
743.55450881579998
 20
-297.52267994150009
 30
0.0
 11
737.55450881579986
 21
-297.52267994150009
 31
0.0
 70
   128
  1
<>
 13
743.55450881579998
 23
-319.52117397939998
 33
0.0
 14
731.55450881579998
 24
-334.52117397939998
 34
0.0
  0
DIMENSION
  5
1C9
  8
Éíû@É³
  2
*D21
 10
688.55450881579986
 20
-297.52267994150009
 30
0.0
 11
678.55450881579986
 21
-297.52267994150009
 31
0.0
 70
   128
  1
<>
 13
688.55450881579986
 23
-324.52117397939998
 33
0.0
 14
668.55450881579998
 24
-319.52117397939998
 34
0.0
  0
DIMENSION
  5
1D8
  8
Éíû@É³
  2
*D22
 10
673.05450881579998
 20
-61.808739083500001
 30
0.0
 11
685.98561775680002
 21
-61.808739083500001
 31
0.0
 70
   128
  1
<>t
 13
673.05450881579998
 23
-93.781330229400012
 33
0.0
 14
668.55450881579998
 24
-93.781330229400012
 34
0.0
  0
DIMENSION
  5
1E7
  8
Éíû@É³
  2
*D23
 10
650.73729194269993
 20
-93.781330229400012
 30
0.0
 11
650.73729194269993
 21
-168.7813302294
 31
0.0
 70
   128
  1
<>
 13
668.55450881579998
 23
-93.781330229400012
 33
0.0
 14
673.05450881579998
 24
-243.7813302294
 34
0.0
 50
90.0
  0
DIMENSION
  5
1F6
  8
Éíû@É³
  2
*D24
 10
854.4725720432001
 20
-75.964113356200002
 30
0.0
 11
827.3247855848
 21
-75.964113356200002
 31
0.0
 70
   128
  1
<>
 13
854.4725720432001
 23
-99.781330229400012
 33
0.0
 14
838.4725720432001
 24
-93.781330229400012
 34
0.0
  0
DIMENSION
  5
205
  8
Éíû@É³
  2
*D25
 10
870.4725720432001
 20
-75.964113356200002
 30
0.0
 11
878.88751344939999
 21
-75.964113356200002
 31
0.0
 70
   128
  1
<>
 13
870.4725720432001
 23
-93.781330229400012
 33
0.0
 14
854.4725720432001
 24
-99.781330229400012
 34
0.0
  0
DIMENSION
  5
214
  8
Éíû@É³
  2
*D26
 10
870.4725720432001
 20
-193.6001778856
 30
0.0
 11
864.97257204319999
 21
-193.6001778856
 31
0.0
 70
   128
  1
<>
 13
870.4725720432001
 23
-207.7813302294
 33
0.0
 14
859.47257204319999
 24
-207.7813302294
 34
0.0
  0
DIMENSION
  5
223
  8
Éíû@É³
  2
*D27
 10
859.47257204319999
 20
-179.57540575019999
 30
0.0
 11
855.4725720432001
 21
-179.57540575019999
 31
0.0
 70
   128
  1
<>
 13
859.47257204319999
 23
-209.5313302294
 33
0.0
 14
849.4725720432001
 24
-165.7813302294
 34
0.0
  0
DIMENSION
  5
232
  8
Éíû@É³
  2
*D28
 10
849.4725720432001
 20
-140.20558471039999
 30
0.0
 11
843.9725720432001
 21
-140.20558471039999
 31
0.0
 70
   128
  1
<>
 13
849.4725720432001
 23
-153.7813302294
 33
0.0
 14
838.4725720432001
 24
-151.0394682502
 34
0.0
  0
DIMENSION
  5
241
  8
Éíû@É³
  2
*D29
 10
870.4725720432001
 20
-63.261248772899989
 30
0.0
 11
854.4725720432001
 21
-63.261248772899989
 31
0.0
 70
   128
  1
<>
 13
870.4725720432001
 23
-93.781330229400012
 33
0.0
 14
838.4725720432001
 24
-93.781330229400012
 34
0.0
  0
DIMENSION
  5
250
  8
Éíû@É³
  2
*D30
 10
705.87739293039976
 20
-330.52117397939998
 30
0.0
 11
705.87739293039976
 21
-310.128465646
 31
0.0
 70
   128
  1
<>
 13
694.55450881579998
 23
-330.52117397939998
 33
0.0
 14
743.55450881579998
 24
-319.52117397939998
 34
0.0
 50
90.0
  0
DIMENSION
  5
25F
  8
Éíû@É³
  2
*D31
 10
820.65535517000001
 20
-213.7813302294
 30
0.0
 11
820.65535517000001
 21
-228.7813302294
 31
0.0
 70
   128
  1
<>
 13
853.4725720432001
 23
-213.7813302294
 33
0.0
 14
838.4725720432001
 24
-243.7813302294
 34
0.0
 50
90.0
  0
DIMENSION
  5
26E
  8
Éíû@É³
  2
*D32
 10
820.65535517000001
 20
-93.781330229400012
 30
0.0
 11
820.65535517000001
 21
-99.781330229400012
 31
0.0
 70
   128
  1
<>
 13
838.4725720432001
 23
-93.781330229400012
 33
0.0
 14
848.4725720432001
 24
-105.7813302294
 34
0.0
 50
90.0
  0
DIMENSION
  5
27B
  8
Éíû@É³
  2
*D58
 10
696.7490563684961
 20
-198.2411700057732
 30
0.0
 11
707.27889256020001
 21
-206.50301587030009
 31
0.0
 70
   133
  1
<>
 13
673.05450881579998
 23
-93.781330229400012
 33
0.0
 14
743.55450881579998
 24
-239.2813302294
 34
0.0
 15
673.05450881579998
 25
-239.2813302294
 35
0.0
1001
ACAD
1000
DSTYLE
1002
{
1070
   271
1070
     0
1002
}
  0
DIMENSION
  5
28A
  8
Éíû@É³
  2
*D34
 10
649.77928095129994
 20
-319.52117397939998
 30
0.0
 11
649.77928095129994
 21
-335.52117397939998
 31
0.0
 70
   128
  1
<>
 13
668.55450881579998
 23
-319.52117397939998
 33
0.0
 14
668.55450881579998
 24
-351.52117397940009
 34
0.0
 50
90.0
  0
DIMENSION
  5
299
  8
Éíû@É³
  2
*D35
 10
820.77683954499992
 20
-159.7813302294
 30
0.0
 11
820.77683954499992
 21
-186.7813302294
 31
0.0
 70
   128
  1
<>
 13
843.47257204319999
 23
-159.7813302294
 33
0.0
 14
853.4725720432001
 24
-213.7813302294
 34
0.0
 50
90.0
  0
DIMENSION
  5
2A8
  8
Éíû@É³
  2
*D36
 10
820.77683954499992
 20
-105.7813302294
 30
0.0
 11
820.77683954499992
 21
-132.7813302294
 31
0.0
 70
   128
  1
<>
 13
848.4725720432001
 23
-105.7813302294
 33
0.0
 14
843.47257204319999
 24
-159.7813302294
 34
0.0
 50
90.0
  0
ENDSEC
  0
EOF
