  0
SECTION
  2
HEADER
  9
$ACADVER
  1
AC1009
  9
$INSBASE
 10
0.0
 20
0.0
 30
0.0
  9
$EXTMIN
 10
699.42897948749987
 20
-314.96677003169998
 30
0.0
  9
$EXTMAX
 10
974.42897948749987
 20
-124.96677003169999
 30
0.0
  9
$LIMMIN
 10
0.0
 20
0.0
  9
$LIMMAX
 10
0.0
 20
0.0
  9
$ORTHOMODE
 70
     0
  9
$REGENMODE
 70
     1
  9
$FILLMODE
 70
     1
  9
$QTEXTMODE
 70
     0
  9
$MIRRTEXT
 70
     1
  9
$DRAGMODE
 70
     2
  9
$LTSCALE
 40
1.0
  9
$OSMODE
 70
    31
  9
$ATTMODE
 70
     1
  9
$TEXTSIZE
 40
0.0
  9
$TRACEWID
 40
0.05
  9
$TEXTSTYLE
  7
STANDARD
  9
$CLAYER
  8
0
  9
$CELTYPE
  6
CONTINUOUS
  9
$CECOLOR
 62
   256
  9
$DIMSCALE
 40
1.0
  9
$DIMASZ
 40
0.18
  9
$DIMEXO
 40
0.0625
  9
$DIMDLI
 40
0.38
  9
$DIMRND
 40
0.0
  9
$DIMDLE
 40
0.0
  9
$DIMEXE
 40
0.18
  9
$DIMTP
 40
0.0
  9
$DIMTM
 40
0.0
  9
$DIMTXT
 40
0.18
  9
$DIMCEN
 40
0.09
  9
$DIMTSZ
 40
0.0
  9
$DIMTOL
 70
     0
  9
$DIMLIM
 70
     0
  9
$DIMTIH
 70
     1
  9
$DIMTOH
 70
     1
  9
$DIMSE1
 70
     0
  9
$DIMSE2
 70
     0
  9
$DIMTAD
 70
     0
  9
$DIMZIN
 70
     0
  9
$DIMBLK
  1

  9
$DIMASO
 70
     1
  9
$DIMSHO
 70
     1
  9
$DIMPOST
  1

  9
$DIMAPOST
  1

  9
$DIMALT
 70
     0
  9
$DIMALTD
 70
     2
  9
$DIMALTF
 40
25.399999999999999
  9
$DIMLFAC
 40
1.0
  9
$DIMTOFL
 70
     0
  9
$DIMTVP
 40
0.0
  9
$DIMTIX
 70
     0
  9
$DIMSOXD
 70
     0
  9
$DIMSAH
 70
     0
  9
$DIMBLK1
  1

  9
$DIMBLK2
  1

  9
$DIMSTYLE
  2
STANDARD
  9
$DIMCLRD
 70
     0
  9
$DIMCLRE
 70
     0
  9
$DIMCLRT
 70
     0
  9
$DIMTFAC
 40
1.0
  9
$DIMGAP
 40
0.09
  9
$LUNITS
 70
     2
  9
$LUPREC
 70
     4
  9
$SKETCHINC
 40
0.1
  9
$FILLETRAD
 40
0.0
  9
$AUNITS
 70
     0
  9
$AUPREC
 70
     0
  9
$MENU
  1
acad
  9
$ELEVATION
 40
0.0
  9
$PELEVATION
 40
0.0
  9
$THICKNESS
 40
0.0
  9
$LIMCHECK
 70
     0
  9
$BLIPMODE
 70
     0
  9
$CHAMFERA
 40
0.0
  9
$CHAMFERB
 40
0.0
  9
$SKPOLY
 70
     0
  9
$TDCREATE
 40
2454862.7572779171
  9
$TDUPDATE
 40
2454862.7575638308
  9
$TDINDWG
 40
0.0003097917
  9
$TDUSRTIMER
 40
0.0003094329
  9
$USRTIMER
 70
     1
  9
$ANGBASE
 50
0.0
  9
$ANGDIR
 70
     0
  9
$PDMODE
 70
     3
  9
$PDSIZE
 40
-1.0
  9
$PLINEWID
 40
0.0
  9
$COORDS
 70
     2
  9
$SPLFRAME
 70
     0
  9
$SPLINETYPE
 70
     6
  9
$SPLINESEGS
 70
     8
  9
$ATTDIA
 70
     0
  9
$ATTREQ
 70
     1
  9
$HANDLING
 70
     1
  9
$HANDSEED
  5
4A5
  9
$SURFTAB1
 70
     6
  9
$SURFTAB2
 70
     6
  9
$SURFTYPE
 70
     6
  9
$SURFU
 70
     6
  9
$SURFV
 70
     6
  9
$UCSNAME
  2

  9
$UCSORG
 10
0.0
 20
0.0
 30
0.0
  9
$UCSXDIR
 10
1.0
 20
0.0
 30
0.0
  9
$UCSYDIR
 10
0.0
 20
1.0
 30
0.0
  9
$PUCSNAME
  2

  9
$PUCSORG
 10
0.0
 20
0.0
 30
0.0
  9
$PUCSXDIR
 10
1.0
 20
0.0
 30
0.0
  9
$PUCSYDIR
 10
0.0
 20
1.0
 30
0.0
  9
$USERI1
 70
     0
  9
$USERI2
 70
     0
  9
$USERI3
 70
     0
  9
$USERI4
 70
     0
  9
$USERI5
 70
     0
  9
$USERR1
 40
0.0
  9
$USERR2
 40
0.0
  9
$USERR3
 40
0.0
  9
$USERR4
 40
0.0
  9
$USERR5
 40
0.0
  9
$WORLDVIEW
 70
     1
  9
$SHADEDGE
 70
     3
  9
$SHADEDIF
 70
    70
  9
$TILEMODE
 70
     1
  9
$MAXACTVP
 70
    16
  9
$PLIMCHECK
 70
     0
  9
$PEXTMIN
 10
1.0000000000000000E+020
 20
1.0000000000000000E+020
 30
1.0000000000000000E+020
  9
$PEXTMAX
 10
-1.0000000000000000E+020
 20
-1.0000000000000000E+020
 30
-1.0000000000000000E+020
  9
$PLIMMIN
 10
0.0
 20
0.0
  9
$PLIMMAX
 10
12.0
 20
9.0
  9
$UNITMODE
 70
     0
  9
$VISRETAIN
 70
     0
  9
$PLINEGEN
 70
     1
  9
$PSLTSCALE
 70
     0
  0
ENDSEC
  0
SECTION
  2
TABLES
  0
TABLE
  2
VPORT
 70
     2
  0
VPORT
  2
*ACTIVE
 70
     0
 10
0.0
 20
0.0
 11
1.0
 21
1.0
 12
836.92897948749987
 22
-219.96677003170001
 13
0.0
 23
0.0
 14
1.0
 24
1.0
 15
0.0
 25
0.0
 16
0.0
 26
0.0
 36
1.0
 17
0.0
 27
0.0
 37
0.0
 40
198.9929279237459
 41
1.3903818953323901
 42
50.0
 43
0.0
 44
0.0
 50
0.0
 51
0.0
 71
     0
 72
   100
 73
     1
 74
     1
 75
     0
 76
     0
 77
     0
 78
     0
  0
ENDTAB
  0
TABLE
  2
LTYPE
 70
    11
  0
LTYPE
  2
CONTINUOUS
 70
     0
  3
Solid line
 72
    65
 73
     0
 40
0.0
  0
LTYPE
  2
DOT
 70
     0
  3
. . . . . . . . 
 72
    65
 73
     2
 40
1.0
 49
0.0
 49
-1.0
  0
LTYPE
  2
DASHED
 70
     0
  3
___  ___  ___  ___  
 72
    65
 73
     2
 40
4.0
 49
3.0
 49
-1.0
  0
LTYPE
  2
HIDDEN
 70
     0
  3
__ __ __ __ 
 72
    65
 73
     2
 40
3.0
 49
2.0
 49
-1.0
  0
LTYPE
  2
STITCH
 70
     0
  3
_ _ _ _ 
 72
    65
 73
     2
 40
2.0
 49
1.0
 49
-1.0
  0
LTYPE
  2
CENTER
 70
     0
  3
______  __  ______  __  
 72
    65
 73
     4
 40
43.0
 49
40.0
 49
-1.0
 49
1.0
 49
-1.0
  0
LTYPE
  2
DASHDOT
 70
     0
  3
____ . ____ . 
 72
    65
 73
     4
 40
32.0
 49
30.0
 49
-1.0
 49
0.0
 49
-1.0
  0
LTYPE
  2
BORDER
 70
     0
  3
__ . __ . 
 72
    65
 73
     4
 40
22.0
 49
20.0
 49
-1.0
 49
0.0
 49
-1.0
  0
LTYPE
  2
CUTTING
 70
     0
  3
________   ___   ___   
 72
    65
 73
     6
 40
45.0
 49
40.0
 49
-1.0
 49
1.0
 49
-1.0
 49
1.0
 49
-1.0
  0
LTYPE
  2
PHANTOM
 70
     0
  3
______  __  __  
 72
    65
 73
     6
 40
35.0
 49
30.0
 49
-1.0
 49
1.0
 49
-1.0
 49
1.0
 49
-1.0
  0
LTYPE
  2
DIVIDE
 70
     0
  3
____ . . ____ . . 
 72
    65
 73
     6
 40
23.0
 49
20.0
 49
-1.0
 49
0.0
 49
-1.0
 49
0.0
 49
-1.0
  0
ENDTAB
  0
TABLE
  2
LAYER
 70
     4
  0
LAYER
  2
0
 70
     0
 62
     7
  6
CONTINUOUS
  0
LAYER
  2
Éíû@É³
 70
     0
 62
     7
  6
CONTINUOUS
  0
LAYER
  2
┌▓È_1
 70
     0
 62
     7
  6
CONTINUOUS
  0
LAYER
  2
Defpoints
 70
     0
 62
     7
  6
CONTINUOUS
  0
ENDTAB
  0
TABLE
  2
STYLE
 70
     1
  0
STYLE
  2
STANDARD
 70
     0
 40
0.0
 41
1.0
 50
0.0
 71
     0
 42
0.0
  3
txt
  4
extfont
  0
ENDTAB
  0
TABLE
  2
VIEW
 70
     0
  0
ENDTAB
  0
TABLE
  2
UCS
 70
     0
  0
ENDTAB
  0
TABLE
  2
APPID
 70
     2
  0
APPID
  2
ACAD
 70
     0
  0
APPID
  2
DCO15
 70
     0
  0
ENDTAB
  0
TABLE
  2
DIMSTYLE
 70
     3
  0
DIMSTYLE
  2
STANDARD
 70
     0
  3

  4

  5

  6

  7

 40
1.0
 41
0.18
 42
0.0625
 43
0.38
 44
0.18
 45
0.0
 46
0.0
 47
0.0
 48
0.0
140
0.18
141
0.09
142
0.0
143
25.399999999999999
144
1.0
145
0.0
146
1.0
147
0.09
 71
     0
 72
     0
 73
     1
 74
     1
 75
     0
 76
     0
 77
     0
 78
     0
170
     0
171
     2
172
     0
173
     0
174
     0
175
     0
176
     0
177
     0
178
     0
  0
DIMSTYLE
  2
VELDIM0
 70
     0
  3

  4

  5

  6

  7

 40
1.0
 41
3.0
 42
0.0625
 43
0.38
 44
0.5
 45
0.0
 46
3.0
 47
0.0
 48
0.0
140
2.9986110209999999
141
0.09
142
0.0
143
25.399999999999999
144
1.0
145
0.0
146
1.0
147
0.09
 71
     0
 72
     0
 73
     0
 74
     0
 75
     0
 76
     0
 77
     0
 78
     8
170
     0
171
     2
172
     0
173
     0
174
     0
175
     0
176
     0
177
     0
178
     0
  0
DIMSTYLE
  2
VELDIM1
 70
     0
  3

  4

  5

  6

  7

 40
1.0
 41
3.0
 42
0.0625
 43
0.38
 44
1.25
 45
0.0
 46
5.0
 47
0.0
 48
0.0
140
2.9986110209999999
141
0.09
142
0.0
143
25.399999999999999
144
1.0
145
0.0
146
1.0
147
0.09
 71
     0
 72
     0
 73
     0
 74
     0
 75
     0
 76
     0
 77
     0
 78
     8
170
     0
171
     2
172
     0
173
     0
174
     0
175
     0
176
     0
177
     0
178
     0
  0
ENDTAB
  0
ENDSEC
  0
SECTION
  2
BLOCKS
  0
BLOCK
  8
0
  2
$MODEL_SPACE
 70
     0
 10
0.0
 20
0.0
 30
0.0
  3
$MODEL_SPACE
  1

  0
ENDBLK
  5
E
  8
0
  0
BLOCK
 67
     1
  8
0
  2
$PAPER_SPACE
 70
     0
 10
0.0
 20
0.0
 30
0.0
  3
$PAPER_SPACE
  1

  0
ENDBLK
  5
10
 67
     1
  8
0
  0
BLOCK
  8
0
  2
*D0
 70
     1
 10
0.0
 20
0.0
 30
0.0
  3
*D0
  1

  0
TEXT
  5
31
  8
0
 62
     0
 10
914.70404170669997
 20
-181.22157299
 30
0.0
 40
2.9986110209999999
  1
%%c8
  0
LINE
  5
32
  8
0
 62
     0
 10
937.3498749606
 20
-191.75073964079999
 30
0.0
 11
937.3498749606
 21
-182.25073964079999
 31
0.0
  0
LINE
  5
33
  8
0
 62
     0
 10
897.34987496059989
 20
-191.75073964079999
 30
0.0
 11
897.34987496059989
 21
-182.25073964079999
 31
0.0
  0
LINE
  5
34
  8
0
 62
     0
 10
937.3498749606
 20
-182.75073964079999
 30
0.0
 11
921.75959705039998
 21
-182.75073964079999
 31
0.0
  0
LINE
  5
35
  8
0
 62
     0
 10
937.3498749606
 20
-182.75073964079999
 30
0.0
 11
912.94015287079992
 21
-182.75073964079999
 31
0.0
  0
LINE
  5
36
  8
0
 62
     0
 10
897.34987496059989
 20
-182.75073964079999
 30
0.0
 11
921.75959705039998
 21
-182.75073964079999
 31
0.0
  0
LINE
  5
37
  8
0
 62
     0
 10
897.34987496059989
 20
-182.75073964079999
 30
0.0
 11
912.94015287079992
 21
-182.75073964079999
 31
0.0
  0
LINE
  5
38
  8
0
 62
     0
 10
897.34987496059989
 20
-182.75073964079999
 30
0.0
 11
900.3498749606
 21
-182.75073964079999
 31
0.0
  0
SOLID
  5
39
  8
0
 62
     0
 10
897.34987496059989
 20
-182.75073964079999
 30
0.0
 11
900.3498749606
 21
-182.00073964079999
 31
0.0
 12
900.3498749606
 22
-183.50073964079999
 32
0.0
 13
899.5998749606
 23
-182.75073964079999
 33
0.0
  0
LINE
  5
3A
  8
0
 62
     0
 10
937.3498749606
 20
-182.75073964079999
 30
0.0
 11
934.3498749606
 21
-182.75073964079999
 31
0.0
  0
SOLID
  5
3B
  8
0
 62
     0
 10
937.3498749606
 20
-182.75073964079999
 30
0.0
 11
934.3498749606
 21
-183.50073964079999
 31
0.0
 12
934.3498749606
 22
-182.00073964079999
 32
0.0
 13
935.0998749606
 23
-182.75073964079999
 33
0.0
  0
ENDBLK
  5
3C
  8
0
  0
BLOCK
  8
0
  2
*D1
 70
     1
 10
0.0
 20
0.0
 30
0.0
  3
*D1
  1

  0
TEXT
  5
41
  8
0
 62
     0
 10
914.70404170669997
 20
-219.4977500734
 30
0.0
 40
2.9986110209999999
  1
%%c4
  0
LINE
  5
42
  8
0
 62
     0
 10
907.34987496060012
 20
-208.75073964079999
 30
0.0
 11
907.34987496060012
 21
-221.5269167241
 31
0.0
  0
LINE
  5
43
  8
0
 62
     0
 10
927.3498749606
 20
-208.75073964079999
 30
0.0
 11
927.3498749606
 21
-221.5269167241
 31
0.0
  0
LINE
  5
44
  8
0
 62
     0
 10
907.34987496060012
 20
-221.0269167241
 30
0.0
 11
921.75959705039998
 21
-221.0269167241
 31
0.0
  0
LINE
  5
45
  8
0
 62
     0
 10
907.34987496060012
 20
-221.0269167241
 30
0.0
 11
912.94015287079992
 21
-221.0269167241
 31
0.0
  0
LINE
  5
46
  8
0
 62
     0
 10
927.3498749606
 20
-221.0269167241
 30
0.0
 11
921.75959705039998
 21
-221.0269167241
 31
0.0
  0
LINE
  5
47
  8
0
 62
     0
 10
927.3498749606
 20
-221.0269167241
 30
0.0
 11
912.94015287079992
 21
-221.0269167241
 31
0.0
  0
LINE
  5
48
  8
0
 62
     0
 10
927.3498749606
 20
-221.0269167241
 30
0.0
 11
924.34987496060012
 21
-221.0269167241
 31
0.0
  0
SOLID
  5
49
  8
0
 62
     0
 10
927.3498749606
 20
-221.0269167241
 30
0.0
 11
924.34987496060012
 21
-221.7769167241
 31
0.0
 12
924.34987496060012
 22
-220.2769167241
 32
0.0
 13
925.09987496059989
 23
-221.0269167241
 33
0.0
  0
LINE
  5
4A
  8
0
 62
     0
 10
907.34987496060012
 20
-221.0269167241
 30
0.0
 11
910.3498749606
 21
-221.0269167241
 31
0.0
  0
SOLID
  5
4B
  8
0
 62
     0
 10
907.34987496060012
 20
-221.0269167241
 30
0.0
 11
910.3498749606
 21
-220.2769167241
 31
0.0
 12
910.3498749606
 22
-221.7769167241
 32
0.0
 13
909.5998749606
 23
-221.0269167241
 33
0.0
  0
ENDBLK
  5
4C
  8
0
  0
BLOCK
  8
0
  2
*D2
 70
     1
 10
0.0
 20
0.0
 30
0.0
  3
*D2
  1

  0
TEXT
  5
50
  8
0
 62
     0
 10
796.60358504589988
 20
-264.22792942910002
 30
0.0
 40
2.9986110209999999
  1
8
 50
90.0
  0
LINE
  5
51
  8
0
 62
     0
 10
788.13275169669987
 20
-259.07111001120001
 30
0.0
 11
798.63275169669998
 21
-259.07111001120001
 31
0.0
  0
LINE
  5
52
  8
0
 62
     0
 10
789.13275169669998
 20
-251.07111001120001
 30
0.0
 11
798.63275169669998
 21
-251.07111001120001
 31
0.0
  0
LINE
  5
53
  8
0
 62
     0
 10
798.13275169669998
 20
-259.07111001120001
 30
0.0
 11
798.13275169669998
 21
-260.70015175729998
 31
0.0
  0
LINE
  5
54
  8
0
 62
     0
 10
798.13275169669998
 20
-259.07111001120001
 30
0.0
 11
798.13275169669998
 21
-265.99181826500001
 31
0.0
  0
LINE
  5
55
  8
0
 62
     0
 10
798.13275169669998
 20
-251.07111001120001
 30
0.0
 11
798.13275169669998
 21
-260.70015175729998
 31
0.0
  0
LINE
  5
56
  8
0
 62
     0
 10
798.13275169669998
 20
-251.07111001120001
 30
0.0
 11
798.13275169669998
 21
-265.99181826500001
 31
0.0
  0
LINE
  5
57
  8
0
 62
     0
 10
798.13275169669998
 20
-251.07111001120001
 30
0.0
 11
798.13275169669998
 21
-254.07111001120001
 31
0.0
  0
SOLID
  5
58
  8
0
 62
     0
 10
798.13275169669998
 20
-251.07111001120001
 30
0.0
 11
798.88275169669998
 21
-254.07111001120001
 31
0.0
 12
797.38275169669987
 22
-254.07111001120001
 32
0.0
 13
798.13275169669998
 23
-253.32111001120001
 33
0.0
  0
LINE
  5
59
  8
0
 62
     0
 10
798.13275169669998
 20
-259.07111001120001
 30
0.0
 11
798.13275169669998
 21
-256.07111001120001
 31
0.0
  0
SOLID
  5
5A
  8
0
 62
     0
 10
798.13275169669998
 20
-259.07111001120001
 30
0.0
 11
797.38275169669987
 21
-256.07111001120001
 31
0.0
 12
798.88275169669998
 22
-256.07111001120001
 32
0.0
 13
798.13275169669998
 23
-256.82111001120001
 33
0.0
  0
ENDBLK
  5
5B
  8
0
  0
BLOCK
  8
0
  2
*D3
 70
     1
 10
0.0
 20
0.0
 30
0.0
  3
*D3
  1

  0
TEXT
  5
5F
  8
0
 62
     0
 10
770.36886286080005
 20
-209.45120261970001
 30
0.0
 40
2.9986110209999999
  1
30
  0
LINE
  5
60
  8
0
 62
     0
 10
757.13275169669998
 20
-198.98036927039999
 30
0.0
 11
757.13275169669998
 21
-211.48036927039999
 31
0.0
  0
LINE
  5
61
  8
0
 62
     0
 10
787.13275169669987
 20
-201.98036927039999
 30
0.0
 11
787.13275169669987
 21
-211.48036927039999
 31
0.0
  0
LINE
  5
62
  8
0
 62
     0
 10
757.13275169669998
 20
-210.98036927039999
 30
0.0
 11
775.66052936850008
 21
-210.98036927039999
 31
0.0
  0
LINE
  5
63
  8
0
 62
     0
 10
757.13275169669998
 20
-210.98036927039999
 30
0.0
 11
768.6049740249
 21
-210.98036927039999
 31
0.0
  0
LINE
  5
64
  8
0
 62
     0
 10
787.13275169669987
 20
-210.98036927039999
 30
0.0
 11
775.66052936850008
 21
-210.98036927039999
 31
0.0
  0
LINE
  5
65
  8
0
 62
     0
 10
787.13275169669987
 20
-210.98036927039999
 30
0.0
 11
768.6049740249
 21
-210.98036927039999
 31
0.0
  0
LINE
  5
66
  8
0
 62
     0
 10
787.13275169669987
 20
-210.98036927039999
 30
0.0
 11
784.13275169669987
 21
-210.98036927039999
 31
0.0
  0
SOLID
  5
67
  8
0
 62
     0
 10
787.13275169669987
 20
-210.98036927039999
 30
0.0
 11
784.13275169669987
 21
-211.73036927039999
 31
0.0
 12
784.13275169669987
 22
-210.23036927039999
 32
0.0
 13
784.88275169669987
 23
-210.98036927039999
 33
0.0
  0
LINE
  5
68
  8
0
 62
     0
 10
757.13275169669998
 20
-210.98036927039999
 30
0.0
 11
760.13275169669998
 21
-210.98036927039999
 31
0.0
  0
SOLID
  5
69
  8
0
 62
     0
 10
757.13275169669998
 20
-210.98036927039999
 30
0.0
 11
760.13275169669998
 21
-210.23036927039999
 31
0.0
 12
760.13275169669998
 22
-211.73036927039999
 32
0.0
 13
759.38275169669987
 23
-210.98036927039999
 33
0.0
  0
ENDBLK
  5
6A
  8
0
  0
BLOCK
  8
0
  2
*D4
 70
     1
 10
0.0
 20
0.0
 30
0.0
  3
*D4
  1

  0
TEXT
  5
6E
  8
0
 62
     0
 10
819.08136282369981
 20
-174.36231368840001
 30
0.0
 40
2.9986110209999999
  1
5
 50
90.0
  0
LINE
  5
6F
  8
0
 62
     0
 10
829.6105294744998
 20
-170.98036927039999
 30
0.0
 11
820.11052947450003
 21
-170.98036927039999
 31
0.0
  0
LINE
  5
70
  8
0
 62
     0
 10
831.6105294744998
 20
-175.98036927039999
 30
0.0
 11
820.11052947450003
 21
-175.98036927039999
 31
0.0
  0
LINE
  5
71
  8
0
 62
     0
 10
820.61052947449991
 20
-170.98036927039999
 30
0.0
 11
820.61052947449991
 21
-170.98036927039999
 31
0.0
  0
LINE
  5
72
  8
0
 62
     0
 10
820.61052947449991
 20
-170.98036927039999
 30
0.0
 11
820.61052947449991
 21
-175.98036927039999
 31
0.0
  0
LINE
  5
73
  8
0
 62
     0
 10
820.61052947449991
 20
-175.98036927039999
 30
0.0
 11
820.61052947449991
 21
-170.98036927039999
 31
0.0
  0
LINE
  5
74
  8
0
 62
     0
 10
820.61052947449991
 20
-175.98036927039999
 30
0.0
 11
820.61052947449991
 21
-175.98036927039999
 31
0.0
  0
LINE
  5
75
  8
0
 62
     0
 10
820.61052947449991
 20
-175.98036927039999
 30
0.0
 11
820.61052947449991
 21
-178.98036927039999
 31
0.0
  0
SOLID
  5
76
  8
0
 62
     0
 10
820.61052947449991
 20
-175.98036927039999
 30
0.0
 11
821.36052947449991
 21
-178.98036927039999
 31
0.0
 12
819.8605294744998
 22
-178.98036927039999
 32
0.0
 13
820.61052947449991
 23
-178.23036927039999
 33
0.0
  0
LINE
  5
77
  8
0
 62
     0
 10
820.61052947449991
 20
-170.98036927039999
 30
0.0
 11
820.61052947449991
 21
-167.98036927039999
 31
0.0
  0
SOLID
  5
78
  8
0
 62
     0
 10
820.61052947449991
 20
-170.98036927039999
 30
0.0
 11
819.8605294744998
 21
-167.98036927039999
 31
0.0
 12
821.36052947449991
 22
-167.98036927039999
 32
0.0
 13
820.61052947449991
 23
-168.73036927039999
 33
0.0
  0
ENDBLK
  5
79
  8
0
  0
BLOCK
  8
0
  2
*D5
 70
     1
 10
0.0
 20
0.0
 30
0.0
  3
*D5
  1

  0
TEXT
  5
7D
  8
0
 62
     0
 10
783.75080727880004
 20
-231.54194336040001
 30
0.0
 40
2.9986110209999999
  1
5
  0
LINE
  5
7E
  8
0
 62
     0
 10
787.13275169669987
 20
-242.07111001120001
 30
0.0
 11
787.13275169669987
 21
-232.57111001120001
 31
0.0
  0
LINE
  5
7F
  8
0
 62
     0
 10
782.13275169669998
 20
-244.07111001120001
 30
0.0
 11
782.13275169669998
 21
-232.57111001120001
 31
0.0
  0
LINE
  5
80
  8
0
 62
     0
 10
787.13275169669987
 20
-233.07111001120001
 30
0.0
 11
787.13275169669987
 21
-233.07111001120001
 31
0.0
  0
LINE
  5
81
  8
0
 62
     0
 10
787.13275169669987
 20
-233.07111001120001
 30
0.0
 11
782.13275169669998
 21
-233.07111001120001
 31
0.0
  0
LINE
  5
82
  8
0
 62
     0
 10
782.13275169669998
 20
-233.07111001120001
 30
0.0
 11
787.13275169669987
 21
-233.07111001120001
 31
0.0
  0
LINE
  5
83
  8
0
 62
     0
 10
782.13275169669998
 20
-233.07111001120001
 30
0.0
 11
782.13275169669998
 21
-233.07111001120001
 31
0.0
  0
LINE
  5
84
  8
0
 62
     0
 10
782.13275169669998
 20
-233.07111001120001
 30
0.0
 11
779.13275169669987
 21
-233.07111001120001
 31
0.0
  0
SOLID
  5
85
  8
0
 62
     0
 10
782.13275169669998
 20
-233.07111001120001
 30
0.0
 11
779.13275169669987
 21
-233.82111001120001
 31
0.0
 12
779.13275169669987
 22
-232.32111001120001
 32
0.0
 13
779.88275169669998
 23
-233.07111001120001
 33
0.0
  0
LINE
  5
86
  8
0
 62
     0
 10
787.13275169669987
 20
-233.07111001120001
 30
0.0
 11
790.13275169669998
 21
-233.07111001120001
 31
0.0
  0
SOLID
  5
87
  8
0
 62
     0
 10
787.13275169669987
 20
-233.07111001120001
 30
0.0
 11
790.13275169669998
 21
-232.32111001120001
 31
0.0
 12
790.13275169669998
 22
-233.82111001120001
 32
0.0
 13
789.38275169669987
 23
-233.07111001120001
 33
0.0
  0
ENDBLK
  5
88
  8
0
  0
BLOCK
  8
0
  2
*D6
 70
     1
 10
0.0
 20
0.0
 30
0.0
  3
*D6
  1

  0
TEXT
  5
8C
  8
0
 62
     0
 10
773.36886286080005
 20
-231.54194336040001
 30
0.0
 40
2.9986110209999999
  1
14
  0
LINE
  5
8D
  8
0
 62
     0
 10
782.13275169669998
 20
-244.07111001120001
 30
0.0
 11
782.13275169669998
 21
-232.57111001120001
 31
0.0
  0
LINE
  5
8E
  8
0
 62
     0
 10
768.13275169669998
 20
-244.07111001120001
 30
0.0
 11
768.13275169669998
 21
-232.57111001120001
 31
0.0
  0
LINE
  5
8F
  8
0
 62
     0
 10
782.13275169669998
 20
-233.07111001120001
 30
0.0
 11
778.66052936849997
 21
-233.07111001120001
 31
0.0
  0
LINE
  5
90
  8
0
 62
     0
 10
782.13275169669998
 20
-233.07111001120001
 30
0.0
 11
771.60497402489989
 21
-233.07111001120001
 31
0.0
  0
LINE
  5
91
  8
0
 62
     0
 10
768.13275169669998
 20
-233.07111001120001
 30
0.0
 11
778.66052936849997
 21
-233.07111001120001
 31
0.0
  0
LINE
  5
92
  8
0
 62
     0
 10
768.13275169669998
 20
-233.07111001120001
 30
0.0
 11
771.60497402489989
 21
-233.07111001120001
 31
0.0
  0
LINE
  5
93
  8
0
 62
     0
 10
768.13275169669998
 20
-233.07111001120001
 30
0.0
 11
771.13275169669987
 21
-233.07111001120001
 31
0.0
  0
SOLID
  5
94
  8
0
 62
     0
 10
768.13275169669998
 20
-233.07111001120001
 30
0.0
 11
771.13275169669987
 21
-232.32111001120001
 31
0.0
 12
771.13275169669987
 22
-233.82111001120001
 32
0.0
 13
770.38275169669998
 23
-233.07111001120001
 33
0.0
  0
LINE
  5
95
  8
0
 62
     0
 10
782.13275169669998
 20
-233.07111001120001
 30
0.0
 11
779.13275169669987
 21
-233.07111001120001
 31
0.0
  0
SOLID
  5
96
  8
0
 62
     0
 10
782.13275169669998
 20
-233.07111001120001
 30
0.0
 11
779.13275169669987
 21
-233.82111001120001
 31
0.0
 12
779.13275169669987
 22
-232.32111001120001
 32
0.0
 13
779.88275169669998
 23
-233.07111001120001
 33
0.0
  0
ENDBLK
  5
97
  8
0
  0
BLOCK
  8
0
  2
*D7
 70
     1
 10
0.0
 20
0.0
 30
0.0
  3
*D7
  1

  0
TEXT
  5
9B
  8
0
 62
     0
 10
819.08136282369981
 20
-184.74425810630001
 30
0.0
 40
2.9986110209999999
  1
14
 50
90.0
  0
LINE
  5
9C
  8
0
 62
     0
 10
831.6105294744998
 20
-175.98036927039999
 30
0.0
 11
820.11052947450003
 21
-175.98036927039999
 31
0.0
  0
LINE
  5
9D
  8
0
 62
     0
 10
831.6105294744998
 20
-189.98036927039999
 30
0.0
 11
820.11052947450003
 21
-189.98036927039999
 31
0.0
  0
LINE
  5
9E
  8
0
 62
     0
 10
820.61052947449991
 20
-175.98036927039999
 30
0.0
 11
820.61052947449991
 21
-179.45259159860001
 31
0.0
  0
LINE
  5
9F
  8
0
 62
     0
 10
820.61052947449991
 20
-175.98036927039999
 30
0.0
 11
820.61052947449991
 21
-186.5081469422
 31
0.0
  0
LINE
  5
A0
  8
0
 62
     0
 10
820.61052947449991
 20
-189.98036927039999
 30
0.0
 11
820.61052947449991
 21
-179.45259159860001
 31
0.0
  0
LINE
  5
A1
  8
0
 62
     0
 10
820.61052947449991
 20
-189.98036927039999
 30
0.0
 11
820.61052947449991
 21
-186.5081469422
 31
0.0
  0
LINE
  5
A2
  8
0
 62
     0
 10
820.61052947449991
 20
-189.98036927039999
 30
0.0
 11
820.61052947449991
 21
-186.98036927039999
 31
0.0
  0
SOLID
  5
A3
  8
0
 62
     0
 10
820.61052947449991
 20
-189.98036927039999
 30
0.0
 11
819.8605294744998
 21
-186.98036927039999
 31
0.0
 12
821.36052947449991
 22
-186.98036927039999
 32
0.0
 13
820.61052947449991
 23
-187.73036927039999
 33
0.0
  0
LINE
  5
A4
  8
0
 62
     0
 10
820.61052947449991
 20
-175.98036927039999
 30
0.0
 11
820.61052947449991
 21
-178.98036927039999
 31
0.0
  0
SOLID
  5
A5
  8
0
 62
     0
 10
820.61052947449991
 20
-175.98036927039999
 30
0.0
 11
821.36052947449991
 21
-178.98036927039999
 31
0.0
 12
819.8605294744998
 22
-178.98036927039999
 32
0.0
 13
820.61052947449991
 23
-178.23036927039999
 33
0.0
  0
ENDBLK
  5
A6
  8
0
  0
BLOCK
  8
0
  2
*D8
 70
     1
 10
0.0
 20
0.0
 30
0.0
  3
*D8
  1

  0
TEXT
  5
AA
  8
0
 62
     0
 10
819.08136282369981
 20
-197.24425810630001
 30
0.0
 40
2.9986110209999999
  1
11
 50
90.0
  0
LINE
  5
AB
  8
0
 62
     0
 10
831.6105294744998
 20
-189.98036927039999
 30
0.0
 11
820.11052947450003
 21
-189.98036927039999
 31
0.0
  0
LINE
  5
AC
  8
0
 62
     0
 10
829.6105294744998
 20
-200.98036927039999
 30
0.0
 11
820.11052947450003
 21
-200.98036927039999
 31
0.0
  0
LINE
  5
AD
  8
0
 62
     0
 10
820.61052947449991
 20
-189.98036927039999
 30
0.0
 11
820.61052947449991
 21
-191.95259159860001
 31
0.0
  0
LINE
  5
AE
  8
0
 62
     0
 10
820.61052947449991
 20
-189.98036927039999
 30
0.0
 11
820.61052947449991
 21
-199.0081469422
 31
0.0
  0
LINE
  5
AF
  8
0
 62
     0
 10
820.61052947449991
 20
-200.98036927039999
 30
0.0
 11
820.61052947449991
 21
-191.95259159860001
 31
0.0
  0
LINE
  5
B0
  8
0
 62
     0
 10
820.61052947449991
 20
-200.98036927039999
 30
0.0
 11
820.61052947449991
 21
-199.0081469422
 31
0.0
  0
LINE
  5
B1
  8
0
 62
     0
 10
820.61052947449991
 20
-200.98036927039999
 30
0.0
 11
820.61052947449991
 21
-203.98036927039999
 31
0.0
  0
SOLID
  5
B2
  8
0
 62
     0
 10
820.61052947449991
 20
-200.98036927039999
 30
0.0
 11
821.36052947449991
 21
-203.98036927039999
 31
0.0
 12
819.8605294744998
 22
-203.98036927039999
 32
0.0
 13
820.61052947449991
 23
-203.23036927039999
 33
0.0
  0
LINE
  5
B3
  8
0
 62
     0
 10
820.61052947449991
 20
-189.98036927039999
 30
0.0
 11
820.61052947449991
 21
-186.98036927039999
 31
0.0
  0
SOLID
  5
B4
  8
0
 62
     0
 10
820.61052947449991
 20
-189.98036927039999
 30
0.0
 11
819.8605294744998
 21
-186.98036927039999
 31
0.0
 12
821.36052947449991
 22
-186.98036927039999
 32
0.0
 13
820.61052947449991
 23
-187.73036927039999
 33
0.0
  0
ENDBLK
  5
B5
  8
0
  0
BLOCK
  8
0
  2
*D9
 70
     1
 10
0.0
 20
0.0
 30
0.0
  3
*D9
  1

  0
TEXT
  5
B9
  8
0
 62
     0
 10
760.86886286080005
 20
-231.54194336040001
 30
0.0
 40
2.9986110209999999
  1
11
  0
LINE
  5
BA
  8
0
 62
     0
 10
768.13275169669998
 20
-244.07111001120001
 30
0.0
 11
768.13275169669998
 21
-232.57111001120001
 31
0.0
  0
LINE
  5
BB
  8
0
 62
     0
 10
757.13275169669998
 20
-242.07111001120001
 30
0.0
 11
757.13275169669998
 21
-232.57111001120001
 31
0.0
  0
LINE
  5
BC
  8
0
 62
     0
 10
768.13275169669998
 20
-233.07111001120001
 30
0.0
 11
766.16052936849997
 21
-233.07111001120001
 31
0.0
  0
LINE
  5
BD
  8
0
 62
     0
 10
768.13275169669998
 20
-233.07111001120001
 30
0.0
 11
759.10497402489989
 21
-233.07111001120001
 31
0.0
  0
LINE
  5
BE
  8
0
 62
     0
 10
757.13275169669998
 20
-233.07111001120001
 30
0.0
 11
766.16052936849997
 21
-233.07111001120001
 31
0.0
  0
LINE
  5
BF
  8
0
 62
     0
 10
757.13275169669998
 20
-233.07111001120001
 30
0.0
 11
759.10497402489989
 21
-233.07111001120001
 31
0.0
  0
LINE
  5
C0
  8
0
 62
     0
 10
757.13275169669998
 20
-233.07111001120001
 30
0.0
 11
754.13275169669987
 21
-233.07111001120001
 31
0.0
  0
SOLID
  5
C1
  8
0
 62
     0
 10
757.13275169669998
 20
-233.07111001120001
 30
0.0
 11
754.13275169669987
 21
-233.82111001120001
 31
0.0
 12
754.13275169669987
 22
-232.32111001120001
 32
0.0
 13
754.88275169669998
 23
-233.07111001120001
 33
0.0
  0
LINE
  5
C2
  8
0
 62
     0
 10
768.13275169669998
 20
-233.07111001120001
 30
0.0
 11
771.13275169669987
 21
-233.07111001120001
 31
0.0
  0
SOLID
  5
C3
  8
0
 62
     0
 10
768.13275169669998
 20
-233.07111001120001
 30
0.0
 11
771.13275169669987
 21
-232.32111001120001
 31
0.0
 12
771.13275169669987
 22
-233.82111001120001
 32
0.0
 13
770.38275169669998
 23
-233.07111001120001
 33
0.0
  0
ENDBLK
  5
C4
  8
0
  0
BLOCK
  8
0
  2
*D10
 70
     1
 10
0.0
 20
0.0
 30
0.0
  3
*D10
  1

  0
TEXT
  5
C8
  8
0
 62
     0
 10
836.84664063859998
 20
-149.35675817520001
 30
0.0
 40
2.9986110209999999
  1
16
  0
LINE
  5
C9
  8
0
 62
     0
 10
846.6105294744998
 20
-169.98036927039999
 30
0.0
 11
846.6105294744998
 21
-150.38592482600001
 31
0.0
  0
LINE
  5
CA
  8
0
 62
     0
 10
830.6105294744998
 20
-169.98036927039999
 30
0.0
 11
830.6105294744998
 21
-150.38592482600001
 31
0.0
  0
LINE
  5
CB
  8
0
 62
     0
 10
846.6105294744998
 20
-150.88592482600001
 30
0.0
 11
842.13830714629989
 21
-150.88592482600001
 31
0.0
  0
LINE
  5
CC
  8
0
 62
     0
 10
846.6105294744998
 20
-150.88592482600001
 30
0.0
 11
835.08275180269993
 21
-150.88592482600001
 31
0.0
  0
LINE
  5
CD
  8
0
 62
     0
 10
830.6105294744998
 20
-150.88592482600001
 30
0.0
 11
842.13830714629989
 21
-150.88592482600001
 31
0.0
  0
LINE
  5
CE
  8
0
 62
     0
 10
830.6105294744998
 20
-150.88592482600001
 30
0.0
 11
835.08275180269993
 21
-150.88592482600001
 31
0.0
  0
LINE
  5
CF
  8
0
 62
     0
 10
830.6105294744998
 20
-150.88592482600001
 30
0.0
 11
833.61052947449991
 21
-150.88592482600001
 31
0.0
  0
SOLID
  5
D0
  8
0
 62
     0
 10
830.6105294744998
 20
-150.88592482600001
 30
0.0
 11
833.61052947449991
 21
-150.13592482600001
 31
0.0
 12
833.61052947449991
 22
-151.63592482600001
 32
0.0
 13
832.86052947449991
 23
-150.88592482600001
 33
0.0
  0
LINE
  5
D1
  8
0
 62
     0
 10
846.6105294744998
 20
-150.88592482600001
 30
0.0
 11
843.61052947449991
 21
-150.88592482600001
 31
0.0
  0
SOLID
  5
D2
  8
0
 62
     0
 10
846.6105294744998
 20
-150.88592482600001
 30
0.0
 11
843.61052947449991
 21
-151.63592482600001
 31
0.0
 12
843.61052947449991
 22
-150.13592482600001
 32
0.0
 13
844.36052947449991
 23
-150.88592482600001
 33
0.0
  0
ENDBLK
  5
D3
  8
0
  0
BLOCK
  8
0
  2
*D11
 70
     1
 10
0.0
 20
0.0
 30
0.0
  3
*D11
  1

  0
TEXT
  5
D7
  8
0
 62
     0
 10
764.47392226539978
 20
-158.73180425309999
 30
0.0
 40
2.9986110209999999
  1
3t
  0
LINE
  5
D8
  8
0
 62
     0
 10
760.13275169669998
 20
-169.98036927039999
 30
0.0
 11
760.13275169669998
 21
-159.76097090389999
 31
0.0
  0
LINE
  5
D9
  8
0
 62
     0
 10
757.13275169669998
 20
-169.98036927039999
 30
0.0
 11
757.13275169669998
 21
-159.76097090389999
 31
0.0
  0
LINE
  5
DA
  8
0
 62
     0
 10
760.13275169669998
 20
-160.26097090389999
 30
0.0
 11
769.76558877309992
 21
-160.26097090389999
 31
0.0
  0
LINE
  5
DB
  8
0
 62
     0
 10
760.13275169669998
 20
-160.26097090389999
 30
0.0
 11
762.71003342949996
 21
-160.26097090389999
 31
0.0
  0
LINE
  5
DC
  8
0
 62
     0
 10
757.13275169669998
 20
-160.26097090389999
 30
0.0
 11
769.76558877309992
 21
-160.26097090389999
 31
0.0
  0
LINE
  5
DD
  8
0
 62
     0
 10
757.13275169669998
 20
-160.26097090389999
 30
0.0
 11
762.71003342949996
 21
-160.26097090389999
 31
0.0
  0
LINE
  5
DE
  8
0
 62
     0
 10
757.13275169669998
 20
-160.26097090389999
 30
0.0
 11
754.13275169669987
 21
-160.26097090389999
 31
0.0
  0
SOLID
  5
DF
  8
0
 62
     0
 10
757.13275169669998
 20
-160.26097090389999
 30
0.0
 11
754.13275169669987
 21
-161.01097090389999
 31
0.0
 12
754.13275169669987
 22
-159.51097090389999
 32
0.0
 13
754.88275169669998
 23
-160.26097090389999
 33
0.0
  0
LINE
  5
E0
  8
0
 62
     0
 10
760.13275169669998
 20
-160.26097090389999
 30
0.0
 11
763.13275169669987
 21
-160.26097090389999
 31
0.0
  0
SOLID
  5
E1
  8
0
 62
     0
 10
760.13275169669998
 20
-160.26097090389999
 30
0.0
 11
763.13275169669987
 21
-159.51097090389999
 31
0.0
 12
763.13275169669987
 22
-161.01097090389999
 32
0.0
 13
762.38275169669998
 23
-160.26097090389999
 33
0.0
  0
ENDBLK
  5
E2
  8
0
  0
BLOCK
  8
0
  2
*D12
 70
     1
 10
0.0
 20
0.0
 30
0.0
  3
*D12
  1

  0
TEXT
  5
E6
  8
0
 62
     0
 10
796.60358504589988
 20
-238.30990750219999
 30
0.0
 40
2.9986110209999999
  1
8
 50
90.0
  0
LINE
  5
E7
  8
0
 62
     0
 10
789.13275169669998
 20
-251.07111001120001
 30
0.0
 11
798.63275169669998
 21
-251.07111001120001
 31
0.0
  0
LINE
  5
E8
  8
0
 62
     0
 10
788.13275169669987
 20
-243.07111001120001
 30
0.0
 11
798.63275169669998
 21
-243.07111001120001
 31
0.0
  0
LINE
  5
E9
  8
0
 62
     0
 10
798.13275169669998
 20
-251.07111001120001
 30
0.0
 11
798.13275169669998
 21
-234.78212983040001
 31
0.0
  0
LINE
  5
EA
  8
0
 62
     0
 10
798.13275169669998
 20
-251.07111001120001
 30
0.0
 11
798.13275169669998
 21
-240.07379633810001
 31
0.0
  0
LINE
  5
EB
  8
0
 62
     0
 10
798.13275169669998
 20
-243.07111001120001
 30
0.0
 11
798.13275169669998
 21
-234.78212983040001
 31
0.0
  0
LINE
  5
EC
  8
0
 62
     0
 10
798.13275169669998
 20
-243.07111001120001
 30
0.0
 11
798.13275169669998
 21
-240.07379633810001
 31
0.0
  0
LINE
  5
ED
  8
0
 62
     0
 10
798.13275169669998
 20
-243.07111001120001
 30
0.0
 11
798.13275169669998
 21
-246.07111001120001
 31
0.0
  0
SOLID
  5
EE
  8
0
 62
     0
 10
798.13275169669998
 20
-243.07111001120001
 30
0.0
 11
798.88275169669998
 21
-246.07111001120001
 31
0.0
 12
797.38275169669987
 22
-246.07111001120001
 32
0.0
 13
798.13275169669998
 23
-245.32111001120001
 33
0.0
  0
LINE
  5
EF
  8
0
 62
     0
 10
798.13275169669998
 20
-251.07111001120001
 30
0.0
 11
798.13275169669998
 21
-248.07111001120001
 31
0.0
  0
SOLID
  5
F0
  8
0
 62
     0
 10
798.13275169669998
 20
-251.07111001120001
 30
0.0
 11
797.38275169669987
 21
-248.07111001120001
 31
0.0
 12
798.88275169669998
 22
-248.07111001120001
 32
0.0
 13
798.13275169669998
 23
-248.82111001120001
 33
0.0
  0
ENDBLK
  5
F1
  8
0
  0
BLOCK
  8
0
  2
*D13
 70
     1
 10
0.0
 20
0.0
 30
0.0
  3
*D13
  1

  0
TEXT
  5
F5
  8
0
 62
     0
 10
853.4854635288001
 20
-158.45120261970001
 30
0.0
 40
2.9986110209999999
  1
8
  0
LINE
  5
F6
  8
0
 62
     0
 10
846.6105294744998
 20
-169.98036927039999
 30
0.0
 11
846.6105294744998
 21
-159.48036927039999
 31
0.0
  0
LINE
  5
F7
  8
0
 62
     0
 10
838.6105294744998
 20
-168.98036927039999
 30
0.0
 11
838.6105294744998
 21
-159.48036927039999
 31
0.0
  0
LINE
  5
F8
  8
0
 62
     0
 10
846.6105294744998
 20
-159.98036927039999
 30
0.0
 11
857.01324120059996
 21
-159.98036927039999
 31
0.0
  0
LINE
  5
F9
  8
0
 62
     0
 10
846.6105294744998
 20
-159.98036927039999
 30
0.0
 11
851.72157469289982
 21
-159.98036927039999
 31
0.0
  0
LINE
  5
FA
  8
0
 62
     0
 10
838.6105294744998
 20
-159.98036927039999
 30
0.0
 11
857.01324120059996
 21
-159.98036927039999
 31
0.0
  0
LINE
  5
FB
  8
0
 62
     0
 10
838.6105294744998
 20
-159.98036927039999
 30
0.0
 11
851.72157469289982
 21
-159.98036927039999
 31
0.0
  0
LINE
  5
FC
  8
0
 62
     0
 10
838.6105294744998
 20
-159.98036927039999
 30
0.0
 11
841.61052947449991
 21
-159.98036927039999
 31
0.0
  0
SOLID
  5
FD
  8
0
 62
     0
 10
838.6105294744998
 20
-159.98036927039999
 30
0.0
 11
841.61052947449991
 21
-159.23036927039999
 31
0.0
 12
841.61052947449991
 22
-160.73036927039999
 32
0.0
 13
840.86052947449991
 23
-159.98036927039999
 33
0.0
  0
LINE
  5
FE
  8
0
 62
     0
 10
846.6105294744998
 20
-159.98036927039999
 30
0.0
 11
843.61052947449991
 21
-159.98036927039999
 31
0.0
  0
SOLID
  5
FF
  8
0
 62
     0
 10
846.6105294744998
 20
-159.98036927039999
 30
0.0
 11
843.61052947449991
 21
-160.73036927039999
 31
0.0
 12
843.61052947449991
 22
-159.23036927039999
 32
0.0
 13
844.36052947449991
 23
-159.98036927039999
 33
0.0
  0
ENDBLK
  5
100
  8
0
  0
BLOCK
  8
0
  2
*D14
 70
     1
 10
0.0
 20
0.0
 30
0.0
  3
*D14
  1

  0
TEXT
  5
104
  8
0
 62
     0
 10
823.6279370164998
 20
-158.45120261970001
 30
0.0
 40
2.9986110209999999
  1
8
  0
LINE
  5
105
  8
0
 62
     0
 10
838.6105294744998
 20
-168.98036927039999
 30
0.0
 11
838.6105294744998
 21
-159.48036927039999
 31
0.0
  0
LINE
  5
106
  8
0
 62
     0
 10
830.6105294744998
 20
-169.98036927039999
 30
0.0
 11
830.6105294744998
 21
-159.48036927039999
 31
0.0
  0
LINE
  5
107
  8
0
 62
     0
 10
838.6105294744998
 20
-159.98036927039999
 30
0.0
 11
827.15571468829989
 21
-159.98036927039999
 31
0.0
  0
LINE
  5
108
  8
0
 62
     0
 10
838.6105294744998
 20
-159.98036927039999
 30
0.0
 11
821.86404818059998
 21
-159.98036927039999
 31
0.0
  0
LINE
  5
109
  8
0
 62
     0
 10
830.6105294744998
 20
-159.98036927039999
 30
0.0
 11
827.15571468829989
 21
-159.98036927039999
 31
0.0
  0
LINE
  5
10A
  8
0
 62
     0
 10
830.6105294744998
 20
-159.98036927039999
 30
0.0
 11
821.86404818059998
 21
-159.98036927039999
 31
0.0
  0
LINE
  5
10B
  8
0
 62
     0
 10
830.6105294744998
 20
-159.98036927039999
 30
0.0
 11
833.61052947449991
 21
-159.98036927039999
 31
0.0
  0
SOLID
  5
10C
  8
0
 62
     0
 10
830.6105294744998
 20
-159.98036927039999
 30
0.0
 11
833.61052947449991
 21
-159.23036927039999
 31
0.0
 12
833.61052947449991
 22
-160.73036927039999
 32
0.0
 13
832.86052947449991
 23
-159.98036927039999
 33
0.0
  0
LINE
  5
10D
  8
0
 62
     0
 10
838.6105294744998
 20
-159.98036927039999
 30
0.0
 11
835.61052947449991
 21
-159.98036927039999
 31
0.0
  0
SOLID
  5
10E
  8
0
 62
     0
 10
838.6105294744998
 20
-159.98036927039999
 30
0.0
 11
835.61052947449991
 21
-160.73036927039999
 31
0.0
 12
835.61052947449991
 22
-159.23036927039999
 32
0.0
 13
836.36052947449991
 23
-159.98036927039999
 33
0.0
  0
ENDBLK
  5
10F
  8
0
  0
BLOCK
  8
0
  2
*D15
 70
     1
 10
0.0
 20
0.0
 30
0.0
  3
*D15
  1

  0
TEXT
  5
113
  8
0
 62
     0
 10
742.68694188990003
 20
-187.74425810630001
 30
0.0
 40
2.9986110209999999
  1
30
 50
90.0
  0
LINE
  5
114
  8
0
 62
     0
 10
756.13275169669998
 20
-170.98036927039999
 30
0.0
 11
743.71610854070002
 21
-170.98036927039999
 31
0.0
  0
LINE
  5
115
  8
0
 62
     0
 10
756.13275169669998
 20
-200.98036927039999
 30
0.0
 11
743.71610854070002
 21
-200.98036927039999
 31
0.0
  0
LINE
  5
116
  8
0
 62
     0
 10
744.21610854070002
 20
-170.98036927039999
 30
0.0
 11
744.21610854070002
 21
-182.45259159860001
 31
0.0
  0
LINE
  5
117
  8
0
 62
     0
 10
744.21610854070002
 20
-170.98036927039999
 30
0.0
 11
744.21610854070002
 21
-189.5081469422
 31
0.0
  0
LINE
  5
118
  8
0
 62
     0
 10
744.21610854070002
 20
-200.98036927039999
 30
0.0
 11
744.21610854070002
 21
-182.45259159860001
 31
0.0
  0
LINE
  5
119
  8
0
 62
     0
 10
744.21610854070002
 20
-200.98036927039999
 30
0.0
 11
744.21610854070002
 21
-189.5081469422
 31
0.0
  0
LINE
  5
11A
  8
0
 62
     0
 10
744.21610854070002
 20
-200.98036927039999
 30
0.0
 11
744.21610854070002
 21
-197.98036927039999
 31
0.0
  0
SOLID
  5
11B
  8
0
 62
     0
 10
744.21610854070002
 20
-200.98036927039999
 30
0.0
 11
743.46610854070002
 21
-197.98036927039999
 31
0.0
 12
744.96610854070002
 22
-197.98036927039999
 32
0.0
 13
744.21610854070002
 23
-198.73036927039999
 33
0.0
  0
LINE
  5
11C
  8
0
 62
     0
 10
744.21610854070002
 20
-170.98036927039999
 30
0.0
 11
744.21610854070002
 21
-173.98036927039999
 31
0.0
  0
SOLID
  5
11D
  8
0
 62
     0
 10
744.21610854070002
 20
-170.98036927039999
 30
0.0
 11
744.96610854070002
 21
-173.98036927039999
 31
0.0
 12
743.46610854070002
 22
-173.98036927039999
 32
0.0
 13
744.21610854070002
 23
-173.23036927039999
 33
0.0
  0
ENDBLK
  5
11E
  8
0
  0
BLOCK
  8
0
  2
*D16
 70
     1
 10
0.0
 20
0.0
 30
0.0
  3
*D16
  1

  0
TEXT
  5
122
  8
0
 62
     0
 10
745.60358504589999
 20
-252.8349988471
 30
0.0
 40
2.9986110209999999
  1
16
 50
90.0
  0
LINE
  5
123
  8
0
 62
     0
 10
756.13275169669998
 20
-243.07111001120001
 30
0.0
 11
746.63275169669987
 21
-243.07111001120001
 31
0.0
  0
LINE
  5
124
  8
0
 62
     0
 10
756.13275169669998
 20
-259.07111001120001
 30
0.0
 11
746.63275169669987
 21
-259.07111001120001
 31
0.0
  0
LINE
  5
125
  8
0
 62
     0
 10
747.13275169669998
 20
-243.07111001120001
 30
0.0
 11
747.13275169669998
 21
-247.5433323394
 31
0.0
  0
LINE
  5
126
  8
0
 62
     0
 10
747.13275169669998
 20
-243.07111001120001
 30
0.0
 11
747.13275169669998
 21
-254.59888768299999
 31
0.0
  0
LINE
  5
127
  8
0
 62
     0
 10
747.13275169669998
 20
-259.07111001120001
 30
0.0
 11
747.13275169669998
 21
-247.5433323394
 31
0.0
  0
LINE
  5
128
  8
0
 62
     0
 10
747.13275169669998
 20
-259.07111001120001
 30
0.0
 11
747.13275169669998
 21
-254.59888768299999
 31
0.0
  0
LINE
  5
129
  8
0
 62
     0
 10
747.13275169669998
 20
-259.07111001120001
 30
0.0
 11
747.13275169669998
 21
-256.07111001120001
 31
0.0
  0
SOLID
  5
12A
  8
0
 62
     0
 10
747.13275169669998
 20
-259.07111001120001
 30
0.0
 11
746.38275169669998
 21
-256.07111001120001
 31
0.0
 12
747.88275169669987
 22
-256.07111001120001
 32
0.0
 13
747.13275169669998
 23
-256.82111001120001
 33
0.0
  0
LINE
  5
12B
  8
0
 62
     0
 10
747.13275169669998
 20
-243.07111001120001
 30
0.0
 11
747.13275169669998
 21
-246.07111001120001
 31
0.0
  0
SOLID
  5
12C
  8
0
 62
     0
 10
747.13275169669998
 20
-243.07111001120001
 30
0.0
 11
747.88275169669987
 21
-246.07111001120001
 31
0.0
 12
746.38275169669998
 22
-246.07111001120001
 32
0.0
 13
747.13275169669998
 23
-245.32111001120001
 33
0.0
  0
ENDBLK
  5
12D
  8
0
  0
BLOCK
  8
0
  2
*D17
 70
     1
 10
0.0
 20
0.0
 30
0.0
  3
*D17
  1

  0
TEXT
  5
14C
  8
0
 62
     0
 10
914.70404170669997
 20
-167.4475306336
 30
0.0
 40
2.9986110209999999
  1
90%%d
 50
360.0
  0
ARC
  5
14D
  8
0
 62
     0
 10
917.3498749606
 20
-212.75073964079999
 30
0.0
 40
43.715709054899989
 50
130.2020451656
 51
135.0
  0
ARC
  5
14E
  8
0
 62
     0
 10
917.3498749606
 20
-212.75073964079999
 30
0.0
 40
43.715709054899989
 50
45.0
 51
49.797954834400002
  0
SOLID
  5
14F
  8
0
 62
     0
 10
948.26154927770006
 20
-181.8390653237
 30
0.0
 11
950.91319970719996
 21
-183.43005558140001
 31
0.0
 12
949.85253953539996
 22
-184.49071575310001
 32
0.0
 13
949.85253953539996
 23
-183.43005558140001
 33
0.0
  0
SOLID
  5
150
  8
0
 62
     0
 10
886.43820064349995
 20
-181.8390653237
 30
0.0
 11
884.84721038580005
 21
-184.49071575310001
 31
0.0
 12
883.78655021399993
 22
-183.43005558140001
 32
0.0
 13
884.84721038580005
 23
-183.43005558140001
 33
0.0
  0
ARC
  5
151
  8
0
 62
     0
 10
917.3498749606
 20
-212.75073964079999
 30
0.0
 40
43.715709054899989
 50
45.0
 51
84.146063642399994
  0
ARC
  5
152
  8
0
 62
     0
 10
917.3498749606
 20
-212.75073964079999
 30
0.0
 40
43.715709054899989
 50
95.853936357600006
 51
135.0
  0
LINE
  5
153
  8
0
 62
     0
 10
941.14250345350001
 20
-188.95811114790001
 30
0.0
 11
949.67576284009988
 21
-180.4248517613
 31
0.0
  0
LINE
  5
154
  8
0
 62
     0
 10
893.18139924550007
 20
-188.58226392559999
 30
0.0
 11
885.02398708110002
 21
-180.4248517613
 31
0.0
  0
ENDBLK
  5
155
  8
0
  0
BLOCK
  8
0
  2
*D18
 70
     1
 10
0.0
 20
0.0
 30
0.0
  3
*D18
  1

  0
TEXT
  5
159
  8
0
 62
     0
 10
771.01117153229995
 20
-184.978261737
 30
0.0
 40
2.9986110209999999
  1
90%%d
 50
311.1029942902
  0
ARC
  5
15A
  8
0
 62
     0
 10
760.13275169669998
 20
-197.98036927039999
 30
0.0
 40
15.1574809321
 50
71.420480216200005
 51
90.0
  0
ARC
  5
15B
  8
0
 62
     0
 10
760.13275169669998
 20
-197.98036927039999
 30
0.0
 40
15.1574809321
 50
0.0
 51
18.579519783799999
  0
SOLID
  5
15C
  8
0
 62
     0
 10
775.29023262889996
 20
-197.98036927039999
 30
0.0
 11
776.04023262889984
 21
-200.98036927039999
 31
0.0
 12
774.54023262889984
 22
-200.98036927039999
 32
0.0
 13
775.29023262889996
 23
-200.23036927039999
 33
0.0
  0
SOLID
  5
15D
  8
0
 62
     0
 10
760.13275169669998
 20
-182.8228883383
 30
0.0
 11
757.13275169669998
 21
-183.5728883383
 31
0.0
 12
757.13275169669998
 22
-182.0728883383
 32
0.0
 13
757.88275169669998
 23
-182.8228883383
 33
0.0
  0
ARC
  5
15E
  8
0
 62
     0
 10
760.13275169669998
 20
-197.98036927039999
 30
0.0
 40
15.1574809321
 50
0.0
 51
24.134452022000001
  0
ARC
  5
15F
  8
0
 62
     0
 10
760.13275169669998
 20
-197.98036927039999
 30
0.0
 40
15.1574809321
 50
58.071536558500007
 51
90.0
  0
LINE
  5
160
  8
0
 62
     0
 10
785.13275169669998
 20
-197.98036927039999
 30
0.0
 11
773.29023262889984
 21
-197.98036927039999
 31
0.0
  0
LINE
  5
161
  8
0
 62
     0
 10
760.13275169669998
 20
-172.98036927039999
 30
0.0
 11
760.13275169669998
 21
-184.8228883383
 31
0.0
  0
ENDBLK
  5
162
  8
0
  0
BLOCK
  8
0
  2
*U19
 70
     1
 10
0.0
 20
0.0
 30
0.0
  3
*U19
  1

  0
TEXT
  5
213
  8
┌▓È_1
  6
CONTINUOUS
 10
905.70230042758067
 20
-234.5717741576112
 30
0.0
 40
2.9986110209999999
  1
ÄMâéâ~òöègæÕÉ}
  0
ENDBLK
  5
215
  8
0
  0
BLOCK
  8
0
  2
*U20
 70
     1
 10
0.0
 20
0.0
 30
0.0
  3
*U20
  1

  0
TEXT
  5
217
  8
┌▓È_1
  6
CONTINUOUS
 10
902.89436529880015
 20
-292.6403237435685
 30
0.0
 40
2.337499999999999
  1
ü@îƒ ü@ê¾
  0
ENDBLK
  5
219
  8
0
  0
BLOCK
  8
0
  2
*U21
 70
     1
 10
0.0
 20
0.0
 30
0.0
  3
*U21
  1

  0
TEXT
  5
21B
  8
┌▓È_1
  6
CONTINUOUS
 10
886.89436529880015
 20
-301.12845826133503
 30
0.0
 40
2.337499999999999
  1
ü@Ä┌ ü@ôx
  0
ENDBLK
  5
21D
  8
0
  0
BLOCK
  8
0
  2
*U22
 70
     1
 10
0.0
 20
0.0
 30
0.0
  3
*U22
  1

  0
TEXT
  5
21F
  8
┌▓È_1
  6
CONTINUOUS
 10
886.89436529880015
 20
-292.6403237435685
 30
0.0
 40
2.337499999999999
  1
ü@ö┬ ü@î·
  0
ENDBLK
  5
221
  8
0
  0
BLOCK
  8
0
  2
*U23
 70
     1
 10
0.0
 20
0.0
 30
0.0
  3
*U23
  1

  0
TEXT
  5
223
  8
┌▓È_1
  6
CONTINUOUS
 10
870.89436529880015
 20
-292.59286181463449
 30
0.0
 40
2.337499999999999
  1
ü@ìÌ ü@Ä┐
  0
ENDBLK
  5
225
  8
0
  0
BLOCK
  8
0
  2
*U24
 70
     1
 10
0.0
 20
0.0
 30
0.0
  3
*U24
  1

  0
TEXT
  5
227
  8
┌▓È_1
  6
CONTINUOUS
 62
     5
 10
891.53973456364213
 20
-305.259803439
 30
0.0
 40
2.337499999999999
  1
1üF1
  0
ENDBLK
  5
229
  8
0
  0
BLOCK
  8
0
  2
*U25
 70
     1
 10
0.0
 20
0.0
 30
0.0
  3
*U25
  1

  0
TEXT
  5
22B
  8
┌▓È_1
  6
CONTINUOUS
 62
     5
 10
891.41514700019036
 20
-296.759803439
 30
0.0
 40
2.337499999999999
  1
3.0t
  0
ENDBLK
  5
22D
  8
0
  0
BLOCK
  8
0
  2
*U26
 70
     1
 10
0.0
 20
0.0
 30
0.0
  3
*U26
  1

  0
TEXT
  5
22F
  8
┌▓È_1
  6
CONTINUOUS
 62
     5
 10
877.02885258394656
 20
-296.90218922580198
 30
0.0
 40
2.337499999999999
  1
ôS
  0
ENDBLK
  5
231
  8
0
  0
BLOCK
  8
0
  2
*U27
 70
     1
 10
0.0
 20
0.0
 30
0.0
  3
*U27
  1

  0
TEXT
  5
233
  8
┌▓È_1
  6
CONTINUOUS
 62
     5
 10
858.61422694942883
 20
-296.759803439
 30
0.0
 40
2.337499999999999
  1
H16.4
  0
ENDBLK
  5
235
  8
0
  0
BLOCK
  8
0
  2
*U28
 70
     1
 10
0.0
 20
0.0
 30
0.0
  3
*U28
  1

  0
TEXT
  5
237
  8
┌▓È_1
  6
CONTINUOUS
 10
919.3194789411998
 20
-309.56396319990102
 30
0.0
 40
2.337499999999999
  1
É}öÈ
  0
ENDBLK
  5
239
  8
0
  0
BLOCK
  8
0
  2
*U29
 70
     1
 10
0.0
 20
0.0
 30
0.0
  3
*U29
  1

  0
TEXT
  5
23B
  8
┌▓È_1
  6
CONTINUOUS
 10
919.3194789411998
 20
-301.08769416436797
 30
0.0
 40
2.337499999999999
  1
òiû╝
  0
ENDBLK
  5
23D
  8
0
  0
BLOCK
  8
0
  2
*U30
 70
     1
 10
0.0
 20
0.0
 30
0.0
  3
*U30
  1

  0
TEXT
  5
23F
  8
┌▓È_1
  6
CONTINUOUS
 10
919.3194789411998
 20
-292.56396319990102
 30
0.0
 40
2.337499999999999
  1
î^öÈ
  0
ENDBLK
  5
241
  8
0
  0
BLOCK
  8
0
  2
*U31
 70
     1
 10
0.0
 20
0.0
 30
0.0
  3
*U31
  1

  0
TEXT
  5
243
  8
┌▓È_1
  6
CONTINUOUS
 10
854.89436529880004
 20
-292.55726536793401
 30
0.0
 40
2.337499999999999
  1
ü@ô· ü@òt
  0
ENDBLK
  5
245
  8
0
  0
BLOCK
  8
0
  2
*U32
 70
     1
 10
0.0
 20
0.0
 30
0.0
  3
*U32
  1

  0
TEXT
  5
247
  8
┌▓È_1
  6
CONTINUOUS
 10
854.42897948749999
 20
-305.40218922580198
 30
0.0
 40
2.337499999999999
  1
 É╗É}ü@ü@ è¦û{
  0
ENDBLK
  5
249
  8
0
  0
BLOCK
  8
0
  2
*U33
 70
     1
 10
0.0
 20
0.0
 30
0.0
  3
*U33
  1

  0
TEXT
  5
24B
  8
┌▓È_1
  6
CONTINUOUS
 10
854.42897948749999
 20
-301.14032374356862
 30
0.0
 40
2.337499999999999
  1
 É¦îvü@ü@öÆÉ{ëÛ
  0
ENDBLK
  5
24D
  8
0
  0
BLOCK
  8
0
  2
*U34
 70
     1
 10
0.0
 20
0.0
 30
0.0
  3
*U34
  1

  0
TEXT
  5
24F
  8
┌▓È_1
  6
CONTINUOUS
 10
932.18957801488375
 20
-294.9875353425
 30
0.0
 40
3.5983331442000002
  1
LY-203  30x30
  0
ENDBLK
  5
251
  8
0
  0
BLOCK
  8
0
  2
*D35
 70
     1
 10
0.0
 20
0.0
 30
0.0
  3
*D35
  1

  0
LINE
  5
254
  8
Éíû@É³
 62
     0
 10
940.67866137312399
 20
-189.42195322827581
 30
0.0
 11
949.14543275418112
 21
-180.9551818472188
 31
0.0
  0
LINE
  5
255
  8
Éíû@É³
 62
     0
 10
894.02108854807591
 20
-189.42195322827581
 30
0.0
 11
885.55431716701901
 21
-180.9551818472188
 31
0.0
  0
ARC
  5
256
  8
Éíû@É³
 62
     0
 10
917.3498749606
 20
-212.75073964079999
 30
0.0
 40
43.715709054900032
 50
48.932707232185358
 51
83.909906604410878
  0
ARC
  5
257
  8
Éíû@É³
 62
     0
 10
917.3498749606
 20
-212.75073964079999
 30
0.0
 40
43.715709054900032
 50
96.090093395589108
 51
131.06729276781459
  0
SOLID
  5
258
  8
Éíû@É³
 62
     0
 10
946.40990390296565
 20
-179.42630561618179
 30
0.0
 11
945.72747618024175
 21
-180.15725869487991
 31
0.0
 12
948.2615492776979
 22
-181.8390653237019
 32
0.0
 13
948.2615492776979
 23
-181.8390653237019
 33
0.0
  0
SOLID
  5
259
  8
Éíû@É³
 62
     0
 10
888.97227374095814
 20
-180.15725869487991
 30
0.0
 11
888.28984601823436
 21
-179.42630561618179
 31
0.0
 12
886.438200643502
 22
-181.8390653237019
 32
0.0
 13
886.438200643502
 23
-181.8390653237019
 33
0.0
  0
TEXT
  8
Éíû@É³
  40
2.99861
  5
27B
  62
0
  72
0
  71
0
 10
911.353
 20
-174.343
 30
0.000000
  1
90üï
  0
POINT
  5
25B
  8
Defpoints
 62
     0
 10
917.3498749606
 20
-212.75073964079999
 30
0.0
  0
POINT
  5
25C
  8
Defpoints
 62
     0
 10
940.63446719929982
 20
-189.46614740209989
 30
0.0
  0
POINT
  5
25D
  8
Defpoints
 62
     0
 10
894.06528272189996
 20
-189.46614740209989
 30
0.0
  0
POINT
  5
25E
  8
Defpoints
 62
     0
 10
928.66433303416875
 20
-170.52460725013319
 30
0.0
  0
ENDBLK
  5
260
  8
0
  0
BLOCK
  8
0
  2
*D36
 70
     1
 10
0.0
 20
0.0
 30
0.0
  3
*D36
  1

  0
LINE
  5
262
  8
Éíû@É³
 62
     0
 10
787.07025169669976
 20
-197.98036927039999
 30
0.0
 11
774.04023262885437
 21
-197.98036927039999
 31
0.0
  0
LINE
  5
263
  8
Éíû@É³
 62
     0
 10
760.13275169669976
 20
-171.04286927039999
 30
0.0
 11
760.13275169669998
 21
-184.07288833824541
 31
0.0
  0
ARC
  5
264
  8
Éíû@É³
 62
     0
 10
760.13275169669976
 20
-197.9803692703999
 30
0.0
 40
15.15748093215449
 50
11.358690798595109
 51
23.28583227937597
  0
ARC
  5
265
  8
Éíû@É³
 62
     0
 10
760.13275169669976
 20
-197.9803692703999
 30
0.0
 40
15.15748093215449
 50
58.920156300355252
 51
78.64130920140461
  0
SOLID
  5
266
  8
Éíû@É³
 62
     0
 10
775.49089517863979
 20
-194.9456148254549
 30
0.0
 11
774.49580386948014
 21
-195.0445758603864
 31
0.0
 12
775.29023262885448
 22
-197.98036927039999
 32
0.0
 13
775.29023262885448
 23
-197.98036927039999
 33
0.0
  0
SOLID
  5
267
  8
Éíû@É³
 62
     0
 10
763.06854510671326
 20
-183.61731709761969
 30
0.0
 11
763.16750614164494
 21
-182.6222257884599
 31
0.0
 12
760.13275169669976
 22
-182.82288833824541
 32
0.0
 13
760.13275169669976
 23
-182.82288833824541
 33
0.0
  0
TEXT
  8
Éíû@É³
  40
2.99861
  5
27C
  62
0
  72
0
  71
0
 10
765.557
 20
-193.323
 30
0.000000
  1
90üï
  0
POINT
  5
269
  8
Defpoints
 62
     0
 10
760.13275169669976
 20
-197.9803692703999
 30
0.0
  0
POINT
  5
26A
  8
Defpoints
 62
     0
 10
787.13275169669976
 20
-197.98036927039999
 30
0.0
  0
POINT
  5
26B
  8
Defpoints
 62
     0
 10
760.13275169669976
 20
-170.98036927039999
 30
0.0
  0
POINT
  5
26C
  8
Defpoints
 62
     0
 10
767.71149216277706
 20
-184.85360572577591
 30
0.0
  0
ENDBLK
  5
26E
  8
0
  0
BLOCK
  8
0
  2
*U37
 70
     1
 10
0.0
 20
0.0
 30
0.0
  3
*U37
  1

  0
TEXT
  5
270
  8
┌▓È_1
  6
CONTINUOUS
 10
861.64953321229984
 20
-312.71920989556651
 30
0.0
 40
4.3179999351999987
  1
èöÄ«ë´Äð
  0
ENDBLK
  5
272
  8
0
  0
BLOCK
  8
0
  2
*U38
 70
     1
 10
0.0
 20
0.0
 30
0.0
  3
*U38
  1

  0
TEXT
  5
274
  8
┌▓È_1
  6
CONTINUOUS
 10
933.83412775539989
 20
-304.27576244236349
 30
0.0
 40
3.5983331442000002
  1
ékî^âAâôâOâï
  0
ENDBLK
  5
276
  8
0
  0
BLOCK
  8
0
  2
*U39
 70
     1
 10
0.0
 20
0.0
 30
0.0
  3
*U39
  1

  0
TEXT
  5
278
  8
┌▓È_1
  6
CONTINUOUS
 10
854.42897948749999
 20
-288.04557572892901
 30
0.0
 40
3.5983331442000002
  1
ò\û╩ÅêùØüFâåâjâNâìâüâbâLÄdÅÒé░
  0
ENDBLK
  5
27A
  8
0
  0
ENDSEC
  0
SECTION
  2
ENTITIES
  0
DIMENSION
  5
3E
  8
Éíû@É³
  2
*D0
 10
937.3498749606
 20
-182.75073964079999
 30
0.0
 11
917.3498749606
 21
-182.75073964079999
 31
0.0
 70
   128
  1
%%c8
 13
937.3498749606
 23
-192.75073964079999
 33
0.0
 14
897.34987496059989
 24
-192.75073964079999
 34
0.0
  0
DIMENSION
  5
4D
  8
Éíû@É³
  2
*D1
 10
907.34987496060012
 20
-221.0269167241
 30
0.0
 11
917.3498749606
 21
-221.0269167241
 31
0.0
 70
   128
  1
%%c4
 13
907.34987496060012
 23
-207.75073964079999
 33
0.0
 14
927.3498749606
 24
-207.75073964079999
 34
0.0
 50
180.0
  0
DIMENSION
  5
5C
  8
Éíû@É³
  2
*D2
 10
798.13275169669998
 20
-259.07111001120001
 30
0.0
 11
798.13275169669998
 21
-263.34598501120001
 31
0.0
 70
   128
  1
<>
 13
787.13275169669987
 23
-259.07111001120001
 33
0.0
 14
788.13275169669987
 24
-251.07111001120001
 34
0.0
 50
90.0
  0
DIMENSION
  5
6B
  8
Éíû@É³
  2
*D3
 10
757.13275169669998
 20
-210.98036927039999
 30
0.0
 11
772.13275169669998
 21
-210.98036927039999
 31
0.0
 70
   128
  1
<>
 13
757.13275169669998
 23
-197.98036927039999
 33
0.0
 14
787.13275169669987
 24
-200.98036927039999
 34
0.0
 50
180.0
  0
DIMENSION
  5
7A
  8
Éíû@É³
  2
*D4
 10
820.61052947449991
 20
-170.98036927039999
 30
0.0
 11
820.61052947449991
 21
-173.48036927039999
 31
0.0
 70
   128
  1
<>
 13
830.6105294744998
 23
-170.98036927039999
 33
0.0
 14
832.61052947450003
 24
-175.98036927039999
 34
0.0
 50
90.0
  0
DIMENSION
  5
89
  8
Éíû@É³
  2
*D5
 10
787.13275169669987
 20
-233.07111001120001
 30
0.0
 11
784.63275169669998
 21
-233.07111001120001
 31
0.0
 70
   128
  1
<>
 13
787.13275169669987
 23
-243.07111001120001
 33
0.0
 14
782.13275169669998
 24
-245.07111001120001
 34
0.0
  0
DIMENSION
  5
98
  8
Éíû@É³
  2
*D6
 10
782.13275169669998
 20
-233.07111001120001
 30
0.0
 11
775.13275169669987
 21
-233.07111001120001
 31
0.0
 70
   128
  1
<>
 13
782.13275169669998
 23
-245.07111001120001
 33
0.0
 14
768.13275169669998
 24
-245.07111001120001
 34
0.0
  0
DIMENSION
  5
A7
  8
Éíû@É³
  2
*D7
 10
820.61052947449991
 20
-175.98036927039999
 30
0.0
 11
820.61052947449991
 21
-182.98036927039999
 31
0.0
 70
   128
  1
<>
 13
832.61052947450003
 23
-175.98036927039999
 33
0.0
 14
832.61052947450003
 24
-189.98036927039999
 34
0.0
 50
90.0
  0
DIMENSION
  5
B6
  8
Éíû@É³
  2
*D8
 10
820.61052947449991
 20
-189.98036927039999
 30
0.0
 11
820.61052947449991
 21
-195.48036927039999
 31
0.0
 70
   128
  1
<>
 13
832.61052947450003
 23
-189.98036927039999
 33
0.0
 14
830.6105294744998
 24
-200.98036927039999
 34
0.0
 50
90.0
  0
DIMENSION
  5
C5
  8
Éíû@É³
  2
*D9
 10
768.13275169669998
 20
-233.07111001120001
 30
0.0
 11
762.63275169669987
 21
-233.07111001120001
 31
0.0
 70
   128
  1
<>
 13
768.13275169669998
 23
-245.07111001120001
 33
0.0
 14
757.13275169669998
 24
-243.07111001120001
 34
0.0
  0
DIMENSION
  5
D4
  8
Éíû@É³
  2
*D10
 10
846.6105294744998
 20
-150.88592482600001
 30
0.0
 11
838.6105294744998
 21
-150.88592482600001
 31
0.0
 70
   128
  1
<>
 13
846.6105294744998
 23
-170.98036927039999
 33
0.0
 14
830.6105294744998
 24
-170.98036927039999
 34
0.0
  0
DIMENSION
  5
E3
  8
Éíû@É³
  2
*D11
 10
760.13275169669998
 20
-160.26097090389999
 30
0.0
 11
766.23781110130005
 21
-160.26097090389999
 31
0.0
 70
   128
  1
<>t
 13
760.13275169669998
 23
-170.98036927039999
 33
0.0
 14
757.13275169669998
 24
-170.98036927039999
 34
0.0
  0
DIMENSION
  5
F2
  8
Éíû@É³
  2
*D12
 10
798.13275169669998
 20
-251.07111001120001
 30
0.0
 11
798.13275169669998
 21
-237.42796308429999
 31
0.0
 70
   128
  1
<>
 13
788.13275169669987
 23
-251.07111001120001
 33
0.0
 14
787.13275169669987
 24
-243.07111001120001
 34
0.0
 50
90.0
  0
DIMENSION
  5
101
  8
Éíû@É³
  2
*D13
 10
846.6105294744998
 20
-159.98036927039999
 30
0.0
 11
854.36740794669993
 21
-159.98036927039999
 31
0.0
 70
   128
  1
<>
 13
846.6105294744998
 23
-170.98036927039999
 33
0.0
 14
838.6105294744998
 24
-169.98036927039999
 34
0.0
  0
DIMENSION
  5
110
  8
Éíû@É³
  2
*D14
 10
838.6105294744998
 20
-159.98036927039999
 30
0.0
 11
824.50988143439997
 21
-159.98036927039999
 31
0.0
 70
   128
  1
<>
 13
838.6105294744998
 23
-169.98036927039999
 33
0.0
 14
830.6105294744998
 24
-170.98036927039999
 34
0.0
  0
DIMENSION
  5
11F
  8
Éíû@É³
  2
*D15
 10
744.21610854070002
 20
-170.98036927039999
 30
0.0
 11
744.21610854070002
 21
-185.98036927039999
 31
0.0
 70
   128
  1
<>
 13
757.13275169669998
 23
-170.98036927039999
 33
0.0
 14
757.13275169669998
 24
-200.98036927039999
 34
0.0
 50
90.0
  0
DIMENSION
  5
12E
  8
Éíû@É³
  2
*D16
 10
747.13275169669998
 20
-243.07111001120001
 30
0.0
 11
747.13275169669998
 21
-251.07111001120001
 31
0.0
 70
   128
  1
<>
 13
757.13275169669998
 23
-243.07111001120001
 33
0.0
 14
757.13275169669998
 24
-259.07111001120001
 34
0.0
 50
90.0
  0
LINE
  5
130
  8
┌▓È_1
 10
905.06647130380009
 20
-236.02824127349999
 30
0.0
 11
932.04176882979982
 21
-236.02824127349999
 31
0.0
  0
INSERT
  5
131
  8
0
  6
CONTINUOUS
  2
*U19
 10
0.0
 20
0.0
 30
0.0
  0
INSERT
  5
132
  8
0
  6
CONTINUOUS
  2
*U20
 10
0.0
 20
0.0
 30
0.0
  0
INSERT
  5
133
  8
0
  6
CONTINUOUS
  2
*U21
 10
0.0
 20
0.0
 30
0.0
  0
INSERT
  5
134
  8
0
  6
CONTINUOUS
  2
*U22
 10
0.0
 20
0.0
 30
0.0
  0
INSERT
  5
135
  8
0
  6
CONTINUOUS
  2
*U23
 10
0.0
 20
0.0
 30
0.0
  0
INSERT
  5
136
  8
0
  6
CONTINUOUS
  2
*U24
 10
0.0
 20
0.0
 30
0.0
  0
INSERT
  5
137
  8
0
  6
CONTINUOUS
  2
*U25
 10
0.0
 20
0.0
 30
0.0
  0
INSERT
  5
138
  8
0
  6
CONTINUOUS
  2
*U26
 10
0.0
 20
0.0
 30
0.0
  0
INSERT
  5
139
  8
0
  6
CONTINUOUS
  2
*U27
 10
0.0
 20
0.0
 30
0.0
  0
INSERT
  5
13A
  8
0
  6
CONTINUOUS
  2
*U28
 10
0.0
 20
0.0
 30
0.0
  0
INSERT
  5
13B
  8
0
  6
CONTINUOUS
  2
*U29
 10
0.0
 20
0.0
 30
0.0
  0
INSERT
  5
13C
  8
0
  6
CONTINUOUS
  2
*U30
 10
0.0
 20
0.0
 30
0.0
  0
INSERT
  5
13D
  8
0
  6
CONTINUOUS
  2
*U31
 10
0.0
 20
0.0
 30
0.0
  0
INSERT
  5
13E
  8
0
  6
CONTINUOUS
  2
*U32
 10
0.0
 20
0.0
 30
0.0
  0
INSERT
  5
13F
  8
0
  6
CONTINUOUS
  2
*U33
 10
0.0
 20
0.0
 30
0.0
  0
LINE
  5
140
  8
┌▓È_1
 10
888.42897948749999
 20
-302.21677003169998
 30
0.0
 11
900.42897948749987
 21
-302.21677003169998
 31
0.0
  0
LINE
  5
141
  8
┌▓È_1
 10
888.42897948749999
 20
-293.71677003169998
 30
0.0
 11
900.42897948749987
 21
-293.71677003169998
 31
0.0
  0
LINE
  5
142
  8
┌▓È_1
 10
856.42897948749999
 20
-302.21677003169998
 30
0.0
 11
884.42897948749987
 21
-302.21677003169998
 31
0.0
  0
LINE
  5
143
  8
┌▓È_1
 10
872.42897948749999
 20
-293.71677003169998
 30
0.0
 11
884.42897948749987
 21
-293.71677003169998
 31
0.0
  0
LINE
  5
144
  8
┌▓È_1
 62
     5
 10
974.42897948749987
 20
-314.96677003169998
 30
0.0
 11
974.42897948749987
 21
-124.96677003169999
 31
0.0
  0
LINE
  5
145
  8
┌▓È_1
 62
     5
 10
699.42897948749987
 20
-314.96677003169998
 30
0.0
 11
699.42897948749987
 21
-124.96677003169999
 31
0.0
  0
LINE
  5
146
  8
┌▓È_1
 62
     5
 10
699.42897948749987
 20
-314.96677003169998
 30
0.0
 11
974.42897948749987
 21
-314.96677003169998
 31
0.0
  0
LINE
  5
147
  8
┌▓È_1
 62
     5
 10
699.42897948749987
 20
-124.96677003169999
 30
0.0
 11
974.42897948749987
 21
-124.96677003169999
 31
0.0
  0
INSERT
  5
148
  8
0
  6
CONTINUOUS
  2
*U34
 10
0.0
 20
0.0
 30
0.0
  0
DIMENSION
  5
156
  8
Éíû@É³
  2
*D35
 10
928.66433303416875
 20
-170.52460725013319
 30
0.0
 11
917.3498749606
 21
-169.03503058589999
 31
0.0
 70
   133
  1
<>
 13
894.06528272189996
 23
-189.46614740209989
 33
0.0
 14
940.63446719929982
 24
-189.46614740209989
 34
0.0
 15
917.3498749606
 25
-212.75073964079999
 35
0.0
1001
ACAD
1000
DSTYLE
1002
{
1070
   271
1070
     0
1002
}
  0
DIMENSION
  5
163
  8
Éíû@É³
  2
*D36
 10
767.71149216277706
 20
-184.85360572577591
 30
0.0
 11
771.55435370229986
 21
-188.01561960800001
 31
0.0
 70
   133
  1
<>
 13
760.13275169669998
 23
-170.98036927039999
 33
0.0
 14
787.13275169669987
 24
-197.98036927039999
 34
0.0
 15
760.13275169669998
 25
-197.98036927039999
 35
0.0
1001
ACAD
1000
DSTYLE
1002
{
1070
   271
1070
     0
1002
}
  0
LINE
  5
164
  8
┌▓È_1
 62
     5
 10
897.55466570199997
 20
-309.95400808619991
 30
0.0
 11
897.55466570199997
 21
-309.69631987219998
 31
0.0
  0
LINE
  5
165
  8
┌▓È_1
 62
     5
 10
887.70529780419997
 20
-309.43863165819999
 30
0.0
 11
887.70529780419997
 21
-310.63863165819998
 31
0.0
  0
LINE
  5
166
  8
┌▓È_1
 62
     5
 10
895.42618085350011
 20
-309.43863165819999
 30
0.0
 11
895.42618085350011
 21
-310.63863165819998
 31
0.0
  0
LINE
  5
167
  8
┌▓È_1
 62
     5
 10
909.88865182059988
 20
-313.83863165819997
 30
0.0
 11
912.1286518206
 21
-313.83863165819997
 31
0.0
  0
LINE
  5
168
  8
┌▓È_1
 62
     5
 10
890.62618085350005
 20
-309.43863165819999
 30
0.0
 11
890.62618085350005
 21
-309.03863165820002
 31
0.0
  0
LINE
  5
169
  8
┌▓È_1
 62
     5
 10
897.55466570199997
 20
-313.43863165819999
 30
0.0
 11
897.55466570199997
 21
-312.23863165820001
 31
0.0
  0
LINE
  5
16A
  8
┌▓È_1
 62
     5
 10
888.62618085350005
 20
-309.43863165819999
 30
0.0
 11
887.70529780419997
 21
-309.43863165819999
 31
0.0
  0
LINE
  5
16B
  8
┌▓È_1
 62
     5
 10
913.72865182060002
 20
-311.27863165820003
 30
0.0
 11
913.72865182060002
 21
-312.71863165820002
 31
0.0
  0
LINE
  5
16C
  8
┌▓È_1
 62
     5
 10
904.7546657019999
 20
-312.23863165820001
 30
0.0
 11
904.7546657019999
 21
-313.43863165819999
 31
0.0
  0
LINE
  5
16D
  8
┌▓È_1
 62
     5
 10
888.62618085350005
 20
-310.63863165819998
 30
0.0
 11
888.50529780419993
 21
-310.63863165819998
 31
0.0
  0
LINE
  5
16E
  8
┌▓È_1
 62
     5
 10
888.62618085350005
 20
-312.23863165820001
 30
0.0
 11
888.62618085350005
 21
-313.43863165819999
 31
0.0
  0
LINE
  5
16F
  8
┌▓È_1
 62
     5
 10
911.39197401910008
 20
-311.27863165820003
 30
0.0
 11
911.20780456869988
 21
-310.63863165819998
 31
0.0
  0
LINE
  5
170
  8
┌▓È_1
 62
     5
 10
909.88865182059988
 20
-313.83863165819997
 30
0.0
 11
909.56011848720004
 21
-312.71863165820002
 31
0.0
  0
LINE
  5
171
  8
┌▓È_1
 62
     5
 10
891.02618085350002
 20
-312.23863165820001
 30
0.0
 11
888.62618085350005
 21
-312.23863165820001
 31
0.0
  0
LINE
  5
172
  8
┌▓È_1
 62
     5
 10
897.55466570199997
 20
-309.27863165820003
 30
0.0
 11
901.55466570199985
 21
-309.27863165820003
 31
0.0
  0
LINE
  5
173
  8
┌▓È_1
 62
     5
 10
913.72865182060002
 20
-309.19863165819999
 30
0.0
 11
913.72865182060002
 21
-310.63863165819998
 31
0.0
  0
LINE
  5
174
  8
┌▓È_1
 62
     5
 10
906.52865182059986
 20
-310.63863165819998
 30
0.0
 11
908.94998515390012
 21
-310.63863165819998
 31
0.0
  0
LINE
  5
175
  8
┌▓È_1
 62
     5
 10
906.52865182059986
 20
-311.27863165820003
 30
0.0
 11
906.52865182059986
 21
-312.71863165820002
 31
0.0
  0
LINE
  5
176
  8
┌▓È_1
 62
     5
 10
890.62618085350005
 20
-311.83863165819997
 30
0.0
 11
890.62618085350005
 21
-310.63863165819998
 31
0.0
  0
LINE
  5
177
  8
┌▓È_1
 62
     5
 10
911.80635528240009
 20
-312.71863165820002
 30
0.0
 11
913.72865182060002
 21
-312.71863165820002
 31
0.0
  0
LINE
  5
178
  8
┌▓È_1
 62
     5
 10
895.42618085350011
 20
-307.83863165819997
 30
0.0
 11
892.22618085350007
 21
-307.83863165819997
 31
0.0
  0
LINE
  5
179
  8
┌▓È_1
 62
     5
 10
897.55466570199997
 20
-307.83863165819997
 30
0.0
 11
897.55466570199997
 21
-309.27863165820003
 31
0.0
  0
LINE
  5
17A
  8
┌▓È_1
 10
902.42897948749999
 20
-293.71677003169998
 30
0.0
 11
918.42897948749987
 21
-293.71677003169998
 31
0.0
  0
LINE
  5
17B
  8
┌▓È_1
 10
918.42897948749987
 20
-297.96677003169998
 30
0.0
 11
974.42897948749987
 21
-297.96677003169998
 31
0.0
  0
LINE
  5
17C
  8
┌▓È_1
 10
854.42897948749999
 20
-297.96677003169998
 30
0.0
 11
902.42897948749999
 21
-297.96677003169998
 31
0.0
  0
LINE
  5
17D
  8
┌▓È_1
 62
     5
 10
891.82618085350009
 20
-307.83863165819997
 30
0.0
 11
888.62618085350005
 21
-307.83863165819997
 31
0.0
  0
LINE
  5
17E
  8
┌▓È_1
 62
     5
 10
890.62618085350005
 20
-309.03863165820002
 30
0.0
 11
891.82618085350009
 21
-307.83863165819997
 31
0.0
  0
LINE
  5
17F
  8
┌▓È_1
 62
     5
 10
888.62618085350005
 20
-307.83863165819997
 30
0.0
 11
888.62618085350005
 21
-309.43863165819999
 31
0.0
  0
LINE
  5
180
  8
┌▓È_1
 62
     5
 10
908.52758515389996
 20
-309.19863165819999
 30
0.0
 11
908.12865182059988
 21
-307.83863165819997
 31
0.0
  0
LINE
  5
181
  8
┌▓È_1
 62
     5
 10
910.79342330539987
 20
-309.19863165819999
 30
0.0
 11
913.72865182060002
 21
-309.19863165819999
 31
0.0
  0
INSERT
  5
182
  8
0
  6
CONTINUOUS
  2
*U37
 10
0.0
 20
0.0
 30
0.0
  0
LINE
  5
183
  8
┌▓È_1
 62
     5
 10
888.62618085350005
 20
-310.63863165819998
 30
0.0
 11
888.62618085350005
 21
-311.83863165819997
 31
0.0
  0
LINE
  5
184
  8
┌▓È_1
 62
     5
 10
903.04484118360006
 20
-311.7179366254
 30
0.0
 11
902.90235953579986
 21
-311.85743914070002
 31
0.0
  0
ARC
  5
185
  8
┌▓È_1
 62
     5
 10
898.51466570199989
 20
-309.19863165819999
 30
0.0
 40
3.04
 50
270.0
 51
298.08590481520002
  0
LINE
  5
186
  8
┌▓È_1
 62
     5
 10
897.55466570199997
 20
-312.23863165820001
 30
0.0
 11
897.55466570199997
 21
-313.43863165819999
 31
0.0
  0
LINE
  5
187
  8
┌▓È_1
 62
     5
 10
897.55466570199997
 20
-312.23863165820001
 30
0.0
 11
898.51466570199989
 21
-312.23863165820001
 31
0.0
  0
LINE
  5
188
  8
┌▓È_1
 62
     5
 10
908.12865182059988
 20
-307.83863165819997
 30
0.0
 11
911.32865182059993
 21
-307.83863165819997
 31
0.0
  0
LINE
  5
189
  8
┌▓È_1
 62
     5
 10
903.95466570199983
 20
-309.03863165820002
 30
0.0
 11
904.7546657019999
 21
-307.83863165819997
 31
0.0
  0
LINE
  5
18A
  8
┌▓È_1
 62
     5
 10
888.62618085350005
 20
-313.43863165819999
 30
0.0
 11
891.82618085350009
 21
-313.43863165819999
 31
0.0
  0
LINE
  5
18B
  8
┌▓È_1
 62
     5
 10
897.55466570199997
 20
-313.43863165819999
 30
0.0
 11
899.55466570199997
 21
-313.43863165819999
 31
0.0
  0
ARC
  5
18C
  8
┌▓È_1
 62
     5
 10
898.51466570199989
 20
-309.19863165819999
 30
0.0
 40
3.04
 50
331.39928138329998
 51
358.49204224580001
  0
LINE
  5
18D
  8
┌▓È_1
 62
     5
 10
894.22618085349995
 20
-310.63863165819998
 30
0.0
 11
895.42618085350011
 21
-310.63863165819998
 31
0.0
  0
ARC
  5
18E
  8
┌▓È_1
 62
     5
 10
899.55466570199997
 20
-309.03863165820002
 30
0.0
 40
4.4000000000000004
 50
270.0
 51
302.54495885400001
  0
LINE
  5
18F
  8
┌▓È_1
 62
     5
 10
887.70529780419997
 20
-310.63863165819998
 30
0.0
 11
888.50529780419993
 21
-310.63863165819998
 31
0.0
  0
LINE
  5
190
  8
┌▓È_1
 62
     5
 10
906.52865182059986
 20
-311.27863165820003
 30
0.0
 11
909.13771848719989
 21
-311.27863165820003
 31
0.0
  0
LINE
  5
191
  8
┌▓È_1
 62
     5
 10
895.42618085350011
 20
-309.43863165819999
 30
0.0
 11
894.22618085349995
 21
-309.43863165819999
 31
0.0
  0
LINE
  5
192
  8
┌▓È_1
 62
     5
 10
894.22618085349995
 20
-309.43863165819999
 30
0.0
 11
894.22618085349995
 21
-309.03863165820002
 31
0.0
  0
LINE
  5
193
  8
┌▓È_1
 10
856.42897948749999
 20
-293.71677003169998
 30
0.0
 11
868.42897948749987
 21
-293.71677003169998
 31
0.0
  0
LINE
  5
194
  8
┌▓È_1
 10
886.42897948749999
 20
-289.46677003169998
 30
0.0
 11
886.42897948749999
 21
-306.46677003169998
 31
0.0
  0
LINE
  5
195
  8
┌▓È_1
 62
     5
 10
900.75466570200001
 20
-309.69631987219998
 30
0.0
 11
900.30211736199999
 21
-310.14886821210001
 31
0.0
  0
LINE
  5
196
  8
┌▓È_1
 62
     5
 10
912.1286518206
 20
-313.83863165819997
 30
0.0
 11
911.80635528240009
 21
-312.71863165820002
 31
0.0
  0
LINE
  5
197
  8
┌▓È_1
 62
     5
 10
911.39197401910008
 20
-311.27863165820003
 30
0.0
 11
913.72865182060002
 21
-311.27863165820003
 31
0.0
  0
ARC
  5
198
  8
┌▓È_1
 62
     5
 10
899.55466570199997
 20
-309.03863165820002
 30
0.0
 40
4.4000000000000004
 50
322.48761197969998
 51
0.0
  0
LINE
  5
199
  8
┌▓È_1
 62
     5
 10
906.52865182059986
 20
-312.71863165820002
 30
0.0
 11
909.56011848720004
 21
-312.71863165820002
 31
0.0
  0
LINE
  5
19A
  8
┌▓È_1
 62
     5
 10
910.79342330539987
 20
-309.19863165819999
 30
0.0
 11
910.67630790519991
 21
-308.7916485458
 31
0.0
  0
LINE
  5
19B
  8
┌▓È_1
 62
     5
 10
904.7546657019999
 20
-307.83863165819997
 30
0.0
 11
897.55466570199997
 21
-307.83863165819997
 31
0.0
  0
LINE
  5
19C
  8
┌▓È_1
 62
     5
 10
888.62618085350005
 20
-311.83863165819997
 30
0.0
 11
890.62618085350005
 21
-311.83863165819997
 31
0.0
  0
LINE
  5
19D
  8
┌▓È_1
 62
     5
 10
894.22618085349995
 20
-309.03863165820002
 30
0.0
 11
895.42618085350011
 21
-307.83863165819997
 31
0.0
  0
LINE
  5
19E
  8
┌▓È_1
 62
     5
 10
909.13771848719989
 20
-311.27863165820003
 30
0.0
 11
908.94998515390012
 21
-310.63863165819998
 31
0.0
  0
LINE
  5
19F
  8
┌▓È_1
 62
     5
 10
903.95466570199983
 20
-309.03863165820002
 30
0.0
 11
904.7546657019999
 21
-307.83863165819997
 31
0.0
  0
LINE
  5
1A0
  8
┌▓È_1
 62
     5
 10
911.20780456869988
 20
-310.63863165819998
 30
0.0
 11
913.72865182060002
 21
-310.63863165819998
 31
0.0
  0
LINE
  5
1A1
  8
┌▓È_1
 62
     5
 10
892.22618085350007
 20
-307.83863165819997
 30
0.0
 11
892.22618085350007
 21
-309.43863165819999
 31
0.0
  0
ARC
  5
1A2
  8
┌▓È_1
 62
     5
 10
891.02618085350002
 20
-311.03863165820002
 30
0.0
 40
1.1999999999999991
 50
270.0
 51
0.0
  0
LINE
  5
1A3
  8
┌▓È_1
 62
     5
 10
901.18371569529995
 20
-310.65388838230001
 30
0.0
 11
900.99123905019997
 21
-310.8664790707
 31
0.0
  0
LINE
  5
1A4
  8
┌▓È_1
 62
     5
 10
897.55466570199997
 20
-309.69631987219998
 30
0.0
 11
900.75466570200001
 21
-309.69631987219998
 31
0.0
  0
LINE
  5
1A5
  8
┌▓È_1
 62
     5
 10
894.22618085349995
 20
-311.03863165820002
 30
0.0
 11
894.22618085349995
 21
-310.63863165819998
 31
0.0
  0
LINE
  5
1A6
  8
┌▓È_1
 62
     5
 10
906.52865182059986
 20
-309.19863165819999
 30
0.0
 11
906.52865182059986
 21
-310.63863165819998
 31
0.0
  0
LINE
  5
1A7
  8
┌▓È_1
 10
902.42897948749999
 20
-289.46677003169998
 30
0.0
 11
902.42897948749999
 21
-306.46677003169998
 31
0.0
  0
LINE
  5
1A8
  8
┌▓È_1
 10
870.42897948749999
 20
-289.46677003169998
 30
0.0
 11
870.42897948749999
 21
-297.96677003169998
 31
0.0
  0
LINE
  5
1A9
  8
┌▓È_1
 10
854.42897948749999
 20
-306.46677003169998
 30
0.0
 11
974.42897948749987
 21
-306.46677003169998
 31
0.0
  0
LINE
  5
1AA
  8
┌▓È_1
 10
854.42897948749999
 20
-289.46677003169998
 30
0.0
 11
974.42897948749987
 21
-289.46677003169998
 31
0.0
  0
LINE
  5
1AB
  8
┌▓È_1
 10
918.42897948749987
 20
-289.46677003169998
 30
0.0
 11
918.42897948749987
 21
-314.96677003169998
 31
0.0
  0
ARC
  5
1AC
  8
┌▓È_1
 62
     5
 10
891.82618085350009
 20
-311.03863165820002
 30
0.0
 40
2.399999999999999
 50
270.0
 51
0.0
  0
LINE
  5
1AD
  8
┌▓È_1
 62
     5
 10
910.67630790519991
 20
-308.7916485458
 30
0.0
 11
911.32865182059993
 21
-307.83863165819997
 31
0.0
  0
LINE
  5
1AE
  8
┌▓È_1
 62
     5
 10
892.22618085350007
 20
-309.43863165819999
 30
0.0
 11
890.62618085350005
 21
-309.43863165819999
 31
0.0
  0
LINE
  5
1AF
  8
┌▓È_1
  6
STITCH
 10
760.13275169669998
 20
-243.07111001120001
 30
0.0
 11
760.13275169669998
 21
-259.07111001120001
 31
0.0
  0
LINE
  5
1B0
  8
┌▓È_1
 62
     5
 10
757.13275169669998
 20
-243.07111001120001
 30
0.0
 11
757.13275169669998
 21
-259.07111001120001
 31
0.0
  0
LINE
  5
1B1
  8
┌▓È_1
 62
     5
 10
787.13275169669987
 20
-259.07111001120001
 30
0.0
 11
787.13275169669987
 21
-243.07111001120001
 31
0.0
  0
CIRCLE
  5
1B2
  8
┌▓È_1
  6
STITCH
 10
782.13275169669998
 20
-251.07111001120001
 30
0.0
 40
4.0
  0
CIRCLE
  5
1B3
  8
┌▓È_1
  6
STITCH
 10
768.13275169669998
 20
-251.07111001120001
 30
0.0
 40
4.0
  0
LINE
  5
1B4
  8
┌▓È_1
  6
BORDER
 62
     3
 10
768.13275169669998
 20
-245.07111001120001
 30
0.0
 11
768.13275169669998
 21
-257.07111001120001
 31
0.0
  0
LINE
  5
1B5
  8
┌▓È_1
  6
BORDER
 62
     3
 10
832.61052947450003
 20
-175.98036927039999
 30
0.0
 11
844.61052947449991
 21
-175.98036927039999
 31
0.0
  0
LINE
  5
1B6
  8
┌▓È_1
  6
BORDER
 62
     3
 10
832.61052947450003
 20
-189.98036927039999
 30
0.0
 11
844.61052947449991
 21
-189.98036927039999
 31
0.0
  0
LINE
  5
1B7
  8
┌▓È_1
 62
     5
 10
830.6105294744998
 20
-200.98036927039999
 30
0.0
 11
846.6105294744998
 21
-200.98036927039999
 31
0.0
  0
LINE
  5
1B8
  8
┌▓È_1
 62
     5
 10
846.6105294744998
 20
-170.98036927039999
 30
0.0
 11
830.6105294744998
 21
-170.98036927039999
 31
0.0
  0
LINE
  5
1B9
  8
┌▓È_1
 62
     5
 10
830.6105294744998
 20
-197.98036927039999
 30
0.0
 11
846.6105294744998
 21
-197.98036927039999
 31
0.0
  0
CIRCLE
  5
1BA
  8
┌▓È_1
 62
     5
 10
838.6105294744998
 20
-189.98036927039999
 30
0.0
 40
4.0
  0
CIRCLE
  5
1BB
  8
┌▓È_1
 62
     5
 10
838.6105294744998
 20
-175.98036927039999
 30
0.0
 40
4.0
  0
CIRCLE
  5
1BC
  8
┌▓È_1
 62
     5
 10
838.6105294744998
 20
-175.98036927039999
 30
0.0
 40
2.0
  0
CIRCLE
  5
1BD
  8
┌▓È_1
 62
     5
 10
838.6105294744998
 20
-189.98036927039999
 30
0.0
 40
2.0
  0
POLYLINE
  8
┌▓È_1
  5
27D
  62
5
  66
     1
 10
0.000000
 20
0.000000
 30
0.000000
  70
     8
  0
VERTEX
  8
┌▓È_1
  5
27E
 10
902.902
 20
-311.857
 30
0.000000
  70
    32
  0
VERTEX
  8
┌▓È_1
  5
27F
 10
902.916
 20
-311.861
 30
0.000000
  70
    32
  0
VERTEX
  8
┌▓È_1
  5
280
 10
902.930
 20
-311.865
 30
0.000000
  70
    32
  0
VERTEX
  8
┌▓È_1
  5
281
 10
902.944
 20
-311.869
 30
0.000000
  70
    32
  0
VERTEX
  8
┌▓È_1
  5
282
 10
902.958
 20
-311.873
 30
0.000000
  70
    32
  0
VERTEX
  8
┌▓È_1
  5
283
 10
902.972
 20
-311.877
 30
0.000000
  70
    32
  0
VERTEX
  8
┌▓È_1
  5
284
 10
902.986
 20
-311.881
 30
0.000000
  70
    32
  0
VERTEX
  8
┌▓È_1
  5
285
 10
903.001
 20
-311.885
 30
0.000000
  70
    32
  0
VERTEX
  8
┌▓È_1
  5
286
 10
903.015
 20
-311.889
 30
0.000000
  70
    32
  0
VERTEX
  8
┌▓È_1
  5
287
 10
903.029
 20
-311.892
 30
0.000000
  70
    32
  0
VERTEX
  8
┌▓È_1
  5
288
 10
903.043
 20
-311.896
 30
0.000000
  70
    32
  0
VERTEX
  8
┌▓È_1
  5
289
 10
903.057
 20
-311.900
 30
0.000000
  70
    32
  0
VERTEX
  8
┌▓È_1
  5
28A
 10
903.071
 20
-311.904
 30
0.000000
  70
    32
  0
VERTEX
  8
┌▓È_1
  5
28B
 10
903.085
 20
-311.907
 30
0.000000
  70
    32
  0
VERTEX
  8
┌▓È_1
  5
28C
 10
903.099
 20
-311.911
 30
0.000000
  70
    32
  0
VERTEX
  8
┌▓È_1
  5
28D
 10
903.114
 20
-311.915
 30
0.000000
  70
    32
  0
VERTEX
  8
┌▓È_1
  5
28E
 10
903.128
 20
-311.918
 30
0.000000
  70
    32
  0
VERTEX
  8
┌▓È_1
  5
28F
 10
903.142
 20
-311.922
 30
0.000000
  70
    32
  0
VERTEX
  8
┌▓È_1
  5
290
 10
903.156
 20
-311.925
 30
0.000000
  70
    32
  0
VERTEX
  8
┌▓È_1
  5
291
 10
903.170
 20
-311.929
 30
0.000000
  70
    32
  0
VERTEX
  8
┌▓È_1
  5
292
 10
903.185
 20
-311.933
 30
0.000000
  70
    32
  0
VERTEX
  8
┌▓È_1
  5
293
 10
903.199
 20
-311.936
 30
0.000000
  70
    32
  0
VERTEX
  8
┌▓È_1
  5
294
 10
903.213
 20
-311.940
 30
0.000000
  70
    32
  0
VERTEX
  8
┌▓È_1
  5
295
 10
903.227
 20
-311.943
 30
0.000000
  70
    32
  0
VERTEX
  8
┌▓È_1
  5
296
 10
903.242
 20
-311.947
 30
0.000000
  70
    32
  0
VERTEX
  8
┌▓È_1
  5
297
 10
903.256
 20
-311.950
 30
0.000000
  70
    32
  0
VERTEX
  8
┌▓È_1
  5
298
 10
903.270
 20
-311.954
 30
0.000000
  70
    32
  0
VERTEX
  8
┌▓È_1
  5
299
 10
903.285
 20
-311.957
 30
0.000000
  70
    32
  0
VERTEX
  8
┌▓È_1
  5
29A
 10
903.299
 20
-311.960
 30
0.000000
  70
    32
  0
VERTEX
  8
┌▓È_1
  5
29B
 10
903.313
 20
-311.964
 30
0.000000
  70
    32
  0
VERTEX
  8
┌▓È_1
  5
29C
 10
903.328
 20
-311.967
 30
0.000000
  70
    32
  0
VERTEX
  8
┌▓È_1
  5
29D
 10
903.342
 20
-311.971
 30
0.000000
  70
    32
  0
VERTEX
  8
┌▓È_1
  5
29E
 10
903.356
 20
-311.974
 30
0.000000
  70
    32
  0
VERTEX
  8
┌▓È_1
  5
29F
 10
903.371
 20
-311.977
 30
0.000000
  70
    32
  0
VERTEX
  8
┌▓È_1
  5
2A0
 10
903.385
 20
-311.981
 30
0.000000
  70
    32
  0
VERTEX
  8
┌▓È_1
  5
2A1
 10
903.400
 20
-311.984
 30
0.000000
  70
    32
  0
VERTEX
  8
┌▓È_1
  5
2A2
 10
903.414
 20
-311.987
 30
0.000000
  70
    32
  0
VERTEX
  8
┌▓È_1
  5
2A3
 10
903.428
 20
-311.990
 30
0.000000
  70
    32
  0
VERTEX
  8
┌▓È_1
  5
2A4
 10
903.443
 20
-311.994
 30
0.000000
  70
    32
  0
VERTEX
  8
┌▓È_1
  5
2A5
 10
903.457
 20
-311.997
 30
0.000000
  70
    32
  0
VERTEX
  8
┌▓È_1
  5
2A6
 10
903.472
 20
-312.000
 30
0.000000
  70
    32
  0
VERTEX
  8
┌▓È_1
  5
2A7
 10
903.486
 20
-312.003
 30
0.000000
  70
    32
  0
VERTEX
  8
┌▓È_1
  5
2A8
 10
903.501
 20
-312.006
 30
0.000000
  70
    32
  0
VERTEX
  8
┌▓È_1
  5
2A9
 10
903.515
 20
-312.010
 30
0.000000
  70
    32
  0
VERTEX
  8
┌▓È_1
  5
2AA
 10
903.530
 20
-312.013
 30
0.000000
  70
    32
  0
VERTEX
  8
┌▓È_1
  5
2AB
 10
903.544
 20
-312.016
 30
0.000000
  70
    32
  0
VERTEX
  8
┌▓È_1
  5
2AC
 10
903.559
 20
-312.019
 30
0.000000
  70
    32
  0
VERTEX
  8
┌▓È_1
  5
2AD
 10
903.573
 20
-312.022
 30
0.000000
  70
    32
  0
VERTEX
  8
┌▓È_1
  5
2AE
 10
903.588
 20
-312.025
 30
0.000000
  70
    32
  0
VERTEX
  8
┌▓È_1
  5
2AF
 10
903.602
 20
-312.028
 30
0.000000
  70
    32
  0
VERTEX
  8
┌▓È_1
  5
2B0
 10
903.617
 20
-312.031
 30
0.000000
  70
    32
  0
VERTEX
  8
┌▓È_1
  5
2B1
 10
903.631
 20
-312.034
 30
0.000000
  70
    32
  0
VERTEX
  8
┌▓È_1
  5
2B2
 10
903.646
 20
-312.037
 30
0.000000
  70
    32
  0
VERTEX
  8
┌▓È_1
  5
2B3
 10
903.661
 20
-312.040
 30
0.000000
  70
    32
  0
VERTEX
  8
┌▓È_1
  5
2B4
 10
903.675
 20
-312.043
 30
0.000000
  70
    32
  0
VERTEX
  8
┌▓È_1
  5
2B5
 10
903.690
 20
-312.046
 30
0.000000
  70
    32
  0
VERTEX
  8
┌▓È_1
  5
2B6
 10
903.704
 20
-312.049
 30
0.000000
  70
    32
  0
VERTEX
  8
┌▓È_1
  5
2B7
 10
903.719
 20
-312.052
 30
0.000000
  70
    32
  0
VERTEX
  8
┌▓È_1
  5
2B8
 10
903.734
 20
-312.055
 30
0.000000
  70
    32
  0
VERTEX
  8
┌▓È_1
  5
2B9
 10
903.748
 20
-312.058
 30
0.000000
  70
    32
  0
VERTEX
  8
┌▓È_1
  5
2BA
 10
903.763
 20
-312.061
 30
0.000000
  70
    32
  0
VERTEX
  8
┌▓È_1
  5
2BB
 10
903.777
 20
-312.064
 30
0.000000
  70
    32
  0
VERTEX
  8
┌▓È_1
  5
2BC
 10
903.792
 20
-312.067
 30
0.000000
  70
    32
  0
VERTEX
  8
┌▓È_1
  5
2BD
 10
903.807
 20
-312.070
 30
0.000000
  70
    32
  0
VERTEX
  8
┌▓È_1
  5
2BE
 10
903.821
 20
-312.073
 30
0.000000
  70
    32
  0
VERTEX
  8
┌▓È_1
  5
2BF
 10
903.836
 20
-312.076
 30
0.000000
  70
    32
  0
VERTEX
  8
┌▓È_1
  5
2C0
 10
903.851
 20
-312.078
 30
0.000000
  70
    32
  0
VERTEX
  8
┌▓È_1
  5
2C1
 10
903.865
 20
-312.081
 30
0.000000
  70
    32
  0
VERTEX
  8
┌▓È_1
  5
2C2
 10
903.880
 20
-312.084
 30
0.000000
  70
    32
  0
VERTEX
  8
┌▓È_1
  5
2C3
 10
903.895
 20
-312.087
 30
0.000000
  70
    32
  0
VERTEX
  8
┌▓È_1
  5
2C4
 10
903.910
 20
-312.090
 30
0.000000
  70
    32
  0
VERTEX
  8
┌▓È_1
  5
2C5
 10
903.924
 20
-312.093
 30
0.000000
  70
    32
  0
VERTEX
  8
┌▓È_1
  5
2C6
 10
903.939
 20
-312.095
 30
0.000000
  70
    32
  0
VERTEX
  8
┌▓È_1
  5
2C7
 10
903.954
 20
-312.098
 30
0.000000
  70
    32
  0
VERTEX
  8
┌▓È_1
  5
2C8
 10
903.968
 20
-312.101
 30
0.000000
  70
    32
  0
VERTEX
  8
┌▓È_1
  5
2C9
 10
903.983
 20
-312.104
 30
0.000000
  70
    32
  0
VERTEX
  8
┌▓È_1
  5
2CA
 10
903.998
 20
-312.106
 30
0.000000
  70
    32
  0
VERTEX
  8
┌▓È_1
  5
2CB
 10
904.013
 20
-312.109
 30
0.000000
  70
    32
  0
VERTEX
  8
┌▓È_1
  5
2CC
 10
904.027
 20
-312.112
 30
0.000000
  70
    32
  0
VERTEX
  8
┌▓È_1
  5
2CD
 10
904.042
 20
-312.115
 30
0.000000
  70
    32
  0
VERTEX
  8
┌▓È_1
  5
2CE
 10
904.057
 20
-312.117
 30
0.000000
  70
    32
  0
VERTEX
  8
┌▓È_1
  5
2CF
 10
904.072
 20
-312.120
 30
0.000000
  70
    32
  0
VERTEX
  8
┌▓È_1
  5
2D0
 10
904.086
 20
-312.123
 30
0.000000
  70
    32
  0
VERTEX
  8
┌▓È_1
  5
2D1
 10
904.101
 20
-312.125
 30
0.000000
  70
    32
  0
VERTEX
  8
┌▓È_1
  5
2D2
 10
904.116
 20
-312.128
 30
0.000000
  70
    32
  0
VERTEX
  8
┌▓È_1
  5
2D3
 10
904.131
 20
-312.131
 30
0.000000
  70
    32
  0
VERTEX
  8
┌▓È_1
  5
2D4
 10
904.146
 20
-312.133
 30
0.000000
  70
    32
  0
VERTEX
  8
┌▓È_1
  5
2D5
 10
904.160
 20
-312.136
 30
0.000000
  70
    32
  0
VERTEX
  8
┌▓È_1
  5
2D6
 10
904.175
 20
-312.139
 30
0.000000
  70
    32
  0
VERTEX
  8
┌▓È_1
  5
2D7
 10
904.190
 20
-312.141
 30
0.000000
  70
    32
  0
VERTEX
  8
┌▓È_1
  5
2D8
 10
904.205
 20
-312.144
 30
0.000000
  70
    32
  0
VERTEX
  8
┌▓È_1
  5
2D9
 10
904.220
 20
-312.147
 30
0.000000
  70
    32
  0
VERTEX
  8
┌▓È_1
  5
2DA
 10
904.234
 20
-312.149
 30
0.000000
  70
    32
  0
VERTEX
  8
┌▓È_1
  5
2DB
 10
904.249
 20
-312.152
 30
0.000000
  70
    32
  0
VERTEX
  8
┌▓È_1
  5
2DC
 10
904.264
 20
-312.155
 30
0.000000
  70
    32
  0
VERTEX
  8
┌▓È_1
  5
2DD
 10
904.279
 20
-312.157
 30
0.000000
  70
    32
  0
VERTEX
  8
┌▓È_1
  5
2DE
 10
904.294
 20
-312.160
 30
0.000000
  70
    32
  0
VERTEX
  8
┌▓È_1
  5
2DF
 10
904.309
 20
-312.162
 30
0.000000
  70
    32
  0
VERTEX
  8
┌▓È_1
  5
2E0
 10
904.323
 20
-312.165
 30
0.000000
  70
    32
  0
VERTEX
  8
┌▓È_1
  5
2E1
 10
904.338
 20
-312.168
 30
0.000000
  70
    32
  0
VERTEX
  8
┌▓È_1
  5
2E2
 10
904.353
 20
-312.170
 30
0.000000
  70
    32
  0
VERTEX
  8
┌▓È_1
  5
2E3
 10
904.368
 20
-312.173
 30
0.000000
  70
    32
  0
VERTEX
  8
┌▓È_1
  5
2E4
 10
904.383
 20
-312.175
 30
0.000000
  70
    32
  0
VERTEX
  8
┌▓È_1
  5
2E5
 10
904.398
 20
-312.178
 30
0.000000
  70
    32
  0
VERTEX
  8
┌▓È_1
  5
2E6
 10
904.412
 20
-312.180
 30
0.000000
  70
    32
  0
VERTEX
  8
┌▓È_1
  5
2E7
 10
904.427
 20
-312.183
 30
0.000000
  70
    32
  0
VERTEX
  8
┌▓È_1
  5
2E8
 10
904.442
 20
-312.186
 30
0.000000
  70
    32
  0
VERTEX
  8
┌▓È_1
  5
2E9
 10
904.457
 20
-312.188
 30
0.000000
  70
    32
  0
VERTEX
  8
┌▓È_1
  5
2EA
 10
904.472
 20
-312.191
 30
0.000000
  70
    32
  0
VERTEX
  8
┌▓È_1
  5
2EB
 10
904.487
 20
-312.193
 30
0.000000
  70
    32
  0
VERTEX
  8
┌▓È_1
  5
2EC
 10
904.502
 20
-312.196
 30
0.000000
  70
    32
  0
VERTEX
  8
┌▓È_1
  5
2ED
 10
904.517
 20
-312.198
 30
0.000000
  70
    32
  0
VERTEX
  8
┌▓È_1
  5
2EE
 10
904.531
 20
-312.201
 30
0.000000
  70
    32
  0
VERTEX
  8
┌▓È_1
  5
2EF
 10
904.546
 20
-312.203
 30
0.000000
  70
    32
  0
VERTEX
  8
┌▓È_1
  5
2F0
 10
904.561
 20
-312.206
 30
0.000000
  70
    32
  0
VERTEX
  8
┌▓È_1
  5
2F1
 10
904.576
 20
-312.208
 30
0.000000
  70
    32
  0
VERTEX
  8
┌▓È_1
  5
2F2
 10
904.591
 20
-312.211
 30
0.000000
  70
    32
  0
VERTEX
  8
┌▓È_1
  5
2F3
 10
904.606
 20
-312.213
 30
0.000000
  70
    32
  0
VERTEX
  8
┌▓È_1
  5
2F4
 10
904.621
 20
-312.216
 30
0.000000
  70
    32
  0
VERTEX
  8
┌▓È_1
  5
2F5
 10
904.636
 20
-312.219
 30
0.000000
  70
    32
  0
VERTEX
  8
┌▓È_1
  5
2F6
 10
904.650
 20
-312.221
 30
0.000000
  70
    32
  0
VERTEX
  8
┌▓È_1
  5
2F7
 10
904.665
 20
-312.224
 30
0.000000
  70
    32
  0
VERTEX
  8
┌▓È_1
  5
2F8
 10
904.680
 20
-312.226
 30
0.000000
  70
    32
  0
VERTEX
  8
┌▓È_1
  5
2F9
 10
904.695
 20
-312.229
 30
0.000000
  70
    32
  0
VERTEX
  8
┌▓È_1
  5
2FA
 10
904.710
 20
-312.231
 30
0.000000
  70
    32
  0
VERTEX
  8
┌▓È_1
  5
2FB
 10
904.725
 20
-312.234
 30
0.000000
  70
    32
  0
VERTEX
  8
┌▓È_1
  5
2FC
 10
904.740
 20
-312.236
 30
0.000000
  70
    32
  0
VERTEX
  8
┌▓È_1
  5
2FD
 10
904.755
 20
-312.239
 30
0.000000
  70
    32
  0
SEQEND
  8
┌▓È_1
  5
2FE
  0
POLYLINE
  8
┌▓È_1
  5
2FF
  62
5
  66
     1
 10
0.000000
 20
0.000000
 30
0.000000
  70
     8
  0
VERTEX
  8
┌▓È_1
  5
300
 10
897.555
 20
-309.954
 30
0.000000
  70
    32
  0
VERTEX
  8
┌▓È_1
  5
301
 10
897.569
 20
-309.967
 30
0.000000
  70
    32
  0
VERTEX
  8
┌▓È_1
  5
302
 10
897.583
 20
-309.981
 30
0.000000
  70
    32
  0
VERTEX
  8
┌▓È_1
  5
303
 10
897.598
 20
-309.994
 30
0.000000
  70
    32
  0
VERTEX
  8
┌▓È_1
  5
304
 10
897.612
 20
-310.007
 30
0.000000
  70
    32
  0
VERTEX
  8
┌▓È_1
  5
305
 10
897.627
 20
-310.020
 30
0.000000
  70
    32
  0
VERTEX
  8
┌▓È_1
  5
306
 10
897.641
 20
-310.034
 30
0.000000
  70
    32
  0
VERTEX
  8
┌▓È_1
  5
307
 10
897.656
 20
-310.047
 30
0.000000
  70
    32
  0
VERTEX
  8
┌▓È_1
  5
308
 10
897.670
 20
-310.060
 30
0.000000
  70
    32
  0
VERTEX
  8
┌▓È_1
  5
309
 10
897.684
 20
-310.074
 30
0.000000
  70
    32
  0
VERTEX
  8
┌▓È_1
  5
30A
 10
897.699
 20
-310.087
 30
0.000000
  70
    32
  0
VERTEX
  8
┌▓È_1
  5
30B
 10
897.713
 20
-310.100
 30
0.000000
  70
    32
  0
VERTEX
  8
┌▓È_1
  5
30C
 10
897.728
 20
-310.113
 30
0.000000
  70
    32
  0
VERTEX
  8
┌▓È_1
  5
30D
 10
897.742
 20
-310.127
 30
0.000000
  70
    32
  0
VERTEX
  8
┌▓È_1
  5
30E
 10
897.756
 20
-310.140
 30
0.000000
  70
    32
  0
VERTEX
  8
┌▓È_1
  5
30F
 10
897.771
 20
-310.153
 30
0.000000
  70
    32
  0
VERTEX
  8
┌▓È_1
  5
310
 10
897.785
 20
-310.166
 30
0.000000
  70
    32
  0
VERTEX
  8
┌▓È_1
  5
311
 10
897.800
 20
-310.180
 30
0.000000
  70
    32
  0
VERTEX
  8
┌▓È_1
  5
312
 10
897.814
 20
-310.193
 30
0.000000
  70
    32
  0
VERTEX
  8
┌▓È_1
  5
313
 10
897.829
 20
-310.206
 30
0.000000
  70
    32
  0
VERTEX
  8
┌▓È_1
  5
314
 10
897.843
 20
-310.219
 30
0.000000
  70
    32
  0
VERTEX
  8
┌▓È_1
  5
315
 10
897.857
 20
-310.233
 30
0.000000
  70
    32
  0
VERTEX
  8
┌▓È_1
  5
316
 10
897.872
 20
-310.246
 30
0.000000
  70
    32
  0
VERTEX
  8
┌▓È_1
  5
317
 10
897.886
 20
-310.259
 30
0.000000
  70
    32
  0
VERTEX
  8
┌▓È_1
  5
318
 10
897.901
 20
-310.272
 30
0.000000
  70
    32
  0
VERTEX
  8
┌▓È_1
  5
319
 10
897.915
 20
-310.285
 30
0.000000
  70
    32
  0
VERTEX
  8
┌▓È_1
  5
31A
 10
897.930
 20
-310.299
 30
0.000000
  70
    32
  0
VERTEX
  8
┌▓È_1
  5
31B
 10
897.944
 20
-310.312
 30
0.000000
  70
    32
  0
VERTEX
  8
┌▓È_1
  5
31C
 10
897.959
 20
-310.325
 30
0.000000
  70
    32
  0
VERTEX
  8
┌▓È_1
  5
31D
 10
897.973
 20
-310.338
 30
0.000000
  70
    32
  0
VERTEX
  8
┌▓È_1
  5
31E
 10
897.988
 20
-310.351
 30
0.000000
  70
    32
  0
VERTEX
  8
┌▓È_1
  5
31F
 10
898.002
 20
-310.364
 30
0.000000
  70
    32
  0
VERTEX
  8
┌▓È_1
  5
320
 10
898.017
 20
-310.378
 30
0.000000
  70
    32
  0
VERTEX
  8
┌▓È_1
  5
321
 10
898.031
 20
-310.391
 30
0.000000
  70
    32
  0
VERTEX
  8
┌▓È_1
  5
322
 10
898.046
 20
-310.404
 30
0.000000
  70
    32
  0
VERTEX
  8
┌▓È_1
  5
323
 10
898.060
 20
-310.417
 30
0.000000
  70
    32
  0
VERTEX
  8
┌▓È_1
  5
324
 10
898.075
 20
-310.430
 30
0.000000
  70
    32
  0
VERTEX
  8
┌▓È_1
  5
325
 10
898.089
 20
-310.443
 30
0.000000
  70
    32
  0
VERTEX
  8
┌▓È_1
  5
326
 10
898.104
 20
-310.456
 30
0.000000
  70
    32
  0
VERTEX
  8
┌▓È_1
  5
327
 10
898.118
 20
-310.469
 30
0.000000
  70
    32
  0
VERTEX
  8
┌▓È_1
  5
328
 10
898.133
 20
-310.482
 30
0.000000
  70
    32
  0
VERTEX
  8
┌▓È_1
  5
329
 10
898.147
 20
-310.495
 30
0.000000
  70
    32
  0
VERTEX
  8
┌▓È_1
  5
32A
 10
898.162
 20
-310.508
 30
0.000000
  70
    32
  0
VERTEX
  8
┌▓È_1
  5
32B
 10
898.176
 20
-310.521
 30
0.000000
  70
    32
  0
VERTEX
  8
┌▓È_1
  5
32C
 10
898.191
 20
-310.534
 30
0.000000
  70
    32
  0
VERTEX
  8
┌▓È_1
  5
32D
 10
898.205
 20
-310.548
 30
0.000000
  70
    32
  0
VERTEX
  8
┌▓È_1
  5
32E
 10
898.220
 20
-310.560
 30
0.000000
  70
    32
  0
VERTEX
  8
┌▓È_1
  5
32F
 10
898.234
 20
-310.573
 30
0.000000
  70
    32
  0
VERTEX
  8
┌▓È_1
  5
330
 10
898.249
 20
-310.586
 30
0.000000
  70
    32
  0
VERTEX
  8
┌▓È_1
  5
331
 10
898.264
 20
-310.599
 30
0.000000
  70
    32
  0
VERTEX
  8
┌▓È_1
  5
332
 10
898.278
 20
-310.612
 30
0.000000
  70
    32
  0
VERTEX
  8
┌▓È_1
  5
333
 10
898.293
 20
-310.625
 30
0.000000
  70
    32
  0
VERTEX
  8
┌▓È_1
  5
334
 10
898.307
 20
-310.638
 30
0.000000
  70
    32
  0
VERTEX
  8
┌▓È_1
  5
335
 10
898.322
 20
-310.651
 30
0.000000
  70
    32
  0
VERTEX
  8
┌▓È_1
  5
336
 10
898.337
 20
-310.664
 30
0.000000
  70
    32
  0
VERTEX
  8
┌▓È_1
  5
337
 10
898.351
 20
-310.677
 30
0.000000
  70
    32
  0
VERTEX
  8
┌▓È_1
  5
338
 10
898.366
 20
-310.690
 30
0.000000
  70
    32
  0
VERTEX
  8
┌▓È_1
  5
339
 10
898.381
 20
-310.703
 30
0.000000
  70
    32
  0
VERTEX
  8
┌▓È_1
  5
33A
 10
898.395
 20
-310.715
 30
0.000000
  70
    32
  0
VERTEX
  8
┌▓È_1
  5
33B
 10
898.410
 20
-310.728
 30
0.000000
  70
    32
  0
VERTEX
  8
┌▓È_1
  5
33C
 10
898.425
 20
-310.741
 30
0.000000
  70
    32
  0
VERTEX
  8
┌▓È_1
  5
33D
 10
898.439
 20
-310.754
 30
0.000000
  70
    32
  0
VERTEX
  8
┌▓È_1
  5
33E
 10
898.454
 20
-310.767
 30
0.000000
  70
    32
  0
VERTEX
  8
┌▓È_1
  5
33F
 10
898.469
 20
-310.779
 30
0.000000
  70
    32
  0
VERTEX
  8
┌▓È_1
  5
340
 10
898.483
 20
-310.792
 30
0.000000
  70
    32
  0
VERTEX
  8
┌▓È_1
  5
341
 10
898.498
 20
-310.805
 30
0.000000
  70
    32
  0
VERTEX
  8
┌▓È_1
  5
342
 10
898.513
 20
-310.817
 30
0.000000
  70
    32
  0
VERTEX
  8
┌▓È_1
  5
343
 10
898.528
 20
-310.830
 30
0.000000
  70
    32
  0
VERTEX
  8
┌▓È_1
  5
344
 10
898.542
 20
-310.843
 30
0.000000
  70
    32
  0
VERTEX
  8
┌▓È_1
  5
345
 10
898.557
 20
-310.855
 30
0.000000
  70
    32
  0
VERTEX
  8
┌▓È_1
  5
346
 10
898.572
 20
-310.868
 30
0.000000
  70
    32
  0
VERTEX
  8
┌▓È_1
  5
347
 10
898.587
 20
-310.881
 30
0.000000
  70
    32
  0
VERTEX
  8
┌▓È_1
  5
348
 10
898.601
 20
-310.893
 30
0.000000
  70
    32
  0
VERTEX
  8
┌▓È_1
  5
349
 10
898.616
 20
-310.906
 30
0.000000
  70
    32
  0
VERTEX
  8
┌▓È_1
  5
34A
 10
898.631
 20
-310.918
 30
0.000000
  70
    32
  0
VERTEX
  8
┌▓È_1
  5
34B
 10
898.646
 20
-310.931
 30
0.000000
  70
    32
  0
VERTEX
  8
┌▓È_1
  5
34C
 10
898.661
 20
-310.943
 30
0.000000
  70
    32
  0
VERTEX
  8
┌▓È_1
  5
34D
 10
898.676
 20
-310.956
 30
0.000000
  70
    32
  0
VERTEX
  8
┌▓È_1
  5
34E
 10
898.690
 20
-310.968
 30
0.000000
  70
    32
  0
VERTEX
  8
┌▓È_1
  5
34F
 10
898.705
 20
-310.981
 30
0.000000
  70
    32
  0
VERTEX
  8
┌▓È_1
  5
350
 10
898.720
 20
-310.993
 30
0.000000
  70
    32
  0
VERTEX
  8
┌▓È_1
  5
351
 10
898.735
 20
-311.005
 30
0.000000
  70
    32
  0
VERTEX
  8
┌▓È_1
  5
352
 10
898.750
 20
-311.018
 30
0.000000
  70
    32
  0
VERTEX
  8
┌▓È_1
  5
353
 10
898.765
 20
-311.030
 30
0.000000
  70
    32
  0
VERTEX
  8
┌▓È_1
  5
354
 10
898.780
 20
-311.042
 30
0.000000
  70
    32
  0
VERTEX
  8
┌▓È_1
  5
355
 10
898.795
 20
-311.055
 30
0.000000
  70
    32
  0
VERTEX
  8
┌▓È_1
  5
356
 10
898.810
 20
-311.067
 30
0.000000
  70
    32
  0
VERTEX
  8
┌▓È_1
  5
357
 10
898.825
 20
-311.079
 30
0.000000
  70
    32
  0
VERTEX
  8
┌▓È_1
  5
358
 10
898.840
 20
-311.091
 30
0.000000
  70
    32
  0
VERTEX
  8
┌▓È_1
  5
359
 10
898.855
 20
-311.104
 30
0.000000
  70
    32
  0
VERTEX
  8
┌▓È_1
  5
35A
 10
898.870
 20
-311.116
 30
0.000000
  70
    32
  0
VERTEX
  8
┌▓È_1
  5
35B
 10
898.885
 20
-311.128
 30
0.000000
  70
    32
  0
VERTEX
  8
┌▓È_1
  5
35C
 10
898.900
 20
-311.140
 30
0.000000
  70
    32
  0
VERTEX
  8
┌▓È_1
  5
35D
 10
898.915
 20
-311.152
 30
0.000000
  70
    32
  0
VERTEX
  8
┌▓È_1
  5
35E
 10
898.930
 20
-311.164
 30
0.000000
  70
    32
  0
VERTEX
  8
┌▓È_1
  5
35F
 10
898.945
 20
-311.176
 30
0.000000
  70
    32
  0
VERTEX
  8
┌▓È_1
  5
360
 10
898.960
 20
-311.188
 30
0.000000
  70
    32
  0
VERTEX
  8
┌▓È_1
  5
361
 10
898.975
 20
-311.200
 30
0.000000
  70
    32
  0
VERTEX
  8
┌▓È_1
  5
362
 10
898.990
 20
-311.212
 30
0.000000
  70
    32
  0
VERTEX
  8
┌▓È_1
  5
363
 10
899.005
 20
-311.224
 30
0.000000
  70
    32
  0
VERTEX
  8
┌▓È_1
  5
364
 10
899.020
 20
-311.236
 30
0.000000
  70
    32
  0
VERTEX
  8
┌▓È_1
  5
365
 10
899.036
 20
-311.248
 30
0.000000
  70
    32
  0
VERTEX
  8
┌▓È_1
  5
366
 10
899.051
 20
-311.260
 30
0.000000
  70
    32
  0
VERTEX
  8
┌▓È_1
  5
367
 10
899.066
 20
-311.272
 30
0.000000
  70
    32
  0
VERTEX
  8
┌▓È_1
  5
368
 10
899.081
 20
-311.284
 30
0.000000
  70
    32
  0
VERTEX
  8
┌▓È_1
  5
369
 10
899.096
 20
-311.295
 30
0.000000
  70
    32
  0
VERTEX
  8
┌▓È_1
  5
36A
 10
899.112
 20
-311.307
 30
0.000000
  70
    32
  0
VERTEX
  8
┌▓È_1
  5
36B
 10
899.127
 20
-311.319
 30
0.000000
  70
    32
  0
VERTEX
  8
┌▓È_1
  5
36C
 10
899.142
 20
-311.330
 30
0.000000
  70
    32
  0
VERTEX
  8
┌▓È_1
  5
36D
 10
899.158
 20
-311.342
 30
0.000000
  70
    32
  0
VERTEX
  8
┌▓È_1
  5
36E
 10
899.173
 20
-311.354
 30
0.000000
  70
    32
  0
VERTEX
  8
┌▓È_1
  5
36F
 10
899.188
 20
-311.365
 30
0.000000
  70
    32
  0
VERTEX
  8
┌▓È_1
  5
370
 10
899.203
 20
-311.377
 30
0.000000
  70
    32
  0
VERTEX
  8
┌▓È_1
  5
371
 10
899.219
 20
-311.388
 30
0.000000
  70
    32
  0
VERTEX
  8
┌▓È_1
  5
372
 10
899.234
 20
-311.400
 30
0.000000
  70
    32
  0
VERTEX
  8
┌▓È_1
  5
373
 10
899.250
 20
-311.411
 30
0.000000
  70
    32
  0
VERTEX
  8
┌▓È_1
  5
374
 10
899.265
 20
-311.423
 30
0.000000
  70
    32
  0
VERTEX
  8
┌▓È_1
  5
375
 10
899.280
 20
-311.434
 30
0.000000
  70
    32
  0
VERTEX
  8
┌▓È_1
  5
376
 10
899.296
 20
-311.446
 30
0.000000
  70
    32
  0
VERTEX
  8
┌▓È_1
  5
377
 10
899.311
 20
-311.457
 30
0.000000
  70
    32
  0
VERTEX
  8
┌▓È_1
  5
378
 10
899.327
 20
-311.468
 30
0.000000
  70
    32
  0
VERTEX
  8
┌▓È_1
  5
379
 10
899.342
 20
-311.480
 30
0.000000
  70
    32
  0
VERTEX
  8
┌▓È_1
  5
37A
 10
899.358
 20
-311.491
 30
0.000000
  70
    32
  0
VERTEX
  8
┌▓È_1
  5
37B
 10
899.373
 20
-311.502
 30
0.000000
  70
    32
  0
VERTEX
  8
┌▓È_1
  5
37C
 10
899.389
 20
-311.513
 30
0.000000
  70
    32
  0
VERTEX
  8
┌▓È_1
  5
37D
 10
899.404
 20
-311.524
 30
0.000000
  70
    32
  0
VERTEX
  8
┌▓È_1
  5
37E
 10
899.420
 20
-311.535
 30
0.000000
  70
    32
  0
VERTEX
  8
┌▓È_1
  5
37F
 10
899.436
 20
-311.546
 30
0.000000
  70
    32
  0
VERTEX
  8
┌▓È_1
  5
380
 10
899.451
 20
-311.557
 30
0.000000
  70
    32
  0
VERTEX
  8
┌▓È_1
  5
381
 10
899.467
 20
-311.568
 30
0.000000
  70
    32
  0
VERTEX
  8
┌▓È_1
  5
382
 10
899.483
 20
-311.579
 30
0.000000
  70
    32
  0
VERTEX
  8
┌▓È_1
  5
383
 10
899.498
 20
-311.590
 30
0.000000
  70
    32
  0
VERTEX
  8
┌▓È_1
  5
384
 10
899.514
 20
-311.601
 30
0.000000
  70
    32
  0
VERTEX
  8
┌▓È_1
  5
385
 10
899.530
 20
-311.612
 30
0.000000
  70
    32
  0
VERTEX
  8
┌▓È_1
  5
386
 10
899.545
 20
-311.623
 30
0.000000
  70
    32
  0
VERTEX
  8
┌▓È_1
  5
387
 10
899.561
 20
-311.634
 30
0.000000
  70
    32
  0
VERTEX
  8
┌▓È_1
  5
388
 10
899.577
 20
-311.644
 30
0.000000
  70
    32
  0
VERTEX
  8
┌▓È_1
  5
389
 10
899.593
 20
-311.655
 30
0.000000
  70
    32
  0
VERTEX
  8
┌▓È_1
  5
38A
 10
899.609
 20
-311.666
 30
0.000000
  70
    32
  0
VERTEX
  8
┌▓È_1
  5
38B
 10
899.624
 20
-311.676
 30
0.000000
  70
    32
  0
VERTEX
  8
┌▓È_1
  5
38C
 10
899.640
 20
-311.687
 30
0.000000
  70
    32
  0
VERTEX
  8
┌▓È_1
  5
38D
 10
899.656
 20
-311.698
 30
0.000000
  70
    32
  0
VERTEX
  8
┌▓È_1
  5
38E
 10
899.672
 20
-311.708
 30
0.000000
  70
    32
  0
VERTEX
  8
┌▓È_1
  5
38F
 10
899.688
 20
-311.719
 30
0.000000
  70
    32
  0
VERTEX
  8
┌▓È_1
  5
390
 10
899.704
 20
-311.729
 30
0.000000
  70
    32
  0
VERTEX
  8
┌▓È_1
  5
391
 10
899.720
 20
-311.739
 30
0.000000
  70
    32
  0
VERTEX
  8
┌▓È_1
  5
392
 10
899.736
 20
-311.750
 30
0.000000
  70
    32
  0
VERTEX
  8
┌▓È_1
  5
393
 10
899.752
 20
-311.760
 30
0.000000
  70
    32
  0
VERTEX
  8
┌▓È_1
  5
394
 10
899.768
 20
-311.770
 30
0.000000
  70
    32
  0
VERTEX
  8
┌▓È_1
  5
395
 10
899.784
 20
-311.781
 30
0.000000
  70
    32
  0
VERTEX
  8
┌▓È_1
  5
396
 10
899.800
 20
-311.791
 30
0.000000
  70
    32
  0
VERTEX
  8
┌▓È_1
  5
397
 10
899.816
 20
-311.801
 30
0.000000
  70
    32
  0
VERTEX
  8
┌▓È_1
  5
398
 10
899.832
 20
-311.811
 30
0.000000
  70
    32
  0
VERTEX
  8
┌▓È_1
  5
399
 10
899.849
 20
-311.821
 30
0.000000
  70
    32
  0
VERTEX
  8
┌▓È_1
  5
39A
 10
899.865
 20
-311.831
 30
0.000000
  70
    32
  0
VERTEX
  8
┌▓È_1
  5
39B
 10
899.881
 20
-311.841
 30
0.000000
  70
    32
  0
VERTEX
  8
┌▓È_1
  5
39C
 10
899.897
 20
-311.851
 30
0.000000
  70
    32
  0
VERTEX
  8
┌▓È_1
  5
39D
 10
899.913
 20
-311.861
 30
0.000000
  70
    32
  0
VERTEX
  8
┌▓È_1
  5
39E
 10
899.930
 20
-311.871
 30
0.000000
  70
    32
  0
VERTEX
  8
┌▓È_1
  5
39F
 10
899.946
 20
-311.881
 30
0.000000
  70
    32
  0
SEQEND
  8
┌▓È_1
  5
3A0
  0
POLYLINE
  8
┌▓È_1
  5
3A1
  62
5
  66
     1
 10
0.000000
 20
0.000000
 30
0.000000
  70
     8
  0
VERTEX
  8
┌▓È_1
  5
3A2
 10
901.922
 20
-312.748
 30
0.000000
  70
    32
  0
VERTEX
  8
┌▓È_1
  5
3A3
 10
901.943
 20
-312.755
 30
0.000000
  70
    32
  0
VERTEX
  8
┌▓È_1
  5
3A4
 10
901.965
 20
-312.761
 30
0.000000
  70
    32
  0
VERTEX
  8
┌▓È_1
  5
3A5
 10
901.986
 20
-312.768
 30
0.000000
  70
    32
  0
VERTEX
  8
┌▓È_1
  5
3A6
 10
902.008
 20
-312.775
 30
0.000000
  70
    32
  0
VERTEX
  8
┌▓È_1
  5
3A7
 10
902.030
 20
-312.782
 30
0.000000
  70
    32
  0
VERTEX
  8
┌▓È_1
  5
3A8
 10
902.051
 20
-312.788
 30
0.000000
  70
    32
  0
VERTEX
  8
┌▓È_1
  5
3A9
 10
902.073
 20
-312.795
 30
0.000000
  70
    32
  0
VERTEX
  8
┌▓È_1
  5
3AA
 10
902.094
 20
-312.802
 30
0.000000
  70
    32
  0
VERTEX
  8
┌▓È_1
  5
3AB
 10
902.116
 20
-312.808
 30
0.000000
  70
    32
  0
VERTEX
  8
┌▓È_1
  5
3AC
 10
902.138
 20
-312.815
 30
0.000000
  70
    32
  0
VERTEX
  8
┌▓È_1
  5
3AD
 10
902.160
 20
-312.821
 30
0.000000
  70
    32
  0
VERTEX
  8
┌▓È_1
  5
3AE
 10
902.181
 20
-312.828
 30
0.000000
  70
    32
  0
VERTEX
  8
┌▓È_1
  5
3AF
 10
902.203
 20
-312.834
 30
0.000000
  70
    32
  0
VERTEX
  8
┌▓È_1
  5
3B0
 10
902.225
 20
-312.841
 30
0.000000
  70
    32
  0
VERTEX
  8
┌▓È_1
  5
3B1
 10
902.247
 20
-312.847
 30
0.000000
  70
    32
  0
VERTEX
  8
┌▓È_1
  5
3B2
 10
902.268
 20
-312.854
 30
0.000000
  70
    32
  0
VERTEX
  8
┌▓È_1
  5
3B3
 10
902.290
 20
-312.860
 30
0.000000
  70
    32
  0
VERTEX
  8
┌▓È_1
  5
3B4
 10
902.312
 20
-312.866
 30
0.000000
  70
    32
  0
VERTEX
  8
┌▓È_1
  5
3B5
 10
902.334
 20
-312.873
 30
0.000000
  70
    32
  0
VERTEX
  8
┌▓È_1
  5
3B6
 10
902.356
 20
-312.879
 30
0.000000
  70
    32
  0
VERTEX
  8
┌▓È_1
  5
3B7
 10
902.378
 20
-312.885
 30
0.000000
  70
    32
  0
VERTEX
  8
┌▓È_1
  5
3B8
 10
902.399
 20
-312.891
 30
0.000000
  70
    32
  0
VERTEX
  8
┌▓È_1
  5
3B9
 10
902.421
 20
-312.898
 30
0.000000
  70
    32
  0
VERTEX
  8
┌▓È_1
  5
3BA
 10
902.443
 20
-312.904
 30
0.000000
  70
    32
  0
VERTEX
  8
┌▓È_1
  5
3BB
 10
902.465
 20
-312.910
 30
0.000000
  70
    32
  0
VERTEX
  8
┌▓È_1
  5
3BC
 10
902.487
 20
-312.916
 30
0.000000
  70
    32
  0
VERTEX
  8
┌▓È_1
  5
3BD
 10
902.509
 20
-312.922
 30
0.000000
  70
    32
  0
VERTEX
  8
┌▓È_1
  5
3BE
 10
902.531
 20
-312.928
 30
0.000000
  70
    32
  0
VERTEX
  8
┌▓È_1
  5
3BF
 10
902.553
 20
-312.934
 30
0.000000
  70
    32
  0
VERTEX
  8
┌▓È_1
  5
3C0
 10
902.575
 20
-312.940
 30
0.000000
  70
    32
  0
VERTEX
  8
┌▓È_1
  5
3C1
 10
902.597
 20
-312.946
 30
0.000000
  70
    32
  0
VERTEX
  8
┌▓È_1
  5
3C2
 10
902.619
 20
-312.952
 30
0.000000
  70
    32
  0
VERTEX
  8
┌▓È_1
  5
3C3
 10
902.641
 20
-312.958
 30
0.000000
  70
    32
  0
VERTEX
  8
┌▓È_1
  5
3C4
 10
902.663
 20
-312.964
 30
0.000000
  70
    32
  0
VERTEX
  8
┌▓È_1
  5
3C5
 10
902.685
 20
-312.970
 30
0.000000
  70
    32
  0
VERTEX
  8
┌▓È_1
  5
3C6
 10
902.707
 20
-312.976
 30
0.000000
  70
    32
  0
VERTEX
  8
┌▓È_1
  5
3C7
 10
902.730
 20
-312.981
 30
0.000000
  70
    32
  0
VERTEX
  8
┌▓È_1
  5
3C8
 10
902.752
 20
-312.987
 30
0.000000
  70
    32
  0
VERTEX
  8
┌▓È_1
  5
3C9
 10
902.774
 20
-312.993
 30
0.000000
  70
    32
  0
VERTEX
  8
┌▓È_1
  5
3CA
 10
902.796
 20
-312.999
 30
0.000000
  70
    32
  0
VERTEX
  8
┌▓È_1
  5
3CB
 10
902.818
 20
-313.004
 30
0.000000
  70
    32
  0
VERTEX
  8
┌▓È_1
  5
3CC
 10
902.840
 20
-313.010
 30
0.000000
  70
    32
  0
VERTEX
  8
┌▓È_1
  5
3CD
 10
902.862
 20
-313.016
 30
0.000000
  70
    32
  0
VERTEX
  8
┌▓È_1
  5
3CE
 10
902.885
 20
-313.021
 30
0.000000
  70
    32
  0
VERTEX
  8
┌▓È_1
  5
3CF
 10
902.907
 20
-313.027
 30
0.000000
  70
    32
  0
VERTEX
  8
┌▓È_1
  5
3D0
 10
902.929
 20
-313.033
 30
0.000000
  70
    32
  0
VERTEX
  8
┌▓È_1
  5
3D1
 10
902.951
 20
-313.038
 30
0.000000
  70
    32
  0
VERTEX
  8
┌▓È_1
  5
3D2
 10
902.974
 20
-313.044
 30
0.000000
  70
    32
  0
VERTEX
  8
┌▓È_1
  5
3D3
 10
902.996
 20
-313.049
 30
0.000000
  70
    32
  0
VERTEX
  8
┌▓È_1
  5
3D4
 10
903.018
 20
-313.055
 30
0.000000
  70
    32
  0
VERTEX
  8
┌▓È_1
  5
3D5
 10
903.040
 20
-313.060
 30
0.000000
  70
    32
  0
VERTEX
  8
┌▓È_1
  5
3D6
 10
903.063
 20
-313.066
 30
0.000000
  70
    32
  0
VERTEX
  8
┌▓È_1
  5
3D7
 10
903.085
 20
-313.071
 30
0.000000
  70
    32
  0
VERTEX
  8
┌▓È_1
  5
3D8
 10
903.107
 20
-313.077
 30
0.000000
  70
    32
  0
VERTEX
  8
┌▓È_1
  5
3D9
 10
903.129
 20
-313.082
 30
0.000000
  70
    32
  0
VERTEX
  8
┌▓È_1
  5
3DA
 10
903.152
 20
-313.088
 30
0.000000
  70
    32
  0
VERTEX
  8
┌▓È_1
  5
3DB
 10
903.174
 20
-313.093
 30
0.000000
  70
    32
  0
VERTEX
  8
┌▓È_1
  5
3DC
 10
903.197
 20
-313.098
 30
0.000000
  70
    32
  0
VERTEX
  8
┌▓È_1
  5
3DD
 10
903.219
 20
-313.104
 30
0.000000
  70
    32
  0
VERTEX
  8
┌▓È_1
  5
3DE
 10
903.241
 20
-313.109
 30
0.000000
  70
    32
  0
VERTEX
  8
┌▓È_1
  5
3DF
 10
903.264
 20
-313.114
 30
0.000000
  70
    32
  0
VERTEX
  8
┌▓È_1
  5
3E0
 10
903.286
 20
-313.120
 30
0.000000
  70
    32
  0
VERTEX
  8
┌▓È_1
  5
3E1
 10
903.308
 20
-313.125
 30
0.000000
  70
    32
  0
VERTEX
  8
┌▓È_1
  5
3E2
 10
903.331
 20
-313.130
 30
0.000000
  70
    32
  0
VERTEX
  8
┌▓È_1
  5
3E3
 10
903.353
 20
-313.135
 30
0.000000
  70
    32
  0
VERTEX
  8
┌▓È_1
  5
3E4
 10
903.376
 20
-313.141
 30
0.000000
  70
    32
  0
VERTEX
  8
┌▓È_1
  5
3E5
 10
903.398
 20
-313.146
 30
0.000000
  70
    32
  0
VERTEX
  8
┌▓È_1
  5
3E6
 10
903.420
 20
-313.151
 30
0.000000
  70
    32
  0
VERTEX
  8
┌▓È_1
  5
3E7
 10
903.443
 20
-313.156
 30
0.000000
  70
    32
  0
VERTEX
  8
┌▓È_1
  5
3E8
 10
903.465
 20
-313.161
 30
0.000000
  70
    32
  0
VERTEX
  8
┌▓È_1
  5
3E9
 10
903.488
 20
-313.167
 30
0.000000
  70
    32
  0
VERTEX
  8
┌▓È_1
  5
3EA
 10
903.510
 20
-313.172
 30
0.000000
  70
    32
  0
VERTEX
  8
┌▓È_1
  5
3EB
 10
903.533
 20
-313.177
 30
0.000000
  70
    32
  0
VERTEX
  8
┌▓È_1
  5
3EC
 10
903.555
 20
-313.182
 30
0.000000
  70
    32
  0
VERTEX
  8
┌▓È_1
  5
3ED
 10
903.578
 20
-313.187
 30
0.000000
  70
    32
  0
VERTEX
  8
┌▓È_1
  5
3EE
 10
903.600
 20
-313.192
 30
0.000000
  70
    32
  0
VERTEX
  8
┌▓È_1
  5
3EF
 10
903.623
 20
-313.197
 30
0.000000
  70
    32
  0
VERTEX
  8
┌▓È_1
  5
3F0
 10
903.645
 20
-313.202
 30
0.000000
  70
    32
  0
VERTEX
  8
┌▓È_1
  5
3F1
 10
903.668
 20
-313.207
 30
0.000000
  70
    32
  0
VERTEX
  8
┌▓È_1
  5
3F2
 10
903.690
 20
-313.212
 30
0.000000
  70
    32
  0
VERTEX
  8
┌▓È_1
  5
3F3
 10
903.713
 20
-313.217
 30
0.000000
  70
    32
  0
VERTEX
  8
┌▓È_1
  5
3F4
 10
903.735
 20
-313.222
 30
0.000000
  70
    32
  0
VERTEX
  8
┌▓È_1
  5
3F5
 10
903.758
 20
-313.227
 30
0.000000
  70
    32
  0
VERTEX
  8
┌▓È_1
  5
3F6
 10
903.781
 20
-313.232
 30
0.000000
  70
    32
  0
VERTEX
  8
┌▓È_1
  5
3F7
 10
903.803
 20
-313.237
 30
0.000000
  70
    32
  0
VERTEX
  8
┌▓È_1
  5
3F8
 10
903.826
 20
-313.242
 30
0.000000
  70
    32
  0
VERTEX
  8
┌▓È_1
  5
3F9
 10
903.848
 20
-313.247
 30
0.000000
  70
    32
  0
VERTEX
  8
┌▓È_1
  5
3FA
 10
903.871
 20
-313.252
 30
0.000000
  70
    32
  0
VERTEX
  8
┌▓È_1
  5
3FB
 10
903.893
 20
-313.257
 30
0.000000
  70
    32
  0
VERTEX
  8
┌▓È_1
  5
3FC
 10
903.916
 20
-313.262
 30
0.000000
  70
    32
  0
VERTEX
  8
┌▓È_1
  5
3FD
 10
903.939
 20
-313.267
 30
0.000000
  70
    32
  0
VERTEX
  8
┌▓È_1
  5
3FE
 10
903.961
 20
-313.272
 30
0.000000
  70
    32
  0
VERTEX
  8
┌▓È_1
  5
3FF
 10
903.984
 20
-313.276
 30
0.000000
  70
    32
  0
VERTEX
  8
┌▓È_1
  5
400
 10
904.007
 20
-313.281
 30
0.000000
  70
    32
  0
VERTEX
  8
┌▓È_1
  5
401
 10
904.029
 20
-313.286
 30
0.000000
  70
    32
  0
VERTEX
  8
┌▓È_1
  5
402
 10
904.052
 20
-313.291
 30
0.000000
  70
    32
  0
VERTEX
  8
┌▓È_1
  5
403
 10
904.074
 20
-313.296
 30
0.000000
  70
    32
  0
VERTEX
  8
┌▓È_1
  5
404
 10
904.097
 20
-313.301
 30
0.000000
  70
    32
  0
VERTEX
  8
┌▓È_1
  5
405
 10
904.120
 20
-313.306
 30
0.000000
  70
    32
  0
VERTEX
  8
┌▓È_1
  5
406
 10
904.142
 20
-313.310
 30
0.000000
  70
    32
  0
VERTEX
  8
┌▓È_1
  5
407
 10
904.165
 20
-313.315
 30
0.000000
  70
    32
  0
VERTEX
  8
┌▓È_1
  5
408
 10
904.188
 20
-313.320
 30
0.000000
  70
    32
  0
VERTEX
  8
┌▓È_1
  5
409
 10
904.210
 20
-313.325
 30
0.000000
  70
    32
  0
VERTEX
  8
┌▓È_1
  5
40A
 10
904.233
 20
-313.330
 30
0.000000
  70
    32
  0
VERTEX
  8
┌▓È_1
  5
40B
 10
904.256
 20
-313.334
 30
0.000000
  70
    32
  0
VERTEX
  8
┌▓È_1
  5
40C
 10
904.278
 20
-313.339
 30
0.000000
  70
    32
  0
VERTEX
  8
┌▓È_1
  5
40D
 10
904.301
 20
-313.344
 30
0.000000
  70
    32
  0
VERTEX
  8
┌▓È_1
  5
40E
 10
904.324
 20
-313.349
 30
0.000000
  70
    32
  0
VERTEX
  8
┌▓È_1
  5
40F
 10
904.346
 20
-313.353
 30
0.000000
  70
    32
  0
VERTEX
  8
┌▓È_1
  5
410
 10
904.369
 20
-313.358
 30
0.000000
  70
    32
  0
VERTEX
  8
┌▓È_1
  5
411
 10
904.392
 20
-313.363
 30
0.000000
  70
    32
  0
VERTEX
  8
┌▓È_1
  5
412
 10
904.414
 20
-313.368
 30
0.000000
  70
    32
  0
VERTEX
  8
┌▓È_1
  5
413
 10
904.437
 20
-313.372
 30
0.000000
  70
    32
  0
VERTEX
  8
┌▓È_1
  5
414
 10
904.460
 20
-313.377
 30
0.000000
  70
    32
  0
VERTEX
  8
┌▓È_1
  5
415
 10
904.482
 20
-313.382
 30
0.000000
  70
    32
  0
VERTEX
  8
┌▓È_1
  5
416
 10
904.505
 20
-313.387
 30
0.000000
  70
    32
  0
VERTEX
  8
┌▓È_1
  5
417
 10
904.528
 20
-313.391
 30
0.000000
  70
    32
  0
VERTEX
  8
┌▓È_1
  5
418
 10
904.550
 20
-313.396
 30
0.000000
  70
    32
  0
VERTEX
  8
┌▓È_1
  5
419
 10
904.573
 20
-313.401
 30
0.000000
  70
    32
  0
VERTEX
  8
┌▓È_1
  5
41A
 10
904.596
 20
-313.406
 30
0.000000
  70
    32
  0
VERTEX
  8
┌▓È_1
  5
41B
 10
904.618
 20
-313.410
 30
0.000000
  70
    32
  0
VERTEX
  8
┌▓È_1
  5
41C
 10
904.641
 20
-313.415
 30
0.000000
  70
    32
  0
VERTEX
  8
┌▓È_1
  5
41D
 10
904.664
 20
-313.420
 30
0.000000
  70
    32
  0
VERTEX
  8
┌▓È_1
  5
41E
 10
904.687
 20
-313.424
 30
0.000000
  70
    32
  0
VERTEX
  8
┌▓È_1
  5
41F
 10
904.709
 20
-313.429
 30
0.000000
  70
    32
  0
VERTEX
  8
┌▓È_1
  5
420
 10
904.732
 20
-313.434
 30
0.000000
  70
    32
  0
VERTEX
  8
┌▓È_1
  5
421
 10
904.755
 20
-313.439
 30
0.000000
  70
    32
  0
SEQEND
  8
┌▓È_1
  5
422
  0
POLYLINE
  8
┌▓È_1
  5
423
  62
5
  66
     1
 10
0.000000
 20
0.000000
 30
0.000000
  70
     8
  0
VERTEX
  8
┌▓È_1
  5
424
 10
900.302
 20
-310.149
 30
0.000000
  70
    32
  0
VERTEX
  8
┌▓È_1
  5
425
 10
900.307
 20
-310.155
 30
0.000000
  70
    32
  0
VERTEX
  8
┌▓È_1
  5
426
 10
900.313
 20
-310.161
 30
0.000000
  70
    32
  0
VERTEX
  8
┌▓È_1
  5
427
 10
900.318
 20
-310.167
 30
0.000000
  70
    32
  0
VERTEX
  8
┌▓È_1
  5
428
 10
900.323
 20
-310.172
 30
0.000000
  70
    32
  0
VERTEX
  8
┌▓È_1
  5
429
 10
900.329
 20
-310.178
 30
0.000000
  70
    32
  0
VERTEX
  8
┌▓È_1
  5
42A
 10
900.334
 20
-310.184
 30
0.000000
  70
    32
  0
VERTEX
  8
┌▓È_1
  5
42B
 10
900.339
 20
-310.190
 30
0.000000
  70
    32
  0
VERTEX
  8
┌▓È_1
  5
42C
 10
900.344
 20
-310.196
 30
0.000000
  70
    32
  0
VERTEX
  8
┌▓È_1
  5
42D
 10
900.350
 20
-310.202
 30
0.000000
  70
    32
  0
VERTEX
  8
┌▓È_1
  5
42E
 10
900.355
 20
-310.208
 30
0.000000
  70
    32
  0
VERTEX
  8
┌▓È_1
  5
42F
 10
900.360
 20
-310.214
 30
0.000000
  70
    32
  0
VERTEX
  8
┌▓È_1
  5
430
 10
900.365
 20
-310.219
 30
0.000000
  70
    32
  0
VERTEX
  8
┌▓È_1
  5
431
 10
900.371
 20
-310.225
 30
0.000000
  70
    32
  0
VERTEX
  8
┌▓È_1
  5
432
 10
900.376
 20
-310.231
 30
0.000000
  70
    32
  0
VERTEX
  8
┌▓È_1
  5
433
 10
900.381
 20
-310.237
 30
0.000000
  70
    32
  0
VERTEX
  8
┌▓È_1
  5
434
 10
900.387
 20
-310.243
 30
0.000000
  70
    32
  0
VERTEX
  8
┌▓È_1
  5
435
 10
900.392
 20
-310.249
 30
0.000000
  70
    32
  0
VERTEX
  8
┌▓È_1
  5
436
 10
900.397
 20
-310.255
 30
0.000000
  70
    32
  0
VERTEX
  8
┌▓È_1
  5
437
 10
900.402
 20
-310.261
 30
0.000000
  70
    32
  0
VERTEX
  8
┌▓È_1
  5
438
 10
900.408
 20
-310.266
 30
0.000000
  70
    32
  0
VERTEX
  8
┌▓È_1
  5
439
 10
900.413
 20
-310.272
 30
0.000000
  70
    32
  0
VERTEX
  8
┌▓È_1
  5
43A
 10
900.418
 20
-310.278
 30
0.000000
  70
    32
  0
VERTEX
  8
┌▓È_1
  5
43B
 10
900.424
 20
-310.284
 30
0.000000
  70
    32
  0
VERTEX
  8
┌▓È_1
  5
43C
 10
900.429
 20
-310.290
 30
0.000000
  70
    32
  0
VERTEX
  8
┌▓È_1
  5
43D
 10
900.434
 20
-310.296
 30
0.000000
  70
    32
  0
VERTEX
  8
┌▓È_1
  5
43E
 10
900.440
 20
-310.302
 30
0.000000
  70
    32
  0
VERTEX
  8
┌▓È_1
  5
43F
 10
900.445
 20
-310.308
 30
0.000000
  70
    32
  0
VERTEX
  8
┌▓È_1
  5
440
 10
900.450
 20
-310.313
 30
0.000000
  70
    32
  0
VERTEX
  8
┌▓È_1
  5
441
 10
900.455
 20
-310.319
 30
0.000000
  70
    32
  0
VERTEX
  8
┌▓È_1
  5
442
 10
900.461
 20
-310.325
 30
0.000000
  70
    32
  0
VERTEX
  8
┌▓È_1
  5
443
 10
900.466
 20
-310.331
 30
0.000000
  70
    32
  0
VERTEX
  8
┌▓È_1
  5
444
 10
900.471
 20
-310.337
 30
0.000000
  70
    32
  0
VERTEX
  8
┌▓È_1
  5
445
 10
900.477
 20
-310.343
 30
0.000000
  70
    32
  0
VERTEX
  8
┌▓È_1
  5
446
 10
900.482
 20
-310.348
 30
0.000000
  70
    32
  0
VERTEX
  8
┌▓È_1
  5
447
 10
900.487
 20
-310.354
 30
0.000000
  70
    32
  0
VERTEX
  8
┌▓È_1
  5
448
 10
900.493
 20
-310.360
 30
0.000000
  70
    32
  0
VERTEX
  8
┌▓È_1
  5
449
 10
900.498
 20
-310.366
 30
0.000000
  70
    32
  0
VERTEX
  8
┌▓È_1
  5
44A
 10
900.503
 20
-310.372
 30
0.000000
  70
    32
  0
VERTEX
  8
┌▓È_1
  5
44B
 10
900.509
 20
-310.378
 30
0.000000
  70
    32
  0
VERTEX
  8
┌▓È_1
  5
44C
 10
900.514
 20
-310.383
 30
0.000000
  70
    32
  0
VERTEX
  8
┌▓È_1
  5
44D
 10
900.519
 20
-310.389
 30
0.000000
  70
    32
  0
VERTEX
  8
┌▓È_1
  5
44E
 10
900.525
 20
-310.395
 30
0.000000
  70
    32
  0
VERTEX
  8
┌▓È_1
  5
44F
 10
900.530
 20
-310.401
 30
0.000000
  70
    32
  0
VERTEX
  8
┌▓È_1
  5
450
 10
900.535
 20
-310.407
 30
0.000000
  70
    32
  0
VERTEX
  8
┌▓È_1
  5
451
 10
900.541
 20
-310.412
 30
0.000000
  70
    32
  0
VERTEX
  8
┌▓È_1
  5
452
 10
900.546
 20
-310.418
 30
0.000000
  70
    32
  0
VERTEX
  8
┌▓È_1
  5
453
 10
900.551
 20
-310.424
 30
0.000000
  70
    32
  0
VERTEX
  8
┌▓È_1
  5
454
 10
900.557
 20
-310.430
 30
0.000000
  70
    32
  0
VERTEX
  8
┌▓È_1
  5
455
 10
900.562
 20
-310.436
 30
0.000000
  70
    32
  0
VERTEX
  8
┌▓È_1
  5
456
 10
900.567
 20
-310.441
 30
0.000000
  70
    32
  0
VERTEX
  8
┌▓È_1
  5
457
 10
900.573
 20
-310.447
 30
0.000000
  70
    32
  0
VERTEX
  8
┌▓È_1
  5
458
 10
900.578
 20
-310.453
 30
0.000000
  70
    32
  0
VERTEX
  8
┌▓È_1
  5
459
 10
900.583
 20
-310.459
 30
0.000000
  70
    32
  0
VERTEX
  8
┌▓È_1
  5
45A
 10
900.589
 20
-310.464
 30
0.000000
  70
    32
  0
VERTEX
  8
┌▓È_1
  5
45B
 10
900.594
 20
-310.470
 30
0.000000
  70
    32
  0
VERTEX
  8
┌▓È_1
  5
45C
 10
900.599
 20
-310.476
 30
0.000000
  70
    32
  0
VERTEX
  8
┌▓È_1
  5
45D
 10
900.605
 20
-310.482
 30
0.000000
  70
    32
  0
VERTEX
  8
┌▓È_1
  5
45E
 10
900.610
 20
-310.487
 30
0.000000
  70
    32
  0
VERTEX
  8
┌▓È_1
  5
45F
 10
900.615
 20
-310.493
 30
0.000000
  70
    32
  0
VERTEX
  8
┌▓È_1
  5
460
 10
900.621
 20
-310.499
 30
0.000000
  70
    32
  0
VERTEX
  8
┌▓È_1
  5
461
 10
900.626
 20
-310.505
 30
0.000000
  70
    32
  0
VERTEX
  8
┌▓È_1
  5
462
 10
900.632
 20
-310.510
 30
0.000000
  70
    32
  0
VERTEX
  8
┌▓È_1
  5
463
 10
900.637
 20
-310.516
 30
0.000000
  70
    32
  0
VERTEX
  8
┌▓È_1
  5
464
 10
900.642
 20
-310.522
 30
0.000000
  70
    32
  0
VERTEX
  8
┌▓È_1
  5
465
 10
900.648
 20
-310.527
 30
0.000000
  70
    32
  0
VERTEX
  8
┌▓È_1
  5
466
 10
900.653
 20
-310.533
 30
0.000000
  70
    32
  0
VERTEX
  8
┌▓È_1
  5
467
 10
900.659
 20
-310.539
 30
0.000000
  70
    32
  0
VERTEX
  8
┌▓È_1
  5
468
 10
900.664
 20
-310.545
 30
0.000000
  70
    32
  0
VERTEX
  8
┌▓È_1
  5
469
 10
900.669
 20
-310.550
 30
0.000000
  70
    32
  0
VERTEX
  8
┌▓È_1
  5
46A
 10
900.675
 20
-310.556
 30
0.000000
  70
    32
  0
VERTEX
  8
┌▓È_1
  5
46B
 10
900.680
 20
-310.562
 30
0.000000
  70
    32
  0
VERTEX
  8
┌▓È_1
  5
46C
 10
900.686
 20
-310.567
 30
0.000000
  70
    32
  0
VERTEX
  8
┌▓È_1
  5
46D
 10
900.691
 20
-310.573
 30
0.000000
  70
    32
  0
VERTEX
  8
┌▓È_1
  5
46E
 10
900.696
 20
-310.579
 30
0.000000
  70
    32
  0
VERTEX
  8
┌▓È_1
  5
46F
 10
900.702
 20
-310.584
 30
0.000000
  70
    32
  0
VERTEX
  8
┌▓È_1
  5
470
 10
900.707
 20
-310.590
 30
0.000000
  70
    32
  0
VERTEX
  8
┌▓È_1
  5
471
 10
900.713
 20
-310.595
 30
0.000000
  70
    32
  0
VERTEX
  8
┌▓È_1
  5
472
 10
900.718
 20
-310.601
 30
0.000000
  70
    32
  0
VERTEX
  8
┌▓È_1
  5
473
 10
900.724
 20
-310.607
 30
0.000000
  70
    32
  0
VERTEX
  8
┌▓È_1
  5
474
 10
900.729
 20
-310.612
 30
0.000000
  70
    32
  0
VERTEX
  8
┌▓È_1
  5
475
 10
900.735
 20
-310.618
 30
0.000000
  70
    32
  0
VERTEX
  8
┌▓È_1
  5
476
 10
900.740
 20
-310.623
 30
0.000000
  70
    32
  0
VERTEX
  8
┌▓È_1
  5
477
 10
900.746
 20
-310.629
 30
0.000000
  70
    32
  0
VERTEX
  8
┌▓È_1
  5
478
 10
900.751
 20
-310.635
 30
0.000000
  70
    32
  0
VERTEX
  8
┌▓È_1
  5
479
 10
900.756
 20
-310.640
 30
0.000000
  70
    32
  0
VERTEX
  8
┌▓È_1
  5
47A
 10
900.762
 20
-310.646
 30
0.000000
  70
    32
  0
VERTEX
  8
┌▓È_1
  5
47B
 10
900.767
 20
-310.651
 30
0.000000
  70
    32
  0
VERTEX
  8
┌▓È_1
  5
47C
 10
900.773
 20
-310.657
 30
0.000000
  70
    32
  0
VERTEX
  8
┌▓È_1
  5
47D
 10
900.778
 20
-310.662
 30
0.000000
  70
    32
  0
VERTEX
  8
┌▓È_1
  5
47E
 10
900.784
 20
-310.668
 30
0.000000
  70
    32
  0
VERTEX
  8
┌▓È_1
  5
47F
 10
900.789
 20
-310.674
 30
0.000000
  70
    32
  0
VERTEX
  8
┌▓È_1
  5
480
 10
900.795
 20
-310.679
 30
0.000000
  70
    32
  0
VERTEX
  8
┌▓È_1
  5
481
 10
900.800
 20
-310.685
 30
0.000000
  70
    32
  0
VERTEX
  8
┌▓È_1
  5
482
 10
900.806
 20
-310.690
 30
0.000000
  70
    32
  0
VERTEX
  8
┌▓È_1
  5
483
 10
900.811
 20
-310.696
 30
0.000000
  70
    32
  0
VERTEX
  8
┌▓È_1
  5
484
 10
900.817
 20
-310.701
 30
0.000000
  70
    32
  0
VERTEX
  8
┌▓È_1
  5
485
 10
900.823
 20
-310.707
 30
0.000000
  70
    32
  0
VERTEX
  8
┌▓È_1
  5
486
 10
900.828
 20
-310.712
 30
0.000000
  70
    32
  0
VERTEX
  8
┌▓È_1
  5
487
 10
900.834
 20
-310.717
 30
0.000000
  70
    32
  0
VERTEX
  8
┌▓È_1
  5
488
 10
900.839
 20
-310.723
 30
0.000000
  70
    32
  0
VERTEX
  8
┌▓È_1
  5
489
 10
900.845
 20
-310.728
 30
0.000000
  70
    32
  0
VERTEX
  8
┌▓È_1
  5
48A
 10
900.850
 20
-310.734
 30
0.000000
  70
    32
  0
VERTEX
  8
┌▓È_1
  5
48B
 10
900.856
 20
-310.739
 30
0.000000
  70
    32
  0
VERTEX
  8
┌▓È_1
  5
48C
 10
900.861
 20
-310.745
 30
0.000000
  70
    32
  0
VERTEX
  8
┌▓È_1
  5
48D
 10
900.867
 20
-310.750
 30
0.000000
  70
    32
  0
VERTEX
  8
┌▓È_1
  5
48E
 10
900.873
 20
-310.755
 30
0.000000
  70
    32
  0
VERTEX
  8
┌▓È_1
  5
48F
 10
900.878
 20
-310.761
 30
0.000000
  70
    32
  0
VERTEX
  8
┌▓È_1
  5
490
 10
900.884
 20
-310.766
 30
0.000000
  70
    32
  0
VERTEX
  8
┌▓È_1
  5
491
 10
900.889
 20
-310.772
 30
0.000000
  70
    32
  0
VERTEX
  8
┌▓È_1
  5
492
 10
900.895
 20
-310.777
 30
0.000000
  70
    32
  0
VERTEX
  8
┌▓È_1
  5
493
 10
900.901
 20
-310.782
 30
0.000000
  70
    32
  0
VERTEX
  8
┌▓È_1
  5
494
 10
900.906
 20
-310.788
 30
0.000000
  70
    32
  0
VERTEX
  8
┌▓È_1
  5
495
 10
900.912
 20
-310.793
 30
0.000000
  70
    32
  0
VERTEX
  8
┌▓È_1
  5
496
 10
900.917
 20
-310.798
 30
0.000000
  70
    32
  0
VERTEX
  8
┌▓È_1
  5
497
 10
900.923
 20
-310.804
 30
0.000000
  70
    32
  0
VERTEX
  8
┌▓È_1
  5
498
 10
900.929
 20
-310.809
 30
0.000000
  70
    32
  0
VERTEX
  8
┌▓È_1
  5
499
 10
900.934
 20
-310.814
 30
0.000000
  70
    32
  0
VERTEX
  8
┌▓È_1
  5
49A
 10
900.940
 20
-310.819
 30
0.000000
  70
    32
  0
VERTEX
  8
┌▓È_1
  5
49B
 10
900.946
 20
-310.825
 30
0.000000
  70
    32
  0
VERTEX
  8
┌▓È_1
  5
49C
 10
900.951
 20
-310.830
 30
0.000000
  70
    32
  0
VERTEX
  8
┌▓È_1
  5
49D
 10
900.957
 20
-310.835
 30
0.000000
  70
    32
  0
VERTEX
  8
┌▓È_1
  5
49E
 10
900.963
 20
-310.840
 30
0.000000
  70
    32
  0
VERTEX
  8
┌▓È_1
  5
49F
 10
900.968
 20
-310.846
 30
0.000000
  70
    32
  0
VERTEX
  8
┌▓È_1
  5
4A0
 10
900.974
 20
-310.851
 30
0.000000
  70
    32
  0
VERTEX
  8
┌▓È_1
  5
4A1
 10
900.980
 20
-310.856
 30
0.000000
  70
    32
  0
VERTEX
  8
┌▓È_1
  5
4A2
 10
900.986
 20
-310.861
 30
0.000000
  70
    32
  0
VERTEX
  8
┌▓È_1
  5
4A3
 10
900.991
 20
-310.866
 30
0.000000
  70
    32
  0
SEQEND
  8
┌▓È_1
  5
4A4
  0
LINE
  5
1C2
  8
┌▓È_1
 10
854.42897948749999
 20
-289.46677003169998
 30
0.0
 11
854.42897948749999
 21
-314.96677003169998
 31
0.0
  0
INSERT
  5
1C3
  8
0
  6
CONTINUOUS
  2
*U38
 10
0.0
 20
0.0
 30
0.0
  0
INSERT
  5
1C4
  8
0
  6
CONTINUOUS
  2
*U39
 10
0.0
 20
0.0
 30
0.0
  0
LINE
  5
1C5
  8
┌▓È_1
 62
     5
 10
906.52865182059986
 20
-309.19863165819999
 30
0.0
 11
908.52758515389996
 21
-309.19863165819999
 31
0.0
  0
LINE
  5
1C6
  8
┌▓È_1
 62
     5
 10
892.22618085350007
 20
-310.63863165819998
 30
0.0
 11
892.22618085350007
 21
-311.03863165820002
 31
0.0
  0
LINE
  5
1C7
  8
┌▓È_1
 62
     5
 10
890.62618085350005
 20
-310.63863165819998
 30
0.0
 11
892.22618085350007
 21
-310.63863165819998
 31
0.0
  0
LINE
  5
1C8
  8
┌▓È_1
  6
BORDER
 62
     3
 10
754.46557281570006
 20
-175.98036927039999
 30
0.0
 11
762.39181395050002
 21
-175.98036927039999
 31
0.0
  0
LINE
  5
1C9
  8
┌▓È_1
  6
BORDER
 62
     3
 10
754.46557281570006
 20
-189.98036927039999
 30
0.0
 11
762.39181395050002
 21
-189.98036927039999
 31
0.0
  0
LINE
  5
1CA
  8
┌▓È_1
  6
STITCH
 10
758.13275169669987
 20
-191.98036927039999
 30
0.0
 11
757.13275169669998
 21
-191.98036927039999
 31
0.0
  0
LINE
  5
1CB
  8
┌▓È_1
  6
STITCH
 10
780.13275169669998
 20
-199.98036927039999
 30
0.0
 11
780.13275169669998
 21
-200.98036927039999
 31
0.0
  0
LINE
  5
1CC
  8
┌▓È_1
  6
STITCH
 10
784.13275169669987
 20
-199.98036927039999
 30
0.0
 11
784.13275169669987
 21
-200.98036927039999
 31
0.0
  0
LINE
  5
1CD
  8
┌▓È_1
  6
STITCH
 10
784.13275169669987
 20
-199.98036927039999
 30
0.0
 11
780.13275169669998
 21
-199.98036927039999
 31
0.0
  0
LINE
  5
1CE
  8
┌▓È_1
  6
STITCH
 10
778.13275169669987
 20
-197.98036927039999
 30
0.0
 11
780.13275169669998
 21
-199.98036927039999
 31
0.0
  0
LINE
  5
1CF
  8
┌▓È_1
  6
STITCH
 10
786.13275169669998
 20
-197.98036927039999
 30
0.0
 11
784.13275169669987
 21
-199.98036927039999
 31
0.0
  0
LINE
  5
1D0
  8
┌▓È_1
  6
STITCH
 10
760.13275169669998
 20
-171.98036927039999
 30
0.0
 11
758.13275169669987
 21
-173.98036927039999
 31
0.0
  0
ARC
  5
1D1
  8
┌▓È_1
 62
     5
 10
760.13275169669998
 20
-197.98036927039999
 30
0.0
 40
3.0
 50
180.0
 51
270.0
  0
LINE
  5
1D2
  8
┌▓È_1
 62
     5
 10
760.13275169669998
 20
-200.98036927039999
 30
0.0
 11
787.13275169669987
 21
-200.98036927039999
 31
0.0
  0
LINE
  5
1D3
  8
┌▓È_1
 62
     5
 10
757.13275169669998
 20
-197.98036927039999
 30
0.0
 11
757.13275169669998
 21
-170.98036927039999
 31
0.0
  0
LINE
  5
1D4
  8
┌▓È_1
  6
STITCH
 10
770.13275169669987
 20
-199.98036927039999
 30
0.0
 11
770.13275169669987
 21
-200.98036927039999
 31
0.0
  0
LINE
  5
1D5
  8
┌▓È_1
  6
STITCH
 10
766.13275169669987
 20
-199.98036927039999
 30
0.0
 11
766.13275169669987
 21
-200.98036927039999
 31
0.0
  0
LINE
  5
1D6
  8
┌▓È_1
  6
BORDER
 62
     3
 10
768.13275169669998
 20
-203.6475481514
 30
0.0
 11
768.13275169669998
 21
-195.7213070167
 31
0.0
  0
LINE
  5
1D7
  8
┌▓È_1
  6
BORDER
 62
     3
 10
782.13275169669998
 20
-203.6475481514
 30
0.0
 11
782.13275169669998
 21
-195.7213070167
 31
0.0
  0
LINE
  5
1D8
  8
┌▓È_1
 62
     5
 10
787.13275169669987
 20
-243.07111001120001
 30
0.0
 11
757.13275169669998
 21
-243.07111001120001
 31
0.0
  0
LINE
  5
1D9
  8
┌▓È_1
 62
     5
 10
830.6105294744998
 20
-170.98036927039999
 30
0.0
 11
830.6105294744998
 21
-200.98036927039999
 31
0.0
  0
LINE
  5
1DA
  8
┌▓È_1
  6
STITCH
 10
760.13275169669998
 20
-179.98036927039999
 30
0.0
 11
758.13275169669987
 21
-177.98036927039999
 31
0.0
  0
LINE
  5
1DB
  8
┌▓È_1
  6
BORDER
 62
     3
 10
762.13275169669987
 20
-251.07111001120001
 30
0.0
 11
774.13275169669987
 21
-251.07111001120001
 31
0.0
  0
LINE
  5
1DC
  8
┌▓È_1
  6
BORDER
 62
     3
 10
776.13275169669998
 20
-251.07111001120001
 30
0.0
 11
788.13275169669987
 21
-251.07111001120001
 31
0.0
  0
LINE
  5
1DD
  8
┌▓È_1
 62
     5
 10
757.13275169669998
 20
-259.07111001120001
 30
0.0
 11
787.13275169669987
 21
-259.07111001120001
 31
0.0
  0
CIRCLE
  5
1DE
  8
┌▓È_1
 62
     5
 10
768.13275169669998
 20
-251.07111001120001
 30
0.0
 40
2.0
  0
CIRCLE
  5
1DF
  8
┌▓È_1
 62
     5
 10
782.13275169669998
 20
-251.07111001120001
 30
0.0
 40
2.0
  0
LINE
  5
1E0
  8
┌▓È_1
  6
BORDER
 62
     3
 10
782.13275169669998
 20
-245.07111001120001
 30
0.0
 11
782.13275169669998
 21
-257.07111001120001
 31
0.0
  0
LINE
  5
1E1
  8
┌▓È_1
 62
     5
 10
937.3498749606
 20
-192.75073964079999
 30
0.0
 11
927.3498749606
 21
-202.75073964079999
 31
0.0
  0
LINE
  5
1E2
  8
┌▓È_1
 62
     5
 10
927.3498749606
 20
-202.75073964079999
 30
0.0
 11
907.34987496060012
 21
-202.75073964079999
 31
0.0
  0
LINE
  5
1E3
  8
┌▓È_1
 62
     5
 10
907.34987496060012
 20
-202.75073964079999
 30
0.0
 11
907.34987496060012
 21
-207.75073964079999
 31
0.0
  0
LINE
  5
1E4
  8
┌▓È_1
 62
     5
 10
927.3498749606
 20
-202.75073964079999
 30
0.0
 11
927.3498749606
 21
-207.75073964079999
 31
0.0
  0
LINE
  5
1E5
  8
┌▓È_1
 62
     5
 10
897.34987496059989
 20
-192.75073964079999
 30
0.0
 11
907.34987496060012
 21
-202.75073964079999
 31
0.0
  0
LINE
  5
1E6
  8
┌▓È_1
 62
     5
 10
886.86468977539994
 20
-192.75073964079999
 30
0.0
 11
947.83506014579996
 21
-192.75073964079999
 31
0.0
  0
LINE
  5
1E7
  8
┌▓È_1
 62
     5
 10
886.86468977539994
 20
-207.75073964079999
 30
0.0
 11
947.83506014579996
 21
-207.75073964079999
 31
0.0
  0
LINE
  5
1E8
  8
┌▓È_1
  6
BORDER
 62
     3
 10
917.3498749606
 20
-188.50073964079999
 30
0.0
 11
917.3498749606
 21
-212.25073964079999
 31
0.0
  0
LINE
  5
1E9
  8
┌▓È_1
  6
BORDER
 62
     3
 10
838.6105294744998
 20
-183.98036927039999
 30
0.0
 11
838.6105294744998
 21
-195.98036927039999
 31
0.0
  0
LINE
  5
1EA
  8
┌▓È_1
  6
BORDER
 62
     3
 10
838.6105294744998
 20
-169.98036927039999
 30
0.0
 11
838.6105294744998
 21
-181.98036927039999
 31
0.0
  0
LINE
  5
1EB
  8
┌▓È_1
 62
     5
 10
846.6105294744998
 20
-200.98036927039999
 30
0.0
 11
846.6105294744998
 21
-170.98036927039999
 31
0.0
  0
LINE
  5
1EC
  8
┌▓È_1
  6
STITCH
 10
758.13275169669987
 20
-173.98036927039999
 30
0.0
 11
758.13275169669987
 21
-177.98036927039999
 31
0.0
  0
LINE
  5
1ED
  8
┌▓È_1
  6
STITCH
 10
758.13275169669987
 20
-173.98036927039999
 30
0.0
 11
757.13275169669998
 21
-173.98036927039999
 31
0.0
  0
LINE
  5
1EE
  8
┌▓È_1
  6
STITCH
 10
758.13275169669987
 20
-187.98036927039999
 30
0.0
 11
757.13275169669998
 21
-187.98036927039999
 31
0.0
  0
LINE
  5
1EF
  8
┌▓È_1
  6
STITCH
 10
758.13275169669987
 20
-187.98036927039999
 30
0.0
 11
758.13275169669987
 21
-191.98036927039999
 31
0.0
  0
LINE
  5
1F0
  8
┌▓È_1
  6
STITCH
 10
760.13275169669998
 20
-193.98036927039999
 30
0.0
 11
758.13275169669987
 21
-191.98036927039999
 31
0.0
  0
LINE
  5
1F1
  8
┌▓È_1
  6
STITCH
 10
760.13275169669998
 20
-185.98036927039999
 30
0.0
 11
758.13275169669987
 21
-187.98036927039999
 31
0.0
  0
LINE
  5
1F2
  8
┌▓È_1
  6
STITCH
 10
772.13275169669998
 20
-197.98036927039999
 30
0.0
 11
770.13275169669987
 21
-199.98036927039999
 31
0.0
  0
LINE
  5
1F3
  8
┌▓È_1
  6
STITCH
 10
764.13275169669998
 20
-197.98036927039999
 30
0.0
 11
766.13275169669987
 21
-199.98036927039999
 31
0.0
  0
LINE
  5
1F4
  8
┌▓È_1
  6
STITCH
 10
770.13275169669987
 20
-199.98036927039999
 30
0.0
 11
766.13275169669987
 21
-199.98036927039999
 31
0.0
  0
LINE
  5
1F5
  8
┌▓È_1
 62
     5
 10
760.13275169669998
 20
-170.98036927039999
 30
0.0
 11
757.13275169669998
 21
-170.98036927039999
 31
0.0
  0
LINE
  5
1F6
  8
┌▓È_1
 62
     5
 10
760.13275169669998
 20
-197.98036927039999
 30
0.0
 11
760.13275169669998
 21
-170.98036927039999
 31
0.0
  0
LINE
  5
1F7
  8
┌▓È_1
 62
     5
 10
787.13275169669987
 20
-200.98036927039999
 30
0.0
 11
787.13275169669987
 21
-197.98036927039999
 31
0.0
  0
LINE
  5
1F8
  8
┌▓È_1
 62
     5
 10
760.13275169669998
 20
-197.98036927039999
 30
0.0
 11
787.13275169669987
 21
-197.98036927039999
 31
0.0
  0
LINE
  5
1F9
  8
┌▓È_1
  6
STITCH
 10
758.13275169669987
 20
-177.98036927039999
 30
0.0
 11
757.13275169669998
 21
-177.98036927039999
 31
0.0
  0
ENDSEC
  0
EOF
