  0
SECTION
  2
HEADER
  9
$ACADVER
  1
AC1009
  9
$INSBASE
 10
0.0
 20
0.0
 30
0.0
  9
$EXTMIN
 10
699.34716980070004
 20
-315.15834084900001
 30
0.0
  9
$EXTMAX
 10
974.34716980070004
 20
-125.158340849
 30
0.0
  9
$LIMMIN
 10
0.0
 20
0.0
  9
$LIMMAX
 10
0.0
 20
0.0
  9
$ORTHOMODE
 70
     0
  9
$REGENMODE
 70
     1
  9
$FILLMODE
 70
     1
  9
$QTEXTMODE
 70
     0
  9
$MIRRTEXT
 70
     1
  9
$DRAGMODE
 70
     2
  9
$LTSCALE
 40
1.0
  9
$OSMODE
 70
    31
  9
$ATTMODE
 70
     1
  9
$TEXTSIZE
 40
0.0
  9
$TRACEWID
 40
0.05
  9
$TEXTSTYLE
  7
STANDARD
  9
$CLAYER
  8
0
  9
$CELTYPE
  6
CONTINUOUS
  9
$CECOLOR
 62
   256
  9
$DIMSCALE
 40
1.0
  9
$DIMASZ
 40
0.18
  9
$DIMEXO
 40
0.0625
  9
$DIMDLI
 40
0.38
  9
$DIMRND
 40
0.0
  9
$DIMDLE
 40
0.0
  9
$DIMEXE
 40
0.18
  9
$DIMTP
 40
0.0
  9
$DIMTM
 40
0.0
  9
$DIMTXT
 40
0.18
  9
$DIMCEN
 40
0.09
  9
$DIMTSZ
 40
0.0
  9
$DIMTOL
 70
     0
  9
$DIMLIM
 70
     0
  9
$DIMTIH
 70
     1
  9
$DIMTOH
 70
     1
  9
$DIMSE1
 70
     0
  9
$DIMSE2
 70
     0
  9
$DIMTAD
 70
     0
  9
$DIMZIN
 70
     0
  9
$DIMBLK
  1

  9
$DIMASO
 70
     1
  9
$DIMSHO
 70
     1
  9
$DIMPOST
  1

  9
$DIMAPOST
  1

  9
$DIMALT
 70
     0
  9
$DIMALTD
 70
     2
  9
$DIMALTF
 40
25.399999999999999
  9
$DIMLFAC
 40
1.0
  9
$DIMTOFL
 70
     0
  9
$DIMTVP
 40
0.0
  9
$DIMTIX
 70
     0
  9
$DIMSOXD
 70
     0
  9
$DIMSAH
 70
     0
  9
$DIMBLK1
  1

  9
$DIMBLK2
  1

  9
$DIMSTYLE
  2
STANDARD
  9
$DIMCLRD
 70
     0
  9
$DIMCLRE
 70
     0
  9
$DIMCLRT
 70
     0
  9
$DIMTFAC
 40
1.0
  9
$DIMGAP
 40
0.09
  9
$LUNITS
 70
     2
  9
$LUPREC
 70
     4
  9
$SKETCHINC
 40
0.1
  9
$FILLETRAD
 40
0.0
  9
$AUNITS
 70
     0
  9
$AUPREC
 70
     0
  9
$MENU
  1
acad
  9
$ELEVATION
 40
0.0
  9
$PELEVATION
 40
0.0
  9
$THICKNESS
 40
0.0
  9
$LIMCHECK
 70
     0
  9
$BLIPMODE
 70
     0
  9
$CHAMFERA
 40
0.0
  9
$CHAMFERB
 40
0.0
  9
$SKPOLY
 70
     0
  9
$TDCREATE
 40
2454862.7586465511
  9
$TDUPDATE
 40
2454862.7587982761
  9
$TDINDWG
 40
0.0001591435
  9
$TDUSRTIMER
 40
0.0001587847
  9
$USRTIMER
 70
     1
  9
$ANGBASE
 50
0.0
  9
$ANGDIR
 70
     0
  9
$PDMODE
 70
     3
  9
$PDSIZE
 40
-1.0
  9
$PLINEWID
 40
0.0
  9
$COORDS
 70
     2
  9
$SPLFRAME
 70
     0
  9
$SPLINETYPE
 70
     6
  9
$SPLINESEGS
 70
     8
  9
$ATTDIA
 70
     0
  9
$ATTREQ
 70
     1
  9
$HANDLING
 70
     1
  9
$HANDSEED
  5
4A5
  9
$SURFTAB1
 70
     6
  9
$SURFTAB2
 70
     6
  9
$SURFTYPE
 70
     6
  9
$SURFU
 70
     6
  9
$SURFV
 70
     6
  9
$UCSNAME
  2

  9
$UCSORG
 10
0.0
 20
0.0
 30
0.0
  9
$UCSXDIR
 10
1.0
 20
0.0
 30
0.0
  9
$UCSYDIR
 10
0.0
 20
1.0
 30
0.0
  9
$PUCSNAME
  2

  9
$PUCSORG
 10
0.0
 20
0.0
 30
0.0
  9
$PUCSXDIR
 10
1.0
 20
0.0
 30
0.0
  9
$PUCSYDIR
 10
0.0
 20
1.0
 30
0.0
  9
$USERI1
 70
     0
  9
$USERI2
 70
     0
  9
$USERI3
 70
     0
  9
$USERI4
 70
     0
  9
$USERI5
 70
     0
  9
$USERR1
 40
0.0
  9
$USERR2
 40
0.0
  9
$USERR3
 40
0.0
  9
$USERR4
 40
0.0
  9
$USERR5
 40
0.0
  9
$WORLDVIEW
 70
     1
  9
$SHADEDGE
 70
     3
  9
$SHADEDIF
 70
    70
  9
$TILEMODE
 70
     1
  9
$MAXACTVP
 70
    16
  9
$PLIMCHECK
 70
     0
  9
$PEXTMIN
 10
1.0000000000000000E+020
 20
1.0000000000000000E+020
 30
1.0000000000000000E+020
  9
$PEXTMAX
 10
-1.0000000000000000E+020
 20
-1.0000000000000000E+020
 30
-1.0000000000000000E+020
  9
$PLIMMIN
 10
0.0
 20
0.0
  9
$PLIMMAX
 10
12.0
 20
9.0
  9
$UNITMODE
 70
     0
  9
$VISRETAIN
 70
     0
  9
$PLINEGEN
 70
     1
  9
$PSLTSCALE
 70
     0
  0
ENDSEC
  0
SECTION
  2
TABLES
  0
TABLE
  2
VPORT
 70
     2
  0
VPORT
  2
*ACTIVE
 70
     0
 10
0.0
 20
0.0
 11
1.0
 21
1.0
 12
836.84716980070004
 22
-220.15834084900001
 13
0.0
 23
0.0
 14
1.0
 24
1.0
 15
0.0
 25
0.0
 16
0.0
 26
0.0
 36
1.0
 17
0.0
 27
0.0
 37
0.0
 40
198.9929279237459
 41
1.3903818953323901
 42
50.0
 43
0.0
 44
0.0
 50
0.0
 51
0.0
 71
     0
 72
   100
 73
     1
 74
     1
 75
     0
 76
     0
 77
     0
 78
     0
  0
ENDTAB
  0
TABLE
  2
LTYPE
 70
    11
  0
LTYPE
  2
CONTINUOUS
 70
     0
  3
Solid line
 72
    65
 73
     0
 40
0.0
  0
LTYPE
  2
DOT
 70
     0
  3
. . . . . . . . 
 72
    65
 73
     2
 40
1.0
 49
0.0
 49
-1.0
  0
LTYPE
  2
DASHED
 70
     0
  3
___  ___  ___  ___  
 72
    65
 73
     2
 40
4.0
 49
3.0
 49
-1.0
  0
LTYPE
  2
HIDDEN
 70
     0
  3
__ __ __ __ 
 72
    65
 73
     2
 40
3.0
 49
2.0
 49
-1.0
  0
LTYPE
  2
STITCH
 70
     0
  3
_ _ _ _ 
 72
    65
 73
     2
 40
2.0
 49
1.0
 49
-1.0
  0
LTYPE
  2
CENTER
 70
     0
  3
______  __  ______  __  
 72
    65
 73
     4
 40
43.0
 49
40.0
 49
-1.0
 49
1.0
 49
-1.0
  0
LTYPE
  2
DASHDOT
 70
     0
  3
____ . ____ . 
 72
    65
 73
     4
 40
32.0
 49
30.0
 49
-1.0
 49
0.0
 49
-1.0
  0
LTYPE
  2
BORDER
 70
     0
  3
__ . __ . 
 72
    65
 73
     4
 40
22.0
 49
20.0
 49
-1.0
 49
0.0
 49
-1.0
  0
LTYPE
  2
CUTTING
 70
     0
  3
________   ___   ___   
 72
    65
 73
     6
 40
45.0
 49
40.0
 49
-1.0
 49
1.0
 49
-1.0
 49
1.0
 49
-1.0
  0
LTYPE
  2
PHANTOM
 70
     0
  3
______  __  __  
 72
    65
 73
     6
 40
35.0
 49
30.0
 49
-1.0
 49
1.0
 49
-1.0
 49
1.0
 49
-1.0
  0
LTYPE
  2
DIVIDE
 70
     0
  3
____ . . ____ . . 
 72
    65
 73
     6
 40
23.0
 49
20.0
 49
-1.0
 49
0.0
 49
-1.0
 49
0.0
 49
-1.0
  0
ENDTAB
  0
TABLE
  2
LAYER
 70
     4
  0
LAYER
  2
0
 70
     0
 62
     7
  6
CONTINUOUS
  0
LAYER
  2
Éíû@É³
 70
     0
 62
     7
  6
CONTINUOUS
  0
LAYER
  2
┌▓È_1
 70
     0
 62
     7
  6
CONTINUOUS
  0
LAYER
  2
Defpoints
 70
     0
 62
     7
  6
CONTINUOUS
  0
ENDTAB
  0
TABLE
  2
STYLE
 70
     1
  0
STYLE
  2
STANDARD
 70
     0
 40
0.0
 41
1.0
 50
0.0
 71
     0
 42
0.0
  3
txt
  4
extfont
  0
ENDTAB
  0
TABLE
  2
VIEW
 70
     0
  0
ENDTAB
  0
TABLE
  2
UCS
 70
     0
  0
ENDTAB
  0
TABLE
  2
APPID
 70
     2
  0
APPID
  2
ACAD
 70
     0
  0
APPID
  2
DCO15
 70
     0
  0
ENDTAB
  0
TABLE
  2
DIMSTYLE
 70
     3
  0
DIMSTYLE
  2
STANDARD
 70
     0
  3

  4

  5

  6

  7

 40
1.0
 41
0.18
 42
0.0625
 43
0.38
 44
0.18
 45
0.0
 46
0.0
 47
0.0
 48
0.0
140
0.18
141
0.09
142
0.0
143
25.399999999999999
144
1.0
145
0.0
146
1.0
147
0.09
 71
     0
 72
     0
 73
     1
 74
     1
 75
     0
 76
     0
 77
     0
 78
     0
170
     0
171
     2
172
     0
173
     0
174
     0
175
     0
176
     0
177
     0
178
     0
  0
DIMSTYLE
  2
VELDIM0
 70
     0
  3

  4

  5

  6

  7

 40
1.0
 41
3.0
 42
0.0625
 43
0.38
 44
0.5
 45
0.0
 46
3.0
 47
0.0
 48
0.0
140
2.9986110209999999
141
0.09
142
0.0
143
25.399999999999999
144
1.0
145
0.0
146
1.0
147
0.09
 71
     0
 72
     0
 73
     0
 74
     0
 75
     0
 76
     0
 77
     0
 78
     8
170
     0
171
     2
172
     0
173
     0
174
     0
175
     0
176
     0
177
     0
178
     0
  0
DIMSTYLE
  2
VELDIM1
 70
     0
  3

  4

  5

  6

  7

 40
1.0
 41
3.0
 42
0.0625
 43
0.38
 44
1.25
 45
0.0
 46
5.0
 47
0.0
 48
0.0
140
2.9986110209999999
141
0.09
142
0.0
143
25.399999999999999
144
1.0
145
0.0
146
1.0
147
0.09
 71
     0
 72
     0
 73
     0
 74
     0
 75
     0
 76
     0
 77
     0
 78
     8
170
     0
171
     2
172
     0
173
     0
174
     0
175
     0
176
     0
177
     0
178
     0
  0
ENDTAB
  0
ENDSEC
  0
SECTION
  2
BLOCKS
  0
BLOCK
  8
0
  2
$MODEL_SPACE
 70
     0
 10
0.0
 20
0.0
 30
0.0
  3
$MODEL_SPACE
  1

  0
ENDBLK
  5
E
  8
0
  0
BLOCK
 67
     1
  8
0
  2
$PAPER_SPACE
 70
     0
 10
0.0
 20
0.0
 30
0.0
  3
$PAPER_SPACE
  1

  0
ENDBLK
  5
10
 67
     1
  8
0
  0
BLOCK
  8
0
  2
*D0
 70
     1
 10
0.0
 20
0.0
 30
0.0
  3
*D0
  1

  0
TEXT
  5
31
  8
0
 62
     0
 10
838.28233691729986
 20
-166.2748577724
 30
0.0
 40
2.9986110209999999
  1
11
 50
90.0
  0
LINE
  5
32
  8
0
 62
     0
 10
848.81150356799992
 20
-159.01096893650001
 30
0.0
 11
839.31150356800015
 21
-159.01096893650001
 31
0.0
  0
LINE
  5
33
  8
0
 62
     0
 10
850.81150356800015
 20
-170.01096893650001
 30
0.0
 11
839.31150356800015
 21
-170.01096893650001
 31
0.0
  0
LINE
  5
34
  8
0
 62
     0
 10
839.81150356800003
 20
-159.01096893650001
 30
0.0
 11
839.81150356800003
 21
-160.9831912647
 31
0.0
  0
LINE
  5
35
  8
0
 62
     0
 10
839.81150356800003
 20
-159.01096893650001
 30
0.0
 11
839.81150356800003
 21
-168.03874660829999
 31
0.0
  0
LINE
  5
36
  8
0
 62
     0
 10
839.81150356800003
 20
-170.01096893650001
 30
0.0
 11
839.81150356800003
 21
-160.9831912647
 31
0.0
  0
LINE
  5
37
  8
0
 62
     0
 10
839.81150356800003
 20
-170.01096893650001
 30
0.0
 11
839.81150356800003
 21
-168.03874660829999
 31
0.0
  0
LINE
  5
38
  8
0
 62
     0
 10
839.81150356800003
 20
-170.01096893650001
 30
0.0
 11
839.81150356800003
 21
-173.01096893650001
 31
0.0
  0
SOLID
  5
39
  8
0
 62
     0
 10
839.81150356800003
 20
-170.01096893650001
 30
0.0
 11
840.56150356800003
 21
-173.01096893650001
 31
0.0
 12
839.06150356799992
 22
-173.01096893650001
 32
0.0
 13
839.81150356800003
 23
-172.26096893650001
 33
0.0
  0
LINE
  5
3A
  8
0
 62
     0
 10
839.81150356800003
 20
-159.01096893650001
 30
0.0
 11
839.81150356800003
 21
-156.01096893650001
 31
0.0
  0
SOLID
  5
3B
  8
0
 62
     0
 10
839.81150356800003
 20
-159.01096893650001
 30
0.0
 11
839.06150356799992
 21
-156.01096893650001
 31
0.0
 12
840.56150356800003
 22
-156.01096893650001
 32
0.0
 13
839.81150356800003
 23
-156.76096893650001
 33
0.0
  0
ENDBLK
  5
3C
  8
0
  0
BLOCK
  8
0
  2
*D1
 70
     1
 10
0.0
 20
0.0
 30
0.0
  3
*D1
  1

  0
TEXT
  5
41
  8
0
 62
     0
 10
838.28233691729986
 20
-186.2748577724
 30
0.0
 40
2.9986110209999999
  1
29
 50
90.0
  0
LINE
  5
42
  8
0
 62
     0
 10
850.81150356800015
 20
-170.01096893650001
 30
0.0
 11
839.31150356800015
 21
-170.01096893650001
 31
0.0
  0
LINE
  5
43
  8
0
 62
     0
 10
850.81150356800015
 20
-199.01096893650001
 30
0.0
 11
839.31150356800015
 21
-199.01096893650001
 31
0.0
  0
LINE
  5
44
  8
0
 62
     0
 10
839.81150356800003
 20
-170.01096893650001
 30
0.0
 11
839.81150356800003
 21
-180.9831912647
 31
0.0
  0
LINE
  5
45
  8
0
 62
     0
 10
839.81150356800003
 20
-170.01096893650001
 30
0.0
 11
839.81150356800003
 21
-188.03874660829999
 31
0.0
  0
LINE
  5
46
  8
0
 62
     0
 10
839.81150356800003
 20
-199.01096893650001
 30
0.0
 11
839.81150356800003
 21
-180.9831912647
 31
0.0
  0
LINE
  5
47
  8
0
 62
     0
 10
839.81150356800003
 20
-199.01096893650001
 30
0.0
 11
839.81150356800003
 21
-188.03874660829999
 31
0.0
  0
LINE
  5
48
  8
0
 62
     0
 10
839.81150356800003
 20
-199.01096893650001
 30
0.0
 11
839.81150356800003
 21
-196.01096893650001
 31
0.0
  0
SOLID
  5
49
  8
0
 62
     0
 10
839.81150356800003
 20
-199.01096893650001
 30
0.0
 11
839.06150356799992
 21
-196.01096893650001
 31
0.0
 12
840.56150356800003
 22
-196.01096893650001
 32
0.0
 13
839.81150356800003
 23
-196.76096893650001
 33
0.0
  0
LINE
  5
4A
  8
0
 62
     0
 10
839.81150356800003
 20
-170.01096893650001
 30
0.0
 11
839.81150356800003
 21
-173.01096893650001
 31
0.0
  0
SOLID
  5
4B
  8
0
 62
     0
 10
839.81150356800003
 20
-170.01096893650001
 30
0.0
 11
840.56150356800003
 21
-173.01096893650001
 31
0.0
 12
839.06150356799992
 22
-173.01096893650001
 32
0.0
 13
839.81150356800003
 23
-172.26096893650001
 33
0.0
  0
ENDBLK
  5
4C
  8
0
  0
BLOCK
  8
0
  2
*D2
 70
     1
 10
0.0
 20
0.0
 30
0.0
  3
*D2
  1

  0
TEXT
  5
50
  8
0
 62
     0
 10
838.28233691729986
 20
-210.7748577724
 30
0.0
 40
2.9986110209999999
  1
20
 50
90.0
  0
LINE
  5
51
  8
0
 62
     0
 10
850.81150356800015
 20
-199.01096893650001
 30
0.0
 11
839.31150356800015
 21
-199.01096893650001
 31
0.0
  0
LINE
  5
52
  8
0
 62
     0
 10
848.81150356799992
 20
-219.01096893650001
 30
0.0
 11
839.31150356800015
 21
-219.01096893650001
 31
0.0
  0
LINE
  5
53
  8
0
 62
     0
 10
839.81150356800003
 20
-199.01096893650001
 30
0.0
 11
839.81150356800003
 21
-205.4831912647
 31
0.0
  0
LINE
  5
54
  8
0
 62
     0
 10
839.81150356800003
 20
-199.01096893650001
 30
0.0
 11
839.81150356800003
 21
-212.53874660829999
 31
0.0
  0
LINE
  5
55
  8
0
 62
     0
 10
839.81150356800003
 20
-219.01096893650001
 30
0.0
 11
839.81150356800003
 21
-205.4831912647
 31
0.0
  0
LINE
  5
56
  8
0
 62
     0
 10
839.81150356800003
 20
-219.01096893650001
 30
0.0
 11
839.81150356800003
 21
-212.53874660829999
 31
0.0
  0
LINE
  5
57
  8
0
 62
     0
 10
839.81150356800003
 20
-219.01096893650001
 30
0.0
 11
839.81150356800003
 21
-216.01096893650001
 31
0.0
  0
SOLID
  5
58
  8
0
 62
     0
 10
839.81150356800003
 20
-219.01096893650001
 30
0.0
 11
839.06150356799992
 21
-216.01096893650001
 31
0.0
 12
840.56150356800003
 22
-216.01096893650001
 32
0.0
 13
839.81150356800003
 23
-216.76096893650001
 33
0.0
  0
LINE
  5
59
  8
0
 62
     0
 10
839.81150356800003
 20
-199.01096893650001
 30
0.0
 11
839.81150356800003
 21
-202.01096893650001
 31
0.0
  0
SOLID
  5
5A
  8
0
 62
     0
 10
839.81150356800003
 20
-199.01096893650001
 30
0.0
 11
840.56150356800003
 21
-202.01096893650001
 31
0.0
 12
839.06150356799992
 22
-202.01096893650001
 32
0.0
 13
839.81150356800003
 23
-201.26096893650001
 33
0.0
  0
ENDBLK
  5
5B
  8
0
  0
BLOCK
  8
0
  2
*D3
 70
     1
 10
0.0
 20
0.0
 30
0.0
  3
*D3
  1

  0
TEXT
  5
60
  8
0
 62
     0
 10
764.87938335539991
 20
-190.96091590930001
 30
0.0
 40
2.9986110209999999
  1
90%%d
 50
315.51667955670001
  0
ARC
  5
61
  8
0
 62
     0
 10
743.9855776421
 20
-216.01096893650001
 30
0.0
 40
30.9248952262
 50
82.957045668000006
 51
90.0
  0
ARC
  5
62
  8
0
 62
     0
 10
743.9855776421
 20
-216.01096893650001
 30
0.0
 40
30.9248952262
 50
0.0
 51
7.0429543319999999
  0
SOLID
  5
63
  8
0
 62
     0
 10
774.91047286829996
 20
-216.01096893650001
 30
0.0
 11
775.66047286829985
 21
-219.01096893650001
 31
0.0
 12
774.16047286829985
 22
-219.01096893650001
 32
0.0
 13
774.91047286829996
 23
-218.26096893650001
 33
0.0
  0
SOLID
  5
64
  8
0
 62
     0
 10
743.9855776421
 20
-185.08607371030001
 30
0.0
 11
740.98557764210011
 21
-185.83607371030001
 31
0.0
 12
740.98557764210011
 22
-184.3360737102999
 32
0.0
 13
741.7355776421
 23
-185.08607371030001
 33
0.0
  0
ARC
  5
65
  8
0
 62
     0
 10
743.9855776421
 20
-216.01096893650001
 30
0.0
 40
30.9248952262
 50
0.0
 51
37.214456991500001
  0
ARC
  5
66
  8
0
 62
     0
 10
743.9855776421
 20
-216.01096893650001
 30
0.0
 40
30.9248952262
 50
53.818902121800001
 51
90.0
  0
LINE
  5
67
  8
0
 62
     0
 10
798.98557764210011
 20
-216.01096893650001
 30
0.0
 11
772.91047286829985
 21
-216.01096893650001
 31
0.0
  0
LINE
  5
68
  8
0
 62
     0
 10
743.9855776421
 20
-161.01096893650001
 30
0.0
 11
743.9855776421
 21
-187.08607371030001
 31
0.0
  0
ENDBLK
  5
69
  8
0
  0
BLOCK
  8
0
  2
*D4
 70
     1
 10
0.0
 20
0.0
 30
0.0
  3
*D4
  1

  0
TEXT
  5
90
  8
0
 62
     0
 10
843.65858337769998
 20
-150.45324304100001
 30
0.0
 40
2.9986110209999999
  1
8
  0
LINE
  5
91
  8
0
 62
     0
 10
857.81150356799992
 20
-163.01096893650001
 30
0.0
 11
857.81150356799992
 21
-151.48240969170001
 31
0.0
  0
LINE
  5
92
  8
0
 62
     0
 10
849.81150356799992
 20
-158.01096893650001
 30
0.0
 11
849.81150356799992
 21
-151.48240969170001
 31
0.0
  0
LINE
  5
93
  8
0
 62
     0
 10
857.81150356799992
 20
-151.98240969170001
 30
0.0
 11
847.18636104949985
 21
-151.98240969170001
 31
0.0
  0
LINE
  5
94
  8
0
 62
     0
 10
857.81150356799992
 20
-151.98240969170001
 30
0.0
 11
841.89469454179994
 21
-151.98240969170001
 31
0.0
  0
LINE
  5
95
  8
0
 62
     0
 10
849.81150356799992
 20
-151.98240969170001
 30
0.0
 11
847.18636104949985
 21
-151.98240969170001
 31
0.0
  0
LINE
  5
96
  8
0
 62
     0
 10
849.81150356799992
 20
-151.98240969170001
 30
0.0
 11
841.89469454179994
 21
-151.98240969170001
 31
0.0
  0
LINE
  5
97
  8
0
 62
     0
 10
849.81150356799992
 20
-151.98240969170001
 30
0.0
 11
852.81150356800003
 21
-151.98240969170001
 31
0.0
  0
SOLID
  5
98
  8
0
 62
     0
 10
849.81150356799992
 20
-151.98240969170001
 30
0.0
 11
852.81150356800003
 21
-151.23240969170001
 31
0.0
 12
852.81150356800003
 22
-152.73240969170001
 32
0.0
 13
852.06150356800003
 23
-151.98240969170001
 33
0.0
  0
LINE
  5
99
  8
0
 62
     0
 10
857.81150356799992
 20
-151.98240969170001
 30
0.0
 11
854.81150356800003
 21
-151.98240969170001
 31
0.0
  0
SOLID
  5
9A
  8
0
 62
     0
 10
857.81150356799992
 20
-151.98240969170001
 30
0.0
 11
854.81150356800003
 21
-152.73240969170001
 31
0.0
 12
854.81150356800003
 22
-151.23240969170001
 32
0.0
 13
855.56150356800003
 23
-151.98240969170001
 33
0.0
  0
ENDBLK
  5
9B
  8
0
  0
BLOCK
  8
0
  2
*D5
 70
     1
 10
0.0
 20
0.0
 30
0.0
  3
*D5
  1

  0
TEXT
  5
9F
  8
0
 62
     0
 10
747.86807298259998
 20
-146.52588337099999
 30
0.0
 40
2.9986110209999999
  1
3t
  0
LINE
  5
A0
  8
0
 62
     0
 10
743.9855776421
 20
-158.01096893650001
 30
0.0
 11
743.9855776421
 21
-147.55505002180001
 31
0.0
  0
LINE
  5
A1
  8
0
 62
     0
 10
740.98557764210011
 20
-158.01096893650001
 30
0.0
 11
740.98557764210011
 21
-147.55505002180001
 31
0.0
  0
LINE
  5
A2
  8
0
 62
     0
 10
743.9855776421
 20
-148.05505002180001
 30
0.0
 11
753.15973949030001
 21
-148.05505002180001
 31
0.0
  0
LINE
  5
A3
  8
0
 62
     0
 10
743.9855776421
 20
-148.05505002180001
 30
0.0
 11
746.10418414669994
 21
-148.05505002180001
 31
0.0
  0
LINE
  5
A4
  8
0
 62
     0
 10
740.98557764210011
 20
-148.05505002180001
 30
0.0
 11
753.15973949030001
 21
-148.05505002180001
 31
0.0
  0
LINE
  5
A5
  8
0
 62
     0
 10
740.98557764210011
 20
-148.05505002180001
 30
0.0
 11
746.10418414669994
 21
-148.05505002180001
 31
0.0
  0
LINE
  5
A6
  8
0
 62
     0
 10
740.98557764210011
 20
-148.05505002180001
 30
0.0
 11
737.98557764210011
 21
-148.05505002180001
 31
0.0
  0
SOLID
  5
A7
  8
0
 62
     0
 10
740.98557764210011
 20
-148.05505002180001
 30
0.0
 11
737.98557764210011
 21
-148.80505002180001
 31
0.0
 12
737.98557764210011
 22
-147.30505002180001
 32
0.0
 13
738.73557764210011
 23
-148.05505002180001
 33
0.0
  0
LINE
  5
A8
  8
0
 62
     0
 10
743.9855776421
 20
-148.05505002180001
 30
0.0
 11
746.98557764210011
 21
-148.05505002180001
 31
0.0
  0
SOLID
  5
A9
  8
0
 62
     0
 10
743.9855776421
 20
-148.05505002180001
 30
0.0
 11
746.98557764210011
 21
-147.30505002180001
 31
0.0
 12
746.98557764210011
 22
-148.80505002180001
 32
0.0
 13
746.2355776421
 23
-148.05505002180001
 33
0.0
  0
ENDBLK
  5
AA
  8
0
  0
BLOCK
  8
0
  2
*D6
 70
     1
 10
0.0
 20
0.0
 30
0.0
  3
*D6
  1

  0
TEXT
  5
AE
  8
0
 62
     0
 10
869.19963206679995
 20
-150.45324304100001
 30
0.0
 40
2.9986110209999999
  1
8
  0
LINE
  5
AF
  8
0
 62
     0
 10
865.81150356799992
 20
-158.01096893650001
 30
0.0
 11
865.81150356799992
 21
-151.48240969170001
 31
0.0
  0
LINE
  5
B0
  8
0
 62
     0
 10
857.81150356799992
 20
-163.01096893650001
 30
0.0
 11
857.81150356799992
 21
-151.48240969170001
 31
0.0
  0
LINE
  5
B1
  8
0
 62
     0
 10
865.81150356799992
 20
-151.98240969170001
 30
0.0
 11
872.72740973860004
 21
-151.98240969170001
 31
0.0
  0
LINE
  5
B2
  8
0
 62
     0
 10
865.81150356799992
 20
-151.98240969170001
 30
0.0
 11
867.4357432308999
 21
-151.98240969170001
 31
0.0
  0
LINE
  5
B3
  8
0
 62
     0
 10
857.81150356799992
 20
-151.98240969170001
 30
0.0
 11
872.72740973860004
 21
-151.98240969170001
 31
0.0
  0
LINE
  5
B4
  8
0
 62
     0
 10
857.81150356799992
 20
-151.98240969170001
 30
0.0
 11
867.4357432308999
 21
-151.98240969170001
 31
0.0
  0
LINE
  5
B5
  8
0
 62
     0
 10
857.81150356799992
 20
-151.98240969170001
 30
0.0
 11
860.81150356800003
 21
-151.98240969170001
 31
0.0
  0
SOLID
  5
B6
  8
0
 62
     0
 10
857.81150356799992
 20
-151.98240969170001
 30
0.0
 11
860.81150356800003
 21
-151.23240969170001
 31
0.0
 12
860.81150356800003
 22
-152.73240969170001
 32
0.0
 13
860.06150356800003
 23
-151.98240969170001
 33
0.0
  0
LINE
  5
B7
  8
0
 62
     0
 10
865.81150356799992
 20
-151.98240969170001
 30
0.0
 11
862.81150356800003
 21
-151.98240969170001
 31
0.0
  0
SOLID
  5
B8
  8
0
 62
     0
 10
865.81150356799992
 20
-151.98240969170001
 30
0.0
 11
862.81150356800003
 21
-152.73240969170001
 31
0.0
 12
862.81150356800003
 22
-151.23240969170001
 32
0.0
 13
863.56150356800003
 23
-151.98240969170001
 33
0.0
  0
ENDBLK
  5
B9
  8
0
  0
BLOCK
  8
0
  2
*D7
 70
     1
 10
0.0
 20
0.0
 30
0.0
  3
*D7
  1

  0
TEXT
  5
BD
  8
0
 62
     0
 10
856.0476147321001
 20
-142.87330071919999
 30
0.0
 40
2.9986110209999999
  1
16
  0
LINE
  5
BE
  8
0
 62
     0
 10
865.81150356799992
 20
-158.01096893650001
 30
0.0
 11
865.81150356799992
 21
-143.90246737000001
 31
0.0
  0
LINE
  5
BF
  8
0
 62
     0
 10
849.81150356799992
 20
-158.01096893650001
 30
0.0
 11
849.81150356799992
 21
-143.90246737000001
 31
0.0
  0
LINE
  5
C0
  8
0
 62
     0
 10
865.81150356799992
 20
-144.40246737000001
 30
0.0
 11
861.33928123989995
 21
-144.40246737000001
 31
0.0
  0
LINE
  5
C1
  8
0
 62
     0
 10
865.81150356799992
 20
-144.40246737000001
 30
0.0
 11
854.28372589619983
 21
-144.40246737000001
 31
0.0
  0
LINE
  5
C2
  8
0
 62
     0
 10
849.81150356799992
 20
-144.40246737000001
 30
0.0
 11
861.33928123989995
 21
-144.40246737000001
 31
0.0
  0
LINE
  5
C3
  8
0
 62
     0
 10
849.81150356799992
 20
-144.40246737000001
 30
0.0
 11
854.28372589619983
 21
-144.40246737000001
 31
0.0
  0
LINE
  5
C4
  8
0
 62
     0
 10
849.81150356799992
 20
-144.40246737000001
 30
0.0
 11
852.81150356800003
 21
-144.40246737000001
 31
0.0
  0
SOLID
  5
C5
  8
0
 62
     0
 10
849.81150356799992
 20
-144.40246737000001
 30
0.0
 11
852.81150356800003
 21
-143.65246737000001
 31
0.0
 12
852.81150356800003
 22
-145.15246737000001
 32
0.0
 13
852.06150356800003
 23
-144.40246737000001
 33
0.0
  0
LINE
  5
C6
  8
0
 62
     0
 10
865.81150356799992
 20
-144.40246737000001
 30
0.0
 11
862.81150356800003
 21
-144.40246737000001
 31
0.0
  0
SOLID
  5
C7
  8
0
 62
     0
 10
865.81150356799992
 20
-144.40246737000001
 30
0.0
 11
862.81150356800003
 21
-145.15246737000001
 31
0.0
 12
862.81150356800003
 22
-143.65246737000001
 32
0.0
 13
863.56150356800003
 23
-144.40246737000001
 33
0.0
  0
ENDBLK
  5
C8
  8
0
  0
BLOCK
  8
0
  2
*D8
 70
     1
 10
0.0
 20
0.0
 30
0.0
  3
*D8
  1

  0
TEXT
  5
CC
  8
0
 62
     0
 10
729.07474143119998
 20
-190.7748577724
 30
0.0
 40
2.9986110209999999
  1
60
 50
90.0
  0
LINE
  5
CD
  8
0
 62
     0
 10
739.9855776421
 20
-159.01096893650001
 30
0.0
 11
730.10390808190004
 21
-159.01096893650001
 31
0.0
  0
LINE
  5
CE
  8
0
 62
     0
 10
739.9855776421
 20
-219.01096893650001
 30
0.0
 11
730.10390808190004
 21
-219.01096893650001
 31
0.0
  0
LINE
  5
CF
  8
0
 62
     0
 10
730.60390808190004
 20
-159.01096893650001
 30
0.0
 11
730.60390808190004
 21
-185.4831912647
 31
0.0
  0
LINE
  5
D0
  8
0
 62
     0
 10
730.60390808190004
 20
-159.01096893650001
 30
0.0
 11
730.60390808190004
 21
-192.53874660829999
 31
0.0
  0
LINE
  5
D1
  8
0
 62
     0
 10
730.60390808190004
 20
-219.01096893650001
 30
0.0
 11
730.60390808190004
 21
-185.4831912647
 31
0.0
  0
LINE
  5
D2
  8
0
 62
     0
 10
730.60390808190004
 20
-219.01096893650001
 30
0.0
 11
730.60390808190004
 21
-192.53874660829999
 31
0.0
  0
LINE
  5
D3
  8
0
 62
     0
 10
730.60390808190004
 20
-219.01096893650001
 30
0.0
 11
730.60390808190004
 21
-216.01096893650001
 31
0.0
  0
SOLID
  5
D4
  8
0
 62
     0
 10
730.60390808190004
 20
-219.01096893650001
 30
0.0
 11
729.85390808190004
 21
-216.01096893650001
 31
0.0
 12
731.35390808190004
 22
-216.01096893650001
 32
0.0
 13
730.60390808190004
 23
-216.76096893650001
 33
0.0
  0
LINE
  5
D5
  8
0
 62
     0
 10
730.60390808190004
 20
-159.01096893650001
 30
0.0
 11
730.60390808190004
 21
-162.01096893650001
 31
0.0
  0
SOLID
  5
D6
  8
0
 62
     0
 10
730.60390808190004
 20
-159.01096893650001
 30
0.0
 11
731.35390808190004
 21
-162.01096893650001
 31
0.0
 12
729.85390808190004
 22
-162.01096893650001
 32
0.0
 13
730.60390808190004
 23
-161.26096893650001
 33
0.0
  0
ENDBLK
  5
D7
  8
0
  0
BLOCK
  8
0
  2
*D9
 70
     1
 10
0.0
 20
0.0
 30
0.0
  3
*D9
  1

  0
TEXT
  5
DB
  8
0
 62
     0
 10
769.22168880619995
 20
-227.4818022858
 30
0.0
 40
2.9986110209999999
  1
60
  0
LINE
  5
DC
  8
0
 62
     0
 10
740.98557764210011
 20
-217.01096893650001
 30
0.0
 11
740.98557764210011
 21
-229.51096893650001
 31
0.0
  0
LINE
  5
DD
  8
0
 62
     0
 10
800.98557764210022
 20
-220.01096893650001
 30
0.0
 11
800.98557764210022
 21
-229.51096893650001
 31
0.0
  0
LINE
  5
DE
  8
0
 62
     0
 10
740.98557764210011
 20
-229.01096893650001
 30
0.0
 11
774.51335531389986
 21
-229.01096893650001
 31
0.0
  0
LINE
  5
DF
  8
0
 62
     0
 10
740.98557764210011
 20
-229.01096893650001
 30
0.0
 11
767.45779997030002
 21
-229.01096893650001
 31
0.0
  0
LINE
  5
E0
  8
0
 62
     0
 10
800.98557764210022
 20
-229.01096893650001
 30
0.0
 11
774.51335531389986
 21
-229.01096893650001
 31
0.0
  0
LINE
  5
E1
  8
0
 62
     0
 10
800.98557764210022
 20
-229.01096893650001
 30
0.0
 11
767.45779997030002
 21
-229.01096893650001
 31
0.0
  0
LINE
  5
E2
  8
0
 62
     0
 10
800.98557764210022
 20
-229.01096893650001
 30
0.0
 11
797.9855776421
 21
-229.01096893650001
 31
0.0
  0
SOLID
  5
E3
  8
0
 62
     0
 10
800.98557764210022
 20
-229.01096893650001
 30
0.0
 11
797.9855776421
 21
-229.76096893650001
 31
0.0
 12
797.9855776421
 22
-228.26096893650001
 32
0.0
 13
798.73557764210011
 23
-229.01096893650001
 33
0.0
  0
LINE
  5
E4
  8
0
 62
     0
 10
740.98557764210011
 20
-229.01096893650001
 30
0.0
 11
743.9855776421
 21
-229.01096893650001
 31
0.0
  0
SOLID
  5
E5
  8
0
 62
     0
 10
740.98557764210011
 20
-229.01096893650001
 30
0.0
 11
743.9855776421
 21
-228.26096893650001
 31
0.0
 12
743.9855776421
 22
-229.76096893650001
 32
0.0
 13
743.23557764210011
 23
-229.01096893650001
 33
0.0
  0
ENDBLK
  5
E6
  8
0
  0
BLOCK
  8
0
  2
*D10
 70
     1
 10
0.0
 20
0.0
 30
0.0
  3
*D10
  1

  0
TEXT
  5
EE
  8
0
 62
     0
 10
918.67166159960016
 20
-165.634741741
 30
0.0
 40
2.9986110209999999
  1
90%%d
 50
360.0
  0
ARC
  5
EF
  8
0
 62
     0
 10
921.31749485349997
 20
-210.3941103802
 30
0.0
 40
43.171868686899998
 50
130.1369976529999
 51
135.0
  0
ARC
  5
F0
  8
0
 62
     0
 10
921.31749485349997
 20
-210.3941103802
 30
0.0
 40
43.171868686899998
 50
45.0
 51
49.863002346999991
  0
SOLID
  5
F1
  8
0
 62
     0
 10
951.84461595840003
 20
-179.86698927520001
 30
0.0
 11
954.49626638789994
 21
-181.4579795329
 31
0.0
 12
953.43560621610004
 22
-182.51863970470001
 32
0.0
 13
953.43560621610004
 23
-181.4579795329
 33
0.0
  0
SOLID
  5
F2
  8
0
 62
     0
 10
890.79037374849997
 20
-179.86698927520001
 30
0.0
 11
889.19938349080007
 21
-182.51863970470001
 31
0.0
 12
888.13872331899995
 22
-181.4579795329
 32
0.0
 13
889.19938349080007
 23
-181.4579795329
 33
0.0
  0
ARC
  5
F3
  8
0
 62
     0
 10
921.31749485349997
 20
-210.3941103802
 30
0.0
 40
43.171868686899998
 50
45.0
 51
84.071626409200007
  0
ARC
  5
F4
  8
0
 62
     0
 10
921.31749485349997
 20
-210.3941103802
 30
0.0
 40
43.171868686899998
 50
95.928373590799978
 51
135.0
  0
LINE
  5
F5
  8
0
 62
     0
 10
942.73170841579997
 20
-188.97989681780001
 30
0.0
 11
953.25882952079985
 21
-178.45277571290001
 31
0.0
  0
LINE
  5
F6
  8
0
 62
     0
 10
899.90328129110003
 20
-188.97989681780001
 30
0.0
 11
889.37616018609992
 21
-178.45277571290001
 31
0.0
  0
ENDBLK
  5
F7
  8
0
  0
BLOCK
  8
0
  2
*D11
 70
     1
 10
0.0
 20
0.0
 30
0.0
  3
*D11
  1

  0
TEXT
  5
FB
  8
0
 62
     0
 10
793.72168880619995
 20
-246.38724711489999
 30
0.0
 40
2.9986110209999999
  1
11
  0
LINE
  5
FC
  8
0
 62
     0
 10
800.98557764210022
 20
-256.9164137656
 30
0.0
 11
800.98557764210022
 21
-247.4164137656
 31
0.0
  0
LINE
  5
FD
  8
0
 62
     0
 10
789.9855776421
 20
-258.9164137656
 30
0.0
 11
789.9855776421
 21
-247.4164137656
 31
0.0
  0
LINE
  5
FE
  8
0
 62
     0
 10
800.98557764210022
 20
-247.9164137656
 30
0.0
 11
799.01335531389986
 21
-247.9164137656
 31
0.0
  0
LINE
  5
FF
  8
0
 62
     0
 10
800.98557764210022
 20
-247.9164137656
 30
0.0
 11
791.95779997030002
 21
-247.9164137656
 31
0.0
  0
LINE
  5
100
  8
0
 62
     0
 10
789.9855776421
 20
-247.9164137656
 30
0.0
 11
799.01335531389986
 21
-247.9164137656
 31
0.0
  0
LINE
  5
101
  8
0
 62
     0
 10
789.9855776421
 20
-247.9164137656
 30
0.0
 11
791.95779997030002
 21
-247.9164137656
 31
0.0
  0
LINE
  5
102
  8
0
 62
     0
 10
789.9855776421
 20
-247.9164137656
 30
0.0
 11
786.98557764210011
 21
-247.9164137656
 31
0.0
  0
SOLID
  5
103
  8
0
 62
     0
 10
789.9855776421
 20
-247.9164137656
 30
0.0
 11
786.98557764210011
 21
-248.6664137656
 31
0.0
 12
786.98557764210011
 22
-247.1664137656
 32
0.0
 13
787.7355776421
 23
-247.9164137656
 33
0.0
  0
LINE
  5
104
  8
0
 62
     0
 10
800.98557764210022
 20
-247.9164137656
 30
0.0
 11
803.98557764210011
 21
-247.9164137656
 31
0.0
  0
SOLID
  5
105
  8
0
 62
     0
 10
800.98557764210022
 20
-247.9164137656
 30
0.0
 11
803.98557764210011
 21
-247.1664137656
 31
0.0
 12
803.98557764210011
 22
-248.6664137656
 32
0.0
 13
803.23557764210011
 23
-247.9164137656
 33
0.0
  0
ENDBLK
  5
106
  8
0
  0
BLOCK
  8
0
  2
*D12
 70
     1
 10
0.0
 20
0.0
 30
0.0
  3
*D12
  1

  0
TEXT
  5
10A
  8
0
 62
     0
 10
749.22168880619995
 20
-246.38724711489999
 30
0.0
 40
2.9986110209999999
  1
20
  0
LINE
  5
10B
  8
0
 62
     0
 10
760.9855776421
 20
-258.9164137656
 30
0.0
 11
760.9855776421
 21
-247.4164137656
 31
0.0
  0
LINE
  5
10C
  8
0
 62
     0
 10
740.98557764210011
 20
-256.9164137656
 30
0.0
 11
740.98557764210011
 21
-247.4164137656
 31
0.0
  0
LINE
  5
10D
  8
0
 62
     0
 10
760.9855776421
 20
-247.9164137656
 30
0.0
 11
754.51335531389998
 21
-247.9164137656
 31
0.0
  0
LINE
  5
10E
  8
0
 62
     0
 10
760.9855776421
 20
-247.9164137656
 30
0.0
 11
747.45779997030002
 21
-247.9164137656
 31
0.0
  0
LINE
  5
10F
  8
0
 62
     0
 10
740.98557764210011
 20
-247.9164137656
 30
0.0
 11
754.51335531389998
 21
-247.9164137656
 31
0.0
  0
LINE
  5
110
  8
0
 62
     0
 10
740.98557764210011
 20
-247.9164137656
 30
0.0
 11
747.45779997030002
 21
-247.9164137656
 31
0.0
  0
LINE
  5
111
  8
0
 62
     0
 10
740.98557764210011
 20
-247.9164137656
 30
0.0
 11
743.9855776421
 21
-247.9164137656
 31
0.0
  0
SOLID
  5
112
  8
0
 62
     0
 10
740.98557764210011
 20
-247.9164137656
 30
0.0
 11
743.9855776421
 21
-247.1664137656
 31
0.0
 12
743.9855776421
 22
-248.6664137656
 32
0.0
 13
743.23557764210011
 23
-247.9164137656
 33
0.0
  0
LINE
  5
113
  8
0
 62
     0
 10
760.9855776421
 20
-247.9164137656
 30
0.0
 11
757.98557764210011
 21
-247.9164137656
 31
0.0
  0
SOLID
  5
114
  8
0
 62
     0
 10
760.9855776421
 20
-247.9164137656
 30
0.0
 11
757.98557764210011
 21
-248.6664137656
 31
0.0
 12
757.98557764210011
 22
-247.1664137656
 32
0.0
 13
758.7355776421
 23
-247.9164137656
 33
0.0
  0
ENDBLK
  5
115
  8
0
  0
BLOCK
  8
0
  2
*D13
 70
     1
 10
0.0
 20
0.0
 30
0.0
  3
*D13
  1

  0
TEXT
  5
119
  8
0
 62
     0
 10
773.72168880619995
 20
-246.38724711489999
 30
0.0
 40
2.9986110209999999
  1
29
  0
LINE
  5
11A
  8
0
 62
     0
 10
789.9855776421
 20
-258.9164137656
 30
0.0
 11
789.9855776421
 21
-247.4164137656
 31
0.0
  0
LINE
  5
11B
  8
0
 62
     0
 10
760.9855776421
 20
-258.9164137656
 30
0.0
 11
760.9855776421
 21
-247.4164137656
 31
0.0
  0
LINE
  5
11C
  8
0
 62
     0
 10
789.9855776421
 20
-247.9164137656
 30
0.0
 11
779.01335531389998
 21
-247.9164137656
 31
0.0
  0
LINE
  5
11D
  8
0
 62
     0
 10
789.9855776421
 20
-247.9164137656
 30
0.0
 11
771.95779997030002
 21
-247.9164137656
 31
0.0
  0
LINE
  5
11E
  8
0
 62
     0
 10
760.9855776421
 20
-247.9164137656
 30
0.0
 11
779.01335531389998
 21
-247.9164137656
 31
0.0
  0
LINE
  5
11F
  8
0
 62
     0
 10
760.9855776421
 20
-247.9164137656
 30
0.0
 11
771.95779997030002
 21
-247.9164137656
 31
0.0
  0
LINE
  5
120
  8
0
 62
     0
 10
760.9855776421
 20
-247.9164137656
 30
0.0
 11
763.98557764210011
 21
-247.9164137656
 31
0.0
  0
SOLID
  5
121
  8
0
 62
     0
 10
760.9855776421
 20
-247.9164137656
 30
0.0
 11
763.98557764210011
 21
-247.1664137656
 31
0.0
 12
763.98557764210011
 22
-248.6664137656
 32
0.0
 13
763.2355776421
 23
-247.9164137656
 33
0.0
  0
LINE
  5
122
  8
0
 62
     0
 10
789.9855776421
 20
-247.9164137656
 30
0.0
 11
786.98557764210011
 21
-247.9164137656
 31
0.0
  0
SOLID
  5
123
  8
0
 62
     0
 10
789.9855776421
 20
-247.9164137656
 30
0.0
 11
786.98557764210011
 21
-248.6664137656
 31
0.0
 12
786.98557764210011
 22
-247.1664137656
 32
0.0
 13
787.7355776421
 23
-247.9164137656
 33
0.0
  0
ENDBLK
  5
124
  8
0
  0
BLOCK
  8
0
  2
*D14
 70
     1
 10
0.0
 20
0.0
 30
0.0
  3
*D14
  1

  0
TEXT
  5
128
  8
0
 62
     0
 10
918.67166159960016
 20
-178.86494372940001
 30
0.0
 40
2.9986110209999999
  1
%%c8
  0
LINE
  5
129
  8
0
 62
     0
 10
941.31749485350008
 20
-189.3941103802
 30
0.0
 11
941.31749485350008
 21
-179.8941103802
 31
0.0
  0
LINE
  5
12A
  8
0
 62
     0
 10
901.31749485350008
 20
-189.3941103802
 30
0.0
 11
901.31749485350008
 21
-179.8941103802
 31
0.0
  0
LINE
  5
12B
  8
0
 62
     0
 10
941.31749485350008
 20
-180.3941103802
 30
0.0
 11
925.72721694320012
 21
-180.3941103802
 31
0.0
  0
LINE
  5
12C
  8
0
 62
     0
 10
941.31749485350008
 20
-180.3941103802
 30
0.0
 11
916.90777276370011
 21
-180.3941103802
 31
0.0
  0
LINE
  5
12D
  8
0
 62
     0
 10
901.31749485350008
 20
-180.3941103802
 30
0.0
 11
925.72721694320012
 21
-180.3941103802
 31
0.0
  0
LINE
  5
12E
  8
0
 62
     0
 10
901.31749485350008
 20
-180.3941103802
 30
0.0
 11
916.90777276370011
 21
-180.3941103802
 31
0.0
  0
LINE
  5
12F
  8
0
 62
     0
 10
901.31749485350008
 20
-180.3941103802
 30
0.0
 11
904.31749485349997
 21
-180.3941103802
 31
0.0
  0
SOLID
  5
130
  8
0
 62
     0
 10
901.31749485350008
 20
-180.3941103802
 30
0.0
 11
904.31749485349997
 21
-179.6441103802
 31
0.0
 12
904.31749485349997
 22
-181.1441103802
 32
0.0
 13
903.56749485350008
 23
-180.3941103802
 33
0.0
  0
LINE
  5
131
  8
0
 62
     0
 10
941.31749485350008
 20
-180.3941103802
 30
0.0
 11
938.31749485349997
 21
-180.3941103802
 31
0.0
  0
SOLID
  5
132
  8
0
 62
     0
 10
941.31749485350008
 20
-180.3941103802
 30
0.0
 11
938.31749485349997
 21
-181.1441103802
 31
0.0
 12
938.31749485349997
 22
-179.6441103802
 32
0.0
 13
939.06749485349997
 23
-180.3941103802
 33
0.0
  0
ENDBLK
  5
133
  8
0
  0
BLOCK
  8
0
  2
*D15
 70
     1
 10
0.0
 20
0.0
 30
0.0
  3
*D15
  1

  0
TEXT
  5
137
  8
0
 62
     0
 10
918.67166159960016
 20
-213.86494372940001
 30
0.0
 40
2.9986110209999999
  1
%%c4
  0
LINE
  5
138
  8
0
 62
     0
 10
911.31749485349997
 20
-206.3941103802
 30
0.0
 11
911.31749485349997
 21
-215.8941103802
 31
0.0
  0
LINE
  5
139
  8
0
 62
     0
 10
931.31749485350008
 20
-206.3941103802
 30
0.0
 11
931.31749485350008
 21
-215.8941103802
 31
0.0
  0
LINE
  5
13A
  8
0
 62
     0
 10
911.31749485349997
 20
-215.3941103802
 30
0.0
 11
925.72721694320012
 21
-215.3941103802
 31
0.0
  0
LINE
  5
13B
  8
0
 62
     0
 10
911.31749485349997
 20
-215.3941103802
 30
0.0
 11
916.90777276370011
 21
-215.3941103802
 31
0.0
  0
LINE
  5
13C
  8
0
 62
     0
 10
931.31749485350008
 20
-215.3941103802
 30
0.0
 11
925.72721694320012
 21
-215.3941103802
 31
0.0
  0
LINE
  5
13D
  8
0
 62
     0
 10
931.31749485350008
 20
-215.3941103802
 30
0.0
 11
916.90777276370011
 21
-215.3941103802
 31
0.0
  0
LINE
  5
13E
  8
0
 62
     0
 10
931.31749485350008
 20
-215.3941103802
 30
0.0
 11
928.31749485349997
 21
-215.3941103802
 31
0.0
  0
SOLID
  5
13F
  8
0
 62
     0
 10
931.31749485350008
 20
-215.3941103802
 30
0.0
 11
928.31749485349997
 21
-216.1441103802
 31
0.0
 12
928.31749485349997
 22
-214.6441103802
 32
0.0
 13
929.06749485349997
 23
-215.3941103802
 33
0.0
  0
LINE
  5
140
  8
0
 62
     0
 10
911.31749485349997
 20
-215.3941103802
 30
0.0
 11
914.31749485350008
 21
-215.3941103802
 31
0.0
  0
SOLID
  5
141
  8
0
 62
     0
 10
911.31749485349997
 20
-215.3941103802
 30
0.0
 11
914.31749485350008
 21
-214.6441103802
 31
0.0
 12
914.31749485350008
 22
-216.1441103802
 32
0.0
 13
913.56749485350008
 23
-215.3941103802
 33
0.0
  0
ENDBLK
  5
142
  8
0
  0
BLOCK
  8
0
  2
*D16
 70
     1
 10
0.0
 20
0.0
 30
0.0
  3
*D16
  1

  0
TEXT
  5
146
  8
0
 62
     0
 10
729.45641099140005
 20
-267.68030260149999
 30
0.0
 40
2.9986110209999999
  1
16
 50
90.0
  0
LINE
  5
147
  8
0
 62
     0
 10
739.9855776421
 20
-257.9164137656
 30
0.0
 11
730.48557764210011
 21
-257.9164137656
 31
0.0
  0
LINE
  5
148
  8
0
 62
     0
 10
739.9855776421
 20
-273.9164137656
 30
0.0
 11
730.48557764210011
 21
-273.9164137656
 31
0.0
  0
LINE
  5
149
  8
0
 62
     0
 10
730.98557764210011
 20
-257.9164137656
 30
0.0
 11
730.98557764210011
 21
-262.38863609380002
 31
0.0
  0
LINE
  5
14A
  8
0
 62
     0
 10
730.98557764210011
 20
-257.9164137656
 30
0.0
 11
730.98557764210011
 21
-269.44419143739998
 31
0.0
  0
LINE
  5
14B
  8
0
 62
     0
 10
730.98557764210011
 20
-273.9164137656
 30
0.0
 11
730.98557764210011
 21
-262.38863609380002
 31
0.0
  0
LINE
  5
14C
  8
0
 62
     0
 10
730.98557764210011
 20
-273.9164137656
 30
0.0
 11
730.98557764210011
 21
-269.44419143739998
 31
0.0
  0
LINE
  5
14D
  8
0
 62
     0
 10
730.98557764210011
 20
-273.9164137656
 30
0.0
 11
730.98557764210011
 21
-270.9164137656
 31
0.0
  0
SOLID
  5
14E
  8
0
 62
     0
 10
730.98557764210011
 20
-273.9164137656
 30
0.0
 11
730.23557764210011
 21
-270.9164137656
 31
0.0
 12
731.73557764210011
 22
-270.9164137656
 32
0.0
 13
730.98557764210011
 23
-271.6664137656
 33
0.0
  0
LINE
  5
14F
  8
0
 62
     0
 10
730.98557764210011
 20
-257.9164137656
 30
0.0
 11
730.98557764210011
 21
-260.9164137656
 31
0.0
  0
SOLID
  5
150
  8
0
 62
     0
 10
730.98557764210011
 20
-257.9164137656
 30
0.0
 11
731.73557764210011
 21
-260.9164137656
 31
0.0
 12
730.23557764210011
 22
-260.9164137656
 32
0.0
 13
730.98557764210011
 23
-260.1664137656
 33
0.0
  0
ENDBLK
  5
151
  8
0
  0
BLOCK
  8
0
  2
*D17
 70
     1
 10
0.0
 20
0.0
 30
0.0
  3
*D17
  1

  0
TEXT
  5
155
  8
0
 62
     0
 10
811.63344190160001
 20
-253.75535934979999
 30
0.0
 40
2.9986110209999999
  1
8
 50
90.0
  0
LINE
  5
156
  8
0
 62
     0
 10
797.9855776421
 20
-265.9164137656
 30
0.0
 11
813.6626085524
 21
-265.9164137656
 31
0.0
  0
LINE
  5
157
  8
0
 62
     0
 10
801.98557764210011
 20
-257.9164137656
 30
0.0
 11
813.6626085524
 21
-257.9164137656
 31
0.0
  0
LINE
  5
158
  8
0
 62
     0
 10
813.16260855240012
 20
-265.9164137656
 30
0.0
 11
813.16260855240012
 21
-250.22758167800001
 31
0.0
  0
LINE
  5
159
  8
0
 62
     0
 10
813.16260855240012
 20
-265.9164137656
 30
0.0
 11
813.16260855240012
 21
-255.51924818570001
 31
0.0
  0
LINE
  5
15A
  8
0
 62
     0
 10
813.16260855240012
 20
-257.9164137656
 30
0.0
 11
813.16260855240012
 21
-250.22758167800001
 31
0.0
  0
LINE
  5
15B
  8
0
 62
     0
 10
813.16260855240012
 20
-257.9164137656
 30
0.0
 11
813.16260855240012
 21
-255.51924818570001
 31
0.0
  0
LINE
  5
15C
  8
0
 62
     0
 10
813.16260855240012
 20
-257.9164137656
 30
0.0
 11
813.16260855240012
 21
-260.9164137656
 31
0.0
  0
SOLID
  5
15D
  8
0
 62
     0
 10
813.16260855240012
 20
-257.9164137656
 30
0.0
 11
813.91260855239989
 21
-260.9164137656
 31
0.0
 12
812.4126085524
 22
-260.9164137656
 32
0.0
 13
813.16260855240012
 23
-260.1664137656
 33
0.0
  0
LINE
  5
15E
  8
0
 62
     0
 10
813.16260855240012
 20
-265.9164137656
 30
0.0
 11
813.16260855240012
 21
-262.9164137656
 31
0.0
  0
SOLID
  5
15F
  8
0
 62
     0
 10
813.16260855240012
 20
-265.9164137656
 30
0.0
 11
812.4126085524
 21
-262.9164137656
 31
0.0
 12
813.91260855239989
 22
-262.9164137656
 32
0.0
 13
813.16260855240012
 23
-263.6664137656
 33
0.0
  0
ENDBLK
  5
160
  8
0
  0
BLOCK
  8
0
  2
*D18
 70
     1
 10
0.0
 20
0.0
 30
0.0
  3
*D18
  1

  0
TEXT
  5
164
  8
0
 62
     0
 10
811.63344190160001
 20
-279.9143790169
 30
0.0
 40
2.9986110209999999
  1
8
 50
90.0
  0
LINE
  5
165
  8
0
 62
     0
 10
801.98557764210011
 20
-273.9164137656
 30
0.0
 11
813.6626085524
 21
-273.9164137656
 31
0.0
  0
LINE
  5
166
  8
0
 62
     0
 10
797.9855776421
 20
-265.9164137656
 30
0.0
 11
813.6626085524
 21
-265.9164137656
 31
0.0
  0
LINE
  5
167
  8
0
 62
     0
 10
813.16260855240012
 20
-273.9164137656
 30
0.0
 11
813.16260855240012
 21
-276.38660134510002
 31
0.0
  0
LINE
  5
168
  8
0
 62
     0
 10
813.16260855240012
 20
-273.9164137656
 30
0.0
 11
813.16260855240012
 21
-281.67826785279999
 31
0.0
  0
LINE
  5
169
  8
0
 62
     0
 10
813.16260855240012
 20
-265.9164137656
 30
0.0
 11
813.16260855240012
 21
-276.38660134510002
 31
0.0
  0
LINE
  5
16A
  8
0
 62
     0
 10
813.16260855240012
 20
-265.9164137656
 30
0.0
 11
813.16260855240012
 21
-281.67826785279999
 31
0.0
  0
LINE
  5
16B
  8
0
 62
     0
 10
813.16260855240012
 20
-265.9164137656
 30
0.0
 11
813.16260855240012
 21
-268.9164137656
 31
0.0
  0
SOLID
  5
16C
  8
0
 62
     0
 10
813.16260855240012
 20
-265.9164137656
 30
0.0
 11
813.91260855239989
 21
-268.9164137656
 31
0.0
 12
812.4126085524
 22
-268.9164137656
 32
0.0
 13
813.16260855240012
 23
-268.1664137656
 33
0.0
  0
LINE
  5
16D
  8
0
 62
     0
 10
813.16260855240012
 20
-273.9164137656
 30
0.0
 11
813.16260855240012
 21
-270.9164137656
 31
0.0
  0
SOLID
  5
16E
  8
0
 62
     0
 10
813.16260855240012
 20
-273.9164137656
 30
0.0
 11
812.4126085524
 21
-270.9164137656
 31
0.0
 12
813.91260855239989
 22
-270.9164137656
 32
0.0
 13
813.16260855240012
 23
-271.6664137656
 33
0.0
  0
ENDBLK
  5
16F
  8
0
  0
BLOCK
  8
0
  2
*D19
 70
     1
 10
0.0
 20
0.0
 30
0.0
  3
*D19
  1

  0
LINE
  5
214
  8
Éíû@É³
 62
     0
 10
800.92307764210022
 20
-216.01096893650001
 30
0.0
 11
773.66047286831918
 21
-216.01096893650009
 31
0.0
  0
LINE
  5
215
  8
Éíû@É³
 62
     0
 10
743.98557764210022
 20
-159.07346893650001
 30
0.0
 11
743.9855776421
 21
-186.336073710281
 31
0.0
  0
ARC
  5
216
  8
Éíû@É³
 62
     0
 10
743.98557764210022
 20
-216.01096893650009
 30
0.0
 40
30.924895226219039
 50
5.5604007240748583
 51
36.891328795819177
  0
ARC
  5
217
  8
Éíû@É³
 62
     0
 10
743.98557764210022
 20
-216.01096893650009
 30
0.0
 40
30.924895226219039
 50
54.142030317250978
 51
84.439599275925204
  0
SOLID
  5
218
  8
Éíû@É³
 62
     0
 10
775.26437051592791
 20
-212.9902477552229
 30
0.0
 11
774.26554755726454
 21
-213.03875236579719
 31
0.0
 12
774.91047286831918
 22
-216.01096893650009
 32
0.0
 13
774.91047286831918
 23
-216.01096893650009
 33
0.0
  0
SOLID
  5
219
  8
Éíû@É³
 62
     0
 10
746.95779421280315
 20
-185.7309990213358
 30
0.0
 11
747.00629882337739
 21
-184.73217606267241
 31
0.0
 12
743.98557764210022
 22
-185.08607371028111
 32
0.0
 13
743.98557764210022
 23
-185.08607371028111
 33
0.0
  0
TEXT
  8
Éíû@É³
  40
2.99861
  5
27B
  62
0
  72
0
  71
0
 10
759.657
 20
-199.255
 30
0.000000
  1
90üï
  0
POINT
  5
21B
  8
Defpoints
 62
     0
 10
743.98557764210022
 20
-216.01096893650009
 30
0.0
  0
POINT
  5
21C
  8
Defpoints
 62
     0
 10
800.98557764210022
 20
-216.01096893650009
 30
0.0
  0
POINT
  5
21D
  8
Defpoints
 62
     0
 10
743.98557764210022
 20
-159.01096893650001
 30
0.0
  0
POINT
  5
21E
  8
Defpoints
 62
     0
 10
770.76732251737803
 20
-200.5485213233905
 30
0.0
  0
ENDBLK
  5
220
  8
0
  0
BLOCK
  8
0
  2
*D20
 70
     1
 10
0.0
 20
0.0
 30
0.0
  3
*D20
  1

  0
LINE
  5
222
  8
Éíû@É³
 62
     0
 10
941.89201911312398
 20
-189.81958612047569
 30
0.0
 11
952.72849943490883
 21
-178.98310579863801
 31
0.0
  0
LINE
  5
223
  8
Éíû@É³
 62
     0
 10
900.74297059377579
 20
-189.8195861204758
 30
0.0
 11
889.90649027201459
 21
-178.98310579871469
 31
0.0
  0
ARC
  5
224
  8
Éíû@É³
 62
     0
 10
921.31749485349997
 20
-210.3941103802
 30
0.0
 40
43.171868686900012
 50
48.982267769150582
 51
83.832893309880447
  0
ARC
  5
225
  8
Éíû@É³
 62
     0
 10
921.31749485349997
 20
-210.3941103802
 30
0.0
 40
43.171868686900012
 50
96.167106690119553
 51
131.01773223098931
  0
SOLID
  5
226
  8
Éíû@É³
 62
     0
 10
949.99192724490604
 20
-177.4550306248166
 30
0.0
 11
949.30981572121323
 21
-178.1862787832726
 31
0.0
 12
951.84461595842765
 22
-179.86698927512339
 32
0.0
 13
951.84461595842765
 23
-179.86698927512339
 33
0.0
  0
SOLID
  5
227
  8
Éíû@É³
 62
     0
 10
893.32517398570815
 20
-178.1862787833409
 30
0.0
 11
892.64306246201352
 21
-177.4550306248866
 31
0.0
 12
890.79037374849781
 22
-179.86698927519791
 32
0.0
 13
890.79037374849781
 23
-179.86698927519791
 33
0.0
  0
TEXT
  8
Éíû@É³
  40
2.99861
  5
27C
  62
0
  72
0
  71
0
 10
915.320
 20
-172.530
 30
0.000000
  1
90üï
  0
POINT
  5
229
  8
Defpoints
 62
     0
 10
921.31749485349997
 20
-210.3941103802
 30
0.0
  0
POINT
  5
22A
  8
Defpoints
 62
     0
 10
941.84782493929993
 20
-189.8637802943
 30
0.0
  0
POINT
  5
22B
  8
Defpoints
 62
     0
 10
900.78716476759985
 20
-189.8637802943
 30
0.0
  0
POINT
  5
22C
  8
Defpoints
 62
     0
 10
932.49119668226695
 20
-168.69328744634481
 30
0.0
  0
ENDBLK
  5
22E
  8
0
  0
BLOCK
  8
0
  2
*U21
 70
     1
 10
0.0
 20
0.0
 30
0.0
  3
*U21
  1

  0
TEXT
  5
230
  8
┌▓È_1
  6
CONTINUOUS
 10
907.88867279088072
 20
-226.37035817171119
 30
0.0
 40
2.9986110209999999
  1
ÄMâéâ~òöègæÕÉ}
  0
ENDBLK
  5
232
  8
0
  0
BLOCK
  8
0
  2
*U22
 70
     1
 10
0.0
 20
0.0
 30
0.0
  3
*U22
  1

  0
TEXT
  5
234
  8
┌▓È_1
  6
CONTINUOUS
 62
     5
 10
858.532417262629
 20
-296.95137425630003
 30
0.0
 40
2.337499999999999
  1
H16.4
  0
ENDBLK
  5
236
  8
0
  0
BLOCK
  8
0
  2
*U23
 70
     1
 10
0.0
 20
0.0
 30
0.0
  3
*U23
  1

  0
TEXT
  5
238
  8
┌▓È_1
  6
CONTINUOUS
 10
919.23766925439998
 20
-309.755534017201
 30
0.0
 40
2.337499999999999
  1
É}öÈ
  0
ENDBLK
  5
23A
  8
0
  0
BLOCK
  8
0
  2
*U24
 70
     1
 10
0.0
 20
0.0
 30
0.0
  3
*U24
  1

  0
TEXT
  5
23C
  8
┌▓È_1
  6
CONTINUOUS
 10
919.23766925439998
 20
-301.27926498166801
 30
0.0
 40
2.337499999999999
  1
òiû╝
  0
ENDBLK
  5
23E
  8
0
  0
BLOCK
  8
0
  2
*U25
 70
     1
 10
0.0
 20
0.0
 30
0.0
  3
*U25
  1

  0
TEXT
  5
240
  8
┌▓È_1
  6
CONTINUOUS
 10
919.23766925439998
 20
-292.755534017201
 30
0.0
 40
2.337499999999999
  1
î^öÈ
  0
ENDBLK
  5
242
  8
0
  0
BLOCK
  8
0
  2
*U26
 70
     1
 10
0.0
 20
0.0
 30
0.0
  3
*U26
  1

  0
TEXT
  5
244
  8
┌▓È_1
  6
CONTINUOUS
 10
854.81255561199998
 20
-292.74883618523398
 30
0.0
 40
2.337499999999999
  1
ü@ô· ü@òt
  0
ENDBLK
  5
246
  8
0
  0
BLOCK
  8
0
  2
*U27
 70
     1
 10
0.0
 20
0.0
 30
0.0
  3
*U27
  1

  0
TEXT
  5
248
  8
┌▓È_1
  6
CONTINUOUS
 10
854.34716980070004
 20
-305.59376004310201
 30
0.0
 40
2.337499999999999
  1
 É╗É}ü@ü@ è¦û{
  0
ENDBLK
  5
24A
  8
0
  0
BLOCK
  8
0
  2
*U28
 70
     1
 10
0.0
 20
0.0
 30
0.0
  3
*U28
  1

  0
TEXT
  5
24C
  8
┌▓È_1
  6
CONTINUOUS
 10
854.34716980070004
 20
-301.33189456086848
 30
0.0
 40
2.337499999999999
  1
 É¦îvü@ü@öÆÉ{ëÛ
  0
ENDBLK
  5
24E
  8
0
  0
BLOCK
  8
0
  2
*U29
 70
     1
 10
0.0
 20
0.0
 30
0.0
  3
*U29
  1

  0
TEXT
  5
250
  8
┌▓È_1
  6
CONTINUOUS
 10
932.70878133988379
 20
-295.50722778509999
 30
0.0
 40
3.5983331442000002
  1
LY-203  60x60
  0
ENDBLK
  5
252
  8
0
  0
BLOCK
  8
0
  2
*U30
 70
     1
 10
0.0
 20
0.0
 30
0.0
  3
*U30
  1

  0
TEXT
  5
254
  8
┌▓È_1
  6
CONTINUOUS
 10
902.81255561199998
 20
-292.83189456086848
 30
0.0
 40
2.337499999999999
  1
ü@îƒ ü@ê¾
  0
ENDBLK
  5
256
  8
0
  0
BLOCK
  8
0
  2
*U31
 70
     1
 10
0.0
 20
0.0
 30
0.0
  3
*U31
  1

  0
TEXT
  5
258
  8
┌▓È_1
  6
CONTINUOUS
 10
886.81255561199998
 20
-301.320029078635
 30
0.0
 40
2.337499999999999
  1
ü@Ä┌ ü@ôx
  0
ENDBLK
  5
25A
  8
0
  0
BLOCK
  8
0
  2
*U32
 70
     1
 10
0.0
 20
0.0
 30
0.0
  3
*U32
  1

  0
TEXT
  5
25C
  8
┌▓È_1
  6
CONTINUOUS
 10
886.81255561199998
 20
-292.83189456086848
 30
0.0
 40
2.337499999999999
  1
ü@ö┬ ü@î·
  0
ENDBLK
  5
25E
  8
0
  0
BLOCK
  8
0
  2
*U33
 70
     1
 10
0.0
 20
0.0
 30
0.0
  3
*U33
  1

  0
TEXT
  5
260
  8
┌▓È_1
  6
CONTINUOUS
 10
870.81255561199998
 20
-292.78443263193452
 30
0.0
 40
2.337499999999999
  1
ü@ìÌ ü@Ä┐
  0
ENDBLK
  5
262
  8
0
  0
BLOCK
  8
0
  2
*U34
 70
     1
 10
0.0
 20
0.0
 30
0.0
  3
*U34
  1

  0
TEXT
  5
264
  8
┌▓È_1
  6
CONTINUOUS
 62
     5
 10
891.45792487684218
 20
-305.45137425630003
 30
0.0
 40
2.337499999999999
  1
1üF1
  0
ENDBLK
  5
266
  8
0
  0
BLOCK
  8
0
  2
*U35
 70
     1
 10
0.0
 20
0.0
 30
0.0
  3
*U35
  1

  0
TEXT
  5
268
  8
┌▓È_1
  6
CONTINUOUS
 62
     5
 10
891.3333373133903
 20
-296.95137425630003
 30
0.0
 40
2.337499999999999
  1
3.0t
  0
ENDBLK
  5
26A
  8
0
  0
BLOCK
  8
0
  2
*U36
 70
     1
 10
0.0
 20
0.0
 30
0.0
  3
*U36
  1

  0
TEXT
  5
26C
  8
┌▓È_1
  6
CONTINUOUS
 62
     5
 10
876.94704289714684
 20
-297.09376004310201
 30
0.0
 40
2.337499999999999
  1
ôS
  0
ENDBLK
  5
26E
  8
0
  0
BLOCK
  8
0
  2
*U37
 70
     1
 10
0.0
 20
0.0
 30
0.0
  3
*U37
  1

  0
TEXT
  5
270
  8
┌▓È_1
  6
CONTINUOUS
 10
861.56772352550013
 20
-312.91078071286648
 30
0.0
 40
4.3179999351999987
  1
èöÄ«ë´Äð
  0
ENDBLK
  5
272
  8
0
  0
BLOCK
  8
0
  2
*U38
 70
     1
 10
0.0
 20
0.0
 30
0.0
  3
*U38
  1

  0
TEXT
  5
274
  8
┌▓È_1
  6
CONTINUOUS
 10
933.75231806859995
 20
-304.46733325956347
 30
0.0
 40
3.5983331442000002
  1
ékî^âAâôâOâï
  0
ENDBLK
  5
276
  8
0
  0
BLOCK
  8
0
  2
*U39
 70
     1
 10
0.0
 20
0.0
 30
0.0
  3
*U39
  1

  0
TEXT
  5
278
  8
┌▓È_1
  6
CONTINUOUS
 10
854.34716980070004
 20
-288.23714654612888
 30
0.0
 40
3.5983331442000002
  1
ò\û╩ÅêùØüFâåâjâNâìâüâbâLÄdÅÒé░
  0
ENDBLK
  5
27A
  8
0
  0
ENDSEC
  0
SECTION
  2
ENTITIES
  0
DIMENSION
  5
3E
  8
Éíû@É³
  2
*D0
 10
839.81150356800003
 20
-159.01096893650001
 30
0.0
 11
839.81150356800003
 21
-164.51096893650001
 31
0.0
 70
   128
  1
<>
 13
849.81150356799992
 23
-159.01096893650001
 33
0.0
 14
851.81150356800015
 24
-170.01096893650001
 34
0.0
 50
90.0
  0
DIMENSION
  5
4D
  8
Éíû@É³
  2
*D1
 10
839.81150356800003
 20
-170.01096893650001
 30
0.0
 11
839.81150356800003
 21
-184.51096893650001
 31
0.0
 70
   128
  1
<>
 13
851.81150356800015
 23
-170.01096893650001
 33
0.0
 14
851.81150356800015
 24
-199.01096893650001
 34
0.0
 50
90.0
  0
DIMENSION
  5
5C
  8
Éíû@É³
  2
*D2
 10
839.81150356800003
 20
-199.01096893650001
 30
0.0
 11
839.81150356800003
 21
-209.01096893650001
 31
0.0
 70
   128
  1
<>
 13
851.81150356800015
 23
-199.01096893650001
 33
0.0
 14
849.81150356799992
 24
-219.01096893650001
 34
0.0
 50
90.0
  0
DIMENSION
  5
6A
  8
Éíû@É³
  2
*D19
 10
770.76732251737803
 20
-200.5485213233905
 30
0.0
 11
765.6547011450001
 21
-193.94746442409999
 31
0.0
 70
   133
  1
<>
 13
743.9855776421
 23
-159.01096893650001
 33
0.0
 14
800.98557764210022
 24
-216.01096893650001
 34
0.0
 15
743.9855776421
 25
-216.01096893650001
 35
0.0
1001
ACAD
1000
DSTYLE
1002
{
1070
   271
1070
     0
1002
}
  0
LINE
  5
6C
  8
┌▓È_1
  6
STITCH
 10
756.9855776421
 20
-216.01096893650001
 30
0.0
 11
758.98557764210011
 21
-218.01096893650001
 31
0.0
  0
LINE
  5
6D
  8
┌▓È_1
  6
STITCH
 10
762.98557764210011
 20
-218.01096893650001
 30
0.0
 11
758.98557764210011
 21
-218.01096893650001
 31
0.0
  0
LINE
  5
6E
  8
┌▓È_1
  6
STITCH
 10
762.98557764210011
 20
-218.01096893650001
 30
0.0
 11
762.98557764210011
 21
-219.01096893650001
 31
0.0
  0
LINE
  5
6F
  8
┌▓È_1
  6
STITCH
 10
758.98557764210011
 20
-218.01096893650001
 30
0.0
 11
758.98557764210011
 21
-219.01096893650001
 31
0.0
  0
LINE
  5
70
  8
┌▓È_1
  6
BORDER
 62
     3
 10
760.9855776421
 20
-221.67814781749999
 30
0.0
 11
760.9855776421
 21
-213.75190668280001
 31
0.0
  0
LINE
  5
71
  8
┌▓È_1
  6
STITCH
 10
764.9855776421
 20
-216.01096893650001
 30
0.0
 11
762.98557764210011
 21
-218.01096893650001
 31
0.0
  0
LINE
  5
72
  8
┌▓È_1
  6
STITCH
 10
741.98557764210011
 20
-201.01096893650001
 30
0.0
 11
740.98557764210011
 21
-201.01096893650001
 31
0.0
  0
LINE
  5
73
  8
┌▓È_1
  6
BORDER
 62
     3
 10
738.31839876109996
 20
-199.01096893650001
 30
0.0
 11
746.24463989589992
 21
-199.01096893650001
 31
0.0
  0
LINE
  5
74
  8
┌▓È_1
  6
STITCH
 10
743.9855776421
 20
-195.01096893650001
 30
0.0
 11
741.98557764210011
 21
-197.01096893650001
 31
0.0
  0
LINE
  5
75
  8
┌▓È_1
  6
STITCH
 10
743.9855776421
 20
-203.01096893650001
 30
0.0
 11
741.98557764210011
 21
-201.01096893650001
 31
0.0
  0
LINE
  5
76
  8
┌▓È_1
  6
STITCH
 10
741.98557764210011
 20
-197.01096893650001
 30
0.0
 11
741.98557764210011
 21
-201.01096893650001
 31
0.0
  0
LINE
  5
77
  8
┌▓È_1
  6
STITCH
 10
741.98557764210011
 20
-197.01096893650001
 30
0.0
 11
740.98557764210011
 21
-197.01096893650001
 31
0.0
  0
ARC
  5
78
  8
┌▓È_1
 62
     5
 10
743.9855776421
 20
-216.01096893650001
 30
0.0
 40
3.0
 50
180.0
 51
270.0
  0
LINE
  5
79
  8
┌▓È_1
 62
     5
 10
743.9855776421
 20
-219.01096893650001
 30
0.0
 11
800.98557764210022
 21
-219.01096893650001
 31
0.0
  0
LINE
  5
7A
  8
┌▓È_1
 62
     5
 10
743.9855776421
 20
-216.01096893650001
 30
0.0
 11
800.98557764210022
 21
-216.01096893650001
 31
0.0
  0
LINE
  5
7B
  8
┌▓È_1
  6
STITCH
 10
741.98557764210011
 20
-172.01096893650001
 30
0.0
 11
740.98557764210011
 21
-172.01096893650001
 31
0.0
  0
LINE
  5
7C
  8
┌▓È_1
  6
STITCH
 10
741.98557764210011
 20
-168.01096893650001
 30
0.0
 11
740.98557764210011
 21
-168.01096893650001
 31
0.0
  0
LINE
  5
7D
  8
┌▓È_1
  6
STITCH
 10
741.98557764210011
 20
-168.01096893650001
 30
0.0
 11
741.98557764210011
 21
-172.01096893650001
 31
0.0
  0
LINE
  5
7E
  8
┌▓È_1
  6
STITCH
 10
743.9855776421
 20
-174.01096893650001
 30
0.0
 11
741.98557764210011
 21
-172.01096893650001
 31
0.0
  0
LINE
  5
7F
  8
┌▓È_1
  6
STITCH
 10
785.9855776421
 20
-216.01096893650001
 30
0.0
 11
787.98557764210011
 21
-218.01096893650001
 31
0.0
  0
LINE
  5
80
  8
┌▓È_1
  6
STITCH
 10
791.98557764210011
 20
-218.01096893650001
 30
0.0
 11
787.98557764210011
 21
-218.01096893650001
 31
0.0
  0
LINE
  5
81
  8
┌▓È_1
  6
STITCH
 10
791.98557764210011
 20
-218.01096893650001
 30
0.0
 11
791.98557764210011
 21
-219.01096893650001
 31
0.0
  0
LINE
  5
82
  8
┌▓È_1
  6
STITCH
 10
787.98557764210011
 20
-218.01096893650001
 30
0.0
 11
787.98557764210011
 21
-219.01096893650001
 31
0.0
  0
LINE
  5
83
  8
┌▓È_1
  6
BORDER
 62
     3
 10
789.9855776421
 20
-221.67814781749999
 30
0.0
 11
789.9855776421
 21
-213.75190668280001
 31
0.0
  0
LINE
  5
84
  8
┌▓È_1
  6
STITCH
 10
793.9855776421
 20
-216.01096893650001
 30
0.0
 11
791.98557764210011
 21
-218.01096893650001
 31
0.0
  0
LINE
  5
85
  8
┌▓È_1
  6
BORDER
 62
     3
 10
851.81150356800015
 20
-199.01096893650001
 30
0.0
 11
863.81150356800003
 21
-199.01096893650001
 31
0.0
  0
CIRCLE
  5
86
  8
┌▓È_1
 62
     5
 10
857.81150356799992
 20
-199.01096893650001
 30
0.0
 40
2.0
  0
CIRCLE
  5
87
  8
┌▓È_1
 62
     5
 10
857.81150356799992
 20
-199.01096893650001
 30
0.0
 40
4.0
  0
LINE
  5
88
  8
┌▓È_1
  6
BORDER
 62
     3
 10
857.81150356799992
 20
-193.01096893650001
 30
0.0
 11
857.81150356799992
 21
-207.57808930690001
 31
0.0
  0
LINE
  5
89
  8
┌▓È_1
 62
     5
 10
849.81150356799992
 20
-216.01096893650001
 30
0.0
 11
865.81150356799992
 21
-216.01096893650001
 31
0.0
  0
LINE
  5
8A
  8
┌▓È_1
 62
     5
 10
849.81150356799992
 20
-219.01096893650001
 30
0.0
 11
865.81150356799992
 21
-219.01096893650001
 31
0.0
  0
LINE
  5
8B
  8
┌▓È_1
 62
     5
 10
849.81150356799992
 20
-159.01096893650001
 30
0.0
 11
849.81150356799992
 21
-219.01096893650001
 31
0.0
  0
LINE
  5
8C
  8
┌▓È_1
 62
     5
 10
865.81150356799992
 20
-219.01096893650001
 30
0.0
 11
865.81150356799992
 21
-159.01096893650001
 31
0.0
  0
LINE
  5
8D
  8
┌▓È_1
 62
     5
 10
865.81150356799992
 20
-159.01096893650001
 30
0.0
 11
849.81150356799992
 21
-159.01096893650001
 31
0.0
  0
DIMENSION
  5
9C
  8
Éíû@É³
  2
*D4
 10
857.81150356799992
 20
-151.98240969170001
 30
0.0
 11
844.54052779569997
 21
-151.98240969170001
 31
0.0
 70
   128
  1
<>
 13
857.81150356799992
 23
-164.01096893650001
 33
0.0
 14
849.81150356799992
 24
-159.01096893650001
 34
0.0
  0
DIMENSION
  5
AB
  8
Éíû@É³
  2
*D5
 10
743.9855776421
 20
-148.05505002180001
 30
0.0
 11
749.63196181850003
 21
-148.05505002180001
 31
0.0
 70
   128
  1
<>t
 13
743.9855776421
 23
-159.01096893650001
 33
0.0
 14
740.98557764210011
 24
-159.01096893650001
 34
0.0
  0
DIMENSION
  5
BA
  8
Éíû@É³
  2
*D6
 10
865.81150356799992
 20
-151.98240969170001
 30
0.0
 11
870.08157648470001
 21
-151.98240969170001
 31
0.0
 70
   128
  1
<>
 13
865.81150356799992
 23
-159.01096893650001
 33
0.0
 14
857.81150356799992
 24
-164.01096893650001
 34
0.0
  0
DIMENSION
  5
C9
  8
Éíû@É³
  2
*D7
 10
865.81150356799992
 20
-144.40246737000001
 30
0.0
 11
857.81150356799992
 21
-144.40246737000001
 31
0.0
 70
   128
  1
<>
 13
865.81150356799992
 23
-159.01096893650001
 33
0.0
 14
849.81150356799992
 24
-159.01096893650001
 34
0.0
  0
DIMENSION
  5
D8
  8
Éíû@É³
  2
*D8
 10
730.60390808190004
 20
-159.01096893650001
 30
0.0
 11
730.60390808190004
 21
-189.01096893650001
 31
0.0
 70
   128
  1
<>
 13
740.98557764210011
 23
-159.01096893650001
 33
0.0
 14
740.98557764210011
 24
-219.01096893650001
 34
0.0
 50
90.0
  0
DIMENSION
  5
E7
  8
Éíû@É³
  2
*D9
 10
740.98557764210011
 20
-229.01096893650001
 30
0.0
 11
770.98557764210011
 21
-229.01096893650001
 31
0.0
 70
   128
  1
<>
 13
740.98557764210011
 23
-216.01096893650001
 33
0.0
 14
800.98557764210022
 24
-219.01096893650001
 34
0.0
 50
180.0
  0
LINE
  5
E8
  8
┌▓È_1
  6
STITCH
 10
743.9855776421
 20
-257.9164137656
 30
0.0
 11
743.9855776421
 21
-273.9164137656
 31
0.0
  0
LINE
  5
E9
  8
┌▓È_1
 62
     5
 10
740.98557764210011
 20
-257.9164137656
 30
0.0
 11
740.98557764210011
 21
-273.9164137656
 31
0.0
  0
LINE
  5
EA
  8
┌▓È_1
 62
     5
 10
800.98557764210022
 20
-257.9164137656
 30
0.0
 11
740.98557764210011
 21
-257.9164137656
 31
0.0
  0
LINE
  5
EB
  8
┌▓È_1
  6
BORDER
 62
     3
 10
754.98557764210011
 20
-265.9164137656
 30
0.0
 11
766.98557764210011
 21
-265.9164137656
 31
0.0
  0
DIMENSION
  5
F8
  8
Éíû@É³
  2
*D20
 10
932.49119668226695
 20
-168.69328744634481
 30
0.0
 11
921.31749485349997
 21
-167.22224169329999
 31
0.0
 70
   133
  1
<>
 13
900.78716476759985
 23
-189.8637802943
 33
0.0
 14
941.84782493929993
 24
-189.8637802943
 34
0.0
 15
921.31749485349997
 25
-210.3941103802
 35
0.0
1001
ACAD
1000
DSTYLE
1002
{
1070
   271
1070
     0
1002
}
  0
DIMENSION
  5
107
  8
Éíû@É³
  2
*D11
 10
800.98557764210022
 20
-247.9164137656
 30
0.0
 11
795.48557764210011
 21
-247.9164137656
 31
0.0
 70
   128
  1
<>
 13
800.98557764210022
 23
-257.9164137656
 33
0.0
 14
789.9855776421
 24
-259.9164137656
 34
0.0
  0
DIMENSION
  5
116
  8
Éíû@É³
  2
*D12
 10
760.9855776421
 20
-247.9164137656
 30
0.0
 11
750.98557764210011
 21
-247.9164137656
 31
0.0
 70
   128
  1
<>
 13
760.9855776421
 23
-259.9164137656
 33
0.0
 14
740.98557764210011
 24
-257.9164137656
 34
0.0
  0
DIMENSION
  5
125
  8
Éíû@É³
  2
*D13
 10
789.9855776421
 20
-247.9164137656
 30
0.0
 11
775.48557764210011
 21
-247.9164137656
 31
0.0
 70
   128
  1
<>
 13
789.9855776421
 23
-259.9164137656
 33
0.0
 14
760.9855776421
 24
-259.9164137656
 34
0.0
  0
DIMENSION
  5
134
  8
Éíû@É³
  2
*D14
 10
941.31749485350008
 20
-180.3941103802
 30
0.0
 11
921.31749485349997
 21
-180.3941103802
 31
0.0
 70
   128
  1
%%c8
 13
941.31749485350008
 23
-190.3941103802
 33
0.0
 14
901.31749485350008
 24
-190.3941103802
 34
0.0
  0
DIMENSION
  5
143
  8
Éíû@É³
  2
*D15
 10
911.31749485349997
 20
-215.3941103802
 30
0.0
 11
921.31749485349997
 21
-215.3941103802
 31
0.0
 70
   128
  1
%%c4
 13
911.31749485349997
 23
-205.3941103802
 33
0.0
 14
931.31749485350008
 24
-205.3941103802
 34
0.0
 50
180.0
  0
DIMENSION
  5
152
  8
Éíû@É³
  2
*D16
 10
730.98557764210011
 20
-257.9164137656
 30
0.0
 11
730.98557764210011
 21
-265.9164137656
 31
0.0
 70
   128
  1
<>
 13
740.98557764210011
 23
-257.9164137656
 33
0.0
 14
740.98557764210011
 24
-273.9164137656
 34
0.0
 50
90.0
  0
DIMENSION
  5
161
  8
Éíû@É³
  2
*D17
 10
813.16260855240012
 20
-265.9164137656
 30
0.0
 11
813.16260855240012
 21
-252.87341493189999
 31
0.0
 70
   128
  1
<>
 13
796.98557764210011
 23
-265.9164137656
 33
0.0
 14
800.98557764210022
 24
-257.9164137656
 34
0.0
 50
90.0
  0
DIMENSION
  5
170
  8
Éíû@É³
  2
*D18
 10
813.16260855240012
 20
-273.9164137656
 30
0.0
 11
813.16260855240012
 21
-279.032434599
 31
0.0
 70
   128
  1
<>
 13
800.98557764210022
 23
-273.9164137656
 33
0.0
 14
796.98557764210011
 24
-265.9164137656
 34
0.0
 50
90.0
  0
LINE
  5
171
  8
┌▓È_1
 10
908.40040226089991
 20
-227.2691103802
 30
0.0
 11
933.80026033379988
 21
-227.2691103802
 31
0.0
  0
INSERT
  5
172
  8
0
  6
CONTINUOUS
  2
*U21
 10
0.0
 20
0.0
 30
0.0
  0
CIRCLE
  5
173
  8
┌▓È_1
 62
     5
 10
857.81150356799992
 20
-170.01096893650001
 30
0.0
 40
4.0
  0
LINE
  5
174
  8
┌▓È_1
  6
BORDER
 62
     3
 10
857.81150356799992
 20
-164.01096893650001
 30
0.0
 11
857.81150356799992
 21
-176.01096893650001
 31
0.0
  0
CIRCLE
  5
175
  8
┌▓È_1
 62
     5
 10
857.81150356799992
 20
-170.01096893650001
 30
0.0
 40
2.0
  0
LINE
  5
176
  8
┌▓È_1
  6
BORDER
 62
     3
 10
851.81150356800015
 20
-170.01096893650001
 30
0.0
 11
863.81150356800003
 21
-170.01096893650001
 31
0.0
  0
LINE
  5
177
  8
┌▓È_1
 62
     5
 10
800.98557764210022
 20
-219.01096893650001
 30
0.0
 11
800.98557764210022
 21
-216.01096893650001
 31
0.0
  0
LINE
  5
178
  8
┌▓È_1
 62
     5
 10
740.98557764210011
 20
-216.01096893650001
 30
0.0
 11
740.98557764210011
 21
-159.01096893650001
 31
0.0
  0
LINE
  5
179
  8
┌▓È_1
 62
     5
 10
743.9855776421
 20
-216.01096893650001
 30
0.0
 11
743.9855776421
 21
-159.01096893650001
 31
0.0
  0
LINE
  5
17A
  8
┌▓È_1
 62
     5
 10
743.9855776421
 20
-159.01096893650001
 30
0.0
 11
740.98557764210011
 21
-159.01096893650001
 31
0.0
  0
LINE
  5
17B
  8
┌▓È_1
  6
STITCH
 10
743.9855776421
 20
-166.01096893650001
 30
0.0
 11
741.98557764210011
 21
-168.01096893650001
 31
0.0
  0
LINE
  5
17C
  8
┌▓È_1
  6
BORDER
 62
     3
 10
738.31839876109996
 20
-170.01096893650001
 30
0.0
 11
746.24463989589992
 21
-170.01096893650001
 31
0.0
  0
INSERT
  5
17D
  8
0
  6
CONTINUOUS
  2
*U22
 10
0.0
 20
0.0
 30
0.0
  0
INSERT
  5
17E
  8
0
  6
CONTINUOUS
  2
*U23
 10
0.0
 20
0.0
 30
0.0
  0
INSERT
  5
17F
  8
0
  6
CONTINUOUS
  2
*U24
 10
0.0
 20
0.0
 30
0.0
  0
INSERT
  5
180
  8
0
  6
CONTINUOUS
  2
*U25
 10
0.0
 20
0.0
 30
0.0
  0
INSERT
  5
181
  8
0
  6
CONTINUOUS
  2
*U26
 10
0.0
 20
0.0
 30
0.0
  0
INSERT
  5
182
  8
0
  6
CONTINUOUS
  2
*U27
 10
0.0
 20
0.0
 30
0.0
  0
INSERT
  5
183
  8
0
  6
CONTINUOUS
  2
*U28
 10
0.0
 20
0.0
 30
0.0
  0
LINE
  5
184
  8
┌▓È_1
 10
888.34716980069993
 20
-302.40834084900001
 30
0.0
 11
900.34716980070004
 21
-302.40834084900001
 31
0.0
  0
LINE
  5
185
  8
┌▓È_1
 10
888.34716980069993
 20
-293.90834084900001
 30
0.0
 11
900.34716980070004
 21
-293.90834084900001
 31
0.0
  0
LINE
  5
186
  8
┌▓È_1
 10
856.34716980070004
 20
-302.40834084900001
 30
0.0
 11
884.34716980070004
 21
-302.40834084900001
 31
0.0
  0
LINE
  5
187
  8
┌▓È_1
 10
872.34716980070004
 20
-293.90834084900001
 30
0.0
 11
884.34716980070004
 21
-293.90834084900001
 31
0.0
  0
LINE
  5
188
  8
┌▓È_1
 62
     5
 10
974.34716980070004
 20
-315.15834084900001
 30
0.0
 11
974.34716980070004
 21
-125.158340849
 31
0.0
  0
LINE
  5
189
  8
┌▓È_1
 62
     5
 10
699.34716980070004
 20
-315.15834084900001
 30
0.0
 11
699.34716980070004
 21
-125.158340849
 31
0.0
  0
LINE
  5
18A
  8
┌▓È_1
 62
     5
 10
699.34716980070004
 20
-315.15834084900001
 30
0.0
 11
974.34716980070004
 21
-315.15834084900001
 31
0.0
  0
LINE
  5
18B
  8
┌▓È_1
 62
     5
 10
699.34716980070004
 20
-125.158340849
 30
0.0
 11
974.34716980070004
 21
-125.158340849
 31
0.0
  0
INSERT
  5
18C
  8
0
  6
CONTINUOUS
  2
*U29
 10
0.0
 20
0.0
 30
0.0
  0
CIRCLE
  5
18D
  8
┌▓È_1
 62
     5
 10
760.9855776421
 20
-265.9164137656
 30
0.0
 40
2.0
  0
LINE
  5
18E
  8
┌▓È_1
  6
BORDER
 62
     3
 10
783.98557764210011
 20
-265.9164137656
 30
0.0
 11
796.98557764210011
 21
-265.9164137656
 31
0.0
  0
CIRCLE
  5
18F
  8
┌▓È_1
 62
     5
 10
789.9855776421
 20
-265.9164137656
 30
0.0
 40
2.0
  0
LINE
  5
190
  8
┌▓È_1
 62
     5
 10
740.98557764210011
 20
-273.9164137656
 30
0.0
 11
800.98557764210022
 21
-273.9164137656
 31
0.0
  0
CIRCLE
  5
191
  8
┌▓È_1
  6
STITCH
 10
760.9855776421
 20
-265.9164137656
 30
0.0
 40
4.0
  0
LINE
  5
192
  8
┌▓È_1
  6
BORDER
 62
     3
 10
760.9855776421
 20
-259.9164137656
 30
0.0
 11
760.9855776421
 21
-271.9164137656
 31
0.0
  0
LINE
  5
193
  8
┌▓È_1
  6
BORDER
 62
     3
 10
789.9855776421
 20
-259.9164137656
 30
0.0
 11
789.9855776421
 21
-271.9164137656
 31
0.0
  0
CIRCLE
  5
194
  8
┌▓È_1
  6
STITCH
 10
789.9855776421
 20
-265.9164137656
 30
0.0
 40
4.0
  0
LINE
  5
195
  8
┌▓È_1
 62
     5
 10
800.98557764210022
 20
-273.9164137656
 30
0.0
 11
800.98557764210022
 21
-257.9164137656
 31
0.0
  0
LINE
  5
196
  8
┌▓È_1
 62
     5
 10
913.64684213380008
 20
-311.4702024755
 30
0.0
 11
913.64684213380008
 21
-312.9102024755
 31
0.0
  0
LINE
  5
197
  8
┌▓È_1
 62
     5
 10
904.67285601520007
 20
-312.43020247549998
 30
0.0
 11
904.67285601520007
 21
-313.63020247550003
 31
0.0
  0
LINE
  5
198
  8
┌▓È_1
 62
     5
 10
888.54437116669988
 20
-310.83020247550002
 30
0.0
 11
888.42348811739998
 21
-310.83020247550002
 31
0.0
  0
LINE
  5
199
  8
┌▓È_1
 62
     5
 10
888.54437116669988
 20
-312.43020247549998
 30
0.0
 11
888.54437116669988
 21
-313.63020247550003
 31
0.0
  0
LINE
  5
19A
  8
┌▓È_1
 62
     5
 10
911.31016433229979
 20
-311.4702024755
 30
0.0
 11
911.12599488199999
 21
-310.83020247550002
 31
0.0
  0
LINE
  5
19B
  8
┌▓È_1
 62
     5
 10
909.80684213380005
 20
-314.0302024755
 30
0.0
 11
909.47830880050003
 21
-312.9102024755
 31
0.0
  0
LINE
  5
19C
  8
┌▓È_1
 62
     5
 10
890.94437116669997
 20
-312.43020247549998
 30
0.0
 11
888.54437116669988
 21
-312.43020247549998
 31
0.0
  0
LINE
  5
19D
  8
┌▓È_1
 62
     5
 10
897.47285601520002
 20
-309.4702024755
 30
0.0
 11
901.47285601520014
 21
-309.4702024755
 31
0.0
  0
LINE
  5
19E
  8
┌▓È_1
 62
     5
 10
913.64684213380008
 20
-309.39020247550002
 30
0.0
 11
913.64684213380008
 21
-310.83020247550002
 31
0.0
  0
LINE
  5
19F
  8
┌▓È_1
 62
     5
 10
906.44684213380003
 20
-310.83020247550002
 30
0.0
 11
908.86817546709995
 21
-310.83020247550002
 31
0.0
  0
LINE
  5
1A0
  8
┌▓È_1
 62
     5
 10
906.44684213380003
 20
-311.4702024755
 30
0.0
 11
906.44684213380003
 21
-312.9102024755
 31
0.0
  0
LINE
  5
1A1
  8
┌▓È_1
 62
     5
 10
890.54437116669999
 20
-312.0302024755
 30
0.0
 11
890.54437116669999
 21
-310.83020247550002
 31
0.0
  0
LINE
  5
1A2
  8
┌▓È_1
 62
     5
 10
911.72454559559981
 20
-312.9102024755
 30
0.0
 11
913.64684213380008
 21
-312.9102024755
 31
0.0
  0
LINE
  5
1A3
  8
┌▓È_1
 62
     5
 10
895.34437116669994
 20
-308.0302024755
 30
0.0
 11
892.14437116670001
 21
-308.0302024755
 31
0.0
  0
LINE
  5
1A4
  8
┌▓È_1
 62
     5
 10
897.47285601520002
 20
-308.0302024755
 30
0.0
 11
897.47285601520002
 21
-309.4702024755
 31
0.0
  0
LINE
  5
1A5
  8
┌▓È_1
 10
902.34716980070004
 20
-293.90834084900001
 30
0.0
 11
918.34716980070004
 21
-293.90834084900001
 31
0.0
  0
LINE
  5
1A6
  8
┌▓È_1
 10
918.34716980070004
 20
-298.15834084900001
 30
0.0
 11
974.34716980070004
 21
-298.15834084900001
 31
0.0
  0
LINE
  5
1A7
  8
┌▓È_1
 10
854.34716980070004
 20
-298.15834084900001
 30
0.0
 11
902.34716980070004
 21
-298.15834084900001
 31
0.0
  0
INSERT
  5
1A8
  8
0
  6
CONTINUOUS
  2
*U30
 10
0.0
 20
0.0
 30
0.0
  0
INSERT
  5
1A9
  8
0
  6
CONTINUOUS
  2
*U31
 10
0.0
 20
0.0
 30
0.0
  0
INSERT
  5
1AA
  8
0
  6
CONTINUOUS
  2
*U32
 10
0.0
 20
0.0
 30
0.0
  0
INSERT
  5
1AB
  8
0
  6
CONTINUOUS
  2
*U33
 10
0.0
 20
0.0
 30
0.0
  0
INSERT
  5
1AC
  8
0
  6
CONTINUOUS
  2
*U34
 10
0.0
 20
0.0
 30
0.0
  0
INSERT
  5
1AD
  8
0
  6
CONTINUOUS
  2
*U35
 10
0.0
 20
0.0
 30
0.0
  0
INSERT
  5
1AE
  8
0
  6
CONTINUOUS
  2
*U36
 10
0.0
 20
0.0
 30
0.0
  0
LINE
  5
1AF
  8
┌▓È_1
 62
     5
 10
902.96303149679989
 20
-311.90950744259999
 30
0.0
 11
902.82054984899992
 21
-312.049009958
 31
0.0
  0
ARC
  5
1B0
  8
┌▓È_1
 62
     5
 10
898.43285601519995
 20
-309.39020247550002
 30
0.0
 40
3.04
 50
270.0
 51
298.08590481520002
  0
LINE
  5
1B1
  8
┌▓È_1
 62
     5
 10
897.47285601520002
 20
-312.43020247549998
 30
0.0
 11
897.47285601520002
 21
-313.63020247550003
 31
0.0
  0
LINE
  5
1B2
  8
┌▓È_1
 62
     5
 10
897.47285601520002
 20
-312.43020247549998
 30
0.0
 11
898.43285601519995
 21
-312.43020247549998
 31
0.0
  0
LINE
  5
1B3
  8
┌▓È_1
 62
     5
 10
908.04684213380006
 20
-308.0302024755
 30
0.0
 11
911.24684213379999
 21
-308.0302024755
 31
0.0
  0
LINE
  5
1B4
  8
┌▓È_1
 62
     5
 10
903.8728560152
 20
-309.23020247549999
 30
0.0
 11
904.67285601520007
 21
-308.0302024755
 31
0.0
  0
LINE
  5
1B5
  8
┌▓È_1
 62
     5
 10
888.54437116669988
 20
-313.63020247550003
 30
0.0
 11
891.74437116670015
 21
-313.63020247550003
 31
0.0
  0
LINE
  5
1B6
  8
┌▓È_1
 62
     5
 10
897.47285601520002
 20
-313.63020247550003
 30
0.0
 11
899.47285601519991
 21
-313.63020247550003
 31
0.0
  0
ARC
  5
1B7
  8
┌▓È_1
 62
     5
 10
898.43285601519995
 20
-309.39020247550002
 30
0.0
 40
3.04
 50
331.39928138329998
 51
358.49204224580001
  0
LINE
  5
1B8
  8
┌▓È_1
 62
     5
 10
894.14437116670001
 20
-310.83020247550002
 30
0.0
 11
895.34437116669994
 21
-310.83020247550002
 31
0.0
  0
ARC
  5
1B9
  8
┌▓È_1
 62
     5
 10
899.47285601519991
 20
-309.23020247549999
 30
0.0
 40
4.4000000000000004
 50
270.0
 51
302.54495885400001
  0
LINE
  5
1BA
  8
┌▓È_1
 62
     5
 10
887.62348811739992
 20
-310.83020247550002
 30
0.0
 11
888.42348811739998
 21
-310.83020247550002
 31
0.0
  0
LINE
  5
1BB
  8
┌▓È_1
 62
     5
 10
906.44684213380003
 20
-311.4702024755
 30
0.0
 11
909.05590880049988
 21
-311.4702024755
 31
0.0
  0
LINE
  5
1BC
  8
┌▓È_1
 62
     5
 10
895.34437116669994
 20
-309.63020247550003
 30
0.0
 11
894.14437116670001
 21
-309.63020247550003
 31
0.0
  0
LINE
  5
1BD
  8
┌▓È_1
 62
     5
 10
894.14437116670001
 20
-309.63020247550003
 30
0.0
 11
894.14437116670001
 21
-309.23020247549999
 31
0.0
  0
LINE
  5
1BE
  8
┌▓È_1
 10
856.34716980070004
 20
-293.90834084900001
 30
0.0
 11
868.34716980070004
 21
-293.90834084900001
 31
0.0
  0
LINE
  5
1BF
  8
┌▓È_1
 10
886.34716980070004
 20
-289.65834084900001
 30
0.0
 11
886.34716980070004
 21
-306.65834084900001
 31
0.0
  0
LINE
  5
1C0
  8
┌▓È_1
 62
     5
 10
900.67285601519995
 20
-309.88789068940002
 30
0.0
 11
900.22030767520005
 21
-310.34043902939999
 31
0.0
  0
LINE
  5
1C1
  8
┌▓È_1
 62
     5
 10
897.47285601520002
 20
-310.14557890340001
 30
0.0
 11
897.47285601520002
 21
-309.88789068940002
 31
0.0
  0
LINE
  5
1C2
  8
┌▓È_1
 62
     5
 10
887.62348811739992
 20
-309.63020247550003
 30
0.0
 11
887.62348811739992
 21
-310.83020247550002
 31
0.0
  0
LINE
  5
1C3
  8
┌▓È_1
 62
     5
 10
895.34437116669994
 20
-309.63020247550003
 30
0.0
 11
895.34437116669994
 21
-310.83020247550002
 31
0.0
  0
LINE
  5
1C4
  8
┌▓È_1
 62
     5
 10
909.80684213380005
 20
-314.0302024755
 30
0.0
 11
912.04684213380006
 21
-314.0302024755
 31
0.0
  0
LINE
  5
1C5
  8
┌▓È_1
 62
     5
 10
890.54437116669999
 20
-309.63020247550003
 30
0.0
 11
890.54437116669999
 21
-309.23020247549999
 31
0.0
  0
LINE
  5
1C6
  8
┌▓È_1
 62
     5
 10
897.47285601520002
 20
-313.63020247550003
 30
0.0
 11
897.47285601520002
 21
-312.43020247549998
 31
0.0
  0
LINE
  5
1C7
  8
┌▓È_1
 62
     5
 10
888.54437116669988
 20
-309.63020247550003
 30
0.0
 11
887.62348811739992
 21
-309.63020247550003
 31
0.0
  0
LINE
  5
1C8
  8
┌▓È_1
 62
     5
 10
894.14437116670001
 20
-309.23020247549999
 30
0.0
 11
895.34437116669994
 21
-308.0302024755
 31
0.0
  0
LINE
  5
1C9
  8
┌▓È_1
 62
     5
 10
909.05590880049988
 20
-311.4702024755
 30
0.0
 11
908.86817546709995
 21
-310.83020247550002
 31
0.0
  0
LINE
  5
1CA
  8
┌▓È_1
 62
     5
 10
903.8728560152
 20
-309.23020247549999
 30
0.0
 11
904.67285601520007
 21
-308.0302024755
 31
0.0
  0
LINE
  5
1CB
  8
┌▓È_1
 62
     5
 10
911.12599488199999
 20
-310.83020247550002
 30
0.0
 11
913.64684213380008
 21
-310.83020247550002
 31
0.0
  0
LINE
  5
1CC
  8
┌▓È_1
 62
     5
 10
892.14437116670001
 20
-308.0302024755
 30
0.0
 11
892.14437116670001
 21
-309.63020247550003
 31
0.0
  0
ARC
  5
1CD
  8
┌▓È_1
 62
     5
 10
890.94437116669997
 20
-311.23020247549999
 30
0.0
 40
1.1999999999999991
 50
270.0
 51
0.0
  0
LINE
  5
1CE
  8
┌▓È_1
 62
     5
 10
901.10190600850012
 20
-310.8454591995
 30
0.0
 11
900.90942936349995
 21
-311.05804988800003
 31
0.0
  0
LINE
  5
1CF
  8
┌▓È_1
 62
     5
 10
897.47285601520002
 20
-309.88789068940002
 30
0.0
 11
900.67285601519995
 21
-309.88789068940002
 31
0.0
  0
LINE
  5
1D0
  8
┌▓È_1
 62
     5
 10
894.14437116670001
 20
-311.23020247549999
 30
0.0
 11
894.14437116670001
 21
-310.83020247550002
 31
0.0
  0
LINE
  5
1D1
  8
┌▓È_1
 62
     5
 10
906.44684213380003
 20
-309.39020247550002
 30
0.0
 11
906.44684213380003
 21
-310.83020247550002
 31
0.0
  0
LINE
  5
1D2
  8
┌▓È_1
 10
902.34716980070004
 20
-289.65834084900001
 30
0.0
 11
902.34716980070004
 21
-306.65834084900001
 31
0.0
  0
LINE
  5
1D3
  8
┌▓È_1
 10
870.34716980070004
 20
-289.65834084900001
 30
0.0
 11
870.34716980070004
 21
-298.15834084900001
 31
0.0
  0
LINE
  5
1D4
  8
┌▓È_1
 10
854.34716980070004
 20
-306.65834084900001
 30
0.0
 11
974.34716980070004
 21
-306.65834084900001
 31
0.0
  0
LINE
  5
1D5
  8
┌▓È_1
 10
854.34716980070004
 20
-289.65834084900001
 30
0.0
 11
974.34716980070004
 21
-289.65834084900001
 31
0.0
  0
LINE
  5
1D6
  8
┌▓È_1
 10
918.34716980070004
 20
-289.65834084900001
 30
0.0
 11
918.34716980070004
 21
-315.15834084900001
 31
0.0
  0
ARC
  5
1D7
  8
┌▓È_1
 62
     5
 10
891.74437116670015
 20
-311.23020247549999
 30
0.0
 40
2.399999999999999
 50
270.0
 51
0.0
  0
LINE
  5
1D8
  8
┌▓È_1
 62
     5
 10
910.59449821839985
 20
-308.98321936309998
 30
0.0
 11
911.24684213379999
 21
-308.0302024755
 31
0.0
  0
LINE
  5
1D9
  8
┌▓È_1
 62
     5
 10
892.14437116670001
 20
-309.63020247550003
 30
0.0
 11
890.54437116669999
 21
-309.63020247550003
 31
0.0
  0
LINE
  5
1DA
  8
┌▓È_1
 62
     5
 10
891.74437116670015
 20
-308.0302024755
 30
0.0
 11
888.54437116669988
 21
-308.0302024755
 31
0.0
  0
LINE
  5
1DB
  8
┌▓È_1
 62
     5
 10
890.54437116669999
 20
-309.23020247549999
 30
0.0
 11
891.74437116670015
 21
-308.0302024755
 31
0.0
  0
LINE
  5
1DC
  8
┌▓È_1
 62
     5
 10
888.54437116669988
 20
-308.0302024755
 30
0.0
 11
888.54437116669988
 21
-309.63020247550003
 31
0.0
  0
LINE
  5
1DD
  8
┌▓È_1
 62
     5
 10
908.44577546709991
 20
-309.39020247550002
 30
0.0
 11
908.04684213380006
 21
-308.0302024755
 31
0.0
  0
LINE
  5
1DE
  8
┌▓È_1
 62
     5
 10
910.71161361860004
 20
-309.39020247550002
 30
0.0
 11
913.64684213380008
 21
-309.39020247550002
 31
0.0
  0
INSERT
  5
1DF
  8
0
  6
CONTINUOUS
  2
*U37
 10
0.0
 20
0.0
 30
0.0
  0
LINE
  5
1E0
  8
┌▓È_1
 62
     5
 10
888.54437116669988
 20
-310.83020247550002
 30
0.0
 11
888.54437116669988
 21
-312.0302024755
 31
0.0
  0
LINE
  5
1E1
  8
┌▓È_1
  6
BORDER
 62
     3
 10
921.31749485349997
 20
-185.8941103802
 30
0.0
 11
921.31749485349997
 21
-209.3941103802
 31
0.0
  0
LINE
  5
1E2
  8
┌▓È_1
 62
     5
 10
941.31749485350008
 20
-190.3941103802
 30
0.0
 11
931.31749485350008
 21
-200.3941103802
 31
0.0
  0
LINE
  5
1E3
  8
┌▓È_1
 62
     5
 10
931.31749485350008
 20
-200.3941103802
 30
0.0
 11
911.31749485349997
 21
-200.3941103802
 31
0.0
  0
LINE
  5
1E4
  8
┌▓È_1
 62
     5
 10
911.31749485349997
 20
-200.3941103802
 30
0.0
 11
911.31749485349997
 21
-205.3941103802
 31
0.0
  0
LINE
  5
1E5
  8
┌▓È_1
 62
     5
 10
931.31749485350008
 20
-200.3941103802
 30
0.0
 11
931.31749485350008
 21
-205.3941103802
 31
0.0
  0
LINE
  5
1E6
  8
┌▓È_1
 62
     5
 10
901.31749485350008
 20
-190.3941103802
 30
0.0
 11
911.31749485349997
 21
-200.3941103802
 31
0.0
  0
LINE
  5
1E7
  8
┌▓È_1
 62
     5
 10
890.83230966830001
 20
-190.3941103802
 30
0.0
 11
951.80268003859999
 21
-190.3941103802
 31
0.0
  0
LINE
  5
1E8
  8
┌▓È_1
 62
     5
 10
890.83230966830001
 20
-205.3941103802
 30
0.0
 11
951.80268003859999
 21
-205.3941103802
 31
0.0
  0
POLYLINE
  8
┌▓È_1
  5
27D
  62
5
  66
     1
 10
0.000000
 20
0.000000
 30
0.000000
  70
     8
  0
VERTEX
  8
┌▓È_1
  5
27E
 10
902.821
 20
-312.049
 30
0.000000
  70
    32
  0
VERTEX
  8
┌▓È_1
  5
27F
 10
902.835
 20
-312.053
 30
0.000000
  70
    32
  0
VERTEX
  8
┌▓È_1
  5
280
 10
902.849
 20
-312.057
 30
0.000000
  70
    32
  0
VERTEX
  8
┌▓È_1
  5
281
 10
902.863
 20
-312.061
 30
0.000000
  70
    32
  0
VERTEX
  8
┌▓È_1
  5
282
 10
902.877
 20
-312.065
 30
0.000000
  70
    32
  0
VERTEX
  8
┌▓È_1
  5
283
 10
902.891
 20
-312.069
 30
0.000000
  70
    32
  0
VERTEX
  8
┌▓È_1
  5
284
 10
902.905
 20
-312.072
 30
0.000000
  70
    32
  0
VERTEX
  8
┌▓È_1
  5
285
 10
902.919
 20
-312.076
 30
0.000000
  70
    32
  0
VERTEX
  8
┌▓È_1
  5
286
 10
902.933
 20
-312.080
 30
0.000000
  70
    32
  0
VERTEX
  8
┌▓È_1
  5
287
 10
902.947
 20
-312.084
 30
0.000000
  70
    32
  0
VERTEX
  8
┌▓È_1
  5
288
 10
902.961
 20
-312.088
 30
0.000000
  70
    32
  0
VERTEX
  8
┌▓È_1
  5
289
 10
902.975
 20
-312.091
 30
0.000000
  70
    32
  0
VERTEX
  8
┌▓È_1
  5
28A
 10
902.989
 20
-312.095
 30
0.000000
  70
    32
  0
VERTEX
  8
┌▓È_1
  5
28B
 10
903.003
 20
-312.099
 30
0.000000
  70
    32
  0
VERTEX
  8
┌▓È_1
  5
28C
 10
903.018
 20
-312.102
 30
0.000000
  70
    32
  0
VERTEX
  8
┌▓È_1
  5
28D
 10
903.032
 20
-312.106
 30
0.000000
  70
    32
  0
VERTEX
  8
┌▓È_1
  5
28E
 10
903.046
 20
-312.110
 30
0.000000
  70
    32
  0
VERTEX
  8
┌▓È_1
  5
28F
 10
903.060
 20
-312.113
 30
0.000000
  70
    32
  0
VERTEX
  8
┌▓È_1
  5
290
 10
903.074
 20
-312.117
 30
0.000000
  70
    32
  0
VERTEX
  8
┌▓È_1
  5
291
 10
903.089
 20
-312.121
 30
0.000000
  70
    32
  0
VERTEX
  8
┌▓È_1
  5
292
 10
903.103
 20
-312.124
 30
0.000000
  70
    32
  0
VERTEX
  8
┌▓È_1
  5
293
 10
903.117
 20
-312.128
 30
0.000000
  70
    32
  0
VERTEX
  8
┌▓È_1
  5
294
 10
903.131
 20
-312.131
 30
0.000000
  70
    32
  0
VERTEX
  8
┌▓È_1
  5
295
 10
903.146
 20
-312.135
 30
0.000000
  70
    32
  0
VERTEX
  8
┌▓È_1
  5
296
 10
903.160
 20
-312.138
 30
0.000000
  70
    32
  0
VERTEX
  8
┌▓È_1
  5
297
 10
903.174
 20
-312.142
 30
0.000000
  70
    32
  0
VERTEX
  8
┌▓È_1
  5
298
 10
903.189
 20
-312.145
 30
0.000000
  70
    32
  0
VERTEX
  8
┌▓È_1
  5
299
 10
903.203
 20
-312.149
 30
0.000000
  70
    32
  0
VERTEX
  8
┌▓È_1
  5
29A
 10
903.217
 20
-312.152
 30
0.000000
  70
    32
  0
VERTEX
  8
┌▓È_1
  5
29B
 10
903.232
 20
-312.155
 30
0.000000
  70
    32
  0
VERTEX
  8
┌▓È_1
  5
29C
 10
903.246
 20
-312.159
 30
0.000000
  70
    32
  0
VERTEX
  8
┌▓È_1
  5
29D
 10
903.260
 20
-312.162
 30
0.000000
  70
    32
  0
VERTEX
  8
┌▓È_1
  5
29E
 10
903.275
 20
-312.165
 30
0.000000
  70
    32
  0
VERTEX
  8
┌▓È_1
  5
29F
 10
903.289
 20
-312.169
 30
0.000000
  70
    32
  0
VERTEX
  8
┌▓È_1
  5
2A0
 10
903.303
 20
-312.172
 30
0.000000
  70
    32
  0
VERTEX
  8
┌▓È_1
  5
2A1
 10
903.318
 20
-312.175
 30
0.000000
  70
    32
  0
VERTEX
  8
┌▓È_1
  5
2A2
 10
903.332
 20
-312.179
 30
0.000000
  70
    32
  0
VERTEX
  8
┌▓È_1
  5
2A3
 10
903.347
 20
-312.182
 30
0.000000
  70
    32
  0
VERTEX
  8
┌▓È_1
  5
2A4
 10
903.361
 20
-312.185
 30
0.000000
  70
    32
  0
VERTEX
  8
┌▓È_1
  5
2A5
 10
903.376
 20
-312.188
 30
0.000000
  70
    32
  0
VERTEX
  8
┌▓È_1
  5
2A6
 10
903.390
 20
-312.192
 30
0.000000
  70
    32
  0
VERTEX
  8
┌▓È_1
  5
2A7
 10
903.404
 20
-312.195
 30
0.000000
  70
    32
  0
VERTEX
  8
┌▓È_1
  5
2A8
 10
903.419
 20
-312.198
 30
0.000000
  70
    32
  0
VERTEX
  8
┌▓È_1
  5
2A9
 10
903.433
 20
-312.201
 30
0.000000
  70
    32
  0
VERTEX
  8
┌▓È_1
  5
2AA
 10
903.448
 20
-312.204
 30
0.000000
  70
    32
  0
VERTEX
  8
┌▓È_1
  5
2AB
 10
903.462
 20
-312.207
 30
0.000000
  70
    32
  0
VERTEX
  8
┌▓È_1
  5
2AC
 10
903.477
 20
-312.210
 30
0.000000
  70
    32
  0
VERTEX
  8
┌▓È_1
  5
2AD
 10
903.491
 20
-312.214
 30
0.000000
  70
    32
  0
VERTEX
  8
┌▓È_1
  5
2AE
 10
903.506
 20
-312.217
 30
0.000000
  70
    32
  0
VERTEX
  8
┌▓È_1
  5
2AF
 10
903.521
 20
-312.220
 30
0.000000
  70
    32
  0
VERTEX
  8
┌▓È_1
  5
2B0
 10
903.535
 20
-312.223
 30
0.000000
  70
    32
  0
VERTEX
  8
┌▓È_1
  5
2B1
 10
903.550
 20
-312.226
 30
0.000000
  70
    32
  0
VERTEX
  8
┌▓È_1
  5
2B2
 10
903.564
 20
-312.229
 30
0.000000
  70
    32
  0
VERTEX
  8
┌▓È_1
  5
2B3
 10
903.579
 20
-312.232
 30
0.000000
  70
    32
  0
VERTEX
  8
┌▓È_1
  5
2B4
 10
903.593
 20
-312.235
 30
0.000000
  70
    32
  0
VERTEX
  8
┌▓È_1
  5
2B5
 10
903.608
 20
-312.238
 30
0.000000
  70
    32
  0
VERTEX
  8
┌▓È_1
  5
2B6
 10
903.623
 20
-312.241
 30
0.000000
  70
    32
  0
VERTEX
  8
┌▓È_1
  5
2B7
 10
903.637
 20
-312.244
 30
0.000000
  70
    32
  0
VERTEX
  8
┌▓È_1
  5
2B8
 10
903.652
 20
-312.247
 30
0.000000
  70
    32
  0
VERTEX
  8
┌▓È_1
  5
2B9
 10
903.666
 20
-312.250
 30
0.000000
  70
    32
  0
VERTEX
  8
┌▓È_1
  5
2BA
 10
903.681
 20
-312.253
 30
0.000000
  70
    32
  0
VERTEX
  8
┌▓È_1
  5
2BB
 10
903.696
 20
-312.256
 30
0.000000
  70
    32
  0
VERTEX
  8
┌▓È_1
  5
2BC
 10
903.710
 20
-312.258
 30
0.000000
  70
    32
  0
VERTEX
  8
┌▓È_1
  5
2BD
 10
903.725
 20
-312.261
 30
0.000000
  70
    32
  0
VERTEX
  8
┌▓È_1
  5
2BE
 10
903.740
 20
-312.264
 30
0.000000
  70
    32
  0
VERTEX
  8
┌▓È_1
  5
2BF
 10
903.754
 20
-312.267
 30
0.000000
  70
    32
  0
VERTEX
  8
┌▓È_1
  5
2C0
 10
903.769
 20
-312.270
 30
0.000000
  70
    32
  0
VERTEX
  8
┌▓È_1
  5
2C1
 10
903.784
 20
-312.273
 30
0.000000
  70
    32
  0
VERTEX
  8
┌▓È_1
  5
2C2
 10
903.798
 20
-312.276
 30
0.000000
  70
    32
  0
VERTEX
  8
┌▓È_1
  5
2C3
 10
903.813
 20
-312.278
 30
0.000000
  70
    32
  0
VERTEX
  8
┌▓È_1
  5
2C4
 10
903.828
 20
-312.281
 30
0.000000
  70
    32
  0
VERTEX
  8
┌▓È_1
  5
2C5
 10
903.842
 20
-312.284
 30
0.000000
  70
    32
  0
VERTEX
  8
┌▓È_1
  5
2C6
 10
903.857
 20
-312.287
 30
0.000000
  70
    32
  0
VERTEX
  8
┌▓È_1
  5
2C7
 10
903.872
 20
-312.290
 30
0.000000
  70
    32
  0
VERTEX
  8
┌▓È_1
  5
2C8
 10
903.887
 20
-312.292
 30
0.000000
  70
    32
  0
VERTEX
  8
┌▓È_1
  5
2C9
 10
903.901
 20
-312.295
 30
0.000000
  70
    32
  0
VERTEX
  8
┌▓È_1
  5
2CA
 10
903.916
 20
-312.298
 30
0.000000
  70
    32
  0
VERTEX
  8
┌▓È_1
  5
2CB
 10
903.931
 20
-312.301
 30
0.000000
  70
    32
  0
VERTEX
  8
┌▓È_1
  5
2CC
 10
903.946
 20
-312.303
 30
0.000000
  70
    32
  0
VERTEX
  8
┌▓È_1
  5
2CD
 10
903.960
 20
-312.306
 30
0.000000
  70
    32
  0
VERTEX
  8
┌▓È_1
  5
2CE
 10
903.975
 20
-312.309
 30
0.000000
  70
    32
  0
VERTEX
  8
┌▓È_1
  5
2CF
 10
903.990
 20
-312.312
 30
0.000000
  70
    32
  0
VERTEX
  8
┌▓È_1
  5
2D0
 10
904.005
 20
-312.314
 30
0.000000
  70
    32
  0
VERTEX
  8
┌▓È_1
  5
2D1
 10
904.019
 20
-312.317
 30
0.000000
  70
    32
  0
VERTEX
  8
┌▓È_1
  5
2D2
 10
904.034
 20
-312.320
 30
0.000000
  70
    32
  0
VERTEX
  8
┌▓È_1
  5
2D3
 10
904.049
 20
-312.322
 30
0.000000
  70
    32
  0
VERTEX
  8
┌▓È_1
  5
2D4
 10
904.064
 20
-312.325
 30
0.000000
  70
    32
  0
VERTEX
  8
┌▓È_1
  5
2D5
 10
904.079
 20
-312.328
 30
0.000000
  70
    32
  0
VERTEX
  8
┌▓È_1
  5
2D6
 10
904.093
 20
-312.330
 30
0.000000
  70
    32
  0
VERTEX
  8
┌▓È_1
  5
2D7
 10
904.108
 20
-312.333
 30
0.000000
  70
    32
  0
VERTEX
  8
┌▓È_1
  5
2D8
 10
904.123
 20
-312.336
 30
0.000000
  70
    32
  0
VERTEX
  8
┌▓È_1
  5
2D9
 10
904.138
 20
-312.338
 30
0.000000
  70
    32
  0
VERTEX
  8
┌▓È_1
  5
2DA
 10
904.153
 20
-312.341
 30
0.000000
  70
    32
  0
VERTEX
  8
┌▓È_1
  5
2DB
 10
904.167
 20
-312.344
 30
0.000000
  70
    32
  0
VERTEX
  8
┌▓È_1
  5
2DC
 10
904.182
 20
-312.346
 30
0.000000
  70
    32
  0
VERTEX
  8
┌▓È_1
  5
2DD
 10
904.197
 20
-312.349
 30
0.000000
  70
    32
  0
VERTEX
  8
┌▓È_1
  5
2DE
 10
904.212
 20
-312.351
 30
0.000000
  70
    32
  0
VERTEX
  8
┌▓È_1
  5
2DF
 10
904.227
 20
-312.354
 30
0.000000
  70
    32
  0
VERTEX
  8
┌▓È_1
  5
2E0
 10
904.242
 20
-312.357
 30
0.000000
  70
    32
  0
VERTEX
  8
┌▓È_1
  5
2E1
 10
904.256
 20
-312.359
 30
0.000000
  70
    32
  0
VERTEX
  8
┌▓È_1
  5
2E2
 10
904.271
 20
-312.362
 30
0.000000
  70
    32
  0
VERTEX
  8
┌▓È_1
  5
2E3
 10
904.286
 20
-312.364
 30
0.000000
  70
    32
  0
VERTEX
  8
┌▓È_1
  5
2E4
 10
904.301
 20
-312.367
 30
0.000000
  70
    32
  0
VERTEX
  8
┌▓È_1
  5
2E5
 10
904.316
 20
-312.369
 30
0.000000
  70
    32
  0
VERTEX
  8
┌▓È_1
  5
2E6
 10
904.331
 20
-312.372
 30
0.000000
  70
    32
  0
VERTEX
  8
┌▓È_1
  5
2E7
 10
904.346
 20
-312.375
 30
0.000000
  70
    32
  0
VERTEX
  8
┌▓È_1
  5
2E8
 10
904.360
 20
-312.377
 30
0.000000
  70
    32
  0
VERTEX
  8
┌▓È_1
  5
2E9
 10
904.375
 20
-312.380
 30
0.000000
  70
    32
  0
VERTEX
  8
┌▓È_1
  5
2EA
 10
904.390
 20
-312.382
 30
0.000000
  70
    32
  0
VERTEX
  8
┌▓È_1
  5
2EB
 10
904.405
 20
-312.385
 30
0.000000
  70
    32
  0
VERTEX
  8
┌▓È_1
  5
2EC
 10
904.420
 20
-312.387
 30
0.000000
  70
    32
  0
VERTEX
  8
┌▓È_1
  5
2ED
 10
904.435
 20
-312.390
 30
0.000000
  70
    32
  0
VERTEX
  8
┌▓È_1
  5
2EE
 10
904.450
 20
-312.392
 30
0.000000
  70
    32
  0
VERTEX
  8
┌▓È_1
  5
2EF
 10
904.464
 20
-312.395
 30
0.000000
  70
    32
  0
VERTEX
  8
┌▓È_1
  5
2F0
 10
904.479
 20
-312.397
 30
0.000000
  70
    32
  0
VERTEX
  8
┌▓È_1
  5
2F1
 10
904.494
 20
-312.400
 30
0.000000
  70
    32
  0
VERTEX
  8
┌▓È_1
  5
2F2
 10
904.509
 20
-312.403
 30
0.000000
  70
    32
  0
VERTEX
  8
┌▓È_1
  5
2F3
 10
904.524
 20
-312.405
 30
0.000000
  70
    32
  0
VERTEX
  8
┌▓È_1
  5
2F4
 10
904.539
 20
-312.408
 30
0.000000
  70
    32
  0
VERTEX
  8
┌▓È_1
  5
2F5
 10
904.554
 20
-312.410
 30
0.000000
  70
    32
  0
VERTEX
  8
┌▓È_1
  5
2F6
 10
904.569
 20
-312.413
 30
0.000000
  70
    32
  0
VERTEX
  8
┌▓È_1
  5
2F7
 10
904.584
 20
-312.415
 30
0.000000
  70
    32
  0
VERTEX
  8
┌▓È_1
  5
2F8
 10
904.598
 20
-312.418
 30
0.000000
  70
    32
  0
VERTEX
  8
┌▓È_1
  5
2F9
 10
904.613
 20
-312.420
 30
0.000000
  70
    32
  0
VERTEX
  8
┌▓È_1
  5
2FA
 10
904.628
 20
-312.423
 30
0.000000
  70
    32
  0
VERTEX
  8
┌▓È_1
  5
2FB
 10
904.643
 20
-312.425
 30
0.000000
  70
    32
  0
VERTEX
  8
┌▓È_1
  5
2FC
 10
904.658
 20
-312.428
 30
0.000000
  70
    32
  0
VERTEX
  8
┌▓È_1
  5
2FD
 10
904.673
 20
-312.430
 30
0.000000
  70
    32
  0
SEQEND
  8
┌▓È_1
  5
2FE
  0
POLYLINE
  8
┌▓È_1
  5
2FF
  62
5
  66
     1
 10
0.000000
 20
0.000000
 30
0.000000
  70
     8
  0
VERTEX
  8
┌▓È_1
  5
300
 10
897.473
 20
-310.146
 30
0.000000
  70
    32
  0
VERTEX
  8
┌▓È_1
  5
301
 10
897.487
 20
-310.159
 30
0.000000
  70
    32
  0
VERTEX
  8
┌▓È_1
  5
302
 10
897.502
 20
-310.172
 30
0.000000
  70
    32
  0
VERTEX
  8
┌▓È_1
  5
303
 10
897.516
 20
-310.185
 30
0.000000
  70
    32
  0
VERTEX
  8
┌▓È_1
  5
304
 10
897.530
 20
-310.199
 30
0.000000
  70
    32
  0
VERTEX
  8
┌▓È_1
  5
305
 10
897.545
 20
-310.212
 30
0.000000
  70
    32
  0
VERTEX
  8
┌▓È_1
  5
306
 10
897.559
 20
-310.225
 30
0.000000
  70
    32
  0
VERTEX
  8
┌▓È_1
  5
307
 10
897.574
 20
-310.239
 30
0.000000
  70
    32
  0
VERTEX
  8
┌▓È_1
  5
308
 10
897.588
 20
-310.252
 30
0.000000
  70
    32
  0
VERTEX
  8
┌▓È_1
  5
309
 10
897.603
 20
-310.265
 30
0.000000
  70
    32
  0
VERTEX
  8
┌▓È_1
  5
30A
 10
897.617
 20
-310.278
 30
0.000000
  70
    32
  0
VERTEX
  8
┌▓È_1
  5
30B
 10
897.631
 20
-310.292
 30
0.000000
  70
    32
  0
VERTEX
  8
┌▓È_1
  5
30C
 10
897.646
 20
-310.305
 30
0.000000
  70
    32
  0
VERTEX
  8
┌▓È_1
  5
30D
 10
897.660
 20
-310.318
 30
0.000000
  70
    32
  0
VERTEX
  8
┌▓È_1
  5
30E
 10
897.675
 20
-310.331
 30
0.000000
  70
    32
  0
VERTEX
  8
┌▓È_1
  5
30F
 10
897.689
 20
-310.345
 30
0.000000
  70
    32
  0
VERTEX
  8
┌▓È_1
  5
310
 10
897.704
 20
-310.358
 30
0.000000
  70
    32
  0
VERTEX
  8
┌▓È_1
  5
311
 10
897.718
 20
-310.371
 30
0.000000
  70
    32
  0
VERTEX
  8
┌▓È_1
  5
312
 10
897.732
 20
-310.384
 30
0.000000
  70
    32
  0
VERTEX
  8
┌▓È_1
  5
313
 10
897.747
 20
-310.398
 30
0.000000
  70
    32
  0
VERTEX
  8
┌▓È_1
  5
314
 10
897.761
 20
-310.411
 30
0.000000
  70
    32
  0
VERTEX
  8
┌▓È_1
  5
315
 10
897.776
 20
-310.424
 30
0.000000
  70
    32
  0
VERTEX
  8
┌▓È_1
  5
316
 10
897.790
 20
-310.437
 30
0.000000
  70
    32
  0
VERTEX
  8
┌▓È_1
  5
317
 10
897.805
 20
-310.451
 30
0.000000
  70
    32
  0
VERTEX
  8
┌▓È_1
  5
318
 10
897.819
 20
-310.464
 30
0.000000
  70
    32
  0
VERTEX
  8
┌▓È_1
  5
319
 10
897.833
 20
-310.477
 30
0.000000
  70
    32
  0
VERTEX
  8
┌▓È_1
  5
31A
 10
897.848
 20
-310.490
 30
0.000000
  70
    32
  0
VERTEX
  8
┌▓È_1
  5
31B
 10
897.862
 20
-310.503
 30
0.000000
  70
    32
  0
VERTEX
  8
┌▓È_1
  5
31C
 10
897.877
 20
-310.516
 30
0.000000
  70
    32
  0
VERTEX
  8
┌▓È_1
  5
31D
 10
897.891
 20
-310.530
 30
0.000000
  70
    32
  0
VERTEX
  8
┌▓È_1
  5
31E
 10
897.906
 20
-310.543
 30
0.000000
  70
    32
  0
VERTEX
  8
┌▓È_1
  5
31F
 10
897.920
 20
-310.556
 30
0.000000
  70
    32
  0
VERTEX
  8
┌▓È_1
  5
320
 10
897.935
 20
-310.569
 30
0.000000
  70
    32
  0
VERTEX
  8
┌▓È_1
  5
321
 10
897.949
 20
-310.582
 30
0.000000
  70
    32
  0
VERTEX
  8
┌▓È_1
  5
322
 10
897.964
 20
-310.595
 30
0.000000
  70
    32
  0
VERTEX
  8
┌▓È_1
  5
323
 10
897.978
 20
-310.608
 30
0.000000
  70
    32
  0
VERTEX
  8
┌▓È_1
  5
324
 10
897.993
 20
-310.622
 30
0.000000
  70
    32
  0
VERTEX
  8
┌▓È_1
  5
325
 10
898.007
 20
-310.635
 30
0.000000
  70
    32
  0
VERTEX
  8
┌▓È_1
  5
326
 10
898.022
 20
-310.648
 30
0.000000
  70
    32
  0
VERTEX
  8
┌▓È_1
  5
327
 10
898.036
 20
-310.661
 30
0.000000
  70
    32
  0
VERTEX
  8
┌▓È_1
  5
328
 10
898.051
 20
-310.674
 30
0.000000
  70
    32
  0
VERTEX
  8
┌▓È_1
  5
329
 10
898.065
 20
-310.687
 30
0.000000
  70
    32
  0
VERTEX
  8
┌▓È_1
  5
32A
 10
898.080
 20
-310.700
 30
0.000000
  70
    32
  0
VERTEX
  8
┌▓È_1
  5
32B
 10
898.094
 20
-310.713
 30
0.000000
  70
    32
  0
VERTEX
  8
┌▓È_1
  5
32C
 10
898.109
 20
-310.726
 30
0.000000
  70
    32
  0
VERTEX
  8
┌▓È_1
  5
32D
 10
898.124
 20
-310.739
 30
0.000000
  70
    32
  0
VERTEX
  8
┌▓È_1
  5
32E
 10
898.138
 20
-310.752
 30
0.000000
  70
    32
  0
VERTEX
  8
┌▓È_1
  5
32F
 10
898.153
 20
-310.765
 30
0.000000
  70
    32
  0
VERTEX
  8
┌▓È_1
  5
330
 10
898.167
 20
-310.778
 30
0.000000
  70
    32
  0
VERTEX
  8
┌▓È_1
  5
331
 10
898.182
 20
-310.791
 30
0.000000
  70
    32
  0
VERTEX
  8
┌▓È_1
  5
332
 10
898.196
 20
-310.804
 30
0.000000
  70
    32
  0
VERTEX
  8
┌▓È_1
  5
333
 10
898.211
 20
-310.817
 30
0.000000
  70
    32
  0
VERTEX
  8
┌▓È_1
  5
334
 10
898.226
 20
-310.830
 30
0.000000
  70
    32
  0
VERTEX
  8
┌▓È_1
  5
335
 10
898.240
 20
-310.843
 30
0.000000
  70
    32
  0
VERTEX
  8
┌▓È_1
  5
336
 10
898.255
 20
-310.856
 30
0.000000
  70
    32
  0
VERTEX
  8
┌▓È_1
  5
337
 10
898.270
 20
-310.868
 30
0.000000
  70
    32
  0
VERTEX
  8
┌▓È_1
  5
338
 10
898.284
 20
-310.881
 30
0.000000
  70
    32
  0
VERTEX
  8
┌▓È_1
  5
339
 10
898.299
 20
-310.894
 30
0.000000
  70
    32
  0
VERTEX
  8
┌▓È_1
  5
33A
 10
898.313
 20
-310.907
 30
0.000000
  70
    32
  0
VERTEX
  8
┌▓È_1
  5
33B
 10
898.328
 20
-310.920
 30
0.000000
  70
    32
  0
VERTEX
  8
┌▓È_1
  5
33C
 10
898.343
 20
-310.933
 30
0.000000
  70
    32
  0
VERTEX
  8
┌▓È_1
  5
33D
 10
898.357
 20
-310.945
 30
0.000000
  70
    32
  0
VERTEX
  8
┌▓È_1
  5
33E
 10
898.372
 20
-310.958
 30
0.000000
  70
    32
  0
VERTEX
  8
┌▓È_1
  5
33F
 10
898.387
 20
-310.971
 30
0.000000
  70
    32
  0
VERTEX
  8
┌▓È_1
  5
340
 10
898.402
 20
-310.984
 30
0.000000
  70
    32
  0
VERTEX
  8
┌▓È_1
  5
341
 10
898.416
 20
-310.996
 30
0.000000
  70
    32
  0
VERTEX
  8
┌▓È_1
  5
342
 10
898.431
 20
-311.009
 30
0.000000
  70
    32
  0
VERTEX
  8
┌▓È_1
  5
343
 10
898.446
 20
-311.022
 30
0.000000
  70
    32
  0
VERTEX
  8
┌▓È_1
  5
344
 10
898.461
 20
-311.034
 30
0.000000
  70
    32
  0
VERTEX
  8
┌▓È_1
  5
345
 10
898.475
 20
-311.047
 30
0.000000
  70
    32
  0
VERTEX
  8
┌▓È_1
  5
346
 10
898.490
 20
-311.060
 30
0.000000
  70
    32
  0
VERTEX
  8
┌▓È_1
  5
347
 10
898.505
 20
-311.072
 30
0.000000
  70
    32
  0
VERTEX
  8
┌▓È_1
  5
348
 10
898.520
 20
-311.085
 30
0.000000
  70
    32
  0
VERTEX
  8
┌▓È_1
  5
349
 10
898.534
 20
-311.097
 30
0.000000
  70
    32
  0
VERTEX
  8
┌▓È_1
  5
34A
 10
898.549
 20
-311.110
 30
0.000000
  70
    32
  0
VERTEX
  8
┌▓È_1
  5
34B
 10
898.564
 20
-311.122
 30
0.000000
  70
    32
  0
VERTEX
  8
┌▓È_1
  5
34C
 10
898.579
 20
-311.135
 30
0.000000
  70
    32
  0
VERTEX
  8
┌▓È_1
  5
34D
 10
898.594
 20
-311.147
 30
0.000000
  70
    32
  0
VERTEX
  8
┌▓È_1
  5
34E
 10
898.609
 20
-311.160
 30
0.000000
  70
    32
  0
VERTEX
  8
┌▓È_1
  5
34F
 10
898.623
 20
-311.172
 30
0.000000
  70
    32
  0
VERTEX
  8
┌▓È_1
  5
350
 10
898.638
 20
-311.185
 30
0.000000
  70
    32
  0
VERTEX
  8
┌▓È_1
  5
351
 10
898.653
 20
-311.197
 30
0.000000
  70
    32
  0
VERTEX
  8
┌▓È_1
  5
352
 10
898.668
 20
-311.209
 30
0.000000
  70
    32
  0
VERTEX
  8
┌▓È_1
  5
353
 10
898.683
 20
-311.222
 30
0.000000
  70
    32
  0
VERTEX
  8
┌▓È_1
  5
354
 10
898.698
 20
-311.234
 30
0.000000
  70
    32
  0
VERTEX
  8
┌▓È_1
  5
355
 10
898.713
 20
-311.246
 30
0.000000
  70
    32
  0
VERTEX
  8
┌▓È_1
  5
356
 10
898.728
 20
-311.259
 30
0.000000
  70
    32
  0
VERTEX
  8
┌▓È_1
  5
357
 10
898.743
 20
-311.271
 30
0.000000
  70
    32
  0
VERTEX
  8
┌▓È_1
  5
358
 10
898.758
 20
-311.283
 30
0.000000
  70
    32
  0
VERTEX
  8
┌▓È_1
  5
359
 10
898.773
 20
-311.295
 30
0.000000
  70
    32
  0
VERTEX
  8
┌▓È_1
  5
35A
 10
898.788
 20
-311.307
 30
0.000000
  70
    32
  0
VERTEX
  8
┌▓È_1
  5
35B
 10
898.803
 20
-311.320
 30
0.000000
  70
    32
  0
VERTEX
  8
┌▓È_1
  5
35C
 10
898.818
 20
-311.332
 30
0.000000
  70
    32
  0
VERTEX
  8
┌▓È_1
  5
35D
 10
898.833
 20
-311.344
 30
0.000000
  70
    32
  0
VERTEX
  8
┌▓È_1
  5
35E
 10
898.848
 20
-311.356
 30
0.000000
  70
    32
  0
VERTEX
  8
┌▓È_1
  5
35F
 10
898.863
 20
-311.368
 30
0.000000
  70
    32
  0
VERTEX
  8
┌▓È_1
  5
360
 10
898.878
 20
-311.380
 30
0.000000
  70
    32
  0
VERTEX
  8
┌▓È_1
  5
361
 10
898.893
 20
-311.392
 30
0.000000
  70
    32
  0
VERTEX
  8
┌▓È_1
  5
362
 10
898.908
 20
-311.404
 30
0.000000
  70
    32
  0
VERTEX
  8
┌▓È_1
  5
363
 10
898.924
 20
-311.416
 30
0.000000
  70
    32
  0
VERTEX
  8
┌▓È_1
  5
364
 10
898.939
 20
-311.428
 30
0.000000
  70
    32
  0
VERTEX
  8
┌▓È_1
  5
365
 10
898.954
 20
-311.440
 30
0.000000
  70
    32
  0
VERTEX
  8
┌▓È_1
  5
366
 10
898.969
 20
-311.451
 30
0.000000
  70
    32
  0
VERTEX
  8
┌▓È_1
  5
367
 10
898.984
 20
-311.463
 30
0.000000
  70
    32
  0
VERTEX
  8
┌▓È_1
  5
368
 10
898.999
 20
-311.475
 30
0.000000
  70
    32
  0
VERTEX
  8
┌▓È_1
  5
369
 10
899.015
 20
-311.487
 30
0.000000
  70
    32
  0
VERTEX
  8
┌▓È_1
  5
36A
 10
899.030
 20
-311.499
 30
0.000000
  70
    32
  0
VERTEX
  8
┌▓È_1
  5
36B
 10
899.045
 20
-311.510
 30
0.000000
  70
    32
  0
VERTEX
  8
┌▓È_1
  5
36C
 10
899.060
 20
-311.522
 30
0.000000
  70
    32
  0
VERTEX
  8
┌▓È_1
  5
36D
 10
899.076
 20
-311.534
 30
0.000000
  70
    32
  0
VERTEX
  8
┌▓È_1
  5
36E
 10
899.091
 20
-311.545
 30
0.000000
  70
    32
  0
VERTEX
  8
┌▓È_1
  5
36F
 10
899.106
 20
-311.557
 30
0.000000
  70
    32
  0
VERTEX
  8
┌▓È_1
  5
370
 10
899.122
 20
-311.568
 30
0.000000
  70
    32
  0
VERTEX
  8
┌▓È_1
  5
371
 10
899.137
 20
-311.580
 30
0.000000
  70
    32
  0
VERTEX
  8
┌▓È_1
  5
372
 10
899.152
 20
-311.591
 30
0.000000
  70
    32
  0
VERTEX
  8
┌▓È_1
  5
373
 10
899.168
 20
-311.603
 30
0.000000
  70
    32
  0
VERTEX
  8
┌▓È_1
  5
374
 10
899.183
 20
-311.614
 30
0.000000
  70
    32
  0
VERTEX
  8
┌▓È_1
  5
375
 10
899.199
 20
-311.626
 30
0.000000
  70
    32
  0
VERTEX
  8
┌▓È_1
  5
376
 10
899.214
 20
-311.637
 30
0.000000
  70
    32
  0
VERTEX
  8
┌▓È_1
  5
377
 10
899.230
 20
-311.649
 30
0.000000
  70
    32
  0
VERTEX
  8
┌▓È_1
  5
378
 10
899.245
 20
-311.660
 30
0.000000
  70
    32
  0
VERTEX
  8
┌▓È_1
  5
379
 10
899.261
 20
-311.671
 30
0.000000
  70
    32
  0
VERTEX
  8
┌▓È_1
  5
37A
 10
899.276
 20
-311.682
 30
0.000000
  70
    32
  0
VERTEX
  8
┌▓È_1
  5
37B
 10
899.292
 20
-311.694
 30
0.000000
  70
    32
  0
VERTEX
  8
┌▓È_1
  5
37C
 10
899.307
 20
-311.705
 30
0.000000
  70
    32
  0
VERTEX
  8
┌▓È_1
  5
37D
 10
899.323
 20
-311.716
 30
0.000000
  70
    32
  0
VERTEX
  8
┌▓È_1
  5
37E
 10
899.338
 20
-311.727
 30
0.000000
  70
    32
  0
VERTEX
  8
┌▓È_1
  5
37F
 10
899.354
 20
-311.738
 30
0.000000
  70
    32
  0
VERTEX
  8
┌▓È_1
  5
380
 10
899.369
 20
-311.749
 30
0.000000
  70
    32
  0
VERTEX
  8
┌▓È_1
  5
381
 10
899.385
 20
-311.760
 30
0.000000
  70
    32
  0
VERTEX
  8
┌▓È_1
  5
382
 10
899.401
 20
-311.771
 30
0.000000
  70
    32
  0
VERTEX
  8
┌▓È_1
  5
383
 10
899.416
 20
-311.782
 30
0.000000
  70
    32
  0
VERTEX
  8
┌▓È_1
  5
384
 10
899.432
 20
-311.793
 30
0.000000
  70
    32
  0
VERTEX
  8
┌▓È_1
  5
385
 10
899.448
 20
-311.804
 30
0.000000
  70
    32
  0
VERTEX
  8
┌▓È_1
  5
386
 10
899.464
 20
-311.815
 30
0.000000
  70
    32
  0
VERTEX
  8
┌▓È_1
  5
387
 10
899.479
 20
-311.825
 30
0.000000
  70
    32
  0
VERTEX
  8
┌▓È_1
  5
388
 10
899.495
 20
-311.836
 30
0.000000
  70
    32
  0
VERTEX
  8
┌▓È_1
  5
389
 10
899.511
 20
-311.847
 30
0.000000
  70
    32
  0
VERTEX
  8
┌▓È_1
  5
38A
 10
899.527
 20
-311.857
 30
0.000000
  70
    32
  0
VERTEX
  8
┌▓È_1
  5
38B
 10
899.543
 20
-311.868
 30
0.000000
  70
    32
  0
VERTEX
  8
┌▓È_1
  5
38C
 10
899.559
 20
-311.879
 30
0.000000
  70
    32
  0
VERTEX
  8
┌▓È_1
  5
38D
 10
899.574
 20
-311.889
 30
0.000000
  70
    32
  0
VERTEX
  8
┌▓È_1
  5
38E
 10
899.590
 20
-311.900
 30
0.000000
  70
    32
  0
VERTEX
  8
┌▓È_1
  5
38F
 10
899.606
 20
-311.910
 30
0.000000
  70
    32
  0
VERTEX
  8
┌▓È_1
  5
390
 10
899.622
 20
-311.921
 30
0.000000
  70
    32
  0
VERTEX
  8
┌▓È_1
  5
391
 10
899.638
 20
-311.931
 30
0.000000
  70
    32
  0
VERTEX
  8
┌▓È_1
  5
392
 10
899.654
 20
-311.941
 30
0.000000
  70
    32
  0
VERTEX
  8
┌▓È_1
  5
393
 10
899.670
 20
-311.952
 30
0.000000
  70
    32
  0
VERTEX
  8
┌▓È_1
  5
394
 10
899.686
 20
-311.962
 30
0.000000
  70
    32
  0
VERTEX
  8
┌▓È_1
  5
395
 10
899.702
 20
-311.972
 30
0.000000
  70
    32
  0
VERTEX
  8
┌▓È_1
  5
396
 10
899.718
 20
-311.982
 30
0.000000
  70
    32
  0
VERTEX
  8
┌▓È_1
  5
397
 10
899.734
 20
-311.993
 30
0.000000
  70
    32
  0
VERTEX
  8
┌▓È_1
  5
398
 10
899.751
 20
-312.003
 30
0.000000
  70
    32
  0
VERTEX
  8
┌▓È_1
  5
399
 10
899.767
 20
-312.013
 30
0.000000
  70
    32
  0
VERTEX
  8
┌▓È_1
  5
39A
 10
899.783
 20
-312.023
 30
0.000000
  70
    32
  0
VERTEX
  8
┌▓È_1
  5
39B
 10
899.799
 20
-312.033
 30
0.000000
  70
    32
  0
VERTEX
  8
┌▓È_1
  5
39C
 10
899.815
 20
-312.043
 30
0.000000
  70
    32
  0
VERTEX
  8
┌▓È_1
  5
39D
 10
899.832
 20
-312.053
 30
0.000000
  70
    32
  0
VERTEX
  8
┌▓È_1
  5
39E
 10
899.848
 20
-312.062
 30
0.000000
  70
    32
  0
VERTEX
  8
┌▓È_1
  5
39F
 10
899.864
 20
-312.072
 30
0.000000
  70
    32
  0
SEQEND
  8
┌▓È_1
  5
3A0
  0
POLYLINE
  8
┌▓È_1
  5
3A1
  62
5
  66
     1
 10
0.000000
 20
0.000000
 30
0.000000
  70
     8
  0
VERTEX
  8
┌▓È_1
  5
3A2
 10
901.840
 20
-312.939
 30
0.000000
  70
    32
  0
VERTEX
  8
┌▓È_1
  5
3A3
 10
901.861
 20
-312.946
 30
0.000000
  70
    32
  0
VERTEX
  8
┌▓È_1
  5
3A4
 10
901.883
 20
-312.953
 30
0.000000
  70
    32
  0
VERTEX
  8
┌▓È_1
  5
3A5
 10
901.905
 20
-312.960
 30
0.000000
  70
    32
  0
VERTEX
  8
┌▓È_1
  5
3A6
 10
901.926
 20
-312.967
 30
0.000000
  70
    32
  0
VERTEX
  8
┌▓È_1
  5
3A7
 10
901.948
 20
-312.973
 30
0.000000
  70
    32
  0
VERTEX
  8
┌▓È_1
  5
3A8
 10
901.969
 20
-312.980
 30
0.000000
  70
    32
  0
VERTEX
  8
┌▓È_1
  5
3A9
 10
901.991
 20
-312.987
 30
0.000000
  70
    32
  0
VERTEX
  8
┌▓È_1
  5
3AA
 10
902.013
 20
-312.993
 30
0.000000
  70
    32
  0
VERTEX
  8
┌▓È_1
  5
3AB
 10
902.034
 20
-313.000
 30
0.000000
  70
    32
  0
VERTEX
  8
┌▓È_1
  5
3AC
 10
902.056
 20
-313.006
 30
0.000000
  70
    32
  0
VERTEX
  8
┌▓È_1
  5
3AD
 10
902.078
 20
-313.013
 30
0.000000
  70
    32
  0
VERTEX
  8
┌▓È_1
  5
3AE
 10
902.099
 20
-313.020
 30
0.000000
  70
    32
  0
VERTEX
  8
┌▓È_1
  5
3AF
 10
902.121
 20
-313.026
 30
0.000000
  70
    32
  0
VERTEX
  8
┌▓È_1
  5
3B0
 10
902.143
 20
-313.032
 30
0.000000
  70
    32
  0
VERTEX
  8
┌▓È_1
  5
3B1
 10
902.165
 20
-313.039
 30
0.000000
  70
    32
  0
VERTEX
  8
┌▓È_1
  5
3B2
 10
902.187
 20
-313.045
 30
0.000000
  70
    32
  0
VERTEX
  8
┌▓È_1
  5
3B3
 10
902.208
 20
-313.052
 30
0.000000
  70
    32
  0
VERTEX
  8
┌▓È_1
  5
3B4
 10
902.230
 20
-313.058
 30
0.000000
  70
    32
  0
VERTEX
  8
┌▓È_1
  5
3B5
 10
902.252
 20
-313.064
 30
0.000000
  70
    32
  0
VERTEX
  8
┌▓È_1
  5
3B6
 10
902.274
 20
-313.070
 30
0.000000
  70
    32
  0
VERTEX
  8
┌▓È_1
  5
3B7
 10
902.296
 20
-313.077
 30
0.000000
  70
    32
  0
VERTEX
  8
┌▓È_1
  5
3B8
 10
902.318
 20
-313.083
 30
0.000000
  70
    32
  0
VERTEX
  8
┌▓È_1
  5
3B9
 10
902.340
 20
-313.089
 30
0.000000
  70
    32
  0
VERTEX
  8
┌▓È_1
  5
3BA
 10
902.361
 20
-313.095
 30
0.000000
  70
    32
  0
VERTEX
  8
┌▓È_1
  5
3BB
 10
902.383
 20
-313.101
 30
0.000000
  70
    32
  0
VERTEX
  8
┌▓È_1
  5
3BC
 10
902.405
 20
-313.108
 30
0.000000
  70
    32
  0
VERTEX
  8
┌▓È_1
  5
3BD
 10
902.427
 20
-313.114
 30
0.000000
  70
    32
  0
VERTEX
  8
┌▓È_1
  5
3BE
 10
902.449
 20
-313.120
 30
0.000000
  70
    32
  0
VERTEX
  8
┌▓È_1
  5
3BF
 10
902.471
 20
-313.126
 30
0.000000
  70
    32
  0
VERTEX
  8
┌▓È_1
  5
3C0
 10
902.493
 20
-313.132
 30
0.000000
  70
    32
  0
VERTEX
  8
┌▓È_1
  5
3C1
 10
902.515
 20
-313.138
 30
0.000000
  70
    32
  0
VERTEX
  8
┌▓È_1
  5
3C2
 10
902.537
 20
-313.144
 30
0.000000
  70
    32
  0
VERTEX
  8
┌▓È_1
  5
3C3
 10
902.559
 20
-313.149
 30
0.000000
  70
    32
  0
VERTEX
  8
┌▓È_1
  5
3C4
 10
902.581
 20
-313.155
 30
0.000000
  70
    32
  0
VERTEX
  8
┌▓È_1
  5
3C5
 10
902.604
 20
-313.161
 30
0.000000
  70
    32
  0
VERTEX
  8
┌▓È_1
  5
3C6
 10
902.626
 20
-313.167
 30
0.000000
  70
    32
  0
VERTEX
  8
┌▓È_1
  5
3C7
 10
902.648
 20
-313.173
 30
0.000000
  70
    32
  0
VERTEX
  8
┌▓È_1
  5
3C8
 10
902.670
 20
-313.179
 30
0.000000
  70
    32
  0
VERTEX
  8
┌▓È_1
  5
3C9
 10
902.692
 20
-313.184
 30
0.000000
  70
    32
  0
VERTEX
  8
┌▓È_1
  5
3CA
 10
902.714
 20
-313.190
 30
0.000000
  70
    32
  0
VERTEX
  8
┌▓È_1
  5
3CB
 10
902.736
 20
-313.196
 30
0.000000
  70
    32
  0
VERTEX
  8
┌▓È_1
  5
3CC
 10
902.758
 20
-313.202
 30
0.000000
  70
    32
  0
VERTEX
  8
┌▓È_1
  5
3CD
 10
902.781
 20
-313.207
 30
0.000000
  70
    32
  0
VERTEX
  8
┌▓È_1
  5
3CE
 10
902.803
 20
-313.213
 30
0.000000
  70
    32
  0
VERTEX
  8
┌▓È_1
  5
3CF
 10
902.825
 20
-313.219
 30
0.000000
  70
    32
  0
VERTEX
  8
┌▓È_1
  5
3D0
 10
902.847
 20
-313.224
 30
0.000000
  70
    32
  0
VERTEX
  8
┌▓È_1
  5
3D1
 10
902.869
 20
-313.230
 30
0.000000
  70
    32
  0
VERTEX
  8
┌▓È_1
  5
3D2
 10
902.892
 20
-313.235
 30
0.000000
  70
    32
  0
VERTEX
  8
┌▓È_1
  5
3D3
 10
902.914
 20
-313.241
 30
0.000000
  70
    32
  0
VERTEX
  8
┌▓È_1
  5
3D4
 10
902.936
 20
-313.246
 30
0.000000
  70
    32
  0
VERTEX
  8
┌▓È_1
  5
3D5
 10
902.958
 20
-313.252
 30
0.000000
  70
    32
  0
VERTEX
  8
┌▓È_1
  5
3D6
 10
902.981
 20
-313.257
 30
0.000000
  70
    32
  0
VERTEX
  8
┌▓È_1
  5
3D7
 10
903.003
 20
-313.263
 30
0.000000
  70
    32
  0
VERTEX
  8
┌▓È_1
  5
3D8
 10
903.025
 20
-313.268
 30
0.000000
  70
    32
  0
VERTEX
  8
┌▓È_1
  5
3D9
 10
903.048
 20
-313.274
 30
0.000000
  70
    32
  0
VERTEX
  8
┌▓È_1
  5
3DA
 10
903.070
 20
-313.279
 30
0.000000
  70
    32
  0
VERTEX
  8
┌▓È_1
  5
3DB
 10
903.092
 20
-313.285
 30
0.000000
  70
    32
  0
VERTEX
  8
┌▓È_1
  5
3DC
 10
903.115
 20
-313.290
 30
0.000000
  70
    32
  0
VERTEX
  8
┌▓È_1
  5
3DD
 10
903.137
 20
-313.295
 30
0.000000
  70
    32
  0
VERTEX
  8
┌▓È_1
  5
3DE
 10
903.159
 20
-313.301
 30
0.000000
  70
    32
  0
VERTEX
  8
┌▓È_1
  5
3DF
 10
903.182
 20
-313.306
 30
0.000000
  70
    32
  0
VERTEX
  8
┌▓È_1
  5
3E0
 10
903.204
 20
-313.311
 30
0.000000
  70
    32
  0
VERTEX
  8
┌▓È_1
  5
3E1
 10
903.227
 20
-313.316
 30
0.000000
  70
    32
  0
VERTEX
  8
┌▓È_1
  5
3E2
 10
903.249
 20
-313.322
 30
0.000000
  70
    32
  0
VERTEX
  8
┌▓È_1
  5
3E3
 10
903.271
 20
-313.327
 30
0.000000
  70
    32
  0
VERTEX
  8
┌▓È_1
  5
3E4
 10
903.294
 20
-313.332
 30
0.000000
  70
    32
  0
VERTEX
  8
┌▓È_1
  5
3E5
 10
903.316
 20
-313.337
 30
0.000000
  70
    32
  0
VERTEX
  8
┌▓È_1
  5
3E6
 10
903.339
 20
-313.343
 30
0.000000
  70
    32
  0
VERTEX
  8
┌▓È_1
  5
3E7
 10
903.361
 20
-313.348
 30
0.000000
  70
    32
  0
VERTEX
  8
┌▓È_1
  5
3E8
 10
903.384
 20
-313.353
 30
0.000000
  70
    32
  0
VERTEX
  8
┌▓È_1
  5
3E9
 10
903.406
 20
-313.358
 30
0.000000
  70
    32
  0
VERTEX
  8
┌▓È_1
  5
3EA
 10
903.429
 20
-313.363
 30
0.000000
  70
    32
  0
VERTEX
  8
┌▓È_1
  5
3EB
 10
903.451
 20
-313.368
 30
0.000000
  70
    32
  0
VERTEX
  8
┌▓È_1
  5
3EC
 10
903.474
 20
-313.373
 30
0.000000
  70
    32
  0
VERTEX
  8
┌▓È_1
  5
3ED
 10
903.496
 20
-313.379
 30
0.000000
  70
    32
  0
VERTEX
  8
┌▓È_1
  5
3EE
 10
903.519
 20
-313.384
 30
0.000000
  70
    32
  0
VERTEX
  8
┌▓È_1
  5
3EF
 10
903.541
 20
-313.389
 30
0.000000
  70
    32
  0
VERTEX
  8
┌▓È_1
  5
3F0
 10
903.564
 20
-313.394
 30
0.000000
  70
    32
  0
VERTEX
  8
┌▓È_1
  5
3F1
 10
903.586
 20
-313.399
 30
0.000000
  70
    32
  0
VERTEX
  8
┌▓È_1
  5
3F2
 10
903.609
 20
-313.404
 30
0.000000
  70
    32
  0
VERTEX
  8
┌▓È_1
  5
3F3
 10
903.631
 20
-313.409
 30
0.000000
  70
    32
  0
VERTEX
  8
┌▓È_1
  5
3F4
 10
903.654
 20
-313.414
 30
0.000000
  70
    32
  0
VERTEX
  8
┌▓È_1
  5
3F5
 10
903.676
 20
-313.419
 30
0.000000
  70
    32
  0
VERTEX
  8
┌▓È_1
  5
3F6
 10
903.699
 20
-313.424
 30
0.000000
  70
    32
  0
VERTEX
  8
┌▓È_1
  5
3F7
 10
903.721
 20
-313.429
 30
0.000000
  70
    32
  0
VERTEX
  8
┌▓È_1
  5
3F8
 10
903.744
 20
-313.434
 30
0.000000
  70
    32
  0
VERTEX
  8
┌▓È_1
  5
3F9
 10
903.767
 20
-313.439
 30
0.000000
  70
    32
  0
VERTEX
  8
┌▓È_1
  5
3FA
 10
903.789
 20
-313.444
 30
0.000000
  70
    32
  0
VERTEX
  8
┌▓È_1
  5
3FB
 10
903.812
 20
-313.448
 30
0.000000
  70
    32
  0
VERTEX
  8
┌▓È_1
  5
3FC
 10
903.834
 20
-313.453
 30
0.000000
  70
    32
  0
VERTEX
  8
┌▓È_1
  5
3FD
 10
903.857
 20
-313.458
 30
0.000000
  70
    32
  0
VERTEX
  8
┌▓È_1
  5
3FE
 10
903.879
 20
-313.463
 30
0.000000
  70
    32
  0
VERTEX
  8
┌▓È_1
  5
3FF
 10
903.902
 20
-313.468
 30
0.000000
  70
    32
  0
VERTEX
  8
┌▓È_1
  5
400
 10
903.925
 20
-313.473
 30
0.000000
  70
    32
  0
VERTEX
  8
┌▓È_1
  5
401
 10
903.947
 20
-313.478
 30
0.000000
  70
    32
  0
VERTEX
  8
┌▓È_1
  5
402
 10
903.970
 20
-313.483
 30
0.000000
  70
    32
  0
VERTEX
  8
┌▓È_1
  5
403
 10
903.993
 20
-313.487
 30
0.000000
  70
    32
  0
VERTEX
  8
┌▓È_1
  5
404
 10
904.015
 20
-313.492
 30
0.000000
  70
    32
  0
VERTEX
  8
┌▓È_1
  5
405
 10
904.038
 20
-313.497
 30
0.000000
  70
    32
  0
VERTEX
  8
┌▓È_1
  5
406
 10
904.061
 20
-313.502
 30
0.000000
  70
    32
  0
VERTEX
  8
┌▓È_1
  5
407
 10
904.083
 20
-313.507
 30
0.000000
  70
    32
  0
VERTEX
  8
┌▓È_1
  5
408
 10
904.106
 20
-313.512
 30
0.000000
  70
    32
  0
VERTEX
  8
┌▓È_1
  5
409
 10
904.128
 20
-313.516
 30
0.000000
  70
    32
  0
VERTEX
  8
┌▓È_1
  5
40A
 10
904.151
 20
-313.521
 30
0.000000
  70
    32
  0
VERTEX
  8
┌▓È_1
  5
40B
 10
904.174
 20
-313.526
 30
0.000000
  70
    32
  0
VERTEX
  8
┌▓È_1
  5
40C
 10
904.196
 20
-313.531
 30
0.000000
  70
    32
  0
VERTEX
  8
┌▓È_1
  5
40D
 10
904.219
 20
-313.535
 30
0.000000
  70
    32
  0
VERTEX
  8
┌▓È_1
  5
40E
 10
904.242
 20
-313.540
 30
0.000000
  70
    32
  0
VERTEX
  8
┌▓È_1
  5
40F
 10
904.264
 20
-313.545
 30
0.000000
  70
    32
  0
VERTEX
  8
┌▓È_1
  5
410
 10
904.287
 20
-313.550
 30
0.000000
  70
    32
  0
VERTEX
  8
┌▓È_1
  5
411
 10
904.310
 20
-313.555
 30
0.000000
  70
    32
  0
VERTEX
  8
┌▓È_1
  5
412
 10
904.332
 20
-313.559
 30
0.000000
  70
    32
  0
VERTEX
  8
┌▓È_1
  5
413
 10
904.355
 20
-313.564
 30
0.000000
  70
    32
  0
VERTEX
  8
┌▓È_1
  5
414
 10
904.378
 20
-313.569
 30
0.000000
  70
    32
  0
VERTEX
  8
┌▓È_1
  5
415
 10
904.401
 20
-313.574
 30
0.000000
  70
    32
  0
VERTEX
  8
┌▓È_1
  5
416
 10
904.423
 20
-313.578
 30
0.000000
  70
    32
  0
VERTEX
  8
┌▓È_1
  5
417
 10
904.446
 20
-313.583
 30
0.000000
  70
    32
  0
VERTEX
  8
┌▓È_1
  5
418
 10
904.469
 20
-313.588
 30
0.000000
  70
    32
  0
VERTEX
  8
┌▓È_1
  5
419
 10
904.491
 20
-313.592
 30
0.000000
  70
    32
  0
VERTEX
  8
┌▓È_1
  5
41A
 10
904.514
 20
-313.597
 30
0.000000
  70
    32
  0
VERTEX
  8
┌▓È_1
  5
41B
 10
904.537
 20
-313.602
 30
0.000000
  70
    32
  0
VERTEX
  8
┌▓È_1
  5
41C
 10
904.559
 20
-313.607
 30
0.000000
  70
    32
  0
VERTEX
  8
┌▓È_1
  5
41D
 10
904.582
 20
-313.611
 30
0.000000
  70
    32
  0
VERTEX
  8
┌▓È_1
  5
41E
 10
904.605
 20
-313.616
 30
0.000000
  70
    32
  0
VERTEX
  8
┌▓È_1
  5
41F
 10
904.627
 20
-313.621
 30
0.000000
  70
    32
  0
VERTEX
  8
┌▓È_1
  5
420
 10
904.650
 20
-313.625
 30
0.000000
  70
    32
  0
VERTEX
  8
┌▓È_1
  5
421
 10
904.673
 20
-313.630
 30
0.000000
  70
    32
  0
SEQEND
  8
┌▓È_1
  5
422
  0
POLYLINE
  8
┌▓È_1
  5
423
  62
5
  66
     1
 10
0.000000
 20
0.000000
 30
0.000000
  70
     8
  0
VERTEX
  8
┌▓È_1
  5
424
 10
900.220
 20
-310.340
 30
0.000000
  70
    32
  0
VERTEX
  8
┌▓È_1
  5
425
 10
900.226
 20
-310.346
 30
0.000000
  70
    32
  0
VERTEX
  8
┌▓È_1
  5
426
 10
900.231
 20
-310.352
 30
0.000000
  70
    32
  0
VERTEX
  8
┌▓È_1
  5
427
 10
900.236
 20
-310.358
 30
0.000000
  70
    32
  0
VERTEX
  8
┌▓È_1
  5
428
 10
900.241
 20
-310.364
 30
0.000000
  70
    32
  0
VERTEX
  8
┌▓È_1
  5
429
 10
900.247
 20
-310.370
 30
0.000000
  70
    32
  0
VERTEX
  8
┌▓È_1
  5
42A
 10
900.252
 20
-310.376
 30
0.000000
  70
    32
  0
VERTEX
  8
┌▓È_1
  5
42B
 10
900.257
 20
-310.382
 30
0.000000
  70
    32
  0
VERTEX
  8
┌▓È_1
  5
42C
 10
900.263
 20
-310.388
 30
0.000000
  70
    32
  0
VERTEX
  8
┌▓È_1
  5
42D
 10
900.268
 20
-310.393
 30
0.000000
  70
    32
  0
VERTEX
  8
┌▓È_1
  5
42E
 10
900.273
 20
-310.399
 30
0.000000
  70
    32
  0
VERTEX
  8
┌▓È_1
  5
42F
 10
900.278
 20
-310.405
 30
0.000000
  70
    32
  0
VERTEX
  8
┌▓È_1
  5
430
 10
900.284
 20
-310.411
 30
0.000000
  70
    32
  0
VERTEX
  8
┌▓È_1
  5
431
 10
900.289
 20
-310.417
 30
0.000000
  70
    32
  0
VERTEX
  8
┌▓È_1
  5
432
 10
900.294
 20
-310.423
 30
0.000000
  70
    32
  0
VERTEX
  8
┌▓È_1
  5
433
 10
900.300
 20
-310.429
 30
0.000000
  70
    32
  0
VERTEX
  8
┌▓È_1
  5
434
 10
900.305
 20
-310.435
 30
0.000000
  70
    32
  0
VERTEX
  8
┌▓È_1
  5
435
 10
900.310
 20
-310.440
 30
0.000000
  70
    32
  0
VERTEX
  8
┌▓È_1
  5
436
 10
900.315
 20
-310.446
 30
0.000000
  70
    32
  0
VERTEX
  8
┌▓È_1
  5
437
 10
900.321
 20
-310.452
 30
0.000000
  70
    32
  0
VERTEX
  8
┌▓È_1
  5
438
 10
900.326
 20
-310.458
 30
0.000000
  70
    32
  0
VERTEX
  8
┌▓È_1
  5
439
 10
900.331
 20
-310.464
 30
0.000000
  70
    32
  0
VERTEX
  8
┌▓È_1
  5
43A
 10
900.337
 20
-310.470
 30
0.000000
  70
    32
  0
VERTEX
  8
┌▓È_1
  5
43B
 10
900.342
 20
-310.476
 30
0.000000
  70
    32
  0
VERTEX
  8
┌▓È_1
  5
43C
 10
900.347
 20
-310.482
 30
0.000000
  70
    32
  0
VERTEX
  8
┌▓È_1
  5
43D
 10
900.352
 20
-310.487
 30
0.000000
  70
    32
  0
VERTEX
  8
┌▓È_1
  5
43E
 10
900.358
 20
-310.493
 30
0.000000
  70
    32
  0
VERTEX
  8
┌▓È_1
  5
43F
 10
900.363
 20
-310.499
 30
0.000000
  70
    32
  0
VERTEX
  8
┌▓È_1
  5
440
 10
900.368
 20
-310.505
 30
0.000000
  70
    32
  0
VERTEX
  8
┌▓È_1
  5
441
 10
900.374
 20
-310.511
 30
0.000000
  70
    32
  0
VERTEX
  8
┌▓È_1
  5
442
 10
900.379
 20
-310.517
 30
0.000000
  70
    32
  0
VERTEX
  8
┌▓È_1
  5
443
 10
900.384
 20
-310.522
 30
0.000000
  70
    32
  0
VERTEX
  8
┌▓È_1
  5
444
 10
900.390
 20
-310.528
 30
0.000000
  70
    32
  0
VERTEX
  8
┌▓È_1
  5
445
 10
900.395
 20
-310.534
 30
0.000000
  70
    32
  0
VERTEX
  8
┌▓È_1
  5
446
 10
900.400
 20
-310.540
 30
0.000000
  70
    32
  0
VERTEX
  8
┌▓È_1
  5
447
 10
900.405
 20
-310.546
 30
0.000000
  70
    32
  0
VERTEX
  8
┌▓È_1
  5
448
 10
900.411
 20
-310.552
 30
0.000000
  70
    32
  0
VERTEX
  8
┌▓È_1
  5
449
 10
900.416
 20
-310.558
 30
0.000000
  70
    32
  0
VERTEX
  8
┌▓È_1
  5
44A
 10
900.421
 20
-310.563
 30
0.000000
  70
    32
  0
VERTEX
  8
┌▓È_1
  5
44B
 10
900.427
 20
-310.569
 30
0.000000
  70
    32
  0
VERTEX
  8
┌▓È_1
  5
44C
 10
900.432
 20
-310.575
 30
0.000000
  70
    32
  0
VERTEX
  8
┌▓È_1
  5
44D
 10
900.437
 20
-310.581
 30
0.000000
  70
    32
  0
VERTEX
  8
┌▓È_1
  5
44E
 10
900.443
 20
-310.587
 30
0.000000
  70
    32
  0
VERTEX
  8
┌▓È_1
  5
44F
 10
900.448
 20
-310.592
 30
0.000000
  70
    32
  0
VERTEX
  8
┌▓È_1
  5
450
 10
900.453
 20
-310.598
 30
0.000000
  70
    32
  0
VERTEX
  8
┌▓È_1
  5
451
 10
900.459
 20
-310.604
 30
0.000000
  70
    32
  0
VERTEX
  8
┌▓È_1
  5
452
 10
900.464
 20
-310.610
 30
0.000000
  70
    32
  0
VERTEX
  8
┌▓È_1
  5
453
 10
900.469
 20
-310.616
 30
0.000000
  70
    32
  0
VERTEX
  8
┌▓È_1
  5
454
 10
900.475
 20
-310.621
 30
0.000000
  70
    32
  0
VERTEX
  8
┌▓È_1
  5
455
 10
900.480
 20
-310.627
 30
0.000000
  70
    32
  0
VERTEX
  8
┌▓È_1
  5
456
 10
900.485
 20
-310.633
 30
0.000000
  70
    32
  0
VERTEX
  8
┌▓È_1
  5
457
 10
900.491
 20
-310.639
 30
0.000000
  70
    32
  0
VERTEX
  8
┌▓È_1
  5
458
 10
900.496
 20
-310.644
 30
0.000000
  70
    32
  0
VERTEX
  8
┌▓È_1
  5
459
 10
900.501
 20
-310.650
 30
0.000000
  70
    32
  0
VERTEX
  8
┌▓È_1
  5
45A
 10
900.507
 20
-310.656
 30
0.000000
  70
    32
  0
VERTEX
  8
┌▓È_1
  5
45B
 10
900.512
 20
-310.662
 30
0.000000
  70
    32
  0
VERTEX
  8
┌▓È_1
  5
45C
 10
900.518
 20
-310.668
 30
0.000000
  70
    32
  0
VERTEX
  8
┌▓È_1
  5
45D
 10
900.523
 20
-310.673
 30
0.000000
  70
    32
  0
VERTEX
  8
┌▓È_1
  5
45E
 10
900.528
 20
-310.679
 30
0.000000
  70
    32
  0
VERTEX
  8
┌▓È_1
  5
45F
 10
900.534
 20
-310.685
 30
0.000000
  70
    32
  0
VERTEX
  8
┌▓È_1
  5
460
 10
900.539
 20
-310.690
 30
0.000000
  70
    32
  0
VERTEX
  8
┌▓È_1
  5
461
 10
900.544
 20
-310.696
 30
0.000000
  70
    32
  0
VERTEX
  8
┌▓È_1
  5
462
 10
900.550
 20
-310.702
 30
0.000000
  70
    32
  0
VERTEX
  8
┌▓È_1
  5
463
 10
900.555
 20
-310.708
 30
0.000000
  70
    32
  0
VERTEX
  8
┌▓È_1
  5
464
 10
900.561
 20
-310.713
 30
0.000000
  70
    32
  0
VERTEX
  8
┌▓È_1
  5
465
 10
900.566
 20
-310.719
 30
0.000000
  70
    32
  0
VERTEX
  8
┌▓È_1
  5
466
 10
900.571
 20
-310.725
 30
0.000000
  70
    32
  0
VERTEX
  8
┌▓È_1
  5
467
 10
900.577
 20
-310.730
 30
0.000000
  70
    32
  0
VERTEX
  8
┌▓È_1
  5
468
 10
900.582
 20
-310.736
 30
0.000000
  70
    32
  0
VERTEX
  8
┌▓È_1
  5
469
 10
900.588
 20
-310.742
 30
0.000000
  70
    32
  0
VERTEX
  8
┌▓È_1
  5
46A
 10
900.593
 20
-310.747
 30
0.000000
  70
    32
  0
VERTEX
  8
┌▓È_1
  5
46B
 10
900.598
 20
-310.753
 30
0.000000
  70
    32
  0
VERTEX
  8
┌▓È_1
  5
46C
 10
900.604
 20
-310.759
 30
0.000000
  70
    32
  0
VERTEX
  8
┌▓È_1
  5
46D
 10
900.609
 20
-310.764
 30
0.000000
  70
    32
  0
VERTEX
  8
┌▓È_1
  5
46E
 10
900.615
 20
-310.770
 30
0.000000
  70
    32
  0
VERTEX
  8
┌▓È_1
  5
46F
 10
900.620
 20
-310.776
 30
0.000000
  70
    32
  0
VERTEX
  8
┌▓È_1
  5
470
 10
900.626
 20
-310.781
 30
0.000000
  70
    32
  0
VERTEX
  8
┌▓È_1
  5
471
 10
900.631
 20
-310.787
 30
0.000000
  70
    32
  0
VERTEX
  8
┌▓È_1
  5
472
 10
900.636
 20
-310.793
 30
0.000000
  70
    32
  0
VERTEX
  8
┌▓È_1
  5
473
 10
900.642
 20
-310.798
 30
0.000000
  70
    32
  0
VERTEX
  8
┌▓È_1
  5
474
 10
900.647
 20
-310.804
 30
0.000000
  70
    32
  0
VERTEX
  8
┌▓È_1
  5
475
 10
900.653
 20
-310.809
 30
0.000000
  70
    32
  0
VERTEX
  8
┌▓È_1
  5
476
 10
900.658
 20
-310.815
 30
0.000000
  70
    32
  0
VERTEX
  8
┌▓È_1
  5
477
 10
900.664
 20
-310.821
 30
0.000000
  70
    32
  0
VERTEX
  8
┌▓È_1
  5
478
 10
900.669
 20
-310.826
 30
0.000000
  70
    32
  0
VERTEX
  8
┌▓È_1
  5
479
 10
900.675
 20
-310.832
 30
0.000000
  70
    32
  0
VERTEX
  8
┌▓È_1
  5
47A
 10
900.680
 20
-310.837
 30
0.000000
  70
    32
  0
VERTEX
  8
┌▓È_1
  5
47B
 10
900.686
 20
-310.843
 30
0.000000
  70
    32
  0
VERTEX
  8
┌▓È_1
  5
47C
 10
900.691
 20
-310.848
 30
0.000000
  70
    32
  0
VERTEX
  8
┌▓È_1
  5
47D
 10
900.697
 20
-310.854
 30
0.000000
  70
    32
  0
VERTEX
  8
┌▓È_1
  5
47E
 10
900.702
 20
-310.860
 30
0.000000
  70
    32
  0
VERTEX
  8
┌▓È_1
  5
47F
 10
900.708
 20
-310.865
 30
0.000000
  70
    32
  0
VERTEX
  8
┌▓È_1
  5
480
 10
900.713
 20
-310.871
 30
0.000000
  70
    32
  0
VERTEX
  8
┌▓È_1
  5
481
 10
900.719
 20
-310.876
 30
0.000000
  70
    32
  0
VERTEX
  8
┌▓È_1
  5
482
 10
900.724
 20
-310.882
 30
0.000000
  70
    32
  0
VERTEX
  8
┌▓È_1
  5
483
 10
900.730
 20
-310.887
 30
0.000000
  70
    32
  0
VERTEX
  8
┌▓È_1
  5
484
 10
900.735
 20
-310.893
 30
0.000000
  70
    32
  0
VERTEX
  8
┌▓È_1
  5
485
 10
900.741
 20
-310.898
 30
0.000000
  70
    32
  0
VERTEX
  8
┌▓È_1
  5
486
 10
900.746
 20
-310.904
 30
0.000000
  70
    32
  0
VERTEX
  8
┌▓È_1
  5
487
 10
900.752
 20
-310.909
 30
0.000000
  70
    32
  0
VERTEX
  8
┌▓È_1
  5
488
 10
900.757
 20
-310.914
 30
0.000000
  70
    32
  0
VERTEX
  8
┌▓È_1
  5
489
 10
900.763
 20
-310.920
 30
0.000000
  70
    32
  0
VERTEX
  8
┌▓È_1
  5
48A
 10
900.768
 20
-310.925
 30
0.000000
  70
    32
  0
VERTEX
  8
┌▓È_1
  5
48B
 10
900.774
 20
-310.931
 30
0.000000
  70
    32
  0
VERTEX
  8
┌▓È_1
  5
48C
 10
900.780
 20
-310.936
 30
0.000000
  70
    32
  0
VERTEX
  8
┌▓È_1
  5
48D
 10
900.785
 20
-310.942
 30
0.000000
  70
    32
  0
VERTEX
  8
┌▓È_1
  5
48E
 10
900.791
 20
-310.947
 30
0.000000
  70
    32
  0
VERTEX
  8
┌▓È_1
  5
48F
 10
900.796
 20
-310.952
 30
0.000000
  70
    32
  0
VERTEX
  8
┌▓È_1
  5
490
 10
900.802
 20
-310.958
 30
0.000000
  70
    32
  0
VERTEX
  8
┌▓È_1
  5
491
 10
900.808
 20
-310.963
 30
0.000000
  70
    32
  0
VERTEX
  8
┌▓È_1
  5
492
 10
900.813
 20
-310.968
 30
0.000000
  70
    32
  0
VERTEX
  8
┌▓È_1
  5
493
 10
900.819
 20
-310.974
 30
0.000000
  70
    32
  0
VERTEX
  8
┌▓È_1
  5
494
 10
900.824
 20
-310.979
 30
0.000000
  70
    32
  0
VERTEX
  8
┌▓È_1
  5
495
 10
900.830
 20
-310.985
 30
0.000000
  70
    32
  0
VERTEX
  8
┌▓È_1
  5
496
 10
900.836
 20
-310.990
 30
0.000000
  70
    32
  0
VERTEX
  8
┌▓È_1
  5
497
 10
900.841
 20
-310.995
 30
0.000000
  70
    32
  0
VERTEX
  8
┌▓È_1
  5
498
 10
900.847
 20
-311.000
 30
0.000000
  70
    32
  0
VERTEX
  8
┌▓È_1
  5
499
 10
900.853
 20
-311.006
 30
0.000000
  70
    32
  0
VERTEX
  8
┌▓È_1
  5
49A
 10
900.858
 20
-311.011
 30
0.000000
  70
    32
  0
VERTEX
  8
┌▓È_1
  5
49B
 10
900.864
 20
-311.016
 30
0.000000
  70
    32
  0
VERTEX
  8
┌▓È_1
  5
49C
 10
900.870
 20
-311.022
 30
0.000000
  70
    32
  0
VERTEX
  8
┌▓È_1
  5
49D
 10
900.875
 20
-311.027
 30
0.000000
  70
    32
  0
VERTEX
  8
┌▓È_1
  5
49E
 10
900.881
 20
-311.032
 30
0.000000
  70
    32
  0
VERTEX
  8
┌▓È_1
  5
49F
 10
900.887
 20
-311.037
 30
0.000000
  70
    32
  0
VERTEX
  8
┌▓È_1
  5
4A0
 10
900.892
 20
-311.042
 30
0.000000
  70
    32
  0
VERTEX
  8
┌▓È_1
  5
4A1
 10
900.898
 20
-311.048
 30
0.000000
  70
    32
  0
VERTEX
  8
┌▓È_1
  5
4A2
 10
900.904
 20
-311.053
 30
0.000000
  70
    32
  0
VERTEX
  8
┌▓È_1
  5
4A3
 10
900.909
 20
-311.058
 30
0.000000
  70
    32
  0
SEQEND
  8
┌▓È_1
  5
4A4
  0
LINE
  5
1ED
  8
┌▓È_1
 10
854.34716980070004
 20
-289.65834084900001
 30
0.0
 11
854.34716980070004
 21
-315.15834084900001
 31
0.0
  0
INSERT
  5
1EE
  8
0
  6
CONTINUOUS
  2
*U38
 10
0.0
 20
0.0
 30
0.0
  0
INSERT
  5
1EF
  8
0
  6
CONTINUOUS
  2
*U39
 10
0.0
 20
0.0
 30
0.0
  0
LINE
  5
1F0
  8
┌▓È_1
 62
     5
 10
906.44684213380003
 20
-309.39020247550002
 30
0.0
 11
908.44577546709991
 21
-309.39020247550002
 31
0.0
  0
LINE
  5
1F1
  8
┌▓È_1
 62
     5
 10
892.14437116670001
 20
-310.83020247550002
 30
0.0
 11
892.14437116670001
 21
-311.23020247549999
 31
0.0
  0
LINE
  5
1F2
  8
┌▓È_1
 62
     5
 10
890.54437116669999
 20
-310.83020247550002
 30
0.0
 11
892.14437116670001
 21
-310.83020247550002
 31
0.0
  0
LINE
  5
1F3
  8
┌▓È_1
 62
     5
 10
912.04684213380006
 20
-314.0302024755
 30
0.0
 11
911.72454559559981
 21
-312.9102024755
 31
0.0
  0
LINE
  5
1F4
  8
┌▓È_1
 62
     5
 10
911.31016433229979
 20
-311.4702024755
 30
0.0
 11
913.64684213380008
 21
-311.4702024755
 31
0.0
  0
ARC
  5
1F5
  8
┌▓È_1
 62
     5
 10
899.47285601519991
 20
-309.23020247549999
 30
0.0
 40
4.4000000000000004
 50
322.48761197969998
 51
0.0
  0
LINE
  5
1F6
  8
┌▓È_1
 62
     5
 10
906.44684213380003
 20
-312.9102024755
 30
0.0
 11
909.47830880050003
 21
-312.9102024755
 31
0.0
  0
LINE
  5
1F7
  8
┌▓È_1
 62
     5
 10
910.71161361860004
 20
-309.39020247550002
 30
0.0
 11
910.59449821839985
 21
-308.98321936309998
 31
0.0
  0
LINE
  5
1F8
  8
┌▓È_1
 62
     5
 10
904.67285601520007
 20
-308.0302024755
 30
0.0
 11
897.47285601520002
 21
-308.0302024755
 31
0.0
  0
LINE
  5
1F9
  8
┌▓È_1
 62
     5
 10
888.54437116669988
 20
-312.0302024755
 30
0.0
 11
890.54437116669999
 21
-312.0302024755
 31
0.0
  0
ENDSEC
  0
EOF
