  0
SECTION
  2
HEADER
  9
$ACADVER
  1
AC1009
  9
$INSBASE
 10
0.0
 20
0.0
 30
0.0
  9
$EXTMIN
 10
561.90075898489988
 20
-411.79310816499998
 30
0.0
  9
$EXTMAX
 10
1111.9007589849
 20
-31.793108165
 30
0.0
  9
$LIMMIN
 10
0.0
 20
0.0
  9
$LIMMAX
 10
0.0
 20
0.0
  9
$ORTHOMODE
 70
     0
  9
$REGENMODE
 70
     1
  9
$FILLMODE
 70
     1
  9
$QTEXTMODE
 70
     0
  9
$MIRRTEXT
 70
     1
  9
$DRAGMODE
 70
     2
  9
$LTSCALE
 40
1.0
  9
$OSMODE
 70
    31
  9
$ATTMODE
 70
     1
  9
$TEXTSIZE
 40
0.0
  9
$TRACEWID
 40
0.05
  9
$TEXTSTYLE
  7
STANDARD
  9
$CLAYER
  8
0
  9
$CELTYPE
  6
CONTINUOUS
  9
$CECOLOR
 62
   256
  9
$DIMSCALE
 40
1.0
  9
$DIMASZ
 40
0.18
  9
$DIMEXO
 40
0.0625
  9
$DIMDLI
 40
0.38
  9
$DIMRND
 40
0.0
  9
$DIMDLE
 40
0.0
  9
$DIMEXE
 40
0.18
  9
$DIMTP
 40
0.0
  9
$DIMTM
 40
0.0
  9
$DIMTXT
 40
0.18
  9
$DIMCEN
 40
0.09
  9
$DIMTSZ
 40
0.0
  9
$DIMTOL
 70
     0
  9
$DIMLIM
 70
     0
  9
$DIMTIH
 70
     1
  9
$DIMTOH
 70
     1
  9
$DIMSE1
 70
     0
  9
$DIMSE2
 70
     0
  9
$DIMTAD
 70
     0
  9
$DIMZIN
 70
     0
  9
$DIMBLK
  1

  9
$DIMASO
 70
     1
  9
$DIMSHO
 70
     1
  9
$DIMPOST
  1

  9
$DIMAPOST
  1

  9
$DIMALT
 70
     0
  9
$DIMALTD
 70
     2
  9
$DIMALTF
 40
25.399999999999999
  9
$DIMLFAC
 40
1.0
  9
$DIMTOFL
 70
     0
  9
$DIMTVP
 40
0.0
  9
$DIMTIX
 70
     0
  9
$DIMSOXD
 70
     0
  9
$DIMSAH
 70
     0
  9
$DIMBLK1
  1

  9
$DIMBLK2
  1

  9
$DIMSTYLE
  2
STANDARD
  9
$DIMCLRD
 70
     0
  9
$DIMCLRE
 70
     0
  9
$DIMCLRT
 70
     0
  9
$DIMTFAC
 40
1.0
  9
$DIMGAP
 40
0.09
  9
$LUNITS
 70
     2
  9
$LUPREC
 70
     4
  9
$SKETCHINC
 40
0.1
  9
$FILLETRAD
 40
0.0
  9
$AUNITS
 70
     0
  9
$AUPREC
 70
     0
  9
$MENU
  1
acad
  9
$ELEVATION
 40
0.0
  9
$PELEVATION
 40
0.0
  9
$THICKNESS
 40
0.0
  9
$LIMCHECK
 70
     0
  9
$BLIPMODE
 70
     0
  9
$CHAMFERA
 40
0.0
  9
$CHAMFERB
 40
0.0
  9
$SKPOLY
 70
     0
  9
$TDCREATE
 40
2454862.7661903128
  9
$TDUPDATE
 40
2454862.7663393291
  9
$TDINDWG
 40
0.0001569676
  9
$TDUSRTIMER
 40
0.0001564236
  9
$USRTIMER
 70
     1
  9
$ANGBASE
 50
0.0
  9
$ANGDIR
 70
     0
  9
$PDMODE
 70
     3
  9
$PDSIZE
 40
-1.0
  9
$PLINEWID
 40
0.0
  9
$COORDS
 70
     2
  9
$SPLFRAME
 70
     0
  9
$SPLINETYPE
 70
     6
  9
$SPLINESEGS
 70
     8
  9
$ATTDIA
 70
     0
  9
$ATTREQ
 70
     1
  9
$HANDLING
 70
     1
  9
$HANDSEED
  5
4D8
  9
$SURFTAB1
 70
     6
  9
$SURFTAB2
 70
     6
  9
$SURFTYPE
 70
     6
  9
$SURFU
 70
     6
  9
$SURFV
 70
     6
  9
$UCSNAME
  2

  9
$UCSORG
 10
0.0
 20
0.0
 30
0.0
  9
$UCSXDIR
 10
1.0
 20
0.0
 30
0.0
  9
$UCSYDIR
 10
0.0
 20
1.0
 30
0.0
  9
$PUCSNAME
  2

  9
$PUCSORG
 10
0.0
 20
0.0
 30
0.0
  9
$PUCSXDIR
 10
1.0
 20
0.0
 30
0.0
  9
$PUCSYDIR
 10
0.0
 20
1.0
 30
0.0
  9
$USERI1
 70
     0
  9
$USERI2
 70
     0
  9
$USERI3
 70
     0
  9
$USERI4
 70
     0
  9
$USERI5
 70
     0
  9
$USERR1
 40
0.0
  9
$USERR2
 40
0.0
  9
$USERR3
 40
0.0
  9
$USERR4
 40
0.0
  9
$USERR5
 40
0.0
  9
$WORLDVIEW
 70
     1
  9
$SHADEDGE
 70
     3
  9
$SHADEDIF
 70
    70
  9
$TILEMODE
 70
     1
  9
$MAXACTVP
 70
    16
  9
$PLIMCHECK
 70
     0
  9
$PEXTMIN
 10
1.0000000000000000E+020
 20
1.0000000000000000E+020
 30
1.0000000000000000E+020
  9
$PEXTMAX
 10
-1.0000000000000000E+020
 20
-1.0000000000000000E+020
 30
-1.0000000000000000E+020
  9
$PLIMMIN
 10
0.0
 20
0.0
  9
$PLIMMAX
 10
12.0
 20
9.0
  9
$UNITMODE
 70
     0
  9
$VISRETAIN
 70
     0
  9
$PLINEGEN
 70
     1
  9
$PSLTSCALE
 70
     0
  0
ENDSEC
  0
SECTION
  2
TABLES
  0
TABLE
  2
VPORT
 70
     2
  0
VPORT
  2
*ACTIVE
 70
     0
 10
0.0
 20
0.0
 11
1.0
 21
1.0
 12
836.90075898489988
 22
-221.79310816500001
 13
0.0
 23
0.0
 14
1.0
 24
1.0
 15
0.0
 25
0.0
 16
0.0
 26
0.0
 36
1.0
 17
0.0
 27
0.0
 37
0.0
 40
397.98585584749179
 41
1.3903818953323901
 42
50.0
 43
0.0
 44
0.0
 50
0.0
 51
0.0
 71
     0
 72
   100
 73
     1
 74
     1
 75
     0
 76
     0
 77
     0
 78
     0
  0
ENDTAB
  0
TABLE
  2
LTYPE
 70
    11
  0
LTYPE
  2
CONTINUOUS
 70
     0
  3
Solid line
 72
    65
 73
     0
 40
0.0
  0
LTYPE
  2
DOT
 70
     0
  3
. . . . . . . . 
 72
    65
 73
     2
 40
1.0
 49
0.0
 49
-1.0
  0
LTYPE
  2
DASHED
 70
     0
  3
___  ___  ___  ___  
 72
    65
 73
     2
 40
4.0
 49
3.0
 49
-1.0
  0
LTYPE
  2
HIDDEN
 70
     0
  3
__ __ __ __ 
 72
    65
 73
     2
 40
3.0
 49
2.0
 49
-1.0
  0
LTYPE
  2
STITCH
 70
     0
  3
_ _ _ _ 
 72
    65
 73
     2
 40
2.0
 49
1.0
 49
-1.0
  0
LTYPE
  2
CENTER
 70
     0
  3
______  __  ______  __  
 72
    65
 73
     4
 40
43.0
 49
40.0
 49
-1.0
 49
1.0
 49
-1.0
  0
LTYPE
  2
DASHDOT
 70
     0
  3
____ . ____ . 
 72
    65
 73
     4
 40
32.0
 49
30.0
 49
-1.0
 49
0.0
 49
-1.0
  0
LTYPE
  2
BORDER
 70
     0
  3
__ . __ . 
 72
    65
 73
     4
 40
22.0
 49
20.0
 49
-1.0
 49
0.0
 49
-1.0
  0
LTYPE
  2
CUTTING
 70
     0
  3
________   ___   ___   
 72
    65
 73
     6
 40
45.0
 49
40.0
 49
-1.0
 49
1.0
 49
-1.0
 49
1.0
 49
-1.0
  0
LTYPE
  2
PHANTOM
 70
     0
  3
______  __  __  
 72
    65
 73
     6
 40
35.0
 49
30.0
 49
-1.0
 49
1.0
 49
-1.0
 49
1.0
 49
-1.0
  0
LTYPE
  2
DIVIDE
 70
     0
  3
____ . . ____ . . 
 72
    65
 73
     6
 40
23.0
 49
20.0
 49
-1.0
 49
0.0
 49
-1.0
 49
0.0
 49
-1.0
  0
ENDTAB
  0
TABLE
  2
LAYER
 70
     4
  0
LAYER
  2
0
 70
     0
 62
     7
  6
CONTINUOUS
  0
LAYER
  2
Éíû@É³
 70
     0
 62
     7
  6
CONTINUOUS
  0
LAYER
  2
┌▓È_1
 70
     0
 62
     7
  6
CONTINUOUS
  0
LAYER
  2
Defpoints
 70
     0
 62
     7
  6
CONTINUOUS
  0
ENDTAB
  0
TABLE
  2
STYLE
 70
     1
  0
STYLE
  2
STANDARD
 70
     0
 40
0.0
 41
1.0
 50
0.0
 71
     0
 42
0.0
  3
txt
  4
extfont
  0
ENDTAB
  0
TABLE
  2
VIEW
 70
     0
  0
ENDTAB
  0
TABLE
  2
UCS
 70
     0
  0
ENDTAB
  0
TABLE
  2
APPID
 70
     2
  0
APPID
  2
ACAD
 70
     0
  0
APPID
  2
DCO15
 70
     0
  0
ENDTAB
  0
TABLE
  2
DIMSTYLE
 70
     4
  0
DIMSTYLE
  2
STANDARD
 70
     0
  3

  4

  5

  6

  7

 40
1.0
 41
0.18
 42
0.0625
 43
0.38
 44
0.18
 45
0.0
 46
0.0
 47
0.0
 48
0.0
140
0.18
141
0.09
142
0.0
143
25.399999999999999
144
1.0
145
0.0
146
1.0
147
0.09
 71
     0
 72
     0
 73
     1
 74
     1
 75
     0
 76
     0
 77
     0
 78
     0
170
     0
171
     2
172
     0
173
     0
174
     0
175
     0
176
     0
177
     0
178
     0
  0
DIMSTYLE
  2
VELDIM0
 70
     0
  3

  4

  5

  6

  7

 40
1.0
 41
6.0
 42
0.0625
 43
0.38
 44
0.5
 45
0.0
 46
3.0
 47
0.0
 48
0.0
140
5.9972220420999998
141
0.09
142
0.0
143
25.399999999999999
144
1.0
145
0.0
146
1.0
147
0.09
 71
     0
 72
     0
 73
     0
 74
     0
 75
     0
 76
     0
 77
     0
 78
     8
170
     0
171
     2
172
     0
173
     0
174
     0
175
     0
176
     0
177
     0
178
     0
  0
DIMSTYLE
  2
VELDIM1
 70
     0
  3

  4

  5

  6

  7

 40
1.0
 41
6.0
 42
0.0625
 43
0.38
 44
1.25
 45
0.0
 46
5.0
 47
0.0
 48
0.0
140
5.9972220420999998
141
0.09
142
0.0
143
25.399999999999999
144
1.0
145
0.0
146
1.0
147
0.09
 71
     0
 72
     0
 73
     0
 74
     0
 75
     0
 76
     0
 77
     0
 78
     8
170
     0
171
     2
172
     0
173
     0
174
     0
175
     0
176
     0
177
     0
178
     0
  0
DIMSTYLE
  2
VELDIM2
 70
     0
  3

  4

  5

  6

  7

 40
1.0
 41
6.0
 42
0.0625
 43
0.38
 44
1.0
 45
0.0
 46
6.0
 47
0.0
 48
0.0
140
5.9972220420999998
141
0.09
142
0.0
143
25.399999999999999
144
1.0
145
0.0
146
1.0
147
0.09
 71
     0
 72
     0
 73
     0
 74
     0
 75
     0
 76
     0
 77
     0
 78
     8
170
     0
171
     2
172
     0
173
     0
174
     0
175
     0
176
     0
177
     0
178
     0
  0
ENDTAB
  0
ENDSEC
  0
SECTION
  2
BLOCKS
  0
BLOCK
  8
0
  2
$MODEL_SPACE
 70
     0
 10
0.0
 20
0.0
 30
0.0
  3
$MODEL_SPACE
  1

  0
ENDBLK
  5
E
  8
0
  0
BLOCK
 67
     1
  8
0
  2
$PAPER_SPACE
 70
     0
 10
0.0
 20
0.0
 30
0.0
  3
$PAPER_SPACE
  1

  0
ENDBLK
  5
10
 67
     1
  8
0
  0
BLOCK
  8
0
  2
*D0
 70
     1
 10
0.0
 20
0.0
 30
0.0
  3
*D0
  1

  0
TEXT
  5
31
  8
0
 62
     0
 10
789.18684530460007
 20
-299.82519432110001
 30
0.0
 40
5.9972220420999998
  1
11
  0
LINE
  5
32
  8
0
 62
     0
 10
798.21462297639994
 20
-320.8835276225999
 30
0.0
 11
798.21462297639994
 21
-301.38352762260001
 31
0.0
  0
LINE
  5
33
  8
0
 62
     0
 10
787.21462297639994
 20
-321.88352762260001
 30
0.0
 11
787.21462297639994
 21
-301.38352762260001
 31
0.0
  0
LINE
  5
34
  8
0
 62
     0
 10
798.21462297639994
 20
-301.88352762260001
 30
0.0
 11
798.21462297639994
 21
-301.88352762260001
 31
0.0
  0
LINE
  5
35
  8
0
 62
     0
 10
798.21462297639994
 20
-301.88352762260001
 30
0.0
 11
787.21462297639994
 21
-301.88352762260001
 31
0.0
  0
LINE
  5
36
  8
0
 62
     0
 10
787.21462297639994
 20
-301.88352762260001
 30
0.0
 11
798.21462297639994
 21
-301.88352762260001
 31
0.0
  0
LINE
  5
37
  8
0
 62
     0
 10
787.21462297639994
 20
-301.88352762260001
 30
0.0
 11
787.21462297639994
 21
-301.88352762260001
 31
0.0
  0
LINE
  5
38
  8
0
 62
     0
 10
787.21462297639994
 20
-301.88352762260001
 30
0.0
 11
784.21462297639994
 21
-301.88352762260001
 31
0.0
  0
SOLID
  5
39
  8
0
 62
     0
 10
787.21462297639994
 20
-301.88352762260001
 30
0.0
 11
781.21462297639994
 21
-303.38352762260001
 31
0.0
 12
781.21462297639994
 22
-300.3835276225999
 32
0.0
 13
782.71462297639994
 23
-301.88352762260001
 33
0.0
  0
LINE
  5
3A
  8
0
 62
     0
 10
798.21462297639994
 20
-301.88352762260001
 30
0.0
 11
801.21462297639994
 21
-301.88352762260001
 31
0.0
  0
SOLID
  5
3B
  8
0
 62
     0
 10
798.21462297639994
 20
-301.88352762260001
 30
0.0
 11
804.21462297639982
 21
-300.3835276225999
 31
0.0
 12
804.21462297639982
 22
-303.38352762260001
 32
0.0
 13
802.71462297639994
 23
-301.88352762260001
 33
0.0
  0
ENDBLK
  5
3C
  8
0
  0
BLOCK
  8
0
  2
*D1
 70
     1
 10
0.0
 20
0.0
 30
0.0
  3
*D1
  1

  0
TEXT
  5
41
  8
0
 62
     0
 10
756.18684530460007
 20
-299.82519432110001
 30
0.0
 40
5.9972220420999998
  1
55
  0
LINE
  5
42
  8
0
 62
     0
 10
787.21462297639994
 20
-321.88352762260001
 30
0.0
 11
787.21462297639994
 21
-301.38352762260001
 31
0.0
  0
LINE
  5
43
  8
0
 62
     0
 10
732.21462297639994
 20
-321.88352762260001
 30
0.0
 11
732.21462297639994
 21
-301.38352762260001
 31
0.0
  0
LINE
  5
44
  8
0
 62
     0
 10
787.21462297639994
 20
-301.88352762260001
 30
0.0
 11
766.77017832000001
 21
-301.88352762260001
 31
0.0
  0
LINE
  5
45
  8
0
 62
     0
 10
787.21462297639994
 20
-301.88352762260001
 30
0.0
 11
752.65906763279986
 21
-301.88352762260001
 31
0.0
  0
LINE
  5
46
  8
0
 62
     0
 10
732.21462297639994
 20
-301.88352762260001
 30
0.0
 11
766.77017832000001
 21
-301.88352762260001
 31
0.0
  0
LINE
  5
47
  8
0
 62
     0
 10
732.21462297639994
 20
-301.88352762260001
 30
0.0
 11
752.65906763279986
 21
-301.88352762260001
 31
0.0
  0
LINE
  5
48
  8
0
 62
     0
 10
732.21462297639994
 20
-301.88352762260001
 30
0.0
 11
735.21462297639994
 21
-301.88352762260001
 31
0.0
  0
SOLID
  5
49
  8
0
 62
     0
 10
732.21462297639994
 20
-301.88352762260001
 30
0.0
 11
738.21462297639994
 21
-300.3835276225999
 31
0.0
 12
738.21462297639994
 22
-303.38352762260001
 32
0.0
 13
736.71462297639994
 23
-301.88352762260001
 33
0.0
  0
LINE
  5
4A
  8
0
 62
     0
 10
787.21462297639994
 20
-301.88352762260001
 30
0.0
 11
784.21462297639994
 21
-301.88352762260001
 31
0.0
  0
SOLID
  5
4B
  8
0
 62
     0
 10
787.21462297639994
 20
-301.88352762260001
 30
0.0
 11
781.21462297639994
 21
-303.38352762260001
 31
0.0
 12
781.21462297639994
 22
-300.3835276225999
 32
0.0
 13
782.71462297639994
 23
-301.88352762260001
 33
0.0
  0
ENDBLK
  5
4C
  8
0
  0
BLOCK
  8
0
  2
*D2
 70
     1
 10
0.0
 20
0.0
 30
0.0
  3
*D2
  1

  0
TEXT
  5
51
  8
0
 62
     0
 10
688.34123468569999
 20
-200.49496671899999
 30
0.0
 40
5.9972220420999998
  1
90%%d
 50
316.42582044990002
  0
ARC
  5
52
  8
0
 62
     0
 10
652.71462297639994
 20
-245.61731668510001
 30
0.0
 40
54.072534486999999
 50
81.751281574799989
 51
90.0
  0
ARC
  5
53
  8
0
 62
     0
 10
652.71462297639994
 20
-245.61731668510001
 30
0.0
 40
54.072534486999999
 50
0.0
 51
8.2487184251999999
  0
SOLID
  5
54
  8
0
 62
     0
 10
706.78715746339992
 20
-245.61731668510001
 30
0.0
 11
708.28715746339981
 21
-251.61731668510001
 31
0.0
 12
705.28715746339992
 22
-251.61731668510001
 32
0.0
 13
706.78715746339992
 23
-250.11731668510001
 33
0.0
  0
SOLID
  5
55
  8
0
 62
     0
 10
652.71462297639994
 20
-191.54478219809999
 30
0.0
 11
646.71462297639994
 21
-193.04478219809999
 31
0.0
 12
646.71462297639994
 22
-190.04478219809999
 32
0.0
 13
648.21462297639994
 23
-191.54478219809999
 33
0.0
  0
ARC
  5
56
  8
0
 62
     0
 10
652.71462297639994
 20
-245.61731668510001
 30
0.0
 40
54.072534486999999
 50
0.0
 51
36.918471124299998
  0
ARC
  5
57
  8
0
 62
     0
 10
652.71462297639994
 20
-245.61731668510001
 30
0.0
 40
54.072534486999999
 50
55.9331697756
 51
90.0
  0
LINE
  5
58
  8
0
 62
     0
 10
794.21462297639994
 20
-245.61731668510001
 30
0.0
 11
702.78715746339992
 21
-245.61731668510001
 31
0.0
  0
LINE
  5
59
  8
0
 62
     0
 10
652.71462297639994
 20
-104.11731668509999
 30
0.0
 11
652.71462297639994
 21
-195.54478219809999
 31
0.0
  0
ENDBLK
  5
5A
  8
0
  0
BLOCK
  8
0
  2
*D3
 70
     1
 10
0.0
 20
0.0
 30
0.0
  3
*D3
  1

  0
TEXT
  5
67
  8
0
 62
     0
 10
625.15628967489999
 20
-333.41130529439999
 30
0.0
 40
5.9972220420999998
  1
16
 50
90.0
  0
LINE
  5
68
  8
0
 62
     0
 10
646.21462297639994
 20
-321.88352762260001
 30
0.0
 11
627.21462297639994
 21
-321.88352762260001
 31
0.0
  0
LINE
  5
69
  8
0
 62
     0
 10
646.21462297639994
 20
-337.8835276225999
 30
0.0
 11
627.21462297639994
 21
-337.8835276225999
 31
0.0
  0
LINE
  5
6A
  8
0
 62
     0
 10
628.21462297639994
 20
-321.88352762260001
 30
0.0
 11
628.21462297639994
 21
-322.82797227899999
 31
0.0
  0
LINE
  5
6B
  8
0
 62
     0
 10
628.21462297639994
 20
-321.88352762260001
 30
0.0
 11
628.21462297639994
 21
-336.93908296619998
 31
0.0
  0
LINE
  5
6C
  8
0
 62
     0
 10
628.21462297639994
 20
-337.8835276225999
 30
0.0
 11
628.21462297639994
 21
-322.82797227899999
 31
0.0
  0
LINE
  5
6D
  8
0
 62
     0
 10
628.21462297639994
 20
-337.8835276225999
 30
0.0
 11
628.21462297639994
 21
-336.93908296619998
 31
0.0
  0
LINE
  5
6E
  8
0
 62
     0
 10
628.21462297639994
 20
-337.8835276225999
 30
0.0
 11
628.21462297639994
 21
-343.88352762260001
 31
0.0
  0
SOLID
  5
6F
  8
0
 62
     0
 10
628.21462297639994
 20
-337.8835276225999
 30
0.0
 11
629.71462297639994
 21
-343.88352762260001
 31
0.0
 12
626.71462297639994
 22
-343.88352762260001
 32
0.0
 13
628.21462297639994
 23
-342.38352762260001
 33
0.0
  0
LINE
  5
70
  8
0
 62
     0
 10
628.21462297639994
 20
-321.88352762260001
 30
0.0
 11
628.21462297639994
 21
-315.88352762260001
 31
0.0
  0
SOLID
  5
71
  8
0
 62
     0
 10
628.21462297639994
 20
-321.88352762260001
 30
0.0
 11
626.71462297639994
 21
-315.88352762260001
 31
0.0
 12
629.71462297639994
 22
-315.88352762260001
 32
0.0
 13
628.21462297639994
 23
-317.38352762260001
 33
0.0
  0
ENDBLK
  5
72
  8
0
  0
BLOCK
  8
0
  2
*D4
 70
     1
 10
0.0
 20
0.0
 30
0.0
  3
*D4
  1

  0
TEXT
  5
76
  8
0
 62
     0
 10
657.50034507400005
 20
-78.058983383599994
 30
0.0
 40
5.9972220420999998
  1
4.5t
  0
LINE
  5
77
  8
0
 62
     0
 10
652.71462297639994
 20
-99.117316685099993
 30
0.0
 11
652.71462297639994
 21
-79.617316685100008
 31
0.0
  0
LINE
  5
78
  8
0
 62
     0
 10
648.21462297639994
 20
-99.117316685099993
 30
0.0
 11
648.21462297639994
 21
-79.617316685100008
 31
0.0
  0
LINE
  5
79
  8
0
 62
     0
 10
652.71462297639994
 20
-80.117316685099993
 30
0.0
 11
675.13923343300007
 21
-80.117316685099993
 31
0.0
  0
LINE
  5
7A
  8
0
 62
     0
 10
652.71462297639994
 20
-80.117316685099993
 30
0.0
 11
653.97256740210003
 21
-80.117316685099993
 31
0.0
  0
LINE
  5
7B
  8
0
 62
     0
 10
648.21462297639994
 20
-80.117316685099993
 30
0.0
 11
675.13923343300007
 21
-80.117316685099993
 31
0.0
  0
LINE
  5
7C
  8
0
 62
     0
 10
648.21462297639994
 20
-80.117316685099993
 30
0.0
 11
653.97256740210003
 21
-80.117316685099993
 31
0.0
  0
LINE
  5
7D
  8
0
 62
     0
 10
648.21462297639994
 20
-80.117316685099993
 30
0.0
 11
645.21462297639994
 21
-80.117316685099993
 31
0.0
  0
SOLID
  5
7E
  8
0
 62
     0
 10
648.21462297639994
 20
-80.117316685099993
 30
0.0
 11
642.21462297639994
 21
-81.617316685099993
 31
0.0
 12
642.21462297639994
 22
-78.617316685099993
 32
0.0
 13
643.71462297639994
 23
-80.117316685099993
 33
0.0
  0
LINE
  5
7F
  8
0
 62
     0
 10
652.71462297639994
 20
-80.117316685099993
 30
0.0
 11
655.71462297639994
 21
-80.117316685099993
 31
0.0
  0
SOLID
  5
80
  8
0
 62
     0
 10
652.71462297639994
 20
-80.117316685099993
 30
0.0
 11
658.71462297639994
 21
-78.617316685099993
 31
0.0
 12
658.71462297639994
 22
-81.617316685099993
 32
0.0
 13
657.21462297639994
 23
-80.117316685099993
 33
0.0
  0
ENDBLK
  5
81
  8
0
  0
BLOCK
  8
0
  2
*D5
 70
     1
 10
0.0
 20
0.0
 30
0.0
  3
*D5
  1

  0
TEXT
  5
85
  8
0
 62
     0
 10
815.15628967489999
 20
-349.60605379330002
 30
0.0
 40
5.9972220420999998
  1
8
 50
90.0
  0
LINE
  5
86
  8
0
 62
     0
 10
800.21462297639994
 20
-337.8835276225999
 30
0.0
 11
819.21462297639994
 21
-337.8835276225999
 31
0.0
  0
LINE
  5
87
  8
0
 62
     0
 10
796.21462297639994
 20
-329.88352762260001
 30
0.0
 11
819.21462297639994
 21
-329.88352762260001
 31
0.0
  0
LINE
  5
88
  8
0
 62
     0
 10
818.21462297639994
 20
-337.8835276225999
 30
0.0
 11
818.21462297639994
 21
-342.5504984497
 31
0.0
  0
LINE
  5
89
  8
0
 62
     0
 10
818.21462297639994
 20
-337.8835276225999
 30
0.0
 11
818.21462297639994
 21
-353.1338314651
 31
0.0
  0
LINE
  5
8A
  8
0
 62
     0
 10
818.21462297639994
 20
-329.88352762260001
 30
0.0
 11
818.21462297639994
 21
-342.5504984497
 31
0.0
  0
LINE
  5
8B
  8
0
 62
     0
 10
818.21462297639994
 20
-329.88352762260001
 30
0.0
 11
818.21462297639994
 21
-353.1338314651
 31
0.0
  0
LINE
  5
8C
  8
0
 62
     0
 10
818.21462297639994
 20
-329.88352762260001
 30
0.0
 11
818.21462297639994
 21
-323.88352762260001
 31
0.0
  0
SOLID
  5
8D
  8
0
 62
     0
 10
818.21462297639994
 20
-329.88352762260001
 30
0.0
 11
816.71462297639982
 21
-323.88352762260001
 31
0.0
 12
819.71462297639994
 22
-323.88352762260001
 32
0.0
 13
818.21462297639994
 23
-325.3835276225999
 33
0.0
  0
LINE
  5
8E
  8
0
 62
     0
 10
818.21462297639994
 20
-337.8835276225999
 30
0.0
 11
818.21462297639994
 21
-343.88352762260001
 31
0.0
  0
SOLID
  5
8F
  8
0
 62
     0
 10
818.21462297639994
 20
-337.8835276225999
 30
0.0
 11
819.71462297639994
 21
-343.88352762260001
 31
0.0
 12
816.71462297639982
 22
-343.88352762260001
 32
0.0
 13
818.21462297639994
 23
-342.38352762260001
 33
0.0
  0
ENDBLK
  5
90
  8
0
  0
BLOCK
  8
0
  2
*D6
 70
     1
 10
0.0
 20
0.0
 30
0.0
  3
*D6
  1

  0
TEXT
  5
94
  8
0
 62
     0
 10
815.15628967489999
 20
-313.73938712670002
 30
0.0
 40
5.9972220420999998
  1
8
 50
90.0
  0
LINE
  5
95
  8
0
 62
     0
 10
796.21462297639994
 20
-329.88352762260001
 30
0.0
 11
819.21462297639994
 21
-329.88352762260001
 31
0.0
  0
LINE
  5
96
  8
0
 62
     0
 10
800.21462297639994
 20
-321.88352762260001
 30
0.0
 11
819.21462297639994
 21
-321.88352762260001
 31
0.0
  0
LINE
  5
97
  8
0
 62
     0
 10
818.21462297639994
 20
-329.88352762260001
 30
0.0
 11
818.21462297639994
 21
-306.68383178300002
 31
0.0
  0
LINE
  5
98
  8
0
 62
     0
 10
818.21462297639994
 20
-329.88352762260001
 30
0.0
 11
818.21462297639994
 21
-317.2671647985
 31
0.0
  0
LINE
  5
99
  8
0
 62
     0
 10
818.21462297639994
 20
-321.88352762260001
 30
0.0
 11
818.21462297639994
 21
-306.68383178300002
 31
0.0
  0
LINE
  5
9A
  8
0
 62
     0
 10
818.21462297639994
 20
-321.88352762260001
 30
0.0
 11
818.21462297639994
 21
-317.2671647985
 31
0.0
  0
LINE
  5
9B
  8
0
 62
     0
 10
818.21462297639994
 20
-321.88352762260001
 30
0.0
 11
818.21462297639994
 21
-315.88352762260001
 31
0.0
  0
SOLID
  5
9C
  8
0
 62
     0
 10
818.21462297639994
 20
-321.88352762260001
 30
0.0
 11
816.71462297639982
 21
-315.88352762260001
 31
0.0
 12
819.71462297639994
 22
-315.88352762260001
 32
0.0
 13
818.21462297639994
 23
-317.38352762260001
 33
0.0
  0
LINE
  5
9D
  8
0
 62
     0
 10
818.21462297639994
 20
-329.88352762260001
 30
0.0
 11
818.21462297639994
 21
-335.8835276225999
 31
0.0
  0
SOLID
  5
9E
  8
0
 62
     0
 10
818.21462297639994
 20
-329.88352762260001
 30
0.0
 11
819.71462297639994
 21
-335.8835276225999
 31
0.0
 12
816.71462297639982
 22
-335.8835276225999
 32
0.0
 13
818.21462297639994
 23
-334.38352762260001
 33
0.0
  0
ENDBLK
  5
9F
  8
0
  0
BLOCK
  8
0
  2
*D7
 70
     1
 10
0.0
 20
0.0
 30
0.0
  3
*D7
  1

  0
TEXT
  5
A3
  8
0
 62
     0
 10
903.7954609338999
 20
-77.058983383599994
 30
0.0
 40
5.9972220420999998
  1
8
  0
LINE
  5
A4
  8
0
 62
     0
 10
896.11266985140003
 20
-98.117316685100008
 30
0.0
 11
896.11266985140003
 21
-79.117316685099993
 31
0.0
  0
LINE
  5
A5
  8
0
 62
     0
 10
888.11266985140003
 20
-102.11731668509999
 30
0.0
 11
888.11266985140003
 21
-79.117316685099993
 31
0.0
  0
LINE
  5
A6
  8
0
 62
     0
 10
896.11266985140003
 20
-80.117316685099993
 30
0.0
 11
910.85101627749987
 21
-80.117316685099993
 31
0.0
  0
LINE
  5
A7
  8
0
 62
     0
 10
896.11266985140003
 20
-80.117316685099993
 30
0.0
 11
900.26768326210004
 21
-80.117316685099993
 31
0.0
  0
LINE
  5
A8
  8
0
 62
     0
 10
888.11266985140003
 20
-80.117316685099993
 30
0.0
 11
910.85101627749987
 21
-80.117316685099993
 31
0.0
  0
LINE
  5
A9
  8
0
 62
     0
 10
888.11266985140003
 20
-80.117316685099993
 30
0.0
 11
900.26768326210004
 21
-80.117316685099993
 31
0.0
  0
LINE
  5
AA
  8
0
 62
     0
 10
888.11266985140003
 20
-80.117316685099993
 30
0.0
 11
882.11266985139991
 21
-80.117316685099993
 31
0.0
  0
SOLID
  5
AB
  8
0
 62
     0
 10
888.11266985140003
 20
-80.117316685099993
 30
0.0
 11
882.11266985139991
 21
-81.617316685099993
 31
0.0
 12
882.11266985139991
 22
-78.617316685099993
 32
0.0
 13
883.61266985140003
 23
-80.117316685099993
 33
0.0
  0
LINE
  5
AC
  8
0
 62
     0
 10
896.11266985140003
 20
-80.117316685099993
 30
0.0
 11
902.11266985140014
 21
-80.117316685099993
 31
0.0
  0
SOLID
  5
AD
  8
0
 62
     0
 10
896.11266985140003
 20
-80.117316685099993
 30
0.0
 11
902.11266985140014
 21
-78.617316685099993
 31
0.0
 12
902.11266985140014
 22
-81.617316685099993
 32
0.0
 13
900.61266985140003
 23
-80.117316685099993
 33
0.0
  0
ENDBLK
  5
AE
  8
0
  0
BLOCK
  8
0
  2
*D8
 70
     1
 10
0.0
 20
0.0
 30
0.0
  3
*D8
  1

  0
TEXT
  5
B2
  8
0
 62
     0
 10
869.01688312029989
 20
-77.058983383599994
 30
0.0
 40
5.9972220420999998
  1
8
  0
LINE
  5
B3
  8
0
 62
     0
 10
888.11266985140003
 20
-102.11731668509999
 30
0.0
 11
888.11266985140003
 21
-79.117316685099993
 31
0.0
  0
LINE
  5
B4
  8
0
 62
     0
 10
880.11266985140003
 20
-98.117316685100008
 30
0.0
 11
880.11266985140003
 21
-79.117316685099993
 31
0.0
  0
LINE
  5
B5
  8
0
 62
     0
 10
888.11266985140003
 20
-80.117316685099993
 30
0.0
 11
876.07243846389986
 21
-80.117316685099993
 31
0.0
  0
LINE
  5
B6
  8
0
 62
     0
 10
888.11266985140003
 20
-80.117316685099993
 30
0.0
 11
865.48910544839998
 21
-80.117316685099993
 31
0.0
  0
LINE
  5
B7
  8
0
 62
     0
 10
880.11266985140003
 20
-80.117316685099993
 30
0.0
 11
876.07243846389986
 21
-80.117316685099993
 31
0.0
  0
LINE
  5
B8
  8
0
 62
     0
 10
880.11266985140003
 20
-80.117316685099993
 30
0.0
 11
865.48910544839998
 21
-80.117316685099993
 31
0.0
  0
LINE
  5
B9
  8
0
 62
     0
 10
880.11266985140003
 20
-80.117316685099993
 30
0.0
 11
874.11266985139991
 21
-80.117316685099993
 31
0.0
  0
SOLID
  5
BA
  8
0
 62
     0
 10
880.11266985140003
 20
-80.117316685099993
 30
0.0
 11
874.11266985139991
 21
-81.617316685099993
 31
0.0
 12
874.11266985139991
 22
-78.617316685099993
 32
0.0
 13
875.61266985140003
 23
-80.117316685099993
 33
0.0
  0
LINE
  5
BB
  8
0
 62
     0
 10
888.11266985140003
 20
-80.117316685099993
 30
0.0
 11
894.11266985140003
 21
-80.117316685099993
 31
0.0
  0
SOLID
  5
BC
  8
0
 62
     0
 10
888.11266985140003
 20
-80.117316685099993
 30
0.0
 11
894.11266985140003
 21
-78.617316685099993
 31
0.0
 12
894.11266985140003
 22
-81.617316685099993
 32
0.0
 13
892.61266985140003
 23
-80.117316685099993
 33
0.0
  0
ENDBLK
  5
BD
  8
0
  0
BLOCK
  8
0
  2
*D9
 70
     1
 10
0.0
 20
0.0
 30
0.0
  3
*D9
  1

  0
TEXT
  5
D1
  8
0
 62
     0
 10
701.18684530459996
 20
-299.82519432110001
 30
0.0
 40
5.9972220420999998
  1
55
  0
LINE
  5
D2
  8
0
 62
     0
 10
732.21462297639994
 20
-321.88352762260001
 30
0.0
 11
732.21462297639994
 21
-301.38352762260001
 31
0.0
  0
LINE
  5
D3
  8
0
 62
     0
 10
677.21462297639994
 20
-321.88352762260001
 30
0.0
 11
677.21462297639994
 21
-301.38352762260001
 31
0.0
  0
LINE
  5
D4
  8
0
 62
     0
 10
732.21462297639994
 20
-301.88352762260001
 30
0.0
 11
711.77017832000001
 21
-301.88352762260001
 31
0.0
  0
LINE
  5
D5
  8
0
 62
     0
 10
732.21462297639994
 20
-301.88352762260001
 30
0.0
 11
697.65906763279986
 21
-301.88352762260001
 31
0.0
  0
LINE
  5
D6
  8
0
 62
     0
 10
677.21462297639994
 20
-301.88352762260001
 30
0.0
 11
711.77017832000001
 21
-301.88352762260001
 31
0.0
  0
LINE
  5
D7
  8
0
 62
     0
 10
677.21462297639994
 20
-301.88352762260001
 30
0.0
 11
697.65906763279986
 21
-301.88352762260001
 31
0.0
  0
LINE
  5
D8
  8
0
 62
     0
 10
677.21462297639994
 20
-301.88352762260001
 30
0.0
 11
680.21462297639994
 21
-301.88352762260001
 31
0.0
  0
SOLID
  5
D9
  8
0
 62
     0
 10
677.21462297639994
 20
-301.88352762260001
 30
0.0
 11
683.21462297639994
 21
-300.3835276225999
 31
0.0
 12
683.21462297639994
 22
-303.38352762260001
 32
0.0
 13
681.71462297639994
 23
-301.88352762260001
 33
0.0
  0
LINE
  5
DA
  8
0
 62
     0
 10
732.21462297639994
 20
-301.88352762260001
 30
0.0
 11
729.21462297639994
 21
-301.88352762260001
 31
0.0
  0
SOLID
  5
DB
  8
0
 62
     0
 10
732.21462297639994
 20
-301.88352762260001
 30
0.0
 11
726.21462297639994
 21
-303.38352762260001
 31
0.0
 12
726.21462297639994
 22
-300.3835276225999
 32
0.0
 13
727.71462297639994
 23
-301.88352762260001
 33
0.0
  0
ENDBLK
  5
DC
  8
0
  0
BLOCK
  8
0
  2
*D10
 70
     1
 10
0.0
 20
0.0
 30
0.0
  3
*D10
  1

  0
TEXT
  5
E0
  8
0
 62
     0
 10
884.58489217960005
 20
-63.183594284399987
 30
0.0
 40
5.9972220420999998
  1
16
  0
LINE
  5
E1
  8
0
 62
     0
 10
896.11266985140003
 20
-99.117316685099993
 30
0.0
 11
896.11266985140003
 21
-64.741927586000003
 31
0.0
  0
LINE
  5
E2
  8
0
 62
     0
 10
880.11266985140003
 20
-99.117316685099993
 30
0.0
 11
880.11266985140003
 21
-64.741927586000003
 31
0.0
  0
LINE
  5
E3
  8
0
 62
     0
 10
896.11266985140003
 20
-65.241927586000003
 30
0.0
 11
895.16822519499999
 21
-65.241927586000003
 31
0.0
  0
LINE
  5
E4
  8
0
 62
     0
 10
896.11266985140003
 20
-65.241927586000003
 30
0.0
 11
881.05711450779984
 21
-65.241927586000003
 31
0.0
  0
LINE
  5
E5
  8
0
 62
     0
 10
880.11266985140003
 20
-65.241927586000003
 30
0.0
 11
895.16822519499999
 21
-65.241927586000003
 31
0.0
  0
LINE
  5
E6
  8
0
 62
     0
 10
880.11266985140003
 20
-65.241927586000003
 30
0.0
 11
881.05711450779984
 21
-65.241927586000003
 31
0.0
  0
LINE
  5
E7
  8
0
 62
     0
 10
880.11266985140003
 20
-65.241927586000003
 30
0.0
 11
877.11266985140014
 21
-65.241927586000003
 31
0.0
  0
SOLID
  5
E8
  8
0
 62
     0
 10
880.11266985140003
 20
-65.241927586000003
 30
0.0
 11
874.11266985139991
 21
-66.741927586000003
 31
0.0
 12
874.11266985139991
 22
-63.741927586000003
 32
0.0
 13
875.61266985140003
 23
-65.241927586000003
 33
0.0
  0
LINE
  5
E9
  8
0
 62
     0
 10
896.11266985140003
 20
-65.241927586000003
 30
0.0
 11
899.11266985139991
 21
-65.241927586000003
 31
0.0
  0
SOLID
  5
EA
  8
0
 62
     0
 10
896.11266985140003
 20
-65.241927586000003
 30
0.0
 11
902.11266985140014
 21
-63.741927586000003
 31
0.0
 12
902.11266985140014
 22
-66.741927586000003
 32
0.0
 13
900.61266985140003
 23
-65.241927586000003
 33
0.0
  0
ENDBLK
  5
EB
  8
0
  0
BLOCK
  8
0
  2
*D11
 70
     1
 10
0.0
 20
0.0
 30
0.0
  3
*D11
  1

  0
TEXT
  5
EF
  8
0
 62
     0
 10
858.05433654989997
 20
-239.14509435689999
 30
0.0
 40
5.9972220420999998
  1
29
 50
90.0
  0
LINE
  5
F0
  8
0
 62
     0
 10
880.11266985140003
 20
-221.11731668510001
 30
0.0
 11
859.61266985140003
 21
-221.11731668510001
 31
0.0
  0
LINE
  5
F1
  8
0
 62
     0
 10
879.11266985140003
 20
-250.11731668510001
 30
0.0
 11
859.61266985140003
 21
-250.11731668510001
 31
0.0
  0
LINE
  5
F2
  8
0
 62
     0
 10
860.11266985140014
 20
-221.11731668510001
 30
0.0
 11
860.11266985140014
 21
-228.56176134149999
 31
0.0
  0
LINE
  5
F3
  8
0
 62
     0
 10
860.11266985140014
 20
-221.11731668510001
 30
0.0
 11
860.11266985140014
 21
-242.6728720287
 31
0.0
  0
LINE
  5
F4
  8
0
 62
     0
 10
860.11266985140014
 20
-250.11731668510001
 30
0.0
 11
860.11266985140014
 21
-228.56176134149999
 31
0.0
  0
LINE
  5
F5
  8
0
 62
     0
 10
860.11266985140014
 20
-250.11731668510001
 30
0.0
 11
860.11266985140014
 21
-242.6728720287
 31
0.0
  0
LINE
  5
F6
  8
0
 62
     0
 10
860.11266985140014
 20
-250.11731668510001
 30
0.0
 11
860.11266985140014
 21
-247.11731668510001
 31
0.0
  0
SOLID
  5
F7
  8
0
 62
     0
 10
860.11266985140014
 20
-250.11731668510001
 30
0.0
 11
858.61266985140003
 21
-244.11731668510001
 31
0.0
 12
861.61266985139991
 22
-244.11731668510001
 32
0.0
 13
860.11266985140014
 23
-245.61731668510001
 33
0.0
  0
LINE
  5
F8
  8
0
 62
     0
 10
860.11266985140014
 20
-221.11731668510001
 30
0.0
 11
860.11266985140014
 21
-224.11731668510001
 31
0.0
  0
SOLID
  5
F9
  8
0
 62
     0
 10
860.11266985140014
 20
-221.11731668510001
 30
0.0
 11
861.61266985139991
 21
-227.11731668510001
 31
0.0
 12
858.61266985140003
 22
-227.11731668510001
 32
0.0
 13
860.11266985140014
 23
-225.61731668510001
 33
0.0
  0
ENDBLK
  5
FA
  8
0
  0
BLOCK
  8
0
  2
*D12
 70
     1
 10
0.0
 20
0.0
 30
0.0
  3
*D12
  1

  0
TEXT
  5
FE
  8
0
 62
     0
 10
858.05433654989997
 20
-197.14509435689999
 30
0.0
 40
5.9972220420999998
  1
55
 50
90.0
  0
LINE
  5
FF
  8
0
 62
     0
 10
882.11266985139991
 20
-166.11731668510001
 30
0.0
 11
859.61266985140003
 21
-166.11731668510001
 31
0.0
  0
LINE
  5
100
  8
0
 62
     0
 10
880.11266985140003
 20
-221.11731668510001
 30
0.0
 11
859.61266985140003
 21
-221.11731668510001
 31
0.0
  0
LINE
  5
101
  8
0
 62
     0
 10
860.11266985140014
 20
-166.11731668510001
 30
0.0
 11
860.11266985140014
 21
-186.56176134149999
 31
0.0
  0
LINE
  5
102
  8
0
 62
     0
 10
860.11266985140014
 20
-166.11731668510001
 30
0.0
 11
860.11266985140014
 21
-200.6728720287
 31
0.0
  0
LINE
  5
103
  8
0
 62
     0
 10
860.11266985140014
 20
-221.11731668510001
 30
0.0
 11
860.11266985140014
 21
-186.56176134149999
 31
0.0
  0
LINE
  5
104
  8
0
 62
     0
 10
860.11266985140014
 20
-221.11731668510001
 30
0.0
 11
860.11266985140014
 21
-200.6728720287
 31
0.0
  0
LINE
  5
105
  8
0
 62
     0
 10
860.11266985140014
 20
-221.11731668510001
 30
0.0
 11
860.11266985140014
 21
-218.11731668510001
 31
0.0
  0
SOLID
  5
106
  8
0
 62
     0
 10
860.11266985140014
 20
-221.11731668510001
 30
0.0
 11
858.61266985140003
 21
-215.11731668510001
 31
0.0
 12
861.61266985139991
 22
-215.11731668510001
 32
0.0
 13
860.11266985140014
 23
-216.61731668510001
 33
0.0
  0
LINE
  5
107
  8
0
 62
     0
 10
860.11266985140014
 20
-166.11731668510001
 30
0.0
 11
860.11266985140014
 21
-169.11731668510001
 31
0.0
  0
SOLID
  5
108
  8
0
 62
     0
 10
860.11266985140014
 20
-166.11731668510001
 30
0.0
 11
861.61266985139991
 21
-172.11731668509989
 31
0.0
 12
858.61266985140003
 22
-172.11731668509989
 32
0.0
 13
860.11266985140014
 23
-170.61731668510001
 33
0.0
  0
ENDBLK
  5
109
  8
0
  0
BLOCK
  8
0
  2
*D13
 70
     1
 10
0.0
 20
0.0
 30
0.0
  3
*D13
  1

  0
TEXT
  5
10D
  8
0
 62
     0
 10
858.05433654989997
 20
-142.14509435689999
 30
0.0
 40
5.9972220420999998
  1
55
 50
90.0
  0
LINE
  5
10E
  8
0
 62
     0
 10
880.11266985140003
 20
-111.11731668509999
 30
0.0
 11
859.61266985140003
 21
-111.11731668509999
 31
0.0
  0
LINE
  5
10F
  8
0
 62
     0
 10
882.11266985139991
 20
-166.11731668510001
 30
0.0
 11
859.61266985140003
 21
-166.11731668510001
 31
0.0
  0
LINE
  5
110
  8
0
 62
     0
 10
860.11266985140014
 20
-111.11731668509999
 30
0.0
 11
860.11266985140014
 21
-131.56176134149999
 31
0.0
  0
LINE
  5
111
  8
0
 62
     0
 10
860.11266985140014
 20
-111.11731668509999
 30
0.0
 11
860.11266985140014
 21
-145.6728720287
 31
0.0
  0
LINE
  5
112
  8
0
 62
     0
 10
860.11266985140014
 20
-166.11731668510001
 30
0.0
 11
860.11266985140014
 21
-131.56176134149999
 31
0.0
  0
LINE
  5
113
  8
0
 62
     0
 10
860.11266985140014
 20
-166.11731668510001
 30
0.0
 11
860.11266985140014
 21
-145.6728720287
 31
0.0
  0
LINE
  5
114
  8
0
 62
     0
 10
860.11266985140014
 20
-166.11731668510001
 30
0.0
 11
860.11266985140014
 21
-163.11731668510001
 31
0.0
  0
SOLID
  5
115
  8
0
 62
     0
 10
860.11266985140014
 20
-166.11731668510001
 30
0.0
 11
858.61266985140003
 21
-160.11731668510001
 31
0.0
 12
861.61266985139991
 22
-160.11731668510001
 32
0.0
 13
860.11266985140014
 23
-161.61731668510001
 33
0.0
  0
LINE
  5
116
  8
0
 62
     0
 10
860.11266985140014
 20
-111.11731668509999
 30
0.0
 11
860.11266985140014
 21
-114.11731668509999
 31
0.0
  0
SOLID
  5
117
  8
0
 62
     0
 10
860.11266985140014
 20
-111.11731668509999
 30
0.0
 11
861.61266985139991
 21
-117.11731668509999
 31
0.0
 12
858.61266985140003
 22
-117.11731668509999
 32
0.0
 13
860.11266985140014
 23
-115.61731668509999
 33
0.0
  0
ENDBLK
  5
118
  8
0
  0
BLOCK
  8
0
  2
*D14
 70
     1
 10
0.0
 20
0.0
 30
0.0
  3
*D14
  1

  0
TEXT
  5
11C
  8
0
 62
     0
 10
858.05433654989997
 20
-109.1450943569
 30
0.0
 40
5.9972220420999998
  1
11
 50
90.0
  0
LINE
  5
11D
  8
0
 62
     0
 10
879.11266985140003
 20
-100.11731668509999
 30
0.0
 11
859.61266985140003
 21
-100.11731668509999
 31
0.0
  0
LINE
  5
11E
  8
0
 62
     0
 10
880.11266985140003
 20
-111.11731668509999
 30
0.0
 11
859.61266985140003
 21
-111.11731668509999
 31
0.0
  0
LINE
  5
11F
  8
0
 62
     0
 10
860.11266985140014
 20
-100.11731668509999
 30
0.0
 11
860.11266985140014
 21
-100.11731668509999
 31
0.0
  0
LINE
  5
120
  8
0
 62
     0
 10
860.11266985140014
 20
-100.11731668509999
 30
0.0
 11
860.11266985140014
 21
-111.11731668509999
 31
0.0
  0
LINE
  5
121
  8
0
 62
     0
 10
860.11266985140014
 20
-111.11731668509999
 30
0.0
 11
860.11266985140014
 21
-100.11731668509999
 31
0.0
  0
LINE
  5
122
  8
0
 62
     0
 10
860.11266985140014
 20
-111.11731668509999
 30
0.0
 11
860.11266985140014
 21
-111.11731668509999
 31
0.0
  0
LINE
  5
123
  8
0
 62
     0
 10
860.11266985140014
 20
-111.11731668509999
 30
0.0
 11
860.11266985140014
 21
-114.11731668509999
 31
0.0
  0
SOLID
  5
124
  8
0
 62
     0
 10
860.11266985140014
 20
-111.11731668509999
 30
0.0
 11
861.61266985139991
 21
-117.11731668509999
 31
0.0
 12
858.61266985140003
 22
-117.11731668509999
 32
0.0
 13
860.11266985140014
 23
-115.61731668509999
 33
0.0
  0
LINE
  5
125
  8
0
 62
     0
 10
860.11266985140014
 20
-100.11731668509999
 30
0.0
 11
860.11266985140014
 21
-97.117316685100008
 31
0.0
  0
SOLID
  5
126
  8
0
 62
     0
 10
860.11266985140014
 20
-100.11731668509999
 30
0.0
 11
858.61266985140003
 21
-94.117316685099993
 31
0.0
 12
861.61266985139991
 22
-94.117316685099993
 32
0.0
 13
860.11266985140014
 23
-95.617316685100008
 33
0.0
  0
ENDBLK
  5
127
  8
0
  0
BLOCK
  8
0
  2
*D15
 70
     1
 10
0.0
 20
0.0
 30
0.0
  3
*D15
  1

  0
TEXT
  5
12B
  8
0
 62
     0
 10
626.15628967489999
 20
-180.40898319280001
 30
0.0
 40
5.9972220420999998
  1
150
 50
90.0
  0
LINE
  5
12C
  8
0
 62
     0
 10
647.21462297639994
 20
-100.11731668509999
 30
0.0
 11
627.71462297639994
 21
-100.11731668509999
 31
0.0
  0
LINE
  5
12D
  8
0
 62
     0
 10
652.21462297639994
 20
-250.11731668510001
 30
0.0
 11
627.71462297639994
 21
-250.11731668510001
 31
0.0
  0
LINE
  5
12E
  8
0
 62
     0
 10
628.21462297639994
 20
-100.11731668509999
 30
0.0
 11
628.21462297639994
 21
-166.2978725056
 31
0.0
  0
LINE
  5
12F
  8
0
 62
     0
 10
628.21462297639994
 20
-100.11731668509999
 30
0.0
 11
628.21462297639994
 21
-183.93676086459999
 31
0.0
  0
LINE
  5
130
  8
0
 62
     0
 10
628.21462297639994
 20
-250.11731668510001
 30
0.0
 11
628.21462297639994
 21
-166.2978725056
 31
0.0
  0
LINE
  5
131
  8
0
 62
     0
 10
628.21462297639994
 20
-250.11731668510001
 30
0.0
 11
628.21462297639994
 21
-183.93676086459999
 31
0.0
  0
LINE
  5
132
  8
0
 62
     0
 10
628.21462297639994
 20
-250.11731668510001
 30
0.0
 11
628.21462297639994
 21
-247.11731668510001
 31
0.0
  0
SOLID
  5
133
  8
0
 62
     0
 10
628.21462297639994
 20
-250.11731668510001
 30
0.0
 11
626.71462297639994
 21
-244.11731668510001
 31
0.0
 12
629.71462297639994
 22
-244.11731668510001
 32
0.0
 13
628.21462297639994
 23
-245.61731668510001
 33
0.0
  0
LINE
  5
134
  8
0
 62
     0
 10
628.21462297639994
 20
-100.11731668509999
 30
0.0
 11
628.21462297639994
 21
-103.11731668509999
 31
0.0
  0
SOLID
  5
135
  8
0
 62
     0
 10
628.21462297639994
 20
-100.11731668509999
 30
0.0
 11
629.71462297639994
 21
-106.11731668509999
 31
0.0
 12
626.71462297639994
 22
-106.11731668509999
 32
0.0
 13
628.21462297639994
 23
-104.61731668509999
 33
0.0
  0
ENDBLK
  5
136
  8
0
  0
BLOCK
  8
0
  2
*D16
 70
     1
 10
0.0
 20
0.0
 30
0.0
  3
*D16
  1

  0
TEXT
  5
13A
  8
0
 62
     0
 10
717.92295646869979
 20
-268.05898338359998
 30
0.0
 40
5.9972220420999998
  1
150
  0
LINE
  5
13B
  8
0
 62
     0
 10
648.21462297639994
 20
-246.11731668510001
 30
0.0
 11
648.21462297639994
 21
-270.61731668509998
 31
0.0
  0
LINE
  5
13C
  8
0
 62
     0
 10
798.21462297639994
 20
-251.11731668510001
 30
0.0
 11
798.21462297639994
 21
-270.61731668509998
 31
0.0
  0
LINE
  5
13D
  8
0
 62
     0
 10
648.21462297639994
 20
-270.11731668509998
 30
0.0
 11
732.03406715600011
 21
-270.11731668509998
 31
0.0
  0
LINE
  5
13E
  8
0
 62
     0
 10
648.21462297639994
 20
-270.11731668509998
 30
0.0
 11
714.39517879690004
 21
-270.11731668509998
 31
0.0
  0
LINE
  5
13F
  8
0
 62
     0
 10
798.21462297639994
 20
-270.11731668509998
 30
0.0
 11
732.03406715600011
 21
-270.11731668509998
 31
0.0
  0
LINE
  5
140
  8
0
 62
     0
 10
798.21462297639994
 20
-270.11731668509998
 30
0.0
 11
714.39517879690004
 21
-270.11731668509998
 31
0.0
  0
LINE
  5
141
  8
0
 62
     0
 10
798.21462297639994
 20
-270.11731668509998
 30
0.0
 11
795.21462297639994
 21
-270.11731668509998
 31
0.0
  0
SOLID
  5
142
  8
0
 62
     0
 10
798.21462297639994
 20
-270.11731668509998
 30
0.0
 11
792.21462297639994
 21
-271.61731668509998
 31
0.0
 12
792.21462297639994
 22
-268.61731668509998
 32
0.0
 13
793.71462297639994
 23
-270.11731668509998
 33
0.0
  0
LINE
  5
143
  8
0
 62
     0
 10
648.21462297639994
 20
-270.11731668509998
 30
0.0
 11
651.21462297639994
 21
-270.11731668509998
 31
0.0
  0
SOLID
  5
144
  8
0
 62
     0
 10
648.21462297639994
 20
-270.11731668509998
 30
0.0
 11
654.21462297639994
 21
-268.61731668509998
 31
0.0
 12
654.21462297639994
 22
-271.61731668509998
 32
0.0
 13
652.71462297639994
 23
-270.11731668509998
 33
0.0
  0
ENDBLK
  5
145
  8
0
  0
BLOCK
  8
0
  2
*D17
 70
     1
 10
0.0
 20
0.0
 30
0.0
  3
*D17
  1

  0
TEXT
  5
149
  8
0
 62
     0
 10
659.18684530459996
 20
-299.82519432110001
 30
0.0
 40
5.9972220420999998
  1
29
  0
LINE
  5
14A
  8
0
 62
     0
 10
677.21462297639994
 20
-321.88352762260001
 30
0.0
 11
677.21462297639994
 21
-301.38352762260001
 31
0.0
  0
LINE
  5
14B
  8
0
 62
     0
 10
648.21462297639994
 20
-320.8835276225999
 30
0.0
 11
648.21462297639994
 21
-301.38352762260001
 31
0.0
  0
LINE
  5
14C
  8
0
 62
     0
 10
677.21462297639994
 20
-301.88352762260001
 30
0.0
 11
669.77017832000001
 21
-301.88352762260001
 31
0.0
  0
LINE
  5
14D
  8
0
 62
     0
 10
677.21462297639994
 20
-301.88352762260001
 30
0.0
 11
655.65906763279986
 21
-301.88352762260001
 31
0.0
  0
LINE
  5
14E
  8
0
 62
     0
 10
648.21462297639994
 20
-301.88352762260001
 30
0.0
 11
669.77017832000001
 21
-301.88352762260001
 31
0.0
  0
LINE
  5
14F
  8
0
 62
     0
 10
648.21462297639994
 20
-301.88352762260001
 30
0.0
 11
655.65906763279986
 21
-301.88352762260001
 31
0.0
  0
LINE
  5
150
  8
0
 62
     0
 10
648.21462297639994
 20
-301.88352762260001
 30
0.0
 11
651.21462297639994
 21
-301.88352762260001
 31
0.0
  0
SOLID
  5
151
  8
0
 62
     0
 10
648.21462297639994
 20
-301.88352762260001
 30
0.0
 11
654.21462297639994
 21
-300.3835276225999
 31
0.0
 12
654.21462297639994
 22
-303.38352762260001
 32
0.0
 13
652.71462297639994
 23
-301.88352762260001
 33
0.0
  0
LINE
  5
152
  8
0
 62
     0
 10
677.21462297639994
 20
-301.88352762260001
 30
0.0
 11
674.21462297639994
 21
-301.88352762260001
 31
0.0
  0
SOLID
  5
153
  8
0
 62
     0
 10
677.21462297639994
 20
-301.88352762260001
 30
0.0
 11
671.21462297639994
 21
-303.38352762260001
 31
0.0
 12
671.21462297639994
 22
-300.3835276225999
 32
0.0
 13
672.71462297639994
 23
-301.88352762260001
 33
0.0
  0
ENDBLK
  5
154
  8
0
  0
BLOCK
  8
0
  2
*D18
 70
     1
 10
0.0
 20
0.0
 30
0.0
  3
*D18
  1

  0
TEXT
  5
19A
  8
0
 62
     0
 10
1008.6224340052
 20
-163.00087531060001
 30
0.0
 40
5.9972220420999998
  1
%%c8.5
  0
LINE
  5
19B
  8
0
 62
     0
 10
1038.6918781848001
 20
-206.88224507039999
 30
0.0
 11
1038.6918781848001
 21
-164.55920861210001
 31
0.0
  0
LINE
  5
19C
  8
0
 62
     0
 10
996.19187818479998
 20
-206.88224507039999
 30
0.0
 11
996.19187818479998
 21
-164.55920861210001
 31
0.0
  0
LINE
  5
19D
  8
0
 62
     0
 10
1038.6918781848001
 20
-165.05920861209989
 30
0.0
 11
1029.7891000361001
 21
-165.05920861209989
 31
0.0
  0
LINE
  5
19E
  8
0
 62
     0
 10
1038.6918781848001
 20
-165.05920861209989
 30
0.0
 11
1005.0946563334001
 21
-165.05920861209989
 31
0.0
  0
LINE
  5
19F
  8
0
 62
     0
 10
996.19187818479998
 20
-165.05920861209989
 30
0.0
 11
1029.7891000361001
 21
-165.05920861209989
 31
0.0
  0
LINE
  5
1A0
  8
0
 62
     0
 10
996.19187818479998
 20
-165.05920861209989
 30
0.0
 11
1005.0946563334001
 21
-165.05920861209989
 31
0.0
  0
LINE
  5
1A1
  8
0
 62
     0
 10
996.19187818479998
 20
-165.05920861209989
 30
0.0
 11
999.19187818479986
 21
-165.05920861209989
 31
0.0
  0
SOLID
  5
1A2
  8
0
 62
     0
 10
996.19187818479998
 20
-165.05920861209989
 30
0.0
 11
1002.1918781848
 21
-163.55920861210001
 31
0.0
 12
1002.1918781848
 22
-166.55920861210001
 32
0.0
 13
1000.6918781848
 23
-165.05920861209989
 33
0.0
  0
LINE
  5
1A3
  8
0
 62
     0
 10
1038.6918781848001
 20
-165.05920861209989
 30
0.0
 11
1035.6918781848001
 21
-165.05920861209989
 31
0.0
  0
SOLID
  5
1A4
  8
0
 62
     0
 10
1038.6918781848001
 20
-165.05920861209989
 30
0.0
 11
1032.6918781848001
 21
-166.55920861210001
 31
0.0
 12
1032.6918781848001
 22
-163.55920861210001
 32
0.0
 13
1034.1918781848001
 23
-165.05920861209989
 33
0.0
  0
ENDBLK
  5
1A5
  8
0
  0
BLOCK
  8
0
  2
*D19
 70
     1
 10
0.0
 20
0.0
 30
0.0
  3
*D19
  1

  0
TEXT
  5
1A9
  8
0
 62
     0
 10
1012.150211677
 20
-183.3820602063999
 30
0.0
 40
5.9972220420999998
  1
%%c5
  0
LINE
  5
1AA
  8
0
 62
     0
 10
1029.9418781848001
 20
-215.63224507039999
 30
0.0
 11
1029.9418781848001
 21
-184.94039350790001
 31
0.0
  0
LINE
  5
1AB
  8
0
 62
     0
 10
1004.9418781848
 20
-215.63224507039999
 30
0.0
 11
1004.9418781848
 21
-184.94039350790001
 31
0.0
  0
LINE
  5
1AC
  8
0
 62
     0
 10
1029.9418781848001
 20
-185.44039350790001
 30
0.0
 11
1026.2613223643
 21
-185.44039350790001
 31
0.0
  0
LINE
  5
1AD
  8
0
 62
     0
 10
1029.9418781848001
 20
-185.44039350790001
 30
0.0
 11
1008.6224340052
 21
-185.44039350790001
 31
0.0
  0
LINE
  5
1AE
  8
0
 62
     0
 10
1004.9418781848
 20
-185.44039350790001
 30
0.0
 11
1026.2613223643
 21
-185.44039350790001
 31
0.0
  0
LINE
  5
1AF
  8
0
 62
     0
 10
1004.9418781848
 20
-185.44039350790001
 30
0.0
 11
1008.6224340052
 21
-185.44039350790001
 31
0.0
  0
LINE
  5
1B0
  8
0
 62
     0
 10
1004.9418781848
 20
-185.44039350790001
 30
0.0
 11
1001.9418781848
 21
-185.44039350790001
 31
0.0
  0
SOLID
  5
1B1
  8
0
 62
     0
 10
1004.9418781848
 20
-185.44039350790001
 30
0.0
 11
998.94187818479998
 21
-186.94039350790001
 31
0.0
 12
998.94187818479998
 22
-183.94039350790001
 32
0.0
 13
1000.4418781848
 23
-185.44039350790001
 33
0.0
  0
LINE
  5
1B2
  8
0
 62
     0
 10
1029.9418781848001
 20
-185.44039350790001
 30
0.0
 11
1032.9418781848001
 21
-185.44039350790001
 31
0.0
  0
SOLID
  5
1B3
  8
0
 62
     0
 10
1029.9418781848001
 20
-185.44039350790001
 30
0.0
 11
1035.9418781848001
 21
-183.94039350790001
 31
0.0
 12
1035.9418781848001
 22
-186.94039350790001
 32
0.0
 13
1034.4418781848001
 23
-185.44039350790001
 33
0.0
  0
ENDBLK
  5
1B4
  8
0
  0
BLOCK
  8
0
  2
*D20
 70
     1
 10
0.0
 20
0.0
 30
0.0
  3
*D20
  1

  0
TEXT
  5
1BA
  8
0
 62
     0
 10
1012.150211677
 20
-140.94270060349999
 30
0.0
 40
5.9972220420999998
  1
90%%d
 50
360.0
  0
ARC
  5
1BB
  8
0
 62
     0
 10
1017.4418781848
 20
-229.13224507039999
 30
0.0
 40
85.014544562299974
 50
130.05499139759999
 51
135.0
  0
ARC
  5
1BC
  8
0
 62
     0
 10
1017.4418781848
 20
-229.13224507039999
 30
0.0
 40
85.014544562299974
 50
45.0
 51
49.945008602399987
  0
SOLID
  5
1BD
  8
0
 62
     0
 10
1077.5562391441999
 20
-169.017884111
 30
0.0
 11
1082.8595400030999
 21
-172.19986462630001
 31
0.0
 12
1080.7382196596
 22
-174.3211849699
 32
0.0
 13
1080.7382196596
 23
-172.19986462630001
 33
0.0
  0
SOLID
  5
1BE
  8
0
 62
     0
 10
957.32751722529997
 20
-169.017884111
 30
0.0
 11
954.14553670989994
 21
-174.3211849699
 31
0.0
 12
952.02421636639986
 22
-172.19986462630001
 32
0.0
 13
954.14553670989994
 23
-172.19986462630001
 33
0.0
  0
ARC
  5
1BF
  8
0
 62
     0
 10
1017.4418781848
 20
-229.13224507039999
 30
0.0
 40
85.014544562299974
 50
45.0
 51
83.978059719599997
  0
ARC
  5
1C0
  8
0
 62
     0
 10
1017.4418781848
 20
-229.13224507039999
 30
0.0
 40
85.014544562299974
 50
96.021940280400017
 51
135.0
  0
LINE
  5
1C1
  8
0
 62
     0
 10
1041.7027927342001
 20
-204.871330521
 30
0.0
 11
1080.5671536935999
 21
-166.0069695615
 31
0.0
  0
LINE
  5
1C2
  8
0
 62
     0
 10
993.18096363529992
 20
-204.871330521
 30
0.0
 11
954.31660267589984
 21
-166.0069695615
 31
0.0
  0
ENDBLK
  5
1C3
  8
0
  0
BLOCK
  8
0
  2
*D21
 70
     1
 10
0.0
 20
0.0
 30
0.0
  3
*D21
  1

  0
LINE
  5
247
  8
Éíû@É³
 62
     0
 10
798.15212297639982
 20
-245.61731668510001
 30
0.0
 11
705.53715746345426
 21
-245.61731668509989
 31
0.0
  0
LINE
  5
248
  8
Éíû@É³
 62
     0
 10
652.71462297639982
 20
-100.17981668509999
 30
0.0
 11
652.71462297639994
 21
-192.7947821980454
 31
0.0
  0
ARC
  5
249
  8
Éíû@É³
 62
     0
 10
652.71462297639994
 20
-245.61731668509989
 30
0.0
 40
54.072534487054561
 50
6.3609240771562243
 51
36.645037933607142
  0
ARC
  5
24A
  8
Éíû@É³
 62
     0
 10
652.71462297639994
 20
-245.61731668509989
 30
0.0
 40
54.072534487054561
 50
56.206602966188221
 51
83.639075922843745
  0
SOLID
  5
24B
  8
Éíû@É³
 62
     0
 10
707.45273101461396
 20
-239.57107720522521
 30
0.0
 11
705.45581153188925
 21
-239.682039268626
 31
0.0
 12
706.78715746345426
 22
-245.61731668509989
 32
0.0
 13
706.78715746345426
 23
-245.61731668509989
 33
0.0
  0
SOLID
  5
24C
  8
Éíû@É³
 62
     0
 10
658.64990039287375
 20
-192.87612812961041
 30
0.0
 11
658.76086245627471
 21
-190.8792086468857
 31
0.0
 12
652.71462297640005
 22
-191.5447821980454
 32
0.0
 13
652.71462297640005
 23
-191.5447821980454
 33
0.0
  0
TEXT
  8
Éíû@É³
  40
5.99722
  5
2AE
  62
0
  72
0
  71
0
 10
677.992
 20
-217.058
 30
0.000000
  1
90üï
  0
POINT
  5
24E
  8
Defpoints
 62
     0
 10
652.71462297639994
 20
-245.61731668509989
 30
0.0
  0
POINT
  5
24F
  8
Defpoints
 62
     0
 10
798.21462297639982
 20
-245.61731668509989
 30
0.0
  0
POINT
  5
250
  8
Defpoints
 62
     0
 10
652.71462297639994
 20
-100.11731668509989
 30
0.0
  0
POINT
  5
251
  8
Defpoints
 62
     0
 10
699.54281148919927
 20
-218.5810494415727
 30
0.0
  0
ENDBLK
  5
253
  8
0
  0
BLOCK
  8
0
  2
*U22
 70
     1
 10
0.0
 20
0.0
 30
0.0
  3
*U22
  1

  0
TEXT
  5
255
  8
┌▓È_1
  6
CONTINUOUS
 10
1030.7110555207
 20
-390.411092986227
 30
0.0
 40
7.1966662884000003
  1
ékî^âAâôâOâï
  0
ENDBLK
  5
257
  8
0
  0
BLOCK
  8
0
  2
*U23
 70
     1
 10
0.0
 20
0.0
 30
0.0
  3
*U23
  1

  0
TEXT
  5
259
  8
┌▓È_1
  6
CONTINUOUS
 10
1024.9924607746671
 20
-372.37696537300002
 30
0.0
 40
7.1966662884000003
  1
LY-204  150x150
  0
ENDBLK
  5
25B
  8
0
  0
BLOCK
  8
0
  2
*U24
 70
     1
 10
0.0
 20
0.0
 30
0.0
  3
*U24
  1

  0
TEXT
  5
25D
  8
┌▓È_1
  6
CONTINUOUS
 10
992.64627402592532
 20
-253.5947412479274
 30
0.0
 40
5.9972220420999998
  1
ÄMâéâ~òöègæÕÉ}
  0
ENDBLK
  5
25F
  8
0
  0
BLOCK
  8
0
  2
*D25
 70
     1
 10
0.0
 20
0.0
 30
0.0
  3
*D25
  1

  0
LINE
  5
261
  8
Éíû@É³
 62
     0
 10
1039.2664024444241
 20
-207.30772081067579
 30
0.0
 11
1078.4401226205609
 21
-168.1340006343593
 31
0.0
  0
LINE
  5
262
  8
Éíû@É³
 62
     0
 10
995.61735392507569
 20
-207.30772081067579
 30
0.0
 11
956.44363374889917
 21
-168.1340006344993
 31
0.0
  0
ARC
  5
263
  8
Éíû@É³
 62
     0
 10
1017.4418781848
 20
-229.13224507039999
 30
0.0
 40
85.014544562200015
 50
49.044555744628589
 51
83.797104791057507
  0
ARC
  5
264
  8
Éíû@É³
 62
     0
 10
1017.4418781848
 20
-229.13224507039999
 30
0.0
 40
85.014544562200015
 50
96.202895208942422
 51
130.95544425550281
  0
SOLID
  5
265
  8
Éíû@É³
 62
     0
 10
1073.8482401513411
 20
-164.1959816367324
 30
0.0
 11
1072.4848122674521
 21
-165.6592192816268
 31
0.0
 12
1077.5562391440801
 22
-169.01788411084451
 32
0.0
 13
1077.5562391440801
 23
-169.01788411084451
 33
0.0
  0
SOLID
  5
266
  8
Éíû@É³
 62
     0
 10
962.39894410200179
 20
-165.65921928175311
 30
0.0
 11
961.03551621811016
 21
-164.19598163686189
 31
0.0
 12
957.32751722538239
 22
-169.01788411098241
 32
0.0
 13
957.32751722538239
 23
-169.01788411098241
 33
0.0
  0
TEXT
  8
Éíû@É³
  40
5.99722
  5
2AF
  62
0
  72
0
  71
0
 10
1005.45
 20
-154.733
 30
0.000000
  1
90üï
  0
POINT
  5
268
  8
Defpoints
 62
     0
 10
1017.4418781848
 20
-229.13224507039999
 30
0.0
  0
POINT
  5
269
  8
Defpoints
 62
     0
 10
1039.2222082706
 20
-207.35191498450001
 30
0.0
  0
POINT
  5
26A
  8
Defpoints
 62
     0
 10
995.66154809889986
 20
-207.35191498450001
 30
0.0
  0
POINT
  5
26B
  8
Defpoints
 62
     0
 10
1039.445261428089
 20
-147.01450086753451
 30
0.0
  0
ENDBLK
  5
26D
  8
0
  0
BLOCK
  8
0
  2
*U26
 70
     1
 10
0.0
 20
0.0
 30
0.0
  3
*U26
  1

  0
TEXT
  5
26F
  8
┌▓È_1
  6
CONTINUOUS
 10
871.90075898490011
 20
-357.95071955935788
 30
0.0
 40
7.1966662884000003
  1
ò\û╩ÅêùØüFâåâjâNâìâüâbâLÄdÅÒé░
  0
ENDBLK
  5
271
  8
0
  0
BLOCK
  8
0
  2
*U27
 70
     1
 10
0.0
 20
0.0
 30
0.0
  3
*U27
  1

  0
TEXT
  5
273
  8
┌▓È_1
  6
CONTINUOUS
 10
886.34186643449993
 20
-407.29798789262742
 30
0.0
 40
8.6359998702999992
  1
èöÄ«ë´Äð
  0
ENDBLK
  5
275
  8
0
  0
BLOCK
  8
0
  2
*U28
 70
     1
 10
0.0
 20
0.0
 30
0.0
  3
*U28
  1

  0
TEXT
  5
277
  8
┌▓È_1
  6
CONTINUOUS
 10
871.90075898490011
 20
-384.14021558883712
 30
0.0
 40
4.6749999999999989
  1
 É¦îvü@ü@öÆÉ{ëÛ
  0
ENDBLK
  5
279
  8
0
  0
BLOCK
  8
0
  2
*U29
 70
     1
 10
0.0
 20
0.0
 30
0.0
  3
*U29
  1

  0
TEXT
  5
27B
  8
┌▓È_1
  6
CONTINUOUS
 10
871.90075898490011
 20
-392.66394655330407
 30
0.0
 40
4.6749999999999989
  1
 É╗É}ü@ü@ è¦û{
  0
ENDBLK
  5
27D
  8
0
  0
BLOCK
  8
0
  2
*U30
 70
     1
 10
0.0
 20
0.0
 30
0.0
  3
*U30
  1

  0
TEXT
  5
27F
  8
┌▓È_1
  6
CONTINUOUS
 10
872.83153060749999
 20
-366.97409883756802
 30
0.0
 40
4.6749999999999989
  1
ü@ô· ü@òt
  0
ENDBLK
  5
281
  8
0
  0
BLOCK
  8
0
  2
*U31
 70
     1
 10
0.0
 20
0.0
 30
0.0
  3
*U31
  1

  0
TEXT
  5
283
  8
┌▓È_1
  6
CONTINUOUS
 10
1001.6817578924
 20
-366.987494501502
 30
0.0
 40
4.6749999999999989
  1
î^öÈ
  0
ENDBLK
  5
285
  8
0
  0
BLOCK
  8
0
  2
*U32
 70
     1
 10
0.0
 20
0.0
 30
0.0
  3
*U32
  1

  0
TEXT
  5
287
  8
┌▓È_1
  6
CONTINUOUS
 10
1001.6817578924
 20
-384.03495643043613
 30
0.0
 40
4.6749999999999989
  1
òiû╝
  0
ENDBLK
  5
289
  8
0
  0
BLOCK
  8
0
  2
*U33
 70
     1
 10
0.0
 20
0.0
 30
0.0
  3
*U33
  1

  0
TEXT
  5
28B
  8
┌▓È_1
  6
CONTINUOUS
 10
1001.6817578924
 20
-400.987494501502
 30
0.0
 40
4.6749999999999989
  1
É}öÈ
  0
ENDBLK
  5
28D
  8
0
  0
BLOCK
  8
0
  2
*U34
 70
     1
 10
0.0
 20
0.0
 30
0.0
  3
*U34
  1

  0
TEXT
  5
28F
  8
┌▓È_1
  6
CONTINUOUS
 62
     5
 10
880.2712539087579
 20
-375.3791749797
 30
0.0
 40
4.6749999999999989
  1
H16.4
  0
ENDBLK
  5
291
  8
0
  0
BLOCK
  8
0
  2
*U35
 70
     1
 10
0.0
 20
0.0
 30
0.0
  3
*U35
  1

  0
TEXT
  5
293
  8
┌▓È_1
  6
CONTINUOUS
 62
     5
 10
917.10050517779348
 20
-375.66394655330407
 30
0.0
 40
4.6749999999999989
  1
ôS
  0
ENDBLK
  5
295
  8
0
  0
BLOCK
  8
0
  2
*U36
 70
     1
 10
0.0
 20
0.0
 30
0.0
  3
*U36
  1

  0
TEXT
  5
297
  8
┌▓È_1
  6
CONTINUOUS
 62
     5
 10
945.90869045698128
 20
-375.3791749797
 30
0.0
 40
4.6749999999999989
  1
4.5t
  0
ENDBLK
  5
299
  8
0
  0
BLOCK
  8
0
  2
*U37
 70
     1
 10
0.0
 20
0.0
 30
0.0
  3
*U37
  1

  0
TEXT
  5
29B
  8
┌▓È_1
  6
CONTINUOUS
 62
     5
 10
945.69511177677828
 20
-392.3791749797
 30
0.0
 40
4.6749999999999989
  1
1üF2
  0
ENDBLK
  5
29D
  8
0
  0
BLOCK
  8
0
  2
*U38
 70
     1
 10
0.0
 20
0.0
 30
0.0
  3
*U38
  1

  0
TEXT
  5
29F
  8
┌▓È_1
  6
CONTINUOUS
 10
904.83153060749999
 20
-367.04529173096898
 30
0.0
 40
4.6749999999999989
  1
ü@ìÌ ü@Ä┐
  0
ENDBLK
  5
2A1
  8
0
  0
BLOCK
  8
0
  2
*U39
 70
     1
 10
0.0
 20
0.0
 30
0.0
  3
*U39
  1

  0
TEXT
  5
2A3
  8
┌▓È_1
  6
CONTINUOUS
 10
936.83153060749999
 20
-367.14021558883712
 30
0.0
 40
4.6749999999999989
  1
ü@ö┬ ü@î·
  0
ENDBLK
  5
2A5
  8
0
  0
BLOCK
  8
0
  2
*U40
 70
     1
 10
0.0
 20
0.0
 30
0.0
  3
*U40
  1

  0
TEXT
  5
2A7
  8
┌▓È_1
  6
CONTINUOUS
 10
936.83153060749999
 20
-384.11648462437
 30
0.0
 40
4.6749999999999989
  1
ü@Ä┌ ü@ôx
  0
ENDBLK
  5
2A9
  8
0
  0
BLOCK
  8
0
  2
*U41
 70
     1
 10
0.0
 20
0.0
 30
0.0
  3
*U41
  1

  0
TEXT
  5
2AB
  8
┌▓È_1
  6
CONTINUOUS
 10
968.83153060749987
 20
-367.14021558883712
 30
0.0
 40
4.6749999999999989
  1
ü@îƒ ü@ê¾
  0
ENDBLK
  5
2AD
  8
0
  0
ENDSEC
  0
SECTION
  2
ENTITIES
  0
DIMENSION
  5
3E
  8
Éíû@É³
  2
*D0
 10
798.21462297639994
 20
-301.88352762260001
 30
0.0
 11
792.71462297639994
 21
-301.88352762260001
 31
0.0
 70
   128
  1
<>
 13
798.21462297639994
 23
-321.88352762260001
 33
0.0
 14
787.21462297639994
 24
-322.8835276225999
 34
0.0
  0
DIMENSION
  5
4D
  8
Éíû@É³
  2
*D1
 10
787.21462297639994
 20
-301.88352762260001
 30
0.0
 11
759.71462297639994
 21
-301.88352762260001
 31
0.0
 70
   128
  1
<>
 13
787.21462297639994
 23
-322.8835276225999
 33
0.0
 14
732.21462297639994
 24
-322.8835276225999
 34
0.0
  0
DIMENSION
  5
5B
  8
Éíû@É³
  2
*D21
 10
699.54281148919927
 20
-218.5810494415727
 30
0.0
 11
689.98644921289986
 21
-206.44270813759999
 31
0.0
 70
   133
  1
<>
 13
652.71462297639994
 23
-100.11731668509999
 33
0.0
 14
798.21462297639994
 24
-245.61731668510001
 34
0.0
 15
652.71462297639994
 25
-245.61731668510001
 35
0.0
1001
ACAD
1000
DSTYLE
1002
{
1070
   271
1070
     0
1002
}
  0
LINE
  5
5D
  8
┌▓È_1
  6
BORDER
 62
     3
 10
725.21462297639994
 20
-329.88352762260001
 30
0.0
 11
739.21462297639994
 21
-329.88352762260001
 31
0.0
  0
CIRCLE
  5
5E
  8
┌▓È_1
 62
     5
 10
732.21462297639994
 20
-329.88352762260001
 30
0.0
 40
2.5
  0
LINE
  5
5F
  8
┌▓È_1
  6
BORDER
 62
     3
 10
732.21462297639994
 20
-322.8835276225999
 30
0.0
 11
732.21462297639994
 21
-336.88352762260001
 31
0.0
  0
LINE
  5
60
  8
┌▓È_1
  6
BORDER
 62
     3
 10
677.21462297639994
 20
-322.8835276225999
 30
0.0
 11
677.21462297639994
 21
-336.88352762260001
 31
0.0
  0
CIRCLE
  5
61
  8
┌▓È_1
 62
     5
 10
677.21462297639994
 20
-329.88352762260001
 30
0.0
 40
2.5
  0
LINE
  5
62
  8
┌▓È_1
  6
BORDER
 62
     3
 10
670.21462297639994
 20
-329.88352762260001
 30
0.0
 11
684.21462297639994
 21
-329.88352762260001
 31
0.0
  0
CIRCLE
  5
63
  8
┌▓È_1
  6
STITCH
 10
677.21462297639994
 20
-329.88352762260001
 30
0.0
 40
5.0
  0
DIMENSION
  5
73
  8
Éíû@É³
  2
*D3
 10
628.21462297639994
 20
-321.88352762260001
 30
0.0
 11
628.21462297639994
 21
-329.88352762260001
 31
0.0
 70
   128
  1
<>
 13
648.21462297639994
 23
-321.88352762260001
 33
0.0
 14
648.21462297639994
 24
-337.8835276225999
 34
0.0
 50
90.0
  0
DIMENSION
  5
82
  8
Éíû@É³
  2
*D4
 10
652.71462297639994
 20
-80.117316685099993
 30
0.0
 11
664.55590041760001
 21
-80.117316685099993
 31
0.0
 70
   128
  1
<>t
 13
652.71462297639994
 23
-100.11731668509999
 33
0.0
 14
648.21462297639994
 24
-100.11731668509999
 34
0.0
  0
DIMENSION
  5
91
  8
Éíû@É³
  2
*D5
 10
818.21462297639994
 20
-337.8835276225999
 30
0.0
 11
818.21462297639994
 21
-347.84216495739997
 31
0.0
 70
   128
  1
<>
 13
798.21462297639994
 23
-337.8835276225999
 33
0.0
 14
794.21462297639994
 24
-329.88352762260001
 34
0.0
 50
90.0
  0
DIMENSION
  5
A0
  8
Éíû@É³
  2
*D6
 10
818.21462297639994
 20
-329.88352762260001
 30
0.0
 11
818.21462297639994
 21
-311.97549829069999
 31
0.0
 70
   128
  1
<>
 13
794.21462297639994
 23
-329.88352762260001
 33
0.0
 14
798.21462297639994
 24
-321.88352762260001
 34
0.0
 50
90.0
  0
DIMENSION
  5
AF
  8
Éíû@É³
  2
*D7
 10
896.11266985140003
 20
-80.117316685099993
 30
0.0
 11
905.55934976979995
 21
-80.117316685099993
 31
0.0
 70
   128
  1
<>
 13
896.11266985140003
 23
-100.11731668509999
 33
0.0
 14
888.11266985140003
 24
-104.11731668509999
 34
0.0
  0
DIMENSION
  5
BE
  8
Éíû@É³
  2
*D8
 10
888.11266985140003
 20
-80.117316685099993
 30
0.0
 11
870.78077195620006
 21
-80.117316685099993
 31
0.0
 70
   128
  1
<>
 13
888.11266985140003
 23
-104.11731668509999
 33
0.0
 14
880.11266985140003
 24
-100.11731668509999
 34
0.0
  0
LINE
  5
BF
  8
┌▓È_1
 62
     5
 10
652.71462297639994
 20
-245.61731668510001
 30
0.0
 11
798.21462297639994
 21
-245.61731668510001
 31
0.0
  0
LINE
  5
C0
  8
┌▓È_1
 62
     5
 10
798.21462297639994
 20
-250.11731668510001
 30
0.0
 11
798.21462297639994
 21
-245.61731668510001
 31
0.0
  0
LINE
  5
C1
  8
┌▓È_1
  6
STITCH
 10
650.21462297639994
 20
-163.61731668510001
 30
0.0
 11
647.71462297639994
 21
-163.61731668510001
 31
0.0
  0
LINE
  5
C2
  8
┌▓È_1
  6
STITCH
 10
650.21462297639994
 20
-163.61731668510001
 30
0.0
 11
652.71462297639994
 21
-161.11731668510001
 31
0.0
  0
LINE
  5
C3
  8
┌▓È_1
  6
STITCH
 10
652.71462297639994
 20
-171.11731668510001
 30
0.0
 11
650.21462297639994
 21
-168.61731668510001
 31
0.0
  0
LINE
  5
C4
  8
┌▓È_1
  6
BORDER
 62
     3
 10
657.21462297639994
 20
-221.11731668510001
 30
0.0
 11
643.21462297639994
 21
-221.11731668510001
 31
0.0
  0
LINE
  5
C5
  8
┌▓È_1
  6
STITCH
 10
650.21462297639994
 20
-223.61731668510001
 30
0.0
 11
647.71462297639994
 21
-223.61731668510001
 31
0.0
  0
LINE
  5
C6
  8
┌▓È_1
  6
STITCH
 10
650.21462297639994
 20
-218.61731668510001
 30
0.0
 11
650.21462297639994
 21
-223.61731668510001
 31
0.0
  0
LINE
  5
C7
  8
┌▓È_1
  6
STITCH
 10
650.21462297639994
 20
-218.61731668510001
 30
0.0
 11
647.71462297639994
 21
-218.61731668510001
 31
0.0
  0
LINE
  5
C8
  8
┌▓È_1
  6
STITCH
 10
650.21462297639994
 20
-218.61731668510001
 30
0.0
 11
652.71462297639994
 21
-216.11731668510001
 31
0.0
  0
LINE
  5
C9
  8
┌▓È_1
  6
STITCH
 10
652.71462297639994
 20
-226.11731668510001
 30
0.0
 11
650.21462297639994
 21
-223.61731668510001
 31
0.0
  0
LINE
  5
CA
  8
┌▓È_1
 62
     5
 10
652.71462297639994
 20
-245.61731668510001
 30
0.0
 11
652.71462297639994
 21
-100.11731668509999
 31
0.0
  0
LINE
  5
CB
  8
┌▓È_1
 62
     5
 10
652.71462297639994
 20
-100.11731668509999
 30
0.0
 11
648.21462297639994
 21
-100.11731668509999
 31
0.0
  0
LINE
  5
CC
  8
┌▓È_1
  6
BORDER
 62
     3
 10
787.21462297639994
 20
-322.8835276225999
 30
0.0
 11
787.21462297639994
 21
-336.88352762260001
 31
0.0
  0
LINE
  5
CD
  8
┌▓È_1
  6
BORDER
 62
     3
 10
780.21462297639994
 20
-329.88352762260001
 30
0.0
 11
794.21462297639994
 21
-329.88352762260001
 31
0.0
  0
LINE
  5
CE
  8
┌▓È_1
 62
     5
 10
798.21462297639994
 20
-337.8835276225999
 30
0.0
 11
798.21462297639994
 21
-321.88352762260001
 31
0.0
  0
DIMENSION
  5
DD
  8
Éíû@É³
  2
*D9
 10
732.21462297639994
 20
-301.88352762260001
 30
0.0
 11
704.71462297639994
 21
-301.88352762260001
 31
0.0
 70
   128
  1
<>
 13
732.21462297639994
 23
-322.8835276225999
 33
0.0
 14
677.21462297639994
 24
-322.8835276225999
 34
0.0
  0
DIMENSION
  5
EC
  8
Éíû@É³
  2
*D10
 10
896.11266985140003
 20
-65.241927586000003
 30
0.0
 11
888.11266985140003
 21
-65.241927586000003
 31
0.0
 70
   128
  1
<>
 13
896.11266985140003
 23
-100.11731668509999
 33
0.0
 14
880.11266985140003
 24
-100.11731668509999
 34
0.0
  0
DIMENSION
  5
FB
  8
Éíû@É³
  2
*D11
 10
860.11266985140014
 20
-221.11731668510001
 30
0.0
 11
860.11266985140014
 21
-235.61731668510001
 31
0.0
 70
   128
  1
<>
 13
881.11266985140003
 23
-221.11731668510001
 33
0.0
 14
880.11266985140003
 24
-250.11731668510001
 34
0.0
 50
90.0
  0
DIMENSION
  5
10A
  8
Éíû@É³
  2
*D12
 10
860.11266985140014
 20
-166.11731668510001
 30
0.0
 11
860.11266985140014
 21
-193.61731668510001
 31
0.0
 70
   128
  1
<>
 13
883.11266985139991
 23
-166.11731668510001
 33
0.0
 14
881.11266985140003
 24
-221.11731668510001
 34
0.0
 50
90.0
  0
DIMENSION
  5
119
  8
Éíû@É³
  2
*D13
 10
860.11266985140014
 20
-111.11731668509999
 30
0.0
 11
860.11266985140014
 21
-138.61731668510001
 31
0.0
 70
   128
  1
<>
 13
881.11266985140003
 23
-111.11731668509999
 33
0.0
 14
883.11266985139991
 24
-166.11731668510001
 34
0.0
 50
90.0
  0
DIMENSION
  5
128
  8
Éíû@É³
  2
*D14
 10
860.11266985140014
 20
-100.11731668509999
 30
0.0
 11
860.11266985140014
 21
-105.61731668509999
 31
0.0
 70
   128
  1
<>
 13
880.11266985140003
 23
-100.11731668509999
 33
0.0
 14
881.11266985140003
 24
-111.11731668509999
 34
0.0
 50
90.0
  0
DIMENSION
  5
137
  8
Éíû@É³
  2
*D15
 10
628.21462297639994
 20
-100.11731668509999
 30
0.0
 11
628.21462297639994
 21
-175.11731668510001
 31
0.0
 70
   128
  1
<>
 13
648.21462297639994
 23
-100.11731668509999
 33
0.0
 14
653.21462297639994
 24
-250.11731668510001
 34
0.0
 50
90.0
  0
DIMENSION
  5
146
  8
Éíû@É³
  2
*D16
 10
648.21462297639994
 20
-270.11731668509998
 30
0.0
 11
723.21462297639994
 21
-270.11731668509998
 31
0.0
 70
   128
  1
<>
 13
648.21462297639994
 23
-245.11731668510001
 33
0.0
 14
798.21462297639994
 24
-250.11731668510001
 34
0.0
 50
180.0
  0
DIMENSION
  5
155
  8
Éíû@É³
  2
*D17
 10
677.21462297639994
 20
-301.88352762260001
 30
0.0
 11
662.71462297639994
 21
-301.88352762260001
 31
0.0
 70
   128
  1
<>
 13
677.21462297639994
 23
-322.8835276225999
 33
0.0
 14
648.21462297639994
 24
-321.88352762260001
 34
0.0
  0
LINE
  5
156
  8
┌▓È_1
  6
STITCH
 10
729.71462297639994
 20
-248.11731668510001
 30
0.0
 11
729.71462297639994
 21
-250.61731668510001
 31
0.0
  0
LINE
  5
157
  8
┌▓È_1
  6
STITCH
 10
734.71462297639994
 20
-248.11731668510001
 30
0.0
 11
729.71462297639994
 21
-248.11731668510001
 31
0.0
  0
LINE
  5
158
  8
┌▓È_1
  6
STITCH
 10
734.71462297639994
 20
-248.11731668510001
 30
0.0
 11
734.71462297639994
 21
-250.61731668510001
 31
0.0
  0
LINE
  5
159
  8
┌▓È_1
  6
STITCH
 10
734.71462297639994
 20
-248.11731668510001
 30
0.0
 11
737.21462297639994
 21
-245.61731668510001
 31
0.0
  0
LINE
  5
15A
  8
┌▓È_1
  6
STITCH
 10
727.21462297639994
 20
-245.61731668510001
 30
0.0
 11
729.71462297639994
 21
-248.11731668510001
 31
0.0
  0
LINE
  5
15B
  8
┌▓È_1
  6
BORDER
 62
     3
 10
677.21462297639994
 20
-241.11731668510001
 30
0.0
 11
677.21462297639994
 21
-255.11731668510001
 31
0.0
  0
LINE
  5
15C
  8
┌▓È_1
  6
STITCH
 10
672.21462297639994
 20
-245.61731668510001
 30
0.0
 11
674.71462297639994
 21
-248.11731668510001
 31
0.0
  0
LINE
  5
15D
  8
┌▓È_1
 62
     5
 10
648.21462297639994
 20
-245.61731668510001
 30
0.0
 11
648.21462297639994
 21
-100.11731668509999
 31
0.0
  0
LINE
  5
15E
  8
┌▓È_1
 62
     5
 10
652.71462297639994
 20
-250.11731668510001
 30
0.0
 11
798.21462297639994
 21
-250.11731668510001
 31
0.0
  0
ARC
  5
15F
  8
┌▓È_1
 62
     5
 10
652.71462297639994
 20
-245.61731668510001
 30
0.0
 40
4.5
 50
180.0
 51
270.0
  0
LINE
  5
160
  8
┌▓È_1
  6
STITCH
 10
650.21462297639994
 20
-113.61731668509999
 30
0.0
 11
647.71462297639994
 21
-113.61731668509999
 31
0.0
  0
LINE
  5
161
  8
┌▓È_1
  6
STITCH
 10
650.21462297639994
 20
-108.61731668509999
 30
0.0
 11
650.21462297639994
 21
-113.61731668509999
 31
0.0
  0
LINE
  5
162
  8
┌▓È_1
  6
STITCH
 10
650.21462297639994
 20
-108.61731668509999
 30
0.0
 11
647.71462297639994
 21
-108.61731668509999
 31
0.0
  0
LINE
  5
163
  8
┌▓È_1
  6
STITCH
 10
650.21462297639994
 20
-108.61731668509999
 30
0.0
 11
652.71462297639994
 21
-106.11731668509999
 31
0.0
  0
LINE
  5
164
  8
┌▓È_1
  6
STITCH
 10
652.71462297639994
 20
-116.11731668509999
 30
0.0
 11
650.21462297639994
 21
-113.61731668509999
 31
0.0
  0
LINE
  5
165
  8
┌▓È_1
  6
BORDER
 62
     3
 10
657.21462297639994
 20
-111.11731668509999
 30
0.0
 11
643.21462297639994
 21
-111.11731668509999
 31
0.0
  0
CIRCLE
  5
166
  8
┌▓È_1
  6
STITCH
 10
732.21462297639994
 20
-329.88352762260001
 30
0.0
 40
5.0
  0
CIRCLE
  5
167
  8
┌▓È_1
  6
STITCH
 10
787.21462297639994
 20
-329.88352762260001
 30
0.0
 40
5.0
  0
CIRCLE
  5
168
  8
┌▓È_1
 62
     5
 10
787.21462297639994
 20
-329.88352762260001
 30
0.0
 40
2.5
  0
LINE
  5
169
  8
┌▓È_1
 62
     5
 10
648.21462297639994
 20
-337.8835276225999
 30
0.0
 11
798.21462297639994
 21
-337.8835276225999
 31
0.0
  0
LINE
  5
16A
  8
┌▓È_1
 62
     5
 10
798.21462297639994
 20
-321.88352762260001
 30
0.0
 11
648.21462297639994
 21
-321.88352762260001
 31
0.0
  0
LINE
  5
16B
  8
┌▓È_1
  6
STITCH
 10
679.71462297639994
 20
-248.11731668510001
 30
0.0
 11
682.21462297639994
 21
-245.61731668510001
 31
0.0
  0
LINE
  5
16C
  8
┌▓È_1
  6
STITCH
 10
679.71462297639994
 20
-248.11731668510001
 30
0.0
 11
679.71462297639994
 21
-250.61731668510001
 31
0.0
  0
LINE
  5
16D
  8
┌▓È_1
  6
STITCH
 10
679.71462297639994
 20
-248.11731668510001
 30
0.0
 11
674.71462297639994
 21
-248.11731668510001
 31
0.0
  0
LINE
  5
16E
  8
┌▓È_1
  6
STITCH
 10
674.71462297639994
 20
-248.11731668510001
 30
0.0
 11
674.71462297639994
 21
-250.61731668510001
 31
0.0
  0
LINE
  5
16F
  8
┌▓È_1
  6
BORDER
 62
     3
 10
888.11266985140003
 20
-159.11731668510001
 30
0.0
 11
888.11266985140003
 21
-173.11731668509989
 31
0.0
  0
CIRCLE
  5
170
  8
┌▓È_1
 62
     5
 10
888.11266985140003
 20
-111.11731668509999
 30
0.0
 40
5.0
  0
CIRCLE
  5
171
  8
┌▓È_1
 62
     5
 10
888.11266985140003
 20
-111.11731668509999
 30
0.0
 40
2.5
  0
LINE
  5
172
  8
┌▓È_1
  6
BORDER
 62
     3
 10
888.11266985140003
 20
-104.11731668509999
 30
0.0
 11
888.11266985140003
 21
-118.11731668509999
 31
0.0
  0
LINE
  5
173
  8
┌▓È_1
  6
BORDER
 62
     3
 10
881.11266985140003
 20
-111.11731668509999
 30
0.0
 11
895.11266985140003
 21
-111.11731668509999
 31
0.0
  0
LINE
  5
174
  8
┌▓È_1
 62
     5
 10
880.11266985140003
 20
-100.11731668509999
 30
0.0
 11
880.11266985140003
 21
-250.11731668510001
 31
0.0
  0
LINE
  5
175
  8
┌▓È_1
 62
     5
 10
896.11266985140003
 20
-100.11731668509999
 30
0.0
 11
880.11266985140003
 21
-100.11731668509999
 31
0.0
  0
LINE
  5
176
  8
┌▓È_1
 62
     5
 10
896.11266985140003
 20
-250.11731668510001
 30
0.0
 11
896.11266985140003
 21
-100.11731668509999
 31
0.0
  0
LINE
  5
177
  8
┌▓È_1
 62
     5
 10
880.11266985140003
 20
-245.11731668510001
 30
0.0
 11
896.11266985140003
 21
-245.11731668510001
 31
0.0
  0
LINE
  5
178
  8
┌▓È_1
 62
     5
 10
880.11266985140003
 20
-250.11731668510001
 30
0.0
 11
896.11266985140003
 21
-250.11731668510001
 31
0.0
  0
LINE
  5
179
  8
┌▓È_1
  6
BORDER
 62
     3
 10
881.11266985140003
 20
-221.11731668510001
 30
0.0
 11
895.11266985140003
 21
-221.11731668510001
 31
0.0
  0
CIRCLE
  5
17A
  8
┌▓È_1
 62
     5
 10
888.11266985140003
 20
-221.11731668510001
 30
0.0
 40
5.0
  0
CIRCLE
  5
17B
  8
┌▓È_1
 62
     5
 10
888.11266985140003
 20
-221.11731668510001
 30
0.0
 40
2.5
  0
LINE
  5
17C
  8
┌▓È_1
  6
BORDER
 62
     3
 10
888.11266985140003
 20
-214.11731668510001
 30
0.0
 11
888.11266985140003
 21
-228.11731668510001
 31
0.0
  0
LINE
  5
17D
  8
┌▓È_1
  6
BORDER
 62
     3
 10
881.11266985140003
 20
-166.11731668510001
 30
0.0
 11
895.11266985140003
 21
-166.11731668510001
 31
0.0
  0
CIRCLE
  5
17E
  8
┌▓È_1
 62
     5
 10
888.11266985140003
 20
-166.11731668510001
 30
0.0
 40
5.0
  0
LINE
  5
17F
  8
┌▓È_1
 62
     5
 10
648.21462297639994
 20
-321.88352762260001
 30
0.0
 11
648.21462297639994
 21
-337.8835276225999
 31
0.0
  0
LINE
  5
180
  8
┌▓È_1
  6
STITCH
 10
653.21462297639994
 20
-321.88352762260001
 30
0.0
 11
653.21462297639994
 21
-337.8835276225999
 31
0.0
  0
LINE
  5
181
  8
┌▓È_1
  6
BORDER
 62
     3
 10
787.21462297639994
 20
-241.11731668510001
 30
0.0
 11
787.21462297639994
 21
-255.11731668510001
 31
0.0
  0
LINE
  5
182
  8
┌▓È_1
  6
STITCH
 10
784.71462297639994
 20
-248.11731668510001
 30
0.0
 11
784.71462297639994
 21
-250.61731668510001
 31
0.0
  0
LINE
  5
183
  8
┌▓È_1
  6
STITCH
 10
789.71462297639994
 20
-248.11731668510001
 30
0.0
 11
784.71462297639994
 21
-248.11731668510001
 31
0.0
  0
LINE
  5
184
  8
┌▓È_1
  6
STITCH
 10
789.71462297639994
 20
-248.11731668510001
 30
0.0
 11
789.71462297639994
 21
-250.61731668510001
 31
0.0
  0
LINE
  5
185
  8
┌▓È_1
  6
STITCH
 10
789.71462297639994
 20
-248.11731668510001
 30
0.0
 11
792.21462297639994
 21
-245.61731668510001
 31
0.0
  0
LINE
  5
186
  8
┌▓È_1
  6
STITCH
 10
782.21462297639994
 20
-245.61731668510001
 30
0.0
 11
784.71462297639994
 21
-248.11731668510001
 31
0.0
  0
LINE
  5
187
  8
┌▓È_1
  6
BORDER
 62
     3
 10
732.21462297639994
 20
-241.11731668510001
 30
0.0
 11
732.21462297639994
 21
-255.11731668510001
 31
0.0
  0
LINE
  5
188
  8
┌▓È_1
 62
     5
 10
947.49516171690016
 20
-397.53683141800002
 30
0.0
 11
947.49516171690016
 21
-400.73683141799989
 31
0.0
  0
LINE
  5
189
  8
┌▓È_1
 62
     5
 10
985.45840914749999
 20
-403.13683141799999
 30
0.0
 11
990.50010365119999
 21
-403.13683141799999
 31
0.0
  0
LINE
  5
18A
  8
┌▓È_1
 62
     5
 10
970.95213141389991
 20
-399.93683141800011
 30
0.0
 11
972.55213141389993
 21
-397.53683141800002
 31
0.0
  0
LINE
  5
18B
  8
┌▓È_1
 62
     5
 10
561.90075898489988
 20
-411.79310816499998
 30
0.0
 11
561.90075898489988
 21
-31.793108165
 31
0.0
  0
LINE
  5
18C
  8
┌▓È_1
 10
999.90075898489999
 20
-377.79310816499998
 30
0.0
 11
1111.9007589849
 21
-377.79310816499998
 31
0.0
  0
LINE
  5
18D
  8
┌▓È_1
 62
     5
 10
561.90075898489988
 20
-31.793108165
 30
0.0
 11
1111.9007589849
 21
-31.793108165
 31
0.0
  0
LINE
  5
18E
  8
┌▓È_1
 62
     5
 10
561.90075898489988
 20
-411.79310816499998
 30
0.0
 11
1111.9007589849
 21
-411.79310816499998
 31
0.0
  0
LINE
  5
18F
  8
┌▓È_1
 62
     5
 10
1111.9007589849
 20
-411.79310816499998
 30
0.0
 11
1111.9007589849
 21
-31.793108165
 31
0.0
  0
INSERT
  5
190
  8
0
  6
CONTINUOUS
  2
*U22
 10
0.0
 20
0.0
 30
0.0
  0
LINE
  5
191
  8
┌▓È_1
 10
871.90075898490011
 20
-360.79310816499998
 30
0.0
 11
1111.9007589849
 21
-360.79310816499998
 31
0.0
  0
LINE
  5
192
  8
┌▓È_1
 10
871.90075898490011
 20
-394.79310816499998
 30
0.0
 11
1111.9007589849
 21
-394.79310816499998
 31
0.0
  0
LINE
  5
193
  8
┌▓È_1
 62
     5
 10
951.49516171690004
 20
-399.93683141800011
 30
0.0
 11
953.89516171690013
 21
-397.53683141800002
 31
0.0
  0
LINE
  5
194
  8
┌▓È_1
 62
     5
 10
940.2951617169
 20
-405.53683141799991
 30
0.0
 11
944.29516171689988
 21
-405.53683141799991
 31
0.0
  0
LINE
  5
195
  8
┌▓È_1
 62
     5
 10
972.55213141389993
 20
-397.53683141800002
 30
0.0
 11
958.15213141389995
 21
-397.53683141800002
 31
0.0
  0
LINE
  5
196
  8
┌▓È_1
 62
     5
 10
984.62964662080003
 20
-400.25683141799999
 30
0.0
 11
984.39541582050015
 21
-399.44286519320002
 31
0.0
  0
INSERT
  5
197
  8
0
  6
CONTINUOUS
  2
*U23
 10
0.0
 20
0.0
 30
0.0
  0
DIMENSION
  5
1A6
  8
Éíû@É³
  2
*D18
 10
1038.6918781848001
 20
-165.05920861209989
 30
0.0
 11
1017.4418781848
 21
-165.05920861209989
 31
0.0
 70
   128
  1
%%c8.5
 13
1038.6918781848001
 23
-207.88224507039999
 33
0.0
 14
996.19187818479998
 24
-207.88224507039999
 34
0.0
  0
DIMENSION
  5
1B5
  8
Éíû@É³
  2
*D19
 10
1029.9418781848001
 20
-185.44039350790001
 30
0.0
 11
1017.4418781848
 21
-185.44039350790001
 31
0.0
 70
   128
  1
%%c5
 13
1029.9418781848001
 23
-216.63224507039999
 33
0.0
 14
1004.9418781848
 24
-216.63224507039999
 34
0.0
  0
LINE
  5
1B6
  8
┌▓È_1
 10
991.49173032600015
 20
-256.16945438030001
 30
0.0
 11
1046.1014647733
 21
-256.16945438030001
 31
0.0
  0
INSERT
  5
1B7
  8
0
  6
CONTINUOUS
  2
*U24
 10
0.0
 20
0.0
 30
0.0
  0
DIMENSION
  5
1C4
  8
Éíû@É³
  2
*D25
 10
1039.445261428089
 20
-147.01450086753451
 30
0.0
 11
1017.4418781848
 21
-144.11770050819999
 31
0.0
 70
   133
  1
<>
 13
995.66154809889986
 23
-207.35191498450001
 33
0.0
 14
1039.2222082706
 24
-207.35191498450001
 34
0.0
 15
1017.4418781848
 25
-229.13224507039999
 35
0.0
1001
ACAD
1000
DSTYLE
1002
{
1070
   271
1070
     0
1002
}
  0
LINE
  5
1C5
  8
┌▓È_1
  6
BORDER
 62
     3
 10
657.21462297639994
 20
-166.11731668510001
 30
0.0
 11
643.21462297639994
 21
-166.11731668510001
 31
0.0
  0
LINE
  5
1C6
  8
┌▓È_1
  6
STITCH
 10
650.21462297639994
 20
-168.61731668510001
 30
0.0
 11
647.71462297639994
 21
-168.61731668510001
 31
0.0
  0
LINE
  5
1C7
  8
┌▓È_1
  6
STITCH
 10
650.21462297639994
 20
-163.61731668510001
 30
0.0
 11
650.21462297639994
 21
-168.61731668510001
 31
0.0
  0
CIRCLE
  5
1C8
  8
┌▓È_1
 62
     5
 10
888.11266985140003
 20
-166.11731668510001
 30
0.0
 40
2.5
  0
LINE
  5
1C9
  8
┌▓È_1
 62
     5
 10
976.1001036511999
 20
-404.41683141800002
 30
0.0
 11
981.3182369845
 21
-404.41683141800002
 31
0.0
  0
LINE
  5
1CA
  8
┌▓È_1
 62
     5
 10
938.45339561840001
 20
-403.13683141799999
 30
0.0
 11
940.0533956183998
 21
-403.13683141799999
 31
0.0
  0
ARC
  5
1CB
  8
┌▓È_1
 62
     5
 10
962.15213141389995
 20
-399.93683141800011
 30
0.0
 40
8.8000000000000007
 50
270.0
 51
302.54495885400001
  0
LINE
  5
1CC
  8
┌▓È_1
 62
     5
 10
951.49516171690004
 20
-403.13683141799999
 30
0.0
 11
953.89516171690013
 21
-403.13683141799999
 31
0.0
  0
ARC
  5
1CD
  8
┌▓È_1
 62
     5
 10
960.07213141390014
 20
-400.25683141799999
 30
0.0
 40
6.0800000000000001
 50
331.39928138329998
 51
358.49204224580001
  0
LINE
  5
1CE
  8
┌▓È_1
 62
     5
 10
958.15213141389995
 20
-408.73683141799989
 30
0.0
 11
962.15213141389995
 21
-408.73683141799989
 31
0.0
  0
LINE
  5
1CF
  8
┌▓È_1
 62
     5
 10
940.2951617169
 20
-408.73683141799989
 30
0.0
 11
946.69516171689997
 21
-408.73683141799989
 31
0.0
  0
LINE
  5
1D0
  8
┌▓È_1
 62
     5
 10
970.95213141389991
 20
-399.93683141800011
 30
0.0
 11
972.55213141389993
 21
-397.53683141800002
 31
0.0
  0
LINE
  5
1D1
  8
┌▓È_1
 62
     5
 10
979.30010365119995
 20
-397.53683141800002
 30
0.0
 11
985.70010365119992
 21
-397.53683141800002
 31
0.0
  0
LINE
  5
1D2
  8
┌▓È_1
 62
     5
 10
958.15213141389995
 20
-406.33683141799997
 30
0.0
 11
960.07213141390014
 21
-406.33683141799997
 31
0.0
  0
LINE
  5
1D3
  8
┌▓È_1
 62
     5
 10
958.15213141389995
 20
-406.33683141799997
 30
0.0
 11
958.15213141389995
 21
-408.73683141799989
 31
0.0
  0
INSERT
  5
1D4
  8
0
  6
CONTINUOUS
  2
*U26
 10
0.0
 20
0.0
 30
0.0
  0
LINE
  5
1D5
  8
┌▓È_1
 62
     5
 10
969.13248237720006
 20
-405.29544135229997
 30
0.0
 11
968.8475190815999
 21
-405.57444638299989
 31
0.0
  0
LINE
  5
1D6
  8
┌▓È_1
 62
     5
 10
940.2951617169
 20
-403.13683141799999
 30
0.0
 11
940.2951617169
 21
-405.53683141799991
 31
0.0
  0
INSERT
  5
1D7
  8
0
  6
CONTINUOUS
  2
*U27
 10
0.0
 20
0.0
 30
0.0
  0
LINE
  5
1D8
  8
┌▓È_1
 62
     5
 10
984.62964662080003
 20
-400.25683141799999
 30
0.0
 11
990.50010365119999
 21
-400.25683141799999
 31
0.0
  0
LINE
  5
1D9
  8
┌▓È_1
 10
871.90075898490011
 20
-360.79310816499998
 30
0.0
 11
871.90075898490011
 21
-411.79310816499998
 31
0.0
  0
LINE
  5
1DA
  8
┌▓È_1
 10
999.90075898489999
 20
-360.79310816499998
 30
0.0
 11
999.90075898489999
 21
-411.79310816499998
 31
0.0
  0
LINE
  5
1DB
  8
┌▓È_1
 10
903.90075898490011
 20
-360.79310816499998
 30
0.0
 11
903.90075898490011
 21
-377.79310816499998
 31
0.0
  0
LINE
  5
1DC
  8
┌▓È_1
 10
967.90075898490022
 20
-360.79310816499998
 30
0.0
 11
967.90075898490022
 21
-394.79310816499998
 31
0.0
  0
LINE
  5
1DD
  8
┌▓È_1
 62
     5
 10
976.1001036511999
 20
-400.25683141799999
 30
0.0
 11
976.1001036511999
 21
-403.13683141799999
 31
0.0
  0
LINE
  5
1DE
  8
┌▓È_1
 62
     5
 10
951.49516171690004
 20
-403.936831418
 30
0.0
 11
951.49516171690004
 21
-403.13683141799999
 31
0.0
  0
LINE
  5
1DF
  8
┌▓È_1
 62
     5
 10
958.15213141389995
 20
-401.25220784589987
 30
0.0
 11
964.55213141390016
 21
-401.25220784589987
 31
0.0
  0
LINE
  5
1E0
  8
┌▓È_1
 62
     5
 10
965.41023140059986
 20
-403.1673448661
 30
0.0
 11
965.02527811050015
 21
-403.59252624300001
 31
0.0
  0
ARC
  5
1E1
  8
┌▓È_1
 62
     5
 10
945.09516171689995
 20
-403.936831418
 30
0.0
 40
2.399999999999999
 50
270.0
 51
0.0
  0
LINE
  5
1E2
  8
┌▓È_1
 62
     5
 10
986.65551057489995
 20
-407.29683141800001
 30
0.0
 11
990.50010365119999
 21
-407.29683141800001
 31
0.0
  0
LINE
  5
1E3
  8
┌▓È_1
 62
     5
 10
944.29516171689988
 20
-405.53683141799991
 30
0.0
 11
944.29516171689988
 21
-403.13683141799999
 31
0.0
  0
LINE
  5
1E4
  8
┌▓È_1
 62
     5
 10
976.1001036511999
 20
-404.41683141800002
 30
0.0
 11
976.1001036511999
 21
-407.29683141800001
 31
0.0
  0
LINE
  5
1E5
  8
┌▓È_1
 62
     5
 10
976.1001036511999
 20
-403.13683141799999
 30
0.0
 11
980.94277031779995
 21
-403.13683141799999
 31
0.0
  0
LINE
  5
1E6
  8
┌▓È_1
 62
     5
 10
990.50010365119999
 20
-400.25683141799999
 30
0.0
 11
990.50010365119999
 21
-403.13683141799999
 31
0.0
  0
LINE
  5
1E7
  8
┌▓È_1
 62
     5
 10
958.15213141389995
 20
-400.41683141800002
 30
0.0
 11
966.15213141389995
 21
-400.41683141800002
 31
0.0
  0
LINE
  5
1E8
  8
┌▓È_1
 62
     5
 10
945.09516171689995
 20
-406.33683141799997
 30
0.0
 11
940.2951617169
 21
-406.33683141799997
 31
0.0
  0
LINE
  5
1E9
  8
┌▓È_1
 62
     5
 10
982.82010365119982
 20
-409.53683141799991
 30
0.0
 11
982.16303698449985
 21
-407.29683141800001
 31
0.0
  0
LINE
  5
1EA
  8
┌▓È_1
 62
     5
 10
985.82674804819999
 20
-404.41683141800002
 30
0.0
 11
985.45840914749999
 21
-403.13683141799999
 31
0.0
  0
LINE
  5
1EB
  8
┌▓È_1
 62
     5
 10
940.2951617169
 20
-406.33683141799997
 30
0.0
 11
940.2951617169
 21
-408.73683141799989
 31
0.0
  0
LINE
  5
1EC
  8
┌▓È_1
 62
     5
 10
940.2951617169
 20
-403.13683141799999
 30
0.0
 11
940.0533956183998
 21
-403.13683141799999
 31
0.0
  0
LINE
  5
1ED
  8
┌▓È_1
 62
     5
 10
981.3182369845
 20
-404.41683141800002
 30
0.0
 11
980.94277031779995
 21
-403.13683141799999
 31
0.0
  0
LINE
  5
1EE
  8
┌▓È_1
 62
     5
 10
990.50010365119999
 20
-404.41683141800002
 30
0.0
 11
990.50010365119999
 21
-407.29683141800001
 31
0.0
  0
LINE
  5
1EF
  8
┌▓È_1
 62
     5
 10
940.2951617169
 20
-400.73683141799989
 30
0.0
 11
938.45339561840001
 21
-400.73683141799989
 31
0.0
  0
LINE
  5
1F0
  8
┌▓È_1
 62
     5
 10
958.15213141389995
 20
-408.73683141799989
 30
0.0
 11
958.15213141389995
 21
-406.33683141799997
 31
0.0
  0
LINE
  5
1F1
  8
┌▓È_1
 62
     5
 10
944.29516171689988
 20
-400.73683141799989
 30
0.0
 11
944.29516171689988
 21
-399.93683141800011
 31
0.0
  0
LINE
  5
1F2
  8
┌▓È_1
 62
     5
 10
976.1001036511999
 20
-407.29683141800001
 30
0.0
 11
982.16303698449985
 21
-407.29683141800001
 31
0.0
  0
ARC
  5
1F3
  8
┌▓È_1
 62
     5
 10
962.15213141389995
 20
-399.93683141800011
 30
0.0
 40
8.8000000000000007
 50
322.48761197969998
 51
0.0
  0
LINE
  5
1F4
  8
┌▓È_1
 62
     5
 10
985.82674804819999
 20
-404.41683141800002
 30
0.0
 11
990.50010365119999
 21
-404.41683141800002
 31
0.0
  0
LINE
  5
1F5
  8
┌▓È_1
 62
     5
 10
987.30010365119995
 20
-409.53683141799991
 30
0.0
 11
986.65551057489995
 21
-407.29683141800001
 31
0.0
  0
LINE
  5
1F6
  8
┌▓È_1
 62
     5
 10
944.29516171689988
 20
-403.13683141799999
 30
0.0
 11
947.49516171690016
 21
-403.13683141799999
 31
0.0
  0
LINE
  5
1F7
  8
┌▓È_1
 62
     5
 10
947.49516171690016
 20
-403.13683141799999
 30
0.0
 11
947.49516171690016
 21
-403.936831418
 31
0.0
  0
LINE
  5
1F8
  8
┌▓È_1
 62
     5
 10
976.1001036511999
 20
-400.25683141799999
 30
0.0
 11
980.09797031779988
 21
-400.25683141799999
 31
0.0
  0
LINE
  5
1F9
  8
┌▓È_1
 62
     5
 10
951.49516171690004
 20
-400.73683141799989
 30
0.0
 11
951.49516171690004
 21
-399.93683141800011
 31
0.0
  0
LINE
  5
1FA
  8
┌▓È_1
 62
     5
 10
953.89516171690013
 20
-400.73683141799989
 30
0.0
 11
951.49516171690004
 21
-400.73683141799989
 31
0.0
  0
LINE
  5
1FB
  8
┌▓È_1
 10
939.90075898489999
 20
-369.29310816499998
 30
0.0
 11
963.90075898490011
 21
-369.29310816499998
 31
0.0
  0
LINE
  5
1FC
  8
┌▓È_1
 10
939.90075898489999
 20
-386.29310816499998
 30
0.0
 11
963.90075898490011
 21
-386.29310816499998
 31
0.0
  0
INSERT
  5
1FD
  8
0
  6
CONTINUOUS
  2
*U28
 10
0.0
 20
0.0
 30
0.0
  0
INSERT
  5
1FE
  8
0
  6
CONTINUOUS
  2
*U29
 10
0.0
 20
0.0
 30
0.0
  0
INSERT
  5
1FF
  8
0
  6
CONTINUOUS
  2
*U30
 10
0.0
 20
0.0
 30
0.0
  0
INSERT
  5
200
  8
0
  6
CONTINUOUS
  2
*U31
 10
0.0
 20
0.0
 30
0.0
  0
INSERT
  5
201
  8
0
  6
CONTINUOUS
  2
*U32
 10
0.0
 20
0.0
 30
0.0
  0
INSERT
  5
202
  8
0
  6
CONTINUOUS
  2
*U33
 10
0.0
 20
0.0
 30
0.0
  0
INSERT
  5
203
  8
0
  6
CONTINUOUS
  2
*U34
 10
0.0
 20
0.0
 30
0.0
  0
INSERT
  5
204
  8
0
  6
CONTINUOUS
  2
*U35
 10
0.0
 20
0.0
 30
0.0
  0
INSERT
  5
205
  8
0
  6
CONTINUOUS
  2
*U36
 10
0.0
 20
0.0
 30
0.0
  0
ARC
  5
206
  8
┌▓È_1
 62
     5
 10
960.07213141390014
 20
-400.25683141799999
 30
0.0
 40
6.0800000000000001
 50
270.0
 51
298.08590481520002
  0
INSERT
  5
207
  8
0
  6
CONTINUOUS
  2
*U37
 10
0.0
 20
0.0
 30
0.0
  0
INSERT
  5
208
  8
0
  6
CONTINUOUS
  2
*U38
 10
0.0
 20
0.0
 30
0.0
  0
INSERT
  5
209
  8
0
  6
CONTINUOUS
  2
*U39
 10
0.0
 20
0.0
 30
0.0
  0
INSERT
  5
20A
  8
0
  6
CONTINUOUS
  2
*U40
 10
0.0
 20
0.0
 30
0.0
  0
LINE
  5
20B
  8
┌▓È_1
 62
     5
 10
980.09797031779988
 20
-400.25683141799999
 30
0.0
 11
979.30010365119995
 21
-397.53683141800002
 31
0.0
  0
LINE
  5
20C
  8
┌▓È_1
 62
     5
 10
940.2951617169
 20
-397.53683141800002
 30
0.0
 11
940.2951617169
 21
-400.73683141799989
 31
0.0
  0
LINE
  5
20D
  8
┌▓È_1
 62
     5
 10
944.29516171689988
 20
-399.93683141800011
 30
0.0
 11
946.69516171689997
 21
-397.53683141800002
 31
0.0
  0
LINE
  5
20E
  8
┌▓È_1
 62
     5
 10
946.69516171689997
 20
-397.53683141800002
 30
0.0
 11
940.2951617169
 21
-397.53683141800002
 31
0.0
  0
LINE
  5
20F
  8
┌▓È_1
 62
     5
 10
947.49516171690016
 20
-400.73683141799989
 30
0.0
 11
944.29516171689988
 21
-400.73683141799989
 31
0.0
  0
LINE
  5
210
  8
┌▓È_1
 62
     5
 10
984.39541582050015
 20
-399.44286519320002
 30
0.0
 11
985.70010365119992
 21
-397.53683141800002
 31
0.0
  0
ARC
  5
211
  8
┌▓È_1
 62
     5
 10
946.69516171689997
 20
-403.936831418
 30
0.0
 40
4.7999999999999989
 50
270.0
 51
0.0
  0
LINE
  5
212
  8
┌▓È_1
 62
     5
 10
958.15213141389995
 20
-397.53683141800002
 30
0.0
 11
958.15213141389995
 21
-400.41683141800002
 31
0.0
  0
LINE
  5
213
  8
┌▓È_1
 62
     5
 10
953.89516171690013
 20
-397.53683141800002
 30
0.0
 11
947.49516171690016
 21
-397.53683141800002
 31
0.0
  0
LINE
  5
214
  8
┌▓È_1
 62
     5
 10
1029.9418781848001
 20
-216.63224507039999
 30
0.0
 11
1029.9418781848001
 21
-230.38224507039999
 31
0.0
  0
LINE
  5
215
  8
┌▓È_1
 62
     5
 10
1004.9418781848
 20
-216.63224507039999
 30
0.0
 11
1004.9418781848
 21
-230.38224507039999
 31
0.0
  0
LINE
  5
216
  8
┌▓È_1
 62
     5
 10
1029.9418781848001
 20
-216.63224507039999
 30
0.0
 11
1038.6918781848001
 21
-207.88224507039999
 31
0.0
  0
LINE
  5
217
  8
┌▓È_1
  6
BORDER
 62
     3
 10
1017.4418781848
 20
-201.3655237163
 30
0.0
 11
1017.4418781848
 21
-234.8655237163
 31
0.0
  0
LINE
  5
218
  8
┌▓È_1
 62
     5
 10
1004.9418781848
 20
-216.63224507039999
 30
0.0
 11
1029.9418781848001
 21
-216.63224507039999
 31
0.0
  0
LINE
  5
219
  8
┌▓È_1
 62
     5
 10
996.19187818479998
 20
-207.88224507039999
 30
0.0
 11
1004.9418781848
 21
-216.63224507039999
 31
0.0
  0
LINE
  5
21A
  8
┌▓È_1
 62
     5
 10
981.51174855509987
 20
-207.88224507039999
 30
0.0
 11
1054.5103596662
 21
-207.88224507039999
 31
0.0
  0
LINE
  5
21B
  8
┌▓È_1
 62
     5
 10
981.51174855509987
 20
-230.38224507039999
 30
0.0
 11
1054.5103596662
 21
-230.38224507039999
 31
0.0
  0
POLYLINE
  8
┌▓È_1
  5
2B0
  62
5
  66
     1
 10
0.000000
 20
0.000000
 30
0.000000
  70
     8
  0
VERTEX
  8
┌▓È_1
  5
2B1
 10
963.647
 20
-402.157
 30
0.000000
  70
    32
  0
VERTEX
  8
┌▓È_1
  5
2B2
 10
963.658
 20
-402.169
 30
0.000000
  70
    32
  0
VERTEX
  8
┌▓È_1
  5
2B3
 10
963.668
 20
-402.181
 30
0.000000
  70
    32
  0
VERTEX
  8
┌▓È_1
  5
2B4
 10
963.679
 20
-402.193
 30
0.000000
  70
    32
  0
VERTEX
  8
┌▓È_1
  5
2B5
 10
963.689
 20
-402.204
 30
0.000000
  70
    32
  0
VERTEX
  8
┌▓È_1
  5
2B6
 10
963.700
 20
-402.216
 30
0.000000
  70
    32
  0
VERTEX
  8
┌▓È_1
  5
2B7
 10
963.710
 20
-402.228
 30
0.000000
  70
    32
  0
VERTEX
  8
┌▓È_1
  5
2B8
 10
963.721
 20
-402.240
 30
0.000000
  70
    32
  0
VERTEX
  8
┌▓È_1
  5
2B9
 10
963.732
 20
-402.251
 30
0.000000
  70
    32
  0
VERTEX
  8
┌▓È_1
  5
2BA
 10
963.742
 20
-402.263
 30
0.000000
  70
    32
  0
VERTEX
  8
┌▓È_1
  5
2BB
 10
963.753
 20
-402.275
 30
0.000000
  70
    32
  0
VERTEX
  8
┌▓È_1
  5
2BC
 10
963.763
 20
-402.287
 30
0.000000
  70
    32
  0
VERTEX
  8
┌▓È_1
  5
2BD
 10
963.774
 20
-402.299
 30
0.000000
  70
    32
  0
VERTEX
  8
┌▓È_1
  5
2BE
 10
963.784
 20
-402.310
 30
0.000000
  70
    32
  0
VERTEX
  8
┌▓È_1
  5
2BF
 10
963.795
 20
-402.322
 30
0.000000
  70
    32
  0
VERTEX
  8
┌▓È_1
  5
2C0
 10
963.805
 20
-402.334
 30
0.000000
  70
    32
  0
VERTEX
  8
┌▓È_1
  5
2C1
 10
963.816
 20
-402.346
 30
0.000000
  70
    32
  0
VERTEX
  8
┌▓È_1
  5
2C2
 10
963.827
 20
-402.357
 30
0.000000
  70
    32
  0
VERTEX
  8
┌▓È_1
  5
2C3
 10
963.837
 20
-402.369
 30
0.000000
  70
    32
  0
VERTEX
  8
┌▓È_1
  5
2C4
 10
963.848
 20
-402.381
 30
0.000000
  70
    32
  0
VERTEX
  8
┌▓È_1
  5
2C5
 10
963.858
 20
-402.393
 30
0.000000
  70
    32
  0
VERTEX
  8
┌▓È_1
  5
2C6
 10
963.869
 20
-402.404
 30
0.000000
  70
    32
  0
VERTEX
  8
┌▓È_1
  5
2C7
 10
963.880
 20
-402.416
 30
0.000000
  70
    32
  0
VERTEX
  8
┌▓È_1
  5
2C8
 10
963.890
 20
-402.428
 30
0.000000
  70
    32
  0
VERTEX
  8
┌▓È_1
  5
2C9
 10
963.901
 20
-402.439
 30
0.000000
  70
    32
  0
VERTEX
  8
┌▓È_1
  5
2CA
 10
963.911
 20
-402.451
 30
0.000000
  70
    32
  0
VERTEX
  8
┌▓È_1
  5
2CB
 10
963.922
 20
-402.463
 30
0.000000
  70
    32
  0
VERTEX
  8
┌▓È_1
  5
2CC
 10
963.932
 20
-402.475
 30
0.000000
  70
    32
  0
VERTEX
  8
┌▓È_1
  5
2CD
 10
963.943
 20
-402.486
 30
0.000000
  70
    32
  0
VERTEX
  8
┌▓È_1
  5
2CE
 10
963.954
 20
-402.498
 30
0.000000
  70
    32
  0
VERTEX
  8
┌▓È_1
  5
2CF
 10
963.964
 20
-402.510
 30
0.000000
  70
    32
  0
VERTEX
  8
┌▓È_1
  5
2D0
 10
963.975
 20
-402.521
 30
0.000000
  70
    32
  0
VERTEX
  8
┌▓È_1
  5
2D1
 10
963.986
 20
-402.533
 30
0.000000
  70
    32
  0
VERTEX
  8
┌▓È_1
  5
2D2
 10
963.996
 20
-402.545
 30
0.000000
  70
    32
  0
VERTEX
  8
┌▓È_1
  5
2D3
 10
964.007
 20
-402.556
 30
0.000000
  70
    32
  0
VERTEX
  8
┌▓È_1
  5
2D4
 10
964.017
 20
-402.568
 30
0.000000
  70
    32
  0
VERTEX
  8
┌▓È_1
  5
2D5
 10
964.028
 20
-402.580
 30
0.000000
  70
    32
  0
VERTEX
  8
┌▓È_1
  5
2D6
 10
964.039
 20
-402.591
 30
0.000000
  70
    32
  0
VERTEX
  8
┌▓È_1
  5
2D7
 10
964.049
 20
-402.603
 30
0.000000
  70
    32
  0
VERTEX
  8
┌▓È_1
  5
2D8
 10
964.060
 20
-402.615
 30
0.000000
  70
    32
  0
VERTEX
  8
┌▓È_1
  5
2D9
 10
964.071
 20
-402.626
 30
0.000000
  70
    32
  0
VERTEX
  8
┌▓È_1
  5
2DA
 10
964.081
 20
-402.638
 30
0.000000
  70
    32
  0
VERTEX
  8
┌▓È_1
  5
2DB
 10
964.092
 20
-402.650
 30
0.000000
  70
    32
  0
VERTEX
  8
┌▓È_1
  5
2DC
 10
964.103
 20
-402.661
 30
0.000000
  70
    32
  0
VERTEX
  8
┌▓È_1
  5
2DD
 10
964.113
 20
-402.673
 30
0.000000
  70
    32
  0
VERTEX
  8
┌▓È_1
  5
2DE
 10
964.124
 20
-402.684
 30
0.000000
  70
    32
  0
VERTEX
  8
┌▓È_1
  5
2DF
 10
964.135
 20
-402.696
 30
0.000000
  70
    32
  0
VERTEX
  8
┌▓È_1
  5
2E0
 10
964.145
 20
-402.708
 30
0.000000
  70
    32
  0
VERTEX
  8
┌▓È_1
  5
2E1
 10
964.156
 20
-402.719
 30
0.000000
  70
    32
  0
VERTEX
  8
┌▓È_1
  5
2E2
 10
964.167
 20
-402.731
 30
0.000000
  70
    32
  0
VERTEX
  8
┌▓È_1
  5
2E3
 10
964.177
 20
-402.742
 30
0.000000
  70
    32
  0
VERTEX
  8
┌▓È_1
  5
2E4
 10
964.188
 20
-402.754
 30
0.000000
  70
    32
  0
VERTEX
  8
┌▓È_1
  5
2E5
 10
964.199
 20
-402.765
 30
0.000000
  70
    32
  0
VERTEX
  8
┌▓È_1
  5
2E6
 10
964.209
 20
-402.777
 30
0.000000
  70
    32
  0
VERTEX
  8
┌▓È_1
  5
2E7
 10
964.220
 20
-402.788
 30
0.000000
  70
    32
  0
VERTEX
  8
┌▓È_1
  5
2E8
 10
964.231
 20
-402.800
 30
0.000000
  70
    32
  0
VERTEX
  8
┌▓È_1
  5
2E9
 10
964.242
 20
-402.811
 30
0.000000
  70
    32
  0
VERTEX
  8
┌▓È_1
  5
2EA
 10
964.252
 20
-402.823
 30
0.000000
  70
    32
  0
VERTEX
  8
┌▓È_1
  5
2EB
 10
964.263
 20
-402.834
 30
0.000000
  70
    32
  0
VERTEX
  8
┌▓È_1
  5
2EC
 10
964.274
 20
-402.846
 30
0.000000
  70
    32
  0
VERTEX
  8
┌▓È_1
  5
2ED
 10
964.285
 20
-402.857
 30
0.000000
  70
    32
  0
VERTEX
  8
┌▓È_1
  5
2EE
 10
964.295
 20
-402.869
 30
0.000000
  70
    32
  0
VERTEX
  8
┌▓È_1
  5
2EF
 10
964.306
 20
-402.880
 30
0.000000
  70
    32
  0
VERTEX
  8
┌▓È_1
  5
2F0
 10
964.317
 20
-402.892
 30
0.000000
  70
    32
  0
VERTEX
  8
┌▓È_1
  5
2F1
 10
964.328
 20
-402.903
 30
0.000000
  70
    32
  0
VERTEX
  8
┌▓È_1
  5
2F2
 10
964.338
 20
-402.915
 30
0.000000
  70
    32
  0
VERTEX
  8
┌▓È_1
  5
2F3
 10
964.349
 20
-402.926
 30
0.000000
  70
    32
  0
VERTEX
  8
┌▓È_1
  5
2F4
 10
964.360
 20
-402.937
 30
0.000000
  70
    32
  0
VERTEX
  8
┌▓È_1
  5
2F5
 10
964.371
 20
-402.949
 30
0.000000
  70
    32
  0
VERTEX
  8
┌▓È_1
  5
2F6
 10
964.382
 20
-402.960
 30
0.000000
  70
    32
  0
VERTEX
  8
┌▓È_1
  5
2F7
 10
964.392
 20
-402.971
 30
0.000000
  70
    32
  0
VERTEX
  8
┌▓È_1
  5
2F8
 10
964.403
 20
-402.983
 30
0.000000
  70
    32
  0
VERTEX
  8
┌▓È_1
  5
2F9
 10
964.414
 20
-402.994
 30
0.000000
  70
    32
  0
VERTEX
  8
┌▓È_1
  5
2FA
 10
964.425
 20
-403.005
 30
0.000000
  70
    32
  0
VERTEX
  8
┌▓È_1
  5
2FB
 10
964.436
 20
-403.017
 30
0.000000
  70
    32
  0
VERTEX
  8
┌▓È_1
  5
2FC
 10
964.447
 20
-403.028
 30
0.000000
  70
    32
  0
VERTEX
  8
┌▓È_1
  5
2FD
 10
964.457
 20
-403.039
 30
0.000000
  70
    32
  0
VERTEX
  8
┌▓È_1
  5
2FE
 10
964.468
 20
-403.050
 30
0.000000
  70
    32
  0
VERTEX
  8
┌▓È_1
  5
2FF
 10
964.479
 20
-403.062
 30
0.000000
  70
    32
  0
VERTEX
  8
┌▓È_1
  5
300
 10
964.490
 20
-403.073
 30
0.000000
  70
    32
  0
VERTEX
  8
┌▓È_1
  5
301
 10
964.501
 20
-403.084
 30
0.000000
  70
    32
  0
VERTEX
  8
┌▓È_1
  5
302
 10
964.512
 20
-403.095
 30
0.000000
  70
    32
  0
VERTEX
  8
┌▓È_1
  5
303
 10
964.523
 20
-403.107
 30
0.000000
  70
    32
  0
VERTEX
  8
┌▓È_1
  5
304
 10
964.534
 20
-403.118
 30
0.000000
  70
    32
  0
VERTEX
  8
┌▓È_1
  5
305
 10
964.545
 20
-403.129
 30
0.000000
  70
    32
  0
VERTEX
  8
┌▓È_1
  5
306
 10
964.556
 20
-403.140
 30
0.000000
  70
    32
  0
VERTEX
  8
┌▓È_1
  5
307
 10
964.567
 20
-403.151
 30
0.000000
  70
    32
  0
VERTEX
  8
┌▓È_1
  5
308
 10
964.578
 20
-403.162
 30
0.000000
  70
    32
  0
VERTEX
  8
┌▓È_1
  5
309
 10
964.589
 20
-403.173
 30
0.000000
  70
    32
  0
VERTEX
  8
┌▓È_1
  5
30A
 10
964.600
 20
-403.184
 30
0.000000
  70
    32
  0
VERTEX
  8
┌▓È_1
  5
30B
 10
964.611
 20
-403.196
 30
0.000000
  70
    32
  0
VERTEX
  8
┌▓È_1
  5
30C
 10
964.622
 20
-403.207
 30
0.000000
  70
    32
  0
VERTEX
  8
┌▓È_1
  5
30D
 10
964.633
 20
-403.218
 30
0.000000
  70
    32
  0
VERTEX
  8
┌▓È_1
  5
30E
 10
964.644
 20
-403.229
 30
0.000000
  70
    32
  0
VERTEX
  8
┌▓È_1
  5
30F
 10
964.655
 20
-403.240
 30
0.000000
  70
    32
  0
VERTEX
  8
┌▓È_1
  5
310
 10
964.666
 20
-403.251
 30
0.000000
  70
    32
  0
VERTEX
  8
┌▓È_1
  5
311
 10
964.677
 20
-403.262
 30
0.000000
  70
    32
  0
VERTEX
  8
┌▓È_1
  5
312
 10
964.688
 20
-403.273
 30
0.000000
  70
    32
  0
VERTEX
  8
┌▓È_1
  5
313
 10
964.699
 20
-403.284
 30
0.000000
  70
    32
  0
VERTEX
  8
┌▓È_1
  5
314
 10
964.710
 20
-403.294
 30
0.000000
  70
    32
  0
VERTEX
  8
┌▓È_1
  5
315
 10
964.721
 20
-403.305
 30
0.000000
  70
    32
  0
VERTEX
  8
┌▓È_1
  5
316
 10
964.732
 20
-403.316
 30
0.000000
  70
    32
  0
VERTEX
  8
┌▓È_1
  5
317
 10
964.743
 20
-403.327
 30
0.000000
  70
    32
  0
VERTEX
  8
┌▓È_1
  5
318
 10
964.754
 20
-403.338
 30
0.000000
  70
    32
  0
VERTEX
  8
┌▓È_1
  5
319
 10
964.766
 20
-403.349
 30
0.000000
  70
    32
  0
VERTEX
  8
┌▓È_1
  5
31A
 10
964.777
 20
-403.360
 30
0.000000
  70
    32
  0
VERTEX
  8
┌▓È_1
  5
31B
 10
964.788
 20
-403.370
 30
0.000000
  70
    32
  0
VERTEX
  8
┌▓È_1
  5
31C
 10
964.799
 20
-403.381
 30
0.000000
  70
    32
  0
VERTEX
  8
┌▓È_1
  5
31D
 10
964.810
 20
-403.392
 30
0.000000
  70
    32
  0
VERTEX
  8
┌▓È_1
  5
31E
 10
964.822
 20
-403.403
 30
0.000000
  70
    32
  0
VERTEX
  8
┌▓È_1
  5
31F
 10
964.833
 20
-403.413
 30
0.000000
  70
    32
  0
VERTEX
  8
┌▓È_1
  5
320
 10
964.844
 20
-403.424
 30
0.000000
  70
    32
  0
VERTEX
  8
┌▓È_1
  5
321
 10
964.855
 20
-403.435
 30
0.000000
  70
    32
  0
VERTEX
  8
┌▓È_1
  5
322
 10
964.866
 20
-403.445
 30
0.000000
  70
    32
  0
VERTEX
  8
┌▓È_1
  5
323
 10
964.878
 20
-403.456
 30
0.000000
  70
    32
  0
VERTEX
  8
┌▓È_1
  5
324
 10
964.889
 20
-403.467
 30
0.000000
  70
    32
  0
VERTEX
  8
┌▓È_1
  5
325
 10
964.900
 20
-403.477
 30
0.000000
  70
    32
  0
VERTEX
  8
┌▓È_1
  5
326
 10
964.912
 20
-403.488
 30
0.000000
  70
    32
  0
VERTEX
  8
┌▓È_1
  5
327
 10
964.923
 20
-403.498
 30
0.000000
  70
    32
  0
VERTEX
  8
┌▓È_1
  5
328
 10
964.934
 20
-403.509
 30
0.000000
  70
    32
  0
VERTEX
  8
┌▓È_1
  5
329
 10
964.946
 20
-403.519
 30
0.000000
  70
    32
  0
VERTEX
  8
┌▓È_1
  5
32A
 10
964.957
 20
-403.530
 30
0.000000
  70
    32
  0
VERTEX
  8
┌▓È_1
  5
32B
 10
964.968
 20
-403.540
 30
0.000000
  70
    32
  0
VERTEX
  8
┌▓È_1
  5
32C
 10
964.980
 20
-403.551
 30
0.000000
  70
    32
  0
VERTEX
  8
┌▓È_1
  5
32D
 10
964.991
 20
-403.561
 30
0.000000
  70
    32
  0
VERTEX
  8
┌▓È_1
  5
32E
 10
965.002
 20
-403.572
 30
0.000000
  70
    32
  0
VERTEX
  8
┌▓È_1
  5
32F
 10
965.014
 20
-403.582
 30
0.000000
  70
    32
  0
VERTEX
  8
┌▓È_1
  5
330
 10
965.025
 20
-403.593
 30
0.000000
  70
    32
  0
SEQEND
  8
┌▓È_1
  5
331
  0
POLYLINE
  8
┌▓È_1
  5
332
  62
5
  66
     1
 10
0.000000
 20
0.000000
 30
0.000000
  70
     8
  0
VERTEX
  8
┌▓È_1
  5
333
 10
966.886
 20
-407.355
 30
0.000000
  70
    32
  0
VERTEX
  8
┌▓È_1
  5
334
 10
966.929
 20
-407.369
 30
0.000000
  70
    32
  0
VERTEX
  8
┌▓È_1
  5
335
 10
966.972
 20
-407.382
 30
0.000000
  70
    32
  0
VERTEX
  8
┌▓È_1
  5
336
 10
967.016
 20
-407.396
 30
0.000000
  70
    32
  0
VERTEX
  8
┌▓È_1
  5
337
 10
967.059
 20
-407.409
 30
0.000000
  70
    32
  0
VERTEX
  8
┌▓È_1
  5
338
 10
967.102
 20
-407.423
 30
0.000000
  70
    32
  0
VERTEX
  8
┌▓È_1
  5
339
 10
967.145
 20
-407.436
 30
0.000000
  70
    32
  0
VERTEX
  8
┌▓È_1
  5
33A
 10
967.188
 20
-407.450
 30
0.000000
  70
    32
  0
VERTEX
  8
┌▓È_1
  5
33B
 10
967.232
 20
-407.463
 30
0.000000
  70
    32
  0
VERTEX
  8
┌▓È_1
  5
33C
 10
967.275
 20
-407.476
 30
0.000000
  70
    32
  0
VERTEX
  8
┌▓È_1
  5
33D
 10
967.319
 20
-407.489
 30
0.000000
  70
    32
  0
VERTEX
  8
┌▓È_1
  5
33E
 10
967.362
 20
-407.502
 30
0.000000
  70
    32
  0
VERTEX
  8
┌▓È_1
  5
33F
 10
967.405
 20
-407.515
 30
0.000000
  70
    32
  0
VERTEX
  8
┌▓È_1
  5
340
 10
967.449
 20
-407.528
 30
0.000000
  70
    32
  0
VERTEX
  8
┌▓È_1
  5
341
 10
967.492
 20
-407.541
 30
0.000000
  70
    32
  0
VERTEX
  8
┌▓È_1
  5
342
 10
967.536
 20
-407.554
 30
0.000000
  70
    32
  0
VERTEX
  8
┌▓È_1
  5
343
 10
967.580
 20
-407.567
 30
0.000000
  70
    32
  0
VERTEX
  8
┌▓È_1
  5
344
 10
967.623
 20
-407.580
 30
0.000000
  70
    32
  0
VERTEX
  8
┌▓È_1
  5
345
 10
967.667
 20
-407.592
 30
0.000000
  70
    32
  0
VERTEX
  8
┌▓È_1
  5
346
 10
967.711
 20
-407.605
 30
0.000000
  70
    32
  0
VERTEX
  8
┌▓È_1
  5
347
 10
967.754
 20
-407.617
 30
0.000000
  70
    32
  0
VERTEX
  8
┌▓È_1
  5
348
 10
967.798
 20
-407.630
 30
0.000000
  70
    32
  0
VERTEX
  8
┌▓È_1
  5
349
 10
967.842
 20
-407.642
 30
0.000000
  70
    32
  0
VERTEX
  8
┌▓È_1
  5
34A
 10
967.886
 20
-407.655
 30
0.000000
  70
    32
  0
VERTEX
  8
┌▓È_1
  5
34B
 10
967.929
 20
-407.667
 30
0.000000
  70
    32
  0
VERTEX
  8
┌▓È_1
  5
34C
 10
967.973
 20
-407.679
 30
0.000000
  70
    32
  0
VERTEX
  8
┌▓È_1
  5
34D
 10
968.017
 20
-407.691
 30
0.000000
  70
    32
  0
VERTEX
  8
┌▓È_1
  5
34E
 10
968.061
 20
-407.704
 30
0.000000
  70
    32
  0
VERTEX
  8
┌▓È_1
  5
34F
 10
968.105
 20
-407.716
 30
0.000000
  70
    32
  0
VERTEX
  8
┌▓È_1
  5
350
 10
968.149
 20
-407.728
 30
0.000000
  70
    32
  0
VERTEX
  8
┌▓È_1
  5
351
 10
968.193
 20
-407.740
 30
0.000000
  70
    32
  0
VERTEX
  8
┌▓È_1
  5
352
 10
968.237
 20
-407.752
 30
0.000000
  70
    32
  0
VERTEX
  8
┌▓È_1
  5
353
 10
968.281
 20
-407.764
 30
0.000000
  70
    32
  0
VERTEX
  8
┌▓È_1
  5
354
 10
968.325
 20
-407.775
 30
0.000000
  70
    32
  0
VERTEX
  8
┌▓È_1
  5
355
 10
968.369
 20
-407.787
 30
0.000000
  70
    32
  0
VERTEX
  8
┌▓È_1
  5
356
 10
968.414
 20
-407.799
 30
0.000000
  70
    32
  0
VERTEX
  8
┌▓È_1
  5
357
 10
968.458
 20
-407.811
 30
0.000000
  70
    32
  0
VERTEX
  8
┌▓È_1
  5
358
 10
968.502
 20
-407.822
 30
0.000000
  70
    32
  0
VERTEX
  8
┌▓È_1
  5
359
 10
968.546
 20
-407.834
 30
0.000000
  70
    32
  0
VERTEX
  8
┌▓È_1
  5
35A
 10
968.590
 20
-407.845
 30
0.000000
  70
    32
  0
VERTEX
  8
┌▓È_1
  5
35B
 10
968.635
 20
-407.857
 30
0.000000
  70
    32
  0
VERTEX
  8
┌▓È_1
  5
35C
 10
968.679
 20
-407.868
 30
0.000000
  70
    32
  0
VERTEX
  8
┌▓È_1
  5
35D
 10
968.723
 20
-407.880
 30
0.000000
  70
    32
  0
VERTEX
  8
┌▓È_1
  5
35E
 10
968.768
 20
-407.891
 30
0.000000
  70
    32
  0
VERTEX
  8
┌▓È_1
  5
35F
 10
968.812
 20
-407.902
 30
0.000000
  70
    32
  0
VERTEX
  8
┌▓È_1
  5
360
 10
968.856
 20
-407.914
 30
0.000000
  70
    32
  0
VERTEX
  8
┌▓È_1
  5
361
 10
968.901
 20
-407.925
 30
0.000000
  70
    32
  0
VERTEX
  8
┌▓È_1
  5
362
 10
968.945
 20
-407.936
 30
0.000000
  70
    32
  0
VERTEX
  8
┌▓È_1
  5
363
 10
968.990
 20
-407.947
 30
0.000000
  70
    32
  0
VERTEX
  8
┌▓È_1
  5
364
 10
969.034
 20
-407.958
 30
0.000000
  70
    32
  0
VERTEX
  8
┌▓È_1
  5
365
 10
969.079
 20
-407.969
 30
0.000000
  70
    32
  0
VERTEX
  8
┌▓È_1
  5
366
 10
969.123
 20
-407.980
 30
0.000000
  70
    32
  0
VERTEX
  8
┌▓È_1
  5
367
 10
969.168
 20
-407.991
 30
0.000000
  70
    32
  0
VERTEX
  8
┌▓È_1
  5
368
 10
969.213
 20
-408.002
 30
0.000000
  70
    32
  0
VERTEX
  8
┌▓È_1
  5
369
 10
969.257
 20
-408.013
 30
0.000000
  70
    32
  0
VERTEX
  8
┌▓È_1
  5
36A
 10
969.302
 20
-408.024
 30
0.000000
  70
    32
  0
VERTEX
  8
┌▓È_1
  5
36B
 10
969.346
 20
-408.035
 30
0.000000
  70
    32
  0
VERTEX
  8
┌▓È_1
  5
36C
 10
969.391
 20
-408.046
 30
0.000000
  70
    32
  0
VERTEX
  8
┌▓È_1
  5
36D
 10
969.436
 20
-408.056
 30
0.000000
  70
    32
  0
VERTEX
  8
┌▓È_1
  5
36E
 10
969.481
 20
-408.067
 30
0.000000
  70
    32
  0
VERTEX
  8
┌▓È_1
  5
36F
 10
969.525
 20
-408.078
 30
0.000000
  70
    32
  0
VERTEX
  8
┌▓È_1
  5
370
 10
969.570
 20
-408.088
 30
0.000000
  70
    32
  0
VERTEX
  8
┌▓È_1
  5
371
 10
969.615
 20
-408.099
 30
0.000000
  70
    32
  0
VERTEX
  8
┌▓È_1
  5
372
 10
969.660
 20
-408.109
 30
0.000000
  70
    32
  0
VERTEX
  8
┌▓È_1
  5
373
 10
969.704
 20
-408.120
 30
0.000000
  70
    32
  0
VERTEX
  8
┌▓È_1
  5
374
 10
969.749
 20
-408.130
 30
0.000000
  70
    32
  0
VERTEX
  8
┌▓È_1
  5
375
 10
969.794
 20
-408.141
 30
0.000000
  70
    32
  0
VERTEX
  8
┌▓È_1
  5
376
 10
969.839
 20
-408.151
 30
0.000000
  70
    32
  0
VERTEX
  8
┌▓È_1
  5
377
 10
969.884
 20
-408.162
 30
0.000000
  70
    32
  0
VERTEX
  8
┌▓È_1
  5
378
 10
969.929
 20
-408.172
 30
0.000000
  70
    32
  0
VERTEX
  8
┌▓È_1
  5
379
 10
969.974
 20
-408.182
 30
0.000000
  70
    32
  0
VERTEX
  8
┌▓È_1
  5
37A
 10
970.019
 20
-408.193
 30
0.000000
  70
    32
  0
VERTEX
  8
┌▓È_1
  5
37B
 10
970.063
 20
-408.203
 30
0.000000
  70
    32
  0
VERTEX
  8
┌▓È_1
  5
37C
 10
970.108
 20
-408.213
 30
0.000000
  70
    32
  0
VERTEX
  8
┌▓È_1
  5
37D
 10
970.153
 20
-408.223
 30
0.000000
  70
    32
  0
VERTEX
  8
┌▓È_1
  5
37E
 10
970.198
 20
-408.234
 30
0.000000
  70
    32
  0
VERTEX
  8
┌▓È_1
  5
37F
 10
970.243
 20
-408.244
 30
0.000000
  70
    32
  0
VERTEX
  8
┌▓È_1
  5
380
 10
970.288
 20
-408.254
 30
0.000000
  70
    32
  0
VERTEX
  8
┌▓È_1
  5
381
 10
970.333
 20
-408.264
 30
0.000000
  70
    32
  0
VERTEX
  8
┌▓È_1
  5
382
 10
970.379
 20
-408.274
 30
0.000000
  70
    32
  0
VERTEX
  8
┌▓È_1
  5
383
 10
970.424
 20
-408.284
 30
0.000000
  70
    32
  0
VERTEX
  8
┌▓È_1
  5
384
 10
970.469
 20
-408.294
 30
0.000000
  70
    32
  0
VERTEX
  8
┌▓È_1
  5
385
 10
970.514
 20
-408.304
 30
0.000000
  70
    32
  0
VERTEX
  8
┌▓È_1
  5
386
 10
970.559
 20
-408.314
 30
0.000000
  70
    32
  0
VERTEX
  8
┌▓È_1
  5
387
 10
970.604
 20
-408.324
 30
0.000000
  70
    32
  0
VERTEX
  8
┌▓È_1
  5
388
 10
970.649
 20
-408.334
 30
0.000000
  70
    32
  0
VERTEX
  8
┌▓È_1
  5
389
 10
970.694
 20
-408.344
 30
0.000000
  70
    32
  0
VERTEX
  8
┌▓È_1
  5
38A
 10
970.739
 20
-408.354
 30
0.000000
  70
    32
  0
VERTEX
  8
┌▓È_1
  5
38B
 10
970.785
 20
-408.363
 30
0.000000
  70
    32
  0
VERTEX
  8
┌▓È_1
  5
38C
 10
970.830
 20
-408.373
 30
0.000000
  70
    32
  0
VERTEX
  8
┌▓È_1
  5
38D
 10
970.875
 20
-408.383
 30
0.000000
  70
    32
  0
VERTEX
  8
┌▓È_1
  5
38E
 10
970.920
 20
-408.393
 30
0.000000
  70
    32
  0
VERTEX
  8
┌▓È_1
  5
38F
 10
970.965
 20
-408.403
 30
0.000000
  70
    32
  0
VERTEX
  8
┌▓È_1
  5
390
 10
971.011
 20
-408.412
 30
0.000000
  70
    32
  0
VERTEX
  8
┌▓È_1
  5
391
 10
971.056
 20
-408.422
 30
0.000000
  70
    32
  0
VERTEX
  8
┌▓È_1
  5
392
 10
971.101
 20
-408.432
 30
0.000000
  70
    32
  0
VERTEX
  8
┌▓È_1
  5
393
 10
971.146
 20
-408.442
 30
0.000000
  70
    32
  0
VERTEX
  8
┌▓È_1
  5
394
 10
971.192
 20
-408.451
 30
0.000000
  70
    32
  0
VERTEX
  8
┌▓È_1
  5
395
 10
971.237
 20
-408.461
 30
0.000000
  70
    32
  0
VERTEX
  8
┌▓È_1
  5
396
 10
971.282
 20
-408.471
 30
0.000000
  70
    32
  0
VERTEX
  8
┌▓È_1
  5
397
 10
971.327
 20
-408.480
 30
0.000000
  70
    32
  0
VERTEX
  8
┌▓È_1
  5
398
 10
971.373
 20
-408.490
 30
0.000000
  70
    32
  0
VERTEX
  8
┌▓È_1
  5
399
 10
971.418
 20
-408.500
 30
0.000000
  70
    32
  0
VERTEX
  8
┌▓È_1
  5
39A
 10
971.463
 20
-408.509
 30
0.000000
  70
    32
  0
VERTEX
  8
┌▓È_1
  5
39B
 10
971.509
 20
-408.519
 30
0.000000
  70
    32
  0
VERTEX
  8
┌▓È_1
  5
39C
 10
971.554
 20
-408.528
 30
0.000000
  70
    32
  0
VERTEX
  8
┌▓È_1
  5
39D
 10
971.599
 20
-408.538
 30
0.000000
  70
    32
  0
VERTEX
  8
┌▓È_1
  5
39E
 10
971.645
 20
-408.547
 30
0.000000
  70
    32
  0
VERTEX
  8
┌▓È_1
  5
39F
 10
971.690
 20
-408.557
 30
0.000000
  70
    32
  0
VERTEX
  8
┌▓È_1
  5
3A0
 10
971.735
 20
-408.566
 30
0.000000
  70
    32
  0
VERTEX
  8
┌▓È_1
  5
3A1
 10
971.781
 20
-408.576
 30
0.000000
  70
    32
  0
VERTEX
  8
┌▓È_1
  5
3A2
 10
971.826
 20
-408.585
 30
0.000000
  70
    32
  0
VERTEX
  8
┌▓È_1
  5
3A3
 10
971.871
 20
-408.595
 30
0.000000
  70
    32
  0
VERTEX
  8
┌▓È_1
  5
3A4
 10
971.917
 20
-408.604
 30
0.000000
  70
    32
  0
VERTEX
  8
┌▓È_1
  5
3A5
 10
971.962
 20
-408.614
 30
0.000000
  70
    32
  0
VERTEX
  8
┌▓È_1
  5
3A6
 10
972.007
 20
-408.623
 30
0.000000
  70
    32
  0
VERTEX
  8
┌▓È_1
  5
3A7
 10
972.053
 20
-408.633
 30
0.000000
  70
    32
  0
VERTEX
  8
┌▓È_1
  5
3A8
 10
972.098
 20
-408.642
 30
0.000000
  70
    32
  0
VERTEX
  8
┌▓È_1
  5
3A9
 10
972.144
 20
-408.652
 30
0.000000
  70
    32
  0
VERTEX
  8
┌▓È_1
  5
3AA
 10
972.189
 20
-408.661
 30
0.000000
  70
    32
  0
VERTEX
  8
┌▓È_1
  5
3AB
 10
972.234
 20
-408.671
 30
0.000000
  70
    32
  0
VERTEX
  8
┌▓È_1
  5
3AC
 10
972.280
 20
-408.680
 30
0.000000
  70
    32
  0
VERTEX
  8
┌▓È_1
  5
3AD
 10
972.325
 20
-408.690
 30
0.000000
  70
    32
  0
VERTEX
  8
┌▓È_1
  5
3AE
 10
972.371
 20
-408.699
 30
0.000000
  70
    32
  0
VERTEX
  8
┌▓È_1
  5
3AF
 10
972.416
 20
-408.709
 30
0.000000
  70
    32
  0
VERTEX
  8
┌▓È_1
  5
3B0
 10
972.461
 20
-408.718
 30
0.000000
  70
    32
  0
VERTEX
  8
┌▓È_1
  5
3B1
 10
972.507
 20
-408.727
 30
0.000000
  70
    32
  0
VERTEX
  8
┌▓È_1
  5
3B2
 10
972.552
 20
-408.737
 30
0.000000
  70
    32
  0
SEQEND
  8
┌▓È_1
  5
3B3
  0
POLYLINE
  8
┌▓È_1
  5
3B4
  62
5
  66
     1
 10
0.000000
 20
0.000000
 30
0.000000
  70
     8
  0
VERTEX
  8
┌▓È_1
  5
3B5
 10
958.152
 20
-401.768
 30
0.000000
  70
    32
  0
VERTEX
  8
┌▓È_1
  5
3B6
 10
958.181
 20
-401.794
 30
0.000000
  70
    32
  0
VERTEX
  8
┌▓È_1
  5
3B7
 10
958.210
 20
-401.821
 30
0.000000
  70
    32
  0
VERTEX
  8
┌▓È_1
  5
3B8
 10
958.239
 20
-401.847
 30
0.000000
  70
    32
  0
VERTEX
  8
┌▓È_1
  5
3B9
 10
958.267
 20
-401.874
 30
0.000000
  70
    32
  0
VERTEX
  8
┌▓È_1
  5
3BA
 10
958.296
 20
-401.900
 30
0.000000
  70
    32
  0
VERTEX
  8
┌▓È_1
  5
3BB
 10
958.325
 20
-401.927
 30
0.000000
  70
    32
  0
VERTEX
  8
┌▓È_1
  5
3BC
 10
958.354
 20
-401.954
 30
0.000000
  70
    32
  0
VERTEX
  8
┌▓È_1
  5
3BD
 10
958.383
 20
-401.980
 30
0.000000
  70
    32
  0
VERTEX
  8
┌▓È_1
  5
3BE
 10
958.412
 20
-402.007
 30
0.000000
  70
    32
  0
VERTEX
  8
┌▓È_1
  5
3BF
 10
958.440
 20
-402.033
 30
0.000000
  70
    32
  0
VERTEX
  8
┌▓È_1
  5
3C0
 10
958.469
 20
-402.060
 30
0.000000
  70
    32
  0
VERTEX
  8
┌▓È_1
  5
3C1
 10
958.498
 20
-402.086
 30
0.000000
  70
    32
  0
VERTEX
  8
┌▓È_1
  5
3C2
 10
958.527
 20
-402.113
 30
0.000000
  70
    32
  0
VERTEX
  8
┌▓È_1
  5
3C3
 10
958.556
 20
-402.139
 30
0.000000
  70
    32
  0
VERTEX
  8
┌▓È_1
  5
3C4
 10
958.585
 20
-402.166
 30
0.000000
  70
    32
  0
VERTEX
  8
┌▓È_1
  5
3C5
 10
958.613
 20
-402.192
 30
0.000000
  70
    32
  0
VERTEX
  8
┌▓È_1
  5
3C6
 10
958.642
 20
-402.219
 30
0.000000
  70
    32
  0
VERTEX
  8
┌▓È_1
  5
3C7
 10
958.671
 20
-402.245
 30
0.000000
  70
    32
  0
VERTEX
  8
┌▓È_1
  5
3C8
 10
958.700
 20
-402.272
 30
0.000000
  70
    32
  0
VERTEX
  8
┌▓È_1
  5
3C9
 10
958.729
 20
-402.298
 30
0.000000
  70
    32
  0
VERTEX
  8
┌▓È_1
  5
3CA
 10
958.758
 20
-402.325
 30
0.000000
  70
    32
  0
VERTEX
  8
┌▓È_1
  5
3CB
 10
958.787
 20
-402.351
 30
0.000000
  70
    32
  0
VERTEX
  8
┌▓È_1
  5
3CC
 10
958.816
 20
-402.377
 30
0.000000
  70
    32
  0
VERTEX
  8
┌▓È_1
  5
3CD
 10
958.844
 20
-402.404
 30
0.000000
  70
    32
  0
VERTEX
  8
┌▓È_1
  5
3CE
 10
958.873
 20
-402.430
 30
0.000000
  70
    32
  0
VERTEX
  8
┌▓È_1
  5
3CF
 10
958.902
 20
-402.457
 30
0.000000
  70
    32
  0
VERTEX
  8
┌▓È_1
  5
3D0
 10
958.931
 20
-402.483
 30
0.000000
  70
    32
  0
VERTEX
  8
┌▓È_1
  5
3D1
 10
958.960
 20
-402.509
 30
0.000000
  70
    32
  0
VERTEX
  8
┌▓È_1
  5
3D2
 10
958.989
 20
-402.536
 30
0.000000
  70
    32
  0
VERTEX
  8
┌▓È_1
  5
3D3
 10
959.018
 20
-402.562
 30
0.000000
  70
    32
  0
VERTEX
  8
┌▓È_1
  5
3D4
 10
959.047
 20
-402.588
 30
0.000000
  70
    32
  0
VERTEX
  8
┌▓È_1
  5
3D5
 10
959.076
 20
-402.615
 30
0.000000
  70
    32
  0
VERTEX
  8
┌▓È_1
  5
3D6
 10
959.105
 20
-402.641
 30
0.000000
  70
    32
  0
VERTEX
  8
┌▓È_1
  5
3D7
 10
959.134
 20
-402.667
 30
0.000000
  70
    32
  0
VERTEX
  8
┌▓È_1
  5
3D8
 10
959.163
 20
-402.693
 30
0.000000
  70
    32
  0
VERTEX
  8
┌▓È_1
  5
3D9
 10
959.192
 20
-402.720
 30
0.000000
  70
    32
  0
VERTEX
  8
┌▓È_1
  5
3DA
 10
959.221
 20
-402.746
 30
0.000000
  70
    32
  0
VERTEX
  8
┌▓È_1
  5
3DB
 10
959.250
 20
-402.772
 30
0.000000
  70
    32
  0
VERTEX
  8
┌▓È_1
  5
3DC
 10
959.279
 20
-402.798
 30
0.000000
  70
    32
  0
VERTEX
  8
┌▓È_1
  5
3DD
 10
959.308
 20
-402.824
 30
0.000000
  70
    32
  0
VERTEX
  8
┌▓È_1
  5
3DE
 10
959.337
 20
-402.850
 30
0.000000
  70
    32
  0
VERTEX
  8
┌▓È_1
  5
3DF
 10
959.366
 20
-402.876
 30
0.000000
  70
    32
  0
VERTEX
  8
┌▓È_1
  5
3E0
 10
959.395
 20
-402.903
 30
0.000000
  70
    32
  0
VERTEX
  8
┌▓È_1
  5
3E1
 10
959.424
 20
-402.929
 30
0.000000
  70
    32
  0
VERTEX
  8
┌▓È_1
  5
3E2
 10
959.453
 20
-402.955
 30
0.000000
  70
    32
  0
VERTEX
  8
┌▓È_1
  5
3E3
 10
959.483
 20
-402.981
 30
0.000000
  70
    32
  0
VERTEX
  8
┌▓È_1
  5
3E4
 10
959.512
 20
-403.007
 30
0.000000
  70
    32
  0
VERTEX
  8
┌▓È_1
  5
3E5
 10
959.541
 20
-403.032
 30
0.000000
  70
    32
  0
VERTEX
  8
┌▓È_1
  5
3E6
 10
959.570
 20
-403.058
 30
0.000000
  70
    32
  0
VERTEX
  8
┌▓È_1
  5
3E7
 10
959.599
 20
-403.084
 30
0.000000
  70
    32
  0
VERTEX
  8
┌▓È_1
  5
3E8
 10
959.628
 20
-403.110
 30
0.000000
  70
    32
  0
VERTEX
  8
┌▓È_1
  5
3E9
 10
959.658
 20
-403.136
 30
0.000000
  70
    32
  0
VERTEX
  8
┌▓È_1
  5
3EA
 10
959.687
 20
-403.162
 30
0.000000
  70
    32
  0
VERTEX
  8
┌▓È_1
  5
3EB
 10
959.716
 20
-403.188
 30
0.000000
  70
    32
  0
VERTEX
  8
┌▓È_1
  5
3EC
 10
959.745
 20
-403.213
 30
0.000000
  70
    32
  0
VERTEX
  8
┌▓È_1
  5
3ED
 10
959.775
 20
-403.239
 30
0.000000
  70
    32
  0
VERTEX
  8
┌▓È_1
  5
3EE
 10
959.804
 20
-403.265
 30
0.000000
  70
    32
  0
VERTEX
  8
┌▓È_1
  5
3EF
 10
959.833
 20
-403.290
 30
0.000000
  70
    32
  0
VERTEX
  8
┌▓È_1
  5
3F0
 10
959.863
 20
-403.316
 30
0.000000
  70
    32
  0
VERTEX
  8
┌▓È_1
  5
3F1
 10
959.892
 20
-403.342
 30
0.000000
  70
    32
  0
VERTEX
  8
┌▓È_1
  5
3F2
 10
959.921
 20
-403.367
 30
0.000000
  70
    32
  0
VERTEX
  8
┌▓È_1
  5
3F3
 10
959.951
 20
-403.393
 30
0.000000
  70
    32
  0
VERTEX
  8
┌▓È_1
  5
3F4
 10
959.980
 20
-403.418
 30
0.000000
  70
    32
  0
VERTEX
  8
┌▓È_1
  5
3F5
 10
960.010
 20
-403.444
 30
0.000000
  70
    32
  0
VERTEX
  8
┌▓È_1
  5
3F6
 10
960.039
 20
-403.469
 30
0.000000
  70
    32
  0
VERTEX
  8
┌▓È_1
  5
3F7
 10
960.068
 20
-403.494
 30
0.000000
  70
    32
  0
VERTEX
  8
┌▓È_1
  5
3F8
 10
960.098
 20
-403.520
 30
0.000000
  70
    32
  0
VERTEX
  8
┌▓È_1
  5
3F9
 10
960.127
 20
-403.545
 30
0.000000
  70
    32
  0
VERTEX
  8
┌▓È_1
  5
3FA
 10
960.157
 20
-403.570
 30
0.000000
  70
    32
  0
VERTEX
  8
┌▓È_1
  5
3FB
 10
960.187
 20
-403.595
 30
0.000000
  70
    32
  0
VERTEX
  8
┌▓È_1
  5
3FC
 10
960.216
 20
-403.621
 30
0.000000
  70
    32
  0
VERTEX
  8
┌▓È_1
  5
3FD
 10
960.246
 20
-403.646
 30
0.000000
  70
    32
  0
VERTEX
  8
┌▓È_1
  5
3FE
 10
960.275
 20
-403.671
 30
0.000000
  70
    32
  0
VERTEX
  8
┌▓È_1
  5
3FF
 10
960.305
 20
-403.696
 30
0.000000
  70
    32
  0
VERTEX
  8
┌▓È_1
  5
400
 10
960.335
 20
-403.721
 30
0.000000
  70
    32
  0
VERTEX
  8
┌▓È_1
  5
401
 10
960.364
 20
-403.746
 30
0.000000
  70
    32
  0
VERTEX
  8
┌▓È_1
  5
402
 10
960.394
 20
-403.771
 30
0.000000
  70
    32
  0
VERTEX
  8
┌▓È_1
  5
403
 10
960.424
 20
-403.796
 30
0.000000
  70
    32
  0
VERTEX
  8
┌▓È_1
  5
404
 10
960.453
 20
-403.821
 30
0.000000
  70
    32
  0
VERTEX
  8
┌▓È_1
  5
405
 10
960.483
 20
-403.846
 30
0.000000
  70
    32
  0
VERTEX
  8
┌▓È_1
  5
406
 10
960.513
 20
-403.870
 30
0.000000
  70
    32
  0
VERTEX
  8
┌▓È_1
  5
407
 10
960.543
 20
-403.895
 30
0.000000
  70
    32
  0
VERTEX
  8
┌▓È_1
  5
408
 10
960.573
 20
-403.920
 30
0.000000
  70
    32
  0
VERTEX
  8
┌▓È_1
  5
409
 10
960.602
 20
-403.944
 30
0.000000
  70
    32
  0
VERTEX
  8
┌▓È_1
  5
40A
 10
960.632
 20
-403.969
 30
0.000000
  70
    32
  0
VERTEX
  8
┌▓È_1
  5
40B
 10
960.662
 20
-403.993
 30
0.000000
  70
    32
  0
VERTEX
  8
┌▓È_1
  5
40C
 10
960.692
 20
-404.018
 30
0.000000
  70
    32
  0
VERTEX
  8
┌▓È_1
  5
40D
 10
960.722
 20
-404.042
 30
0.000000
  70
    32
  0
VERTEX
  8
┌▓È_1
  5
40E
 10
960.752
 20
-404.067
 30
0.000000
  70
    32
  0
VERTEX
  8
┌▓È_1
  5
40F
 10
960.782
 20
-404.091
 30
0.000000
  70
    32
  0
VERTEX
  8
┌▓È_1
  5
410
 10
960.812
 20
-404.115
 30
0.000000
  70
    32
  0
VERTEX
  8
┌▓È_1
  5
411
 10
960.842
 20
-404.140
 30
0.000000
  70
    32
  0
VERTEX
  8
┌▓È_1
  5
412
 10
960.872
 20
-404.164
 30
0.000000
  70
    32
  0
VERTEX
  8
┌▓È_1
  5
413
 10
960.902
 20
-404.188
 30
0.000000
  70
    32
  0
VERTEX
  8
┌▓È_1
  5
414
 10
960.933
 20
-404.212
 30
0.000000
  70
    32
  0
VERTEX
  8
┌▓È_1
  5
415
 10
960.963
 20
-404.236
 30
0.000000
  70
    32
  0
VERTEX
  8
┌▓È_1
  5
416
 10
960.993
 20
-404.260
 30
0.000000
  70
    32
  0
VERTEX
  8
┌▓È_1
  5
417
 10
961.023
 20
-404.284
 30
0.000000
  70
    32
  0
VERTEX
  8
┌▓È_1
  5
418
 10
961.053
 20
-404.308
 30
0.000000
  70
    32
  0
VERTEX
  8
┌▓È_1
  5
419
 10
961.084
 20
-404.332
 30
0.000000
  70
    32
  0
VERTEX
  8
┌▓È_1
  5
41A
 10
961.114
 20
-404.356
 30
0.000000
  70
    32
  0
VERTEX
  8
┌▓È_1
  5
41B
 10
961.144
 20
-404.379
 30
0.000000
  70
    32
  0
VERTEX
  8
┌▓È_1
  5
41C
 10
961.175
 20
-404.403
 30
0.000000
  70
    32
  0
VERTEX
  8
┌▓È_1
  5
41D
 10
961.205
 20
-404.427
 30
0.000000
  70
    32
  0
VERTEX
  8
┌▓È_1
  5
41E
 10
961.236
 20
-404.450
 30
0.000000
  70
    32
  0
VERTEX
  8
┌▓È_1
  5
41F
 10
961.266
 20
-404.474
 30
0.000000
  70
    32
  0
VERTEX
  8
┌▓È_1
  5
420
 10
961.297
 20
-404.497
 30
0.000000
  70
    32
  0
VERTEX
  8
┌▓È_1
  5
421
 10
961.327
 20
-404.520
 30
0.000000
  70
    32
  0
VERTEX
  8
┌▓È_1
  5
422
 10
961.358
 20
-404.544
 30
0.000000
  70
    32
  0
VERTEX
  8
┌▓È_1
  5
423
 10
961.388
 20
-404.567
 30
0.000000
  70
    32
  0
VERTEX
  8
┌▓È_1
  5
424
 10
961.419
 20
-404.590
 30
0.000000
  70
    32
  0
VERTEX
  8
┌▓È_1
  5
425
 10
961.450
 20
-404.613
 30
0.000000
  70
    32
  0
VERTEX
  8
┌▓È_1
  5
426
 10
961.481
 20
-404.636
 30
0.000000
  70
    32
  0
VERTEX
  8
┌▓È_1
  5
427
 10
961.511
 20
-404.659
 30
0.000000
  70
    32
  0
VERTEX
  8
┌▓È_1
  5
428
 10
961.542
 20
-404.682
 30
0.000000
  70
    32
  0
VERTEX
  8
┌▓È_1
  5
429
 10
961.573
 20
-404.705
 30
0.000000
  70
    32
  0
VERTEX
  8
┌▓È_1
  5
42A
 10
961.604
 20
-404.728
 30
0.000000
  70
    32
  0
VERTEX
  8
┌▓È_1
  5
42B
 10
961.635
 20
-404.751
 30
0.000000
  70
    32
  0
VERTEX
  8
┌▓È_1
  5
42C
 10
961.665
 20
-404.773
 30
0.000000
  70
    32
  0
VERTEX
  8
┌▓È_1
  5
42D
 10
961.696
 20
-404.796
 30
0.000000
  70
    32
  0
VERTEX
  8
┌▓È_1
  5
42E
 10
961.727
 20
-404.819
 30
0.000000
  70
    32
  0
VERTEX
  8
┌▓È_1
  5
42F
 10
961.758
 20
-404.841
 30
0.000000
  70
    32
  0
VERTEX
  8
┌▓È_1
  5
430
 10
961.790
 20
-404.863
 30
0.000000
  70
    32
  0
VERTEX
  8
┌▓È_1
  5
431
 10
961.821
 20
-404.886
 30
0.000000
  70
    32
  0
VERTEX
  8
┌▓È_1
  5
432
 10
961.852
 20
-404.908
 30
0.000000
  70
    32
  0
VERTEX
  8
┌▓È_1
  5
433
 10
961.883
 20
-404.930
 30
0.000000
  70
    32
  0
VERTEX
  8
┌▓È_1
  5
434
 10
961.914
 20
-404.952
 30
0.000000
  70
    32
  0
VERTEX
  8
┌▓È_1
  5
435
 10
961.945
 20
-404.975
 30
0.000000
  70
    32
  0
VERTEX
  8
┌▓È_1
  5
436
 10
961.977
 20
-404.997
 30
0.000000
  70
    32
  0
VERTEX
  8
┌▓È_1
  5
437
 10
962.008
 20
-405.018
 30
0.000000
  70
    32
  0
VERTEX
  8
┌▓È_1
  5
438
 10
962.039
 20
-405.040
 30
0.000000
  70
    32
  0
VERTEX
  8
┌▓È_1
  5
439
 10
962.071
 20
-405.062
 30
0.000000
  70
    32
  0
VERTEX
  8
┌▓È_1
  5
43A
 10
962.102
 20
-405.084
 30
0.000000
  70
    32
  0
VERTEX
  8
┌▓È_1
  5
43B
 10
962.134
 20
-405.105
 30
0.000000
  70
    32
  0
VERTEX
  8
┌▓È_1
  5
43C
 10
962.165
 20
-405.127
 30
0.000000
  70
    32
  0
VERTEX
  8
┌▓È_1
  5
43D
 10
962.197
 20
-405.149
 30
0.000000
  70
    32
  0
VERTEX
  8
┌▓È_1
  5
43E
 10
962.228
 20
-405.170
 30
0.000000
  70
    32
  0
VERTEX
  8
┌▓È_1
  5
43F
 10
962.260
 20
-405.191
 30
0.000000
  70
    32
  0
VERTEX
  8
┌▓È_1
  5
440
 10
962.292
 20
-405.213
 30
0.000000
  70
    32
  0
VERTEX
  8
┌▓È_1
  5
441
 10
962.323
 20
-405.234
 30
0.000000
  70
    32
  0
VERTEX
  8
┌▓È_1
  5
442
 10
962.355
 20
-405.255
 30
0.000000
  70
    32
  0
VERTEX
  8
┌▓È_1
  5
443
 10
962.387
 20
-405.276
 30
0.000000
  70
    32
  0
VERTEX
  8
┌▓È_1
  5
444
 10
962.419
 20
-405.297
 30
0.000000
  70
    32
  0
VERTEX
  8
┌▓È_1
  5
445
 10
962.451
 20
-405.318
 30
0.000000
  70
    32
  0
VERTEX
  8
┌▓È_1
  5
446
 10
962.483
 20
-405.338
 30
0.000000
  70
    32
  0
VERTEX
  8
┌▓È_1
  5
447
 10
962.515
 20
-405.359
 30
0.000000
  70
    32
  0
VERTEX
  8
┌▓È_1
  5
448
 10
962.547
 20
-405.380
 30
0.000000
  70
    32
  0
VERTEX
  8
┌▓È_1
  5
449
 10
962.579
 20
-405.400
 30
0.000000
  70
    32
  0
VERTEX
  8
┌▓È_1
  5
44A
 10
962.611
 20
-405.421
 30
0.000000
  70
    32
  0
VERTEX
  8
┌▓È_1
  5
44B
 10
962.643
 20
-405.441
 30
0.000000
  70
    32
  0
VERTEX
  8
┌▓È_1
  5
44C
 10
962.675
 20
-405.462
 30
0.000000
  70
    32
  0
VERTEX
  8
┌▓È_1
  5
44D
 10
962.708
 20
-405.482
 30
0.000000
  70
    32
  0
VERTEX
  8
┌▓È_1
  5
44E
 10
962.740
 20
-405.502
 30
0.000000
  70
    32
  0
VERTEX
  8
┌▓È_1
  5
44F
 10
962.772
 20
-405.522
 30
0.000000
  70
    32
  0
VERTEX
  8
┌▓È_1
  5
450
 10
962.805
 20
-405.542
 30
0.000000
  70
    32
  0
VERTEX
  8
┌▓È_1
  5
451
 10
962.837
 20
-405.562
 30
0.000000
  70
    32
  0
VERTEX
  8
┌▓È_1
  5
452
 10
962.869
 20
-405.582
 30
0.000000
  70
    32
  0
VERTEX
  8
┌▓È_1
  5
453
 10
962.902
 20
-405.601
 30
0.000000
  70
    32
  0
VERTEX
  8
┌▓È_1
  5
454
 10
962.935
 20
-405.621
 30
0.000000
  70
    32
  0
SEQEND
  8
┌▓È_1
  5
455
  0
POLYLINE
  8
┌▓È_1
  5
456
  62
5
  66
     1
 10
0.000000
 20
0.000000
 30
0.000000
  70
     8
  0
VERTEX
  8
┌▓È_1
  5
457
 10
968.848
 20
-405.574
 30
0.000000
  70
    32
  0
VERTEX
  8
┌▓È_1
  5
458
 10
968.875
 20
-405.582
 30
0.000000
  70
    32
  0
VERTEX
  8
┌▓È_1
  5
459
 10
968.903
 20
-405.590
 30
0.000000
  70
    32
  0
VERTEX
  8
┌▓È_1
  5
45A
 10
968.932
 20
-405.598
 30
0.000000
  70
    32
  0
VERTEX
  8
┌▓È_1
  5
45B
 10
968.960
 20
-405.606
 30
0.000000
  70
    32
  0
VERTEX
  8
┌▓È_1
  5
45C
 10
968.988
 20
-405.614
 30
0.000000
  70
    32
  0
VERTEX
  8
┌▓È_1
  5
45D
 10
969.016
 20
-405.621
 30
0.000000
  70
    32
  0
VERTEX
  8
┌▓È_1
  5
45E
 10
969.044
 20
-405.629
 30
0.000000
  70
    32
  0
VERTEX
  8
┌▓È_1
  5
45F
 10
969.072
 20
-405.637
 30
0.000000
  70
    32
  0
VERTEX
  8
┌▓È_1
  5
460
 10
969.100
 20
-405.644
 30
0.000000
  70
    32
  0
VERTEX
  8
┌▓È_1
  5
461
 10
969.129
 20
-405.652
 30
0.000000
  70
    32
  0
VERTEX
  8
┌▓È_1
  5
462
 10
969.157
 20
-405.659
 30
0.000000
  70
    32
  0
VERTEX
  8
┌▓È_1
  5
463
 10
969.185
 20
-405.667
 30
0.000000
  70
    32
  0
VERTEX
  8
┌▓È_1
  5
464
 10
969.213
 20
-405.674
 30
0.000000
  70
    32
  0
VERTEX
  8
┌▓È_1
  5
465
 10
969.242
 20
-405.681
 30
0.000000
  70
    32
  0
VERTEX
  8
┌▓È_1
  5
466
 10
969.270
 20
-405.689
 30
0.000000
  70
    32
  0
VERTEX
  8
┌▓È_1
  5
467
 10
969.298
 20
-405.696
 30
0.000000
  70
    32
  0
VERTEX
  8
┌▓È_1
  5
468
 10
969.327
 20
-405.703
 30
0.000000
  70
    32
  0
VERTEX
  8
┌▓È_1
  5
469
 10
969.355
 20
-405.710
 30
0.000000
  70
    32
  0
VERTEX
  8
┌▓È_1
  5
46A
 10
969.384
 20
-405.718
 30
0.000000
  70
    32
  0
VERTEX
  8
┌▓È_1
  5
46B
 10
969.412
 20
-405.725
 30
0.000000
  70
    32
  0
VERTEX
  8
┌▓È_1
  5
46C
 10
969.441
 20
-405.732
 30
0.000000
  70
    32
  0
VERTEX
  8
┌▓È_1
  5
46D
 10
969.469
 20
-405.739
 30
0.000000
  70
    32
  0
VERTEX
  8
┌▓È_1
  5
46E
 10
969.498
 20
-405.746
 30
0.000000
  70
    32
  0
VERTEX
  8
┌▓È_1
  5
46F
 10
969.526
 20
-405.753
 30
0.000000
  70
    32
  0
VERTEX
  8
┌▓È_1
  5
470
 10
969.555
 20
-405.760
 30
0.000000
  70
    32
  0
VERTEX
  8
┌▓È_1
  5
471
 10
969.583
 20
-405.767
 30
0.000000
  70
    32
  0
VERTEX
  8
┌▓È_1
  5
472
 10
969.612
 20
-405.774
 30
0.000000
  70
    32
  0
VERTEX
  8
┌▓È_1
  5
473
 10
969.641
 20
-405.780
 30
0.000000
  70
    32
  0
VERTEX
  8
┌▓È_1
  5
474
 10
969.669
 20
-405.787
 30
0.000000
  70
    32
  0
VERTEX
  8
┌▓È_1
  5
475
 10
969.698
 20
-405.794
 30
0.000000
  70
    32
  0
VERTEX
  8
┌▓È_1
  5
476
 10
969.727
 20
-405.801
 30
0.000000
  70
    32
  0
VERTEX
  8
┌▓È_1
  5
477
 10
969.756
 20
-405.807
 30
0.000000
  70
    32
  0
VERTEX
  8
┌▓È_1
  5
478
 10
969.784
 20
-405.814
 30
0.000000
  70
    32
  0
VERTEX
  8
┌▓È_1
  5
479
 10
969.813
 20
-405.821
 30
0.000000
  70
    32
  0
VERTEX
  8
┌▓È_1
  5
47A
 10
969.842
 20
-405.827
 30
0.000000
  70
    32
  0
VERTEX
  8
┌▓È_1
  5
47B
 10
969.871
 20
-405.834
 30
0.000000
  70
    32
  0
VERTEX
  8
┌▓È_1
  5
47C
 10
969.900
 20
-405.840
 30
0.000000
  70
    32
  0
VERTEX
  8
┌▓È_1
  5
47D
 10
969.929
 20
-405.847
 30
0.000000
  70
    32
  0
VERTEX
  8
┌▓È_1
  5
47E
 10
969.957
 20
-405.853
 30
0.000000
  70
    32
  0
VERTEX
  8
┌▓È_1
  5
47F
 10
969.986
 20
-405.860
 30
0.000000
  70
    32
  0
VERTEX
  8
┌▓È_1
  5
480
 10
970.015
 20
-405.866
 30
0.000000
  70
    32
  0
VERTEX
  8
┌▓È_1
  5
481
 10
970.044
 20
-405.872
 30
0.000000
  70
    32
  0
VERTEX
  8
┌▓È_1
  5
482
 10
970.073
 20
-405.879
 30
0.000000
  70
    32
  0
VERTEX
  8
┌▓È_1
  5
483
 10
970.102
 20
-405.885
 30
0.000000
  70
    32
  0
VERTEX
  8
┌▓È_1
  5
484
 10
970.131
 20
-405.891
 30
0.000000
  70
    32
  0
VERTEX
  8
┌▓È_1
  5
485
 10
970.160
 20
-405.897
 30
0.000000
  70
    32
  0
VERTEX
  8
┌▓È_1
  5
486
 10
970.189
 20
-405.904
 30
0.000000
  70
    32
  0
VERTEX
  8
┌▓È_1
  5
487
 10
970.218
 20
-405.910
 30
0.000000
  70
    32
  0
VERTEX
  8
┌▓È_1
  5
488
 10
970.247
 20
-405.916
 30
0.000000
  70
    32
  0
VERTEX
  8
┌▓È_1
  5
489
 10
970.277
 20
-405.922
 30
0.000000
  70
    32
  0
VERTEX
  8
┌▓È_1
  5
48A
 10
970.306
 20
-405.928
 30
0.000000
  70
    32
  0
VERTEX
  8
┌▓È_1
  5
48B
 10
970.335
 20
-405.934
 30
0.000000
  70
    32
  0
VERTEX
  8
┌▓È_1
  5
48C
 10
970.364
 20
-405.940
 30
0.000000
  70
    32
  0
VERTEX
  8
┌▓È_1
  5
48D
 10
970.393
 20
-405.946
 30
0.000000
  70
    32
  0
VERTEX
  8
┌▓È_1
  5
48E
 10
970.422
 20
-405.952
 30
0.000000
  70
    32
  0
VERTEX
  8
┌▓È_1
  5
48F
 10
970.452
 20
-405.958
 30
0.000000
  70
    32
  0
VERTEX
  8
┌▓È_1
  5
490
 10
970.481
 20
-405.964
 30
0.000000
  70
    32
  0
VERTEX
  8
┌▓È_1
  5
491
 10
970.510
 20
-405.970
 30
0.000000
  70
    32
  0
VERTEX
  8
┌▓È_1
  5
492
 10
970.539
 20
-405.976
 30
0.000000
  70
    32
  0
VERTEX
  8
┌▓È_1
  5
493
 10
970.568
 20
-405.982
 30
0.000000
  70
    32
  0
VERTEX
  8
┌▓È_1
  5
494
 10
970.598
 20
-405.988
 30
0.000000
  70
    32
  0
VERTEX
  8
┌▓È_1
  5
495
 10
970.627
 20
-405.993
 30
0.000000
  70
    32
  0
VERTEX
  8
┌▓È_1
  5
496
 10
970.656
 20
-405.999
 30
0.000000
  70
    32
  0
VERTEX
  8
┌▓È_1
  5
497
 10
970.686
 20
-406.005
 30
0.000000
  70
    32
  0
VERTEX
  8
┌▓È_1
  5
498
 10
970.715
 20
-406.011
 30
0.000000
  70
    32
  0
VERTEX
  8
┌▓È_1
  5
499
 10
970.744
 20
-406.016
 30
0.000000
  70
    32
  0
VERTEX
  8
┌▓È_1
  5
49A
 10
970.774
 20
-406.022
 30
0.000000
  70
    32
  0
VERTEX
  8
┌▓È_1
  5
49B
 10
970.803
 20
-406.028
 30
0.000000
  70
    32
  0
VERTEX
  8
┌▓È_1
  5
49C
 10
970.832
 20
-406.033
 30
0.000000
  70
    32
  0
VERTEX
  8
┌▓È_1
  5
49D
 10
970.862
 20
-406.039
 30
0.000000
  70
    32
  0
VERTEX
  8
┌▓È_1
  5
49E
 10
970.891
 20
-406.045
 30
0.000000
  70
    32
  0
VERTEX
  8
┌▓È_1
  5
49F
 10
970.921
 20
-406.050
 30
0.000000
  70
    32
  0
VERTEX
  8
┌▓È_1
  5
4A0
 10
970.950
 20
-406.056
 30
0.000000
  70
    32
  0
VERTEX
  8
┌▓È_1
  5
4A1
 10
970.980
 20
-406.061
 30
0.000000
  70
    32
  0
VERTEX
  8
┌▓È_1
  5
4A2
 10
971.009
 20
-406.067
 30
0.000000
  70
    32
  0
VERTEX
  8
┌▓È_1
  5
4A3
 10
971.039
 20
-406.072
 30
0.000000
  70
    32
  0
VERTEX
  8
┌▓È_1
  5
4A4
 10
971.068
 20
-406.078
 30
0.000000
  70
    32
  0
VERTEX
  8
┌▓È_1
  5
4A5
 10
971.098
 20
-406.083
 30
0.000000
  70
    32
  0
VERTEX
  8
┌▓È_1
  5
4A6
 10
971.127
 20
-406.089
 30
0.000000
  70
    32
  0
VERTEX
  8
┌▓È_1
  5
4A7
 10
971.157
 20
-406.094
 30
0.000000
  70
    32
  0
VERTEX
  8
┌▓È_1
  5
4A8
 10
971.186
 20
-406.100
 30
0.000000
  70
    32
  0
VERTEX
  8
┌▓È_1
  5
4A9
 10
971.216
 20
-406.105
 30
0.000000
  70
    32
  0
VERTEX
  8
┌▓È_1
  5
4AA
 10
971.245
 20
-406.110
 30
0.000000
  70
    32
  0
VERTEX
  8
┌▓È_1
  5
4AB
 10
971.275
 20
-406.116
 30
0.000000
  70
    32
  0
VERTEX
  8
┌▓È_1
  5
4AC
 10
971.304
 20
-406.121
 30
0.000000
  70
    32
  0
VERTEX
  8
┌▓È_1
  5
4AD
 10
971.334
 20
-406.126
 30
0.000000
  70
    32
  0
VERTEX
  8
┌▓È_1
  5
4AE
 10
971.364
 20
-406.132
 30
0.000000
  70
    32
  0
VERTEX
  8
┌▓È_1
  5
4AF
 10
971.393
 20
-406.137
 30
0.000000
  70
    32
  0
VERTEX
  8
┌▓È_1
  5
4B0
 10
971.423
 20
-406.142
 30
0.000000
  70
    32
  0
VERTEX
  8
┌▓È_1
  5
4B1
 10
971.452
 20
-406.148
 30
0.000000
  70
    32
  0
VERTEX
  8
┌▓È_1
  5
4B2
 10
971.482
 20
-406.153
 30
0.000000
  70
    32
  0
VERTEX
  8
┌▓È_1
  5
4B3
 10
971.512
 20
-406.158
 30
0.000000
  70
    32
  0
VERTEX
  8
┌▓È_1
  5
4B4
 10
971.541
 20
-406.163
 30
0.000000
  70
    32
  0
VERTEX
  8
┌▓È_1
  5
4B5
 10
971.571
 20
-406.169
 30
0.000000
  70
    32
  0
VERTEX
  8
┌▓È_1
  5
4B6
 10
971.601
 20
-406.174
 30
0.000000
  70
    32
  0
VERTEX
  8
┌▓È_1
  5
4B7
 10
971.630
 20
-406.179
 30
0.000000
  70
    32
  0
VERTEX
  8
┌▓È_1
  5
4B8
 10
971.660
 20
-406.184
 30
0.000000
  70
    32
  0
VERTEX
  8
┌▓È_1
  5
4B9
 10
971.690
 20
-406.190
 30
0.000000
  70
    32
  0
VERTEX
  8
┌▓È_1
  5
4BA
 10
971.719
 20
-406.195
 30
0.000000
  70
    32
  0
VERTEX
  8
┌▓È_1
  5
4BB
 10
971.749
 20
-406.200
 30
0.000000
  70
    32
  0
VERTEX
  8
┌▓È_1
  5
4BC
 10
971.779
 20
-406.205
 30
0.000000
  70
    32
  0
VERTEX
  8
┌▓È_1
  5
4BD
 10
971.808
 20
-406.210
 30
0.000000
  70
    32
  0
VERTEX
  8
┌▓È_1
  5
4BE
 10
971.838
 20
-406.215
 30
0.000000
  70
    32
  0
VERTEX
  8
┌▓È_1
  5
4BF
 10
971.868
 20
-406.220
 30
0.000000
  70
    32
  0
VERTEX
  8
┌▓È_1
  5
4C0
 10
971.897
 20
-406.226
 30
0.000000
  70
    32
  0
VERTEX
  8
┌▓È_1
  5
4C1
 10
971.927
 20
-406.231
 30
0.000000
  70
    32
  0
VERTEX
  8
┌▓È_1
  5
4C2
 10
971.957
 20
-406.236
 30
0.000000
  70
    32
  0
VERTEX
  8
┌▓È_1
  5
4C3
 10
971.987
 20
-406.241
 30
0.000000
  70
    32
  0
VERTEX
  8
┌▓È_1
  5
4C4
 10
972.016
 20
-406.246
 30
0.000000
  70
    32
  0
VERTEX
  8
┌▓È_1
  5
4C5
 10
972.046
 20
-406.251
 30
0.000000
  70
    32
  0
VERTEX
  8
┌▓È_1
  5
4C6
 10
972.076
 20
-406.256
 30
0.000000
  70
    32
  0
VERTEX
  8
┌▓È_1
  5
4C7
 10
972.106
 20
-406.261
 30
0.000000
  70
    32
  0
VERTEX
  8
┌▓È_1
  5
4C8
 10
972.135
 20
-406.266
 30
0.000000
  70
    32
  0
VERTEX
  8
┌▓È_1
  5
4C9
 10
972.165
 20
-406.271
 30
0.000000
  70
    32
  0
VERTEX
  8
┌▓È_1
  5
4CA
 10
972.195
 20
-406.276
 30
0.000000
  70
    32
  0
VERTEX
  8
┌▓È_1
  5
4CB
 10
972.225
 20
-406.281
 30
0.000000
  70
    32
  0
VERTEX
  8
┌▓È_1
  5
4CC
 10
972.254
 20
-406.286
 30
0.000000
  70
    32
  0
VERTEX
  8
┌▓È_1
  5
4CD
 10
972.284
 20
-406.292
 30
0.000000
  70
    32
  0
VERTEX
  8
┌▓È_1
  5
4CE
 10
972.314
 20
-406.297
 30
0.000000
  70
    32
  0
VERTEX
  8
┌▓È_1
  5
4CF
 10
972.344
 20
-406.302
 30
0.000000
  70
    32
  0
VERTEX
  8
┌▓È_1
  5
4D0
 10
972.373
 20
-406.307
 30
0.000000
  70
    32
  0
VERTEX
  8
┌▓È_1
  5
4D1
 10
972.403
 20
-406.312
 30
0.000000
  70
    32
  0
VERTEX
  8
┌▓È_1
  5
4D2
 10
972.433
 20
-406.317
 30
0.000000
  70
    32
  0
VERTEX
  8
┌▓È_1
  5
4D3
 10
972.463
 20
-406.322
 30
0.000000
  70
    32
  0
VERTEX
  8
┌▓È_1
  5
4D4
 10
972.493
 20
-406.327
 30
0.000000
  70
    32
  0
VERTEX
  8
┌▓È_1
  5
4D5
 10
972.522
 20
-406.332
 30
0.000000
  70
    32
  0
VERTEX
  8
┌▓È_1
  5
4D6
 10
972.552
 20
-406.337
 30
0.000000
  70
    32
  0
SEQEND
  8
┌▓È_1
  5
4D7
  0
INSERT
  5
220
  8
0
  6
CONTINUOUS
  2
*U41
 10
0.0
 20
0.0
 30
0.0
  0
LINE
  5
221
  8
┌▓È_1
 10
871.90075898490011
 20
-377.79310816499998
 30
0.0
 11
967.90075898490022
 21
-377.79310816499998
 31
0.0
  0
LINE
  5
222
  8
┌▓È_1
 10
967.90075898490022
 20
-369.29310816499998
 30
0.0
 11
999.90075898489999
 21
-369.29310816499998
 31
0.0
  0
LINE
  5
223
  8
┌▓È_1
 62
     5
 10
972.55213141389993
 20
-406.33683141799997
 30
0.0
 11
972.55213141389993
 21
-408.73683141799989
 31
0.0
  0
LINE
  5
224
  8
┌▓È_1
 62
     5
 10
982.82010365119982
 20
-409.53683141799991
 30
0.0
 11
987.30010365119995
 21
-409.53683141799991
 31
0.0
  0
LINE
  5
225
  8
┌▓È_1
 62
     5
 10
953.89516171690013
 20
-400.73683141799989
 30
0.0
 11
953.89516171690013
 21
-403.13683141799999
 31
0.0
  0
LINE
  5
226
  8
┌▓È_1
 62
     5
 10
938.45339561840001
 20
-400.73683141799989
 30
0.0
 11
938.45339561840001
 21
-403.13683141799999
 31
0.0
  0
LINE
  5
227
  8
┌▓È_1
 62
     5
 10
958.15213141389995
 20
-401.76758427390001
 30
0.0
 11
958.15213141389995
 21
-401.25220784589987
 31
0.0
  0
LINE
  5
228
  8
┌▓È_1
 62
     5
 10
964.55213141390016
 20
-401.25220784589987
 30
0.0
 11
963.64703473399993
 21
-402.15730452589997
 31
0.0
  0
LINE
  5
229
  8
┌▓È_1
 10
935.90075898490011
 20
-360.79310816499998
 30
0.0
 11
935.90075898490011
 21
-394.79310816499998
 31
0.0
  0
LINE
  5
22A
  8
┌▓È_1
 10
875.90075898490022
 20
-369.29310816499998
 30
0.0
 11
899.90075898489999
 21
-369.29310816499998
 31
0.0
  0
LINE
  5
22B
  8
┌▓È_1
 10
907.90075898489999
 20
-369.29310816499998
 30
0.0
 11
931.90075898489999
 21
-369.29310816499998
 31
0.0
  0
LINE
  5
22C
  8
┌▓È_1
 10
875.90075898490022
 20
-386.29310816499998
 30
0.0
 11
931.90075898489999
 21
-386.29310816499998
 31
0.0
  0
ENDSEC
  0
EOF
