  0
SECTION
  2
HEADER
  9
$ACADVER
  1
AC1009
  9
$INSBASE
 10
0.0
 20
0.0
 30
0.0
  9
$EXTMIN
 10
563.03576135239985
 20
-410.84108063519989
 30
0.0
  9
$EXTMAX
 10
1113.0357613524
 20
-30.841080635200001
 30
0.0
  9
$LIMMIN
 10
0.0
 20
0.0
  9
$LIMMAX
 10
0.0
 20
0.0
  9
$ORTHOMODE
 70
     0
  9
$REGENMODE
 70
     1
  9
$FILLMODE
 70
     1
  9
$QTEXTMODE
 70
     0
  9
$MIRRTEXT
 70
     1
  9
$DRAGMODE
 70
     2
  9
$LTSCALE
 40
1.0
  9
$OSMODE
 70
    31
  9
$ATTMODE
 70
     1
  9
$TEXTSIZE
 40
0.0
  9
$TRACEWID
 40
0.05
  9
$TEXTSTYLE
  7
STANDARD
  9
$CLAYER
  8
0
  9
$CELTYPE
  6
CONTINUOUS
  9
$CECOLOR
 62
   256
  9
$DIMSCALE
 40
1.0
  9
$DIMASZ
 40
0.18
  9
$DIMEXO
 40
0.0625
  9
$DIMDLI
 40
0.38
  9
$DIMRND
 40
0.0
  9
$DIMDLE
 40
0.0
  9
$DIMEXE
 40
0.18
  9
$DIMTP
 40
0.0
  9
$DIMTM
 40
0.0
  9
$DIMTXT
 40
0.18
  9
$DIMCEN
 40
0.09
  9
$DIMTSZ
 40
0.0
  9
$DIMTOL
 70
     0
  9
$DIMLIM
 70
     0
  9
$DIMTIH
 70
     1
  9
$DIMTOH
 70
     1
  9
$DIMSE1
 70
     0
  9
$DIMSE2
 70
     0
  9
$DIMTAD
 70
     0
  9
$DIMZIN
 70
     0
  9
$DIMBLK
  1

  9
$DIMASO
 70
     1
  9
$DIMSHO
 70
     1
  9
$DIMPOST
  1

  9
$DIMAPOST
  1

  9
$DIMALT
 70
     0
  9
$DIMALTD
 70
     2
  9
$DIMALTF
 40
25.399999999999999
  9
$DIMLFAC
 40
1.0
  9
$DIMTOFL
 70
     0
  9
$DIMTVP
 40
0.0
  9
$DIMTIX
 70
     0
  9
$DIMSOXD
 70
     0
  9
$DIMSAH
 70
     0
  9
$DIMBLK1
  1

  9
$DIMBLK2
  1

  9
$DIMSTYLE
  2
STANDARD
  9
$DIMCLRD
 70
     0
  9
$DIMCLRE
 70
     0
  9
$DIMCLRT
 70
     0
  9
$DIMTFAC
 40
1.0
  9
$DIMGAP
 40
0.09
  9
$LUNITS
 70
     2
  9
$LUPREC
 70
     4
  9
$SKETCHINC
 40
0.1
  9
$FILLETRAD
 40
0.0
  9
$AUNITS
 70
     0
  9
$AUPREC
 70
     0
  9
$MENU
  1
acad
  9
$ELEVATION
 40
0.0
  9
$PELEVATION
 40
0.0
  9
$THICKNESS
 40
0.0
  9
$LIMCHECK
 70
     0
  9
$BLIPMODE
 70
     0
  9
$CHAMFERA
 40
0.0
  9
$CHAMFERB
 40
0.0
  9
$SKPOLY
 70
     0
  9
$TDCREATE
 40
2454862.765316111
  9
$TDUPDATE
 40
2454862.7656747228
  9
$TDINDWG
 40
0.00036875
  9
$TDUSRTIMER
 40
0.0003683796
  9
$USRTIMER
 70
     1
  9
$ANGBASE
 50
0.0
  9
$ANGDIR
 70
     0
  9
$PDMODE
 70
     3
  9
$PDSIZE
 40
-1.0
  9
$PLINEWID
 40
0.0
  9
$COORDS
 70
     2
  9
$SPLFRAME
 70
     0
  9
$SPLINETYPE
 70
     6
  9
$SPLINESEGS
 70
     8
  9
$ATTDIA
 70
     0
  9
$ATTREQ
 70
     1
  9
$HANDLING
 70
     1
  9
$HANDSEED
  5
4A6
  9
$SURFTAB1
 70
     6
  9
$SURFTAB2
 70
     6
  9
$SURFTYPE
 70
     6
  9
$SURFU
 70
     6
  9
$SURFV
 70
     6
  9
$UCSNAME
  2

  9
$UCSORG
 10
0.0
 20
0.0
 30
0.0
  9
$UCSXDIR
 10
1.0
 20
0.0
 30
0.0
  9
$UCSYDIR
 10
0.0
 20
1.0
 30
0.0
  9
$PUCSNAME
  2

  9
$PUCSORG
 10
0.0
 20
0.0
 30
0.0
  9
$PUCSXDIR
 10
1.0
 20
0.0
 30
0.0
  9
$PUCSYDIR
 10
0.0
 20
1.0
 30
0.0
  9
$USERI1
 70
     0
  9
$USERI2
 70
     0
  9
$USERI3
 70
     0
  9
$USERI4
 70
     0
  9
$USERI5
 70
     0
  9
$USERR1
 40
0.0
  9
$USERR2
 40
0.0
  9
$USERR3
 40
0.0
  9
$USERR4
 40
0.0
  9
$USERR5
 40
0.0
  9
$WORLDVIEW
 70
     1
  9
$SHADEDGE
 70
     3
  9
$SHADEDIF
 70
    70
  9
$TILEMODE
 70
     1
  9
$MAXACTVP
 70
    16
  9
$PLIMCHECK
 70
     0
  9
$PEXTMIN
 10
1.0000000000000000E+020
 20
1.0000000000000000E+020
 30
1.0000000000000000E+020
  9
$PEXTMAX
 10
-1.0000000000000000E+020
 20
-1.0000000000000000E+020
 30
-1.0000000000000000E+020
  9
$PLIMMIN
 10
0.0
 20
0.0
  9
$PLIMMAX
 10
12.0
 20
9.0
  9
$UNITMODE
 70
     0
  9
$VISRETAIN
 70
     0
  9
$PLINEGEN
 70
     1
  9
$PSLTSCALE
 70
     0
  0
ENDSEC
  0
SECTION
  2
TABLES
  0
TABLE
  2
VPORT
 70
     2
  0
VPORT
  2
*ACTIVE
 70
     0
 10
0.0
 20
0.0
 11
1.0
 21
1.0
 12
838.03576135239985
 22
-220.8410806352
 13
0.0
 23
0.0
 14
1.0
 24
1.0
 15
0.0
 25
0.0
 16
0.0
 26
0.0
 36
1.0
 17
0.0
 27
0.0
 37
0.0
 40
397.98585584749179
 41
1.3903818953323901
 42
50.0
 43
0.0
 44
0.0
 50
0.0
 51
0.0
 71
     0
 72
   100
 73
     1
 74
     1
 75
     0
 76
     0
 77
     0
 78
     0
  0
ENDTAB
  0
TABLE
  2
LTYPE
 70
    11
  0
LTYPE
  2
CONTINUOUS
 70
     0
  3
Solid line
 72
    65
 73
     0
 40
0.0
  0
LTYPE
  2
DOT
 70
     0
  3
. . . . . . . . 
 72
    65
 73
     2
 40
1.0
 49
0.0
 49
-1.0
  0
LTYPE
  2
DASHED
 70
     0
  3
___  ___  ___  ___  
 72
    65
 73
     2
 40
4.0
 49
3.0
 49
-1.0
  0
LTYPE
  2
HIDDEN
 70
     0
  3
__ __ __ __ 
 72
    65
 73
     2
 40
3.0
 49
2.0
 49
-1.0
  0
LTYPE
  2
STITCH
 70
     0
  3
_ _ _ _ 
 72
    65
 73
     2
 40
2.0
 49
1.0
 49
-1.0
  0
LTYPE
  2
CENTER
 70
     0
  3
______  __  ______  __  
 72
    65
 73
     4
 40
43.0
 49
40.0
 49
-1.0
 49
1.0
 49
-1.0
  0
LTYPE
  2
DASHDOT
 70
     0
  3
____ . ____ . 
 72
    65
 73
     4
 40
32.0
 49
30.0
 49
-1.0
 49
0.0
 49
-1.0
  0
LTYPE
  2
BORDER
 70
     0
  3
__ . __ . 
 72
    65
 73
     4
 40
22.0
 49
20.0
 49
-1.0
 49
0.0
 49
-1.0
  0
LTYPE
  2
CUTTING
 70
     0
  3
________   ___   ___   
 72
    65
 73
     6
 40
45.0
 49
40.0
 49
-1.0
 49
1.0
 49
-1.0
 49
1.0
 49
-1.0
  0
LTYPE
  2
PHANTOM
 70
     0
  3
______  __  __  
 72
    65
 73
     6
 40
35.0
 49
30.0
 49
-1.0
 49
1.0
 49
-1.0
 49
1.0
 49
-1.0
  0
LTYPE
  2
DIVIDE
 70
     0
  3
____ . . ____ . . 
 72
    65
 73
     6
 40
23.0
 49
20.0
 49
-1.0
 49
0.0
 49
-1.0
 49
0.0
 49
-1.0
  0
ENDTAB
  0
TABLE
  2
LAYER
 70
     4
  0
LAYER
  2
0
 70
     0
 62
     7
  6
CONTINUOUS
  0
LAYER
  2
Éíû@É³
 70
     0
 62
     7
  6
CONTINUOUS
  0
LAYER
  2
┌▓È_1
 70
     0
 62
     7
  6
CONTINUOUS
  0
LAYER
  2
Defpoints
 70
     0
 62
     7
  6
CONTINUOUS
  0
ENDTAB
  0
TABLE
  2
STYLE
 70
     1
  0
STYLE
  2
STANDARD
 70
     0
 40
0.0
 41
1.0
 50
0.0
 71
     0
 42
0.0
  3
txt
  4
extfont
  0
ENDTAB
  0
TABLE
  2
VIEW
 70
     0
  0
ENDTAB
  0
TABLE
  2
UCS
 70
     0
  0
ENDTAB
  0
TABLE
  2
APPID
 70
     2
  0
APPID
  2
ACAD
 70
     0
  0
APPID
  2
DCO15
 70
     0
  0
ENDTAB
  0
TABLE
  2
DIMSTYLE
 70
     4
  0
DIMSTYLE
  2
STANDARD
 70
     0
  3

  4

  5

  6

  7

 40
1.0
 41
0.18
 42
0.0625
 43
0.38
 44
0.18
 45
0.0
 46
0.0
 47
0.0
 48
0.0
140
0.18
141
0.09
142
0.0
143
25.399999999999999
144
1.0
145
0.0
146
1.0
147
0.09
 71
     0
 72
     0
 73
     1
 74
     1
 75
     0
 76
     0
 77
     0
 78
     0
170
     0
171
     2
172
     0
173
     0
174
     0
175
     0
176
     0
177
     0
178
     0
  0
DIMSTYLE
  2
VELDIM0
 70
     0
  3

  4

  5

  6

  7

 40
1.0
 41
6.0
 42
0.0625
 43
0.38
 44
0.5
 45
0.0
 46
3.0
 47
0.0
 48
0.0
140
5.9972220420999998
141
0.09
142
0.0
143
25.399999999999999
144
1.0
145
0.0
146
1.0
147
0.09
 71
     0
 72
     0
 73
     0
 74
     0
 75
     0
 76
     0
 77
     0
 78
     8
170
     0
171
     2
172
     0
173
     0
174
     0
175
     0
176
     0
177
     0
178
     0
  0
DIMSTYLE
  2
VELDIM1
 70
     0
  3

  4

  5

  6

  7

 40
1.0
 41
6.0
 42
0.0625
 43
0.38
 44
1.25
 45
0.0
 46
5.0
 47
0.0
 48
0.0
140
5.9972220420999998
141
0.09
142
0.0
143
25.399999999999999
144
1.0
145
0.0
146
1.0
147
0.09
 71
     0
 72
     0
 73
     0
 74
     0
 75
     0
 76
     0
 77
     0
 78
     8
170
     0
171
     2
172
     0
173
     0
174
     0
175
     0
176
     0
177
     0
178
     0
  0
DIMSTYLE
  2
VELDIM2
 70
     0
  3

  4

  5

  6

  7

 40
1.0
 41
6.0
 42
0.0625
 43
0.38
 44
1.0
 45
0.0
 46
6.0
 47
0.0
 48
0.0
140
5.9972220420999998
141
0.09
142
0.0
143
25.399999999999999
144
1.0
145
0.0
146
1.0
147
0.09
 71
     0
 72
     0
 73
     0
 74
     0
 75
     0
 76
     0
 77
     0
 78
     8
170
     0
171
     2
172
     0
173
     0
174
     0
175
     0
176
     0
177
     0
178
     0
  0
ENDTAB
  0
ENDSEC
  0
SECTION
  2
BLOCKS
  0
BLOCK
  8
0
  2
$MODEL_SPACE
 70
     0
 10
0.0
 20
0.0
 30
0.0
  3
$MODEL_SPACE
  1

  0
ENDBLK
  5
E
  8
0
  0
BLOCK
 67
     1
  8
0
  2
$PAPER_SPACE
 70
     0
 10
0.0
 20
0.0
 30
0.0
  3
$PAPER_SPACE
  1

  0
ENDBLK
  5
10
 67
     1
  8
0
  0
BLOCK
  8
0
  2
*D0
 70
     1
 10
0.0
 20
0.0
 30
0.0
  3
*D0
  1

  0
TEXT
  5
31
  8
0
 62
     0
 10
730.91832707200001
 20
-257.24675322140001
 30
0.0
 40
5.9972220420999998
  1
11
  0
LINE
  5
32
  8
0
 62
     0
 10
739.94610474379988
 20
-278.30508652290001
 30
0.0
 11
739.94610474379988
 21
-258.80508652290001
 31
0.0
  0
LINE
  5
33
  8
0
 62
     0
 10
728.94610474379999
 20
-279.30508652290001
 30
0.0
 11
728.94610474379999
 21
-258.80508652290001
 31
0.0
  0
LINE
  5
34
  8
0
 62
     0
 10
739.94610474379988
 20
-259.30508652290001
 30
0.0
 11
739.94610474379988
 21
-259.30508652290001
 31
0.0
  0
LINE
  5
35
  8
0
 62
     0
 10
739.94610474379988
 20
-259.30508652290001
 30
0.0
 11
728.94610474379999
 21
-259.30508652290001
 31
0.0
  0
LINE
  5
36
  8
0
 62
     0
 10
728.94610474379999
 20
-259.30508652290001
 30
0.0
 11
739.94610474379988
 21
-259.30508652290001
 31
0.0
  0
LINE
  5
37
  8
0
 62
     0
 10
728.94610474379999
 20
-259.30508652290001
 30
0.0
 11
728.94610474379999
 21
-259.30508652290001
 31
0.0
  0
LINE
  5
38
  8
0
 62
     0
 10
728.94610474379999
 20
-259.30508652290001
 30
0.0
 11
725.94610474379999
 21
-259.30508652290001
 31
0.0
  0
SOLID
  5
39
  8
0
 62
     0
 10
728.94610474379999
 20
-259.30508652290001
 30
0.0
 11
722.94610474379988
 21
-260.80508652290001
 31
0.0
 12
722.94610474379988
 22
-257.80508652290001
 32
0.0
 13
724.44610474379999
 23
-259.30508652290001
 33
0.0
  0
LINE
  5
3A
  8
0
 62
     0
 10
739.94610474379988
 20
-259.30508652290001
 30
0.0
 11
742.94610474379999
 21
-259.30508652290001
 31
0.0
  0
SOLID
  5
3B
  8
0
 62
     0
 10
739.94610474379988
 20
-259.30508652290001
 30
0.0
 11
745.94610474379999
 21
-257.80508652290001
 31
0.0
 12
745.94610474379999
 22
-260.80508652290001
 32
0.0
 13
744.44610474379988
 23
-259.30508652290001
 33
0.0
  0
ENDBLK
  5
3C
  8
0
  0
BLOCK
  8
0
  2
*D1
 70
     1
 10
0.0
 20
0.0
 30
0.0
  3
*D1
  1

  0
TEXT
  5
41
  8
0
 62
     0
 10
642.88777144230005
 20
-148.6947782572
 30
0.0
 40
5.9972220420999998
  1
75
 50
90.0
  0
LINE
  5
42
  8
0
 62
     0
 10
663.94610474379999
 20
-107.6670005854
 30
0.0
 11
644.44610474379988
 21
-107.6670005854
 31
0.0
  0
LINE
  5
43
  8
0
 62
     0
 10
668.94610474379988
 20
-182.66700058539999
 30
0.0
 11
644.44610474379988
 21
-182.66700058539999
 31
0.0
  0
LINE
  5
44
  8
0
 62
     0
 10
644.94610474379988
 20
-107.6670005854
 30
0.0
 11
644.94610474379988
 21
-138.1114452418
 31
0.0
  0
LINE
  5
45
  8
0
 62
     0
 10
644.94610474379988
 20
-107.6670005854
 30
0.0
 11
644.94610474379988
 21
-152.22255592900001
 31
0.0
  0
LINE
  5
46
  8
0
 62
     0
 10
644.94610474379988
 20
-182.66700058539999
 30
0.0
 11
644.94610474379988
 21
-138.1114452418
 31
0.0
  0
LINE
  5
47
  8
0
 62
     0
 10
644.94610474379988
 20
-182.66700058539999
 30
0.0
 11
644.94610474379988
 21
-152.22255592900001
 31
0.0
  0
LINE
  5
48
  8
0
 62
     0
 10
644.94610474379988
 20
-182.66700058539999
 30
0.0
 11
644.94610474379988
 21
-179.66700058539999
 31
0.0
  0
SOLID
  5
49
  8
0
 62
     0
 10
644.94610474379988
 20
-182.66700058539999
 30
0.0
 11
643.44610474379988
 21
-176.66700058539999
 31
0.0
 12
646.44610474379999
 22
-176.66700058539999
 32
0.0
 13
644.94610474379988
 23
-178.16700058539999
 33
0.0
  0
LINE
  5
4A
  8
0
 62
     0
 10
644.94610474379988
 20
-107.6670005854
 30
0.0
 11
644.94610474379988
 21
-110.6670005854
 31
0.0
  0
SOLID
  5
4B
  8
0
 62
     0
 10
644.94610474379988
 20
-107.6670005854
 30
0.0
 11
646.44610474379999
 21
-113.6670005854
 31
0.0
 12
643.44610474379988
 22
-113.6670005854
 32
0.0
 13
644.94610474379988
 23
-112.1670005854
 33
0.0
  0
ENDBLK
  5
4C
  8
0
  0
BLOCK
  8
0
  2
*D2
 70
     1
 10
0.0
 20
0.0
 30
0.0
  3
*D2
  1

  0
TEXT
  5
50
  8
0
 62
     0
 10
698.9183270719999
 20
-200.60866728389999
 30
0.0
 40
5.9972220420999998
  1
75
  0
LINE
  5
51
  8
0
 62
     0
 10
664.94610474379988
 20
-178.66700058539999
 30
0.0
 11
664.94610474379988
 21
-203.16700058539999
 31
0.0
  0
LINE
  5
52
  8
0
 62
     0
 10
739.94610474379988
 20
-183.66700058539999
 30
0.0
 11
739.94610474379988
 21
-203.16700058539999
 31
0.0
  0
LINE
  5
53
  8
0
 62
     0
 10
664.94610474379988
 20
-202.66700058539999
 30
0.0
 11
709.50166008739996
 21
-202.66700058539999
 31
0.0
  0
LINE
  5
54
  8
0
 62
     0
 10
664.94610474379988
 20
-202.66700058539999
 30
0.0
 11
695.39054940020003
 21
-202.66700058539999
 31
0.0
  0
LINE
  5
55
  8
0
 62
     0
 10
739.94610474379988
 20
-202.66700058539999
 30
0.0
 11
709.50166008739996
 21
-202.66700058539999
 31
0.0
  0
LINE
  5
56
  8
0
 62
     0
 10
739.94610474379988
 20
-202.66700058539999
 30
0.0
 11
695.39054940020003
 21
-202.66700058539999
 31
0.0
  0
LINE
  5
57
  8
0
 62
     0
 10
739.94610474379988
 20
-202.66700058539999
 30
0.0
 11
736.94610474379999
 21
-202.66700058539999
 31
0.0
  0
SOLID
  5
58
  8
0
 62
     0
 10
739.94610474379988
 20
-202.66700058539999
 30
0.0
 11
733.94610474379999
 21
-204.16700058539999
 31
0.0
 12
733.94610474379999
 22
-201.16700058539999
 32
0.0
 13
735.44610474379988
 23
-202.66700058539999
 33
0.0
  0
LINE
  5
59
  8
0
 62
     0
 10
664.94610474379988
 20
-202.66700058539999
 30
0.0
 11
667.94610474379999
 21
-202.66700058539999
 31
0.0
  0
SOLID
  5
5A
  8
0
 62
     0
 10
664.94610474379988
 20
-202.66700058539999
 30
0.0
 11
670.94610474379999
 21
-201.16700058539999
 31
0.0
 12
670.94610474379999
 22
-204.16700058539999
 32
0.0
 13
669.44610474379988
 23
-202.66700058539999
 33
0.0
  0
ENDBLK
  5
5B
  8
0
  0
BLOCK
  8
0
  2
*D3
 70
     1
 10
0.0
 20
0.0
 30
0.0
  3
*D3
  1

  0
TEXT
  5
5F
  8
0
 62
     0
 10
993.9225137569
 20
-174.06388603389999
 30
0.0
 40
5.9972220420999998
  1
%%c5
  0
LINE
  5
60
  8
0
 62
     0
 10
1011.7141802647
 20
-206.3140708979
 30
0.0
 11
1011.7141802647
 21
-175.62221933539999
 31
0.0
  0
LINE
  5
61
  8
0
 62
     0
 10
986.71418026469985
 20
-206.3140708979
 30
0.0
 11
986.71418026469985
 21
-175.62221933539999
 31
0.0
  0
LINE
  5
62
  8
0
 62
     0
 10
1011.7141802647
 20
-176.12221933539999
 30
0.0
 11
1008.0336244442
 21
-176.12221933539999
 31
0.0
  0
LINE
  5
63
  8
0
 62
     0
 10
1011.7141802647
 20
-176.12221933539999
 30
0.0
 11
990.39473608509991
 21
-176.12221933539999
 31
0.0
  0
LINE
  5
64
  8
0
 62
     0
 10
986.71418026469985
 20
-176.12221933539999
 30
0.0
 11
1008.0336244442
 21
-176.12221933539999
 31
0.0
  0
LINE
  5
65
  8
0
 62
     0
 10
986.71418026469985
 20
-176.12221933539999
 30
0.0
 11
990.39473608509991
 21
-176.12221933539999
 31
0.0
  0
LINE
  5
66
  8
0
 62
     0
 10
986.71418026469985
 20
-176.12221933539999
 30
0.0
 11
983.71418026469996
 21
-176.12221933539999
 31
0.0
  0
SOLID
  5
67
  8
0
 62
     0
 10
986.71418026469985
 20
-176.12221933539999
 30
0.0
 11
980.71418026469985
 21
-177.62221933539999
 31
0.0
 12
980.71418026469985
 22
-174.62221933539999
 32
0.0
 13
982.21418026469985
 23
-176.12221933539999
 33
0.0
  0
LINE
  5
68
  8
0
 62
     0
 10
1011.7141802647
 20
-176.12221933539999
 30
0.0
 11
1014.7141802647
 21
-176.12221933539999
 31
0.0
  0
SOLID
  5
69
  8
0
 62
     0
 10
1011.7141802647
 20
-176.12221933539999
 30
0.0
 11
1017.7141802647
 21
-174.62221933539999
 31
0.0
 12
1017.7141802647
 22
-177.62221933539999
 32
0.0
 13
1016.2141802647
 23
-176.12221933539999
 33
0.0
  0
ENDBLK
  5
6A
  8
0
  0
BLOCK
  8
0
  2
*D4
 70
     1
 10
0.0
 20
0.0
 30
0.0
  3
*D4
  1

  0
TEXT
  5
6E
  8
0
 62
     0
 10
990.39473608509991
 20
-153.682701138
 30
0.0
 40
5.9972220420999998
  1
%%c8.5
  0
LINE
  5
6F
  8
0
 62
     0
 10
1020.4641802647
 20
-197.5640708979
 30
0.0
 11
1020.4641802647
 21
-155.2410344395999
 31
0.0
  0
LINE
  5
70
  8
0
 62
     0
 10
977.96418026469985
 20
-197.5640708979
 30
0.0
 11
977.96418026469985
 21
-155.2410344395999
 31
0.0
  0
LINE
  5
71
  8
0
 62
     0
 10
1020.4641802647
 20
-155.74103443960001
 30
0.0
 11
1011.561402116
 21
-155.74103443960001
 31
0.0
  0
LINE
  5
72
  8
0
 62
     0
 10
1020.4641802647
 20
-155.74103443960001
 30
0.0
 11
986.86695841330004
 21
-155.74103443960001
 31
0.0
  0
LINE
  5
73
  8
0
 62
     0
 10
977.96418026469985
 20
-155.74103443960001
 30
0.0
 11
1011.561402116
 21
-155.74103443960001
 31
0.0
  0
LINE
  5
74
  8
0
 62
     0
 10
977.96418026469985
 20
-155.74103443960001
 30
0.0
 11
986.86695841330004
 21
-155.74103443960001
 31
0.0
  0
LINE
  5
75
  8
0
 62
     0
 10
977.96418026469985
 20
-155.74103443960001
 30
0.0
 11
980.96418026469996
 21
-155.74103443960001
 31
0.0
  0
SOLID
  5
76
  8
0
 62
     0
 10
977.96418026469985
 20
-155.74103443960001
 30
0.0
 11
983.96418026469985
 21
-154.24103443960001
 31
0.0
 12
983.96418026469985
 22
-157.24103443960001
 32
0.0
 13
982.46418026469985
 23
-155.74103443960001
 33
0.0
  0
LINE
  5
77
  8
0
 62
     0
 10
1020.4641802647
 20
-155.74103443960001
 30
0.0
 11
1017.4641802647
 21
-155.74103443960001
 31
0.0
  0
SOLID
  5
78
  8
0
 62
     0
 10
1020.4641802647
 20
-155.74103443960001
 30
0.0
 11
1014.4641802647
 21
-157.24103443960001
 31
0.0
 12
1014.4641802647
 22
-154.24103443960001
 32
0.0
 13
1015.9641802647
 23
-155.74103443960001
 33
0.0
  0
ENDBLK
  5
79
  8
0
  0
BLOCK
  8
0
  2
*D5
 70
     1
 10
0.0
 20
0.0
 30
0.0
  3
*D5
  1

  0
TEXT
  5
7D
  8
0
 62
     0
 10
854.72379582200006
 20
-70.73327665890001
 30
0.0
 40
5.9972220420999998
  1
16
  0
LINE
  5
7E
  8
0
 62
     0
 10
866.25157349380015
 20
-106.6670005854
 30
0.0
 11
866.25157349380015
 21
-72.291609960399995
 31
0.0
  0
LINE
  5
7F
  8
0
 62
     0
 10
850.25157349380004
 20
-106.6670005854
 30
0.0
 11
850.25157349380004
 21
-72.291609960399995
 31
0.0
  0
LINE
  5
80
  8
0
 62
     0
 10
866.25157349380015
 20
-72.791609960399995
 30
0.0
 11
865.3071288374
 21
-72.791609960399995
 31
0.0
  0
LINE
  5
81
  8
0
 62
     0
 10
866.25157349380015
 20
-72.791609960399995
 30
0.0
 11
851.19601815020008
 21
-72.791609960399995
 31
0.0
  0
LINE
  5
82
  8
0
 62
     0
 10
850.25157349380004
 20
-72.791609960399995
 30
0.0
 11
865.3071288374
 21
-72.791609960399995
 31
0.0
  0
LINE
  5
83
  8
0
 62
     0
 10
850.25157349380004
 20
-72.791609960399995
 30
0.0
 11
851.19601815020008
 21
-72.791609960399995
 31
0.0
  0
LINE
  5
84
  8
0
 62
     0
 10
850.25157349380004
 20
-72.791609960399995
 30
0.0
 11
847.25157349379992
 21
-72.791609960399995
 31
0.0
  0
SOLID
  5
85
  8
0
 62
     0
 10
850.25157349380004
 20
-72.791609960399995
 30
0.0
 11
844.25157349380004
 21
-74.291609960399995
 31
0.0
 12
844.25157349380004
 22
-71.291609960399995
 32
0.0
 13
845.75157349380015
 23
-72.791609960399995
 33
0.0
  0
LINE
  5
86
  8
0
 62
     0
 10
866.25157349380015
 20
-72.791609960399995
 30
0.0
 11
869.25157349380004
 21
-72.791609960399995
 31
0.0
  0
SOLID
  5
87
  8
0
 62
     0
 10
866.25157349380015
 20
-72.791609960399995
 30
0.0
 11
872.25157349379992
 21
-71.291609960399995
 31
0.0
 12
872.25157349379992
 22
-74.291609960399995
 32
0.0
 13
870.75157349380015
 23
-72.791609960399995
 33
0.0
  0
ENDBLK
  5
88
  8
0
  0
BLOCK
  8
0
  2
*D6
 70
     1
 10
0.0
 20
0.0
 30
0.0
  3
*D6
  1

  0
TEXT
  5
8C
  8
0
 62
     0
 10
828.19324019229987
 20
-116.6947782572
 30
0.0
 40
5.9972220420999998
  1
11
 50
90.0
  0
LINE
  5
8D
  8
0
 62
     0
 10
849.25157349380015
 20
-107.6670005854
 30
0.0
 11
829.75157349380004
 21
-107.6670005854
 31
0.0
  0
LINE
  5
8E
  8
0
 62
     0
 10
850.25157349380004
 20
-118.6670005854
 30
0.0
 11
829.75157349380004
 21
-118.6670005854
 31
0.0
  0
LINE
  5
8F
  8
0
 62
     0
 10
830.25157349379992
 20
-107.6670005854
 30
0.0
 11
830.25157349379992
 21
-107.6670005854
 31
0.0
  0
LINE
  5
90
  8
0
 62
     0
 10
830.25157349379992
 20
-107.6670005854
 30
0.0
 11
830.25157349379992
 21
-118.6670005854
 31
0.0
  0
LINE
  5
91
  8
0
 62
     0
 10
830.25157349379992
 20
-118.6670005854
 30
0.0
 11
830.25157349379992
 21
-107.6670005854
 31
0.0
  0
LINE
  5
92
  8
0
 62
     0
 10
830.25157349379992
 20
-118.6670005854
 30
0.0
 11
830.25157349379992
 21
-118.6670005854
 31
0.0
  0
LINE
  5
93
  8
0
 62
     0
 10
830.25157349379992
 20
-118.6670005854
 30
0.0
 11
830.25157349379992
 21
-121.6670005854
 31
0.0
  0
SOLID
  5
94
  8
0
 62
     0
 10
830.25157349379992
 20
-118.6670005854
 30
0.0
 11
831.75157349380004
 21
-124.6670005854
 31
0.0
 12
828.75157349380015
 22
-124.6670005854
 32
0.0
 13
830.25157349379992
 23
-123.1670005854
 33
0.0
  0
LINE
  5
95
  8
0
 62
     0
 10
830.25157349379992
 20
-107.6670005854
 30
0.0
 11
830.25157349379992
 21
-104.6670005854
 31
0.0
  0
SOLID
  5
96
  8
0
 62
     0
 10
830.25157349379992
 20
-107.6670005854
 30
0.0
 11
828.75157349380015
 21
-101.6670005854
 31
0.0
 12
831.75157349380004
 22
-101.6670005854
 32
0.0
 13
830.25157349379992
 23
-103.1670005854
 33
0.0
  0
ENDBLK
  5
97
  8
0
  0
BLOCK
  8
0
  2
*D7
 70
     1
 10
0.0
 20
0.0
 30
0.0
  3
*D7
  1

  0
TEXT
  5
9B
  8
0
 62
     0
 10
828.19324019229987
 20
-174.1947782572
 30
0.0
 40
5.9972220420999998
  1
24
 50
90.0
  0
LINE
  5
9C
  8
0
 62
     0
 10
850.25157349380004
 20
-158.66700058539999
 30
0.0
 11
829.75157349380004
 21
-158.66700058539999
 31
0.0
  0
LINE
  5
9D
  8
0
 62
     0
 10
849.25157349380015
 20
-182.66700058539999
 30
0.0
 11
829.75157349380004
 21
-182.66700058539999
 31
0.0
  0
LINE
  5
9E
  8
0
 62
     0
 10
830.25157349379992
 20
-158.66700058539999
 30
0.0
 11
830.25157349379992
 21
-163.6114452418
 31
0.0
  0
LINE
  5
9F
  8
0
 62
     0
 10
830.25157349379992
 20
-158.66700058539999
 30
0.0
 11
830.25157349379992
 21
-177.72255592900001
 31
0.0
  0
LINE
  5
A0
  8
0
 62
     0
 10
830.25157349379992
 20
-182.66700058539999
 30
0.0
 11
830.25157349379992
 21
-163.6114452418
 31
0.0
  0
LINE
  5
A1
  8
0
 62
     0
 10
830.25157349379992
 20
-182.66700058539999
 30
0.0
 11
830.25157349379992
 21
-177.72255592900001
 31
0.0
  0
LINE
  5
A2
  8
0
 62
     0
 10
830.25157349379992
 20
-182.66700058539999
 30
0.0
 11
830.25157349379992
 21
-185.66700058539999
 31
0.0
  0
SOLID
  5
A3
  8
0
 62
     0
 10
830.25157349379992
 20
-182.66700058539999
 30
0.0
 11
831.75157349380004
 21
-188.66700058539999
 31
0.0
 12
828.75157349380015
 22
-188.66700058539999
 32
0.0
 13
830.25157349379992
 23
-187.16700058539999
 33
0.0
  0
LINE
  5
A4
  8
0
 62
     0
 10
830.25157349379992
 20
-158.66700058539999
 30
0.0
 11
830.25157349379992
 21
-155.66700058539999
 31
0.0
  0
SOLID
  5
A5
  8
0
 62
     0
 10
830.25157349379992
 20
-158.66700058539999
 30
0.0
 11
828.75157349380015
 21
-152.66700058539999
 31
0.0
 12
831.75157349380004
 22
-152.66700058539999
 32
0.0
 13
830.25157349379992
 23
-154.16700058539999
 33
0.0
  0
ENDBLK
  5
A6
  8
0
  0
BLOCK
  8
0
  2
*D8
 70
     1
 10
0.0
 20
0.0
 30
0.0
  3
*D8
  1

  0
TEXT
  5
AA
  8
0
 62
     0
 10
828.19324019229987
 20
-142.1947782572
 30
0.0
 40
5.9972220420999998
  1
40
 50
90.0
  0
LINE
  5
AB
  8
0
 62
     0
 10
850.25157349380004
 20
-118.6670005854
 30
0.0
 11
829.75157349380004
 21
-118.6670005854
 31
0.0
  0
LINE
  5
AC
  8
0
 62
     0
 10
850.25157349380004
 20
-158.66700058539999
 30
0.0
 11
829.75157349380004
 21
-158.66700058539999
 31
0.0
  0
LINE
  5
AD
  8
0
 62
     0
 10
830.25157349379992
 20
-118.6670005854
 30
0.0
 11
830.25157349379992
 21
-131.6114452418
 31
0.0
  0
LINE
  5
AE
  8
0
 62
     0
 10
830.25157349379992
 20
-118.6670005854
 30
0.0
 11
830.25157349379992
 21
-145.72255592900001
 31
0.0
  0
LINE
  5
AF
  8
0
 62
     0
 10
830.25157349379992
 20
-158.66700058539999
 30
0.0
 11
830.25157349379992
 21
-131.6114452418
 31
0.0
  0
LINE
  5
B0
  8
0
 62
     0
 10
830.25157349379992
 20
-158.66700058539999
 30
0.0
 11
830.25157349379992
 21
-145.72255592900001
 31
0.0
  0
LINE
  5
B1
  8
0
 62
     0
 10
830.25157349379992
 20
-158.66700058539999
 30
0.0
 11
830.25157349379992
 21
-155.66700058539999
 31
0.0
  0
SOLID
  5
B2
  8
0
 62
     0
 10
830.25157349379992
 20
-158.66700058539999
 30
0.0
 11
828.75157349380015
 21
-152.66700058539999
 31
0.0
 12
831.75157349380004
 22
-152.66700058539999
 32
0.0
 13
830.25157349379992
 23
-154.16700058539999
 33
0.0
  0
LINE
  5
B3
  8
0
 62
     0
 10
830.25157349379992
 20
-118.6670005854
 30
0.0
 11
830.25157349379992
 21
-121.6670005854
 31
0.0
  0
SOLID
  5
B4
  8
0
 62
     0
 10
830.25157349379992
 20
-118.6670005854
 30
0.0
 11
831.75157349380004
 21
-124.6670005854
 31
0.0
 12
828.75157349380015
 22
-124.6670005854
 32
0.0
 13
830.25157349379992
 23
-123.1670005854
 33
0.0
  0
ENDBLK
  5
B5
  8
0
  0
BLOCK
  8
0
  2
*D9
 70
     1
 10
0.0
 20
0.0
 30
0.0
  3
*D9
  1

  0
TEXT
  5
BD
  8
0
 62
     0
 10
993.9225137569
 20
-131.33034837689999
 30
0.0
 40
5.9972220420999998
  1
90%%d
 50
360.0
  0
ARC
  5
BE
  8
0
 62
     0
 10
999.21418026469985
 20
-219.8140708979
 30
0.0
 40
85.308722616400004
 50
130.07338627249999
 51
135.0
  0
ARC
  5
BF
  8
0
 62
     0
 10
999.21418026469985
 20
-219.8140708979
 30
0.0
 40
85.308722616400004
 50
45.0
 51
49.926613727499991
  0
SOLID
  5
C0
  8
0
 62
     0
 10
1059.5365565211
 20
-159.4916946415
 30
0.0
 11
1064.83985738
 21
-162.67367515679999
 31
0.0
 12
1062.7185370364
 22
-164.79499550040001
 32
0.0
 13
1062.7185370364
 23
-162.67367515679999
 33
0.0
  0
SOLID
  5
C1
  8
0
 62
     0
 10
938.89180400820021
 20
-159.4916946415
 30
0.0
 11
935.70982349289989
 21
-164.79499550040001
 31
0.0
 12
933.58850314929987
 22
-162.67367515679999
 32
0.0
 13
935.70982349289989
 23
-162.67367515679999
 33
0.0
  0
ARC
  5
C2
  8
0
 62
     0
 10
999.21418026469985
 20
-219.8140708979
 30
0.0
 40
85.308722616400004
 50
45.0
 51
83.99902066300001
  0
ARC
  5
C3
  8
0
 62
     0
 10
999.21418026469985
 20
-219.8140708979
 30
0.0
 40
85.308722616400004
 50
96.000979337000004
 51
135.0
  0
LINE
  5
C4
  8
0
 62
     0
 10
1023.4750948141
 20
-195.55315634850001
 30
0.0
 11
1062.5474710705
 21
-156.480780092
 31
0.0
  0
LINE
  5
C5
  8
0
 62
     0
 10
974.95326571520002
 20
-195.55315634850001
 30
0.0
 11
935.88088945880008
 21
-156.480780092
 31
0.0
  0
ENDBLK
  5
C6
  8
0
  0
BLOCK
  8
0
  2
*D10
 70
     1
 10
0.0
 20
0.0
 30
0.0
  3
*D10
  1

  0
TEXT
  5
CB
  8
0
 62
     0
 10
641.88777144230005
 20
-290.83286419469999
 30
0.0
 40
5.9972220420999998
  1
16
 50
90.0
  0
LINE
  5
CC
  8
0
 62
     0
 10
662.94610474379999
 20
-279.30508652290001
 30
0.0
 11
643.94610474379988
 21
-279.30508652290001
 31
0.0
  0
LINE
  5
CD
  8
0
 62
     0
 10
662.94610474379999
 20
-295.30508652290001
 30
0.0
 11
643.94610474379988
 21
-295.30508652290001
 31
0.0
  0
LINE
  5
CE
  8
0
 62
     0
 10
644.94610474379988
 20
-279.30508652290001
 30
0.0
 11
644.94610474379988
 21
-280.24953117929999
 31
0.0
  0
LINE
  5
CF
  8
0
 62
     0
 10
644.94610474379988
 20
-279.30508652290001
 30
0.0
 11
644.94610474379988
 21
-294.36064186649998
 31
0.0
  0
LINE
  5
D0
  8
0
 62
     0
 10
644.94610474379988
 20
-295.30508652290001
 30
0.0
 11
644.94610474379988
 21
-280.24953117929999
 31
0.0
  0
LINE
  5
D1
  8
0
 62
     0
 10
644.94610474379988
 20
-295.30508652290001
 30
0.0
 11
644.94610474379988
 21
-294.36064186649998
 31
0.0
  0
LINE
  5
D2
  8
0
 62
     0
 10
644.94610474379988
 20
-295.30508652290001
 30
0.0
 11
644.94610474379988
 21
-301.30508652290001
 31
0.0
  0
SOLID
  5
D3
  8
0
 62
     0
 10
644.94610474379988
 20
-295.30508652290001
 30
0.0
 11
646.44610474379999
 21
-301.30508652290001
 31
0.0
 12
643.44610474379988
 22
-301.30508652290001
 32
0.0
 13
644.94610474379988
 23
-299.80508652290001
 33
0.0
  0
LINE
  5
D4
  8
0
 62
     0
 10
644.94610474379988
 20
-279.30508652290001
 30
0.0
 11
644.94610474379988
 21
-273.30508652290001
 31
0.0
  0
SOLID
  5
D5
  8
0
 62
     0
 10
644.94610474379988
 20
-279.30508652290001
 30
0.0
 11
643.44610474379988
 21
-273.30508652290001
 31
0.0
 12
646.44610474379999
 22
-273.30508652290001
 32
0.0
 13
644.94610474379988
 23
-274.80508652290001
 33
0.0
  0
ENDBLK
  5
D6
  8
0
  0
BLOCK
  8
0
  2
*D11
 70
     1
 10
0.0
 20
0.0
 30
0.0
  3
*D11
  1

  0
TEXT
  5
DA
  8
0
 62
     0
 10
761.74798671469989
 20
-270.65561286069999
 30
0.0
 40
5.9972220420999998
  1
8
 50
90.0
  0
LINE
  5
DB
  8
0
 62
     0
 10
737.94610474379999
 20
-287.30508652290001
 30
0.0
 11
765.80632001619995
 21
-287.30508652290001
 31
0.0
  0
LINE
  5
DC
  8
0
 62
     0
 10
741.94610474379999
 20
-279.30508652290001
 30
0.0
 11
765.80632001619995
 21
-279.30508652290001
 31
0.0
  0
LINE
  5
DD
  8
0
 62
     0
 10
764.80632001619995
 20
-287.30508652290001
 30
0.0
 11
764.80632001619995
 21
-263.60005751710003
 31
0.0
  0
LINE
  5
DE
  8
0
 62
     0
 10
764.80632001619995
 20
-287.30508652290001
 30
0.0
 11
764.80632001619995
 21
-274.18339053250003
 31
0.0
  0
LINE
  5
DF
  8
0
 62
     0
 10
764.80632001619995
 20
-279.30508652290001
 30
0.0
 11
764.80632001619995
 21
-263.60005751710003
 31
0.0
  0
LINE
  5
E0
  8
0
 62
     0
 10
764.80632001619995
 20
-279.30508652290001
 30
0.0
 11
764.80632001619995
 21
-274.18339053250003
 31
0.0
  0
LINE
  5
E1
  8
0
 62
     0
 10
764.80632001619995
 20
-279.30508652290001
 30
0.0
 11
764.80632001619995
 21
-273.30508652290001
 31
0.0
  0
SOLID
  5
E2
  8
0
 62
     0
 10
764.80632001619995
 20
-279.30508652290001
 30
0.0
 11
763.30632001619995
 21
-273.30508652290001
 31
0.0
 12
766.30632001619995
 22
-273.30508652290001
 32
0.0
 13
764.80632001619995
 23
-274.80508652290001
 33
0.0
  0
LINE
  5
E3
  8
0
 62
     0
 10
764.80632001619995
 20
-287.30508652290001
 30
0.0
 11
764.80632001619995
 21
-293.30508652290001
 31
0.0
  0
SOLID
  5
E4
  8
0
 62
     0
 10
764.80632001619995
 20
-287.30508652290001
 30
0.0
 11
766.30632001619995
 21
-293.30508652290001
 31
0.0
 12
763.30632001619995
 22
-293.30508652290001
 32
0.0
 13
764.80632001619995
 23
-291.80508652290001
 33
0.0
  0
ENDBLK
  5
E5
  8
0
  0
BLOCK
  8
0
  2
*D12
 70
     1
 10
0.0
 20
0.0
 30
0.0
  3
*D12
  1

  0
TEXT
  5
E9
  8
0
 62
     0
 10
761.74798671469989
 20
-307.58890841039999
 30
0.0
 40
5.9972220420999998
  1
8
 50
90.0
  0
LINE
  5
EA
  8
0
 62
     0
 10
741.94610474379999
 20
-295.30508652290001
 30
0.0
 11
765.80632001619995
 21
-295.30508652290001
 31
0.0
  0
LINE
  5
EB
  8
0
 62
     0
 10
737.94610474379999
 20
-287.30508652290001
 30
0.0
 11
765.80632001619995
 21
-287.30508652290001
 31
0.0
  0
LINE
  5
EC
  8
0
 62
     0
 10
764.80632001619995
 20
-295.30508652290001
 30
0.0
 11
764.80632001619995
 21
-300.53335306679998
 31
0.0
  0
LINE
  5
ED
  8
0
 62
     0
 10
764.80632001619995
 20
-295.30508652290001
 30
0.0
 11
764.80632001619995
 21
-311.11668608230002
 31
0.0
  0
LINE
  5
EE
  8
0
 62
     0
 10
764.80632001619995
 20
-287.30508652290001
 30
0.0
 11
764.80632001619995
 21
-300.53335306679998
 31
0.0
  0
LINE
  5
EF
  8
0
 62
     0
 10
764.80632001619995
 20
-287.30508652290001
 30
0.0
 11
764.80632001619995
 21
-311.11668608230002
 31
0.0
  0
LINE
  5
F0
  8
0
 62
     0
 10
764.80632001619995
 20
-287.30508652290001
 30
0.0
 11
764.80632001619995
 21
-281.30508652290001
 31
0.0
  0
SOLID
  5
F1
  8
0
 62
     0
 10
764.80632001619995
 20
-287.30508652290001
 30
0.0
 11
763.30632001619995
 21
-281.30508652290001
 31
0.0
 12
766.30632001619995
 22
-281.30508652290001
 32
0.0
 13
764.80632001619995
 23
-282.80508652290001
 33
0.0
  0
LINE
  5
F2
  8
0
 62
     0
 10
764.80632001619995
 20
-295.30508652290001
 30
0.0
 11
764.80632001619995
 21
-301.30508652290001
 31
0.0
  0
SOLID
  5
F3
  8
0
 62
     0
 10
764.80632001619995
 20
-295.30508652290001
 30
0.0
 11
766.30632001619995
 21
-301.30508652290001
 31
0.0
 12
763.30632001619995
 22
-301.30508652290001
 32
0.0
 13
764.80632001619995
 23
-299.80508652290001
 33
0.0
  0
ENDBLK
  5
F4
  8
0
  0
BLOCK
  8
0
  2
*D13
 70
     1
 10
0.0
 20
0.0
 30
0.0
  3
*D13
  1

  0
TEXT
  5
F8
  8
0
 62
     0
 10
678.16059385159997
 20
-71.484942693999997
 30
0.0
 40
5.9972220420999998
  1
4.5t
  0
LINE
  5
F9
  8
0
 62
     0
 10
669.44610474379988
 20
-106.6670005854
 30
0.0
 11
669.44610474379988
 21
-73.043275995599998
 31
0.0
  0
LINE
  5
FA
  8
0
 62
     0
 10
664.94610474379988
 20
-106.6670005854
 30
0.0
 11
664.94610474379988
 21
-73.043275995599998
 31
0.0
  0
LINE
  5
FB
  8
0
 62
     0
 10
669.44610474379988
 20
-73.543275995599998
 30
0.0
 11
695.79948221070003
 21
-73.543275995599998
 31
0.0
  0
LINE
  5
FC
  8
0
 62
     0
 10
669.44610474379988
 20
-73.543275995599998
 30
0.0
 11
674.63281617979987
 21
-73.543275995599998
 31
0.0
  0
LINE
  5
FD
  8
0
 62
     0
 10
664.94610474379988
 20
-73.543275995599998
 30
0.0
 11
695.79948221070003
 21
-73.543275995599998
 31
0.0
  0
LINE
  5
FE
  8
0
 62
     0
 10
664.94610474379988
 20
-73.543275995599998
 30
0.0
 11
674.63281617979987
 21
-73.543275995599998
 31
0.0
  0
LINE
  5
FF
  8
0
 62
     0
 10
664.94610474379988
 20
-73.543275995599998
 30
0.0
 11
661.94610474379999
 21
-73.543275995599998
 31
0.0
  0
SOLID
  5
100
  8
0
 62
     0
 10
664.94610474379988
 20
-73.543275995599998
 30
0.0
 11
658.94610474379999
 21
-75.043275995599984
 31
0.0
 12
658.94610474379999
 22
-72.043275995599998
 32
0.0
 13
660.44610474379988
 23
-73.543275995599998
 33
0.0
  0
LINE
  5
101
  8
0
 62
     0
 10
669.44610474379988
 20
-73.543275995599998
 30
0.0
 11
672.44610474379988
 21
-73.543275995599998
 31
0.0
  0
SOLID
  5
102
  8
0
 62
     0
 10
669.44610474379988
 20
-73.543275995599998
 30
0.0
 11
675.44610474379999
 21
-72.043275995599998
 31
0.0
 12
675.44610474379999
 22
-75.043275995599984
 32
0.0
 13
673.94610474379988
 23
-73.543275995599998
 33
0.0
  0
ENDBLK
  5
103
  8
0
  0
BLOCK
  8
0
  2
*D14
 70
     1
 10
0.0
 20
0.0
 30
0.0
  3
*D14
  1

  0
TEXT
  5
107
  8
0
 62
     0
 10
875.77241658710011
 20
-84.608667283900004
 30
0.0
 40
5.9972220420999998
  1
8
  0
LINE
  5
108
  8
0
 62
     0
 10
866.25157349380015
 20
-105.6670005854
 30
0.0
 11
866.25157349380015
 21
-86.667000585400004
 31
0.0
  0
LINE
  5
109
  8
0
 62
     0
 10
858.25157349380015
 20
-109.6670005854
 30
0.0
 11
858.25157349380015
 21
-86.667000585400004
 31
0.0
  0
LINE
  5
10A
  8
0
 62
     0
 10
866.25157349380015
 20
-87.667000585400004
 30
0.0
 11
882.8279719308
 21
-87.667000585400004
 31
0.0
  0
LINE
  5
10B
  8
0
 62
     0
 10
866.25157349380015
 20
-87.667000585400004
 30
0.0
 11
872.24463891530013
 21
-87.667000585400004
 31
0.0
  0
LINE
  5
10C
  8
0
 62
     0
 10
858.25157349380015
 20
-87.667000585400004
 30
0.0
 11
882.8279719308
 21
-87.667000585400004
 31
0.0
  0
LINE
  5
10D
  8
0
 62
     0
 10
858.25157349380015
 20
-87.667000585400004
 30
0.0
 11
872.24463891530013
 21
-87.667000585400004
 31
0.0
  0
LINE
  5
10E
  8
0
 62
     0
 10
858.25157349380015
 20
-87.667000585400004
 30
0.0
 11
852.25157349380004
 21
-87.667000585400004
 31
0.0
  0
SOLID
  5
10F
  8
0
 62
     0
 10
858.25157349380015
 20
-87.667000585400004
 30
0.0
 11
852.25157349380004
 21
-89.167000585400004
 31
0.0
 12
852.25157349380004
 22
-86.167000585400004
 32
0.0
 13
853.75157349380015
 23
-87.667000585400004
 33
0.0
  0
LINE
  5
110
  8
0
 62
     0
 10
866.25157349380015
 20
-87.667000585400004
 30
0.0
 11
872.25157349379992
 21
-87.667000585400004
 31
0.0
  0
SOLID
  5
111
  8
0
 62
     0
 10
866.25157349380015
 20
-87.667000585400004
 30
0.0
 11
872.25157349379992
 21
-86.167000585400004
 31
0.0
 12
872.25157349379992
 22
-89.167000585400004
 32
0.0
 13
870.75157349380015
 23
-87.667000585400004
 33
0.0
  0
ENDBLK
  5
112
  8
0
  0
BLOCK
  8
0
  2
*D15
 70
     1
 10
0.0
 20
0.0
 30
0.0
  3
*D15
  1

  0
TEXT
  5
116
  8
0
 62
     0
 10
838.77603977549995
 20
-84.608667283900004
 30
0.0
 40
5.9972220420999998
  1
8
  0
LINE
  5
117
  8
0
 62
     0
 10
858.25157349380015
 20
-109.6670005854
 30
0.0
 11
858.25157349380015
 21
-86.667000585400004
 31
0.0
  0
LINE
  5
118
  8
0
 62
     0
 10
850.25157349380004
 20
-105.6670005854
 30
0.0
 11
850.25157349380004
 21
-86.667000585400004
 31
0.0
  0
LINE
  5
119
  8
0
 62
     0
 10
858.25157349380015
 20
-87.667000585400004
 30
0.0
 11
845.83159511919996
 21
-87.667000585400004
 31
0.0
  0
LINE
  5
11A
  8
0
 62
     0
 10
858.25157349380015
 20
-87.667000585400004
 30
0.0
 11
835.24826210369986
 21
-87.667000585400004
 31
0.0
  0
LINE
  5
11B
  8
0
 62
     0
 10
850.25157349380004
 20
-87.667000585400004
 30
0.0
 11
845.83159511919996
 21
-87.667000585400004
 31
0.0
  0
LINE
  5
11C
  8
0
 62
     0
 10
850.25157349380004
 20
-87.667000585400004
 30
0.0
 11
835.24826210369986
 21
-87.667000585400004
 31
0.0
  0
LINE
  5
11D
  8
0
 62
     0
 10
850.25157349380004
 20
-87.667000585400004
 30
0.0
 11
844.25157349380004
 21
-87.667000585400004
 31
0.0
  0
SOLID
  5
11E
  8
0
 62
     0
 10
850.25157349380004
 20
-87.667000585400004
 30
0.0
 11
844.25157349380004
 21
-89.167000585400004
 31
0.0
 12
844.25157349380004
 22
-86.167000585400004
 32
0.0
 13
845.75157349380015
 23
-87.667000585400004
 33
0.0
  0
LINE
  5
11F
  8
0
 62
     0
 10
858.25157349380015
 20
-87.667000585400004
 30
0.0
 11
864.25157349379992
 21
-87.667000585400004
 31
0.0
  0
SOLID
  5
120
  8
0
 62
     0
 10
858.25157349380015
 20
-87.667000585400004
 30
0.0
 11
864.25157349379992
 21
-86.167000585400004
 31
0.0
 12
864.25157349379992
 22
-89.167000585400004
 32
0.0
 13
862.75157349380004
 23
-87.667000585400004
 33
0.0
  0
ENDBLK
  5
121
  8
0
  0
BLOCK
  8
0
  2
*D16
 70
     1
 10
0.0
 20
0.0
 30
0.0
  3
*D16
  1

  0
TEXT
  5
13C
  8
0
 62
     0
 10
696.11193163020005
 20
-142.94568961819999
 30
0.0
 40
5.9972220420999998
  1
90%%d
 50
315.99127537010003
  0
ARC
  5
13D
  8
0
 62
     0
 10
669.44610474379988
 20
-178.16700058539999
 30
0.0
 40
40.683925473899997
 50
78.135718854399997
 51
90.0
  0
ARC
  5
13E
  8
0
 62
     0
 10
669.44610474379988
 20
-178.16700058539999
 30
0.0
 40
40.683925473899997
 50
0.0
 51
11.8642811456
  0
SOLID
  5
13F
  8
0
 62
     0
 10
710.13003021769998
 20
-178.16700058539999
 30
0.0
 11
711.6300302177001
 21
-184.16700058539999
 31
0.0
 12
708.6300302177001
 22
-184.16700058539999
 32
0.0
 13
710.13003021769998
 23
-182.66700058539999
 33
0.0
  0
SOLID
  5
140
  8
0
 62
     0
 10
669.44610474379988
 20
-137.4830751115
 30
0.0
 11
663.44610474379999
 21
-138.9830751115
 31
0.0
 12
663.44610474379999
 22
-135.9830751115
 32
0.0
 13
664.94610474379988
 23
-137.4830751115
 33
0.0
  0
ARC
  5
141
  8
0
 62
     0
 10
669.44610474379988
 20
-178.16700058539999
 30
0.0
 40
40.683925473899997
 50
0.0
 51
33.3344159404
  0
ARC
  5
142
  8
0
 62
     0
 10
669.44610474379988
 20
-178.16700058539999
 30
0.0
 40
40.683925473899997
 50
58.64813479979999
 51
90.0
  0
LINE
  5
143
  8
0
 62
     0
 10
735.94610474379988
 20
-178.16700058539999
 30
0.0
 11
706.13003021769998
 21
-178.16700058539999
 31
0.0
  0
LINE
  5
144
  8
0
 62
     0
 10
669.44610474379988
 20
-111.6670005854
 30
0.0
 11
669.44610474379988
 21
-141.4830751115
 31
0.0
  0
ENDBLK
  5
145
  8
0
  0
BLOCK
  8
0
  2
*D17
 70
     1
 10
0.0
 20
0.0
 30
0.0
  3
*D17
  1

  0
TEXT
  5
149
  8
0
 62
     0
 10
673.41832707200001
 20
-257.24675322140001
 30
0.0
 40
5.9972220420999998
  1
24
  0
LINE
  5
14A
  8
0
 62
     0
 10
688.94610474379999
 20
-279.30508652290001
 30
0.0
 11
688.94610474379999
 21
-258.80508652290001
 31
0.0
  0
LINE
  5
14B
  8
0
 62
     0
 10
664.94610474379988
 20
-278.30508652290001
 30
0.0
 11
664.94610474379988
 21
-258.80508652290001
 31
0.0
  0
LINE
  5
14C
  8
0
 62
     0
 10
688.94610474379999
 20
-259.30508652290001
 30
0.0
 11
684.00166008739996
 21
-259.30508652290001
 31
0.0
  0
LINE
  5
14D
  8
0
 62
     0
 10
688.94610474379999
 20
-259.30508652290001
 30
0.0
 11
669.89054940019992
 21
-259.30508652290001
 31
0.0
  0
LINE
  5
14E
  8
0
 62
     0
 10
664.94610474379988
 20
-259.30508652290001
 30
0.0
 11
684.00166008739996
 21
-259.30508652290001
 31
0.0
  0
LINE
  5
14F
  8
0
 62
     0
 10
664.94610474379988
 20
-259.30508652290001
 30
0.0
 11
669.89054940019992
 21
-259.30508652290001
 31
0.0
  0
LINE
  5
150
  8
0
 62
     0
 10
664.94610474379988
 20
-259.30508652290001
 30
0.0
 11
661.94610474379999
 21
-259.30508652290001
 31
0.0
  0
SOLID
  5
151
  8
0
 62
     0
 10
664.94610474379988
 20
-259.30508652290001
 30
0.0
 11
658.94610474379999
 21
-260.80508652290001
 31
0.0
 12
658.94610474379999
 22
-257.80508652290001
 32
0.0
 13
660.44610474379988
 23
-259.30508652290001
 33
0.0
  0
LINE
  5
152
  8
0
 62
     0
 10
688.94610474379999
 20
-259.30508652290001
 30
0.0
 11
691.94610474379999
 21
-259.30508652290001
 31
0.0
  0
SOLID
  5
153
  8
0
 62
     0
 10
688.94610474379999
 20
-259.30508652290001
 30
0.0
 11
694.94610474379988
 21
-257.80508652290001
 31
0.0
 12
694.94610474379988
 22
-260.80508652290001
 32
0.0
 13
693.44610474379988
 23
-259.30508652290001
 33
0.0
  0
ENDBLK
  5
154
  8
0
  0
BLOCK
  8
0
  2
*D18
 70
     1
 10
0.0
 20
0.0
 30
0.0
  3
*D18
  1

  0
TEXT
  5
158
  8
0
 62
     0
 10
705.41832707200001
 20
-257.24675322140001
 30
0.0
 40
5.9972220420999998
  1
40
  0
LINE
  5
159
  8
0
 62
     0
 10
728.94610474379999
 20
-279.30508652290001
 30
0.0
 11
728.94610474379999
 21
-258.80508652290001
 31
0.0
  0
LINE
  5
15A
  8
0
 62
     0
 10
688.94610474379999
 20
-279.30508652290001
 30
0.0
 11
688.94610474379999
 21
-258.80508652290001
 31
0.0
  0
LINE
  5
15B
  8
0
 62
     0
 10
728.94610474379999
 20
-259.30508652290001
 30
0.0
 11
716.00166008739996
 21
-259.30508652290001
 31
0.0
  0
LINE
  5
15C
  8
0
 62
     0
 10
728.94610474379999
 20
-259.30508652290001
 30
0.0
 11
701.89054940020003
 21
-259.30508652290001
 31
0.0
  0
LINE
  5
15D
  8
0
 62
     0
 10
688.94610474379999
 20
-259.30508652290001
 30
0.0
 11
716.00166008739996
 21
-259.30508652290001
 31
0.0
  0
LINE
  5
15E
  8
0
 62
     0
 10
688.94610474379999
 20
-259.30508652290001
 30
0.0
 11
701.89054940020003
 21
-259.30508652290001
 31
0.0
  0
LINE
  5
15F
  8
0
 62
     0
 10
688.94610474379999
 20
-259.30508652290001
 30
0.0
 11
691.94610474379999
 21
-259.30508652290001
 31
0.0
  0
SOLID
  5
160
  8
0
 62
     0
 10
688.94610474379999
 20
-259.30508652290001
 30
0.0
 11
694.94610474379988
 21
-257.80508652290001
 31
0.0
 12
694.94610474379988
 22
-260.80508652290001
 32
0.0
 13
693.44610474379988
 23
-259.30508652290001
 33
0.0
  0
LINE
  5
161
  8
0
 62
     0
 10
728.94610474379999
 20
-259.30508652290001
 30
0.0
 11
725.94610474379999
 21
-259.30508652290001
 31
0.0
  0
SOLID
  5
162
  8
0
 62
     0
 10
728.94610474379999
 20
-259.30508652290001
 30
0.0
 11
722.94610474379988
 21
-260.80508652290001
 31
0.0
 12
722.94610474379988
 22
-257.80508652290001
 32
0.0
 13
724.44610474379999
 23
-259.30508652290001
 33
0.0
  0
ENDBLK
  5
163
  8
0
  0
BLOCK
  8
0
  2
*U19
 70
     1
 10
0.0
 20
0.0
 30
0.0
  3
*U19
  1

  0
TEXT
  5
214
  8
┌▓È_1
  6
CONTINUOUS
 10
974.4185761058252
 20
-244.27656707542741
 30
0.0
 40
5.9972220420999998
  1
ÄMâéâ~òöègæÕÉ}
  0
ENDBLK
  5
216
  8
0
  0
BLOCK
  8
0
  2
*D20
 70
     1
 10
0.0
 20
0.0
 30
0.0
  3
*D20
  1

  0
LINE
  5
219
  8
Éíû@É³
 62
     0
 10
1021.038704524324
 20
-197.98954663817571
 30
0.0
 11
1060.420439997461
 21
-158.60781116485779
 31
0.0
  0
LINE
  5
21A
  8
Éíû@É³
 62
     0
 10
977.38965600497602
 20
-197.9895466381758
 30
0.0
 11
938.00792053179828
 21
-158.607811164998
 31
0.0
  0
ARC
  5
21B
  8
Éíû@É³
 62
     0
 10
999.21418026469985
 20
-219.8140708979
 30
0.0
 40
85.30872261639999
 50
49.030602759848612
 51
83.818578338850173
  0
ARC
  5
21C
  8
Éíû@É³
 62
     0
 10
999.21418026469985
 20
-219.8140708979
 30
0.0
 40
85.30872261639999
 50
96.181421661149827
 51
130.9693972402826
  0
SOLID
  5
21D
  8
Éíû@É³
 62
     0
 10
1055.829144683893
 20
-154.66934070677681
 30
0.0
 11
1054.4655386422539
 21
-156.13241232607891
 31
0.0
 12
1059.53655652098
 22
-159.491694641343
 32
0.0
 13
1059.53655652098
 23
-159.491694641343
 33
0.0
  0
SOLID
  5
21E
  8
Éíû@É³
 62
     0
 10
943.96282188699934
 20
-156.13241232620541
 30
0.0
 11
942.59921584535755
 21
-154.66934070690641
 31
0.0
 12
938.8918040082815
 22
-159.49169464148119
 32
0.0
 13
938.8918040082815
 23
-159.49169464148119
 33
0.0
  0
TEXT
  8
Éíû@É³
  40
5.99722
  5
27C
  62
0
  72
0
  71
0
 10
987.220
 20
-145.120
 30
0.000000
  1
90üï
  0
POINT
  5
220
  8
Defpoints
 62
     0
 10
999.21418026469985
 20
-219.8140708979
 30
0.0
  0
POINT
  5
221
  8
Defpoints
 62
     0
 10
1020.9945103505
 20
-198.03374081199999
 30
0.0
  0
POINT
  5
222
  8
Defpoints
 62
     0
 10
977.43385017880007
 20
-198.03374081199999
 30
0.0
  0
POINT
  5
223
  8
Defpoints
 62
     0
 10
1021.2937023910659
 20
-137.4121725149551
 30
0.0
  0
ENDBLK
  5
225
  8
0
  0
BLOCK
  8
0
  2
*U21
 70
     1
 10
0.0
 20
0.0
 30
0.0
  3
*U21
  1

  0
TEXT
  5
227
  8
┌▓È_1
  6
CONTINUOUS
 10
1028.5339833280671
 20
-371.09030096560002
 30
0.0
 40
7.1966662884000003
  1
LY-204  75x75
  0
ENDBLK
  5
229
  8
0
  0
BLOCK
  8
0
  2
*U22
 70
     1
 10
0.0
 20
0.0
 30
0.0
  3
*U22
  1

  0
TEXT
  5
22B
  8
┌▓È_1
  6
CONTINUOUS
 10
1031.8460578880999
 20
-389.4590654565269
 30
0.0
 40
7.1966662884000003
  1
ékî^âAâôâOâï
  0
ENDBLK
  5
22D
  8
0
  0
BLOCK
  8
0
  2
*U23
 70
     1
 10
0.0
 20
0.0
 30
0.0
  3
*U23
  1

  0
TEXT
  5
22F
  8
┌▓È_1
  6
CONTINUOUS
 10
873.03576135240007
 20
-383.18818805903709
 30
0.0
 40
4.6749999999999989
  1
 É¦îvü@ü@öÆÉ{ëÛ
  0
ENDBLK
  5
231
  8
0
  0
BLOCK
  8
0
  2
*U24
 70
     1
 10
0.0
 20
0.0
 30
0.0
  3
*U24
  1

  0
TEXT
  5
233
  8
┌▓È_1
  6
CONTINUOUS
 10
873.03576135240007
 20
-391.71191902350409
 30
0.0
 40
4.6749999999999989
  1
 É╗É}ü@ü@ è¦û{
  0
ENDBLK
  5
235
  8
0
  0
BLOCK
  8
0
  2
*U25
 70
     1
 10
0.0
 20
0.0
 30
0.0
  3
*U25
  1

  0
TEXT
  5
237
  8
┌▓È_1
  6
CONTINUOUS
 10
873.96653297490002
 20
-366.02207130776799
 30
0.0
 40
4.6749999999999989
  1
ü@ô· ü@òt
  0
ENDBLK
  5
239
  8
0
  0
BLOCK
  8
0
  2
*U26
 70
     1
 10
0.0
 20
0.0
 30
0.0
  3
*U26
  1

  0
TEXT
  5
23B
  8
┌▓È_1
  6
CONTINUOUS
 10
1002.8167602598
 20
-366.03546697170202
 30
0.0
 40
4.6749999999999989
  1
î^öÈ
  0
ENDBLK
  5
23D
  8
0
  0
BLOCK
  8
0
  2
*U27
 70
     1
 10
0.0
 20
0.0
 30
0.0
  3
*U27
  1

  0
TEXT
  5
23F
  8
┌▓È_1
  6
CONTINUOUS
 10
1002.8167602598
 20
-383.08292890063598
 30
0.0
 40
4.6749999999999989
  1
òiû╝
  0
ENDBLK
  5
241
  8
0
  0
BLOCK
  8
0
  2
*U28
 70
     1
 10
0.0
 20
0.0
 30
0.0
  3
*U28
  1

  0
TEXT
  5
243
  8
┌▓È_1
  6
CONTINUOUS
 10
1002.8167602598
 20
-400.03546697170202
 30
0.0
 40
4.6749999999999989
  1
É}öÈ
  0
ENDBLK
  5
245
  8
0
  0
BLOCK
  8
0
  2
*U29
 70
     1
 10
0.0
 20
0.0
 30
0.0
  3
*U29
  1

  0
TEXT
  5
247
  8
┌▓È_1
  6
CONTINUOUS
 62
     5
 10
881.40625627625786
 20
-374.42714744989991
 30
0.0
 40
4.6749999999999989
  1
H16.4
  0
ENDBLK
  5
249
  8
0
  0
BLOCK
  8
0
  2
*U30
 70
     1
 10
0.0
 20
0.0
 30
0.0
  3
*U30
  1

  0
TEXT
  5
24B
  8
┌▓È_1
  6
CONTINUOUS
 62
     5
 10
918.23550754529333
 20
-374.71191902350398
 30
0.0
 40
4.6749999999999989
  1
ôS
  0
ENDBLK
  5
24D
  8
0
  0
BLOCK
  8
0
  2
*U31
 70
     1
 10
0.0
 20
0.0
 30
0.0
  3
*U31
  1

  0
TEXT
  5
24F
  8
┌▓È_1
  6
CONTINUOUS
 62
     5
 10
947.04369282448113
 20
-374.42714744989991
 30
0.0
 40
4.6749999999999989
  1
4.5t
  0
ENDBLK
  5
251
  8
0
  0
BLOCK
  8
0
  2
*U32
 70
     1
 10
0.0
 20
0.0
 30
0.0
  3
*U32
  1

  0
TEXT
  5
253
  8
┌▓È_1
  6
CONTINUOUS
 62
     5
 10
946.83011414427835
 20
-391.42714744990002
 30
0.0
 40
4.6749999999999989
  1
1üF2
  0
ENDBLK
  5
255
  8
0
  0
BLOCK
  8
0
  2
*U33
 70
     1
 10
0.0
 20
0.0
 30
0.0
  3
*U33
  1

  0
TEXT
  5
257
  8
┌▓È_1
  6
CONTINUOUS
 10
905.96653297490002
 20
-366.09326420116901
 30
0.0
 40
4.6749999999999989
  1
ü@ìÌ ü@Ä┐
  0
ENDBLK
  5
259
  8
0
  0
BLOCK
  8
0
  2
*U34
 70
     1
 10
0.0
 20
0.0
 30
0.0
  3
*U34
  1

  0
TEXT
  5
25B
  8
┌▓È_1
  6
CONTINUOUS
 10
937.96653297490002
 20
-366.18818805903709
 30
0.0
 40
4.6749999999999989
  1
ü@ö┬ ü@î·
  0
ENDBLK
  5
25D
  8
0
  0
BLOCK
  8
0
  2
*D35
 70
     1
 10
0.0
 20
0.0
 30
0.0
  3
*D35
  1

  0
LINE
  5
25F
  8
Éíû@É³
 62
     0
 10
739.88360474379976
 20
-178.1670005853999
 30
0.0
 11
708.88003021765815
 21
-178.1670005853999
 31
0.0
  0
LINE
  5
260
  8
Éíû@É³
 62
     0
 10
669.44610474379976
 20
-107.7295005854
 30
0.0
 11
669.44610474379976
 21
-138.73307511154169
 31
0.0
  0
ARC
  5
261
  8
Éíû@É³
 62
     0
 10
669.44610474379976
 20
-178.16700058539999
 30
0.0
 40
40.683925473858203
 50
8.4575660260935397
 51
32.942280311529281
  0
ARC
  5
262
  8
Éíû@É³
 62
     0
 10
669.44610474379976
 20
-178.16700058539999
 30
0.0
 40
40.683925473858203
 50
59.04027042861901
 51
81.542433973906526
  0
SOLID
  5
263
  8
Éíû@É³
 62
     0
 10
710.68487259452093
 20
-172.10959603090311
 30
0.0
 11
708.69031747539429
 21
-172.25707442513669
 31
0.0
 12
710.13003021765803
 22
-178.16700058539979
 32
0.0
 13
710.13003021765803
 23
-178.16700058539979
 33
0.0
  0
SOLID
  5
264
  8
Éíû@É³
 62
     0
 10
675.35603090406312
 20
-138.92278785380549
 30
0.0
 11
675.50350929829654
 21
-136.9282327346788
 31
0.0
 12
669.44610474379976
 22
-137.48307511154169
 32
0.0
 13
669.44610474379976
 23
-137.48307511154169
 33
0.0
  0
TEXT
  8
Éíû@É³
  40
5.99722
  5
27D
  62
0
  72
0
  71
0
 10
685.718
 20
-159.521
 30
0.000000
  1
90üï
  0
POINT
  5
266
  8
Defpoints
 62
     0
 10
669.44610474379976
 20
-178.16700058539999
 30
0.0
  0
POINT
  5
267
  8
Defpoints
 62
     0
 10
739.94610474379976
 20
-178.1670005853999
 30
0.0
  0
POINT
  5
268
  8
Defpoints
 62
     0
 10
669.44610474379976
 20
-107.6670005853999
 30
0.0
  0
POINT
  5
269
  8
Defpoints
 62
     0
 10
704.67941772983386
 20
-157.8250378484708
 30
0.0
  0
ENDBLK
  5
26B
  8
0
  0
BLOCK
  8
0
  2
*U36
 70
     1
 10
0.0
 20
0.0
 30
0.0
  3
*U36
  1

  0
TEXT
  5
26D
  8
┌▓È_1
  6
CONTINUOUS
 10
887.47686880189985
 20
-406.34596036292743
 30
0.0
 40
8.6359998702999992
  1
èöÄ«ë´Äð
  0
ENDBLK
  5
26F
  8
0
  0
BLOCK
  8
0
  2
*U37
 70
     1
 10
0.0
 20
0.0
 30
0.0
  3
*U37
  1

  0
TEXT
  5
271
  8
┌▓È_1
  6
CONTINUOUS
 10
937.96653297490002
 20
-383.16445709457003
 30
0.0
 40
4.6749999999999989
  1
ü@Ä┌ ü@ôx
  0
ENDBLK
  5
273
  8
0
  0
BLOCK
  8
0
  2
*U38
 70
     1
 10
0.0
 20
0.0
 30
0.0
  3
*U38
  1

  0
TEXT
  5
275
  8
┌▓È_1
  6
CONTINUOUS
 10
969.96653297490002
 20
-366.18818805903709
 30
0.0
 40
4.6749999999999989
  1
ü@îƒ ü@ê¾
  0
ENDBLK
  5
277
  8
0
  0
BLOCK
  8
0
  2
*U39
 70
     1
 10
0.0
 20
0.0
 30
0.0
  3
*U39
  1

  0
TEXT
  5
279
  8
┌▓È_1
  6
CONTINUOUS
 10
873.03576135240007
 20
-356.99869202965789
 30
0.0
 40
7.1966662884000003
  1
ò\û╩ÅêùØüFâåâjâNâìâüâbâLÄdÅÒé░
  0
ENDBLK
  5
27B
  8
0
  0
ENDSEC
  0
SECTION
  2
ENTITIES
  0
DIMENSION
  5
3E
  8
Éíû@É³
  2
*D0
 10
739.94610474379988
 20
-259.30508652290001
 30
0.0
 11
734.44610474379999
 21
-259.30508652290001
 31
0.0
 70
   128
  1
<>
 13
739.94610474379988
 23
-279.30508652290001
 33
0.0
 14
728.94610474379999
 24
-280.30508652290001
 34
0.0
  0
DIMENSION
  5
4D
  8
Éíû@É³
  2
*D1
 10
644.94610474379988
 20
-107.6670005854
 30
0.0
 11
644.94610474379988
 21
-145.16700058539999
 31
0.0
 70
   128
  1
<>
 13
664.94610474379988
 23
-107.6670005854
 33
0.0
 14
669.94610474379988
 24
-182.66700058539999
 34
0.0
 50
90.0
  0
DIMENSION
  5
5C
  8
Éíû@É³
  2
*D2
 10
664.94610474379988
 20
-202.66700058539999
 30
0.0
 11
702.44610474379988
 21
-202.66700058539999
 31
0.0
 70
   128
  1
<>
 13
664.94610474379988
 23
-177.66700058539999
 33
0.0
 14
739.94610474379988
 24
-182.66700058539999
 34
0.0
 50
180.0
  0
DIMENSION
  5
6B
  8
Éíû@É³
  2
*D3
 10
1011.7141802647
 20
-176.12221933539999
 30
0.0
 11
999.21418026469985
 21
-176.12221933539999
 31
0.0
 70
   128
  1
%%c5
 13
1011.7141802647
 23
-207.3140708979
 33
0.0
 14
986.71418026469985
 24
-207.3140708979
 34
0.0
  0
DIMENSION
  5
7A
  8
Éíû@É³
  2
*D4
 10
1020.4641802647
 20
-155.74103443960001
 30
0.0
 11
999.21418026469985
 21
-155.74103443960001
 31
0.0
 70
   128
  1
%%c8.5
 13
1020.4641802647
 23
-198.5640708979
 33
0.0
 14
977.96418026469985
 24
-198.5640708979
 34
0.0
  0
DIMENSION
  5
89
  8
Éíû@É³
  2
*D5
 10
866.25157349380015
 20
-72.791609960399995
 30
0.0
 11
858.25157349380015
 21
-72.791609960399995
 31
0.0
 70
   128
  1
<>
 13
866.25157349380015
 23
-107.6670005854
 33
0.0
 14
850.25157349380004
 24
-107.6670005854
 34
0.0
  0
DIMENSION
  5
98
  8
Éíû@É³
  2
*D6
 10
830.25157349379992
 20
-107.6670005854
 30
0.0
 11
830.25157349379992
 21
-113.1670005854
 31
0.0
 70
   128
  1
<>
 13
850.25157349380004
 23
-107.6670005854
 33
0.0
 14
851.25157349380004
 24
-118.6670005854
 34
0.0
 50
90.0
  0
DIMENSION
  5
A7
  8
Éíû@É³
  2
*D7
 10
830.25157349379992
 20
-158.66700058539999
 30
0.0
 11
830.25157349379992
 21
-170.66700058539999
 31
0.0
 70
   128
  1
<>
 13
851.25157349380004
 23
-158.66700058539999
 33
0.0
 14
850.25157349380004
 24
-182.66700058539999
 34
0.0
 50
90.0
  0
DIMENSION
  5
B6
  8
Éíû@É³
  2
*D8
 10
830.25157349379992
 20
-118.6670005854
 30
0.0
 11
830.25157349379992
 21
-138.66700058539999
 31
0.0
 70
   128
  1
<>
 13
851.25157349380004
 23
-118.6670005854
 33
0.0
 14
851.25157349380004
 24
-158.66700058539999
 34
0.0
 50
90.0
  0
INSERT
  5
B8
  8
0
  6
CONTINUOUS
  2
*U19
 10
0.0
 20
0.0
 30
0.0
  0
LINE
  5
B9
  8
┌▓È_1
 10
973.26403240590002
 20
-246.85128020779999
 30
0.0
 11
1027.8737668532001
 21
-246.85128020779999
 31
0.0
  0
DIMENSION
  5
C7
  8
Éíû@É³
  2
*D20
 10
1021.2937023910659
 20
-137.4121725149551
 30
0.0
 11
999.21418026469985
 21
-134.50534828150001
 31
0.0
 70
   133
  1
<>
 13
977.43385017880007
 23
-198.03374081199999
 33
0.0
 14
1020.9945103505
 24
-198.03374081199999
 34
0.0
 15
999.21418026469985
 25
-219.8140708979
 35
0.0
1001
ACAD
1000
DSTYLE
1002
{
1070
   271
1070
     0
1002
}
  0
DIMENSION
  5
D7
  8
Éíû@É³
  2
*D10
 10
644.94610474379988
 20
-279.30508652290001
 30
0.0
 11
644.94610474379988
 21
-287.30508652290001
 31
0.0
 70
   128
  1
<>
 13
664.94610474379988
 23
-279.30508652290001
 33
0.0
 14
664.94610474379988
 24
-295.30508652290001
 34
0.0
 50
90.0
  0
DIMENSION
  5
E6
  8
Éíû@É³
  2
*D11
 10
764.80632001619995
 20
-287.30508652290001
 30
0.0
 11
764.80632001619995
 21
-268.8917240248
 31
0.0
 70
   128
  1
<>
 13
735.94610474379988
 23
-287.30508652290001
 33
0.0
 14
739.94610474379988
 24
-279.30508652290001
 34
0.0
 50
90.0
  0
DIMENSION
  5
F5
  8
Éíû@É³
  2
*D12
 10
764.80632001619995
 20
-295.30508652290001
 30
0.0
 11
764.80632001619995
 21
-305.8250195745
 31
0.0
 70
   128
  1
<>
 13
739.94610474379988
 23
-295.30508652290001
 33
0.0
 14
735.94610474379988
 24
-287.30508652290001
 34
0.0
 50
90.0
  0
DIMENSION
  5
104
  8
Éíû@É³
  2
*D13
 10
669.44610474379988
 20
-73.543275995599998
 30
0.0
 11
685.21614919529986
 21
-73.543275995599998
 31
0.0
 70
   128
  1
<>t
 13
669.44610474379988
 23
-107.6670005854
 33
0.0
 14
664.94610474379988
 24
-107.6670005854
 34
0.0
  0
DIMENSION
  5
113
  8
Éíû@É³
  2
*D14
 10
866.25157349380015
 20
-87.667000585400004
 30
0.0
 11
877.53630542300004
 21
-87.667000585400004
 31
0.0
 70
   128
  1
<>
 13
866.25157349380015
 23
-107.6670005854
 33
0.0
 14
858.25157349380015
 24
-111.6670005854
 34
0.0
  0
DIMENSION
  5
122
  8
Éíû@É³
  2
*D15
 10
858.25157349380015
 20
-87.667000585400004
 30
0.0
 11
840.53992861149993
 21
-87.667000585400004
 31
0.0
 70
   128
  1
<>
 13
858.25157349380015
 23
-111.6670005854
 33
0.0
 14
850.25157349380004
 24
-107.6670005854
 34
0.0
  0
INSERT
  5
123
  8
0
  6
CONTINUOUS
  2
*U21
 10
0.0
 20
0.0
 30
0.0
  0
LINE
  5
124
  8
┌▓È_1
 62
     5
 10
563.03576135239985
 20
-30.841080635200001
 30
0.0
 11
1113.0357613524
 21
-30.841080635200001
 31
0.0
  0
LINE
  5
125
  8
┌▓È_1
 62
     5
 10
563.03576135239985
 20
-410.84108063519989
 30
0.0
 11
1113.0357613524
 21
-410.84108063519989
 31
0.0
  0
INSERT
  5
126
  8
0
  6
CONTINUOUS
  2
*U22
 10
0.0
 20
0.0
 30
0.0
  0
LINE
  5
127
  8
┌▓È_1
 10
873.03576135240007
 20
-359.8410806352
 30
0.0
 11
1113.0357613524
 21
-359.8410806352
 31
0.0
  0
LINE
  5
128
  8
┌▓È_1
 10
873.03576135240007
 20
-393.84108063519989
 30
0.0
 11
1113.0357613524
 21
-393.84108063519989
 31
0.0
  0
LINE
  5
129
  8
┌▓È_1
 62
     5
 10
563.03576135239985
 20
-410.84108063519989
 30
0.0
 11
563.03576135239985
 21
-30.841080635200001
 31
0.0
  0
LINE
  5
12A
  8
┌▓È_1
 10
909.03576135239996
 20
-368.3410806352
 30
0.0
 11
933.03576135239996
 21
-368.3410806352
 31
0.0
  0
LINE
  5
12B
  8
┌▓È_1
 10
877.03576135239996
 20
-385.3410806352
 30
0.0
 11
933.03576135239996
 21
-385.3410806352
 31
0.0
  0
LINE
  5
12C
  8
┌▓È_1
 10
941.03576135239996
 20
-368.3410806352
 30
0.0
 11
965.03576135240007
 21
-368.3410806352
 31
0.0
  0
LINE
  5
12D
  8
┌▓È_1
 10
941.03576135239996
 20
-385.3410806352
 30
0.0
 11
965.03576135240007
 21
-385.3410806352
 31
0.0
  0
INSERT
  5
12E
  8
0
  6
CONTINUOUS
  2
*U23
 10
0.0
 20
0.0
 30
0.0
  0
INSERT
  5
12F
  8
0
  6
CONTINUOUS
  2
*U24
 10
0.0
 20
0.0
 30
0.0
  0
INSERT
  5
130
  8
0
  6
CONTINUOUS
  2
*U25
 10
0.0
 20
0.0
 30
0.0
  0
INSERT
  5
131
  8
0
  6
CONTINUOUS
  2
*U26
 10
0.0
 20
0.0
 30
0.0
  0
INSERT
  5
132
  8
0
  6
CONTINUOUS
  2
*U27
 10
0.0
 20
0.0
 30
0.0
  0
INSERT
  5
133
  8
0
  6
CONTINUOUS
  2
*U28
 10
0.0
 20
0.0
 30
0.0
  0
INSERT
  5
134
  8
0
  6
CONTINUOUS
  2
*U29
 10
0.0
 20
0.0
 30
0.0
  0
INSERT
  5
135
  8
0
  6
CONTINUOUS
  2
*U30
 10
0.0
 20
0.0
 30
0.0
  0
INSERT
  5
136
  8
0
  6
CONTINUOUS
  2
*U31
 10
0.0
 20
0.0
 30
0.0
  0
INSERT
  5
137
  8
0
  6
CONTINUOUS
  2
*U32
 10
0.0
 20
0.0
 30
0.0
  0
INSERT
  5
138
  8
0
  6
CONTINUOUS
  2
*U33
 10
0.0
 20
0.0
 30
0.0
  0
INSERT
  5
139
  8
0
  6
CONTINUOUS
  2
*U34
 10
0.0
 20
0.0
 30
0.0
  0
DIMENSION
  5
146
  8
Éíû@É³
  2
*D35
 10
704.67941772983386
 20
-157.8250378484708
 30
0.0
 11
697.71199016049991
 21
-148.9057375646
 31
0.0
 70
   133
  1
<>
 13
669.44610474379988
 23
-107.6670005854
 33
0.0
 14
739.94610474379988
 24
-178.16700058539999
 34
0.0
 15
669.44610474379988
 25
-178.16700058539999
 35
0.0
1001
ACAD
1000
DSTYLE
1002
{
1070
   271
1070
     0
1002
}
  0
DIMENSION
  5
155
  8
Éíû@É³
  2
*D17
 10
688.94610474379999
 20
-259.30508652290001
 30
0.0
 11
676.94610474379988
 21
-259.30508652290001
 31
0.0
 70
   128
  1
<>
 13
688.94610474379999
 23
-280.30508652290001
 33
0.0
 14
664.94610474379988
 24
-279.30508652290001
 34
0.0
  0
DIMENSION
  5
164
  8
Éíû@É³
  2
*D18
 10
728.94610474379999
 20
-259.30508652290001
 30
0.0
 11
708.94610474379999
 21
-259.30508652290001
 31
0.0
 70
   128
  1
<>
 13
728.94610474379999
 23
-280.30508652290001
 33
0.0
 14
688.94610474379999
 24
-280.30508652290001
 34
0.0
  0
LINE
  5
165
  8
┌▓È_1
 10
873.03576135240007
 20
-376.8410806352
 30
0.0
 11
969.03576135239996
 21
-376.8410806352
 31
0.0
  0
LINE
  5
166
  8
┌▓È_1
 10
969.03576135239996
 20
-368.3410806352
 30
0.0
 11
1001.0357613524
 21
-368.3410806352
 31
0.0
  0
LINE
  5
167
  8
┌▓È_1
 62
     5
 10
959.2871337813001
 20
-396.58480388819999
 30
0.0
 11
959.2871337813001
 21
-399.46480388819998
 31
0.0
  0
LINE
  5
168
  8
┌▓È_1
 62
     5
 10
955.03016408439987
 20
-396.58480388819999
 30
0.0
 11
948.63016408440012
 21
-396.58480388819999
 31
0.0
  0
LINE
  5
169
  8
┌▓È_1
 62
     5
 10
987.79051294229998
 20
-406.34480388819998
 30
0.0
 11
991.63510601860003
 21
-406.34480388819998
 31
0.0
  0
LINE
  5
16A
  8
┌▓È_1
 62
     5
 10
945.43016408440008
 20
-404.58480388819999
 30
0.0
 11
945.43016408440008
 21
-402.18480388820001
 31
0.0
  0
LINE
  5
16B
  8
┌▓È_1
 62
     5
 10
977.23510601860005
 20
-403.46480388819992
 30
0.0
 11
977.23510601860005
 21
-406.34480388819998
 31
0.0
  0
LINE
  5
16C
  8
┌▓È_1
 62
     5
 10
977.23510601860005
 20
-402.18480388820001
 30
0.0
 11
982.07777268519999
 21
-402.18480388820001
 31
0.0
  0
LINE
  5
16D
  8
┌▓È_1
 62
     5
 10
991.63510601860003
 20
-399.30480388820001
 30
0.0
 11
991.63510601860003
 21
-402.18480388820001
 31
0.0
  0
LINE
  5
16E
  8
┌▓È_1
 62
     5
 10
959.2871337813001
 20
-399.46480388819998
 30
0.0
 11
967.2871337813001
 21
-399.46480388819998
 31
0.0
  0
LINE
  5
16F
  8
┌▓È_1
 62
     5
 10
946.23016408440003
 20
-405.3848038882
 30
0.0
 11
941.43016408439996
 21
-405.3848038882
 31
0.0
  0
LINE
  5
170
  8
┌▓È_1
 62
     5
 10
983.95510601859996
 20
-408.58480388819999
 30
0.0
 11
983.29803935189989
 21
-406.34480388819998
 31
0.0
  0
LINE
  5
171
  8
┌▓È_1
 62
     5
 10
986.96175041560002
 20
-403.46480388819992
 30
0.0
 11
986.59341151490003
 21
-402.18480388820001
 31
0.0
  0
LINE
  5
172
  8
┌▓È_1
 62
     5
 10
941.43016408439996
 20
-405.3848038882
 30
0.0
 11
941.43016408439996
 21
-407.78480388819997
 31
0.0
  0
LINE
  5
173
  8
┌▓È_1
 62
     5
 10
941.43016408439996
 20
-402.18480388820001
 30
0.0
 11
941.1883979859
 21
-402.18480388820001
 31
0.0
  0
LINE
  5
174
  8
┌▓È_1
 62
     5
 10
973.68713378130008
 20
-405.3848038882
 30
0.0
 11
973.68713378130008
 21
-407.78480388819997
 31
0.0
  0
LINE
  5
175
  8
┌▓È_1
 62
     5
 10
991.63510601860003
 20
-403.46480388819992
 30
0.0
 11
991.63510601860003
 21
-406.34480388819998
 31
0.0
  0
LINE
  5
176
  8
┌▓È_1
 62
     5
 10
941.43016408439996
 20
-399.78480388819997
 30
0.0
 11
939.58839798589997
 21
-399.78480388819997
 31
0.0
  0
LINE
  5
177
  8
┌▓È_1
 62
     5
 10
959.2871337813001
 20
-407.78480388819997
 30
0.0
 11
959.2871337813001
 21
-405.3848038882
 31
0.0
  0
LINE
  5
178
  8
┌▓È_1
 62
     5
 10
945.43016408440008
 20
-399.78480388819997
 30
0.0
 11
945.43016408440008
 21
-398.98480388820002
 31
0.0
  0
LINE
  5
179
  8
┌▓È_1
 62
     5
 10
983.95510601859996
 20
-408.58480388819999
 30
0.0
 11
988.43510601859998
 21
-408.58480388819999
 31
0.0
  0
LINE
  5
17A
  8
┌▓È_1
 62
     5
 10
955.03016408439987
 20
-399.78480388819997
 30
0.0
 11
955.03016408439987
 21
-402.18480388820001
 31
0.0
  0
LINE
  5
17B
  8
┌▓È_1
 62
     5
 10
939.58839798589997
 20
-399.78480388819997
 30
0.0
 11
939.58839798589997
 21
-402.18480388820001
 31
0.0
  0
LINE
  5
17C
  8
┌▓È_1
 10
1001.0357613524
 20
-376.8410806352
 30
0.0
 11
1113.0357613524
 21
-376.8410806352
 31
0.0
  0
LINE
  5
17D
  8
┌▓È_1
 62
     5
 10
1113.0357613524
 20
-410.84108063519989
 30
0.0
 11
1113.0357613524
 21
-30.841080635200001
 31
0.0
  0
LINE
  5
17E
  8
┌▓È_1
 10
937.03576135240007
 20
-359.8410806352
 30
0.0
 11
937.03576135240007
 21
-393.84108063519989
 31
0.0
  0
LINE
  5
17F
  8
┌▓È_1
 10
877.03576135239996
 20
-368.3410806352
 30
0.0
 11
901.03576135239996
 21
-368.3410806352
 31
0.0
  0
LINE
  5
180
  8
┌▓È_1
 62
     5
 10
952.63016408440001
 20
-399.78480388819997
 30
0.0
 11
952.63016408440001
 21
-398.98480388820002
 31
0.0
  0
LINE
  5
181
  8
┌▓È_1
 62
     5
 10
955.03016408439987
 20
-399.78480388819997
 30
0.0
 11
952.63016408440001
 21
-399.78480388819997
 31
0.0
  0
LINE
  5
182
  8
┌▓È_1
 62
     5
 10
977.23510601860005
 20
-403.46480388819992
 30
0.0
 11
982.45323935190004
 21
-403.46480388819992
 31
0.0
  0
LINE
  5
183
  8
┌▓È_1
 62
     5
 10
939.58839798589997
 20
-402.18480388820001
 30
0.0
 11
941.1883979859
 21
-402.18480388820001
 31
0.0
  0
ARC
  5
184
  8
┌▓È_1
 62
     5
 10
963.28713378129999
 20
-398.98480388820002
 30
0.0
 40
8.8000000000000007
 50
270.0
 51
302.54495885400001
  0
LINE
  5
185
  8
┌▓È_1
 62
     5
 10
952.63016408440001
 20
-402.18480388820001
 30
0.0
 11
955.03016408439987
 21
-402.18480388820001
 31
0.0
  0
ARC
  5
186
  8
┌▓È_1
 62
     5
 10
961.20713378129994
 20
-399.30480388820001
 30
0.0
 40
6.0800000000000001
 50
331.39928138329998
 51
358.49204224580001
  0
LINE
  5
187
  8
┌▓È_1
 62
     5
 10
959.2871337813001
 20
-407.78480388819997
 30
0.0
 11
963.28713378129999
 21
-407.78480388819997
 31
0.0
  0
LINE
  5
188
  8
┌▓È_1
 62
     5
 10
941.43016408439996
 20
-407.78480388819997
 30
0.0
 11
947.83016408440005
 21
-407.78480388819997
 31
0.0
  0
LINE
  5
189
  8
┌▓È_1
 62
     5
 10
972.08713378130005
 20
-398.98480388820002
 30
0.0
 11
973.68713378130008
 21
-396.58480388819999
 31
0.0
  0
LINE
  5
18A
  8
┌▓È_1
 62
     5
 10
980.43510601859998
 20
-396.58480388819999
 30
0.0
 11
986.83510601859984
 21
-396.58480388819999
 31
0.0
  0
LINE
  5
18B
  8
┌▓È_1
 62
     5
 10
959.2871337813001
 20
-405.3848038882
 30
0.0
 11
961.20713378129994
 21
-405.3848038882
 31
0.0
  0
LINE
  5
18C
  8
┌▓È_1
 62
     5
 10
959.2871337813001
 20
-405.3848038882
 30
0.0
 11
959.2871337813001
 21
-407.78480388819997
 31
0.0
  0
ARC
  5
18D
  8
┌▓È_1
 62
     5
 10
961.20713378129994
 20
-399.30480388820001
 30
0.0
 40
6.0800000000000001
 50
270.0
 51
298.08590481520002
  0
LINE
  5
18E
  8
┌▓È_1
 62
     5
 10
970.26748474469991
 20
-404.34341382259998
 30
0.0
 11
969.98252144899993
 21
-404.62241885330002
 31
0.0
  0
LINE
  5
18F
  8
┌▓È_1
 62
     5
 10
941.43016408439996
 20
-402.18480388820001
 30
0.0
 11
941.43016408439996
 21
-404.58480388819999
 31
0.0
  0
INSERT
  5
190
  8
0
  6
CONTINUOUS
  2
*U36
 10
0.0
 20
0.0
 30
0.0
  0
LINE
  5
191
  8
┌▓È_1
 62
     5
 10
985.76464898819995
 20
-399.30480388820001
 30
0.0
 11
991.63510601860003
 21
-399.30480388820001
 31
0.0
  0
LINE
  5
192
  8
┌▓È_1
 62
     5
 10
981.23297268520002
 20
-399.30480388820001
 30
0.0
 11
980.43510601859998
 21
-396.58480388819999
 31
0.0
  0
LINE
  5
193
  8
┌▓È_1
 62
     5
 10
941.43016408439996
 20
-396.58480388819999
 30
0.0
 11
941.43016408439996
 21
-399.78480388819997
 31
0.0
  0
LINE
  5
194
  8
┌▓È_1
 62
     5
 10
945.43016408440008
 20
-398.98480388820002
 30
0.0
 11
947.83016408440005
 21
-396.58480388819999
 31
0.0
  0
INSERT
  5
195
  8
0
  6
CONTINUOUS
  2
*U37
 10
0.0
 20
0.0
 30
0.0
  0
INSERT
  5
196
  8
0
  6
CONTINUOUS
  2
*U38
 10
0.0
 20
0.0
 30
0.0
  0
LINE
  5
197
  8
┌▓È_1
 10
1001.0357613524
 20
-359.8410806352
 30
0.0
 11
1001.0357613524
 21
-410.84108063519989
 31
0.0
  0
LINE
  5
198
  8
┌▓È_1
 10
905.03576135240007
 20
-359.8410806352
 30
0.0
 11
905.03576135240007
 21
-376.8410806352
 31
0.0
  0
LINE
  5
199
  8
┌▓È_1
 62
     5
 10
947.83016408440005
 20
-396.58480388819999
 30
0.0
 11
941.43016408439996
 21
-396.58480388819999
 31
0.0
  0
LINE
  5
19A
  8
┌▓È_1
 62
     5
 10
948.63016408440012
 20
-399.78480388819997
 30
0.0
 11
945.43016408440008
 21
-399.78480388819997
 31
0.0
  0
LINE
  5
19B
  8
┌▓È_1
 62
     5
 10
985.53041818789995
 20
-398.49083766349997
 30
0.0
 11
986.83510601859984
 21
-396.58480388819999
 31
0.0
  0
ARC
  5
19C
  8
┌▓È_1
 62
     5
 10
947.83016408440005
 20
-402.98480388820002
 30
0.0
 40
4.7999999999999989
 50
270.0
 51
0.0
  0
LINE
  5
19D
  8
┌▓È_1
 10
969.03576135239996
 20
-359.8410806352
 30
0.0
 11
969.03576135239996
 21
-393.84108063519989
 31
0.0
  0
LINE
  5
19E
  8
┌▓È_1
 62
     5
 10
977.23510601860005
 20
-399.30480388820001
 30
0.0
 11
977.23510601860005
 21
-402.18480388820001
 31
0.0
  0
LINE
  5
19F
  8
┌▓È_1
 62
     5
 10
952.63016408440001
 20
-402.98480388820002
 30
0.0
 11
952.63016408440001
 21
-402.18480388820001
 31
0.0
  0
LINE
  5
1A0
  8
┌▓È_1
 62
     5
 10
959.2871337813001
 20
-400.3001803162
 30
0.0
 11
965.68713378130008
 21
-400.3001803162
 31
0.0
  0
LINE
  5
1A1
  8
┌▓È_1
 62
     5
 10
966.54523376799989
 20
-402.21531733639989
 30
0.0
 11
966.16028047789985
 21
-402.64049871330002
 31
0.0
  0
ARC
  5
1A2
  8
┌▓È_1
 62
     5
 10
946.23016408440003
 20
-402.98480388820002
 30
0.0
 40
2.399999999999999
 50
270.0
 51
0.0
  0
LINE
  5
1A3
  8
┌▓È_1
 62
     5
 10
948.63016408440012
 20
-396.58480388819999
 30
0.0
 11
948.63016408440012
 21
-399.78480388819997
 31
0.0
  0
LINE
  5
1A4
  8
┌▓È_1
 62
     5
 10
986.59341151490003
 20
-402.18480388820001
 30
0.0
 11
991.63510601860003
 21
-402.18480388820001
 31
0.0
  0
LINE
  5
1A5
  8
┌▓È_1
 62
     5
 10
972.08713378130005
 20
-398.98480388820002
 30
0.0
 11
973.68713378130008
 21
-396.58480388819999
 31
0.0
  0
LINE
  5
1A6
  8
┌▓È_1
 62
     5
 10
982.45323935190004
 20
-403.46480388819992
 30
0.0
 11
982.07777268519999
 21
-402.18480388820001
 31
0.0
  0
LINE
  5
1A7
  8
┌▓È_1
 62
     5
 10
952.63016408440001
 20
-398.98480388820002
 30
0.0
 11
955.03016408439987
 21
-396.58480388819999
 31
0.0
  0
LINE
  5
1A8
  8
┌▓È_1
 62
     5
 10
941.43016408439996
 20
-404.58480388819999
 30
0.0
 11
945.43016408440008
 21
-404.58480388819999
 31
0.0
  0
LINE
  5
1A9
  8
┌▓È_1
 62
     5
 10
973.68713378130008
 20
-396.58480388819999
 30
0.0
 11
959.2871337813001
 21
-396.58480388819999
 31
0.0
  0
LINE
  5
1AA
  8
┌▓È_1
 62
     5
 10
985.76464898819995
 20
-399.30480388820001
 30
0.0
 11
985.53041818789995
 21
-398.49083766349997
 31
0.0
  0
LINE
  5
1AB
  8
┌▓È_1
 62
     5
 10
977.23510601860005
 20
-406.34480388819998
 30
0.0
 11
983.29803935189989
 21
-406.34480388819998
 31
0.0
  0
ARC
  5
1AC
  8
┌▓È_1
 62
     5
 10
963.28713378129999
 20
-398.98480388820002
 30
0.0
 40
8.8000000000000007
 50
322.48761197969998
 51
0.0
  0
LINE
  5
1AD
  8
┌▓È_1
 62
     5
 10
986.96175041560002
 20
-403.46480388819992
 30
0.0
 11
991.63510601860003
 21
-403.46480388819992
 31
0.0
  0
LINE
  5
1AE
  8
┌▓È_1
 62
     5
 10
959.2871337813001
 20
-400.81555674409998
 30
0.0
 11
959.2871337813001
 21
-400.3001803162
 31
0.0
  0
LINE
  5
1AF
  8
┌▓È_1
 62
     5
 10
965.68713378130008
 20
-400.3001803162
 30
0.0
 11
964.78203710139985
 21
-401.2052769961
 31
0.0
  0
LINE
  5
1B0
  8
┌▓È_1
  6
STITCH
 10
726.44610474379999
 20
-180.66700058539999
 30
0.0
 11
726.44610474379999
 21
-183.16700058539999
 31
0.0
  0
LINE
  5
1B1
  8
┌▓È_1
  6
STITCH
 10
686.44610474379988
 20
-180.66700058539999
 30
0.0
 11
686.44610474379988
 21
-183.16700058539999
 31
0.0
  0
LINE
  5
1B2
  8
┌▓È_1
  6
STITCH
 10
691.44610474379999
 20
-180.66700058539999
 30
0.0
 11
686.44610474379988
 21
-180.66700058539999
 31
0.0
  0
LINE
  5
1B3
  8
┌▓È_1
  6
STITCH
 10
691.44610474379999
 20
-180.66700058539999
 30
0.0
 11
691.44610474379999
 21
-183.16700058539999
 31
0.0
  0
LINE
  5
1B4
  8
┌▓È_1
  6
STITCH
 10
691.44610474379999
 20
-180.66700058539999
 30
0.0
 11
693.94610474379988
 21
-178.16700058539999
 31
0.0
  0
LINE
  5
1B5
  8
┌▓È_1
  6
STITCH
 10
683.94610474379999
 20
-178.16700058539999
 30
0.0
 11
686.44610474379988
 21
-180.66700058539999
 31
0.0
  0
LINE
  5
1B6
  8
┌▓È_1
 62
     5
 10
850.25157349380004
 20
-107.6670005854
 30
0.0
 11
850.25157349380004
 21
-182.66700058539999
 31
0.0
  0
LINE
  5
1B7
  8
┌▓È_1
 62
     5
 10
866.25157349380015
 20
-107.6670005854
 30
0.0
 11
850.25157349380004
 21
-107.6670005854
 31
0.0
  0
LINE
  5
1B8
  8
┌▓È_1
 62
     5
 10
850.25157349380004
 20
-182.66700058539999
 30
0.0
 11
866.25157349380015
 21
-182.66700058539999
 31
0.0
  0
LINE
  5
1B9
  8
┌▓È_1
 62
     5
 10
850.25157349380004
 20
-177.66700058539999
 30
0.0
 11
866.25157349380015
 21
-177.66700058539999
 31
0.0
  0
LINE
  5
1BA
  8
┌▓È_1
 62
     5
 10
739.94610474379988
 20
-279.30508652290001
 30
0.0
 11
664.94610474379988
 21
-279.30508652290001
 31
0.0
  0
LINE
  5
1BB
  8
┌▓È_1
  6
BORDER
 62
     3
 10
681.94610474379988
 20
-287.30508652290001
 30
0.0
 11
695.94610474379999
 21
-287.30508652290001
 31
0.0
  0
LINE
  5
1BC
  8
┌▓È_1
  6
BORDER
 62
     3
 10
728.94610474379999
 20
-280.30508652290001
 30
0.0
 11
728.94610474379999
 21
-294.30508652290001
 31
0.0
  0
LINE
  5
1BD
  8
┌▓È_1
  6
BORDER
 62
     3
 10
721.94610474379999
 20
-287.30508652290001
 30
0.0
 11
735.94610474379988
 21
-287.30508652290001
 31
0.0
  0
LINE
  5
1BE
  8
┌▓È_1
 62
     5
 10
664.94610474379988
 20
-279.30508652290001
 30
0.0
 11
664.94610474379988
 21
-295.30508652290001
 31
0.0
  0
POLYLINE
  8
┌▓È_1
  5
27E
  62
5
  66
     1
 10
0.000000
 20
0.000000
 30
0.000000
  70
     8
  0
VERTEX
  8
┌▓È_1
  5
27F
 10
964.782
 20
-401.205
 30
0.000000
  70
    32
  0
VERTEX
  8
┌▓È_1
  5
280
 10
964.793
 20
-401.217
 30
0.000000
  70
    32
  0
VERTEX
  8
┌▓È_1
  5
281
 10
964.803
 20
-401.229
 30
0.000000
  70
    32
  0
VERTEX
  8
┌▓È_1
  5
282
 10
964.814
 20
-401.241
 30
0.000000
  70
    32
  0
VERTEX
  8
┌▓È_1
  5
283
 10
964.824
 20
-401.252
 30
0.000000
  70
    32
  0
VERTEX
  8
┌▓È_1
  5
284
 10
964.835
 20
-401.264
 30
0.000000
  70
    32
  0
VERTEX
  8
┌▓È_1
  5
285
 10
964.845
 20
-401.276
 30
0.000000
  70
    32
  0
VERTEX
  8
┌▓È_1
  5
286
 10
964.856
 20
-401.288
 30
0.000000
  70
    32
  0
VERTEX
  8
┌▓È_1
  5
287
 10
964.867
 20
-401.299
 30
0.000000
  70
    32
  0
VERTEX
  8
┌▓È_1
  5
288
 10
964.877
 20
-401.311
 30
0.000000
  70
    32
  0
VERTEX
  8
┌▓È_1
  5
289
 10
964.888
 20
-401.323
 30
0.000000
  70
    32
  0
VERTEX
  8
┌▓È_1
  5
28A
 10
964.898
 20
-401.335
 30
0.000000
  70
    32
  0
VERTEX
  8
┌▓È_1
  5
28B
 10
964.909
 20
-401.347
 30
0.000000
  70
    32
  0
VERTEX
  8
┌▓È_1
  5
28C
 10
964.919
 20
-401.358
 30
0.000000
  70
    32
  0
VERTEX
  8
┌▓È_1
  5
28D
 10
964.930
 20
-401.370
 30
0.000000
  70
    32
  0
VERTEX
  8
┌▓È_1
  5
28E
 10
964.940
 20
-401.382
 30
0.000000
  70
    32
  0
VERTEX
  8
┌▓È_1
  5
28F
 10
964.951
 20
-401.394
 30
0.000000
  70
    32
  0
VERTEX
  8
┌▓È_1
  5
290
 10
964.962
 20
-401.405
 30
0.000000
  70
    32
  0
VERTEX
  8
┌▓È_1
  5
291
 10
964.972
 20
-401.417
 30
0.000000
  70
    32
  0
VERTEX
  8
┌▓È_1
  5
292
 10
964.983
 20
-401.429
 30
0.000000
  70
    32
  0
VERTEX
  8
┌▓È_1
  5
293
 10
964.993
 20
-401.441
 30
0.000000
  70
    32
  0
VERTEX
  8
┌▓È_1
  5
294
 10
965.004
 20
-401.452
 30
0.000000
  70
    32
  0
VERTEX
  8
┌▓È_1
  5
295
 10
965.015
 20
-401.464
 30
0.000000
  70
    32
  0
VERTEX
  8
┌▓È_1
  5
296
 10
965.025
 20
-401.476
 30
0.000000
  70
    32
  0
VERTEX
  8
┌▓È_1
  5
297
 10
965.036
 20
-401.487
 30
0.000000
  70
    32
  0
VERTEX
  8
┌▓È_1
  5
298
 10
965.046
 20
-401.499
 30
0.000000
  70
    32
  0
VERTEX
  8
┌▓È_1
  5
299
 10
965.057
 20
-401.511
 30
0.000000
  70
    32
  0
VERTEX
  8
┌▓È_1
  5
29A
 10
965.067
 20
-401.523
 30
0.000000
  70
    32
  0
VERTEX
  8
┌▓È_1
  5
29B
 10
965.078
 20
-401.534
 30
0.000000
  70
    32
  0
VERTEX
  8
┌▓È_1
  5
29C
 10
965.089
 20
-401.546
 30
0.000000
  70
    32
  0
VERTEX
  8
┌▓È_1
  5
29D
 10
965.099
 20
-401.558
 30
0.000000
  70
    32
  0
VERTEX
  8
┌▓È_1
  5
29E
 10
965.110
 20
-401.569
 30
0.000000
  70
    32
  0
VERTEX
  8
┌▓È_1
  5
29F
 10
965.121
 20
-401.581
 30
0.000000
  70
    32
  0
VERTEX
  8
┌▓È_1
  5
2A0
 10
965.131
 20
-401.593
 30
0.000000
  70
    32
  0
VERTEX
  8
┌▓È_1
  5
2A1
 10
965.142
 20
-401.604
 30
0.000000
  70
    32
  0
VERTEX
  8
┌▓È_1
  5
2A2
 10
965.152
 20
-401.616
 30
0.000000
  70
    32
  0
VERTEX
  8
┌▓È_1
  5
2A3
 10
965.163
 20
-401.628
 30
0.000000
  70
    32
  0
VERTEX
  8
┌▓È_1
  5
2A4
 10
965.174
 20
-401.639
 30
0.000000
  70
    32
  0
VERTEX
  8
┌▓È_1
  5
2A5
 10
965.184
 20
-401.651
 30
0.000000
  70
    32
  0
VERTEX
  8
┌▓È_1
  5
2A6
 10
965.195
 20
-401.663
 30
0.000000
  70
    32
  0
VERTEX
  8
┌▓È_1
  5
2A7
 10
965.206
 20
-401.674
 30
0.000000
  70
    32
  0
VERTEX
  8
┌▓È_1
  5
2A8
 10
965.216
 20
-401.686
 30
0.000000
  70
    32
  0
VERTEX
  8
┌▓È_1
  5
2A9
 10
965.227
 20
-401.698
 30
0.000000
  70
    32
  0
VERTEX
  8
┌▓È_1
  5
2AA
 10
965.238
 20
-401.709
 30
0.000000
  70
    32
  0
VERTEX
  8
┌▓È_1
  5
2AB
 10
965.248
 20
-401.721
 30
0.000000
  70
    32
  0
VERTEX
  8
┌▓È_1
  5
2AC
 10
965.259
 20
-401.732
 30
0.000000
  70
    32
  0
VERTEX
  8
┌▓È_1
  5
2AD
 10
965.270
 20
-401.744
 30
0.000000
  70
    32
  0
VERTEX
  8
┌▓È_1
  5
2AE
 10
965.280
 20
-401.756
 30
0.000000
  70
    32
  0
VERTEX
  8
┌▓È_1
  5
2AF
 10
965.291
 20
-401.767
 30
0.000000
  70
    32
  0
VERTEX
  8
┌▓È_1
  5
2B0
 10
965.302
 20
-401.779
 30
0.000000
  70
    32
  0
VERTEX
  8
┌▓È_1
  5
2B1
 10
965.312
 20
-401.790
 30
0.000000
  70
    32
  0
VERTEX
  8
┌▓È_1
  5
2B2
 10
965.323
 20
-401.802
 30
0.000000
  70
    32
  0
VERTEX
  8
┌▓È_1
  5
2B3
 10
965.334
 20
-401.813
 30
0.000000
  70
    32
  0
VERTEX
  8
┌▓È_1
  5
2B4
 10
965.344
 20
-401.825
 30
0.000000
  70
    32
  0
VERTEX
  8
┌▓È_1
  5
2B5
 10
965.355
 20
-401.836
 30
0.000000
  70
    32
  0
VERTEX
  8
┌▓È_1
  5
2B6
 10
965.366
 20
-401.848
 30
0.000000
  70
    32
  0
VERTEX
  8
┌▓È_1
  5
2B7
 10
965.377
 20
-401.859
 30
0.000000
  70
    32
  0
VERTEX
  8
┌▓È_1
  5
2B8
 10
965.387
 20
-401.871
 30
0.000000
  70
    32
  0
VERTEX
  8
┌▓È_1
  5
2B9
 10
965.398
 20
-401.882
 30
0.000000
  70
    32
  0
VERTEX
  8
┌▓È_1
  5
2BA
 10
965.409
 20
-401.894
 30
0.000000
  70
    32
  0
VERTEX
  8
┌▓È_1
  5
2BB
 10
965.420
 20
-401.905
 30
0.000000
  70
    32
  0
VERTEX
  8
┌▓È_1
  5
2BC
 10
965.430
 20
-401.917
 30
0.000000
  70
    32
  0
VERTEX
  8
┌▓È_1
  5
2BD
 10
965.441
 20
-401.928
 30
0.000000
  70
    32
  0
VERTEX
  8
┌▓È_1
  5
2BE
 10
965.452
 20
-401.940
 30
0.000000
  70
    32
  0
VERTEX
  8
┌▓È_1
  5
2BF
 10
965.463
 20
-401.951
 30
0.000000
  70
    32
  0
VERTEX
  8
┌▓È_1
  5
2C0
 10
965.473
 20
-401.962
 30
0.000000
  70
    32
  0
VERTEX
  8
┌▓È_1
  5
2C1
 10
965.484
 20
-401.974
 30
0.000000
  70
    32
  0
VERTEX
  8
┌▓È_1
  5
2C2
 10
965.495
 20
-401.985
 30
0.000000
  70
    32
  0
VERTEX
  8
┌▓È_1
  5
2C3
 10
965.506
 20
-401.997
 30
0.000000
  70
    32
  0
VERTEX
  8
┌▓È_1
  5
2C4
 10
965.517
 20
-402.008
 30
0.000000
  70
    32
  0
VERTEX
  8
┌▓È_1
  5
2C5
 10
965.527
 20
-402.019
 30
0.000000
  70
    32
  0
VERTEX
  8
┌▓È_1
  5
2C6
 10
965.538
 20
-402.031
 30
0.000000
  70
    32
  0
VERTEX
  8
┌▓È_1
  5
2C7
 10
965.549
 20
-402.042
 30
0.000000
  70
    32
  0
VERTEX
  8
┌▓È_1
  5
2C8
 10
965.560
 20
-402.053
 30
0.000000
  70
    32
  0
VERTEX
  8
┌▓È_1
  5
2C9
 10
965.571
 20
-402.065
 30
0.000000
  70
    32
  0
VERTEX
  8
┌▓È_1
  5
2CA
 10
965.582
 20
-402.076
 30
0.000000
  70
    32
  0
VERTEX
  8
┌▓È_1
  5
2CB
 10
965.593
 20
-402.087
 30
0.000000
  70
    32
  0
VERTEX
  8
┌▓È_1
  5
2CC
 10
965.603
 20
-402.098
 30
0.000000
  70
    32
  0
VERTEX
  8
┌▓È_1
  5
2CD
 10
965.614
 20
-402.110
 30
0.000000
  70
    32
  0
VERTEX
  8
┌▓È_1
  5
2CE
 10
965.625
 20
-402.121
 30
0.000000
  70
    32
  0
VERTEX
  8
┌▓È_1
  5
2CF
 10
965.636
 20
-402.132
 30
0.000000
  70
    32
  0
VERTEX
  8
┌▓È_1
  5
2D0
 10
965.647
 20
-402.143
 30
0.000000
  70
    32
  0
VERTEX
  8
┌▓È_1
  5
2D1
 10
965.658
 20
-402.155
 30
0.000000
  70
    32
  0
VERTEX
  8
┌▓È_1
  5
2D2
 10
965.669
 20
-402.166
 30
0.000000
  70
    32
  0
VERTEX
  8
┌▓È_1
  5
2D3
 10
965.680
 20
-402.177
 30
0.000000
  70
    32
  0
VERTEX
  8
┌▓È_1
  5
2D4
 10
965.691
 20
-402.188
 30
0.000000
  70
    32
  0
VERTEX
  8
┌▓È_1
  5
2D5
 10
965.702
 20
-402.199
 30
0.000000
  70
    32
  0
VERTEX
  8
┌▓È_1
  5
2D6
 10
965.713
 20
-402.210
 30
0.000000
  70
    32
  0
VERTEX
  8
┌▓È_1
  5
2D7
 10
965.724
 20
-402.221
 30
0.000000
  70
    32
  0
VERTEX
  8
┌▓È_1
  5
2D8
 10
965.735
 20
-402.232
 30
0.000000
  70
    32
  0
VERTEX
  8
┌▓È_1
  5
2D9
 10
965.746
 20
-402.244
 30
0.000000
  70
    32
  0
VERTEX
  8
┌▓È_1
  5
2DA
 10
965.757
 20
-402.255
 30
0.000000
  70
    32
  0
VERTEX
  8
┌▓È_1
  5
2DB
 10
965.768
 20
-402.266
 30
0.000000
  70
    32
  0
VERTEX
  8
┌▓È_1
  5
2DC
 10
965.779
 20
-402.277
 30
0.000000
  70
    32
  0
VERTEX
  8
┌▓È_1
  5
2DD
 10
965.790
 20
-402.288
 30
0.000000
  70
    32
  0
VERTEX
  8
┌▓È_1
  5
2DE
 10
965.801
 20
-402.299
 30
0.000000
  70
    32
  0
VERTEX
  8
┌▓È_1
  5
2DF
 10
965.812
 20
-402.310
 30
0.000000
  70
    32
  0
VERTEX
  8
┌▓È_1
  5
2E0
 10
965.823
 20
-402.321
 30
0.000000
  70
    32
  0
VERTEX
  8
┌▓È_1
  5
2E1
 10
965.834
 20
-402.331
 30
0.000000
  70
    32
  0
VERTEX
  8
┌▓È_1
  5
2E2
 10
965.845
 20
-402.342
 30
0.000000
  70
    32
  0
VERTEX
  8
┌▓È_1
  5
2E3
 10
965.856
 20
-402.353
 30
0.000000
  70
    32
  0
VERTEX
  8
┌▓È_1
  5
2E4
 10
965.867
 20
-402.364
 30
0.000000
  70
    32
  0
VERTEX
  8
┌▓È_1
  5
2E5
 10
965.878
 20
-402.375
 30
0.000000
  70
    32
  0
VERTEX
  8
┌▓È_1
  5
2E6
 10
965.889
 20
-402.386
 30
0.000000
  70
    32
  0
VERTEX
  8
┌▓È_1
  5
2E7
 10
965.901
 20
-402.397
 30
0.000000
  70
    32
  0
VERTEX
  8
┌▓È_1
  5
2E8
 10
965.912
 20
-402.408
 30
0.000000
  70
    32
  0
VERTEX
  8
┌▓È_1
  5
2E9
 10
965.923
 20
-402.418
 30
0.000000
  70
    32
  0
VERTEX
  8
┌▓È_1
  5
2EA
 10
965.934
 20
-402.429
 30
0.000000
  70
    32
  0
VERTEX
  8
┌▓È_1
  5
2EB
 10
965.945
 20
-402.440
 30
0.000000
  70
    32
  0
VERTEX
  8
┌▓È_1
  5
2EC
 10
965.957
 20
-402.451
 30
0.000000
  70
    32
  0
VERTEX
  8
┌▓È_1
  5
2ED
 10
965.968
 20
-402.461
 30
0.000000
  70
    32
  0
VERTEX
  8
┌▓È_1
  5
2EE
 10
965.979
 20
-402.472
 30
0.000000
  70
    32
  0
VERTEX
  8
┌▓È_1
  5
2EF
 10
965.990
 20
-402.483
 30
0.000000
  70
    32
  0
VERTEX
  8
┌▓È_1
  5
2F0
 10
966.001
 20
-402.493
 30
0.000000
  70
    32
  0
VERTEX
  8
┌▓È_1
  5
2F1
 10
966.013
 20
-402.504
 30
0.000000
  70
    32
  0
VERTEX
  8
┌▓È_1
  5
2F2
 10
966.024
 20
-402.515
 30
0.000000
  70
    32
  0
VERTEX
  8
┌▓È_1
  5
2F3
 10
966.035
 20
-402.525
 30
0.000000
  70
    32
  0
VERTEX
  8
┌▓È_1
  5
2F4
 10
966.047
 20
-402.536
 30
0.000000
  70
    32
  0
VERTEX
  8
┌▓È_1
  5
2F5
 10
966.058
 20
-402.546
 30
0.000000
  70
    32
  0
VERTEX
  8
┌▓È_1
  5
2F6
 10
966.069
 20
-402.557
 30
0.000000
  70
    32
  0
VERTEX
  8
┌▓È_1
  5
2F7
 10
966.081
 20
-402.567
 30
0.000000
  70
    32
  0
VERTEX
  8
┌▓È_1
  5
2F8
 10
966.092
 20
-402.578
 30
0.000000
  70
    32
  0
VERTEX
  8
┌▓È_1
  5
2F9
 10
966.103
 20
-402.588
 30
0.000000
  70
    32
  0
VERTEX
  8
┌▓È_1
  5
2FA
 10
966.115
 20
-402.599
 30
0.000000
  70
    32
  0
VERTEX
  8
┌▓È_1
  5
2FB
 10
966.126
 20
-402.609
 30
0.000000
  70
    32
  0
VERTEX
  8
┌▓È_1
  5
2FC
 10
966.137
 20
-402.620
 30
0.000000
  70
    32
  0
VERTEX
  8
┌▓È_1
  5
2FD
 10
966.149
 20
-402.630
 30
0.000000
  70
    32
  0
VERTEX
  8
┌▓È_1
  5
2FE
 10
966.160
 20
-402.640
 30
0.000000
  70
    32
  0
SEQEND
  8
┌▓È_1
  5
2FF
  0
POLYLINE
  8
┌▓È_1
  5
300
  62
5
  66
     1
 10
0.000000
 20
0.000000
 30
0.000000
  70
     8
  0
VERTEX
  8
┌▓È_1
  5
301
 10
968.021
 20
-406.403
 30
0.000000
  70
    32
  0
VERTEX
  8
┌▓È_1
  5
302
 10
968.064
 20
-406.417
 30
0.000000
  70
    32
  0
VERTEX
  8
┌▓È_1
  5
303
 10
968.107
 20
-406.430
 30
0.000000
  70
    32
  0
VERTEX
  8
┌▓È_1
  5
304
 10
968.151
 20
-406.444
 30
0.000000
  70
    32
  0
VERTEX
  8
┌▓È_1
  5
305
 10
968.194
 20
-406.457
 30
0.000000
  70
    32
  0
VERTEX
  8
┌▓È_1
  5
306
 10
968.237
 20
-406.471
 30
0.000000
  70
    32
  0
VERTEX
  8
┌▓È_1
  5
307
 10
968.280
 20
-406.484
 30
0.000000
  70
    32
  0
VERTEX
  8
┌▓È_1
  5
308
 10
968.323
 20
-406.498
 30
0.000000
  70
    32
  0
VERTEX
  8
┌▓È_1
  5
309
 10
968.367
 20
-406.511
 30
0.000000
  70
    32
  0
VERTEX
  8
┌▓È_1
  5
30A
 10
968.410
 20
-406.524
 30
0.000000
  70
    32
  0
VERTEX
  8
┌▓È_1
  5
30B
 10
968.454
 20
-406.537
 30
0.000000
  70
    32
  0
VERTEX
  8
┌▓È_1
  5
30C
 10
968.497
 20
-406.550
 30
0.000000
  70
    32
  0
VERTEX
  8
┌▓È_1
  5
30D
 10
968.540
 20
-406.563
 30
0.000000
  70
    32
  0
VERTEX
  8
┌▓È_1
  5
30E
 10
968.584
 20
-406.576
 30
0.000000
  70
    32
  0
VERTEX
  8
┌▓È_1
  5
30F
 10
968.627
 20
-406.589
 30
0.000000
  70
    32
  0
VERTEX
  8
┌▓È_1
  5
310
 10
968.671
 20
-406.602
 30
0.000000
  70
    32
  0
VERTEX
  8
┌▓È_1
  5
311
 10
968.715
 20
-406.615
 30
0.000000
  70
    32
  0
VERTEX
  8
┌▓È_1
  5
312
 10
968.758
 20
-406.628
 30
0.000000
  70
    32
  0
VERTEX
  8
┌▓È_1
  5
313
 10
968.802
 20
-406.640
 30
0.000000
  70
    32
  0
VERTEX
  8
┌▓È_1
  5
314
 10
968.846
 20
-406.653
 30
0.000000
  70
    32
  0
VERTEX
  8
┌▓È_1
  5
315
 10
968.889
 20
-406.665
 30
0.000000
  70
    32
  0
VERTEX
  8
┌▓È_1
  5
316
 10
968.933
 20
-406.678
 30
0.000000
  70
    32
  0
VERTEX
  8
┌▓È_1
  5
317
 10
968.977
 20
-406.690
 30
0.000000
  70
    32
  0
VERTEX
  8
┌▓È_1
  5
318
 10
969.021
 20
-406.703
 30
0.000000
  70
    32
  0
VERTEX
  8
┌▓È_1
  5
319
 10
969.064
 20
-406.715
 30
0.000000
  70
    32
  0
VERTEX
  8
┌▓È_1
  5
31A
 10
969.108
 20
-406.727
 30
0.000000
  70
    32
  0
VERTEX
  8
┌▓È_1
  5
31B
 10
969.152
 20
-406.739
 30
0.000000
  70
    32
  0
VERTEX
  8
┌▓È_1
  5
31C
 10
969.196
 20
-406.752
 30
0.000000
  70
    32
  0
VERTEX
  8
┌▓È_1
  5
31D
 10
969.240
 20
-406.764
 30
0.000000
  70
    32
  0
VERTEX
  8
┌▓È_1
  5
31E
 10
969.284
 20
-406.776
 30
0.000000
  70
    32
  0
VERTEX
  8
┌▓È_1
  5
31F
 10
969.328
 20
-406.788
 30
0.000000
  70
    32
  0
VERTEX
  8
┌▓È_1
  5
320
 10
969.372
 20
-406.800
 30
0.000000
  70
    32
  0
VERTEX
  8
┌▓È_1
  5
321
 10
969.416
 20
-406.812
 30
0.000000
  70
    32
  0
VERTEX
  8
┌▓È_1
  5
322
 10
969.460
 20
-406.823
 30
0.000000
  70
    32
  0
VERTEX
  8
┌▓È_1
  5
323
 10
969.504
 20
-406.835
 30
0.000000
  70
    32
  0
VERTEX
  8
┌▓È_1
  5
324
 10
969.549
 20
-406.847
 30
0.000000
  70
    32
  0
VERTEX
  8
┌▓È_1
  5
325
 10
969.593
 20
-406.859
 30
0.000000
  70
    32
  0
VERTEX
  8
┌▓È_1
  5
326
 10
969.637
 20
-406.870
 30
0.000000
  70
    32
  0
VERTEX
  8
┌▓È_1
  5
327
 10
969.681
 20
-406.882
 30
0.000000
  70
    32
  0
VERTEX
  8
┌▓È_1
  5
328
 10
969.725
 20
-406.893
 30
0.000000
  70
    32
  0
VERTEX
  8
┌▓È_1
  5
329
 10
969.770
 20
-406.905
 30
0.000000
  70
    32
  0
VERTEX
  8
┌▓È_1
  5
32A
 10
969.814
 20
-406.916
 30
0.000000
  70
    32
  0
VERTEX
  8
┌▓È_1
  5
32B
 10
969.858
 20
-406.928
 30
0.000000
  70
    32
  0
VERTEX
  8
┌▓È_1
  5
32C
 10
969.903
 20
-406.939
 30
0.000000
  70
    32
  0
VERTEX
  8
┌▓È_1
  5
32D
 10
969.947
 20
-406.950
 30
0.000000
  70
    32
  0
VERTEX
  8
┌▓È_1
  5
32E
 10
969.991
 20
-406.962
 30
0.000000
  70
    32
  0
VERTEX
  8
┌▓È_1
  5
32F
 10
970.036
 20
-406.973
 30
0.000000
  70
    32
  0
VERTEX
  8
┌▓È_1
  5
330
 10
970.080
 20
-406.984
 30
0.000000
  70
    32
  0
VERTEX
  8
┌▓È_1
  5
331
 10
970.125
 20
-406.995
 30
0.000000
  70
    32
  0
VERTEX
  8
┌▓È_1
  5
332
 10
970.169
 20
-407.006
 30
0.000000
  70
    32
  0
VERTEX
  8
┌▓È_1
  5
333
 10
970.214
 20
-407.017
 30
0.000000
  70
    32
  0
VERTEX
  8
┌▓È_1
  5
334
 10
970.258
 20
-407.028
 30
0.000000
  70
    32
  0
VERTEX
  8
┌▓È_1
  5
335
 10
970.303
 20
-407.039
 30
0.000000
  70
    32
  0
VERTEX
  8
┌▓È_1
  5
336
 10
970.348
 20
-407.050
 30
0.000000
  70
    32
  0
VERTEX
  8
┌▓È_1
  5
337
 10
970.392
 20
-407.061
 30
0.000000
  70
    32
  0
VERTEX
  8
┌▓È_1
  5
338
 10
970.437
 20
-407.072
 30
0.000000
  70
    32
  0
VERTEX
  8
┌▓È_1
  5
339
 10
970.481
 20
-407.083
 30
0.000000
  70
    32
  0
VERTEX
  8
┌▓È_1
  5
33A
 10
970.526
 20
-407.094
 30
0.000000
  70
    32
  0
VERTEX
  8
┌▓È_1
  5
33B
 10
970.571
 20
-407.104
 30
0.000000
  70
    32
  0
VERTEX
  8
┌▓È_1
  5
33C
 10
970.616
 20
-407.115
 30
0.000000
  70
    32
  0
VERTEX
  8
┌▓È_1
  5
33D
 10
970.660
 20
-407.126
 30
0.000000
  70
    32
  0
VERTEX
  8
┌▓È_1
  5
33E
 10
970.705
 20
-407.136
 30
0.000000
  70
    32
  0
VERTEX
  8
┌▓È_1
  5
33F
 10
970.750
 20
-407.147
 30
0.000000
  70
    32
  0
VERTEX
  8
┌▓È_1
  5
340
 10
970.795
 20
-407.157
 30
0.000000
  70
    32
  0
VERTEX
  8
┌▓È_1
  5
341
 10
970.839
 20
-407.168
 30
0.000000
  70
    32
  0
VERTEX
  8
┌▓È_1
  5
342
 10
970.884
 20
-407.178
 30
0.000000
  70
    32
  0
VERTEX
  8
┌▓È_1
  5
343
 10
970.929
 20
-407.189
 30
0.000000
  70
    32
  0
VERTEX
  8
┌▓È_1
  5
344
 10
970.974
 20
-407.199
 30
0.000000
  70
    32
  0
VERTEX
  8
┌▓È_1
  5
345
 10
971.019
 20
-407.210
 30
0.000000
  70
    32
  0
VERTEX
  8
┌▓È_1
  5
346
 10
971.064
 20
-407.220
 30
0.000000
  70
    32
  0
VERTEX
  8
┌▓È_1
  5
347
 10
971.109
 20
-407.230
 30
0.000000
  70
    32
  0
VERTEX
  8
┌▓È_1
  5
348
 10
971.154
 20
-407.241
 30
0.000000
  70
    32
  0
VERTEX
  8
┌▓È_1
  5
349
 10
971.198
 20
-407.251
 30
0.000000
  70
    32
  0
VERTEX
  8
┌▓È_1
  5
34A
 10
971.243
 20
-407.261
 30
0.000000
  70
    32
  0
VERTEX
  8
┌▓È_1
  5
34B
 10
971.288
 20
-407.271
 30
0.000000
  70
    32
  0
VERTEX
  8
┌▓È_1
  5
34C
 10
971.333
 20
-407.281
 30
0.000000
  70
    32
  0
VERTEX
  8
┌▓È_1
  5
34D
 10
971.378
 20
-407.292
 30
0.000000
  70
    32
  0
VERTEX
  8
┌▓È_1
  5
34E
 10
971.423
 20
-407.302
 30
0.000000
  70
    32
  0
VERTEX
  8
┌▓È_1
  5
34F
 10
971.468
 20
-407.312
 30
0.000000
  70
    32
  0
VERTEX
  8
┌▓È_1
  5
350
 10
971.514
 20
-407.322
 30
0.000000
  70
    32
  0
VERTEX
  8
┌▓È_1
  5
351
 10
971.559
 20
-407.332
 30
0.000000
  70
    32
  0
VERTEX
  8
┌▓È_1
  5
352
 10
971.604
 20
-407.342
 30
0.000000
  70
    32
  0
VERTEX
  8
┌▓È_1
  5
353
 10
971.649
 20
-407.352
 30
0.000000
  70
    32
  0
VERTEX
  8
┌▓È_1
  5
354
 10
971.694
 20
-407.362
 30
0.000000
  70
    32
  0
VERTEX
  8
┌▓È_1
  5
355
 10
971.739
 20
-407.372
 30
0.000000
  70
    32
  0
VERTEX
  8
┌▓È_1
  5
356
 10
971.784
 20
-407.382
 30
0.000000
  70
    32
  0
VERTEX
  8
┌▓È_1
  5
357
 10
971.829
 20
-407.392
 30
0.000000
  70
    32
  0
VERTEX
  8
┌▓È_1
  5
358
 10
971.874
 20
-407.402
 30
0.000000
  70
    32
  0
VERTEX
  8
┌▓È_1
  5
359
 10
971.920
 20
-407.411
 30
0.000000
  70
    32
  0
VERTEX
  8
┌▓È_1
  5
35A
 10
971.965
 20
-407.421
 30
0.000000
  70
    32
  0
VERTEX
  8
┌▓È_1
  5
35B
 10
972.010
 20
-407.431
 30
0.000000
  70
    32
  0
VERTEX
  8
┌▓È_1
  5
35C
 10
972.055
 20
-407.441
 30
0.000000
  70
    32
  0
VERTEX
  8
┌▓È_1
  5
35D
 10
972.100
 20
-407.451
 30
0.000000
  70
    32
  0
VERTEX
  8
┌▓È_1
  5
35E
 10
972.146
 20
-407.460
 30
0.000000
  70
    32
  0
VERTEX
  8
┌▓È_1
  5
35F
 10
972.191
 20
-407.470
 30
0.000000
  70
    32
  0
VERTEX
  8
┌▓È_1
  5
360
 10
972.236
 20
-407.480
 30
0.000000
  70
    32
  0
VERTEX
  8
┌▓È_1
  5
361
 10
972.281
 20
-407.490
 30
0.000000
  70
    32
  0
VERTEX
  8
┌▓È_1
  5
362
 10
972.327
 20
-407.499
 30
0.000000
  70
    32
  0
VERTEX
  8
┌▓È_1
  5
363
 10
972.372
 20
-407.509
 30
0.000000
  70
    32
  0
VERTEX
  8
┌▓È_1
  5
364
 10
972.417
 20
-407.519
 30
0.000000
  70
    32
  0
VERTEX
  8
┌▓È_1
  5
365
 10
972.462
 20
-407.528
 30
0.000000
  70
    32
  0
VERTEX
  8
┌▓È_1
  5
366
 10
972.508
 20
-407.538
 30
0.000000
  70
    32
  0
VERTEX
  8
┌▓È_1
  5
367
 10
972.553
 20
-407.547
 30
0.000000
  70
    32
  0
VERTEX
  8
┌▓È_1
  5
368
 10
972.598
 20
-407.557
 30
0.000000
  70
    32
  0
VERTEX
  8
┌▓È_1
  5
369
 10
972.644
 20
-407.567
 30
0.000000
  70
    32
  0
VERTEX
  8
┌▓È_1
  5
36A
 10
972.689
 20
-407.576
 30
0.000000
  70
    32
  0
VERTEX
  8
┌▓È_1
  5
36B
 10
972.734
 20
-407.586
 30
0.000000
  70
    32
  0
VERTEX
  8
┌▓È_1
  5
36C
 10
972.780
 20
-407.595
 30
0.000000
  70
    32
  0
VERTEX
  8
┌▓È_1
  5
36D
 10
972.825
 20
-407.605
 30
0.000000
  70
    32
  0
VERTEX
  8
┌▓È_1
  5
36E
 10
972.870
 20
-407.614
 30
0.000000
  70
    32
  0
VERTEX
  8
┌▓È_1
  5
36F
 10
972.916
 20
-407.624
 30
0.000000
  70
    32
  0
VERTEX
  8
┌▓È_1
  5
370
 10
972.961
 20
-407.633
 30
0.000000
  70
    32
  0
VERTEX
  8
┌▓È_1
  5
371
 10
973.006
 20
-407.643
 30
0.000000
  70
    32
  0
VERTEX
  8
┌▓È_1
  5
372
 10
973.052
 20
-407.652
 30
0.000000
  70
    32
  0
VERTEX
  8
┌▓È_1
  5
373
 10
973.097
 20
-407.662
 30
0.000000
  70
    32
  0
VERTEX
  8
┌▓È_1
  5
374
 10
973.142
 20
-407.671
 30
0.000000
  70
    32
  0
VERTEX
  8
┌▓È_1
  5
375
 10
973.188
 20
-407.681
 30
0.000000
  70
    32
  0
VERTEX
  8
┌▓È_1
  5
376
 10
973.233
 20
-407.690
 30
0.000000
  70
    32
  0
VERTEX
  8
┌▓È_1
  5
377
 10
973.279
 20
-407.700
 30
0.000000
  70
    32
  0
VERTEX
  8
┌▓È_1
  5
378
 10
973.324
 20
-407.709
 30
0.000000
  70
    32
  0
VERTEX
  8
┌▓È_1
  5
379
 10
973.369
 20
-407.719
 30
0.000000
  70
    32
  0
VERTEX
  8
┌▓È_1
  5
37A
 10
973.415
 20
-407.728
 30
0.000000
  70
    32
  0
VERTEX
  8
┌▓È_1
  5
37B
 10
973.460
 20
-407.738
 30
0.000000
  70
    32
  0
VERTEX
  8
┌▓È_1
  5
37C
 10
973.506
 20
-407.747
 30
0.000000
  70
    32
  0
VERTEX
  8
┌▓È_1
  5
37D
 10
973.551
 20
-407.756
 30
0.000000
  70
    32
  0
VERTEX
  8
┌▓È_1
  5
37E
 10
973.596
 20
-407.766
 30
0.000000
  70
    32
  0
VERTEX
  8
┌▓È_1
  5
37F
 10
973.642
 20
-407.775
 30
0.000000
  70
    32
  0
VERTEX
  8
┌▓È_1
  5
380
 10
973.687
 20
-407.785
 30
0.000000
  70
    32
  0
SEQEND
  8
┌▓È_1
  5
381
  0
POLYLINE
  8
┌▓È_1
  5
382
  62
5
  66
     1
 10
0.000000
 20
0.000000
 30
0.000000
  70
     8
  0
VERTEX
  8
┌▓È_1
  5
383
 10
959.287
 20
-400.816
 30
0.000000
  70
    32
  0
VERTEX
  8
┌▓È_1
  5
384
 10
959.316
 20
-400.842
 30
0.000000
  70
    32
  0
VERTEX
  8
┌▓È_1
  5
385
 10
959.345
 20
-400.869
 30
0.000000
  70
    32
  0
VERTEX
  8
┌▓È_1
  5
386
 10
959.374
 20
-400.895
 30
0.000000
  70
    32
  0
VERTEX
  8
┌▓È_1
  5
387
 10
959.402
 20
-400.922
 30
0.000000
  70
    32
  0
VERTEX
  8
┌▓È_1
  5
388
 10
959.431
 20
-400.948
 30
0.000000
  70
    32
  0
VERTEX
  8
┌▓È_1
  5
389
 10
959.460
 20
-400.975
 30
0.000000
  70
    32
  0
VERTEX
  8
┌▓È_1
  5
38A
 10
959.489
 20
-401.001
 30
0.000000
  70
    32
  0
VERTEX
  8
┌▓È_1
  5
38B
 10
959.518
 20
-401.028
 30
0.000000
  70
    32
  0
VERTEX
  8
┌▓È_1
  5
38C
 10
959.547
 20
-401.055
 30
0.000000
  70
    32
  0
VERTEX
  8
┌▓È_1
  5
38D
 10
959.575
 20
-401.081
 30
0.000000
  70
    32
  0
VERTEX
  8
┌▓È_1
  5
38E
 10
959.604
 20
-401.108
 30
0.000000
  70
    32
  0
VERTEX
  8
┌▓È_1
  5
38F
 10
959.633
 20
-401.134
 30
0.000000
  70
    32
  0
VERTEX
  8
┌▓È_1
  5
390
 10
959.662
 20
-401.161
 30
0.000000
  70
    32
  0
VERTEX
  8
┌▓È_1
  5
391
 10
959.691
 20
-401.187
 30
0.000000
  70
    32
  0
VERTEX
  8
┌▓È_1
  5
392
 10
959.720
 20
-401.214
 30
0.000000
  70
    32
  0
VERTEX
  8
┌▓È_1
  5
393
 10
959.748
 20
-401.240
 30
0.000000
  70
    32
  0
VERTEX
  8
┌▓È_1
  5
394
 10
959.777
 20
-401.267
 30
0.000000
  70
    32
  0
VERTEX
  8
┌▓È_1
  5
395
 10
959.806
 20
-401.293
 30
0.000000
  70
    32
  0
VERTEX
  8
┌▓È_1
  5
396
 10
959.835
 20
-401.320
 30
0.000000
  70
    32
  0
VERTEX
  8
┌▓È_1
  5
397
 10
959.864
 20
-401.346
 30
0.000000
  70
    32
  0
VERTEX
  8
┌▓È_1
  5
398
 10
959.893
 20
-401.373
 30
0.000000
  70
    32
  0
VERTEX
  8
┌▓È_1
  5
399
 10
959.922
 20
-401.399
 30
0.000000
  70
    32
  0
VERTEX
  8
┌▓È_1
  5
39A
 10
959.951
 20
-401.425
 30
0.000000
  70
    32
  0
VERTEX
  8
┌▓È_1
  5
39B
 10
959.979
 20
-401.452
 30
0.000000
  70
    32
  0
VERTEX
  8
┌▓È_1
  5
39C
 10
960.008
 20
-401.478
 30
0.000000
  70
    32
  0
VERTEX
  8
┌▓È_1
  5
39D
 10
960.037
 20
-401.505
 30
0.000000
  70
    32
  0
VERTEX
  8
┌▓È_1
  5
39E
 10
960.066
 20
-401.531
 30
0.000000
  70
    32
  0
VERTEX
  8
┌▓È_1
  5
39F
 10
960.095
 20
-401.557
 30
0.000000
  70
    32
  0
VERTEX
  8
┌▓È_1
  5
3A0
 10
960.124
 20
-401.584
 30
0.000000
  70
    32
  0
VERTEX
  8
┌▓È_1
  5
3A1
 10
960.153
 20
-401.610
 30
0.000000
  70
    32
  0
VERTEX
  8
┌▓È_1
  5
3A2
 10
960.182
 20
-401.636
 30
0.000000
  70
    32
  0
VERTEX
  8
┌▓È_1
  5
3A3
 10
960.211
 20
-401.663
 30
0.000000
  70
    32
  0
VERTEX
  8
┌▓È_1
  5
3A4
 10
960.240
 20
-401.689
 30
0.000000
  70
    32
  0
VERTEX
  8
┌▓È_1
  5
3A5
 10
960.269
 20
-401.715
 30
0.000000
  70
    32
  0
VERTEX
  8
┌▓È_1
  5
3A6
 10
960.298
 20
-401.741
 30
0.000000
  70
    32
  0
VERTEX
  8
┌▓È_1
  5
3A7
 10
960.327
 20
-401.768
 30
0.000000
  70
    32
  0
VERTEX
  8
┌▓È_1
  5
3A8
 10
960.356
 20
-401.794
 30
0.000000
  70
    32
  0
VERTEX
  8
┌▓È_1
  5
3A9
 10
960.385
 20
-401.820
 30
0.000000
  70
    32
  0
VERTEX
  8
┌▓È_1
  5
3AA
 10
960.414
 20
-401.846
 30
0.000000
  70
    32
  0
VERTEX
  8
┌▓È_1
  5
3AB
 10
960.443
 20
-401.872
 30
0.000000
  70
    32
  0
VERTEX
  8
┌▓È_1
  5
3AC
 10
960.472
 20
-401.898
 30
0.000000
  70
    32
  0
VERTEX
  8
┌▓È_1
  5
3AD
 10
960.501
 20
-401.924
 30
0.000000
  70
    32
  0
VERTEX
  8
┌▓È_1
  5
3AE
 10
960.530
 20
-401.950
 30
0.000000
  70
    32
  0
VERTEX
  8
┌▓È_1
  5
3AF
 10
960.559
 20
-401.977
 30
0.000000
  70
    32
  0
VERTEX
  8
┌▓È_1
  5
3B0
 10
960.588
 20
-402.003
 30
0.000000
  70
    32
  0
VERTEX
  8
┌▓È_1
  5
3B1
 10
960.618
 20
-402.029
 30
0.000000
  70
    32
  0
VERTEX
  8
┌▓È_1
  5
3B2
 10
960.647
 20
-402.055
 30
0.000000
  70
    32
  0
VERTEX
  8
┌▓È_1
  5
3B3
 10
960.676
 20
-402.080
 30
0.000000
  70
    32
  0
VERTEX
  8
┌▓È_1
  5
3B4
 10
960.705
 20
-402.106
 30
0.000000
  70
    32
  0
VERTEX
  8
┌▓È_1
  5
3B5
 10
960.734
 20
-402.132
 30
0.000000
  70
    32
  0
VERTEX
  8
┌▓È_1
  5
3B6
 10
960.763
 20
-402.158
 30
0.000000
  70
    32
  0
VERTEX
  8
┌▓È_1
  5
3B7
 10
960.793
 20
-402.184
 30
0.000000
  70
    32
  0
VERTEX
  8
┌▓È_1
  5
3B8
 10
960.822
 20
-402.210
 30
0.000000
  70
    32
  0
VERTEX
  8
┌▓È_1
  5
3B9
 10
960.851
 20
-402.236
 30
0.000000
  70
    32
  0
VERTEX
  8
┌▓È_1
  5
3BA
 10
960.880
 20
-402.261
 30
0.000000
  70
    32
  0
VERTEX
  8
┌▓È_1
  5
3BB
 10
960.910
 20
-402.287
 30
0.000000
  70
    32
  0
VERTEX
  8
┌▓È_1
  5
3BC
 10
960.939
 20
-402.313
 30
0.000000
  70
    32
  0
VERTEX
  8
┌▓È_1
  5
3BD
 10
960.968
 20
-402.338
 30
0.000000
  70
    32
  0
VERTEX
  8
┌▓È_1
  5
3BE
 10
960.998
 20
-402.364
 30
0.000000
  70
    32
  0
VERTEX
  8
┌▓È_1
  5
3BF
 10
961.027
 20
-402.390
 30
0.000000
  70
    32
  0
VERTEX
  8
┌▓È_1
  5
3C0
 10
961.056
 20
-402.415
 30
0.000000
  70
    32
  0
VERTEX
  8
┌▓È_1
  5
3C1
 10
961.086
 20
-402.441
 30
0.000000
  70
    32
  0
VERTEX
  8
┌▓È_1
  5
3C2
 10
961.115
 20
-402.466
 30
0.000000
  70
    32
  0
VERTEX
  8
┌▓È_1
  5
3C3
 10
961.145
 20
-402.492
 30
0.000000
  70
    32
  0
VERTEX
  8
┌▓È_1
  5
3C4
 10
961.174
 20
-402.517
 30
0.000000
  70
    32
  0
VERTEX
  8
┌▓È_1
  5
3C5
 10
961.203
 20
-402.542
 30
0.000000
  70
    32
  0
VERTEX
  8
┌▓È_1
  5
3C6
 10
961.233
 20
-402.568
 30
0.000000
  70
    32
  0
VERTEX
  8
┌▓È_1
  5
3C7
 10
961.262
 20
-402.593
 30
0.000000
  70
    32
  0
VERTEX
  8
┌▓È_1
  5
3C8
 10
961.292
 20
-402.618
 30
0.000000
  70
    32
  0
VERTEX
  8
┌▓È_1
  5
3C9
 10
961.322
 20
-402.643
 30
0.000000
  70
    32
  0
VERTEX
  8
┌▓È_1
  5
3CA
 10
961.351
 20
-402.669
 30
0.000000
  70
    32
  0
VERTEX
  8
┌▓È_1
  5
3CB
 10
961.381
 20
-402.694
 30
0.000000
  70
    32
  0
VERTEX
  8
┌▓È_1
  5
3CC
 10
961.410
 20
-402.719
 30
0.000000
  70
    32
  0
VERTEX
  8
┌▓È_1
  5
3CD
 10
961.440
 20
-402.744
 30
0.000000
  70
    32
  0
VERTEX
  8
┌▓È_1
  5
3CE
 10
961.470
 20
-402.769
 30
0.000000
  70
    32
  0
VERTEX
  8
┌▓È_1
  5
3CF
 10
961.499
 20
-402.794
 30
0.000000
  70
    32
  0
VERTEX
  8
┌▓È_1
  5
3D0
 10
961.529
 20
-402.819
 30
0.000000
  70
    32
  0
VERTEX
  8
┌▓È_1
  5
3D1
 10
961.559
 20
-402.844
 30
0.000000
  70
    32
  0
VERTEX
  8
┌▓È_1
  5
3D2
 10
961.588
 20
-402.869
 30
0.000000
  70
    32
  0
VERTEX
  8
┌▓È_1
  5
3D3
 10
961.618
 20
-402.894
 30
0.000000
  70
    32
  0
VERTEX
  8
┌▓È_1
  5
3D4
 10
961.648
 20
-402.918
 30
0.000000
  70
    32
  0
VERTEX
  8
┌▓È_1
  5
3D5
 10
961.678
 20
-402.943
 30
0.000000
  70
    32
  0
VERTEX
  8
┌▓È_1
  5
3D6
 10
961.708
 20
-402.968
 30
0.000000
  70
    32
  0
VERTEX
  8
┌▓È_1
  5
3D7
 10
961.737
 20
-402.992
 30
0.000000
  70
    32
  0
VERTEX
  8
┌▓È_1
  5
3D8
 10
961.767
 20
-403.017
 30
0.000000
  70
    32
  0
VERTEX
  8
┌▓È_1
  5
3D9
 10
961.797
 20
-403.041
 30
0.000000
  70
    32
  0
VERTEX
  8
┌▓È_1
  5
3DA
 10
961.827
 20
-403.066
 30
0.000000
  70
    32
  0
VERTEX
  8
┌▓È_1
  5
3DB
 10
961.857
 20
-403.090
 30
0.000000
  70
    32
  0
VERTEX
  8
┌▓È_1
  5
3DC
 10
961.887
 20
-403.115
 30
0.000000
  70
    32
  0
VERTEX
  8
┌▓È_1
  5
3DD
 10
961.917
 20
-403.139
 30
0.000000
  70
    32
  0
VERTEX
  8
┌▓È_1
  5
3DE
 10
961.947
 20
-403.163
 30
0.000000
  70
    32
  0
VERTEX
  8
┌▓È_1
  5
3DF
 10
961.977
 20
-403.188
 30
0.000000
  70
    32
  0
VERTEX
  8
┌▓È_1
  5
3E0
 10
962.007
 20
-403.212
 30
0.000000
  70
    32
  0
VERTEX
  8
┌▓È_1
  5
3E1
 10
962.037
 20
-403.236
 30
0.000000
  70
    32
  0
VERTEX
  8
┌▓È_1
  5
3E2
 10
962.068
 20
-403.260
 30
0.000000
  70
    32
  0
VERTEX
  8
┌▓È_1
  5
3E3
 10
962.098
 20
-403.284
 30
0.000000
  70
    32
  0
VERTEX
  8
┌▓È_1
  5
3E4
 10
962.128
 20
-403.308
 30
0.000000
  70
    32
  0
VERTEX
  8
┌▓È_1
  5
3E5
 10
962.158
 20
-403.332
 30
0.000000
  70
    32
  0
VERTEX
  8
┌▓È_1
  5
3E6
 10
962.188
 20
-403.356
 30
0.000000
  70
    32
  0
VERTEX
  8
┌▓È_1
  5
3E7
 10
962.219
 20
-403.380
 30
0.000000
  70
    32
  0
VERTEX
  8
┌▓È_1
  5
3E8
 10
962.249
 20
-403.404
 30
0.000000
  70
    32
  0
VERTEX
  8
┌▓È_1
  5
3E9
 10
962.279
 20
-403.427
 30
0.000000
  70
    32
  0
VERTEX
  8
┌▓È_1
  5
3EA
 10
962.310
 20
-403.451
 30
0.000000
  70
    32
  0
VERTEX
  8
┌▓È_1
  5
3EB
 10
962.340
 20
-403.475
 30
0.000000
  70
    32
  0
VERTEX
  8
┌▓È_1
  5
3EC
 10
962.371
 20
-403.498
 30
0.000000
  70
    32
  0
VERTEX
  8
┌▓È_1
  5
3ED
 10
962.401
 20
-403.522
 30
0.000000
  70
    32
  0
VERTEX
  8
┌▓È_1
  5
3EE
 10
962.432
 20
-403.545
 30
0.000000
  70
    32
  0
VERTEX
  8
┌▓È_1
  5
3EF
 10
962.462
 20
-403.568
 30
0.000000
  70
    32
  0
VERTEX
  8
┌▓È_1
  5
3F0
 10
962.493
 20
-403.592
 30
0.000000
  70
    32
  0
VERTEX
  8
┌▓È_1
  5
3F1
 10
962.523
 20
-403.615
 30
0.000000
  70
    32
  0
VERTEX
  8
┌▓È_1
  5
3F2
 10
962.554
 20
-403.638
 30
0.000000
  70
    32
  0
VERTEX
  8
┌▓È_1
  5
3F3
 10
962.585
 20
-403.661
 30
0.000000
  70
    32
  0
VERTEX
  8
┌▓È_1
  5
3F4
 10
962.616
 20
-403.684
 30
0.000000
  70
    32
  0
VERTEX
  8
┌▓È_1
  5
3F5
 10
962.646
 20
-403.707
 30
0.000000
  70
    32
  0
VERTEX
  8
┌▓È_1
  5
3F6
 10
962.677
 20
-403.730
 30
0.000000
  70
    32
  0
VERTEX
  8
┌▓È_1
  5
3F7
 10
962.708
 20
-403.753
 30
0.000000
  70
    32
  0
VERTEX
  8
┌▓È_1
  5
3F8
 10
962.739
 20
-403.776
 30
0.000000
  70
    32
  0
VERTEX
  8
┌▓È_1
  5
3F9
 10
962.770
 20
-403.799
 30
0.000000
  70
    32
  0
VERTEX
  8
┌▓È_1
  5
3FA
 10
962.800
 20
-403.821
 30
0.000000
  70
    32
  0
VERTEX
  8
┌▓È_1
  5
3FB
 10
962.831
 20
-403.844
 30
0.000000
  70
    32
  0
VERTEX
  8
┌▓È_1
  5
3FC
 10
962.862
 20
-403.867
 30
0.000000
  70
    32
  0
VERTEX
  8
┌▓È_1
  5
3FD
 10
962.893
 20
-403.889
 30
0.000000
  70
    32
  0
VERTEX
  8
┌▓È_1
  5
3FE
 10
962.925
 20
-403.911
 30
0.000000
  70
    32
  0
VERTEX
  8
┌▓È_1
  5
3FF
 10
962.956
 20
-403.934
 30
0.000000
  70
    32
  0
VERTEX
  8
┌▓È_1
  5
400
 10
962.987
 20
-403.956
 30
0.000000
  70
    32
  0
VERTEX
  8
┌▓È_1
  5
401
 10
963.018
 20
-403.978
 30
0.000000
  70
    32
  0
VERTEX
  8
┌▓È_1
  5
402
 10
963.049
 20
-404.000
 30
0.000000
  70
    32
  0
VERTEX
  8
┌▓È_1
  5
403
 10
963.080
 20
-404.023
 30
0.000000
  70
    32
  0
VERTEX
  8
┌▓È_1
  5
404
 10
963.112
 20
-404.045
 30
0.000000
  70
    32
  0
VERTEX
  8
┌▓È_1
  5
405
 10
963.143
 20
-404.066
 30
0.000000
  70
    32
  0
VERTEX
  8
┌▓È_1
  5
406
 10
963.174
 20
-404.088
 30
0.000000
  70
    32
  0
VERTEX
  8
┌▓È_1
  5
407
 10
963.206
 20
-404.110
 30
0.000000
  70
    32
  0
VERTEX
  8
┌▓È_1
  5
408
 10
963.237
 20
-404.132
 30
0.000000
  70
    32
  0
VERTEX
  8
┌▓È_1
  5
409
 10
963.269
 20
-404.153
 30
0.000000
  70
    32
  0
VERTEX
  8
┌▓È_1
  5
40A
 10
963.300
 20
-404.175
 30
0.000000
  70
    32
  0
VERTEX
  8
┌▓È_1
  5
40B
 10
963.332
 20
-404.196
 30
0.000000
  70
    32
  0
VERTEX
  8
┌▓È_1
  5
40C
 10
963.363
 20
-404.218
 30
0.000000
  70
    32
  0
VERTEX
  8
┌▓È_1
  5
40D
 10
963.395
 20
-404.239
 30
0.000000
  70
    32
  0
VERTEX
  8
┌▓È_1
  5
40E
 10
963.427
 20
-404.260
 30
0.000000
  70
    32
  0
VERTEX
  8
┌▓È_1
  5
40F
 10
963.458
 20
-404.282
 30
0.000000
  70
    32
  0
VERTEX
  8
┌▓È_1
  5
410
 10
963.490
 20
-404.303
 30
0.000000
  70
    32
  0
VERTEX
  8
┌▓È_1
  5
411
 10
963.522
 20
-404.324
 30
0.000000
  70
    32
  0
VERTEX
  8
┌▓È_1
  5
412
 10
963.554
 20
-404.345
 30
0.000000
  70
    32
  0
VERTEX
  8
┌▓È_1
  5
413
 10
963.586
 20
-404.366
 30
0.000000
  70
    32
  0
VERTEX
  8
┌▓È_1
  5
414
 10
963.618
 20
-404.386
 30
0.000000
  70
    32
  0
VERTEX
  8
┌▓È_1
  5
415
 10
963.650
 20
-404.407
 30
0.000000
  70
    32
  0
VERTEX
  8
┌▓È_1
  5
416
 10
963.682
 20
-404.428
 30
0.000000
  70
    32
  0
VERTEX
  8
┌▓È_1
  5
417
 10
963.714
 20
-404.448
 30
0.000000
  70
    32
  0
VERTEX
  8
┌▓È_1
  5
418
 10
963.746
 20
-404.469
 30
0.000000
  70
    32
  0
VERTEX
  8
┌▓È_1
  5
419
 10
963.778
 20
-404.489
 30
0.000000
  70
    32
  0
VERTEX
  8
┌▓È_1
  5
41A
 10
963.810
 20
-404.509
 30
0.000000
  70
    32
  0
VERTEX
  8
┌▓È_1
  5
41B
 10
963.843
 20
-404.530
 30
0.000000
  70
    32
  0
VERTEX
  8
┌▓È_1
  5
41C
 10
963.875
 20
-404.550
 30
0.000000
  70
    32
  0
VERTEX
  8
┌▓È_1
  5
41D
 10
963.907
 20
-404.570
 30
0.000000
  70
    32
  0
VERTEX
  8
┌▓È_1
  5
41E
 10
963.940
 20
-404.590
 30
0.000000
  70
    32
  0
VERTEX
  8
┌▓È_1
  5
41F
 10
963.972
 20
-404.610
 30
0.000000
  70
    32
  0
VERTEX
  8
┌▓È_1
  5
420
 10
964.004
 20
-404.630
 30
0.000000
  70
    32
  0
VERTEX
  8
┌▓È_1
  5
421
 10
964.037
 20
-404.649
 30
0.000000
  70
    32
  0
VERTEX
  8
┌▓È_1
  5
422
 10
964.070
 20
-404.669
 30
0.000000
  70
    32
  0
SEQEND
  8
┌▓È_1
  5
423
  0
POLYLINE
  8
┌▓È_1
  5
424
  62
5
  66
     1
 10
0.000000
 20
0.000000
 30
0.000000
  70
     8
  0
VERTEX
  8
┌▓È_1
  5
425
 10
969.983
 20
-404.622
 30
0.000000
  70
    32
  0
VERTEX
  8
┌▓È_1
  5
426
 10
970.010
 20
-404.630
 30
0.000000
  70
    32
  0
VERTEX
  8
┌▓È_1
  5
427
 10
970.038
 20
-404.638
 30
0.000000
  70
    32
  0
VERTEX
  8
┌▓È_1
  5
428
 10
970.067
 20
-404.646
 30
0.000000
  70
    32
  0
VERTEX
  8
┌▓È_1
  5
429
 10
970.095
 20
-404.654
 30
0.000000
  70
    32
  0
VERTEX
  8
┌▓È_1
  5
42A
 10
970.123
 20
-404.662
 30
0.000000
  70
    32
  0
VERTEX
  8
┌▓È_1
  5
42B
 10
970.151
 20
-404.669
 30
0.000000
  70
    32
  0
VERTEX
  8
┌▓È_1
  5
42C
 10
970.179
 20
-404.677
 30
0.000000
  70
    32
  0
VERTEX
  8
┌▓È_1
  5
42D
 10
970.207
 20
-404.685
 30
0.000000
  70
    32
  0
VERTEX
  8
┌▓È_1
  5
42E
 10
970.235
 20
-404.692
 30
0.000000
  70
    32
  0
VERTEX
  8
┌▓È_1
  5
42F
 10
970.264
 20
-404.700
 30
0.000000
  70
    32
  0
VERTEX
  8
┌▓È_1
  5
430
 10
970.292
 20
-404.707
 30
0.000000
  70
    32
  0
VERTEX
  8
┌▓È_1
  5
431
 10
970.320
 20
-404.715
 30
0.000000
  70
    32
  0
VERTEX
  8
┌▓È_1
  5
432
 10
970.348
 20
-404.722
 30
0.000000
  70
    32
  0
VERTEX
  8
┌▓È_1
  5
433
 10
970.377
 20
-404.729
 30
0.000000
  70
    32
  0
VERTEX
  8
┌▓È_1
  5
434
 10
970.405
 20
-404.737
 30
0.000000
  70
    32
  0
VERTEX
  8
┌▓È_1
  5
435
 10
970.433
 20
-404.744
 30
0.000000
  70
    32
  0
VERTEX
  8
┌▓È_1
  5
436
 10
970.462
 20
-404.751
 30
0.000000
  70
    32
  0
VERTEX
  8
┌▓È_1
  5
437
 10
970.490
 20
-404.758
 30
0.000000
  70
    32
  0
VERTEX
  8
┌▓È_1
  5
438
 10
970.519
 20
-404.766
 30
0.000000
  70
    32
  0
VERTEX
  8
┌▓È_1
  5
439
 10
970.547
 20
-404.773
 30
0.000000
  70
    32
  0
VERTEX
  8
┌▓È_1
  5
43A
 10
970.576
 20
-404.780
 30
0.000000
  70
    32
  0
VERTEX
  8
┌▓È_1
  5
43B
 10
970.604
 20
-404.787
 30
0.000000
  70
    32
  0
VERTEX
  8
┌▓È_1
  5
43C
 10
970.633
 20
-404.794
 30
0.000000
  70
    32
  0
VERTEX
  8
┌▓È_1
  5
43D
 10
970.661
 20
-404.801
 30
0.000000
  70
    32
  0
VERTEX
  8
┌▓È_1
  5
43E
 10
970.690
 20
-404.808
 30
0.000000
  70
    32
  0
VERTEX
  8
┌▓È_1
  5
43F
 10
970.718
 20
-404.815
 30
0.000000
  70
    32
  0
VERTEX
  8
┌▓È_1
  5
440
 10
970.747
 20
-404.822
 30
0.000000
  70
    32
  0
VERTEX
  8
┌▓È_1
  5
441
 10
970.776
 20
-404.828
 30
0.000000
  70
    32
  0
VERTEX
  8
┌▓È_1
  5
442
 10
970.804
 20
-404.835
 30
0.000000
  70
    32
  0
VERTEX
  8
┌▓È_1
  5
443
 10
970.833
 20
-404.842
 30
0.000000
  70
    32
  0
VERTEX
  8
┌▓È_1
  5
444
 10
970.862
 20
-404.849
 30
0.000000
  70
    32
  0
VERTEX
  8
┌▓È_1
  5
445
 10
970.891
 20
-404.855
 30
0.000000
  70
    32
  0
VERTEX
  8
┌▓È_1
  5
446
 10
970.919
 20
-404.862
 30
0.000000
  70
    32
  0
VERTEX
  8
┌▓È_1
  5
447
 10
970.948
 20
-404.869
 30
0.000000
  70
    32
  0
VERTEX
  8
┌▓È_1
  5
448
 10
970.977
 20
-404.875
 30
0.000000
  70
    32
  0
VERTEX
  8
┌▓È_1
  5
449
 10
971.006
 20
-404.882
 30
0.000000
  70
    32
  0
VERTEX
  8
┌▓È_1
  5
44A
 10
971.035
 20
-404.888
 30
0.000000
  70
    32
  0
VERTEX
  8
┌▓È_1
  5
44B
 10
971.064
 20
-404.895
 30
0.000000
  70
    32
  0
VERTEX
  8
┌▓È_1
  5
44C
 10
971.092
 20
-404.901
 30
0.000000
  70
    32
  0
VERTEX
  8
┌▓È_1
  5
44D
 10
971.121
 20
-404.908
 30
0.000000
  70
    32
  0
VERTEX
  8
┌▓È_1
  5
44E
 10
971.150
 20
-404.914
 30
0.000000
  70
    32
  0
VERTEX
  8
┌▓È_1
  5
44F
 10
971.179
 20
-404.920
 30
0.000000
  70
    32
  0
VERTEX
  8
┌▓È_1
  5
450
 10
971.208
 20
-404.927
 30
0.000000
  70
    32
  0
VERTEX
  8
┌▓È_1
  5
451
 10
971.237
 20
-404.933
 30
0.000000
  70
    32
  0
VERTEX
  8
┌▓È_1
  5
452
 10
971.266
 20
-404.939
 30
0.000000
  70
    32
  0
VERTEX
  8
┌▓È_1
  5
453
 10
971.295
 20
-404.945
 30
0.000000
  70
    32
  0
VERTEX
  8
┌▓È_1
  5
454
 10
971.324
 20
-404.952
 30
0.000000
  70
    32
  0
VERTEX
  8
┌▓È_1
  5
455
 10
971.353
 20
-404.958
 30
0.000000
  70
    32
  0
VERTEX
  8
┌▓È_1
  5
456
 10
971.382
 20
-404.964
 30
0.000000
  70
    32
  0
VERTEX
  8
┌▓È_1
  5
457
 10
971.412
 20
-404.970
 30
0.000000
  70
    32
  0
VERTEX
  8
┌▓È_1
  5
458
 10
971.441
 20
-404.976
 30
0.000000
  70
    32
  0
VERTEX
  8
┌▓È_1
  5
459
 10
971.470
 20
-404.982
 30
0.000000
  70
    32
  0
VERTEX
  8
┌▓È_1
  5
45A
 10
971.499
 20
-404.988
 30
0.000000
  70
    32
  0
VERTEX
  8
┌▓È_1
  5
45B
 10
971.528
 20
-404.994
 30
0.000000
  70
    32
  0
VERTEX
  8
┌▓È_1
  5
45C
 10
971.557
 20
-405.000
 30
0.000000
  70
    32
  0
VERTEX
  8
┌▓È_1
  5
45D
 10
971.587
 20
-405.006
 30
0.000000
  70
    32
  0
VERTEX
  8
┌▓È_1
  5
45E
 10
971.616
 20
-405.012
 30
0.000000
  70
    32
  0
VERTEX
  8
┌▓È_1
  5
45F
 10
971.645
 20
-405.018
 30
0.000000
  70
    32
  0
VERTEX
  8
┌▓È_1
  5
460
 10
971.674
 20
-405.024
 30
0.000000
  70
    32
  0
VERTEX
  8
┌▓È_1
  5
461
 10
971.703
 20
-405.030
 30
0.000000
  70
    32
  0
VERTEX
  8
┌▓È_1
  5
462
 10
971.733
 20
-405.036
 30
0.000000
  70
    32
  0
VERTEX
  8
┌▓È_1
  5
463
 10
971.762
 20
-405.041
 30
0.000000
  70
    32
  0
VERTEX
  8
┌▓È_1
  5
464
 10
971.791
 20
-405.047
 30
0.000000
  70
    32
  0
VERTEX
  8
┌▓È_1
  5
465
 10
971.821
 20
-405.053
 30
0.000000
  70
    32
  0
VERTEX
  8
┌▓È_1
  5
466
 10
971.850
 20
-405.059
 30
0.000000
  70
    32
  0
VERTEX
  8
┌▓È_1
  5
467
 10
971.879
 20
-405.064
 30
0.000000
  70
    32
  0
VERTEX
  8
┌▓È_1
  5
468
 10
971.909
 20
-405.070
 30
0.000000
  70
    32
  0
VERTEX
  8
┌▓È_1
  5
469
 10
971.938
 20
-405.076
 30
0.000000
  70
    32
  0
VERTEX
  8
┌▓È_1
  5
46A
 10
971.967
 20
-405.081
 30
0.000000
  70
    32
  0
VERTEX
  8
┌▓È_1
  5
46B
 10
971.997
 20
-405.087
 30
0.000000
  70
    32
  0
VERTEX
  8
┌▓È_1
  5
46C
 10
972.026
 20
-405.093
 30
0.000000
  70
    32
  0
VERTEX
  8
┌▓È_1
  5
46D
 10
972.056
 20
-405.098
 30
0.000000
  70
    32
  0
VERTEX
  8
┌▓È_1
  5
46E
 10
972.085
 20
-405.104
 30
0.000000
  70
    32
  0
VERTEX
  8
┌▓È_1
  5
46F
 10
972.115
 20
-405.109
 30
0.000000
  70
    32
  0
VERTEX
  8
┌▓È_1
  5
470
 10
972.144
 20
-405.115
 30
0.000000
  70
    32
  0
VERTEX
  8
┌▓È_1
  5
471
 10
972.174
 20
-405.120
 30
0.000000
  70
    32
  0
VERTEX
  8
┌▓È_1
  5
472
 10
972.203
 20
-405.126
 30
0.000000
  70
    32
  0
VERTEX
  8
┌▓È_1
  5
473
 10
972.233
 20
-405.131
 30
0.000000
  70
    32
  0
VERTEX
  8
┌▓È_1
  5
474
 10
972.262
 20
-405.137
 30
0.000000
  70
    32
  0
VERTEX
  8
┌▓È_1
  5
475
 10
972.292
 20
-405.142
 30
0.000000
  70
    32
  0
VERTEX
  8
┌▓È_1
  5
476
 10
972.321
 20
-405.148
 30
0.000000
  70
    32
  0
VERTEX
  8
┌▓È_1
  5
477
 10
972.351
 20
-405.153
 30
0.000000
  70
    32
  0
VERTEX
  8
┌▓È_1
  5
478
 10
972.380
 20
-405.158
 30
0.000000
  70
    32
  0
VERTEX
  8
┌▓È_1
  5
479
 10
972.410
 20
-405.164
 30
0.000000
  70
    32
  0
VERTEX
  8
┌▓È_1
  5
47A
 10
972.439
 20
-405.169
 30
0.000000
  70
    32
  0
VERTEX
  8
┌▓È_1
  5
47B
 10
972.469
 20
-405.174
 30
0.000000
  70
    32
  0
VERTEX
  8
┌▓È_1
  5
47C
 10
972.499
 20
-405.180
 30
0.000000
  70
    32
  0
VERTEX
  8
┌▓È_1
  5
47D
 10
972.528
 20
-405.185
 30
0.000000
  70
    32
  0
VERTEX
  8
┌▓È_1
  5
47E
 10
972.558
 20
-405.190
 30
0.000000
  70
    32
  0
VERTEX
  8
┌▓È_1
  5
47F
 10
972.587
 20
-405.196
 30
0.000000
  70
    32
  0
VERTEX
  8
┌▓È_1
  5
480
 10
972.617
 20
-405.201
 30
0.000000
  70
    32
  0
VERTEX
  8
┌▓È_1
  5
481
 10
972.647
 20
-405.206
 30
0.000000
  70
    32
  0
VERTEX
  8
┌▓È_1
  5
482
 10
972.676
 20
-405.211
 30
0.000000
  70
    32
  0
VERTEX
  8
┌▓È_1
  5
483
 10
972.706
 20
-405.217
 30
0.000000
  70
    32
  0
VERTEX
  8
┌▓È_1
  5
484
 10
972.736
 20
-405.222
 30
0.000000
  70
    32
  0
VERTEX
  8
┌▓È_1
  5
485
 10
972.765
 20
-405.227
 30
0.000000
  70
    32
  0
VERTEX
  8
┌▓È_1
  5
486
 10
972.795
 20
-405.232
 30
0.000000
  70
    32
  0
VERTEX
  8
┌▓È_1
  5
487
 10
972.825
 20
-405.237
 30
0.000000
  70
    32
  0
VERTEX
  8
┌▓È_1
  5
488
 10
972.854
 20
-405.243
 30
0.000000
  70
    32
  0
VERTEX
  8
┌▓È_1
  5
489
 10
972.884
 20
-405.248
 30
0.000000
  70
    32
  0
VERTEX
  8
┌▓È_1
  5
48A
 10
972.914
 20
-405.253
 30
0.000000
  70
    32
  0
VERTEX
  8
┌▓È_1
  5
48B
 10
972.943
 20
-405.258
 30
0.000000
  70
    32
  0
VERTEX
  8
┌▓È_1
  5
48C
 10
972.973
 20
-405.263
 30
0.000000
  70
    32
  0
VERTEX
  8
┌▓È_1
  5
48D
 10
973.003
 20
-405.268
 30
0.000000
  70
    32
  0
VERTEX
  8
┌▓È_1
  5
48E
 10
973.032
 20
-405.274
 30
0.000000
  70
    32
  0
VERTEX
  8
┌▓È_1
  5
48F
 10
973.062
 20
-405.279
 30
0.000000
  70
    32
  0
VERTEX
  8
┌▓È_1
  5
490
 10
973.092
 20
-405.284
 30
0.000000
  70
    32
  0
VERTEX
  8
┌▓È_1
  5
491
 10
973.122
 20
-405.289
 30
0.000000
  70
    32
  0
VERTEX
  8
┌▓È_1
  5
492
 10
973.151
 20
-405.294
 30
0.000000
  70
    32
  0
VERTEX
  8
┌▓È_1
  5
493
 10
973.181
 20
-405.299
 30
0.000000
  70
    32
  0
VERTEX
  8
┌▓È_1
  5
494
 10
973.211
 20
-405.304
 30
0.000000
  70
    32
  0
VERTEX
  8
┌▓È_1
  5
495
 10
973.241
 20
-405.309
 30
0.000000
  70
    32
  0
VERTEX
  8
┌▓È_1
  5
496
 10
973.270
 20
-405.314
 30
0.000000
  70
    32
  0
VERTEX
  8
┌▓È_1
  5
497
 10
973.300
 20
-405.319
 30
0.000000
  70
    32
  0
VERTEX
  8
┌▓È_1
  5
498
 10
973.330
 20
-405.324
 30
0.000000
  70
    32
  0
VERTEX
  8
┌▓È_1
  5
499
 10
973.360
 20
-405.329
 30
0.000000
  70
    32
  0
VERTEX
  8
┌▓È_1
  5
49A
 10
973.389
 20
-405.334
 30
0.000000
  70
    32
  0
VERTEX
  8
┌▓È_1
  5
49B
 10
973.419
 20
-405.340
 30
0.000000
  70
    32
  0
VERTEX
  8
┌▓È_1
  5
49C
 10
973.449
 20
-405.345
 30
0.000000
  70
    32
  0
VERTEX
  8
┌▓È_1
  5
49D
 10
973.479
 20
-405.350
 30
0.000000
  70
    32
  0
VERTEX
  8
┌▓È_1
  5
49E
 10
973.508
 20
-405.355
 30
0.000000
  70
    32
  0
VERTEX
  8
┌▓È_1
  5
49F
 10
973.538
 20
-405.360
 30
0.000000
  70
    32
  0
VERTEX
  8
┌▓È_1
  5
4A0
 10
973.568
 20
-405.365
 30
0.000000
  70
    32
  0
VERTEX
  8
┌▓È_1
  5
4A1
 10
973.598
 20
-405.370
 30
0.000000
  70
    32
  0
VERTEX
  8
┌▓È_1
  5
4A2
 10
973.628
 20
-405.375
 30
0.000000
  70
    32
  0
VERTEX
  8
┌▓È_1
  5
4A3
 10
973.657
 20
-405.380
 30
0.000000
  70
    32
  0
VERTEX
  8
┌▓È_1
  5
4A4
 10
973.687
 20
-405.385
 30
0.000000
  70
    32
  0
SEQEND
  8
┌▓È_1
  5
4A5
  0
LINE
  5
1C3
  8
┌▓È_1
 62
     5
 10
988.43510601859998
 20
-408.58480388819999
 30
0.0
 11
987.79051294229998
 21
-406.34480388819998
 31
0.0
  0
LINE
  5
1C4
  8
┌▓È_1
 62
     5
 10
945.43016408440008
 20
-402.18480388820001
 30
0.0
 11
948.63016408440012
 21
-402.18480388820001
 31
0.0
  0
LINE
  5
1C5
  8
┌▓È_1
 62
     5
 10
948.63016408440012
 20
-402.18480388820001
 30
0.0
 11
948.63016408440012
 21
-402.98480388820002
 31
0.0
  0
LINE
  5
1C6
  8
┌▓È_1
 62
     5
 10
977.23510601860005
 20
-399.30480388820001
 30
0.0
 11
981.23297268520002
 21
-399.30480388820001
 31
0.0
  0
INSERT
  5
1C7
  8
0
  6
CONTINUOUS
  2
*U39
 10
0.0
 20
0.0
 30
0.0
  0
LINE
  5
1C8
  8
┌▓È_1
 10
873.03576135240007
 20
-359.8410806352
 30
0.0
 11
873.03576135240007
 21
-410.84108063519989
 31
0.0
  0
LINE
  5
1C9
  8
┌▓È_1
  6
STITCH
 10
666.94610474379999
 20
-116.1670005854
 30
0.0
 11
669.44610474379988
 21
-113.6670005854
 31
0.0
  0
LINE
  5
1CA
  8
┌▓È_1
  6
STITCH
 10
669.44610474379988
 20
-123.6670005854
 30
0.0
 11
666.94610474379999
 21
-121.1670005854
 31
0.0
  0
LINE
  5
1CB
  8
┌▓È_1
  6
STITCH
 10
666.94610474379999
 20
-156.16700058539999
 30
0.0
 11
669.44610474379988
 21
-153.66700058539999
 31
0.0
  0
LINE
  5
1CC
  8
┌▓È_1
  6
STITCH
 10
666.94610474379999
 20
-156.16700058539999
 30
0.0
 11
664.44610474379988
 21
-156.16700058539999
 31
0.0
  0
LINE
  5
1CD
  8
┌▓È_1
  6
STITCH
 10
666.94610474379999
 20
-156.16700058539999
 30
0.0
 11
666.94610474379999
 21
-161.16700058539999
 31
0.0
  0
LINE
  5
1CE
  8
┌▓È_1
  6
STITCH
 10
666.94610474379999
 20
-161.16700058539999
 30
0.0
 11
664.44610474379988
 21
-161.16700058539999
 31
0.0
  0
LINE
  5
1CF
  8
┌▓È_1
  6
BORDER
 62
     3
 10
673.94610474379988
 20
-158.66700058539999
 30
0.0
 11
659.94610474379988
 21
-158.66700058539999
 31
0.0
  0
LINE
  5
1D0
  8
┌▓È_1
  6
BORDER
 62
     3
 10
673.94610474379988
 20
-118.6670005854
 30
0.0
 11
659.94610474379988
 21
-118.6670005854
 31
0.0
  0
ARC
  5
1D1
  8
┌▓È_1
 62
     5
 10
669.44610474379988
 20
-178.16700058539999
 30
0.0
 40
4.5
 50
180.0
 51
270.0
  0
LINE
  5
1D2
  8
┌▓È_1
 62
     5
 10
669.44610474379988
 20
-182.66700058539999
 30
0.0
 11
739.94610474379988
 21
-182.66700058539999
 31
0.0
  0
LINE
  5
1D3
  8
┌▓È_1
 62
     5
 10
739.94610474379988
 20
-295.30508652290001
 30
0.0
 11
739.94610474379988
 21
-279.30508652290001
 31
0.0
  0
LINE
  5
1D4
  8
┌▓È_1
  6
STITCH
 10
669.94610474379988
 20
-279.30508652290001
 30
0.0
 11
669.94610474379988
 21
-295.30508652290001
 31
0.0
  0
CIRCLE
  5
1D5
  8
┌▓È_1
  6
STITCH
 10
728.94610474379999
 20
-287.30508652290001
 30
0.0
 40
5.0
  0
CIRCLE
  5
1D6
  8
┌▓È_1
  6
STITCH
 10
688.94610474379999
 20
-287.30508652290001
 30
0.0
 40
5.0
  0
LINE
  5
1D7
  8
┌▓È_1
  6
BORDER
 62
     3
 10
688.94610474379999
 20
-280.30508652290001
 30
0.0
 11
688.94610474379999
 21
-294.30508652290001
 31
0.0
  0
CIRCLE
  5
1D8
  8
┌▓È_1
 62
     5
 10
688.94610474379999
 20
-287.30508652290001
 30
0.0
 40
2.5
  0
CIRCLE
  5
1D9
  8
┌▓È_1
 62
     5
 10
728.94610474379999
 20
-287.30508652290001
 30
0.0
 40
2.5
  0
LINE
  5
1DA
  8
┌▓È_1
 62
     5
 10
664.94610474379988
 20
-295.30508652290001
 30
0.0
 11
739.94610474379988
 21
-295.30508652290001
 31
0.0
  0
LINE
  5
1DB
  8
┌▓È_1
 62
     5
 10
664.94610474379988
 20
-178.16700058539999
 30
0.0
 11
664.94610474379988
 21
-107.6670005854
 31
0.0
  0
LINE
  5
1DC
  8
┌▓È_1
 62
     5
 10
739.94610474379988
 20
-182.66700058539999
 30
0.0
 11
739.94610474379988
 21
-178.16700058539999
 31
0.0
  0
LINE
  5
1DD
  8
┌▓È_1
 62
     5
 10
669.44610474379988
 20
-178.16700058539999
 30
0.0
 11
739.94610474379988
 21
-178.16700058539999
 31
0.0
  0
LINE
  5
1DE
  8
┌▓È_1
  6
STITCH
 10
723.94610474379988
 20
-178.16700058539999
 30
0.0
 11
726.44610474379999
 21
-180.66700058539999
 31
0.0
  0
LINE
  5
1DF
  8
┌▓È_1
  6
STITCH
 10
731.44610474379988
 20
-180.66700058539999
 30
0.0
 11
733.94610474379999
 21
-178.16700058539999
 31
0.0
  0
LINE
  5
1E0
  8
┌▓È_1
  6
STITCH
 10
731.44610474379988
 20
-180.66700058539999
 30
0.0
 11
731.44610474379988
 21
-183.16700058539999
 31
0.0
  0
LINE
  5
1E1
  8
┌▓È_1
  6
STITCH
 10
731.44610474379988
 20
-180.66700058539999
 30
0.0
 11
726.44610474379999
 21
-180.66700058539999
 31
0.0
  0
CIRCLE
  5
1E2
  8
┌▓È_1
 62
     5
 10
858.25157349380015
 20
-118.6670005854
 30
0.0
 40
2.5
  0
LINE
  5
1E3
  8
┌▓È_1
  6
BORDER
 62
     3
 10
858.25157349380015
 20
-111.6670005854
 30
0.0
 11
858.25157349380015
 21
-125.6670005854
 31
0.0
  0
LINE
  5
1E4
  8
┌▓È_1
  6
BORDER
 62
     3
 10
851.25157349380004
 20
-118.6670005854
 30
0.0
 11
865.25157349380015
 21
-118.6670005854
 31
0.0
  0
LINE
  5
1E5
  8
┌▓È_1
 62
     5
 10
866.25157349380015
 20
-182.66700058539999
 30
0.0
 11
866.25157349380015
 21
-107.6670005854
 31
0.0
  0
LINE
  5
1E6
  8
┌▓È_1
  6
BORDER
 62
     3
 10
851.25157349380004
 20
-158.66700058539999
 30
0.0
 11
865.25157349380015
 21
-158.66700058539999
 31
0.0
  0
LINE
  5
1E7
  8
┌▓È_1
  6
BORDER
 62
     3
 10
858.25157349380015
 20
-151.66700058539999
 30
0.0
 11
858.25157349380015
 21
-165.66700058539999
 31
0.0
  0
CIRCLE
  5
1E8
  8
┌▓È_1
 62
     5
 10
858.25157349380015
 20
-158.66700058539999
 30
0.0
 40
2.5
  0
CIRCLE
  5
1E9
  8
┌▓È_1
 62
     5
 10
858.25157349380015
 20
-158.66700058539999
 30
0.0
 40
5.0
  0
LINE
  5
1EA
  8
┌▓È_1
 62
     5
 10
1011.7141802647
 20
-207.3140708979
 30
0.0
 11
1011.7141802647
 21
-221.0640708979
 31
0.0
  0
LINE
  5
1EB
  8
┌▓È_1
 62
     5
 10
986.71418026469985
 20
-207.3140708979
 30
0.0
 11
986.71418026469985
 21
-221.0640708979
 31
0.0
  0
LINE
  5
1EC
  8
┌▓È_1
 62
     5
 10
1011.7141802647
 20
-207.3140708979
 30
0.0
 11
1020.4641802647
 21
-198.5640708979
 31
0.0
  0
LINE
  5
1ED
  8
┌▓È_1
  6
BORDER
 62
     3
 10
999.21418026469985
 20
-192.04734954369999
 30
0.0
 11
999.21418026469985
 21
-225.54734954369999
 31
0.0
  0
LINE
  5
1EE
  8
┌▓È_1
 62
     5
 10
986.71418026469985
 20
-207.3140708979
 30
0.0
 11
1011.7141802647
 21
-207.3140708979
 31
0.0
  0
LINE
  5
1EF
  8
┌▓È_1
 62
     5
 10
977.96418026469985
 20
-198.5640708979
 30
0.0
 11
986.71418026469985
 21
-207.3140708979
 31
0.0
  0
LINE
  5
1F0
  8
┌▓È_1
 62
     5
 10
963.28405063499986
 20
-198.5640708979
 30
0.0
 11
1036.2826617461001
 21
-198.5640708979
 31
0.0
  0
LINE
  5
1F1
  8
┌▓È_1
 62
     5
 10
963.28405063499986
 20
-221.0640708979
 30
0.0
 11
1036.2826617461001
 21
-221.0640708979
 31
0.0
  0
CIRCLE
  5
1F2
  8
┌▓È_1
 62
     5
 10
858.25157349380015
 20
-118.6670005854
 30
0.0
 40
5.0
  0
LINE
  5
1F3
  8
┌▓È_1
  6
BORDER
 62
     3
 10
728.94610474379999
 20
-173.66700058539999
 30
0.0
 11
728.94610474379999
 21
-187.66700058539999
 31
0.0
  0
LINE
  5
1F4
  8
┌▓È_1
  6
BORDER
 62
     3
 10
688.94610474379999
 20
-173.66700058539999
 30
0.0
 11
688.94610474379999
 21
-187.66700058539999
 31
0.0
  0
LINE
  5
1F5
  8
┌▓È_1
 62
     5
 10
669.44610474379988
 20
-107.6670005854
 30
0.0
 11
664.94610474379988
 21
-107.6670005854
 31
0.0
  0
LINE
  5
1F6
  8
┌▓È_1
 62
     5
 10
669.44610474379988
 20
-178.16700058539999
 30
0.0
 11
669.44610474379988
 21
-107.6670005854
 31
0.0
  0
LINE
  5
1F7
  8
┌▓È_1
  6
STITCH
 10
669.44610474379988
 20
-163.66700058539999
 30
0.0
 11
666.94610474379999
 21
-161.16700058539999
 31
0.0
  0
LINE
  5
1F8
  8
┌▓È_1
  6
STITCH
 10
666.94610474379999
 20
-121.1670005854
 30
0.0
 11
664.44610474379988
 21
-121.1670005854
 31
0.0
  0
LINE
  5
1F9
  8
┌▓È_1
  6
STITCH
 10
666.94610474379999
 20
-116.1670005854
 30
0.0
 11
666.94610474379999
 21
-121.1670005854
 31
0.0
  0
LINE
  5
1FA
  8
┌▓È_1
  6
STITCH
 10
666.94610474379999
 20
-116.1670005854
 30
0.0
 11
664.44610474379988
 21
-116.1670005854
 31
0.0
  0
ENDSEC
  0
EOF
