  0
SECTION
  2
HEADER
  9
$ACADVER
  1
AC1009
  9
$INSBASE
 10
0.0
 20
0.0
 30
0.0
  9
$EXTMIN
 10
561.47801544399999
 20
-409.5878849883
 30
0.0
  9
$EXTMAX
 10
1111.478015444
 20
-29.587884988300001
 30
0.0
  9
$LIMMIN
 10
0.0
 20
0.0
  9
$LIMMAX
 10
0.0
 20
0.0
  9
$ORTHOMODE
 70
     0
  9
$REGENMODE
 70
     1
  9
$FILLMODE
 70
     1
  9
$QTEXTMODE
 70
     0
  9
$MIRRTEXT
 70
     1
  9
$DRAGMODE
 70
     2
  9
$LTSCALE
 40
1.0
  9
$OSMODE
 70
    31
  9
$ATTMODE
 70
     1
  9
$TEXTSIZE
 40
0.0
  9
$TRACEWID
 40
0.05
  9
$TEXTSTYLE
  7
STANDARD
  9
$CLAYER
  8
0
  9
$CELTYPE
  6
CONTINUOUS
  9
$CECOLOR
 62
   256
  9
$DIMSCALE
 40
1.0
  9
$DIMASZ
 40
0.18
  9
$DIMEXO
 40
0.0625
  9
$DIMDLI
 40
0.38
  9
$DIMRND
 40
0.0
  9
$DIMDLE
 40
0.0
  9
$DIMEXE
 40
0.18
  9
$DIMTP
 40
0.0
  9
$DIMTM
 40
0.0
  9
$DIMTXT
 40
0.18
  9
$DIMCEN
 40
0.09
  9
$DIMTSZ
 40
0.0
  9
$DIMTOL
 70
     0
  9
$DIMLIM
 70
     0
  9
$DIMTIH
 70
     1
  9
$DIMTOH
 70
     1
  9
$DIMSE1
 70
     0
  9
$DIMSE2
 70
     0
  9
$DIMTAD
 70
     0
  9
$DIMZIN
 70
     0
  9
$DIMBLK
  1

  9
$DIMASO
 70
     1
  9
$DIMSHO
 70
     1
  9
$DIMPOST
  1

  9
$DIMAPOST
  1

  9
$DIMALT
 70
     0
  9
$DIMALTD
 70
     2
  9
$DIMALTF
 40
25.399999999999999
  9
$DIMLFAC
 40
1.0
  9
$DIMTOFL
 70
     0
  9
$DIMTVP
 40
0.0
  9
$DIMTIX
 70
     0
  9
$DIMSOXD
 70
     0
  9
$DIMSAH
 70
     0
  9
$DIMBLK1
  1

  9
$DIMBLK2
  1

  9
$DIMSTYLE
  2
STANDARD
  9
$DIMCLRD
 70
     0
  9
$DIMCLRE
 70
     0
  9
$DIMCLRT
 70
     0
  9
$DIMTFAC
 40
1.0
  9
$DIMGAP
 40
0.09
  9
$LUNITS
 70
     2
  9
$LUPREC
 70
     4
  9
$SKETCHINC
 40
0.1
  9
$FILLETRAD
 40
0.0
  9
$AUNITS
 70
     0
  9
$AUPREC
 70
     0
  9
$MENU
  1
acad
  9
$ELEVATION
 40
0.0
  9
$PELEVATION
 40
0.0
  9
$THICKNESS
 40
0.0
  9
$LIMCHECK
 70
     0
  9
$BLIPMODE
 70
     0
  9
$CHAMFERA
 40
0.0
  9
$CHAMFERB
 40
0.0
  9
$SKPOLY
 70
     0
  9
$TDCREATE
 40
2454862.7727390742
  9
$TDUPDATE
 40
2454862.7729148502
  9
$TDINDWG
 40
0.0001840972
  9
$TDUSRTIMER
 40
0.0001837384
  9
$USRTIMER
 70
     1
  9
$ANGBASE
 50
0.0
  9
$ANGDIR
 70
     0
  9
$PDMODE
 70
     3
  9
$PDSIZE
 40
-1.0
  9
$PLINEWID
 40
0.0
  9
$COORDS
 70
     2
  9
$SPLFRAME
 70
     0
  9
$SPLINETYPE
 70
     6
  9
$SPLINESEGS
 70
     8
  9
$ATTDIA
 70
     0
  9
$ATTREQ
 70
     1
  9
$HANDLING
 70
     1
  9
$HANDSEED
  5
4A6
  9
$SURFTAB1
 70
     6
  9
$SURFTAB2
 70
     6
  9
$SURFTYPE
 70
     6
  9
$SURFU
 70
     6
  9
$SURFV
 70
     6
  9
$UCSNAME
  2

  9
$UCSORG
 10
0.0
 20
0.0
 30
0.0
  9
$UCSXDIR
 10
1.0
 20
0.0
 30
0.0
  9
$UCSYDIR
 10
0.0
 20
1.0
 30
0.0
  9
$PUCSNAME
  2

  9
$PUCSORG
 10
0.0
 20
0.0
 30
0.0
  9
$PUCSXDIR
 10
1.0
 20
0.0
 30
0.0
  9
$PUCSYDIR
 10
0.0
 20
1.0
 30
0.0
  9
$USERI1
 70
     0
  9
$USERI2
 70
     0
  9
$USERI3
 70
     0
  9
$USERI4
 70
     0
  9
$USERI5
 70
     0
  9
$USERR1
 40
0.0
  9
$USERR2
 40
0.0
  9
$USERR3
 40
0.0
  9
$USERR4
 40
0.0
  9
$USERR5
 40
0.0
  9
$WORLDVIEW
 70
     1
  9
$SHADEDGE
 70
     3
  9
$SHADEDIF
 70
    70
  9
$TILEMODE
 70
     1
  9
$MAXACTVP
 70
    16
  9
$PLIMCHECK
 70
     0
  9
$PEXTMIN
 10
1.0000000000000000E+020
 20
1.0000000000000000E+020
 30
1.0000000000000000E+020
  9
$PEXTMAX
 10
-1.0000000000000000E+020
 20
-1.0000000000000000E+020
 30
-1.0000000000000000E+020
  9
$PLIMMIN
 10
0.0
 20
0.0
  9
$PLIMMAX
 10
12.0
 20
9.0
  9
$UNITMODE
 70
     0
  9
$VISRETAIN
 70
     0
  9
$PLINEGEN
 70
     1
  9
$PSLTSCALE
 70
     0
  0
ENDSEC
  0
SECTION
  2
TABLES
  0
TABLE
  2
VPORT
 70
     2
  0
VPORT
  2
*ACTIVE
 70
     0
 10
0.0
 20
0.0
 11
1.0
 21
1.0
 12
836.47801544399999
 22
-219.5878849883
 13
0.0
 23
0.0
 14
1.0
 24
1.0
 15
0.0
 25
0.0
 16
0.0
 26
0.0
 36
1.0
 17
0.0
 27
0.0
 37
0.0
 40
397.98585584749179
 41
1.3903818953323901
 42
50.0
 43
0.0
 44
0.0
 50
0.0
 51
0.0
 71
     0
 72
   100
 73
     1
 74
     1
 75
     0
 76
     0
 77
     0
 78
     0
  0
ENDTAB
  0
TABLE
  2
LTYPE
 70
    11
  0
LTYPE
  2
CONTINUOUS
 70
     0
  3
Solid line
 72
    65
 73
     0
 40
0.0
  0
LTYPE
  2
DOT
 70
     0
  3
. . . . . . . . 
 72
    65
 73
     2
 40
1.0
 49
0.0
 49
-1.0
  0
LTYPE
  2
DASHED
 70
     0
  3
___  ___  ___  ___  
 72
    65
 73
     2
 40
4.0
 49
3.0
 49
-1.0
  0
LTYPE
  2
HIDDEN
 70
     0
  3
__ __ __ __ 
 72
    65
 73
     2
 40
3.0
 49
2.0
 49
-1.0
  0
LTYPE
  2
STITCH
 70
     0
  3
_ _ _ _ 
 72
    65
 73
     2
 40
2.0
 49
1.0
 49
-1.0
  0
LTYPE
  2
CENTER
 70
     0
  3
______  __  ______  __  
 72
    65
 73
     4
 40
43.0
 49
40.0
 49
-1.0
 49
1.0
 49
-1.0
  0
LTYPE
  2
DASHDOT
 70
     0
  3
____ . ____ . 
 72
    65
 73
     4
 40
32.0
 49
30.0
 49
-1.0
 49
0.0
 49
-1.0
  0
LTYPE
  2
BORDER
 70
     0
  3
__ . __ . 
 72
    65
 73
     4
 40
22.0
 49
20.0
 49
-1.0
 49
0.0
 49
-1.0
  0
LTYPE
  2
CUTTING
 70
     0
  3
________   ___   ___   
 72
    65
 73
     6
 40
45.0
 49
40.0
 49
-1.0
 49
1.0
 49
-1.0
 49
1.0
 49
-1.0
  0
LTYPE
  2
PHANTOM
 70
     0
  3
______  __  __  
 72
    65
 73
     6
 40
35.0
 49
30.0
 49
-1.0
 49
1.0
 49
-1.0
 49
1.0
 49
-1.0
  0
LTYPE
  2
DIVIDE
 70
     0
  3
____ . . ____ . . 
 72
    65
 73
     6
 40
23.0
 49
20.0
 49
-1.0
 49
0.0
 49
-1.0
 49
0.0
 49
-1.0
  0
ENDTAB
  0
TABLE
  2
LAYER
 70
     4
  0
LAYER
  2
0
 70
     0
 62
     7
  6
CONTINUOUS
  0
LAYER
  2
Éíû@É³
 70
     0
 62
     7
  6
CONTINUOUS
  0
LAYER
  2
┌▓È_1
 70
     0
 62
     7
  6
CONTINUOUS
  0
LAYER
  2
Defpoints
 70
     0
 62
     7
  6
CONTINUOUS
  0
ENDTAB
  0
TABLE
  2
STYLE
 70
     1
  0
STYLE
  2
STANDARD
 70
     0
 40
0.0
 41
1.0
 50
0.0
 71
     0
 42
0.0
  3
txt
  4
extfont
  0
ENDTAB
  0
TABLE
  2
VIEW
 70
     0
  0
ENDTAB
  0
TABLE
  2
UCS
 70
     0
  0
ENDTAB
  0
TABLE
  2
APPID
 70
     2
  0
APPID
  2
ACAD
 70
     0
  0
APPID
  2
DCO15
 70
     0
  0
ENDTAB
  0
TABLE
  2
DIMSTYLE
 70
     4
  0
DIMSTYLE
  2
STANDARD
 70
     0
  3

  4

  5

  6

  7

 40
1.0
 41
0.18
 42
0.0625
 43
0.38
 44
0.18
 45
0.0
 46
0.0
 47
0.0
 48
0.0
140
0.18
141
0.09
142
0.0
143
25.399999999999999
144
1.0
145
0.0
146
1.0
147
0.09
 71
     0
 72
     0
 73
     1
 74
     1
 75
     0
 76
     0
 77
     0
 78
     0
170
     0
171
     2
172
     0
173
     0
174
     0
175
     0
176
     0
177
     0
178
     0
  0
DIMSTYLE
  2
VELDIM0
 70
     0
  3

  4

  5

  6

  7

 40
1.0
 41
6.0
 42
0.0625
 43
0.38
 44
1.0
 45
0.0
 46
6.0
 47
0.0
 48
0.0
140
5.9972220420999998
141
0.09
142
0.0
143
25.399999999999999
144
1.0
145
0.0
146
1.0
147
0.09
 71
     0
 72
     0
 73
     0
 74
     0
 75
     0
 76
     0
 77
     0
 78
     8
170
     0
171
     2
172
     0
173
     0
174
     0
175
     0
176
     0
177
     0
178
     0
  0
DIMSTYLE
  2
VELDIM1
 70
     0
  3

  4

  5

  6

  7

 40
1.0
 41
6.0
 42
0.0625
 43
0.38
 44
0.5
 45
0.0
 46
3.0
 47
0.0
 48
0.0
140
5.9972220420999998
141
0.09
142
0.0
143
25.399999999999999
144
1.0
145
0.0
146
1.0
147
0.09
 71
     0
 72
     0
 73
     0
 74
     0
 75
     0
 76
     0
 77
     0
 78
     8
170
     0
171
     2
172
     0
173
     0
174
     0
175
     0
176
     0
177
     0
178
     0
  0
DIMSTYLE
  2
VELDIM2
 70
     0
  3

  4

  5

  6

  7

 40
1.0
 41
6.0
 42
0.0625
 43
0.38
 44
1.25
 45
0.0
 46
5.0
 47
0.0
 48
0.0
140
5.9972220420999998
141
0.09
142
0.0
143
25.399999999999999
144
1.0
145
0.0
146
1.0
147
0.09
 71
     0
 72
     0
 73
     0
 74
     0
 75
     0
 76
     0
 77
     0
 78
     8
170
     0
171
     2
172
     0
173
     0
174
     0
175
     0
176
     0
177
     0
178
     0
  0
ENDTAB
  0
ENDSEC
  0
SECTION
  2
BLOCKS
  0
BLOCK
  8
0
  2
$MODEL_SPACE
 70
     0
 10
0.0
 20
0.0
 30
0.0
  3
$MODEL_SPACE
  1

  0
ENDBLK
  5
E
  8
0
  0
BLOCK
 67
     1
  8
0
  2
$PAPER_SPACE
 70
     0
 10
0.0
 20
0.0
 30
0.0
  3
$PAPER_SPACE
  1

  0
ENDBLK
  5
10
 67
     1
  8
0
  0
BLOCK
  8
0
  2
*D0
 70
     1
 10
0.0
 20
0.0
 30
0.0
  3
*D0
  1

  0
TEXT
  5
31
  8
0
 62
     0
 10
854.16516341320005
 20
-96.240352226900001
 30
0.0
 40
5.9972220420999998
  1
8
  0
LINE
  5
32
  8
0
 62
     0
 10
871.97825520829997
 20
-118.2986855284
 30
0.0
 11
871.97825520829997
 21
-98.2986855284
 31
0.0
  0
LINE
  5
33
  8
0
 62
     0
 10
863.97825520829997
 20
-117.2986855284
 30
0.0
 11
863.97825520829997
 21
-98.2986855284
 31
0.0
  0
LINE
  5
34
  8
0
 62
     0
 10
871.97825520829997
 20
-99.2986855284
 30
0.0
 11
861.2207187567999
 21
-99.2986855284
 31
0.0
  0
LINE
  5
35
  8
0
 62
     0
 10
871.97825520829997
 20
-99.2986855284
 30
0.0
 11
850.63738574139995
 21
-99.2986855284
 31
0.0
  0
LINE
  5
36
  8
0
 62
     0
 10
863.97825520829997
 20
-99.2986855284
 30
0.0
 11
861.2207187567999
 21
-99.2986855284
 31
0.0
  0
LINE
  5
37
  8
0
 62
     0
 10
863.97825520829997
 20
-99.2986855284
 30
0.0
 11
850.63738574139995
 21
-99.2986855284
 31
0.0
  0
LINE
  5
38
  8
0
 62
     0
 10
863.97825520829997
 20
-99.2986855284
 30
0.0
 11
857.97825520829986
 21
-99.2986855284
 31
0.0
  0
SOLID
  5
39
  8
0
 62
     0
 10
863.97825520829997
 20
-99.2986855284
 30
0.0
 11
857.97825520829986
 21
-100.7986855284
 31
0.0
 12
857.97825520829986
 22
-97.7986855284
 32
0.0
 13
859.47825520829997
 23
-99.2986855284
 33
0.0
  0
LINE
  5
3A
  8
0
 62
     0
 10
871.97825520829997
 20
-99.2986855284
 30
0.0
 11
877.97825520829997
 21
-99.2986855284
 31
0.0
  0
SOLID
  5
3B
  8
0
 62
     0
 10
871.97825520829997
 20
-99.2986855284
 30
0.0
 11
877.97825520829997
 21
-97.7986855284
 31
0.0
 12
877.97825520829997
 22
-100.7986855284
 32
0.0
 13
876.47825520829997
 23
-99.2986855284
 33
0.0
  0
ENDBLK
  5
3C
  8
0
  0
BLOCK
  8
0
  2
*D1
 70
     1
 10
0.0
 20
0.0
 30
0.0
  3
*D1
  1

  0
TEXT
  5
41
  8
0
 62
     0
 10
887.25630529679995
 20
-96.240352226900001
 30
0.0
 40
5.9972220420999998
  1
8
  0
LINE
  5
42
  8
0
 62
     0
 10
879.97825520829997
 20
-117.2986855284
 30
0.0
 11
879.97825520829997
 21
-98.2986855284
 31
0.0
  0
LINE
  5
43
  8
0
 62
     0
 10
871.97825520829997
 20
-118.2986855284
 30
0.0
 11
871.97825520829997
 21
-98.2986855284
 31
0.0
  0
LINE
  5
44
  8
0
 62
     0
 10
879.97825520829997
 20
-99.2986855284
 30
0.0
 11
894.31186064050007
 21
-99.2986855284
 31
0.0
  0
LINE
  5
45
  8
0
 62
     0
 10
879.97825520829997
 20
-99.2986855284
 30
0.0
 11
883.72852762499997
 21
-99.2986855284
 31
0.0
  0
LINE
  5
46
  8
0
 62
     0
 10
871.97825520829997
 20
-99.2986855284
 30
0.0
 11
894.31186064050007
 21
-99.2986855284
 31
0.0
  0
LINE
  5
47
  8
0
 62
     0
 10
871.97825520829997
 20
-99.2986855284
 30
0.0
 11
883.72852762499997
 21
-99.2986855284
 31
0.0
  0
LINE
  5
48
  8
0
 62
     0
 10
871.97825520829997
 20
-99.2986855284
 30
0.0
 11
865.97825520829986
 21
-99.2986855284
 31
0.0
  0
SOLID
  5
49
  8
0
 62
     0
 10
871.97825520829997
 20
-99.2986855284
 30
0.0
 11
865.97825520829986
 21
-100.7986855284
 31
0.0
 12
865.97825520829986
 22
-97.7986855284
 32
0.0
 13
867.47825520829997
 23
-99.2986855284
 33
0.0
  0
LINE
  5
4A
  8
0
 62
     0
 10
879.97825520829997
 20
-99.2986855284
 30
0.0
 11
885.97825520829997
 21
-99.2986855284
 31
0.0
  0
SOLID
  5
4B
  8
0
 62
     0
 10
879.97825520829997
 20
-99.2986855284
 30
0.0
 11
885.97825520829997
 21
-97.7986855284
 31
0.0
 12
885.97825520829997
 22
-100.7986855284
 32
0.0
 13
884.47825520829997
 23
-99.2986855284
 33
0.0
  0
ENDBLK
  5
4C
  8
0
  0
BLOCK
  8
0
  2
*D2
 70
     1
 10
0.0
 20
0.0
 30
0.0
  3
*D2
  1

  0
TEXT
  5
51
  8
0
 62
     0
 10
841.91992190680003
 20
-125.0625743643
 30
0.0
 40
5.9972220420999998
  1
8
 50
90.0
  0
LINE
  5
52
  8
0
 62
     0
 10
862.97825520829997
 20
-119.2986855284
 30
0.0
 11
843.47825520829986
 21
-119.2986855284
 31
0.0
  0
LINE
  5
53
  8
0
 62
     0
 10
863.97825520829997
 20
-127.2986855284
 30
0.0
 11
843.47825520829986
 21
-127.2986855284
 31
0.0
  0
LINE
  5
54
  8
0
 62
     0
 10
843.97825520829986
 20
-119.2986855284
 30
0.0
 11
843.97825520829986
 21
-119.2986855284
 31
0.0
  0
LINE
  5
55
  8
0
 62
     0
 10
843.97825520829986
 20
-119.2986855284
 30
0.0
 11
843.97825520829986
 21
-127.2986855284
 31
0.0
  0
LINE
  5
56
  8
0
 62
     0
 10
843.97825520829986
 20
-127.2986855284
 30
0.0
 11
843.97825520829986
 21
-119.2986855284
 31
0.0
  0
LINE
  5
57
  8
0
 62
     0
 10
843.97825520829986
 20
-127.2986855284
 30
0.0
 11
843.97825520829986
 21
-127.2986855284
 31
0.0
  0
LINE
  5
58
  8
0
 62
     0
 10
843.97825520829986
 20
-127.2986855284
 30
0.0
 11
843.97825520829986
 21
-130.2986855284
 31
0.0
  0
SOLID
  5
59
  8
0
 62
     0
 10
843.97825520829986
 20
-127.2986855284
 30
0.0
 11
845.47825520829986
 21
-133.2986855284
 31
0.0
 12
842.47825520829997
 22
-133.2986855284
 32
0.0
 13
843.97825520829986
 23
-131.7986855284
 33
0.0
  0
LINE
  5
5A
  8
0
 62
     0
 10
843.97825520829986
 20
-119.2986855284
 30
0.0
 11
843.97825520829986
 21
-116.2986855284
 31
0.0
  0
SOLID
  5
5B
  8
0
 62
     0
 10
843.97825520829986
 20
-119.2986855284
 30
0.0
 11
842.47825520829997
 21
-113.2986855284
 31
0.0
 12
845.47825520829986
 22
-113.2986855284
 32
0.0
 13
843.97825520829986
 23
-114.7986855284
 33
0.0
  0
ENDBLK
  5
5C
  8
0
  0
BLOCK
  8
0
  2
*D3
 70
     1
 10
0.0
 20
0.0
 30
0.0
  3
*D3
  1

  0
TEXT
  5
60
  8
0
 62
     0
 10
841.91992190680003
 20
-169.32646320020001
 30
0.0
 40
5.9972220420999998
  1
27
 50
90.0
  0
LINE
  5
61
  8
0
 62
     0
 10
863.97825520829997
 20
-152.2986855284
 30
0.0
 11
843.47825520829986
 21
-152.2986855284
 31
0.0
  0
LINE
  5
62
  8
0
 62
     0
 10
862.97825520829997
 20
-179.2986855284
 30
0.0
 11
843.47825520829986
 21
-179.2986855284
 31
0.0
  0
LINE
  5
63
  8
0
 62
     0
 10
843.97825520829986
 20
-152.2986855284
 30
0.0
 11
843.97825520829986
 21
-158.74313018480001
 31
0.0
  0
LINE
  5
64
  8
0
 62
     0
 10
843.97825520829986
 20
-152.2986855284
 30
0.0
 11
843.97825520829986
 21
-172.85424087199999
 31
0.0
  0
LINE
  5
65
  8
0
 62
     0
 10
843.97825520829986
 20
-179.2986855284
 30
0.0
 11
843.97825520829986
 21
-158.74313018480001
 31
0.0
  0
LINE
  5
66
  8
0
 62
     0
 10
843.97825520829986
 20
-179.2986855284
 30
0.0
 11
843.97825520829986
 21
-172.85424087199999
 31
0.0
  0
LINE
  5
67
  8
0
 62
     0
 10
843.97825520829986
 20
-179.2986855284
 30
0.0
 11
843.97825520829986
 21
-176.2986855284
 31
0.0
  0
SOLID
  5
68
  8
0
 62
     0
 10
843.97825520829986
 20
-179.2986855284
 30
0.0
 11
842.47825520829997
 21
-173.2986855284
 31
0.0
 12
845.47825520829986
 22
-173.2986855284
 32
0.0
 13
843.97825520829986
 23
-174.7986855284
 33
0.0
  0
LINE
  5
69
  8
0
 62
     0
 10
843.97825520829986
 20
-152.2986855284
 30
0.0
 11
843.97825520829986
 21
-155.2986855284
 31
0.0
  0
SOLID
  5
6A
  8
0
 62
     0
 10
843.97825520829986
 20
-152.2986855284
 30
0.0
 11
845.47825520829986
 21
-158.2986855284
 31
0.0
 12
842.47825520829997
 22
-158.2986855284
 32
0.0
 13
843.97825520829986
 23
-156.7986855284
 33
0.0
  0
ENDBLK
  5
6B
  8
0
  0
BLOCK
  8
0
  2
*D4
 70
     1
 10
0.0
 20
0.0
 30
0.0
  3
*D4
  1

  0
TEXT
  5
6F
  8
0
 62
     0
 10
841.91992190680003
 20
-143.32646320020001
 30
0.0
 40
5.9972220420999998
  1
25
 50
90.0
  0
LINE
  5
70
  8
0
 62
     0
 10
863.97825520829997
 20
-127.2986855284
 30
0.0
 11
843.47825520829986
 21
-127.2986855284
 31
0.0
  0
LINE
  5
71
  8
0
 62
     0
 10
863.97825520829997
 20
-152.2986855284
 30
0.0
 11
843.47825520829986
 21
-152.2986855284
 31
0.0
  0
LINE
  5
72
  8
0
 62
     0
 10
843.97825520829986
 20
-127.2986855284
 30
0.0
 11
843.97825520829986
 21
-132.74313018480001
 31
0.0
  0
LINE
  5
73
  8
0
 62
     0
 10
843.97825520829986
 20
-127.2986855284
 30
0.0
 11
843.97825520829986
 21
-146.85424087199999
 31
0.0
  0
LINE
  5
74
  8
0
 62
     0
 10
843.97825520829986
 20
-152.2986855284
 30
0.0
 11
843.97825520829986
 21
-132.74313018480001
 31
0.0
  0
LINE
  5
75
  8
0
 62
     0
 10
843.97825520829986
 20
-152.2986855284
 30
0.0
 11
843.97825520829986
 21
-146.85424087199999
 31
0.0
  0
LINE
  5
76
  8
0
 62
     0
 10
843.97825520829986
 20
-152.2986855284
 30
0.0
 11
843.97825520829986
 21
-155.2986855284
 31
0.0
  0
SOLID
  5
77
  8
0
 62
     0
 10
843.97825520829986
 20
-152.2986855284
 30
0.0
 11
845.47825520829986
 21
-158.2986855284
 31
0.0
 12
842.47825520829997
 22
-158.2986855284
 32
0.0
 13
843.97825520829986
 23
-156.7986855284
 33
0.0
  0
LINE
  5
78
  8
0
 62
     0
 10
843.97825520829986
 20
-127.2986855284
 30
0.0
 11
843.97825520829986
 21
-124.2986855284
 31
0.0
  0
SOLID
  5
79
  8
0
 62
     0
 10
843.97825520829986
 20
-127.2986855284
 30
0.0
 11
842.47825520829997
 21
-121.2986855284
 31
0.0
 12
845.47825520829986
 22
-121.2986855284
 32
0.0
 13
843.97825520829986
 23
-122.7986855284
 33
0.0
  0
ENDBLK
  5
7A
  8
0
  0
BLOCK
  8
0
  2
*D5
 70
     1
 10
0.0
 20
0.0
 30
0.0
  3
*D5
  1

  0
TEXT
  5
7E
  8
0
 62
     0
 10
868.45047753649987
 20
-82.364963127699994
 30
0.0
 40
5.9972220420999998
  1
16
  0
LINE
  5
7F
  8
0
 62
     0
 10
879.97825520829997
 20
-118.2986855284
 30
0.0
 11
879.97825520829997
 21
-83.923296429299995
 31
0.0
  0
LINE
  5
80
  8
0
 62
     0
 10
863.97825520829997
 20
-118.2986855284
 30
0.0
 11
863.97825520829997
 21
-83.923296429299995
 31
0.0
  0
LINE
  5
81
  8
0
 62
     0
 10
879.97825520829997
 20
-84.423296429300009
 30
0.0
 11
879.03381055199998
 21
-84.423296429300009
 31
0.0
  0
LINE
  5
82
  8
0
 62
     0
 10
879.97825520829997
 20
-84.423296429300009
 30
0.0
 11
864.92269986470001
 21
-84.423296429300009
 31
0.0
  0
LINE
  5
83
  8
0
 62
     0
 10
863.97825520829997
 20
-84.423296429300009
 30
0.0
 11
879.03381055199998
 21
-84.423296429300009
 31
0.0
  0
LINE
  5
84
  8
0
 62
     0
 10
863.97825520829997
 20
-84.423296429300009
 30
0.0
 11
864.92269986470001
 21
-84.423296429300009
 31
0.0
  0
LINE
  5
85
  8
0
 62
     0
 10
863.97825520829997
 20
-84.423296429300009
 30
0.0
 11
860.97825520829997
 21
-84.423296429300009
 31
0.0
  0
SOLID
  5
86
  8
0
 62
     0
 10
863.97825520829997
 20
-84.423296429300009
 30
0.0
 11
857.97825520829986
 21
-85.923296429300024
 31
0.0
 12
857.97825520829986
 22
-82.923296429300009
 32
0.0
 13
859.47825520829997
 23
-84.423296429300009
 33
0.0
  0
LINE
  5
87
  8
0
 62
     0
 10
879.97825520829997
 20
-84.423296429300009
 30
0.0
 11
882.97825520829986
 21
-84.423296429300009
 31
0.0
  0
SOLID
  5
88
  8
0
 62
     0
 10
879.97825520829997
 20
-84.423296429300009
 30
0.0
 11
885.97825520829997
 21
-82.923296429300009
 31
0.0
 12
885.97825520829997
 22
-85.923296429300024
 32
0.0
 13
884.47825520829997
 23
-84.423296429300009
 33
0.0
  0
ENDBLK
  5
89
  8
0
  0
BLOCK
  8
0
  2
*D6
 70
     1
 10
0.0
 20
0.0
 30
0.0
  3
*D6
  1

  0
TEXT
  5
A6
  8
0
 62
     0
 10
676.2710296752
 20
-140.81046277019999
 30
0.0
 40
5.9972220420999998
  1
90%%d
 50
316.1619796311
  0
ARC
  5
A7
  8
0
 62
     0
 10
650.97045630980006
 20
-174.7986855284
 30
0.0
 40
38.864464464599997
 50
77.356268383200003
 51
90.0
  0
ARC
  5
A8
  8
0
 62
     0
 10
650.97045630980006
 20
-174.7986855284
 30
0.0
 40
38.864464464599997
 50
0.0
 51
12.6437316168
  0
SOLID
  5
A9
  8
0
 62
     0
 10
689.83492077440008
 20
-174.7986855284
 30
0.0
 11
691.33492077439996
 21
-180.7986855284
 31
0.0
 12
688.33492077439996
 22
-180.7986855284
 32
0.0
 13
689.83492077440008
 23
-179.2986855284
 33
0.0
  0
SOLID
  5
AA
  8
0
 62
     0
 10
650.97045630980006
 20
-135.9342210637999
 30
0.0
 11
644.97045630980006
 21
-137.43422106380001
 31
0.0
 12
644.97045630980006
 22
-134.43422106380001
 32
0.0
 13
646.47045630980006
 23
-135.9342210637999
 33
0.0
  0
ARC
  5
AB
  8
0
 62
     0
 10
650.97045630980006
 20
-174.7986855284
 30
0.0
 40
38.864464464599997
 50
0.0
 51
32.911472164599999
  0
ARC
  5
AC
  8
0
 62
     0
 10
650.97045630980006
 20
-174.7986855284
 30
0.0
 40
38.864464464599997
 50
59.412487097599993
 51
90.0
  0
LINE
  5
AD
  8
0
 62
     0
 10
762.47045630979994
 20
-174.7986855284
 30
0.0
 11
685.83492077440008
 21
-174.7986855284
 31
0.0
  0
LINE
  5
AE
  8
0
 62
     0
 10
650.97045630980006
 20
-123.2986855284
 30
0.0
 11
650.97045630980006
 21
-139.93422106380001
 31
0.0
  0
ENDBLK
  5
AF
  8
0
  0
BLOCK
  8
0
  2
*D7
 70
     1
 10
0.0
 20
0.0
 30
0.0
  3
*D7
  1

  0
TEXT
  5
B3
  8
0
 62
     0
 10
712.4426786378998
 20
-246.8091022269
 30
0.0
 40
5.9972220420999998
  1
85
  0
LINE
  5
B4
  8
0
 62
     0
 10
758.47045630979994
 20
-268.86743552839999
 30
0.0
 11
758.47045630979994
 21
-248.36743552839999
 31
0.0
  0
LINE
  5
B5
  8
0
 62
     0
 10
673.47045630980006
 20
-268.86743552839999
 30
0.0
 11
673.47045630980006
 21
-248.36743552839999
 31
0.0
  0
LINE
  5
B6
  8
0
 62
     0
 10
758.47045630979994
 20
-248.86743552839999
 30
0.0
 11
723.02601165340002
 21
-248.86743552839999
 31
0.0
  0
LINE
  5
B7
  8
0
 62
     0
 10
758.47045630979994
 20
-248.86743552839999
 30
0.0
 11
708.91490096610005
 21
-248.86743552839999
 31
0.0
  0
LINE
  5
B8
  8
0
 62
     0
 10
673.47045630980006
 20
-248.86743552839999
 30
0.0
 11
723.02601165340002
 21
-248.86743552839999
 31
0.0
  0
LINE
  5
B9
  8
0
 62
     0
 10
673.47045630980006
 20
-248.86743552839999
 30
0.0
 11
708.91490096610005
 21
-248.86743552839999
 31
0.0
  0
LINE
  5
BA
  8
0
 62
     0
 10
673.47045630980006
 20
-248.86743552839999
 30
0.0
 11
676.47045630980006
 21
-248.86743552839999
 31
0.0
  0
SOLID
  5
BB
  8
0
 62
     0
 10
673.47045630980006
 20
-248.86743552839999
 30
0.0
 11
679.47045630980006
 21
-247.36743552839999
 31
0.0
 12
679.47045630980006
 22
-250.36743552839999
 32
0.0
 13
677.97045630980006
 23
-248.86743552839999
 33
0.0
  0
LINE
  5
BC
  8
0
 62
     0
 10
758.47045630979994
 20
-248.86743552839999
 30
0.0
 11
755.47045630979994
 21
-248.86743552839999
 31
0.0
  0
SOLID
  5
BD
  8
0
 62
     0
 10
758.47045630979994
 20
-248.86743552839999
 30
0.0
 11
752.47045630979994
 21
-250.36743552839999
 31
0.0
 12
752.47045630979994
 22
-247.36743552839999
 32
0.0
 13
753.97045630979994
 23
-248.86743552839999
 33
0.0
  0
ENDBLK
  5
BE
  8
0
  0
BLOCK
  8
0
  2
*D8
 70
     1
 10
0.0
 20
0.0
 30
0.0
  3
*D8
  1

  0
TEXT
  5
C2
  8
0
 62
     0
 10
760.70656747379996
 20
-246.8091022269
 30
0.0
 40
5.9972220420999998
  1
8
  0
LINE
  5
C3
  8
0
 62
     0
 10
766.47045630979994
 20
-267.86743552839999
 30
0.0
 11
766.47045630979994
 21
-248.36743552839999
 31
0.0
  0
LINE
  5
C4
  8
0
 62
     0
 10
758.47045630979994
 20
-268.86743552839999
 30
0.0
 11
758.47045630979994
 21
-248.36743552839999
 31
0.0
  0
LINE
  5
C5
  8
0
 62
     0
 10
766.47045630979994
 20
-248.86743552839999
 30
0.0
 11
766.47045630979994
 21
-248.86743552839999
 31
0.0
  0
LINE
  5
C6
  8
0
 62
     0
 10
766.47045630979994
 20
-248.86743552839999
 30
0.0
 11
758.47045630979994
 21
-248.86743552839999
 31
0.0
  0
LINE
  5
C7
  8
0
 62
     0
 10
758.47045630979994
 20
-248.86743552839999
 30
0.0
 11
766.47045630979994
 21
-248.86743552839999
 31
0.0
  0
LINE
  5
C8
  8
0
 62
     0
 10
758.47045630979994
 20
-248.86743552839999
 30
0.0
 11
758.47045630979994
 21
-248.86743552839999
 31
0.0
  0
LINE
  5
C9
  8
0
 62
     0
 10
758.47045630979994
 20
-248.86743552839999
 30
0.0
 11
755.47045630979994
 21
-248.86743552839999
 31
0.0
  0
SOLID
  5
CA
  8
0
 62
     0
 10
758.47045630979994
 20
-248.86743552839999
 30
0.0
 11
752.47045630979994
 21
-250.36743552839999
 31
0.0
 12
752.47045630979994
 22
-247.36743552839999
 32
0.0
 13
753.97045630979994
 23
-248.86743552839999
 33
0.0
  0
LINE
  5
CB
  8
0
 62
     0
 10
766.47045630979994
 20
-248.86743552839999
 30
0.0
 11
769.47045630979994
 21
-248.86743552839999
 31
0.0
  0
SOLID
  5
CC
  8
0
 62
     0
 10
766.47045630979994
 20
-248.86743552839999
 30
0.0
 11
772.47045630979994
 21
-247.36743552839999
 31
0.0
 12
772.47045630979994
 22
-250.36743552839999
 32
0.0
 13
770.97045630979994
 23
-248.86743552839999
 33
0.0
  0
ENDBLK
  5
CD
  8
0
  0
BLOCK
  8
0
  2
*D9
 70
     1
 10
0.0
 20
0.0
 30
0.0
  3
*D9
  1

  0
TEXT
  5
D1
  8
0
 62
     0
 10
656.44267863790003
 20
-246.8091022269
 30
0.0
 40
5.9972220420999998
  1
27
  0
LINE
  5
D2
  8
0
 62
     0
 10
673.47045630980006
 20
-268.86743552839999
 30
0.0
 11
673.47045630980006
 21
-248.36743552839999
 31
0.0
  0
LINE
  5
D3
  8
0
 62
     0
 10
646.47045630980006
 20
-267.86743552839999
 30
0.0
 11
646.47045630980006
 21
-248.36743552839999
 31
0.0
  0
LINE
  5
D4
  8
0
 62
     0
 10
673.47045630980006
 20
-248.86743552839999
 30
0.0
 11
667.02601165340002
 21
-248.86743552839999
 31
0.0
  0
LINE
  5
D5
  8
0
 62
     0
 10
673.47045630980006
 20
-248.86743552839999
 30
0.0
 11
652.91490096610005
 21
-248.86743552839999
 31
0.0
  0
LINE
  5
D6
  8
0
 62
     0
 10
646.47045630980006
 20
-248.86743552839999
 30
0.0
 11
667.02601165340002
 21
-248.86743552839999
 31
0.0
  0
LINE
  5
D7
  8
0
 62
     0
 10
646.47045630980006
 20
-248.86743552839999
 30
0.0
 11
652.91490096610005
 21
-248.86743552839999
 31
0.0
  0
LINE
  5
D8
  8
0
 62
     0
 10
646.47045630980006
 20
-248.86743552839999
 30
0.0
 11
649.47045630980006
 21
-248.86743552839999
 31
0.0
  0
SOLID
  5
D9
  8
0
 62
     0
 10
646.47045630980006
 20
-248.86743552839999
 30
0.0
 11
652.47045630980006
 21
-247.36743552839999
 31
0.0
 12
652.47045630980006
 22
-250.36743552839999
 32
0.0
 13
650.97045630980006
 23
-248.86743552839999
 33
0.0
  0
LINE
  5
DA
  8
0
 62
     0
 10
673.47045630980006
 20
-248.86743552839999
 30
0.0
 11
670.47045630980006
 21
-248.86743552839999
 31
0.0
  0
SOLID
  5
DB
  8
0
 62
     0
 10
673.47045630980006
 20
-248.86743552839999
 30
0.0
 11
667.47045630980006
 21
-250.36743552839999
 31
0.0
 12
667.47045630980006
 22
-247.36743552839999
 32
0.0
 13
668.97045630980006
 23
-248.86743552839999
 33
0.0
  0
ENDBLK
  5
DC
  8
0
  0
BLOCK
  8
0
  2
*D10
 70
     1
 10
0.0
 20
0.0
 30
0.0
  3
*D10
  1

  0
TEXT
  5
E0
  8
0
 62
     0
 10
701.17878980199987
 20
-197.24035222689989
 30
0.0
 40
5.9972220420999998
  1
120
  0
LINE
  5
E1
  8
0
 62
     0
 10
646.47045630980006
 20
-175.2986855284
 30
0.0
 11
646.47045630980006
 21
-199.7986855284
 31
0.0
  0
LINE
  5
E2
  8
0
 62
     0
 10
766.47045630979994
 20
-180.2986855284
 30
0.0
 11
766.47045630979994
 21
-199.7986855284
 31
0.0
  0
LINE
  5
E3
  8
0
 62
     0
 10
646.47045630980006
 20
-199.2986855284
 30
0.0
 11
715.28990048929995
 21
-199.2986855284
 31
0.0
  0
LINE
  5
E4
  8
0
 62
     0
 10
646.47045630980006
 20
-199.2986855284
 30
0.0
 11
697.65101213019989
 21
-199.2986855284
 31
0.0
  0
LINE
  5
E5
  8
0
 62
     0
 10
766.47045630979994
 20
-199.2986855284
 30
0.0
 11
715.28990048929995
 21
-199.2986855284
 31
0.0
  0
LINE
  5
E6
  8
0
 62
     0
 10
766.47045630979994
 20
-199.2986855284
 30
0.0
 11
697.65101213019989
 21
-199.2986855284
 31
0.0
  0
LINE
  5
E7
  8
0
 62
     0
 10
766.47045630979994
 20
-199.2986855284
 30
0.0
 11
763.47045630979994
 21
-199.2986855284
 31
0.0
  0
SOLID
  5
E8
  8
0
 62
     0
 10
766.47045630979994
 20
-199.2986855284
 30
0.0
 11
760.47045630979994
 21
-200.7986855284
 31
0.0
 12
760.47045630979994
 22
-197.7986855284
 32
0.0
 13
761.97045630979994
 23
-199.2986855284
 33
0.0
  0
LINE
  5
E9
  8
0
 62
     0
 10
646.47045630980006
 20
-199.2986855284
 30
0.0
 11
649.47045630980006
 21
-199.2986855284
 31
0.0
  0
SOLID
  5
EA
  8
0
 62
     0
 10
646.47045630980006
 20
-199.2986855284
 30
0.0
 11
652.47045630980006
 21
-197.7986855284
 31
0.0
 12
652.47045630980006
 22
-200.7986855284
 32
0.0
 13
650.97045630980006
 23
-199.2986855284
 33
0.0
  0
ENDBLK
  5
EB
  8
0
  0
BLOCK
  8
0
  2
*D11
 70
     1
 10
0.0
 20
0.0
 30
0.0
  3
*D11
  1

  0
TEXT
  5
EF
  8
0
 62
     0
 10
624.41212300819996
 20
-152.82646320020001
 30
0.0
 40
5.9972220420999998
  1
60
 50
90.0
  0
LINE
  5
F0
  8
0
 62
     0
 10
645.47045630980006
 20
-119.2986855284
 30
0.0
 11
625.97045630980006
 21
-119.2986855284
 31
0.0
  0
LINE
  5
F1
  8
0
 62
     0
 10
650.47045630980006
 20
-179.2986855284
 30
0.0
 11
625.97045630980006
 21
-179.2986855284
 31
0.0
  0
LINE
  5
F2
  8
0
 62
     0
 10
626.47045630980006
 20
-119.2986855284
 30
0.0
 11
626.47045630980006
 21
-142.24313018480001
 31
0.0
  0
LINE
  5
F3
  8
0
 62
     0
 10
626.47045630980006
 20
-119.2986855284
 30
0.0
 11
626.47045630980006
 21
-156.35424087199999
 31
0.0
  0
LINE
  5
F4
  8
0
 62
     0
 10
626.47045630980006
 20
-179.2986855284
 30
0.0
 11
626.47045630980006
 21
-142.24313018480001
 31
0.0
  0
LINE
  5
F5
  8
0
 62
     0
 10
626.47045630980006
 20
-179.2986855284
 30
0.0
 11
626.47045630980006
 21
-156.35424087199999
 31
0.0
  0
LINE
  5
F6
  8
0
 62
     0
 10
626.47045630980006
 20
-179.2986855284
 30
0.0
 11
626.47045630980006
 21
-176.2986855284
 31
0.0
  0
SOLID
  5
F7
  8
0
 62
     0
 10
626.47045630980006
 20
-179.2986855284
 30
0.0
 11
624.97045630980006
 21
-173.2986855284
 31
0.0
 12
627.97045630980006
 22
-173.2986855284
 32
0.0
 13
626.47045630980006
 23
-174.7986855284
 33
0.0
  0
LINE
  5
F8
  8
0
 62
     0
 10
626.47045630980006
 20
-119.2986855284
 30
0.0
 11
626.47045630980006
 21
-122.2986855284
 31
0.0
  0
SOLID
  5
F9
  8
0
 62
     0
 10
626.47045630980006
 20
-119.2986855284
 30
0.0
 11
627.97045630980006
 21
-125.2986855284
 31
0.0
 12
624.97045630980006
 22
-125.2986855284
 32
0.0
 13
626.47045630980006
 23
-123.7986855284
 33
0.0
  0
ENDBLK
  5
FA
  8
0
  0
BLOCK
  8
0
  2
*D12
 70
     1
 10
0.0
 20
0.0
 30
0.0
  3
*D12
  1

  0
TEXT
  5
FE
  8
0
 62
     0
 10
997.92049813539995
 20
-201.6978170706
 30
0.0
 40
5.9972220420999998
  1
%%c5
  0
LINE
  5
FF
  8
0
 62
     0
 10
1015.7121646431
 20
-233.9480019346
 30
0.0
 11
1015.7121646431
 21
-203.2561503721
 31
0.0
  0
LINE
  5
100
  8
0
 62
     0
 10
990.71216464309987
 20
-233.9480019346
 30
0.0
 11
990.71216464309987
 21
-203.2561503721
 31
0.0
  0
LINE
  5
101
  8
0
 62
     0
 10
1015.7121646431
 20
-203.7561503721
 30
0.0
 11
1012.0316088226
 21
-203.7561503721
 31
0.0
  0
LINE
  5
102
  8
0
 62
     0
 10
1015.7121646431
 20
-203.7561503721
 30
0.0
 11
994.39272046350004
 21
-203.7561503721
 31
0.0
  0
LINE
  5
103
  8
0
 62
     0
 10
990.71216464309987
 20
-203.7561503721
 30
0.0
 11
1012.0316088226
 21
-203.7561503721
 31
0.0
  0
LINE
  5
104
  8
0
 62
     0
 10
990.71216464309987
 20
-203.7561503721
 30
0.0
 11
994.39272046350004
 21
-203.7561503721
 31
0.0
  0
LINE
  5
105
  8
0
 62
     0
 10
990.71216464309987
 20
-203.7561503721
 30
0.0
 11
987.71216464309998
 21
-203.7561503721
 31
0.0
  0
SOLID
  5
106
  8
0
 62
     0
 10
990.71216464309987
 20
-203.7561503721
 30
0.0
 11
984.71216464309998
 21
-205.2561503721
 31
0.0
 12
984.71216464309998
 22
-202.2561503721
 32
0.0
 13
986.21216464309987
 23
-203.7561503721
 33
0.0
  0
LINE
  5
107
  8
0
 62
     0
 10
1015.7121646431
 20
-203.7561503721
 30
0.0
 11
1018.7121646431
 21
-203.7561503721
 31
0.0
  0
SOLID
  5
108
  8
0
 62
     0
 10
1015.7121646431
 20
-203.7561503721
 30
0.0
 11
1021.7121646431
 21
-202.2561503721
 31
0.0
 12
1021.7121646431
 22
-205.2561503721
 32
0.0
 13
1020.2121646431
 23
-203.7561503721
 33
0.0
  0
ENDBLK
  5
109
  8
0
  0
BLOCK
  8
0
  2
*D13
 70
     1
 10
0.0
 20
0.0
 30
0.0
  3
*D13
  1

  0
TEXT
  5
10D
  8
0
 62
     0
 10
994.39272046350004
 20
-181.31663217479991
 30
0.0
 40
5.9972220420999998
  1
%%c8.5
  0
LINE
  5
10E
  8
0
 62
     0
 10
1024.4621646431001
 20
-225.1980019346
 30
0.0
 11
1024.4621646431001
 21
-182.87496547629999
 31
0.0
  0
LINE
  5
10F
  8
0
 62
     0
 10
981.96216464309998
 20
-225.1980019346
 30
0.0
 11
981.96216464309998
 21
-182.87496547629999
 31
0.0
  0
LINE
  5
110
  8
0
 62
     0
 10
1024.4621646431001
 20
-183.37496547629999
 30
0.0
 11
1015.5593864944
 21
-183.37496547629999
 31
0.0
  0
LINE
  5
111
  8
0
 62
     0
 10
1024.4621646431001
 20
-183.37496547629999
 30
0.0
 11
990.86494279169995
 21
-183.37496547629999
 31
0.0
  0
LINE
  5
112
  8
0
 62
     0
 10
981.96216464309998
 20
-183.37496547629999
 30
0.0
 11
1015.5593864944
 21
-183.37496547629999
 31
0.0
  0
LINE
  5
113
  8
0
 62
     0
 10
981.96216464309998
 20
-183.37496547629999
 30
0.0
 11
990.86494279169995
 21
-183.37496547629999
 31
0.0
  0
LINE
  5
114
  8
0
 62
     0
 10
981.96216464309998
 20
-183.37496547629999
 30
0.0
 11
984.96216464309998
 21
-183.37496547629999
 31
0.0
  0
SOLID
  5
115
  8
0
 62
     0
 10
981.96216464309998
 20
-183.37496547629999
 30
0.0
 11
987.96216464309987
 21
-181.87496547629999
 31
0.0
 12
987.96216464309987
 22
-184.87496547629999
 32
0.0
 13
986.46216464309998
 23
-183.37496547629999
 33
0.0
  0
LINE
  5
116
  8
0
 62
     0
 10
1024.4621646431001
 20
-183.37496547629999
 30
0.0
 11
1021.4621646431
 21
-183.37496547629999
 31
0.0
  0
SOLID
  5
117
  8
0
 62
     0
 10
1024.4621646431001
 20
-183.37496547629999
 30
0.0
 11
1018.4621646431
 21
-184.87496547629999
 31
0.0
 12
1018.4621646431
 22
-181.87496547629999
 32
0.0
 13
1019.9621646431
 23
-183.37496547629999
 33
0.0
  0
ENDBLK
  5
118
  8
0
  0
BLOCK
  8
0
  2
*D14
 70
     1
 10
0.0
 20
0.0
 30
0.0
  3
*D14
  1

  0
TEXT
  5
11C
  8
0
 62
     0
 10
655.27921627059993
 20
-97.240352226900001
 30
0.0
 40
5.9972220420999998
  1
4.5t
  0
LINE
  5
11D
  8
0
 62
     0
 10
650.97045630980006
 20
-118.2986855284
 30
0.0
 11
650.97045630980006
 21
-98.798685528400014
 31
0.0
  0
LINE
  5
11E
  8
0
 62
     0
 10
646.47045630980006
 20
-118.2986855284
 30
0.0
 11
646.47045630980006
 21
-98.798685528400014
 31
0.0
  0
LINE
  5
11F
  8
0
 62
     0
 10
650.97045630980006
 20
-99.2986855284
 30
0.0
 11
672.9181046297
 21
-99.2986855284
 31
0.0
  0
LINE
  5
120
  8
0
 62
     0
 10
650.97045630980006
 20
-99.2986855284
 30
0.0
 11
651.75143859879995
 21
-99.2986855284
 31
0.0
  0
LINE
  5
121
  8
0
 62
     0
 10
646.47045630980006
 20
-99.2986855284
 30
0.0
 11
672.9181046297
 21
-99.2986855284
 31
0.0
  0
LINE
  5
122
  8
0
 62
     0
 10
646.47045630980006
 20
-99.2986855284
 30
0.0
 11
651.75143859879995
 21
-99.2986855284
 31
0.0
  0
LINE
  5
123
  8
0
 62
     0
 10
646.47045630980006
 20
-99.2986855284
 30
0.0
 11
643.47045630980006
 21
-99.2986855284
 31
0.0
  0
SOLID
  5
124
  8
0
 62
     0
 10
646.47045630980006
 20
-99.2986855284
 30
0.0
 11
640.47045630980006
 21
-100.7986855284
 31
0.0
 12
640.47045630980006
 22
-97.7986855284
 32
0.0
 13
641.97045630980006
 23
-99.2986855284
 33
0.0
  0
LINE
  5
125
  8
0
 62
     0
 10
650.97045630980006
 20
-99.2986855284
 30
0.0
 11
653.97045630980006
 21
-99.2986855284
 31
0.0
  0
SOLID
  5
126
  8
0
 62
     0
 10
650.97045630980006
 20
-99.2986855284
 30
0.0
 11
656.97045630980006
 21
-97.7986855284
 31
0.0
 12
656.97045630980006
 22
-100.7986855284
 32
0.0
 13
655.47045630980006
 23
-99.2986855284
 33
0.0
  0
ENDBLK
  5
127
  8
0
  0
BLOCK
  8
0
  2
*D15
 70
     1
 10
0.0
 20
0.0
 30
0.0
  3
*D15
  1

  0
TEXT
  5
12B
  8
0
 62
     0
 10
623.41212300819996
 20
-280.39521320019998
 30
0.0
 40
5.9972220420999998
  1
16
 50
90.0
  0
LINE
  5
12C
  8
0
 62
     0
 10
644.47045630980006
 20
-268.86743552839999
 30
0.0
 11
625.47045630980006
 21
-268.86743552839999
 31
0.0
  0
LINE
  5
12D
  8
0
 62
     0
 10
644.47045630980006
 20
-284.86743552839999
 30
0.0
 11
625.47045630980006
 21
-284.86743552839999
 31
0.0
  0
LINE
  5
12E
  8
0
 62
     0
 10
626.47045630980006
 20
-268.86743552839999
 30
0.0
 11
626.47045630980006
 21
-269.81188018479997
 31
0.0
  0
LINE
  5
12F
  8
0
 62
     0
 10
626.47045630980006
 20
-268.86743552839999
 30
0.0
 11
626.47045630980006
 21
-283.92299087200001
 31
0.0
  0
LINE
  5
130
  8
0
 62
     0
 10
626.47045630980006
 20
-284.86743552839999
 30
0.0
 11
626.47045630980006
 21
-269.81188018479997
 31
0.0
  0
LINE
  5
131
  8
0
 62
     0
 10
626.47045630980006
 20
-284.86743552839999
 30
0.0
 11
626.47045630980006
 21
-283.92299087200001
 31
0.0
  0
LINE
  5
132
  8
0
 62
     0
 10
626.47045630980006
 20
-284.86743552839999
 30
0.0
 11
626.47045630980006
 21
-290.86743552839999
 31
0.0
  0
SOLID
  5
133
  8
0
 62
     0
 10
626.47045630980006
 20
-284.86743552839999
 30
0.0
 11
627.97045630980006
 21
-290.86743552839999
 31
0.0
 12
624.97045630980006
 22
-290.86743552839999
 32
0.0
 13
626.47045630980006
 23
-289.36743552839999
 33
0.0
  0
LINE
  5
134
  8
0
 62
     0
 10
626.47045630980006
 20
-268.86743552839999
 30
0.0
 11
626.47045630980006
 21
-262.86743552839999
 31
0.0
  0
SOLID
  5
135
  8
0
 62
     0
 10
626.47045630980006
 20
-268.86743552839999
 30
0.0
 11
624.97045630980006
 21
-262.86743552839999
 31
0.0
 12
627.97045630980006
 22
-262.86743552839999
 32
0.0
 13
626.47045630980006
 23
-264.36743552839999
 33
0.0
  0
ENDBLK
  5
136
  8
0
  0
BLOCK
  8
0
  2
*D16
 70
     1
 10
0.0
 20
0.0
 30
0.0
  3
*D16
  1

  0
TEXT
  5
13A
  8
0
 62
     0
 10
783.41212300820007
 20
-261.3265624595
 30
0.0
 40
5.9972220420999998
  1
8
 50
90.0
  0
LINE
  5
13B
  8
0
 62
     0
 10
767.47045630979994
 20
-276.86743552839999
 30
0.0
 11
787.47045630979994
 21
-276.86743552839999
 31
0.0
  0
LINE
  5
13C
  8
0
 62
     0
 10
768.47045630979994
 20
-268.86743552839999
 30
0.0
 11
787.47045630979994
 21
-268.86743552839999
 31
0.0
  0
LINE
  5
13D
  8
0
 62
     0
 10
786.47045630979994
 20
-276.86743552839999
 30
0.0
 11
786.47045630979994
 21
-254.27100711590001
 31
0.0
  0
LINE
  5
13E
  8
0
 62
     0
 10
786.47045630979994
 20
-276.86743552839999
 30
0.0
 11
786.47045630979994
 21
-264.85434013140002
 31
0.0
  0
LINE
  5
13F
  8
0
 62
     0
 10
786.47045630979994
 20
-268.86743552839999
 30
0.0
 11
786.47045630979994
 21
-254.27100711590001
 31
0.0
  0
LINE
  5
140
  8
0
 62
     0
 10
786.47045630979994
 20
-268.86743552839999
 30
0.0
 11
786.47045630979994
 21
-264.85434013140002
 31
0.0
  0
LINE
  5
141
  8
0
 62
     0
 10
786.47045630979994
 20
-268.86743552839999
 30
0.0
 11
786.47045630979994
 21
-262.86743552839999
 31
0.0
  0
SOLID
  5
142
  8
0
 62
     0
 10
786.47045630979994
 20
-268.86743552839999
 30
0.0
 11
784.97045630979994
 21
-262.86743552839999
 31
0.0
 12
787.97045630979994
 22
-262.86743552839999
 32
0.0
 13
786.47045630979994
 23
-264.36743552839999
 33
0.0
  0
LINE
  5
143
  8
0
 62
     0
 10
786.47045630979994
 20
-276.86743552839999
 30
0.0
 11
786.47045630979994
 21
-282.86743552839999
 31
0.0
  0
SOLID
  5
144
  8
0
 62
     0
 10
786.47045630979994
 20
-276.86743552839999
 30
0.0
 11
787.97045630979994
 21
-282.86743552839999
 31
0.0
 12
784.97045630979994
 22
-282.86743552839999
 32
0.0
 13
786.47045630979994
 23
-281.36743552839999
 33
0.0
  0
ENDBLK
  5
145
  8
0
  0
BLOCK
  8
0
  2
*D17
 70
     1
 10
0.0
 20
0.0
 30
0.0
  3
*D17
  1

  0
TEXT
  5
149
  8
0
 62
     0
 10
783.41212300820007
 20
-295.94042385120002
 30
0.0
 40
5.9972220420999998
  1
8
 50
90.0
  0
LINE
  5
14A
  8
0
 62
     0
 10
768.47045630979994
 20
-284.86743552839999
 30
0.0
 11
787.47045630979994
 21
-284.86743552839999
 31
0.0
  0
LINE
  5
14B
  8
0
 62
     0
 10
767.47045630979994
 20
-276.86743552839999
 30
0.0
 11
787.47045630979994
 21
-276.86743552839999
 31
0.0
  0
LINE
  5
14C
  8
0
 62
     0
 10
786.47045630979994
 20
-284.86743552839999
 30
0.0
 11
786.47045630979994
 21
-288.88486850750002
 31
0.0
  0
LINE
  5
14D
  8
0
 62
     0
 10
786.47045630979994
 20
-284.86743552839999
 30
0.0
 11
786.47045630979994
 21
-299.468201523
 31
0.0
  0
LINE
  5
14E
  8
0
 62
     0
 10
786.47045630979994
 20
-276.86743552839999
 30
0.0
 11
786.47045630979994
 21
-288.88486850750002
 31
0.0
  0
LINE
  5
14F
  8
0
 62
     0
 10
786.47045630979994
 20
-276.86743552839999
 30
0.0
 11
786.47045630979994
 21
-299.468201523
 31
0.0
  0
LINE
  5
150
  8
0
 62
     0
 10
786.47045630979994
 20
-276.86743552839999
 30
0.0
 11
786.47045630979994
 21
-270.86743552839999
 31
0.0
  0
SOLID
  5
151
  8
0
 62
     0
 10
786.47045630979994
 20
-276.86743552839999
 30
0.0
 11
784.97045630979994
 21
-270.86743552839999
 31
0.0
 12
787.97045630979994
 22
-270.86743552839999
 32
0.0
 13
786.47045630979994
 23
-272.36743552839999
 33
0.0
  0
LINE
  5
152
  8
0
 62
     0
 10
786.47045630979994
 20
-284.86743552839999
 30
0.0
 11
786.47045630979994
 21
-290.86743552839999
 31
0.0
  0
SOLID
  5
153
  8
0
 62
     0
 10
786.47045630979994
 20
-284.86743552839999
 30
0.0
 11
787.97045630979994
 21
-290.86743552839999
 31
0.0
 12
784.97045630979994
 22
-290.86743552839999
 32
0.0
 13
786.47045630979994
 23
-289.36743552839999
 33
0.0
  0
ENDBLK
  5
154
  8
0
  0
BLOCK
  8
0
  2
*D18
 70
     1
 10
0.0
 20
0.0
 30
0.0
  3
*D18
  1

  0
TEXT
  5
15A
  8
0
 62
     0
 10
997.92049813539995
 20
-156.9761719704
 30
0.0
 40
5.9972220420999998
  1
90%%d
 50
360.0
  0
ARC
  5
15B
  8
0
 62
     0
 10
1003.2121646431
 20
-247.4480019346
 30
0.0
 40
87.296830059599998
 50
130.19409373159999
 51
135.0
  0
ARC
  5
15C
  8
0
 62
     0
 10
1003.2121646431
 20
-247.4480019346
 30
0.0
 40
87.296830059599998
 50
45.0
 51
49.805906268400001
  0
SOLID
  5
15D
  8
0
 62
     0
 10
1064.9403451543999
 20
-185.71982142339999
 30
0.0
 11
1070.2436460132999
 21
-188.9018019387
 31
0.0
 12
1068.1223256697001
 22
-191.02312228229999
 32
0.0
 13
1068.1223256697001
 23
-188.9018019387
 33
0.0
  0
SOLID
  5
15E
  8
0
 62
     0
 10
941.48398413179984
 20
-185.71982142339999
 30
0.0
 11
938.30200361649997
 21
-191.02312228229999
 31
0.0
 12
936.18068327289996
 22
-188.9018019387
 32
0.0
 13
938.30200361649997
 23
-188.9018019387
 33
0.0
  0
ARC
  5
15F
  8
0
 62
     0
 10
1003.2121646431
 20
-247.4480019346
 30
0.0
 40
87.296830059599998
 50
45.0
 51
84.136954029999998
  0
ARC
  5
160
  8
0
 62
     0
 10
1003.2121646431
 20
-247.4480019346
 30
0.0
 40
87.296830059599998
 50
95.863045969999988
 51
135.0
  0
LINE
  5
161
  8
0
 62
     0
 10
1027.4730791925001
 20
-223.18708738519999
 30
0.0
 11
1067.9512597037999
 21
-182.70890687389999
 31
0.0
  0
LINE
  5
162
  8
0
 62
     0
 10
978.95125009369997
 20
-223.18708738519999
 30
0.0
 11
938.47306958239994
 21
-182.70890687400001
 31
0.0
  0
ENDBLK
  5
163
  8
0
  0
BLOCK
  8
0
  2
*U19
 70
     1
 10
0.0
 20
0.0
 30
0.0
  3
*U19
  1

  0
TEXT
  5
214
  8
┌▓È_1
  6
CONTINUOUS
 10
1030.2883119798
 20
-388.20586980952692
 30
0.0
 40
7.1966662884000003
  1
ékî^âAâôâOâï
  0
ENDBLK
  5
216
  8
0
  0
BLOCK
  8
0
  2
*U20
 70
     1
 10
0.0
 20
0.0
 30
0.0
  3
*U20
  1

  0
TEXT
  5
218
  8
┌▓È_1
  6
CONTINUOUS
 10
1026.3973853872669
 20
-370.04373118669997
 30
0.0
 40
7.1966662884000003
  1
LY-205  60x120
  0
ENDBLK
  5
21A
  8
0
  0
BLOCK
  8
0
  2
*D21
 70
     1
 10
0.0
 20
0.0
 30
0.0
  3
*D21
  1

  0
LINE
  5
21D
  8
Éíû@É³
 62
     0
 10
766.40795630980006
 20
-174.7986855284
 30
0.0
 11
688.58492077440815
 21
-174.7986855284
 31
0.0
  0
LINE
  5
21E
  8
Éíû@É³
 62
     0
 10
650.97045630980006
 20
-27.611185528399972
 30
0.0
 11
650.97045630980006
 21
-137.18422106379191
 31
0.0
  0
ARC
  5
21F
  8
Éíû@É³
 62
     0
 10
650.97045630980017
 20
-174.79868552840011
 30
0.0
 40
38.864464464608183
 50
8.8542836631772133
 51
32.490506794393902
  0
ARC
  5
220
  8
Éíû@É³
 62
     0
 10
650.97045630980017
 20
-174.79868552840011
 30
0.0
 40
38.864464464608183
 50
59.833452467817757
 51
81.145716336822829
  0
SOLID
  5
221
  8
Éíû@É³
 62
     0
 10
690.36878904581886
 20
-168.73939640600449
 30
0.0
 11
688.37475645091172
 21
-168.89377908135219
 31
0.0
 12
689.83492077440815
 22
-174.7986855284
 32
0.0
 13
689.83492077440815
 23
-174.7986855284
 33
0.0
  0
SOLID
  5
222
  8
Éíû@É³
 62
     0
 10
656.87536275684795
 20
-137.39438538728859
 30
0.0
 11
657.02974543219568
 21
-135.40035279238131
 31
0.0
 12
650.97045630980006
 22
-135.93422106379191
 32
0.0
 13
650.97045630980006
 23
-135.93422106379191
 33
0.0
  0
TEXT
  8
Éíû@É³
  40
5.99722
  5
27C
  62
0
  72
0
  71
0
 10
665.894
 20
-157.381
 30
0.000000
  1
90üï
  0
POINT
  5
224
  8
Defpoints
 62
     0
 10
650.97045630980017
 20
-174.79868552840011
 30
0.0
  0
POINT
  5
225
  8
Defpoints
 62
     0
 10
766.47045630980006
 20
-174.7986855284
 30
0.0
  0
POINT
  5
226
  8
Defpoints
 62
     0
 10
650.97045630980006
 20
-27.548685528399972
 30
0.0
  0
POINT
  5
227
  8
Defpoints
 62
     0
 10
684.62806984062831
 20
-155.36645329609601
 30
0.0
  0
ENDBLK
  5
229
  8
0
  0
BLOCK
  8
0
  2
*U22
 70
     1
 10
0.0
 20
0.0
 30
0.0
  3
*U22
  1

  0
TEXT
  5
22B
  8
┌▓È_1
  6
CONTINUOUS
 10
978.41656048432537
 20
-271.91049811212741
 30
0.0
 40
5.9972220420999998
  1
ÄMâéâ~òöègæÕÉ}
  0
ENDBLK
  5
22D
  8
0
  0
BLOCK
  8
0
  2
*D23
 70
     1
 10
0.0
 20
0.0
 30
0.0
  3
*D23
  1

  0
LINE
  5
22F
  8
Éíû@É³
 62
     0
 10
1025.0366889028239
 20
-225.62347767497599
 30
0.0
 11
1065.8242286309589
 21
-184.83593794702759
 31
0.0
  0
LINE
  5
230
  8
Éíû@É³
 62
     0
 10
981.38764038337581
 20
-225.62347767497599
 30
0.0
 11
940.60010065524023
 21
-184.8359379470277
 31
0.0
  0
ARC
  5
231
  8
Éíû@É³
 62
     0
 10
1003.2121646431
 20
-247.4480019346
 30
0.0
 40
87.296830059600012
 50
48.938772787719543
 51
83.959884714973185
  0
ARC
  5
232
  8
Éíû@É³
 62
     0
 10
1003.2121646431
 20
-247.4480019346
 30
0.0
 40
87.296830059600012
 50
96.040115285026815
 51
131.06122721228061
  0
SOLID
  5
233
  8
Éíû@É³
 62
     0
 10
1061.236798986014
 20
-180.8944980376528
 30
0.0
 11
1059.8720209240321
 21
-182.35647643746981
 31
0.0
 12
1064.940345154474
 22
-185.71982142350871
 32
0.0
 13
1064.940345154474
 23
-185.71982142350871
 33
0.0
  0
SOLID
  5
234
  8
Éíû@É³
 62
     0
 10
946.55230836216754
 20
-182.35647643746989
 30
0.0
 11
945.18753030018524
 21
-180.89449803765299
 31
0.0
 12
941.48398413172538
 22
-185.7198214235089
 32
0.0
 13
941.48398413172538
 23
-185.7198214235089
 33
0.0
  0
TEXT
  8
Éíû@É³
  40
5.99722
  5
27D
  62
0
  72
0
  71
0
 10
991.218
 20
-170.766
 30
0.000000
  1
90üï
  0
POINT
  5
236
  8
Defpoints
 62
     0
 10
1003.2121646431
 20
-247.4480019346
 30
0.0
  0
POINT
  5
237
  8
Defpoints
 62
     0
 10
1024.9924947290001
 20
-225.66767184880001
 30
0.0
  0
POINT
  5
238
  8
Defpoints
 62
     0
 10
981.43183455719986
 20
-225.66767184880001
 30
0.0
  0
POINT
  5
239
  8
Defpoints
 62
     0
 10
1025.806246839667
 20
-163.12573922688171
 30
0.0
  0
ENDBLK
  5
23B
  8
0
  0
BLOCK
  8
0
  2
*U24
 70
     1
 10
0.0
 20
0.0
 30
0.0
  3
*U24
  1

  0
TEXT
  5
23D
  8
┌▓È_1
  6
CONTINUOUS
 10
871.47801544399988
 20
-355.7454963826579
 30
0.0
 40
7.1966662884000003
  1
ò\û╩ÅêùØüFâåâjâNâìâüâbâLÄdÅÒé░
  0
ENDBLK
  5
23F
  8
0
  0
BLOCK
  8
0
  2
*U25
 70
     1
 10
0.0
 20
0.0
 30
0.0
  3
*U25
  1

  0
TEXT
  5
241
  8
┌▓È_1
  6
CONTINUOUS
 10
885.91912289359993
 20
-405.09276471592739
 30
0.0
 40
8.6359998702999992
  1
èöÄ«ë´Äð
  0
ENDBLK
  5
243
  8
0
  0
BLOCK
  8
0
  2
*U26
 70
     1
 10
0.0
 20
0.0
 30
0.0
  3
*U26
  1

  0
TEXT
  5
245
  8
┌▓È_1
  6
CONTINUOUS
 10
1001.2590143514
 20
-381.82973325373609
 30
0.0
 40
4.6749999999999989
  1
òiû╝
  0
ENDBLK
  5
247
  8
0
  0
BLOCK
  8
0
  2
*U27
 70
     1
 10
0.0
 20
0.0
 30
0.0
  3
*U27
  1

  0
TEXT
  5
249
  8
┌▓È_1
  6
CONTINUOUS
 10
1001.2590143514
 20
-398.78227132480208
 30
0.0
 40
4.6749999999999989
  1
É}öÈ
  0
ENDBLK
  5
24B
  8
0
  0
BLOCK
  8
0
  2
*U28
 70
     1
 10
0.0
 20
0.0
 30
0.0
  3
*U28
  1

  0
TEXT
  5
24D
  8
┌▓È_1
  6
CONTINUOUS
 62
     5
 10
879.8485103678579
 20
-373.17395180300002
 30
0.0
 40
4.6749999999999989
  1
H16.4
  0
ENDBLK
  5
24F
  8
0
  0
BLOCK
  8
0
  2
*U29
 70
     1
 10
0.0
 20
0.0
 30
0.0
  3
*U29
  1

  0
TEXT
  5
251
  8
┌▓È_1
  6
CONTINUOUS
 62
     5
 10
916.67776163689336
 20
-373.4587233766041
 30
0.0
 40
4.6749999999999989
  1
ôS
  0
ENDBLK
  5
253
  8
0
  0
BLOCK
  8
0
  2
*U30
 70
     1
 10
0.0
 20
0.0
 30
0.0
  3
*U30
  1

  0
TEXT
  5
255
  8
┌▓È_1
  6
CONTINUOUS
 62
     5
 10
945.48594691608116
 20
-373.17395180300002
 30
0.0
 40
4.6749999999999989
  1
4.5t
  0
ENDBLK
  5
257
  8
0
  0
BLOCK
  8
0
  2
*U31
 70
     1
 10
0.0
 20
0.0
 30
0.0
  3
*U31
  1

  0
TEXT
  5
259
  8
┌▓È_1
  6
CONTINUOUS
 62
     5
 10
945.27236823587805
 20
-390.17395180300002
 30
0.0
 40
4.6749999999999989
  1
1üF2
  0
ENDBLK
  5
25B
  8
0
  0
BLOCK
  8
0
  2
*U32
 70
     1
 10
0.0
 20
0.0
 30
0.0
  3
*U32
  1

  0
TEXT
  5
25D
  8
┌▓È_1
  6
CONTINUOUS
 10
904.40878706659998
 20
-364.84006855426912
 30
0.0
 40
4.6749999999999989
  1
ü@ìÌ ü@Ä┐
  0
ENDBLK
  5
25F
  8
0
  0
BLOCK
  8
0
  2
*U33
 70
     1
 10
0.0
 20
0.0
 30
0.0
  3
*U33
  1

  0
TEXT
  5
261
  8
┌▓È_1
  6
CONTINUOUS
 10
936.40878706659987
 20
-364.93499241213709
 30
0.0
 40
4.6749999999999989
  1
ü@ö┬ ü@î·
  0
ENDBLK
  5
263
  8
0
  0
BLOCK
  8
0
  2
*U34
 70
     1
 10
0.0
 20
0.0
 30
0.0
  3
*U34
  1

  0
TEXT
  5
265
  8
┌▓È_1
  6
CONTINUOUS
 10
936.40878706659987
 20
-381.91126144767009
 30
0.0
 40
4.6749999999999989
  1
ü@Ä┌ ü@ôx
  0
ENDBLK
  5
267
  8
0
  0
BLOCK
  8
0
  2
*U35
 70
     1
 10
0.0
 20
0.0
 30
0.0
  3
*U35
  1

  0
TEXT
  5
269
  8
┌▓È_1
  6
CONTINUOUS
 10
968.40878706659987
 20
-364.93499241213709
 30
0.0
 40
4.6749999999999989
  1
ü@îƒ ü@ê¾
  0
ENDBLK
  5
26B
  8
0
  0
BLOCK
  8
0
  2
*U36
 70
     1
 10
0.0
 20
0.0
 30
0.0
  3
*U36
  1

  0
TEXT
  5
26D
  8
┌▓È_1
  6
CONTINUOUS
 10
871.47801544399988
 20
-381.93499241213709
 30
0.0
 40
4.6749999999999989
  1
 É¦îvü@ü@öÆÉ{ëÛ
  0
ENDBLK
  5
26F
  8
0
  0
BLOCK
  8
0
  2
*U37
 70
     1
 10
0.0
 20
0.0
 30
0.0
  3
*U37
  1

  0
TEXT
  5
271
  8
┌▓È_1
  6
CONTINUOUS
 10
871.47801544399988
 20
-390.4587233766041
 30
0.0
 40
4.6749999999999989
  1
 É╗É}ü@ü@ è¦û{
  0
ENDBLK
  5
273
  8
0
  0
BLOCK
  8
0
  2
*U38
 70
     1
 10
0.0
 20
0.0
 30
0.0
  3
*U38
  1

  0
TEXT
  5
275
  8
┌▓È_1
  6
CONTINUOUS
 10
872.40878706659998
 20
-364.7688756608681
 30
0.0
 40
4.6749999999999989
  1
ü@ô· ü@òt
  0
ENDBLK
  5
277
  8
0
  0
BLOCK
  8
0
  2
*U39
 70
     1
 10
0.0
 20
0.0
 30
0.0
  3
*U39
  1

  0
TEXT
  5
279
  8
┌▓È_1
  6
CONTINUOUS
 10
1001.2590143514
 20
-364.78227132480208
 30
0.0
 40
4.6749999999999989
  1
î^öÈ
  0
ENDBLK
  5
27B
  8
0
  0
ENDSEC
  0
SECTION
  2
ENTITIES
  0
DIMENSION
  5
3E
  8
Éíû@É³
  2
*D0
 10
871.97825520829997
 20
-99.2986855284
 30
0.0
 11
855.92905224909998
 21
-99.2986855284
 31
0.0
 70
   128
  1
<>
 13
871.97825520829997
 23
-120.2986855284
 33
0.0
 14
863.97825520829997
 24
-119.2986855284
 34
0.0
  0
DIMENSION
  5
4D
  8
Éíû@É³
  2
*D1
 10
879.97825520829997
 20
-99.2986855284
 30
0.0
 11
889.02019413279993
 21
-99.2986855284
 31
0.0
 70
   128
  1
<>
 13
879.97825520829997
 23
-119.2986855284
 33
0.0
 14
871.97825520829997
 24
-120.2986855284
 34
0.0
  0
DIMENSION
  5
5D
  8
Éíû@É³
  2
*D2
 10
843.97825520829986
 20
-119.2986855284
 30
0.0
 11
843.97825520829986
 21
-123.2986855284
 31
0.0
 70
   128
  1
<>
 13
863.97825520829997
 23
-119.2986855284
 33
0.0
 14
864.97825520829986
 24
-127.2986855284
 34
0.0
 50
90.0
  0
DIMENSION
  5
6C
  8
Éíû@É³
  2
*D3
 10
843.97825520829986
 20
-152.2986855284
 30
0.0
 11
843.97825520829986
 21
-165.7986855284
 31
0.0
 70
   128
  1
<>
 13
864.97825520829986
 23
-152.2986855284
 33
0.0
 14
863.97825520829997
 24
-179.2986855284
 34
0.0
 50
90.0
  0
DIMENSION
  5
7B
  8
Éíû@É³
  2
*D4
 10
843.97825520829986
 20
-127.2986855284
 30
0.0
 11
843.97825520829986
 21
-139.7986855284
 31
0.0
 70
   128
  1
<>
 13
864.97825520829986
 23
-127.2986855284
 33
0.0
 14
864.97825520829986
 24
-152.2986855284
 34
0.0
 50
90.0
  0
DIMENSION
  5
8A
  8
Éíû@É³
  2
*D5
 10
879.97825520829997
 20
-84.423296429300009
 30
0.0
 11
871.97825520829997
 21
-84.423296429300009
 31
0.0
 70
   128
  1
<>
 13
879.97825520829997
 23
-119.2986855284
 33
0.0
 14
863.97825520829997
 24
-119.2986855284
 34
0.0
  0
CIRCLE
  5
8C
  8
┌▓È_1
 62
     5
 10
871.97825520829997
 20
-127.2986855284
 30
0.0
 40
2.5
  0
LINE
  5
8D
  8
┌▓È_1
  6
BORDER
 62
     3
 10
871.97825520829997
 20
-120.2986855284
 30
0.0
 11
871.97825520829997
 21
-134.2986855284
 31
0.0
  0
LINE
  5
8E
  8
┌▓È_1
  6
BORDER
 62
     3
 10
864.97825520829986
 20
-127.2986855284
 30
0.0
 11
878.97825520829997
 21
-127.2986855284
 31
0.0
  0
CIRCLE
  5
8F
  8
┌▓È_1
 62
     5
 10
871.97825520829997
 20
-152.2986855284
 30
0.0
 40
5.0
  0
LINE
  5
90
  8
┌▓È_1
  6
BORDER
 62
     3
 10
864.97825520829986
 20
-152.2986855284
 30
0.0
 11
878.97825520829997
 21
-152.2986855284
 31
0.0
  0
LINE
  5
91
  8
┌▓È_1
 62
     5
 10
863.97825520829997
 20
-174.2986855284
 30
0.0
 11
879.97825520829997
 21
-174.2986855284
 31
0.0
  0
LINE
  5
92
  8
┌▓È_1
 62
     5
 10
863.97825520829997
 20
-179.2986855284
 30
0.0
 11
879.97825520829997
 21
-179.2986855284
 31
0.0
  0
LINE
  5
93
  8
┌▓È_1
  6
BORDER
 62
     3
 10
871.97825520829997
 20
-145.2986855284
 30
0.0
 11
871.97825520829997
 21
-159.2986855284
 31
0.0
  0
CIRCLE
  5
94
  8
┌▓È_1
 62
     5
 10
871.97825520829997
 20
-152.2986855284
 30
0.0
 40
2.5
  0
LINE
  5
95
  8
┌▓È_1
 62
     5
 10
879.97825520829997
 20
-179.2986855284
 30
0.0
 11
879.97825520829997
 21
-119.2986855284
 31
0.0
  0
LINE
  5
96
  8
┌▓È_1
 62
     5
 10
863.97825520829997
 20
-119.2986855284
 30
0.0
 11
863.97825520829997
 21
-179.2986855284
 31
0.0
  0
LINE
  5
97
  8
┌▓È_1
 62
     5
 10
879.97825520829997
 20
-119.2986855284
 30
0.0
 11
863.97825520829997
 21
-119.2986855284
 31
0.0
  0
CIRCLE
  5
98
  8
┌▓È_1
 62
     5
 10
871.97825520829997
 20
-127.2986855284
 30
0.0
 40
5.0
  0
LINE
  5
99
  8
┌▓È_1
 62
     5
 10
561.47801544399999
 20
-409.5878849883
 30
0.0
 11
1111.478015444
 21
-409.5878849883
 31
0.0
  0
LINE
  5
9A
  8
┌▓È_1
 62
     5
 10
1111.478015444
 20
-409.5878849883
 30
0.0
 11
1111.478015444
 21
-29.587884988300001
 31
0.0
  0
INSERT
  5
9B
  8
0
  6
CONTINUOUS
  2
*U19
 10
0.0
 20
0.0
 30
0.0
  0
LINE
  5
9C
  8
┌▓È_1
 10
871.47801544399988
 20
-358.5878849883
 30
0.0
 11
1111.478015444
 21
-358.5878849883
 31
0.0
  0
LINE
  5
9D
  8
┌▓È_1
 10
871.47801544399988
 20
-392.5878849883
 30
0.0
 11
1111.478015444
 21
-392.5878849883
 31
0.0
  0
LINE
  5
9E
  8
┌▓È_1
 62
     5
 10
951.07241817600004
 20
-397.73160824130002
 30
0.0
 11
953.47241817599991
 21
-395.33160824129999
 31
0.0
  0
LINE
  5
9F
  8
┌▓È_1
 62
     5
 10
939.872418176
 20
-403.33160824129999
 30
0.0
 11
943.87241817600011
 21
-403.33160824129999
 31
0.0
  0
LINE
  5
A0
  8
┌▓È_1
 62
     5
 10
972.12938787300004
 20
-395.33160824129999
 30
0.0
 11
957.72938787300006
 21
-395.33160824129999
 31
0.0
  0
LINE
  5
A1
  8
┌▓È_1
 62
     5
 10
984.20690307990014
 20
-398.05160824130002
 30
0.0
 11
983.97267227949988
 21
-397.23764201649999
 31
0.0
  0
INSERT
  5
A2
  8
0
  6
CONTINUOUS
  2
*U20
 10
0.0
 20
0.0
 30
0.0
  0
DIMENSION
  5
B0
  8
Éíû@É³
  2
*D21
 10
684.62806984062831
 20
-155.36645329609601
 30
0.0
 11
677.88883815489987
 21
-146.76571713469991
 31
0.0
 70
   133
  1
<>
 13
650.97045630980006
 23
-27.5486855284
 33
0.0
 14
766.47045630979994
 24
-174.7986855284
 34
0.0
 15
650.97045630980006
 25
-174.7986855284
 35
0.0
1001
ACAD
1000
DSTYLE
1002
{
1070
   271
1070
     0
1002
}
  0
DIMENSION
  5
BF
  8
Éíû@É³
  2
*D7
 10
758.47045630979994
 20
-248.86743552839999
 30
0.0
 11
715.97045630979994
 21
-248.86743552839999
 31
0.0
 70
   128
  1
<>
 13
758.47045630979994
 23
-269.86743552839999
 33
0.0
 14
673.47045630980006
 24
-269.86743552839999
 34
0.0
  0
DIMENSION
  5
CE
  8
Éíû@É³
  2
*D8
 10
766.47045630979994
 20
-248.86743552839999
 30
0.0
 11
762.47045630979994
 21
-248.86743552839999
 31
0.0
 70
   128
  1
<>
 13
766.47045630979994
 23
-268.86743552839999
 33
0.0
 14
758.47045630979994
 24
-269.86743552839999
 34
0.0
  0
DIMENSION
  5
DD
  8
Éíû@É³
  2
*D9
 10
673.47045630980006
 20
-248.86743552839999
 30
0.0
 11
659.97045630980006
 21
-248.86743552839999
 31
0.0
 70
   128
  1
<>
 13
673.47045630980006
 23
-269.86743552839999
 33
0.0
 14
646.47045630980006
 24
-268.86743552839999
 34
0.0
  0
DIMENSION
  5
EC
  8
Éíû@É³
  2
*D10
 10
646.47045630980006
 20
-199.2986855284
 30
0.0
 11
706.47045630979994
 21
-199.2986855284
 31
0.0
 70
   128
  1
<>
 13
646.47045630980006
 23
-174.2986855284
 33
0.0
 14
766.47045630979994
 24
-179.2986855284
 34
0.0
 50
180.0
  0
DIMENSION
  5
FB
  8
Éíû@É³
  2
*D11
 10
626.47045630980006
 20
-119.2986855284
 30
0.0
 11
626.47045630980006
 21
-149.2986855284
 31
0.0
 70
   128
  1
<>
 13
646.47045630980006
 23
-119.2986855284
 33
0.0
 14
651.47045630980006
 24
-179.2986855284
 34
0.0
 50
90.0
  0
DIMENSION
  5
10A
  8
Éíû@É³
  2
*D12
 10
1015.7121646431
 20
-203.7561503721
 30
0.0
 11
1003.2121646431
 21
-203.7561503721
 31
0.0
 70
   128
  1
%%c5
 13
1015.7121646431
 23
-234.9480019346
 33
0.0
 14
990.71216464309987
 24
-234.9480019346
 34
0.0
  0
DIMENSION
  5
119
  8
Éíû@É³
  2
*D13
 10
1024.4621646431001
 20
-183.37496547629999
 30
0.0
 11
1003.2121646431
 21
-183.37496547629999
 31
0.0
 70
   128
  1
%%c8.5
 13
1024.4621646431001
 23
-226.1980019346
 33
0.0
 14
981.96216464309998
 24
-226.1980019346
 34
0.0
  0
DIMENSION
  5
128
  8
Éíû@É³
  2
*D14
 10
650.97045630980006
 20
-99.2986855284
 30
0.0
 11
662.33477161419989
 21
-99.2986855284
 31
0.0
 70
   128
  1
<>t
 13
650.97045630980006
 23
-119.2986855284
 33
0.0
 14
646.47045630980006
 24
-119.2986855284
 34
0.0
  0
DIMENSION
  5
137
  8
Éíû@É³
  2
*D15
 10
626.47045630980006
 20
-268.86743552839999
 30
0.0
 11
626.47045630980006
 21
-276.86743552839999
 31
0.0
 70
   128
  1
<>
 13
646.47045630980006
 23
-268.86743552839999
 33
0.0
 14
646.47045630980006
 24
-284.86743552839999
 34
0.0
 50
90.0
  0
DIMENSION
  5
146
  8
Éíû@É³
  2
*D16
 10
786.47045630979994
 20
-276.86743552839999
 30
0.0
 11
786.47045630979994
 21
-259.56267362360001
 31
0.0
 70
   128
  1
<>
 13
765.47045630979994
 23
-276.86743552839999
 33
0.0
 14
766.47045630979994
 24
-268.86743552839999
 34
0.0
 50
90.0
  0
DIMENSION
  5
155
  8
Éíû@É³
  2
*D17
 10
786.47045630979994
 20
-284.86743552839999
 30
0.0
 11
786.47045630979994
 21
-294.17653501529998
 31
0.0
 70
   128
  1
<>
 13
766.47045630979994
 23
-284.86743552839999
 33
0.0
 14
765.47045630979994
 24
-276.86743552839999
 34
0.0
 50
90.0
  0
INSERT
  5
156
  8
0
  6
CONTINUOUS
  2
*U22
 10
0.0
 20
0.0
 30
0.0
  0
LINE
  5
157
  8
┌▓È_1
 10
977.26201678429993
 20
-274.48521124450002
 30
0.0
 11
1031.8717512316
 21
-274.48521124450002
 31
0.0
  0
DIMENSION
  5
164
  8
Éíû@É³
  2
*D23
 10
1025.806246839667
 20
-163.12573922688171
 30
0.0
 11
1003.2121646431
 21
-160.15117187499999
 31
0.0
 70
   133
  1
<>
 13
981.43183455719986
 23
-225.66767184880001
 33
0.0
 14
1024.9924947290001
 24
-225.66767184880001
 34
0.0
 15
1003.2121646431
 25
-247.4480019346
 35
0.0
1001
ACAD
1000
DSTYLE
1002
{
1070
   271
1070
     0
1002
}
  0
LINE
  5
165
  8
┌▓È_1
 62
     5
 10
939.872418176
 20
-406.53160824129998
 30
0.0
 11
946.27241817599997
 21
-406.53160824129998
 31
0.0
  0
LINE
  5
166
  8
┌▓È_1
 62
     5
 10
970.52938787300002
 20
-397.73160824130002
 30
0.0
 11
972.12938787300004
 21
-395.33160824129999
 31
0.0
  0
LINE
  5
167
  8
┌▓È_1
 62
     5
 10
978.87736011020013
 20
-395.33160824129999
 30
0.0
 11
985.27736011019988
 21
-395.33160824129999
 31
0.0
  0
LINE
  5
168
  8
┌▓È_1
 62
     5
 10
957.72938787300006
 20
-404.1316082413
 30
0.0
 11
959.64938787299991
 21
-404.1316082413
 31
0.0
  0
LINE
  5
169
  8
┌▓È_1
 62
     5
 10
957.72938787300006
 20
-404.1316082413
 30
0.0
 11
957.72938787300006
 21
-406.53160824129998
 31
0.0
  0
INSERT
  5
16A
  8
0
  6
CONTINUOUS
  2
*U24
 10
0.0
 20
0.0
 30
0.0
  0
LINE
  5
16B
  8
┌▓È_1
 62
     5
 10
968.70973883629995
 20
-403.09021817559989
 30
0.0
 11
968.42477554059997
 21
-403.36922320629998
 31
0.0
  0
LINE
  5
16C
  8
┌▓È_1
 62
     5
 10
939.872418176
 20
-400.9316082412999
 30
0.0
 11
939.872418176
 21
-403.33160824129999
 31
0.0
  0
INSERT
  5
16D
  8
0
  6
CONTINUOUS
  2
*U25
 10
0.0
 20
0.0
 30
0.0
  0
LINE
  5
16E
  8
┌▓È_1
 62
     5
 10
984.20690307990014
 20
-398.05160824130002
 30
0.0
 11
990.07736011020006
 21
-398.05160824130002
 31
0.0
  0
LINE
  5
16F
  8
┌▓È_1
 10
871.47801544399988
 20
-358.5878849883
 30
0.0
 11
871.47801544399988
 21
-409.5878849883
 31
0.0
  0
LINE
  5
170
  8
┌▓È_1
 10
999.47801544399999
 20
-358.5878849883
 30
0.0
 11
999.47801544399999
 21
-409.5878849883
 31
0.0
  0
LINE
  5
171
  8
┌▓È_1
 10
903.47801544399988
 20
-358.5878849883
 30
0.0
 11
903.47801544399988
 21
-375.5878849883
 31
0.0
  0
LINE
  5
172
  8
┌▓È_1
 10
967.47801544399999
 20
-358.5878849883
 30
0.0
 11
967.47801544399999
 21
-392.5878849883
 31
0.0
  0
LINE
  5
173
  8
┌▓È_1
 62
     5
 10
975.67736011019997
 20
-398.05160824130002
 30
0.0
 11
975.67736011019997
 21
-400.9316082412999
 31
0.0
  0
LINE
  5
174
  8
┌▓È_1
 62
     5
 10
951.07241817600004
 20
-401.73160824130002
 30
0.0
 11
951.07241817600004
 21
-400.9316082412999
 31
0.0
  0
LINE
  5
175
  8
┌▓È_1
 62
     5
 10
957.72938787300006
 20
-399.04698466920001
 30
0.0
 11
964.12938787299993
 21
-399.04698466920001
 31
0.0
  0
LINE
  5
176
  8
┌▓È_1
 62
     5
 10
964.98748785969997
 20
-400.96212168940002
 30
0.0
 11
964.60253456949988
 21
-401.38730306629992
 31
0.0
  0
ARC
  5
177
  8
┌▓È_1
 62
     5
 10
944.67241817599995
 20
-401.73160824130002
 30
0.0
 40
2.399999999999999
 50
270.0
 51
0.0
  0
LINE
  5
178
  8
┌▓È_1
 62
     5
 10
947.07241817600016
 20
-395.33160824129999
 30
0.0
 11
947.07241817600016
 21
-398.53160824129998
 31
0.0
  0
LINE
  5
179
  8
┌▓È_1
 62
     5
 10
985.03566560649995
 20
-400.9316082412999
 30
0.0
 11
990.07736011020006
 21
-400.9316082412999
 31
0.0
  0
LINE
  5
17A
  8
┌▓È_1
 62
     5
 10
970.52938787300002
 20
-397.73160824130002
 30
0.0
 11
972.12938787300004
 21
-395.33160824129999
 31
0.0
  0
LINE
  5
17B
  8
┌▓È_1
 62
     5
 10
561.47801544399999
 20
-409.5878849883
 30
0.0
 11
561.47801544399999
 21
-29.587884988300001
 31
0.0
  0
LINE
  5
17C
  8
┌▓È_1
 10
999.47801544399999
 20
-375.5878849883
 30
0.0
 11
1111.478015444
 21
-375.5878849883
 31
0.0
  0
LINE
  5
17D
  8
┌▓È_1
 62
     5
 10
561.47801544399999
 20
-29.587884988300001
 30
0.0
 11
1111.478015444
 21
-29.587884988300001
 31
0.0
  0
LINE
  5
17E
  8
┌▓È_1
 62
     5
 10
944.67241817599995
 20
-404.1316082413
 30
0.0
 11
939.872418176
 21
-404.1316082413
 31
0.0
  0
LINE
  5
17F
  8
┌▓È_1
 62
     5
 10
982.3973601102
 20
-407.33160824129999
 30
0.0
 11
981.74029344350004
 21
-405.09160824129992
 31
0.0
  0
LINE
  5
180
  8
┌▓È_1
 62
     5
 10
985.40400450729999
 20
-402.21160824129993
 30
0.0
 11
985.03566560649995
 21
-400.9316082412999
 31
0.0
  0
LINE
  5
181
  8
┌▓È_1
 62
     5
 10
939.872418176
 20
-404.1316082413
 30
0.0
 11
939.872418176
 21
-406.53160824129998
 31
0.0
  0
LINE
  5
182
  8
┌▓È_1
 62
     5
 10
939.872418176
 20
-400.9316082412999
 30
0.0
 11
939.63065207750003
 21
-400.9316082412999
 31
0.0
  0
LINE
  5
183
  8
┌▓È_1
 62
     5
 10
980.89549344349996
 20
-402.21160824129993
 30
0.0
 11
980.52002677689995
 21
-400.9316082412999
 31
0.0
  0
LINE
  5
184
  8
┌▓È_1
 62
     5
 10
990.07736011020006
 20
-402.21160824129993
 30
0.0
 11
990.07736011020006
 21
-405.09160824129992
 31
0.0
  0
LINE
  5
185
  8
┌▓È_1
 62
     5
 10
939.872418176
 20
-398.53160824129998
 30
0.0
 11
938.03065207750001
 21
-398.53160824129998
 31
0.0
  0
LINE
  5
186
  8
┌▓È_1
 62
     5
 10
957.72938787300006
 20
-406.53160824129998
 30
0.0
 11
957.72938787300006
 21
-404.1316082413
 31
0.0
  0
LINE
  5
187
  8
┌▓È_1
 62
     5
 10
943.87241817600011
 20
-398.53160824129998
 30
0.0
 11
943.87241817600011
 21
-397.73160824130002
 31
0.0
  0
LINE
  5
188
  8
┌▓È_1
 62
     5
 10
975.67736011019997
 20
-405.09160824129992
 30
0.0
 11
981.74029344350004
 21
-405.09160824129992
 31
0.0
  0
ARC
  5
189
  8
┌▓È_1
 62
     5
 10
961.72938787299995
 20
-397.73160824130002
 30
0.0
 40
8.8000000000000007
 50
322.48761197969998
 51
0.0
  0
LINE
  5
18A
  8
┌▓È_1
 62
     5
 10
985.40400450729999
 20
-402.21160824129993
 30
0.0
 11
990.07736011020006
 21
-402.21160824129993
 31
0.0
  0
LINE
  5
18B
  8
┌▓È_1
 62
     5
 10
986.87736011020013
 20
-407.33160824129999
 30
0.0
 11
986.23276703390002
 21
-405.09160824129992
 31
0.0
  0
LINE
  5
18C
  8
┌▓È_1
 62
     5
 10
943.87241817600011
 20
-400.9316082412999
 30
0.0
 11
947.07241817600016
 21
-400.9316082412999
 31
0.0
  0
LINE
  5
18D
  8
┌▓È_1
 62
     5
 10
947.07241817600016
 20
-400.9316082412999
 30
0.0
 11
947.07241817600016
 21
-401.73160824130002
 31
0.0
  0
LINE
  5
18E
  8
┌▓È_1
 62
     5
 10
975.67736011019997
 20
-398.05160824130002
 30
0.0
 11
979.67522677689988
 21
-398.05160824130002
 31
0.0
  0
LINE
  5
18F
  8
┌▓È_1
 62
     5
 10
951.07241817600004
 20
-398.53160824129998
 30
0.0
 11
951.07241817600004
 21
-397.73160824130002
 31
0.0
  0
LINE
  5
190
  8
┌▓È_1
 62
     5
 10
953.47241817599991
 20
-398.53160824129998
 30
0.0
 11
951.07241817600004
 21
-398.53160824129998
 31
0.0
  0
LINE
  5
191
  8
┌▓È_1
 62
     5
 10
975.67736011019997
 20
-402.21160824129993
 30
0.0
 11
980.89549344349996
 21
-402.21160824129993
 31
0.0
  0
LINE
  5
192
  8
┌▓È_1
 62
     5
 10
938.03065207750001
 20
-400.9316082412999
 30
0.0
 11
939.63065207750003
 21
-400.9316082412999
 31
0.0
  0
ARC
  5
193
  8
┌▓È_1
 62
     5
 10
961.72938787299995
 20
-397.73160824130002
 30
0.0
 40
8.8000000000000007
 50
270.0
 51
302.54495885400001
  0
LINE
  5
194
  8
┌▓È_1
 62
     5
 10
951.07241817600004
 20
-400.9316082412999
 30
0.0
 11
953.47241817599991
 21
-400.9316082412999
 31
0.0
  0
ARC
  5
195
  8
┌▓È_1
 62
     5
 10
959.64938787299991
 20
-398.05160824130002
 30
0.0
 40
6.0800000000000001
 50
331.39928138329998
 51
358.49204224580001
  0
LINE
  5
196
  8
┌▓È_1
 62
     5
 10
957.72938787300006
 20
-406.53160824129998
 30
0.0
 11
961.72938787299995
 21
-406.53160824129998
 31
0.0
  0
INSERT
  5
197
  8
0
  6
CONTINUOUS
  2
*U26
 10
0.0
 20
0.0
 30
0.0
  0
INSERT
  5
198
  8
0
  6
CONTINUOUS
  2
*U27
 10
0.0
 20
0.0
 30
0.0
  0
INSERT
  5
199
  8
0
  6
CONTINUOUS
  2
*U28
 10
0.0
 20
0.0
 30
0.0
  0
INSERT
  5
19A
  8
0
  6
CONTINUOUS
  2
*U29
 10
0.0
 20
0.0
 30
0.0
  0
INSERT
  5
19B
  8
0
  6
CONTINUOUS
  2
*U30
 10
0.0
 20
0.0
 30
0.0
  0
ARC
  5
19C
  8
┌▓È_1
 62
     5
 10
959.64938787299991
 20
-398.05160824130002
 30
0.0
 40
6.0800000000000001
 50
270.0
 51
298.08590481520002
  0
INSERT
  5
19D
  8
0
  6
CONTINUOUS
  2
*U31
 10
0.0
 20
0.0
 30
0.0
  0
INSERT
  5
19E
  8
0
  6
CONTINUOUS
  2
*U32
 10
0.0
 20
0.0
 30
0.0
  0
INSERT
  5
19F
  8
0
  6
CONTINUOUS
  2
*U33
 10
0.0
 20
0.0
 30
0.0
  0
INSERT
  5
1A0
  8
0
  6
CONTINUOUS
  2
*U34
 10
0.0
 20
0.0
 30
0.0
  0
LINE
  5
1A1
  8
┌▓È_1
 62
     5
 10
979.67522677689988
 20
-398.05160824130002
 30
0.0
 11
978.87736011020013
 21
-395.33160824129999
 31
0.0
  0
LINE
  5
1A2
  8
┌▓È_1
 62
     5
 10
939.872418176
 20
-395.33160824129999
 30
0.0
 11
939.872418176
 21
-398.53160824129998
 31
0.0
  0
LINE
  5
1A3
  8
┌▓È_1
 62
     5
 10
943.87241817600011
 20
-397.73160824130002
 30
0.0
 11
946.27241817599997
 21
-395.33160824129999
 31
0.0
  0
LINE
  5
1A4
  8
┌▓È_1
 62
     5
 10
946.27241817599997
 20
-395.33160824129999
 30
0.0
 11
939.872418176
 21
-395.33160824129999
 31
0.0
  0
LINE
  5
1A5
  8
┌▓È_1
 62
     5
 10
947.07241817600016
 20
-398.53160824129998
 30
0.0
 11
943.87241817600011
 21
-398.53160824129998
 31
0.0
  0
LINE
  5
1A6
  8
┌▓È_1
 62
     5
 10
983.97267227949988
 20
-397.23764201649999
 30
0.0
 11
985.27736011019988
 21
-395.33160824129999
 31
0.0
  0
ARC
  5
1A7
  8
┌▓È_1
 62
     5
 10
946.27241817599997
 20
-401.73160824130002
 30
0.0
 40
4.7999999999999989
 50
270.0
 51
0.0
  0
LINE
  5
1A8
  8
┌▓È_1
 62
     5
 10
957.72938787300006
 20
-395.33160824129999
 30
0.0
 11
957.72938787300006
 21
-398.21160824129998
 31
0.0
  0
LINE
  5
1A9
  8
┌▓È_1
 62
     5
 10
953.47241817599991
 20
-395.33160824129999
 30
0.0
 11
947.07241817600016
 21
-395.33160824129999
 31
0.0
  0
LINE
  5
1AA
  8
┌▓È_1
 62
     5
 10
986.23276703390002
 20
-405.09160824129992
 30
0.0
 11
990.07736011020006
 21
-405.09160824129992
 31
0.0
  0
LINE
  5
1AB
  8
┌▓È_1
 62
     5
 10
943.87241817600011
 20
-403.33160824129999
 30
0.0
 11
943.87241817600011
 21
-400.9316082412999
 31
0.0
  0
LINE
  5
1AC
  8
┌▓È_1
 62
     5
 10
975.67736011019997
 20
-402.21160824129993
 30
0.0
 11
975.67736011019997
 21
-405.09160824129992
 31
0.0
  0
LINE
  5
1AD
  8
┌▓È_1
 62
     5
 10
975.67736011019997
 20
-400.9316082412999
 30
0.0
 11
980.52002677689995
 21
-400.9316082412999
 31
0.0
  0
LINE
  5
1AE
  8
┌▓È_1
 62
     5
 10
990.07736011020006
 20
-398.05160824130002
 30
0.0
 11
990.07736011020006
 21
-400.9316082412999
 31
0.0
  0
LINE
  5
1AF
  8
┌▓È_1
 62
     5
 10
957.72938787300006
 20
-398.21160824129998
 30
0.0
 11
965.72938787299995
 21
-398.21160824129998
 31
0.0
  0
LINE
  5
1B0
  8
┌▓È_1
 62
     5
 10
990.71216464309987
 20
-234.9480019346
 30
0.0
 11
990.71216464309987
 21
-248.6980019346
 31
0.0
  0
LINE
  5
1B1
  8
┌▓È_1
 62
     5
 10
1015.7121646431
 20
-234.9480019346
 30
0.0
 11
1015.7121646431
 21
-248.6980019346
 31
0.0
  0
POLYLINE
  8
┌▓È_1
  5
27E
  62
5
  66
     1
 10
0.000000
 20
0.000000
 30
0.000000
  70
     8
  0
VERTEX
  8
┌▓È_1
  5
27F
 10
963.224
 20
-399.952
 30
0.000000
  70
    32
  0
VERTEX
  8
┌▓È_1
  5
280
 10
963.235
 20
-399.964
 30
0.000000
  70
    32
  0
VERTEX
  8
┌▓È_1
  5
281
 10
963.245
 20
-399.976
 30
0.000000
  70
    32
  0
VERTEX
  8
┌▓È_1
  5
282
 10
963.256
 20
-399.987
 30
0.000000
  70
    32
  0
VERTEX
  8
┌▓È_1
  5
283
 10
963.267
 20
-399.999
 30
0.000000
  70
    32
  0
VERTEX
  8
┌▓È_1
  5
284
 10
963.277
 20
-400.011
 30
0.000000
  70
    32
  0
VERTEX
  8
┌▓È_1
  5
285
 10
963.288
 20
-400.023
 30
0.000000
  70
    32
  0
VERTEX
  8
┌▓È_1
  5
286
 10
963.298
 20
-400.034
 30
0.000000
  70
    32
  0
VERTEX
  8
┌▓È_1
  5
287
 10
963.309
 20
-400.046
 30
0.000000
  70
    32
  0
VERTEX
  8
┌▓È_1
  5
288
 10
963.319
 20
-400.058
 30
0.000000
  70
    32
  0
VERTEX
  8
┌▓È_1
  5
289
 10
963.330
 20
-400.070
 30
0.000000
  70
    32
  0
VERTEX
  8
┌▓È_1
  5
28A
 10
963.340
 20
-400.082
 30
0.000000
  70
    32
  0
VERTEX
  8
┌▓È_1
  5
28B
 10
963.351
 20
-400.093
 30
0.000000
  70
    32
  0
VERTEX
  8
┌▓È_1
  5
28C
 10
963.362
 20
-400.105
 30
0.000000
  70
    32
  0
VERTEX
  8
┌▓È_1
  5
28D
 10
963.372
 20
-400.117
 30
0.000000
  70
    32
  0
VERTEX
  8
┌▓È_1
  5
28E
 10
963.383
 20
-400.129
 30
0.000000
  70
    32
  0
VERTEX
  8
┌▓È_1
  5
28F
 10
963.393
 20
-400.140
 30
0.000000
  70
    32
  0
VERTEX
  8
┌▓È_1
  5
290
 10
963.404
 20
-400.152
 30
0.000000
  70
    32
  0
VERTEX
  8
┌▓È_1
  5
291
 10
963.414
 20
-400.164
 30
0.000000
  70
    32
  0
VERTEX
  8
┌▓È_1
  5
292
 10
963.425
 20
-400.176
 30
0.000000
  70
    32
  0
VERTEX
  8
┌▓È_1
  5
293
 10
963.436
 20
-400.187
 30
0.000000
  70
    32
  0
VERTEX
  8
┌▓È_1
  5
294
 10
963.446
 20
-400.199
 30
0.000000
  70
    32
  0
VERTEX
  8
┌▓È_1
  5
295
 10
963.457
 20
-400.211
 30
0.000000
  70
    32
  0
VERTEX
  8
┌▓È_1
  5
296
 10
963.467
 20
-400.223
 30
0.000000
  70
    32
  0
VERTEX
  8
┌▓È_1
  5
297
 10
963.478
 20
-400.234
 30
0.000000
  70
    32
  0
VERTEX
  8
┌▓È_1
  5
298
 10
963.489
 20
-400.246
 30
0.000000
  70
    32
  0
VERTEX
  8
┌▓È_1
  5
299
 10
963.499
 20
-400.258
 30
0.000000
  70
    32
  0
VERTEX
  8
┌▓È_1
  5
29A
 10
963.510
 20
-400.269
 30
0.000000
  70
    32
  0
VERTEX
  8
┌▓È_1
  5
29B
 10
963.520
 20
-400.281
 30
0.000000
  70
    32
  0
VERTEX
  8
┌▓È_1
  5
29C
 10
963.531
 20
-400.293
 30
0.000000
  70
    32
  0
VERTEX
  8
┌▓È_1
  5
29D
 10
963.542
 20
-400.304
 30
0.000000
  70
    32
  0
VERTEX
  8
┌▓È_1
  5
29E
 10
963.552
 20
-400.316
 30
0.000000
  70
    32
  0
VERTEX
  8
┌▓È_1
  5
29F
 10
963.563
 20
-400.328
 30
0.000000
  70
    32
  0
VERTEX
  8
┌▓È_1
  5
2A0
 10
963.573
 20
-400.340
 30
0.000000
  70
    32
  0
VERTEX
  8
┌▓È_1
  5
2A1
 10
963.584
 20
-400.351
 30
0.000000
  70
    32
  0
VERTEX
  8
┌▓È_1
  5
2A2
 10
963.595
 20
-400.363
 30
0.000000
  70
    32
  0
VERTEX
  8
┌▓È_1
  5
2A3
 10
963.605
 20
-400.375
 30
0.000000
  70
    32
  0
VERTEX
  8
┌▓È_1
  5
2A4
 10
963.616
 20
-400.386
 30
0.000000
  70
    32
  0
VERTEX
  8
┌▓È_1
  5
2A5
 10
963.627
 20
-400.398
 30
0.000000
  70
    32
  0
VERTEX
  8
┌▓È_1
  5
2A6
 10
963.637
 20
-400.410
 30
0.000000
  70
    32
  0
VERTEX
  8
┌▓È_1
  5
2A7
 10
963.648
 20
-400.421
 30
0.000000
  70
    32
  0
VERTEX
  8
┌▓È_1
  5
2A8
 10
963.658
 20
-400.433
 30
0.000000
  70
    32
  0
VERTEX
  8
┌▓È_1
  5
2A9
 10
963.669
 20
-400.444
 30
0.000000
  70
    32
  0
VERTEX
  8
┌▓È_1
  5
2AA
 10
963.680
 20
-400.456
 30
0.000000
  70
    32
  0
VERTEX
  8
┌▓È_1
  5
2AB
 10
963.690
 20
-400.468
 30
0.000000
  70
    32
  0
VERTEX
  8
┌▓È_1
  5
2AC
 10
963.701
 20
-400.479
 30
0.000000
  70
    32
  0
VERTEX
  8
┌▓È_1
  5
2AD
 10
963.712
 20
-400.491
 30
0.000000
  70
    32
  0
VERTEX
  8
┌▓È_1
  5
2AE
 10
963.722
 20
-400.502
 30
0.000000
  70
    32
  0
VERTEX
  8
┌▓È_1
  5
2AF
 10
963.733
 20
-400.514
 30
0.000000
  70
    32
  0
VERTEX
  8
┌▓È_1
  5
2B0
 10
963.744
 20
-400.526
 30
0.000000
  70
    32
  0
VERTEX
  8
┌▓È_1
  5
2B1
 10
963.755
 20
-400.537
 30
0.000000
  70
    32
  0
VERTEX
  8
┌▓È_1
  5
2B2
 10
963.765
 20
-400.549
 30
0.000000
  70
    32
  0
VERTEX
  8
┌▓È_1
  5
2B3
 10
963.776
 20
-400.560
 30
0.000000
  70
    32
  0
VERTEX
  8
┌▓È_1
  5
2B4
 10
963.787
 20
-400.572
 30
0.000000
  70
    32
  0
VERTEX
  8
┌▓È_1
  5
2B5
 10
963.797
 20
-400.583
 30
0.000000
  70
    32
  0
VERTEX
  8
┌▓È_1
  5
2B6
 10
963.808
 20
-400.595
 30
0.000000
  70
    32
  0
VERTEX
  8
┌▓È_1
  5
2B7
 10
963.819
 20
-400.606
 30
0.000000
  70
    32
  0
VERTEX
  8
┌▓È_1
  5
2B8
 10
963.830
 20
-400.618
 30
0.000000
  70
    32
  0
VERTEX
  8
┌▓È_1
  5
2B9
 10
963.840
 20
-400.629
 30
0.000000
  70
    32
  0
VERTEX
  8
┌▓È_1
  5
2BA
 10
963.851
 20
-400.641
 30
0.000000
  70
    32
  0
VERTEX
  8
┌▓È_1
  5
2BB
 10
963.862
 20
-400.652
 30
0.000000
  70
    32
  0
VERTEX
  8
┌▓È_1
  5
2BC
 10
963.873
 20
-400.664
 30
0.000000
  70
    32
  0
VERTEX
  8
┌▓È_1
  5
2BD
 10
963.883
 20
-400.675
 30
0.000000
  70
    32
  0
VERTEX
  8
┌▓È_1
  5
2BE
 10
963.894
 20
-400.686
 30
0.000000
  70
    32
  0
VERTEX
  8
┌▓È_1
  5
2BF
 10
963.905
 20
-400.698
 30
0.000000
  70
    32
  0
VERTEX
  8
┌▓È_1
  5
2C0
 10
963.916
 20
-400.709
 30
0.000000
  70
    32
  0
VERTEX
  8
┌▓È_1
  5
2C1
 10
963.926
 20
-400.721
 30
0.000000
  70
    32
  0
VERTEX
  8
┌▓È_1
  5
2C2
 10
963.937
 20
-400.732
 30
0.000000
  70
    32
  0
VERTEX
  8
┌▓È_1
  5
2C3
 10
963.948
 20
-400.743
 30
0.000000
  70
    32
  0
VERTEX
  8
┌▓È_1
  5
2C4
 10
963.959
 20
-400.755
 30
0.000000
  70
    32
  0
VERTEX
  8
┌▓È_1
  5
2C5
 10
963.970
 20
-400.766
 30
0.000000
  70
    32
  0
VERTEX
  8
┌▓È_1
  5
2C6
 10
963.980
 20
-400.778
 30
0.000000
  70
    32
  0
VERTEX
  8
┌▓È_1
  5
2C7
 10
963.991
 20
-400.789
 30
0.000000
  70
    32
  0
VERTEX
  8
┌▓È_1
  5
2C8
 10
964.002
 20
-400.800
 30
0.000000
  70
    32
  0
VERTEX
  8
┌▓È_1
  5
2C9
 10
964.013
 20
-400.811
 30
0.000000
  70
    32
  0
VERTEX
  8
┌▓È_1
  5
2CA
 10
964.024
 20
-400.823
 30
0.000000
  70
    32
  0
VERTEX
  8
┌▓È_1
  5
2CB
 10
964.035
 20
-400.834
 30
0.000000
  70
    32
  0
VERTEX
  8
┌▓È_1
  5
2CC
 10
964.046
 20
-400.845
 30
0.000000
  70
    32
  0
VERTEX
  8
┌▓È_1
  5
2CD
 10
964.057
 20
-400.856
 30
0.000000
  70
    32
  0
VERTEX
  8
┌▓È_1
  5
2CE
 10
964.067
 20
-400.868
 30
0.000000
  70
    32
  0
VERTEX
  8
┌▓È_1
  5
2CF
 10
964.078
 20
-400.879
 30
0.000000
  70
    32
  0
VERTEX
  8
┌▓È_1
  5
2D0
 10
964.089
 20
-400.890
 30
0.000000
  70
    32
  0
VERTEX
  8
┌▓È_1
  5
2D1
 10
964.100
 20
-400.901
 30
0.000000
  70
    32
  0
VERTEX
  8
┌▓È_1
  5
2D2
 10
964.111
 20
-400.913
 30
0.000000
  70
    32
  0
VERTEX
  8
┌▓È_1
  5
2D3
 10
964.122
 20
-400.924
 30
0.000000
  70
    32
  0
VERTEX
  8
┌▓È_1
  5
2D4
 10
964.133
 20
-400.935
 30
0.000000
  70
    32
  0
VERTEX
  8
┌▓È_1
  5
2D5
 10
964.144
 20
-400.946
 30
0.000000
  70
    32
  0
VERTEX
  8
┌▓È_1
  5
2D6
 10
964.155
 20
-400.957
 30
0.000000
  70
    32
  0
VERTEX
  8
┌▓È_1
  5
2D7
 10
964.166
 20
-400.968
 30
0.000000
  70
    32
  0
VERTEX
  8
┌▓È_1
  5
2D8
 10
964.177
 20
-400.979
 30
0.000000
  70
    32
  0
VERTEX
  8
┌▓È_1
  5
2D9
 10
964.188
 20
-400.990
 30
0.000000
  70
    32
  0
VERTEX
  8
┌▓È_1
  5
2DA
 10
964.199
 20
-401.001
 30
0.000000
  70
    32
  0
VERTEX
  8
┌▓È_1
  5
2DB
 10
964.210
 20
-401.012
 30
0.000000
  70
    32
  0
VERTEX
  8
┌▓È_1
  5
2DC
 10
964.221
 20
-401.023
 30
0.000000
  70
    32
  0
VERTEX
  8
┌▓È_1
  5
2DD
 10
964.232
 20
-401.034
 30
0.000000
  70
    32
  0
VERTEX
  8
┌▓È_1
  5
2DE
 10
964.243
 20
-401.045
 30
0.000000
  70
    32
  0
VERTEX
  8
┌▓È_1
  5
2DF
 10
964.254
 20
-401.056
 30
0.000000
  70
    32
  0
VERTEX
  8
┌▓È_1
  5
2E0
 10
964.265
 20
-401.067
 30
0.000000
  70
    32
  0
VERTEX
  8
┌▓È_1
  5
2E1
 10
964.276
 20
-401.078
 30
0.000000
  70
    32
  0
VERTEX
  8
┌▓È_1
  5
2E2
 10
964.287
 20
-401.089
 30
0.000000
  70
    32
  0
VERTEX
  8
┌▓È_1
  5
2E3
 10
964.298
 20
-401.100
 30
0.000000
  70
    32
  0
VERTEX
  8
┌▓È_1
  5
2E4
 10
964.309
 20
-401.111
 30
0.000000
  70
    32
  0
VERTEX
  8
┌▓È_1
  5
2E5
 10
964.321
 20
-401.122
 30
0.000000
  70
    32
  0
VERTEX
  8
┌▓È_1
  5
2E6
 10
964.332
 20
-401.133
 30
0.000000
  70
    32
  0
VERTEX
  8
┌▓È_1
  5
2E7
 10
964.343
 20
-401.144
 30
0.000000
  70
    32
  0
VERTEX
  8
┌▓È_1
  5
2E8
 10
964.354
 20
-401.154
 30
0.000000
  70
    32
  0
VERTEX
  8
┌▓È_1
  5
2E9
 10
964.365
 20
-401.165
 30
0.000000
  70
    32
  0
VERTEX
  8
┌▓È_1
  5
2EA
 10
964.376
 20
-401.176
 30
0.000000
  70
    32
  0
VERTEX
  8
┌▓È_1
  5
2EB
 10
964.388
 20
-401.187
 30
0.000000
  70
    32
  0
VERTEX
  8
┌▓È_1
  5
2EC
 10
964.399
 20
-401.197
 30
0.000000
  70
    32
  0
VERTEX
  8
┌▓È_1
  5
2ED
 10
964.410
 20
-401.208
 30
0.000000
  70
    32
  0
VERTEX
  8
┌▓È_1
  5
2EE
 10
964.421
 20
-401.219
 30
0.000000
  70
    32
  0
VERTEX
  8
┌▓È_1
  5
2EF
 10
964.432
 20
-401.230
 30
0.000000
  70
    32
  0
VERTEX
  8
┌▓È_1
  5
2F0
 10
964.444
 20
-401.240
 30
0.000000
  70
    32
  0
VERTEX
  8
┌▓È_1
  5
2F1
 10
964.455
 20
-401.251
 30
0.000000
  70
    32
  0
VERTEX
  8
┌▓È_1
  5
2F2
 10
964.466
 20
-401.261
 30
0.000000
  70
    32
  0
VERTEX
  8
┌▓È_1
  5
2F3
 10
964.478
 20
-401.272
 30
0.000000
  70
    32
  0
VERTEX
  8
┌▓È_1
  5
2F4
 10
964.489
 20
-401.283
 30
0.000000
  70
    32
  0
VERTEX
  8
┌▓È_1
  5
2F5
 10
964.500
 20
-401.293
 30
0.000000
  70
    32
  0
VERTEX
  8
┌▓È_1
  5
2F6
 10
964.511
 20
-401.304
 30
0.000000
  70
    32
  0
VERTEX
  8
┌▓È_1
  5
2F7
 10
964.523
 20
-401.314
 30
0.000000
  70
    32
  0
VERTEX
  8
┌▓È_1
  5
2F8
 10
964.534
 20
-401.325
 30
0.000000
  70
    32
  0
VERTEX
  8
┌▓È_1
  5
2F9
 10
964.546
 20
-401.335
 30
0.000000
  70
    32
  0
VERTEX
  8
┌▓È_1
  5
2FA
 10
964.557
 20
-401.346
 30
0.000000
  70
    32
  0
VERTEX
  8
┌▓È_1
  5
2FB
 10
964.568
 20
-401.356
 30
0.000000
  70
    32
  0
VERTEX
  8
┌▓È_1
  5
2FC
 10
964.580
 20
-401.367
 30
0.000000
  70
    32
  0
VERTEX
  8
┌▓È_1
  5
2FD
 10
964.591
 20
-401.377
 30
0.000000
  70
    32
  0
VERTEX
  8
┌▓È_1
  5
2FE
 10
964.603
 20
-401.387
 30
0.000000
  70
    32
  0
SEQEND
  8
┌▓È_1
  5
2FF
  0
POLYLINE
  8
┌▓È_1
  5
300
  62
5
  66
     1
 10
0.000000
 20
0.000000
 30
0.000000
  70
     8
  0
VERTEX
  8
┌▓È_1
  5
301
 10
966.463
 20
-405.150
 30
0.000000
  70
    32
  0
VERTEX
  8
┌▓È_1
  5
302
 10
966.507
 20
-405.163
 30
0.000000
  70
    32
  0
VERTEX
  8
┌▓È_1
  5
303
 10
966.550
 20
-405.177
 30
0.000000
  70
    32
  0
VERTEX
  8
┌▓È_1
  5
304
 10
966.593
 20
-405.191
 30
0.000000
  70
    32
  0
VERTEX
  8
┌▓È_1
  5
305
 10
966.636
 20
-405.204
 30
0.000000
  70
    32
  0
VERTEX
  8
┌▓È_1
  5
306
 10
966.679
 20
-405.218
 30
0.000000
  70
    32
  0
VERTEX
  8
┌▓È_1
  5
307
 10
966.722
 20
-405.231
 30
0.000000
  70
    32
  0
VERTEX
  8
┌▓È_1
  5
308
 10
966.766
 20
-405.244
 30
0.000000
  70
    32
  0
VERTEX
  8
┌▓È_1
  5
309
 10
966.809
 20
-405.258
 30
0.000000
  70
    32
  0
VERTEX
  8
┌▓È_1
  5
30A
 10
966.852
 20
-405.271
 30
0.000000
  70
    32
  0
VERTEX
  8
┌▓È_1
  5
30B
 10
966.896
 20
-405.284
 30
0.000000
  70
    32
  0
VERTEX
  8
┌▓È_1
  5
30C
 10
966.939
 20
-405.297
 30
0.000000
  70
    32
  0
VERTEX
  8
┌▓È_1
  5
30D
 10
966.983
 20
-405.310
 30
0.000000
  70
    32
  0
VERTEX
  8
┌▓È_1
  5
30E
 10
967.026
 20
-405.323
 30
0.000000
  70
    32
  0
VERTEX
  8
┌▓È_1
  5
30F
 10
967.070
 20
-405.336
 30
0.000000
  70
    32
  0
VERTEX
  8
┌▓È_1
  5
310
 10
967.113
 20
-405.349
 30
0.000000
  70
    32
  0
VERTEX
  8
┌▓È_1
  5
311
 10
967.157
 20
-405.362
 30
0.000000
  70
    32
  0
VERTEX
  8
┌▓È_1
  5
312
 10
967.200
 20
-405.374
 30
0.000000
  70
    32
  0
VERTEX
  8
┌▓È_1
  5
313
 10
967.244
 20
-405.387
 30
0.000000
  70
    32
  0
VERTEX
  8
┌▓È_1
  5
314
 10
967.288
 20
-405.400
 30
0.000000
  70
    32
  0
VERTEX
  8
┌▓È_1
  5
315
 10
967.331
 20
-405.412
 30
0.000000
  70
    32
  0
VERTEX
  8
┌▓È_1
  5
316
 10
967.375
 20
-405.425
 30
0.000000
  70
    32
  0
VERTEX
  8
┌▓È_1
  5
317
 10
967.419
 20
-405.437
 30
0.000000
  70
    32
  0
VERTEX
  8
┌▓È_1
  5
318
 10
967.463
 20
-405.449
 30
0.000000
  70
    32
  0
VERTEX
  8
┌▓È_1
  5
319
 10
967.507
 20
-405.462
 30
0.000000
  70
    32
  0
VERTEX
  8
┌▓È_1
  5
31A
 10
967.551
 20
-405.474
 30
0.000000
  70
    32
  0
VERTEX
  8
┌▓È_1
  5
31B
 10
967.594
 20
-405.486
 30
0.000000
  70
    32
  0
VERTEX
  8
┌▓È_1
  5
31C
 10
967.638
 20
-405.498
 30
0.000000
  70
    32
  0
VERTEX
  8
┌▓È_1
  5
31D
 10
967.682
 20
-405.510
 30
0.000000
  70
    32
  0
VERTEX
  8
┌▓È_1
  5
31E
 10
967.726
 20
-405.523
 30
0.000000
  70
    32
  0
VERTEX
  8
┌▓È_1
  5
31F
 10
967.770
 20
-405.535
 30
0.000000
  70
    32
  0
VERTEX
  8
┌▓È_1
  5
320
 10
967.814
 20
-405.546
 30
0.000000
  70
    32
  0
VERTEX
  8
┌▓È_1
  5
321
 10
967.858
 20
-405.558
 30
0.000000
  70
    32
  0
VERTEX
  8
┌▓È_1
  5
322
 10
967.903
 20
-405.570
 30
0.000000
  70
    32
  0
VERTEX
  8
┌▓È_1
  5
323
 10
967.947
 20
-405.582
 30
0.000000
  70
    32
  0
VERTEX
  8
┌▓È_1
  5
324
 10
967.991
 20
-405.594
 30
0.000000
  70
    32
  0
VERTEX
  8
┌▓È_1
  5
325
 10
968.035
 20
-405.605
 30
0.000000
  70
    32
  0
VERTEX
  8
┌▓È_1
  5
326
 10
968.079
 20
-405.617
 30
0.000000
  70
    32
  0
VERTEX
  8
┌▓È_1
  5
327
 10
968.123
 20
-405.629
 30
0.000000
  70
    32
  0
VERTEX
  8
┌▓È_1
  5
328
 10
968.168
 20
-405.640
 30
0.000000
  70
    32
  0
VERTEX
  8
┌▓È_1
  5
329
 10
968.212
 20
-405.652
 30
0.000000
  70
    32
  0
VERTEX
  8
┌▓È_1
  5
32A
 10
968.256
 20
-405.663
 30
0.000000
  70
    32
  0
VERTEX
  8
┌▓È_1
  5
32B
 10
968.301
 20
-405.674
 30
0.000000
  70
    32
  0
VERTEX
  8
┌▓È_1
  5
32C
 10
968.345
 20
-405.686
 30
0.000000
  70
    32
  0
VERTEX
  8
┌▓È_1
  5
32D
 10
968.389
 20
-405.697
 30
0.000000
  70
    32
  0
VERTEX
  8
┌▓È_1
  5
32E
 10
968.434
 20
-405.708
 30
0.000000
  70
    32
  0
VERTEX
  8
┌▓È_1
  5
32F
 10
968.478
 20
-405.720
 30
0.000000
  70
    32
  0
VERTEX
  8
┌▓È_1
  5
330
 10
968.523
 20
-405.731
 30
0.000000
  70
    32
  0
VERTEX
  8
┌▓È_1
  5
331
 10
968.567
 20
-405.742
 30
0.000000
  70
    32
  0
VERTEX
  8
┌▓È_1
  5
332
 10
968.612
 20
-405.753
 30
0.000000
  70
    32
  0
VERTEX
  8
┌▓È_1
  5
333
 10
968.656
 20
-405.764
 30
0.000000
  70
    32
  0
VERTEX
  8
┌▓È_1
  5
334
 10
968.701
 20
-405.775
 30
0.000000
  70
    32
  0
VERTEX
  8
┌▓È_1
  5
335
 10
968.745
 20
-405.786
 30
0.000000
  70
    32
  0
VERTEX
  8
┌▓È_1
  5
336
 10
968.790
 20
-405.797
 30
0.000000
  70
    32
  0
VERTEX
  8
┌▓È_1
  5
337
 10
968.834
 20
-405.808
 30
0.000000
  70
    32
  0
VERTEX
  8
┌▓È_1
  5
338
 10
968.879
 20
-405.819
 30
0.000000
  70
    32
  0
VERTEX
  8
┌▓È_1
  5
339
 10
968.924
 20
-405.830
 30
0.000000
  70
    32
  0
VERTEX
  8
┌▓È_1
  5
33A
 10
968.968
 20
-405.840
 30
0.000000
  70
    32
  0
VERTEX
  8
┌▓È_1
  5
33B
 10
969.013
 20
-405.851
 30
0.000000
  70
    32
  0
VERTEX
  8
┌▓È_1
  5
33C
 10
969.058
 20
-405.862
 30
0.000000
  70
    32
  0
VERTEX
  8
┌▓È_1
  5
33D
 10
969.103
 20
-405.872
 30
0.000000
  70
    32
  0
VERTEX
  8
┌▓È_1
  5
33E
 10
969.147
 20
-405.883
 30
0.000000
  70
    32
  0
VERTEX
  8
┌▓È_1
  5
33F
 10
969.192
 20
-405.894
 30
0.000000
  70
    32
  0
VERTEX
  8
┌▓È_1
  5
340
 10
969.237
 20
-405.904
 30
0.000000
  70
    32
  0
VERTEX
  8
┌▓È_1
  5
341
 10
969.282
 20
-405.915
 30
0.000000
  70
    32
  0
VERTEX
  8
┌▓È_1
  5
342
 10
969.326
 20
-405.925
 30
0.000000
  70
    32
  0
VERTEX
  8
┌▓È_1
  5
343
 10
969.371
 20
-405.936
 30
0.000000
  70
    32
  0
VERTEX
  8
┌▓È_1
  5
344
 10
969.416
 20
-405.946
 30
0.000000
  70
    32
  0
VERTEX
  8
┌▓È_1
  5
345
 10
969.461
 20
-405.956
 30
0.000000
  70
    32
  0
VERTEX
  8
┌▓È_1
  5
346
 10
969.506
 20
-405.967
 30
0.000000
  70
    32
  0
VERTEX
  8
┌▓È_1
  5
347
 10
969.551
 20
-405.977
 30
0.000000
  70
    32
  0
VERTEX
  8
┌▓È_1
  5
348
 10
969.596
 20
-405.987
 30
0.000000
  70
    32
  0
VERTEX
  8
┌▓È_1
  5
349
 10
969.641
 20
-405.998
 30
0.000000
  70
    32
  0
VERTEX
  8
┌▓È_1
  5
34A
 10
969.686
 20
-406.008
 30
0.000000
  70
    32
  0
VERTEX
  8
┌▓È_1
  5
34B
 10
969.731
 20
-406.018
 30
0.000000
  70
    32
  0
VERTEX
  8
┌▓È_1
  5
34C
 10
969.776
 20
-406.028
 30
0.000000
  70
    32
  0
VERTEX
  8
┌▓È_1
  5
34D
 10
969.821
 20
-406.038
 30
0.000000
  70
    32
  0
VERTEX
  8
┌▓È_1
  5
34E
 10
969.866
 20
-406.049
 30
0.000000
  70
    32
  0
VERTEX
  8
┌▓È_1
  5
34F
 10
969.911
 20
-406.059
 30
0.000000
  70
    32
  0
VERTEX
  8
┌▓È_1
  5
350
 10
969.956
 20
-406.069
 30
0.000000
  70
    32
  0
VERTEX
  8
┌▓È_1
  5
351
 10
970.001
 20
-406.079
 30
0.000000
  70
    32
  0
VERTEX
  8
┌▓È_1
  5
352
 10
970.046
 20
-406.089
 30
0.000000
  70
    32
  0
VERTEX
  8
┌▓È_1
  5
353
 10
970.091
 20
-406.099
 30
0.000000
  70
    32
  0
VERTEX
  8
┌▓È_1
  5
354
 10
970.136
 20
-406.109
 30
0.000000
  70
    32
  0
VERTEX
  8
┌▓È_1
  5
355
 10
970.181
 20
-406.119
 30
0.000000
  70
    32
  0
VERTEX
  8
┌▓È_1
  5
356
 10
970.226
 20
-406.129
 30
0.000000
  70
    32
  0
VERTEX
  8
┌▓È_1
  5
357
 10
970.272
 20
-406.139
 30
0.000000
  70
    32
  0
VERTEX
  8
┌▓È_1
  5
358
 10
970.317
 20
-406.148
 30
0.000000
  70
    32
  0
VERTEX
  8
┌▓È_1
  5
359
 10
970.362
 20
-406.158
 30
0.000000
  70
    32
  0
VERTEX
  8
┌▓È_1
  5
35A
 10
970.407
 20
-406.168
 30
0.000000
  70
    32
  0
VERTEX
  8
┌▓È_1
  5
35B
 10
970.452
 20
-406.178
 30
0.000000
  70
    32
  0
VERTEX
  8
┌▓È_1
  5
35C
 10
970.497
 20
-406.188
 30
0.000000
  70
    32
  0
VERTEX
  8
┌▓È_1
  5
35D
 10
970.543
 20
-406.197
 30
0.000000
  70
    32
  0
VERTEX
  8
┌▓È_1
  5
35E
 10
970.588
 20
-406.207
 30
0.000000
  70
    32
  0
VERTEX
  8
┌▓È_1
  5
35F
 10
970.633
 20
-406.217
 30
0.000000
  70
    32
  0
VERTEX
  8
┌▓È_1
  5
360
 10
970.678
 20
-406.227
 30
0.000000
  70
    32
  0
VERTEX
  8
┌▓È_1
  5
361
 10
970.724
 20
-406.236
 30
0.000000
  70
    32
  0
VERTEX
  8
┌▓È_1
  5
362
 10
970.769
 20
-406.246
 30
0.000000
  70
    32
  0
VERTEX
  8
┌▓È_1
  5
363
 10
970.814
 20
-406.256
 30
0.000000
  70
    32
  0
VERTEX
  8
┌▓È_1
  5
364
 10
970.859
 20
-406.265
 30
0.000000
  70
    32
  0
VERTEX
  8
┌▓È_1
  5
365
 10
970.905
 20
-406.275
 30
0.000000
  70
    32
  0
VERTEX
  8
┌▓È_1
  5
366
 10
970.950
 20
-406.285
 30
0.000000
  70
    32
  0
VERTEX
  8
┌▓È_1
  5
367
 10
970.995
 20
-406.294
 30
0.000000
  70
    32
  0
VERTEX
  8
┌▓È_1
  5
368
 10
971.041
 20
-406.304
 30
0.000000
  70
    32
  0
VERTEX
  8
┌▓È_1
  5
369
 10
971.086
 20
-406.313
 30
0.000000
  70
    32
  0
VERTEX
  8
┌▓È_1
  5
36A
 10
971.131
 20
-406.323
 30
0.000000
  70
    32
  0
VERTEX
  8
┌▓È_1
  5
36B
 10
971.177
 20
-406.333
 30
0.000000
  70
    32
  0
VERTEX
  8
┌▓È_1
  5
36C
 10
971.222
 20
-406.342
 30
0.000000
  70
    32
  0
VERTEX
  8
┌▓È_1
  5
36D
 10
971.267
 20
-406.352
 30
0.000000
  70
    32
  0
VERTEX
  8
┌▓È_1
  5
36E
 10
971.313
 20
-406.361
 30
0.000000
  70
    32
  0
VERTEX
  8
┌▓È_1
  5
36F
 10
971.358
 20
-406.371
 30
0.000000
  70
    32
  0
VERTEX
  8
┌▓È_1
  5
370
 10
971.403
 20
-406.380
 30
0.000000
  70
    32
  0
VERTEX
  8
┌▓È_1
  5
371
 10
971.449
 20
-406.390
 30
0.000000
  70
    32
  0
VERTEX
  8
┌▓È_1
  5
372
 10
971.494
 20
-406.399
 30
0.000000
  70
    32
  0
VERTEX
  8
┌▓È_1
  5
373
 10
971.539
 20
-406.409
 30
0.000000
  70
    32
  0
VERTEX
  8
┌▓È_1
  5
374
 10
971.585
 20
-406.418
 30
0.000000
  70
    32
  0
VERTEX
  8
┌▓È_1
  5
375
 10
971.630
 20
-406.428
 30
0.000000
  70
    32
  0
VERTEX
  8
┌▓È_1
  5
376
 10
971.675
 20
-406.437
 30
0.000000
  70
    32
  0
VERTEX
  8
┌▓È_1
  5
377
 10
971.721
 20
-406.447
 30
0.000000
  70
    32
  0
VERTEX
  8
┌▓È_1
  5
378
 10
971.766
 20
-406.456
 30
0.000000
  70
    32
  0
VERTEX
  8
┌▓È_1
  5
379
 10
971.812
 20
-406.466
 30
0.000000
  70
    32
  0
VERTEX
  8
┌▓È_1
  5
37A
 10
971.857
 20
-406.475
 30
0.000000
  70
    32
  0
VERTEX
  8
┌▓È_1
  5
37B
 10
971.902
 20
-406.484
 30
0.000000
  70
    32
  0
VERTEX
  8
┌▓È_1
  5
37C
 10
971.948
 20
-406.494
 30
0.000000
  70
    32
  0
VERTEX
  8
┌▓È_1
  5
37D
 10
971.993
 20
-406.503
 30
0.000000
  70
    32
  0
VERTEX
  8
┌▓È_1
  5
37E
 10
972.039
 20
-406.513
 30
0.000000
  70
    32
  0
VERTEX
  8
┌▓È_1
  5
37F
 10
972.084
 20
-406.522
 30
0.000000
  70
    32
  0
VERTEX
  8
┌▓È_1
  5
380
 10
972.129
 20
-406.532
 30
0.000000
  70
    32
  0
SEQEND
  8
┌▓È_1
  5
381
  0
POLYLINE
  8
┌▓È_1
  5
382
  62
5
  66
     1
 10
0.000000
 20
0.000000
 30
0.000000
  70
     8
  0
VERTEX
  8
┌▓È_1
  5
383
 10
957.729
 20
-399.562
 30
0.000000
  70
    32
  0
VERTEX
  8
┌▓È_1
  5
384
 10
957.758
 20
-399.589
 30
0.000000
  70
    32
  0
VERTEX
  8
┌▓È_1
  5
385
 10
957.787
 20
-399.615
 30
0.000000
  70
    32
  0
VERTEX
  8
┌▓È_1
  5
386
 10
957.816
 20
-399.642
 30
0.000000
  70
    32
  0
VERTEX
  8
┌▓È_1
  5
387
 10
957.845
 20
-399.669
 30
0.000000
  70
    32
  0
VERTEX
  8
┌▓È_1
  5
388
 10
957.873
 20
-399.695
 30
0.000000
  70
    32
  0
VERTEX
  8
┌▓È_1
  5
389
 10
957.902
 20
-399.722
 30
0.000000
  70
    32
  0
VERTEX
  8
┌▓È_1
  5
38A
 10
957.931
 20
-399.748
 30
0.000000
  70
    32
  0
VERTEX
  8
┌▓È_1
  5
38B
 10
957.960
 20
-399.775
 30
0.000000
  70
    32
  0
VERTEX
  8
┌▓È_1
  5
38C
 10
957.989
 20
-399.801
 30
0.000000
  70
    32
  0
VERTEX
  8
┌▓È_1
  5
38D
 10
958.018
 20
-399.828
 30
0.000000
  70
    32
  0
VERTEX
  8
┌▓È_1
  5
38E
 10
958.046
 20
-399.854
 30
0.000000
  70
    32
  0
VERTEX
  8
┌▓È_1
  5
38F
 10
958.075
 20
-399.881
 30
0.000000
  70
    32
  0
VERTEX
  8
┌▓È_1
  5
390
 10
958.104
 20
-399.907
 30
0.000000
  70
    32
  0
VERTEX
  8
┌▓È_1
  5
391
 10
958.133
 20
-399.934
 30
0.000000
  70
    32
  0
VERTEX
  8
┌▓È_1
  5
392
 10
958.162
 20
-399.961
 30
0.000000
  70
    32
  0
VERTEX
  8
┌▓È_1
  5
393
 10
958.191
 20
-399.987
 30
0.000000
  70
    32
  0
VERTEX
  8
┌▓È_1
  5
394
 10
958.220
 20
-400.013
 30
0.000000
  70
    32
  0
VERTEX
  8
┌▓È_1
  5
395
 10
958.248
 20
-400.040
 30
0.000000
  70
    32
  0
VERTEX
  8
┌▓È_1
  5
396
 10
958.277
 20
-400.066
 30
0.000000
  70
    32
  0
VERTEX
  8
┌▓È_1
  5
397
 10
958.306
 20
-400.093
 30
0.000000
  70
    32
  0
VERTEX
  8
┌▓È_1
  5
398
 10
958.335
 20
-400.119
 30
0.000000
  70
    32
  0
VERTEX
  8
┌▓È_1
  5
399
 10
958.364
 20
-400.146
 30
0.000000
  70
    32
  0
VERTEX
  8
┌▓È_1
  5
39A
 10
958.393
 20
-400.172
 30
0.000000
  70
    32
  0
VERTEX
  8
┌▓È_1
  5
39B
 10
958.422
 20
-400.199
 30
0.000000
  70
    32
  0
VERTEX
  8
┌▓È_1
  5
39C
 10
958.451
 20
-400.225
 30
0.000000
  70
    32
  0
VERTEX
  8
┌▓È_1
  5
39D
 10
958.480
 20
-400.251
 30
0.000000
  70
    32
  0
VERTEX
  8
┌▓È_1
  5
39E
 10
958.508
 20
-400.278
 30
0.000000
  70
    32
  0
VERTEX
  8
┌▓È_1
  5
39F
 10
958.537
 20
-400.304
 30
0.000000
  70
    32
  0
VERTEX
  8
┌▓È_1
  5
3A0
 10
958.566
 20
-400.330
 30
0.000000
  70
    32
  0
VERTEX
  8
┌▓È_1
  5
3A1
 10
958.595
 20
-400.357
 30
0.000000
  70
    32
  0
VERTEX
  8
┌▓È_1
  5
3A2
 10
958.624
 20
-400.383
 30
0.000000
  70
    32
  0
VERTEX
  8
┌▓È_1
  5
3A3
 10
958.653
 20
-400.409
 30
0.000000
  70
    32
  0
VERTEX
  8
┌▓È_1
  5
3A4
 10
958.682
 20
-400.436
 30
0.000000
  70
    32
  0
VERTEX
  8
┌▓È_1
  5
3A5
 10
958.711
 20
-400.462
 30
0.000000
  70
    32
  0
VERTEX
  8
┌▓È_1
  5
3A6
 10
958.740
 20
-400.488
 30
0.000000
  70
    32
  0
VERTEX
  8
┌▓È_1
  5
3A7
 10
958.769
 20
-400.514
 30
0.000000
  70
    32
  0
VERTEX
  8
┌▓È_1
  5
3A8
 10
958.798
 20
-400.541
 30
0.000000
  70
    32
  0
VERTEX
  8
┌▓È_1
  5
3A9
 10
958.827
 20
-400.567
 30
0.000000
  70
    32
  0
VERTEX
  8
┌▓È_1
  5
3AA
 10
958.856
 20
-400.593
 30
0.000000
  70
    32
  0
VERTEX
  8
┌▓È_1
  5
3AB
 10
958.885
 20
-400.619
 30
0.000000
  70
    32
  0
VERTEX
  8
┌▓È_1
  5
3AC
 10
958.914
 20
-400.645
 30
0.000000
  70
    32
  0
VERTEX
  8
┌▓È_1
  5
3AD
 10
958.943
 20
-400.671
 30
0.000000
  70
    32
  0
VERTEX
  8
┌▓È_1
  5
3AE
 10
958.973
 20
-400.697
 30
0.000000
  70
    32
  0
VERTEX
  8
┌▓È_1
  5
3AF
 10
959.002
 20
-400.723
 30
0.000000
  70
    32
  0
VERTEX
  8
┌▓È_1
  5
3B0
 10
959.031
 20
-400.749
 30
0.000000
  70
    32
  0
VERTEX
  8
┌▓È_1
  5
3B1
 10
959.060
 20
-400.775
 30
0.000000
  70
    32
  0
VERTEX
  8
┌▓È_1
  5
3B2
 10
959.089
 20
-400.801
 30
0.000000
  70
    32
  0
VERTEX
  8
┌▓È_1
  5
3B3
 10
959.118
 20
-400.827
 30
0.000000
  70
    32
  0
VERTEX
  8
┌▓È_1
  5
3B4
 10
959.147
 20
-400.853
 30
0.000000
  70
    32
  0
VERTEX
  8
┌▓È_1
  5
3B5
 10
959.177
 20
-400.879
 30
0.000000
  70
    32
  0
VERTEX
  8
┌▓È_1
  5
3B6
 10
959.206
 20
-400.905
 30
0.000000
  70
    32
  0
VERTEX
  8
┌▓È_1
  5
3B7
 10
959.235
 20
-400.931
 30
0.000000
  70
    32
  0
VERTEX
  8
┌▓È_1
  5
3B8
 10
959.264
 20
-400.957
 30
0.000000
  70
    32
  0
VERTEX
  8
┌▓È_1
  5
3B9
 10
959.293
 20
-400.982
 30
0.000000
  70
    32
  0
VERTEX
  8
┌▓È_1
  5
3BA
 10
959.323
 20
-401.008
 30
0.000000
  70
    32
  0
VERTEX
  8
┌▓È_1
  5
3BB
 10
959.352
 20
-401.034
 30
0.000000
  70
    32
  0
VERTEX
  8
┌▓È_1
  5
3BC
 10
959.381
 20
-401.059
 30
0.000000
  70
    32
  0
VERTEX
  8
┌▓È_1
  5
3BD
 10
959.411
 20
-401.085
 30
0.000000
  70
    32
  0
VERTEX
  8
┌▓È_1
  5
3BE
 10
959.440
 20
-401.111
 30
0.000000
  70
    32
  0
VERTEX
  8
┌▓È_1
  5
3BF
 10
959.469
 20
-401.136
 30
0.000000
  70
    32
  0
VERTEX
  8
┌▓È_1
  5
3C0
 10
959.499
 20
-401.162
 30
0.000000
  70
    32
  0
VERTEX
  8
┌▓È_1
  5
3C1
 10
959.528
 20
-401.187
 30
0.000000
  70
    32
  0
VERTEX
  8
┌▓È_1
  5
3C2
 10
959.557
 20
-401.213
 30
0.000000
  70
    32
  0
VERTEX
  8
┌▓È_1
  5
3C3
 10
959.587
 20
-401.238
 30
0.000000
  70
    32
  0
VERTEX
  8
┌▓È_1
  5
3C4
 10
959.616
 20
-401.264
 30
0.000000
  70
    32
  0
VERTEX
  8
┌▓È_1
  5
3C5
 10
959.646
 20
-401.289
 30
0.000000
  70
    32
  0
VERTEX
  8
┌▓È_1
  5
3C6
 10
959.675
 20
-401.314
 30
0.000000
  70
    32
  0
VERTEX
  8
┌▓È_1
  5
3C7
 10
959.705
 20
-401.340
 30
0.000000
  70
    32
  0
VERTEX
  8
┌▓È_1
  5
3C8
 10
959.734
 20
-401.365
 30
0.000000
  70
    32
  0
VERTEX
  8
┌▓È_1
  5
3C9
 10
959.764
 20
-401.390
 30
0.000000
  70
    32
  0
VERTEX
  8
┌▓È_1
  5
3CA
 10
959.793
 20
-401.415
 30
0.000000
  70
    32
  0
VERTEX
  8
┌▓È_1
  5
3CB
 10
959.823
 20
-401.441
 30
0.000000
  70
    32
  0
VERTEX
  8
┌▓È_1
  5
3CC
 10
959.853
 20
-401.466
 30
0.000000
  70
    32
  0
VERTEX
  8
┌▓È_1
  5
3CD
 10
959.882
 20
-401.491
 30
0.000000
  70
    32
  0
VERTEX
  8
┌▓È_1
  5
3CE
 10
959.912
 20
-401.516
 30
0.000000
  70
    32
  0
VERTEX
  8
┌▓È_1
  5
3CF
 10
959.941
 20
-401.541
 30
0.000000
  70
    32
  0
VERTEX
  8
┌▓È_1
  5
3D0
 10
959.971
 20
-401.566
 30
0.000000
  70
    32
  0
VERTEX
  8
┌▓È_1
  5
3D1
 10
960.001
 20
-401.591
 30
0.000000
  70
    32
  0
VERTEX
  8
┌▓È_1
  5
3D2
 10
960.031
 20
-401.615
 30
0.000000
  70
    32
  0
VERTEX
  8
┌▓È_1
  5
3D3
 10
960.060
 20
-401.640
 30
0.000000
  70
    32
  0
VERTEX
  8
┌▓È_1
  5
3D4
 10
960.090
 20
-401.665
 30
0.000000
  70
    32
  0
VERTEX
  8
┌▓È_1
  5
3D5
 10
960.120
 20
-401.690
 30
0.000000
  70
    32
  0
VERTEX
  8
┌▓È_1
  5
3D6
 10
960.150
 20
-401.714
 30
0.000000
  70
    32
  0
VERTEX
  8
┌▓È_1
  5
3D7
 10
960.180
 20
-401.739
 30
0.000000
  70
    32
  0
VERTEX
  8
┌▓È_1
  5
3D8
 10
960.210
 20
-401.764
 30
0.000000
  70
    32
  0
VERTEX
  8
┌▓È_1
  5
3D9
 10
960.239
 20
-401.788
 30
0.000000
  70
    32
  0
VERTEX
  8
┌▓È_1
  5
3DA
 10
960.269
 20
-401.813
 30
0.000000
  70
    32
  0
VERTEX
  8
┌▓È_1
  5
3DB
 10
960.299
 20
-401.837
 30
0.000000
  70
    32
  0
VERTEX
  8
┌▓È_1
  5
3DC
 10
960.329
 20
-401.862
 30
0.000000
  70
    32
  0
VERTEX
  8
┌▓È_1
  5
3DD
 10
960.359
 20
-401.886
 30
0.000000
  70
    32
  0
VERTEX
  8
┌▓È_1
  5
3DE
 10
960.389
 20
-401.910
 30
0.000000
  70
    32
  0
VERTEX
  8
┌▓È_1
  5
3DF
 10
960.419
 20
-401.935
 30
0.000000
  70
    32
  0
VERTEX
  8
┌▓È_1
  5
3E0
 10
960.450
 20
-401.959
 30
0.000000
  70
    32
  0
VERTEX
  8
┌▓È_1
  5
3E1
 10
960.480
 20
-401.983
 30
0.000000
  70
    32
  0
VERTEX
  8
┌▓È_1
  5
3E2
 10
960.510
 20
-402.007
 30
0.000000
  70
    32
  0
VERTEX
  8
┌▓È_1
  5
3E3
 10
960.540
 20
-402.031
 30
0.000000
  70
    32
  0
VERTEX
  8
┌▓È_1
  5
3E4
 10
960.570
 20
-402.055
 30
0.000000
  70
    32
  0
VERTEX
  8
┌▓È_1
  5
3E5
 10
960.600
 20
-402.079
 30
0.000000
  70
    32
  0
VERTEX
  8
┌▓È_1
  5
3E6
 10
960.631
 20
-402.103
 30
0.000000
  70
    32
  0
VERTEX
  8
┌▓È_1
  5
3E7
 10
960.661
 20
-402.127
 30
0.000000
  70
    32
  0
VERTEX
  8
┌▓È_1
  5
3E8
 10
960.691
 20
-402.150
 30
0.000000
  70
    32
  0
VERTEX
  8
┌▓È_1
  5
3E9
 10
960.722
 20
-402.174
 30
0.000000
  70
    32
  0
VERTEX
  8
┌▓È_1
  5
3EA
 10
960.752
 20
-402.198
 30
0.000000
  70
    32
  0
VERTEX
  8
┌▓È_1
  5
3EB
 10
960.783
 20
-402.221
 30
0.000000
  70
    32
  0
VERTEX
  8
┌▓È_1
  5
3EC
 10
960.813
 20
-402.245
 30
0.000000
  70
    32
  0
VERTEX
  8
┌▓È_1
  5
3ED
 10
960.843
 20
-402.268
 30
0.000000
  70
    32
  0
VERTEX
  8
┌▓È_1
  5
3EE
 10
960.874
 20
-402.292
 30
0.000000
  70
    32
  0
VERTEX
  8
┌▓È_1
  5
3EF
 10
960.905
 20
-402.315
 30
0.000000
  70
    32
  0
VERTEX
  8
┌▓È_1
  5
3F0
 10
960.935
 20
-402.339
 30
0.000000
  70
    32
  0
VERTEX
  8
┌▓È_1
  5
3F1
 10
960.966
 20
-402.362
 30
0.000000
  70
    32
  0
VERTEX
  8
┌▓È_1
  5
3F2
 10
960.996
 20
-402.385
 30
0.000000
  70
    32
  0
VERTEX
  8
┌▓È_1
  5
3F3
 10
961.027
 20
-402.408
 30
0.000000
  70
    32
  0
VERTEX
  8
┌▓È_1
  5
3F4
 10
961.058
 20
-402.431
 30
0.000000
  70
    32
  0
VERTEX
  8
┌▓È_1
  5
3F5
 10
961.089
 20
-402.454
 30
0.000000
  70
    32
  0
VERTEX
  8
┌▓È_1
  5
3F6
 10
961.119
 20
-402.477
 30
0.000000
  70
    32
  0
VERTEX
  8
┌▓È_1
  5
3F7
 10
961.150
 20
-402.500
 30
0.000000
  70
    32
  0
VERTEX
  8
┌▓È_1
  5
3F8
 10
961.181
 20
-402.523
 30
0.000000
  70
    32
  0
VERTEX
  8
┌▓È_1
  5
3F9
 10
961.212
 20
-402.546
 30
0.000000
  70
    32
  0
VERTEX
  8
┌▓È_1
  5
3FA
 10
961.243
 20
-402.568
 30
0.000000
  70
    32
  0
VERTEX
  8
┌▓È_1
  5
3FB
 10
961.274
 20
-402.591
 30
0.000000
  70
    32
  0
VERTEX
  8
┌▓È_1
  5
3FC
 10
961.305
 20
-402.613
 30
0.000000
  70
    32
  0
VERTEX
  8
┌▓È_1
  5
3FD
 10
961.336
 20
-402.636
 30
0.000000
  70
    32
  0
VERTEX
  8
┌▓È_1
  5
3FE
 10
961.367
 20
-402.658
 30
0.000000
  70
    32
  0
VERTEX
  8
┌▓È_1
  5
3FF
 10
961.398
 20
-402.681
 30
0.000000
  70
    32
  0
VERTEX
  8
┌▓È_1
  5
400
 10
961.429
 20
-402.703
 30
0.000000
  70
    32
  0
VERTEX
  8
┌▓È_1
  5
401
 10
961.460
 20
-402.725
 30
0.000000
  70
    32
  0
VERTEX
  8
┌▓È_1
  5
402
 10
961.491
 20
-402.747
 30
0.000000
  70
    32
  0
VERTEX
  8
┌▓È_1
  5
403
 10
961.523
 20
-402.769
 30
0.000000
  70
    32
  0
VERTEX
  8
┌▓È_1
  5
404
 10
961.554
 20
-402.791
 30
0.000000
  70
    32
  0
VERTEX
  8
┌▓È_1
  5
405
 10
961.585
 20
-402.813
 30
0.000000
  70
    32
  0
VERTEX
  8
┌▓È_1
  5
406
 10
961.617
 20
-402.835
 30
0.000000
  70
    32
  0
VERTEX
  8
┌▓È_1
  5
407
 10
961.648
 20
-402.857
 30
0.000000
  70
    32
  0
VERTEX
  8
┌▓È_1
  5
408
 10
961.679
 20
-402.879
 30
0.000000
  70
    32
  0
VERTEX
  8
┌▓È_1
  5
409
 10
961.711
 20
-402.900
 30
0.000000
  70
    32
  0
VERTEX
  8
┌▓È_1
  5
40A
 10
961.742
 20
-402.922
 30
0.000000
  70
    32
  0
VERTEX
  8
┌▓È_1
  5
40B
 10
961.774
 20
-402.943
 30
0.000000
  70
    32
  0
VERTEX
  8
┌▓È_1
  5
40C
 10
961.806
 20
-402.965
 30
0.000000
  70
    32
  0
VERTEX
  8
┌▓È_1
  5
40D
 10
961.837
 20
-402.986
 30
0.000000
  70
    32
  0
VERTEX
  8
┌▓È_1
  5
40E
 10
961.869
 20
-403.007
 30
0.000000
  70
    32
  0
VERTEX
  8
┌▓È_1
  5
40F
 10
961.901
 20
-403.028
 30
0.000000
  70
    32
  0
VERTEX
  8
┌▓È_1
  5
410
 10
961.932
 20
-403.050
 30
0.000000
  70
    32
  0
VERTEX
  8
┌▓È_1
  5
411
 10
961.964
 20
-403.071
 30
0.000000
  70
    32
  0
VERTEX
  8
┌▓È_1
  5
412
 10
961.996
 20
-403.092
 30
0.000000
  70
    32
  0
VERTEX
  8
┌▓È_1
  5
413
 10
962.028
 20
-403.112
 30
0.000000
  70
    32
  0
VERTEX
  8
┌▓È_1
  5
414
 10
962.060
 20
-403.133
 30
0.000000
  70
    32
  0
VERTEX
  8
┌▓È_1
  5
415
 10
962.092
 20
-403.154
 30
0.000000
  70
    32
  0
VERTEX
  8
┌▓È_1
  5
416
 10
962.124
 20
-403.175
 30
0.000000
  70
    32
  0
VERTEX
  8
┌▓È_1
  5
417
 10
962.156
 20
-403.195
 30
0.000000
  70
    32
  0
VERTEX
  8
┌▓È_1
  5
418
 10
962.188
 20
-403.216
 30
0.000000
  70
    32
  0
VERTEX
  8
┌▓È_1
  5
419
 10
962.220
 20
-403.236
 30
0.000000
  70
    32
  0
VERTEX
  8
┌▓È_1
  5
41A
 10
962.253
 20
-403.256
 30
0.000000
  70
    32
  0
VERTEX
  8
┌▓È_1
  5
41B
 10
962.285
 20
-403.276
 30
0.000000
  70
    32
  0
VERTEX
  8
┌▓È_1
  5
41C
 10
962.317
 20
-403.297
 30
0.000000
  70
    32
  0
VERTEX
  8
┌▓È_1
  5
41D
 10
962.349
 20
-403.317
 30
0.000000
  70
    32
  0
VERTEX
  8
┌▓È_1
  5
41E
 10
962.382
 20
-403.337
 30
0.000000
  70
    32
  0
VERTEX
  8
┌▓È_1
  5
41F
 10
962.414
 20
-403.357
 30
0.000000
  70
    32
  0
VERTEX
  8
┌▓È_1
  5
420
 10
962.447
 20
-403.376
 30
0.000000
  70
    32
  0
VERTEX
  8
┌▓È_1
  5
421
 10
962.479
 20
-403.396
 30
0.000000
  70
    32
  0
VERTEX
  8
┌▓È_1
  5
422
 10
962.512
 20
-403.416
 30
0.000000
  70
    32
  0
SEQEND
  8
┌▓È_1
  5
423
  0
POLYLINE
  8
┌▓È_1
  5
424
  62
5
  66
     1
 10
0.000000
 20
0.000000
 30
0.000000
  70
     8
  0
VERTEX
  8
┌▓È_1
  5
425
 10
968.425
 20
-403.369
 30
0.000000
  70
    32
  0
VERTEX
  8
┌▓È_1
  5
426
 10
968.453
 20
-403.377
 30
0.000000
  70
    32
  0
VERTEX
  8
┌▓È_1
  5
427
 10
968.481
 20
-403.385
 30
0.000000
  70
    32
  0
VERTEX
  8
┌▓È_1
  5
428
 10
968.509
 20
-403.393
 30
0.000000
  70
    32
  0
VERTEX
  8
┌▓È_1
  5
429
 10
968.537
 20
-403.401
 30
0.000000
  70
    32
  0
VERTEX
  8
┌▓È_1
  5
42A
 10
968.565
 20
-403.408
 30
0.000000
  70
    32
  0
VERTEX
  8
┌▓È_1
  5
42B
 10
968.593
 20
-403.416
 30
0.000000
  70
    32
  0
VERTEX
  8
┌▓È_1
  5
42C
 10
968.621
 20
-403.424
 30
0.000000
  70
    32
  0
VERTEX
  8
┌▓È_1
  5
42D
 10
968.649
 20
-403.431
 30
0.000000
  70
    32
  0
VERTEX
  8
┌▓È_1
  5
42E
 10
968.678
 20
-403.439
 30
0.000000
  70
    32
  0
VERTEX
  8
┌▓È_1
  5
42F
 10
968.706
 20
-403.446
 30
0.000000
  70
    32
  0
VERTEX
  8
┌▓È_1
  5
430
 10
968.734
 20
-403.454
 30
0.000000
  70
    32
  0
VERTEX
  8
┌▓È_1
  5
431
 10
968.762
 20
-403.461
 30
0.000000
  70
    32
  0
VERTEX
  8
┌▓È_1
  5
432
 10
968.791
 20
-403.469
 30
0.000000
  70
    32
  0
VERTEX
  8
┌▓È_1
  5
433
 10
968.819
 20
-403.476
 30
0.000000
  70
    32
  0
VERTEX
  8
┌▓È_1
  5
434
 10
968.847
 20
-403.484
 30
0.000000
  70
    32
  0
VERTEX
  8
┌▓È_1
  5
435
 10
968.876
 20
-403.491
 30
0.000000
  70
    32
  0
VERTEX
  8
┌▓È_1
  5
436
 10
968.904
 20
-403.498
 30
0.000000
  70
    32
  0
VERTEX
  8
┌▓È_1
  5
437
 10
968.932
 20
-403.505
 30
0.000000
  70
    32
  0
VERTEX
  8
┌▓È_1
  5
438
 10
968.961
 20
-403.512
 30
0.000000
  70
    32
  0
VERTEX
  8
┌▓È_1
  5
439
 10
968.989
 20
-403.520
 30
0.000000
  70
    32
  0
VERTEX
  8
┌▓È_1
  5
43A
 10
969.018
 20
-403.527
 30
0.000000
  70
    32
  0
VERTEX
  8
┌▓È_1
  5
43B
 10
969.046
 20
-403.534
 30
0.000000
  70
    32
  0
VERTEX
  8
┌▓È_1
  5
43C
 10
969.075
 20
-403.541
 30
0.000000
  70
    32
  0
VERTEX
  8
┌▓È_1
  5
43D
 10
969.104
 20
-403.548
 30
0.000000
  70
    32
  0
VERTEX
  8
┌▓È_1
  5
43E
 10
969.132
 20
-403.555
 30
0.000000
  70
    32
  0
VERTEX
  8
┌▓È_1
  5
43F
 10
969.161
 20
-403.561
 30
0.000000
  70
    32
  0
VERTEX
  8
┌▓È_1
  5
440
 10
969.189
 20
-403.568
 30
0.000000
  70
    32
  0
VERTEX
  8
┌▓È_1
  5
441
 10
969.218
 20
-403.575
 30
0.000000
  70
    32
  0
VERTEX
  8
┌▓È_1
  5
442
 10
969.247
 20
-403.582
 30
0.000000
  70
    32
  0
VERTEX
  8
┌▓È_1
  5
443
 10
969.275
 20
-403.589
 30
0.000000
  70
    32
  0
VERTEX
  8
┌▓È_1
  5
444
 10
969.304
 20
-403.595
 30
0.000000
  70
    32
  0
VERTEX
  8
┌▓È_1
  5
445
 10
969.333
 20
-403.602
 30
0.000000
  70
    32
  0
VERTEX
  8
┌▓È_1
  5
446
 10
969.362
 20
-403.609
 30
0.000000
  70
    32
  0
VERTEX
  8
┌▓È_1
  5
447
 10
969.390
 20
-403.615
 30
0.000000
  70
    32
  0
VERTEX
  8
┌▓È_1
  5
448
 10
969.419
 20
-403.622
 30
0.000000
  70
    32
  0
VERTEX
  8
┌▓È_1
  5
449
 10
969.448
 20
-403.628
 30
0.000000
  70
    32
  0
VERTEX
  8
┌▓È_1
  5
44A
 10
969.477
 20
-403.635
 30
0.000000
  70
    32
  0
VERTEX
  8
┌▓È_1
  5
44B
 10
969.506
 20
-403.641
 30
0.000000
  70
    32
  0
VERTEX
  8
┌▓È_1
  5
44C
 10
969.535
 20
-403.648
 30
0.000000
  70
    32
  0
VERTEX
  8
┌▓È_1
  5
44D
 10
969.564
 20
-403.654
 30
0.000000
  70
    32
  0
VERTEX
  8
┌▓È_1
  5
44E
 10
969.593
 20
-403.661
 30
0.000000
  70
    32
  0
VERTEX
  8
┌▓È_1
  5
44F
 10
969.622
 20
-403.667
 30
0.000000
  70
    32
  0
VERTEX
  8
┌▓È_1
  5
450
 10
969.650
 20
-403.673
 30
0.000000
  70
    32
  0
VERTEX
  8
┌▓È_1
  5
451
 10
969.679
 20
-403.680
 30
0.000000
  70
    32
  0
VERTEX
  8
┌▓È_1
  5
452
 10
969.708
 20
-403.686
 30
0.000000
  70
    32
  0
VERTEX
  8
┌▓È_1
  5
453
 10
969.738
 20
-403.692
 30
0.000000
  70
    32
  0
VERTEX
  8
┌▓È_1
  5
454
 10
969.767
 20
-403.698
 30
0.000000
  70
    32
  0
VERTEX
  8
┌▓È_1
  5
455
 10
969.796
 20
-403.705
 30
0.000000
  70
    32
  0
VERTEX
  8
┌▓È_1
  5
456
 10
969.825
 20
-403.711
 30
0.000000
  70
    32
  0
VERTEX
  8
┌▓È_1
  5
457
 10
969.854
 20
-403.717
 30
0.000000
  70
    32
  0
VERTEX
  8
┌▓È_1
  5
458
 10
969.883
 20
-403.723
 30
0.000000
  70
    32
  0
VERTEX
  8
┌▓È_1
  5
459
 10
969.912
 20
-403.729
 30
0.000000
  70
    32
  0
VERTEX
  8
┌▓È_1
  5
45A
 10
969.941
 20
-403.735
 30
0.000000
  70
    32
  0
VERTEX
  8
┌▓È_1
  5
45B
 10
969.970
 20
-403.741
 30
0.000000
  70
    32
  0
VERTEX
  8
┌▓È_1
  5
45C
 10
970.000
 20
-403.747
 30
0.000000
  70
    32
  0
VERTEX
  8
┌▓È_1
  5
45D
 10
970.029
 20
-403.753
 30
0.000000
  70
    32
  0
VERTEX
  8
┌▓È_1
  5
45E
 10
970.058
 20
-403.759
 30
0.000000
  70
    32
  0
VERTEX
  8
┌▓È_1
  5
45F
 10
970.087
 20
-403.765
 30
0.000000
  70
    32
  0
VERTEX
  8
┌▓È_1
  5
460
 10
970.116
 20
-403.771
 30
0.000000
  70
    32
  0
VERTEX
  8
┌▓È_1
  5
461
 10
970.146
 20
-403.777
 30
0.000000
  70
    32
  0
VERTEX
  8
┌▓È_1
  5
462
 10
970.175
 20
-403.782
 30
0.000000
  70
    32
  0
VERTEX
  8
┌▓È_1
  5
463
 10
970.204
 20
-403.788
 30
0.000000
  70
    32
  0
VERTEX
  8
┌▓È_1
  5
464
 10
970.234
 20
-403.794
 30
0.000000
  70
    32
  0
VERTEX
  8
┌▓È_1
  5
465
 10
970.263
 20
-403.800
 30
0.000000
  70
    32
  0
VERTEX
  8
┌▓È_1
  5
466
 10
970.292
 20
-403.805
 30
0.000000
  70
    32
  0
VERTEX
  8
┌▓È_1
  5
467
 10
970.322
 20
-403.811
 30
0.000000
  70
    32
  0
VERTEX
  8
┌▓È_1
  5
468
 10
970.351
 20
-403.817
 30
0.000000
  70
    32
  0
VERTEX
  8
┌▓È_1
  5
469
 10
970.380
 20
-403.823
 30
0.000000
  70
    32
  0
VERTEX
  8
┌▓È_1
  5
46A
 10
970.410
 20
-403.828
 30
0.000000
  70
    32
  0
VERTEX
  8
┌▓È_1
  5
46B
 10
970.439
 20
-403.834
 30
0.000000
  70
    32
  0
VERTEX
  8
┌▓È_1
  5
46C
 10
970.469
 20
-403.839
 30
0.000000
  70
    32
  0
VERTEX
  8
┌▓È_1
  5
46D
 10
970.498
 20
-403.845
 30
0.000000
  70
    32
  0
VERTEX
  8
┌▓È_1
  5
46E
 10
970.527
 20
-403.851
 30
0.000000
  70
    32
  0
VERTEX
  8
┌▓È_1
  5
46F
 10
970.557
 20
-403.856
 30
0.000000
  70
    32
  0
VERTEX
  8
┌▓È_1
  5
470
 10
970.586
 20
-403.862
 30
0.000000
  70
    32
  0
VERTEX
  8
┌▓È_1
  5
471
 10
970.616
 20
-403.867
 30
0.000000
  70
    32
  0
VERTEX
  8
┌▓È_1
  5
472
 10
970.645
 20
-403.873
 30
0.000000
  70
    32
  0
VERTEX
  8
┌▓È_1
  5
473
 10
970.675
 20
-403.878
 30
0.000000
  70
    32
  0
VERTEX
  8
┌▓È_1
  5
474
 10
970.704
 20
-403.884
 30
0.000000
  70
    32
  0
VERTEX
  8
┌▓È_1
  5
475
 10
970.734
 20
-403.889
 30
0.000000
  70
    32
  0
VERTEX
  8
┌▓È_1
  5
476
 10
970.763
 20
-403.894
 30
0.000000
  70
    32
  0
VERTEX
  8
┌▓È_1
  5
477
 10
970.793
 20
-403.900
 30
0.000000
  70
    32
  0
VERTEX
  8
┌▓È_1
  5
478
 10
970.822
 20
-403.905
 30
0.000000
  70
    32
  0
VERTEX
  8
┌▓È_1
  5
479
 10
970.852
 20
-403.911
 30
0.000000
  70
    32
  0
VERTEX
  8
┌▓È_1
  5
47A
 10
970.882
 20
-403.916
 30
0.000000
  70
    32
  0
VERTEX
  8
┌▓È_1
  5
47B
 10
970.911
 20
-403.921
 30
0.000000
  70
    32
  0
VERTEX
  8
┌▓È_1
  5
47C
 10
970.941
 20
-403.927
 30
0.000000
  70
    32
  0
VERTEX
  8
┌▓È_1
  5
47D
 10
970.970
 20
-403.932
 30
0.000000
  70
    32
  0
VERTEX
  8
┌▓È_1
  5
47E
 10
971.000
 20
-403.937
 30
0.000000
  70
    32
  0
VERTEX
  8
┌▓È_1
  5
47F
 10
971.030
 20
-403.942
 30
0.000000
  70
    32
  0
VERTEX
  8
┌▓È_1
  5
480
 10
971.059
 20
-403.948
 30
0.000000
  70
    32
  0
VERTEX
  8
┌▓È_1
  5
481
 10
971.089
 20
-403.953
 30
0.000000
  70
    32
  0
VERTEX
  8
┌▓È_1
  5
482
 10
971.118
 20
-403.958
 30
0.000000
  70
    32
  0
VERTEX
  8
┌▓È_1
  5
483
 10
971.148
 20
-403.963
 30
0.000000
  70
    32
  0
VERTEX
  8
┌▓È_1
  5
484
 10
971.178
 20
-403.969
 30
0.000000
  70
    32
  0
VERTEX
  8
┌▓È_1
  5
485
 10
971.207
 20
-403.974
 30
0.000000
  70
    32
  0
VERTEX
  8
┌▓È_1
  5
486
 10
971.237
 20
-403.979
 30
0.000000
  70
    32
  0
VERTEX
  8
┌▓È_1
  5
487
 10
971.267
 20
-403.984
 30
0.000000
  70
    32
  0
VERTEX
  8
┌▓È_1
  5
488
 10
971.297
 20
-403.989
 30
0.000000
  70
    32
  0
VERTEX
  8
┌▓È_1
  5
489
 10
971.326
 20
-403.995
 30
0.000000
  70
    32
  0
VERTEX
  8
┌▓È_1
  5
48A
 10
971.356
 20
-404.000
 30
0.000000
  70
    32
  0
VERTEX
  8
┌▓È_1
  5
48B
 10
971.386
 20
-404.005
 30
0.000000
  70
    32
  0
VERTEX
  8
┌▓È_1
  5
48C
 10
971.415
 20
-404.010
 30
0.000000
  70
    32
  0
VERTEX
  8
┌▓È_1
  5
48D
 10
971.445
 20
-404.015
 30
0.000000
  70
    32
  0
VERTEX
  8
┌▓È_1
  5
48E
 10
971.475
 20
-404.020
 30
0.000000
  70
    32
  0
VERTEX
  8
┌▓È_1
  5
48F
 10
971.504
 20
-404.025
 30
0.000000
  70
    32
  0
VERTEX
  8
┌▓È_1
  5
490
 10
971.534
 20
-404.031
 30
0.000000
  70
    32
  0
VERTEX
  8
┌▓È_1
  5
491
 10
971.564
 20
-404.036
 30
0.000000
  70
    32
  0
VERTEX
  8
┌▓È_1
  5
492
 10
971.594
 20
-404.041
 30
0.000000
  70
    32
  0
VERTEX
  8
┌▓È_1
  5
493
 10
971.623
 20
-404.046
 30
0.000000
  70
    32
  0
VERTEX
  8
┌▓È_1
  5
494
 10
971.653
 20
-404.051
 30
0.000000
  70
    32
  0
VERTEX
  8
┌▓È_1
  5
495
 10
971.683
 20
-404.056
 30
0.000000
  70
    32
  0
VERTEX
  8
┌▓È_1
  5
496
 10
971.713
 20
-404.061
 30
0.000000
  70
    32
  0
VERTEX
  8
┌▓È_1
  5
497
 10
971.742
 20
-404.066
 30
0.000000
  70
    32
  0
VERTEX
  8
┌▓È_1
  5
498
 10
971.772
 20
-404.071
 30
0.000000
  70
    32
  0
VERTEX
  8
┌▓È_1
  5
499
 10
971.802
 20
-404.076
 30
0.000000
  70
    32
  0
VERTEX
  8
┌▓È_1
  5
49A
 10
971.832
 20
-404.081
 30
0.000000
  70
    32
  0
VERTEX
  8
┌▓È_1
  5
49B
 10
971.861
 20
-404.086
 30
0.000000
  70
    32
  0
VERTEX
  8
┌▓È_1
  5
49C
 10
971.891
 20
-404.091
 30
0.000000
  70
    32
  0
VERTEX
  8
┌▓È_1
  5
49D
 10
971.921
 20
-404.096
 30
0.000000
  70
    32
  0
VERTEX
  8
┌▓È_1
  5
49E
 10
971.951
 20
-404.101
 30
0.000000
  70
    32
  0
VERTEX
  8
┌▓È_1
  5
49F
 10
971.981
 20
-404.106
 30
0.000000
  70
    32
  0
VERTEX
  8
┌▓È_1
  5
4A0
 10
972.010
 20
-404.111
 30
0.000000
  70
    32
  0
VERTEX
  8
┌▓È_1
  5
4A1
 10
972.040
 20
-404.117
 30
0.000000
  70
    32
  0
VERTEX
  8
┌▓È_1
  5
4A2
 10
972.070
 20
-404.122
 30
0.000000
  70
    32
  0
VERTEX
  8
┌▓È_1
  5
4A3
 10
972.100
 20
-404.127
 30
0.000000
  70
    32
  0
VERTEX
  8
┌▓È_1
  5
4A4
 10
972.129
 20
-404.132
 30
0.000000
  70
    32
  0
SEQEND
  8
┌▓È_1
  5
4A5
  0
INSERT
  5
1B6
  8
0
  6
CONTINUOUS
  2
*U35
 10
0.0
 20
0.0
 30
0.0
  0
LINE
  5
1B7
  8
┌▓È_1
 10
871.47801544399988
 20
-375.5878849883
 30
0.0
 11
967.47801544399999
 21
-375.5878849883
 31
0.0
  0
LINE
  5
1B8
  8
┌▓È_1
 10
967.47801544399999
 20
-367.0878849883
 30
0.0
 11
999.47801544399999
 21
-367.0878849883
 31
0.0
  0
LINE
  5
1B9
  8
┌▓È_1
 62
     5
 10
972.12938787300004
 20
-404.1316082413
 30
0.0
 11
972.12938787300004
 21
-406.53160824129998
 31
0.0
  0
LINE
  5
1BA
  8
┌▓È_1
 62
     5
 10
982.3973601102
 20
-407.33160824129999
 30
0.0
 11
986.87736011020013
 21
-407.33160824129999
 31
0.0
  0
LINE
  5
1BB
  8
┌▓È_1
 62
     5
 10
953.47241817599991
 20
-398.53160824129998
 30
0.0
 11
953.47241817599991
 21
-400.9316082412999
 31
0.0
  0
LINE
  5
1BC
  8
┌▓È_1
 62
     5
 10
938.03065207750001
 20
-398.53160824129998
 30
0.0
 11
938.03065207750001
 21
-400.9316082412999
 31
0.0
  0
LINE
  5
1BD
  8
┌▓È_1
 62
     5
 10
957.72938787300006
 20
-399.5623610972001
 30
0.0
 11
957.72938787300006
 21
-399.04698466920001
 31
0.0
  0
LINE
  5
1BE
  8
┌▓È_1
 62
     5
 10
964.12938787299993
 20
-399.04698466920001
 30
0.0
 11
963.22429119299989
 21
-399.95208134910001
 31
0.0
  0
LINE
  5
1BF
  8
┌▓È_1
 10
935.47801544399999
 20
-358.5878849883
 30
0.0
 11
935.47801544399999
 21
-392.5878849883
 31
0.0
  0
LINE
  5
1C0
  8
┌▓È_1
 10
875.47801544399999
 20
-367.0878849883
 30
0.0
 11
899.47801544399999
 21
-367.0878849883
 31
0.0
  0
LINE
  5
1C1
  8
┌▓È_1
 10
907.47801544399999
 20
-367.0878849883
 30
0.0
 11
931.47801544399988
 21
-367.0878849883
 31
0.0
  0
LINE
  5
1C2
  8
┌▓È_1
 10
875.47801544399999
 20
-384.0878849883
 30
0.0
 11
931.47801544399988
 21
-384.0878849883
 31
0.0
  0
LINE
  5
1C3
  8
┌▓È_1
 10
939.47801544399988
 20
-367.0878849883
 30
0.0
 11
963.47801544399988
 21
-367.0878849883
 31
0.0
  0
LINE
  5
1C4
  8
┌▓È_1
 10
939.47801544399988
 20
-384.0878849883
 30
0.0
 11
963.47801544399988
 21
-384.0878849883
 31
0.0
  0
INSERT
  5
1C5
  8
0
  6
CONTINUOUS
  2
*U36
 10
0.0
 20
0.0
 30
0.0
  0
INSERT
  5
1C6
  8
0
  6
CONTINUOUS
  2
*U37
 10
0.0
 20
0.0
 30
0.0
  0
INSERT
  5
1C7
  8
0
  6
CONTINUOUS
  2
*U38
 10
0.0
 20
0.0
 30
0.0
  0
INSERT
  5
1C8
  8
0
  6
CONTINUOUS
  2
*U39
 10
0.0
 20
0.0
 30
0.0
  0
LINE
  5
1C9
  8
┌▓È_1
 62
     5
 10
650.97045630980006
 20
-174.7986855284
 30
0.0
 11
766.47045630979994
 21
-174.7986855284
 31
0.0
  0
LINE
  5
1CA
  8
┌▓È_1
  6
STITCH
 10
675.97045630980006
 20
-177.2986855284
 30
0.0
 11
675.97045630980006
 21
-179.7986855284
 31
0.0
  0
LINE
  5
1CB
  8
┌▓È_1
  6
STITCH
 10
675.97045630980006
 20
-177.2986855284
 30
0.0
 11
670.97045630980006
 21
-177.2986855284
 31
0.0
  0
LINE
  5
1CC
  8
┌▓È_1
  6
STITCH
 10
648.47045630980006
 20
-129.7986855284
 30
0.0
 11
645.97045630980006
 21
-129.7986855284
 31
0.0
  0
LINE
  5
1CD
  8
┌▓È_1
  6
STITCH
 10
670.97045630980006
 20
-177.2986855284
 30
0.0
 11
670.97045630980006
 21
-179.7986855284
 31
0.0
  0
LINE
  5
1CE
  8
┌▓È_1
  6
BORDER
 62
     3
 10
673.47045630980006
 20
-170.2986855284
 30
0.0
 11
673.47045630980006
 21
-184.2986855284
 31
0.0
  0
LINE
  5
1CF
  8
┌▓È_1
  6
STITCH
 10
668.47045630980006
 20
-174.7986855284
 30
0.0
 11
670.97045630980006
 21
-177.2986855284
 31
0.0
  0
LINE
  5
1D0
  8
┌▓È_1
  6
STITCH
 10
675.97045630980006
 20
-177.2986855284
 30
0.0
 11
678.47045630980006
 21
-174.7986855284
 31
0.0
  0
LINE
  5
1D1
  8
┌▓È_1
  6
STITCH
 10
753.47045630979994
 20
-174.7986855284
 30
0.0
 11
755.97045630979994
 21
-177.2986855284
 31
0.0
  0
LINE
  5
1D2
  8
┌▓È_1
  6
STITCH
 10
760.97045630979994
 20
-177.2986855284
 30
0.0
 11
763.47045630979994
 21
-174.7986855284
 31
0.0
  0
CIRCLE
  5
1D3
  8
┌▓È_1
 62
     5
 10
758.47045630979994
 20
-276.86743552839999
 30
0.0
 40
2.5
  0
LINE
  5
1D4
  8
┌▓È_1
  6
BORDER
 62
     3
 10
758.47045630979994
 20
-269.86743552839999
 30
0.0
 11
758.47045630979994
 21
-283.86743552839999
 31
0.0
  0
LINE
  5
1D5
  8
┌▓È_1
 62
     5
 10
766.47045630979994
 20
-284.86743552839999
 30
0.0
 11
766.47045630979994
 21
-268.86743552839999
 31
0.0
  0
LINE
  5
1D6
  8
┌▓È_1
 62
     5
 10
646.47045630980006
 20
-284.86743552839999
 30
0.0
 11
766.47045630979994
 21
-284.86743552839999
 31
0.0
  0
LINE
  5
1D7
  8
┌▓È_1
  6
BORDER
 62
     3
 10
751.47045630979994
 20
-276.86743552839999
 30
0.0
 11
765.47045630979994
 21
-276.86743552839999
 31
0.0
  0
LINE
  5
1D8
  8
┌▓È_1
 62
     5
 10
766.47045630979994
 20
-268.86743552839999
 30
0.0
 11
646.47045630980006
 21
-268.86743552839999
 31
0.0
  0
LINE
  5
1D9
  8
┌▓È_1
  6
BORDER
 62
     3
 10
666.47045630980006
 20
-276.86743552839999
 30
0.0
 11
680.47045630980006
 21
-276.86743552839999
 31
0.0
  0
CIRCLE
  5
1DA
  8
┌▓È_1
 62
     5
 10
673.47045630980006
 20
-276.86743552839999
 30
0.0
 40
2.5
  0
LINE
  5
1DB
  8
┌▓È_1
  6
BORDER
 62
     3
 10
673.47045630980006
 20
-269.86743552839999
 30
0.0
 11
673.47045630980006
 21
-283.86743552839999
 31
0.0
  0
LINE
  5
1DC
  8
┌▓È_1
 62
     5
 10
646.47045630980006
 20
-268.86743552839999
 30
0.0
 11
646.47045630980006
 21
-284.86743552839999
 31
0.0
  0
LINE
  5
1DD
  8
┌▓È_1
  6
STITCH
 10
651.47045630980006
 20
-268.86743552839999
 30
0.0
 11
651.47045630980006
 21
-284.86743552839999
 31
0.0
  0
CIRCLE
  5
1DE
  8
┌▓È_1
  6
STITCH
 10
673.47045630980006
 20
-276.86743552839999
 30
0.0
 40
5.0
  0
CIRCLE
  5
1DF
  8
┌▓È_1
  6
STITCH
 10
758.47045630979994
 20
-276.86743552839999
 30
0.0
 40
5.0
  0
LINE
  5
1E0
  8
┌▓È_1
 62
     5
 10
967.28203501349992
 20
-248.6980019346
 30
0.0
 11
1040.2806461246
 21
-248.6980019346
 31
0.0
  0
LINE
  5
1E1
  8
┌▓È_1
  6
BORDER
 62
     3
 10
1003.2121646431
 20
-219.68128058049999
 30
0.0
 11
1003.2121646431
 21
-253.18128058049999
 31
0.0
  0
LINE
  5
1E2
  8
┌▓È_1
 62
     5
 10
967.28203501349992
 20
-226.1980019346
 30
0.0
 11
1040.2806461246
 21
-226.1980019346
 31
0.0
  0
LINE
  5
1E3
  8
┌▓È_1
 62
     5
 10
981.96216464309998
 20
-226.1980019346
 30
0.0
 11
990.71216464309987
 21
-234.9480019346
 31
0.0
  0
LINE
  5
1E4
  8
┌▓È_1
 62
     5
 10
990.71216464309987
 20
-234.9480019346
 30
0.0
 11
1015.7121646431
 21
-234.9480019346
 31
0.0
  0
LINE
  5
1E5
  8
┌▓È_1
 62
     5
 10
1015.7121646431
 20
-234.9480019346
 30
0.0
 11
1024.4621646431001
 21
-226.1980019346
 31
0.0
  0
LINE
  5
1E6
  8
┌▓È_1
  6
STITCH
 10
760.97045630979994
 20
-177.2986855284
 30
0.0
 11
760.97045630979994
 21
-179.7986855284
 31
0.0
  0
LINE
  5
1E7
  8
┌▓È_1
  6
STITCH
 10
760.97045630979994
 20
-177.2986855284
 30
0.0
 11
755.97045630979994
 21
-177.2986855284
 31
0.0
  0
LINE
  5
1E8
  8
┌▓È_1
  6
STITCH
 10
755.97045630979994
 20
-177.2986855284
 30
0.0
 11
755.97045630979994
 21
-179.7986855284
 31
0.0
  0
LINE
  5
1E9
  8
┌▓È_1
  6
BORDER
 62
     3
 10
758.47045630979994
 20
-170.2986855284
 30
0.0
 11
758.47045630979994
 21
-184.2986855284
 31
0.0
  0
LINE
  5
1EA
  8
┌▓È_1
 62
     5
 10
650.97045630980006
 20
-174.7986855284
 30
0.0
 11
650.97045630980006
 21
-119.2986855284
 31
0.0
  0
ARC
  5
1EB
  8
┌▓È_1
 62
     5
 10
650.97045630980006
 20
-174.7986855284
 30
0.0
 40
4.5
 50
180.0
 51
270.0
  0
LINE
  5
1EC
  8
┌▓È_1
 62
     5
 10
650.97045630980006
 20
-179.2986855284
 30
0.0
 11
766.47045630979994
 21
-179.2986855284
 31
0.0
  0
LINE
  5
1ED
  8
┌▓È_1
 62
     5
 10
646.47045630980006
 20
-174.7986855284
 30
0.0
 11
646.47045630980006
 21
-119.2986855284
 31
0.0
  0
LINE
  5
1EE
  8
┌▓È_1
  6
BORDER
 62
     3
 10
655.47045630980006
 20
-152.2986855284
 30
0.0
 11
641.47045630980006
 21
-152.2986855284
 31
0.0
  0
LINE
  5
1EF
  8
┌▓È_1
  6
STITCH
 10
648.47045630980006
 20
-154.7986855284
 30
0.0
 11
645.97045630980006
 21
-154.7986855284
 31
0.0
  0
LINE
  5
1F0
  8
┌▓È_1
  6
STITCH
 10
648.47045630980006
 20
-149.7986855284
 30
0.0
 11
648.47045630980006
 21
-154.7986855284
 31
0.0
  0
LINE
  5
1F1
  8
┌▓È_1
  6
STITCH
 10
648.47045630980006
 20
-149.7986855284
 30
0.0
 11
645.97045630980006
 21
-149.7986855284
 31
0.0
  0
LINE
  5
1F2
  8
┌▓È_1
  6
STITCH
 10
648.47045630980006
 20
-149.7986855284
 30
0.0
 11
650.97045630980006
 21
-147.2986855284
 31
0.0
  0
LINE
  5
1F3
  8
┌▓È_1
  6
STITCH
 10
650.97045630980006
 20
-157.2986855284
 30
0.0
 11
648.47045630980006
 21
-154.7986855284
 31
0.0
  0
LINE
  5
1F4
  8
┌▓È_1
  6
BORDER
 62
     3
 10
655.47045630980006
 20
-127.2986855284
 30
0.0
 11
641.47045630980006
 21
-127.2986855284
 31
0.0
  0
LINE
  5
1F5
  8
┌▓È_1
  6
STITCH
 10
650.97045630980006
 20
-132.2986855284
 30
0.0
 11
648.47045630980006
 21
-129.7986855284
 31
0.0
  0
LINE
  5
1F6
  8
┌▓È_1
  6
STITCH
 10
648.47045630980006
 20
-124.7986855284
 30
0.0
 11
650.97045630980006
 21
-122.2986855284
 31
0.0
  0
LINE
  5
1F7
  8
┌▓È_1
  6
STITCH
 10
648.47045630980006
 20
-124.7986855284
 30
0.0
 11
645.97045630980006
 21
-124.7986855284
 31
0.0
  0
LINE
  5
1F8
  8
┌▓È_1
  6
STITCH
 10
648.47045630980006
 20
-124.7986855284
 30
0.0
 11
648.47045630980006
 21
-129.7986855284
 31
0.0
  0
LINE
  5
1F9
  8
┌▓È_1
 62
     5
 10
766.47045630979994
 20
-179.2986855284
 30
0.0
 11
766.47045630979994
 21
-174.7986855284
 31
0.0
  0
LINE
  5
1FA
  8
┌▓È_1
 62
     5
 10
650.97045630980006
 20
-119.2986855284
 30
0.0
 11
646.47045630980006
 21
-119.2986855284
 31
0.0
  0
ENDSEC
  0
EOF
