  0
SECTION
  2
HEADER
  9
$ACADVER
  1
AC1009
  9
$INSBASE
 10
0.0
 20
0.0
 30
0.0
  9
$EXTMIN
 10
693.48455785123224
 20
-321.39680165511533
 30
-0.0015258207003583
  9
$EXTMAX
 10
980.57443298406235
 20
-119.7417222047588
 30
0.0000000349246037
  9
$LIMMIN
 10
0.0
 20
0.0
  9
$LIMMAX
 10
0.0
 20
0.0
  9
$ORTHOMODE
 70
     0
  9
$REGENMODE
 70
     1
  9
$FILLMODE
 70
     1
  9
$QTEXTMODE
 70
     0
  9
$MIRRTEXT
 70
     1
  9
$DRAGMODE
 70
     2
  9
$LTSCALE
 40
1.0
  9
$OSMODE
 70
    31
  9
$ATTMODE
 70
     1
  9
$TEXTSIZE
 40
0.0
  9
$TRACEWID
 40
0.05
  9
$TEXTSTYLE
  7
STANDARD
  9
$CLAYER
  8
0
  9
$CELTYPE
  6
CONTINUOUS
  9
$CECOLOR
 62
   256
  9
$DIMSCALE
 40
1.0
  9
$DIMASZ
 40
0.18
  9
$DIMEXO
 40
0.0625
  9
$DIMDLI
 40
0.38
  9
$DIMRND
 40
0.0
  9
$DIMDLE
 40
0.0
  9
$DIMEXE
 40
0.18
  9
$DIMTP
 40
0.0
  9
$DIMTM
 40
0.0
  9
$DIMTXT
 40
0.18
  9
$DIMCEN
 40
0.09
  9
$DIMTSZ
 40
0.0
  9
$DIMTOL
 70
     0
  9
$DIMLIM
 70
     0
  9
$DIMTIH
 70
     1
  9
$DIMTOH
 70
     1
  9
$DIMSE1
 70
     0
  9
$DIMSE2
 70
     0
  9
$DIMTAD
 70
     0
  9
$DIMZIN
 70
     0
  9
$DIMBLK
  1

  9
$DIMASO
 70
     1
  9
$DIMSHO
 70
     1
  9
$DIMPOST
  1

  9
$DIMAPOST
  1

  9
$DIMALT
 70
     0
  9
$DIMALTD
 70
     2
  9
$DIMALTF
 40
25.399999999999999
  9
$DIMLFAC
 40
1.0
  9
$DIMTOFL
 70
     0
  9
$DIMTVP
 40
0.0
  9
$DIMTIX
 70
     0
  9
$DIMSOXD
 70
     0
  9
$DIMSAH
 70
     0
  9
$DIMBLK1
  1

  9
$DIMBLK2
  1

  9
$DIMSTYLE
  2
STANDARD
  9
$DIMCLRD
 70
     0
  9
$DIMCLRE
 70
     0
  9
$DIMCLRT
 70
     0
  9
$DIMTFAC
 40
1.0
  9
$DIMGAP
 40
0.09
  9
$LUNITS
 70
     2
  9
$LUPREC
 70
     4
  9
$SKETCHINC
 40
0.1
  9
$FILLETRAD
 40
0.0
  9
$AUNITS
 70
     0
  9
$AUPREC
 70
     0
  9
$MENU
  1
acad
  9
$ELEVATION
 40
0.0
  9
$PELEVATION
 40
0.0
  9
$THICKNESS
 40
0.0
  9
$LIMCHECK
 70
     0
  9
$BLIPMODE
 70
     0
  9
$CHAMFERA
 40
0.0
  9
$CHAMFERB
 40
0.0
  9
$SKPOLY
 70
     0
  9
$TDCREATE
 40
2454863.4265816668
  9
$TDUPDATE
 40
2454863.426758715
  9
$TDINDWG
 40
0.0001882639
  9
$TDUSRTIMER
 40
0.0001879051
  9
$USRTIMER
 70
     1
  9
$ANGBASE
 50
0.0
  9
$ANGDIR
 70
     0
  9
$PDMODE
 70
     3
  9
$PDSIZE
 40
-1.0
  9
$PLINEWID
 40
0.0
  9
$COORDS
 70
     2
  9
$SPLFRAME
 70
     0
  9
$SPLINETYPE
 70
     6
  9
$SPLINESEGS
 70
     8
  9
$ATTDIA
 70
     0
  9
$ATTREQ
 70
     1
  9
$HANDLING
 70
     1
  9
$HANDSEED
  5
52A
  9
$SURFTAB1
 70
     6
  9
$SURFTAB2
 70
     6
  9
$SURFTYPE
 70
     6
  9
$SURFU
 70
     6
  9
$SURFV
 70
     6
  9
$UCSNAME
  2

  9
$UCSORG
 10
0.0
 20
0.0
 30
0.0
  9
$UCSXDIR
 10
1.0
 20
0.0
 30
0.0
  9
$UCSYDIR
 10
0.0
 20
1.0
 30
0.0
  9
$PUCSNAME
  2

  9
$PUCSORG
 10
0.0
 20
0.0
 30
0.0
  9
$PUCSXDIR
 10
1.0
 20
0.0
 30
0.0
  9
$PUCSYDIR
 10
0.0
 20
1.0
 30
0.0
  9
$USERI1
 70
     0
  9
$USERI2
 70
     0
  9
$USERI3
 70
     0
  9
$USERI4
 70
     0
  9
$USERI5
 70
     0
  9
$USERR1
 40
0.0
  9
$USERR2
 40
0.0
  9
$USERR3
 40
0.0
  9
$USERR4
 40
0.0
  9
$USERR5
 40
0.0
  9
$WORLDVIEW
 70
     1
  9
$SHADEDGE
 70
     3
  9
$SHADEDIF
 70
    70
  9
$TILEMODE
 70
     1
  9
$MAXACTVP
 70
    16
  9
$PLIMCHECK
 70
     0
  9
$PEXTMIN
 10
1.0000000000000000E+020
 20
1.0000000000000000E+020
 30
1.0000000000000000E+020
  9
$PEXTMAX
 10
-1.0000000000000000E+020
 20
-1.0000000000000000E+020
 30
-1.0000000000000000E+020
  9
$PLIMMIN
 10
0.0
 20
0.0
  9
$PLIMMAX
 10
12.0
 20
9.0
  9
$UNITMODE
 70
     0
  9
$VISRETAIN
 70
     0
  9
$PLINEGEN
 70
     1
  9
$PSLTSCALE
 70
     0
  0
ENDSEC
  0
SECTION
  2
TABLES
  0
TABLE
  2
VPORT
 70
     2
  0
VPORT
  2
*ACTIVE
 70
     0
 10
0.0
 20
0.0
 11
1.0
 21
1.0
 12
837.02949541764724
 22
-220.569261929937
 13
0.0
 23
0.0
 14
1.0
 24
1.0
 15
0.0
 25
0.0
 16
0.0
 26
0.0
 36
1.0
 17
0.0
 27
0.0
 37
0.0
 40
207.74129029070721
 41
1.3903818953323901
 42
50.0
 43
0.0
 44
0.0
 50
0.0
 51
0.0
 71
     0
 72
   100
 73
     1
 74
     1
 75
     0
 76
     0
 77
     0
 78
     0
  0
ENDTAB
  0
TABLE
  2
LTYPE
 70
    11
  0
LTYPE
  2
CONTINUOUS
 70
     0
  3
Solid line
 72
    65
 73
     0
 40
0.0
  0
LTYPE
  2
DOT
 70
     0
  3
. . . . . . . . 
 72
    65
 73
     2
 40
1.0
 49
0.0
 49
-1.0
  0
LTYPE
  2
DASHED
 70
     0
  3
___  ___  ___  ___  
 72
    65
 73
     2
 40
4.0
 49
3.0
 49
-1.0
  0
LTYPE
  2
HIDDEN
 70
     0
  3
__ __ __ __ 
 72
    65
 73
     2
 40
3.0
 49
2.0
 49
-1.0
  0
LTYPE
  2
STITCH
 70
     0
  3
_ _ _ _ 
 72
    65
 73
     2
 40
2.0
 49
1.0
 49
-1.0
  0
LTYPE
  2
CENTER
 70
     0
  3
______  __  ______  __  
 72
    65
 73
     4
 40
43.0
 49
40.0
 49
-1.0
 49
1.0
 49
-1.0
  0
LTYPE
  2
DASHDOT
 70
     0
  3
____ . ____ . 
 72
    65
 73
     4
 40
32.0
 49
30.0
 49
-1.0
 49
0.0
 49
-1.0
  0
LTYPE
  2
BORDER
 70
     0
  3
__ . __ . 
 72
    65
 73
     4
 40
22.0
 49
20.0
 49
-1.0
 49
0.0
 49
-1.0
  0
LTYPE
  2
CUTTING
 70
     0
  3
________   ___   ___   
 72
    65
 73
     6
 40
45.0
 49
40.0
 49
-1.0
 49
1.0
 49
-1.0
 49
1.0
 49
-1.0
  0
LTYPE
  2
PHANTOM
 70
     0
  3
______  __  __  
 72
    65
 73
     6
 40
35.0
 49
30.0
 49
-1.0
 49
1.0
 49
-1.0
 49
1.0
 49
-1.0
  0
LTYPE
  2
DIVIDE
 70
     0
  3
____ . . ____ . . 
 72
    65
 73
     6
 40
23.0
 49
20.0
 49
-1.0
 49
0.0
 49
-1.0
 49
0.0
 49
-1.0
  0
ENDTAB
  0
TABLE
  2
LAYER
 70
     6
  0
LAYER
  2
0
 70
     0
 62
     7
  6
CONTINUOUS
  0
LAYER
  2
図枠
 70
     0
 62
     7
  6
CONTINUOUS
  0
LAYER
  2
寸法線
 70
     0
 62
     7
  6
CONTINUOUS
  0
LAYER
  2
改訂
 70
     0
 62
     7
  6
CONTINUOUS
  0
LAYER
  2
ﾚｲﾔ_1
 70
     0
 62
     7
  6
CONTINUOUS
  0
LAYER
  2
Defpoints
 70
     0
 62
     7
  6
CONTINUOUS
  0
ENDTAB
  0
TABLE
  2
STYLE
 70
     1
  0
STYLE
  2
STANDARD
 70
     0
 40
0.0
 41
1.0
 50
0.0
 71
     0
 42
0.0
  3
txt
  4
extfont
  0
ENDTAB
  0
TABLE
  2
VIEW
 70
     0
  0
ENDTAB
  0
TABLE
  2
UCS
 70
     0
  0
ENDTAB
  0
TABLE
  2
APPID
 70
     2
  0
APPID
  2
ACAD
 70
     0
  0
APPID
  2
DCO15
 70
     0
  0
ENDTAB
  0
TABLE
  2
DIMSTYLE
 70
     3
  0
DIMSTYLE
  2
STANDARD
 70
     0
  3

  4

  5

  6

  7

 40
1.0
 41
0.18
 42
0.0625
 43
0.38
 44
0.18
 45
0.0
 46
0.0
 47
0.0
 48
0.0
140
0.18
141
0.09
142
0.0
143
25.399999999999999
144
1.0
145
0.0
146
1.0
147
0.09
 71
     0
 72
     0
 73
     1
 74
     1
 75
     0
 76
     0
 77
     0
 78
     0
170
     0
171
     2
172
     0
173
     0
174
     0
175
     0
176
     0
177
     0
178
     0
  0
DIMSTYLE
  2
VELDIM0
 70
     0
  3

  4

  5

  6

  7

 40
1.0
 41
3.0
 42
0.0625
 43
0.38
 44
0.5
 45
0.0
 46
3.0
 47
0.0
 48
0.0
140
2.9986110209999999
141
0.09
142
0.0
143
25.399999999999999
144
1.0
145
0.0
146
1.0
147
0.09
 71
     0
 72
     0
 73
     0
 74
     0
 75
     0
 76
     0
 77
     0
 78
     8
170
     0
171
     2
172
     0
173
     0
174
     0
175
     0
176
     0
177
     0
178
     0
  0
DIMSTYLE
  2
VELDIM1
 70
     0
  3

  4

  5

  6

  7

 40
1.0
 41
3.0
 42
0.0625
 43
0.38
 44
1.25
 45
0.0
 46
5.0
 47
0.0
 48
0.0
140
2.9986110209999999
141
0.09
142
0.0
143
25.399999999999999
144
1.0
145
0.0
146
1.0
147
0.09
 71
     0
 72
     0
 73
     0
 74
     0
 75
     0
 76
     0
 77
     0
 78
     8
170
     0
171
     2
172
     0
173
     0
174
     0
175
     0
176
     0
177
     0
178
     0
  0
ENDTAB
  0
ENDSEC
  0
SECTION
  2
BLOCKS
  0
BLOCK
  8
0
  2
$MODEL_SPACE
 70
     0
 10
0.0
 20
0.0
 30
0.0
  3
$MODEL_SPACE
  1

  0
ENDBLK
  5
E
  8
0
  0
BLOCK
 67
     1
  8
0
  2
$PAPER_SPACE
 70
     0
 10
0.0
 20
0.0
 30
0.0
  3
$PAPER_SPACE
  1

  0
ENDBLK
  5
10
 67
     1
  8
0
  0
BLOCK
  8
0
  2
*D0
 70
     1
 10
0.0
 20
0.0
 30
0.0
  3
*D0
  1

  0
TEXT
  5
DB
  8
0
 62
     0
 10
868.26061202810001
 20
-151.9729110095
 30
0.0
 40
2.9986110209999999
  1
8
  0
LINE
  5
DC
  8
0
 62
     0
 10
864.21271291899996
 20
-159.9731539583
 30
0.0
 11
864.21271291899996
 21
-153.00207766029999
 31
0.0
  0
LINE
  5
DD
  8
0
 62
     0
 10
856.21271291899996
 20
-164.9731539583
 30
0.0
 11
856.21271291899996
 21
-153.00207766029999
 31
0.0
  0
LINE
  5
DE
  8
0
 62
     0
 10
864.21271291899996
 20
-153.50207766029999
 30
0.0
 11
871.78838969990011
 21
-153.50207766029999
 31
0.0
  0
LINE
  5
DF
  8
0
 62
     0
 10
864.21271291899996
 20
-153.50207766029999
 30
0.0
 11
866.49672319219997
 21
-153.50207766029999
 31
0.0
  0
LINE
  5
E0
  8
0
 62
     0
 10
856.21271291899996
 20
-153.50207766029999
 30
0.0
 11
871.78838969990011
 21
-153.50207766029999
 31
0.0
  0
LINE
  5
E1
  8
0
 62
     0
 10
856.21271291899996
 20
-153.50207766029999
 30
0.0
 11
866.49672319219997
 21
-153.50207766029999
 31
0.0
  0
LINE
  5
E2
  8
0
 62
     0
 10
856.21271291899996
 20
-153.50207766029999
 30
0.0
 11
859.21271291899996
 21
-153.50207766029999
 31
0.0
  0
SOLID
  5
E3
  8
0
 62
     0
 10
856.21271291899996
 20
-153.50207766029999
 30
0.0
 11
859.21271291899996
 21
-152.75207766029999
 31
0.0
 12
859.21271291899996
 22
-154.25207766029999
 32
0.0
 13
858.46271291899996
 23
-153.50207766029999
 33
0.0
  0
LINE
  5
E4
  8
0
 62
     0
 10
864.21271291899996
 20
-153.50207766029999
 30
0.0
 11
861.21271291899996
 21
-153.50207766029999
 31
0.0
  0
SOLID
  5
E5
  8
0
 62
     0
 10
864.21271291899996
 20
-153.50207766029999
 30
0.0
 11
861.21271291899996
 21
-154.25207766029999
 31
0.0
 12
861.21271291899996
 22
-152.75207766029999
 32
0.0
 13
861.96271291899996
 23
-153.50207766029999
 33
0.0
  0
ENDBLK
  5
E6
  8
0
  0
BLOCK
  8
0
  2
*D1
 70
     1
 10
0.0
 20
0.0
 30
0.0
  3
*D1
  1

  0
TEXT
  5
EB
  8
0
 62
     0
 10
842.2909330911998
 20
-151.9729110095
 30
0.0
 40
2.9986110209999999
  1
8
  0
LINE
  5
EC
  8
0
 62
     0
 10
856.21271291899996
 20
-164.9731539583
 30
0.0
 11
856.21271291899996
 21
-153.00207766029999
 31
0.0
  0
LINE
  5
ED
  8
0
 62
     0
 10
848.21271291899996
 20
-159.9731539583
 30
0.0
 11
848.21271291899996
 21
-153.00207766029999
 31
0.0
  0
LINE
  5
EE
  8
0
 62
     0
 10
856.21271291899996
 20
-153.50207766029999
 30
0.0
 11
845.8187107629999
 21
-153.50207766029999
 31
0.0
  0
LINE
  5
EF
  8
0
 62
     0
 10
856.21271291899996
 20
-153.50207766029999
 30
0.0
 11
840.52704425529998
 21
-153.50207766029999
 31
0.0
  0
LINE
  5
F0
  8
0
 62
     0
 10
848.21271291899996
 20
-153.50207766029999
 30
0.0
 11
845.8187107629999
 21
-153.50207766029999
 31
0.0
  0
LINE
  5
F1
  8
0
 62
     0
 10
848.21271291899996
 20
-153.50207766029999
 30
0.0
 11
840.52704425529998
 21
-153.50207766029999
 31
0.0
  0
LINE
  5
F2
  8
0
 62
     0
 10
848.21271291899996
 20
-153.50207766029999
 30
0.0
 11
851.21271291899996
 21
-153.50207766029999
 31
0.0
  0
SOLID
  5
F3
  8
0
 62
     0
 10
848.21271291899996
 20
-153.50207766029999
 30
0.0
 11
851.21271291899996
 21
-152.75207766029999
 31
0.0
 12
851.21271291899996
 22
-154.25207766029999
 32
0.0
 13
850.46271291899996
 23
-153.50207766029999
 33
0.0
  0
LINE
  5
F4
  8
0
 62
     0
 10
856.21271291899996
 20
-153.50207766029999
 30
0.0
 11
853.21271291899996
 21
-153.50207766029999
 31
0.0
  0
SOLID
  5
F5
  8
0
 62
     0
 10
856.21271291899996
 20
-153.50207766029999
 30
0.0
 11
853.21271291899996
 21
-154.25207766029999
 31
0.0
 12
853.21271291899996
 22
-152.75207766029999
 32
0.0
 13
853.96271291899996
 23
-153.50207766029999
 33
0.0
  0
ENDBLK
  5
F6
  8
0
  0
BLOCK
  8
0
  2
*D2
 70
     1
 10
0.0
 20
0.0
 30
0.0
  3
*D2
  1

  0
TEXT
  5
FA
  8
0
 62
     0
 10
854.44882408310002
 20
-144.11320462929999
 30
0.0
 40
2.9986110209999999
  1
16
  0
LINE
  5
FB
  8
0
 62
     0
 10
864.21271291899996
 20
-159.9731539583
 30
0.0
 11
864.21271291899996
 21
-145.14237128010001
 31
0.0
  0
LINE
  5
FC
  8
0
 62
     0
 10
848.21271291899996
 20
-159.9731539583
 30
0.0
 11
848.21271291899996
 21
-145.14237128010001
 31
0.0
  0
LINE
  5
FD
  8
0
 62
     0
 10
864.21271291899996
 20
-145.64237128010001
 30
0.0
 11
859.74049059080005
 21
-145.64237128010001
 31
0.0
  0
LINE
  5
FE
  8
0
 62
     0
 10
864.21271291899996
 20
-145.64237128010001
 30
0.0
 11
852.68493524719997
 21
-145.64237128010001
 31
0.0
  0
LINE
  5
FF
  8
0
 62
     0
 10
848.21271291899996
 20
-145.64237128010001
 30
0.0
 11
859.74049059080005
 21
-145.64237128010001
 31
0.0
  0
LINE
  5
100
  8
0
 62
     0
 10
848.21271291899996
 20
-145.64237128010001
 30
0.0
 11
852.68493524719997
 21
-145.64237128010001
 31
0.0
  0
LINE
  5
101
  8
0
 62
     0
 10
848.21271291899996
 20
-145.64237128010001
 30
0.0
 11
851.21271291899996
 21
-145.64237128010001
 31
0.0
  0
SOLID
  5
102
  8
0
 62
     0
 10
848.21271291899996
 20
-145.64237128010001
 30
0.0
 11
851.21271291899996
 21
-144.89237128010001
 31
0.0
 12
851.21271291899996
 22
-146.39237128010001
 32
0.0
 13
850.46271291899996
 23
-145.64237128010001
 33
0.0
  0
LINE
  5
103
  8
0
 62
     0
 10
864.21271291899996
 20
-145.64237128010001
 30
0.0
 11
861.21271291899996
 21
-145.64237128010001
 31
0.0
  0
SOLID
  5
104
  8
0
 62
     0
 10
864.21271291899996
 20
-145.64237128010001
 30
0.0
 11
861.21271291899996
 21
-146.39237128010001
 31
0.0
 12
861.21271291899996
 22
-144.89237128010001
 32
0.0
 13
861.96271291899996
 23
-145.64237128010001
 33
0.0
  0
ENDBLK
  5
105
  8
0
  0
BLOCK
  8
0
  2
*D3
 70
     1
 10
0.0
 20
0.0
 30
0.0
  3
*D3
  1

  0
TEXT
  5
109
  8
0
 62
     0
 10
809.2942288424
 20
-258.81819309270003
 30
0.0
 40
2.9986110209999999
  1
8
 50
90.0
  0
LINE
  5
10A
  8
0
 62
     0
 10
796.38678699310003
 20
-270.39916055830003
 30
0.0
 11
811.32339549320011
 21
-270.39916055830003
 31
0.0
  0
LINE
  5
10B
  8
0
 62
     0
 10
800.38678699309992
 20
-262.39916055830003
 30
0.0
 11
811.32339549320011
 21
-262.39916055830003
 31
0.0
  0
LINE
  5
10C
  8
0
 62
     0
 10
810.8233954932
 20
-270.39916055830003
 30
0.0
 11
810.8233954932
 21
-255.29041542089999
 31
0.0
  0
LINE
  5
10D
  8
0
 62
     0
 10
810.8233954932
 20
-270.39916055830003
 30
0.0
 11
810.8233954932
 21
-260.58208192860002
 31
0.0
  0
LINE
  5
10E
  8
0
 62
     0
 10
810.8233954932
 20
-262.39916055830003
 30
0.0
 11
810.8233954932
 21
-255.29041542089999
 31
0.0
  0
LINE
  5
10F
  8
0
 62
     0
 10
810.8233954932
 20
-262.39916055830003
 30
0.0
 11
810.8233954932
 21
-260.58208192860002
 31
0.0
  0
LINE
  5
110
  8
0
 62
     0
 10
810.8233954932
 20
-262.39916055830003
 30
0.0
 11
810.8233954932
 21
-265.39916055830003
 31
0.0
  0
SOLID
  5
111
  8
0
 62
     0
 10
810.8233954932
 20
-262.39916055830003
 30
0.0
 11
811.5733954932
 21
-265.39916055830003
 31
0.0
 12
810.07339549320011
 22
-265.39916055830003
 32
0.0
 13
810.8233954932
 23
-264.64916055830003
 33
0.0
  0
LINE
  5
112
  8
0
 62
     0
 10
810.8233954932
 20
-270.39916055830003
 30
0.0
 11
810.8233954932
 21
-267.39916055830003
 31
0.0
  0
SOLID
  5
113
  8
0
 62
     0
 10
810.8233954932
 20
-270.39916055830003
 30
0.0
 11
810.07339549320011
 21
-267.39916055830003
 31
0.0
 12
811.5733954932
 22
-267.39916055830003
 32
0.0
 13
810.8233954932
 23
-268.14916055830003
 33
0.0
  0
ENDBLK
  5
114
  8
0
  0
BLOCK
  8
0
  2
*D4
 70
     1
 10
0.0
 20
0.0
 30
0.0
  3
*D4
  1

  0
TEXT
  5
118
  8
0
 62
     0
 10
809.2942288424
 20
-284.39712580960003
 30
0.0
 40
2.9986110209999999
  1
8
 50
90.0
  0
LINE
  5
119
  8
0
 62
     0
 10
800.38678699309992
 20
-278.39916055830003
 30
0.0
 11
811.32339549320011
 21
-278.39916055830003
 31
0.0
  0
LINE
  5
11A
  8
0
 62
     0
 10
796.38678699310003
 20
-270.39916055830003
 30
0.0
 11
811.32339549320011
 21
-270.39916055830003
 31
0.0
  0
LINE
  5
11B
  8
0
 62
     0
 10
810.8233954932
 20
-278.39916055830003
 30
0.0
 11
810.8233954932
 21
-280.86934813779999
 31
0.0
  0
LINE
  5
11C
  8
0
 62
     0
 10
810.8233954932
 20
-278.39916055830003
 30
0.0
 11
810.8233954932
 21
-286.16101464550002
 31
0.0
  0
LINE
  5
11D
  8
0
 62
     0
 10
810.8233954932
 20
-270.39916055830003
 30
0.0
 11
810.8233954932
 21
-280.86934813779999
 31
0.0
  0
LINE
  5
11E
  8
0
 62
     0
 10
810.8233954932
 20
-270.39916055830003
 30
0.0
 11
810.8233954932
 21
-286.16101464550002
 31
0.0
  0
LINE
  5
11F
  8
0
 62
     0
 10
810.8233954932
 20
-270.39916055830003
 30
0.0
 11
810.8233954932
 21
-273.39916055830003
 31
0.0
  0
SOLID
  5
120
  8
0
 62
     0
 10
810.8233954932
 20
-270.39916055830003
 30
0.0
 11
811.5733954932
 21
-273.39916055830003
 31
0.0
 12
810.07339549320011
 22
-273.39916055830003
 32
0.0
 13
810.8233954932
 23
-272.64916055830003
 33
0.0
  0
LINE
  5
121
  8
0
 62
     0
 10
810.8233954932
 20
-278.39916055830003
 30
0.0
 11
810.8233954932
 21
-275.39916055830003
 31
0.0
  0
SOLID
  5
122
  8
0
 62
     0
 10
810.8233954932
 20
-278.39916055830003
 30
0.0
 11
810.07339549320011
 21
-275.39916055830003
 31
0.0
 12
811.5733954932
 22
-275.39916055830003
 32
0.0
 13
810.8233954932
 23
-276.14916055830003
 33
0.0
  0
ENDBLK
  5
123
  8
0
  0
BLOCK
  8
0
  2
*D5
 70
     1
 10
0.0
 20
0.0
 30
0.0
  3
*D5
  1

  0
TEXT
  5
127
  8
0
 62
     0
 10
727.85762034229992
 20
-272.1630493941999
 30
0.0
 40
2.9986110209999999
  1
16
 50
90.0
  0
LINE
  5
128
  8
0
 62
     0
 10
738.38678699310003
 20
-262.39916055830003
 30
0.0
 11
728.88678699310003
 21
-262.39916055830003
 31
0.0
  0
LINE
  5
129
  8
0
 62
     0
 10
738.38678699310003
 20
-278.39916055830003
 30
0.0
 11
728.88678699310003
 21
-278.39916055830003
 31
0.0
  0
LINE
  5
12A
  8
0
 62
     0
 10
729.38678699310003
 20
-262.39916055830003
 30
0.0
 11
729.38678699310003
 21
-266.87138288649999
 31
0.0
  0
LINE
  5
12B
  8
0
 62
     0
 10
729.38678699310003
 20
-262.39916055830003
 30
0.0
 11
729.38678699310003
 21
-273.92693823019999
 31
0.0
  0
LINE
  5
12C
  8
0
 62
     0
 10
729.38678699310003
 20
-278.39916055830003
 30
0.0
 11
729.38678699310003
 21
-266.87138288649999
 31
0.0
  0
LINE
  5
12D
  8
0
 62
     0
 10
729.38678699310003
 20
-278.39916055830003
 30
0.0
 11
729.38678699310003
 21
-273.92693823019999
 31
0.0
  0
LINE
  5
12E
  8
0
 62
     0
 10
729.38678699310003
 20
-278.39916055830003
 30
0.0
 11
729.38678699310003
 21
-275.39916055830003
 31
0.0
  0
SOLID
  5
12F
  8
0
 62
     0
 10
729.38678699310003
 20
-278.39916055830003
 30
0.0
 11
728.63678699310003
 21
-275.39916055830003
 31
0.0
 12
730.13678699310003
 22
-275.39916055830003
 32
0.0
 13
729.38678699310003
 23
-276.14916055830003
 33
0.0
  0
LINE
  5
130
  8
0
 62
     0
 10
729.38678699310003
 20
-262.39916055830003
 30
0.0
 11
729.38678699310003
 21
-265.39916055830003
 31
0.0
  0
SOLID
  5
131
  8
0
 62
     0
 10
729.38678699310003
 20
-262.39916055830003
 30
0.0
 11
730.13678699310003
 21
-265.39916055830003
 31
0.0
 12
728.63678699310003
 22
-265.39916055830003
 32
0.0
 13
729.38678699310003
 23
-264.64916055830003
 33
0.0
  0
ENDBLK
  5
132
  8
0
  0
BLOCK
  8
0
  2
*D6
 70
     1
 10
0.0
 20
0.0
 30
0.0
  3
*D6
  1

  0
TEXT
  5
136
  8
0
 62
     0
 10
919.53390966979987
 20
-190.3884848644
 30
0.0
 40
2.9986110209999999
  1
%%c8
  0
LINE
  5
137
  8
0
 62
     0
 10
942.17974292369991
 20
-205.1031539583
 30
0.0
 11
942.17974292369991
 21
-191.41765151519999
 31
0.0
  0
LINE
  5
138
  8
0
 62
     0
 10
902.17974292369991
 20
-205.1031539583
 30
0.0
 11
902.17974292369991
 21
-191.41765151519999
 31
0.0
  0
LINE
  5
139
  8
0
 62
     0
 10
942.17974292369991
 20
-191.91765151519999
 30
0.0
 11
926.58946501339994
 21
-191.91765151519999
 31
0.0
  0
LINE
  5
13A
  8
0
 62
     0
 10
942.17974292369991
 20
-191.91765151519999
 30
0.0
 11
917.77002083390005
 21
-191.91765151519999
 31
0.0
  0
LINE
  5
13B
  8
0
 62
     0
 10
902.17974292369991
 20
-191.91765151519999
 30
0.0
 11
926.58946501339994
 21
-191.91765151519999
 31
0.0
  0
LINE
  5
13C
  8
0
 62
     0
 10
902.17974292369991
 20
-191.91765151519999
 30
0.0
 11
917.77002083390005
 21
-191.91765151519999
 31
0.0
  0
LINE
  5
13D
  8
0
 62
     0
 10
902.17974292369991
 20
-191.91765151519999
 30
0.0
 11
905.17974292369979
 21
-191.91765151519999
 31
0.0
  0
SOLID
  5
13E
  8
0
 62
     0
 10
902.17974292369991
 20
-191.91765151519999
 30
0.0
 11
905.17974292369979
 21
-191.16765151519999
 31
0.0
 12
905.17974292369979
 22
-192.66765151519999
 32
0.0
 13
904.42974292369991
 23
-191.91765151519999
 33
0.0
  0
LINE
  5
13F
  8
0
 62
     0
 10
942.17974292369991
 20
-191.91765151519999
 30
0.0
 11
939.17974292370002
 21
-191.91765151519999
 31
0.0
  0
SOLID
  5
140
  8
0
 62
     0
 10
942.17974292369991
 20
-191.91765151519999
 30
0.0
 11
939.17974292370002
 21
-192.66765151519999
 31
0.0
 12
939.17974292370002
 22
-191.16765151519999
 32
0.0
 13
939.92974292369979
 23
-191.91765151519999
 33
0.0
  0
ENDBLK
  5
141
  8
0
  0
BLOCK
  8
0
  2
*D7
 70
     1
 10
0.0
 20
0.0
 30
0.0
  3
*D7
  1

  0
TEXT
  5
145
  8
0
 62
     0
 10
746.67785681750001
 20
-147.84136452609999
 30
0.0
 40
2.9986110209999999
  1
3t
  0
LINE
  5
146
  8
0
 62
     0
 10
742.38678699310003
 20
-159.9731539583
 30
0.0
 11
742.38678699310003
 21
-148.87053117689999
 31
0.0
  0
LINE
  5
147
  8
0
 62
     0
 10
739.38678699310003
 20
-159.9731539583
 30
0.0
 11
739.38678699310003
 21
-148.87053117689999
 31
0.0
  0
LINE
  5
148
  8
0
 62
     0
 10
742.38678699310003
 20
-149.37053117689999
 30
0.0
 11
751.96952332520004
 21
-149.37053117689999
 31
0.0
  0
LINE
  5
149
  8
0
 62
     0
 10
742.38678699310003
 20
-149.37053117689999
 30
0.0
 11
744.91396798159997
 21
-149.37053117689999
 31
0.0
  0
LINE
  5
14A
  8
0
 62
     0
 10
739.38678699310003
 20
-149.37053117689999
 30
0.0
 11
751.96952332520004
 21
-149.37053117689999
 31
0.0
  0
LINE
  5
14B
  8
0
 62
     0
 10
739.38678699310003
 20
-149.37053117689999
 30
0.0
 11
744.91396798159997
 21
-149.37053117689999
 31
0.0
  0
LINE
  5
14C
  8
0
 62
     0
 10
739.38678699310003
 20
-149.37053117689999
 30
0.0
 11
736.38678699310003
 21
-149.37053117689999
 31
0.0
  0
SOLID
  5
14D
  8
0
 62
     0
 10
739.38678699310003
 20
-149.37053117689999
 30
0.0
 11
736.38678699310003
 21
-150.12053117689999
 31
0.0
 12
736.38678699310003
 22
-148.62053117689999
 32
0.0
 13
737.13678699310003
 23
-149.37053117689999
 33
0.0
  0
LINE
  5
14E
  8
0
 62
     0
 10
742.38678699310003
 20
-149.37053117689999
 30
0.0
 11
745.38678699310003
 21
-149.37053117689999
 31
0.0
  0
SOLID
  5
14F
  8
0
 62
     0
 10
742.38678699310003
 20
-149.37053117689999
 30
0.0
 11
745.38678699310003
 21
-148.62053117689999
 31
0.0
 12
745.38678699310003
 22
-150.12053117689999
 32
0.0
 13
744.63678699310003
 23
-149.37053117689999
 33
0.0
  0
ENDBLK
  5
150
  8
0
  0
BLOCK
  8
0
  2
*D8
 70
     1
 10
0.0
 20
0.0
 30
0.0
  3
*D8
  1

  0
TEXT
  5
154
  8
0
 62
     0
 10
836.68354626820008
 20
-212.73704279419999
 30
0.0
 40
2.9986110209999999
  1
20
 50
90.0
  0
LINE
  5
155
  8
0
 62
     0
 10
849.21271291899996
 20
-200.9731539583
 30
0.0
 11
837.71271291899984
 21
-200.9731539583
 31
0.0
  0
LINE
  5
156
  8
0
 62
     0
 10
847.21271291899996
 20
-220.9731539583
 30
0.0
 11
837.71271291899984
 21
-220.9731539583
 31
0.0
  0
LINE
  5
157
  8
0
 62
     0
 10
838.21271291899996
 20
-200.9731539583
 30
0.0
 11
838.21271291899996
 21
-207.44537628649999
 31
0.0
  0
LINE
  5
158
  8
0
 62
     0
 10
838.21271291899996
 20
-200.9731539583
 30
0.0
 11
838.21271291899996
 21
-214.50093163010001
 31
0.0
  0
LINE
  5
159
  8
0
 62
     0
 10
838.21271291899996
 20
-220.9731539583
 30
0.0
 11
838.21271291899996
 21
-207.44537628649999
 31
0.0
  0
LINE
  5
15A
  8
0
 62
     0
 10
838.21271291899996
 20
-220.9731539583
 30
0.0
 11
838.21271291899996
 21
-214.50093163010001
 31
0.0
  0
LINE
  5
15B
  8
0
 62
     0
 10
838.21271291899996
 20
-220.9731539583
 30
0.0
 11
838.21271291899996
 21
-217.9731539583
 31
0.0
  0
SOLID
  5
15C
  8
0
 62
     0
 10
838.21271291899996
 20
-220.9731539583
 30
0.0
 11
837.46271291899996
 21
-217.9731539583
 31
0.0
 12
838.96271291899996
 22
-217.9731539583
 32
0.0
 13
838.21271291899996
 23
-218.7231539583
 33
0.0
  0
LINE
  5
15D
  8
0
 62
     0
 10
838.21271291899996
 20
-200.9731539583
 30
0.0
 11
838.21271291899996
 21
-203.9731539583
 31
0.0
  0
SOLID
  5
15E
  8
0
 62
     0
 10
838.21271291899996
 20
-200.9731539583
 30
0.0
 11
838.96271291899996
 21
-203.9731539583
 31
0.0
 12
837.46271291899996
 22
-203.9731539583
 32
0.0
 13
838.21271291899996
 23
-203.2231539583
 33
0.0
  0
ENDBLK
  5
15F
  8
0
  0
BLOCK
  8
0
  2
*D9
 70
     1
 10
0.0
 20
0.0
 30
0.0
  3
*D9
  1

  0
TEXT
  5
163
  8
0
 62
     0
 10
836.68354626820008
 20
-188.23704279419999
 30
0.0
 40
2.9986110209999999
  1
29
 50
90.0
  0
LINE
  5
164
  8
0
 62
     0
 10
849.21271291899996
 20
-171.9731539583
 30
0.0
 11
837.71271291899984
 21
-171.9731539583
 31
0.0
  0
LINE
  5
165
  8
0
 62
     0
 10
849.21271291899996
 20
-200.9731539583
 30
0.0
 11
837.71271291899984
 21
-200.9731539583
 31
0.0
  0
LINE
  5
166
  8
0
 62
     0
 10
838.21271291899996
 20
-171.9731539583
 30
0.0
 11
838.21271291899996
 21
-182.94537628649999
 31
0.0
  0
LINE
  5
167
  8
0
 62
     0
 10
838.21271291899996
 20
-171.9731539583
 30
0.0
 11
838.21271291899996
 21
-190.00093163010001
 31
0.0
  0
LINE
  5
168
  8
0
 62
     0
 10
838.21271291899996
 20
-200.9731539583
 30
0.0
 11
838.21271291899996
 21
-182.94537628649999
 31
0.0
  0
LINE
  5
169
  8
0
 62
     0
 10
838.21271291899996
 20
-200.9731539583
 30
0.0
 11
838.21271291899996
 21
-190.00093163010001
 31
0.0
  0
LINE
  5
16A
  8
0
 62
     0
 10
838.21271291899996
 20
-200.9731539583
 30
0.0
 11
838.21271291899996
 21
-197.9731539583
 31
0.0
  0
SOLID
  5
16B
  8
0
 62
     0
 10
838.21271291899996
 20
-200.9731539583
 30
0.0
 11
837.46271291899996
 21
-197.9731539583
 31
0.0
 12
838.96271291899996
 22
-197.9731539583
 32
0.0
 13
838.21271291899996
 23
-198.7231539583
 33
0.0
  0
LINE
  5
16C
  8
0
 62
     0
 10
838.21271291899996
 20
-171.9731539583
 30
0.0
 11
838.21271291899996
 21
-174.9731539583
 31
0.0
  0
SOLID
  5
16D
  8
0
 62
     0
 10
838.21271291899996
 20
-171.9731539583
 30
0.0
 11
838.96271291899996
 21
-174.9731539583
 31
0.0
 12
837.46271291899996
 22
-174.9731539583
 32
0.0
 13
838.21271291899996
 23
-174.2231539583
 33
0.0
  0
ENDBLK
  5
16E
  8
0
  0
BLOCK
  8
0
  2
*D10
 70
     1
 10
0.0
 20
0.0
 30
0.0
  3
*D10
  1

  0
TEXT
  5
172
  8
0
 62
     0
 10
836.68354626820008
 20
-168.23704279419999
 30
0.0
 40
2.9986110209999999
  1
11
 50
90.0
  0
LINE
  5
173
  8
0
 62
     0
 10
847.21271291899996
 20
-160.9731539583
 30
0.0
 11
837.71271291899984
 21
-160.9731539583
 31
0.0
  0
LINE
  5
174
  8
0
 62
     0
 10
849.21271291899996
 20
-171.9731539583
 30
0.0
 11
837.71271291899984
 21
-171.9731539583
 31
0.0
  0
LINE
  5
175
  8
0
 62
     0
 10
838.21271291899996
 20
-160.9731539583
 30
0.0
 11
838.21271291899996
 21
-162.94537628649999
 31
0.0
  0
LINE
  5
176
  8
0
 62
     0
 10
838.21271291899996
 20
-160.9731539583
 30
0.0
 11
838.21271291899996
 21
-170.00093163010001
 31
0.0
  0
LINE
  5
177
  8
0
 62
     0
 10
838.21271291899996
 20
-171.9731539583
 30
0.0
 11
838.21271291899996
 21
-162.94537628649999
 31
0.0
  0
LINE
  5
178
  8
0
 62
     0
 10
838.21271291899996
 20
-171.9731539583
 30
0.0
 11
838.21271291899996
 21
-170.00093163010001
 31
0.0
  0
LINE
  5
179
  8
0
 62
     0
 10
838.21271291899996
 20
-171.9731539583
 30
0.0
 11
838.21271291899996
 21
-174.9731539583
 31
0.0
  0
SOLID
  5
17A
  8
0
 62
     0
 10
838.21271291899996
 20
-171.9731539583
 30
0.0
 11
838.96271291899996
 21
-174.9731539583
 31
0.0
 12
837.46271291899996
 22
-174.9731539583
 32
0.0
 13
838.21271291899996
 23
-174.2231539583
 33
0.0
  0
LINE
  5
17B
  8
0
 62
     0
 10
838.21271291899996
 20
-160.9731539583
 30
0.0
 11
838.21271291899996
 21
-157.9731539583
 31
0.0
  0
SOLID
  5
17C
  8
0
 62
     0
 10
838.21271291899996
 20
-160.9731539583
 30
0.0
 11
837.46271291899996
 21
-157.9731539583
 31
0.0
 12
838.96271291899996
 22
-157.9731539583
 32
0.0
 13
838.21271291899996
 23
-158.7231539583
 33
0.0
  0
ENDBLK
  5
17D
  8
0
  0
BLOCK
  8
0
  2
*D11
 70
     1
 10
0.0
 20
0.0
 30
0.0
  3
*D11
  1

  0
TEXT
  5
181
  8
0
 62
     0
 10
721.50206385419995
 20
-192.73704279419999
 30
0.0
 40
2.9986110209999999
  1
60
 50
90.0
  0
LINE
  5
182
  8
0
 62
     0
 10
738.38678699310003
 20
-160.9731539583
 30
0.0
 11
722.53123050500005
 21
-160.9731539583
 31
0.0
  0
LINE
  5
183
  8
0
 62
     0
 10
738.38678699310003
 20
-220.9731539583
 30
0.0
 11
722.53123050500005
 21
-220.9731539583
 31
0.0
  0
LINE
  5
184
  8
0
 62
     0
 10
723.03123050500005
 20
-160.9731539583
 30
0.0
 11
723.03123050500005
 21
-187.44537628649999
 31
0.0
  0
LINE
  5
185
  8
0
 62
     0
 10
723.03123050500005
 20
-160.9731539583
 30
0.0
 11
723.03123050500005
 21
-194.50093163010001
 31
0.0
  0
LINE
  5
186
  8
0
 62
     0
 10
723.03123050500005
 20
-220.9731539583
 30
0.0
 11
723.03123050500005
 21
-187.44537628649999
 31
0.0
  0
LINE
  5
187
  8
0
 62
     0
 10
723.03123050500005
 20
-220.9731539583
 30
0.0
 11
723.03123050500005
 21
-194.50093163010001
 31
0.0
  0
LINE
  5
188
  8
0
 62
     0
 10
723.03123050500005
 20
-220.9731539583
 30
0.0
 11
723.03123050500005
 21
-217.9731539583
 31
0.0
  0
SOLID
  5
189
  8
0
 62
     0
 10
723.03123050500005
 20
-220.9731539583
 30
0.0
 11
722.28123050500005
 21
-217.9731539583
 31
0.0
 12
723.78123050500005
 22
-217.9731539583
 32
0.0
 13
723.03123050500005
 23
-218.7231539583
 33
0.0
  0
LINE
  5
18A
  8
0
 62
     0
 10
723.03123050500005
 20
-160.9731539583
 30
0.0
 11
723.03123050500005
 21
-163.9731539583
 31
0.0
  0
SOLID
  5
18B
  8
0
 62
     0
 10
723.03123050500005
 20
-160.9731539583
 30
0.0
 11
723.78123050500005
 21
-163.9731539583
 31
0.0
 12
722.28123050500005
 22
-163.9731539583
 32
0.0
 13
723.03123050500005
 23
-163.2231539583
 33
0.0
  0
ENDBLK
  5
18C
  8
0
  0
BLOCK
  8
0
  2
*D12
 70
     1
 10
0.0
 20
0.0
 30
0.0
  3
*D12
  1

  0
TEXT
  5
190
  8
0
 62
     0
 10
767.62289815710005
 20
-229.44398730750001
 30
0.0
 40
2.9986110209999999
  1
60
  0
LINE
  5
191
  8
0
 62
     0
 10
739.38678699310003
 20
-218.9731539583
 30
0.0
 11
739.38678699310003
 21
-231.4731539583
 31
0.0
  0
LINE
  5
192
  8
0
 62
     0
 10
799.38678699310003
 20
-221.9731539583
 30
0.0
 11
799.38678699310003
 21
-231.4731539583
 31
0.0
  0
LINE
  5
193
  8
0
 62
     0
 10
739.38678699310003
 20
-230.9731539583
 30
0.0
 11
772.91456466490001
 21
-230.9731539583
 31
0.0
  0
LINE
  5
194
  8
0
 62
     0
 10
739.38678699310003
 20
-230.9731539583
 30
0.0
 11
765.85900932120001
 21
-230.9731539583
 31
0.0
  0
LINE
  5
195
  8
0
 62
     0
 10
799.38678699310003
 20
-230.9731539583
 30
0.0
 11
772.91456466490001
 21
-230.9731539583
 31
0.0
  0
LINE
  5
196
  8
0
 62
     0
 10
799.38678699310003
 20
-230.9731539583
 30
0.0
 11
765.85900932120001
 21
-230.9731539583
 31
0.0
  0
LINE
  5
197
  8
0
 62
     0
 10
799.38678699310003
 20
-230.9731539583
 30
0.0
 11
796.38678699310003
 21
-230.9731539583
 31
0.0
  0
SOLID
  5
198
  8
0
 62
     0
 10
799.38678699310003
 20
-230.9731539583
 30
0.0
 11
796.38678699310003
 21
-231.7231539583
 31
0.0
 12
796.38678699310003
 22
-230.2231539583
 32
0.0
 13
797.13678699310003
 23
-230.9731539583
 33
0.0
  0
LINE
  5
199
  8
0
 62
     0
 10
739.38678699310003
 20
-230.9731539583
 30
0.0
 11
742.38678699310003
 21
-230.9731539583
 31
0.0
  0
SOLID
  5
19A
  8
0
 62
     0
 10
739.38678699310003
 20
-230.9731539583
 30
0.0
 11
742.38678699310003
 21
-230.2231539583
 31
0.0
 12
742.38678699310003
 22
-231.7231539583
 32
0.0
 13
741.63678699310003
 23
-230.9731539583
 33
0.0
  0
ENDBLK
  5
19B
  8
0
  0
BLOCK
  8
0
  2
*D13
 70
     1
 10
0.0
 20
0.0
 30
0.0
  3
*D13
  1

  0
TEXT
  5
1A0
  8
0
 62
     0
 10
765.51703679729985
 20
-190.75382463380001
 30
0.0
 40
2.9986110209999999
  1
90%%d
 50
315.3951129190001
  0
ARC
  5
1A1
  8
0
 62
     0
 10
742.38678699310003
 20
-217.9731539583
 30
0.0
 40
34.034121449200001
 50
83.684648983999992
 51
90.0
  0
ARC
  5
1A2
  8
0
 62
     0
 10
742.38678699310003
 20
-217.9731539583
 30
0.0
 40
34.034121449200001
 50
0.0
 51
6.3153510160000002
  0
SOLID
  5
1A3
  8
0
 62
     0
 10
776.42090844229995
 20
-217.9731539583
 30
0.0
 11
777.17090844229995
 21
-220.9731539583
 31
0.0
 12
775.67090844229995
 22
-220.9731539583
 32
0.0
 13
776.42090844229995
 23
-220.2231539583
 33
0.0
  0
SOLID
  5
1A4
  8
0
 62
     0
 10
742.38678699310003
 20
-183.9390325091
 30
0.0
 11
739.38678699310003
 21
-184.6890325091
 31
0.0
 12
739.38678699310003
 22
-183.1890325091
 32
0.0
 13
740.13678699310003
 23
-183.9390325091
 33
0.0
  0
ARC
  5
1A5
  8
0
 62
     0
 10
742.38678699310003
 20
-217.9731539583
 30
0.0
 40
34.034121449200001
 50
0.0
 51
37.85805278170001
  0
ARC
  5
1A6
  8
0
 62
     0
 10
742.38678699310003
 20
-217.9731539583
 30
0.0
 40
34.034121449200001
 50
52.932173056300002
 51
90.0
  0
LINE
  5
1A7
  8
0
 62
     0
 10
797.38678699310003
 20
-217.9731539583
 30
0.0
 11
774.42090844229995
 21
-217.9731539583
 31
0.0
  0
LINE
  5
1A8
  8
0
 62
     0
 10
742.38678699310003
 20
-162.9731539583
 30
0.0
 11
742.38678699310003
 21
-185.9390325091
 31
0.0
  0
ENDBLK
  5
1A9
  8
0
  0
BLOCK
  8
0
  2
*D14
 70
     1
 10
0.0
 20
0.0
 30
0.0
  3
*D14
  1

  0
TEXT
  5
1AD
  8
0
 62
     0
 10
792.12289815710005
 20
-250.86999390759999
 30
0.0
 40
2.9986110209999999
  1
11
  0
LINE
  5
1AE
  8
0
 62
     0
 10
799.38678699310003
 20
-261.39916055830003
 30
0.0
 11
799.38678699310003
 21
-251.8991605583
 31
0.0
  0
LINE
  5
1AF
  8
0
 62
     0
 10
788.38678699310003
 20
-263.39916055830003
 30
0.0
 11
788.38678699310003
 21
-251.8991605583
 31
0.0
  0
LINE
  5
1B0
  8
0
 62
     0
 10
799.38678699310003
 20
-252.3991605583
 30
0.0
 11
797.41456466490001
 21
-252.3991605583
 31
0.0
  0
LINE
  5
1B1
  8
0
 62
     0
 10
799.38678699310003
 20
-252.3991605583
 30
0.0
 11
790.35900932120001
 21
-252.3991605583
 31
0.0
  0
LINE
  5
1B2
  8
0
 62
     0
 10
788.38678699310003
 20
-252.3991605583
 30
0.0
 11
797.41456466490001
 21
-252.3991605583
 31
0.0
  0
LINE
  5
1B3
  8
0
 62
     0
 10
788.38678699310003
 20
-252.3991605583
 30
0.0
 11
790.35900932120001
 21
-252.3991605583
 31
0.0
  0
LINE
  5
1B4
  8
0
 62
     0
 10
788.38678699310003
 20
-252.3991605583
 30
0.0
 11
785.38678699310003
 21
-252.3991605583
 31
0.0
  0
SOLID
  5
1B5
  8
0
 62
     0
 10
788.38678699310003
 20
-252.3991605583
 30
0.0
 11
785.38678699310003
 21
-253.1491605583
 31
0.0
 12
785.38678699310003
 22
-251.6491605583
 32
0.0
 13
786.13678699310003
 23
-252.3991605583
 33
0.0
  0
LINE
  5
1B6
  8
0
 62
     0
 10
799.38678699310003
 20
-252.3991605583
 30
0.0
 11
802.38678699310015
 21
-252.3991605583
 31
0.0
  0
SOLID
  5
1B7
  8
0
 62
     0
 10
799.38678699310003
 20
-252.3991605583
 30
0.0
 11
802.38678699310015
 21
-251.6491605583
 31
0.0
 12
802.38678699310015
 22
-253.1491605583
 32
0.0
 13
801.63678699310003
 23
-252.3991605583
 33
0.0
  0
ENDBLK
  5
1B8
  8
0
  0
BLOCK
  8
0
  2
*D15
 70
     1
 10
0.0
 20
0.0
 30
0.0
  3
*D15
  1

  0
TEXT
  5
1BC
  8
0
 62
     0
 10
772.12289815710005
 20
-250.86999390759999
 30
0.0
 40
2.9986110209999999
  1
29
  0
LINE
  5
1BD
  8
0
 62
     0
 10
788.38678699310003
 20
-263.39916055830003
 30
0.0
 11
788.38678699310003
 21
-251.8991605583
 31
0.0
  0
LINE
  5
1BE
  8
0
 62
     0
 10
759.38678699310003
 20
-263.39916055830003
 30
0.0
 11
759.38678699310003
 21
-251.8991605583
 31
0.0
  0
LINE
  5
1BF
  8
0
 62
     0
 10
788.38678699310003
 20
-252.3991605583
 30
0.0
 11
777.4145646648999
 21
-252.3991605583
 31
0.0
  0
LINE
  5
1C0
  8
0
 62
     0
 10
788.38678699310003
 20
-252.3991605583
 30
0.0
 11
770.35900932120001
 21
-252.3991605583
 31
0.0
  0
LINE
  5
1C1
  8
0
 62
     0
 10
759.38678699310003
 20
-252.3991605583
 30
0.0
 11
777.4145646648999
 21
-252.3991605583
 31
0.0
  0
LINE
  5
1C2
  8
0
 62
     0
 10
759.38678699310003
 20
-252.3991605583
 30
0.0
 11
770.35900932120001
 21
-252.3991605583
 31
0.0
  0
LINE
  5
1C3
  8
0
 62
     0
 10
759.38678699310003
 20
-252.3991605583
 30
0.0
 11
762.38678699310003
 21
-252.3991605583
 31
0.0
  0
SOLID
  5
1C4
  8
0
 62
     0
 10
759.38678699310003
 20
-252.3991605583
 30
0.0
 11
762.38678699310003
 21
-251.6491605583
 31
0.0
 12
762.38678699310003
 22
-253.1491605583
 32
0.0
 13
761.63678699310003
 23
-252.3991605583
 33
0.0
  0
LINE
  5
1C5
  8
0
 62
     0
 10
788.38678699310003
 20
-252.3991605583
 30
0.0
 11
785.38678699310003
 21
-252.3991605583
 31
0.0
  0
SOLID
  5
1C6
  8
0
 62
     0
 10
788.38678699310003
 20
-252.3991605583
 30
0.0
 11
785.38678699310003
 21
-253.1491605583
 31
0.0
 12
785.38678699310003
 22
-251.6491605583
 32
0.0
 13
786.13678699310003
 23
-252.3991605583
 33
0.0
  0
ENDBLK
  5
1C7
  8
0
  0
BLOCK
  8
0
  2
*D16
 70
     1
 10
0.0
 20
0.0
 30
0.0
  3
*D16
  1

  0
TEXT
  5
1CB
  8
0
 62
     0
 10
747.62289815710005
 20
-250.86999390759999
 30
0.0
 40
2.9986110209999999
  1
20
  0
LINE
  5
1CC
  8
0
 62
     0
 10
759.38678699310003
 20
-263.39916055830003
 30
0.0
 11
759.38678699310003
 21
-251.8991605583
 31
0.0
  0
LINE
  5
1CD
  8
0
 62
     0
 10
739.38678699310003
 20
-261.39916055830003
 30
0.0
 11
739.38678699310003
 21
-251.8991605583
 31
0.0
  0
LINE
  5
1CE
  8
0
 62
     0
 10
759.38678699310003
 20
-252.3991605583
 30
0.0
 11
752.9145646648999
 21
-252.3991605583
 31
0.0
  0
LINE
  5
1CF
  8
0
 62
     0
 10
759.38678699310003
 20
-252.3991605583
 30
0.0
 11
745.85900932119989
 21
-252.3991605583
 31
0.0
  0
LINE
  5
1D0
  8
0
 62
     0
 10
739.38678699310003
 20
-252.3991605583
 30
0.0
 11
752.9145646648999
 21
-252.3991605583
 31
0.0
  0
LINE
  5
1D1
  8
0
 62
     0
 10
739.38678699310003
 20
-252.3991605583
 30
0.0
 11
745.85900932119989
 21
-252.3991605583
 31
0.0
  0
LINE
  5
1D2
  8
0
 62
     0
 10
739.38678699310003
 20
-252.3991605583
 30
0.0
 11
742.38678699310003
 21
-252.3991605583
 31
0.0
  0
SOLID
  5
1D3
  8
0
 62
     0
 10
739.38678699310003
 20
-252.3991605583
 30
0.0
 11
742.38678699310003
 21
-251.6491605583
 31
0.0
 12
742.38678699310003
 22
-253.1491605583
 32
0.0
 13
741.63678699310003
 23
-252.3991605583
 33
0.0
  0
LINE
  5
1D4
  8
0
 62
     0
 10
759.38678699310003
 20
-252.3991605583
 30
0.0
 11
756.38678699310003
 21
-252.3991605583
 31
0.0
  0
SOLID
  5
1D5
  8
0
 62
     0
 10
759.38678699310003
 20
-252.3991605583
 30
0.0
 11
756.38678699310003
 21
-253.1491605583
 31
0.0
 12
756.38678699310003
 22
-251.6491605583
 32
0.0
 13
757.13678699310003
 23
-252.3991605583
 33
0.0
  0
ENDBLK
  5
1D6
  8
0
  0
BLOCK
  8
0
  2
*D17
 70
     1
 10
0.0
 20
0.0
 30
0.0
  3
*D17
  1

  0
TEXT
  5
1FB
  8
0
 62
     0
 10
919.53390966979987
 20
-232.32010882809999
 30
0.0
 40
2.9986110209999999
  1
%%c4
  0
LINE
  5
1FC
  8
0
 62
     0
 10
912.17974292369979
 20
-222.1031539583
 30
0.0
 11
912.17974292369979
 21
-234.34927547890001
 31
0.0
  0
LINE
  5
1FD
  8
0
 62
     0
 10
932.17974292369991
 20
-222.1031539583
 30
0.0
 11
932.17974292369991
 21
-234.34927547890001
 31
0.0
  0
LINE
  5
1FE
  8
0
 62
     0
 10
912.17974292369979
 20
-233.84927547890001
 30
0.0
 11
926.58946501339994
 21
-233.84927547890001
 31
0.0
  0
LINE
  5
1FF
  8
0
 62
     0
 10
912.17974292369979
 20
-233.84927547890001
 30
0.0
 11
917.77002083390005
 21
-233.84927547890001
 31
0.0
  0
LINE
  5
200
  8
0
 62
     0
 10
932.17974292369991
 20
-233.84927547890001
 30
0.0
 11
926.58946501339994
 21
-233.84927547890001
 31
0.0
  0
LINE
  5
201
  8
0
 62
     0
 10
932.17974292369991
 20
-233.84927547890001
 30
0.0
 11
917.77002083390005
 21
-233.84927547890001
 31
0.0
  0
LINE
  5
202
  8
0
 62
     0
 10
932.17974292369991
 20
-233.84927547890001
 30
0.0
 11
929.17974292369979
 21
-233.84927547890001
 31
0.0
  0
SOLID
  5
203
  8
0
 62
     0
 10
932.17974292369991
 20
-233.84927547890001
 30
0.0
 11
929.17974292369979
 21
-234.59927547890001
 31
0.0
 12
929.17974292369979
 22
-233.09927547890001
 32
0.0
 13
929.92974292369979
 23
-233.84927547890001
 33
0.0
  0
LINE
  5
204
  8
0
 62
     0
 10
912.17974292369979
 20
-233.84927547890001
 30
0.0
 11
915.17974292369991
 21
-233.84927547890001
 31
0.0
  0
SOLID
  5
205
  8
0
 62
     0
 10
912.17974292369979
 20
-233.84927547890001
 30
0.0
 11
915.17974292369991
 21
-233.09927547890001
 31
0.0
 12
915.17974292369991
 22
-234.59927547890001
 32
0.0
 13
914.42974292369991
 23
-233.84927547890001
 33
0.0
  0
ENDBLK
  5
206
  8
0
  0
BLOCK
  8
0
  2
*D18
 70
     1
 10
0.0
 20
0.0
 30
0.0
  3
*D18
  1

  0
TEXT
  5
20A
  8
0
 62
     0
 10
919.53390966979987
 20
-181.34378531909999
 30
0.0
 40
2.9986110209999999
  1
90%%d
 50
360.0
  0
ARC
  5
20B
  8
0
 62
     0
 10
922.17974292369979
 20
-226.1031539583
 30
0.0
 40
43.171868686899998
 50
130.1369976529999
 51
135.0
  0
ARC
  5
20C
  8
0
 62
     0
 10
922.17974292369979
 20
-226.1031539583
 30
0.0
 40
43.171868686899998
 50
45.0
 51
49.863002346999991
  0
SOLID
  5
20D
  8
0
 62
     0
 10
952.70686402859997
 20
-195.57603285330001
 30
0.0
 11
955.35851445809988
 21
-197.16702311099999
 31
0.0
 12
954.29785428629998
 22
-198.22768328270001
 32
0.0
 13
954.29785428629998
 23
-197.16702311099999
 33
0.0
  0
SOLID
  5
20E
  8
0
 62
     0
 10
891.65262181870003
 20
-195.57603285330001
 30
0.0
 11
890.0616315609999
 21
-198.22768328270001
 31
0.0
 12
889.0009713892
 22
-197.16702311099999
 32
0.0
 13
890.0616315609999
 23
-197.16702311099999
 33
0.0
  0
ARC
  5
20F
  8
0
 62
     0
 10
922.17974292369979
 20
-226.1031539583
 30
0.0
 40
43.171868686899998
 50
45.0
 51
84.071626409200007
  0
ARC
  5
210
  8
0
 62
     0
 10
922.17974292369979
 20
-226.1031539583
 30
0.0
 40
43.171868686899998
 50
95.928373590799978
 51
135.0
  0
LINE
  5
211
  8
0
 62
     0
 10
943.59395648599991
 20
-204.6889403959
 30
0.0
 11
954.12107759100002
 21
-194.16181929090001
 31
0.0
  0
LINE
  5
212
  8
0
 62
     0
 10
900.76552936129997
 20
-204.6889403959
 30
0.0
 11
890.23840825630009
 21
-194.16181929090001
 31
0.0
  0
ENDBLK
  5
213
  8
0
  0
BLOCK
  8
0
  2
*U19
 70
     1
 10
0.0
 20
0.0
 30
0.0
  3
*U19
  1

  0
TEXT
  5
260
  8
図枠
  6
CONTINUOUS
 10
891.3853146446022
 20
-129.34617881188481
 30
0.0
 40
2.6987499594999989
  1
改訂日
  0
ENDBLK
  5
262
  8
0
  0
BLOCK
  8
0
  2
*U20
 70
     1
 10
0.0
 20
0.0
 30
0.0
  3
*U20
  1

  0
TEXT
  5
264
  8
図枠
  6
CONTINUOUS
 10
883.35009565877601
 20
-293.28452317513501
 30
0.0
 40
2.337499999999999
  1
尺 　度
  0
ENDBLK
  5
266
  8
0
  0
BLOCK
  8
0
  2
*U21
 70
     1
 10
0.0
 20
0.0
 30
0.0
  3
*U21
  1

  0
TEXT
  5
268
  8
図枠
  6
CONTINUOUS
 10
881.15251639473172
 20
-129.3187803351386
 30
0.0
 40
2.6987499594999989
  1
副番
  0
ENDBLK
  5
26A
  8
0
  0
BLOCK
  8
0
  2
*U22
 70
     1
 10
0.0
 20
0.0
 30
0.0
  3
*U22
  1

  0
TEXT
  5
26C
  8
図枠
  6
CONTINUOUS
 10
888.52937865369995
 20
-306.04638865736848
 30
0.0
 40
2.337499999999999
  1
 検図
  0
ENDBLK
  5
26E
  8
0
  0
BLOCK
  8
0
  2
*U23
 70
     1
 10
0.0
 20
0.0
 30
0.0
  3
*U23
  1

  0
TEXT
  5
270
  8
図枠
  6
CONTINUOUS
 10
917.33889652401706
 20
-277.6844592681208
 30
0.0
 40
2.804999959499999
  1
板　　厚
  0
ENDBLK
  5
272
  8
0
  0
BLOCK
  8
0
  2
*U24
 70
     1
 10
0.0
 20
0.0
 30
0.0
  3
*U24
  1

  0
TEXT
  5
274
  8
図枠
  6
CONTINUOUS
 10
917.46034964700198
 20
-129.37357728863091
 30
0.0
 40
2.6987499594999989
  1
改　訂　内　容
  0
ENDBLK
  5
276
  8
0
  0
BLOCK
  8
0
  2
*U25
 70
     1
 10
0.0
 20
0.0
 30
0.0
  3
*U25
  1

  0
TEXT
  5
278
  8
図枠
  6
CONTINUOUS
 10
939.82497065013195
 20
-295.91087348122232
 30
0.0
 40
2.9986110209999999
  1
Ｌ型アングル
  0
ENDBLK
  5
27A
  8
0
  0
BLOCK
  8
0
  2
*U26
 70
     1
 10
0.0
 20
0.0
 30
0.0
  3
*U26
  1

  0
TEXT
  5
27C
  8
図枠
  6
CONTINUOUS
 10
954.52915664751981
 20
-129.37357728863091
 30
0.0
 40
2.6987499594999989
  1
改訂者
  0
ENDBLK
  5
27E
  8
0
  0
BLOCK
  8
0
  2
*U27
 70
     1
 10
0.0
 20
0.0
 30
0.0
  3
*U27
  1

  0
TEXT
  5
280
  8
図枠
  6
CONTINUOUS
 10
964.48805893240046
 20
-129.3872765270041
 30
0.0
 40
2.6987499594999989
  1
検認者
  0
ENDBLK
  5
282
  8
0
  0
BLOCK
  8
0
  2
*U28
 70
     1
 10
0.0
 20
0.0
 30
0.0
  3
*U28
  1

  0
TEXT
  5
284
  8
図枠
  6
CONTINUOUS
 10
918.8069484506542
 20
-310.03152783880103
 30
0.0
 40
2.337499999999999
  1
図　番
  0
ENDBLK
  5
286
  8
0
  0
BLOCK
  8
0
  2
*U29
 70
     1
 10
0.0
 20
0.0
 30
0.0
  3
*U29
  1

  0
TEXT
  5
288
  8
図枠
  6
CONTINUOUS
 10
918.7535537806034
 20
-293.07898976773498
 30
0.0
 40
2.337499999999999
  1
製品名
  0
ENDBLK
  5
28A
  8
0
  0
BLOCK
  8
0
  2
*U30
 70
     1
 10
0.0
 20
0.0
 30
0.0
  3
*U30
  1

  0
TEXT
  5
28C
  8
図枠
  6
CONTINUOUS
 10
885.64013372984198
 20
-297.41586835279992
 30
0.0
 40
2.337499999999999
  1
1：1
  0
ENDBLK
  5
28E
  8
0
  0
BLOCK
  8
0
  2
*U31
 70
     1
 10
0.0
 20
0.0
 30
0.0
  3
*U31
  1

  0
TEXT
  5
290
  8
図枠
  6
CONTINUOUS
 10
888.26947691468729
 20
-277.47144596639998
 30
0.0
 40
2.9986110209999999
  1
SUS304-HL
  0
ENDBLK
  5
292
  8
0
  0
BLOCK
  8
0
  2
*U32
 70
     1
 10
0.0
 20
0.0
 30
0.0
  3
*U32
  1

  0
TEXT
  5
294
  8
図枠
  6
CONTINUOUS
 10
864.71462611562879
 20
-297.41586835279992
 30
0.0
 40
2.337499999999999
  1
H16.4
  0
ENDBLK
  5
296
  8
0
  0
BLOCK
  8
0
  2
*U33
 70
     1
 10
0.0
 20
0.0
 30
0.0
  3
*U33
  1

  0
TEXT
  5
298
  8
図枠
  6
CONTINUOUS
 10
903.92227205471534
 20
-305.97519576396752
 30
0.0
 40
2.337499999999999
  1
園 原
  0
ENDBLK
  5
29A
  8
0
  0
BLOCK
  8
0
  2
*U34
 70
     1
 10
0.0
 20
0.0
 30
0.0
  3
*U34
  1

  0
TEXT
  5
29C
  8
図枠
  6
CONTINUOUS
 10
949.86481017799929
 20
-277.70283490489999
 30
0.0
 40
3.2299999594999989
  1
3.0t
  0
ENDBLK
  5
29E
  8
0
  0
BLOCK
  8
0
  2
*U35
 70
     1
 10
0.0
 20
0.0
 30
0.0
  3
*U35
  1

  0
TEXT
  5
2A0
  8
図枠
  6
CONTINUOUS
 10
935.82174883021844
 20
-312.60644596639997
 30
0.0
 40
2.9986110209999999
  1
ＳＲＫ０００７２
  0
ENDBLK
  5
2A2
  8
0
  0
BLOCK
  8
0
  2
*U36
 70
     1
 10
0.0
 20
0.0
 30
0.0
  3
*U36
  1

  0
TEXT
  5
2A4
  8
図枠
  6
CONTINUOUS
 10
861.37449297020362
 20
-277.62750495422227
 30
0.0
 40
2.804999959499999
  1
材　　質
  0
ENDBLK
  5
2A6
  8
0
  0
BLOCK
  8
0
  2
*U37
 70
     1
 10
0.0
 20
0.0
 30
0.0
  3
*U37
  1

  0
TEXT
  5
2A8
  8
図枠
  6
CONTINUOUS
 10
903.92227205471534
 20
-301.72519576396752
 30
0.0
 40
2.337499999999999
  1
園 原
  0
ENDBLK
  5
2AA
  8
0
  0
BLOCK
  8
0
  2
*U38
 70
     1
 10
0.0
 20
0.0
 30
0.0
  3
*U38
  1

  0
TEXT
  5
2AC
  8
図枠
  6
CONTINUOUS
 10
873.91040657248163
 20
-306.05825413960201
 30
0.0
 40
2.337499999999999
  1
岸 本
  0
ENDBLK
  5
2AE
  8
0
  0
BLOCK
  8
0
  2
*U39
 70
     1
 10
0.0
 20
0.0
 30
0.0
  3
*U39
  1

  0
TEXT
  5
2B0
  8
図枠
  6
CONTINUOUS
 10
918.81881393288768
 20
-301.55525880326798
 30
0.0
 40
2.337499999999999
  1
図面名
  0
ENDBLK
  5
2B2
  8
0
  0
BLOCK
  8
0
  2
*U40
 70
     1
 10
0.0
 20
0.0
 30
0.0
  3
*U40
  1

  0
TEXT
  5
2B4
  8
図枠
  6
CONTINUOUS
 10
861.34601581325455
 20
-283.15598211117162
 30
0.0
 40
2.804999959499999
  1
表面処理
  0
ENDBLK
  5
2B6
  8
0
  0
BLOCK
  8
0
  2
*U41
 70
     1
 10
0.0
 20
0.0
 30
0.0
  3
*U41
  1

  0
TEXT
  5
2B8
  8
図枠
  6
CONTINUOUS
 10
861.41720870562756
 20
-288.71293642506998
 30
0.0
 40
2.804999959499999
  1
一般公差
  0
ENDBLK
  5
2BA
  8
0
  0
BLOCK
  8
0
  2
*U42
 70
     1
 10
0.0
 20
0.0
 30
0.0
  3
*U42
  1

  0
TEXT
  5
2BC
  8
図枠
  6
CONTINUOUS
 10
873.21034312070503
 20
-301.79638865736848
 30
0.0
 40
2.337499999999999
  1
白須賀
  0
ENDBLK
  5
2BE
  8
0
  0
BLOCK
  8
0
  2
*U43
 70
     1
 10
0.0
 20
0.0
 30
0.0
  3
*U43
  1

  0
TEXT
  5
2C0
  8
図枠
  6
CONTINUOUS
 10
895.73133341309847
 20
-288.6844592681208
 30
0.0
 40
2.804999959499999
  1
指定無き公差はJIS 0408-Bによること
  0
ENDBLK
  5
2C2
  8
0
  0
BLOCK
  8
0
  2
*U44
 70
     1
 10
0.0
 20
0.0
 30
0.0
  3
*U44
  1

  0
TEXT
  5
2C4
  8
図枠
  6
CONTINUOUS
 10
888.52937865369995
 20
-301.77265769290148
 30
0.0
 40
2.337499999999999
  1
 照査
  0
ENDBLK
  5
2C6
  8
0
  0
BLOCK
  8
0
  2
*U45
 70
     1
 10
0.0
 20
0.0
 30
0.0
  3
*U45
  1

  0
TEXT
  5
2C8
  8
図枠
  6
CONTINUOUS
 10
859.93083804456285
 20
-306.03452317513501
 30
0.0
 40
2.337499999999999
  1
製図
  0
ENDBLK
  5
2CA
  8
0
  0
BLOCK
  8
0
  2
*U46
 70
     1
 10
0.0
 20
0.0
 30
0.0
  3
*U46
  1

  0
TEXT
  5
2CC
  8
図枠
  6
CONTINUOUS
 10
858.52937865369995
 20
-301.760792210668
 30
0.0
 40
2.337499999999999
  1
 設計
  0
ENDBLK
  5
2CE
  8
0
  0
BLOCK
  8
0
  2
*U47
 70
     1
 10
0.0
 20
0.0
 30
0.0
  3
*U47
  1

  0
TEXT
  5
2D0
  8
図枠
  6
CONTINUOUS
 10
862.74993237850003
 20
-313.40860839696649
 30
0.0
 40
4.3179999351999987
  1
株式会社
  0
ENDBLK
  5
2D2
  8
0
  0
BLOCK
  8
0
  2
*U48
 70
     1
 10
0.0
 20
0.0
 30
0.0
  3
*U48
  1

  0
TEXT
  5
2D4
  8
図枠
  6
CONTINUOUS
 10
863.59927078567966
 20
-293.21333028173399
 30
0.0
 40
2.337499999999999
  1
日 　付
  0
ENDBLK
  5
2D6
  8
0
  0
BLOCK
  8
0
  2
*D49
 70
     1
 10
0.0
 20
0.0
 30
0.0
  3
*D49
  1

  0
LINE
  5
2D9
  8
寸法線
 62
     0
 10
799.32428699310003
 20
-217.97315395830009
 30
0.0
 11
775.17090844225572
 21
-217.9731539583
 31
0.0
  0
LINE
  5
2DA
  8
寸法線
 62
     0
 10
742.38678699309992
 20
-161.03565395829989
 30
0.0
 11
742.38678699309969
 21
-185.18903250914391
 31
0.0
  0
ARC
  5
2DB
  8
寸法線
 62
     0
 10
742.38678699309969
 20
-217.97315395829989
 30
0.0
 40
34.03412144915594
 50
5.0520779579043174
 51
37.562940510839091
  0
ARC
  5
2DC
  8
寸法線
 62
     0
 10
742.38678699309969
 20
-217.97315395829989
 30
0.0
 40
34.03412144915594
 50
53.227285327265527
 51
84.947922042095499
  0
SOLID
  5
2DD
  8
寸法線
 62
     0
 10
776.78820234106627
 20
-214.9540323655356
 30
0.0
 11
775.78917404618005
 21
-214.9981057817464
 31
0.0
 12
776.42090844225584
 22
-217.9731539583
 32
0.0
 13
776.42090844225584
 23
-217.9731539583
 33
0.0
  0
SOLID
  5
2DE
  8
寸法線
 62
     0
 10
745.36183516965343
 20
-184.5707669052197
 30
0.0
 11
745.40590858586415
 21
-183.5717386103334
 31
0.0
 12
742.38678699309992
 22
-183.939032509144
 32
0.0
 13
742.38678699309992
 23
-183.939032509144
 33
0.0
  0
TEXT
  8
寸法線
  40
2.99861
  5
300
  62
0
  72
0
  71
0
 10
760.289
 20
-199.050
 30
0.000000
  1
90°
  0
POINT
  5
2E0
  8
Defpoints
 62
     0
 10
742.38678699309969
 20
-217.97315395829989
 30
0.0
  0
POINT
  5
2E1
  8
Defpoints
 62
     0
 10
799.38678699310003
 20
-217.97315395830009
 30
0.0
  0
POINT
  5
2E2
  8
Defpoints
 62
     0
 10
742.38678699309992
 20
-160.9731539583
 30
0.0
  0
POINT
  5
2E3
  8
Defpoints
 62
     0
 10
771.86120076355382
 20
-200.9560932337221
 30
0.0
  0
ENDBLK
  5
2E5
  8
0
  0
BLOCK
  8
0
  2
*U50
 70
     1
 10
0.0
 20
0.0
 30
0.0
  3
*U50
  1

  0
TEXT
  5
2E7
  8
図枠
  6
CONTINUOUS
 10
932.81552712134771
 20
-304.16733146936451
 30
0.0
 40
2.9986110209999999
  1
LS-101 60x60 承認図
  0
ENDBLK
  5
2E9
  8
0
  0
BLOCK
  8
0
  2
*U51
 70
     1
 10
0.0
 20
0.0
 30
0.0
  3
*U51
  1

  0
TEXT
  5
2EB
  8
ﾚｲﾔ_1
  6
CONTINUOUS
 10
767.29584274460012
 20
-297.49065384699998
 30
0.0
 40
2.9986110209999999
  1
ＨＬ
  0
ENDBLK
  5
2ED
  8
0
  0
BLOCK
  8
0
  2
*D52
 70
     1
 10
0.0
 20
0.0
 30
0.0
  3
*D52
  1

  0
LINE
  5
2EF
  8
寸法線
 62
     0
 10
942.75426718342419
 20
-205.5286296985758
 30
0.0
 11
953.59074750518528
 21
-194.69214937681471
 31
0.0
  0
LINE
  5
2F0
  8
寸法線
 62
     0
 10
901.60521866397585
 20
-205.5286296985758
 30
0.0
 11
890.76873834221465
 21
-194.6921493768146
 31
0.0
  0
ARC
  5
2F1
  8
寸法線
 62
     0
 10
922.17974292369979
 20
-226.1031539583
 30
0.0
 40
43.171868686900027
 50
48.982267769010662
 51
83.832893309880447
  0
ARC
  5
2F2
  8
寸法線
 62
     0
 10
922.17974292369979
 20
-226.1031539583
 30
0.0
 40
43.171868686900027
 50
96.167106690119553
 51
131.017732230989
  0
SOLID
  5
2F3
  8
寸法線
 62
     0
 10
950.85417531518647
 20
-193.1640742029866
 30
0.0
 11
950.17206379149172
 21
-193.895322361441
 31
0.0
 12
952.70686402870206
 22
-195.5760328532979
 32
0.0
 13
952.70686402870206
 23
-195.5760328532979
 33
0.0
  0
SOLID
  5
2F4
  8
寸法線
 62
     0
 10
894.1874220559082
 20
-193.8953223614408
 30
0.0
 11
893.50531053221334
 21
-193.1640742029864
 31
0.0
 12
891.65262181869775
 22
-195.5760328532977
 32
0.0
 13
891.65262181869775
 23
-195.5760328532977
 33
0.0
  0
TEXT
  8
寸法線
  40
2.99861
  5
301
  62
0
  72
0
  71
0
 10
916.183
 20
-188.239
 30
0.000000
  1
90°
  0
POINT
  5
2F6
  8
Defpoints
 62
     0
 10
922.17974292369979
 20
-226.1031539583
 30
0.0
  0
POINT
  5
2F7
  8
Defpoints
 62
     0
 10
942.71007300960002
 20
-205.57282387239999
 30
0.0
  0
POINT
  5
2F8
  8
Defpoints
 62
     0
 10
901.6494128377999
 20
-205.57282387239999
 30
0.0
  0
POINT
  5
2F9
  8
Defpoints
 62
     0
 10
933.35344475253476
 20
-184.40233102446291
 30
0.0
  0
ENDBLK
  5
2FB
  8
0
  0
BLOCK
  8
0
  2
*U53
 70
     1
 10
0.0
 20
0.0
 30
0.0
  3
*U53
  1

  0
TEXT
  5
2FD
  8
ﾚｲﾔ_1
  6
CONTINUOUS
 10
909.03617476738066
 20
-243.5845191699112
 30
0.0
 40
2.9986110209999999
  1
皿モミ部拡大図
  0
ENDBLK
  5
2FF
  8
0
  0
ENDSEC
  0
SECTION
  2
ENTITIES
  0
LINE
  5
2F
  8
図枠
 10
896.52658001969996
 20
-308.49469657190002
 30
0.0
 11
893.32658001970003
 21
-308.49469657190002
 31
0.0
  0
INSERT
  5
30
  8
0
  6
CONTINUOUS
  2
*U19
 10
0.0
 20
0.0
 30
0.0
  0
LINE
  5
31
  8
図枠
 62
     5
 10
881.7700932675998
 20
-140.1420431944
 30
0.0
 11
886.72009326759985
 21
-140.1420431944
 31
0.0
  0
LINE
  5
32
  8
図枠
 10
891.72658001970001
 20
-309.69469657190001
 30
0.0
 11
892.92658001970005
 21
-308.49469657190002
 31
0.0
  0
LINE
  5
33
  8
図枠
 10
889.72658001970012
 20
-310.09469657189999
 30
0.0
 11
888.80569697039994
 21
-310.09469657189999
 31
0.0
  0
ARC
  5
34
  8
図枠
 10
892.92658001970005
 20
-311.69469657190001
 30
0.0
 40
2.399999999999999
 50
270.0
 51
0.0
  0
LINE
  5
35
  8
図枠
 62
     5
 10
880.52937865369995
 20
-140.6228349454
 30
0.0
 11
880.52937865369995
 21
-125.6228349454
 31
0.0
  0
INSERT
  5
36
  8
0
  6
CONTINUOUS
  2
*U20
 10
0.0
 20
0.0
 30
0.0
  0
LINE
  5
37
  8
図枠
 10
880.52937865369995
 20
-294.37283494539997
 30
0.0
 11
894.52937865369995
 21
-294.37283494539997
 31
0.0
  0
LINE
  5
38
  8
図枠
 10
890.52937865369995
 20
-302.87283494539997
 30
0.0
 11
916.52937865369995
 21
-302.87283494539997
 31
0.0
  0
LINE
  5
39
  8
図枠
 62
     5
 10
884.24509326759994
 20
-130.9052174457
 30
0.0
 11
881.7700932675998
 21
-135.19204319439999
 31
0.0
  0
ARC
  5
3A
  8
図枠
 10
899.61506486819997
 20
-309.85469657189998
 30
0.0
 40
3.04
 50
270.0
 51
298.08590481520002
  0
LINE
  5
3B
  8
図枠
 62
     5
 10
884.24509326759994
 20
-130.9052174457
 30
0.0
 11
886.72009326759985
 21
-135.19204319439999
 31
0.0
  0
LINE
  5
3C
  8
図枠
 62
     5
 10
881.7700932675998
 20
-135.19204319439999
 30
0.0
 11
886.72009326759985
 21
-135.19204319439999
 31
0.0
  0
LINE
  5
3D
  8
図枠
 62
     5
 10
888.52937865369995
 20
-140.6228349454
 30
0.0
 11
888.52937865369995
 21
-125.6228349454
 31
0.0
  0
LINE
  5
3E
  8
図枠
 62
     5
 10
954.52937865369995
 20
-140.6228349454
 30
0.0
 11
954.52937865369995
 21
-125.6228349454
 31
0.0
  0
INSERT
  5
3F
  8
0
  6
CONTINUOUS
  2
*U21
 10
0.0
 20
0.0
 30
0.0
  0
LINE
  5
40
  8
図枠
 10
915.52937865369995
 20
-279.12283494539997
 30
0.0
 11
915.52937865369995
 21
-273.62283494539997
 31
0.0
  0
LINE
  5
41
  8
図枠
 10
878.52937865369995
 20
-290.12283494540009
 30
0.0
 11
878.52937865369995
 21
-273.62283494539997
 31
0.0
  0
LINE
  5
42
  8
図枠
 10
914.82905098679987
 20
-309.85469657189998
 30
0.0
 11
914.82905098679987
 21
-311.29469657189998
 31
0.0
  0
LINE
  5
43
  8
図枠
 10
911.77670707139998
 20
-309.44771345949999
 30
0.0
 11
912.42905098679978
 21
-308.49469657190002
 31
0.0
  0
LINE
  5
44
  8
図枠
 10
893.32658001970003
 20
-310.09469657189999
 30
0.0
 11
891.72658001970001
 21
-310.09469657189999
 31
0.0
  0
LINE
  5
45
  8
図枠
 62
     5
 10
904.52937865369995
 20
-140.6228349454
 30
0.0
 11
904.52937865369995
 21
-125.6228349454
 31
0.0
  0
LINE
  5
46
  8
図枠
 10
898.65506486819993
 20
-314.09469657189999
 30
0.0
 11
898.65506486819993
 21
-312.8946965719
 31
0.0
  0
LINE
  5
47
  8
図枠
 10
907.62905098680005
 20
-313.37469657190002
 30
0.0
 11
910.66051765339989
 21
-313.37469657190002
 31
0.0
  0
LINE
  5
48
  8
図枠
 10
905.85506486819997
 20
-308.49469657190002
 30
0.0
 11
898.65506486819993
 21
-308.49469657190002
 31
0.0
  0
LINE
  5
49
  8
図枠
 10
889.72658001970012
 20
-312.49469657190002
 30
0.0
 11
891.72658001970001
 21
-312.49469657190002
 31
0.0
  0
LINE
  5
4A
  8
図枠
 10
912.30820373489996
 20
-311.29469657189998
 30
0.0
 11
914.82905098679987
 21
-311.29469657189998
 31
0.0
  0
LINE
  5
4B
  8
図枠
 10
893.32658001970003
 20
-308.49469657190002
 30
0.0
 11
893.32658001970003
 21
-310.09469657189999
 31
0.0
  0
LINE
  5
4C
  8
図枠
  6
BORDER
 10
904.5933786536998
 20
-290.91683494540001
 30
0.0
 11
904.5933786536998
 21
-297.82883494539999
 31
0.0
  0
LINE
  5
4D
  8
図枠
 10
909.85985946490007
 20
-293.22083494539999
 30
0.0
 11
909.85985946490007
 21
-295.52483494540002
 31
0.0
  0
LINE
  5
4E
  8
図枠
 10
895.32658001970003
 20
-309.69469657190001
 30
0.0
 11
896.52658001969996
 21
-308.49469657190002
 31
0.0
  0
LINE
  5
4F
  8
図枠
 10
905.85506486819997
 20
-312.8946965719
 30
0.0
 11
905.85506486819997
 21
-314.09469657189999
 31
0.0
  0
LINE
  5
50
  8
図枠
 10
889.72658001970012
 20
-311.29469657189998
 30
0.0
 11
889.60569697039978
 21
-311.29469657189998
 31
0.0
  0
LINE
  5
51
  8
図枠
 10
895.32658001970003
 20
-310.09469657189999
 30
0.0
 11
895.32658001970003
 21
-309.69469657190001
 31
0.0
  0
LINE
  5
52
  8
図枠
 10
911.89382247159995
 20
-309.85469657189998
 30
0.0
 11
911.77670707139998
 21
-309.44771345949999
 31
0.0
  0
LINE
  5
53
  8
図枠
 10
898.52937865369995
 20
-290.12283494540009
 30
0.0
 11
898.52937865369995
 21
-298.62283494539997
 31
0.0
  0
INSERT
  5
54
  8
0
  6
CONTINUOUS
  2
*U22
 10
0.0
 20
0.0
 30
0.0
  0
LINE
  5
55
  8
図枠
 62
     5
 10
884.24509326759994
 20
-135.85521744569999
 30
0.0
 11
886.72009326759985
 21
-140.1420431944
 31
0.0
  0
LINE
  5
56
  8
図枠
 10
896.52658001969996
 20
-310.09469657189999
 30
0.0
 11
896.52658001969996
 21
-311.29469657189998
 31
0.0
  0
LINE
  5
57
  8
図枠
 62
     5
 10
884.24509326759994
 20
-135.85521744569999
 30
0.0
 11
881.7700932675998
 21
-140.1420431944
 31
0.0
  0
LINE
  5
58
  8
図枠
 10
891.72658001970001
 20
-310.09469657189999
 30
0.0
 11
891.72658001970001
 21
-309.69469657190001
 31
0.0
  0
INSERT
  5
59
  8
0
  6
CONTINUOUS
  2
*U23
 10
0.0
 20
0.0
 30
0.0
  0
INSERT
  5
5A
  8
0
  6
CONTINUOUS
  2
*U24
 10
0.0
 20
0.0
 30
0.0
  0
LINE
  5
5B
  8
図枠
 10
898.65506486819993
 20
-312.8946965719
 30
0.0
 11
899.61506486819997
 21
-312.8946965719
 31
0.0
  0
LINE
  5
5C
  8
図枠
 10
909.22905098679996
 20
-308.49469657190002
 30
0.0
 11
912.42905098679978
 21
-308.49469657190002
 31
0.0
  0
LINE
  5
5D
  8
図枠
 10
905.05506486819991
 20
-309.69469657190001
 30
0.0
 11
905.85506486819997
 21
-308.49469657190002
 31
0.0
  0
LINE
  5
5E
  8
図枠
 10
913.22905098679985
 20
-314.49469657190002
 30
0.0
 11
912.90675444860005
 21
-313.37469657190002
 31
0.0
  0
LINE
  5
5F
  8
図枠
 62
     5
 10
880.52937865369995
 20
-140.6228349454
 30
0.0
 11
974.52937865369995
 21
-140.6228349454
 31
0.0
  0
LINE
  5
60
  8
図枠
 62
     5
 10
880.52937865369995
 20
-135.6228349454
 30
0.0
 11
974.52937865369995
 21
-135.6228349454
 31
0.0
  0
LINE
  5
61
  8
図枠
 62
     5
 10
880.52937865369995
 20
-130.6228349454
 30
0.0
 11
974.52937865369995
 21
-130.6228349454
 31
0.0
  0
LINE
  5
62
  8
図枠
 62
     5
 10
964.52937865369995
 20
-140.6228349454
 30
0.0
 11
964.52937865369995
 21
-125.6228349454
 31
0.0
  0
LINE
  5
63
  8
図枠
 10
891.72658001970001
 20
-311.29469657189998
 30
0.0
 11
893.32658001970003
 21
-311.29469657189998
 31
0.0
  0
ARC
  5
64
  8
図枠
 10
900.65506486820016
 20
-309.69469657190001
 30
0.0
 40
4.4000000000000004
 50
322.48761197969998
 51
0.0
  0
LINE
  5
65
  8
図枠
 10
858.52937865369995
 20
-284.62283494539997
 30
0.0
 11
974.52937865369995
 21
-284.62283494539997
 31
0.0
  0
LINE
  5
66
  8
図枠
 10
858.52937865369995
 20
-279.12283494539997
 30
0.0
 11
974.52937865369995
 21
-279.12283494539997
 31
0.0
  0
LINE
  5
67
  8
図枠
  6
BORDER
 10
904.5933786536998
 20
-290.91683494540001
 30
0.0
 11
904.5933786536998
 21
-297.82883494539999
 31
0.0
  0
LINE
  5
68
  8
図枠
 10
914.46785946490013
 20
-292.0688349454
 30
0.0
 11
914.46785946490013
 21
-296.6768349454
 31
0.0
  0
LINE
  5
69
  8
図枠
 10
909.85985946490007
 20
-293.22083494539999
 30
0.0
 11
909.85985946490007
 21
-295.52483494540002
 31
0.0
  0
LINE
  5
6A
  8
図枠
 10
910.23811765339985
 20
-311.93469657190002
 30
0.0
 11
910.05038432009997
 21
-311.29469657189998
 31
0.0
  0
LINE
  5
6B
  8
図枠
 10
905.05506486819991
 20
-309.69469657190001
 30
0.0
 11
905.85506486819997
 21
-308.49469657190002
 31
0.0
  0
LINE
  5
6C
  8
図枠
 10
909.85985946490007
 20
-295.52483494540002
 30
0.0
 11
914.46785946490013
 21
-296.6768349454
 31
0.0
  0
INSERT
  5
6D
  8
0
  6
CONTINUOUS
  2
*U25
 10
0.0
 20
0.0
 30
0.0
  0
LINE
  5
6E
  8
図枠
 10
933.52937865369995
 20
-279.12283494539997
 30
0.0
 11
933.52937865369995
 21
-273.62283494539997
 31
0.0
  0
LINE
  5
6F
  8
図枠
 10
907.62905098680005
 20
-311.93469657190002
 30
0.0
 11
910.23811765339985
 21
-311.93469657190002
 31
0.0
  0
INSERT
  5
70
  8
0
  6
CONTINUOUS
  2
*U26
 10
0.0
 20
0.0
 30
0.0
  0
INSERT
  5
71
  8
0
  6
CONTINUOUS
  2
*U27
 10
0.0
 20
0.0
 30
0.0
  0
LINE
  5
72
  8
図枠
 10
912.49237318530004
 20
-311.93469657190002
 30
0.0
 11
914.82905098679987
 21
-311.93469657190002
 31
0.0
  0
LINE
  5
73
  8
図枠
 10
907.62905098680005
 20
-309.85469657189998
 30
0.0
 11
909.62798432009993
 21
-309.85469657189998
 31
0.0
  0
LINE
  5
74
  8
図枠
 10
907.62905098680005
 20
-311.93469657190002
 30
0.0
 11
907.62905098680005
 21
-313.37469657190002
 31
0.0
  0
LINE
  5
75
  8
図枠
 10
891.72658001970001
 20
-312.49469657190002
 30
0.0
 11
891.72658001970001
 21
-311.29469657189998
 31
0.0
  0
LINE
  5
76
  8
図枠
 10
912.90675444860005
 20
-313.37469657190002
 30
0.0
 11
914.82905098679987
 21
-313.37469657190002
 31
0.0
  0
LINE
  5
77
  8
図枠
 10
892.92658001970005
 20
-308.49469657190002
 30
0.0
 11
889.72658001970012
 21
-308.49469657190002
 31
0.0
  0
LINE
  5
78
  8
図枠
 10
912.49237318530004
 20
-311.93469657190002
 30
0.0
 11
912.30820373489996
 21
-311.29469657189998
 31
0.0
  0
LINE
  5
79
  8
図枠
 10
888.80569697039994
 20
-310.09469657189999
 30
0.0
 11
888.80569697039994
 21
-311.29469657189998
 31
0.0
  0
LINE
  5
7A
  8
図枠
 10
898.65506486819993
 20
-312.8946965719
 30
0.0
 11
898.65506486819993
 21
-314.09469657189999
 31
0.0
  0
POLYLINE
  8
図枠
  5
302
  66
     1
 10
0.000000
 20
0.000000
 30
0.000000
  70
     8
  0
VERTEX
  8
図枠
  5
303
 10
904.003
 20
-312.514
 30
0.000000
  70
    32
  0
VERTEX
  8
図枠
  5
304
 10
904.017
 20
-312.517
 30
0.000000
  70
    32
  0
VERTEX
  8
図枠
  5
305
 10
904.031
 20
-312.521
 30
0.000000
  70
    32
  0
VERTEX
  8
図枠
  5
306
 10
904.045
 20
-312.525
 30
0.000000
  70
    32
  0
VERTEX
  8
図枠
  5
307
 10
904.059
 20
-312.529
 30
0.000000
  70
    32
  0
VERTEX
  8
図枠
  5
308
 10
904.073
 20
-312.533
 30
0.000000
  70
    32
  0
VERTEX
  8
図枠
  5
309
 10
904.087
 20
-312.537
 30
0.000000
  70
    32
  0
VERTEX
  8
図枠
  5
30A
 10
904.101
 20
-312.541
 30
0.000000
  70
    32
  0
VERTEX
  8
図枠
  5
30B
 10
904.115
 20
-312.545
 30
0.000000
  70
    32
  0
VERTEX
  8
図枠
  5
30C
 10
904.129
 20
-312.548
 30
0.000000
  70
    32
  0
VERTEX
  8
図枠
  5
30D
 10
904.143
 20
-312.552
 30
0.000000
  70
    32
  0
VERTEX
  8
図枠
  5
30E
 10
904.157
 20
-312.556
 30
0.000000
  70
    32
  0
VERTEX
  8
図枠
  5
30F
 10
904.172
 20
-312.560
 30
0.000000
  70
    32
  0
VERTEX
  8
図枠
  5
310
 10
904.186
 20
-312.563
 30
0.000000
  70
    32
  0
VERTEX
  8
図枠
  5
311
 10
904.200
 20
-312.567
 30
0.000000
  70
    32
  0
VERTEX
  8
図枠
  5
312
 10
904.214
 20
-312.571
 30
0.000000
  70
    32
  0
VERTEX
  8
図枠
  5
313
 10
904.228
 20
-312.574
 30
0.000000
  70
    32
  0
VERTEX
  8
図枠
  5
314
 10
904.242
 20
-312.578
 30
0.000000
  70
    32
  0
VERTEX
  8
図枠
  5
315
 10
904.257
 20
-312.582
 30
0.000000
  70
    32
  0
VERTEX
  8
図枠
  5
316
 10
904.271
 20
-312.585
 30
0.000000
  70
    32
  0
VERTEX
  8
図枠
  5
317
 10
904.285
 20
-312.589
 30
0.000000
  70
    32
  0
VERTEX
  8
図枠
  5
318
 10
904.299
 20
-312.592
 30
0.000000
  70
    32
  0
VERTEX
  8
図枠
  5
319
 10
904.314
 20
-312.596
 30
0.000000
  70
    32
  0
VERTEX
  8
図枠
  5
31A
 10
904.328
 20
-312.599
 30
0.000000
  70
    32
  0
VERTEX
  8
図枠
  5
31B
 10
904.342
 20
-312.603
 30
0.000000
  70
    32
  0
VERTEX
  8
図枠
  5
31C
 10
904.356
 20
-312.606
 30
0.000000
  70
    32
  0
VERTEX
  8
図枠
  5
31D
 10
904.371
 20
-312.610
 30
0.000000
  70
    32
  0
VERTEX
  8
図枠
  5
31E
 10
904.385
 20
-312.613
 30
0.000000
  70
    32
  0
VERTEX
  8
図枠
  5
31F
 10
904.399
 20
-312.616
 30
0.000000
  70
    32
  0
VERTEX
  8
図枠
  5
320
 10
904.414
 20
-312.620
 30
0.000000
  70
    32
  0
VERTEX
  8
図枠
  5
321
 10
904.428
 20
-312.623
 30
0.000000
  70
    32
  0
VERTEX
  8
図枠
  5
322
 10
904.442
 20
-312.627
 30
0.000000
  70
    32
  0
VERTEX
  8
図枠
  5
323
 10
904.457
 20
-312.630
 30
0.000000
  70
    32
  0
VERTEX
  8
図枠
  5
324
 10
904.471
 20
-312.633
 30
0.000000
  70
    32
  0
VERTEX
  8
図枠
  5
325
 10
904.486
 20
-312.637
 30
0.000000
  70
    32
  0
VERTEX
  8
図枠
  5
326
 10
904.500
 20
-312.640
 30
0.000000
  70
    32
  0
VERTEX
  8
図枠
  5
327
 10
904.514
 20
-312.643
 30
0.000000
  70
    32
  0
VERTEX
  8
図枠
  5
328
 10
904.529
 20
-312.646
 30
0.000000
  70
    32
  0
VERTEX
  8
図枠
  5
329
 10
904.543
 20
-312.650
 30
0.000000
  70
    32
  0
VERTEX
  8
図枠
  5
32A
 10
904.558
 20
-312.653
 30
0.000000
  70
    32
  0
VERTEX
  8
図枠
  5
32B
 10
904.572
 20
-312.656
 30
0.000000
  70
    32
  0
VERTEX
  8
図枠
  5
32C
 10
904.587
 20
-312.659
 30
0.000000
  70
    32
  0
VERTEX
  8
図枠
  5
32D
 10
904.601
 20
-312.662
 30
0.000000
  70
    32
  0
VERTEX
  8
図枠
  5
32E
 10
904.616
 20
-312.666
 30
0.000000
  70
    32
  0
VERTEX
  8
図枠
  5
32F
 10
904.630
 20
-312.669
 30
0.000000
  70
    32
  0
VERTEX
  8
図枠
  5
330
 10
904.645
 20
-312.672
 30
0.000000
  70
    32
  0
VERTEX
  8
図枠
  5
331
 10
904.659
 20
-312.675
 30
0.000000
  70
    32
  0
VERTEX
  8
図枠
  5
332
 10
904.674
 20
-312.678
 30
0.000000
  70
    32
  0
VERTEX
  8
図枠
  5
333
 10
904.688
 20
-312.681
 30
0.000000
  70
    32
  0
VERTEX
  8
図枠
  5
334
 10
904.703
 20
-312.684
 30
0.000000
  70
    32
  0
VERTEX
  8
図枠
  5
335
 10
904.717
 20
-312.687
 30
0.000000
  70
    32
  0
VERTEX
  8
図枠
  5
336
 10
904.732
 20
-312.690
 30
0.000000
  70
    32
  0
VERTEX
  8
図枠
  5
337
 10
904.746
 20
-312.693
 30
0.000000
  70
    32
  0
VERTEX
  8
図枠
  5
338
 10
904.761
 20
-312.696
 30
0.000000
  70
    32
  0
VERTEX
  8
図枠
  5
339
 10
904.776
 20
-312.699
 30
0.000000
  70
    32
  0
VERTEX
  8
図枠
  5
33A
 10
904.790
 20
-312.702
 30
0.000000
  70
    32
  0
VERTEX
  8
図枠
  5
33B
 10
904.805
 20
-312.705
 30
0.000000
  70
    32
  0
VERTEX
  8
図枠
  5
33C
 10
904.819
 20
-312.708
 30
0.000000
  70
    32
  0
VERTEX
  8
図枠
  5
33D
 10
904.834
 20
-312.711
 30
0.000000
  70
    32
  0
VERTEX
  8
図枠
  5
33E
 10
904.849
 20
-312.714
 30
0.000000
  70
    32
  0
VERTEX
  8
図枠
  5
33F
 10
904.863
 20
-312.717
 30
0.000000
  70
    32
  0
VERTEX
  8
図枠
  5
340
 10
904.878
 20
-312.720
 30
0.000000
  70
    32
  0
VERTEX
  8
図枠
  5
341
 10
904.893
 20
-312.723
 30
0.000000
  70
    32
  0
VERTEX
  8
図枠
  5
342
 10
904.907
 20
-312.726
 30
0.000000
  70
    32
  0
VERTEX
  8
図枠
  5
343
 10
904.922
 20
-312.729
 30
0.000000
  70
    32
  0
VERTEX
  8
図枠
  5
344
 10
904.936
 20
-312.732
 30
0.000000
  70
    32
  0
VERTEX
  8
図枠
  5
345
 10
904.951
 20
-312.734
 30
0.000000
  70
    32
  0
VERTEX
  8
図枠
  5
346
 10
904.966
 20
-312.737
 30
0.000000
  70
    32
  0
VERTEX
  8
図枠
  5
347
 10
904.981
 20
-312.740
 30
0.000000
  70
    32
  0
VERTEX
  8
図枠
  5
348
 10
904.995
 20
-312.743
 30
0.000000
  70
    32
  0
VERTEX
  8
図枠
  5
349
 10
905.010
 20
-312.746
 30
0.000000
  70
    32
  0
VERTEX
  8
図枠
  5
34A
 10
905.025
 20
-312.749
 30
0.000000
  70
    32
  0
VERTEX
  8
図枠
  5
34B
 10
905.039
 20
-312.751
 30
0.000000
  70
    32
  0
VERTEX
  8
図枠
  5
34C
 10
905.054
 20
-312.754
 30
0.000000
  70
    32
  0
VERTEX
  8
図枠
  5
34D
 10
905.069
 20
-312.757
 30
0.000000
  70
    32
  0
VERTEX
  8
図枠
  5
34E
 10
905.084
 20
-312.760
 30
0.000000
  70
    32
  0
VERTEX
  8
図枠
  5
34F
 10
905.098
 20
-312.762
 30
0.000000
  70
    32
  0
VERTEX
  8
図枠
  5
350
 10
905.113
 20
-312.765
 30
0.000000
  70
    32
  0
VERTEX
  8
図枠
  5
351
 10
905.128
 20
-312.768
 30
0.000000
  70
    32
  0
VERTEX
  8
図枠
  5
352
 10
905.143
 20
-312.771
 30
0.000000
  70
    32
  0
VERTEX
  8
図枠
  5
353
 10
905.157
 20
-312.773
 30
0.000000
  70
    32
  0
VERTEX
  8
図枠
  5
354
 10
905.172
 20
-312.776
 30
0.000000
  70
    32
  0
VERTEX
  8
図枠
  5
355
 10
905.187
 20
-312.779
 30
0.000000
  70
    32
  0
VERTEX
  8
図枠
  5
356
 10
905.202
 20
-312.781
 30
0.000000
  70
    32
  0
VERTEX
  8
図枠
  5
357
 10
905.216
 20
-312.784
 30
0.000000
  70
    32
  0
VERTEX
  8
図枠
  5
358
 10
905.231
 20
-312.787
 30
0.000000
  70
    32
  0
VERTEX
  8
図枠
  5
359
 10
905.246
 20
-312.790
 30
0.000000
  70
    32
  0
VERTEX
  8
図枠
  5
35A
 10
905.261
 20
-312.792
 30
0.000000
  70
    32
  0
VERTEX
  8
図枠
  5
35B
 10
905.276
 20
-312.795
 30
0.000000
  70
    32
  0
VERTEX
  8
図枠
  5
35C
 10
905.290
 20
-312.797
 30
0.000000
  70
    32
  0
VERTEX
  8
図枠
  5
35D
 10
905.305
 20
-312.800
 30
0.000000
  70
    32
  0
VERTEX
  8
図枠
  5
35E
 10
905.320
 20
-312.803
 30
0.000000
  70
    32
  0
VERTEX
  8
図枠
  5
35F
 10
905.335
 20
-312.805
 30
0.000000
  70
    32
  0
VERTEX
  8
図枠
  5
360
 10
905.350
 20
-312.808
 30
0.000000
  70
    32
  0
VERTEX
  8
図枠
  5
361
 10
905.364
 20
-312.811
 30
0.000000
  70
    32
  0
VERTEX
  8
図枠
  5
362
 10
905.379
 20
-312.813
 30
0.000000
  70
    32
  0
VERTEX
  8
図枠
  5
363
 10
905.394
 20
-312.816
 30
0.000000
  70
    32
  0
VERTEX
  8
図枠
  5
364
 10
905.409
 20
-312.818
 30
0.000000
  70
    32
  0
VERTEX
  8
図枠
  5
365
 10
905.424
 20
-312.821
 30
0.000000
  70
    32
  0
VERTEX
  8
図枠
  5
366
 10
905.439
 20
-312.824
 30
0.000000
  70
    32
  0
VERTEX
  8
図枠
  5
367
 10
905.453
 20
-312.826
 30
0.000000
  70
    32
  0
VERTEX
  8
図枠
  5
368
 10
905.468
 20
-312.829
 30
0.000000
  70
    32
  0
VERTEX
  8
図枠
  5
369
 10
905.483
 20
-312.831
 30
0.000000
  70
    32
  0
VERTEX
  8
図枠
  5
36A
 10
905.498
 20
-312.834
 30
0.000000
  70
    32
  0
VERTEX
  8
図枠
  5
36B
 10
905.513
 20
-312.836
 30
0.000000
  70
    32
  0
VERTEX
  8
図枠
  5
36C
 10
905.528
 20
-312.839
 30
0.000000
  70
    32
  0
VERTEX
  8
図枠
  5
36D
 10
905.543
 20
-312.842
 30
0.000000
  70
    32
  0
VERTEX
  8
図枠
  5
36E
 10
905.557
 20
-312.844
 30
0.000000
  70
    32
  0
VERTEX
  8
図枠
  5
36F
 10
905.572
 20
-312.847
 30
0.000000
  70
    32
  0
VERTEX
  8
図枠
  5
370
 10
905.587
 20
-312.849
 30
0.000000
  70
    32
  0
VERTEX
  8
図枠
  5
371
 10
905.602
 20
-312.852
 30
0.000000
  70
    32
  0
VERTEX
  8
図枠
  5
372
 10
905.617
 20
-312.854
 30
0.000000
  70
    32
  0
VERTEX
  8
図枠
  5
373
 10
905.632
 20
-312.857
 30
0.000000
  70
    32
  0
VERTEX
  8
図枠
  5
374
 10
905.647
 20
-312.859
 30
0.000000
  70
    32
  0
VERTEX
  8
図枠
  5
375
 10
905.662
 20
-312.862
 30
0.000000
  70
    32
  0
VERTEX
  8
図枠
  5
376
 10
905.676
 20
-312.864
 30
0.000000
  70
    32
  0
VERTEX
  8
図枠
  5
377
 10
905.691
 20
-312.867
 30
0.000000
  70
    32
  0
VERTEX
  8
図枠
  5
378
 10
905.706
 20
-312.870
 30
0.000000
  70
    32
  0
VERTEX
  8
図枠
  5
379
 10
905.721
 20
-312.872
 30
0.000000
  70
    32
  0
VERTEX
  8
図枠
  5
37A
 10
905.736
 20
-312.875
 30
0.000000
  70
    32
  0
VERTEX
  8
図枠
  5
37B
 10
905.751
 20
-312.877
 30
0.000000
  70
    32
  0
VERTEX
  8
図枠
  5
37C
 10
905.766
 20
-312.880
 30
0.000000
  70
    32
  0
VERTEX
  8
図枠
  5
37D
 10
905.781
 20
-312.882
 30
0.000000
  70
    32
  0
VERTEX
  8
図枠
  5
37E
 10
905.796
 20
-312.885
 30
0.000000
  70
    32
  0
VERTEX
  8
図枠
  5
37F
 10
905.810
 20
-312.887
 30
0.000000
  70
    32
  0
VERTEX
  8
図枠
  5
380
 10
905.825
 20
-312.890
 30
0.000000
  70
    32
  0
VERTEX
  8
図枠
  5
381
 10
905.840
 20
-312.892
 30
0.000000
  70
    32
  0
VERTEX
  8
図枠
  5
382
 10
905.855
 20
-312.895
 30
0.000000
  70
    32
  0
SEQEND
  8
図枠
  5
383
  0
LINE
  5
7C
  8
図枠
 10
909.85985946490007
 20
-295.52483494540002
 30
0.0
 11
914.46785946490013
 21
-296.6768349454
 31
0.0
  0
LINE
  5
7D
  8
図枠
 10
909.85985946490007
 20
-293.22083494539999
 30
0.0
 11
909.85985946490007
 21
-295.52483494540002
 31
0.0
  0
LINE
  5
7E
  8
図枠
 10
858.52937865369995
 20
-290.12283494540009
 30
0.0
 11
858.52937865369995
 21
-315.62283494539997
 31
0.0
  0
LINE
  5
7F
  8
図枠
 10
858.52937865369995
 20
-273.62283494539997
 30
0.0
 11
858.52937865369995
 21
-290.12283494540009
 31
0.0
  0
LINE
  5
80
  8
図枠
 10
914.46785946490013
 20
-292.0688349454
 30
0.0
 11
914.46785946490013
 21
-296.6768349454
 31
0.0
  0
INSERT
  5
81
  8
0
  6
CONTINUOUS
  2
*U28
 10
0.0
 20
0.0
 30
0.0
  0
INSERT
  5
82
  8
0
  6
CONTINUOUS
  2
*U29
 10
0.0
 20
0.0
 30
0.0
  0
LINE
  5
83
  8
図枠
 10
914.46785946490013
 20
-292.0688349454
 30
0.0
 11
914.46785946490013
 21
-296.6768349454
 31
0.0
  0
LINE
  5
84
  8
図枠
 10
860.52937865369995
 20
-302.87283494539997
 30
0.0
 11
886.52937865369995
 21
-302.87283494539997
 31
0.0
  0
INSERT
  5
85
  8
0
  6
CONTINUOUS
  2
*U30
 10
0.0
 20
0.0
 30
0.0
  0
INSERT
  5
86
  8
0
  6
CONTINUOUS
  2
*U31
 10
0.0
 20
0.0
 30
0.0
  0
LINE
  5
87
  8
図枠
 10
910.98905098679995
 20
-314.49469657190002
 30
0.0
 11
913.22905098679985
 21
-314.49469657190002
 31
0.0
  0
LINE
  5
88
  8
図枠
 10
888.52937865369995
 20
-298.62283494539997
 30
0.0
 11
888.52937865369995
 21
-307.12283494539997
 31
0.0
  0
LINE
  5
89
  8
図枠
 10
902.28411486149992
 20
-311.309953296
 30
0.0
 11
902.09163821640016
 21
-311.52254398439999
 31
0.0
  0
LINE
  5
8A
  8
図枠
 10
904.14524034979991
 20
-312.37400153909999
 30
0.0
 11
904.00275870199994
 21
-312.5135040543999
 31
0.0
  0
LINE
  5
8B
  8
図枠
 10
914.82905098679987
 20
-311.93469657190002
 30
0.0
 11
914.82905098679987
 21
-313.37469657190002
 31
0.0
  0
INSERT
  5
8C
  8
0
  6
CONTINUOUS
  2
*U32
 10
0.0
 20
0.0
 30
0.0
  0
INSERT
  5
8D
  8
0
  6
CONTINUOUS
  2
*U33
 10
0.0
 20
0.0
 30
0.0
  0
INSERT
  5
8E
  8
0
  6
CONTINUOUS
  2
*U34
 10
0.0
 20
0.0
 30
0.0
  0
INSERT
  5
8F
  8
0
  6
CONTINUOUS
  2
*U35
 10
0.0
 20
0.0
 30
0.0
  0
LINE
  5
90
  8
図枠
 10
889.72658001970012
 20
-314.09469657189999
 30
0.0
 11
892.92658001970005
 21
-314.09469657189999
 31
0.0
  0
LINE
  5
91
  8
図枠
 10
898.65506486819993
 20
-314.09469657189999
 30
0.0
 11
900.65506486820016
 21
-314.09469657189999
 31
0.0
  0
ARC
  5
92
  8
図枠
 10
899.61506486819997
 20
-309.85469657189998
 30
0.0
 40
3.04
 50
331.39928138329998
 51
358.49204224580001
  0
LINE
  5
93
  8
図枠
 10
896.52658001969996
 20
-310.09469657189999
 30
0.0
 11
895.32658001970003
 21
-310.09469657189999
 31
0.0
  0
LINE
  5
94
  8
図枠
 10
893.32658001970003
 20
-311.29469657189998
 30
0.0
 11
893.32658001970003
 21
-311.69469657190001
 31
0.0
  0
LINE
  5
95
  8
図枠
 10
909.85985946490007
 20
-295.52483494540002
 30
0.0
 11
914.46785946490013
 21
-296.6768349454
 31
0.0
  0
CIRCLE
  5
96
  8
図枠
 10
904.5933786536998
 20
-294.37283494539997
 30
0.0
 40
2.3039999999999998
  0
CIRCLE
  5
97
  8
図枠
 10
904.5933786536998
 20
-294.37283494539997
 30
0.0
 40
1.1519999999999999
  0
LINE
  5
98
  8
図枠
 10
907.62905098680005
 20
-311.29469657189998
 30
0.0
 11
910.05038432009997
 21
-311.29469657189998
 31
0.0
  0
LINE
  5
99
  8
図枠
 10
858.52937865369995
 20
-273.62283494539997
 30
0.0
 11
974.52937865369995
 21
-273.62283494539997
 31
0.0
  0
LINE
  5
9A
  8
図枠
 10
889.72658001970012
 20
-308.49469657190002
 30
0.0
 11
889.72658001970012
 21
-310.09469657189999
 31
0.0
  0
LINE
  5
9B
  8
図枠
 10
901.85506486820009
 20
-310.35238478590003
 30
0.0
 11
901.40251652820007
 21
-310.80493312589999
 31
0.0
  0
LINE
  5
9C
  8
図枠
 10
898.65506486819993
 20
-310.61007299990001
 30
0.0
 11
898.65506486819993
 21
-310.35238478590003
 31
0.0
  0
INSERT
  5
9D
  8
0
  6
CONTINUOUS
  2
*U36
 10
0.0
 20
0.0
 30
0.0
  0
LINE
  5
9E
  8
図枠
 10
918.52937865369995
 20
-290.12283494540009
 30
0.0
 11
918.52937865369995
 21
-315.62283494539997
 31
0.0
  0
LINE
  5
9F
  8
図枠
 10
889.72658001970012
 20
-311.29469657189998
 30
0.0
 11
889.72658001970012
 21
-312.49469657190002
 31
0.0
  0
INSERT
  5
A0
  8
0
  6
CONTINUOUS
  2
*U37
 10
0.0
 20
0.0
 30
0.0
  0
LINE
  5
A1
  8
図枠
 10
909.85985946490007
 20
-293.22083494539999
 30
0.0
 11
914.46785946490013
 21
-292.0688349454
 31
0.0
  0
POLYLINE
  8
図枠
  5
384
  66
     1
 10
0.000000
 20
0.000000
 30
0.000000
  70
     8
  0
VERTEX
  8
図枠
  5
385
 10
898.655
 20
-310.610
 30
0.000000
  70
    32
  0
VERTEX
  8
図枠
  5
386
 10
898.669
 20
-310.623
 30
0.000000
  70
    32
  0
VERTEX
  8
図枠
  5
387
 10
898.684
 20
-310.637
 30
0.000000
  70
    32
  0
VERTEX
  8
図枠
  5
388
 10
898.698
 20
-310.650
 30
0.000000
  70
    32
  0
VERTEX
  8
図枠
  5
389
 10
898.713
 20
-310.663
 30
0.000000
  70
    32
  0
VERTEX
  8
図枠
  5
38A
 10
898.727
 20
-310.676
 30
0.000000
  70
    32
  0
VERTEX
  8
図枠
  5
38B
 10
898.742
 20
-310.690
 30
0.000000
  70
    32
  0
VERTEX
  8
図枠
  5
38C
 10
898.756
 20
-310.703
 30
0.000000
  70
    32
  0
VERTEX
  8
図枠
  5
38D
 10
898.770
 20
-310.716
 30
0.000000
  70
    32
  0
VERTEX
  8
図枠
  5
38E
 10
898.785
 20
-310.730
 30
0.000000
  70
    32
  0
VERTEX
  8
図枠
  5
38F
 10
898.799
 20
-310.743
 30
0.000000
  70
    32
  0
VERTEX
  8
図枠
  5
390
 10
898.814
 20
-310.756
 30
0.000000
  70
    32
  0
VERTEX
  8
図枠
  5
391
 10
898.828
 20
-310.769
 30
0.000000
  70
    32
  0
VERTEX
  8
図枠
  5
392
 10
898.842
 20
-310.783
 30
0.000000
  70
    32
  0
VERTEX
  8
図枠
  5
393
 10
898.857
 20
-310.796
 30
0.000000
  70
    32
  0
VERTEX
  8
図枠
  5
394
 10
898.871
 20
-310.809
 30
0.000000
  70
    32
  0
VERTEX
  8
図枠
  5
395
 10
898.886
 20
-310.822
 30
0.000000
  70
    32
  0
VERTEX
  8
図枠
  5
396
 10
898.900
 20
-310.836
 30
0.000000
  70
    32
  0
VERTEX
  8
図枠
  5
397
 10
898.915
 20
-310.849
 30
0.000000
  70
    32
  0
VERTEX
  8
図枠
  5
398
 10
898.929
 20
-310.862
 30
0.000000
  70
    32
  0
VERTEX
  8
図枠
  5
399
 10
898.943
 20
-310.875
 30
0.000000
  70
    32
  0
VERTEX
  8
図枠
  5
39A
 10
898.958
 20
-310.889
 30
0.000000
  70
    32
  0
VERTEX
  8
図枠
  5
39B
 10
898.972
 20
-310.902
 30
0.000000
  70
    32
  0
VERTEX
  8
図枠
  5
39C
 10
898.987
 20
-310.915
 30
0.000000
  70
    32
  0
VERTEX
  8
図枠
  5
39D
 10
899.001
 20
-310.928
 30
0.000000
  70
    32
  0
VERTEX
  8
図枠
  5
39E
 10
899.016
 20
-310.941
 30
0.000000
  70
    32
  0
VERTEX
  8
図枠
  5
39F
 10
899.030
 20
-310.955
 30
0.000000
  70
    32
  0
VERTEX
  8
図枠
  5
3A0
 10
899.045
 20
-310.968
 30
0.000000
  70
    32
  0
VERTEX
  8
図枠
  5
3A1
 10
899.059
 20
-310.981
 30
0.000000
  70
    32
  0
VERTEX
  8
図枠
  5
3A2
 10
899.074
 20
-310.994
 30
0.000000
  70
    32
  0
VERTEX
  8
図枠
  5
3A3
 10
899.088
 20
-311.007
 30
0.000000
  70
    32
  0
VERTEX
  8
図枠
  5
3A4
 10
899.102
 20
-311.020
 30
0.000000
  70
    32
  0
VERTEX
  8
図枠
  5
3A5
 10
899.117
 20
-311.034
 30
0.000000
  70
    32
  0
VERTEX
  8
図枠
  5
3A6
 10
899.131
 20
-311.047
 30
0.000000
  70
    32
  0
VERTEX
  8
図枠
  5
3A7
 10
899.146
 20
-311.060
 30
0.000000
  70
    32
  0
VERTEX
  8
図枠
  5
3A8
 10
899.160
 20
-311.073
 30
0.000000
  70
    32
  0
VERTEX
  8
図枠
  5
3A9
 10
899.175
 20
-311.086
 30
0.000000
  70
    32
  0
VERTEX
  8
図枠
  5
3AA
 10
899.189
 20
-311.099
 30
0.000000
  70
    32
  0
VERTEX
  8
図枠
  5
3AB
 10
899.204
 20
-311.112
 30
0.000000
  70
    32
  0
VERTEX
  8
図枠
  5
3AC
 10
899.218
 20
-311.125
 30
0.000000
  70
    32
  0
VERTEX
  8
図枠
  5
3AD
 10
899.233
 20
-311.138
 30
0.000000
  70
    32
  0
VERTEX
  8
図枠
  5
3AE
 10
899.248
 20
-311.151
 30
0.000000
  70
    32
  0
VERTEX
  8
図枠
  5
3AF
 10
899.262
 20
-311.165
 30
0.000000
  70
    32
  0
VERTEX
  8
図枠
  5
3B0
 10
899.277
 20
-311.178
 30
0.000000
  70
    32
  0
VERTEX
  8
図枠
  5
3B1
 10
899.291
 20
-311.191
 30
0.000000
  70
    32
  0
VERTEX
  8
図枠
  5
3B2
 10
899.306
 20
-311.204
 30
0.000000
  70
    32
  0
VERTEX
  8
図枠
  5
3B3
 10
899.320
 20
-311.217
 30
0.000000
  70
    32
  0
VERTEX
  8
図枠
  5
3B4
 10
899.335
 20
-311.230
 30
0.000000
  70
    32
  0
VERTEX
  8
図枠
  5
3B5
 10
899.349
 20
-311.243
 30
0.000000
  70
    32
  0
VERTEX
  8
図枠
  5
3B6
 10
899.364
 20
-311.255
 30
0.000000
  70
    32
  0
VERTEX
  8
図枠
  5
3B7
 10
899.379
 20
-311.268
 30
0.000000
  70
    32
  0
VERTEX
  8
図枠
  5
3B8
 10
899.393
 20
-311.281
 30
0.000000
  70
    32
  0
VERTEX
  8
図枠
  5
3B9
 10
899.408
 20
-311.294
 30
0.000000
  70
    32
  0
VERTEX
  8
図枠
  5
3BA
 10
899.422
 20
-311.307
 30
0.000000
  70
    32
  0
VERTEX
  8
図枠
  5
3BB
 10
899.437
 20
-311.320
 30
0.000000
  70
    32
  0
VERTEX
  8
図枠
  5
3BC
 10
899.452
 20
-311.333
 30
0.000000
  70
    32
  0
VERTEX
  8
図枠
  5
3BD
 10
899.466
 20
-311.346
 30
0.000000
  70
    32
  0
VERTEX
  8
図枠
  5
3BE
 10
899.481
 20
-311.359
 30
0.000000
  70
    32
  0
VERTEX
  8
図枠
  5
3BF
 10
899.496
 20
-311.371
 30
0.000000
  70
    32
  0
VERTEX
  8
図枠
  5
3C0
 10
899.510
 20
-311.384
 30
0.000000
  70
    32
  0
VERTEX
  8
図枠
  5
3C1
 10
899.525
 20
-311.397
 30
0.000000
  70
    32
  0
VERTEX
  8
図枠
  5
3C2
 10
899.540
 20
-311.410
 30
0.000000
  70
    32
  0
VERTEX
  8
図枠
  5
3C3
 10
899.554
 20
-311.423
 30
0.000000
  70
    32
  0
VERTEX
  8
図枠
  5
3C4
 10
899.569
 20
-311.435
 30
0.000000
  70
    32
  0
VERTEX
  8
図枠
  5
3C5
 10
899.584
 20
-311.448
 30
0.000000
  70
    32
  0
VERTEX
  8
図枠
  5
3C6
 10
899.599
 20
-311.461
 30
0.000000
  70
    32
  0
VERTEX
  8
図枠
  5
3C7
 10
899.613
 20
-311.473
 30
0.000000
  70
    32
  0
VERTEX
  8
図枠
  5
3C8
 10
899.628
 20
-311.486
 30
0.000000
  70
    32
  0
VERTEX
  8
図枠
  5
3C9
 10
899.643
 20
-311.499
 30
0.000000
  70
    32
  0
VERTEX
  8
図枠
  5
3CA
 10
899.657
 20
-311.511
 30
0.000000
  70
    32
  0
VERTEX
  8
図枠
  5
3CB
 10
899.672
 20
-311.524
 30
0.000000
  70
    32
  0
VERTEX
  8
図枠
  5
3CC
 10
899.687
 20
-311.537
 30
0.000000
  70
    32
  0
VERTEX
  8
図枠
  5
3CD
 10
899.702
 20
-311.549
 30
0.000000
  70
    32
  0
VERTEX
  8
図枠
  5
3CE
 10
899.717
 20
-311.562
 30
0.000000
  70
    32
  0
VERTEX
  8
図枠
  5
3CF
 10
899.731
 20
-311.574
 30
0.000000
  70
    32
  0
VERTEX
  8
図枠
  5
3D0
 10
899.746
 20
-311.587
 30
0.000000
  70
    32
  0
VERTEX
  8
図枠
  5
3D1
 10
899.761
 20
-311.599
 30
0.000000
  70
    32
  0
VERTEX
  8
図枠
  5
3D2
 10
899.776
 20
-311.612
 30
0.000000
  70
    32
  0
VERTEX
  8
図枠
  5
3D3
 10
899.791
 20
-311.624
 30
0.000000
  70
    32
  0
VERTEX
  8
図枠
  5
3D4
 10
899.806
 20
-311.637
 30
0.000000
  70
    32
  0
VERTEX
  8
図枠
  5
3D5
 10
899.821
 20
-311.649
 30
0.000000
  70
    32
  0
VERTEX
  8
図枠
  5
3D6
 10
899.835
 20
-311.661
 30
0.000000
  70
    32
  0
VERTEX
  8
図枠
  5
3D7
 10
899.850
 20
-311.674
 30
0.000000
  70
    32
  0
VERTEX
  8
図枠
  5
3D8
 10
899.865
 20
-311.686
 30
0.000000
  70
    32
  0
VERTEX
  8
図枠
  5
3D9
 10
899.880
 20
-311.698
 30
0.000000
  70
    32
  0
VERTEX
  8
図枠
  5
3DA
 10
899.895
 20
-311.711
 30
0.000000
  70
    32
  0
VERTEX
  8
図枠
  5
3DB
 10
899.910
 20
-311.723
 30
0.000000
  70
    32
  0
VERTEX
  8
図枠
  5
3DC
 10
899.925
 20
-311.735
 30
0.000000
  70
    32
  0
VERTEX
  8
図枠
  5
3DD
 10
899.940
 20
-311.747
 30
0.000000
  70
    32
  0
VERTEX
  8
図枠
  5
3DE
 10
899.955
 20
-311.760
 30
0.000000
  70
    32
  0
VERTEX
  8
図枠
  5
3DF
 10
899.970
 20
-311.772
 30
0.000000
  70
    32
  0
VERTEX
  8
図枠
  5
3E0
 10
899.985
 20
-311.784
 30
0.000000
  70
    32
  0
VERTEX
  8
図枠
  5
3E1
 10
900.000
 20
-311.796
 30
0.000000
  70
    32
  0
VERTEX
  8
図枠
  5
3E2
 10
900.015
 20
-311.808
 30
0.000000
  70
    32
  0
VERTEX
  8
図枠
  5
3E3
 10
900.030
 20
-311.820
 30
0.000000
  70
    32
  0
VERTEX
  8
図枠
  5
3E4
 10
900.045
 20
-311.832
 30
0.000000
  70
    32
  0
VERTEX
  8
図枠
  5
3E5
 10
900.060
 20
-311.844
 30
0.000000
  70
    32
  0
VERTEX
  8
図枠
  5
3E6
 10
900.075
 20
-311.856
 30
0.000000
  70
    32
  0
VERTEX
  8
図枠
  5
3E7
 10
900.091
 20
-311.868
 30
0.000000
  70
    32
  0
VERTEX
  8
図枠
  5
3E8
 10
900.106
 20
-311.880
 30
0.000000
  70
    32
  0
VERTEX
  8
図枠
  5
3E9
 10
900.121
 20
-311.892
 30
0.000000
  70
    32
  0
VERTEX
  8
図枠
  5
3EA
 10
900.136
 20
-311.904
 30
0.000000
  70
    32
  0
VERTEX
  8
図枠
  5
3EB
 10
900.151
 20
-311.916
 30
0.000000
  70
    32
  0
VERTEX
  8
図枠
  5
3EC
 10
900.166
 20
-311.928
 30
0.000000
  70
    32
  0
VERTEX
  8
図枠
  5
3ED
 10
900.182
 20
-311.940
 30
0.000000
  70
    32
  0
VERTEX
  8
図枠
  5
3EE
 10
900.197
 20
-311.951
 30
0.000000
  70
    32
  0
VERTEX
  8
図枠
  5
3EF
 10
900.212
 20
-311.963
 30
0.000000
  70
    32
  0
VERTEX
  8
図枠
  5
3F0
 10
900.227
 20
-311.975
 30
0.000000
  70
    32
  0
VERTEX
  8
図枠
  5
3F1
 10
900.243
 20
-311.986
 30
0.000000
  70
    32
  0
VERTEX
  8
図枠
  5
3F2
 10
900.258
 20
-311.998
 30
0.000000
  70
    32
  0
VERTEX
  8
図枠
  5
3F3
 10
900.273
 20
-312.010
 30
0.000000
  70
    32
  0
VERTEX
  8
図枠
  5
3F4
 10
900.289
 20
-312.021
 30
0.000000
  70
    32
  0
VERTEX
  8
図枠
  5
3F5
 10
900.304
 20
-312.033
 30
0.000000
  70
    32
  0
VERTEX
  8
図枠
  5
3F6
 10
900.319
 20
-312.044
 30
0.000000
  70
    32
  0
VERTEX
  8
図枠
  5
3F7
 10
900.335
 20
-312.056
 30
0.000000
  70
    32
  0
VERTEX
  8
図枠
  5
3F8
 10
900.350
 20
-312.067
 30
0.000000
  70
    32
  0
VERTEX
  8
図枠
  5
3F9
 10
900.365
 20
-312.079
 30
0.000000
  70
    32
  0
VERTEX
  8
図枠
  5
3FA
 10
900.381
 20
-312.090
 30
0.000000
  70
    32
  0
VERTEX
  8
図枠
  5
3FB
 10
900.396
 20
-312.102
 30
0.000000
  70
    32
  0
VERTEX
  8
図枠
  5
3FC
 10
900.412
 20
-312.113
 30
0.000000
  70
    32
  0
VERTEX
  8
図枠
  5
3FD
 10
900.427
 20
-312.124
 30
0.000000
  70
    32
  0
VERTEX
  8
図枠
  5
3FE
 10
900.443
 20
-312.136
 30
0.000000
  70
    32
  0
VERTEX
  8
図枠
  5
3FF
 10
900.458
 20
-312.147
 30
0.000000
  70
    32
  0
VERTEX
  8
図枠
  5
400
 10
900.474
 20
-312.158
 30
0.000000
  70
    32
  0
VERTEX
  8
図枠
  5
401
 10
900.489
 20
-312.169
 30
0.000000
  70
    32
  0
VERTEX
  8
図枠
  5
402
 10
900.505
 20
-312.180
 30
0.000000
  70
    32
  0
VERTEX
  8
図枠
  5
403
 10
900.520
 20
-312.191
 30
0.000000
  70
    32
  0
VERTEX
  8
図枠
  5
404
 10
900.536
 20
-312.203
 30
0.000000
  70
    32
  0
VERTEX
  8
図枠
  5
405
 10
900.552
 20
-312.214
 30
0.000000
  70
    32
  0
VERTEX
  8
図枠
  5
406
 10
900.567
 20
-312.225
 30
0.000000
  70
    32
  0
VERTEX
  8
図枠
  5
407
 10
900.583
 20
-312.236
 30
0.000000
  70
    32
  0
VERTEX
  8
図枠
  5
408
 10
900.599
 20
-312.246
 30
0.000000
  70
    32
  0
VERTEX
  8
図枠
  5
409
 10
900.614
 20
-312.257
 30
0.000000
  70
    32
  0
VERTEX
  8
図枠
  5
40A
 10
900.630
 20
-312.268
 30
0.000000
  70
    32
  0
VERTEX
  8
図枠
  5
40B
 10
900.646
 20
-312.279
 30
0.000000
  70
    32
  0
VERTEX
  8
図枠
  5
40C
 10
900.662
 20
-312.290
 30
0.000000
  70
    32
  0
VERTEX
  8
図枠
  5
40D
 10
900.677
 20
-312.301
 30
0.000000
  70
    32
  0
VERTEX
  8
図枠
  5
40E
 10
900.693
 20
-312.311
 30
0.000000
  70
    32
  0
VERTEX
  8
図枠
  5
40F
 10
900.709
 20
-312.322
 30
0.000000
  70
    32
  0
VERTEX
  8
図枠
  5
410
 10
900.725
 20
-312.333
 30
0.000000
  70
    32
  0
VERTEX
  8
図枠
  5
411
 10
900.741
 20
-312.343
 30
0.000000
  70
    32
  0
VERTEX
  8
図枠
  5
412
 10
900.757
 20
-312.354
 30
0.000000
  70
    32
  0
VERTEX
  8
図枠
  5
413
 10
900.773
 20
-312.364
 30
0.000000
  70
    32
  0
VERTEX
  8
図枠
  5
414
 10
900.788
 20
-312.375
 30
0.000000
  70
    32
  0
VERTEX
  8
図枠
  5
415
 10
900.804
 20
-312.385
 30
0.000000
  70
    32
  0
VERTEX
  8
図枠
  5
416
 10
900.820
 20
-312.396
 30
0.000000
  70
    32
  0
VERTEX
  8
図枠
  5
417
 10
900.836
 20
-312.406
 30
0.000000
  70
    32
  0
VERTEX
  8
図枠
  5
418
 10
900.852
 20
-312.416
 30
0.000000
  70
    32
  0
VERTEX
  8
図枠
  5
419
 10
900.868
 20
-312.426
 30
0.000000
  70
    32
  0
VERTEX
  8
図枠
  5
41A
 10
900.884
 20
-312.437
 30
0.000000
  70
    32
  0
VERTEX
  8
図枠
  5
41B
 10
900.901
 20
-312.447
 30
0.000000
  70
    32
  0
VERTEX
  8
図枠
  5
41C
 10
900.917
 20
-312.457
 30
0.000000
  70
    32
  0
VERTEX
  8
図枠
  5
41D
 10
900.933
 20
-312.467
 30
0.000000
  70
    32
  0
VERTEX
  8
図枠
  5
41E
 10
900.949
 20
-312.477
 30
0.000000
  70
    32
  0
VERTEX
  8
図枠
  5
41F
 10
900.965
 20
-312.487
 30
0.000000
  70
    32
  0
VERTEX
  8
図枠
  5
420
 10
900.981
 20
-312.497
 30
0.000000
  70
    32
  0
VERTEX
  8
図枠
  5
421
 10
900.997
 20
-312.507
 30
0.000000
  70
    32
  0
VERTEX
  8
図枠
  5
422
 10
901.014
 20
-312.517
 30
0.000000
  70
    32
  0
VERTEX
  8
図枠
  5
423
 10
901.030
 20
-312.527
 30
0.000000
  70
    32
  0
VERTEX
  8
図枠
  5
424
 10
901.046
 20
-312.537
 30
0.000000
  70
    32
  0
SEQEND
  8
図枠
  5
425
  0
POLYLINE
  8
図枠
  5
426
  66
     1
 10
0.000000
 20
0.000000
 30
0.000000
  70
     8
  0
VERTEX
  8
図枠
  5
427
 10
903.022
 20
-313.404
 30
0.000000
  70
    32
  0
VERTEX
  8
図枠
  5
428
 10
903.044
 20
-313.411
 30
0.000000
  70
    32
  0
VERTEX
  8
図枠
  5
429
 10
903.065
 20
-313.417
 30
0.000000
  70
    32
  0
VERTEX
  8
図枠
  5
42A
 10
903.087
 20
-313.424
 30
0.000000
  70
    32
  0
VERTEX
  8
図枠
  5
42B
 10
903.108
 20
-313.431
 30
0.000000
  70
    32
  0
VERTEX
  8
図枠
  5
42C
 10
903.130
 20
-313.438
 30
0.000000
  70
    32
  0
VERTEX
  8
図枠
  5
42D
 10
903.152
 20
-313.444
 30
0.000000
  70
    32
  0
VERTEX
  8
図枠
  5
42E
 10
903.173
 20
-313.451
 30
0.000000
  70
    32
  0
VERTEX
  8
図枠
  5
42F
 10
903.195
 20
-313.458
 30
0.000000
  70
    32
  0
VERTEX
  8
図枠
  5
430
 10
903.217
 20
-313.464
 30
0.000000
  70
    32
  0
VERTEX
  8
図枠
  5
431
 10
903.238
 20
-313.471
 30
0.000000
  70
    32
  0
VERTEX
  8
図枠
  5
432
 10
903.260
 20
-313.477
 30
0.000000
  70
    32
  0
VERTEX
  8
図枠
  5
433
 10
903.282
 20
-313.484
 30
0.000000
  70
    32
  0
VERTEX
  8
図枠
  5
434
 10
903.303
 20
-313.490
 30
0.000000
  70
    32
  0
VERTEX
  8
図枠
  5
435
 10
903.325
 20
-313.497
 30
0.000000
  70
    32
  0
VERTEX
  8
図枠
  5
436
 10
903.347
 20
-313.503
 30
0.000000
  70
    32
  0
VERTEX
  8
図枠
  5
437
 10
903.369
 20
-313.510
 30
0.000000
  70
    32
  0
VERTEX
  8
図枠
  5
438
 10
903.391
 20
-313.516
 30
0.000000
  70
    32
  0
VERTEX
  8
図枠
  5
439
 10
903.412
 20
-313.522
 30
0.000000
  70
    32
  0
VERTEX
  8
図枠
  5
43A
 10
903.434
 20
-313.529
 30
0.000000
  70
    32
  0
VERTEX
  8
図枠
  5
43B
 10
903.456
 20
-313.535
 30
0.000000
  70
    32
  0
VERTEX
  8
図枠
  5
43C
 10
903.478
 20
-313.541
 30
0.000000
  70
    32
  0
VERTEX
  8
図枠
  5
43D
 10
903.500
 20
-313.547
 30
0.000000
  70
    32
  0
VERTEX
  8
図枠
  5
43E
 10
903.522
 20
-313.554
 30
0.000000
  70
    32
  0
VERTEX
  8
図枠
  5
43F
 10
903.544
 20
-313.560
 30
0.000000
  70
    32
  0
VERTEX
  8
図枠
  5
440
 10
903.566
 20
-313.566
 30
0.000000
  70
    32
  0
VERTEX
  8
図枠
  5
441
 10
903.588
 20
-313.572
 30
0.000000
  70
    32
  0
VERTEX
  8
図枠
  5
442
 10
903.610
 20
-313.578
 30
0.000000
  70
    32
  0
VERTEX
  8
図枠
  5
443
 10
903.632
 20
-313.584
 30
0.000000
  70
    32
  0
VERTEX
  8
図枠
  5
444
 10
903.654
 20
-313.590
 30
0.000000
  70
    32
  0
VERTEX
  8
図枠
  5
445
 10
903.676
 20
-313.596
 30
0.000000
  70
    32
  0
VERTEX
  8
図枠
  5
446
 10
903.698
 20
-313.602
 30
0.000000
  70
    32
  0
VERTEX
  8
図枠
  5
447
 10
903.720
 20
-313.608
 30
0.000000
  70
    32
  0
VERTEX
  8
図枠
  5
448
 10
903.742
 20
-313.614
 30
0.000000
  70
    32
  0
VERTEX
  8
図枠
  5
449
 10
903.764
 20
-313.620
 30
0.000000
  70
    32
  0
VERTEX
  8
図枠
  5
44A
 10
903.786
 20
-313.626
 30
0.000000
  70
    32
  0
VERTEX
  8
図枠
  5
44B
 10
903.808
 20
-313.632
 30
0.000000
  70
    32
  0
VERTEX
  8
図枠
  5
44C
 10
903.830
 20
-313.637
 30
0.000000
  70
    32
  0
VERTEX
  8
図枠
  5
44D
 10
903.852
 20
-313.643
 30
0.000000
  70
    32
  0
VERTEX
  8
図枠
  5
44E
 10
903.874
 20
-313.649
 30
0.000000
  70
    32
  0
VERTEX
  8
図枠
  5
44F
 10
903.896
 20
-313.655
 30
0.000000
  70
    32
  0
VERTEX
  8
図枠
  5
450
 10
903.918
 20
-313.660
 30
0.000000
  70
    32
  0
VERTEX
  8
図枠
  5
451
 10
903.941
 20
-313.666
 30
0.000000
  70
    32
  0
VERTEX
  8
図枠
  5
452
 10
903.963
 20
-313.672
 30
0.000000
  70
    32
  0
VERTEX
  8
図枠
  5
453
 10
903.985
 20
-313.677
 30
0.000000
  70
    32
  0
VERTEX
  8
図枠
  5
454
 10
904.007
 20
-313.683
 30
0.000000
  70
    32
  0
VERTEX
  8
図枠
  5
455
 10
904.029
 20
-313.689
 30
0.000000
  70
    32
  0
VERTEX
  8
図枠
  5
456
 10
904.052
 20
-313.694
 30
0.000000
  70
    32
  0
VERTEX
  8
図枠
  5
457
 10
904.074
 20
-313.700
 30
0.000000
  70
    32
  0
VERTEX
  8
図枠
  5
458
 10
904.096
 20
-313.705
 30
0.000000
  70
    32
  0
VERTEX
  8
図枠
  5
459
 10
904.118
 20
-313.711
 30
0.000000
  70
    32
  0
VERTEX
  8
図枠
  5
45A
 10
904.141
 20
-313.716
 30
0.000000
  70
    32
  0
VERTEX
  8
図枠
  5
45B
 10
904.163
 20
-313.722
 30
0.000000
  70
    32
  0
VERTEX
  8
図枠
  5
45C
 10
904.185
 20
-313.727
 30
0.000000
  70
    32
  0
VERTEX
  8
図枠
  5
45D
 10
904.208
 20
-313.733
 30
0.000000
  70
    32
  0
VERTEX
  8
図枠
  5
45E
 10
904.230
 20
-313.738
 30
0.000000
  70
    32
  0
VERTEX
  8
図枠
  5
45F
 10
904.252
 20
-313.744
 30
0.000000
  70
    32
  0
VERTEX
  8
図枠
  5
460
 10
904.275
 20
-313.749
 30
0.000000
  70
    32
  0
VERTEX
  8
図枠
  5
461
 10
904.297
 20
-313.754
 30
0.000000
  70
    32
  0
VERTEX
  8
図枠
  5
462
 10
904.319
 20
-313.760
 30
0.000000
  70
    32
  0
VERTEX
  8
図枠
  5
463
 10
904.342
 20
-313.765
 30
0.000000
  70
    32
  0
VERTEX
  8
図枠
  5
464
 10
904.364
 20
-313.770
 30
0.000000
  70
    32
  0
VERTEX
  8
図枠
  5
465
 10
904.386
 20
-313.776
 30
0.000000
  70
    32
  0
VERTEX
  8
図枠
  5
466
 10
904.409
 20
-313.781
 30
0.000000
  70
    32
  0
VERTEX
  8
図枠
  5
467
 10
904.431
 20
-313.786
 30
0.000000
  70
    32
  0
VERTEX
  8
図枠
  5
468
 10
904.454
 20
-313.791
 30
0.000000
  70
    32
  0
VERTEX
  8
図枠
  5
469
 10
904.476
 20
-313.797
 30
0.000000
  70
    32
  0
VERTEX
  8
図枠
  5
46A
 10
904.498
 20
-313.802
 30
0.000000
  70
    32
  0
VERTEX
  8
図枠
  5
46B
 10
904.521
 20
-313.807
 30
0.000000
  70
    32
  0
VERTEX
  8
図枠
  5
46C
 10
904.543
 20
-313.812
 30
0.000000
  70
    32
  0
VERTEX
  8
図枠
  5
46D
 10
904.566
 20
-313.817
 30
0.000000
  70
    32
  0
VERTEX
  8
図枠
  5
46E
 10
904.588
 20
-313.823
 30
0.000000
  70
    32
  0
VERTEX
  8
図枠
  5
46F
 10
904.611
 20
-313.828
 30
0.000000
  70
    32
  0
VERTEX
  8
図枠
  5
470
 10
904.633
 20
-313.833
 30
0.000000
  70
    32
  0
VERTEX
  8
図枠
  5
471
 10
904.656
 20
-313.838
 30
0.000000
  70
    32
  0
VERTEX
  8
図枠
  5
472
 10
904.678
 20
-313.843
 30
0.000000
  70
    32
  0
VERTEX
  8
図枠
  5
473
 10
904.701
 20
-313.848
 30
0.000000
  70
    32
  0
VERTEX
  8
図枠
  5
474
 10
904.723
 20
-313.853
 30
0.000000
  70
    32
  0
VERTEX
  8
図枠
  5
475
 10
904.746
 20
-313.858
 30
0.000000
  70
    32
  0
VERTEX
  8
図枠
  5
476
 10
904.768
 20
-313.863
 30
0.000000
  70
    32
  0
VERTEX
  8
図枠
  5
477
 10
904.791
 20
-313.868
 30
0.000000
  70
    32
  0
VERTEX
  8
図枠
  5
478
 10
904.813
 20
-313.873
 30
0.000000
  70
    32
  0
VERTEX
  8
図枠
  5
479
 10
904.836
 20
-313.878
 30
0.000000
  70
    32
  0
VERTEX
  8
図枠
  5
47A
 10
904.858
 20
-313.883
 30
0.000000
  70
    32
  0
VERTEX
  8
図枠
  5
47B
 10
904.881
 20
-313.888
 30
0.000000
  70
    32
  0
VERTEX
  8
図枠
  5
47C
 10
904.904
 20
-313.893
 30
0.000000
  70
    32
  0
VERTEX
  8
図枠
  5
47D
 10
904.926
 20
-313.898
 30
0.000000
  70
    32
  0
VERTEX
  8
図枠
  5
47E
 10
904.949
 20
-313.903
 30
0.000000
  70
    32
  0
VERTEX
  8
図枠
  5
47F
 10
904.971
 20
-313.908
 30
0.000000
  70
    32
  0
VERTEX
  8
図枠
  5
480
 10
904.994
 20
-313.913
 30
0.000000
  70
    32
  0
VERTEX
  8
図枠
  5
481
 10
905.016
 20
-313.918
 30
0.000000
  70
    32
  0
VERTEX
  8
図枠
  5
482
 10
905.039
 20
-313.923
 30
0.000000
  70
    32
  0
VERTEX
  8
図枠
  5
483
 10
905.062
 20
-313.928
 30
0.000000
  70
    32
  0
VERTEX
  8
図枠
  5
484
 10
905.084
 20
-313.933
 30
0.000000
  70
    32
  0
VERTEX
  8
図枠
  5
485
 10
905.107
 20
-313.937
 30
0.000000
  70
    32
  0
VERTEX
  8
図枠
  5
486
 10
905.130
 20
-313.942
 30
0.000000
  70
    32
  0
VERTEX
  8
図枠
  5
487
 10
905.152
 20
-313.947
 30
0.000000
  70
    32
  0
VERTEX
  8
図枠
  5
488
 10
905.175
 20
-313.952
 30
0.000000
  70
    32
  0
VERTEX
  8
図枠
  5
489
 10
905.197
 20
-313.957
 30
0.000000
  70
    32
  0
VERTEX
  8
図枠
  5
48A
 10
905.220
 20
-313.962
 30
0.000000
  70
    32
  0
VERTEX
  8
図枠
  5
48B
 10
905.243
 20
-313.966
 30
0.000000
  70
    32
  0
VERTEX
  8
図枠
  5
48C
 10
905.265
 20
-313.971
 30
0.000000
  70
    32
  0
VERTEX
  8
図枠
  5
48D
 10
905.288
 20
-313.976
 30
0.000000
  70
    32
  0
VERTEX
  8
図枠
  5
48E
 10
905.311
 20
-313.981
 30
0.000000
  70
    32
  0
VERTEX
  8
図枠
  5
48F
 10
905.333
 20
-313.986
 30
0.000000
  70
    32
  0
VERTEX
  8
図枠
  5
490
 10
905.356
 20
-313.990
 30
0.000000
  70
    32
  0
VERTEX
  8
図枠
  5
491
 10
905.379
 20
-313.995
 30
0.000000
  70
    32
  0
VERTEX
  8
図枠
  5
492
 10
905.401
 20
-314.000
 30
0.000000
  70
    32
  0
VERTEX
  8
図枠
  5
493
 10
905.424
 20
-314.005
 30
0.000000
  70
    32
  0
VERTEX
  8
図枠
  5
494
 10
905.447
 20
-314.010
 30
0.000000
  70
    32
  0
VERTEX
  8
図枠
  5
495
 10
905.469
 20
-314.014
 30
0.000000
  70
    32
  0
VERTEX
  8
図枠
  5
496
 10
905.492
 20
-314.019
 30
0.000000
  70
    32
  0
VERTEX
  8
図枠
  5
497
 10
905.515
 20
-314.024
 30
0.000000
  70
    32
  0
VERTEX
  8
図枠
  5
498
 10
905.537
 20
-314.029
 30
0.000000
  70
    32
  0
VERTEX
  8
図枠
  5
499
 10
905.560
 20
-314.033
 30
0.000000
  70
    32
  0
VERTEX
  8
図枠
  5
49A
 10
905.583
 20
-314.038
 30
0.000000
  70
    32
  0
VERTEX
  8
図枠
  5
49B
 10
905.605
 20
-314.043
 30
0.000000
  70
    32
  0
VERTEX
  8
図枠
  5
49C
 10
905.628
 20
-314.047
 30
0.000000
  70
    32
  0
VERTEX
  8
図枠
  5
49D
 10
905.651
 20
-314.052
 30
0.000000
  70
    32
  0
VERTEX
  8
図枠
  5
49E
 10
905.673
 20
-314.057
 30
0.000000
  70
    32
  0
VERTEX
  8
図枠
  5
49F
 10
905.696
 20
-314.062
 30
0.000000
  70
    32
  0
VERTEX
  8
図枠
  5
4A0
 10
905.719
 20
-314.066
 30
0.000000
  70
    32
  0
VERTEX
  8
図枠
  5
4A1
 10
905.742
 20
-314.071
 30
0.000000
  70
    32
  0
VERTEX
  8
図枠
  5
4A2
 10
905.764
 20
-314.076
 30
0.000000
  70
    32
  0
VERTEX
  8
図枠
  5
4A3
 10
905.787
 20
-314.081
 30
0.000000
  70
    32
  0
VERTEX
  8
図枠
  5
4A4
 10
905.810
 20
-314.085
 30
0.000000
  70
    32
  0
VERTEX
  8
図枠
  5
4A5
 10
905.832
 20
-314.090
 30
0.000000
  70
    32
  0
VERTEX
  8
図枠
  5
4A6
 10
905.855
 20
-314.095
 30
0.000000
  70
    32
  0
SEQEND
  8
図枠
  5
4A7
  0
POLYLINE
  8
図枠
  5
4A8
  66
     1
 10
0.000000
 20
0.000000
 30
0.000000
  70
     8
  0
VERTEX
  8
図枠
  5
4A9
 10
901.403
 20
-310.805
 30
0.000000
  70
    32
  0
VERTEX
  8
図枠
  5
4AA
 10
901.408
 20
-310.811
 30
0.000000
  70
    32
  0
VERTEX
  8
図枠
  5
4AB
 10
901.413
 20
-310.817
 30
0.000000
  70
    32
  0
VERTEX
  8
図枠
  5
4AC
 10
901.418
 20
-310.823
 30
0.000000
  70
    32
  0
VERTEX
  8
図枠
  5
4AD
 10
901.424
 20
-310.828
 30
0.000000
  70
    32
  0
VERTEX
  8
図枠
  5
4AE
 10
901.429
 20
-310.834
 30
0.000000
  70
    32
  0
VERTEX
  8
図枠
  5
4AF
 10
901.434
 20
-310.840
 30
0.000000
  70
    32
  0
VERTEX
  8
図枠
  5
4B0
 10
901.439
 20
-310.846
 30
0.000000
  70
    32
  0
VERTEX
  8
図枠
  5
4B1
 10
901.445
 20
-310.852
 30
0.000000
  70
    32
  0
VERTEX
  8
図枠
  5
4B2
 10
901.450
 20
-310.858
 30
0.000000
  70
    32
  0
VERTEX
  8
図枠
  5
4B3
 10
901.455
 20
-310.864
 30
0.000000
  70
    32
  0
VERTEX
  8
図枠
  5
4B4
 10
901.461
 20
-310.870
 30
0.000000
  70
    32
  0
VERTEX
  8
図枠
  5
4B5
 10
901.466
 20
-310.876
 30
0.000000
  70
    32
  0
VERTEX
  8
図枠
  5
4B6
 10
901.471
 20
-310.881
 30
0.000000
  70
    32
  0
VERTEX
  8
図枠
  5
4B7
 10
901.476
 20
-310.887
 30
0.000000
  70
    32
  0
VERTEX
  8
図枠
  5
4B8
 10
901.482
 20
-310.893
 30
0.000000
  70
    32
  0
VERTEX
  8
図枠
  5
4B9
 10
901.487
 20
-310.899
 30
0.000000
  70
    32
  0
VERTEX
  8
図枠
  5
4BA
 10
901.492
 20
-310.905
 30
0.000000
  70
    32
  0
VERTEX
  8
図枠
  5
4BB
 10
901.498
 20
-310.911
 30
0.000000
  70
    32
  0
VERTEX
  8
図枠
  5
4BC
 10
901.503
 20
-310.917
 30
0.000000
  70
    32
  0
VERTEX
  8
図枠
  5
4BD
 10
901.508
 20
-310.923
 30
0.000000
  70
    32
  0
VERTEX
  8
図枠
  5
4BE
 10
901.513
 20
-310.928
 30
0.000000
  70
    32
  0
VERTEX
  8
図枠
  5
4BF
 10
901.519
 20
-310.934
 30
0.000000
  70
    32
  0
VERTEX
  8
図枠
  5
4C0
 10
901.524
 20
-310.940
 30
0.000000
  70
    32
  0
VERTEX
  8
図枠
  5
4C1
 10
901.529
 20
-310.946
 30
0.000000
  70
    32
  0
VERTEX
  8
図枠
  5
4C2
 10
901.535
 20
-310.952
 30
0.000000
  70
    32
  0
VERTEX
  8
図枠
  5
4C3
 10
901.540
 20
-310.958
 30
0.000000
  70
    32
  0
VERTEX
  8
図枠
  5
4C4
 10
901.545
 20
-310.964
 30
0.000000
  70
    32
  0
VERTEX
  8
図枠
  5
4C5
 10
901.551
 20
-310.969
 30
0.000000
  70
    32
  0
VERTEX
  8
図枠
  5
4C6
 10
901.556
 20
-310.975
 30
0.000000
  70
    32
  0
VERTEX
  8
図枠
  5
4C7
 10
901.561
 20
-310.981
 30
0.000000
  70
    32
  0
VERTEX
  8
図枠
  5
4C8
 10
901.566
 20
-310.987
 30
0.000000
  70
    32
  0
VERTEX
  8
図枠
  5
4C9
 10
901.572
 20
-310.993
 30
0.000000
  70
    32
  0
VERTEX
  8
図枠
  5
4CA
 10
901.577
 20
-310.999
 30
0.000000
  70
    32
  0
VERTEX
  8
図枠
  5
4CB
 10
901.582
 20
-311.005
 30
0.000000
  70
    32
  0
VERTEX
  8
図枠
  5
4CC
 10
901.588
 20
-311.010
 30
0.000000
  70
    32
  0
VERTEX
  8
図枠
  5
4CD
 10
901.593
 20
-311.016
 30
0.000000
  70
    32
  0
VERTEX
  8
図枠
  5
4CE
 10
901.598
 20
-311.022
 30
0.000000
  70
    32
  0
VERTEX
  8
図枠
  5
4CF
 10
901.604
 20
-311.028
 30
0.000000
  70
    32
  0
VERTEX
  8
図枠
  5
4D0
 10
901.609
 20
-311.034
 30
0.000000
  70
    32
  0
VERTEX
  8
図枠
  5
4D1
 10
901.614
 20
-311.039
 30
0.000000
  70
    32
  0
VERTEX
  8
図枠
  5
4D2
 10
901.620
 20
-311.045
 30
0.000000
  70
    32
  0
VERTEX
  8
図枠
  5
4D3
 10
901.625
 20
-311.051
 30
0.000000
  70
    32
  0
VERTEX
  8
図枠
  5
4D4
 10
901.630
 20
-311.057
 30
0.000000
  70
    32
  0
VERTEX
  8
図枠
  5
4D5
 10
901.636
 20
-311.063
 30
0.000000
  70
    32
  0
VERTEX
  8
図枠
  5
4D6
 10
901.641
 20
-311.068
 30
0.000000
  70
    32
  0
VERTEX
  8
図枠
  5
4D7
 10
901.646
 20
-311.074
 30
0.000000
  70
    32
  0
VERTEX
  8
図枠
  5
4D8
 10
901.652
 20
-311.080
 30
0.000000
  70
    32
  0
VERTEX
  8
図枠
  5
4D9
 10
901.657
 20
-311.086
 30
0.000000
  70
    32
  0
VERTEX
  8
図枠
  5
4DA
 10
901.662
 20
-311.092
 30
0.000000
  70
    32
  0
VERTEX
  8
図枠
  5
4DB
 10
901.668
 20
-311.097
 30
0.000000
  70
    32
  0
VERTEX
  8
図枠
  5
4DC
 10
901.673
 20
-311.103
 30
0.000000
  70
    32
  0
VERTEX
  8
図枠
  5
4DD
 10
901.678
 20
-311.109
 30
0.000000
  70
    32
  0
VERTEX
  8
図枠
  5
4DE
 10
901.684
 20
-311.115
 30
0.000000
  70
    32
  0
VERTEX
  8
図枠
  5
4DF
 10
901.689
 20
-311.121
 30
0.000000
  70
    32
  0
VERTEX
  8
図枠
  5
4E0
 10
901.694
 20
-311.126
 30
0.000000
  70
    32
  0
VERTEX
  8
図枠
  5
4E1
 10
901.700
 20
-311.132
 30
0.000000
  70
    32
  0
VERTEX
  8
図枠
  5
4E2
 10
901.705
 20
-311.138
 30
0.000000
  70
    32
  0
VERTEX
  8
図枠
  5
4E3
 10
901.711
 20
-311.144
 30
0.000000
  70
    32
  0
VERTEX
  8
図枠
  5
4E4
 10
901.716
 20
-311.149
 30
0.000000
  70
    32
  0
VERTEX
  8
図枠
  5
4E5
 10
901.721
 20
-311.155
 30
0.000000
  70
    32
  0
VERTEX
  8
図枠
  5
4E6
 10
901.727
 20
-311.161
 30
0.000000
  70
    32
  0
VERTEX
  8
図枠
  5
4E7
 10
901.732
 20
-311.166
 30
0.000000
  70
    32
  0
VERTEX
  8
図枠
  5
4E8
 10
901.737
 20
-311.172
 30
0.000000
  70
    32
  0
VERTEX
  8
図枠
  5
4E9
 10
901.743
 20
-311.178
 30
0.000000
  70
    32
  0
VERTEX
  8
図枠
  5
4EA
 10
901.748
 20
-311.184
 30
0.000000
  70
    32
  0
VERTEX
  8
図枠
  5
4EB
 10
901.754
 20
-311.189
 30
0.000000
  70
    32
  0
VERTEX
  8
図枠
  5
4EC
 10
901.759
 20
-311.195
 30
0.000000
  70
    32
  0
VERTEX
  8
図枠
  5
4ED
 10
901.764
 20
-311.201
 30
0.000000
  70
    32
  0
VERTEX
  8
図枠
  5
4EE
 10
901.770
 20
-311.206
 30
0.000000
  70
    32
  0
VERTEX
  8
図枠
  5
4EF
 10
901.775
 20
-311.212
 30
0.000000
  70
    32
  0
VERTEX
  8
図枠
  5
4F0
 10
901.781
 20
-311.218
 30
0.000000
  70
    32
  0
VERTEX
  8
図枠
  5
4F1
 10
901.786
 20
-311.223
 30
0.000000
  70
    32
  0
VERTEX
  8
図枠
  5
4F2
 10
901.791
 20
-311.229
 30
0.000000
  70
    32
  0
VERTEX
  8
図枠
  5
4F3
 10
901.797
 20
-311.235
 30
0.000000
  70
    32
  0
VERTEX
  8
図枠
  5
4F4
 10
901.802
 20
-311.240
 30
0.000000
  70
    32
  0
VERTEX
  8
図枠
  5
4F5
 10
901.808
 20
-311.246
 30
0.000000
  70
    32
  0
VERTEX
  8
図枠
  5
4F6
 10
901.813
 20
-311.252
 30
0.000000
  70
    32
  0
VERTEX
  8
図枠
  5
4F7
 10
901.819
 20
-311.257
 30
0.000000
  70
    32
  0
VERTEX
  8
図枠
  5
4F8
 10
901.824
 20
-311.263
 30
0.000000
  70
    32
  0
VERTEX
  8
図枠
  5
4F9
 10
901.830
 20
-311.268
 30
0.000000
  70
    32
  0
VERTEX
  8
図枠
  5
4FA
 10
901.835
 20
-311.274
 30
0.000000
  70
    32
  0
VERTEX
  8
図枠
  5
4FB
 10
901.840
 20
-311.280
 30
0.000000
  70
    32
  0
VERTEX
  8
図枠
  5
4FC
 10
901.846
 20
-311.285
 30
0.000000
  70
    32
  0
VERTEX
  8
図枠
  5
4FD
 10
901.851
 20
-311.291
 30
0.000000
  70
    32
  0
VERTEX
  8
図枠
  5
4FE
 10
901.857
 20
-311.296
 30
0.000000
  70
    32
  0
VERTEX
  8
図枠
  5
4FF
 10
901.862
 20
-311.302
 30
0.000000
  70
    32
  0
VERTEX
  8
図枠
  5
500
 10
901.868
 20
-311.307
 30
0.000000
  70
    32
  0
VERTEX
  8
図枠
  5
501
 10
901.873
 20
-311.313
 30
0.000000
  70
    32
  0
VERTEX
  8
図枠
  5
502
 10
901.879
 20
-311.319
 30
0.000000
  70
    32
  0
VERTEX
  8
図枠
  5
503
 10
901.884
 20
-311.324
 30
0.000000
  70
    32
  0
VERTEX
  8
図枠
  5
504
 10
901.890
 20
-311.330
 30
0.000000
  70
    32
  0
VERTEX
  8
図枠
  5
505
 10
901.895
 20
-311.335
 30
0.000000
  70
    32
  0
VERTEX
  8
図枠
  5
506
 10
901.901
 20
-311.341
 30
0.000000
  70
    32
  0
VERTEX
  8
図枠
  5
507
 10
901.906
 20
-311.346
 30
0.000000
  70
    32
  0
VERTEX
  8
図枠
  5
508
 10
901.912
 20
-311.352
 30
0.000000
  70
    32
  0
VERTEX
  8
図枠
  5
509
 10
901.917
 20
-311.357
 30
0.000000
  70
    32
  0
VERTEX
  8
図枠
  5
50A
 10
901.923
 20
-311.363
 30
0.000000
  70
    32
  0
VERTEX
  8
図枠
  5
50B
 10
901.928
 20
-311.368
 30
0.000000
  70
    32
  0
VERTEX
  8
図枠
  5
50C
 10
901.934
 20
-311.374
 30
0.000000
  70
    32
  0
VERTEX
  8
図枠
  5
50D
 10
901.940
 20
-311.379
 30
0.000000
  70
    32
  0
VERTEX
  8
図枠
  5
50E
 10
901.945
 20
-311.384
 30
0.000000
  70
    32
  0
VERTEX
  8
図枠
  5
50F
 10
901.951
 20
-311.390
 30
0.000000
  70
    32
  0
VERTEX
  8
図枠
  5
510
 10
901.956
 20
-311.395
 30
0.000000
  70
    32
  0
VERTEX
  8
図枠
  5
511
 10
901.962
 20
-311.401
 30
0.000000
  70
    32
  0
VERTEX
  8
図枠
  5
512
 10
901.967
 20
-311.406
 30
0.000000
  70
    32
  0
VERTEX
  8
図枠
  5
513
 10
901.973
 20
-311.411
 30
0.000000
  70
    32
  0
VERTEX
  8
図枠
  5
514
 10
901.979
 20
-311.417
 30
0.000000
  70
    32
  0
VERTEX
  8
図枠
  5
515
 10
901.984
 20
-311.422
 30
0.000000
  70
    32
  0
VERTEX
  8
図枠
  5
516
 10
901.990
 20
-311.428
 30
0.000000
  70
    32
  0
VERTEX
  8
図枠
  5
517
 10
901.995
 20
-311.433
 30
0.000000
  70
    32
  0
VERTEX
  8
図枠
  5
518
 10
902.001
 20
-311.438
 30
0.000000
  70
    32
  0
VERTEX
  8
図枠
  5
519
 10
902.007
 20
-311.444
 30
0.000000
  70
    32
  0
VERTEX
  8
図枠
  5
51A
 10
902.012
 20
-311.449
 30
0.000000
  70
    32
  0
VERTEX
  8
図枠
  5
51B
 10
902.018
 20
-311.454
 30
0.000000
  70
    32
  0
VERTEX
  8
図枠
  5
51C
 10
902.023
 20
-311.460
 30
0.000000
  70
    32
  0
VERTEX
  8
図枠
  5
51D
 10
902.029
 20
-311.465
 30
0.000000
  70
    32
  0
VERTEX
  8
図枠
  5
51E
 10
902.035
 20
-311.470
 30
0.000000
  70
    32
  0
VERTEX
  8
図枠
  5
51F
 10
902.040
 20
-311.475
 30
0.000000
  70
    32
  0
VERTEX
  8
図枠
  5
520
 10
902.046
 20
-311.481
 30
0.000000
  70
    32
  0
VERTEX
  8
図枠
  5
521
 10
902.052
 20
-311.486
 30
0.000000
  70
    32
  0
VERTEX
  8
図枠
  5
522
 10
902.057
 20
-311.491
 30
0.000000
  70
    32
  0
VERTEX
  8
図枠
  5
523
 10
902.063
 20
-311.497
 30
0.000000
  70
    32
  0
VERTEX
  8
図枠
  5
524
 10
902.069
 20
-311.502
 30
0.000000
  70
    32
  0
VERTEX
  8
図枠
  5
525
 10
902.075
 20
-311.507
 30
0.000000
  70
    32
  0
VERTEX
  8
図枠
  5
526
 10
902.080
 20
-311.512
 30
0.000000
  70
    32
  0
VERTEX
  8
図枠
  5
527
 10
902.086
 20
-311.517
 30
0.000000
  70
    32
  0
VERTEX
  8
図枠
  5
528
 10
902.092
 20
-311.523
 30
0.000000
  70
    32
  0
SEQEND
  8
図枠
  5
529
  0
LINE
  5
A5
  8
図枠
 10
898.65506486819993
 20
-309.93469657190002
 30
0.0
 11
902.65506486820004
 21
-309.93469657190002
 31
0.0
  0
LINE
  5
A6
  8
図枠
  6
DOT
 10
980.52937865369995
 20
-321.37283494539997
 30
0.0
 11
980.52937865369995
 21
-119.8728349454
 31
0.0
  0
LINE
  5
A7
  8
図枠
 10
909.85985946490007
 20
-293.22083494539999
 30
0.0
 11
909.85985946490007
 21
-295.52483494540002
 31
0.0
  0
LINE
  5
A8
  8
図枠
 10
909.85985946490007
 20
-293.22083494539999
 30
0.0
 11
914.46785946490013
 21
-292.0688349454
 31
0.0
  0
INSERT
  5
A9
  8
0
  6
CONTINUOUS
  2
*U38
 10
0.0
 20
0.0
 30
0.0
  0
LINE
  5
AA
  8
図枠
 10
895.32658001970003
 20
-311.29469657189998
 30
0.0
 11
896.52658001969996
 21
-311.29469657189998
 31
0.0
  0
LINE
  5
AB
  8
図枠
 10
910.98905098679995
 20
-314.49469657190002
 30
0.0
 11
910.66051765339989
 21
-313.37469657190002
 31
0.0
  0
LINE
  5
AC
  8
図枠
 10
892.12658001969999
 20
-312.8946965719
 30
0.0
 11
889.72658001970012
 21
-312.8946965719
 31
0.0
  0
LINE
  5
AD
  8
図枠
 10
914.46785946490013
 20
-292.0688349454
 30
0.0
 11
914.46785946490013
 21
-296.6768349454
 31
0.0
  0
LINE
  5
AE
  8
図枠
 10
907.62905098680005
 20
-309.85469657189998
 30
0.0
 11
907.62905098680005
 21
-311.29469657189998
 31
0.0
  0
LINE
  5
AF
  8
図枠
  6
DOT
 10
693.52937865369995
 20
-321.37283494539997
 30
0.0
 11
980.52937865369995
 21
-321.37283494539997
 31
0.0
  0
LINE
  5
B0
  8
図枠
 10
909.62798432009993
 20
-309.85469657189998
 30
0.0
 11
909.22905098679996
 21
-308.49469657190002
 31
0.0
  0
LINE
  5
B1
  8
図枠
 10
911.89382247159995
 20
-309.85469657189998
 30
0.0
 11
914.82905098679987
 21
-309.85469657189998
 31
0.0
  0
INSERT
  5
B2
  8
0
  6
CONTINUOUS
  2
*U39
 10
0.0
 20
0.0
 30
0.0
  0
INSERT
  5
B3
  8
0
  6
CONTINUOUS
  2
*U40
 10
0.0
 20
0.0
 30
0.0
  0
INSERT
  5
B4
  8
0
  6
CONTINUOUS
  2
*U41
 10
0.0
 20
0.0
 30
0.0
  0
INSERT
  5
B5
  8
0
  6
CONTINUOUS
  2
*U42
 10
0.0
 20
0.0
 30
0.0
  0
INSERT
  5
B6
  8
0
  6
CONTINUOUS
  2
*U43
 10
0.0
 20
0.0
 30
0.0
  0
LINE
  5
B7
  8
図枠
 10
909.85985946490007
 20
-293.22083494539999
 30
0.0
 11
914.46785946490013
 21
-292.0688349454
 31
0.0
  0
CIRCLE
  5
B8
  8
図枠
 10
904.5933786536998
 20
-294.37283494539997
 30
0.0
 40
1.1519999999999999
  0
INSERT
  5
B9
  8
0
  6
CONTINUOUS
  2
*U44
 10
0.0
 20
0.0
 30
0.0
  0
INSERT
  5
BA
  8
0
  6
CONTINUOUS
  2
*U45
 10
0.0
 20
0.0
 30
0.0
  0
LINE
  5
BB
  8
図枠
 10
889.72658001970012
 20
-312.8946965719
 30
0.0
 11
889.72658001970012
 21
-314.09469657189999
 31
0.0
  0
ARC
  5
BC
  8
図枠
 10
892.12658001969999
 20
-311.69469657190001
 30
0.0
 40
1.1999999999999991
 50
270.0
 51
0.0
  0
LINE
  5
BD
  8
図枠
 10
898.65506486819993
 20
-310.35238478590003
 30
0.0
 11
901.85506486820009
 21
-310.35238478590003
 31
0.0
  0
LINE
  5
BE
  8
図枠
 10
895.32658001970003
 20
-311.69469657190001
 30
0.0
 11
895.32658001970003
 21
-311.29469657189998
 31
0.0
  0
LINE
  5
BF
  8
図枠
 62
     5
 10
699.52937865369995
 20
-125.6228349454
 30
0.0
 11
974.52937865369995
 21
-125.6228349454
 31
0.0
  0
LINE
  5
C0
  8
図枠
 62
     5
 10
699.52937865369995
 20
-315.62283494539997
 30
0.0
 11
699.52937865369995
 21
-125.6228349454
 31
0.0
  0
LINE
  5
C1
  8
図枠
 62
     5
 10
699.52937865369995
 20
-315.62283494539997
 30
0.0
 11
974.52937865369995
 21
-315.62283494539997
 31
0.0
  0
LINE
  5
C2
  8
図枠
 62
     5
 10
974.52937865369995
 20
-315.62283494539997
 30
0.0
 11
974.52937865369995
 21
-125.6228349454
 31
0.0
  0
CIRCLE
  5
C3
  8
図枠
 10
904.5933786536998
 20
-294.37283494539997
 30
0.0
 40
2.3039999999999998
  0
CIRCLE
  5
C4
  8
図枠
 10
904.5933786536998
 20
-294.37283494539997
 30
0.0
 40
1.1519999999999999
  0
LINE
  5
C5
  8
図枠
 10
909.85985946490007
 20
-295.52483494540002
 30
0.0
 11
914.46785946490013
 21
-296.6768349454
 31
0.0
  0
INSERT
  5
C6
  8
0
  6
CONTINUOUS
  2
*U46
 10
0.0
 20
0.0
 30
0.0
  0
LINE
  5
C7
  8
図枠
 10
858.52937865369995
 20
-307.12283494539997
 30
0.0
 11
974.52937865369995
 21
-307.12283494539997
 31
0.0
  0
CIRCLE
  5
C8
  8
図枠
 10
904.5933786536998
 20
-294.37283494539997
 30
0.0
 40
1.1519999999999999
  0
INSERT
  5
C9
  8
0
  6
CONTINUOUS
  2
*U47
 10
0.0
 20
0.0
 30
0.0
  0
LINE
  5
CA
  8
図枠
 10
858.52937865369995
 20
-298.62283494539997
 30
0.0
 11
974.52937865369995
 21
-298.62283494539997
 31
0.0
  0
LINE
  5
CB
  8
図枠
 10
858.52937865369995
 20
-290.12283494540009
 30
0.0
 11
974.52937865369995
 21
-290.12283494540009
 31
0.0
  0
LINE
  5
CC
  8
図枠
 10
860.52937865369995
 20
-294.37283494539997
 30
0.0
 11
876.52937865369984
 21
-294.37283494539997
 31
0.0
  0
INSERT
  5
CD
  8
0
  6
CONTINUOUS
  2
*U48
 10
0.0
 20
0.0
 30
0.0
  0
LINE
  5
CE
  8
図枠
 10
858.52937865369995
 20
-273.62283494539997
 30
0.0
 11
858.52937865369995
 21
-290.12283494540009
 31
0.0
  0
CIRCLE
  5
CF
  8
図枠
 10
904.5933786536998
 20
-294.37283494539997
 30
0.0
 40
2.3039999999999998
  0
LINE
  5
D0
  8
図枠
  6
BORDER
 10
901.1373786536999
 20
-294.37283494539997
 30
0.0
 11
915.9213786537
 21
-294.37283494539997
 31
0.0
  0
LINE
  5
D1
  8
図枠
 10
898.65506486819993
 20
-308.49469657190002
 30
0.0
 11
898.65506486819993
 21
-309.93469657190002
 31
0.0
  0
LINE
  5
D2
  8
図枠
  6
BORDER
 10
904.5933786536998
 20
-290.91683494540001
 30
0.0
 11
904.5933786536998
 21
-297.82883494539999
 31
0.0
  0
LINE
  5
D3
  8
図枠
  6
BORDER
 10
904.5933786536998
 20
-290.91683494540001
 30
0.0
 11
904.5933786536998
 21
-297.82883494539999
 31
0.0
  0
ARC
  5
D4
  8
図枠
 10
900.65506486820016
 20
-309.69469657190001
 30
0.0
 40
4.4000000000000004
 50
270.0
 51
302.54495885400001
  0
LINE
  5
D5
  8
図枠
 10
888.80569697039994
 20
-311.29469657189998
 30
0.0
 11
889.60569697039978
 21
-311.29469657189998
 31
0.0
  0
CIRCLE
  5
D6
  8
図枠
 10
904.5933786536998
 20
-294.37283494539997
 30
0.0
 40
2.3039999999999998
  0
LINE
  5
D7
  8
図枠
 10
909.85985946490007
 20
-293.22083494539999
 30
0.0
 11
914.46785946490013
 21
-292.0688349454
 31
0.0
  0
DIMENSION
  5
E8
  8
寸法線
  2
*D0
 10
864.21271291899996
 20
-153.50207766029999
 30
0.0
 11
869.14255644609989
 21
-153.50207766029999
 31
0.0
 70
   128
  1
<>
 13
864.21271291899996
 23
-160.9731539583
 33
0.0
 14
856.21271291899996
 24
-165.9731539583
 34
0.0
  0
DIMENSION
  5
F7
  8
寸法線
  2
*D1
 10
856.21271291899996
 20
-153.50207766029999
 30
0.0
 11
843.17287750920002
 21
-153.50207766029999
 31
0.0
 70
   128
  1
<>
 13
856.21271291899996
 23
-165.9731539583
 33
0.0
 14
848.21271291899996
 24
-160.9731539583
 34
0.0
  0
DIMENSION
  5
106
  8
寸法線
  2
*D2
 10
864.21271291899996
 20
-145.64237128010001
 30
0.0
 11
856.21271291899996
 21
-145.64237128010001
 31
0.0
 70
   128
  1
<>
 13
864.21271291899996
 23
-160.9731539583
 33
0.0
 14
848.21271291899996
 24
-160.9731539583
 34
0.0
  0
DIMENSION
  5
115
  8
寸法線
  2
*D3
 10
810.8233954932
 20
-270.39916055830003
 30
0.0
 11
810.8233954932
 21
-257.9362486747001
 31
0.0
 70
   128
  1
<>
 13
795.38678699310003
 23
-270.39916055830003
 33
0.0
 14
799.38678699310003
 24
-262.39916055830003
 34
0.0
 50
90.0
  0
DIMENSION
  5
124
  8
寸法線
  2
*D4
 10
810.8233954932
 20
-278.39916055830003
 30
0.0
 11
810.8233954932
 21
-283.51518139170003
 31
0.0
 70
   128
  1
<>
 13
799.38678699310003
 23
-278.39916055830003
 33
0.0
 14
795.38678699310003
 24
-270.39916055830003
 34
0.0
 50
90.0
  0
DIMENSION
  5
133
  8
寸法線
  2
*D5
 10
729.38678699310003
 20
-262.39916055830003
 30
0.0
 11
729.38678699310003
 21
-270.39916055830003
 31
0.0
 70
   128
  1
<>
 13
739.38678699310003
 23
-262.39916055830003
 33
0.0
 14
739.38678699310003
 24
-278.39916055830003
 34
0.0
 50
90.0
  0
DIMENSION
  5
142
  8
寸法線
  2
*D6
 10
942.17974292369991
 20
-191.91765151519999
 30
0.0
 11
922.17974292369979
 21
-191.91765151519999
 31
0.0
 70
   128
  1
%%c8
 13
942.17974292369991
 23
-206.1031539583
 33
0.0
 14
902.17974292369991
 24
-206.1031539583
 34
0.0
  0
DIMENSION
  5
151
  8
寸法線
  2
*D7
 10
742.38678699310003
 20
-149.37053117689999
 30
0.0
 11
748.44174565339995
 21
-149.37053117689999
 31
0.0
 70
   128
  1
<>t
 13
742.38678699310003
 23
-160.9731539583
 33
0.0
 14
739.38678699310003
 24
-160.9731539583
 34
0.0
  0
DIMENSION
  5
160
  8
寸法線
  2
*D8
 10
838.21271291899996
 20
-200.9731539583
 30
0.0
 11
838.21271291899996
 21
-210.9731539583
 31
0.0
 70
   128
  1
<>
 13
850.21271291899984
 23
-200.9731539583
 33
0.0
 14
848.21271291899996
 24
-220.9731539583
 34
0.0
 50
90.0
  0
DIMENSION
  5
16F
  8
寸法線
  2
*D9
 10
838.21271291899996
 20
-171.9731539583
 30
0.0
 11
838.21271291899996
 21
-186.4731539583
 31
0.0
 70
   128
  1
<>
 13
850.21271291899984
 23
-171.9731539583
 33
0.0
 14
850.21271291899984
 24
-200.9731539583
 34
0.0
 50
90.0
  0
DIMENSION
  5
17E
  8
寸法線
  2
*D10
 10
838.21271291899996
 20
-160.9731539583
 30
0.0
 11
838.21271291899996
 21
-166.4731539583
 31
0.0
 70
   128
  1
<>
 13
848.21271291899996
 23
-160.9731539583
 33
0.0
 14
850.21271291899984
 24
-171.9731539583
 34
0.0
 50
90.0
  0
DIMENSION
  5
18D
  8
寸法線
  2
*D11
 10
723.03123050500005
 20
-160.9731539583
 30
0.0
 11
723.03123050500005
 21
-190.9731539583
 31
0.0
 70
   128
  1
<>
 13
739.38678699310003
 23
-160.9731539583
 33
0.0
 14
739.38678699310003
 24
-220.9731539583
 34
0.0
 50
90.0
  0
DIMENSION
  5
19C
  8
寸法線
  2
*D12
 10
739.38678699310003
 20
-230.9731539583
 30
0.0
 11
769.38678699310003
 21
-230.9731539583
 31
0.0
 70
   128
  1
<>
 13
739.38678699310003
 23
-217.9731539583
 33
0.0
 14
799.38678699310003
 24
-220.9731539583
 34
0.0
 50
180.0
  0
DIMENSION
  5
1AA
  8
寸法線
  2
*D49
 10
771.86120076355382
 20
-200.9560932337221
 30
0.0
 11
766.28601617269987
 21
-193.74201144630001
 31
0.0
 70
   133
  1
<>
 13
742.38678699310003
 23
-160.9731539583
 33
0.0
 14
799.38678699310003
 24
-217.9731539583
 34
0.0
 15
742.38678699310003
 25
-217.9731539583
 35
0.0
1001
ACAD
1000
DSTYLE
1002
{
1070
   271
1070
     0
1002
}
  0
DIMENSION
  5
1B9
  8
寸法線
  2
*D14
 10
799.38678699310003
 20
-252.3991605583
 30
0.0
 11
793.88678699310003
 21
-252.3991605583
 31
0.0
 70
   128
  1
<>
 13
799.38678699310003
 23
-262.39916055830003
 33
0.0
 14
788.38678699310003
 24
-264.39916055830003
 34
0.0
  0
DIMENSION
  5
1C8
  8
寸法線
  2
*D15
 10
788.38678699310003
 20
-252.3991605583
 30
0.0
 11
773.88678699310003
 21
-252.3991605583
 31
0.0
 70
   128
  1
<>
 13
788.38678699310003
 23
-264.39916055830003
 33
0.0
 14
759.38678699310003
 24
-264.39916055830003
 34
0.0
  0
DIMENSION
  5
1D7
  8
寸法線
  2
*D16
 10
759.38678699310003
 20
-252.3991605583
 30
0.0
 11
749.38678699310003
 21
-252.3991605583
 31
0.0
 70
   128
  1
<>
 13
759.38678699310003
 23
-264.39916055830003
 33
0.0
 14
739.38678699310003
 24
-262.39916055830003
 34
0.0
  0
LINE
  5
1DD
  8
図枠
 10
878.52937865369995
 20
-290.12283494540009
 30
0.0
 11
878.52937865369995
 21
-298.62283494539997
 31
0.0
  0
INSERT
  5
1DE
  8
0
  6
CONTINUOUS
  2
*U50
 10
0.0
 20
0.0
 30
0.0
  0
LINE
  5
1DF
  8
図枠
  6
DOT
 10
693.52937865369995
 20
-119.8728349454
 30
0.0
 11
980.52937865369995
 21
-119.8728349454
 31
0.0
  0
LINE
  5
1E0
  8
図枠
  6
DOT
 10
693.53237865369999
 20
-321.37283494539997
 30
0.0
 11
693.53237865369999
 21
-119.8728349454
 31
0.0
  0
CIRCLE
  5
1E2
  8
ﾚｲﾔ_1
 62
     5
 10
856.21271291899996
 20
-200.9731539583
 30
0.0
 40
4.0
  0
LINE
  5
1E3
  8
ﾚｲﾔ_1
  6
BORDER
 62
     3
 10
856.21271291899996
 20
-194.9731539583
 30
0.0
 11
856.21271291899996
 21
-209.54027432859999
 31
0.0
  0
LINE
  5
1E4
  8
ﾚｲﾔ_1
 62
     5
 10
848.21271291899996
 20
-217.9731539583
 30
0.0
 11
864.21271291899996
 21
-217.9731539583
 31
0.0
  0
LINE
  5
1E5
  8
ﾚｲﾔ_1
 62
     5
 10
848.21271291899996
 20
-220.9731539583
 30
0.0
 11
864.21271291899996
 21
-220.9731539583
 31
0.0
  0
CIRCLE
  5
1E6
  8
ﾚｲﾔ_1
  6
STITCH
 10
759.38678699310003
 20
-270.39916055830003
 30
0.0
 40
4.0
  0
LINE
  5
1E7
  8
ﾚｲﾔ_1
  6
BORDER
 62
     3
 10
759.38678699310003
 20
-264.39916055830003
 30
0.0
 11
759.38678699310003
 21
-276.39916055830003
 31
0.0
  0
LINE
  5
1E8
  8
ﾚｲﾔ_1
  6
BORDER
 62
     3
 10
788.38678699310003
 20
-264.39916055830003
 30
0.0
 11
788.38678699310003
 21
-276.39916055830003
 31
0.0
  0
CIRCLE
  5
1E9
  8
ﾚｲﾔ_1
  6
STITCH
 10
788.38678699310003
 20
-270.39916055830003
 30
0.0
 40
4.0
  0
INSERT
  5
1EA
  8
0
  6
CONTINUOUS
  2
*U51
 10
0.0
 20
0.0
 30
0.0
  0
LINE
  5
1EB
  8
ﾚｲﾔ_1
 10
759.6458492467998
 20
-292.99551472500002
 30
0.0
 11
779.18863884489997
 21
-292.99551472500002
 31
0.0
  0
LINE
  5
1EC
  8
ﾚｲﾔ_1
 10
759.6458492467998
 20
-291.49551472500002
 30
0.0
 11
779.18863884489997
 21
-291.49551472500002
 31
0.0
  0
LINE
  5
1ED
  8
ﾚｲﾔ_1
 10
759.6458492467998
 20
-289.99551472500002
 30
0.0
 11
779.18863884489997
 21
-289.99551472500002
 31
0.0
  0
LINE
  5
1EE
  8
ﾚｲﾔ_1
 10
759.6458492467998
 20
-288.49551472500002
 30
0.0
 11
779.18863884489997
 21
-288.49551472500002
 31
0.0
  0
LINE
  5
1EF
  8
ﾚｲﾔ_1
 10
759.6458492467998
 20
-286.99551472500002
 30
0.0
 11
779.18863884489997
 21
-286.99551472500002
 31
0.0
  0
LINE
  5
1F0
  8
ﾚｲﾔ_1
  6
BORDER
 62
     3
 10
753.38678699310003
 20
-270.39916055830003
 30
0.0
 11
765.38678699310003
 21
-270.39916055830003
 31
0.0
  0
CIRCLE
  5
1F1
  8
ﾚｲﾔ_1
 62
     5
 10
759.38678699310003
 20
-270.39916055830003
 30
0.0
 40
2.0
  0
LINE
  5
1F2
  8
ﾚｲﾔ_1
  6
BORDER
 62
     3
 10
782.38678699310003
 20
-270.39916055830003
 30
0.0
 11
795.38678699310003
 21
-270.39916055830003
 31
0.0
  0
CIRCLE
  5
1F3
  8
ﾚｲﾔ_1
 62
     5
 10
788.38678699310003
 20
-270.39916055830003
 30
0.0
 40
2.0
  0
LINE
  5
1F4
  8
ﾚｲﾔ_1
 62
     5
 10
739.38678699310003
 20
-278.39916055830003
 30
0.0
 11
799.38678699310003
 21
-278.39916055830003
 31
0.0
  0
LINE
  5
1F5
  8
ﾚｲﾔ_1
 62
     5
 10
799.38678699310003
 20
-278.39916055830003
 30
0.0
 11
799.38678699310003
 21
-262.39916055830003
 31
0.0
  0
LINE
  5
1F6
  8
ﾚｲﾔ_1
  6
STITCH
 10
742.38678699310003
 20
-262.39916055830003
 30
0.0
 11
742.38678699310003
 21
-278.39916055830003
 31
0.0
  0
LINE
  5
1F7
  8
ﾚｲﾔ_1
 62
     5
 10
739.38678699310003
 20
-262.39916055830003
 30
0.0
 11
739.38678699310003
 21
-278.39916055830003
 31
0.0
  0
LINE
  5
1F8
  8
ﾚｲﾔ_1
 62
     5
 10
799.38678699310003
 20
-262.39916055830003
 30
0.0
 11
739.38678699310003
 21
-262.39916055830003
 31
0.0
  0
DIMENSION
  5
207
  8
寸法線
  2
*D17
 10
912.17974292369979
 20
-233.84927547890001
 30
0.0
 11
922.17974292369979
 21
-233.84927547890001
 31
0.0
 70
   128
  1
%%c4
 13
912.17974292369979
 23
-221.1031539583
 33
0.0
 14
932.17974292369991
 24
-221.1031539583
 34
0.0
 50
180.0
  0
DIMENSION
  5
214
  8
寸法線
  2
*D52
 10
933.35344475253476
 20
-184.40233102446291
 30
0.0
 11
922.17974292369979
 21
-182.93128527139999
 31
0.0
 70
   133
  1
<>
 13
901.6494128377999
 23
-205.57282387239999
 33
0.0
 14
942.71007300960002
 24
-205.57282387239999
 34
0.0
 15
922.17974292369979
 25
-226.1031539583
 35
0.0
1001
ACAD
1000
DSTYLE
1002
{
1070
   271
1070
     0
1002
}
  0
LINE
  5
215
  8
ﾚｲﾔ_1
 62
     5
 10
848.21271291899996
 20
-160.9731539583
 30
0.0
 11
848.21271291899996
 21
-220.9731539583
 31
0.0
  0
LINE
  5
216
  8
ﾚｲﾔ_1
 62
     5
 10
864.21271291899996
 20
-220.9731539583
 30
0.0
 11
864.21271291899996
 21
-160.9731539583
 31
0.0
  0
LINE
  5
217
  8
ﾚｲﾔ_1
 62
     5
 10
864.21271291899996
 20
-160.9731539583
 30
0.0
 11
848.21271291899996
 21
-160.9731539583
 31
0.0
  0
CIRCLE
  5
218
  8
ﾚｲﾔ_1
 62
     5
 10
856.21271291899996
 20
-171.9731539583
 30
0.0
 40
4.0
  0
LINE
  5
219
  8
ﾚｲﾔ_1
  6
BORDER
 62
     3
 10
856.21271291899996
 20
-165.9731539583
 30
0.0
 11
856.21271291899996
 21
-177.9731539583
 31
0.0
  0
CIRCLE
  5
21A
  8
ﾚｲﾔ_1
 62
     5
 10
856.21271291899996
 20
-171.9731539583
 30
0.0
 40
2.0
  0
LINE
  5
21B
  8
ﾚｲﾔ_1
  6
BORDER
 62
     3
 10
850.21271291899984
 20
-171.9731539583
 30
0.0
 11
862.21271291899996
 21
-171.9731539583
 31
0.0
  0
LINE
  5
21C
  8
ﾚｲﾔ_1
  6
BORDER
 62
     3
 10
850.21271291899984
 20
-200.9731539583
 30
0.0
 11
862.21271291899996
 21
-200.9731539583
 31
0.0
  0
CIRCLE
  5
21D
  8
ﾚｲﾔ_1
 62
     5
 10
856.21271291899996
 20
-200.9731539583
 30
0.0
 40
2.0
  0
LINE
  5
21E
  8
ﾚｲﾔ_1
  6
STITCH
 10
740.38678699310003
 20
-173.9731539583
 30
0.0
 11
739.38678699310003
 21
-173.9731539583
 31
0.0
  0
LINE
  5
21F
  8
ﾚｲﾔ_1
  6
STITCH
 10
740.38678699310003
 20
-169.9731539583
 30
0.0
 11
739.38678699310003
 21
-169.9731539583
 31
0.0
  0
LINE
  5
220
  8
ﾚｲﾔ_1
  6
STITCH
 10
740.38678699310003
 20
-169.9731539583
 30
0.0
 11
740.38678699310003
 21
-173.9731539583
 31
0.0
  0
LINE
  5
221
  8
ﾚｲﾔ_1
  6
STITCH
 10
742.38678699310003
 20
-175.9731539583
 30
0.0
 11
740.38678699310003
 21
-173.9731539583
 31
0.0
  0
LINE
  5
222
  8
ﾚｲﾔ_1
  6
STITCH
 10
784.38678699310003
 20
-217.9731539583
 30
0.0
 11
786.38678699310003
 21
-219.9731539583
 31
0.0
  0
LINE
  5
223
  8
ﾚｲﾔ_1
  6
STITCH
 10
790.38678699310003
 20
-219.9731539583
 30
0.0
 11
786.38678699310003
 21
-219.9731539583
 31
0.0
  0
LINE
  5
224
  8
ﾚｲﾔ_1
  6
STITCH
 10
790.38678699310003
 20
-219.9731539583
 30
0.0
 11
790.38678699310003
 21
-220.9731539583
 31
0.0
  0
LINE
  5
225
  8
ﾚｲﾔ_1
  6
STITCH
 10
786.38678699310003
 20
-219.9731539583
 30
0.0
 11
786.38678699310003
 21
-220.9731539583
 31
0.0
  0
LINE
  5
226
  8
ﾚｲﾔ_1
  6
BORDER
 62
     3
 10
788.38678699310003
 20
-223.64033283929999
 30
0.0
 11
788.38678699310003
 21
-215.71409170449999
 31
0.0
  0
LINE
  5
227
  8
ﾚｲﾔ_1
  6
STITCH
 10
792.38678699310003
 20
-217.9731539583
 30
0.0
 11
790.38678699310003
 21
-219.9731539583
 31
0.0
  0
LINE
  5
228
  8
ﾚｲﾔ_1
  6
STITCH
 10
755.38678699310003
 20
-217.9731539583
 30
0.0
 11
757.38678699310003
 21
-219.9731539583
 31
0.0
  0
LINE
  5
229
  8
ﾚｲﾔ_1
  6
STITCH
 10
761.38678699310003
 20
-219.9731539583
 30
0.0
 11
757.38678699310003
 21
-219.9731539583
 31
0.0
  0
LINE
  5
22A
  8
ﾚｲﾔ_1
  6
STITCH
 10
761.38678699310003
 20
-219.9731539583
 30
0.0
 11
761.38678699310003
 21
-220.9731539583
 31
0.0
  0
LINE
  5
22B
  8
ﾚｲﾔ_1
  6
STITCH
 10
757.38678699310003
 20
-219.9731539583
 30
0.0
 11
757.38678699310003
 21
-220.9731539583
 31
0.0
  0
LINE
  5
22C
  8
ﾚｲﾔ_1
  6
BORDER
 62
     3
 10
759.38678699310003
 20
-223.64033283929999
 30
0.0
 11
759.38678699310003
 21
-215.71409170449999
 31
0.0
  0
LINE
  5
22D
  8
ﾚｲﾔ_1
  6
STITCH
 10
763.38678699310003
 20
-217.9731539583
 30
0.0
 11
761.38678699310003
 21
-219.9731539583
 31
0.0
  0
LINE
  5
22E
  8
ﾚｲﾔ_1
 62
     5
 10
932.17974292369991
 20
-216.1031539583
 30
0.0
 11
932.17974292369991
 21
-221.1031539583
 31
0.0
  0
LINE
  5
22F
  8
ﾚｲﾔ_1
 62
     5
 10
912.17974292369979
 20
-216.1031539583
 30
0.0
 11
912.17974292369979
 21
-221.1031539583
 31
0.0
  0
LINE
  5
230
  8
ﾚｲﾔ_1
 62
     5
 10
932.17974292369991
 20
-216.1031539583
 30
0.0
 11
912.17974292369979
 21
-216.1031539583
 31
0.0
  0
LINE
  5
231
  8
ﾚｲﾔ_1
 62
     5
 10
942.17974292369991
 20
-206.1031539583
 30
0.0
 11
932.17974292369991
 21
-216.1031539583
 31
0.0
  0
LINE
  5
232
  8
ﾚｲﾔ_1
  6
BORDER
 62
     3
 10
922.17974292369979
 20
-201.6031539583
 30
0.0
 11
922.17974292369979
 21
-225.1031539583
 31
0.0
  0
LINE
  5
233
  8
ﾚｲﾔ_1
 62
     5
 10
891.69455773849995
 20
-221.1031539583
 30
0.0
 11
952.66492810879993
 21
-221.1031539583
 31
0.0
  0
LINE
  5
234
  8
ﾚｲﾔ_1
 62
     5
 10
891.69455773849995
 20
-206.1031539583
 30
0.0
 11
952.66492810879993
 21
-206.1031539583
 31
0.0
  0
LINE
  5
235
  8
ﾚｲﾔ_1
 62
     5
 10
902.17974292369991
 20
-206.1031539583
 30
0.0
 11
912.17974292369979
 21
-216.1031539583
 31
0.0
  0
LINE
  5
236
  8
ﾚｲﾔ_1
 10
907.69536517479992
 20
-245.1031539583
 30
0.0
 11
935.54073106019996
 21
-245.1031539583
 31
0.0
  0
INSERT
  5
237
  8
0
  6
CONTINUOUS
  2
*U53
 10
0.0
 20
0.0
 30
0.0
  0
ARC
  5
238
  8
ﾚｲﾔ_1
 62
     5
 10
742.38678699310003
 20
-217.9731539583
 30
0.0
 40
3.0
 50
180.0
 51
270.0
  0
LINE
  5
239
  8
ﾚｲﾔ_1
  6
STITCH
 10
740.38678699310003
 20
-202.9731539583
 30
0.0
 11
739.38678699310003
 21
-202.9731539583
 31
0.0
  0
LINE
  5
23A
  8
ﾚｲﾔ_1
  6
BORDER
 62
     3
 10
736.71960811199995
 20
-200.9731539583
 30
0.0
 11
744.64584924679991
 21
-200.9731539583
 31
0.0
  0
LINE
  5
23B
  8
ﾚｲﾔ_1
  6
STITCH
 10
742.38678699310003
 20
-196.9731539583
 30
0.0
 11
740.38678699310003
 21
-198.9731539583
 31
0.0
  0
LINE
  5
23C
  8
ﾚｲﾔ_1
  6
STITCH
 10
742.38678699310003
 20
-204.9731539583
 30
0.0
 11
740.38678699310003
 21
-202.9731539583
 31
0.0
  0
LINE
  5
23D
  8
ﾚｲﾔ_1
  6
STITCH
 10
740.38678699310003
 20
-198.9731539583
 30
0.0
 11
740.38678699310003
 21
-202.9731539583
 31
0.0
  0
LINE
  5
23E
  8
ﾚｲﾔ_1
  6
STITCH
 10
740.38678699310003
 20
-198.9731539583
 30
0.0
 11
739.38678699310003
 21
-198.9731539583
 31
0.0
  0
LINE
  5
23F
  8
ﾚｲﾔ_1
 62
     5
 10
742.38678699310003
 20
-220.9731539583
 30
0.0
 11
799.38678699310003
 21
-220.9731539583
 31
0.0
  0
LINE
  5
240
  8
ﾚｲﾔ_1
 62
     5
 10
742.38678699310003
 20
-217.9731539583
 30
0.0
 11
799.38678699310003
 21
-217.9731539583
 31
0.0
  0
LINE
  5
241
  8
ﾚｲﾔ_1
 62
     5
 10
799.38678699310003
 20
-220.9731539583
 30
0.0
 11
799.38678699310003
 21
-217.9731539583
 31
0.0
  0
LINE
  5
242
  8
ﾚｲﾔ_1
 62
     5
 10
739.38678699310003
 20
-217.9731539583
 30
0.0
 11
739.38678699310003
 21
-160.9731539583
 31
0.0
  0
LINE
  5
243
  8
ﾚｲﾔ_1
 62
     5
 10
742.38678699310003
 20
-217.9731539583
 30
0.0
 11
742.38678699310003
 21
-160.9731539583
 31
0.0
  0
LINE
  5
244
  8
ﾚｲﾔ_1
 62
     5
 10
742.38678699310003
 20
-160.9731539583
 30
0.0
 11
739.38678699310003
 21
-160.9731539583
 31
0.0
  0
LINE
  5
245
  8
ﾚｲﾔ_1
  6
STITCH
 10
742.38678699310003
 20
-167.9731539583
 30
0.0
 11
740.38678699310003
 21
-169.9731539583
 31
0.0
  0
LINE
  5
246
  8
ﾚｲﾔ_1
  6
BORDER
 62
     3
 10
736.71960811199995
 20
-171.9731539583
 30
0.0
 11
744.64584924679991
 21
-171.9731539583
 31
0.0
  0
ENDSEC
  0
EOF
