  0
SECTION
  2
HEADER
  9
$ACADVER
  1
AC1009
  9
$INSBASE
 10
0.0
 20
0.0
 30
0.0
  9
$EXTMIN
 10
-284.4841018210418
 20
-176.6035610672115
 30
-0.0015258207003583
  9
$EXTMAX
 10
289.61996016085499
 20
226.9230822598565
 30
0.0000000349246037
  9
$LIMMIN
 10
0.0
 20
0.0
  9
$LIMMAX
 10
0.0
 20
0.0
  9
$ORTHOMODE
 70
     0
  9
$REGENMODE
 70
     1
  9
$FILLMODE
 70
     1
  9
$QTEXTMODE
 70
     0
  9
$MIRRTEXT
 70
     1
  9
$DRAGMODE
 70
     2
  9
$LTSCALE
 40
1.0
  9
$OSMODE
 70
    31
  9
$ATTMODE
 70
     1
  9
$TEXTSIZE
 40
0.0
  9
$TRACEWID
 40
0.05
  9
$TEXTSTYLE
  7
STANDARD
  9
$CLAYER
  8
0
  9
$CELTYPE
  6
CONTINUOUS
  9
$CECOLOR
 62
   256
  9
$DIMSCALE
 40
1.0
  9
$DIMASZ
 40
0.18
  9
$DIMEXO
 40
0.0625
  9
$DIMDLI
 40
0.38
  9
$DIMRND
 40
0.0
  9
$DIMDLE
 40
0.0
  9
$DIMEXE
 40
0.18
  9
$DIMTP
 40
0.0
  9
$DIMTM
 40
0.0
  9
$DIMTXT
 40
0.18
  9
$DIMCEN
 40
0.09
  9
$DIMTSZ
 40
0.0
  9
$DIMTOL
 70
     0
  9
$DIMLIM
 70
     0
  9
$DIMTIH
 70
     1
  9
$DIMTOH
 70
     1
  9
$DIMSE1
 70
     0
  9
$DIMSE2
 70
     0
  9
$DIMTAD
 70
     0
  9
$DIMZIN
 70
     0
  9
$DIMBLK
  1

  9
$DIMASO
 70
     1
  9
$DIMSHO
 70
     1
  9
$DIMPOST
  1

  9
$DIMAPOST
  1

  9
$DIMALT
 70
     0
  9
$DIMALTD
 70
     2
  9
$DIMALTF
 40
25.399999999999999
  9
$DIMLFAC
 40
1.0
  9
$DIMTOFL
 70
     0
  9
$DIMTVP
 40
0.0
  9
$DIMTIX
 70
     0
  9
$DIMSOXD
 70
     0
  9
$DIMSAH
 70
     0
  9
$DIMBLK1
  1

  9
$DIMBLK2
  1

  9
$DIMSTYLE
  2
STANDARD
  9
$DIMCLRD
 70
     0
  9
$DIMCLRE
 70
     0
  9
$DIMCLRT
 70
     0
  9
$DIMTFAC
 40
1.0
  9
$DIMGAP
 40
0.09
  9
$LUNITS
 70
     2
  9
$LUPREC
 70
     4
  9
$SKETCHINC
 40
0.1
  9
$FILLETRAD
 40
0.0
  9
$AUNITS
 70
     0
  9
$AUPREC
 70
     0
  9
$MENU
  1
acad
  9
$ELEVATION
 40
0.0
  9
$PELEVATION
 40
0.0
  9
$THICKNESS
 40
0.0
  9
$LIMCHECK
 70
     0
  9
$BLIPMODE
 70
     0
  9
$CHAMFERA
 40
0.0
  9
$CHAMFERB
 40
0.0
  9
$SKPOLY
 70
     0
  9
$TDCREATE
 40
2454863.4589382522
  9
$TDUPDATE
 40
2454863.4592200122
  9
$TDINDWG
 40
0.0002945949
  9
$TDUSRTIMER
 40
0.0002942361
  9
$USRTIMER
 70
     1
  9
$ANGBASE
 50
0.0
  9
$ANGDIR
 70
     0
  9
$PDMODE
 70
     3
  9
$PDSIZE
 40
-1.0
  9
$PLINEWID
 40
0.0
  9
$COORDS
 70
     2
  9
$SPLFRAME
 70
     0
  9
$SPLINETYPE
 70
     6
  9
$SPLINESEGS
 70
     8
  9
$ATTDIA
 70
     0
  9
$ATTREQ
 70
     1
  9
$HANDLING
 70
     1
  9
$HANDSEED
  5
640
  9
$SURFTAB1
 70
     6
  9
$SURFTAB2
 70
     6
  9
$SURFTYPE
 70
     6
  9
$SURFU
 70
     6
  9
$SURFV
 70
     6
  9
$UCSNAME
  2

  9
$UCSORG
 10
0.0
 20
0.0
 30
0.0
  9
$UCSXDIR
 10
1.0
 20
0.0
 30
0.0
  9
$UCSYDIR
 10
0.0
 20
1.0
 30
0.0
  9
$PUCSNAME
  2

  9
$PUCSORG
 10
0.0
 20
0.0
 30
0.0
  9
$PUCSXDIR
 10
1.0
 20
0.0
 30
0.0
  9
$PUCSYDIR
 10
0.0
 20
1.0
 30
0.0
  9
$USERI1
 70
     0
  9
$USERI2
 70
     0
  9
$USERI3
 70
     0
  9
$USERI4
 70
     0
  9
$USERI5
 70
     0
  9
$USERR1
 40
0.0
  9
$USERR2
 40
0.0
  9
$USERR3
 40
0.0
  9
$USERR4
 40
0.0
  9
$USERR5
 40
0.0
  9
$WORLDVIEW
 70
     1
  9
$SHADEDGE
 70
     3
  9
$SHADEDIF
 70
    70
  9
$TILEMODE
 70
     1
  9
$MAXACTVP
 70
    16
  9
$PLIMCHECK
 70
     0
  9
$PEXTMIN
 10
1.0000000000000000E+020
 20
1.0000000000000000E+020
 30
1.0000000000000000E+020
  9
$PEXTMAX
 10
-1.0000000000000000E+020
 20
-1.0000000000000000E+020
 30
-1.0000000000000000E+020
  9
$PLIMMIN
 10
0.0
 20
0.0
  9
$PLIMMAX
 10
12.0
 20
9.0
  9
$UNITMODE
 70
     0
  9
$VISRETAIN
 70
     0
  9
$PLINEGEN
 70
     1
  9
$PSLTSCALE
 70
     0
  0
ENDSEC
  0
SECTION
  2
TABLES
  0
TABLE
  2
VPORT
 70
     2
  0
VPORT
  2
*ACTIVE
 70
     0
 10
0.0
 20
0.0
 11
1.0
 21
1.0
 12
2.5679291699066189
 22
25.159760596322489
 13
0.0
 23
0.0
 14
1.0
 24
1.0
 15
0.0
 25
0.0
 16
0.0
 26
0.0
 36
1.0
 17
0.0
 27
0.0
 37
0.0
 40
415.42781173343019
 41
1.3903818953323901
 42
50.0
 43
0.0
 44
0.0
 50
0.0
 51
0.0
 71
     0
 72
   100
 73
     1
 74
     1
 75
     0
 76
     0
 77
     0
 78
     0
  0
ENDTAB
  0
TABLE
  2
LTYPE
 70
    11
  0
LTYPE
  2
CONTINUOUS
 70
     0
  3
Solid line
 72
    65
 73
     0
 40
0.0
  0
LTYPE
  2
DOT
 70
     0
  3
. . . . . . . . 
 72
    65
 73
     2
 40
1.0
 49
0.0
 49
-1.0
  0
LTYPE
  2
DASHED
 70
     0
  3
___  ___  ___  ___  
 72
    65
 73
     2
 40
4.0
 49
3.0
 49
-1.0
  0
LTYPE
  2
HIDDEN
 70
     0
  3
__ __ __ __ 
 72
    65
 73
     2
 40
3.0
 49
2.0
 49
-1.0
  0
LTYPE
  2
STITCH
 70
     0
  3
_ _ _ _ 
 72
    65
 73
     2
 40
2.0
 49
1.0
 49
-1.0
  0
LTYPE
  2
CENTER
 70
     0
  3
______  __  ______  __  
 72
    65
 73
     4
 40
43.0
 49
40.0
 49
-1.0
 49
1.0
 49
-1.0
  0
LTYPE
  2
DASHDOT
 70
     0
  3
____ . ____ . 
 72
    65
 73
     4
 40
32.0
 49
30.0
 49
-1.0
 49
0.0
 49
-1.0
  0
LTYPE
  2
BORDER
 70
     0
  3
__ . __ . 
 72
    65
 73
     4
 40
22.0
 49
20.0
 49
-1.0
 49
0.0
 49
-1.0
  0
LTYPE
  2
CUTTING
 70
     0
  3
________   ___   ___   
 72
    65
 73
     6
 40
45.0
 49
40.0
 49
-1.0
 49
1.0
 49
-1.0
 49
1.0
 49
-1.0
  0
LTYPE
  2
PHANTOM
 70
     0
  3
______  __  __  
 72
    65
 73
     6
 40
35.0
 49
30.0
 49
-1.0
 49
1.0
 49
-1.0
 49
1.0
 49
-1.0
  0
LTYPE
  2
DIVIDE
 70
     0
  3
____ . . ____ . . 
 72
    65
 73
     6
 40
23.0
 49
20.0
 49
-1.0
 49
0.0
 49
-1.0
 49
0.0
 49
-1.0
  0
ENDTAB
  0
TABLE
  2
LAYER
 70
     7
  0
LAYER
  2
0
 70
     0
 62
     7
  6
CONTINUOUS
  0
LAYER
  2
図枠
 70
     0
 62
     7
  6
CONTINUOUS
  0
LAYER
  2
ﾚｲﾔ_10
 70
     0
 62
     7
  6
CONTINUOUS
  0
LAYER
  2
寸法線
 70
     0
 62
     7
  6
CONTINUOUS
  0
LAYER
  2
改訂
 70
     0
 62
     7
  6
CONTINUOUS
  0
LAYER
  2
ﾚｲﾔ_1
 70
     0
 62
     7
  6
CONTINUOUS
  0
LAYER
  2
DEFPOINTS
 70
     0
 62
     7
  6
CONTINUOUS
  0
ENDTAB
  0
TABLE
  2
STYLE
 70
     2
  0
STYLE
  2
STANDARD
 70
     0
 40
0.0
 41
1.0
 50
0.0
 71
     0
 42
0.0
  3
txt
  4
extfont
  0
STYLE
  2
ゴシック
 70
     0
 40
0.0
 41
1.0
 50
0.0
 71
     0
 42
1.7676767676767671
  3
txt
  4

  0
ENDTAB
  0
TABLE
  2
VIEW
 70
     0
  0
ENDTAB
  0
TABLE
  2
UCS
 70
     0
  0
ENDTAB
  0
TABLE
  2
APPID
 70
     2
  0
APPID
  2
ACAD
 70
     0
  0
APPID
  2
DCO15
 70
     0
  0
ENDTAB
  0
TABLE
  2
DIMSTYLE
 70
     7
  0
DIMSTYLE
  2
STANDARD
 70
     0
  3

  4

  5

  6

  7

 40
1.0
 41
0.18
 42
0.0625
 43
0.38
 44
0.18
 45
0.0
 46
0.0
 47
0.0
 48
0.0
140
0.18
141
0.09
142
0.0
143
25.399999999999999
144
1.0
145
0.0
146
1.0
147
0.09
 71
     0
 72
     0
 73
     1
 74
     1
 75
     0
 76
     0
 77
     0
 78
     0
170
     0
171
     2
172
     0
173
     0
174
     0
175
     0
176
     0
177
     0
178
     0
  0
DIMSTYLE
  2
VELDIM0
 70
     0
  3

  4

  5

  6

  7

 40
1.0
 41
6.0
 42
0.0625
 43
0.38
 44
1.0
 45
0.0
 46
5.0
 47
0.0
 48
0.0
140
5.3974999188999986
141
0.09
142
0.0
143
25.399999999999999
144
1.0
145
0.0
146
1.0
147
0.09
 71
     0
 72
     0
 73
     0
 74
     0
 75
     0
 76
     0
 77
     0
 78
     8
170
     0
171
     2
172
     0
173
     0
174
     0
175
     0
176
     0
177
     0
178
     0
  0
DIMSTYLE
  2
VELDIM1
 70
     0
  3

  4

  5

  6

  7

 40
1.0
 41
6.0
 42
0.0625
 43
0.38
 44
1.25
 45
0.0
 46
5.0
 47
0.0
 48
0.0
140
5.3974999188999986
141
0.09
142
0.0
143
25.399999999999999
144
1.0
145
0.0
146
1.0
147
0.09
 71
     0
 72
     0
 73
     0
 74
     0
 75
     0
 76
     0
 77
     0
 78
     8
170
     0
171
     2
172
     0
173
     0
174
     0
175
     0
176
     0
177
     0
178
     0
  0
DIMSTYLE
  2
VELDIM2
 70
     0
  3

  4

  5

  6

  7

 40
1.0
 41
6.0
 42
0.0625
 43
0.38
 44
1.25
 45
0.0
 46
5.0
 47
0.0
 48
0.0
140
5.3974999188999986
141
0.09
142
0.0
143
25.399999999999999
144
1.0
145
0.0
146
1.0
147
0.09
 71
     0
 72
     0
 73
     0
 74
     0
 75
     0
 76
     0
 77
     0
 78
     8
170
     0
171
     2
172
     0
173
     0
174
     0
175
     0
176
     0
177
     0
178
     0
  0
DIMSTYLE
  2
VELDIM3
 70
     0
  3

  4

  5

  6

  7

 40
1.0
 41
1.200000047699999
 42
0.0625
 43
0.38
 44
0.8000000119
 45
0.0
 46
2.0
 47
0.0
 48
0.0
140
1.079499983799999
141
0.09
142
0.0
143
25.399999999999999
144
1.0
145
0.0
146
1.0
147
0.09
 71
     0
 72
     0
 73
     0
 74
     0
 75
     0
 76
     0
 77
     0
 78
     8
170
     0
171
     2
172
     0
173
     0
174
     0
175
     0
176
     0
177
     0
178
     0
  0
DIMSTYLE
  2
VELDIM4
 70
     0
  3

  4

  5

  6

  7

 40
1.0
 41
1.200000047699999
 42
0.0625
 43
0.38
 44
1.25
 45
0.0
 46
5.0
 47
0.0
 48
0.0
140
1.079499983799999
141
0.09
142
0.0
143
25.399999999999999
144
1.0
145
0.0
146
1.0
147
0.09
 71
     0
 72
     0
 73
     0
 74
     0
 75
     0
 76
     0
 77
     0
 78
     8
170
     0
171
     2
172
     0
173
     0
174
     0
175
     0
176
     0
177
     0
178
     0
  0
DIMSTYLE
  2
基本_１_２_
 70
     0
  3

  4

  5

  6

  7

 40
0.0
 41
2.5
 42
2.5
 43
14.0
 44
2.0
 45
0.0
 46
0.0
 47
0.0
 48
0.0
140
5.0
141
2.0
142
0.0
143
0.0394
144
1.0
145
0.0
146
1.0
147
1.0
 71
     0
 72
     0
 73
     0
 74
     0
 75
     0
 76
     0
 77
     1
 78
     8
170
     0
171
     4
172
     1
173
     0
174
     0
175
     0
176
     4
177
     4
178
     4
  0
ENDTAB
  0
ENDSEC
  0
SECTION
  2
BLOCKS
  0
BLOCK
  8
0
  2
$MODEL_SPACE
 70
     0
 10
0.0
 20
0.0
 30
0.0
  3
$MODEL_SPACE
  1

  0
ENDBLK
  5
E
  8
0
  0
BLOCK
 67
     1
  8
0
  2
$PAPER_SPACE
 70
     0
 10
0.0
 20
0.0
 30
0.0
  3
$PAPER_SPACE
  1

  0
ENDBLK
  5
10
 67
     1
  8
0
  0
BLOCK
  8
0
  2
*D0
 70
     1
 10
0.0
 20
0.0
 30
0.0
  3
*D0
  1

  0
TEXT
  5
52
  8
0
 62
     0
 10
146.47226567269999
 20
97.381210923200001
 30
0.0
 40
5.3974999188999986
  1
32
  0
LINE
  5
53
  8
0
 62
     0
 10
133.64726562499999
 20
114.4287109375
 30
0.0
 11
133.64726562499999
 21
94.4287109375
 31
0.0
  0
LINE
  5
54
  8
0
 62
     0
 10
165.64726562499999
 20
113.4287109375
 30
0.0
 11
165.64726562499999
 21
94.4287109375
 31
0.0
  0
LINE
  5
55
  8
0
 62
     0
 10
133.64726562499999
 20
95.428710937499986
 30
0.0
 11
155.9972655295999
 21
95.428710937499986
 31
0.0
  0
LINE
  5
56
  8
0
 62
     0
 10
133.64726562499999
 20
95.428710937499986
 30
0.0
 11
143.29726572039999
 21
95.428710937499986
 31
0.0
  0
LINE
  5
57
  8
0
 62
     0
 10
165.64726562499999
 20
95.428710937499986
 30
0.0
 11
155.9972655295999
 21
95.428710937499986
 31
0.0
  0
LINE
  5
58
  8
0
 62
     0
 10
165.64726562499999
 20
95.428710937499986
 30
0.0
 11
143.29726572039999
 21
95.428710937499986
 31
0.0
  0
LINE
  5
59
  8
0
 62
     0
 10
165.64726562499999
 20
95.428710937499986
 30
0.0
 11
160.64726562499999
 21
95.428710937499986
 31
0.0
  0
SOLID
  5
5A
  8
0
 62
     0
 10
165.64726562499999
 20
95.428710937499986
 30
0.0
 11
159.64726562499999
 21
93.928710937500014
 31
0.0
 12
159.64726562499999
 22
96.9287109375
 32
0.0
 13
161.14726562499999
 23
95.428710937499986
 33
0.0
  0
LINE
  5
5B
  8
0
 62
     0
 10
133.64726562499999
 20
95.428710937499986
 30
0.0
 11
138.64726562499999
 21
95.428710937499986
 31
0.0
  0
SOLID
  5
5C
  8
0
 62
     0
 10
133.64726562499999
 20
95.428710937499986
 30
0.0
 11
139.64726562499999
 21
96.9287109375
 31
0.0
 12
139.64726562499999
 22
93.928710937500014
 32
0.0
 13
138.14726562499999
 23
95.428710937499986
 33
0.0
  0
ENDBLK
  5
5D
  8
0
  0
BLOCK
  8
0
  2
*D1
 70
     1
 10
0.0
 20
0.0
 30
0.0
  3
*D1
  1

  0
TEXT
  5
7B
  8
0
 62
     0
 10
27.9393151909
 20
150.33600446899999
 30
0.0
 40
5.3974999188999986
  1
R33
 50
345.0
  0
LINE
  5
7C
  8
0
 62
     0
 10
61.771713357499991
 20
138.9697394259
 30
0.0
 11
27.364089871800001
 21
148.18923435229999
 31
0.0
  0
SOLID
  5
7D
  8
0
 62
     0
 10
61.771713357499991
 20
138.9697394259
 30
0.0
 11
55.587929832100002
 21
139.0737649571
 31
0.0
 12
56.364386967399987
 22
141.97154243590001
 32
0.0
 13
57.425047139199997
 23
140.13442512879999
 33
0.0
  0
ENDBLK
  5
7E
  8
0
  0
BLOCK
  8
0
  2
*D2
 70
     1
 10
0.0
 20
0.0
 30
0.0
  3
*D2
  1

  0
TEXT
  5
82
  8
0
 62
     0
 10
80.047265720400006
 20
97.381210923200001
 30
0.0
 40
5.3974999188999986
  1
31.5
  0
LINE
  5
83
  8
0
 62
     0
 10
70.647265625000003
 20
114.4287109375
 30
0.0
 11
70.647265625000003
 21
94.4287109375
 31
0.0
  0
LINE
  5
84
  8
0
 62
     0
 10
102.147265625
 20
123.4287109375
 30
0.0
 11
102.147265625
 21
94.4287109375
 31
0.0
  0
LINE
  5
85
  8
0
 62
     0
 10
70.647265625000003
 20
95.428710937499986
 30
0.0
 11
95.922265481899998
 21
95.428710937499986
 31
0.0
  0
LINE
  5
86
  8
0
 62
     0
 10
70.647265625000003
 20
95.428710937499986
 30
0.0
 11
76.872265768100007
 21
95.428710937499986
 31
0.0
  0
LINE
  5
87
  8
0
 62
     0
 10
102.147265625
 20
95.428710937499986
 30
0.0
 11
95.922265481899998
 21
95.428710937499986
 31
0.0
  0
LINE
  5
88
  8
0
 62
     0
 10
102.147265625
 20
95.428710937499986
 30
0.0
 11
76.872265768100007
 21
95.428710937499986
 31
0.0
  0
LINE
  5
89
  8
0
 62
     0
 10
102.147265625
 20
95.428710937499986
 30
0.0
 11
97.147265625000003
 21
95.428710937499986
 31
0.0
  0
SOLID
  5
8A
  8
0
 62
     0
 10
102.147265625
 20
95.428710937499986
 30
0.0
 11
96.147265625000017
 21
93.928710937500014
 31
0.0
 12
96.147265625000017
 22
96.9287109375
 32
0.0
 13
97.647265625000017
 23
95.428710937499986
 33
0.0
  0
LINE
  5
8B
  8
0
 62
     0
 10
70.647265625000003
 20
95.428710937499986
 30
0.0
 11
75.647265625000003
 21
95.428710937499986
 31
0.0
  0
SOLID
  5
8C
  8
0
 62
     0
 10
70.647265625000003
 20
95.428710937499986
 30
0.0
 11
76.647265625000003
 21
96.9287109375
 31
0.0
 12
76.647265625000003
 22
93.928710937500014
 32
0.0
 13
75.147265625000003
 23
95.428710937499986
 33
0.0
  0
ENDBLK
  5
8D
  8
0
  0
BLOCK
  8
0
  2
*D3
 70
     1
 10
0.0
 20
0.0
 30
0.0
  3
*D3
  1

  0
TEXT
  5
91
  8
0
 62
     0
 10
111.54726572040001
 20
97.381210923200001
 30
0.0
 40
5.3974999188999986
  1
31.5
  0
LINE
  5
92
  8
0
 62
     0
 10
102.147265625
 20
123.4287109375
 30
0.0
 11
102.147265625
 21
94.4287109375
 31
0.0
  0
LINE
  5
93
  8
0
 62
     0
 10
133.64726562499999
 20
114.4287109375
 30
0.0
 11
133.64726562499999
 21
94.4287109375
 31
0.0
  0
LINE
  5
94
  8
0
 62
     0
 10
102.147265625
 20
95.428710937499986
 30
0.0
 11
127.4222654819
 21
95.428710937499986
 31
0.0
  0
LINE
  5
95
  8
0
 62
     0
 10
102.147265625
 20
95.428710937499986
 30
0.0
 11
108.37226576809999
 21
95.428710937499986
 31
0.0
  0
LINE
  5
96
  8
0
 62
     0
 10
133.64726562499999
 20
95.428710937499986
 30
0.0
 11
127.4222654819
 21
95.428710937499986
 31
0.0
  0
LINE
  5
97
  8
0
 62
     0
 10
133.64726562499999
 20
95.428710937499986
 30
0.0
 11
108.37226576809999
 21
95.428710937499986
 31
0.0
  0
LINE
  5
98
  8
0
 62
     0
 10
133.64726562499999
 20
95.428710937499986
 30
0.0
 11
128.64726562499999
 21
95.428710937499986
 31
0.0
  0
SOLID
  5
99
  8
0
 62
     0
 10
133.64726562499999
 20
95.428710937499986
 30
0.0
 11
127.647265625
 21
93.928710937500014
 31
0.0
 12
127.647265625
 22
96.9287109375
 32
0.0
 13
129.14726562499999
 23
95.428710937499986
 33
0.0
  0
LINE
  5
9A
  8
0
 62
     0
 10
102.147265625
 20
95.428710937499986
 30
0.0
 11
107.147265625
 21
95.428710937499986
 31
0.0
  0
SOLID
  5
9B
  8
0
 62
     0
 10
102.147265625
 20
95.428710937499986
 30
0.0
 11
108.147265625
 21
96.9287109375
 31
0.0
 12
108.147265625
 22
93.928710937500014
 32
0.0
 13
106.647265625
 23
95.428710937499986
 33
0.0
  0
ENDBLK
  5
9C
  8
0
  0
BLOCK
  8
0
  2
*D4
 70
     1
 10
0.0
 20
0.0
 30
0.0
  3
*D4
  1

  0
TEXT
  5
A0
  8
0
 62
     0
 10
62.472265672700011
 20
97.381210923200001
 30
0.0
 40
5.3974999188999986
  1
10
  0
LINE
  5
A1
  8
0
 62
     0
 10
60.647265625000003
 20
128.4287109375
 30
0.0
 11
60.647265625000003
 21
94.4287109375
 31
0.0
  0
LINE
  5
A2
  8
0
 62
     0
 10
70.647265625000003
 20
114.4287109375
 30
0.0
 11
70.647265625000003
 21
94.4287109375
 31
0.0
  0
LINE
  5
A3
  8
0
 62
     0
 10
60.647265625000003
 20
95.428710937499986
 30
0.0
 11
60.647265625000003
 21
95.428710937499986
 31
0.0
  0
LINE
  5
A4
  8
0
 62
     0
 10
60.647265625000003
 20
95.428710937499986
 30
0.0
 11
70.647265625000003
 21
95.428710937499986
 31
0.0
  0
LINE
  5
A5
  8
0
 62
     0
 10
70.647265625000003
 20
95.428710937499986
 30
0.0
 11
60.647265625000003
 21
95.428710937499986
 31
0.0
  0
LINE
  5
A6
  8
0
 62
     0
 10
70.647265625000003
 20
95.428710937499986
 30
0.0
 11
70.647265625000003
 21
95.428710937499986
 31
0.0
  0
LINE
  5
A7
  8
0
 62
     0
 10
70.647265625000003
 20
95.428710937499986
 30
0.0
 11
75.647265625000003
 21
95.428710937499986
 31
0.0
  0
SOLID
  5
A8
  8
0
 62
     0
 10
70.647265625000003
 20
95.428710937499986
 30
0.0
 11
76.647265625000003
 21
96.9287109375
 31
0.0
 12
76.647265625000003
 22
93.928710937500014
 32
0.0
 13
75.147265625000003
 23
95.428710937499986
 33
0.0
  0
LINE
  5
A9
  8
0
 62
     0
 10
60.647265625000003
 20
95.428710937499986
 30
0.0
 11
55.647265625000003
 21
95.428710937499986
 31
0.0
  0
SOLID
  5
AA
  8
0
 62
     0
 10
60.647265625000003
 20
95.428710937499986
 30
0.0
 11
54.647265625000003
 21
93.928710937500014
 31
0.0
 12
54.647265625000003
 22
96.9287109375
 32
0.0
 13
56.147265625000003
 23
95.428710937499986
 33
0.0
  0
ENDBLK
  5
AB
  8
0
  0
BLOCK
  8
0
  2
*D5
 70
     1
 10
0.0
 20
0.0
 30
0.0
  3
*D5
  1

  0
TEXT
  5
15D
  8
0
 62
     0
 10
-35.8446132977
 20
149.33401441390001
 30
0.0
 40
5.3974999188999986
  1
R33
 50
15.0
  0
LINE
  5
15E
  8
0
 62
     0
 10
-65.937533669999993
 20
138.9697394259
 30
0.0
 11
-23.002130169000001
 21
150.4742461207
 31
0.0
  0
SOLID
  5
15F
  8
0
 62
     0
 10
-65.937533669999993
 20
138.9697394259
 30
0.0
 11
-60.53020727989999
 21
141.97154243590001
 31
0.0
 12
-59.753750144599991
 22
139.0737649571
 32
0.0
 13
-61.590867451699999
 23
140.13442512879999
 33
0.0
  0
ENDBLK
  5
160
  8
0
  0
BLOCK
  8
0
  2
*D6
 70
     1
 10
0.0
 20
0.0
 30
0.0
  3
*D6
  1

  0
TEXT
  5
164
  8
0
 62
     0
 10
-50.371709009799993
 20
152.4869140863
 30
0.0
 40
5.3974999188999986
  1
6
 50
90.0
  0
LINE
  5
165
  8
0
 62
     0
 10
-67.813085937500006
 20
139.4287109375
 30
0.0
 11
-47.419209024099999
 21
139.4287109375
 31
0.0
  0
LINE
  5
166
  8
0
 62
     0
 10
-66.419209024099985
 20
145.4287109375
 30
0.0
 11
-47.419209024099999
 21
145.4287109375
 31
0.0
  0
LINE
  5
167
  8
0
 62
     0
 10
-48.419209024099999
 20
139.4287109375
 30
0.0
 11
-48.419209024099999
 21
158.83691399099999
 31
0.0
  0
LINE
  5
168
  8
0
 62
     0
 10
-48.419209024099999
 20
139.4287109375
 30
0.0
 11
-48.419209024099999
 21
149.31191413400001
 31
0.0
  0
LINE
  5
169
  8
0
 62
     0
 10
-48.419209024099999
 20
145.4287109375
 30
0.0
 11
-48.419209024099999
 21
158.83691399099999
 31
0.0
  0
LINE
  5
16A
  8
0
 62
     0
 10
-48.419209024099999
 20
145.4287109375
 30
0.0
 11
-48.419209024099999
 21
149.31191413400001
 31
0.0
  0
LINE
  5
16B
  8
0
 62
     0
 10
-48.419209024099999
 20
145.4287109375
 30
0.0
 11
-48.419209024099999
 21
150.4287109375
 31
0.0
  0
SOLID
  5
16C
  8
0
 62
     0
 10
-48.419209024099999
 20
145.4287109375
 30
0.0
 11
-49.919209024099999
 21
151.4287109375
 31
0.0
 12
-46.919209024099992
 22
151.4287109375
 32
0.0
 13
-48.419209024099999
 23
149.9287109375
 33
0.0
  0
LINE
  5
16D
  8
0
 62
     0
 10
-48.419209024099999
 20
139.4287109375
 30
0.0
 11
-48.419209024099999
 21
134.4287109375
 31
0.0
  0
SOLID
  5
16E
  8
0
 62
     0
 10
-48.419209024099999
 20
139.4287109375
 30
0.0
 11
-46.919209024099992
 21
133.4287109375
 31
0.0
 12
-49.919209024099999
 22
133.4287109375
 32
0.0
 13
-48.419209024099999
 23
134.9287109375
 33
0.0
  0
ENDBLK
  5
16F
  8
0
  0
BLOCK
  8
0
  2
*D7
 70
     1
 10
0.0
 20
0.0
 30
0.0
  3
*D7
  1

  0
TEXT
  5
173
  8
0
 62
     0
 10
-50.371709009799993
 20
127.2537109852
 30
0.0
 40
5.3974999188999986
  1
18
 50
90.0
  0
LINE
  5
174
  8
0
 62
     0
 10
-67.813085937500006
 20
121.4287109375
 30
0.0
 11
-47.419209024099999
 21
121.4287109375
 31
0.0
  0
LINE
  5
175
  8
0
 62
     0
 10
-67.813085937500006
 20
139.4287109375
 30
0.0
 11
-47.419209024099999
 21
139.4287109375
 31
0.0
  0
LINE
  5
176
  8
0
 62
     0
 10
-48.419209024099999
 20
121.4287109375
 30
0.0
 11
-48.419209024099999
 21
136.7787108421
 31
0.0
  0
LINE
  5
177
  8
0
 62
     0
 10
-48.419209024099999
 20
121.4287109375
 30
0.0
 11
-48.419209024099999
 21
124.0787110329
 31
0.0
  0
LINE
  5
178
  8
0
 62
     0
 10
-48.419209024099999
 20
139.4287109375
 30
0.0
 11
-48.419209024099999
 21
136.7787108421
 31
0.0
  0
LINE
  5
179
  8
0
 62
     0
 10
-48.419209024099999
 20
139.4287109375
 30
0.0
 11
-48.419209024099999
 21
124.0787110329
 31
0.0
  0
LINE
  5
17A
  8
0
 62
     0
 10
-48.419209024099999
 20
139.4287109375
 30
0.0
 11
-48.419209024099999
 21
144.4287109375
 31
0.0
  0
SOLID
  5
17B
  8
0
 62
     0
 10
-48.419209024099999
 20
139.4287109375
 30
0.0
 11
-49.919209024099999
 21
145.4287109375
 31
0.0
 12
-46.919209024099992
 22
145.4287109375
 32
0.0
 13
-48.419209024099999
 23
143.9287109375
 33
0.0
  0
LINE
  5
17C
  8
0
 62
     0
 10
-48.419209024099999
 20
121.4287109375
 30
0.0
 11
-48.419209024099999
 21
116.4287109375
 31
0.0
  0
SOLID
  5
17D
  8
0
 62
     0
 10
-48.419209024099999
 20
121.4287109375
 30
0.0
 11
-46.919209024099992
 21
115.4287109375
 31
0.0
 12
-49.919209024099999
 22
115.4287109375
 32
0.0
 13
-48.419209024099999
 23
116.9287109375
 33
0.0
  0
ENDBLK
  5
17E
  8
0
  0
BLOCK
  8
0
  2
*D8
 70
     1
 10
0.0
 20
0.0
 30
0.0
  3
*D8
  1

  0
TEXT
  5
182
  8
0
 62
     0
 10
-72.98808588979999
 20
98.381210923200015
 30
0.0
 40
5.3974999188999986
  1
10
  0
LINE
  5
183
  8
0
 62
     0
 10
-74.813085937500006
 20
114.4287109375
 30
0.0
 11
-74.813085937500006
 21
95.428710937499986
 31
0.0
  0
LINE
  5
184
  8
0
 62
     0
 10
-64.813085937500006
 20
128.4287109375
 30
0.0
 11
-64.813085937500006
 21
95.428710937499986
 31
0.0
  0
LINE
  5
185
  8
0
 62
     0
 10
-74.813085937500006
 20
96.428710937500014
 30
0.0
 11
-74.813085937500006
 21
96.428710937500014
 31
0.0
  0
LINE
  5
186
  8
0
 62
     0
 10
-74.813085937500006
 20
96.428710937500014
 30
0.0
 11
-64.813085937500006
 21
96.428710937500014
 31
0.0
  0
LINE
  5
187
  8
0
 62
     0
 10
-64.813085937500006
 20
96.428710937500014
 30
0.0
 11
-74.813085937500006
 21
96.428710937500014
 31
0.0
  0
LINE
  5
188
  8
0
 62
     0
 10
-64.813085937500006
 20
96.428710937500014
 30
0.0
 11
-64.813085937500006
 21
96.428710937500014
 31
0.0
  0
LINE
  5
189
  8
0
 62
     0
 10
-64.813085937500006
 20
96.428710937500014
 30
0.0
 11
-59.813085937499999
 21
96.428710937500014
 31
0.0
  0
SOLID
  5
18A
  8
0
 62
     0
 10
-64.813085937500006
 20
96.428710937500014
 30
0.0
 11
-58.813085937499999
 21
97.928710937500014
 31
0.0
 12
-58.813085937499999
 22
94.9287109375
 32
0.0
 13
-60.313085937499999
 23
96.428710937500014
 33
0.0
  0
LINE
  5
18B
  8
0
 62
     0
 10
-74.813085937500006
 20
96.428710937500014
 30
0.0
 11
-79.813085937500006
 21
96.428710937500014
 31
0.0
  0
SOLID
  5
18C
  8
0
 62
     0
 10
-74.813085937500006
 20
96.428710937500014
 30
0.0
 11
-80.813085937500006
 21
94.9287109375
 31
0.0
 12
-80.813085937500006
 22
97.928710937500014
 32
0.0
 13
-79.313085937500006
 23
96.428710937500014
 33
0.0
  0
ENDBLK
  5
18D
  8
0
  0
BLOCK
  8
0
  2
*D9
 70
     1
 10
0.0
 20
0.0
 30
0.0
  3
*D9
  1

  0
TEXT
  5
191
  8
0
 62
     0
 10
-50.371709009799993
 20
105.3580078363
 30
0.0
 40
5.3974999188999986
  1
6
 50
90.0
  0
LINE
  5
192
  8
0
 62
     0
 10
-66.419209024099985
 20
115.4287109375
 30
0.0
 11
-47.419209024099999
 21
115.4287109375
 31
0.0
  0
LINE
  5
193
  8
0
 62
     0
 10
-67.813085937500006
 20
121.4287109375
 30
0.0
 11
-47.419209024099999
 21
121.4287109375
 31
0.0
  0
LINE
  5
194
  8
0
 62
     0
 10
-48.419209024099999
 20
115.4287109375
 30
0.0
 11
-48.419209024099999
 21
111.708007741
 31
0.0
  0
LINE
  5
195
  8
0
 62
     0
 10
-48.419209024099999
 20
115.4287109375
 30
0.0
 11
-48.419209024099999
 21
102.18300788400001
 31
0.0
  0
LINE
  5
196
  8
0
 62
     0
 10
-48.419209024099999
 20
121.4287109375
 30
0.0
 11
-48.419209024099999
 21
111.708007741
 31
0.0
  0
LINE
  5
197
  8
0
 62
     0
 10
-48.419209024099999
 20
121.4287109375
 30
0.0
 11
-48.419209024099999
 21
102.18300788400001
 31
0.0
  0
LINE
  5
198
  8
0
 62
     0
 10
-48.419209024099999
 20
121.4287109375
 30
0.0
 11
-48.419209024099999
 21
126.4287109375
 31
0.0
  0
SOLID
  5
199
  8
0
 62
     0
 10
-48.419209024099999
 20
121.4287109375
 30
0.0
 11
-49.919209024099999
 21
127.4287109375
 31
0.0
 12
-46.919209024099992
 22
127.4287109375
 32
0.0
 13
-48.419209024099999
 23
125.9287109375
 33
0.0
  0
LINE
  5
19A
  8
0
 62
     0
 10
-48.419209024099999
 20
115.4287109375
 30
0.0
 11
-48.419209024099999
 21
110.4287109375
 31
0.0
  0
SOLID
  5
19B
  8
0
 62
     0
 10
-48.419209024099999
 20
115.4287109375
 30
0.0
 11
-46.919209024099992
 21
109.4287109375
 31
0.0
 12
-49.919209024099999
 22
109.4287109375
 32
0.0
 13
-48.419209024099999
 23
110.9287109375
 33
0.0
  0
ENDBLK
  5
19C
  8
0
  0
BLOCK
  8
0
  2
*D10
 70
     1
 10
0.0
 20
0.0
 30
0.0
  3
*D10
  1

  0
TEXT
  5
1BC
  8
0
 62
     0
 10
-122.075585866
 20
-86.112734389300002
 30
0.0
 40
5.3974999188999986
  1
105
  0
LINE
  5
1BD
  8
0
 62
     0
 10
-169.81308593750001
 20
-65.065234375000003
 30
0.0
 11
-169.81308593750001
 21
-89.065234375000003
 31
0.0
  0
LINE
  5
1BE
  8
0
 62
     0
 10
-64.813085937500006
 20
-70.065234375000003
 30
0.0
 11
-64.813085937500006
 21
-89.065234375000003
 31
0.0
  0
LINE
  5
1BF
  8
0
 62
     0
 10
-169.81308593750001
 20
-88.065234375000003
 30
0.0
 11
-109.3755860567
 21
-88.065234375000003
 31
0.0
  0
LINE
  5
1C0
  8
0
 62
     0
 10
-169.81308593750001
 20
-88.065234375000003
 30
0.0
 11
-125.2505858183
 21
-88.065234375000003
 31
0.0
  0
LINE
  5
1C1
  8
0
 62
     0
 10
-64.813085937500006
 20
-88.065234375000003
 30
0.0
 11
-109.3755860567
 21
-88.065234375000003
 31
0.0
  0
LINE
  5
1C2
  8
0
 62
     0
 10
-64.813085937500006
 20
-88.065234375000003
 30
0.0
 11
-125.2505858183
 21
-88.065234375000003
 31
0.0
  0
LINE
  5
1C3
  8
0
 62
     0
 10
-64.813085937500006
 20
-88.065234375000003
 30
0.0
 11
-69.813085937500006
 21
-88.065234375000003
 31
0.0
  0
SOLID
  5
1C4
  8
0
 62
     0
 10
-64.813085937500006
 20
-88.065234375000003
 30
0.0
 11
-70.813085937500006
 21
-89.565234375000017
 31
0.0
 12
-70.813085937500006
 22
-86.565234375000003
 32
0.0
 13
-69.313085937500006
 23
-88.065234375000003
 33
0.0
  0
LINE
  5
1C5
  8
0
 62
     0
 10
-169.81308593750001
 20
-88.065234375000003
 30
0.0
 11
-164.81308593750001
 21
-88.065234375000003
 31
0.0
  0
SOLID
  5
1C6
  8
0
 62
     0
 10
-169.81308593750001
 20
-88.065234375000003
 30
0.0
 11
-163.81308593750001
 21
-86.565234375000003
 31
0.0
 12
-163.81308593750001
 22
-89.565234375000017
 32
0.0
 13
-165.31308593750001
 23
-88.065234375000003
 33
0.0
  0
ENDBLK
  5
1C7
  8
0
  0
BLOCK
  8
0
  2
*D11
 70
     1
 10
0.0
 20
0.0
 30
0.0
  3
*D11
  1

  0
TEXT
  5
1CE
  8
0
 62
     0
 10
-156.9880858898
 20
98.381210923200015
 30
0.0
 40
5.3974999188999986
  1
32
  0
LINE
  5
1CF
  8
0
 62
     0
 10
-169.81308593750001
 20
113.4287109375
 30
0.0
 11
-169.81308593750001
 21
95.428710937499986
 31
0.0
  0
LINE
  5
1D0
  8
0
 62
     0
 10
-137.81308593750001
 20
114.4287109375
 30
0.0
 11
-137.81308593750001
 21
95.428710937499986
 31
0.0
  0
LINE
  5
1D1
  8
0
 62
     0
 10
-169.81308593750001
 20
96.428710937500014
 30
0.0
 11
-147.46308603290001
 21
96.428710937500014
 31
0.0
  0
LINE
  5
1D2
  8
0
 62
     0
 10
-169.81308593750001
 20
96.428710937500014
 30
0.0
 11
-160.1630858421
 21
96.428710937500014
 31
0.0
  0
LINE
  5
1D3
  8
0
 62
     0
 10
-137.81308593750001
 20
96.428710937500014
 30
0.0
 11
-147.46308603290001
 21
96.428710937500014
 31
0.0
  0
LINE
  5
1D4
  8
0
 62
     0
 10
-137.81308593750001
 20
96.428710937500014
 30
0.0
 11
-160.1630858421
 21
96.428710937500014
 31
0.0
  0
LINE
  5
1D5
  8
0
 62
     0
 10
-137.81308593750001
 20
96.428710937500014
 30
0.0
 11
-142.81308593750001
 21
96.428710937500014
 31
0.0
  0
SOLID
  5
1D6
  8
0
 62
     0
 10
-137.81308593750001
 20
96.428710937500014
 30
0.0
 11
-143.81308593750001
 21
94.9287109375
 31
0.0
 12
-143.81308593750001
 22
97.928710937500014
 32
0.0
 13
-142.31308593750001
 23
96.428710937500014
 33
0.0
  0
LINE
  5
1D7
  8
0
 62
     0
 10
-169.81308593750001
 20
96.428710937500014
 30
0.0
 11
-164.81308593750001
 21
96.428710937500014
 31
0.0
  0
SOLID
  5
1D8
  8
0
 62
     0
 10
-169.81308593750001
 20
96.428710937500014
 30
0.0
 11
-163.81308593750001
 21
97.928710937500014
 31
0.0
 12
-163.81308593750001
 22
94.9287109375
 32
0.0
 13
-165.31308593750001
 23
96.428710937500014
 33
0.0
  0
ENDBLK
  5
1D9
  8
0
  0
BLOCK
  8
0
  2
*D12
 70
     1
 10
0.0
 20
0.0
 30
0.0
  3
*D12
  1

  0
TEXT
  5
1DD
  8
0
 62
     0
 10
-163.1696332233
 20
58.887265610699998
 30
0.0
 40
5.3974999188999986
  1
3t
  0
LINE
  5
1DE
  8
0
 62
     0
 10
-166.81308593750001
 20
38.934765624999997
 30
0.0
 11
-166.81308593750001
 21
57.934765624999997
 31
0.0
  0
LINE
  5
1DF
  8
0
 62
     0
 10
-169.81308593750001
 20
38.934765624999997
 30
0.0
 11
-169.81308593750001
 21
57.934765624999997
 31
0.0
  0
LINE
  5
1E0
  8
0
 62
     0
 10
-166.81308593750001
 20
56.93476562499999
 30
0.0
 11
-153.64463336630001
 21
56.93476562499999
 31
0.0
  0
LINE
  5
1E1
  8
0
 62
     0
 10
-166.81308593750001
 20
56.93476562499999
 30
0.0
 11
-166.34463317559999
 21
56.93476562499999
 31
0.0
  0
LINE
  5
1E2
  8
0
 62
     0
 10
-169.81308593750001
 20
56.93476562499999
 30
0.0
 11
-153.64463336630001
 21
56.93476562499999
 31
0.0
  0
LINE
  5
1E3
  8
0
 62
     0
 10
-169.81308593750001
 20
56.93476562499999
 30
0.0
 11
-166.34463317559999
 21
56.93476562499999
 31
0.0
  0
LINE
  5
1E4
  8
0
 62
     0
 10
-169.81308593750001
 20
56.93476562499999
 30
0.0
 11
-174.81308593750001
 21
56.93476562499999
 31
0.0
  0
SOLID
  5
1E5
  8
0
 62
     0
 10
-169.81308593750001
 20
56.93476562499999
 30
0.0
 11
-175.81308593750001
 21
55.434765624999997
 31
0.0
 12
-175.81308593750001
 22
58.434765624999997
 32
0.0
 13
-174.31308593750001
 23
56.93476562499999
 33
0.0
  0
LINE
  5
1E6
  8
0
 62
     0
 10
-166.81308593750001
 20
56.93476562499999
 30
0.0
 11
-161.81308593750001
 21
56.93476562499999
 31
0.0
  0
SOLID
  5
1E7
  8
0
 62
     0
 10
-166.81308593750001
 20
56.93476562499999
 30
0.0
 11
-160.81308593750001
 21
58.434765624999997
 31
0.0
 12
-160.81308593750001
 22
55.434765624999997
 32
0.0
 13
-162.31308593750001
 23
56.93476562499999
 33
0.0
  0
ENDBLK
  5
1E8
  8
0
  0
BLOCK
  8
0
  2
*D13
 70
     1
 10
0.0
 20
0.0
 30
0.0
  3
*D13
  1

  0
TEXT
  5
1EC
  8
0
 62
     0
 10
-209.07708293889999
 20
127.2537109852
 30
0.0
 40
5.3974999188999986
  1
30
 50
90.0
  0
LINE
  5
1ED
  8
0
 62
     0
 10
-171.81308593750001
 20
145.4287109375
 30
0.0
 11
-208.12458295319999
 21
145.4287109375
 31
0.0
  0
LINE
  5
1EE
  8
0
 62
     0
 10
-171.81308593750001
 20
115.4287109375
 30
0.0
 11
-208.12458295319999
 21
115.4287109375
 31
0.0
  0
LINE
  5
1EF
  8
0
 62
     0
 10
-207.12458295319999
 20
145.4287109375
 30
0.0
 11
-207.12458295319999
 21
136.7787108421
 31
0.0
  0
LINE
  5
1F0
  8
0
 62
     0
 10
-207.12458295319999
 20
145.4287109375
 30
0.0
 11
-207.12458295319999
 21
124.0787110329
 31
0.0
  0
LINE
  5
1F1
  8
0
 62
     0
 10
-207.12458295319999
 20
115.4287109375
 30
0.0
 11
-207.12458295319999
 21
136.7787108421
 31
0.0
  0
LINE
  5
1F2
  8
0
 62
     0
 10
-207.12458295319999
 20
115.4287109375
 30
0.0
 11
-207.12458295319999
 21
124.0787110329
 31
0.0
  0
LINE
  5
1F3
  8
0
 62
     0
 10
-207.12458295319999
 20
115.4287109375
 30
0.0
 11
-207.12458295319999
 21
120.4287109375
 31
0.0
  0
SOLID
  5
1F4
  8
0
 62
     0
 10
-207.12458295319999
 20
115.4287109375
 30
0.0
 11
-208.62458295319999
 21
121.4287109375
 31
0.0
 12
-205.62458295319999
 22
121.4287109375
 32
0.0
 13
-207.12458295319999
 23
119.9287109375
 33
0.0
  0
LINE
  5
1F5
  8
0
 62
     0
 10
-207.12458295319999
 20
145.4287109375
 30
0.0
 11
-207.12458295319999
 21
140.4287109375
 31
0.0
  0
SOLID
  5
1F6
  8
0
 62
     0
 10
-207.12458295319999
 20
145.4287109375
 30
0.0
 11
-205.62458295319999
 21
139.4287109375
 31
0.0
 12
-208.62458295319999
 22
139.4287109375
 32
0.0
 13
-207.12458295319999
 23
140.9287109375
 33
0.0
  0
ENDBLK
  5
1F7
  8
0
  0
BLOCK
  8
0
  2
*D14
 70
     1
 10
0.0
 20
0.0
 30
0.0
  3
*D14
  1

  0
TEXT
  5
1FB
  8
0
 62
     0
 10
-191.76558592320001
 20
134.7537109852
 30
0.0
 40
5.3974999188999986
  1
15
 50
90.0
  0
LINE
  5
1FC
  8
0
 62
     0
 10
-171.81308593750001
 20
145.4287109375
 30
0.0
 11
-190.81308593750001
 21
145.4287109375
 31
0.0
  0
LINE
  5
1FD
  8
0
 62
     0
 10
-113.31308593750001
 20
130.4287109375
 30
0.0
 11
-190.81308593750001
 21
130.4287109375
 31
0.0
  0
LINE
  5
1FE
  8
0
 62
     0
 10
-189.81308593750001
 20
145.4287109375
 30
0.0
 11
-189.81308593750001
 21
144.2787108421
 31
0.0
  0
LINE
  5
1FF
  8
0
 62
     0
 10
-189.81308593750001
 20
145.4287109375
 30
0.0
 11
-189.81308593750001
 21
131.5787110329
 31
0.0
  0
LINE
  5
200
  8
0
 62
     0
 10
-189.81308593750001
 20
130.4287109375
 30
0.0
 11
-189.81308593750001
 21
144.2787108421
 31
0.0
  0
LINE
  5
201
  8
0
 62
     0
 10
-189.81308593750001
 20
130.4287109375
 30
0.0
 11
-189.81308593750001
 21
131.5787110329
 31
0.0
  0
LINE
  5
202
  8
0
 62
     0
 10
-189.81308593750001
 20
130.4287109375
 30
0.0
 11
-189.81308593750001
 21
125.4287109375
 31
0.0
  0
SOLID
  5
203
  8
0
 62
     0
 10
-189.81308593750001
 20
130.4287109375
 30
0.0
 11
-188.31308593750001
 21
124.4287109375
 31
0.0
 12
-191.31308593750001
 22
124.4287109375
 32
0.0
 13
-189.81308593750001
 23
125.9287109375
 33
0.0
  0
LINE
  5
204
  8
0
 62
     0
 10
-189.81308593750001
 20
145.4287109375
 30
0.0
 11
-189.81308593750001
 21
150.4287109375
 31
0.0
  0
SOLID
  5
205
  8
0
 62
     0
 10
-189.81308593750001
 20
145.4287109375
 30
0.0
 11
-191.31308593750001
 21
151.4287109375
 31
0.0
 12
-188.31308593750001
 22
151.4287109375
 32
0.0
 13
-189.81308593750001
 23
149.9287109375
 33
0.0
  0
ENDBLK
  5
206
  8
0
  0
BLOCK
  8
0
  2
*D15
 70
     1
 10
0.0
 20
0.0
 30
0.0
  3
*D15
  1

  0
TEXT
  5
20A
  8
0
 62
     0
 10
-191.76558592320001
 20
119.7537109852
 30
0.0
 40
5.3974999188999986
  1
15
 50
90.0
  0
LINE
  5
20B
  8
0
 62
     0
 10
-113.31308593750001
 20
130.4287109375
 30
0.0
 11
-190.81308593750001
 21
130.4287109375
 31
0.0
  0
LINE
  5
20C
  8
0
 62
     0
 10
-171.81308593750001
 20
115.4287109375
 30
0.0
 11
-190.81308593750001
 21
115.4287109375
 31
0.0
  0
LINE
  5
20D
  8
0
 62
     0
 10
-189.81308593750001
 20
130.4287109375
 30
0.0
 11
-189.81308593750001
 21
129.2787108421
 31
0.0
  0
LINE
  5
20E
  8
0
 62
     0
 10
-189.81308593750001
 20
130.4287109375
 30
0.0
 11
-189.81308593750001
 21
116.5787110329
 31
0.0
  0
LINE
  5
20F
  8
0
 62
     0
 10
-189.81308593750001
 20
115.4287109375
 30
0.0
 11
-189.81308593750001
 21
129.2787108421
 31
0.0
  0
LINE
  5
210
  8
0
 62
     0
 10
-189.81308593750001
 20
115.4287109375
 30
0.0
 11
-189.81308593750001
 21
116.5787110329
 31
0.0
  0
LINE
  5
211
  8
0
 62
     0
 10
-189.81308593750001
 20
115.4287109375
 30
0.0
 11
-189.81308593750001
 21
110.4287109375
 31
0.0
  0
SOLID
  5
212
  8
0
 62
     0
 10
-189.81308593750001
 20
115.4287109375
 30
0.0
 11
-188.31308593750001
 21
109.4287109375
 31
0.0
 12
-191.31308593750001
 22
109.4287109375
 32
0.0
 13
-189.81308593750001
 23
110.9287109375
 33
0.0
  0
LINE
  5
213
  8
0
 62
     0
 10
-189.81308593750001
 20
130.4287109375
 30
0.0
 11
-189.81308593750001
 21
135.4287109375
 31
0.0
  0
SOLID
  5
214
  8
0
 62
     0
 10
-189.81308593750001
 20
130.4287109375
 30
0.0
 11
-191.31308593750001
 21
136.4287109375
 31
0.0
 12
-188.31308593750001
 22
136.4287109375
 32
0.0
 13
-189.81308593750001
 23
134.9287109375
 33
0.0
  0
ENDBLK
  5
215
  8
0
  0
BLOCK
  8
0
  2
*D16
 70
     1
 10
0.0
 20
0.0
 30
0.0
  3
*D16
  1

  0
TEXT
  5
219
  8
0
 62
     0
 10
-96.913085842099974
 20
98.381210923200015
 30
0.0
 40
5.3974999188999986
  1
31.5
  0
LINE
  5
21A
  8
0
 62
     0
 10
-106.31308593750001
 20
123.4287109375
 30
0.0
 11
-106.31308593750001
 21
95.428710937499986
 31
0.0
  0
LINE
  5
21B
  8
0
 62
     0
 10
-74.813085937500006
 20
114.4287109375
 30
0.0
 11
-74.813085937500006
 21
95.428710937499986
 31
0.0
  0
LINE
  5
21C
  8
0
 62
     0
 10
-106.31308593750001
 20
96.428710937500014
 30
0.0
 11
-81.03808608060001
 21
96.428710937500014
 31
0.0
  0
LINE
  5
21D
  8
0
 62
     0
 10
-106.31308593750001
 20
96.428710937500014
 30
0.0
 11
-100.0880857944
 21
96.428710937500014
 31
0.0
  0
LINE
  5
21E
  8
0
 62
     0
 10
-74.813085937500006
 20
96.428710937500014
 30
0.0
 11
-81.03808608060001
 21
96.428710937500014
 31
0.0
  0
LINE
  5
21F
  8
0
 62
     0
 10
-74.813085937500006
 20
96.428710937500014
 30
0.0
 11
-100.0880857944
 21
96.428710937500014
 31
0.0
  0
LINE
  5
220
  8
0
 62
     0
 10
-74.813085937500006
 20
96.428710937500014
 30
0.0
 11
-79.813085937500006
 21
96.428710937500014
 31
0.0
  0
SOLID
  5
221
  8
0
 62
     0
 10
-74.813085937500006
 20
96.428710937500014
 30
0.0
 11
-80.813085937500006
 21
94.9287109375
 31
0.0
 12
-80.813085937500006
 22
97.928710937500014
 32
0.0
 13
-79.313085937500006
 23
96.428710937500014
 33
0.0
  0
LINE
  5
222
  8
0
 62
     0
 10
-106.31308593750001
 20
96.428710937500014
 30
0.0
 11
-101.31308593750001
 21
96.428710937500014
 31
0.0
  0
SOLID
  5
223
  8
0
 62
     0
 10
-106.31308593750001
 20
96.428710937500014
 30
0.0
 11
-100.31308593750001
 21
97.928710937500014
 31
0.0
 12
-100.31308593750001
 22
94.9287109375
 32
0.0
 13
-101.81308593750001
 23
96.428710937500014
 33
0.0
  0
ENDBLK
  5
224
  8
0
  0
BLOCK
  8
0
  2
*D17
 70
     1
 10
0.0
 20
0.0
 30
0.0
  3
*D17
  1

  0
TEXT
  5
228
  8
0
 62
     0
 10
-128.4130858421
 20
98.381210923200015
 30
0.0
 40
5.3974999188999986
  1
31.5
  0
LINE
  5
229
  8
0
 62
     0
 10
-137.81308593750001
 20
114.4287109375
 30
0.0
 11
-137.81308593750001
 21
95.428710937499986
 31
0.0
  0
LINE
  5
22A
  8
0
 62
     0
 10
-106.31308593750001
 20
123.4287109375
 30
0.0
 11
-106.31308593750001
 21
95.428710937499986
 31
0.0
  0
LINE
  5
22B
  8
0
 62
     0
 10
-137.81308593750001
 20
96.428710937500014
 30
0.0
 11
-112.5380860806
 21
96.428710937500014
 31
0.0
  0
LINE
  5
22C
  8
0
 62
     0
 10
-137.81308593750001
 20
96.428710937500014
 30
0.0
 11
-131.5880857944
 21
96.428710937500014
 31
0.0
  0
LINE
  5
22D
  8
0
 62
     0
 10
-106.31308593750001
 20
96.428710937500014
 30
0.0
 11
-112.5380860806
 21
96.428710937500014
 31
0.0
  0
LINE
  5
22E
  8
0
 62
     0
 10
-106.31308593750001
 20
96.428710937500014
 30
0.0
 11
-131.5880857944
 21
96.428710937500014
 31
0.0
  0
LINE
  5
22F
  8
0
 62
     0
 10
-106.31308593750001
 20
96.428710937500014
 30
0.0
 11
-111.31308593750001
 21
96.428710937500014
 31
0.0
  0
SOLID
  5
230
  8
0
 62
     0
 10
-106.31308593750001
 20
96.428710937500014
 30
0.0
 11
-112.31308593750001
 21
94.9287109375
 31
0.0
 12
-112.31308593750001
 22
97.928710937500014
 32
0.0
 13
-110.81308593750001
 23
96.428710937500014
 33
0.0
  0
LINE
  5
231
  8
0
 62
     0
 10
-137.81308593750001
 20
96.428710937500014
 30
0.0
 11
-132.81308593750001
 21
96.428710937500014
 31
0.0
  0
SOLID
  5
232
  8
0
 62
     0
 10
-137.81308593750001
 20
96.428710937500014
 30
0.0
 11
-131.81308593750001
 21
97.928710937500014
 31
0.0
 12
-131.81308593750001
 22
94.9287109375
 32
0.0
 13
-133.31308593750001
 23
96.428710937500014
 33
0.0
  0
ENDBLK
  5
233
  8
0
  0
BLOCK
  8
0
  2
*D18
 70
     1
 10
0.0
 20
0.0
 30
0.0
  3
*D18
  1

  0
TEXT
  5
266
  8
0
 62
     0
 10
-191.76558592320001
 20
-20.327734303500002
 30
0.0
 40
5.3974999188999986
  1
105
 50
90.0
  0
LINE
  5
267
  8
0
 62
     0
 10
-171.81308593750001
 20
36.934765624999997
 30
0.0
 11
-190.81308593750001
 21
36.934765624999997
 31
0.0
  0
LINE
  5
268
  8
0
 62
     0
 10
-166.81308593750001
 20
-68.065234375000003
 30
0.0
 11
-190.81308593750001
 21
-68.065234375000003
 31
0.0
  0
LINE
  5
269
  8
0
 62
     0
 10
-189.81308593750001
 20
36.934765624999997
 30
0.0
 11
-189.81308593750001
 21
-7.6277344941999994
 31
0.0
  0
LINE
  5
26A
  8
0
 62
     0
 10
-189.81308593750001
 20
36.934765624999997
 30
0.0
 11
-189.81308593750001
 21
-23.5027342558
 31
0.0
  0
LINE
  5
26B
  8
0
 62
     0
 10
-189.81308593750001
 20
-68.065234375000003
 30
0.0
 11
-189.81308593750001
 21
-7.6277344941999994
 31
0.0
  0
LINE
  5
26C
  8
0
 62
     0
 10
-189.81308593750001
 20
-68.065234375000003
 30
0.0
 11
-189.81308593750001
 21
-23.5027342558
 31
0.0
  0
LINE
  5
26D
  8
0
 62
     0
 10
-189.81308593750001
 20
-68.065234375000003
 30
0.0
 11
-189.81308593750001
 21
-63.065234375000003
 31
0.0
  0
SOLID
  5
26E
  8
0
 62
     0
 10
-189.81308593750001
 20
-68.065234375000003
 30
0.0
 11
-191.31308593750001
 21
-62.065234375000003
 31
0.0
 12
-188.31308593750001
 22
-62.065234375000003
 32
0.0
 13
-189.81308593750001
 23
-63.565234375000003
 33
0.0
  0
LINE
  5
26F
  8
0
 62
     0
 10
-189.81308593750001
 20
36.934765624999997
 30
0.0
 11
-189.81308593750001
 21
31.934765625000001
 31
0.0
  0
SOLID
  5
270
  8
0
 62
     0
 10
-189.81308593750001
 20
36.934765624999997
 30
0.0
 11
-188.31308593750001
 21
30.934765625000001
 31
0.0
 12
-191.31308593750001
 22
30.934765625000001
 32
0.0
 13
-189.81308593750001
 23
32.434765624999997
 33
0.0
  0
ENDBLK
  5
271
  8
0
  0
BLOCK
  8
0
  2
*D19
 70
     1
 10
0.0
 20
0.0
 30
0.0
  3
*D19
  1

  0
TEXT
  5
277
  8
0
 62
     0
 10
-137.916315548
 20
-23.896746624999999
 30
0.0
 40
5.3974999188999986
  1
90%%d
 50
319.5011643011
  0
ARC
  5
278
  8
0
 62
     0
 10
-166.81308593750001
 20
-65.065234375000003
 30
0.0
 40
47.214311643800002
 50
81.443953090600004
 51
90.0
  0
ARC
  5
279
  8
0
 62
     0
 10
-166.81308593750001
 20
-65.065234375000003
 30
0.0
 40
47.214311643800002
 50
0.0
 51
8.5560469093999991
  0
SOLID
  5
27A
  8
0
 62
     0
 10
-119.5987742937
 20
-65.065234375000003
 30
0.0
 11
-118.0987742937
 21
-71.065234375000003
 31
0.0
 12
-121.0987742937
 22
-71.065234375000003
 32
0.0
 13
-119.5987742937
 23
-69.565234375000003
 33
0.0
  0
SOLID
  5
27B
  8
0
 62
     0
 10
-166.81308593750001
 20
-17.850922731200001
 30
0.0
 11
-172.81308593750001
 21
-19.350922731200001
 31
0.0
 12
-172.81308593750001
 22
-16.35092273119999
 32
0.0
 13
-171.31308593750001
 23
-17.850922731200001
 33
0.0
  0
ARC
  5
27C
  8
0
 62
     0
 10
-166.81308593750001
 20
-65.065234375000003
 30
0.0
 40
47.214311643800002
 50
0.0
 51
39.699300358499997
  0
ARC
  5
27D
  8
0
 62
     0
 10
-166.81308593750001
 20
-65.065234375000003
 30
0.0
 40
47.214311643800002
 50
59.303028243699998
 51
90.0
  0
LINE
  5
27E
  8
0
 62
     0
 10
-68.813085937500006
 20
-65.065234375000003
 30
0.0
 11
-123.5987742937
 21
-65.065234375000003
 31
0.0
  0
LINE
  5
27F
  8
0
 62
     0
 10
-166.81308593750001
 20
32.934765624999997
 30
0.0
 11
-166.81308593750001
 21
-21.850922731200001
 31
0.0
  0
ENDBLK
  5
280
  8
0
  0
BLOCK
  8
0
  2
*D20
 70
     1
 10
0.0
 20
0.0
 30
0.0
  3
*D20
  1

  0
TEXT
  5
28E
  8
0
 62
     0
 10
-139.40058591370001
 20
-73.583858379199995
 30
0.0
 40
1.079499983799999
  1
%%c4.2
  0
LINE
  5
28F
  8
0
 62
     0
 10
-139.9130859375
 20
-70.065234375000003
 30
0.0
 11
-139.9130859375
 21
-74.974358394299998
 31
0.0
  0
LINE
  5
290
  8
0
 62
     0
 10
-135.71308593750001
 20
-70.065234375000003
 30
0.0
 11
-135.71308593750001
 21
-74.974358394299998
 31
0.0
  0
LINE
  5
291
  8
0
 62
     0
 10
-139.9130859375
 20
-74.174358382299999
 30
0.0
 11
-139.9130859375
 21
-74.174358382299999
 31
0.0
  0
LINE
  5
292
  8
0
 62
     0
 10
-139.9130859375
 20
-74.174358382299999
 30
0.0
 11
-135.71308593750001
 21
-74.174358382299999
 31
0.0
  0
LINE
  5
293
  8
0
 62
     0
 10
-135.71308593750001
 20
-74.174358382299999
 30
0.0
 11
-139.9130859375
 21
-74.174358382299999
 31
0.0
  0
LINE
  5
294
  8
0
 62
     0
 10
-135.71308593750001
 20
-74.174358382299999
 30
0.0
 11
-135.71308593750001
 21
-74.174358382299999
 31
0.0
  0
LINE
  5
295
  8
0
 62
     0
 10
-135.71308593750001
 20
-74.174358382299999
 30
0.0
 11
-137.71308593750001
 21
-74.174358382299999
 31
0.0
  0
SOLID
  5
296
  8
0
 62
     0
 10
-135.71308593750001
 20
-74.174358382299999
 30
0.0
 11
-136.91308598520001
 21
-74.495958372499999
 31
0.0
 12
-136.91308598520001
 22
-73.852758392200002
 32
0.0
 13
-136.6130859733
 23
-74.174358382299999
 33
0.0
  0
LINE
  5
297
  8
0
 62
     0
 10
-139.9130859375
 20
-74.174358382299999
 30
0.0
 11
-137.9130859375
 21
-74.174358382299999
 31
0.0
  0
SOLID
  5
298
  8
0
 62
     0
 10
-139.9130859375
 20
-74.174358382299999
 30
0.0
 11
-138.7130858898
 21
-73.852758392200002
 31
0.0
 12
-138.7130858898
 22
-74.495958372499999
 32
0.0
 13
-139.01308590170001
 23
-74.174358382299999
 33
0.0
  0
ENDBLK
  5
299
  8
0
  0
BLOCK
  8
0
  2
*D21
 70
     1
 10
0.0
 20
0.0
 30
0.0
  3
*D21
  1

  0
TEXT
  5
29E
  8
0
 62
     0
 10
-138.76558592320001
 20
-57.720272913400002
 30
0.0
 40
1.079499983799999
  1
90%%d
  0
ARC
  5
29F
  8
0
 62
     0
 10
-137.81308593750001
 20
-68.815234375000003
 30
0.0
 40
10.523461470199999
 50
127.4809723186
 51
135.0
  0
ARC
  5
2A0
  8
0
 62
     0
 10
-137.81308593750001
 20
-68.815234375000003
 30
0.0
 40
10.523461470199999
 50
45.0
 51
52.519027681399997
  0
SOLID
  5
2A1
  8
0
 62
     0
 10
-130.3718749704
 20
-61.374023407899998
 30
0.0
 11
-129.29594126539999
 21
-61.995146045200002
 31
0.0
 12
-129.7507523331
 22
-62.449957112900002
 32
0.0
 13
-129.73547884199999
 23
-62.01041953619999
 33
0.0
  0
SOLID
  5
2A2
  8
0
 62
     0
 10
-145.25429690460001
 20
-61.374023407899998
 30
0.0
 11
-145.87541954189999
 21
-62.449957112900002
 31
0.0
 12
-146.33023060959999
 22
-61.995146045200002
 32
0.0
 13
-145.89069303299999
 23
-62.01041953619999
 33
0.0
  0
ARC
  5
2A3
  8
0
 62
     0
 10
-137.81308593750001
 20
-68.815234375000003
 30
0.0
 40
10.523461470199999
 50
45.0
 51
81.212514112999983
  0
ARC
  5
2A4
  8
0
 62
     0
 10
-137.81308593750001
 20
-68.815234375000003
 30
0.0
 40
10.523461470199999
 50
98.787485887000003
 51
135.0
  0
LINE
  5
2A5
  8
0
 62
     0
 10
-133.4974005041
 20
-64.499548941599997
 30
0.0
 11
-129.80618953699999
 21
-60.808337974499999
 31
0.0
  0
LINE
  5
2A6
  8
0
 62
     0
 10
-142.12877137090001
 20
-64.499548941599997
 30
0.0
 11
-145.81998233799999
 21
-60.808337974499999
 31
0.0
  0
ENDBLK
  5
2A7
  8
0
  0
BLOCK
  8
0
  2
*D22
 70
     1
 10
0.0
 20
0.0
 30
0.0
  3
*D22
  1

  0
TEXT
  5
2AB
  8
0
 62
     0
 10
-139.40058591370001
 20
-60.474734371899991
 30
0.0
 40
1.079499983799999
  1
%%c7.5
  0
LINE
  5
2AC
  8
0
 62
     0
 10
-134.06308593750001
 20
-63.065234375000003
 30
0.0
 11
-134.06308593750001
 21
-60.265234363099999
 31
0.0
  0
LINE
  5
2AD
  8
0
 62
     0
 10
-141.56308593750001
 20
-63.065234375000003
 30
0.0
 11
-141.56308593750001
 21
-60.265234363099999
 31
0.0
  0
LINE
  5
2AE
  8
0
 62
     0
 10
-134.06308593750001
 20
-61.065234375000003
 30
0.0
 11
-135.59058597090001
 21
-61.065234375000003
 31
0.0
  0
LINE
  5
2AF
  8
0
 62
     0
 10
-134.06308593750001
 20
-61.065234375000003
 30
0.0
 11
-140.0355859041
 21
-61.065234375000003
 31
0.0
  0
LINE
  5
2B0
  8
0
 62
     0
 10
-141.56308593750001
 20
-61.065234375000003
 30
0.0
 11
-135.59058597090001
 21
-61.065234375000003
 31
0.0
  0
LINE
  5
2B1
  8
0
 62
     0
 10
-141.56308593750001
 20
-61.065234375000003
 30
0.0
 11
-140.0355859041
 21
-61.065234375000003
 31
0.0
  0
LINE
  5
2B2
  8
0
 62
     0
 10
-141.56308593750001
 20
-61.065234375000003
 30
0.0
 11
-139.56308593750001
 21
-61.065234375000003
 31
0.0
  0
SOLID
  5
2B3
  8
0
 62
     0
 10
-141.56308593750001
 20
-61.065234375000003
 30
0.0
 11
-140.3630858898
 21
-60.743634384899991
 31
0.0
 12
-140.3630858898
 22
-61.3868343651
 32
0.0
 13
-140.66308590169999
 23
-61.065234375000003
 33
0.0
  0
LINE
  5
2B4
  8
0
 62
     0
 10
-134.06308593750001
 20
-61.065234375000003
 30
0.0
 11
-136.06308593750001
 21
-61.065234375000003
 31
0.0
  0
SOLID
  5
2B5
  8
0
 62
     0
 10
-134.06308593750001
 20
-61.065234375000003
 30
0.0
 11
-135.26308598520001
 21
-61.3868343651
 31
0.0
 12
-135.26308598520001
 22
-60.743634384899991
 32
0.0
 13
-134.9630859733
 23
-61.065234375000003
 33
0.0
  0
ENDBLK
  5
2B6
  8
0
  0
BLOCK
  8
0
  2
*D23
 70
     1
 10
0.0
 20
0.0
 30
0.0
  3
*D23
  1

  0
LINE
  5
2C2
  8
0
 62
     4
 10
99.654321868384983
 20
-1.622089728898787
 30
0.0
 11
117.25710668575741
 21
15.980695088473629
 31
0.0
  0
LINE
  5
2C3
  8
0
 62
     4
 10
49.549603485052401
 20
-1.6220897288987779
 30
0.0
 11
31.946818667679931
 21
15.98069508847383
 31
0.0
  0
ARC
  5
2C4
  8
0
 62
     4
 10
74.601962676718585
 20
-26.67444892056514
 30
0.0
 40
58.323483162560159
 50
47.456136176855878
 51
132.54386382314379
  0
SOLID
  5
2C5
  8
0
 62
     4
 10
114.32589073202899
 20
16.59682998282743
 30
0.0
 11
113.7493994699205
 21
15.99508064202424
 31
0.0
 12
115.8428931233843
 22
14.56648152610053
 32
0.0
 13
115.8428931233843
 23
14.56648152610053
 33
0.0
  0
SOLID
  5
2C6
  8
0
 62
     4
 10
35.454525883516801
 20
15.99508064202444
 30
0.0
 11
34.878034621408382
 21
16.596829982827629
 31
0.0
 12
33.36103223005302
 22
14.566481526100739
 32
0.0
 13
33.36103223005302
 23
14.566481526100739
 33
0.0
  0
INSERT
  5
2C7
  8
0
  6
CONTINUOUS
  2
*U65
 10
0.0
 20
0.0
 30
0.0
  0
POINT
  5
2C8
  8
DEFPOINTS
 62
     0
 10
74.601962676718585
 20
-26.67444892056514
 30
0.0
  0
POINT
  5
2C9
  8
DEFPOINTS
 62
     0
 10
97.886554915418614
 20
-3.3898566818651541
 30
0.0
  0
POINT
  5
2CA
  8
DEFPOINTS
 62
     0
 10
51.31737043801877
 20
-3.3898566818651541
 30
0.0
  0
POINT
  5
2CB
  8
DEFPOINTS
 62
     0
 10
59.506734457531977
 20
29.6617097452874
 30
0.0
  0
ENDBLK
  5
2CC
  8
0
  0
BLOCK
  8
0
  2
*D24
 70
     1
 10
0.0
 20
0.0
 30
0.0
  3
*D24
  1

  0
LINE
  5
2CF
  8
0
 62
     4
 10
54.601962676718578
 20
-4.1119489205651396
 30
0.0
 11
54.601962676718578
 21
14.29740881552493
 31
0.0
  0
LINE
  5
2D0
  8
0
 62
     4
 10
94.601962676718585
 20
-4.1119489205651396
 30
0.0
 11
94.601962676718585
 21
14.29740881552493
 31
0.0
  0
LINE
  5
2D1
  8
0
 62
     4
 10
57.101962676718578
 20
12.29740881552493
 30
0.0
 11
92.101962676718585
 21
12.29740881552493
 31
0.0
  0
SOLID
  5
2D2
  8
0
 62
     4
 10
57.101962676718578
 20
12.7140754821916
 30
0.0
 11
57.101962676718578
 21
11.880742148858261
 31
0.0
 12
54.601962676718578
 22
12.29740881552493
 32
0.0
 13
54.601962676718578
 23
12.29740881552493
 33
0.0
  0
SOLID
  5
2D3
  8
0
 62
     4
 10
92.101962676718585
 20
12.7140754821916
 30
0.0
 11
92.101962676718585
 21
11.880742148858261
 31
0.0
 12
94.601962676718585
 22
12.29740881552493
 32
0.0
 13
94.601962676718585
 23
12.29740881552493
 33
0.0
  0
INSERT
  5
2D4
  8
0
  6
CONTINUOUS
  2
*U66
 10
0.0
 20
0.0
 30
0.0
  0
POINT
  5
2D5
  8
DEFPOINTS
 62
     0
 10
54.601962676718578
 20
-6.6119489205651396
 30
0.0
  0
POINT
  5
2D6
  8
DEFPOINTS
 62
     0
 10
94.601962676718585
 20
-6.6119489205651396
 30
0.0
  0
POINT
  5
2D7
  8
DEFPOINTS
 62
     0
 10
94.601962676718585
 20
12.29740881552493
 30
0.0
  0
ENDBLK
  5
2D8
  8
0
  0
BLOCK
  8
0
  2
*D25
 70
     1
 10
0.0
 20
0.0
 30
0.0
  3
*D25
  1

  0
LINE
  5
2DB
  8
0
 62
     4
 10
64.601962676718699
 20
-24.23694892056514
 30
0.0
 11
64.601962676718699
 21
-43.888937011566213
 31
0.0
  0
LINE
  5
2DC
  8
0
 62
     4
 10
84.601962676718585
 20
-24.23694892056514
 30
0.0
 11
84.601962676718585
 21
-43.888937011566213
 31
0.0
  0
LINE
  5
2DD
  8
0
 62
     4
 10
67.101962676718699
 20
-41.888937011566213
 30
0.0
 11
82.101962676718585
 21
-41.888937011566213
 31
0.0
  0
SOLID
  5
2DE
  8
0
 62
     4
 10
67.101962676718699
 20
-41.472270344899542
 30
0.0
 11
67.101962676718699
 21
-42.30560367823287
 31
0.0
 12
64.601962676718699
 22
-41.888937011566213
 32
0.0
 13
64.601962676718699
 23
-41.888937011566213
 33
0.0
  0
SOLID
  5
2DF
  8
0
 62
     4
 10
82.101962676718585
 20
-41.472270344899542
 30
0.0
 11
82.101962676718585
 21
-42.30560367823287
 31
0.0
 12
84.601962676718585
 22
-41.888937011566213
 32
0.0
 13
84.601962676718585
 23
-41.888937011566213
 33
0.0
  0
INSERT
  5
2E0
  8
0
  6
CONTINUOUS
  2
*U67
 10
0.0
 20
0.0
 30
0.0
  0
POINT
  5
2E1
  8
DEFPOINTS
 62
     0
 10
64.601962676718699
 20
-21.73694892056514
 30
0.0
  0
POINT
  5
2E2
  8
DEFPOINTS
 62
     0
 10
84.601962676718585
 20
-21.73694892056514
 30
0.0
  0
POINT
  5
2E3
  8
DEFPOINTS
 62
     0
 10
84.601962676718585
 20
-41.888937011566213
 30
0.0
  0
ENDBLK
  5
2E4
  8
0
  0
BLOCK
  8
0
  2
*D27
 70
     1
 10
0.0
 20
0.0
 30
0.0
  3
*D27
  1

  0
LINE
  5
32B
  8
0
 62
     4
 10
134.58777798756239
 20
-37.741270224732567
 30
0.0
 11
134.58777798756239
 21
-57.39325831573364
 31
0.0
  0
LINE
  5
32C
  8
0
 62
     4
 10
154.58777798756219
 20
-37.741270224732567
 30
0.0
 11
154.58777798756219
 21
-57.39325831573364
 31
0.0
  0
LINE
  5
32D
  8
0
 62
     4
 10
137.08777798756239
 20
-55.39325831573364
 30
0.0
 11
152.0877779875623
 21
-55.39325831573364
 31
0.0
  0
SOLID
  5
32E
  8
0
 62
     4
 10
137.08777798756239
 20
-54.976591649066982
 30
0.0
 11
137.08777798756239
 21
-55.809924982400311
 31
0.0
 12
134.58777798756239
 22
-55.39325831573364
 32
0.0
 13
134.58777798756239
 23
-55.39325831573364
 33
0.0
  0
SOLID
  5
32F
  8
0
 62
     4
 10
152.0877779875623
 20
-54.976591649066982
 30
0.0
 11
152.0877779875623
 21
-55.809924982400311
 31
0.0
 12
154.58777798756219
 22
-55.39325831573364
 32
0.0
 13
154.58777798756219
 23
-55.39325831573364
 33
0.0
  0
INSERT
  5
330
  8
0
  6
CONTINUOUS
  2
*U68
 10
0.0
 20
0.0
 30
0.0
  0
POINT
  5
331
  8
DEFPOINTS
 62
     0
 10
134.58777798756239
 20
-35.241270224732567
 30
0.0
  0
POINT
  5
332
  8
DEFPOINTS
 62
     0
 10
154.58777798756219
 20
-35.241270224732567
 30
0.0
  0
POINT
  5
333
  8
DEFPOINTS
 62
     0
 10
154.58777798756219
 20
-55.39325831573364
 30
0.0
  0
ENDBLK
  5
311
  8
0
  0
BLOCK
  8
0
  2
*D28
 70
     1
 10
0.0
 20
0.0
 30
0.0
  3
*D28
  1

  0
LINE
  5
334
  8
0
 62
     4
 10
124.5877779875623
 20
-17.61627022473257
 30
0.0
 11
124.5877779875623
 21
0.7930875113574986
 31
0.0
  0
LINE
  5
335
  8
0
 62
     4
 10
164.5877779875623
 20
-17.61627022473257
 30
0.0
 11
164.5877779875623
 21
0.7930875113574986
 31
0.0
  0
LINE
  5
336
  8
0
 62
     4
 10
127.0877779875623
 20
-1.2069124886425009
 30
0.0
 11
162.0877779875623
 21
-1.2069124886425009
 31
0.0
  0
SOLID
  5
337
  8
0
 62
     4
 10
127.0877779875623
 20
-0.790245821975835
 30
0.0
 11
127.0877779875623
 21
-1.6235791553091681
 31
0.0
 12
124.5877779875623
 22
-1.2069124886425009
 32
0.0
 13
124.5877779875623
 23
-1.2069124886425009
 33
0.0
  0
SOLID
  5
338
  8
0
 62
     4
 10
162.0877779875623
 20
-0.790245821975835
 30
0.0
 11
162.0877779875623
 21
-1.6235791553091681
 31
0.0
 12
164.5877779875623
 22
-1.2069124886425009
 32
0.0
 13
164.5877779875623
 23
-1.2069124886425009
 33
0.0
  0
INSERT
  5
339
  8
0
  6
CONTINUOUS
  2
*U69
 10
0.0
 20
0.0
 30
0.0
  0
POINT
  5
33A
  8
DEFPOINTS
 62
     0
 10
124.5877779875623
 20
-20.11627022473257
 30
0.0
  0
POINT
  5
33B
  8
DEFPOINTS
 62
     0
 10
164.5877779875623
 20
-20.11627022473257
 30
0.0
  0
POINT
  5
33C
  8
DEFPOINTS
 62
     0
 10
164.5877779875623
 20
-1.2069124886425009
 30
0.0
  0
ENDBLK
  5
31D
  8
0
  0
BLOCK
  8
0
  2
*D29
 70
     1
 10
0.0
 20
0.0
 30
0.0
  3
*D29
  1

  0
LINE
  5
403
  8
0
 62
     4
 10
169.64013717922859
 20
-15.12641103306621
 30
0.0
 11
187.2429219966011
 21
2.4763737843062161
 31
0.0
  0
LINE
  5
404
  8
0
 62
     4
 10
119.53541879589611
 20
-15.12641103306621
 30
0.0
 11
101.9326339785236
 21
2.4763737843064129
 31
0.0
  0
ARC
  5
405
  8
0
 62
     4
 10
144.5877779875623
 20
-40.17877022473256
 30
0.0
 40
58.323483162560173
 50
47.4561361768559
 51
132.54386382314379
  0
SOLID
  5
406
  8
0
 62
     4
 10
184.31170604287269
 20
3.092508678660014
 30
0.0
 11
183.73521478076421
 21
2.4907593378568289
 31
0.0
 12
185.82870843422799
 22
1.062160221933119
 32
0.0
 13
185.82870843422799
 23
1.062160221933119
 33
0.0
  0
SOLID
  5
407
  8
0
 62
     4
 10
105.4403411943604
 20
2.4907593378570181
 30
0.0
 11
104.86384993225199
 21
3.0925086786602058
 31
0.0
 12
103.3468475408967
 22
1.0621602219333171
 32
0.0
 13
103.3468475408967
 23
1.0621602219333171
 33
0.0
  0
TEXT
  8
0
  40
5
  5
415
  62
4
  72
0
  71
0
 10
136.549
 20
12.7636
 30
0.000000
  1
90°
  7
ゴシック
  0
POINT
  5
409
  8
DEFPOINTS
 62
     0
 10
144.5877779875623
 20
-40.17877022473256
 30
0.0
  0
POINT
  5
40A
  8
DEFPOINTS
 62
     0
 10
167.87237022626229
 20
-16.894177986032581
 30
0.0
  0
POINT
  5
40B
  8
DEFPOINTS
 62
     0
 10
121.3031857488624
 20
-16.894177986032581
 30
0.0
  0
POINT
  5
40C
  8
DEFPOINTS
 62
     0
 10
129.4925497683756
 20
16.15738844111997
 30
0.0
  0
ENDBLK
  5
32A
  8
0
  0
BLOCK
  8
0
  2
*U30
 70
     1
 10
0.0
 20
0.0
 30
0.0
  3
*U30
  1

  0
TEXT
  5
358
  8
図枠
  6
CONTINUOUS
 10
90.804942166488587
 20
207.86477604282589
 30
0.0
 40
5.3974999188999986
  1
副番
  0
ENDBLK
  5
35A
  8
0
  0
BLOCK
  8
0
  2
*U31
 70
     1
 10
0.0
 20
0.0
 30
0.0
  3
*U31
  1

  0
TEXT
  5
35C
  8
図枠
  6
CONTINUOUS
 10
111.2705386662952
 20
207.80997908933449
 30
0.0
 40
5.3974999188999986
  1
改訂日
  0
ENDBLK
  5
35E
  8
0
  0
BLOCK
  8
0
  2
*U32
 70
     1
 10
0.0
 20
0.0
 30
0.0
  3
*U32
  1

  0
TEXT
  5
360
  8
図枠
  6
CONTINUOUS
 10
257.47602724188778
 20
207.7277836590975
 30
0.0
 40
5.3974999188999986
  1
検認者
  0
ENDBLK
  5
362
  8
0
  0
BLOCK
  8
0
  2
*U33
 70
     1
 10
0.0
 20
0.0
 30
0.0
  3
*U33
  1

  0
TEXT
  5
364
  8
図枠
  6
CONTINUOUS
 10
237.55822267212491
 20
207.7551821358432
 30
0.0
 40
5.3974999188999986
  1
改訂者
  0
ENDBLK
  5
366
  8
0
  0
BLOCK
  8
0
  2
*U34
 70
     1
 10
0.0
 20
0.0
 30
0.0
  3
*U34
  1

  0
TEXT
  5
368
  8
図枠
  6
CONTINUOUS
 10
163.4206086713512
 20
207.7551821358432
 30
0.0
 40
5.3974999188999986
  1
改　訂　内　容
  0
ENDBLK
  5
36A
  8
0
  0
BLOCK
  8
0
  2
*U35
 70
     1
 10
0.0
 20
0.0
 30
0.0
  3
*U35
  1

  0
TEXT
  5
36C
  8
図枠
  6
CONTINUOUS
 10
95.200100694452289
 20
-120.06670963717001
 30
0.0
 40
4.6749999999999989
  1
尺 　度
  0
ENDBLK
  5
36E
  8
0
  0
BLOCK
  8
0
  2
*U36
 70
     1
 10
0.0
 20
0.0
 30
0.0
  3
*U36
  1

  0
TEXT
  5
370
  8
ﾚｲﾔ_10
  6
CONTINUOUS
 10
121.8496764763254
 20
-72.168316223627414
 30
0.0
 40
5.9972220420999998
  1
皿モミ部拡大図
  0
ENDBLK
  5
372
  8
0
  0
BLOCK
  8
0
  2
*U37
 70
     1
 10
0.0
 20
0.0
 30
0.0
  3
*U37
  1

  0
TEXT
  5
374
  8
図枠
  6
CONTINUOUS
 10
119.9625762041949
 20
-110.866581823136
 30
0.0
 40
5.6099999188999989
  1
指定無き公差はJIS 0408-Bによること
  0
ENDBLK
  5
376
  8
0
  0
BLOCK
  8
0
  2
*U38
 70
     1
 10
0.0
 20
0.0
 30
0.0
  3
*U38
  1

  0
TEXT
  5
378
  8
図枠
  6
CONTINUOUS
 10
136.34445348633039
 20
-145.44805481483499
 30
0.0
 40
4.6749999999999989
  1
園 原
  0
ENDBLK
  5
37A
  8
0
  0
BLOCK
  8
0
  2
*U39
 70
     1
 10
0.0
 20
0.0
 30
0.0
  3
*U39
  1

  0
TEXT
  5
37C
  8
図枠
  6
CONTINUOUS
 10
136.34445348633039
 20
-136.94805481483499
 30
0.0
 40
4.6749999999999989
  1
園 原
  0
ENDBLK
  5
37E
  8
0
  0
BLOCK
  8
0
  2
*U40
 70
     1
 10
0.0
 20
0.0
 30
0.0
  3
*U40
  1

  0
TEXT
  5
380
  8
図枠
  6
CONTINUOUS
 10
105.03886320598249
 20
-88.440555219900006
 30
0.0
 40
5.9972220420999998
  1
SUS304-HL
  0
ENDBLK
  5
382
  8
0
  0
BLOCK
  8
0
  2
*U41
 70
     1
 10
0.0
 20
0.0
 30
0.0
  3
*U41
  1

  0
TEXT
  5
384
  8
図枠
  6
CONTINUOUS
 10
55.698450948259392
 20
-119.924323850368
 30
0.0
 40
4.6749999999999989
  1
日 　付
  0
ENDBLK
  5
386
  8
0
  0
BLOCK
  8
0
  2
*U42
 70
     1
 10
0.0
 20
0.0
 30
0.0
  3
*U42
  1

  0
TEXT
  5
388
  8
図枠
  6
CONTINUOUS
 10
51.191941003665242
 20
-99.809627509238595
 30
0.0
 40
5.6099999188999989
  1
表面処理
  0
ENDBLK
  5
38A
  8
0
  0
BLOCK
  8
0
  2
*U43
 70
     1
 10
0.0
 20
0.0
 30
0.0
  3
*U43
  1

  0
TEXT
  5
38C
  8
図枠
  6
CONTINUOUS
 10
53.999774133900011
 20
-160.31488008072739
 30
0.0
 40
8.6359998702999992
  1
株式会社
  0
ENDBLK
  5
38E
  8
0
  0
BLOCK
  8
0
  2
*U44
 70
     1
 10
0.0
 20
0.0
 30
0.0
  3
*U44
  1

  0
TEXT
  5
390
  8
図枠
  6
CONTINUOUS
 10
51.248895317562699
 20
-88.752673195341117
 30
0.0
 40
5.6099999188999989
  1
材　　質
  0
ENDBLK
  5
392
  8
0
  0
BLOCK
  8
0
  2
*U45
 70
     1
 10
0.0
 20
0.0
 30
0.0
  3
*U45
  1

  0
TEXT
  5
394
  8
図枠
  6
CONTINUOUS
 10
76.320722521863459
 20
-145.61417156610401
 30
0.0
 40
4.6749999999999989
  1
岸 本
  0
ENDBLK
  5
396
  8
0
  0
BLOCK
  8
0
  2
*U46
 70
     1
 10
0.0
 20
0.0
 30
0.0
  3
*U46
  1

  0
TEXT
  5
398
  8
図枠
  6
CONTINUOUS
 10
105.55866668429999
 20
-145.590440601637
 30
0.0
 40
4.6749999999999989
  1
 検図
  0
ENDBLK
  5
39A
  8
0
  0
BLOCK
  8
0
  2
*U47
 70
     1
 10
0.0
 20
0.0
 30
0.0
  3
*U47
  1

  0
TEXT
  5
39C
  8
図枠
  6
CONTINUOUS
 10
99.353019476178176
 20
-128.32939999249999
 30
0.0
 40
4.6749999999999989
  1
1：2
  0
ENDBLK
  5
39E
  8
0
  0
BLOCK
  8
0
  2
*U48
 70
     1
 10
0.0
 20
0.0
 30
0.0
  3
*U48
  1

  0
TEXT
  5
3A0
  8
図枠
  6
CONTINUOUS
 10
51.334326788408902
 20
-110.92353613703349
 30
0.0
 40
5.6099999188999989
  1
一般公差
  0
ENDBLK
  5
3A2
  8
0
  0
BLOCK
  8
0
  2
*U49
 70
     1
 10
0.0
 20
0.0
 30
0.0
  3
*U49
  1

  0
TEXT
  5
3A4
  8
図枠
  6
CONTINUOUS
 10
105.55866668429999
 20
-137.04297867270299
 30
0.0
 40
4.6749999999999989
  1
 照査
  0
ENDBLK
  5
3A6
  8
0
  0
BLOCK
  8
0
  2
*U50
 70
     1
 10
0.0
 20
0.0
 30
0.0
  3
*U50
  1

  0
TEXT
  5
3A8
  8
図枠
  6
CONTINUOUS
 10
48.361585466025893
 20
-145.56670963716999
 30
0.0
 40
4.6749999999999989
  1
製図
  0
ENDBLK
  5
3AA
  8
0
  0
BLOCK
  8
0
  2
*U51
 70
     1
 10
0.0
 20
0.0
 30
0.0
  3
*U51
  1

  0
TEXT
  5
3AC
  8
図枠
  6
CONTINUOUS
 10
57.929161608157877
 20
-128.32939999249999
 30
0.0
 40
4.6749999999999989
  1
H16.4
  0
ENDBLK
  5
3AE
  8
0
  0
BLOCK
  8
0
  2
*U52
 70
     1
 10
0.0
 20
0.0
 30
0.0
  3
*U52
  1

  0
TEXT
  5
3B0
  8
図枠
  6
CONTINUOUS
 10
74.920595618310159
 20
-137.090440601637
 30
0.0
 40
4.6749999999999989
  1
白須賀
  0
ENDBLK
  5
3B2
  8
0
  0
BLOCK
  8
0
  2
*U53
 70
     1
 10
0.0
 20
0.0
 30
0.0
  3
*U53
  1

  0
TEXT
  5
3B4
  8
図枠
  6
CONTINUOUS
 10
45.5586666843
 20
-137.01924770823601
 30
0.0
 40
4.6749999999999989
  1
 設計
  0
ENDBLK
  5
3B6
  8
0
  0
BLOCK
  8
0
  2
*U54
 70
     1
 10
0.0
 20
0.0
 30
0.0
  3
*U54
  1

  0
TEXT
  5
3B8
  8
図枠
  6
CONTINUOUS
 10
166.00701693810711
 20
-119.65564282247
 30
0.0
 40
4.6749999999999989
  1
製品名
  0
ENDBLK
  5
3BA
  8
0
  0
BLOCK
  8
0
  2
*U55
 70
     1
 10
0.0
 20
0.0
 30
0.0
  3
*U55
  1

  0
TEXT
  5
3BC
  8
図枠
  6
CONTINUOUS
 10
166.13753724267559
 20
-136.608180893536
 30
0.0
 40
4.6749999999999989
  1
図面名
  0
ENDBLK
  5
3BE
  8
0
  0
BLOCK
  8
0
  2
*U56
 70
     1
 10
0.0
 20
0.0
 30
0.0
  3
*U56
  1

  0
TEXT
  5
3C0
  8
図枠
  6
CONTINUOUS
 10
166.11380627820861
 20
-153.56071896460199
 30
0.0
 40
4.6749999999999989
  1
図　番
  0
ENDBLK
  5
3C2
  8
0
  0
BLOCK
  8
0
  2
*U57
 70
     1
 10
0.0
 20
0.0
 30
0.0
  3
*U57
  1

  0
TEXT
  5
3C4
  8
図枠
  6
CONTINUOUS
 10
228.2295297330279
 20
-88.903333096699996
 30
0.0
 40
6.4599999188999986
  1
3.0t
  0
ENDBLK
  5
3C6
  8
0
  0
BLOCK
  8
0
  2
*U58
 70
     1
 10
0.0
 20
0.0
 30
0.0
  3
*U58
  1

  0
TEXT
  5
3C8
  8
図枠
  6
CONTINUOUS
 10
200.14340703703121
 20
-158.71055521989999
 30
0.0
 40
5.9972220420999998
  1
ＳＲＫ００１０２
  0
ENDBLK
  5
3CA
  8
0
  0
BLOCK
  8
0
  2
*U59
 70
     1
 10
0.0
 20
0.0
 30
0.0
  3
*U59
  1

  0
TEXT
  5
3CC
  8
図枠
  6
CONTINUOUS
 10
163.1777024251908
 20
-88.866581823136045
 30
0.0
 40
5.6099999188999989
  1
板　　厚
  0
ENDBLK
  5
3CE
  8
0
  0
BLOCK
  8
0
  2
*U60
 70
     1
 10
0.0
 20
0.0
 30
0.0
  3
*U60
  1

  0
TEXT
  5
3D0
  8
図枠
  6
CONTINUOUS
 10
190.23429142939901
 20
-141.832326225831
 30
0.0
 40
5.9972220420999998
  1
LS-104 105x105 承認図
  0
ENDBLK
  5
3D2
  8
0
  0
BLOCK
  8
0
  2
*U61
 70
     1
 10
0.0
 20
0.0
 30
0.0
  3
*U61
  1

  0
TEXT
  5
3D4
  8
図枠
  6
CONTINUOUS
 10
196.7033761194815
 20
-125.31941024955481
 30
0.0
 40
5.9972220420999998
  1
Ｌ型アングルワイド
  0
ENDBLK
  5
3D6
  8
0
  0
BLOCK
  8
0
  2
*U62
 70
     1
 10
0.0
 20
0.0
 30
0.0
  3
*U62
  1

  0
TEXT
  5
3D8
  8
ﾚｲﾔ_10
  6
CONTINUOUS
 10
-129.15173656513349
 20
158.3688132401
 30
0.0
 40
5.3974999188999986
  1
ＨＬ
  0
ENDBLK
  5
3DA
  8
0
  0
BLOCK
  8
0
  2
*D63
 70
     1
 10
0.0
 20
0.0
 30
0.0
  3
*D63
  1

  0
LINE
  5
3DC
  8
寸法線
 62
     0
 10
-64.875585937499991
 20
-65.065234374999974
 30
0.0
 11
-120.8487742936408
 21
-65.065234374999989
 31
0.0
  0
LINE
  5
3DD
  8
寸法線
 62
     0
 10
-166.81308593749989
 20
36.872265624999997
 30
0.0
 11
-166.81308593749989
 21
-19.100922731140798
 31
0.0
  0
ARC
  5
3DE
  8
寸法線
 62
     0
 10
-166.81308593749989
 20
-65.065234374999989
 30
0.0
 40
47.214311643859183
 50
7.2860624003449148
 51
39.405615346530723
  0
ARC
  5
3DF
  8
寸法線
 62
     0
 10
-166.81308593749989
 20
-65.065234374999989
 30
0.0
 40
47.214311643859183
 50
59.596713255726883
 51
82.713937599655083
  0
SOLID
  5
3E0
  8
寸法線
 62
     0
 10
-118.98203533988389
 20
-59.013818585044788
 30
0.0
 11
-120.9779939179103
 21
-59.140898696796903
 31
0.0
 12
-119.5987742936408
 22
-65.065234374999974
 32
0.0
 13
-119.5987742936408
 23
-65.065234374999974
 33
0.0
  0
SOLID
  5
3E1
  8
寸法線
 62
     0
 10
-160.8887502592969
 20
-19.23014235541029
 30
0.0
 11
-160.76167014754481
 21
-17.234183777383919
 31
0.0
 12
-166.81308593749989
 22
-17.850922731140809
 32
0.0
 13
-166.81308593749989
 23
-17.850922731140809
 33
0.0
  0
TEXT
  8
寸法線
  40
5.3975
  5
416
  62
0
  72
0
  71
0
 10
-146.946
 20
-38.7161
 30
0.000000
  1
90°
  0
POINT
  5
3E3
  8
DEFPOINTS
 62
     0
 10
-166.81308593749989
 20
-65.065234374999989
 30
0.0
  0
POINT
  5
3E4
  8
DEFPOINTS
 62
     0
 10
-64.813085937499991
 20
-65.065234374999974
 30
0.0
  0
POINT
  5
3E5
  8
DEFPOINTS
 62
     0
 10
-166.81308593749989
 20
36.934765625000011
 30
0.0
  0
POINT
  5
3E6
  8
DEFPOINTS
 62
     0
 10
-125.92429263172249
 20
-41.458078553070401
 30
0.0
  0
ENDBLK
  5
3E8
  8
0
  0
BLOCK
  8
0
  2
*D64
 70
     1
 10
0.0
 20
0.0
 30
0.0
  3
*D64
  1

  0
LINE
  5
3EA
  8
寸法線
 62
     0
 10
-133.48856167777581
 20
-64.490710115275846
 30
0.0
 11
-129.48799149388299
 21
-60.490139931383041
 31
0.0
  0
LINE
  5
3EB
  8
寸法線
 62
     0
 10
-142.13761019722409
 20
-64.490710115275846
 30
0.0
 11
-146.13818038111691
 21
-60.490139931383041
 31
0.0
  0
ARC
  5
3EC
  8
寸法線
 62
     0
 10
-137.81308593750001
 20
-68.815234375000003
 30
0.0
 40
10.523461470199999
 50
51.537035740833119
 51
80.553158847736739
  0
ARC
  5
3ED
  8
寸法線
 62
     0
 10
-137.81308593750001
 20
-68.815234375000003
 30
0.0
 40
10.523461470199999
 50
99.446841152263232
 51
128.4629642591668
  0
SOLID
  5
3EE
  8
寸法線
 62
     0
 10
-131.13427395635381
 20
-60.42600025212316
 30
0.0
 11
-131.4005301697847
 21
-60.72450928302419
 31
0.0
 12
-130.37187497036621
 22
-61.374023407866218
 32
0.0
 13
-130.37187497036621
 23
-61.374023407866218
 33
0.0
  0
SOLID
  5
3EF
  8
寸法線
 62
     0
 10
-144.22564170521531
 20
-60.72450928302419
 30
0.0
 11
-144.49189791864609
 21
-60.42600025212316
 31
0.0
 12
-145.2542969046338
 22
-61.374023407866218
 32
0.0
 13
-145.2542969046338
 23
-61.374023407866218
 33
0.0
  0
TEXT
  8
寸法線
  40
1.0795
  5
417
  62
0
  72
0
  71
0
 10
-139.972
 20
-60.2025
 30
0.000000
  1
90°
  0
POINT
  5
3F1
  8
DEFPOINTS
 62
     0
 10
-137.81308593750001
 20
-68.815234375000003
 30
0.0
  0
POINT
  5
3F2
  8
DEFPOINTS
 62
     0
 10
-133.5327558516
 20
-64.534904289099998
 30
0.0
  0
POINT
  5
3F3
  8
DEFPOINTS
 62
     0
 10
-142.09341602340001
 20
-64.534904289099998
 30
0.0
  0
POINT
  5
3F4
  8
DEFPOINTS
 62
     0
 10
-135.08941368860971
 20
-58.650351158975887
 30
0.0
  0
ENDBLK
  5
3F6
  8
0
  0
BLOCK
  8
0
  2
*U65
 70
     1
 10
0.0
 20
0.0
 30
0.0
  3
*U65
  1

  0
TEXT
  5
3F8
  8
0
  6
CONTINUOUS
 62
     4
 10
69.016311943497413
 20
32.856222427386562
 30
0.0
 40
5.0
  1
90°
 50
358.18184992574533
  7
ゴシック
  0
ENDBLK
  5
3FA
  8
0
  0
BLOCK
  8
0
  2
*U66
 70
     1
 10
0.0
 20
0.0
 30
0.0
  3
*U66
  1

  0
TEXT
  5
3FC
  8
0
  6
CONTINUOUS
 62
     4
 10
67.263266140394364
 20
14.504795179161301
 30
0.0
 40
5.0
  1
φ7.5
  7
ゴシック
  0
ENDBLK
  5
3FE
  8
0
  0
BLOCK
  8
0
  2
*U67
 70
     1
 10
0.0
 20
0.0
 30
0.0
  3
*U67
  1

  0
TEXT
  5
400
  8
0
  6
CONTINUOUS
 62
     4
 10
66.422834884413817
 20
-39.681550647929861
 30
0.0
 40
5.0
  1
φ4.2
  7
ゴシック
  0
ENDBLK
  5
402
  8
0
  0
BLOCK
  8
0
  2
*U68
 70
     1
 10
0.0
 20
0.0
 30
0.0
  3
*U68
  1

  0
TEXT
  5
40E
  8
0
  6
CONTINUOUS
 62
     4
 10
136.40865019525751
 20
-53.185871952097287
 30
0.0
 40
5.0
  1
φ4.2
  7
ゴシック
  0
ENDBLK
  5
410
  8
0
  0
BLOCK
  8
0
  2
*U69
 70
     1
 10
0.0
 20
0.0
 30
0.0
  3
*U69
  1

  0
TEXT
  5
412
  8
0
  6
CONTINUOUS
 62
     4
 10
137.249081451238
 20
1.000473874993862
 30
0.0
 40
5.0
  1
φ7.5
  7
ゴシック
  0
ENDBLK
  5
414
  8
0
  0
ENDSEC
  0
SECTION
  2
ENTITIES
  0
LINE
  5
2F
  8
図枠
 62
     5
 10
257.55866668430002
 20
185.2566668222
 30
0.0
 11
257.55866668430002
 21
215.2566668222
 31
0.0
  0
LINE
  5
30
  8
図枠
 62
     5
 10
237.55866668429999
 20
185.2566668222
 30
0.0
 11
237.55866668429999
 21
215.2566668222
 31
0.0
  0
LINE
  5
31
  8
図枠
 62
     5
 10
89.558666684300007
 20
195.2566668222
 30
0.0
 11
277.55866668430002
 21
195.2566668222
 31
0.0
  0
LINE
  5
32
  8
図枠
 62
     5
 10
89.558666684300007
 20
205.2566668222
 30
0.0
 11
277.55866668430002
 21
205.2566668222
 31
0.0
  0
LINE
  5
33
  8
図枠
 62
     5
 10
96.990095912300006
 20
204.69190182169999
 30
0.0
 11
92.040095912299989
 21
196.11825032420001
 31
0.0
  0
LINE
  5
34
  8
図枠
 62
     5
 10
96.990095912300006
 20
204.69190182169999
 30
0.0
 11
101.9400959123
 21
196.11825032420001
 31
0.0
  0
INSERT
  5
35
  8
0
  6
CONTINUOUS
  2
*U30
 10
0.0
 20
0.0
 30
0.0
  0
INSERT
  5
36
  8
0
  6
CONTINUOUS
  2
*U31
 10
0.0
 20
0.0
 30
0.0
  0
LINE
  5
37
  8
図枠
 62
     5
 10
92.040095912299989
 20
186.2182503242
 30
0.0
 11
101.9400959123
 21
186.2182503242
 31
0.0
  0
LINE
  5
38
  8
図枠
 62
     5
 10
92.040095912299989
 20
196.11825032420001
 30
0.0
 11
101.9400959123
 21
196.11825032420001
 31
0.0
  0
LINE
  5
39
  8
図枠
 62
     5
 10
96.990095912300006
 20
194.79190182170001
 30
0.0
 11
101.9400959123
 21
186.2182503242
 31
0.0
  0
LINE
  5
3A
  8
図枠
 62
     5
 10
96.990095912300006
 20
194.79190182170001
 30
0.0
 11
92.040095912299989
 21
186.2182503242
 31
0.0
  0
INSERT
  5
3B
  8
0
  6
CONTINUOUS
  2
*U32
 10
0.0
 20
0.0
 30
0.0
  0
INSERT
  5
3C
  8
0
  6
CONTINUOUS
  2
*U33
 10
0.0
 20
0.0
 30
0.0
  0
CIRCLE
  5
3E
  8
ﾚｲﾔ_10
 62
     5
 10
133.64726562499999
 20
121.4287109375
 30
0.0
 40
3.75
  0
CIRCLE
  5
3F
  8
ﾚｲﾔ_10
 62
     5
 10
133.64726562499999
 20
121.4287109375
 30
0.0
 40
2.1000000000000001
  0
LINE
  5
40
  8
ﾚｲﾔ_10
  6
BORDER
 62
     3
 10
138.64726562499999
 20
121.4287109375
 30
0.0
 11
128.64726562499999
 21
121.4287109375
 31
0.0
  0
ARC
  5
41
  8
ﾚｲﾔ_10
 62
     5
 10
93.647265625000017
 20
130.4287109375
 30
0.0
 40
33.0
 50
152.9643082106
 51
207.0356917894
  0
LINE
  5
42
  8
ﾚｲﾔ_10
  6
BORDER
 62
     3
 10
75.647265625000003
 20
121.4287109375
 30
0.0
 11
65.647265625000003
 21
121.4287109375
 31
0.0
  0
CIRCLE
  5
43
  8
ﾚｲﾔ_10
 62
     5
 10
133.64726562499999
 20
139.4287109375
 30
0.0
 40
2.1000000000000001
  0
LINE
  5
44
  8
ﾚｲﾔ_10
  6
BORDER
 62
     3
 10
97.147265625000003
 20
130.4287109375
 30
0.0
 11
107.147265625
 21
130.4287109375
 31
0.0
  0
CIRCLE
  5
45
  8
ﾚｲﾔ_10
 62
     5
 10
102.147265625
 20
130.4287109375
 30
0.0
 40
2.1000000000000001
  0
CIRCLE
  5
46
  8
ﾚｲﾔ_10
 62
     5
 10
70.647265625000003
 20
139.4287109375
 30
0.0
 40
2.1000000000000001
  0
CIRCLE
  5
47
  8
ﾚｲﾔ_10
 62
     5
 10
70.647265625000003
 20
139.4287109375
 30
0.0
 40
3.75
  0
LINE
  5
48
  8
ﾚｲﾔ_10
  6
BORDER
 62
     3
 10
70.647265625000003
 20
144.4287109375
 30
0.0
 11
70.647265625000003
 21
134.4287109375
 31
0.0
  0
LINE
  5
49
  8
ﾚｲﾔ_10
  6
BORDER
 62
     3
 10
75.647265625000003
 20
139.4287109375
 30
0.0
 11
65.647265625000003
 21
139.4287109375
 31
0.0
  0
CIRCLE
  5
4A
  8
ﾚｲﾔ_10
 62
     5
 10
133.64726562499999
 20
139.4287109375
 30
0.0
 40
3.75
  0
LINE
  5
4B
  8
ﾚｲﾔ_10
  6
BORDER
 62
     3
 10
133.64726562499999
 20
144.4287109375
 30
0.0
 11
133.64726562499999
 21
134.4287109375
 31
0.0
  0
CIRCLE
  5
4C
  8
ﾚｲﾔ_10
 62
     5
 10
102.147265625
 20
130.4287109375
 30
0.0
 40
3.75
  0
LINE
  5
4D
  8
ﾚｲﾔ_10
  6
BORDER
 62
     3
 10
102.147265625
 20
135.4287109375
 30
0.0
 11
102.147265625
 21
125.4287109375
 31
0.0
  0
LINE
  5
4E
  8
ﾚｲﾔ_10
  6
BORDER
 62
     3
 10
138.64726562499999
 20
139.4287109375
 30
0.0
 11
128.64726562499999
 21
139.4287109375
 31
0.0
  0
DIMENSION
  5
5F
  8
寸法線
  2
*D0
 10
133.64726562499999
 20
95.428710937499986
 30
0.0
 11
149.64726562499999
 21
95.428710937499986
 31
0.0
 70
   128
  1
<>
 13
133.64726562499999
 23
116.4287109375
 33
0.0
 14
165.64726562499999
 24
115.4287109375
 34
0.0
 50
180.0
  0
LINE
  5
60
  8
ﾚｲﾔ_10
 62
     5
 10
64.253388711599996
 20
145.4287109375
 30
0.0
 11
165.64726562499999
 21
145.4287109375
 31
0.0
  0
LINE
  5
61
  8
ﾚｲﾔ_10
 62
     5
 10
165.64726562499999
 20
115.4287109375
 30
0.0
 11
64.253388711599996
 21
115.4287109375
 31
0.0
  0
LINE
  5
62
  8
図枠
 62
     5
 10
89.558666684300007
 20
185.2566668222
 30
0.0
 11
277.55866668430002
 21
185.2566668222
 31
0.0
  0
INSERT
  5
63
  8
0
  6
CONTINUOUS
  2
*U34
 10
0.0
 20
0.0
 30
0.0
  0
LINE
  5
64
  8
図枠
 62
     5
 10
89.558666684300007
 20
185.2566668222
 30
0.0
 11
89.558666684300007
 21
215.2566668222
 31
0.0
  0
LINE
  5
65
  8
図枠
 62
     5
 10
105.55866668429999
 20
185.2566668222
 30
0.0
 11
105.55866668429999
 21
215.2566668222
 31
0.0
  0
LINE
  5
66
  8
図枠
 62
     5
 10
137.55866668429999
 20
185.2566668222
 30
0.0
 11
137.55866668429999
 21
215.2566668222
 31
0.0
  0
LINE
  5
67
  8
ﾚｲﾔ_10
  6
STITCH
 10
162.6472656249999
 20
117.6787109375
 30
0.0
 11
164.29726562499999
 21
119.32871093750001
 31
0.0
  0
LINE
  5
68
  8
ﾚｲﾔ_10
  6
STITCH
 10
164.29726562499999
 20
123.52871093749999
 30
0.0
 11
164.29726562499999
 21
119.32871093750001
 31
0.0
  0
LINE
  5
69
  8
ﾚｲﾔ_10
  6
STITCH
 10
164.29726562499999
 20
119.32871093750001
 30
0.0
 11
165.64726562499999
 21
119.32871093750001
 31
0.0
  0
LINE
  5
6A
  8
ﾚｲﾔ_10
  6
STITCH
 10
164.29726562499999
 20
128.32871093750001
 30
0.0
 11
164.29726562499999
 21
132.52871093749999
 31
0.0
  0
LINE
  5
6B
  8
ﾚｲﾔ_10
  6
STITCH
 10
164.29726562499999
 20
132.52871093749999
 30
0.0
 11
165.64726562499999
 21
132.52871093749999
 31
0.0
  0
LINE
  5
6C
  8
ﾚｲﾔ_10
  6
STITCH
 10
164.29726562499999
 20
128.32871093750001
 30
0.0
 11
165.64726562499999
 21
128.32871093750001
 31
0.0
  0
LINE
  5
6D
  8
ﾚｲﾔ_10
  6
BORDER
 62
     3
 10
159.2162369792
 20
130.4287109375
 30
0.0
 11
169.43671316960001
 21
130.4287109375
 31
0.0
  0
LINE
  5
6E
  8
ﾚｲﾔ_10
  6
STITCH
 10
162.6472656249999
 20
134.1787109375
 30
0.0
 11
164.29726562499999
 21
132.52871093749999
 31
0.0
  0
LINE
  5
6F
  8
ﾚｲﾔ_10
  6
STITCH
 10
162.6472656249999
 20
126.6787109375
 30
0.0
 11
164.29726562499999
 21
128.32871093750001
 31
0.0
  0
LINE
  5
70
  8
ﾚｲﾔ_10
  6
STITCH
 10
162.6472656249999
 20
125.1787109375
 30
0.0
 11
164.29726562499999
 21
123.52871093749999
 31
0.0
  0
LINE
  5
71
  8
ﾚｲﾔ_10
  6
STITCH
 10
164.29726562499999
 20
123.52871093749999
 30
0.0
 11
165.64726562499999
 21
123.52871093749999
 31
0.0
  0
LINE
  5
72
  8
ﾚｲﾔ_10
  6
STITCH
 10
162.6472656249999
 20
135.6787109375
 30
0.0
 11
164.29726562499999
 21
137.32871093750001
 31
0.0
  0
LINE
  5
73
  8
ﾚｲﾔ_10
  6
STITCH
 10
162.6472656249999
 20
143.1787109375
 30
0.0
 11
164.29726562499999
 21
141.52871093749999
 31
0.0
  0
LINE
  5
74
  8
ﾚｲﾔ_10
  6
BORDER
 62
     3
 10
159.2162369792
 20
139.4287109375
 30
0.0
 11
169.43671316960001
 21
139.4287109375
 31
0.0
  0
LINE
  5
75
  8
ﾚｲﾔ_10
  6
STITCH
 10
164.29726562499999
 20
137.32871093750001
 30
0.0
 11
165.64726562499999
 21
137.32871093750001
 31
0.0
  0
LINE
  5
76
  8
ﾚｲﾔ_10
  6
STITCH
 10
164.29726562499999
 20
141.52871093749999
 30
0.0
 11
165.64726562499999
 21
141.52871093749999
 31
0.0
  0
LINE
  5
77
  8
ﾚｲﾔ_10
  6
STITCH
 10
164.29726562499999
 20
137.32871093750001
 30
0.0
 11
164.29726562499999
 21
141.52871093749999
 31
0.0
  0
DIMENSION
  5
7F
  8
寸法線
  2
*D1
 10
93.647265625000017
 20
130.4287109375
 30
0.0
 11
23.596656899900001
 21
146.5457334406
 31
0.0
 70
   132
  1
<>
 15
61.771713357499991
 25
138.9697394259
 35
0.0
 40
0.0
  0
DIMENSION
  5
8E
  8
寸法線
  2
*D2
 10
70.647265625000003
 20
95.428710937499986
 30
0.0
 11
86.397265624999989
 21
95.428710937499986
 31
0.0
 70
   128
  1
<>
 13
70.647265625000003
 23
116.4287109375
 33
0.0
 14
102.147265625
 24
125.4287109375
 34
0.0
 50
180.0
  0
DIMENSION
  5
9D
  8
寸法線
  2
*D3
 10
102.147265625
 20
95.428710937499986
 30
0.0
 11
117.897265625
 21
95.428710937499986
 31
0.0
 70
   128
  1
<>
 13
102.147265625
 23
125.4287109375
 33
0.0
 14
133.64726562499999
 24
116.4287109375
 34
0.0
 50
180.0
  0
DIMENSION
  5
AC
  8
寸法線
  2
*D4
 10
60.647265625000003
 20
95.428710937499986
 30
0.0
 11
65.647265625000003
 21
95.428710937499986
 31
0.0
 70
   128
  1
<>
 13
60.647265625000003
 23
130.4287109375
 33
0.0
 14
70.647265625000003
 24
116.4287109375
 34
0.0
 50
180.0
  0
LINE
  5
AD
  8
ﾚｲﾔ_10
  6
BORDER
 62
     3
 10
70.647265625000003
 20
126.4287109375
 30
0.0
 11
70.647265625000003
 21
116.4287109375
 31
0.0
  0
CIRCLE
  5
AE
  8
ﾚｲﾔ_10
 62
     5
 10
70.647265625000003
 20
121.4287109375
 30
0.0
 40
3.75
  0
CIRCLE
  5
AF
  8
ﾚｲﾔ_10
 62
     5
 10
70.647265625000003
 20
121.4287109375
 30
0.0
 40
2.1000000000000001
  0
LINE
  5
B0
  8
ﾚｲﾔ_10
  6
BORDER
 62
     3
 10
133.64726562499999
 20
126.4287109375
 30
0.0
 11
133.64726562499999
 21
116.4287109375
 31
0.0
  0
LINE
  5
B1
  8
図枠
 10
45.5586666843
 20
-113.7433331778
 30
0.0
 11
277.55866668430002
 21
-113.7433331778
 31
0.0
  0
LINE
  5
B2
  8
図枠
 10
148.21962830679999
 20
-119.93933317779999
 30
0.0
 11
148.21962830679999
 21
-124.5473331778
 31
0.0
  0
LINE
  5
B3
  8
図枠
 10
148.9761446839
 20
-157.36705643080001
 30
0.0
 11
148.60067801720001
 21
-156.0870564308
 31
0.0
  0
LINE
  5
B4
  8
図枠
 10
148.21962830679999
 20
-124.5473331778
 30
0.0
 11
157.4356283068
 21
-126.8513331778
 31
0.0
  0
LINE
  5
B5
  8
図枠
 10
148.21962830679999
 20
-124.5473331778
 30
0.0
 11
157.4356283068
 21
-126.8513331778
 31
0.0
  0
LINE
  5
B6
  8
図枠
 10
148.21962830679999
 20
-124.5473331778
 30
0.0
 11
157.4356283068
 21
-126.8513331778
 31
0.0
  0
LINE
  5
B7
  8
図枠
 10
148.21962830679999
 20
-119.93933317779999
 30
0.0
 11
148.21962830679999
 21
-124.5473331778
 31
0.0
  0
LINE
  5
B8
  8
図枠
 10
148.21962830679999
 20
-119.93933317779999
 30
0.0
 11
157.4356283068
 21
-117.63533317780001
 31
0.0
  0
LINE
  5
B9
  8
図枠
 10
150.47801135060001
 20
-162.48705643080001
 30
0.0
 11
154.9580113506
 21
-162.48705643080001
 31
0.0
  0
LINE
  5
BA
  8
図枠
 10
146.9580113506
 20
-150.48705643080001
 30
0.0
 11
153.35801135060001
 21
-150.48705643080001
 31
0.0
  0
LINE
  5
BB
  8
図枠
 10
148.21962830679999
 20
-119.93933317779999
 30
0.0
 11
148.21962830679999
 21
-124.5473331778
 31
0.0
  0
LINE
  5
BC
  8
図枠
 10
143.7580113505999
 20
-160.2470564308
 30
0.0
 11
149.8209446839
 21
-160.2470564308
 31
0.0
  0
LINE
  5
BD
  8
図枠
 10
148.21962830679999
 20
-119.93933317779999
 30
0.0
 11
148.21962830679999
 21
-124.5473331778
 31
0.0
  0
LINE
  5
BE
  8
図枠
 10
147.75587801719999
 20
-153.20705643080001
 30
0.0
 11
146.9580113506
 21
-150.48705643080001
 31
0.0
  0
LINE
  5
BF
  8
図枠
 10
143.7580113505999
 20
-156.0870564308
 30
0.0
 11
148.60067801720001
 21
-156.0870564308
 31
0.0
  0
LINE
  5
C0
  8
図枠
 10
148.21962830679999
 20
-119.93933317779999
 30
0.0
 11
157.4356283068
 21
-117.63533317780001
 31
0.0
  0
LINE
  5
C1
  8
図枠
 10
148.21962830679999
 20
-119.93933317779999
 30
0.0
 11
157.4356283068
 21
-117.63533317780001
 31
0.0
  0
LINE
  5
C2
  8
図枠
 10
143.7580113505999
 20
-157.36705643080001
 30
0.0
 11
148.9761446839
 21
-157.36705643080001
 31
0.0
  0
LINE
  5
C3
  8
図枠
 10
148.21962830679999
 20
-119.93933317779999
 30
0.0
 11
157.4356283068
 21
-117.63533317780001
 31
0.0
  0
LINE
  5
C4
  8
図枠
 10
143.7580113505999
 20
-153.20705643080001
 30
0.0
 11
147.75587801719999
 21
-153.20705643080001
 31
0.0
  0
LINE
  5
C5
  8
図枠
 10
148.21962830679999
 20
-124.5473331778
 30
0.0
 11
157.4356283068
 21
-126.8513331778
 31
0.0
  0
LINE
  5
C6
  8
図枠
 10
150.47801135060001
 20
-162.48705643080001
 30
0.0
 11
149.8209446839
 21
-160.2470564308
 31
0.0
  0
LINE
  5
C7
  8
ﾚｲﾔ_10
  6
BORDER
 62
     3
 10
159.2162369792
 20
121.4287109375
 30
0.0
 11
169.43671316960001
 21
121.4287109375
 31
0.0
  0
LINE
  5
C8
  8
ﾚｲﾔ_10
 62
     5
 10
165.64726562499999
 20
145.4287109375
 30
0.0
 11
165.64726562499999
 21
115.4287109375
 31
0.0
  0
LINE
  5
C9
  8
ﾚｲﾔ_10
 62
     5
 10
162.6472656249999
 20
145.4287109375
 30
0.0
 11
162.6472656249999
 21
115.4287109375
 31
0.0
  0
LINE
  5
CA
  8
図枠
 10
105.55866668429999
 20
-130.7433331778
 30
0.0
 11
105.55866668429999
 21
-147.7433331778
 31
0.0
  0
LINE
  5
CB
  8
図枠
 10
111.9530694163
 20
-153.6870564308
 30
0.0
 11
111.9530694163
 21
-152.88705643079999
 31
0.0
  0
LINE
  5
CC
  8
図枠
 10
121.5530694163
 20
-150.48705643080001
 30
0.0
 11
115.1530694163
 21
-150.48705643080001
 31
0.0
  0
LINE
  5
CD
  8
図枠
 10
45.5586666843
 20
-113.7433331778
 30
0.0
 11
45.5586666843
 21
-164.7433331778
 31
0.0
  0
LINE
  5
CE
  8
図枠
 10
45.5586666843
 20
-80.743333177799997
 30
0.0
 11
45.5586666843
 21
-113.7433331778
 31
0.0
  0
LINE
  5
CF
  8
図枠
 10
107.9530694163
 20
-158.48705643080001
 30
0.0
 11
111.9530694163
 21
-158.48705643080001
 31
0.0
  0
LINE
  5
D0
  8
図枠
 10
85.558666684300007
 20
-113.7433331778
 30
0.0
 11
85.558666684300007
 21
-80.743333177799997
 31
0.0
  0
INSERT
  5
D1
  8
0
  6
CONTINUOUS
  2
*U35
 10
0.0
 20
0.0
 30
0.0
  0
LINE
  5
D2
  8
図枠
 10
89.558666684300007
 20
-122.2433331778
 30
0.0
 11
117.55866668429999
 21
-122.2433331778
 31
0.0
  0
LINE
  5
D3
  8
図枠
 10
143.7580113505999
 20
-153.20705643080001
 30
0.0
 11
143.7580113505999
 21
-156.0870564308
 31
0.0
  0
LINE
  5
D4
  8
図枠
 10
111.9530694163
 20
-158.48705643080001
 30
0.0
 11
111.9530694163
 21
-156.0870564308
 31
0.0
  0
LINE
  5
D5
  8
図枠
 10
114.3530694163
 20
-150.48705643080001
 30
0.0
 11
107.9530694163
 21
-150.48705643080001
 31
0.0
  0
LINE
  5
D6
  8
図枠
 10
143.7580113505999
 20
-157.36705643080001
 30
0.0
 11
143.7580113505999
 21
-160.2470564308
 31
0.0
  0
INSERT
  5
D7
  8
0
  6
CONTINUOUS
  2
*U36
 10
0.0
 20
0.0
 30
0.0
  0
INSERT
  5
D8
  8
0
  6
CONTINUOUS
  2
*U37
 10
0.0
 20
0.0
 30
0.0
  0
INSERT
  5
D9
  8
0
  6
CONTINUOUS
  2
*U38
 10
0.0
 20
0.0
 30
0.0
  0
LINE
  5
DA
  8
図枠
 10
45.5586666843
 20
-130.7433331778
 30
0.0
 11
277.55866668430002
 21
-130.7433331778
 31
0.0
  0
LINE
  5
DB
  8
図枠
 10
45.5586666843
 20
-80.743333177799997
 30
0.0
 11
277.55866668430002
 21
-80.743333177799997
 31
0.0
  0
INSERT
  5
DC
  8
0
  6
CONTINUOUS
  2
*U39
 10
0.0
 20
0.0
 30
0.0
  0
LINE
  5
DD
  8
図枠
 10
109.55866668429999
 20
-139.2433331778
 30
0.0
 11
161.55866668429999
 21
-139.2433331778
 31
0.0
  0
LINE
  5
DE
  8
図枠
 10
45.5586666843
 20
-102.7433331778
 30
0.0
 11
277.55866668430002
 21
-102.7433331778
 31
0.0
  0
LINE
  5
DF
  8
図枠
  6
BORDER
 10
130.7746666843
 20
-122.2433331778
 30
0.0
 11
160.34266668430001
 21
-122.2433331778
 31
0.0
  0
LINE
  5
E0
  8
図枠
 10
45.5586666843
 20
-147.7433331778
 30
0.0
 11
277.55866668430002
 21
-147.7433331778
 31
0.0
  0
INSERT
  5
E1
  8
0
  6
CONTINUOUS
  2
*U40
 10
0.0
 20
0.0
 30
0.0
  0
LINE
  5
E2
  8
図枠
 10
45.5586666843
 20
-91.743333177800025
 30
0.0
 11
277.55866668430002
 21
-91.743333177800025
 31
0.0
  0
LINE
  5
E3
  8
図枠
 10
125.81003911329999
 20
-161.6870564308
 30
0.0
 11
125.81003911329999
 21
-159.28705643079999
 31
0.0
  0
LINE
  5
E4
  8
図枠
 10
115.1530694163
 20
-150.48705643080001
 30
0.0
 11
115.1530694163
 21
-153.6870564308
 31
0.0
  0
LINE
  5
E5
  8
図枠
 10
119.1530694163
 20
-152.88705643079999
 30
0.0
 11
121.5530694163
 21
-150.48705643080001
 31
0.0
  0
LINE
  5
E6
  8
図枠
 10
121.5530694163
 20
-153.6870564308
 30
0.0
 11
121.5530694163
 21
-156.0870564308
 31
0.0
  0
LINE
  5
E7
  8
図枠
 10
121.5530694163
 20
-153.6870564308
 30
0.0
 11
119.1530694163
 21
-153.6870564308
 31
0.0
  0
LINE
  5
E8
  8
図枠
 10
115.1530694163
 20
-156.0870564308
 30
0.0
 11
115.1530694163
 21
-156.88705643079999
 31
0.0
  0
LINE
  5
E9
  8
図枠
 10
112.75306941629999
 20
-159.28705643079999
 30
0.0
 11
107.9530694163
 21
-159.28705643079999
 31
0.0
  0
LINE
  5
EA
  8
図枠
 10
107.9530694163
 20
-150.48705643080001
 30
0.0
 11
107.9530694163
 21
-153.6870564308
 31
0.0
  0
LINE
  5
EB
  8
図枠
 10
107.9530694163
 20
-156.0870564308
 30
0.0
 11
107.9530694163
 21
-158.48705643080001
 31
0.0
  0
ARC
  5
EC
  8
図枠
 10
129.81003911330001
 20
-152.88705643079999
 30
0.0
 40
8.8000000000000007
 50
270.0
 51
302.54495885400001
  0
LINE
  5
ED
  8
図枠
 10
49.5586666843
 20
-122.2433331778
 30
0.0
 11
81.558666684299993
 21
-122.2433331778
 31
0.0
  0
INSERT
  5
EE
  8
0
  6
CONTINUOUS
  2
*U41
 10
0.0
 20
0.0
 30
0.0
  0
LINE
  5
EF
  8
図枠
 10
132.21003911330001
 20
-154.20243285870001
 30
0.0
 11
131.30494243339999
 21
-155.10752953860001
 31
0.0
  0
LINE
  5
F0
  8
図枠
 10
115.1530694163
 20
-153.6870564308
 30
0.0
 11
111.9530694163
 21
-153.6870564308
 31
0.0
  0
INSERT
  5
F1
  8
0
  6
CONTINUOUS
  2
*U42
 10
0.0
 20
0.0
 30
0.0
  0
INSERT
  5
F2
  8
0
  6
CONTINUOUS
  2
*U43
 10
0.0
 20
0.0
 30
0.0
  0
POLYLINE
  8
図枠
  5
418
  66
     1
 10
0.000000
 20
0.000000
 30
0.000000
  70
     8
  0
VERTEX
  8
図枠
  5
419
 10
125.810
 20
-154.718
 30
0.000000
  70
    32
  0
VERTEX
  8
図枠
  5
41A
 10
125.839
 20
-154.744
 30
0.000000
  70
    32
  0
VERTEX
  8
図枠
  5
41B
 10
125.868
 20
-154.771
 30
0.000000
  70
    32
  0
VERTEX
  8
図枠
  5
41C
 10
125.896
 20
-154.797
 30
0.000000
  70
    32
  0
VERTEX
  8
図枠
  5
41D
 10
125.925
 20
-154.824
 30
0.000000
  70
    32
  0
VERTEX
  8
図枠
  5
41E
 10
125.954
 20
-154.851
 30
0.000000
  70
    32
  0
VERTEX
  8
図枠
  5
41F
 10
125.983
 20
-154.877
 30
0.000000
  70
    32
  0
VERTEX
  8
図枠
  5
420
 10
126.012
 20
-154.904
 30
0.000000
  70
    32
  0
VERTEX
  8
図枠
  5
421
 10
126.041
 20
-154.930
 30
0.000000
  70
    32
  0
VERTEX
  8
図枠
  5
422
 10
126.069
 20
-154.957
 30
0.000000
  70
    32
  0
VERTEX
  8
図枠
  5
423
 10
126.098
 20
-154.983
 30
0.000000
  70
    32
  0
VERTEX
  8
図枠
  5
424
 10
126.127
 20
-155.010
 30
0.000000
  70
    32
  0
VERTEX
  8
図枠
  5
425
 10
126.156
 20
-155.036
 30
0.000000
  70
    32
  0
VERTEX
  8
図枠
  5
426
 10
126.185
 20
-155.063
 30
0.000000
  70
    32
  0
VERTEX
  8
図枠
  5
427
 10
126.214
 20
-155.089
 30
0.000000
  70
    32
  0
VERTEX
  8
図枠
  5
428
 10
126.242
 20
-155.116
 30
0.000000
  70
    32
  0
VERTEX
  8
図枠
  5
429
 10
126.271
 20
-155.142
 30
0.000000
  70
    32
  0
VERTEX
  8
図枠
  5
42A
 10
126.300
 20
-155.169
 30
0.000000
  70
    32
  0
VERTEX
  8
図枠
  5
42B
 10
126.329
 20
-155.195
 30
0.000000
  70
    32
  0
VERTEX
  8
図枠
  5
42C
 10
126.358
 20
-155.222
 30
0.000000
  70
    32
  0
VERTEX
  8
図枠
  5
42D
 10
126.387
 20
-155.248
 30
0.000000
  70
    32
  0
VERTEX
  8
図枠
  5
42E
 10
126.416
 20
-155.275
 30
0.000000
  70
    32
  0
VERTEX
  8
図枠
  5
42F
 10
126.445
 20
-155.301
 30
0.000000
  70
    32
  0
VERTEX
  8
図枠
  5
430
 10
126.473
 20
-155.328
 30
0.000000
  70
    32
  0
VERTEX
  8
図枠
  5
431
 10
126.502
 20
-155.354
 30
0.000000
  70
    32
  0
VERTEX
  8
図枠
  5
432
 10
126.531
 20
-155.380
 30
0.000000
  70
    32
  0
VERTEX
  8
図枠
  5
433
 10
126.560
 20
-155.407
 30
0.000000
  70
    32
  0
VERTEX
  8
図枠
  5
434
 10
126.589
 20
-155.433
 30
0.000000
  70
    32
  0
VERTEX
  8
図枠
  5
435
 10
126.618
 20
-155.460
 30
0.000000
  70
    32
  0
VERTEX
  8
図枠
  5
436
 10
126.647
 20
-155.486
 30
0.000000
  70
    32
  0
VERTEX
  8
図枠
  5
437
 10
126.676
 20
-155.512
 30
0.000000
  70
    32
  0
VERTEX
  8
図枠
  5
438
 10
126.705
 20
-155.539
 30
0.000000
  70
    32
  0
VERTEX
  8
図枠
  5
439
 10
126.734
 20
-155.565
 30
0.000000
  70
    32
  0
VERTEX
  8
図枠
  5
43A
 10
126.763
 20
-155.591
 30
0.000000
  70
    32
  0
VERTEX
  8
図枠
  5
43B
 10
126.792
 20
-155.617
 30
0.000000
  70
    32
  0
VERTEX
  8
図枠
  5
43C
 10
126.821
 20
-155.644
 30
0.000000
  70
    32
  0
VERTEX
  8
図枠
  5
43D
 10
126.850
 20
-155.670
 30
0.000000
  70
    32
  0
VERTEX
  8
図枠
  5
43E
 10
126.879
 20
-155.696
 30
0.000000
  70
    32
  0
VERTEX
  8
図枠
  5
43F
 10
126.908
 20
-155.722
 30
0.000000
  70
    32
  0
VERTEX
  8
図枠
  5
440
 10
126.937
 20
-155.748
 30
0.000000
  70
    32
  0
VERTEX
  8
図枠
  5
441
 10
126.966
 20
-155.774
 30
0.000000
  70
    32
  0
VERTEX
  8
図枠
  5
442
 10
126.995
 20
-155.801
 30
0.000000
  70
    32
  0
VERTEX
  8
図枠
  5
443
 10
127.024
 20
-155.827
 30
0.000000
  70
    32
  0
VERTEX
  8
図枠
  5
444
 10
127.053
 20
-155.853
 30
0.000000
  70
    32
  0
VERTEX
  8
図枠
  5
445
 10
127.082
 20
-155.879
 30
0.000000
  70
    32
  0
VERTEX
  8
図枠
  5
446
 10
127.111
 20
-155.905
 30
0.000000
  70
    32
  0
VERTEX
  8
図枠
  5
447
 10
127.141
 20
-155.931
 30
0.000000
  70
    32
  0
VERTEX
  8
図枠
  5
448
 10
127.170
 20
-155.957
 30
0.000000
  70
    32
  0
VERTEX
  8
図枠
  5
449
 10
127.199
 20
-155.983
 30
0.000000
  70
    32
  0
VERTEX
  8
図枠
  5
44A
 10
127.228
 20
-156.009
 30
0.000000
  70
    32
  0
VERTEX
  8
図枠
  5
44B
 10
127.257
 20
-156.034
 30
0.000000
  70
    32
  0
VERTEX
  8
図枠
  5
44C
 10
127.286
 20
-156.060
 30
0.000000
  70
    32
  0
VERTEX
  8
図枠
  5
44D
 10
127.316
 20
-156.086
 30
0.000000
  70
    32
  0
VERTEX
  8
図枠
  5
44E
 10
127.345
 20
-156.112
 30
0.000000
  70
    32
  0
VERTEX
  8
図枠
  5
44F
 10
127.374
 20
-156.138
 30
0.000000
  70
    32
  0
VERTEX
  8
図枠
  5
450
 10
127.403
 20
-156.164
 30
0.000000
  70
    32
  0
VERTEX
  8
図枠
  5
451
 10
127.433
 20
-156.189
 30
0.000000
  70
    32
  0
VERTEX
  8
図枠
  5
452
 10
127.462
 20
-156.215
 30
0.000000
  70
    32
  0
VERTEX
  8
図枠
  5
453
 10
127.491
 20
-156.241
 30
0.000000
  70
    32
  0
VERTEX
  8
図枠
  5
454
 10
127.521
 20
-156.266
 30
0.000000
  70
    32
  0
VERTEX
  8
図枠
  5
455
 10
127.550
 20
-156.292
 30
0.000000
  70
    32
  0
VERTEX
  8
図枠
  5
456
 10
127.579
 20
-156.317
 30
0.000000
  70
    32
  0
VERTEX
  8
図枠
  5
457
 10
127.609
 20
-156.343
 30
0.000000
  70
    32
  0
VERTEX
  8
図枠
  5
458
 10
127.638
 20
-156.368
 30
0.000000
  70
    32
  0
VERTEX
  8
図枠
  5
459
 10
127.667
 20
-156.394
 30
0.000000
  70
    32
  0
VERTEX
  8
図枠
  5
45A
 10
127.697
 20
-156.419
 30
0.000000
  70
    32
  0
VERTEX
  8
図枠
  5
45B
 10
127.726
 20
-156.445
 30
0.000000
  70
    32
  0
VERTEX
  8
図枠
  5
45C
 10
127.756
 20
-156.470
 30
0.000000
  70
    32
  0
VERTEX
  8
図枠
  5
45D
 10
127.785
 20
-156.495
 30
0.000000
  70
    32
  0
VERTEX
  8
図枠
  5
45E
 10
127.815
 20
-156.520
 30
0.000000
  70
    32
  0
VERTEX
  8
図枠
  5
45F
 10
127.844
 20
-156.546
 30
0.000000
  70
    32
  0
VERTEX
  8
図枠
  5
460
 10
127.874
 20
-156.571
 30
0.000000
  70
    32
  0
VERTEX
  8
図枠
  5
461
 10
127.904
 20
-156.596
 30
0.000000
  70
    32
  0
VERTEX
  8
図枠
  5
462
 10
127.933
 20
-156.621
 30
0.000000
  70
    32
  0
VERTEX
  8
図枠
  5
463
 10
127.963
 20
-156.646
 30
0.000000
  70
    32
  0
VERTEX
  8
図枠
  5
464
 10
127.992
 20
-156.671
 30
0.000000
  70
    32
  0
VERTEX
  8
図枠
  5
465
 10
128.022
 20
-156.696
 30
0.000000
  70
    32
  0
VERTEX
  8
図枠
  5
466
 10
128.052
 20
-156.721
 30
0.000000
  70
    32
  0
VERTEX
  8
図枠
  5
467
 10
128.082
 20
-156.746
 30
0.000000
  70
    32
  0
VERTEX
  8
図枠
  5
468
 10
128.111
 20
-156.771
 30
0.000000
  70
    32
  0
VERTEX
  8
図枠
  5
469
 10
128.141
 20
-156.796
 30
0.000000
  70
    32
  0
VERTEX
  8
図枠
  5
46A
 10
128.171
 20
-156.821
 30
0.000000
  70
    32
  0
VERTEX
  8
図枠
  5
46B
 10
128.201
 20
-156.845
 30
0.000000
  70
    32
  0
VERTEX
  8
図枠
  5
46C
 10
128.230
 20
-156.870
 30
0.000000
  70
    32
  0
VERTEX
  8
図枠
  5
46D
 10
128.260
 20
-156.895
 30
0.000000
  70
    32
  0
VERTEX
  8
図枠
  5
46E
 10
128.290
 20
-156.919
 30
0.000000
  70
    32
  0
VERTEX
  8
図枠
  5
46F
 10
128.320
 20
-156.944
 30
0.000000
  70
    32
  0
VERTEX
  8
図枠
  5
470
 10
128.350
 20
-156.968
 30
0.000000
  70
    32
  0
VERTEX
  8
図枠
  5
471
 10
128.380
 20
-156.993
 30
0.000000
  70
    32
  0
VERTEX
  8
図枠
  5
472
 10
128.410
 20
-157.017
 30
0.000000
  70
    32
  0
VERTEX
  8
図枠
  5
473
 10
128.440
 20
-157.041
 30
0.000000
  70
    32
  0
VERTEX
  8
図枠
  5
474
 10
128.470
 20
-157.066
 30
0.000000
  70
    32
  0
VERTEX
  8
図枠
  5
475
 10
128.500
 20
-157.090
 30
0.000000
  70
    32
  0
VERTEX
  8
図枠
  5
476
 10
128.530
 20
-157.114
 30
0.000000
  70
    32
  0
VERTEX
  8
図枠
  5
477
 10
128.560
 20
-157.138
 30
0.000000
  70
    32
  0
VERTEX
  8
図枠
  5
478
 10
128.591
 20
-157.162
 30
0.000000
  70
    32
  0
VERTEX
  8
図枠
  5
479
 10
128.621
 20
-157.186
 30
0.000000
  70
    32
  0
VERTEX
  8
図枠
  5
47A
 10
128.651
 20
-157.210
 30
0.000000
  70
    32
  0
VERTEX
  8
図枠
  5
47B
 10
128.681
 20
-157.234
 30
0.000000
  70
    32
  0
VERTEX
  8
図枠
  5
47C
 10
128.711
 20
-157.258
 30
0.000000
  70
    32
  0
VERTEX
  8
図枠
  5
47D
 10
128.742
 20
-157.282
 30
0.000000
  70
    32
  0
VERTEX
  8
図枠
  5
47E
 10
128.772
 20
-157.306
 30
0.000000
  70
    32
  0
VERTEX
  8
図枠
  5
47F
 10
128.802
 20
-157.330
 30
0.000000
  70
    32
  0
VERTEX
  8
図枠
  5
480
 10
128.833
 20
-157.353
 30
0.000000
  70
    32
  0
VERTEX
  8
図枠
  5
481
 10
128.863
 20
-157.377
 30
0.000000
  70
    32
  0
VERTEX
  8
図枠
  5
482
 10
128.894
 20
-157.400
 30
0.000000
  70
    32
  0
VERTEX
  8
図枠
  5
483
 10
128.924
 20
-157.424
 30
0.000000
  70
    32
  0
VERTEX
  8
図枠
  5
484
 10
128.955
 20
-157.447
 30
0.000000
  70
    32
  0
VERTEX
  8
図枠
  5
485
 10
128.985
 20
-157.471
 30
0.000000
  70
    32
  0
VERTEX
  8
図枠
  5
486
 10
129.016
 20
-157.494
 30
0.000000
  70
    32
  0
VERTEX
  8
図枠
  5
487
 10
129.046
 20
-157.517
 30
0.000000
  70
    32
  0
VERTEX
  8
図枠
  5
488
 10
129.077
 20
-157.540
 30
0.000000
  70
    32
  0
VERTEX
  8
図枠
  5
489
 10
129.108
 20
-157.564
 30
0.000000
  70
    32
  0
VERTEX
  8
図枠
  5
48A
 10
129.138
 20
-157.587
 30
0.000000
  70
    32
  0
VERTEX
  8
図枠
  5
48B
 10
129.169
 20
-157.610
 30
0.000000
  70
    32
  0
VERTEX
  8
図枠
  5
48C
 10
129.200
 20
-157.633
 30
0.000000
  70
    32
  0
VERTEX
  8
図枠
  5
48D
 10
129.231
 20
-157.655
 30
0.000000
  70
    32
  0
VERTEX
  8
図枠
  5
48E
 10
129.262
 20
-157.678
 30
0.000000
  70
    32
  0
VERTEX
  8
図枠
  5
48F
 10
129.292
 20
-157.701
 30
0.000000
  70
    32
  0
VERTEX
  8
図枠
  5
490
 10
129.323
 20
-157.724
 30
0.000000
  70
    32
  0
VERTEX
  8
図枠
  5
491
 10
129.354
 20
-157.746
 30
0.000000
  70
    32
  0
VERTEX
  8
図枠
  5
492
 10
129.385
 20
-157.769
 30
0.000000
  70
    32
  0
VERTEX
  8
図枠
  5
493
 10
129.416
 20
-157.791
 30
0.000000
  70
    32
  0
VERTEX
  8
図枠
  5
494
 10
129.447
 20
-157.814
 30
0.000000
  70
    32
  0
VERTEX
  8
図枠
  5
495
 10
129.479
 20
-157.836
 30
0.000000
  70
    32
  0
VERTEX
  8
図枠
  5
496
 10
129.510
 20
-157.858
 30
0.000000
  70
    32
  0
VERTEX
  8
図枠
  5
497
 10
129.541
 20
-157.881
 30
0.000000
  70
    32
  0
VERTEX
  8
図枠
  5
498
 10
129.572
 20
-157.903
 30
0.000000
  70
    32
  0
VERTEX
  8
図枠
  5
499
 10
129.603
 20
-157.925
 30
0.000000
  70
    32
  0
VERTEX
  8
図枠
  5
49A
 10
129.635
 20
-157.947
 30
0.000000
  70
    32
  0
VERTEX
  8
図枠
  5
49B
 10
129.666
 20
-157.969
 30
0.000000
  70
    32
  0
VERTEX
  8
図枠
  5
49C
 10
129.697
 20
-157.991
 30
0.000000
  70
    32
  0
VERTEX
  8
図枠
  5
49D
 10
129.729
 20
-158.012
 30
0.000000
  70
    32
  0
VERTEX
  8
図枠
  5
49E
 10
129.760
 20
-158.034
 30
0.000000
  70
    32
  0
VERTEX
  8
図枠
  5
49F
 10
129.792
 20
-158.056
 30
0.000000
  70
    32
  0
VERTEX
  8
図枠
  5
4A0
 10
129.823
 20
-158.077
 30
0.000000
  70
    32
  0
VERTEX
  8
図枠
  5
4A1
 10
129.855
 20
-158.099
 30
0.000000
  70
    32
  0
VERTEX
  8
図枠
  5
4A2
 10
129.886
 20
-158.120
 30
0.000000
  70
    32
  0
VERTEX
  8
図枠
  5
4A3
 10
129.918
 20
-158.141
 30
0.000000
  70
    32
  0
VERTEX
  8
図枠
  5
4A4
 10
129.950
 20
-158.163
 30
0.000000
  70
    32
  0
VERTEX
  8
図枠
  5
4A5
 10
129.981
 20
-158.184
 30
0.000000
  70
    32
  0
VERTEX
  8
図枠
  5
4A6
 10
130.013
 20
-158.205
 30
0.000000
  70
    32
  0
VERTEX
  8
図枠
  5
4A7
 10
130.045
 20
-158.226
 30
0.000000
  70
    32
  0
VERTEX
  8
図枠
  5
4A8
 10
130.077
 20
-158.247
 30
0.000000
  70
    32
  0
VERTEX
  8
図枠
  5
4A9
 10
130.109
 20
-158.268
 30
0.000000
  70
    32
  0
VERTEX
  8
図枠
  5
4AA
 10
130.141
 20
-158.289
 30
0.000000
  70
    32
  0
VERTEX
  8
図枠
  5
4AB
 10
130.173
 20
-158.309
 30
0.000000
  70
    32
  0
VERTEX
  8
図枠
  5
4AC
 10
130.205
 20
-158.330
 30
0.000000
  70
    32
  0
VERTEX
  8
図枠
  5
4AD
 10
130.237
 20
-158.351
 30
0.000000
  70
    32
  0
VERTEX
  8
図枠
  5
4AE
 10
130.269
 20
-158.371
 30
0.000000
  70
    32
  0
VERTEX
  8
図枠
  5
4AF
 10
130.301
 20
-158.391
 30
0.000000
  70
    32
  0
VERTEX
  8
図枠
  5
4B0
 10
130.333
 20
-158.412
 30
0.000000
  70
    32
  0
VERTEX
  8
図枠
  5
4B1
 10
130.365
 20
-158.432
 30
0.000000
  70
    32
  0
VERTEX
  8
図枠
  5
4B2
 10
130.398
 20
-158.452
 30
0.000000
  70
    32
  0
VERTEX
  8
図枠
  5
4B3
 10
130.430
 20
-158.472
 30
0.000000
  70
    32
  0
VERTEX
  8
図枠
  5
4B4
 10
130.462
 20
-158.492
 30
0.000000
  70
    32
  0
VERTEX
  8
図枠
  5
4B5
 10
130.495
 20
-158.512
 30
0.000000
  70
    32
  0
VERTEX
  8
図枠
  5
4B6
 10
130.527
 20
-158.532
 30
0.000000
  70
    32
  0
VERTEX
  8
図枠
  5
4B7
 10
130.560
 20
-158.551
 30
0.000000
  70
    32
  0
VERTEX
  8
図枠
  5
4B8
 10
130.592
 20
-158.571
 30
0.000000
  70
    32
  0
SEQEND
  8
図枠
  5
4B9
  0
INSERT
  5
F4
  8
0
  6
CONTINUOUS
  2
*U44
 10
0.0
 20
0.0
 30
0.0
  0
LINE
  5
F5
  8
図枠
 10
106.11130331779999
 20
-153.6870564308
 30
0.0
 11
106.11130331779999
 21
-156.0870564308
 31
0.0
  0
POLYLINE
  8
図枠
  5
4BA
  66
     1
 10
0.000000
 20
0.000000
 30
0.000000
  70
     8
  0
VERTEX
  8
図枠
  5
4BB
 10
131.305
 20
-155.108
 30
0.000000
  70
    32
  0
VERTEX
  8
図枠
  5
4BC
 10
131.316
 20
-155.119
 30
0.000000
  70
    32
  0
VERTEX
  8
図枠
  5
4BD
 10
131.326
 20
-155.131
 30
0.000000
  70
    32
  0
VERTEX
  8
図枠
  5
4BE
 10
131.337
 20
-155.143
 30
0.000000
  70
    32
  0
VERTEX
  8
図枠
  5
4BF
 10
131.347
 20
-155.155
 30
0.000000
  70
    32
  0
VERTEX
  8
図枠
  5
4C0
 10
131.358
 20
-155.166
 30
0.000000
  70
    32
  0
VERTEX
  8
図枠
  5
4C1
 10
131.368
 20
-155.178
 30
0.000000
  70
    32
  0
VERTEX
  8
図枠
  5
4C2
 10
131.379
 20
-155.190
 30
0.000000
  70
    32
  0
VERTEX
  8
図枠
  5
4C3
 10
131.389
 20
-155.202
 30
0.000000
  70
    32
  0
VERTEX
  8
図枠
  5
4C4
 10
131.400
 20
-155.213
 30
0.000000
  70
    32
  0
VERTEX
  8
図枠
  5
4C5
 10
131.411
 20
-155.225
 30
0.000000
  70
    32
  0
VERTEX
  8
図枠
  5
4C6
 10
131.421
 20
-155.237
 30
0.000000
  70
    32
  0
VERTEX
  8
図枠
  5
4C7
 10
131.432
 20
-155.249
 30
0.000000
  70
    32
  0
VERTEX
  8
図枠
  5
4C8
 10
131.442
 20
-155.261
 30
0.000000
  70
    32
  0
VERTEX
  8
図枠
  5
4C9
 10
131.453
 20
-155.272
 30
0.000000
  70
    32
  0
VERTEX
  8
図枠
  5
4CA
 10
131.463
 20
-155.284
 30
0.000000
  70
    32
  0
VERTEX
  8
図枠
  5
4CB
 10
131.474
 20
-155.296
 30
0.000000
  70
    32
  0
VERTEX
  8
図枠
  5
4CC
 10
131.485
 20
-155.308
 30
0.000000
  70
    32
  0
VERTEX
  8
図枠
  5
4CD
 10
131.495
 20
-155.319
 30
0.000000
  70
    32
  0
VERTEX
  8
図枠
  5
4CE
 10
131.506
 20
-155.331
 30
0.000000
  70
    32
  0
VERTEX
  8
図枠
  5
4CF
 10
131.516
 20
-155.343
 30
0.000000
  70
    32
  0
VERTEX
  8
図枠
  5
4D0
 10
131.527
 20
-155.354
 30
0.000000
  70
    32
  0
VERTEX
  8
図枠
  5
4D1
 10
131.537
 20
-155.366
 30
0.000000
  70
    32
  0
VERTEX
  8
図枠
  5
4D2
 10
131.548
 20
-155.378
 30
0.000000
  70
    32
  0
VERTEX
  8
図枠
  5
4D3
 10
131.559
 20
-155.390
 30
0.000000
  70
    32
  0
VERTEX
  8
図枠
  5
4D4
 10
131.569
 20
-155.401
 30
0.000000
  70
    32
  0
VERTEX
  8
図枠
  5
4D5
 10
131.580
 20
-155.413
 30
0.000000
  70
    32
  0
VERTEX
  8
図枠
  5
4D6
 10
131.590
 20
-155.425
 30
0.000000
  70
    32
  0
VERTEX
  8
図枠
  5
4D7
 10
131.601
 20
-155.437
 30
0.000000
  70
    32
  0
VERTEX
  8
図枠
  5
4D8
 10
131.612
 20
-155.448
 30
0.000000
  70
    32
  0
VERTEX
  8
図枠
  5
4D9
 10
131.622
 20
-155.460
 30
0.000000
  70
    32
  0
VERTEX
  8
図枠
  5
4DA
 10
131.633
 20
-155.472
 30
0.000000
  70
    32
  0
VERTEX
  8
図枠
  5
4DB
 10
131.643
 20
-155.483
 30
0.000000
  70
    32
  0
VERTEX
  8
図枠
  5
4DC
 10
131.654
 20
-155.495
 30
0.000000
  70
    32
  0
VERTEX
  8
図枠
  5
4DD
 10
131.665
 20
-155.507
 30
0.000000
  70
    32
  0
VERTEX
  8
図枠
  5
4DE
 10
131.675
 20
-155.518
 30
0.000000
  70
    32
  0
VERTEX
  8
図枠
  5
4DF
 10
131.686
 20
-155.530
 30
0.000000
  70
    32
  0
VERTEX
  8
図枠
  5
4E0
 10
131.697
 20
-155.542
 30
0.000000
  70
    32
  0
VERTEX
  8
図枠
  5
4E1
 10
131.707
 20
-155.553
 30
0.000000
  70
    32
  0
VERTEX
  8
図枠
  5
4E2
 10
131.718
 20
-155.565
 30
0.000000
  70
    32
  0
VERTEX
  8
図枠
  5
4E3
 10
131.728
 20
-155.577
 30
0.000000
  70
    32
  0
VERTEX
  8
図枠
  5
4E4
 10
131.739
 20
-155.588
 30
0.000000
  70
    32
  0
VERTEX
  8
図枠
  5
4E5
 10
131.750
 20
-155.600
 30
0.000000
  70
    32
  0
VERTEX
  8
図枠
  5
4E6
 10
131.760
 20
-155.611
 30
0.000000
  70
    32
  0
VERTEX
  8
図枠
  5
4E7
 10
131.771
 20
-155.623
 30
0.000000
  70
    32
  0
VERTEX
  8
図枠
  5
4E8
 10
131.782
 20
-155.635
 30
0.000000
  70
    32
  0
VERTEX
  8
図枠
  5
4E9
 10
131.792
 20
-155.646
 30
0.000000
  70
    32
  0
VERTEX
  8
図枠
  5
4EA
 10
131.803
 20
-155.658
 30
0.000000
  70
    32
  0
VERTEX
  8
図枠
  5
4EB
 10
131.814
 20
-155.669
 30
0.000000
  70
    32
  0
VERTEX
  8
図枠
  5
4EC
 10
131.824
 20
-155.681
 30
0.000000
  70
    32
  0
VERTEX
  8
図枠
  5
4ED
 10
131.835
 20
-155.693
 30
0.000000
  70
    32
  0
VERTEX
  8
図枠
  5
4EE
 10
131.846
 20
-155.704
 30
0.000000
  70
    32
  0
VERTEX
  8
図枠
  5
4EF
 10
131.857
 20
-155.716
 30
0.000000
  70
    32
  0
VERTEX
  8
図枠
  5
4F0
 10
131.867
 20
-155.727
 30
0.000000
  70
    32
  0
VERTEX
  8
図枠
  5
4F1
 10
131.878
 20
-155.739
 30
0.000000
  70
    32
  0
VERTEX
  8
図枠
  5
4F2
 10
131.889
 20
-155.750
 30
0.000000
  70
    32
  0
VERTEX
  8
図枠
  5
4F3
 10
131.899
 20
-155.762
 30
0.000000
  70
    32
  0
VERTEX
  8
図枠
  5
4F4
 10
131.910
 20
-155.773
 30
0.000000
  70
    32
  0
VERTEX
  8
図枠
  5
4F5
 10
131.921
 20
-155.785
 30
0.000000
  70
    32
  0
VERTEX
  8
図枠
  5
4F6
 10
131.932
 20
-155.796
 30
0.000000
  70
    32
  0
VERTEX
  8
図枠
  5
4F7
 10
131.942
 20
-155.808
 30
0.000000
  70
    32
  0
VERTEX
  8
図枠
  5
4F8
 10
131.953
 20
-155.819
 30
0.000000
  70
    32
  0
VERTEX
  8
図枠
  5
4F9
 10
131.964
 20
-155.830
 30
0.000000
  70
    32
  0
VERTEX
  8
図枠
  5
4FA
 10
131.975
 20
-155.842
 30
0.000000
  70
    32
  0
VERTEX
  8
図枠
  5
4FB
 10
131.985
 20
-155.853
 30
0.000000
  70
    32
  0
VERTEX
  8
図枠
  5
4FC
 10
131.996
 20
-155.865
 30
0.000000
  70
    32
  0
VERTEX
  8
図枠
  5
4FD
 10
132.007
 20
-155.876
 30
0.000000
  70
    32
  0
VERTEX
  8
図枠
  5
4FE
 10
132.018
 20
-155.888
 30
0.000000
  70
    32
  0
VERTEX
  8
図枠
  5
4FF
 10
132.029
 20
-155.899
 30
0.000000
  70
    32
  0
VERTEX
  8
図枠
  5
500
 10
132.039
 20
-155.910
 30
0.000000
  70
    32
  0
VERTEX
  8
図枠
  5
501
 10
132.050
 20
-155.922
 30
0.000000
  70
    32
  0
VERTEX
  8
図枠
  5
502
 10
132.061
 20
-155.933
 30
0.000000
  70
    32
  0
VERTEX
  8
図枠
  5
503
 10
132.072
 20
-155.944
 30
0.000000
  70
    32
  0
VERTEX
  8
図枠
  5
504
 10
132.083
 20
-155.956
 30
0.000000
  70
    32
  0
VERTEX
  8
図枠
  5
505
 10
132.094
 20
-155.967
 30
0.000000
  70
    32
  0
VERTEX
  8
図枠
  5
506
 10
132.105
 20
-155.978
 30
0.000000
  70
    32
  0
VERTEX
  8
図枠
  5
507
 10
132.115
 20
-155.989
 30
0.000000
  70
    32
  0
VERTEX
  8
図枠
  5
508
 10
132.126
 20
-156.001
 30
0.000000
  70
    32
  0
VERTEX
  8
図枠
  5
509
 10
132.137
 20
-156.012
 30
0.000000
  70
    32
  0
VERTEX
  8
図枠
  5
50A
 10
132.148
 20
-156.023
 30
0.000000
  70
    32
  0
VERTEX
  8
図枠
  5
50B
 10
132.159
 20
-156.034
 30
0.000000
  70
    32
  0
VERTEX
  8
図枠
  5
50C
 10
132.170
 20
-156.046
 30
0.000000
  70
    32
  0
VERTEX
  8
図枠
  5
50D
 10
132.181
 20
-156.057
 30
0.000000
  70
    32
  0
VERTEX
  8
図枠
  5
50E
 10
132.192
 20
-156.068
 30
0.000000
  70
    32
  0
VERTEX
  8
図枠
  5
50F
 10
132.203
 20
-156.079
 30
0.000000
  70
    32
  0
VERTEX
  8
図枠
  5
510
 10
132.214
 20
-156.090
 30
0.000000
  70
    32
  0
VERTEX
  8
図枠
  5
511
 10
132.225
 20
-156.101
 30
0.000000
  70
    32
  0
VERTEX
  8
図枠
  5
512
 10
132.236
 20
-156.113
 30
0.000000
  70
    32
  0
VERTEX
  8
図枠
  5
513
 10
132.247
 20
-156.124
 30
0.000000
  70
    32
  0
VERTEX
  8
図枠
  5
514
 10
132.258
 20
-156.135
 30
0.000000
  70
    32
  0
VERTEX
  8
図枠
  5
515
 10
132.269
 20
-156.146
 30
0.000000
  70
    32
  0
VERTEX
  8
図枠
  5
516
 10
132.280
 20
-156.157
 30
0.000000
  70
    32
  0
VERTEX
  8
図枠
  5
517
 10
132.291
 20
-156.168
 30
0.000000
  70
    32
  0
VERTEX
  8
図枠
  5
518
 10
132.302
 20
-156.179
 30
0.000000
  70
    32
  0
VERTEX
  8
図枠
  5
519
 10
132.313
 20
-156.190
 30
0.000000
  70
    32
  0
VERTEX
  8
図枠
  5
51A
 10
132.324
 20
-156.201
 30
0.000000
  70
    32
  0
VERTEX
  8
図枠
  5
51B
 10
132.335
 20
-156.212
 30
0.000000
  70
    32
  0
VERTEX
  8
図枠
  5
51C
 10
132.346
 20
-156.223
 30
0.000000
  70
    32
  0
VERTEX
  8
図枠
  5
51D
 10
132.357
 20
-156.234
 30
0.000000
  70
    32
  0
VERTEX
  8
図枠
  5
51E
 10
132.368
 20
-156.245
 30
0.000000
  70
    32
  0
VERTEX
  8
図枠
  5
51F
 10
132.379
 20
-156.256
 30
0.000000
  70
    32
  0
VERTEX
  8
図枠
  5
520
 10
132.390
 20
-156.266
 30
0.000000
  70
    32
  0
VERTEX
  8
図枠
  5
521
 10
132.401
 20
-156.277
 30
0.000000
  70
    32
  0
VERTEX
  8
図枠
  5
522
 10
132.412
 20
-156.288
 30
0.000000
  70
    32
  0
VERTEX
  8
図枠
  5
523
 10
132.424
 20
-156.299
 30
0.000000
  70
    32
  0
VERTEX
  8
図枠
  5
524
 10
132.435
 20
-156.310
 30
0.000000
  70
    32
  0
VERTEX
  8
図枠
  5
525
 10
132.446
 20
-156.321
 30
0.000000
  70
    32
  0
VERTEX
  8
図枠
  5
526
 10
132.457
 20
-156.331
 30
0.000000
  70
    32
  0
VERTEX
  8
図枠
  5
527
 10
132.468
 20
-156.342
 30
0.000000
  70
    32
  0
VERTEX
  8
図枠
  5
528
 10
132.479
 20
-156.353
 30
0.000000
  70
    32
  0
VERTEX
  8
図枠
  5
529
 10
132.491
 20
-156.364
 30
0.000000
  70
    32
  0
VERTEX
  8
図枠
  5
52A
 10
132.502
 20
-156.374
 30
0.000000
  70
    32
  0
VERTEX
  8
図枠
  5
52B
 10
132.513
 20
-156.385
 30
0.000000
  70
    32
  0
VERTEX
  8
図枠
  5
52C
 10
132.524
 20
-156.396
 30
0.000000
  70
    32
  0
VERTEX
  8
図枠
  5
52D
 10
132.536
 20
-156.406
 30
0.000000
  70
    32
  0
VERTEX
  8
図枠
  5
52E
 10
132.547
 20
-156.417
 30
0.000000
  70
    32
  0
VERTEX
  8
図枠
  5
52F
 10
132.558
 20
-156.428
 30
0.000000
  70
    32
  0
VERTEX
  8
図枠
  5
530
 10
132.569
 20
-156.438
 30
0.000000
  70
    32
  0
VERTEX
  8
図枠
  5
531
 10
132.581
 20
-156.449
 30
0.000000
  70
    32
  0
VERTEX
  8
図枠
  5
532
 10
132.592
 20
-156.459
 30
0.000000
  70
    32
  0
VERTEX
  8
図枠
  5
533
 10
132.603
 20
-156.470
 30
0.000000
  70
    32
  0
VERTEX
  8
図枠
  5
534
 10
132.615
 20
-156.480
 30
0.000000
  70
    32
  0
VERTEX
  8
図枠
  5
535
 10
132.626
 20
-156.491
 30
0.000000
  70
    32
  0
VERTEX
  8
図枠
  5
536
 10
132.638
 20
-156.501
 30
0.000000
  70
    32
  0
VERTEX
  8
図枠
  5
537
 10
132.649
 20
-156.512
 30
0.000000
  70
    32
  0
VERTEX
  8
図枠
  5
538
 10
132.660
 20
-156.522
 30
0.000000
  70
    32
  0
VERTEX
  8
図枠
  5
539
 10
132.672
 20
-156.532
 30
0.000000
  70
    32
  0
VERTEX
  8
図枠
  5
53A
 10
132.683
 20
-156.543
 30
0.000000
  70
    32
  0
SEQEND
  8
図枠
  5
53B
  0
LINE
  5
F7
  8
図枠
 10
125.81003911329999
 20
-153.36705643080001
 30
0.0
 11
133.81003911330001
 21
-153.36705643080001
 31
0.0
  0
INSERT
  5
F8
  8
0
  6
CONTINUOUS
  2
*U45
 10
0.0
 20
0.0
 30
0.0
  0
LINE
  5
F9
  8
図枠
 10
119.1530694163
 20
-156.0870564308
 30
0.0
 11
121.5530694163
 21
-156.0870564308
 31
0.0
  0
LINE
  5
FA
  8
図枠
 10
107.9530694163
 20
-153.6870564308
 30
0.0
 11
106.11130331779999
 21
-153.6870564308
 31
0.0
  0
INSERT
  5
FB
  8
0
  6
CONTINUOUS
  2
*U46
 10
0.0
 20
0.0
 30
0.0
  0
INSERT
  5
FC
  8
0
  6
CONTINUOUS
  2
*U47
 10
0.0
 20
0.0
 30
0.0
  0
LINE
  5
FD
  8
図枠
 10
45.5586666843
 20
-80.743333177799997
 30
0.0
 11
45.5586666843
 21
-113.7433331778
 31
0.0
  0
INSERT
  5
FE
  8
0
  6
CONTINUOUS
  2
*U48
 10
0.0
 20
0.0
 30
0.0
  0
LINE
  5
FF
  8
図枠
 10
125.81003911329999
 20
-159.28705643079999
 30
0.0
 11
125.81003911329999
 21
-161.6870564308
 31
0.0
  0
LINE
  5
100
  8
図枠
 10
107.9530694163
 20
-156.0870564308
 30
0.0
 11
107.7113033178
 21
-156.0870564308
 31
0.0
  0
LINE
  5
101
  8
図枠
 10
119.1530694163
 20
-153.6870564308
 30
0.0
 11
119.1530694163
 21
-152.88705643079999
 31
0.0
  0
LINE
  5
102
  8
図枠
 10
125.55866668429999
 20
-113.7433331778
 30
0.0
 11
125.55866668429999
 21
-130.7433331778
 31
0.0
  0
INSERT
  5
103
  8
0
  6
CONTINUOUS
  2
*U49
 10
0.0
 20
0.0
 30
0.0
  0
INSERT
  5
104
  8
0
  6
CONTINUOUS
  2
*U50
 10
0.0
 20
0.0
 30
0.0
  0
LINE
  5
105
  8
図枠
 10
107.9530694163
 20
-159.28705643079999
 30
0.0
 11
107.9530694163
 21
-161.6870564308
 31
0.0
  0
LINE
  5
106
  8
図枠
 10
125.81003911329999
 20
-150.48705643080001
 30
0.0
 11
125.81003911329999
 21
-153.36705643080001
 31
0.0
  0
ARC
  5
107
  8
図枠
 10
112.75306941629999
 20
-156.88705643079999
 30
0.0
 40
2.399999999999999
 50
270.0
 51
0.0
  0
LINE
  5
108
  8
図枠
 10
125.81003911329999
 20
-154.20243285870001
 30
0.0
 11
132.21003911330001
 21
-154.20243285870001
 31
0.0
  0
LINE
  5
109
  8
図枠
 10
119.1530694163
 20
-156.88705643079999
 30
0.0
 11
119.1530694163
 21
-156.0870564308
 31
0.0
  0
LINE
  5
10A
  8
図枠
 10
85.558666684300007
 20
-113.7433331778
 30
0.0
 11
85.558666684300007
 21
-130.7433331778
 31
0.0
  0
ARC
  5
10B
  8
図枠
 10
127.73003911329999
 20
-153.20705643080001
 30
0.0
 40
6.0800000000000001
 50
331.39928138329998
 51
358.49204224580001
  0
LINE
  5
10C
  8
図枠
 10
133.0681391
 20
-156.11756987890001
 30
0.0
 11
132.68318580990001
 21
-156.5427512558
 31
0.0
  0
ARC
  5
10D
  8
図枠
 10
114.3530694163
 20
-156.88705643079999
 30
0.0
 40
4.7999999999999989
 50
270.0
 51
0.0
  0
CIRCLE
  5
10E
  8
図枠
 10
137.68666668430001
 20
-122.2433331778
 30
0.0
 40
2.3039999999999998
  0
ARC
  5
10F
  8
図枠
 10
127.73003911329999
 20
-153.20705643080001
 30
0.0
 40
6.0800000000000001
 50
270.0
 51
298.08590481520002
  0
INSERT
  5
110
  8
0
  6
CONTINUOUS
  2
*U51
 10
0.0
 20
0.0
 30
0.0
  0
LINE
  5
111
  8
図枠
 10
125.81003911329999
 20
-159.28705643079999
 30
0.0
 11
127.73003911329999
 21
-159.28705643079999
 31
0.0
  0
LINE
  5
112
  8
図枠
 10
107.9530694163
 20
-161.6870564308
 30
0.0
 11
114.3530694163
 21
-161.6870564308
 31
0.0
  0
LINE
  5
113
  8
図枠
 10
125.81003911329999
 20
-161.6870564308
 30
0.0
 11
129.81003911330001
 21
-161.6870564308
 31
0.0
  0
LINE
  5
114
  8
図枠
 10
111.9530694163
 20
-156.0870564308
 30
0.0
 11
115.1530694163
 21
-156.0870564308
 31
0.0
  0
CIRCLE
  5
115
  8
図枠
 10
137.68666668430001
 20
-122.2433331778
 30
0.0
 40
2.3039999999999998
  0
CIRCLE
  5
116
  8
図枠
 10
137.68666668430001
 20
-122.2433331778
 30
0.0
 40
4.6079999999999997
  0
POLYLINE
  8
図枠
  5
53C
  66
     1
 10
0.000000
 20
0.000000
 30
0.000000
  70
     8
  0
VERTEX
  8
図枠
  5
53D
 10
134.544
 20
-160.305
 30
0.000000
  70
    32
  0
VERTEX
  8
図枠
  5
53E
 10
134.587
 20
-160.319
 30
0.000000
  70
    32
  0
VERTEX
  8
図枠
  5
53F
 10
134.630
 20
-160.333
 30
0.000000
  70
    32
  0
VERTEX
  8
図枠
  5
540
 10
134.673
 20
-160.346
 30
0.000000
  70
    32
  0
VERTEX
  8
図枠
  5
541
 10
134.717
 20
-160.360
 30
0.000000
  70
    32
  0
VERTEX
  8
図枠
  5
542
 10
134.760
 20
-160.373
 30
0.000000
  70
    32
  0
VERTEX
  8
図枠
  5
543
 10
134.803
 20
-160.387
 30
0.000000
  70
    32
  0
VERTEX
  8
図枠
  5
544
 10
134.846
 20
-160.400
 30
0.000000
  70
    32
  0
VERTEX
  8
図枠
  5
545
 10
134.890
 20
-160.413
 30
0.000000
  70
    32
  0
VERTEX
  8
図枠
  5
546
 10
134.933
 20
-160.426
 30
0.000000
  70
    32
  0
VERTEX
  8
図枠
  5
547
 10
134.976
 20
-160.440
 30
0.000000
  70
    32
  0
VERTEX
  8
図枠
  5
548
 10
135.020
 20
-160.453
 30
0.000000
  70
    32
  0
VERTEX
  8
図枠
  5
549
 10
135.063
 20
-160.466
 30
0.000000
  70
    32
  0
VERTEX
  8
図枠
  5
54A
 10
135.107
 20
-160.479
 30
0.000000
  70
    32
  0
VERTEX
  8
図枠
  5
54B
 10
135.150
 20
-160.492
 30
0.000000
  70
    32
  0
VERTEX
  8
図枠
  5
54C
 10
135.194
 20
-160.504
 30
0.000000
  70
    32
  0
VERTEX
  8
図枠
  5
54D
 10
135.237
 20
-160.517
 30
0.000000
  70
    32
  0
VERTEX
  8
図枠
  5
54E
 10
135.281
 20
-160.530
 30
0.000000
  70
    32
  0
VERTEX
  8
図枠
  5
54F
 10
135.325
 20
-160.542
 30
0.000000
  70
    32
  0
VERTEX
  8
図枠
  5
550
 10
135.368
 20
-160.555
 30
0.000000
  70
    32
  0
VERTEX
  8
図枠
  5
551
 10
135.412
 20
-160.568
 30
0.000000
  70
    32
  0
VERTEX
  8
図枠
  5
552
 10
135.456
 20
-160.580
 30
0.000000
  70
    32
  0
VERTEX
  8
図枠
  5
553
 10
135.500
 20
-160.593
 30
0.000000
  70
    32
  0
VERTEX
  8
図枠
  5
554
 10
135.543
 20
-160.605
 30
0.000000
  70
    32
  0
VERTEX
  8
図枠
  5
555
 10
135.587
 20
-160.617
 30
0.000000
  70
    32
  0
VERTEX
  8
図枠
  5
556
 10
135.631
 20
-160.629
 30
0.000000
  70
    32
  0
VERTEX
  8
図枠
  5
557
 10
135.675
 20
-160.642
 30
0.000000
  70
    32
  0
VERTEX
  8
図枠
  5
558
 10
135.719
 20
-160.654
 30
0.000000
  70
    32
  0
VERTEX
  8
図枠
  5
559
 10
135.763
 20
-160.666
 30
0.000000
  70
    32
  0
VERTEX
  8
図枠
  5
55A
 10
135.807
 20
-160.678
 30
0.000000
  70
    32
  0
VERTEX
  8
図枠
  5
55B
 10
135.851
 20
-160.690
 30
0.000000
  70
    32
  0
VERTEX
  8
図枠
  5
55C
 10
135.895
 20
-160.702
 30
0.000000
  70
    32
  0
VERTEX
  8
図枠
  5
55D
 10
135.939
 20
-160.714
 30
0.000000
  70
    32
  0
VERTEX
  8
図枠
  5
55E
 10
135.983
 20
-160.726
 30
0.000000
  70
    32
  0
VERTEX
  8
図枠
  5
55F
 10
136.027
 20
-160.737
 30
0.000000
  70
    32
  0
VERTEX
  8
図枠
  5
560
 10
136.071
 20
-160.749
 30
0.000000
  70
    32
  0
VERTEX
  8
図枠
  5
561
 10
136.116
 20
-160.761
 30
0.000000
  70
    32
  0
VERTEX
  8
図枠
  5
562
 10
136.160
 20
-160.772
 30
0.000000
  70
    32
  0
VERTEX
  8
図枠
  5
563
 10
136.204
 20
-160.784
 30
0.000000
  70
    32
  0
VERTEX
  8
図枠
  5
564
 10
136.248
 20
-160.796
 30
0.000000
  70
    32
  0
VERTEX
  8
図枠
  5
565
 10
136.293
 20
-160.807
 30
0.000000
  70
    32
  0
VERTEX
  8
図枠
  5
566
 10
136.337
 20
-160.819
 30
0.000000
  70
    32
  0
VERTEX
  8
図枠
  5
567
 10
136.381
 20
-160.830
 30
0.000000
  70
    32
  0
VERTEX
  8
図枠
  5
568
 10
136.426
 20
-160.841
 30
0.000000
  70
    32
  0
VERTEX
  8
図枠
  5
569
 10
136.470
 20
-160.853
 30
0.000000
  70
    32
  0
VERTEX
  8
図枠
  5
56A
 10
136.514
 20
-160.864
 30
0.000000
  70
    32
  0
VERTEX
  8
図枠
  5
56B
 10
136.559
 20
-160.875
 30
0.000000
  70
    32
  0
VERTEX
  8
図枠
  5
56C
 10
136.603
 20
-160.886
 30
0.000000
  70
    32
  0
VERTEX
  8
図枠
  5
56D
 10
136.648
 20
-160.897
 30
0.000000
  70
    32
  0
VERTEX
  8
図枠
  5
56E
 10
136.692
 20
-160.908
 30
0.000000
  70
    32
  0
VERTEX
  8
図枠
  5
56F
 10
136.737
 20
-160.920
 30
0.000000
  70
    32
  0
VERTEX
  8
図枠
  5
570
 10
136.781
 20
-160.931
 30
0.000000
  70
    32
  0
VERTEX
  8
図枠
  5
571
 10
136.826
 20
-160.942
 30
0.000000
  70
    32
  0
VERTEX
  8
図枠
  5
572
 10
136.870
 20
-160.952
 30
0.000000
  70
    32
  0
VERTEX
  8
図枠
  5
573
 10
136.915
 20
-160.963
 30
0.000000
  70
    32
  0
VERTEX
  8
図枠
  5
574
 10
136.960
 20
-160.974
 30
0.000000
  70
    32
  0
VERTEX
  8
図枠
  5
575
 10
137.004
 20
-160.985
 30
0.000000
  70
    32
  0
VERTEX
  8
図枠
  5
576
 10
137.049
 20
-160.996
 30
0.000000
  70
    32
  0
VERTEX
  8
図枠
  5
577
 10
137.094
 20
-161.006
 30
0.000000
  70
    32
  0
VERTEX
  8
図枠
  5
578
 10
137.138
 20
-161.017
 30
0.000000
  70
    32
  0
VERTEX
  8
図枠
  5
579
 10
137.183
 20
-161.028
 30
0.000000
  70
    32
  0
VERTEX
  8
図枠
  5
57A
 10
137.228
 20
-161.038
 30
0.000000
  70
    32
  0
VERTEX
  8
図枠
  5
57B
 10
137.273
 20
-161.049
 30
0.000000
  70
    32
  0
VERTEX
  8
図枠
  5
57C
 10
137.317
 20
-161.060
 30
0.000000
  70
    32
  0
VERTEX
  8
図枠
  5
57D
 10
137.362
 20
-161.070
 30
0.000000
  70
    32
  0
VERTEX
  8
図枠
  5
57E
 10
137.407
 20
-161.081
 30
0.000000
  70
    32
  0
VERTEX
  8
図枠
  5
57F
 10
137.452
 20
-161.091
 30
0.000000
  70
    32
  0
VERTEX
  8
図枠
  5
580
 10
137.497
 20
-161.101
 30
0.000000
  70
    32
  0
VERTEX
  8
図枠
  5
581
 10
137.542
 20
-161.112
 30
0.000000
  70
    32
  0
VERTEX
  8
図枠
  5
582
 10
137.587
 20
-161.122
 30
0.000000
  70
    32
  0
VERTEX
  8
図枠
  5
583
 10
137.632
 20
-161.133
 30
0.000000
  70
    32
  0
VERTEX
  8
図枠
  5
584
 10
137.676
 20
-161.143
 30
0.000000
  70
    32
  0
VERTEX
  8
図枠
  5
585
 10
137.721
 20
-161.153
 30
0.000000
  70
    32
  0
VERTEX
  8
図枠
  5
586
 10
137.766
 20
-161.163
 30
0.000000
  70
    32
  0
VERTEX
  8
図枠
  5
587
 10
137.811
 20
-161.174
 30
0.000000
  70
    32
  0
VERTEX
  8
図枠
  5
588
 10
137.856
 20
-161.184
 30
0.000000
  70
    32
  0
VERTEX
  8
図枠
  5
589
 10
137.901
 20
-161.194
 30
0.000000
  70
    32
  0
VERTEX
  8
図枠
  5
58A
 10
137.946
 20
-161.204
 30
0.000000
  70
    32
  0
VERTEX
  8
図枠
  5
58B
 10
137.991
 20
-161.214
 30
0.000000
  70
    32
  0
VERTEX
  8
図枠
  5
58C
 10
138.036
 20
-161.224
 30
0.000000
  70
    32
  0
VERTEX
  8
図枠
  5
58D
 10
138.082
 20
-161.234
 30
0.000000
  70
    32
  0
VERTEX
  8
図枠
  5
58E
 10
138.127
 20
-161.244
 30
0.000000
  70
    32
  0
VERTEX
  8
図枠
  5
58F
 10
138.172
 20
-161.254
 30
0.000000
  70
    32
  0
VERTEX
  8
図枠
  5
590
 10
138.217
 20
-161.264
 30
0.000000
  70
    32
  0
VERTEX
  8
図枠
  5
591
 10
138.262
 20
-161.274
 30
0.000000
  70
    32
  0
VERTEX
  8
図枠
  5
592
 10
138.307
 20
-161.284
 30
0.000000
  70
    32
  0
VERTEX
  8
図枠
  5
593
 10
138.352
 20
-161.294
 30
0.000000
  70
    32
  0
VERTEX
  8
図枠
  5
594
 10
138.397
 20
-161.304
 30
0.000000
  70
    32
  0
VERTEX
  8
図枠
  5
595
 10
138.443
 20
-161.314
 30
0.000000
  70
    32
  0
VERTEX
  8
図枠
  5
596
 10
138.488
 20
-161.324
 30
0.000000
  70
    32
  0
VERTEX
  8
図枠
  5
597
 10
138.533
 20
-161.333
 30
0.000000
  70
    32
  0
VERTEX
  8
図枠
  5
598
 10
138.578
 20
-161.343
 30
0.000000
  70
    32
  0
VERTEX
  8
図枠
  5
599
 10
138.623
 20
-161.353
 30
0.000000
  70
    32
  0
VERTEX
  8
図枠
  5
59A
 10
138.669
 20
-161.363
 30
0.000000
  70
    32
  0
VERTEX
  8
図枠
  5
59B
 10
138.714
 20
-161.372
 30
0.000000
  70
    32
  0
VERTEX
  8
図枠
  5
59C
 10
138.759
 20
-161.382
 30
0.000000
  70
    32
  0
VERTEX
  8
図枠
  5
59D
 10
138.804
 20
-161.392
 30
0.000000
  70
    32
  0
VERTEX
  8
図枠
  5
59E
 10
138.850
 20
-161.402
 30
0.000000
  70
    32
  0
VERTEX
  8
図枠
  5
59F
 10
138.895
 20
-161.411
 30
0.000000
  70
    32
  0
VERTEX
  8
図枠
  5
5A0
 10
138.940
 20
-161.421
 30
0.000000
  70
    32
  0
VERTEX
  8
図枠
  5
5A1
 10
138.985
 20
-161.430
 30
0.000000
  70
    32
  0
VERTEX
  8
図枠
  5
5A2
 10
139.031
 20
-161.440
 30
0.000000
  70
    32
  0
VERTEX
  8
図枠
  5
5A3
 10
139.076
 20
-161.450
 30
0.000000
  70
    32
  0
VERTEX
  8
図枠
  5
5A4
 10
139.121
 20
-161.459
 30
0.000000
  70
    32
  0
VERTEX
  8
図枠
  5
5A5
 10
139.167
 20
-161.469
 30
0.000000
  70
    32
  0
VERTEX
  8
図枠
  5
5A6
 10
139.212
 20
-161.478
 30
0.000000
  70
    32
  0
VERTEX
  8
図枠
  5
5A7
 10
139.257
 20
-161.488
 30
0.000000
  70
    32
  0
VERTEX
  8
図枠
  5
5A8
 10
139.303
 20
-161.498
 30
0.000000
  70
    32
  0
VERTEX
  8
図枠
  5
5A9
 10
139.348
 20
-161.507
 30
0.000000
  70
    32
  0
VERTEX
  8
図枠
  5
5AA
 10
139.393
 20
-161.517
 30
0.000000
  70
    32
  0
VERTEX
  8
図枠
  5
5AB
 10
139.439
 20
-161.526
 30
0.000000
  70
    32
  0
VERTEX
  8
図枠
  5
5AC
 10
139.484
 20
-161.536
 30
0.000000
  70
    32
  0
VERTEX
  8
図枠
  5
5AD
 10
139.529
 20
-161.545
 30
0.000000
  70
    32
  0
VERTEX
  8
図枠
  5
5AE
 10
139.575
 20
-161.555
 30
0.000000
  70
    32
  0
VERTEX
  8
図枠
  5
5AF
 10
139.620
 20
-161.564
 30
0.000000
  70
    32
  0
VERTEX
  8
図枠
  5
5B0
 10
139.665
 20
-161.574
 30
0.000000
  70
    32
  0
VERTEX
  8
図枠
  5
5B1
 10
139.711
 20
-161.583
 30
0.000000
  70
    32
  0
VERTEX
  8
図枠
  5
5B2
 10
139.756
 20
-161.593
 30
0.000000
  70
    32
  0
VERTEX
  8
図枠
  5
5B3
 10
139.802
 20
-161.602
 30
0.000000
  70
    32
  0
VERTEX
  8
図枠
  5
5B4
 10
139.847
 20
-161.612
 30
0.000000
  70
    32
  0
VERTEX
  8
図枠
  5
5B5
 10
139.892
 20
-161.621
 30
0.000000
  70
    32
  0
VERTEX
  8
図枠
  5
5B6
 10
139.938
 20
-161.630
 30
0.000000
  70
    32
  0
VERTEX
  8
図枠
  5
5B7
 10
139.983
 20
-161.640
 30
0.000000
  70
    32
  0
VERTEX
  8
図枠
  5
5B8
 10
140.028
 20
-161.649
 30
0.000000
  70
    32
  0
VERTEX
  8
図枠
  5
5B9
 10
140.074
 20
-161.659
 30
0.000000
  70
    32
  0
VERTEX
  8
図枠
  5
5BA
 10
140.119
 20
-161.668
 30
0.000000
  70
    32
  0
VERTEX
  8
図枠
  5
5BB
 10
140.165
 20
-161.678
 30
0.000000
  70
    32
  0
VERTEX
  8
図枠
  5
5BC
 10
140.210
 20
-161.687
 30
0.000000
  70
    32
  0
SEQEND
  8
図枠
  5
5BD
  0
LINE
  5
118
  8
図枠
 10
138.61003911329999
 20
-152.88705643079999
 30
0.0
 11
140.21003911330001
 21
-150.48705643080001
 31
0.0
  0
ARC
  5
119
  8
図枠
 10
129.81003911330001
 20
-152.88705643079999
 30
0.0
 40
8.8000000000000007
 50
322.48761197969998
 51
0.0
  0
CIRCLE
  5
11A
  8
図枠
 10
137.68666668430001
 20
-122.2433331778
 30
0.0
 40
2.3039999999999998
  0
CIRCLE
  5
11B
  8
図枠
 10
137.68666668430001
 20
-122.2433331778
 30
0.0
 40
4.6079999999999997
  0
LINE
  5
11C
  8
図枠
  6
BORDER
 10
137.68666668430001
 20
-115.3313331778
 30
0.0
 11
137.68666668430001
 21
-129.1553331778
 31
0.0
  0
LINE
  5
11D
  8
図枠
 10
140.21003911330001
 20
-150.48705643080001
 30
0.0
 11
125.81003911329999
 21
-150.48705643080001
 31
0.0
  0
LINE
  5
11E
  8
図枠
 10
140.21003911330001
 20
-159.28705643079999
 30
0.0
 11
140.21003911330001
 21
-161.6870564308
 31
0.0
  0
CIRCLE
  5
11F
  8
図枠
 10
137.68666668430001
 20
-122.2433331778
 30
0.0
 40
4.6079999999999997
  0
CIRCLE
  5
120
  8
図枠
 10
137.68666668430001
 20
-122.2433331778
 30
0.0
 40
4.6079999999999997
  0
LINE
  5
121
  8
図枠
 10
138.61003911329999
 20
-152.88705643079999
 30
0.0
 11
140.21003911330001
 21
-150.48705643080001
 31
0.0
  0
LINE
  5
122
  8
図枠
  6
BORDER
 10
137.68666668430001
 20
-115.3313331778
 30
0.0
 11
137.68666668430001
 21
-129.1553331778
 31
0.0
  0
LINE
  5
123
  8
図枠
  6
BORDER
 10
137.68666668430001
 20
-115.3313331778
 30
0.0
 11
137.68666668430001
 21
-129.1553331778
 31
0.0
  0
POLYLINE
  8
図枠
  5
5BE
  66
     1
 10
0.000000
 20
0.000000
 30
0.000000
  70
     8
  0
VERTEX
  8
図枠
  5
5BF
 10
136.505
 20
-158.525
 30
0.000000
  70
    32
  0
VERTEX
  8
図枠
  5
5C0
 10
136.533
 20
-158.533
 30
0.000000
  70
    32
  0
VERTEX
  8
図枠
  5
5C1
 10
136.561
 20
-158.540
 30
0.000000
  70
    32
  0
VERTEX
  8
図枠
  5
5C2
 10
136.589
 20
-158.548
 30
0.000000
  70
    32
  0
VERTEX
  8
図枠
  5
5C3
 10
136.617
 20
-158.556
 30
0.000000
  70
    32
  0
VERTEX
  8
図枠
  5
5C4
 10
136.646
 20
-158.564
 30
0.000000
  70
    32
  0
VERTEX
  8
図枠
  5
5C5
 10
136.674
 20
-158.572
 30
0.000000
  70
    32
  0
VERTEX
  8
図枠
  5
5C6
 10
136.702
 20
-158.579
 30
0.000000
  70
    32
  0
VERTEX
  8
図枠
  5
5C7
 10
136.730
 20
-158.587
 30
0.000000
  70
    32
  0
VERTEX
  8
図枠
  5
5C8
 10
136.758
 20
-158.594
 30
0.000000
  70
    32
  0
VERTEX
  8
図枠
  5
5C9
 10
136.786
 20
-158.602
 30
0.000000
  70
    32
  0
VERTEX
  8
図枠
  5
5CA
 10
136.815
 20
-158.609
 30
0.000000
  70
    32
  0
VERTEX
  8
図枠
  5
5CB
 10
136.843
 20
-158.617
 30
0.000000
  70
    32
  0
VERTEX
  8
図枠
  5
5CC
 10
136.871
 20
-158.624
 30
0.000000
  70
    32
  0
VERTEX
  8
図枠
  5
5CD
 10
136.900
 20
-158.632
 30
0.000000
  70
    32
  0
VERTEX
  8
図枠
  5
5CE
 10
136.928
 20
-158.639
 30
0.000000
  70
    32
  0
VERTEX
  8
図枠
  5
5CF
 10
136.956
 20
-158.646
 30
0.000000
  70
    32
  0
VERTEX
  8
図枠
  5
5D0
 10
136.985
 20
-158.653
 30
0.000000
  70
    32
  0
VERTEX
  8
図枠
  5
5D1
 10
137.013
 20
-158.661
 30
0.000000
  70
    32
  0
VERTEX
  8
図枠
  5
5D2
 10
137.042
 20
-158.668
 30
0.000000
  70
    32
  0
VERTEX
  8
図枠
  5
5D3
 10
137.070
 20
-158.675
 30
0.000000
  70
    32
  0
VERTEX
  8
図枠
  5
5D4
 10
137.099
 20
-158.682
 30
0.000000
  70
    32
  0
VERTEX
  8
図枠
  5
5D5
 10
137.127
 20
-158.689
 30
0.000000
  70
    32
  0
VERTEX
  8
図枠
  5
5D6
 10
137.156
 20
-158.696
 30
0.000000
  70
    32
  0
VERTEX
  8
図枠
  5
5D7
 10
137.184
 20
-158.703
 30
0.000000
  70
    32
  0
VERTEX
  8
図枠
  5
5D8
 10
137.213
 20
-158.710
 30
0.000000
  70
    32
  0
VERTEX
  8
図枠
  5
5D9
 10
137.241
 20
-158.717
 30
0.000000
  70
    32
  0
VERTEX
  8
図枠
  5
5DA
 10
137.270
 20
-158.724
 30
0.000000
  70
    32
  0
VERTEX
  8
図枠
  5
5DB
 10
137.299
 20
-158.731
 30
0.000000
  70
    32
  0
VERTEX
  8
図枠
  5
5DC
 10
137.327
 20
-158.737
 30
0.000000
  70
    32
  0
VERTEX
  8
図枠
  5
5DD
 10
137.356
 20
-158.744
 30
0.000000
  70
    32
  0
VERTEX
  8
図枠
  5
5DE
 10
137.385
 20
-158.751
 30
0.000000
  70
    32
  0
VERTEX
  8
図枠
  5
5DF
 10
137.414
 20
-158.758
 30
0.000000
  70
    32
  0
VERTEX
  8
図枠
  5
5E0
 10
137.442
 20
-158.764
 30
0.000000
  70
    32
  0
VERTEX
  8
図枠
  5
5E1
 10
137.471
 20
-158.771
 30
0.000000
  70
    32
  0
VERTEX
  8
図枠
  5
5E2
 10
137.500
 20
-158.777
 30
0.000000
  70
    32
  0
VERTEX
  8
図枠
  5
5E3
 10
137.529
 20
-158.784
 30
0.000000
  70
    32
  0
VERTEX
  8
図枠
  5
5E4
 10
137.558
 20
-158.790
 30
0.000000
  70
    32
  0
VERTEX
  8
図枠
  5
5E5
 10
137.586
 20
-158.797
 30
0.000000
  70
    32
  0
VERTEX
  8
図枠
  5
5E6
 10
137.615
 20
-158.803
 30
0.000000
  70
    32
  0
VERTEX
  8
図枠
  5
5E7
 10
137.644
 20
-158.810
 30
0.000000
  70
    32
  0
VERTEX
  8
図枠
  5
5E8
 10
137.673
 20
-158.816
 30
0.000000
  70
    32
  0
VERTEX
  8
図枠
  5
5E9
 10
137.702
 20
-158.823
 30
0.000000
  70
    32
  0
VERTEX
  8
図枠
  5
5EA
 10
137.731
 20
-158.829
 30
0.000000
  70
    32
  0
VERTEX
  8
図枠
  5
5EB
 10
137.760
 20
-158.835
 30
0.000000
  70
    32
  0
VERTEX
  8
図枠
  5
5EC
 10
137.789
 20
-158.841
 30
0.000000
  70
    32
  0
VERTEX
  8
図枠
  5
5ED
 10
137.818
 20
-158.848
 30
0.000000
  70
    32
  0
VERTEX
  8
図枠
  5
5EE
 10
137.847
 20
-158.854
 30
0.000000
  70
    32
  0
VERTEX
  8
図枠
  5
5EF
 10
137.876
 20
-158.860
 30
0.000000
  70
    32
  0
VERTEX
  8
図枠
  5
5F0
 10
137.905
 20
-158.866
 30
0.000000
  70
    32
  0
VERTEX
  8
図枠
  5
5F1
 10
137.934
 20
-158.872
 30
0.000000
  70
    32
  0
VERTEX
  8
図枠
  5
5F2
 10
137.964
 20
-158.878
 30
0.000000
  70
    32
  0
VERTEX
  8
図枠
  5
5F3
 10
137.993
 20
-158.884
 30
0.000000
  70
    32
  0
VERTEX
  8
図枠
  5
5F4
 10
138.022
 20
-158.890
 30
0.000000
  70
    32
  0
VERTEX
  8
図枠
  5
5F5
 10
138.051
 20
-158.896
 30
0.000000
  70
    32
  0
VERTEX
  8
図枠
  5
5F6
 10
138.080
 20
-158.902
 30
0.000000
  70
    32
  0
VERTEX
  8
図枠
  5
5F7
 10
138.109
 20
-158.908
 30
0.000000
  70
    32
  0
VERTEX
  8
図枠
  5
5F8
 10
138.139
 20
-158.914
 30
0.000000
  70
    32
  0
VERTEX
  8
図枠
  5
5F9
 10
138.168
 20
-158.920
 30
0.000000
  70
    32
  0
VERTEX
  8
図枠
  5
5FA
 10
138.197
 20
-158.926
 30
0.000000
  70
    32
  0
VERTEX
  8
図枠
  5
5FB
 10
138.226
 20
-158.932
 30
0.000000
  70
    32
  0
VERTEX
  8
図枠
  5
5FC
 10
138.256
 20
-158.938
 30
0.000000
  70
    32
  0
VERTEX
  8
図枠
  5
5FD
 10
138.285
 20
-158.944
 30
0.000000
  70
    32
  0
VERTEX
  8
図枠
  5
5FE
 10
138.314
 20
-158.949
 30
0.000000
  70
    32
  0
VERTEX
  8
図枠
  5
5FF
 10
138.344
 20
-158.955
 30
0.000000
  70
    32
  0
VERTEX
  8
図枠
  5
600
 10
138.373
 20
-158.961
 30
0.000000
  70
    32
  0
VERTEX
  8
図枠
  5
601
 10
138.402
 20
-158.967
 30
0.000000
  70
    32
  0
VERTEX
  8
図枠
  5
602
 10
138.432
 20
-158.972
 30
0.000000
  70
    32
  0
VERTEX
  8
図枠
  5
603
 10
138.461
 20
-158.978
 30
0.000000
  70
    32
  0
VERTEX
  8
図枠
  5
604
 10
138.490
 20
-158.984
 30
0.000000
  70
    32
  0
VERTEX
  8
図枠
  5
605
 10
138.520
 20
-158.989
 30
0.000000
  70
    32
  0
VERTEX
  8
図枠
  5
606
 10
138.549
 20
-158.995
 30
0.000000
  70
    32
  0
VERTEX
  8
図枠
  5
607
 10
138.579
 20
-159.000
 30
0.000000
  70
    32
  0
VERTEX
  8
図枠
  5
608
 10
138.608
 20
-159.006
 30
0.000000
  70
    32
  0
VERTEX
  8
図枠
  5
609
 10
138.638
 20
-159.012
 30
0.000000
  70
    32
  0
VERTEX
  8
図枠
  5
60A
 10
138.667
 20
-159.017
 30
0.000000
  70
    32
  0
VERTEX
  8
図枠
  5
60B
 10
138.696
 20
-159.023
 30
0.000000
  70
    32
  0
VERTEX
  8
図枠
  5
60C
 10
138.726
 20
-159.028
 30
0.000000
  70
    32
  0
VERTEX
  8
図枠
  5
60D
 10
138.755
 20
-159.034
 30
0.000000
  70
    32
  0
VERTEX
  8
図枠
  5
60E
 10
138.785
 20
-159.039
 30
0.000000
  70
    32
  0
VERTEX
  8
図枠
  5
60F
 10
138.814
 20
-159.044
 30
0.000000
  70
    32
  0
VERTEX
  8
図枠
  5
610
 10
138.844
 20
-159.050
 30
0.000000
  70
    32
  0
VERTEX
  8
図枠
  5
611
 10
138.874
 20
-159.055
 30
0.000000
  70
    32
  0
VERTEX
  8
図枠
  5
612
 10
138.903
 20
-159.061
 30
0.000000
  70
    32
  0
VERTEX
  8
図枠
  5
613
 10
138.933
 20
-159.066
 30
0.000000
  70
    32
  0
VERTEX
  8
図枠
  5
614
 10
138.962
 20
-159.071
 30
0.000000
  70
    32
  0
VERTEX
  8
図枠
  5
615
 10
138.992
 20
-159.077
 30
0.000000
  70
    32
  0
VERTEX
  8
図枠
  5
616
 10
139.021
 20
-159.082
 30
0.000000
  70
    32
  0
VERTEX
  8
図枠
  5
617
 10
139.051
 20
-159.087
 30
0.000000
  70
    32
  0
VERTEX
  8
図枠
  5
618
 10
139.081
 20
-159.093
 30
0.000000
  70
    32
  0
VERTEX
  8
図枠
  5
619
 10
139.110
 20
-159.098
 30
0.000000
  70
    32
  0
VERTEX
  8
図枠
  5
61A
 10
139.140
 20
-159.103
 30
0.000000
  70
    32
  0
VERTEX
  8
図枠
  5
61B
 10
139.170
 20
-159.108
 30
0.000000
  70
    32
  0
VERTEX
  8
図枠
  5
61C
 10
139.199
 20
-159.114
 30
0.000000
  70
    32
  0
VERTEX
  8
図枠
  5
61D
 10
139.229
 20
-159.119
 30
0.000000
  70
    32
  0
VERTEX
  8
図枠
  5
61E
 10
139.258
 20
-159.124
 30
0.000000
  70
    32
  0
VERTEX
  8
図枠
  5
61F
 10
139.288
 20
-159.129
 30
0.000000
  70
    32
  0
VERTEX
  8
図枠
  5
620
 10
139.318
 20
-159.135
 30
0.000000
  70
    32
  0
VERTEX
  8
図枠
  5
621
 10
139.347
 20
-159.140
 30
0.000000
  70
    32
  0
VERTEX
  8
図枠
  5
622
 10
139.377
 20
-159.145
 30
0.000000
  70
    32
  0
VERTEX
  8
図枠
  5
623
 10
139.407
 20
-159.150
 30
0.000000
  70
    32
  0
VERTEX
  8
図枠
  5
624
 10
139.437
 20
-159.155
 30
0.000000
  70
    32
  0
VERTEX
  8
図枠
  5
625
 10
139.466
 20
-159.160
 30
0.000000
  70
    32
  0
VERTEX
  8
図枠
  5
626
 10
139.496
 20
-159.166
 30
0.000000
  70
    32
  0
VERTEX
  8
図枠
  5
627
 10
139.526
 20
-159.171
 30
0.000000
  70
    32
  0
VERTEX
  8
図枠
  5
628
 10
139.555
 20
-159.176
 30
0.000000
  70
    32
  0
VERTEX
  8
図枠
  5
629
 10
139.585
 20
-159.181
 30
0.000000
  70
    32
  0
VERTEX
  8
図枠
  5
62A
 10
139.615
 20
-159.186
 30
0.000000
  70
    32
  0
VERTEX
  8
図枠
  5
62B
 10
139.645
 20
-159.191
 30
0.000000
  70
    32
  0
VERTEX
  8
図枠
  5
62C
 10
139.674
 20
-159.196
 30
0.000000
  70
    32
  0
VERTEX
  8
図枠
  5
62D
 10
139.704
 20
-159.201
 30
0.000000
  70
    32
  0
VERTEX
  8
図枠
  5
62E
 10
139.734
 20
-159.206
 30
0.000000
  70
    32
  0
VERTEX
  8
図枠
  5
62F
 10
139.764
 20
-159.211
 30
0.000000
  70
    32
  0
VERTEX
  8
図枠
  5
630
 10
139.793
 20
-159.216
 30
0.000000
  70
    32
  0
VERTEX
  8
図枠
  5
631
 10
139.823
 20
-159.222
 30
0.000000
  70
    32
  0
VERTEX
  8
図枠
  5
632
 10
139.853
 20
-159.227
 30
0.000000
  70
    32
  0
VERTEX
  8
図枠
  5
633
 10
139.883
 20
-159.232
 30
0.000000
  70
    32
  0
VERTEX
  8
図枠
  5
634
 10
139.912
 20
-159.237
 30
0.000000
  70
    32
  0
VERTEX
  8
図枠
  5
635
 10
139.942
 20
-159.242
 30
0.000000
  70
    32
  0
VERTEX
  8
図枠
  5
636
 10
139.972
 20
-159.247
 30
0.000000
  70
    32
  0
VERTEX
  8
図枠
  5
637
 10
140.002
 20
-159.252
 30
0.000000
  70
    32
  0
VERTEX
  8
図枠
  5
638
 10
140.031
 20
-159.257
 30
0.000000
  70
    32
  0
VERTEX
  8
図枠
  5
639
 10
140.061
 20
-159.262
 30
0.000000
  70
    32
  0
VERTEX
  8
図枠
  5
63A
 10
140.091
 20
-159.267
 30
0.000000
  70
    32
  0
VERTEX
  8
図枠
  5
63B
 10
140.121
 20
-159.272
 30
0.000000
  70
    32
  0
VERTEX
  8
図枠
  5
63C
 10
140.150
 20
-159.277
 30
0.000000
  70
    32
  0
VERTEX
  8
図枠
  5
63D
 10
140.180
 20
-159.282
 30
0.000000
  70
    32
  0
VERTEX
  8
図枠
  5
63E
 10
140.210
 20
-159.287
 30
0.000000
  70
    32
  0
SEQEND
  8
図枠
  5
63F
  0
CIRCLE
  5
125
  8
図枠
 10
137.68666668430001
 20
-122.2433331778
 30
0.0
 40
2.3039999999999998
  0
LINE
  5
126
  8
図枠
  6
BORDER
 10
137.68666668430001
 20
-115.3313331778
 30
0.0
 11
137.68666668430001
 21
-129.1553331778
 31
0.0
  0
LINE
  5
127
  8
図枠
 10
136.7903900766
 20
-158.24566636509999
 30
0.0
 11
136.50542678100001
 21
-158.5246713958
 31
0.0
  0
LINE
  5
128
  8
図枠
 10
125.81003911329999
 20
-154.7178092867
 30
0.0
 11
125.81003911329999
 21
-154.20243285870001
 31
0.0
  0
LINE
  5
129
  8
図枠
 10
111.9530694163
 20
-152.88705643079999
 30
0.0
 11
114.3530694163
 21
-150.48705643080001
 31
0.0
  0
INSERT
  5
12A
  8
0
  6
CONTINUOUS
  2
*U52
 10
0.0
 20
0.0
 30
0.0
  0
LINE
  5
12B
  8
図枠
 10
106.11130331779999
 20
-156.0870564308
 30
0.0
 11
107.7113033178
 21
-156.0870564308
 31
0.0
  0
INSERT
  5
12C
  8
0
  6
CONTINUOUS
  2
*U53
 10
0.0
 20
0.0
 30
0.0
  0
LINE
  5
12D
  8
図枠
 10
49.5586666843
 20
-139.2433331778
 30
0.0
 11
101.55866668429999
 21
-139.2433331778
 31
0.0
  0
INSERT
  5
12E
  8
0
  6
CONTINUOUS
  2
*U54
 10
0.0
 20
0.0
 30
0.0
  0
LINE
  5
12F
  8
図枠
 10
157.4356283068
 20
-117.63533317780001
 30
0.0
 11
157.4356283068
 21
-126.8513331778
 31
0.0
  0
LINE
  5
130
  8
図枠
 10
165.55866668429999
 20
-113.7433331778
 30
0.0
 11
165.55866668429999
 21
-164.7433331778
 31
0.0
  0
INSERT
  5
131
  8
0
  6
CONTINUOUS
  2
*U55
 10
0.0
 20
0.0
 30
0.0
  0
INSERT
  5
132
  8
0
  6
CONTINUOUS
  2
*U56
 10
0.0
 20
0.0
 30
0.0
  0
LINE
  5
133
  8
図枠
 10
152.2875543202
 20
-153.20705643080001
 30
0.0
 11
152.0533235199
 21
-152.39309020600001
 31
0.0
  0
LINE
  5
134
  8
図枠
 10
154.9580113506
 20
-162.48705643080001
 30
0.0
 11
154.31341827430001
 21
-160.2470564308
 31
0.0
  0
LINE
  5
135
  8
図枠
 10
158.15801135059999
 20
-157.36705643080001
 30
0.0
 11
158.15801135059999
 21
-160.2470564308
 31
0.0
  0
INSERT
  5
136
  8
0
  6
CONTINUOUS
  2
*U57
 10
0.0
 20
0.0
 30
0.0
  0
INSERT
  5
137
  8
0
  6
CONTINUOUS
  2
*U58
 10
0.0
 20
0.0
 30
0.0
  0
INSERT
  5
138
  8
0
  6
CONTINUOUS
  2
*U59
 10
0.0
 20
0.0
 30
0.0
  0
LINE
  5
139
  8
図枠
 10
153.11631684689999
 20
-156.0870564308
 30
0.0
 11
158.15801135059999
 21
-156.0870564308
 31
0.0
  0
LINE
  5
13A
  8
図枠
 10
195.55866668429999
 20
-91.743333177800025
 30
0.0
 11
195.55866668429999
 21
-80.743333177799997
 31
0.0
  0
LINE
  5
13B
  8
図枠
 10
157.4356283068
 20
-117.63533317780001
 30
0.0
 11
157.4356283068
 21
-126.8513331778
 31
0.0
  0
LINE
  5
13C
  8
図枠
 10
152.2875543202
 20
-153.20705643080001
 30
0.0
 11
158.15801135059999
 21
-153.20705643080001
 31
0.0
  0
LINE
  5
13D
  8
図枠
 10
157.4356283068
 20
-117.63533317780001
 30
0.0
 11
157.4356283068
 21
-126.8513331778
 31
0.0
  0
LINE
  5
13E
  8
図枠
 10
152.0533235199
 20
-152.39309020600001
 30
0.0
 11
153.35801135060001
 21
-150.48705643080001
 31
0.0
  0
INSERT
  5
13F
  8
0
  6
CONTINUOUS
  2
*U60
 10
0.0
 20
0.0
 30
0.0
  0
LINE
  5
140
  8
図枠
 10
157.4356283068
 20
-117.63533317780001
 30
0.0
 11
157.4356283068
 21
-126.8513331778
 31
0.0
  0
LINE
  5
141
  8
図枠
 10
159.55866668429999
 20
-91.743333177800025
 30
0.0
 11
159.55866668429999
 21
-80.743333177799997
 31
0.0
  0
INSERT
  5
142
  8
0
  6
CONTINUOUS
  2
*U61
 10
0.0
 20
0.0
 30
0.0
  0
LINE
  5
143
  8
図枠
 10
153.48465574759999
 20
-157.36705643080001
 30
0.0
 11
158.15801135059999
 21
-157.36705643080001
 31
0.0
  0
LINE
  5
144
  8
図枠
 10
158.15801135059999
 20
-153.20705643080001
 30
0.0
 11
158.15801135059999
 21
-156.0870564308
 31
0.0
  0
LINE
  5
145
  8
図枠
 10
154.31341827430001
 20
-160.2470564308
 30
0.0
 11
158.15801135059999
 21
-160.2470564308
 31
0.0
  0
LINE
  5
146
  8
図枠
 10
153.48465574759999
 20
-157.36705643080001
 30
0.0
 11
153.11631684689999
 21
-156.0870564308
 31
0.0
  0
LINE
  5
147
  8
ﾚｲﾔ_10
  6
STITCH
 10
-168.46308593750001
 20
128.32871093750001
 30
0.0
 11
-169.81308593750001
 21
128.32871093750001
 31
0.0
  0
LINE
  5
148
  8
ﾚｲﾔ_10
  6
STITCH
 10
-168.46308593750001
 20
132.52871093749999
 30
0.0
 11
-169.81308593750001
 21
132.52871093749999
 31
0.0
  0
LINE
  5
149
  8
ﾚｲﾔ_10
  6
STITCH
 10
-168.46308593750001
 20
128.32871093750001
 30
0.0
 11
-168.46308593750001
 21
132.52871093749999
 31
0.0
  0
LINE
  5
14A
  8
ﾚｲﾔ_10
  6
STITCH
 10
-166.81308593750001
 20
126.6787109375
 30
0.0
 11
-168.46308593750001
 21
128.32871093750001
 31
0.0
  0
LINE
  5
14B
  8
ﾚｲﾔ_10
  6
STITCH
 10
-166.81308593750001
 20
134.1787109375
 30
0.0
 11
-168.46308593750001
 21
132.52871093749999
 31
0.0
  0
CIRCLE
  5
14C
  8
ﾚｲﾔ_10
 62
     5
 10
-106.31308593750001
 20
130.4287109375
 30
0.0
 40
3.75
  0
LINE
  5
14D
  8
ﾚｲﾔ_10
  6
BORDER
 62
     3
 10
-106.31308593750001
 20
135.4287109375
 30
0.0
 11
-106.31308593750001
 21
125.4287109375
 31
0.0
  0
LINE
  5
14E
  8
ﾚｲﾔ_10
  6
BORDER
 62
     3
 10
-79.813085937500006
 20
139.4287109375
 30
0.0
 11
-69.813085937500006
 21
139.4287109375
 31
0.0
  0
LINE
  5
14F
  8
ﾚｲﾔ_10
  6
BORDER
 62
     3
 10
-111.31308593750001
 20
130.4287109375
 30
0.0
 11
-101.31308593750001
 21
130.4287109375
 31
0.0
  0
CIRCLE
  5
150
  8
ﾚｲﾔ_10
 62
     5
 10
-106.31308593750001
 20
130.4287109375
 30
0.0
 40
2.1000000000000001
  0
LINE
  5
151
  8
ﾚｲﾔ_10
  6
BORDER
 62
     3
 10
-74.813085937500006
 20
144.4287109375
 30
0.0
 11
-74.813085937500006
 21
134.4287109375
 31
0.0
  0
CIRCLE
  5
152
  8
ﾚｲﾔ_10
 62
     5
 10
-74.813085937500006
 20
139.4287109375
 30
0.0
 40
3.75
  0
CIRCLE
  5
153
  8
ﾚｲﾔ_10
 62
     5
 10
-74.813085937500006
 20
139.4287109375
 30
0.0
 40
2.1000000000000001
  0
LINE
  5
154
  8
ﾚｲﾔ_10
 10
-133.43499059460001
 20
156.71631320660001
 30
0.0
 11
-112.59396495359999
 21
156.71631320660001
 31
0.0
  0
LINE
  5
155
  8
ﾚｲﾔ_10
 10
-133.43499059460001
 20
155.71631320660001
 30
0.0
 11
-112.59396495359999
 21
155.71631320660001
 31
0.0
  0
LINE
  5
156
  8
ﾚｲﾔ_10
 10
-133.43499059460001
 20
154.71631320660001
 30
0.0
 11
-112.59396495359999
 21
154.71631320660001
 31
0.0
  0
LINE
  5
157
  8
ﾚｲﾔ_10
 10
-133.43499059460001
 20
153.71631320660001
 30
0.0
 11
-112.59396495359999
 21
153.71631320660001
 31
0.0
  0
LINE
  5
158
  8
ﾚｲﾔ_10
 10
-133.43499059460001
 20
152.71631320660001
 30
0.0
 11
-112.59396495359999
 21
152.71631320660001
 31
0.0
  0
INSERT
  5
159
  8
0
  6
CONTINUOUS
  2
*U62
 10
0.0
 20
0.0
 30
0.0
  0
DIMENSION
  5
161
  8
寸法線
  2
*D5
 10
-97.813085937500006
 20
130.4287109375
 30
0.0
 11
-10.085761361599999
 21
148.83074520900001
 31
0.0
 70
   132
  1
<>
 15
-65.937533669999993
 25
138.9697394259
 35
0.0
 40
0.0
  0
DIMENSION
  5
170
  8
寸法線
  2
*D6
 10
-48.419209024099999
 20
139.4287109375
 30
0.0
 11
-48.419209024099999
 21
154.07441406250001
 31
0.0
 70
   128
  1
<>
 13
-69.813085937500006
 23
139.4287109375
 33
0.0
 14
-68.419209024099999
 24
145.4287109375
 34
0.0
 50
90.0
  0
DIMENSION
  5
17F
  8
寸法線
  2
*D7
 10
-48.419209024099999
 20
121.4287109375
 30
0.0
 11
-48.419209024099999
 21
130.4287109375
 31
0.0
 70
   128
  1
<>
 13
-69.813085937500006
 23
121.4287109375
 33
0.0
 14
-69.813085937500006
 24
139.4287109375
 34
0.0
 50
90.0
  0
DIMENSION
  5
18E
  8
寸法線
  2
*D8
 10
-74.813085937500006
 20
96.428710937500014
 30
0.0
 11
-69.813085937500006
 21
96.428710937500014
 31
0.0
 70
   128
  1
<>
 13
-74.813085937500006
 23
116.4287109375
 33
0.0
 14
-64.813085937500006
 24
130.4287109375
 34
0.0
 50
180.0
  0
DIMENSION
  5
19D
  8
寸法線
  2
*D9
 10
-48.419209024099999
 20
115.4287109375
 30
0.0
 11
-48.419209024099999
 21
106.9455078125
 31
0.0
 70
   128
  1
<>
 13
-68.419209024099999
 23
115.4287109375
 33
0.0
 14
-69.813085937500006
 24
121.4287109375
 34
0.0
 50
90.0
  0
ARC
  5
19E
  8
ﾚｲﾔ_10
 62
     5
 10
-97.813085937500006
 20
130.4287109375
 30
0.0
 40
33.0
 50
332.9643082106
 51
27.035691789400001
  0
LINE
  5
19F
  8
ﾚｲﾔ_10
 62
     5
 10
-169.81308593750001
 20
145.4287109375
 30
0.0
 11
-169.81308593750001
 21
115.4287109375
 31
0.0
  0
LINE
  5
1A0
  8
ﾚｲﾔ_10
  6
STITCH
 10
-168.46308593750001
 20
119.32871093750001
 30
0.0
 11
-169.81308593750001
 21
119.32871093750001
 31
0.0
  0
LINE
  5
1A1
  8
ﾚｲﾔ_10
  6
STITCH
 10
-168.46308593750001
 20
123.52871093749999
 30
0.0
 11
-168.46308593750001
 21
119.32871093750001
 31
0.0
  0
LINE
  5
1A2
  8
ﾚｲﾔ_10
  6
STITCH
 10
-166.81308593750001
 20
117.6787109375
 30
0.0
 11
-168.46308593750001
 21
119.32871093750001
 31
0.0
  0
LINE
  5
1A3
  8
ﾚｲﾔ_10
 62
     5
 10
-166.81308593750001
 20
145.4287109375
 30
0.0
 11
-166.81308593750001
 21
115.4287109375
 31
0.0
  0
CIRCLE
  5
1A4
  8
ﾚｲﾔ_10
 62
     5
 10
-74.813085937500006
 20
121.4287109375
 30
0.0
 40
2.1000000000000001
  0
CIRCLE
  5
1A5
  8
ﾚｲﾔ_10
 62
     5
 10
-74.813085937500006
 20
121.4287109375
 30
0.0
 40
3.75
  0
LINE
  5
1A6
  8
ﾚｲﾔ_10
  6
BORDER
 62
     3
 10
-74.813085937500006
 20
126.4287109375
 30
0.0
 11
-74.813085937500006
 21
116.4287109375
 31
0.0
  0
LINE
  5
1A7
  8
ﾚｲﾔ_10
  6
BORDER
 62
     3
 10
-79.813085937500006
 20
121.4287109375
 30
0.0
 11
-69.813085937500006
 21
121.4287109375
 31
0.0
  0
LINE
  5
1A8
  8
ﾚｲﾔ_10
  6
BORDER
 62
     3
 10
-163.38205729169999
 20
26.934765625000001
 30
0.0
 11
-173.6025334821
 21
26.934765625000001
 31
0.0
  0
LINE
  5
1A9
  8
ﾚｲﾔ_10
  6
STITCH
 10
-168.46308593750001
 20
29.034765624999999
 30
0.0
 11
-169.81308593750001
 21
29.034765624999999
 31
0.0
  0
LINE
  5
1AA
  8
ﾚｲﾔ_10
  6
STITCH
 10
-168.46308593750001
 20
24.834765624999999
 30
0.0
 11
-169.81308593750001
 21
24.834765624999999
 31
0.0
  0
LINE
  5
1AB
  8
ﾚｲﾔ_10
  6
STITCH
 10
-168.46308593750001
 20
29.034765624999999
 30
0.0
 11
-168.46308593750001
 21
24.834765624999999
 31
0.0
  0
LINE
  5
1AC
  8
ﾚｲﾔ_10
  6
STITCH
 10
-166.81308593750001
 20
30.684765625000001
 30
0.0
 11
-168.46308593750001
 21
29.034765624999999
 31
0.0
  0
LINE
  5
1AD
  8
ﾚｲﾔ_10
 62
     5
 10
-166.81308593750001
 20
33.324765624999998
 30
0.0
 11
-169.81308593750001
 21
33.324765624999998
 31
0.0
  0
LINE
  5
1AE
  8
ﾚｲﾔ_10
 62
     5
 10
-166.81308593750001
 20
36.934765624999997
 30
0.0
 11
-169.81308593750001
 21
36.934765624999997
 31
0.0
  0
LINE
  5
1AF
  8
ﾚｲﾔ_10
  6
BORDER
 62
     3
 10
-163.38205729169999
 20
139.4287109375
 30
0.0
 11
-173.6025334821
 21
139.4287109375
 31
0.0
  0
LINE
  5
1B0
  8
ﾚｲﾔ_10
  6
STITCH
 10
-166.81308593750001
 20
143.1787109375
 30
0.0
 11
-168.46308593750001
 21
141.52871093749999
 31
0.0
  0
LINE
  5
1B1
  8
ﾚｲﾔ_10
  6
STITCH
 10
-168.46308593750001
 20
141.52871093749999
 30
0.0
 11
-169.81308593750001
 21
141.52871093749999
 31
0.0
  0
LINE
  5
1B2
  8
ﾚｲﾔ_10
  6
STITCH
 10
-168.46308593750001
 20
137.32871093750001
 30
0.0
 11
-169.81308593750001
 21
137.32871093750001
 31
0.0
  0
LINE
  5
1B3
  8
ﾚｲﾔ_10
  6
STITCH
 10
-168.46308593750001
 20
123.52871093749999
 30
0.0
 11
-169.81308593750001
 21
123.52871093749999
 31
0.0
  0
LINE
  5
1B4
  8
ﾚｲﾔ_10
  6
BORDER
 62
     3
 10
-163.38205729169999
 20
130.4287109375
 30
0.0
 11
-173.6025334821
 21
130.4287109375
 31
0.0
  0
LINE
  5
1B5
  8
ﾚｲﾔ_10
  6
STITCH
 10
-166.81308593750001
 20
135.6787109375
 30
0.0
 11
-168.46308593750001
 21
137.32871093750001
 31
0.0
  0
LINE
  5
1B6
  8
ﾚｲﾔ_10
  6
STITCH
 10
-168.46308593750001
 20
137.32871093750001
 30
0.0
 11
-168.46308593750001
 21
141.52871093749999
 31
0.0
  0
LINE
  5
1B7
  8
ﾚｲﾔ_10
  6
STITCH
 10
-166.81308593750001
 20
125.1787109375
 30
0.0
 11
-168.46308593750001
 21
123.52871093749999
 31
0.0
  0
LINE
  5
1B8
  8
ﾚｲﾔ_10
  6
STITCH
 10
-168.46308593750001
 20
-33.965234375000001
 30
0.0
 11
-168.46308593750001
 21
-38.165234374999997
 31
0.0
  0
LINE
  5
1B9
  8
ﾚｲﾔ_10
  6
STITCH
 10
-166.81308593750001
 20
-32.315234375000003
 30
0.0
 11
-168.46308593750001
 21
-33.965234375000001
 31
0.0
  0
DIMENSION
  5
1C8
  8
寸法線
  2
*D10
 10
-169.81308593750001
 20
-88.065234375000003
 30
0.0
 11
-117.31308593750001
 21
-88.065234375000003
 31
0.0
 70
   128
  1
<>
 13
-169.81308593750001
 23
-63.065234375000003
 33
0.0
 14
-64.813085937500006
 24
-68.065234375000003
 34
0.0
 50
180.0
  0
LINE
  5
1C9
  8
ﾚｲﾔ_10
 62
     5
 10
-165.31308593750001
 20
-65.065234375000003
 30
0.0
 11
-64.813085937500006
 21
-65.065234375000003
 31
0.0
  0
LINE
  5
1CA
  8
ﾚｲﾔ_10
 62
     5
 10
-165.31308593750001
 20
-68.065234375000003
 30
0.0
 11
-64.813085937500006
 21
-68.065234375000003
 31
0.0
  0
LINE
  5
1CB
  8
ﾚｲﾔ_10
 62
     5
 10
-64.813085937500006
 20
-68.065234375000003
 30
0.0
 11
-64.813085937500006
 21
-65.065234375000003
 31
0.0
  0
DIMENSION
  5
1DA
  8
寸法線
  2
*D11
 10
-169.81308593750001
 20
96.428710937500014
 30
0.0
 11
-153.81308593750001
 21
96.428710937500014
 31
0.0
 70
   128
  1
<>
 13
-169.81308593750001
 23
115.4287109375
 33
0.0
 14
-137.81308593750001
 24
116.4287109375
 34
0.0
 50
180.0
  0
DIMENSION
  5
1E9
  8
寸法線
  2
*D12
 10
-166.81308593750001
 20
56.93476562499999
 30
0.0
 11
-159.994633271
 21
56.93476562499999
 31
0.0
 70
   128
  1
<>t
 13
-166.81308593750001
 23
36.934765624999997
 33
0.0
 14
-169.81308593750001
 24
36.934765624999997
 34
0.0
  0
DIMENSION
  5
1F8
  8
寸法線
  2
*D13
 10
-207.12458295319999
 20
145.4287109375
 30
0.0
 11
-207.12458295319999
 21
130.4287109375
 31
0.0
 70
   128
  1
<>
 13
-169.81308593750001
 23
145.4287109375
 33
0.0
 14
-169.81308593750001
 24
115.4287109375
 34
0.0
 50
90.0
  0
DIMENSION
  5
207
  8
寸法線
  2
*D14
 10
-189.81308593750001
 20
145.4287109375
 30
0.0
 11
-189.81308593750001
 21
137.9287109375
 31
0.0
 70
   128
  1
<>
 13
-169.81308593750001
 23
145.4287109375
 33
0.0
 14
-111.31308593750001
 24
130.4287109375
 34
0.0
 50
90.0
  0
DIMENSION
  5
216
  8
寸法線
  2
*D15
 10
-189.81308593750001
 20
130.4287109375
 30
0.0
 11
-189.81308593750001
 21
122.9287109375
 31
0.0
 70
   128
  1
<>
 13
-111.31308593750001
 23
130.4287109375
 33
0.0
 14
-169.81308593750001
 24
115.4287109375
 34
0.0
 50
90.0
  0
DIMENSION
  5
225
  8
寸法線
  2
*D16
 10
-106.31308593750001
 20
96.428710937500014
 30
0.0
 11
-90.563085937500006
 21
96.428710937500014
 31
0.0
 70
   128
  1
<>
 13
-106.31308593750001
 23
125.4287109375
 33
0.0
 14
-74.813085937500006
 24
116.4287109375
 34
0.0
 50
180.0
  0
DIMENSION
  5
234
  8
寸法線
  2
*D17
 10
-137.81308593750001
 20
96.428710937500014
 30
0.0
 11
-122.06308593750001
 21
96.428710937500014
 31
0.0
 70
   128
  1
<>
 13
-137.81308593750001
 23
116.4287109375
 33
0.0
 14
-106.31308593750001
 24
125.4287109375
 34
0.0
 50
180.0
  0
LINE
  5
235
  8
ﾚｲﾔ_10
  6
STITCH
 10
-166.81308593750001
 20
23.184765625000001
 30
0.0
 11
-168.46308593750001
 21
24.834765624999999
 31
0.0
  0
LINE
  5
236
  8
ﾚｲﾔ_10
  6
BORDER
 62
     3
 10
-142.81308593750001
 20
121.4287109375
 30
0.0
 11
-132.81308593750001
 21
121.4287109375
 31
0.0
  0
LINE
  5
237
  8
ﾚｲﾔ_10
  6
BORDER
 62
     3
 10
-137.81308593750001
 20
144.4287109375
 30
0.0
 11
-137.81308593750001
 21
134.4287109375
 31
0.0
  0
CIRCLE
  5
238
  8
ﾚｲﾔ_10
 62
     5
 10
-137.81308593750001
 20
139.4287109375
 30
0.0
 40
3.75
  0
CIRCLE
  5
239
  8
ﾚｲﾔ_10
 62
     5
 10
-137.81308593750001
 20
139.4287109375
 30
0.0
 40
2.1000000000000001
  0
CIRCLE
  5
23A
  8
ﾚｲﾔ_10
 62
     5
 10
-137.81308593750001
 20
121.4287109375
 30
0.0
 40
2.1000000000000001
  0
CIRCLE
  5
23B
  8
ﾚｲﾔ_10
 62
     5
 10
-137.81308593750001
 20
121.4287109375
 30
0.0
 40
3.75
  0
LINE
  5
23C
  8
ﾚｲﾔ_10
  6
BORDER
 62
     3
 10
-137.81308593750001
 20
126.4287109375
 30
0.0
 11
-137.81308593750001
 21
116.4287109375
 31
0.0
  0
LINE
  5
23D
  8
ﾚｲﾔ_10
 62
     5
 10
-169.81308593750001
 20
115.4287109375
 30
0.0
 11
-68.419209024099999
 21
115.4287109375
 31
0.0
  0
LINE
  5
23E
  8
ﾚｲﾔ_10
 62
     5
 10
-68.419209024099999
 20
145.4287109375
 30
0.0
 11
-169.81308593750001
 21
145.4287109375
 31
0.0
  0
LINE
  5
23F
  8
ﾚｲﾔ_10
  6
BORDER
 62
     3
 10
-142.81308593750001
 20
139.4287109375
 30
0.0
 11
-132.81308593750001
 21
139.4287109375
 31
0.0
  0
LINE
  5
240
  8
ﾚｲﾔ_10
  6
BORDER
 62
     3
 10
-163.38205729169999
 20
121.4287109375
 30
0.0
 11
-173.6025334821
 21
121.4287109375
 31
0.0
  0
LINE
  5
241
  8
ﾚｲﾔ_10
  6
BORDER
 62
     3
 10
-137.81308593750001
 20
-61.634205729199991
 30
0.0
 11
-137.81308593750001
 21
-71.854681919599997
 31
0.0
  0
LINE
  5
242
  8
ﾚｲﾔ_10
  6
STITCH
 10
-134.06308593750001
 20
-65.065234375000003
 30
0.0
 11
-135.71308593750001
 21
-66.715234374999994
 31
0.0
  0
LINE
  5
243
  8
ﾚｲﾔ_10
  6
STITCH
 10
-135.71308593750001
 20
-66.715234374999994
 30
0.0
 11
-139.9130859375
 21
-66.715234374999994
 31
0.0
  0
LINE
  5
244
  8
ﾚｲﾔ_10
  6
STITCH
 10
-135.71308593750001
 20
-66.715234374999994
 30
0.0
 11
-135.71308593750001
 21
-68.065234375000003
 31
0.0
  0
LINE
  5
245
  8
ﾚｲﾔ_10
  6
BORDER
 62
     3
 10
-163.38205729169999
 20
-36.065234375000003
 30
0.0
 11
-173.6025334821
 21
-36.065234375000003
 31
0.0
  0
LINE
  5
246
  8
ﾚｲﾔ_10
  6
STITCH
 10
-168.46308593750001
 20
-38.165234374999997
 30
0.0
 11
-169.81308593750001
 21
-38.165234374999997
 31
0.0
  0
LINE
  5
247
  8
ﾚｲﾔ_10
  6
STITCH
 10
-166.81308593750001
 20
-39.815234375000003
 30
0.0
 11
-168.46308593750001
 21
-38.165234374999997
 31
0.0
  0
LINE
  5
248
  8
ﾚｲﾔ_10
  6
STITCH
 10
-141.56308593750001
 20
-65.065234375000003
 30
0.0
 11
-139.9130859375
 21
-66.715234374999994
 31
0.0
  0
LINE
  5
249
  8
ﾚｲﾔ_10
  6
STITCH
 10
-139.9130859375
 20
-66.715234374999994
 30
0.0
 11
-139.9130859375
 21
-68.065234375000003
 31
0.0
  0
ARC
  5
24A
  8
ﾚｲﾔ_10
 62
     5
 10
-165.31308593750001
 20
-63.565234375000003
 30
0.0
 40
4.5
 50
180.0
 51
270.0
  0
ARC
  5
24B
  8
ﾚｲﾔ_10
 62
     5
 10
-165.31308593750001
 20
-63.565234375000003
 30
0.0
 40
1.5
 50
180.0
 51
270.0
  0
LINE
  5
24C
  8
ﾚｲﾔ_10
  6
STITCH
 10
-71.063085937500006
 20
-65.065234375000003
 30
0.0
 11
-72.713085937499983
 21
-66.715234374999994
 31
0.0
  0
LINE
  5
24D
  8
ﾚｲﾔ_10
  6
STITCH
 10
-72.713085937499983
 20
-66.715234374999994
 30
0.0
 11
-76.9130859375
 21
-66.715234374999994
 31
0.0
  0
LINE
  5
24E
  8
ﾚｲﾔ_10
  6
STITCH
 10
-76.9130859375
 20
-66.715234374999994
 30
0.0
 11
-76.9130859375
 21
-68.065234375000003
 31
0.0
  0
LINE
  5
24F
  8
ﾚｲﾔ_10
  6
STITCH
 10
-72.713085937499983
 20
-66.715234374999994
 30
0.0
 11
-72.713085937499983
 21
-68.065234375000003
 31
0.0
  0
LINE
  5
250
  8
ﾚｲﾔ_10
  6
BORDER
 62
     3
 10
-74.813085937500006
 20
-61.634205729199991
 30
0.0
 11
-74.813085937500006
 21
-71.854681919599997
 31
0.0
  0
LINE
  5
251
  8
ﾚｲﾔ_10
 62
     5
 10
-68.423085937500005
 20
-68.065234375000003
 30
0.0
 11
-68.423085937500005
 21
-65.065234375000003
 31
0.0
  0
LINE
  5
252
  8
ﾚｲﾔ_10
  6
STITCH
 10
-78.563085937500006
 20
-65.065234375000003
 30
0.0
 11
-76.9130859375
 21
-66.715234374999994
 31
0.0
  0
LINE
  5
253
  8
ﾚｲﾔ_10
  6
STITCH
 10
-108.4130859375
 20
-66.715234374999994
 30
0.0
 11
-108.4130859375
 21
-68.065234375000003
 31
0.0
  0
LINE
  5
254
  8
ﾚｲﾔ_10
  6
STITCH
 10
-104.2130859375
 20
-66.715234374999994
 30
0.0
 11
-108.4130859375
 21
-66.715234374999994
 31
0.0
  0
LINE
  5
255
  8
ﾚｲﾔ_10
  6
STITCH
 10
-102.56308593750001
 20
-65.065234375000003
 30
0.0
 11
-104.2130859375
 21
-66.715234374999994
 31
0.0
  0
LINE
  5
256
  8
ﾚｲﾔ_10
  6
STITCH
 10
-110.06308593750001
 20
-65.065234375000003
 30
0.0
 11
-108.4130859375
 21
-66.715234374999994
 31
0.0
  0
LINE
  5
257
  8
ﾚｲﾔ_10
  6
BORDER
 62
     3
 10
-106.31308593750001
 20
-61.634205729199991
 30
0.0
 11
-106.31308593750001
 21
-71.854681919599997
 31
0.0
  0
LINE
  5
258
  8
ﾚｲﾔ_10
  6
STITCH
 10
-104.2130859375
 20
-66.715234374999994
 30
0.0
 11
-104.2130859375
 21
-68.065234375000003
 31
0.0
  0
LINE
  5
259
  8
ﾚｲﾔ_10
  6
STITCH
 10
-168.46308593750001
 20
-33.965234375000001
 30
0.0
 11
-169.81308593750001
 21
-33.965234375000001
 31
0.0
  0
LINE
  5
25F
  8
図枠
 62
     5
 10
-272.44133331569998
 20
215.2566668222
 30
0.0
 11
277.55866668430002
 21
215.2566668222
 31
0.0
  0
LINE
  5
260
  8
図枠
 62
     5
 10
-272.44133331569998
 20
-164.7433331778
 30
0.0
 11
277.55866668430002
 21
-164.7433331778
 31
0.0
  0
LINE
  5
261
  8
図枠
  6
DOT
 10
-284.44133331569998
 20
226.7566668222
 30
0.0
 11
289.55866668430002
 21
226.7566668222
 31
0.0
  0
LINE
  5
262
  8
図枠
  6
DOT
 10
-284.44133331569998
 20
-176.2433331778
 30
0.0
 11
289.55866668430002
 21
-176.2433331778
 31
0.0
  0
LINE
  5
263
  8
ﾚｲﾔ_10
  6
STITCH
 10
-166.81308593750001
 20
-0.815234375
 30
0.0
 11
-168.46308593750001
 21
-2.4652343750000001
 31
0.0
  0
DIMENSION
  5
272
  8
寸法線
  2
*D18
 10
-189.81308593750001
 20
36.934765624999997
 30
0.0
 11
-189.81308593750001
 21
-15.565234374999999
 31
0.0
 70
   128
  1
<>
 13
-169.81308593750001
 23
36.934765624999997
 33
0.0
 14
-164.81308593750001
 24
-68.065234375000003
 34
0.0
 50
90.0
  0
LINE
  5
273
  8
ﾚｲﾔ_10
 62
     5
 10
-166.81308593750001
 20
36.934765624999997
 30
0.0
 11
-166.81308593750001
 21
-63.565234375000003
 31
0.0
  0
LINE
  5
274
  8
ﾚｲﾔ_10
 62
     5
 10
-169.81308593750001
 20
36.934765624999997
 30
0.0
 11
-169.81308593750001
 21
-63.565234375000003
 31
0.0
  0
DIMENSION
  5
281
  8
寸法線
  2
*D63
 10
-125.92429263172249
 20
-41.458078553070401
 30
0.0
 11
-136.15057295490001
 21
-29.162567042399989
 31
0.0
 70
   133
  1
<>
 13
-166.81308593750001
 23
36.934765624999997
 33
0.0
 14
-64.813085937500006
 24
-65.065234375000003
 34
0.0
 15
-166.81308593750001
 25
-65.065234375000003
 35
0.0
1001
ACAD
1000
DSTYLE
1002
{
1070
   271
1070
     0
1002
}
  0
LINE
  5
282
  8
図枠
 62
     5
 10
-272.44133331569998
 20
-164.7433331778
 30
0.0
 11
-272.44133331569998
 21
215.2566668222
 31
0.0
  0
LINE
  5
283
  8
図枠
  6
DOT
 10
-284.43533331570001
 20
-176.2433331778
 30
0.0
 11
-284.43533331570001
 21
226.7566668222
 31
0.0
  0
LINE
  5
284
  8
図枠
 62
     5
 10
277.55866668430002
 20
-164.7433331778
 30
0.0
 11
277.55866668430002
 21
215.2566668222
 31
0.0
  0
LINE
  5
285
  8
図枠
  6
DOT
 10
289.55866668430002
 20
-176.2433331778
 30
0.0
 11
289.55866668430002
 21
226.7566668222
 31
0.0
  0
LINE
  5
286
  8
ﾚｲﾔ_10
  6
STITCH
 10
-166.81308593750001
 20
-8.3152343749999993
 30
0.0
 11
-168.46308593750001
 21
-6.6652343749999989
 31
0.0
  0
LINE
  5
287
  8
ﾚｲﾔ_10
  6
BORDER
 62
     3
 10
-163.38205729169999
 20
-4.5652343750000002
 30
0.0
 11
-173.6025334821
 21
-4.5652343750000002
 31
0.0
  0
LINE
  5
288
  8
ﾚｲﾔ_10
  6
STITCH
 10
-168.46308593750001
 20
-2.4652343750000001
 30
0.0
 11
-169.81308593750001
 21
-2.4652343750000001
 31
0.0
  0
LINE
  5
289
  8
ﾚｲﾔ_10
  6
STITCH
 10
-168.46308593750001
 20
-6.6652343749999989
 30
0.0
 11
-169.81308593750001
 21
-6.6652343749999989
 31
0.0
  0
LINE
  5
28A
  8
ﾚｲﾔ_10
  6
STITCH
 10
-168.46308593750001
 20
-2.4652343750000001
 30
0.0
 11
-168.46308593750001
 21
-6.6652343749999989
 31
0.0
  0
DIMENSION
  5
29A
  8
寸法線
  2
*D20
 10
-139.9130859375
 20
-74.174358382299999
 30
0.0
 11
-137.81308593750001
 21
-74.174358382299999
 31
0.0
 70
   128
  1
%%c<>
 13
-139.9130859375
 23
-68.065234375000003
 33
0.0
 14
-135.71308593750001
 24
-68.065234375000003
 34
0.0
 50
180.0
  0
DIMENSION
  5
2A8
  8
寸法線
  2
*D64
 10
-135.08941368860971
 20
-58.650351158975887
 30
0.0
 11
-137.81308593750001
 21
-58.291772904799998
 31
0.0
 70
   133
  1
<>
 13
-142.09341602340001
 23
-64.534904289099998
 33
0.0
 14
-133.5327558516
 24
-64.534904289099998
 34
0.0
 15
-137.81308593750001
 25
-68.815234375000003
 35
0.0
1001
ACAD
1000
DSTYLE
1002
{
1070
   271
1070
     0
1002
}
  0
DIMENSION
  5
2B7
  8
寸法線
  2
*D22
 10
-134.06308593750001
 20
-61.065234375000003
 30
0.0
 11
-137.81308593750001
 21
-61.065234375000003
 31
0.0
 70
   128
  1
%%c<>
 13
-134.06308593750001
 23
-65.065234375000003
 33
0.0
 14
-141.56308593750001
 24
-65.065234375000003
 34
0.0
  0
DIMENSION
  5
2FB
  8
0
  2
*D27
 10
154.58777798756219
 20
-55.39325831573364
 30
0.0
 11
143.49671837707569
 21
-55.39325831573364
 31
0.0
 70
   128
  1
φ4.2
 13
134.58777798756239
 23
-35.241270224732567
 33
0.0
 14
154.58777798756219
 24
-35.241270224732567
 34
0.0
1001
ACAD
1000
DSTYLE
1002
{
1070
    40
1040
1.0
1002
}
  0
DIMENSION
  5
2FC
  8
0
  2
*D28
 10
164.5877779875623
 20
-1.2069124886425009
 30
0.0
 11
144.33714963305621
 21
-1.2069124886425009
 31
0.0
 70
   128
  1
φ7.5
 13
124.5877779875623
 23
-20.11627022473257
 33
0.0
 14
164.5877779875623
 24
-20.11627022473257
 34
0.0
1001
ACAD
1000
DSTYLE
1002
{
1070
    40
1040
1.0
1002
}
  0
LINE
  5
2FD
  8
ﾚｲﾔ_1
  6
BORDER
 62
     3
 10
144.5877779875623
 20
-15.92877022473257
 30
0.0
 11
144.5877779875623
 21
-39.678770224732581
 31
0.0
  0
LINE
  5
2FE
  8
ﾚｲﾔ_1
 62
     5
 10
164.5877779875623
 20
-20.17877022473257
 30
0.0
 11
154.58777798756219
 21
-30.17877022473257
 31
0.0
  0
LINE
  5
2FF
  8
ﾚｲﾔ_1
 62
     5
 10
154.58777798756219
 20
-30.17877022473257
 30
0.0
 11
134.58777798756239
 21
-30.17877022473257
 31
0.0
  0
LINE
  5
300
  8
ﾚｲﾔ_1
 62
     5
 10
134.58777798756239
 20
-30.17877022473257
 30
0.0
 11
134.58777798756239
 21
-35.178770224732567
 31
0.0
  0
LINE
  5
301
  8
ﾚｲﾔ_1
 62
     5
 10
154.58777798756219
 20
-30.17877022473257
 30
0.0
 11
154.58777798756219
 21
-35.178770224732567
 31
0.0
  0
LINE
  5
302
  8
ﾚｲﾔ_1
 62
     5
 10
124.5877779875623
 20
-20.17877022473257
 30
0.0
 11
134.58777798756239
 21
-30.17877022473257
 31
0.0
  0
LINE
  5
303
  8
ﾚｲﾔ_1
 62
     5
 10
114.1025928023623
 20
-20.17877022473257
 30
0.0
 11
175.0729631727624
 21
-20.17877022473257
 31
0.0
  0
LINE
  5
304
  8
ﾚｲﾔ_1
 62
     5
 10
114.1025928023623
 20
-35.178770224732567
 30
0.0
 11
175.0729631727624
 21
-35.178770224732567
 31
0.0
  0
DIMENSION
  5
305
  8
0
  2
*D29
 10
129.4925497683756
 20
16.15738844111997
 30
0.0
 11
146.43822928567579
 21
18.115350561215902
 31
0.0
 70
   133
 13
121.3031857488624
 23
-16.894177986032581
 33
0.0
 14
167.87237022626229
 24
-16.894177986032581
 34
0.0
 15
144.5877779875623
 25
-40.178770224732567
 35
0.0
1001
ACAD
1000
DSTYLE
1002
{
1070
   271
1070
     0
1070
    40
1040
1.0
1002
}
  0
ENDSEC
  0
EOF
