  0
SECTION
  2
HEADER
  9
$ACADVER
  1
AC1009
  9
$INSBASE
 10
0.0
 20
0.0
 30
0.0
  9
$EXTMIN
 10
-284.44191796579997
 20
-176.25784779349999
 30
0.0
  9
$EXTMAX
 10
289.55808203420003
 20
226.74215220650001
 30
0.0
  9
$LIMMIN
 10
0.0
 20
0.0
  9
$LIMMAX
 10
0.0
 20
0.0
  9
$ORTHOMODE
 70
     0
  9
$REGENMODE
 70
     1
  9
$FILLMODE
 70
     1
  9
$QTEXTMODE
 70
     0
  9
$MIRRTEXT
 70
     1
  9
$DRAGMODE
 70
     2
  9
$LTSCALE
 40
1.0
  9
$OSMODE
 70
    31
  9
$ATTMODE
 70
     1
  9
$TEXTSIZE
 40
0.0
  9
$TRACEWID
 40
0.05
  9
$TEXTSTYLE
  7
STANDARD
  9
$CLAYER
  8
0
  9
$CELTYPE
  6
CONTINUOUS
  9
$CECOLOR
 62
   256
  9
$DIMSCALE
 40
1.0
  9
$DIMASZ
 40
0.18
  9
$DIMEXO
 40
0.0625
  9
$DIMDLI
 40
0.38
  9
$DIMRND
 40
0.0
  9
$DIMDLE
 40
0.0
  9
$DIMEXE
 40
0.18
  9
$DIMTP
 40
0.0
  9
$DIMTM
 40
0.0
  9
$DIMTXT
 40
0.18
  9
$DIMCEN
 40
0.09
  9
$DIMTSZ
 40
0.0
  9
$DIMTOL
 70
     0
  9
$DIMLIM
 70
     0
  9
$DIMTIH
 70
     1
  9
$DIMTOH
 70
     1
  9
$DIMSE1
 70
     0
  9
$DIMSE2
 70
     0
  9
$DIMTAD
 70
     0
  9
$DIMZIN
 70
     0
  9
$DIMBLK
  1

  9
$DIMASO
 70
     1
  9
$DIMSHO
 70
     1
  9
$DIMPOST
  1

  9
$DIMAPOST
  1

  9
$DIMALT
 70
     0
  9
$DIMALTD
 70
     2
  9
$DIMALTF
 40
25.399999999999999
  9
$DIMLFAC
 40
1.0
  9
$DIMTOFL
 70
     0
  9
$DIMTVP
 40
0.0
  9
$DIMTIX
 70
     0
  9
$DIMSOXD
 70
     0
  9
$DIMSAH
 70
     0
  9
$DIMBLK1
  1

  9
$DIMBLK2
  1

  9
$DIMSTYLE
  2
STANDARD
  9
$DIMCLRD
 70
     0
  9
$DIMCLRE
 70
     0
  9
$DIMCLRT
 70
     0
  9
$DIMTFAC
 40
1.0
  9
$DIMGAP
 40
0.09
  9
$LUNITS
 70
     2
  9
$LUPREC
 70
     4
  9
$SKETCHINC
 40
0.1
  9
$FILLETRAD
 40
0.0
  9
$AUNITS
 70
     0
  9
$AUPREC
 70
     0
  9
$MENU
  1
acad
  9
$ELEVATION
 40
0.0
  9
$PELEVATION
 40
0.0
  9
$THICKNESS
 40
0.0
  9
$LIMCHECK
 70
     0
  9
$BLIPMODE
 70
     0
  9
$CHAMFERA
 40
0.0
  9
$CHAMFERB
 40
0.0
  9
$SKPOLY
 70
     0
  9
$TDCREATE
 40
2454863.4873254751
  9
$TDUPDATE
 40
2454863.4875453822
  9
$TDINDWG
 40
0.0002320255
  9
$TDUSRTIMER
 40
0.0002316551
  9
$USRTIMER
 70
     1
  9
$ANGBASE
 50
0.0
  9
$ANGDIR
 70
     0
  9
$PDMODE
 70
     3
  9
$PDSIZE
 40
-1.0
  9
$PLINEWID
 40
0.0
  9
$COORDS
 70
     2
  9
$SPLFRAME
 70
     0
  9
$SPLINETYPE
 70
     6
  9
$SPLINESEGS
 70
     8
  9
$ATTDIA
 70
     0
  9
$ATTREQ
 70
     1
  9
$HANDLING
 70
     1
  9
$HANDSEED
  5
61E
  9
$SURFTAB1
 70
     6
  9
$SURFTAB2
 70
     6
  9
$SURFTYPE
 70
     6
  9
$SURFU
 70
     6
  9
$SURFV
 70
     6
  9
$UCSNAME
  2

  9
$UCSORG
 10
0.0
 20
0.0
 30
0.0
  9
$UCSXDIR
 10
1.0
 20
0.0
 30
0.0
  9
$UCSYDIR
 10
0.0
 20
1.0
 30
0.0
  9
$PUCSNAME
  2

  9
$PUCSORG
 10
0.0
 20
0.0
 30
0.0
  9
$PUCSXDIR
 10
1.0
 20
0.0
 30
0.0
  9
$PUCSYDIR
 10
0.0
 20
1.0
 30
0.0
  9
$USERI1
 70
     0
  9
$USERI2
 70
     0
  9
$USERI3
 70
     0
  9
$USERI4
 70
     0
  9
$USERI5
 70
     0
  9
$USERR1
 40
0.0
  9
$USERR2
 40
0.0
  9
$USERR3
 40
0.0
  9
$USERR4
 40
0.0
  9
$USERR5
 40
0.0
  9
$WORLDVIEW
 70
     1
  9
$SHADEDGE
 70
     3
  9
$SHADEDIF
 70
    70
  9
$TILEMODE
 70
     1
  9
$MAXACTVP
 70
    16
  9
$PLIMCHECK
 70
     0
  9
$PEXTMIN
 10
1.0000000000000000E+020
 20
1.0000000000000000E+020
 30
1.0000000000000000E+020
  9
$PEXTMAX
 10
-1.0000000000000000E+020
 20
-1.0000000000000000E+020
 30
-1.0000000000000000E+020
  9
$PLIMMIN
 10
0.0
 20
0.0
  9
$PLIMMAX
 10
12.0
 20
9.0
  9
$UNITMODE
 70
     0
  9
$VISRETAIN
 70
     0
  9
$PLINEGEN
 70
     1
  9
$PSLTSCALE
 70
     0
  0
ENDSEC
  0
SECTION
  2
TABLES
  0
TABLE
  2
VPORT
 70
     2
  0
VPORT
  2
*ACTIVE
 70
     0
 10
0.0
 20
0.0
 11
1.0
 21
1.0
 12
2.5580820341999688
 22
25.242152206500009
 13
0.0
 23
0.0
 14
1.0
 24
1.0
 15
0.0
 25
0.0
 16
0.0
 26
0.0
 36
1.0
 17
0.0
 27
0.0
 37
0.0
 40
407.71512969245811
 41
1.4164265129682989
 42
50.0
 43
0.0
 44
0.0
 50
0.0
 51
0.0
 71
     0
 72
   100
 73
     1
 74
     1
 75
     0
 76
     0
 77
     0
 78
     0
  0
ENDTAB
  0
TABLE
  2
LTYPE
 70
    11
  0
LTYPE
  2
CONTINUOUS
 70
     0
  3
Solid line
 72
    65
 73
     0
 40
0.0
  0
LTYPE
  2
DOT
 70
     0
  3
. . . . . . . . 
 72
    65
 73
     2
 40
1.0
 49
0.0
 49
-1.0
  0
LTYPE
  2
DASHED
 70
     0
  3
___  ___  ___  ___  
 72
    65
 73
     2
 40
4.0
 49
3.0
 49
-1.0
  0
LTYPE
  2
HIDDEN
 70
     0
  3
__ __ __ __ 
 72
    65
 73
     2
 40
3.0
 49
2.0
 49
-1.0
  0
LTYPE
  2
STITCH
 70
     0
  3
_ _ _ _ 
 72
    65
 73
     2
 40
2.0
 49
1.0
 49
-1.0
  0
LTYPE
  2
CENTER
 70
     0
  3
______  __  ______  __  
 72
    65
 73
     4
 40
43.0
 49
40.0
 49
-1.0
 49
1.0
 49
-1.0
  0
LTYPE
  2
DASHDOT
 70
     0
  3
____ . ____ . 
 72
    65
 73
     4
 40
32.0
 49
30.0
 49
-1.0
 49
0.0
 49
-1.0
  0
LTYPE
  2
BORDER
 70
     0
  3
__ . __ . 
 72
    65
 73
     4
 40
22.0
 49
20.0
 49
-1.0
 49
0.0
 49
-1.0
  0
LTYPE
  2
CUTTING
 70
     0
  3
________   ___   ___   
 72
    65
 73
     6
 40
45.0
 49
40.0
 49
-1.0
 49
1.0
 49
-1.0
 49
1.0
 49
-1.0
  0
LTYPE
  2
PHANTOM
 70
     0
  3
______  __  __  
 72
    65
 73
     6
 40
35.0
 49
30.0
 49
-1.0
 49
1.0
 49
-1.0
 49
1.0
 49
-1.0
  0
LTYPE
  2
DIVIDE
 70
     0
  3
____ . . ____ . . 
 72
    65
 73
     6
 40
23.0
 49
20.0
 49
-1.0
 49
0.0
 49
-1.0
 49
0.0
 49
-1.0
  0
ENDTAB
  0
TABLE
  2
LAYER
 70
     6
  0
LAYER
  2
0
 70
     0
 62
     7
  6
CONTINUOUS
  0
LAYER
  2
ﾚｲﾔ_10
 70
     0
 62
     7
  6
CONTINUOUS
  0
LAYER
  2
図枠
 70
     0
 62
     7
  6
CONTINUOUS
  0
LAYER
  2
寸法線
 70
     0
 62
     7
  6
CONTINUOUS
  0
LAYER
  2
ﾚｲﾔ_1
 70
     0
 62
     7
  6
CONTINUOUS
  0
LAYER
  2
DEFPOINTS
 70
     0
 62
     7
  6
CONTINUOUS
  0
ENDTAB
  0
TABLE
  2
STYLE
 70
     2
  0
STYLE
  2
STANDARD
 70
     0
 40
0.0
 41
1.0
 50
0.0
 71
     0
 42
0.0
  3
txt
  4
extfont
  0
STYLE
  2
ゴシック
 70
     0
 40
0.0
 41
1.0
 50
0.0
 71
     0
 42
1.7676767676767671
  3
txt
  4

  0
ENDTAB
  0
TABLE
  2
VIEW
 70
     0
  0
ENDTAB
  0
TABLE
  2
UCS
 70
     0
  0
ENDTAB
  0
TABLE
  2
APPID
 70
     2
  0
APPID
  2
ACAD
 70
     0
  0
APPID
  2
DCO15
 70
     0
  0
ENDTAB
  0
TABLE
  2
DIMSTYLE
 70
     7
  0
DIMSTYLE
  2
STANDARD
 70
     0
  3

  4

  5

  6

  7

 40
1.0
 41
0.18
 42
0.0625
 43
0.38
 44
0.18
 45
0.0
 46
0.0
 47
0.0
 48
0.0
140
0.18
141
0.09
142
0.0
143
25.399999999999999
144
1.0
145
0.0
146
1.0
147
0.09
 71
     0
 72
     0
 73
     1
 74
     1
 75
     0
 76
     0
 77
     0
 78
     0
170
     0
171
     2
172
     0
173
     0
174
     0
175
     0
176
     0
177
     0
178
     0
  0
DIMSTYLE
  2
VELDIM0
 70
     0
  3

  4

  5

  6

  7

 40
1.0
 41
6.0
 42
0.0625
 43
0.38
 44
1.0
 45
0.0
 46
5.0
 47
0.0
 48
0.0
140
5.9972220420999998
141
0.09
142
0.0
143
25.399999999999999
144
1.0
145
0.0
146
1.0
147
0.09
 71
     0
 72
     0
 73
     0
 74
     0
 75
     0
 76
     0
 77
     0
 78
     8
170
     0
171
     2
172
     0
173
     0
174
     0
175
     0
176
     0
177
     0
178
     0
  0
DIMSTYLE
  2
VELDIM1
 70
     0
  3

  4

  5

  6

  7

 40
1.0
 41
6.0
 42
0.0625
 43
0.38
 44
1.25
 45
0.0
 46
5.0
 47
0.0
 48
0.0
140
5.9972220420999998
141
0.09
142
0.0
143
25.399999999999999
144
1.0
145
0.0
146
1.0
147
0.09
 71
     0
 72
     0
 73
     0
 74
     0
 75
     0
 76
     0
 77
     0
 78
     8
170
     0
171
     2
172
     0
173
     0
174
     0
175
     0
176
     0
177
     0
178
     0
  0
DIMSTYLE
  2
VELDIM2
 70
     0
  3

  4

  5

  6

  7

 40
1.0
 41
6.0
 42
0.0625
 43
0.38
 44
1.25
 45
0.0
 46
5.0
 47
0.0
 48
0.0
140
5.9972220420999998
141
0.09
142
0.0
143
25.399999999999999
144
1.0
145
0.0
146
1.0
147
0.09
 71
     0
 72
     0
 73
     0
 74
     0
 75
     0
 76
     0
 77
     0
 78
     8
170
     0
171
     2
172
     0
173
     0
174
     0
175
     0
176
     0
177
     0
178
     0
  0
DIMSTYLE
  2
VELDIM3
 70
     0
  3

  4

  5

  6

  7

 40
1.0
 41
1.200000047699999
 42
0.0625
 43
0.38
 44
0.8000000119
 45
0.0
 46
2.0
 47
0.0
 48
0.0
140
1.079499983799999
141
0.09
142
0.0
143
25.399999999999999
144
1.0
145
0.0
146
1.0
147
0.09
 71
     0
 72
     0
 73
     0
 74
     0
 75
     0
 76
     0
 77
     0
 78
     8
170
     0
171
     2
172
     0
173
     0
174
     0
175
     0
176
     0
177
     0
178
     0
  0
DIMSTYLE
  2
VELDIM4
 70
     0
  3

  4

  5

  6

  7

 40
1.0
 41
1.200000047699999
 42
0.0625
 43
0.38
 44
1.25
 45
0.0
 46
5.0
 47
0.0
 48
0.0
140
1.079499983799999
141
0.09
142
0.0
143
25.399999999999999
144
1.0
145
0.0
146
1.0
147
0.09
 71
     0
 72
     0
 73
     0
 74
     0
 75
     0
 76
     0
 77
     0
 78
     8
170
     0
171
     2
172
     0
173
     0
174
     0
175
     0
176
     0
177
     0
178
     0
  0
DIMSTYLE
  2
基本_１_２_
 70
     0
  3

  4

  5

  6

  7

 40
0.0
 41
2.5
 42
2.5
 43
14.0
 44
2.0
 45
0.0
 46
0.0
 47
0.0
 48
0.0
140
5.0
141
2.0
142
0.0
143
0.0394
144
1.0
145
0.0
146
1.0
147
1.0
 71
     0
 72
     0
 73
     0
 74
     0
 75
     0
 76
     0
 77
     1
 78
     8
170
     0
171
     4
172
     1
173
     0
174
     0
175
     0
176
     4
177
     4
178
     4
  0
ENDTAB
  0
ENDSEC
  0
SECTION
  2
BLOCKS
  0
BLOCK
  8
0
  2
$MODEL_SPACE
 70
     0
 10
0.0
 20
0.0
 30
0.0
  3
$MODEL_SPACE
  1

  0
ENDBLK
  5
E
  8
0
  0
BLOCK
 67
     1
  8
0
  2
$PAPER_SPACE
 70
     0
 10
0.0
 20
0.0
 30
0.0
  3
$PAPER_SPACE
  1

  0
ENDBLK
  5
10
 67
     1
  8
0
  0
BLOCK
  8
0
  2
*D0
 70
     1
 10
0.0
 20
0.0
 30
0.0
  3
*D0
  1

  0
TEXT
  5
6C
  8
0
 62
     0
 10
91.948882484399988
 20
102.487044239
 30
0.0
 40
5.9972220420999998
  1
20
  0
LINE
  5
6D
  8
0
 62
     0
 10
85.476660156299985
 20
123.4287109375
 30
0.0
 11
85.476660156299985
 21
99.4287109375
 31
0.0
  0
LINE
  5
6E
  8
0
 62
     0
 10
105.4766601563
 20
113.4287109375
 30
0.0
 11
105.4766601563
 21
99.4287109375
 31
0.0
  0
LINE
  5
6F
  8
0
 62
     0
 10
85.476660156299985
 20
100.4287109375
 30
0.0
 11
102.5322154999
 21
100.4287109375
 31
0.0
  0
LINE
  5
70
  8
0
 62
     0
 10
85.476660156299985
 20
100.4287109375
 30
0.0
 11
88.421104812600007
 21
100.4287109375
 31
0.0
  0
LINE
  5
71
  8
0
 62
     0
 10
105.4766601563
 20
100.4287109375
 30
0.0
 11
102.5322154999
 21
100.4287109375
 31
0.0
  0
LINE
  5
72
  8
0
 62
     0
 10
105.4766601563
 20
100.4287109375
 30
0.0
 11
88.421104812600007
 21
100.4287109375
 31
0.0
  0
LINE
  5
73
  8
0
 62
     0
 10
105.4766601563
 20
100.4287109375
 30
0.0
 11
110.4766601562999
 21
100.4287109375
 31
0.0
  0
SOLID
  5
74
  8
0
 62
     0
 10
105.4766601563
 20
100.4287109375
 30
0.0
 11
111.4766601563
 21
101.9287109375
 31
0.0
 12
111.4766601563
 22
98.928710937500014
 32
0.0
 13
109.9766601563
 23
100.4287109375
 33
0.0
  0
LINE
  5
75
  8
0
 62
     0
 10
85.476660156299985
 20
100.4287109375
 30
0.0
 11
80.476660156299985
 21
100.4287109375
 31
0.0
  0
SOLID
  5
76
  8
0
 62
     0
 10
85.476660156299985
 20
100.4287109375
 30
0.0
 11
79.476660156299999
 21
98.928710937500014
 31
0.0
 12
79.476660156299999
 22
101.9287109375
 32
0.0
 13
80.976660156299999
 23
100.4287109375
 33
0.0
  0
ENDBLK
  5
77
  8
0
  0
BLOCK
  8
0
  2
*D1
 70
     1
 10
0.0
 20
0.0
 30
0.0
  3
*D1
  1

  0
TEXT
  5
7C
  8
0
 62
     0
 10
74.448882484400002
 20
102.487044239
 30
0.0
 40
5.9972220420999998
  1
15
  0
LINE
  5
7D
  8
0
 62
     0
 10
70.476660156299985
 20
113.4287109375
 30
0.0
 11
70.476660156299985
 21
99.4287109375
 31
0.0
  0
LINE
  5
7E
  8
0
 62
     0
 10
85.476660156299985
 20
123.4287109375
 30
0.0
 11
85.476660156299985
 21
99.4287109375
 31
0.0
  0
LINE
  5
7F
  8
0
 62
     0
 10
70.476660156299985
 20
100.4287109375
 30
0.0
 11
85.032215499900005
 21
100.4287109375
 31
0.0
  0
LINE
  5
80
  8
0
 62
     0
 10
70.476660156299985
 20
100.4287109375
 30
0.0
 11
70.921104812600007
 21
100.4287109375
 31
0.0
  0
LINE
  5
81
  8
0
 62
     0
 10
85.476660156299985
 20
100.4287109375
 30
0.0
 11
85.032215499900005
 21
100.4287109375
 31
0.0
  0
LINE
  5
82
  8
0
 62
     0
 10
85.476660156299985
 20
100.4287109375
 30
0.0
 11
70.921104812600007
 21
100.4287109375
 31
0.0
  0
LINE
  5
83
  8
0
 62
     0
 10
85.476660156299985
 20
100.4287109375
 30
0.0
 11
90.476660156299985
 21
100.4287109375
 31
0.0
  0
SOLID
  5
84
  8
0
 62
     0
 10
85.476660156299985
 20
100.4287109375
 30
0.0
 11
91.476660156299985
 21
101.9287109375
 31
0.0
 12
91.476660156299985
 22
98.928710937500014
 32
0.0
 13
89.976660156299985
 23
100.4287109375
 33
0.0
  0
LINE
  5
85
  8
0
 62
     0
 10
70.476660156299985
 20
100.4287109375
 30
0.0
 11
65.476660156299985
 21
100.4287109375
 31
0.0
  0
SOLID
  5
86
  8
0
 62
     0
 10
70.476660156299985
 20
100.4287109375
 30
0.0
 11
64.476660156299999
 21
98.928710937500014
 31
0.0
 12
64.476660156299999
 22
101.9287109375
 32
0.0
 13
65.976660156299999
 23
100.4287109375
 33
0.0
  0
ENDBLK
  5
87
  8
0
  0
BLOCK
  8
0
  2
*D2
 70
     1
 10
0.0
 20
0.0
 30
0.0
  3
*D2
  1

  0
TEXT
  5
8C
  8
0
 62
     0
 10
18.623329401100001
 20
153.04215739950001
 30
0.0
 40
5.9972220420999998
  1
R33
 50
345.0
  0
LINE
  5
8D
  8
0
 62
     0
 10
61.601107888699993
 20
138.9697394259
 30
0.0
 11
17.9841901673
 21
150.65685730569999
 31
0.0
  0
SOLID
  5
8E
  8
0
 62
     0
 10
61.601107888699993
 20
138.9697394259
 30
0.0
 11
55.417324363299997
 21
139.0737649571
 31
0.0
 12
56.193781498600003
 22
141.97154243590001
 32
0.0
 13
57.254441670399999
 23
140.13442512879999
 33
0.0
  0
ENDBLK
  5
8F
  8
0
  0
BLOCK
  8
0
  2
*D3
 70
     1
 10
0.0
 20
0.0
 30
0.0
  3
*D3
  1

  0
TEXT
  5
93
  8
0
 62
     0
 10
61.948882484399988
 20
102.487044239
 30
0.0
 40
5.9972220420999998
  1
10
  0
LINE
  5
94
  8
0
 62
     0
 10
60.476660156299992
 20
128.4287109375
 30
0.0
 11
60.476660156299992
 21
99.4287109375
 31
0.0
  0
LINE
  5
95
  8
0
 62
     0
 10
70.476660156299985
 20
113.4287109375
 30
0.0
 11
70.476660156299985
 21
99.4287109375
 31
0.0
  0
LINE
  5
96
  8
0
 62
     0
 10
60.476660156299992
 20
100.4287109375
 30
0.0
 11
60.476660156299992
 21
100.4287109375
 31
0.0
  0
LINE
  5
97
  8
0
 62
     0
 10
60.476660156299992
 20
100.4287109375
 30
0.0
 11
70.476660156299985
 21
100.4287109375
 31
0.0
  0
LINE
  5
98
  8
0
 62
     0
 10
70.476660156299985
 20
100.4287109375
 30
0.0
 11
60.476660156299992
 21
100.4287109375
 31
0.0
  0
LINE
  5
99
  8
0
 62
     0
 10
70.476660156299985
 20
100.4287109375
 30
0.0
 11
70.476660156299985
 21
100.4287109375
 31
0.0
  0
LINE
  5
9A
  8
0
 62
     0
 10
70.476660156299985
 20
100.4287109375
 30
0.0
 11
75.476660156299985
 21
100.4287109375
 31
0.0
  0
SOLID
  5
9B
  8
0
 62
     0
 10
70.476660156299985
 20
100.4287109375
 30
0.0
 11
76.476660156299999
 21
101.9287109375
 31
0.0
 12
76.476660156299999
 22
98.928710937500014
 32
0.0
 13
74.976660156299999
 23
100.4287109375
 33
0.0
  0
LINE
  5
9C
  8
0
 62
     0
 10
60.476660156299992
 20
100.4287109375
 30
0.0
 11
55.476660156299992
 21
100.4287109375
 31
0.0
  0
SOLID
  5
9D
  8
0
 62
     0
 10
60.476660156299992
 20
100.4287109375
 30
0.0
 11
54.476660156299999
 21
98.928710937500014
 31
0.0
 12
54.476660156299999
 22
101.9287109375
 32
0.0
 13
55.976660156299999
 23
100.4287109375
 33
0.0
  0
ENDBLK
  5
9E
  8
0
  0
BLOCK
  8
0
  2
*D4
 70
     1
 10
0.0
 20
0.0
 30
0.0
  3
*D4
  1

  0
TEXT
  5
133
  8
0
 62
     0
 10
-97.618641281100011
 20
98.487044239000014
 30
0.0
 40
5.9972220420999998
  1
31.5
  0
LINE
  5
134
  8
0
 62
     0
 10
-106.31308593750001
 20
123.4287109375
 30
0.0
 11
-106.31308593750001
 21
95.428710937499986
 31
0.0
  0
LINE
  5
135
  8
0
 62
     0
 10
-74.813085937500006
 20
114.4287109375
 30
0.0
 11
-74.813085937500006
 21
95.428710937499986
 31
0.0
  0
LINE
  5
136
  8
0
 62
     0
 10
-106.31308593750001
 20
96.428710937500014
 30
0.0
 11
-79.979752922100005
 21
96.428710937500014
 31
0.0
  0
LINE
  5
137
  8
0
 62
     0
 10
-106.31308593750001
 20
96.428710937500014
 30
0.0
 11
-101.14641895290001
 21
96.428710937500014
 31
0.0
  0
LINE
  5
138
  8
0
 62
     0
 10
-74.813085937500006
 20
96.428710937500014
 30
0.0
 11
-79.979752922100005
 21
96.428710937500014
 31
0.0
  0
LINE
  5
139
  8
0
 62
     0
 10
-74.813085937500006
 20
96.428710937500014
 30
0.0
 11
-101.14641895290001
 21
96.428710937500014
 31
0.0
  0
LINE
  5
13A
  8
0
 62
     0
 10
-74.813085937500006
 20
96.428710937500014
 30
0.0
 11
-69.813085937500006
 21
96.428710937500014
 31
0.0
  0
SOLID
  5
13B
  8
0
 62
     0
 10
-74.813085937500006
 20
96.428710937500014
 30
0.0
 11
-68.813085937500006
 21
97.928710937500014
 31
0.0
 12
-68.813085937500006
 22
94.9287109375
 32
0.0
 13
-70.313085937500006
 23
96.428710937500014
 33
0.0
  0
LINE
  5
13C
  8
0
 62
     0
 10
-106.31308593750001
 20
96.428710937500014
 30
0.0
 11
-111.31308593750001
 21
96.428710937500014
 31
0.0
  0
SOLID
  5
13D
  8
0
 62
     0
 10
-106.31308593750001
 20
96.428710937500014
 30
0.0
 11
-112.31308593750001
 21
94.9287109375
 31
0.0
 12
-112.31308593750001
 22
97.928710937500014
 32
0.0
 13
-110.81308593750001
 23
96.428710937500014
 33
0.0
  0
ENDBLK
  5
13E
  8
0
  0
BLOCK
  8
0
  2
*D5
 70
     1
 10
0.0
 20
0.0
 30
0.0
  3
*D5
  1

  0
TEXT
  5
143
  8
0
 62
     0
 10
-36.5900414328
 20
149.38993320610001
 30
0.0
 40
5.9972220420999998
  1
R33
 50
15.0
  0
LINE
  5
144
  8
0
 62
     0
 10
-65.937533669999993
 20
138.9697394259
 30
0.0
 11
-22.320615948499999
 21
150.65685730569999
 31
0.0
  0
SOLID
  5
145
  8
0
 62
     0
 10
-65.937533669999993
 20
138.9697394259
 30
0.0
 11
-60.53020727989999
 21
141.97154243590001
 31
0.0
 12
-59.753750144599991
 22
139.0737649571
 32
0.0
 13
-61.590867451699999
 23
140.13442512879999
 33
0.0
  0
ENDBLK
  5
146
  8
0
  0
BLOCK
  8
0
  2
*D6
 70
     1
 10
0.0
 20
0.0
 30
0.0
  3
*D6
  1

  0
TEXT
  5
170
  8
0
 62
     0
 10
-150.74670618740001
 20
-42.690447836399997
 30
0.0
 40
5.9972220420999998
  1
90%%d
 50
313.2437863847
  0
ARC
  5
171
  8
0
 62
     0
 10
-166.81308593750001
 20
-65.065234375000003
 30
0.0
 40
23.857534133000001
 50
60.275864797300002
 51
90.0
  0
ARC
  5
172
  8
0
 62
     0
 10
-166.81308593750001
 20
-65.065234375000003
 30
0.0
 40
23.857534133000001
 50
0.0
 51
29.724135202700008
  0
SOLID
  5
173
  8
0
 62
     0
 10
-142.9555518045
 20
-65.065234375000003
 30
0.0
 11
-141.4555518045
 21
-71.065234375000003
 31
0.0
 12
-144.4555518045
 22
-71.065234375000003
 32
0.0
 13
-142.9555518045
 23
-69.565234375000003
 33
0.0
  0
SOLID
  5
174
  8
0
 62
     0
 10
-166.81308593750001
 20
-41.207700242000001
 30
0.0
 11
-172.81308593750001
 21
-42.707700241999987
 31
0.0
 12
-172.81308593750001
 22
-39.707700242000001
 32
0.0
 13
-171.31308593750001
 23
-41.207700242000001
 33
0.0
  0
ARC
  5
175
  8
0
 62
     0
 10
-166.81308593750001
 20
-65.065234375000003
 30
0.0
 40
23.857534133000001
 50
0.0
 51
21.793382097599999
  0
ARC
  5
176
  8
0
 62
     0
 10
-166.81308593750001
 20
-65.065234375000003
 30
0.0
 40
23.857534133000001
 50
64.694190671899989
 51
90.0
  0
LINE
  5
177
  8
0
 62
     0
 10
-68.813085937500006
 20
-65.065234375000003
 30
0.0
 11
-146.9555518045
 21
-65.065234375000003
 31
0.0
  0
LINE
  5
178
  8
0
 62
     0
 10
-166.81308593750001
 20
-27.065234374999999
 30
0.0
 11
-166.81308593750001
 21
-45.207700241999987
 31
0.0
  0
ENDBLK
  5
179
  8
0
  0
BLOCK
  8
0
  2
*D7
 70
     1
 10
0.0
 20
0.0
 30
0.0
  3
*D7
  1

  0
TEXT
  5
17D
  8
0
 62
     0
 10
-122.60475244520001
 20
-86.006901073500003
 30
0.0
 40
5.9972220420999998
  1
105
  0
LINE
  5
17E
  8
0
 62
     0
 10
-169.81308593750001
 20
-65.065234375000003
 30
0.0
 11
-169.81308593750001
 21
-89.065234375000003
 31
0.0
  0
LINE
  5
17F
  8
0
 62
     0
 10
-64.813085937500006
 20
-70.065234375000003
 30
0.0
 11
-64.813085937500006
 21
-89.065234375000003
 31
0.0
  0
LINE
  5
180
  8
0
 62
     0
 10
-169.81308593750001
 20
-88.065234375000003
 30
0.0
 11
-108.493641758
 21
-88.065234375000003
 31
0.0
  0
LINE
  5
181
  8
0
 62
     0
 10
-169.81308593750001
 20
-88.065234375000003
 30
0.0
 11
-126.132530117
 21
-88.065234375000003
 31
0.0
  0
LINE
  5
182
  8
0
 62
     0
 10
-64.813085937500006
 20
-88.065234375000003
 30
0.0
 11
-108.493641758
 21
-88.065234375000003
 31
0.0
  0
LINE
  5
183
  8
0
 62
     0
 10
-64.813085937500006
 20
-88.065234375000003
 30
0.0
 11
-126.132530117
 21
-88.065234375000003
 31
0.0
  0
LINE
  5
184
  8
0
 62
     0
 10
-64.813085937500006
 20
-88.065234375000003
 30
0.0
 11
-69.813085937500006
 21
-88.065234375000003
 31
0.0
  0
SOLID
  5
185
  8
0
 62
     0
 10
-64.813085937500006
 20
-88.065234375000003
 30
0.0
 11
-70.813085937500006
 21
-89.565234375000017
 31
0.0
 12
-70.813085937500006
 22
-86.565234375000003
 32
0.0
 13
-69.313085937500006
 23
-88.065234375000003
 33
0.0
  0
LINE
  5
186
  8
0
 62
     0
 10
-169.81308593750001
 20
-88.065234375000003
 30
0.0
 11
-164.81308593750001
 21
-88.065234375000003
 31
0.0
  0
SOLID
  5
187
  8
0
 62
     0
 10
-169.81308593750001
 20
-88.065234375000003
 30
0.0
 11
-163.81308593750001
 21
-86.565234375000003
 31
0.0
 12
-163.81308593750001
 22
-89.565234375000017
 32
0.0
 13
-165.31308593750001
 23
-88.065234375000003
 33
0.0
  0
ENDBLK
  5
188
  8
0
  0
BLOCK
  8
0
  2
*D8
 70
     1
 10
0.0
 20
0.0
 30
0.0
  3
*D8
  1

  0
TEXT
  5
18E
  8
0
 62
     0
 10
-50.477542325599998
 20
126.9009332657
 30
0.0
 40
5.9972220420999998
  1
18
 50
90.0
  0
LINE
  5
18F
  8
0
 62
     0
 10
-67.813085937500006
 20
121.4287109375
 30
0.0
 11
-47.419209024099999
 21
121.4287109375
 31
0.0
  0
LINE
  5
190
  8
0
 62
     0
 10
-67.813085937500006
 20
139.4287109375
 30
0.0
 11
-47.419209024099999
 21
139.4287109375
 31
0.0
  0
LINE
  5
191
  8
0
 62
     0
 10
-48.419209024099999
 20
121.4287109375
 30
0.0
 11
-48.419209024099999
 21
137.48426628109999
 31
0.0
  0
LINE
  5
192
  8
0
 62
     0
 10
-48.419209024099999
 20
121.4287109375
 30
0.0
 11
-48.419209024099999
 21
123.37315559389999
 31
0.0
  0
LINE
  5
193
  8
0
 62
     0
 10
-48.419209024099999
 20
139.4287109375
 30
0.0
 11
-48.419209024099999
 21
137.48426628109999
 31
0.0
  0
LINE
  5
194
  8
0
 62
     0
 10
-48.419209024099999
 20
139.4287109375
 30
0.0
 11
-48.419209024099999
 21
123.37315559389999
 31
0.0
  0
LINE
  5
195
  8
0
 62
     0
 10
-48.419209024099999
 20
139.4287109375
 30
0.0
 11
-48.419209024099999
 21
144.4287109375
 31
0.0
  0
SOLID
  5
196
  8
0
 62
     0
 10
-48.419209024099999
 20
139.4287109375
 30
0.0
 11
-49.919209024099999
 21
145.4287109375
 31
0.0
 12
-46.919209024099992
 22
145.4287109375
 32
0.0
 13
-48.419209024099999
 23
143.9287109375
 33
0.0
  0
LINE
  5
197
  8
0
 62
     0
 10
-48.419209024099999
 20
121.4287109375
 30
0.0
 11
-48.419209024099999
 21
116.4287109375
 31
0.0
  0
SOLID
  5
198
  8
0
 62
     0
 10
-48.419209024099999
 20
121.4287109375
 30
0.0
 11
-46.919209024099992
 21
115.4287109375
 31
0.0
 12
-49.919209024099999
 22
115.4287109375
 32
0.0
 13
-48.419209024099999
 23
116.9287109375
 33
0.0
  0
ENDBLK
  5
199
  8
0
  0
BLOCK
  8
0
  2
*D9
 70
     1
 10
0.0
 20
0.0
 30
0.0
  3
*D9
  1

  0
TEXT
  5
19D
  8
0
 62
     0
 10
-50.477542325599998
 20
152.31052522659999
 30
0.0
 40
5.9972220420999998
  1
6
 50
90.0
  0
LINE
  5
19E
  8
0
 62
     0
 10
-67.813085937500006
 20
139.4287109375
 30
0.0
 11
-47.419209024099999
 21
139.4287109375
 31
0.0
  0
LINE
  5
19F
  8
0
 62
     0
 10
-66.419209024099985
 20
145.4287109375
 30
0.0
 11
-47.419209024099999
 21
145.4287109375
 31
0.0
  0
LINE
  5
1A0
  8
0
 62
     0
 10
-48.419209024099999
 20
139.4287109375
 30
0.0
 11
-48.419209024099999
 21
159.36608057020001
 31
0.0
  0
LINE
  5
1A1
  8
0
 62
     0
 10
-48.419209024099999
 20
139.4287109375
 30
0.0
 11
-48.419209024099999
 21
148.78274755480001
 31
0.0
  0
LINE
  5
1A2
  8
0
 62
     0
 10
-48.419209024099999
 20
145.4287109375
 30
0.0
 11
-48.419209024099999
 21
159.36608057020001
 31
0.0
  0
LINE
  5
1A3
  8
0
 62
     0
 10
-48.419209024099999
 20
145.4287109375
 30
0.0
 11
-48.419209024099999
 21
148.78274755480001
 31
0.0
  0
LINE
  5
1A4
  8
0
 62
     0
 10
-48.419209024099999
 20
145.4287109375
 30
0.0
 11
-48.419209024099999
 21
150.4287109375
 31
0.0
  0
SOLID
  5
1A5
  8
0
 62
     0
 10
-48.419209024099999
 20
145.4287109375
 30
0.0
 11
-49.919209024099999
 21
151.4287109375
 31
0.0
 12
-46.919209024099992
 22
151.4287109375
 32
0.0
 13
-48.419209024099999
 23
149.9287109375
 33
0.0
  0
LINE
  5
1A6
  8
0
 62
     0
 10
-48.419209024099999
 20
139.4287109375
 30
0.0
 11
-48.419209024099999
 21
134.4287109375
 31
0.0
  0
SOLID
  5
1A7
  8
0
 62
     0
 10
-48.419209024099999
 20
139.4287109375
 30
0.0
 11
-46.919209024099992
 21
133.4287109375
 31
0.0
 12
-49.919209024099999
 22
133.4287109375
 32
0.0
 13
-48.419209024099999
 23
134.9287109375
 33
0.0
  0
ENDBLK
  5
1A8
  8
0
  0
BLOCK
  8
0
  2
*D10
 70
     1
 10
0.0
 20
0.0
 30
0.0
  3
*D10
  1

  0
TEXT
  5
1AC
  8
0
 62
     0
 10
-50.477542325599998
 20
105.18161897660001
 30
0.0
 40
5.9972220420999998
  1
6
 50
90.0
  0
LINE
  5
1AD
  8
0
 62
     0
 10
-66.419209024099985
 20
115.4287109375
 30
0.0
 11
-47.419209024099999
 21
115.4287109375
 31
0.0
  0
LINE
  5
1AE
  8
0
 62
     0
 10
-67.813085937500006
 20
121.4287109375
 30
0.0
 11
-47.419209024099999
 21
121.4287109375
 31
0.0
  0
LINE
  5
1AF
  8
0
 62
     0
 10
-48.419209024099999
 20
115.4287109375
 30
0.0
 11
-48.419209024099999
 21
112.2371743202
 31
0.0
  0
LINE
  5
1B0
  8
0
 62
     0
 10
-48.419209024099999
 20
115.4287109375
 30
0.0
 11
-48.419209024099999
 21
101.6538413048
 31
0.0
  0
LINE
  5
1B1
  8
0
 62
     0
 10
-48.419209024099999
 20
121.4287109375
 30
0.0
 11
-48.419209024099999
 21
112.2371743202
 31
0.0
  0
LINE
  5
1B2
  8
0
 62
     0
 10
-48.419209024099999
 20
121.4287109375
 30
0.0
 11
-48.419209024099999
 21
101.6538413048
 31
0.0
  0
LINE
  5
1B3
  8
0
 62
     0
 10
-48.419209024099999
 20
121.4287109375
 30
0.0
 11
-48.419209024099999
 21
126.4287109375
 31
0.0
  0
SOLID
  5
1B4
  8
0
 62
     0
 10
-48.419209024099999
 20
121.4287109375
 30
0.0
 11
-49.919209024099999
 21
127.4287109375
 31
0.0
 12
-46.919209024099992
 22
127.4287109375
 32
0.0
 13
-48.419209024099999
 23
125.9287109375
 33
0.0
  0
LINE
  5
1B5
  8
0
 62
     0
 10
-48.419209024099999
 20
115.4287109375
 30
0.0
 11
-48.419209024099999
 21
110.4287109375
 31
0.0
  0
SOLID
  5
1B6
  8
0
 62
     0
 10
-48.419209024099999
 20
115.4287109375
 30
0.0
 11
-46.919209024099992
 21
109.4287109375
 31
0.0
 12
-49.919209024099999
 22
109.4287109375
 32
0.0
 13
-48.419209024099999
 23
110.9287109375
 33
0.0
  0
ENDBLK
  5
1B7
  8
0
  0
BLOCK
  8
0
  2
*D11
 70
     1
 10
0.0
 20
0.0
 30
0.0
  3
*D11
  1

  0
TEXT
  5
1BB
  8
0
 62
     0
 10
-73.340863609300001
 20
98.487044239000014
 30
0.0
 40
5.9972220420999998
  1
10
  0
LINE
  5
1BC
  8
0
 62
     0
 10
-74.813085937500006
 20
114.4287109375
 30
0.0
 11
-74.813085937500006
 21
95.428710937499986
 31
0.0
  0
LINE
  5
1BD
  8
0
 62
     0
 10
-64.813085937500006
 20
128.4287109375
 30
0.0
 11
-64.813085937500006
 21
95.428710937499986
 31
0.0
  0
LINE
  5
1BE
  8
0
 62
     0
 10
-74.813085937500006
 20
96.428710937500014
 30
0.0
 11
-74.813085937500006
 21
96.428710937500014
 31
0.0
  0
LINE
  5
1BF
  8
0
 62
     0
 10
-74.813085937500006
 20
96.428710937500014
 30
0.0
 11
-64.813085937500006
 21
96.428710937500014
 31
0.0
  0
LINE
  5
1C0
  8
0
 62
     0
 10
-64.813085937500006
 20
96.428710937500014
 30
0.0
 11
-74.813085937500006
 21
96.428710937500014
 31
0.0
  0
LINE
  5
1C1
  8
0
 62
     0
 10
-64.813085937500006
 20
96.428710937500014
 30
0.0
 11
-64.813085937500006
 21
96.428710937500014
 31
0.0
  0
LINE
  5
1C2
  8
0
 62
     0
 10
-64.813085937500006
 20
96.428710937500014
 30
0.0
 11
-59.813085937499999
 21
96.428710937500014
 31
0.0
  0
SOLID
  5
1C3
  8
0
 62
     0
 10
-64.813085937500006
 20
96.428710937500014
 30
0.0
 11
-58.813085937499999
 21
97.928710937500014
 31
0.0
 12
-58.813085937499999
 22
94.9287109375
 32
0.0
 13
-60.313085937499999
 23
96.428710937500014
 33
0.0
  0
LINE
  5
1C4
  8
0
 62
     0
 10
-74.813085937500006
 20
96.428710937500014
 30
0.0
 11
-79.813085937500006
 21
96.428710937500014
 31
0.0
  0
SOLID
  5
1C5
  8
0
 62
     0
 10
-74.813085937500006
 20
96.428710937500014
 30
0.0
 11
-80.813085937500006
 21
94.9287109375
 31
0.0
 12
-80.813085937500006
 22
97.928710937500014
 32
0.0
 13
-79.313085937500006
 23
96.428710937500014
 33
0.0
  0
ENDBLK
  5
1C6
  8
0
  0
BLOCK
  8
0
  2
*D12
 70
     1
 10
0.0
 20
0.0
 30
0.0
  3
*D12
  1

  0
TEXT
  5
1D3
  8
0
 62
     0
 10
-207.93348296139999
 20
126.9009332657
 30
0.0
 40
5.9972220420999998
  1
30
 50
90.0
  0
LINE
  5
1D4
  8
0
 62
     0
 10
-171.81308593750001
 20
145.4287109375
 30
0.0
 11
-206.8751496598
 21
145.4287109375
 31
0.0
  0
LINE
  5
1D5
  8
0
 62
     0
 10
-171.81308593750001
 20
115.4287109375
 30
0.0
 11
-206.8751496598
 21
115.4287109375
 31
0.0
  0
LINE
  5
1D6
  8
0
 62
     0
 10
-205.8751496598
 20
145.4287109375
 30
0.0
 11
-205.8751496598
 21
137.48426628109999
 31
0.0
  0
LINE
  5
1D7
  8
0
 62
     0
 10
-205.8751496598
 20
145.4287109375
 30
0.0
 11
-205.8751496598
 21
123.37315559389999
 31
0.0
  0
LINE
  5
1D8
  8
0
 62
     0
 10
-205.8751496598
 20
115.4287109375
 30
0.0
 11
-205.8751496598
 21
137.48426628109999
 31
0.0
  0
LINE
  5
1D9
  8
0
 62
     0
 10
-205.8751496598
 20
115.4287109375
 30
0.0
 11
-205.8751496598
 21
123.37315559389999
 31
0.0
  0
LINE
  5
1DA
  8
0
 62
     0
 10
-205.8751496598
 20
115.4287109375
 30
0.0
 11
-205.8751496598
 21
120.4287109375
 31
0.0
  0
SOLID
  5
1DB
  8
0
 62
     0
 10
-205.8751496598
 20
115.4287109375
 30
0.0
 11
-207.3751496598
 21
121.4287109375
 31
0.0
 12
-204.3751496598
 22
121.4287109375
 32
0.0
 13
-205.8751496598
 23
119.9287109375
 33
0.0
  0
LINE
  5
1DC
  8
0
 62
     0
 10
-205.8751496598
 20
145.4287109375
 30
0.0
 11
-205.8751496598
 21
140.4287109375
 31
0.0
  0
SOLID
  5
1DD
  8
0
 62
     0
 10
-205.8751496598
 20
145.4287109375
 30
0.0
 11
-204.3751496598
 21
139.4287109375
 31
0.0
 12
-207.3751496598
 22
139.4287109375
 32
0.0
 13
-205.8751496598
 23
140.9287109375
 33
0.0
  0
ENDBLK
  5
1DE
  8
0
  0
BLOCK
  8
0
  2
*D13
 70
     1
 10
0.0
 20
0.0
 30
0.0
  3
*D13
  1

  0
TEXT
  5
1E2
  8
0
 62
     0
 10
-191.87141923900001
 20
134.40093326569999
 30
0.0
 40
5.9972220420999998
  1
15
 50
90.0
  0
LINE
  5
1E3
  8
0
 62
     0
 10
-171.81308593750001
 20
145.4287109375
 30
0.0
 11
-190.81308593750001
 21
145.4287109375
 31
0.0
  0
LINE
  5
1E4
  8
0
 62
     0
 10
-113.31308593750001
 20
130.4287109375
 30
0.0
 11
-190.81308593750001
 21
130.4287109375
 31
0.0
  0
LINE
  5
1E5
  8
0
 62
     0
 10
-189.81308593750001
 20
145.4287109375
 30
0.0
 11
-189.81308593750001
 21
144.98426628109999
 31
0.0
  0
LINE
  5
1E6
  8
0
 62
     0
 10
-189.81308593750001
 20
145.4287109375
 30
0.0
 11
-189.81308593750001
 21
130.87315559390001
 31
0.0
  0
LINE
  5
1E7
  8
0
 62
     0
 10
-189.81308593750001
 20
130.4287109375
 30
0.0
 11
-189.81308593750001
 21
144.98426628109999
 31
0.0
  0
LINE
  5
1E8
  8
0
 62
     0
 10
-189.81308593750001
 20
130.4287109375
 30
0.0
 11
-189.81308593750001
 21
130.87315559390001
 31
0.0
  0
LINE
  5
1E9
  8
0
 62
     0
 10
-189.81308593750001
 20
130.4287109375
 30
0.0
 11
-189.81308593750001
 21
125.4287109375
 31
0.0
  0
SOLID
  5
1EA
  8
0
 62
     0
 10
-189.81308593750001
 20
130.4287109375
 30
0.0
 11
-188.31308593750001
 21
124.4287109375
 31
0.0
 12
-191.31308593750001
 22
124.4287109375
 32
0.0
 13
-189.81308593750001
 23
125.9287109375
 33
0.0
  0
LINE
  5
1EB
  8
0
 62
     0
 10
-189.81308593750001
 20
145.4287109375
 30
0.0
 11
-189.81308593750001
 21
150.4287109375
 31
0.0
  0
SOLID
  5
1EC
  8
0
 62
     0
 10
-189.81308593750001
 20
145.4287109375
 30
0.0
 11
-191.31308593750001
 21
151.4287109375
 31
0.0
 12
-188.31308593750001
 22
151.4287109375
 32
0.0
 13
-189.81308593750001
 23
149.9287109375
 33
0.0
  0
ENDBLK
  5
1ED
  8
0
  0
BLOCK
  8
0
  2
*D14
 70
     1
 10
0.0
 20
0.0
 30
0.0
  3
*D14
  1

  0
TEXT
  5
1F1
  8
0
 62
     0
 10
-191.87141923900001
 20
119.4009332657
 30
0.0
 40
5.9972220420999998
  1
15
 50
90.0
  0
LINE
  5
1F2
  8
0
 62
     0
 10
-113.31308593750001
 20
130.4287109375
 30
0.0
 11
-190.81308593750001
 21
130.4287109375
 31
0.0
  0
LINE
  5
1F3
  8
0
 62
     0
 10
-171.81308593750001
 20
115.4287109375
 30
0.0
 11
-190.81308593750001
 21
115.4287109375
 31
0.0
  0
LINE
  5
1F4
  8
0
 62
     0
 10
-189.81308593750001
 20
130.4287109375
 30
0.0
 11
-189.81308593750001
 21
129.98426628109999
 31
0.0
  0
LINE
  5
1F5
  8
0
 62
     0
 10
-189.81308593750001
 20
130.4287109375
 30
0.0
 11
-189.81308593750001
 21
115.87315559389999
 31
0.0
  0
LINE
  5
1F6
  8
0
 62
     0
 10
-189.81308593750001
 20
115.4287109375
 30
0.0
 11
-189.81308593750001
 21
129.98426628109999
 31
0.0
  0
LINE
  5
1F7
  8
0
 62
     0
 10
-189.81308593750001
 20
115.4287109375
 30
0.0
 11
-189.81308593750001
 21
115.87315559389999
 31
0.0
  0
LINE
  5
1F8
  8
0
 62
     0
 10
-189.81308593750001
 20
115.4287109375
 30
0.0
 11
-189.81308593750001
 21
110.4287109375
 31
0.0
  0
SOLID
  5
1F9
  8
0
 62
     0
 10
-189.81308593750001
 20
115.4287109375
 30
0.0
 11
-188.31308593750001
 21
109.4287109375
 31
0.0
 12
-191.31308593750001
 22
109.4287109375
 32
0.0
 13
-189.81308593750001
 23
110.9287109375
 33
0.0
  0
LINE
  5
1FA
  8
0
 62
     0
 10
-189.81308593750001
 20
130.4287109375
 30
0.0
 11
-189.81308593750001
 21
135.4287109375
 31
0.0
  0
SOLID
  5
1FB
  8
0
 62
     0
 10
-189.81308593750001
 20
130.4287109375
 30
0.0
 11
-191.31308593750001
 21
136.4287109375
 31
0.0
 12
-188.31308593750001
 22
136.4287109375
 32
0.0
 13
-189.81308593750001
 23
134.9287109375
 33
0.0
  0
ENDBLK
  5
1FC
  8
0
  0
BLOCK
  8
0
  2
*D15
 70
     1
 10
0.0
 20
0.0
 30
0.0
  3
*D15
  1

  0
TEXT
  5
200
  8
0
 62
     0
 10
-129.1186412811
 20
98.487044239000014
 30
0.0
 40
5.9972220420999998
  1
31.5
  0
LINE
  5
201
  8
0
 62
     0
 10
-137.81308593750001
 20
114.4287109375
 30
0.0
 11
-137.81308593750001
 21
95.428710937499986
 31
0.0
  0
LINE
  5
202
  8
0
 62
     0
 10
-106.31308593750001
 20
123.4287109375
 30
0.0
 11
-106.31308593750001
 21
95.428710937499986
 31
0.0
  0
LINE
  5
203
  8
0
 62
     0
 10
-137.81308593750001
 20
96.428710937500014
 30
0.0
 11
-111.4797529221
 21
96.428710937500014
 31
0.0
  0
LINE
  5
204
  8
0
 62
     0
 10
-137.81308593750001
 20
96.428710937500014
 30
0.0
 11
-132.64641895290001
 21
96.428710937500014
 31
0.0
  0
LINE
  5
205
  8
0
 62
     0
 10
-106.31308593750001
 20
96.428710937500014
 30
0.0
 11
-111.4797529221
 21
96.428710937500014
 31
0.0
  0
LINE
  5
206
  8
0
 62
     0
 10
-106.31308593750001
 20
96.428710937500014
 30
0.0
 11
-132.64641895290001
 21
96.428710937500014
 31
0.0
  0
LINE
  5
207
  8
0
 62
     0
 10
-106.31308593750001
 20
96.428710937500014
 30
0.0
 11
-101.31308593750001
 21
96.428710937500014
 31
0.0
  0
SOLID
  5
208
  8
0
 62
     0
 10
-106.31308593750001
 20
96.428710937500014
 30
0.0
 11
-100.31308593750001
 21
97.928710937500014
 31
0.0
 12
-100.31308593750001
 22
94.9287109375
 32
0.0
 13
-101.81308593750001
 23
96.428710937500014
 33
0.0
  0
LINE
  5
209
  8
0
 62
     0
 10
-137.81308593750001
 20
96.428710937500014
 30
0.0
 11
-142.81308593750001
 21
96.428710937500014
 31
0.0
  0
SOLID
  5
20A
  8
0
 62
     0
 10
-137.81308593750001
 20
96.428710937500014
 30
0.0
 11
-143.81308593750001
 21
94.9287109375
 31
0.0
 12
-143.81308593750001
 22
97.928710937500014
 32
0.0
 13
-142.31308593750001
 23
96.428710937500014
 33
0.0
  0
ENDBLK
  5
20B
  8
0
  0
BLOCK
  8
0
  2
*D16
 70
     1
 10
0.0
 20
0.0
 30
0.0
  3
*D16
  1

  0
TEXT
  5
20F
  8
0
 62
     0
 10
-157.34086360929999
 20
98.487044239000014
 30
0.0
 40
5.9972220420999998
  1
32
  0
LINE
  5
210
  8
0
 62
     0
 10
-169.81308593750001
 20
113.4287109375
 30
0.0
 11
-169.81308593750001
 21
95.428710937499986
 31
0.0
  0
LINE
  5
211
  8
0
 62
     0
 10
-137.81308593750001
 20
114.4287109375
 30
0.0
 11
-137.81308593750001
 21
95.428710937499986
 31
0.0
  0
LINE
  5
212
  8
0
 62
     0
 10
-169.81308593750001
 20
96.428710937500014
 30
0.0
 11
-146.75753059389999
 21
96.428710937500014
 31
0.0
  0
LINE
  5
213
  8
0
 62
     0
 10
-169.81308593750001
 20
96.428710937500014
 30
0.0
 11
-160.8686412811
 21
96.428710937500014
 31
0.0
  0
LINE
  5
214
  8
0
 62
     0
 10
-137.81308593750001
 20
96.428710937500014
 30
0.0
 11
-146.75753059389999
 21
96.428710937500014
 31
0.0
  0
LINE
  5
215
  8
0
 62
     0
 10
-137.81308593750001
 20
96.428710937500014
 30
0.0
 11
-160.8686412811
 21
96.428710937500014
 31
0.0
  0
LINE
  5
216
  8
0
 62
     0
 10
-137.81308593750001
 20
96.428710937500014
 30
0.0
 11
-142.81308593750001
 21
96.428710937500014
 31
0.0
  0
SOLID
  5
217
  8
0
 62
     0
 10
-137.81308593750001
 20
96.428710937500014
 30
0.0
 11
-143.81308593750001
 21
94.9287109375
 31
0.0
 12
-143.81308593750001
 22
97.928710937500014
 32
0.0
 13
-142.31308593750001
 23
96.428710937500014
 33
0.0
  0
LINE
  5
218
  8
0
 62
     0
 10
-169.81308593750001
 20
96.428710937500014
 30
0.0
 11
-164.81308593750001
 21
96.428710937500014
 31
0.0
  0
SOLID
  5
219
  8
0
 62
     0
 10
-169.81308593750001
 20
96.428710937500014
 30
0.0
 11
-163.81308593750001
 21
97.928710937500014
 31
0.0
 12
-163.81308593750001
 22
94.9287109375
 32
0.0
 13
-165.31308593750001
 23
96.428710937500014
 33
0.0
  0
ENDBLK
  5
21A
  8
0
  0
BLOCK
  8
0
  2
*D17
 70
     1
 10
0.0
 20
0.0
 30
0.0
  3
*D17
  1

  0
TEXT
  5
236
  8
0
 62
     0
 10
-191.87141923900001
 20
-49.093012046800013
 30
0.0
 40
5.9972220420999998
  1
45
 50
90.0
  0
LINE
  5
237
  8
0
 62
     0
 10
-171.81308593750001
 20
-23.065234374999999
 30
0.0
 11
-190.81308593750001
 21
-23.065234374999999
 31
0.0
  0
LINE
  5
238
  8
0
 62
     0
 10
-166.81308593750001
 20
-68.065234375000003
 30
0.0
 11
-190.81308593750001
 21
-68.065234375000003
 31
0.0
  0
LINE
  5
239
  8
0
 62
     0
 10
-189.81308593750001
 20
-23.065234374999999
 30
0.0
 11
-189.81308593750001
 21
-38.509679031399997
 31
0.0
  0
LINE
  5
23A
  8
0
 62
     0
 10
-189.81308593750001
 20
-23.065234374999999
 30
0.0
 11
-189.81308593750001
 21
-52.620789718599987
 31
0.0
  0
LINE
  5
23B
  8
0
 62
     0
 10
-189.81308593750001
 20
-68.065234375000003
 30
0.0
 11
-189.81308593750001
 21
-38.509679031399997
 31
0.0
  0
LINE
  5
23C
  8
0
 62
     0
 10
-189.81308593750001
 20
-68.065234375000003
 30
0.0
 11
-189.81308593750001
 21
-52.620789718599987
 31
0.0
  0
LINE
  5
23D
  8
0
 62
     0
 10
-189.81308593750001
 20
-68.065234375000003
 30
0.0
 11
-189.81308593750001
 21
-63.065234375000003
 31
0.0
  0
SOLID
  5
23E
  8
0
 62
     0
 10
-189.81308593750001
 20
-68.065234375000003
 30
0.0
 11
-191.31308593750001
 21
-62.065234375000003
 31
0.0
 12
-188.31308593750001
 22
-62.065234375000003
 32
0.0
 13
-189.81308593750001
 23
-63.565234375000003
 33
0.0
  0
LINE
  5
23F
  8
0
 62
     0
 10
-189.81308593750001
 20
-23.065234374999999
 30
0.0
 11
-189.81308593750001
 21
-28.065234374999999
 31
0.0
  0
SOLID
  5
240
  8
0
 62
     0
 10
-189.81308593750001
 20
-23.065234374999999
 30
0.0
 11
-188.31308593750001
 21
-29.065234374999999
 31
0.0
 12
-191.31308593750001
 22
-29.065234374999999
 32
0.0
 13
-189.81308593750001
 23
-27.565234374999999
 33
0.0
  0
ENDBLK
  5
241
  8
0
  0
BLOCK
  8
0
  2
*D18
 70
     1
 10
0.0
 20
0.0
 30
0.0
  3
*D18
  1

  0
TEXT
  5
24B
  8
0
 62
     0
 10
-160.61412825959999
 20
-1.006901073499999
 30
0.0
 40
5.9972220420999998
  1
3t
  0
LINE
  5
24C
  8
0
 62
     0
 10
-166.81308593750001
 20
-21.065234374999999
 30
0.0
 11
-166.81308593750001
 21
-2.0652343750000002
 31
0.0
  0
LINE
  5
24D
  8
0
 62
     0
 10
-169.81308593750001
 20
-21.065234374999999
 30
0.0
 11
-169.81308593750001
 21
-2.0652343750000002
 31
0.0
  0
LINE
  5
24E
  8
0
 62
     0
 10
-166.81308593750001
 20
-3.0652343750000002
 30
0.0
 11
-150.03079524410001
 21
-3.0652343750000002
 31
0.0
  0
LINE
  5
24F
  8
0
 62
     0
 10
-166.81308593750001
 20
-3.0652343750000002
 30
0.0
 11
-164.1419059314
 21
-3.0652343750000002
 31
0.0
  0
LINE
  5
250
  8
0
 62
     0
 10
-169.81308593750001
 20
-3.0652343750000002
 30
0.0
 11
-150.03079524410001
 21
-3.0652343750000002
 31
0.0
  0
LINE
  5
251
  8
0
 62
     0
 10
-169.81308593750001
 20
-3.0652343750000002
 30
0.0
 11
-164.1419059314
 21
-3.0652343750000002
 31
0.0
  0
LINE
  5
252
  8
0
 62
     0
 10
-169.81308593750001
 20
-3.0652343750000002
 30
0.0
 11
-174.81308593750001
 21
-3.0652343750000002
 31
0.0
  0
SOLID
  5
253
  8
0
 62
     0
 10
-169.81308593750001
 20
-3.0652343750000002
 30
0.0
 11
-175.81308593750001
 21
-4.5652343750000002
 31
0.0
 12
-175.81308593750001
 22
-1.565234375
 32
0.0
 13
-174.31308593750001
 23
-3.0652343750000002
 33
0.0
  0
LINE
  5
254
  8
0
 62
     0
 10
-166.81308593750001
 20
-3.0652343750000002
 30
0.0
 11
-161.81308593750001
 21
-3.0652343750000002
 31
0.0
  0
SOLID
  5
255
  8
0
 62
     0
 10
-166.81308593750001
 20
-3.0652343750000002
 30
0.0
 11
-160.81308593750001
 21
-1.565234375
 31
0.0
 12
-160.81308593750001
 22
-4.5652343750000002
 32
0.0
 13
-162.31308593750001
 23
-3.0652343750000002
 33
0.0
  0
ENDBLK
  5
256
  8
0
  0
BLOCK
  8
0
  2
*D19
 70
     1
 10
0.0
 20
0.0
 30
0.0
  3
*D19
  1

  0
TEXT
  5
268
  8
0
 62
     0
 10
-139.40058591370001
 20
-73.590075978100003
 30
0.0
 40
1.079499983799999
  1
%%c4.2
  0
LINE
  5
269
  8
0
 62
     0
 10
-139.9130859375
 20
-70.065234375000003
 30
0.0
 11
-139.9130859375
 21
-74.980575993100004
 31
0.0
  0
LINE
  5
26A
  8
0
 62
     0
 10
-135.71308593750001
 20
-70.065234375000003
 30
0.0
 11
-135.71308593750001
 21
-74.980575993100004
 31
0.0
  0
LINE
  5
26B
  8
0
 62
     0
 10
-139.9130859375
 20
-74.180575981199993
 30
0.0
 11
-139.9130859375
 21
-74.180575981199993
 31
0.0
  0
LINE
  5
26C
  8
0
 62
     0
 10
-139.9130859375
 20
-74.180575981199993
 30
0.0
 11
-135.71308593750001
 21
-74.180575981199993
 31
0.0
  0
LINE
  5
26D
  8
0
 62
     0
 10
-135.71308593750001
 20
-74.180575981199993
 30
0.0
 11
-139.9130859375
 21
-74.180575981199993
 31
0.0
  0
LINE
  5
26E
  8
0
 62
     0
 10
-135.71308593750001
 20
-74.180575981199993
 30
0.0
 11
-135.71308593750001
 21
-74.180575981199993
 31
0.0
  0
LINE
  5
26F
  8
0
 62
     0
 10
-135.71308593750001
 20
-74.180575981199993
 30
0.0
 11
-137.71308593750001
 21
-74.180575981199993
 31
0.0
  0
SOLID
  5
270
  8
0
 62
     0
 10
-135.71308593750001
 20
-74.180575981199993
 30
0.0
 11
-136.91308598520001
 21
-74.502175971300005
 31
0.0
 12
-136.91308598520001
 22
-73.858975991099996
 32
0.0
 13
-136.6130859733
 23
-74.180575981199993
 33
0.0
  0
LINE
  5
271
  8
0
 62
     0
 10
-139.9130859375
 20
-74.180575981199993
 30
0.0
 11
-137.9130859375
 21
-74.180575981199993
 31
0.0
  0
SOLID
  5
272
  8
0
 62
     0
 10
-139.9130859375
 20
-74.180575981199993
 30
0.0
 11
-138.7130858898
 21
-73.858975991099996
 31
0.0
 12
-138.7130858898
 22
-74.502175971300005
 32
0.0
 13
-139.01308590170001
 23
-74.180575981199993
 33
0.0
  0
ENDBLK
  5
273
  8
0
  0
BLOCK
  8
0
  2
*D20
 70
     1
 10
0.0
 20
0.0
 30
0.0
  3
*D20
  1

  0
TEXT
  5
278
  8
0
 62
     0
 10
-138.76558592320001
 20
-57.720272913400002
 30
0.0
 40
1.079499983799999
  1
90%%d
  0
ARC
  5
279
  8
0
 62
     0
 10
-137.81308593750001
 20
-68.815234375000003
 30
0.0
 40
10.523461470199999
 50
127.4809723186
 51
135.0
  0
ARC
  5
27A
  8
0
 62
     0
 10
-137.81308593750001
 20
-68.815234375000003
 30
0.0
 40
10.523461470199999
 50
45.0
 51
52.519027681399997
  0
SOLID
  5
27B
  8
0
 62
     0
 10
-130.3718749704
 20
-61.374023407899998
 30
0.0
 11
-129.29594126539999
 21
-61.995146045200002
 31
0.0
 12
-129.7507523331
 22
-62.449957112900002
 32
0.0
 13
-129.73547884199999
 23
-62.01041953619999
 33
0.0
  0
SOLID
  5
27C
  8
0
 62
     0
 10
-145.25429690460001
 20
-61.374023407899998
 30
0.0
 11
-145.87541954189999
 21
-62.449957112900002
 31
0.0
 12
-146.33023060959999
 22
-61.995146045200002
 32
0.0
 13
-145.89069303299999
 23
-62.01041953619999
 33
0.0
  0
ARC
  5
27D
  8
0
 62
     0
 10
-137.81308593750001
 20
-68.815234375000003
 30
0.0
 40
10.523461470199999
 50
45.0
 51
81.212514112999983
  0
ARC
  5
27E
  8
0
 62
     0
 10
-137.81308593750001
 20
-68.815234375000003
 30
0.0
 40
10.523461470199999
 50
98.787485887000003
 51
135.0
  0
LINE
  5
27F
  8
0
 62
     0
 10
-133.4974005041
 20
-64.499548941599997
 30
0.0
 11
-129.80618953699999
 21
-60.808337974499999
 31
0.0
  0
LINE
  5
280
  8
0
 62
     0
 10
-142.12877137090001
 20
-64.499548941599997
 30
0.0
 11
-145.81998233799999
 21
-60.808337974499999
 31
0.0
  0
ENDBLK
  5
281
  8
0
  0
BLOCK
  8
0
  2
*D21
 70
     1
 10
0.0
 20
0.0
 30
0.0
  3
*D21
  1

  0
TEXT
  5
285
  8
0
 62
     0
 10
-139.40058591370001
 20
-60.474734371899991
 30
0.0
 40
1.079499983799999
  1
%%c7.5
  0
LINE
  5
286
  8
0
 62
     0
 10
-134.06308593750001
 20
-63.065234375000003
 30
0.0
 11
-134.06308593750001
 21
-60.265234363099999
 31
0.0
  0
LINE
  5
287
  8
0
 62
     0
 10
-141.56308593750001
 20
-63.065234375000003
 30
0.0
 11
-141.56308593750001
 21
-60.265234363099999
 31
0.0
  0
LINE
  5
288
  8
0
 62
     0
 10
-134.06308593750001
 20
-61.065234375000003
 30
0.0
 11
-135.59058597090001
 21
-61.065234375000003
 31
0.0
  0
LINE
  5
289
  8
0
 62
     0
 10
-134.06308593750001
 20
-61.065234375000003
 30
0.0
 11
-140.0355859041
 21
-61.065234375000003
 31
0.0
  0
LINE
  5
28A
  8
0
 62
     0
 10
-141.56308593750001
 20
-61.065234375000003
 30
0.0
 11
-135.59058597090001
 21
-61.065234375000003
 31
0.0
  0
LINE
  5
28B
  8
0
 62
     0
 10
-141.56308593750001
 20
-61.065234375000003
 30
0.0
 11
-140.0355859041
 21
-61.065234375000003
 31
0.0
  0
LINE
  5
28C
  8
0
 62
     0
 10
-141.56308593750001
 20
-61.065234375000003
 30
0.0
 11
-139.56308593750001
 21
-61.065234375000003
 31
0.0
  0
SOLID
  5
28D
  8
0
 62
     0
 10
-141.56308593750001
 20
-61.065234375000003
 30
0.0
 11
-140.3630858898
 21
-60.743634384899991
 31
0.0
 12
-140.3630858898
 22
-61.3868343651
 32
0.0
 13
-140.66308590169999
 23
-61.065234375000003
 33
0.0
  0
LINE
  5
28E
  8
0
 62
     0
 10
-134.06308593750001
 20
-61.065234375000003
 30
0.0
 11
-136.06308593750001
 21
-61.065234375000003
 31
0.0
  0
SOLID
  5
28F
  8
0
 62
     0
 10
-134.06308593750001
 20
-61.065234375000003
 30
0.0
 11
-135.26308598520001
 21
-61.3868343651
 31
0.0
 12
-135.26308598520001
 22
-60.743634384899991
 32
0.0
 13
-134.9630859733
 23
-61.065234375000003
 33
0.0
  0
ENDBLK
  5
290
  8
0
  0
BLOCK
  8
0
  2
*D22
 70
     1
 10
0.0
 20
0.0
 30
0.0
  3
*D22
  1

  0
LINE
  5
2A0
  8
0
 62
     4
 10
99.654321868384983
 20
-1.622089728898787
 30
0.0
 11
117.25710668575741
 21
15.980695088473629
 31
0.0
  0
LINE
  5
2A1
  8
0
 62
     4
 10
49.549603485052401
 20
-1.6220897288987779
 30
0.0
 11
31.946818667679931
 21
15.98069508847383
 31
0.0
  0
ARC
  5
2A2
  8
0
 62
     4
 10
74.601962676718585
 20
-26.67444892056514
 30
0.0
 40
58.323483162560159
 50
47.456136176855878
 51
132.54386382314379
  0
SOLID
  5
2A3
  8
0
 62
     4
 10
114.32589073202899
 20
16.59682998282743
 30
0.0
 11
113.7493994699205
 21
15.99508064202424
 31
0.0
 12
115.8428931233843
 22
14.56648152610053
 32
0.0
 13
115.8428931233843
 23
14.56648152610053
 33
0.0
  0
SOLID
  5
2A4
  8
0
 62
     4
 10
35.454525883516801
 20
15.99508064202444
 30
0.0
 11
34.878034621408382
 21
16.596829982827629
 31
0.0
 12
33.36103223005302
 22
14.566481526100739
 32
0.0
 13
33.36103223005302
 23
14.566481526100739
 33
0.0
  0
INSERT
  5
2A5
  8
0
  6
CONTINUOUS
  2
*U64
 10
0.0
 20
0.0
 30
0.0
  0
POINT
  5
2A6
  8
DEFPOINTS
 62
     0
 10
74.601962676718585
 20
-26.67444892056514
 30
0.0
  0
POINT
  5
2A7
  8
DEFPOINTS
 62
     0
 10
97.886554915418614
 20
-3.3898566818651541
 30
0.0
  0
POINT
  5
2A8
  8
DEFPOINTS
 62
     0
 10
51.31737043801877
 20
-3.3898566818651541
 30
0.0
  0
POINT
  5
2A9
  8
DEFPOINTS
 62
     0
 10
59.506734457531977
 20
29.6617097452874
 30
0.0
  0
ENDBLK
  5
2AA
  8
0
  0
BLOCK
  8
0
  2
*D23
 70
     1
 10
0.0
 20
0.0
 30
0.0
  3
*D23
  1

  0
LINE
  5
2AD
  8
0
 62
     4
 10
54.601962676718578
 20
-4.1119489205651396
 30
0.0
 11
54.601962676718578
 21
14.29740881552493
 31
0.0
  0
LINE
  5
2AE
  8
0
 62
     4
 10
94.601962676718585
 20
-4.1119489205651396
 30
0.0
 11
94.601962676718585
 21
14.29740881552493
 31
0.0
  0
LINE
  5
2AF
  8
0
 62
     4
 10
57.101962676718578
 20
12.29740881552493
 30
0.0
 11
92.101962676718585
 21
12.29740881552493
 31
0.0
  0
SOLID
  5
2B0
  8
0
 62
     4
 10
57.101962676718578
 20
12.7140754821916
 30
0.0
 11
57.101962676718578
 21
11.880742148858261
 31
0.0
 12
54.601962676718578
 22
12.29740881552493
 32
0.0
 13
54.601962676718578
 23
12.29740881552493
 33
0.0
  0
SOLID
  5
2B1
  8
0
 62
     4
 10
92.101962676718585
 20
12.7140754821916
 30
0.0
 11
92.101962676718585
 21
11.880742148858261
 31
0.0
 12
94.601962676718585
 22
12.29740881552493
 32
0.0
 13
94.601962676718585
 23
12.29740881552493
 33
0.0
  0
INSERT
  5
2B2
  8
0
  6
CONTINUOUS
  2
*U65
 10
0.0
 20
0.0
 30
0.0
  0
POINT
  5
2B3
  8
DEFPOINTS
 62
     0
 10
54.601962676718578
 20
-6.6119489205651396
 30
0.0
  0
POINT
  5
2B4
  8
DEFPOINTS
 62
     0
 10
94.601962676718585
 20
-6.6119489205651396
 30
0.0
  0
POINT
  5
2B5
  8
DEFPOINTS
 62
     0
 10
94.601962676718585
 20
12.29740881552493
 30
0.0
  0
ENDBLK
  5
2B6
  8
0
  0
BLOCK
  8
0
  2
*D24
 70
     1
 10
0.0
 20
0.0
 30
0.0
  3
*D24
  1

  0
LINE
  5
2B9
  8
0
 62
     4
 10
64.601962676718699
 20
-24.23694892056514
 30
0.0
 11
64.601962676718699
 21
-43.888937011566213
 31
0.0
  0
LINE
  5
2BA
  8
0
 62
     4
 10
84.601962676718585
 20
-24.23694892056514
 30
0.0
 11
84.601962676718585
 21
-43.888937011566213
 31
0.0
  0
LINE
  5
2BB
  8
0
 62
     4
 10
67.101962676718699
 20
-41.888937011566213
 30
0.0
 11
82.101962676718585
 21
-41.888937011566213
 31
0.0
  0
SOLID
  5
2BC
  8
0
 62
     4
 10
67.101962676718699
 20
-41.472270344899542
 30
0.0
 11
67.101962676718699
 21
-42.30560367823287
 31
0.0
 12
64.601962676718699
 22
-41.888937011566213
 32
0.0
 13
64.601962676718699
 23
-41.888937011566213
 33
0.0
  0
SOLID
  5
2BD
  8
0
 62
     4
 10
82.101962676718585
 20
-41.472270344899542
 30
0.0
 11
82.101962676718585
 21
-42.30560367823287
 31
0.0
 12
84.601962676718585
 22
-41.888937011566213
 32
0.0
 13
84.601962676718585
 23
-41.888937011566213
 33
0.0
  0
INSERT
  5
2BE
  8
0
  6
CONTINUOUS
  2
*U66
 10
0.0
 20
0.0
 30
0.0
  0
POINT
  5
2BF
  8
DEFPOINTS
 62
     0
 10
64.601962676718699
 20
-21.73694892056514
 30
0.0
  0
POINT
  5
2C0
  8
DEFPOINTS
 62
     0
 10
84.601962676718585
 20
-21.73694892056514
 30
0.0
  0
POINT
  5
2C1
  8
DEFPOINTS
 62
     0
 10
84.601962676718585
 20
-41.888937011566213
 30
0.0
  0
ENDBLK
  5
2C2
  8
0
  0
BLOCK
  8
0
  2
*D26
 70
     1
 10
0.0
 20
0.0
 30
0.0
  3
*D26
  1

  0
LINE
  5
309
  8
0
 62
     4
 10
81.870881062811691
 20
-38.408806888475482
 30
0.0
 11
81.870881062811691
 21
-58.060794979476547
 31
0.0
  0
LINE
  5
30A
  8
0
 62
     4
 10
101.87088106281151
 20
-38.408806888475482
 30
0.0
 11
101.87088106281151
 21
-58.060794979476547
 31
0.0
  0
LINE
  5
30B
  8
0
 62
     4
 10
84.370881062811691
 20
-56.060794979476547
 30
0.0
 11
99.370881062811591
 21
-56.060794979476547
 31
0.0
  0
SOLID
  5
30C
  8
0
 62
     4
 10
84.370881062811691
 20
-55.64412831280989
 30
0.0
 11
84.370881062811691
 21
-56.477461646143212
 31
0.0
 12
81.870881062811691
 22
-56.060794979476547
 32
0.0
 13
81.870881062811691
 23
-56.060794979476547
 33
0.0
  0
SOLID
  5
30D
  8
0
 62
     4
 10
99.370881062811591
 20
-55.64412831280989
 30
0.0
 11
99.370881062811591
 21
-56.477461646143212
 31
0.0
 12
101.87088106281151
 22
-56.060794979476547
 32
0.0
 13
101.87088106281151
 23
-56.060794979476547
 33
0.0
  0
INSERT
  5
30E
  8
0
  6
CONTINUOUS
  2
*U67
 10
0.0
 20
0.0
 30
0.0
  0
POINT
  5
30F
  8
DEFPOINTS
 62
     0
 10
81.870881062811691
 20
-35.908806888475482
 30
0.0
  0
POINT
  5
310
  8
DEFPOINTS
 62
     0
 10
101.87088106281151
 20
-35.908806888475482
 30
0.0
  0
POINT
  5
311
  8
DEFPOINTS
 62
     0
 10
101.87088106281151
 20
-56.060794979476547
 30
0.0
  0
ENDBLK
  5
2EF
  8
0
  0
BLOCK
  8
0
  2
*D27
 70
     1
 10
0.0
 20
0.0
 30
0.0
  3
*D27
  1

  0
LINE
  5
312
  8
0
 62
     4
 10
71.870881062811577
 20
-18.283806888475478
 30
0.0
 11
71.870881062811577
 21
0.1255508476145906
 31
0.0
  0
LINE
  5
313
  8
0
 62
     4
 10
111.87088106281161
 20
-18.283806888475478
 30
0.0
 11
111.87088106281161
 21
0.1255508476145906
 31
0.0
  0
LINE
  5
314
  8
0
 62
     4
 10
74.370881062811577
 20
-1.874449152385409
 30
0.0
 11
109.37088106281161
 21
-1.874449152385409
 31
0.0
  0
SOLID
  5
315
  8
0
 62
     4
 10
74.370881062811577
 20
-1.457782485718742
 30
0.0
 11
74.370881062811577
 21
-2.2911158190520751
 31
0.0
 12
71.870881062811577
 22
-1.874449152385409
 32
0.0
 13
71.870881062811577
 23
-1.874449152385409
 33
0.0
  0
SOLID
  5
316
  8
0
 62
     4
 10
109.37088106281161
 20
-1.457782485718742
 30
0.0
 11
109.37088106281161
 21
-2.2911158190520751
 31
0.0
 12
111.87088106281161
 22
-1.874449152385409
 32
0.0
 13
111.87088106281161
 23
-1.874449152385409
 33
0.0
  0
INSERT
  5
317
  8
0
  6
CONTINUOUS
  2
*U68
 10
0.0
 20
0.0
 30
0.0
  0
POINT
  5
318
  8
DEFPOINTS
 62
     0
 10
71.870881062811577
 20
-20.783806888475478
 30
0.0
  0
POINT
  5
319
  8
DEFPOINTS
 62
     0
 10
111.87088106281161
 20
-20.783806888475478
 30
0.0
  0
POINT
  5
31A
  8
DEFPOINTS
 62
     0
 10
111.87088106281161
 20
-1.874449152385409
 30
0.0
  0
ENDBLK
  5
2FB
  8
0
  0
BLOCK
  8
0
  2
*D28
 70
     1
 10
0.0
 20
0.0
 30
0.0
  3
*D28
  1

  0
LINE
  5
3E1
  8
0
 62
     4
 10
116.923240254478
 20
-15.79394769680912
 30
0.0
 11
134.5260250718504
 21
1.8088371205632949
 31
0.0
  0
LINE
  5
3E2
  8
0
 62
     4
 10
66.818521871145393
 20
-15.793947696809109
 30
0.0
 11
49.215737053772912
 21
1.808837120563511
 31
0.0
  0
ARC
  5
3E3
  8
0
 62
     4
 10
91.870881062811577
 20
-40.846306888475482
 30
0.0
 40
58.323483162560187
 50
47.456136176855878
 51
132.54386382314379
  0
SOLID
  5
3E4
  8
0
 62
     4
 10
131.59480911812199
 20
2.424972014917099
 30
0.0
 11
131.0183178560136
 21
1.823222674113913
 31
0.0
 12
133.11181150947729
 22
0.3946235581902027
 32
0.0
 13
133.11181150947729
 23
0.3946235581902027
 33
0.0
  0
SOLID
  5
3E5
  8
0
 62
     4
 10
52.723444269609779
 20
1.82322267411411
 30
0.0
 11
52.146953007501338
 21
2.424972014917298
 31
0.0
 12
50.62995061614599
 22
0.3946235581904087
 32
0.0
 13
50.62995061614599
 23
0.3946235581904087
 33
0.0
  0
TEXT
  8
0
  40
5
  5
3F3
  62
4
  72
0
  71
0
 10
83.8324
 20
12.0961
 30
0.000000
  1
90°
  7
ゴシック
  0
POINT
  5
3E7
  8
DEFPOINTS
 62
     0
 10
91.870881062811577
 20
-40.846306888475482
 30
0.0
  0
POINT
  5
3E8
  8
DEFPOINTS
 62
     0
 10
115.15547330151161
 20
-17.561714649775489
 30
0.0
  0
POINT
  5
3E9
  8
DEFPOINTS
 62
     0
 10
68.586288824111762
 20
-17.561714649775489
 30
0.0
  0
POINT
  5
3EA
  8
DEFPOINTS
 62
     0
 10
76.775652843624968
 20
15.489851777377069
 30
0.0
  0
ENDBLK
  5
308
  8
0
  0
BLOCK
  8
0
  2
*U29
 70
     1
 10
0.0
 20
0.0
 30
0.0
  3
*U29
  1

  0
TEXT
  5
336
  8
図枠
  6
CONTINUOUS
 10
163.42002402125121
 20
207.74066752014321
 30
0.0
 40
5.3974999188999986
  1
改　訂　内　容
  0
ENDBLK
  5
338
  8
0
  0
BLOCK
  8
0
  2
*U30
 70
     1
 10
0.0
 20
0.0
 30
0.0
  3
*U30
  1

  0
TEXT
  5
33A
  8
図枠
  6
CONTINUOUS
 10
90.804357516388563
 20
207.8502614271259
 30
0.0
 40
5.3974999188999986
  1
副番
  0
ENDBLK
  5
33C
  8
0
  0
BLOCK
  8
0
  2
*U31
 70
     1
 10
0.0
 20
0.0
 30
0.0
  3
*U31
  1

  0
TEXT
  5
33E
  8
図枠
  6
CONTINUOUS
 10
111.2699540161952
 20
207.79546447363461
 30
0.0
 40
5.3974999188999986
  1
改訂日
  0
ENDBLK
  5
340
  8
0
  0
BLOCK
  8
0
  2
*U32
 70
     1
 10
0.0
 20
0.0
 30
0.0
  3
*U32
  1

  0
TEXT
  5
342
  8
図枠
  6
CONTINUOUS
 10
257.47544259178778
 20
207.7132690433975
 30
0.0
 40
5.3974999188999986
  1
検認者
  0
ENDBLK
  5
344
  8
0
  0
BLOCK
  8
0
  2
*U33
 70
     1
 10
0.0
 20
0.0
 30
0.0
  3
*U33
  1

  0
TEXT
  5
346
  8
図枠
  6
CONTINUOUS
 10
237.5576380220248
 20
207.74066752014321
 30
0.0
 40
5.3974999188999986
  1
改訂者
  0
ENDBLK
  5
348
  8
0
  0
BLOCK
  8
0
  2
*U34
 70
     1
 10
0.0
 20
0.0
 30
0.0
  3
*U34
  1

  0
TEXT
  5
34A
  8
図枠
  6
CONTINUOUS
 10
57.92857695805786
 20
-128.34391460820001
 30
0.0
 40
4.6749999999999989
  1
H16.4
  0
ENDBLK
  5
34C
  8
0
  0
BLOCK
  8
0
  2
*U35
 70
     1
 10
0.0
 20
0.0
 30
0.0
  3
*U35
  1

  0
TEXT
  5
34E
  8
図枠
  6
CONTINUOUS
 10
136.3438688362304
 20
-145.46256943053501
 30
0.0
 40
4.6749999999999989
  1
園 原
  0
ENDBLK
  5
350
  8
0
  0
BLOCK
  8
0
  2
*U36
 70
     1
 10
0.0
 20
0.0
 30
0.0
  3
*U36
  1

  0
TEXT
  5
352
  8
図枠
  6
CONTINUOUS
 10
119.96199155409489
 20
-110.881096438836
 30
0.0
 40
5.6099999188999989
  1
指定無き公差はJIS 0408-Bによること
  0
ENDBLK
  5
354
  8
0
  0
BLOCK
  8
0
  2
*U37
 70
     1
 10
0.0
 20
0.0
 30
0.0
  3
*U37
  1

  0
TEXT
  5
356
  8
図枠
  6
CONTINUOUS
 10
105.0382785558825
 20
-88.455069835600014
 30
0.0
 40
5.9972220420999998
  1
SUS304-HL
  0
ENDBLK
  5
358
  8
0
  0
BLOCK
  8
0
  2
*U38
 70
     1
 10
0.0
 20
0.0
 30
0.0
  3
*U38
  1

  0
TEXT
  5
35A
  8
図枠
  6
CONTINUOUS
 10
136.3438688362304
 20
-136.96256943053501
 30
0.0
 40
4.6749999999999989
  1
園 原
  0
ENDBLK
  5
35C
  8
0
  0
BLOCK
  8
0
  2
*U39
 70
     1
 10
0.0
 20
0.0
 30
0.0
  3
*U39
  1

  0
TEXT
  5
35E
  8
図枠
  6
CONTINUOUS
 10
51.191356353565219
 20
-99.824142124938589
 30
0.0
 40
5.6099999188999989
  1
表面処理
  0
ENDBLK
  5
360
  8
0
  0
BLOCK
  8
0
  2
*U40
 70
     1
 10
0.0
 20
0.0
 30
0.0
  3
*U40
  1

  0
TEXT
  5
362
  8
図枠
  6
CONTINUOUS
 10
53.999189483800002
 20
-160.32939469642741
 30
0.0
 40
8.6359998702999992
  1
株式会社
  0
ENDBLK
  5
364
  8
0
  0
BLOCK
  8
0
  2
*U41
 70
     1
 10
0.0
 20
0.0
 30
0.0
  3
*U41
  1

  0
TEXT
  5
366
  8
図枠
  6
CONTINUOUS
 10
76.32013787176345
 20
-145.628686181804
 30
0.0
 40
4.6749999999999989
  1
岸 本
  0
ENDBLK
  5
368
  8
0
  0
BLOCK
  8
0
  2
*U42
 70
     1
 10
0.0
 20
0.0
 30
0.0
  3
*U42
  1

  0
TEXT
  5
36A
  8
図枠
  6
CONTINUOUS
 10
105.5580820342
 20
-145.60495521733699
 30
0.0
 40
4.6749999999999989
  1
 検図
  0
ENDBLK
  5
36C
  8
0
  0
BLOCK
  8
0
  2
*U43
 70
     1
 10
0.0
 20
0.0
 30
0.0
  3
*U43
  1

  0
TEXT
  5
36E
  8
図枠
  6
CONTINUOUS
 10
55.69786629815939
 20
-119.93883846606801
 30
0.0
 40
4.6749999999999989
  1
日 　付
  0
ENDBLK
  5
370
  8
0
  0
BLOCK
  8
0
  2
*U44
 70
     1
 10
0.0
 20
0.0
 30
0.0
  3
*U44
  1

  0
TEXT
  5
372
  8
図枠
  6
CONTINUOUS
 10
95.199516044352265
 20
-120.08122425287
 30
0.0
 40
4.6749999999999989
  1
尺 　度
  0
ENDBLK
  5
374
  8
0
  0
BLOCK
  8
0
  2
*U45
 70
     1
 10
0.0
 20
0.0
 30
0.0
  3
*U45
  1

  0
TEXT
  5
376
  8
ﾚｲﾔ_10
  6
CONTINUOUS
 10
64.855340538825374
 20
-72.168316223627414
 30
0.0
 40
5.9972220420999998
  1
皿モミ部拡大図
  0
ENDBLK
  5
378
  8
0
  0
BLOCK
  8
0
  2
*U46
 70
     1
 10
0.0
 20
0.0
 30
0.0
  3
*U46
  1

  0
TEXT
  5
37A
  8
図枠
  6
CONTINUOUS
 10
51.24831066746269
 20
-88.767187811041126
 30
0.0
 40
5.6099999188999989
  1
材　　質
  0
ENDBLK
  5
37C
  8
0
  0
BLOCK
  8
0
  2
*U47
 70
     1
 10
0.0
 20
0.0
 30
0.0
  3
*U47
  1

  0
TEXT
  5
37E
  8
図枠
  6
CONTINUOUS
 10
74.92001096821015
 20
-137.10495521733699
 30
0.0
 40
4.6749999999999989
  1
白須賀
  0
ENDBLK
  5
380
  8
0
  0
BLOCK
  8
0
  2
*U48
 70
     1
 10
0.0
 20
0.0
 30
0.0
  3
*U48
  1

  0
TEXT
  5
382
  8
図枠
  6
CONTINUOUS
 10
45.558082034199991
 20
-137.033762323936
 30
0.0
 40
4.6749999999999989
  1
 設計
  0
ENDBLK
  5
384
  8
0
  0
BLOCK
  8
0
  2
*U49
 70
     1
 10
0.0
 20
0.0
 30
0.0
  3
*U49
  1

  0
TEXT
  5
386
  8
図枠
  6
CONTINUOUS
 10
99.352434826078166
 20
-128.34391460820001
 30
0.0
 40
4.6749999999999989
  1
1：2
  0
ENDBLK
  5
388
  8
0
  0
BLOCK
  8
0
  2
*U50
 70
     1
 10
0.0
 20
0.0
 30
0.0
  3
*U50
  1

  0
TEXT
  5
38A
  8
図枠
  6
CONTINUOUS
 10
51.333742138308878
 20
-110.9380507527335
 30
0.0
 40
5.6099999188999989
  1
一般公差
  0
ENDBLK
  5
38C
  8
0
  0
BLOCK
  8
0
  2
*U51
 70
     1
 10
0.0
 20
0.0
 30
0.0
  3
*U51
  1

  0
TEXT
  5
38E
  8
図枠
  6
CONTINUOUS
 10
105.5580820342
 20
-137.05749328840301
 30
0.0
 40
4.6749999999999989
  1
 照査
  0
ENDBLK
  5
390
  8
0
  0
BLOCK
  8
0
  2
*U52
 70
     1
 10
0.0
 20
0.0
 30
0.0
  3
*U52
  1

  0
TEXT
  5
392
  8
図枠
  6
CONTINUOUS
 10
48.361000815925891
 20
-145.58122425286999
 30
0.0
 40
4.6749999999999989
  1
製図
  0
ENDBLK
  5
394
  8
0
  0
BLOCK
  8
0
  2
*U53
 70
     1
 10
0.0
 20
0.0
 30
0.0
  3
*U53
  1

  0
TEXT
  5
396
  8
図枠
  6
CONTINUOUS
 10
192.18204287419439
 20
-141.84684084153091
 30
0.0
 40
5.9972220420999998
  1
LS-105 45x105 承認図
  0
ENDBLK
  5
398
  8
0
  0
BLOCK
  8
0
  2
*U54
 70
     1
 10
0.0
 20
0.0
 30
0.0
  3
*U54
  1

  0
TEXT
  5
39A
  8
図枠
  6
CONTINUOUS
 10
196.7027914693814
 20
-125.3339248652548
 30
0.0
 40
5.9972220420999998
  1
Ｌ型アングルワイド
  0
ENDBLK
  5
39C
  8
0
  0
BLOCK
  8
0
  2
*U55
 70
     1
 10
0.0
 20
0.0
 30
0.0
  3
*U55
  1

  0
TEXT
  5
39E
  8
図枠
  6
CONTINUOUS
 10
200.14282238693119
 20
-158.7250698355999
 30
0.0
 40
5.9972220420999998
  1
ＳＲＫ００１１０
  0
ENDBLK
  5
3A0
  8
0
  0
BLOCK
  8
0
  2
*U56
 70
     1
 10
0.0
 20
0.0
 30
0.0
  3
*U56
  1

  0
TEXT
  5
3A2
  8
図枠
  6
CONTINUOUS
 10
166.1369525925756
 20
-136.622695509236
 30
0.0
 40
4.6749999999999989
  1
図面名
  0
ENDBLK
  5
3A4
  8
0
  0
BLOCK
  8
0
  2
*U57
 70
     1
 10
0.0
 20
0.0
 30
0.0
  3
*U57
  1

  0
TEXT
  5
3A6
  8
図枠
  6
CONTINUOUS
 10
166.11322162810859
 20
-153.57523358030201
 30
0.0
 40
4.6749999999999989
  1
図　番
  0
ENDBLK
  5
3A8
  8
0
  0
BLOCK
  8
0
  2
*U58
 70
     1
 10
0.0
 20
0.0
 30
0.0
  3
*U58
  1

  0
TEXT
  5
3AA
  8
図枠
  6
CONTINUOUS
 10
166.00643228800709
 20
-119.67015743816999
 30
0.0
 40
4.6749999999999989
  1
製品名
  0
ENDBLK
  5
3AC
  8
0
  0
BLOCK
  8
0
  2
*U59
 70
     1
 10
0.0
 20
0.0
 30
0.0
  3
*U59
  1

  0
TEXT
  5
3AE
  8
図枠
  6
CONTINUOUS
 10
228.22894508292791
 20
-88.917847712400004
 30
0.0
 40
6.4599999188999986
  1
3.0t
  0
ENDBLK
  5
3B0
  8
0
  0
BLOCK
  8
0
  2
*U60
 70
     1
 10
0.0
 20
0.0
 30
0.0
  3
*U60
  1

  0
TEXT
  5
3B2
  8
図枠
  6
CONTINUOUS
 10
163.17711777509081
 20
-88.881096438836053
 30
0.0
 40
5.6099999188999989
  1
板　　厚
  0
ENDBLK
  5
3B4
  8
0
  0
BLOCK
  8
0
  2
*U61
 70
     1
 10
0.0
 20
0.0
 30
0.0
  3
*U61
  1

  0
TEXT
  5
3B6
  8
ﾚｲﾔ_10
  6
CONTINUOUS
 10
-130.025095867934
 20
158.91708954910001
 30
0.0
 40
5.9972220420999998
  1
ＨＬ
  0
ENDBLK
  5
3B8
  8
0
  0
BLOCK
  8
0
  2
*D62
 70
     1
 10
0.0
 20
0.0
 30
0.0
  3
*D62
  1

  0
LINE
  5
3BA
  8
寸法線
 62
     0
 10
-64.875585937500006
 20
-65.065234375000017
 30
0.0
 11
-144.20555180451399
 21
-65.065234375000045
 31
0.0
  0
LINE
  5
3BB
  8
寸法線
 62
     0
 10
-166.81308593750001
 20
-23.127734374999989
 30
0.0
 11
-166.81308593750001
 21
-42.457700242014013
 31
0.0
  0
ARC
  5
3BC
  8
寸法線
 62
     0
 10
-166.81308593750001
 20
-65.065234375000017
 30
0.0
 40
23.857534132986011
 50
14.44772763837017
 51
20.598390816578771
  0
ARC
  5
3BD
  8
寸法線
 62
     0
 10
-166.81308593750001
 20
-65.065234375000017
 30
0.0
 40
23.857534132986011
 50
65.889181952997532
 51
75.552272361629846
  0
SOLID
  5
3BE
  8
寸法線
 62
     0
 10
-142.71796803474371
 20
-58.987113452186641
 30
0.0
 11
-144.7020928621302
 21
-59.238606333494303
 31
0.0
 12
-142.95555180451399
 22
-65.065234375000031
 32
0.0
 13
-142.95555180451399
 23
-65.065234375000031
 33
0.0
  0
SOLID
  5
3BF
  8
寸法線
 62
     0
 10
-160.98645789599431
 20
-42.954241299630169
 30
0.0
 11
-160.73496501468659
 21
-40.970116472243653
 31
0.0
 12
-166.81308593750001
 22
-41.207700242013999
 32
0.0
 13
-166.81308593750001
 23
-41.207700242013999
 33
0.0
  0
TEXT
  8
寸法線
  40
5.99722
  5
3F4
  62
0
  72
0
  71
0
 10
-161.429
 20
-59.3354
 30
0.000000
  1
90°
  0
POINT
  5
3C1
  8
DEFPOINTS
 62
     0
 10
-166.81308593750001
 20
-65.065234375000017
 30
0.0
  0
POINT
  5
3C2
  8
DEFPOINTS
 62
     0
 10
-64.813085937500034
 20
-65.065234375000017
 30
0.0
  0
POINT
  5
3C3
  8
DEFPOINTS
 62
     0
 10
-166.81308593750001
 20
-23.065234374999989
 30
0.0
  0
POINT
  5
3C4
  8
DEFPOINTS
 62
     0
 10
-154.884318871007
 20
-44.404003744179761
 30
0.0
  0
ENDBLK
  5
3C6
  8
0
  0
BLOCK
  8
0
  2
*D63
 70
     1
 10
0.0
 20
0.0
 30
0.0
  3
*D63
  1

  0
LINE
  5
3C8
  8
寸法線
 62
     0
 10
-133.48856167777581
 20
-64.490710115275846
 30
0.0
 11
-129.48799149388299
 21
-60.490139931383041
 31
0.0
  0
LINE
  5
3C9
  8
寸法線
 62
     0
 10
-142.13761019722409
 20
-64.490710115275846
 30
0.0
 11
-146.13818038111691
 21
-60.490139931383041
 31
0.0
  0
ARC
  5
3CA
  8
寸法線
 62
     0
 10
-137.81308593750001
 20
-68.815234375000003
 30
0.0
 40
10.523461470199999
 50
51.537035740833119
 51
80.553158847736739
  0
ARC
  5
3CB
  8
寸法線
 62
     0
 10
-137.81308593750001
 20
-68.815234375000003
 30
0.0
 40
10.523461470199999
 50
99.446841152263232
 51
128.4629642591668
  0
SOLID
  5
3CC
  8
寸法線
 62
     0
 10
-131.13427395635381
 20
-60.42600025212316
 30
0.0
 11
-131.4005301697847
 21
-60.72450928302419
 31
0.0
 12
-130.37187497036621
 22
-61.374023407866218
 32
0.0
 13
-130.37187497036621
 23
-61.374023407866218
 33
0.0
  0
SOLID
  5
3CD
  8
寸法線
 62
     0
 10
-144.22564170521531
 20
-60.72450928302419
 30
0.0
 11
-144.49189791864609
 21
-60.42600025212316
 31
0.0
 12
-145.2542969046338
 22
-61.374023407866218
 32
0.0
 13
-145.2542969046338
 23
-61.374023407866218
 33
0.0
  0
TEXT
  8
寸法線
  40
1.0795
  5
3F5
  62
0
  72
0
  71
0
 10
-139.972
 20
-60.2025
 30
0.000000
  1
90°
  0
POINT
  5
3CF
  8
DEFPOINTS
 62
     0
 10
-137.81308593750001
 20
-68.815234375000003
 30
0.0
  0
POINT
  5
3D0
  8
DEFPOINTS
 62
     0
 10
-133.5327558516
 20
-64.534904289099998
 30
0.0
  0
POINT
  5
3D1
  8
DEFPOINTS
 62
     0
 10
-142.09341602340001
 20
-64.534904289099998
 30
0.0
  0
POINT
  5
3D2
  8
DEFPOINTS
 62
     0
 10
-135.08941368860971
 20
-58.650351158975887
 30
0.0
  0
ENDBLK
  5
3D4
  8
0
  0
BLOCK
  8
0
  2
*U64
 70
     1
 10
0.0
 20
0.0
 30
0.0
  3
*U64
  1

  0
TEXT
  5
3D6
  8
0
  6
CONTINUOUS
 62
     4
 10
69.016311943497413
 20
32.856222427386562
 30
0.0
 40
5.0
  1
90°
 50
358.18184992574533
  7
ゴシック
  0
ENDBLK
  5
3D8
  8
0
  0
BLOCK
  8
0
  2
*U65
 70
     1
 10
0.0
 20
0.0
 30
0.0
  3
*U65
  1

  0
TEXT
  5
3DA
  8
0
  6
CONTINUOUS
 62
     4
 10
67.263266140394364
 20
14.504795179161301
 30
0.0
 40
5.0
  1
φ7.5
  7
ゴシック
  0
ENDBLK
  5
3DC
  8
0
  0
BLOCK
  8
0
  2
*U66
 70
     1
 10
0.0
 20
0.0
 30
0.0
  3
*U66
  1

  0
TEXT
  5
3DE
  8
0
  6
CONTINUOUS
 62
     4
 10
66.422834884413817
 20
-39.681550647929861
 30
0.0
 40
5.0
  1
φ4.2
  7
ゴシック
  0
ENDBLK
  5
3E0
  8
0
  0
BLOCK
  8
0
  2
*U67
 70
     1
 10
0.0
 20
0.0
 30
0.0
  3
*U67
  1

  0
TEXT
  5
3EC
  8
0
  6
CONTINUOUS
 62
     4
 10
83.691753270506808
 20
-53.853408615840188
 30
0.0
 40
5.0
  1
φ4.2
  7
ゴシック
  0
ENDBLK
  5
3EE
  8
0
  0
BLOCK
  8
0
  2
*U68
 70
     1
 10
0.0
 20
0.0
 30
0.0
  3
*U68
  1

  0
TEXT
  5
3F0
  8
0
  6
CONTINUOUS
 62
     4
 10
84.532184526487356
 20
0.3329372112509543
 30
0.0
 40
5.0
  1
φ7.5
  7
ゴシック
  0
ENDBLK
  5
3F2
  8
0
  0
ENDSEC
  0
SECTION
  2
ENTITIES
  0
LINE
  5
2F
  8
ﾚｲﾔ_10
  6
STITCH
 10
104.12666015630001
 20
128.32871093750001
 30
0.0
 11
105.4766601563
 21
128.32871093750001
 31
0.0
  0
LINE
  5
31
  8
図枠
 62
     5
 10
89.558082034199998
 20
205.24215220650001
 30
0.0
 11
277.55808203420003
 21
205.24215220650001
 31
0.0
  0
INSERT
  5
32
  8
0
  6
CONTINUOUS
  2
*U29
 10
0.0
 20
0.0
 30
0.0
  0
LINE
  5
33
  8
図枠
 62
     5
 10
137.5580820342
 20
185.24215220650001
 30
0.0
 11
137.5580820342
 21
215.24215220650001
 31
0.0
  0
LINE
  5
34
  8
図枠
 62
     5
 10
89.558082034199998
 20
185.24215220650001
 30
0.0
 11
89.558082034199998
 21
215.24215220650001
 31
0.0
  0
LINE
  5
35
  8
図枠
 62
     5
 10
105.5580820342
 20
185.24215220650001
 30
0.0
 11
105.5580820342
 21
215.24215220650001
 31
0.0
  0
LINE
  5
36
  8
図枠
 62
     5
 10
96.989511262199997
 20
204.67738720599999
 30
0.0
 11
92.039511262199994
 21
196.10373570850001
 31
0.0
  0
LINE
  5
37
  8
図枠
 62
     5
 10
96.989511262199997
 20
204.67738720599999
 30
0.0
 11
101.9395112622
 21
196.10373570850001
 31
0.0
  0
LINE
  5
38
  8
図枠
 62
     5
 10
257.55808203420003
 20
185.24215220650001
 30
0.0
 11
257.55808203420003
 21
215.24215220650001
 31
0.0
  0
LINE
  5
39
  8
図枠
 62
     5
 10
237.5580820342
 20
185.24215220650001
 30
0.0
 11
237.5580820342
 21
215.24215220650001
 31
0.0
  0
LINE
  5
3A
  8
図枠
 62
     5
 10
89.558082034199998
 20
185.24215220650001
 30
0.0
 11
277.55808203420003
 21
185.24215220650001
 31
0.0
  0
LINE
  5
3B
  8
図枠
 62
     5
 10
89.558082034199998
 20
195.24215220650001
 30
0.0
 11
277.55808203420003
 21
195.24215220650001
 31
0.0
  0
LINE
  5
3C
  8
図枠
 62
     5
 10
92.039511262199994
 20
196.10373570850001
 30
0.0
 11
101.9395112622
 21
196.10373570850001
 31
0.0
  0
LINE
  5
3D
  8
図枠
 62
     5
 10
92.039511262199994
 20
186.20373570849989
 30
0.0
 11
101.9395112622
 21
186.20373570849989
 31
0.0
  0
INSERT
  5
3E
  8
0
  6
CONTINUOUS
  2
*U30
 10
0.0
 20
0.0
 30
0.0
  0
INSERT
  5
3F
  8
0
  6
CONTINUOUS
  2
*U31
 10
0.0
 20
0.0
 30
0.0
  0
INSERT
  5
40
  8
0
  6
CONTINUOUS
  2
*U32
 10
0.0
 20
0.0
 30
0.0
  0
INSERT
  5
41
  8
0
  6
CONTINUOUS
  2
*U33
 10
0.0
 20
0.0
 30
0.0
  0
LINE
  5
42
  8
図枠
 62
     5
 10
96.989511262199997
 20
194.77738720599999
 30
0.0
 11
101.9395112622
 21
186.20373570849989
 31
0.0
  0
LINE
  5
43
  8
図枠
 62
     5
 10
96.989511262199997
 20
194.77738720599999
 30
0.0
 11
92.039511262199994
 21
186.20373570849989
 31
0.0
  0
CIRCLE
  5
44
  8
ﾚｲﾔ_10
 62
     5
 10
85.476660156299985
 20
130.4287109375
 30
0.0
 40
3.75
  0
CIRCLE
  5
45
  8
ﾚｲﾔ_10
 62
     5
 10
85.476660156299985
 20
130.4287109375
 30
0.0
 40
2.1000000000000001
  0
LINE
  5
46
  8
ﾚｲﾔ_10
  6
BORDER
 62
     3
 10
80.476660156299985
 20
130.4287109375
 30
0.0
 11
90.476660156299985
 21
130.4287109375
 31
0.0
  0
LINE
  5
47
  8
ﾚｲﾔ_10
  6
BORDER
 62
     3
 10
85.476660156299985
 20
135.4287109375
 30
0.0
 11
85.476660156299985
 21
125.4287109375
 31
0.0
  0
CIRCLE
  5
48
  8
ﾚｲﾔ_10
 62
     5
 10
70.476660156299985
 20
121.4287109375
 30
0.0
 40
2.1000000000000001
  0
LINE
  5
49
  8
ﾚｲﾔ_10
 62
     5
 10
105.4766601563
 20
115.4287109375
 30
0.0
 11
64.082783242899993
 21
115.4287109375
 31
0.0
  0
LINE
  5
4A
  8
ﾚｲﾔ_10
  6
BORDER
 62
     3
 10
75.476660156299985
 20
121.4287109375
 30
0.0
 11
65.476660156299985
 21
121.4287109375
 31
0.0
  0
LINE
  5
4B
  8
ﾚｲﾔ_10
  6
BORDER
 62
     3
 10
70.476660156299985
 20
126.4287109375
 30
0.0
 11
70.476660156299985
 21
116.4287109375
 31
0.0
  0
CIRCLE
  5
4C
  8
ﾚｲﾔ_10
 62
     5
 10
70.476660156299985
 20
121.4287109375
 30
0.0
 40
3.75
  0
LINE
  5
4D
  8
ﾚｲﾔ_10
  6
STITCH
 10
104.12666015630001
 20
137.32871093750001
 30
0.0
 11
104.12666015630001
 21
141.52871093749999
 31
0.0
  0
LINE
  5
4E
  8
ﾚｲﾔ_10
 62
     5
 10
105.4766601563
 20
145.4287109375
 30
0.0
 11
105.4766601563
 21
115.4287109375
 31
0.0
  0
LINE
  5
4F
  8
ﾚｲﾔ_10
 62
     5
 10
102.4766601563
 20
145.4287109375
 30
0.0
 11
102.4766601563
 21
115.4287109375
 31
0.0
  0
LINE
  5
50
  8
ﾚｲﾔ_10
  6
BORDER
 62
     3
 10
99.045631510400014
 20
139.4287109375
 30
0.0
 11
109.26610770089999
 21
139.4287109375
 31
0.0
  0
CIRCLE
  5
51
  8
ﾚｲﾔ_10
 62
     5
 10
70.476660156299985
 20
139.4287109375
 30
0.0
 40
2.1000000000000001
  0
CIRCLE
  5
52
  8
ﾚｲﾔ_10
 62
     5
 10
70.476660156299985
 20
139.4287109375
 30
0.0
 40
3.75
  0
LINE
  5
53
  8
ﾚｲﾔ_10
  6
BORDER
 62
     3
 10
75.476660156299985
 20
139.4287109375
 30
0.0
 11
65.476660156299985
 21
139.4287109375
 31
0.0
  0
ARC
  5
54
  8
ﾚｲﾔ_10
 62
     5
 10
93.476660156299985
 20
130.4287109375
 30
0.0
 40
33.0
 50
152.9643082106
 51
207.0356917894
  0
LINE
  5
55
  8
ﾚｲﾔ_10
  6
STITCH
 10
102.4766601563
 20
143.1787109375
 30
0.0
 11
104.12666015630001
 21
141.52871093749999
 31
0.0
  0
LINE
  5
56
  8
ﾚｲﾔ_10
  6
STITCH
 10
104.12666015630001
 20
141.52871093749999
 30
0.0
 11
105.4766601563
 21
141.52871093749999
 31
0.0
  0
LINE
  5
57
  8
ﾚｲﾔ_10
 62
     5
 10
64.082783242899993
 20
145.4287109375
 30
0.0
 11
105.4766601563
 21
145.4287109375
 31
0.0
  0
LINE
  5
58
  8
ﾚｲﾔ_10
  6
STITCH
 10
104.12666015630001
 20
119.32871093750001
 30
0.0
 11
105.4766601563
 21
119.32871093750001
 31
0.0
  0
LINE
  5
59
  8
ﾚｲﾔ_10
  6
STITCH
 10
104.12666015630001
 20
123.52871093749999
 30
0.0
 11
105.4766601563
 21
123.52871093749999
 31
0.0
  0
LINE
  5
5A
  8
ﾚｲﾔ_10
  6
STITCH
 10
102.4766601563
 20
117.6787109375
 30
0.0
 11
104.12666015630001
 21
119.32871093750001
 31
0.0
  0
LINE
  5
5B
  8
ﾚｲﾔ_10
  6
STITCH
 10
104.12666015630001
 20
128.32871093750001
 30
0.0
 11
104.12666015630001
 21
132.52871093749999
 31
0.0
  0
LINE
  5
5C
  8
ﾚｲﾔ_10
  6
STITCH
 10
104.12666015630001
 20
132.52871093749999
 30
0.0
 11
105.4766601563
 21
132.52871093749999
 31
0.0
  0
LINE
  5
5D
  8
図枠
 10
125.8094544632
 20
-161.70157104640001
 30
0.0
 11
129.80945446320001
 21
-161.70157104640001
 31
0.0
  0
POLYLINE
  8
図枠
  5
3F6
  66
     1
 10
0.000000
 20
0.000000
 30
0.000000
  70
     8
  0
VERTEX
  8
図枠
  5
3F7
 10
125.809
 20
-154.732
 30
0.000000
  70
    32
  0
VERTEX
  8
図枠
  5
3F8
 10
125.838
 20
-154.759
 30
0.000000
  70
    32
  0
VERTEX
  8
図枠
  5
3F9
 10
125.867
 20
-154.785
 30
0.000000
  70
    32
  0
VERTEX
  8
図枠
  5
3FA
 10
125.896
 20
-154.812
 30
0.000000
  70
    32
  0
VERTEX
  8
図枠
  5
3FB
 10
125.925
 20
-154.839
 30
0.000000
  70
    32
  0
VERTEX
  8
図枠
  5
3FC
 10
125.954
 20
-154.865
 30
0.000000
  70
    32
  0
VERTEX
  8
図枠
  5
3FD
 10
125.982
 20
-154.892
 30
0.000000
  70
    32
  0
VERTEX
  8
図枠
  5
3FE
 10
126.011
 20
-154.918
 30
0.000000
  70
    32
  0
VERTEX
  8
図枠
  5
3FF
 10
126.040
 20
-154.945
 30
0.000000
  70
    32
  0
VERTEX
  8
図枠
  5
400
 10
126.069
 20
-154.971
 30
0.000000
  70
    32
  0
VERTEX
  8
図枠
  5
401
 10
126.098
 20
-154.998
 30
0.000000
  70
    32
  0
VERTEX
  8
図枠
  5
402
 10
126.127
 20
-155.024
 30
0.000000
  70
    32
  0
VERTEX
  8
図枠
  5
403
 10
126.155
 20
-155.051
 30
0.000000
  70
    32
  0
VERTEX
  8
図枠
  5
404
 10
126.184
 20
-155.077
 30
0.000000
  70
    32
  0
VERTEX
  8
図枠
  5
405
 10
126.213
 20
-155.104
 30
0.000000
  70
    32
  0
VERTEX
  8
図枠
  5
406
 10
126.242
 20
-155.130
 30
0.000000
  70
    32
  0
VERTEX
  8
図枠
  5
407
 10
126.271
 20
-155.157
 30
0.000000
  70
    32
  0
VERTEX
  8
図枠
  5
408
 10
126.300
 20
-155.183
 30
0.000000
  70
    32
  0
VERTEX
  8
図枠
  5
409
 10
126.328
 20
-155.210
 30
0.000000
  70
    32
  0
VERTEX
  8
図枠
  5
40A
 10
126.357
 20
-155.236
 30
0.000000
  70
    32
  0
VERTEX
  8
図枠
  5
40B
 10
126.386
 20
-155.263
 30
0.000000
  70
    32
  0
VERTEX
  8
図枠
  5
40C
 10
126.415
 20
-155.289
 30
0.000000
  70
    32
  0
VERTEX
  8
図枠
  5
40D
 10
126.444
 20
-155.316
 30
0.000000
  70
    32
  0
VERTEX
  8
図枠
  5
40E
 10
126.473
 20
-155.342
 30
0.000000
  70
    32
  0
VERTEX
  8
図枠
  5
40F
 10
126.502
 20
-155.369
 30
0.000000
  70
    32
  0
VERTEX
  8
図枠
  5
410
 10
126.531
 20
-155.395
 30
0.000000
  70
    32
  0
VERTEX
  8
図枠
  5
411
 10
126.560
 20
-155.421
 30
0.000000
  70
    32
  0
VERTEX
  8
図枠
  5
412
 10
126.589
 20
-155.448
 30
0.000000
  70
    32
  0
VERTEX
  8
図枠
  5
413
 10
126.617
 20
-155.474
 30
0.000000
  70
    32
  0
VERTEX
  8
図枠
  5
414
 10
126.646
 20
-155.500
 30
0.000000
  70
    32
  0
VERTEX
  8
図枠
  5
415
 10
126.675
 20
-155.527
 30
0.000000
  70
    32
  0
VERTEX
  8
図枠
  5
416
 10
126.704
 20
-155.553
 30
0.000000
  70
    32
  0
VERTEX
  8
図枠
  5
417
 10
126.733
 20
-155.579
 30
0.000000
  70
    32
  0
VERTEX
  8
図枠
  5
418
 10
126.762
 20
-155.606
 30
0.000000
  70
    32
  0
VERTEX
  8
図枠
  5
419
 10
126.791
 20
-155.632
 30
0.000000
  70
    32
  0
VERTEX
  8
図枠
  5
41A
 10
126.820
 20
-155.658
 30
0.000000
  70
    32
  0
VERTEX
  8
図枠
  5
41B
 10
126.849
 20
-155.684
 30
0.000000
  70
    32
  0
VERTEX
  8
図枠
  5
41C
 10
126.878
 20
-155.711
 30
0.000000
  70
    32
  0
VERTEX
  8
図枠
  5
41D
 10
126.907
 20
-155.737
 30
0.000000
  70
    32
  0
VERTEX
  8
図枠
  5
41E
 10
126.936
 20
-155.763
 30
0.000000
  70
    32
  0
VERTEX
  8
図枠
  5
41F
 10
126.965
 20
-155.789
 30
0.000000
  70
    32
  0
VERTEX
  8
図枠
  5
420
 10
126.994
 20
-155.815
 30
0.000000
  70
    32
  0
VERTEX
  8
図枠
  5
421
 10
127.024
 20
-155.841
 30
0.000000
  70
    32
  0
VERTEX
  8
図枠
  5
422
 10
127.053
 20
-155.867
 30
0.000000
  70
    32
  0
VERTEX
  8
図枠
  5
423
 10
127.082
 20
-155.893
 30
0.000000
  70
    32
  0
VERTEX
  8
図枠
  5
424
 10
127.111
 20
-155.919
 30
0.000000
  70
    32
  0
VERTEX
  8
図枠
  5
425
 10
127.140
 20
-155.945
 30
0.000000
  70
    32
  0
VERTEX
  8
図枠
  5
426
 10
127.169
 20
-155.971
 30
0.000000
  70
    32
  0
VERTEX
  8
図枠
  5
427
 10
127.198
 20
-155.997
 30
0.000000
  70
    32
  0
VERTEX
  8
図枠
  5
428
 10
127.227
 20
-156.023
 30
0.000000
  70
    32
  0
VERTEX
  8
図枠
  5
429
 10
127.257
 20
-156.049
 30
0.000000
  70
    32
  0
VERTEX
  8
図枠
  5
42A
 10
127.286
 20
-156.075
 30
0.000000
  70
    32
  0
VERTEX
  8
図枠
  5
42B
 10
127.315
 20
-156.101
 30
0.000000
  70
    32
  0
VERTEX
  8
図枠
  5
42C
 10
127.344
 20
-156.127
 30
0.000000
  70
    32
  0
VERTEX
  8
図枠
  5
42D
 10
127.373
 20
-156.152
 30
0.000000
  70
    32
  0
VERTEX
  8
図枠
  5
42E
 10
127.403
 20
-156.178
 30
0.000000
  70
    32
  0
VERTEX
  8
図枠
  5
42F
 10
127.432
 20
-156.204
 30
0.000000
  70
    32
  0
VERTEX
  8
図枠
  5
430
 10
127.461
 20
-156.229
 30
0.000000
  70
    32
  0
VERTEX
  8
図枠
  5
431
 10
127.491
 20
-156.255
 30
0.000000
  70
    32
  0
VERTEX
  8
図枠
  5
432
 10
127.520
 20
-156.281
 30
0.000000
  70
    32
  0
VERTEX
  8
図枠
  5
433
 10
127.549
 20
-156.306
 30
0.000000
  70
    32
  0
VERTEX
  8
図枠
  5
434
 10
127.579
 20
-156.332
 30
0.000000
  70
    32
  0
VERTEX
  8
図枠
  5
435
 10
127.608
 20
-156.357
 30
0.000000
  70
    32
  0
VERTEX
  8
図枠
  5
436
 10
127.637
 20
-156.383
 30
0.000000
  70
    32
  0
VERTEX
  8
図枠
  5
437
 10
127.667
 20
-156.408
 30
0.000000
  70
    32
  0
VERTEX
  8
図枠
  5
438
 10
127.696
 20
-156.434
 30
0.000000
  70
    32
  0
VERTEX
  8
図枠
  5
439
 10
127.726
 20
-156.459
 30
0.000000
  70
    32
  0
VERTEX
  8
図枠
  5
43A
 10
127.755
 20
-156.484
 30
0.000000
  70
    32
  0
VERTEX
  8
図枠
  5
43B
 10
127.785
 20
-156.510
 30
0.000000
  70
    32
  0
VERTEX
  8
図枠
  5
43C
 10
127.814
 20
-156.535
 30
0.000000
  70
    32
  0
VERTEX
  8
図枠
  5
43D
 10
127.844
 20
-156.560
 30
0.000000
  70
    32
  0
VERTEX
  8
図枠
  5
43E
 10
127.873
 20
-156.585
 30
0.000000
  70
    32
  0
VERTEX
  8
図枠
  5
43F
 10
127.903
 20
-156.611
 30
0.000000
  70
    32
  0
VERTEX
  8
図枠
  5
440
 10
127.933
 20
-156.636
 30
0.000000
  70
    32
  0
VERTEX
  8
図枠
  5
441
 10
127.962
 20
-156.661
 30
0.000000
  70
    32
  0
VERTEX
  8
図枠
  5
442
 10
127.992
 20
-156.686
 30
0.000000
  70
    32
  0
VERTEX
  8
図枠
  5
443
 10
128.022
 20
-156.711
 30
0.000000
  70
    32
  0
VERTEX
  8
図枠
  5
444
 10
128.051
 20
-156.736
 30
0.000000
  70
    32
  0
VERTEX
  8
図枠
  5
445
 10
128.081
 20
-156.761
 30
0.000000
  70
    32
  0
VERTEX
  8
図枠
  5
446
 10
128.111
 20
-156.785
 30
0.000000
  70
    32
  0
VERTEX
  8
図枠
  5
447
 10
128.140
 20
-156.810
 30
0.000000
  70
    32
  0
VERTEX
  8
図枠
  5
448
 10
128.170
 20
-156.835
 30
0.000000
  70
    32
  0
VERTEX
  8
図枠
  5
449
 10
128.200
 20
-156.860
 30
0.000000
  70
    32
  0
VERTEX
  8
図枠
  5
44A
 10
128.230
 20
-156.884
 30
0.000000
  70
    32
  0
VERTEX
  8
図枠
  5
44B
 10
128.260
 20
-156.909
 30
0.000000
  70
    32
  0
VERTEX
  8
図枠
  5
44C
 10
128.290
 20
-156.934
 30
0.000000
  70
    32
  0
VERTEX
  8
図枠
  5
44D
 10
128.320
 20
-156.958
 30
0.000000
  70
    32
  0
VERTEX
  8
図枠
  5
44E
 10
128.349
 20
-156.983
 30
0.000000
  70
    32
  0
VERTEX
  8
図枠
  5
44F
 10
128.379
 20
-157.007
 30
0.000000
  70
    32
  0
VERTEX
  8
図枠
  5
450
 10
128.409
 20
-157.032
 30
0.000000
  70
    32
  0
VERTEX
  8
図枠
  5
451
 10
128.439
 20
-157.056
 30
0.000000
  70
    32
  0
VERTEX
  8
図枠
  5
452
 10
128.469
 20
-157.080
 30
0.000000
  70
    32
  0
VERTEX
  8
図枠
  5
453
 10
128.500
 20
-157.104
 30
0.000000
  70
    32
  0
VERTEX
  8
図枠
  5
454
 10
128.530
 20
-157.129
 30
0.000000
  70
    32
  0
VERTEX
  8
図枠
  5
455
 10
128.560
 20
-157.153
 30
0.000000
  70
    32
  0
VERTEX
  8
図枠
  5
456
 10
128.590
 20
-157.177
 30
0.000000
  70
    32
  0
VERTEX
  8
図枠
  5
457
 10
128.620
 20
-157.201
 30
0.000000
  70
    32
  0
VERTEX
  8
図枠
  5
458
 10
128.650
 20
-157.225
 30
0.000000
  70
    32
  0
VERTEX
  8
図枠
  5
459
 10
128.681
 20
-157.249
 30
0.000000
  70
    32
  0
VERTEX
  8
図枠
  5
45A
 10
128.711
 20
-157.273
 30
0.000000
  70
    32
  0
VERTEX
  8
図枠
  5
45B
 10
128.741
 20
-157.297
 30
0.000000
  70
    32
  0
VERTEX
  8
図枠
  5
45C
 10
128.771
 20
-157.320
 30
0.000000
  70
    32
  0
VERTEX
  8
図枠
  5
45D
 10
128.802
 20
-157.344
 30
0.000000
  70
    32
  0
VERTEX
  8
図枠
  5
45E
 10
128.832
 20
-157.368
 30
0.000000
  70
    32
  0
VERTEX
  8
図枠
  5
45F
 10
128.863
 20
-157.391
 30
0.000000
  70
    32
  0
VERTEX
  8
図枠
  5
460
 10
128.893
 20
-157.415
 30
0.000000
  70
    32
  0
VERTEX
  8
図枠
  5
461
 10
128.924
 20
-157.438
 30
0.000000
  70
    32
  0
VERTEX
  8
図枠
  5
462
 10
128.954
 20
-157.462
 30
0.000000
  70
    32
  0
VERTEX
  8
図枠
  5
463
 10
128.985
 20
-157.485
 30
0.000000
  70
    32
  0
VERTEX
  8
図枠
  5
464
 10
129.015
 20
-157.508
 30
0.000000
  70
    32
  0
VERTEX
  8
図枠
  5
465
 10
129.046
 20
-157.532
 30
0.000000
  70
    32
  0
VERTEX
  8
図枠
  5
466
 10
129.076
 20
-157.555
 30
0.000000
  70
    32
  0
VERTEX
  8
図枠
  5
467
 10
129.107
 20
-157.578
 30
0.000000
  70
    32
  0
VERTEX
  8
図枠
  5
468
 10
129.138
 20
-157.601
 30
0.000000
  70
    32
  0
VERTEX
  8
図枠
  5
469
 10
129.169
 20
-157.624
 30
0.000000
  70
    32
  0
VERTEX
  8
図枠
  5
46A
 10
129.199
 20
-157.647
 30
0.000000
  70
    32
  0
VERTEX
  8
図枠
  5
46B
 10
129.230
 20
-157.670
 30
0.000000
  70
    32
  0
VERTEX
  8
図枠
  5
46C
 10
129.261
 20
-157.693
 30
0.000000
  70
    32
  0
VERTEX
  8
図枠
  5
46D
 10
129.292
 20
-157.715
 30
0.000000
  70
    32
  0
VERTEX
  8
図枠
  5
46E
 10
129.323
 20
-157.738
 30
0.000000
  70
    32
  0
VERTEX
  8
図枠
  5
46F
 10
129.354
 20
-157.761
 30
0.000000
  70
    32
  0
VERTEX
  8
図枠
  5
470
 10
129.385
 20
-157.783
 30
0.000000
  70
    32
  0
VERTEX
  8
図枠
  5
471
 10
129.416
 20
-157.806
 30
0.000000
  70
    32
  0
VERTEX
  8
図枠
  5
472
 10
129.447
 20
-157.828
 30
0.000000
  70
    32
  0
VERTEX
  8
図枠
  5
473
 10
129.478
 20
-157.851
 30
0.000000
  70
    32
  0
VERTEX
  8
図枠
  5
474
 10
129.509
 20
-157.873
 30
0.000000
  70
    32
  0
VERTEX
  8
図枠
  5
475
 10
129.540
 20
-157.895
 30
0.000000
  70
    32
  0
VERTEX
  8
図枠
  5
476
 10
129.571
 20
-157.917
 30
0.000000
  70
    32
  0
VERTEX
  8
図枠
  5
477
 10
129.603
 20
-157.939
 30
0.000000
  70
    32
  0
VERTEX
  8
図枠
  5
478
 10
129.634
 20
-157.961
 30
0.000000
  70
    32
  0
VERTEX
  8
図枠
  5
479
 10
129.665
 20
-157.983
 30
0.000000
  70
    32
  0
VERTEX
  8
図枠
  5
47A
 10
129.697
 20
-158.005
 30
0.000000
  70
    32
  0
VERTEX
  8
図枠
  5
47B
 10
129.728
 20
-158.027
 30
0.000000
  70
    32
  0
VERTEX
  8
図枠
  5
47C
 10
129.760
 20
-158.049
 30
0.000000
  70
    32
  0
VERTEX
  8
図枠
  5
47D
 10
129.791
 20
-158.070
 30
0.000000
  70
    32
  0
VERTEX
  8
図枠
  5
47E
 10
129.823
 20
-158.092
 30
0.000000
  70
    32
  0
VERTEX
  8
図枠
  5
47F
 10
129.854
 20
-158.113
 30
0.000000
  70
    32
  0
VERTEX
  8
図枠
  5
480
 10
129.886
 20
-158.135
 30
0.000000
  70
    32
  0
VERTEX
  8
図枠
  5
481
 10
129.917
 20
-158.156
 30
0.000000
  70
    32
  0
VERTEX
  8
図枠
  5
482
 10
129.949
 20
-158.177
 30
0.000000
  70
    32
  0
VERTEX
  8
図枠
  5
483
 10
129.981
 20
-158.198
 30
0.000000
  70
    32
  0
VERTEX
  8
図枠
  5
484
 10
130.013
 20
-158.220
 30
0.000000
  70
    32
  0
VERTEX
  8
図枠
  5
485
 10
130.044
 20
-158.241
 30
0.000000
  70
    32
  0
VERTEX
  8
図枠
  5
486
 10
130.076
 20
-158.262
 30
0.000000
  70
    32
  0
VERTEX
  8
図枠
  5
487
 10
130.108
 20
-158.282
 30
0.000000
  70
    32
  0
VERTEX
  8
図枠
  5
488
 10
130.140
 20
-158.303
 30
0.000000
  70
    32
  0
VERTEX
  8
図枠
  5
489
 10
130.172
 20
-158.324
 30
0.000000
  70
    32
  0
VERTEX
  8
図枠
  5
48A
 10
130.204
 20
-158.345
 30
0.000000
  70
    32
  0
VERTEX
  8
図枠
  5
48B
 10
130.236
 20
-158.365
 30
0.000000
  70
    32
  0
VERTEX
  8
図枠
  5
48C
 10
130.268
 20
-158.386
 30
0.000000
  70
    32
  0
VERTEX
  8
図枠
  5
48D
 10
130.300
 20
-158.406
 30
0.000000
  70
    32
  0
VERTEX
  8
図枠
  5
48E
 10
130.333
 20
-158.426
 30
0.000000
  70
    32
  0
VERTEX
  8
図枠
  5
48F
 10
130.365
 20
-158.446
 30
0.000000
  70
    32
  0
VERTEX
  8
図枠
  5
490
 10
130.397
 20
-158.467
 30
0.000000
  70
    32
  0
VERTEX
  8
図枠
  5
491
 10
130.429
 20
-158.487
 30
0.000000
  70
    32
  0
VERTEX
  8
図枠
  5
492
 10
130.462
 20
-158.507
 30
0.000000
  70
    32
  0
VERTEX
  8
図枠
  5
493
 10
130.494
 20
-158.526
 30
0.000000
  70
    32
  0
VERTEX
  8
図枠
  5
494
 10
130.527
 20
-158.546
 30
0.000000
  70
    32
  0
VERTEX
  8
図枠
  5
495
 10
130.559
 20
-158.566
 30
0.000000
  70
    32
  0
VERTEX
  8
図枠
  5
496
 10
130.592
 20
-158.586
 30
0.000000
  70
    32
  0
SEQEND
  8
図枠
  5
497
  0
POLYLINE
  8
図枠
  5
498
  66
     1
 10
0.000000
 20
0.000000
 30
0.000000
  70
     8
  0
VERTEX
  8
図枠
  5
499
 10
131.304
 20
-155.122
 30
0.000000
  70
    32
  0
VERTEX
  8
図枠
  5
49A
 10
131.315
 20
-155.134
 30
0.000000
  70
    32
  0
VERTEX
  8
図枠
  5
49B
 10
131.325
 20
-155.146
 30
0.000000
  70
    32
  0
VERTEX
  8
図枠
  5
49C
 10
131.336
 20
-155.157
 30
0.000000
  70
    32
  0
VERTEX
  8
図枠
  5
49D
 10
131.347
 20
-155.169
 30
0.000000
  70
    32
  0
VERTEX
  8
図枠
  5
49E
 10
131.357
 20
-155.181
 30
0.000000
  70
    32
  0
VERTEX
  8
図枠
  5
49F
 10
131.368
 20
-155.193
 30
0.000000
  70
    32
  0
VERTEX
  8
図枠
  5
4A0
 10
131.378
 20
-155.204
 30
0.000000
  70
    32
  0
VERTEX
  8
図枠
  5
4A1
 10
131.389
 20
-155.216
 30
0.000000
  70
    32
  0
VERTEX
  8
図枠
  5
4A2
 10
131.399
 20
-155.228
 30
0.000000
  70
    32
  0
VERTEX
  8
図枠
  5
4A3
 10
131.410
 20
-155.240
 30
0.000000
  70
    32
  0
VERTEX
  8
図枠
  5
4A4
 10
131.421
 20
-155.252
 30
0.000000
  70
    32
  0
VERTEX
  8
図枠
  5
4A5
 10
131.431
 20
-155.263
 30
0.000000
  70
    32
  0
VERTEX
  8
図枠
  5
4A6
 10
131.442
 20
-155.275
 30
0.000000
  70
    32
  0
VERTEX
  8
図枠
  5
4A7
 10
131.452
 20
-155.287
 30
0.000000
  70
    32
  0
VERTEX
  8
図枠
  5
4A8
 10
131.463
 20
-155.299
 30
0.000000
  70
    32
  0
VERTEX
  8
図枠
  5
4A9
 10
131.473
 20
-155.310
 30
0.000000
  70
    32
  0
VERTEX
  8
図枠
  5
4AA
 10
131.484
 20
-155.322
 30
0.000000
  70
    32
  0
VERTEX
  8
図枠
  5
4AB
 10
131.495
 20
-155.334
 30
0.000000
  70
    32
  0
VERTEX
  8
図枠
  5
4AC
 10
131.505
 20
-155.346
 30
0.000000
  70
    32
  0
VERTEX
  8
図枠
  5
4AD
 10
131.516
 20
-155.357
 30
0.000000
  70
    32
  0
VERTEX
  8
図枠
  5
4AE
 10
131.526
 20
-155.369
 30
0.000000
  70
    32
  0
VERTEX
  8
図枠
  5
4AF
 10
131.537
 20
-155.381
 30
0.000000
  70
    32
  0
VERTEX
  8
図枠
  5
4B0
 10
131.547
 20
-155.392
 30
0.000000
  70
    32
  0
VERTEX
  8
図枠
  5
4B1
 10
131.558
 20
-155.404
 30
0.000000
  70
    32
  0
VERTEX
  8
図枠
  5
4B2
 10
131.569
 20
-155.416
 30
0.000000
  70
    32
  0
VERTEX
  8
図枠
  5
4B3
 10
131.579
 20
-155.428
 30
0.000000
  70
    32
  0
VERTEX
  8
図枠
  5
4B4
 10
131.590
 20
-155.439
 30
0.000000
  70
    32
  0
VERTEX
  8
図枠
  5
4B5
 10
131.600
 20
-155.451
 30
0.000000
  70
    32
  0
VERTEX
  8
図枠
  5
4B6
 10
131.611
 20
-155.463
 30
0.000000
  70
    32
  0
VERTEX
  8
図枠
  5
4B7
 10
131.622
 20
-155.474
 30
0.000000
  70
    32
  0
VERTEX
  8
図枠
  5
4B8
 10
131.632
 20
-155.486
 30
0.000000
  70
    32
  0
VERTEX
  8
図枠
  5
4B9
 10
131.643
 20
-155.498
 30
0.000000
  70
    32
  0
VERTEX
  8
図枠
  5
4BA
 10
131.653
 20
-155.510
 30
0.000000
  70
    32
  0
VERTEX
  8
図枠
  5
4BB
 10
131.664
 20
-155.521
 30
0.000000
  70
    32
  0
VERTEX
  8
図枠
  5
4BC
 10
131.675
 20
-155.533
 30
0.000000
  70
    32
  0
VERTEX
  8
図枠
  5
4BD
 10
131.685
 20
-155.545
 30
0.000000
  70
    32
  0
VERTEX
  8
図枠
  5
4BE
 10
131.696
 20
-155.556
 30
0.000000
  70
    32
  0
VERTEX
  8
図枠
  5
4BF
 10
131.707
 20
-155.568
 30
0.000000
  70
    32
  0
VERTEX
  8
図枠
  5
4C0
 10
131.717
 20
-155.579
 30
0.000000
  70
    32
  0
VERTEX
  8
図枠
  5
4C1
 10
131.728
 20
-155.591
 30
0.000000
  70
    32
  0
VERTEX
  8
図枠
  5
4C2
 10
131.739
 20
-155.603
 30
0.000000
  70
    32
  0
VERTEX
  8
図枠
  5
4C3
 10
131.749
 20
-155.614
 30
0.000000
  70
    32
  0
VERTEX
  8
図枠
  5
4C4
 10
131.760
 20
-155.626
 30
0.000000
  70
    32
  0
VERTEX
  8
図枠
  5
4C5
 10
131.771
 20
-155.638
 30
0.000000
  70
    32
  0
VERTEX
  8
図枠
  5
4C6
 10
131.781
 20
-155.649
 30
0.000000
  70
    32
  0
VERTEX
  8
図枠
  5
4C7
 10
131.792
 20
-155.661
 30
0.000000
  70
    32
  0
VERTEX
  8
図枠
  5
4C8
 10
131.803
 20
-155.672
 30
0.000000
  70
    32
  0
VERTEX
  8
図枠
  5
4C9
 10
131.813
 20
-155.684
 30
0.000000
  70
    32
  0
VERTEX
  8
図枠
  5
4CA
 10
131.824
 20
-155.695
 30
0.000000
  70
    32
  0
VERTEX
  8
図枠
  5
4CB
 10
131.835
 20
-155.707
 30
0.000000
  70
    32
  0
VERTEX
  8
図枠
  5
4CC
 10
131.845
 20
-155.719
 30
0.000000
  70
    32
  0
VERTEX
  8
図枠
  5
4CD
 10
131.856
 20
-155.730
 30
0.000000
  70
    32
  0
VERTEX
  8
図枠
  5
4CE
 10
131.867
 20
-155.742
 30
0.000000
  70
    32
  0
VERTEX
  8
図枠
  5
4CF
 10
131.877
 20
-155.753
 30
0.000000
  70
    32
  0
VERTEX
  8
図枠
  5
4D0
 10
131.888
 20
-155.765
 30
0.000000
  70
    32
  0
VERTEX
  8
図枠
  5
4D1
 10
131.899
 20
-155.776
 30
0.000000
  70
    32
  0
VERTEX
  8
図枠
  5
4D2
 10
131.910
 20
-155.788
 30
0.000000
  70
    32
  0
VERTEX
  8
図枠
  5
4D3
 10
131.920
 20
-155.799
 30
0.000000
  70
    32
  0
VERTEX
  8
図枠
  5
4D4
 10
131.931
 20
-155.811
 30
0.000000
  70
    32
  0
VERTEX
  8
図枠
  5
4D5
 10
131.942
 20
-155.822
 30
0.000000
  70
    32
  0
VERTEX
  8
図枠
  5
4D6
 10
131.953
 20
-155.834
 30
0.000000
  70
    32
  0
VERTEX
  8
図枠
  5
4D7
 10
131.963
 20
-155.845
 30
0.000000
  70
    32
  0
VERTEX
  8
図枠
  5
4D8
 10
131.974
 20
-155.856
 30
0.000000
  70
    32
  0
VERTEX
  8
図枠
  5
4D9
 10
131.985
 20
-155.868
 30
0.000000
  70
    32
  0
VERTEX
  8
図枠
  5
4DA
 10
131.996
 20
-155.879
 30
0.000000
  70
    32
  0
VERTEX
  8
図枠
  5
4DB
 10
132.006
 20
-155.891
 30
0.000000
  70
    32
  0
VERTEX
  8
図枠
  5
4DC
 10
132.017
 20
-155.902
 30
0.000000
  70
    32
  0
VERTEX
  8
図枠
  5
4DD
 10
132.028
 20
-155.913
 30
0.000000
  70
    32
  0
VERTEX
  8
図枠
  5
4DE
 10
132.039
 20
-155.925
 30
0.000000
  70
    32
  0
VERTEX
  8
図枠
  5
4DF
 10
132.050
 20
-155.936
 30
0.000000
  70
    32
  0
VERTEX
  8
図枠
  5
4E0
 10
132.061
 20
-155.947
 30
0.000000
  70
    32
  0
VERTEX
  8
図枠
  5
4E1
 10
132.071
 20
-155.959
 30
0.000000
  70
    32
  0
VERTEX
  8
図枠
  5
4E2
 10
132.082
 20
-155.970
 30
0.000000
  70
    32
  0
VERTEX
  8
図枠
  5
4E3
 10
132.093
 20
-155.981
 30
0.000000
  70
    32
  0
VERTEX
  8
図枠
  5
4E4
 10
132.104
 20
-155.993
 30
0.000000
  70
    32
  0
VERTEX
  8
図枠
  5
4E5
 10
132.115
 20
-156.004
 30
0.000000
  70
    32
  0
VERTEX
  8
図枠
  5
4E6
 10
132.126
 20
-156.015
 30
0.000000
  70
    32
  0
VERTEX
  8
図枠
  5
4E7
 10
132.137
 20
-156.026
 30
0.000000
  70
    32
  0
VERTEX
  8
図枠
  5
4E8
 10
132.147
 20
-156.038
 30
0.000000
  70
    32
  0
VERTEX
  8
図枠
  5
4E9
 10
132.158
 20
-156.049
 30
0.000000
  70
    32
  0
VERTEX
  8
図枠
  5
4EA
 10
132.169
 20
-156.060
 30
0.000000
  70
    32
  0
VERTEX
  8
図枠
  5
4EB
 10
132.180
 20
-156.071
 30
0.000000
  70
    32
  0
VERTEX
  8
図枠
  5
4EC
 10
132.191
 20
-156.082
 30
0.000000
  70
    32
  0
VERTEX
  8
図枠
  5
4ED
 10
132.202
 20
-156.094
 30
0.000000
  70
    32
  0
VERTEX
  8
図枠
  5
4EE
 10
132.213
 20
-156.105
 30
0.000000
  70
    32
  0
VERTEX
  8
図枠
  5
4EF
 10
132.224
 20
-156.116
 30
0.000000
  70
    32
  0
VERTEX
  8
図枠
  5
4F0
 10
132.235
 20
-156.127
 30
0.000000
  70
    32
  0
VERTEX
  8
図枠
  5
4F1
 10
132.246
 20
-156.138
 30
0.000000
  70
    32
  0
VERTEX
  8
図枠
  5
4F2
 10
132.257
 20
-156.149
 30
0.000000
  70
    32
  0
VERTEX
  8
図枠
  5
4F3
 10
132.268
 20
-156.160
 30
0.000000
  70
    32
  0
VERTEX
  8
図枠
  5
4F4
 10
132.279
 20
-156.171
 30
0.000000
  70
    32
  0
VERTEX
  8
図枠
  5
4F5
 10
132.290
 20
-156.182
 30
0.000000
  70
    32
  0
VERTEX
  8
図枠
  5
4F6
 10
132.301
 20
-156.193
 30
0.000000
  70
    32
  0
VERTEX
  8
図枠
  5
4F7
 10
132.312
 20
-156.204
 30
0.000000
  70
    32
  0
VERTEX
  8
図枠
  5
4F8
 10
132.323
 20
-156.215
 30
0.000000
  70
    32
  0
VERTEX
  8
図枠
  5
4F9
 10
132.334
 20
-156.226
 30
0.000000
  70
    32
  0
VERTEX
  8
図枠
  5
4FA
 10
132.345
 20
-156.237
 30
0.000000
  70
    32
  0
VERTEX
  8
図枠
  5
4FB
 10
132.356
 20
-156.248
 30
0.000000
  70
    32
  0
VERTEX
  8
図枠
  5
4FC
 10
132.367
 20
-156.259
 30
0.000000
  70
    32
  0
VERTEX
  8
図枠
  5
4FD
 10
132.378
 20
-156.270
 30
0.000000
  70
    32
  0
VERTEX
  8
図枠
  5
4FE
 10
132.390
 20
-156.281
 30
0.000000
  70
    32
  0
VERTEX
  8
図枠
  5
4FF
 10
132.401
 20
-156.292
 30
0.000000
  70
    32
  0
VERTEX
  8
図枠
  5
500
 10
132.412
 20
-156.303
 30
0.000000
  70
    32
  0
VERTEX
  8
図枠
  5
501
 10
132.423
 20
-156.314
 30
0.000000
  70
    32
  0
VERTEX
  8
図枠
  5
502
 10
132.434
 20
-156.324
 30
0.000000
  70
    32
  0
VERTEX
  8
図枠
  5
503
 10
132.445
 20
-156.335
 30
0.000000
  70
    32
  0
VERTEX
  8
図枠
  5
504
 10
132.456
 20
-156.346
 30
0.000000
  70
    32
  0
VERTEX
  8
図枠
  5
505
 10
132.468
 20
-156.357
 30
0.000000
  70
    32
  0
VERTEX
  8
図枠
  5
506
 10
132.479
 20
-156.367
 30
0.000000
  70
    32
  0
VERTEX
  8
図枠
  5
507
 10
132.490
 20
-156.378
 30
0.000000
  70
    32
  0
VERTEX
  8
図枠
  5
508
 10
132.501
 20
-156.389
 30
0.000000
  70
    32
  0
VERTEX
  8
図枠
  5
509
 10
132.513
 20
-156.400
 30
0.000000
  70
    32
  0
VERTEX
  8
図枠
  5
50A
 10
132.524
 20
-156.410
 30
0.000000
  70
    32
  0
VERTEX
  8
図枠
  5
50B
 10
132.535
 20
-156.421
 30
0.000000
  70
    32
  0
VERTEX
  8
図枠
  5
50C
 10
132.546
 20
-156.431
 30
0.000000
  70
    32
  0
VERTEX
  8
図枠
  5
50D
 10
132.558
 20
-156.442
 30
0.000000
  70
    32
  0
VERTEX
  8
図枠
  5
50E
 10
132.569
 20
-156.453
 30
0.000000
  70
    32
  0
VERTEX
  8
図枠
  5
50F
 10
132.580
 20
-156.463
 30
0.000000
  70
    32
  0
VERTEX
  8
図枠
  5
510
 10
132.592
 20
-156.474
 30
0.000000
  70
    32
  0
VERTEX
  8
図枠
  5
511
 10
132.603
 20
-156.484
 30
0.000000
  70
    32
  0
VERTEX
  8
図枠
  5
512
 10
132.614
 20
-156.495
 30
0.000000
  70
    32
  0
VERTEX
  8
図枠
  5
513
 10
132.626
 20
-156.505
 30
0.000000
  70
    32
  0
VERTEX
  8
図枠
  5
514
 10
132.637
 20
-156.516
 30
0.000000
  70
    32
  0
VERTEX
  8
図枠
  5
515
 10
132.648
 20
-156.526
 30
0.000000
  70
    32
  0
VERTEX
  8
図枠
  5
516
 10
132.660
 20
-156.537
 30
0.000000
  70
    32
  0
VERTEX
  8
図枠
  5
517
 10
132.671
 20
-156.547
 30
0.000000
  70
    32
  0
VERTEX
  8
図枠
  5
518
 10
132.683
 20
-156.557
 30
0.000000
  70
    32
  0
SEQEND
  8
図枠
  5
519
  0
LINE
  5
60
  8
図枠
 10
125.8094544632
 20
-153.38157104640001
 30
0.0
 11
133.80945446320001
 21
-153.38157104640001
 31
0.0
  0
LINE
  5
61
  8
図枠
 10
125.8094544632
 20
-154.2169474744
 30
0.0
 11
132.20945446319999
 21
-154.2169474744
 31
0.0
  0
ARC
  5
62
  8
図枠
 10
129.80945446320001
 20
-152.90157104639999
 30
0.0
 40
8.8000000000000007
 50
270.0
 51
302.54495885400001
  0
LINE
  5
63
  8
図枠
 10
132.20945446319999
 20
-154.2169474744
 30
0.0
 11
131.30435778329999
 21
-155.1220441543
 31
0.0
  0
CIRCLE
  5
64
  8
図枠
 10
137.68608203420001
 20
-122.25784779350001
 30
0.0
 40
4.6079999999999997
  0
LINE
  5
65
  8
図枠
 10
140.20945446319999
 20
-150.50157104639999
 30
0.0
 11
125.8094544632
 21
-150.50157104639999
 31
0.0
  0
POLYLINE
  8
図枠
  5
51A
  66
     1
 10
0.000000
 20
0.000000
 30
0.000000
  70
     8
  0
VERTEX
  8
図枠
  5
51B
 10
134.544
 20
-160.320
 30
0.000000
  70
    32
  0
VERTEX
  8
図枠
  5
51C
 10
134.587
 20
-160.333
 30
0.000000
  70
    32
  0
VERTEX
  8
図枠
  5
51D
 10
134.630
 20
-160.347
 30
0.000000
  70
    32
  0
VERTEX
  8
図枠
  5
51E
 10
134.673
 20
-160.361
 30
0.000000
  70
    32
  0
VERTEX
  8
図枠
  5
51F
 10
134.716
 20
-160.374
 30
0.000000
  70
    32
  0
VERTEX
  8
図枠
  5
520
 10
134.759
 20
-160.388
 30
0.000000
  70
    32
  0
VERTEX
  8
図枠
  5
521
 10
134.802
 20
-160.401
 30
0.000000
  70
    32
  0
VERTEX
  8
図枠
  5
522
 10
134.846
 20
-160.414
 30
0.000000
  70
    32
  0
VERTEX
  8
図枠
  5
523
 10
134.889
 20
-160.428
 30
0.000000
  70
    32
  0
VERTEX
  8
図枠
  5
524
 10
134.932
 20
-160.441
 30
0.000000
  70
    32
  0
VERTEX
  8
図枠
  5
525
 10
134.976
 20
-160.454
 30
0.000000
  70
    32
  0
VERTEX
  8
図枠
  5
526
 10
135.019
 20
-160.467
 30
0.000000
  70
    32
  0
VERTEX
  8
図枠
  5
527
 10
135.063
 20
-160.480
 30
0.000000
  70
    32
  0
VERTEX
  8
図枠
  5
528
 10
135.106
 20
-160.493
 30
0.000000
  70
    32
  0
VERTEX
  8
図枠
  5
529
 10
135.150
 20
-160.506
 30
0.000000
  70
    32
  0
VERTEX
  8
図枠
  5
52A
 10
135.193
 20
-160.519
 30
0.000000
  70
    32
  0
VERTEX
  8
図枠
  5
52B
 10
135.237
 20
-160.532
 30
0.000000
  70
    32
  0
VERTEX
  8
図枠
  5
52C
 10
135.280
 20
-160.544
 30
0.000000
  70
    32
  0
VERTEX
  8
図枠
  5
52D
 10
135.324
 20
-160.557
 30
0.000000
  70
    32
  0
VERTEX
  8
図枠
  5
52E
 10
135.368
 20
-160.570
 30
0.000000
  70
    32
  0
VERTEX
  8
図枠
  5
52F
 10
135.412
 20
-160.582
 30
0.000000
  70
    32
  0
VERTEX
  8
図枠
  5
530
 10
135.455
 20
-160.595
 30
0.000000
  70
    32
  0
VERTEX
  8
図枠
  5
531
 10
135.499
 20
-160.607
 30
0.000000
  70
    32
  0
VERTEX
  8
図枠
  5
532
 10
135.543
 20
-160.619
 30
0.000000
  70
    32
  0
VERTEX
  8
図枠
  5
533
 10
135.587
 20
-160.632
 30
0.000000
  70
    32
  0
VERTEX
  8
図枠
  5
534
 10
135.631
 20
-160.644
 30
0.000000
  70
    32
  0
VERTEX
  8
図枠
  5
535
 10
135.674
 20
-160.656
 30
0.000000
  70
    32
  0
VERTEX
  8
図枠
  5
536
 10
135.718
 20
-160.668
 30
0.000000
  70
    32
  0
VERTEX
  8
図枠
  5
537
 10
135.762
 20
-160.680
 30
0.000000
  70
    32
  0
VERTEX
  8
図枠
  5
538
 10
135.806
 20
-160.692
 30
0.000000
  70
    32
  0
VERTEX
  8
図枠
  5
539
 10
135.850
 20
-160.704
 30
0.000000
  70
    32
  0
VERTEX
  8
図枠
  5
53A
 10
135.894
 20
-160.716
 30
0.000000
  70
    32
  0
VERTEX
  8
図枠
  5
53B
 10
135.938
 20
-160.728
 30
0.000000
  70
    32
  0
VERTEX
  8
図枠
  5
53C
 10
135.983
 20
-160.740
 30
0.000000
  70
    32
  0
VERTEX
  8
図枠
  5
53D
 10
136.027
 20
-160.752
 30
0.000000
  70
    32
  0
VERTEX
  8
図枠
  5
53E
 10
136.071
 20
-160.764
 30
0.000000
  70
    32
  0
VERTEX
  8
図枠
  5
53F
 10
136.115
 20
-160.775
 30
0.000000
  70
    32
  0
VERTEX
  8
図枠
  5
540
 10
136.159
 20
-160.787
 30
0.000000
  70
    32
  0
VERTEX
  8
図枠
  5
541
 10
136.203
 20
-160.799
 30
0.000000
  70
    32
  0
VERTEX
  8
図枠
  5
542
 10
136.248
 20
-160.810
 30
0.000000
  70
    32
  0
VERTEX
  8
図枠
  5
543
 10
136.292
 20
-160.822
 30
0.000000
  70
    32
  0
VERTEX
  8
図枠
  5
544
 10
136.336
 20
-160.833
 30
0.000000
  70
    32
  0
VERTEX
  8
図枠
  5
545
 10
136.381
 20
-160.844
 30
0.000000
  70
    32
  0
VERTEX
  8
図枠
  5
546
 10
136.425
 20
-160.856
 30
0.000000
  70
    32
  0
VERTEX
  8
図枠
  5
547
 10
136.469
 20
-160.867
 30
0.000000
  70
    32
  0
VERTEX
  8
図枠
  5
548
 10
136.514
 20
-160.878
 30
0.000000
  70
    32
  0
VERTEX
  8
図枠
  5
549
 10
136.558
 20
-160.890
 30
0.000000
  70
    32
  0
VERTEX
  8
図枠
  5
54A
 10
136.603
 20
-160.901
 30
0.000000
  70
    32
  0
VERTEX
  8
図枠
  5
54B
 10
136.647
 20
-160.912
 30
0.000000
  70
    32
  0
VERTEX
  8
図枠
  5
54C
 10
136.692
 20
-160.923
 30
0.000000
  70
    32
  0
VERTEX
  8
図枠
  5
54D
 10
136.736
 20
-160.934
 30
0.000000
  70
    32
  0
VERTEX
  8
図枠
  5
54E
 10
136.781
 20
-160.945
 30
0.000000
  70
    32
  0
VERTEX
  8
図枠
  5
54F
 10
136.825
 20
-160.956
 30
0.000000
  70
    32
  0
VERTEX
  8
図枠
  5
550
 10
136.870
 20
-160.967
 30
0.000000
  70
    32
  0
VERTEX
  8
図枠
  5
551
 10
136.914
 20
-160.978
 30
0.000000
  70
    32
  0
VERTEX
  8
図枠
  5
552
 10
136.959
 20
-160.989
 30
0.000000
  70
    32
  0
VERTEX
  8
図枠
  5
553
 10
137.004
 20
-161.000
 30
0.000000
  70
    32
  0
VERTEX
  8
図枠
  5
554
 10
137.048
 20
-161.010
 30
0.000000
  70
    32
  0
VERTEX
  8
図枠
  5
555
 10
137.093
 20
-161.021
 30
0.000000
  70
    32
  0
VERTEX
  8
図枠
  5
556
 10
137.138
 20
-161.032
 30
0.000000
  70
    32
  0
VERTEX
  8
図枠
  5
557
 10
137.183
 20
-161.042
 30
0.000000
  70
    32
  0
VERTEX
  8
図枠
  5
558
 10
137.227
 20
-161.053
 30
0.000000
  70
    32
  0
VERTEX
  8
図枠
  5
559
 10
137.272
 20
-161.064
 30
0.000000
  70
    32
  0
VERTEX
  8
図枠
  5
55A
 10
137.317
 20
-161.074
 30
0.000000
  70
    32
  0
VERTEX
  8
図枠
  5
55B
 10
137.362
 20
-161.085
 30
0.000000
  70
    32
  0
VERTEX
  8
図枠
  5
55C
 10
137.407
 20
-161.095
 30
0.000000
  70
    32
  0
VERTEX
  8
図枠
  5
55D
 10
137.451
 20
-161.106
 30
0.000000
  70
    32
  0
VERTEX
  8
図枠
  5
55E
 10
137.496
 20
-161.116
 30
0.000000
  70
    32
  0
VERTEX
  8
図枠
  5
55F
 10
137.541
 20
-161.126
 30
0.000000
  70
    32
  0
VERTEX
  8
図枠
  5
560
 10
137.586
 20
-161.137
 30
0.000000
  70
    32
  0
VERTEX
  8
図枠
  5
561
 10
137.631
 20
-161.147
 30
0.000000
  70
    32
  0
VERTEX
  8
図枠
  5
562
 10
137.676
 20
-161.157
 30
0.000000
  70
    32
  0
VERTEX
  8
図枠
  5
563
 10
137.721
 20
-161.168
 30
0.000000
  70
    32
  0
VERTEX
  8
図枠
  5
564
 10
137.766
 20
-161.178
 30
0.000000
  70
    32
  0
VERTEX
  8
図枠
  5
565
 10
137.811
 20
-161.188
 30
0.000000
  70
    32
  0
VERTEX
  8
図枠
  5
566
 10
137.856
 20
-161.198
 30
0.000000
  70
    32
  0
VERTEX
  8
図枠
  5
567
 10
137.901
 20
-161.208
 30
0.000000
  70
    32
  0
VERTEX
  8
図枠
  5
568
 10
137.946
 20
-161.219
 30
0.000000
  70
    32
  0
VERTEX
  8
図枠
  5
569
 10
137.991
 20
-161.229
 30
0.000000
  70
    32
  0
VERTEX
  8
図枠
  5
56A
 10
138.036
 20
-161.239
 30
0.000000
  70
    32
  0
VERTEX
  8
図枠
  5
56B
 10
138.081
 20
-161.249
 30
0.000000
  70
    32
  0
VERTEX
  8
図枠
  5
56C
 10
138.126
 20
-161.259
 30
0.000000
  70
    32
  0
VERTEX
  8
図枠
  5
56D
 10
138.171
 20
-161.269
 30
0.000000
  70
    32
  0
VERTEX
  8
図枠
  5
56E
 10
138.216
 20
-161.279
 30
0.000000
  70
    32
  0
VERTEX
  8
図枠
  5
56F
 10
138.261
 20
-161.289
 30
0.000000
  70
    32
  0
VERTEX
  8
図枠
  5
570
 10
138.306
 20
-161.299
 30
0.000000
  70
    32
  0
VERTEX
  8
図枠
  5
571
 10
138.352
 20
-161.308
 30
0.000000
  70
    32
  0
VERTEX
  8
図枠
  5
572
 10
138.397
 20
-161.318
 30
0.000000
  70
    32
  0
VERTEX
  8
図枠
  5
573
 10
138.442
 20
-161.328
 30
0.000000
  70
    32
  0
VERTEX
  8
図枠
  5
574
 10
138.487
 20
-161.338
 30
0.000000
  70
    32
  0
VERTEX
  8
図枠
  5
575
 10
138.532
 20
-161.348
 30
0.000000
  70
    32
  0
VERTEX
  8
図枠
  5
576
 10
138.578
 20
-161.358
 30
0.000000
  70
    32
  0
VERTEX
  8
図枠
  5
577
 10
138.623
 20
-161.367
 30
0.000000
  70
    32
  0
VERTEX
  8
図枠
  5
578
 10
138.668
 20
-161.377
 30
0.000000
  70
    32
  0
VERTEX
  8
図枠
  5
579
 10
138.713
 20
-161.387
 30
0.000000
  70
    32
  0
VERTEX
  8
図枠
  5
57A
 10
138.758
 20
-161.397
 30
0.000000
  70
    32
  0
VERTEX
  8
図枠
  5
57B
 10
138.804
 20
-161.406
 30
0.000000
  70
    32
  0
VERTEX
  8
図枠
  5
57C
 10
138.849
 20
-161.416
 30
0.000000
  70
    32
  0
VERTEX
  8
図枠
  5
57D
 10
138.894
 20
-161.426
 30
0.000000
  70
    32
  0
VERTEX
  8
図枠
  5
57E
 10
138.939
 20
-161.435
 30
0.000000
  70
    32
  0
VERTEX
  8
図枠
  5
57F
 10
138.985
 20
-161.445
 30
0.000000
  70
    32
  0
VERTEX
  8
図枠
  5
580
 10
139.030
 20
-161.455
 30
0.000000
  70
    32
  0
VERTEX
  8
図枠
  5
581
 10
139.075
 20
-161.464
 30
0.000000
  70
    32
  0
VERTEX
  8
図枠
  5
582
 10
139.121
 20
-161.474
 30
0.000000
  70
    32
  0
VERTEX
  8
図枠
  5
583
 10
139.166
 20
-161.483
 30
0.000000
  70
    32
  0
VERTEX
  8
図枠
  5
584
 10
139.211
 20
-161.493
 30
0.000000
  70
    32
  0
VERTEX
  8
図枠
  5
585
 10
139.257
 20
-161.503
 30
0.000000
  70
    32
  0
VERTEX
  8
図枠
  5
586
 10
139.302
 20
-161.512
 30
0.000000
  70
    32
  0
VERTEX
  8
図枠
  5
587
 10
139.347
 20
-161.522
 30
0.000000
  70
    32
  0
VERTEX
  8
図枠
  5
588
 10
139.393
 20
-161.531
 30
0.000000
  70
    32
  0
VERTEX
  8
図枠
  5
589
 10
139.438
 20
-161.541
 30
0.000000
  70
    32
  0
VERTEX
  8
図枠
  5
58A
 10
139.483
 20
-161.550
 30
0.000000
  70
    32
  0
VERTEX
  8
図枠
  5
58B
 10
139.529
 20
-161.560
 30
0.000000
  70
    32
  0
VERTEX
  8
図枠
  5
58C
 10
139.574
 20
-161.569
 30
0.000000
  70
    32
  0
VERTEX
  8
図枠
  5
58D
 10
139.619
 20
-161.579
 30
0.000000
  70
    32
  0
VERTEX
  8
図枠
  5
58E
 10
139.665
 20
-161.588
 30
0.000000
  70
    32
  0
VERTEX
  8
図枠
  5
58F
 10
139.710
 20
-161.598
 30
0.000000
  70
    32
  0
VERTEX
  8
図枠
  5
590
 10
139.756
 20
-161.607
 30
0.000000
  70
    32
  0
VERTEX
  8
図枠
  5
591
 10
139.801
 20
-161.617
 30
0.000000
  70
    32
  0
VERTEX
  8
図枠
  5
592
 10
139.846
 20
-161.626
 30
0.000000
  70
    32
  0
VERTEX
  8
図枠
  5
593
 10
139.892
 20
-161.635
 30
0.000000
  70
    32
  0
VERTEX
  8
図枠
  5
594
 10
139.937
 20
-161.645
 30
0.000000
  70
    32
  0
VERTEX
  8
図枠
  5
595
 10
139.982
 20
-161.654
 30
0.000000
  70
    32
  0
VERTEX
  8
図枠
  5
596
 10
140.028
 20
-161.664
 30
0.000000
  70
    32
  0
VERTEX
  8
図枠
  5
597
 10
140.073
 20
-161.673
 30
0.000000
  70
    32
  0
VERTEX
  8
図枠
  5
598
 10
140.119
 20
-161.683
 30
0.000000
  70
    32
  0
VERTEX
  8
図枠
  5
599
 10
140.164
 20
-161.692
 30
0.000000
  70
    32
  0
VERTEX
  8
図枠
  5
59A
 10
140.209
 20
-161.702
 30
0.000000
  70
    32
  0
SEQEND
  8
図枠
  5
59B
  0
ARC
  5
67
  8
図枠
 10
127.7294544632
 20
-153.22157104639999
 30
0.0
 40
6.0800000000000001
 50
331.39928138329998
 51
358.49204224580001
  0
LINE
  5
68
  8
図枠
 10
133.0675544499
 20
-156.13208449460001
 30
0.0
 11
132.68260115979999
 21
-156.55726587149999
 31
0.0
  0
DIMENSION
  5
79
  8
寸法線
  2
*D0
 10
85.476660156299985
 20
100.4287109375
 30
0.0
 11
95.476660156299985
 21
100.4287109375
 31
0.0
 70
   128
  1
<>
 13
85.476660156299985
 23
125.4287109375
 33
0.0
 14
105.4766601563
 24
115.4287109375
 34
0.0
 50
180.0
  0
DIMENSION
  5
88
  8
寸法線
  2
*D1
 10
70.476660156299985
 20
100.4287109375
 30
0.0
 11
77.976660156299985
 21
100.4287109375
 31
0.0
 70
   128
  1
<>
 13
70.476660156299985
 23
115.4287109375
 33
0.0
 14
85.476660156299985
 24
125.4287109375
 34
0.0
 50
180.0
  0
DIMENSION
  5
90
  8
寸法線
  2
*D2
 10
93.476660156299985
 20
130.4287109375
 30
0.0
 11
5.7493355803999986
 21
148.83074520900001
 31
0.0
 70
   132
  1
<>
 15
61.601107888699993
 25
138.9697394259
 35
0.0
 40
0.0
  0
DIMENSION
  5
9F
  8
寸法線
  2
*D3
 10
60.476660156299992
 20
100.4287109375
 30
0.0
 11
65.476660156299985
 21
100.4287109375
 31
0.0
 70
   128
  1
<>
 13
60.476660156299992
 23
130.4287109375
 33
0.0
 14
70.476660156299985
 24
115.4287109375
 34
0.0
 50
180.0
  0
LINE
  5
A0
  8
ﾚｲﾔ_10
  6
BORDER
 62
     3
 10
70.476660156299985
 20
144.4287109375
 30
0.0
 11
70.476660156299985
 21
134.4287109375
 31
0.0
  0
LINE
  5
A1
  8
ﾚｲﾔ_10
  6
BORDER
 62
     3
 10
99.045631510400014
 20
130.4287109375
 30
0.0
 11
109.26610770089999
 21
130.4287109375
 31
0.0
  0
LINE
  5
A2
  8
ﾚｲﾔ_10
  6
STITCH
 10
102.4766601563
 20
125.1787109375
 30
0.0
 11
104.12666015630001
 21
123.52871093749999
 31
0.0
  0
LINE
  5
A3
  8
ﾚｲﾔ_10
  6
STITCH
 10
104.12666015630001
 20
123.52871093749999
 30
0.0
 11
104.12666015630001
 21
119.32871093750001
 31
0.0
  0
LINE
  5
A4
  8
ﾚｲﾔ_10
  6
STITCH
 10
102.4766601563
 20
134.1787109375
 30
0.0
 11
104.12666015630001
 21
132.52871093749999
 31
0.0
  0
LINE
  5
A5
  8
ﾚｲﾔ_10
  6
STITCH
 10
102.4766601563
 20
126.6787109375
 30
0.0
 11
104.12666015630001
 21
128.32871093750001
 31
0.0
  0
LINE
  5
A6
  8
ﾚｲﾔ_10
  6
STITCH
 10
102.4766601563
 20
135.6787109375
 30
0.0
 11
104.12666015630001
 21
137.32871093750001
 31
0.0
  0
LINE
  5
A7
  8
ﾚｲﾔ_10
  6
BORDER
 62
     3
 10
99.045631510400014
 20
121.4287109375
 30
0.0
 11
109.26610770089999
 21
121.4287109375
 31
0.0
  0
LINE
  5
A8
  8
ﾚｲﾔ_10
  6
STITCH
 10
104.12666015630001
 20
137.32871093750001
 30
0.0
 11
105.4766601563
 21
137.32871093750001
 31
0.0
  0
LINE
  5
A9
  8
図枠
 10
125.8094544632
 20
-154.7323239024
 30
0.0
 11
125.8094544632
 21
-154.2169474744
 31
0.0
  0
LINE
  5
AA
  8
図枠
 10
85.558082034199984
 20
-113.75784779350001
 30
0.0
 11
85.558082034199984
 21
-130.75784779349999
 31
0.0
  0
LINE
  5
AB
  8
図枠
 10
111.9524847662
 20
-153.70157104640001
 30
0.0
 11
111.9524847662
 21
-152.90157104639999
 31
0.0
  0
LINE
  5
AC
  8
図枠
 10
121.5524847662
 20
-150.50157104639999
 30
0.0
 11
115.1524847662
 21
-150.50157104639999
 31
0.0
  0
LINE
  5
AD
  8
図枠
 10
45.558082034199991
 20
-113.75784779350001
 30
0.0
 11
45.558082034199991
 21
-164.75784779349999
 31
0.0
  0
LINE
  5
AE
  8
図枠
 10
107.9524847662
 20
-150.50157104639999
 30
0.0
 11
107.9524847662
 21
-153.70157104640001
 31
0.0
  0
LINE
  5
AF
  8
図枠
 10
107.9524847662
 20
-156.10157104640001
 30
0.0
 11
107.9524847662
 21
-158.50157104639999
 31
0.0
  0
INSERT
  5
B0
  8
0
  6
CONTINUOUS
  2
*U34
 10
0.0
 20
0.0
 30
0.0
  0
LINE
  5
B1
  8
図枠
 10
119.1524847662
 20
-156.90157104639999
 30
0.0
 11
119.1524847662
 21
-156.10157104640001
 31
0.0
  0
LINE
  5
B2
  8
図枠
  6
BORDER
 10
130.77408203420001
 20
-122.25784779350001
 30
0.0
 11
160.34208203419999
 21
-122.25784779350001
 31
0.0
  0
INSERT
  5
B3
  8
0
  6
CONTINUOUS
  2
*U35
 10
0.0
 20
0.0
 30
0.0
  0
LINE
  5
B4
  8
図枠
 10
45.558082034199991
 20
-130.75784779349999
 30
0.0
 11
277.55808203420003
 21
-130.75784779349999
 31
0.0
  0
LINE
  5
B5
  8
図枠
 10
45.558082034199991
 20
-147.75784779349999
 30
0.0
 11
277.55808203420003
 21
-147.75784779349999
 31
0.0
  0
LINE
  5
B6
  8
図枠
 10
45.558082034199991
 20
-113.75784779350001
 30
0.0
 11
277.55808203420003
 21
-113.75784779350001
 31
0.0
  0
LINE
  5
B7
  8
図枠
 10
45.558082034199991
 20
-91.757847793500005
 30
0.0
 11
277.55808203420003
 21
-91.757847793500005
 31
0.0
  0
INSERT
  5
B8
  8
0
  6
CONTINUOUS
  2
*U36
 10
0.0
 20
0.0
 30
0.0
  0
INSERT
  5
B9
  8
0
  6
CONTINUOUS
  2
*U37
 10
0.0
 20
0.0
 30
0.0
  0
LINE
  5
BA
  8
図枠
 10
45.558082034199991
 20
-80.757847793500005
 30
0.0
 11
277.55808203420003
 21
-80.757847793500005
 31
0.0
  0
INSERT
  5
BB
  8
0
  6
CONTINUOUS
  2
*U38
 10
0.0
 20
0.0
 30
0.0
  0
LINE
  5
BC
  8
図枠
 10
109.5580820342
 20
-139.25784779349999
 30
0.0
 11
161.5580820342
 21
-139.25784779349999
 31
0.0
  0
LINE
  5
BD
  8
図枠
 10
45.558082034199991
 20
-102.75784779350001
 30
0.0
 11
277.55808203420003
 21
-102.75784779350001
 31
0.0
  0
CIRCLE
  5
BE
  8
図枠
 10
137.68608203420001
 20
-122.25784779350001
 30
0.0
 40
4.6079999999999997
  0
CIRCLE
  5
BF
  8
図枠
 10
137.68608203420001
 20
-122.25784779350001
 30
0.0
 40
4.6079999999999997
  0
CIRCLE
  5
C0
  8
図枠
 10
137.68608203420001
 20
-122.25784779350001
 30
0.0
 40
4.6079999999999997
  0
ARC
  5
C1
  8
図枠
 10
127.7294544632
 20
-153.22157104639999
 30
0.0
 40
6.0800000000000001
 50
270.0
 51
298.08590481520002
  0
LINE
  5
C2
  8
図枠
 10
115.1524847662
 20
-150.50157104639999
 30
0.0
 11
115.1524847662
 21
-153.70157104640001
 31
0.0
  0
LINE
  5
C3
  8
図枠
 10
112.7524847662
 20
-159.3015710464
 30
0.0
 11
107.9524847662
 21
-159.3015710464
 31
0.0
  0
INSERT
  5
C4
  8
0
  6
CONTINUOUS
  2
*U39
 10
0.0
 20
0.0
 30
0.0
  0
INSERT
  5
C5
  8
0
  6
CONTINUOUS
  2
*U40
 10
0.0
 20
0.0
 30
0.0
  0
LINE
  5
C6
  8
図枠
 10
111.9524847662
 20
-158.50157104639999
 30
0.0
 11
111.9524847662
 21
-156.10157104640001
 31
0.0
  0
LINE
  5
C7
  8
図枠
 10
114.35248476620001
 20
-150.50157104639999
 30
0.0
 11
107.9524847662
 21
-150.50157104639999
 31
0.0
  0
INSERT
  5
C8
  8
0
  6
CONTINUOUS
  2
*U41
 10
0.0
 20
0.0
 30
0.0
  0
LINE
  5
C9
  8
図枠
 10
119.1524847662
 20
-156.10157104640001
 30
0.0
 11
121.5524847662
 21
-156.10157104640001
 31
0.0
  0
LINE
  5
CA
  8
図枠
 10
107.9524847662
 20
-153.70157104640001
 30
0.0
 11
106.1107186677
 21
-153.70157104640001
 31
0.0
  0
INSERT
  5
CB
  8
0
  6
CONTINUOUS
  2
*U42
 10
0.0
 20
0.0
 30
0.0
  0
LINE
  5
CC
  8
図枠
 10
105.5580820342
 20
-130.75784779349999
 30
0.0
 11
105.5580820342
 21
-147.75784779349999
 31
0.0
  0
LINE
  5
CD
  8
図枠
 10
107.9524847662
 20
-156.10157104640001
 30
0.0
 11
107.71071866769999
 21
-156.10157104640001
 31
0.0
  0
LINE
  5
CE
  8
図枠
 10
119.1524847662
 20
-153.70157104640001
 30
0.0
 11
119.1524847662
 21
-152.90157104639999
 31
0.0
  0
LINE
  5
CF
  8
図枠
 10
125.8094544632
 20
-150.50157104639999
 30
0.0
 11
125.8094544632
 21
-153.38157104640001
 31
0.0
  0
ARC
  5
D0
  8
図枠
 10
112.7524847662
 20
-156.90157104639999
 30
0.0
 40
2.399999999999999
 50
270.0
 51
0.0
  0
LINE
  5
D1
  8
図枠
 10
45.558082034199991
 20
-80.757847793500005
 30
0.0
 11
45.558082034199991
 21
-113.75784779350001
 31
0.0
  0
LINE
  5
D2
  8
図枠
 10
107.9524847662
 20
-158.50157104639999
 30
0.0
 11
111.9524847662
 21
-158.50157104639999
 31
0.0
  0
LINE
  5
D3
  8
図枠
 10
121.5524847662
 20
-153.70157104640001
 30
0.0
 11
119.1524847662
 21
-153.70157104640001
 31
0.0
  0
LINE
  5
D4
  8
図枠
 10
49.558082034199998
 20
-122.25784779350001
 30
0.0
 11
81.558082034199984
 21
-122.25784779350001
 31
0.0
  0
INSERT
  5
D5
  8
0
  6
CONTINUOUS
  2
*U43
 10
0.0
 20
0.0
 30
0.0
  0
LINE
  5
D6
  8
図枠
 10
115.1524847662
 20
-153.70157104640001
 30
0.0
 11
111.9524847662
 21
-153.70157104640001
 31
0.0
  0
LINE
  5
D7
  8
図枠
 10
107.9524847662
 20
-159.3015710464
 30
0.0
 11
107.9524847662
 21
-161.70157104640001
 31
0.0
  0
ARC
  5
D8
  8
図枠
 10
114.35248476620001
 20
-156.90157104639999
 30
0.0
 40
4.7999999999999989
 50
270.0
 51
0.0
  0
INSERT
  5
D9
  8
0
  6
CONTINUOUS
  2
*U44
 10
0.0
 20
0.0
 30
0.0
  0
LINE
  5
DA
  8
図枠
 10
89.558082034199998
 20
-122.25784779350001
 30
0.0
 11
117.5580820342
 21
-122.25784779350001
 31
0.0
  0
LINE
  5
DB
  8
図枠
 10
146.95742670050001
 20
-150.50157104639999
 30
0.0
 11
153.35742670050001
 21
-150.50157104639999
 31
0.0
  0
LINE
  5
DC
  8
図枠
 10
154.95742670050001
 20
-162.50157104639999
 30
0.0
 11
154.31283362420001
 21
-160.26157104640001
 31
0.0
  0
INSERT
  5
DD
  8
0
  6
CONTINUOUS
  2
*U45
 10
0.0
 20
0.0
 30
0.0
  0
LINE
  5
DE
  8
図枠
 10
125.8094544632
 20
-159.3015710464
 30
0.0
 11
127.7294544632
 21
-159.3015710464
 31
0.0
  0
INSERT
  5
DF
  8
0
  6
CONTINUOUS
  2
*U46
 10
0.0
 20
0.0
 30
0.0
  0
LINE
  5
E0
  8
図枠
 10
119.1524847662
 20
-152.90157104639999
 30
0.0
 11
121.5524847662
 21
-150.50157104639999
 31
0.0
  0
LINE
  5
E1
  8
図枠
 10
115.1524847662
 20
-156.10157104640001
 30
0.0
 11
115.1524847662
 21
-156.90157104639999
 31
0.0
  0
LINE
  5
E2
  8
図枠
 10
85.558082034199984
 20
-113.75784779350001
 30
0.0
 11
85.558082034199984
 21
-80.757847793500005
 31
0.0
  0
LINE
  5
E3
  8
図枠
 10
121.5524847662
 20
-153.70157104640001
 30
0.0
 11
121.5524847662
 21
-156.10157104640001
 31
0.0
  0
LINE
  5
E4
  8
図枠
 10
106.1107186677
 20
-153.70157104640001
 30
0.0
 11
106.1107186677
 21
-156.10157104640001
 31
0.0
  0
LINE
  5
E5
  8
図枠
 10
111.9524847662
 20
-152.90157104639999
 30
0.0
 11
114.35248476620001
 21
-150.50157104639999
 31
0.0
  0
INSERT
  5
E6
  8
0
  6
CONTINUOUS
  2
*U47
 10
0.0
 20
0.0
 30
0.0
  0
LINE
  5
E7
  8
図枠
 10
106.1107186677
 20
-156.10157104640001
 30
0.0
 11
107.71071866769999
 21
-156.10157104640001
 31
0.0
  0
INSERT
  5
E8
  8
0
  6
CONTINUOUS
  2
*U48
 10
0.0
 20
0.0
 30
0.0
  0
LINE
  5
E9
  8
図枠
 10
49.558082034199998
 20
-139.25784779349999
 30
0.0
 11
101.5580820342
 21
-139.25784779349999
 31
0.0
  0
INSERT
  5
EA
  8
0
  6
CONTINUOUS
  2
*U49
 10
0.0
 20
0.0
 30
0.0
  0
LINE
  5
EB
  8
図枠
 10
45.558082034199991
 20
-80.757847793500005
 30
0.0
 11
45.558082034199991
 21
-113.75784779350001
 31
0.0
  0
INSERT
  5
EC
  8
0
  6
CONTINUOUS
  2
*U50
 10
0.0
 20
0.0
 30
0.0
  0
LINE
  5
ED
  8
図枠
 10
125.8094544632
 20
-159.3015710464
 30
0.0
 11
125.8094544632
 21
-161.70157104640001
 31
0.0
  0
LINE
  5
EE
  8
図枠
 10
125.5580820342
 20
-113.75784779350001
 30
0.0
 11
125.5580820342
 21
-130.75784779349999
 31
0.0
  0
INSERT
  5
EF
  8
0
  6
CONTINUOUS
  2
*U51
 10
0.0
 20
0.0
 30
0.0
  0
INSERT
  5
F0
  8
0
  6
CONTINUOUS
  2
*U52
 10
0.0
 20
0.0
 30
0.0
  0
LINE
  5
F1
  8
図枠
 10
107.9524847662
 20
-161.70157104640001
 30
0.0
 11
114.35248476620001
 21
-161.70157104640001
 31
0.0
  0
LINE
  5
F2
  8
図枠
 10
111.9524847662
 20
-156.10157104640001
 30
0.0
 11
115.1524847662
 21
-156.10157104640001
 31
0.0
  0
LINE
  5
F3
  8
図枠
 10
125.8094544632
 20
-161.70157104640001
 30
0.0
 11
125.8094544632
 21
-159.3015710464
 31
0.0
  0
INSERT
  5
F4
  8
0
  6
CONTINUOUS
  2
*U53
 10
0.0
 20
0.0
 30
0.0
  0
LINE
  5
F5
  8
図枠
 10
157.4350436567
 20
-117.6498477935
 30
0.0
 11
157.4350436567
 21
-126.8658477935
 31
0.0
  0
LINE
  5
F6
  8
図枠
 10
159.5580820342
 20
-91.757847793500005
 30
0.0
 11
159.5580820342
 21
-80.757847793500005
 31
0.0
  0
INSERT
  5
F7
  8
0
  6
CONTINUOUS
  2
*U54
 10
0.0
 20
0.0
 30
0.0
  0
LINE
  5
F8
  8
図枠
 10
148.21904365669999
 20
-119.9538477935
 30
0.0
 11
157.4350436567
 21
-117.6498477935
 31
0.0
  0
LINE
  5
F9
  8
図枠
 10
158.1574267005
 20
-153.22157104639999
 30
0.0
 11
158.1574267005
 21
-156.10157104640001
 31
0.0
  0
LINE
  5
FA
  8
図枠
 10
154.31283362420001
 20
-160.26157104640001
 30
0.0
 11
158.1574267005
 21
-160.26157104640001
 31
0.0
  0
LINE
  5
FB
  8
図枠
 10
148.21904365669999
 20
-124.56184779349999
 30
0.0
 11
157.4350436567
 21
-126.8658477935
 31
0.0
  0
LINE
  5
FC
  8
図枠
 10
150.47742670049999
 20
-162.50157104639999
 30
0.0
 11
149.8203600338
 21
-160.26157104640001
 31
0.0
  0
LINE
  5
FD
  8
図枠
 10
153.48407109749999
 20
-157.38157104640001
 30
0.0
 11
158.1574267005
 21
-157.38157104640001
 31
0.0
  0
LINE
  5
FE
  8
図枠
 10
153.48407109749999
 20
-157.38157104640001
 30
0.0
 11
153.1157321968
 21
-156.10157104640001
 31
0.0
  0
INSERT
  5
FF
  8
0
  6
CONTINUOUS
  2
*U55
 10
0.0
 20
0.0
 30
0.0
  0
LINE
  5
100
  8
図枠
 10
148.21904365669999
 20
-119.9538477935
 30
0.0
 11
148.21904365669999
 21
-124.56184779349999
 31
0.0
  0
LINE
  5
101
  8
図枠
 10
165.5580820342
 20
-113.75784779350001
 30
0.0
 11
165.5580820342
 21
-164.75784779349999
 31
0.0
  0
LINE
  5
102
  8
図枠
 10
148.21904365669999
 20
-124.56184779349999
 30
0.0
 11
157.4350436567
 21
-126.8658477935
 31
0.0
  0
LINE
  5
103
  8
図枠
 10
148.21904365669999
 20
-124.56184779349999
 30
0.0
 11
157.4350436567
 21
-126.8658477935
 31
0.0
  0
INSERT
  5
104
  8
0
  6
CONTINUOUS
  2
*U56
 10
0.0
 20
0.0
 30
0.0
  0
INSERT
  5
105
  8
0
  6
CONTINUOUS
  2
*U57
 10
0.0
 20
0.0
 30
0.0
  0
LINE
  5
106
  8
図枠
 10
147.75529336709999
 20
-153.22157104639999
 30
0.0
 11
146.95742670050001
 21
-150.50157104639999
 31
0.0
  0
LINE
  5
107
  8
図枠
 10
195.55808203419991
 20
-91.757847793500005
 30
0.0
 11
195.55808203419991
 21
-80.757847793500005
 31
0.0
  0
LINE
  5
108
  8
図枠
 10
157.4350436567
 20
-117.6498477935
 30
0.0
 11
157.4350436567
 21
-126.8658477935
 31
0.0
  0
LINE
  5
109
  8
図枠
 10
148.21904365669999
 20
-119.9538477935
 30
0.0
 11
157.4350436567
 21
-117.6498477935
 31
0.0
  0
LINE
  5
10A
  8
図枠
 10
148.21904365669999
 20
-119.9538477935
 30
0.0
 11
148.21904365669999
 21
-124.56184779349999
 31
0.0
  0
LINE
  5
10B
  8
図枠
 10
148.21904365669999
 20
-119.9538477935
 30
0.0
 11
157.4350436567
 21
-117.6498477935
 31
0.0
  0
LINE
  5
10C
  8
図枠
 10
150.47742670049999
 20
-162.50157104639999
 30
0.0
 11
154.95742670050001
 21
-162.50157104639999
 31
0.0
  0
LINE
  5
10D
  8
図枠
 10
136.78980542650001
 20
-158.26018098079999
 30
0.0
 11
136.50484213089999
 21
-158.53918601149999
 31
0.0
  0
LINE
  5
10E
  8
図枠
 10
138.6094544632
 20
-152.90157104639999
 30
0.0
 11
140.20945446319999
 21
-150.50157104639999
 31
0.0
  0
LINE
  5
10F
  8
図枠
  6
BORDER
 10
137.68608203420001
 20
-115.3458477935
 30
0.0
 11
137.68608203420001
 21
-129.1698477935
 31
0.0
  0
CIRCLE
  5
110
  8
図枠
 10
137.68608203420001
 20
-122.25784779350001
 30
0.0
 40
2.3039999999999998
  0
CIRCLE
  5
111
  8
図枠
 10
137.68608203420001
 20
-122.25784779350001
 30
0.0
 40
2.3039999999999998
  0
LINE
  5
112
  8
図枠
  6
BORDER
 10
137.68608203420001
 20
-115.3458477935
 30
0.0
 11
137.68608203420001
 21
-129.1698477935
 31
0.0
  0
LINE
  5
113
  8
図枠
  6
BORDER
 10
137.68608203420001
 20
-115.3458477935
 30
0.0
 11
137.68608203420001
 21
-129.1698477935
 31
0.0
  0
POLYLINE
  8
図枠
  5
59C
  66
     1
 10
0.000000
 20
0.000000
 30
0.000000
  70
     8
  0
VERTEX
  8
図枠
  5
59D
 10
136.505
 20
-158.539
 30
0.000000
  70
    32
  0
VERTEX
  8
図枠
  5
59E
 10
136.533
 20
-158.547
 30
0.000000
  70
    32
  0
VERTEX
  8
図枠
  5
59F
 10
136.561
 20
-158.555
 30
0.000000
  70
    32
  0
VERTEX
  8
図枠
  5
5A0
 10
136.589
 20
-158.563
 30
0.000000
  70
    32
  0
VERTEX
  8
図枠
  5
5A1
 10
136.617
 20
-158.571
 30
0.000000
  70
    32
  0
VERTEX
  8
図枠
  5
5A2
 10
136.645
 20
-158.578
 30
0.000000
  70
    32
  0
VERTEX
  8
図枠
  5
5A3
 10
136.673
 20
-158.586
 30
0.000000
  70
    32
  0
VERTEX
  8
図枠
  5
5A4
 10
136.701
 20
-158.594
 30
0.000000
  70
    32
  0
VERTEX
  8
図枠
  5
5A5
 10
136.729
 20
-158.601
 30
0.000000
  70
    32
  0
VERTEX
  8
図枠
  5
5A6
 10
136.758
 20
-158.609
 30
0.000000
  70
    32
  0
VERTEX
  8
図枠
  5
5A7
 10
136.786
 20
-158.616
 30
0.000000
  70
    32
  0
VERTEX
  8
図枠
  5
5A8
 10
136.814
 20
-158.624
 30
0.000000
  70
    32
  0
VERTEX
  8
図枠
  5
5A9
 10
136.842
 20
-158.631
 30
0.000000
  70
    32
  0
VERTEX
  8
図枠
  5
5AA
 10
136.871
 20
-158.639
 30
0.000000
  70
    32
  0
VERTEX
  8
図枠
  5
5AB
 10
136.899
 20
-158.646
 30
0.000000
  70
    32
  0
VERTEX
  8
図枠
  5
5AC
 10
136.927
 20
-158.653
 30
0.000000
  70
    32
  0
VERTEX
  8
図枠
  5
5AD
 10
136.956
 20
-158.661
 30
0.000000
  70
    32
  0
VERTEX
  8
図枠
  5
5AE
 10
136.984
 20
-158.668
 30
0.000000
  70
    32
  0
VERTEX
  8
図枠
  5
5AF
 10
137.013
 20
-158.675
 30
0.000000
  70
    32
  0
VERTEX
  8
図枠
  5
5B0
 10
137.041
 20
-158.682
 30
0.000000
  70
    32
  0
VERTEX
  8
図枠
  5
5B1
 10
137.069
 20
-158.689
 30
0.000000
  70
    32
  0
VERTEX
  8
図枠
  5
5B2
 10
137.098
 20
-158.697
 30
0.000000
  70
    32
  0
VERTEX
  8
図枠
  5
5B3
 10
137.126
 20
-158.704
 30
0.000000
  70
    32
  0
VERTEX
  8
図枠
  5
5B4
 10
137.155
 20
-158.711
 30
0.000000
  70
    32
  0
VERTEX
  8
図枠
  5
5B5
 10
137.184
 20
-158.718
 30
0.000000
  70
    32
  0
VERTEX
  8
図枠
  5
5B6
 10
137.212
 20
-158.725
 30
0.000000
  70
    32
  0
VERTEX
  8
図枠
  5
5B7
 10
137.241
 20
-158.731
 30
0.000000
  70
    32
  0
VERTEX
  8
図枠
  5
5B8
 10
137.269
 20
-158.738
 30
0.000000
  70
    32
  0
VERTEX
  8
図枠
  5
5B9
 10
137.298
 20
-158.745
 30
0.000000
  70
    32
  0
VERTEX
  8
図枠
  5
5BA
 10
137.327
 20
-158.752
 30
0.000000
  70
    32
  0
VERTEX
  8
図枠
  5
5BB
 10
137.355
 20
-158.759
 30
0.000000
  70
    32
  0
VERTEX
  8
図枠
  5
5BC
 10
137.384
 20
-158.765
 30
0.000000
  70
    32
  0
VERTEX
  8
図枠
  5
5BD
 10
137.413
 20
-158.772
 30
0.000000
  70
    32
  0
VERTEX
  8
図枠
  5
5BE
 10
137.442
 20
-158.779
 30
0.000000
  70
    32
  0
VERTEX
  8
図枠
  5
5BF
 10
137.471
 20
-158.785
 30
0.000000
  70
    32
  0
VERTEX
  8
図枠
  5
5C0
 10
137.499
 20
-158.792
 30
0.000000
  70
    32
  0
VERTEX
  8
図枠
  5
5C1
 10
137.528
 20
-158.798
 30
0.000000
  70
    32
  0
VERTEX
  8
図枠
  5
5C2
 10
137.557
 20
-158.805
 30
0.000000
  70
    32
  0
VERTEX
  8
図枠
  5
5C3
 10
137.586
 20
-158.811
 30
0.000000
  70
    32
  0
VERTEX
  8
図枠
  5
5C4
 10
137.615
 20
-158.818
 30
0.000000
  70
    32
  0
VERTEX
  8
図枠
  5
5C5
 10
137.644
 20
-158.824
 30
0.000000
  70
    32
  0
VERTEX
  8
図枠
  5
5C6
 10
137.673
 20
-158.831
 30
0.000000
  70
    32
  0
VERTEX
  8
図枠
  5
5C7
 10
137.702
 20
-158.837
 30
0.000000
  70
    32
  0
VERTEX
  8
図枠
  5
5C8
 10
137.731
 20
-158.843
 30
0.000000
  70
    32
  0
VERTEX
  8
図枠
  5
5C9
 10
137.760
 20
-158.850
 30
0.000000
  70
    32
  0
VERTEX
  8
図枠
  5
5CA
 10
137.789
 20
-158.856
 30
0.000000
  70
    32
  0
VERTEX
  8
図枠
  5
5CB
 10
137.818
 20
-158.862
 30
0.000000
  70
    32
  0
VERTEX
  8
図枠
  5
5CC
 10
137.847
 20
-158.868
 30
0.000000
  70
    32
  0
VERTEX
  8
図枠
  5
5CD
 10
137.876
 20
-158.875
 30
0.000000
  70
    32
  0
VERTEX
  8
図枠
  5
5CE
 10
137.905
 20
-158.881
 30
0.000000
  70
    32
  0
VERTEX
  8
図枠
  5
5CF
 10
137.934
 20
-158.887
 30
0.000000
  70
    32
  0
VERTEX
  8
図枠
  5
5D0
 10
137.963
 20
-158.893
 30
0.000000
  70
    32
  0
VERTEX
  8
図枠
  5
5D1
 10
137.992
 20
-158.899
 30
0.000000
  70
    32
  0
VERTEX
  8
図枠
  5
5D2
 10
138.021
 20
-158.905
 30
0.000000
  70
    32
  0
VERTEX
  8
図枠
  5
5D3
 10
138.050
 20
-158.911
 30
0.000000
  70
    32
  0
VERTEX
  8
図枠
  5
5D4
 10
138.080
 20
-158.917
 30
0.000000
  70
    32
  0
VERTEX
  8
図枠
  5
5D5
 10
138.109
 20
-158.923
 30
0.000000
  70
    32
  0
VERTEX
  8
図枠
  5
5D6
 10
138.138
 20
-158.929
 30
0.000000
  70
    32
  0
VERTEX
  8
図枠
  5
5D7
 10
138.167
 20
-158.935
 30
0.000000
  70
    32
  0
VERTEX
  8
図枠
  5
5D8
 10
138.197
 20
-158.941
 30
0.000000
  70
    32
  0
VERTEX
  8
図枠
  5
5D9
 10
138.226
 20
-158.946
 30
0.000000
  70
    32
  0
VERTEX
  8
図枠
  5
5DA
 10
138.255
 20
-158.952
 30
0.000000
  70
    32
  0
VERTEX
  8
図枠
  5
5DB
 10
138.284
 20
-158.958
 30
0.000000
  70
    32
  0
VERTEX
  8
図枠
  5
5DC
 10
138.314
 20
-158.964
 30
0.000000
  70
    32
  0
VERTEX
  8
図枠
  5
5DD
 10
138.343
 20
-158.970
 30
0.000000
  70
    32
  0
VERTEX
  8
図枠
  5
5DE
 10
138.372
 20
-158.975
 30
0.000000
  70
    32
  0
VERTEX
  8
図枠
  5
5DF
 10
138.402
 20
-158.981
 30
0.000000
  70
    32
  0
VERTEX
  8
図枠
  5
5E0
 10
138.431
 20
-158.987
 30
0.000000
  70
    32
  0
VERTEX
  8
図枠
  5
5E1
 10
138.460
 20
-158.992
 30
0.000000
  70
    32
  0
VERTEX
  8
図枠
  5
5E2
 10
138.490
 20
-158.998
 30
0.000000
  70
    32
  0
VERTEX
  8
図枠
  5
5E3
 10
138.519
 20
-159.004
 30
0.000000
  70
    32
  0
VERTEX
  8
図枠
  5
5E4
 10
138.549
 20
-159.009
 30
0.000000
  70
    32
  0
VERTEX
  8
図枠
  5
5E5
 10
138.578
 20
-159.015
 30
0.000000
  70
    32
  0
VERTEX
  8
図枠
  5
5E6
 10
138.607
 20
-159.021
 30
0.000000
  70
    32
  0
VERTEX
  8
図枠
  5
5E7
 10
138.637
 20
-159.026
 30
0.000000
  70
    32
  0
VERTEX
  8
図枠
  5
5E8
 10
138.666
 20
-159.032
 30
0.000000
  70
    32
  0
VERTEX
  8
図枠
  5
5E9
 10
138.696
 20
-159.037
 30
0.000000
  70
    32
  0
VERTEX
  8
図枠
  5
5EA
 10
138.725
 20
-159.043
 30
0.000000
  70
    32
  0
VERTEX
  8
図枠
  5
5EB
 10
138.755
 20
-159.048
 30
0.000000
  70
    32
  0
VERTEX
  8
図枠
  5
5EC
 10
138.784
 20
-159.054
 30
0.000000
  70
    32
  0
VERTEX
  8
図枠
  5
5ED
 10
138.814
 20
-159.059
 30
0.000000
  70
    32
  0
VERTEX
  8
図枠
  5
5EE
 10
138.843
 20
-159.064
 30
0.000000
  70
    32
  0
VERTEX
  8
図枠
  5
5EF
 10
138.873
 20
-159.070
 30
0.000000
  70
    32
  0
VERTEX
  8
図枠
  5
5F0
 10
138.903
 20
-159.075
 30
0.000000
  70
    32
  0
VERTEX
  8
図枠
  5
5F1
 10
138.932
 20
-159.081
 30
0.000000
  70
    32
  0
VERTEX
  8
図枠
  5
5F2
 10
138.962
 20
-159.086
 30
0.000000
  70
    32
  0
VERTEX
  8
図枠
  5
5F3
 10
138.991
 20
-159.091
 30
0.000000
  70
    32
  0
VERTEX
  8
図枠
  5
5F4
 10
139.021
 20
-159.097
 30
0.000000
  70
    32
  0
VERTEX
  8
図枠
  5
5F5
 10
139.050
 20
-159.102
 30
0.000000
  70
    32
  0
VERTEX
  8
図枠
  5
5F6
 10
139.080
 20
-159.107
 30
0.000000
  70
    32
  0
VERTEX
  8
図枠
  5
5F7
 10
139.110
 20
-159.112
 30
0.000000
  70
    32
  0
VERTEX
  8
図枠
  5
5F8
 10
139.139
 20
-159.118
 30
0.000000
  70
    32
  0
VERTEX
  8
図枠
  5
5F9
 10
139.169
 20
-159.123
 30
0.000000
  70
    32
  0
VERTEX
  8
図枠
  5
5FA
 10
139.199
 20
-159.128
 30
0.000000
  70
    32
  0
VERTEX
  8
図枠
  5
5FB
 10
139.228
 20
-159.133
 30
0.000000
  70
    32
  0
VERTEX
  8
図枠
  5
5FC
 10
139.258
 20
-159.139
 30
0.000000
  70
    32
  0
VERTEX
  8
図枠
  5
5FD
 10
139.288
 20
-159.144
 30
0.000000
  70
    32
  0
VERTEX
  8
図枠
  5
5FE
 10
139.317
 20
-159.149
 30
0.000000
  70
    32
  0
VERTEX
  8
図枠
  5
5FF
 10
139.347
 20
-159.154
 30
0.000000
  70
    32
  0
VERTEX
  8
図枠
  5
600
 10
139.377
 20
-159.159
 30
0.000000
  70
    32
  0
VERTEX
  8
図枠
  5
601
 10
139.406
 20
-159.165
 30
0.000000
  70
    32
  0
VERTEX
  8
図枠
  5
602
 10
139.436
 20
-159.170
 30
0.000000
  70
    32
  0
VERTEX
  8
図枠
  5
603
 10
139.466
 20
-159.175
 30
0.000000
  70
    32
  0
VERTEX
  8
図枠
  5
604
 10
139.495
 20
-159.180
 30
0.000000
  70
    32
  0
VERTEX
  8
図枠
  5
605
 10
139.525
 20
-159.185
 30
0.000000
  70
    32
  0
VERTEX
  8
図枠
  5
606
 10
139.555
 20
-159.190
 30
0.000000
  70
    32
  0
VERTEX
  8
図枠
  5
607
 10
139.585
 20
-159.195
 30
0.000000
  70
    32
  0
VERTEX
  8
図枠
  5
608
 10
139.614
 20
-159.201
 30
0.000000
  70
    32
  0
VERTEX
  8
図枠
  5
609
 10
139.644
 20
-159.206
 30
0.000000
  70
    32
  0
VERTEX
  8
図枠
  5
60A
 10
139.674
 20
-159.211
 30
0.000000
  70
    32
  0
VERTEX
  8
図枠
  5
60B
 10
139.703
 20
-159.216
 30
0.000000
  70
    32
  0
VERTEX
  8
図枠
  5
60C
 10
139.733
 20
-159.221
 30
0.000000
  70
    32
  0
VERTEX
  8
図枠
  5
60D
 10
139.763
 20
-159.226
 30
0.000000
  70
    32
  0
VERTEX
  8
図枠
  5
60E
 10
139.793
 20
-159.231
 30
0.000000
  70
    32
  0
VERTEX
  8
図枠
  5
60F
 10
139.822
 20
-159.236
 30
0.000000
  70
    32
  0
VERTEX
  8
図枠
  5
610
 10
139.852
 20
-159.241
 30
0.000000
  70
    32
  0
VERTEX
  8
図枠
  5
611
 10
139.882
 20
-159.246
 30
0.000000
  70
    32
  0
VERTEX
  8
図枠
  5
612
 10
139.912
 20
-159.251
 30
0.000000
  70
    32
  0
VERTEX
  8
図枠
  5
613
 10
139.942
 20
-159.256
 30
0.000000
  70
    32
  0
VERTEX
  8
図枠
  5
614
 10
139.971
 20
-159.261
 30
0.000000
  70
    32
  0
VERTEX
  8
図枠
  5
615
 10
140.001
 20
-159.266
 30
0.000000
  70
    32
  0
VERTEX
  8
図枠
  5
616
 10
140.031
 20
-159.271
 30
0.000000
  70
    32
  0
VERTEX
  8
図枠
  5
617
 10
140.061
 20
-159.276
 30
0.000000
  70
    32
  0
VERTEX
  8
図枠
  5
618
 10
140.090
 20
-159.281
 30
0.000000
  70
    32
  0
VERTEX
  8
図枠
  5
619
 10
140.120
 20
-159.286
 30
0.000000
  70
    32
  0
VERTEX
  8
図枠
  5
61A
 10
140.150
 20
-159.292
 30
0.000000
  70
    32
  0
VERTEX
  8
図枠
  5
61B
 10
140.180
 20
-159.297
 30
0.000000
  70
    32
  0
VERTEX
  8
図枠
  5
61C
 10
140.209
 20
-159.302
 30
0.000000
  70
    32
  0
SEQEND
  8
図枠
  5
61D
  0
CIRCLE
  5
115
  8
図枠
 10
137.68608203420001
 20
-122.25784779350001
 30
0.0
 40
2.3039999999999998
  0
LINE
  5
116
  8
図枠
 10
138.6094544632
 20
-152.90157104639999
 30
0.0
 11
140.20945446319999
 21
-150.50157104639999
 31
0.0
  0
INSERT
  5
117
  8
0
  6
CONTINUOUS
  2
*U58
 10
0.0
 20
0.0
 30
0.0
  0
LINE
  5
118
  8
図枠
 10
157.4350436567
 20
-117.6498477935
 30
0.0
 11
157.4350436567
 21
-126.8658477935
 31
0.0
  0
LINE
  5
119
  8
図枠
 10
148.21904365669999
 20
-119.9538477935
 30
0.0
 11
148.21904365669999
 21
-124.56184779349999
 31
0.0
  0
LINE
  5
11A
  8
図枠
 10
148.97556003380001
 20
-157.38157104640001
 30
0.0
 11
148.60009336709999
 21
-156.10157104640001
 31
0.0
  0
LINE
  5
11B
  8
図枠
 10
148.21904365669999
 20
-124.56184779349999
 30
0.0
 11
157.4350436567
 21
-126.8658477935
 31
0.0
  0
LINE
  5
11C
  8
図枠
 10
152.28696967010001
 20
-153.22157104639999
 30
0.0
 11
152.05273886980001
 21
-152.40760482170001
 31
0.0
  0
LINE
  5
11D
  8
図枠
 10
158.1574267005
 20
-157.38157104640001
 30
0.0
 11
158.1574267005
 21
-160.26157104640001
 31
0.0
  0
INSERT
  5
11E
  8
0
  6
CONTINUOUS
  2
*U59
 10
0.0
 20
0.0
 30
0.0
  0
INSERT
  5
11F
  8
0
  6
CONTINUOUS
  2
*U60
 10
0.0
 20
0.0
 30
0.0
  0
LINE
  5
120
  8
図枠
 10
153.1157321968
 20
-156.10157104640001
 30
0.0
 11
158.1574267005
 21
-156.10157104640001
 31
0.0
  0
LINE
  5
121
  8
図枠
 10
148.21904365669999
 20
-119.9538477935
 30
0.0
 11
148.21904365669999
 21
-124.56184779349999
 31
0.0
  0
LINE
  5
122
  8
図枠
 10
148.21904365669999
 20
-119.9538477935
 30
0.0
 11
157.4350436567
 21
-117.6498477935
 31
0.0
  0
LINE
  5
123
  8
図枠
 10
152.28696967010001
 20
-153.22157104639999
 30
0.0
 11
158.1574267005
 21
-153.22157104639999
 31
0.0
  0
LINE
  5
124
  8
図枠
 10
157.4350436567
 20
-117.6498477935
 30
0.0
 11
157.4350436567
 21
-126.8658477935
 31
0.0
  0
LINE
  5
125
  8
図枠
 10
152.05273886980001
 20
-152.40760482170001
 30
0.0
 11
153.35742670050001
 21
-150.50157104639999
 31
0.0
  0
LINE
  5
126
  8
ﾚｲﾔ_10
  6
STITCH
 10
-168.46308593750001
 20
123.52871093749999
 30
0.0
 11
-168.46308593750001
 21
119.32871093750001
 31
0.0
  0
LINE
  5
127
  8
ﾚｲﾔ_10
  6
STITCH
 10
-166.81308593750001
 20
125.1787109375
 30
0.0
 11
-168.46308593750001
 21
123.52871093749999
 31
0.0
  0
LINE
  5
128
  8
ﾚｲﾔ_10
  6
STITCH
 10
-166.81308593750001
 20
134.1787109375
 30
0.0
 11
-168.46308593750001
 21
132.52871093749999
 31
0.0
  0
LINE
  5
129
  8
ﾚｲﾔ_10
  6
BORDER
 62
     3
 10
-163.38205729169999
 20
130.4287109375
 30
0.0
 11
-173.6025334821
 21
130.4287109375
 31
0.0
  0
LINE
  5
12A
  8
ﾚｲﾔ_10
  6
BORDER
 62
     3
 10
-137.81308593750001
 20
144.4287109375
 30
0.0
 11
-137.81308593750001
 21
134.4287109375
 31
0.0
  0
LINE
  5
12B
  8
ﾚｲﾔ_10
 10
-134.306559222
 20
157.18908729899999
 30
0.0
 11
-113.465533581
 21
157.18908729899999
 31
0.0
  0
LINE
  5
12C
  8
ﾚｲﾔ_10
 10
-134.306559222
 20
156.18908729899999
 30
0.0
 11
-113.465533581
 21
156.18908729899999
 31
0.0
  0
LINE
  5
12D
  8
ﾚｲﾔ_10
 10
-134.306559222
 20
155.18908729899999
 30
0.0
 11
-113.465533581
 21
155.18908729899999
 31
0.0
  0
LINE
  5
12E
  8
ﾚｲﾔ_10
 10
-134.306559222
 20
154.18908729899999
 30
0.0
 11
-113.465533581
 21
154.18908729899999
 31
0.0
  0
INSERT
  5
12F
  8
0
  6
CONTINUOUS
  2
*U61
 10
0.0
 20
0.0
 30
0.0
  0
LINE
  5
130
  8
ﾚｲﾔ_10
 10
-134.306559222
 20
153.18908729899999
 30
0.0
 11
-113.465533581
 21
153.18908729899999
 31
0.0
  0
DIMENSION
  5
13F
  8
寸法線
  2
*D4
 10
-106.31308593750001
 20
96.428710937500014
 30
0.0
 11
-90.563085937500006
 21
96.428710937500014
 31
0.0
 70
   128
  1
<>
 13
-106.31308593750001
 23
125.4287109375
 33
0.0
 14
-74.813085937500006
 24
116.4287109375
 34
0.0
 50
180.0
  0
DIMENSION
  5
147
  8
寸法線
  2
*D5
 10
-97.813085937500006
 20
130.4287109375
 30
0.0
 11
-10.085761361599999
 21
148.83074520900001
 31
0.0
 70
   132
  1
<>
 15
-65.937533669999993
 25
138.9697394259
 35
0.0
 40
0.0
  0
LINE
  5
148
  8
ﾚｲﾔ_10
 62
     5
 10
-169.81308593750001
 20
115.4287109375
 30
0.0
 11
-68.419209024099999
 21
115.4287109375
 31
0.0
  0
LINE
  5
149
  8
ﾚｲﾔ_10
 62
     5
 10
-68.419209024099999
 20
145.4287109375
 30
0.0
 11
-169.81308593750001
 21
145.4287109375
 31
0.0
  0
LINE
  5
14A
  8
図枠
 10
143.75742670049999
 20
-153.22157104639999
 30
0.0
 11
143.75742670049999
 21
-156.10157104640001
 31
0.0
  0
LINE
  5
14B
  8
図枠
 10
143.75742670049999
 20
-160.26157104640001
 30
0.0
 11
149.8203600338
 21
-160.26157104640001
 31
0.0
  0
LINE
  5
14C
  8
図枠
 10
143.75742670049999
 20
-157.38157104640001
 30
0.0
 11
148.97556003380001
 21
-157.38157104640001
 31
0.0
  0
LINE
  5
14D
  8
図枠
 10
143.75742670049999
 20
-153.22157104639999
 30
0.0
 11
147.75529336709999
 21
-153.22157104639999
 31
0.0
  0
LINE
  5
14E
  8
図枠
 10
143.75742670049999
 20
-157.38157104640001
 30
0.0
 11
143.75742670049999
 21
-160.26157104640001
 31
0.0
  0
LINE
  5
14F
  8
図枠
 10
143.75742670049999
 20
-156.10157104640001
 30
0.0
 11
148.60009336709999
 21
-156.10157104640001
 31
0.0
  0
ARC
  5
150
  8
図枠
 10
129.80945446320001
 20
-152.90157104639999
 30
0.0
 40
8.8000000000000007
 50
322.48761197969998
 51
0.0
  0
CIRCLE
  5
151
  8
図枠
 10
137.68608203420001
 20
-122.25784779350001
 30
0.0
 40
2.3039999999999998
  0
LINE
  5
152
  8
図枠
  6
BORDER
 10
137.68608203420001
 20
-115.3458477935
 30
0.0
 11
137.68608203420001
 21
-129.1698477935
 31
0.0
  0
LINE
  5
153
  8
図枠
 10
140.20945446319999
 20
-159.3015710464
 30
0.0
 11
140.20945446319999
 21
-161.70157104640001
 31
0.0
  0
LINE
  5
154
  8
ﾚｲﾔ_10
  6
STITCH
 10
-168.46308593750001
 20
128.32871093750001
 30
0.0
 11
-169.81308593750001
 21
128.32871093750001
 31
0.0
  0
LINE
  5
155
  8
ﾚｲﾔ_10
  6
STITCH
 10
-168.46308593750001
 20
132.52871093749999
 30
0.0
 11
-169.81308593750001
 21
132.52871093749999
 31
0.0
  0
LINE
  5
156
  8
ﾚｲﾔ_10
  6
STITCH
 10
-168.46308593750001
 20
128.32871093750001
 30
0.0
 11
-168.46308593750001
 21
132.52871093749999
 31
0.0
  0
LINE
  5
157
  8
ﾚｲﾔ_10
  6
STITCH
 10
-166.81308593750001
 20
126.6787109375
 30
0.0
 11
-168.46308593750001
 21
128.32871093750001
 31
0.0
  0
LINE
  5
158
  8
ﾚｲﾔ_10
  6
BORDER
 62
     3
 10
-142.81308593750001
 20
139.4287109375
 30
0.0
 11
-132.81308593750001
 21
139.4287109375
 31
0.0
  0
LINE
  5
159
  8
ﾚｲﾔ_10
  6
BORDER
 62
     3
 10
-142.81308593750001
 20
121.4287109375
 30
0.0
 11
-132.81308593750001
 21
121.4287109375
 31
0.0
  0
LINE
  5
15A
  8
ﾚｲﾔ_10
  6
STITCH
 10
-168.46308593750001
 20
137.32871093750001
 30
0.0
 11
-168.46308593750001
 21
141.52871093749999
 31
0.0
  0
CIRCLE
  5
15B
  8
ﾚｲﾔ_10
 62
     5
 10
-137.81308593750001
 20
139.4287109375
 30
0.0
 40
2.1000000000000001
  0
CIRCLE
  5
15C
  8
ﾚｲﾔ_10
 62
     5
 10
-137.81308593750001
 20
121.4287109375
 30
0.0
 40
2.1000000000000001
  0
CIRCLE
  5
15D
  8
ﾚｲﾔ_10
 62
     5
 10
-137.81308593750001
 20
121.4287109375
 30
0.0
 40
3.75
  0
LINE
  5
15E
  8
ﾚｲﾔ_10
  6
BORDER
 62
     3
 10
-137.81308593750001
 20
126.4287109375
 30
0.0
 11
-137.81308593750001
 21
116.4287109375
 31
0.0
  0
LINE
  5
15F
  8
ﾚｲﾔ_10
  6
BORDER
 62
     3
 10
-163.38205729169999
 20
139.4287109375
 30
0.0
 11
-173.6025334821
 21
139.4287109375
 31
0.0
  0
LINE
  5
160
  8
ﾚｲﾔ_10
  6
BORDER
 62
     3
 10
-163.38205729169999
 20
121.4287109375
 30
0.0
 11
-173.6025334821
 21
121.4287109375
 31
0.0
  0
LINE
  5
161
  8
ﾚｲﾔ_10
  6
STITCH
 10
-166.81308593750001
 20
143.1787109375
 30
0.0
 11
-168.46308593750001
 21
141.52871093749999
 31
0.0
  0
LINE
  5
162
  8
ﾚｲﾔ_10
 62
     5
 10
-169.81308593750001
 20
145.4287109375
 30
0.0
 11
-169.81308593750001
 21
115.4287109375
 31
0.0
  0
LINE
  5
163
  8
ﾚｲﾔ_10
  6
STITCH
 10
-168.46308593750001
 20
141.52871093749999
 30
0.0
 11
-169.81308593750001
 21
141.52871093749999
 31
0.0
  0
LINE
  5
164
  8
ﾚｲﾔ_10
  6
STITCH
 10
-168.46308593750001
 20
137.32871093750001
 30
0.0
 11
-169.81308593750001
 21
137.32871093750001
 31
0.0
  0
LINE
  5
165
  8
ﾚｲﾔ_10
  6
STITCH
 10
-168.46308593750001
 20
123.52871093749999
 30
0.0
 11
-169.81308593750001
 21
123.52871093749999
 31
0.0
  0
CIRCLE
  5
166
  8
ﾚｲﾔ_10
 62
     5
 10
-137.81308593750001
 20
139.4287109375
 30
0.0
 40
3.75
  0
LINE
  5
167
  8
ﾚｲﾔ_10
  6
STITCH
 10
-166.81308593750001
 20
135.6787109375
 30
0.0
 11
-168.46308593750001
 21
137.32871093750001
 31
0.0
  0
CIRCLE
  5
168
  8
ﾚｲﾔ_10
 62
     5
 10
-106.31308593750001
 20
130.4287109375
 30
0.0
 40
3.75
  0
LINE
  5
169
  8
ﾚｲﾔ_10
  6
BORDER
 62
     3
 10
-106.31308593750001
 20
135.4287109375
 30
0.0
 11
-106.31308593750001
 21
125.4287109375
 31
0.0
  0
LINE
  5
16A
  8
ﾚｲﾔ_10
  6
BORDER
 62
     3
 10
-111.31308593750001
 20
130.4287109375
 30
0.0
 11
-101.31308593750001
 21
130.4287109375
 31
0.0
  0
CIRCLE
  5
16B
  8
ﾚｲﾔ_10
 62
     5
 10
-106.31308593750001
 20
130.4287109375
 30
0.0
 40
2.1000000000000001
  0
LINE
  5
16C
  8
ﾚｲﾔ_10
  6
STITCH
 10
-168.46308593750001
 20
119.32871093750001
 30
0.0
 11
-169.81308593750001
 21
119.32871093750001
 31
0.0
  0
LINE
  5
16D
  8
ﾚｲﾔ_10
 62
     5
 10
-166.81308593750001
 20
-26.675234374999999
 30
0.0
 11
-169.81308593750001
 21
-26.675234374999999
 31
0.0
  0
DIMENSION
  5
17A
  8
寸法線
  2
*D62
 10
-154.884318871007
 20
-44.404003744179761
 30
0.0
 11
-149.43417798830001
 21
-48.720342408400008
 31
0.0
 70
   133
  1
<>
 13
-166.81308593750001
 23
-23.065234374999999
 33
0.0
 14
-64.813085937500006
 24
-65.065234375000003
 34
0.0
 15
-166.81308593750001
 25
-65.065234375000003
 35
0.0
1001
ACAD
1000
DSTYLE
1002
{
1070
   271
1070
     0
1002
}
  0
DIMENSION
  5
189
  8
寸法線
  2
*D7
 10
-169.81308593750001
 20
-88.065234375000003
 30
0.0
 11
-117.31308593750001
 21
-88.065234375000003
 31
0.0
 70
   128
  1
<>
 13
-169.81308593750001
 23
-63.065234375000003
 33
0.0
 14
-64.813085937500006
 24
-68.065234375000003
 34
0.0
 50
180.0
  0
LINE
  5
18A
  8
ﾚｲﾔ_10
 62
     5
 10
-164.81308593750001
 20
-68.065234375000003
 30
0.0
 11
-64.813085937500006
 21
-68.065234375000003
 31
0.0
  0
LINE
  5
18B
  8
ﾚｲﾔ_10
 62
     5
 10
-164.81308593750001
 20
-65.065234375000003
 30
0.0
 11
-64.813085937500006
 21
-65.065234375000003
 31
0.0
  0
DIMENSION
  5
19A
  8
寸法線
  2
*D8
 10
-48.419209024099999
 20
121.4287109375
 30
0.0
 11
-48.419209024099999
 21
130.4287109375
 31
0.0
 70
   128
  1
<>
 13
-69.813085937500006
 23
121.4287109375
 33
0.0
 14
-69.813085937500006
 24
139.4287109375
 34
0.0
 50
90.0
  0
DIMENSION
  5
1A9
  8
寸法線
  2
*D9
 10
-48.419209024099999
 20
139.4287109375
 30
0.0
 11
-48.419209024099999
 21
154.07441406250001
 31
0.0
 70
   128
  1
<>
 13
-69.813085937500006
 23
139.4287109375
 33
0.0
 14
-68.419209024099999
 24
145.4287109375
 34
0.0
 50
90.0
  0
DIMENSION
  5
1B8
  8
寸法線
  2
*D10
 10
-48.419209024099999
 20
115.4287109375
 30
0.0
 11
-48.419209024099999
 21
106.9455078125
 31
0.0
 70
   128
  1
<>
 13
-68.419209024099999
 23
115.4287109375
 33
0.0
 14
-69.813085937500006
 24
121.4287109375
 34
0.0
 50
90.0
  0
DIMENSION
  5
1C7
  8
寸法線
  2
*D11
 10
-74.813085937500006
 20
96.428710937500014
 30
0.0
 11
-69.813085937500006
 21
96.428710937500014
 31
0.0
 70
   128
  1
<>
 13
-74.813085937500006
 23
116.4287109375
 33
0.0
 14
-64.813085937500006
 24
130.4287109375
 34
0.0
 50
180.0
  0
LINE
  5
1C8
  8
ﾚｲﾔ_10
  6
BORDER
 62
     3
 10
-74.813085937500006
 20
144.4287109375
 30
0.0
 11
-74.813085937500006
 21
134.4287109375
 31
0.0
  0
CIRCLE
  5
1C9
  8
ﾚｲﾔ_10
 62
     5
 10
-74.813085937500006
 20
139.4287109375
 30
0.0
 40
3.75
  0
CIRCLE
  5
1CA
  8
ﾚｲﾔ_10
 62
     5
 10
-74.813085937500006
 20
139.4287109375
 30
0.0
 40
2.1000000000000001
  0
CIRCLE
  5
1CB
  8
ﾚｲﾔ_10
 62
     5
 10
-74.813085937500006
 20
121.4287109375
 30
0.0
 40
2.1000000000000001
  0
CIRCLE
  5
1CC
  8
ﾚｲﾔ_10
 62
     5
 10
-74.813085937500006
 20
121.4287109375
 30
0.0
 40
3.75
  0
LINE
  5
1CD
  8
ﾚｲﾔ_10
  6
BORDER
 62
     3
 10
-74.813085937500006
 20
126.4287109375
 30
0.0
 11
-74.813085937500006
 21
116.4287109375
 31
0.0
  0
LINE
  5
1CE
  8
ﾚｲﾔ_10
  6
BORDER
 62
     3
 10
-79.813085937500006
 20
121.4287109375
 30
0.0
 11
-69.813085937500006
 21
121.4287109375
 31
0.0
  0
ARC
  5
1CF
  8
ﾚｲﾔ_10
 62
     5
 10
-97.813085937500006
 20
130.4287109375
 30
0.0
 40
33.0
 50
332.9643082106
 51
27.035691789400001
  0
LINE
  5
1D0
  8
ﾚｲﾔ_10
  6
BORDER
 62
     3
 10
-79.813085937500006
 20
139.4287109375
 30
0.0
 11
-69.813085937500006
 21
139.4287109375
 31
0.0
  0
DIMENSION
  5
1DF
  8
寸法線
  2
*D12
 10
-205.8751496598
 20
145.4287109375
 30
0.0
 11
-205.8751496598
 21
130.4287109375
 31
0.0
 70
   128
  1
<>
 13
-169.81308593750001
 23
145.4287109375
 33
0.0
 14
-169.81308593750001
 24
115.4287109375
 34
0.0
 50
90.0
  0
DIMENSION
  5
1EE
  8
寸法線
  2
*D13
 10
-189.81308593750001
 20
145.4287109375
 30
0.0
 11
-189.81308593750001
 21
137.9287109375
 31
0.0
 70
   128
  1
<>
 13
-169.81308593750001
 23
145.4287109375
 33
0.0
 14
-111.31308593750001
 24
130.4287109375
 34
0.0
 50
90.0
  0
DIMENSION
  5
1FD
  8
寸法線
  2
*D14
 10
-189.81308593750001
 20
130.4287109375
 30
0.0
 11
-189.81308593750001
 21
122.9287109375
 31
0.0
 70
   128
  1
<>
 13
-111.31308593750001
 23
130.4287109375
 33
0.0
 14
-169.81308593750001
 24
115.4287109375
 34
0.0
 50
90.0
  0
DIMENSION
  5
20C
  8
寸法線
  2
*D15
 10
-137.81308593750001
 20
96.428710937500014
 30
0.0
 11
-122.06308593750001
 21
96.428710937500014
 31
0.0
 70
   128
  1
<>
 13
-137.81308593750001
 23
116.4287109375
 33
0.0
 14
-106.31308593750001
 24
125.4287109375
 34
0.0
 50
180.0
  0
DIMENSION
  5
21B
  8
寸法線
  2
*D16
 10
-169.81308593750001
 20
96.428710937500014
 30
0.0
 11
-153.81308593750001
 21
96.428710937500014
 31
0.0
 70
   128
  1
<>
 13
-169.81308593750001
 23
115.4287109375
 33
0.0
 14
-137.81308593750001
 24
116.4287109375
 34
0.0
 50
180.0
  0
LINE
  5
21C
  8
ﾚｲﾔ_10
  6
STITCH
 10
-166.81308593750001
 20
117.6787109375
 30
0.0
 11
-168.46308593750001
 21
119.32871093750001
 31
0.0
  0
LINE
  5
21D
  8
ﾚｲﾔ_10
 62
     5
 10
-166.81308593750001
 20
145.4287109375
 30
0.0
 11
-166.81308593750001
 21
115.4287109375
 31
0.0
  0
LINE
  5
21E
  8
ﾚｲﾔ_10
  6
STITCH
 10
-166.81308593750001
 20
-29.315234374999999
 30
0.0
 11
-168.46308593750001
 21
-30.965234375000001
 31
0.0
  0
LINE
  5
21F
  8
ﾚｲﾔ_10
  6
STITCH
 10
-168.46308593750001
 20
-30.965234375000001
 30
0.0
 11
-168.46308593750001
 21
-35.165234374999997
 31
0.0
  0
LINE
  5
220
  8
ﾚｲﾔ_10
  6
STITCH
 10
-168.46308593750001
 20
-35.165234374999997
 30
0.0
 11
-169.81308593750001
 21
-35.165234374999997
 31
0.0
  0
LINE
  5
221
  8
ﾚｲﾔ_10
  6
STITCH
 10
-168.46308593750001
 20
-30.965234375000001
 30
0.0
 11
-169.81308593750001
 21
-30.965234375000001
 31
0.0
  0
LINE
  5
222
  8
ﾚｲﾔ_10
  6
STITCH
 10
-110.06308593750001
 20
-65.065234375000003
 30
0.0
 11
-108.4130859375
 21
-66.715234374999994
 31
0.0
  0
LINE
  5
223
  8
ﾚｲﾔ_10
  6
BORDER
 62
     3
 10
-106.31308593750001
 20
-61.634205729199991
 30
0.0
 11
-106.31308593750001
 21
-71.854681919599997
 31
0.0
  0
LINE
  5
224
  8
ﾚｲﾔ_10
  6
STITCH
 10
-104.2130859375
 20
-66.715234374999994
 30
0.0
 11
-104.2130859375
 21
-68.065234375000003
 31
0.0
  0
LINE
  5
225
  8
ﾚｲﾔ_10
  6
BORDER
 62
     3
 10
-163.38205729169999
 20
-33.065234375000003
 30
0.0
 11
-173.6025334821
 21
-33.065234375000003
 31
0.0
  0
ARC
  5
226
  8
ﾚｲﾔ_10
 62
     5
 10
-164.81308593750001
 20
-63.065234375000003
 30
0.0
 40
5.0
 50
180.0
 51
270.0
  0
ARC
  5
227
  8
ﾚｲﾔ_10
 62
     5
 10
-164.81308593750001
 20
-63.065234375000003
 30
0.0
 40
2.0
 50
180.0
 51
270.0
  0
LINE
  5
228
  8
ﾚｲﾔ_10
  6
STITCH
 10
-141.56308593750001
 20
-65.065234375000003
 30
0.0
 11
-139.9130859375
 21
-66.715234374999994
 31
0.0
  0
LINE
  5
229
  8
ﾚｲﾔ_10
  6
STITCH
 10
-134.06308593750001
 20
-65.065234375000003
 30
0.0
 11
-135.71308593750001
 21
-66.715234374999994
 31
0.0
  0
LINE
  5
22A
  8
ﾚｲﾔ_10
  6
STITCH
 10
-135.71308593750001
 20
-66.715234374999994
 30
0.0
 11
-139.9130859375
 21
-66.715234374999994
 31
0.0
  0
LINE
  5
22B
  8
ﾚｲﾔ_10
  6
STITCH
 10
-139.9130859375
 20
-66.715234374999994
 30
0.0
 11
-139.9130859375
 21
-68.065234375000003
 31
0.0
  0
LINE
  5
22C
  8
ﾚｲﾔ_10
  6
STITCH
 10
-135.71308593750001
 20
-66.715234374999994
 30
0.0
 11
-135.71308593750001
 21
-68.065234375000003
 31
0.0
  0
LINE
  5
22D
  8
ﾚｲﾔ_10
  6
BORDER
 62
     3
 10
-137.81308593750001
 20
-61.634205729199991
 30
0.0
 11
-137.81308593750001
 21
-71.854681919599997
 31
0.0
  0
LINE
  5
22E
  8
ﾚｲﾔ_10
  6
STITCH
 10
-166.81308593750001
 20
-51.815234375000003
 30
0.0
 11
-168.46308593750001
 21
-50.165234374999997
 31
0.0
  0
LINE
  5
22F
  8
ﾚｲﾔ_10
  6
STITCH
 10
-166.81308593750001
 20
-44.315234375000003
 30
0.0
 11
-168.46308593750001
 21
-45.965234375000001
 31
0.0
  0
LINE
  5
230
  8
ﾚｲﾔ_10
  6
STITCH
 10
-166.81308593750001
 20
-36.815234375000003
 30
0.0
 11
-168.46308593750001
 21
-35.165234374999997
 31
0.0
  0
LINE
  5
231
  8
ﾚｲﾔ_10
  6
STITCH
 10
-108.4130859375
 20
-66.715234374999994
 30
0.0
 11
-108.4130859375
 21
-68.065234375000003
 31
0.0
  0
LINE
  5
232
  8
ﾚｲﾔ_10
  6
STITCH
 10
-104.2130859375
 20
-66.715234374999994
 30
0.0
 11
-108.4130859375
 21
-66.715234374999994
 31
0.0
  0
LINE
  5
233
  8
ﾚｲﾔ_10
  6
STITCH
 10
-102.56308593750001
 20
-65.065234375000003
 30
0.0
 11
-104.2130859375
 21
-66.715234374999994
 31
0.0
  0
DIMENSION
  5
242
  8
寸法線
  2
*D17
 10
-189.81308593750001
 20
-23.065234374999999
 30
0.0
 11
-189.81308593750001
 21
-45.565234375000003
 31
0.0
 70
   128
  1
<>
 13
-169.81308593750001
 23
-23.065234374999999
 33
0.0
 14
-164.81308593750001
 24
-68.065234375000003
 34
0.0
 50
90.0
  0
LINE
  5
243
  8
ﾚｲﾔ_10
 62
     5
 10
-169.81308593750001
 20
-23.065234374999999
 30
0.0
 11
-169.81308593750001
 21
-63.065234375000003
 31
0.0
  0
LINE
  5
244
  8
ﾚｲﾔ_10
 62
     5
 10
-166.81308593750001
 20
-23.065234374999999
 30
0.0
 11
-166.81308593750001
 21
-63.065234375000003
 31
0.0
  0
LINE
  5
245
  8
図枠
 62
     5
 10
-272.44191796579997
 20
-164.75784779349999
 30
0.0
 11
277.55808203420003
 21
-164.75784779349999
 31
0.0
  0
LINE
  5
246
  8
図枠
  6
DOT
 10
-284.44191796579997
 20
-176.25784779349999
 30
0.0
 11
289.55808203420003
 21
-176.25784779349999
 31
0.0
  0
LINE
  5
247
  8
図枠
 62
     5
 10
-272.44191796579997
 20
215.24215220650001
 30
0.0
 11
277.55808203420003
 21
215.24215220650001
 31
0.0
  0
LINE
  5
248
  8
図枠
  6
DOT
 10
-284.44191796579997
 20
226.74215220650001
 30
0.0
 11
289.55808203420003
 21
226.74215220650001
 31
0.0
  0
DIMENSION
  5
257
  8
寸法線
  2
*D18
 10
-166.81308593750001
 20
-3.0652343750000002
 30
0.0
 11
-157.08635058780001
 21
-3.0652343750000002
 31
0.0
 70
   128
  1
<>t
 13
-166.81308593750001
 23
-23.065234374999999
 33
0.0
 14
-169.81308593750001
 24
-23.065234374999999
 34
0.0
  0
LINE
  5
258
  8
図枠
  6
DOT
 10
-284.4359179658
 20
-176.25784779349999
 30
0.0
 11
-284.4359179658
 21
226.74215220650001
 31
0.0
  0
LINE
  5
259
  8
図枠
 62
     5
 10
-272.44191796579997
 20
-164.75784779349999
 30
0.0
 11
-272.44191796579997
 21
215.24215220650001
 31
0.0
  0
LINE
  5
25A
  8
図枠
  6
DOT
 10
289.55808203420003
 20
-176.25784779349999
 30
0.0
 11
289.55808203420003
 21
226.74215220650001
 31
0.0
  0
LINE
  5
25B
  8
図枠
 62
     5
 10
277.55808203420003
 20
-164.75784779349999
 30
0.0
 11
277.55808203420003
 21
215.24215220650001
 31
0.0
  0
LINE
  5
25C
  8
ﾚｲﾔ_10
  6
STITCH
 10
-71.063085937500006
 20
-65.065234375000003
 30
0.0
 11
-72.713085937499983
 21
-66.715234374999994
 31
0.0
  0
LINE
  5
25D
  8
ﾚｲﾔ_10
  6
STITCH
 10
-72.713085937499983
 20
-66.715234374999994
 30
0.0
 11
-76.9130859375
 21
-66.715234374999994
 31
0.0
  0
LINE
  5
25E
  8
ﾚｲﾔ_10
  6
STITCH
 10
-76.9130859375
 20
-66.715234374999994
 30
0.0
 11
-76.9130859375
 21
-68.065234375000003
 31
0.0
  0
LINE
  5
25F
  8
ﾚｲﾔ_10
  6
STITCH
 10
-72.713085937499983
 20
-66.715234374999994
 30
0.0
 11
-72.713085937499983
 21
-68.065234375000003
 31
0.0
  0
LINE
  5
260
  8
ﾚｲﾔ_10
  6
BORDER
 62
     3
 10
-74.813085937500006
 20
-61.634205729199991
 30
0.0
 11
-74.813085937500006
 21
-71.854681919599997
 31
0.0
  0
LINE
  5
261
  8
ﾚｲﾔ_10
 62
     5
 10
-68.423085937500005
 20
-68.065234375000003
 30
0.0
 11
-68.423085937500005
 21
-65.065234375000003
 31
0.0
  0
LINE
  5
262
  8
ﾚｲﾔ_10
 62
     5
 10
-64.813085937500006
 20
-68.065234375000003
 30
0.0
 11
-64.813085937500006
 21
-65.065234375000003
 31
0.0
  0
LINE
  5
263
  8
ﾚｲﾔ_10
  6
STITCH
 10
-78.563085937500006
 20
-65.065234375000003
 30
0.0
 11
-76.9130859375
 21
-66.715234374999994
 31
0.0
  0
LINE
  5
264
  8
ﾚｲﾔ_10
 62
     5
 10
-166.81308593750001
 20
-23.065234374999999
 30
0.0
 11
-169.81308593750001
 21
-23.065234374999999
 31
0.0
  0
DIMENSION
  5
274
  8
寸法線
  2
*D19
 10
-139.9130859375
 20
-74.180575981199993
 30
0.0
 11
-137.81308593750001
 21
-74.180575981199993
 31
0.0
 70
   128
  1
%%c<>
 13
-139.9130859375
 23
-68.065234375000003
 33
0.0
 14
-135.71308593750001
 24
-68.065234375000003
 34
0.0
 50
180.0
  0
DIMENSION
  5
282
  8
寸法線
  2
*D63
 10
-135.08941368860971
 20
-58.650351158975887
 30
0.0
 11
-137.81308593750001
 21
-58.291772904799998
 31
0.0
 70
   133
  1
<>
 13
-142.09341602340001
 23
-64.534904289099998
 33
0.0
 14
-133.5327558516
 24
-64.534904289099998
 34
0.0
 15
-137.81308593750001
 25
-68.815234375000003
 35
0.0
1001
ACAD
1000
DSTYLE
1002
{
1070
   271
1070
     0
1002
}
  0
DIMENSION
  5
291
  8
寸法線
  2
*D21
 10
-134.06308593750001
 20
-61.065234375000003
 30
0.0
 11
-137.81308593750001
 21
-61.065234375000003
 31
0.0
 70
   128
  1
%%c<>
 13
-134.06308593750001
 23
-65.065234375000003
 33
0.0
 14
-141.56308593750001
 24
-65.065234375000003
 34
0.0
  0
LINE
  5
292
  8
ﾚｲﾔ_10
  6
STITCH
 10
-168.46308593750001
 20
-45.965234375000001
 30
0.0
 11
-168.46308593750001
 21
-50.165234374999997
 31
0.0
  0
LINE
  5
293
  8
ﾚｲﾔ_10
  6
STITCH
 10
-168.46308593750001
 20
-50.165234374999997
 30
0.0
 11
-169.81308593750001
 21
-50.165234374999997
 31
0.0
  0
LINE
  5
294
  8
ﾚｲﾔ_10
  6
STITCH
 10
-168.46308593750001
 20
-45.965234375000001
 30
0.0
 11
-169.81308593750001
 21
-45.965234375000001
 31
0.0
  0
LINE
  5
295
  8
ﾚｲﾔ_10
  6
BORDER
 62
     3
 10
-163.38205729169999
 20
-48.065234375000003
 30
0.0
 11
-173.6025334821
 21
-48.065234375000003
 31
0.0
  0
DIMENSION
  5
2D9
  8
0
  2
*D26
 10
101.87088106281151
 20
-56.060794979476547
 30
0.0
 11
90.779821452324995
 21
-56.060794979476547
 31
0.0
 70
   128
  1
φ4.2
 13
81.870881062811691
 23
-35.908806888475482
 33
0.0
 14
101.87088106281151
 24
-35.908806888475482
 34
0.0
1001
ACAD
1000
DSTYLE
1002
{
1070
    40
1040
1.0
1002
}
  0
DIMENSION
  5
2DA
  8
0
  2
*D27
 10
111.87088106281161
 20
-1.874449152385409
 30
0.0
 11
91.620252708305543
 21
-1.874449152385409
 31
0.0
 70
   128
  1
φ7.5
 13
71.870881062811577
 23
-20.783806888475478
 33
0.0
 14
111.87088106281161
 24
-20.783806888475478
 34
0.0
1001
ACAD
1000
DSTYLE
1002
{
1070
    40
1040
1.0
1002
}
  0
LINE
  5
2DB
  8
ﾚｲﾔ_1
  6
BORDER
 62
     3
 10
91.870881062811577
 20
-16.596306888475478
 30
0.0
 11
91.870881062811577
 21
-40.346306888475482
 31
0.0
  0
LINE
  5
2DC
  8
ﾚｲﾔ_1
 62
     5
 10
111.87088106281161
 20
-20.846306888475478
 30
0.0
 11
101.87088106281151
 21
-30.846306888475478
 31
0.0
  0
LINE
  5
2DD
  8
ﾚｲﾔ_1
 62
     5
 10
101.87088106281151
 20
-30.846306888475478
 30
0.0
 11
81.870881062811691
 21
-30.846306888475478
 31
0.0
  0
LINE
  5
2DE
  8
ﾚｲﾔ_1
 62
     5
 10
81.870881062811691
 20
-30.846306888475478
 30
0.0
 11
81.870881062811691
 21
-35.846306888475482
 31
0.0
  0
LINE
  5
2DF
  8
ﾚｲﾔ_1
 62
     5
 10
101.87088106281151
 20
-30.846306888475478
 30
0.0
 11
101.87088106281151
 21
-35.846306888475482
 31
0.0
  0
LINE
  5
2E0
  8
ﾚｲﾔ_1
 62
     5
 10
71.870881062811577
 20
-20.846306888475478
 30
0.0
 11
81.870881062811691
 21
-30.846306888475478
 31
0.0
  0
LINE
  5
2E1
  8
ﾚｲﾔ_1
 62
     5
 10
61.385695877611617
 20
-20.846306888475478
 30
0.0
 11
122.3560662480117
 21
-20.846306888475478
 31
0.0
  0
LINE
  5
2E2
  8
ﾚｲﾔ_1
 62
     5
 10
61.385695877611617
 20
-35.846306888475482
 30
0.0
 11
122.3560662480117
 21
-35.846306888475482
 31
0.0
  0
DIMENSION
  5
2E3
  8
0
  2
*D28
 10
76.775652843624968
 20
15.489851777377069
 30
0.0
 11
93.721332360925075
 21
17.447813897473001
 31
0.0
 70
   133
 13
68.586288824111762
 23
-17.561714649775489
 33
0.0
 14
115.15547330151161
 24
-17.561714649775489
 34
0.0
 15
91.870881062811577
 25
-40.846306888475482
 35
0.0
1001
ACAD
1000
DSTYLE
1002
{
1070
   271
1070
     0
1070
    40
1040
1.0
1002
}
  0
ENDSEC
  0
EOF
