  0
SECTION
  2
HEADER
  9
$ACADVER
  1
AC1009
  9
$INSBASE
 10
0.0
 20
0.0
 30
0.0
  9
$EXTMIN
 10
693.52929348789985
 20
-321.3515454921
 30
0.0
  9
$EXTMAX
 10
980.50059348789978
 20
-119.8716954921
 30
0.0
  9
$LIMMIN
 10
0.0
 20
0.0
  9
$LIMMAX
 10
0.0
 20
0.0
  9
$ORTHOMODE
 70
     0
  9
$REGENMODE
 70
     1
  9
$FILLMODE
 70
     1
  9
$QTEXTMODE
 70
     0
  9
$MIRRTEXT
 70
     1
  9
$DRAGMODE
 70
     2
  9
$LTSCALE
 40
1.0
  9
$OSMODE
 70
    31
  9
$ATTMODE
 70
     1
  9
$TEXTSIZE
 40
0.0
  9
$TRACEWID
 40
0.05
  9
$TEXTSTYLE
  7
STANDARD
  9
$CLAYER
  8
0
  9
$CELTYPE
  6
CONTINUOUS
  9
$CECOLOR
 62
   256
  9
$DIMSCALE
 40
1.0
  9
$DIMASZ
 40
0.18
  9
$DIMEXO
 40
0.0625
  9
$DIMDLI
 40
0.38
  9
$DIMRND
 40
0.0
  9
$DIMDLE
 40
0.0
  9
$DIMEXE
 40
0.18
  9
$DIMTP
 40
0.0
  9
$DIMTM
 40
0.0
  9
$DIMTXT
 40
0.18
  9
$DIMCEN
 40
0.09
  9
$DIMTSZ
 40
0.0
  9
$DIMTOL
 70
     0
  9
$DIMLIM
 70
     0
  9
$DIMTIH
 70
     1
  9
$DIMTOH
 70
     1
  9
$DIMSE1
 70
     0
  9
$DIMSE2
 70
     0
  9
$DIMTAD
 70
     0
  9
$DIMZIN
 70
     0
  9
$DIMBLK
  1

  9
$DIMASO
 70
     1
  9
$DIMSHO
 70
     1
  9
$DIMPOST
  1

  9
$DIMAPOST
  1

  9
$DIMALT
 70
     0
  9
$DIMALTD
 70
     2
  9
$DIMALTF
 40
25.399999999999999
  9
$DIMLFAC
 40
1.0
  9
$DIMTOFL
 70
     0
  9
$DIMTVP
 40
0.0
  9
$DIMTIX
 70
     0
  9
$DIMSOXD
 70
     0
  9
$DIMSAH
 70
     0
  9
$DIMBLK1
  1

  9
$DIMBLK2
  1

  9
$DIMSTYLE
  2
STANDARD
  9
$DIMCLRD
 70
     0
  9
$DIMCLRE
 70
     0
  9
$DIMCLRT
 70
     0
  9
$DIMTFAC
 40
1.0
  9
$DIMGAP
 40
0.09
  9
$LUNITS
 70
     2
  9
$LUPREC
 70
     4
  9
$SKETCHINC
 40
0.1
  9
$FILLETRAD
 40
0.0
  9
$AUNITS
 70
     0
  9
$AUPREC
 70
     0
  9
$MENU
  1
acad
  9
$ELEVATION
 40
0.0
  9
$PELEVATION
 40
0.0
  9
$THICKNESS
 40
0.0
  9
$LIMCHECK
 70
     0
  9
$BLIPMODE
 70
     0
  9
$CHAMFERA
 40
0.0
  9
$CHAMFERB
 40
0.0
  9
$SKPOLY
 70
     0
  9
$TDCREATE
 40
2454865.68567853
  9
$TDUPDATE
 40
2454865.6862575919
  9
$TDINDWG
 40
0.0006284375
  9
$TDUSRTIMER
 40
0.0006219213
  9
$USRTIMER
 70
     1
  9
$ANGBASE
 50
0.0
  9
$ANGDIR
 70
     0
  9
$PDMODE
 70
     3
  9
$PDSIZE
 40
-1.0
  9
$PLINEWID
 40
0.0
  9
$COORDS
 70
     2
  9
$SPLFRAME
 70
     0
  9
$SPLINETYPE
 70
     6
  9
$SPLINESEGS
 70
     8
  9
$ATTDIA
 70
     0
  9
$ATTREQ
 70
     1
  9
$HANDLING
 70
     1
  9
$HANDSEED
  5
4AE
  9
$SURFTAB1
 70
     6
  9
$SURFTAB2
 70
     6
  9
$SURFTYPE
 70
     6
  9
$SURFU
 70
     6
  9
$SURFV
 70
     6
  9
$UCSNAME
  2

  9
$UCSORG
 10
0.0
 20
0.0
 30
0.0
  9
$UCSXDIR
 10
1.0
 20
0.0
 30
0.0
  9
$UCSYDIR
 10
0.0
 20
1.0
 30
0.0
  9
$PUCSNAME
  2

  9
$PUCSORG
 10
0.0
 20
0.0
 30
0.0
  9
$PUCSXDIR
 10
1.0
 20
0.0
 30
0.0
  9
$PUCSYDIR
 10
0.0
 20
1.0
 30
0.0
  9
$USERI1
 70
     0
  9
$USERI2
 70
     0
  9
$USERI3
 70
     0
  9
$USERI4
 70
     0
  9
$USERI5
 70
     0
  9
$USERR1
 40
0.0
  9
$USERR2
 40
0.0
  9
$USERR3
 40
0.0
  9
$USERR4
 40
0.0
  9
$USERR5
 40
0.0
  9
$WORLDVIEW
 70
     1
  9
$SHADEDGE
 70
     3
  9
$SHADEDIF
 70
    70
  9
$TILEMODE
 70
     1
  9
$MAXACTVP
 70
    16
  9
$PLIMCHECK
 70
     0
  9
$PEXTMIN
 10
1.0000000000000000E+020
 20
1.0000000000000000E+020
 30
1.0000000000000000E+020
  9
$PEXTMAX
 10
-1.0000000000000000E+020
 20
-1.0000000000000000E+020
 30
-1.0000000000000000E+020
  9
$PLIMMIN
 10
0.0
 20
0.0
  9
$PLIMMAX
 10
12.0
 20
9.0
  9
$UNITMODE
 70
     0
  9
$VISRETAIN
 70
     0
  9
$PLINEGEN
 70
     1
  9
$PSLTSCALE
 70
     0
  0
ENDSEC
  0
SECTION
  2
TABLES
  0
TABLE
  2
VPORT
 70
     2
  0
VPORT
  2
*ACTIVE
 70
     0
 10
0.0
 20
0.0
 11
1.0
 21
1.0
 12
837.01494348789993
 22
-220.6116204921
 13
0.0
 23
0.0
 14
1.0
 24
1.0
 15
0.0
 25
0.0
 16
0.0
 26
0.0
 36
1.0
 17
0.0
 27
0.0
 37
0.0
 40
203.18249661971831
 41
1.5416078984485191
 42
50.0
 43
0.0
 44
0.0
 50
0.0
 51
0.0
 71
     0
 72
   100
 73
     1
 74
     1
 75
     0
 76
     0
 77
     0
 78
     0
  0
ENDTAB
  0
TABLE
  2
LTYPE
 70
    11
  0
LTYPE
  2
CONTINUOUS
 70
     0
  3
Solid line
 72
    65
 73
     0
 40
0.0
  0
LTYPE
  2
DOT
 70
     0
  3
. . . . . . . . 
 72
    65
 73
     2
 40
1.0
 49
0.0
 49
-1.0
  0
LTYPE
  2
DASHED
 70
     0
  3
___  ___  ___  ___  
 72
    65
 73
     2
 40
4.0
 49
3.0
 49
-1.0
  0
LTYPE
  2
HIDDEN
 70
     0
  3
__ __ __ __ 
 72
    65
 73
     2
 40
3.0
 49
2.0
 49
-1.0
  0
LTYPE
  2
STITCH
 70
     0
  3
_ _ _ _ 
 72
    65
 73
     2
 40
2.0
 49
1.0
 49
-1.0
  0
LTYPE
  2
CENTER
 70
     0
  3
______  __  ______  __  
 72
    65
 73
     4
 40
43.0
 49
40.0
 49
-1.0
 49
1.0
 49
-1.0
  0
LTYPE
  2
DASHDOT
 70
     0
  3
____ . ____ . 
 72
    65
 73
     4
 40
32.0
 49
30.0
 49
-1.0
 49
0.0
 49
-1.0
  0
LTYPE
  2
BORDER
 70
     0
  3
__ . __ . 
 72
    65
 73
     4
 40
22.0
 49
20.0
 49
-1.0
 49
0.0
 49
-1.0
  0
LTYPE
  2
CUTTING
 70
     0
  3
________   ___   ___   
 72
    65
 73
     6
 40
45.0
 49
40.0
 49
-1.0
 49
1.0
 49
-1.0
 49
1.0
 49
-1.0
  0
LTYPE
  2
PHANTOM
 70
     0
  3
______  __  __  
 72
    65
 73
     6
 40
35.0
 49
30.0
 49
-1.0
 49
1.0
 49
-1.0
 49
1.0
 49
-1.0
  0
LTYPE
  2
DIVIDE
 70
     0
  3
____ . . ____ . . 
 72
    65
 73
     6
 40
23.0
 49
20.0
 49
-1.0
 49
0.0
 49
-1.0
 49
0.0
 49
-1.0
  0
ENDTAB
  0
TABLE
  2
LAYER
 70
     4
  0
LAYER
  2
0
 70
     0
 62
     7
  6
CONTINUOUS
  0
LAYER
  2
図枠
 70
     0
 62
     7
  6
CONTINUOUS
  0
LAYER
  2
ﾚｲﾔ_1
 70
     0
 62
     7
  6
CONTINUOUS
  0
LAYER
  2
寸法線
 70
     0
 62
     7
  6
CONTINUOUS
  0
ENDTAB
  0
TABLE
  2
STYLE
 70
     1
  0
STYLE
  2
STANDARD
 70
     0
 40
0.0
 41
1.0
 50
0.0
 71
     0
 42
0.0
  3
txt
  4
extfont
  0
ENDTAB
  0
TABLE
  2
VIEW
 70
     0
  0
ENDTAB
  0
TABLE
  2
UCS
 70
     0
  0
ENDTAB
  0
TABLE
  2
APPID
 70
     2
  0
APPID
  2
ACAD
 70
     0
  0
APPID
  2
DCO15
 70
     0
  0
ENDTAB
  0
TABLE
  2
DIMSTYLE
 70
     2
  0
DIMSTYLE
  2
STANDARD
 70
     0
  3

  4

  5

  6

  7

 40
1.0
 41
0.18
 42
0.0625
 43
0.38
 44
0.18
 45
0.0
 46
0.0
 47
0.0
 48
0.0
140
0.18
141
0.09
142
0.0
143
25.399999999999999
144
1.0
145
0.0
146
1.0
147
0.09
 71
     0
 72
     0
 73
     1
 74
     1
 75
     0
 76
     0
 77
     0
 78
     0
170
     0
171
     2
172
     0
173
     0
174
     0
175
     0
176
     0
177
     0
178
     0
  0
DIMSTYLE
  2
VELDIM0
 70
     0
  3

  4

  5

  6

  7

 40
1.0
 41
3.0
 42
0.0625
 43
0.38
 44
0.5
 45
0.0
 46
3.0
 47
0.0
 48
0.0
140
2.9986110209999999
141
0.09
142
0.0
143
25.399999999999999
144
1.0
145
0.0
146
1.0
147
0.09
 71
     0
 72
     0
 73
     0
 74
     0
 75
     0
 76
     0
 77
     0
 78
     8
170
     0
171
     2
172
     0
173
     0
174
     0
175
     0
176
     0
177
     0
178
     0
  0
ENDTAB
  0
ENDSEC
  0
SECTION
  2
BLOCKS
  0
BLOCK
  8
0
  2
$MODEL_SPACE
 70
     0
 10
0.0
 20
0.0
 30
0.0
  3
$MODEL_SPACE
  1

  0
ENDBLK
  5
E
  8
0
  0
BLOCK
 67
     1
  8
0
  2
$PAPER_SPACE
 70
     0
 10
0.0
 20
0.0
 30
0.0
  3
$PAPER_SPACE
  1

  0
ENDBLK
  5
10
 67
     1
  8
0
  0
BLOCK
  8
0
  2
*D0
 70
     1
 10
0.0
 20
0.0
 30
0.0
  3
*D0
  1

  0
TEXT
  5
C4
  8
0
 62
     0
 10
777.42625985589984
 20
-228.35687592790001
 30
0.0
 40
2.9986110209999999
  1
23.5
  0
LINE
  5
C5
  8
0
 62
     0
 10
792.70403752770005
 20
-247.1637029485
 30
0.0
 11
792.70403752770005
 21
-229.3860425787
 31
0.0
  0
LINE
  5
C6
  8
0
 62
     0
 10
769.20403752770005
 20
-247.1637031313
 30
0.0
 11
769.20403752770005
 21
-229.3860425787
 31
0.0
  0
LINE
  5
C7
  8
0
 62
     0
 10
792.70403752770005
 20
-229.8860425787
 30
0.0
 11
786.24570403539997
 21
-229.8860425787
 31
0.0
  0
LINE
  5
C8
  8
0
 62
     0
 10
792.70403752770005
 20
-229.8860425787
 30
0.0
 11
775.66237102000002
 21
-229.8860425787
 31
0.0
  0
LINE
  5
C9
  8
0
 62
     0
 10
769.20403752770005
 20
-229.8860425787
 30
0.0
 11
786.24570403539997
 21
-229.8860425787
 31
0.0
  0
LINE
  5
CA
  8
0
 62
     0
 10
769.20403752770005
 20
-229.8860425787
 30
0.0
 11
775.66237102000002
 21
-229.8860425787
 31
0.0
  0
LINE
  5
CB
  8
0
 62
     0
 10
769.20403752770005
 20
-229.8860425787
 30
0.0
 11
772.20403752770005
 21
-229.8860425787
 31
0.0
  0
SOLID
  5
CC
  8
0
 62
     0
 10
769.20403752770005
 20
-229.8860425787
 30
0.0
 11
772.20403752770005
 21
-229.1360425787
 31
0.0
 12
772.20403752770005
 22
-230.6360425787
 32
0.0
 13
771.45403752770005
 23
-229.8860425787
 33
0.0
  0
LINE
  5
CD
  8
0
 62
     0
 10
792.70403752770005
 20
-229.8860425787
 30
0.0
 11
789.70403752770005
 21
-229.8860425787
 31
0.0
  0
SOLID
  5
CE
  8
0
 62
     0
 10
792.70403752770005
 20
-229.8860425787
 30
0.0
 11
789.70403752770005
 21
-230.6360425787
 31
0.0
 12
789.70403752770005
 22
-229.1360425787
 32
0.0
 13
790.45403752770005
 23
-229.8860425787
 33
0.0
  0
ENDBLK
  5
CF
  8
0
  0
BLOCK
  8
0
  2
*D1
 70
     1
 10
0.0
 20
0.0
 30
0.0
  3
*D1
  1

  0
TEXT
  5
D4
  8
0
 62
     0
 10
749.42487087689994
 20
-250.54564736730001
 30
0.0
 40
2.9986110209999999
  1
3
 50
90.0
  0
LINE
  5
D5
  8
0
 62
     0
 10
760.45403771999997
 20
-248.1637029501
 30
0.0
 11
750.45403752770005
 21
-248.1637029501
 31
0.0
  0
LINE
  5
D6
  8
0
 62
     0
 10
759.95403752770005
 20
-251.1637029485
 30
0.0
 11
750.45403752770005
 21
-251.1637029485
 31
0.0
  0
LINE
  5
D7
  8
0
 62
     0
 10
750.95403752770005
 20
-248.1637029501
 30
0.0
 11
750.95403752770005
 21
-248.1637029501
 31
0.0
  0
LINE
  5
D8
  8
0
 62
     0
 10
750.95403752770005
 20
-248.1637029501
 30
0.0
 11
750.95403752770005
 21
-251.1637029485
 31
0.0
  0
LINE
  5
D9
  8
0
 62
     0
 10
750.95403752770005
 20
-251.1637029485
 30
0.0
 11
750.95403752770005
 21
-248.1637029501
 31
0.0
  0
LINE
  5
DA
  8
0
 62
     0
 10
750.95403752770005
 20
-251.1637029485
 30
0.0
 11
750.95403752770005
 21
-251.1637029485
 31
0.0
  0
LINE
  5
DB
  8
0
 62
     0
 10
750.95403752770005
 20
-251.1637029485
 30
0.0
 11
750.95403752770005
 21
-254.1637029485
 31
0.0
  0
SOLID
  5
DC
  8
0
 62
     0
 10
750.95403752770005
 20
-251.1637029485
 30
0.0
 11
751.70403752770005
 21
-254.1637029485
 31
0.0
 12
750.20403752770005
 22
-254.1637029485
 32
0.0
 13
750.95403752770005
 23
-253.4137029485
 33
0.0
  0
LINE
  5
DD
  8
0
 62
     0
 10
750.95403752770005
 20
-248.1637029501
 30
0.0
 11
750.95403752770005
 21
-245.1637029501
 31
0.0
  0
SOLID
  5
DE
  8
0
 62
     0
 10
750.95403752770005
 20
-248.1637029501
 30
0.0
 11
750.20403752770005
 21
-245.1637029501
 31
0.0
 12
751.70403752770005
 22
-245.1637029501
 32
0.0
 13
750.95403752770005
 23
-245.9137029501
 33
0.0
  0
ENDBLK
  5
DF
  8
0
  0
BLOCK
  8
0
  2
*D2
 70
     1
 10
0.0
 20
0.0
 30
0.0
  3
*D2
  1

  0
TEXT
  5
E3
  8
0
 62
     0
 10
809.42487087690006
 20
-248.4414806204
 30
0.0
 40
2.9986110209999999
  1
12.5
 50
90.0
  0
LINE
  5
E4
  8
0
 62
     0
 10
801.95403752769994
 20
-251.1637029485
 30
0.0
 11
811.45403752770005
 21
-251.1637029485
 31
0.0
  0
LINE
  5
E5
  8
0
 62
     0
 10
792.52987357710003
 20
-238.6637029485
 30
0.0
 11
811.45403752770005
 21
-238.6637029485
 31
0.0
  0
LINE
  5
E6
  8
0
 62
     0
 10
810.95403752770005
 20
-251.1637029485
 30
0.0
 11
810.95403752770005
 21
-239.6220364408
 31
0.0
  0
LINE
  5
E7
  8
0
 62
     0
 10
810.95403752770005
 20
-251.1637029485
 30
0.0
 11
810.95403752770005
 21
-250.20536945629999
 31
0.0
  0
LINE
  5
E8
  8
0
 62
     0
 10
810.95403752770005
 20
-238.6637029485
 30
0.0
 11
810.95403752770005
 21
-239.6220364408
 31
0.0
  0
LINE
  5
E9
  8
0
 62
     0
 10
810.95403752770005
 20
-238.6637029485
 30
0.0
 11
810.95403752770005
 21
-250.20536945629999
 31
0.0
  0
LINE
  5
EA
  8
0
 62
     0
 10
810.95403752770005
 20
-238.6637029485
 30
0.0
 11
810.95403752770005
 21
-235.6637029485
 31
0.0
  0
SOLID
  5
EB
  8
0
 62
     0
 10
810.95403752770005
 20
-238.6637029485
 30
0.0
 11
810.20403752770005
 21
-235.6637029485
 31
0.0
 12
811.70403752769994
 22
-235.6637029485
 32
0.0
 13
810.95403752770005
 23
-236.4137029485
 33
0.0
  0
LINE
  5
EC
  8
0
 62
     0
 10
810.95403752770005
 20
-251.1637029485
 30
0.0
 11
810.95403752770005
 21
-254.1637029485
 31
0.0
  0
SOLID
  5
ED
  8
0
 62
     0
 10
810.95403752770005
 20
-251.1637029485
 30
0.0
 11
811.70403752769994
 21
-254.1637029485
 31
0.0
 12
810.20403752770005
 22
-254.1637029485
 32
0.0
 13
810.95403752770005
 23
-253.4137029485
 33
0.0
  0
ENDBLK
  5
EE
  8
0
  0
BLOCK
  8
0
  2
*D3
 70
     1
 10
0.0
 20
0.0
 30
0.0
  3
*D3
  1

  0
TEXT
  5
F2
  8
0
 62
     0
 10
944.47843118280002
 20
-191.77799021019999
 30
0.0
 40
2.9986110209999999
  1
12.5
 50
90.0
  0
LINE
  5
F3
  8
0
 62
     0
 10
937.00759783360002
 20
-194.50021253829999
 30
0.0
 11
946.50759783360013
 21
-194.50021253829999
 31
0.0
  0
LINE
  5
F4
  8
0
 62
     0
 10
937.00759783360002
 20
-182.00021253829999
 30
0.0
 11
946.50759783360013
 21
-182.00021253829999
 31
0.0
  0
LINE
  5
F5
  8
0
 62
     0
 10
946.00759783360002
 20
-194.50021253829999
 30
0.0
 11
946.00759783360002
 21
-182.95854603059999
 31
0.0
  0
LINE
  5
F6
  8
0
 62
     0
 10
946.00759783360002
 20
-194.50021253829999
 30
0.0
 11
946.00759783360002
 21
-193.54187904610001
 31
0.0
  0
LINE
  5
F7
  8
0
 62
     0
 10
946.00759783360002
 20
-182.00021253829999
 30
0.0
 11
946.00759783360002
 21
-182.95854603059999
 31
0.0
  0
LINE
  5
F8
  8
0
 62
     0
 10
946.00759783360002
 20
-182.00021253829999
 30
0.0
 11
946.00759783360002
 21
-193.54187904610001
 31
0.0
  0
LINE
  5
F9
  8
0
 62
     0
 10
946.00759783360002
 20
-182.00021253829999
 30
0.0
 11
946.00759783360002
 21
-179.00021253829999
 31
0.0
  0
SOLID
  5
FA
  8
0
 62
     0
 10
946.00759783360002
 20
-182.00021253829999
 30
0.0
 11
945.25759783360002
 21
-179.00021253829999
 31
0.0
 12
946.75759783360002
 22
-179.00021253829999
 32
0.0
 13
946.00759783360002
 23
-179.75021253829999
 33
0.0
  0
LINE
  5
FB
  8
0
 62
     0
 10
946.00759783360002
 20
-194.50021253829999
 30
0.0
 11
946.00759783360002
 21
-197.50021253829999
 31
0.0
  0
SOLID
  5
FC
  8
0
 62
     0
 10
946.00759783360002
 20
-194.50021253829999
 30
0.0
 11
946.75759783360002
 21
-197.50021253829999
 31
0.0
 12
945.25759783360002
 22
-197.50021253829999
 32
0.0
 13
946.00759783360002
 23
-196.75021253829999
 33
0.0
  0
ENDBLK
  5
FD
  8
0
  0
BLOCK
  8
0
  2
*D4
 70
     1
 10
0.0
 20
0.0
 30
0.0
  3
*D4
  1

  0
TEXT
  5
101
  8
0
 62
     0
 10
921.22982016179992
 20
-170.47104588760001
 30
0.0
 40
2.9986110209999999
  1
22.5
  0
LINE
  5
102
  8
0
 62
     0
 10
936.00759783360002
 20
-181.00021253829999
 30
0.0
 11
936.00759783360002
 21
-171.50021253829999
 31
0.0
  0
LINE
  5
103
  8
0
 62
     0
 10
913.50759783360013
 20
-181.00021253829999
 30
0.0
 11
913.50759783360013
 21
-171.50021253829999
 31
0.0
  0
LINE
  5
104
  8
0
 62
     0
 10
936.00759783360002
 20
-172.00021253829999
 30
0.0
 11
930.04926434130005
 21
-172.00021253829999
 31
0.0
  0
LINE
  5
105
  8
0
 62
     0
 10
936.00759783360002
 20
-172.00021253829999
 30
0.0
 11
919.46593132589999
 21
-172.00021253829999
 31
0.0
  0
LINE
  5
106
  8
0
 62
     0
 10
913.50759783360013
 20
-172.00021253829999
 30
0.0
 11
930.04926434130005
 21
-172.00021253829999
 31
0.0
  0
LINE
  5
107
  8
0
 62
     0
 10
913.50759783360013
 20
-172.00021253829999
 30
0.0
 11
919.46593132589999
 21
-172.00021253829999
 31
0.0
  0
LINE
  5
108
  8
0
 62
     0
 10
913.50759783360013
 20
-172.00021253829999
 30
0.0
 11
916.50759783360002
 21
-172.00021253829999
 31
0.0
  0
SOLID
  5
109
  8
0
 62
     0
 10
913.50759783360013
 20
-172.00021253829999
 30
0.0
 11
916.50759783360002
 21
-171.25021253829999
 31
0.0
 12
916.50759783360002
 22
-172.75021253829999
 32
0.0
 13
915.75759783360002
 23
-172.00021253829999
 33
0.0
  0
LINE
  5
10A
  8
0
 62
     0
 10
936.00759783360002
 20
-172.00021253829999
 30
0.0
 11
933.0075978335999
 21
-172.00021253829999
 31
0.0
  0
SOLID
  5
10B
  8
0
 62
     0
 10
936.00759783360002
 20
-172.00021253829999
 30
0.0
 11
933.0075978335999
 21
-172.75021253829999
 31
0.0
 12
933.0075978335999
 22
-171.25021253829999
 32
0.0
 13
933.7575978335999
 23
-172.00021253829999
 33
0.0
  0
ENDBLK
  5
10C
  8
0
  0
BLOCK
  8
0
  2
*D5
 70
     1
 10
0.0
 20
0.0
 30
0.0
  3
*D5
  1

  0
TEXT
  5
110
  8
0
 62
     0
 10
863.63328312179976
 20
-227.1345362978
 30
0.0
 40
2.9986110209999999
  1
19
  0
LINE
  5
111
  8
0
 62
     0
 10
874.89717195769992
 20
-237.6637029485
 30
0.0
 11
874.89717195769992
 21
-228.1637029485
 31
0.0
  0
LINE
  5
112
  8
0
 62
     0
 10
855.89717195770004
 20
-237.6637029485
 30
0.0
 11
855.89717195770004
 21
-228.1637029485
 31
0.0
  0
LINE
  5
113
  8
0
 62
     0
 10
874.89717195769992
 20
-228.6637029485
 30
0.0
 11
868.92494962949991
 21
-228.6637029485
 31
0.0
  0
LINE
  5
114
  8
0
 62
     0
 10
874.89717195769992
 20
-228.6637029485
 30
0.0
 11
861.86939428589994
 21
-228.6637029485
 31
0.0
  0
LINE
  5
115
  8
0
 62
     0
 10
855.89717195770004
 20
-228.6637029485
 30
0.0
 11
868.92494962949991
 21
-228.6637029485
 31
0.0
  0
LINE
  5
116
  8
0
 62
     0
 10
855.89717195770004
 20
-228.6637029485
 30
0.0
 11
861.86939428589994
 21
-228.6637029485
 31
0.0
  0
LINE
  5
117
  8
0
 62
     0
 10
855.89717195770004
 20
-228.6637029485
 30
0.0
 11
858.89717195770015
 21
-228.6637029485
 31
0.0
  0
SOLID
  5
118
  8
0
 62
     0
 10
855.89717195770004
 20
-228.6637029485
 30
0.0
 11
858.89717195770015
 21
-227.9137029485
 31
0.0
 12
858.89717195770015
 22
-229.4137029485
 32
0.0
 13
858.14717195770015
 23
-228.6637029485
 33
0.0
  0
LINE
  5
119
  8
0
 62
     0
 10
874.89717195769992
 20
-228.6637029485
 30
0.0
 11
871.89717195770004
 21
-228.6637029485
 31
0.0
  0
SOLID
  5
11A
  8
0
 62
     0
 10
874.89717195769992
 20
-228.6637029485
 30
0.0
 11
871.89717195770004
 21
-229.4137029485
 31
0.0
 12
871.89717195770004
 22
-227.9137029485
 32
0.0
 13
872.64717195770004
 23
-228.6637029485
 33
0.0
  0
ENDBLK
  5
11B
  8
0
  0
BLOCK
  8
0
  2
*D6
 70
     1
 10
0.0
 20
0.0
 30
0.0
  3
*D6
  1

  0
TEXT
  5
11F
  8
0
 62
     0
 10
844.71259520789977
 20
-227.1345362978
 30
0.0
 40
2.9986110209999999
  1
(2)
  0
LINE
  5
120
  8
0
 62
     0
 10
855.89717195770004
 20
-237.6637029485
 30
0.0
 11
855.89717195770004
 21
-228.1637029485
 31
0.0
  0
LINE
  5
121
  8
0
 62
     0
 10
853.89717195770004
 20
-239.36370294849999
 30
0.0
 11
853.89717195770004
 21
-228.1637029485
 31
0.0
  0
LINE
  5
122
  8
0
 62
     0
 10
855.89717195770004
 20
-228.6637029485
 30
0.0
 11
851.76815055149996
 21
-228.6637029485
 31
0.0
  0
LINE
  5
123
  8
0
 62
     0
 10
855.89717195770004
 20
-228.6637029485
 30
0.0
 11
842.94870637199995
 21
-228.6637029485
 31
0.0
  0
LINE
  5
124
  8
0
 62
     0
 10
853.89717195770004
 20
-228.6637029485
 30
0.0
 11
851.76815055149996
 21
-228.6637029485
 31
0.0
  0
LINE
  5
125
  8
0
 62
     0
 10
853.89717195770004
 20
-228.6637029485
 30
0.0
 11
842.94870637199995
 21
-228.6637029485
 31
0.0
  0
LINE
  5
126
  8
0
 62
     0
 10
853.89717195770004
 20
-228.6637029485
 30
0.0
 11
850.89717195770015
 21
-228.6637029485
 31
0.0
  0
SOLID
  5
127
  8
0
 62
     0
 10
853.89717195770004
 20
-228.6637029485
 30
0.0
 11
850.89717195770015
 21
-229.4137029485
 31
0.0
 12
850.89717195770015
 22
-227.9137029485
 32
0.0
 13
851.64717195769992
 23
-228.6637029485
 33
0.0
  0
LINE
  5
128
  8
0
 62
     0
 10
855.89717195770004
 20
-228.6637029485
 30
0.0
 11
858.89717195770015
 21
-228.6637029485
 31
0.0
  0
SOLID
  5
129
  8
0
 62
     0
 10
855.89717195770004
 20
-228.6637029485
 30
0.0
 11
858.89717195770015
 21
-227.9137029485
 31
0.0
 12
858.89717195770015
 22
-229.4137029485
 32
0.0
 13
858.14717195770015
 23
-228.6637029485
 33
0.0
  0
ENDBLK
  5
12A
  8
0
  0
BLOCK
  8
0
  2
*D7
 70
     1
 10
0.0
 20
0.0
 30
0.0
  3
*D7
  1

  0
TEXT
  5
12E
  8
0
 62
     0
 10
779.19014869179989
 20
-263.23736636140001
 30
0.0
 40
2.9986110209999999
  1
40
  0
LINE
  5
12F
  8
0
 62
     0
 10
760.95403752770005
 20
-252.1637029485
 30
0.0
 11
760.95403752770005
 21
-265.2665330122
 31
0.0
  0
LINE
  5
130
  8
0
 62
     0
 10
800.95403752770005
 20
-252.1637029485
 30
0.0
 11
800.95403752770005
 21
-265.2665330122
 31
0.0
  0
LINE
  5
131
  8
0
 62
     0
 10
760.95403752770005
 20
-264.7665330122
 30
0.0
 11
784.48181519949992
 21
-264.7665330122
 31
0.0
  0
LINE
  5
132
  8
0
 62
     0
 10
760.95403752770005
 20
-264.7665330122
 30
0.0
 11
777.42625985589984
 21
-264.7665330122
 31
0.0
  0
LINE
  5
133
  8
0
 62
     0
 10
800.95403752770005
 20
-264.7665330122
 30
0.0
 11
784.48181519949992
 21
-264.7665330122
 31
0.0
  0
LINE
  5
134
  8
0
 62
     0
 10
800.95403752770005
 20
-264.7665330122
 30
0.0
 11
777.42625985589984
 21
-264.7665330122
 31
0.0
  0
LINE
  5
135
  8
0
 62
     0
 10
800.95403752770005
 20
-264.7665330122
 30
0.0
 11
797.95403752770005
 21
-264.7665330122
 31
0.0
  0
SOLID
  5
136
  8
0
 62
     0
 10
800.95403752770005
 20
-264.7665330122
 30
0.0
 11
797.95403752770005
 21
-265.5165330122
 31
0.0
 12
797.95403752770005
 22
-264.0165330122
 32
0.0
 13
798.70403752770005
 23
-264.7665330122
 33
0.0
  0
LINE
  5
137
  8
0
 62
     0
 10
760.95403752770005
 20
-264.7665330122
 30
0.0
 11
763.95403752770005
 21
-264.7665330122
 31
0.0
  0
SOLID
  5
138
  8
0
 62
     0
 10
760.95403752770005
 20
-264.7665330122
 30
0.0
 11
763.95403752770005
 21
-264.0165330122
 31
0.0
 12
763.95403752770005
 22
-265.5165330122
 32
0.0
 13
763.20403752770005
 23
-264.7665330122
 33
0.0
  0
ENDBLK
  5
139
  8
0
  0
BLOCK
  8
0
  2
*D8
 70
     1
 10
0.0
 20
0.0
 30
0.0
  3
*D8
  1

  0
TEXT
  5
164
  8
0
 62
     0
 10
811.30162551249998
 20
-192.67262256980001
 30
0.0
 40
2.9986110209999999
  1
8
 50
90.0
  0
LINE
  5
165
  8
0
 62
     0
 10
797.45403752770005
 20
-195.79067815179999
 30
0.0
 11
813.33079216329986
 21
-195.79067815179999
 31
0.0
  0
LINE
  5
166
  8
0
 62
     0
 10
797.45403752770005
 20
-187.79067815179999
 30
0.0
 11
813.33079216329986
 21
-187.79067815179999
 31
0.0
  0
LINE
  5
167
  8
0
 62
     0
 10
812.83079216329998
 20
-195.79067815179999
 30
0.0
 11
812.83079216329998
 21
-189.14484489789999
 31
0.0
  0
LINE
  5
168
  8
0
 62
     0
 10
812.83079216329998
 20
-195.79067815179999
 30
0.0
 11
812.83079216329998
 21
-194.4365114057
 31
0.0
  0
LINE
  5
169
  8
0
 62
     0
 10
812.83079216329998
 20
-187.79067815179999
 30
0.0
 11
812.83079216329998
 21
-189.14484489789999
 31
0.0
  0
LINE
  5
16A
  8
0
 62
     0
 10
812.83079216329998
 20
-187.79067815179999
 30
0.0
 11
812.83079216329998
 21
-194.4365114057
 31
0.0
  0
LINE
  5
16B
  8
0
 62
     0
 10
812.83079216329998
 20
-187.79067815179999
 30
0.0
 11
812.83079216329998
 21
-184.79067815179999
 31
0.0
  0
SOLID
  5
16C
  8
0
 62
     0
 10
812.83079216329998
 20
-187.79067815179999
 30
0.0
 11
812.08079216329998
 21
-184.79067815179999
 31
0.0
 12
813.58079216329986
 22
-184.79067815179999
 32
0.0
 13
812.83079216329998
 23
-185.54067815179999
 33
0.0
  0
LINE
  5
16D
  8
0
 62
     0
 10
812.83079216329998
 20
-195.79067815179999
 30
0.0
 11
812.83079216329998
 21
-198.79067815179999
 31
0.0
  0
SOLID
  5
16E
  8
0
 62
     0
 10
812.83079216329998
 20
-195.79067815179999
 30
0.0
 11
813.58079216329986
 21
-198.79067815179999
 31
0.0
 12
812.08079216329998
 22
-198.79067815179999
 32
0.0
 13
812.83079216329998
 23
-198.04067815179999
 33
0.0
  0
ENDBLK
  5
16F
  8
0
  0
BLOCK
  8
0
  2
*D9
 70
     1
 10
0.0
 20
0.0
 30
0.0
  3
*D9
  1

  0
TEXT
  5
173
  8
0
 62
     0
 10
801.57213985969986
 20
-176.38296083309999
 30
0.0
 40
2.9986110209999999
  1
3.5
  0
LINE
  5
174
  8
0
 62
     0
 10
798.20403752770005
 20
-188.5406777906
 30
0.0
 11
798.20403752770005
 21
-177.41212748379999
 31
0.0
  0
LINE
  5
175
  8
0
 62
     0
 10
794.70403752770005
 20
-188.54067789569999
 30
0.0
 11
794.70403752770005
 21
-177.41212748379999
 31
0.0
  0
LINE
  5
176
  8
0
 62
     0
 10
798.20403752770005
 20
-177.91212748379999
 30
0.0
 11
808.62769520329994
 21
-177.91212748379999
 31
0.0
  0
LINE
  5
177
  8
0
 62
     0
 10
798.20403752770005
 20
-177.91212748379999
 30
0.0
 11
799.80825102380004
 21
-177.91212748379999
 31
0.0
  0
LINE
  5
178
  8
0
 62
     0
 10
794.70403752770005
 20
-177.91212748379999
 30
0.0
 11
808.62769520329994
 21
-177.91212748379999
 31
0.0
  0
LINE
  5
179
  8
0
 62
     0
 10
794.70403752770005
 20
-177.91212748379999
 30
0.0
 11
799.80825102380004
 21
-177.91212748379999
 31
0.0
  0
LINE
  5
17A
  8
0
 62
     0
 10
794.70403752770005
 20
-177.91212748379999
 30
0.0
 11
791.70403752770005
 21
-177.91212748379999
 31
0.0
  0
SOLID
  5
17B
  8
0
 62
     0
 10
794.70403752770005
 20
-177.91212748379999
 30
0.0
 11
791.70403752770005
 21
-178.66212748379999
 31
0.0
 12
791.70403752770005
 22
-177.16212748379999
 32
0.0
 13
792.45403752770005
 23
-177.91212748379999
 33
0.0
  0
LINE
  5
17C
  8
0
 62
     0
 10
798.20403752770005
 20
-177.91212748379999
 30
0.0
 11
801.20403752770005
 21
-177.91212748379999
 31
0.0
  0
SOLID
  5
17D
  8
0
 62
     0
 10
798.20403752770005
 20
-177.91212748379999
 30
0.0
 11
801.20403752770005
 21
-177.16212748379999
 31
0.0
 12
801.20403752770005
 22
-178.66212748379999
 32
0.0
 13
800.45403752770005
 23
-177.91212748379999
 33
0.0
  0
ENDBLK
  5
17E
  8
0
  0
BLOCK
  8
0
  2
*D10
 70
     1
 10
0.0
 20
0.0
 30
0.0
  3
*D10
  1

  0
TEXT
  5
182
  8
0
 62
     0
 10
779.19014869179989
 20
-170.18770855299999
 30
0.0
 40
2.9986110209999999
  1
31
  0
LINE
  5
183
  8
0
 62
     0
 10
796.45403752770005
 20
-185.29067815179999
 30
0.0
 11
796.45403752770005
 21
-171.21687520379999
 31
0.0
  0
LINE
  5
184
  8
0
 62
     0
 10
765.45403752770005
 20
-185.29067815179999
 30
0.0
 11
765.45403752770005
 21
-171.21687520379999
 31
0.0
  0
LINE
  5
185
  8
0
 62
     0
 10
796.45403752770005
 20
-171.71687520379999
 30
0.0
 11
784.48181519949992
 21
-171.71687520379999
 31
0.0
  0
LINE
  5
186
  8
0
 62
     0
 10
796.45403752770005
 20
-171.71687520379999
 30
0.0
 11
777.42625985589984
 21
-171.71687520379999
 31
0.0
  0
LINE
  5
187
  8
0
 62
     0
 10
765.45403752770005
 20
-171.71687520379999
 30
0.0
 11
784.48181519949992
 21
-171.71687520379999
 31
0.0
  0
LINE
  5
188
  8
0
 62
     0
 10
765.45403752770005
 20
-171.71687520379999
 30
0.0
 11
777.42625985589984
 21
-171.71687520379999
 31
0.0
  0
LINE
  5
189
  8
0
 62
     0
 10
765.45403752770005
 20
-171.71687520379999
 30
0.0
 11
768.45403752770005
 21
-171.71687520379999
 31
0.0
  0
SOLID
  5
18A
  8
0
 62
     0
 10
765.45403752770005
 20
-171.71687520379999
 30
0.0
 11
768.45403752770005
 21
-170.96687520379999
 31
0.0
 12
768.45403752770005
 22
-172.46687520379999
 32
0.0
 13
767.70403752770005
 23
-171.71687520379999
 33
0.0
  0
LINE
  5
18B
  8
0
 62
     0
 10
796.45403752770005
 20
-171.71687520379999
 30
0.0
 11
793.45403752770005
 21
-171.71687520379999
 31
0.0
  0
SOLID
  5
18C
  8
0
 62
     0
 10
796.45403752770005
 20
-171.71687520379999
 30
0.0
 11
793.45403752770005
 21
-172.46687520379999
 31
0.0
 12
793.45403752770005
 22
-170.96687520379999
 32
0.0
 13
794.20403752770005
 23
-171.71687520379999
 33
0.0
  0
ENDBLK
  5
18D
  8
0
  0
BLOCK
  8
0
  2
*U11
 70
     1
 10
0.0
 20
0.0
 30
0.0
  3
*U11
  1

  0
TEXT
  5
1F5
  8
図枠
  6
CONTINUOUS
 10
903.90114759957487
 20
-305.95544607452638
 30
0.0
 40
2.337266249999999
  1
園 原
  0
ENDBLK
  5
1F7
  8
0
  0
BLOCK
  8
0
  2
*U12
 70
     1
 10
0.0
 20
0.0
 30
0.0
  3
*U12
  1

  0
TEXT
  5
1F9
  8
図枠
  6
CONTINUOUS
 10
903.90114759957487
 20
-301.70587107452639
 30
0.0
 40
2.337266249999999
  1
園 原
  0
ENDBLK
  5
1FB
  8
0
  0
BLOCK
  8
0
  2
*U13
 70
     1
 10
0.0
 20
0.0
 30
0.0
  3
*U13
  1

  0
TEXT
  5
1FD
  8
図枠
  6
CONTINUOUS
 10
873.19228985845825
 20
-301.7770568486381
 30
0.0
 40
2.337266249999999
  1
白須賀
  0
ENDBLK
  5
1FF
  8
0
  0
BLOCK
  8
0
  2
*U14
 70
     1
 10
0.0
 20
0.0
 30
0.0
  3
*U14
  1

  0
TEXT
  5
201
  8
図枠
  6
CONTINUOUS
 10
873.89228330388971
 20
-306.03849614432329
 30
0.0
 40
2.337266249999999
  1
岸 本
  0
ENDBLK
  5
203
  8
0
  0
BLOCK
  8
0
  2
*U15
 70
     1
 10
0.0
 20
0.0
 30
0.0
  3
*U15
  1

  0
TEXT
  5
205
  8
図枠
  6
CONTINUOUS
 10
885.62083748853456
 20
-297.39697459609999
 30
0.0
 40
2.337266249999999
  1
1：1
  0
ENDBLK
  5
207
  8
0
  0
BLOCK
  8
0
  2
*U16
 70
     1
 10
0.0
 20
0.0
 30
0.0
  3
*U16
  1

  0
TEXT
  5
209
  8
図枠
  6
CONTINUOUS
 10
864.69742242508255
 20
-297.39697459609999
 30
0.0
 40
2.337266249999999
  1
H16.4
  0
ENDBLK
  5
20B
  8
0
  0
BLOCK
  8
0
  2
*U17
 70
     1
 10
0.0
 20
0.0
 30
0.0
  3
*U17
  1

  0
TEXT
  5
20D
  8
ﾚｲﾔ_1
  6
CONTINUOUS
 10
921.07346557360006
 20
-283.71840415068527
 30
0.0
 40
3.5983331442000002
  1
本体ビス：3x13　＋　Ｗ付
  0
TEXT
  5
20E
  8
ﾚｲﾔ_1
  6
CONTINUOUS
 10
921.07346557360006
 20
-290.06267341677062
 30
0.0
 40
3.5983331442000002
  1
受板ビス：2.4x13
  0
ENDBLK
  5
210
  8
0
  0
BLOCK
  8
0
  2
*U18
 70
     1
 10
0.0
 20
0.0
 30
0.0
  3
*U18
  1

  0
TEXT
  5
212
  8
図枠
  6
CONTINUOUS
 10
941.11677326190454
 20
-304.1477625664142
 30
0.0
 40
2.9983111599000001
  1
４１ 承認図
  0
ENDBLK
  5
214
  8
0
  0
BLOCK
  8
0
  2
*U19
 70
     1
 10
0.0
 20
0.0
 30
0.0
  3
*U19
  1

  0
TEXT
  5
216
  8
図枠
  6
CONTINUOUS
 10
935.82787413466986
 20
-312.58603315200003
 30
0.0
 40
2.9983111599000001
  1
ＳＦＣ００００５
  0
ENDBLK
  5
218
  8
0
  0
BLOCK
  8
0
  2
*U20
 70
     1
 10
0.0
 20
0.0
 30
0.0
  3
*U20
  1

  0
TEXT
  5
21A
  8
図枠
  6
CONTINUOUS
 10
941.51248945559689
 20
-293.82984948752488
 30
0.0
 40
2.9983111599000001
  1
ねじ止め式
  0
TEXT
  5
21B
  8
図枠
  6
CONTINUOUS
 10
926.01867848717961
 20
-299.13143182609588
 30
0.0
 40
2.9983111599000001
  1
マグネットキャッチ〈角型〉
  0
ENDBLK
  5
21D
  8
0
  0
BLOCK
  8
0
  2
*U21
 70
     1
 10
0.0
 20
0.0
 30
0.0
  3
*U21
  1

  0
TEXT
  5
21F
  8
ﾚｲﾔ_1
  6
CONTINUOUS
 10
906.65615433239998
 20
-134.205923237804
 30
0.0
 40
2.6987499594999989
  1
材料板厚ｔ1.5からｔ1.6に変更
  0
ENDBLK
  5
221
  8
0
  0
BLOCK
  8
0
  2
*U22
 70
     1
 10
0.0
 20
0.0
 30
0.0
  3
*U22
  1

  0
TEXT
  5
223
  8
ﾚｲﾔ_1
  6
CONTINUOUS
 10
955.8186146498
 20
-134.21962247617711
 30
0.0
 40
2.6987499594999989
  1
岸本
  0
ENDBLK
  5
225
  8
0
  0
BLOCK
  8
0
  2
*U23
 70
     1
 10
0.0
 20
0.0
 30
0.0
  3
*U23
  1

  0
TEXT
  5
227
  8
ﾚｲﾔ_1
  6
CONTINUOUS
 10
889.60844283702284
 20
-134.0552316157
 30
0.0
 40
2.6987499594999989
  1
H16.12.10
  0
ENDBLK
  5
229
  8
0
  0
BLOCK
  8
0
  2
*U24
 70
     1
 10
0.0
 20
0.0
 30
0.0
  3
*U24
  1

  0
TEXT
  5
22B
  8
ﾚｲﾔ_1
  6
CONTINUOUS
 10
966.14697972919987
 20
-134.12372780756539
 30
0.0
 40
2.6987499594999989
  1
園原
  0
ENDBLK
  5
22D
  8
0
  0
BLOCK
  8
0
  2
*U25
 70
     1
 10
0.0
 20
0.0
 30
0.0
  3
*U25
  1

  0
TEXT
  5
22F
  8
図枠
  6
CONTINUOUS
 10
918.78433552787453
 20
-310.01137251621168
 30
0.0
 40
2.337266249999999
  1
図　番
  0
ENDBLK
  5
231
  8
0
  0
BLOCK
  8
0
  2
*U26
 70
     1
 10
0.0
 20
0.0
 30
0.0
  3
*U26
  1

  0
TEXT
  5
233
  8
図枠
  6
CONTINUOUS
 10
863.58217863066636
 20
-293.1948567788412
 30
0.0
 40
2.337266249999999
  1
日 　付
  0
ENDBLK
  5
235
  8
0
  0
BLOCK
  8
0
  2
*U27
 70
     1
 10
0.0
 20
0.0
 30
0.0
  3
*U27
  1

  0
TEXT
  5
237
  8
ﾚｲﾔ_1
  6
CONTINUOUS
 10
858.48189278539996
 20
-288.01192377710362
 30
0.0
 40
3.5983331442000002
  1
色：白・黒・茶
  0
ENDBLK
  5
239
  8
0
  0
BLOCK
  8
0
  2
*U28
 70
     1
 10
0.0
 20
0.0
 30
0.0
  3
*U28
  1

  0
TEXT
  5
23B
  8
図枠
  6
CONTINUOUS
 10
918.79619982355985
 20
-301.53595110758232
 30
0.0
 40
2.337266249999999
  1
図面名
  0
ENDBLK
  5
23D
  8
0
  0
BLOCK
  8
0
  2
*U29
 70
     1
 10
0.0
 20
0.0
 30
0.0
  3
*U29
  1

  0
TEXT
  5
23F
  8
図枠
  6
CONTINUOUS
 10
888.50979348789986
 20
-301.75332825726753
 30
0.0
 40
2.337266249999999
  1
 照査
  0
ENDBLK
  5
241
  8
0
  0
BLOCK
  8
0
  2
*U30
 70
     1
 10
0.0
 20
0.0
 30
0.0
  3
*U30
  1

  0
TEXT
  5
243
  8
図枠
  6
CONTINUOUS
 10
862.73292515729997
 20
-313.38811536630658
 30
0.0
 40
4.3175681352000002
  1
株式会社
  0
ENDBLK
  5
245
  8
0
  0
BLOCK
  8
0
  2
*U31
 70
     1
 10
0.0
 20
0.0
 30
0.0
  3
*U31
  1

  0
TEXT
  5
247
  8
図枠
  6
CONTINUOUS
 10
888.50979348789986
 20
-306.02663184863809
 30
0.0
 40
2.337266249999999
  1
 検図
  0
ENDBLK
  5
249
  8
0
  0
BLOCK
  8
0
  2
*U32
 70
     1
 10
0.0
 20
0.0
 30
0.0
  3
*U32
  1

  0
TEXT
  5
24B
  8
図枠
  6
CONTINUOUS
 10
918.73094619729079
 20
-293.06052969895268
 30
0.0
 40
2.337266249999999
  1
製品名
  0
ENDBLK
  5
24D
  8
0
  0
BLOCK
  8
0
  2
*U33
 70
     1
 10
0.0
 20
0.0
 30
0.0
  3
*U33
  1

  0
TEXT
  5
24F
  8
図枠
  6
CONTINUOUS
 10
964.46087789858007
 20
-129.38518562954161
 30
0.0
 40
2.698480084499999
  1
検認者
  0
ENDBLK
  5
251
  8
0
  0
BLOCK
  8
0
  2
*U34
 70
     1
 10
0.0
 20
0.0
 30
0.0
  3
*U34
  1

  0
TEXT
  5
253
  8
図枠
  6
CONTINUOUS
 10
954.50297150392782
 20
-129.37148776109231
 30
0.0
 40
2.698480084499999
  1
改訂者
  0
ENDBLK
  5
255
  8
0
  0
BLOCK
  8
0
  2
*U35
 70
     1
 10
0.0
 20
0.0
 30
0.0
  3
*U35
  1

  0
TEXT
  5
257
  8
図枠
  6
CONTINUOUS
 10
881.13366891516273
 20
-129.3166962872954
 30
0.0
 40
2.698480084499999
  1
副番
  0
ENDBLK
  5
259
  8
0
  0
BLOCK
  8
0
  2
*U36
 70
     1
 10
0.0
 20
0.0
 30
0.0
  3
*U36
  1

  0
TEXT
  5
25B
  8
図枠
  6
CONTINUOUS
 10
891.36544388521088
 20
-129.34409202419391
 30
0.0
 40
2.698480084499999
  1
改訂日
  0
ENDBLK
  5
25D
  8
0
  0
BLOCK
  8
0
  2
*U37
 70
     1
 10
0.0
 20
0.0
 30
0.0
  3
*U37
  1

  0
TEXT
  5
25F
  8
図枠
  6
CONTINUOUS
 10
917.43787138412074
 20
-129.37148776109231
 30
0.0
 40
2.698480084499999
  1
改　訂　内　容
  0
ENDBLK
  5
261
  8
0
  0
BLOCK
  8
0
  2
*U38
 70
     1
 10
0.0
 20
0.0
 30
0.0
  3
*U38
  1

  0
TEXT
  5
263
  8
図枠
  6
CONTINUOUS
 10
858.5127934878999
 20
-301.74146396158233
 30
0.0
 40
2.337266249999999
  1
 設計
  0
ENDBLK
  5
265
  8
0
  0
BLOCK
  8
0
  2
*U39
 70
     1
 10
0.0
 20
0.0
 30
0.0
  3
*U39
  1

  0
TEXT
  5
267
  8
図枠
  6
CONTINUOUS
 10
859.91411273282358
 20
-306.01476755295278
 30
0.0
 40
2.337266249999999
  1
製図
  0
ENDBLK
  5
269
  8
0
  0
BLOCK
  8
0
  2
*U40
 70
     1
 10
0.0
 20
0.0
 30
0.0
  3
*U40
  1

  0
TEXT
  5
26B
  8
図枠
  6
CONTINUOUS
 10
883.33102842127551
 20
-293.2660425529528
 30
0.0
 40
2.337266249999999
  1
尺 　度
  0
ENDBLK
  5
26D
  8
0
  0
BLOCK
  8
0
  2
*U41
 70
     1
 10
0.0
 20
0.0
 30
0.0
  3
*U41
  1

  0
TEXT
  5
26F
  8
ﾚｲﾔ_1
  6
CONTINUOUS
 10
946.38603439639985
 20
-170.1724730082812
 30
0.0
 40
2.9986110209999999
  1
皿ビス用皿穴
  0
ENDBLK
  5
271
  8
0
  0
BLOCK
  8
0
  2
*U42
 70
     1
 10
0.0
 20
0.0
 30
0.0
  3
*U42
  1

  0
TEXT
  5
273
  8
ﾚｲﾔ_1
  6
CONTINUOUS
 10
954.25759783360002
 20
-181.6694952215
 30
0.0
 40
2.9986110209999999
  1
ｔ1.6
  0
ENDBLK
  5
275
  8
0
  0
BLOCK
  8
0
  2
*U43
 70
     1
 10
0.0
 20
0.0
 30
0.0
  3
*U43
  1

  0
TEXT
  5
277
  8
ﾚｲﾔ_1
  6
CONTINUOUS
 10
969.22125365149839
 20
-187.8801472083999
 30
0.0
 40
2.4876473521999989
  1
1
  0
ENDBLK
  5
279
  8
0
  0
BLOCK
  8
0
  2
*U44
 70
     1
 10
0.0
 20
0.0
 30
0.0
  3
*U44
  1

  0
TEXT
  5
27B
  8
ﾚｲﾔ_1
  6
CONTINUOUS
 10
884.57598404779833
 20
-134.62766010350001
 30
0.0
 40
2.4876473521999989
  1
1
  0
ENDBLK
  5
27D
  8
0
  0
BLOCK
  8
0
  2
*U45
 70
     1
 10
0.0
 20
0.0
 30
0.0
  3
*U45
  1

  0
TEXT
  5
27F
  8
ﾚｲﾔ_1
  6
CONTINUOUS
 10
900.67124444169986
 20
-163.68417062285229
 30
0.0
 40
2.9986110209999999
  1
受板ｘ1
  0
ENDBLK
  5
281
  8
0
  0
BLOCK
  8
0
  2
*U46
 70
     1
 10
0.0
 20
0.0
 30
0.0
  3
*U46
  1

  0
TEXT
  5
283
  8
ﾚｲﾔ_1
  6
CONTINUOUS
 10
954.25759783360002
 20
-187.4609946839
 30
0.0
 40
2.9986110209999999
  1
ｔ1.5
  0
ENDBLK
  5
285
  8
0
  0
ENDSEC
  0
SECTION
  2
ENTITIES
  0
LINE
  5
2F
  8
図枠
  6
DOT
 10
693.52929348789985
 20
-321.3515454921
 30
0.0
 11
980.50059348789978
 21
-321.3515454921
 31
0.0
  0
LINE
  5
30
  8
図枠
 62
     5
 10
699.52869348789989
 20
-125.6211204921
 30
0.0
 11
974.50119348789997
 21
-125.6211204921
 31
0.0
  0
LINE
  5
31
  8
図枠
  6
DOT
 10
693.52929348789985
 20
-119.8716954921
 30
0.0
 11
980.50059348789978
 21
-119.8716954921
 31
0.0
  0
INSERT
  5
32
  8
0
  6
CONTINUOUS
  2
*U11
 10
0.0
 20
0.0
 30
0.0
  0
INSERT
  5
33
  8
0
  6
CONTINUOUS
  2
*U12
 10
0.0
 20
0.0
 30
0.0
  0
INSERT
  5
34
  8
0
  6
CONTINUOUS
  2
*U13
 10
0.0
 20
0.0
 30
0.0
  0
INSERT
  5
35
  8
0
  6
CONTINUOUS
  2
*U14
 10
0.0
 20
0.0
 30
0.0
  0
INSERT
  5
36
  8
0
  6
CONTINUOUS
  2
*U15
 10
0.0
 20
0.0
 30
0.0
  0
INSERT
  5
37
  8
0
  6
CONTINUOUS
  2
*U16
 10
0.0
 20
0.0
 30
0.0
  0
INSERT
  5
39
  8
0
  6
CONTINUOUS
  2
*U17
 10
0.0
 20
0.0
 30
0.0
  0
CIRCLE
  5
3A
  8
ﾚｲﾔ_1
 62
     5
 10
957.15262858159997
 20
-281.84874858199998
 30
0.0
 40
2.5
  0
INSERT
  5
3B
  8
0
  6
CONTINUOUS
  2
*U18
 10
0.0
 20
0.0
 30
0.0
  0
INSERT
  5
3C
  8
0
  6
CONTINUOUS
  2
*U19
 10
0.0
 20
0.0
 30
0.0
  0
INSERT
  5
3D
  8
0
  6
CONTINUOUS
  2
*U20
 10
0.0
 20
0.0
 30
0.0
  0
INSERT
  5
3E
  8
0
  6
CONTINUOUS
  2
*U21
 10
0.0
 20
0.0
 30
0.0
  0
INSERT
  5
3F
  8
0
  6
CONTINUOUS
  2
*U22
 10
0.0
 20
0.0
 30
0.0
  0
INSERT
  5
40
  8
0
  6
CONTINUOUS
  2
*U23
 10
0.0
 20
0.0
 30
0.0
  0
INSERT
  5
41
  8
0
  6
CONTINUOUS
  2
*U24
 10
0.0
 20
0.0
 30
0.0
  0
LINE
  5
42
  8
図枠
 10
909.83814125100014
 20
-295.50613029210001
 30
0.0
 11
914.44568045099993
 21
-296.65801509210002
 31
0.0
  0
LINE
  5
43
  8
図枠
 10
907.60755585380014
 20
-309.8345589324
 30
0.0
 11
907.60755585380014
 21
-311.27441493240002
 31
0.0
  0
INSERT
  5
44
  8
0
  6
CONTINUOUS
  2
*U25
 10
0.0
 20
0.0
 30
0.0
  0
LINE
  5
45
  8
図枠
 10
895.30631513369997
 20
-311.6743749324001
 30
0.0
 11
895.30631513369997
 21
-311.27441493240002
 31
0.0
  0
LINE
  5
46
  8
図枠
 10
878.51079348789995
 20
-290.10467049210001
 30
0.0
 11
878.51079348789995
 21
-298.6038204921
 31
0.0
  0
LINE
  5
47
  8
図枠
 10
911.87190086149997
 20
-309.8345589324
 30
0.0
 11
911.75479717279995
 21
-309.42761651839999
 31
0.0
  0
LINE
  5
48
  8
図枠
 10
914.44568045099993
 20
-292.0504758921
 30
0.0
 11
914.44568045099993
 21
-296.65801509210002
 31
0.0
  0
LINE
  5
49
  8
図枠
 10
909.83814125100014
 20
-293.2023606921
 30
0.0
 11
914.44568045099993
 21
-292.0504758921
 31
0.0
  0
LINE
  5
4A
  8
図枠
 10
909.83814125100014
 20
-293.2023606921
 30
0.0
 11
909.83814125100014
 21
-295.50613029210001
 31
0.0
  0
LINE
  5
4B
  8
図枠
 10
909.83814125100014
 20
-293.2023606921
 30
0.0
 11
914.44568045099993
 21
-292.0504758921
 31
0.0
  0
LINE
  5
4C
  8
図枠
  6
DOT
 10
980.50059348789978
 20
-321.3515454921
 30
0.0
 11
980.50059348789978
 21
-119.8716954921
 31
0.0
  0
LINE
  5
4D
  8
図枠
 10
912.28624068670001
 20
-311.27441493240002
 30
0.0
 11
914.80683585380007
 21
-311.27441493240002
 31
0.0
  0
LINE
  5
4E
  8
図枠
 10
909.83814125100014
 20
-293.2023606921
 30
0.0
 11
909.83814125100014
 21
-295.50613029210001
 31
0.0
  0
LINE
  5
4F
  8
図枠
 10
907.60755585380014
 20
-311.9143509324
 30
0.0
 11
907.60755585380014
 21
-313.35420693240002
 31
0.0
  0
LINE
  5
50
  8
図枠
 10
909.83814125100014
 20
-293.2023606921
 30
0.0
 11
909.83814125100014
 21
-295.50613029210001
 31
0.0
  0
LINE
  5
51
  8
図枠
 10
858.5127934878999
 20
-290.10467049210001
 30
0.0
 11
974.50119348789997
 21
-290.10467049210001
 31
0.0
  0
LINE
  5
52
  8
図枠
 10
893.3065151336998
 20
-310.07453493240001
 30
0.0
 11
891.70667513369995
 21
-310.07453493240001
 31
0.0
  0
LINE
  5
53
  8
図枠
 10
909.83814125100014
 20
-293.2023606921
 30
0.0
 11
914.44568045099993
 21
-292.0504758921
 31
0.0
  0
LINE
  5
54
  8
図枠
 10
911.87190086149997
 20
-309.8345589324
 30
0.0
 11
914.80683585380007
 21
-309.8345589324
 31
0.0
  0
LINE
  5
55
  8
図枠
 10
909.60628929380005
 20
-309.8345589324
 30
0.0
 11
909.20739585379999
 21
-308.47469493239998
 31
0.0
  0
LINE
  5
56
  8
図枠
 10
907.60755585380014
 20
-311.27441493240002
 30
0.0
 11
910.0286470538
 21
-311.27441493240002
 31
0.0
  0
LINE
  5
57
  8
図枠
 10
909.20739585379999
 20
-308.47469493239998
 30
0.0
 11
912.40707585380005
 21
-308.47469493239998
 31
0.0
  0
LINE
  5
58
  8
図枠
 10
913.20699585379998
 20
-314.47409493240002
 30
0.0
 11
912.88473154530004
 21
-313.35420693240002
 31
0.0
  0
LINE
  5
59
  8
図枠
 62
     5
 10
974.50119348789997
 20
-315.60212049210003
 30
0.0
 11
974.50119348789997
 21
-125.6211204921
 31
0.0
  0
LINE
  5
5A
  8
図枠
  6
DOT
 10
693.53229318789988
 20
-321.3515454921
 30
0.0
 11
693.53229318789988
 21
-119.8716954921
 31
0.0
  0
LINE
  5
5B
  8
図枠
 62
     5
 10
699.52869348789989
 20
-315.60212049210003
 30
0.0
 11
699.52869348789989
 21
-125.6211204921
 31
0.0
  0
LINE
  5
5C
  8
図枠
 62
     5
 10
699.52869348789989
 20
-315.60212049210003
 30
0.0
 11
974.50119348789997
 21
-315.60212049210003
 31
0.0
  0
LINE
  5
5D
  8
図枠
 10
889.70687513369978
 20
-311.27441493240002
 30
0.0
 11
889.70687513369978
 21
-312.47429493240003
 31
0.0
  0
ARC
  5
5E
  8
図枠
 10
900.63426713369995
 20
-309.67457493239999
 30
0.0
 40
4.3995600000000001
 50
270.0
 51
302.54495885400001
  0
LINE
  5
5F
  8
図枠
 10
860.51259348789995
 20
-294.35424549210001
 30
0.0
 11
876.5109934878999
 21
-294.35424549210001
 31
0.0
  0
INSERT
  5
60
  8
0
  6
CONTINUOUS
  2
*U26
 10
0.0
 20
0.0
 30
0.0
  0
LINE
  5
61
  8
図枠
 10
901.83414713369984
 20
-310.33219737759998
 30
0.0
 11
901.38164404859992
 21
-310.78470046270002
 31
0.0
  0
CIRCLE
  5
62
  8
図枠
 10
904.57218708789992
 20
-294.35424549210001
 30
0.0
 40
1.151884799999999
  0
LINE
  5
63
  8
図枠
 10
914.44568045099993
 20
-292.0504758921
 30
0.0
 11
914.44568045099993
 21
-296.65801509210002
 31
0.0
  0
LINE
  5
64
  8
図枠
 10
907.60755585380014
 20
-311.9143509324
 30
0.0
 11
910.21636161380002
 21
-311.9143509324
 31
0.0
  0
INSERT
  5
65
  8
0
  6
CONTINUOUS
  2
*U27
 10
0.0
 20
0.0
 30
0.0
  0
LINE
  5
66
  8
図枠
 10
914.44568045099993
 20
-292.0504758921
 30
0.0
 11
914.44568045099993
 21
-296.65801509210002
 31
0.0
  0
LINE
  5
67
  8
図枠
 10
895.30631513369997
 20
-311.27441493240002
 30
0.0
 11
896.50619513369998
 21
-311.27441493240002
 31
0.0
  0
LINE
  5
68
  8
図枠
 10
909.83814125100014
 20
-293.2023606921
 30
0.0
 11
914.44568045099993
 21
-292.0504758921
 31
0.0
  0
LINE
  5
69
  8
図枠
 10
912.47039172009988
 20
-311.9143509324
 30
0.0
 11
914.80683585380007
 21
-311.9143509324
 31
0.0
  0
LINE
  5
6A
  8
図枠
 10
907.60755585380014
 20
-309.8345589324
 30
0.0
 11
909.60628929380005
 21
-309.8345589324
 31
0.0
  0
LINE
  5
6B
  8
図枠
 10
914.80683585380007
 20
-309.8345589324
 30
0.0
 11
914.80683585380007
 21
-311.27441493240002
 31
0.0
  0
LINE
  5
6C
  8
図枠
 10
912.88473154530004
 20
-313.35420693240002
 30
0.0
 11
914.80683585380007
 21
-313.35420693240002
 31
0.0
  0
LINE
  5
6D
  8
図枠
 10
909.83814125100014
 20
-295.50613029210001
 30
0.0
 11
914.44568045099993
 21
-296.65801509210002
 31
0.0
  0
LINE
  5
6E
  8
図枠
 10
910.96721985380009
 20
-314.47409493240002
 30
0.0
 11
910.63871937380009
 21
-313.35420693240002
 31
0.0
  0
LINE
  5
6F
  8
図枠
 10
912.47039172009988
 20
-311.9143509324
 30
0.0
 11
912.28624068670001
 21
-311.27441493240002
 31
0.0
  0
LINE
  5
70
  8
図枠
 10
888.78608417279986
 20
-310.07453493240001
 30
0.0
 11
888.78608417279986
 21
-311.27441493240002
 31
0.0
  0
LINE
  5
71
  8
図枠
 10
889.70687513369978
 20
-310.07453493240001
 30
0.0
 11
888.78608417279986
 21
-310.07453493240001
 31
0.0
  0
LINE
  5
72
  8
図枠
 10
918.50679348789993
 20
-290.10467049210001
 30
0.0
 11
918.50679348789993
 21
-315.60212049210003
 31
0.0
  0
LINE
  5
73
  8
図枠
 10
909.83814125100014
 20
-295.50613029210001
 30
0.0
 11
914.44568045099993
 21
-296.65801509210002
 31
0.0
  0
LINE
  5
74
  8
図枠
 10
909.83814125100014
 20
-295.50613029210001
 30
0.0
 11
914.44568045099993
 21
-296.65801509210002
 31
0.0
  0
INSERT
  5
75
  8
0
  6
CONTINUOUS
  2
*U28
 10
0.0
 20
0.0
 30
0.0
  0
LINE
  5
76
  8
図枠
 10
889.70687513369978
 20
-311.27441493240002
 30
0.0
 11
889.5860041727999
 21
-311.27441493240002
 31
0.0
  0
LINE
  5
77
  8
図枠
 10
895.30631513369997
 20
-310.07453493240001
 30
0.0
 11
895.30631513369997
 21
-309.67457493239999
 31
0.0
  0
LINE
  5
78
  8
図枠
 10
909.83814125100014
 20
-293.2023606921
 30
0.0
 11
909.83814125100014
 21
-295.50613029210001
 31
0.0
  0
LINE
  5
79
  8
図枠
 10
910.21636161380002
 20
-311.9143509324
 30
0.0
 11
910.0286470538
 21
-311.27441493240002
 31
0.0
  0
LINE
  5
7A
  8
図枠
 10
898.50879348789988
 20
-290.10467049210001
 30
0.0
 11
898.50879348789988
 21
-298.6038204921
 31
0.0
  0
INSERT
  5
7B
  8
0
  6
CONTINUOUS
  2
*U29
 10
0.0
 20
0.0
 30
0.0
  0
LINE
  5
7C
  8
図枠
 10
898.6344671336999
 20
-308.47469493239998
 30
0.0
 11
898.6344671336999
 21
-309.9145509324
 31
0.0
  0
ARC
  5
7D
  8
図枠
 10
892.10663513370002
 20
-311.6743749324001
 30
0.0
 40
1.1998799999999989
 50
270.0
 51
0.0
  0
LINE
  5
7E
  8
図枠
 10
907.60755585380014
 20
-313.35420693240002
 30
0.0
 11
910.63871937380009
 21
-313.35420693240002
 31
0.0
  0
CIRCLE
  5
7F
  8
図枠
 10
904.57218708789992
 20
-294.35424549210001
 30
0.0
 40
1.151884799999999
  0
CIRCLE
  5
80
  8
図枠
 10
904.57218708789992
 20
-294.35424549210001
 30
0.0
 40
2.303769599999999
  0
ARC
  5
81
  8
図枠
 10
899.59437113369995
 20
-309.8345589324
 30
0.0
 40
3.0396959999999988
 50
331.39928138329998
 51
358.49204224580001
  0
LINE
  5
82
  8
図枠
 10
891.70667513369995
 20
-310.07453493240001
 30
0.0
 11
891.70667513369995
 21
-309.67457493239999
 31
0.0
  0
LINE
  5
83
  8
図枠
 10
896.50619513369998
 20
-308.47469493239998
 30
0.0
 11
893.3065151336998
 21
-308.47469493239998
 31
0.0
  0
LINE
  5
84
  8
図枠
 10
858.5127934878999
 20
-290.10467049210001
 30
0.0
 11
858.5127934878999
 21
-315.60212049210003
 31
0.0
  0
LINE
  5
85
  8
図枠
 10
889.70687513369978
 20
-312.47429493240003
 30
0.0
 11
891.70667513369995
 21
-312.47429493240003
 31
0.0
  0
LINE
  5
86
  8
図枠
 10
898.6344671336999
 20
-312.87425493239999
 30
0.0
 11
899.59437113369995
 21
-312.87425493239999
 31
0.0
  0
LINE
  5
87
  8
図枠
 10
889.70687513369978
 20
-314.0741349324
 30
0.0
 11
892.90655513369995
 21
-314.0741349324
 31
0.0
  0
LINE
  5
88
  8
図枠
 10
910.96721985380009
 20
-314.47409493240002
 30
0.0
 11
913.20699585379998
 21
-314.47409493240002
 31
0.0
  0
ARC
  5
89
  8
図枠
 10
899.59437113369995
 20
-309.8345589324
 30
0.0
 40
3.0396959999999988
 50
270.0
 51
298.08590481520002
  0
LINE
  5
8A
  8
図枠
 10
858.5127934878999
 20
-298.6038204921
 30
0.0
 11
974.50119348789997
 21
-298.6038204921
 31
0.0
  0
LINE
  5
8B
  8
図枠
 10
914.80683585380007
 20
-311.9143509324
 30
0.0
 11
914.80683585380007
 21
-313.35420693240002
 31
0.0
  0
LINE
  5
8C
  8
図枠
 10
896.50619513369998
 20
-310.07453493240001
 30
0.0
 11
896.50619513369998
 21
-311.27441493240002
 31
0.0
  0
LINE
  5
8D
  8
図枠
 10
896.50619513369998
 20
-310.07453493240001
 30
0.0
 11
895.30631513369997
 21
-310.07453493240001
 31
0.0
  0
LINE
  5
8E
  8
図枠
 10
889.70687513369978
 20
-308.47469493239998
 30
0.0
 11
889.70687513369978
 21
-310.07453493240001
 31
0.0
  0
LINE
  5
8F
  8
図枠
 10
895.30631513369997
 20
-309.67457493239999
 30
0.0
 11
896.50619513369998
 21
-308.47469493239998
 31
0.0
  0
CIRCLE
  5
90
  8
図枠
 10
904.57218708789992
 20
-294.35424549210001
 30
0.0
 40
2.303769599999999
  0
CIRCLE
  5
91
  8
図枠
 10
904.57218708789992
 20
-294.35424549210001
 30
0.0
 40
1.151884799999999
  0
LINE
  5
92
  8
図枠
 10
893.3065151336998
 20
-311.27441493240002
 30
0.0
 11
893.3065151336998
 21
-311.6743749324001
 31
0.0
  0
LINE
  5
93
  8
図枠
 10
892.10663513370002
 20
-312.87425493239999
 30
0.0
 11
889.70687513369978
 21
-312.87425493239999
 31
0.0
  0
ARC
  5
94
  8
図枠
 10
900.63426713369995
 20
-309.67457493239999
 30
0.0
 40
4.3995600000000001
 50
322.48761197969998
 51
0.0
  0
CIRCLE
  5
95
  8
図枠
 10
904.57218708789992
 20
-294.35424549210001
 30
0.0
 40
1.151884799999999
  0
LINE
  5
96
  8
図枠
  6
BORDER
 10
904.57218708789992
 20
-290.89859109209999
 30
0.0
 11
904.57218708789992
 21
-297.80989989210002
 31
0.0
  0
LINE
  5
97
  8
図枠
 10
911.75479717279995
 20
-309.42761651839999
 30
0.0
 11
912.40707585380005
 21
-308.47469493239998
 31
0.0
  0
POLYLINE
  8
図枠
  5
286
  66
     1
 10
0.000000
 20
0.000000
 30
0.000000
  70
     8
  0
VERTEX
  8
図枠
  5
287
 10
903.982
 20
-312.493
 30
0.000000
  70
    32
  0
VERTEX
  8
図枠
  5
288
 10
903.996
 20
-312.497
 30
0.000000
  70
    32
  0
VERTEX
  8
図枠
  5
289
 10
904.010
 20
-312.501
 30
0.000000
  70
    32
  0
VERTEX
  8
図枠
  5
28A
 10
904.024
 20
-312.505
 30
0.000000
  70
    32
  0
VERTEX
  8
図枠
  5
28B
 10
904.038
 20
-312.509
 30
0.000000
  70
    32
  0
VERTEX
  8
図枠
  5
28C
 10
904.052
 20
-312.513
 30
0.000000
  70
    32
  0
VERTEX
  8
図枠
  5
28D
 10
904.066
 20
-312.517
 30
0.000000
  70
    32
  0
VERTEX
  8
図枠
  5
28E
 10
904.080
 20
-312.520
 30
0.000000
  70
    32
  0
VERTEX
  8
図枠
  5
28F
 10
904.094
 20
-312.524
 30
0.000000
  70
    32
  0
VERTEX
  8
図枠
  5
290
 10
904.108
 20
-312.528
 30
0.000000
  70
    32
  0
VERTEX
  8
図枠
  5
291
 10
904.122
 20
-312.532
 30
0.000000
  70
    32
  0
VERTEX
  8
図枠
  5
292
 10
904.136
 20
-312.535
 30
0.000000
  70
    32
  0
VERTEX
  8
図枠
  5
293
 10
904.150
 20
-312.539
 30
0.000000
  70
    32
  0
VERTEX
  8
図枠
  5
294
 10
904.165
 20
-312.543
 30
0.000000
  70
    32
  0
VERTEX
  8
図枠
  5
295
 10
904.179
 20
-312.547
 30
0.000000
  70
    32
  0
VERTEX
  8
図枠
  5
296
 10
904.193
 20
-312.550
 30
0.000000
  70
    32
  0
VERTEX
  8
図枠
  5
297
 10
904.207
 20
-312.554
 30
0.000000
  70
    32
  0
VERTEX
  8
図枠
  5
298
 10
904.221
 20
-312.558
 30
0.000000
  70
    32
  0
VERTEX
  8
図枠
  5
299
 10
904.235
 20
-312.561
 30
0.000000
  70
    32
  0
VERTEX
  8
図枠
  5
29A
 10
904.250
 20
-312.565
 30
0.000000
  70
    32
  0
VERTEX
  8
図枠
  5
29B
 10
904.264
 20
-312.568
 30
0.000000
  70
    32
  0
VERTEX
  8
図枠
  5
29C
 10
904.278
 20
-312.572
 30
0.000000
  70
    32
  0
VERTEX
  8
図枠
  5
29D
 10
904.292
 20
-312.575
 30
0.000000
  70
    32
  0
VERTEX
  8
図枠
  5
29E
 10
904.307
 20
-312.579
 30
0.000000
  70
    32
  0
VERTEX
  8
図枠
  5
29F
 10
904.321
 20
-312.582
 30
0.000000
  70
    32
  0
VERTEX
  8
図枠
  5
2A0
 10
904.335
 20
-312.586
 30
0.000000
  70
    32
  0
VERTEX
  8
図枠
  5
2A1
 10
904.350
 20
-312.589
 30
0.000000
  70
    32
  0
VERTEX
  8
図枠
  5
2A2
 10
904.364
 20
-312.593
 30
0.000000
  70
    32
  0
VERTEX
  8
図枠
  5
2A3
 10
904.378
 20
-312.596
 30
0.000000
  70
    32
  0
VERTEX
  8
図枠
  5
2A4
 10
904.393
 20
-312.599
 30
0.000000
  70
    32
  0
VERTEX
  8
図枠
  5
2A5
 10
904.407
 20
-312.603
 30
0.000000
  70
    32
  0
VERTEX
  8
図枠
  5
2A6
 10
904.421
 20
-312.606
 30
0.000000
  70
    32
  0
VERTEX
  8
図枠
  5
2A7
 10
904.436
 20
-312.610
 30
0.000000
  70
    32
  0
VERTEX
  8
図枠
  5
2A8
 10
904.450
 20
-312.613
 30
0.000000
  70
    32
  0
VERTEX
  8
図枠
  5
2A9
 10
904.464
 20
-312.616
 30
0.000000
  70
    32
  0
VERTEX
  8
図枠
  5
2AA
 10
904.479
 20
-312.619
 30
0.000000
  70
    32
  0
VERTEX
  8
図枠
  5
2AB
 10
904.493
 20
-312.623
 30
0.000000
  70
    32
  0
VERTEX
  8
図枠
  5
2AC
 10
904.508
 20
-312.626
 30
0.000000
  70
    32
  0
VERTEX
  8
図枠
  5
2AD
 10
904.522
 20
-312.629
 30
0.000000
  70
    32
  0
VERTEX
  8
図枠
  5
2AE
 10
904.537
 20
-312.632
 30
0.000000
  70
    32
  0
VERTEX
  8
図枠
  5
2AF
 10
904.551
 20
-312.636
 30
0.000000
  70
    32
  0
VERTEX
  8
図枠
  5
2B0
 10
904.565
 20
-312.639
 30
0.000000
  70
    32
  0
VERTEX
  8
図枠
  5
2B1
 10
904.580
 20
-312.642
 30
0.000000
  70
    32
  0
VERTEX
  8
図枠
  5
2B2
 10
904.594
 20
-312.645
 30
0.000000
  70
    32
  0
VERTEX
  8
図枠
  5
2B3
 10
904.609
 20
-312.648
 30
0.000000
  70
    32
  0
VERTEX
  8
図枠
  5
2B4
 10
904.623
 20
-312.651
 30
0.000000
  70
    32
  0
VERTEX
  8
図枠
  5
2B5
 10
904.638
 20
-312.655
 30
0.000000
  70
    32
  0
VERTEX
  8
図枠
  5
2B6
 10
904.652
 20
-312.658
 30
0.000000
  70
    32
  0
VERTEX
  8
図枠
  5
2B7
 10
904.667
 20
-312.661
 30
0.000000
  70
    32
  0
VERTEX
  8
図枠
  5
2B8
 10
904.682
 20
-312.664
 30
0.000000
  70
    32
  0
VERTEX
  8
図枠
  5
2B9
 10
904.696
 20
-312.667
 30
0.000000
  70
    32
  0
VERTEX
  8
図枠
  5
2BA
 10
904.711
 20
-312.670
 30
0.000000
  70
    32
  0
VERTEX
  8
図枠
  5
2BB
 10
904.725
 20
-312.673
 30
0.000000
  70
    32
  0
VERTEX
  8
図枠
  5
2BC
 10
904.740
 20
-312.676
 30
0.000000
  70
    32
  0
VERTEX
  8
図枠
  5
2BD
 10
904.754
 20
-312.679
 30
0.000000
  70
    32
  0
VERTEX
  8
図枠
  5
2BE
 10
904.769
 20
-312.682
 30
0.000000
  70
    32
  0
VERTEX
  8
図枠
  5
2BF
 10
904.784
 20
-312.685
 30
0.000000
  70
    32
  0
VERTEX
  8
図枠
  5
2C0
 10
904.798
 20
-312.688
 30
0.000000
  70
    32
  0
VERTEX
  8
図枠
  5
2C1
 10
904.813
 20
-312.691
 30
0.000000
  70
    32
  0
VERTEX
  8
図枠
  5
2C2
 10
904.827
 20
-312.694
 30
0.000000
  70
    32
  0
VERTEX
  8
図枠
  5
2C3
 10
904.842
 20
-312.697
 30
0.000000
  70
    32
  0
VERTEX
  8
図枠
  5
2C4
 10
904.857
 20
-312.700
 30
0.000000
  70
    32
  0
VERTEX
  8
図枠
  5
2C5
 10
904.871
 20
-312.703
 30
0.000000
  70
    32
  0
VERTEX
  8
図枠
  5
2C6
 10
904.886
 20
-312.705
 30
0.000000
  70
    32
  0
VERTEX
  8
図枠
  5
2C7
 10
904.901
 20
-312.708
 30
0.000000
  70
    32
  0
VERTEX
  8
図枠
  5
2C8
 10
904.915
 20
-312.711
 30
0.000000
  70
    32
  0
VERTEX
  8
図枠
  5
2C9
 10
904.930
 20
-312.714
 30
0.000000
  70
    32
  0
VERTEX
  8
図枠
  5
2CA
 10
904.945
 20
-312.717
 30
0.000000
  70
    32
  0
VERTEX
  8
図枠
  5
2CB
 10
904.959
 20
-312.720
 30
0.000000
  70
    32
  0
VERTEX
  8
図枠
  5
2CC
 10
904.974
 20
-312.723
 30
0.000000
  70
    32
  0
VERTEX
  8
図枠
  5
2CD
 10
904.989
 20
-312.725
 30
0.000000
  70
    32
  0
VERTEX
  8
図枠
  5
2CE
 10
905.003
 20
-312.728
 30
0.000000
  70
    32
  0
VERTEX
  8
図枠
  5
2CF
 10
905.018
 20
-312.731
 30
0.000000
  70
    32
  0
VERTEX
  8
図枠
  5
2D0
 10
905.033
 20
-312.734
 30
0.000000
  70
    32
  0
VERTEX
  8
図枠
  5
2D1
 10
905.048
 20
-312.737
 30
0.000000
  70
    32
  0
VERTEX
  8
図枠
  5
2D2
 10
905.062
 20
-312.739
 30
0.000000
  70
    32
  0
VERTEX
  8
図枠
  5
2D3
 10
905.077
 20
-312.742
 30
0.000000
  70
    32
  0
VERTEX
  8
図枠
  5
2D4
 10
905.092
 20
-312.745
 30
0.000000
  70
    32
  0
VERTEX
  8
図枠
  5
2D5
 10
905.107
 20
-312.748
 30
0.000000
  70
    32
  0
VERTEX
  8
図枠
  5
2D6
 10
905.121
 20
-312.750
 30
0.000000
  70
    32
  0
VERTEX
  8
図枠
  5
2D7
 10
905.136
 20
-312.753
 30
0.000000
  70
    32
  0
VERTEX
  8
図枠
  5
2D8
 10
905.151
 20
-312.756
 30
0.000000
  70
    32
  0
VERTEX
  8
図枠
  5
2D9
 10
905.166
 20
-312.758
 30
0.000000
  70
    32
  0
VERTEX
  8
図枠
  5
2DA
 10
905.180
 20
-312.761
 30
0.000000
  70
    32
  0
VERTEX
  8
図枠
  5
2DB
 10
905.195
 20
-312.764
 30
0.000000
  70
    32
  0
VERTEX
  8
図枠
  5
2DC
 10
905.210
 20
-312.766
 30
0.000000
  70
    32
  0
VERTEX
  8
図枠
  5
2DD
 10
905.225
 20
-312.769
 30
0.000000
  70
    32
  0
VERTEX
  8
図枠
  5
2DE
 10
905.239
 20
-312.772
 30
0.000000
  70
    32
  0
VERTEX
  8
図枠
  5
2DF
 10
905.254
 20
-312.774
 30
0.000000
  70
    32
  0
VERTEX
  8
図枠
  5
2E0
 10
905.269
 20
-312.777
 30
0.000000
  70
    32
  0
VERTEX
  8
図枠
  5
2E1
 10
905.284
 20
-312.780
 30
0.000000
  70
    32
  0
VERTEX
  8
図枠
  5
2E2
 10
905.299
 20
-312.782
 30
0.000000
  70
    32
  0
VERTEX
  8
図枠
  5
2E3
 10
905.314
 20
-312.785
 30
0.000000
  70
    32
  0
VERTEX
  8
図枠
  5
2E4
 10
905.328
 20
-312.788
 30
0.000000
  70
    32
  0
VERTEX
  8
図枠
  5
2E5
 10
905.343
 20
-312.790
 30
0.000000
  70
    32
  0
VERTEX
  8
図枠
  5
2E6
 10
905.358
 20
-312.793
 30
0.000000
  70
    32
  0
VERTEX
  8
図枠
  5
2E7
 10
905.373
 20
-312.795
 30
0.000000
  70
    32
  0
VERTEX
  8
図枠
  5
2E8
 10
905.388
 20
-312.798
 30
0.000000
  70
    32
  0
VERTEX
  8
図枠
  5
2E9
 10
905.403
 20
-312.801
 30
0.000000
  70
    32
  0
VERTEX
  8
図枠
  5
2EA
 10
905.417
 20
-312.803
 30
0.000000
  70
    32
  0
VERTEX
  8
図枠
  5
2EB
 10
905.432
 20
-312.806
 30
0.000000
  70
    32
  0
VERTEX
  8
図枠
  5
2EC
 10
905.447
 20
-312.808
 30
0.000000
  70
    32
  0
VERTEX
  8
図枠
  5
2ED
 10
905.462
 20
-312.811
 30
0.000000
  70
    32
  0
VERTEX
  8
図枠
  5
2EE
 10
905.477
 20
-312.813
 30
0.000000
  70
    32
  0
VERTEX
  8
図枠
  5
2EF
 10
905.492
 20
-312.816
 30
0.000000
  70
    32
  0
VERTEX
  8
図枠
  5
2F0
 10
905.506
 20
-312.819
 30
0.000000
  70
    32
  0
VERTEX
  8
図枠
  5
2F1
 10
905.521
 20
-312.821
 30
0.000000
  70
    32
  0
VERTEX
  8
図枠
  5
2F2
 10
905.536
 20
-312.824
 30
0.000000
  70
    32
  0
VERTEX
  8
図枠
  5
2F3
 10
905.551
 20
-312.826
 30
0.000000
  70
    32
  0
VERTEX
  8
図枠
  5
2F4
 10
905.566
 20
-312.829
 30
0.000000
  70
    32
  0
VERTEX
  8
図枠
  5
2F5
 10
905.581
 20
-312.831
 30
0.000000
  70
    32
  0
VERTEX
  8
図枠
  5
2F6
 10
905.596
 20
-312.834
 30
0.000000
  70
    32
  0
VERTEX
  8
図枠
  5
2F7
 10
905.611
 20
-312.836
 30
0.000000
  70
    32
  0
VERTEX
  8
図枠
  5
2F8
 10
905.625
 20
-312.839
 30
0.000000
  70
    32
  0
VERTEX
  8
図枠
  5
2F9
 10
905.640
 20
-312.842
 30
0.000000
  70
    32
  0
VERTEX
  8
図枠
  5
2FA
 10
905.655
 20
-312.844
 30
0.000000
  70
    32
  0
VERTEX
  8
図枠
  5
2FB
 10
905.670
 20
-312.847
 30
0.000000
  70
    32
  0
VERTEX
  8
図枠
  5
2FC
 10
905.685
 20
-312.849
 30
0.000000
  70
    32
  0
VERTEX
  8
図枠
  5
2FD
 10
905.700
 20
-312.852
 30
0.000000
  70
    32
  0
VERTEX
  8
図枠
  5
2FE
 10
905.715
 20
-312.854
 30
0.000000
  70
    32
  0
VERTEX
  8
図枠
  5
2FF
 10
905.730
 20
-312.857
 30
0.000000
  70
    32
  0
VERTEX
  8
図枠
  5
300
 10
905.744
 20
-312.859
 30
0.000000
  70
    32
  0
VERTEX
  8
図枠
  5
301
 10
905.759
 20
-312.862
 30
0.000000
  70
    32
  0
VERTEX
  8
図枠
  5
302
 10
905.774
 20
-312.864
 30
0.000000
  70
    32
  0
VERTEX
  8
図枠
  5
303
 10
905.789
 20
-312.867
 30
0.000000
  70
    32
  0
VERTEX
  8
図枠
  5
304
 10
905.804
 20
-312.869
 30
0.000000
  70
    32
  0
VERTEX
  8
図枠
  5
305
 10
905.819
 20
-312.872
 30
0.000000
  70
    32
  0
VERTEX
  8
図枠
  5
306
 10
905.834
 20
-312.874
 30
0.000000
  70
    32
  0
SEQEND
  8
図枠
  5
307
  0
LINE
  5
99
  8
図枠
 10
905.0338271336999
 20
-309.67457493239999
 30
0.0
 11
905.83374713369994
 21
-308.47469493239998
 31
0.0
  0
CIRCLE
  5
9A
  8
図枠
 10
904.57218708789992
 20
-294.35424549210001
 30
0.0
 40
2.303769599999999
  0
LINE
  5
9B
  8
図枠
  6
BORDER
 10
904.57218708789992
 20
-290.89859109209999
 30
0.0
 11
904.57218708789992
 21
-297.80989989210002
 31
0.0
  0
INSERT
  5
9C
  8
0
  6
CONTINUOUS
  2
*U30
 10
0.0
 20
0.0
 30
0.0
  0
POLYLINE
  8
図枠
  5
308
  66
     1
 10
0.000000
 20
0.000000
 30
0.000000
  70
     8
  0
VERTEX
  8
図枠
  5
309
 10
898.634
 20
-310.590
 30
0.000000
  70
    32
  0
VERTEX
  8
図枠
  5
30A
 10
898.649
 20
-310.603
 30
0.000000
  70
    32
  0
VERTEX
  8
図枠
  5
30B
 10
898.663
 20
-310.616
 30
0.000000
  70
    32
  0
VERTEX
  8
図枠
  5
30C
 10
898.678
 20
-310.630
 30
0.000000
  70
    32
  0
VERTEX
  8
図枠
  5
30D
 10
898.692
 20
-310.643
 30
0.000000
  70
    32
  0
VERTEX
  8
図枠
  5
30E
 10
898.707
 20
-310.656
 30
0.000000
  70
    32
  0
VERTEX
  8
図枠
  5
30F
 10
898.721
 20
-310.670
 30
0.000000
  70
    32
  0
VERTEX
  8
図枠
  5
310
 10
898.735
 20
-310.683
 30
0.000000
  70
    32
  0
VERTEX
  8
図枠
  5
311
 10
898.750
 20
-310.696
 30
0.000000
  70
    32
  0
VERTEX
  8
図枠
  5
312
 10
898.764
 20
-310.709
 30
0.000000
  70
    32
  0
VERTEX
  8
図枠
  5
313
 10
898.779
 20
-310.723
 30
0.000000
  70
    32
  0
VERTEX
  8
図枠
  5
314
 10
898.793
 20
-310.736
 30
0.000000
  70
    32
  0
VERTEX
  8
図枠
  5
315
 10
898.807
 20
-310.749
 30
0.000000
  70
    32
  0
VERTEX
  8
図枠
  5
316
 10
898.822
 20
-310.762
 30
0.000000
  70
    32
  0
VERTEX
  8
図枠
  5
317
 10
898.836
 20
-310.776
 30
0.000000
  70
    32
  0
VERTEX
  8
図枠
  5
318
 10
898.851
 20
-310.789
 30
0.000000
  70
    32
  0
VERTEX
  8
図枠
  5
319
 10
898.865
 20
-310.802
 30
0.000000
  70
    32
  0
VERTEX
  8
図枠
  5
31A
 10
898.880
 20
-310.815
 30
0.000000
  70
    32
  0
VERTEX
  8
図枠
  5
31B
 10
898.894
 20
-310.829
 30
0.000000
  70
    32
  0
VERTEX
  8
図枠
  5
31C
 10
898.908
 20
-310.842
 30
0.000000
  70
    32
  0
VERTEX
  8
図枠
  5
31D
 10
898.923
 20
-310.855
 30
0.000000
  70
    32
  0
VERTEX
  8
図枠
  5
31E
 10
898.937
 20
-310.868
 30
0.000000
  70
    32
  0
VERTEX
  8
図枠
  5
31F
 10
898.952
 20
-310.882
 30
0.000000
  70
    32
  0
VERTEX
  8
図枠
  5
320
 10
898.966
 20
-310.895
 30
0.000000
  70
    32
  0
VERTEX
  8
図枠
  5
321
 10
898.981
 20
-310.908
 30
0.000000
  70
    32
  0
VERTEX
  8
図枠
  5
322
 10
898.995
 20
-310.921
 30
0.000000
  70
    32
  0
VERTEX
  8
図枠
  5
323
 10
899.010
 20
-310.934
 30
0.000000
  70
    32
  0
VERTEX
  8
図枠
  5
324
 10
899.024
 20
-310.948
 30
0.000000
  70
    32
  0
VERTEX
  8
図枠
  5
325
 10
899.038
 20
-310.961
 30
0.000000
  70
    32
  0
VERTEX
  8
図枠
  5
326
 10
899.053
 20
-310.974
 30
0.000000
  70
    32
  0
VERTEX
  8
図枠
  5
327
 10
899.067
 20
-310.987
 30
0.000000
  70
    32
  0
VERTEX
  8
図枠
  5
328
 10
899.082
 20
-311.000
 30
0.000000
  70
    32
  0
VERTEX
  8
図枠
  5
329
 10
899.096
 20
-311.013
 30
0.000000
  70
    32
  0
VERTEX
  8
図枠
  5
32A
 10
899.111
 20
-311.026
 30
0.000000
  70
    32
  0
VERTEX
  8
図枠
  5
32B
 10
899.125
 20
-311.040
 30
0.000000
  70
    32
  0
VERTEX
  8
図枠
  5
32C
 10
899.140
 20
-311.053
 30
0.000000
  70
    32
  0
VERTEX
  8
図枠
  5
32D
 10
899.154
 20
-311.066
 30
0.000000
  70
    32
  0
VERTEX
  8
図枠
  5
32E
 10
899.169
 20
-311.079
 30
0.000000
  70
    32
  0
VERTEX
  8
図枠
  5
32F
 10
899.183
 20
-311.092
 30
0.000000
  70
    32
  0
VERTEX
  8
図枠
  5
330
 10
899.198
 20
-311.105
 30
0.000000
  70
    32
  0
VERTEX
  8
図枠
  5
331
 10
899.212
 20
-311.118
 30
0.000000
  70
    32
  0
VERTEX
  8
図枠
  5
332
 10
899.227
 20
-311.131
 30
0.000000
  70
    32
  0
VERTEX
  8
図枠
  5
333
 10
899.241
 20
-311.144
 30
0.000000
  70
    32
  0
VERTEX
  8
図枠
  5
334
 10
899.256
 20
-311.157
 30
0.000000
  70
    32
  0
VERTEX
  8
図枠
  5
335
 10
899.271
 20
-311.170
 30
0.000000
  70
    32
  0
VERTEX
  8
図枠
  5
336
 10
899.285
 20
-311.183
 30
0.000000
  70
    32
  0
VERTEX
  8
図枠
  5
337
 10
899.300
 20
-311.196
 30
0.000000
  70
    32
  0
VERTEX
  8
図枠
  5
338
 10
899.314
 20
-311.209
 30
0.000000
  70
    32
  0
VERTEX
  8
図枠
  5
339
 10
899.329
 20
-311.222
 30
0.000000
  70
    32
  0
VERTEX
  8
図枠
  5
33A
 10
899.343
 20
-311.235
 30
0.000000
  70
    32
  0
VERTEX
  8
図枠
  5
33B
 10
899.358
 20
-311.248
 30
0.000000
  70
    32
  0
VERTEX
  8
図枠
  5
33C
 10
899.373
 20
-311.261
 30
0.000000
  70
    32
  0
VERTEX
  8
図枠
  5
33D
 10
899.387
 20
-311.274
 30
0.000000
  70
    32
  0
VERTEX
  8
図枠
  5
33E
 10
899.402
 20
-311.287
 30
0.000000
  70
    32
  0
VERTEX
  8
図枠
  5
33F
 10
899.416
 20
-311.300
 30
0.000000
  70
    32
  0
VERTEX
  8
図枠
  5
340
 10
899.431
 20
-311.313
 30
0.000000
  70
    32
  0
VERTEX
  8
図枠
  5
341
 10
899.446
 20
-311.325
 30
0.000000
  70
    32
  0
VERTEX
  8
図枠
  5
342
 10
899.460
 20
-311.338
 30
0.000000
  70
    32
  0
VERTEX
  8
図枠
  5
343
 10
899.475
 20
-311.351
 30
0.000000
  70
    32
  0
VERTEX
  8
図枠
  5
344
 10
899.490
 20
-311.364
 30
0.000000
  70
    32
  0
VERTEX
  8
図枠
  5
345
 10
899.504
 20
-311.377
 30
0.000000
  70
    32
  0
VERTEX
  8
図枠
  5
346
 10
899.519
 20
-311.390
 30
0.000000
  70
    32
  0
VERTEX
  8
図枠
  5
347
 10
899.534
 20
-311.402
 30
0.000000
  70
    32
  0
VERTEX
  8
図枠
  5
348
 10
899.548
 20
-311.415
 30
0.000000
  70
    32
  0
VERTEX
  8
図枠
  5
349
 10
899.563
 20
-311.428
 30
0.000000
  70
    32
  0
VERTEX
  8
図枠
  5
34A
 10
899.578
 20
-311.440
 30
0.000000
  70
    32
  0
VERTEX
  8
図枠
  5
34B
 10
899.593
 20
-311.453
 30
0.000000
  70
    32
  0
VERTEX
  8
図枠
  5
34C
 10
899.607
 20
-311.466
 30
0.000000
  70
    32
  0
VERTEX
  8
図枠
  5
34D
 10
899.622
 20
-311.478
 30
0.000000
  70
    32
  0
VERTEX
  8
図枠
  5
34E
 10
899.637
 20
-311.491
 30
0.000000
  70
    32
  0
VERTEX
  8
図枠
  5
34F
 10
899.652
 20
-311.504
 30
0.000000
  70
    32
  0
VERTEX
  8
図枠
  5
350
 10
899.666
 20
-311.516
 30
0.000000
  70
    32
  0
VERTEX
  8
図枠
  5
351
 10
899.681
 20
-311.529
 30
0.000000
  70
    32
  0
VERTEX
  8
図枠
  5
352
 10
899.696
 20
-311.541
 30
0.000000
  70
    32
  0
VERTEX
  8
図枠
  5
353
 10
899.711
 20
-311.554
 30
0.000000
  70
    32
  0
VERTEX
  8
図枠
  5
354
 10
899.726
 20
-311.566
 30
0.000000
  70
    32
  0
VERTEX
  8
図枠
  5
355
 10
899.740
 20
-311.579
 30
0.000000
  70
    32
  0
VERTEX
  8
図枠
  5
356
 10
899.755
 20
-311.591
 30
0.000000
  70
    32
  0
VERTEX
  8
図枠
  5
357
 10
899.770
 20
-311.604
 30
0.000000
  70
    32
  0
VERTEX
  8
図枠
  5
358
 10
899.785
 20
-311.616
 30
0.000000
  70
    32
  0
VERTEX
  8
図枠
  5
359
 10
899.800
 20
-311.629
 30
0.000000
  70
    32
  0
VERTEX
  8
図枠
  5
35A
 10
899.815
 20
-311.641
 30
0.000000
  70
    32
  0
VERTEX
  8
図枠
  5
35B
 10
899.830
 20
-311.653
 30
0.000000
  70
    32
  0
VERTEX
  8
図枠
  5
35C
 10
899.845
 20
-311.666
 30
0.000000
  70
    32
  0
VERTEX
  8
図枠
  5
35D
 10
899.859
 20
-311.678
 30
0.000000
  70
    32
  0
VERTEX
  8
図枠
  5
35E
 10
899.874
 20
-311.690
 30
0.000000
  70
    32
  0
VERTEX
  8
図枠
  5
35F
 10
899.889
 20
-311.703
 30
0.000000
  70
    32
  0
VERTEX
  8
図枠
  5
360
 10
899.904
 20
-311.715
 30
0.000000
  70
    32
  0
VERTEX
  8
図枠
  5
361
 10
899.919
 20
-311.727
 30
0.000000
  70
    32
  0
VERTEX
  8
図枠
  5
362
 10
899.934
 20
-311.739
 30
0.000000
  70
    32
  0
VERTEX
  8
図枠
  5
363
 10
899.949
 20
-311.752
 30
0.000000
  70
    32
  0
VERTEX
  8
図枠
  5
364
 10
899.964
 20
-311.764
 30
0.000000
  70
    32
  0
VERTEX
  8
図枠
  5
365
 10
899.979
 20
-311.776
 30
0.000000
  70
    32
  0
VERTEX
  8
図枠
  5
366
 10
899.994
 20
-311.788
 30
0.000000
  70
    32
  0
VERTEX
  8
図枠
  5
367
 10
900.009
 20
-311.800
 30
0.000000
  70
    32
  0
VERTEX
  8
図枠
  5
368
 10
900.025
 20
-311.812
 30
0.000000
  70
    32
  0
VERTEX
  8
図枠
  5
369
 10
900.040
 20
-311.824
 30
0.000000
  70
    32
  0
VERTEX
  8
図枠
  5
36A
 10
900.055
 20
-311.836
 30
0.000000
  70
    32
  0
VERTEX
  8
図枠
  5
36B
 10
900.070
 20
-311.848
 30
0.000000
  70
    32
  0
VERTEX
  8
図枠
  5
36C
 10
900.085
 20
-311.860
 30
0.000000
  70
    32
  0
VERTEX
  8
図枠
  5
36D
 10
900.100
 20
-311.872
 30
0.000000
  70
    32
  0
VERTEX
  8
図枠
  5
36E
 10
900.115
 20
-311.884
 30
0.000000
  70
    32
  0
VERTEX
  8
図枠
  5
36F
 10
900.130
 20
-311.896
 30
0.000000
  70
    32
  0
VERTEX
  8
図枠
  5
370
 10
900.146
 20
-311.907
 30
0.000000
  70
    32
  0
VERTEX
  8
図枠
  5
371
 10
900.161
 20
-311.919
 30
0.000000
  70
    32
  0
VERTEX
  8
図枠
  5
372
 10
900.176
 20
-311.931
 30
0.000000
  70
    32
  0
VERTEX
  8
図枠
  5
373
 10
900.191
 20
-311.943
 30
0.000000
  70
    32
  0
VERTEX
  8
図枠
  5
374
 10
900.207
 20
-311.954
 30
0.000000
  70
    32
  0
VERTEX
  8
図枠
  5
375
 10
900.222
 20
-311.966
 30
0.000000
  70
    32
  0
VERTEX
  8
図枠
  5
376
 10
900.237
 20
-311.978
 30
0.000000
  70
    32
  0
VERTEX
  8
図枠
  5
377
 10
900.252
 20
-311.989
 30
0.000000
  70
    32
  0
VERTEX
  8
図枠
  5
378
 10
900.268
 20
-312.001
 30
0.000000
  70
    32
  0
VERTEX
  8
図枠
  5
379
 10
900.283
 20
-312.013
 30
0.000000
  70
    32
  0
VERTEX
  8
図枠
  5
37A
 10
900.298
 20
-312.024
 30
0.000000
  70
    32
  0
VERTEX
  8
図枠
  5
37B
 10
900.314
 20
-312.036
 30
0.000000
  70
    32
  0
VERTEX
  8
図枠
  5
37C
 10
900.329
 20
-312.047
 30
0.000000
  70
    32
  0
VERTEX
  8
図枠
  5
37D
 10
900.345
 20
-312.059
 30
0.000000
  70
    32
  0
VERTEX
  8
図枠
  5
37E
 10
900.360
 20
-312.070
 30
0.000000
  70
    32
  0
VERTEX
  8
図枠
  5
37F
 10
900.376
 20
-312.081
 30
0.000000
  70
    32
  0
VERTEX
  8
図枠
  5
380
 10
900.391
 20
-312.093
 30
0.000000
  70
    32
  0
VERTEX
  8
図枠
  5
381
 10
900.406
 20
-312.104
 30
0.000000
  70
    32
  0
VERTEX
  8
図枠
  5
382
 10
900.422
 20
-312.115
 30
0.000000
  70
    32
  0
VERTEX
  8
図枠
  5
383
 10
900.437
 20
-312.126
 30
0.000000
  70
    32
  0
VERTEX
  8
図枠
  5
384
 10
900.453
 20
-312.138
 30
0.000000
  70
    32
  0
VERTEX
  8
図枠
  5
385
 10
900.469
 20
-312.149
 30
0.000000
  70
    32
  0
VERTEX
  8
図枠
  5
386
 10
900.484
 20
-312.160
 30
0.000000
  70
    32
  0
VERTEX
  8
図枠
  5
387
 10
900.500
 20
-312.171
 30
0.000000
  70
    32
  0
VERTEX
  8
図枠
  5
388
 10
900.515
 20
-312.182
 30
0.000000
  70
    32
  0
VERTEX
  8
図枠
  5
389
 10
900.531
 20
-312.193
 30
0.000000
  70
    32
  0
VERTEX
  8
図枠
  5
38A
 10
900.547
 20
-312.204
 30
0.000000
  70
    32
  0
VERTEX
  8
図枠
  5
38B
 10
900.562
 20
-312.215
 30
0.000000
  70
    32
  0
VERTEX
  8
図枠
  5
38C
 10
900.578
 20
-312.226
 30
0.000000
  70
    32
  0
VERTEX
  8
図枠
  5
38D
 10
900.594
 20
-312.237
 30
0.000000
  70
    32
  0
VERTEX
  8
図枠
  5
38E
 10
900.609
 20
-312.248
 30
0.000000
  70
    32
  0
VERTEX
  8
図枠
  5
38F
 10
900.625
 20
-312.259
 30
0.000000
  70
    32
  0
VERTEX
  8
図枠
  5
390
 10
900.641
 20
-312.269
 30
0.000000
  70
    32
  0
VERTEX
  8
図枠
  5
391
 10
900.657
 20
-312.280
 30
0.000000
  70
    32
  0
VERTEX
  8
図枠
  5
392
 10
900.672
 20
-312.291
 30
0.000000
  70
    32
  0
VERTEX
  8
図枠
  5
393
 10
900.688
 20
-312.302
 30
0.000000
  70
    32
  0
VERTEX
  8
図枠
  5
394
 10
900.704
 20
-312.312
 30
0.000000
  70
    32
  0
VERTEX
  8
図枠
  5
395
 10
900.720
 20
-312.323
 30
0.000000
  70
    32
  0
VERTEX
  8
図枠
  5
396
 10
900.736
 20
-312.333
 30
0.000000
  70
    32
  0
VERTEX
  8
図枠
  5
397
 10
900.752
 20
-312.344
 30
0.000000
  70
    32
  0
VERTEX
  8
図枠
  5
398
 10
900.768
 20
-312.354
 30
0.000000
  70
    32
  0
VERTEX
  8
図枠
  5
399
 10
900.784
 20
-312.365
 30
0.000000
  70
    32
  0
VERTEX
  8
図枠
  5
39A
 10
900.800
 20
-312.375
 30
0.000000
  70
    32
  0
VERTEX
  8
図枠
  5
39B
 10
900.816
 20
-312.385
 30
0.000000
  70
    32
  0
VERTEX
  8
図枠
  5
39C
 10
900.832
 20
-312.396
 30
0.000000
  70
    32
  0
VERTEX
  8
図枠
  5
39D
 10
900.848
 20
-312.406
 30
0.000000
  70
    32
  0
VERTEX
  8
図枠
  5
39E
 10
900.864
 20
-312.416
 30
0.000000
  70
    32
  0
VERTEX
  8
図枠
  5
39F
 10
900.880
 20
-312.426
 30
0.000000
  70
    32
  0
VERTEX
  8
図枠
  5
3A0
 10
900.896
 20
-312.437
 30
0.000000
  70
    32
  0
VERTEX
  8
図枠
  5
3A1
 10
900.912
 20
-312.447
 30
0.000000
  70
    32
  0
VERTEX
  8
図枠
  5
3A2
 10
900.928
 20
-312.457
 30
0.000000
  70
    32
  0
VERTEX
  8
図枠
  5
3A3
 10
900.944
 20
-312.467
 30
0.000000
  70
    32
  0
VERTEX
  8
図枠
  5
3A4
 10
900.960
 20
-312.477
 30
0.000000
  70
    32
  0
VERTEX
  8
図枠
  5
3A5
 10
900.977
 20
-312.487
 30
0.000000
  70
    32
  0
VERTEX
  8
図枠
  5
3A6
 10
900.993
 20
-312.497
 30
0.000000
  70
    32
  0
VERTEX
  8
図枠
  5
3A7
 10
901.009
 20
-312.507
 30
0.000000
  70
    32
  0
VERTEX
  8
図枠
  5
3A8
 10
901.025
 20
-312.516
 30
0.000000
  70
    32
  0
SEQEND
  8
図枠
  5
3A9
  0
LINE
  5
9E
  8
図枠
 10
891.70667513369995
 20
-312.47429493240003
 30
0.0
 11
891.70667513369995
 21
-311.27441493240002
 31
0.0
  0
LINE
  5
9F
  8
図枠
 10
892.90655513369995
 20
-308.47469493239998
 30
0.0
 11
889.70687513369978
 21
-308.47469493239998
 31
0.0
  0
POLYLINE
  8
図枠
  5
3AA
  66
     1
 10
0.000000
 20
0.000000
 30
0.000000
  70
     8
  0
VERTEX
  8
図枠
  5
3AB
 10
901.382
 20
-310.785
 30
0.000000
  70
    32
  0
VERTEX
  8
図枠
  5
3AC
 10
901.387
 20
-310.791
 30
0.000000
  70
    32
  0
VERTEX
  8
図枠
  5
3AD
 10
901.392
 20
-310.796
 30
0.000000
  70
    32
  0
VERTEX
  8
図枠
  5
3AE
 10
901.397
 20
-310.802
 30
0.000000
  70
    32
  0
VERTEX
  8
図枠
  5
3AF
 10
901.403
 20
-310.808
 30
0.000000
  70
    32
  0
VERTEX
  8
図枠
  5
3B0
 10
901.408
 20
-310.814
 30
0.000000
  70
    32
  0
VERTEX
  8
図枠
  5
3B1
 10
901.413
 20
-310.820
 30
0.000000
  70
    32
  0
VERTEX
  8
図枠
  5
3B2
 10
901.419
 20
-310.826
 30
0.000000
  70
    32
  0
VERTEX
  8
図枠
  5
3B3
 10
901.424
 20
-310.832
 30
0.000000
  70
    32
  0
VERTEX
  8
図枠
  5
3B4
 10
901.429
 20
-310.838
 30
0.000000
  70
    32
  0
VERTEX
  8
図枠
  5
3B5
 10
901.434
 20
-310.844
 30
0.000000
  70
    32
  0
VERTEX
  8
図枠
  5
3B6
 10
901.440
 20
-310.849
 30
0.000000
  70
    32
  0
VERTEX
  8
図枠
  5
3B7
 10
901.445
 20
-310.855
 30
0.000000
  70
    32
  0
VERTEX
  8
図枠
  5
3B8
 10
901.450
 20
-310.861
 30
0.000000
  70
    32
  0
VERTEX
  8
図枠
  5
3B9
 10
901.456
 20
-310.867
 30
0.000000
  70
    32
  0
VERTEX
  8
図枠
  5
3BA
 10
901.461
 20
-310.873
 30
0.000000
  70
    32
  0
VERTEX
  8
図枠
  5
3BB
 10
901.466
 20
-310.879
 30
0.000000
  70
    32
  0
VERTEX
  8
図枠
  5
3BC
 10
901.471
 20
-310.885
 30
0.000000
  70
    32
  0
VERTEX
  8
図枠
  5
3BD
 10
901.477
 20
-310.891
 30
0.000000
  70
    32
  0
VERTEX
  8
図枠
  5
3BE
 10
901.482
 20
-310.896
 30
0.000000
  70
    32
  0
VERTEX
  8
図枠
  5
3BF
 10
901.487
 20
-310.902
 30
0.000000
  70
    32
  0
VERTEX
  8
図枠
  5
3C0
 10
901.493
 20
-310.908
 30
0.000000
  70
    32
  0
VERTEX
  8
図枠
  5
3C1
 10
901.498
 20
-310.914
 30
0.000000
  70
    32
  0
VERTEX
  8
図枠
  5
3C2
 10
901.503
 20
-310.920
 30
0.000000
  70
    32
  0
VERTEX
  8
図枠
  5
3C3
 10
901.508
 20
-310.926
 30
0.000000
  70
    32
  0
VERTEX
  8
図枠
  5
3C4
 10
901.514
 20
-310.932
 30
0.000000
  70
    32
  0
VERTEX
  8
図枠
  5
3C5
 10
901.519
 20
-310.937
 30
0.000000
  70
    32
  0
VERTEX
  8
図枠
  5
3C6
 10
901.524
 20
-310.943
 30
0.000000
  70
    32
  0
VERTEX
  8
図枠
  5
3C7
 10
901.530
 20
-310.949
 30
0.000000
  70
    32
  0
VERTEX
  8
図枠
  5
3C8
 10
901.535
 20
-310.955
 30
0.000000
  70
    32
  0
VERTEX
  8
図枠
  5
3C9
 10
901.540
 20
-310.961
 30
0.000000
  70
    32
  0
VERTEX
  8
図枠
  5
3CA
 10
901.546
 20
-310.967
 30
0.000000
  70
    32
  0
VERTEX
  8
図枠
  5
3CB
 10
901.551
 20
-310.973
 30
0.000000
  70
    32
  0
VERTEX
  8
図枠
  5
3CC
 10
901.556
 20
-310.978
 30
0.000000
  70
    32
  0
VERTEX
  8
図枠
  5
3CD
 10
901.561
 20
-310.984
 30
0.000000
  70
    32
  0
VERTEX
  8
図枠
  5
3CE
 10
901.567
 20
-310.990
 30
0.000000
  70
    32
  0
VERTEX
  8
図枠
  5
3CF
 10
901.572
 20
-310.996
 30
0.000000
  70
    32
  0
VERTEX
  8
図枠
  5
3D0
 10
901.577
 20
-311.002
 30
0.000000
  70
    32
  0
VERTEX
  8
図枠
  5
3D1
 10
901.583
 20
-311.008
 30
0.000000
  70
    32
  0
VERTEX
  8
図枠
  5
3D2
 10
901.588
 20
-311.013
 30
0.000000
  70
    32
  0
VERTEX
  8
図枠
  5
3D3
 10
901.593
 20
-311.019
 30
0.000000
  70
    32
  0
VERTEX
  8
図枠
  5
3D4
 10
901.599
 20
-311.025
 30
0.000000
  70
    32
  0
VERTEX
  8
図枠
  5
3D5
 10
901.604
 20
-311.031
 30
0.000000
  70
    32
  0
VERTEX
  8
図枠
  5
3D6
 10
901.609
 20
-311.037
 30
0.000000
  70
    32
  0
VERTEX
  8
図枠
  5
3D7
 10
901.615
 20
-311.042
 30
0.000000
  70
    32
  0
VERTEX
  8
図枠
  5
3D8
 10
901.620
 20
-311.048
 30
0.000000
  70
    32
  0
VERTEX
  8
図枠
  5
3D9
 10
901.625
 20
-311.054
 30
0.000000
  70
    32
  0
VERTEX
  8
図枠
  5
3DA
 10
901.631
 20
-311.060
 30
0.000000
  70
    32
  0
VERTEX
  8
図枠
  5
3DB
 10
901.636
 20
-311.066
 30
0.000000
  70
    32
  0
VERTEX
  8
図枠
  5
3DC
 10
901.641
 20
-311.071
 30
0.000000
  70
    32
  0
VERTEX
  8
図枠
  5
3DD
 10
901.647
 20
-311.077
 30
0.000000
  70
    32
  0
VERTEX
  8
図枠
  5
3DE
 10
901.652
 20
-311.083
 30
0.000000
  70
    32
  0
VERTEX
  8
図枠
  5
3DF
 10
901.657
 20
-311.089
 30
0.000000
  70
    32
  0
VERTEX
  8
図枠
  5
3E0
 10
901.663
 20
-311.094
 30
0.000000
  70
    32
  0
VERTEX
  8
図枠
  5
3E1
 10
901.668
 20
-311.100
 30
0.000000
  70
    32
  0
VERTEX
  8
図枠
  5
3E2
 10
901.673
 20
-311.106
 30
0.000000
  70
    32
  0
VERTEX
  8
図枠
  5
3E3
 10
901.679
 20
-311.112
 30
0.000000
  70
    32
  0
VERTEX
  8
図枠
  5
3E4
 10
901.684
 20
-311.117
 30
0.000000
  70
    32
  0
VERTEX
  8
図枠
  5
3E5
 10
901.690
 20
-311.123
 30
0.000000
  70
    32
  0
VERTEX
  8
図枠
  5
3E6
 10
901.695
 20
-311.129
 30
0.000000
  70
    32
  0
VERTEX
  8
図枠
  5
3E7
 10
901.700
 20
-311.135
 30
0.000000
  70
    32
  0
VERTEX
  8
図枠
  5
3E8
 10
901.706
 20
-311.140
 30
0.000000
  70
    32
  0
VERTEX
  8
図枠
  5
3E9
 10
901.711
 20
-311.146
 30
0.000000
  70
    32
  0
VERTEX
  8
図枠
  5
3EA
 10
901.716
 20
-311.152
 30
0.000000
  70
    32
  0
VERTEX
  8
図枠
  5
3EB
 10
901.722
 20
-311.158
 30
0.000000
  70
    32
  0
VERTEX
  8
図枠
  5
3EC
 10
901.727
 20
-311.163
 30
0.000000
  70
    32
  0
VERTEX
  8
図枠
  5
3ED
 10
901.733
 20
-311.169
 30
0.000000
  70
    32
  0
VERTEX
  8
図枠
  5
3EE
 10
901.738
 20
-311.175
 30
0.000000
  70
    32
  0
VERTEX
  8
図枠
  5
3EF
 10
901.743
 20
-311.180
 30
0.000000
  70
    32
  0
VERTEX
  8
図枠
  5
3F0
 10
901.749
 20
-311.186
 30
0.000000
  70
    32
  0
VERTEX
  8
図枠
  5
3F1
 10
901.754
 20
-311.192
 30
0.000000
  70
    32
  0
VERTEX
  8
図枠
  5
3F2
 10
901.760
 20
-311.197
 30
0.000000
  70
    32
  0
VERTEX
  8
図枠
  5
3F3
 10
901.765
 20
-311.203
 30
0.000000
  70
    32
  0
VERTEX
  8
図枠
  5
3F4
 10
901.771
 20
-311.209
 30
0.000000
  70
    32
  0
VERTEX
  8
図枠
  5
3F5
 10
901.776
 20
-311.214
 30
0.000000
  70
    32
  0
VERTEX
  8
図枠
  5
3F6
 10
901.781
 20
-311.220
 30
0.000000
  70
    32
  0
VERTEX
  8
図枠
  5
3F7
 10
901.787
 20
-311.226
 30
0.000000
  70
    32
  0
VERTEX
  8
図枠
  5
3F8
 10
901.792
 20
-311.231
 30
0.000000
  70
    32
  0
VERTEX
  8
図枠
  5
3F9
 10
901.798
 20
-311.237
 30
0.000000
  70
    32
  0
VERTEX
  8
図枠
  5
3FA
 10
901.803
 20
-311.242
 30
0.000000
  70
    32
  0
VERTEX
  8
図枠
  5
3FB
 10
901.809
 20
-311.248
 30
0.000000
  70
    32
  0
VERTEX
  8
図枠
  5
3FC
 10
901.814
 20
-311.254
 30
0.000000
  70
    32
  0
VERTEX
  8
図枠
  5
3FD
 10
901.820
 20
-311.259
 30
0.000000
  70
    32
  0
VERTEX
  8
図枠
  5
3FE
 10
901.825
 20
-311.265
 30
0.000000
  70
    32
  0
VERTEX
  8
図枠
  5
3FF
 10
901.830
 20
-311.270
 30
0.000000
  70
    32
  0
VERTEX
  8
図枠
  5
400
 10
901.836
 20
-311.276
 30
0.000000
  70
    32
  0
VERTEX
  8
図枠
  5
401
 10
901.841
 20
-311.282
 30
0.000000
  70
    32
  0
VERTEX
  8
図枠
  5
402
 10
901.847
 20
-311.287
 30
0.000000
  70
    32
  0
VERTEX
  8
図枠
  5
403
 10
901.852
 20
-311.293
 30
0.000000
  70
    32
  0
VERTEX
  8
図枠
  5
404
 10
901.858
 20
-311.298
 30
0.000000
  70
    32
  0
VERTEX
  8
図枠
  5
405
 10
901.863
 20
-311.304
 30
0.000000
  70
    32
  0
VERTEX
  8
図枠
  5
406
 10
901.869
 20
-311.309
 30
0.000000
  70
    32
  0
VERTEX
  8
図枠
  5
407
 10
901.874
 20
-311.315
 30
0.000000
  70
    32
  0
VERTEX
  8
図枠
  5
408
 10
901.880
 20
-311.320
 30
0.000000
  70
    32
  0
VERTEX
  8
図枠
  5
409
 10
901.885
 20
-311.326
 30
0.000000
  70
    32
  0
VERTEX
  8
図枠
  5
40A
 10
901.891
 20
-311.331
 30
0.000000
  70
    32
  0
VERTEX
  8
図枠
  5
40B
 10
901.896
 20
-311.337
 30
0.000000
  70
    32
  0
VERTEX
  8
図枠
  5
40C
 10
901.902
 20
-311.342
 30
0.000000
  70
    32
  0
VERTEX
  8
図枠
  5
40D
 10
901.908
 20
-311.348
 30
0.000000
  70
    32
  0
VERTEX
  8
図枠
  5
40E
 10
901.913
 20
-311.353
 30
0.000000
  70
    32
  0
VERTEX
  8
図枠
  5
40F
 10
901.919
 20
-311.359
 30
0.000000
  70
    32
  0
VERTEX
  8
図枠
  5
410
 10
901.924
 20
-311.364
 30
0.000000
  70
    32
  0
VERTEX
  8
図枠
  5
411
 10
901.930
 20
-311.370
 30
0.000000
  70
    32
  0
VERTEX
  8
図枠
  5
412
 10
901.935
 20
-311.375
 30
0.000000
  70
    32
  0
VERTEX
  8
図枠
  5
413
 10
901.941
 20
-311.380
 30
0.000000
  70
    32
  0
VERTEX
  8
図枠
  5
414
 10
901.946
 20
-311.386
 30
0.000000
  70
    32
  0
VERTEX
  8
図枠
  5
415
 10
901.952
 20
-311.391
 30
0.000000
  70
    32
  0
VERTEX
  8
図枠
  5
416
 10
901.958
 20
-311.397
 30
0.000000
  70
    32
  0
VERTEX
  8
図枠
  5
417
 10
901.963
 20
-311.402
 30
0.000000
  70
    32
  0
VERTEX
  8
図枠
  5
418
 10
901.969
 20
-311.407
 30
0.000000
  70
    32
  0
VERTEX
  8
図枠
  5
419
 10
901.974
 20
-311.413
 30
0.000000
  70
    32
  0
VERTEX
  8
図枠
  5
41A
 10
901.980
 20
-311.418
 30
0.000000
  70
    32
  0
VERTEX
  8
図枠
  5
41B
 10
901.986
 20
-311.423
 30
0.000000
  70
    32
  0
VERTEX
  8
図枠
  5
41C
 10
901.991
 20
-311.429
 30
0.000000
  70
    32
  0
VERTEX
  8
図枠
  5
41D
 10
901.997
 20
-311.434
 30
0.000000
  70
    32
  0
VERTEX
  8
図枠
  5
41E
 10
902.003
 20
-311.439
 30
0.000000
  70
    32
  0
VERTEX
  8
図枠
  5
41F
 10
902.008
 20
-311.445
 30
0.000000
  70
    32
  0
VERTEX
  8
図枠
  5
420
 10
902.014
 20
-311.450
 30
0.000000
  70
    32
  0
VERTEX
  8
図枠
  5
421
 10
902.020
 20
-311.455
 30
0.000000
  70
    32
  0
VERTEX
  8
図枠
  5
422
 10
902.025
 20
-311.460
 30
0.000000
  70
    32
  0
VERTEX
  8
図枠
  5
423
 10
902.031
 20
-311.466
 30
0.000000
  70
    32
  0
VERTEX
  8
図枠
  5
424
 10
902.037
 20
-311.471
 30
0.000000
  70
    32
  0
VERTEX
  8
図枠
  5
425
 10
902.042
 20
-311.476
 30
0.000000
  70
    32
  0
VERTEX
  8
図枠
  5
426
 10
902.048
 20
-311.481
 30
0.000000
  70
    32
  0
VERTEX
  8
図枠
  5
427
 10
902.054
 20
-311.487
 30
0.000000
  70
    32
  0
VERTEX
  8
図枠
  5
428
 10
902.059
 20
-311.492
 30
0.000000
  70
    32
  0
VERTEX
  8
図枠
  5
429
 10
902.065
 20
-311.497
 30
0.000000
  70
    32
  0
VERTEX
  8
図枠
  5
42A
 10
902.071
 20
-311.502
 30
0.000000
  70
    32
  0
SEQEND
  8
図枠
  5
42B
  0
LINE
  5
A1
  8
図枠
 10
898.6344671336999
 20
-309.9145509324
 30
0.0
 11
902.63406713369989
 21
-309.9145509324
 31
0.0
  0
LINE
  5
A2
  8
図枠
 62
     5
 10
880.51059348789977
 20
-135.6201204921
 30
0.0
 11
974.50119348789997
 21
-135.6201204921
 31
0.0
  0
LINE
  5
A3
  8
図枠
 62
     5
 10
880.51059348789977
 20
-130.62062049209999
 30
0.0
 11
974.50119348789997
 21
-130.62062049209999
 31
0.0
  0
INSERT
  5
A4
  8
0
  6
CONTINUOUS
  2
*U31
 10
0.0
 20
0.0
 30
0.0
  0
LINE
  5
A5
  8
図枠
 10
888.50979348789986
 20
-298.6038204921
 30
0.0
 11
888.50979348789986
 21
-307.10297049209998
 31
0.0
  0
INSERT
  5
A6
  8
0
  6
CONTINUOUS
  2
*U32
 10
0.0
 20
0.0
 30
0.0
  0
LINE
  5
A7
  8
図枠
 10
914.44568045099993
 20
-292.0504758921
 30
0.0
 11
914.44568045099993
 21
-296.65801509210002
 31
0.0
  0
LINE
  5
A8
  8
図枠
 10
905.83374713369994
 20
-312.87425493239999
 30
0.0
 11
905.83374713369994
 21
-314.0741349324
 31
0.0
  0
LINE
  5
A9
  8
図枠
 10
904.1240935978999
 20
-312.35361196909997
 30
0.0
 11
903.98162619820005
 21
-312.49310053419998
 31
0.0
  0
LINE
  5
AA
  8
図枠
  6
BORDER
 10
901.11653268789996
 20
-294.35424549210001
 30
0.0
 11
915.89905428789984
 21
-294.35424549210001
 31
0.0
  0
CIRCLE
  5
AB
  8
図枠
 10
904.57218708789992
 20
-294.35424549210001
 30
0.0
 40
2.303769599999999
  0
LINE
  5
AC
  8
図枠
 10
858.5127934878999
 20
-307.10297049209998
 30
0.0
 11
974.50119348789997
 21
-307.10297049209998
 31
0.0
  0
LINE
  5
AD
  8
図枠
 10
905.0338271336999
 20
-309.67457493239999
 30
0.0
 11
905.83374713369994
 21
-308.47469493239998
 31
0.0
  0
LINE
  5
AE
  8
図枠
  6
BORDER
 10
904.57218708789992
 20
-290.89859109209999
 30
0.0
 11
904.57218708789992
 21
-297.80989989210002
 31
0.0
  0
LINE
  5
AF
  8
図枠
 10
898.6344671336999
 20
-310.58985982280001
 30
0.0
 11
898.6344671336999
 21
-310.33219737759998
 31
0.0
  0
LINE
  5
B0
  8
図枠
 10
898.6344671336999
 20
-310.33219737759998
 30
0.0
 11
901.83414713369984
 21
-310.33219737759998
 31
0.0
  0
LINE
  5
B1
  8
図枠
 62
     5
 10
888.50979348789986
 20
-140.61962049210001
 30
0.0
 11
888.50979348789986
 21
-125.6211204921
 31
0.0
  0
INSERT
  5
B2
  8
0
  6
CONTINUOUS
  2
*U33
 10
0.0
 20
0.0
 30
0.0
  0
INSERT
  5
B3
  8
0
  6
CONTINUOUS
  2
*U34
 10
0.0
 20
0.0
 30
0.0
  0
INSERT
  5
B4
  8
0
  6
CONTINUOUS
  2
*U35
 10
0.0
 20
0.0
 30
0.0
  0
INSERT
  5
B5
  8
0
  6
CONTINUOUS
  2
*U36
 10
0.0
 20
0.0
 30
0.0
  0
LINE
  5
B6
  8
図枠
 62
     5
 10
881.75118403040005
 20
-140.1388768203
 30
0.0
 11
886.70068903039987
 21
-140.1388768203
 31
0.0
  0
LINE
  5
B7
  8
図枠
 62
     5
 10
884.22593653039996
 20
-135.85247975409999
 30
0.0
 11
886.70068903039987
 21
-140.1388768203
 31
0.0
  0
LINE
  5
B8
  8
図枠
 62
     5
 10
884.22593653039996
 20
-135.85247975409999
 30
0.0
 11
881.75118403040005
 21
-140.1388768203
 31
0.0
  0
LINE
  5
B9
  8
図枠
 62
     5
 10
880.51059348789977
 20
-140.61962049210001
 30
0.0
 11
974.50119348789997
 21
-140.61962049210001
 31
0.0
  0
LINE
  5
BA
  8
図枠
 62
     5
 10
904.5081934878998
 20
-140.61962049210001
 30
0.0
 11
904.5081934878998
 21
-125.6211204921
 31
0.0
  0
INSERT
  5
BB
  8
0
  6
CONTINUOUS
  2
*U37
 10
0.0
 20
0.0
 30
0.0
  0
LINE
  5
BC
  8
図枠
 10
891.70667513369995
 20
-309.67457493239999
 30
0.0
 11
892.90655513369995
 21
-308.47469493239998
 31
0.0
  0
LINE
  5
BD
  8
図枠
 10
898.6344671336999
 20
-314.0741349324
 30
0.0
 11
900.63426713369995
 21
-314.0741349324
 31
0.0
  0
LINE
  5
BE
  8
図枠
 10
891.70667513369995
 20
-311.27441493240002
 30
0.0
 11
893.3065151336998
 21
-311.27441493240002
 31
0.0
  0
LINE
  5
BF
  8
図枠
 10
898.6344671336999
 20
-314.0741349324
 30
0.0
 11
898.6344671336999
 21
-312.87425493239999
 31
0.0
  0
LINE
  5
C0
  8
図枠
 10
893.3065151336998
 20
-308.47469493239998
 30
0.0
 11
893.3065151336998
 21
-310.07453493240001
 31
0.0
  0
DIMENSION
  5
D1
  8
寸法線
  2
*D0
 10
792.70403752770005
 20
-229.8860425787
 30
0.0
 11
780.95403752770005
 21
-229.8860425787
 31
0.0
 70
   128
  1
<>
 13
792.70403752770005
 23
-248.1637029485
 33
0.0
 14
769.20403752770005
 24
-248.1637031313
 34
0.0
  0
DIMENSION
  5
E0
  8
寸法線
  2
*D1
 10
750.95403752770005
 20
-248.1637029501
 30
0.0
 11
750.95403752770005
 21
-249.66370294929999
 31
0.0
 70
   128
  1
<>
 13
761.45403771999986
 23
-248.1637029501
 33
0.0
 14
760.95403752770005
 24
-251.1637029485
 34
0.0
 50
90.0
  0
DIMENSION
  5
EF
  8
寸法線
  2
*D2
 10
810.95403752770005
 20
-251.1637029485
 30
0.0
 11
810.95403752770005
 21
-244.9137029485
 31
0.0
 70
   128
  1
<>
 13
800.95403752770005
 23
-251.1637029485
 33
0.0
 14
791.52987357710003
 24
-238.6637029485
 34
0.0
 50
90.0
  0
DIMENSION
  5
FE
  8
寸法線
  2
*D3
 10
946.00759783360002
 20
-194.50021253829999
 30
0.0
 11
946.00759783360002
 21
-188.25021253829999
 31
0.0
 70
   128
  1
<>
 13
936.00759783360002
 23
-194.50021253829999
 33
0.0
 14
936.00759783360002
 24
-182.00021253829999
 34
0.0
 50
90.0
  0
DIMENSION
  5
10D
  8
寸法線
  2
*D4
 10
936.00759783360002
 20
-172.00021253829999
 30
0.0
 11
924.75759783360002
 21
-172.00021253829999
 31
0.0
 70
   128
  1
<>
 13
936.00759783360002
 23
-182.00021253829999
 33
0.0
 14
913.50759783360013
 24
-182.00021253829999
 34
0.0
  0
DIMENSION
  5
11C
  8
寸法線
  2
*D5
 10
874.89717195769992
 20
-228.6637029485
 30
0.0
 11
865.39717195770004
 21
-228.6637029485
 31
0.0
 70
   128
  1
<>
 13
874.89717195769992
 23
-238.6637029485
 33
0.0
 14
855.89717195770004
 24
-238.6637029485
 34
0.0
  0
DIMENSION
  5
12B
  8
寸法線
  2
*D6
 10
855.89717195770004
 20
-228.6637029485
 30
0.0
 11
847.35842846169999
 21
-228.6637029485
 31
0.0
 70
   128
  1
(<>)
 13
855.89717195770004
 23
-238.6637029485
 33
0.0
 14
853.89717195770004
 24
-240.36370294849999
 34
0.0
  0
DIMENSION
  5
13A
  8
寸法線
  2
*D7
 10
760.95403752770005
 20
-264.7665330122
 30
0.0
 11
780.95403752770005
 21
-264.7665330122
 31
0.0
 70
   128
  1
<>
 13
760.95403752770005
 23
-251.1637029485
 33
0.0
 14
800.95403752770005
 24
-251.1637029485
 34
0.0
 50
180.0
  0
LINE
  5
13B
  8
図枠
 10
888.78608417279986
 20
-311.27441493240002
 30
0.0
 11
889.5860041727999
 21
-311.27441493240002
 31
0.0
  0
INSERT
  5
13C
  8
0
  6
CONTINUOUS
  2
*U38
 10
0.0
 20
0.0
 30
0.0
  0
LINE
  5
13D
  8
図枠
 10
860.51259348789995
 20
-302.85339549209999
 30
0.0
 11
886.50999348789992
 21
-302.85339549209999
 31
0.0
  0
LINE
  5
13E
  8
図枠
 10
898.6344671336999
 20
-312.87425493239999
 30
0.0
 11
898.6344671336999
 21
-314.0741349324
 31
0.0
  0
INSERT
  5
13F
  8
0
  6
CONTINUOUS
  2
*U39
 10
0.0
 20
0.0
 30
0.0
  0
LINE
  5
140
  8
図枠
 10
889.70687513369978
 20
-312.87425493239999
 30
0.0
 11
889.70687513369978
 21
-314.0741349324
 31
0.0
  0
LINE
  5
141
  8
図枠
 10
902.26315422210007
 20
-311.2896701308
 30
0.0
 11
902.07069682469989
 21
-311.5022395602
 31
0.0
  0
ARC
  5
142
  8
図枠
 10
892.90655513369995
 20
-311.6743749324001
 30
0.0
 40
2.3997599999999988
 50
270.0
 51
0.0
  0
INSERT
  5
143
  8
0
  6
CONTINUOUS
  2
*U40
 10
0.0
 20
0.0
 30
0.0
  0
LINE
  5
144
  8
図枠
 10
880.51059348789977
 20
-294.35424549210001
 30
0.0
 11
894.50919348789978
 21
-294.35424549210001
 31
0.0
  0
LINE
  5
145
  8
図枠
 62
     5
 10
954.50319348789981
 20
-140.61962049210001
 30
0.0
 11
954.50319348789981
 21
-125.6211204921
 31
0.0
  0
LINE
  5
146
  8
図枠
 62
     5
 10
880.51059348789977
 20
-140.61962049210001
 30
0.0
 11
880.51059348789977
 21
-125.6211204921
 31
0.0
  0
LINE
  5
147
  8
図枠
  6
BORDER
 10
904.57218708789992
 20
-290.89859109209999
 30
0.0
 11
904.57218708789992
 21
-297.80989989210002
 31
0.0
  0
LINE
  5
148
  8
図枠
 62
     5
 10
964.50219348789983
 20
-140.61962049210001
 30
0.0
 11
964.50219348789983
 21
-125.6211204921
 31
0.0
  0
LINE
  5
149
  8
図枠
 10
890.50959348789979
 20
-302.85339549209999
 30
0.0
 11
916.50699348789976
 21
-302.85339549209999
 31
0.0
  0
POLYLINE
  8
図枠
  5
42C
  66
     1
 10
0.000000
 20
0.000000
 30
0.000000
  70
     8
  0
VERTEX
  8
図枠
  5
42D
 10
903.001
 20
-313.383
 30
0.000000
  70
    32
  0
VERTEX
  8
図枠
  5
42E
 10
903.023
 20
-313.390
 30
0.000000
  70
    32
  0
VERTEX
  8
図枠
  5
42F
 10
903.044
 20
-313.397
 30
0.000000
  70
    32
  0
VERTEX
  8
図枠
  5
430
 10
903.066
 20
-313.404
 30
0.000000
  70
    32
  0
VERTEX
  8
図枠
  5
431
 10
903.087
 20
-313.411
 30
0.000000
  70
    32
  0
VERTEX
  8
図枠
  5
432
 10
903.109
 20
-313.417
 30
0.000000
  70
    32
  0
VERTEX
  8
図枠
  5
433
 10
903.131
 20
-313.424
 30
0.000000
  70
    32
  0
VERTEX
  8
図枠
  5
434
 10
903.152
 20
-313.431
 30
0.000000
  70
    32
  0
VERTEX
  8
図枠
  5
435
 10
903.174
 20
-313.437
 30
0.000000
  70
    32
  0
VERTEX
  8
図枠
  5
436
 10
903.196
 20
-313.444
 30
0.000000
  70
    32
  0
VERTEX
  8
図枠
  5
437
 10
903.217
 20
-313.450
 30
0.000000
  70
    32
  0
VERTEX
  8
図枠
  5
438
 10
903.239
 20
-313.457
 30
0.000000
  70
    32
  0
VERTEX
  8
図枠
  5
439
 10
903.261
 20
-313.463
 30
0.000000
  70
    32
  0
VERTEX
  8
図枠
  5
43A
 10
903.282
 20
-313.470
 30
0.000000
  70
    32
  0
VERTEX
  8
図枠
  5
43B
 10
903.304
 20
-313.476
 30
0.000000
  70
    32
  0
VERTEX
  8
図枠
  5
43C
 10
903.326
 20
-313.483
 30
0.000000
  70
    32
  0
VERTEX
  8
図枠
  5
43D
 10
903.348
 20
-313.489
 30
0.000000
  70
    32
  0
VERTEX
  8
図枠
  5
43E
 10
903.370
 20
-313.496
 30
0.000000
  70
    32
  0
VERTEX
  8
図枠
  5
43F
 10
903.391
 20
-313.502
 30
0.000000
  70
    32
  0
VERTEX
  8
図枠
  5
440
 10
903.413
 20
-313.508
 30
0.000000
  70
    32
  0
VERTEX
  8
図枠
  5
441
 10
903.435
 20
-313.514
 30
0.000000
  70
    32
  0
VERTEX
  8
図枠
  5
442
 10
903.457
 20
-313.521
 30
0.000000
  70
    32
  0
VERTEX
  8
図枠
  5
443
 10
903.479
 20
-313.527
 30
0.000000
  70
    32
  0
VERTEX
  8
図枠
  5
444
 10
903.501
 20
-313.533
 30
0.000000
  70
    32
  0
VERTEX
  8
図枠
  5
445
 10
903.523
 20
-313.539
 30
0.000000
  70
    32
  0
VERTEX
  8
図枠
  5
446
 10
903.545
 20
-313.545
 30
0.000000
  70
    32
  0
VERTEX
  8
図枠
  5
447
 10
903.566
 20
-313.552
 30
0.000000
  70
    32
  0
VERTEX
  8
図枠
  5
448
 10
903.588
 20
-313.558
 30
0.000000
  70
    32
  0
VERTEX
  8
図枠
  5
449
 10
903.610
 20
-313.564
 30
0.000000
  70
    32
  0
VERTEX
  8
図枠
  5
44A
 10
903.632
 20
-313.570
 30
0.000000
  70
    32
  0
VERTEX
  8
図枠
  5
44B
 10
903.654
 20
-313.576
 30
0.000000
  70
    32
  0
VERTEX
  8
図枠
  5
44C
 10
903.676
 20
-313.582
 30
0.000000
  70
    32
  0
VERTEX
  8
図枠
  5
44D
 10
903.698
 20
-313.588
 30
0.000000
  70
    32
  0
VERTEX
  8
図枠
  5
44E
 10
903.721
 20
-313.593
 30
0.000000
  70
    32
  0
VERTEX
  8
図枠
  5
44F
 10
903.743
 20
-313.599
 30
0.000000
  70
    32
  0
VERTEX
  8
図枠
  5
450
 10
903.765
 20
-313.605
 30
0.000000
  70
    32
  0
VERTEX
  8
図枠
  5
451
 10
903.787
 20
-313.611
 30
0.000000
  70
    32
  0
VERTEX
  8
図枠
  5
452
 10
903.809
 20
-313.617
 30
0.000000
  70
    32
  0
VERTEX
  8
図枠
  5
453
 10
903.831
 20
-313.623
 30
0.000000
  70
    32
  0
VERTEX
  8
図枠
  5
454
 10
903.853
 20
-313.628
 30
0.000000
  70
    32
  0
VERTEX
  8
図枠
  5
455
 10
903.875
 20
-313.634
 30
0.000000
  70
    32
  0
VERTEX
  8
図枠
  5
456
 10
903.897
 20
-313.640
 30
0.000000
  70
    32
  0
VERTEX
  8
図枠
  5
457
 10
903.920
 20
-313.646
 30
0.000000
  70
    32
  0
VERTEX
  8
図枠
  5
458
 10
903.942
 20
-313.651
 30
0.000000
  70
    32
  0
VERTEX
  8
図枠
  5
459
 10
903.964
 20
-313.657
 30
0.000000
  70
    32
  0
VERTEX
  8
図枠
  5
45A
 10
903.986
 20
-313.663
 30
0.000000
  70
    32
  0
VERTEX
  8
図枠
  5
45B
 10
904.008
 20
-313.668
 30
0.000000
  70
    32
  0
VERTEX
  8
図枠
  5
45C
 10
904.031
 20
-313.674
 30
0.000000
  70
    32
  0
VERTEX
  8
図枠
  5
45D
 10
904.053
 20
-313.679
 30
0.000000
  70
    32
  0
VERTEX
  8
図枠
  5
45E
 10
904.075
 20
-313.685
 30
0.000000
  70
    32
  0
VERTEX
  8
図枠
  5
45F
 10
904.097
 20
-313.690
 30
0.000000
  70
    32
  0
VERTEX
  8
図枠
  5
460
 10
904.120
 20
-313.696
 30
0.000000
  70
    32
  0
VERTEX
  8
図枠
  5
461
 10
904.142
 20
-313.701
 30
0.000000
  70
    32
  0
VERTEX
  8
図枠
  5
462
 10
904.164
 20
-313.707
 30
0.000000
  70
    32
  0
VERTEX
  8
図枠
  5
463
 10
904.186
 20
-313.712
 30
0.000000
  70
    32
  0
VERTEX
  8
図枠
  5
464
 10
904.209
 20
-313.718
 30
0.000000
  70
    32
  0
VERTEX
  8
図枠
  5
465
 10
904.231
 20
-313.723
 30
0.000000
  70
    32
  0
VERTEX
  8
図枠
  5
466
 10
904.253
 20
-313.729
 30
0.000000
  70
    32
  0
VERTEX
  8
図枠
  5
467
 10
904.276
 20
-313.734
 30
0.000000
  70
    32
  0
VERTEX
  8
図枠
  5
468
 10
904.298
 20
-313.739
 30
0.000000
  70
    32
  0
VERTEX
  8
図枠
  5
469
 10
904.320
 20
-313.745
 30
0.000000
  70
    32
  0
VERTEX
  8
図枠
  5
46A
 10
904.343
 20
-313.750
 30
0.000000
  70
    32
  0
VERTEX
  8
図枠
  5
46B
 10
904.365
 20
-313.755
 30
0.000000
  70
    32
  0
VERTEX
  8
図枠
  5
46C
 10
904.388
 20
-313.760
 30
0.000000
  70
    32
  0
VERTEX
  8
図枠
  5
46D
 10
904.410
 20
-313.766
 30
0.000000
  70
    32
  0
VERTEX
  8
図枠
  5
46E
 10
904.432
 20
-313.771
 30
0.000000
  70
    32
  0
VERTEX
  8
図枠
  5
46F
 10
904.455
 20
-313.776
 30
0.000000
  70
    32
  0
VERTEX
  8
図枠
  5
470
 10
904.477
 20
-313.781
 30
0.000000
  70
    32
  0
VERTEX
  8
図枠
  5
471
 10
904.500
 20
-313.787
 30
0.000000
  70
    32
  0
VERTEX
  8
図枠
  5
472
 10
904.522
 20
-313.792
 30
0.000000
  70
    32
  0
VERTEX
  8
図枠
  5
473
 10
904.545
 20
-313.797
 30
0.000000
  70
    32
  0
VERTEX
  8
図枠
  5
474
 10
904.567
 20
-313.802
 30
0.000000
  70
    32
  0
VERTEX
  8
図枠
  5
475
 10
904.590
 20
-313.807
 30
0.000000
  70
    32
  0
VERTEX
  8
図枠
  5
476
 10
904.612
 20
-313.812
 30
0.000000
  70
    32
  0
VERTEX
  8
図枠
  5
477
 10
904.635
 20
-313.817
 30
0.000000
  70
    32
  0
VERTEX
  8
図枠
  5
478
 10
904.657
 20
-313.823
 30
0.000000
  70
    32
  0
VERTEX
  8
図枠
  5
479
 10
904.680
 20
-313.828
 30
0.000000
  70
    32
  0
VERTEX
  8
図枠
  5
47A
 10
904.702
 20
-313.833
 30
0.000000
  70
    32
  0
VERTEX
  8
図枠
  5
47B
 10
904.725
 20
-313.838
 30
0.000000
  70
    32
  0
VERTEX
  8
図枠
  5
47C
 10
904.747
 20
-313.843
 30
0.000000
  70
    32
  0
VERTEX
  8
図枠
  5
47D
 10
904.770
 20
-313.848
 30
0.000000
  70
    32
  0
VERTEX
  8
図枠
  5
47E
 10
904.792
 20
-313.853
 30
0.000000
  70
    32
  0
VERTEX
  8
図枠
  5
47F
 10
904.815
 20
-313.858
 30
0.000000
  70
    32
  0
VERTEX
  8
図枠
  5
480
 10
904.837
 20
-313.863
 30
0.000000
  70
    32
  0
VERTEX
  8
図枠
  5
481
 10
904.860
 20
-313.868
 30
0.000000
  70
    32
  0
VERTEX
  8
図枠
  5
482
 10
904.882
 20
-313.873
 30
0.000000
  70
    32
  0
VERTEX
  8
図枠
  5
483
 10
904.905
 20
-313.878
 30
0.000000
  70
    32
  0
VERTEX
  8
図枠
  5
484
 10
904.927
 20
-313.883
 30
0.000000
  70
    32
  0
VERTEX
  8
図枠
  5
485
 10
904.950
 20
-313.887
 30
0.000000
  70
    32
  0
VERTEX
  8
図枠
  5
486
 10
904.973
 20
-313.892
 30
0.000000
  70
    32
  0
VERTEX
  8
図枠
  5
487
 10
904.995
 20
-313.897
 30
0.000000
  70
    32
  0
VERTEX
  8
図枠
  5
488
 10
905.018
 20
-313.902
 30
0.000000
  70
    32
  0
VERTEX
  8
図枠
  5
489
 10
905.040
 20
-313.907
 30
0.000000
  70
    32
  0
VERTEX
  8
図枠
  5
48A
 10
905.063
 20
-313.912
 30
0.000000
  70
    32
  0
VERTEX
  8
図枠
  5
48B
 10
905.086
 20
-313.917
 30
0.000000
  70
    32
  0
VERTEX
  8
図枠
  5
48C
 10
905.108
 20
-313.922
 30
0.000000
  70
    32
  0
VERTEX
  8
図枠
  5
48D
 10
905.131
 20
-313.927
 30
0.000000
  70
    32
  0
VERTEX
  8
図枠
  5
48E
 10
905.154
 20
-313.931
 30
0.000000
  70
    32
  0
VERTEX
  8
図枠
  5
48F
 10
905.176
 20
-313.936
 30
0.000000
  70
    32
  0
VERTEX
  8
図枠
  5
490
 10
905.199
 20
-313.941
 30
0.000000
  70
    32
  0
VERTEX
  8
図枠
  5
491
 10
905.221
 20
-313.946
 30
0.000000
  70
    32
  0
VERTEX
  8
図枠
  5
492
 10
905.244
 20
-313.951
 30
0.000000
  70
    32
  0
VERTEX
  8
図枠
  5
493
 10
905.267
 20
-313.955
 30
0.000000
  70
    32
  0
VERTEX
  8
図枠
  5
494
 10
905.289
 20
-313.960
 30
0.000000
  70
    32
  0
VERTEX
  8
図枠
  5
495
 10
905.312
 20
-313.965
 30
0.000000
  70
    32
  0
VERTEX
  8
図枠
  5
496
 10
905.335
 20
-313.970
 30
0.000000
  70
    32
  0
VERTEX
  8
図枠
  5
497
 10
905.357
 20
-313.975
 30
0.000000
  70
    32
  0
VERTEX
  8
図枠
  5
498
 10
905.380
 20
-313.979
 30
0.000000
  70
    32
  0
VERTEX
  8
図枠
  5
499
 10
905.403
 20
-313.984
 30
0.000000
  70
    32
  0
VERTEX
  8
図枠
  5
49A
 10
905.425
 20
-313.989
 30
0.000000
  70
    32
  0
VERTEX
  8
図枠
  5
49B
 10
905.448
 20
-313.994
 30
0.000000
  70
    32
  0
VERTEX
  8
図枠
  5
49C
 10
905.471
 20
-313.998
 30
0.000000
  70
    32
  0
VERTEX
  8
図枠
  5
49D
 10
905.493
 20
-314.003
 30
0.000000
  70
    32
  0
VERTEX
  8
図枠
  5
49E
 10
905.516
 20
-314.008
 30
0.000000
  70
    32
  0
VERTEX
  8
図枠
  5
49F
 10
905.539
 20
-314.013
 30
0.000000
  70
    32
  0
VERTEX
  8
図枠
  5
4A0
 10
905.561
 20
-314.017
 30
0.000000
  70
    32
  0
VERTEX
  8
図枠
  5
4A1
 10
905.584
 20
-314.022
 30
0.000000
  70
    32
  0
VERTEX
  8
図枠
  5
4A2
 10
905.607
 20
-314.027
 30
0.000000
  70
    32
  0
VERTEX
  8
図枠
  5
4A3
 10
905.630
 20
-314.032
 30
0.000000
  70
    32
  0
VERTEX
  8
図枠
  5
4A4
 10
905.652
 20
-314.036
 30
0.000000
  70
    32
  0
VERTEX
  8
図枠
  5
4A5
 10
905.675
 20
-314.041
 30
0.000000
  70
    32
  0
VERTEX
  8
図枠
  5
4A6
 10
905.698
 20
-314.046
 30
0.000000
  70
    32
  0
VERTEX
  8
図枠
  5
4A7
 10
905.720
 20
-314.051
 30
0.000000
  70
    32
  0
VERTEX
  8
図枠
  5
4A8
 10
905.743
 20
-314.055
 30
0.000000
  70
    32
  0
VERTEX
  8
図枠
  5
4A9
 10
905.766
 20
-314.060
 30
0.000000
  70
    32
  0
VERTEX
  8
図枠
  5
4AA
 10
905.788
 20
-314.065
 30
0.000000
  70
    32
  0
VERTEX
  8
図枠
  5
4AB
 10
905.811
 20
-314.069
 30
0.000000
  70
    32
  0
VERTEX
  8
図枠
  5
4AC
 10
905.834
 20
-314.074
 30
0.000000
  70
    32
  0
SEQEND
  8
図枠
  5
4AD
  0
LINE
  5
14B
  8
図枠
 10
905.83374713369994
 20
-308.47469493239998
 30
0.0
 11
898.6344671336999
 21
-308.47469493239998
 31
0.0
  0
LINE
  5
14C
  8
ﾚｲﾔ_1
 62
     5
 10
769.92292964740011
 20
-239.1191982981
 30
0.0
 11
769.20403752770005
 21
-248.1637031313
 31
0.0
  0
LINE
  5
14D
  8
ﾚｲﾔ_1
 62
     5
 10
791.98514540799988
 20
-239.1191981154
 30
0.0
 11
792.70403752770005
 21
-248.1637029485
 31
0.0
  0
LINE
  5
14E
  8
ﾚｲﾔ_1
 62
     5
 10
770.95403752770005
 20
-240.36370294849999
 30
0.0
 11
770.95403752770005
 21
-246.86370294849999
 31
0.0
  0
LINE
  5
14F
  8
ﾚｲﾔ_1
 62
     5
 10
790.95403752770005
 20
-240.36370294849999
 30
0.0
 11
790.95403752770005
 21
-246.86370294849999
 31
0.0
  0
LINE
  5
150
  8
ﾚｲﾔ_1
 62
     5
 10
790.95403752770005
 20
-245.06370294850001
 30
0.0
 11
770.95403752770005
 21
-245.06370294850001
 31
0.0
  0
LINE
  5
151
  8
ﾚｲﾔ_1
 62
     5
 10
790.95403752770005
 20
-246.86370294849999
 30
0.0
 11
770.95403752770005
 21
-246.86370294849999
 31
0.0
  0
LINE
  5
152
  8
ﾚｲﾔ_1
 62
     5
 10
798.20403752770005
 20
-194.04067840490001
 30
0.0
 11
798.20403752770005
 21
-189.5406777906
 31
0.0
  0
ARC
  5
153
  8
ﾚｲﾔ_1
 62
     5
 10
796.45403752770005
 20
-189.54067815179999
 30
0.0
 40
1.75
 50
0.0000118246
 51
179.99999161619999
  0
LINE
  5
154
  8
ﾚｲﾔ_1
 62
     5
 10
794.70403752770005
 20
-194.04067840089999
 30
0.0
 11
794.70403752770005
 21
-189.54067789569999
 31
0.0
  0
ARC
  5
155
  8
ﾚｲﾔ_1
 62
     5
 10
796.45403752770005
 20
-194.04067815179999
 30
0.0
 40
1.75
 50
180.00000815529989
 51
359.99999171420001
  0
LINE
  5
156
  8
ﾚｲﾔ_1
 62
     5
 10
770.95403778009995
 20
-203.29067824160001
 30
0.0
 11
770.95403778009995
 21
-201.29067824160001
 31
0.0
  0
LINE
  5
157
  8
ﾚｲﾔ_1
 62
     5
 10
790.95403778009995
 20
-203.29067824160001
 30
0.0
 11
770.95403778009995
 21
-203.29067824160001
 31
0.0
  0
LINE
  5
158
  8
ﾚｲﾔ_1
 62
     5
 10
790.95403778009995
 20
-203.29067824160001
 30
0.0
 11
790.95403778009995
 21
-201.29067824160001
 31
0.0
  0
ARC
  5
159
  8
ﾚｲﾔ_1
 62
     5
 10
769.70403778009995
 20
-200.79067824160001
 30
0.0
 40
0.5
 50
180.0
 51
270.0
  0
ARC
  5
15A
  8
ﾚｲﾔ_1
 62
     5
 10
792.20403778009995
 20
-200.79067824160001
 30
0.0
 40
0.5
 50
270.0
 51
0.0
  0
ARC
  5
15B
  8
ﾚｲﾔ_1
 62
     5
 10
799.95403778009995
 20
-200.29067824160001
 30
0.0
 40
1.0
 50
269.99999116420003
 51
0.0
  0
ARC
  5
15C
  8
ﾚｲﾔ_1
 62
     5
 10
761.95403778009995
 20
-200.29067824160001
 30
0.0
 40
1.0
 50
180.0
 51
269.99998837269999
  0
LINE
  5
15D
  8
ﾚｲﾔ_1
 62
     5
 10
761.95403757719987
 20
-201.29067824160001
 30
0.0
 11
799.95403762590001
 21
-201.29067824160001
 31
0.0
  0
LINE
  5
15E
  8
ﾚｲﾔ_1
 62
     5
 10
854.39717195769992
 20
-242.1637029485
 30
0.0
 11
854.39717195769992
 21
-245.06370294850001
 31
0.0
  0
LINE
  5
15F
  8
ﾚｲﾔ_1
 62
     5
 10
853.89717195770004
 20
-245.06370294850001
 30
0.0
 11
855.89717195770004
 21
-245.06370294850001
 31
0.0
  0
ARC
  5
160
  8
ﾚｲﾔ_1
 62
     5
 10
856.39717195770015
 20
-248.1637029485
 30
0.0
 40
0.5
 50
90.0
 51
180.0
  0
LINE
  5
161
  8
ﾚｲﾔ_1
 62
     5
 10
856.39717195770015
 20
-247.6637029485
 30
0.0
 11
874.39717195770004
 21
-247.6637029485
 31
0.0
  0
DIMENSION
  5
170
  8
寸法線
  2
*D8
 10
812.83079216329998
 20
-195.79067815179999
 30
0.0
 11
812.83079216329998
 21
-191.79067815179999
 31
0.0
 70
   128
  1
<>
 13
796.45403752770005
 23
-195.79067815179999
 33
0.0
 14
796.45403752770005
 24
-187.79067815179999
 34
0.0
 50
90.0
  0
DIMENSION
  5
17F
  8
寸法線
  2
*D9
 10
798.20403752770005
 20
-177.91212748379999
 30
0.0
 11
804.21797311349997
 21
-177.91212748379999
 31
0.0
 70
   128
  1
<>
 13
798.20403752770005
 23
-189.5406777906
 33
0.0
 14
794.70403752770005
 24
-189.54067789569999
 34
0.0
  0
DIMENSION
  5
18E
  8
寸法線
  2
*D10
 10
796.45403752770005
 20
-171.71687520379999
 30
0.0
 11
780.95403752770005
 21
-171.71687520379999
 31
0.0
 70
   128
  1
<>
 13
796.45403752770005
 23
-186.29067815179999
 33
0.0
 14
765.45403752770005
 24
-186.29067815179999
 34
0.0
  0
ARC
  5
18F
  8
ﾚｲﾔ_1
 62
     5
 10
800.45403752770005
 20
-248.6637029501
 30
0.0
 40
0.5
 50
0.0
 51
90.0
  0
LINE
  5
190
  8
ﾚｲﾔ_1
 62
     5
 10
800.45403752770005
 20
-248.1637029501
 30
0.0
 11
792.70403752770005
 21
-248.1637029485
 31
0.0
  0
LINE
  5
191
  8
ﾚｲﾔ_1
 62
     5
 10
761.45403752770005
 20
-248.1637029501
 30
0.0
 11
769.20403752770005
 21
-248.1637031313
 31
0.0
  0
LINE
  5
192
  8
ﾚｲﾔ_1
 62
     5
 10
800.95403778009984
 20
-200.29067824160001
 30
0.0
 11
800.95403745470003
 21
-183.29067824160001
 31
0.0
  0
LINE
  5
193
  8
ﾚｲﾔ_1
 62
     5
 10
760.95403778009995
 20
-200.29067824160001
 30
0.0
 11
760.95403745470003
 21
-183.29067824160001
 31
0.0
  0
LINE
  5
194
  8
ﾚｲﾔ_1
  6
BORDER
 62
     3
 10
780.95403745470003
 20
-179.29067824160001
 30
0.0
 11
780.95403778009995
 21
-206.29067824160001
 31
0.0
  0
ARC
  5
195
  8
ﾚｲﾔ_1
 62
     5
 10
769.70403745470003
 20
-182.79067824160001
 30
0.0
 40
0.5
 50
90.0
 51
180.0
  0
ARC
  5
196
  8
ﾚｲﾔ_1
 62
     5
 10
792.20403745470003
 20
-182.79067824160001
 30
0.0
 40
0.5
 50
0.0
 51
90.0
  0
ARC
  5
197
  8
ﾚｲﾔ_1
 62
     5
 10
799.95403745470003
 20
-183.29067824160001
 30
0.0
 40
1.0
 50
0.0
 51
89.9999883001
  0
LINE
  5
198
  8
ﾚｲﾔ_1
 62
     5
 10
761.95403724869993
 20
-182.29067824160001
 30
0.0
 11
799.95403765890001
 21
-182.29067824160001
 31
0.0
  0
ARC
  5
199
  8
ﾚｲﾔ_1
 62
     5
 10
761.95403745470003
 20
-183.29067824160001
 30
0.0
 40
1.0
 50
90.000011800599992
 51
180.0
  0
ARC
  5
19A
  8
ﾚｲﾔ_1
 62
     5
 10
791.48713002670002
 20
-239.16370294699999
 30
0.0
 40
0.5
 50
5.1066363141000002
 51
90.0
  0
LINE
  5
19B
  8
ﾚｲﾔ_1
 62
     5
 10
791.48713002670002
 20
-238.66370294699999
 30
0.0
 11
770.42094502860004
 21
-238.66370312980001
 31
0.0
  0
ARC
  5
19C
  8
ﾚｲﾔ_1
 62
     5
 10
770.42094502860004
 20
-239.16370312980001
 30
0.0
 40
0.5
 50
90.0
 51
174.8933636859
  0
LINE
  5
19D
  8
ﾚｲﾔ_1
  6
BORDER
 62
     3
 10
803.95403752770005
 20
-191.7906780628
 30
0.0
 11
757.95403752770005
 21
-191.7906784205
 31
0.0
  0
LINE
  5
19E
  8
ﾚｲﾔ_1
 62
     5
 10
790.95403752770005
 20
-242.1637029485
 30
0.0
 11
770.95403752770005
 21
-242.1637029485
 31
0.0
  0
LINE
  5
19F
  8
ﾚｲﾔ_1
 62
     5
 10
790.95403752770005
 20
-240.36370294849999
 30
0.0
 11
770.95403752770005
 21
-240.36370294849999
 31
0.0
  0
LINE
  5
1A0
  8
ﾚｲﾔ_1
  6
BORDER
 62
     3
 10
765.45403752770005
 20
-197.29067815179999
 30
0.0
 11
765.45403752770005
 21
-186.29067815179999
 31
0.0
  0
LINE
  5
1A1
  8
ﾚｲﾔ_1
 62
     5
 10
853.89717195770004
 20
-246.86370294849999
 30
0.0
 11
855.89717195770004
 21
-246.86370294849999
 31
0.0
  0
ARC
  5
1A2
  8
ﾚｲﾔ_1
 62
     5
 10
874.39717195770004
 20
-248.1637029485
 30
0.0
 40
0.5
 50
0.0
 51
90.0
  0
LINE
  5
1A3
  8
ﾚｲﾔ_1
 62
     5
 10
853.89717195770004
 20
-246.86370294849999
 30
0.0
 11
853.89717195770004
 21
-245.06370294850001
 31
0.0
  0
LINE
  5
1A4
  8
ﾚｲﾔ_1
 62
     5
 10
855.89717195770004
 20
-239.16370304540001
 30
0.0
 11
855.89717195770004
 21
-251.1637029485
 31
0.0
  0
LINE
  5
1A5
  8
ﾚｲﾔ_1
 62
     5
 10
874.89717195769992
 20
-239.16370305660001
 30
0.0
 11
874.89717195769992
 21
-251.1637029485
 31
0.0
  0
LINE
  5
1A6
  8
ﾚｲﾔ_1
  6
BORDER
 62
     3
 10
865.39717195770004
 20
-235.6637029485
 30
0.0
 11
865.39717195770004
 21
-254.1637029485
 31
0.0
  0
LINE
  5
1A7
  8
ﾚｲﾔ_1
  6
BORDER
 62
     3
 10
780.95403761959994
 20
-235.6637029485
 30
0.0
 11
780.95403761959994
 21
-254.1637029485
 31
0.0
  0
LINE
  5
1A8
  8
ﾚｲﾔ_1
 62
     5
 10
935.00759783360013
 20
-182.00021253829999
 30
0.0
 11
936.00759783360002
 21
-183.00021253829999
 31
0.0
  0
LINE
  5
1A9
  8
ﾚｲﾔ_1
 62
     5
 10
936.00759783360002
 20
-182.00021253829999
 30
0.0
 11
936.00759783360002
 21
-194.50021253829999
 31
0.0
  0
LINE
  5
1AA
  8
ﾚｲﾔ_1
 62
     5
 10
936.00759783360002
 20
-194.50021253829999
 30
0.0
 11
913.50759783360013
 21
-194.50021253829999
 31
0.0
  0
INSERT
  5
1AB
  8
0
  6
CONTINUOUS
  2
*U41
 10
0.0
 20
0.0
 30
0.0
  0
INSERT
  5
1AC
  8
0
  6
CONTINUOUS
  2
*U42
 10
0.0
 20
0.0
 30
0.0
  0
LINE
  5
1AD
  8
ﾚｲﾔ_1
 10
954.25759783360002
 20
-185.6570341851
 30
0.0
 11
965.07720019550015
 21
-185.6570341851
 31
0.0
  0
ARC
  5
1AE
  8
ﾚｲﾔ_1
 62
     5
 10
765.45403752770005
 20
-194.04067815179999
 30
0.0
 40
1.75
 50
180.00000828579999
 51
359.99999184469999
  0
LINE
  5
1AF
  8
ﾚｲﾔ_1
 62
     5
 10
767.20403752770005
 20
-194.04067840089999
 30
0.0
 11
767.20403752770005
 21
-189.54067789569999
 31
0.0
  0
ARC
  5
1B0
  8
ﾚｲﾔ_1
 62
     5
 10
765.45403752770005
 20
-189.54067815179999
 30
0.0
 40
1.75
 50
0.0000083838
 51
179.99998817540001
  0
LINE
  5
1B1
  8
ﾚｲﾔ_1
 62
     5
 10
763.70403752770005
 20
-194.04067840490001
 30
0.0
 11
763.70403752770005
 21
-189.5406777906
 31
0.0
  0
LINE
  5
1B2
  8
ﾚｲﾔ_1
  6
BORDER
 62
     3
 10
796.45403752770005
 20
-197.29067815179999
 30
0.0
 11
796.45403752770005
 21
-186.29067815179999
 31
0.0
  0
LINE
  5
1B3
  8
ﾚｲﾔ_1
 62
     5
 10
855.89717195770004
 20
-251.1637029485
 30
0.0
 11
874.89717195769992
 21
-251.1637029485
 31
0.0
  0
LINE
  5
1B4
  8
ﾚｲﾔ_1
 62
     5
 10
853.89717195770004
 20
-240.36370294849999
 30
0.0
 11
855.89717195770004
 21
-240.36370294849999
 31
0.0
  0
LINE
  5
1B5
  8
ﾚｲﾔ_1
 62
     5
 10
853.89717195770004
 20
-240.36370294849999
 30
0.0
 11
853.89717195770004
 21
-242.1637029485
 31
0.0
  0
ARC
  5
1B6
  8
ﾚｲﾔ_1
 62
     5
 10
856.39717195770015
 20
-239.1637029485
 30
0.0
 40
0.5
 50
90.0
 51
180.00001110349999
  0
LINE
  5
1B7
  8
ﾚｲﾔ_1
 62
     5
 10
856.39717195770015
 20
-238.6637029485
 30
0.0
 11
874.39717195770004
 21
-238.6637029485
 31
0.0
  0
ARC
  5
1B8
  8
ﾚｲﾔ_1
 62
     5
 10
874.39717195770004
 20
-239.1637029485
 30
0.0
 40
0.5
 50
359.99998761569998
 51
90.0
  0
LINE
  5
1B9
  8
ﾚｲﾔ_1
 62
     5
 10
853.89717195770004
 20
-242.1637029485
 30
0.0
 11
855.89717195770004
 21
-242.1637029485
 31
0.0
  0
LINE
  5
1BA
  8
ﾚｲﾔ_1
 62
     5
 10
792.70403745470003
 20
-182.79067824160001
 30
0.0
 11
792.70403778009995
 21
-200.79067824160001
 31
0.0
  0
LINE
  5
1BB
  8
ﾚｲﾔ_1
 62
     5
 10
769.20403745470003
 20
-182.79067824160001
 30
0.0
 11
769.20403778009995
 21
-200.79067824160001
 31
0.0
  0
LINE
  5
1BC
  8
ﾚｲﾔ_1
 62
     5
 10
760.95403752770005
 20
-251.1637029485
 30
0.0
 11
800.95403752770005
 21
-251.1637029485
 31
0.0
  0
LINE
  5
1BD
  8
ﾚｲﾔ_1
 62
     5
 10
760.95403752770005
 20
-251.1637029485
 30
0.0
 11
800.95403752770005
 21
-251.1637029485
 31
0.0
  0
LINE
  5
1BE
  8
ﾚｲﾔ_1
 62
     5
 10
760.95403752770005
 20
-248.6637029501
 30
0.0
 11
760.95403752770005
 21
-251.1637029485
 31
0.0
  0
ARC
  5
1BF
  8
ﾚｲﾔ_1
 62
     5
 10
761.45403752770005
 20
-248.6637029501
 30
0.0
 40
0.5
 50
90.0
 51
180.0
  0
LINE
  5
1C0
  8
ﾚｲﾔ_1
 62
     5
 10
800.95403752770005
 20
-248.6637029501
 30
0.0
 11
800.95403752770005
 21
-251.1637029485
 31
0.0
  0
LINE
  5
1C1
  8
ﾚｲﾔ_1
 62
     5
 10
969.87157770549993
 20
-184.1554900973
 30
0.0
 11
972.34657770549995
 21
-188.44231584600001
 31
0.0
  0
LINE
  5
1C2
  8
ﾚｲﾔ_1
 62
     5
 10
969.87157770549993
 20
-184.1554900973
 30
0.0
 11
967.39657770550002
 21
-188.44231584600001
 31
0.0
  0
INSERT
  5
1C3
  8
0
  6
CONTINUOUS
  2
*U43
 10
0.0
 20
0.0
 30
0.0
  0
LINE
  5
1C4
  8
ﾚｲﾔ_1
 62
     5
 10
967.39657770550002
 20
-188.44231584600001
 30
0.0
 11
972.34657770549995
 21
-188.44231584600001
 31
0.0
  0
LINE
  5
1C5
  8
ﾚｲﾔ_1
 62
     5
 10
885.22630810179976
 20
-130.90300299239999
 30
0.0
 11
887.7013081017999
 21
-135.1898287411
 31
0.0
  0
LINE
  5
1C6
  8
ﾚｲﾔ_1
 62
     5
 10
885.22630810179976
 20
-130.90300299239999
 30
0.0
 11
882.75130810179985
 21
-135.1898287411
 31
0.0
  0
INSERT
  5
1C7
  8
0
  6
CONTINUOUS
  2
*U44
 10
0.0
 20
0.0
 30
0.0
  0
LINE
  5
1C8
  8
ﾚｲﾔ_1
 62
     5
 10
882.75130810179985
 20
-135.1898287411
 30
0.0
 11
887.7013081017999
 21
-135.1898287411
 31
0.0
  0
LINE
  5
1C9
  8
ﾚｲﾔ_1
  6
BORDER
 62
     3
 10
885.39717195770004
 20
-206.7284058482
 30
0.0
 11
975.39717195770004
 21
-206.7284058482
 31
0.0
  0
LINE
  5
1CA
  8
ﾚｲﾔ_1
  6
BORDER
 62
     3
 10
910.50759783360002
 20
-188.25021253829999
 30
0.0
 11
939.00759783360002
 21
-188.25021253829999
 31
0.0
  0
INSERT
  5
1CB
  8
0
  6
CONTINUOUS
  2
*U45
 10
0.0
 20
0.0
 30
0.0
  0
LINE
  5
1CC
  8
ﾚｲﾔ_1
  6
BORDER
 62
     3
 10
885.39717195770004
 20
-151.7284058482
 30
0.0
 11
975.39717195770004
 21
-151.7284058482
 31
0.0
  0
LINE
  5
1CD
  8
ﾚｲﾔ_1
  6
BORDER
 62
     3
 10
885.39717195770004
 20
-206.7284058482
 30
0.0
 11
885.39717195770004
 21
-151.7284058482
 31
0.0
  0
LINE
  5
1CE
  8
ﾚｲﾔ_1
 10
954.25759783360002
 20
-186.88113057059999
 30
0.0
 11
965.07720019550015
 21
-186.88113057059999
 31
0.0
  0
LINE
  5
1CF
  8
ﾚｲﾔ_1
  6
BORDER
 62
     3
 10
924.75759783360002
 20
-179.00021253829999
 30
0.0
 11
924.75759783360002
 21
-197.50021253829999
 31
0.0
  0
LINE
  5
1D0
  8
ﾚｲﾔ_1
 10
941.9968127791999
 20
-171.0096558482
 30
0.0
 11
969.35002246269994
 21
-171.0096558482
 31
0.0
  0
LINE
  5
1D1
  8
ﾚｲﾔ_1
 10
927.10753028249997
 20
-186.38532179480001
 30
0.0
 11
941.9968127791999
 21
-171.0096558482
 31
0.0
  0
SOLID
  5
1D2
  8
ﾚｲﾔ_1
 10
927.10753028249997
 20
-186.38532179480001
 30
0.0
 11
928.88258237469995
 21
-183.19346784620001
 31
0.0
 12
928.90406322319996
 22
-184.53010208469999
 32
0.0
 13
928.90406322319996
 23
-184.53010208469999
 33
0.0
  0
SOLID
  5
1D3
  8
ﾚｲﾔ_1
 10
927.10753028249997
 20
-186.38532179480001
 30
0.0
 11
930.24069746169994
 21
-184.50862123620001
 31
0.0
 12
928.90406322319996
 22
-184.53010208469999
 32
0.0
 13
928.90406322319996
 23
-184.53010208469999
 33
0.0
  0
CIRCLE
  5
1D4
  8
ﾚｲﾔ_1
 62
     5
 10
924.75759783360002
 20
-188.25021253829999
 30
0.0
 40
3.0
  0
LINE
  5
1D5
  8
ﾚｲﾔ_1
 62
     5
 10
913.50759783360013
 20
-194.50021253829999
 30
0.0
 11
913.50759783360013
 21
-182.00021253829999
 31
0.0
  0
CIRCLE
  5
1D6
  8
ﾚｲﾔ_1
 62
     5
 10
924.75759783360002
 20
-188.25021253829999
 30
0.0
 40
2.0
  0
LINE
  5
1D7
  8
ﾚｲﾔ_1
 62
     5
 10
913.50759783360013
 20
-182.00021253829999
 30
0.0
 11
936.00759783360002
 21
-182.00021253829999
 31
0.0
  0
INSERT
  5
1D8
  8
0
  6
CONTINUOUS
  2
*U46
 10
0.0
 20
0.0
 30
0.0
  0
LINE
  5
1D9
  8
ﾚｲﾔ_1
 62
     5
 10
914.50759783360002
 20
-182.00021253829999
 30
0.0
 11
913.50759783360013
 21
-183.00021253829999
 31
0.0
  0
LINE
  5
1DA
  8
ﾚｲﾔ_1
 62
     5
 10
935.00759783360013
 20
-194.50021253829999
 30
0.0
 11
936.00759783360002
 21
-193.50021253829999
 31
0.0
  0
LINE
  5
1DB
  8
ﾚｲﾔ_1
 62
     5
 10
914.50759783360002
 20
-194.50021253829999
 30
0.0
 11
913.50759783360013
 21
-193.50021253829999
 31
0.0
  0
ENDSEC
  0
EOF
