  0
SECTION
  2
HEADER
  9
$ACADVER
  1
AC1015
  9
$ACADMAINTVER
 70
    20
  9
$DWGCODEPAGE
  3
ANSI_932
  9
$INSBASE
 10
0.0
 20
0.0
 30
0.0
  9
$EXTMIN
 10
-186.75755015915
 20
-942.9656983324903
 30
-0.0015258207003583
  9
$EXTMAX
 10
1863.167559704277
 20
499.4698520598953
 30
0.0000000349246037
  9
$LIMMIN
 10
0.0
 20
0.0
  9
$LIMMAX
 10
0.0
 20
0.0
  9
$ORTHOMODE
 70
     1
  9
$REGENMODE
 70
     1
  9
$FILLMODE
 70
     1
  9
$QTEXTMODE
 70
     0
  9
$MIRRTEXT
 70
     1
  9
$LTSCALE
 40
1.0
  9
$ATTMODE
 70
     1
  9
$TEXTSIZE
 40
0.35
  9
$TRACEWID
 40
0.05
  9
$TEXTSTYLE
  7
Standard
  9
$CLAYER
  8
0
  9
$CELTYPE
  6
Continuous
  9
$CECOLOR
 62
   256
  9
$CELTSCALE
 40
1.0
  9
$DISPSILH
 70
     0
  9
$DIMSCALE
 40
1.0
  9
$DIMASZ
 40
3.0
  9
$DIMEXO
 40
1.0
  9
$DIMDLI
 40
0.38
  9
$DIMRND
 40
0.0
  9
$DIMDLE
 40
0.0
  9
$DIMEXE
 40
0.5
  9
$DIMTP
 40
0.0
  9
$DIMTM
 40
0.0
  9
$DIMTXT
 40
3.527777777777776
  9
$DIMCEN
 40
0.09
  9
$DIMTSZ
 40
0.0
  9
$DIMTOL
 70
     0
  9
$DIMLIM
 70
     0
  9
$DIMTIH
 70
     0
  9
$DIMTOH
 70
     0
  9
$DIMSE1
 70
     0
  9
$DIMSE2
 70
     0
  9
$DIMTAD
 70
     1
  9
$DIMZIN
 70
     0
  9
$DIMBLK
  1

  9
$DIMASO
 70
     1
  9
$DIMSHO
 70
     1
  9
$DIMPOST
  1

  9
$DIMAPOST
  1

  9
$DIMALT
 70
     0
  9
$DIMALTD
 70
     3
  9
$DIMALTF
 40
25.4
  9
$DIMLFAC
 40
1.0
  9
$DIMTOFL
 70
     0
  9
$DIMTVP
 40
0.0
  9
$DIMTIX
 70
     0
  9
$DIMSOXD
 70
     0
  9
$DIMSAH
 70
     0
  9
$DIMBLK1
  1

  9
$DIMBLK2
  1

  9
$DIMSTYLE
  2
Standard
  9
$DIMCLRD
 70
     7
  9
$DIMCLRE
 70
     7
  9
$DIMCLRT
 70
     7
  9
$DIMTFAC
 40
1.0
  9
$DIMGAP
 40
1.0
  9
$DIMJUST
 70
     0
  9
$DIMSD1
 70
     0
  9
$DIMSD2
 70
     0
  9
$DIMTOLJ
 70
     1
  9
$DIMTZIN
 70
     0
  9
$DIMALTZ
 70
     0
  9
$DIMALTTZ
 70
     0
  9
$DIMUPT
 70
     0
  9
$DIMDEC
 70
     3
  9
$DIMTDEC
 70
     4
  9
$DIMALTU
 70
     2
  9
$DIMALTTD
 70
     2
  9
$DIMTXSTY
  7
Standard
  9
$DIMAUNIT
 70
     0
  9
$DIMADEC
 70
     0
  9
$DIMALTRND
 40
0.0
  9
$DIMAZIN
 70
     0
  9
$DIMDSEP
 70
     0
  9
$DIMATFIT
 70
     3
  9
$DIMFRAC
 70
     0
  9
$DIMLDRBLK
  1

  9
$DIMLUNIT
 70
     2
  9
$DIMLWD
 70
     0
  9
$DIMLWE
 70
     0
  9
$DIMTMOVE
 70
     0
  9
$LUNITS
 70
     2
  9
$LUPREC
 70
     4
  9
$SKETCHINC
 40
0.1
  9
$FILLETRAD
 40
0.0
  9
$AUNITS
 70
     0
  9
$AUPREC
 70
     0
  9
$MENU
  1
acad
  9
$ELEVATION
 40
0.0
  9
$PELEVATION
 40
0.0
  9
$THICKNESS
 40
0.0
  9
$LIMCHECK
 70
     0
  9
$CHAMFERA
 40
0.0
  9
$CHAMFERB
 40
0.0
  9
$CHAMFERC
 40
0.0
  9
$CHAMFERD
 40
0.0
  9
$SKPOLY
 70
     0
  9
$TDCREATE
 40
2456937.952777778
  9
$TDUCREATE
 40
2456937.577777778
  9
$TDUPDATE
 40
2456937.600794630
  9
$TDUUPDATE
 40
2456937.225794630
  9
$TDINDWG
 40
0.0081204861
  9
$TDUSRTIMER
 40
0.0081204861
  9
$USRTIMER
 70
     1
  9
$ANGBASE
 50
0.0
  9
$ANGDIR
 70
     0
  9
$PDMODE
 70
     0
  9
$PDSIZE
 40
0.0
  9
$PLINEWID
 40
0.0
  9
$SPLFRAME
 70
     0
  9
$SPLINETYPE
 70
     6
  9
$SPLINESEGS
 70
     8
  9
$HANDSEED
  5
3D7
  9
$SURFTAB1
 70
     6
  9
$SURFTAB2
 70
     6
  9
$SURFTYPE
 70
     6
  9
$SURFU
 70
     6
  9
$SURFV
 70
     6
  9
$UCSBASE
  2

  9
$UCSNAME
  2

  9
$UCSORG
 10
0.0
 20
0.0
 30
0.0
  9
$UCSXDIR
 10
1.0
 20
0.0
 30
0.0
  9
$UCSYDIR
 10
0.0
 20
1.0
 30
0.0
  9
$UCSORTHOREF
  2

  9
$UCSORTHOVIEW
 70
     0
  9
$UCSORGTOP
 10
0.0
 20
0.0
 30
0.0
  9
$UCSORGBOTTOM
 10
0.0
 20
0.0
 30
0.0
  9
$UCSORGLEFT
 10
0.0
 20
0.0
 30
0.0
  9
$UCSORGRIGHT
 10
0.0
 20
0.0
 30
0.0
  9
$UCSORGFRONT
 10
0.0
 20
0.0
 30
0.0
  9
$UCSORGBACK
 10
0.0
 20
0.0
 30
0.0
  9
$PUCSBASE
  2

  9
$PUCSNAME
  2

  9
$PUCSORG
 10
0.0
 20
0.0
 30
0.0
  9
$PUCSXDIR
 10
1.0
 20
0.0
 30
0.0
  9
$PUCSYDIR
 10
0.0
 20
1.0
 30
0.0
  9
$PUCSORTHOREF
  2

  9
$PUCSORTHOVIEW
 70
     0
  9
$PUCSORGTOP
 10
0.0
 20
0.0
 30
0.0
  9
$PUCSORGBOTTOM
 10
0.0
 20
0.0
 30
0.0
  9
$PUCSORGLEFT
 10
0.0
 20
0.0
 30
0.0
  9
$PUCSORGRIGHT
 10
0.0
 20
0.0
 30
0.0
  9
$PUCSORGFRONT
 10
0.0
 20
0.0
 30
0.0
  9
$PUCSORGBACK
 10
0.0
 20
0.0
 30
0.0
  9
$USERI1
 70
     0
  9
$USERI2
 70
     0
  9
$USERI3
 70
     0
  9
$USERI4
 70
     0
  9
$USERI5
 70
     0
  9
$USERR1
 40
0.0
  9
$USERR2
 40
0.0
  9
$USERR3
 40
0.0
  9
$USERR4
 40
0.0
  9
$USERR5
 40
0.0
  9
$WORLDVIEW
 70
     1
  9
$SHADEDGE
 70
     3
  9
$SHADEDIF
 70
    70
  9
$TILEMODE
 70
     1
  9
$MAXACTVP
 70
    16
  9
$PINSBASE
 10
0.0
 20
0.0
 30
0.0
  9
$PLIMCHECK
 70
     0
  9
$PEXTMIN
 10
1.000000000000000E+20
 20
1.000000000000000E+20
 30
1.000000000000000E+20
  9
$PEXTMAX
 10
-1.000000000000000E+20
 20
-1.000000000000000E+20
 30
-1.000000000000000E+20
  9
$PLIMMIN
 10
0.0
 20
0.0
  9
$PLIMMAX
 10
12.0
 20
9.0
  9
$UNITMODE
 70
     0
  9
$VISRETAIN
 70
     0
  9
$PLINEGEN
 70
     1
  9
$PSLTSCALE
 70
     0
  9
$TREEDEPTH
 70
  3020
  9
$CMLSTYLE
  2
Standard
  9
$CMLJUST
 70
     0
  9
$CMLSCALE
 40
1.0
  9
$PROXYGRAPHICS
 70
     0
  9
$MEASUREMENT
 70
     0
  9
$CELWEIGHT
370
     0
  9
$ENDCAPS
280
     0
  9
$JOINSTYLE
280
     0
  9
$LWDISPLAY
290
     0
  9
$INSUNITS
 70
     0
  9
$HYPERLINKBASE
  1

  9
$STYLESHEET
  1

  9
$XEDIT
290
     1
  9
$CEPSNTYPE
380
     0
  9
$PSTYLEMODE
290
     1
  9
$FINGERPRINTGUID
  2

  9
$VERSIONGUID
  2
{298D5A28-9AF3-449D-AE09-B080EDC91853}
  9
$EXTNAMES
290
     1
  9
$PSVPSCALE
 40
0.0
  9
$OLESTARTUP
290
     0
  0
ENDSEC
  0
SECTION
  2
CLASSES
  0
CLASS
  1
IMAGE
  2
AcDbRasterImage
  3
ISM
 90
    32895
280
     0
281
     1
  0
CLASS
  1
DICTIONARYVAR
  2
AcDbDictionaryVar
  3
ObjectDBX Classes
 90
        0
280
     0
281
     0
  0
CLASS
  1
RASTERVARIABLES
  2
AcDbRasterVariables
  3
ISM
 90
    32768
280
     0
281
     0
  0
CLASS
  1
IMAGEDEF
  2
AcDbRasterImageDef
  3
ISM
 90
    32768
280
     0
281
     0
  0
CLASS
  1
IMAGEDEF_REACTOR
  2
AcDbRasterImageDefReactor
  3
ISM
 90
    32769
280
     0
281
     0
  0
CLASS
  1
IDBUFFER
  2
AcDbIdBuffer
  3
ObjectDBX Classes
 90
    32768
280
     0
281
     0
  0
CLASS
  1
SPATIAL_FILTER
  2
AcDbSpatialFilter
  3
ObjectDBX Classes
 90
    32768
280
     0
281
     0
  0
CLASS
  1
SORTENTSTABLE
  2
AcDbSortentsTable
  3
ObjectDBX Classes
 90
    32768
280
     0
281
     0
  0
CLASS
  1
LAYER_INDEX
  2
AcDbLayerIndex
  3
ObjectDBX Classes
 90
    32768
280
     0
281
     0
  0
CLASS
  1
SPATIAL_INDEX
  2
AcDbSpatialIndex
  3
ObjectDBX Classes
 90
    32768
280
     0
281
     0
  0
CLASS
  1
OBJECT_PTR
  2
CAseDLPNTableRecord
  3
ASE-LPNTableRecord
 90
    32769
280
     0
281
     0
  0
CLASS
  1
LAYOUT
  2
AcDbLayout
  3
ObjectDBX Classes
 90
        0
280
     0
281
     0
  0
CLASS
  1
PLOTSETTINGS
  2
AcDbPlotSettings
  3
ObjectDBX Classes
 90
    32768
280
     0
281
     0
  0
CLASS
  1
ACDBDICTIONARYWDFLT
  2
AcDbDictionaryWithDefault
  3
ObjectDBX Classes
 90
        0
280
     0
281
     0
  0
CLASS
  1
ACDBPLACEHOLDER
  2
AcDbPlaceHolder
  3
ObjectDBX Classes
 90
        0
280
     0
281
     0
  0
CLASS
  1
VBA_PROJECT
  2
AcDbVbaProject
  3
acad
 90
    32768
280
     0
281
     0
  0
CLASS
  1
WIPEOUT
  2
AcDbWipeout
  3
"WipeOut|Product Desc: Object Enabler for WipeOut entity^I^I^I^I^I^I|Company: Autodesk, Inc.^I^I^I^I^I^I|WEB Address: www.autodesk.com"
 90
    32895
280
     0
281
     1
  0
CLASS
  1
WIPEOUTVARIABLES
  2
AcDbWipeoutVariables
  3
"WipeOut|Product Desc:     WipeOut Dbx Application|Company:          Autodesk, Inc.|WEB Address:      www.autodesk.com"
 90
        0
280
     0
281
     0
  0
CLASS
  1
RTEXT
  2
RText
  3
RText|AutoCAD Express Tool|expresstools@autodesk.com
 90
    32768
280
     0
281
     1
  0
CLASS
  1
ARCALIGNEDTEXT
  2
AcDbArcAlignedText
  3
ATEXT|AutoCAD Express Tool|expresstools@autodesk.com
 90
    32768
280
     0
281
     1
  0
ENDSEC
  0
SECTION
  2
TABLES
  0
TABLE
  2
VPORT
  5
7
330
0
100
AcDbSymbolTable
 70
     2
  0
VPORT
  5
3CF
330
7
100
AcDbSymbolTableRecord
100
AcDbViewportTableRecord
  2
*Active
 70
     0
 10
0.0
 20
0.0
 11
1.0
 21
1.0
 12
838.2050047725638
 22
-221.7479231362974
 13
0.0
 23
0.0
 14
1.0
 24
1.0
 15
0.0
 25
0.0
 16
0.0
 26
0.0
 36
1.0
 17
0.0
 27
0.0
 37
0.0
 40
1455.430465260786
 41
2.530827067669172
 42
50.0
 43
0.0
 44
0.0
 50
0.0
 51
0.0
 71
     0
 72
   100
 73
     1
 74
     1
 75
     0
 76
     0
 77
     0
 78
     0
281
     0
 65
     0
110
0.0
120
0.0
130
0.0
111
1.0
121
0.0
131
0.0
112
0.0
122
1.0
132
0.0
 79
     0
146
0.0
  0
ENDTAB
  0
TABLE
  2
LTYPE
  5
4
330
0
100
AcDbSymbolTable
 70
    11
  0
LTYPE
  5
11
330
4
100
AcDbSymbolTableRecord
100
AcDbLinetypeTableRecord
  2
ByBlock
 70
     0
  3

 72
    65
 73
     0
 40
0.0
  0
LTYPE
  5
12
330
4
100
AcDbSymbolTableRecord
100
AcDbLinetypeTableRecord
  2
ByLayer
 70
     0
  3

 72
    65
 73
     0
 40
0.0
  0
LTYPE
  5
13
330
4
100
AcDbSymbolTableRecord
100
AcDbLinetypeTableRecord
  2
Continuous
 70
     0
  3
Solid line
 72
    65
 73
     0
 40
0.0
  0
LTYPE
  5
24
330
4
100
AcDbSymbolTableRecord
100
AcDbLinetypeTableRecord
  2
DOT
 70
     0
  3

 72
    65
 73
     2
 40
1.0
 49
0.0
 74
     0
 49
-1.0
 74
     0
  0
LTYPE
  5
25
330
4
100
AcDbSymbolTableRecord
100
AcDbLinetypeTableRecord
  2
DASHEDX2
 70
     0
  3

 72
    65
 73
     2
 40
4.0
 49
3.0
 74
     0
 49
-1.0
 74
     0
  0
LTYPE
  5
26
330
4
100
AcDbSymbolTableRecord
100
AcDbLinetypeTableRecord
  2
DASHED
 70
     0
  3

 72
    65
 73
     2
 40
3.0
 49
2.0
 74
     0
 49
-1.0
 74
     0
  0
LTYPE
  5
27
330
4
100
AcDbSymbolTableRecord
100
AcDbLinetypeTableRecord
  2
DASHED2
 70
     0
  3

 72
    65
 73
     2
 40
2.0
 49
1.0
 74
     0
 49
-1.0
 74
     0
  0
LTYPE
  5
28
330
4
100
AcDbSymbolTableRecord
100
AcDbLinetypeTableRecord
  2
CENTERX2
 70
     0
  3

 72
    65
 73
     4
 40
43.0
 49
40.0
 74
     0
 49
-1.0
 74
     0
 49
1.0
 74
     0
 49
-1.0
 74
     0
  0
LTYPE
  5
29
330
4
100
AcDbSymbolTableRecord
100
AcDbLinetypeTableRecord
  2
CENTER
 70
     0
  3

 72
    65
 73
     4
 40
33.0
 49
30.0
 74
     0
 49
-1.0
 74
     0
 49
1.0
 74
     0
 49
-1.0
 74
     0
  0
LTYPE
  5
2A
330
4
100
AcDbSymbolTableRecord
100
AcDbLinetypeTableRecord
  2
CENTER2
 70
     0
  3

 72
    65
 73
     4
 40
23.0
 49
20.0
 74
     0
 49
-1.0
 74
     0
 49
1.0
 74
     0
 49
-1.0
 74
     0
  0
LTYPE
  5
2B
330
4
100
AcDbSymbolTableRecord
100
AcDbLinetypeTableRecord
  2
PHANTOMX2
 70
     0
  3

 72
    65
 73
     6
 40
45.0
 49
40.0
 74
     0
 49
-1.0
 74
     0
 49
1.0
 74
     0
 49
-1.0
 74
     0
 49
1.0
 74
     0
 49
-1.0
 74
     0
  0
LTYPE
  5
2C
330
4
100
AcDbSymbolTableRecord
100
AcDbLinetypeTableRecord
  2
PHANTOM
 70
     0
  3

 72
    65
 73
     6
 40
35.0
 49
30.0
 74
     0
 49
-1.0
 74
     0
 49
1.0
 74
     0
 49
-1.0
 74
     0
 49
1.0
 74
     0
 49
-1.0
 74
     0
  0
LTYPE
  5
2D
330
4
100
AcDbSymbolTableRecord
100
AcDbLinetypeTableRecord
  2
PHANTOM2
 70
     0
  3

 72
    65
 73
     6
 40
25.0
 49
20.0
 74
     0
 49
-1.0
 74
     0
 49
1.0
 74
     0
 49
-1.0
 74
     0
 49
1.0
 74
     0
 49
-1.0
 74
     0
  0
ENDTAB
  0
TABLE
  2
LAYER
  5
2
330
0
100
AcDbSymbolTable
 70
    13
  0
LAYER
  5
14
330
2
100
AcDbSymbolTableRecord
100
AcDbLayerTableRecord
  2
0
 70
     0
 62
     7
  6
Continuous
370
    -3
390
1D
  0
LAYER
  5
2E
330
2
100
AcDbSymbolTableRecord
100
AcDbLayerTableRecord
  2
DEFPOINTS
 70
     0
 62
     7
  6
Continuous
290
     0
370
    -3
390
1D
  0
LAYER
  5
2F
330
2
100
AcDbSymbolTableRecord
100
AcDbLayerTableRecord
  2
____1
 70
     0
 62
     7
  6
Continuous
370
    -3
390
1D
  0
LAYER
  5
30
330
2
100
AcDbSymbolTableRecord
100
AcDbLayerTableRecord
  2
______
 70
     0
 62
     7
  6
Continuous
370
    -3
390
1D
  0
LAYER
  5
31
330
2
100
AcDbSymbolTableRecord
100
AcDbLayerTableRecord
  2
寸法線_1
 70
     0
 62
     7
  6
Continuous
370
    -3
390
1D
  0
LAYER
  5
32
330
2
100
AcDbSymbolTableRecord
100
AcDbLayerTableRecord
  2
CONSTRUCTION
 70
     0
 62
     7
  6
Continuous
370
    -3
390
1D
  0
LAYER
  5
33
330
2
100
AcDbSymbolTableRecord
100
AcDbLayerTableRecord
  2
DIMENSION
 70
     0
 62
     7
  6
Continuous
370
    -3
390
1D
  0
LAYER
  5
34
330
2
100
AcDbSymbolTableRecord
100
AcDbLayerTableRecord
  2
FORMAT
 70
     0
 62
     7
  6
Continuous
370
    -3
390
1D
  0
LAYER
  5
35
330
2
100
AcDbSymbolTableRecord
100
AcDbLayerTableRecord
  2
____2
 70
     0
 62
     5
  6
Continuous
370
    -3
390
1D
  0
LAYER
  5
36
330
2
100
AcDbSymbolTableRecord
100
AcDbLayerTableRecord
  2
0_1
 70
     0
 62
     5
  6
Continuous
370
    -3
390
1D
  0
LAYER
  5
37
330
2
100
AcDbSymbolTableRecord
100
AcDbLayerTableRecord
  2
DEFPOINTS_1
 70
     0
 62
     5
  6
Continuous
370
    -3
390
1D
  0
LAYER
  5
38
330
2
100
AcDbSymbolTableRecord
100
AcDbLayerTableRecord
  2
____
 70
     0
 62
    -7
  6
DOT
370
    -3
390
1D
  0
LAYER
  5
39
330
2
100
AcDbSymbolTableRecord
100
AcDbLayerTableRecord
  2
___G
 70
     0
 62
     7
  6
DOT
370
    -3
390
1D
  0
ENDTAB
  0
TABLE
  2
STYLE
  5
3
330
0
100
AcDbSymbolTable
 70
     2
  0
STYLE
  5
17
330
3
100
AcDbSymbolTableRecord
100
AcDbTextStyleTableRecord
  2
Standard
 70
     0
 40
0.0
 41
1.0
 50
0.0
 71
     0
 42
0.35
  3
txt
  4

  0
STYLE
  5
3B
330
3
100
AcDbSymbolTableRecord
100
AcDbTextStyleTableRecord
  2
Style1
 70
     0
 40
0.0
 41
1.0
 50
0.0
 71
     0
 42
0.35
  3
ＭＳ ゴシック
  4

  0
ENDTAB
  0
TABLE
  2
VIEW
  5
5
330
0
100
AcDbSymbolTable
 70
     0
  0
ENDTAB
  0
TABLE
  2
UCS
  5
6
330
0
100
AcDbSymbolTable
 70
     0
  0
ENDTAB
  0
TABLE
  2
APPID
  5
8
330
0
100
AcDbSymbolTable
 70
     2
  0
APPID
  5
16
330
8
100
AcDbSymbolTableRecord
100
AcDbRegAppTableRecord
  2
ACAD
 70
     0
  0
APPID
  5
383
330
8
100
AcDbSymbolTableRecord
100
AcDbRegAppTableRecord
  2
DCO15
 70
     0
  0
ENDTAB
  0
TABLE
  2
DIMSTYLE
  5
9
330
0
100
AcDbSymbolTable
 70
     2
100
AcDbDimStyleTable
 71
     0
  0
DIMSTYLE
105
18
330
9
100
AcDbSymbolTableRecord
100
AcDbDimStyleTableRecord
  2
Standard
 70
     0
 41
3.0
 42
1.0
 44
0.5
 73
     0
 74
     0
 77
     1
140
3.527777777777776
147
1.0
171
     3
176
     7
177
     7
178
     7
271
     3
289
     0
340
17
  0
DIMSTYLE
105
1AC
102
{ACAD_REACTORS
330
1AB
330
1BA
330
1C8
330
1D5
330
1E3
330
1F2
102
}
330
9
100
AcDbSymbolTableRecord
100
AcDbDimStyleTableRecord
  2
DS1
 70
     0
 41
3.0
 42
1.0
 44
0.5
 73
     0
 74
     0
 77
     1
 78
     8
140
17.63888931274414
147
1.0
171
     3
176
     7
177
     7
178
     7
271
     3
340
17
  0
ENDTAB
  0
TABLE
  2
BLOCK_RECORD
  5
1
330
0
100
AcDbSymbolTable
 70
    47
  0
BLOCK_RECORD
  5
A
330
1
100
AcDbSymbolTableRecord
100
AcDbBlockTableRecord
  2
*MODEL_SPACE
340
20
  0
BLOCK_RECORD
  5
B
330
1
100
AcDbSymbolTableRecord
100
AcDbBlockTableRecord
  2
*PAPER_SPACE
340
21
  0
BLOCK_RECORD
  5
41
330
1
100
AcDbSymbolTableRecord
100
AcDbBlockTableRecord
  2
C0
340
0
  0
BLOCK_RECORD
  5
EE
330
1
100
AcDbSymbolTableRecord
100
AcDbBlockTableRecord
  2
C1
340
0
102
{BLKREFS
331
F5
102
}
  0
BLOCK_RECORD
  5
F6
330
1
100
AcDbSymbolTableRecord
100
AcDbBlockTableRecord
  2
C2
340
0
102
{BLKREFS
331
FD
102
}
  0
BLOCK_RECORD
  5
FE
330
1
100
AcDbSymbolTableRecord
100
AcDbBlockTableRecord
  2
C3
340
0
102
{BLKREFS
331
105
102
}
  0
BLOCK_RECORD
  5
106
330
1
100
AcDbSymbolTableRecord
100
AcDbBlockTableRecord
  2
C4
340
0
102
{BLKREFS
331
10D
102
}
  0
BLOCK_RECORD
  5
10E
330
1
100
AcDbSymbolTableRecord
100
AcDbBlockTableRecord
  2
C5
340
0
102
{BLKREFS
331
115
102
}
  0
BLOCK_RECORD
  5
116
330
1
100
AcDbSymbolTableRecord
100
AcDbBlockTableRecord
  2
C6
340
0
102
{BLKREFS
331
11D
102
}
  0
BLOCK_RECORD
  5
11E
330
1
100
AcDbSymbolTableRecord
100
AcDbBlockTableRecord
  2
C7
340
0
102
{BLKREFS
331
125
102
}
  0
BLOCK_RECORD
  5
126
330
1
100
AcDbSymbolTableRecord
100
AcDbBlockTableRecord
  2
C8
340
0
102
{BLKREFS
331
12D
102
}
  0
BLOCK_RECORD
  5
12F
330
1
100
AcDbSymbolTableRecord
100
AcDbBlockTableRecord
  2
C9
340
0
102
{BLKREFS
331
136
102
}
  0
BLOCK_RECORD
  5
137
330
1
100
AcDbSymbolTableRecord
100
AcDbBlockTableRecord
  2
C10
340
0
102
{BLKREFS
331
13E
102
}
  0
BLOCK_RECORD
  5
13F
330
1
100
AcDbSymbolTableRecord
100
AcDbBlockTableRecord
  2
C11
340
0
102
{BLKREFS
331
146
102
}
  0
BLOCK_RECORD
  5
147
330
1
100
AcDbSymbolTableRecord
100
AcDbBlockTableRecord
  2
C12
340
0
102
{BLKREFS
331
14E
102
}
  0
BLOCK_RECORD
  5
14F
330
1
100
AcDbSymbolTableRecord
100
AcDbBlockTableRecord
  2
C13
340
0
102
{BLKREFS
331
156
102
}
  0
BLOCK_RECORD
  5
157
330
1
100
AcDbSymbolTableRecord
100
AcDbBlockTableRecord
  2
C14
340
0
102
{BLKREFS
331
15E
102
}
  0
BLOCK_RECORD
  5
15F
330
1
100
AcDbSymbolTableRecord
100
AcDbBlockTableRecord
  2
C15
340
0
102
{BLKREFS
331
166
102
}
  0
BLOCK_RECORD
  5
167
330
1
100
AcDbSymbolTableRecord
100
AcDbBlockTableRecord
  2
C16
340
0
102
{BLKREFS
331
16E
102
}
  0
BLOCK_RECORD
  5
16F
330
1
100
AcDbSymbolTableRecord
100
AcDbBlockTableRecord
  2
C17
340
0
102
{BLKREFS
331
176
102
}
  0
BLOCK_RECORD
  5
177
330
1
100
AcDbSymbolTableRecord
100
AcDbBlockTableRecord
  2
C18
340
0
102
{BLKREFS
331
17E
102
}
  0
BLOCK_RECORD
  5
17F
330
1
100
AcDbSymbolTableRecord
100
AcDbBlockTableRecord
  2
C19
340
0
102
{BLKREFS
331
186
102
}
  0
BLOCK_RECORD
  5
187
330
1
100
AcDbSymbolTableRecord
100
AcDbBlockTableRecord
  2
C20
340
0
102
{BLKREFS
331
18E
102
}
  0
BLOCK_RECORD
  5
18F
330
1
100
AcDbSymbolTableRecord
100
AcDbBlockTableRecord
  2
C21
340
0
102
{BLKREFS
331
196
102
}
  0
BLOCK_RECORD
  5
197
330
1
100
AcDbSymbolTableRecord
100
AcDbBlockTableRecord
  2
C22
340
0
102
{BLKREFS
331
19E
102
}
  0
BLOCK_RECORD
  5
19F
330
1
100
AcDbSymbolTableRecord
100
AcDbBlockTableRecord
  2
*D23
340
0
  0
BLOCK_RECORD
  5
1AD
330
1
100
AcDbSymbolTableRecord
100
AcDbBlockTableRecord
  2
*D24
340
0
  0
BLOCK_RECORD
  5
1BB
330
1
100
AcDbSymbolTableRecord
100
AcDbBlockTableRecord
  2
*D25
340
0
  0
BLOCK_RECORD
  5
1C9
330
1
100
AcDbSymbolTableRecord
100
AcDbBlockTableRecord
  2
*D26
340
0
  0
BLOCK_RECORD
  5
1D6
330
1
100
AcDbSymbolTableRecord
100
AcDbBlockTableRecord
  2
*D27
340
0
  0
BLOCK_RECORD
  5
1E4
330
1
100
AcDbSymbolTableRecord
100
AcDbBlockTableRecord
  2
*D28
340
0
  0
BLOCK_RECORD
  5
1F9
330
1
100
AcDbSymbolTableRecord
100
AcDbBlockTableRecord
  2
C23
340
0
102
{BLKREFS
331
200
102
}
  0
BLOCK_RECORD
  5
201
330
1
100
AcDbSymbolTableRecord
100
AcDbBlockTableRecord
  2
C24
340
0
102
{BLKREFS
331
208
102
}
  0
BLOCK_RECORD
  5
20A
330
1
100
AcDbSymbolTableRecord
100
AcDbBlockTableRecord
  2
C25
340
0
102
{BLKREFS
331
211
102
}
  0
BLOCK_RECORD
  5
212
330
1
100
AcDbSymbolTableRecord
100
AcDbBlockTableRecord
  2
C26
340
0
102
{BLKREFS
331
219
102
}
  0
BLOCK_RECORD
  5
21A
330
1
100
AcDbSymbolTableRecord
100
AcDbBlockTableRecord
  2
C27
340
0
102
{BLKREFS
331
221
102
}
  0
BLOCK_RECORD
  5
222
330
1
100
AcDbSymbolTableRecord
100
AcDbBlockTableRecord
  2
C28
340
0
102
{BLKREFS
331
229
102
}
  0
BLOCK_RECORD
  5
22A
330
1
100
AcDbSymbolTableRecord
100
AcDbBlockTableRecord
  2
C29
340
0
102
{BLKREFS
331
231
102
}
  0
BLOCK_RECORD
  5
232
330
1
100
AcDbSymbolTableRecord
100
AcDbBlockTableRecord
  2
C30
340
0
102
{BLKREFS
331
239
102
}
  0
BLOCK_RECORD
  5
23A
330
1
100
AcDbSymbolTableRecord
100
AcDbBlockTableRecord
  2
C31
340
0
102
{BLKREFS
331
241
102
}
  0
BLOCK_RECORD
  5
242
330
1
100
AcDbSymbolTableRecord
100
AcDbBlockTableRecord
  2
C32
340
0
102
{BLKREFS
331
249
102
}
  0
BLOCK_RECORD
  5
24A
330
1
100
AcDbSymbolTableRecord
100
AcDbBlockTableRecord
  2
C33
340
0
102
{BLKREFS
331
251
102
}
  0
BLOCK_RECORD
  5
252
330
1
100
AcDbSymbolTableRecord
100
AcDbBlockTableRecord
  2
C34
340
0
102
{BLKREFS
331
259
102
}
  0
BLOCK_RECORD
  5
25A
330
1
100
AcDbSymbolTableRecord
100
AcDbBlockTableRecord
  2
C35
340
0
102
{BLKREFS
331
261
102
}
  0
BLOCK_RECORD
  5
262
330
1
100
AcDbSymbolTableRecord
100
AcDbBlockTableRecord
  2
C36
340
0
102
{BLKREFS
331
269
102
}
  0
BLOCK_RECORD
  5
26B
330
1
100
AcDbSymbolTableRecord
100
AcDbBlockTableRecord
  2
C37
340
0
102
{BLKREFS
331
272
102
}
  0
BLOCK_RECORD
  5
276
330
1
100
AcDbSymbolTableRecord
100
AcDbBlockTableRecord
  2
C38
340
0
102
{BLKREFS
331
27D
102
}
  0
BLOCK_RECORD
  5
27E
330
1
100
AcDbSymbolTableRecord
100
AcDbBlockTableRecord
  2
C39
340
0
102
{BLKREFS
331
285
102
}
  0
BLOCK_RECORD
  5
286
330
1
100
AcDbSymbolTableRecord
100
AcDbBlockTableRecord
  2
C40
340
0
102
{BLKREFS
331
28D
102
}
  0
ENDTAB
  0
ENDSEC
  0
SECTION
  2
BLOCKS
  0
BLOCK
  5
D
330
A
100
AcDbEntity
  8
0
100
AcDbBlockBegin
  2
*MODEL_SPACE
 70
     0
 10
0.0
 20
0.0
 30
0.0
  3
*MODEL_SPACE
  1

  0
ENDBLK
  5
E
330
A
100
AcDbEntity
  8
0
100
AcDbBlockEnd
  0
BLOCK
  5
F
330
B
100
AcDbEntity
 67
     1
  8
0
100
AcDbBlockBegin
  2
*PAPER_SPACE
 70
     0
 10
0.0
 20
0.0
 30
0.0
  3
*PAPER_SPACE
  1

  0
ENDBLK
  5
10
330
B
100
AcDbEntity
 67
     1
  8
0
100
AcDbBlockEnd
  0
BLOCK
  5
42
330
41
100
AcDbEntity
  8
0
100
AcDbBlockBegin
  2
C0
 70
     0
 10
0.0
 20
0.0
 30
0.0
  3
C0
  1

  0
LINE
  5
43
330
41
100
AcDbEntity
  8
___G
  6
Continuous
 62
     7
370
    18
100
AcDbLine
 10
1321.508232441434
 20
-893.8416872488948
 30
0.0
 11
1331.508232441434
 21
-893.8416872488948
 31
0.0
  0
LINE
  5
44
330
41
100
AcDbEntity
  8
___G
  6
Continuous
 62
     7
370
     5
100
AcDbLine
 10
1113.205000000001
 20
-756.7250520833341
 30
0.0
 11
1113.205000000001
 21
-921.725052083334
 31
0.0
  0
LINE
  5
45
330
41
100
AcDbEntity
  8
___G
  6
Continuous
 62
     7
370
     5
100
AcDbLine
 10
1113.205000000001
 20
-866.7250520833336
 30
0.0
 11
1838.205000000001
 21
-866.7250520833336
 31
0.0
  0
LINE
  5
46
330
41
100
AcDbEntity
  8
___G
  6
Continuous
 62
     7
370
     5
100
AcDbLine
 10
1125.705000000001
 20
-839.2250520833338
 30
0.0
 11
1288.205000000001
 21
-839.2250520833338
 31
0.0
  0
LINE
  5
47
330
41
100
AcDbEntity
  8
___G
  6
Continuous
 62
     7
370
     5
100
AcDbLine
 10
1313.205000000001
 20
-839.2250520833338
 30
0.0
 11
1475.705000000001
 21
-839.2250520833338
 31
0.0
  0
MTEXT
  5
48
330
41
100
AcDbEntity
  8
___G
  6
Continuous
 62
     7
370
     5
100
AcDbMText
 10
1113.205000000001
 20
-761.7732360318227
 30
0.0
 40
17.63888835906982
 41
125.0
 71
     1
 72
     1
  1
日　　付
  7
Style1
 73
     1
 44
1.0
1001
ACAD
1000
MTEXTBEGIN
1070
    73
1070
     1
1070
    44
1040
1.0
1070
    74
1070
     0
1000
MTEXTEND
  0
LINE
  5
49
330
41
100
AcDbEntity
  8
___G
  6
Continuous
 62
     7
370
     5
100
AcDbLine
 10
1125.705000000001
 20
-784.2250520833341
 30
0.0
 11
1225.705000000001
 21
-784.2250520833341
 31
0.0
  0
LINE
  5
4A
330
41
100
AcDbEntity
  8
___G
  6
Continuous
 62
     7
370
     5
100
AcDbLine
 10
1238.205000000001
 20
-756.7250520833341
 30
0.0
 11
1238.205000000001
 21
-811.7250520833348
 31
0.0
  0
LINE
  5
4B
330
41
100
AcDbEntity
  8
___G
  6
DOT
 62
     7
370
     5
100
AcDbLine
 10
-186.6949999999995
 20
-942.8750520833339
 30
0.0
 11
-186.6949999999995
 21
499.4249479166667
 31
0.0
  0
LINE
  5
4C
330
41
100
AcDbEntity
  8
___G
  6
Continuous
 62
     5
370
    18
100
AcDbLine
 10
-161.7949999999997
 20
-921.725052083334
 30
0.0
 11
-161.7949999999997
 21
478.2749479166664
 31
0.0
  0
MTEXT
  5
4D
330
41
100
AcDbEntity
  8
___G
  6
Continuous
 62
     7
370
     5
100
AcDbMText
 10
1300.705000000001
 20
-844.2732360318235
 30
0.0
 40
17.63888835906982
 41
50.0
 71
     1
 72
     1
  1
 検図
  7
Style1
 73
     1
 44
1.0
1001
ACAD
1000
MTEXTBEGIN
1070
    73
1070
     1
1070
    44
1040
1.0
1070
    74
1070
     0
1000
MTEXTEND
  0
LINE
  5
4E
330
41
100
AcDbEntity
  8
___G
  6
Continuous
 62
     7
370
     5
100
AcDbLine
 10
1363.205000000001
 20
-756.7250520833341
 30
0.0
 11
1363.205000000001
 21
-811.7250520833348
 31
0.0
  0
LINE
  5
4F
330
41
100
AcDbEntity
  8
___G
  6
Continuous
 62
     7
370
     5
100
AcDbLine
 10
1250.705000000001
 20
-784.2250520833341
 30
0.0
 11
1350.705000000001
 21
-784.2250520833341
 31
0.0
  0
MTEXT
  5
50
330
41
100
AcDbEntity
  8
___G
  6
Continuous
 62
     7
370
     5
100
AcDbMText
 10
1238.205000000001
 20
-761.7732360318227
 30
0.0
 40
17.63888835906982
 41
125.0
 71
     1
 72
     1
  1
尺　　度
  7
Style1
 73
     1
 44
1.0
1001
ACAD
1000
MTEXTBEGIN
1070
    73
1070
     1
1070
    44
1040
1.0
1070
    74
1070
     0
1000
MTEXTEND
  0
LINE
  5
51
330
41
100
AcDbEntity
  8
___G
  6
Continuous
 62
     7
370
     5
100
AcDbLine
 10
1300.705000000001
 20
-811.7250520833341
 30
0.0
 11
1300.705000000001
 21
-866.7250520833341
 31
0.0
  0
LINE
  5
52
330
41
100
AcDbEntity
  8
___G
  6
Continuous
 62
     5
370
    18
100
AcDbLine
 10
1838.205000000001
 20
-921.725052083334
 30
0.0
 11
1838.205000000001
 21
478.2749479166664
 31
0.0
  0
ARC
  5
53
330
41
100
AcDbEntity
  8
___G
  6
Continuous
 62
     7
370
    18
100
AcDbCircle
 10
1377.311262744463
 20
-883.8416872488947
 30
0.0
 40
27.5
100
AcDbArc
 50
-37.51238802029998
 51
0.0
  0
LINE
  5
54
330
41
100
AcDbEntity
  8
___G
  6
Continuous
 62
     7
370
    18
100
AcDbLine
 10
1303.252713383668
 20
-893.8416872488948
 30
0.0
 11
1308.252713383668
 21
-893.8416872488948
 31
0.0
  0
MTEXT
  5
55
330
41
100
AcDbEntity
  8
___G
  6
Continuous
 62
     7
370
     5
100
AcDbMText
 10
1408.205000000001
 20
473.6999479166667
 30
0.0
 40
15.87499976158142
 41
80.0
 71
     1
 72
     1
  1
改訂日
  7
Style1
 73
     1
 44
1.0
1001
ACAD
1000
MTEXTBEGIN
1070
    73
1070
     1
1070
    44
1040
1.0
1070
    74
1070
     0
1000
MTEXTEND
  0
LINE
  5
56
330
41
100
AcDbEntity
  8
___G
  6
Continuous
 62
     5
370
    18
100
AcDbLine
 10
1368.205000000001
 20
403.2749479166664
 30
0.0
 11
1838.205000000002
 21
403.2749479166664
 31
0.0
  0
LINE
  5
57
330
41
100
AcDbEntity
  8
___G
  6
Continuous
 62
     5
370
    18
100
AcDbLine
 10
1368.205000000001
 20
428.2749479166664
 30
0.0
 11
1838.205000000002
 21
428.2749479166664
 31
0.0
  0
LINE
  5
58
330
41
100
AcDbEntity
  8
___G
  6
Continuous
 62
     5
370
    18
100
AcDbLine
 10
1368.205000000001
 20
453.2749479166664
 30
0.0
 11
1838.205000000002
 21
453.2749479166664
 31
0.0
  0
LINE
  5
59
330
41
100
AcDbEntity
  8
___G
  6
Continuous
 62
     5
370
    18
100
AcDbLine
 10
1788.205
 20
403.2749479166664
 30
0.0
 11
1788.205
 21
478.2749479166664
 31
0.0
  0
LINE
  5
5A
330
41
100
AcDbEntity
  8
___G
  6
Continuous
 62
     5
370
    18
100
AcDbLine
 10
1368.205000000001
 20
403.2749479166664
 30
0.0
 11
1368.205000000001
 21
478.2749479166664
 31
0.0
  0
LINE
  5
5B
330
41
100
AcDbEntity
  8
___G
  6
Continuous
 62
     5
370
    18
100
AcDbLine
 10
1374.408573069787
 20
405.6789066716834
 30
0.0
 11
1399.158573069788
 21
405.6789066716834
 31
0.0
  0
LINE
  5
5C
330
41
100
AcDbEntity
  8
___G
  6
Continuous
 62
     5
370
    18
100
AcDbLine
 10
1386.783573069787
 20
427.1130354153479
 30
0.0
 11
1399.158573069788
 21
405.6789066716834
 31
0.0
  0
LINE
  5
5D
330
41
100
AcDbEntity
  8
___G
  6
Continuous
 62
     5
370
    18
100
AcDbLine
 10
1386.783573069787
 20
427.1130354153479
 30
0.0
 11
1374.408573069787
 21
405.6789066716834
 31
0.0
  0
LINE
  5
5E
330
41
100
AcDbEntity
  8
___G
  6
Continuous
 62
     5
370
    18
100
AcDbLine
 10
1386.783573069787
 20
451.8630354153475
 30
0.0
 11
1374.408573069787
 21
430.4289066716825
 31
0.0
  0
LINE
  5
5F
330
41
100
AcDbEntity
  8
___G
  6
Continuous
 62
     5
370
    18
100
AcDbLine
 10
1386.783573069787
 20
451.8630354153475
 30
0.0
 11
1399.158573069788
 21
430.4289066716825
 31
0.0
  0
LINE
  5
60
330
41
100
AcDbEntity
  8
___G
  6
Continuous
 62
     5
370
    18
100
AcDbLine
 10
1374.408573069787
 20
430.4289066716825
 30
0.0
 11
1399.158573069788
 21
430.4289066716825
 31
0.0
  0
LINE
  5
61
330
41
100
AcDbEntity
  8
___G
  6
Continuous
 62
     5
370
    18
100
AcDbLine
 10
1408.205000000001
 20
403.2749479166664
 30
0.0
 11
1408.205000000001
 21
478.2749479166664
 31
0.0
  0
LINE
  5
62
330
41
100
AcDbEntity
  8
___G
  6
Continuous
 62
     5
370
    18
100
AcDbLine
 10
1738.205000000001
 20
403.2749479166664
 30
0.0
 11
1738.205000000001
 21
478.2749479166664
 31
0.0
  0
LINE
  5
63
330
41
100
AcDbEntity
  8
___G
  6
Continuous
 62
     5
370
    18
100
AcDbLine
 10
1488.205000000001
 20
403.2749479166664
 30
0.0
 11
1488.205000000001
 21
478.2749479166664
 31
0.0
  0
MTEXT
  5
64
330
41
100
AcDbEntity
  8
___G
  6
DOT
 62
     7
370
     5
100
AcDbMText
 10
1368.205000000001
 20
473.6999479166667
 30
0.0
 40
15.87499976158142
 41
40.0
 71
     1
 72
     1
  1
副番
  7
Style1
 73
     1
 44
1.0
1001
ACAD
1000
MTEXTBEGIN
1070
    73
1070
     1
1070
    44
1040
1.0
1070
    74
1070
     0
1000
MTEXTEND
  0
MTEXT
  5
65
330
41
100
AcDbEntity
  8
___G
  6
DOT
 62
     7
370
     5
100
AcDbMText
 10
1738.205000000001
 20
473.6999479166667
 30
0.0
 40
15.87499976158142
 41
50.0
 71
     1
 72
     1
  1
改訂者
  7
Style1
 73
     1
 44
1.0
1001
ACAD
1000
MTEXTBEGIN
1070
    73
1070
     1
1070
    44
1040
1.0
1070
    74
1070
     0
1000
MTEXTEND
  0
LINE
  5
66
330
41
100
AcDbEntity
  8
___G
  6
Continuous
 62
     7
370
    18
100
AcDbLine
 10
1384.811262744463
 20
-887.9522385863017
 30
0.0
 11
1381.982835619718
 21
-890.780665711048
 31
0.0
  0
MTEXT
  5
67
330
41
100
AcDbEntity
  8
___G
  6
DOT
 62
     7
370
     5
100
AcDbMText
 10
1788.205
 20
473.6999479166667
 30
0.0
 40
15.87499976158142
 41
50.00000000000014
 71
     1
 72
     1
  1
検認者
  7
Style1
 73
     1
 44
1.0
1001
ACAD
1000
MTEXTBEGIN
1070
    73
1070
     1
1070
    44
1040
1.0
1070
    74
1070
     0
1000
MTEXTEND
  0
MTEXT
  5
68
330
41
100
AcDbEntity
  8
___G
  6
Continuous
 62
     7
370
     5
100
AcDbMText
 10
1488.205000000001
 20
473.6999479166667
 30
0.0
 40
15.87499976158142
 41
250.0
 71
     1
 72
     1
  1
改　訂　内　容
  7
Style1
 73
     1
 44
1.0
1001
ACAD
1000
MTEXTBEGIN
1070
    73
1070
     1
1070
    44
1040
1.0
1070
    74
1070
     0
1000
MTEXTEND
  0
LINE
  5
69
330
41
100
AcDbEntity
  8
___G
  6
Continuous
 62
     5
370
    18
100
AcDbLine
 10
1838.205000000001
 20
478.2749479166664
 30
0.0
 11
-161.7949999999998
 21
478.2749479166664
 31
0.0
  0
LINE
  5
6A
330
41
100
AcDbEntity
  8
___G
  6
DOT
 62
     7
370
     5
100
AcDbLine
 10
1863.105000000001
 20
-942.8750520833339
 30
0.0
 11
1863.105000000001
 21
499.4249479166667
 31
0.0
  0
LINE
  5
6B
330
41
100
AcDbEntity
  8
___G
  6
Continuous
 62
     7
370
    18
100
AcDbLine
 10
1387.492825202896
 20
-893.9370417744447
 30
0.0
 11
1386.289846171312
 21
-895.2657335772144
 31
0.0
  0
LINE
  5
6C
330
41
100
AcDbEntity
  8
___G
  6
Continuous
 62
     7
370
    18
100
AcDbLine
 10
1309.008232441434
 20
-901.3416872488948
 30
0.0
 11
1321.508232441434
 21
-901.3416872488948
 31
0.0
  0
MTEXT
  5
6D
330
41
100
AcDbEntity
  8
___G
  6
DOT
 62
     7
370
     5
100
AcDbMText
 10
1113.205000000001
 20
-728.6275520833343
 30
0.0
 40
21.16666555404663
 41
125.0
 71
     1
 72
     1
  1
一般公差
  7
Style1
 73
     1
 44
1.0
1001
ACAD
1000
MTEXTBEGIN
1070
    73
1070
     1
1070
    44
1040
1.0
1070
    74
1070
     0
1000
MTEXTEND
  0
MTEXT
  5
6E
330
41
100
AcDbEntity
  8
___G
  6
DOT
 62
     7
370
     5
100
AcDbMText
 10
1113.205000000001
 20
-693.6275520833346
 30
0.0
 40
21.16666555404663
 41
125.0
 71
     1
 72
     1
  1
表面処理
  7
Style1
 73
     1
 44
1.0
1001
ACAD
1000
MTEXTBEGIN
1070
    73
1070
     1
1070
    44
1040
1.0
1070
    74
1070
     0
1000
MTEXTEND
  0
MTEXT
  5
6F
330
41
100
AcDbEntity
  8
___G
  6
DOT
 62
     7
370
     5
100
AcDbMText
 10
1475.705000000001
 20
-658.6275520833346
 30
0.0
 40
21.16666555404663
 41
125.0
 71
     1
 72
     1
  1
板　　厚
  7
Style1
 73
     1
 44
1.0
1001
ACAD
1000
MTEXTBEGIN
1070
    73
1070
     1
1070
    44
1040
1.0
1070
    74
1070
     0
1000
MTEXTEND
  0
MTEXT
  5
70
330
41
100
AcDbEntity
  8
___G
  6
DOT
 62
     7
370
     5
100
AcDbMText
 10
1113.205000000001
 20
-658.6275520833346
 30
0.0
 40
21.16666555404663
 41
125.0
 71
     1
 72
     1
  1
材　　質
  7
Style1
 73
     1
 44
1.0
1001
ACAD
1000
MTEXTBEGIN
1070
    73
1070
     1
1070
    44
1040
1.0
1070
    74
1070
     0
1000
MTEXTEND
  0
LINE
  5
71
330
41
100
AcDbEntity
  8
___G
  6
Continuous
 62
     7
370
     5
100
AcDbLine
 10
1600.705000000001
 20
-651.7250520833345
 30
0.0
 11
1600.705000000001
 21
-686.7250520833343
 31
0.0
  0
LINE
  5
72
330
41
100
AcDbEntity
  8
___G
  6
Continuous
 62
     7
370
     5
100
AcDbLine
 10
1475.705000000001
 20
-651.7250520833345
 30
0.0
 11
1475.705000000001
 21
-686.7250520833343
 31
0.0
  0
LINE
  5
73
330
41
100
AcDbEntity
  8
___G
  6
Continuous
 62
     7
370
     5
100
AcDbLine
 10
1238.205000000001
 20
-756.7250520833341
 30
0.0
 11
1238.205000000001
 21
-651.7250520833345
 31
0.0
  0
LINE
  5
74
330
41
100
AcDbEntity
  8
___G
  6
Continuous
 62
     7
370
     5
100
AcDbLine
 10
1113.205000000001
 20
-651.7250520833345
 30
0.0
 11
1113.205000000001
 21
-756.7250520833341
 31
0.0
  0
LINE
  5
75
330
41
100
AcDbEntity
  8
___G
  6
Continuous
 62
     7
370
     5
100
AcDbLine
 10
1838.205000000001
 20
-651.7250520833345
 30
0.0
 11
1113.205000000001
 21
-651.7250520833345
 31
0.0
  0
LINE
  5
76
330
41
100
AcDbEntity
  8
___G
  6
Continuous
 62
     7
370
     5
100
AcDbLine
 10
1838.205000000001
 20
-686.7250520833343
 30
0.0
 11
1113.205000000001
 21
-686.7250520833343
 31
0.0
  0
LINE
  5
77
330
41
100
AcDbEntity
  8
___G
  6
Continuous
 62
     7
370
     5
100
AcDbLine
 10
1838.205000000001
 20
-721.7250520833341
 30
0.0
 11
1113.205000000001
 21
-721.7250520833341
 31
0.0
  0
LINE
  5
78
330
41
100
AcDbEntity
  8
___G
  6
Continuous
 62
     7
370
     5
100
AcDbLine
 10
1838.205000000001
 20
-756.7250520833341
 30
0.0
 11
1113.205000000001
 21
-756.7250520833341
 31
0.0
  0
LINE
  5
79
330
41
100
AcDbEntity
  8
___G
  6
Continuous
 62
     7
370
    18
100
AcDbLine
 10
1351.508232441434
 20
-876.3416872488948
 30
0.0
 11
1331.508232441434
 21
-876.3416872488948
 31
0.0
  0
LINE
  5
7A
330
41
100
AcDbEntity
  8
___G
  6
Continuous
 62
     7
370
    18
100
AcDbLine
 10
1351.508232441434
 20
-886.3416872488947
 30
0.0
 11
1351.508232441434
 21
-893.8416872488948
 31
0.0
  0
LINE
  5
7B
330
41
100
AcDbEntity
  8
___G
  6
Continuous
 62
     7
370
    18
100
AcDbLine
 10
1303.252713383668
 20
-886.3416872488947
 30
0.0
 11
1303.252713383668
 21
-893.8416872488948
 31
0.0
  0
LINE
  5
7C
330
41
100
AcDbEntity
  8
___G
  6
Continuous
 62
     7
370
    18
100
AcDbLine
 10
1420.89867598588
 20
-884.8416872488948
 30
0.0
 11
1433.392009319214
 21
-884.8416872488948
 31
0.0
  0
LINE
  5
7D
330
41
100
AcDbEntity
  8
___G
  6
Continuous
 62
     5
370
    18
100
AcDbLine
 10
1838.205000000001
 20
-921.725052083334
 30
0.0
 11
-161.7949999999997
 21
-921.725052083334
 31
0.0
  0
MTEXT
  5
7E
330
41
100
AcDbEntity
  8
___G
  6
Continuous
 62
     7
370
     5
100
AcDbMText
 10
1300.705000000001
 20
-816.7732360318227
 30
0.0
 40
17.63888835906982
 41
50.0
 71
     1
 72
     1
  1
 照査
  7
Style1
 73
     1
 44
1.0
1001
ACAD
1000
MTEXTBEGIN
1070
    73
1070
     1
1070
    44
1040
1.0
1070
    74
1070
     0
1000
MTEXTEND
  0
LINE
  5
7F
330
41
100
AcDbEntity
  8
___G
  6
Continuous
 62
     7
370
    18
100
AcDbLine
 10
1465.89867598588
 20
-884.8416872488948
 30
0.0
 11
1465.89867598588
 21
-893.8416872488948
 31
0.0
  0
MTEXT
  5
80
330
41
100
AcDbEntity
  8
___G
  6
Continuous
 62
     7
370
     5
100
AcDbMText
 10
1113.205000000001
 20
-816.7732360318227
 30
0.0
 40
17.63888835906982
 41
50.0
 71
     1
 72
     1
  1
 設計
  7
Style1
 73
     1
 44
1.0
1001
ACAD
1000
MTEXTBEGIN
1070
    73
1070
     1
1070
    44
1040
1.0
1070
    74
1070
     0
1000
MTEXTEND
  0
MTEXT
  5
81
330
41
100
AcDbEntity
  8
___G
  6
Continuous
 62
     7
370
     5
100
AcDbMText
 10
1113.205000000001
 20
-844.2732360318235
 30
0.0
 40
17.63888835906982
 41
50.0
 71
     1
 72
     1
  1
 製図
  7
Style1
 73
     1
 44
1.0
1001
ACAD
1000
MTEXTBEGIN
1070
    73
1070
     1
1070
    44
1040
1.0
1070
    74
1070
     0
1000
MTEXTEND
  0
LINE
  5
82
330
41
100
AcDbEntity
  8
___G
  6
Continuous
 62
     7
370
    18
100
AcDbLine
 10
1441.898675985881
 20
-913.8416872488948
 30
0.0
 11
1439.845342652548
 21
-906.8416872488947
 31
0.0
  0
MTEXT
  5
83
330
41
100
AcDbEntity
  8
___G
  6
Continuous
 62
     7
370
     5
100
AcDbMText
 10
1140.404184683867
 20
-878.3508854166672
 30
0.0
 40
31.74999952316284
 41
156.2269440827546
 71
     1
 72
     1
  1
株式会社
  7
Style1
 73
     1
 44
1.0
1001
ACAD
1000
MTEXTBEGIN
1070
    73
1070
     1
1070
    44
1040
1.0
1070
    74
1070
     0
1000
MTEXTEND
  0
ARC
  5
84
330
41
100
AcDbEntity
  8
___G
  6
Continuous
 62
     7
370
    18
100
AcDbCircle
 10
1377.311262744463
 20
-883.8416872488947
 30
0.0
 40
27.50000000000043
100
AcDbArc
 50
-90.0
 51
-57.45504114595473
  0
LINE
  5
85
330
41
100
AcDbEntity
  8
___G
  6
Continuous
 62
     7
370
    18
100
AcDbLine
 10
1344.008232441434
 20
-893.8416872488948
 30
0.0
 11
1351.508232441434
 21
-893.8416872488948
 31
0.0
  0
ARC
  5
86
330
41
100
AcDbEntity
  8
___G
  6
Continuous
 62
     7
370
    18
100
AcDbCircle
 10
1370.811262744463
 20
-884.8416872488948
 30
0.0
 40
18.99999999999959
100
AcDbArc
 50
-28.60071861673987
 51
-1.50795775423885
  0
LINE
  5
87
330
41
100
AcDbEntity
  8
___G
  6
Continuous
 62
     7
370
    18
100
AcDbLine
 10
1309.008232441434
 20
-903.841687248895
 30
0.0
 11
1309.008232441434
 21
-911.3416872488947
 31
0.0
  0
LINE
  5
88
330
41
100
AcDbEntity
  8
___G
  6
Continuous
 62
     7
370
    18
100
AcDbLine
 10
1309.008232441434
 20
-893.8416872488948
 30
0.0
 11
1308.252713383668
 21
-893.8416872488948
 31
0.0
  0
LINE
  5
89
330
41
100
AcDbEntity
  8
___G
  6
Continuous
 62
     7
370
    18
100
AcDbLine
 10
1364.811262744463
 20
-903.841687248895
 30
0.0
 11
1364.811262744463
 21
-911.3416872488947
 31
0.0
  0
LINE
  5
8A
330
41
100
AcDbEntity
  8
___G
  6
Continuous
 62
     7
370
    18
100
AcDbLine
 10
1409.811262744463
 20
-876.3416872488948
 30
0.0
 11
1364.811262744463
 21
-876.3416872488948
 31
0.0
  0
LINE
  5
8B
330
41
100
AcDbEntity
  8
___G
  6
Continuous
 62
     7
370
    18
100
AcDbLine
 10
1447.553497766102
 20
-884.8416872488948
 30
0.0
 11
1446.821526514981
 21
-882.2980427965593
 31
0.0
  0
LINE
  5
8C
330
41
100
AcDbEntity
  8
___G
  6
Continuous
 62
     7
370
    18
100
AcDbLine
 10
1447.553497766102
 20
-884.8416872488948
 30
0.0
 11
1465.89867598588
 21
-884.8416872488948
 31
0.0
  0
LINE
  5
8D
330
41
100
AcDbEntity
  8
___G
  6
Continuous
 62
     7
370
    18
100
AcDbLine
 10
1451.294439726693
 20
-897.8416872488947
 30
0.0
 11
1450.143380661895
 21
-893.8416872488948
 31
0.0
  0
LINE
  5
8E
330
41
100
AcDbEntity
  8
___G
  6
Continuous
 62
     7
370
    18
100
AcDbLine
 10
1420.89867598588
 20
-897.8416872488947
 30
0.0
 11
1437.205342652548
 21
-897.8416872488947
 31
0.0
  0
LINE
  5
8F
330
41
100
AcDbEntity
  8
___G
  6
Continuous
 62
     7
370
    18
100
AcDbLine
 10
1433.392009319214
 20
-884.8416872488948
 30
0.0
 11
1430.898675985881
 21
-876.3416872488948
 31
0.0
  0
LINE
  5
90
330
41
100
AcDbEntity
  8
___G
  6
Continuous
 62
     7
370
    18
100
AcDbLine
 10
1453.884322622486
 20
-906.8416872488947
 30
0.0
 11
1465.89867598588
 21
-906.8416872488947
 31
0.0
  0
LINE
  5
91
330
41
100
AcDbEntity
  8
___G
  6
Continuous
 62
     7
370
    18
100
AcDbLine
 10
1309.008232441434
 20
-876.3416872488948
 30
0.0
 11
1309.008232441434
 21
-886.3416872488947
 31
0.0
  0
ARC
  5
92
330
41
100
AcDbEntity
  8
___G
  6
Continuous
 62
     7
370
    18
100
AcDbCircle
 10
1329.008232441434
 20
-896.3416872488947
 30
0.0
 40
15.0
100
AcDbArc
 50
-90.0
 51
0.0
  0
LINE
  5
93
330
41
100
AcDbEntity
  8
___G
  6
Continuous
 62
     7
370
    18
100
AcDbLine
 10
1364.811262744463
 20
-876.3416872488948
 30
0.0
 11
1364.811262744463
 21
-885.3416872488947
 31
0.0
  0
LINE
  5
94
330
41
100
AcDbEntity
  8
___G
  6
Continuous
 62
     7
370
    18
100
AcDbLine
 10
1364.811262744463
 20
-911.3416872488947
 30
0.0
 11
1377.311262744463
 21
-911.3416872488947
 31
0.0
  0
LINE
  5
95
330
41
100
AcDbEntity
  8
___G
  6
DOT
 62
     7
370
     5
100
AcDbLine
 10
1863.105000000001
 20
499.4249479166667
 30
0.0
 11
-186.6949999999995
 21
499.4249479166667
 31
0.0
  0
LINE
  5
96
330
41
100
AcDbEntity
  8
___G
  6
DOT
 62
     7
370
     5
100
AcDbLine
 10
-186.6949999999995
 20
-942.8750520833339
 30
0.0
 11
1863.105000000001
 21
-942.8750520833339
 31
0.0
  0
LINE
  5
97
330
41
100
AcDbEntity
  8
___G
  6
Continuous
 62
     7
370
    18
100
AcDbLine
 10
1364.811262744463
 20
-889.5627899237082
 30
0.0
 11
1364.811262744463
 21
-887.9522385863017
 31
0.0
  0
LINE
  5
98
330
41
100
AcDbEntity
  8
___G
  6
Continuous
 62
     7
370
    18
100
AcDbLine
 10
1432.634587558449
 20
-778.2250520833348
 30
0.0
 11
1432.634587558449
 21
-790.2250520833348
 31
0.0
  0
LINE
  5
99
330
41
100
AcDbEntity
  8
___G
  6
Continuous
 62
     7
370
    18
100
AcDbLine
 10
1331.508232441434
 20
-893.8416872488948
 30
0.0
 11
1331.508232441434
 21
-896.3416872488947
 31
0.0
  0
LINE
  5
9A
330
41
100
AcDbEntity
  8
___G
  6
Continuous
 62
     7
370
    18
100
AcDbLine
 10
1455.898675985881
 20
-913.8416872488948
 30
0.0
 11
1441.898675985881
 21
-913.8416872488948
 31
0.0
  0
CIRCLE
  5
9B
330
41
100
AcDbEntity
  8
___G
  6
Continuous
 62
     7
370
    18
100
AcDbCircle
 10
1405.205000000001
 20
-784.2250520833341
 30
0.0
 40
11.99999999999954
  0
CIRCLE
  5
9C
330
41
100
AcDbEntity
  8
___G
  6
Continuous
 62
     7
370
    18
100
AcDbCircle
 10
1405.205000000001
 20
-784.2250520833341
 30
0.0
 40
6.000000000000453
  0
LINE
  5
9D
330
41
100
AcDbEntity
  8
___G
  6
Continuous
 62
     7
370
    18
100
AcDbLine
 10
1420.89867598588
 20
-897.8416872488947
 30
0.0
 11
1420.89867598588
 21
-906.8416872488947
 31
0.0
  0
ARC
  5
9E
330
41
100
AcDbEntity
  8
___G
  6
Continuous
 62
     7
370
    18
100
AcDbCircle
 10
1324.008232441434
 20
-896.3416872488947
 30
0.0
 40
7.5
100
AcDbArc
 50
-90.0
 51
0.0
  0
LINE
  5
9F
330
41
100
AcDbEntity
  8
___G
  6
Continuous
 62
     7
370
    18
100
AcDbLine
 10
1420.89867598588
 20
-906.8416872488947
 30
0.0
 11
1439.845342652548
 21
-906.8416872488947
 31
0.0
  0
LINE
  5
A0
330
41
100
AcDbEntity
  8
___G
  6
Continuous
 62
     7
370
    18
100
AcDbLine
 10
1309.008232441434
 20
-911.3416872488947
 30
0.0
 11
1329.008232441434
 21
-911.3416872488947
 31
0.0
  0
LINE
  5
A1
330
41
100
AcDbEntity
  8
___G
  6
Continuous
 62
     7
370
    18
100
AcDbLine
 10
1437.205342652548
 20
-897.8416872488947
 30
0.0
 11
1436.032009319213
 21
-893.8416872488948
 31
0.0
  0
LINE
  5
A2
330
41
100
AcDbEntity
  8
___G
  6
Continuous
 62
     7
370
    18
100
AcDbLine
 10
1344.008232441434
 20
-883.8416872488947
 30
0.0
 11
1351.508232441434
 21
-876.3416872488948
 31
0.0
  0
LINE
  5
A3
330
41
100
AcDbEntity
  8
___G
  6
Continuous
 62
     7
370
    18
100
AcDbLine
 10
1309.008232441434
 20
-893.8416872488948
 30
0.0
 11
1309.008232441434
 21
-901.3416872488948
 31
0.0
  0
MTEXT
  5
A4
330
41
100
AcDbEntity
  8
___G
  6
Continuous
 62
     7
370
     5
100
AcDbMText
 10
1491.205
 20
-814.7250520833342
 30
0.0
 40
17.63888835906982
 41
60.0
 71
     1
 72
     1
  1
図面名
  7
Style1
 73
     1
 44
1.0
1001
ACAD
1000
MTEXTBEGIN
1070
    73
1070
     1
1070
    44
1040
1.0
1070
    74
1070
     0
1000
MTEXTEND
  0
MTEXT
  5
A5
330
41
100
AcDbEntity
  8
___G
  6
Continuous
 62
     7
370
     5
100
AcDbMText
 10
1491.205
 20
-759.7250520833341
 30
0.0
 40
17.63888835906982
 41
60.0
 71
     1
 72
     1
  1
製品名
  7
Style1
 73
     1
 44
1.0
1001
ACAD
1000
MTEXTBEGIN
1070
    73
1070
     1
1070
    44
1040
1.0
1070
    74
1070
     0
1000
MTEXTEND
  0
LINE
  5
A6
330
41
100
AcDbEntity
  8
___G
  6
Continuous
 62
     7
370
    18
100
AcDbLine
 10
1309.008232441434
 20
-886.3416872488947
 30
0.0
 11
1303.252713383668
 21
-886.3416872488947
 31
0.0
  0
LINE
  5
A7
330
41
100
AcDbEntity
  8
___G
  6
Continuous
 62
     7
370
    18
100
AcDbLine
 10
1430.898675985881
 20
-876.3416872488948
 30
0.0
 11
1450.898675985881
 21
-876.3416872488948
 31
0.0
  0
LINE
  5
A8
330
41
100
AcDbEntity
  8
___G
  6
Continuous
 62
     7
370
    18
100
AcDbLine
 10
1364.811262744463
 20
-903.841687248895
 30
0.0
 11
1370.811262744463
 21
-903.841687248895
 31
0.0
  0
LINE
  5
A9
330
41
100
AcDbEntity
  8
___G
  6
Continuous
 62
     7
370
    18
100
AcDbLine
 10
1451.294439726693
 20
-897.8416872488947
 30
0.0
 11
1465.89867598588
 21
-897.8416872488947
 31
0.0
  0
LINE
  5
AA
330
41
100
AcDbEntity
  8
___G
  6
Continuous
 62
     7
370
    18
100
AcDbLine
 10
1455.898675985881
 20
-913.8416872488948
 30
0.0
 11
1453.884322622486
 21
-906.8416872488947
 31
0.0
  0
LINE
  5
AB
330
41
100
AcDbEntity
  8
___G
  6
Continuous
 62
     7
370
    18
100
AcDbLine
 10
1364.811262744463
 20
-911.3416872488947
 30
0.0
 11
1364.811262744463
 21
-903.841687248895
 31
0.0
  0
LINE
  5
AC
330
41
100
AcDbEntity
  8
___G
  6
Continuous
 62
     7
370
    18
100
AcDbLine
 10
1446.821526514981
 20
-882.2980427965593
 30
0.0
 11
1450.898675985881
 21
-876.3416872488948
 31
0.0
  0
LINE
  5
AD
330
41
100
AcDbEntity
  8
___G
  6
Continuous
 62
     7
370
    18
100
AcDbLine
 10
1404.811262744463
 20
-883.8416872488947
 30
0.0
 11
1409.811262744463
 21
-876.3416872488948
 31
0.0
  0
LINE
  5
AE
330
41
100
AcDbEntity
  8
___G
  6
Continuous
 62
     7
370
    18
100
AcDbLine
 10
1344.008232441434
 20
-886.3416872488947
 30
0.0
 11
1344.008232441434
 21
-883.8416872488947
 31
0.0
  0
LINE
  5
AF
330
41
100
AcDbEntity
  8
___G
  6
Continuous
 62
     7
370
    18
100
AcDbLine
 10
1351.508232441434
 20
-886.3416872488947
 30
0.0
 11
1344.008232441434
 21
-886.3416872488947
 31
0.0
  0
LINE
  5
B0
330
41
100
AcDbEntity
  8
___G
  6
Continuous
 62
     7
370
    18
100
AcDbLine
 10
1420.89867598588
 20
-893.8416872488948
 30
0.0
 11
1436.032009319213
 21
-893.8416872488948
 31
0.0
  0
SPLINE
  5
B1
330
41
100
AcDbEntity
  8
___G
  6
Continuous
 62
     7
370
    18
100
AcDbSpline
210
0.0
220
0.0
230
1.0
 70
     8
 71
     3
 72
     8
 73
     4
 74
     0
 42
0.0000000001
 43
0.0000000001
 40
0.0
 40
0.0
 40
0.0
 40
0.0
 40
1.0
 40
1.0
 40
1.0
 40
1.0
 10
1392.105196714966
 20
-907.0233506421123
 30
0.0
 10
1397.800628145713
 20
-908.8447930957247
 30
0.0
 10
1403.805945445088
 20
-910.0932401723101
 30
0.0
 10
1409.811262744463
 20
-911.3416872488947
 30
0.0
  0
LINE
  5
B2
330
41
100
AcDbEntity
  8
___G
  6
Continuous
 62
     7
370
    18
100
AcDbLine
 10
1364.811262744463
 20
-885.3416872488947
 30
0.0
 11
1389.811262744463
 21
-885.3416872488947
 31
0.0
  0
LINE
  5
B3
330
41
100
AcDbEntity
  8
___G
  6
Continuous
 62
     7
370
    18
100
AcDbLine
 10
1324.008232441434
 20
-903.841687248895
 30
0.0
 11
1309.008232441434
 21
-903.841687248895
 31
0.0
  0
SPLINE
  5
B4
330
41
100
AcDbEntity
  8
___G
  6
Continuous
 62
     7
370
    18
100
AcDbSpline
210
0.0
220
0.0
230
1.0
 70
     8
 71
     3
 72
     8
 73
     4
 74
     0
 42
0.0000000001
 43
0.0000000001
 40
0.0
 40
0.0
 40
0.0
 40
0.0
 40
1.0
 40
1.0
 40
1.0
 40
1.0
 10
1381.982835619718
 20
-890.780665711048
 30
0.0
 10
1383.379697756288
 20
-892.3381668805133
 30
0.0
 10
1384.776559892856
 20
-893.8956680499789
 30
0.0
 10
1386.289846171312
 20
-895.2657335772148
 30
0.0
  0
SPLINE
  5
B5
330
41
100
AcDbEntity
  8
___G
  6
Continuous
 62
     7
370
    18
100
AcDbSpline
210
0.0
220
0.0
230
1.0
 70
     8
 71
     3
 72
     8
 73
     4
 74
     0
 42
0.0000000001
 43
0.0000000001
 40
0.0
 40
0.0
 40
0.0
 40
0.0
 40
1.0
 40
1.0
 40
1.0
 40
1.0
 10
1398.23434920594
 20
-901.4592340147103
 30
0.0
 10
1401.933195473588
 20
-902.5111762622437
 30
0.0
 10
1405.872229109026
 20
-903.1764317555692
 30
0.0
 10
1409.811262744463
 20
-903.841687248895
 30
0.0
  0
MTEXT
  5
B6
330
41
100
AcDbEntity
  8
___G
  6
Continuous
 62
     7
370
     5
100
AcDbMText
 10
1491.205
 20
-869.7250520833337
 30
0.0
 40
17.63888835906982
 41
60.0
 71
     1
 72
     1
  1
図 番
  7
Style1
 73
     1
 44
1.0
1001
ACAD
1000
MTEXTBEGIN
1070
    73
1070
     1
1070
    44
1040
1.0
1070
    74
1070
     0
1000
MTEXTEND
  0
LINE
  5
B7
330
41
100
AcDbEntity
  8
___G
  6
Continuous
 62
     7
370
    18
100
AcDbLine
 10
1321.508232441434
 20
-883.8416872488947
 30
0.0
 11
1329.008232441434
 21
-876.3416872488948
 31
0.0
  0
LINE
  5
B8
330
41
100
AcDbEntity
  8
___G
  6
Continuous
 62
     7
370
    18
100
AcDbLine
 10
1329.008232441434
 20
-876.3416872488948
 30
0.0
 11
1309.008232441434
 21
-876.3416872488948
 31
0.0
  0
LINE
  5
B9
330
41
100
AcDbEntity
  8
___G
  6
Continuous
 62
     7
370
    18
100
AcDbLine
 10
1331.508232441434
 20
-886.3416872488947
 30
0.0
 11
1321.508232441434
 21
-886.3416872488947
 31
0.0
  0
LINE
  5
BA
330
41
100
AcDbEntity
  8
___G
  6
Continuous
 62
     7
370
    18
100
AcDbLine
 10
1420.89867598588
 20
-884.8416872488948
 30
0.0
 11
1420.89867598588
 21
-893.8416872488948
 31
0.0
  0
LINE
  5
BB
330
41
100
AcDbEntity
  8
___G
  6
Continuous
 62
     7
370
    18
100
AcDbLine
 10
1344.008232441434
 20
-896.3416872488947
 30
0.0
 11
1344.008232441434
 21
-893.8416872488948
 31
0.0
  0
LINE
  5
BC
330
41
100
AcDbEntity
  8
___G
  6
Continuous
 62
     7
370
    18
100
AcDbLine
 10
1321.508232441434
 20
-901.3416872488948
 30
0.0
 11
1321.508232441434
 21
-893.8416872488948
 31
0.0
  0
LINE
  5
BD
330
41
100
AcDbEntity
  8
___G
  6
Continuous
 62
     7
370
    18
100
AcDbLine
 10
1409.811262744463
 20
-903.841687248895
 30
0.0
 11
1409.811262744463
 21
-911.3416872488947
 31
0.0
  0
LINE
  5
BE
330
41
100
AcDbEntity
  8
___G
  6
Continuous
 62
     7
370
    18
100
AcDbLine
 10
1465.89867598588
 20
-897.8416872488947
 30
0.0
 11
1465.89867598588
 21
-906.8416872488947
 31
0.0
  0
LINE
  5
BF
330
41
100
AcDbEntity
  8
___G
  6
Continuous
 62
     7
370
    18
100
AcDbLine
 10
1404.811262744463
 20
-883.8416872488947
 30
0.0
 11
1409.811262744463
 21
-876.3416872488948
 31
0.0
  0
ARC
  5
C0
330
41
100
AcDbEntity
  8
___G
  6
Continuous
 62
     7
370
    18
100
AcDbCircle
 10
1370.811262744463
 20
-884.8416872488948
 30
0.0
 40
19.0000000000001
100
AcDbArc
 50
-90.0
 51
-61.91409518479342
  0
LINE
  5
C1
330
41
100
AcDbEntity
  8
___G
  6
Continuous
 62
     7
370
    18
100
AcDbLine
 10
1364.811262744463
 20
-887.9522385863017
 30
0.0
 11
1384.811262744463
 21
-887.9522385863017
 31
0.0
  0
LINE
  5
C2
330
41
100
AcDbEntity
  8
___G
  6
CENTER2
 62
     7
370
    18
100
AcDbLine
 10
1405.205000000001
 20
-766.2250520833348
 30
0.0
 11
1405.205000000001
 21
-802.2250520833342
 31
0.0
  0
LINE
  5
C3
330
41
100
AcDbEntity
  8
___G
  6
CENTER2
 62
     7
370
    18
100
AcDbLine
 10
1405.205000000001
 20
-766.2250520833348
 30
0.0
 11
1405.205000000001
 21
-802.2250520833342
 31
0.0
  0
LINE
  5
C4
330
41
100
AcDbEntity
  8
___G
  6
Continuous
 62
     7
370
    18
100
AcDbLine
 10
1456.634587558449
 20
-772.2250520833341
 30
0.0
 11
1456.634587558449
 21
-796.2250520833348
 31
0.0
  0
LINE
  5
C5
330
41
100
AcDbEntity
  8
___G
  6
Continuous
 62
     7
370
    18
100
AcDbLine
 10
1432.634587558449
 20
-790.2250520833348
 30
0.0
 11
1456.634587558449
 21
-796.2250520833348
 31
0.0
  0
LINE
  5
C6
330
41
100
AcDbEntity
  8
___G
  6
Continuous
 62
     7
370
    18
100
AcDbLine
 10
1432.634587558449
 20
-778.2250520833348
 30
0.0
 11
1432.634587558449
 21
-790.2250520833348
 31
0.0
  0
LINE
  5
C7
330
41
100
AcDbEntity
  8
___G
  6
Continuous
 62
     7
370
    18
100
AcDbLine
 10
1450.143380661895
 20
-893.8416872488948
 30
0.0
 11
1465.89867598588
 21
-893.8416872488948
 31
0.0
  0
LINE
  5
C8
330
41
100
AcDbEntity
  8
___G
  6
Continuous
 62
     7
370
    18
100
AcDbLine
 10
1331.508232441434
 20
-876.3416872488948
 30
0.0
 11
1331.508232441434
 21
-886.3416872488947
 31
0.0
  0
LINE
  5
C9
330
41
100
AcDbEntity
  8
___G
  6
CENTER2
 62
     7
370
    18
100
AcDbLine
 10
1405.205000000001
 20
-766.2250520833348
 30
0.0
 11
1405.205000000001
 21
-802.2250520833342
 31
0.0
  0
LINE
  5
CA
330
41
100
AcDbEntity
  8
___G
  6
Continuous
 62
     7
370
     5
100
AcDbLine
 10
1113.205000000001
 20
-811.7250520833341
 30
0.0
 11
1838.205000000001
 21
-811.7250520833341
 31
0.0
  0
LINE
  5
CB
330
41
100
AcDbEntity
  8
___G
  6
Continuous
 62
     7
370
    18
100
AcDbLine
 10
1432.634587558449
 20
-790.2250520833348
 30
0.0
 11
1456.634587558449
 21
-796.2250520833348
 31
0.0
  0
LINE
  5
CC
330
41
100
AcDbEntity
  8
___G
  6
Continuous
 62
     7
370
    18
100
AcDbLine
 10
1432.634587558449
 20
-778.2250520833348
 30
0.0
 11
1456.634587558449
 21
-772.2250520833341
 31
0.0
  0
CIRCLE
  5
CD
330
41
100
AcDbEntity
  8
___G
  6
Continuous
 62
     7
370
    18
100
AcDbCircle
 10
1405.205000000001
 20
-784.2250520833341
 30
0.0
 40
6.000000000000453
  0
CIRCLE
  5
CE
330
41
100
AcDbEntity
  8
___G
  6
Continuous
 62
     7
370
    18
100
AcDbCircle
 10
1405.205000000001
 20
-784.2250520833341
 30
0.0
 40
11.99999999999954
  0
LINE
  5
CF
330
41
100
AcDbEntity
  8
___G
  6
Continuous
 62
     7
370
    18
100
AcDbLine
 10
1432.634587558449
 20
-778.2250520833348
 30
0.0
 11
1456.634587558449
 21
-772.2250520833341
 31
0.0
  0
LINE
  5
D0
330
41
100
AcDbEntity
  8
___G
  6
Continuous
 62
     7
370
    18
100
AcDbLine
 10
1456.634587558449
 20
-772.2250520833341
 30
0.0
 11
1456.634587558449
 21
-796.2250520833348
 31
0.0
  0
LINE
  5
D1
330
41
100
AcDbEntity
  8
___G
  6
Continuous
 62
     7
370
    18
100
AcDbLine
 10
1432.634587558449
 20
-778.2250520833348
 30
0.0
 11
1432.634587558449
 21
-790.2250520833348
 31
0.0
  0
LINE
  5
D2
330
41
100
AcDbEntity
  8
___G
  6
Continuous
 62
     7
370
    18
100
AcDbLine
 10
1432.634587558449
 20
-790.2250520833348
 30
0.0
 11
1456.634587558449
 21
-796.2250520833348
 31
0.0
  0
LINE
  5
D3
330
41
100
AcDbEntity
  8
___G
  6
Continuous
 62
     7
370
    18
100
AcDbLine
 10
1432.634587558449
 20
-778.2250520833348
 30
0.0
 11
1456.634587558449
 21
-772.2250520833341
 31
0.0
  0
CIRCLE
  5
D4
330
41
100
AcDbEntity
  8
___G
  6
Continuous
 62
     7
370
    18
100
AcDbCircle
 10
1405.205000000001
 20
-784.2250520833341
 30
0.0
 40
11.99999999999954
  0
CIRCLE
  5
D5
330
41
100
AcDbEntity
  8
___G
  6
Continuous
 62
     7
370
    18
100
AcDbCircle
 10
1405.205000000001
 20
-784.2250520833341
 30
0.0
 40
6.000000000000453
  0
LINE
  5
D6
330
41
100
AcDbEntity
  8
___G
  6
CENTER2
 62
     7
370
    18
100
AcDbLine
 10
1387.205000000001
 20
-784.2250520833341
 30
0.0
 11
1464.205000000001
 21
-784.2250520833341
 31
0.0
  0
CIRCLE
  5
D7
330
41
100
AcDbEntity
  8
___G
  6
Continuous
 62
     7
370
    18
100
AcDbCircle
 10
1405.205000000001
 20
-784.2250520833341
 30
0.0
 40
6.000000000000453
  0
CIRCLE
  5
D8
330
41
100
AcDbEntity
  8
___G
  6
Continuous
 62
     7
370
    18
100
AcDbCircle
 10
1405.205000000001
 20
-784.2250520833341
 30
0.0
 40
11.99999999999954
  0
LINE
  5
D9
330
41
100
AcDbEntity
  8
___G
  6
Continuous
 62
     7
370
    18
100
AcDbLine
 10
1432.634587558449
 20
-778.2250520833348
 30
0.0
 11
1456.634587558449
 21
-772.2250520833341
 31
0.0
  0
LINE
  5
DA
330
41
100
AcDbEntity
  8
___G
  6
Continuous
 62
     7
370
    18
100
AcDbLine
 10
1432.634587558449
 20
-790.2250520833348
 30
0.0
 11
1456.634587558449
 21
-796.2250520833348
 31
0.0
  0
LINE
  5
DB
330
41
100
AcDbEntity
  8
___G
  6
Continuous
 62
     7
370
    18
100
AcDbLine
 10
1432.634587558449
 20
-778.2250520833348
 30
0.0
 11
1432.634587558449
 21
-790.2250520833348
 31
0.0
  0
LINE
  5
DC
330
41
100
AcDbEntity
  8
___G
  6
Continuous
 62
     7
370
    18
100
AcDbLine
 10
1456.634587558449
 20
-772.2250520833341
 30
0.0
 11
1456.634587558449
 21
-796.2250520833348
 31
0.0
  0
LINE
  5
DD
330
41
100
AcDbEntity
  8
___G
  6
Continuous
 62
     7
370
     5
100
AcDbLine
 10
1488.205000000001
 20
-756.7250520833341
 30
0.0
 11
1488.205000000001
 21
-921.725052083334
 31
0.0
  0
LINE
  5
DE
330
41
100
AcDbEntity
  8
___G
  6
Continuous
 62
     7
370
    18
100
AcDbLine
 10
1399.124859504902
 20
-900.5873432937631
 30
0.0
 11
1398.23434920594
 21
-901.4592340147103
 31
0.0
  0
LINE
  5
DF
330
41
100
AcDbEntity
  8
___G
  6
Continuous
 62
     7
370
    18
100
AcDbLine
 10
1321.508232441434
 20
-886.3416872488947
 30
0.0
 11
1321.508232441434
 21
-883.8416872488947
 31
0.0
  0
LINE
  5
E0
330
41
100
AcDbEntity
  8
___G
  6
Continuous
 62
     7
370
    18
100
AcDbLine
 10
1456.634587558449
 20
-772.2250520833341
 30
0.0
 11
1456.634587558449
 21
-796.2250520833348
 31
0.0
  0
LINE
  5
E1
330
41
100
AcDbEntity
  8
___G
  6
CENTER2
 62
     7
370
    18
100
AcDbLine
 10
1405.205000000001
 20
-766.2250520833348
 30
0.0
 11
1405.205000000001
 21
-802.2250520833342
 31
0.0
  0
SPLINE
  5
E2
330
41
100
AcDbEntity
  8
___G
  6
Continuous
 62
     7
370
    18
100
AcDbSpline
210
0.0
220
0.0
230
1.0
 70
     8
 71
     3
 72
     9
 73
     5
 74
     0
 42
0.0000000001
 43
0.0000000001
 40
0.0
 40
0.0
 40
0.0
 40
0.0
 40
0.9999999993702067
 40
1.0
 40
1.0
 40
1.0
 40
1.0
 10
1364.811262744463
 20
-889.5627899237082
 30
0.0
 10
1369.584285761298
 20
-893.9624824059945
 30
0.0
 10
1374.357308781139
 20
-898.3621748910518
 30
0.0
 10
1379.756365038954
 20
-901.6042987757334
 30
0.0
 10
1379.756365042354
 20
-901.6042987777753
 30
0.0
  0
ENDBLK
  5
E3
330
41
100
AcDbEntity
  8
0
100
AcDbBlockEnd
  0
BLOCK
  5
EF
330
EE
100
AcDbEntity
  8
0
100
AcDbBlockBegin
  2
C1
 70
     0
 10
0.0
 20
0.0
 30
0.0
  3
C1
  1

  0
LINE
  5
F0
330
EE
100
AcDbEntity
  8
____1
  6
Continuous
 62
     5
370
    18
100
AcDbLine
 10
170.1674926859355
 20
16.27254387096441
 30
0.0
 11
170.1674926859355
 21
32.27254387096432
 31
0.0
  0
LINE
  5
F1
330
EE
100
AcDbEntity
  8
____1
  6
Continuous
 62
     5
370
    18
100
AcDbLine
 10
165.1674926859355
 20
16.27254387096441
 30
0.0
 11
165.1674926859355
 21
32.27254387096432
 31
0.0
  0
LINE
  5
F2
330
EE
100
AcDbEntity
  8
____1
  6
Continuous
 62
     5
370
    18
100
AcDbLine
 10
165.1674926859355
 20
16.27254387096441
 30
0.0
 11
170.1674926859355
 21
16.27254387096441
 31
0.0
  0
LINE
  5
F3
330
EE
100
AcDbEntity
  8
____1
  6
Continuous
 62
     5
370
    18
100
AcDbLine
 10
165.1674926859355
 20
32.27254387096432
 30
0.0
 11
170.1674926859355
 21
32.27254387096432
 31
0.0
  0
ENDBLK
  5
F4
330
EE
100
AcDbEntity
  8
0
100
AcDbBlockEnd
  0
BLOCK
  5
F7
330
F6
100
AcDbEntity
  8
0
100
AcDbBlockBegin
  2
C2
 70
     0
 10
0.0
 20
0.0
 30
0.0
  3
C2
  1

  0
LINE
  5
F8
330
F6
100
AcDbEntity
  8
____1
  6
Continuous
 62
     5
370
    18
100
AcDbLine
 10
210.1674926859355
 20
16.27254387096441
 30
0.0
 11
210.1674926859355
 21
32.27254387096432
 31
0.0
  0
LINE
  5
F9
330
F6
100
AcDbEntity
  8
____1
  6
Continuous
 62
     5
370
    18
100
AcDbLine
 10
205.1674926859355
 20
16.27254387096441
 30
0.0
 11
205.1674926859355
 21
32.27254387096432
 31
0.0
  0
LINE
  5
FA
330
F6
100
AcDbEntity
  8
____1
  6
Continuous
 62
     5
370
    18
100
AcDbLine
 10
205.1674926859355
 20
16.27254387096441
 30
0.0
 11
210.1674926859355
 21
16.27254387096441
 31
0.0
  0
LINE
  5
FB
330
F6
100
AcDbEntity
  8
____1
  6
Continuous
 62
     5
370
    18
100
AcDbLine
 10
205.1674926859355
 20
32.27254387096432
 30
0.0
 11
210.1674926859355
 21
32.27254387096432
 31
0.0
  0
ENDBLK
  5
FC
330
F6
100
AcDbEntity
  8
0
100
AcDbBlockEnd
  0
BLOCK
  5
FF
330
FE
100
AcDbEntity
  8
0
100
AcDbBlockBegin
  2
C3
 70
     0
 10
0.0
 20
0.0
 30
0.0
  3
C3
  1

  0
LINE
  5
100
330
FE
100
AcDbEntity
  8
____1
  6
Continuous
 62
     5
370
    18
100
AcDbLine
 10
290.1674926859355
 20
16.27254387096441
 30
0.0
 11
290.1674926859355
 21
32.27254387096432
 31
0.0
  0
LINE
  5
101
330
FE
100
AcDbEntity
  8
____1
  6
Continuous
 62
     5
370
    18
100
AcDbLine
 10
285.1674926859356
 20
16.27254387096441
 30
0.0
 11
285.1674926859356
 21
32.27254387096432
 31
0.0
  0
LINE
  5
102
330
FE
100
AcDbEntity
  8
____1
  6
Continuous
 62
     5
370
    18
100
AcDbLine
 10
285.1674926859356
 20
16.27254387096441
 30
0.0
 11
290.1674926859355
 21
16.27254387096441
 31
0.0
  0
LINE
  5
103
330
FE
100
AcDbEntity
  8
____1
  6
Continuous
 62
     5
370
    18
100
AcDbLine
 10
285.1674926859356
 20
32.27254387096432
 30
0.0
 11
290.1674926859355
 21
32.27254387096432
 31
0.0
  0
ENDBLK
  5
104
330
FE
100
AcDbEntity
  8
0
100
AcDbBlockEnd
  0
BLOCK
  5
107
330
106
100
AcDbEntity
  8
0
100
AcDbBlockBegin
  2
C4
 70
     0
 10
0.0
 20
0.0
 30
0.0
  3
C4
  1

  0
LINE
  5
108
330
106
100
AcDbEntity
  8
____1
  6
Continuous
 62
     5
370
    18
100
AcDbLine
 10
250.1674926859355
 20
16.27254387096441
 30
0.0
 11
250.1674926859355
 21
32.27254387096432
 31
0.0
  0
LINE
  5
109
330
106
100
AcDbEntity
  8
____1
  6
Continuous
 62
     5
370
    18
100
AcDbLine
 10
245.1674926859355
 20
16.27254387096441
 30
0.0
 11
245.1674926859355
 21
32.27254387096432
 31
0.0
  0
LINE
  5
10A
330
106
100
AcDbEntity
  8
____1
  6
Continuous
 62
     5
370
    18
100
AcDbLine
 10
245.1674926859355
 20
16.27254387096441
 30
0.0
 11
250.1674926859355
 21
16.27254387096441
 31
0.0
  0
LINE
  5
10B
330
106
100
AcDbEntity
  8
____1
  6
Continuous
 62
     5
370
    18
100
AcDbLine
 10
245.1674926859355
 20
32.27254387096432
 30
0.0
 11
250.1674926859355
 21
32.27254387096432
 31
0.0
  0
ENDBLK
  5
10C
330
106
100
AcDbEntity
  8
0
100
AcDbBlockEnd
  0
BLOCK
  5
10F
330
10E
100
AcDbEntity
  8
0
100
AcDbBlockBegin
  2
C5
 70
     0
 10
0.0
 20
0.0
 30
0.0
  3
C5
  1

  0
LINE
  5
110
330
10E
100
AcDbEntity
  8
____1
  6
Continuous
 62
     5
370
    18
100
AcDbLine
 10
50.16749268593617
 20
16.27254387096441
 30
0.0
 11
50.16749268593617
 21
32.27254387096432
 31
0.0
  0
LINE
  5
111
330
10E
100
AcDbEntity
  8
____1
  6
Continuous
 62
     5
370
    18
100
AcDbLine
 10
45.16749268593615
 20
16.27254387096441
 30
0.0
 11
45.16749268593615
 21
32.27254387096432
 31
0.0
  0
LINE
  5
112
330
10E
100
AcDbEntity
  8
____1
  6
Continuous
 62
     5
370
    18
100
AcDbLine
 10
45.16749268593615
 20
16.27254387096441
 30
0.0
 11
50.16749268593617
 21
16.27254387096441
 31
0.0
  0
LINE
  5
113
330
10E
100
AcDbEntity
  8
____1
  6
Continuous
 62
     5
370
    18
100
AcDbLine
 10
45.16749268593615
 20
32.27254387096432
 30
0.0
 11
50.16749268593617
 21
32.27254387096432
 31
0.0
  0
ENDBLK
  5
114
330
10E
100
AcDbEntity
  8
0
100
AcDbBlockEnd
  0
BLOCK
  5
117
330
116
100
AcDbEntity
  8
0
100
AcDbBlockBegin
  2
C6
 70
     0
 10
0.0
 20
0.0
 30
0.0
  3
C6
  1

  0
LINE
  5
118
330
116
100
AcDbEntity
  8
____1
  6
Continuous
 62
     5
370
    18
100
AcDbLine
 10
10.16749268593617
 20
16.27254387096441
 30
0.0
 11
10.16749268593617
 21
32.27254387096432
 31
0.0
  0
LINE
  5
119
330
116
100
AcDbEntity
  8
____1
  6
Continuous
 62
     5
370
    18
100
AcDbLine
 10
5.167492685936167
 20
16.27254387096441
 30
0.0
 11
5.167492685936167
 21
32.27254387096432
 31
0.0
  0
LINE
  5
11A
330
116
100
AcDbEntity
  8
____1
  6
Continuous
 62
     5
370
    18
100
AcDbLine
 10
5.167492685936167
 20
16.27254387096441
 30
0.0
 11
10.16749268593617
 21
16.27254387096441
 31
0.0
  0
LINE
  5
11B
330
116
100
AcDbEntity
  8
____1
  6
Continuous
 62
     5
370
    18
100
AcDbLine
 10
5.167492685936167
 20
32.27254387096432
 30
0.0
 11
10.16749268593617
 21
32.27254387096432
 31
0.0
  0
ENDBLK
  5
11C
330
116
100
AcDbEntity
  8
0
100
AcDbBlockEnd
  0
BLOCK
  5
11F
330
11E
100
AcDbEntity
  8
0
100
AcDbBlockBegin
  2
C7
 70
     0
 10
0.0
 20
0.0
 30
0.0
  3
C7
  1

  0
LINE
  5
120
330
11E
100
AcDbEntity
  8
____1
  6
Continuous
 62
     5
370
    18
100
AcDbLine
 10
90.16749268593548
 20
16.27254387096441
 30
0.0
 11
90.16749268593548
 21
32.27254387096432
 31
0.0
  0
LINE
  5
121
330
11E
100
AcDbEntity
  8
____1
  6
Continuous
 62
     5
370
    18
100
AcDbLine
 10
85.16749268593548
 20
16.27254387096441
 30
0.0
 11
85.16749268593548
 21
32.27254387096432
 31
0.0
  0
LINE
  5
122
330
11E
100
AcDbEntity
  8
____1
  6
Continuous
 62
     5
370
    18
100
AcDbLine
 10
85.16749268593548
 20
16.27254387096441
 30
0.0
 11
90.16749268593548
 21
16.27254387096441
 31
0.0
  0
LINE
  5
123
330
11E
100
AcDbEntity
  8
____1
  6
Continuous
 62
     5
370
    18
100
AcDbLine
 10
85.16749268593548
 20
32.27254387096432
 30
0.0
 11
90.16749268593548
 21
32.27254387096432
 31
0.0
  0
ENDBLK
  5
124
330
11E
100
AcDbEntity
  8
0
100
AcDbBlockEnd
  0
BLOCK
  5
127
330
126
100
AcDbEntity
  8
0
100
AcDbBlockBegin
  2
C8
 70
     0
 10
0.0
 20
0.0
 30
0.0
  3
C8
  1

  0
LINE
  5
128
330
126
100
AcDbEntity
  8
____1
  6
Continuous
 62
     5
370
    18
100
AcDbLine
 10
130.1674926859355
 20
16.27254387096441
 30
0.0
 11
130.1674926859355
 21
32.27254387096432
 31
0.0
  0
LINE
  5
129
330
126
100
AcDbEntity
  8
____1
  6
Continuous
 62
     5
370
    18
100
AcDbLine
 10
125.1674926859354
 20
16.27254387096441
 30
0.0
 11
125.1674926859354
 21
32.27254387096432
 31
0.0
  0
LINE
  5
12A
330
126
100
AcDbEntity
  8
____1
  6
Continuous
 62
     5
370
    18
100
AcDbLine
 10
125.1674926859354
 20
16.27254387096441
 30
0.0
 11
130.1674926859355
 21
16.27254387096441
 31
0.0
  0
LINE
  5
12B
330
126
100
AcDbEntity
  8
____1
  6
Continuous
 62
     5
370
    18
100
AcDbLine
 10
125.1674926859354
 20
32.27254387096432
 30
0.0
 11
130.1674926859355
 21
32.27254387096432
 31
0.0
  0
ENDBLK
  5
12C
330
126
100
AcDbEntity
  8
0
100
AcDbBlockEnd
  0
BLOCK
  5
130
330
12F
100
AcDbEntity
  8
0
100
AcDbBlockBegin
  2
C9
 70
     0
 10
0.0
 20
0.0
 30
0.0
  3
C9
  1

  0
LINE
  5
131
330
12F
100
AcDbEntity
  8
____1
  6
Continuous
 62
     5
370
    18
100
AcDbLine
 10
1490.167492685935
 20
16.27254387096441
 30
0.0
 11
1490.167492685935
 21
32.27254387096432
 31
0.0
  0
LINE
  5
132
330
12F
100
AcDbEntity
  8
____1
  6
Continuous
 62
     5
370
    18
100
AcDbLine
 10
1485.167492685935
 20
16.27254387096441
 30
0.0
 11
1485.167492685935
 21
32.27254387096432
 31
0.0
  0
LINE
  5
133
330
12F
100
AcDbEntity
  8
____1
  6
Continuous
 62
     5
370
    18
100
AcDbLine
 10
1485.167492685935
 20
16.27254387096441
 30
0.0
 11
1490.167492685935
 21
16.27254387096441
 31
0.0
  0
LINE
  5
134
330
12F
100
AcDbEntity
  8
____1
  6
Continuous
 62
     5
370
    18
100
AcDbLine
 10
1485.167492685935
 20
32.27254387096432
 30
0.0
 11
1490.167492685935
 21
32.27254387096432
 31
0.0
  0
ENDBLK
  5
135
330
12F
100
AcDbEntity
  8
0
100
AcDbBlockEnd
  0
BLOCK
  5
138
330
137
100
AcDbEntity
  8
0
100
AcDbBlockBegin
  2
C10
 70
     0
 10
0.0
 20
0.0
 30
0.0
  3
C10
  1

  0
LINE
  5
139
330
137
100
AcDbEntity
  8
____1
  6
Continuous
 62
     5
370
    18
100
AcDbLine
 10
1530.167492685935
 20
16.27254387096441
 30
0.0
 11
1530.167492685935
 21
32.27254387096432
 31
0.0
  0
LINE
  5
13A
330
137
100
AcDbEntity
  8
____1
  6
Continuous
 62
     5
370
    18
100
AcDbLine
 10
1525.167492685935
 20
16.27254387096441
 30
0.0
 11
1525.167492685935
 21
32.27254387096432
 31
0.0
  0
LINE
  5
13B
330
137
100
AcDbEntity
  8
____1
  6
Continuous
 62
     5
370
    18
100
AcDbLine
 10
1525.167492685935
 20
16.27254387096441
 30
0.0
 11
1530.167492685935
 21
16.27254387096441
 31
0.0
  0
LINE
  5
13C
330
137
100
AcDbEntity
  8
____1
  6
Continuous
 62
     5
370
    18
100
AcDbLine
 10
1525.167492685935
 20
32.27254387096432
 30
0.0
 11
1530.167492685935
 21
32.27254387096432
 31
0.0
  0
ENDBLK
  5
13D
330
137
100
AcDbEntity
  8
0
100
AcDbBlockEnd
  0
BLOCK
  5
140
330
13F
100
AcDbEntity
  8
0
100
AcDbBlockBegin
  2
C11
 70
     0
 10
0.0
 20
0.0
 30
0.0
  3
C11
  1

  0
LINE
  5
141
330
13F
100
AcDbEntity
  8
____1
  6
Continuous
 62
     5
370
    18
100
AcDbLine
 10
450.1674926859354
 20
16.27254387096441
 30
0.0
 11
450.1674926859354
 21
32.27254387096432
 31
0.0
  0
LINE
  5
142
330
13F
100
AcDbEntity
  8
____1
  6
Continuous
 62
     5
370
    18
100
AcDbLine
 10
445.1674926859355
 20
16.27254387096441
 30
0.0
 11
445.1674926859355
 21
32.27254387096432
 31
0.0
  0
LINE
  5
143
330
13F
100
AcDbEntity
  8
____1
  6
Continuous
 62
     5
370
    18
100
AcDbLine
 10
445.1674926859355
 20
16.27254387096441
 30
0.0
 11
450.1674926859354
 21
16.27254387096441
 31
0.0
  0
LINE
  5
144
330
13F
100
AcDbEntity
  8
____1
  6
Continuous
 62
     5
370
    18
100
AcDbLine
 10
445.1674926859355
 20
32.27254387096432
 30
0.0
 11
450.1674926859354
 21
32.27254387096432
 31
0.0
  0
ENDBLK
  5
145
330
13F
100
AcDbEntity
  8
0
100
AcDbBlockEnd
  0
BLOCK
  5
148
330
147
100
AcDbEntity
  8
0
100
AcDbBlockBegin
  2
C12
 70
     0
 10
0.0
 20
0.0
 30
0.0
  3
C12
  1

  0
LINE
  5
149
330
147
100
AcDbEntity
  8
____1
  6
Continuous
 62
     5
370
    18
100
AcDbLine
 10
570.1674926859355
 20
16.27254387096441
 30
0.0
 11
570.1674926859355
 21
32.27254387096432
 31
0.0
  0
LINE
  5
14A
330
147
100
AcDbEntity
  8
____1
  6
Continuous
 62
     5
370
    18
100
AcDbLine
 10
565.1674926859355
 20
16.27254387096441
 30
0.0
 11
565.1674926859355
 21
32.27254387096432
 31
0.0
  0
LINE
  5
14B
330
147
100
AcDbEntity
  8
____1
  6
Continuous
 62
     5
370
    18
100
AcDbLine
 10
565.1674926859355
 20
16.27254387096441
 30
0.0
 11
570.1674926859355
 21
16.27254387096441
 31
0.0
  0
LINE
  5
14C
330
147
100
AcDbEntity
  8
____1
  6
Continuous
 62
     5
370
    18
100
AcDbLine
 10
565.1674926859355
 20
32.27254387096432
 30
0.0
 11
570.1674926859355
 21
32.27254387096432
 31
0.0
  0
ENDBLK
  5
14D
330
147
100
AcDbEntity
  8
0
100
AcDbBlockEnd
  0
BLOCK
  5
150
330
14F
100
AcDbEntity
  8
0
100
AcDbBlockBegin
  2
C13
 70
     0
 10
0.0
 20
0.0
 30
0.0
  3
C13
  1

  0
LINE
  5
151
330
14F
100
AcDbEntity
  8
____1
  6
Continuous
 62
     5
370
    18
100
AcDbLine
 10
530.1674926859353
 20
16.27254387096441
 30
0.0
 11
530.1674926859353
 21
32.27254387096432
 31
0.0
  0
LINE
  5
152
330
14F
100
AcDbEntity
  8
____1
  6
Continuous
 62
     5
370
    18
100
AcDbLine
 10
525.1674926859354
 20
16.27254387096441
 30
0.0
 11
525.1674926859354
 21
32.27254387096432
 31
0.0
  0
LINE
  5
153
330
14F
100
AcDbEntity
  8
____1
  6
Continuous
 62
     5
370
    18
100
AcDbLine
 10
525.1674926859354
 20
16.27254387096441
 30
0.0
 11
530.1674926859353
 21
16.27254387096441
 31
0.0
  0
LINE
  5
154
330
14F
100
AcDbEntity
  8
____1
  6
Continuous
 62
     5
370
    18
100
AcDbLine
 10
525.1674926859354
 20
32.27254387096432
 30
0.0
 11
530.1674926859353
 21
32.27254387096432
 31
0.0
  0
ENDBLK
  5
155
330
14F
100
AcDbEntity
  8
0
100
AcDbBlockEnd
  0
BLOCK
  5
158
330
157
100
AcDbEntity
  8
0
100
AcDbBlockBegin
  2
C14
 70
     0
 10
0.0
 20
0.0
 30
0.0
  3
C14
  1

  0
LINE
  5
159
330
157
100
AcDbEntity
  8
____1
  6
Continuous
 62
     5
370
    18
100
AcDbLine
 10
490.1674926859355
 20
16.27254387096441
 30
0.0
 11
490.1674926859355
 21
32.27254387096432
 31
0.0
  0
LINE
  5
15A
330
157
100
AcDbEntity
  8
____1
  6
Continuous
 62
     5
370
    18
100
AcDbLine
 10
485.1674926859353
 20
16.27254387096441
 30
0.0
 11
485.1674926859353
 21
32.27254387096432
 31
0.0
  0
LINE
  5
15B
330
157
100
AcDbEntity
  8
____1
  6
Continuous
 62
     5
370
    18
100
AcDbLine
 10
485.1674926859353
 20
16.27254387096441
 30
0.0
 11
490.1674926859355
 21
16.27254387096441
 31
0.0
  0
LINE
  5
15C
330
157
100
AcDbEntity
  8
____1
  6
Continuous
 62
     5
370
    18
100
AcDbLine
 10
485.1674926859353
 20
32.27254387096432
 30
0.0
 11
490.1674926859355
 21
32.27254387096432
 31
0.0
  0
ENDBLK
  5
15D
330
157
100
AcDbEntity
  8
0
100
AcDbBlockEnd
  0
BLOCK
  5
160
330
15F
100
AcDbEntity
  8
0
100
AcDbBlockBegin
  2
C15
 70
     0
 10
0.0
 20
0.0
 30
0.0
  3
C15
  1

  0
LINE
  5
161
330
15F
100
AcDbEntity
  8
____1
  6
Continuous
 62
     5
370
    18
100
AcDbLine
 10
610.1674926859353
 20
16.27254387096441
 30
0.0
 11
610.1674926859353
 21
32.27254387096432
 31
0.0
  0
LINE
  5
162
330
15F
100
AcDbEntity
  8
____1
  6
Continuous
 62
     5
370
    18
100
AcDbLine
 10
605.1674926859353
 20
16.27254387096441
 30
0.0
 11
605.1674926859353
 21
32.27254387096432
 31
0.0
  0
LINE
  5
163
330
15F
100
AcDbEntity
  8
____1
  6
Continuous
 62
     5
370
    18
100
AcDbLine
 10
605.1674926859353
 20
16.27254387096441
 30
0.0
 11
610.1674926859353
 21
16.27254387096441
 31
0.0
  0
LINE
  5
164
330
15F
100
AcDbEntity
  8
____1
  6
Continuous
 62
     5
370
    18
100
AcDbLine
 10
605.1674926859353
 20
32.27254387096432
 30
0.0
 11
610.1674926859353
 21
32.27254387096432
 31
0.0
  0
ENDBLK
  5
165
330
15F
100
AcDbEntity
  8
0
100
AcDbBlockEnd
  0
BLOCK
  5
168
330
167
100
AcDbEntity
  8
0
100
AcDbBlockBegin
  2
C16
 70
     0
 10
0.0
 20
0.0
 30
0.0
  3
C16
  1

  0
LINE
  5
169
330
167
100
AcDbEntity
  8
____1
  6
Continuous
 62
     5
370
    18
100
AcDbLine
 10
650.1674926859354
 20
16.27254387096441
 30
0.0
 11
650.1674926859354
 21
32.27254387096432
 31
0.0
  0
LINE
  5
16A
330
167
100
AcDbEntity
  8
____1
  6
Continuous
 62
     5
370
    18
100
AcDbLine
 10
645.1674926859355
 20
16.27254387096441
 30
0.0
 11
645.1674926859355
 21
32.27254387096432
 31
0.0
  0
LINE
  5
16B
330
167
100
AcDbEntity
  8
____1
  6
Continuous
 62
     5
370
    18
100
AcDbLine
 10
645.1674926859355
 20
16.27254387096441
 30
0.0
 11
650.1674926859354
 21
16.27254387096441
 31
0.0
  0
LINE
  5
16C
330
167
100
AcDbEntity
  8
____1
  6
Continuous
 62
     5
370
    18
100
AcDbLine
 10
645.1674926859355
 20
32.27254387096432
 30
0.0
 11
650.1674926859354
 21
32.27254387096432
 31
0.0
  0
ENDBLK
  5
16D
330
167
100
AcDbEntity
  8
0
100
AcDbBlockEnd
  0
BLOCK
  5
170
330
16F
100
AcDbEntity
  8
0
100
AcDbBlockBegin
  2
C17
 70
     0
 10
0.0
 20
0.0
 30
0.0
  3
C17
  1

  0
LINE
  5
171
330
16F
100
AcDbEntity
  8
____1
  6
Continuous
 62
     5
370
    18
100
AcDbLine
 10
690.1674926859355
 20
16.27254387096441
 30
0.0
 11
690.1674926859355
 21
32.27254387096432
 31
0.0
  0
LINE
  5
172
330
16F
100
AcDbEntity
  8
____1
  6
Continuous
 62
     5
370
    18
100
AcDbLine
 10
685.1674926859353
 20
16.27254387096441
 30
0.0
 11
685.1674926859353
 21
32.27254387096432
 31
0.0
  0
LINE
  5
173
330
16F
100
AcDbEntity
  8
____1
  6
Continuous
 62
     5
370
    18
100
AcDbLine
 10
685.1674926859353
 20
16.27254387096441
 30
0.0
 11
690.1674926859355
 21
16.27254387096441
 31
0.0
  0
LINE
  5
174
330
16F
100
AcDbEntity
  8
____1
  6
Continuous
 62
     5
370
    18
100
AcDbLine
 10
685.1674926859353
 20
32.27254387096432
 30
0.0
 11
690.1674926859355
 21
32.27254387096432
 31
0.0
  0
ENDBLK
  5
175
330
16F
100
AcDbEntity
  8
0
100
AcDbBlockEnd
  0
BLOCK
  5
178
330
177
100
AcDbEntity
  8
0
100
AcDbBlockBegin
  2
C18
 70
     0
 10
0.0
 20
0.0
 30
0.0
  3
C18
  1

  0
LINE
  5
179
330
177
100
AcDbEntity
  8
____1
  6
Continuous
 62
     5
370
    18
100
AcDbLine
 10
810.1674926859354
 20
16.27254387096441
 30
0.0
 11
810.1674926859354
 21
32.27254387096432
 31
0.0
  0
LINE
  5
17A
330
177
100
AcDbEntity
  8
____1
  6
Continuous
 62
     5
370
    18
100
AcDbLine
 10
805.1674926859355
 20
16.27254387096441
 30
0.0
 11
805.1674926859355
 21
32.27254387096432
 31
0.0
  0
LINE
  5
17B
330
177
100
AcDbEntity
  8
____1
  6
Continuous
 62
     5
370
    18
100
AcDbLine
 10
805.1674926859355
 20
16.27254387096441
 30
0.0
 11
810.1674926859354
 21
16.27254387096441
 31
0.0
  0
LINE
  5
17C
330
177
100
AcDbEntity
  8
____1
  6
Continuous
 62
     5
370
    18
100
AcDbLine
 10
805.1674926859355
 20
32.27254387096432
 30
0.0
 11
810.1674926859354
 21
32.27254387096432
 31
0.0
  0
ENDBLK
  5
17D
330
177
100
AcDbEntity
  8
0
100
AcDbBlockEnd
  0
BLOCK
  5
180
330
17F
100
AcDbEntity
  8
0
100
AcDbBlockBegin
  2
C19
 70
     0
 10
0.0
 20
0.0
 30
0.0
  3
C19
  1

  0
LINE
  5
181
330
17F
100
AcDbEntity
  8
____1
  6
Continuous
 62
     5
370
    18
100
AcDbLine
 10
770.1674926859355
 20
16.27254387096441
 30
0.0
 11
770.1674926859355
 21
32.27254387096432
 31
0.0
  0
LINE
  5
182
330
17F
100
AcDbEntity
  8
____1
  6
Continuous
 62
     5
370
    18
100
AcDbLine
 10
765.1674926859355
 20
16.27254387096441
 30
0.0
 11
765.1674926859355
 21
32.27254387096432
 31
0.0
  0
LINE
  5
183
330
17F
100
AcDbEntity
  8
____1
  6
Continuous
 62
     5
370
    18
100
AcDbLine
 10
765.1674926859355
 20
16.27254387096441
 30
0.0
 11
770.1674926859355
 21
16.27254387096441
 31
0.0
  0
LINE
  5
184
330
17F
100
AcDbEntity
  8
____1
  6
Continuous
 62
     5
370
    18
100
AcDbLine
 10
765.1674926859355
 20
32.27254387096432
 30
0.0
 11
770.1674926859355
 21
32.27254387096432
 31
0.0
  0
ENDBLK
  5
185
330
17F
100
AcDbEntity
  8
0
100
AcDbBlockEnd
  0
BLOCK
  5
188
330
187
100
AcDbEntity
  8
0
100
AcDbBlockBegin
  2
C20
 70
     0
 10
0.0
 20
0.0
 30
0.0
  3
C20
  1

  0
LINE
  5
189
330
187
100
AcDbEntity
  8
____1
  6
Continuous
 62
     5
370
    18
100
AcDbLine
 10
730.1674926859353
 20
16.27254387096441
 30
0.0
 11
730.1674926859353
 21
32.27254387096432
 31
0.0
  0
LINE
  5
18A
330
187
100
AcDbEntity
  8
____1
  6
Continuous
 62
     5
370
    18
100
AcDbLine
 10
725.1674926859354
 20
16.27254387096441
 30
0.0
 11
725.1674926859354
 21
32.27254387096432
 31
0.0
  0
LINE
  5
18B
330
187
100
AcDbEntity
  8
____1
  6
Continuous
 62
     5
370
    18
100
AcDbLine
 10
725.1674926859354
 20
16.27254387096441
 30
0.0
 11
730.1674926859353
 21
16.27254387096441
 31
0.0
  0
LINE
  5
18C
330
187
100
AcDbEntity
  8
____1
  6
Continuous
 62
     5
370
    18
100
AcDbLine
 10
725.1674926859354
 20
32.27254387096432
 30
0.0
 11
730.1674926859353
 21
32.27254387096432
 31
0.0
  0
ENDBLK
  5
18D
330
187
100
AcDbEntity
  8
0
100
AcDbBlockEnd
  0
BLOCK
  5
190
330
18F
100
AcDbEntity
  8
0
100
AcDbBlockBegin
  2
C21
 70
     0
 10
0.0
 20
0.0
 30
0.0
  3
C21
  1

  0
LINE
  5
191
330
18F
100
AcDbEntity
  8
____1
  6
Continuous
 62
     5
370
    18
100
AcDbLine
 10
850.1674926859353
 20
16.27254387096441
 30
0.0
 11
850.1674926859353
 21
32.27254387096432
 31
0.0
  0
LINE
  5
192
330
18F
100
AcDbEntity
  8
____1
  6
Continuous
 62
     5
370
    18
100
AcDbLine
 10
845.1674926859354
 20
16.27254387096441
 30
0.0
 11
845.1674926859354
 21
32.27254387096432
 31
0.0
  0
LINE
  5
193
330
18F
100
AcDbEntity
  8
____1
  6
Continuous
 62
     5
370
    18
100
AcDbLine
 10
845.1674926859354
 20
16.27254387096441
 30
0.0
 11
850.1674926859353
 21
16.27254387096441
 31
0.0
  0
LINE
  5
194
330
18F
100
AcDbEntity
  8
____1
  6
Continuous
 62
     5
370
    18
100
AcDbLine
 10
845.1674926859354
 20
32.27254387096432
 30
0.0
 11
850.1674926859353
 21
32.27254387096432
 31
0.0
  0
ENDBLK
  5
195
330
18F
100
AcDbEntity
  8
0
100
AcDbBlockEnd
  0
BLOCK
  5
198
330
197
100
AcDbEntity
  8
0
100
AcDbBlockBegin
  2
C22
 70
     0
 10
0.0
 20
0.0
 30
0.0
  3
C22
  1

  0
LINE
  5
199
330
197
100
AcDbEntity
  8
____1
  6
Continuous
 62
     5
370
    18
100
AcDbLine
 10
890.1674926859355
 20
16.27254387096441
 30
0.0
 11
890.1674926859355
 21
32.27254387096432
 31
0.0
  0
LINE
  5
19A
330
197
100
AcDbEntity
  8
____1
  6
Continuous
 62
     5
370
    18
100
AcDbLine
 10
885.1674926859354
 20
16.27254387096441
 30
0.0
 11
885.1674926859354
 21
32.27254387096432
 31
0.0
  0
LINE
  5
19B
330
197
100
AcDbEntity
  8
____1
  6
Continuous
 62
     5
370
    18
100
AcDbLine
 10
885.1674926859354
 20
16.27254387096441
 30
0.0
 11
890.1674926859355
 21
16.27254387096441
 31
0.0
  0
LINE
  5
19C
330
197
100
AcDbEntity
  8
____1
  6
Continuous
 62
     5
370
    18
100
AcDbLine
 10
885.1674926859354
 20
32.27254387096432
 30
0.0
 11
890.1674926859355
 21
32.27254387096432
 31
0.0
  0
ENDBLK
  5
19D
330
197
100
AcDbEntity
  8
0
100
AcDbBlockEnd
  0
BLOCK
  5
1A0
330
19F
100
AcDbEntity
  8
0
100
AcDbBlockBegin
  2
*D23
 70
     1
 10
0.0
 20
0.0
 30
0.0
  3
*D23
  1

  0
LINE
  5
3C6
330
19F
100
AcDbEntity
  8
寸法線_1
  6
Continuous
 62
     7
370
    -2
100
AcDbLine
 10
-12.33250731406383
 20
40.27254387096465
 30
0.0
 11
-12.33250731406382
 21
155.820614745793
 31
0.0
  0
LINE
  5
3C7
330
19F
100
AcDbEntity
  8
寸法線_1
  6
Continuous
 62
     7
370
    -2
100
AcDbLine
 10
1587.667492685935
 20
40.27254387096465
 30
0.0
 11
1587.667492685935
 21
155.820614745793
 31
0.0
  0
LINE
  5
3C8
330
19F
100
AcDbEntity
  8
寸法線_1
  6
Continuous
 62
     7
370
    -2
100
AcDbLine
 10
-9.332507314063823
 20
155.320614745793
 30
0.0
 11
1584.667492685935
 21
155.320614745793
 31
0.0
  0
SOLID
  5
3C9
330
19F
100
AcDbEntity
  8
寸法線_1
  6
Continuous
 62
     7
370
     0
100
AcDbTrace
 10
-9.332507314063823
 20
155.820614745793
 30
0.0
 11
-9.332507314063823
 21
154.820614745793
 31
0.0
 12
-12.33250731406382
 22
155.320614745793
 32
0.0
 13
-12.33250731406382
 23
155.320614745793
 33
0.0
  0
SOLID
  5
3CA
330
19F
100
AcDbEntity
  8
寸法線_1
  6
Continuous
 62
     7
370
     0
100
AcDbTrace
 10
1584.667492685935
 20
155.820614745793
 30
0.0
 11
1584.667492685935
 21
154.820614745793
 31
0.0
 12
1587.667492685935
 22
155.320614745793
 32
0.0
 13
1587.667492685935
 23
155.320614745793
 33
0.0
  0
MTEXT
  5
3CB
330
19F
100
AcDbEntity
  8
寸法線_1
  6
Continuous
 62
     7
370
     5
100
AcDbMText
 10
787.6674926859355
 20
165.1400594021651
 30
0.0
 40
17.63888931274414
 41
0.0
 71
     5
 72
     1
  1
\A1;1600
 73
     1
 44
1.0
1001
ACAD
1000
MTEXTBEGIN
1070
    73
1070
     1
1070
    44
1040
1.0
1070
    74
1070
     0
1000
MTEXTEND
  0
POINT
  5
3CC
330
19F
100
AcDbEntity
  8
DEFPOINTS
  6
Continuous
 62
     0
370
     0
100
AcDbPoint
 10
-12.33250731406383
 20
39.27254387096466
 30
0.0
  0
POINT
  5
3CD
330
19F
100
AcDbEntity
  8
DEFPOINTS
  6
Continuous
 62
     0
370
     0
100
AcDbPoint
 10
1587.667492685935
 20
39.27254387096466
 30
0.0
  0
POINT
  5
3CE
330
19F
100
AcDbEntity
  8
DEFPOINTS
  6
Continuous
 62
     0
370
     0
100
AcDbPoint
 10
1587.667492685935
 20
155.320614745793
 30
0.0
  0
ENDBLK
  5
1AA
330
19F
100
AcDbEntity
  8
0
100
AcDbBlockEnd
  0
BLOCK
  5
1AE
330
1AD
100
AcDbEntity
  8
0
100
AcDbBlockBegin
  2
*D24
 70
     1
 10
0.0
 20
0.0
 30
0.0
  3
*D24
  1

  0
LINE
  5
3BC
330
1AD
100
AcDbEntity
  8
寸法線_1
  6
Continuous
 62
     7
370
    -2
100
AcDbLine
 10
-12.33250731406383
 20
40.27254387096465
 30
0.0
 11
-12.33250731406382
 21
107.2447683916263
 31
0.0
  0
LINE
  5
3BD
330
1AD
100
AcDbEntity
  8
寸法線_1
  6
Continuous
 62
     7
370
    -2
100
AcDbLine
 10
7.667492685936168
 20
33.27254387096432
 30
0.0
 11
7.667492685936172
 21
107.2447683916263
 31
0.0
  0
LINE
  5
3BE
330
1AD
100
AcDbEntity
  8
寸法線_1
  6
Continuous
 62
     7
370
    -2
100
AcDbLine
 10
-9.332507314063827
 20
106.7447683916263
 30
0.0
 11
4.667492685936172
 21
106.7447683916263
 31
0.0
  0
LINE
  5
3BF
330
1AD
100
AcDbEntity
  8
寸法線_1
  6
Continuous
 62
     7
370
    -2
100
AcDbLine
 10
7.667492685936172
 20
106.7447683916263
 30
0.0
 11
39.12582665505239
 21
106.7447683916263
 31
0.0
  0
SOLID
  5
3C0
330
1AD
100
AcDbEntity
  8
寸法線_1
  6
Continuous
 62
     7
370
     0
100
AcDbTrace
 10
-9.332507314063827
 20
107.2447683916263
 30
0.0
 11
-9.332507314063827
 21
106.2447683916263
 31
0.0
 12
-12.33250731406382
 22
106.7447683916263
 32
0.0
 13
-12.33250731406382
 23
106.7447683916263
 33
0.0
  0
SOLID
  5
3C1
330
1AD
100
AcDbEntity
  8
寸法線_1
  6
Continuous
 62
     7
370
     0
100
AcDbTrace
 10
4.667492685936172
 20
107.2447683916263
 30
0.0
 11
4.667492685936172
 21
106.2447683916263
 31
0.0
 12
7.667492685936172
 22
106.7447683916263
 32
0.0
 13
7.667492685936172
 23
106.7447683916263
 33
0.0
  0
MTEXT
  5
3C2
330
1AD
100
AcDbEntity
  8
寸法線_1
  6
Continuous
 62
     7
370
     5
100
AcDbMText
 10
24.89665967049428
 20
116.5642130479983
 30
0.0
 40
17.63888931274414
 41
0.0
 71
     5
 72
     1
  1
\A1;20
 73
     1
 44
1.0
1001
ACAD
1000
MTEXTBEGIN
1070
    73
1070
     1
1070
    44
1040
1.0
1070
    74
1070
     0
1000
MTEXTEND
  0
POINT
  5
3C3
330
1AD
100
AcDbEntity
  8
DEFPOINTS
  6
Continuous
 62
     0
370
     0
100
AcDbPoint
 10
-12.33250731406383
 20
39.27254387096466
 30
0.0
  0
POINT
  5
3C4
330
1AD
100
AcDbEntity
  8
DEFPOINTS
  6
Continuous
 62
     0
370
     0
100
AcDbPoint
 10
7.667492685936168
 20
32.27254387096432
 30
0.0
  0
POINT
  5
3C5
330
1AD
100
AcDbEntity
  8
DEFPOINTS
  6
Continuous
 62
     0
370
     0
100
AcDbPoint
 10
7.667492685936172
 20
106.7447683916263
 30
0.0
  0
ENDBLK
  5
1B9
330
1AD
100
AcDbEntity
  8
0
100
AcDbBlockEnd
  0
BLOCK
  5
1BC
330
1BB
100
AcDbEntity
  8
0
100
AcDbBlockBegin
  2
*D25
 70
     1
 10
0.0
 20
0.0
 30
0.0
  3
*D25
  1

  0
LINE
  5
3B2
330
1BB
100
AcDbEntity
  8
寸法線_1
  6
Continuous
 62
     7
370
    -2
100
AcDbLine
 10
1567.667492685935
 20
33.27254387096432
 30
0.0
 11
1567.667492685935
 21
107.2447683916263
 31
0.0
  0
LINE
  5
3B3
330
1BB
100
AcDbEntity
  8
寸法線_1
  6
Continuous
 62
     7
370
    -2
100
AcDbLine
 10
1587.667492685935
 20
40.27254387096465
 30
0.0
 11
1587.667492685935
 21
107.2447683916263
 31
0.0
  0
LINE
  5
3B4
330
1BB
100
AcDbEntity
  8
寸法線_1
  6
Continuous
 62
     7
370
    -2
100
AcDbLine
 10
1570.667492685935
 20
106.7447683916263
 30
0.0
 11
1584.667492685935
 21
106.7447683916263
 31
0.0
  0
LINE
  5
3B5
330
1BB
100
AcDbEntity
  8
寸法線_1
  6
Continuous
 62
     7
370
    -2
100
AcDbLine
 10
1587.667492685935
 20
106.7447683916263
 30
0.0
 11
1619.125826655051
 21
106.7447683916263
 31
0.0
  0
SOLID
  5
3B6
330
1BB
100
AcDbEntity
  8
寸法線_1
  6
Continuous
 62
     7
370
     0
100
AcDbTrace
 10
1570.667492685935
 20
107.2447683916263
 30
0.0
 11
1570.667492685935
 21
106.2447683916263
 31
0.0
 12
1567.667492685935
 22
106.7447683916263
 32
0.0
 13
1567.667492685935
 23
106.7447683916263
 33
0.0
  0
SOLID
  5
3B7
330
1BB
100
AcDbEntity
  8
寸法線_1
  6
Continuous
 62
     7
370
     0
100
AcDbTrace
 10
1584.667492685935
 20
107.2447683916263
 30
0.0
 11
1584.667492685935
 21
106.2447683916263
 31
0.0
 12
1587.667492685935
 22
106.7447683916263
 32
0.0
 13
1587.667492685935
 23
106.7447683916263
 33
0.0
  0
MTEXT
  5
3B8
330
1BB
100
AcDbEntity
  8
寸法線_1
  6
Continuous
 62
     7
370
     5
100
AcDbMText
 10
1604.896659670493
 20
116.5642130479983
 30
0.0
 40
17.63888931274414
 41
0.0
 71
     5
 72
     1
  1
\A1;20
 73
     1
 44
1.0
1001
ACAD
1000
MTEXTBEGIN
1070
    73
1070
     1
1070
    44
1040
1.0
1070
    74
1070
     0
1000
MTEXTEND
  0
POINT
  5
3B9
330
1BB
100
AcDbEntity
  8
DEFPOINTS
  6
Continuous
 62
     0
370
     0
100
AcDbPoint
 10
1567.667492685935
 20
32.27254387096432
 30
0.0
  0
POINT
  5
3BA
330
1BB
100
AcDbEntity
  8
DEFPOINTS
  6
Continuous
 62
     0
370
     0
100
AcDbPoint
 10
1587.667492685935
 20
39.27254387096466
 30
0.0
  0
POINT
  5
3BB
330
1BB
100
AcDbEntity
  8
DEFPOINTS
  6
Continuous
 62
     0
370
     0
100
AcDbPoint
 10
1587.667492685935
 20
106.7447683916263
 30
0.0
  0
ENDBLK
  5
1C7
330
1BB
100
AcDbEntity
  8
0
100
AcDbBlockEnd
  0
BLOCK
  5
1CA
330
1C9
100
AcDbEntity
  8
0
100
AcDbBlockBegin
  2
*D26
 70
     1
 10
0.0
 20
0.0
 30
0.0
  3
*D26
  1

  0
LINE
  5
3A9
330
1C9
100
AcDbEntity
  8
寸法線_1
  6
Continuous
 62
     7
370
    -2
100
AcDbLine
 10
7.667492685936168
 20
33.27254387096432
 30
0.0
 11
7.667492685936172
 21
107.2447683916263
 31
0.0
  0
LINE
  5
3AA
330
1C9
100
AcDbEntity
  8
寸法線_1
  6
Continuous
 62
     7
370
    -2
100
AcDbLine
 10
1567.667492685935
 20
33.27254387096432
 30
0.0
 11
1567.667492685935
 21
107.2447683916263
 31
0.0
  0
LINE
  5
3AB
330
1C9
100
AcDbEntity
  8
寸法線_1
  6
Continuous
 62
     7
370
    -2
100
AcDbLine
 10
10.66749268593617
 20
106.7447683916263
 30
0.0
 11
1564.667492685935
 21
106.7447683916263
 31
0.0
  0
SOLID
  5
3AC
330
1C9
100
AcDbEntity
  8
寸法線_1
  6
Continuous
 62
     7
370
     0
100
AcDbTrace
 10
10.66749268593617
 20
107.2447683916263
 30
0.0
 11
10.66749268593617
 21
106.2447683916263
 31
0.0
 12
7.667492685936172
 22
106.7447683916263
 32
0.0
 13
7.667492685936172
 23
106.7447683916263
 33
0.0
  0
SOLID
  5
3AD
330
1C9
100
AcDbEntity
  8
寸法線_1
  6
Continuous
 62
     7
370
     0
100
AcDbTrace
 10
1564.667492685935
 20
107.2447683916263
 30
0.0
 11
1564.667492685935
 21
106.2447683916263
 31
0.0
 12
1567.667492685935
 22
106.7447683916263
 32
0.0
 13
1567.667492685935
 23
106.7447683916263
 33
0.0
  0
MTEXT
  5
3AE
330
1C9
100
AcDbEntity
  8
寸法線_1
  6
Continuous
 62
     7
370
     5
100
AcDbMText
 10
787.6674926859355
 20
116.5642130479983
 30
0.0
 40
17.63888931274414
 41
0.0
 71
     5
 72
     1
  1
\A1;1560
 73
     1
 44
1.0
1001
ACAD
1000
MTEXTBEGIN
1070
    73
1070
     1
1070
    44
1040
1.0
1070
    74
1070
     0
1000
MTEXTEND
  0
POINT
  5
3AF
330
1C9
100
AcDbEntity
  8
DEFPOINTS
  6
Continuous
 62
     0
370
     0
100
AcDbPoint
 10
7.667492685936168
 20
32.27254387096432
 30
0.0
  0
POINT
  5
3B0
330
1C9
100
AcDbEntity
  8
DEFPOINTS
  6
Continuous
 62
     0
370
     0
100
AcDbPoint
 10
1567.667492685935
 20
32.27254387096432
 30
0.0
  0
POINT
  5
3B1
330
1C9
100
AcDbEntity
  8
DEFPOINTS
  6
Continuous
 62
     0
370
     0
100
AcDbPoint
 10
1567.667492685935
 20
106.7447683916263
 30
0.0
  0
ENDBLK
  5
1D4
330
1C9
100
AcDbEntity
  8
0
100
AcDbBlockEnd
  0
BLOCK
  5
1D7
330
1D6
100
AcDbEntity
  8
0
100
AcDbBlockBegin
  2
*D27
 70
     1
 10
0.0
 20
0.0
 30
0.0
  3
*D27
  1

  0
LINE
  5
39F
330
1D6
100
AcDbEntity
  8
寸法線_1
  6
Continuous
 62
     7
370
    -2
100
AcDbLine
 10
1191.475733414745
 20
-224.8629505169416
 30
0.0
 11
1191.475733414745
 21
-170.3629505169416
 31
0.0
  0
LINE
  5
3A0
330
1D6
100
AcDbEntity
  8
寸法線_1
  6
Continuous
 62
     7
370
    -2
100
AcDbLine
 10
1233.975733414744
 20
-219.8629505169416
 30
0.0
 11
1233.975733414744
 21
-170.3629505169416
 31
0.0
  0
LINE
  5
3A1
330
1D6
100
AcDbEntity
  8
寸法線_1
  6
Continuous
 62
     7
370
    -2
100
AcDbLine
 10
1194.475733414745
 20
-170.8629505169416
 30
0.0
 11
1230.975733414744
 21
-170.8629505169416
 31
0.0
  0
LINE
  5
3A2
330
1D6
100
AcDbEntity
  8
寸法線_1
  6
Continuous
 62
     7
370
    -2
100
AcDbLine
 10
1233.975733414744
 20
-170.8629505169416
 30
0.0
 11
1291.892401352976
 21
-170.8629505169416
 31
0.0
  0
SOLID
  5
3A3
330
1D6
100
AcDbEntity
  8
寸法線_1
  6
Continuous
 62
     7
370
     0
100
AcDbTrace
 10
1194.475733414745
 20
-170.3629505169416
 30
0.0
 11
1194.475733414745
 21
-171.3629505169416
 31
0.0
 12
1191.475733414745
 22
-170.8629505169416
 32
0.0
 13
1191.475733414745
 23
-170.8629505169416
 33
0.0
  0
SOLID
  5
3A4
330
1D6
100
AcDbEntity
  8
寸法線_1
  6
Continuous
 62
     7
370
     0
100
AcDbTrace
 10
1230.975733414744
 20
-170.3629505169416
 30
0.0
 11
1230.975733414744
 21
-171.3629505169416
 31
0.0
 12
1233.975733414744
 22
-170.8629505169416
 32
0.0
 13
1233.975733414744
 23
-170.8629505169416
 33
0.0
  0
MTEXT
  5
3A5
330
1D6
100
AcDbEntity
  8
寸法線_1
  6
Continuous
 62
     7
370
     5
100
AcDbMText
 10
1264.43406738386
 20
-161.0435058605695
 30
0.0
 40
17.63888931274414
 41
0.0
 71
     5
 72
     1
  1
\A1;42.5
 73
     1
 44
1.0
1001
ACAD
1000
MTEXTBEGIN
1070
    73
1070
     1
1070
    44
1040
1.0
1070
    74
1070
     0
1000
MTEXTEND
  0
POINT
  5
3A6
330
1D6
100
AcDbEntity
  8
DEFPOINTS
  6
Continuous
 62
     0
370
     0
100
AcDbPoint
 10
1191.475733414745
 20
-225.8629505169416
 30
0.0
  0
POINT
  5
3A7
330
1D6
100
AcDbEntity
  8
DEFPOINTS
  6
Continuous
 62
     0
370
     0
100
AcDbPoint
 10
1233.975733414744
 20
-220.8629505169416
 30
0.0
  0
POINT
  5
3A8
330
1D6
100
AcDbEntity
  8
DEFPOINTS
  6
Continuous
 62
     0
370
     0
100
AcDbPoint
 10
1233.975733414744
 20
-170.8629505169416
 30
0.0
  0
ENDBLK
  5
1E2
330
1D6
100
AcDbEntity
  8
0
100
AcDbBlockEnd
  0
BLOCK
  5
1E5
330
1E4
100
AcDbEntity
  8
0
100
AcDbBlockBegin
  2
*D28
 70
     1
 10
0.0
 20
0.0
 30
0.0
  3
*D28
  1

  0
LINE
  5
396
330
1E4
100
AcDbEntity
  8
寸法線_1
  6
Continuous
 62
     7
370
    -2
100
AcDbLine
 10
1195.475733414744
 20
-370.862950516943
 30
0.0
 11
1145.975733414744
 21
-370.862950516943
 31
0.0
  0
LINE
  5
397
330
1E4
100
AcDbEntity
  8
寸法線_1
  6
Continuous
 62
     7
370
    -2
100
AcDbLine
 10
1195.475733414744
 20
-220.8629505169416
 30
0.0
 11
1145.975733414744
 21
-220.8629505169416
 31
0.0
  0
LINE
  5
398
330
1E4
100
AcDbEntity
  8
寸法線_1
  6
Continuous
 62
     7
370
    -2
100
AcDbLine
 10
1146.475733414744
 20
-367.8629505169429
 30
0.0
 11
1146.475733414744
 21
-223.8629505169416
 31
0.0
  0
SOLID
  5
399
330
1E4
100
AcDbEntity
  8
寸法線_1
  6
Continuous
 62
     7
370
     0
100
AcDbTrace
 10
1145.975733414744
 20
-367.8629505169429
 30
0.0
 11
1146.975733414744
 21
-367.8629505169429
 31
0.0
 12
1146.475733414744
 22
-370.862950516943
 32
0.0
 13
1146.475733414744
 23
-370.862950516943
 33
0.0
  0
SOLID
  5
39A
330
1E4
100
AcDbEntity
  8
寸法線_1
  6
Continuous
 62
     7
370
     0
100
AcDbTrace
 10
1145.975733414744
 20
-223.8629505169416
 30
0.0
 11
1146.975733414744
 21
-223.8629505169416
 31
0.0
 12
1146.475733414744
 22
-220.8629505169416
 32
0.0
 13
1146.475733414744
 23
-220.8629505169416
 33
0.0
  0
MTEXT
  5
39B
330
1E4
100
AcDbEntity
  8
寸法線_1
  6
Continuous
 62
     7
370
     5
100
AcDbMText
 10
1136.656288758372
 20
-295.8629505169421
 30
0.0
 40
17.63888931274414
 41
0.0
 71
     5
 72
     1
  1
\A1;150
 11
0.0000000000000001
 21
1.0
 31
0.0
 73
     1
 44
1.0
1001
ACAD
1000
MTEXTBEGIN
1070
    73
1070
     1
1070
    44
1040
1.0
1070
    74
1070
     0
1000
MTEXTEND
  0
POINT
  5
39C
330
1E4
100
AcDbEntity
  8
DEFPOINTS
  6
Continuous
 62
     0
370
     0
100
AcDbPoint
 10
1196.475733414744
 20
-370.862950516943
 30
0.0
  0
POINT
  5
39D
330
1E4
100
AcDbEntity
  8
DEFPOINTS
  6
Continuous
 62
     0
370
     0
100
AcDbPoint
 10
1196.475733414744
 20
-220.8629505169416
 30
0.0
  0
POINT
  5
39E
330
1E4
100
AcDbEntity
  8
DEFPOINTS
  6
Continuous
 62
     0
370
     0
100
AcDbPoint
 10
1146.475733414744
 20
-220.8629505169416
 30
0.0
  0
ENDBLK
  5
1F1
330
1E4
100
AcDbEntity
  8
0
100
AcDbBlockEnd
  0
BLOCK
  5
1FA
330
1F9
100
AcDbEntity
  8
0
100
AcDbBlockBegin
  2
C23
 70
     0
 10
0.0
 20
0.0
 30
0.0
  3
C23
  1

  0
LINE
  5
1FB
330
1F9
100
AcDbEntity
  8
____1
  6
Continuous
 62
     5
370
    18
100
AcDbLine
 10
370.1674926859356
 20
16.27254387096441
 30
0.0
 11
370.1674926859356
 21
32.27254387096432
 31
0.0
  0
LINE
  5
1FC
330
1F9
100
AcDbEntity
  8
____1
  6
Continuous
 62
     5
370
    18
100
AcDbLine
 10
365.1674926859355
 20
16.27254387096441
 30
0.0
 11
365.1674926859355
 21
32.27254387096432
 31
0.0
  0
LINE
  5
1FD
330
1F9
100
AcDbEntity
  8
____1
  6
Continuous
 62
     5
370
    18
100
AcDbLine
 10
365.1674926859355
 20
16.27254387096441
 30
0.0
 11
370.1674926859356
 21
16.27254387096441
 31
0.0
  0
LINE
  5
1FE
330
1F9
100
AcDbEntity
  8
____1
  6
Continuous
 62
     5
370
    18
100
AcDbLine
 10
365.1674926859355
 20
32.27254387096432
 30
0.0
 11
370.1674926859356
 21
32.27254387096432
 31
0.0
  0
ENDBLK
  5
1FF
330
1F9
100
AcDbEntity
  8
0
100
AcDbBlockEnd
  0
BLOCK
  5
202
330
201
100
AcDbEntity
  8
0
100
AcDbBlockBegin
  2
C24
 70
     0
 10
0.0
 20
0.0
 30
0.0
  3
C24
  1

  0
LINE
  5
203
330
201
100
AcDbEntity
  8
____1
  6
Continuous
 62
     5
370
    18
100
AcDbLine
 10
410.1674926859353
 20
16.27254387096441
 30
0.0
 11
410.1674926859353
 21
32.27254387096432
 31
0.0
  0
LINE
  5
204
330
201
100
AcDbEntity
  8
____1
  6
Continuous
 62
     5
370
    18
100
AcDbLine
 10
405.1674926859353
 20
16.27254387096441
 30
0.0
 11
405.1674926859353
 21
32.27254387096432
 31
0.0
  0
LINE
  5
205
330
201
100
AcDbEntity
  8
____1
  6
Continuous
 62
     5
370
    18
100
AcDbLine
 10
405.1674926859353
 20
16.27254387096441
 30
0.0
 11
410.1674926859353
 21
16.27254387096441
 31
0.0
  0
LINE
  5
206
330
201
100
AcDbEntity
  8
____1
  6
Continuous
 62
     5
370
    18
100
AcDbLine
 10
405.1674926859353
 20
32.27254387096432
 30
0.0
 11
410.1674926859353
 21
32.27254387096432
 31
0.0
  0
ENDBLK
  5
207
330
201
100
AcDbEntity
  8
0
100
AcDbBlockEnd
  0
BLOCK
  5
20B
330
20A
100
AcDbEntity
  8
0
100
AcDbBlockBegin
  2
C25
 70
     0
 10
0.0
 20
0.0
 30
0.0
  3
C25
  1

  0
LINE
  5
20C
330
20A
100
AcDbEntity
  8
____1
  6
Continuous
 62
     5
370
    18
100
AcDbLine
 10
930.1674926859357
 20
16.27254387096441
 30
0.0
 11
930.1674926859357
 21
32.27254387096432
 31
0.0
  0
LINE
  5
20D
330
20A
100
AcDbEntity
  8
____1
  6
Continuous
 62
     5
370
    18
100
AcDbLine
 10
925.1674926859353
 20
16.27254387096441
 30
0.0
 11
925.1674926859353
 21
32.27254387096432
 31
0.0
  0
LINE
  5
20E
330
20A
100
AcDbEntity
  8
____1
  6
Continuous
 62
     5
370
    18
100
AcDbLine
 10
925.1674926859353
 20
16.27254387096441
 30
0.0
 11
930.1674926859357
 21
16.27254387096441
 31
0.0
  0
LINE
  5
20F
330
20A
100
AcDbEntity
  8
____1
  6
Continuous
 62
     5
370
    18
100
AcDbLine
 10
925.1674926859353
 20
32.27254387096432
 30
0.0
 11
930.1674926859357
 21
32.27254387096432
 31
0.0
  0
ENDBLK
  5
210
330
20A
100
AcDbEntity
  8
0
100
AcDbBlockEnd
  0
BLOCK
  5
213
330
212
100
AcDbEntity
  8
0
100
AcDbBlockBegin
  2
C26
 70
     0
 10
0.0
 20
0.0
 30
0.0
  3
C26
  1

  0
LINE
  5
214
330
212
100
AcDbEntity
  8
____1
  6
Continuous
 62
     5
370
    18
100
AcDbLine
 10
1050.167492685935
 20
16.27254387096441
 30
0.0
 11
1050.167492685935
 21
32.27254387096432
 31
0.0
  0
LINE
  5
215
330
212
100
AcDbEntity
  8
____1
  6
Continuous
 62
     5
370
    18
100
AcDbLine
 10
1045.167492685935
 20
16.27254387096441
 30
0.0
 11
1045.167492685935
 21
32.27254387096432
 31
0.0
  0
LINE
  5
216
330
212
100
AcDbEntity
  8
____1
  6
Continuous
 62
     5
370
    18
100
AcDbLine
 10
1045.167492685935
 20
16.27254387096441
 30
0.0
 11
1050.167492685935
 21
16.27254387096441
 31
0.0
  0
LINE
  5
217
330
212
100
AcDbEntity
  8
____1
  6
Continuous
 62
     5
370
    18
100
AcDbLine
 10
1045.167492685935
 20
32.27254387096432
 30
0.0
 11
1050.167492685935
 21
32.27254387096432
 31
0.0
  0
ENDBLK
  5
218
330
212
100
AcDbEntity
  8
0
100
AcDbBlockEnd
  0
BLOCK
  5
21B
330
21A
100
AcDbEntity
  8
0
100
AcDbBlockBegin
  2
C27
 70
     0
 10
0.0
 20
0.0
 30
0.0
  3
C27
  1

  0
LINE
  5
21C
330
21A
100
AcDbEntity
  8
____1
  6
Continuous
 62
     5
370
    18
100
AcDbLine
 10
1010.167492685935
 20
16.27254387096441
 30
0.0
 11
1010.167492685935
 21
32.27254387096432
 31
0.0
  0
LINE
  5
21D
330
21A
100
AcDbEntity
  8
____1
  6
Continuous
 62
     5
370
    18
100
AcDbLine
 10
1005.167492685935
 20
16.27254387096441
 30
0.0
 11
1005.167492685935
 21
32.27254387096432
 31
0.0
  0
LINE
  5
21E
330
21A
100
AcDbEntity
  8
____1
  6
Continuous
 62
     5
370
    18
100
AcDbLine
 10
1005.167492685935
 20
16.27254387096441
 30
0.0
 11
1010.167492685935
 21
16.27254387096441
 31
0.0
  0
LINE
  5
21F
330
21A
100
AcDbEntity
  8
____1
  6
Continuous
 62
     5
370
    18
100
AcDbLine
 10
1005.167492685935
 20
32.27254387096432
 30
0.0
 11
1010.167492685935
 21
32.27254387096432
 31
0.0
  0
ENDBLK
  5
220
330
21A
100
AcDbEntity
  8
0
100
AcDbBlockEnd
  0
BLOCK
  5
223
330
222
100
AcDbEntity
  8
0
100
AcDbBlockBegin
  2
C28
 70
     0
 10
0.0
 20
0.0
 30
0.0
  3
C28
  1

  0
LINE
  5
224
330
222
100
AcDbEntity
  8
____1
  6
Continuous
 62
     5
370
    18
100
AcDbLine
 10
970.1674926859354
 20
16.27254387096441
 30
0.0
 11
970.1674926859354
 21
32.27254387096432
 31
0.0
  0
LINE
  5
225
330
222
100
AcDbEntity
  8
____1
  6
Continuous
 62
     5
370
    18
100
AcDbLine
 10
965.1674926859357
 20
16.27254387096441
 30
0.0
 11
965.1674926859357
 21
32.27254387096432
 31
0.0
  0
LINE
  5
226
330
222
100
AcDbEntity
  8
____1
  6
Continuous
 62
     5
370
    18
100
AcDbLine
 10
965.1674926859357
 20
16.27254387096441
 30
0.0
 11
970.1674926859354
 21
16.27254387096441
 31
0.0
  0
LINE
  5
227
330
222
100
AcDbEntity
  8
____1
  6
Continuous
 62
     5
370
    18
100
AcDbLine
 10
965.1674926859357
 20
32.27254387096432
 30
0.0
 11
970.1674926859354
 21
32.27254387096432
 31
0.0
  0
ENDBLK
  5
228
330
222
100
AcDbEntity
  8
0
100
AcDbBlockEnd
  0
BLOCK
  5
22B
330
22A
100
AcDbEntity
  8
0
100
AcDbBlockBegin
  2
C29
 70
     0
 10
0.0
 20
0.0
 30
0.0
  3
C29
  1

  0
LINE
  5
22C
330
22A
100
AcDbEntity
  8
____1
  6
Continuous
 62
     5
370
    18
100
AcDbLine
 10
1090.167492685935
 20
16.27254387096441
 30
0.0
 11
1090.167492685935
 21
32.27254387096432
 31
0.0
  0
LINE
  5
22D
330
22A
100
AcDbEntity
  8
____1
  6
Continuous
 62
     5
370
    18
100
AcDbLine
 10
1085.167492685935
 20
16.27254387096441
 30
0.0
 11
1085.167492685935
 21
32.27254387096432
 31
0.0
  0
LINE
  5
22E
330
22A
100
AcDbEntity
  8
____1
  6
Continuous
 62
     5
370
    18
100
AcDbLine
 10
1085.167492685935
 20
16.27254387096441
 30
0.0
 11
1090.167492685935
 21
16.27254387096441
 31
0.0
  0
LINE
  5
22F
330
22A
100
AcDbEntity
  8
____1
  6
Continuous
 62
     5
370
    18
100
AcDbLine
 10
1085.167492685935
 20
32.27254387096432
 30
0.0
 11
1090.167492685935
 21
32.27254387096432
 31
0.0
  0
ENDBLK
  5
230
330
22A
100
AcDbEntity
  8
0
100
AcDbBlockEnd
  0
BLOCK
  5
233
330
232
100
AcDbEntity
  8
0
100
AcDbBlockBegin
  2
C30
 70
     0
 10
0.0
 20
0.0
 30
0.0
  3
C30
  1

  0
LINE
  5
234
330
232
100
AcDbEntity
  8
____1
  6
Continuous
 62
     5
370
    18
100
AcDbLine
 10
1130.167492685935
 20
16.27254387096441
 30
0.0
 11
1130.167492685935
 21
32.27254387096432
 31
0.0
  0
LINE
  5
235
330
232
100
AcDbEntity
  8
____1
  6
Continuous
 62
     5
370
    18
100
AcDbLine
 10
1125.167492685935
 20
16.27254387096441
 30
0.0
 11
1125.167492685935
 21
32.27254387096432
 31
0.0
  0
LINE
  5
236
330
232
100
AcDbEntity
  8
____1
  6
Continuous
 62
     5
370
    18
100
AcDbLine
 10
1125.167492685935
 20
16.27254387096441
 30
0.0
 11
1130.167492685935
 21
16.27254387096441
 31
0.0
  0
LINE
  5
237
330
232
100
AcDbEntity
  8
____1
  6
Continuous
 62
     5
370
    18
100
AcDbLine
 10
1125.167492685935
 20
32.27254387096432
 30
0.0
 11
1130.167492685935
 21
32.27254387096432
 31
0.0
  0
ENDBLK
  5
238
330
232
100
AcDbEntity
  8
0
100
AcDbBlockEnd
  0
BLOCK
  5
23B
330
23A
100
AcDbEntity
  8
0
100
AcDbBlockBegin
  2
C31
 70
     0
 10
0.0
 20
0.0
 30
0.0
  3
C31
  1

  0
LINE
  5
23C
330
23A
100
AcDbEntity
  8
____1
  6
Continuous
 62
     5
370
    18
100
AcDbLine
 10
1170.167492685935
 20
16.27254387096441
 30
0.0
 11
1170.167492685935
 21
32.27254387096432
 31
0.0
  0
LINE
  5
23D
330
23A
100
AcDbEntity
  8
____1
  6
Continuous
 62
     5
370
    18
100
AcDbLine
 10
1165.167492685935
 20
16.27254387096441
 30
0.0
 11
1165.167492685935
 21
32.27254387096432
 31
0.0
  0
LINE
  5
23E
330
23A
100
AcDbEntity
  8
____1
  6
Continuous
 62
     5
370
    18
100
AcDbLine
 10
1165.167492685935
 20
16.27254387096441
 30
0.0
 11
1170.167492685935
 21
16.27254387096441
 31
0.0
  0
LINE
  5
23F
330
23A
100
AcDbEntity
  8
____1
  6
Continuous
 62
     5
370
    18
100
AcDbLine
 10
1165.167492685935
 20
32.27254387096432
 30
0.0
 11
1170.167492685935
 21
32.27254387096432
 31
0.0
  0
ENDBLK
  5
240
330
23A
100
AcDbEntity
  8
0
100
AcDbBlockEnd
  0
BLOCK
  5
243
330
242
100
AcDbEntity
  8
0
100
AcDbBlockBegin
  2
C32
 70
     0
 10
0.0
 20
0.0
 30
0.0
  3
C32
  1

  0
LINE
  5
244
330
242
100
AcDbEntity
  8
____1
  6
Continuous
 62
     5
370
    18
100
AcDbLine
 10
1290.167492685935
 20
16.27254387096441
 30
0.0
 11
1290.167492685935
 21
32.27254387096432
 31
0.0
  0
LINE
  5
245
330
242
100
AcDbEntity
  8
____1
  6
Continuous
 62
     5
370
    18
100
AcDbLine
 10
1285.167492685935
 20
16.27254387096441
 30
0.0
 11
1285.167492685935
 21
32.27254387096432
 31
0.0
  0
LINE
  5
246
330
242
100
AcDbEntity
  8
____1
  6
Continuous
 62
     5
370
    18
100
AcDbLine
 10
1285.167492685935
 20
16.27254387096441
 30
0.0
 11
1290.167492685935
 21
16.27254387096441
 31
0.0
  0
LINE
  5
247
330
242
100
AcDbEntity
  8
____1
  6
Continuous
 62
     5
370
    18
100
AcDbLine
 10
1285.167492685935
 20
32.27254387096432
 30
0.0
 11
1290.167492685935
 21
32.27254387096432
 31
0.0
  0
ENDBLK
  5
248
330
242
100
AcDbEntity
  8
0
100
AcDbBlockEnd
  0
BLOCK
  5
24B
330
24A
100
AcDbEntity
  8
0
100
AcDbBlockBegin
  2
C33
 70
     0
 10
0.0
 20
0.0
 30
0.0
  3
C33
  1

  0
LINE
  5
24C
330
24A
100
AcDbEntity
  8
____1
  6
Continuous
 62
     5
370
    18
100
AcDbLine
 10
1250.167492685935
 20
16.27254387096441
 30
0.0
 11
1250.167492685935
 21
32.27254387096432
 31
0.0
  0
LINE
  5
24D
330
24A
100
AcDbEntity
  8
____1
  6
Continuous
 62
     5
370
    18
100
AcDbLine
 10
1245.167492685935
 20
16.27254387096441
 30
0.0
 11
1245.167492685935
 21
32.27254387096432
 31
0.0
  0
LINE
  5
24E
330
24A
100
AcDbEntity
  8
____1
  6
Continuous
 62
     5
370
    18
100
AcDbLine
 10
1245.167492685935
 20
16.27254387096441
 30
0.0
 11
1250.167492685935
 21
16.27254387096441
 31
0.0
  0
LINE
  5
24F
330
24A
100
AcDbEntity
  8
____1
  6
Continuous
 62
     5
370
    18
100
AcDbLine
 10
1245.167492685935
 20
32.27254387096432
 30
0.0
 11
1250.167492685935
 21
32.27254387096432
 31
0.0
  0
ENDBLK
  5
250
330
24A
100
AcDbEntity
  8
0
100
AcDbBlockEnd
  0
BLOCK
  5
253
330
252
100
AcDbEntity
  8
0
100
AcDbBlockBegin
  2
C34
 70
     0
 10
0.0
 20
0.0
 30
0.0
  3
C34
  1

  0
LINE
  5
254
330
252
100
AcDbEntity
  8
____1
  6
Continuous
 62
     5
370
    18
100
AcDbLine
 10
1210.167492685935
 20
16.27254387096441
 30
0.0
 11
1210.167492685935
 21
32.27254387096432
 31
0.0
  0
LINE
  5
255
330
252
100
AcDbEntity
  8
____1
  6
Continuous
 62
     5
370
    18
100
AcDbLine
 10
1205.167492685935
 20
16.27254387096441
 30
0.0
 11
1205.167492685935
 21
32.27254387096432
 31
0.0
  0
LINE
  5
256
330
252
100
AcDbEntity
  8
____1
  6
Continuous
 62
     5
370
    18
100
AcDbLine
 10
1205.167492685935
 20
16.27254387096441
 30
0.0
 11
1210.167492685935
 21
16.27254387096441
 31
0.0
  0
LINE
  5
257
330
252
100
AcDbEntity
  8
____1
  6
Continuous
 62
     5
370
    18
100
AcDbLine
 10
1205.167492685935
 20
32.27254387096432
 30
0.0
 11
1210.167492685935
 21
32.27254387096432
 31
0.0
  0
ENDBLK
  5
258
330
252
100
AcDbEntity
  8
0
100
AcDbBlockEnd
  0
BLOCK
  5
25B
330
25A
100
AcDbEntity
  8
0
100
AcDbBlockBegin
  2
C35
 70
     0
 10
0.0
 20
0.0
 30
0.0
  3
C35
  1

  0
LINE
  5
25C
330
25A
100
AcDbEntity
  8
____1
  6
Continuous
 62
     5
370
    18
100
AcDbLine
 10
1330.167492685935
 20
16.27254387096441
 30
0.0
 11
1330.167492685935
 21
32.27254387096432
 31
0.0
  0
LINE
  5
25D
330
25A
100
AcDbEntity
  8
____1
  6
Continuous
 62
     5
370
    18
100
AcDbLine
 10
1325.167492685935
 20
16.27254387096441
 30
0.0
 11
1325.167492685935
 21
32.27254387096432
 31
0.0
  0
LINE
  5
25E
330
25A
100
AcDbEntity
  8
____1
  6
Continuous
 62
     5
370
    18
100
AcDbLine
 10
1325.167492685935
 20
16.27254387096441
 30
0.0
 11
1330.167492685935
 21
16.27254387096441
 31
0.0
  0
LINE
  5
25F
330
25A
100
AcDbEntity
  8
____1
  6
Continuous
 62
     5
370
    18
100
AcDbLine
 10
1325.167492685935
 20
32.27254387096432
 30
0.0
 11
1330.167492685935
 21
32.27254387096432
 31
0.0
  0
ENDBLK
  5
260
330
25A
100
AcDbEntity
  8
0
100
AcDbBlockEnd
  0
BLOCK
  5
263
330
262
100
AcDbEntity
  8
0
100
AcDbBlockBegin
  2
C36
 70
     0
 10
0.0
 20
0.0
 30
0.0
  3
C36
  1

  0
LINE
  5
264
330
262
100
AcDbEntity
  8
____1
  6
Continuous
 62
     5
370
    18
100
AcDbLine
 10
1370.167492685935
 20
16.27254387096441
 30
0.0
 11
1370.167492685935
 21
32.27254387096432
 31
0.0
  0
LINE
  5
265
330
262
100
AcDbEntity
  8
____1
  6
Continuous
 62
     5
370
    18
100
AcDbLine
 10
1365.167492685935
 20
16.27254387096441
 30
0.0
 11
1365.167492685935
 21
32.27254387096432
 31
0.0
  0
LINE
  5
266
330
262
100
AcDbEntity
  8
____1
  6
Continuous
 62
     5
370
    18
100
AcDbLine
 10
1365.167492685935
 20
16.27254387096441
 30
0.0
 11
1370.167492685935
 21
16.27254387096441
 31
0.0
  0
LINE
  5
267
330
262
100
AcDbEntity
  8
____1
  6
Continuous
 62
     5
370
    18
100
AcDbLine
 10
1365.167492685935
 20
32.27254387096432
 30
0.0
 11
1370.167492685935
 21
32.27254387096432
 31
0.0
  0
ENDBLK
  5
268
330
262
100
AcDbEntity
  8
0
100
AcDbBlockEnd
  0
BLOCK
  5
26C
330
26B
100
AcDbEntity
  8
0
100
AcDbBlockBegin
  2
C37
 70
     0
 10
0.0
 20
0.0
 30
0.0
  3
C37
  1

  0
LINE
  5
26D
330
26B
100
AcDbEntity
  8
____1
  6
Continuous
 62
     5
370
    18
100
AcDbLine
 10
330.1674926859356
 20
16.27254387096441
 30
0.0
 11
330.1674926859356
 21
32.27254387096432
 31
0.0
  0
LINE
  5
26E
330
26B
100
AcDbEntity
  8
____1
  6
Continuous
 62
     5
370
    18
100
AcDbLine
 10
325.1674926859355
 20
16.27254387096441
 30
0.0
 11
325.1674926859355
 21
32.27254387096432
 31
0.0
  0
LINE
  5
26F
330
26B
100
AcDbEntity
  8
____1
  6
Continuous
 62
     5
370
    18
100
AcDbLine
 10
325.1674926859355
 20
16.27254387096441
 30
0.0
 11
330.1674926859356
 21
16.27254387096441
 31
0.0
  0
LINE
  5
270
330
26B
100
AcDbEntity
  8
____1
  6
Continuous
 62
     5
370
    18
100
AcDbLine
 10
325.1674926859355
 20
32.27254387096432
 30
0.0
 11
330.1674926859356
 21
32.27254387096432
 31
0.0
  0
ENDBLK
  5
271
330
26B
100
AcDbEntity
  8
0
100
AcDbBlockEnd
  0
BLOCK
  5
277
330
276
100
AcDbEntity
  8
0
100
AcDbBlockBegin
  2
C38
 70
     0
 10
0.0
 20
0.0
 30
0.0
  3
C38
  1

  0
LINE
  5
278
330
276
100
AcDbEntity
  8
____1
  6
Continuous
 62
     5
370
    18
100
AcDbLine
 10
1570.167492685935
 20
16.27254387096441
 30
0.0
 11
1570.167492685935
 21
32.27254387096432
 31
0.0
  0
LINE
  5
279
330
276
100
AcDbEntity
  8
____1
  6
Continuous
 62
     5
370
    18
100
AcDbLine
 10
1565.167492685935
 20
16.27254387096441
 30
0.0
 11
1565.167492685935
 21
32.27254387096432
 31
0.0
  0
LINE
  5
27A
330
276
100
AcDbEntity
  8
____1
  6
Continuous
 62
     5
370
    18
100
AcDbLine
 10
1565.167492685935
 20
16.27254387096441
 30
0.0
 11
1570.167492685935
 21
16.27254387096441
 31
0.0
  0
LINE
  5
27B
330
276
100
AcDbEntity
  8
____1
  6
Continuous
 62
     5
370
    18
100
AcDbLine
 10
1565.167492685935
 20
32.27254387096432
 30
0.0
 11
1570.167492685935
 21
32.27254387096432
 31
0.0
  0
ENDBLK
  5
27C
330
276
100
AcDbEntity
  8
0
100
AcDbBlockEnd
  0
BLOCK
  5
27F
330
27E
100
AcDbEntity
  8
0
100
AcDbBlockBegin
  2
C39
 70
     0
 10
0.0
 20
0.0
 30
0.0
  3
C39
  1

  0
LINE
  5
280
330
27E
100
AcDbEntity
  8
____1
  6
Continuous
 62
     5
370
    18
100
AcDbLine
 10
1410.167492685935
 20
16.27254387096441
 30
0.0
 11
1410.167492685935
 21
32.27254387096432
 31
0.0
  0
LINE
  5
281
330
27E
100
AcDbEntity
  8
____1
  6
Continuous
 62
     5
370
    18
100
AcDbLine
 10
1405.167492685935
 20
16.27254387096441
 30
0.0
 11
1405.167492685935
 21
32.27254387096432
 31
0.0
  0
LINE
  5
282
330
27E
100
AcDbEntity
  8
____1
  6
Continuous
 62
     5
370
    18
100
AcDbLine
 10
1405.167492685935
 20
16.27254387096441
 30
0.0
 11
1410.167492685935
 21
16.27254387096441
 31
0.0
  0
LINE
  5
283
330
27E
100
AcDbEntity
  8
____1
  6
Continuous
 62
     5
370
    18
100
AcDbLine
 10
1405.167492685935
 20
32.27254387096432
 30
0.0
 11
1410.167492685935
 21
32.27254387096432
 31
0.0
  0
ENDBLK
  5
284
330
27E
100
AcDbEntity
  8
0
100
AcDbBlockEnd
  0
BLOCK
  5
287
330
286
100
AcDbEntity
  8
0
100
AcDbBlockBegin
  2
C40
 70
     0
 10
0.0
 20
0.0
 30
0.0
  3
C40
  1

  0
LINE
  5
288
330
286
100
AcDbEntity
  8
____1
  6
Continuous
 62
     5
370
    18
100
AcDbLine
 10
1450.167492685935
 20
16.27254387096441
 30
0.0
 11
1450.167492685935
 21
32.27254387096432
 31
0.0
  0
LINE
  5
289
330
286
100
AcDbEntity
  8
____1
  6
Continuous
 62
     5
370
    18
100
AcDbLine
 10
1445.167492685935
 20
16.27254387096441
 30
0.0
 11
1445.167492685935
 21
32.27254387096432
 31
0.0
  0
LINE
  5
28A
330
286
100
AcDbEntity
  8
____1
  6
Continuous
 62
     5
370
    18
100
AcDbLine
 10
1445.167492685935
 20
16.27254387096441
 30
0.0
 11
1450.167492685935
 21
16.27254387096441
 31
0.0
  0
LINE
  5
28B
330
286
100
AcDbEntity
  8
____1
  6
Continuous
 62
     5
370
    18
100
AcDbLine
 10
1445.167492685935
 20
32.27254387096432
 30
0.0
 11
1450.167492685935
 21
32.27254387096432
 31
0.0
  0
ENDBLK
  5
28C
330
286
100
AcDbEntity
  8
0
100
AcDbBlockEnd
  0
ENDSEC
  0
SECTION
  2
ENTITIES
  0
MTEXT
  5
E5
330
A
100
AcDbEntity
  8
____
  6
Continuous
 62
     7
370
     5
100
AcDbMText
 10
148.2850000000003
 20
489.2799479166666
 30
0.0
 40
3.174999952316283
 41
50.0
 71
     1
 72
     1
  1
********************
  7
Style1
 73
     1
 44
1.0
1001
ACAD
1000
MTEXTBEGIN
1070
    73
1070
     1
1070
    44
1040
1.0
1070
    74
1070
     0
1000
MTEXTEND
  0
MTEXT
  5
E6
330
A
100
AcDbEntity
  8
____
  6
Continuous
 62
     7
370
     5
100
AcDbMText
 10
126.4179715891677
 20
488.6755556574863
 30
0.0
 40
3.174999961853028
 41
3.165486049579876
 71
     1
 72
     1
  1
1
  7
Style1
 73
     1
 44
1.0
1001
ACAD
1000
MTEXTBEGIN
1070
    73
1070
     1
1070
    44
1040
1.0
1070
    74
1070
     0
1000
MTEXTEND
  0
MTEXT
  5
E7
330
A
100
AcDbEntity
  8
____
  6
DOT
 62
     7
370
     5
100
AcDbMText
 10
198.2850000000004
 20
489.2799479166666
 30
0.0
 40
3.174999952316283
 41
10.0
 71
     1
 72
     1
  1
***
  7
Style1
 73
     1
 44
1.0
1001
ACAD
1000
MTEXTBEGIN
1070
    73
1070
     1
1070
    44
1040
1.0
1070
    74
1070
     0
1000
MTEXTEND
  0
MTEXT
  5
E8
330
A
100
AcDbEntity
  8
____
  6
Continuous
 62
     7
370
     5
100
AcDbMText
 10
132.2850000000003
 20
489.2799479166666
 30
0.0
 40
3.174999952316283
 41
16.0
 71
     1
 72
     1
  1
H**.**.**
  7
Style1
 73
     1
 44
1.0
1001
ACAD
1000
MTEXTBEGIN
1070
    73
1070
     1
1070
    44
1040
1.0
1070
    74
1070
     0
1000
MTEXTEND
  0
LINE
  5
ED
330
A
100
AcDbEntity
  8
____1
  6
Continuous
 62
     0
370
    18
100
AcDbLine
 10
-12.33250731406383
 20
9.272543870964412
 30
0.0
 11
-12.33250731406383
 21
39.27254387096466
 31
0.0
  0
INSERT
  5
F5
330
A
100
AcDbEntity
  8
____1
  6
Continuous
 62
     0
370
    18
100
AcDbBlockReference
  2
C1
 10
0.0
 20
0.0
 30
0.0
  0
INSERT
  5
FD
330
A
100
AcDbEntity
  8
____1
  6
Continuous
 62
     0
370
    18
100
AcDbBlockReference
  2
C2
 10
0.0
 20
0.0
 30
0.0
  0
INSERT
  5
105
330
A
100
AcDbEntity
  8
____1
  6
Continuous
 62
     0
370
    18
100
AcDbBlockReference
  2
C3
 10
0.0
 20
0.0
 30
0.0
  0
INSERT
  5
10D
330
A
100
AcDbEntity
  8
____1
  6
Continuous
 62
     0
370
    18
100
AcDbBlockReference
  2
C4
 10
0.0
 20
0.0
 30
0.0
  0
INSERT
  5
115
330
A
100
AcDbEntity
  8
____1
  6
Continuous
 62
     0
370
    18
100
AcDbBlockReference
  2
C5
 10
0.0
 20
0.0
 30
0.0
  0
INSERT
  5
11D
330
A
100
AcDbEntity
  8
____1
  6
Continuous
 62
     0
370
    18
100
AcDbBlockReference
  2
C6
 10
0.0
 20
0.0
 30
0.0
  0
INSERT
  5
125
330
A
100
AcDbEntity
  8
____1
  6
Continuous
 62
     0
370
    18
100
AcDbBlockReference
  2
C7
 10
0.0
 20
0.0
 30
0.0
  0
INSERT
  5
12D
330
A
100
AcDbEntity
  8
____1
  6
Continuous
 62
     0
370
    18
100
AcDbBlockReference
  2
C8
 10
0.0
 20
0.0
 30
0.0
  0
LINE
  5
12E
330
A
100
AcDbEntity
  8
____1
  6
Continuous
 62
     0
370
    18
100
AcDbLine
 10
1587.667492685935
 20
9.272543870964412
 30
0.0
 11
1587.667492685935
 21
39.27254387096466
 31
0.0
  0
INSERT
  5
136
330
A
100
AcDbEntity
  8
____1
  6
Continuous
 62
     0
370
    18
100
AcDbBlockReference
  2
C9
 10
0.0
 20
0.0
 30
0.0
  0
INSERT
  5
13E
330
A
100
AcDbEntity
  8
____1
  6
Continuous
 62
     0
370
    18
100
AcDbBlockReference
  2
C10
 10
0.0
 20
0.0
 30
0.0
  0
INSERT
  5
146
330
A
100
AcDbEntity
  8
____1
  6
Continuous
 62
     0
370
    18
100
AcDbBlockReference
  2
C11
 10
0.0
 20
0.0
 30
0.0
  0
INSERT
  5
14E
330
A
100
AcDbEntity
  8
____1
  6
Continuous
 62
     0
370
    18
100
AcDbBlockReference
  2
C12
 10
0.0
 20
0.0
 30
0.0
  0
INSERT
  5
156
330
A
100
AcDbEntity
  8
____1
  6
Continuous
 62
     0
370
    18
100
AcDbBlockReference
  2
C13
 10
0.0
 20
0.0
 30
0.0
  0
INSERT
  5
15E
330
A
100
AcDbEntity
  8
____1
  6
Continuous
 62
     0
370
    18
100
AcDbBlockReference
  2
C14
 10
0.0
 20
0.0
 30
0.0
  0
INSERT
  5
166
330
A
100
AcDbEntity
  8
____1
  6
Continuous
 62
     0
370
    18
100
AcDbBlockReference
  2
C15
 10
0.0
 20
0.0
 30
0.0
  0
INSERT
  5
16E
330
A
100
AcDbEntity
  8
____1
  6
Continuous
 62
     0
370
    18
100
AcDbBlockReference
  2
C16
 10
0.0
 20
0.0
 30
0.0
  0
INSERT
  5
176
330
A
100
AcDbEntity
  8
____1
  6
Continuous
 62
     0
370
    18
100
AcDbBlockReference
  2
C17
 10
0.0
 20
0.0
 30
0.0
  0
INSERT
  5
17E
330
A
100
AcDbEntity
  8
____1
  6
Continuous
 62
     0
370
    18
100
AcDbBlockReference
  2
C18
 10
0.0
 20
0.0
 30
0.0
  0
INSERT
  5
186
330
A
100
AcDbEntity
  8
____1
  6
Continuous
 62
     0
370
    18
100
AcDbBlockReference
  2
C19
 10
0.0
 20
0.0
 30
0.0
  0
INSERT
  5
18E
330
A
100
AcDbEntity
  8
____1
  6
Continuous
 62
     0
370
    18
100
AcDbBlockReference
  2
C20
 10
0.0
 20
0.0
 30
0.0
  0
INSERT
  5
196
330
A
100
AcDbEntity
  8
____1
  6
Continuous
 62
     0
370
    18
100
AcDbBlockReference
  2
C21
 10
0.0
 20
0.0
 30
0.0
  0
INSERT
  5
19E
330
A
100
AcDbEntity
  8
____1
  6
Continuous
 62
     0
370
    18
100
AcDbBlockReference
  2
C22
 10
0.0
 20
0.0
 30
0.0
  0
DIMENSION
  5
1AB
330
A
100
AcDbEntity
  8
寸法線_1
  6
Continuous
 62
     0
370
     5
100
AcDbDimension
  2
*D23
 10
1587.667492685935
 20
155.320614745793
 30
0.0
 11
787.6674926859355
 21
165.1400594021651
 31
0.0
 70
    32
 71
     5
 42
1599.999999999999
  3
DS1
100
AcDbAlignedDimension
 13
-12.33250731406383
 23
39.27254387096466
 33
0.0
 14
1587.667492685935
 24
39.27254387096466
 34
0.0
 50
0.0000008537736463
100
AcDbRotatedDimension
  0
DIMENSION
  5
1BA
330
A
100
AcDbEntity
  8
寸法線_1
  6
Continuous
 62
     0
370
     5
100
AcDbDimension
  2
*D24
 10
7.667492685936172
 20
106.7447683916263
 30
0.0
 11
24.89665967049428
 21
116.5642130479983
 31
0.0
 70
    32
 71
     5
 42
20.0
  3
DS1
100
AcDbAlignedDimension
 13
-12.33250731406383
 23
39.27254387096466
 33
0.0
 14
7.667492685936168
 24
32.27254387096432
 34
0.0
100
AcDbRotatedDimension
  0
DIMENSION
  5
1C8
330
A
100
AcDbEntity
  8
寸法線_1
  6
Continuous
 62
     0
370
     5
100
AcDbDimension
  2
*D25
 10
1587.667492685935
 20
106.7447683916263
 30
0.0
 11
1604.896659670493
 21
116.5642130479983
 31
0.0
 70
    32
 71
     5
 42
20.0
  3
DS1
100
AcDbAlignedDimension
 13
1567.667492685935
 23
32.27254387096432
 33
0.0
 14
1587.667492685935
 24
39.27254387096466
 34
0.0
100
AcDbRotatedDimension
  0
DIMENSION
  5
1D5
330
A
100
AcDbEntity
  8
寸法線_1
  6
Continuous
 62
     0
370
     5
100
AcDbDimension
  2
*D26
 10
1567.667492685935
 20
106.7447683916263
 30
0.0
 11
787.6674926859355
 21
116.5642130479983
 31
0.0
 70
    32
 71
     5
 42
1559.999999999999
  3
DS1
100
AcDbAlignedDimension
 13
7.667492685936168
 23
32.27254387096432
 33
0.0
 14
1567.667492685935
 24
32.27254387096432
 34
0.0
100
AcDbRotatedDimension
  0
DIMENSION
  5
1E3
330
A
100
AcDbEntity
  8
寸法線_1
  6
Continuous
 62
     0
370
     5
100
AcDbDimension
  2
*D27
 10
1233.975733414744
 20
-170.8629505169416
 30
0.0
 11
1264.43406738386
 21
-161.0435058605695
 31
0.0
 70
    32
 71
     5
 42
42.49999999999886
  3
DS1
100
AcDbAlignedDimension
 13
1191.475733414745
 23
-225.8629505169416
 33
0.0
 14
1233.975733414744
 24
-220.8629505169416
 34
0.0
100
AcDbRotatedDimension
  0
DIMENSION
  5
1F2
330
A
100
AcDbEntity
  8
寸法線_1
  6
Continuous
 62
     0
370
     5
100
AcDbDimension
  2
*D28
 10
1146.475733414744
 20
-220.8629505169416
 30
0.0
 11
1136.656288758372
 21
-295.8629505169421
 31
0.0
 70
    32
 71
     5
 42
150.0000000000014
  3
DS1
100
AcDbAlignedDimension
 13
1196.475733414744
 23
-370.862950516943
 33
0.0
 14
1196.475733414744
 24
-220.8629505169416
 34
0.0
 50
90.0
100
AcDbRotatedDimension
  0
LINE
  5
1F7
330
A
100
AcDbEntity
  8
____1
  6
Continuous
 62
     0
370
    18
100
AcDbLine
 10
1680.479429244108
 20
10.27254387096441
 30
0.0
 11
1687.979429244108
 21
10.27254387096441
 31
0.0
  0
LINE
  5
1F8
330
A
100
AcDbEntity
  8
____1
  6
Continuous
 62
     0
370
    18
100
AcDbLine
 10
1680.479429244108
 20
9.272543870964412
 30
0.0
 11
1687.979429244108
 21
9.272543870964412
 31
0.0
  0
INSERT
  5
200
330
A
100
AcDbEntity
  8
____1
  6
Continuous
 62
     0
370
    18
100
AcDbBlockReference
  2
C23
 10
0.0
 20
0.0
 30
0.0
  0
INSERT
  5
208
330
A
100
AcDbEntity
  8
____1
  6
Continuous
 62
     0
370
    18
100
AcDbBlockReference
  2
C24
 10
0.0
 20
0.0
 30
0.0
  0
LINE
  5
209
330
A
100
AcDbEntity
  8
____1
  6
Continuous
 62
     0
370
    18
100
AcDbLine
 10
1680.479429244108
 20
39.27254387096466
 30
0.0
 11
1687.979429244108
 21
39.27254387096466
 31
0.0
  0
INSERT
  5
211
330
A
100
AcDbEntity
  8
____1
  6
Continuous
 62
     0
370
    18
100
AcDbBlockReference
  2
C25
 10
0.0
 20
0.0
 30
0.0
  0
INSERT
  5
219
330
A
100
AcDbEntity
  8
____1
  6
Continuous
 62
     0
370
    18
100
AcDbBlockReference
  2
C26
 10
0.0
 20
0.0
 30
0.0
  0
INSERT
  5
221
330
A
100
AcDbEntity
  8
____1
  6
Continuous
 62
     0
370
    18
100
AcDbBlockReference
  2
C27
 10
0.0
 20
0.0
 30
0.0
  0
INSERT
  5
229
330
A
100
AcDbEntity
  8
____1
  6
Continuous
 62
     0
370
    18
100
AcDbBlockReference
  2
C28
 10
0.0
 20
0.0
 30
0.0
  0
INSERT
  5
231
330
A
100
AcDbEntity
  8
____1
  6
Continuous
 62
     0
370
    18
100
AcDbBlockReference
  2
C29
 10
0.0
 20
0.0
 30
0.0
  0
INSERT
  5
239
330
A
100
AcDbEntity
  8
____1
  6
Continuous
 62
     0
370
    18
100
AcDbBlockReference
  2
C30
 10
0.0
 20
0.0
 30
0.0
  0
INSERT
  5
241
330
A
100
AcDbEntity
  8
____1
  6
Continuous
 62
     0
370
    18
100
AcDbBlockReference
  2
C31
 10
0.0
 20
0.0
 30
0.0
  0
INSERT
  5
249
330
A
100
AcDbEntity
  8
____1
  6
Continuous
 62
     0
370
    18
100
AcDbBlockReference
  2
C32
 10
0.0
 20
0.0
 30
0.0
  0
INSERT
  5
251
330
A
100
AcDbEntity
  8
____1
  6
Continuous
 62
     0
370
    18
100
AcDbBlockReference
  2
C33
 10
0.0
 20
0.0
 30
0.0
  0
INSERT
  5
259
330
A
100
AcDbEntity
  8
____1
  6
Continuous
 62
     0
370
    18
100
AcDbBlockReference
  2
C34
 10
0.0
 20
0.0
 30
0.0
  0
INSERT
  5
261
330
A
100
AcDbEntity
  8
____1
  6
Continuous
 62
     0
370
    18
100
AcDbBlockReference
  2
C35
 10
0.0
 20
0.0
 30
0.0
  0
INSERT
  5
269
330
A
100
AcDbEntity
  8
____1
  6
Continuous
 62
     0
370
    18
100
AcDbBlockReference
  2
C36
 10
0.0
 20
0.0
 30
0.0
  0
LINE
  5
26A
330
A
100
AcDbEntity
  8
____1
  6
Continuous
 62
     0
370
    18
100
AcDbLine
 10
-12.33250731406383
 20
39.27254387096466
 30
0.0
 11
1587.667492685935
 21
39.27254387096466
 31
0.0
  0
INSERT
  5
272
330
A
100
AcDbEntity
  8
____1
  6
Continuous
 62
     0
370
    18
100
AcDbBlockReference
  2
C37
 10
0.0
 20
0.0
 30
0.0
  0
LINE
  5
273
330
A
100
AcDbEntity
  8
____1
  6
DASHED2
 62
     0
370
     5
100
AcDbLine
 10
-12.33250731406383
 20
38.27254387096465
 30
0.0
 11
1587.667492685936
 21
38.27254387096465
 31
0.0
  0
LINE
  5
274
330
A
100
AcDbEntity
  8
____1
  6
DASHED2
 62
     0
370
     5
100
AcDbLine
 10
1587.667492685934
 20
10.27254387096441
 30
0.0
 11
-12.33250731406383
 21
10.27254387096441
 31
0.0
  0
LINE
  5
275
330
A
100
AcDbEntity
  8
____1
  6
Continuous
 62
     0
370
    18
100
AcDbLine
 10
1587.667492685934
 20
9.272543870964412
 30
0.0
 11
-12.33250731406451
 21
9.272543870964412
 31
0.0
  0
INSERT
  5
27D
330
A
100
AcDbEntity
  8
____1
  6
Continuous
 62
     0
370
    18
100
AcDbBlockReference
  2
C38
 10
0.0
 20
0.0
 30
0.0
  0
INSERT
  5
285
330
A
100
AcDbEntity
  8
____1
  6
Continuous
 62
     0
370
    18
100
AcDbBlockReference
  2
C39
 10
0.0
 20
0.0
 30
0.0
  0
INSERT
  5
28D
330
A
100
AcDbEntity
  8
____1
  6
Continuous
 62
     0
370
    18
100
AcDbBlockReference
  2
C40
 10
0.0
 20
0.0
 30
0.0
  0
LINE
  5
28E
330
A
100
AcDbEntity
  8
____1
  6
Continuous
 62
     0
370
    18
100
AcDbLine
 10
1679.479429244108
 20
38.27254428948151
 30
0.0
 11
1679.479429244108
 21
10.27254387096441
 31
0.0
  0
ARC
  5
28F
330
A
100
AcDbEntity
  8
____1
  6
Continuous
 62
     0
370
    18
100
AcDbCircle
 10
1680.479429244108
 20
38.27254387096465
 30
0.0
 40
1.0
100
AcDbArc
 50
90.0
 51
179.9999760207501
  0
LINE
  5
290
330
A
100
AcDbEntity
  8
____1
  6
Continuous
 62
     0
370
    18
100
AcDbLine
 10
1680.479429244108
 20
38.27254387096465
 30
0.0
 11
1680.479429244108
 21
10.27254387096441
 31
0.0
  0
LINE
  5
291
330
A
100
AcDbEntity
  8
____1
  6
Continuous
 62
     0
370
    18
100
AcDbLine
 10
1680.479429244108
 20
38.27254387096465
 30
0.0
 11
1687.979429244108
 21
38.27254387096465
 31
0.0
  0
LINE
  5
292
330
A
100
AcDbEntity
  8
____1
  6
Continuous
 62
     0
370
    18
100
AcDbLine
 10
1191.475733414745
 20
-225.8629474118292
 30
0.0
 11
1191.475733414745
 21
-365.862950516943
 31
0.0
  0
ARC
  5
293
330
A
100
AcDbEntity
  8
____1
  6
Continuous
 62
     0
370
    18
100
AcDbCircle
 10
1196.475733414744
 20
-225.8629505169416
 30
0.0
 40
5.0
100
AcDbArc
 50
90.0
 51
179.9999644180326
  0
LINE
  5
294
330
A
100
AcDbEntity
  8
____1
  6
Continuous
 62
     0
370
    18
100
AcDbLine
 10
1196.475733414744
 20
-225.8629505169416
 30
0.0
 11
1196.475733414744
 21
-365.862950516943
 31
0.0
  0
LINE
  5
295
330
A
100
AcDbEntity
  8
____1
  6
Continuous
 62
     0
370
    18
100
AcDbLine
 10
1196.475733414744
 20
-225.8629505169416
 30
0.0
 11
1233.975733414744
 21
-225.8629505169416
 31
0.0
  0
LINE
  5
297
330
A
100
AcDbEntity
  8
____1
  6
Continuous
 62
     0
370
    18
100
AcDbLine
 10
1233.975733414744
 20
-220.8629505169416
 30
0.0
 11
1233.975733414744
 21
-225.8629505169416
 31
0.0
  0
LINE
  5
298
330
A
100
AcDbEntity
  8
____1
  6
CENTER2
 62
     0
370
     5
100
AcDbLine
 10
1166.475733414745
 20
-295.8629505169428
 30
0.0
 11
1258.975733414744
 21
-295.8629505169428
 31
0.0
  0
ARC
  5
299
330
A
100
AcDbEntity
  8
____1
  6
Continuous
 62
     0
370
    18
100
AcDbCircle
 10
1196.475733414744
 20
-365.862950516943
 30
0.0
 40
4.999999999999089
100
AcDbArc
 50
180.0
 51
-90.0
  0
LINE
  5
29A
330
A
100
AcDbEntity
  8
____1
  6
Continuous
 62
     0
370
    18
100
AcDbLine
 10
1233.975733414744
 20
-365.862950516943
 30
0.0
 11
1233.975733414744
 21
-370.862950516943
 31
0.0
  0
LINE
  5
29B
330
A
100
AcDbEntity
  8
____1
  6
Continuous
 62
     0
370
    18
100
AcDbLine
 10
1196.475733414744
 20
-365.862950516943
 30
0.0
 11
1233.975733414744
 21
-365.862950516943
 31
0.0
  0
LINE
  5
29C
330
A
100
AcDbEntity
  8
____1
  6
Continuous
 62
     0
370
    18
100
AcDbLine
 10
1196.475733414744
 20
-370.862950516943
 30
0.0
 11
1233.975733414744
 21
-370.862950516943
 31
0.0
  0
LINE
  5
29D
330
A
100
AcDbEntity
  8
____1
  6
Continuous
 62
     0
370
    18
100
AcDbLine
 10
1196.475733414744
 20
-220.8629505169416
 30
0.0
 11
1233.975733414744
 21
-220.8629505169416
 31
0.0
  0
MTEXT
  5
29E
330
A
100
AcDbEntity
  8
____1
  6
Continuous
 62
     0
370
     5
100
AcDbMText
 10
1714.044439586449
 20
1.5
 30
0.0
 40
17.63888931274414
 41
29.73463566487999
 71
     1
 72
     1
  1
Ａ
  7
Style1
 73
     1
 44
1.0
1001
ACAD
1000
MTEXTBEGIN
1070
    73
1070
     1
1070
    44
1040
1.0
1070
    74
1070
     0
1000
MTEXTEND
  0
CIRCLE
  5
29F
330
A
100
AcDbEntity
  8
____1
  6
DASHED2
 62
     0
370
     5
100
AcDbCircle
 10
1683.729429244108
 20
24.27254387096443
 30
0.0
 40
29.99999999999998
  0
LINE
  5
2A1
330
A
100
AcDbEntity
  8
____1
  6
Continuous
 62
     0
370
     5
100
AcDbLine
 10
743.3759480120852
 20
-83.63397660003281
 30
0.0
 11
926.2026227744971
 21
-83.63397660003281
 31
0.0
  0
LINE
  5
2A2
330
A
100
AcDbEntity
  8
____1
  6
Continuous
 62
     0
370
     5
100
AcDbLine
 10
687.6674926859354
 20
16.27254387096441
 30
0.0
 11
743.3759480120852
 21
-83.63397660003281
 31
0.0
  0
SOLID
  5
2A3
330
A
100
AcDbEntity
  8
____1
 62
     0
100
AcDbTrace
 10
687.6674926859354
 20
16.27254387096441
 30
0.0
 11
693.3541647342755
 21
-4.791435959697555
 31
0.0
 12
687.6674926859354
 22
16.27254387096441
 32
0.0
 13
695.3987870431157
 23
2.407382587263018
 33
0.0
  0
SOLID
  5
2A4
330
A
100
AcDbEntity
  8
____1
 62
     0
100
AcDbTrace
 10
695.3987870431157
 20
2.407382587263018
 30
0.0
 11
702.5976055900763
 21
0.3627602784226656
 31
0.0
 12
687.6674926859354
 22
16.27254387096441
 32
0.0
 13
687.6674926859354
 23
16.27254387096441
 33
0.0
  0
LINE
  5
2A5
330
A
100
AcDbEntity
  8
____1
  6
Continuous
 62
     0
370
    18
100
AcDbLine
 10
1687.979429244108
 20
39.27254387096466
 30
0.0
 11
1687.979429244108
 21
38.27254387096465
 31
0.0
  0
LINE
  5
2A6
330
A
100
AcDbEntity
  8
____1
  6
CENTER2
 62
     0
370
     5
100
AcDbLine
 10
1674.479429244108
 20
24.27254387096443
 30
0.0
 11
1692.979429244108
 21
24.27254387096443
 31
0.0
  0
ARC
  5
2A7
330
A
100
AcDbEntity
  8
____1
  6
Continuous
 62
     0
370
    18
100
AcDbCircle
 10
1680.479429244108
 20
10.27254387096441
 30
0.0
 40
1.0
100
AcDbArc
 50
180.0
 51
-90.0
  0
LINE
  5
2A8
330
A
100
AcDbEntity
  8
____1
  6
Continuous
 62
     0
370
    18
100
AcDbLine
 10
1687.979429244108
 20
10.27254387096441
 30
0.0
 11
1687.979429244108
 21
9.272543870964412
 31
0.0
  0
LINE
  5
2AF
330
A
100
AcDbEntity
  8
___G
  6
Continuous
 62
     0
370
    18
100
AcDbLine
 10
1321.508232441434
 20
-893.8416872488948
 30
0.0
 11
1331.508232441434
 21
-893.8416872488948
 31
0.0
  0
LINE
  5
2B0
330
A
100
AcDbEntity
  8
___G
  6
Continuous
 62
     0
370
     5
100
AcDbLine
 10
1113.205000000001
 20
-756.7250520833341
 30
0.0
 11
1113.205000000001
 21
-921.725052083334
 31
0.0
  0
LINE
  5
2B1
330
A
100
AcDbEntity
  8
___G
  6
Continuous
 62
     0
370
     5
100
AcDbLine
 10
1113.205000000001
 20
-866.7250520833336
 30
0.0
 11
1838.205000000001
 21
-866.7250520833336
 31
0.0
  0
LINE
  5
2B2
330
A
100
AcDbEntity
  8
___G
  6
Continuous
 62
     0
370
     5
100
AcDbLine
 10
1125.705000000001
 20
-839.2250520833338
 30
0.0
 11
1288.205000000001
 21
-839.2250520833338
 31
0.0
  0
LINE
  5
2B3
330
A
100
AcDbEntity
  8
___G
  6
Continuous
 62
     0
370
     5
100
AcDbLine
 10
1313.205000000001
 20
-839.2250520833338
 30
0.0
 11
1475.705000000001
 21
-839.2250520833338
 31
0.0
  0
LINE
  5
2B5
330
A
100
AcDbEntity
  8
___G
  6
Continuous
 62
     0
370
     5
100
AcDbLine
 10
1125.705000000001
 20
-784.2250520833341
 30
0.0
 11
1225.705000000001
 21
-784.2250520833341
 31
0.0
  0
LINE
  5
2B6
330
A
100
AcDbEntity
  8
___G
  6
Continuous
 62
     0
370
     5
100
AcDbLine
 10
1238.205000000001
 20
-756.7250520833341
 30
0.0
 11
1238.205000000001
 21
-811.7250520833348
 31
0.0
  0
LINE
  5
2B7
330
A
100
AcDbEntity
  8
___G
  6
DOT
 62
     0
370
     5
100
AcDbLine
 10
-186.6949999999995
 20
-942.8750520833339
 30
0.0
 11
-186.6949999999995
 21
499.4249479166667
 31
0.0
  0
LINE
  5
2B8
330
A
100
AcDbEntity
  8
___G
  6
Continuous
 62
     0
370
    18
100
AcDbLine
 10
-161.7949999999997
 20
-921.725052083334
 30
0.0
 11
-161.7949999999997
 21
478.2749479166664
 31
0.0
  0
LINE
  5
2BA
330
A
100
AcDbEntity
  8
___G
  6
Continuous
 62
     0
370
     5
100
AcDbLine
 10
1363.205000000001
 20
-756.7250520833341
 30
0.0
 11
1363.205000000001
 21
-811.7250520833348
 31
0.0
  0
LINE
  5
2BB
330
A
100
AcDbEntity
  8
___G
  6
Continuous
 62
     0
370
     5
100
AcDbLine
 10
1250.705000000001
 20
-784.2250520833341
 30
0.0
 11
1350.705000000001
 21
-784.2250520833341
 31
0.0
  0
LINE
  5
2BD
330
A
100
AcDbEntity
  8
___G
  6
Continuous
 62
     0
370
     5
100
AcDbLine
 10
1300.705000000001
 20
-811.7250520833341
 30
0.0
 11
1300.705000000001
 21
-866.7250520833341
 31
0.0
  0
LINE
  5
2BE
330
A
100
AcDbEntity
  8
___G
  6
Continuous
 62
     0
370
    18
100
AcDbLine
 10
1838.205000000001
 20
-921.725052083334
 30
0.0
 11
1838.205000000001
 21
478.2749479166664
 31
0.0
  0
ARC
  5
2BF
330
A
100
AcDbEntity
  8
___G
  6
Continuous
 62
     0
370
    18
100
AcDbCircle
 10
1377.311262744463
 20
-883.8416872488947
 30
0.0
 40
27.5
100
AcDbArc
 50
322.4876119797
 51
0.0
  0
LINE
  5
2C0
330
A
100
AcDbEntity
  8
___G
  6
Continuous
 62
     0
370
    18
100
AcDbLine
 10
1303.252713383668
 20
-893.8416872488948
 30
0.0
 11
1308.252713383668
 21
-893.8416872488948
 31
0.0
  0
LINE
  5
2C2
330
A
100
AcDbEntity
  8
___G
  6
Continuous
 62
     0
370
    18
100
AcDbLine
 10
1368.205000000001
 20
403.2749479166664
 30
0.0
 11
1838.205000000002
 21
403.2749479166664
 31
0.0
  0
LINE
  5
2C3
330
A
100
AcDbEntity
  8
___G
  6
Continuous
 62
     0
370
    18
100
AcDbLine
 10
1368.205000000001
 20
428.2749479166664
 30
0.0
 11
1838.205000000002
 21
428.2749479166664
 31
0.0
  0
LINE
  5
2C4
330
A
100
AcDbEntity
  8
___G
  6
Continuous
 62
     0
370
    18
100
AcDbLine
 10
1368.205000000001
 20
453.2749479166664
 30
0.0
 11
1838.205000000002
 21
453.2749479166664
 31
0.0
  0
LINE
  5
2C5
330
A
100
AcDbEntity
  8
___G
  6
Continuous
 62
     0
370
    18
100
AcDbLine
 10
1788.205
 20
403.2749479166664
 30
0.0
 11
1788.205
 21
478.2749479166664
 31
0.0
  0
LINE
  5
2C6
330
A
100
AcDbEntity
  8
___G
  6
Continuous
 62
     0
370
    18
100
AcDbLine
 10
1368.205000000001
 20
403.2749479166664
 30
0.0
 11
1368.205000000001
 21
478.2749479166664
 31
0.0
  0
LINE
  5
2C7
330
A
100
AcDbEntity
  8
___G
  6
Continuous
 62
     0
370
    18
100
AcDbLine
 10
1374.408573069787
 20
405.6789066716834
 30
0.0
 11
1399.158573069788
 21
405.6789066716834
 31
0.0
  0
LINE
  5
2C8
330
A
100
AcDbEntity
  8
___G
  6
Continuous
 62
     0
370
    18
100
AcDbLine
 10
1386.783573069787
 20
427.1130354153479
 30
0.0
 11
1399.158573069788
 21
405.6789066716834
 31
0.0
  0
LINE
  5
2C9
330
A
100
AcDbEntity
  8
___G
  6
Continuous
 62
     0
370
    18
100
AcDbLine
 10
1386.783573069787
 20
427.1130354153479
 30
0.0
 11
1374.408573069787
 21
405.6789066716834
 31
0.0
  0
LINE
  5
2CA
330
A
100
AcDbEntity
  8
___G
  6
Continuous
 62
     0
370
    18
100
AcDbLine
 10
1386.783573069787
 20
451.8630354153475
 30
0.0
 11
1374.408573069787
 21
430.4289066716825
 31
0.0
  0
LINE
  5
2CB
330
A
100
AcDbEntity
  8
___G
  6
Continuous
 62
     0
370
    18
100
AcDbLine
 10
1386.783573069787
 20
451.8630354153475
 30
0.0
 11
1399.158573069788
 21
430.4289066716825
 31
0.0
  0
LINE
  5
2CC
330
A
100
AcDbEntity
  8
___G
  6
Continuous
 62
     0
370
    18
100
AcDbLine
 10
1374.408573069787
 20
430.4289066716825
 30
0.0
 11
1399.158573069788
 21
430.4289066716825
 31
0.0
  0
LINE
  5
2CD
330
A
100
AcDbEntity
  8
___G
  6
Continuous
 62
     0
370
    18
100
AcDbLine
 10
1408.205000000001
 20
403.2749479166664
 30
0.0
 11
1408.205000000001
 21
478.2749479166664
 31
0.0
  0
LINE
  5
2CE
330
A
100
AcDbEntity
  8
___G
  6
Continuous
 62
     0
370
    18
100
AcDbLine
 10
1738.205000000001
 20
403.2749479166664
 30
0.0
 11
1738.205000000001
 21
478.2749479166664
 31
0.0
  0
LINE
  5
2CF
330
A
100
AcDbEntity
  8
___G
  6
Continuous
 62
     0
370
    18
100
AcDbLine
 10
1488.205000000001
 20
403.2749479166664
 30
0.0
 11
1488.205000000001
 21
478.2749479166664
 31
0.0
  0
LINE
  5
2D2
330
A
100
AcDbEntity
  8
___G
  6
Continuous
 62
     0
370
    18
100
AcDbLine
 10
1384.811262744463
 20
-887.9522385863017
 30
0.0
 11
1381.982835619718
 21
-890.780665711048
 31
0.0
  0
LINE
  5
2D5
330
A
100
AcDbEntity
  8
___G
  6
Continuous
 62
     0
370
    18
100
AcDbLine
 10
1838.205000000001
 20
478.2749479166664
 30
0.0
 11
-161.7949999999998
 21
478.2749479166664
 31
0.0
  0
LINE
  5
2D6
330
A
100
AcDbEntity
  8
___G
  6
DOT
 62
     0
370
     5
100
AcDbLine
 10
1863.105000000001
 20
-942.8750520833339
 30
0.0
 11
1863.105000000001
 21
499.4249479166667
 31
0.0
  0
LINE
  5
2D7
330
A
100
AcDbEntity
  8
___G
  6
Continuous
 62
     0
370
    18
100
AcDbLine
 10
1387.492825202896
 20
-893.9370417744447
 30
0.0
 11
1386.289846171312
 21
-895.2657335772144
 31
0.0
  0
LINE
  5
2D8
330
A
100
AcDbEntity
  8
___G
  6
Continuous
 62
     0
370
    18
100
AcDbLine
 10
1309.008232441434
 20
-901.3416872488948
 30
0.0
 11
1321.508232441434
 21
-901.3416872488948
 31
0.0
  0
LINE
  5
2DD
330
A
100
AcDbEntity
  8
___G
  6
Continuous
 62
     0
370
     5
100
AcDbLine
 10
1600.705000000001
 20
-651.7250520833345
 30
0.0
 11
1600.705000000001
 21
-686.7250520833343
 31
0.0
  0
LINE
  5
2DE
330
A
100
AcDbEntity
  8
___G
  6
Continuous
 62
     0
370
     5
100
AcDbLine
 10
1475.705000000001
 20
-651.7250520833345
 30
0.0
 11
1475.705000000001
 21
-686.7250520833343
 31
0.0
  0
LINE
  5
2DF
330
A
100
AcDbEntity
  8
___G
  6
Continuous
 62
     0
370
     5
100
AcDbLine
 10
1238.205000000001
 20
-756.7250520833341
 30
0.0
 11
1238.205000000001
 21
-651.7250520833345
 31
0.0
  0
LINE
  5
2E0
330
A
100
AcDbEntity
  8
___G
  6
Continuous
 62
     0
370
     5
100
AcDbLine
 10
1113.205000000001
 20
-651.7250520833345
 30
0.0
 11
1113.205000000001
 21
-756.7250520833341
 31
0.0
  0
LINE
  5
2E1
330
A
100
AcDbEntity
  8
___G
  6
Continuous
 62
     0
370
     5
100
AcDbLine
 10
1838.205000000001
 20
-651.7250520833345
 30
0.0
 11
1113.205000000001
 21
-651.7250520833345
 31
0.0
  0
LINE
  5
2E2
330
A
100
AcDbEntity
  8
___G
  6
Continuous
 62
     0
370
     5
100
AcDbLine
 10
1838.205000000001
 20
-686.7250520833343
 30
0.0
 11
1113.205000000001
 21
-686.7250520833343
 31
0.0
  0
LINE
  5
2E3
330
A
100
AcDbEntity
  8
___G
  6
Continuous
 62
     0
370
     5
100
AcDbLine
 10
1838.205000000001
 20
-721.7250520833341
 30
0.0
 11
1113.205000000001
 21
-721.7250520833341
 31
0.0
  0
LINE
  5
2E4
330
A
100
AcDbEntity
  8
___G
  6
Continuous
 62
     0
370
     5
100
AcDbLine
 10
1838.205000000001
 20
-756.7250520833341
 30
0.0
 11
1113.205000000001
 21
-756.7250520833341
 31
0.0
  0
LINE
  5
2E5
330
A
100
AcDbEntity
  8
___G
  6
Continuous
 62
     0
370
    18
100
AcDbLine
 10
1351.508232441434
 20
-876.3416872488948
 30
0.0
 11
1331.508232441434
 21
-876.3416872488948
 31
0.0
  0
LINE
  5
2E6
330
A
100
AcDbEntity
  8
___G
  6
Continuous
 62
     0
370
    18
100
AcDbLine
 10
1351.508232441434
 20
-886.3416872488947
 30
0.0
 11
1351.508232441434
 21
-893.8416872488948
 31
0.0
  0
LINE
  5
2E7
330
A
100
AcDbEntity
  8
___G
  6
Continuous
 62
     0
370
    18
100
AcDbLine
 10
1303.252713383668
 20
-886.3416872488947
 30
0.0
 11
1303.252713383668
 21
-893.8416872488948
 31
0.0
  0
LINE
  5
2E8
330
A
100
AcDbEntity
  8
___G
  6
Continuous
 62
     0
370
    18
100
AcDbLine
 10
1420.89867598588
 20
-884.8416872488948
 30
0.0
 11
1433.392009319214
 21
-884.8416872488948
 31
0.0
  0
LINE
  5
2E9
330
A
100
AcDbEntity
  8
___G
  6
Continuous
 62
     0
370
    18
100
AcDbLine
 10
1838.205000000001
 20
-921.725052083334
 30
0.0
 11
-161.7949999999997
 21
-921.725052083334
 31
0.0
  0
LINE
  5
2EB
330
A
100
AcDbEntity
  8
___G
  6
Continuous
 62
     0
370
    18
100
AcDbLine
 10
1465.89867598588
 20
-884.8416872488948
 30
0.0
 11
1465.89867598588
 21
-893.8416872488948
 31
0.0
  0
LINE
  5
2EE
330
A
100
AcDbEntity
  8
___G
  6
Continuous
 62
     0
370
    18
100
AcDbLine
 10
1441.898675985881
 20
-913.8416872488948
 30
0.0
 11
1439.845342652548
 21
-906.8416872488947
 31
0.0
  0
ARC
  5
2F0
330
A
100
AcDbEntity
  8
___G
  6
Continuous
 62
     0
370
    18
100
AcDbCircle
 10
1377.311262744463
 20
-883.8416872488947
 30
0.0
 40
27.50000000000043
100
AcDbArc
 50
270.0
 51
302.5449588540453
  0
LINE
  5
2F1
330
A
100
AcDbEntity
  8
___G
  6
Continuous
 62
     0
370
    18
100
AcDbLine
 10
1344.008232441434
 20
-893.8416872488948
 30
0.0
 11
1351.508232441434
 21
-893.8416872488948
 31
0.0
  0
ARC
  5
2F2
330
A
100
AcDbEntity
  8
___G
  6
Continuous
 62
     0
370
    18
100
AcDbCircle
 10
1370.811262744463
 20
-884.8416872488948
 30
0.0
 40
18.99999999999959
100
AcDbArc
 50
331.3992813832602
 51
358.4920422457611
  0
LINE
  5
2F3
330
A
100
AcDbEntity
  8
___G
  6
Continuous
 62
     0
370
    18
100
AcDbLine
 10
1309.008232441434
 20
-903.841687248895
 30
0.0
 11
1309.008232441434
 21
-911.3416872488947
 31
0.0
  0
LINE
  5
2F4
330
A
100
AcDbEntity
  8
___G
  6
Continuous
 62
     0
370
    18
100
AcDbLine
 10
1309.008232441434
 20
-893.8416872488948
 30
0.0
 11
1308.252713383668
 21
-893.8416872488948
 31
0.0
  0
LINE
  5
2F5
330
A
100
AcDbEntity
  8
___G
  6
Continuous
 62
     0
370
    18
100
AcDbLine
 10
1364.811262744463
 20
-903.841687248895
 30
0.0
 11
1364.811262744463
 21
-911.3416872488947
 31
0.0
  0
LINE
  5
2F6
330
A
100
AcDbEntity
  8
___G
  6
Continuous
 62
     0
370
    18
100
AcDbLine
 10
1409.811262744463
 20
-876.3416872488948
 30
0.0
 11
1364.811262744463
 21
-876.3416872488948
 31
0.0
  0
LINE
  5
2F7
330
A
100
AcDbEntity
  8
___G
  6
Continuous
 62
     0
370
    18
100
AcDbLine
 10
1447.553497766102
 20
-884.8416872488948
 30
0.0
 11
1446.821526514981
 21
-882.2980427965593
 31
0.0
  0
LINE
  5
2F8
330
A
100
AcDbEntity
  8
___G
  6
Continuous
 62
     0
370
    18
100
AcDbLine
 10
1447.553497766102
 20
-884.8416872488948
 30
0.0
 11
1465.89867598588
 21
-884.8416872488948
 31
0.0
  0
LINE
  5
2F9
330
A
100
AcDbEntity
  8
___G
  6
Continuous
 62
     0
370
    18
100
AcDbLine
 10
1451.294439726693
 20
-897.8416872488947
 30
0.0
 11
1450.143380661895
 21
-893.8416872488948
 31
0.0
  0
LINE
  5
2FA
330
A
100
AcDbEntity
  8
___G
  6
Continuous
 62
     0
370
    18
100
AcDbLine
 10
1420.89867598588
 20
-897.8416872488947
 30
0.0
 11
1437.205342652548
 21
-897.8416872488947
 31
0.0
  0
LINE
  5
2FB
330
A
100
AcDbEntity
  8
___G
  6
Continuous
 62
     0
370
    18
100
AcDbLine
 10
1433.392009319214
 20
-884.8416872488948
 30
0.0
 11
1430.898675985881
 21
-876.3416872488948
 31
0.0
  0
LINE
  5
2FC
330
A
100
AcDbEntity
  8
___G
  6
Continuous
 62
     0
370
    18
100
AcDbLine
 10
1453.884322622486
 20
-906.8416872488947
 30
0.0
 11
1465.89867598588
 21
-906.8416872488947
 31
0.0
  0
LINE
  5
2FD
330
A
100
AcDbEntity
  8
___G
  6
Continuous
 62
     0
370
    18
100
AcDbLine
 10
1309.008232441434
 20
-876.3416872488948
 30
0.0
 11
1309.008232441434
 21
-886.3416872488947
 31
0.0
  0
ARC
  5
2FE
330
A
100
AcDbEntity
  8
___G
  6
Continuous
 62
     0
370
    18
100
AcDbCircle
 10
1329.008232441434
 20
-896.3416872488947
 30
0.0
 40
15.0
100
AcDbArc
 50
270.0
 51
0.0
  0
LINE
  5
2FF
330
A
100
AcDbEntity
  8
___G
  6
Continuous
 62
     0
370
    18
100
AcDbLine
 10
1364.811262744463
 20
-876.3416872488948
 30
0.0
 11
1364.811262744463
 21
-885.3416872488947
 31
0.0
  0
LINE
  5
300
330
A
100
AcDbEntity
  8
___G
  6
Continuous
 62
     0
370
    18
100
AcDbLine
 10
1364.811262744463
 20
-911.3416872488947
 30
0.0
 11
1377.311262744463
 21
-911.3416872488947
 31
0.0
  0
LINE
  5
301
330
A
100
AcDbEntity
  8
___G
  6
DOT
 62
     0
370
     5
100
AcDbLine
 10
1863.105000000001
 20
499.4249479166667
 30
0.0
 11
-186.6949999999995
 21
499.4249479166667
 31
0.0
  0
LINE
  5
302
330
A
100
AcDbEntity
  8
___G
  6
DOT
 62
     0
370
     5
100
AcDbLine
 10
-186.6949999999995
 20
-942.8750520833339
 30
0.0
 11
1863.105000000001
 21
-942.8750520833339
 31
0.0
  0
LINE
  5
303
330
A
100
AcDbEntity
  8
___G
  6
Continuous
 62
     0
370
    18
100
AcDbLine
 10
1364.811262744463
 20
-889.5627899237082
 30
0.0
 11
1364.811262744463
 21
-887.9522385863017
 31
0.0
  0
LINE
  5
304
330
A
100
AcDbEntity
  8
___G
  6
Continuous
 62
     0
370
    18
100
AcDbLine
 10
1432.634587558449
 20
-778.2250520833348
 30
0.0
 11
1432.634587558449
 21
-790.2250520833348
 31
0.0
  0
LINE
  5
305
330
A
100
AcDbEntity
  8
___G
  6
Continuous
 62
     0
370
    18
100
AcDbLine
 10
1331.508232441434
 20
-893.8416872488948
 30
0.0
 11
1331.508232441434
 21
-896.3416872488947
 31
0.0
  0
LINE
  5
306
330
A
100
AcDbEntity
  8
___G
  6
Continuous
 62
     0
370
    18
100
AcDbLine
 10
1455.898675985881
 20
-913.8416872488948
 30
0.0
 11
1441.898675985881
 21
-913.8416872488948
 31
0.0
  0
CIRCLE
  5
307
330
A
100
AcDbEntity
  8
___G
  6
Continuous
 62
     0
370
    18
100
AcDbCircle
 10
1405.205000000001
 20
-784.2250520833341
 30
0.0
 40
11.99999999999954
  0
CIRCLE
  5
308
330
A
100
AcDbEntity
  8
___G
  6
Continuous
 62
     0
370
    18
100
AcDbCircle
 10
1405.205000000001
 20
-784.2250520833341
 30
0.0
 40
6.000000000000453
  0
LINE
  5
309
330
A
100
AcDbEntity
  8
___G
  6
Continuous
 62
     0
370
    18
100
AcDbLine
 10
1420.89867598588
 20
-897.8416872488947
 30
0.0
 11
1420.89867598588
 21
-906.8416872488947
 31
0.0
  0
ARC
  5
30A
330
A
100
AcDbEntity
  8
___G
  6
Continuous
 62
     0
370
    18
100
AcDbCircle
 10
1324.008232441434
 20
-896.3416872488947
 30
0.0
 40
7.5
100
AcDbArc
 50
270.0
 51
0.0
  0
LINE
  5
30B
330
A
100
AcDbEntity
  8
___G
  6
Continuous
 62
     0
370
    18
100
AcDbLine
 10
1420.89867598588
 20
-906.8416872488947
 30
0.0
 11
1439.845342652548
 21
-906.8416872488947
 31
0.0
  0
LINE
  5
30C
330
A
100
AcDbEntity
  8
___G
  6
Continuous
 62
     0
370
    18
100
AcDbLine
 10
1309.008232441434
 20
-911.3416872488947
 30
0.0
 11
1329.008232441434
 21
-911.3416872488947
 31
0.0
  0
LINE
  5
30D
330
A
100
AcDbEntity
  8
___G
  6
Continuous
 62
     0
370
    18
100
AcDbLine
 10
1437.205342652548
 20
-897.8416872488947
 30
0.0
 11
1436.032009319213
 21
-893.8416872488948
 31
0.0
  0
LINE
  5
30E
330
A
100
AcDbEntity
  8
___G
  6
Continuous
 62
     0
370
    18
100
AcDbLine
 10
1344.008232441434
 20
-883.8416872488947
 30
0.0
 11
1351.508232441434
 21
-876.3416872488948
 31
0.0
  0
LINE
  5
30F
330
A
100
AcDbEntity
  8
___G
  6
Continuous
 62
     0
370
    18
100
AcDbLine
 10
1309.008232441434
 20
-893.8416872488948
 30
0.0
 11
1309.008232441434
 21
-901.3416872488948
 31
0.0
  0
LINE
  5
312
330
A
100
AcDbEntity
  8
___G
  6
Continuous
 62
     0
370
    18
100
AcDbLine
 10
1309.008232441434
 20
-886.3416872488947
 30
0.0
 11
1303.252713383668
 21
-886.3416872488947
 31
0.0
  0
LINE
  5
313
330
A
100
AcDbEntity
  8
___G
  6
Continuous
 62
     0
370
    18
100
AcDbLine
 10
1430.898675985881
 20
-876.3416872488948
 30
0.0
 11
1450.898675985881
 21
-876.3416872488948
 31
0.0
  0
LINE
  5
314
330
A
100
AcDbEntity
  8
___G
  6
Continuous
 62
     0
370
    18
100
AcDbLine
 10
1364.811262744463
 20
-903.841687248895
 30
0.0
 11
1370.811262744463
 21
-903.841687248895
 31
0.0
  0
LINE
  5
315
330
A
100
AcDbEntity
  8
___G
  6
Continuous
 62
     0
370
    18
100
AcDbLine
 10
1451.294439726693
 20
-897.8416872488947
 30
0.0
 11
1465.89867598588
 21
-897.8416872488947
 31
0.0
  0
LINE
  5
316
330
A
100
AcDbEntity
  8
___G
  6
Continuous
 62
     0
370
    18
100
AcDbLine
 10
1455.898675985881
 20
-913.8416872488948
 30
0.0
 11
1453.884322622486
 21
-906.8416872488947
 31
0.0
  0
LINE
  5
317
330
A
100
AcDbEntity
  8
___G
  6
Continuous
 62
     0
370
    18
100
AcDbLine
 10
1364.811262744463
 20
-911.3416872488947
 30
0.0
 11
1364.811262744463
 21
-903.841687248895
 31
0.0
  0
LINE
  5
318
330
A
100
AcDbEntity
  8
___G
  6
Continuous
 62
     0
370
    18
100
AcDbLine
 10
1446.821526514981
 20
-882.2980427965593
 30
0.0
 11
1450.898675985881
 21
-876.3416872488948
 31
0.0
  0
LINE
  5
319
330
A
100
AcDbEntity
  8
___G
  6
Continuous
 62
     0
370
    18
100
AcDbLine
 10
1404.811262744463
 20
-883.8416872488947
 30
0.0
 11
1409.811262744463
 21
-876.3416872488948
 31
0.0
  0
LINE
  5
31A
330
A
100
AcDbEntity
  8
___G
  6
Continuous
 62
     0
370
    18
100
AcDbLine
 10
1344.008232441434
 20
-886.3416872488947
 30
0.0
 11
1344.008232441434
 21
-883.8416872488947
 31
0.0
  0
LINE
  5
31B
330
A
100
AcDbEntity
  8
___G
  6
Continuous
 62
     0
370
    18
100
AcDbLine
 10
1351.508232441434
 20
-886.3416872488947
 30
0.0
 11
1344.008232441434
 21
-886.3416872488947
 31
0.0
  0
LINE
  5
31C
330
A
100
AcDbEntity
  8
___G
  6
Continuous
 62
     0
370
    18
100
AcDbLine
 10
1420.89867598588
 20
-893.8416872488948
 30
0.0
 11
1436.032009319213
 21
-893.8416872488948
 31
0.0
  0
SPLINE
  5
31D
330
A
100
AcDbEntity
  8
___G
  6
Continuous
 62
     0
370
    18
100
AcDbSpline
210
0.0
220
0.0
230
1.0
 70
     8
 71
     3
 72
     8
 73
     4
 74
     0
 42
0.0000000001
 43
0.0000000001
 40
0.0
 40
0.0
 40
0.0
 40
0.0
 40
1.0
 40
1.0
 40
1.0
 40
1.0
 10
1392.105196714966
 20
-907.0233506421123
 30
0.0
 10
1397.800628145713
 20
-908.8447930957247
 30
0.0
 10
1403.805945445088
 20
-910.0932401723101
 30
0.0
 10
1409.811262744463
 20
-911.3416872488947
 30
0.0
  0
LINE
  5
31E
330
A
100
AcDbEntity
  8
___G
  6
Continuous
 62
     0
370
    18
100
AcDbLine
 10
1364.811262744463
 20
-885.3416872488947
 30
0.0
 11
1389.811262744463
 21
-885.3416872488947
 31
0.0
  0
LINE
  5
31F
330
A
100
AcDbEntity
  8
___G
  6
Continuous
 62
     0
370
    18
100
AcDbLine
 10
1324.008232441434
 20
-903.841687248895
 30
0.0
 11
1309.008232441434
 21
-903.841687248895
 31
0.0
  0
SPLINE
  5
320
330
A
100
AcDbEntity
  8
___G
  6
Continuous
 62
     0
370
    18
100
AcDbSpline
210
0.0
220
0.0
230
1.0
 70
     8
 71
     3
 72
     8
 73
     4
 74
     0
 42
0.0000000001
 43
0.0000000001
 40
0.0
 40
0.0
 40
0.0
 40
0.0
 40
1.0
 40
1.0
 40
1.0
 40
1.0
 10
1381.982835619718
 20
-890.780665711048
 30
0.0
 10
1383.379697756288
 20
-892.3381668805133
 30
0.0
 10
1384.776559892856
 20
-893.8956680499789
 30
0.0
 10
1386.289846171312
 20
-895.2657335772148
 30
0.0
  0
SPLINE
  5
321
330
A
100
AcDbEntity
  8
___G
  6
Continuous
 62
     0
370
    18
100
AcDbSpline
210
0.0
220
0.0
230
1.0
 70
     8
 71
     3
 72
     8
 73
     4
 74
     0
 42
0.0000000001
 43
0.0000000001
 40
0.0
 40
0.0
 40
0.0
 40
0.0
 40
1.0
 40
1.0
 40
1.0
 40
1.0
 10
1398.23434920594
 20
-901.4592340147103
 30
0.0
 10
1401.933195473588
 20
-902.5111762622437
 30
0.0
 10
1405.872229109026
 20
-903.1764317555692
 30
0.0
 10
1409.811262744463
 20
-903.841687248895
 30
0.0
  0
LINE
  5
323
330
A
100
AcDbEntity
  8
___G
  6
Continuous
 62
     0
370
    18
100
AcDbLine
 10
1321.508232441434
 20
-883.8416872488947
 30
0.0
 11
1329.008232441434
 21
-876.3416872488948
 31
0.0
  0
LINE
  5
324
330
A
100
AcDbEntity
  8
___G
  6
Continuous
 62
     0
370
    18
100
AcDbLine
 10
1329.008232441434
 20
-876.3416872488948
 30
0.0
 11
1309.008232441434
 21
-876.3416872488948
 31
0.0
  0
LINE
  5
325
330
A
100
AcDbEntity
  8
___G
  6
Continuous
 62
     0
370
    18
100
AcDbLine
 10
1331.508232441434
 20
-886.3416872488947
 30
0.0
 11
1321.508232441434
 21
-886.3416872488947
 31
0.0
  0
LINE
  5
326
330
A
100
AcDbEntity
  8
___G
  6
Continuous
 62
     0
370
    18
100
AcDbLine
 10
1420.89867598588
 20
-884.8416872488948
 30
0.0
 11
1420.89867598588
 21
-893.8416872488948
 31
0.0
  0
LINE
  5
327
330
A
100
AcDbEntity
  8
___G
  6
Continuous
 62
     0
370
    18
100
AcDbLine
 10
1344.008232441434
 20
-896.3416872488947
 30
0.0
 11
1344.008232441434
 21
-893.8416872488948
 31
0.0
  0
LINE
  5
328
330
A
100
AcDbEntity
  8
___G
  6
Continuous
 62
     0
370
    18
100
AcDbLine
 10
1321.508232441434
 20
-901.3416872488948
 30
0.0
 11
1321.508232441434
 21
-893.8416872488948
 31
0.0
  0
LINE
  5
329
330
A
100
AcDbEntity
  8
___G
  6
Continuous
 62
     0
370
    18
100
AcDbLine
 10
1409.811262744463
 20
-903.841687248895
 30
0.0
 11
1409.811262744463
 21
-911.3416872488947
 31
0.0
  0
LINE
  5
32A
330
A
100
AcDbEntity
  8
___G
  6
Continuous
 62
     0
370
    18
100
AcDbLine
 10
1465.89867598588
 20
-897.8416872488947
 30
0.0
 11
1465.89867598588
 21
-906.8416872488947
 31
0.0
  0
LINE
  5
32B
330
A
100
AcDbEntity
  8
___G
  6
Continuous
 62
     0
370
    18
100
AcDbLine
 10
1404.811262744463
 20
-883.8416872488947
 30
0.0
 11
1409.811262744463
 21
-876.3416872488948
 31
0.0
  0
ARC
  5
32C
330
A
100
AcDbEntity
  8
___G
  6
Continuous
 62
     0
370
    18
100
AcDbCircle
 10
1370.811262744463
 20
-884.8416872488948
 30
0.0
 40
19.0000000000001
100
AcDbArc
 50
270.0
 51
298.0859048152066
  0
LINE
  5
32D
330
A
100
AcDbEntity
  8
___G
  6
Continuous
 62
     0
370
    18
100
AcDbLine
 10
1364.811262744463
 20
-887.9522385863017
 30
0.0
 11
1384.811262744463
 21
-887.9522385863017
 31
0.0
  0
LINE
  5
32E
330
A
100
AcDbEntity
  8
___G
  6
CENTER2
 62
     0
370
    18
100
AcDbLine
 10
1405.205000000001
 20
-766.2250520833348
 30
0.0
 11
1405.205000000001
 21
-802.2250520833342
 31
0.0
  0
LINE
  5
32F
330
A
100
AcDbEntity
  8
___G
  6
CENTER2
 62
     0
370
    18
100
AcDbLine
 10
1405.205000000001
 20
-766.2250520833348
 30
0.0
 11
1405.205000000001
 21
-802.2250520833342
 31
0.0
  0
LINE
  5
330
330
A
100
AcDbEntity
  8
___G
  6
Continuous
 62
     0
370
    18
100
AcDbLine
 10
1456.634587558449
 20
-772.2250520833341
 30
0.0
 11
1456.634587558449
 21
-796.2250520833348
 31
0.0
  0
LINE
  5
331
330
A
100
AcDbEntity
  8
___G
  6
Continuous
 62
     0
370
    18
100
AcDbLine
 10
1432.634587558449
 20
-790.2250520833348
 30
0.0
 11
1456.634587558449
 21
-796.2250520833348
 31
0.0
  0
LINE
  5
332
330
A
100
AcDbEntity
  8
___G
  6
Continuous
 62
     0
370
    18
100
AcDbLine
 10
1432.634587558449
 20
-778.2250520833348
 30
0.0
 11
1432.634587558449
 21
-790.2250520833348
 31
0.0
  0
LINE
  5
333
330
A
100
AcDbEntity
  8
___G
  6
Continuous
 62
     0
370
    18
100
AcDbLine
 10
1450.143380661895
 20
-893.8416872488948
 30
0.0
 11
1465.89867598588
 21
-893.8416872488948
 31
0.0
  0
LINE
  5
334
330
A
100
AcDbEntity
  8
___G
  6
Continuous
 62
     0
370
    18
100
AcDbLine
 10
1331.508232441434
 20
-876.3416872488948
 30
0.0
 11
1331.508232441434
 21
-886.3416872488947
 31
0.0
  0
LINE
  5
335
330
A
100
AcDbEntity
  8
___G
  6
CENTER2
 62
     0
370
    18
100
AcDbLine
 10
1405.205000000001
 20
-766.2250520833348
 30
0.0
 11
1405.205000000001
 21
-802.2250520833342
 31
0.0
  0
LINE
  5
336
330
A
100
AcDbEntity
  8
___G
  6
Continuous
 62
     0
370
     5
100
AcDbLine
 10
1113.205000000001
 20
-811.7250520833341
 30
0.0
 11
1838.205000000001
 21
-811.7250520833341
 31
0.0
  0
LINE
  5
337
330
A
100
AcDbEntity
  8
___G
  6
Continuous
 62
     0
370
    18
100
AcDbLine
 10
1432.634587558449
 20
-790.2250520833348
 30
0.0
 11
1456.634587558449
 21
-796.2250520833348
 31
0.0
  0
LINE
  5
338
330
A
100
AcDbEntity
  8
___G
  6
Continuous
 62
     0
370
    18
100
AcDbLine
 10
1432.634587558449
 20
-778.2250520833348
 30
0.0
 11
1456.634587558449
 21
-772.2250520833341
 31
0.0
  0
CIRCLE
  5
339
330
A
100
AcDbEntity
  8
___G
  6
Continuous
 62
     0
370
    18
100
AcDbCircle
 10
1405.205000000001
 20
-784.2250520833341
 30
0.0
 40
6.000000000000453
  0
CIRCLE
  5
33A
330
A
100
AcDbEntity
  8
___G
  6
Continuous
 62
     0
370
    18
100
AcDbCircle
 10
1405.205000000001
 20
-784.2250520833341
 30
0.0
 40
11.99999999999954
  0
LINE
  5
33B
330
A
100
AcDbEntity
  8
___G
  6
Continuous
 62
     0
370
    18
100
AcDbLine
 10
1432.634587558449
 20
-778.2250520833348
 30
0.0
 11
1456.634587558449
 21
-772.2250520833341
 31
0.0
  0
LINE
  5
33C
330
A
100
AcDbEntity
  8
___G
  6
Continuous
 62
     0
370
    18
100
AcDbLine
 10
1456.634587558449
 20
-772.2250520833341
 30
0.0
 11
1456.634587558449
 21
-796.2250520833348
 31
0.0
  0
LINE
  5
33D
330
A
100
AcDbEntity
  8
___G
  6
Continuous
 62
     0
370
    18
100
AcDbLine
 10
1432.634587558449
 20
-778.2250520833348
 30
0.0
 11
1432.634587558449
 21
-790.2250520833348
 31
0.0
  0
LINE
  5
33E
330
A
100
AcDbEntity
  8
___G
  6
Continuous
 62
     0
370
    18
100
AcDbLine
 10
1432.634587558449
 20
-790.2250520833348
 30
0.0
 11
1456.634587558449
 21
-796.2250520833348
 31
0.0
  0
LINE
  5
33F
330
A
100
AcDbEntity
  8
___G
  6
Continuous
 62
     0
370
    18
100
AcDbLine
 10
1432.634587558449
 20
-778.2250520833348
 30
0.0
 11
1456.634587558449
 21
-772.2250520833341
 31
0.0
  0
CIRCLE
  5
340
330
A
100
AcDbEntity
  8
___G
  6
Continuous
 62
     0
370
    18
100
AcDbCircle
 10
1405.205000000001
 20
-784.2250520833341
 30
0.0
 40
11.99999999999954
  0
CIRCLE
  5
341
330
A
100
AcDbEntity
  8
___G
  6
Continuous
 62
     0
370
    18
100
AcDbCircle
 10
1405.205000000001
 20
-784.2250520833341
 30
0.0
 40
6.000000000000453
  0
LINE
  5
342
330
A
100
AcDbEntity
  8
___G
  6
CENTER2
 62
     0
370
    18
100
AcDbLine
 10
1387.205000000001
 20
-784.2250520833341
 30
0.0
 11
1464.205000000001
 21
-784.2250520833341
 31
0.0
  0
CIRCLE
  5
343
330
A
100
AcDbEntity
  8
___G
  6
Continuous
 62
     0
370
    18
100
AcDbCircle
 10
1405.205000000001
 20
-784.2250520833341
 30
0.0
 40
6.000000000000453
  0
CIRCLE
  5
344
330
A
100
AcDbEntity
  8
___G
  6
Continuous
 62
     0
370
    18
100
AcDbCircle
 10
1405.205000000001
 20
-784.2250520833341
 30
0.0
 40
11.99999999999954
  0
LINE
  5
345
330
A
100
AcDbEntity
  8
___G
  6
Continuous
 62
     0
370
    18
100
AcDbLine
 10
1432.634587558449
 20
-778.2250520833348
 30
0.0
 11
1456.634587558449
 21
-772.2250520833341
 31
0.0
  0
LINE
  5
346
330
A
100
AcDbEntity
  8
___G
  6
Continuous
 62
     0
370
    18
100
AcDbLine
 10
1432.634587558449
 20
-790.2250520833348
 30
0.0
 11
1456.634587558449
 21
-796.2250520833348
 31
0.0
  0
LINE
  5
347
330
A
100
AcDbEntity
  8
___G
  6
Continuous
 62
     0
370
    18
100
AcDbLine
 10
1432.634587558449
 20
-778.2250520833348
 30
0.0
 11
1432.634587558449
 21
-790.2250520833348
 31
0.0
  0
LINE
  5
348
330
A
100
AcDbEntity
  8
___G
  6
Continuous
 62
     0
370
    18
100
AcDbLine
 10
1456.634587558449
 20
-772.2250520833341
 30
0.0
 11
1456.634587558449
 21
-796.2250520833348
 31
0.0
  0
LINE
  5
349
330
A
100
AcDbEntity
  8
___G
  6
Continuous
 62
     0
370
     5
100
AcDbLine
 10
1488.205000000001
 20
-756.7250520833341
 30
0.0
 11
1488.205000000001
 21
-921.725052083334
 31
0.0
  0
LINE
  5
34A
330
A
100
AcDbEntity
  8
___G
  6
Continuous
 62
     0
370
    18
100
AcDbLine
 10
1399.124859504902
 20
-900.5873432937631
 30
0.0
 11
1398.23434920594
 21
-901.4592340147103
 31
0.0
  0
LINE
  5
34B
330
A
100
AcDbEntity
  8
___G
  6
Continuous
 62
     0
370
    18
100
AcDbLine
 10
1321.508232441434
 20
-886.3416872488947
 30
0.0
 11
1321.508232441434
 21
-883.8416872488947
 31
0.0
  0
LINE
  5
34C
330
A
100
AcDbEntity
  8
___G
  6
Continuous
 62
     0
370
    18
100
AcDbLine
 10
1456.634587558449
 20
-772.2250520833341
 30
0.0
 11
1456.634587558449
 21
-796.2250520833348
 31
0.0
  0
LINE
  5
34D
330
A
100
AcDbEntity
  8
___G
  6
CENTER2
 62
     0
370
    18
100
AcDbLine
 10
1405.205000000001
 20
-766.2250520833348
 30
0.0
 11
1405.205000000001
 21
-802.2250520833342
 31
0.0
  0
SPLINE
  5
34E
330
A
100
AcDbEntity
  8
___G
  6
Continuous
 62
     0
370
    18
100
AcDbSpline
210
0.0
220
0.0
230
1.0
 70
     8
 71
     3
 72
     9
 73
     5
 74
     0
 42
0.0000000001
 43
0.0000000001
 40
0.0
 40
0.0
 40
0.0
 40
0.0
 40
0.9999999993702067
 40
1.0
 40
1.0
 40
1.0
 40
1.0
 10
1364.811262744463
 20
-889.5627899237082
 30
0.0
 10
1369.584285761298
 20
-893.9624824059945
 30
0.0
 10
1374.357308781139
 20
-898.3621748910518
 30
0.0
 10
1379.756365038954
 20
-901.6042987757334
 30
0.0
 10
1379.756365042354
 20
-901.6042987777753
 30
0.0
  0
TEXT
  5
34F
330
A
100
AcDbEntity
  8
0
  6
Continuous
 62
     0
370
     0
100
AcDbText
 10
1488.205000000001
 20
457.0191106037358
 30
0.0
 40
12.69999980926513
  1
改　訂　内　容
  7
Style1
100
AcDbText
  0
TEXT
  5
350
330
A
100
AcDbEntity
  8
0
  6
Continuous
 62
     0
370
     0
100
AcDbText
 10
1788.205
 20
456.9385268486009
 30
0.0
 40
12.69999980926513
  1
検認者
  7
Style1
100
AcDbText
  0
TEXT
  5
352
330
A
100
AcDbEntity
  8
0
  6
Continuous
 62
     0
370
     0
100
AcDbText
 10
1738.205000000001
 20
457.1802781140058
 30
0.0
 40
12.69999980926513
  1
改訂者
  7
Style1
100
AcDbText
  0
TEXT
  5
354
330
A
100
AcDbEntity
  8
0
  6
Continuous
 62
     0
370
     0
100
AcDbText
 10
1368.205000000001
 20
457.3414456242756
 30
0.0
 40
12.69999980926513
  1
副番
  7
Style1
100
AcDbText
  0
TEXT
  5
355
330
A
100
AcDbEntity
  8
0
  6
Continuous
 62
     0
370
     0
100
AcDbText
 10
1408.205000000001
 20
457.1802781140058
 30
0.0
 40
12.69999980926513
  1
改訂日
  7
Style1
100
AcDbText
  0
TEXT
  5
356
330
A
100
AcDbEntity
  8
0
  6
Continuous
 62
     0
370
     0
100
AcDbText
 10
1491.205
 20
-887.9011654685681
 30
0.0
 40
16.9333324432373
  1
図 番
  7
Style1
100
AcDbText
  0
TEXT
  5
357
330
A
100
AcDbEntity
  8
0
  6
Continuous
 62
     0
370
     0
100
AcDbText
 10
1491.205
 20
-778.2593154860117
 30
0.0
 40
16.9333324432373
  1
製品名
  7
Style1
100
AcDbText
  0
TEXT
  5
359
330
A
100
AcDbEntity
  8
0
  6
Continuous
 62
     0
370
     0
100
AcDbText
 10
1491.205
 20
-832.3639404424039
 30
0.0
 40
16.9333324432373
  1
図面名
  7
Style1
100
AcDbText
  0
TEXT
  5
35B
330
A
100
AcDbEntity
  8
0
  6
Continuous
 62
     0
370
     0
100
AcDbText
 10
1140.404184683867
 20
-911.8737275527983
 30
0.0
 40
25.39999961853027
  1
株式会社
  7
Style1
100
AcDbText
  0
TEXT
  5
35D
330
A
100
AcDbEntity
  8
0
  6
Continuous
 62
     0
370
     0
100
AcDbText
 10
1130.267409755318
 20
-862.8074994345009
 30
0.0
 40
16.9333324432373
  1
製図
  7
Style1
100
AcDbText
  0
TEXT
  5
35F
330
A
100
AcDbEntity
  8
0
  6
Continuous
 62
     0
370
     0
100
AcDbText
 10
1130.267409755318
 20
-834.7702744083356
 30
0.0
 40
16.9333324432373
  1
設計
  7
Style1
100
AcDbText
  0
TEXT
  5
361
330
A
100
AcDbEntity
  8
0
  6
Continuous
 62
     0
370
     0
100
AcDbText
 10
1317.767409755318
 20
-834.4121243908928
 30
0.0
 40
16.9333324432373
  1
照査
  7
Style1
100
AcDbText
  0
TEXT
  5
363
330
A
100
AcDbEntity
  8
0
  6
Continuous
 62
     0
370
     0
100
AcDbText
 10
1136.530505092808
 20
-682.6649065159723
 30
0.0
 40
16.9333324432373
  1
材　　質
  7
Style1
100
AcDbText
  0
TEXT
  5
364
330
A
100
AcDbEntity
  8
0
  6
Continuous
 62
     0
370
     0
100
AcDbText
 10
1499.030505092808
 20
-683.0946865272221
 30
0.0
 40
16.9333324432373
  1
板　　厚
  7
Style1
100
AcDbText
  0
TEXT
  5
365
330
A
100
AcDbEntity
  8
0
  6
Continuous
 62
     0
370
     0
100
AcDbText
 10
1136.530505092808
 20
-717.8797965215973
 30
0.0
 40
16.9333324432373
  1
表面処理
  7
Style1
100
AcDbText
  0
TEXT
  5
366
330
A
100
AcDbEntity
  8
0
  6
Continuous
 62
     0
370
     0
100
AcDbText
 10
1136.530505092808
 20
-753.3095765328466
 30
0.0
 40
16.9333324432373
  1
一般公差
  7
Style1
100
AcDbText
  0
TEXT
  5
367
330
A
100
AcDbEntity
  8
0
  6
Continuous
 62
     0
370
     0
100
AcDbText
 10
1255.267409755318
 20
-780.3074994345004
 30
0.0
 40
16.9333324432373
  1
尺　　度
  7
Style1
100
AcDbText
  0
TEXT
  5
368
330
A
100
AcDbEntity
  8
0
  6
Continuous
 62
     0
370
     0
100
AcDbText
 10
1317.767409755318
 20
-862.8970369388616
 30
0.0
 40
16.9333324432373
  1
検図
  7
Style1
100
AcDbText
  0
TEXT
  5
36A
330
A
100
AcDbEntity
  8
0
  6
Continuous
 62
     0
370
     0
100
AcDbText
 10
1130.267409755318
 20
-779.7702744083356
 30
0.0
 40
16.9333324432373
  1
日　　付
  7
Style1
100
AcDbText
  0
TEXT
  5
36B
330
A
100
AcDbEntity
  8
0
  6
Continuous
 62
     0
370
     0
100
AcDbText
 10
1261.530505092808
 20
-716.9127914962855
 30
0.0
 40
16.9333324432373
  1
ＢＡ
  7
Style1
100
AcDbText
  0
TEXT
  5
36C
330
A
100
AcDbEntity
  8
0
  6
Continuous
 62
     0
370
     0
100
AcDbText
 10
1261.530505092808
 20
-753.0946865272218
 30
0.0
 40
16.9333324432373
  1
指定無き公差はJIS B0408-Bによること
  7
Style1
100
AcDbText
  0
TEXT
  5
36D
330
A
100
AcDbEntity
  8
0
  6
Continuous
 62
     0
370
     0
100
AcDbText
 10
1395.42029672551
 20
-835.3074994345004
 30
0.0
 40
16.9333324432373
  1
柳原
  7
Style1
100
AcDbText
  0
TEXT
  5
36E
330
A
100
AcDbEntity
  8
0
  6
Continuous
 62
     0
370
     0
100
AcDbText
 10
1207.92029672551
 20
-835.3970369388612
 30
0.0
 40
16.9333324432373
  1
白須賀
  7
Style1
100
AcDbText
  0
TEXT
  5
36F
330
A
100
AcDbEntity
  8
0
  6
Continuous
 62
     0
370
     0
100
AcDbText
 10
1114.537291666667
 20
-636.9922781573386
 30
0.0
 40
21.16666603088379
  1
Ｌ＝1000,1200,2000は受注生産
  7
Style1
100
AcDbText
  0
TEXT
  5
371
330
A
100
AcDbEntity
  8
0
  6
Continuous
 62
     0
370
     0
100
AcDbText
 10
1129.192959702989
 20
-806.9479611093813
 30
0.0
 40
16.9333324432373
  1
H16.4
  7
Style1
100
AcDbText
  0
TEXT
  5
372
330
A
100
AcDbEntity
  8
0
  6
Continuous
 62
     0
370
     0
100
AcDbText
 10
1207.92029672551
 20
-862.9865744432223
 30
0.0
 40
16.9333324432373
  1
岸本
  7
Style1
100
AcDbText
  0
TEXT
  5
373
330
A
100
AcDbEntity
  8
0
  6
Continuous
 62
     0
370
     0
100
AcDbText
 10
1580.857417941196
 20
-834.1239078864347
 30
0.0
 40
16.9333324432373
  1
ＷＴ-１６Ｎ-３０４
  7
Style1
100
AcDbText
  0
TEXT
  5
375
330
A
100
AcDbEntity
  8
0
  6
Continuous
 62
     0
370
     0
100
AcDbText
 10
1580.857417941196
 20
-859.3238160664897
 30
0.0
 40
16.9333324432373
  1
ＷＴ-１６Ｎ-４３０
  7
Style1
100
AcDbText
  0
TEXT
  5
377
330
A
100
AcDbEntity
  8
0
  6
Continuous
 62
     0
370
     0
100
AcDbText
 10
1613.119498480119
 20
-796.0985576711293
 30
0.0
 40
21.16666555404663
  1
ワイド棚柱
  7
Style1
100
AcDbText
  0
TEXT
  5
378
330
A
100
AcDbEntity
  8
0
  6
Continuous
 62
     0
370
     0
100
AcDbText
 10
1395.42029672551
 20
-862.8074994345009
 30
0.0
 40
16.9333324432373
  1
柳原
  7
Style1
100
AcDbText
  0
TEXT
  5
379
330
A
100
AcDbEntity
  8
0
  6
Continuous
 62
     0
370
     0
100
AcDbText
 10
1633.518871843235
 20
-915.148019280676
 30
0.0
 40
21.16666555404663
  1
SLW00006
  7
Style1
100
AcDbText
  0
TEXT
  5
37A
330
A
100
AcDbEntity
  8
0
  6
Continuous
 62
     0
370
     0
100
AcDbText
 10
1274.798253859908
 20
-806.9479611093813
 30
0.0
 40
16.9333324432373
  1
1：5
  7
Style1
100
AcDbText
  0
TEXT
  5
37B
330
A
100
AcDbEntity
  8
0
  6
Continuous
 62
     0
370
     0
100
AcDbText
 10
1620.896692258645
 20
-683.6905710754481
 30
0.0
 40
16.9333324432373
  1
1.0t
  7
Style1
100
AcDbText
  0
TEXT
  5
37C
330
A
100
AcDbEntity
  8
0
  6
Continuous
 62
     0
370
     0
100
AcDbText
 10
1260.276979959143
 20
-683.6905710754481
 30
0.0
 40
16.9333324432373
  1
SUS304・430
  7
Style1
100
AcDbText
  0
TEXT
  5
37D
330
A
100
AcDbEntity
  8
0
  6
Continuous
 62
     0
370
     0
100
AcDbText
 10
776.5920412718835
 20
-75.8793656922316
 30
0.0
 40
17.63888931274414
  1
５ｘ１６角穴
  7
Style1
100
AcDbText
  0
TEXT
  5
37F
330
A
100
AcDbEntity
  8
0
  6
Continuous
 62
     0
370
     0
100
AcDbText
 10
1172.838516454504
 20
-440.5764929143614
 30
0.0
 40
17.63888931274414
  1
Ａ部拡大図
  7
Style1
100
AcDbText
  0
ENDSEC
  0
SECTION
  2
OBJECTS
  0
DICTIONARY
  5
19
330
0
100
AcDbDictionary
281
     1
  3
ACAD_COLOR
350
2AB
  3
ACAD_GROUP
350
1A
  3
ACAD_LAYOUT
350
1E
  3
ACAD_MATERIAL
350
2AA
  3
ACAD_MLINESTYLE
350
1B
  3
ACAD_PLOTSETTINGS
350
22
  3
ACAD_PLOTSTYLENAME
350
1F
  3
ACAD_WIPEOUT_VARS
350
23
  3
ACDBHEADERROUNDTRIPXREC
350
3D0
  3
AcDbVariableDictionary
350
386
  3
ASE_INDEX_DICTIONARY
350
382
  0
DICTIONARY
  5
2AB
102
{ACAD_REACTORS
330
19
102
}
330
19
100
AcDbDictionary
281
     1
  0
DICTIONARY
  5
1A
102
{ACAD_REACTORS
330
19
102
}
330
19
100
AcDbDictionary
281
     1
  0
DICTIONARY
  5
1E
102
{ACAD_REACTORS
330
19
102
}
330
19
100
AcDbDictionary
281
     1
  3
Layout1
350
21
  3
Model
350
20
  0
DICTIONARY
  5
2AA
102
{ACAD_REACTORS
330
19
102
}
330
19
100
AcDbDictionary
281
     1
  0
DICTIONARY
  5
1B
102
{ACAD_REACTORS
330
19
102
}
330
19
100
AcDbDictionary
281
     1
  3
Standard
350
1C
  0
DICTIONARY
  5
22
102
{ACAD_REACTORS
330
19
102
}
330
19
100
AcDbDictionary
281
     1
  0
ACDBDICTIONARYWDFLT
  5
1F
102
{ACAD_REACTORS
330
19
102
}
330
19
100
AcDbDictionary
281
     1
  3
Normal
350
1D
100
AcDbDictionaryWithDefault
340
1D
  0
WIPEOUTVARIABLES
  5
23
330
19
100
AcDbWipeoutVariables
 70
     1
  0
DICTIONARY
  5
3D0
102
{ACAD_REACTORS
330
19
102
}
330
19
100
AcDbDictionary
281
     1
  3
COLORDICT
350
3D2
  3
MATERIALDICT
350
3D1
  0
DICTIONARY
  5
386
102
{ACAD_REACTORS
330
19
102
}
330
19
100
AcDbDictionary
281
     1
  3
DIMASSOC
350
387
  3
PROJECTNAME
350
388
  0
DICTIONARY
  5
382
102
{ACAD_REACTORS
330
19
102
}
330
19
100
AcDbDictionary
281
     1
  3
ASEBlockHierarchyIndexRecord
350
384
1001
DCO15
1040
1826011132.437
  0
LAYOUT
  5
21
102
{ACAD_XDICTIONARY
360
3D5
102
}
102
{ACAD_REACTORS
330
1E
102
}
330
1E
100
AcDbPlotSettings
  1

  2

  4

  6

 40
0.0
 41
0.0
 42
0.0
 43
0.0
 44
0.0
 45
0.0
 46
0.0
 47
0.0
 48
0.0
 49
0.0
140
0.0
141
0.0
142
1.0
143
1.0
 70
     0
 72
     0
 73
     0
 74
     0
  7

 75
     0
147
1.0
148
0.0
149
0.0
100
AcDbLayout
  1
Layout1
 70
     0
 71
     1
 10
0.0
 20
0.0
 11
12.0
 21
9.0
 12
0.0
 22
0.0
 32
0.0
 14
1.000000000000000E+20
 24
1.000000000000000E+20
 34
1.000000000000000E+20
 15
-1.000000000000000E+20
 25
-1.000000000000000E+20
 35
-1.000000000000000E+20
146
0.0
 13
0.0
 23
0.0
 33
0.0
 16
1.0
 26
0.0
 36
0.0
 17
0.0
 27
1.0
 37
0.0
 76
     0
330
B
  0
LAYOUT
  5
20
102
{ACAD_XDICTIONARY
360
3D3
102
}
102
{ACAD_REACTORS
330
1E
102
}
330
1E
100
AcDbPlotSettings
  1

  2

  4

  6

 40
0.0
 41
0.0
 42
0.0
 43
0.0
 44
0.0
 45
0.0
 46
0.0
 47
0.0
 48
0.0
 49
0.0
140
0.0
141
0.0
142
1.0
143
1.0
 70
  1024
 72
     0
 73
     0
 74
     0
  7

 75
     0
147
1.0
148
0.0
149
0.0
100
AcDbLayout
  1
Model
 70
     0
 71
     0
 10
0.0
 20
0.0
 11
0.0
 21
0.0
 12
0.0
 22
0.0
 32
0.0
 14
0.0
 24
0.0
 34
0.0
 15
0.0
 25
0.0
 35
0.0
146
0.0
 13
0.0
 23
0.0
 33
0.0
 16
0.0
 26
0.0
 36
0.0
 17
0.0
 27
0.0
 37
0.0
 76
     0
330
A
  0
MLINESTYLE
  5
1C
102
{ACAD_REACTORS
330
1B
102
}
330
1B
100
AcDbMlineStyle
  2
STANDARD
 70
     0
  3

 62
     0
 51
90.0
 52
90.0
 71
     2
 49
0.5
 62
   256
  6
BYLAYER
 49
-0.5
 62
   256
  6
BYLAYER
  0
ACDBPLACEHOLDER
  5
1D
102
{ACAD_REACTORS
330
1F
102
}
330
1F
  0
XRECORD
  5
3D2
102
{ACAD_REACTORS
330
3D0
102
}
330
3D0
100
AcDbXrecord
280
     1
340
2AB
  0
XRECORD
  5
3D1
102
{ACAD_REACTORS
330
3D0
102
}
330
3D0
100
AcDbXrecord
280
     1
340
2AA
  0
DICTIONARYVAR
  5
387
102
{ACAD_REACTORS
330
386
102
}
330
386
100
DictionaryVariables
280
     0
  1
1
  0
DICTIONARYVAR
  5
388
102
{ACAD_REACTORS
330
386
102
}
330
386
100
DictionaryVariables
280
     0
  1

  0
XRECORD
  5
384
102
{ACAD_REACTORS
330
382
102
}
330
382
100
AcDbXrecord
280
     1
330
F5
330
FD
330
105
330
10D
330
115
330
11D
330
125
330
12D
330
136
330
13E
330
146
330
14E
330
156
330
15E
330
166
330
16E
330
176
330
17E
330
186
330
18E
330
196
330
19E
330
200
330
208
330
211
330
219
330
221
330
229
330
231
330
239
330
241
330
249
330
251
330
259
330
261
330
269
330
272
330
27D
330
285
330
28D
  0
DICTIONARY
  5
3D5
330
21
100
AcDbDictionary
280
     1
281
     1
  3
ACAD_XREC_ROUNDTRIP
360
3D6
  0
DICTIONARY
  5
3D3
330
20
100
AcDbDictionary
280
     1
281
     1
  3
ACAD_XREC_ROUNDTRIP
360
3D4
  0
XRECORD
  5
3D6
102
{ACAD_REACTORS
330
3D5
102
}
330
3D5
100
AcDbXrecord
280
     1
102
SHADEPLOT
 70
     0
102
SHADEPLOTRESLEVEL
 70
     2
102
SHADEPLOTCUSTOMDPI
 70
   300
  0
XRECORD
  5
3D4
102
{ACAD_REACTORS
330
3D3
102
}
330
3D3
100
AcDbXrecord
280
     1
102
SHADEPLOT
 70
     0
102
SHADEPLOTRESLEVEL
 70
     2
102
SHADEPLOTCUSTOMDPI
 70
   300
  0
ENDSEC
  0
EOF

