  0
SECTION
  2
HEADER
  9
$ACADVER
  1
AC1009
  9
$INSBASE
 10
0.0
 20
0.0
 30
0.0
  9
$EXTMIN
 10
601.54499981159995
 20
-512.44916652399991
 30
0.0
  9
$EXTMAX
 10
1626.4449998115999
 20
208.70083347600001
 30
0.0
  9
$LIMMIN
 10
0.0
 20
0.0
  9
$LIMMAX
 10
0.0
 20
0.0
  9
$ORTHOMODE
 70
     0
  9
$REGENMODE
 70
     1
  9
$FILLMODE
 70
     1
  9
$QTEXTMODE
 70
     0
  9
$MIRRTEXT
 70
     1
  9
$DRAGMODE
 70
     2
  9
$LTSCALE
 40
1.0
  9
$OSMODE
 70
    31
  9
$ATTMODE
 70
     1
  9
$TEXTSIZE
 40
0.0
  9
$TRACEWID
 40
0.05
  9
$TEXTSTYLE
  7
STANDARD
  9
$CLAYER
  8
0
  9
$CELTYPE
  6
CONTINUOUS
  9
$CECOLOR
 62
   256
  9
$DIMSCALE
 40
1.0
  9
$DIMASZ
 40
0.18
  9
$DIMEXO
 40
0.0625
  9
$DIMDLI
 40
0.38
  9
$DIMRND
 40
0.0
  9
$DIMDLE
 40
0.0
  9
$DIMEXE
 40
0.18
  9
$DIMTP
 40
0.0
  9
$DIMTM
 40
0.0
  9
$DIMTXT
 40
0.18
  9
$DIMCEN
 40
0.09
  9
$DIMTSZ
 40
0.0
  9
$DIMTOL
 70
     0
  9
$DIMLIM
 70
     0
  9
$DIMTIH
 70
     1
  9
$DIMTOH
 70
     1
  9
$DIMSE1
 70
     0
  9
$DIMSE2
 70
     0
  9
$DIMTAD
 70
     0
  9
$DIMZIN
 70
     0
  9
$DIMBLK
  1

  9
$DIMASO
 70
     1
  9
$DIMSHO
 70
     1
  9
$DIMPOST
  1

  9
$DIMAPOST
  1

  9
$DIMALT
 70
     0
  9
$DIMALTD
 70
     2
  9
$DIMALTF
 40
25.399999999999999
  9
$DIMLFAC
 40
1.0
  9
$DIMTOFL
 70
     0
  9
$DIMTVP
 40
0.0
  9
$DIMTIX
 70
     0
  9
$DIMSOXD
 70
     0
  9
$DIMSAH
 70
     0
  9
$DIMBLK1
  1

  9
$DIMBLK2
  1

  9
$DIMSTYLE
  2
STANDARD
  9
$DIMCLRD
 70
     0
  9
$DIMCLRE
 70
     0
  9
$DIMCLRT
 70
     0
  9
$DIMTFAC
 40
1.0
  9
$DIMGAP
 40
0.09
  9
$LUNITS
 70
     2
  9
$LUPREC
 70
     4
  9
$SKETCHINC
 40
0.1
  9
$FILLETRAD
 40
0.0
  9
$AUNITS
 70
     0
  9
$AUPREC
 70
     0
  9
$MENU
  1
acad
  9
$ELEVATION
 40
0.0
  9
$PELEVATION
 40
0.0
  9
$THICKNESS
 40
0.0
  9
$LIMCHECK
 70
     0
  9
$BLIPMODE
 70
     0
  9
$CHAMFERA
 40
0.0
  9
$CHAMFERB
 40
0.0
  9
$SKPOLY
 70
     0
  9
$TDCREATE
 40
2454859.7966344678
  9
$TDUPDATE
 40
2454859.7968247221
  9
$TDINDWG
 40
0.0002068866
  9
$TDUSRTIMER
 40
0.0002065162
  9
$USRTIMER
 70
     1
  9
$ANGBASE
 50
0.0
  9
$ANGDIR
 70
     0
  9
$PDMODE
 70
     3
  9
$PDSIZE
 40
-1.0
  9
$PLINEWID
 40
0.0
  9
$COORDS
 70
     2
  9
$SPLFRAME
 70
     0
  9
$SPLINETYPE
 70
     6
  9
$SPLINESEGS
 70
     8
  9
$ATTDIA
 70
     0
  9
$ATTREQ
 70
     1
  9
$HANDLING
 70
     1
  9
$HANDSEED
  5
97E
  9
$SURFTAB1
 70
     6
  9
$SURFTAB2
 70
     6
  9
$SURFTYPE
 70
     6
  9
$SURFU
 70
     6
  9
$SURFV
 70
     6
  9
$UCSNAME
  2

  9
$UCSORG
 10
0.0
 20
0.0
 30
0.0
  9
$UCSXDIR
 10
1.0
 20
0.0
 30
0.0
  9
$UCSYDIR
 10
0.0
 20
1.0
 30
0.0
  9
$PUCSNAME
  2

  9
$PUCSORG
 10
0.0
 20
0.0
 30
0.0
  9
$PUCSXDIR
 10
1.0
 20
0.0
 30
0.0
  9
$PUCSYDIR
 10
0.0
 20
1.0
 30
0.0
  9
$USERI1
 70
     0
  9
$USERI2
 70
     0
  9
$USERI3
 70
     0
  9
$USERI4
 70
     0
  9
$USERI5
 70
     0
  9
$USERR1
 40
0.0
  9
$USERR2
 40
0.0
  9
$USERR3
 40
0.0
  9
$USERR4
 40
0.0
  9
$USERR5
 40
0.0
  9
$WORLDVIEW
 70
     1
  9
$SHADEDGE
 70
     3
  9
$SHADEDIF
 70
    70
  9
$TILEMODE
 70
     1
  9
$MAXACTVP
 70
    16
  9
$PLIMCHECK
 70
     0
  9
$PEXTMIN
 10
1.0000000000000000E+020
 20
1.0000000000000000E+020
 30
1.0000000000000000E+020
  9
$PEXTMAX
 10
-1.0000000000000000E+020
 20
-1.0000000000000000E+020
 30
-1.0000000000000000E+020
  9
$PLIMMIN
 10
0.0
 20
0.0
  9
$PLIMMAX
 10
12.0
 20
9.0
  9
$UNITMODE
 70
     0
  9
$VISRETAIN
 70
     0
  9
$PLINEGEN
 70
     1
  9
$PSLTSCALE
 70
     0
  0
ENDSEC
  0
SECTION
  2
TABLES
  0
TABLE
  2
VPORT
 70
     2
  0
VPORT
  2
*ACTIVE
 70
     0
 10
0.0
 20
0.0
 11
1.0
 21
1.0
 12
1113.9949998116001
 22
-151.874166524
 13
0.0
 23
0.0
 14
1.0
 24
1.0
 15
0.0
 25
0.0
 16
0.0
 26
0.0
 36
1.0
 17
0.0
 27
0.0
 37
0.0
 40
727.13464730290445
 41
1.6343490304709141
 42
50.0
 43
0.0
 44
0.0
 50
0.0
 51
0.0
 71
     0
 72
   100
 73
     1
 74
     1
 75
     0
 76
     0
 77
     0
 78
     0
  0
ENDTAB
  0
TABLE
  2
LTYPE
 70
    11
  0
LTYPE
  2
CONTINUOUS
 70
     0
  3
Solid line
 72
    65
 73
     0
 40
0.0
  0
LTYPE
  2
DOT
 70
     0
  3
. . . . . . . . 
 72
    65
 73
     2
 40
1.0
 49
0.0
 49
-1.0
  0
LTYPE
  2
DASHED
 70
     0
  3
___  ___  ___  ___  
 72
    65
 73
     2
 40
4.0
 49
3.0
 49
-1.0
  0
LTYPE
  2
HIDDEN
 70
     0
  3
__ __ __ __ 
 72
    65
 73
     2
 40
3.0
 49
2.0
 49
-1.0
  0
LTYPE
  2
STITCH
 70
     0
  3
_ _ _ _ 
 72
    65
 73
     2
 40
2.0
 49
1.0
 49
-1.0
  0
LTYPE
  2
CENTER
 70
     0
  3
______  __  ______  __  
 72
    65
 73
     4
 40
43.0
 49
40.0
 49
-1.0
 49
1.0
 49
-1.0
  0
LTYPE
  2
DASHDOT
 70
     0
  3
____ . ____ . 
 72
    65
 73
     4
 40
32.0
 49
30.0
 49
-1.0
 49
0.0
 49
-1.0
  0
LTYPE
  2
BORDER
 70
     0
  3
__ . __ . 
 72
    65
 73
     4
 40
22.0
 49
20.0
 49
-1.0
 49
0.0
 49
-1.0
  0
LTYPE
  2
CUTTING
 70
     0
  3
________   ___   ___   
 72
    65
 73
     6
 40
45.0
 49
40.0
 49
-1.0
 49
1.0
 49
-1.0
 49
1.0
 49
-1.0
  0
LTYPE
  2
PHANTOM
 70
     0
  3
______  __  __  
 72
    65
 73
     6
 40
35.0
 49
30.0
 49
-1.0
 49
1.0
 49
-1.0
 49
1.0
 49
-1.0
  0
LTYPE
  2
DIVIDE
 70
     0
  3
____ . . ____ . . 
 72
    65
 73
     6
 40
23.0
 49
20.0
 49
-1.0
 49
0.0
 49
-1.0
 49
0.0
 49
-1.0
  0
ENDTAB
  0
TABLE
  2
LAYER
 70
     5
  0
LAYER
  2
0
 70
     0
 62
     7
  6
CONTINUOUS
  0
LAYER
  2
寸法線
 70
     0
 62
     7
  6
CONTINUOUS
  0
LAYER
  2
図枠
 70
     0
 62
     7
  6
CONTINUOUS
  0
LAYER
  2
ﾚｲﾔ_1
 70
     0
 62
     7
  6
CONTINUOUS
  0
LAYER
  2
改訂
 70
     0
 62
     7
  6
CONTINUOUS
  0
ENDTAB
  0
TABLE
  2
STYLE
 70
     1
  0
STYLE
  2
STANDARD
 70
     0
 40
0.0
 41
1.0
 50
0.0
 71
     0
 42
0.0
  3
txt
  4
extfont
  0
ENDTAB
  0
TABLE
  2
VIEW
 70
     0
  0
ENDTAB
  0
TABLE
  2
UCS
 70
     0
  0
ENDTAB
  0
TABLE
  2
APPID
 70
     2
  0
APPID
  2
ACAD
 70
     0
  0
APPID
  2
DCO15
 70
     0
  0
ENDTAB
  0
TABLE
  2
DIMSTYLE
 70
     3
  0
DIMSTYLE
  2
STANDARD
 70
     0
  3

  4

  5

  6

  7

 40
1.0
 41
0.18
 42
0.0625
 43
0.38
 44
0.18
 45
0.0
 46
0.0
 47
0.0
 48
0.0
140
0.18
141
0.09
142
0.0
143
25.399999999999999
144
1.0
145
0.0
146
1.0
147
0.09
 71
     0
 72
     0
 73
     1
 74
     1
 75
     0
 76
     0
 77
     0
 78
     0
170
     0
171
     2
172
     0
173
     0
174
     0
175
     0
176
     0
177
     0
178
     0
  0
DIMSTYLE
  2
VELDIM0
 70
     0
  3

  4

  5

  6

  7

 40
1.0
 41
7.5
 42
0.0625
 43
0.38
 44
1.0
 45
0.0
 46
5.0
 47
0.0
 48
0.0
140
8.2461809158000001
141
0.09
142
0.0
143
25.399999999999999
144
1.0
145
0.0
146
1.0
147
0.09
 71
     0
 72
     0
 73
     0
 74
     0
 75
     0
 76
     0
 77
     0
 78
     8
170
     0
171
     2
172
     0
173
     0
174
     0
175
     0
176
     0
177
     0
178
     0
  0
DIMSTYLE
  2
VELDIM1
 70
     0
  3

  4

  5

  6

  7

 40
1.0
 41
7.5
 42
0.0625
 43
0.38
 44
1.25
 45
0.0
 46
5.0
 47
0.0
 48
0.0
140
8.2461809158000001
141
0.09
142
0.0
143
25.399999999999999
144
1.0
145
0.0
146
1.0
147
0.09
 71
     0
 72
     0
 73
     0
 74
     0
 75
     0
 76
     0
 77
     0
 78
     8
170
     0
171
     2
172
     0
173
     0
174
     0
175
     0
176
     0
177
     0
178
     0
  0
ENDTAB
  0
ENDSEC
  0
SECTION
  2
BLOCKS
  0
BLOCK
  8
0
  2
$MODEL_SPACE
 70
     0
 10
0.0
 20
0.0
 30
0.0
  3
$MODEL_SPACE
  1

  0
ENDBLK
  5
E
  8
0
  0
BLOCK
 67
     1
  8
0
  2
$PAPER_SPACE
 70
     0
 10
0.0
 20
0.0
 30
0.0
  3
$PAPER_SPACE
  1

  0
ENDBLK
  5
10
 67
     1
  8
0
  0
BLOCK
  8
0
  2
*D0
 70
     1
 10
0.0
 20
0.0
 30
0.0
  3
*D0
  1

  0
TEXT
  5
31
  8
0
 62
     0
 10
1477.4187559449999
 20
124.82853504640001
 30
0.0
 40
8.2461809158000001
  1
30
  0
LINE
  5
32
  8
0
 62
     0
 10
1497.2694506014
 20
95.798991551299977
 30
0.0
 11
1497.2694506014
 21
123.3733266495
 31
0.0
  0
LINE
  5
33
  8
0
 62
     0
 10
1467.2694506014
 20
86.798991551300006
 30
0.0
 11
1467.2694506014
 21
123.3733266495
 31
0.0
  0
LINE
  5
34
  8
0
 62
     0
 10
1497.2694506014
 20
122.3733266495
 30
0.0
 11
1491.9708399141
 21
122.3733266495
 31
0.0
  0
LINE
  5
35
  8
0
 62
     0
 10
1497.2694506014
 20
122.3733266495
 30
0.0
 11
1472.5680612885999
 21
122.3733266495
 31
0.0
  0
LINE
  5
36
  8
0
 62
     0
 10
1467.2694506014
 20
122.3733266495
 30
0.0
 11
1491.9708399141
 21
122.3733266495
 31
0.0
  0
LINE
  5
37
  8
0
 62
     0
 10
1467.2694506014
 20
122.3733266495
 30
0.0
 11
1472.5680612885999
 21
122.3733266495
 31
0.0
  0
LINE
  5
38
  8
0
 62
     0
 10
1467.2694506014
 20
122.3733266495
 30
0.0
 11
1462.2694506014
 21
122.3733266495
 31
0.0
  0
SOLID
  5
39
  8
0
 62
     0
 10
1467.2694506014
 20
122.3733266495
 30
0.0
 11
1459.7694506014
 21
120.4983266495
 31
0.0
 12
1459.7694506014
 22
124.2483266495
 32
0.0
 13
1461.6444506014
 23
122.3733266495
 33
0.0
  0
LINE
  5
3A
  8
0
 62
     0
 10
1497.2694506014
 20
122.3733266495
 30
0.0
 11
1502.2694506014
 21
122.3733266495
 31
0.0
  0
SOLID
  5
3B
  8
0
 62
     0
 10
1497.2694506014
 20
122.3733266495
 30
0.0
 11
1504.7694506014
 21
124.2483266495
 31
0.0
 12
1504.7694506014
 22
120.4983266495
 32
0.0
 13
1502.8944506014
 23
122.3733266495
 33
0.0
  0
ENDBLK
  5
3C
  8
0
  0
BLOCK
  8
0
  2
*D1
 70
     1
 10
0.0
 20
0.0
 30
0.0
  3
*D1
  1

  0
TEXT
  5
41
  8
0
 62
     0
 10
1320.2125244776
 20
-2.1268140288999988
 30
0.0
 40
8.2461809158000001
  1
9
 50
90.0
  0
LINE
  5
42
  8
0
 62
     0
 10
1297.6051432291999
 20
-4.2014667007000002
 30
0.0
 11
1323.6677328746
 21
-4.2014667007000002
 31
0.0
  0
LINE
  5
43
  8
0
 62
     0
 10
1288.6051432291999
 20
4.7985332992999989
 30
0.0
 11
1323.6677328746
 21
4.7985332992999989
 31
0.0
  0
LINE
  5
44
  8
0
 62
     0
 10
1322.6677328746
 20
-4.2014667007000002
 30
0.0
 11
1322.6677328746
 21
-4.2014667007000002
 31
0.0
  0
LINE
  5
45
  8
0
 62
     0
 10
1322.6677328746
 20
-4.2014667007000002
 30
0.0
 11
1322.6677328746
 21
4.7985332992999989
 31
0.0
  0
LINE
  5
46
  8
0
 62
     0
 10
1322.6677328746
 20
4.7985332992999989
 30
0.0
 11
1322.6677328746
 21
-4.2014667007000002
 31
0.0
  0
LINE
  5
47
  8
0
 62
     0
 10
1322.6677328746
 20
4.7985332992999989
 30
0.0
 11
1322.6677328746
 21
4.7985332992999989
 31
0.0
  0
LINE
  5
48
  8
0
 62
     0
 10
1322.6677328746
 20
4.7985332992999989
 30
0.0
 11
1322.6677328746
 21
9.7985332992999972
 31
0.0
  0
SOLID
  5
49
  8
0
 62
     0
 10
1322.6677328746
 20
4.7985332992999989
 30
0.0
 11
1320.7927328746
 21
12.298533299300001
 31
0.0
 12
1324.5427328746
 22
12.298533299300001
 32
0.0
 13
1322.6677328746
 23
10.423533299300001
 33
0.0
  0
LINE
  5
4A
  8
0
 62
     0
 10
1322.6677328746
 20
-4.2014667007000002
 30
0.0
 11
1322.6677328746
 21
-9.2014667007000011
 31
0.0
  0
SOLID
  5
4B
  8
0
 62
     0
 10
1322.6677328746
 20
-4.2014667007000002
 30
0.0
 11
1324.5427328746
 21
-11.701466700699999
 31
0.0
 12
1320.7927328746
 22
-11.701466700699999
 32
0.0
 13
1322.6677328746
 23
-9.8264667007000011
 33
0.0
  0
ENDBLK
  5
4C
  8
0
  0
BLOCK
  8
0
  2
*D2
 70
     1
 10
0.0
 20
0.0
 30
0.0
  3
*D2
  1

  0
TEXT
  5
50
  8
0
 62
     0
 10
1314.3302479426
 20
-61.281176008000003
 30
0.0
 40
8.2461809158000001
  1
6
 50
90.0
  0
LINE
  5
51
  8
0
 62
     0
 10
1297.6051432291999
 20
-61.8558286799
 30
0.0
 11
1317.7854563394999
 21
-61.8558286799
 31
0.0
  0
LINE
  5
52
  8
0
 62
     0
 10
1296.8051432292
 20
-55.8558286799
 30
0.0
 11
1317.7854563394999
 21
-55.8558286799
 31
0.0
  0
LINE
  5
53
  8
0
 62
     0
 10
1316.7854563394999
 20
-61.8558286799
 30
0.0
 11
1316.7854563394999
 21
-61.8558286799
 31
0.0
  0
LINE
  5
54
  8
0
 62
     0
 10
1316.7854563394999
 20
-61.8558286799
 30
0.0
 11
1316.7854563394999
 21
-55.8558286799
 31
0.0
  0
LINE
  5
55
  8
0
 62
     0
 10
1316.7854563394999
 20
-55.8558286799
 30
0.0
 11
1316.7854563394999
 21
-61.8558286799
 31
0.0
  0
LINE
  5
56
  8
0
 62
     0
 10
1316.7854563394999
 20
-55.8558286799
 30
0.0
 11
1316.7854563394999
 21
-55.8558286799
 31
0.0
  0
LINE
  5
57
  8
0
 62
     0
 10
1316.7854563394999
 20
-55.8558286799
 30
0.0
 11
1316.7854563394999
 21
-50.8558286799
 31
0.0
  0
SOLID
  5
58
  8
0
 62
     0
 10
1316.7854563394999
 20
-55.8558286799
 30
0.0
 11
1314.9104563394999
 21
-48.3558286799
 31
0.0
 12
1318.6604563394999
 22
-48.3558286799
 32
0.0
 13
1316.7854563394999
 23
-50.2308286799
 33
0.0
  0
LINE
  5
59
  8
0
 62
     0
 10
1316.7854563394999
 20
-61.8558286799
 30
0.0
 11
1316.7854563394999
 21
-66.8558286799
 31
0.0
  0
SOLID
  5
5A
  8
0
 62
     0
 10
1316.7854563394999
 20
-61.8558286799
 30
0.0
 11
1318.6604563394999
 21
-69.3558286799
 31
0.0
 12
1314.9104563394999
 22
-69.3558286799
 32
0.0
 13
1316.7854563394999
 23
-67.4808286799
 33
0.0
  0
ENDBLK
  5
5B
  8
0
  0
BLOCK
  8
0
  2
*D3
 70
     1
 10
0.0
 20
0.0
 30
0.0
  3
*D3
  1

  0
TEXT
  5
5F
  8
0
 62
     0
 10
1314.3302479426
 20
-85.281176007999989
 30
0.0
 40
8.2461809158000001
  1
6
 50
90.0
  0
LINE
  5
60
  8
0
 62
     0
 10
1296.8051432292
 20
-85.8558286799
 30
0.0
 11
1317.7854563394999
 21
-85.8558286799
 31
0.0
  0
LINE
  5
61
  8
0
 62
     0
 10
1297.6051432291999
 20
-79.8558286799
 30
0.0
 11
1317.7854563394999
 21
-79.8558286799
 31
0.0
  0
LINE
  5
62
  8
0
 62
     0
 10
1316.7854563394999
 20
-85.8558286799
 30
0.0
 11
1316.7854563394999
 21
-85.8558286799
 31
0.0
  0
LINE
  5
63
  8
0
 62
     0
 10
1316.7854563394999
 20
-85.8558286799
 30
0.0
 11
1316.7854563394999
 21
-79.8558286799
 31
0.0
  0
LINE
  5
64
  8
0
 62
     0
 10
1316.7854563394999
 20
-79.8558286799
 30
0.0
 11
1316.7854563394999
 21
-85.8558286799
 31
0.0
  0
LINE
  5
65
  8
0
 62
     0
 10
1316.7854563394999
 20
-79.8558286799
 30
0.0
 11
1316.7854563394999
 21
-79.8558286799
 31
0.0
  0
LINE
  5
66
  8
0
 62
     0
 10
1316.7854563394999
 20
-79.8558286799
 30
0.0
 11
1316.7854563394999
 21
-74.8558286799
 31
0.0
  0
SOLID
  5
67
  8
0
 62
     0
 10
1316.7854563394999
 20
-79.8558286799
 30
0.0
 11
1314.9104563394999
 21
-72.3558286799
 31
0.0
 12
1318.6604563394999
 22
-72.3558286799
 32
0.0
 13
1316.7854563394999
 23
-74.2308286799
 33
0.0
  0
LINE
  5
68
  8
0
 62
     0
 10
1316.7854563394999
 20
-85.8558286799
 30
0.0
 11
1316.7854563394999
 21
-90.8558286799
 31
0.0
  0
SOLID
  5
69
  8
0
 62
     0
 10
1316.7854563394999
 20
-85.8558286799
 30
0.0
 11
1318.6604563394999
 21
-93.3558286799
 31
0.0
 12
1314.9104563394999
 22
-93.3558286799
 32
0.0
 13
1316.7854563394999
 23
-91.4808286799
 33
0.0
  0
ENDBLK
  5
6A
  8
0
  0
BLOCK
  8
0
  2
*D4
 70
     1
 10
0.0
 20
0.0
 30
0.0
  3
*D4
  1

  0
TEXT
  5
6E
  8
0
 62
     0
 10
698.65570730959996
 20
129.0468096283
 30
0.0
 40
8.2461809158000001
  1
9
  0
LINE
  5
6F
  8
0
 62
     0
 10
706.60514322919994
 20
86.798533299300004
 30
0.0
 11
706.60514322919994
 21
127.59160123140001
 31
0.0
  0
LINE
  5
70
  8
0
 62
     0
 10
697.60514322919994
 20
95.798533299300004
 30
0.0
 11
697.60514322919994
 21
127.59160123140001
 31
0.0
  0
LINE
  5
71
  8
0
 62
     0
 10
706.60514322919994
 20
126.59160123140001
 30
0.0
 11
706.60514322919994
 21
126.59160123140001
 31
0.0
  0
LINE
  5
72
  8
0
 62
     0
 10
706.60514322919994
 20
126.59160123140001
 30
0.0
 11
697.60514322919994
 21
126.59160123140001
 31
0.0
  0
LINE
  5
73
  8
0
 62
     0
 10
697.60514322919994
 20
126.59160123140001
 30
0.0
 11
706.60514322919994
 21
126.59160123140001
 31
0.0
  0
LINE
  5
74
  8
0
 62
     0
 10
697.60514322919994
 20
126.59160123140001
 30
0.0
 11
697.60514322919994
 21
126.59160123140001
 31
0.0
  0
LINE
  5
75
  8
0
 62
     0
 10
697.60514322919994
 20
126.59160123140001
 30
0.0
 11
692.60514322919994
 21
126.59160123140001
 31
0.0
  0
SOLID
  5
76
  8
0
 62
     0
 10
697.60514322919994
 20
126.59160123140001
 30
0.0
 11
690.10514322919994
 21
124.71660123140001
 31
0.0
 12
690.10514322919994
 22
128.46660123140001
 32
0.0
 13
691.98014322919994
 23
126.59160123140001
 33
0.0
  0
LINE
  5
77
  8
0
 62
     0
 10
706.60514322919994
 20
126.59160123140001
 30
0.0
 11
711.60514322919994
 21
126.59160123140001
 31
0.0
  0
SOLID
  5
78
  8
0
 62
     0
 10
706.60514322919994
 20
126.59160123140001
 30
0.0
 11
714.10514322919994
 21
128.46660123140001
 31
0.0
 12
714.10514322919994
 22
124.71660123140001
 32
0.0
 13
712.23014322919994
 23
126.59160123140001
 33
0.0
  0
ENDBLK
  5
79
  8
0
  0
BLOCK
  8
0
  2
*D5
 70
     1
 10
0.0
 20
0.0
 30
0.0
  3
*D5
  1

  0
TEXT
  5
7D
  8
0
 62
     0
 10
1337.1435948054
 20
39.947838642900003
 30
0.0
 40
8.2461809158000001
  1
98
 50
90.0
  0
LINE
  5
7E
  8
0
 62
     0
 10
1297.6051432291999
 20
-4.2014667007000002
 30
0.0
 11
1340.5988032022999
 21
-4.2014667007000002
 31
0.0
  0
LINE
  5
7F
  8
0
 62
     0
 10
1297.6051432291999
 20
93.798533299300004
 30
0.0
 11
1340.5988032022999
 21
93.798533299300004
 31
0.0
  0
LINE
  5
80
  8
0
 62
     0
 10
1339.5988032022999
 20
-4.2014667007000002
 30
0.0
 11
1339.5988032022999
 21
54.499922611999999
 31
0.0
  0
LINE
  5
81
  8
0
 62
     0
 10
1339.5988032022999
 20
-4.2014667007000002
 30
0.0
 11
1339.5988032022999
 21
35.097143986600003
 31
0.0
  0
LINE
  5
82
  8
0
 62
     0
 10
1339.5988032022999
 20
93.798533299300004
 30
0.0
 11
1339.5988032022999
 21
54.499922611999999
 31
0.0
  0
LINE
  5
83
  8
0
 62
     0
 10
1339.5988032022999
 20
93.798533299300004
 30
0.0
 11
1339.5988032022999
 21
35.097143986600003
 31
0.0
  0
LINE
  5
84
  8
0
 62
     0
 10
1339.5988032022999
 20
93.798533299300004
 30
0.0
 11
1339.5988032022999
 21
88.798533299300004
 31
0.0
  0
SOLID
  5
85
  8
0
 62
     0
 10
1339.5988032022999
 20
93.798533299300004
 30
0.0
 11
1341.4738032022999
 21
86.298533299300004
 31
0.0
 12
1337.7238032022999
 22
86.298533299300004
 32
0.0
 13
1339.5988032022999
 23
88.173533299300004
 33
0.0
  0
LINE
  5
86
  8
0
 62
     0
 10
1339.5988032022999
 20
-4.2014667007000002
 30
0.0
 11
1339.5988032022999
 21
0.7985332993000001
 31
0.0
  0
SOLID
  5
87
  8
0
 62
     0
 10
1339.5988032022999
 20
-4.2014667007000002
 30
0.0
 11
1337.7238032022999
 21
3.2985332992999998
 31
0.0
 12
1341.4738032022999
 22
3.2985332992999998
 32
0.0
 13
1339.5988032022999
 23
1.4235332993000001
 33
0.0
  0
ENDBLK
  5
88
  8
0
  0
BLOCK
  8
0
  2
*D6
 70
     1
 10
0.0
 20
0.0
 30
0.0
  3
*D6
  1

  0
TEXT
  5
8C
  8
0
 62
     0
 10
1388.7346329203999
 20
-151.8091998326
 30
0.0
 40
8.2461809158000001
  1
14
  0
LINE
  5
8D
  8
0
 62
     0
 10
1400.5853275768
 20
-172.26440822949999
 30
0.0
 11
1400.5853275768
 21
-153.26440822949999
 31
0.0
  0
LINE
  5
8E
  8
0
 62
     0
 10
1386.5853275768
 20
-173.7644076787
 30
0.0
 11
1386.5853275768
 21
-153.26440822949999
 31
0.0
  0
LINE
  5
8F
  8
0
 62
     0
 10
1400.5853275768
 20
-154.26440822949999
 30
0.0
 11
1400.5853275768
 21
-154.26440822949999
 31
0.0
  0
LINE
  5
90
  8
0
 62
     0
 10
1400.5853275768
 20
-154.26440822949999
 30
0.0
 11
1386.5853275768
 21
-154.26440822949999
 31
0.0
  0
LINE
  5
91
  8
0
 62
     0
 10
1386.5853275768
 20
-154.26440822949999
 30
0.0
 11
1400.5853275768
 21
-154.26440822949999
 31
0.0
  0
LINE
  5
92
  8
0
 62
     0
 10
1386.5853275768
 20
-154.26440822949999
 30
0.0
 11
1386.5853275768
 21
-154.26440822949999
 31
0.0
  0
LINE
  5
93
  8
0
 62
     0
 10
1386.5853275768
 20
-154.26440822949999
 30
0.0
 11
1381.5853275768
 21
-154.26440822949999
 31
0.0
  0
SOLID
  5
94
  8
0
 62
     0
 10
1386.5853275768
 20
-154.26440822949999
 30
0.0
 11
1379.0853275768
 21
-156.13940822949999
 31
0.0
 12
1379.0853275768
 22
-152.38940822949999
 32
0.0
 13
1380.9603275768
 23
-154.26440822949999
 33
0.0
  0
LINE
  5
95
  8
0
 62
     0
 10
1400.5853275768
 20
-154.26440822949999
 30
0.0
 11
1405.5853275768
 21
-154.26440822949999
 31
0.0
  0
SOLID
  5
96
  8
0
 62
     0
 10
1400.5853275768
 20
-154.26440822949999
 30
0.0
 11
1408.0853275768
 21
-152.38940822949999
 31
0.0
 12
1408.0853275768
 22
-156.13940822949999
 32
0.0
 13
1406.2103275768
 23
-154.26440822949999
 33
0.0
  0
ENDBLK
  5
97
  8
0
  0
BLOCK
  8
0
  2
*D7
 70
     1
 10
0.0
 20
0.0
 30
0.0
  3
*D7
  1

  0
TEXT
  5
9B
  8
0
 62
     0
 10
1320.2523848538001
 20
-218.96747875080001
 30
0.0
 40
8.2461809158000001
  1
79
 50
90.0
  0
LINE
  5
9C
  8
0
 62
     0
 10
1280.0931485179999
 20
-253.26440822949999
 30
0.0
 11
1323.7075932507
 21
-253.26440822949999
 31
0.0
  0
LINE
  5
9D
  8
0
 62
     0
 10
1280.0931485179999
 20
-174.26440822949999
 30
0.0
 11
1323.7075932507
 21
-174.26440822949999
 31
0.0
  0
LINE
  5
9E
  8
0
 62
     0
 10
1322.7075932507
 20
-253.26440822949999
 30
0.0
 11
1322.7075932507
 21
-204.4153947817
 31
0.0
  0
LINE
  5
9F
  8
0
 62
     0
 10
1322.7075932507
 20
-253.26440822949999
 30
0.0
 11
1322.7075932507
 21
-223.81817340719999
 31
0.0
  0
LINE
  5
A0
  8
0
 62
     0
 10
1322.7075932507
 20
-174.26440822949999
 30
0.0
 11
1322.7075932507
 21
-204.4153947817
 31
0.0
  0
LINE
  5
A1
  8
0
 62
     0
 10
1322.7075932507
 20
-174.26440822949999
 30
0.0
 11
1322.7075932507
 21
-223.81817340719999
 31
0.0
  0
LINE
  5
A2
  8
0
 62
     0
 10
1322.7075932507
 20
-174.26440822949999
 30
0.0
 11
1322.7075932507
 21
-179.26440822949999
 31
0.0
  0
SOLID
  5
A3
  8
0
 62
     0
 10
1322.7075932507
 20
-174.26440822949999
 30
0.0
 11
1324.5825932507
 21
-181.76440822949999
 31
0.0
 12
1320.8325932507
 22
-181.76440822949999
 32
0.0
 13
1322.7075932507
 23
-179.88940822949999
 33
0.0
  0
LINE
  5
A4
  8
0
 62
     0
 10
1322.7075932507
 20
-253.26440822949999
 30
0.0
 11
1322.7075932507
 21
-248.26440822949999
 31
0.0
  0
SOLID
  5
A5
  8
0
 62
     0
 10
1322.7075932507
 20
-253.26440822949999
 30
0.0
 11
1320.8325932507
 21
-245.76440822949999
 31
0.0
 12
1324.5825932507
 22
-245.76440822949999
 32
0.0
 13
1322.7075932507
 23
-247.63940822949999
 33
0.0
  0
ENDBLK
  5
A6
  8
0
  0
BLOCK
  8
0
  2
*D8
 70
     1
 10
0.0
 20
0.0
 30
0.0
  3
*D8
  1

  0
TEXT
  5
AA
  8
0
 62
     0
 10
1300.6379401211
 20
-206.1151028859
 30
0.0
 40
8.2461809158000001
  1
25
 50
90.0
  0
LINE
  5
AB
  8
0
 62
     0
 10
1285.0931485179999
 20
-213.76440822949999
 30
0.0
 11
1304.0931485179999
 21
-213.76440822949999
 31
0.0
  0
LINE
  5
AC
  8
0
 62
     0
 10
1264.3431485179999
 20
-188.76440822949999
 30
0.0
 11
1304.0931485179999
 21
-188.76440822949999
 31
0.0
  0
LINE
  5
AD
  8
0
 62
     0
 10
1303.0931485179999
 20
-213.76440822949999
 30
0.0
 11
1303.0931485179999
 21
-191.5630189167
 31
0.0
  0
LINE
  5
AE
  8
0
 62
     0
 10
1303.0931485179999
 20
-213.76440822949999
 30
0.0
 11
1303.0931485179999
 21
-210.96579754219999
 31
0.0
  0
LINE
  5
AF
  8
0
 62
     0
 10
1303.0931485179999
 20
-188.76440822949999
 30
0.0
 11
1303.0931485179999
 21
-191.5630189167
 31
0.0
  0
LINE
  5
B0
  8
0
 62
     0
 10
1303.0931485179999
 20
-188.76440822949999
 30
0.0
 11
1303.0931485179999
 21
-210.96579754219999
 31
0.0
  0
LINE
  5
B1
  8
0
 62
     0
 10
1303.0931485179999
 20
-188.76440822949999
 30
0.0
 11
1303.0931485179999
 21
-183.76440822949999
 31
0.0
  0
SOLID
  5
B2
  8
0
 62
     0
 10
1303.0931485179999
 20
-188.76440822949999
 30
0.0
 11
1301.2181485179999
 21
-181.26440822949999
 31
0.0
 12
1304.9681485179999
 22
-181.26440822949999
 32
0.0
 13
1303.0931485179999
 23
-183.13940822949999
 33
0.0
  0
LINE
  5
B3
  8
0
 62
     0
 10
1303.0931485179999
 20
-213.76440822949999
 30
0.0
 11
1303.0931485179999
 21
-218.76440822949999
 31
0.0
  0
SOLID
  5
B4
  8
0
 62
     0
 10
1303.0931485179999
 20
-213.76440822949999
 30
0.0
 11
1304.9681485179999
 21
-221.26440822949999
 31
0.0
 12
1301.2181485179999
 22
-221.26440822949999
 32
0.0
 13
1303.0931485179999
 23
-219.38940822949999
 33
0.0
  0
ENDBLK
  5
B5
  8
0
  0
BLOCK
  8
0
  2
*D9
 70
     1
 10
0.0
 20
0.0
 30
0.0
  3
*D9
  1

  0
TEXT
  5
B9
  8
0
 62
     0
 10
1133.9924538616999
 20
-275.80919983259997
 30
0.0
 40
8.2461809158000001
  1
75
  0
LINE
  5
BA
  8
0
 62
     0
 10
1101.3431485179999
 20
-244.26440822949999
 30
0.0
 11
1101.3431485179999
 21
-279.26440822950002
 31
0.0
  0
LINE
  5
BB
  8
0
 62
     0
 10
1176.3431485179999
 20
-244.26440822949999
 30
0.0
 11
1176.3431485179999
 21
-279.26440822950002
 31
0.0
  0
LINE
  5
BC
  8
0
 62
     0
 10
1101.3431485179999
 20
-278.26440822950002
 30
0.0
 11
1148.5445378308
 21
-278.26440822950002
 31
0.0
  0
LINE
  5
BD
  8
0
 62
     0
 10
1101.3431485179999
 20
-278.26440822950002
 30
0.0
 11
1129.1417592053001
 21
-278.26440822950002
 31
0.0
  0
LINE
  5
BE
  8
0
 62
     0
 10
1176.3431485179999
 20
-278.26440822950002
 30
0.0
 11
1148.5445378308
 21
-278.26440822950002
 31
0.0
  0
LINE
  5
BF
  8
0
 62
     0
 10
1176.3431485179999
 20
-278.26440822950002
 30
0.0
 11
1129.1417592053001
 21
-278.26440822950002
 31
0.0
  0
LINE
  5
C0
  8
0
 62
     0
 10
1176.3431485179999
 20
-278.26440822950002
 30
0.0
 11
1171.3431485179999
 21
-278.26440822950002
 31
0.0
  0
SOLID
  5
C1
  8
0
 62
     0
 10
1176.3431485179999
 20
-278.26440822950002
 30
0.0
 11
1168.8431485179999
 21
-280.13940822950002
 31
0.0
 12
1168.8431485179999
 22
-276.38940822950002
 32
0.0
 13
1170.7181485179999
 23
-278.26440822950002
 33
0.0
  0
LINE
  5
C2
  8
0
 62
     0
 10
1101.3431485179999
 20
-278.26440822950002
 30
0.0
 11
1106.3431485179999
 21
-278.26440822950002
 31
0.0
  0
SOLID
  5
C3
  8
0
 62
     0
 10
1101.3431485179999
 20
-278.26440822950002
 30
0.0
 11
1108.8431485179999
 21
-276.38940822950002
 31
0.0
 12
1108.8431485179999
 22
-280.13940822950002
 32
0.0
 13
1106.9681485179999
 23
-278.26440822950002
 33
0.0
  0
ENDBLK
  5
C4
  8
0
  0
BLOCK
  8
0
  2
*D10
 70
     1
 10
0.0
 20
0.0
 30
0.0
  3
*D10
  1

  0
TEXT
  5
C8
  8
0
 62
     0
 10
978.13119781859996
 20
-146.8091998326
 30
0.0
 40
8.2461809158000001
  1
578.5
  0
LINE
  5
C9
  8
0
 62
     0
 10
1278.0931485179999
 20
-172.26440822949999
 30
0.0
 11
1278.0931485179999
 21
-148.26440822949999
 31
0.0
  0
LINE
  5
CA
  8
0
 62
     0
 10
699.59314851800002
 20
-172.26440822949999
 30
0.0
 11
699.59314851800002
 21
-148.26440822949999
 31
0.0
  0
LINE
  5
CB
  8
0
 62
     0
 10
1278.0931485179999
 20
-149.26440822949999
 30
0.0
 11
1004.4057938739001
 21
-149.26440822949999
 31
0.0
  0
LINE
  5
CC
  8
0
 62
     0
 10
1278.0931485179999
 20
-149.26440822949999
 30
0.0
 11
973.28050316220003
 21
-149.26440822949999
 31
0.0
  0
LINE
  5
CD
  8
0
 62
     0
 10
699.59314851800002
 20
-149.26440822949999
 30
0.0
 11
1004.4057938739001
 21
-149.26440822949999
 31
0.0
  0
LINE
  5
CE
  8
0
 62
     0
 10
699.59314851800002
 20
-149.26440822949999
 30
0.0
 11
973.28050316220003
 21
-149.26440822949999
 31
0.0
  0
LINE
  5
CF
  8
0
 62
     0
 10
699.59314851800002
 20
-149.26440822949999
 30
0.0
 11
704.59314851800002
 21
-149.26440822949999
 31
0.0
  0
SOLID
  5
D0
  8
0
 62
     0
 10
699.59314851800002
 20
-149.26440822949999
 30
0.0
 11
707.09314851800002
 21
-147.38940822949999
 31
0.0
 12
707.09314851800002
 22
-151.13940822949999
 32
0.0
 13
705.21814851800002
 23
-149.26440822949999
 33
0.0
  0
LINE
  5
D1
  8
0
 62
     0
 10
1278.0931485179999
 20
-149.26440822949999
 30
0.0
 11
1273.0931485179999
 21
-149.26440822949999
 31
0.0
  0
SOLID
  5
D2
  8
0
 62
     0
 10
1278.0931485179999
 20
-149.26440822949999
 30
0.0
 11
1270.5931485179999
 21
-151.13940822949999
 31
0.0
 12
1270.5931485179999
 22
-147.38940822949999
 32
0.0
 13
1272.4681485179999
 23
-149.26440822949999
 33
0.0
  0
ENDBLK
  5
D3
  8
0
  0
BLOCK
  8
0
  2
*D11
 70
     1
 10
0.0
 20
0.0
 30
0.0
  3
*D11
  1

  0
TEXT
  5
D7
  8
0
 62
     0
 10
908.99245386169991
 20
-275.80919983259997
 30
0.0
 40
8.2461809158000001
  1
75
  0
LINE
  5
D8
  8
0
 62
     0
 10
876.34314851799991
 20
-244.26440822949999
 30
0.0
 11
876.34314851799991
 21
-279.26440822950002
 31
0.0
  0
LINE
  5
D9
  8
0
 62
     0
 10
951.34314851799991
 20
-244.26440822949999
 30
0.0
 11
951.34314851799991
 21
-279.26440822950002
 31
0.0
  0
LINE
  5
DA
  8
0
 62
     0
 10
876.34314851799991
 20
-278.26440822950002
 30
0.0
 11
923.54453783079998
 21
-278.26440822950002
 31
0.0
  0
LINE
  5
DB
  8
0
 62
     0
 10
876.34314851799991
 20
-278.26440822950002
 30
0.0
 11
904.14175920529988
 21
-278.26440822950002
 31
0.0
  0
LINE
  5
DC
  8
0
 62
     0
 10
951.34314851799991
 20
-278.26440822950002
 30
0.0
 11
923.54453783079998
 21
-278.26440822950002
 31
0.0
  0
LINE
  5
DD
  8
0
 62
     0
 10
951.34314851799991
 20
-278.26440822950002
 30
0.0
 11
904.14175920529988
 21
-278.26440822950002
 31
0.0
  0
LINE
  5
DE
  8
0
 62
     0
 10
951.34314851799991
 20
-278.26440822950002
 30
0.0
 11
946.34314851800002
 21
-278.26440822950002
 31
0.0
  0
SOLID
  5
DF
  8
0
 62
     0
 10
951.34314851799991
 20
-278.26440822950002
 30
0.0
 11
943.84314851800002
 21
-280.13940822950002
 31
0.0
 12
943.84314851800002
 22
-276.38940822950002
 32
0.0
 13
945.71814851799991
 23
-278.26440822950002
 33
0.0
  0
LINE
  5
E0
  8
0
 62
     0
 10
876.34314851799991
 20
-278.26440822950002
 30
0.0
 11
881.34314851800002
 21
-278.26440822950002
 31
0.0
  0
SOLID
  5
E1
  8
0
 62
     0
 10
876.34314851799991
 20
-278.26440822950002
 30
0.0
 11
883.84314851800002
 21
-276.38940822950002
 31
0.0
 12
883.84314851800002
 22
-280.13940822950002
 32
0.0
 13
881.96814851800002
 23
-278.26440822950002
 33
0.0
  0
ENDBLK
  5
E2
  8
0
  0
BLOCK
  8
0
  2
*D12
 70
     1
 10
0.0
 20
0.0
 30
0.0
  3
*D12
  1

  0
TEXT
  5
E6
  8
0
 62
     0
 10
1300.6379401211
 20
-166.6970372584
 30
0.0
 40
8.2461809158000001
  1
14.5
 50
90.0
  0
LINE
  5
E7
  8
0
 62
     0
 10
1264.3431485179999
 20
-188.76440822949999
 30
0.0
 11
1304.0931485179999
 21
-188.76440822949999
 31
0.0
  0
LINE
  5
E8
  8
0
 62
     0
 10
1280.0931485179999
 20
-174.26440822949999
 30
0.0
 11
1304.0931485179999
 21
-174.26440822949999
 31
0.0
  0
LINE
  5
E9
  8
0
 62
     0
 10
1303.0931485179999
 20
-188.76440822949999
 30
0.0
 11
1303.0931485179999
 21
-145.2731358595
 31
0.0
  0
LINE
  5
EA
  8
0
 62
     0
 10
1303.0931485179999
 20
-188.76440822949999
 30
0.0
 11
1303.0931485179999
 21
-171.54773191480001
 31
0.0
  0
LINE
  5
EB
  8
0
 62
     0
 10
1303.0931485179999
 20
-174.26440822949999
 30
0.0
 11
1303.0931485179999
 21
-145.2731358595
 31
0.0
  0
LINE
  5
EC
  8
0
 62
     0
 10
1303.0931485179999
 20
-174.26440822949999
 30
0.0
 11
1303.0931485179999
 21
-171.54773191480001
 31
0.0
  0
LINE
  5
ED
  8
0
 62
     0
 10
1303.0931485179999
 20
-174.26440822949999
 30
0.0
 11
1303.0931485179999
 21
-169.26440822949999
 31
0.0
  0
SOLID
  5
EE
  8
0
 62
     0
 10
1303.0931485179999
 20
-174.26440822949999
 30
0.0
 11
1301.2181485179999
 21
-166.76440822949999
 31
0.0
 12
1304.9681485179999
 22
-166.76440822949999
 32
0.0
 13
1303.0931485179999
 23
-168.63940822949999
 33
0.0
  0
LINE
  5
EF
  8
0
 62
     0
 10
1303.0931485179999
 20
-188.76440822949999
 30
0.0
 11
1303.0931485179999
 21
-193.76440822949999
 31
0.0
  0
SOLID
  5
F0
  8
0
 62
     0
 10
1303.0931485179999
 20
-188.76440822949999
 30
0.0
 11
1304.9681485179999
 21
-196.26440822949999
 31
0.0
 12
1301.2181485179999
 22
-196.26440822949999
 32
0.0
 13
1303.0931485179999
 23
-194.38940822949999
 33
0.0
  0
ENDBLK
  5
F1
  8
0
  0
BLOCK
  8
0
  2
*D13
 70
     1
 10
0.0
 20
0.0
 30
0.0
  3
*D13
  1

  0
TEXT
  5
F5
  8
0
 62
     0
 10
702.25619781859984
 20
-275.80919983259997
 30
0.0
 40
8.2461809158000001
  1
26.75
  0
LINE
  5
F6
  8
0
 62
     0
 10
699.59314851800002
 20
-255.26440822949999
 30
0.0
 11
699.59314851800002
 21
-279.26440822950002
 31
0.0
  0
LINE
  5
F7
  8
0
 62
     0
 10
726.34314851799991
 20
-244.26440822949999
 30
0.0
 11
726.34314851799991
 21
-279.26440822950002
 31
0.0
  0
LINE
  5
F8
  8
0
 62
     0
 10
699.59314851800002
 20
-278.26440822950002
 30
0.0
 11
699.59314851800002
 21
-278.26440822950002
 31
0.0
  0
LINE
  5
F9
  8
0
 62
     0
 10
699.59314851800002
 20
-278.26440822950002
 30
0.0
 11
726.34314851799991
 21
-278.26440822950002
 31
0.0
  0
LINE
  5
FA
  8
0
 62
     0
 10
726.34314851799991
 20
-278.26440822950002
 30
0.0
 11
699.59314851800002
 21
-278.26440822950002
 31
0.0
  0
LINE
  5
FB
  8
0
 62
     0
 10
726.34314851799991
 20
-278.26440822950002
 30
0.0
 11
726.34314851799991
 21
-278.26440822950002
 31
0.0
  0
LINE
  5
FC
  8
0
 62
     0
 10
726.34314851799991
 20
-278.26440822950002
 30
0.0
 11
721.34314851800002
 21
-278.26440822950002
 31
0.0
  0
SOLID
  5
FD
  8
0
 62
     0
 10
726.34314851799991
 20
-278.26440822950002
 30
0.0
 11
718.84314851800002
 21
-280.13940822950002
 31
0.0
 12
718.84314851800002
 22
-276.38940822950002
 32
0.0
 13
720.71814851800002
 23
-278.26440822950002
 33
0.0
  0
LINE
  5
FE
  8
0
 62
     0
 10
699.59314851800002
 20
-278.26440822950002
 30
0.0
 11
704.59314851800002
 21
-278.26440822950002
 31
0.0
  0
SOLID
  5
FF
  8
0
 62
     0
 10
699.59314851800002
 20
-278.26440822950002
 30
0.0
 11
707.09314851800002
 21
-276.38940822950002
 31
0.0
 12
707.09314851800002
 22
-280.13940822950002
 32
0.0
 13
705.21814851800002
 23
-278.26440822950002
 33
0.0
  0
ENDBLK
  5
100
  8
0
  0
BLOCK
  8
0
  2
*D14
 70
     1
 10
0.0
 20
0.0
 30
0.0
  3
*D14
  1

  0
TEXT
  5
105
  8
0
 62
     0
 10
1286.2637833384999
 20
-325.8923656545
 30
0.0
 40
8.2461809158000001
  1
R5
 50
315.0
  0
LINE
  5
106
  8
0
 62
     0
 10
1276.6286824240001
 20
-321.0592074589
 30
0.0
 11
1293.7239443484
 21
-338.15446938330001
 31
0.0
  0
SOLID
  5
107
  8
0
 62
     0
 10
1276.6286824240001
 20
-321.0592074589
 30
0.0
 11
1283.2578084976001
 21
-325.03668310299997
 31
0.0
 12
1280.6061580682001
 22
-327.6883335325
 32
0.0
 13
1280.6061580682001
 23
-325.03668310299997
 33
0.0
  0
ENDBLK
  5
108
  8
0
  0
BLOCK
  8
0
  2
*D15
 70
     1
 10
0.0
 20
0.0
 30
0.0
  3
*D15
  1

  0
TEXT
  5
110
  8
0
 62
     0
 10
758.99245386170003
 20
-275.80919983259997
 30
0.0
 40
8.2461809158000001
  1
75
  0
LINE
  5
111
  8
0
 62
     0
 10
726.34314851799991
 20
-244.26440822949999
 30
0.0
 11
726.34314851799991
 21
-279.26440822950002
 31
0.0
  0
LINE
  5
112
  8
0
 62
     0
 10
801.34314851799991
 20
-244.26440822949999
 30
0.0
 11
801.34314851799991
 21
-279.26440822950002
 31
0.0
  0
LINE
  5
113
  8
0
 62
     0
 10
726.34314851799991
 20
-278.26440822950002
 30
0.0
 11
773.54453783079998
 21
-278.26440822950002
 31
0.0
  0
LINE
  5
114
  8
0
 62
     0
 10
726.34314851799991
 20
-278.26440822950002
 30
0.0
 11
754.14175920529999
 21
-278.26440822950002
 31
0.0
  0
LINE
  5
115
  8
0
 62
     0
 10
801.34314851799991
 20
-278.26440822950002
 30
0.0
 11
773.54453783079998
 21
-278.26440822950002
 31
0.0
  0
LINE
  5
116
  8
0
 62
     0
 10
801.34314851799991
 20
-278.26440822950002
 30
0.0
 11
754.14175920529999
 21
-278.26440822950002
 31
0.0
  0
LINE
  5
117
  8
0
 62
     0
 10
801.34314851799991
 20
-278.26440822950002
 30
0.0
 11
796.34314851800002
 21
-278.26440822950002
 31
0.0
  0
SOLID
  5
118
  8
0
 62
     0
 10
801.34314851799991
 20
-278.26440822950002
 30
0.0
 11
793.84314851800002
 21
-280.13940822950002
 31
0.0
 12
793.84314851800002
 22
-276.38940822950002
 32
0.0
 13
795.71814851800002
 23
-278.26440822950002
 33
0.0
  0
LINE
  5
119
  8
0
 62
     0
 10
726.34314851799991
 20
-278.26440822950002
 30
0.0
 11
731.34314851800002
 21
-278.26440822950002
 31
0.0
  0
SOLID
  5
11A
  8
0
 62
     0
 10
726.34314851799991
 20
-278.26440822950002
 30
0.0
 11
733.84314851800002
 21
-276.38940822950002
 31
0.0
 12
733.84314851800002
 22
-280.13940822950002
 32
0.0
 13
731.96814851800002
 23
-278.26440822950002
 33
0.0
  0
ENDBLK
  5
11B
  8
0
  0
BLOCK
  8
0
  2
*D16
 70
     1
 10
0.0
 20
0.0
 30
0.0
  3
*D16
  1

  0
TEXT
  5
11F
  8
0
 62
     0
 10
1254.0061978186
 20
-275.80919983259997
 30
0.0
 40
8.2461809158000001
  1
26.75
  0
LINE
  5
120
  8
0
 62
     0
 10
1251.3431485179999
 20
-244.26440822949999
 30
0.0
 11
1251.3431485179999
 21
-279.26440822950002
 31
0.0
  0
LINE
  5
121
  8
0
 62
     0
 10
1278.0931485179999
 20
-255.26440822949999
 30
0.0
 11
1278.0931485179999
 21
-279.26440822950002
 31
0.0
  0
LINE
  5
122
  8
0
 62
     0
 10
1251.3431485179999
 20
-278.26440822950002
 30
0.0
 11
1251.3431485179999
 21
-278.26440822950002
 31
0.0
  0
LINE
  5
123
  8
0
 62
     0
 10
1251.3431485179999
 20
-278.26440822950002
 30
0.0
 11
1278.0931485179999
 21
-278.26440822950002
 31
0.0
  0
LINE
  5
124
  8
0
 62
     0
 10
1278.0931485179999
 20
-278.26440822950002
 30
0.0
 11
1251.3431485179999
 21
-278.26440822950002
 31
0.0
  0
LINE
  5
125
  8
0
 62
     0
 10
1278.0931485179999
 20
-278.26440822950002
 30
0.0
 11
1278.0931485179999
 21
-278.26440822950002
 31
0.0
  0
LINE
  5
126
  8
0
 62
     0
 10
1278.0931485179999
 20
-278.26440822950002
 30
0.0
 11
1273.0931485179999
 21
-278.26440822950002
 31
0.0
  0
SOLID
  5
127
  8
0
 62
     0
 10
1278.0931485179999
 20
-278.26440822950002
 30
0.0
 11
1270.5931485179999
 21
-280.13940822950002
 31
0.0
 12
1270.5931485179999
 22
-276.38940822950002
 32
0.0
 13
1272.4681485179999
 23
-278.26440822950002
 33
0.0
  0
LINE
  5
128
  8
0
 62
     0
 10
1251.3431485179999
 20
-278.26440822950002
 30
0.0
 11
1256.3431485179999
 21
-278.26440822950002
 31
0.0
  0
SOLID
  5
129
  8
0
 62
     0
 10
1251.3431485179999
 20
-278.26440822950002
 30
0.0
 11
1258.8431485179999
 21
-276.38940822950002
 31
0.0
 12
1258.8431485179999
 22
-280.13940822950002
 32
0.0
 13
1256.9681485179999
 23
-278.26440822950002
 33
0.0
  0
ENDBLK
  5
12A
  8
0
  0
BLOCK
  8
0
  2
*D17
 70
     1
 10
0.0
 20
0.0
 30
0.0
  3
*D17
  1

  0
TEXT
  5
12E
  8
0
 62
     0
 10
1208.9924538616999
 20
-275.80919983259997
 30
0.0
 40
8.2461809158000001
  1
75
  0
LINE
  5
12F
  8
0
 62
     0
 10
1176.3431485179999
 20
-244.26440822949999
 30
0.0
 11
1176.3431485179999
 21
-279.26440822950002
 31
0.0
  0
LINE
  5
130
  8
0
 62
     0
 10
1251.3431485179999
 20
-244.26440822949999
 30
0.0
 11
1251.3431485179999
 21
-279.26440822950002
 31
0.0
  0
LINE
  5
131
  8
0
 62
     0
 10
1176.3431485179999
 20
-278.26440822950002
 30
0.0
 11
1223.5445378308
 21
-278.26440822950002
 31
0.0
  0
LINE
  5
132
  8
0
 62
     0
 10
1176.3431485179999
 20
-278.26440822950002
 30
0.0
 11
1204.1417592053001
 21
-278.26440822950002
 31
0.0
  0
LINE
  5
133
  8
0
 62
     0
 10
1251.3431485179999
 20
-278.26440822950002
 30
0.0
 11
1223.5445378308
 21
-278.26440822950002
 31
0.0
  0
LINE
  5
134
  8
0
 62
     0
 10
1251.3431485179999
 20
-278.26440822950002
 30
0.0
 11
1204.1417592053001
 21
-278.26440822950002
 31
0.0
  0
LINE
  5
135
  8
0
 62
     0
 10
1251.3431485179999
 20
-278.26440822950002
 30
0.0
 11
1246.3431485179999
 21
-278.26440822950002
 31
0.0
  0
SOLID
  5
136
  8
0
 62
     0
 10
1251.3431485179999
 20
-278.26440822950002
 30
0.0
 11
1243.8431485179999
 21
-280.13940822950002
 31
0.0
 12
1243.8431485179999
 22
-276.38940822950002
 32
0.0
 13
1245.7181485179999
 23
-278.26440822950002
 33
0.0
  0
LINE
  5
137
  8
0
 62
     0
 10
1176.3431485179999
 20
-278.26440822950002
 30
0.0
 11
1181.3431485179999
 21
-278.26440822950002
 31
0.0
  0
SOLID
  5
138
  8
0
 62
     0
 10
1176.3431485179999
 20
-278.26440822950002
 30
0.0
 11
1183.8431485179999
 21
-276.38940822950002
 31
0.0
 12
1183.8431485179999
 22
-280.13940822950002
 32
0.0
 13
1181.9681485179999
 23
-278.26440822950002
 33
0.0
  0
ENDBLK
  5
139
  8
0
  0
BLOCK
  8
0
  2
*D18
 70
     1
 10
0.0
 20
0.0
 30
0.0
  3
*D18
  1

  0
TEXT
  5
13D
  8
0
 62
     0
 10
1300.6379401211
 20
-279.69193033250002
 30
0.0
 40
8.2461809158000001
  1
14.5
 50
90.0
  0
LINE
  5
13E
  8
0
 62
     0
 10
1280.0931485179999
 20
-253.26440822949999
 30
0.0
 11
1304.0931485179999
 21
-253.26440822949999
 31
0.0
  0
LINE
  5
13F
  8
0
 62
     0
 10
1264.3431485179999
 20
-238.76440822949999
 30
0.0
 11
1304.0931485179999
 21
-238.76440822949999
 31
0.0
  0
LINE
  5
140
  8
0
 62
     0
 10
1303.0931485179999
 20
-253.26440822949999
 30
0.0
 11
1303.0931485179999
 21
-258.26802893349998
 31
0.0
  0
LINE
  5
141
  8
0
 62
     0
 10
1303.0931485179999
 20
-253.26440822949999
 30
0.0
 11
1303.0931485179999
 21
-284.54262498880001
 31
0.0
  0
LINE
  5
142
  8
0
 62
     0
 10
1303.0931485179999
 20
-238.76440822949999
 30
0.0
 11
1303.0931485179999
 21
-258.26802893349998
 31
0.0
  0
LINE
  5
143
  8
0
 62
     0
 10
1303.0931485179999
 20
-238.76440822949999
 30
0.0
 11
1303.0931485179999
 21
-284.54262498880001
 31
0.0
  0
LINE
  5
144
  8
0
 62
     0
 10
1303.0931485179999
 20
-238.76440822949999
 30
0.0
 11
1303.0931485179999
 21
-233.76440822949999
 31
0.0
  0
SOLID
  5
145
  8
0
 62
     0
 10
1303.0931485179999
 20
-238.76440822949999
 30
0.0
 11
1301.2181485179999
 21
-231.26440822949999
 31
0.0
 12
1304.9681485179999
 22
-231.26440822949999
 32
0.0
 13
1303.0931485179999
 23
-233.13940822949999
 33
0.0
  0
LINE
  5
146
  8
0
 62
     0
 10
1303.0931485179999
 20
-253.26440822949999
 30
0.0
 11
1303.0931485179999
 21
-258.26440822950002
 31
0.0
  0
SOLID
  5
147
  8
0
 62
     0
 10
1303.0931485179999
 20
-253.26440822949999
 30
0.0
 11
1304.9681485179999
 21
-260.76440822950002
 31
0.0
 12
1301.2181485179999
 22
-260.76440822950002
 32
0.0
 13
1303.0931485179999
 23
-258.88940822950002
 33
0.0
  0
ENDBLK
  5
148
  8
0
  0
BLOCK
  8
0
  2
*D19
 70
     1
 10
0.0
 20
0.0
 30
0.0
  3
*D19
  1

  0
TEXT
  5
14C
  8
0
 62
     0
 10
1300.6379401211
 20
-231.1151028859
 30
0.0
 40
8.2461809158000001
  1
25
 50
90.0
  0
LINE
  5
14D
  8
0
 62
     0
 10
1264.3431485179999
 20
-238.76440822949999
 30
0.0
 11
1304.0931485179999
 21
-238.76440822949999
 31
0.0
  0
LINE
  5
14E
  8
0
 62
     0
 10
1285.0931485179999
 20
-213.76440822949999
 30
0.0
 11
1304.0931485179999
 21
-213.76440822949999
 31
0.0
  0
LINE
  5
14F
  8
0
 62
     0
 10
1303.0931485179999
 20
-238.76440822949999
 30
0.0
 11
1303.0931485179999
 21
-216.5630189167
 31
0.0
  0
LINE
  5
150
  8
0
 62
     0
 10
1303.0931485179999
 20
-238.76440822949999
 30
0.0
 11
1303.0931485179999
 21
-235.96579754219999
 31
0.0
  0
LINE
  5
151
  8
0
 62
     0
 10
1303.0931485179999
 20
-213.76440822949999
 30
0.0
 11
1303.0931485179999
 21
-216.5630189167
 31
0.0
  0
LINE
  5
152
  8
0
 62
     0
 10
1303.0931485179999
 20
-213.76440822949999
 30
0.0
 11
1303.0931485179999
 21
-235.96579754219999
 31
0.0
  0
LINE
  5
153
  8
0
 62
     0
 10
1303.0931485179999
 20
-213.76440822949999
 30
0.0
 11
1303.0931485179999
 21
-208.76440822949999
 31
0.0
  0
SOLID
  5
154
  8
0
 62
     0
 10
1303.0931485179999
 20
-213.76440822949999
 30
0.0
 11
1301.2181485179999
 21
-206.26440822949999
 31
0.0
 12
1304.9681485179999
 22
-206.26440822949999
 32
0.0
 13
1303.0931485179999
 23
-208.13940822949999
 33
0.0
  0
LINE
  5
155
  8
0
 62
     0
 10
1303.0931485179999
 20
-238.76440822949999
 30
0.0
 11
1303.0931485179999
 21
-243.76440822949999
 31
0.0
  0
SOLID
  5
156
  8
0
 62
     0
 10
1303.0931485179999
 20
-238.76440822949999
 30
0.0
 11
1304.9681485179999
 21
-246.26440822949999
 31
0.0
 12
1301.2181485179999
 22
-246.26440822949999
 32
0.0
 13
1303.0931485179999
 23
-244.38940822949999
 33
0.0
  0
ENDBLK
  5
157
  8
0
  0
BLOCK
  8
0
  2
*D20
 70
     1
 10
0.0
 20
0.0
 30
0.0
  3
*D20
  1

  0
TEXT
  5
15B
  8
0
 62
     0
 10
1473.0409720103
 20
-151.8091998326
 30
0.0
 40
8.2461809158000001
  1
23
  0
LINE
  5
15C
  8
0
 62
     0
 10
1489.3916666667001
 20
-172.26440822949999
 30
0.0
 11
1489.3916666667001
 21
-153.26440822949999
 31
0.0
  0
LINE
  5
15D
  8
0
 62
     0
 10
1466.3916666667001
 20
-173.76440822949999
 30
0.0
 11
1466.3916666667001
 21
-153.26440822949999
 31
0.0
  0
LINE
  5
15E
  8
0
 62
     0
 10
1489.3916666667001
 20
-154.26440822949999
 30
0.0
 11
1487.5930559794001
 21
-154.26440822949999
 31
0.0
  0
LINE
  5
15F
  8
0
 62
     0
 10
1489.3916666667001
 20
-154.26440822949999
 30
0.0
 11
1468.1902773539
 21
-154.26440822949999
 31
0.0
  0
LINE
  5
160
  8
0
 62
     0
 10
1466.3916666667001
 20
-154.26440822949999
 30
0.0
 11
1487.5930559794001
 21
-154.26440822949999
 31
0.0
  0
LINE
  5
161
  8
0
 62
     0
 10
1466.3916666667001
 20
-154.26440822949999
 30
0.0
 11
1468.1902773539
 21
-154.26440822949999
 31
0.0
  0
LINE
  5
162
  8
0
 62
     0
 10
1466.3916666667001
 20
-154.26440822949999
 30
0.0
 11
1461.3916666667001
 21
-154.26440822949999
 31
0.0
  0
SOLID
  5
163
  8
0
 62
     0
 10
1466.3916666667001
 20
-154.26440822949999
 30
0.0
 11
1458.8916666667001
 21
-156.13940822949999
 31
0.0
 12
1458.8916666667001
 22
-152.38940822949999
 32
0.0
 13
1460.7666666667001
 23
-154.26440822949999
 33
0.0
  0
LINE
  5
164
  8
0
 62
     0
 10
1489.3916666667001
 20
-154.26440822949999
 30
0.0
 11
1494.3916666667001
 21
-154.26440822949999
 31
0.0
  0
SOLID
  5
165
  8
0
 62
     0
 10
1489.3916666667001
 20
-154.26440822949999
 30
0.0
 11
1496.8916666667001
 21
-152.38940822949999
 31
0.0
 12
1496.8916666667001
 22
-156.13940822949999
 32
0.0
 13
1495.0166666667001
 23
-154.26440822949999
 33
0.0
  0
ENDBLK
  5
166
  8
0
  0
BLOCK
  8
0
  2
*D21
 70
     1
 10
0.0
 20
0.0
 30
0.0
  3
*D21
  1

  0
TEXT
  5
16A
  8
0
 62
     0
 10
1320.2125225703001
 20
39.947838642900003
 30
0.0
 40
8.2461809158000001
  1
80
 50
90.0
  0
LINE
  5
16B
  8
0
 62
     0
 10
1288.6051432291999
 20
4.7985332992999989
 30
0.0
 11
1323.6677309672
 21
4.7985332992999989
 31
0.0
  0
LINE
  5
16C
  8
0
 62
     0
 10
1288.6051432291999
 20
84.798533299300004
 30
0.0
 11
1323.6677309672
 21
84.798533299300004
 31
0.0
  0
LINE
  5
16D
  8
0
 62
     0
 10
1322.6677309672
 20
4.7985332992999989
 30
0.0
 11
1322.6677309672
 21
54.499922611999999
 31
0.0
  0
LINE
  5
16E
  8
0
 62
     0
 10
1322.6677309672
 20
4.7985332992999989
 30
0.0
 11
1322.6677309672
 21
35.097143986600003
 31
0.0
  0
LINE
  5
16F
  8
0
 62
     0
 10
1322.6677309672
 20
84.798533299300004
 30
0.0
 11
1322.6677309672
 21
54.499922611999999
 31
0.0
  0
LINE
  5
170
  8
0
 62
     0
 10
1322.6677309672
 20
84.798533299300004
 30
0.0
 11
1322.6677309672
 21
35.097143986600003
 31
0.0
  0
LINE
  5
171
  8
0
 62
     0
 10
1322.6677309672
 20
84.798533299300004
 30
0.0
 11
1322.6677309672
 21
79.798533299300004
 31
0.0
  0
SOLID
  5
172
  8
0
 62
     0
 10
1322.6677309672
 20
84.798533299300004
 30
0.0
 11
1324.5427309672
 21
77.298533299300004
 31
0.0
 12
1320.7927309672
 22
77.298533299300004
 32
0.0
 13
1322.6677309672
 23
79.173533299300004
 33
0.0
  0
LINE
  5
173
  8
0
 62
     0
 10
1322.6677309672
 20
4.7985332992999989
 30
0.0
 11
1322.6677309672
 21
9.7985332992999972
 31
0.0
  0
SOLID
  5
174
  8
0
 62
     0
 10
1322.6677309672
 20
4.7985332992999989
 30
0.0
 11
1320.7927309672
 21
12.298533299300001
 31
0.0
 12
1324.5427309672
 22
12.298533299300001
 32
0.0
 13
1322.6677309672
 23
10.423533299300001
 33
0.0
  0
ENDBLK
  5
175
  8
0
  0
BLOCK
  8
0
  2
*D22
 70
     1
 10
0.0
 20
0.0
 30
0.0
  3
*D22
  1

  0
TEXT
  5
179
  8
0
 62
     0
 10
1510.8142422045
 20
39.948296894899997
 30
0.0
 40
8.2461809158000001
  1
70
 50
90.0
  0
LINE
  5
17A
  8
0
 62
     0
 10
1499.2694506014
 20
9.7989915513000003
 30
0.0
 11
1514.2694506014
 21
9.7989915513000003
 31
0.0
  0
LINE
  5
17B
  8
0
 62
     0
 10
1499.2694506014
 20
79.798991551300006
 30
0.0
 11
1514.2694506014
 21
79.798991551300006
 31
0.0
  0
LINE
  5
17C
  8
0
 62
     0
 10
1513.2694506014
 20
9.7989915513000003
 30
0.0
 11
1513.2694506014
 21
54.500380863999993
 31
0.0
  0
LINE
  5
17D
  8
0
 62
     0
 10
1513.2694506014
 20
9.7989915513000003
 30
0.0
 11
1513.2694506014
 21
35.097602238500002
 31
0.0
  0
LINE
  5
17E
  8
0
 62
     0
 10
1513.2694506014
 20
79.798991551300006
 30
0.0
 11
1513.2694506014
 21
54.500380863999993
 31
0.0
  0
LINE
  5
17F
  8
0
 62
     0
 10
1513.2694506014
 20
79.798991551300006
 30
0.0
 11
1513.2694506014
 21
35.097602238500002
 31
0.0
  0
LINE
  5
180
  8
0
 62
     0
 10
1513.2694506014
 20
79.798991551300006
 30
0.0
 11
1513.2694506014
 21
74.798991551300006
 31
0.0
  0
SOLID
  5
181
  8
0
 62
     0
 10
1513.2694506014
 20
79.798991551300006
 30
0.0
 11
1515.1444506014
 21
72.298991551300006
 31
0.0
 12
1511.3944506014
 22
72.298991551300006
 32
0.0
 13
1513.2694506014
 23
74.173991551300006
 33
0.0
  0
LINE
  5
182
  8
0
 62
     0
 10
1513.2694506014
 20
9.7989915513000003
 30
0.0
 11
1513.2694506014
 21
14.7989915513
 31
0.0
  0
SOLID
  5
183
  8
0
 62
     0
 10
1513.2694506014
 20
9.7989915513000003
 30
0.0
 11
1511.3944506014
 21
17.298991551299999
 31
0.0
 12
1515.1444506014
 22
17.298991551299999
 32
0.0
 13
1513.2694506014
 23
15.4239915513
 33
0.0
  0
ENDBLK
  5
184
  8
0
  0
BLOCK
  8
0
  2
*D23
 70
     1
 10
0.0
 20
0.0
 30
0.0
  3
*D23
  1

  0
TEXT
  5
188
  8
0
 62
     0
 10
1410.1680046264
 20
39.947838642900003
 30
0.0
 40
8.2461809158000001
  1
67
 50
90.0
  0
LINE
  5
189
  8
0
 62
     0
 10
1395.1824247543
 20
11.298533299300001
 30
0.0
 11
1413.6232130233
 21
11.298533299300001
 31
0.0
  0
LINE
  5
18A
  8
0
 62
     0
 10
1395.1824247543
 20
78.298533299300004
 30
0.0
 11
1413.6232130233
 21
78.298533299300004
 31
0.0
  0
LINE
  5
18B
  8
0
 62
     0
 10
1412.6232130233
 20
11.298533299300001
 30
0.0
 11
1412.6232130233
 21
54.499922611999999
 31
0.0
  0
LINE
  5
18C
  8
0
 62
     0
 10
1412.6232130233
 20
11.298533299300001
 30
0.0
 11
1412.6232130233
 21
35.097143986600003
 31
0.0
  0
LINE
  5
18D
  8
0
 62
     0
 10
1412.6232130233
 20
78.298533299300004
 30
0.0
 11
1412.6232130233
 21
54.499922611999999
 31
0.0
  0
LINE
  5
18E
  8
0
 62
     0
 10
1412.6232130233
 20
78.298533299300004
 30
0.0
 11
1412.6232130233
 21
35.097143986600003
 31
0.0
  0
LINE
  5
18F
  8
0
 62
     0
 10
1412.6232130233
 20
78.298533299300004
 30
0.0
 11
1412.6232130233
 21
73.298533299300004
 31
0.0
  0
SOLID
  5
190
  8
0
 62
     0
 10
1412.6232130233
 20
78.298533299300004
 30
0.0
 11
1414.4982130233
 21
70.798533299300004
 31
0.0
 12
1410.7482130233
 22
70.798533299300004
 32
0.0
 13
1412.6232130233
 23
72.673533299300004
 33
0.0
  0
LINE
  5
191
  8
0
 62
     0
 10
1412.6232130233
 20
11.298533299300001
 30
0.0
 11
1412.6232130233
 21
16.298533299300001
 31
0.0
  0
SOLID
  5
192
  8
0
 62
     0
 10
1412.6232130233
 20
11.298533299300001
 30
0.0
 11
1410.7482130233
 21
18.798533299300001
 31
0.0
 12
1414.4982130233
 22
18.798533299300001
 32
0.0
 13
1412.6232130233
 23
16.923533299300001
 33
0.0
  0
ENDBLK
  5
193
  8
0
  0
BLOCK
  8
0
  2
*D24
 70
     1
 10
0.0
 20
0.0
 30
0.0
  3
*D24
  1

  0
TEXT
  5
197
  8
0
 62
     0
 10
1381.7507258538001
 20
122.30072083749999
 30
0.0
 40
8.2461809158000001
  1
15
  0
LINE
  5
198
  8
0
 62
     0
 10
1378.9824247542999
 20
86.798533299300004
 30
0.0
 11
1378.9824247542999
 21
120.8455124405
 31
0.0
  0
LINE
  5
199
  8
0
 62
     0
 10
1393.9824247542999
 20
94.998533299300007
 30
0.0
 11
1393.9824247542999
 21
120.8455124405
 31
0.0
  0
LINE
  5
19A
  8
0
 62
     0
 10
1378.9824247542999
 20
119.8455124405
 30
0.0
 11
1378.9824247542999
 21
119.8455124405
 31
0.0
  0
LINE
  5
19B
  8
0
 62
     0
 10
1378.9824247542999
 20
119.8455124405
 30
0.0
 11
1393.9824247542999
 21
119.8455124405
 31
0.0
  0
LINE
  5
19C
  8
0
 62
     0
 10
1393.9824247542999
 20
119.8455124405
 30
0.0
 11
1378.9824247542999
 21
119.8455124405
 31
0.0
  0
LINE
  5
19D
  8
0
 62
     0
 10
1393.9824247542999
 20
119.8455124405
 30
0.0
 11
1393.9824247542999
 21
119.8455124405
 31
0.0
  0
LINE
  5
19E
  8
0
 62
     0
 10
1393.9824247542999
 20
119.8455124405
 30
0.0
 11
1398.9824247542999
 21
119.8455124405
 31
0.0
  0
SOLID
  5
19F
  8
0
 62
     0
 10
1393.9824247542999
 20
119.8455124405
 30
0.0
 11
1401.4824247542999
 21
121.7205124405
 31
0.0
 12
1401.4824247542999
 22
117.9705124405
 32
0.0
 13
1399.6074247542999
 23
119.8455124405
 33
0.0
  0
LINE
  5
1A0
  8
0
 62
     0
 10
1378.9824247542999
 20
119.8455124405
 30
0.0
 11
1373.9824247542999
 21
119.8455124405
 31
0.0
  0
SOLID
  5
1A1
  8
0
 62
     0
 10
1378.9824247542999
 20
119.8455124405
 30
0.0
 11
1371.4824247542999
 21
117.9705124405
 31
0.0
 12
1371.4824247542999
 22
121.7205124405
 32
0.0
 13
1373.3574247542999
 23
119.8455124405
 33
0.0
  0
ENDBLK
  5
1A2
  8
0
  0
BLOCK
  8
0
  2
*D25
 70
     1
 10
0.0
 20
0.0
 30
0.0
  3
*D25
  1

  0
TEXT
  5
1A6
  8
0
 62
     0
 10
1366.5127343419999
 20
122.30072083749999
 30
0.0
 40
8.2461809158000001
  1
15
  0
LINE
  5
1A7
  8
0
 62
     0
 10
1378.9824247542999
 20
86.798533299300004
 30
0.0
 11
1378.9824247542999
 21
120.8455124405
 31
0.0
  0
LINE
  5
1A8
  8
0
 62
     0
 10
1363.9824247542999
 20
94.998533299300007
 30
0.0
 11
1363.9824247542999
 21
120.8455124405
 31
0.0
  0
LINE
  5
1A9
  8
0
 62
     0
 10
1378.9824247542999
 20
119.8455124405
 30
0.0
 11
1378.9824247542999
 21
119.8455124405
 31
0.0
  0
LINE
  5
1AA
  8
0
 62
     0
 10
1378.9824247542999
 20
119.8455124405
 30
0.0
 11
1363.9824247542999
 21
119.8455124405
 31
0.0
  0
LINE
  5
1AB
  8
0
 62
     0
 10
1363.9824247542999
 20
119.8455124405
 30
0.0
 11
1378.9824247542999
 21
119.8455124405
 31
0.0
  0
LINE
  5
1AC
  8
0
 62
     0
 10
1363.9824247542999
 20
119.8455124405
 30
0.0
 11
1363.9824247542999
 21
119.8455124405
 31
0.0
  0
LINE
  5
1AD
  8
0
 62
     0
 10
1363.9824247542999
 20
119.8455124405
 30
0.0
 11
1358.9824247542999
 21
119.8455124405
 31
0.0
  0
SOLID
  5
1AE
  8
0
 62
     0
 10
1363.9824247542999
 20
119.8455124405
 30
0.0
 11
1356.4824247542999
 21
117.9705124405
 31
0.0
 12
1356.4824247542999
 22
121.7205124405
 32
0.0
 13
1358.3574247542999
 23
119.8455124405
 33
0.0
  0
LINE
  5
1AF
  8
0
 62
     0
 10
1378.9824247542999
 20
119.8455124405
 30
0.0
 11
1383.9824247542999
 21
119.8455124405
 31
0.0
  0
SOLID
  5
1B0
  8
0
 62
     0
 10
1378.9824247542999
 20
119.8455124405
 30
0.0
 11
1386.4824247542999
 21
121.7205124405
 31
0.0
 12
1386.4824247542999
 22
117.9705124405
 32
0.0
 13
1384.6074247542999
 23
119.8455124405
 33
0.0
  0
ENDBLK
  5
1B1
  8
0
  0
BLOCK
  8
0
  2
*D26
 70
     1
 10
0.0
 20
0.0
 30
0.0
  3
*D26
  1

  0
TEXT
  5
1B5
  8
0
 62
     0
 10
1374.1317300978999
 20
136.7191187409
 30
0.0
 40
8.2461809158000001
  1
30
  0
LINE
  5
1B6
  8
0
 62
     0
 10
1393.9824247542999
 20
94.998533299300007
 30
0.0
 11
1393.9824247542999
 21
135.26391034400001
 31
0.0
  0
LINE
  5
1B7
  8
0
 62
     0
 10
1363.9824247542999
 20
94.998533299300007
 30
0.0
 11
1363.9824247542999
 21
135.26391034400001
 31
0.0
  0
LINE
  5
1B8
  8
0
 62
     0
 10
1393.9824247542999
 20
134.26391034400001
 30
0.0
 11
1388.683814067
 21
134.26391034400001
 31
0.0
  0
LINE
  5
1B9
  8
0
 62
     0
 10
1393.9824247542999
 20
134.26391034400001
 30
0.0
 11
1369.2810354415999
 21
134.26391034400001
 31
0.0
  0
LINE
  5
1BA
  8
0
 62
     0
 10
1363.9824247542999
 20
134.26391034400001
 30
0.0
 11
1388.683814067
 21
134.26391034400001
 31
0.0
  0
LINE
  5
1BB
  8
0
 62
     0
 10
1363.9824247542999
 20
134.26391034400001
 30
0.0
 11
1369.2810354415999
 21
134.26391034400001
 31
0.0
  0
LINE
  5
1BC
  8
0
 62
     0
 10
1363.9824247542999
 20
134.26391034400001
 30
0.0
 11
1358.9824247542999
 21
134.26391034400001
 31
0.0
  0
SOLID
  5
1BD
  8
0
 62
     0
 10
1363.9824247542999
 20
134.26391034400001
 30
0.0
 11
1356.4824247542999
 21
132.38891034400001
 31
0.0
 12
1356.4824247542999
 22
136.13891034400001
 32
0.0
 13
1358.3574247542999
 23
134.26391034400001
 33
0.0
  0
LINE
  5
1BE
  8
0
 62
     0
 10
1393.9824247542999
 20
134.26391034400001
 30
0.0
 11
1398.9824247542999
 21
134.26391034400001
 31
0.0
  0
SOLID
  5
1BF
  8
0
 62
     0
 10
1393.9824247542999
 20
134.26391034400001
 30
0.0
 11
1401.4824247542999
 21
136.13891034400001
 31
0.0
 12
1401.4824247542999
 22
132.38891034400001
 32
0.0
 13
1399.6074247542999
 23
134.26391034400001
 33
0.0
  0
ENDBLK
  5
1C0
  8
0
  0
BLOCK
  8
0
  2
BALLON0
 70
     0
 10
0.0
 20
0.0
 30
0.0
  3
BALLON0
  1

  0
INSERT
  5
1C6
  8
0
  6
CONTINUOUS
  2
*U121
 10
0.0
 20
0.0
 30
0.0
  0
CIRCLE
  5
1C7
  8
ﾚｲﾔ_1
 10
807.01007444410016
 20
-32.5
 30
0.0
 40
10.0
  0
LINE
  5
1C8
  8
寸法線
 10
823.67674111079987
 20
-32.5
 30
0.0
 11
817.01007444410004
 21
-32.5
 31
0.0
  0
LINE
  5
1C9
  8
寸法線
 10
845.0
 20
25.0
 30
0.0
 11
823.67674111079987
 21
-32.5
 31
0.0
  0
SOLID
  5
1CA
  8
寸法線
 10
845.0
 20
25.0
 30
0.0
 11
843.39820148859997
 21
14.9285432271
 31
0.0
 12
842.21839241079988
 22
17.499156099499999
 32
0.0
 13
842.21839241079988
 23
17.499156099499999
 33
0.0
  0
SOLID
  5
1CB
  8
寸法線
 10
842.21839241079988
 20
17.499156099499999
 30
0.0
 11
839.64777953839985
 21
16.319347021700001
 31
0.0
 12
845.0
 22
25.0
 32
0.0
 13
845.0
 23
25.0
 33
0.0
  0
ENDBLK
  5
1CC
  8
0
  0
BLOCK
  8
0
  2
BALLON1
 70
     0
 10
0.0
 20
0.0
 30
0.0
  3
BALLON1
  1

  0
INSERT
  5
1D0
  8
0
  6
CONTINUOUS
  2
*U122
 10
0.0
 20
0.0
 30
0.0
  0
CIRCLE
  5
1D1
  8
ﾚｲﾔ_1
 10
654.46440628009987
 20
-32.5
 30
0.0
 40
10.0
  0
LINE
  5
1D2
  8
寸法線
 10
671.13107294669987
 20
-32.5
 30
0.0
 11
664.46440628009987
 21
-32.5
 31
0.0
  0
LINE
  5
1D3
  8
寸法線
 10
705.80514322919998
 20
-78.771646452599995
 30
0.0
 11
671.13107294669987
 21
-32.5
 31
0.0
  0
SOLID
  5
1D4
  8
寸法線
 10
705.80514322919998
 20
-78.771646452599995
 30
0.0
 11
698.20793477669986
 21
-71.9685277759
 31
0.0
 12
701.00777036979991
 22
-72.369676939399994
 32
0.0
 13
701.00777036979991
 23
-72.369676939399994
 33
0.0
  0
SOLID
  5
1D5
  8
寸法線
 10
701.00777036979991
 20
-72.369676939399994
 30
0.0
 11
701.40891953330004
 21
-69.569841346199993
 31
0.0
 12
705.80514322919998
 22
-78.771646452599995
 32
0.0
 13
705.80514322919998
 23
-78.771646452599995
 33
0.0
  0
ENDBLK
  5
1D6
  8
0
  0
BLOCK
  8
0
  2
BALLON2
 70
     0
 10
0.0
 20
0.0
 30
0.0
  3
BALLON2
  1

  0
INSERT
  5
1DA
  8
0
  6
CONTINUOUS
  2
*U123
 10
0.0
 20
0.0
 30
0.0
  0
CIRCLE
  5
1DB
  8
ﾚｲﾔ_1
 10
745.33333333329995
 20
-32.5
 30
0.0
 40
10.0
  0
LINE
  5
1DC
  8
寸法線
 10
762.0
 20
-32.5
 30
0.0
 11
755.33333333329995
 21
-32.5
 31
0.0
  0
LINE
  5
1DD
  8
寸法線
 10
781.54443403899995
 20
-55.8558286799
 30
0.0
 11
762.0
 21
-32.5
 31
0.0
  0
SOLID
  5
1DE
  8
寸法線
 10
781.54443403899995
 20
-55.8558286799
 30
0.0
 11
773.59304433859995
 21
-49.4702666974
 31
0.0
 12
776.41037457440007
 22
-49.720567201000001
 32
0.0
 13
776.41037457440007
 23
-49.720567201000001
 33
0.0
  0
SOLID
  5
1DF
  8
寸法線
 10
776.41037457440007
 20
-49.720567201000001
 30
0.0
 11
776.66067507800005
 21
-46.9032369651
 31
0.0
 12
781.54443403899995
 22
-55.8558286799
 32
0.0
 13
781.54443403899995
 23
-55.8558286799
 33
0.0
  0
ENDBLK
  5
1E0
  8
0
  0
BLOCK
  8
0
  2
*D30
 70
     1
 10
0.0
 20
0.0
 30
0.0
  3
*D30
  1

  0
TEXT
  5
1E3
  8
0
 62
     0
 10
989.32910124460011
 20
146.59823937690001
 30
0.0
 40
8.2461809158000001
  1
598
  0
LINE
  5
1E4
  8
0
 62
     0
 10
1295.6051432291999
 20
95.798533299300004
 30
0.0
 11
1295.6051432291999
 21
145.14303097999999
 31
0.0
  0
LINE
  5
1E5
  8
0
 62
     0
 10
697.60514322919994
 20
95.798533299300004
 30
0.0
 11
697.60514322919994
 21
145.14303097999999
 31
0.0
  0
LINE
  5
1E6
  8
0
 62
     0
 10
1295.6051432291999
 20
144.14303097999999
 30
0.0
 11
1008.7318798701
 21
144.14303097999999
 31
0.0
  0
LINE
  5
1E7
  8
0
 62
     0
 10
1295.6051432291999
 20
144.14303097999999
 30
0.0
 11
984.47840658819996
 21
144.14303097999999
 31
0.0
  0
LINE
  5
1E8
  8
0
 62
     0
 10
697.60514322919994
 20
144.14303097999999
 30
0.0
 11
1008.7318798701
 21
144.14303097999999
 31
0.0
  0
LINE
  5
1E9
  8
0
 62
     0
 10
697.60514322919994
 20
144.14303097999999
 30
0.0
 11
984.47840658819996
 21
144.14303097999999
 31
0.0
  0
LINE
  5
1EA
  8
0
 62
     0
 10
697.60514322919994
 20
144.14303097999999
 30
0.0
 11
702.60514322919994
 21
144.14303097999999
 31
0.0
  0
SOLID
  5
1EB
  8
0
 62
     0
 10
697.60514322919994
 20
144.14303097999999
 30
0.0
 11
705.10514322919994
 21
146.01803097999999
 31
0.0
 12
705.10514322919994
 22
142.26803097999999
 32
0.0
 13
703.23014322919994
 23
144.14303097999999
 33
0.0
  0
LINE
  5
1EC
  8
0
 62
     0
 10
1295.6051432291999
 20
144.14303097999999
 30
0.0
 11
1290.6051432291999
 21
144.14303097999999
 31
0.0
  0
SOLID
  5
1ED
  8
0
 62
     0
 10
1295.6051432291999
 20
144.14303097999999
 30
0.0
 11
1288.1051432291999
 21
142.26803097999999
 31
0.0
 12
1288.1051432291999
 22
146.01803097999999
 32
0.0
 13
1289.9801432291999
 23
144.14303097999999
 33
0.0
  0
ENDBLK
  5
1EE
  8
0
  0
BLOCK
  8
0
  2
*D31
 70
     1
 10
0.0
 20
0.0
 30
0.0
  3
*D31
  1

  0
TEXT
  5
1F2
  8
0
 62
     0
 10
989.32910124460011
 20
129.0468096283
 30
0.0
 40
8.2461809158000001
  1
580
  0
LINE
  5
1F3
  8
0
 62
     0
 10
1286.6051432291999
 20
86.798533299300004
 30
0.0
 11
1286.6051432291999
 21
127.59160123140001
 31
0.0
  0
LINE
  5
1F4
  8
0
 62
     0
 10
706.60514322919994
 20
86.798533299300004
 30
0.0
 11
706.60514322919994
 21
127.59160123140001
 31
0.0
  0
LINE
  5
1F5
  8
0
 62
     0
 10
1286.6051432291999
 20
126.59160123140001
 30
0.0
 11
1008.7318798701
 21
126.59160123140001
 31
0.0
  0
LINE
  5
1F6
  8
0
 62
     0
 10
1286.6051432291999
 20
126.59160123140001
 30
0.0
 11
984.47840658819996
 21
126.59160123140001
 31
0.0
  0
LINE
  5
1F7
  8
0
 62
     0
 10
706.60514322919994
 20
126.59160123140001
 30
0.0
 11
1008.7318798701
 21
126.59160123140001
 31
0.0
  0
LINE
  5
1F8
  8
0
 62
     0
 10
706.60514322919994
 20
126.59160123140001
 30
0.0
 11
984.47840658819996
 21
126.59160123140001
 31
0.0
  0
LINE
  5
1F9
  8
0
 62
     0
 10
706.60514322919994
 20
126.59160123140001
 30
0.0
 11
711.60514322919994
 21
126.59160123140001
 31
0.0
  0
SOLID
  5
1FA
  8
0
 62
     0
 10
706.60514322919994
 20
126.59160123140001
 30
0.0
 11
714.10514322919994
 21
128.46660123140001
 31
0.0
 12
714.10514322919994
 22
124.71660123140001
 32
0.0
 13
712.23014322919994
 23
126.59160123140001
 33
0.0
  0
LINE
  5
1FB
  8
0
 62
     0
 10
1286.6051432291999
 20
126.59160123140001
 30
0.0
 11
1281.6051432291999
 21
126.59160123140001
 31
0.0
  0
SOLID
  5
1FC
  8
0
 62
     0
 10
1286.6051432291999
 20
126.59160123140001
 30
0.0
 11
1279.1051432291999
 21
124.71660123140001
 31
0.0
 12
1279.1051432291999
 22
128.46660123140001
 32
0.0
 13
1280.9801432291999
 23
126.59160123140001
 33
0.0
  0
ENDBLK
  5
1FD
  8
0
  0
BLOCK
  8
0
  2
*D32
 70
     1
 10
0.0
 20
0.0
 30
0.0
  3
*D32
  1

  0
TEXT
  5
201
  8
0
 62
     0
 10
1320.2125244776
 20
86.873185971099986
 30
0.0
 40
8.2461809158000001
  1
9
 50
90.0
  0
LINE
  5
202
  8
0
 62
     0
 10
1288.6051432291999
 20
84.798533299300004
 30
0.0
 11
1323.6677328746
 21
84.798533299300004
 31
0.0
  0
LINE
  5
203
  8
0
 62
     0
 10
1297.6051432291999
 20
93.798533299300004
 30
0.0
 11
1323.6677328746
 21
93.798533299300004
 31
0.0
  0
LINE
  5
204
  8
0
 62
     0
 10
1322.6677328746
 20
84.798533299300004
 30
0.0
 11
1322.6677328746
 21
84.798533299300004
 31
0.0
  0
LINE
  5
205
  8
0
 62
     0
 10
1322.6677328746
 20
84.798533299300004
 30
0.0
 11
1322.6677328746
 21
93.798533299300004
 31
0.0
  0
LINE
  5
206
  8
0
 62
     0
 10
1322.6677328746
 20
93.798533299300004
 30
0.0
 11
1322.6677328746
 21
84.798533299300004
 31
0.0
  0
LINE
  5
207
  8
0
 62
     0
 10
1322.6677328746
 20
93.798533299300004
 30
0.0
 11
1322.6677328746
 21
93.798533299300004
 31
0.0
  0
LINE
  5
208
  8
0
 62
     0
 10
1322.6677328746
 20
93.798533299300004
 30
0.0
 11
1322.6677328746
 21
98.798533299300004
 31
0.0
  0
SOLID
  5
209
  8
0
 62
     0
 10
1322.6677328746
 20
93.798533299300004
 30
0.0
 11
1320.7927328746
 21
101.2985332993
 31
0.0
 12
1324.5427328746
 22
101.2985332993
 32
0.0
 13
1322.6677328746
 23
99.423533299300004
 33
0.0
  0
LINE
  5
20A
  8
0
 62
     0
 10
1322.6677328746
 20
84.798533299300004
 30
0.0
 11
1322.6677328746
 21
79.798533299300004
 31
0.0
  0
SOLID
  5
20B
  8
0
 62
     0
 10
1322.6677328746
 20
84.798533299300004
 30
0.0
 11
1324.5427328746
 21
77.298533299300004
 31
0.0
 12
1320.7927328746
 22
77.298533299300004
 32
0.0
 13
1322.6677328746
 23
79.173533299300004
 33
0.0
  0
ENDBLK
  5
20C
  8
0
  0
BLOCK
  8
0
  2
*D33
 70
     1
 10
0.0
 20
0.0
 30
0.0
  3
*D33
  1

  0
TEXT
  5
210
  8
0
 62
     0
 10
1288.679795901
 20
129.0468096283
 30
0.0
 40
8.2461809158000001
  1
9
  0
LINE
  5
211
  8
0
 62
     0
 10
1295.6051432291999
 20
95.798533299300004
 30
0.0
 11
1295.6051432291999
 21
127.59160123140001
 31
0.0
  0
LINE
  5
212
  8
0
 62
     0
 10
1286.6051432291999
 20
86.798533299300004
 30
0.0
 11
1286.6051432291999
 21
127.59160123140001
 31
0.0
  0
LINE
  5
213
  8
0
 62
     0
 10
1295.6051432291999
 20
126.59160123140001
 30
0.0
 11
1295.6051432291999
 21
126.59160123140001
 31
0.0
  0
LINE
  5
214
  8
0
 62
     0
 10
1295.6051432291999
 20
126.59160123140001
 30
0.0
 11
1286.6051432291999
 21
126.59160123140001
 31
0.0
  0
LINE
  5
215
  8
0
 62
     0
 10
1286.6051432291999
 20
126.59160123140001
 30
0.0
 11
1295.6051432291999
 21
126.59160123140001
 31
0.0
  0
LINE
  5
216
  8
0
 62
     0
 10
1286.6051432291999
 20
126.59160123140001
 30
0.0
 11
1286.6051432291999
 21
126.59160123140001
 31
0.0
  0
LINE
  5
217
  8
0
 62
     0
 10
1286.6051432291999
 20
126.59160123140001
 30
0.0
 11
1281.6051432291999
 21
126.59160123140001
 31
0.0
  0
SOLID
  5
218
  8
0
 62
     0
 10
1286.6051432291999
 20
126.59160123140001
 30
0.0
 11
1279.1051432291999
 21
124.71660123140001
 31
0.0
 12
1279.1051432291999
 22
128.46660123140001
 32
0.0
 13
1280.9801432291999
 23
126.59160123140001
 33
0.0
  0
LINE
  5
219
  8
0
 62
     0
 10
1295.6051432291999
 20
126.59160123140001
 30
0.0
 11
1300.6051432291999
 21
126.59160123140001
 31
0.0
  0
SOLID
  5
21A
  8
0
 62
     0
 10
1295.6051432291999
 20
126.59160123140001
 30
0.0
 11
1303.1051432291999
 21
128.46660123140001
 31
0.0
 12
1303.1051432291999
 22
124.71660123140001
 32
0.0
 13
1301.2301432291999
 23
126.59160123140001
 33
0.0
  0
ENDBLK
  5
21B
  8
0
  0
BLOCK
  8
0
  2
*D34
 70
     1
 10
0.0
 20
0.0
 30
0.0
  3
*D34
  1

  0
TEXT
  5
21F
  8
0
 62
     0
 10
1410.1786972228999
 20
-24.867640079299999
 30
0.0
 40
8.2461809158000001
  1
15.5
 50
90.0
  0
LINE
  5
220
  8
0
 62
     0
 10
1395.1824247543
 20
-4.2014667007000002
 30
0.0
 11
1413.6339056198001
 21
-4.2014667007000002
 31
0.0
  0
LINE
  5
221
  8
0
 62
     0
 10
1395.1824247543
 20
11.298533299300001
 30
0.0
 11
1413.6339056198001
 21
11.298533299300001
 31
0.0
  0
LINE
  5
222
  8
0
 62
     0
 10
1412.6339056198001
 20
-4.2014667007000002
 30
0.0
 11
1412.6339056198001
 21
-3.4437386802999992
 31
0.0
  0
LINE
  5
223
  8
0
 62
     0
 10
1412.6339056198001
 20
-4.2014667007000002
 30
0.0
 11
1412.6339056198001
 21
-29.718334735700001
 31
0.0
  0
LINE
  5
224
  8
0
 62
     0
 10
1412.6339056198001
 20
11.298533299300001
 30
0.0
 11
1412.6339056198001
 21
-3.4437386802999992
 31
0.0
  0
LINE
  5
225
  8
0
 62
     0
 10
1412.6339056198001
 20
11.298533299300001
 30
0.0
 11
1412.6339056198001
 21
-29.718334735700001
 31
0.0
  0
LINE
  5
226
  8
0
 62
     0
 10
1412.6339056198001
 20
11.298533299300001
 30
0.0
 11
1412.6339056198001
 21
6.2985332992999989
 31
0.0
  0
SOLID
  5
227
  8
0
 62
     0
 10
1412.6339056198001
 20
11.298533299300001
 30
0.0
 11
1414.5089056198001
 21
3.7985332992999998
 31
0.0
 12
1410.7589056198001
 22
3.7985332992999998
 32
0.0
 13
1412.6339056198001
 23
5.6735332992999989
 33
0.0
  0
LINE
  5
228
  8
0
 62
     0
 10
1412.6339056198001
 20
-4.2014667007000002
 30
0.0
 11
1412.6339056198001
 21
0.7985332993000001
 31
0.0
  0
SOLID
  5
229
  8
0
 62
     0
 10
1412.6339056198001
 20
-4.2014667007000002
 30
0.0
 11
1410.7589056198001
 21
3.2985332992999998
 31
0.0
 12
1414.5089056198001
 22
3.2985332992999998
 32
0.0
 13
1412.6339056198001
 23
1.4235332993000001
 33
0.0
  0
ENDBLK
  5
22A
  8
0
  0
BLOCK
  8
0
  2
*D35
 70
     1
 10
0.0
 20
0.0
 30
0.0
  3
*D35
  1

  0
TEXT
  5
22E
  8
0
 62
     0
 10
1510.8142422045
 20
-2.0517031051000001
 30
0.0
 40
8.2461809158000001
  1
14
 50
90.0
  0
LINE
  5
22F
  8
0
 62
     0
 10
1499.2694506014
 20
-4.2010084486999988
 30
0.0
 11
1514.2694506014
 21
-4.2010084486999988
 31
0.0
  0
LINE
  5
230
  8
0
 62
     0
 10
1499.2694506014
 20
9.7989915513000003
 30
0.0
 11
1514.2694506014
 21
9.7989915513000003
 31
0.0
  0
LINE
  5
231
  8
0
 62
     0
 10
1513.2694506014
 20
-4.2010084486999988
 30
0.0
 11
1513.2694506014
 21
-4.2010084486999988
 31
0.0
  0
LINE
  5
232
  8
0
 62
     0
 10
1513.2694506014
 20
-4.2010084486999988
 30
0.0
 11
1513.2694506014
 21
9.7989915513000003
 31
0.0
  0
LINE
  5
233
  8
0
 62
     0
 10
1513.2694506014
 20
9.7989915513000003
 30
0.0
 11
1513.2694506014
 21
-4.2010084486999988
 31
0.0
  0
LINE
  5
234
  8
0
 62
     0
 10
1513.2694506014
 20
9.7989915513000003
 30
0.0
 11
1513.2694506014
 21
9.7989915513000003
 31
0.0
  0
LINE
  5
235
  8
0
 62
     0
 10
1513.2694506014
 20
9.7989915513000003
 30
0.0
 11
1513.2694506014
 21
14.7989915513
 31
0.0
  0
SOLID
  5
236
  8
0
 62
     0
 10
1513.2694506014
 20
9.7989915513000003
 30
0.0
 11
1511.3944506014
 21
17.298991551299999
 31
0.0
 12
1515.1444506014
 22
17.298991551299999
 32
0.0
 13
1513.2694506014
 23
15.4239915513
 33
0.0
  0
LINE
  5
237
  8
0
 62
     0
 10
1513.2694506014
 20
-4.2010084486999988
 30
0.0
 11
1513.2694506014
 21
-9.2010084486999997
 31
0.0
  0
SOLID
  5
238
  8
0
 62
     0
 10
1513.2694506014
 20
-4.2010084486999988
 30
0.0
 11
1515.1444506014
 21
-11.7010084487
 31
0.0
 12
1511.3944506014
 22
-11.7010084487
 32
0.0
 13
1513.2694506014
 23
-9.8260084486999997
 33
0.0
  0
ENDBLK
  5
239
  8
0
  0
BLOCK
  8
0
  2
*D36
 70
     1
 10
0.0
 20
0.0
 30
0.0
  3
*D36
  1

  0
TEXT
  5
23D
  8
0
 62
     0
 10
1449.9187559449999
 20
124.82853504640001
 30
0.0
 40
8.2461809158000001
  1
25
  0
LINE
  5
23E
  8
0
 62
     0
 10
1467.2694506014
 20
86.798991551300006
 30
0.0
 11
1467.2694506014
 21
123.3733266495
 31
0.0
  0
LINE
  5
23F
  8
0
 62
     0
 10
1442.2694506014
 20
95.798991551299977
 30
0.0
 11
1442.2694506014
 21
123.3733266495
 31
0.0
  0
LINE
  5
240
  8
0
 62
     0
 10
1467.2694506014
 20
122.3733266495
 30
0.0
 11
1464.4708399141
 21
122.3733266495
 31
0.0
  0
LINE
  5
241
  8
0
 62
     0
 10
1467.2694506014
 20
122.3733266495
 30
0.0
 11
1445.0680612885999
 21
122.3733266495
 31
0.0
  0
LINE
  5
242
  8
0
 62
     0
 10
1442.2694506014
 20
122.3733266495
 30
0.0
 11
1464.4708399141
 21
122.3733266495
 31
0.0
  0
LINE
  5
243
  8
0
 62
     0
 10
1442.2694506014
 20
122.3733266495
 30
0.0
 11
1445.0680612885999
 21
122.3733266495
 31
0.0
  0
LINE
  5
244
  8
0
 62
     0
 10
1442.2694506014
 20
122.3733266495
 30
0.0
 11
1437.2694506014
 21
122.3733266495
 31
0.0
  0
SOLID
  5
245
  8
0
 62
     0
 10
1442.2694506014
 20
122.3733266495
 30
0.0
 11
1434.7694506014
 21
120.4983266495
 31
0.0
 12
1434.7694506014
 22
124.2483266495
 32
0.0
 13
1436.6444506014
 23
122.3733266495
 33
0.0
  0
LINE
  5
246
  8
0
 62
     0
 10
1467.2694506014
 20
122.3733266495
 30
0.0
 11
1472.2694506014
 21
122.3733266495
 31
0.0
  0
SOLID
  5
247
  8
0
 62
     0
 10
1467.2694506014
 20
122.3733266495
 30
0.0
 11
1474.7694506014
 21
124.2483266495
 31
0.0
 12
1474.7694506014
 22
120.4983266495
 32
0.0
 13
1472.8944506014
 23
122.3733266495
 33
0.0
  0
ENDBLK
  5
248
  8
0
  0
BLOCK
  8
0
  2
*D37
 70
     1
 10
0.0
 20
0.0
 30
0.0
  3
*D37
  1

  0
TEXT
  5
24C
  8
0
 62
     0
 10
1410.2103878204
 20
98.18795817969999
 30
0.0
 40
8.2461809158000001
  1
15.5
 50
90.0
  0
LINE
  5
24D
  8
0
 62
     0
 10
1395.1824247543
 20
78.298533299300004
 30
0.0
 11
1413.6655962172999
 21
78.298533299300004
 31
0.0
  0
LINE
  5
24E
  8
0
 62
     0
 10
1392.5824247543001
 20
93.798533299300004
 30
0.0
 11
1413.6655962172999
 21
93.798533299300004
 31
0.0
  0
LINE
  5
24F
  8
0
 62
     0
 10
1412.6655962172999
 20
78.298533299300004
 30
0.0
 11
1412.6655962172999
 21
119.6118595786
 31
0.0
  0
LINE
  5
250
  8
0
 62
     0
 10
1412.6655962172999
 20
78.298533299300004
 30
0.0
 11
1412.6655962172999
 21
93.337263523299995
 31
0.0
  0
LINE
  5
251
  8
0
 62
     0
 10
1412.6655962172999
 20
93.798533299300004
 30
0.0
 11
1412.6655962172999
 21
119.6118595786
 31
0.0
  0
LINE
  5
252
  8
0
 62
     0
 10
1412.6655962172999
 20
93.798533299300004
 30
0.0
 11
1412.6655962172999
 21
93.337263523299995
 31
0.0
  0
LINE
  5
253
  8
0
 62
     0
 10
1412.6655962172999
 20
93.798533299300004
 30
0.0
 11
1412.6655962172999
 21
88.798533299300004
 31
0.0
  0
SOLID
  5
254
  8
0
 62
     0
 10
1412.6655962172999
 20
93.798533299300004
 30
0.0
 11
1414.5405962172999
 21
86.298533299300004
 31
0.0
 12
1410.7905962172999
 22
86.298533299300004
 32
0.0
 13
1412.6655962172999
 23
88.173533299300004
 33
0.0
  0
LINE
  5
255
  8
0
 62
     0
 10
1412.6655962172999
 20
78.298533299300004
 30
0.0
 11
1412.6655962172999
 21
83.298533299300004
 31
0.0
  0
SOLID
  5
256
  8
0
 62
     0
 10
1412.6655962172999
 20
78.298533299300004
 30
0.0
 11
1410.7905962172999
 21
85.798533299300004
 31
0.0
 12
1414.5405962172999
 22
85.798533299300004
 32
0.0
 13
1412.6655962172999
 23
83.923533299300004
 33
0.0
  0
ENDBLK
  5
257
  8
0
  0
BLOCK
  8
0
  2
*D38
 70
     1
 10
0.0
 20
0.0
 30
0.0
  3
*D38
  1

  0
TEXT
  5
25B
  8
0
 62
     0
 10
1510.8142422045
 20
81.948296894899997
 30
0.0
 40
8.2461809158000001
  1
14
 50
90.0
  0
LINE
  5
25C
  8
0
 62
     0
 10
1499.2694506014
 20
79.798991551300006
 30
0.0
 11
1514.2694506014
 21
79.798991551300006
 31
0.0
  0
LINE
  5
25D
  8
0
 62
     0
 10
1499.2694506014
 20
93.798991551299991
 30
0.0
 11
1514.2694506014
 21
93.798991551299991
 31
0.0
  0
LINE
  5
25E
  8
0
 62
     0
 10
1513.2694506014
 20
79.798991551300006
 30
0.0
 11
1513.2694506014
 21
79.798991551300006
 31
0.0
  0
LINE
  5
25F
  8
0
 62
     0
 10
1513.2694506014
 20
79.798991551300006
 30
0.0
 11
1513.2694506014
 21
93.798991551299991
 31
0.0
  0
LINE
  5
260
  8
0
 62
     0
 10
1513.2694506014
 20
93.798991551299991
 30
0.0
 11
1513.2694506014
 21
79.798991551300006
 31
0.0
  0
LINE
  5
261
  8
0
 62
     0
 10
1513.2694506014
 20
93.798991551299991
 30
0.0
 11
1513.2694506014
 21
93.798991551299991
 31
0.0
  0
LINE
  5
262
  8
0
 62
     0
 10
1513.2694506014
 20
93.798991551299991
 30
0.0
 11
1513.2694506014
 21
98.798991551299991
 31
0.0
  0
SOLID
  5
263
  8
0
 62
     0
 10
1513.2694506014
 20
93.798991551299991
 30
0.0
 11
1511.3944506014
 21
101.29899155130001
 31
0.0
 12
1515.1444506014
 22
101.29899155130001
 32
0.0
 13
1513.2694506014
 23
99.423991551299991
 33
0.0
  0
LINE
  5
264
  8
0
 62
     0
 10
1513.2694506014
 20
79.798991551300006
 30
0.0
 11
1513.2694506014
 21
74.798991551300006
 31
0.0
  0
SOLID
  5
265
  8
0
 62
     0
 10
1513.2694506014
 20
79.798991551300006
 30
0.0
 11
1515.1444506014
 21
72.298991551300006
 31
0.0
 12
1511.3944506014
 22
72.298991551300006
 32
0.0
 13
1513.2694506014
 23
74.173991551300006
 33
0.0
  0
ENDBLK
  5
266
  8
0
  0
BLOCK
  8
0
  2
*D39
 70
     1
 10
0.0
 20
0.0
 30
0.0
  3
*D39
  1

  0
TEXT
  5
26A
  8
0
 62
     0
 10
1464.9187559449999
 20
138.60348049629999
 30
0.0
 40
8.2461809158000001
  1
55
  0
LINE
  5
26B
  8
0
 62
     0
 10
1497.2694506014
 20
94.998991551299994
 30
0.0
 11
1497.2694506014
 21
137.1482720994
 31
0.0
  0
LINE
  5
26C
  8
0
 62
     0
 10
1442.2694506014
 20
94.998991551299994
 30
0.0
 11
1442.2694506014
 21
137.1482720994
 31
0.0
  0
LINE
  5
26D
  8
0
 62
     0
 10
1497.2694506014
 20
136.1482720994
 30
0.0
 11
1479.4708399141
 21
136.1482720994
 31
0.0
  0
LINE
  5
26E
  8
0
 62
     0
 10
1497.2694506014
 20
136.1482720994
 30
0.0
 11
1460.0680612885999
 21
136.1482720994
 31
0.0
  0
LINE
  5
26F
  8
0
 62
     0
 10
1442.2694506014
 20
136.1482720994
 30
0.0
 11
1479.4708399141
 21
136.1482720994
 31
0.0
  0
LINE
  5
270
  8
0
 62
     0
 10
1442.2694506014
 20
136.1482720994
 30
0.0
 11
1460.0680612885999
 21
136.1482720994
 31
0.0
  0
LINE
  5
271
  8
0
 62
     0
 10
1442.2694506014
 20
136.1482720994
 30
0.0
 11
1447.2694506014
 21
136.1482720994
 31
0.0
  0
SOLID
  5
272
  8
0
 62
     0
 10
1442.2694506014
 20
136.1482720994
 30
0.0
 11
1449.7694506014
 21
138.0232720994
 31
0.0
 12
1449.7694506014
 22
134.2732720994
 32
0.0
 13
1447.8944506014
 23
136.1482720994
 33
0.0
  0
LINE
  5
273
  8
0
 62
     0
 10
1497.2694506014
 20
136.1482720994
 30
0.0
 11
1492.2694506014
 21
136.1482720994
 31
0.0
  0
SOLID
  5
274
  8
0
 62
     0
 10
1497.2694506014
 20
136.1482720994
 30
0.0
 11
1489.7694506014
 21
134.2732720994
 31
0.0
 12
1489.7694506014
 22
138.0232720994
 32
0.0
 13
1491.6444506014
 23
136.1482720994
 33
0.0
  0
ENDBLK
  5
275
  8
0
  0
BLOCK
  8
0
  2
*D40
 70
     1
 10
0.0
 20
0.0
 30
0.0
  3
*D40
  1

  0
TEXT
  5
28C
  8
0
 62
     0
 10
983.99245386169991
 20
-275.80919983259997
 30
0.0
 40
8.2461809158000001
  1
75
  0
LINE
  5
28D
  8
0
 62
     0
 10
951.34314851799991
 20
-244.26440822949999
 30
0.0
 11
951.34314851799991
 21
-279.26440822950002
 31
0.0
  0
LINE
  5
28E
  8
0
 62
     0
 10
1026.3431485179999
 20
-244.26440822949999
 30
0.0
 11
1026.3431485179999
 21
-279.26440822950002
 31
0.0
  0
LINE
  5
28F
  8
0
 62
     0
 10
951.34314851799991
 20
-278.26440822950002
 30
0.0
 11
998.54453783079998
 21
-278.26440822950002
 31
0.0
  0
LINE
  5
290
  8
0
 62
     0
 10
951.34314851799991
 20
-278.26440822950002
 30
0.0
 11
979.14175920529988
 21
-278.26440822950002
 31
0.0
  0
LINE
  5
291
  8
0
 62
     0
 10
1026.3431485179999
 20
-278.26440822950002
 30
0.0
 11
998.54453783079998
 21
-278.26440822950002
 31
0.0
  0
LINE
  5
292
  8
0
 62
     0
 10
1026.3431485179999
 20
-278.26440822950002
 30
0.0
 11
979.14175920529988
 21
-278.26440822950002
 31
0.0
  0
LINE
  5
293
  8
0
 62
     0
 10
1026.3431485179999
 20
-278.26440822950002
 30
0.0
 11
1021.343148518
 21
-278.26440822950002
 31
0.0
  0
SOLID
  5
294
  8
0
 62
     0
 10
1026.3431485179999
 20
-278.26440822950002
 30
0.0
 11
1018.843148518
 21
-280.13940822950002
 31
0.0
 12
1018.843148518
 22
-276.38940822950002
 32
0.0
 13
1020.718148518
 23
-278.26440822950002
 33
0.0
  0
LINE
  5
295
  8
0
 62
     0
 10
951.34314851799991
 20
-278.26440822950002
 30
0.0
 11
956.34314851800002
 21
-278.26440822950002
 31
0.0
  0
SOLID
  5
296
  8
0
 62
     0
 10
951.34314851799991
 20
-278.26440822950002
 30
0.0
 11
958.84314851800002
 21
-276.38940822950002
 31
0.0
 12
958.84314851800002
 22
-280.13940822950002
 32
0.0
 13
956.96814851800002
 23
-278.26440822950002
 33
0.0
  0
ENDBLK
  5
297
  8
0
  0
BLOCK
  8
0
  2
*D41
 70
     1
 10
0.0
 20
0.0
 30
0.0
  3
*D41
  1

  0
TEXT
  5
29B
  8
0
 62
     0
 10
1058.9924538616999
 20
-275.80919983259997
 30
0.0
 40
8.2461809158000001
  1
75
  0
LINE
  5
29C
  8
0
 62
     0
 10
1026.3431485179999
 20
-244.26440822949999
 30
0.0
 11
1026.3431485179999
 21
-279.26440822950002
 31
0.0
  0
LINE
  5
29D
  8
0
 62
     0
 10
1101.3431485179999
 20
-244.26440822949999
 30
0.0
 11
1101.3431485179999
 21
-279.26440822950002
 31
0.0
  0
LINE
  5
29E
  8
0
 62
     0
 10
1026.3431485179999
 20
-278.26440822950002
 30
0.0
 11
1073.5445378308
 21
-278.26440822950002
 31
0.0
  0
LINE
  5
29F
  8
0
 62
     0
 10
1026.3431485179999
 20
-278.26440822950002
 30
0.0
 11
1054.1417592053001
 21
-278.26440822950002
 31
0.0
  0
LINE
  5
2A0
  8
0
 62
     0
 10
1101.3431485179999
 20
-278.26440822950002
 30
0.0
 11
1073.5445378308
 21
-278.26440822950002
 31
0.0
  0
LINE
  5
2A1
  8
0
 62
     0
 10
1101.3431485179999
 20
-278.26440822950002
 30
0.0
 11
1054.1417592053001
 21
-278.26440822950002
 31
0.0
  0
LINE
  5
2A2
  8
0
 62
     0
 10
1101.3431485179999
 20
-278.26440822950002
 30
0.0
 11
1096.3431485179999
 21
-278.26440822950002
 31
0.0
  0
SOLID
  5
2A3
  8
0
 62
     0
 10
1101.3431485179999
 20
-278.26440822950002
 30
0.0
 11
1093.8431485179999
 21
-280.13940822950002
 31
0.0
 12
1093.8431485179999
 22
-276.38940822950002
 32
0.0
 13
1095.7181485179999
 23
-278.26440822950002
 33
0.0
  0
LINE
  5
2A4
  8
0
 62
     0
 10
1026.3431485179999
 20
-278.26440822950002
 30
0.0
 11
1031.3431485179999
 21
-278.26440822950002
 31
0.0
  0
SOLID
  5
2A5
  8
0
 62
     0
 10
1026.3431485179999
 20
-278.26440822950002
 30
0.0
 11
1033.8431485179999
 21
-276.38940822950002
 31
0.0
 12
1033.8431485179999
 22
-280.13940822950002
 32
0.0
 13
1031.9681485179999
 23
-278.26440822950002
 33
0.0
  0
ENDBLK
  5
2A6
  8
0
  0
BLOCK
  8
0
  2
*D42
 70
     1
 10
0.0
 20
0.0
 30
0.0
  3
*D42
  1

  0
TEXT
  5
2AA
  8
0
 62
     0
 10
796.49245386170003
 20
-223.5692906605
 30
0.0
 40
8.2461809158000001
  1
22
  0
LINE
  5
2AB
  8
0
 62
     0
 10
812.34314851800013
 20
-236.76440822949999
 30
0.0
 11
812.34314851800013
 21
-225.02449905739999
 31
0.0
  0
LINE
  5
2AC
  8
0
 62
     0
 10
790.34314851800002
 20
-236.76440822949999
 30
0.0
 11
790.34314851800002
 21
-225.02449905739999
 31
0.0
  0
LINE
  5
2AD
  8
0
 62
     0
 10
812.34314851800013
 20
-226.02449905739999
 30
0.0
 11
811.04453783079998
 21
-226.02449905739999
 31
0.0
  0
LINE
  5
2AE
  8
0
 62
     0
 10
812.34314851800013
 20
-226.02449905739999
 30
0.0
 11
791.64175920529999
 21
-226.02449905739999
 31
0.0
  0
LINE
  5
2AF
  8
0
 62
     0
 10
790.34314851800002
 20
-226.02449905739999
 30
0.0
 11
811.04453783079998
 21
-226.02449905739999
 31
0.0
  0
LINE
  5
2B0
  8
0
 62
     0
 10
790.34314851800002
 20
-226.02449905739999
 30
0.0
 11
791.64175920529999
 21
-226.02449905739999
 31
0.0
  0
LINE
  5
2B1
  8
0
 62
     0
 10
790.34314851800002
 20
-226.02449905739999
 30
0.0
 11
785.34314851800002
 21
-226.02449905739999
 31
0.0
  0
SOLID
  5
2B2
  8
0
 62
     0
 10
790.34314851800002
 20
-226.02449905739999
 30
0.0
 11
782.84314851800002
 21
-227.89949905739999
 31
0.0
 12
782.84314851800002
 22
-224.14949905739999
 32
0.0
 13
784.71814851800002
 23
-226.02449905739999
 33
0.0
  0
LINE
  5
2B3
  8
0
 62
     0
 10
812.34314851800013
 20
-226.02449905739999
 30
0.0
 11
817.34314851800002
 21
-226.02449905739999
 31
0.0
  0
SOLID
  5
2B4
  8
0
 62
     0
 10
812.34314851800013
 20
-226.02449905739999
 30
0.0
 11
819.84314851800002
 21
-224.14949905739999
 31
0.0
 12
819.84314851800002
 22
-227.89949905739999
 32
0.0
 13
817.96814851799991
 23
-226.02449905739999
 33
0.0
  0
ENDBLK
  5
2B5
  8
0
  0
BLOCK
  8
0
  2
*D43
 70
     1
 10
0.0
 20
0.0
 30
0.0
  3
*D43
  1

  0
TEXT
  5
2B9
  8
0
 62
     0
 10
822.38794012109997
 20
-241.18975555770001
 30
0.0
 40
8.2461809158000001
  1
7
 50
90.0
  0
LINE
  5
2BA
  8
0
 62
     0
 10
810.84314851800002
 20
-242.26440822949999
 30
0.0
 11
825.84314851800002
 21
-242.26440822949999
 31
0.0
  0
LINE
  5
2BB
  8
0
 62
     0
 10
810.84314851800002
 20
-235.26440822949999
 30
0.0
 11
825.84314851800002
 21
-235.26440822949999
 31
0.0
  0
LINE
  5
2BC
  8
0
 62
     0
 10
824.84314851800013
 20
-242.26440822949999
 30
0.0
 11
824.84314851800013
 21
-242.26440822949999
 31
0.0
  0
LINE
  5
2BD
  8
0
 62
     0
 10
824.84314851800013
 20
-242.26440822949999
 30
0.0
 11
824.84314851800013
 21
-235.26440822949999
 31
0.0
  0
LINE
  5
2BE
  8
0
 62
     0
 10
824.84314851800013
 20
-235.26440822949999
 30
0.0
 11
824.84314851800013
 21
-242.26440822949999
 31
0.0
  0
LINE
  5
2BF
  8
0
 62
     0
 10
824.84314851800013
 20
-235.26440822949999
 30
0.0
 11
824.84314851800013
 21
-235.26440822949999
 31
0.0
  0
LINE
  5
2C0
  8
0
 62
     0
 10
824.84314851800013
 20
-235.26440822949999
 30
0.0
 11
824.84314851800013
 21
-230.26440822949999
 31
0.0
  0
SOLID
  5
2C1
  8
0
 62
     0
 10
824.84314851800013
 20
-235.26440822949999
 30
0.0
 11
822.96814851800002
 21
-227.76440822949999
 31
0.0
 12
826.71814851800002
 22
-227.76440822949999
 32
0.0
 13
824.84314851800013
 23
-229.63940822949999
 33
0.0
  0
LINE
  5
2C2
  8
0
 62
     0
 10
824.84314851800013
 20
-242.26440822949999
 30
0.0
 11
824.84314851800013
 21
-247.26440822949999
 31
0.0
  0
SOLID
  5
2C3
  8
0
 62
     0
 10
824.84314851800013
 20
-242.26440822949999
 30
0.0
 11
826.71814851800002
 21
-249.76440822949999
 31
0.0
 12
822.96814851800002
 22
-249.76440822949999
 32
0.0
 13
824.84314851800013
 23
-247.88940822949999
 33
0.0
  0
ENDBLK
  5
2C4
  8
0
  0
BLOCK
  8
0
  2
*D44
 70
     1
 10
0.0
 20
0.0
 30
0.0
  3
*D44
  1

  0
TEXT
  5
2C8
  8
0
 62
     0
 10
833.99245386169991
 20
-275.80919983259997
 30
0.0
 40
8.2461809158000001
  1
75
  0
LINE
  5
2C9
  8
0
 62
     0
 10
801.34314851799991
 20
-244.26440822949999
 30
0.0
 11
801.34314851799991
 21
-279.26440822950002
 31
0.0
  0
LINE
  5
2CA
  8
0
 62
     0
 10
876.34314851799991
 20
-244.26440822949999
 30
0.0
 11
876.34314851799991
 21
-279.26440822950002
 31
0.0
  0
LINE
  5
2CB
  8
0
 62
     0
 10
801.34314851799991
 20
-278.26440822950002
 30
0.0
 11
848.54453783079998
 21
-278.26440822950002
 31
0.0
  0
LINE
  5
2CC
  8
0
 62
     0
 10
801.34314851799991
 20
-278.26440822950002
 30
0.0
 11
829.14175920529988
 21
-278.26440822950002
 31
0.0
  0
LINE
  5
2CD
  8
0
 62
     0
 10
876.34314851799991
 20
-278.26440822950002
 30
0.0
 11
848.54453783079998
 21
-278.26440822950002
 31
0.0
  0
LINE
  5
2CE
  8
0
 62
     0
 10
876.34314851799991
 20
-278.26440822950002
 30
0.0
 11
829.14175920529988
 21
-278.26440822950002
 31
0.0
  0
LINE
  5
2CF
  8
0
 62
     0
 10
876.34314851799991
 20
-278.26440822950002
 30
0.0
 11
871.34314851800002
 21
-278.26440822950002
 31
0.0
  0
SOLID
  5
2D0
  8
0
 62
     0
 10
876.34314851799991
 20
-278.26440822950002
 30
0.0
 11
868.84314851800002
 21
-280.13940822950002
 31
0.0
 12
868.84314851800002
 22
-276.38940822950002
 32
0.0
 13
870.71814851799991
 23
-278.26440822950002
 33
0.0
  0
LINE
  5
2D1
  8
0
 62
     0
 10
801.34314851799991
 20
-278.26440822950002
 30
0.0
 11
806.34314851800002
 21
-278.26440822950002
 31
0.0
  0
SOLID
  5
2D2
  8
0
 62
     0
 10
801.34314851799991
 20
-278.26440822950002
 30
0.0
 11
808.84314851800002
 21
-276.38940822950002
 31
0.0
 12
808.84314851800002
 22
-280.13940822950002
 32
0.0
 13
806.96814851800002
 23
-278.26440822950002
 33
0.0
  0
ENDBLK
  5
2D3
  8
0
  0
BLOCK
  8
0
  2
*D45
 70
     1
 10
0.0
 20
0.0
 30
0.0
  3
*D45
  1

  0
TEXT
  5
2D7
  8
0
 62
     0
 10
670.6099770687
 20
-238.00122395389999
 30
0.0
 40
8.2461809158000001
  1
2-Φ15
 50
26.776143397399998
  0
LINE
  5
2D8
  8
0
 62
     0
 10
719.61405005890003
 20
-217.07639161220001
 30
0.0
 11
672.1396634923999
 21
-241.03262402370001
 31
0.0
  0
SOLID
  5
2D9
  8
0
 62
     0
 10
719.61405005890003
 20
-217.07639161220001
 30
0.0
 11
713.76294745940004
 21
-222.12913575479999
 31
0.0
 12
712.07355052169987
 22
-218.7812352206
 32
0.0
 13
714.59219925770003
 23
-219.6104870188
 33
0.0
  0
ENDBLK
  5
2DA
  8
0
  0
BLOCK
  8
0
  2
CLUMP0
 70
     0
 10
0.0
 20
0.0
 30
0.0
  3
CLUMP0
  1

  0
ARC
  5
2DF
  8
ﾚｲﾔ_1
 62
     5
 10
771.34314851800002
 20
-213.76440822949999
 30
0.0
 40
3.5
 50
270.0
 51
90.0
  0
LINE
  5
2E0
  8
ﾚｲﾔ_1
 62
     5
 10
756.34314851800002
 20
-217.26440822949999
 30
0.0
 11
771.34314851800002
 21
-217.26440822949999
 31
0.0
  0
LINE
  5
2E1
  8
ﾚｲﾔ_1
 62
     5
 10
771.34314851800002
 20
-210.26440822949999
 30
0.0
 11
756.34314851800002
 21
-210.26440822949999
 31
0.0
  0
ARC
  5
2E2
  8
ﾚｲﾔ_1
 62
     5
 10
756.34314851800002
 20
-213.76440822949999
 30
0.0
 40
3.5
 50
90.0
 51
270.0
  0
ENDBLK
  5
2E3
  8
0
  0
BLOCK
  8
0
  2
CLUMP1
 70
     0
 10
0.0
 20
0.0
 30
0.0
  3
CLUMP1
  1

  0
INSERT
  5
2E9
  8
ﾚｲﾔ_1
  2
CLUMP2
 10
0.0
 20
0.0
 30
0.0
  0
INSERT
  5
2F1
  8
ﾚｲﾔ_1
  2
CLUMP3
 10
0.0
 20
0.0
 30
0.0
  0
ENDBLK
  5
2F8
  8
0
  0
BLOCK
  8
0
  2
CLUMP2
 70
     0
 10
0.0
 20
0.0
 30
0.0
  3
CLUMP2
  1

  0
ARC
  5
2EB
  8
ﾚｲﾔ_1
 62
     5
 10
733.84314851800002
 20
-188.76440822949999
 30
0.0
 40
3.5
 50
270.0
 51
90.0
  0
LINE
  5
2EC
  8
ﾚｲﾔ_1
 62
     5
 10
718.84314851800002
 20
-192.26440822949999
 30
0.0
 11
733.84314851800002
 21
-192.26440822949999
 31
0.0
  0
LINE
  5
2ED
  8
ﾚｲﾔ_1
 62
     5
 10
733.84314851800002
 20
-185.26440822949999
 30
0.0
 11
718.84314851800002
 21
-185.26440822949999
 31
0.0
  0
ARC
  5
2EE
  8
ﾚｲﾔ_1
 62
     5
 10
718.84314851800002
 20
-188.76440822949999
 30
0.0
 40
3.5
 50
90.0
 51
270.0
  0
ENDBLK
  5
2EF
  8
0
  0
BLOCK
  8
0
  2
CLUMP3
 70
     0
 10
0.0
 20
0.0
 30
0.0
  3
CLUMP3
  1

  0
ARC
  5
2F3
  8
ﾚｲﾔ_1
 62
     5
 10
733.84314851800002
 20
-238.76440822949999
 30
0.0
 40
3.5
 50
270.0
 51
90.0
  0
LINE
  5
2F4
  8
ﾚｲﾔ_1
 62
     5
 10
718.84314851800002
 20
-235.26440822949999
 30
0.0
 11
733.84314851800002
 21
-235.26440822949999
 31
0.0
  0
LINE
  5
2F5
  8
ﾚｲﾔ_1
 62
     5
 10
733.84314851800002
 20
-242.26440822949999
 30
0.0
 11
718.84314851800002
 21
-242.26440822949999
 31
0.0
  0
ARC
  5
2F6
  8
ﾚｲﾔ_1
 62
     5
 10
718.84314851800002
 20
-238.76440822949999
 30
0.0
 40
3.5
 50
90.0
 51
270.0
  0
ENDBLK
  5
2F7
  8
0
  0
BLOCK
  8
0
  2
CLUMP4
 70
     0
 10
0.0
 20
0.0
 30
0.0
  3
CLUMP4
  1

  0
INSERT
  5
2FD
  8
ﾚｲﾔ_1
  2
CLUMP5
 10
0.0
 20
0.0
 30
0.0
  0
INSERT
  5
305
  8
ﾚｲﾔ_1
  2
CLUMP6
 10
0.0
 20
0.0
 30
0.0
  0
ENDBLK
  5
30C
  8
0
  0
BLOCK
  8
0
  2
CLUMP5
 70
     0
 10
0.0
 20
0.0
 30
0.0
  3
CLUMP5
  1

  0
ARC
  5
2FF
  8
ﾚｲﾔ_1
 62
     5
 10
808.84314851800002
 20
-188.76440822949999
 30
0.0
 40
3.5
 50
270.0
 51
90.0
  0
LINE
  5
300
  8
ﾚｲﾔ_1
 62
     5
 10
793.84314851800002
 20
-192.26440822949999
 30
0.0
 11
808.84314851800002
 21
-192.26440822949999
 31
0.0
  0
LINE
  5
301
  8
ﾚｲﾔ_1
 62
     5
 10
808.84314851800002
 20
-185.26440822949999
 30
0.0
 11
793.84314851800002
 21
-185.26440822949999
 31
0.0
  0
ARC
  5
302
  8
ﾚｲﾔ_1
 62
     5
 10
793.84314851800002
 20
-188.76440822949999
 30
0.0
 40
3.5
 50
90.0
 51
270.0
  0
ENDBLK
  5
303
  8
0
  0
BLOCK
  8
0
  2
CLUMP6
 70
     0
 10
0.0
 20
0.0
 30
0.0
  3
CLUMP6
  1

  0
ARC
  5
307
  8
ﾚｲﾔ_1
 62
     5
 10
808.84314851800002
 20
-238.76440822949999
 30
0.0
 40
3.5
 50
270.0
 51
90.0
  0
LINE
  5
308
  8
ﾚｲﾔ_1
 62
     5
 10
793.84314851800002
 20
-235.26440822949999
 30
0.0
 11
808.84314851800002
 21
-235.26440822949999
 31
0.0
  0
LINE
  5
309
  8
ﾚｲﾔ_1
 62
     5
 10
808.84314851800002
 20
-242.26440822949999
 30
0.0
 11
793.84314851800002
 21
-242.26440822949999
 31
0.0
  0
ARC
  5
30A
  8
ﾚｲﾔ_1
 62
     5
 10
793.84314851800002
 20
-238.76440822949999
 30
0.0
 40
3.5
 50
90.0
 51
270.0
  0
ENDBLK
  5
30B
  8
0
  0
BLOCK
  8
0
  2
CLUMP7
 70
     0
 10
0.0
 20
0.0
 30
0.0
  3
CLUMP7
  1

  0
INSERT
  5
318
  8
ﾚｲﾔ_1
  2
CLUMP8
 10
0.0
 20
0.0
 30
0.0
  0
INSERT
  5
320
  8
ﾚｲﾔ_1
  2
CLUMP9
 10
0.0
 20
0.0
 30
0.0
  0
ENDBLK
  5
327
  8
0
  0
BLOCK
  8
0
  2
CLUMP8
 70
     0
 10
0.0
 20
0.0
 30
0.0
  3
CLUMP8
  1

  0
ARC
  5
31A
  8
ﾚｲﾔ_1
 62
     5
 10
883.84314851800002
 20
-188.76440822949999
 30
0.0
 40
3.5
 50
270.0
 51
90.0
  0
LINE
  5
31B
  8
ﾚｲﾔ_1
 62
     5
 10
868.84314851800002
 20
-192.26440822949999
 30
0.0
 11
883.84314851800002
 21
-192.26440822949999
 31
0.0
  0
LINE
  5
31C
  8
ﾚｲﾔ_1
 62
     5
 10
883.84314851800002
 20
-185.26440822949999
 30
0.0
 11
868.84314851800002
 21
-185.26440822949999
 31
0.0
  0
ARC
  5
31D
  8
ﾚｲﾔ_1
 62
     5
 10
868.84314851800002
 20
-188.76440822949999
 30
0.0
 40
3.5
 50
90.0
 51
270.0
  0
ENDBLK
  5
31E
  8
0
  0
BLOCK
  8
0
  2
CLUMP9
 70
     0
 10
0.0
 20
0.0
 30
0.0
  3
CLUMP9
  1

  0
ARC
  5
322
  8
ﾚｲﾔ_1
 62
     5
 10
883.84314851800002
 20
-238.76440822949999
 30
0.0
 40
3.5
 50
270.0
 51
90.0
  0
LINE
  5
323
  8
ﾚｲﾔ_1
 62
     5
 10
868.84314851800002
 20
-235.26440822949999
 30
0.0
 11
883.84314851800002
 21
-235.26440822949999
 31
0.0
  0
LINE
  5
324
  8
ﾚｲﾔ_1
 62
     5
 10
883.84314851800002
 20
-242.26440822949999
 30
0.0
 11
868.84314851800002
 21
-242.26440822949999
 31
0.0
  0
ARC
  5
325
  8
ﾚｲﾔ_1
 62
     5
 10
868.84314851800002
 20
-238.76440822949999
 30
0.0
 40
3.5
 50
90.0
 51
270.0
  0
ENDBLK
  5
326
  8
0
  0
BLOCK
  8
0
  2
CLUMP10
 70
     0
 10
0.0
 20
0.0
 30
0.0
  3
CLUMP10
  1

  0
ARC
  5
32B
  8
ﾚｲﾔ_1
 62
     5
 10
1146.3431485179999
 20
-213.76440822949999
 30
0.0
 40
3.5
 50
270.0
 51
90.0
  0
LINE
  5
32C
  8
ﾚｲﾔ_1
 62
     5
 10
1131.3431485179999
 20
-217.26440822949999
 30
0.0
 11
1146.3431485179999
 21
-217.26440822949999
 31
0.0
  0
LINE
  5
32D
  8
ﾚｲﾔ_1
 62
     5
 10
1146.3431485179999
 20
-210.26440822949999
 30
0.0
 11
1131.3431485179999
 21
-210.26440822949999
 31
0.0
  0
ARC
  5
32E
  8
ﾚｲﾔ_1
 62
     5
 10
1131.3431485179999
 20
-213.76440822949999
 30
0.0
 40
3.5
 50
90.0
 51
270.0
  0
ENDBLK
  5
32F
  8
0
  0
BLOCK
  8
0
  2
CLUMP11
 70
     0
 10
0.0
 20
0.0
 30
0.0
  3
CLUMP11
  1

  0
ARC
  5
336
  8
ﾚｲﾔ_1
 62
     5
 10
1221.3431485179999
 20
-213.76440822949999
 30
0.0
 40
3.5
 50
270.0
 51
90.0
  0
LINE
  5
337
  8
ﾚｲﾔ_1
 62
     5
 10
1206.3431485179999
 20
-217.26440822949999
 30
0.0
 11
1221.3431485179999
 21
-217.26440822949999
 31
0.0
  0
LINE
  5
338
  8
ﾚｲﾔ_1
 62
     5
 10
1221.3431485179999
 20
-210.26440822949999
 30
0.0
 11
1206.3431485179999
 21
-210.26440822949999
 31
0.0
  0
ARC
  5
339
  8
ﾚｲﾔ_1
 62
     5
 10
1206.3431485179999
 20
-213.76440822949999
 30
0.0
 40
3.5
 50
90.0
 51
270.0
  0
ENDBLK
  5
33A
  8
0
  0
BLOCK
  8
0
  2
CLUMP12
 70
     0
 10
0.0
 20
0.0
 30
0.0
  3
CLUMP12
  1

  0
INSERT
  5
341
  8
ﾚｲﾔ_1
  2
CLUMP13
 10
0.0
 20
0.0
 30
0.0
  0
INSERT
  5
349
  8
ﾚｲﾔ_1
  2
CLUMP14
 10
0.0
 20
0.0
 30
0.0
  0
ENDBLK
  5
350
  8
0
  0
BLOCK
  8
0
  2
CLUMP13
 70
     0
 10
0.0
 20
0.0
 30
0.0
  3
CLUMP13
  1

  0
ARC
  5
343
  8
ﾚｲﾔ_1
 62
     5
 10
1183.8431485179999
 20
-188.76440822949999
 30
0.0
 40
3.5
 50
270.0
 51
90.0
  0
LINE
  5
344
  8
ﾚｲﾔ_1
 62
     5
 10
1168.8431485179999
 20
-192.26440822949999
 30
0.0
 11
1183.8431485179999
 21
-192.26440822949999
 31
0.0
  0
LINE
  5
345
  8
ﾚｲﾔ_1
 62
     5
 10
1183.8431485179999
 20
-185.26440822949999
 30
0.0
 11
1168.8431485179999
 21
-185.26440822949999
 31
0.0
  0
ARC
  5
346
  8
ﾚｲﾔ_1
 62
     5
 10
1168.8431485179999
 20
-188.76440822949999
 30
0.0
 40
3.5
 50
90.0
 51
270.0
  0
ENDBLK
  5
347
  8
0
  0
BLOCK
  8
0
  2
CLUMP14
 70
     0
 10
0.0
 20
0.0
 30
0.0
  3
CLUMP14
  1

  0
ARC
  5
34B
  8
ﾚｲﾔ_1
 62
     5
 10
1183.8431485179999
 20
-238.76440822949999
 30
0.0
 40
3.5
 50
270.0
 51
90.0
  0
LINE
  5
34C
  8
ﾚｲﾔ_1
 62
     5
 10
1168.8431485179999
 20
-235.26440822949999
 30
0.0
 11
1183.8431485179999
 21
-235.26440822949999
 31
0.0
  0
LINE
  5
34D
  8
ﾚｲﾔ_1
 62
     5
 10
1183.8431485179999
 20
-242.26440822949999
 30
0.0
 11
1168.8431485179999
 21
-242.26440822949999
 31
0.0
  0
ARC
  5
34E
  8
ﾚｲﾔ_1
 62
     5
 10
1168.8431485179999
 20
-238.76440822949999
 30
0.0
 40
3.5
 50
90.0
 51
270.0
  0
ENDBLK
  5
34F
  8
0
  0
BLOCK
  8
0
  2
CLUMP15
 70
     0
 10
0.0
 20
0.0
 30
0.0
  3
CLUMP15
  1

  0
INSERT
  5
355
  8
ﾚｲﾔ_1
  2
CLUMP16
 10
0.0
 20
0.0
 30
0.0
  0
INSERT
  5
35D
  8
ﾚｲﾔ_1
  2
CLUMP17
 10
0.0
 20
0.0
 30
0.0
  0
ENDBLK
  5
364
  8
0
  0
BLOCK
  8
0
  2
CLUMP16
 70
     0
 10
0.0
 20
0.0
 30
0.0
  3
CLUMP16
  1

  0
ARC
  5
357
  8
ﾚｲﾔ_1
 62
     5
 10
1258.8431485179999
 20
-188.76440822949999
 30
0.0
 40
3.5
 50
270.0
 51
90.0
  0
LINE
  5
358
  8
ﾚｲﾔ_1
 62
     5
 10
1243.8431485179999
 20
-192.26440822949999
 30
0.0
 11
1258.8431485179999
 21
-192.26440822949999
 31
0.0
  0
LINE
  5
359
  8
ﾚｲﾔ_1
 62
     5
 10
1258.8431485179999
 20
-185.26440822949999
 30
0.0
 11
1243.8431485179999
 21
-185.26440822949999
 31
0.0
  0
ARC
  5
35A
  8
ﾚｲﾔ_1
 62
     5
 10
1243.8431485179999
 20
-188.76440822949999
 30
0.0
 40
3.5
 50
90.0
 51
270.0
  0
ENDBLK
  5
35B
  8
0
  0
BLOCK
  8
0
  2
CLUMP17
 70
     0
 10
0.0
 20
0.0
 30
0.0
  3
CLUMP17
  1

  0
ARC
  5
35F
  8
ﾚｲﾔ_1
 62
     5
 10
1258.8431485179999
 20
-238.76440822949999
 30
0.0
 40
3.5
 50
270.0
 51
90.0
  0
LINE
  5
360
  8
ﾚｲﾔ_1
 62
     5
 10
1243.8431485179999
 20
-235.26440822949999
 30
0.0
 11
1258.8431485179999
 21
-235.26440822949999
 31
0.0
  0
LINE
  5
361
  8
ﾚｲﾔ_1
 62
     5
 10
1258.8431485179999
 20
-242.26440822949999
 30
0.0
 11
1243.8431485179999
 21
-242.26440822949999
 31
0.0
  0
ARC
  5
362
  8
ﾚｲﾔ_1
 62
     5
 10
1243.8431485179999
 20
-238.76440822949999
 30
0.0
 40
3.5
 50
90.0
 51
270.0
  0
ENDBLK
  5
363
  8
0
  0
BLOCK
  8
0
  2
CLUMP18
 70
     0
 10
0.0
 20
0.0
 30
0.0
  3
CLUMP18
  1

  0
ARC
  5
368
  8
ﾚｲﾔ_1
 62
     5
 10
1071.3431485179999
 20
-213.76440822949999
 30
0.0
 40
3.5
 50
270.0
 51
90.0
  0
LINE
  5
369
  8
ﾚｲﾔ_1
 62
     5
 10
1056.3431485179999
 20
-217.26440822949999
 30
0.0
 11
1071.3431485179999
 21
-217.26440822949999
 31
0.0
  0
LINE
  5
36A
  8
ﾚｲﾔ_1
 62
     5
 10
1071.3431485179999
 20
-210.26440822949999
 30
0.0
 11
1056.3431485179999
 21
-210.26440822949999
 31
0.0
  0
ARC
  5
36B
  8
ﾚｲﾔ_1
 62
     5
 10
1056.3431485179999
 20
-213.76440822949999
 30
0.0
 40
3.5
 50
90.0
 51
270.0
  0
ENDBLK
  5
36C
  8
0
  0
BLOCK
  8
0
  2
CLUMP19
 70
     0
 10
0.0
 20
0.0
 30
0.0
  3
CLUMP19
  1

  0
LINE
  5
37B
  8
図枠
 10
1398.9949998116001
 20
-394.37416652400009
 30
0.0
 11
1398.9949998116001
 21
-381.87416652400009
 31
0.0
  0
LINE
  5
37C
  8
図枠
 10
1251.4949998116001
 20
-394.37416652400009
 30
0.0
 11
1251.4949998116001
 21
-381.87416652400009
 31
0.0
  0
LINE
  5
37D
  8
図枠
 10
1273.9949998116001
 20
-394.37416652400009
 30
0.0
 11
1273.9949998116001
 21
-381.87416652400009
 31
0.0
  0
LINE
  5
37E
  8
図枠
 10
1536.4949998116001
 20
-394.37416652400009
 30
0.0
 11
1536.4949998116001
 21
-381.87416652400009
 31
0.0
  0
LINE
  5
37F
  8
図枠
 10
1513.9949998116001
 20
-394.37416652400009
 30
0.0
 11
1513.9949998116001
 21
-381.87416652400009
 31
0.0
  0
LINE
  5
380
  8
図枠
 10
1613.9949998116001
 20
-381.87416652400009
 30
0.0
 11
1251.4949998116001
 21
-381.87416652400009
 31
0.0
  0
ENDBLK
  5
381
  8
0
  0
BLOCK
  8
0
  2
CLUMP20
 70
     0
 10
0.0
 20
0.0
 30
0.0
  3
CLUMP20
  1

  0
LINE
  5
385
  8
図枠
 10
1398.9949998116001
 20
-381.87416652400009
 30
0.0
 11
1398.9949998116001
 21
-369.37416652400009
 31
0.0
  0
LINE
  5
386
  8
図枠
 10
1251.4949998116001
 20
-381.87416652400009
 30
0.0
 11
1251.4949998116001
 21
-369.37416652400009
 31
0.0
  0
LINE
  5
387
  8
図枠
 10
1273.9949998116001
 20
-381.87416652400009
 30
0.0
 11
1273.9949998116001
 21
-369.37416652400009
 31
0.0
  0
LINE
  5
388
  8
図枠
 10
1536.4949998116001
 20
-381.87416652400009
 30
0.0
 11
1536.4949998116001
 21
-369.37416652400009
 31
0.0
  0
LINE
  5
389
  8
図枠
 10
1513.9949998116001
 20
-381.87416652400009
 30
0.0
 11
1513.9949998116001
 21
-369.37416652400009
 31
0.0
  0
LINE
  5
38A
  8
図枠
 10
1613.9949998116001
 20
-369.37416652400009
 30
0.0
 11
1251.4949998116001
 21
-369.37416652400009
 31
0.0
  0
ENDBLK
  5
38B
  8
0
  0
BLOCK
  8
0
  2
CLUMP21
 70
     0
 10
0.0
 20
0.0
 30
0.0
  3
CLUMP21
  1

  0
INSERT
  5
398
  8
ﾚｲﾔ_1
  2
CLUMP22
 10
0.0
 20
0.0
 30
0.0
  0
INSERT
  5
3A0
  8
ﾚｲﾔ_1
  2
CLUMP23
 10
0.0
 20
0.0
 30
0.0
  0
ENDBLK
  5
3A7
  8
0
  0
BLOCK
  8
0
  2
CLUMP22
 70
     0
 10
0.0
 20
0.0
 30
0.0
  3
CLUMP22
  1

  0
ARC
  5
39A
  8
ﾚｲﾔ_1
 62
     5
 10
1033.8431485179999
 20
-188.76440822949999
 30
0.0
 40
3.5
 50
270.0
 51
90.0
  0
LINE
  5
39B
  8
ﾚｲﾔ_1
 62
     5
 10
1018.843148518
 20
-192.26440822949999
 30
0.0
 11
1033.8431485179999
 21
-192.26440822949999
 31
0.0
  0
LINE
  5
39C
  8
ﾚｲﾔ_1
 62
     5
 10
1033.8431485179999
 20
-185.26440822949999
 30
0.0
 11
1018.843148518
 21
-185.26440822949999
 31
0.0
  0
ARC
  5
39D
  8
ﾚｲﾔ_1
 62
     5
 10
1018.843148518
 20
-188.76440822949999
 30
0.0
 40
3.5
 50
90.0
 51
270.0
  0
ENDBLK
  5
39E
  8
0
  0
BLOCK
  8
0
  2
CLUMP23
 70
     0
 10
0.0
 20
0.0
 30
0.0
  3
CLUMP23
  1

  0
ARC
  5
3A2
  8
ﾚｲﾔ_1
 62
     5
 10
1033.8431485179999
 20
-238.76440822949999
 30
0.0
 40
3.5
 50
270.0
 51
90.0
  0
LINE
  5
3A3
  8
ﾚｲﾔ_1
 62
     5
 10
1018.843148518
 20
-235.26440822949999
 30
0.0
 11
1033.8431485179999
 21
-235.26440822949999
 31
0.0
  0
LINE
  5
3A4
  8
ﾚｲﾔ_1
 62
     5
 10
1033.8431485179999
 20
-242.26440822949999
 30
0.0
 11
1018.843148518
 21
-242.26440822949999
 31
0.0
  0
ARC
  5
3A5
  8
ﾚｲﾔ_1
 62
     5
 10
1018.843148518
 20
-238.76440822949999
 30
0.0
 40
3.5
 50
90.0
 51
270.0
  0
ENDBLK
  5
3A6
  8
0
  0
BLOCK
  8
0
  2
CLUMP24
 70
     0
 10
0.0
 20
0.0
 30
0.0
  3
CLUMP24
  1

  0
INSERT
  5
3AC
  8
ﾚｲﾔ_1
  2
CLUMP25
 10
0.0
 20
0.0
 30
0.0
  0
INSERT
  5
3B4
  8
ﾚｲﾔ_1
  2
CLUMP26
 10
0.0
 20
0.0
 30
0.0
  0
ENDBLK
  5
3BB
  8
0
  0
BLOCK
  8
0
  2
CLUMP25
 70
     0
 10
0.0
 20
0.0
 30
0.0
  3
CLUMP25
  1

  0
ARC
  5
3AE
  8
ﾚｲﾔ_1
 62
     5
 10
1108.8431485179999
 20
-188.76440822949999
 30
0.0
 40
3.5
 50
270.0
 51
90.0
  0
LINE
  5
3AF
  8
ﾚｲﾔ_1
 62
     5
 10
1093.8431485179999
 20
-192.26440822949999
 30
0.0
 11
1108.8431485179999
 21
-192.26440822949999
 31
0.0
  0
LINE
  5
3B0
  8
ﾚｲﾔ_1
 62
     5
 10
1108.8431485179999
 20
-185.26440822949999
 30
0.0
 11
1093.8431485179999
 21
-185.26440822949999
 31
0.0
  0
ARC
  5
3B1
  8
ﾚｲﾔ_1
 62
     5
 10
1093.8431485179999
 20
-188.76440822949999
 30
0.0
 40
3.5
 50
90.0
 51
270.0
  0
ENDBLK
  5
3B2
  8
0
  0
BLOCK
  8
0
  2
CLUMP26
 70
     0
 10
0.0
 20
0.0
 30
0.0
  3
CLUMP26
  1

  0
ARC
  5
3B6
  8
ﾚｲﾔ_1
 62
     5
 10
1108.8431485179999
 20
-238.76440822949999
 30
0.0
 40
3.5
 50
270.0
 51
90.0
  0
LINE
  5
3B7
  8
ﾚｲﾔ_1
 62
     5
 10
1093.8431485179999
 20
-235.26440822949999
 30
0.0
 11
1108.8431485179999
 21
-235.26440822949999
 31
0.0
  0
LINE
  5
3B8
  8
ﾚｲﾔ_1
 62
     5
 10
1108.8431485179999
 20
-242.26440822949999
 30
0.0
 11
1093.8431485179999
 21
-242.26440822949999
 31
0.0
  0
ARC
  5
3B9
  8
ﾚｲﾔ_1
 62
     5
 10
1093.8431485179999
 20
-238.76440822949999
 30
0.0
 40
3.5
 50
90.0
 51
270.0
  0
ENDBLK
  5
3BA
  8
0
  0
BLOCK
  8
0
  2
CLUMP27
 70
     0
 10
0.0
 20
0.0
 30
0.0
  3
CLUMP27
  1

  0
ARC
  5
3BF
  8
ﾚｲﾔ_1
 62
     5
 10
996.34314851800002
 20
-213.76440822949999
 30
0.0
 40
3.5
 50
270.0
 51
90.0
  0
LINE
  5
3C0
  8
ﾚｲﾔ_1
 62
     5
 10
981.34314851800002
 20
-217.26440822949999
 30
0.0
 11
996.34314851800002
 21
-217.26440822949999
 31
0.0
  0
LINE
  5
3C1
  8
ﾚｲﾔ_1
 62
     5
 10
996.34314851800002
 20
-210.26440822949999
 30
0.0
 11
981.34314851800002
 21
-210.26440822949999
 31
0.0
  0
ARC
  5
3C2
  8
ﾚｲﾔ_1
 62
     5
 10
981.34314851800002
 20
-213.76440822949999
 30
0.0
 40
3.5
 50
90.0
 51
270.0
  0
ENDBLK
  5
3C3
  8
0
  0
BLOCK
  8
0
  2
CLUMP28
 70
     0
 10
0.0
 20
0.0
 30
0.0
  3
CLUMP28
  1

  0
ARC
  5
3C7
  8
ﾚｲﾔ_1
 62
     5
 10
921.34314851800002
 20
-213.76440822949999
 30
0.0
 40
3.5
 50
270.0
 51
90.0
  0
LINE
  5
3C8
  8
ﾚｲﾔ_1
 62
     5
 10
906.34314851800002
 20
-217.26440822949999
 30
0.0
 11
921.34314851800002
 21
-217.26440822949999
 31
0.0
  0
LINE
  5
3C9
  8
ﾚｲﾔ_1
 62
     5
 10
921.34314851800002
 20
-210.26440822949999
 30
0.0
 11
906.34314851800002
 21
-210.26440822949999
 31
0.0
  0
ARC
  5
3CA
  8
ﾚｲﾔ_1
 62
     5
 10
906.34314851800002
 20
-213.76440822949999
 30
0.0
 40
3.5
 50
90.0
 51
270.0
  0
ENDBLK
  5
3CB
  8
0
  0
BLOCK
  8
0
  2
CLUMP29
 70
     0
 10
0.0
 20
0.0
 30
0.0
  3
CLUMP29
  1

  0
INSERT
  5
3D0
  8
ﾚｲﾔ_1
  2
CLUMP30
 10
0.0
 20
0.0
 30
0.0
  0
INSERT
  5
3D8
  8
ﾚｲﾔ_1
  2
CLUMP31
 10
0.0
 20
0.0
 30
0.0
  0
ENDBLK
  5
3DF
  8
0
  0
BLOCK
  8
0
  2
CLUMP30
 70
     0
 10
0.0
 20
0.0
 30
0.0
  3
CLUMP30
  1

  0
ARC
  5
3D2
  8
ﾚｲﾔ_1
 62
     5
 10
958.84314851800002
 20
-188.76440822949999
 30
0.0
 40
3.5
 50
270.0
 51
90.0
  0
LINE
  5
3D3
  8
ﾚｲﾔ_1
 62
     5
 10
943.84314851800002
 20
-192.26440822949999
 30
0.0
 11
958.84314851800002
 21
-192.26440822949999
 31
0.0
  0
LINE
  5
3D4
  8
ﾚｲﾔ_1
 62
     5
 10
958.84314851800002
 20
-185.26440822949999
 30
0.0
 11
943.84314851800002
 21
-185.26440822949999
 31
0.0
  0
ARC
  5
3D5
  8
ﾚｲﾔ_1
 62
     5
 10
943.84314851800002
 20
-188.76440822949999
 30
0.0
 40
3.5
 50
90.0
 51
270.0
  0
ENDBLK
  5
3D6
  8
0
  0
BLOCK
  8
0
  2
CLUMP31
 70
     0
 10
0.0
 20
0.0
 30
0.0
  3
CLUMP31
  1

  0
ARC
  5
3DA
  8
ﾚｲﾔ_1
 62
     5
 10
958.84314851800002
 20
-238.76440822949999
 30
0.0
 40
3.5
 50
270.0
 51
90.0
  0
LINE
  5
3DB
  8
ﾚｲﾔ_1
 62
     5
 10
943.84314851800002
 20
-235.26440822949999
 30
0.0
 11
958.84314851800002
 21
-235.26440822949999
 31
0.0
  0
LINE
  5
3DC
  8
ﾚｲﾔ_1
 62
     5
 10
958.84314851800002
 20
-242.26440822949999
 30
0.0
 11
943.84314851800002
 21
-242.26440822949999
 31
0.0
  0
ARC
  5
3DD
  8
ﾚｲﾔ_1
 62
     5
 10
943.84314851800002
 20
-238.76440822949999
 30
0.0
 40
3.5
 50
90.0
 51
270.0
  0
ENDBLK
  5
3DE
  8
0
  0
BLOCK
  8
0
  2
CLUMP32
 70
     0
 10
0.0
 20
0.0
 30
0.0
  3
CLUMP32
  1

  0
ARC
  5
3E6
  8
ﾚｲﾔ_1
 62
     5
 10
846.34314851800002
 20
-213.76440822949999
 30
0.0
 40
3.5
 50
270.0
 51
90.0
  0
LINE
  5
3E7
  8
ﾚｲﾔ_1
 62
     5
 10
831.34314851800002
 20
-217.26440822949999
 30
0.0
 11
846.34314851800002
 21
-217.26440822949999
 31
0.0
  0
LINE
  5
3E8
  8
ﾚｲﾔ_1
 62
     5
 10
846.34314851800002
 20
-210.26440822949999
 30
0.0
 11
831.34314851800002
 21
-210.26440822949999
 31
0.0
  0
ARC
  5
3E9
  8
ﾚｲﾔ_1
 62
     5
 10
831.34314851800002
 20
-213.76440822949999
 30
0.0
 40
3.5
 50
90.0
 51
270.0
  0
ENDBLK
  5
3EA
  8
0
  0
BLOCK
  8
0
  2
CLUMP33
 70
     0
 10
0.0
 20
0.0
 30
0.0
  3
CLUMP33
  1

  0
LINE
  5
3EF
  8
ﾚｲﾔ_1
 62
     5
 10
1448.9694506014
 20
3.9989915512999992
 30
0.0
 11
1448.9694506014
 21
3.1989915512999989
 31
0.0
  0
LINE
  5
3F0
  8
ﾚｲﾔ_1
 62
     5
 10
1443.0694506013999
 20
-3.401008448699999
 30
0.0
 11
1443.0694506013999
 21
3.9989915512999992
 31
0.0
  0
LINE
  5
3F1
  8
ﾚｲﾔ_1
 62
     5
 10
1448.2694506014
 20
-3.401008448699999
 30
0.0
 11
1443.0694506013999
 21
-3.401008448699999
 31
0.0
  0
LINE
  5
3F2
  8
ﾚｲﾔ_1
 62
     5
 10
1448.2694506014
 20
-3.401008448699999
 30
0.0
 11
1448.2694506014
 21
-4.2010084486999988
 31
0.0
  0
LINE
  5
3F3
  8
ﾚｲﾔ_1
 62
     5
 10
1448.2694506014
 20
-4.2010084486999988
 30
0.0
 11
1443.0694506013999
 21
-4.2010084486999988
 31
0.0
  0
ARC
  5
3F4
  8
ﾚｲﾔ_1
 62
     5
 10
1443.0694506013999
 20
-3.401008448699999
 30
0.0
 40
0.8
 50
180.0
 51
270.0
  0
LINE
  5
3F5
  8
ﾚｲﾔ_1
 62
     5
 10
1442.2694506014
 20
-3.401008448699999
 30
0.0
 11
1442.2694506014
 21
3.9989915512999992
 31
0.0
  0
ARC
  5
3F6
  8
ﾚｲﾔ_1
 62
     5
 10
1443.0694506013999
 20
3.9989915512999992
 30
0.0
 40
0.8
 50
90.0
 51
180.0
  0
LINE
  5
3F7
  8
ﾚｲﾔ_1
 62
     5
 10
1491.2694506014
 20
-4.2010084486999988
 30
0.0
 11
1491.2694506014
 21
-3.401008448699999
 31
0.0
  0
LINE
  5
3F8
  8
ﾚｲﾔ_1
 62
     5
 10
1496.4694506014
 20
-3.401008448699999
 30
0.0
 11
1491.2694506014
 21
-3.401008448699999
 31
0.0
  0
LINE
  5
3F9
  8
ﾚｲﾔ_1
 62
     5
 10
1496.4694506014
 20
8.9989915512999996
 30
0.0
 11
1496.4694506014
 21
-3.401008448699999
 31
0.0
  0
LINE
  5
3FA
  8
ﾚｲﾔ_1
 62
     5
 10
1468.0694506013999
 20
8.9989915512999996
 30
0.0
 11
1496.4694506014
 21
8.9989915512999996
 31
0.0
  0
LINE
  5
3FB
  8
ﾚｲﾔ_1
 62
     5
 10
1443.0694506013999
 20
4.7989915513000003
 30
0.0
 11
1467.2694506014
 21
4.7989915513000003
 31
0.0
  0
LINE
  5
3FC
  8
ﾚｲﾔ_1
 62
     5
 10
1443.0694506013999
 20
3.9989915512999992
 30
0.0
 11
1467.2694506014
 21
3.9989915512999992
 31
0.0
  0
LINE
  5
3FD
  8
ﾚｲﾔ_1
 62
     5
 10
1468.0694506013999
 20
4.7989915513000003
 30
0.0
 11
1468.0694506013999
 21
8.9989915512999996
 31
0.0
  0
ARC
  5
3FE
  8
ﾚｲﾔ_1
 62
     5
 10
1467.2694506014
 20
4.7989915513000003
 30
0.0
 40
0.8
 50
270.0
 51
0.0
  0
LINE
  5
3FF
  8
ﾚｲﾔ_1
 62
     5
 10
1467.2694506014
 20
4.7989915513000003
 30
0.0
 11
1467.2694506014
 21
8.9989915512999996
 31
0.0
  0
ARC
  5
400
  8
ﾚｲﾔ_1
 62
     5
 10
1468.0694506013999
 20
8.9989915512999996
 30
0.0
 40
0.8
 50
90.0
 51
180.0
  0
LINE
  5
401
  8
ﾚｲﾔ_1
 62
     5
 10
1468.0694506013999
 20
9.7989915513000003
 30
0.0
 11
1496.4694506014
 21
9.7989915513000003
 31
0.0
  0
ARC
  5
402
  8
ﾚｲﾔ_1
 62
     5
 10
1496.4694506014
 20
8.9989915512999996
 30
0.0
 40
0.8
 50
0.0
 51
90.0
  0
LINE
  5
403
  8
ﾚｲﾔ_1
 62
     5
 10
1496.4694506014
 20
-4.2010084486999988
 30
0.0
 11
1491.2694506014
 21
-4.2010084486999988
 31
0.0
  0
LINE
  5
404
  8
ﾚｲﾔ_1
 62
     5
 10
1497.2694506014
 20
8.9989915512999996
 30
0.0
 11
1497.2694506014
 21
-3.401008448699999
 31
0.0
  0
ARC
  5
405
  8
ﾚｲﾔ_1
 62
     5
 10
1496.4694506014
 20
-3.401008448699999
 30
0.0
 40
0.8
 50
270.0
 51
0.0
  0
LINE
  5
406
  8
ﾚｲﾔ_1
 62
     5
 10
1448.9694506014
 20
3.1989915512999989
 30
0.0
 11
1496.4694506014
 21
3.1989915512999989
 31
0.0
  0
LINE
  5
407
  8
ﾚｲﾔ_1
 62
     5
 10
1467.2694506014
 20
3.9989915512999992
 30
0.0
 11
1496.4694506014
 21
3.9989915512999992
 31
0.0
  0
ENDBLK
  5
408
  8
0
  0
BLOCK
  8
0
  2
CLUMP34
 70
     0
 10
0.0
 20
0.0
 30
0.0
  3
CLUMP34
  1

  0
LINE
  5
40D
  8
ﾚｲﾔ_1
 62
     5
 10
1448.9694506014
 20
85.598991551300003
 30
0.0
 11
1448.9694506014
 21
86.398991551299986
 31
0.0
  0
LINE
  5
40E
  8
ﾚｲﾔ_1
 62
     5
 10
1443.0694506013999
 20
92.998991551299994
 30
0.0
 11
1443.0694506013999
 21
85.598991551300003
 31
0.0
  0
LINE
  5
40F
  8
ﾚｲﾔ_1
 62
     5
 10
1448.2694506014
 20
92.998991551299994
 30
0.0
 11
1443.0694506013999
 21
92.998991551299994
 31
0.0
  0
LINE
  5
410
  8
ﾚｲﾔ_1
 62
     5
 10
1448.2694506014
 20
92.998991551299994
 30
0.0
 11
1448.2694506014
 21
93.798991551299991
 31
0.0
  0
LINE
  5
411
  8
ﾚｲﾔ_1
 62
     5
 10
1448.2694506014
 20
93.798991551299991
 30
0.0
 11
1443.0694506013999
 21
93.798991551299991
 31
0.0
  0
ARC
  5
412
  8
ﾚｲﾔ_1
 62
     5
 10
1443.0694506013999
 20
92.998991551299994
 30
0.0
 40
0.8
 50
90.0
 51
180.0
  0
LINE
  5
413
  8
ﾚｲﾔ_1
 62
     5
 10
1442.2694506014
 20
92.998991551299994
 30
0.0
 11
1442.2694506014
 21
85.598991551300003
 31
0.0
  0
ARC
  5
414
  8
ﾚｲﾔ_1
 62
     5
 10
1443.0694506013999
 20
85.598991551300003
 30
0.0
 40
0.8
 50
180.0
 51
270.0
  0
LINE
  5
415
  8
ﾚｲﾔ_1
 62
     5
 10
1491.2694506014
 20
93.798991551299991
 30
0.0
 11
1491.2694506014
 21
92.998991551299994
 31
0.0
  0
LINE
  5
416
  8
ﾚｲﾔ_1
 62
     5
 10
1496.4694506014
 20
92.998991551299994
 30
0.0
 11
1491.2694506014
 21
92.998991551299994
 31
0.0
  0
LINE
  5
417
  8
ﾚｲﾔ_1
 62
     5
 10
1496.4694506014
 20
80.598991551300003
 30
0.0
 11
1496.4694506014
 21
92.998991551299994
 31
0.0
  0
LINE
  5
418
  8
ﾚｲﾔ_1
 62
     5
 10
1468.0694506013999
 20
80.598991551300003
 30
0.0
 11
1496.4694506014
 21
80.598991551300003
 31
0.0
  0
LINE
  5
419
  8
ﾚｲﾔ_1
 62
     5
 10
1443.0694506013999
 20
84.798991551300006
 30
0.0
 11
1467.2694506014
 21
84.798991551300006
 31
0.0
  0
LINE
  5
41A
  8
ﾚｲﾔ_1
 62
     5
 10
1443.0694506013999
 20
85.598991551300003
 30
0.0
 11
1467.2694506014
 21
85.598991551300003
 31
0.0
  0
LINE
  5
41B
  8
ﾚｲﾔ_1
 62
     5
 10
1468.0694506013999
 20
84.798991551300006
 30
0.0
 11
1468.0694506013999
 21
80.598991551300003
 31
0.0
  0
ARC
  5
41C
  8
ﾚｲﾔ_1
 62
     5
 10
1467.2694506014
 20
84.798991551300006
 30
0.0
 40
0.8
 50
0.0
 51
90.0
  0
LINE
  5
41D
  8
ﾚｲﾔ_1
 62
     5
 10
1467.2694506014
 20
84.798991551300006
 30
0.0
 11
1467.2694506014
 21
80.598991551300003
 31
0.0
  0
ARC
  5
41E
  8
ﾚｲﾔ_1
 62
     5
 10
1468.0694506013999
 20
80.598991551300003
 30
0.0
 40
0.8
 50
180.0
 51
270.0
  0
LINE
  5
41F
  8
ﾚｲﾔ_1
 62
     5
 10
1468.0694506013999
 20
79.798991551300006
 30
0.0
 11
1496.4694506014
 21
79.798991551300006
 31
0.0
  0
ARC
  5
420
  8
ﾚｲﾔ_1
 62
     5
 10
1496.4694506014
 20
80.598991551300003
 30
0.0
 40
0.8
 50
270.0
 51
0.0
  0
LINE
  5
421
  8
ﾚｲﾔ_1
 62
     5
 10
1496.4694506014
 20
93.798991551299991
 30
0.0
 11
1491.2694506014
 21
93.798991551299991
 31
0.0
  0
LINE
  5
422
  8
ﾚｲﾔ_1
 62
     5
 10
1497.2694506014
 20
80.598991551300003
 30
0.0
 11
1497.2694506014
 21
92.998991551299994
 31
0.0
  0
ARC
  5
423
  8
ﾚｲﾔ_1
 62
     5
 10
1496.4694506014
 20
92.998991551299994
 30
0.0
 40
0.8
 50
0.0
 51
90.0
  0
LINE
  5
424
  8
ﾚｲﾔ_1
 62
     5
 10
1448.9694506014
 20
86.398991551299986
 30
0.0
 11
1496.4694506014
 21
86.398991551299986
 31
0.0
  0
LINE
  5
425
  8
ﾚｲﾔ_1
 62
     5
 10
1467.2694506014
 20
85.598991551300003
 30
0.0
 11
1496.4694506014
 21
85.598991551300003
 31
0.0
  0
ENDBLK
  5
426
  8
0
  0
BLOCK
  8
0
  2
CLUMP35
 70
     0
 10
0.0
 20
0.0
 30
0.0
  3
CLUMP35
  1

  0
LINE
  5
430
  8
図枠
 10
1398.9949998116001
 20
-369.37416652400009
 30
0.0
 11
1398.9949998116001
 21
-356.87416652400009
 31
0.0
  0
LINE
  5
431
  8
図枠
 10
1251.4949998116001
 20
-369.37416652400009
 30
0.0
 11
1251.4949998116001
 21
-356.87416652400009
 31
0.0
  0
LINE
  5
432
  8
図枠
 10
1273.9949998116001
 20
-369.37416652400009
 30
0.0
 11
1273.9949998116001
 21
-356.87416652400009
 31
0.0
  0
LINE
  5
433
  8
図枠
 10
1536.4949998116001
 20
-369.37416652400009
 30
0.0
 11
1536.4949998116001
 21
-356.87416652400009
 31
0.0
  0
LINE
  5
434
  8
図枠
 10
1513.9949998116001
 20
-369.37416652400009
 30
0.0
 11
1513.9949998116001
 21
-356.87416652400009
 31
0.0
  0
LINE
  5
435
  8
図枠
 10
1613.9949998116001
 20
-356.87416652400009
 30
0.0
 11
1251.4949998116001
 21
-356.87416652400009
 31
0.0
  0
ENDBLK
  5
436
  8
0
  0
BLOCK
  8
0
  2
CLUMP36
 70
     0
 10
0.0
 20
0.0
 30
0.0
  3
CLUMP36
  1

  0
LINE
  5
43D
  8
図枠
 10
1397.2981311838
 20
-482.9324841067999
 30
0.0
 11
1399.7981311838
 21
-479.18248410680002
 31
0.0
  0
LINE
  5
43E
  8
図枠
 10
1360.6466160323
 20
-479.18248410680002
 30
0.0
 11
1360.6466160323
 21
-484.18248410680002
 31
0.0
  0
LINE
  5
43F
  8
図枠
 10
1419.9641901425
 20
-487.93248410680002
 30
0.0
 11
1427.8418378045001
 21
-487.93248410680002
 31
0.0
  0
LINE
  5
440
  8
図枠
 10
1377.2981311838
 20
-496.68248410680002
 30
0.0
 11
1383.5481311838
 21
-496.68248410680002
 31
0.0
  0
LINE
  5
441
  8
図枠
 10
1377.2981311838
 20
-484.98775977550002
 30
0.0
 11
1387.2981311838
 21
-484.98775977550002
 31
0.0
  0
INSERT
  5
442
  8
0
  6
CONTINUOUS
  2
*U138
 10
0.0
 20
0.0
 30
0.0
  0
LINE
  5
443
  8
図枠
 62
     5
 10
1438.9949998116001
 20
160.625833476
 30
0.0
 11
1438.9949998116001
 21
198.125833476
 31
0.0
  0
LINE
  5
444
  8
図枠
 62
     5
 10
1563.9949998116001
 20
160.625833476
 30
0.0
 11
1563.9949998116001
 21
198.125833476
 31
0.0
  0
LINE
  5
445
  8
図枠
 62
     5
 10
1398.9949998116001
 20
160.625833476
 30
0.0
 11
1398.9949998116001
 21
198.125833476
 31
0.0
  0
LINE
  5
446
  8
図枠
 62
     5
 10
1382.0967863465
 20
174.20281285350001
 30
0.0
 11
1394.4717863465
 21
174.20281285350001
 31
0.0
  0
LINE
  5
447
  8
図枠
 62
     5
 10
1388.2842863465
 20
172.54487722530001
 30
0.0
 11
1394.4717863465
 21
161.82781285350001
 31
0.0
  0
LINE
  5
448
  8
図枠
 62
     5
 10
1378.9949998116001
 20
160.625833476
 30
0.0
 11
1378.9949998116001
 21
198.125833476
 31
0.0
  0
LINE
  5
449
  8
図枠
 62
     5
 10
1588.9949998116001
 20
160.625833476
 30
0.0
 11
1588.9949998116001
 21
198.125833476
 31
0.0
  0
LINE
  5
44A
  8
図枠
 62
     5
 10
1378.9949998116001
 20
185.625833476
 30
0.0
 11
1613.9949998116001
 21
185.625833476
 31
0.0
  0
LINE
  5
44B
  8
図枠
 62
     5
 10
1378.9949998116001
 20
173.125833476
 30
0.0
 11
1613.9949998116001
 21
173.125833476
 31
0.0
  0
LINE
  5
44C
  8
図枠
 62
     5
 10
1378.9949998116001
 20
160.625833476
 30
0.0
 11
1613.9949998116001
 21
160.625833476
 31
0.0
  0
INSERT
  5
44D
  8
0
  6
CONTINUOUS
  2
*U139
 10
0.0
 20
0.0
 30
0.0
  0
LINE
  5
44E
  8
図枠
 62
     5
 10
613.9949998116
 20
-501.87416652399997
 30
0.0
 11
613.9949998116
 21
198.125833476
 31
0.0
  0
LINE
  5
44F
  8
図枠
 62
     5
 10
613.9949998116
 20
-501.87416652399997
 30
0.0
 11
1613.9949998116001
 21
-501.87416652399997
 31
0.0
  0
LINE
  5
450
  8
図枠
 62
     5
 10
1613.9949998116001
 20
198.125833476
 30
0.0
 11
613.9949998116
 21
198.125833476
 31
0.0
  0
LINE
  5
451
  8
図枠
 62
     5
 10
1613.9949998116001
 20
-501.87416652399997
 30
0.0
 11
1613.9949998116001
 21
198.125833476
 31
0.0
  0
LINE
  5
452
  8
図枠
 10
1377.2981311838
 20
-485.79303544419992
 30
0.0
 11
1377.2981311838
 21
-484.98775977550002
 31
0.0
  0
LINE
  5
453
  8
図枠
 10
1346.5188565034
 20
-484.18248410680002
 30
0.0
 11
1346.5188565034
 21
-487.93248410680002
 31
0.0
  0
LINE
  5
454
  8
図枠
 62
     5
 10
1388.2842863465
 20
184.91987722530001
 30
0.0
 11
1394.4717863465
 21
174.20281285350001
 31
0.0
  0
LINE
  5
455
  8
図枠
 62
     5
 10
1388.2842863465
 20
172.54487722530001
 30
0.0
 11
1382.0967863465
 21
161.82781285350001
 31
0.0
  0
INSERT
  5
456
  8
0
  6
CONTINUOUS
  2
*U140
 10
0.0
 20
0.0
 30
0.0
  0
LINE
  5
457
  8
図枠
  6
DOT
 10
601.54499981159995
 20
-512.44916652399991
 30
0.0
 11
601.54499981159995
 21
208.70083347600001
 31
0.0
  0
LINE
  5
458
  8
図枠
  6
DOT
 10
1626.4449998115999
 20
-512.44916652399991
 30
0.0
 11
1626.4449998115999
 21
208.70083347600001
 31
0.0
  0
LINE
  5
459
  8
図枠
  6
DOT
 10
601.54499981159995
 20
-512.44916652399991
 30
0.0
 11
1626.4449998115999
 21
-512.44916652399991
 31
0.0
  0
LINE
  5
45A
  8
図枠
 10
1355.6466160323
 20
-491.68248410680002
 30
0.0
 11
1355.6466160323
 21
-487.93248410680002
 31
0.0
  0
LINE
  5
45B
  8
図枠
  6
DOT
 10
1626.4449998115999
 20
208.70083347600001
 30
0.0
 11
601.54499981159995
 21
208.70083347600001
 31
0.0
  0
LINE
  5
45C
  8
図枠
 10
1349.3966160323
 20
-487.93248410680002
 30
0.0
 11
1349.3966160323
 21
-491.68248410680002
 31
0.0
  0
LINE
  5
45D
  8
図枠
 10
1366.8966160323
 20
-482.9324841067999
 30
0.0
 11
1370.6466160323
 21
-479.18248410680002
 31
0.0
  0
LINE
  5
45E
  8
図枠
 10
1413.4951711378999
 20
-489.93248410680002
 30
0.0
 11
1412.9085044712001
 21
-487.93248410680002
 31
0.0
  0
LINE
  5
45F
  8
図枠
 10
1355.6466160323
 20
-484.18248410680002
 30
0.0
 11
1355.6466160323
 21
-482.9324841067999
 31
0.0
  0
LINE
  5
460
  8
図枠
 10
1394.4549295639999
 20
-491.30531212919999
 30
0.0
 11
1394.0096744146001
 21
-491.74125748969988
 31
0.0
  0
LINE
  5
461
  8
図枠
 10
1397.2981311838
 20
-482.9324841067999
 30
0.0
 11
1399.7981311838
 21
-479.18248410680002
 31
0.0
  0
LINE
  5
462
  8
図枠
 10
1427.8418378045001
 20
-489.93248410680002
 30
0.0
 11
1427.8418378045001
 21
-494.43248410680002
 31
0.0
  0
LINE
  5
463
  8
図枠
 10
1399.7981311838
 20
-492.93248410680002
 30
0.0
 11
1399.7981311838
 21
-496.68248410680002
 31
0.0
  0
LINE
  5
464
  8
図枠
 10
1418.6692486945999
 20
-483.43248410680002
 30
0.0
 11
1427.8418378045001
 21
-483.43248410680002
 31
0.0
  0
LINE
  5
465
  8
図枠
 10
1418.6692486945999
 20
-483.43248410680002
 30
0.0
 11
1418.3032630691
 21
-482.1606618806
 31
0.0
  0
LINE
  5
466
  8
図枠
 10
1399.7981311838
 20
-479.18248410680002
 30
0.0
 11
1377.2981311838
 21
-479.18248410680002
 31
0.0
  0
INSERT
  5
467
  8
0
  6
CONTINUOUS
  2
*U141
 10
0.0
 20
0.0
 30
0.0
  0
LINE
  5
468
  8
図枠
 10
1415.8418378045001
 20
-497.93248410680002
 30
0.0
 11
1414.8151711379001
 21
-494.43248410680002
 31
0.0
  0
LINE
  5
469
  8
図枠
 10
1356.8966160323
 20
-492.93248410680002
 30
0.0
 11
1349.3966160323
 21
-492.93248410680002
 31
0.0
  0
LINE
  5
46A
  8
図枠
 10
1377.2981311838
 20
-483.68248410680002
 30
0.0
 11
1389.7981311838
 21
-483.68248410680002
 31
0.0
  0
LINE
  5
46B
  8
図枠
 10
1411.2097935908
 20
-430.12416652399997
 30
0.0
 11
1423.2097935908
 21
-427.12416652399997
 31
0.0
  0
CIRCLE
  5
46C
  8
図枠
 10
1397.4949998116001
 20
-433.12416652399997
 30
0.0
 40
6.0
  0
INSERT
  5
46D
  8
0
  6
CONTINUOUS
  2
*U142
 10
0.0
 20
0.0
 30
0.0
  0
LINE
  5
46E
  8
図枠
 10
1355.6466160323
 20
-487.93248410680002
 30
0.0
 11
1360.6466160323
 21
-487.93248410680002
 31
0.0
  0
LINE
  5
46F
  8
図枠
 10
1405.3418378045001
 20
-487.93248410680002
 30
0.0
 11
1412.9085044712001
 21
-487.93248410680002
 31
0.0
  0
LINE
  5
470
  8
図枠
 10
1370.6466160323
 20
-484.18248410680002
 30
0.0
 11
1366.8966160323
 21
-484.18248410680002
 31
0.0
  0
LINE
  5
471
  8
図枠
 10
1366.8966160323
 20
-484.18248410680002
 30
0.0
 11
1366.8966160323
 21
-482.9324841067999
 31
0.0
  0
LINE
  5
472
  8
図枠
 10
1405.3418378045001
 20
-483.43248410680002
 30
0.0
 11
1411.5885044711999
 21
-483.43248410680002
 31
0.0
  0
LINE
  5
473
  8
図枠
 10
1418.3032630691
 20
-482.1606618806
 30
0.0
 11
1420.3418378045001
 21
-479.18248410680002
 31
0.0
  0
LINE
  5
474
  8
図枠
 10
1377.2981311838
 20
-496.68248410680002
 30
0.0
 11
1377.2981311838
 21
-492.93248410680002
 31
0.0
  0
LINE
  5
475
  8
図枠
 10
1438.9949998116001
 20
-419.37416652399997
 30
0.0
 11
1438.9949998116001
 21
-501.87416652399997
 31
0.0
  0
INSERT
  5
476
  8
0
  6
CONTINUOUS
  2
*U143
 10
0.0
 20
0.0
 30
0.0
  0
INSERT
  5
477
  8
0
  6
CONTINUOUS
  2
*U144
 10
0.0
 20
0.0
 30
0.0
  0
INSERT
  5
478
  8
0
  6
CONTINUOUS
  2
*U145
 10
0.0
 20
0.0
 30
0.0
  0
LINE
  5
479
  8
図枠
 62
     5
 10
1382.0967863465
 20
161.82781285350001
 30
0.0
 11
1394.4717863465
 21
161.82781285350001
 31
0.0
  0
LINE
  5
47A
  8
図枠
 10
1346.5188565034
 20
-487.93248410680002
 30
0.0
 11
1349.0188565034
 21
-487.93248410680002
 31
0.0
  0
ARC
  5
47B
  8
図枠
 10
1383.5481311838
 20
-482.9324841067999
 30
0.0
 40
13.75
 50
322.48761197969998
 51
0.0
  0
LINE
  5
47C
  8
図枠
 10
1349.3966160323
 20
-496.68248410680002
 30
0.0
 11
1359.3966160323
 21
-496.68248410680002
 31
0.0
  0
LINE
  5
47D
  8
図枠
 10
1405.3418378045001
 20
-494.43248410680002
 30
0.0
 11
1414.8151711379001
 21
-494.43248410680002
 31
0.0
  0
ARC
  5
47E
  8
図枠
 10
1356.8966160323
 20
-489.1824841067999
 30
0.0
 40
3.75
 50
270.0
 51
0.0
  0
LINE
  5
47F
  8
図枠
 10
1405.3418378045001
 20
-489.93248410680002
 30
0.0
 11
1405.3418378045001
 21
-494.43248410680002
 31
0.0
  0
LINE
  5
480
  8
図枠
 10
1349.3966160323
 20
-491.68248410680002
 30
0.0
 11
1355.6466160323
 21
-491.68248410680002
 31
0.0
  0
LINE
  5
481
  8
図枠
 10
1388.6389124130001
 20
-487.98016136960001
 30
0.0
 11
1388.0374228972
 21
-488.6445072709999
 31
0.0
  0
LINE
  5
482
  8
図枠
 10
1422.8418378045001
 20
-497.93248410680002
 30
0.0
 11
1415.8418378045001
 21
-497.93248410680002
 31
0.0
  0
LINE
  5
483
  8
図枠
 10
1360.6466160323
 20
-487.93248410680002
 30
0.0
 11
1360.6466160323
 21
-489.1824841067999
 31
0.0
  0
LINE
  5
484
  8
図枠
 10
1613.9949998116001
 20
-419.37416652399997
 30
0.0
 11
1251.4949998116001
 21
-419.37416652399997
 31
0.0
  0
LINE
  5
485
  8
図枠
 10
1423.2097935908
 20
-427.12416652399997
 30
0.0
 11
1423.2097935908
 21
-439.12416652399997
 31
0.0
  0
LINE
  5
486
  8
図枠
 62
     5
 10
1388.2842863465
 20
184.91987722530001
 30
0.0
 11
1382.0967863465
 21
174.20281285350001
 31
0.0
  0
LINE
  5
487
  8
図枠
 10
1370.6466160323
 20
-479.18248410680002
 30
0.0
 11
1360.6466160323
 21
-479.18248410680002
 31
0.0
  0
LINE
  5
488
  8
図枠
 10
1366.8966160323
 20
-489.1824841067999
 30
0.0
 11
1366.8966160323
 21
-487.93248410680002
 31
0.0
  0
LINE
  5
489
  8
図枠
 10
1405.3418378045001
 20
-483.43248410680002
 30
0.0
 11
1405.3418378045001
 21
-487.93248410680002
 31
0.0
  0
LINE
  5
48A
  8
図枠
 10
1360.6466160323
 20
-484.18248410680002
 30
0.0
 11
1355.6466160323
 21
-484.18248410680002
 31
0.0
  0
LINE
  5
48B
  8
図枠
 10
1359.3966160323
 20
-479.18248410680002
 30
0.0
 11
1349.3966160323
 21
-479.18248410680002
 31
0.0
  0
LINE
  5
48C
  8
図枠
 10
1355.6466160323
 20
-482.9324841067999
 30
0.0
 11
1359.3966160323
 21
-479.18248410680002
 31
0.0
  0
LINE
  5
48D
  8
図枠
 10
1349.3966160323
 20
-479.18248410680002
 30
0.0
 11
1349.3966160323
 21
-484.18248410680002
 31
0.0
  0
LINE
  5
48E
  8
図枠
 10
1421.8346611228001
 20
-494.43248410680002
 30
0.0
 11
1427.8418378045001
 21
-494.43248410680002
 31
0.0
  0
LINE
  5
48F
  8
図枠
 10
1411.5885044711999
 20
-483.43248410680002
 30
0.0
 11
1410.3418378045001
 21
-479.18248410680002
 31
0.0
  0
LINE
  5
490
  8
図枠
 10
1405.3418378045001
 20
-489.93248410680002
 30
0.0
 11
1413.4951711378999
 21
-489.93248410680002
 31
0.0
  0
LINE
  5
491
  8
図枠
 10
1420.5397196749
 20
-489.93248410680002
 30
0.0
 11
1419.9641901425
 21
-487.93248410680002
 31
0.0
  0
ARC
  5
492
  8
図枠
 10
1380.2981311838
 20
-483.43248410680002
 30
0.0
 40
9.5
 50
270.0
 51
298.08590481520002
  0
INSERT
  5
493
  8
0
  6
CONTINUOUS
  2
*U146
 10
0.0
 20
0.0
 30
0.0
  0
LINE
  5
494
  8
図枠
 10
1257.7449998116001
 20
-433.12416652399997
 30
0.0
 11
1307.7449998116001
 21
-433.12416652399997
 31
0.0
  0
LINE
  5
495
  8
図枠
 10
1313.9949998116001
 20
-419.37416652399997
 30
0.0
 11
1313.9949998116001
 21
-446.87416652399997
 31
0.0
  0
LINE
  5
496
  8
図枠
 10
1251.4949998116001
 20
-446.87416652399997
 30
0.0
 11
1613.9949998116001
 21
-446.87416652399997
 31
0.0
  0
LINE
  5
497
  8
図枠
 10
1376.4949998116001
 20
-419.37416652399997
 30
0.0
 11
1376.4949998116001
 21
-446.87416652399997
 31
0.0
  0
LINE
  5
498
  8
図枠
  6
BORDER
 10
1397.4949998116001
 20
-424.12416652399997
 30
0.0
 11
1397.4949998116001
 21
-442.12416652399997
 31
0.0
  0
LINE
  5
499
  8
図枠
  6
BORDER
 10
1397.4949998116001
 20
-424.12416652399997
 30
0.0
 11
1397.4949998116001
 21
-442.12416652399997
 31
0.0
  0
LINE
  5
49A
  8
図枠
 10
1427.8418378045001
 20
-483.43248410680002
 30
0.0
 11
1427.8418378045001
 21
-487.93248410680002
 31
0.0
  0
LINE
  5
49B
  8
図枠
 10
1320.2449998116001
 20
-433.12416652399997
 30
0.0
 11
1370.2449998116001
 21
-433.12416652399997
 31
0.0
  0
INSERT
  5
49C
  8
0
  6
CONTINUOUS
  2
*U147
 10
0.0
 20
0.0
 30
0.0
  0
CIRCLE
  5
49D
  8
図枠
 10
1397.4949998116001
 20
-433.12416652399997
 30
0.0
 40
6.0
  0
LINE
  5
49E
  8
図枠
 10
1411.2097935908
 20
-430.12416652399997
 30
0.0
 11
1423.2097935908
 21
-427.12416652399997
 31
0.0
  0
INSERT
  5
49F
  8
0
  6
CONTINUOUS
  2
*U148
 10
0.0
 20
0.0
 30
0.0
  0
CIRCLE
  5
4A0
  8
図枠
 10
1397.4949998116001
 20
-433.12416652399997
 30
0.0
 40
3.0
  0
LINE
  5
4A1
  8
図枠
 10
1422.8418378045001
 20
-497.93248410680002
 30
0.0
 11
1421.8346611228001
 21
-494.43248410680002
 31
0.0
  0
LINE
  5
4A2
  8
図枠
 10
1420.5397196749
 20
-489.93248410680002
 30
0.0
 11
1427.8418378045001
 21
-489.93248410680002
 31
0.0
  0
LINE
  5
4A3
  8
図枠
 10
1377.2981311838
 20
-492.93248410680002
 30
0.0
 11
1380.2981311838
 21
-492.93248410680002
 31
0.0
  0
LINE
  5
4A4
  8
図枠
 10
1410.3418378045001
 20
-479.18248410680002
 30
0.0
 11
1420.3418378045001
 21
-479.18248410680002
 31
0.0
  0
LINE
  5
4A5
  8
図枠
 10
1349.3966160323
 20
-484.18248410680002
 30
0.0
 11
1346.5188565034
 21
-484.18248410680002
 31
0.0
  0
LINE
  5
4A6
  8
図枠
 10
1377.2981311838
 20
-492.93248410680002
 30
0.0
 11
1377.2981311838
 21
-496.68248410680002
 31
0.0
  0
LINE
  5
4A7
  8
図枠
 10
1349.3966160323
 20
-487.93248410680002
 30
0.0
 11
1349.0188565034
 21
-487.93248410680002
 31
0.0
  0
LINE
  5
4A8
  8
図枠
 10
1349.3966160323
 20
-492.93248410680002
 30
0.0
 11
1349.3966160323
 21
-496.68248410680002
 31
0.0
  0
ARC
  5
4A9
  8
図枠
 10
1380.2981311838
 20
-483.43248410680002
 30
0.0
 40
9.5
 50
331.39928138329998
 51
358.49204224580001
  0
LINE
  5
4AA
  8
図枠
 10
1366.8966160323
 20
-487.93248410680002
 30
0.0
 11
1370.6466160323
 21
-487.93248410680002
 31
0.0
  0
ARC
  5
4AB
  8
図枠
 10
1383.5481311838
 20
-482.9324841067999
 30
0.0
 40
13.75
 50
270.0
 51
302.54495885400001
  0
LINE
  5
4AC
  8
図枠
 10
1411.2097935908
 20
-436.12416652399997
 30
0.0
 11
1423.2097935908
 21
-439.12416652399997
 31
0.0
  0
LINE
  5
4AD
  8
図枠
 10
1411.2097935908
 20
-430.12416652399997
 30
0.0
 11
1411.2097935908
 21
-436.12416652399997
 31
0.0
  0
LINE
  5
4AE
  8
図枠
 10
1423.2097935908
 20
-427.12416652399997
 30
0.0
 11
1423.2097935908
 21
-439.12416652399997
 31
0.0
  0
LINE
  5
4AF
  8
図枠
 10
1387.2981311838
 20
-484.98775977550002
 30
0.0
 11
1385.8839176214001
 21
-486.40197333790002
 31
0.0
  0
LINE
  5
4B0
  8
図枠
  6
BORDER
 10
1388.4949998116001
 20
-433.12416652399997
 30
0.0
 11
1426.9949998116001
 21
-433.12416652399997
 31
0.0
  0
CIRCLE
  5
4B1
  8
図枠
 10
1397.4949998116001
 20
-433.12416652399997
 30
0.0
 40
3.0
  0
POLYLINE
  8
図枠
  5
756
  66
     1
 10
0.000000
 20
0.000000
 30
0.000000
  70
     8
  0
VERTEX
  8
図枠
  5
757
 10
1394.01
 20
-491.741
 30
0.000000
  70
    32
  0
VERTEX
  8
図枠
  5
758
 10
1394.05
 20
-491.754
 30
0.000000
  70
    32
  0
VERTEX
  8
図枠
  5
759
 10
1394.10
 20
-491.766
 30
0.000000
  70
    32
  0
VERTEX
  8
図枠
  5
75A
 10
1394.14
 20
-491.778
 30
0.000000
  70
    32
  0
VERTEX
  8
図枠
  5
75B
 10
1394.18
 20
-491.790
 30
0.000000
  70
    32
  0
VERTEX
  8
図枠
  5
75C
 10
1394.23
 20
-491.802
 30
0.000000
  70
    32
  0
VERTEX
  8
図枠
  5
75D
 10
1394.27
 20
-491.815
 30
0.000000
  70
    32
  0
VERTEX
  8
図枠
  5
75E
 10
1394.32
 20
-491.826
 30
0.000000
  70
    32
  0
VERTEX
  8
図枠
  5
75F
 10
1394.36
 20
-491.838
 30
0.000000
  70
    32
  0
VERTEX
  8
図枠
  5
760
 10
1394.40
 20
-491.850
 30
0.000000
  70
    32
  0
VERTEX
  8
図枠
  5
761
 10
1394.45
 20
-491.862
 30
0.000000
  70
    32
  0
VERTEX
  8
図枠
  5
762
 10
1394.49
 20
-491.874
 30
0.000000
  70
    32
  0
VERTEX
  8
図枠
  5
763
 10
1394.54
 20
-491.885
 30
0.000000
  70
    32
  0
VERTEX
  8
図枠
  5
764
 10
1394.58
 20
-491.897
 30
0.000000
  70
    32
  0
VERTEX
  8
図枠
  5
765
 10
1394.63
 20
-491.908
 30
0.000000
  70
    32
  0
VERTEX
  8
図枠
  5
766
 10
1394.67
 20
-491.920
 30
0.000000
  70
    32
  0
VERTEX
  8
図枠
  5
767
 10
1394.71
 20
-491.931
 30
0.000000
  70
    32
  0
VERTEX
  8
図枠
  5
768
 10
1394.76
 20
-491.943
 30
0.000000
  70
    32
  0
VERTEX
  8
図枠
  5
769
 10
1394.80
 20
-491.954
 30
0.000000
  70
    32
  0
VERTEX
  8
図枠
  5
76A
 10
1394.85
 20
-491.965
 30
0.000000
  70
    32
  0
VERTEX
  8
図枠
  5
76B
 10
1394.89
 20
-491.976
 30
0.000000
  70
    32
  0
VERTEX
  8
図枠
  5
76C
 10
1394.94
 20
-491.987
 30
0.000000
  70
    32
  0
VERTEX
  8
図枠
  5
76D
 10
1394.98
 20
-491.998
 30
0.000000
  70
    32
  0
VERTEX
  8
図枠
  5
76E
 10
1395.03
 20
-492.009
 30
0.000000
  70
    32
  0
VERTEX
  8
図枠
  5
76F
 10
1395.07
 20
-492.020
 30
0.000000
  70
    32
  0
VERTEX
  8
図枠
  5
770
 10
1395.11
 20
-492.031
 30
0.000000
  70
    32
  0
VERTEX
  8
図枠
  5
771
 10
1395.16
 20
-492.042
 30
0.000000
  70
    32
  0
VERTEX
  8
図枠
  5
772
 10
1395.20
 20
-492.052
 30
0.000000
  70
    32
  0
VERTEX
  8
図枠
  5
773
 10
1395.25
 20
-492.063
 30
0.000000
  70
    32
  0
VERTEX
  8
図枠
  5
774
 10
1395.29
 20
-492.074
 30
0.000000
  70
    32
  0
VERTEX
  8
図枠
  5
775
 10
1395.34
 20
-492.084
 30
0.000000
  70
    32
  0
VERTEX
  8
図枠
  5
776
 10
1395.38
 20
-492.095
 30
0.000000
  70
    32
  0
VERTEX
  8
図枠
  5
777
 10
1395.43
 20
-492.105
 30
0.000000
  70
    32
  0
VERTEX
  8
図枠
  5
778
 10
1395.47
 20
-492.115
 30
0.000000
  70
    32
  0
VERTEX
  8
図枠
  5
779
 10
1395.52
 20
-492.126
 30
0.000000
  70
    32
  0
VERTEX
  8
図枠
  5
77A
 10
1395.56
 20
-492.136
 30
0.000000
  70
    32
  0
VERTEX
  8
図枠
  5
77B
 10
1395.61
 20
-492.146
 30
0.000000
  70
    32
  0
VERTEX
  8
図枠
  5
77C
 10
1395.65
 20
-492.157
 30
0.000000
  70
    32
  0
VERTEX
  8
図枠
  5
77D
 10
1395.70
 20
-492.167
 30
0.000000
  70
    32
  0
VERTEX
  8
図枠
  5
77E
 10
1395.74
 20
-492.177
 30
0.000000
  70
    32
  0
VERTEX
  8
図枠
  5
77F
 10
1395.79
 20
-492.187
 30
0.000000
  70
    32
  0
VERTEX
  8
図枠
  5
780
 10
1395.83
 20
-492.197
 30
0.000000
  70
    32
  0
VERTEX
  8
図枠
  5
781
 10
1395.88
 20
-492.207
 30
0.000000
  70
    32
  0
VERTEX
  8
図枠
  5
782
 10
1395.92
 20
-492.217
 30
0.000000
  70
    32
  0
VERTEX
  8
図枠
  5
783
 10
1395.97
 20
-492.226
 30
0.000000
  70
    32
  0
VERTEX
  8
図枠
  5
784
 10
1396.02
 20
-492.236
 30
0.000000
  70
    32
  0
VERTEX
  8
図枠
  5
785
 10
1396.06
 20
-492.246
 30
0.000000
  70
    32
  0
VERTEX
  8
図枠
  5
786
 10
1396.11
 20
-492.256
 30
0.000000
  70
    32
  0
VERTEX
  8
図枠
  5
787
 10
1396.15
 20
-492.265
 30
0.000000
  70
    32
  0
VERTEX
  8
図枠
  5
788
 10
1396.20
 20
-492.275
 30
0.000000
  70
    32
  0
VERTEX
  8
図枠
  5
789
 10
1396.24
 20
-492.284
 30
0.000000
  70
    32
  0
VERTEX
  8
図枠
  5
78A
 10
1396.29
 20
-492.294
 30
0.000000
  70
    32
  0
VERTEX
  8
図枠
  5
78B
 10
1396.33
 20
-492.303
 30
0.000000
  70
    32
  0
VERTEX
  8
図枠
  5
78C
 10
1396.38
 20
-492.313
 30
0.000000
  70
    32
  0
VERTEX
  8
図枠
  5
78D
 10
1396.42
 20
-492.322
 30
0.000000
  70
    32
  0
VERTEX
  8
図枠
  5
78E
 10
1396.47
 20
-492.332
 30
0.000000
  70
    32
  0
VERTEX
  8
図枠
  5
78F
 10
1396.52
 20
-492.341
 30
0.000000
  70
    32
  0
VERTEX
  8
図枠
  5
790
 10
1396.56
 20
-492.350
 30
0.000000
  70
    32
  0
VERTEX
  8
図枠
  5
791
 10
1396.61
 20
-492.359
 30
0.000000
  70
    32
  0
VERTEX
  8
図枠
  5
792
 10
1396.65
 20
-492.369
 30
0.000000
  70
    32
  0
VERTEX
  8
図枠
  5
793
 10
1396.70
 20
-492.378
 30
0.000000
  70
    32
  0
VERTEX
  8
図枠
  5
794
 10
1396.74
 20
-492.387
 30
0.000000
  70
    32
  0
VERTEX
  8
図枠
  5
795
 10
1396.79
 20
-492.396
 30
0.000000
  70
    32
  0
VERTEX
  8
図枠
  5
796
 10
1396.84
 20
-492.405
 30
0.000000
  70
    32
  0
VERTEX
  8
図枠
  5
797
 10
1396.88
 20
-492.414
 30
0.000000
  70
    32
  0
VERTEX
  8
図枠
  5
798
 10
1396.93
 20
-492.423
 30
0.000000
  70
    32
  0
VERTEX
  8
図枠
  5
799
 10
1396.97
 20
-492.432
 30
0.000000
  70
    32
  0
VERTEX
  8
図枠
  5
79A
 10
1397.02
 20
-492.441
 30
0.000000
  70
    32
  0
VERTEX
  8
図枠
  5
79B
 10
1397.07
 20
-492.450
 30
0.000000
  70
    32
  0
VERTEX
  8
図枠
  5
79C
 10
1397.11
 20
-492.458
 30
0.000000
  70
    32
  0
VERTEX
  8
図枠
  5
79D
 10
1397.16
 20
-492.467
 30
0.000000
  70
    32
  0
VERTEX
  8
図枠
  5
79E
 10
1397.20
 20
-492.476
 30
0.000000
  70
    32
  0
VERTEX
  8
図枠
  5
79F
 10
1397.25
 20
-492.485
 30
0.000000
  70
    32
  0
VERTEX
  8
図枠
  5
7A0
 10
1397.30
 20
-492.493
 30
0.000000
  70
    32
  0
VERTEX
  8
図枠
  5
7A1
 10
1397.34
 20
-492.502
 30
0.000000
  70
    32
  0
VERTEX
  8
図枠
  5
7A2
 10
1397.39
 20
-492.511
 30
0.000000
  70
    32
  0
VERTEX
  8
図枠
  5
7A3
 10
1397.43
 20
-492.519
 30
0.000000
  70
    32
  0
VERTEX
  8
図枠
  5
7A4
 10
1397.48
 20
-492.528
 30
0.000000
  70
    32
  0
VERTEX
  8
図枠
  5
7A5
 10
1397.53
 20
-492.536
 30
0.000000
  70
    32
  0
VERTEX
  8
図枠
  5
7A6
 10
1397.57
 20
-492.545
 30
0.000000
  70
    32
  0
VERTEX
  8
図枠
  5
7A7
 10
1397.62
 20
-492.553
 30
0.000000
  70
    32
  0
VERTEX
  8
図枠
  5
7A8
 10
1397.66
 20
-492.562
 30
0.000000
  70
    32
  0
VERTEX
  8
図枠
  5
7A9
 10
1397.71
 20
-492.570
 30
0.000000
  70
    32
  0
VERTEX
  8
図枠
  5
7AA
 10
1397.76
 20
-492.579
 30
0.000000
  70
    32
  0
VERTEX
  8
図枠
  5
7AB
 10
1397.80
 20
-492.587
 30
0.000000
  70
    32
  0
VERTEX
  8
図枠
  5
7AC
 10
1397.85
 20
-492.595
 30
0.000000
  70
    32
  0
VERTEX
  8
図枠
  5
7AD
 10
1397.89
 20
-492.604
 30
0.000000
  70
    32
  0
VERTEX
  8
図枠
  5
7AE
 10
1397.94
 20
-492.612
 30
0.000000
  70
    32
  0
VERTEX
  8
図枠
  5
7AF
 10
1397.99
 20
-492.620
 30
0.000000
  70
    32
  0
VERTEX
  8
図枠
  5
7B0
 10
1398.03
 20
-492.629
 30
0.000000
  70
    32
  0
VERTEX
  8
図枠
  5
7B1
 10
1398.08
 20
-492.637
 30
0.000000
  70
    32
  0
VERTEX
  8
図枠
  5
7B2
 10
1398.13
 20
-492.645
 30
0.000000
  70
    32
  0
VERTEX
  8
図枠
  5
7B3
 10
1398.17
 20
-492.653
 30
0.000000
  70
    32
  0
VERTEX
  8
図枠
  5
7B4
 10
1398.22
 20
-492.662
 30
0.000000
  70
    32
  0
VERTEX
  8
図枠
  5
7B5
 10
1398.26
 20
-492.670
 30
0.000000
  70
    32
  0
VERTEX
  8
図枠
  5
7B6
 10
1398.31
 20
-492.678
 30
0.000000
  70
    32
  0
VERTEX
  8
図枠
  5
7B7
 10
1398.36
 20
-492.686
 30
0.000000
  70
    32
  0
VERTEX
  8
図枠
  5
7B8
 10
1398.40
 20
-492.694
 30
0.000000
  70
    32
  0
VERTEX
  8
図枠
  5
7B9
 10
1398.45
 20
-492.702
 30
0.000000
  70
    32
  0
VERTEX
  8
図枠
  5
7BA
 10
1398.50
 20
-492.710
 30
0.000000
  70
    32
  0
VERTEX
  8
図枠
  5
7BB
 10
1398.54
 20
-492.718
 30
0.000000
  70
    32
  0
VERTEX
  8
図枠
  5
7BC
 10
1398.59
 20
-492.727
 30
0.000000
  70
    32
  0
VERTEX
  8
図枠
  5
7BD
 10
1398.64
 20
-492.735
 30
0.000000
  70
    32
  0
VERTEX
  8
図枠
  5
7BE
 10
1398.68
 20
-492.743
 30
0.000000
  70
    32
  0
VERTEX
  8
図枠
  5
7BF
 10
1398.73
 20
-492.751
 30
0.000000
  70
    32
  0
VERTEX
  8
図枠
  5
7C0
 10
1398.78
 20
-492.759
 30
0.000000
  70
    32
  0
VERTEX
  8
図枠
  5
7C1
 10
1398.82
 20
-492.767
 30
0.000000
  70
    32
  0
VERTEX
  8
図枠
  5
7C2
 10
1398.87
 20
-492.775
 30
0.000000
  70
    32
  0
VERTEX
  8
図枠
  5
7C3
 10
1398.91
 20
-492.783
 30
0.000000
  70
    32
  0
VERTEX
  8
図枠
  5
7C4
 10
1398.96
 20
-492.791
 30
0.000000
  70
    32
  0
VERTEX
  8
図枠
  5
7C5
 10
1399.01
 20
-492.798
 30
0.000000
  70
    32
  0
VERTEX
  8
図枠
  5
7C6
 10
1399.05
 20
-492.806
 30
0.000000
  70
    32
  0
VERTEX
  8
図枠
  5
7C7
 10
1399.10
 20
-492.814
 30
0.000000
  70
    32
  0
VERTEX
  8
図枠
  5
7C8
 10
1399.15
 20
-492.822
 30
0.000000
  70
    32
  0
VERTEX
  8
図枠
  5
7C9
 10
1399.19
 20
-492.830
 30
0.000000
  70
    32
  0
VERTEX
  8
図枠
  5
7CA
 10
1399.24
 20
-492.838
 30
0.000000
  70
    32
  0
VERTEX
  8
図枠
  5
7CB
 10
1399.29
 20
-492.846
 30
0.000000
  70
    32
  0
VERTEX
  8
図枠
  5
7CC
 10
1399.33
 20
-492.854
 30
0.000000
  70
    32
  0
VERTEX
  8
図枠
  5
7CD
 10
1399.38
 20
-492.862
 30
0.000000
  70
    32
  0
VERTEX
  8
図枠
  5
7CE
 10
1399.43
 20
-492.870
 30
0.000000
  70
    32
  0
VERTEX
  8
図枠
  5
7CF
 10
1399.47
 20
-492.877
 30
0.000000
  70
    32
  0
VERTEX
  8
図枠
  5
7D0
 10
1399.52
 20
-492.885
 30
0.000000
  70
    32
  0
VERTEX
  8
図枠
  5
7D1
 10
1399.57
 20
-492.893
 30
0.000000
  70
    32
  0
VERTEX
  8
図枠
  5
7D2
 10
1399.61
 20
-492.901
 30
0.000000
  70
    32
  0
VERTEX
  8
図枠
  5
7D3
 10
1399.66
 20
-492.909
 30
0.000000
  70
    32
  0
VERTEX
  8
図枠
  5
7D4
 10
1399.71
 20
-492.917
 30
0.000000
  70
    32
  0
VERTEX
  8
図枠
  5
7D5
 10
1399.75
 20
-492.925
 30
0.000000
  70
    32
  0
VERTEX
  8
図枠
  5
7D6
 10
1399.80
 20
-492.932
 30
0.000000
  70
    32
  0
SEQEND
  8
図枠
  5
7D7
  0
POLYLINE
  8
図枠
  5
7D8
  66
     1
 10
0.000000
 20
0.000000
 30
0.000000
  70
     8
  0
VERTEX
  8
図枠
  5
7D9
 10
1385.88
 20
-486.402
 30
0.000000
  70
    32
  0
VERTEX
  8
図枠
  5
7DA
 10
1385.90
 20
-486.420
 30
0.000000
  70
    32
  0
VERTEX
  8
図枠
  5
7DB
 10
1385.92
 20
-486.439
 30
0.000000
  70
    32
  0
VERTEX
  8
図枠
  5
7DC
 10
1385.93
 20
-486.457
 30
0.000000
  70
    32
  0
VERTEX
  8
図枠
  5
7DD
 10
1385.95
 20
-486.476
 30
0.000000
  70
    32
  0
VERTEX
  8
図枠
  5
7DE
 10
1385.97
 20
-486.494
 30
0.000000
  70
    32
  0
VERTEX
  8
図枠
  5
7DF
 10
1385.98
 20
-486.512
 30
0.000000
  70
    32
  0
VERTEX
  8
図枠
  5
7E0
 10
1386.00
 20
-486.531
 30
0.000000
  70
    32
  0
VERTEX
  8
図枠
  5
7E1
 10
1386.02
 20
-486.549
 30
0.000000
  70
    32
  0
VERTEX
  8
図枠
  5
7E2
 10
1386.03
 20
-486.568
 30
0.000000
  70
    32
  0
VERTEX
  8
図枠
  5
7E3
 10
1386.05
 20
-486.586
 30
0.000000
  70
    32
  0
VERTEX
  8
図枠
  5
7E4
 10
1386.07
 20
-486.604
 30
0.000000
  70
    32
  0
VERTEX
  8
図枠
  5
7E5
 10
1386.08
 20
-486.623
 30
0.000000
  70
    32
  0
VERTEX
  8
図枠
  5
7E6
 10
1386.10
 20
-486.641
 30
0.000000
  70
    32
  0
VERTEX
  8
図枠
  5
7E7
 10
1386.11
 20
-486.659
 30
0.000000
  70
    32
  0
VERTEX
  8
図枠
  5
7E8
 10
1386.13
 20
-486.678
 30
0.000000
  70
    32
  0
VERTEX
  8
図枠
  5
7E9
 10
1386.15
 20
-486.696
 30
0.000000
  70
    32
  0
VERTEX
  8
図枠
  5
7EA
 10
1386.16
 20
-486.714
 30
0.000000
  70
    32
  0
VERTEX
  8
図枠
  5
7EB
 10
1386.18
 20
-486.733
 30
0.000000
  70
    32
  0
VERTEX
  8
図枠
  5
7EC
 10
1386.20
 20
-486.751
 30
0.000000
  70
    32
  0
VERTEX
  8
図枠
  5
7ED
 10
1386.21
 20
-486.770
 30
0.000000
  70
    32
  0
VERTEX
  8
図枠
  5
7EE
 10
1386.23
 20
-486.788
 30
0.000000
  70
    32
  0
VERTEX
  8
図枠
  5
7EF
 10
1386.25
 20
-486.806
 30
0.000000
  70
    32
  0
VERTEX
  8
図枠
  5
7F0
 10
1386.26
 20
-486.825
 30
0.000000
  70
    32
  0
VERTEX
  8
図枠
  5
7F1
 10
1386.28
 20
-486.843
 30
0.000000
  70
    32
  0
VERTEX
  8
図枠
  5
7F2
 10
1386.30
 20
-486.861
 30
0.000000
  70
    32
  0
VERTEX
  8
図枠
  5
7F3
 10
1386.31
 20
-486.879
 30
0.000000
  70
    32
  0
VERTEX
  8
図枠
  5
7F4
 10
1386.33
 20
-486.898
 30
0.000000
  70
    32
  0
VERTEX
  8
図枠
  5
7F5
 10
1386.35
 20
-486.916
 30
0.000000
  70
    32
  0
VERTEX
  8
図枠
  5
7F6
 10
1386.36
 20
-486.934
 30
0.000000
  70
    32
  0
VERTEX
  8
図枠
  5
7F7
 10
1386.38
 20
-486.953
 30
0.000000
  70
    32
  0
VERTEX
  8
図枠
  5
7F8
 10
1386.40
 20
-486.971
 30
0.000000
  70
    32
  0
VERTEX
  8
図枠
  5
7F9
 10
1386.41
 20
-486.989
 30
0.000000
  70
    32
  0
VERTEX
  8
図枠
  5
7FA
 10
1386.43
 20
-487.007
 30
0.000000
  70
    32
  0
VERTEX
  8
図枠
  5
7FB
 10
1386.45
 20
-487.026
 30
0.000000
  70
    32
  0
VERTEX
  8
図枠
  5
7FC
 10
1386.46
 20
-487.044
 30
0.000000
  70
    32
  0
VERTEX
  8
図枠
  5
7FD
 10
1386.48
 20
-487.062
 30
0.000000
  70
    32
  0
VERTEX
  8
図枠
  5
7FE
 10
1386.50
 20
-487.080
 30
0.000000
  70
    32
  0
VERTEX
  8
図枠
  5
7FF
 10
1386.51
 20
-487.098
 30
0.000000
  70
    32
  0
VERTEX
  8
図枠
  5
800
 10
1386.53
 20
-487.117
 30
0.000000
  70
    32
  0
VERTEX
  8
図枠
  5
801
 10
1386.55
 20
-487.135
 30
0.000000
  70
    32
  0
VERTEX
  8
図枠
  5
802
 10
1386.56
 20
-487.153
 30
0.000000
  70
    32
  0
VERTEX
  8
図枠
  5
803
 10
1386.58
 20
-487.171
 30
0.000000
  70
    32
  0
VERTEX
  8
図枠
  5
804
 10
1386.60
 20
-487.189
 30
0.000000
  70
    32
  0
VERTEX
  8
図枠
  5
805
 10
1386.61
 20
-487.207
 30
0.000000
  70
    32
  0
VERTEX
  8
図枠
  5
806
 10
1386.63
 20
-487.226
 30
0.000000
  70
    32
  0
VERTEX
  8
図枠
  5
807
 10
1386.65
 20
-487.244
 30
0.000000
  70
    32
  0
VERTEX
  8
図枠
  5
808
 10
1386.66
 20
-487.262
 30
0.000000
  70
    32
  0
VERTEX
  8
図枠
  5
809
 10
1386.68
 20
-487.280
 30
0.000000
  70
    32
  0
VERTEX
  8
図枠
  5
80A
 10
1386.70
 20
-487.298
 30
0.000000
  70
    32
  0
VERTEX
  8
図枠
  5
80B
 10
1386.71
 20
-487.316
 30
0.000000
  70
    32
  0
VERTEX
  8
図枠
  5
80C
 10
1386.73
 20
-487.334
 30
0.000000
  70
    32
  0
VERTEX
  8
図枠
  5
80D
 10
1386.75
 20
-487.352
 30
0.000000
  70
    32
  0
VERTEX
  8
図枠
  5
80E
 10
1386.76
 20
-487.370
 30
0.000000
  70
    32
  0
VERTEX
  8
図枠
  5
80F
 10
1386.78
 20
-487.388
 30
0.000000
  70
    32
  0
VERTEX
  8
図枠
  5
810
 10
1386.80
 20
-487.406
 30
0.000000
  70
    32
  0
VERTEX
  8
図枠
  5
811
 10
1386.81
 20
-487.424
 30
0.000000
  70
    32
  0
VERTEX
  8
図枠
  5
812
 10
1386.83
 20
-487.442
 30
0.000000
  70
    32
  0
VERTEX
  8
図枠
  5
813
 10
1386.85
 20
-487.460
 30
0.000000
  70
    32
  0
VERTEX
  8
図枠
  5
814
 10
1386.86
 20
-487.478
 30
0.000000
  70
    32
  0
VERTEX
  8
図枠
  5
815
 10
1386.88
 20
-487.496
 30
0.000000
  70
    32
  0
VERTEX
  8
図枠
  5
816
 10
1386.90
 20
-487.514
 30
0.000000
  70
    32
  0
VERTEX
  8
図枠
  5
817
 10
1386.91
 20
-487.532
 30
0.000000
  70
    32
  0
VERTEX
  8
図枠
  5
818
 10
1386.93
 20
-487.549
 30
0.000000
  70
    32
  0
VERTEX
  8
図枠
  5
819
 10
1386.95
 20
-487.567
 30
0.000000
  70
    32
  0
VERTEX
  8
図枠
  5
81A
 10
1386.96
 20
-487.585
 30
0.000000
  70
    32
  0
VERTEX
  8
図枠
  5
81B
 10
1386.98
 20
-487.603
 30
0.000000
  70
    32
  0
VERTEX
  8
図枠
  5
81C
 10
1387.00
 20
-487.621
 30
0.000000
  70
    32
  0
VERTEX
  8
図枠
  5
81D
 10
1387.01
 20
-487.638
 30
0.000000
  70
    32
  0
VERTEX
  8
図枠
  5
81E
 10
1387.03
 20
-487.656
 30
0.000000
  70
    32
  0
VERTEX
  8
図枠
  5
81F
 10
1387.05
 20
-487.674
 30
0.000000
  70
    32
  0
VERTEX
  8
図枠
  5
820
 10
1387.07
 20
-487.692
 30
0.000000
  70
    32
  0
VERTEX
  8
図枠
  5
821
 10
1387.08
 20
-487.709
 30
0.000000
  70
    32
  0
VERTEX
  8
図枠
  5
822
 10
1387.10
 20
-487.727
 30
0.000000
  70
    32
  0
VERTEX
  8
図枠
  5
823
 10
1387.12
 20
-487.745
 30
0.000000
  70
    32
  0
VERTEX
  8
図枠
  5
824
 10
1387.13
 20
-487.762
 30
0.000000
  70
    32
  0
VERTEX
  8
図枠
  5
825
 10
1387.15
 20
-487.780
 30
0.000000
  70
    32
  0
VERTEX
  8
図枠
  5
826
 10
1387.17
 20
-487.798
 30
0.000000
  70
    32
  0
VERTEX
  8
図枠
  5
827
 10
1387.18
 20
-487.815
 30
0.000000
  70
    32
  0
VERTEX
  8
図枠
  5
828
 10
1387.20
 20
-487.833
 30
0.000000
  70
    32
  0
VERTEX
  8
図枠
  5
829
 10
1387.22
 20
-487.850
 30
0.000000
  70
    32
  0
VERTEX
  8
図枠
  5
82A
 10
1387.24
 20
-487.868
 30
0.000000
  70
    32
  0
VERTEX
  8
図枠
  5
82B
 10
1387.25
 20
-487.885
 30
0.000000
  70
    32
  0
VERTEX
  8
図枠
  5
82C
 10
1387.27
 20
-487.903
 30
0.000000
  70
    32
  0
VERTEX
  8
図枠
  5
82D
 10
1387.29
 20
-487.920
 30
0.000000
  70
    32
  0
VERTEX
  8
図枠
  5
82E
 10
1387.30
 20
-487.938
 30
0.000000
  70
    32
  0
VERTEX
  8
図枠
  5
82F
 10
1387.32
 20
-487.955
 30
0.000000
  70
    32
  0
VERTEX
  8
図枠
  5
830
 10
1387.34
 20
-487.972
 30
0.000000
  70
    32
  0
VERTEX
  8
図枠
  5
831
 10
1387.36
 20
-487.990
 30
0.000000
  70
    32
  0
VERTEX
  8
図枠
  5
832
 10
1387.37
 20
-488.007
 30
0.000000
  70
    32
  0
VERTEX
  8
図枠
  5
833
 10
1387.39
 20
-488.024
 30
0.000000
  70
    32
  0
VERTEX
  8
図枠
  5
834
 10
1387.41
 20
-488.042
 30
0.000000
  70
    32
  0
VERTEX
  8
図枠
  5
835
 10
1387.42
 20
-488.059
 30
0.000000
  70
    32
  0
VERTEX
  8
図枠
  5
836
 10
1387.44
 20
-488.076
 30
0.000000
  70
    32
  0
VERTEX
  8
図枠
  5
837
 10
1387.46
 20
-488.093
 30
0.000000
  70
    32
  0
VERTEX
  8
図枠
  5
838
 10
1387.48
 20
-488.110
 30
0.000000
  70
    32
  0
VERTEX
  8
図枠
  5
839
 10
1387.49
 20
-488.127
 30
0.000000
  70
    32
  0
VERTEX
  8
図枠
  5
83A
 10
1387.51
 20
-488.145
 30
0.000000
  70
    32
  0
VERTEX
  8
図枠
  5
83B
 10
1387.53
 20
-488.162
 30
0.000000
  70
    32
  0
VERTEX
  8
図枠
  5
83C
 10
1387.54
 20
-488.179
 30
0.000000
  70
    32
  0
VERTEX
  8
図枠
  5
83D
 10
1387.56
 20
-488.196
 30
0.000000
  70
    32
  0
VERTEX
  8
図枠
  5
83E
 10
1387.58
 20
-488.213
 30
0.000000
  70
    32
  0
VERTEX
  8
図枠
  5
83F
 10
1387.60
 20
-488.230
 30
0.000000
  70
    32
  0
VERTEX
  8
図枠
  5
840
 10
1387.61
 20
-488.247
 30
0.000000
  70
    32
  0
VERTEX
  8
図枠
  5
841
 10
1387.63
 20
-488.264
 30
0.000000
  70
    32
  0
VERTEX
  8
図枠
  5
842
 10
1387.65
 20
-488.281
 30
0.000000
  70
    32
  0
VERTEX
  8
図枠
  5
843
 10
1387.67
 20
-488.297
 30
0.000000
  70
    32
  0
VERTEX
  8
図枠
  5
844
 10
1387.68
 20
-488.314
 30
0.000000
  70
    32
  0
VERTEX
  8
図枠
  5
845
 10
1387.70
 20
-488.331
 30
0.000000
  70
    32
  0
VERTEX
  8
図枠
  5
846
 10
1387.72
 20
-488.348
 30
0.000000
  70
    32
  0
VERTEX
  8
図枠
  5
847
 10
1387.74
 20
-488.365
 30
0.000000
  70
    32
  0
VERTEX
  8
図枠
  5
848
 10
1387.75
 20
-488.381
 30
0.000000
  70
    32
  0
VERTEX
  8
図枠
  5
849
 10
1387.77
 20
-488.398
 30
0.000000
  70
    32
  0
VERTEX
  8
図枠
  5
84A
 10
1387.79
 20
-488.415
 30
0.000000
  70
    32
  0
VERTEX
  8
図枠
  5
84B
 10
1387.81
 20
-488.431
 30
0.000000
  70
    32
  0
VERTEX
  8
図枠
  5
84C
 10
1387.82
 20
-488.448
 30
0.000000
  70
    32
  0
VERTEX
  8
図枠
  5
84D
 10
1387.84
 20
-488.464
 30
0.000000
  70
    32
  0
VERTEX
  8
図枠
  5
84E
 10
1387.86
 20
-488.481
 30
0.000000
  70
    32
  0
VERTEX
  8
図枠
  5
84F
 10
1387.88
 20
-488.497
 30
0.000000
  70
    32
  0
VERTEX
  8
図枠
  5
850
 10
1387.90
 20
-488.514
 30
0.000000
  70
    32
  0
VERTEX
  8
図枠
  5
851
 10
1387.91
 20
-488.530
 30
0.000000
  70
    32
  0
VERTEX
  8
図枠
  5
852
 10
1387.93
 20
-488.547
 30
0.000000
  70
    32
  0
VERTEX
  8
図枠
  5
853
 10
1387.95
 20
-488.563
 30
0.000000
  70
    32
  0
VERTEX
  8
図枠
  5
854
 10
1387.97
 20
-488.580
 30
0.000000
  70
    32
  0
VERTEX
  8
図枠
  5
855
 10
1387.98
 20
-488.596
 30
0.000000
  70
    32
  0
VERTEX
  8
図枠
  5
856
 10
1388.00
 20
-488.612
 30
0.000000
  70
    32
  0
VERTEX
  8
図枠
  5
857
 10
1388.02
 20
-488.628
 30
0.000000
  70
    32
  0
VERTEX
  8
図枠
  5
858
 10
1388.04
 20
-488.645
 30
0.000000
  70
    32
  0
SEQEND
  8
図枠
  5
859
  0
POLYLINE
  8
図枠
  5
85A
  66
     1
 10
0.000000
 20
0.000000
 30
0.000000
  70
     8
  0
VERTEX
  8
図枠
  5
85B
 10
1390.95
 20
-494.523
 30
0.000000
  70
    32
  0
VERTEX
  8
図枠
  5
85C
 10
1391.01
 20
-494.545
 30
0.000000
  70
    32
  0
VERTEX
  8
図枠
  5
85D
 10
1391.08
 20
-494.566
 30
0.000000
  70
    32
  0
VERTEX
  8
図枠
  5
85E
 10
1391.15
 20
-494.587
 30
0.000000
  70
    32
  0
VERTEX
  8
図枠
  5
85F
 10
1391.21
 20
-494.609
 30
0.000000
  70
    32
  0
VERTEX
  8
図枠
  5
860
 10
1391.28
 20
-494.630
 30
0.000000
  70
    32
  0
VERTEX
  8
図枠
  5
861
 10
1391.35
 20
-494.651
 30
0.000000
  70
    32
  0
VERTEX
  8
図枠
  5
862
 10
1391.42
 20
-494.671
 30
0.000000
  70
    32
  0
VERTEX
  8
図枠
  5
863
 10
1391.49
 20
-494.692
 30
0.000000
  70
    32
  0
VERTEX
  8
図枠
  5
864
 10
1391.55
 20
-494.713
 30
0.000000
  70
    32
  0
VERTEX
  8
図枠
  5
865
 10
1391.62
 20
-494.733
 30
0.000000
  70
    32
  0
VERTEX
  8
図枠
  5
866
 10
1391.69
 20
-494.754
 30
0.000000
  70
    32
  0
VERTEX
  8
図枠
  5
867
 10
1391.76
 20
-494.774
 30
0.000000
  70
    32
  0
VERTEX
  8
図枠
  5
868
 10
1391.82
 20
-494.794
 30
0.000000
  70
    32
  0
VERTEX
  8
図枠
  5
869
 10
1391.89
 20
-494.814
 30
0.000000
  70
    32
  0
VERTEX
  8
図枠
  5
86A
 10
1391.96
 20
-494.834
 30
0.000000
  70
    32
  0
VERTEX
  8
図枠
  5
86B
 10
1392.03
 20
-494.854
 30
0.000000
  70
    32
  0
VERTEX
  8
図枠
  5
86C
 10
1392.10
 20
-494.874
 30
0.000000
  70
    32
  0
VERTEX
  8
図枠
  5
86D
 10
1392.16
 20
-494.894
 30
0.000000
  70
    32
  0
VERTEX
  8
図枠
  5
86E
 10
1392.23
 20
-494.914
 30
0.000000
  70
    32
  0
VERTEX
  8
図枠
  5
86F
 10
1392.30
 20
-494.933
 30
0.000000
  70
    32
  0
VERTEX
  8
図枠
  5
870
 10
1392.37
 20
-494.953
 30
0.000000
  70
    32
  0
VERTEX
  8
図枠
  5
871
 10
1392.44
 20
-494.972
 30
0.000000
  70
    32
  0
VERTEX
  8
図枠
  5
872
 10
1392.51
 20
-494.992
 30
0.000000
  70
    32
  0
VERTEX
  8
図枠
  5
873
 10
1392.58
 20
-495.011
 30
0.000000
  70
    32
  0
VERTEX
  8
図枠
  5
874
 10
1392.64
 20
-495.030
 30
0.000000
  70
    32
  0
VERTEX
  8
図枠
  5
875
 10
1392.71
 20
-495.049
 30
0.000000
  70
    32
  0
VERTEX
  8
図枠
  5
876
 10
1392.78
 20
-495.068
 30
0.000000
  70
    32
  0
VERTEX
  8
図枠
  5
877
 10
1392.85
 20
-495.087
 30
0.000000
  70
    32
  0
VERTEX
  8
図枠
  5
878
 10
1392.92
 20
-495.106
 30
0.000000
  70
    32
  0
VERTEX
  8
図枠
  5
879
 10
1392.99
 20
-495.125
 30
0.000000
  70
    32
  0
VERTEX
  8
図枠
  5
87A
 10
1393.06
 20
-495.143
 30
0.000000
  70
    32
  0
VERTEX
  8
図枠
  5
87B
 10
1393.12
 20
-495.162
 30
0.000000
  70
    32
  0
VERTEX
  8
図枠
  5
87C
 10
1393.19
 20
-495.180
 30
0.000000
  70
    32
  0
VERTEX
  8
図枠
  5
87D
 10
1393.26
 20
-495.199
 30
0.000000
  70
    32
  0
VERTEX
  8
図枠
  5
87E
 10
1393.33
 20
-495.217
 30
0.000000
  70
    32
  0
VERTEX
  8
図枠
  5
87F
 10
1393.40
 20
-495.235
 30
0.000000
  70
    32
  0
VERTEX
  8
図枠
  5
880
 10
1393.47
 20
-495.253
 30
0.000000
  70
    32
  0
VERTEX
  8
図枠
  5
881
 10
1393.54
 20
-495.272
 30
0.000000
  70
    32
  0
VERTEX
  8
図枠
  5
882
 10
1393.61
 20
-495.290
 30
0.000000
  70
    32
  0
VERTEX
  8
図枠
  5
883
 10
1393.68
 20
-495.308
 30
0.000000
  70
    32
  0
VERTEX
  8
図枠
  5
884
 10
1393.75
 20
-495.325
 30
0.000000
  70
    32
  0
VERTEX
  8
図枠
  5
885
 10
1393.82
 20
-495.343
 30
0.000000
  70
    32
  0
VERTEX
  8
図枠
  5
886
 10
1393.88
 20
-495.361
 30
0.000000
  70
    32
  0
VERTEX
  8
図枠
  5
887
 10
1393.95
 20
-495.379
 30
0.000000
  70
    32
  0
VERTEX
  8
図枠
  5
888
 10
1394.02
 20
-495.396
 30
0.000000
  70
    32
  0
VERTEX
  8
図枠
  5
889
 10
1394.09
 20
-495.414
 30
0.000000
  70
    32
  0
VERTEX
  8
図枠
  5
88A
 10
1394.16
 20
-495.431
 30
0.000000
  70
    32
  0
VERTEX
  8
図枠
  5
88B
 10
1394.23
 20
-495.449
 30
0.000000
  70
    32
  0
VERTEX
  8
図枠
  5
88C
 10
1394.30
 20
-495.466
 30
0.000000
  70
    32
  0
VERTEX
  8
図枠
  5
88D
 10
1394.37
 20
-495.483
 30
0.000000
  70
    32
  0
VERTEX
  8
図枠
  5
88E
 10
1394.44
 20
-495.500
 30
0.000000
  70
    32
  0
VERTEX
  8
図枠
  5
88F
 10
1394.51
 20
-495.518
 30
0.000000
  70
    32
  0
VERTEX
  8
図枠
  5
890
 10
1394.58
 20
-495.535
 30
0.000000
  70
    32
  0
VERTEX
  8
図枠
  5
891
 10
1394.65
 20
-495.552
 30
0.000000
  70
    32
  0
VERTEX
  8
図枠
  5
892
 10
1394.72
 20
-495.569
 30
0.000000
  70
    32
  0
VERTEX
  8
図枠
  5
893
 10
1394.79
 20
-495.585
 30
0.000000
  70
    32
  0
VERTEX
  8
図枠
  5
894
 10
1394.86
 20
-495.602
 30
0.000000
  70
    32
  0
VERTEX
  8
図枠
  5
895
 10
1394.93
 20
-495.619
 30
0.000000
  70
    32
  0
VERTEX
  8
図枠
  5
896
 10
1395.00
 20
-495.636
 30
0.000000
  70
    32
  0
VERTEX
  8
図枠
  5
897
 10
1395.07
 20
-495.652
 30
0.000000
  70
    32
  0
VERTEX
  8
図枠
  5
898
 10
1395.14
 20
-495.669
 30
0.000000
  70
    32
  0
VERTEX
  8
図枠
  5
899
 10
1395.21
 20
-495.686
 30
0.000000
  70
    32
  0
VERTEX
  8
図枠
  5
89A
 10
1395.28
 20
-495.702
 30
0.000000
  70
    32
  0
VERTEX
  8
図枠
  5
89B
 10
1395.35
 20
-495.719
 30
0.000000
  70
    32
  0
VERTEX
  8
図枠
  5
89C
 10
1395.42
 20
-495.735
 30
0.000000
  70
    32
  0
VERTEX
  8
図枠
  5
89D
 10
1395.49
 20
-495.751
 30
0.000000
  70
    32
  0
VERTEX
  8
図枠
  5
89E
 10
1395.56
 20
-495.768
 30
0.000000
  70
    32
  0
VERTEX
  8
図枠
  5
89F
 10
1395.63
 20
-495.784
 30
0.000000
  70
    32
  0
VERTEX
  8
図枠
  5
8A0
 10
1395.70
 20
-495.800
 30
0.000000
  70
    32
  0
VERTEX
  8
図枠
  5
8A1
 10
1395.77
 20
-495.816
 30
0.000000
  70
    32
  0
VERTEX
  8
図枠
  5
8A2
 10
1395.84
 20
-495.832
 30
0.000000
  70
    32
  0
VERTEX
  8
図枠
  5
8A3
 10
1395.91
 20
-495.848
 30
0.000000
  70
    32
  0
VERTEX
  8
図枠
  5
8A4
 10
1395.98
 20
-495.864
 30
0.000000
  70
    32
  0
VERTEX
  8
図枠
  5
8A5
 10
1396.05
 20
-495.880
 30
0.000000
  70
    32
  0
VERTEX
  8
図枠
  5
8A6
 10
1396.12
 20
-495.896
 30
0.000000
  70
    32
  0
VERTEX
  8
図枠
  5
8A7
 10
1396.19
 20
-495.912
 30
0.000000
  70
    32
  0
VERTEX
  8
図枠
  5
8A8
 10
1396.26
 20
-495.928
 30
0.000000
  70
    32
  0
VERTEX
  8
図枠
  5
8A9
 10
1396.33
 20
-495.944
 30
0.000000
  70
    32
  0
VERTEX
  8
図枠
  5
8AA
 10
1396.40
 20
-495.959
 30
0.000000
  70
    32
  0
VERTEX
  8
図枠
  5
8AB
 10
1396.47
 20
-495.975
 30
0.000000
  70
    32
  0
VERTEX
  8
図枠
  5
8AC
 10
1396.54
 20
-495.991
 30
0.000000
  70
    32
  0
VERTEX
  8
図枠
  5
8AD
 10
1396.61
 20
-496.006
 30
0.000000
  70
    32
  0
VERTEX
  8
図枠
  5
8AE
 10
1396.68
 20
-496.022
 30
0.000000
  70
    32
  0
VERTEX
  8
図枠
  5
8AF
 10
1396.75
 20
-496.037
 30
0.000000
  70
    32
  0
VERTEX
  8
図枠
  5
8B0
 10
1396.82
 20
-496.053
 30
0.000000
  70
    32
  0
VERTEX
  8
図枠
  5
8B1
 10
1396.90
 20
-496.068
 30
0.000000
  70
    32
  0
VERTEX
  8
図枠
  5
8B2
 10
1396.97
 20
-496.084
 30
0.000000
  70
    32
  0
VERTEX
  8
図枠
  5
8B3
 10
1397.04
 20
-496.099
 30
0.000000
  70
    32
  0
VERTEX
  8
図枠
  5
8B4
 10
1397.11
 20
-496.114
 30
0.000000
  70
    32
  0
VERTEX
  8
図枠
  5
8B5
 10
1397.18
 20
-496.130
 30
0.000000
  70
    32
  0
VERTEX
  8
図枠
  5
8B6
 10
1397.25
 20
-496.145
 30
0.000000
  70
    32
  0
VERTEX
  8
図枠
  5
8B7
 10
1397.32
 20
-496.160
 30
0.000000
  70
    32
  0
VERTEX
  8
図枠
  5
8B8
 10
1397.39
 20
-496.176
 30
0.000000
  70
    32
  0
VERTEX
  8
図枠
  5
8B9
 10
1397.46
 20
-496.191
 30
0.000000
  70
    32
  0
VERTEX
  8
図枠
  5
8BA
 10
1397.53
 20
-496.206
 30
0.000000
  70
    32
  0
VERTEX
  8
図枠
  5
8BB
 10
1397.60
 20
-496.221
 30
0.000000
  70
    32
  0
VERTEX
  8
図枠
  5
8BC
 10
1397.67
 20
-496.236
 30
0.000000
  70
    32
  0
VERTEX
  8
図枠
  5
8BD
 10
1397.74
 20
-496.251
 30
0.000000
  70
    32
  0
VERTEX
  8
図枠
  5
8BE
 10
1397.81
 20
-496.267
 30
0.000000
  70
    32
  0
VERTEX
  8
図枠
  5
8BF
 10
1397.88
 20
-496.282
 30
0.000000
  70
    32
  0
VERTEX
  8
図枠
  5
8C0
 10
1397.96
 20
-496.297
 30
0.000000
  70
    32
  0
VERTEX
  8
図枠
  5
8C1
 10
1398.03
 20
-496.312
 30
0.000000
  70
    32
  0
VERTEX
  8
図枠
  5
8C2
 10
1398.10
 20
-496.327
 30
0.000000
  70
    32
  0
VERTEX
  8
図枠
  5
8C3
 10
1398.17
 20
-496.342
 30
0.000000
  70
    32
  0
VERTEX
  8
図枠
  5
8C4
 10
1398.24
 20
-496.357
 30
0.000000
  70
    32
  0
VERTEX
  8
図枠
  5
8C5
 10
1398.31
 20
-496.372
 30
0.000000
  70
    32
  0
VERTEX
  8
図枠
  5
8C6
 10
1398.38
 20
-496.386
 30
0.000000
  70
    32
  0
VERTEX
  8
図枠
  5
8C7
 10
1398.45
 20
-496.401
 30
0.000000
  70
    32
  0
VERTEX
  8
図枠
  5
8C8
 10
1398.52
 20
-496.416
 30
0.000000
  70
    32
  0
VERTEX
  8
図枠
  5
8C9
 10
1398.59
 20
-496.431
 30
0.000000
  70
    32
  0
VERTEX
  8
図枠
  5
8CA
 10
1398.66
 20
-496.446
 30
0.000000
  70
    32
  0
VERTEX
  8
図枠
  5
8CB
 10
1398.73
 20
-496.461
 30
0.000000
  70
    32
  0
VERTEX
  8
図枠
  5
8CC
 10
1398.81
 20
-496.476
 30
0.000000
  70
    32
  0
VERTEX
  8
図枠
  5
8CD
 10
1398.88
 20
-496.490
 30
0.000000
  70
    32
  0
VERTEX
  8
図枠
  5
8CE
 10
1398.95
 20
-496.505
 30
0.000000
  70
    32
  0
VERTEX
  8
図枠
  5
8CF
 10
1399.02
 20
-496.520
 30
0.000000
  70
    32
  0
VERTEX
  8
図枠
  5
8D0
 10
1399.09
 20
-496.535
 30
0.000000
  70
    32
  0
VERTEX
  8
図枠
  5
8D1
 10
1399.16
 20
-496.550
 30
0.000000
  70
    32
  0
VERTEX
  8
図枠
  5
8D2
 10
1399.23
 20
-496.564
 30
0.000000
  70
    32
  0
VERTEX
  8
図枠
  5
8D3
 10
1399.30
 20
-496.579
 30
0.000000
  70
    32
  0
VERTEX
  8
図枠
  5
8D4
 10
1399.37
 20
-496.594
 30
0.000000
  70
    32
  0
VERTEX
  8
図枠
  5
8D5
 10
1399.44
 20
-496.609
 30
0.000000
  70
    32
  0
VERTEX
  8
図枠
  5
8D6
 10
1399.51
 20
-496.623
 30
0.000000
  70
    32
  0
VERTEX
  8
図枠
  5
8D7
 10
1399.59
 20
-496.638
 30
0.000000
  70
    32
  0
VERTEX
  8
図枠
  5
8D8
 10
1399.66
 20
-496.653
 30
0.000000
  70
    32
  0
VERTEX
  8
図枠
  5
8D9
 10
1399.73
 20
-496.668
 30
0.000000
  70
    32
  0
VERTEX
  8
図枠
  5
8DA
 10
1399.80
 20
-496.682
 30
0.000000
  70
    32
  0
SEQEND
  8
図枠
  5
8DB
  0
POLYLINE
  8
図枠
  5
8DC
  66
     1
 10
0.000000
 20
0.000000
 30
0.000000
  70
     8
  0
VERTEX
  8
図枠
  5
8DD
 10
1377.30
 20
-485.793
 30
0.000000
  70
    32
  0
VERTEX
  8
図枠
  5
8DE
 10
1377.34
 20
-485.835
 30
0.000000
  70
    32
  0
VERTEX
  8
図枠
  5
8DF
 10
1377.39
 20
-485.876
 30
0.000000
  70
    32
  0
VERTEX
  8
図枠
  5
8E0
 10
1377.43
 20
-485.918
 30
0.000000
  70
    32
  0
VERTEX
  8
図枠
  5
8E1
 10
1377.48
 20
-485.959
 30
0.000000
  70
    32
  0
VERTEX
  8
図枠
  5
8E2
 10
1377.52
 20
-486.001
 30
0.000000
  70
    32
  0
VERTEX
  8
図枠
  5
8E3
 10
1377.57
 20
-486.042
 30
0.000000
  70
    32
  0
VERTEX
  8
図枠
  5
8E4
 10
1377.61
 20
-486.084
 30
0.000000
  70
    32
  0
VERTEX
  8
図枠
  5
8E5
 10
1377.66
 20
-486.125
 30
0.000000
  70
    32
  0
VERTEX
  8
図枠
  5
8E6
 10
1377.70
 20
-486.166
 30
0.000000
  70
    32
  0
VERTEX
  8
図枠
  5
8E7
 10
1377.75
 20
-486.208
 30
0.000000
  70
    32
  0
VERTEX
  8
図枠
  5
8E8
 10
1377.79
 20
-486.249
 30
0.000000
  70
    32
  0
VERTEX
  8
図枠
  5
8E9
 10
1377.84
 20
-486.291
 30
0.000000
  70
    32
  0
VERTEX
  8
図枠
  5
8EA
 10
1377.88
 20
-486.332
 30
0.000000
  70
    32
  0
VERTEX
  8
図枠
  5
8EB
 10
1377.93
 20
-486.374
 30
0.000000
  70
    32
  0
VERTEX
  8
図枠
  5
8EC
 10
1377.97
 20
-486.415
 30
0.000000
  70
    32
  0
VERTEX
  8
図枠
  5
8ED
 10
1378.02
 20
-486.457
 30
0.000000
  70
    32
  0
VERTEX
  8
図枠
  5
8EE
 10
1378.06
 20
-486.498
 30
0.000000
  70
    32
  0
VERTEX
  8
図枠
  5
8EF
 10
1378.11
 20
-486.539
 30
0.000000
  70
    32
  0
VERTEX
  8
図枠
  5
8F0
 10
1378.15
 20
-486.581
 30
0.000000
  70
    32
  0
VERTEX
  8
図枠
  5
8F1
 10
1378.20
 20
-486.622
 30
0.000000
  70
    32
  0
VERTEX
  8
図枠
  5
8F2
 10
1378.24
 20
-486.663
 30
0.000000
  70
    32
  0
VERTEX
  8
図枠
  5
8F3
 10
1378.29
 20
-486.705
 30
0.000000
  70
    32
  0
VERTEX
  8
図枠
  5
8F4
 10
1378.33
 20
-486.746
 30
0.000000
  70
    32
  0
VERTEX
  8
図枠
  5
8F5
 10
1378.38
 20
-486.787
 30
0.000000
  70
    32
  0
VERTEX
  8
図枠
  5
8F6
 10
1378.43
 20
-486.828
 30
0.000000
  70
    32
  0
VERTEX
  8
図枠
  5
8F7
 10
1378.47
 20
-486.870
 30
0.000000
  70
    32
  0
VERTEX
  8
図枠
  5
8F8
 10
1378.52
 20
-486.911
 30
0.000000
  70
    32
  0
VERTEX
  8
図枠
  5
8F9
 10
1378.56
 20
-486.952
 30
0.000000
  70
    32
  0
VERTEX
  8
図枠
  5
8FA
 10
1378.61
 20
-486.993
 30
0.000000
  70
    32
  0
VERTEX
  8
図枠
  5
8FB
 10
1378.65
 20
-487.034
 30
0.000000
  70
    32
  0
VERTEX
  8
図枠
  5
8FC
 10
1378.70
 20
-487.075
 30
0.000000
  70
    32
  0
VERTEX
  8
図枠
  5
8FD
 10
1378.74
 20
-487.117
 30
0.000000
  70
    32
  0
VERTEX
  8
図枠
  5
8FE
 10
1378.79
 20
-487.158
 30
0.000000
  70
    32
  0
VERTEX
  8
図枠
  5
8FF
 10
1378.83
 20
-487.199
 30
0.000000
  70
    32
  0
VERTEX
  8
図枠
  5
900
 10
1378.88
 20
-487.240
 30
0.000000
  70
    32
  0
VERTEX
  8
図枠
  5
901
 10
1378.92
 20
-487.281
 30
0.000000
  70
    32
  0
VERTEX
  8
図枠
  5
902
 10
1378.97
 20
-487.321
 30
0.000000
  70
    32
  0
VERTEX
  8
図枠
  5
903
 10
1379.01
 20
-487.362
 30
0.000000
  70
    32
  0
VERTEX
  8
図枠
  5
904
 10
1379.06
 20
-487.403
 30
0.000000
  70
    32
  0
VERTEX
  8
図枠
  5
905
 10
1379.10
 20
-487.444
 30
0.000000
  70
    32
  0
VERTEX
  8
図枠
  5
906
 10
1379.15
 20
-487.485
 30
0.000000
  70
    32
  0
VERTEX
  8
図枠
  5
907
 10
1379.20
 20
-487.526
 30
0.000000
  70
    32
  0
VERTEX
  8
図枠
  5
908
 10
1379.24
 20
-487.566
 30
0.000000
  70
    32
  0
VERTEX
  8
図枠
  5
909
 10
1379.29
 20
-487.607
 30
0.000000
  70
    32
  0
VERTEX
  8
図枠
  5
90A
 10
1379.33
 20
-487.648
 30
0.000000
  70
    32
  0
VERTEX
  8
図枠
  5
90B
 10
1379.38
 20
-487.688
 30
0.000000
  70
    32
  0
VERTEX
  8
図枠
  5
90C
 10
1379.42
 20
-487.729
 30
0.000000
  70
    32
  0
VERTEX
  8
図枠
  5
90D
 10
1379.47
 20
-487.769
 30
0.000000
  70
    32
  0
VERTEX
  8
図枠
  5
90E
 10
1379.51
 20
-487.810
 30
0.000000
  70
    32
  0
VERTEX
  8
図枠
  5
90F
 10
1379.56
 20
-487.850
 30
0.000000
  70
    32
  0
VERTEX
  8
図枠
  5
910
 10
1379.60
 20
-487.891
 30
0.000000
  70
    32
  0
VERTEX
  8
図枠
  5
911
 10
1379.65
 20
-487.931
 30
0.000000
  70
    32
  0
VERTEX
  8
図枠
  5
912
 10
1379.70
 20
-487.971
 30
0.000000
  70
    32
  0
VERTEX
  8
図枠
  5
913
 10
1379.74
 20
-488.012
 30
0.000000
  70
    32
  0
VERTEX
  8
図枠
  5
914
 10
1379.79
 20
-488.052
 30
0.000000
  70
    32
  0
VERTEX
  8
図枠
  5
915
 10
1379.83
 20
-488.092
 30
0.000000
  70
    32
  0
VERTEX
  8
図枠
  5
916
 10
1379.88
 20
-488.132
 30
0.000000
  70
    32
  0
VERTEX
  8
図枠
  5
917
 10
1379.92
 20
-488.172
 30
0.000000
  70
    32
  0
VERTEX
  8
図枠
  5
918
 10
1379.97
 20
-488.212
 30
0.000000
  70
    32
  0
VERTEX
  8
図枠
  5
919
 10
1380.02
 20
-488.252
 30
0.000000
  70
    32
  0
VERTEX
  8
図枠
  5
91A
 10
1380.06
 20
-488.292
 30
0.000000
  70
    32
  0
VERTEX
  8
図枠
  5
91B
 10
1380.11
 20
-488.332
 30
0.000000
  70
    32
  0
VERTEX
  8
図枠
  5
91C
 10
1380.15
 20
-488.372
 30
0.000000
  70
    32
  0
VERTEX
  8
図枠
  5
91D
 10
1380.20
 20
-488.412
 30
0.000000
  70
    32
  0
VERTEX
  8
図枠
  5
91E
 10
1380.25
 20
-488.451
 30
0.000000
  70
    32
  0
VERTEX
  8
図枠
  5
91F
 10
1380.29
 20
-488.491
 30
0.000000
  70
    32
  0
VERTEX
  8
図枠
  5
920
 10
1380.34
 20
-488.531
 30
0.000000
  70
    32
  0
VERTEX
  8
図枠
  5
921
 10
1380.38
 20
-488.570
 30
0.000000
  70
    32
  0
VERTEX
  8
図枠
  5
922
 10
1380.43
 20
-488.610
 30
0.000000
  70
    32
  0
VERTEX
  8
図枠
  5
923
 10
1380.48
 20
-488.649
 30
0.000000
  70
    32
  0
VERTEX
  8
図枠
  5
924
 10
1380.52
 20
-488.688
 30
0.000000
  70
    32
  0
VERTEX
  8
図枠
  5
925
 10
1380.57
 20
-488.728
 30
0.000000
  70
    32
  0
VERTEX
  8
図枠
  5
926
 10
1380.62
 20
-488.767
 30
0.000000
  70
    32
  0
VERTEX
  8
図枠
  5
927
 10
1380.66
 20
-488.806
 30
0.000000
  70
    32
  0
VERTEX
  8
図枠
  5
928
 10
1380.71
 20
-488.845
 30
0.000000
  70
    32
  0
VERTEX
  8
図枠
  5
929
 10
1380.75
 20
-488.884
 30
0.000000
  70
    32
  0
VERTEX
  8
図枠
  5
92A
 10
1380.80
 20
-488.923
 30
0.000000
  70
    32
  0
VERTEX
  8
図枠
  5
92B
 10
1380.85
 20
-488.962
 30
0.000000
  70
    32
  0
VERTEX
  8
図枠
  5
92C
 10
1380.89
 20
-489.001
 30
0.000000
  70
    32
  0
VERTEX
  8
図枠
  5
92D
 10
1380.94
 20
-489.040
 30
0.000000
  70
    32
  0
VERTEX
  8
図枠
  5
92E
 10
1380.99
 20
-489.079
 30
0.000000
  70
    32
  0
VERTEX
  8
図枠
  5
92F
 10
1381.03
 20
-489.117
 30
0.000000
  70
    32
  0
VERTEX
  8
図枠
  5
930
 10
1381.08
 20
-489.156
 30
0.000000
  70
    32
  0
VERTEX
  8
図枠
  5
931
 10
1381.13
 20
-489.194
 30
0.000000
  70
    32
  0
VERTEX
  8
図枠
  5
932
 10
1381.17
 20
-489.233
 30
0.000000
  70
    32
  0
VERTEX
  8
図枠
  5
933
 10
1381.22
 20
-489.271
 30
0.000000
  70
    32
  0
VERTEX
  8
図枠
  5
934
 10
1381.27
 20
-489.309
 30
0.000000
  70
    32
  0
VERTEX
  8
図枠
  5
935
 10
1381.31
 20
-489.347
 30
0.000000
  70
    32
  0
VERTEX
  8
図枠
  5
936
 10
1381.36
 20
-489.386
 30
0.000000
  70
    32
  0
VERTEX
  8
図枠
  5
937
 10
1381.41
 20
-489.424
 30
0.000000
  70
    32
  0
VERTEX
  8
図枠
  5
938
 10
1381.45
 20
-489.462
 30
0.000000
  70
    32
  0
VERTEX
  8
図枠
  5
939
 10
1381.50
 20
-489.500
 30
0.000000
  70
    32
  0
VERTEX
  8
図枠
  5
93A
 10
1381.55
 20
-489.537
 30
0.000000
  70
    32
  0
VERTEX
  8
図枠
  5
93B
 10
1381.60
 20
-489.575
 30
0.000000
  70
    32
  0
VERTEX
  8
図枠
  5
93C
 10
1381.64
 20
-489.613
 30
0.000000
  70
    32
  0
VERTEX
  8
図枠
  5
93D
 10
1381.69
 20
-489.650
 30
0.000000
  70
    32
  0
VERTEX
  8
図枠
  5
93E
 10
1381.74
 20
-489.688
 30
0.000000
  70
    32
  0
VERTEX
  8
図枠
  5
93F
 10
1381.78
 20
-489.725
 30
0.000000
  70
    32
  0
VERTEX
  8
図枠
  5
940
 10
1381.83
 20
-489.762
 30
0.000000
  70
    32
  0
VERTEX
  8
図枠
  5
941
 10
1381.88
 20
-489.800
 30
0.000000
  70
    32
  0
VERTEX
  8
図枠
  5
942
 10
1381.93
 20
-489.837
 30
0.000000
  70
    32
  0
VERTEX
  8
図枠
  5
943
 10
1381.97
 20
-489.874
 30
0.000000
  70
    32
  0
VERTEX
  8
図枠
  5
944
 10
1382.02
 20
-489.911
 30
0.000000
  70
    32
  0
VERTEX
  8
図枠
  5
945
 10
1382.07
 20
-489.948
 30
0.000000
  70
    32
  0
VERTEX
  8
図枠
  5
946
 10
1382.12
 20
-489.985
 30
0.000000
  70
    32
  0
VERTEX
  8
図枠
  5
947
 10
1382.16
 20
-490.021
 30
0.000000
  70
    32
  0
VERTEX
  8
図枠
  5
948
 10
1382.21
 20
-490.058
 30
0.000000
  70
    32
  0
VERTEX
  8
図枠
  5
949
 10
1382.26
 20
-490.094
 30
0.000000
  70
    32
  0
VERTEX
  8
図枠
  5
94A
 10
1382.31
 20
-490.131
 30
0.000000
  70
    32
  0
VERTEX
  8
図枠
  5
94B
 10
1382.35
 20
-490.167
 30
0.000000
  70
    32
  0
VERTEX
  8
図枠
  5
94C
 10
1382.40
 20
-490.203
 30
0.000000
  70
    32
  0
VERTEX
  8
図枠
  5
94D
 10
1382.45
 20
-490.239
 30
0.000000
  70
    32
  0
VERTEX
  8
図枠
  5
94E
 10
1382.50
 20
-490.276
 30
0.000000
  70
    32
  0
VERTEX
  8
図枠
  5
94F
 10
1382.55
 20
-490.311
 30
0.000000
  70
    32
  0
VERTEX
  8
図枠
  5
950
 10
1382.59
 20
-490.347
 30
0.000000
  70
    32
  0
VERTEX
  8
図枠
  5
951
 10
1382.64
 20
-490.383
 30
0.000000
  70
    32
  0
VERTEX
  8
図枠
  5
952
 10
1382.69
 20
-490.419
 30
0.000000
  70
    32
  0
VERTEX
  8
図枠
  5
953
 10
1382.74
 20
-490.454
 30
0.000000
  70
    32
  0
VERTEX
  8
図枠
  5
954
 10
1382.79
 20
-490.490
 30
0.000000
  70
    32
  0
VERTEX
  8
図枠
  5
955
 10
1382.84
 20
-490.525
 30
0.000000
  70
    32
  0
VERTEX
  8
図枠
  5
956
 10
1382.88
 20
-490.560
 30
0.000000
  70
    32
  0
VERTEX
  8
図枠
  5
957
 10
1382.93
 20
-490.595
 30
0.000000
  70
    32
  0
VERTEX
  8
図枠
  5
958
 10
1382.98
 20
-490.630
 30
0.000000
  70
    32
  0
VERTEX
  8
図枠
  5
959
 10
1383.03
 20
-490.665
 30
0.000000
  70
    32
  0
VERTEX
  8
図枠
  5
95A
 10
1383.08
 20
-490.700
 30
0.000000
  70
    32
  0
VERTEX
  8
図枠
  5
95B
 10
1383.13
 20
-490.735
 30
0.000000
  70
    32
  0
VERTEX
  8
図枠
  5
95C
 10
1383.18
 20
-490.769
 30
0.000000
  70
    32
  0
VERTEX
  8
図枠
  5
95D
 10
1383.23
 20
-490.804
 30
0.000000
  70
    32
  0
VERTEX
  8
図枠
  5
95E
 10
1383.27
 20
-490.838
 30
0.000000
  70
    32
  0
VERTEX
  8
図枠
  5
95F
 10
1383.32
 20
-490.873
 30
0.000000
  70
    32
  0
VERTEX
  8
図枠
  5
960
 10
1383.37
 20
-490.907
 30
0.000000
  70
    32
  0
VERTEX
  8
図枠
  5
961
 10
1383.42
 20
-490.941
 30
0.000000
  70
    32
  0
VERTEX
  8
図枠
  5
962
 10
1383.47
 20
-490.975
 30
0.000000
  70
    32
  0
VERTEX
  8
図枠
  5
963
 10
1383.52
 20
-491.008
 30
0.000000
  70
    32
  0
VERTEX
  8
図枠
  5
964
 10
1383.57
 20
-491.042
 30
0.000000
  70
    32
  0
VERTEX
  8
図枠
  5
965
 10
1383.62
 20
-491.076
 30
0.000000
  70
    32
  0
VERTEX
  8
図枠
  5
966
 10
1383.67
 20
-491.109
 30
0.000000
  70
    32
  0
VERTEX
  8
図枠
  5
967
 10
1383.72
 20
-491.143
 30
0.000000
  70
    32
  0
VERTEX
  8
図枠
  5
968
 10
1383.77
 20
-491.176
 30
0.000000
  70
    32
  0
VERTEX
  8
図枠
  5
969
 10
1383.82
 20
-491.209
 30
0.000000
  70
    32
  0
VERTEX
  8
図枠
  5
96A
 10
1383.87
 20
-491.242
 30
0.000000
  70
    32
  0
VERTEX
  8
図枠
  5
96B
 10
1383.92
 20
-491.275
 30
0.000000
  70
    32
  0
VERTEX
  8
図枠
  5
96C
 10
1383.96
 20
-491.307
 30
0.000000
  70
    32
  0
VERTEX
  8
図枠
  5
96D
 10
1384.01
 20
-491.340
 30
0.000000
  70
    32
  0
VERTEX
  8
図枠
  5
96E
 10
1384.06
 20
-491.373
 30
0.000000
  70
    32
  0
VERTEX
  8
図枠
  5
96F
 10
1384.11
 20
-491.405
 30
0.000000
  70
    32
  0
VERTEX
  8
図枠
  5
970
 10
1384.16
 20
-491.437
 30
0.000000
  70
    32
  0
VERTEX
  8
図枠
  5
971
 10
1384.21
 20
-491.469
 30
0.000000
  70
    32
  0
VERTEX
  8
図枠
  5
972
 10
1384.26
 20
-491.501
 30
0.000000
  70
    32
  0
VERTEX
  8
図枠
  5
973
 10
1384.32
 20
-491.533
 30
0.000000
  70
    32
  0
VERTEX
  8
図枠
  5
974
 10
1384.37
 20
-491.565
 30
0.000000
  70
    32
  0
VERTEX
  8
図枠
  5
975
 10
1384.42
 20
-491.596
 30
0.000000
  70
    32
  0
VERTEX
  8
図枠
  5
976
 10
1384.47
 20
-491.628
 30
0.000000
  70
    32
  0
VERTEX
  8
図枠
  5
977
 10
1384.52
 20
-491.659
 30
0.000000
  70
    32
  0
VERTEX
  8
図枠
  5
978
 10
1384.57
 20
-491.690
 30
0.000000
  70
    32
  0
VERTEX
  8
図枠
  5
979
 10
1384.62
 20
-491.721
 30
0.000000
  70
    32
  0
VERTEX
  8
図枠
  5
97A
 10
1384.67
 20
-491.752
 30
0.000000
  70
    32
  0
VERTEX
  8
図枠
  5
97B
 10
1384.72
 20
-491.783
 30
0.000000
  70
    32
  0
VERTEX
  8
図枠
  5
97C
 10
1384.77
 20
-491.814
 30
0.000000
  70
    32
  0
SEQEND
  8
図枠
  5
97D
  0
INSERT
  5
4B6
  8
0
  6
CONTINUOUS
  2
*U149
 10
0.0
 20
0.0
 30
0.0
  0
LINE
  5
4B7
  8
図枠
 10
1411.2097935908
 20
-430.12416652399997
 30
0.0
 11
1411.2097935908
 21
-436.12416652399997
 31
0.0
  0
LINE
  5
4B8
  8
図枠
 10
1370.6466160323
 20
-484.18248410680002
 30
0.0
 11
1370.6466160323
 21
-487.93248410680002
 31
0.0
  0
LINE
  5
4B9
  8
図枠
 10
1411.2097935908
 20
-436.12416652399997
 30
0.0
 11
1423.2097935908
 21
-439.12416652399997
 31
0.0
  0
LINE
  5
4BA
  8
図枠
 10
1377.2981311838
 20
-479.18248410680002
 30
0.0
 11
1377.2981311838
 21
-483.68248410680002
 31
0.0
  0
ARC
  5
4BB
  8
図枠
 10
1359.3966160323
 20
-489.1824841067999
 30
0.0
 40
7.5
 50
270.0
 51
0.0
  0
LINE
  5
4BC
  8
図枠
 10
1251.4949998116001
 20
-419.37416652399997
 30
0.0
 11
1251.4949998116001
 21
-501.87416652399997
 31
0.0
  0
INSERT
  5
4BD
  8
0
  6
CONTINUOUS
  2
*U150
 10
0.0
 20
0.0
 30
0.0
  0
INSERT
  5
4BE
  8
0
  6
CONTINUOUS
  2
*U151
 10
0.0
 20
0.0
 30
0.0
  0
INSERT
  5
4BF
  8
0
  6
CONTINUOUS
  2
*U152
 10
0.0
 20
0.0
 30
0.0
  0
INSERT
  5
4C0
  8
0
  6
CONTINUOUS
  2
*U153
 10
0.0
 20
0.0
 30
0.0
  0
LINE
  5
4C1
  8
図枠
 10
1345.2449998116001
 20
-446.87416652399997
 30
0.0
 11
1345.2449998116001
 21
-474.37416652399997
 31
0.0
  0
LINE
  5
4C2
  8
図枠
 10
1251.4949998116001
 20
-474.37416652399997
 30
0.0
 11
1613.9949998116001
 21
-474.37416652399997
 31
0.0
  0
LINE
  5
4C3
  8
図枠
 10
1257.7449998116001
 20
-460.62416652399997
 30
0.0
 11
1338.9949998116001
 21
-460.62416652399997
 31
0.0
  0
LINE
  5
4C4
  8
図枠
 10
1351.4949998116001
 20
-460.62416652399997
 30
0.0
 11
1432.7449998116001
 21
-460.62416652399997
 31
0.0
  0
INSERT
  5
4C5
  8
0
  6
CONTINUOUS
  2
*U154
 10
0.0
 20
0.0
 30
0.0
  0
INSERT
  5
4C6
  8
0
  6
CONTINUOUS
  2
*U155
 10
0.0
 20
0.0
 30
0.0
  0
LINE
  5
4C7
  8
図枠
 10
1273.9949998116001
 20
-406.87416652399997
 30
0.0
 11
1273.9949998116001
 21
-394.37416652400009
 31
0.0
  0
LINE
  5
4C8
  8
図枠
 10
1251.4949998116001
 20
-406.87416652399997
 30
0.0
 11
1251.4949998116001
 21
-394.37416652400009
 31
0.0
  0
LINE
  5
4C9
  8
図枠
 10
1536.4949998116001
 20
-406.87416652399997
 30
0.0
 11
1536.4949998116001
 21
-394.37416652400009
 31
0.0
  0
LINE
  5
4CA
  8
図枠
 10
1513.9949998116001
 20
-406.87416652399997
 30
0.0
 11
1513.9949998116001
 21
-394.37416652400009
 31
0.0
  0
LINE
  5
4CB
  8
図枠
 10
1613.9949998116001
 20
-394.37416652400009
 30
0.0
 11
1251.4949998116001
 21
-394.37416652400009
 31
0.0
  0
LINE
  5
4CC
  8
図枠
 10
1251.4949998116001
 20
-406.87416652399997
 30
0.0
 11
1613.9949998116001
 21
-406.87416652399997
 31
0.0
  0
LINE
  5
4CD
  8
図枠
 10
1398.9949998116001
 20
-406.87416652399997
 30
0.0
 11
1398.9949998116001
 21
-394.37416652400009
 31
0.0
  0
INSERT
  5
4CE
  8
0
  6
CONTINUOUS
  2
*U156
 10
0.0
 20
0.0
 30
0.0
  0
INSERT
  5
4CF
  8
0
  6
CONTINUOUS
  2
*U157
 10
0.0
 20
0.0
 30
0.0
  0
CIRCLE
  5
4D0
  8
図枠
 10
1397.4949998116001
 20
-433.12416652399997
 30
0.0
 40
3.0
  0
LINE
  5
4D1
  8
図枠
 10
1411.2097935908
 20
-436.12416652399997
 30
0.0
 11
1423.2097935908
 21
-439.12416652399997
 31
0.0
  0
LINE
  5
4D2
  8
図枠
 10
1411.2097935908
 20
-430.12416652399997
 30
0.0
 11
1411.2097935908
 21
-436.12416652399997
 31
0.0
  0
LINE
  5
4D3
  8
図枠
 10
1423.2097935908
 20
-427.12416652399997
 30
0.0
 11
1423.2097935908
 21
-439.12416652399997
 31
0.0
  0
LINE
  5
4D4
  8
図枠
  6
BORDER
 10
1397.4949998116001
 20
-424.12416652399997
 30
0.0
 11
1397.4949998116001
 21
-442.12416652399997
 31
0.0
  0
LINE
  5
4D5
  8
図枠
  6
BORDER
 10
1397.4949998116001
 20
-424.12416652399997
 30
0.0
 11
1397.4949998116001
 21
-442.12416652399997
 31
0.0
  0
LINE
  5
4D6
  8
図枠
 10
1423.2097935908
 20
-427.12416652399997
 30
0.0
 11
1423.2097935908
 21
-439.12416652399997
 31
0.0
  0
LINE
  5
4D7
  8
図枠
 10
1411.2097935908
 20
-430.12416652399997
 30
0.0
 11
1411.2097935908
 21
-436.12416652399997
 31
0.0
  0
LINE
  5
4D8
  8
図枠
 10
1411.2097935908
 20
-436.12416652399997
 30
0.0
 11
1423.2097935908
 21
-439.12416652399997
 31
0.0
  0
LINE
  5
4D9
  8
図枠
 10
1411.2097935908
 20
-430.12416652399997
 30
0.0
 11
1423.2097935908
 21
-427.12416652399997
 31
0.0
  0
CIRCLE
  5
4DA
  8
図枠
 10
1397.4949998116001
 20
-433.12416652399997
 30
0.0
 40
6.0
  0
CIRCLE
  5
4DB
  8
図枠
 10
1397.4949998116001
 20
-433.12416652399997
 30
0.0
 40
3.0
  0
CIRCLE
  5
4DC
  8
図枠
 10
1397.4949998116001
 20
-433.12416652399997
 30
0.0
 40
6.0
  0
LINE
  5
4DD
  8
図枠
 10
1411.2097935908
 20
-430.12416652399997
 30
0.0
 11
1423.2097935908
 21
-427.12416652399997
 31
0.0
  0
ENDBLK
  5
4DE
  8
0
  0
BLOCK
  8
0
  2
CLUMP37
 70
     0
 10
0.0
 20
0.0
 30
0.0
  3
CLUMP37
  1

  0
ARC
  5
4FF
  8
ﾚｲﾔ_1
 62
     5
 10
1154.1051432291999
 20
44.798533299299997
 30
0.0
 40
3.5
 50
270.0
 51
90.0
  0
LINE
  5
500
  8
ﾚｲﾔ_1
 62
     5
 10
1139.1051432291999
 20
41.29853329929999
 30
0.0
 11
1154.1051432291999
 21
41.29853329929999
 31
0.0
  0
LINE
  5
501
  8
ﾚｲﾔ_1
 62
     5
 10
1154.1051432291999
 20
48.298533299299997
 30
0.0
 11
1139.1051432291999
 21
48.298533299299997
 31
0.0
  0
ARC
  5
502
  8
ﾚｲﾔ_1
 62
     5
 10
1139.1051432291999
 20
44.798533299299997
 30
0.0
 40
3.5
 50
90.0
 51
270.0
  0
ENDBLK
  5
503
  8
0
  0
BLOCK
  8
0
  2
CLUMP38
 70
     0
 10
0.0
 20
0.0
 30
0.0
  3
CLUMP38
  1

  0
ARC
  5
507
  8
ﾚｲﾔ_1
 62
     5
 10
1229.1051432291999
 20
44.798533299299997
 30
0.0
 40
3.5
 50
270.0
 51
90.0
  0
LINE
  5
508
  8
ﾚｲﾔ_1
 62
     5
 10
1214.1051432291999
 20
41.29853329929999
 30
0.0
 11
1229.1051432291999
 21
41.29853329929999
 31
0.0
  0
LINE
  5
509
  8
ﾚｲﾔ_1
 62
     5
 10
1229.1051432291999
 20
48.298533299299997
 30
0.0
 11
1214.1051432291999
 21
48.298533299299997
 31
0.0
  0
ARC
  5
50A
  8
ﾚｲﾔ_1
 62
     5
 10
1214.1051432291999
 20
44.798533299299997
 30
0.0
 40
3.5
 50
90.0
 51
270.0
  0
ENDBLK
  5
50B
  8
0
  0
BLOCK
  8
0
  2
CLUMP39
 70
     0
 10
0.0
 20
0.0
 30
0.0
  3
CLUMP39
  1

  0
ARC
  5
51E
  8
ﾚｲﾔ_1
 62
     5
 10
779.10514322919994
 20
44.798533299299997
 30
0.0
 40
3.5
 50
270.0
 51
90.0
  0
LINE
  5
51F
  8
ﾚｲﾔ_1
 62
     5
 10
764.10514322919994
 20
41.29853329929999
 30
0.0
 11
779.10514322919994
 21
41.29853329929999
 31
0.0
  0
LINE
  5
520
  8
ﾚｲﾔ_1
 62
     5
 10
779.10514322919994
 20
48.298533299299997
 30
0.0
 11
764.10514322919994
 21
48.298533299299997
 31
0.0
  0
ARC
  5
521
  8
ﾚｲﾔ_1
 62
     5
 10
764.10514322919994
 20
44.798533299299997
 30
0.0
 40
3.5
 50
90.0
 51
270.0
  0
ENDBLK
  5
522
  8
0
  0
BLOCK
  8
0
  2
CLUMP40
 70
     0
 10
0.0
 20
0.0
 30
0.0
  3
CLUMP40
  1

  0
ARC
  5
527
  8
ﾚｲﾔ_1
 62
     5
 10
854.10514322919994
 20
44.798533299299997
 30
0.0
 40
3.5
 50
270.0
 51
90.0
  0
LINE
  5
528
  8
ﾚｲﾔ_1
 62
     5
 10
839.10514322919983
 20
41.29853329929999
 30
0.0
 11
854.10514322919994
 21
41.29853329929999
 31
0.0
  0
LINE
  5
529
  8
ﾚｲﾔ_1
 62
     5
 10
854.10514322919994
 20
48.298533299299997
 30
0.0
 11
839.10514322919983
 21
48.298533299299997
 31
0.0
  0
ARC
  5
52A
  8
ﾚｲﾔ_1
 62
     5
 10
839.10514322919983
 20
44.798533299299997
 30
0.0
 40
3.5
 50
90.0
 51
270.0
  0
ENDBLK
  5
52B
  8
0
  0
BLOCK
  8
0
  2
CLUMP41
 70
     0
 10
0.0
 20
0.0
 30
0.0
  3
CLUMP41
  1

  0
ARC
  5
530
  8
ﾚｲﾔ_1
 62
     5
 10
1004.1051432292001
 20
44.798533299299997
 30
0.0
 40
3.5
 50
270.0
 51
90.0
  0
LINE
  5
531
  8
ﾚｲﾔ_1
 62
     5
 10
989.10514322920005
 20
41.29853329929999
 30
0.0
 11
1004.1051432292001
 21
41.29853329929999
 31
0.0
  0
LINE
  5
532
  8
ﾚｲﾔ_1
 62
     5
 10
1004.1051432292001
 20
48.298533299299997
 30
0.0
 11
989.10514322920005
 21
48.298533299299997
 31
0.0
  0
ARC
  5
533
  8
ﾚｲﾔ_1
 62
     5
 10
989.10514322920005
 20
44.798533299299997
 30
0.0
 40
3.5
 50
90.0
 51
270.0
  0
ENDBLK
  5
534
  8
0
  0
BLOCK
  8
0
  2
CLUMP42
 70
     0
 10
0.0
 20
0.0
 30
0.0
  3
CLUMP42
  1

  0
ARC
  5
538
  8
ﾚｲﾔ_1
 62
     5
 10
929.10514322919994
 20
44.798533299299997
 30
0.0
 40
3.5
 50
270.0
 51
90.0
  0
LINE
  5
539
  8
ﾚｲﾔ_1
 62
     5
 10
914.10514322920005
 20
41.29853329929999
 30
0.0
 11
929.10514322919994
 21
41.29853329929999
 31
0.0
  0
LINE
  5
53A
  8
ﾚｲﾔ_1
 62
     5
 10
929.10514322919994
 20
48.298533299299997
 30
0.0
 11
914.10514322920005
 21
48.298533299299997
 31
0.0
  0
ARC
  5
53B
  8
ﾚｲﾔ_1
 62
     5
 10
914.10514322920005
 20
44.798533299299997
 30
0.0
 40
3.5
 50
90.0
 51
270.0
  0
ENDBLK
  5
53C
  8
0
  0
BLOCK
  8
0
  2
CLUMP43
 70
     0
 10
0.0
 20
0.0
 30
0.0
  3
CLUMP43
  1

  0
ARC
  5
540
  8
ﾚｲﾔ_1
 62
     5
 10
1079.1051432291999
 20
44.798533299299997
 30
0.0
 40
3.5
 50
270.0
 51
90.0
  0
LINE
  5
541
  8
ﾚｲﾔ_1
 62
     5
 10
1064.1051432291999
 20
41.29853329929999
 30
0.0
 11
1079.1051432291999
 21
41.29853329929999
 31
0.0
  0
LINE
  5
542
  8
ﾚｲﾔ_1
 62
     5
 10
1079.1051432291999
 20
48.298533299299997
 30
0.0
 11
1064.1051432291999
 21
48.298533299299997
 31
0.0
  0
ARC
  5
543
  8
ﾚｲﾔ_1
 62
     5
 10
1064.1051432291999
 20
44.798533299299997
 30
0.0
 40
3.5
 50
90.0
 51
270.0
  0
ENDBLK
  5
544
  8
0
  0
BLOCK
  8
0
  2
CLUMP44
 70
     0
 10
0.0
 20
0.0
 30
0.0
  3
CLUMP44
  1

  0
ARC
  5
550
  8
ﾚｲﾔ_1
 62
     5
 10
1366.4824247542999
 20
6.7985332992999989
 30
0.0
 40
1.5
 50
180.0
 51
270.0
  0
LINE
  5
551
  8
ﾚｲﾔ_1
 62
     5
 10
1364.9824247542999
 20
82.798533299300004
 30
0.0
 11
1364.9824247542999
 21
6.7985332992999989
 31
0.0
  0
ARC
  5
552
  8
ﾚｲﾔ_1
 62
     5
 10
1366.4824247542999
 20
82.798533299300004
 30
0.0
 40
1.5
 50
90.0
 51
180.0
  0
LINE
  5
553
  8
ﾚｲﾔ_1
 62
     5
 10
1366.4824247542999
 20
82.798533299300004
 30
0.0
 11
1366.4824247542999
 21
6.7985332992999989
 31
0.0
  0
LINE
  5
554
  8
ﾚｲﾔ_1
 62
     5
 10
1366.4824247542999
 20
84.298533299300004
 30
0.0
 11
1378.9824247542999
 21
84.298533299300004
 31
0.0
  0
LINE
  5
555
  8
ﾚｲﾔ_1
 62
     5
 10
1366.4824247542999
 20
82.798533299300004
 30
0.0
 11
1378.9824247542999
 21
82.798533299300004
 31
0.0
  0
LINE
  5
556
  8
ﾚｲﾔ_1
 62
     5
 10
1366.4824247542999
 20
5.2985332992999989
 30
0.0
 11
1378.9824247542999
 21
5.2985332992999989
 31
0.0
  0
LINE
  5
557
  8
ﾚｲﾔ_1
 62
     5
 10
1366.4824247542999
 20
6.7985332992999989
 30
0.0
 11
1378.9824247542999
 21
6.7985332992999989
 31
0.0
  0
LINE
  5
558
  8
ﾚｲﾔ_1
 62
     5
 10
1378.9824247542999
 20
5.2985332992999989
 30
0.0
 11
1378.9824247542999
 21
84.298533299300004
 31
0.0
  0
ENDBLK
  5
559
  8
0
  0
BLOCK
  8
0
  2
CLUMP45
 70
     0
 10
0.0
 20
0.0
 30
0.0
  3
CLUMP45
  1

  0
LINE
  5
55D
  8
ﾚｲﾔ_1
 62
     5
 10
1368.4824247542999
 20
86.398533299299999
 30
0.0
 11
1368.4824247542999
 21
85.598533299300001
 31
0.0
  0
LINE
  5
55E
  8
ﾚｲﾔ_1
 62
     5
 10
1368.4824247542999
 20
86.398533299299999
 30
0.0
 11
1393.1824247543
 21
86.398533299299999
 31
0.0
  0
LINE
  5
55F
  8
ﾚｲﾔ_1
 62
     5
 10
1393.1824247543
 20
92.998533299299993
 30
0.0
 11
1393.1824247543
 21
79.098533299300001
 31
0.0
  0
LINE
  5
560
  8
ﾚｲﾔ_1
 62
     5
 10
1393.1824247543
 20
79.098533299300001
 30
0.0
 11
1379.7824247543001
 21
79.098533299300001
 31
0.0
  0
LINE
  5
561
  8
ﾚｲﾔ_1
 62
     5
 10
1378.9824247542999
 20
85.598533299300001
 30
0.0
 11
1393.1824247543
 21
85.598533299300001
 31
0.0
  0
LINE
  5
562
  8
ﾚｲﾔ_1
 62
     5
 10
1369.9824247542999
 20
92.998533299299993
 30
0.0
 11
1369.9824247542999
 21
86.398533299299999
 31
0.0
  0
ARC
  5
563
  8
ﾚｲﾔ_1
 62
     5
 10
1364.7824247543001
 20
85.598533299300001
 30
0.0
 40
0.8
 50
180.0
 51
270.0
  0
LINE
  5
564
  8
ﾚｲﾔ_1
 62
     5
 10
1363.9824247542999
 20
92.998533299299993
 30
0.0
 11
1363.9824247542999
 21
85.598533299300001
 31
0.0
  0
LINE
  5
565
  8
ﾚｲﾔ_1
 62
     5
 10
1364.7824247543001
 20
84.798533299300004
 30
0.0
 11
1378.9824247542999
 21
84.798533299300004
 31
0.0
  0
ARC
  5
566
  8
ﾚｲﾔ_1
 62
     5
 10
1378.9824247542999
 20
84.798533299300004
 30
0.0
 40
0.8
 50
0.0
 51
90.0
  0
LINE
  5
567
  8
ﾚｲﾔ_1
 62
     5
 10
1378.9824247542999
 20
85.598533299300001
 30
0.0
 11
1364.7824247543001
 21
85.598533299300001
 31
0.0
  0
LINE
  5
568
  8
ﾚｲﾔ_1
 62
     5
 10
1379.7824247543001
 20
79.098533299300001
 30
0.0
 11
1379.7824247543001
 21
84.798533299300004
 31
0.0
  0
ARC
  5
569
  8
ﾚｲﾔ_1
 62
     5
 10
1379.7824247543001
 20
79.098533299300001
 30
0.0
 40
0.8
 50
180.0
 51
270.0
  0
LINE
  5
56A
  8
ﾚｲﾔ_1
 62
     5
 10
1378.9824247542999
 20
84.798533299300004
 30
0.0
 11
1378.9824247542999
 21
79.098533299300001
 31
0.0
  0
LINE
  5
56B
  8
ﾚｲﾔ_1
 62
     5
 10
1379.7824247543001
 20
78.298533299300004
 30
0.0
 11
1393.1824247543
 21
78.298533299300004
 31
0.0
  0
ARC
  5
56C
  8
ﾚｲﾔ_1
 62
     5
 10
1393.1824247543
 20
79.098533299300001
 30
0.0
 40
0.8
 50
270.0
 51
0.0
  0
LINE
  5
56D
  8
ﾚｲﾔ_1
 62
     5
 10
1393.9824247542999
 20
79.098533299300001
 30
0.0
 11
1393.9824247542999
 21
92.998533299299993
 31
0.0
  0
ARC
  5
56E
  8
ﾚｲﾔ_1
 62
     5
 10
1393.1824247543
 20
92.998533299299993
 30
0.0
 40
0.8
 50
0.0
 51
90.0
  0
LINE
  5
56F
  8
ﾚｲﾔ_1
 62
     5
 10
1393.1824247543
 20
93.798533299300004
 30
0.0
 11
1387.9824247542999
 21
93.798533299300004
 31
0.0
  0
ARC
  5
570
  8
ﾚｲﾔ_1
 62
     5
 10
1364.7824247543001
 20
92.998533299299993
 30
0.0
 40
0.8
 50
90.0
 51
180.0
  0
LINE
  5
571
  8
ﾚｲﾔ_1
 62
     5
 10
1369.9824247542999
 20
93.798533299300004
 30
0.0
 11
1364.7824247543001
 21
93.798533299300004
 31
0.0
  0
LINE
  5
572
  8
ﾚｲﾔ_1
 62
     5
 10
1369.9824247542999
 20
92.998533299299993
 30
0.0
 11
1369.9824247542999
 21
93.798533299300004
 31
0.0
  0
LINE
  5
573
  8
ﾚｲﾔ_1
 62
     5
 10
1364.7824247543001
 20
92.998533299299993
 30
0.0
 11
1369.9824247542999
 21
92.998533299299993
 31
0.0
  0
LINE
  5
574
  8
ﾚｲﾔ_1
 62
     5
 10
1364.7824247543001
 20
85.598533299300001
 30
0.0
 11
1364.7824247543001
 21
92.998533299299993
 31
0.0
  0
LINE
  5
575
  8
ﾚｲﾔ_1
 62
     5
 10
1387.9824247542999
 20
93.798533299300004
 30
0.0
 11
1387.9824247542999
 21
92.998533299299993
 31
0.0
  0
LINE
  5
576
  8
ﾚｲﾔ_1
 62
     5
 10
1387.9824247542999
 20
92.998533299299993
 30
0.0
 11
1393.1824247543
 21
92.998533299299993
 31
0.0
  0
ENDBLK
  5
577
  8
0
  0
BLOCK
  8
0
  2
CLUMP46
 70
     0
 10
0.0
 20
0.0
 30
0.0
  3
CLUMP46
  1

  0
LINE
  5
57B
  8
ﾚｲﾔ_1
 62
     5
 10
1368.4824247542999
 20
3.1985332993000002
 30
0.0
 11
1368.4824247542999
 21
3.9985332993
 31
0.0
  0
LINE
  5
57C
  8
ﾚｲﾔ_1
 62
     5
 10
1368.4824247542999
 20
3.1985332993000002
 30
0.0
 11
1393.1824247543
 21
3.1985332993000002
 31
0.0
  0
LINE
  5
57D
  8
ﾚｲﾔ_1
 62
     5
 10
1393.1824247543
 20
-3.401466700699999
 30
0.0
 11
1393.1824247543
 21
10.4985332993
 31
0.0
  0
LINE
  5
57E
  8
ﾚｲﾔ_1
 62
     5
 10
1393.1824247543
 20
10.4985332993
 30
0.0
 11
1379.7824247543001
 21
10.4985332993
 31
0.0
  0
LINE
  5
57F
  8
ﾚｲﾔ_1
 62
     5
 10
1378.9824247542999
 20
3.9985332993
 30
0.0
 11
1393.1824247543
 21
3.9985332993
 31
0.0
  0
LINE
  5
580
  8
ﾚｲﾔ_1
 62
     5
 10
1369.9824247542999
 20
-3.401466700699999
 30
0.0
 11
1369.9824247542999
 21
3.1985332993000002
 31
0.0
  0
ARC
  5
581
  8
ﾚｲﾔ_1
 62
     5
 10
1364.7824247543001
 20
3.9985332993
 30
0.0
 40
0.8
 50
90.0
 51
180.0
  0
LINE
  5
582
  8
ﾚｲﾔ_1
 62
     5
 10
1363.9824247542999
 20
-3.401466700699999
 30
0.0
 11
1363.9824247542999
 21
3.9985332993
 31
0.0
  0
LINE
  5
583
  8
ﾚｲﾔ_1
 62
     5
 10
1364.7824247543001
 20
4.7985332992999989
 30
0.0
 11
1378.9824247542999
 21
4.7985332992999989
 31
0.0
  0
ARC
  5
584
  8
ﾚｲﾔ_1
 62
     5
 10
1378.9824247542999
 20
4.7985332992999989
 30
0.0
 40
0.8
 50
270.0
 51
0.0
  0
LINE
  5
585
  8
ﾚｲﾔ_1
 62
     5
 10
1378.9824247542999
 20
3.9985332993
 30
0.0
 11
1364.7824247543001
 21
3.9985332993
 31
0.0
  0
LINE
  5
586
  8
ﾚｲﾔ_1
 62
     5
 10
1379.7824247543001
 20
10.4985332993
 30
0.0
 11
1379.7824247543001
 21
4.7985332992999989
 31
0.0
  0
ARC
  5
587
  8
ﾚｲﾔ_1
 62
     5
 10
1379.7824247543001
 20
10.4985332993
 30
0.0
 40
0.8
 50
90.0
 51
180.0
  0
LINE
  5
588
  8
ﾚｲﾔ_1
 62
     5
 10
1378.9824247542999
 20
4.7985332992999989
 30
0.0
 11
1378.9824247542999
 21
10.4985332993
 31
0.0
  0
LINE
  5
589
  8
ﾚｲﾔ_1
 62
     5
 10
1379.7824247543001
 20
11.298533299300001
 30
0.0
 11
1393.1824247543
 21
11.298533299300001
 31
0.0
  0
ARC
  5
58A
  8
ﾚｲﾔ_1
 62
     5
 10
1393.1824247543
 20
10.4985332993
 30
0.0
 40
0.8
 50
0.0
 51
90.0
  0
LINE
  5
58B
  8
ﾚｲﾔ_1
 62
     5
 10
1393.9824247542999
 20
10.4985332993
 30
0.0
 11
1393.9824247542999
 21
-3.401466700699999
 31
0.0
  0
ARC
  5
58C
  8
ﾚｲﾔ_1
 62
     5
 10
1393.1824247543
 20
-3.401466700699999
 30
0.0
 40
0.8
 50
270.0
 51
0.0
  0
LINE
  5
58D
  8
ﾚｲﾔ_1
 62
     5
 10
1393.1824247543
 20
-4.2014667007000002
 30
0.0
 11
1387.9824247542999
 21
-4.2014667007000002
 31
0.0
  0
ARC
  5
58E
  8
ﾚｲﾔ_1
 62
     5
 10
1364.7824247543001
 20
-3.401466700699999
 30
0.0
 40
0.8
 50
180.0
 51
270.0
  0
LINE
  5
58F
  8
ﾚｲﾔ_1
 62
     5
 10
1369.9824247542999
 20
-4.2014667007000002
 30
0.0
 11
1364.7824247543001
 21
-4.2014667007000002
 31
0.0
  0
LINE
  5
590
  8
ﾚｲﾔ_1
 62
     5
 10
1369.9824247542999
 20
-3.401466700699999
 30
0.0
 11
1369.9824247542999
 21
-4.2014667007000002
 31
0.0
  0
LINE
  5
591
  8
ﾚｲﾔ_1
 62
     5
 10
1364.7824247543001
 20
-3.401466700699999
 30
0.0
 11
1369.9824247542999
 21
-3.401466700699999
 31
0.0
  0
LINE
  5
592
  8
ﾚｲﾔ_1
 62
     5
 10
1364.7824247543001
 20
3.9985332993
 30
0.0
 11
1364.7824247543001
 21
-3.401466700699999
 31
0.0
  0
LINE
  5
593
  8
ﾚｲﾔ_1
 62
     5
 10
1387.9824247542999
 20
-4.2014667007000002
 30
0.0
 11
1387.9824247542999
 21
-3.401466700699999
 31
0.0
  0
LINE
  5
594
  8
ﾚｲﾔ_1
 62
     5
 10
1387.9824247542999
 20
-3.401466700699999
 30
0.0
 11
1393.1824247543
 21
-3.401466700699999
 31
0.0
  0
ENDBLK
  5
595
  8
0
  0
BLOCK
  8
0
  2
CLUMP47
 70
     0
 10
0.0
 20
0.0
 30
0.0
  3
CLUMP47
  1

  0
INSERT
  5
59B
  8
ﾚｲﾔ_1
  2
CLUMP48
 10
0.0
 20
0.0
 30
0.0
  0
INSERT
  5
5A3
  8
ﾚｲﾔ_1
  2
CLUMP49
 10
0.0
 20
0.0
 30
0.0
  0
ENDBLK
  5
5AA
  8
0
  0
BLOCK
  8
0
  2
CLUMP48
 70
     0
 10
0.0
 20
0.0
 30
0.0
  3
CLUMP48
  1

  0
ARC
  5
59D
  8
ﾚｲﾔ_1
 62
     5
 10
741.60514322919994
 20
69.798533299300004
 30
0.0
 40
3.5
 50
270.0
 51
90.0
  0
LINE
  5
59E
  8
ﾚｲﾔ_1
 62
     5
 10
726.60514322919994
 20
66.298533299300004
 30
0.0
 11
741.60514322919994
 21
66.298533299300004
 31
0.0
  0
LINE
  5
59F
  8
ﾚｲﾔ_1
 62
     5
 10
741.60514322919994
 20
73.298533299300004
 30
0.0
 11
726.60514322919994
 21
73.298533299300004
 31
0.0
  0
ARC
  5
5A0
  8
ﾚｲﾔ_1
 62
     5
 10
726.60514322919994
 20
69.798533299300004
 30
0.0
 40
3.5
 50
90.0
 51
270.0
  0
ENDBLK
  5
5A1
  8
0
  0
BLOCK
  8
0
  2
CLUMP49
 70
     0
 10
0.0
 20
0.0
 30
0.0
  3
CLUMP49
  1

  0
ARC
  5
5A5
  8
ﾚｲﾔ_1
 62
     5
 10
741.60514322919994
 20
19.798533299300001
 30
0.0
 40
3.5
 50
270.0
 51
90.0
  0
LINE
  5
5A6
  8
ﾚｲﾔ_1
 62
     5
 10
726.60514322919994
 20
23.298533299300001
 30
0.0
 11
741.60514322919994
 21
23.298533299300001
 31
0.0
  0
LINE
  5
5A7
  8
ﾚｲﾔ_1
 62
     5
 10
741.60514322919994
 20
16.298533299300001
 30
0.0
 11
726.60514322919994
 21
16.298533299300001
 31
0.0
  0
ARC
  5
5A8
  8
ﾚｲﾔ_1
 62
     5
 10
726.60514322919994
 20
19.798533299300001
 30
0.0
 40
3.5
 50
90.0
 51
270.0
  0
ENDBLK
  5
5A9
  8
0
  0
BLOCK
  8
0
  2
CLUMP50
 70
     0
 10
0.0
 20
0.0
 30
0.0
  3
CLUMP50
  1

  0
INSERT
  5
5AF
  8
ﾚｲﾔ_1
  2
CLUMP51
 10
0.0
 20
0.0
 30
0.0
  0
INSERT
  5
5B7
  8
ﾚｲﾔ_1
  2
CLUMP52
 10
0.0
 20
0.0
 30
0.0
  0
ENDBLK
  5
5BE
  8
0
  0
BLOCK
  8
0
  2
CLUMP51
 70
     0
 10
0.0
 20
0.0
 30
0.0
  3
CLUMP51
  1

  0
ARC
  5
5B1
  8
ﾚｲﾔ_1
 62
     5
 10
816.60514322919994
 20
69.798533299300004
 30
0.0
 40
3.5
 50
270.0
 51
90.0
  0
LINE
  5
5B2
  8
ﾚｲﾔ_1
 62
     5
 10
801.60514322919983
 20
66.298533299300004
 30
0.0
 11
816.60514322919994
 21
66.298533299300004
 31
0.0
  0
LINE
  5
5B3
  8
ﾚｲﾔ_1
 62
     5
 10
816.60514322919994
 20
73.298533299300004
 30
0.0
 11
801.60514322919983
 21
73.298533299300004
 31
0.0
  0
ARC
  5
5B4
  8
ﾚｲﾔ_1
 62
     5
 10
801.60514322919983
 20
69.798533299300004
 30
0.0
 40
3.5
 50
90.0
 51
270.0
  0
ENDBLK
  5
5B5
  8
0
  0
BLOCK
  8
0
  2
CLUMP52
 70
     0
 10
0.0
 20
0.0
 30
0.0
  3
CLUMP52
  1

  0
ARC
  5
5B9
  8
ﾚｲﾔ_1
 62
     5
 10
816.60514322919994
 20
19.798533299300001
 30
0.0
 40
3.5
 50
270.0
 51
90.0
  0
LINE
  5
5BA
  8
ﾚｲﾔ_1
 62
     5
 10
801.60514322919983
 20
23.298533299300001
 30
0.0
 11
816.60514322919994
 21
23.298533299300001
 31
0.0
  0
LINE
  5
5BB
  8
ﾚｲﾔ_1
 62
     5
 10
816.60514322919994
 20
16.298533299300001
 30
0.0
 11
801.60514322919983
 21
16.298533299300001
 31
0.0
  0
ARC
  5
5BC
  8
ﾚｲﾔ_1
 62
     5
 10
801.60514322919983
 20
19.798533299300001
 30
0.0
 40
3.5
 50
90.0
 51
270.0
  0
ENDBLK
  5
5BD
  8
0
  0
BLOCK
  8
0
  2
CLUMP53
 70
     0
 10
0.0
 20
0.0
 30
0.0
  3
CLUMP53
  1

  0
INSERT
  5
5C6
  8
ﾚｲﾔ_1
  2
CLUMP54
 10
0.0
 20
0.0
 30
0.0
  0
INSERT
  5
5CE
  8
ﾚｲﾔ_1
  2
CLUMP55
 10
0.0
 20
0.0
 30
0.0
  0
ENDBLK
  5
5D5
  8
0
  0
BLOCK
  8
0
  2
CLUMP54
 70
     0
 10
0.0
 20
0.0
 30
0.0
  3
CLUMP54
  1

  0
ARC
  5
5C8
  8
ﾚｲﾔ_1
 62
     5
 10
966.60514322919994
 20
69.798533299300004
 30
0.0
 40
3.5
 50
270.0
 51
90.0
  0
LINE
  5
5C9
  8
ﾚｲﾔ_1
 62
     5
 10
951.60514322920005
 20
66.298533299300004
 30
0.0
 11
966.60514322919994
 21
66.298533299300004
 31
0.0
  0
LINE
  5
5CA
  8
ﾚｲﾔ_1
 62
     5
 10
966.60514322919994
 20
73.298533299300004
 30
0.0
 11
951.60514322920005
 21
73.298533299300004
 31
0.0
  0
ARC
  5
5CB
  8
ﾚｲﾔ_1
 62
     5
 10
951.60514322920005
 20
69.798533299300004
 30
0.0
 40
3.5
 50
90.0
 51
270.0
  0
ENDBLK
  5
5CC
  8
0
  0
BLOCK
  8
0
  2
CLUMP55
 70
     0
 10
0.0
 20
0.0
 30
0.0
  3
CLUMP55
  1

  0
ARC
  5
5D0
  8
ﾚｲﾔ_1
 62
     5
 10
966.60514322919994
 20
19.798533299300001
 30
0.0
 40
3.5
 50
270.0
 51
90.0
  0
LINE
  5
5D1
  8
ﾚｲﾔ_1
 62
     5
 10
951.60514322920005
 20
23.298533299300001
 30
0.0
 11
966.60514322919994
 21
23.298533299300001
 31
0.0
  0
LINE
  5
5D2
  8
ﾚｲﾔ_1
 62
     5
 10
966.60514322919994
 20
16.298533299300001
 30
0.0
 11
951.60514322920005
 21
16.298533299300001
 31
0.0
  0
ARC
  5
5D3
  8
ﾚｲﾔ_1
 62
     5
 10
951.60514322920005
 20
19.798533299300001
 30
0.0
 40
3.5
 50
90.0
 51
270.0
  0
ENDBLK
  5
5D4
  8
0
  0
BLOCK
  8
0
  2
CLUMP56
 70
     0
 10
0.0
 20
0.0
 30
0.0
  3
CLUMP56
  1

  0
INSERT
  5
5DA
  8
ﾚｲﾔ_1
  2
CLUMP57
 10
0.0
 20
0.0
 30
0.0
  0
INSERT
  5
5E2
  8
ﾚｲﾔ_1
  2
CLUMP58
 10
0.0
 20
0.0
 30
0.0
  0
ENDBLK
  5
5E9
  8
0
  0
BLOCK
  8
0
  2
CLUMP57
 70
     0
 10
0.0
 20
0.0
 30
0.0
  3
CLUMP57
  1

  0
ARC
  5
5DC
  8
ﾚｲﾔ_1
 62
     5
 10
891.60514322919994
 20
69.798533299300004
 30
0.0
 40
3.5
 50
270.0
 51
90.0
  0
LINE
  5
5DD
  8
ﾚｲﾔ_1
 62
     5
 10
876.60514322920005
 20
66.298533299300004
 30
0.0
 11
891.60514322919994
 21
66.298533299300004
 31
0.0
  0
LINE
  5
5DE
  8
ﾚｲﾔ_1
 62
     5
 10
891.60514322919994
 20
73.298533299300004
 30
0.0
 11
876.60514322920005
 21
73.298533299300004
 31
0.0
  0
ARC
  5
5DF
  8
ﾚｲﾔ_1
 62
     5
 10
876.60514322920005
 20
69.798533299300004
 30
0.0
 40
3.5
 50
90.0
 51
270.0
  0
ENDBLK
  5
5E0
  8
0
  0
BLOCK
  8
0
  2
CLUMP58
 70
     0
 10
0.0
 20
0.0
 30
0.0
  3
CLUMP58
  1

  0
ARC
  5
5E4
  8
ﾚｲﾔ_1
 62
     5
 10
891.60514322919994
 20
19.798533299300001
 30
0.0
 40
3.5
 50
270.0
 51
90.0
  0
LINE
  5
5E5
  8
ﾚｲﾔ_1
 62
     5
 10
876.60514322920005
 20
23.298533299300001
 30
0.0
 11
891.60514322919994
 21
23.298533299300001
 31
0.0
  0
LINE
  5
5E6
  8
ﾚｲﾔ_1
 62
     5
 10
891.60514322919994
 20
16.298533299300001
 30
0.0
 11
876.60514322920005
 21
16.298533299300001
 31
0.0
  0
ARC
  5
5E7
  8
ﾚｲﾔ_1
 62
     5
 10
876.60514322920005
 20
19.798533299300001
 30
0.0
 40
3.5
 50
90.0
 51
270.0
  0
ENDBLK
  5
5E8
  8
0
  0
BLOCK
  8
0
  2
CLUMP59
 70
     0
 10
0.0
 20
0.0
 30
0.0
  3
CLUMP59
  1

  0
INSERT
  5
5EE
  8
ﾚｲﾔ_1
  2
CLUMP60
 10
0.0
 20
0.0
 30
0.0
  0
INSERT
  5
5F6
  8
ﾚｲﾔ_1
  2
CLUMP61
 10
0.0
 20
0.0
 30
0.0
  0
ENDBLK
  5
5FD
  8
0
  0
BLOCK
  8
0
  2
CLUMP60
 70
     0
 10
0.0
 20
0.0
 30
0.0
  3
CLUMP60
  1

  0
ARC
  5
5F0
  8
ﾚｲﾔ_1
 62
     5
 10
1041.6051432291999
 20
69.798533299300004
 30
0.0
 40
3.5
 50
270.0
 51
90.0
  0
LINE
  5
5F1
  8
ﾚｲﾔ_1
 62
     5
 10
1026.6051432291999
 20
66.298533299300004
 30
0.0
 11
1041.6051432291999
 21
66.298533299300004
 31
0.0
  0
LINE
  5
5F2
  8
ﾚｲﾔ_1
 62
     5
 10
1041.6051432291999
 20
73.298533299300004
 30
0.0
 11
1026.6051432291999
 21
73.298533299300004
 31
0.0
  0
ARC
  5
5F3
  8
ﾚｲﾔ_1
 62
     5
 10
1026.6051432291999
 20
69.798533299300004
 30
0.0
 40
3.5
 50
90.0
 51
270.0
  0
ENDBLK
  5
5F4
  8
0
  0
BLOCK
  8
0
  2
CLUMP61
 70
     0
 10
0.0
 20
0.0
 30
0.0
  3
CLUMP61
  1

  0
ARC
  5
5F8
  8
ﾚｲﾔ_1
 62
     5
 10
1041.6051432291999
 20
19.798533299300001
 30
0.0
 40
3.5
 50
270.0
 51
90.0
  0
LINE
  5
5F9
  8
ﾚｲﾔ_1
 62
     5
 10
1026.6051432291999
 20
23.298533299300001
 30
0.0
 11
1041.6051432291999
 21
23.298533299300001
 31
0.0
  0
LINE
  5
5FA
  8
ﾚｲﾔ_1
 62
     5
 10
1041.6051432291999
 20
16.298533299300001
 30
0.0
 11
1026.6051432291999
 21
16.298533299300001
 31
0.0
  0
ARC
  5
5FB
  8
ﾚｲﾔ_1
 62
     5
 10
1026.6051432291999
 20
19.798533299300001
 30
0.0
 40
3.5
 50
90.0
 51
270.0
  0
ENDBLK
  5
5FC
  8
0
  0
BLOCK
  8
0
  2
CLUMP62
 70
     0
 10
0.0
 20
0.0
 30
0.0
  3
CLUMP62
  1

  0
INSERT
  5
603
  8
ﾚｲﾔ_1
  2
CLUMP63
 10
0.0
 20
0.0
 30
0.0
  0
INSERT
  5
60B
  8
ﾚｲﾔ_1
  2
CLUMP64
 10
0.0
 20
0.0
 30
0.0
  0
ENDBLK
  5
612
  8
0
  0
BLOCK
  8
0
  2
CLUMP63
 70
     0
 10
0.0
 20
0.0
 30
0.0
  3
CLUMP63
  1

  0
ARC
  5
605
  8
ﾚｲﾔ_1
 62
     5
 10
1266.6051432291999
 20
69.798533299300004
 30
0.0
 40
3.5
 50
270.0
 51
90.0
  0
LINE
  5
606
  8
ﾚｲﾔ_1
 62
     5
 10
1251.6051432291999
 20
66.298533299300004
 30
0.0
 11
1266.6051432291999
 21
66.298533299300004
 31
0.0
  0
LINE
  5
607
  8
ﾚｲﾔ_1
 62
     5
 10
1266.6051432291999
 20
73.298533299300004
 30
0.0
 11
1251.6051432291999
 21
73.298533299300004
 31
0.0
  0
ARC
  5
608
  8
ﾚｲﾔ_1
 62
     5
 10
1251.6051432291999
 20
69.798533299300004
 30
0.0
 40
3.5
 50
90.0
 51
270.0
  0
ENDBLK
  5
609
  8
0
  0
BLOCK
  8
0
  2
CLUMP64
 70
     0
 10
0.0
 20
0.0
 30
0.0
  3
CLUMP64
  1

  0
ARC
  5
60D
  8
ﾚｲﾔ_1
 62
     5
 10
1266.6051432291999
 20
19.798533299300001
 30
0.0
 40
3.5
 50
270.0
 51
90.0
  0
LINE
  5
60E
  8
ﾚｲﾔ_1
 62
     5
 10
1251.6051432291999
 20
23.298533299300001
 30
0.0
 11
1266.6051432291999
 21
23.298533299300001
 31
0.0
  0
LINE
  5
60F
  8
ﾚｲﾔ_1
 62
     5
 10
1266.6051432291999
 20
16.298533299300001
 30
0.0
 11
1251.6051432291999
 21
16.298533299300001
 31
0.0
  0
ARC
  5
610
  8
ﾚｲﾔ_1
 62
     5
 10
1251.6051432291999
 20
19.798533299300001
 30
0.0
 40
3.5
 50
90.0
 51
270.0
  0
ENDBLK
  5
611
  8
0
  0
BLOCK
  8
0
  2
CLUMP65
 70
     0
 10
0.0
 20
0.0
 30
0.0
  3
CLUMP65
  1

  0
INSERT
  5
618
  8
ﾚｲﾔ_1
  2
CLUMP66
 10
0.0
 20
0.0
 30
0.0
  0
INSERT
  5
620
  8
ﾚｲﾔ_1
  2
CLUMP67
 10
0.0
 20
0.0
 30
0.0
  0
ENDBLK
  5
627
  8
0
  0
BLOCK
  8
0
  2
CLUMP66
 70
     0
 10
0.0
 20
0.0
 30
0.0
  3
CLUMP66
  1

  0
ARC
  5
61A
  8
ﾚｲﾔ_1
 62
     5
 10
1191.6051432291999
 20
69.798533299300004
 30
0.0
 40
3.5
 50
270.0
 51
90.0
  0
LINE
  5
61B
  8
ﾚｲﾔ_1
 62
     5
 10
1176.6051432291999
 20
66.298533299300004
 30
0.0
 11
1191.6051432291999
 21
66.298533299300004
 31
0.0
  0
LINE
  5
61C
  8
ﾚｲﾔ_1
 62
     5
 10
1191.6051432291999
 20
73.298533299300004
 30
0.0
 11
1176.6051432291999
 21
73.298533299300004
 31
0.0
  0
ARC
  5
61D
  8
ﾚｲﾔ_1
 62
     5
 10
1176.6051432291999
 20
69.798533299300004
 30
0.0
 40
3.5
 50
90.0
 51
270.0
  0
ENDBLK
  5
61E
  8
0
  0
BLOCK
  8
0
  2
CLUMP67
 70
     0
 10
0.0
 20
0.0
 30
0.0
  3
CLUMP67
  1

  0
ARC
  5
622
  8
ﾚｲﾔ_1
 62
     5
 10
1191.6051432291999
 20
19.798533299300001
 30
0.0
 40
3.5
 50
270.0
 51
90.0
  0
LINE
  5
623
  8
ﾚｲﾔ_1
 62
     5
 10
1176.6051432291999
 20
23.298533299300001
 30
0.0
 11
1191.6051432291999
 21
23.298533299300001
 31
0.0
  0
LINE
  5
624
  8
ﾚｲﾔ_1
 62
     5
 10
1191.6051432291999
 20
16.298533299300001
 30
0.0
 11
1176.6051432291999
 21
16.298533299300001
 31
0.0
  0
ARC
  5
625
  8
ﾚｲﾔ_1
 62
     5
 10
1176.6051432291999
 20
19.798533299300001
 30
0.0
 40
3.5
 50
90.0
 51
270.0
  0
ENDBLK
  5
626
  8
0
  0
BLOCK
  8
0
  2
CLUMP68
 70
     0
 10
0.0
 20
0.0
 30
0.0
  3
CLUMP68
  1

  0
LINE
  5
630
  8
ﾚｲﾔ_1
 62
     5
 10
1445.7694506014
 20
5.2989915513000003
 30
0.0
 11
1467.2694506014
 21
5.2989915513000003
 31
0.0
  0
LINE
  5
631
  8
ﾚｲﾔ_1
 62
     5
 10
1467.2694506014
 20
5.2989915513000003
 30
0.0
 11
1467.2694506014
 21
84.298991551300006
 31
0.0
  0
LINE
  5
632
  8
ﾚｲﾔ_1
 62
     5
 10
1445.7694506014
 20
84.298991551300006
 30
0.0
 11
1467.2694506014
 21
84.298991551300006
 31
0.0
  0
LINE
  5
633
  8
ﾚｲﾔ_1
 62
     5
 10
1445.7694506014
 20
6.7989915513000003
 30
0.0
 11
1467.2694506014
 21
6.7989915513000003
 31
0.0
  0
ARC
  5
634
  8
ﾚｲﾔ_1
 62
     5
 10
1445.7694506014
 20
6.7989915513000003
 30
0.0
 40
1.5
 50
180.0
 51
270.0
  0
LINE
  5
635
  8
ﾚｲﾔ_1
 62
     5
 10
1445.7694506014
 20
82.798991551300006
 30
0.0
 11
1445.7694506014
 21
6.7989915513000003
 31
0.0
  0
LINE
  5
636
  8
ﾚｲﾔ_1
 62
     5
 10
1444.2694506014
 20
82.798991551300006
 30
0.0
 11
1444.2694506014
 21
6.7989915513000003
 31
0.0
  0
LINE
  5
637
  8
ﾚｲﾔ_1
 62
     5
 10
1445.7694506014
 20
82.798991551300006
 30
0.0
 11
1467.2694506014
 21
82.798991551300006
 31
0.0
  0
ARC
  5
638
  8
ﾚｲﾔ_1
 62
     5
 10
1445.7694506014
 20
82.798991551300006
 30
0.0
 40
1.5
 50
90.0
 51
180.0
  0
ENDBLK
  5
639
  8
0
  0
BLOCK
  8
0
  2
CLUMP69
 70
     0
 10
0.0
 20
0.0
 30
0.0
  3
CLUMP69
  1

  0
INSERT
  5
64D
  8
ﾚｲﾔ_1
  2
CLUMP70
 10
0.0
 20
0.0
 30
0.0
  0
INSERT
  5
655
  8
ﾚｲﾔ_1
  2
CLUMP71
 10
0.0
 20
0.0
 30
0.0
  0
ENDBLK
  5
65C
  8
0
  0
BLOCK
  8
0
  2
CLUMP70
 70
     0
 10
0.0
 20
0.0
 30
0.0
  3
CLUMP70
  1

  0
ARC
  5
64F
  8
ﾚｲﾔ_1
 62
     5
 10
1116.6051432291999
 20
69.798533299300004
 30
0.0
 40
3.5
 50
270.0
 51
90.0
  0
LINE
  5
650
  8
ﾚｲﾔ_1
 62
     5
 10
1101.6051432291999
 20
66.298533299300004
 30
0.0
 11
1116.6051432291999
 21
66.298533299300004
 31
0.0
  0
LINE
  5
651
  8
ﾚｲﾔ_1
 62
     5
 10
1116.6051432291999
 20
73.298533299300004
 30
0.0
 11
1101.6051432291999
 21
73.298533299300004
 31
0.0
  0
ARC
  5
652
  8
ﾚｲﾔ_1
 62
     5
 10
1101.6051432291999
 20
69.798533299300004
 30
0.0
 40
3.5
 50
90.0
 51
270.0
  0
ENDBLK
  5
653
  8
0
  0
BLOCK
  8
0
  2
CLUMP71
 70
     0
 10
0.0
 20
0.0
 30
0.0
  3
CLUMP71
  1

  0
ARC
  5
657
  8
ﾚｲﾔ_1
 62
     5
 10
1116.6051432291999
 20
19.798533299300001
 30
0.0
 40
3.5
 50
270.0
 51
90.0
  0
LINE
  5
658
  8
ﾚｲﾔ_1
 62
     5
 10
1101.6051432291999
 20
23.298533299300001
 30
0.0
 11
1116.6051432291999
 21
23.298533299300001
 31
0.0
  0
LINE
  5
659
  8
ﾚｲﾔ_1
 62
     5
 10
1116.6051432291999
 20
16.298533299300001
 30
0.0
 11
1101.6051432291999
 21
16.298533299300001
 31
0.0
  0
ARC
  5
65A
  8
ﾚｲﾔ_1
 62
     5
 10
1101.6051432291999
 20
19.798533299300001
 30
0.0
 40
3.5
 50
90.0
 51
270.0
  0
ENDBLK
  5
65B
  8
0
  0
BLOCK
  8
0
  2
*U118
 70
     1
 10
0.0
 20
0.0
 30
0.0
  3
*U118
  1

  0
TEXT
  5
683
  8
図枠
  6
CONTINUOUS
 10
1467.3155262659679
 20
-438.07309726687822
 30
0.0
 40
9.7454860209999996
  1
ハイとーる(浅型 ・深型 )
  0
ENDBLK
  5
685
  8
0
  0
BLOCK
  8
0
  2
*U119
 70
     1
 10
0.0
 20
0.0
 30
0.0
  3
*U119
  1

  0
TEXT
  5
687
  8
図枠
  6
CONTINUOUS
 10
1510.9970702078101
 20
-465.57309726687822
 30
0.0
 40
9.7454860209999996
  1
FM10-60(D)
  0
ENDBLK
  5
689
  8
0
  0
BLOCK
  8
0
  2
*U120
 70
     1
 10
0.0
 20
0.0
 30
0.0
  3
*U120
  1

  0
TEXT
  5
68B
  8
図枠
  6
CONTINUOUS
 10
1516.290303731907
 20
-492.57840254500002
 30
0.0
 40
9.7454860209999996
  1
SHF00029
  0
ENDBLK
  5
68D
  8
0
  0
BLOCK
  8
0
  2
*U121
 70
     1
 10
0.0
 20
0.0
 30
0.0
  3
*U121
  1

  0
TEXT
  5
68F
  8
ﾚｲﾔ_1
  6
CONTINUOUS
 10
803.9756342073465
 20
-35.895486259400002
 30
0.0
 40
8.2461809158000001
  1
3
  0
ENDBLK
  5
691
  8
0
  0
BLOCK
  8
0
  2
*U122
 70
     1
 10
0.0
 20
0.0
 30
0.0
  3
*U122
  1

  0
TEXT
  5
693
  8
ﾚｲﾔ_1
  6
CONTINUOUS
 10
651.42996604334655
 20
-35.895486259400002
 30
0.0
 40
8.2461809158000001
  1
2
  0
ENDBLK
  5
695
  8
0
  0
BLOCK
  8
0
  2
*U123
 70
     1
 10
0.0
 20
0.0
 30
0.0
  3
*U123
  1

  0
TEXT
  5
697
  8
ﾚｲﾔ_1
  6
CONTINUOUS
 10
741.64294688733514
 20
-35.895486259400002
 30
0.0
 40
8.2461809158000001
  1
1
  0
ENDBLK
  5
699
  8
0
  0
BLOCK
  8
0
  2
*U124
 70
     1
 10
0.0
 20
0.0
 30
0.0
  3
*U124
  1

  0
TEXT
  5
69B
  8
ﾚｲﾔ_1
  6
CONTINUOUS
 10
1465.1955177512
 20
-269.21516127474263
 30
0.0
 40
7.4965279578999988
  1
（深型）
  0
ENDBLK
  5
69D
  8
0
  0
BLOCK
  8
0
  2
*U125
 70
     1
 10
0.0
 20
0.0
 30
0.0
  3
*U125
  1

  0
TEXT
  5
69F
  8
ﾚｲﾔ_1
  6
CONTINUOUS
 10
820.83446100219578
 20
-165.14425275929591
 30
0.0
 40
7.4965279578999988
  1
23-小判穴
  0
ENDBLK
  5
6A1
  8
0
  0
BLOCK
  8
0
  2
*U126
 70
     1
 10
0.0
 20
0.0
 30
0.0
  3
*U126
  1

  0
TEXT
  5
6A3
  8
ﾚｲﾔ_1
  6
CONTINUOUS
 10
1379.681080177
 20
-269.3673750403853
 30
0.0
 40
7.4965279578999988
  1
（浅型）
  0
ENDBLK
  5
6A5
  8
0
  0
BLOCK
  8
0
  2
*U127
 70
     1
 10
0.0
 20
0.0
 30
0.0
  3
*U127
  1

  0
TEXT
  5
6A7
  8
改訂
  6
CONTINUOUS
 10
1386.520509400696
 20
175.08047790910001
 30
0.0
 40
6.7468749188999988
  1
1
  0
ENDBLK
  5
6A9
  8
0
  0
BLOCK
  8
0
  2
*U128
 70
     1
 10
0.0
 20
0.0
 30
0.0
  3
*U128
  1

  0
TEXT
  5
6AB
  8
改訂
  6
CONTINUOUS
 10
1399.148228218723
 20
176.59145857729999
 30
0.0
 40
6.7468748986999989
  1
H**.**.**
  0
ENDBLK
  5
6AD
  8
0
  0
BLOCK
  8
0
  2
*U129
 70
     1
 10
0.0
 20
0.0
 30
0.0
  3
*U129
  1

  0
TEXT
  5
6AF
  8
図枠
  6
CONTINUOUS
 10
1330.442211903166
 20
-443.16270441009988
 30
0.0
 40
7.496527552599999
  1
1：2.5
  0
ENDBLK
  5
6B1
  8
0
  0
BLOCK
  8
0
  2
*U130
 70
     1
 10
0.0
 20
0.0
 30
0.0
  3
*U130
  1

  0
TEXT
  5
6B3
  8
図枠
  6
CONTINUOUS
 10
1429.8005121052599
 20
-391.21069407660002
 30
0.0
 40
7.496527552599999
  1
SUS304 0.8t
  0
ENDBLK
  5
6B5
  8
0
  0
BLOCK
  8
0
  2
*U131
 70
     1
 10
0.0
 20
0.0
 30
0.0
  3
*U131
  1

  0
TEXT
  5
6B7
  8
図枠
  6
CONTINUOUS
 10
1319.9417536929141
 20
-391.62928190948628
 30
0.0
 40
7.496527552599999
  1
本   体
  0
ENDBLK
  5
6B9
  8
0
  0
BLOCK
  8
0
  2
*U132
 70
     1
 10
0.0
 20
0.0
 30
0.0
  3
*U132
  1

  0
TEXT
  5
6BB
  8
図枠
  6
CONTINUOUS
 10
1332.3471749220901
 20
-378.71069407660002
 30
0.0
 40
7.496527552599999
  1
耳
  0
ENDBLK
  5
6BD
  8
0
  0
BLOCK
  8
0
  2
*U133
 70
     1
 10
0.0
 20
0.0
 30
0.0
  3
*U133
  1

  0
TEXT
  5
6BF
  8
図枠
  6
CONTINUOUS
 10
1429.8005121052599
 20
-378.71069407660002
 30
0.0
 40
7.496527552599999
  1
SUS304 0.8t
  0
ENDBLK
  5
6C1
  8
0
  0
BLOCK
  8
0
  2
*U134
 70
     1
 10
0.0
 20
0.0
 30
0.0
  3
*U134
  1

  0
TEXT
  5
6C3
  8
図枠
  6
CONTINUOUS
 10
1522.847633132342
 20
-378.71069407660002
 30
0.0
 40
7.496527552599999
  1
2
  0
ENDBLK
  5
6C5
  8
0
  0
BLOCK
  8
0
  2
*U135
 70
     1
 10
0.0
 20
0.0
 30
0.0
  3
*U135
  1

  0
TEXT
  5
6C7
  8
図枠
  6
CONTINUOUS
 10
1318.4005893991059
 20
-366.59122847013299
 30
0.0
 40
7.496527552599999
  1
蓋(目皿)
  0
ENDBLK
  5
6C9
  8
0
  0
BLOCK
  8
0
  2
*U136
 70
     1
 10
0.0
 20
0.0
 30
0.0
  3
*U136
  1

  0
TEXT
  5
6CB
  8
図枠
  6
CONTINUOUS
 10
1429.8005121052599
 20
-366.21069407660002
 30
0.0
 40
7.496527552599999
  1
SUS304 1.5t
  0
ENDBLK
  5
6CD
  8
0
  0
BLOCK
  8
0
  2
*U137
 70
     1
 10
0.0
 20
0.0
 30
0.0
  3
*U137
  1

  0
TEXT
  5
6CF
  8
図枠
  6
CONTINUOUS
 10
1523.285247684905
 20
-366.21069407660002
 30
0.0
 40
7.496527552599999
  1
1
  0
ENDBLK
  5
6D1
  8
0
  0
BLOCK
  8
0
  2
*U138
 70
     1
 10
0.0
 20
0.0
 30
0.0
  3
*U138
  1

  0
TEXT
  5
6D3
  8
図枠
  6
CONTINUOUS
 10
1471.322427295079
 20
188.7489776179751
 30
0.0
 40
6.7468748986999989
  1
改　訂　内　容
  0
ENDBLK
  5
6D5
  8
0
  0
BLOCK
  8
0
  2
*U139
 70
     1
 10
0.0
 20
0.0
 30
0.0
  3
*U139
  1

  0
TEXT
  5
6D7
  8
図枠
  6
CONTINUOUS
 10
1406.134839788951
 20
188.81747380984001
 30
0.0
 40
6.7468748986999989
  1
改訂日
  0
ENDBLK
  5
6D9
  8
0
  0
BLOCK
  8
0
  2
*U140
 70
     1
 10
0.0
 20
0.0
 30
0.0
  3
*U140
  1

  0
TEXT
  5
6DB
  8
図枠
  6
CONTINUOUS
 10
1380.5528441642421
 20
188.885970001705
 30
0.0
 40
6.7468748986999989
  1
副番
  0
ENDBLK
  5
6DD
  8
0
  0
BLOCK
  8
0
  2
*U141
 70
     1
 10
0.0
 20
0.0
 30
0.0
  3
*U141
  1

  0
TEXT
  5
6DF
  8
図枠
  6
CONTINUOUS
 10
1265.0945921534999
 20
-494.43429109850911
 30
0.0
 40
13.4937497973
  1
株式会社
  0
ENDBLK
  5
6E1
  8
0
  0
BLOCK
  8
0
  2
*U142
 70
     1
 10
0.0
 20
0.0
 30
0.0
  3
*U142
  1

  0
TEXT
  5
6E3
  8
図枠
  6
CONTINUOUS
 10
1588.891700508445
 20
188.7147295220426
 30
0.0
 40
6.7468748986999989
  1
検認者
  0
ENDBLK
  5
6E5
  8
0
  0
BLOCK
  8
0
  2
*U143
 70
     1
 10
0.0
 20
0.0
 30
0.0
  3
*U143
  1

  0
TEXT
  5
6E7
  8
図枠
  6
CONTINUOUS
 10
1442.4077275285199
 20
-483.59901471271979
 30
0.0
 40
7.496527552599999
  1
図 番
  0
ENDBLK
  5
6E9
  8
0
  0
BLOCK
  8
0
  2
*U144
 70
     1
 10
0.0
 20
0.0
 30
0.0
  3
*U144
  1

  0
TEXT
  5
6EB
  8
図枠
  6
CONTINUOUS
 10
1439.8010669328189
 20
-428.75122847013301
 30
0.0
 40
7.496527552599999
  1
製品名
  0
ENDBLK
  5
6ED
  8
0
  0
BLOCK
  8
0
  2
*U145
 70
     1
 10
0.0
 20
0.0
 30
0.0
  3
*U145
  1

  0
TEXT
  5
6EF
  8
図枠
  6
CONTINUOUS
 10
1440.010360849262
 20
-456.17512159142638
 30
0.0
 40
7.496527552599999
  1
図面名
  0
ENDBLK
  5
6F1
  8
0
  0
BLOCK
  8
0
  2
*U146
 70
     1
 10
0.0
 20
0.0
 30
0.0
  3
*U146
  1

  0
TEXT
  5
6F3
  8
図枠
  6
CONTINUOUS
 10
1264.498375641693
 20
-429.54699980831322
 30
0.0
 40
7.496527552599999
  1
日　　付
  0
ENDBLK
  5
6F5
  8
0
  0
BLOCK
  8
0
  2
*U147
 70
     1
 10
0.0
 20
0.0
 30
0.0
  3
*U147
  1

  0
TEXT
  5
6F7
  8
図枠
  6
CONTINUOUS
 10
1326.1992534152739
 20
-429.77532044443302
 30
0.0
 40
7.496527552599999
  1
尺　　度
  0
ENDBLK
  5
6F9
  8
0
  0
BLOCK
  8
0
  2
*U148
 70
     1
 10
0.0
 20
0.0
 30
0.0
  3
*U148
  1

  0
TEXT
  5
6FB
  8
図枠
  6
CONTINUOUS
 10
1563.9944447962421
 20
188.7489776179751
 30
0.0
 40
6.7468748986999989
  1
改訂者
  0
ENDBLK
  5
6FD
  8
0
  0
BLOCK
  8
0
  2
*U149
 70
     1
 10
0.0
 20
0.0
 30
0.0
  3
*U149
  1

  0
TEXT
  5
6FF
  8
図枠
  6
CONTINUOUS
 10
1253.6121743668079
 20
-403.93901471271982
 30
0.0
 40
7.496527552599999
  1
品番
  0
ENDBLK
  5
701
  8
0
  0
BLOCK
  8
0
  2
*U150
 70
     1
 10
0.0
 20
0.0
 30
0.0
  3
*U150
  1

  0
TEXT
  5
703
  8
図枠
  6
CONTINUOUS
 10
1251.4949998116001
 20
-471.02532044443302
 30
0.0
 40
7.496527552599999
  1
 製図
  0
ENDBLK
  5
705
  8
0
  0
BLOCK
  8
0
  2
*U151
 70
     1
 10
0.0
 20
0.0
 30
0.0
  3
*U151
  1

  0
TEXT
  5
707
  8
図枠
  6
CONTINUOUS
 10
1251.4949998116001
 20
-457.19921356572638
 30
0.0
 40
7.496527552599999
  1
 設計
  0
ENDBLK
  5
709
  8
0
  0
BLOCK
  8
0
  2
*U152
 70
     1
 10
0.0
 20
0.0
 30
0.0
  3
*U152
  1

  0
TEXT
  5
70B
  8
図枠
  6
CONTINUOUS
 10
1345.2449998116001
 20
-471.06337388378631
 30
0.0
 40
7.496527552599999
  1
 検図
  0
ENDBLK
  5
70D
  8
0
  0
BLOCK
  8
0
  2
*U153
 70
     1
 10
0.0
 20
0.0
 30
0.0
  3
*U153
  1

  0
TEXT
  5
70F
  8
図枠
  6
CONTINUOUS
 10
1345.2449998116001
 20
-457.23726700507967
 30
0.0
 40
7.496527552599999
  1
 照査
  0
ENDBLK
  5
711
  8
0
  0
BLOCK
  8
0
  2
*U154
 70
     1
 10
0.0
 20
0.0
 30
0.0
  3
*U154
  1

  0
TEXT
  5
713
  8
図枠
  6
CONTINUOUS
 10
1515.864827011012
 20
-404.09122847013288
 30
0.0
 40
7.496527552599999
  1
数量
  0
ENDBLK
  5
715
  8
0
  0
BLOCK
  8
0
  2
*U155
 70
     1
 10
0.0
 20
0.0
 30
0.0
  3
*U155
  1

  0
TEXT
  5
717
  8
図枠
  6
CONTINUOUS
 10
1552.1465621241471
 20
-404.20538878819281
 30
0.0
 40
7.496527552599999
  1
備　　　考
  0
ENDBLK
  5
719
  8
0
  0
BLOCK
  8
0
  2
*U156
 70
     1
 10
0.0
 20
0.0
 30
0.0
  3
*U156
  1

  0
TEXT
  5
71B
  8
図枠
  6
CONTINUOUS
 10
1432.502306299345
 20
-403.97706815207312
 30
0.0
 40
7.496527552599999
  1
材　　　質
  0
ENDBLK
  5
71D
  8
0
  0
BLOCK
  8
0
  2
*U157
 70
     1
 10
0.0
 20
0.0
 30
0.0
  3
*U157
  1

  0
TEXT
  5
71F
  8
図枠
  6
CONTINUOUS
 10
1312.7877070944951
 20
-404.01512159142641
 30
0.0
 40
7.496527552599999
  1
品　　　名
  0
ENDBLK
  5
721
  8
0
  0
BLOCK
  8
0
  2
*U158
 70
     1
 10
0.0
 20
0.0
 30
0.0
  3
*U158
  1

  0
TEXT
  5
723
  8
図枠
  6
CONTINUOUS
 10
1297.0185478869989
 20
-471.06337388378631
 30
0.0
 40
7.496527552599999
  1
白須賀
  0
ENDBLK
  5
725
  8
0
  0
BLOCK
  8
0
  2
*U159
 70
     1
 10
0.0
 20
0.0
 30
0.0
  3
*U159
  1

  0
TEXT
  5
727
  8
図枠
  6
CONTINUOUS
 10
1297.0185478869989
 20
-457.31337388378631
 30
0.0
 40
7.496527552599999
  1
白須賀
  0
ENDBLK
  5
729
  8
0
  0
BLOCK
  8
0
  2
*U160
 70
     1
 10
0.0
 20
0.0
 30
0.0
  3
*U160
  1

  0
TEXT
  5
72B
  8
図枠
  6
CONTINUOUS
 10
1392.823433612077
 20
-471.02532044443302
 30
0.0
 40
7.496527552599999
  1
柳 原
  0
ENDBLK
  5
72D
  8
0
  0
BLOCK
  8
0
  2
*U161
 70
     1
 10
0.0
 20
0.0
 30
0.0
  3
*U161
  1

  0
TEXT
  5
72F
  8
図枠
  6
CONTINUOUS
 10
1392.823433612077
 20
-457.27532044443302
 30
0.0
 40
7.496527552599999
  1
柳 原
  0
ENDBLK
  5
731
  8
0
  0
BLOCK
  8
0
  2
*U162
 70
     1
 10
0.0
 20
0.0
 30
0.0
  3
*U162
  1

  0
TEXT
  5
733
  8
図枠
  6
CONTINUOUS
 10
1268.2276126983161
 20
-443.16270441009988
 30
0.0
 40
7.496527552599999
  1
H09.07
  0
ENDBLK
  5
735
  8
0
  0
BLOCK
  8
0
  2
*U163
 70
     1
 10
0.0
 20
0.0
 30
0.0
  3
*U163
  1

  0
TEXT
  5
737
  8
図枠
  6
CONTINUOUS
 10
1260.347633132342
 20
-378.71069407660002
 30
0.0
 40
7.496527552599999
  1
2
  0
ENDBLK
  5
739
  8
0
  0
BLOCK
  8
0
  2
*U164
 70
     1
 10
0.0
 20
0.0
 30
0.0
  3
*U164
  1

  0
TEXT
  5
73B
  8
図枠
  6
CONTINUOUS
 10
1260.785247684905
 20
-391.21069407660002
 30
0.0
 40
7.496527552599999
  1
1
  0
ENDBLK
  5
73D
  8
0
  0
BLOCK
  8
0
  2
*U165
 70
     1
 10
0.0
 20
0.0
 30
0.0
  3
*U165
  1

  0
TEXT
  5
73F
  8
図枠
  6
CONTINUOUS
 10
1522.847633132342
 20
-391.21069407660002
 30
0.0
 40
7.496527552599999
  1
2
  0
ENDBLK
  5
741
  8
0
  0
BLOCK
  8
0
  2
*U166
 70
     1
 10
0.0
 20
0.0
 30
0.0
  3
*U166
  1

  0
TEXT
  5
743
  8
図枠
  6
CONTINUOUS
 10
1260.385686571695
 20
-366.21069407660002
 30
0.0
 40
7.496527552599999
  1
3
  0
ENDBLK
  5
745
  8
0
  0
BLOCK
  8
0
  2
*U167
 70
     1
 10
0.0
 20
0.0
 30
0.0
  3
*U167
  1

  0
TEXT
  5
747
  8
改訂
  6
CONTINUOUS
 10
1568.8576744186551
 20
176.59145857729999
 30
0.0
 40
6.7468748986999989
  1
＊＊
  0
ENDBLK
  5
749
  8
0
  0
BLOCK
  8
0
  2
*U168
 70
     1
 10
0.0
 20
0.0
 30
0.0
  3
*U168
  1

  0
TEXT
  5
74B
  8
改訂
  6
CONTINUOUS
 10
1453.273680738658
 20
176.59770857730001
 30
0.0
 40
6.7468748986999989
  1
**********************
  0
ENDBLK
  5
74D
  8
0
  0
BLOCK
  8
0
  2
*U169
 70
     1
 10
0.0
 20
0.0
 30
0.0
  3
*U169
  1

  0
TEXT
  5
74F
  8
ﾚｲﾔ_1
  6
CONTINUOUS
 10
1455.3192980224001
 20
-42.376763247742637
 30
0.0
 40
7.4965279578999988
  1
（深型）
  0
ENDBLK
  5
751
  8
0
  0
BLOCK
  8
0
  2
*U170
 70
     1
 10
0.0
 20
0.0
 30
0.0
  3
*U170
  1

  0
TEXT
  5
753
  8
ﾚｲﾔ_1
  6
CONTINUOUS
 10
1362.5200827511001
 20
-42.52897701338528
 30
0.0
 40
7.4965279578999988
  1
（浅型）
  0
ENDBLK
  5
755
  8
0
  0
ENDSEC
  0
SECTION
  2
ENTITIES
  0
DIMENSION
  5
3E
  8
寸法線
  2
*D0
 10
1497.2694506014
 20
122.3733266495
 30
0.0
 11
1482.2694506014
 21
122.3733266495
 31
0.0
 70
   128
  1
<>
 13
1497.2694506014
 23
93.798991551299991
 33
0.0
 14
1467.2694506014
 24
84.798991551300006
 34
0.0
  0
DIMENSION
  5
4D
  8
寸法線
  2
*D1
 10
1322.6677328746
 20
-4.2014667007000002
 30
0.0
 11
1322.6677328746
 21
0.2985332993
 31
0.0
 70
   128
  1
<>
 13
1295.6051432291999
 23
-4.2014667007000002
 33
0.0
 14
1286.6051432291999
 24
4.7985332992999989
 34
0.0
 50
90.0
  0
DIMENSION
  5
5C
  8
寸法線
  2
*D2
 10
1316.7854563394999
 20
-61.8558286799
 30
0.0
 11
1316.7854563394999
 21
-58.8558286799
 31
0.0
 70
   128
  1
<>
 13
1295.6051432291999
 23
-61.8558286799
 33
0.0
 14
1294.8051432292
 24
-55.8558286799
 34
0.0
 50
90.0
  0
DIMENSION
  5
6B
  8
寸法線
  2
*D3
 10
1316.7854563394999
 20
-85.8558286799
 30
0.0
 11
1316.7854563394999
 21
-82.855828679899986
 31
0.0
 70
   128
  1
<>
 13
1294.8051432292
 23
-85.8558286799
 33
0.0
 14
1295.6051432291999
 24
-79.8558286799
 34
0.0
 50
90.0
  0
DIMENSION
  5
7A
  8
寸法線
  2
*D4
 10
706.60514322919994
 20
126.59160123140001
 30
0.0
 11
701.08105463779987
 21
126.59160123140001
 31
0.0
 70
   128
  1
<>
 13
706.60514322919994
 23
84.798533299300004
 33
0.0
 14
697.60514322919994
 24
93.798533299300004
 34
0.0
  0
DIMENSION
  5
89
  8
寸法線
  2
*D5
 10
1339.5988032022999
 20
-4.2014667007000002
 30
0.0
 11
1339.5988032022999
 21
44.798533299299997
 31
0.0
 70
   128
  1
<>
 13
1295.6051432291999
 23
-4.2014667007000002
 33
0.0
 14
1295.6051432291999
 24
93.798533299300004
 34
0.0
 50
90.0
  0
DIMENSION
  5
98
  8
寸法線
  2
*D6
 10
1400.5853275768
 20
-154.26440822949999
 30
0.0
 11
1393.5853275768
 21
-154.26440822949999
 31
0.0
 70
   128
  1
<>
 13
1400.5853275768
 23
-174.26440822949999
 33
0.0
 14
1386.5853275768
 24
-175.7644076787
 34
0.0
  0
DIMENSION
  5
A7
  8
寸法線
  2
*D7
 10
1322.7075932507
 20
-253.26440822949999
 30
0.0
 11
1322.7075932507
 21
-214.11678409449999
 31
0.0
 70
   128
  1
<>
 13
1278.0931485179999
 23
-253.26440822949999
 33
0.0
 14
1278.0931485179999
 24
-174.26440822949999
 34
0.0
 50
90.0
  0
DIMENSION
  5
B6
  8
寸法線
  2
*D8
 10
1303.0931485179999
 20
-213.76440822949999
 30
0.0
 11
1303.0931485179999
 21
-201.26440822949999
 31
0.0
 70
   128
  1
<>
 13
1283.0931485179999
 23
-213.76440822949999
 33
0.0
 14
1262.3431485179999
 24
-188.76440822949999
 34
0.0
 50
90.0
  0
DIMENSION
  5
C5
  8
寸法線
  2
*D9
 10
1101.3431485179999
 20
-278.26440822950002
 30
0.0
 11
1138.8431485179999
 21
-278.26440822950002
 31
0.0
 70
   128
  1
<>
 13
1101.3431485179999
 23
-242.26440822949999
 33
0.0
 14
1176.3431485179999
 24
-242.26440822949999
 34
0.0
 50
180.0
  0
DIMENSION
  5
D4
  8
寸法線
  2
*D10
 10
1278.0931485179999
 20
-149.26440822949999
 30
0.0
 11
988.84314851799991
 21
-149.26440822949999
 31
0.0
 70
   128
  1
<>
 13
1278.0931485179999
 23
-174.26440822949999
 33
0.0
 14
699.59314851800002
 24
-174.26440822949999
 34
0.0
  0
DIMENSION
  5
E3
  8
寸法線
  2
*D11
 10
876.34314851799991
 20
-278.26440822950002
 30
0.0
 11
913.84314851799991
 21
-278.26440822950002
 31
0.0
 70
   128
  1
<>
 13
876.34314851799991
 23
-242.26440822949999
 33
0.0
 14
951.34314851799991
 24
-242.26440822949999
 34
0.0
 50
180.0
  0
DIMENSION
  5
F2
  8
寸法線
  2
*D12
 10
1303.0931485179999
 20
-188.76440822949999
 30
0.0
 11
1303.0931485179999
 21
-158.4104338871
 31
0.0
 70
   128
  1
<>
 13
1262.3431485179999
 23
-188.76440822949999
 33
0.0
 14
1278.0931485179999
 24
-174.26440822949999
 34
0.0
 50
90.0
  0
DIMENSION
  5
101
  8
寸法線
  2
*D13
 10
699.59314851800002
 20
-278.26440822950002
 30
0.0
 11
712.96814851800002
 21
-278.26440822950002
 31
0.0
 70
   128
  1
<>
 13
699.59314851800002
 23
-253.26440822949999
 33
0.0
 14
726.34314851799991
 24
-242.26440822949999
 34
0.0
 50
180.0
  0
DIMENSION
  5
109
  8
寸法線
  2
*D14
 10
1273.0931485179999
 20
-317.52367355289999
 30
0.0
 11
1269.4722002043
 21
-333.2239031986
 31
0.0
 70
   132
  1
<>
 15
1276.6286824240001
 25
-321.0592074589
 35
0.0
 40
0.0
  0
INSERT
  5
10B
  8
0
  6
CONTINUOUS
  2
*U118
 10
0.0
 20
0.0
 30
0.0
  0
INSERT
  5
10C
  8
0
  6
CONTINUOUS
  2
*U119
 10
0.0
 20
0.0
 30
0.0
  0
INSERT
  5
10D
  8
0
  6
CONTINUOUS
  2
*U120
 10
0.0
 20
0.0
 30
0.0
  0
DIMENSION
  5
11C
  8
寸法線
  2
*D15
 10
726.34314851799991
 20
-278.26440822950002
 30
0.0
 11
763.84314851799991
 21
-278.26440822950002
 31
0.0
 70
   128
  1
<>
 13
726.34314851799991
 23
-242.26440822949999
 33
0.0
 14
801.34314851799991
 24
-242.26440822949999
 34
0.0
 50
180.0
  0
DIMENSION
  5
12B
  8
寸法線
  2
*D16
 10
1251.3431485179999
 20
-278.26440822950002
 30
0.0
 11
1264.7181485179999
 21
-278.26440822950002
 31
0.0
 70
   128
  1
<>
 13
1251.3431485179999
 23
-242.26440822949999
 33
0.0
 14
1278.0931485179999
 24
-253.26440822949999
 34
0.0
 50
180.0
  0
DIMENSION
  5
13A
  8
寸法線
  2
*D17
 10
1176.3431485179999
 20
-278.26440822950002
 30
0.0
 11
1213.8431485179999
 21
-278.26440822950002
 31
0.0
 70
   128
  1
<>
 13
1176.3431485179999
 23
-242.26440822949999
 33
0.0
 14
1251.3431485179999
 24
-242.26440822949999
 34
0.0
 50
180.0
  0
DIMENSION
  5
149
  8
寸法線
  2
*D18
 10
1303.0931485179999
 20
-253.26440822949999
 30
0.0
 11
1303.0931485179999
 21
-271.40532696119999
 31
0.0
 70
   128
  1
<>
 13
1278.0931485179999
 23
-253.26440822949999
 33
0.0
 14
1262.3431485179999
 24
-238.76440822949999
 34
0.0
 50
90.0
  0
DIMENSION
  5
158
  8
寸法線
  2
*D19
 10
1303.0931485179999
 20
-238.76440822949999
 30
0.0
 11
1303.0931485179999
 21
-226.26440822949999
 31
0.0
 70
   128
  1
<>
 13
1262.3431485179999
 23
-238.76440822949999
 33
0.0
 14
1283.0931485179999
 24
-213.76440822949999
 34
0.0
 50
90.0
  0
DIMENSION
  5
167
  8
寸法線
  2
*D20
 10
1489.3916666667001
 20
-154.26440822949999
 30
0.0
 11
1477.8916666667001
 21
-154.26440822949999
 31
0.0
 70
   128
  1
<>
 13
1489.3916666667001
 23
-174.26440822949999
 33
0.0
 14
1466.3916666667001
 24
-175.76440822949999
 34
0.0
  0
DIMENSION
  5
176
  8
寸法線
  2
*D21
 10
1322.6677309672
 20
4.7985332992999989
 30
0.0
 11
1322.6677309672
 21
44.798533299299997
 31
0.0
 70
   128
  1
<>
 13
1286.6051432291999
 23
4.7985332992999989
 33
0.0
 14
1286.6051432291999
 24
84.798533299300004
 34
0.0
 50
90.0
  0
DIMENSION
  5
185
  8
寸法線
  2
*D22
 10
1513.2694506014
 20
9.7989915513000003
 30
0.0
 11
1513.2694506014
 21
44.798991551299999
 31
0.0
 70
   128
  1
<>
 13
1497.2694506014
 23
9.7989915513000003
 33
0.0
 14
1497.2694506014
 24
79.798991551300006
 34
0.0
 50
90.0
  0
DIMENSION
  5
194
  8
寸法線
  2
*D23
 10
1412.6232130233
 20
11.298533299300001
 30
0.0
 11
1412.6232130233
 21
44.798533299299997
 31
0.0
 70
   128
  1
<>
 13
1393.1824247543
 23
11.298533299300001
 33
0.0
 14
1393.1824247543
 24
78.298533299300004
 34
0.0
 50
90.0
  0
DIMENSION
  5
1A3
  8
寸法線
  2
*D24
 10
1378.9824247542999
 20
119.8455124405
 30
0.0
 11
1386.6014205101999
 21
119.8455124405
 31
0.0
 70
   128
  1
<>
 13
1378.9824247542999
 23
84.798533299300004
 33
0.0
 14
1393.9824247542999
 24
92.998533299299993
 34
0.0
  0
DIMENSION
  5
1B2
  8
寸法線
  2
*D25
 10
1378.9824247542999
 20
119.8455124405
 30
0.0
 11
1371.3634289984
 21
119.8455124405
 31
0.0
 70
   128
  1
<>
 13
1378.9824247542999
 23
84.798533299300004
 33
0.0
 14
1363.9824247542999
 24
92.998533299299993
 34
0.0
  0
DIMENSION
  5
1C1
  8
寸法線
  2
*D26
 10
1393.9824247542999
 20
134.26391034400001
 30
0.0
 11
1378.9824247542999
 21
134.26391034400001
 31
0.0
 70
   128
  1
<>
 13
1393.9824247542999
 23
92.998533299299993
 33
0.0
 14
1363.9824247542999
 24
92.998533299299993
 34
0.0
  0
INSERT
  5
1C3
  8
寸法線
  2
BALLON0
 10
0.0
 20
0.0
 30
0.0
  0
INSERT
  5
1CE
  8
寸法線
  2
BALLON1
 10
0.0
 20
0.0
 30
0.0
  0
INSERT
  5
1D8
  8
寸法線
  2
BALLON2
 10
0.0
 20
0.0
 30
0.0
  0
DIMENSION
  5
1EF
  8
寸法線
  2
*D30
 10
1295.6051432291999
 20
144.14303097999999
 30
0.0
 11
996.60514322919994
 21
144.14303097999999
 31
0.0
 70
   128
  1
<>
 13
1295.6051432291999
 23
93.798533299300004
 33
0.0
 14
697.60514322919994
 24
93.798533299300004
 34
0.0
  0
DIMENSION
  5
1FE
  8
寸法線
  2
*D31
 10
1286.6051432291999
 20
126.59160123140001
 30
0.0
 11
996.60514322919994
 21
126.59160123140001
 31
0.0
 70
   128
  1
<>
 13
1286.6051432291999
 23
84.798533299300004
 33
0.0
 14
706.60514322919994
 24
84.798533299300004
 34
0.0
  0
DIMENSION
  5
20D
  8
寸法線
  2
*D32
 10
1322.6677328746
 20
84.798533299300004
 30
0.0
 11
1322.6677328746
 21
89.298533299300004
 31
0.0
 70
   128
  1
<>
 13
1286.6051432291999
 23
84.798533299300004
 33
0.0
 14
1295.6051432291999
 24
93.798533299300004
 34
0.0
 50
90.0
  0
DIMENSION
  5
21C
  8
寸法線
  2
*D33
 10
1295.6051432291999
 20
126.59160123140001
 30
0.0
 11
1291.1051432291999
 21
126.59160123140001
 31
0.0
 70
   128
  1
<>
 13
1295.6051432291999
 23
93.798533299300004
 33
0.0
 14
1286.6051432291999
 24
84.798533299300004
 34
0.0
  0
DIMENSION
  5
22B
  8
寸法線
  2
*D34
 10
1412.6339056198001
 20
-4.2014667007000002
 30
0.0
 11
1412.6339056198001
 21
-16.581036707999999
 31
0.0
 70
   128
  1
15.5
 13
1393.1824247543
 23
-4.2014667007000002
 33
0.0
 14
1393.1824247543
 24
11.298533299300001
 34
0.0
 50
90.0
  0
DIMENSION
  5
23A
  8
寸法線
  2
*D35
 10
1513.2694506014
 20
-4.2010084486999988
 30
0.0
 11
1513.2694506014
 21
2.798991551299999
 31
0.0
 70
   128
  1
14
 13
1497.2694506014
 23
-4.2010084486999988
 33
0.0
 14
1497.2694506014
 24
9.7989915513000003
 34
0.0
 50
90.0
  0
DIMENSION
  5
249
  8
寸法線
  2
*D36
 10
1467.2694506014
 20
122.3733266495
 30
0.0
 11
1454.7694506014
 21
122.3733266495
 31
0.0
 70
   128
  1
<>
 13
1467.2694506014
 23
84.798991551300006
 33
0.0
 14
1442.2694506014
 24
93.798991551299991
 34
0.0
  0
DIMENSION
  5
258
  8
寸法線
  2
*D37
 10
1412.6655962172999
 20
78.298533299300004
 30
0.0
 11
1412.6655962172999
 21
106.47456155099999
 31
0.0
 70
   128
  1
15.5
 13
1393.1824247543
 23
78.298533299300004
 33
0.0
 14
1390.5824247543001
 24
93.798533299300004
 34
0.0
 50
90.0
  0
DIMENSION
  5
267
  8
寸法線
  2
*D38
 10
1513.2694506014
 20
79.798991551300006
 30
0.0
 11
1513.2694506014
 21
86.798991551300006
 31
0.0
 70
   128
  1
14
 13
1497.2694506014
 23
79.798991551300006
 33
0.0
 14
1497.2694506014
 24
93.798991551299991
 34
0.0
 50
90.0
  0
DIMENSION
  5
276
  8
寸法線
  2
*D39
 10
1497.2694506014
 20
136.1482720994
 30
0.0
 11
1469.7694506014
 21
136.1482720994
 31
0.0
 70
   128
  1
<>
 13
1497.2694506014
 23
92.998991551299994
 33
0.0
 14
1442.2694506014
 24
92.998991551299994
 34
0.0
  0
LINE
  5
277
  8
ﾚｲﾔ_1
 62
     5
 10
1388.0853275768
 20
-251.76440822949999
 30
0.0
 11
1400.5853275768
 21
-251.76440822949999
 31
0.0
  0
ARC
  5
278
  8
ﾚｲﾔ_1
 62
     5
 10
1388.0853275768
 20
-251.76440822949999
 30
0.0
 40
1.5
 50
180.0
 51
270.0
  0
LINE
  5
279
  8
ﾚｲﾔ_1
 62
     5
 10
1400.5853275768
 20
-251.76440822949999
 30
0.0
 11
1400.5853275768
 21
-253.26440822949999
 31
0.0
  0
LINE
  5
27A
  8
ﾚｲﾔ_1
  6
BORDER
 62
     3
 10
1380.5853275768
 20
-213.76440822949999
 30
0.0
 11
1405.5853275768
 21
-213.76440822949999
 31
0.0
  0
ARC
  5
27B
  8
ﾚｲﾔ_1
 62
     5
 10
1388.0853275768
 20
-175.76440822949999
 30
0.0
 40
1.5
 50
90.0
 51
179.99997896209999
  0
LINE
  5
27C
  8
ﾚｲﾔ_1
 62
     5
 10
1388.0853275768
 20
-175.76440822949999
 30
0.0
 11
1400.5853275768
 21
-175.76440822949999
 31
0.0
  0
LINE
  5
27D
  8
ﾚｲﾔ_1
 62
     5
 10
1388.0853275768
 20
-174.26440822949999
 30
0.0
 11
1400.5853275768
 21
-174.26440822949999
 31
0.0
  0
ARC
  5
27E
  8
ﾚｲﾔ_1
 62
     5
 10
1467.8916666667001
 20
-175.76440822949999
 30
0.0
 40
1.5
 50
90.0
 51
180.0
  0
LINE
  5
27F
  8
ﾚｲﾔ_1
 62
     5
 10
1467.8916666667001
 20
-253.26440822949999
 30
0.0
 11
1489.3916666667001
 21
-253.26440822949999
 31
0.0
  0
LINE
  5
280
  8
ﾚｲﾔ_1
 62
     5
 10
1489.3916666667001
 20
-251.76440822949999
 30
0.0
 11
1489.3916666667001
 21
-253.26440822949999
 31
0.0
  0
LINE
  5
281
  8
ﾚｲﾔ_1
 62
     5
 10
1467.8916666667001
 20
-175.76440822949999
 30
0.0
 11
1489.3916666667001
 21
-175.76440822949999
 31
0.0
  0
LINE
  5
282
  8
ﾚｲﾔ_1
 62
     5
 10
1489.3916666667001
 20
-174.26440822949999
 30
0.0
 11
1489.3916666667001
 21
-175.76440822949999
 31
0.0
  0
INSERT
  5
283
  8
0
  6
CONTINUOUS
  2
*U124
 10
0.0
 20
0.0
 30
0.0
  0
LINE
  5
284
  8
ﾚｲﾔ_1
 62
     5
 10
1467.8916666667001
 20
-175.76440822949999
 30
0.0
 11
1467.8916666667001
 21
-251.76440822949999
 31
0.0
  0
LINE
  5
285
  8
ﾚｲﾔ_1
 62
     5
 10
1467.8916666667001
 20
-174.26440822949999
 30
0.0
 11
1489.3916666667001
 21
-174.26440822949999
 31
0.0
  0
LINE
  5
286
  8
ﾚｲﾔ_1
 62
     5
 10
1467.8916666667001
 20
-251.76440822949999
 30
0.0
 11
1489.3916666667001
 21
-251.76440822949999
 31
0.0
  0
LINE
  5
287
  8
ﾚｲﾔ_1
 62
     5
 10
1466.3916666667001
 20
-175.76440822949999
 30
0.0
 11
1466.3916666667001
 21
-251.76440822949999
 31
0.0
  0
ARC
  5
288
  8
ﾚｲﾔ_1
 62
     5
 10
1467.8916666667001
 20
-251.76440822949999
 30
0.0
 40
1.5
 50
180.0
 51
270.0
  0
LINE
  5
289
  8
ﾚｲﾔ_1
  6
BORDER
 62
     3
 10
1459.3916666667001
 20
-213.76440822949999
 30
0.0
 11
1494.3916666667001
 21
-213.76440822949999
 31
0.0
  0
DIMENSION
  5
298
  8
寸法線
  2
*D40
 10
951.34314851799991
 20
-278.26440822950002
 30
0.0
 11
988.84314851799991
 21
-278.26440822950002
 31
0.0
 70
   128
  1
<>
 13
951.34314851799991
 23
-242.26440822949999
 33
0.0
 14
1026.3431485179999
 24
-242.26440822949999
 34
0.0
 50
180.0
  0
DIMENSION
  5
2A7
  8
寸法線
  2
*D41
 10
1026.3431485179999
 20
-278.26440822950002
 30
0.0
 11
1063.8431485179999
 21
-278.26440822950002
 31
0.0
 70
   128
  1
<>
 13
1026.3431485179999
 23
-242.26440822949999
 33
0.0
 14
1101.3431485179999
 24
-242.26440822949999
 34
0.0
 50
180.0
  0
DIMENSION
  5
2B6
  8
寸法線
  2
*D42
 10
812.34314851800013
 20
-226.02449905739999
 30
0.0
 11
801.34314851799991
 21
-226.02449905739999
 31
0.0
 70
   128
  1
<>
 13
812.34314851800013
 23
-238.76440822949999
 33
0.0
 14
790.34314851800002
 24
-238.76440822949999
 34
0.0
  0
DIMENSION
  5
2C5
  8
寸法線
  2
*D43
 10
824.84314851800013
 20
-242.26440822949999
 30
0.0
 11
824.84314851800013
 21
-238.76440822949999
 31
0.0
 70
   128
  1
<>
 13
808.84314851800002
 23
-242.26440822949999
 33
0.0
 14
808.84314851800002
 24
-235.26440822949999
 34
0.0
 50
90.0
  0
DIMENSION
  5
2D4
  8
寸法線
  2
*D44
 10
801.34314851799991
 20
-278.26440822950002
 30
0.0
 11
838.84314851799991
 21
-278.26440822950002
 31
0.0
 70
   128
  1
<>
 13
801.34314851799991
 23
-242.26440822949999
 33
0.0
 14
876.34314851799991
 24
-242.26440822949999
 34
0.0
 50
180.0
  0
DIMENSION
  5
2DB
  8
寸法線
  2
*D45
 10
706.22244792219999
 20
-223.8339793632
 30
0.0
 11
716.17435303169987
 21
-233.38419190510001
 31
0.0
 70
   131
  1
2-Φ15
 15
719.61405005890003
 25
-217.07639161220001
 35
0.0
 40
0.0
  0
INSERT
  5
2DD
  8
ﾚｲﾔ_1
  2
CLUMP0
 10
0.0
 20
0.0
 30
0.0
  0
LINE
  5
2E4
  8
ﾚｲﾔ_1
  6
BORDER
 62
     3
 10
726.34314851799991
 20
-201.26440822949999
 30
0.0
 11
726.34314851799991
 21
-226.26440822949999
 31
0.0
  0
INSERT
  5
2E6
  8
ﾚｲﾔ_1
  2
CLUMP1
 10
0.0
 20
0.0
 30
0.0
  0
INSERT
  5
2FA
  8
ﾚｲﾔ_1
  2
CLUMP4
 10
0.0
 20
0.0
 30
0.0
  0
LINE
  5
30D
  8
ﾚｲﾔ_1
 62
     5
 10
699.59314851800002
 20
-253.26440822949999
 30
0.0
 11
699.59314851800002
 21
-174.26440822949999
 31
0.0
  0
LINE
  5
30E
  8
ﾚｲﾔ_1
 62
     5
 10
699.59314851800002
 20
-308.52367355289999
 30
0.0
 11
699.59314851800002
 21
-317.52367355289999
 31
0.0
  0
ARC
  5
30F
  8
ﾚｲﾔ_1
 62
     5
 10
704.59314851800002
 20
-317.52367355289999
 30
0.0
 40
5.0
 50
180.0
 51
269.99999957839998
  0
LINE
  5
310
  8
ﾚｲﾔ_1
 10
801.34314851799991
 20
-185.26440822949999
 30
0.0
 11
815.00623955229992
 21
-167.77651358259999
 31
0.0
  0
SOLID
  5
311
  8
ﾚｲﾔ_1
 10
801.34314851799991
 20
-185.26440822949999
 30
0.0
 11
803.36573018119987
 21
-180.49952809889999
 31
0.0
 12
803.59663107149981
 22
-182.38009271230001
 32
0.0
 13
803.59663107149981
 23
-182.38009271230001
 33
0.0
  0
SOLID
  5
312
  8
ﾚｲﾔ_1
 10
801.34314851799991
 20
-185.26440822949999
 30
0.0
 11
805.47719568490004
 21
-182.14919182200001
 31
0.0
 12
803.59663107149981
 22
-182.38009271230001
 32
0.0
 13
803.59663107149981
 23
-182.38009271230001
 33
0.0
  0
INSERT
  5
313
  8
0
  6
CONTINUOUS
  2
*U125
 10
0.0
 20
0.0
 30
0.0
  0
INSERT
  5
315
  8
ﾚｲﾔ_1
  2
CLUMP7
 10
0.0
 20
0.0
 30
0.0
  0
INSERT
  5
329
  8
ﾚｲﾔ_1
  2
CLUMP10
 10
0.0
 20
0.0
 30
0.0
  0
CIRCLE
  5
330
  8
ﾚｲﾔ_1
 62
     5
 10
1251.3431485179999
 20
-213.76440822949999
 30
0.0
 40
7.5
  0
ARC
  5
331
  8
ﾚｲﾔ_1
 62
     5
 10
1273.0931485179999
 20
-317.52367355289999
 30
0.0
 40
5.0
 50
269.99999715709998
 51
0.0
  0
LINE
  5
332
  8
ﾚｲﾔ_1
 62
     5
 10
1278.0931485179999
 20
-308.52367355289999
 30
0.0
 11
1278.0931485179999
 21
-317.52367355289999
 31
0.0
  0
INSERT
  5
334
  8
ﾚｲﾔ_1
  2
CLUMP11
 10
0.0
 20
0.0
 30
0.0
  0
LINE
  5
33B
  8
ﾚｲﾔ_1
  6
BORDER
 62
     3
 10
1251.3431485179999
 20
-201.26440822949999
 30
0.0
 11
1251.3431485179999
 21
-226.26440822949999
 31
0.0
  0
LINE
  5
33C
  8
ﾚｲﾔ_1
 62
     5
 10
1278.0931485179999
 20
-253.26440822949999
 30
0.0
 11
1278.0931485179999
 21
-174.26440822949999
 31
0.0
  0
INSERT
  5
33E
  8
ﾚｲﾔ_1
  2
CLUMP12
 10
0.0
 20
0.0
 30
0.0
  0
INSERT
  5
352
  8
ﾚｲﾔ_1
  2
CLUMP15
 10
0.0
 20
0.0
 30
0.0
  0
INSERT
  5
366
  8
ﾚｲﾔ_1
  2
CLUMP18
 10
0.0
 20
0.0
 30
0.0
  0
INSERT
  5
36D
  8
0
  6
CONTINUOUS
  2
*U126
 10
0.0
 20
0.0
 30
0.0
  0
LINE
  5
36E
  8
ﾚｲﾔ_1
 62
     5
 10
1386.5853275768
 20
-175.7644076787
 30
0.0
 11
1386.5853275768
 21
-251.76440822949999
 31
0.0
  0
LINE
  5
36F
  8
ﾚｲﾔ_1
 62
     5
 10
1388.0853275768
 20
-175.76440822949999
 30
0.0
 11
1388.0853275768
 21
-251.76440822949999
 31
0.0
  0
LINE
  5
370
  8
ﾚｲﾔ_1
 62
     5
 10
1400.5853275768
 20
-174.26440822949999
 30
0.0
 11
1400.5853275768
 21
-175.76440822949999
 31
0.0
  0
LINE
  5
371
  8
ﾚｲﾔ_1
 62
     5
 10
1388.0853275768
 20
-253.26440822949999
 30
0.0
 11
1400.5853275768
 21
-253.26440822949999
 31
0.0
  0
INSERT
  5
373
  8
0
  6
CONTINUOUS
  2
*U127
 10
0.0
 20
0.0
 30
0.0
  0
INSERT
  5
374
  8
0
  6
CONTINUOUS
  2
*U128
 10
0.0
 20
0.0
 30
0.0
  0
INSERT
  5
375
  8
0
  6
CONTINUOUS
  2
*U129
 10
0.0
 20
0.0
 30
0.0
  0
INSERT
  5
376
  8
0
  6
CONTINUOUS
  2
*U130
 10
0.0
 20
0.0
 30
0.0
  0
INSERT
  5
377
  8
0
  6
CONTINUOUS
  2
*U131
 10
0.0
 20
0.0
 30
0.0
  0
INSERT
  5
379
  8
図枠
  2
CLUMP19
 10
0.0
 20
0.0
 30
0.0
  0
INSERT
  5
383
  8
図枠
  2
CLUMP20
 10
0.0
 20
0.0
 30
0.0
  0
LINE
  5
38C
  8
ﾚｲﾔ_1
  6
STITCH
 10
699.59314851800002
 20
-310.02367355289999
 30
0.0
 11
1278.0931485179999
 21
-310.02367355289999
 31
0.0
  0
LINE
  5
38D
  8
ﾚｲﾔ_1
 62
     5
 10
699.59314851800002
 20
-308.52367355289999
 30
0.0
 11
1278.0931485179999
 21
-308.52367355289999
 31
0.0
  0
LINE
  5
38E
  8
ﾚｲﾔ_1
  6
BORDER
 62
     3
 10
694.59314851800002
 20
-213.76440822949999
 30
0.0
 11
1283.0931485179999
 21
-213.76440822949999
 31
0.0
  0
LINE
  5
38F
  8
ﾚｲﾔ_1
 62
     5
 10
1278.0931485179999
 20
-174.26440822949999
 30
0.0
 11
699.59314851800002
 21
-174.26440822949999
 31
0.0
  0
LINE
  5
390
  8
ﾚｲﾔ_1
 62
     5
 10
1278.0931485179999
 20
-253.26440822949999
 30
0.0
 11
699.59314851800002
 21
-253.26440822949999
 31
0.0
  0
LINE
  5
391
  8
ﾚｲﾔ_1
  6
STITCH
 10
1278.0931485179999
 20
-175.76440822949999
 30
0.0
 11
699.59314851800002
 21
-175.76440822949999
 31
0.0
  0
LINE
  5
392
  8
ﾚｲﾔ_1
  6
STITCH
 10
1278.0931485179999
 20
-251.76440822949999
 30
0.0
 11
699.59314851800002
 21
-251.76440822949999
 31
0.0
  0
LINE
  5
393
  8
ﾚｲﾔ_1
 62
     5
 10
1273.09314827
 20
-322.52367355289999
 30
0.0
 11
704.59314848129998
 21
-322.52367355289999
 31
0.0
  0
INSERT
  5
395
  8
ﾚｲﾔ_1
  2
CLUMP21
 10
0.0
 20
0.0
 30
0.0
  0
INSERT
  5
3A9
  8
ﾚｲﾔ_1
  2
CLUMP24
 10
0.0
 20
0.0
 30
0.0
  0
INSERT
  5
3BD
  8
ﾚｲﾔ_1
  2
CLUMP27
 10
0.0
 20
0.0
 30
0.0
  0
INSERT
  5
3C5
  8
ﾚｲﾔ_1
  2
CLUMP28
 10
0.0
 20
0.0
 30
0.0
  0
INSERT
  5
3CD
  8
ﾚｲﾔ_1
  2
CLUMP29
 10
0.0
 20
0.0
 30
0.0
  0
LINE
  5
3E0
  8
ﾚｲﾔ_1
  6
BORDER
 62
     3
 10
988.84314851799991
 20
-303.52367355289999
 30
0.0
 11
988.84314851799991
 21
-327.52367355289999
 31
0.0
  0
LINE
  5
3E1
  8
ﾚｲﾔ_1
  6
BORDER
 62
     3
 10
988.84314851799991
 20
-258.26440822950002
 30
0.0
 11
988.84314851799991
 21
-169.26440822949999
 31
0.0
  0
LINE
  5
3E2
  8
ﾚｲﾔ_1
 10
815.00623955229992
 20
-167.77651358259999
 30
0.0
 11
868.38292466610005
 21
-167.77651358259999
 31
0.0
  0
INSERT
  5
3E4
  8
ﾚｲﾔ_1
  2
CLUMP32
 10
0.0
 20
0.0
 30
0.0
  0
CIRCLE
  5
3EB
  8
ﾚｲﾔ_1
 62
     5
 10
726.34314851799991
 20
-213.76440822949999
 30
0.0
 40
7.5
  0
INSERT
  5
3ED
  8
ﾚｲﾔ_1
 62
     5
  2
CLUMP33
 10
0.0
 20
0.0
 30
0.0
  0
LINE
  5
409
  8
ﾚｲﾔ_1
  6
BORDER
 62
     3
 10
1437.2694506014
 20
44.798991551299999
 30
0.0
 11
1502.2694506014
 21
44.798991551299999
 31
0.0
  0
INSERT
  5
40B
  8
ﾚｲﾔ_1
 62
     5
  2
CLUMP34
 10
0.0
 20
0.0
 30
0.0
  0
LINE
  5
427
  8
ﾚｲﾔ_1
 62
     5
 10
1467.2694506014
 20
82.798991551300006
 30
0.0
 11
1467.2694506014
 21
79.798991551300006
 31
0.0
  0
LINE
  5
428
  8
ﾚｲﾔ_1
 62
     5
 10
1467.2694506014
 20
84.798991551300006
 30
0.0
 11
1467.2694506014
 21
84.298991551300006
 31
0.0
  0
LINE
  5
429
  8
ﾚｲﾔ_1
 62
     5
 10
1393.9824247542999
 20
79.098533299300001
 30
0.0
 11
1393.9824247542999
 21
44.798533299299997
 31
0.0
  0
INSERT
  5
42A
  8
0
  6
CONTINUOUS
  2
*U132
 10
0.0
 20
0.0
 30
0.0
  0
INSERT
  5
42B
  8
0
  6
CONTINUOUS
  2
*U133
 10
0.0
 20
0.0
 30
0.0
  0
INSERT
  5
42C
  8
0
  6
CONTINUOUS
  2
*U134
 10
0.0
 20
0.0
 30
0.0
  0
INSERT
  5
42E
  8
図枠
  2
CLUMP35
 10
0.0
 20
0.0
 30
0.0
  0
INSERT
  5
437
  8
0
  6
CONTINUOUS
  2
*U135
 10
0.0
 20
0.0
 30
0.0
  0
INSERT
  5
438
  8
0
  6
CONTINUOUS
  2
*U136
 10
0.0
 20
0.0
 30
0.0
  0
INSERT
  5
439
  8
0
  6
CONTINUOUS
  2
*U137
 10
0.0
 20
0.0
 30
0.0
  0
INSERT
  5
43B
  8
図枠
  2
CLUMP36
 10
0.0
 20
0.0
 30
0.0
  0
INSERT
  5
4DF
  8
0
  6
CONTINUOUS
  2
*U158
 10
0.0
 20
0.0
 30
0.0
  0
INSERT
  5
4E0
  8
0
  6
CONTINUOUS
  2
*U159
 10
0.0
 20
0.0
 30
0.0
  0
INSERT
  5
4E1
  8
0
  6
CONTINUOUS
  2
*U160
 10
0.0
 20
0.0
 30
0.0
  0
INSERT
  5
4E2
  8
0
  6
CONTINUOUS
  2
*U161
 10
0.0
 20
0.0
 30
0.0
  0
INSERT
  5
4E3
  8
0
  6
CONTINUOUS
  2
*U162
 10
0.0
 20
0.0
 30
0.0
  0
INSERT
  5
4E4
  8
0
  6
CONTINUOUS
  2
*U163
 10
0.0
 20
0.0
 30
0.0
  0
INSERT
  5
4E5
  8
0
  6
CONTINUOUS
  2
*U164
 10
0.0
 20
0.0
 30
0.0
  0
INSERT
  5
4E6
  8
0
  6
CONTINUOUS
  2
*U165
 10
0.0
 20
0.0
 30
0.0
  0
INSERT
  5
4E7
  8
0
  6
CONTINUOUS
  2
*U166
 10
0.0
 20
0.0
 30
0.0
  0
INSERT
  5
4E8
  8
0
  6
CONTINUOUS
  2
*U167
 10
0.0
 20
0.0
 30
0.0
  0
INSERT
  5
4E9
  8
0
  6
CONTINUOUS
  2
*U168
 10
0.0
 20
0.0
 30
0.0
  0
ARC
  5
4EA
  8
ﾚｲﾔ_1
 62
     5
 10
1287.4051432291999
 20
-85.055828679900003
 30
0.0
 40
0.8
 50
180.0
 51
270.0
  0
LINE
  5
4EB
  8
ﾚｲﾔ_1
 62
     5
 10
1286.6051432291999
 20
-70.8558286799
 30
0.0
 11
1286.6051432291999
 21
-85.055828679900003
 31
0.0
  0
ARC
  5
4EC
  8
ﾚｲﾔ_1
 62
     5
 10
1287.4051432291999
 20
-56.655828679899997
 30
0.0
 40
0.8
 50
90.0
 51
180.0
  0
LINE
  5
4ED
  8
ﾚｲﾔ_1
 62
     5
 10
1283.3551432291999
 20
-58.8558286799
 30
0.0
 11
1285.8551432291999
 21
-58.8558286799
 31
0.0
  0
LINE
  5
4EE
  8
ﾚｲﾔ_1
 62
     5
 10
1294.8051432292
 20
-61.8558286799
 30
0.0
 11
1295.6051432291999
 21
-61.8558286799
 31
0.0
  0
LINE
  5
4EF
  8
ﾚｲﾔ_1
 62
     5
 10
1287.4051432291999
 20
-70.8558286799
 30
0.0
 11
1287.4051432291999
 21
-56.655828679899997
 31
0.0
  0
LINE
  5
4F0
  8
ﾚｲﾔ_1
 62
     5
 10
1294.8051432292
 20
-61.8558286799
 30
0.0
 11
1287.4051432291999
 21
-61.8558286799
 31
0.0
  0
LINE
  5
4F1
  8
ﾚｲﾔ_1
 62
     5
 10
1287.4051432291999
 20
-70.8558286799
 30
0.0
 11
1287.4051432291999
 21
-85.055828679900003
 31
0.0
  0
LINE
  5
4F2
  8
ﾚｲﾔ_1
 62
     5
 10
1285.8551432291999
 20
-59.3558286799
 30
0.0
 11
1285.8551432291999
 21
-56.8558286799
 31
0.0
  0
LINE
  5
4F3
  8
ﾚｲﾔ_1
 62
     5
 10
1283.3551432291999
 20
-56.8558286799
 30
0.0
 11
1285.8551432291999
 21
-56.8558286799
 31
0.0
  0
LINE
  5
4F4
  8
ﾚｲﾔ_1
 62
     5
 10
1294.8051432292
 20
-56.655828679899997
 30
0.0
 11
1294.8051432292
 21
-61.8558286799
 31
0.0
  0
LINE
  5
4F5
  8
ﾚｲﾔ_1
 62
     5
 10
1295.6051432291999
 20
-85.055828679900003
 30
0.0
 11
1295.6051432291999
 21
-79.8558286799
 31
0.0
  0
LINE
  5
4F6
  8
ﾚｲﾔ_1
 62
     5
 10
1286.6051432291999
 20
-56.655828679899997
 30
0.0
 11
1286.6051432291999
 21
-70.8558286799
 31
0.0
  0
LINE
  5
4F7
  8
ﾚｲﾔ_1
 62
     5
 10
1294.8051432292
 20
-55.8558286799
 30
0.0
 11
1287.4051432291999
 21
-55.8558286799
 31
0.0
  0
LINE
  5
4F8
  8
ﾚｲﾔ_1
 62
     5
 10
1287.4051432291999
 20
-85.055828679900003
 30
0.0
 11
1294.8051432292
 21
-85.055828679900003
 31
0.0
  0
LINE
  5
4F9
  8
ﾚｲﾔ_1
 62
     5
 10
1288.2051432292001
 20
-85.8558286799
 30
0.0
 11
1280.9051432291999
 21
-85.8558286799
 31
0.0
  0
LINE
  5
4FA
  8
ﾚｲﾔ_1
 62
     5
 10
1288.2051432292001
 20
-85.8558286799
 30
0.0
 11
1294.8051432292
 21
-85.8558286799
 31
0.0
  0
LINE
  5
4FB
  8
ﾚｲﾔ_1
 62
     5
 10
1294.8051432292
 20
-79.8558286799
 30
0.0
 11
1294.8051432292
 21
-85.055828679900003
 31
0.0
  0
INSERT
  5
4FD
  8
ﾚｲﾔ_1
  2
CLUMP37
 10
0.0
 20
0.0
 30
0.0
  0
INSERT
  5
505
  8
ﾚｲﾔ_1
  2
CLUMP38
 10
0.0
 20
0.0
 30
0.0
  0
LINE
  5
50C
  8
ﾚｲﾔ_1
  6
BORDER
 62
     3
 10
1259.1051432291999
 20
57.298533299299997
 30
0.0
 11
1259.1051432291999
 21
32.298533299299997
 31
0.0
  0
CIRCLE
  5
50D
  8
ﾚｲﾔ_1
 62
     5
 10
1259.1051432291999
 20
44.798533299299997
 30
0.0
 40
7.5
  0
LINE
  5
50E
  8
ﾚｲﾔ_1
 62
     5
 10
1363.9824247542999
 20
85.598533299300001
 30
0.0
 11
1363.9824247542999
 21
44.798533299299997
 31
0.0
  0
INSERT
  5
50F
  8
0
  6
CONTINUOUS
  2
*U169
 10
0.0
 20
0.0
 30
0.0
  0
LINE
  5
510
  8
ﾚｲﾔ_1
 62
     5
 10
1467.2694506014
 20
6.7989915513000003
 30
0.0
 11
1467.2694506014
 21
9.7989915513000003
 31
0.0
  0
LINE
  5
511
  8
ﾚｲﾔ_1
 10
714.60511014439987
 20
-79.8558286799
 30
0.0
 11
714.60511014439987
 21
-85.8558286799
 31
0.0
  0
LINE
  5
512
  8
ﾚｲﾔ_1
 10
697.60514322919994
 20
-61.8558286799
 30
0.0
 11
697.60514322919994
 21
-56.655828679899997
 31
0.0
  0
LINE
  5
513
  8
ﾚｲﾔ_1
 10
698.40514322920001
 20
-79.8558286799
 30
0.0
 11
697.60514322919994
 21
-79.8558286799
 31
0.0
  0
LINE
  5
514
  8
ﾚｲﾔ_1
 10
698.40514322920001
 20
-85.055828679900003
 30
0.0
 11
698.40514322920001
 21
-79.8558286799
 31
0.0
  0
ARC
  5
515
  8
ﾚｲﾔ_1
 10
698.40514322920001
 20
-56.655828679899997
 30
0.0
 40
0.8
 50
90.0
 51
180.0
  0
LINE
  5
516
  8
ﾚｲﾔ_1
 10
697.60514322919994
 20
-85.055828679900003
 30
0.0
 11
697.60514322919994
 21
-79.8558286799
 31
0.0
  0
ARC
  5
517
  8
ﾚｲﾔ_1
 10
698.40514322920001
 20
-85.055828679900003
 30
0.0
 40
0.8
 50
180.0
 51
270.0
  0
LINE
  5
518
  8
ﾚｲﾔ_1
 10
713.80514322919998
 20
-61.8558286799
 30
0.0
 11
713.80514322919998
 21
-85.055828679900003
 31
0.0
  0
ARC
  5
519
  8
ﾚｲﾔ_1
 10
705.80514322919998
 20
-85.055828679900003
 30
0.0
 40
0.8
 50
270.0
 51
0.0
  0
CIRCLE
  5
51A
  8
ﾚｲﾔ_1
 62
     5
 10
734.10514322919994
 20
44.798533299299997
 30
0.0
 40
7.5
  0
INSERT
  5
51C
  8
ﾚｲﾔ_1
  2
CLUMP39
 10
0.0
 20
0.0
 30
0.0
  0
LINE
  5
523
  8
ﾚｲﾔ_1
  6
BORDER
 62
     3
 10
734.10514322919994
 20
57.298533299299997
 30
0.0
 11
734.10514322919994
 21
32.298533299299997
 31
0.0
  0
INSERT
  5
525
  8
ﾚｲﾔ_1
  2
CLUMP40
 10
0.0
 20
0.0
 30
0.0
  0
LINE
  5
52C
  8
ﾚｲﾔ_1
  6
BORDER
 62
     3
 10
996.60514322919994
 20
-50.8558286799
 30
0.0
 11
996.60514322919994
 21
-90.8558286799
 31
0.0
  0
INSERT
  5
52E
  8
ﾚｲﾔ_1
  2
CLUMP41
 10
0.0
 20
0.0
 30
0.0
  0
INSERT
  5
536
  8
ﾚｲﾔ_1
  2
CLUMP42
 10
0.0
 20
0.0
 30
0.0
  0
INSERT
  5
53E
  8
ﾚｲﾔ_1
  2
CLUMP43
 10
0.0
 20
0.0
 30
0.0
  0
LINE
  5
545
  8
ﾚｲﾔ_1
 62
     5
 10
1295.6051432291999
 20
-79.8558286799
 30
0.0
 11
1294.8051432292
 21
-79.8558286799
 31
0.0
  0
LINE
  5
546
  8
ﾚｲﾔ_1
 62
     5
 10
1287.4051432291999
 20
-56.655828679899997
 30
0.0
 11
1294.8051432292
 21
-56.655828679899997
 31
0.0
  0
LINE
  5
547
  8
ﾚｲﾔ_1
 62
     5
 10
1295.6051432291999
 20
-61.8558286799
 30
0.0
 11
1295.6051432291999
 21
-56.655828679899997
 31
0.0
  0
ARC
  5
548
  8
ﾚｲﾔ_1
 62
     5
 10
1294.8051432292
 20
-56.655828679899997
 30
0.0
 40
0.8
 50
0.0
 51
90.0
  0
LINE
  5
549
  8
ﾚｲﾔ_1
 62
     5
 10
1285.8551432291999
 20
-59.3558286799
 30
0.0
 11
1285.8551432291999
 21
-65.8558286799
 31
0.0
  0
LINE
  5
54A
  8
ﾚｲﾔ_1
 62
     5
 10
1280.8551432291999
 20
-70.8558286799
 30
0.0
 11
1280.9051432291999
 21
-70.8558286799
 31
0.0
  0
ARC
  5
54B
  8
ﾚｲﾔ_1
 62
     5
 10
1280.8551432291999
 20
-65.8558286799
 30
0.0
 40
5.0
 50
270.0
 51
0.0
  0
ARC
  5
54C
  8
ﾚｲﾔ_1
 62
     5
 10
1294.8051432292
 20
-85.055828679900003
 30
0.0
 40
0.8
 50
270.0
 51
0.0
  0
INSERT
  5
54E
  8
ﾚｲﾔ_1
 62
     5
  2
CLUMP44
 10
0.0
 20
0.0
 30
0.0
  0
INSERT
  5
55B
  8
ﾚｲﾔ_1
 62
     5
  2
CLUMP45
 10
0.0
 20
0.0
 30
0.0
  0
INSERT
  5
579
  8
ﾚｲﾔ_1
 62
     5
  2
CLUMP46
 10
0.0
 20
0.0
 30
0.0
  0
LINE
  5
596
  8
ﾚｲﾔ_1
  6
BORDER
 62
     3
 10
1358.9824247542999
 20
44.798533299299997
 30
0.0
 11
1398.9824247542999
 21
44.798533299299997
 31
0.0
  0
INSERT
  5
598
  8
ﾚｲﾔ_1
  2
CLUMP47
 10
0.0
 20
0.0
 30
0.0
  0
INSERT
  5
5AC
  8
ﾚｲﾔ_1
  2
CLUMP50
 10
0.0
 20
0.0
 30
0.0
  0
LINE
  5
5BF
  8
ﾚｲﾔ_1
 62
     5
 10
697.60514322919994
 20
93.798533299300004
 30
0.0
 11
697.60514322919994
 21
-4.2014667007000002
 31
0.0
  0
LINE
  5
5C0
  8
ﾚｲﾔ_1
 62
     5
 10
706.60514322919994
 20
4.7985332992999989
 30
0.0
 11
706.60514322919994
 21
84.798533299300004
 31
0.0
  0
LINE
  5
5C1
  8
ﾚｲﾔ_1
 62
     5
 10
707.35514322919994
 20
5.2985332992999989
 30
0.0
 11
707.35514322919994
 21
84.298533299300004
 31
0.0
  0
INSERT
  5
5C3
  8
ﾚｲﾔ_1
  2
CLUMP53
 10
0.0
 20
0.0
 30
0.0
  0
INSERT
  5
5D7
  8
ﾚｲﾔ_1
  2
CLUMP56
 10
0.0
 20
0.0
 30
0.0
  0
INSERT
  5
5EB
  8
ﾚｲﾔ_1
  2
CLUMP59
 10
0.0
 20
0.0
 30
0.0
  0
LINE
  5
5FE
  8
ﾚｲﾔ_1
  6
BORDER
 62
     3
 10
996.60514322919994
 20
-9.2014667007000011
 30
0.0
 11
996.60514322919994
 21
98.798533299300004
 31
0.0
  0
INSERT
  5
600
  8
ﾚｲﾔ_1
  2
CLUMP62
 10
0.0
 20
0.0
 30
0.0
  0
LINE
  5
613
  8
ﾚｲﾔ_1
 62
     5
 10
1285.8551432291999
 20
5.2985332992999989
 30
0.0
 11
1285.8551432291999
 21
84.298533299300004
 31
0.0
  0
INSERT
  5
615
  8
ﾚｲﾔ_1
  2
CLUMP65
 10
0.0
 20
0.0
 30
0.0
  0
LINE
  5
628
  8
ﾚｲﾔ_1
 62
     5
 10
1286.6051432291999
 20
4.7985332992999989
 30
0.0
 11
1286.6051432291999
 21
84.798533299300004
 31
0.0
  0
LINE
  5
629
  8
ﾚｲﾔ_1
 62
     5
 10
1295.6051432291999
 20
93.798533299300004
 30
0.0
 11
1295.6051432291999
 21
-4.2014667007000002
 31
0.0
  0
LINE
  5
62A
  8
ﾚｲﾔ_1
 62
     5
 10
1363.9824247542999
 20
3.9985332993
 30
0.0
 11
1363.9824247542999
 21
44.798533299299997
 31
0.0
  0
LINE
  5
62B
  8
ﾚｲﾔ_1
 62
     5
 10
1442.2694506014
 20
3.9989915512999992
 30
0.0
 11
1442.2694506014
 21
85.598991551300003
 31
0.0
  0
LINE
  5
62C
  8
ﾚｲﾔ_1
 62
     5
 10
1497.2694506014
 20
80.598991551300003
 30
0.0
 11
1497.2694506014
 21
8.9989915512999996
 31
0.0
  0
INSERT
  5
62E
  8
ﾚｲﾔ_1
 62
     5
  2
CLUMP68
 10
0.0
 20
0.0
 30
0.0
  0
LINE
  5
63A
  8
ﾚｲﾔ_1
 62
     5
 10
1393.9824247542999
 20
10.4985332993
 30
0.0
 11
1393.9824247542999
 21
44.798533299299997
 31
0.0
  0
LINE
  5
63B
  8
ﾚｲﾔ_1
 10
705.80514322919998
 20
-61.8558286799
 30
0.0
 11
705.80514322919998
 21
-85.055828679900003
 31
0.0
  0
LINE
  5
63C
  8
ﾚｲﾔ_1
 10
714.60511014439987
 20
-85.055828679900003
 30
0.0
 11
698.40514322920001
 21
-85.055828679900003
 31
0.0
  0
LINE
  5
63D
  8
ﾚｲﾔ_1
  6
BORDER
 62
     3
 10
693.20436197920003
 20
44.798533299299997
 30
0.0
 11
1299.7723307291999
 21
44.798533299299997
 31
0.0
  0
LINE
  5
63E
  8
ﾚｲﾔ_1
 62
     5
 10
1285.8551432291999
 20
84.298533299300004
 30
0.0
 11
707.35514322919994
 21
84.298533299300004
 31
0.0
  0
LINE
  5
63F
  8
ﾚｲﾔ_1
 62
     5
 10
1285.8551432291999
 20
5.2985332992999989
 30
0.0
 11
707.35514322919994
 21
5.2985332992999989
 31
0.0
  0
LINE
  5
640
  8
ﾚｲﾔ_1
  6
STITCH
 10
1285.8551432291999
 20
82.798533299300004
 30
0.0
 11
707.35514322919994
 21
82.798533299300004
 31
0.0
  0
LINE
  5
641
  8
ﾚｲﾔ_1
  6
STITCH
 10
1285.8551432291999
 20
6.7985332992999989
 30
0.0
 11
707.35514322919994
 21
6.7985332992999989
 31
0.0
  0
LINE
  5
642
  8
ﾚｲﾔ_1
 62
     5
 10
1280.9051432291999
 20
-85.8558286799
 30
0.0
 11
996.60514322919994
 21
-85.8558286799
 31
0.0
  0
LINE
  5
643
  8
ﾚｲﾔ_1
 62
     5
 10
1287.4051432291999
 20
-55.8558286799
 30
0.0
 11
996.60514322919994
 21
-55.8558286799
 31
0.0
  0
LINE
  5
644
  8
ﾚｲﾔ_1
 62
     5
 10
1283.3551432291999
 20
-58.8558286799
 30
0.0
 11
996.60514322919994
 21
-58.8558286799
 31
0.0
  0
LINE
  5
645
  8
ﾚｲﾔ_1
 62
     5
 10
1286.6051432291999
 20
84.798533299300004
 30
0.0
 11
996.60514322919994
 21
84.798533299300004
 31
0.0
  0
LINE
  5
646
  8
ﾚｲﾔ_1
 62
     5
 10
1295.6051432291999
 20
93.798533299300004
 30
0.0
 11
996.60514322919994
 21
93.798533299300004
 31
0.0
  0
LINE
  5
647
  8
ﾚｲﾔ_1
 62
     5
 10
1286.6051432291999
 20
4.7985332992999989
 30
0.0
 11
996.60514322919994
 21
4.7985332992999989
 31
0.0
  0
LINE
  5
648
  8
ﾚｲﾔ_1
 62
     5
 10
1295.6051432291999
 20
-4.2014667007000002
 30
0.0
 11
996.60514322919994
 21
-4.2014667007000002
 31
0.0
  0
INSERT
  5
64A
  8
ﾚｲﾔ_1
  2
CLUMP69
 10
0.0
 20
0.0
 30
0.0
  0
LINE
  5
65D
  8
ﾚｲﾔ_1
 62
     5
 10
1286.6051432291999
 20
-70.8558286799
 30
0.0
 11
996.60514322919994
 21
-70.8558286799
 31
0.0
  0
LINE
  5
65E
  8
ﾚｲﾔ_1
 62
     5
 10
996.60514322919994
 20
-56.8558286799
 30
0.0
 11
1283.3551432291999
 21
-56.8558286799
 31
0.0
  0
LINE
  5
65F
  8
ﾚｲﾔ_1
 10
996.60514322919994
 20
-85.8558286799
 30
0.0
 11
698.40514322920001
 21
-85.8558286799
 31
0.0
  0
LINE
  5
660
  8
ﾚｲﾔ_1
 10
714.60511014439987
 20
-79.8558286799
 30
0.0
 11
996.60514322919994
 21
-79.8558286799
 31
0.0
  0
LINE
  5
661
  8
ﾚｲﾔ_1
 10
996.60514322919994
 20
-71.655828679899997
 30
0.0
 11
713.80514322919998
 21
-71.655828679899997
 31
0.0
  0
LINE
  5
662
  8
ﾚｲﾔ_1
 10
697.60514322919994
 20
-61.8558286799
 30
0.0
 11
996.60514322919994
 21
-61.8558286799
 31
0.0
  0
LINE
  5
663
  8
ﾚｲﾔ_1
 10
698.40514322920001
 20
-55.8558286799
 30
0.0
 11
996.60514322919994
 21
-55.8558286799
 31
0.0
  0
LINE
  5
664
  8
ﾚｲﾔ_1
 62
     5
 10
697.60514322919994
 20
93.798533299300004
 30
0.0
 11
996.60514322919994
 21
93.798533299300004
 31
0.0
  0
LINE
  5
665
  8
ﾚｲﾔ_1
 62
     5
 10
706.60514322919994
 20
84.798533299300004
 30
0.0
 11
996.60514322919994
 21
84.798533299300004
 31
0.0
  0
LINE
  5
666
  8
ﾚｲﾔ_1
 62
     5
 10
706.60514322919994
 20
4.7985332992999989
 30
0.0
 11
996.60514322919994
 21
4.7985332992999989
 31
0.0
  0
LINE
  5
667
  8
ﾚｲﾔ_1
 62
     5
 10
697.60514322919994
 20
-4.2014667007000002
 30
0.0
 11
996.60514322919994
 21
-4.2014667007000002
 31
0.0
  0
INSERT
  5
668
  8
0
  6
CONTINUOUS
  2
*U170
 10
0.0
 20
0.0
 30
0.0
  0
ENDSEC
  0
EOF
